  0
SECTION
  2
HEADER
  9
$ACADVER
  1
AC1014
  9
$ACADMAINTVER
 70
     9
  9
$DWGCODEPAGE
  3
ANSI_932
  9
$INSBASE
 10
0.0
 20
0.0
 30
0.0
  9
$EXTMIN
 10
20.0
 20
20.0
 30
0.0
  9
$EXTMAX
 10
820.0
 20
574.0
 30
0.0
  9
$LIMMIN
 10
0.0
 20
0.0
  9
$LIMMAX
 10
420.0
 20
297.0
  9
$ORTHOMODE
 70
     0
  9
$REGENMODE
 70
     1
  9
$FILLMODE
 70
     1
  9
$QTEXTMODE
 70
     0
  9
$MIRRTEXT
 70
     1
  9
$DRAGMODE
 70
     2
  9
$LTSCALE
 40
1.0
  9
$OSMODE
 70
    37
  9
$ATTMODE
 70
     1
  9
$TEXTSIZE
 40
2.5
  9
$TRACEWID
 40
1.0
  9
$TEXTSTYLE
  7
STANDARD
  9
$CLAYER
  8
Ｓ_１_１
  9
$CELTYPE
  6
BYLAYER
  9
$CECOLOR
 62
   256
  9
$CELTSCALE
 40
1.0
  9
$DELOBJ
 70
     1
  9
$DISPSILH
 70
     0
  9
$DIMSCALE
 40
1.0
  9
$DIMASZ
 40
2.5
  9
$DIMEXO
 40
0.625
  9
$DIMDLI
 40
3.75
  9
$DIMRND
 40
0.0
  9
$DIMDLE
 40
0.0
  9
$DIMEXE
 40
1.25
  9
$DIMTP
 40
0.0
  9
$DIMTM
 40
0.0
  9
$DIMTXT
 40
2.5
  9
$DIMCEN
 40
2.5
  9
$DIMTSZ
 40
0.0
  9
$DIMTOL
 70
     0
  9
$DIMLIM
 70
     0
  9
$DIMTIH
 70
     0
  9
$DIMTOH
 70
     0
  9
$DIMSE1
 70
     0
  9
$DIMSE2
 70
     0
  9
$DIMTAD
 70
     1
  9
$DIMZIN
 70
     8
  9
$DIMBLK
  1

  9
$DIMASO
 70
     1
  9
$DIMSHO
 70
     1
  9
$DIMPOST
  1

  9
$DIMAPOST
  1

  9
$DIMALT
 70
     0
  9
$DIMALTD
 70
     3
  9
$DIMALTF
 40
0.03937007874016
  9
$DIMLFAC
 40
1.0
  9
$DIMTOFL
 70
     1
  9
$DIMTVP
 40
0.0
  9
$DIMTIX
 70
     0
  9
$DIMSOXD
 70
     0
  9
$DIMSAH
 70
     0
  9
$DIMBLK1
  1

  9
$DIMBLK2
  1

  9
$DIMSTYLE
  2
ISO-25
  9
$DIMCLRD
 70
     0
  9
$DIMCLRE
 70
     0
  9
$DIMCLRT
 70
     0
  9
$DIMTFAC
 40
1.0
  9
$DIMGAP
 40
0.625
  9
$DIMJUST
 70
     0
  9
$DIMSD1
 70
     0
  9
$DIMSD2
 70
     0
  9
$DIMTOLJ
 70
     0
  9
$DIMTZIN
 70
     8
  9
$DIMALTZ
 70
     0
  9
$DIMALTTZ
 70
     0
  9
$DIMFIT
 70
     3
  9
$DIMUPT
 70
     0
  9
$DIMUNIT
 70
     2
  9
$DIMDEC
 70
     2
  9
$DIMTDEC
 70
     2
  9
$DIMALTU
 70
     2
  9
$DIMALTTD
 70
     3
  9
$DIMTXSTY
  7
STANDARD
  9
$DIMAUNIT
 70
     0
  9
$LUNITS
 70
     2
  9
$LUPREC
 70
     4
  9
$SKETCHINC
 40
1.0
  9
$FILLETRAD
 40
10.0
  9
$AUNITS
 70
     0
  9
$AUPREC
 70
     0
  9
$MENU
  1
.
  9
$ELEVATION
 40
0.0
  9
$PELEVATION
 40
0.0
  9
$THICKNESS
 40
0.0
  9
$LIMCHECK
 70
     0
  9
$CHAMFERA
 40
0.0
  9
$CHAMFERB
 40
0.0
  9
$CHAMFERC
 40
0.0
  9
$CHAMFERD
 40
0.0
  9
$SKPOLY
 70
     0
  9
$TDCREATE
 40
2459591.543161852
  9
$TDUPDATE
 40
2459591.54316265
  9
$TDINDWG
 40
0.0000000116
  9
$TDUSRTIMER
 40
0.0000000116
  9
$USRTIMER
 70
     1
  9
$ANGBASE
 50
0.0
  9
$ANGDIR
 70
     0
  9
$PDMODE
 70
     0
  9
$PDSIZE
 40
0.0
  9
$PLINEWID
 40
0.0
  9
$COORDS
 70
     1
  9
$SPLFRAME
 70
     0
  9
$SPLINETYPE
 70
     6
  9
$SPLINESEGS
 70
     8
  9
$ATTDIA
 70
     0
  9
$ATTREQ
 70
     1
  9
$HANDLING
 70
     1
  9
$HANDSEED
  5
2DB
  9
$SURFTAB1
 70
     6
  9
$SURFTAB2
 70
     6
  9
$SURFTYPE
 70
     6
  9
$SURFU
 70
     6
  9
$SURFV
 70
     6
  9
$UCSNAME
  2

  9
$UCSORG
 10
0.0
 20
0.0
 30
0.0
  9
$UCSXDIR
 10
1.0
 20
0.0
 30
0.0
  9
$UCSYDIR
 10
0.0
 20
1.0
 30
0.0
  9
$PUCSNAME
  2

  9
$PUCSORG
 10
0.0
 20
0.0
 30
0.0
  9
$PUCSXDIR
 10
1.0
 20
0.0
 30
0.0
  9
$PUCSYDIR
 10
0.0
 20
1.0
 30
0.0
  9
$USERI1
 70
     0
  9
$USERI2
 70
     0
  9
$USERI3
 70
     0
  9
$USERI4
 70
     0
  9
$USERI5
 70
     0
  9
$USERR1
 40
0.0
  9
$USERR2
 40
0.0
  9
$USERR3
 40
0.0
  9
$USERR4
 40
0.0
  9
$USERR5
 40
0.0
  9
$WORLDVIEW
 70
     1
  9
$SHADEDGE
 70
     3
  9
$SHADEDIF
 70
    70
  9
$TILEMODE
 70
     1
  9
$MAXACTVP
 70
    64
  9
$PINSBASE
 10
0.0
 20
0.0
 30
0.0
  9
$PLIMCHECK
 70
     0
  9
$PEXTMIN
 10
1.000000000000000E+20
 20
1.000000000000000E+20
 30
1.000000000000000E+20
  9
$PEXTMAX
 10
-1.000000000000000E+20
 20
-1.000000000000000E+20
 30
-1.000000000000000E+20
  9
$PLIMMIN
 10
0.0
 20
0.0
  9
$PLIMMAX
 10
420.0
 20
297.0
  9
$UNITMODE
 70
     0
  9
$VISRETAIN
 70
     1
  9
$PLINEGEN
 70
     0
  9
$PSLTSCALE
 70
     1
  9
$TREEDEPTH
 70
  3020
  9
$PICKSTYLE
 70
     1
  9
$CMLSTYLE
  2
STANDARD
  9
$CMLJUST
 70
     0
  9
$CMLSCALE
 40
20.0
  9
$PROXYGRAPHICS
 70
     1
  9
$MEASUREMENT
 70
     1
  0
ENDSEC
  0
SECTION
  2
CLASSES
  0
CLASS
  1
ACDBDICTIONARYWDFLT
  2
AcDbDictionaryWithDefault
  3
ObjectDBX Classes
 90
        0
280
     0
281
     0
  0
CLASS
  1
VISUALSTYLE
  2
AcDbVisualStyle
  3
ObjectDBX Classes
 90
     4095
280
     0
281
     0
  0
CLASS
  1
MATERIAL
  2
AcDbMaterial
  3
ObjectDBX Classes
 90
     1153
280
     0
281
     0
  0
CLASS
  1
SCALE
  2
AcDbScale
  3
ObjectDBX Classes
 90
     1153
280
     0
281
     0
  0
CLASS
  1
TABLESTYLE
  2
AcDbTableStyle
  3
ObjectDBX Classes
 90
     4095
280
     0
281
     0
  0
CLASS
  1
MLEADERSTYLE
  2
AcDbMLeaderStyle
  3
ACDB_MLEADERSTYLE_CLASS
 90
     4095
280
     0
281
     0
  0
CLASS
  1
SUN
  2
AcDbSun
  3
SCENEOE
 90
     1153
280
     0
281
     0
  0
CLASS
  1
DICTIONARYVAR
  2
AcDbDictionaryVar
  3
ObjectDBX Classes
 90
        0
280
     0
281
     0
  0
CLASS
  1
XRECORD
  2
AcDbXrecord
  3
ObjectDBX Classes
 90
        0
280
     0
281
     0
  0
CLASS
  1
LWPOLYLINE
  2
AcDbPolyline
  3
ObjectDBX Classes
 90
        0
280
     0
281
     1
  0
CLASS
  1
HATCH
  2
AcDbHatch
  3
ObjectDBX Classes
 90
        0
280
     0
281
     1
  0
CLASS
  1
ACDBPLACEHOLDER
  2
AcDbPlaceHolder
  3
ObjectDBX Classes
 90
        0
280
     0
281
     0
  0
CLASS
  1
LAYOUT
  2
AcDbLayout
  3
ObjectDBX Classes
 90
        0
280
     0
281
     0
  0
ENDSEC
  0
SECTION
  2
TABLES
  0
TABLE
  2
VPORT
  5
8
102
{ACAD_XDICTIONARY
360
2D0
102
}
330
0
100
AcDbSymbolTable
 70
     1
  0
VPORT
  5
29
330
8
100
AcDbSymbolTableRecord
100
AcDbViewportTableRecord
  2
*ACTIVE
 70
     0
 10
0.0
 20
0.0
 11
1.0
 21
1.0
 12
420.0
 22
297.0
 13
0.0
 23
0.0
 14
10.0
 24
10.0
 15
10.0
 25
10.0
 16
0.0
 26
0.0
 36
1.0
 17
0.0
 27
0.0
 37
0.0
 40
554.0
 41
1.444043321299639
 42
50.0
 43
0.0
 44
0.0
 50
0.0
 51
0.0
 71
     0
 72
  1000
 73
     1
 74
     3
 75
     0
 76
     0
 77
     0
 78
     0
  0
ENDTAB
  0
TABLE
  2
LTYPE
  5
5
330
0
100
AcDbSymbolTable
 70
     7
  0
LTYPE
  5
14
330
5
100
AcDbSymbolTableRecord
100
AcDbLinetypeTableRecord
  2
BYBLOCK
 70
     0
  3

 72
    65
 73
     0
 40
0.0
  0
LTYPE
  5
15
330
5
100
AcDbSymbolTableRecord
100
AcDbLinetypeTableRecord
  2
BYLAYER
 70
     0
  3

 72
    65
 73
     0
 40
0.0
  0
LTYPE
  5
16
330
5
100
AcDbSymbolTableRecord
100
AcDbLinetypeTableRecord
  2
CONTINUOUS
 70
     0
  3
Solid line
 72
    65
 73
     0
 40
0.0
  0
LTYPE
  5
6E
330
5
100
AcDbSymbolTableRecord
100
AcDbLinetypeTableRecord
  2
EXLTYPE0
 70
     0
  3
破線
 72
    65
 73
     2
 40
4.0
 49
3.0
 74
     0
 49
-1.0
 74
     0
  0
LTYPE
  5
6F
330
5
100
AcDbSymbolTableRecord
100
AcDbLinetypeTableRecord
  2
EXLTYPE1
 70
     0
  3
点線
 72
    65
 73
     2
 40
2.0
 49
1.0
 74
     0
 49
-1.0
 74
     0
  0
LTYPE
  5
70
330
5
100
AcDbSymbolTableRecord
100
AcDbLinetypeTableRecord
  2
EXLTYPE2
 70
     0
  3
一点鎖線
 72
    65
 73
     4
 40
13.0
 49
10.0
 74
     0
 49
-1.0
 74
     0
 49
1.0
 74
     0
 49
-1.0
 74
     0
  0
LTYPE
  5
71
330
5
100
AcDbSymbolTableRecord
100
AcDbLinetypeTableRecord
  2
EXLTYPE3
 70
     0
  3
二点鎖線
 72
    65
 73
     6
 40
15.0
 49
10.0
 74
     0
 49
-1.0
 74
     0
 49
1.0
 74
     0
 49
-1.0
 74
     0
 49
1.0
 74
     0
 49
-1.0
 74
     0
  0
LTYPE
  5
72
330
5
100
AcDbSymbolTableRecord
100
AcDbLinetypeTableRecord
  2
EXLTYPE4
 70
     0
  3
一点鎖線2
 72
    65
 73
     4
 40
3.5
 49
2.0
 74
     0
 49
-0.5
 74
     0
 49
0.5
 74
     0
 49
-0.5
 74
     0
  0
LTYPE
  5
73
330
5
100
AcDbSymbolTableRecord
100
AcDbLinetypeTableRecord
  2
EXLTYPE5
 70
     0
  3
二点鎖線2
 72
    65
 73
     6
 40
4.5
 49
2.0
 74
     0
 49
-0.5
 74
     0
 49
0.5
 74
     0
 49
-0.5
 74
     0
 49
0.5
 74
     0
 49
-0.5
 74
     0
  0
ENDTAB
  0
TABLE
  2
LAYER
  5
2
330
0
100
AcDbSymbolTable
 70
     4
  0
LAYER
  5
10
330
2
100
AcDbSymbolTableRecord
100
AcDbLayerTableRecord
  2
0
 70
     0
 62
     7
  6
CONTINUOUS
  0
LAYER
  5
76
330
2
100
AcDbSymbolTableRecord
100
AcDbLayerTableRecord
  2
図面枠
 70
     4
 62
     7
  6
CONTINUOUS
  0
LAYER
  5
77
330
2
100
AcDbSymbolTableRecord
100
AcDbLayerTableRecord
  2
Ｓ_１_１
 70
     0
 62
     7
  6
CONTINUOUS
  0
LAYER
  5
115
330
2
100
AcDbSymbolTableRecord
100
AcDbLayerTableRecord
  2
DEFPOINTS
 70
     0
 62
     7
  6
CONTINUOUS
  0
ENDTAB
  0
TABLE
  2
STYLE
  5
3
330
0
100
AcDbSymbolTable
 70
     5
  0
STYLE
  5
11
330
3
100
AcDbSymbolTableRecord
100
AcDbTextStyleTableRecord
  2
STANDARD
 70
     0
 40
0.0
 41
1.0
 50
0.0
 71
     0
 42
2.5
  3
monotxt
  4
extfont
  0
STYLE
  5
74
330
3
100
AcDbSymbolTableRecord
100
AcDbTextStyleTableRecord
  2
EXCADSTD
 70
     0
 40
0.0
 41
1.0
 50
0.0
 71
     0
 42
2.5
  3
monotxt
  4
extfont
  0
STYLE
  5
75
330
3
100
AcDbSymbolTableRecord
100
AcDbTextStyleTableRecord
  2
EXCADVERT
 70
     4
 40
0.0
 41
1.0
 50
0.0
 71
     0
 42
2.5
  3
monotxt
  4
extfont
  0
STYLE
  5
D8
330
3
100
AcDbSymbolTableRecord
100
AcDbTextStyleTableRecord
  2
EXCADTTF1
 70
     0
 40
0.0
 41
1.0
 50
0.0
 71
     0
 42
2.5
  3
msgothic.ttc
  4

1001
ACAD
1000
MS Gothic
1071
    32817
  0
STYLE
  5
113
330
3
100
AcDbSymbolTableRecord
100
AcDbTextStyleTableRecord
  2
EXCADDIM1
 70
     0
 40
0.0
 41
1.0
 50
0.0
 71
     0
 42
2.5
  3
msgothic.ttc
  4

1001
ACAD
1000
MS Gothic
1071
    32817
  0
ENDTAB
  0
TABLE
  2
VIEW
  5
6
330
0
100
AcDbSymbolTable
 70
     0
  0
ENDTAB
  0
TABLE
  2
UCS
  5
7
330
0
100
AcDbSymbolTable
 70
     0
  0
ENDTAB
  0
TABLE
  2
APPID
  5
9
330
0
100
AcDbSymbolTable
 70
     2
  0
APPID
  5
12
330
9
100
AcDbSymbolTableRecord
100
AcDbRegAppTableRecord
  2
ACAD
 70
     0
  0
APPID
  5
2DA
330
9
100
AcDbSymbolTableRecord
100
AcDbRegAppTableRecord
  2
ACAD_MLEADERVER
 70
     0
  0
ENDTAB
  0
TABLE
  2
DIMSTYLE
  5
A
330
0
100
AcDbSymbolTable
 70
     1
  0
DIMSTYLE
105
27
102
{ACAD_REACTORS
330
114
330
122
330
12E
330
139
330
145
330
153
330
15E
330
16B
330
178
330
185
330
192
330
1FC
330
292
102
}
330
A
100
AcDbSymbolTableRecord
100
AcDbDimStyleTableRecord
  2
ISO-25
 70
     0
  3

  4

  5

  6

  7

 40
1.0
 41
2.5
 42
0.625
 43
3.75
 44
1.25
 45
0.0
 46
0.0
 47
0.0
 48
0.0
140
2.5
141
2.5
142
0.0
143
0.03937007874016
144
1.0
145
0.0
146
1.0
147
0.625
 71
     0
 72
     0
 73
     0
 74
     0
 75
     0
 76
     0
 77
     1
 78
     8
170
     0
171
     3
172
     1
173
     0
174
     0
175
     0
176
     0
177
     0
178
     0
270
     2
271
     2
272
     2
273
     2
274
     3
340
11
275
     0
280
     0
281
     0
282
     0
283
     0
284
     8
285
     0
286
     0
287
     5
288
     0
  0
ENDTAB
  0
TABLE
  2
BLOCK_RECORD
  5
1
330
0
100
AcDbSymbolTable
 70
    27
  0
BLOCK_RECORD
  5
1F
330
1
100
AcDbSymbolTableRecord
100
AcDbBlockTableRecord
  2
*MODEL_SPACE
  0
BLOCK_RECORD
  5
1B
330
1
100
AcDbSymbolTableRecord
100
AcDbBlockTableRecord
  2
*PAPER_SPACE
  0
BLOCK_RECORD
  5
78
330
1
100
AcDbSymbolTableRecord
100
AcDbBlockTableRecord
  2
EX_NORM
  0
BLOCK_RECORD
  5
7B
330
1
100
AcDbSymbolTableRecord
100
AcDbBlockTableRecord
  2
EX_BNORM
  0
BLOCK_RECORD
  5
7E
330
1
100
AcDbSymbolTableRecord
100
AcDbBlockTableRecord
  2
EX_BCIR
  0
BLOCK_RECORD
  5
81
330
1
100
AcDbSymbolTableRecord
100
AcDbBlockTableRecord
  2
EX_RCIVIL
  0
BLOCK_RECORD
  5
84
330
1
100
AcDbSymbolTableRecord
100
AcDbBlockTableRecord
  2
EX_SLANT
  0
BLOCK_RECORD
  5
87
330
1
100
AcDbSymbolTableRecord
100
AcDbBlockTableRecord
  2
EX_NONE
  0
BLOCK_RECORD
  5
8A
330
1
100
AcDbSymbolTableRecord
100
AcDbBlockTableRecord
  2
EX_CIVIL
  0
BLOCK_RECORD
  5
8D
330
1
100
AcDbSymbolTableRecord
100
AcDbBlockTableRecord
  2
EX_WCIR
  0
BLOCK_RECORD
  5
90
330
1
100
AcDbSymbolTableRecord
100
AcDbBlockTableRecord
  2
EX_WCIR2
  0
BLOCK_RECORD
  5
93
330
1
100
AcDbSymbolTableRecord
100
AcDbBlockTableRecord
  2
EX_WNORM
  0
BLOCK_RECORD
  5
96
330
1
100
AcDbSymbolTableRecord
100
AcDbBlockTableRecord
  2
EX_NNORM
  0
BLOCK_RECORD
  5
99
330
1
100
AcDbSymbolTableRecord
100
AcDbBlockTableRecord
  2
EX_BBOX
  0
BLOCK_RECORD
  5
9C
330
1
100
AcDbSymbolTableRecord
100
AcDbBlockTableRecord
  2
EX_WBOX
  0
BLOCK_RECORD
  5
9F
330
1
100
AcDbSymbolTableRecord
100
AcDbBlockTableRecord
  2
EX_INTEGRAL
  0
BLOCK_RECORD
  5
116
330
1
100
AcDbSymbolTableRecord
100
AcDbBlockTableRecord
  2
*D15
  0
BLOCK_RECORD
  5
123
330
1
100
AcDbSymbolTableRecord
100
AcDbBlockTableRecord
  2
*D16
  0
BLOCK_RECORD
  5
12F
330
1
100
AcDbSymbolTableRecord
100
AcDbBlockTableRecord
  2
*D17
  0
BLOCK_RECORD
  5
13A
330
1
100
AcDbSymbolTableRecord
100
AcDbBlockTableRecord
  2
*D18
  0
BLOCK_RECORD
  5
146
330
1
100
AcDbSymbolTableRecord
100
AcDbBlockTableRecord
  2
*D19
  0
BLOCK_RECORD
  5
154
330
1
100
AcDbSymbolTableRecord
100
AcDbBlockTableRecord
  2
*D20
  0
BLOCK_RECORD
  5
15F
330
1
100
AcDbSymbolTableRecord
100
AcDbBlockTableRecord
  2
*D21
  0
BLOCK_RECORD
  5
16C
330
1
100
AcDbSymbolTableRecord
100
AcDbBlockTableRecord
  2
*D22
  0
BLOCK_RECORD
  5
179
330
1
100
AcDbSymbolTableRecord
100
AcDbBlockTableRecord
  2
*D23
  0
BLOCK_RECORD
  5
186
330
1
100
AcDbSymbolTableRecord
100
AcDbBlockTableRecord
  2
*D24
  0
BLOCK_RECORD
  5
193
330
1
100
AcDbSymbolTableRecord
100
AcDbBlockTableRecord
  2
*D25
  0
BLOCK_RECORD
  5
1FD
330
1
100
AcDbSymbolTableRecord
100
AcDbBlockTableRecord
  2
*D26
  0
BLOCK_RECORD
  5
293
330
1
100
AcDbSymbolTableRecord
100
AcDbBlockTableRecord
  2
*D27
  0
ENDTAB
  0
ENDSEC
  0
SECTION
  2
BLOCKS
  0
BLOCK
  5
20
330
1F
100
AcDbEntity
  8
0
100
AcDbBlockBegin
  2
*MODEL_SPACE
 70
     0
 10
0.0
 20
0.0
 30
0.0
  3
*MODEL_SPACE
  1

  0
ENDBLK
  5
21
330
1F
100
AcDbEntity
  8
0
100
AcDbBlockEnd
  0
BLOCK
  5
1C
330
1B
100
AcDbEntity
 67
     1
  8
0
100
AcDbBlockBegin
  2
*PAPER_SPACE
 70
     0
 10
0.0
 20
0.0
 30
0.0
  3
*PAPER_SPACE
  1

  0
ENDBLK
  5
1D
330
1B
100
AcDbEntity
 67
     1
  8
0
100
AcDbBlockEnd
  0
BLOCK
  5
79
330
78
100
AcDbEntity
  8
0
100
AcDbBlockBegin
  2
EX_NORM
 70
     0
 10
0.0
 20
0.0
 30
0.0
  3
EX_NORM
  1

  0
LINE
  5
A2
330
78
100
AcDbEntity
  8
0
  6
CONTINUOUS
 62
     0
100
AcDbLine
 10
0.0
 20
0.0
 30
0.0
 11
-1.0
 21
0.0
 31
0.0
  0
LINE
  5
A3
330
78
100
AcDbEntity
  8
0
  6
CONTINUOUS
 62
     0
100
AcDbLine
 10
0.0
 20
0.0
 30
0.0
 11
-1.0
 21
0.166666667
 31
0.0
  0
LINE
  5
A4
330
78
100
AcDbEntity
  8
0
  6
CONTINUOUS
 62
     0
100
AcDbLine
 10
0.0
 20
0.0
 30
0.0
 11
-1.0
 21
-0.166666667
 31
0.0
  0
ENDBLK
  5
7A
330
78
100
AcDbEntity
  8
0
100
AcDbBlockEnd
  0
BLOCK
  5
7C
330
7B
100
AcDbEntity
  8
0
100
AcDbBlockBegin
  2
EX_BNORM
 70
     0
 10
0.0
 20
0.0
 30
0.0
  3
EX_BNORM
  1

  0
LINE
  5
A5
330
7B
100
AcDbEntity
  8
0
  6
CONTINUOUS
 62
     0
100
AcDbLine
 10
0.0
 20
0.0
 30
0.0
 11
-1.0
 21
0.0
 31
0.0
  0
LINE
  5
A6
330
7B
100
AcDbEntity
  8
0
  6
CONTINUOUS
 62
     0
100
AcDbLine
 10
0.0
 20
0.0
 30
0.0
 11
-1.0
 21
0.166666667
 31
0.0
  0
LINE
  5
A7
330
7B
100
AcDbEntity
  8
0
  6
CONTINUOUS
 62
     0
100
AcDbLine
 10
0.0
 20
0.0
 30
0.0
 11
-1.0
 21
-0.166666667
 31
0.0
  0
LINE
  5
A8
330
7B
100
AcDbEntity
  8
0
  6
CONTINUOUS
 62
     0
100
AcDbLine
 10
0.0
 20
0.0
 30
0.0
 11
-1.0
 21
0.083333333
 31
0.0
  0
LINE
  5
A9
330
7B
100
AcDbEntity
  8
0
  6
CONTINUOUS
 62
     0
100
AcDbLine
 10
0.0
 20
0.0
 30
0.0
 11
-1.0
 21
-0.083333333
 31
0.0
  0
LINE
  5
AA
330
7B
100
AcDbEntity
  8
0
  6
CONTINUOUS
 62
     0
100
AcDbLine
 10
-1.0
 20
0.166666667
 30
0.0
 11
-1.0
 21
-0.166666667
 31
0.0
  0
ENDBLK
  5
7D
330
7B
100
AcDbEntity
  8
0
100
AcDbBlockEnd
  0
BLOCK
  5
7F
330
7E
100
AcDbEntity
  8
0
100
AcDbBlockBegin
  2
EX_BCIR
 70
     0
 10
0.0
 20
0.0
 30
0.0
  3
EX_BCIR
  1

  0
LINE
  5
AB
330
7E
100
AcDbEntity
  8
0
  6
CONTINUOUS
 62
     0
100
AcDbLine
 10
0.0
 20
0.0
 30
0.0
 11
-1.0
 21
0.0
 31
0.0
  0
CIRCLE
  5
AC
330
7E
100
AcDbEntity
  8
0
  6
CONTINUOUS
 62
     0
100
AcDbCircle
 10
0.0
 20
0.0
 30
0.0
 40
0.5
  0
CIRCLE
  5
AD
330
7E
100
AcDbEntity
  8
0
  6
CONTINUOUS
 62
     0
100
AcDbCircle
 10
0.0
 20
0.0
 30
0.0
 40
0.25
  0
ENDBLK
  5
80
330
7E
100
AcDbEntity
  8
0
100
AcDbBlockEnd
  0
BLOCK
  5
82
330
81
100
AcDbEntity
  8
0
100
AcDbBlockBegin
  2
EX_RCIVIL
 70
     0
 10
0.0
 20
0.0
 30
0.0
  3
EX_RCIVIL
  1

  0
LINE
  5
AE
330
81
100
AcDbEntity
  8
0
  6
CONTINUOUS
 62
     0
100
AcDbLine
 10
0.0
 20
0.0
 30
0.0
 11
-1.0
 21
0.0
 31
0.0
  0
LINE
  5
AF
330
81
100
AcDbEntity
  8
0
  6
CONTINUOUS
 62
     0
100
AcDbLine
 10
-1.0
 20
-0.25
 30
0.0
 11
0.0
 21
-0.25
 31
0.0
  0
LINE
  5
B0
330
81
100
AcDbEntity
  8
0
  6
CONTINUOUS
 62
     0
100
AcDbLine
 10
-1.0
 20
-0.125
 30
0.0
 11
0.0
 21
-0.125
 31
0.0
  0
ENDBLK
  5
83
330
81
100
AcDbEntity
  8
0
100
AcDbBlockEnd
  0
BLOCK
  5
85
330
84
100
AcDbEntity
  8
0
100
AcDbBlockBegin
  2
EX_SLANT
 70
     0
 10
0.0
 20
0.0
 30
0.0
  3
EX_SLANT
  1

  0
LINE
  5
B1
330
84
100
AcDbEntity
  8
0
  6
CONTINUOUS
 62
     0
100
AcDbLine
 10
0.0
 20
0.0
 30
0.0
 11
-1.0
 21
0.0
 31
0.0
  0
LINE
  5
B2
330
84
100
AcDbEntity
  8
0
  6
CONTINUOUS
 62
     0
100
AcDbLine
 10
0.707106781
 20
0.707106781
 30
0.0
 11
-0.707106781
 21
-0.707106781
 31
0.0
  0
ENDBLK
  5
86
330
84
100
AcDbEntity
  8
0
100
AcDbBlockEnd
  0
BLOCK
  5
88
330
87
100
AcDbEntity
  8
0
100
AcDbBlockBegin
  2
EX_NONE
 70
     0
 10
0.0
 20
0.0
 30
0.0
  3
EX_NONE
  1

  0
LINE
  5
B3
330
87
100
AcDbEntity
  8
0
  6
CONTINUOUS
 62
     0
100
AcDbLine
 10
0.0
 20
0.0
 30
0.0
 11
-1.0
 21
0.0
 31
0.0
  0
ENDBLK
  5
89
330
87
100
AcDbEntity
  8
0
100
AcDbBlockEnd
  0
BLOCK
  5
8B
330
8A
100
AcDbEntity
  8
0
100
AcDbBlockBegin
  2
EX_CIVIL
 70
     0
 10
0.0
 20
0.0
 30
0.0
  3
EX_CIVIL
  1

  0
LINE
  5
B4
330
8A
100
AcDbEntity
  8
0
  6
CONTINUOUS
 62
     0
100
AcDbLine
 10
0.0
 20
0.0
 30
0.0
 11
-1.0
 21
0.0
 31
0.0
  0
LINE
  5
B5
330
8A
100
AcDbEntity
  8
0
  6
CONTINUOUS
 62
     0
100
AcDbLine
 10
-1.0
 20
0.25
 30
0.0
 11
0.0
 21
0.25
 31
0.0
  0
LINE
  5
B6
330
8A
100
AcDbEntity
  8
0
  6
CONTINUOUS
 62
     0
100
AcDbLine
 10
-1.0
 20
0.125
 30
0.0
 11
0.0
 21
0.125
 31
0.0
  0
ENDBLK
  5
8C
330
8A
100
AcDbEntity
  8
0
100
AcDbBlockEnd
  0
BLOCK
  5
8E
330
8D
100
AcDbEntity
  8
0
100
AcDbBlockBegin
  2
EX_WCIR
 70
     0
 10
0.0
 20
0.0
 30
0.0
  3
EX_WCIR
  1

  0
LINE
  5
B7
330
8D
100
AcDbEntity
  8
0
  6
CONTINUOUS
 62
     0
100
AcDbLine
 10
0.0
 20
0.0
 30
0.0
 11
-1.0
 21
0.0
 31
0.0
  0
CIRCLE
  5
B8
330
8D
100
AcDbEntity
  8
0
  6
CONTINUOUS
 62
     0
100
AcDbCircle
 10
0.0
 20
0.0
 30
0.0
 40
0.5
  0
ENDBLK
  5
8F
330
8D
100
AcDbEntity
  8
0
100
AcDbBlockEnd
  0
BLOCK
  5
91
330
90
100
AcDbEntity
  8
0
100
AcDbBlockBegin
  2
EX_WCIR2
 70
     0
 10
0.0
 20
0.0
 30
0.0
  3
EX_WCIR2
  1

  0
LINE
  5
B9
330
90
100
AcDbEntity
  8
0
  6
CONTINUOUS
 62
     0
100
AcDbLine
 10
-0.5
 20
0.0
 30
0.0
 11
-1.0
 21
0.0
 31
0.0
  0
CIRCLE
  5
BA
330
90
100
AcDbEntity
  8
0
  6
CONTINUOUS
 62
     0
100
AcDbCircle
 10
0.0
 20
0.0
 30
0.0
 40
0.5
  0
ENDBLK
  5
92
330
90
100
AcDbEntity
  8
0
100
AcDbBlockEnd
  0
BLOCK
  5
94
330
93
100
AcDbEntity
  8
0
100
AcDbBlockBegin
  2
EX_WNORM
 70
     0
 10
0.0
 20
0.0
 30
0.0
  3
EX_WNORM
  1

  0
LINE
  5
BB
330
93
100
AcDbEntity
  8
0
  6
CONTINUOUS
 62
     0
100
AcDbLine
 10
-1.0
 20
0.0
 30
0.0
 11
-1.0
 21
0.0
 31
0.0
  0
LINE
  5
BC
330
93
100
AcDbEntity
  8
0
  6
CONTINUOUS
 62
     0
100
AcDbLine
 10
0.0
 20
0.0
 30
0.0
 11
-1.0
 21
0.166666667
 31
0.0
  0
LINE
  5
BD
330
93
100
AcDbEntity
  8
0
  6
CONTINUOUS
 62
     0
100
AcDbLine
 10
0.0
 20
0.0
 30
0.0
 11
-1.0
 21
-0.166666667
 31
0.0
  0
LINE
  5
BE
330
93
100
AcDbEntity
  8
0
  6
CONTINUOUS
 62
     0
100
AcDbLine
 10
-1.0
 20
0.166666667
 30
0.0
 11
-1.0
 21
-0.166666667
 31
0.0
  0
ENDBLK
  5
95
330
93
100
AcDbEntity
  8
0
100
AcDbBlockEnd
  0
BLOCK
  5
97
330
96
100
AcDbEntity
  8
0
100
AcDbBlockBegin
  2
EX_NNORM
 70
     0
 10
0.0
 20
0.0
 30
0.0
  3
EX_NNORM
  1

  0
LINE
  5
BF
330
96
100
AcDbEntity
  8
0
  6
CONTINUOUS
 62
     0
100
AcDbLine
 10
0.0
 20
0.0
 30
0.0
 11
-1.0
 21
0.0
 31
0.0
  0
LINE
  5
C0
330
96
100
AcDbEntity
  8
0
  6
CONTINUOUS
 62
     0
100
AcDbLine
 10
0.0
 20
0.0
 30
0.0
 11
-1.0
 21
0.166666667
 31
0.0
  0
LINE
  5
C1
330
96
100
AcDbEntity
  8
0
  6
CONTINUOUS
 62
     0
100
AcDbLine
 10
0.0
 20
0.0
 30
0.0
 11
-1.0
 21
-0.166666667
 31
0.0
  0
LINE
  5
C2
330
96
100
AcDbEntity
  8
0
  6
CONTINUOUS
 62
     0
100
AcDbLine
 10
-1.0
 20
0.166666667
 30
0.0
 11
-1.0
 21
-0.166666667
 31
0.0
  0
ENDBLK
  5
98
330
96
100
AcDbEntity
  8
0
100
AcDbBlockEnd
  0
BLOCK
  5
9A
330
99
100
AcDbEntity
  8
0
100
AcDbBlockBegin
  2
EX_BBOX
 70
     0
 10
0.0
 20
0.0
 30
0.0
  3
EX_BBOX
  1

  0
LINE
  5
C3
330
99
100
AcDbEntity
  8
0
  6
CONTINUOUS
 62
     0
100
AcDbLine
 10
0.0
 20
0.0
 30
0.0
 11
-1.0
 21
0.0
 31
0.0
  0
LINE
  5
C4
330
99
100
AcDbEntity
  8
0
  6
CONTINUOUS
 62
     0
100
AcDbLine
 10
-0.5
 20
0.5
 30
0.0
 11
0.5
 21
0.5
 31
0.0
  0
LINE
  5
C5
330
99
100
AcDbEntity
  8
0
  6
CONTINUOUS
 62
     0
100
AcDbLine
 10
0.5
 20
0.5
 30
0.0
 11
0.5
 21
-0.5
 31
0.0
  0
LINE
  5
C6
330
99
100
AcDbEntity
  8
0
  6
CONTINUOUS
 62
     0
100
AcDbLine
 10
0.5
 20
-0.5
 30
0.0
 11
-0.5
 21
-0.5
 31
0.0
  0
LINE
  5
C7
330
99
100
AcDbEntity
  8
0
  6
CONTINUOUS
 62
     0
100
AcDbLine
 10
-0.5
 20
-0.5
 30
0.0
 11
-0.5
 21
0.5
 31
0.0
  0
LINE
  5
C8
330
99
100
AcDbEntity
  8
0
  6
CONTINUOUS
 62
     0
100
AcDbLine
 10
-0.25
 20
0.25
 30
0.0
 11
0.25
 21
0.25
 31
0.0
  0
LINE
  5
C9
330
99
100
AcDbEntity
  8
0
  6
CONTINUOUS
 62
     0
100
AcDbLine
 10
0.25
 20
0.25
 30
0.0
 11
0.25
 21
-0.25
 31
0.0
  0
LINE
  5
CA
330
99
100
AcDbEntity
  8
0
  6
CONTINUOUS
 62
     0
100
AcDbLine
 10
0.25
 20
-0.25
 30
0.0
 11
-0.25
 21
-0.25
 31
0.0
  0
LINE
  5
CB
330
99
100
AcDbEntity
  8
0
  6
CONTINUOUS
 62
     0
100
AcDbLine
 10
-0.25
 20
-0.25
 30
0.0
 11
-0.25
 21
0.25
 31
0.0
  0
ENDBLK
  5
9B
330
99
100
AcDbEntity
  8
0
100
AcDbBlockEnd
  0
BLOCK
  5
9D
330
9C
100
AcDbEntity
  8
0
100
AcDbBlockBegin
  2
EX_WBOX
 70
     0
 10
0.0
 20
0.0
 30
0.0
  3
EX_WBOX
  1

  0
LINE
  5
CC
330
9C
100
AcDbEntity
  8
0
  6
CONTINUOUS
 62
     0
100
AcDbLine
 10
-0.5
 20
0.0
 30
0.0
 11
-1.0
 21
0.0
 31
0.0
  0
LINE
  5
CD
330
9C
100
AcDbEntity
  8
0
  6
CONTINUOUS
 62
     0
100
AcDbLine
 10
-0.5
 20
0.5
 30
0.0
 11
0.5
 21
0.5
 31
0.0
  0
LINE
  5
CE
330
9C
100
AcDbEntity
  8
0
  6
CONTINUOUS
 62
     0
100
AcDbLine
 10
0.5
 20
0.5
 30
0.0
 11
0.5
 21
-0.5
 31
0.0
  0
LINE
  5
CF
330
9C
100
AcDbEntity
  8
0
  6
CONTINUOUS
 62
     0
100
AcDbLine
 10
0.5
 20
-0.5
 30
0.0
 11
-0.5
 21
-0.5
 31
0.0
  0
LINE
  5
D0
330
9C
100
AcDbEntity
  8
0
  6
CONTINUOUS
 62
     0
100
AcDbLine
 10
-0.5
 20
-0.5
 30
0.0
 11
-0.5
 21
0.5
 31
0.0
  0
ENDBLK
  5
9E
330
9C
100
AcDbEntity
  8
0
100
AcDbBlockEnd
  0
BLOCK
  5
A0
330
9F
100
AcDbEntity
  8
0
100
AcDbBlockBegin
  2
EX_INTEGRAL
 70
     0
 10
0.0
 20
0.0
 30
0.0
  3
EX_INTEGRAL
  1

  0
LINE
  5
D1
330
9F
100
AcDbEntity
  8
0
  6
CONTINUOUS
 62
     0
100
AcDbLine
 10
0.0
 20
0.0
 30
0.0
 11
-1.0
 21
0.0
 31
0.0
  0
ARC
  5
D2
330
9F
100
AcDbEntity
  8
0
  6
CONTINUOUS
 62
     0
100
AcDbCircle
 10
0.542115
 20
0.164992
 30
0.0
 40
0.56667
100
AcDbArc
 50
73.07249033629006
 51
196.9275130221199
  0
ARC
  5
D3
330
9F
100
AcDbEntity
  8
0
  6
CONTINUOUS
 62
     0
100
AcDbCircle
 10
-0.542115
 20
-0.164992
 30
0.0
 40
0.56667
100
AcDbArc
 50
253.0724869220464
 51
16.9275130559125
  0
ENDBLK
  5
A1
330
9F
100
AcDbEntity
  8
0
100
AcDbBlockEnd
  0
BLOCK
  5
117
330
116
100
AcDbEntity
  8
0
100
AcDbBlockBegin
  2
*D15
 70
     1
 10
0.0
 20
0.0
 30
0.0
  3
*D15
  1

  0
LINE
  5
119
330
116
100
AcDbEntity
  8
Ｓ_１_１
  6
CONTINUOUS
 62
     2
100
AcDbLine
 10
153.0
 20
214.0
 30
0.0
 11
70.00000000000004
 21
214.0
 31
0.0
  0
LINE
  5
11A
330
116
100
AcDbEntity
  8
Ｓ_１_１
  6
CONTINUOUS
 62
     2
100
AcDbLine
 10
143.0
 20
354.0
 30
0.0
 11
70.00000000000006
 21
354.0
 31
0.0
  0
LINE
  5
11B
330
116
100
AcDbEntity
  8
Ｓ_１_１
  6
CONTINUOUS
 62
     2
100
AcDbLine
 10
72.00000000000004
 20
220.0
 30
0.0
 11
72.00000000000006
 21
348.0
 31
0.0
  0
INSERT
  5
11C
330
116
100
AcDbEntity
  8
Ｓ_１_１
 62
     2
100
AcDbBlockReference
  2
EX_NORM
 10
72.00000000000004
 20
214.0
 30
0.0
 41
6.0
 42
6.0
 43
6.0
 50
270.0
  0
INSERT
  5
11D
330
116
100
AcDbEntity
  8
Ｓ_１_１
 62
     2
100
AcDbBlockReference
  2
EX_NORM
 10
72.00000000000006
 20
354.0
 30
0.0
 41
6.0
 42
6.0
 43
6.0
 50
90.0
  0
MTEXT
  5
11E
330
116
100
AcDbEntity
  8
Ｓ_１_１
 62
     2
100
AcDbMText
 10
66.5000000000001
 20
284.0
 30
0.0
 40
6.92580831408776
 41
0.0
 71
     5
 72
     1
  1
140
  7
EXCADDIM1
 11
1.015061051085857E-16
 21
1.0
 31
0.0
  0
POINT
  5
11F
330
116
100
AcDbEntity
  8
DEFPOINTS
 62
     0
100
AcDbPoint
 10
156.0
 20
214.0
 30
0.0
  0
POINT
  5
120
330
116
100
AcDbEntity
  8
DEFPOINTS
 62
     0
100
AcDbPoint
 10
146.0
 20
354.0
 30
0.0
  0
POINT
  5
121
330
116
100
AcDbEntity
  8
DEFPOINTS
 62
     0
100
AcDbPoint
 10
72.00000000000006
 20
354.0
 30
0.0
  0
ENDBLK
  5
118
330
116
100
AcDbEntity
  8
0
100
AcDbBlockEnd
  0
BLOCK
  5
124
330
123
100
AcDbEntity
  8
0
100
AcDbBlockBegin
  2
*D16
 70
     1
 10
0.0
 20
0.0
 30
0.0
  3
*D16
  1

  0
LINE
  5
126
330
123
100
AcDbEntity
  8
Ｓ_１_１
  6
CONTINUOUS
 62
     2
100
AcDbLine
 10
680.0
 20
241.0
 30
0.0
 11
680.0
 21
178.0000000000001
 31
0.0
  0
LINE
  5
127
330
123
100
AcDbEntity
  8
Ｓ_１_１
  6
CONTINUOUS
 62
     2
100
AcDbLine
 10
714.0
 20
180.0000000000001
 30
0.0
 11
686.0
 21
180.0000000000001
 31
0.0
  0
INSERT
  5
128
330
123
100
AcDbEntity
  8
Ｓ_１_１
 62
     2
100
AcDbBlockReference
  2
EX_NORM
 10
720.0
 20
180.0000000000001
 30
0.0
 41
6.0
 42
6.0
 43
6.0
  0
INSERT
  5
129
330
123
100
AcDbEntity
  8
Ｓ_１_１
 62
     2
100
AcDbBlockReference
  2
EX_NORM
 10
680.0
 20
180.0000000000001
 30
0.0
 41
6.0
 42
6.0
 43
6.0
 50
180.0
  0
MTEXT
  5
12A
330
123
100
AcDbEntity
  8
Ｓ_１_１
 62
     2
100
AcDbMText
 10
700.0
 20
185.5
 30
0.0
 40
6.92580831408776
 41
0.0
 71
     5
 72
     1
  1
40
  7
EXCADDIM1
  0
POINT
  5
12B
330
123
100
AcDbEntity
  8
DEFPOINTS
 62
     0
100
AcDbPoint
 10
720.0
 20
216.000009
 30
0.0
  0
POINT
  5
12C
330
123
100
AcDbEntity
  8
DEFPOINTS
 62
     0
100
AcDbPoint
 10
680.0
 20
244.0
 30
0.0
  0
POINT
  5
12D
330
123
100
AcDbEntity
  8
DEFPOINTS
 62
     0
100
AcDbPoint
 10
680.0
 20
180.0000000000001
 30
0.0
  0
ENDBLK
  5
125
330
123
100
AcDbEntity
  8
0
100
AcDbBlockEnd
  0
BLOCK
  5
130
330
12F
100
AcDbEntity
  8
0
100
AcDbBlockBegin
  2
*D17
 70
     1
 10
0.0
 20
0.0
 30
0.0
  3
*D17
  1

  0
LINE
  5
132
330
12F
100
AcDbEntity
  8
Ｓ_１_１
  6
CONTINUOUS
 62
     2
100
AcDbLine
 10
674.0
 20
180.0000000000001
 30
0.0
 11
451.000016
 21
180.0000000000001
 31
0.0
  0
INSERT
  5
133
330
12F
100
AcDbEntity
  8
Ｓ_１_１
 62
     2
100
AcDbBlockReference
  2
EX_NORM
 10
680.0
 20
180.0000000000001
 30
0.0
 41
6.0
 42
6.0
 43
6.0
  0
INSERT
  5
134
330
12F
100
AcDbEntity
  8
Ｓ_１_１
 62
     2
100
AcDbBlockReference
  2
EX_NORM
 10
445.000016
 20
180.0000000000001
 30
0.0
 41
6.0
 42
6.0
 43
6.0
 50
180.0
  0
MTEXT
  5
135
330
12F
100
AcDbEntity
  8
Ｓ_１_１
 62
     2
100
AcDbMText
 10
562.500008
 20
185.5
 30
0.0
 40
6.92580831408776
 41
0.0
 71
     5
 72
     1
  1
235
  7
EXCADDIM1
  0
POINT
  5
136
330
12F
100
AcDbEntity
  8
DEFPOINTS
 62
     0
100
AcDbPoint
 10
680.0
 20
241.0
 30
0.0
  0
POINT
  5
137
330
12F
100
AcDbEntity
  8
DEFPOINTS
 62
     0
100
AcDbPoint
 10
445.000016
 20
244.0
 30
0.0
  0
POINT
  5
138
330
12F
100
AcDbEntity
  8
DEFPOINTS
 62
     0
100
AcDbPoint
 10
445.000016
 20
180.0000000000001
 30
0.0
  0
ENDBLK
  5
131
330
12F
100
AcDbEntity
  8
0
100
AcDbBlockEnd
  0
BLOCK
  5
13B
330
13A
100
AcDbEntity
  8
0
100
AcDbBlockBegin
  2
*D18
 70
     1
 10
0.0
 20
0.0
 30
0.0
  3
*D18
  1

  0
LINE
  5
13D
330
13A
100
AcDbEntity
  8
Ｓ_１_１
  6
CONTINUOUS
 62
     2
100
AcDbLine
 10
445.000016
 20
241.0
 30
0.0
 11
445.000016
 21
178.0000000000002
 31
0.0
  0
LINE
  5
13E
330
13A
100
AcDbEntity
  8
Ｓ_１_１
  6
CONTINUOUS
 62
     2
100
AcDbLine
 10
439.000016
 20
180.0000000000001
 30
0.0
 11
386.000016
 21
180.0000000000001
 31
0.0
  0
INSERT
  5
13F
330
13A
100
AcDbEntity
  8
Ｓ_１_１
 62
     2
100
AcDbBlockReference
  2
EX_NORM
 10
445.000016
 20
180.0000000000001
 30
0.0
 41
6.0
 42
6.0
 43
6.0
  0
INSERT
  5
140
330
13A
100
AcDbEntity
  8
Ｓ_１_１
 62
     2
100
AcDbBlockReference
  2
EX_NORM
 10
380.000016
 20
180.0000000000001
 30
0.0
 41
6.0
 42
6.0
 43
6.0
 50
180.0
  0
MTEXT
  5
141
330
13A
100
AcDbEntity
  8
Ｓ_１_１
 62
     2
100
AcDbMText
 10
412.500016
 20
185.5
 30
0.0
 40
6.92580831408776
 41
0.0
 71
     5
 72
     1
  1
65
  7
EXCADDIM1
  0
POINT
  5
142
330
13A
100
AcDbEntity
  8
DEFPOINTS
 62
     0
100
AcDbPoint
 10
445.000016
 20
244.0
 30
0.0
  0
POINT
  5
143
330
13A
100
AcDbEntity
  8
DEFPOINTS
 62
     0
100
AcDbPoint
 10
380.000016
 20
216.000011
 30
0.0
  0
POINT
  5
144
330
13A
100
AcDbEntity
  8
DEFPOINTS
 62
     0
100
AcDbPoint
 10
380.000016
 20
180.0000000000001
 30
0.0
  0
ENDBLK
  5
13C
330
13A
100
AcDbEntity
  8
0
100
AcDbBlockEnd
  0
BLOCK
  5
147
330
146
100
AcDbEntity
  8
0
100
AcDbBlockBegin
  2
*D19
 70
     1
 10
0.0
 20
0.0
 30
0.0
  3
*D19
  1

  0
LINE
  5
149
330
146
100
AcDbEntity
  8
Ｓ_１_１
  6
CONTINUOUS
 62
     2
100
AcDbLine
 10
380.000016
 20
213.000011
 30
0.0
 11
380.000016
 21
165.9999999999995
 31
0.0
  0
LINE
  5
14A
330
146
100
AcDbEntity
  8
Ｓ_１_１
  6
CONTINUOUS
 62
     2
100
AcDbLine
 10
380.000016
 20
167.9999999999994
 30
0.0
 11
370.000016
 21
167.9999999999994
 31
0.0
  0
LINE
  5
14B
330
146
100
AcDbEntity
  8
Ｓ_１_１
  6
CONTINUOUS
 62
     2
100
AcDbLine
 10
386.000016
 20
167.9999999999994
 30
0.0
 11
392.000016
 21
167.9999999999994
 31
0.0
  0
LINE
  5
14C
330
146
100
AcDbEntity
  8
Ｓ_１_１
  6
CONTINUOUS
 62
     2
100
AcDbLine
 10
364.000016
 20
167.9999999999994
 30
0.0
 11
358.000016
 21
167.9999999999994
 31
0.0
  0
INSERT
  5
14D
330
146
100
AcDbEntity
  8
Ｓ_１_１
 62
     2
100
AcDbBlockReference
  2
EX_NORM
 10
380.000016
 20
167.9999999999994
 30
0.0
 41
6.0
 42
6.0
 43
6.0
 50
180.0
  0
INSERT
  5
14E
330
146
100
AcDbEntity
  8
Ｓ_１_１
 62
     2
100
AcDbBlockReference
  2
EX_NORM
 10
370.000016
 20
167.9999999999994
 30
0.0
 41
6.0
 42
6.0
 43
6.0
  0
MTEXT
  5
14F
330
146
100
AcDbEntity
  8
Ｓ_１_１
 62
     2
100
AcDbMText
 10
359.5000160000001
 20
173.4999999999996
 30
0.0
 40
6.92580831408776
 41
0.0
 71
     5
 72
     1
  1
10
  7
EXCADDIM1
  0
POINT
  5
150
330
146
100
AcDbEntity
  8
DEFPOINTS
 62
     0
100
AcDbPoint
 10
380.000016
 20
216.000011
 30
0.0
  0
POINT
  5
151
330
146
100
AcDbEntity
  8
DEFPOINTS
 62
     0
100
AcDbPoint
 10
370.000016
 20
236.8867607624
 30
0.0
  0
POINT
  5
152
330
146
100
AcDbEntity
  8
DEFPOINTS
 62
     0
100
AcDbPoint
 10
370.000016
 20
167.9999999999994
 30
0.0
  0
ENDBLK
  5
148
330
146
100
AcDbEntity
  8
0
100
AcDbBlockEnd
  0
BLOCK
  5
155
330
154
100
AcDbEntity
  8
0
100
AcDbBlockBegin
  2
*D20
 70
     1
 10
0.0
 20
0.0
 30
0.0
  3
*D20
  1

  0
LINE
  5
157
330
154
100
AcDbEntity
  8
Ｓ_１_１
  6
CONTINUOUS
 62
     2
100
AcDbLine
 10
386.000016
 20
168.0
 30
0.0
 11
714.0
 21
168.0
 31
0.0
  0
INSERT
  5
158
330
154
100
AcDbEntity
  8
Ｓ_１_１
 62
     2
100
AcDbBlockReference
  2
EX_NORM
 10
380.000016
 20
168.0
 30
0.0
 41
6.0
 42
6.0
 43
6.0
 50
180.0
  0
INSERT
  5
159
330
154
100
AcDbEntity
  8
Ｓ_１_１
 62
     2
100
AcDbBlockReference
  2
EX_NORM
 10
720.0
 20
168.0
 30
0.0
 41
6.0
 42
6.0
 43
6.0
  0
MTEXT
  5
15A
330
154
100
AcDbEntity
  8
Ｓ_１_１
 62
     2
100
AcDbMText
 10
550.000008
 20
173.5
 30
0.0
 40
6.92580831408776
 41
0.0
 71
     5
 72
     1
  1
340
  7
EXCADDIM1
  0
POINT
  5
15B
330
154
100
AcDbEntity
  8
DEFPOINTS
 62
     0
100
AcDbPoint
 10
380.000016
 20
216.000011
 30
0.0
  0
POINT
  5
15C
330
154
100
AcDbEntity
  8
DEFPOINTS
 62
     0
100
AcDbPoint
 10
720.0
 20
216.000009
 30
0.0
  0
POINT
  5
15D
330
154
100
AcDbEntity
  8
DEFPOINTS
 62
     0
100
AcDbPoint
 10
720.0
 20
168.0
 30
0.0
  0
ENDBLK
  5
156
330
154
100
AcDbEntity
  8
0
100
AcDbBlockEnd
  0
BLOCK
  5
160
330
15F
100
AcDbEntity
  8
0
100
AcDbBlockBegin
  2
*D21
 70
     1
 10
0.0
 20
0.0
 30
0.0
  3
*D21
  1

  0
LINE
  5
162
330
15F
100
AcDbEntity
  8
Ｓ_１_１
  6
CONTINUOUS
 62
     2
100
AcDbLine
 10
370.000016
 20
233.8867607624
 30
0.0
 11
370.000016
 21
154.0
 31
0.0
  0
LINE
  5
163
330
15F
100
AcDbEntity
  8
Ｓ_１_１
  6
CONTINUOUS
 62
     2
100
AcDbLine
 10
720.0
 20
213.000009
 30
0.0
 11
720.0
 21
154.0
 31
0.0
  0
LINE
  5
164
330
15F
100
AcDbEntity
  8
Ｓ_１_１
  6
CONTINUOUS
 62
     2
100
AcDbLine
 10
376.000016
 20
156.0
 30
0.0
 11
714.0
 21
156.0
 31
0.0
  0
INSERT
  5
165
330
15F
100
AcDbEntity
  8
Ｓ_１_１
 62
     2
100
AcDbBlockReference
  2
EX_NORM
 10
370.000016
 20
156.0
 30
0.0
 41
6.0
 42
6.0
 43
6.0
 50
180.0
  0
INSERT
  5
166
330
15F
100
AcDbEntity
  8
Ｓ_１_１
 62
     2
100
AcDbBlockReference
  2
EX_NORM
 10
720.0
 20
156.0
 30
0.0
 41
6.0
 42
6.0
 43
6.0
  0
MTEXT
  5
167
330
15F
100
AcDbEntity
  8
Ｓ_１_１
 62
     2
100
AcDbMText
 10
545.000008
 20
161.5
 30
0.0
 40
6.92580831408776
 41
0.0
 71
     5
 72
     1
  1
350
  7
EXCADDIM1
  0
POINT
  5
168
330
15F
100
AcDbEntity
  8
DEFPOINTS
 62
     0
100
AcDbPoint
 10
370.000016
 20
236.8867607624
 30
0.0
  0
POINT
  5
169
330
15F
100
AcDbEntity
  8
DEFPOINTS
 62
     0
100
AcDbPoint
 10
720.0
 20
216.000009
 30
0.0
  0
POINT
  5
16A
330
15F
100
AcDbEntity
  8
DEFPOINTS
 62
     0
100
AcDbPoint
 10
720.0
 20
156.0
 30
0.0
  0
ENDBLK
  5
161
330
15F
100
AcDbEntity
  8
0
100
AcDbBlockEnd
  0
BLOCK
  5
16D
330
16C
100
AcDbEntity
  8
0
100
AcDbBlockBegin
  2
*D22
 70
     1
 10
0.0
 20
0.0
 30
0.0
  3
*D22
  1

  0
LINE
  5
16F
330
16C
100
AcDbEntity
  8
Ｓ_１_１
  6
CONTINUOUS
 62
     2
100
AcDbLine
 10
380.000016
 20
315.000022
 30
0.0
 11
380.000016
 21
386.0
 31
0.0
  0
LINE
  5
170
330
16C
100
AcDbEntity
  8
Ｓ_１_１
  6
CONTINUOUS
 62
     2
100
AcDbLine
 10
495.0
 20
346.99999912734
 30
0.0
 11
495.0
 21
386.0
 31
0.0
  0
LINE
  5
171
330
16C
100
AcDbEntity
  8
Ｓ_１_１
  6
CONTINUOUS
 62
     2
100
AcDbLine
 10
386.000016
 20
384.0
 30
0.0
 11
489.0
 21
384.0
 31
0.0
  0
INSERT
  5
172
330
16C
100
AcDbEntity
  8
Ｓ_１_１
 62
     2
100
AcDbBlockReference
  2
EX_NORM
 10
380.000016
 20
384.0
 30
0.0
 41
6.0
 42
6.0
 43
6.0
 50
180.0
  0
INSERT
  5
173
330
16C
100
AcDbEntity
  8
Ｓ_１_１
 62
     2
100
AcDbBlockReference
  2
EX_NORM
 10
495.0
 20
384.0
 30
0.0
 41
6.0
 42
6.0
 43
6.0
  0
MTEXT
  5
174
330
16C
100
AcDbEntity
  8
Ｓ_１_１
 62
     2
100
AcDbMText
 10
437.500008
 20
389.5
 30
0.0
 40
6.92580831408776
 41
0.0
 71
     5
 72
     1
  1
115
  7
EXCADDIM1
  0
POINT
  5
175
330
16C
100
AcDbEntity
  8
DEFPOINTS
 62
     0
100
AcDbPoint
 10
380.000016
 20
312.000022
 30
0.0
  0
POINT
  5
176
330
16C
100
AcDbEntity
  8
DEFPOINTS
 62
     0
100
AcDbPoint
 10
495.0
 20
343.99999912734
 30
0.0
  0
POINT
  5
177
330
16C
100
AcDbEntity
  8
DEFPOINTS
 62
     0
100
AcDbPoint
 10
495.0
 20
384.0
 30
0.0
  0
ENDBLK
  5
16E
330
16C
100
AcDbEntity
  8
0
100
AcDbBlockEnd
  0
BLOCK
  5
17A
330
179
100
AcDbEntity
  8
0
100
AcDbBlockBegin
  2
*D23
 70
     1
 10
0.0
 20
0.0
 30
0.0
  3
*D23
  1

  0
LINE
  5
17C
330
179
100
AcDbEntity
  8
Ｓ_１_１
  6
CONTINUOUS
 62
     2
100
AcDbLine
 10
495.000016
 20
347.0
 30
0.0
 11
495.000016
 21
386.0
 31
0.0
  0
LINE
  5
17D
330
179
100
AcDbEntity
  8
Ｓ_１_１
  6
CONTINUOUS
 62
     2
100
AcDbLine
 10
634.9999999999999
 20
347.0
 30
0.0
 11
634.9999999999999
 21
386.0
 31
0.0
  0
LINE
  5
17E
330
179
100
AcDbEntity
  8
Ｓ_１_１
  6
CONTINUOUS
 62
     2
100
AcDbLine
 10
501.000016
 20
384.0
 30
0.0
 11
628.9999999999999
 21
384.0
 31
0.0
  0
INSERT
  5
17F
330
179
100
AcDbEntity
  8
Ｓ_１_１
 62
     2
100
AcDbBlockReference
  2
EX_NORM
 10
495.000016
 20
384.0
 30
0.0
 41
6.0
 42
6.0
 43
6.0
 50
180.0
  0
INSERT
  5
180
330
179
100
AcDbEntity
  8
Ｓ_１_１
 62
     2
100
AcDbBlockReference
  2
EX_NORM
 10
634.9999999999999
 20
384.0
 30
0.0
 41
6.0
 42
6.0
 43
6.0
  0
MTEXT
  5
181
330
179
100
AcDbEntity
  8
Ｓ_１_１
 62
     2
100
AcDbMText
 10
565.000008
 20
389.5
 30
0.0
 40
6.92580831408776
 41
0.0
 71
     5
 72
     1
  1
140
  7
EXCADDIM1
  0
POINT
  5
182
330
179
100
AcDbEntity
  8
DEFPOINTS
 62
     0
100
AcDbPoint
 10
495.000016
 20
344.0
 30
0.0
  0
POINT
  5
183
330
179
100
AcDbEntity
  8
DEFPOINTS
 62
     0
100
AcDbPoint
 10
634.9999999999999
 20
344.0
 30
0.0
  0
POINT
  5
184
330
179
100
AcDbEntity
  8
DEFPOINTS
 62
     0
100
AcDbPoint
 10
634.9999999999999
 20
384.0
 30
0.0
  0
ENDBLK
  5
17B
330
179
100
AcDbEntity
  8
0
100
AcDbBlockEnd
  0
BLOCK
  5
187
330
186
100
AcDbEntity
  8
0
100
AcDbBlockBegin
  2
*D24
 70
     1
 10
0.0
 20
0.0
 30
0.0
  3
*D24
  1

  0
LINE
  5
189
330
186
100
AcDbEntity
  8
Ｓ_１_１
  6
CONTINUOUS
 62
     2
100
AcDbLine
 10
720.9999999999999
 20
314.0
 30
0.0
 11
758.0
 21
314.0
 31
0.0
  0
LINE
  5
18A
330
186
100
AcDbEntity
  8
Ｓ_１_１
  6
CONTINUOUS
 62
     2
100
AcDbLine
 10
720.9999999999999
 20
214.000015
 30
0.0
 11
758.0
 21
214.000015
 31
0.0
  0
LINE
  5
18B
330
186
100
AcDbEntity
  8
Ｓ_１_１
  6
CONTINUOUS
 62
     2
100
AcDbLine
 10
756.0
 20
308.0
 30
0.0
 11
756.0
 21
220.000015
 31
0.0
  0
INSERT
  5
18C
330
186
100
AcDbEntity
  8
Ｓ_１_１
 62
     2
100
AcDbBlockReference
  2
EX_NORM
 10
756.0
 20
314.0
 30
0.0
 41
6.0
 42
6.0
 43
6.0
 50
90.0
  0
INSERT
  5
18D
330
186
100
AcDbEntity
  8
Ｓ_１_１
 62
     2
100
AcDbBlockReference
  2
EX_NORM
 10
756.0
 20
214.000015
 30
0.0
 41
6.0
 42
6.0
 43
6.0
 50
270.0
  0
MTEXT
  5
18E
330
186
100
AcDbEntity
  8
Ｓ_１_１
 62
     2
100
AcDbMText
 10
750.5
 20
264.0000074999999
 30
0.0
 40
6.92580831408776
 41
0.0
 71
     5
 72
     1
  1
%%c100
  7
EXCADDIM1
 11
0.0
 21
1.0
 31
0.0
  0
POINT
  5
18F
330
186
100
AcDbEntity
  8
DEFPOINTS
 62
     0
100
AcDbPoint
 10
717.9999999999999
 20
314.0
 30
0.0
  0
POINT
  5
190
330
186
100
AcDbEntity
  8
DEFPOINTS
 62
     0
100
AcDbPoint
 10
717.9999999999999
 20
214.000015
 30
0.0
  0
POINT
  5
191
330
186
100
AcDbEntity
  8
DEFPOINTS
 62
     0
100
AcDbPoint
 10
756.0
 20
214.000015
 30
0.0
  0
ENDBLK
  5
188
330
186
100
AcDbEntity
  8
0
100
AcDbBlockEnd
  0
BLOCK
  5
194
330
193
100
AcDbEntity
  8
0
100
AcDbBlockBegin
  2
*D25
 70
     1
 10
0.0
 20
0.0
 30
0.0
  3
*D25
  1

  0
LINE
  5
196
330
193
100
AcDbEntity
  8
Ｓ_１_１
  6
CONTINUOUS
 62
     2
100
AcDbLine
 10
372.0000159999999
 20
294.0
 30
0.0
 11
334.0
 21
294.0
 31
0.0
  0
LINE
  5
197
330
193
100
AcDbEntity
  8
Ｓ_１_１
  6
CONTINUOUS
 62
     2
100
AcDbLine
 10
372.0000159999999
 20
234.000015
 30
0.0
 11
334.0
 21
234.000015
 31
0.0
  0
LINE
  5
198
330
193
100
AcDbEntity
  8
Ｓ_１_１
  6
CONTINUOUS
 62
     2
100
AcDbLine
 10
336.0
 20
288.0
 30
0.0
 11
336.0
 21
240.000015
 31
0.0
  0
INSERT
  5
199
330
193
100
AcDbEntity
  8
Ｓ_１_１
 62
     2
100
AcDbBlockReference
  2
EX_NORM
 10
336.0
 20
294.0
 30
0.0
 41
6.0
 42
6.0
 43
6.0
 50
90.0
  0
INSERT
  5
19A
330
193
100
AcDbEntity
  8
Ｓ_１_１
 62
     2
100
AcDbBlockReference
  2
EX_NORM
 10
336.0
 20
234.000015
 30
0.0
 41
6.0
 42
6.0
 43
6.0
 50
270.0
  0
MTEXT
  5
19B
330
193
100
AcDbEntity
  8
Ｓ_１_１
 62
     2
100
AcDbMText
 10
330.5
 20
264.0000075
 30
0.0
 40
6.92580831408776
 41
0.0
 71
     5
 72
     1
  1
%%c60
  7
EXCADDIM1
 11
0.0
 21
1.0
 31
0.0
  0
POINT
  5
19C
330
193
100
AcDbEntity
  8
DEFPOINTS
 62
     0
100
AcDbPoint
 10
375.0000159999999
 20
294.0
 30
0.0
  0
POINT
  5
19D
330
193
100
AcDbEntity
  8
DEFPOINTS
 62
     0
100
AcDbPoint
 10
375.0000159999999
 20
234.000015
 30
0.0
  0
POINT
  5
19E
330
193
100
AcDbEntity
  8
DEFPOINTS
 62
     0
100
AcDbPoint
 10
336.0
 20
234.000015
 30
0.0
  0
ENDBLK
  5
195
330
193
100
AcDbEntity
  8
0
100
AcDbBlockEnd
  0
BLOCK
  5
1FE
330
1FD
100
AcDbEntity
  8
0
100
AcDbBlockBegin
  2
*D26
 70
     1
 10
0.0
 20
0.0
 30
0.0
  3
*D26
  1

  0
LINE
  5
200
330
1FD
100
AcDbEntity
  8
Ｓ_１_１
  6
CONTINUOUS
 62
     2
100
AcDbLine
 10
106.0
 20
261.0
 30
0.0
 11
106.0
 21
178.140869
 31
0.0
  0
LINE
  5
201
330
1FD
100
AcDbEntity
  8
Ｓ_１_１
  6
CONTINUOUS
 62
     2
100
AcDbLine
 10
112.0
 20
180.140869
 30
0.0
 11
200.0
 21
180.140869
 31
0.0
  0
INSERT
  5
202
330
1FD
100
AcDbEntity
  8
Ｓ_１_１
 62
     2
100
AcDbBlockReference
  2
EX_NORM
 10
106.0
 20
180.140869
 30
0.0
 41
6.0
 42
6.0
 43
6.0
 50
180.0
  0
INSERT
  5
203
330
1FD
100
AcDbEntity
  8
Ｓ_１_１
 62
     2
100
AcDbBlockReference
  2
EX_NORM
 10
206.0
 20
180.140869
 30
0.0
 41
6.0
 42
6.0
 43
6.0
  0
MTEXT
  5
204
330
1FD
100
AcDbEntity
  8
Ｓ_１_１
 62
     2
100
AcDbMText
 10
156.0
 20
185.640869
 30
0.0
 40
6.92580831408776
 41
0.0
 71
     5
 72
     1
  1
100
  7
EXCADDIM1
  0
POINT
  5
205
330
1FD
100
AcDbEntity
  8
DEFPOINTS
 62
     0
100
AcDbPoint
 10
106.0
 20
264.0
 30
0.0
  0
POINT
  5
206
330
1FD
100
AcDbEntity
  8
DEFPOINTS
 62
     0
100
AcDbPoint
 10
206.0
 20
264.0
 30
0.0
  0
POINT
  5
207
330
1FD
100
AcDbEntity
  8
DEFPOINTS
 62
     0
100
AcDbPoint
 10
206.0
 20
180.140869
 30
0.0
  0
ENDBLK
  5
1FF
330
1FD
100
AcDbEntity
  8
0
100
AcDbBlockEnd
  0
BLOCK
  5
294
330
293
100
AcDbEntity
  8
0
100
AcDbBlockBegin
  2
*D27
 70
     1
 10
0.0
 20
0.0
 30
0.0
  3
*D27
  1

  0
LINE
  5
296
330
293
100
AcDbEntity
  8
Ｓ_１_１
  6
CONTINUOUS
 62
     2
100
AcDbLine
 10
206.0
 20
261.0
 30
0.0
 11
206.0
 21
178.0
 31
0.0
  0
LINE
  5
297
330
293
100
AcDbEntity
  8
Ｓ_１_１
  6
CONTINUOUS
 62
     2
100
AcDbLine
 10
309.86223400002
 20
261.0
 30
0.0
 11
309.86223400002
 21
178.0
 31
0.0
  0
LINE
  5
298
330
293
100
AcDbEntity
  8
Ｓ_１_１
  6
CONTINUOUS
 62
     2
100
AcDbLine
 10
212.0
 20
180.0
 30
0.0
 11
303.86223400002
 21
180.0
 31
0.0
  0
INSERT
  5
299
330
293
100
AcDbEntity
  8
Ｓ_１_１
 62
     2
100
AcDbBlockReference
  2
EX_NORM
 10
206.0
 20
180.0
 30
0.0
 41
6.0
 42
6.0
 43
6.0
 50
180.0
  0
INSERT
  5
29A
330
293
100
AcDbEntity
  8
Ｓ_１_１
 62
     2
100
AcDbBlockReference
  2
EX_NORM
 10
309.86223400002
 20
180.0
 30
0.0
 41
6.0
 42
6.0
 43
6.0
  0
MTEXT
  5
29B
330
293
100
AcDbEntity
  8
Ｓ_１_１
 62
     2
100
AcDbMText
 10
257.93111700001
 20
185.5
 30
0.0
 40
6.92580831408776
 41
0.0
 71
     5
 72
     1
  1
(104)
  7
EXCADDIM1
  0
POINT
  5
29C
330
293
100
AcDbEntity
  8
DEFPOINTS
 62
     0
100
AcDbPoint
 10
206.0
 20
264.0
 30
0.0
  0
POINT
  5
29D
330
293
100
AcDbEntity
  8
DEFPOINTS
 62
     0
100
AcDbPoint
 10
309.86223400002
 20
264.0
 30
0.0
  0
POINT
  5
29E
330
293
100
AcDbEntity
  8
DEFPOINTS
 62
     0
100
AcDbPoint
 10
309.86223400002
 20
180.0
 30
0.0
  0
ENDBLK
  5
295
330
293
100
AcDbEntity
  8
0
100
AcDbBlockEnd
  0
ENDSEC
  0
SECTION
  2
ENTITIES
  0
LINE
  5
D4
330
1F
100
AcDbEntity
  8
図面枠
  6
CONTINUOUS
 62
     5
100
AcDbLine
 10
20.0
 20
20.0
 30
0.0
 11
820.0
 21
20.0
 31
0.0
  0
LINE
  5
D5
330
1F
100
AcDbEntity
  8
図面枠
  6
CONTINUOUS
 62
     5
100
AcDbLine
 10
820.0
 20
20.0
 30
0.0
 11
820.0
 21
574.0
 31
0.0
  0
LINE
  5
D6
330
1F
100
AcDbEntity
  8
図面枠
  6
CONTINUOUS
 62
     5
100
AcDbLine
 10
820.0
 20
574.0
 30
0.0
 11
20.0000000000001
 21
574.0
 31
0.0
  0
LINE
  5
D7
330
1F
100
AcDbEntity
  8
図面枠
  6
CONTINUOUS
 62
     5
100
AcDbLine
 10
20.0000000000001
 20
574.0
 30
0.0
 11
20.0
 21
20.0
 31
0.0
  0
TEXT
  5
D9
330
1F
100
AcDbEntity
  8
図面枠
  6
CONTINUOUS
 62
     4
100
AcDbText
 10
774.0
 20
542.765625
 30
0.0
 40
6.92580831408776
  1
kN
 41
0.9992307692307693
  7
EXCADTTF1
 72
     5
 11
783.0
 21
542.765625
 31
0.0
100
AcDbText
  0
TEXT
  5
DA
330
1F
100
AcDbEntity
  8
図面枠
  6
CONTINUOUS
 62
     4
100
AcDbText
 10
752.5
 20
542.765625
 30
0.0
 40
6.92580831408776
  1
200
 41
0.9992307692307694
  7
EXCADTTF1
 72
     5
 11
766.0
 21
542.765625
 31
0.0
100
AcDbText
  0
TEXT
  5
DB
330
1F
100
AcDbEntity
  8
図面枠
  6
CONTINUOUS
 62
     4
100
AcDbText
 10
654.0
 20
542.765625
 30
0.0
 40
6.92580831408776
  1
能力
 41
0.9992307692307693
  7
EXCADTTF1
 72
     5
 11
672.0
 21
542.765625
 31
0.0
100
AcDbText
  0
TEXT
  5
DC
330
1F
100
AcDbEntity
  8
図面枠
  6
CONTINUOUS
 62
     4
100
AcDbText
 10
707.5
 20
554.765625
 30
0.0
 40
6.92580831408776
  1
仕　　　様
 41
0.9992307692307693
  7
EXCADTTF1
 72
     5
 11
752.5
 21
554.765625
 31
0.0
100
AcDbText
  0
LINE
  5
DD
330
1F
100
AcDbEntity
  8
図面枠
  6
CONTINUOUS
 62
     3
100
AcDbLine
 10
650.0
 20
564.0
 30
0.0
 11
810.0
 21
564.0
 31
0.0
  0
LINE
  5
DE
330
1F
100
AcDbEntity
  8
図面枠
  6
CONTINUOUS
 62
     3
100
AcDbLine
 10
650.0
 20
552.0
 30
0.0
 11
810.0
 21
552.0
 31
0.0
  0
LINE
  5
DF
330
1F
100
AcDbEntity
  8
図面枠
  6
CONTINUOUS
 62
     3
100
AcDbLine
 10
30.00000000000004
 20
564.0
 30
0.0
 11
30.00000000000004
 21
546.0
 31
0.0
  0
LINE
  5
E0
330
1F
100
AcDbEntity
  8
図面枠
  6
CONTINUOUS
 62
     3
100
AcDbLine
 10
750.0
 20
48.0
 30
0.0
 11
810.0
 21
48.0
 31
0.0
  0
LINE
  5
E1
330
1F
100
AcDbEntity
  8
図面枠
  6
CONTINUOUS
 62
     3
100
AcDbLine
 10
750.0
 20
30.0
 30
0.0
 11
810.0
 21
30.0
 31
0.0
  0
LINE
  5
E2
330
1F
100
AcDbEntity
  8
図面枠
  6
CONTINUOUS
 62
     3
100
AcDbLine
 10
750.0
 20
48.0
 30
0.0
 11
750.0
 21
30.0
 31
0.0
  0
LINE
  5
E3
330
1F
100
AcDbEntity
  8
図面枠
  6
CONTINUOUS
 62
     3
100
AcDbLine
 10
810.0
 20
48.0
 30
0.0
 11
810.0
 21
30.0
 31
0.0
  0
TEXT
  5
E4
330
1F
100
AcDbEntity
  8
図面枠
  6
CONTINUOUS
 62
     4
100
AcDbText
 10
756.0
 20
34.6875
 30
0.0
 40
9.234411085450347
  1
OTV-2020
 41
0.9992307692307693
  7
EXCADTTF1
 72
     5
 11
804.0
 21
34.6875
 31
0.0
100
AcDbText
  0
TEXT
  5
E5
330
1F
100
AcDbEntity
  8
図面枠
  6
CONTINUOUS
 62
     4
100
AcDbText
 10
36.00000000000004
 20
550.6875
 30
0.0
 40
9.234411085450347
  1
200kN200ストローク油圧ジャッキ
 41
0.9992307692307696
  7
EXCADTTF1
 72
     5
 11
216.0
 21
550.6875
 31
0.0
100
AcDbText
  0
LINE
  5
E6
330
1F
100
AcDbEntity
  8
図面枠
  6
CONTINUOUS
 62
     3
100
AcDbLine
 10
222.0
 20
564.0
 30
0.0
 11
222.0
 21
546.0
 31
0.0
  0
LINE
  5
E7
330
1F
100
AcDbEntity
  8
図面枠
  6
CONTINUOUS
 62
     3
100
AcDbLine
 10
30.00000000000004
 20
564.0
 30
0.0
 11
222.0
 21
564.0
 31
0.0
  0
LINE
  5
E8
330
1F
100
AcDbEntity
  8
図面枠
  6
CONTINUOUS
 62
     3
100
AcDbLine
 10
30.00000000000004
 20
546.0
 30
0.0
 11
222.0
 21
546.0
 31
0.0
  0
TEXT
  5
E9
330
1F
100
AcDbEntity
  8
図面枠
  6
CONTINUOUS
 62
     4
100
AcDbText
 10
748.0
 20
458.765625
 30
0.0
 40
6.92580831408776
  1
45.3
 41
0.9992307692307693
  7
EXCADTTF1
 72
     5
 11
766.0
 21
458.765625
 31
0.0
100
AcDbText
  0
TEXT
  5
EA
330
1F
100
AcDbEntity
  8
図面枠
  6
CONTINUOUS
 62
     4
100
AcDbText
 10
748.0
 20
470.765625
 30
0.0
 40
6.92580831408776
  1
44.2
 41
0.9992307692307693
  7
EXCADTTF1
 72
     5
 11
766.0
 21
470.765625
 31
0.0
100
AcDbText
  0
TEXT
  5
EB
330
1F
100
AcDbEntity
  8
図面枠
  6
CONTINUOUS
 62
     4
100
AcDbText
 10
757.0
 20
482.765625
 30
0.0
 40
6.92580831408776
  1
75
 41
0.9992307692307693
  7
EXCADTTF1
 72
     5
 11
766.0
 21
482.765625
 31
0.0
100
AcDbText
  0
TEXT
  5
EC
330
1F
100
AcDbEntity
  8
図面枠
  6
CONTINUOUS
 62
     4
100
AcDbText
 10
752.5
 20
506.765625
 30
0.0
 40
6.92580831408776
  1
100
 41
0.9992307692307694
  7
EXCADTTF1
 72
     5
 11
766.0
 21
506.765625
 31
0.0
100
AcDbText
  0
TEXT
  5
ED
330
1F
100
AcDbEntity
  8
図面枠
  6
CONTINUOUS
 62
     4
100
AcDbText
 10
752.5
 20
518.765625
 30
0.0
 40
6.92580831408776
  1
350
 41
0.9992307692307694
  7
EXCADTTF1
 72
     5
 11
766.0
 21
518.765625
 31
0.0
100
AcDbText
  0
TEXT
  5
EE
330
1F
100
AcDbEntity
  8
図面枠
  6
CONTINUOUS
 62
     4
100
AcDbText
 10
752.5
 20
530.765625
 30
0.0
 40
6.92580831408776
  1
200
 41
0.9992307692307694
  7
EXCADTTF1
 72
     5
 11
766.0
 21
530.765625
 31
0.0
100
AcDbText
  0
TEXT
  5
EF
330
1F
100
AcDbEntity
  8
図面枠
  6
CONTINUOUS
 62
     4
100
AcDbText
 10
757.0
 20
494.765625
 30
0.0
 40
6.92580831408776
  1
60
 41
0.9992307692307693
  7
EXCADTTF1
 72
     5
 11
766.0
 21
494.765625
 31
0.0
100
AcDbText
  0
LINE
  5
F0
330
1F
100
AcDbEntity
  8
図面枠
  6
CONTINUOUS
 62
     2
100
AcDbLine
 10
650.0
 20
468.0
 30
0.0
 11
810.0
 21
468.0
 31
0.0
  0
LINE
  5
F1
330
1F
100
AcDbEntity
  8
図面枠
  6
CONTINUOUS
 62
     2
100
AcDbLine
 10
650.0
 20
480.0
 30
0.0
 11
810.0
 21
480.0
 31
0.0
  0
LINE
  5
F2
330
1F
100
AcDbEntity
  8
図面枠
  6
CONTINUOUS
 62
     2
100
AcDbLine
 10
650.0
 20
492.0
 30
0.0
 11
810.0
 21
492.0
 31
0.0
  0
LINE
  5
F3
330
1F
100
AcDbEntity
  8
図面枠
  6
CONTINUOUS
 62
     2
100
AcDbLine
 10
650.0
 20
504.0
 30
0.0
 11
810.0
 21
504.0
 31
0.0
  0
LINE
  5
F4
330
1F
100
AcDbEntity
  8
図面枠
  6
CONTINUOUS
 62
     2
100
AcDbLine
 10
650.0
 20
516.0
 30
0.0
 11
810.0
 21
516.0
 31
0.0
  0
LINE
  5
F5
330
1F
100
AcDbEntity
  8
図面枠
  6
CONTINUOUS
 62
     2
100
AcDbLine
 10
650.0
 20
528.0
 30
0.0
 11
810.0
 21
528.0
 31
0.0
  0
LINE
  5
F6
330
1F
100
AcDbEntity
  8
図面枠
  6
CONTINUOUS
 62
     2
100
AcDbLine
 10
650.0
 20
540.0
 30
0.0
 11
810.0
 21
540.0
 31
0.0
  0
TEXT
  5
F7
330
1F
100
AcDbEntity
  8
図面枠
  6
CONTINUOUS
 62
     4
100
AcDbText
 10
654.0
 20
458.765625
 30
0.0
 40
6.92580831408776
  1
最高使用圧力
 41
0.9992307692307693
  7
EXCADTTF1
 72
     5
 11
708.0
 21
458.765625
 31
0.0
100
AcDbText
  0
TEXT
  5
F8
330
1F
100
AcDbEntity
  8
図面枠
  6
CONTINUOUS
 62
     4
100
AcDbText
 10
654.0
 20
470.765625
 30
0.0
 40
6.92580831408776
  1
受圧面積
 41
0.9992307692307693
  7
EXCADTTF1
 72
     5
 11
690.0
 21
470.765625
 31
0.0
100
AcDbText
  0
TEXT
  5
F9
330
1F
100
AcDbEntity
  8
図面枠
  6
CONTINUOUS
 62
     4
100
AcDbText
 10
654.0
 20
482.765625
 30
0.0
 40
6.92580831408776
  1
ピストン径
 41
0.9992307692307693
  7
EXCADTTF1
 72
     5
 11
699.0
 21
482.765625
 31
0.0
100
AcDbText
  0
TEXT
  5
FA
330
1F
100
AcDbEntity
  8
図面枠
  6
CONTINUOUS
 62
     4
100
AcDbText
 10
654.0
 20
494.765625
 30
0.0
 40
6.92580831408776
  1
ヘッド径
 41
0.9992307692307693
  7
EXCADTTF1
 72
     5
 11
690.0
 21
494.765625
 31
0.0
100
AcDbText
  0
TEXT
  5
FB
330
1F
100
AcDbEntity
  8
図面枠
  6
CONTINUOUS
 62
     4
100
AcDbText
 10
654.0
 20
506.765625
 30
0.0
 40
6.92580831408776
  1
シリンダー外径
 41
0.9992307692307691
  7
EXCADTTF1
 72
     5
 11
717.0
 21
506.765625
 31
0.0
100
AcDbText
  0
TEXT
  5
FC
330
1F
100
AcDbEntity
  8
図面枠
  6
CONTINUOUS
 62
     4
100
AcDbText
 10
654.0
 20
518.765625
 30
0.0
 40
6.92580831408776
  1
最低機械高
 41
0.9992307692307693
  7
EXCADTTF1
 72
     5
 11
699.0
 21
518.765625
 31
0.0
100
AcDbText
  0
TEXT
  5
FD
330
1F
100
AcDbEntity
  8
図面枠
  6
CONTINUOUS
 62
     4
100
AcDbText
 10
654.0
 20
530.765625
 30
0.0
 40
6.92580831408776
  1
ストローク
 41
0.9992307692307693
  7
EXCADTTF1
 72
     5
 11
699.0
 21
530.765625
 31
0.0
100
AcDbText
  0
TEXT
  5
FE
330
1F
100
AcDbEntity
  8
図面枠
  6
CONTINUOUS
 62
     4
100
AcDbText
 10
774.0
 20
458.765625
 30
0.0
 40
6.92580831408776
  1
MPa
 41
0.9992307692307694
  7
EXCADTTF1
 72
     5
 11
787.5
 21
458.765625
 31
0.0
100
AcDbText
  0
TEXT
  5
FF
330
1F
100
AcDbEntity
  8
図面枠
  6
CONTINUOUS
 62
     4
100
AcDbText
 10
774.0
 20
482.765625
 30
0.0
 40
6.92580831408776
  1
mm
 41
0.9992307692307693
  7
EXCADTTF1
 72
     5
 11
783.0
 21
482.765625
 31
0.0
100
AcDbText
  0
TEXT
  5
100
330
1F
100
AcDbEntity
  8
図面枠
  6
CONTINUOUS
 62
     4
100
AcDbText
 10
774.0
 20
494.765625
 30
0.0
 40
6.92580831408776
  1
mm
 41
0.9992307692307693
  7
EXCADTTF1
 72
     5
 11
783.0
 21
494.765625
 31
0.0
100
AcDbText
  0
TEXT
  5
101
330
1F
100
AcDbEntity
  8
図面枠
  6
CONTINUOUS
 62
     4
100
AcDbText
 10
774.0
 20
506.765625
 30
0.0
 40
6.92580831408776
  1
mm
 41
0.9992307692307693
  7
EXCADTTF1
 72
     5
 11
783.0
 21
506.765625
 31
0.0
100
AcDbText
  0
TEXT
  5
102
330
1F
100
AcDbEntity
  8
図面枠
  6
CONTINUOUS
 62
     4
100
AcDbText
 10
774.0
 20
518.765625
 30
0.0
 40
6.92580831408776
  1
mm
 41
0.9992307692307693
  7
EXCADTTF1
 72
     5
 11
783.0
 21
518.765625
 31
0.0
100
AcDbText
  0
TEXT
  5
103
330
1F
100
AcDbEntity
  8
図面枠
  6
CONTINUOUS
 62
     4
100
AcDbText
 10
774.0
 20
530.765625
 30
0.0
 40
6.92580831408776
  1
mm
 41
0.9992307692307693
  7
EXCADTTF1
 72
     5
 11
783.0
 21
530.765625
 31
0.0
100
AcDbText
  0
TEXT
  5
104
330
1F
100
AcDbEntity
  8
図面枠
  6
CONTINUOUS
 62
     4
100
AcDbText
 10
774.0
 20
434.765625
 30
0.0
 40
6.92580831408776
  1
kg
 41
0.9992307692307693
  7
EXCADTTF1
 72
     5
 11
783.0
 21
434.765625
 31
0.0
100
AcDbText
  0
TEXT
  5
105
330
1F
100
AcDbEntity
  8
図面枠
  6
CONTINUOUS
 62
     4
100
AcDbText
 10
654.0
 20
446.765625
 30
0.0
 40
6.92580831408776
  1
所要油量
 41
0.9992307692307693
  7
EXCADTTF1
 72
     5
 11
690.0
 21
446.765625
 31
0.0
100
AcDbText
  0
TEXT
  5
106
330
1F
100
AcDbEntity
  8
図面枠
  6
CONTINUOUS
 62
     4
100
AcDbText
 10
654.0
 20
434.765625
 30
0.0
 40
6.92580831408776
  1
重量
 41
0.9992307692307693
  7
EXCADTTF1
 72
     5
 11
672.0
 21
434.765625
 31
0.0
100
AcDbText
  0
LINE
  5
107
330
1F
100
AcDbEntity
  8
図面枠
  6
CONTINUOUS
 62
     2
100
AcDbLine
 10
650.0
 20
456.0
 30
0.0
 11
810.0
 21
456.0
 31
0.0
  0
LINE
  5
108
330
1F
100
AcDbEntity
  8
図面枠
  6
CONTINUOUS
 62
     2
100
AcDbLine
 10
650.0
 20
444.0
 30
0.0
 11
810.0
 21
444.0
 31
0.0
  0
LINE
  5
109
330
1F
100
AcDbEntity
  8
図面枠
  6
CONTINUOUS
 62
     3
100
AcDbLine
 10
650.0
 20
432.0
 30
0.0
 11
810.0
 21
432.0
 31
0.0
  0
LINE
  5
10A
330
1F
100
AcDbEntity
  8
図面枠
  6
CONTINUOUS
 62
     2
100
AcDbLine
 10
730.0
 20
552.0
 30
0.0
 11
730.0
 21
432.0
 31
0.0
  0
LINE
  5
10B
330
1F
100
AcDbEntity
  8
図面枠
  6
CONTINUOUS
 62
     2
100
AcDbLine
 10
770.0
 20
552.0
 30
0.0
 11
770.0
 21
432.0
 31
0.0
  0
LINE
  5
10C
330
1F
100
AcDbEntity
  8
図面枠
  6
CONTINUOUS
 62
     3
100
AcDbLine
 10
650.0
 20
564.0
 30
0.0
 11
650.0
 21
432.0
 31
0.0
  0
LINE
  5
10D
330
1F
100
AcDbEntity
  8
図面枠
  6
CONTINUOUS
 62
     3
100
AcDbLine
 10
810.0
 20
564.0
 30
0.0
 11
810.0
 21
432.0
 31
0.0
  0
TEXT
  5
10E
330
1F
100
AcDbEntity
  8
図面枠
  6
CONTINUOUS
 62
     4
100
AcDbText
 10
774.0000000000001
 20
470.765625
 30
0.0
 40
6.92580831408776
  1
cm
 41
0.9992307692307693
  7
EXCADTTF1
 72
     5
 11
783.0000000000001
 21
470.765625
 31
0.0
100
AcDbText
  0
TEXT
  5
10F
330
1F
100
AcDbEntity
  8
図面枠
  6
CONTINUOUS
 62
     4
100
AcDbText
 10
780.3000000000001
 20
475.0195313170552
 30
0.0
 40
3.116613521173975
  1
2
 41
0.9992308398189645
  7
EXCADTTF1
 72
     5
 11
782.325
 21
475.0195313170552
 31
0.0
100
AcDbText
  0
TEXT
  5
110
330
1F
100
AcDbEntity
  8
図面枠
  6
CONTINUOUS
 62
     4
100
AcDbText
 10
748.0
 20
446.765625
 30
0.0
 40
6.92580831408776
  1
0.88
 41
0.9992307692307693
  7
EXCADTTF1
 72
     5
 11
766.0
 21
446.765625
 31
0.0
100
AcDbText
  0
TEXT
  5
111
330
1F
100
AcDbEntity
  8
図面枠
  6
CONTINUOUS
 62
     4
100
AcDbText
 10
774.0
 20
446.765625
 30
0.0
 40
6.92580831408776
  1
L
 41
0.9992307692307693
  7
EXCADTTF1
 72
     5
 11
778.5
 21
446.765625
 31
0.0
100
AcDbText
  0
TEXT
  5
112
330
1F
100
AcDbEntity
  8
図面枠
  6
CONTINUOUS
 62
     4
100
AcDbText
 10
739.0
 20
434.765625
 30
0.0
 40
6.92580831408776
  1
約19.5
 41
0.9992307692307693
  7
EXCADTTF1
 72
     5
 11
766.0
 21
434.765625
 31
0.0
100
AcDbText
  0
DIMENSION
  5
114
330
1F
100
AcDbEntity
  8
Ｓ_１_１
  6
CONTINUOUS
 62
     2
100
AcDbDimension
  2
*D15
 10
72.00000000000006
 20
354.0
 30
0.0
 11
66.5000000000001
 21
284.0
 31
0.0
 70
   160
  3
ISO-25
100
AcDbAlignedDimension
 13
156.0
 23
214.0
 33
0.0
 14
146.0
 24
354.0
 34
0.0
 50
90.0
100
AcDbRotatedDimension
1001
ACAD
1000
DSTYLE
1002
{
1070
   270
1070
     2
1070
     6
1000
EX_NORM
1070
     7
1000
EX_NORM
1070
    41
1040
6.0
1070
    42
1040
3.0
1070
    44
1040
2.0
1070
    73
1070
     0
1070
    74
1070
     0
1070
    75
1070
     0
1070
    76
1070
     0
1070
    77
1070
     1
1070
    78
1070
     8
1070
   140
1040
6.92580831408776
1070
   147
1040
0.0
1070
   173
1070
     1
1070
   176
1070
     2
1070
   177
1070
     2
1070
   178
1070
     2
1070
   271
1070
     2
1070
   277
1070
     2
1070
   279
1070
     2
1070
   280
1070
     0
1070
   287
1070
     5
1070
   340
1005
113
1002
}
  0
DIMENSION
  5
122
330
1F
100
AcDbEntity
  8
Ｓ_１_１
  6
CONTINUOUS
 62
     2
100
AcDbDimension
  2
*D16
 10
680.0
 20
180.0000000000001
 30
0.0
 11
700.0
 21
185.5
 31
0.0
 70
   160
  3
ISO-25
100
AcDbAlignedDimension
 13
720.0
 23
216.000009
 33
0.0
 14
680.0
 24
244.0
 34
0.0
100
AcDbRotatedDimension
1001
ACAD
1000
DSTYLE
1002
{
1070
   270
1070
     2
1070
     6
1000
EX_NORM
1070
     7
1000
EX_NORM
1070
    41
1040
6.0
1070
    42
1040
3.0
1070
    44
1040
2.0
1070
    73
1070
     0
1070
    74
1070
     0
1070
    75
1070
     1
1070
    76
1070
     0
1070
    77
1070
     1
1070
    78
1070
     8
1070
   140
1040
6.92580831408776
1070
   147
1040
0.0
1070
   173
1070
     1
1070
   176
1070
     2
1070
   177
1070
     2
1070
   178
1070
     2
1070
   271
1070
     2
1070
   277
1070
     2
1070
   279
1070
     2
1070
   280
1070
     0
1070
   287
1070
     5
1070
   340
1005
113
1002
}
  0
DIMENSION
  5
12E
330
1F
100
AcDbEntity
  8
Ｓ_１_１
  6
CONTINUOUS
 62
     2
100
AcDbDimension
  2
*D17
 10
445.000016
 20
180.0000000000001
 30
0.0
 11
562.500008
 21
185.5
 31
0.0
 70
   160
  3
ISO-25
100
AcDbAlignedDimension
 13
680.0
 23
241.0
 33
0.0
 14
445.000016
 24
244.0
 34
0.0
100
AcDbRotatedDimension
1001
ACAD
1000
DSTYLE
1002
{
1070
   270
1070
     2
1070
     6
1000
EX_NORM
1070
     7
1000
EX_NORM
1070
    41
1040
6.0
1070
    42
1040
0.0
1070
    44
1040
0.0
1070
    73
1070
     0
1070
    74
1070
     0
1070
    75
1070
     1
1070
    76
1070
     1
1070
    77
1070
     1
1070
    78
1070
     8
1070
   140
1040
6.92580831408776
1070
   147
1040
0.0
1070
   173
1070
     1
1070
   176
1070
     2
1070
   177
1070
     2
1070
   178
1070
     2
1070
   271
1070
     2
1070
   277
1070
     2
1070
   279
1070
     2
1070
   280
1070
     0
1070
   287
1070
     5
1070
   340
1005
113
1002
}
  0
DIMENSION
  5
139
330
1F
100
AcDbEntity
  8
Ｓ_１_１
  6
CONTINUOUS
 62
     2
100
AcDbDimension
  2
*D18
 10
380.000016
 20
180.0000000000001
 30
0.0
 11
412.500016
 21
185.5
 31
0.0
 70
   160
  3
ISO-25
100
AcDbAlignedDimension
 13
445.000016
 23
244.0
 33
0.0
 14
380.000016
 24
216.000011
 34
0.0
100
AcDbRotatedDimension
1001
ACAD
1000
DSTYLE
1002
{
1070
   270
1070
     2
1070
     6
1000
EX_NORM
1070
     7
1000
EX_NORM
1070
    41
1040
6.0
1070
    42
1040
3.0
1070
    44
1040
1.999999999999886
1070
    73
1070
     0
1070
    74
1070
     0
1070
    75
1070
     0
1070
    76
1070
     1
1070
    77
1070
     1
1070
    78
1070
     8
1070
   140
1040
6.92580831408776
1070
   147
1040
0.0
1070
   173
1070
     1
1070
   176
1070
     2
1070
   177
1070
     2
1070
   178
1070
     2
1070
   271
1070
     2
1070
   277
1070
     2
1070
   279
1070
     2
1070
   280
1070
     0
1070
   287
1070
     5
1070
   340
1005
113
1002
}
  0
DIMENSION
  5
145
330
1F
100
AcDbEntity
  8
Ｓ_１_１
  6
CONTINUOUS
 62
     2
100
AcDbDimension
  2
*D19
 10
370.000016
 20
167.9999999999994
 30
0.0
 11
359.5000160000001
 21
173.4999999999996
 31
0.0
 70
   160
  3
ISO-25
100
AcDbAlignedDimension
 13
380.000016
 23
216.000011
 33
0.0
 14
370.000016
 24
236.8867607624
 34
0.0
100
AcDbRotatedDimension
1001
ACAD
1000
DSTYLE
1002
{
1070
   270
1070
     2
1070
     6
1000
EX_NORM
1070
     7
1000
EX_NORM
1070
    41
1040
6.0
1070
    42
1040
3.0
1070
    44
1040
1.999999999999886
1070
    73
1070
     0
1070
    74
1070
     0
1070
    75
1070
     0
1070
    76
1070
     1
1070
    77
1070
     1
1070
    78
1070
     8
1070
   140
1040
6.92580831408776
1070
   147
1040
0.0
1070
   173
1070
     1
1070
   176
1070
     2
1070
   177
1070
     2
1070
   178
1070
     2
1070
   271
1070
     2
1070
   277
1070
     2
1070
   279
1070
     2
1070
   280
1070
     2
1070
   287
1070
     5
1070
   340
1005
113
1002
}
  0
DIMENSION
  5
153
330
1F
100
AcDbEntity
  8
Ｓ_１_１
  6
CONTINUOUS
 62
     2
100
AcDbDimension
  2
*D20
 10
720.0
 20
168.0
 30
0.0
 11
550.000008
 21
173.5
 31
0.0
 70
   160
  3
ISO-25
100
AcDbAlignedDimension
 13
380.000016
 23
216.000011
 33
0.0
 14
720.0
 24
216.000009
 34
0.0
100
AcDbRotatedDimension
1001
ACAD
1000
DSTYLE
1002
{
1070
   270
1070
     2
1070
     6
1000
EX_NORM
1070
     7
1000
EX_NORM
1070
    41
1040
6.0
1070
    42
1040
0.0
1070
    44
1040
0.0
1070
    73
1070
     0
1070
    74
1070
     0
1070
    75
1070
     1
1070
    76
1070
     1
1070
    77
1070
     1
1070
    78
1070
     8
1070
   140
1040
6.92580831408776
1070
   147
1040
0.0
1070
   173
1070
     1
1070
   176
1070
     2
1070
   177
1070
     2
1070
   178
1070
     2
1070
   271
1070
     2
1070
   277
1070
     2
1070
   279
1070
     2
1070
   280
1070
     0
1070
   287
1070
     5
1070
   340
1005
113
1002
}
  0
DIMENSION
  5
15E
330
1F
100
AcDbEntity
  8
Ｓ_１_１
  6
CONTINUOUS
 62
     2
100
AcDbDimension
  2
*D21
 10
720.0
 20
156.0
 30
0.0
 11
545.000008
 21
161.5
 31
0.0
 70
   160
  3
ISO-25
100
AcDbAlignedDimension
 13
370.000016
 23
236.8867607624
 33
0.0
 14
720.0
 24
216.000009
 34
0.0
100
AcDbRotatedDimension
1001
ACAD
1000
DSTYLE
1002
{
1070
   270
1070
     2
1070
     6
1000
EX_NORM
1070
     7
1000
EX_NORM
1070
    41
1040
6.0
1070
    42
1040
3.0
1070
    44
1040
2.0
1070
    73
1070
     0
1070
    74
1070
     0
1070
    75
1070
     0
1070
    76
1070
     0
1070
    77
1070
     1
1070
    78
1070
     8
1070
   140
1040
6.92580831408776
1070
   147
1040
0.0
1070
   173
1070
     1
1070
   176
1070
     2
1070
   177
1070
     2
1070
   178
1070
     2
1070
   271
1070
     2
1070
   277
1070
     2
1070
   279
1070
     2
1070
   280
1070
     0
1070
   287
1070
     5
1070
   340
1005
113
1002
}
  0
DIMENSION
  5
16B
330
1F
100
AcDbEntity
  8
Ｓ_１_１
  6
CONTINUOUS
 62
     2
100
AcDbDimension
  2
*D22
 10
495.0
 20
384.0
 30
0.0
 11
437.500008
 21
389.5
 31
0.0
 70
   160
  3
ISO-25
100
AcDbAlignedDimension
 13
380.000016
 23
312.000022
 33
0.0
 14
495.0
 24
343.99999912734
 34
0.0
100
AcDbRotatedDimension
1001
ACAD
1000
DSTYLE
1002
{
1070
   270
1070
     2
1070
     6
1000
EX_NORM
1070
     7
1000
EX_NORM
1070
    41
1040
6.0
1070
    42
1040
3.0
1070
    44
1040
2.0
1070
    73
1070
     0
1070
    74
1070
     0
1070
    75
1070
     0
1070
    76
1070
     0
1070
    77
1070
     1
1070
    78
1070
     8
1070
   140
1040
6.92580831408776
1070
   147
1040
0.0
1070
   173
1070
     1
1070
   176
1070
     2
1070
   177
1070
     2
1070
   178
1070
     2
1070
   271
1070
     2
1070
   277
1070
     2
1070
   279
1070
     2
1070
   280
1070
     0
1070
   287
1070
     5
1070
   340
1005
113
1002
}
  0
DIMENSION
  5
178
330
1F
100
AcDbEntity
  8
Ｓ_１_１
  6
CONTINUOUS
 62
     2
100
AcDbDimension
  2
*D23
 10
634.9999999999999
 20
384.0
 30
0.0
 11
565.000008
 21
389.5
 31
0.0
 70
   160
  3
ISO-25
100
AcDbAlignedDimension
 13
495.000016
 23
344.0
 33
0.0
 14
634.9999999999999
 24
344.0
 34
0.0
100
AcDbRotatedDimension
1001
ACAD
1000
DSTYLE
1002
{
1070
   270
1070
     2
1070
     6
1000
EX_NORM
1070
     7
1000
EX_NORM
1070
    41
1040
6.0
1070
    42
1040
3.0
1070
    44
1040
2.0
1070
    73
1070
     0
1070
    74
1070
     0
1070
    75
1070
     0
1070
    76
1070
     0
1070
    77
1070
     1
1070
    78
1070
     8
1070
   140
1040
6.92580831408776
1070
   147
1040
0.0
1070
   173
1070
     1
1070
   176
1070
     2
1070
   177
1070
     2
1070
   178
1070
     2
1070
   271
1070
     2
1070
   277
1070
     2
1070
   279
1070
     2
1070
   280
1070
     0
1070
   287
1070
     5
1070
   340
1005
113
1002
}
  0
DIMENSION
  5
185
330
1F
100
AcDbEntity
  8
Ｓ_１_１
  6
CONTINUOUS
 62
     2
100
AcDbDimension
  2
*D24
 10
756.0
 20
214.000015
 30
0.0
 11
750.5
 21
264.0000074999999
 31
0.0
 70
   160
  1
%%c100
  3
ISO-25
100
AcDbAlignedDimension
 13
717.9999999999999
 23
314.0
 33
0.0
 14
717.9999999999999
 24
214.000015
 34
0.0
 50
90.0
100
AcDbRotatedDimension
1001
ACAD
1000
DSTYLE
1002
{
1070
   270
1070
     2
1070
     6
1000
EX_NORM
1070
     7
1000
EX_NORM
1070
    41
1040
6.0
1070
    42
1040
3.0
1070
    44
1040
2.0
1070
    73
1070
     0
1070
    74
1070
     0
1070
    75
1070
     0
1070
    76
1070
     0
1070
    77
1070
     1
1070
    78
1070
     8
1070
   140
1040
6.92580831408776
1070
   147
1040
0.0
1070
   173
1070
     1
1070
   176
1070
     2
1070
   177
1070
     2
1070
   178
1070
     2
1070
   271
1070
     2
1070
   277
1070
     2
1070
   279
1070
     2
1070
   280
1070
     0
1070
   287
1070
     5
1070
   340
1005
113
1002
}
  0
DIMENSION
  5
192
330
1F
100
AcDbEntity
  8
Ｓ_１_１
  6
CONTINUOUS
 62
     2
100
AcDbDimension
  2
*D25
 10
336.0
 20
234.000015
 30
0.0
 11
330.5
 21
264.0000075
 31
0.0
 70
   160
  1
%%c60
  3
ISO-25
100
AcDbAlignedDimension
 13
375.0000159999999
 23
294.0
 33
0.0
 14
375.0000159999999
 24
234.000015
 34
0.0
 50
90.0
100
AcDbRotatedDimension
1001
ACAD
1000
DSTYLE
1002
{
1070
   270
1070
     2
1070
     6
1000
EX_NORM
1070
     7
1000
EX_NORM
1070
    41
1040
6.0
1070
    42
1040
3.0
1070
    44
1040
2.0
1070
    73
1070
     0
1070
    74
1070
     0
1070
    75
1070
     0
1070
    76
1070
     0
1070
    77
1070
     1
1070
    78
1070
     8
1070
   140
1040
6.92580831408776
1070
   147
1040
0.0
1070
   173
1070
     1
1070
   176
1070
     2
1070
   177
1070
     2
1070
   178
1070
     2
1070
   271
1070
     2
1070
   277
1070
     2
1070
   279
1070
     2
1070
   280
1070
     0
1070
   287
1070
     5
1070
   340
1005
113
1002
}
  0
CIRCLE
  5
19F
330
1F
100
AcDbEntity
  8
Ｓ_１_１
  6
CONTINUOUS
 62
     3
100
AcDbCircle
 10
679.9999999999999
 20
264.0
 30
0.0
 40
18.580601
  0
ARC
  5
1A0
330
1F
100
AcDbEntity
  8
Ｓ_１_１
  6
CONTINUOUS
 62
     3
100
AcDbCircle
 10
624.9999999999999
 20
344.0
 30
0.0
 40
5.0
100
AcDbArc
 50
0.0
 51
90.000003
  0
ARC
  5
1A1
330
1F
100
AcDbEntity
  8
Ｓ_１_１
  6
CONTINUOUS
 62
     3
100
AcDbCircle
 10
504.9999999999999
 20
344.0
 30
0.0
 40
5.0
100
AcDbArc
 50
90.000003
 51
180.000005
  0
ARC
  5
1A2
330
1F
100
AcDbEntity
  8
Ｓ_１_１
  6
CONTINUOUS
 62
     3
100
AcDbCircle
 10
624.9999999999999
 20
344.0
 30
0.0
 40
10.0
100
AcDbArc
 50
0.0
 51
90.000003
  0
ARC
  5
1A3
330
1F
100
AcDbEntity
  8
Ｓ_１_１
  6
CONTINUOUS
 62
     3
100
AcDbCircle
 10
504.9999999999999
 20
344.0
 30
0.0
 40
10.0
100
AcDbArc
 50
90.000003
 51
180.000005
  0
LINE
  5
1A4
330
1F
100
AcDbEntity
  8
Ｓ_１_１
  6
CONTINUOUS
 62
     3
100
AcDbLine
 10
374.9999969999999
 20
234.000021
 30
0.0
 11
369.9999999999999
 21
236.88677
 31
0.0
  0
LINE
  5
1A5
330
1F
100
AcDbEntity
  8
Ｓ_１_１
  6
CONTINUOUS
 62
     3
100
AcDbLine
 10
375.0000199999999
 20
294.000011
 30
0.0
 11
369.9999969999999
 21
291.113246
 31
0.0
  0
LINE
  5
1A6
330
1F
100
AcDbEntity
  8
Ｓ_１_１
  6
CONTINUOUS
 62
     3
100
AcDbLine
 10
370.0000159999999
 20
291.11325
 30
0.0
 11
370.0000159999999
 21
236.886764
 31
0.0
  0
LINE
  5
1A7
330
1F
100
AcDbEntity
  8
Ｓ_１_１
  6
CONTINUOUS
 62
     3
100
AcDbLine
 10
629.9999999999999
 20
344.0
 30
0.0
 11
629.9999999999999
 21
314.0
 31
0.0
  0
LINE
  5
1A8
330
1F
100
AcDbEntity
  8
Ｓ_１_１
  6
CONTINUOUS
 62
     3
100
AcDbLine
 10
504.9999999999999
 20
349.0
 30
0.0
 11
624.9999999999999
 21
349.0
 31
0.0
  0
LINE
  5
1A9
330
1F
100
AcDbEntity
  8
Ｓ_１_１
  6
CONTINUOUS
 62
     3
100
AcDbLine
 10
499.9999999999999
 20
344.0
 30
0.0
 11
499.9999999999999
 21
314.0
 31
0.0
  0
LINE
  5
1AA
330
1F
100
AcDbEntity
  8
Ｓ_１_１
  6
CONTINUOUS
 62
     3
100
AcDbLine
 10
634.9999999999999
 20
344.0
 30
0.0
 11
634.9999999999999
 21
314.0
 31
0.0
  0
LINE
  5
1AB
330
1F
100
AcDbEntity
  8
Ｓ_１_１
  6
CONTINUOUS
 62
     3
100
AcDbLine
 10
504.9999999999999
 20
354.0
 30
0.0
 11
624.9999999999999
 21
354.0
 31
0.0
  0
LINE
  5
1AC
330
1F
100
AcDbEntity
  8
Ｓ_１_１
  6
CONTINUOUS
 62
     3
100
AcDbLine
 10
495.0000159999998
 20
344.0
 30
0.0
 11
495.0000159999998
 21
314.0
 31
0.0
  0
LINE
  5
1AD
330
1F
100
AcDbEntity
  8
Ｓ_１_１
  6
CONTINUOUS
 62
     3
100
AcDbLine
 10
375.0000159999999
 20
294.0
 30
0.0
 11
375.0000159999999
 21
234.000015
 31
0.0
  0
LINE
  5
1AE
330
1F
100
AcDbEntity
  8
Ｓ_１_１
  6
CONTINUOUS
 62
     3
100
AcDbLine
 10
375.0000159999999
 20
294.0
 30
0.0
 11
380.0000159999999
 21
294.0
 31
0.0
  0
LINE
  5
1AF
330
1F
100
AcDbEntity
  8
Ｓ_１_１
  6
CONTINUOUS
 62
     3
100
AcDbLine
 10
375.0000159999999
 20
234.000015
 30
0.0
 11
380.0000159999999
 21
234.000015
 31
0.0
  0
LINE
  5
1B0
330
1F
100
AcDbEntity
  8
Ｓ_１_１
  6
CONTINUOUS
 62
     3
100
AcDbLine
 10
380.0000159999999
 20
216.000011
 30
0.0
 11
382.000019
 21
214.000009
 31
0.0
  0
LINE
  5
1B1
330
1F
100
AcDbEntity
  8
Ｓ_１_１
  6
CONTINUOUS
 62
     3
100
AcDbLine
 10
380.0000019999999
 20
312.000008
 30
0.0
 11
382.0000039999999
 21
314.00001
 31
0.0
  0
LINE
  5
1B2
330
1F
100
AcDbEntity
  8
Ｓ_１_１
  6
CONTINUOUS
 62
     3
100
AcDbLine
 10
382.0000159999999
 20
314.0
 30
0.0
 11
382.0000159999999
 21
214.000015
 31
0.0
  0
LINE
  5
1B3
330
1F
100
AcDbEntity
  8
Ｓ_１_１
  6
CONTINUOUS
 62
     3
100
AcDbLine
 10
717.9999999999999
 20
314.000007
 30
0.0
 11
719.9999969999999
 21
312.00001
 31
0.0
  0
LINE
  5
1B4
330
1F
100
AcDbEntity
  8
Ｓ_１_１
  6
CONTINUOUS
 62
     3
100
AcDbLine
 10
718.0000049999999
 20
214.000014
 30
0.0
 11
720.000007
 21
216.000016
 31
0.0
  0
LINE
  5
1B5
330
1F
100
AcDbEntity
  8
Ｓ_１_１
  6
CONTINUOUS
 62
     3
100
AcDbLine
 10
717.9999999999999
 20
314.0
 30
0.0
 11
717.9999999999999
 21
214.000015
 31
0.0
  0
LINE
  5
1B6
330
1F
100
AcDbEntity
  8
Ｓ_１_１
  6
CONTINUOUS
 62
     3
100
AcDbLine
 10
380.0000159999999
 20
312.0
 30
0.0
 11
380.0000159999999
 21
216.000015
 31
0.0
  0
LINE
  5
1B7
330
1F
100
AcDbEntity
  8
Ｓ_１_１
  6
CONTINUOUS
 62
     3
100
AcDbLine
 10
719.9999999999999
 20
312.0
 30
0.0
 11
719.9999999999999
 21
216.000015
 31
0.0
  0
LINE
  5
1B8
330
1F
100
AcDbEntity
  8
Ｓ_１_１
  6
CONTINUOUS
 62
     3
100
AcDbLine
 10
382.0000159999999
 20
214.000015
 30
0.0
 11
717.9999999999999
 21
214.000015
 31
0.0
  0
LINE
  5
1B9
330
1F
100
AcDbEntity
  8
Ｓ_１_１
  6
EXLTYPE2
 62
     1
100
AcDbLine
 10
360.0
 20
264.0
 30
0.0
 11
730.0
 21
264.0000000000001
 31
0.0
  0
LINE
  5
1BA
330
1F
100
AcDbEntity
  8
Ｓ_１_１
  6
EXLTYPE2
 62
     1
100
AcDbLine
 10
679.9999999999999
 20
284.0
 30
0.0
 11
679.9999999999999
 21
244.0
 31
0.0
  0
CIRCLE
  5
1BB
330
1F
100
AcDbEntity
  8
Ｓ_１_１
  6
CONTINUOUS
 62
     3
100
AcDbCircle
 10
679.9999999999999
 20
264.0000000000001
 30
0.0
 40
16.0
  0
CIRCLE
  5
1BC
330
1F
100
AcDbEntity
  8
Ｓ_１_１
  6
CONTINUOUS
 62
     3
100
AcDbCircle
 10
679.9999999999999
 20
264.0000000000001
 30
0.0
 40
13.000004
  0
CIRCLE
  5
1BD
330
1F
100
AcDbEntity
  8
Ｓ_１_１
  6
CONTINUOUS
 62
     3
100
AcDbCircle
 10
679.9999999999999
 20
264.0000000000001
 30
0.0
 40
12.00000000000001
  0
CIRCLE
  5
1BE
330
1F
100
AcDbEntity
  8
Ｓ_１_１
  6
CONTINUOUS
 62
     3
100
AcDbCircle
 10
445.0000159999999
 20
264.0000000000002
 30
0.0
 40
9.000001000000006
  0
CIRCLE
  5
1BF
330
1F
100
AcDbEntity
  8
Ｓ_１_１
  6
CONTINUOUS
 62
     3
100
AcDbCircle
 10
445.0000159999999
 20
264.0000000000002
 30
0.0
 40
15.50000000000001
  0
CIRCLE
  5
1C0
330
1F
100
AcDbEntity
  8
Ｓ_１_１
  6
CONTINUOUS
 62
     3
100
AcDbCircle
 10
445.0000159999999
 20
264.0000000000002
 30
0.0
 40
5.499979000000002
  0
CIRCLE
  5
1C1
330
1F
100
AcDbEntity
  8
Ｓ_１_１
  6
CONTINUOUS
 62
     3
100
AcDbCircle
 10
445.0000159999999
 20
264.0000000000002
 30
0.0
 40
1.499823
  0
CIRCLE
  5
1C2
330
1F
100
AcDbEntity
  8
Ｓ_１_１
  6
CONTINUOUS
 62
     3
100
AcDbCircle
 10
445.0000159999999
 20
264.0000000000002
 30
0.0
 40
11.74997900000001
  0
LINE
  5
1C3
330
1F
100
AcDbEntity
  8
Ｓ_１_１
  6
CONTINUOUS
 62
     3
100
AcDbLine
 10
427.1021829999999
 20
264.000048
 30
0.0
 11
436.0510959999999
 21
279.5000200000001
 31
0.0
  0
LINE
  5
1C4
330
1F
100
AcDbEntity
  8
Ｓ_１_１
  6
CONTINUOUS
 62
     3
100
AcDbLine
 10
436.0511029999997
 20
279.5000000000002
 30
0.0
 11
453.9489299999997
 21
279.5000000000002
 31
0.0
  0
LINE
  5
1C5
330
1F
100
AcDbEntity
  8
Ｓ_１_１
  6
CONTINUOUS
 62
     3
100
AcDbLine
 10
436.0511029999997
 20
248.4999390000004
 30
0.0
 11
453.9489299999997
 21
248.4999390000004
 31
0.0
  0
LINE
  5
1C6
330
1F
100
AcDbEntity
  8
Ｓ_１_１
  6
CONTINUOUS
 62
     3
100
AcDbLine
 10
427.1021279999999
 20
263.9998810000004
 30
0.0
 11
436.0510109999997
 21
248.4999610000002
 31
0.0
  0
LINE
  5
1C7
330
1F
100
AcDbEntity
  8
Ｓ_１_１
  6
CONTINUOUS
 62
     3
100
AcDbLine
 10
453.9490209999998
 20
279.4999420000001
 30
0.0
 11
462.8979039999999
 21
264.0000220000003
 31
0.0
  0
LINE
  5
1C8
330
1F
100
AcDbEntity
  8
Ｓ_１_１
  6
CONTINUOUS
 62
     3
100
AcDbLine
 10
462.8979429999999
 20
263.9999860000004
 30
0.0
 11
453.9490289999998
 21
248.500013
 31
0.0
  0
LINE
  5
1C9
330
1F
100
AcDbEntity
  8
Ｓ_１_１
  6
CONTINUOUS
 62
     3
100
AcDbLine
 10
431.0000159999794
 20
270.7512928003864
 30
0.0
 11
431.0000159999794
 21
278.0000000000065
 31
0.0
  0
LINE
  5
1CA
330
1F
100
AcDbEntity
  8
Ｓ_１_１
  6
CONTINUOUS
 62
     3
100
AcDbLine
 10
431.0000159999794
 20
250.0000000000065
 30
0.0
 11
431.0000159999794
 21
257.2485409535781
 31
0.0
  0
LINE
  5
1CB
330
1F
100
AcDbEntity
  8
Ｓ_１_１
  6
CONTINUOUS
 62
     3
100
AcDbLine
 10
431.0000159999794
 20
250.0000000000065
 30
0.0
 11
435.1849630780432
 21
250.0000000000065
 31
0.0
  0
LINE
  5
1CC
330
1F
100
AcDbEntity
  8
Ｓ_１_１
  6
CONTINUOUS
 62
     3
100
AcDbLine
 10
431.0000159999794
 20
278.0000000000065
 30
0.0
 11
435.1850590498556
 21
278.0000000000065
 31
0.0
  0
LINE
  5
1CD
330
1F
100
AcDbEntity
  8
Ｓ_１_１
  6
CONTINUOUS
 62
     3
100
AcDbLine
 10
454.815012918973
 20
278.0000000000065
 30
0.0
 11
459.0000159999794
 21
278.0000000000065
 31
0.0
  0
LINE
  5
1CE
330
1F
100
AcDbEntity
  8
Ｓ_１_１
  6
CONTINUOUS
 62
     3
100
AcDbLine
 10
459.0000159999794
 20
278.0000000000065
 30
0.0
 11
459.0000159999794
 21
270.7513620464926
 31
0.0
  0
LINE
  5
1CF
330
1F
100
AcDbEntity
  8
Ｓ_１_１
  6
CONTINUOUS
 62
     3
100
AcDbLine
 10
459.0000159999794
 20
257.2485787056305
 30
0.0
 11
459.0000159999794
 21
250.0000000000065
 31
0.0
  0
LINE
  5
1D0
330
1F
100
AcDbEntity
  8
Ｓ_１_１
  6
CONTINUOUS
 62
     3
100
AcDbLine
 10
454.815046938494
 20
250.0000000000065
 30
0.0
 11
459.0000159999794
 21
250.0000000000065
 31
0.0
  0
LINE
  5
1D1
330
1F
100
AcDbEntity
  8
Ｓ_１_１
  6
CONTINUOUS
 62
     3
100
AcDbLine
 10
449.2500159999992
 20
313.0000000000404
 30
0.0
 11
449.2500159999992
 21
318.0000000000404
 31
0.0
  0
LINE
  5
1D2
330
1F
100
AcDbEntity
  8
Ｓ_１_１
  6
CONTINUOUS
 62
     3
100
AcDbLine
 10
440.7500159999992
 20
313.0000000000404
 30
0.0
 11
440.7500159999992
 21
318.0000000000404
 31
0.0
  0
LINE
  5
1D3
330
1F
100
AcDbEntity
  8
Ｓ_１_１
  6
CONTINUOUS
 62
     3
100
AcDbLine
 10
440.0000159999992
 20
313.0000000000404
 30
0.0
 11
440.0000159999992
 21
317.2500000000404
 31
0.0
  0
LINE
  5
1D4
330
1F
100
AcDbEntity
  8
Ｓ_１_１
  6
CONTINUOUS
 62
     3
100
AcDbLine
 10
450.0000159999992
 20
313.0000000000404
 30
0.0
 11
450.0000159999992
 21
317.2500000000404
 31
0.0
  0
LINE
  5
1D5
330
1F
100
AcDbEntity
  8
Ｓ_１_１
  6
CONTINUOUS
 62
     3
100
AcDbLine
 10
440.7500159999992
 20
318.0000000000404
 30
0.0
 11
449.2500159999992
 21
318.0000000000404
 31
0.0
  0
LINE
  5
1D6
330
1F
100
AcDbEntity
  8
Ｓ_１_１
  6
CONTINUOUS
 62
     3
100
AcDbLine
 10
440.0000159999992
 20
317.2500000000404
 30
0.0
 11
450.0000159999992
 21
317.2500000000404
 31
0.0
  0
LINE
  5
1D7
330
1F
100
AcDbEntity
  8
Ｓ_１_１
  6
CONTINUOUS
 62
     3
100
AcDbLine
 10
440.0000171249991
 20
317.2500025577405
 30
0.0
 11
440.7500152869993
 21
318.0000006565405
 31
0.0
  0
LINE
  5
1D8
330
1F
100
AcDbEntity
  8
Ｓ_１_１
  6
CONTINUOUS
 62
     3
100
AcDbLine
 10
449.2500179252992
 20
318.0000016470403
 30
0.0
 11
450.0000180470992
 21
317.2500014619404
 31
0.0
  0
LINE
  5
1D9
330
1F
100
AcDbEntity
  8
Ｓ_１_１
  6
CONTINUOUS
 62
     3
100
AcDbLine
 10
445.0000159999992
 20
306.0000000000404
 30
0.0
 11
455.0000159999992
 21
306.0000000000404
 31
0.0
  0
LINE
  5
1DA
330
1F
100
AcDbEntity
  8
Ｓ_１_１
  6
CONTINUOUS
 62
     3
100
AcDbLine
 10
435.0000159999992
 20
306.0000000000404
 30
0.0
 11
445.0000159999992
 21
306.0000000000404
 31
0.0
  0
LINE
  5
1DB
330
1F
100
AcDbEntity
  8
Ｓ_１_１
  6
CONTINUOUS
 62
     3
100
AcDbLine
 10
455.0000154489994
 20
306.0000005510405
 30
0.0
 11
454.0000153356991
 21
307.0000005800402
 31
0.0
  0
LINE
  5
1DC
330
1F
100
AcDbEntity
  8
Ｓ_１_１
  6
CONTINUOUS
 62
     3
100
AcDbLine
 10
436.0000162005992
 20
307.0000002849405
 30
0.0
 11
435.0000164876992
 21
306.0000004877406
 31
0.0
  0
LINE
  5
1DD
330
1F
100
AcDbEntity
  8
Ｓ_１_１
  6
CONTINUOUS
 62
     3
100
AcDbLine
 10
436.0000162005992
 20
307.0000000000404
 30
0.0
 11
445.0000159999992
 21
307.0000000000404
 31
0.0
  0
LINE
  5
1DE
330
1F
100
AcDbEntity
  8
Ｓ_１_１
  6
CONTINUOUS
 62
     3
100
AcDbLine
 10
445.0000159999992
 20
307.0000000000404
 30
0.0
 11
454.0000153356991
 21
307.0000000000404
 31
0.0
  0
LINE
  5
1DF
330
1F
100
AcDbEntity
  8
Ｓ_１_１
  6
CONTINUOUS
 62
     3
100
AcDbLine
 10
452.4924286631992
 20
312.9999981656405
 30
0.0
 11
454.5000152528991
 21
311.9999979724402
 31
0.0
  0
LINE
  5
1E0
330
1F
100
AcDbEntity
  8
Ｓ_１_１
  6
CONTINUOUS
 62
     3
100
AcDbLine
 10
437.5076022439993
 20
312.9999995145403
 30
0.0
 11
435.5000156542991
 21
311.9999993213405
 31
0.0
  0
LINE
  5
1E1
330
1F
100
AcDbEntity
  8
Ｓ_１_１
  6
CONTINUOUS
 62
     3
100
AcDbLine
 10
452.4924293061992
 20
306.9999999766405
 30
0.0
 11
454.5000158958991
 21
308.0000001698403
 31
0.0
  0
LINE
  5
1E2
330
1F
100
AcDbEntity
  8
Ｓ_１_１
  6
CONTINUOUS
 62
     3
100
AcDbLine
 10
437.5076018856993
 20
306.9999984859405
 30
0.0
 11
435.5000155804991
 21
307.9999985375402
 31
0.0
  0
LINE
  5
1E3
330
1F
100
AcDbEntity
  8
Ｓ_１_１
  6
CONTINUOUS
 62
     3
100
AcDbLine
 10
435.5000159999992
 20
308.0000000000404
 30
0.0
 11
435.5000159999992
 21
312.0000000000404
 31
0.0
  0
LINE
  5
1E4
330
1F
100
AcDbEntity
  8
Ｓ_１_１
  6
CONTINUOUS
 62
     3
100
AcDbLine
 10
454.5000159999992
 20
308.0000000000404
 30
0.0
 11
454.5000159999992
 21
312.0000000000404
 31
0.0
  0
LINE
  5
1E5
330
1F
100
AcDbEntity
  8
Ｓ_１_１
  6
CONTINUOUS
 62
     3
100
AcDbLine
 10
445.0000159999992
 20
313.0000000000404
 30
0.0
 11
452.4924298386993
 21
313.0000000000404
 31
0.0
  0
LINE
  5
1E6
330
1F
100
AcDbEntity
  8
Ｓ_１_１
  6
CONTINUOUS
 62
     3
100
AcDbLine
 10
437.5076021612992
 20
313.0000000000404
 30
0.0
 11
445.0000159999992
 21
313.0000000000404
 31
0.0
  0
ARC
  5
1E7
330
1F
100
AcDbEntity
  8
Ｓ_１_１
  6
CONTINUOUS
 62
     3
100
AcDbCircle
 10
445.0000159999992
 20
322.5416666667406
 30
0.0
 40
15.5416666667
100
AcDbArc
 50
290.6654761095523
 51
290.6654836456998
  0
ARC
  5
1E8
330
1F
100
AcDbEntity
  8
Ｓ_１_１
  6
CONTINUOUS
 62
     3
100
AcDbCircle
 10
445.0000159999992
 20
297.4583333333402
 30
0.0
 40
15.5416666667
100
AcDbArc
 50
69.33452159060036
 51
69.33452389044697
  0
ARC
  5
1E9
330
1F
100
AcDbEntity
  8
Ｓ_１_１
  6
CONTINUOUS
 62
     3
100
AcDbCircle
 10
445.0000159999992
 20
322.5416666667406
 30
0.0
 40
15.5416666667
100
AcDbArc
 50
252.8126319048212
 51
287.1873675971856
  0
ARC
  5
1EA
330
1F
100
AcDbEntity
  8
Ｓ_１_１
  6
CONTINUOUS
 62
     3
100
AcDbCircle
 10
445.0000159999992
 20
322.5416666667406
 30
0.0
 40
15.5416666667
100
AcDbArc
 50
249.3345199966998
 51
249.3345213439644
  0
ARC
  5
1EB
330
1F
100
AcDbEntity
  8
Ｓ_１_１
  6
CONTINUOUS
 62
     3
100
AcDbCircle
 10
445.0000159999992
 20
297.4583333333402
 30
0.0
 40
15.5416666667
100
AcDbArc
 50
72.81263240281449
 51
107.1873680951788
  0
LINE
  5
1EC
330
1F
100
AcDbEntity
  8
Ｓ_１_１
  6
CONTINUOUS
 62
     3
100
AcDbLine
 10
449.5925384946792
 20
312.3059641179024
 30
0.0
 11
449.5925384946792
 21
307.6940358821784
 31
0.0
  0
LINE
  5
1ED
330
1F
100
AcDbEntity
  8
Ｓ_１_１
  6
CONTINUOUS
 62
     3
100
AcDbLine
 10
440.4074933762692
 20
312.3059640779861
 30
0.0
 11
440.4074933762692
 21
307.6940359220948
 31
0.0
  0
ARC
  5
1EE
330
1F
100
AcDbEntity
  8
Ｓ_１_１
  6
CONTINUOUS
 62
     3
100
AcDbCircle
 10
437.5075988460091
 20
307.0000000000404
 30
0.0
 40
6.000000000001596
100
AcDbArc
 50
61.09781592208635
 51
89.9999582440774
  0
ARC
  5
1EF
330
1F
100
AcDbEntity
  8
Ｓ_１_１
  6
CONTINUOUS
 62
     3
100
AcDbCircle
 10
437.5076032186791
 20
313.0000000000404
 30
0.0
 40
6.000000000001596
100
AcDbArc
 50
269.9999582441144
 51
298.9021363811877
  0
ARC
  5
1F0
330
1F
100
AcDbEntity
  8
Ｓ_１_１
  6
CONTINUOUS
 62
     3
100
AcDbCircle
 10
452.4924293531791
 20
313.0000000000404
 30
0.0
 40
6.000000000000006
100
AcDbArc
 50
241.0978559733381
 51
270.0000079827389
  0
ARC
  5
1F1
330
1F
100
AcDbEntity
  8
Ｓ_１_１
  6
CONTINUOUS
 62
     3
100
AcDbCircle
 10
452.4924293531791
 20
307.0000000000404
 30
0.0
 40
6.000000000001596
100
AcDbArc
 50
90.00000000000001
 51
118.9021440266536
  0
LINE
  5
1F2
330
1F
100
AcDbEntity
  8
Ｓ_１_１
  6
CONTINUOUS
 62
     3
100
AcDbLine
 10
435.0000159999992
 20
278.0000000000065
 30
0.0
 11
435.0000159999992
 21
306.0000000000404
 31
0.0
  0
LINE
  5
1F3
330
1F
100
AcDbEntity
  8
Ｓ_１_１
  6
CONTINUOUS
 62
     3
100
AcDbLine
 10
455.0000159999992
 20
278.0000000000065
 30
0.0
 11
455.0000159999992
 21
306.0000000000404
 31
0.0
  0
LINE
  5
1F4
330
1F
100
AcDbEntity
  8
Ｓ_１_１
  6
CONTINUOUS
 62
     3
100
AcDbLine
 10
382.0000159999999
 20
314.0
 30
0.0
 11
440.0000159999992
 21
314.0
 31
0.0
  0
LINE
  5
1F5
330
1F
100
AcDbEntity
  8
Ｓ_１_１
  6
CONTINUOUS
 62
     3
100
AcDbLine
 10
450.0000159999992
 20
314.0
 30
0.0
 11
717.9999999999999
 21
314.0
 31
0.0
  0
LINE
  5
1F6
330
1F
100
AcDbEntity
  8
Ｓ_１_１
  6
EXLTYPE2
 62
     1
100
AcDbLine
 10
445.0000159999998
 20
320.6
 30
0.0
 11
445.0000159999998
 21
244.0
 31
0.0
  0
ARC
  5
1F7
330
1F
100
AcDbEntity
  8
Ｓ_１_１
  6
CONTINUOUS
 62
     3
100
AcDbCircle
 10
445.0000159999998
 20
264.0
 30
0.0
 40
18.580601
100
AcDbArc
 50
122.5608981991149
 51
131.1077895478844
  0
ARC
  5
1F8
330
1F
100
AcDbEntity
  8
Ｓ_１_１
  6
CONTINUOUS
 62
     3
100
AcDbCircle
 10
445.0000159999998
 20
264.0
 30
0.0
 40
18.580601
100
AcDbArc
 50
48.89221045211562
 51
57.43910180088965
  0
ARC
  5
1F9
330
1F
100
AcDbEntity
  8
Ｓ_１_１
  6
CONTINUOUS
 62
     3
100
AcDbCircle
 10
445.0000159999998
 20
264.0
 30
0.0
 40
18.580601
100
AcDbArc
 50
318.8922104519893
 51
41.10778954801074
  0
ARC
  5
1FA
330
1F
100
AcDbEntity
  8
Ｓ_１_１
  6
CONTINUOUS
 62
     3
100
AcDbCircle
 10
445.0000159999998
 20
264.0
 30
0.0
 40
18.580601
100
AcDbArc
 50
138.8922104521807
 51
221.1077895478194
  0
ARC
  5
1FB
330
1F
100
AcDbEntity
  8
Ｓ_１_１
  6
CONTINUOUS
 62
     3
100
AcDbCircle
 10
445.0000159999998
 20
264.0
 30
0.0
 40
18.580601
100
AcDbArc
 50
228.8922104520543
 51
311.1077895479458
  0
DIMENSION
  5
1FC
330
1F
100
AcDbEntity
  8
Ｓ_１_１
  6
CONTINUOUS
 62
     2
100
AcDbDimension
  2
*D26
 10
206.0
 20
180.140869
 30
0.0
 11
156.0
 21
185.640869
 31
0.0
 70
   160
  3
ISO-25
100
AcDbAlignedDimension
 13
106.0
 23
264.0
 33
0.0
 14
206.0
 24
264.0
 34
0.0
100
AcDbRotatedDimension
1001
ACAD
1000
DSTYLE
1002
{
1070
   270
1070
     2
1070
     6
1000
EX_NORM
1070
     7
1000
EX_NORM
1070
    41
1040
6.0
1070
    42
1040
3.0
1070
    44
1040
2.0
1070
    73
1070
     0
1070
    74
1070
     0
1070
    75
1070
     0
1070
    76
1070
     1
1070
    77
1070
     1
1070
    78
1070
     8
1070
   140
1040
6.92580831408776
1070
   147
1040
0.0
1070
   173
1070
     1
1070
   176
1070
     2
1070
   177
1070
     2
1070
   178
1070
     2
1070
   271
1070
     2
1070
   277
1070
     2
1070
   279
1070
     2
1070
   280
1070
     0
1070
   287
1070
     5
1070
   340
1005
113
1002
}
  0
LINE
  5
208
330
1F
100
AcDbEntity
  8
Ｓ_１_１
  6
CONTINUOUS
 62
     2
100
AcDbLine
 10
206.0000000000001
 20
261.0
 30
0.0
 11
206.0
 21
178.140869
 31
0.0
  0
LINE
  5
209
330
1F
100
AcDbEntity
  8
Ｓ_１_１
  6
CONTINUOUS
 62
     3
100
AcDbLine
 10
216.0
 20
256.0476508124985
 30
0.0
 11
222.362263
 21
255.6500099999998
 31
0.0
  0
LINE
  5
20A
330
1F
100
AcDbEntity
  8
Ｓ_１_１
  6
CONTINUOUS
 62
     3
100
AcDbLine
 10
216.0
 20
256.7490139999998
 30
0.0
 11
221.00001
 21
256.4365129999998
 31
0.0
  0
LINE
  5
20B
330
1F
100
AcDbEntity
  8
Ｓ_１_１
  6
CONTINUOUS
 62
     3
100
AcDbLine
 10
216.0
 20
271.952353
 30
0.0
 11
222.362251
 21
272.3499929999998
 31
0.0
  0
LINE
  5
20C
330
1F
100
AcDbEntity
  8
Ｓ_１_１
  6
CONTINUOUS
 62
     3
100
AcDbLine
 10
216.0
 20
271.2509897500009
 30
0.0
 11
220.999998
 21
271.5634899999998
 31
0.0
  0
LINE
  5
20D
330
1F
100
AcDbEntity
  8
Ｓ_１_１
  6
EXLTYPE2
 62
     1
100
AcDbLine
 10
238.8622790000091
 20
250.1188507080001
 30
0.0
 11
238.8622790000092
 21
319.0114479065005
 31
0.0
  0
LINE
  5
20E
330
1F
100
AcDbEntity
  8
Ｓ_１_１
  6
CONTINUOUS
 62
     3
100
AcDbLine
 10
228.8622790000091
 20
276.4999999999999
 30
0.0
 11
228.8622790000092
 21
306.0000000000004
 31
0.0
  0
ARC
  5
20F
330
1F
100
AcDbEntity
  8
Ｓ_１_１
  6
CONTINUOUS
 62
     3
100
AcDbCircle
 10
246.3546923531891
 20
307.0000000000004
 30
0.0
 40
6.000000000001596
100
AcDbArc
 50
90.00000000000001
 51
118.9021440266538
  0
ARC
  5
210
330
1F
100
AcDbEntity
  8
Ｓ_１_１
  6
CONTINUOUS
 62
     3
100
AcDbCircle
 10
246.3546923531891
 20
313.0000000000004
 30
0.0
 40
6.000000000000006
100
AcDbArc
 50
241.0978559733379
 51
270.0000079827389
  0
ARC
  5
211
330
1F
100
AcDbEntity
  8
Ｓ_１_１
  6
CONTINUOUS
 62
     3
100
AcDbCircle
 10
231.3698662186891
 20
313.0000000000004
 30
0.0
 40
6.000000000001596
100
AcDbArc
 50
269.9999582441144
 51
298.9021363811877
  0
ARC
  5
212
330
1F
100
AcDbEntity
  8
Ｓ_１_１
  6
CONTINUOUS
 62
     3
100
AcDbCircle
 10
231.3698618460191
 20
307.0000000000004
 30
0.0
 40
6.000000000001596
100
AcDbArc
 50
61.09781592208646
 51
89.9999582440774
  0
LINE
  5
213
330
1F
100
AcDbEntity
  8
Ｓ_１_１
  6
CONTINUOUS
 62
     3
100
AcDbLine
 10
234.2697563762792
 20
312.305964077946
 30
0.0
 11
234.2697563762792
 21
307.6940359220548
 31
0.0
  0
LINE
  5
214
330
1F
100
AcDbEntity
  8
Ｓ_１_１
  6
CONTINUOUS
 62
     3
100
AcDbLine
 10
243.4548014946892
 20
312.3059641178624
 30
0.0
 11
243.4548014946892
 21
307.6940358821384
 31
0.0
  0
ARC
  5
215
330
1F
100
AcDbEntity
  8
Ｓ_１_１
  6
CONTINUOUS
 62
     3
100
AcDbCircle
 10
238.8622790000092
 20
297.4583333333002
 30
0.0
 40
15.5416666667
100
AcDbArc
 50
72.81263240281456
 51
107.1873680951789
  0
ARC
  5
216
330
1F
100
AcDbEntity
  8
Ｓ_１_１
  6
CONTINUOUS
 62
     3
100
AcDbCircle
 10
238.8622790000092
 20
322.5416666667006
 30
0.0
 40
15.5416666667
100
AcDbArc
 50
249.3345199966998
 51
249.3345213439644
  0
ARC
  5
217
330
1F
100
AcDbEntity
  8
Ｓ_１_１
  6
CONTINUOUS
 62
     3
100
AcDbCircle
 10
238.8622790000092
 20
322.5416666667006
 30
0.0
 40
15.5416666667
100
AcDbArc
 50
252.8126319048214
 51
287.1873675971856
  0
ARC
  5
218
330
1F
100
AcDbEntity
  8
Ｓ_１_１
  6
CONTINUOUS
 62
     3
100
AcDbCircle
 10
238.8622790000092
 20
297.4583333333002
 30
0.0
 40
15.5416666667
100
AcDbArc
 50
69.33452159060036
 51
69.33452389044716
  0
ARC
  5
219
330
1F
100
AcDbEntity
  8
Ｓ_１_１
  6
CONTINUOUS
 62
     3
100
AcDbCircle
 10
238.8622790000092
 20
322.5416666667006
 30
0.0
 40
15.5416666667
100
AcDbArc
 50
290.6654761095523
 51
290.6654836456999
  0
LINE
  5
21A
330
1F
100
AcDbEntity
  8
Ｓ_１_１
  6
CONTINUOUS
 62
     3
100
AcDbLine
 10
231.3698651613092
 20
313.0000000000004
 30
0.0
 11
238.8622790000092
 21
313.0000000000004
 31
0.0
  0
LINE
  5
21B
330
1F
100
AcDbEntity
  8
Ｓ_１_１
  6
CONTINUOUS
 62
     3
100
AcDbLine
 10
238.8622790000092
 20
313.0000000000004
 30
0.0
 11
246.3546928387092
 21
313.0000000000004
 31
0.0
  0
LINE
  5
21C
330
1F
100
AcDbEntity
  8
Ｓ_１_１
  6
CONTINUOUS
 62
     3
100
AcDbLine
 10
248.3622790000091
 20
308.0000000000004
 30
0.0
 11
248.3622790000091
 21
312.0000000000004
 31
0.0
  0
LINE
  5
21D
330
1F
100
AcDbEntity
  8
Ｓ_１_１
  6
CONTINUOUS
 62
     3
100
AcDbLine
 10
229.3622790000092
 20
308.0000000000004
 30
0.0
 11
229.3622790000092
 21
312.0000000000004
 31
0.0
  0
LINE
  5
21E
330
1F
100
AcDbEntity
  8
Ｓ_１_１
  6
CONTINUOUS
 62
     3
100
AcDbLine
 10
231.3698648857091
 20
306.9999984859004
 30
0.0
 11
229.3622785805089
 21
307.9999985375002
 31
0.0
  0
LINE
  5
21F
330
1F
100
AcDbEntity
  8
Ｓ_１_１
  6
CONTINUOUS
 62
     3
100
AcDbLine
 10
246.3546923062092
 20
306.9999999766005
 30
0.0
 11
248.3622788959088
 21
308.0000001698003
 31
0.0
  0
LINE
  5
220
330
1F
100
AcDbEntity
  8
Ｓ_１_１
  6
CONTINUOUS
 62
     3
100
AcDbLine
 10
231.3698652440091
 20
312.9999995145003
 30
0.0
 11
229.3622786543089
 21
311.9999993213004
 31
0.0
  0
LINE
  5
221
330
1F
100
AcDbEntity
  8
Ｓ_１_１
  6
CONTINUOUS
 62
     3
100
AcDbLine
 10
246.3546916632092
 20
312.9999981656005
 30
0.0
 11
248.3622782529088
 21
311.9999979724002
 31
0.0
  0
LINE
  5
222
330
1F
100
AcDbEntity
  8
Ｓ_１_１
  6
CONTINUOUS
 62
     3
100
AcDbLine
 10
248.8622790000091
 20
276.4999999999999
 30
0.0
 11
248.8622790000091
 21
306.0000000000004
 31
0.0
  0
LINE
  5
223
330
1F
100
AcDbEntity
  8
Ｓ_１_１
  6
CONTINUOUS
 62
     3
100
AcDbLine
 10
238.8622790000092
 20
307.0000000000004
 30
0.0
 11
247.8622783357087
 21
307.0000000000004
 31
0.0
  0
LINE
  5
224
330
1F
100
AcDbEntity
  8
Ｓ_１_１
  6
CONTINUOUS
 62
     3
100
AcDbLine
 10
229.8622792006092
 20
307.0000000000004
 30
0.0
 11
238.8622790000092
 21
307.0000000000004
 31
0.0
  0
LINE
  5
225
330
1F
100
AcDbEntity
  8
Ｓ_１_１
  6
CONTINUOUS
 62
     3
100
AcDbLine
 10
229.8622792006092
 20
307.0000002849005
 30
0.0
 11
228.8622794877089
 21
306.0000004877006
 31
0.0
  0
LINE
  5
226
330
1F
100
AcDbEntity
  8
Ｓ_１_１
  6
CONTINUOUS
 62
     3
100
AcDbLine
 10
248.862278449009
 20
306.0000005510005
 30
0.0
 11
247.8622783357087
 21
307.0000005800002
 31
0.0
  0
LINE
  5
227
330
1F
100
AcDbEntity
  8
Ｓ_１_１
  6
CONTINUOUS
 62
     3
100
AcDbLine
 10
228.8622790000092
 20
306.0000000000004
 30
0.0
 11
238.8622790000092
 21
306.0000000000004
 31
0.0
  0
LINE
  5
228
330
1F
100
AcDbEntity
  8
Ｓ_１_１
  6
CONTINUOUS
 62
     3
100
AcDbLine
 10
238.8622790000092
 20
306.0000000000004
 30
0.0
 11
248.8622790000091
 21
306.0000000000004
 31
0.0
  0
LINE
  5
229
330
1F
100
AcDbEntity
  8
Ｓ_１_１
  6
CONTINUOUS
 62
     3
100
AcDbLine
 10
243.112280925309
 20
318.0000016470003
 30
0.0
 11
243.862281047109
 21
317.2500014619004
 31
0.0
  0
LINE
  5
22A
330
1F
100
AcDbEntity
  8
Ｓ_１_１
  6
CONTINUOUS
 62
     3
100
AcDbLine
 10
233.8622801250091
 20
317.2500025577005
 30
0.0
 11
234.612278287009
 21
318.0000006565005
 31
0.0
  0
LINE
  5
22B
330
1F
100
AcDbEntity
  8
Ｓ_１_１
  6
CONTINUOUS
 62
     3
100
AcDbLine
 10
233.8622790000092
 20
317.2500000000004
 30
0.0
 11
243.8622790000092
 21
317.2500000000004
 31
0.0
  0
LINE
  5
22C
330
1F
100
AcDbEntity
  8
Ｓ_１_１
  6
CONTINUOUS
 62
     3
100
AcDbLine
 10
234.6122790000092
 20
318.0000000000004
 30
0.0
 11
243.1122790000092
 21
318.0000000000004
 31
0.0
  0
LINE
  5
22D
330
1F
100
AcDbEntity
  8
Ｓ_１_１
  6
CONTINUOUS
 62
     3
100
AcDbLine
 10
243.8622790000092
 20
313.0000000000004
 30
0.0
 11
243.8622790000092
 21
317.2500000000004
 31
0.0
  0
LINE
  5
22E
330
1F
100
AcDbEntity
  8
Ｓ_１_１
  6
CONTINUOUS
 62
     3
100
AcDbLine
 10
233.8622790000092
 20
313.0000000000004
 30
0.0
 11
233.8622790000092
 21
317.2500000000004
 31
0.0
  0
LINE
  5
22F
330
1F
100
AcDbEntity
  8
Ｓ_１_１
  6
CONTINUOUS
 62
     3
100
AcDbLine
 10
234.6122790000092
 20
313.0000000000004
 30
0.0
 11
234.6122790000092
 21
318.0000000000004
 31
0.0
  0
LINE
  5
230
330
1F
100
AcDbEntity
  8
Ｓ_１_１
  6
CONTINUOUS
 62
     3
100
AcDbLine
 10
243.1122790000092
 20
313.0000000000004
 30
0.0
 11
243.1122790000092
 21
318.0000000000004
 31
0.0
  0
LINE
  5
231
330
1F
100
AcDbEntity
  8
Ｓ_１_１
  6
CONTINUOUS
 62
     3
100
AcDbLine
 10
306.8621120000185
 20
269.4999844999895
 30
0.0
 11
297.8623560000183
 21
269.4999844999895
 31
0.0
  0
LINE
  5
232
330
1F
100
AcDbEntity
  8
Ｓ_１_１
  6
CONTINUOUS
 62
     3
100
AcDbLine
 10
297.8621430000185
 20
269.4998344999896
 30
0.0
 11
294.3621710000185
 21
272.9998054999894
 31
0.0
  0
LINE
  5
233
330
1F
100
AcDbEntity
  8
Ｓ_１_１
  6
CONTINUOUS
 62
     3
100
AcDbLine
 10
294.3623430000185
 20
254.9999434999896
 30
0.0
 11
297.8623570000187
 21
258.4999574999898
 31
0.0
  0
LINE
  5
234
330
1F
100
AcDbEntity
  8
Ｓ_１_１
  6
CONTINUOUS
 62
     3
100
AcDbLine
 10
278.3623250000183
 20
252.24990949999
 30
0.0
 11
278.8622340000184
 21
252.74980749999
 31
0.0
  0
LINE
  5
235
330
1F
100
AcDbEntity
  8
Ｓ_１_１
  6
CONTINUOUS
 62
     3
100
AcDbLine
 10
278.8623230000185
 20
275.2498804999893
 30
0.0
 11
278.3623770000186
 21
275.7498274999896
 31
0.0
  0
LINE
  5
236
330
1F
100
AcDbEntity
  8
Ｓ_１_１
  6
CONTINUOUS
 62
     3
100
AcDbLine
 10
290.8622340000184
 20
271.4999844999895
 30
0.0
 11
289.3621120000185
 21
271.4999844999895
 31
0.0
  0
LINE
  5
237
330
1F
100
AcDbEntity
  8
Ｓ_１_１
  6
CONTINUOUS
 62
     3
100
AcDbLine
 10
290.8622340000184
 20
256.4999844999899
 30
0.0
 11
289.3621120000185
 21
256.4999844999899
 31
0.0
  0
LINE
  5
238
330
1F
100
AcDbEntity
  8
Ｓ_１_１
  6
CONTINUOUS
 62
     3
100
AcDbLine
 10
287.8623560000183
 20
255.0000154999899
 30
0.0
 11
287.8623560000183
 21
272.9999844999895
 31
0.0
  0
LINE
  5
239
330
1F
100
AcDbEntity
  8
Ｓ_１_１
  6
CONTINUOUS
 62
     3
100
AcDbLine
 10
278.3622340000184
 20
252.2499544999897
 30
0.0
 11
278.3622340000184
 21
275.7499844999895
 31
0.0
  0
LINE
  5
23A
330
1F
100
AcDbEntity
  8
Ｓ_１_１
  6
CONTINUOUS
 62
     3
100
AcDbLine
 10
289.3622300000184
 20
271.4998364999894
 30
0.0
 11
287.8622180000185
 21
272.9998494999893
 31
0.0
  0
LINE
  5
23B
330
1F
100
AcDbEntity
  8
Ｓ_１_１
  6
CONTINUOUS
 62
     3
100
AcDbLine
 10
287.8623890000186
 20
254.9999864999897
 30
0.0
 11
289.3622720000185
 21
256.4998694999896
 31
0.0
  0
LINE
  5
23C
330
1F
100
AcDbEntity
  8
Ｓ_１_１
  6
CONTINUOUS
 62
     3
100
AcDbLine
 10
292.3622340000184
 20
255.0000154999899
 30
0.0
 11
292.3622340000184
 21
272.9999844999895
 31
0.0
  0
LINE
  5
23D
330
1F
100
AcDbEntity
  8
Ｓ_１_１
  6
CONTINUOUS
 62
     3
100
AcDbLine
 10
290.8622410000185
 20
271.4999504999894
 30
0.0
 11
292.3621240000185
 21
272.9998334999893
 31
0.0
  0
LINE
  5
23E
330
1F
100
AcDbEntity
  8
Ｓ_１_１
  6
CONTINUOUS
 62
     3
100
AcDbLine
 10
292.3622550000187
 20
254.9998724999897
 30
0.0
 11
290.8622420000184
 21
256.4998844999897
 31
0.0
  0
LINE
  5
23F
330
1F
100
AcDbEntity
  8
Ｓ_１_１
  6
CONTINUOUS
 62
     3
100
AcDbLine
 10
287.8623560000183
 20
255.0000154999899
 30
0.0
 11
278.8622340000184
 21
255.0000154999899
 31
0.0
  0
LINE
  5
240
330
1F
100
AcDbEntity
  8
Ｓ_１_１
  6
CONTINUOUS
 62
     3
100
AcDbLine
 10
287.8623560000183
 20
272.9999844999895
 30
0.0
 11
278.8622340000184
 21
272.9999844999895
 31
0.0
  0
LINE
  5
241
330
1F
100
AcDbEntity
  8
Ｓ_１_１
  6
CONTINUOUS
 62
     3
100
AcDbLine
 10
294.3621120000185
 20
255.0000154999899
 30
0.0
 11
294.3621120000185
 21
272.9999844999895
 31
0.0
  0
LINE
  5
242
330
1F
100
AcDbEntity
  8
Ｓ_１_１
  6
CONTINUOUS
 62
     3
100
AcDbLine
 10
290.8622340000184
 20
256.4999844999899
 30
0.0
 11
290.8622340000184
 21
271.4999844999895
 31
0.0
  0
LINE
  5
243
330
1F
100
AcDbEntity
  8
Ｓ_１_１
  6
CONTINUOUS
 62
     3
100
AcDbLine
 10
289.3621120000185
 20
256.4999844999899
 30
0.0
 11
289.3621120000185
 21
271.4999844999895
 31
0.0
  0
LINE
  5
244
330
1F
100
AcDbEntity
  8
Ｓ_１_１
  6
CONTINUOUS
 62
     3
100
AcDbLine
 10
307.8624190000183
 20
260.4998164999898
 30
0.0
 11
309.8623780000185
 21
262.4997754999891
 31
0.0
  0
LINE
  5
245
330
1F
100
AcDbEntity
  8
Ｓ_１_１
  6
CONTINUOUS
 62
     3
100
AcDbLine
 10
309.8624210000185
 20
265.4998434999894
 30
0.0
 11
307.8623760000187
 21
267.4998884999893
 31
0.0
  0
LINE
  5
246
330
1F
100
AcDbEntity
  8
Ｓ_１_１
  6
CONTINUOUS
 62
     3
100
AcDbLine
 10
307.8623560000188
 20
259.4999844999899
 30
0.0
 11
307.8623560000188
 21
268.4999544999893
 31
0.0
  0
LINE
  5
247
330
1F
100
AcDbEntity
  8
Ｓ_１_１
  6
CONTINUOUS
 62
     3
100
AcDbLine
 10
269.8622340000184
 20
251.9999844999899
 30
0.0
 11
269.8622340000184
 21
275.9999544999894
 31
0.0
  0
LINE
  5
248
330
1F
100
AcDbEntity
  8
Ｓ_１_１
  6
CONTINUOUS
 62
     3
100
AcDbLine
 10
268.7904560000184
 20
250.1435854999897
 30
0.0
 11
263.9341330000184
 21
250.1435854999897
 31
0.0
  0
LINE
  5
249
330
1F
100
AcDbEntity
  8
Ｓ_１_１
  6
CONTINUOUS
 62
     3
100
AcDbLine
 10
268.7904560000184
 20
257.0718534999898
 30
0.0
 11
263.9341330000184
 21
257.0718534999898
 31
0.0
  0
LINE
  5
24A
330
1F
100
AcDbEntity
  8
Ｓ_１_１
  6
CONTINUOUS
 62
     3
100
AcDbLine
 10
268.7904560000184
 20
270.9282074999894
 30
0.0
 11
263.9341330000184
 21
270.9282074999894
 31
0.0
  0
LINE
  5
24B
330
1F
100
AcDbEntity
  8
Ｓ_１_１
  6
CONTINUOUS
 62
     3
100
AcDbLine
 10
268.7904560000184
 20
277.8563994999893
 30
0.0
 11
263.9341330000184
 21
277.8563994999893
 31
0.0
  0
LINE
  5
24C
330
1F
100
AcDbEntity
  8
Ｓ_１_１
  6
CONTINUOUS
 62
     3
100
AcDbLine
 10
268.7907260000184
 20
250.1436234999898
 30
0.0
 11
269.8625030000185
 21
251.9999964999899
 31
0.0
  0
LINE
  5
24D
330
1F
100
AcDbEntity
  8
Ｓ_１_１
  6
CONTINUOUS
 62
     3
100
AcDbLine
 10
262.8623890000186
 20
275.9999534999895
 30
0.0
 11
263.9341660000187
 21
277.8563264999896
 31
0.0
  0
LINE
  5
24E
330
1F
100
AcDbEntity
  8
Ｓ_１_１
  6
CONTINUOUS
 62
     3
100
AcDbLine
 10
269.8624250000185
 20
275.9999114999894
 30
0.0
 11
268.7905860000183
 21
277.8563894999895
 31
0.0
  0
LINE
  5
24F
330
1F
100
AcDbEntity
  8
Ｓ_１_１
  6
CONTINUOUS
 62
     3
100
AcDbLine
 10
263.9342080000184
 20
250.1436164999897
 30
0.0
 11
262.8624310000187
 21
251.9999884999899
 31
0.0
  0
LINE
  5
250
330
1F
100
AcDbEntity
  8
Ｓ_１_１
  6
CONTINUOUS
 62
     3
100
AcDbLine
 10
278.3622340000184
 20
252.2499544999897
 30
0.0
 11
269.8622340000184
 21
252.2499544999897
 31
0.0
  0
LINE
  5
251
330
1F
100
AcDbEntity
  8
Ｓ_１_１
  6
CONTINUOUS
 62
     3
100
AcDbLine
 10
278.3622340000184
 20
275.7499844999895
 30
0.0
 11
269.8622340000184
 21
275.7499844999895
 31
0.0
  0
LINE
  5
252
330
1F
100
AcDbEntity
  8
Ｓ_１_１
  6
CONTINUOUS
 62
     3
100
AcDbLine
 10
278.8622340000184
 20
252.7499844999899
 30
0.0
 11
278.8622340000184
 21
275.2499844999895
 31
0.0
  0
LINE
  5
253
330
1F
100
AcDbEntity
  8
Ｓ_１_１
  6
CONTINUOUS
 62
     3
100
AcDbLine
 10
294.3621120000185
 20
272.9999844999895
 30
0.0
 11
292.3622340000184
 21
272.9999844999895
 31
0.0
  0
LINE
  5
254
330
1F
100
AcDbEntity
  8
Ｓ_１_１
  6
CONTINUOUS
 62
     3
100
AcDbLine
 10
294.3621120000185
 20
255.0000154999899
 30
0.0
 11
292.3622340000184
 21
255.0000154999899
 31
0.0
  0
LINE
  5
255
330
1F
100
AcDbEntity
  8
Ｓ_１_１
  6
CONTINUOUS
 62
     3
100
AcDbLine
 10
297.8623560000183
 20
258.4999544999897
 30
0.0
 11
297.8623560000183
 21
269.4999844999895
 31
0.0
  0
LINE
  5
256
330
1F
100
AcDbEntity
  8
Ｓ_１_１
  6
CONTINUOUS
 62
     3
100
AcDbLine
 10
306.8621120000185
 20
258.4999544999897
 30
0.0
 11
297.8623560000183
 21
258.4999544999897
 31
0.0
  0
LINE
  5
257
330
1F
100
AcDbEntity
  8
Ｓ_１_１
  6
CONTINUOUS
 62
     3
100
AcDbLine
 10
262.8623560000183
 20
251.9999844999899
 30
0.0
 11
262.8623560000183
 21
275.9999544999894
 31
0.0
  0
LINE
  5
258
330
1F
100
AcDbEntity
  8
Ｓ_１_１
  6
CONTINUOUS
 62
     3
100
AcDbLine
 10
309.8622340000184
 20
262.5000154999894
 30
0.0
 11
309.8622340000184
 21
265.4999844999894
 31
0.0
  0
ARC
  5
259
330
1F
100
AcDbEntity
  8
Ｓ_１_１
  6
CONTINUOUS
 62
     3
100
AcDbCircle
 10
306.8621120000185
 20
268.4999544999893
 30
0.0
 40
1.0
100
AcDbArc
 50
0.0000219999983706
 51
90.00000299999769
  0
ARC
  5
25A
330
1F
100
AcDbEntity
  8
Ｓ_１_１
  6
CONTINUOUS
 62
     3
100
AcDbCircle
 10
268.9961450000183
 20
274.3922884999895
 30
0.0
 40
6.133925000000002
100
AcDbArc
 50
145.6154260000003
 51
214.3845840000002
  0
ARC
  5
25B
330
1F
100
AcDbEntity
  8
Ｓ_１_１
  6
CONTINUOUS
 62
     3
100
AcDbCircle
 10
285.7902120000186
 20
263.9999844999894
 30
0.0
 40
22.927942
100
AcDbArc
 50
162.411885
 51
197.5881789999999
  0
ARC
  5
25C
330
1F
100
AcDbEntity
  8
Ｓ_１_１
  6
CONTINUOUS
 62
     3
100
AcDbCircle
 10
263.7284450000184
 20
253.6076504999898
 30
0.0
 40
6.133925000000002
100
AcDbArc
 50
325.6154860000009
 51
34.3846310000001
  0
ARC
  5
25D
330
1F
100
AcDbEntity
  8
Ｓ_１_１
  6
CONTINUOUS
 62
     3
100
AcDbCircle
 10
306.8621120000185
 20
259.4999844999899
 30
0.0
 40
1.0
100
AcDbArc
 50
270.0000250000026
 51
0.000022000004845
  0
ARC
  5
25E
330
1F
100
AcDbEntity
  8
Ｓ_１_１
  6
CONTINUOUS
 62
     3
100
AcDbCircle
 10
268.9961450000183
 20
253.6076504999898
 30
0.0
 40
6.133925000000002
100
AcDbArc
 50
145.6154390000003
 51
214.3845980000009
  0
ARC
  5
25F
330
1F
100
AcDbEntity
  8
Ｓ_１_１
  6
CONTINUOUS
 62
     3
100
AcDbCircle
 10
246.9341330000184
 20
263.9999844999895
 30
0.0
 40
22.927938
100
AcDbArc
 50
342.4118339999999
 51
17.58814199999997
  0
ARC
  5
260
330
1F
100
AcDbEntity
  8
Ｓ_１_１
  6
CONTINUOUS
 62
     3
100
AcDbCircle
 10
263.7284450000184
 20
274.3922884999895
 30
0.0
 40
6.133925000000002
100
AcDbArc
 50
325.6154169999995
 51
34.38456199999934
  0
LINE
  5
261
330
1F
100
AcDbEntity
  8
Ｓ_１_１
  6
CONTINUOUS
 62
     3
100
AcDbLine
 10
220.999999
 20
256.4365029999998
 30
0.0
 11
222.362269
 21
255.6499959999998
 31
0.0
  0
LINE
  5
262
330
1F
100
AcDbEntity
  8
Ｓ_１_１
  6
CONTINUOUS
 62
     3
100
AcDbLine
 10
222.362298
 20
272.3500119999999
 30
0.0
 11
221.000015
 21
271.5634979999998
 31
0.0
  0
LINE
  5
263
330
1F
100
AcDbEntity
  8
Ｓ_１_１
  6
CONTINUOUS
 62
     3
100
AcDbLine
 10
221.000007
 20
272.2648619999998
 30
0.0
 11
221.000007
 21
255.7351449999998
 31
0.0
  0
LINE
  5
264
330
1F
100
AcDbEntity
  8
Ｓ_１_１
  6
CONTINUOUS
 62
     3
100
AcDbLine
 10
262.86226400002
 20
271.1798879999999
 30
0.0
 11
256.72452100002
 21
271.5634969999999
 31
0.0
  0
LINE
  5
265
330
1F
100
AcDbEntity
  8
Ｓ_１_１
  6
CONTINUOUS
 62
     3
100
AcDbLine
 10
255.3622600000201
 20
272.3499889999998
 30
0.0
 11
256.72453000002
 21
271.5634829999997
 31
0.0
  0
LINE
  5
266
330
1F
100
AcDbEntity
  8
Ｓ_１_１
  6
CONTINUOUS
 62
     3
100
AcDbLine
 10
262.86228200002
 20
271.8812499999997
 30
0.0
 11
255.36223700002
 21
272.3500029999998
 31
0.0
  0
LINE
  5
267
330
1F
100
AcDbEntity
  8
Ｓ_１_１
  6
CONTINUOUS
 62
     3
100
AcDbLine
 10
256.7245590000201
 20
256.4365259999998
 30
0.0
 11
255.36227600002
 21
255.6500109999998
 31
0.0
  0
LINE
  5
268
330
1F
100
AcDbEntity
  8
Ｓ_１_１
  6
CONTINUOUS
 62
     3
100
AcDbLine
 10
262.86227000002
 20
256.1187489999996
 30
0.0
 11
255.36225600002
 21
255.6499979999998
 31
0.0
  0
LINE
  5
269
330
1F
100
AcDbEntity
  8
Ｓ_１_１
  6
CONTINUOUS
 62
     3
100
AcDbLine
 10
262.86225200002
 20
256.8201189999997
 30
0.0
 11
256.72453900002
 21
256.4365109999998
 31
0.0
  0
LINE
  5
26A
330
1F
100
AcDbEntity
  8
Ｓ_１_１
  6
CONTINUOUS
 62
     3
100
AcDbLine
 10
256.72455100002
 20
272.2648619999998
 30
0.0
 11
256.72455100002
 21
255.7351449999998
 31
0.0
  0
LINE
  5
26B
330
1F
100
AcDbEntity
  8
Ｓ_１_１
  6
CONTINUOUS
 62
     3
100
AcDbLine
 10
223.3622790000092
 20
251.4999999999997
 30
0.0
 11
223.3622790000091
 21
276.4999999999998
 31
0.0
  0
LINE
  5
26C
330
1F
100
AcDbEntity
  8
Ｓ_１_１
  6
CONTINUOUS
 62
     3
100
AcDbLine
 10
254.3622790000091
 20
251.4999999999997
 30
0.0
 11
254.3622790000091
 21
276.4999999999998
 31
0.0
  0
LINE
  5
26D
330
1F
100
AcDbEntity
  8
Ｓ_１_１
  6
CONTINUOUS
 62
     3
100
AcDbLine
 10
254.3622790000091
 20
251.4999999999997
 30
0.0
 11
238.8622790000091
 21
251.4999999999997
 31
0.0
  0
LINE
  5
26E
330
1F
100
AcDbEntity
  8
Ｓ_１_１
  6
CONTINUOUS
 62
     3
100
AcDbLine
 10
255.3622794628091
 20
252.4999997115998
 30
0.0
 11
254.3622796657087
 21
251.4999999986996
 31
0.0
  0
LINE
  5
26F
330
1F
100
AcDbEntity
  8
Ｓ_１_１
  6
CONTINUOUS
 62
     3
100
AcDbLine
 10
223.3622790000092
 20
251.4999999999997
 30
0.0
 11
238.8622790000091
 21
251.4999999999997
 31
0.0
  0
LINE
  5
270
330
1F
100
AcDbEntity
  8
Ｓ_１_１
  6
CONTINUOUS
 62
     3
100
AcDbLine
 10
223.3622790758091
 20
251.5000000480997
 30
0.0
 11
222.3622790330088
 21
252.5000001751998
 31
0.0
  0
LINE
  5
271
330
1F
100
AcDbEntity
  8
Ｓ_１_１
  6
CONTINUOUS
 62
     3
100
AcDbLine
 10
223.3622779029089
 20
276.5000007866995
 30
0.0
 11
222.3622781900091
 21
275.5000009895996
 31
0.0
  0
LINE
  5
272
330
1F
100
AcDbEntity
  8
Ｓ_１_１
  6
CONTINUOUS
 62
     3
100
AcDbLine
 10
255.3622805587088
 20
275.5000013688998
 30
0.0
 11
254.3622804243087
 21
276.5000014188997
 31
0.0
  0
LINE
  5
273
330
1F
100
AcDbEntity
  8
Ｓ_１_１
  6
CONTINUOUS
 62
     3
100
AcDbLine
 10
255.3622790000091
 20
263.9999999999997
 30
0.0
 11
255.3622790000091
 21
275.4999999999998
 31
0.0
  0
LINE
  5
274
330
1F
100
AcDbEntity
  8
Ｓ_１_１
  6
CONTINUOUS
 62
     3
100
AcDbLine
 10
255.3622790000091
 20
252.4999999999997
 30
0.0
 11
255.3622790000091
 21
263.9999999999997
 31
0.0
  0
LINE
  5
275
330
1F
100
AcDbEntity
  8
Ｓ_１_１
  6
CONTINUOUS
 62
     3
100
AcDbLine
 10
254.3622790000091
 20
276.4999999999998
 30
0.0
 11
238.8622790000091
 21
276.4999999999998
 31
0.0
  0
LINE
  5
276
330
1F
100
AcDbEntity
  8
Ｓ_１_１
  6
CONTINUOUS
 62
     3
100
AcDbLine
 10
223.3622790000091
 20
276.4999999999998
 30
0.0
 11
238.8622790000091
 21
276.4999999999998
 31
0.0
  0
LINE
  5
277
330
1F
100
AcDbEntity
  8
Ｓ_１_１
  6
CONTINUOUS
 62
     3
100
AcDbLine
 10
222.3622790000091
 20
263.9999999999997
 30
0.0
 11
222.3622790000091
 21
275.4999999999998
 31
0.0
  0
LINE
  5
278
330
1F
100
AcDbEntity
  8
Ｓ_１_１
  6
CONTINUOUS
 62
     3
100
AcDbLine
 10
222.3622790000092
 20
252.4999999999997
 30
0.0
 11
222.3622790000091
 21
263.9999999999997
 31
0.0
  0
LINE
  5
279
330
1F
100
AcDbEntity
  8
Ｓ_１_１
  6
EXLTYPE2
 62
     1
100
AcDbLine
 10
96.00000000000003
 20
264.0
 30
0.0
 11
316.184631
 21
264.0000000000001
 31
0.0
  0
CIRCLE
  5
27A
330
1F
100
AcDbEntity
  8
Ｓ_１_１
  6
EXLTYPE2
 62
     1
100
AcDbCircle
 10
156.0
 20
264.0
 30
0.0
 40
36.0
  0
LINE
  5
27B
330
1F
100
AcDbEntity
  8
Ｓ_１_１
  6
EXLTYPE2
 62
     1
100
AcDbLine
 10
156.0
 20
364.0
 30
0.0
 11
156.0
 21
204.0
 31
0.0
  0
LINE
  5
27C
330
1F
100
AcDbEntity
  8
Ｓ_１_１
  6
CONTINUOUS
 62
     3
100
AcDbLine
 10
208.0
 20
251.000015
 30
0.0
 11
215.0
 21
251.000015
 31
0.0
  0
LINE
  5
27D
330
1F
100
AcDbEntity
  8
Ｓ_１_１
  6
CONTINUOUS
 62
     3
100
AcDbLine
 10
208.0
 20
277.0
 30
0.0
 11
215.0
 21
277.0
 31
0.0
  0
LINE
  5
27E
330
1F
100
AcDbEntity
  8
Ｓ_１_１
  6
CONTINUOUS
 62
     3
100
AcDbLine
 10
216.0
 20
276.0
 30
0.0
 11
216.0
 21
252.000015
 31
0.0
  0
LINE
  5
27F
330
1F
100
AcDbEntity
  8
Ｓ_１_１
  6
CONTINUOUS
 62
     3
100
AcDbLine
 10
215.0
 20
277.0
 30
0.0
 11
215.0
 21
251.000015
 31
0.0
  0
LINE
  5
280
330
1F
100
AcDbEntity
  8
Ｓ_１_１
  6
CONTINUOUS
 62
     3
100
AcDbLine
 10
214.999994
 20
277.000008
 30
0.0
 11
215.9999949999999
 21
276.000007
 31
0.0
  0
LINE
  5
281
330
1F
100
AcDbEntity
  8
Ｓ_１_１
  6
CONTINUOUS
 62
     3
100
AcDbLine
 10
214.999978
 20
251.0000009999999
 30
0.0
 11
215.999979
 21
252.000003
 31
0.0
  0
LINE
  5
282
330
1F
100
AcDbEntity
  8
Ｓ_１_１
  6
CONTINUOUS
 62
     3
100
AcDbLine
 10
146.0
 20
354.0
 30
0.0
 11
166.0
 21
354.0
 31
0.0
  0
LINE
  5
283
330
1F
100
AcDbEntity
  8
Ｓ_１_１
  6
CONTINUOUS
 62
     3
100
AcDbLine
 10
146.0
 20
354.0
 30
0.0
 11
146.0
 21
312.989807
 31
0.0
  0
LINE
  5
284
330
1F
100
AcDbEntity
  8
Ｓ_１_１
  6
CONTINUOUS
 62
     3
100
AcDbLine
 10
166.0
 20
354.0
 30
0.0
 11
166.0
 21
312.989807
 31
0.0
  0
LINE
  5
285
330
1F
100
AcDbEntity
  8
Ｓ_１_１
  6
CONTINUOUS
 62
     3
100
AcDbLine
 10
208.0
 20
276.999997
 30
0.0
 11
202.419406
 21
282.580591
 31
0.0
  0
LINE
  5
286
330
1F
100
AcDbEntity
  8
Ｓ_１_１
  6
CONTINUOUS
 62
     3
100
AcDbLine
 10
208.000021
 20
250.999991
 30
0.0
 11
202.419425
 21
245.419395
 31
0.0
  0
LINE
  5
287
330
1F
100
AcDbEntity
  8
Ｓ_１_１
  6
CONTINUOUS
 62
     3
100
AcDbLine
 10
208.0
 20
277.0
 30
0.0
 11
208.0
 21
251.000015
 31
0.0
  0
CIRCLE
  5
288
330
1F
100
AcDbEntity
  8
Ｓ_１_１
  6
CONTINUOUS
 62
     3
100
AcDbCircle
 10
156.0
 20
264.0
 30
0.0
 40
50.00000000000004
  0
CIRCLE
  5
289
330
1F
100
AcDbEntity
  8
Ｓ_１_１
  6
CONTINUOUS
 62
     3
100
AcDbCircle
 10
156.0
 20
264.0
 30
0.0
 40
30.00000000000002
  0
CIRCLE
  5
28A
330
1F
100
AcDbEntity
  8
Ｓ_１_１
  6
CONTINUOUS
 62
     3
100
AcDbCircle
 10
156.0
 20
264.0
 30
0.0
 40
31.00000000000002
  0
CIRCLE
  5
28B
330
1F
100
AcDbEntity
  8
Ｓ_１_１
  6
CONTINUOUS
 62
     3
100
AcDbCircle
 10
156.0
 20
264.0
 30
0.0
 40
42.0
  0
CIRCLE
  5
28C
330
1F
100
AcDbEntity
  8
Ｓ_１_１
  6
CONTINUOUS
 62
     3
100
AcDbCircle
 10
156.0
 20
264.0
 30
0.0
 40
41.0
  0
CIRCLE
  5
28D
330
1F
100
AcDbEntity
  8
Ｓ_１_１
  6
CONTINUOUS
 62
     3
100
AcDbCircle
 10
156.0
 20
300.0
 30
0.0
 40
3.000000000000002
  0
CIRCLE
  5
28E
330
1F
100
AcDbEntity
  8
Ｓ_１_１
  6
CONTINUOUS
 62
     3
100
AcDbCircle
 10
192.0
 20
264.0
 30
0.0
 40
3.000000000000002
  0
CIRCLE
  5
28F
330
1F
100
AcDbEntity
  8
Ｓ_１_１
  6
CONTINUOUS
 62
     3
100
AcDbCircle
 10
156.0
 20
228.000015
 30
0.0
 40
3.000000000000002
  0
CIRCLE
  5
290
330
1F
100
AcDbEntity
  8
Ｓ_１_１
  6
CONTINUOUS
 62
     3
100
AcDbCircle
 10
120.0
 20
264.0
 30
0.0
 40
3.000000000000002
  0
CIRCLE
  5
291
330
1F
100
AcDbEntity
  8
Ｓ_１_１
  6
CONTINUOUS
 62
     3
100
AcDbCircle
 10
156.0
 20
264.0
 30
0.0
 40
27.00000000000002
  0
DIMENSION
  5
292
330
1F
100
AcDbEntity
  8
Ｓ_１_１
  6
CONTINUOUS
 62
     2
100
AcDbDimension
  2
*D27
 10
309.86223400002
 20
180.0
 30
0.0
 11
257.93111700001
 21
185.5
 31
0.0
 70
   160
  1
(104)
  3
ISO-25
100
AcDbAlignedDimension
 13
206.0
 23
264.0
 33
0.0
 14
309.86223400002
 24
264.0
 34
0.0
100
AcDbRotatedDimension
1001
ACAD
1000
DSTYLE
1002
{
1070
   270
1070
     2
1070
     6
1000
EX_NORM
1070
     7
1000
EX_NORM
1070
    41
1040
6.0
1070
    42
1040
3.0
1070
    44
1040
2.0
1070
    73
1070
     0
1070
    74
1070
     0
1070
    75
1070
     0
1070
    76
1070
     0
1070
    77
1070
     1
1070
    78
1070
     8
1070
   140
1040
6.92580831408776
1070
   147
1040
0.0
1070
   173
1070
     1
1070
   176
1070
     2
1070
   177
1070
     2
1070
   178
1070
     2
1070
   271
1070
     2
1070
   277
1070
     2
1070
   279
1070
     2
1070
   280
1070
     0
1070
   287
1070
     5
1070
   340
1005
113
1002
}
  0
CIRCLE
  5
29F
330
1F
100
AcDbEntity
  8
Ｓ_１_１
  6
CONTINUOUS
 62
     3
100
AcDbCircle
 10
156.0
 20
263.9999999999999
 30
0.0
 40
18.5
  0
CIRCLE
  5
2A0
330
1F
100
AcDbEntity
  8
Ｓ_１_１
  6
CONTINUOUS
 62
     3
100
AcDbCircle
 10
156.0
 20
263.9999999999999
 30
0.0
 40
17.5
  0
CIRCLE
  5
2A1
330
1F
100
AcDbEntity
  8
Ｓ_１_１
  6
CONTINUOUS
 62
     3
100
AcDbCircle
 10
156.0
 20
263.9999999999999
 30
0.0
 40
9.5
  0
CIRCLE
  5
2A2
330
1F
100
AcDbEntity
  8
Ｓ_１_１
  6
CONTINUOUS
 62
     3
100
AcDbCircle
 10
156.0
 20
263.9999999999999
 30
0.0
 40
8.5
  0
CIRCLE
  5
2A3
330
1F
100
AcDbEntity
  8
Ｓ_１_１
  6
CONTINUOUS
 62
     3
100
AcDbCircle
 10
156.0
 20
263.9999999999999
 30
0.0
 40
48.00000000000004
  0
ENDSEC
  0
SECTION
  2
OBJECTS
  0
DICTIONARY
  5
C
330
0
100
AcDbDictionary
  3
ACAD_GROUP
350
D
  3
ACAD_LAYOUT
350
1A
  3
ACAD_MATERIAL
350
43
  3
ACAD_MLEADERSTYLE
350
6B
  3
ACAD_MLINESTYLE
350
17
  3
ACAD_PLOTSETTINGS
350
19
  3
ACAD_SCALELIST
350
47
  3
ACAD_VISUALSTYLE
350
2A
  3
ACDBHEADERROUNDTRIPXREC
350
2A4
  3
ACDBVARIABLEDICTIONARY
350
2C5
  0
DICTIONARY
  5
2D0
330
8
100
AcDbDictionary
280
     1
  3
ACAD_XREC_ROUNDTRIP
360
2D1
  0
DICTIONARY
  5
D
102
{ACAD_REACTORS
330
C
102
}
330
C
100
AcDbDictionary
  0
DICTIONARY
  5
1A
102
{ACAD_REACTORS
330
C
102
}
330
C
100
AcDbDictionary
  0
DICTIONARY
  5
43
102
{ACAD_REACTORS
330
C
102
}
330
C
100
AcDbDictionary
  3
BYBLOCK
350
45
  3
BYLAYER
350
44
  3
GLOBAL
350
46
  0
DICTIONARY
  5
6B
102
{ACAD_REACTORS
330
C
102
}
330
C
100
AcDbDictionary
  3
STANDARD
350
6C
  0
DICTIONARY
  5
17
102
{ACAD_REACTORS
330
C
102
}
330
C
100
AcDbDictionary
  3
STANDARD
350
18
  0
DICTIONARY
  5
19
102
{ACAD_REACTORS
330
C
102
}
330
C
100
AcDbDictionary
  0
DICTIONARY
  5
47
102
{ACAD_REACTORS
330
C
102
}
330
C
100
AcDbDictionary
  3
A0
350
48
  3
A1
350
49
  3
A2
350
4A
  3
A3
350
4B
  3
A4
350
4C
  3
A5
350
4D
  3
A6
350
4E
  3
A7
350
4F
  3
A8
350
50
  3
A9
350
51
  3
B0
350
52
  3
B1
350
53
  3
B2
350
54
  3
B3
350
55
  3
B4
350
56
  3
B5
350
57
  3
B6
350
58
  3
B7
350
59
  3
B8
350
5A
  3
B9
350
5B
  3
C0
350
5C
  3
C1
350
5D
  3
C2
350
5E
  3
C3
350
5F
  3
C4
350
60
  3
C5
350
61
  3
C6
350
62
  3
C7
350
63
  3
C8
350
64
  3
C9
350
65
  3
D0
350
66
  3
D1
350
67
  3
D2
350
68
  0
DICTIONARY
  5
2A
102
{ACAD_REACTORS
330
C
102
}
330
C
100
AcDbDictionary
  3
2DWIREFRAME
350
2F
  3
BASIC
350
32
  3
BRIGHTEN
350
36
  3
COLORCHANGE
350
3A
  3
CONCEPTUAL
350
34
  3
DIM
350
35
  3
EDGECOLOROFF
350
3D
  3
FACEPATTERN
350
39
  3
FLAT
350
2B
  3
FLATWITHEDGES
350
2C
  3
GOURAUD
350
2D
  3
GOURAUDWITHEDGES
350
2E
  3
HIDDEN
350
31
  3
JITTEROFF
350
3B
  3
LINEPATTERN
350
38
  3
OVERHANGOFF
350
3C
  3
REALISTIC
350
33
  3
SHADED
350
42
  3
SHADED_WITH_EDGES
350
41
  3
SHADES_OF_GRAY
350
3E
  3
SKETCHY
350
3F
  3
THICKEN
350
37
  3
WIREFRAME
350
30
  3
X-RAY
350
40
  0
DICTIONARY
  5
2A4
102
{ACAD_REACTORS
330
C
102
}
330
C
100
AcDbDictionary
  3
CEPSNID
350
2AE
  3
CEPSNTYPE
350
2AD
  3
DIMSTYLEDATA
350
2C4
  3
FINGERPRINTGUID
350
2AF
  3
HYPERLINKBASE
350
2A7
  3
INSUNITS
350
2AC
  3
LAYOUTDICT
350
2A9
  3
LWETCUNION
350
2AB
  3
PLOTSETDICT
350
2AA
  3
PSVPSCALE
350
2B1
  3
PUCSBASE
350
2B4
  3
PUCSORGBACK
350
2BA
  3
PUCSORGBOTTOM
350
2B6
  3
PUCSORGFRONT
350
2B9
  3
PUCSORGLEFT
350
2B7
  3
PUCSORGRIGHT
350
2B8
  3
PUCSORGTOP
350
2B5
  3
PUCSORTHOREF
350
2B2
  3
PUCSORTHOVIEW
350
2B3
  3
STYLESHEET
350
2A8
  3
TSTACKALIGN
350
2A5
  3
TSTACKSIZE
350
2A6
  3
UCSBASE
350
2BD
  3
UCSORGBACK
350
2C3
  3
UCSORGBOTTOM
350
2BF
  3
UCSORGFRONT
350
2C2
  3
UCSORGLEFT
350
2C0
  3
UCSORGRIGHT
350
2C1
  3
UCSORGTOP
350
2BE
  3
UCSORTHOREF
350
2BB
  3
UCSORTHOVIEW
350
2BC
  3
VERSIONGUID
350
2B0
  0
DICTIONARY
  5
2C5
102
{ACAD_REACTORS
330
C
102
}
330
C
100
AcDbDictionary
  3
CANNOSCALE
350
2D2
  3
CENTEREXE
350
2CC
  3
CENTERLTYPEFILE
350
2CD
  3
CMLEADERSTYLE
350
2C7
  3
CTABLESTYLE
350
2C6
  3
DIMASSOC
350
2CE
  3
HIDETEXT
350
2CF
  3
MSLTSCALE
350
2D3
  3
PSOLHEIGHT
350
2C9
  3
PSOLWIDTH
350
2C8
  0
XRECORD
  5
2D1
102
{ACAD_REACTORS
330
2D0
102
}
330
2D0
100
AcDbXrecord
102
VTR_0.000_0.000_1.000_1.000_VISUALSTYLE
340
2F
102
VTR_0.000_0.000_1.000_1.000_GRIDDISPLAY
 70
     3
102
VTR_0.000_0.000_1.000_1.000_GRIDMAJOR
 70
     5
102
VTR_0.000_0.000_1.000_1.000_DEFAULTLIGHTING
280
     1
102
VTR_0.000_0.000_1.000_1.000_DEFAULTLIGHTINGTYPE
 70
     1
102
VTR_0.000_0.000_1.000_1.000_BRIGHTNESS
141
0.0
102
VTR_0.000_0.000_1.000_1.000_CONTRAST
142
0.0
  0
MATERIAL
  5
45
102
{ACAD_REACTORS
330
43
102
}
102
{ACAD_XDICTIONARY
360
2D6
102
}
330
43
100
AcDbMaterial
  1
BYBLOCK
  0
MATERIAL
  5
44
102
{ACAD_REACTORS
330
43
102
}
102
{ACAD_XDICTIONARY
360
2D4
102
}
330
43
100
AcDbMaterial
  1
BYLAYER
  0
MATERIAL
  5
46
102
{ACAD_REACTORS
330
43
102
}
102
{ACAD_XDICTIONARY
360
2D8
102
}
330
43
100
AcDbMaterial
  1
GLOBAL
  0
ACAD_PROXY_OBJECT
  5
6C
102
{ACAD_REACTORS
330
6B
102
}
330
6B
100
AcDbProxyObject
 90
      499
 91
      505
 93
      610
310
40901902A4063FBFFFFFE0000000000000020400000000000020404214DD185B99185C990000000000000104090141901A00000000000004100000000000000041025764000000000000039000
340
14
340
0
340
11
340
0
 94
        0
1001
ACAD_MLEADERVER
1070
     2
  0
MLINESTYLE
  5
18
102
{ACAD_REACTORS
330
17
102
}
330
17
100
AcDbMlineStyle
  2
Standard
 70
     0
  3

 62
   256
 51
90.0
 52
90.0
 71
     2
 49
0.5
 62
   256
  6
BYLAYER
 49
-0.5
 62
   256
  6
BYLAYER
  0
ACAD_PROXY_OBJECT
  5
48
102
{ACAD_REACTORS
330
47
102
}
330
47
100
AcDbProxyObject
 90
      499
 91
      503
 93
       41
310
903313A31580
  0
ACAD_PROXY_OBJECT
  5
49
102
{ACAD_REACTORS
330
47
102
}
330
47
100
AcDbProxyObject
 90
      499
 91
      503
 93
      105
310
903313A324000000000000004000
  0
ACAD_PROXY_OBJECT
  5
4A
102
{ACAD_REACTORS
330
47
102
}
330
47
100
AcDbProxyObject
 90
      499
 91
      503
 93
      105
310
903313A344000000000000104000
  0
ACAD_PROXY_OBJECT
  5
4B
102
{ACAD_REACTORS
330
47
102
}
330
47
100
AcDbProxyObject
 90
      499
 91
      503
 93
      105
310
903313A354000000000000144000
  0
ACAD_PROXY_OBJECT
  5
4C
102
{ACAD_REACTORS
330
47
102
}
330
47
100
AcDbProxyObject
 90
      499
 91
      503
 93
      105
310
903313A384000000000000204000
  0
ACAD_PROXY_OBJECT
  5
4D
102
{ACAD_REACTORS
330
47
102
}
330
47
100
AcDbProxyObject
 90
      499
 91
      503
 93
      113
310
904313A31304000000000000244000
  0
ACAD_PROXY_OBJECT
  5
4E
102
{ACAD_REACTORS
330
47
102
}
330
47
100
AcDbProxyObject
 90
      499
 91
      503
 93
      113
310
904313A31364000000000000304000
  0
ACAD_PROXY_OBJECT
  5
4F
102
{ACAD_REACTORS
330
47
102
}
330
47
100
AcDbProxyObject
 90
      499
 91
      503
 93
      113
310
904313A32304000000000000344000
  0
ACAD_PROXY_OBJECT
  5
50
102
{ACAD_REACTORS
330
47
102
}
330
47
100
AcDbProxyObject
 90
      499
 91
      503
 93
      113
310
904313A333040000000000003E4000
  0
ACAD_PROXY_OBJECT
  5
51
102
{ACAD_REACTORS
330
47
102
}
330
47
100
AcDbProxyObject
 90
      499
 91
      503
 93
      113
310
904313A34304000000000000444000
  0
ACAD_PROXY_OBJECT
  5
52
102
{ACAD_REACTORS
330
47
102
}
330
47
100
AcDbProxyObject
 90
      499
 91
      503
 93
      113
310
904313A35304000000000000494000
  0
ACAD_PROXY_OBJECT
  5
53
102
{ACAD_REACTORS
330
47
102
}
330
47
100
AcDbProxyObject
 90
      499
 91
      503
 93
      121
310
905313A3130304000000000000594000
  0
ACAD_PROXY_OBJECT
  5
54
102
{ACAD_REACTORS
330
47
102
}
330
47
100
AcDbProxyObject
 90
      499
 91
      503
 93
      105
310
903323A310000000000000010100
  0
ACAD_PROXY_OBJECT
  5
55
102
{ACAD_REACTORS
330
47
102
}
330
47
100
AcDbProxyObject
 90
      499
 91
      503
 93
      105
310
903343A310000000000000410100
  0
ACAD_PROXY_OBJECT
  5
56
102
{ACAD_REACTORS
330
47
102
}
330
47
100
AcDbProxyObject
 90
      499
 91
      503
 93
      105
310
903383A310000000000000810100
  0
ACAD_PROXY_OBJECT
  5
57
102
{ACAD_REACTORS
330
47
102
}
330
47
100
AcDbProxyObject
 90
      499
 91
      503
 93
      113
310
90431303A310000000000000910100
  0
ACAD_PROXY_OBJECT
  5
58
102
{ACAD_REACTORS
330
47
102
}
330
47
100
AcDbProxyObject
 90
      499
 91
      503
 93
      121
310
9053130303A310000000000001650100
  0
ACAD_PROXY_OBJECT
  5
59
102
{ACAD_REACTORS
330
47
102
}
330
47
100
AcDbProxyObject
 90
      499
 91
      503
 93
      257
310
90E312F31323822203D2031272D3022000000000000200FC000000000000284000
  0
ACAD_PROXY_OBJECT
  5
5A
102
{ACAD_REACTORS
330
47
102
}
330
47
100
AcDbProxyObject
 90
      499
 91
      503
 93
      249
310
90D312F363422203D2031272D3022000000000000240FC000000000000284000
  0
ACAD_PROXY_OBJECT
  5
5B
102
{ACAD_REACTORS
330
47
102
}
330
47
100
AcDbProxyObject
 90
      499
 91
      503
 93
      249
310
90D312F333222203D2031272D3022000000000000280FC000000000000284000
  0
ACAD_PROXY_OBJECT
  5
5C
102
{ACAD_REACTORS
330
47
102
}
330
47
100
AcDbProxyObject
 90
      499
 91
      503
 93
      249
310
90D312F313622203D2031272D30220000000000002C0FC000000000000284000
  0
ACAD_PROXY_OBJECT
  5
5D
102
{ACAD_REACTORS
330
47
102
}
330
47
100
AcDbProxyObject
 90
      499
 91
      503
 93
      249
310
90D332F333222203D2031272D30220000000000002E0FC000000000000284000
  0
ACAD_PROXY_OBJECT
  5
5E
102
{ACAD_REACTORS
330
47
102
}
330
47
100
AcDbProxyObject
 90
      499
 91
      503
 93
      241
310
90C312F3822203D2031272D3022000000000000300FC000000000000284000
  0
ACAD_PROXY_OBJECT
  5
5F
102
{ACAD_REACTORS
330
47
102
}
330
47
100
AcDbProxyObject
 90
      499
 91
      503
 93
      249
310
90D332F313622203D2031272D3022000000000000320FC000000000000284000
  0
ACAD_PROXY_OBJECT
  5
60
102
{ACAD_REACTORS
330
47
102
}
330
47
100
AcDbProxyObject
 90
      499
 91
      503
 93
      241
310
90C312F3422203D2031272D3022000000000000340FC000000000000284000
  0
ACAD_PROXY_OBJECT
  5
61
102
{ACAD_REACTORS
330
47
102
}
330
47
100
AcDbProxyObject
 90
      499
 91
      503
 93
      241
310
90C332F3822203D2031272D3022000000000000360FC000000000000284000
  0
ACAD_PROXY_OBJECT
  5
62
102
{ACAD_REACTORS
330
47
102
}
330
47
100
AcDbProxyObject
 90
      499
 91
      503
 93
      241
310
90C312F3222203D2031272D3022000000000000380FC000000000000284000
  0
ACAD_PROXY_OBJECT
  5
63
102
{ACAD_REACTORS
330
47
102
}
330
47
100
AcDbProxyObject
 90
      499
 91
      503
 93
      241
310
90C332F3422203D2031272D30220000000000003A0FC000000000000284000
  0
ACAD_PROXY_OBJECT
  5
64
102
{ACAD_REACTORS
330
47
102
}
330
47
100
AcDbProxyObject
 90
      499
 91
      503
 93
      161
310
90A3122203D2031272D30224000000000000284000
  0
ACAD_PROXY_OBJECT
  5
65
102
{ACAD_REACTORS
330
47
102
}
330
47
100
AcDbProxyObject
 90
      499
 91
      503
 93
      257
310
90E312D312F3222203D2031272D30220000000000003E0FC000000000000284000
  0
ACAD_PROXY_OBJECT
  5
66
102
{ACAD_REACTORS
330
47
102
}
330
47
100
AcDbProxyObject
 90
      499
 91
      503
 93
      225
310
90A3322203D2031272D302200000000000002100000000000000284000
  0
ACAD_PROXY_OBJECT
  5
67
102
{ACAD_REACTORS
330
47
102
}
330
47
100
AcDbProxyObject
 90
      499
 91
      503
 93
      225
310
90A3622203D2031272D302200000000000006100000000000000284000
  0
ACAD_PROXY_OBJECT
  5
68
102
{ACAD_REACTORS
330
47
102
}
330
47
100
AcDbProxyObject
 90
      499
 91
      503
 93
      249
310
90D31272D3022203D2031272D30220000000000000A100000000000000284000
  0
ACAD_PROXY_OBJECT
  5
2F
102
{ACAD_REACTORS
330
2A
102
}
330
2A
100
AcDbProxyObject
 90
      499
 91
      501
 93
      436
310
42CC9915DA5C99599C985B595049028333333333333E33F0000000000000F90107901411070040501600405405064090741402480A0340
1001
ACAD
1000
AcDbSavedByObjectVersion
1070
     0
  0
ACAD_PROXY_OBJECT
  5
32
102
{ACAD_REACTORS
330
2A
102
}
330
2A
100
AcDbProxyObject
 90
      499
 91
      501
 93
      388
310
4150985CDA58D07406404333333333333E33F0000000000000F90107A41107004050150841D405064090741402480A0350
1001
ACAD
1000
AcDbSavedByObjectVersion
1070
     0
  0
ACAD_PROXY_OBJECT
  5
36
102
{ACAD_REACTORS
330
2A
102
}
330
2A
100
AcDbProxyObject
 90
      499
 91
      501
 93
      428
310
42109C9A59DA1D195B90C409028333333333333E33F0000000000000F9010790141107004050150841D405064090741402480A029950
1001
ACAD
1000
AcDbSavedByObjectVersion
1070
     0
  0
ACAD_PROXY_OBJECT
  5
3A
102
{ACAD_REACTORS
330
2A
102
}
330
2A
100
AcDbProxyObject
 90
      499
 91
      501
 93
      452
310
42D0DBDB1BDC90DA185B99D95104090240C333333333333E33F0000000000000F90108901411070040501508421405064090741402480A0350
1001
ACAD
1000
AcDbSavedByObjectVersion
1070
     0
  0
ACAD_PROXY_OBJECT
  5
34
102
{ACAD_REACTORS
330
2A
102
}
330
2A
100
AcDbProxyObject
 90
      499
 91
      501
 93
      500
310
4290DBDB98D95C1D1D585B10940D028333333333333E33F0000000000000F90107902409070040501000000000018199010841D405064090740C02480A0340
1001
ACAD
1000
AcDbSavedByObjectVersion
1070
     0
  0
ACAD_PROXY_OBJECT
  5
35
102
{ACAD_REACTORS
330
2A
102
}
330
2A
100
AcDbProxyObject
 90
      499
 91
      501
 93
      412
310
40D11A5B50B409028333333333333E33F0000000000000F9010790141107004050150841D405064090741402480A02677FFFFFD0
1001
ACAD
1000
AcDbSavedByObjectVersion
1070
     0
  0
ACAD_PROXY_OBJECT
  5
3D
102
{ACAD_REACTORS
330
2A
102
}
330
2A
100
AcDbProxyObject
 90
      499
 91
      501
 93
      452
310
43115919D950DBDB1BDC93D999916409028333333333333E33F0000000000000F9010790141107004050150841D405064090741402480A0350
1001
ACAD
1000
AcDbSavedByObjectVersion
1070
     0
  0
ACAD_PROXY_OBJECT
  5
39
102
{ACAD_REACTORS
330
2A
102
}
330
2A
100
AcDbProxyObject
 90
      499
 91
      501
 93
      444
310
42D19858D95C185D1D195C9B90F409028333333333333E33F0000000000000F9010790141107004050150841D405064090741402480A0350
1001
ACAD
1000
AcDbSavedByObjectVersion
1070
     0
  0
ACAD_PROXY_OBJECT
  5
2B
102
{ACAD_REACTORS
330
2A
102
}
330
2A
100
AcDbProxyObject
 90
      499
 91
      501
 93
      380
310
41119B185D240901404333333333333E33F0000000000000F9010740A907004050150841D405064090741402480A1B50
1001
ACAD
1000
AcDbSavedByObjectVersion
1070
     0
  0
ACAD_PROXY_OBJECT
  5
2C
102
{ACAD_REACTORS
330
2A
102
}
330
2A
100
AcDbProxyObject
 90
      499
 91
      501
 93
      468
310
43519B185D15DA5D1A115919D95CD0140901404333333333333E33F0000000000000F90107409019070040501600405405064090741402480A1B50
1001
ACAD
1000
AcDbSavedByObjectVersion
1070
     0
  0
ACAD_PROXY_OBJECT
  5
2D
102
{ACAD_REACTORS
330
2A
102
}
330
2A
100
AcDbProxyObject
 90
      499
 91
      501
 93
      404
310
41D1DBDD5C985D5910240902404333333333333E33F0000000000000F9010740A9070040501641D405064090741402480A1B50
1001
ACAD
1000
AcDbSavedByObjectVersion
1070
     0
  0
ACAD_PROXY_OBJECT
  5
2E
102
{ACAD_REACTORS
330
2A
102
}
330
2A
100
AcDbProxyObject
 90
      499
 91
      501
 93
      492
310
4411DBDD5C985D5915DA5D1A115919D95CD0340902404333333333333E33F0000000000000F90107409019070040501600405405064090741402480A1B50
1001
ACAD
1000
AcDbSavedByObjectVersion
1070
     0
  0
ACAD_PROXY_OBJECT
  5
31
102
{ACAD_REACTORS
330
2A
102
}
330
2A
100
AcDbProxyObject
 90
      499
 91
      501
 93
      476
310
41921A5919195B90640502408333333333333E33F0000000000000F901079024090700405020000000000001110200405405064090740C02480A0340
1001
ACAD
1000
AcDbSavedByObjectVersion
1070
     0
  0
ACAD_PROXY_OBJECT
  5
3B
102
{ACAD_REACTORS
330
2A
102
}
330
2A
100
AcDbProxyObject
 90
      499
 91
      501
 93
      428
310
42529A5D1D195C93D999914409028333333333333E33F0000000000000F9010790141107004050150A41D405064090741402480A0350
1001
ACAD
1000
AcDbSavedByObjectVersion
1070
     0
  0
ACAD_PROXY_OBJECT
  5
38
102
{ACAD_REACTORS
330
2A
102
}
330
2A
100
AcDbProxyObject
 90
      499
 91
      501
 93
      444
310
42D31A5B995C185D1D195C9B90E409028333333333333E33F0000000000000F9010790141107004050750841D405064090741402483A0350
1001
ACAD
1000
AcDbSavedByObjectVersion
1070
     0
  0
ACAD_PROXY_OBJECT
  5
3C
102
{ACAD_REACTORS
330
2A
102
}
330
2A
100
AcDbProxyObject
 90
      499
 91
      501
 93
      444
310
42D3DD995C9A185B99D3D999915409028333333333333E33F0000000000000F9010790141107004050150941D405064090741402480A0350
1001
ACAD
1000
AcDbSavedByObjectVersion
1070
     0
  0
ACAD_PROXY_OBJECT
  5
33
102
{ACAD_REACTORS
330
2A
102
}
330
2A
100
AcDbProxyObject
 90
      499
 91
      501
 93
      428
310
425499585B1A5CDD1A58D08409038333333333333E33F0000000000000F9010740A907004050150800405405064090740C02480A1B40
1001
ACAD
1000
AcDbSavedByObjectVersion
1070
     0
  0
ACAD_PROXY_OBJECT
  5
42
102
{ACAD_REACTORS
330
2A
102
}
330
2A
100
AcDbProxyObject
 90
      499
 91
      501
 93
      420
310
4194DA1859195911B40902404333333333333E33F0000000000000F9010740A41107004050150800405405064090840C02480A0B40
1001
ACAD
1000
AcDbSavedByObjectVersion
1070
     0
  0
ACAD_PROXY_OBJECT
  5
41
102
{ACAD_REACTORS
330
2A
102
}
330
2A
100
AcDbProxyObject
 90
      499
 91
      501
 93
      516
310
4454DA18591959081DDA5D1A08195919D95CD1A40902404333333333333E33F0000000000000F901074090142907004050250800405405064090740C02480A0B40
1001
ACAD
1000
AcDbSavedByObjectVersion
1070
     0
  0
ACAD_PROXY_OBJECT
  5
3E
102
{ACAD_REACTORS
330
2A
102
}
330
2A
100
AcDbProxyObject
 90
      499
 91
      501
 93
      532
310
4394DA1859195CC81BD98811DC985E5174090240C333333333333E33F0000000000000F901079024090741D01000000000000111010841D405064090740C02480A0340
1001
ACAD
1000
AcDbSavedByObjectVersion
1070
     0
  0
ACAD_PROXY_OBJECT
  5
3F
102
{ACAD_REACTORS
330
2A
102
}
330
2A
100
AcDbProxyObject
 90
      499
 91
      501
 93
      476
310
41D4DAD95D18DA1E51840502408333333333333E33F0000000000000F901079024090741D01000000000000111010B41D405064090741802480A0340
1001
ACAD
1000
AcDbSavedByObjectVersion
1070
     0
  0
ACAD_PROXY_OBJECT
  5
37
102
{ACAD_REACTORS
330
2A
102
}
330
2A
100
AcDbProxyObject
 90
      499
 91
      501
 93
      412
310
41D51A1A58DAD95B90D409028333333333333E33F0000000000000F9010790141107004050150C41D405064090741402480A0350
1001
ACAD
1000
AcDbSavedByObjectVersion
1070
     0
  0
ACAD_PROXY_OBJECT
  5
30
102
{ACAD_REACTORS
330
2A
102
}
330
2A
100
AcDbProxyObject
 90
      499
 91
      501
 93
      420
310
4255DA5C99599C985B595059028333333333333E33F0000000000000F90107901411070040501600405405064090740C02480A0340
1001
ACAD
1000
AcDbSavedByObjectVersion
1070
     0
  0
ACAD_PROXY_OBJECT
  5
40
102
{ACAD_REACTORS
330
2A
102
}
330
2A
100
AcDbProxyObject
 90
      499
 91
      501
 93
      404
310
41560B54985E51940902404000000000000E03F0000000000000F9010740501907004050150841D405064090740C02480A1B40
1001
ACAD
1000
AcDbSavedByObjectVersion
1070
     0
  0
XRECORD
  5
2AE
102
{ACAD_REACTORS
330
2A4
102
}
330
2A4
100
AcDbXrecord
340
0
  0
XRECORD
  5
2AD
102
{ACAD_REACTORS
330
2A4
102
}
330
2A4
100
AcDbXrecord
 90
        0
  0
XRECORD
  5
2C4
102
{ACAD_REACTORS
330
2A4
102
}
330
2A4
100
AcDbXrecord
1000
DSTYLE
1002
{
1070
   340
340
11
1002
}
  0
XRECORD
  5
2AF
102
{ACAD_REACTORS
330
2A4
102
}
330
2A4
100
AcDbXrecord
  1
{85b52b39-a3a8-4316-b0a2-986350fd796e}
  0
XRECORD
  5
2A7
102
{ACAD_REACTORS
330
2A4
102
}
330
2A4
100
AcDbXrecord
  1

  0
XRECORD
  5
2AC
102
{ACAD_REACTORS
330
2A4
102
}
330
2A4
100
AcDbXrecord
 90
        4
  0
XRECORD
  5
2A9
102
{ACAD_REACTORS
330
2A4
102
}
330
2A4
100
AcDbXrecord
340
1A
  0
XRECORD
  5
2AB
102
{ACAD_REACTORS
330
2A4
102
}
330
2A4
100
AcDbXrecord
 90
    10781
  0
XRECORD
  5
2AA
102
{ACAD_REACTORS
330
2A4
102
}
330
2A4
100
AcDbXrecord
340
19
  0
XRECORD
  5
2B1
102
{ACAD_REACTORS
330
2A4
102
}
330
2A4
100
AcDbXrecord
 40
0.0
  0
XRECORD
  5
2B4
102
{ACAD_REACTORS
330
2A4
102
}
330
2A4
100
AcDbXrecord
340
0
  0
XRECORD
  5
2BA
102
{ACAD_REACTORS
330
2A4
102
}
330
2A4
100
AcDbXrecord
 10
0.0
 20
0.0
 30
0.0
  0
XRECORD
  5
2B6
102
{ACAD_REACTORS
330
2A4
102
}
330
2A4
100
AcDbXrecord
 10
0.0
 20
0.0
 30
0.0
  0
XRECORD
  5
2B9
102
{ACAD_REACTORS
330
2A4
102
}
330
2A4
100
AcDbXrecord
 10
0.0
 20
0.0
 30
0.0
  0
XRECORD
  5
2B7
102
{ACAD_REACTORS
330
2A4
102
}
330
2A4
100
AcDbXrecord
 10
0.0
 20
0.0
 30
0.0
  0
XRECORD
  5
2B8
102
{ACAD_REACTORS
330
2A4
102
}
330
2A4
100
AcDbXrecord
 10
0.0
 20
0.0
 30
0.0
  0
XRECORD
  5
2B5
102
{ACAD_REACTORS
330
2A4
102
}
330
2A4
100
AcDbXrecord
 10
0.0
 20
0.0
 30
0.0
  0
XRECORD
  5
2B2
102
{ACAD_REACTORS
330
2A4
102
}
330
2A4
100
AcDbXrecord
340
0
  0
XRECORD
  5
2B3
102
{ACAD_REACTORS
330
2A4
102
}
330
2A4
100
AcDbXrecord
 70
     0
  0
XRECORD
  5
2A8
102
{ACAD_REACTORS
330
2A4
102
}
330
2A4
100
AcDbXrecord
  1

  0
XRECORD
  5
2A5
102
{ACAD_REACTORS
330
2A4
102
}
330
2A4
100
AcDbXrecord
 90
        1
  0
XRECORD
  5
2A6
102
{ACAD_REACTORS
330
2A4
102
}
330
2A4
100
AcDbXrecord
 90
       70
  0
XRECORD
  5
2BD
102
{ACAD_REACTORS
330
2A4
102
}
330
2A4
100
AcDbXrecord
340
0
  0
XRECORD
  5
2C3
102
{ACAD_REACTORS
330
2A4
102
}
330
2A4
100
AcDbXrecord
 10
0.0
 20
0.0
 30
0.0
  0
XRECORD
  5
2BF
102
{ACAD_REACTORS
330
2A4
102
}
330
2A4
100
AcDbXrecord
 10
0.0
 20
0.0
 30
0.0
  0
XRECORD
  5
2C2
102
{ACAD_REACTORS
330
2A4
102
}
330
2A4
100
AcDbXrecord
 10
0.0
 20
0.0
 30
0.0
  0
XRECORD
  5
2C0
102
{ACAD_REACTORS
330
2A4
102
}
330
2A4
100
AcDbXrecord
 10
0.0
 20
0.0
 30
0.0
  0
XRECORD
  5
2C1
102
{ACAD_REACTORS
330
2A4
102
}
330
2A4
100
AcDbXrecord
 10
0.0
 20
0.0
 30
0.0
  0
XRECORD
  5
2BE
102
{ACAD_REACTORS
330
2A4
102
}
330
2A4
100
AcDbXrecord
 10
0.0
 20
0.0
 30
0.0
  0
XRECORD
  5
2BB
102
{ACAD_REACTORS
330
2A4
102
}
330
2A4
100
AcDbXrecord
340
0
  0
XRECORD
  5
2BC
102
{ACAD_REACTORS
330
2A4
102
}
330
2A4
100
AcDbXrecord
 70
     0
  0
XRECORD
  5
2B0
102
{ACAD_REACTORS
330
2A4
102
}
330
2A4
100
AcDbXrecord
  1
{FAEB1C32-E019-11D5-929B-00C0DF256EC4}
  0
DICTIONARYVAR
  5
2D2
102
{ACAD_REACTORS
330
2C5
102
}
330
2C5
100
DictionaryVariables
280
     0
  1
1:1
  0
DICTIONARYVAR
  5
2CC
102
{ACAD_REACTORS
330
2C5
102
}
330
2C5
100
DictionaryVariables
280
     0
  1
3.500000
  0
DICTIONARYVAR
  5
2CD
102
{ACAD_REACTORS
330
2C5
102
}
330
2C5
100
DictionaryVariables
280
     0
  1
acadiso.lin
  0
DICTIONARYVAR
  5
2C7
102
{ACAD_REACTORS
330
2C5
102
}
330
2C5
100
DictionaryVariables
280
     0
  1
Standard
  0
DICTIONARYVAR
  5
2C6
102
{ACAD_REACTORS
330
2C5
102
}
330
2C5
100
DictionaryVariables
280
     0
  1
Standard
  0
DICTIONARYVAR
  5
2CE
102
{ACAD_REACTORS
330
2C5
102
}
330
2C5
100
DictionaryVariables
280
     0
  1
2
  0
DICTIONARYVAR
  5
2CF
102
{ACAD_REACTORS
330
2C5
102
}
330
2C5
100
DictionaryVariables
280
     0
  1
1
  0
DICTIONARYVAR
  5
2D3
102
{ACAD_REACTORS
330
2C5
102
}
330
2C5
100
DictionaryVariables
280
     0
  1
1
  0
DICTIONARYVAR
  5
2C9
102
{ACAD_REACTORS
330
2C5
102
}
330
2C5
100
DictionaryVariables
280
     0
  1
80.000000
  0
DICTIONARYVAR
  5
2C8
102
{ACAD_REACTORS
330
2C5
102
}
330
2C5
100
DictionaryVariables
280
     0
  1
5.000000
  0
DICTIONARY
  5
2D6
330
45
100
AcDbDictionary
280
     1
  3
ACAD_XREC_ROUNDTRIP
360
2D7
  0
DICTIONARY
  5
2D4
330
44
100
AcDbDictionary
280
     1
  3
ACAD_XREC_ROUNDTRIP
360
2D5
  0
DICTIONARY
  5
2D8
330
46
100
AcDbDictionary
280
     1
  3
ACAD_XREC_ROUNDTRIP
360
2D9
  0
XRECORD
  5
2D7
102
{ACAD_REACTORS
330
2D6
102
}
330
2D6
100
AcDbXrecord
102
MATERIAL
148
0.0
149
0.0
149
0.0
 93
        0
 94
      127
282
     0
 72
     1
 77
     1
171
     1
175
     1
179
     1
273
     0
  0
XRECORD
  5
2D5
102
{ACAD_REACTORS
330
2D4
102
}
330
2D4
100
AcDbXrecord
102
MATERIAL
148
0.0
149
0.0
149
0.0
 93
        0
 94
      127
282
     0
 72
     1
 77
     1
171
     1
175
     1
179
     1
273
     0
  0
XRECORD
  5
2D9
102
{ACAD_REACTORS
330
2D8
102
}
330
2D8
100
AcDbXrecord
102
MATERIAL
148
0.0
149
0.0
149
0.0
 93
        0
 94
      127
282
     0
 72
     1
 77
     1
171
     1
175
     1
179
     1
273
     0
  0
ENDSEC
  0
EOF
