  0
SECTION
  2
HEADER
  9
$ACADVER
  1
AC1014
  9
$ACADMAINTVER
 70
     9
  9
$DWGCODEPAGE
  3
ANSI_932
  9
$INSBASE
 10
0.0
 20
0.0
 30
0.0
  9
$EXTMIN
 10
13.33333333333333
 20
13.33333333333333
 30
0.0
  9
$EXTMAX
 10
546.6666666666666
 20
382.6666666666667
 30
0.0
  9
$LIMMIN
 10
0.0
 20
0.0
  9
$LIMMAX
 10
420.0
 20
297.0
  9
$ORTHOMODE
 70
     0
  9
$REGENMODE
 70
     1
  9
$FILLMODE
 70
     1
  9
$QTEXTMODE
 70
     0
  9
$MIRRTEXT
 70
     1
  9
$DRAGMODE
 70
     2
  9
$LTSCALE
 40
1.0
  9
$OSMODE
 70
    37
  9
$ATTMODE
 70
     1
  9
$TEXTSIZE
 40
2.5
  9
$TRACEWID
 40
1.0
  9
$TEXTSTYLE
  7
STANDARD
  9
$CLAYER
  8
Ｓ_１_１
  9
$CELTYPE
  6
BYLAYER
  9
$CECOLOR
 62
   256
  9
$CELTSCALE
 40
1.0
  9
$DELOBJ
 70
     1
  9
$DISPSILH
 70
     0
  9
$DIMSCALE
 40
1.0
  9
$DIMASZ
 40
2.5
  9
$DIMEXO
 40
0.625
  9
$DIMDLI
 40
3.75
  9
$DIMRND
 40
0.0
  9
$DIMDLE
 40
0.0
  9
$DIMEXE
 40
1.25
  9
$DIMTP
 40
0.0
  9
$DIMTM
 40
0.0
  9
$DIMTXT
 40
2.5
  9
$DIMCEN
 40
2.5
  9
$DIMTSZ
 40
0.0
  9
$DIMTOL
 70
     0
  9
$DIMLIM
 70
     0
  9
$DIMTIH
 70
     0
  9
$DIMTOH
 70
     0
  9
$DIMSE1
 70
     0
  9
$DIMSE2
 70
     0
  9
$DIMTAD
 70
     1
  9
$DIMZIN
 70
     8
  9
$DIMBLK
  1

  9
$DIMASO
 70
     1
  9
$DIMSHO
 70
     1
  9
$DIMPOST
  1

  9
$DIMAPOST
  1

  9
$DIMALT
 70
     0
  9
$DIMALTD
 70
     3
  9
$DIMALTF
 40
0.03937007874016
  9
$DIMLFAC
 40
1.0
  9
$DIMTOFL
 70
     1
  9
$DIMTVP
 40
0.0
  9
$DIMTIX
 70
     0
  9
$DIMSOXD
 70
     0
  9
$DIMSAH
 70
     0
  9
$DIMBLK1
  1

  9
$DIMBLK2
  1

  9
$DIMSTYLE
  2
ISO-25
  9
$DIMCLRD
 70
     0
  9
$DIMCLRE
 70
     0
  9
$DIMCLRT
 70
     0
  9
$DIMTFAC
 40
1.0
  9
$DIMGAP
 40
0.625
  9
$DIMJUST
 70
     0
  9
$DIMSD1
 70
     0
  9
$DIMSD2
 70
     0
  9
$DIMTOLJ
 70
     0
  9
$DIMTZIN
 70
     8
  9
$DIMALTZ
 70
     0
  9
$DIMALTTZ
 70
     0
  9
$DIMFIT
 70
     3
  9
$DIMUPT
 70
     0
  9
$DIMUNIT
 70
     2
  9
$DIMDEC
 70
     2
  9
$DIMTDEC
 70
     2
  9
$DIMALTU
 70
     2
  9
$DIMALTTD
 70
     3
  9
$DIMTXSTY
  7
STANDARD
  9
$DIMAUNIT
 70
     0
  9
$LUNITS
 70
     2
  9
$LUPREC
 70
     4
  9
$SKETCHINC
 40
1.0
  9
$FILLETRAD
 40
10.0
  9
$AUNITS
 70
     0
  9
$AUPREC
 70
     0
  9
$MENU
  1
.
  9
$ELEVATION
 40
0.0
  9
$PELEVATION
 40
0.0
  9
$THICKNESS
 40
0.0
  9
$LIMCHECK
 70
     0
  9
$CHAMFERA
 40
0.0
  9
$CHAMFERB
 40
0.0
  9
$CHAMFERC
 40
0.0
  9
$CHAMFERD
 40
0.0
  9
$SKPOLY
 70
     0
  9
$TDCREATE
 40
2459591.543171447
  9
$TDUPDATE
 40
2459591.543172291
  9
$TDINDWG
 40
0.0000000116
  9
$TDUSRTIMER
 40
0.0000000116
  9
$USRTIMER
 70
     1
  9
$ANGBASE
 50
0.0
  9
$ANGDIR
 70
     0
  9
$PDMODE
 70
     0
  9
$PDSIZE
 40
0.0
  9
$PLINEWID
 40
0.0
  9
$COORDS
 70
     1
  9
$SPLFRAME
 70
     0
  9
$SPLINETYPE
 70
     6
  9
$SPLINESEGS
 70
     8
  9
$ATTDIA
 70
     0
  9
$ATTREQ
 70
     1
  9
$HANDLING
 70
     1
  9
$HANDSEED
  5
5BC
  9
$SURFTAB1
 70
     6
  9
$SURFTAB2
 70
     6
  9
$SURFTYPE
 70
     6
  9
$SURFU
 70
     6
  9
$SURFV
 70
     6
  9
$UCSNAME
  2

  9
$UCSORG
 10
0.0
 20
0.0
 30
0.0
  9
$UCSXDIR
 10
1.0
 20
0.0
 30
0.0
  9
$UCSYDIR
 10
0.0
 20
1.0
 30
0.0
  9
$PUCSNAME
  2

  9
$PUCSORG
 10
0.0
 20
0.0
 30
0.0
  9
$PUCSXDIR
 10
1.0
 20
0.0
 30
0.0
  9
$PUCSYDIR
 10
0.0
 20
1.0
 30
0.0
  9
$USERI1
 70
     0
  9
$USERI2
 70
     0
  9
$USERI3
 70
     0
  9
$USERI4
 70
     0
  9
$USERI5
 70
     0
  9
$USERR1
 40
0.0
  9
$USERR2
 40
0.0
  9
$USERR3
 40
0.0
  9
$USERR4
 40
0.0
  9
$USERR5
 40
0.0
  9
$WORLDVIEW
 70
     1
  9
$SHADEDGE
 70
     3
  9
$SHADEDIF
 70
    70
  9
$TILEMODE
 70
     1
  9
$MAXACTVP
 70
    64
  9
$PINSBASE
 10
0.0
 20
0.0
 30
0.0
  9
$PLIMCHECK
 70
     0
  9
$PEXTMIN
 10
1.000000000000000E+20
 20
1.000000000000000E+20
 30
1.000000000000000E+20
  9
$PEXTMAX
 10
-1.000000000000000E+20
 20
-1.000000000000000E+20
 30
-1.000000000000000E+20
  9
$PLIMMIN
 10
0.0
 20
0.0
  9
$PLIMMAX
 10
420.0
 20
297.0
  9
$UNITMODE
 70
     0
  9
$VISRETAIN
 70
     1
  9
$PLINEGEN
 70
     0
  9
$PSLTSCALE
 70
     1
  9
$TREEDEPTH
 70
  3020
  9
$PICKSTYLE
 70
     1
  9
$CMLSTYLE
  2
STANDARD
  9
$CMLJUST
 70
     0
  9
$CMLSCALE
 40
20.0
  9
$PROXYGRAPHICS
 70
     1
  9
$MEASUREMENT
 70
     1
  0
ENDSEC
  0
SECTION
  2
CLASSES
  0
CLASS
  1
ACDBDICTIONARYWDFLT
  2
AcDbDictionaryWithDefault
  3
ObjectDBX Classes
 90
        0
280
     0
281
     0
  0
CLASS
  1
VISUALSTYLE
  2
AcDbVisualStyle
  3
ObjectDBX Classes
 90
     4095
280
     0
281
     0
  0
CLASS
  1
MATERIAL
  2
AcDbMaterial
  3
ObjectDBX Classes
 90
     1153
280
     0
281
     0
  0
CLASS
  1
SCALE
  2
AcDbScale
  3
ObjectDBX Classes
 90
     1153
280
     0
281
     0
  0
CLASS
  1
TABLESTYLE
  2
AcDbTableStyle
  3
ObjectDBX Classes
 90
     4095
280
     0
281
     0
  0
CLASS
  1
MLEADERSTYLE
  2
AcDbMLeaderStyle
  3
ACDB_MLEADERSTYLE_CLASS
 90
     4095
280
     0
281
     0
  0
CLASS
  1
SUN
  2
AcDbSun
  3
SCENEOE
 90
     1153
280
     0
281
     0
  0
CLASS
  1
DICTIONARYVAR
  2
AcDbDictionaryVar
  3
ObjectDBX Classes
 90
        0
280
     0
281
     0
  0
CLASS
  1
XRECORD
  2
AcDbXrecord
  3
ObjectDBX Classes
 90
        0
280
     0
281
     0
  0
CLASS
  1
LWPOLYLINE
  2
AcDbPolyline
  3
ObjectDBX Classes
 90
        0
280
     0
281
     1
  0
CLASS
  1
HATCH
  2
AcDbHatch
  3
ObjectDBX Classes
 90
        0
280
     0
281
     1
  0
CLASS
  1
ACDBPLACEHOLDER
  2
AcDbPlaceHolder
  3
ObjectDBX Classes
 90
        0
280
     0
281
     0
  0
CLASS
  1
LAYOUT
  2
AcDbLayout
  3
ObjectDBX Classes
 90
        0
280
     0
281
     0
  0
ENDSEC
  0
SECTION
  2
TABLES
  0
TABLE
  2
VPORT
  5
8
102
{ACAD_XDICTIONARY
360
5B1
102
}
330
0
100
AcDbSymbolTable
 70
     1
  0
VPORT
  5
29
330
8
100
AcDbSymbolTableRecord
100
AcDbViewportTableRecord
  2
*ACTIVE
 70
     0
 10
0.0
 20
0.0
 11
1.0
 21
1.0
 12
280.0
 22
198.0
 13
0.0
 23
0.0
 14
10.0
 24
10.0
 15
10.0
 25
10.0
 16
0.0
 26
0.0
 36
1.0
 17
0.0
 27
0.0
 37
0.0
 40
369.3333333333333
 41
1.444043321299639
 42
50.0
 43
0.0
 44
0.0
 50
0.0
 51
0.0
 71
     0
 72
  1000
 73
     1
 74
     3
 75
     0
 76
     0
 77
     0
 78
     0
  0
ENDTAB
  0
TABLE
  2
LTYPE
  5
5
330
0
100
AcDbSymbolTable
 70
     8
  0
LTYPE
  5
14
330
5
100
AcDbSymbolTableRecord
100
AcDbLinetypeTableRecord
  2
BYBLOCK
 70
     0
  3

 72
    65
 73
     0
 40
0.0
  0
LTYPE
  5
15
330
5
100
AcDbSymbolTableRecord
100
AcDbLinetypeTableRecord
  2
BYLAYER
 70
     0
  3

 72
    65
 73
     0
 40
0.0
  0
LTYPE
  5
16
330
5
100
AcDbSymbolTableRecord
100
AcDbLinetypeTableRecord
  2
CONTINUOUS
 70
     0
  3
Solid line
 72
    65
 73
     0
 40
0.0
  0
LTYPE
  5
6E
330
5
100
AcDbSymbolTableRecord
100
AcDbLinetypeTableRecord
  2
EXLTYPE0
 70
     0
  3
破線
 72
    65
 73
     2
 40
4.0
 49
3.0
 74
     0
 49
-1.0
 74
     0
  0
LTYPE
  5
6F
330
5
100
AcDbSymbolTableRecord
100
AcDbLinetypeTableRecord
  2
EXLTYPE1
 70
     0
  3
点線
 72
    65
 73
     2
 40
2.0
 49
1.0
 74
     0
 49
-1.0
 74
     0
  0
LTYPE
  5
70
330
5
100
AcDbSymbolTableRecord
100
AcDbLinetypeTableRecord
  2
EXLTYPE2
 70
     0
  3
一点鎖線
 72
    65
 73
     4
 40
13.0
 49
10.0
 74
     0
 49
-1.0
 74
     0
 49
1.0
 74
     0
 49
-1.0
 74
     0
  0
LTYPE
  5
71
330
5
100
AcDbSymbolTableRecord
100
AcDbLinetypeTableRecord
  2
EXLTYPE3
 70
     0
  3
二点鎖線
 72
    65
 73
     6
 40
15.0
 49
10.0
 74
     0
 49
-1.0
 74
     0
 49
1.0
 74
     0
 49
-1.0
 74
     0
 49
1.0
 74
     0
 49
-1.0
 74
     0
  0
LTYPE
  5
72
330
5
100
AcDbSymbolTableRecord
100
AcDbLinetypeTableRecord
  2
EXLTYPE4
 70
     0
  3
一点鎖線2
 72
    65
 73
     4
 40
3.5
 49
2.0
 74
     0
 49
-0.5
 74
     0
 49
0.5
 74
     0
 49
-0.5
 74
     0
  0
LTYPE
  5
73
330
5
100
AcDbSymbolTableRecord
100
AcDbLinetypeTableRecord
  2
EXLTYPE5
 70
     0
  3
二点鎖線2
 72
    65
 73
     6
 40
4.5
 49
2.0
 74
     0
 49
-0.5
 74
     0
 49
0.5
 74
     0
 49
-0.5
 74
     0
 49
0.5
 74
     0
 49
-0.5
 74
     0
  0
LTYPE
  5
74
330
5
100
AcDbSymbolTableRecord
100
AcDbLinetypeTableRecord
  2
EXLTYPE6
 70
     0
  3
一点鎖線4
 72
    65
 73
     4
 40
33.0
 49
30.0
 74
     0
 49
-1.0
 74
     0
 49
1.0
 74
     0
 49
-1.0
 74
     0
  0
ENDTAB
  0
TABLE
  2
LAYER
  5
2
330
0
100
AcDbSymbolTable
 70
     4
  0
LAYER
  5
10
330
2
100
AcDbSymbolTableRecord
100
AcDbLayerTableRecord
  2
0
 70
     0
 62
     7
  6
CONTINUOUS
  0
LAYER
  5
77
330
2
100
AcDbSymbolTableRecord
100
AcDbLayerTableRecord
  2
図面枠
 70
     4
 62
     7
  6
CONTINUOUS
  0
LAYER
  5
78
330
2
100
AcDbSymbolTableRecord
100
AcDbLayerTableRecord
  2
Ｓ_１_１
 70
     0
 62
     7
  6
CONTINUOUS
  0
LAYER
  5
116
330
2
100
AcDbSymbolTableRecord
100
AcDbLayerTableRecord
  2
DEFPOINTS
 70
     0
 62
     7
  6
CONTINUOUS
  0
ENDTAB
  0
TABLE
  2
STYLE
  5
3
330
0
100
AcDbSymbolTable
 70
     5
  0
STYLE
  5
11
330
3
100
AcDbSymbolTableRecord
100
AcDbTextStyleTableRecord
  2
STANDARD
 70
     0
 40
0.0
 41
1.0
 50
0.0
 71
     0
 42
2.5
  3
monotxt
  4
extfont
  0
STYLE
  5
75
330
3
100
AcDbSymbolTableRecord
100
AcDbTextStyleTableRecord
  2
EXCADSTD
 70
     0
 40
0.0
 41
1.0
 50
0.0
 71
     0
 42
2.5
  3
monotxt
  4
extfont
  0
STYLE
  5
76
330
3
100
AcDbSymbolTableRecord
100
AcDbTextStyleTableRecord
  2
EXCADVERT
 70
     4
 40
0.0
 41
1.0
 50
0.0
 71
     0
 42
2.5
  3
monotxt
  4
extfont
  0
STYLE
  5
D9
330
3
100
AcDbSymbolTableRecord
100
AcDbTextStyleTableRecord
  2
EXCADTTF1
 70
     0
 40
0.0
 41
1.0
 50
0.0
 71
     0
 42
2.5
  3
msgothic.ttc
  4

1001
ACAD
1000
MS Gothic
1071
    32817
  0
STYLE
  5
114
330
3
100
AcDbSymbolTableRecord
100
AcDbTextStyleTableRecord
  2
EXCADDIM1
 70
     0
 40
0.0
 41
1.0
 50
0.0
 71
     0
 42
2.5
  3
msgothic.ttc
  4

1001
ACAD
1000
MS Gothic
1071
    32817
  0
ENDTAB
  0
TABLE
  2
VIEW
  5
6
330
0
100
AcDbSymbolTable
 70
     0
  0
ENDTAB
  0
TABLE
  2
UCS
  5
7
330
0
100
AcDbSymbolTable
 70
     0
  0
ENDTAB
  0
TABLE
  2
APPID
  5
9
330
0
100
AcDbSymbolTable
 70
     2
  0
APPID
  5
12
330
9
100
AcDbSymbolTableRecord
100
AcDbRegAppTableRecord
  2
ACAD
 70
     0
  0
APPID
  5
5BB
330
9
100
AcDbSymbolTableRecord
100
AcDbRegAppTableRecord
  2
ACAD_MLEADERVER
 70
     0
  0
ENDTAB
  0
TABLE
  2
DIMSTYLE
  5
A
330
0
100
AcDbSymbolTable
 70
     1
  0
DIMSTYLE
105
27
102
{ACAD_REACTORS
330
115
330
123
330
130
330
242
330
250
330
4F8
330
505
330
54F
330
55C
330
56B
330
578
102
}
330
A
100
AcDbSymbolTableRecord
100
AcDbDimStyleTableRecord
  2
ISO-25
 70
     0
  3

  4

  5

  6

  7

 40
1.0
 41
2.5
 42
0.625
 43
3.75
 44
1.25
 45
0.0
 46
0.0
 47
0.0
 48
0.0
140
2.5
141
2.5
142
0.0
143
0.03937007874016
144
1.0
145
0.0
146
1.0
147
0.625
 71
     0
 72
     0
 73
     0
 74
     0
 75
     0
 76
     0
 77
     1
 78
     8
170
     0
171
     3
172
     1
173
     0
174
     0
175
     0
176
     0
177
     0
178
     0
270
     2
271
     2
272
     2
273
     2
274
     3
340
11
275
     0
280
     0
281
     0
282
     0
283
     0
284
     8
285
     0
286
     0
287
     5
288
     0
  0
ENDTAB
  0
TABLE
  2
BLOCK_RECORD
  5
1
330
0
100
AcDbSymbolTable
 70
    25
  0
BLOCK_RECORD
  5
1F
330
1
100
AcDbSymbolTableRecord
100
AcDbBlockTableRecord
  2
*MODEL_SPACE
  0
BLOCK_RECORD
  5
1B
330
1
100
AcDbSymbolTableRecord
100
AcDbBlockTableRecord
  2
*PAPER_SPACE
  0
BLOCK_RECORD
  5
79
330
1
100
AcDbSymbolTableRecord
100
AcDbBlockTableRecord
  2
EX_NORM
  0
BLOCK_RECORD
  5
7C
330
1
100
AcDbSymbolTableRecord
100
AcDbBlockTableRecord
  2
EX_BNORM
  0
BLOCK_RECORD
  5
7F
330
1
100
AcDbSymbolTableRecord
100
AcDbBlockTableRecord
  2
EX_BCIR
  0
BLOCK_RECORD
  5
82
330
1
100
AcDbSymbolTableRecord
100
AcDbBlockTableRecord
  2
EX_RCIVIL
  0
BLOCK_RECORD
  5
85
330
1
100
AcDbSymbolTableRecord
100
AcDbBlockTableRecord
  2
EX_SLANT
  0
BLOCK_RECORD
  5
88
330
1
100
AcDbSymbolTableRecord
100
AcDbBlockTableRecord
  2
EX_NONE
  0
BLOCK_RECORD
  5
8B
330
1
100
AcDbSymbolTableRecord
100
AcDbBlockTableRecord
  2
EX_CIVIL
  0
BLOCK_RECORD
  5
8E
330
1
100
AcDbSymbolTableRecord
100
AcDbBlockTableRecord
  2
EX_WCIR
  0
BLOCK_RECORD
  5
91
330
1
100
AcDbSymbolTableRecord
100
AcDbBlockTableRecord
  2
EX_WCIR2
  0
BLOCK_RECORD
  5
94
330
1
100
AcDbSymbolTableRecord
100
AcDbBlockTableRecord
  2
EX_WNORM
  0
BLOCK_RECORD
  5
97
330
1
100
AcDbSymbolTableRecord
100
AcDbBlockTableRecord
  2
EX_NNORM
  0
BLOCK_RECORD
  5
9A
330
1
100
AcDbSymbolTableRecord
100
AcDbBlockTableRecord
  2
EX_BBOX
  0
BLOCK_RECORD
  5
9D
330
1
100
AcDbSymbolTableRecord
100
AcDbBlockTableRecord
  2
EX_WBOX
  0
BLOCK_RECORD
  5
A0
330
1
100
AcDbSymbolTableRecord
100
AcDbBlockTableRecord
  2
EX_INTEGRAL
  0
BLOCK_RECORD
  5
117
330
1
100
AcDbSymbolTableRecord
100
AcDbBlockTableRecord
  2
*D15
  0
BLOCK_RECORD
  5
124
330
1
100
AcDbSymbolTableRecord
100
AcDbBlockTableRecord
  2
*D16
  0
BLOCK_RECORD
  5
131
330
1
100
AcDbSymbolTableRecord
100
AcDbBlockTableRecord
  2
*D17
  0
BLOCK_RECORD
  5
243
330
1
100
AcDbSymbolTableRecord
100
AcDbBlockTableRecord
  2
*D18
  0
BLOCK_RECORD
  5
251
330
1
100
AcDbSymbolTableRecord
100
AcDbBlockTableRecord
  2
*D19
  0
BLOCK_RECORD
  5
4F9
330
1
100
AcDbSymbolTableRecord
100
AcDbBlockTableRecord
  2
*D20
  0
BLOCK_RECORD
  5
506
330
1
100
AcDbSymbolTableRecord
100
AcDbBlockTableRecord
  2
*D21
  0
BLOCK_RECORD
  5
550
330
1
100
AcDbSymbolTableRecord
100
AcDbBlockTableRecord
  2
*D22
  0
BLOCK_RECORD
  5
55D
330
1
100
AcDbSymbolTableRecord
100
AcDbBlockTableRecord
  2
*D23
  0
BLOCK_RECORD
  5
56C
330
1
100
AcDbSymbolTableRecord
100
AcDbBlockTableRecord
  2
*D24
  0
BLOCK_RECORD
  5
579
330
1
100
AcDbSymbolTableRecord
100
AcDbBlockTableRecord
  2
*D25
  0
ENDTAB
  0
ENDSEC
  0
SECTION
  2
BLOCKS
  0
BLOCK
  5
20
330
1F
100
AcDbEntity
  8
0
100
AcDbBlockBegin
  2
*MODEL_SPACE
 70
     0
 10
0.0
 20
0.0
 30
0.0
  3
*MODEL_SPACE
  1

  0
ENDBLK
  5
21
330
1F
100
AcDbEntity
  8
0
100
AcDbBlockEnd
  0
BLOCK
  5
1C
330
1B
100
AcDbEntity
 67
     1
  8
0
100
AcDbBlockBegin
  2
*PAPER_SPACE
 70
     0
 10
0.0
 20
0.0
 30
0.0
  3
*PAPER_SPACE
  1

  0
ENDBLK
  5
1D
330
1B
100
AcDbEntity
 67
     1
  8
0
100
AcDbBlockEnd
  0
BLOCK
  5
7A
330
79
100
AcDbEntity
  8
0
100
AcDbBlockBegin
  2
EX_NORM
 70
     0
 10
0.0
 20
0.0
 30
0.0
  3
EX_NORM
  1

  0
LINE
  5
A3
330
79
100
AcDbEntity
  8
0
  6
CONTINUOUS
 62
     0
100
AcDbLine
 10
0.0
 20
0.0
 30
0.0
 11
-1.0
 21
0.0
 31
0.0
  0
LINE
  5
A4
330
79
100
AcDbEntity
  8
0
  6
CONTINUOUS
 62
     0
100
AcDbLine
 10
0.0
 20
0.0
 30
0.0
 11
-1.0
 21
0.166666667
 31
0.0
  0
LINE
  5
A5
330
79
100
AcDbEntity
  8
0
  6
CONTINUOUS
 62
     0
100
AcDbLine
 10
0.0
 20
0.0
 30
0.0
 11
-1.0
 21
-0.166666667
 31
0.0
  0
ENDBLK
  5
7B
330
79
100
AcDbEntity
  8
0
100
AcDbBlockEnd
  0
BLOCK
  5
7D
330
7C
100
AcDbEntity
  8
0
100
AcDbBlockBegin
  2
EX_BNORM
 70
     0
 10
0.0
 20
0.0
 30
0.0
  3
EX_BNORM
  1

  0
LINE
  5
A6
330
7C
100
AcDbEntity
  8
0
  6
CONTINUOUS
 62
     0
100
AcDbLine
 10
0.0
 20
0.0
 30
0.0
 11
-1.0
 21
0.0
 31
0.0
  0
LINE
  5
A7
330
7C
100
AcDbEntity
  8
0
  6
CONTINUOUS
 62
     0
100
AcDbLine
 10
0.0
 20
0.0
 30
0.0
 11
-1.0
 21
0.166666667
 31
0.0
  0
LINE
  5
A8
330
7C
100
AcDbEntity
  8
0
  6
CONTINUOUS
 62
     0
100
AcDbLine
 10
0.0
 20
0.0
 30
0.0
 11
-1.0
 21
-0.166666667
 31
0.0
  0
LINE
  5
A9
330
7C
100
AcDbEntity
  8
0
  6
CONTINUOUS
 62
     0
100
AcDbLine
 10
0.0
 20
0.0
 30
0.0
 11
-1.0
 21
0.083333333
 31
0.0
  0
LINE
  5
AA
330
7C
100
AcDbEntity
  8
0
  6
CONTINUOUS
 62
     0
100
AcDbLine
 10
0.0
 20
0.0
 30
0.0
 11
-1.0
 21
-0.083333333
 31
0.0
  0
LINE
  5
AB
330
7C
100
AcDbEntity
  8
0
  6
CONTINUOUS
 62
     0
100
AcDbLine
 10
-1.0
 20
0.166666667
 30
0.0
 11
-1.0
 21
-0.166666667
 31
0.0
  0
ENDBLK
  5
7E
330
7C
100
AcDbEntity
  8
0
100
AcDbBlockEnd
  0
BLOCK
  5
80
330
7F
100
AcDbEntity
  8
0
100
AcDbBlockBegin
  2
EX_BCIR
 70
     0
 10
0.0
 20
0.0
 30
0.0
  3
EX_BCIR
  1

  0
LINE
  5
AC
330
7F
100
AcDbEntity
  8
0
  6
CONTINUOUS
 62
     0
100
AcDbLine
 10
0.0
 20
0.0
 30
0.0
 11
-1.0
 21
0.0
 31
0.0
  0
CIRCLE
  5
AD
330
7F
100
AcDbEntity
  8
0
  6
CONTINUOUS
 62
     0
100
AcDbCircle
 10
0.0
 20
0.0
 30
0.0
 40
0.5
  0
CIRCLE
  5
AE
330
7F
100
AcDbEntity
  8
0
  6
CONTINUOUS
 62
     0
100
AcDbCircle
 10
0.0
 20
0.0
 30
0.0
 40
0.25
  0
ENDBLK
  5
81
330
7F
100
AcDbEntity
  8
0
100
AcDbBlockEnd
  0
BLOCK
  5
83
330
82
100
AcDbEntity
  8
0
100
AcDbBlockBegin
  2
EX_RCIVIL
 70
     0
 10
0.0
 20
0.0
 30
0.0
  3
EX_RCIVIL
  1

  0
LINE
  5
AF
330
82
100
AcDbEntity
  8
0
  6
CONTINUOUS
 62
     0
100
AcDbLine
 10
0.0
 20
0.0
 30
0.0
 11
-1.0
 21
0.0
 31
0.0
  0
LINE
  5
B0
330
82
100
AcDbEntity
  8
0
  6
CONTINUOUS
 62
     0
100
AcDbLine
 10
-1.0
 20
-0.25
 30
0.0
 11
0.0
 21
-0.25
 31
0.0
  0
LINE
  5
B1
330
82
100
AcDbEntity
  8
0
  6
CONTINUOUS
 62
     0
100
AcDbLine
 10
-1.0
 20
-0.125
 30
0.0
 11
0.0
 21
-0.125
 31
0.0
  0
ENDBLK
  5
84
330
82
100
AcDbEntity
  8
0
100
AcDbBlockEnd
  0
BLOCK
  5
86
330
85
100
AcDbEntity
  8
0
100
AcDbBlockBegin
  2
EX_SLANT
 70
     0
 10
0.0
 20
0.0
 30
0.0
  3
EX_SLANT
  1

  0
LINE
  5
B2
330
85
100
AcDbEntity
  8
0
  6
CONTINUOUS
 62
     0
100
AcDbLine
 10
0.0
 20
0.0
 30
0.0
 11
-1.0
 21
0.0
 31
0.0
  0
LINE
  5
B3
330
85
100
AcDbEntity
  8
0
  6
CONTINUOUS
 62
     0
100
AcDbLine
 10
0.707106781
 20
0.707106781
 30
0.0
 11
-0.707106781
 21
-0.707106781
 31
0.0
  0
ENDBLK
  5
87
330
85
100
AcDbEntity
  8
0
100
AcDbBlockEnd
  0
BLOCK
  5
89
330
88
100
AcDbEntity
  8
0
100
AcDbBlockBegin
  2
EX_NONE
 70
     0
 10
0.0
 20
0.0
 30
0.0
  3
EX_NONE
  1

  0
LINE
  5
B4
330
88
100
AcDbEntity
  8
0
  6
CONTINUOUS
 62
     0
100
AcDbLine
 10
0.0
 20
0.0
 30
0.0
 11
-1.0
 21
0.0
 31
0.0
  0
ENDBLK
  5
8A
330
88
100
AcDbEntity
  8
0
100
AcDbBlockEnd
  0
BLOCK
  5
8C
330
8B
100
AcDbEntity
  8
0
100
AcDbBlockBegin
  2
EX_CIVIL
 70
     0
 10
0.0
 20
0.0
 30
0.0
  3
EX_CIVIL
  1

  0
LINE
  5
B5
330
8B
100
AcDbEntity
  8
0
  6
CONTINUOUS
 62
     0
100
AcDbLine
 10
0.0
 20
0.0
 30
0.0
 11
-1.0
 21
0.0
 31
0.0
  0
LINE
  5
B6
330
8B
100
AcDbEntity
  8
0
  6
CONTINUOUS
 62
     0
100
AcDbLine
 10
-1.0
 20
0.25
 30
0.0
 11
0.0
 21
0.25
 31
0.0
  0
LINE
  5
B7
330
8B
100
AcDbEntity
  8
0
  6
CONTINUOUS
 62
     0
100
AcDbLine
 10
-1.0
 20
0.125
 30
0.0
 11
0.0
 21
0.125
 31
0.0
  0
ENDBLK
  5
8D
330
8B
100
AcDbEntity
  8
0
100
AcDbBlockEnd
  0
BLOCK
  5
8F
330
8E
100
AcDbEntity
  8
0
100
AcDbBlockBegin
  2
EX_WCIR
 70
     0
 10
0.0
 20
0.0
 30
0.0
  3
EX_WCIR
  1

  0
LINE
  5
B8
330
8E
100
AcDbEntity
  8
0
  6
CONTINUOUS
 62
     0
100
AcDbLine
 10
0.0
 20
0.0
 30
0.0
 11
-1.0
 21
0.0
 31
0.0
  0
CIRCLE
  5
B9
330
8E
100
AcDbEntity
  8
0
  6
CONTINUOUS
 62
     0
100
AcDbCircle
 10
0.0
 20
0.0
 30
0.0
 40
0.5
  0
ENDBLK
  5
90
330
8E
100
AcDbEntity
  8
0
100
AcDbBlockEnd
  0
BLOCK
  5
92
330
91
100
AcDbEntity
  8
0
100
AcDbBlockBegin
  2
EX_WCIR2
 70
     0
 10
0.0
 20
0.0
 30
0.0
  3
EX_WCIR2
  1

  0
LINE
  5
BA
330
91
100
AcDbEntity
  8
0
  6
CONTINUOUS
 62
     0
100
AcDbLine
 10
-0.5
 20
0.0
 30
0.0
 11
-1.0
 21
0.0
 31
0.0
  0
CIRCLE
  5
BB
330
91
100
AcDbEntity
  8
0
  6
CONTINUOUS
 62
     0
100
AcDbCircle
 10
0.0
 20
0.0
 30
0.0
 40
0.5
  0
ENDBLK
  5
93
330
91
100
AcDbEntity
  8
0
100
AcDbBlockEnd
  0
BLOCK
  5
95
330
94
100
AcDbEntity
  8
0
100
AcDbBlockBegin
  2
EX_WNORM
 70
     0
 10
0.0
 20
0.0
 30
0.0
  3
EX_WNORM
  1

  0
LINE
  5
BC
330
94
100
AcDbEntity
  8
0
  6
CONTINUOUS
 62
     0
100
AcDbLine
 10
-1.0
 20
0.0
 30
0.0
 11
-1.0
 21
0.0
 31
0.0
  0
LINE
  5
BD
330
94
100
AcDbEntity
  8
0
  6
CONTINUOUS
 62
     0
100
AcDbLine
 10
0.0
 20
0.0
 30
0.0
 11
-1.0
 21
0.166666667
 31
0.0
  0
LINE
  5
BE
330
94
100
AcDbEntity
  8
0
  6
CONTINUOUS
 62
     0
100
AcDbLine
 10
0.0
 20
0.0
 30
0.0
 11
-1.0
 21
-0.166666667
 31
0.0
  0
LINE
  5
BF
330
94
100
AcDbEntity
  8
0
  6
CONTINUOUS
 62
     0
100
AcDbLine
 10
-1.0
 20
0.166666667
 30
0.0
 11
-1.0
 21
-0.166666667
 31
0.0
  0
ENDBLK
  5
96
330
94
100
AcDbEntity
  8
0
100
AcDbBlockEnd
  0
BLOCK
  5
98
330
97
100
AcDbEntity
  8
0
100
AcDbBlockBegin
  2
EX_NNORM
 70
     0
 10
0.0
 20
0.0
 30
0.0
  3
EX_NNORM
  1

  0
LINE
  5
C0
330
97
100
AcDbEntity
  8
0
  6
CONTINUOUS
 62
     0
100
AcDbLine
 10
0.0
 20
0.0
 30
0.0
 11
-1.0
 21
0.0
 31
0.0
  0
LINE
  5
C1
330
97
100
AcDbEntity
  8
0
  6
CONTINUOUS
 62
     0
100
AcDbLine
 10
0.0
 20
0.0
 30
0.0
 11
-1.0
 21
0.166666667
 31
0.0
  0
LINE
  5
C2
330
97
100
AcDbEntity
  8
0
  6
CONTINUOUS
 62
     0
100
AcDbLine
 10
0.0
 20
0.0
 30
0.0
 11
-1.0
 21
-0.166666667
 31
0.0
  0
LINE
  5
C3
330
97
100
AcDbEntity
  8
0
  6
CONTINUOUS
 62
     0
100
AcDbLine
 10
-1.0
 20
0.166666667
 30
0.0
 11
-1.0
 21
-0.166666667
 31
0.0
  0
ENDBLK
  5
99
330
97
100
AcDbEntity
  8
0
100
AcDbBlockEnd
  0
BLOCK
  5
9B
330
9A
100
AcDbEntity
  8
0
100
AcDbBlockBegin
  2
EX_BBOX
 70
     0
 10
0.0
 20
0.0
 30
0.0
  3
EX_BBOX
  1

  0
LINE
  5
C4
330
9A
100
AcDbEntity
  8
0
  6
CONTINUOUS
 62
     0
100
AcDbLine
 10
0.0
 20
0.0
 30
0.0
 11
-1.0
 21
0.0
 31
0.0
  0
LINE
  5
C5
330
9A
100
AcDbEntity
  8
0
  6
CONTINUOUS
 62
     0
100
AcDbLine
 10
-0.5
 20
0.5
 30
0.0
 11
0.5
 21
0.5
 31
0.0
  0
LINE
  5
C6
330
9A
100
AcDbEntity
  8
0
  6
CONTINUOUS
 62
     0
100
AcDbLine
 10
0.5
 20
0.5
 30
0.0
 11
0.5
 21
-0.5
 31
0.0
  0
LINE
  5
C7
330
9A
100
AcDbEntity
  8
0
  6
CONTINUOUS
 62
     0
100
AcDbLine
 10
0.5
 20
-0.5
 30
0.0
 11
-0.5
 21
-0.5
 31
0.0
  0
LINE
  5
C8
330
9A
100
AcDbEntity
  8
0
  6
CONTINUOUS
 62
     0
100
AcDbLine
 10
-0.5
 20
-0.5
 30
0.0
 11
-0.5
 21
0.5
 31
0.0
  0
LINE
  5
C9
330
9A
100
AcDbEntity
  8
0
  6
CONTINUOUS
 62
     0
100
AcDbLine
 10
-0.25
 20
0.25
 30
0.0
 11
0.25
 21
0.25
 31
0.0
  0
LINE
  5
CA
330
9A
100
AcDbEntity
  8
0
  6
CONTINUOUS
 62
     0
100
AcDbLine
 10
0.25
 20
0.25
 30
0.0
 11
0.25
 21
-0.25
 31
0.0
  0
LINE
  5
CB
330
9A
100
AcDbEntity
  8
0
  6
CONTINUOUS
 62
     0
100
AcDbLine
 10
0.25
 20
-0.25
 30
0.0
 11
-0.25
 21
-0.25
 31
0.0
  0
LINE
  5
CC
330
9A
100
AcDbEntity
  8
0
  6
CONTINUOUS
 62
     0
100
AcDbLine
 10
-0.25
 20
-0.25
 30
0.0
 11
-0.25
 21
0.25
 31
0.0
  0
ENDBLK
  5
9C
330
9A
100
AcDbEntity
  8
0
100
AcDbBlockEnd
  0
BLOCK
  5
9E
330
9D
100
AcDbEntity
  8
0
100
AcDbBlockBegin
  2
EX_WBOX
 70
     0
 10
0.0
 20
0.0
 30
0.0
  3
EX_WBOX
  1

  0
LINE
  5
CD
330
9D
100
AcDbEntity
  8
0
  6
CONTINUOUS
 62
     0
100
AcDbLine
 10
-0.5
 20
0.0
 30
0.0
 11
-1.0
 21
0.0
 31
0.0
  0
LINE
  5
CE
330
9D
100
AcDbEntity
  8
0
  6
CONTINUOUS
 62
     0
100
AcDbLine
 10
-0.5
 20
0.5
 30
0.0
 11
0.5
 21
0.5
 31
0.0
  0
LINE
  5
CF
330
9D
100
AcDbEntity
  8
0
  6
CONTINUOUS
 62
     0
100
AcDbLine
 10
0.5
 20
0.5
 30
0.0
 11
0.5
 21
-0.5
 31
0.0
  0
LINE
  5
D0
330
9D
100
AcDbEntity
  8
0
  6
CONTINUOUS
 62
     0
100
AcDbLine
 10
0.5
 20
-0.5
 30
0.0
 11
-0.5
 21
-0.5
 31
0.0
  0
LINE
  5
D1
330
9D
100
AcDbEntity
  8
0
  6
CONTINUOUS
 62
     0
100
AcDbLine
 10
-0.5
 20
-0.5
 30
0.0
 11
-0.5
 21
0.5
 31
0.0
  0
ENDBLK
  5
9F
330
9D
100
AcDbEntity
  8
0
100
AcDbBlockEnd
  0
BLOCK
  5
A1
330
A0
100
AcDbEntity
  8
0
100
AcDbBlockBegin
  2
EX_INTEGRAL
 70
     0
 10
0.0
 20
0.0
 30
0.0
  3
EX_INTEGRAL
  1

  0
LINE
  5
D2
330
A0
100
AcDbEntity
  8
0
  6
CONTINUOUS
 62
     0
100
AcDbLine
 10
0.0
 20
0.0
 30
0.0
 11
-1.0
 21
0.0
 31
0.0
  0
ARC
  5
D3
330
A0
100
AcDbEntity
  8
0
  6
CONTINUOUS
 62
     0
100
AcDbCircle
 10
0.542115
 20
0.164992
 30
0.0
 40
0.56667
100
AcDbArc
 50
73.07249033629006
 51
196.9275130221199
  0
ARC
  5
D4
330
A0
100
AcDbEntity
  8
0
  6
CONTINUOUS
 62
     0
100
AcDbCircle
 10
-0.542115
 20
-0.164992
 30
0.0
 40
0.56667
100
AcDbArc
 50
253.0724869220464
 51
16.9275130559125
  0
ENDBLK
  5
A2
330
A0
100
AcDbEntity
  8
0
100
AcDbBlockEnd
  0
BLOCK
  5
118
330
117
100
AcDbEntity
  8
0
100
AcDbBlockBegin
  2
*D15
 70
     1
 10
0.0
 20
0.0
 30
0.0
  3
*D15
  1

  0
LINE
  5
11A
330
117
100
AcDbEntity
  8
Ｓ_１_１
  6
CONTINUOUS
 62
     2
100
AcDbLine
 10
450.9999999999999
 20
229.49998
 30
0.0
 11
478.3333333333334
 21
229.49998
 31
0.0
  0
LINE
  5
11B
330
117
100
AcDbEntity
  8
Ｓ_１_１
  6
CONTINUOUS
 62
     2
100
AcDbLine
 10
450.9999999999999
 20
94.5
 30
0.0
 11
478.3333333333334
 21
94.5
 31
0.0
  0
LINE
  5
11C
330
117
100
AcDbEntity
  8
Ｓ_１_１
  6
CONTINUOUS
 62
     2
100
AcDbLine
 10
477.0
 20
225.49998
 30
0.0
 11
477.0
 21
98.5
 31
0.0
  0
INSERT
  5
11D
330
117
100
AcDbEntity
  8
Ｓ_１_１
 62
     2
100
AcDbBlockReference
  2
EX_NORM
 10
477.0
 20
229.49998
 30
0.0
 41
4.0
 42
4.0
 43
4.0
 50
90.0
  0
INSERT
  5
11E
330
117
100
AcDbEntity
  8
Ｓ_１_１
 62
     2
100
AcDbBlockReference
  2
EX_NORM
 10
477.0
 20
94.5
 30
0.0
 41
4.0
 42
4.0
 43
4.0
 50
270.0
  0
MTEXT
  5
11F
330
117
100
AcDbEntity
  8
Ｓ_１_１
 62
     2
100
AcDbMText
 10
473.3333333333333
 20
161.9999899999999
 30
0.0
 40
4.617205542725173
 41
0.0
 71
     5
 72
     1
  1
%%c135
  7
EXCADDIM1
 11
0.0
 21
1.0
 31
0.0
  0
POINT
  5
120
330
117
100
AcDbEntity
  8
DEFPOINTS
 62
     0
100
AcDbPoint
 10
448.9999999999999
 20
229.49998
 30
0.0
  0
POINT
  5
121
330
117
100
AcDbEntity
  8
DEFPOINTS
 62
     0
100
AcDbPoint
 10
448.9999999999999
 20
94.5
 30
0.0
  0
POINT
  5
122
330
117
100
AcDbEntity
  8
DEFPOINTS
 62
     0
100
AcDbPoint
 10
477.0
 20
94.5
 30
0.0
  0
ENDBLK
  5
119
330
117
100
AcDbEntity
  8
0
100
AcDbBlockEnd
  0
BLOCK
  5
125
330
124
100
AcDbEntity
  8
0
100
AcDbBlockBegin
  2
*D16
 70
     1
 10
0.0
 20
0.0
 30
0.0
  3
*D16
  1

  0
LINE
  5
127
330
124
100
AcDbEntity
  8
Ｓ_１_１
  6
CONTINUOUS
 62
     2
100
AcDbLine
 10
174.45671818121
 20
197.4820448681797
 30
0.0
 11
159.7602478503899
 21
222.9370780879009
 31
0.0
  0
LINE
  5
128
330
124
100
AcDbEntity
  8
Ｓ_１_１
  6
CONTINUOUS
 62
     2
100
AcDbLine
 10
217.7579931927301
 20
222.4820477359998
 30
0.0
 11
203.06152286191
 21
247.9370809557209
 31
0.0
  0
LINE
  5
129
330
124
100
AcDbEntity
  8
Ｓ_１_１
  6
CONTINUOUS
 62
     2
100
AcDbLine
 10
163.8910161309694
 20
223.7823775555076
 30
0.0
 11
200.2640879180105
 21
244.7823804132878
 31
0.0
  0
INSERT
  5
12A
330
124
100
AcDbEntity
  8
Ｓ_１_１
 62
     2
100
AcDbBlockReference
  2
EX_NORM
 10
160.4269145187299
 20
221.7823775504877
 30
0.0
 41
4.0
 42
4.0
 43
4.0
 50
210.0000000830284
  0
INSERT
  5
12B
330
124
100
AcDbEntity
  8
Ｓ_１_１
 62
     2
100
AcDbBlockReference
  2
EX_NORM
 10
203.72818953025
 20
246.7823804183077
 30
0.0
 41
4.0
 42
4.0
 43
4.0
 50
30.00000008302837
  0
MTEXT
  5
12C
330
124
100
AcDbEntity
  8
Ｓ_１_１
 62
     2
100
AcDbMText
 10
180.2442186865551
 20
237.457805462284
 30
0.0
 40
4.617205542725173
 41
0.0
 71
     5
 72
     1
  1
50
  7
EXCADDIM1
 11
0.8660254030598795
 21
0.5000000012549735
 31
0.0
  0
POINT
  5
12D
330
124
100
AcDbEntity
  8
DEFPOINTS
 62
     0
100
AcDbPoint
 10
175.45671818372
 20
195.74999406206
 30
0.0
  0
POINT
  5
12E
330
124
100
AcDbEntity
  8
DEFPOINTS
 62
     0
100
AcDbPoint
 10
218.75799319524
 20
220.74999692988
 30
0.0
  0
POINT
  5
12F
330
124
100
AcDbEntity
  8
DEFPOINTS
 62
     0
100
AcDbPoint
 10
203.72818953025
 20
246.7823804183077
 30
0.0
  0
ENDBLK
  5
126
330
124
100
AcDbEntity
  8
0
100
AcDbBlockEnd
  0
BLOCK
  5
132
330
131
100
AcDbEntity
  8
0
100
AcDbBlockBegin
  2
*D17
 70
     1
 10
0.0
 20
0.0
 30
0.0
  3
*D17
  1

  0
LINE
  5
134
330
131
100
AcDbEntity
  8
Ｓ_１_１
  6
CONTINUOUS
 62
     2
100
AcDbLine
 10
49.5
 20
164.0
 30
0.0
 11
49.5
 21
253.3333333333333
 31
0.0
  0
LINE
  5
135
330
131
100
AcDbEntity
  8
Ｓ_１_１
  6
CONTINUOUS
 62
     2
100
AcDbLine
 10
284.862267
 20
176.0
 30
0.0
 11
284.862267
 21
253.3333333333333
 31
0.0
  0
LINE
  5
136
330
131
100
AcDbEntity
  8
Ｓ_１_１
  6
CONTINUOUS
 62
     2
100
AcDbLine
 10
53.5
 20
252.0
 30
0.0
 11
280.862267
 21
252.0
 31
0.0
  0
INSERT
  5
137
330
131
100
AcDbEntity
  8
Ｓ_１_１
 62
     2
100
AcDbBlockReference
  2
EX_NORM
 10
49.5
 20
252.0
 30
0.0
 41
4.0
 42
4.0
 43
4.0
 50
180.0
  0
INSERT
  5
138
330
131
100
AcDbEntity
  8
Ｓ_１_１
 62
     2
100
AcDbBlockReference
  2
EX_NORM
 10
284.862267
 20
252.0
 30
0.0
 41
4.0
 42
4.0
 43
4.0
  0
MTEXT
  5
139
330
131
100
AcDbEntity
  8
Ｓ_１_１
 62
     2
100
AcDbMText
 10
167.1811335
 20
255.6666666666667
 30
0.0
 40
4.617205542725173
 41
0.0
 71
     5
 72
     1
  1
(235)
  7
EXCADDIM1
  0
POINT
  5
13A
330
131
100
AcDbEntity
  8
DEFPOINTS
 62
     0
100
AcDbPoint
 10
49.5
 20
162.0
 30
0.0
  0
POINT
  5
13B
330
131
100
AcDbEntity
  8
DEFPOINTS
 62
     0
100
AcDbPoint
 10
284.862267
 20
174.0
 30
0.0
  0
POINT
  5
13C
330
131
100
AcDbEntity
  8
DEFPOINTS
 62
     0
100
AcDbPoint
 10
284.862267
 20
252.0
 30
0.0
  0
ENDBLK
  5
133
330
131
100
AcDbEntity
  8
0
100
AcDbBlockEnd
  0
BLOCK
  5
244
330
243
100
AcDbEntity
  8
0
100
AcDbBlockBegin
  2
*D18
 70
     1
 10
0.0
 20
0.0
 30
0.0
  3
*D18
  1

  0
LINE
  5
246
330
243
100
AcDbEntity
  8
Ｓ_１_１
  6
CONTINUOUS
 62
     2
100
AcDbLine
 10
296.052723
 20
162.0
 30
0.0
 11
316.5377732575868
 21
162.0
 31
0.0
  0
LINE
  5
247
330
243
100
AcDbEntity
  8
Ｓ_１_１
  6
CONTINUOUS
 62
     2
100
AcDbLine
 10
222.6076858061197
 20
222.9726180025101
 30
0.0
 11
289.8047823744838
 21
261.7688799248551
 31
0.0
  0
ARC
  5
248
330
243
100
AcDbEntity
  8
Ｓ_１_１
  6
CONTINUOUS
 62
     2
100
AcDbCircle
 10
117.0000139087186
 20
162.0
 30
0.0
 40
198.2044260155349
100
AcDbArc
 50
1.15631629463153
 51
28.84368378839895
  0
INSERT
  5
249
330
243
100
AcDbEntity
  8
Ｓ_１_１
 62
     2
100
AcDbBlockReference
  2
EX_NORM
 10
315.2044399242534
 20
162.0
 30
0.0
 41
4.0
 42
4.0
 43
4.0
 50
270.5781581473158
  0
INSERT
  5
24A
330
243
100
AcDbEntity
  8
Ｓ_１_１
 62
     2
100
AcDbBlockReference
  2
EX_NORM
 10
288.6500818370706
 20
261.102213256515
 30
0.0
 41
4.0
 42
4.0
 43
4.0
 50
119.4218419357147
  0
MTEXT
  5
24B
330
243
100
AcDbEntity
  8
Ｓ_１_１
 62
     2
100
AcDbMText
 10
311.9925158737934
 20
214.2480835830971
 30
0.0
 40
4.617205542725173
 41
0.0
 71
     5
 72
     1
  1
30%%d
  7
EXCADDIM1
 11
0.2588190458024089
 21
-0.9659258261015338
 31
0.0
  0
POINT
  5
24C
330
243
100
AcDbEntity
  8
DEFPOINTS
 62
     0
100
AcDbPoint
 10
117.0000139087186
 20
162.0
 30
0.0
  0
POINT
  5
24D
330
243
100
AcDbEntity
  8
DEFPOINTS
 62
     0
100
AcDbPoint
 10
294.052723
 20
162.0
 30
0.0
  0
POINT
  5
24E
330
243
100
AcDbEntity
  8
DEFPOINTS
 62
     0
100
AcDbPoint
 10
220.875635
 20
221.9726180000001
 30
0.0
  0
POINT
  5
24F
330
243
100
AcDbEntity
  8
DEFPOINTS
 62
     0
100
AcDbPoint
 10
312.1932693135263
 20
196.417837477406
 30
0.0
  0
ENDBLK
  5
245
330
243
100
AcDbEntity
  8
0
100
AcDbBlockEnd
  0
BLOCK
  5
252
330
251
100
AcDbEntity
  8
0
100
AcDbBlockBegin
  2
*D19
 70
     1
 10
0.0
 20
0.0
 30
0.0
  3
*D19
  1

  0
LINE
  5
254
330
251
100
AcDbEntity
  8
Ｓ_１_１
  6
CONTINUOUS
 62
     2
100
AcDbLine
 10
254.4230621451287
 20
82.65874692066492
 30
0.0
 11
289.8047774695723
 21
62.23110356169028
 31
0.0
  0
LINE
  5
255
330
251
100
AcDbEntity
  8
Ｓ_１_１
  6
CONTINUOUS
 62
     2
100
AcDbLine
 10
296.0527229999999
 20
162.0
 30
0.0
 11
316.5377732575833
 21
162.0
 31
0.0
  0
ARC
  5
256
330
251
100
AcDbEntity
  8
Ｓ_１_１
  6
CONTINUOUS
 62
     2
100
AcDbCircle
 10
116.9999839854863
 20
162.0
 30
0.0
 40
198.2044559387636
100
AcDbArc
 50
331.1563155224906
 51
358.8436838799453
  0
INSERT
  5
257
330
251
100
AcDbEntity
  8
Ｓ_１_１
 62
     2
100
AcDbBlockReference
  2
EX_NORM
 10
288.650076938146
 20
62.89777024039988
 30
0.0
 41
4.0
 42
4.0
 43
4.0
 50
240.5781574624632
  0
INSERT
  5
258
330
251
100
AcDbEntity
  8
Ｓ_１_１
 62
     2
100
AcDbBlockReference
  2
EX_NORM
 10
315.2044399242499
 20
162.0
 30
0.0
 41
4.0
 42
4.0
 43
4.0
 50
89.42184193997262
  0
MTEXT
  5
259
330
251
100
AcDbEntity
  8
Ｓ_１_１
 62
     2
100
AcDbMText
 10
304.909058570023
 20
111.649914164345
 30
0.0
 40
4.617205542725173
 41
0.0
 71
     5
 72
     1
  1
30%%d
  7
EXCADDIM1
 11
0.2588190501395649
 21
0.9659258249393965
 31
0.0
  0
POINT
  5
25A
330
251
100
AcDbEntity
  8
DEFPOINTS
 62
     0
100
AcDbPoint
 10
116.9999839854863
 20
162.0
 30
0.0
  0
POINT
  5
25B
330
251
100
AcDbEntity
  8
DEFPOINTS
 62
     0
100
AcDbPoint
 10
252.6910113479893
 20
83.6587469387293
 30
0.0
  0
POINT
  5
25C
330
251
100
AcDbEntity
  8
DEFPOINTS
 62
     0
100
AcDbPoint
 10
294.0527229999999
 20
162.0
 30
0.0
  0
POINT
  5
25D
330
251
100
AcDbEntity
  8
DEFPOINTS
 62
     0
100
AcDbPoint
 10
303.2512481666865
 20
94.21008227703742
 30
0.0
  0
ENDBLK
  5
253
330
251
100
AcDbEntity
  8
0
100
AcDbBlockEnd
  0
BLOCK
  5
4FA
330
4F9
100
AcDbEntity
  8
0
100
AcDbBlockBegin
  2
*D20
 70
     1
 10
0.0
 20
0.0
 30
0.0
  3
*D20
  1

  0
LINE
  5
4FC
330
4F9
100
AcDbEntity
  8
Ｓ_１_１
  6
CONTINUOUS
 62
     2
100
AcDbLine
 10
450.0
 20
93.500030000035
 30
0.0
 11
450.0
 21
61.66666666666666
 31
0.0
  0
LINE
  5
4FD
330
4F9
100
AcDbEntity
  8
Ｓ_１_１
  6
CONTINUOUS
 62
     2
100
AcDbLine
 10
415.0
 20
139.0
 30
0.0
 11
415.0
 21
61.66666666666666
 31
0.0
  0
LINE
  5
4FE
330
4F9
100
AcDbEntity
  8
Ｓ_１_１
  6
CONTINUOUS
 62
     2
100
AcDbLine
 10
446.0
 20
63.0
 30
0.0
 11
419.0
 21
63.0
 31
0.0
  0
INSERT
  5
4FF
330
4F9
100
AcDbEntity
  8
Ｓ_１_１
 62
     2
100
AcDbBlockReference
  2
EX_NORM
 10
450.0
 20
63.0
 30
0.0
 41
4.0
 42
4.0
 43
4.0
  0
INSERT
  5
500
330
4F9
100
AcDbEntity
  8
Ｓ_１_１
 62
     2
100
AcDbBlockReference
  2
EX_NORM
 10
415.0
 20
63.0
 30
0.0
 41
4.0
 42
4.0
 43
4.0
 50
180.0
  0
MTEXT
  5
501
330
4F9
100
AcDbEntity
  8
Ｓ_１_１
 62
     2
100
AcDbMText
 10
432.5
 20
66.66666666666667
 30
0.0
 40
4.617205542725173
 41
0.0
 71
     5
 72
     1
  1
35
  7
EXCADDIM1
  0
POINT
  5
502
330
4F9
100
AcDbEntity
  8
DEFPOINTS
 62
     0
100
AcDbPoint
 10
450.0
 20
95.500030000035
 30
0.0
  0
POINT
  5
503
330
4F9
100
AcDbEntity
  8
DEFPOINTS
 62
     0
100
AcDbPoint
 10
415.0
 20
141.0
 30
0.0
  0
POINT
  5
504
330
4F9
100
AcDbEntity
  8
DEFPOINTS
 62
     0
100
AcDbPoint
 10
415.0
 20
63.0
 30
0.0
  0
ENDBLK
  5
4FB
330
4F9
100
AcDbEntity
  8
0
100
AcDbBlockEnd
  0
BLOCK
  5
507
330
506
100
AcDbEntity
  8
0
100
AcDbBlockBegin
  2
*D21
 70
     1
 10
0.0
 20
0.0
 30
0.0
  3
*D21
  1

  0
LINE
  5
509
330
506
100
AcDbEntity
  8
Ｓ_１_１
  6
CONTINUOUS
 62
     2
100
AcDbLine
 10
450.0
 20
93.500030000035
 30
0.0
 11
450.0
 21
52.66666666666666
 31
0.0
  0
LINE
  5
50A
330
506
100
AcDbEntity
  8
Ｓ_１_１
  6
CONTINUOUS
 62
     2
100
AcDbLine
 10
393.0
 20
75.733333333333
 30
0.0
 11
393.0
 21
52.66666666666666
 31
0.0
  0
LINE
  5
50B
330
506
100
AcDbEntity
  8
Ｓ_１_１
  6
CONTINUOUS
 62
     2
100
AcDbLine
 10
446.0
 20
54.0
 30
0.0
 11
397.0
 21
54.0
 31
0.0
  0
INSERT
  5
50C
330
506
100
AcDbEntity
  8
Ｓ_１_１
 62
     2
100
AcDbBlockReference
  2
EX_NORM
 10
450.0
 20
54.0
 30
0.0
 41
4.0
 42
4.0
 43
4.0
  0
INSERT
  5
50D
330
506
100
AcDbEntity
  8
Ｓ_１_１
 62
     2
100
AcDbBlockReference
  2
EX_NORM
 10
393.0
 20
54.0
 30
0.0
 41
4.0
 42
4.0
 43
4.0
 50
180.0
  0
MTEXT
  5
50E
330
506
100
AcDbEntity
  8
Ｓ_１_１
 62
     2
100
AcDbMText
 10
421.5
 20
57.66666666666666
 30
0.0
 40
4.617205542725173
 41
0.0
 71
     5
 72
     1
  1
57
  7
EXCADDIM1
  0
POINT
  5
50F
330
506
100
AcDbEntity
  8
DEFPOINTS
 62
     0
100
AcDbPoint
 10
450.0
 20
95.500030000035
 30
0.0
  0
POINT
  5
510
330
506
100
AcDbEntity
  8
DEFPOINTS
 62
     0
100
AcDbPoint
 10
393.0
 20
77.733333333333
 30
0.0
  0
POINT
  5
511
330
506
100
AcDbEntity
  8
DEFPOINTS
 62
     0
100
AcDbPoint
 10
393.0
 20
54.0
 30
0.0
  0
ENDBLK
  5
508
330
506
100
AcDbEntity
  8
0
100
AcDbBlockEnd
  0
BLOCK
  5
551
330
550
100
AcDbEntity
  8
0
100
AcDbBlockBegin
  2
*D22
 70
     1
 10
0.0
 20
0.0
 30
0.0
  3
*D22
  1

  0
LINE
  5
553
330
550
100
AcDbEntity
  8
Ｓ_１_１
  6
CONTINUOUS
 62
     2
100
AcDbLine
 10
363.5000000000001
 20
195.99998091955
 30
0.0
 11
340.6666666666667
 21
195.99998091955
 31
0.0
  0
LINE
  5
554
330
550
100
AcDbEntity
  8
Ｓ_１_１
  6
CONTINUOUS
 62
     2
100
AcDbLine
 10
363.4999999999991
 20
127.9999809195502
 30
0.0
 11
340.6666666666667
 21
127.9999809195503
 31
0.0
  0
LINE
  5
555
330
550
100
AcDbEntity
  8
Ｓ_１_１
  6
CONTINUOUS
 62
     2
100
AcDbLine
 10
342.0
 20
191.99998091955
 30
0.0
 11
342.0
 21
131.9999809195502
 31
0.0
  0
INSERT
  5
556
330
550
100
AcDbEntity
  8
Ｓ_１_１
 62
     2
100
AcDbBlockReference
  2
EX_NORM
 10
342.0
 20
195.99998091955
 30
0.0
 41
4.0
 42
4.0
 43
4.0
 50
90.0
  0
INSERT
  5
557
330
550
100
AcDbEntity
  8
Ｓ_１_１
 62
     2
100
AcDbBlockReference
  2
EX_NORM
 10
342.0
 20
127.9999809195503
 30
0.0
 41
4.0
 42
4.0
 43
4.0
 50
270.0
  0
MTEXT
  5
558
330
550
100
AcDbEntity
  8
Ｓ_１_１
 62
     2
100
AcDbMText
 10
338.3333333333333
 20
161.9999809195501
 30
0.0
 40
4.617205542725173
 41
0.0
 71
     5
 72
     1
  1
%%c68
  7
EXCADDIM1
 11
0.0
 21
1.0
 31
0.0
  0
POINT
  5
559
330
550
100
AcDbEntity
  8
DEFPOINTS
 62
     0
100
AcDbPoint
 10
365.5000000000001
 20
195.99998091955
 30
0.0
  0
POINT
  5
55A
330
550
100
AcDbEntity
  8
DEFPOINTS
 62
     0
100
AcDbPoint
 10
365.4999999999991
 20
127.9999809195502
 30
0.0
  0
POINT
  5
55B
330
550
100
AcDbEntity
  8
DEFPOINTS
 62
     0
100
AcDbPoint
 10
342.0
 20
127.9999809195503
 30
0.0
  0
ENDBLK
  5
552
330
550
100
AcDbEntity
  8
0
100
AcDbBlockEnd
  0
BLOCK
  5
55E
330
55D
100
AcDbEntity
  8
0
100
AcDbBlockBegin
  2
*D23
 70
     1
 10
0.0
 20
0.0
 30
0.0
  3
*D23
  1

  0
LINE
  5
560
330
55D
100
AcDbEntity
  8
Ｓ_１_１
  6
CONTINUOUS
 62
     2
100
AcDbLine
 10
365.0
 20
197.49998091955
 30
0.0
 11
365.0
 21
253.3333333333333
 31
0.0
  0
LINE
  5
561
330
55D
100
AcDbEntity
  8
Ｓ_１_１
  6
CONTINUOUS
 62
     2
100
AcDbLine
 10
372.0
 20
230.000009
 30
0.0
 11
372.0
 21
253.3333333333333
 31
0.0
  0
LINE
  5
562
330
55D
100
AcDbEntity
  8
Ｓ_１_１
  6
CONTINUOUS
 62
     2
100
AcDbLine
 10
365.0
 20
252.0
 30
0.0
 11
372.0
 21
252.0
 31
0.0
  0
LINE
  5
563
330
55D
100
AcDbEntity
  8
Ｓ_１_１
  6
CONTINUOUS
 62
     2
100
AcDbLine
 10
361.0
 20
252.0
 30
0.0
 11
357.0
 21
252.0
 31
0.0
  0
LINE
  5
564
330
55D
100
AcDbEntity
  8
Ｓ_１_１
  6
CONTINUOUS
 62
     2
100
AcDbLine
 10
376.0
 20
252.0
 30
0.0
 11
380.0
 21
252.0
 31
0.0
  0
INSERT
  5
565
330
55D
100
AcDbEntity
  8
Ｓ_１_１
 62
     2
100
AcDbBlockReference
  2
EX_NORM
 10
365.0
 20
252.0
 30
0.0
 41
4.0
 42
4.0
 43
4.0
  0
INSERT
  5
566
330
55D
100
AcDbEntity
  8
Ｓ_１_１
 62
     2
100
AcDbBlockReference
  2
EX_NORM
 10
372.0
 20
252.0
 30
0.0
 41
4.0
 42
4.0
 43
4.0
 50
180.0
  0
MTEXT
  5
567
330
55D
100
AcDbEntity
  8
Ｓ_１_１
 62
     2
100
AcDbMText
 10
359.5
 20
255.6666666666667
 30
0.0
 40
4.617205542725173
 41
0.0
 71
     5
 72
     1
  1
7
  7
EXCADDIM1
  0
POINT
  5
568
330
55D
100
AcDbEntity
  8
DEFPOINTS
 62
     0
100
AcDbPoint
 10
365.0
 20
195.49998091955
 30
0.0
  0
POINT
  5
569
330
55D
100
AcDbEntity
  8
DEFPOINTS
 62
     0
100
AcDbPoint
 10
372.0
 20
228.000009
 30
0.0
  0
POINT
  5
56A
330
55D
100
AcDbEntity
  8
DEFPOINTS
 62
     0
100
AcDbPoint
 10
372.0
 20
252.0
 30
0.0
  0
ENDBLK
  5
55F
330
55D
100
AcDbEntity
  8
0
100
AcDbBlockEnd
  0
BLOCK
  5
56D
330
56C
100
AcDbEntity
  8
0
100
AcDbBlockBegin
  2
*D24
 70
     1
 10
0.0
 20
0.0
 30
0.0
  3
*D24
  1

  0
LINE
  5
56F
330
56C
100
AcDbEntity
  8
Ｓ_１_１
  6
CONTINUOUS
 62
     2
100
AcDbLine
 10
372.0
 20
230.000009
 30
0.0
 11
372.0
 21
253.3333333333333
 31
0.0
  0
LINE
  5
570
330
56C
100
AcDbEntity
  8
Ｓ_１_１
  6
CONTINUOUS
 62
     2
100
AcDbLine
 10
450.0
 20
230.49996500002
 30
0.0
 11
450.0
 21
253.3333333333333
 31
0.0
  0
LINE
  5
571
330
56C
100
AcDbEntity
  8
Ｓ_１_１
  6
CONTINUOUS
 62
     2
100
AcDbLine
 10
376.0
 20
252.0
 30
0.0
 11
446.0
 21
252.0
 31
0.0
  0
INSERT
  5
572
330
56C
100
AcDbEntity
  8
Ｓ_１_１
 62
     2
100
AcDbBlockReference
  2
EX_NORM
 10
372.0
 20
252.0
 30
0.0
 41
4.0
 42
4.0
 43
4.0
 50
180.0
  0
INSERT
  5
573
330
56C
100
AcDbEntity
  8
Ｓ_１_１
 62
     2
100
AcDbBlockReference
  2
EX_NORM
 10
450.0
 20
252.0
 30
0.0
 41
4.0
 42
4.0
 43
4.0
  0
MTEXT
  5
574
330
56C
100
AcDbEntity
  8
Ｓ_１_１
 62
     2
100
AcDbMText
 10
411.0
 20
255.6666666666667
 30
0.0
 40
4.617205542725173
 41
0.0
 71
     5
 72
     1
  1
78
  7
EXCADDIM1
  0
POINT
  5
575
330
56C
100
AcDbEntity
  8
DEFPOINTS
 62
     0
100
AcDbPoint
 10
372.0
 20
228.000009
 30
0.0
  0
POINT
  5
576
330
56C
100
AcDbEntity
  8
DEFPOINTS
 62
     0
100
AcDbPoint
 10
450.0
 20
228.49996500002
 30
0.0
  0
POINT
  5
577
330
56C
100
AcDbEntity
  8
DEFPOINTS
 62
     0
100
AcDbPoint
 10
450.0
 20
252.0
 30
0.0
  0
ENDBLK
  5
56E
330
56C
100
AcDbEntity
  8
0
100
AcDbBlockEnd
  0
BLOCK
  5
57A
330
579
100
AcDbEntity
  8
0
100
AcDbBlockBegin
  2
*D25
 70
     1
 10
0.0
 20
0.0
 30
0.0
  3
*D25
  1

  0
LINE
  5
57C
330
579
100
AcDbEntity
  8
Ｓ_１_１
  6
CONTINUOUS
 62
     2
100
AcDbLine
 10
450.0
 20
230.49996500002
 30
0.0
 11
450.0
 21
262.3333333333333
 31
0.0
  0
LINE
  5
57D
330
579
100
AcDbEntity
  8
Ｓ_１_１
  6
CONTINUOUS
 62
     2
100
AcDbLine
 10
365.0
 20
197.49998091955
 30
0.0
 11
365.0
 21
262.3333333333333
 31
0.0
  0
LINE
  5
57E
330
579
100
AcDbEntity
  8
Ｓ_１_１
  6
CONTINUOUS
 62
     2
100
AcDbLine
 10
446.0
 20
261.0
 30
0.0
 11
369.0
 21
261.0
 31
0.0
  0
INSERT
  5
57F
330
579
100
AcDbEntity
  8
Ｓ_１_１
 62
     2
100
AcDbBlockReference
  2
EX_NORM
 10
450.0
 20
261.0
 30
0.0
 41
4.0
 42
4.0
 43
4.0
  0
INSERT
  5
580
330
579
100
AcDbEntity
  8
Ｓ_１_１
 62
     2
100
AcDbBlockReference
  2
EX_NORM
 10
365.0
 20
261.0
 30
0.0
 41
4.0
 42
4.0
 43
4.0
 50
180.0
  0
MTEXT
  5
581
330
579
100
AcDbEntity
  8
Ｓ_１_１
 62
     2
100
AcDbMText
 10
407.5
 20
264.6666666666667
 30
0.0
 40
4.617205542725173
 41
0.0
 71
     5
 72
     1
  1
85
  7
EXCADDIM1
  0
POINT
  5
582
330
579
100
AcDbEntity
  8
DEFPOINTS
 62
     0
100
AcDbPoint
 10
450.0
 20
228.49996500002
 30
0.0
  0
POINT
  5
583
330
579
100
AcDbEntity
  8
DEFPOINTS
 62
     0
100
AcDbPoint
 10
365.0
 20
195.49998091955
 30
0.0
  0
POINT
  5
584
330
579
100
AcDbEntity
  8
DEFPOINTS
 62
     0
100
AcDbPoint
 10
365.0
 20
261.0
 30
0.0
  0
ENDBLK
  5
57B
330
579
100
AcDbEntity
  8
0
100
AcDbBlockEnd
  0
ENDSEC
  0
SECTION
  2
ENTITIES
  0
LINE
  5
D5
330
1F
100
AcDbEntity
  8
図面枠
  6
CONTINUOUS
 62
     5
100
AcDbLine
 10
13.33333333333333
 20
13.33333333333333
 30
0.0
 11
546.6666666666666
 21
13.33333333333333
 31
0.0
  0
LINE
  5
D6
330
1F
100
AcDbEntity
  8
図面枠
  6
CONTINUOUS
 62
     5
100
AcDbLine
 10
546.6666666666666
 20
13.33333333333333
 30
0.0
 11
546.6666666666666
 21
382.6666666666667
 31
0.0
  0
LINE
  5
D7
330
1F
100
AcDbEntity
  8
図面枠
  6
CONTINUOUS
 62
     5
100
AcDbLine
 10
546.6666666666666
 20
382.6666666666667
 30
0.0
 11
13.3333333333334
 21
382.6666666666667
 31
0.0
  0
LINE
  5
D8
330
1F
100
AcDbEntity
  8
図面枠
  6
CONTINUOUS
 62
     5
100
AcDbLine
 10
13.3333333333334
 20
382.6666666666667
 30
0.0
 11
13.33333333333333
 21
13.33333333333333
 31
0.0
  0
TEXT
  5
DA
330
1F
100
AcDbEntity
  8
図面枠
  6
CONTINUOUS
 62
     4
100
AcDbText
 10
516.0
 20
361.84375
 30
0.0
 40
4.617205542725173
  1
kN
 41
0.9992307692307693
  7
EXCADTTF1
 72
     5
 11
522.0
 21
361.84375
 31
0.0
100
AcDbText
  0
TEXT
  5
DB
330
1F
100
AcDbEntity
  8
図面枠
  6
CONTINUOUS
 62
     4
100
AcDbText
 10
436.0
 20
361.84375
 30
0.0
 40
4.617205542725173
  1
能力
 41
0.9992307692307693
  7
EXCADTTF1
 72
     5
 11
448.0
 21
361.84375
 31
0.0
100
AcDbText
  0
TEXT
  5
DC
330
1F
100
AcDbEntity
  8
図面枠
  6
CONTINUOUS
 62
     4
100
AcDbText
 10
471.6666666666667
 20
369.84375
 30
0.0
 40
4.617205542725173
  1
仕　　　様
 41
0.9992307692307693
  7
EXCADTTF1
 72
     5
 11
501.6666666666667
 21
369.84375
 31
0.0
100
AcDbText
  0
LINE
  5
DD
330
1F
100
AcDbEntity
  8
図面枠
  6
CONTINUOUS
 62
     3
100
AcDbLine
 10
433.3333333333333
 20
376.0
 30
0.0
 11
540.0
 21
376.0
 31
0.0
  0
LINE
  5
DE
330
1F
100
AcDbEntity
  8
図面枠
  6
CONTINUOUS
 62
     3
100
AcDbLine
 10
433.3333333333333
 20
368.0
 30
0.0
 11
540.0
 21
368.0
 31
0.0
  0
TEXT
  5
DF
330
1F
100
AcDbEntity
  8
図面枠
  6
CONTINUOUS
 62
     4
100
AcDbText
 10
501.6666666666667
 20
361.84375
 30
0.0
 40
4.617205542725173
  1
500
 41
0.9992307692307693
  7
EXCADTTF1
 72
     5
 11
510.6666666666667
 21
361.84375
 31
0.0
100
AcDbText
  0
LINE
  5
E0
330
1F
100
AcDbEntity
  8
図面枠
  6
CONTINUOUS
 62
     3
100
AcDbLine
 10
20.00000000000002
 20
376.0
 30
0.0
 11
20.00000000000002
 21
364.0
 31
0.0
  0
LINE
  5
E1
330
1F
100
AcDbEntity
  8
図面枠
  6
CONTINUOUS
 62
     3
100
AcDbLine
 10
540.0
 20
32.0
 30
0.0
 11
540.0
 21
20.0
 31
0.0
  0
TEXT
  5
E2
330
1F
100
AcDbEntity
  8
図面枠
  6
CONTINUOUS
 62
     4
100
AcDbText
 10
516.0000000000001
 20
313.84375
 30
0.0
 40
4.617205542725173
  1
cm
 41
0.9992307692307693
  7
EXCADTTF1
 72
     5
 11
522.0000000000001
 21
313.84375
 31
0.0
100
AcDbText
  0
TEXT
  5
E3
330
1F
100
AcDbEntity
  8
図面枠
  6
CONTINUOUS
 62
     4
100
AcDbText
 10
520.2000000000002
 20
316.6796875447035
 30
0.0
 40
2.077742347449317
  1
2
 41
0.9992308398189924
  7
EXCADTTF1
 72
     5
 11
521.5500000000002
 21
316.6796875447035
 31
0.0
100
AcDbText
  0
TEXT
  5
E4
330
1F
100
AcDbEntity
  8
図面枠
  6
CONTINUOUS
 62
     4
100
AcDbText
 10
516.0
 20
353.84375
 30
0.0
 40
4.617205542725173
  1
mm
 41
0.9992307692307693
  7
EXCADTTF1
 72
     5
 11
522.0
 21
353.84375
 31
0.0
100
AcDbText
  0
TEXT
  5
E5
330
1F
100
AcDbEntity
  8
図面枠
  6
CONTINUOUS
 62
     4
100
AcDbText
 10
516.0
 20
345.84375
 30
0.0
 40
4.617205542725173
  1
mm
 41
0.9992307692307693
  7
EXCADTTF1
 72
     5
 11
522.0
 21
345.84375
 31
0.0
100
AcDbText
  0
TEXT
  5
E6
330
1F
100
AcDbEntity
  8
図面枠
  6
CONTINUOUS
 62
     4
100
AcDbText
 10
516.0
 20
337.84375
 30
0.0
 40
4.617205542725173
  1
mm
 41
0.9992307692307693
  7
EXCADTTF1
 72
     5
 11
522.0
 21
337.84375
 31
0.0
100
AcDbText
  0
TEXT
  5
E7
330
1F
100
AcDbEntity
  8
図面枠
  6
CONTINUOUS
 62
     4
100
AcDbText
 10
516.0
 20
329.84375
 30
0.0
 40
4.617205542725173
  1
mm
 41
0.9992307692307693
  7
EXCADTTF1
 72
     5
 11
522.0
 21
329.84375
 31
0.0
100
AcDbText
  0
TEXT
  5
E8
330
1F
100
AcDbEntity
  8
図面枠
  6
CONTINUOUS
 62
     4
100
AcDbText
 10
516.0
 20
321.84375
 30
0.0
 40
4.617205542725173
  1
mm
 41
0.9992307692307693
  7
EXCADTTF1
 72
     5
 11
522.0
 21
321.84375
 31
0.0
100
AcDbText
  0
TEXT
  5
E9
330
1F
100
AcDbEntity
  8
図面枠
  6
CONTINUOUS
 62
     4
100
AcDbText
 10
516.0
 20
305.84375
 30
0.0
 40
4.617205542725173
  1
MPa
 41
0.9992307692307693
  7
EXCADTTF1
 72
     5
 11
525.0
 21
305.84375
 31
0.0
100
AcDbText
  0
TEXT
  5
EA
330
1F
100
AcDbEntity
  8
図面枠
  6
CONTINUOUS
 62
     4
100
AcDbText
 10
436.0
 20
353.84375
 30
0.0
 40
4.617205542725173
  1
ストローク
 41
0.9992307692307693
  7
EXCADTTF1
 72
     5
 11
466.0
 21
353.84375
 31
0.0
100
AcDbText
  0
TEXT
  5
EB
330
1F
100
AcDbEntity
  8
図面枠
  6
CONTINUOUS
 62
     4
100
AcDbText
 10
436.0
 20
345.84375
 30
0.0
 40
4.617205542725173
  1
最低機械高
 41
0.9992307692307693
  7
EXCADTTF1
 72
     5
 11
466.0
 21
345.84375
 31
0.0
100
AcDbText
  0
TEXT
  5
EC
330
1F
100
AcDbEntity
  8
図面枠
  6
CONTINUOUS
 62
     4
100
AcDbText
 10
436.0
 20
337.84375
 30
0.0
 40
4.617205542725173
  1
シリンダー外径
 41
0.9992307692307691
  7
EXCADTTF1
 72
     5
 11
478.0
 21
337.84375
 31
0.0
100
AcDbText
  0
TEXT
  5
ED
330
1F
100
AcDbEntity
  8
図面枠
  6
CONTINUOUS
 62
     4
100
AcDbText
 10
436.0
 20
329.84375
 30
0.0
 40
4.617205542725173
  1
ヘッド径
 41
0.9992307692307693
  7
EXCADTTF1
 72
     5
 11
460.0
 21
329.84375
 31
0.0
100
AcDbText
  0
TEXT
  5
EE
330
1F
100
AcDbEntity
  8
図面枠
  6
CONTINUOUS
 62
     4
100
AcDbText
 10
436.0
 20
321.84375
 30
0.0
 40
4.617205542725173
  1
ピストン径
 41
0.9992307692307693
  7
EXCADTTF1
 72
     5
 11
466.0
 21
321.84375
 31
0.0
100
AcDbText
  0
TEXT
  5
EF
330
1F
100
AcDbEntity
  8
図面枠
  6
CONTINUOUS
 62
     4
100
AcDbText
 10
436.0
 20
313.84375
 30
0.0
 40
4.617205542725173
  1
受圧面積
 41
0.9992307692307693
  7
EXCADTTF1
 72
     5
 11
460.0
 21
313.84375
 31
0.0
100
AcDbText
  0
TEXT
  5
F0
330
1F
100
AcDbEntity
  8
図面枠
  6
CONTINUOUS
 62
     4
100
AcDbText
 10
436.0
 20
305.84375
 30
0.0
 40
4.617205542725173
  1
最高使用圧力
 41
0.9992307692307693
  7
EXCADTTF1
 72
     5
 11
472.0
 21
305.84375
 31
0.0
100
AcDbText
  0
LINE
  5
F1
330
1F
100
AcDbEntity
  8
図面枠
  6
CONTINUOUS
 62
     2
100
AcDbLine
 10
433.3333333333333
 20
360.0
 30
0.0
 11
540.0
 21
360.0
 31
0.0
  0
LINE
  5
F2
330
1F
100
AcDbEntity
  8
図面枠
  6
CONTINUOUS
 62
     2
100
AcDbLine
 10
433.3333333333333
 20
352.0
 30
0.0
 11
540.0
 21
352.0
 31
0.0
  0
LINE
  5
F3
330
1F
100
AcDbEntity
  8
図面枠
  6
CONTINUOUS
 62
     2
100
AcDbLine
 10
433.3333333333333
 20
344.0
 30
0.0
 11
540.0
 21
344.0
 31
0.0
  0
LINE
  5
F4
330
1F
100
AcDbEntity
  8
図面枠
  6
CONTINUOUS
 62
     2
100
AcDbLine
 10
433.3333333333333
 20
336.0
 30
0.0
 11
540.0
 21
336.0
 31
0.0
  0
LINE
  5
F5
330
1F
100
AcDbEntity
  8
図面枠
  6
CONTINUOUS
 62
     2
100
AcDbLine
 10
433.3333333333333
 20
328.0
 30
0.0
 11
540.0
 21
328.0
 31
0.0
  0
LINE
  5
F6
330
1F
100
AcDbEntity
  8
図面枠
  6
CONTINUOUS
 62
     2
100
AcDbLine
 10
433.3333333333333
 20
320.0
 30
0.0
 11
540.0
 21
320.0
 31
0.0
  0
LINE
  5
F7
330
1F
100
AcDbEntity
  8
図面枠
  6
CONTINUOUS
 62
     2
100
AcDbLine
 10
433.3333333333333
 20
312.0
 30
0.0
 11
540.0
 21
312.0
 31
0.0
  0
TEXT
  5
F8
330
1F
100
AcDbEntity
  8
図面枠
  6
CONTINUOUS
 62
     4
100
AcDbText
 10
504.6666666666667
 20
353.84375
 30
0.0
 40
4.617205542725173
  1
30
 41
0.9992307692307693
  7
EXCADTTF1
 72
     5
 11
510.6666666666667
 21
353.84375
 31
0.0
100
AcDbText
  0
TEXT
  5
F9
330
1F
100
AcDbEntity
  8
図面枠
  6
CONTINUOUS
 62
     4
100
AcDbText
 10
504.6666666666667
 20
345.84375
 30
0.0
 40
4.617205542725173
  1
85
 41
0.9992307692307693
  7
EXCADTTF1
 72
     5
 11
510.6666666666667
 21
345.84375
 31
0.0
100
AcDbText
  0
TEXT
  5
FA
330
1F
100
AcDbEntity
  8
図面枠
  6
CONTINUOUS
 62
     4
100
AcDbText
 10
501.6666666666667
 20
337.84375
 30
0.0
 40
4.617205542725173
  1
135
 41
0.9992307692307693
  7
EXCADTTF1
 72
     5
 11
510.6666666666667
 21
337.84375
 31
0.0
100
AcDbText
  0
TEXT
  5
FB
330
1F
100
AcDbEntity
  8
図面枠
  6
CONTINUOUS
 62
     4
100
AcDbText
 10
501.6666666666667
 20
321.84375
 30
0.0
 40
4.617205542725173
  1
100
 41
0.9992307692307693
  7
EXCADTTF1
 72
     5
 11
510.6666666666667
 21
321.84375
 31
0.0
100
AcDbText
  0
TEXT
  5
FC
330
1F
100
AcDbEntity
  8
図面枠
  6
CONTINUOUS
 62
     4
100
AcDbText
 10
498.6666666666667
 20
313.84375
 30
0.0
 40
4.617205542725173
  1
78.5
 41
0.9992307692307693
  7
EXCADTTF1
 72
     5
 11
510.6666666666667
 21
313.84375
 31
0.0
100
AcDbText
  0
TEXT
  5
FD
330
1F
100
AcDbEntity
  8
図面枠
  6
CONTINUOUS
 62
     4
100
AcDbText
 10
498.6666666666667
 20
305.84375
 30
0.0
 40
4.617205542725173
  1
63.7
 41
0.9992307692307693
  7
EXCADTTF1
 72
     5
 11
510.6666666666667
 21
305.84375
 31
0.0
100
AcDbText
  0
TEXT
  5
FE
330
1F
100
AcDbEntity
  8
図面枠
  6
CONTINUOUS
 62
     4
100
AcDbText
 10
516.0
 20
289.84375
 30
0.0
 40
4.617205542725173
  1
kg
 41
0.9992307692307693
  7
EXCADTTF1
 72
     5
 11
522.0
 21
289.84375
 31
0.0
100
AcDbText
  0
TEXT
  5
FF
330
1F
100
AcDbEntity
  8
図面枠
  6
CONTINUOUS
 62
     4
100
AcDbText
 10
436.0
 20
297.84375
 30
0.0
 40
4.617205542725173
  1
所要油量
 41
0.9992307692307693
  7
EXCADTTF1
 72
     5
 11
460.0
 21
297.84375
 31
0.0
100
AcDbText
  0
TEXT
  5
100
330
1F
100
AcDbEntity
  8
図面枠
  6
CONTINUOUS
 62
     4
100
AcDbText
 10
436.0
 20
289.84375
 30
0.0
 40
4.617205542725173
  1
重量
 41
0.9992307692307693
  7
EXCADTTF1
 72
     5
 11
448.0
 21
289.84375
 31
0.0
100
AcDbText
  0
LINE
  5
101
330
1F
100
AcDbEntity
  8
図面枠
  6
CONTINUOUS
 62
     2
100
AcDbLine
 10
433.3333333333333
 20
304.0
 30
0.0
 11
540.0
 21
304.0
 31
0.0
  0
LINE
  5
102
330
1F
100
AcDbEntity
  8
図面枠
  6
CONTINUOUS
 62
     2
100
AcDbLine
 10
433.3333333333333
 20
296.0
 30
0.0
 11
540.0
 21
296.0
 31
0.0
  0
LINE
  5
103
330
1F
100
AcDbEntity
  8
図面枠
  6
CONTINUOUS
 62
     2
100
AcDbLine
 10
513.3333333333334
 20
368.0
 30
0.0
 11
513.3333333333334
 21
288.0
 31
0.0
  0
TEXT
  5
104
330
1F
100
AcDbEntity
  8
図面枠
  6
CONTINUOUS
 62
     4
100
AcDbText
 10
498.6666666666667
 20
297.84375
 30
0.0
 40
4.617205542725173
  1
0.24
 41
0.9992307692307693
  7
EXCADTTF1
 72
     5
 11
510.6666666666667
 21
297.84375
 31
0.0
100
AcDbText
  0
TEXT
  5
105
330
1F
100
AcDbEntity
  8
図面枠
  6
CONTINUOUS
 62
     4
100
AcDbText
 10
516.0
 20
297.84375
 30
0.0
 40
4.617205542725173
  1
L
 41
0.9992307692307693
  7
EXCADTTF1
 72
     5
 11
519.0
 21
297.84375
 31
0.0
100
AcDbText
  0
TEXT
  5
106
330
1F
100
AcDbEntity
  8
図面枠
  6
CONTINUOUS
 62
     4
100
AcDbText
 10
501.6666666666667
 20
289.84375
 30
0.0
 40
4.617205542725173
  1
約9
 41
0.9992307692307693
  7
EXCADTTF1
 72
     5
 11
510.6666666666667
 21
289.84375
 31
0.0
100
AcDbText
  0
TEXT
  5
107
330
1F
100
AcDbEntity
  8
図面枠
  6
CONTINUOUS
 62
     4
100
AcDbText
 10
504.6666666666667
 20
329.84375
 30
0.0
 40
4.617205542725173
  1
68
 41
0.9992307692307693
  7
EXCADTTF1
 72
     5
 11
510.6666666666667
 21
329.84375
 31
0.0
100
AcDbText
  0
LINE
  5
108
330
1F
100
AcDbEntity
  8
図面枠
  6
CONTINUOUS
 62
     3
100
AcDbLine
 10
504.0
 20
32.0
 30
0.0
 11
504.0
 21
20.0
 31
0.0
  0
TEXT
  5
109
330
1F
100
AcDbEntity
  8
図面枠
  6
CONTINUOUS
 62
     4
100
AcDbText
 10
508.0
 20
23.125
 30
0.0
 40
6.156274056966898
  1
OTV-503
 41
0.9992307692307691
  7
EXCADTTF1
 72
     5
 11
536.0
 21
23.125
 31
0.0
100
AcDbText
  0
LINE
  5
10A
330
1F
100
AcDbEntity
  8
図面枠
  6
CONTINUOUS
 62
     3
100
AcDbLine
 10
504.0
 20
20.0
 30
0.0
 11
540.0
 21
20.0
 31
0.0
  0
LINE
  5
10B
330
1F
100
AcDbEntity
  8
図面枠
  6
CONTINUOUS
 62
     3
100
AcDbLine
 10
504.0
 20
32.0
 30
0.0
 11
540.0
 21
32.0
 31
0.0
  0
TEXT
  5
10C
330
1F
100
AcDbEntity
  8
図面枠
  6
CONTINUOUS
 62
     4
100
AcDbText
 10
24.00000000000002
 20
367.125
 30
0.0
 40
6.156274056966898
  1
500kN30ストローク油圧ジャッキ
 41
0.9992307692307693
  7
EXCADTTF1
 72
     5
 11
140.0
 21
367.125
 31
0.0
100
AcDbText
  0
LINE
  5
10D
330
1F
100
AcDbEntity
  8
図面枠
  6
CONTINUOUS
 62
     3
100
AcDbLine
 10
144.0
 20
376.0
 30
0.0
 11
144.0
 21
364.0
 31
0.0
  0
LINE
  5
10E
330
1F
100
AcDbEntity
  8
図面枠
  6
CONTINUOUS
 62
     3
100
AcDbLine
 10
20.00000000000002
 20
364.0
 30
0.0
 11
144.0
 21
364.0
 31
0.0
  0
LINE
  5
10F
330
1F
100
AcDbEntity
  8
図面枠
  6
CONTINUOUS
 62
     3
100
AcDbLine
 10
20.00000000000002
 20
376.0
 30
0.0
 11
144.0
 21
376.0
 31
0.0
  0
LINE
  5
110
330
1F
100
AcDbEntity
  8
図面枠
  6
CONTINUOUS
 62
     2
100
AcDbLine
 10
486.6666666666667
 20
368.0
 30
0.0
 11
486.6666666666667
 21
288.0000000000001
 31
0.0
  0
LINE
  5
111
330
1F
100
AcDbEntity
  8
図面枠
  6
CONTINUOUS
 62
     3
100
AcDbLine
 10
433.3333333333334
 20
288.0000000000001
 30
0.0
 11
540.0
 21
288.0000000000001
 31
0.0
  0
LINE
  5
112
330
1F
100
AcDbEntity
  8
図面枠
  6
CONTINUOUS
 62
     3
100
AcDbLine
 10
433.3333333333333
 20
376.0
 30
0.0
 11
433.3333333333333
 21
288.0000000000001
 31
0.0
  0
LINE
  5
113
330
1F
100
AcDbEntity
  8
図面枠
  6
CONTINUOUS
 62
     3
100
AcDbLine
 10
540.0
 20
376.0
 30
0.0
 11
540.0
 21
288.0000000000001
 31
0.0
  0
DIMENSION
  5
115
330
1F
100
AcDbEntity
  8
Ｓ_１_１
  6
CONTINUOUS
 62
     2
100
AcDbDimension
  2
*D15
 10
477.0
 20
94.5
 30
0.0
 11
473.3333333333333
 21
161.9999899999999
 31
0.0
 70
   160
  1
%%c135
  3
ISO-25
100
AcDbAlignedDimension
 13
448.9999999999999
 23
229.49998
 33
0.0
 14
448.9999999999999
 24
94.5
 34
0.0
 50
90.0
100
AcDbRotatedDimension
1001
ACAD
1000
DSTYLE
1002
{
1070
   270
1070
     2
1070
     6
1000
EX_NORM
1070
     7
1000
EX_NORM
1070
    41
1040
4.0
1070
    42
1040
2.0
1070
    44
1040
1.333333333333371
1070
    73
1070
     0
1070
    74
1070
     0
1070
    75
1070
     0
1070
    76
1070
     0
1070
    77
1070
     1
1070
    78
1070
     8
1070
   140
1040
4.617205542725173
1070
   147
1040
0.0
1070
   173
1070
     1
1070
   176
1070
     2
1070
   177
1070
     2
1070
   178
1070
     2
1070
   271
1070
     2
1070
   277
1070
     2
1070
   279
1070
     2
1070
   280
1070
     0
1070
   287
1070
     5
1070
   340
1005
114
1002
}
  0
DIMENSION
  5
123
330
1F
100
AcDbEntity
  8
Ｓ_１_１
  6
CONTINUOUS
 62
     2
100
AcDbDimension
  2
*D16
 10
203.72818953025
 20
246.7823804183077
 30
0.0
 11
180.2442186865551
 21
237.457805462284
 31
0.0
 70
   160
  3
ISO-25
100
AcDbAlignedDimension
 13
175.45671818372
 23
195.74999406206
 33
0.0
 14
218.75799319524
 24
220.74999692988
 34
0.0
 50
210.0000000830284
100
AcDbRotatedDimension
1001
ACAD
1000
DSTYLE
1002
{
1070
   270
1070
     2
1070
     6
1000
EX_NORM
1070
     7
1000
EX_NORM
1070
    41
1040
4.0
1070
    42
1040
2.000000000000001
1070
    44
1040
1.333333333333346
1070
    73
1070
     0
1070
    74
1070
     0
1070
    75
1070
     0
1070
    76
1070
     0
1070
    77
1070
     1
1070
    78
1070
     8
1070
   140
1040
4.617205542725173
1070
   147
1040
0.0
1070
   173
1070
     1
1070
   176
1070
     2
1070
   177
1070
     2
1070
   178
1070
     2
1070
   271
1070
     2
1070
   277
1070
     2
1070
   279
1070
     2
1070
   280
1070
     0
1070
   287
1070
     5
1070
   340
1005
114
1002
}
  0
DIMENSION
  5
130
330
1F
100
AcDbEntity
  8
Ｓ_１_１
  6
CONTINUOUS
 62
     2
100
AcDbDimension
  2
*D17
 10
284.862267
 20
252.0
 30
0.0
 11
167.1811335
 21
255.6666666666667
 31
0.0
 70
   160
  1
(235)
  3
ISO-25
100
AcDbAlignedDimension
 13
49.5
 23
162.0
 33
0.0
 14
284.862267
 24
174.0
 34
0.0
100
AcDbRotatedDimension
1001
ACAD
1000
DSTYLE
1002
{
1070
   270
1070
     2
1070
     6
1000
EX_NORM
1070
     7
1000
EX_NORM
1070
    41
1040
4.0
1070
    42
1040
2.0
1070
    44
1040
1.333333333333343
1070
    73
1070
     0
1070
    74
1070
     0
1070
    75
1070
     0
1070
    76
1070
     0
1070
    77
1070
     1
1070
    78
1070
     8
1070
   140
1040
4.617205542725173
1070
   147
1040
0.0
1070
   173
1070
     1
1070
   176
1070
     2
1070
   177
1070
     2
1070
   178
1070
     2
1070
   271
1070
     2
1070
   277
1070
     2
1070
   279
1070
     2
1070
   280
1070
     0
1070
   287
1070
     5
1070
   340
1005
114
1002
}
  0
LINE
  5
13D
330
1F
100
AcDbEntity
  8
Ｓ_１_１
  6
EXLTYPE2
 62
     1
100
AcDbLine
 10
171.1265980000001
 20
193.249998
 30
0.0
 11
220.875635
 21
221.972618
 31
0.0
  0
LINE
  5
13E
330
1F
100
AcDbEntity
  8
Ｓ_１_１
  6
EXLTYPE2
 62
     1
100
AcDbLine
 10
209.81185
 20
224.245205
 30
0.0
 11
217.31185
 21
211.254824
 31
0.0
  0
LINE
  5
13F
330
1F
100
AcDbEntity
  8
Ｓ_１_１
  6
EXLTYPE2
 62
     1
100
AcDbLine
 10
117.0
 20
234.5
 30
0.0
 11
117.0
 21
89.5
 31
0.0
  0
LINE
  5
140
330
1F
100
AcDbEntity
  8
Ｓ_１_１
  6
EXLTYPE2
 62
     1
100
AcDbLine
 10
44.8125
 20
162.0
 30
0.0
 11
294.052723
 21
162.0
 31
0.0
  0
ARC
  5
141
330
1F
100
AcDbEntity
  8
Ｓ_１_１
  6
EXLTYPE0
 62
     2
100
AcDbCircle
 10
213.561839
 20
217.75
 30
0.0
 40
6.000000000000004
100
AcDbArc
 50
120.007749
 51
299.9923180000001
  0
ARC
  5
142
330
1F
100
AcDbEntity
  8
Ｓ_１_１
  6
CONTINUOUS
 62
     3
100
AcDbCircle
 10
212.922826
 20
162.0
 30
0.0
 40
21.93943800000001
100
AcDbArc
 50
346.8265070000003
 51
13.17346999999998
  0
ARC
  5
143
330
1F
100
AcDbEntity
  8
Ｓ_１_１
  6
CONTINUOUS
 62
     3
100
AcDbCircle
 10
244.3017040000001
 20
162.0
 30
0.0
 40
21.93943800000001
100
AcDbArc
 50
166.8265370000001
 51
193.1735270000002
  0
ARC
  5
144
330
1F
100
AcDbEntity
  8
Ｓ_１_１
  6
CONTINUOUS
 62
     3
100
AcDbCircle
 10
211.229513
 20
152.906723
 30
0.0
 40
5.367246000000002
100
AcDbArc
 50
145.615849
 51
214.384134
  0
ARC
  5
145
330
1F
100
AcDbEntity
  8
Ｓ_１_１
  6
CONTINUOUS
 62
     3
100
AcDbCircle
 10
225.9244590000001
 20
162.000015
 30
0.0
 40
20.062197
100
AcDbArc
 50
162.4121180000001
 51
197.588002
  0
ARC
  5
146
330
1F
100
AcDbEntity
  8
Ｓ_１_１
  6
CONTINUOUS
 62
     3
100
AcDbCircle
 10
209.4950150000001
 20
152.906723
 30
0.0
 40
5.367246000000002
100
AcDbArc
 50
325.615919
 51
34.38420700000001
  0
ARC
  5
147
330
1F
100
AcDbEntity
  8
Ｓ_１_１
  6
CONTINUOUS
 62
     3
100
AcDbCircle
 10
209.4950150000001
 20
171.093277
 30
0.0
 40
5.367246000000002
100
AcDbArc
 50
325.6158370000001
 51
34.38412499999999
  0
ARC
  5
148
330
1F
100
AcDbEntity
  8
Ｓ_１_１
  6
CONTINUOUS
 62
     3
100
AcDbCircle
 10
194.800069
 20
162.000015
 30
0.0
 40
20.062197
100
AcDbArc
 50
342.4120460000003
 51
17.58792999999998
  0
ARC
  5
149
330
1F
100
AcDbEntity
  8
Ｓ_１_１
  6
CONTINUOUS
 62
     3
100
AcDbCircle
 10
211.229513
 20
171.093277
 30
0.0
 40
5.367246000000002
100
AcDbArc
 50
145.6159310000001
 51
214.3842150000002
  0
ARC
  5
14A
330
1F
100
AcDbEntity
  8
Ｓ_１_１
  6
CONTINUOUS
 62
     3
100
AcDbCircle
 10
213.561839
 20
217.75
 30
0.0
 40
6.000000000000004
100
AcDbArc
 50
299.9923350000001
 51
120.007749
  0
CIRCLE
  5
14B
330
1F
100
AcDbEntity
  8
Ｓ_１_１
  6
CONTINUOUS
 62
     3
100
AcDbCircle
 10
117.0
 20
162.0
 30
0.0
 40
66.0
  0
CIRCLE
  5
14C
330
1F
100
AcDbEntity
  8
Ｓ_１_１
  6
CONTINUOUS
 62
     3
100
AcDbCircle
 10
117.0
 20
162.0
 30
0.0
 40
67.5
  0
CIRCLE
  5
14D
330
1F
100
AcDbEntity
  8
Ｓ_１_１
  6
CONTINUOUS
 62
     3
100
AcDbCircle
 10
117.0
 20
162.0
 30
0.0
 40
59.00000000000004
  0
CIRCLE
  5
14E
330
1F
100
AcDbEntity
  8
Ｓ_１_１
  6
CONTINUOUS
 62
     3
100
AcDbCircle
 10
117.0
 20
162.0
 30
0.0
 40
60.00000000000004
  0
LINE
  5
14F
330
1F
100
AcDbEntity
  8
Ｓ_１_１
  6
CONTINUOUS
 62
     3
100
AcDbLine
 10
222.362264
 20
149.999985
 30
0.0
 11
222.362264
 21
174.0
 31
0.0
  0
LINE
  5
150
330
1F
100
AcDbEntity
  8
Ｓ_１_１
  6
CONTINUOUS
 62
     3
100
AcDbLine
 10
222.939611
 20
167.0
 30
0.0
 11
222.939611
 21
175.0
 31
0.0
  0
LINE
  5
151
330
1F
100
AcDbEntity
  8
Ｓ_１_１
  6
CONTINUOUS
 62
     3
100
AcDbLine
 10
234.2849170000001
 20
167.0
 30
0.0
 11
234.2849170000001
 21
175.0
 31
0.0
  0
LINE
  5
152
330
1F
100
AcDbEntity
  8
Ｓ_１_１
  6
CONTINUOUS
 62
     3
100
AcDbLine
 10
222.939611
 20
149.0
 30
0.0
 11
222.939611
 21
157.0
 31
0.0
  0
LINE
  5
153
330
1F
100
AcDbEntity
  8
Ｓ_１_１
  6
CONTINUOUS
 62
     3
100
AcDbLine
 10
234.2849170000001
 20
149.0
 30
0.0
 11
234.2849170000001
 21
157.0
 31
0.0
  0
LINE
  5
154
330
1F
100
AcDbEntity
  8
Ｓ_１_１
  6
CONTINUOUS
 62
     3
100
AcDbLine
 10
250.4396129999999
 20
149.0
 30
0.0
 11
250.4396129999999
 21
175.0
 31
0.0
  0
LINE
  5
155
330
1F
100
AcDbEntity
  8
Ｓ_１_１
  6
CONTINUOUS
 62
     3
100
AcDbLine
 10
250.4396169999999
 20
148.999999
 30
0.0
 11
249.8622629999999
 21
150.000006
 31
0.0
  0
LINE
  5
156
330
1F
100
AcDbEntity
  8
Ｓ_１_１
  6
CONTINUOUS
 62
     3
100
AcDbLine
 10
234.862264
 20
173.999991
 30
0.0
 11
234.2849070000001
 21
175.000003
 31
0.0
  0
LINE
  5
157
330
1F
100
AcDbEntity
  8
Ｓ_１_１
  6
CONTINUOUS
 62
     3
100
AcDbLine
 10
222.939612
 20
148.999995
 30
0.0
 11
222.3622650000001
 21
149.999989
 31
0.0
  0
LINE
  5
158
330
1F
100
AcDbEntity
  8
Ｓ_１_１
  6
CONTINUOUS
 62
     3
100
AcDbLine
 10
249.8622690000001
 20
173.999995
 30
0.0
 11
250.439616
 21
174.999989
 31
0.0
  0
LINE
  5
159
330
1F
100
AcDbEntity
  8
Ｓ_１_１
  6
CONTINUOUS
 62
     3
100
AcDbLine
 10
234.2849190000001
 20
148.999998
 30
0.0
 11
234.862266
 21
149.999992
 31
0.0
  0
LINE
  5
15A
330
1F
100
AcDbEntity
  8
Ｓ_１_１
  6
CONTINUOUS
 62
     3
100
AcDbLine
 10
222.362266
 20
174.000001
 30
0.0
 11
222.939615
 21
174.999999
 31
0.0
  0
LINE
  5
15B
330
1F
100
AcDbEntity
  8
Ｓ_１_１
  6
CONTINUOUS
 62
     3
100
AcDbLine
 10
234.2849170000001
 20
167.0
 30
0.0
 11
222.939611
 21
167.0
 31
0.0
  0
LINE
  5
15C
330
1F
100
AcDbEntity
  8
Ｓ_１_１
  6
CONTINUOUS
 62
     3
100
AcDbLine
 10
234.2849170000001
 20
157.0
 30
0.0
 11
222.939611
 21
157.0
 31
0.0
  0
LINE
  5
15D
330
1F
100
AcDbEntity
  8
Ｓ_１_１
  6
CONTINUOUS
 62
     3
100
AcDbLine
 10
258.043984
 20
163.749999
 30
0.0
 11
257.8622629999999
 21
163.854916
 31
0.0
  0
LINE
  5
15E
330
1F
100
AcDbEntity
  8
Ｓ_１_１
  6
CONTINUOUS
 62
     3
100
AcDbLine
 10
257.862267
 20
163.75
 30
0.0
 11
257.862267
 21
178.0
 31
0.0
  0
LINE
  5
15F
330
1F
100
AcDbEntity
  8
Ｓ_１_１
  6
CONTINUOUS
 62
     3
100
AcDbLine
 10
257.362267
 20
163.75
 30
0.0
 11
257.362267
 21
177.5
 31
0.0
  0
LINE
  5
160
330
1F
100
AcDbEntity
  8
Ｓ_１_１
  6
CONTINUOUS
 62
     3
100
AcDbLine
 10
260.862267
 20
160.25
 30
0.0
 11
260.862267
 21
163.75
 31
0.0
  0
LINE
  5
161
330
1F
100
AcDbEntity
  8
Ｓ_１_１
  6
CONTINUOUS
 62
     3
100
AcDbLine
 10
260.862267
 20
160.25
 30
0.0
 11
257.362267
 21
160.25
 31
0.0
  0
LINE
  5
162
330
1F
100
AcDbEntity
  8
Ｓ_１_１
  6
CONTINUOUS
 62
     3
100
AcDbLine
 10
260.862267
 20
163.75
 30
0.0
 11
257.362267
 21
163.75
 31
0.0
  0
LINE
  5
163
330
1F
100
AcDbEntity
  8
Ｓ_１_１
  6
CONTINUOUS
 62
     3
100
AcDbLine
 10
254.8622609999999
 20
146.500001
 30
0.0
 11
254.36226
 21
147.000002
 31
0.0
  0
LINE
  5
164
330
1F
100
AcDbEntity
  8
Ｓ_１_１
  6
CONTINUOUS
 62
     3
100
AcDbLine
 10
255.862262
 20
146.500001
 30
0.0
 11
256.3622629999999
 21
147.000002
 31
0.0
  0
LINE
  5
165
330
1F
100
AcDbEntity
  8
Ｓ_１_１
  6
CONTINUOUS
 62
     3
100
AcDbLine
 10
254.3622670000001
 20
177.000004
 30
0.0
 11
254.862256
 21
177.499994
 31
0.0
  0
LINE
  5
166
330
1F
100
AcDbEntity
  8
Ｓ_１_１
  6
CONTINUOUS
 62
     3
100
AcDbLine
 10
256.3622579999999
 20
176.999993
 30
0.0
 11
255.862258
 21
177.499994
 31
0.0
  0
LINE
  5
167
330
1F
100
AcDbEntity
  8
Ｓ_１_１
  6
CONTINUOUS
 62
     3
100
AcDbLine
 10
254.3622670000001
 20
175.0
 30
0.0
 11
254.3622670000001
 21
177.0
 31
0.0
  0
LINE
  5
168
330
1F
100
AcDbEntity
  8
Ｓ_１_１
  6
CONTINUOUS
 62
     3
100
AcDbLine
 10
256.362267
 20
175.0
 30
0.0
 11
256.362267
 21
177.0
 31
0.0
  0
LINE
  5
169
330
1F
100
AcDbEntity
  8
Ｓ_１_１
  6
CONTINUOUS
 62
     3
100
AcDbLine
 10
256.362267
 20
147.0
 30
0.0
 11
256.362267
 21
149.0
 31
0.0
  0
LINE
  5
16A
330
1F
100
AcDbEntity
  8
Ｓ_１_１
  6
CONTINUOUS
 62
     3
100
AcDbLine
 10
254.3622670000001
 20
147.0
 30
0.0
 11
254.3622670000001
 21
149.0
 31
0.0
  0
LINE
  5
16B
330
1F
100
AcDbEntity
  8
Ｓ_１_１
  6
CONTINUOUS
 62
     3
100
AcDbLine
 10
255.8622670000001
 20
146.5
 30
0.0
 11
254.8622670000001
 21
146.5
 31
0.0
  0
LINE
  5
16C
330
1F
100
AcDbEntity
  8
Ｓ_１_１
  6
CONTINUOUS
 62
     3
100
AcDbLine
 10
255.8622670000001
 20
177.5
 30
0.0
 11
254.8622670000001
 21
177.5
 31
0.0
  0
LINE
  5
16D
330
1F
100
AcDbEntity
  8
Ｓ_１_１
  6
CONTINUOUS
 62
     3
100
AcDbLine
 10
257.862268
 20
160.145081
 30
0.0
 11
258.044007
 21
160.250008
 31
0.0
  0
LINE
  5
16E
330
1F
100
AcDbEntity
  8
Ｓ_１_１
  6
CONTINUOUS
 62
     3
100
AcDbLine
 10
281.362267
 20
146.0
 30
0.0
 11
281.362267
 21
178.0
 31
0.0
  0
LINE
  5
16F
330
1F
100
AcDbEntity
  8
Ｓ_１_１
  6
CONTINUOUS
 62
     3
100
AcDbLine
 10
273.862267
 20
146.0
 30
0.0
 11
273.862267
 21
178.0
 31
0.0
  0
LINE
  5
170
330
1F
100
AcDbEntity
  8
Ｓ_１_１
  6
CONTINUOUS
 62
     3
100
AcDbLine
 10
257.862267
 20
146.0
 30
0.0
 11
257.862267
 21
160.25
 31
0.0
  0
LINE
  5
171
330
1F
100
AcDbEntity
  8
Ｓ_１_１
  6
CONTINUOUS
 62
     3
100
AcDbLine
 10
264.862267
 20
178.0
 30
0.0
 11
264.862267
 21
146.0
 31
0.0
  0
LINE
  5
172
330
1F
100
AcDbEntity
  8
Ｓ_１_１
  6
CONTINUOUS
 62
     3
100
AcDbLine
 10
257.362264
 20
177.500009
 30
0.0
 11
257.862264
 21
178.000009
 31
0.0
  0
LINE
  5
173
330
1F
100
AcDbEntity
  8
Ｓ_１_１
  6
CONTINUOUS
 62
     3
100
AcDbLine
 10
257.862264
 20
146.000005
 30
0.0
 11
257.362267
 21
146.500002
 31
0.0
  0
LINE
  5
174
330
1F
100
AcDbEntity
  8
Ｓ_１_１
  6
CONTINUOUS
 62
     3
100
AcDbLine
 10
264.862267
 20
178.0
 30
0.0
 11
257.862267
 21
178.0
 31
0.0
  0
LINE
  5
175
330
1F
100
AcDbEntity
  8
Ｓ_１_１
  6
CONTINUOUS
 62
     3
100
AcDbLine
 10
264.862267
 20
146.0
 30
0.0
 11
257.862267
 21
146.0
 31
0.0
  0
LINE
  5
176
330
1F
100
AcDbEntity
  8
Ｓ_１_１
  6
CONTINUOUS
 62
     3
100
AcDbLine
 10
273.86227
 20
146.0
 30
0.0
 11
273.362269
 21
146.500001
 31
0.0
  0
LINE
  5
177
330
1F
100
AcDbEntity
  8
Ｓ_１_１
  6
CONTINUOUS
 62
     3
100
AcDbLine
 10
265.362269
 20
177.500007
 30
0.0
 11
264.862268
 21
178.000007
 31
0.0
  0
LINE
  5
178
330
1F
100
AcDbEntity
  8
Ｓ_１_１
  6
CONTINUOUS
 62
     3
100
AcDbLine
 10
273.362267
 20
177.500002
 30
0.0
 11
273.862268
 21
178.000003
 31
0.0
  0
LINE
  5
179
330
1F
100
AcDbEntity
  8
Ｓ_１_１
  6
CONTINUOUS
 62
     3
100
AcDbLine
 10
264.862265
 20
146.000001
 30
0.0
 11
265.362265
 21
146.500002
 31
0.0
  0
LINE
  5
17A
330
1F
100
AcDbEntity
  8
Ｓ_１_１
  6
CONTINUOUS
 62
     3
100
AcDbLine
 10
273.362267
 20
146.5
 30
0.0
 11
273.362267
 21
177.5
 31
0.0
  0
LINE
  5
17B
330
1F
100
AcDbEntity
  8
Ｓ_１_１
  6
CONTINUOUS
 62
     3
100
AcDbLine
 10
265.362267
 20
146.5
 30
0.0
 11
265.362267
 21
177.5
 31
0.0
  0
LINE
  5
17C
330
1F
100
AcDbEntity
  8
Ｓ_１_１
  6
CONTINUOUS
 62
     3
100
AcDbLine
 10
273.362267
 20
177.5
 30
0.0
 11
265.362267
 21
177.5
 31
0.0
  0
LINE
  5
17D
330
1F
100
AcDbEntity
  8
Ｓ_１_１
  6
CONTINUOUS
 62
     3
100
AcDbLine
 10
273.362267
 20
146.5
 30
0.0
 11
265.362267
 21
146.5
 31
0.0
  0
LINE
  5
17E
330
1F
100
AcDbEntity
  8
Ｓ_１_１
  6
CONTINUOUS
 62
     3
100
AcDbLine
 10
284.362279
 20
175.000004
 30
0.0
 11
281.362279
 21
178.000003
 31
0.0
  0
LINE
  5
17F
330
1F
100
AcDbEntity
  8
Ｓ_１_１
  6
CONTINUOUS
 62
     3
100
AcDbLine
 10
284.362282
 20
148.99999
 30
0.0
 11
281.362292
 21
146.0
 31
0.0
  0
LINE
  5
180
330
1F
100
AcDbEntity
  8
Ｓ_１_１
  6
CONTINUOUS
 62
     3
100
AcDbLine
 10
249.8622670000001
 20
150.0
 30
0.0
 11
234.8622670000001
 21
150.0
 31
0.0
  0
LINE
  5
181
330
1F
100
AcDbEntity
  8
Ｓ_１_１
  6
CONTINUOUS
 62
     3
100
AcDbLine
 10
249.8622670000001
 20
174.0
 30
0.0
 11
234.8622670000001
 21
174.0
 31
0.0
  0
LINE
  5
182
330
1F
100
AcDbEntity
  8
Ｓ_１_１
  6
CONTINUOUS
 62
     3
100
AcDbLine
 10
284.362267
 20
149.0
 30
0.0
 11
284.362267
 21
175.0
 31
0.0
  0
LINE
  5
183
330
1F
100
AcDbEntity
  8
Ｓ_１_１
  6
CONTINUOUS
 62
     3
100
AcDbLine
 10
281.362267
 20
178.0
 30
0.0
 11
273.862267
 21
178.0
 31
0.0
  0
LINE
  5
184
330
1F
100
AcDbEntity
  8
Ｓ_１_１
  6
CONTINUOUS
 62
     3
100
AcDbLine
 10
281.362267
 20
146.0
 30
0.0
 11
273.862267
 21
146.0
 31
0.0
  0
LINE
  5
185
330
1F
100
AcDbEntity
  8
Ｓ_１_１
  6
CONTINUOUS
 62
     3
100
AcDbLine
 10
234.284902
 20
175.0
 30
0.0
 11
222.939611
 21
175.0
 31
0.0
  0
LINE
  5
186
330
1F
100
AcDbEntity
  8
Ｓ_１_１
  6
CONTINUOUS
 62
     3
100
AcDbLine
 10
234.2849170000001
 20
149.0
 30
0.0
 11
222.939611
 21
149.0
 31
0.0
  0
LINE
  5
187
330
1F
100
AcDbEntity
  8
Ｓ_１_１
  6
CONTINUOUS
 62
     3
100
AcDbLine
 10
284.862267
 20
174.0
 30
0.0
 11
284.362267
 21
174.0
 31
0.0
  0
LINE
  5
188
330
1F
100
AcDbEntity
  8
Ｓ_１_１
  6
CONTINUOUS
 62
     3
100
AcDbLine
 10
284.862267
 20
150.0
 30
0.0
 11
284.362267
 21
150.0
 31
0.0
  0
LINE
  5
189
330
1F
100
AcDbEntity
  8
Ｓ_１_１
  6
CONTINUOUS
 62
     3
100
AcDbLine
 10
257.362267
 20
149.0
 30
0.0
 11
250.4396129999999
 21
149.0
 31
0.0
  0
LINE
  5
18A
330
1F
100
AcDbEntity
  8
Ｓ_１_１
  6
CONTINUOUS
 62
     3
100
AcDbLine
 10
257.362267
 20
175.0
 30
0.0
 11
250.4396129999999
 21
175.0
 31
0.0
  0
LINE
  5
18B
330
1F
100
AcDbEntity
  8
Ｓ_１_１
  6
CONTINUOUS
 62
     3
100
AcDbLine
 10
257.362267
 20
146.5
 30
0.0
 11
257.362267
 21
160.25
 31
0.0
  0
LINE
  5
18C
330
1F
100
AcDbEntity
  8
Ｓ_１_１
  6
CONTINUOUS
 62
     3
100
AcDbLine
 10
249.8622670000001
 20
150.0
 30
0.0
 11
249.8622670000001
 21
174.0
 31
0.0
  0
LINE
  5
18D
330
1F
100
AcDbEntity
  8
Ｓ_１_１
  6
CONTINUOUS
 62
     3
100
AcDbLine
 10
234.8622670000001
 20
150.0
 30
0.0
 11
234.8622670000001
 21
173.999985
 31
0.0
  0
LINE
  5
18E
330
1F
100
AcDbEntity
  8
Ｓ_１_１
  6
CONTINUOUS
 62
     3
100
AcDbLine
 10
284.862267
 20
150.0
 30
0.0
 11
284.862267
 21
174.0
 31
0.0
  0
LINE
  5
18F
330
1F
100
AcDbEntity
  8
Ｓ_１_１
  6
CONTINUOUS
 62
     3
100
AcDbLine
 10
222.36227
 20
154.820116
 30
0.0
 11
216.2245370000001
 21
154.436508
 31
0.0
  0
LINE
  5
190
330
1F
100
AcDbEntity
  8
Ｓ_１_１
  6
CONTINUOUS
 62
     3
100
AcDbLine
 10
214.8622650000001
 20
153.650003
 30
0.0
 11
216.2245340000001
 21
154.43651
 31
0.0
  0
LINE
  5
191
330
1F
100
AcDbEntity
  8
Ｓ_１_１
  6
CONTINUOUS
 62
     3
100
AcDbLine
 10
222.3622730000001
 20
154.118753
 30
0.0
 11
214.862249
 21
153.650002
 31
0.0
  0
LINE
  5
192
330
1F
100
AcDbEntity
  8
Ｓ_１_１
  6
CONTINUOUS
 62
     3
100
AcDbLine
 10
216.2245380000001
 20
169.563491
 30
0.0
 11
214.862264
 21
170.35
 31
0.0
  0
LINE
  5
193
330
1F
100
AcDbEntity
  8
Ｓ_１_１
  6
CONTINUOUS
 62
     3
100
AcDbLine
 10
222.3622690000001
 20
169.88125
 30
0.0
 11
214.862259
 21
170.350001
 31
0.0
  0
LINE
  5
194
330
1F
100
AcDbEntity
  8
Ｓ_１_１
  6
CONTINUOUS
 62
     3
100
AcDbLine
 10
222.362266
 20
169.179883
 30
0.0
 11
216.2245380000001
 21
169.563491
 31
0.0
  0
LINE
  5
195
330
1F
100
AcDbEntity
  8
Ｓ_１_１
  6
CONTINUOUS
 62
     3
100
AcDbLine
 10
216.2245330000001
 20
153.735138
 30
0.0
 11
216.2245330000001
 21
170.264852
 31
0.0
  0
LINE
  5
196
330
1F
100
AcDbEntity
  8
Ｓ_１_１
  6
CONTINUOUS
 62
     3
100
AcDbLine
 10
204.49999
 20
169.56349
 30
0.0
 11
205.862266
 21
170.350001
 31
0.0
  0
LINE
  5
197
330
1F
100
AcDbEntity
  8
Ｓ_１_１
  6
CONTINUOUS
 62
     3
100
AcDbLine
 10
199.499999
 20
169.952351
 30
0.0
 11
205.86227
 21
170.349992
 31
0.0
  0
LINE
  5
198
330
1F
100
AcDbEntity
  8
Ｓ_１_１
  6
CONTINUOUS
 62
     3
100
AcDbLine
 10
199.500002
 20
169.250988
 30
0.0
 11
204.499997
 21
169.563488
 31
0.0
  0
LINE
  5
199
330
1F
100
AcDbEntity
  8
Ｓ_１_１
  6
CONTINUOUS
 62
     3
100
AcDbLine
 10
205.8622730000001
 20
153.650004
 30
0.0
 11
204.500008
 21
154.436508
 31
0.0
  0
LINE
  5
19A
330
1F
100
AcDbEntity
  8
Ｓ_１_１
  6
CONTINUOUS
 62
     3
100
AcDbLine
 10
204.5
 20
153.735138
 30
0.0
 11
204.5
 21
170.264852
 31
0.0
  0
LINE
  5
19B
330
1F
100
AcDbEntity
  8
Ｓ_１_１
  6
CONTINUOUS
 62
     3
100
AcDbLine
 10
199.499994
 20
154.047643
 30
0.0
 11
205.862265
 21
153.650001
 31
0.0
  0
LINE
  5
19C
330
1F
100
AcDbEntity
  8
Ｓ_１_１
  6
CONTINUOUS
 62
     3
100
AcDbLine
 10
199.499997
 20
154.749006
 30
0.0
 11
204.499997
 21
154.436506
 31
0.0
  0
LINE
  5
19D
330
1F
100
AcDbEntity
  8
Ｓ_１_１
  6
CONTINUOUS
 62
     3
100
AcDbLine
 10
205.86227
 20
151.499991
 30
0.0
 11
206.8000900000001
 21
149.875633
 31
0.0
  0
LINE
  5
19E
330
1F
100
AcDbEntity
  8
Ｓ_１_１
  6
CONTINUOUS
 62
     3
100
AcDbLine
 10
214.862272
 20
151.499988
 30
0.0
 11
213.924451
 21
149.875627
 31
0.0
  0
LINE
  5
19F
330
1F
100
AcDbEntity
  8
Ｓ_１_１
  6
CONTINUOUS
 62
     3
100
AcDbLine
 10
205.86226
 20
172.500016
 30
0.0
 11
206.800081
 21
174.124377
 31
0.0
  0
LINE
  5
1A0
330
1F
100
AcDbEntity
  8
Ｓ_１_１
  6
CONTINUOUS
 62
     3
100
AcDbLine
 10
214.8622650000001
 20
172.500011
 30
0.0
 11
213.924443
 21
174.124375
 31
0.0
  0
LINE
  5
1A1
330
1F
100
AcDbEntity
  8
Ｓ_１_１
  6
CONTINUOUS
 62
     3
100
AcDbLine
 10
213.924444
 20
174.124374
 30
0.0
 11
206.8000840000001
 21
174.124374
 31
0.0
  0
LINE
  5
1A2
330
1F
100
AcDbEntity
  8
Ｓ_１_１
  6
CONTINUOUS
 62
     3
100
AcDbLine
 10
213.9244590000001
 20
149.875656
 30
0.0
 11
206.800069
 21
149.875656
 31
0.0
  0
LINE
  5
1A3
330
1F
100
AcDbEntity
  8
Ｓ_１_１
  6
CONTINUOUS
 62
     3
100
AcDbLine
 10
213.924444
 20
155.937836
 30
0.0
 11
206.8000840000001
 21
155.937836
 31
0.0
  0
LINE
  5
1A4
330
1F
100
AcDbEntity
  8
Ｓ_１_１
  6
CONTINUOUS
 62
     3
100
AcDbLine
 10
213.924444
 20
168.062185
 30
0.0
 11
206.8000840000001
 21
168.062185
 31
0.0
  0
LINE
  5
1A5
330
1F
100
AcDbEntity
  8
Ｓ_１_１
  6
CONTINUOUS
 62
     3
100
AcDbLine
 10
214.862264
 20
151.499985
 30
0.0
 11
214.862264
 21
172.500005
 31
0.0
  0
LINE
  5
1A6
330
1F
100
AcDbEntity
  8
Ｓ_１_１
  6
CONTINUOUS
 62
     3
100
AcDbLine
 10
205.862264
 20
151.49999
 30
0.0
 11
205.862264
 21
172.500015
 31
0.0
  0
LINE
  5
1A7
330
1F
100
AcDbEntity
  8
Ｓ_１_１
  6
CONTINUOUS
 62
     3
100
AcDbLine
 10
182.7842380000001
 20
193.058363
 30
0.0
 11
216.5611600000001
 21
212.553451
 31
0.0
  0
LINE
  5
1A8
330
1F
100
AcDbEntity
  8
Ｓ_１_１
  6
CONTINUOUS
 62
     3
100
AcDbLine
 10
176.789475
 20
203.441634
 30
0.0
 11
210.561154
 21
222.94576
 31
0.0
  0
LINE
  5
1A9
330
1F
100
AcDbEntity
  8
Ｓ_１_１
  6
CONTINUOUS
 62
     3
100
AcDbLine
 10
176.789471
 20
203.441635
 30
0.0
 11
168.469346
 21
205.671006
 31
0.0
  0
LINE
  5
1AA
330
1F
100
AcDbEntity
  8
Ｓ_１_１
  6
CONTINUOUS
 62
     3
100
AcDbLine
 10
182.7842450000001
 20
193.058367
 30
0.0
 11
180.55488
 21
184.738262
 31
0.0
  0
LINE
  5
1AB
330
1F
100
AcDbEntity
  8
Ｓ_１_１
  6
CONTINUOUS
 62
     3
100
AcDbLine
 10
179.786843
 20
198.249993
 30
0.0
 11
182.7842390000001
 21
193.058351
 31
0.0
  0
LINE
  5
1AC
330
1F
100
AcDbEntity
  8
Ｓ_１_１
  6
CONTINUOUS
 62
     3
100
AcDbLine
 10
179.7867150000001
 20
198.249919
 30
0.0
 11
176.7893250000001
 21
203.441552
 31
0.0
  0
LINE
  5
1AD
330
1F
100
AcDbEntity
  8
Ｓ_１_１
  6
CONTINUOUS
 62
     3
100
AcDbLine
 10
199.5000160000001
 20
148.499987
 30
0.0
 11
198.0000250000001
 21
146.999996
 31
0.0
  0
LINE
  5
1AE
330
1F
100
AcDbEntity
  8
Ｓ_１_１
  6
CONTINUOUS
 62
     3
100
AcDbLine
 10
187.8122420000001
 20
146.999991
 30
0.0
 11
184.678029
 21
143.865781
 31
0.0
  0
LINE
  5
1AF
330
1F
100
AcDbEntity
  8
Ｓ_１_１
  6
CONTINUOUS
 62
     3
100
AcDbLine
 10
198.0
 20
147.0
 30
0.0
 11
187.812236
 21
147.0
 31
0.0
  0
LINE
  5
1B0
330
1F
100
AcDbEntity
  8
Ｓ_１_１
  6
CONTINUOUS
 62
     3
100
AcDbLine
 10
199.499998
 20
175.500005
 30
0.0
 11
198.0
 21
177.000003
 31
0.0
  0
LINE
  5
1B1
330
1F
100
AcDbEntity
  8
Ｓ_１_１
  6
CONTINUOUS
 62
     3
100
AcDbLine
 10
187.8122400000001
 20
177.00001
 30
0.0
 11
180.8152210000001
 21
183.997021
 31
0.0
  0
LINE
  5
1B2
330
1F
100
AcDbEntity
  8
Ｓ_１_１
  6
CONTINUOUS
 62
     3
100
AcDbLine
 10
198.0
 20
177.0
 30
0.0
 11
187.812236
 21
177.0
 31
0.0
  0
LINE
  5
1B3
330
1F
100
AcDbEntity
  8
Ｓ_１_１
  6
CONTINUOUS
 62
     3
100
AcDbLine
 10
181.6971
 20
109.058631
 30
0.0
 11
179.6480750000001
 21
108.509597
 31
0.0
  0
LINE
  5
1B4
330
1F
100
AcDbEntity
  8
Ｓ_１_１
  6
CONTINUOUS
 62
     3
100
AcDbLine
 10
170.825184
 20
113.603545
 30
0.0
 11
161.267084
 21
111.042459
 31
0.0
  0
LINE
  5
1B5
330
1F
100
AcDbEntity
  8
Ｓ_１_１
  6
CONTINUOUS
 62
     3
100
AcDbLine
 10
179.648063
 20
108.509629
 30
0.0
 11
170.825182
 21
113.603522
 31
0.0
  0
LINE
  5
1B6
330
1F
100
AcDbEntity
  8
Ｓ_１_１
  6
CONTINUOUS
 62
     3
100
AcDbLine
 10
195.197117
 20
132.441353
 30
0.0
 11
194.6480780000001
 21
134.490394
 31
0.0
  0
LINE
  5
1B7
330
1F
100
AcDbEntity
  8
Ｓ_１_１
  6
CONTINUOUS
 62
     3
100
AcDbLine
 10
185.8252580000001
 20
139.584276
 30
0.0
 11
183.264173
 21
149.142377
 31
0.0
  0
LINE
  5
1B8
330
1F
100
AcDbEntity
  8
Ｓ_１_１
  6
CONTINUOUS
 62
     3
100
AcDbLine
 10
194.6480730000001
 20
134.490409
 30
0.0
 11
185.825193
 21
139.584302
 31
0.0
  0
LINE
  5
1B9
330
1F
100
AcDbEntity
  8
Ｓ_１_１
  6
EXLTYPE2
 62
     1
100
AcDbLine
 10
414.9999999999999
 20
141.0
 30
0.0
 11
414.9999999999999
 21
183.0
 31
0.0
  0
LINE
  5
1BA
330
1F
100
AcDbEntity
  8
Ｓ_１_１
  6
CONTINUOUS
 62
     3
100
AcDbLine
 10
373.4999999999999
 20
229.5
 30
0.0
 11
373.4999999999999
 21
94.5
 31
0.0
  0
LINE
  5
1BB
330
1F
100
AcDbEntity
  8
Ｓ_１_１
  6
CONTINUOUS
 62
     3
100
AcDbLine
 10
371.9999999999999
 20
95.999994
 30
0.0
 11
371.9999999999999
 21
228.0
 31
0.0
  0
LINE
  5
1BC
330
1F
100
AcDbEntity
  8
Ｓ_１_１
  6
CONTINUOUS
 62
     3
100
AcDbLine
 10
449.9999999999999
 20
95.499995
 30
0.0
 11
449.9999999999999
 21
228.5
 31
0.0
  0
LINE
  5
1BD
330
1F
100
AcDbEntity
  8
Ｓ_１_１
  6
CONTINUOUS
 62
     3
100
AcDbLine
 10
448.9999999999999
 20
229.49998
 30
0.0
 11
448.9999999999999
 21
94.5
 31
0.0
  0
LINE
  5
1BE
330
1F
100
AcDbEntity
  8
Ｓ_１_１
  6
EXLTYPE2
 62
     1
100
AcDbLine
 10
359.0
 20
162.0
 30
0.0
 11
454.9999999999999
 21
162.0
 31
0.0
  0
LINE
  5
1BF
330
1F
100
AcDbEntity
  8
Ｓ_１_１
  6
CONTINUOUS
 62
     3
100
AcDbLine
 10
448.9999999999999
 20
229.5
 30
0.0
 11
373.4999999999999
 21
229.5
 31
0.0
  0
LINE
  5
1C0
330
1F
100
AcDbEntity
  8
Ｓ_１_１
  6
CONTINUOUS
 62
     3
100
AcDbLine
 10
371.9999999999999
 20
228.000009
 30
0.0
 11
373.499995
 21
229.50001
 31
0.0
  0
LINE
  5
1C1
330
1F
100
AcDbEntity
  8
Ｓ_１_１
  6
CONTINUOUS
 62
     3
100
AcDbLine
 10
448.99999
 20
229.499974
 30
0.0
 11
449.999977
 21
228.499988
 31
0.0
  0
LINE
  5
1C2
330
1F
100
AcDbEntity
  8
Ｓ_１_１
  6
CONTINUOUS
 62
     3
100
AcDbLine
 10
371.9999979999999
 20
95.99999400000002
 30
0.0
 11
373.499993
 21
94.49999300000002
 31
0.0
  0
LINE
  5
1C3
330
1F
100
AcDbEntity
  8
Ｓ_１_１
  6
CONTINUOUS
 62
     3
100
AcDbLine
 10
448.999986
 20
94.50001500000002
 30
0.0
 11
449.9999649999999
 21
95.49999500000001
 31
0.0
  0
LINE
  5
1C4
330
1F
100
AcDbEntity
  8
Ｓ_１_１
  6
CONTINUOUS
 62
     3
100
AcDbLine
 10
396.84314
 20
223.75
 30
0.0
 11
444.4999999999999
 21
223.75
 31
0.0
  0
LINE
  5
1C5
330
1F
100
AcDbEntity
  8
Ｓ_１_１
  6
CONTINUOUS
 62
     3
100
AcDbLine
 10
396.15686
 20
211.75
 30
0.0
 11
444.4999999999999
 21
211.75
 31
0.0
  0
LINE
  5
1C6
330
1F
100
AcDbEntity
  8
Ｓ_１_１
  6
CONTINUOUS
 62
     3
100
AcDbLine
 10
445.4999999999999
 20
212.75
 30
0.0
 11
445.4999999999999
 21
222.75
 31
0.0
  0
LINE
  5
1C7
330
1F
100
AcDbEntity
  8
Ｓ_１_１
  6
CONTINUOUS
 62
     3
100
AcDbLine
 10
445.499994
 20
212.750017
 30
0.0
 11
444.499996
 21
211.750027
 31
0.0
  0
LINE
  5
1C8
330
1F
100
AcDbEntity
  8
Ｓ_１_１
  6
CONTINUOUS
 62
     3
100
AcDbLine
 10
445.499976
 20
222.749973
 30
0.0
 11
444.499979
 21
223.749978
 31
0.0
  0
LINE
  5
1C9
330
1F
100
AcDbEntity
  8
Ｓ_１_１
  6
CONTINUOUS
 62
     3
100
AcDbLine
 10
444.4999999999999
 20
211.75
 30
0.0
 11
444.4999999999999
 21
223.75
 31
0.0
  0
LINE
  5
1CA
330
1F
100
AcDbEntity
  8
Ｓ_１_１
  6
CONTINUOUS
 62
     3
100
AcDbLine
 10
391.15686
 20
206.75
 30
0.0
 11
391.15686
 21
195.75
 31
0.0
  0
LINE
  5
1CB
330
1F
100
AcDbEntity
  8
Ｓ_１_１
  6
CONTINUOUS
 62
     3
100
AcDbLine
 10
379.84314
 20
206.75
 30
0.0
 11
379.84314
 21
195.75
 31
0.0
  0
CIRCLE
  5
1CC
330
1F
100
AcDbEntity
  8
Ｓ_１_１
  6
CONTINUOUS
 62
     3
100
AcDbCircle
 10
414.9999999999999
 20
162.0
 30
0.0
 40
19.0
  0
ARC
  5
1CD
330
1F
100
AcDbEntity
  8
Ｓ_１_１
  6
CONTINUOUS
 62
     3
100
AcDbCircle
 10
396.15686
 20
206.75
 30
0.0
 40
5.0
100
AcDbArc
 50
90.000003
 51
180.000005
  0
ARC
  5
1CE
330
1F
100
AcDbEntity
  8
Ｓ_１_１
  6
CONTINUOUS
 62
     3
100
AcDbCircle
 10
396.84314
 20
206.75
 30
0.0
 40
17.0
100
AcDbArc
 50
90.000003
 51
180.000005
  0
CIRCLE
  5
1CF
330
1F
100
AcDbEntity
  8
Ｓ_１_１
  6
CONTINUOUS
 62
     3
100
AcDbCircle
 10
414.9999999999999
 20
162.0
 30
0.0
 40
16.0
  0
CIRCLE
  5
1D0
330
1F
100
AcDbEntity
  8
Ｓ_１_１
  6
CONTINUOUS
 62
     3
100
AcDbCircle
 10
414.9999999999999
 20
162.0
 30
0.0
 40
13.000004
  0
CIRCLE
  5
1D1
330
1F
100
AcDbEntity
  8
Ｓ_１_１
  6
CONTINUOUS
 62
     3
100
AcDbCircle
 10
414.9999999999999
 20
162.0
 30
0.0
 40
12.00000000000001
  0
POLYLINE
  5
1D2
330
1F
100
AcDbEntity
  8
Ｓ_１_１
  6
CONTINUOUS
 62
     3
100
AcDb2dPolyline
 66
     1
 10
0.0
 20
0.0
 30
0.0
 70
   128
  0
VERTEX
  5
1D3
330
1D2
100
AcDbEntity
  8
Ｓ_１_１
  6
CONTINUOUS
 62
     3
100
AcDbVertex
100
AcDb2dVertex
 10
379.84314
 20
195.75
 30
0.0
  0
VERTEX
  5
1D4
330
1D2
100
AcDbEntity
  8
Ｓ_１_１
  6
CONTINUOUS
 62
     3
100
AcDbVertex
100
AcDb2dVertex
 10
379.8915349999999
 20
195.227895
 30
0.0
  0
VERTEX
  5
1D5
330
1D2
100
AcDbEntity
  8
Ｓ_１_１
  6
CONTINUOUS
 62
     3
100
AcDbVertex
100
AcDb2dVertex
 10
380.0358919999999
 20
194.714724
 30
0.0
  0
VERTEX
  5
1D6
330
1D2
100
AcDbEntity
  8
Ｓ_１_１
  6
CONTINUOUS
 62
     3
100
AcDbVertex
100
AcDb2dVertex
 10
380.2737429999999
 20
194.219266
 30
0.0
  0
VERTEX
  5
1D7
330
1D2
100
AcDbEntity
  8
Ｓ_１_１
  6
CONTINUOUS
 62
     3
100
AcDbVertex
100
AcDb2dVertex
 10
380.601015
 20
193.75
 30
0.0
  0
VERTEX
  5
1D8
330
1D2
100
AcDbEntity
  8
Ｓ_１_１
  6
CONTINUOUS
 62
     3
100
AcDbVertex
100
AcDb2dVertex
 10
381.0121109999999
 20
193.314954
 30
0.0
  0
VERTEX
  5
1D9
330
1D2
100
AcDbEntity
  8
Ｓ_１_１
  6
CONTINUOUS
 62
     3
100
AcDbVertex
100
AcDb2dVertex
 10
381.499996
 20
192.921573
 30
0.0
  0
VERTEX
  5
1DA
330
1D2
100
AcDbEntity
  8
Ｓ_１_１
  6
CONTINUOUS
 62
     3
100
AcDbVertex
100
AcDb2dVertex
 10
382.056322
 20
192.576587
 30
0.0
  0
VERTEX
  5
1DB
330
1D2
100
AcDbEntity
  8
Ｓ_１_１
  6
CONTINUOUS
 62
     3
100
AcDbVertex
100
AcDb2dVertex
 10
382.6715699999999
 20
192.285898
 30
0.0
  0
VERTEX
  5
1DC
330
1D2
100
AcDbEntity
  8
Ｓ_１_１
  6
CONTINUOUS
 62
     3
100
AcDbVertex
100
AcDb2dVertex
 10
383.335213
 20
192.054482
 30
0.0
  0
VERTEX
  5
1DD
330
1D2
100
AcDbEntity
  8
Ｓ_１_１
  6
CONTINUOUS
 62
     3
100
AcDbVertex
100
AcDb2dVertex
 10
384.0358969999999
 20
191.886297
 30
0.0
  0
VERTEX
  5
1DE
330
1D2
100
AcDbEntity
  8
Ｓ_１_１
  6
CONTINUOUS
 62
     3
100
AcDbVertex
100
AcDb2dVertex
 10
384.761632
 20
191.784221
 30
0.0
  0
VERTEX
  5
1DF
330
1D2
100
AcDbEntity
  8
Ｓ_１_１
  6
CONTINUOUS
 62
     3
100
AcDbVertex
100
AcDb2dVertex
 10
385.4999999999999
 20
191.75
 30
0.0
  0
VERTEX
  5
1E0
330
1D2
100
AcDbEntity
  8
Ｓ_１_１
  6
CONTINUOUS
 62
     3
100
AcDbVertex
100
AcDb2dVertex
 10
386.238368
 20
191.784221
 30
0.0
  0
VERTEX
  5
1E1
330
1D2
100
AcDbEntity
  8
Ｓ_１_１
  6
CONTINUOUS
 62
     3
100
AcDbVertex
100
AcDb2dVertex
 10
386.964103
 20
191.886297
 30
0.0
  0
VERTEX
  5
1E2
330
1D2
100
AcDbEntity
  8
Ｓ_１_１
  6
CONTINUOUS
 62
     3
100
AcDbVertex
100
AcDb2dVertex
 10
387.664787
 20
192.054482
 30
0.0
  0
VERTEX
  5
1E3
330
1D2
100
AcDbEntity
  8
Ｓ_１_１
  6
CONTINUOUS
 62
     3
100
AcDbVertex
100
AcDb2dVertex
 10
388.32843
 20
192.285898
 30
0.0
  0
VERTEX
  5
1E4
330
1D2
100
AcDbEntity
  8
Ｓ_１_１
  6
CONTINUOUS
 62
     3
100
AcDbVertex
100
AcDb2dVertex
 10
388.9436779999999
 20
192.576587
 30
0.0
  0
VERTEX
  5
1E5
330
1D2
100
AcDbEntity
  8
Ｓ_１_１
  6
CONTINUOUS
 62
     3
100
AcDbVertex
100
AcDb2dVertex
 10
389.5000039999999
 20
192.921573
 30
0.0
  0
VERTEX
  5
1E6
330
1D2
100
AcDbEntity
  8
Ｓ_１_１
  6
CONTINUOUS
 62
     3
100
AcDbVertex
100
AcDb2dVertex
 10
389.9878889999999
 20
193.314954
 30
0.0
  0
VERTEX
  5
1E7
330
1D2
100
AcDbEntity
  8
Ｓ_１_１
  6
CONTINUOUS
 62
     3
100
AcDbVertex
100
AcDb2dVertex
 10
390.398985
 20
193.75
 30
0.0
  0
VERTEX
  5
1E8
330
1D2
100
AcDbEntity
  8
Ｓ_１_１
  6
CONTINUOUS
 62
     3
100
AcDbVertex
100
AcDb2dVertex
 10
390.726257
 20
194.219266
 30
0.0
  0
VERTEX
  5
1E9
330
1D2
100
AcDbEntity
  8
Ｓ_１_１
  6
CONTINUOUS
 62
     3
100
AcDbVertex
100
AcDb2dVertex
 10
390.964108
 20
194.714724
 30
0.0
  0
VERTEX
  5
1EA
330
1D2
100
AcDbEntity
  8
Ｓ_１_１
  6
CONTINUOUS
 62
     3
100
AcDbVertex
100
AcDb2dVertex
 10
391.108465
 20
195.227895
 30
0.0
  0
VERTEX
  5
1EB
330
1D2
100
AcDbEntity
  8
Ｓ_１_１
  6
CONTINUOUS
 62
     3
100
AcDbVertex
100
AcDb2dVertex
 10
391.15686
 20
195.75
 30
0.0
  0
SEQEND
  5
1EC
330
1D2
100
AcDbEntity
  8
Ｓ_１_１
  6
CONTINUOUS
 62
     3
  0
LINE
  5
1ED
330
1F
100
AcDbEntity
  8
Ｓ_１_１
  6
EXLTYPE2
 62
     1
100
AcDbLine
 10
385.4999999999999
 20
188.591827
 30
0.0
 11
385.4999999999999
 21
206.75
 31
0.0
  0
LINE
  5
1EE
330
1F
100
AcDbEntity
  8
Ｓ_１_１
  6
EXLTYPE2
 62
     1
100
AcDbLine
 10
396.4999999999999
 20
217.75
 30
0.0
 11
447.3283079999999
 21
217.75
 31
0.0
  0
LINE
  5
1EF
330
1F
100
AcDbEntity
  8
Ｓ_１_１
  6
EXLTYPE2
 62
     1
100
AcDbLine
 10
377.9999999999999
 20
195.75
 30
0.0
 11
392.9999999999999
 21
195.75
 31
0.0
  0
ARC
  5
1F0
330
1F
100
AcDbEntity
  8
Ｓ_１_１
  6
EXLTYPE2
 62
     1
100
AcDbCircle
 10
396.4999999999999
 20
206.75
 30
0.0
 40
11.0
100
AcDbArc
 50
90.000003
 51
180.000005
  0
LINE
  5
1F1
330
1F
100
AcDbEntity
  8
Ｓ_１_１
  6
CONTINUOUS
 62
     3
100
AcDbLine
 10
179.6480640000001
 20
108.509591
 30
0.0
 11
194.6480897403799
 21
134.4903993349356
 31
0.0
  0
LINE
  5
1F2
330
1F
100
AcDbEntity
  8
Ｓ_１_１
  6
CONTINUOUS
 62
     3
100
AcDbLine
 10
181.697098
 20
109.058643
 30
0.0
 11
195.1971140083313
 21
132.4413547272409
 31
0.0
  0
ARC
  5
1F3
330
1F
100
AcDbEntity
  8
Ｓ_１_１
  6
CONTINUOUS
 62
     3
100
AcDbCircle
 10
194.0585170294498
 20
107.0102218615713
 30
0.0
 40
5.367246000000002
100
AcDbArc
 50
115.615849
 51
184.384134
  0
ARC
  5
1F4
330
1F
100
AcDbEntity
  8
Ｓ_１_１
  6
CONTINUOUS
 62
     3
100
AcDbCircle
 10
211.3313595726904
 20
107.537770737601
 30
0.0
 40
20.062197
100
AcDbArc
 50
132.412118
 51
167.588002
  0
ARC
  5
1F5
330
1F
100
AcDbEntity
  8
Ｓ_１_１
  6
CONTINUOUS
 62
     3
100
AcDbCircle
 10
192.5563976986365
 20
107.8774708615712
 30
0.0
 40
5.367246000000002
100
AcDbArc
 50
295.615919
 51
4.384206999999998
  0
ARC
  5
1F6
330
1F
100
AcDbEntity
  8
Ｓ_１_１
  6
CONTINUOUS
 62
     3
100
AcDbCircle
 10
201.6496746986365
 20
123.6274886328687
 30
0.0
 40
5.367246000000002
100
AcDbArc
 50
295.6158370000001
 51
4.384124999999977
  0
ARC
  5
1F7
330
1F
100
AcDbEntity
  8
Ｓ_１_１
  6
CONTINUOUS
 62
     3
100
AcDbCircle
 10
184.376847155396
 20
123.0999657376011
 30
0.0
 40
20.062197
100
AcDbArc
 50
312.4120460000003
 51
347.58793
  0
ARC
  5
1F8
330
1F
100
AcDbEntity
  8
Ｓ_１_１
  6
CONTINUOUS
 62
     3
100
AcDbCircle
 10
203.1517940294498
 20
122.7602396328687
 30
0.0
 40
5.367246000000002
100
AcDbArc
 50
115.6159310000001
 51
184.3842150000003
  0
LINE
  5
1F9
330
1F
100
AcDbEntity
  8
Ｓ_１_１
  6
CONTINUOUS
 62
     3
100
AcDbLine
 10
204.6564639056088
 20
103.1008903069945
 30
0.0
 11
199.1492272059628
 21
105.8375425338996
 31
0.0
  0
LINE
  5
1FA
330
1F
100
AcDbEntity
  8
Ｓ_１_１
  6
CONTINUOUS
 62
     3
100
AcDbLine
 10
197.5762125470985
 20
105.8375452236961
 30
0.0
 11
199.1492256078866
 21
105.8375457659504
 31
0.0
  0
LINE
  5
1FB
330
1F
100
AcDbEntity
  8
Ｓ_１_１
  6
CONTINUOUS
 62
     3
100
AcDbLine
 10
204.3057850036851
 20
102.4934906317201
 30
0.0
 11
197.5761981906921
 21
105.8375523576707
 31
0.0
  0
LINE
  5
1FC
330
1F
100
AcDbEntity
  8
Ｓ_１_１
  6
CONTINUOUS
 62
     3
100
AcDbLine
 10
206.7127195719882
 20
118.9378935945149
 30
0.0
 11
205.9262101810731
 21
120.30016736882
 31
0.0
  0
LINE
  5
1FD
330
1F
100
AcDbEntity
  8
Ｓ_１_１
  6
CONTINUOUS
 62
     3
100
AcDbLine
 10
212.1870300395834
 20
116.1442154607961
 30
0.0
 11
205.9262063509461
 21
120.3001707348455
 31
0.0
  0
LINE
  5
1FE
330
1F
100
AcDbEntity
  8
Ｓ_１_１
  6
CONTINUOUS
 62
     3
100
AcDbLine
 10
211.8363439415073
 20
115.53681532142
 30
0.0
 11
206.7127195719882
 21
118.9378935945149
 31
0.0
  0
LINE
  5
1FF
330
1F
100
AcDbEntity
  8
Ｓ_１_１
  6
CONTINUOUS
 62
     3
100
AcDbLine
 10
198.7985387418612
 20
105.2301402964473
 30
0.0
 11
207.0633957418612
 21
119.5452925377386
 31
0.0
  0
LINE
  5
200
330
1F
100
AcDbEntity
  8
Ｓ_１_１
  6
CONTINUOUS
 62
     3
100
AcDbLine
 10
196.5589626560982
 20
124.8001667284896
 30
0.0
 11
198.131983779064
 21
124.8001672348455
 31
0.0
  0
LINE
  5
201
330
1F
100
AcDbEntity
  8
Ｓ_１_１
  6
CONTINUOUS
 62
     3
100
AcDbLine
 10
192.4232739314046
 20
127.6369257330306
 30
0.0
 11
198.1319827431656
 21
124.8001574406168
 31
0.0
  0
LINE
  5
202
330
1F
100
AcDbEntity
  8
Ｓ_１_１
  6
CONTINUOUS
 62
     3
100
AcDbLine
 10
192.0725950294808
 20
127.0295260577561
 30
0.0
 11
196.558967718276
 21
124.8001614964388
 31
0.0
  0
LINE
  5
203
330
1F
100
AcDbEntity
  8
Ｓ_１_１
  6
CONTINUOUS
 62
     3
100
AcDbLine
 10
189.7819913412419
 20
110.3375420897215
 30
0.0
 11
188.9954872445554
 21
111.6998070338996
 31
0.0
  0
LINE
  5
204
330
1F
100
AcDbEntity
  8
Ｓ_１_１
  6
CONTINUOUS
 62
     3
100
AcDbLine
 10
188.6447953163522
 20
111.0924067964473
 30
0.0
 11
196.9096523163522
 21
125.4075590377386
 31
0.0
  0
LINE
  5
205
330
1F
100
AcDbEntity
  8
Ｓ_１_１
  6
CONTINUOUS
 62
     3
100
AcDbLine
 10
184.4709156012776
 20
113.863047065257
 30
0.0
 11
189.7819829130386
 21
110.3375434916454
 31
0.0
  0
LINE
  5
206
330
1F
100
AcDbEntity
  8
Ｓ_１_１
  6
CONTINUOUS
 62
     3
100
AcDbLine
 10
184.8215996993538
 20
114.4704437405315
 30
0.0
 11
188.995476718276
 21
111.6998108018488
 31
0.0
  0
LINE
  5
207
330
1F
100
AcDbEntity
  8
Ｓ_１_１
  6
CONTINUOUS
 62
     3
100
AcDbLine
 10
188.7069822431656
 20
108.4755777132547
 30
0.0
 11
188.7069791873428
 21
106.5999324204142
 31
0.0
  0
LINE
  5
208
330
1F
100
AcDbEntity
  8
Ｓ_１_１
  6
CONTINUOUS
 62
     3
100
AcDbLine
 10
196.5012111092764
 20
103.9755741151785
 30
0.0
 11
194.8768537990739
 21
103.0377467242619
 31
0.0
  0
LINE
  5
209
330
1F
100
AcDbEntity
  8
Ｓ_１_１
  6
CONTINUOUS
 62
     3
100
AcDbLine
 10
199.2069860829116
 20
126.6621378433631
 30
0.0
 11
200.8313433931141
 21
127.5999652342797
 31
0.0
  0
LINE
  5
20A
330
1F
100
AcDbEntity
  8
Ｓ_１_１
  6
CONTINUOUS
 62
     3
100
AcDbLine
 10
207.0012165470986
 20
122.162131013236
 30
0.0
 11
207.0012208708706
 21
124.0377825022289
 31
0.0
  0
LINE
  5
20B
330
1F
100
AcDbEntity
  8
Ｓ_１_１
  6
CONTINUOUS
 62
     3
100
AcDbLine
 10
207.001221236896
 20
124.0377811362035
 30
0.0
 11
200.8313444911903
 21
127.5999611362035
 31
0.0
  0
LINE
  5
20C
330
1F
100
AcDbEntity
  8
Ｓ_１_１
  6
CONTINUOUS
 62
     3
100
AcDbLine
 10
194.8768752272771
 20
103.0377678389985
 30
0.0
 11
188.7069725008093
 21
106.5999628389986
 31
0.0
  0
LINE
  5
20D
330
1F
100
AcDbEntity
  8
Ｓ_１_１
  6
CONTINUOUS
 62
     3
100
AcDbLine
 10
197.907952236896
 20
108.2877772213125
 30
0.0
 11
191.7380754911903
 21
111.8499572213125
 31
0.0
  0
LINE
  5
20E
330
1F
100
AcDbEntity
  8
Ｓ_１_１
  6
CONTINUOUS
 62
     3
100
AcDbLine
 10
203.970126736896
 20
118.787771459661
 30
0.0
 11
197.8002499911903
 21
122.349951459661
 31
0.0
  0
LINE
  5
20F
330
1F
100
AcDbEntity
  8
Ｓ_１_１
  6
CONTINUOUS
 62
     3
100
AcDbLine
 10
196.5012026810731
 20
103.9755755171023
 30
0.0
 11
207.0012126810732
 21
122.1621263170836
 31
0.0
  0
LINE
  5
210
330
1F
100
AcDbEntity
  8
Ｓ_１_１
  6
CONTINUOUS
 62
     3
100
AcDbLine
 10
188.7069765470132
 20
108.4755798472294
 30
0.0
 11
199.2069890470132
 21
126.6621349773377
 31
0.0
  0
ARC
  5
211
330
1F
100
AcDbEntity
  8
Ｓ_１_１
  6
CONTINUOUS
 62
     3
100
AcDbCircle
 10
203.8003006420795
 20
99.88579619939873
 30
0.0
 40
6.133925000000002
100
AcDbArc
 50
295.6154380000004
 51
4.384583000000314
  0
ARC
  5
212
330
1F
100
AcDbEntity
  8
Ｓ_１_１
  6
CONTINUOUS
 62
     3
100
AcDbCircle
 10
194.4521518109976
 20
117.2829514672493
 30
0.0
 40
22.927938
100
AcDbArc
 50
312.4118580000001
 51
347.5881660000002
  0
ARC
  5
213
330
1F
100
AcDbEntity
  8
Ｓ_１_１
  6
CONTINUOUS
 62
     3
100
AcDbCircle
 10
218.7545816615945
 20
115.2519707158619
 30
0.0
 40
6.133925000000002
100
AcDbArc
 50
115.6154019999991
 51
184.3845609999998
  0
ARC
  5
214
330
1F
100
AcDbEntity
  8
Ｓ_１_１
  6
CONTINUOUS
 62
     3
100
AcDbCircle
 10
248.6013040224578
 20
91.21607628427891
 30
0.0
 40
1.0
100
AcDbArc
 50
329.9999779999953
 51
59.99997499999761
  0
ARC
  5
215
330
1F
100
AcDbEntity
  8
Ｓ_１_１
  6
CONTINUOUS
 62
     3
100
AcDbCircle
 10
214.1926196420793
 20
117.8858207158618
 30
0.0
 40
6.133925000000002
100
AcDbArc
 50
295.6153689999997
 51
4.384513999998988
  0
ARC
  5
216
330
1F
100
AcDbEntity
  8
Ｓ_１_１
  6
CONTINUOUS
 62
     3
100
AcDbCircle
 10
228.1025033164528
 20
97.85491196724928
 30
0.0
 40
22.927942
100
AcDbArc
 50
132.4118210000002
 51
167.5881150000001
  0
ARC
  5
217
330
1F
100
AcDbEntity
  8
Ｓ_１_１
  6
CONTINUOUS
 62
     3
100
AcDbCircle
 10
208.3622626615947
 20
97.25194619939879
 30
0.0
 40
6.133925000000002
100
AcDbArc
 50
115.6154159999998
 51
184.3845739999999
  0
ARC
  5
218
330
1F
100
AcDbEntity
  8
Ｓ_１_１
  6
CONTINUOUS
 62
     3
100
AcDbCircle
 10
244.1013190224581
 20
83.4218736309816
 30
0.0
 40
1.0
100
AcDbArc
 50
239.9999970000025
 51
329.9999780000017
  0
LINE
  5
219
330
1F
100
AcDbEntity
  8
Ｓ_１_１
  6
CONTINUOUS
 62
     3
100
AcDbLine
 10
249.6994703889106
 20
87.11791222613847
 30
0.0
 11
248.1994858889106
 21
84.5198628615727
 31
0.0
  0
LINE
  5
21A
330
1F
100
AcDbEntity
  8
Ｓ_１_１
  6
CONTINUOUS
 62
     3
100
AcDbLine
 10
214.2463975661409
 20
119.7111448126623
 30
0.0
 11
202.2464125661412
 21
98.92656110259837
 31
0.0
  0
LINE
  5
21B
330
1F
100
AcDbEntity
  8
Ｓ_１_１
  6
CONTINUOUS
 62
     3
100
AcDbLine
 10
249.1013190224579
 20
92.08212766882559
 30
0.0
 11
241.3073016985963
 21
96.58200566882567
 31
0.0
  0
LINE
  5
21C
330
1F
100
AcDbEntity
  8
Ｓ_１_１
  6
CONTINUOUS
 62
     3
100
AcDbLine
 10
241.3073016985963
 20
96.58200566882567
 30
0.0
 11
235.8072866985965
 21
87.05570024643498
 31
0.0
  0
LINE
  5
21D
330
1F
100
AcDbEntity
  8
Ｓ_１_１
  6
CONTINUOUS
 62
     3
100
AcDbLine
 10
240.0259709751523
 20
101.3631637545213
 30
0.0
 11
238.2940258226826
 21
102.3631027545214
 31
0.0
  0
LINE
  5
21E
330
1F
100
AcDbEntity
  8
Ｓ_１_１
  6
CONTINUOUS
 62
     3
100
AcDbLine
 10
231.0259864751526
 20
85.77473333318937
 30
0.0
 11
229.2940413226829
 21
86.77467233318941
 31
0.0
  0
LINE
  5
21F
330
1F
100
AcDbEntity
  8
Ｓ_１_１
  6
CONTINUOUS
 62
     3
100
AcDbLine
 10
227.7276983715927
 20
111.0616867598239
 30
0.0
 11
216.477698371593
 21
91.5761151746744
 31
0.0
  0
LINE
  5
220
330
1F
100
AcDbEntity
  8
Ｓ_１_１
  6
CONTINUOUS
 62
     3
100
AcDbLine
 10
215.7946856697007
 20
91.39310247278222
 30
0.0
 11
208.433469737533
 21
95.64310247278222
 31
0.0
  0
LINE
  5
221
330
1F
100
AcDbEntity
  8
Ｓ_１_１
  6
CONTINUOUS
 62
     3
100
AcDbLine
 10
227.5447006697006
 20
111.7447254424784
 30
0.0
 11
220.1834847375329
 21
115.9947254424784
 31
0.0
  0
LINE
  5
222
330
1F
100
AcDbEntity
  8
Ｓ_１_１
  6
CONTINUOUS
 62
     3
100
AcDbLine
 10
216.1028326272382
 20
120.782880659435
 30
0.0
 11
214.2464605180465
 21
119.7111038485605
 31
0.0
  0
LINE
  5
223
330
1F
100
AcDbEntity
  8
Ｓ_１_１
  6
CONTINUOUS
 62
     3
100
AcDbLine
 10
208.3086716483853
 20
95.42656384169067
 30
0.0
 11
206.4521928456182
 21
94.3547262321237
 31
0.0
  0
LINE
  5
224
330
1F
100
AcDbEntity
  8
Ｓ_１_１
  6
CONTINUOUS
 62
     3
100
AcDbLine
 10
202.2464416449797
 20
98.92654546862354
 30
0.0
 11
202.2464412541716
 21
96.78299079172389
 31
0.0
  0
LINE
  5
225
330
1F
100
AcDbEntity
  8
Ｓ_１_１
  6
CONTINUOUS
 62
     3
100
AcDbLine
 10
220.3086970891746
 20
118.354615597257
 30
0.0
 11
220.3086966983666
 21
116.2110609203573
 31
0.0
  0
LINE
  5
226
330
1F
100
AcDbEntity
  8
Ｓ_１_１
  6
CONTINUOUS
 62
     3
100
AcDbLine
 10
206.4520752623158
 20
94.35478257186982
 30
0.0
 11
202.2463761753332
 21
96.7829440718698
 31
0.0
  0
LINE
  5
227
330
1F
100
AcDbEntity
  8
Ｓ_１_１
  6
CONTINUOUS
 62
     3
100
AcDbLine
 10
209.9161712623158
 20
100.3547728461658
 30
0.0
 11
205.7104721753332
 21
102.7829343461658
 31
0.0
  0
LINE
  5
228
330
1F
100
AcDbEntity
  8
Ｓ_１_１
  6
CONTINUOUS
 62
     3
100
AcDbLine
 10
216.8443482623155
 20
112.3547274139955
 30
0.0
 11
212.6386491753329
 21
114.7828889139955
 31
0.0
  0
LINE
  5
229
330
1F
100
AcDbEntity
  8
Ｓ_１_１
  6
CONTINUOUS
 62
     3
100
AcDbLine
 10
220.3084822623156
 20
118.3547835062225
 30
0.0
 11
216.102783175333
 21
120.7829450062224
 31
0.0
  0
LINE
  5
22A
330
1F
100
AcDbEntity
  8
Ｓ_１_１
  6
CONTINUOUS
 62
     3
100
AcDbLine
 10
220.3084697375328
 20
116.2112058126622
 30
0.0
 11
208.3084847375331
 21
95.42662210259833
 31
0.0
  0
LINE
  5
22B
330
1F
100
AcDbEntity
  8
Ｓ_１_１
  6
CONTINUOUS
 62
     3
100
AcDbLine
 10
249.467540736441
 20
90.71595428427877
 30
0.0
 11
244.9675557364413
 21
82.92175163098145
 31
0.0
  0
LINE
  5
22C
330
1F
100
AcDbEntity
  8
Ｓ_１_１
  6
CONTINUOUS
 62
     3
100
AcDbLine
 10
248.1997183356611
 20
84.51989147115458
 30
0.0
 11
245.4676060569494
 21
83.78782419244261
 31
0.0
  0
LINE
  5
22D
330
1F
100
AcDbEntity
  8
Ｓ_１_１
  6
CONTINUOUS
 62
     3
100
AcDbLine
 10
248.9676792960411
 20
89.85004287276244
 30
0.0
 11
249.6997150965689
 21
87.1180480722356
 31
0.0
  0
LINE
  5
22E
330
1F
100
AcDbEntity
  8
Ｓ_１_１
  6
CONTINUOUS
 62
     3
100
AcDbLine
 10
234.9458594562301
 20
102.5641524956322
 30
0.0
 11
227.4458594562304
 21
89.57377143886602
 31
0.0
  0
LINE
  5
22F
330
1F
100
AcDbEntity
  8
Ｓ_１_１
  6
CONTINUOUS
 62
     3
100
AcDbLine
 10
236.245003217006
 20
101.8140914956322
 30
0.0
 11
228.7450032170062
 21
88.82371043886606
 31
0.0
  0
LINE
  5
230
330
1F
100
AcDbEntity
  8
Ｓ_１_１
  6
CONTINUOUS
 62
     3
100
AcDbLine
 10
240.0259709751523
 20
101.3631637545213
 30
0.0
 11
231.0259864751526
 21
85.77473333318937
 31
0.0
  0
LINE
  5
231
330
1F
100
AcDbEntity
  8
Ｓ_１_１
  6
CONTINUOUS
 62
     3
100
AcDbLine
 10
225.3970326607521
 20
89.02461133318945
 30
0.0
 11
217.602698371593
 21
93.52467233318941
 31
0.0
  0
LINE
  5
232
330
1F
100
AcDbEntity
  8
Ｓ_１_１
  6
CONTINUOUS
 62
     3
100
AcDbLine
 10
234.3970171607519
 20
104.6130417545214
 30
0.0
 11
226.6026828715927
 21
109.1131027545214
 31
0.0
  0
LINE
  5
233
330
1F
100
AcDbEntity
  8
Ｓ_１_１
  6
CONTINUOUS
 62
     3
100
AcDbLine
 10
238.2941155092165
 20
102.3632160961541
 30
0.0
 11
236.2450601452093
 21
101.8141740981728
 31
0.0
  0
LINE
  5
234
330
1F
100
AcDbEntity
  8
Ｓ_１_１
  6
CONTINUOUS
 62
     3
100
AcDbLine
 10
228.7450262791842
 20
88.8237363837299
 30
0.0
 11
229.2940215598886
 21
86.77485810302552
 31
0.0
  0
LINE
  5
235
330
1F
100
AcDbEntity
  8
Ｓ_１_１
  6
CONTINUOUS
 62
     3
100
AcDbLine
 10
238.2940258226826
 20
102.3631027545214
 30
0.0
 11
229.2940413226829
 21
86.77467233318941
 31
0.0
  0
LINE
  5
236
330
1F
100
AcDbEntity
  8
Ｓ_１_１
  6
CONTINUOUS
 62
     3
100
AcDbLine
 10
234.3970602395906
 20
104.6130503692582
 30
0.0
 11
234.9460555202949
 21
102.5641720885539
 31
0.0
  0
LINE
  5
237
330
1F
100
AcDbEntity
  8
Ｓ_１_１
  6
CONTINUOUS
 62
     3
100
AcDbLine
 10
227.446035647228
 20
89.5738406106259
 30
0.0
 11
225.3969806492466
 21
89.02479724661912
 31
0.0
  0
LINE
  5
238
330
1F
100
AcDbEntity
  8
Ｓ_１_１
  6
CONTINUOUS
 62
     3
100
AcDbLine
 10
227.5447006697006
 20
111.7447254424784
 30
0.0
 11
215.7946856697007
 21
91.39310247278222
 31
0.0
  0
LINE
  5
239
330
1F
100
AcDbEntity
  8
Ｓ_１_１
  6
CONTINUOUS
 62
     3
100
AcDbLine
 10
234.3970171607519
 20
104.6130417545214
 30
0.0
 11
225.3970326607521
 21
89.02461133318945
 31
0.0
  0
LINE
  5
23A
330
1F
100
AcDbEntity
  8
Ｓ_１_１
  6
CONTINUOUS
 62
     3
100
AcDbLine
 10
236.245003217006
 20
101.8140914956322
 30
0.0
 11
234.9458594562301
 21
102.5641524956322
 31
0.0
  0
LINE
  5
23B
330
1F
100
AcDbEntity
  8
Ｓ_１_１
  6
CONTINUOUS
 62
     3
100
AcDbLine
 10
228.7450032170062
 20
88.82371043886606
 30
0.0
 11
227.4458594562304
 21
89.57377143886602
 31
0.0
  0
LINE
  5
23C
330
1F
100
AcDbEntity
  8
Ｓ_１_１
  6
CONTINUOUS
 62
     3
100
AcDbLine
 10
216.4778274478541
 20
91.57616074131653
 30
0.0
 11
215.7948880113337
 21
91.39316693877043
 31
0.0
  0
LINE
  5
23D
330
1F
100
AcDbEntity
  8
Ｓ_１_１
  6
CONTINUOUS
 62
     3
100
AcDbLine
 10
227.5448019780121
 20
111.7447189136214
 30
0.0
 11
227.7277868715927
 21
111.0618400463203
 31
0.0
  0
LINE
  5
23E
330
1F
100
AcDbEntity
  8
Ｓ_１_１
  6
CONTINUOUS
 62
     3
100
AcDbLine
 10
240.0262070270207
 20
101.3631106083506
 30
0.0
 11
241.307301064622
 21
96.58200257074918
 31
0.0
  0
LINE
  5
23F
330
1F
100
AcDbEntity
  8
Ｓ_１_１
  6
CONTINUOUS
 62
     3
100
AcDbLine
 10
235.8071772351856
 20
87.05593665024533
 30
0.0
 11
231.0261270706514
 21
85.77485885173677
 31
0.0
  0
LINE
  5
240
330
1F
100
AcDbEntity
  8
Ｓ_１_１
  6
CONTINUOUS
 62
     3
100
AcDbLine
 10
243.6013040224581
 20
82.55582224643491
 30
0.0
 11
235.8072866985965
 21
87.05570024643498
 31
0.0
  0
LINE
  5
241
330
1F
100
AcDbEntity
  8
Ｓ_１_１
  6
EXLTYPE2
 62
     1
100
AcDbLine
 10
173.291646
 20
129.499993
 30
0.0
 11
252.6910113479893
 21
83.65874693872932
 31
0.0
  0
DIMENSION
  5
242
330
1F
100
AcDbEntity
  8
Ｓ_１_１
  6
CONTINUOUS
 62
     2
100
AcDbDimension
  2
*D18
 10
312.1932693135263
 20
196.417837477406
 30
0.0
 11
311.9925158737934
 21
214.2480835830971
 31
0.0
 70
   165
  3
ISO-25
100
AcDb3PointAngularDimension
 13
294.052723
 23
162.0
 33
0.0
 14
220.875635
 24
221.9726180000001
 34
0.0
 15
117.0000139087186
 25
162.0
 35
0.0
1001
ACAD
1000
DSTYLE
1002
{
1070
   270
1070
     2
1070
     6
1000
EX_NORM
1070
     7
1000
EX_NORM
1070
    41
1040
4.0
1070
    42
1040
2.0
1070
    44
1040
1.333333333333371
1070
    73
1070
     0
1070
    74
1070
     0
1070
    75
1070
     0
1070
    76
1070
     0
1070
    77
1070
     1
1070
    78
1070
     8
1070
    79
1070
     2
1070
   140
1040
4.617205542725173
1070
   147
1040
0.0
1070
   173
1070
     1
1070
   176
1070
     2
1070
   177
1070
     2
1070
   178
1070
     2
1070
   179
1070
     2
1070
   271
1070
     2
1070
   277
1070
     2
1070
   279
1070
     2
1070
   280
1070
     0
1070
   287
1070
     5
1070
   340
1005
114
1002
}
  0
DIMENSION
  5
250
330
1F
100
AcDbEntity
  8
Ｓ_１_１
  6
CONTINUOUS
 62
     2
100
AcDbDimension
  2
*D19
 10
303.2512481666865
 20
94.21008227703742
 30
0.0
 11
304.909058570023
 21
111.649914164345
 31
0.0
 70
   165
  3
ISO-25
100
AcDb3PointAngularDimension
 13
252.6910113479893
 23
83.6587469387293
 33
0.0
 14
294.0527229999999
 24
162.0
 34
0.0
 15
116.9999839854863
 25
162.0
 35
0.0
1001
ACAD
1000
DSTYLE
1002
{
1070
   270
1070
     2
1070
     6
1000
EX_NORM
1070
     7
1000
EX_NORM
1070
    41
1040
4.0
1070
    42
1040
2.000000000000028
1070
    44
1040
1.333333333333383
1070
    73
1070
     0
1070
    74
1070
     0
1070
    75
1070
     0
1070
    76
1070
     0
1070
    77
1070
     1
1070
    78
1070
     8
1070
    79
1070
     2
1070
   140
1040
4.617205542725173
1070
   147
1040
0.0
1070
   173
1070
     1
1070
   176
1070
     2
1070
   177
1070
     2
1070
   178
1070
     2
1070
   179
1070
     2
1070
   271
1070
     2
1070
   277
1070
     2
1070
   279
1070
     2
1070
   280
1070
     0
1070
   287
1070
     5
1070
   340
1005
114
1002
}
  0
POLYLINE
  5
25E
330
1F
100
AcDbEntity
  8
Ｓ_１_１
  6
CONTINUOUS
 62
     3
100
AcDb2dPolyline
 66
     1
 10
0.0
 20
0.0
 30
0.0
 70
   128
  0
VERTEX
  5
25F
330
25E
100
AcDbEntity
  8
Ｓ_１_１
  6
CONTINUOUS
 62
     3
100
AcDbVertex
100
AcDb2dVertex
 10
393.0
 20
124.0377845601807
 30
0.0
  0
VERTEX
  5
260
330
25E
100
AcDbEntity
  8
Ｓ_１_１
  6
CONTINUOUS
 62
     3
100
AcDbVertex
100
AcDb2dVertex
 10
390.4118014106737
 20
122.5850932267343
 30
0.0
  0
VERTEX
  5
261
330
25E
100
AcDbEntity
  8
Ｓ_１_１
  6
CONTINUOUS
 62
     3
100
AcDbVertex
100
AcDb2dVertex
 10
387.8004944191901
 20
121.2204310653472
 30
0.0
  0
VERTEX
  5
262
330
25E
100
AcDbEntity
  8
Ｓ_１_１
  6
CONTINUOUS
 62
     3
100
AcDbVertex
100
AcDb2dVertex
 10
385.1503824169598
 20
119.9517103154108
 30
0.0
  0
VERTEX
  5
263
330
25E
100
AcDbEntity
  8
Ｓ_１_１
  6
CONTINUOUS
 62
     3
100
AcDbVertex
100
AcDb2dVertex
 10
382.5
 20
118.7877845601807
 30
0.0
  0
SEQEND
  5
264
330
25E
100
AcDbEntity
  8
Ｓ_１_１
  6
CONTINUOUS
 62
     3
  0
POLYLINE
  5
265
330
1F
100
AcDbEntity
  8
Ｓ_１_１
  6
CONTINUOUS
 62
     3
100
AcDb2dPolyline
 66
     1
 10
0.0
 20
0.0
 30
0.0
 70
   128
  0
VERTEX
  5
266
330
265
100
AcDbEntity
  8
Ｓ_１_１
  6
CONTINUOUS
 62
     3
100
AcDbVertex
100
AcDb2dVertex
 10
403.5
 20
118.7877845601808
 30
0.0
  0
VERTEX
  5
267
330
265
100
AcDbEntity
  8
Ｓ_１_１
  6
CONTINUOUS
 62
     3
100
AcDbVertex
100
AcDb2dVertex
 10
400.9118014106737
 20
119.9232918160607
 30
0.0
  0
VERTEX
  5
268
330
265
100
AcDbEntity
  8
Ｓ_１_１
  6
CONTINUOUS
 62
     3
100
AcDbVertex
100
AcDb2dVertex
 10
398.3004944191903
 20
121.169936646157
 30
0.0
  0
VERTEX
  5
269
330
265
100
AcDbEntity
  8
Ｓ_１_１
  6
CONTINUOUS
 62
     3
100
AcDbVertex
100
AcDb2dVertex
 10
395.6503824169598
 20
122.5513278984511
 30
0.0
  0
VERTEX
  5
26A
330
265
100
AcDbEntity
  8
Ｓ_１_１
  6
CONTINUOUS
 62
     3
100
AcDbVertex
100
AcDb2dVertex
 10
393.0
 20
124.0377845601807
 30
0.0
  0
SEQEND
  5
26B
330
265
100
AcDbEntity
  8
Ｓ_１_１
  6
CONTINUOUS
 62
     3
  0
LINE
  5
26C
330
1F
100
AcDbEntity
  8
Ｓ_１_１
  6
CONTINUOUS
 62
     3
100
AcDbLine
 10
393.0
 20
124.0377845601807
 30
0.0
 11
393.0
 21
128.0018861753185
 31
0.0
  0
LINE
  5
26D
330
1F
100
AcDbEntity
  8
Ｓ_１_１
  6
CONTINUOUS
 62
     3
100
AcDbLine
 10
382.5
 20
118.7877845601807
 30
0.0
 11
382.5
 21
122.7518861753185
 31
0.0
  0
POLYLINE
  5
26E
330
1F
100
AcDbEntity
  8
Ｓ_１_１
  6
CONTINUOUS
 62
     3
100
AcDb2dPolyline
 66
     1
 10
0.0
 20
0.0
 30
0.0
 70
   128
  0
VERTEX
  5
26F
330
26E
100
AcDbEntity
  8
Ｓ_１_１
  6
CONTINUOUS
 62
     3
100
AcDbVertex
100
AcDb2dVertex
 10
382.5
 20
122.7518861753185
 30
0.0
  0
VERTEX
  5
270
330
26E
100
AcDbEntity
  8
Ｓ_１_１
  6
CONTINUOUS
 62
     3
100
AcDbVertex
100
AcDb2dVertex
 10
385.0881985893264
 20
124.2045775087649
 30
0.0
  0
VERTEX
  5
271
330
26E
100
AcDbEntity
  8
Ｓ_１_１
  6
CONTINUOUS
 62
     3
100
AcDbVertex
100
AcDb2dVertex
 10
387.6995055808099
 20
125.5692396701521
 30
0.0
  0
VERTEX
  5
272
330
26E
100
AcDbEntity
  8
Ｓ_１_１
  6
CONTINUOUS
 62
     3
100
AcDbVertex
100
AcDb2dVertex
 10
390.3496175830403
 20
126.8379604200884
 30
0.0
  0
VERTEX
  5
273
330
26E
100
AcDbEntity
  8
Ｓ_１_１
  6
CONTINUOUS
 62
     3
100
AcDbVertex
100
AcDb2dVertex
 10
393.0
 20
128.0018861753185
 30
0.0
  0
SEQEND
  5
274
330
26E
100
AcDbEntity
  8
Ｓ_１_１
  6
CONTINUOUS
 62
     3
  0
LINE
  5
275
330
1F
100
AcDbEntity
  8
Ｓ_１_１
  6
CONTINUOUS
 62
     3
100
AcDbLine
 10
403.5
 20
118.7877845601808
 30
0.0
 11
403.5
 21
122.7518861753185
 31
0.0
  0
POLYLINE
  5
276
330
1F
100
AcDbEntity
  8
Ｓ_１_１
  6
CONTINUOUS
 62
     3
100
AcDb2dPolyline
 66
     1
 10
0.0
 20
0.0
 30
0.0
 70
   128
  0
VERTEX
  5
277
330
276
100
AcDbEntity
  8
Ｓ_１_１
  6
CONTINUOUS
 62
     3
100
AcDbVertex
100
AcDb2dVertex
 10
393.0
 20
128.0018861753185
 30
0.0
  0
VERTEX
  5
278
330
276
100
AcDbEntity
  8
Ｓ_１_１
  6
CONTINUOUS
 62
     3
100
AcDbVertex
100
AcDb2dVertex
 10
395.5881985893264
 20
126.8663789194385
 30
0.0
  0
VERTEX
  5
279
330
276
100
AcDbEntity
  8
Ｓ_１_１
  6
CONTINUOUS
 62
     3
100
AcDbVertex
100
AcDb2dVertex
 10
398.1995055808099
 20
125.6197340893423
 30
0.0
  0
VERTEX
  5
27A
330
276
100
AcDbEntity
  8
Ｓ_１_１
  6
CONTINUOUS
 62
     3
100
AcDbVertex
100
AcDb2dVertex
 10
400.8496175830403
 20
124.2383428370482
 30
0.0
  0
VERTEX
  5
27B
330
276
100
AcDbEntity
  8
Ｓ_１_１
  6
CONTINUOUS
 62
     3
100
AcDbVertex
100
AcDb2dVertex
 10
403.5
 20
122.7518861753185
 30
0.0
  0
SEQEND
  5
27C
330
276
100
AcDbEntity
  8
Ｓ_１_１
  6
CONTINUOUS
 62
     3
  0
LINE
  5
27D
330
1F
100
AcDbEntity
  8
Ｓ_１_１
  6
CONTINUOUS
 62
     3
100
AcDbLine
 10
387.4999999999999
 20
91.81886566882599
 30
0.0
 11
387.4999999999999
 21
87.318864668826
 31
0.0
  0
LINE
  5
27E
330
1F
100
AcDbEntity
  8
Ｓ_１_１
  6
CONTINUOUS
 62
     3
100
AcDbLine
 10
398.4999999999999
 20
91.81886566882599
 30
0.0
 11
398.4999999999999
 21
87.318864668826
 31
0.0
  0
LINE
  5
27F
330
1F
100
AcDbEntity
  8
Ｓ_１_１
  6
CONTINUOUS
 62
     3
100
AcDbLine
 10
401.9999999999999
 20
101.318866668826
 30
0.0
 11
401.9999999999999
 21
93.56885766882601
 31
0.0
  0
LINE
  5
280
330
1F
100
AcDbEntity
  8
Ｓ_１_１
  6
CONTINUOUS
 62
     3
100
AcDbLine
 10
383.9999999999999
 20
101.318866668826
 30
0.0
 11
383.9999999999999
 21
93.56885766882601
 31
0.0
  0
LINE
  5
281
330
1F
100
AcDbEntity
  8
Ｓ_１_１
  6
CONTINUOUS
 62
     3
100
AcDbLine
 10
404.7499999999999
 20
105.818866668826
 30
0.0
 11
404.7499999999999
 21
101.568866668826
 31
0.0
  0
LINE
  5
282
330
1F
100
AcDbEntity
  8
Ｓ_１_１
  6
CONTINUOUS
 62
     3
100
AcDbLine
 10
381.2499999999999
 20
105.818866668826
 30
0.0
 11
381.2499999999999
 21
101.568866668826
 31
0.0
  0
POLYLINE
  5
283
330
1F
100
AcDbEntity
  8
Ｓ_１_１
  6
CONTINUOUS
 62
     3
100
AcDb2dPolyline
 66
     1
 10
0.0
 20
0.0
 30
0.0
 70
   128
  0
VERTEX
  5
284
330
283
100
AcDbEntity
  8
Ｓ_１_１
  6
CONTINUOUS
 62
     3
100
AcDbVertex
100
AcDb2dVertex
 10
394.4999999999999
 20
85.81887266882602
 30
0.0
  0
VERTEX
  5
285
330
283
100
AcDbEntity
  8
Ｓ_１_１
  6
CONTINUOUS
 62
     3
100
AcDbVertex
100
AcDb2dVertex
 10
394.4942919999999
 20
85.93209066882599
 30
0.0
  0
VERTEX
  5
286
330
283
100
AcDbEntity
  8
Ｓ_１_１
  6
CONTINUOUS
 62
     3
100
AcDbVertex
100
AcDb2dVertex
 10
394.477212
 20
86.04444766882598
 30
0.0
  0
VERTEX
  5
287
330
283
100
AcDbEntity
  8
Ｓ_１_１
  6
CONTINUOUS
 62
     3
100
AcDbVertex
100
AcDb2dVertex
 10
394.448889
 20
86.15508666882602
 30
0.0
  0
VERTEX
  5
288
330
283
100
AcDbEntity
  8
Ｓ_１_１
  6
CONTINUOUS
 62
     3
100
AcDbVertex
100
AcDb2dVertex
 10
394.4095389999999
 20
86.26316766882599
 30
0.0
  0
VERTEX
  5
289
330
283
100
AcDbEntity
  8
Ｓ_１_１
  6
CONTINUOUS
 62
     3
100
AcDbVertex
100
AcDb2dVertex
 10
394.359462
 20
86.36786766882601
 30
0.0
  0
VERTEX
  5
28A
330
283
100
AcDbEntity
  8
Ｓ_１_１
  6
CONTINUOUS
 62
     3
100
AcDbVertex
100
AcDb2dVertex
 10
394.2990379999999
 20
86.468388668826
 30
0.0
  0
VERTEX
  5
28B
330
283
100
AcDbEntity
  8
Ｓ_１_１
  6
CONTINUOUS
 62
     3
100
AcDbVertex
100
AcDb2dVertex
 10
394.228728
 20
86.56396666882601
 30
0.0
  0
VERTEX
  5
28C
330
283
100
AcDbEntity
  8
Ｓ_１_１
  6
CONTINUOUS
 62
     3
100
AcDbVertex
100
AcDb2dVertex
 10
394.149067
 20
86.653874668826
 30
0.0
  0
VERTEX
  5
28D
330
283
100
AcDbEntity
  8
Ｓ_１_１
  6
CONTINUOUS
 62
     3
100
AcDbVertex
100
AcDb2dVertex
 10
394.0606599999999
 20
86.737426668826
 30
0.0
  0
VERTEX
  5
28E
330
283
100
AcDbEntity
  8
Ｓ_１_１
  6
CONTINUOUS
 62
     3
100
AcDbVertex
100
AcDb2dVertex
 10
393.964181
 20
86.81398866882598
 30
0.0
  0
VERTEX
  5
28F
330
283
100
AcDbEntity
  8
Ｓ_１_１
  6
CONTINUOUS
 62
     3
100
AcDbVertex
100
AcDb2dVertex
 10
393.8603649999999
 20
86.88297666882602
 30
0.0
  0
VERTEX
  5
290
330
283
100
AcDbEntity
  8
Ｓ_１_１
  6
CONTINUOUS
 62
     3
100
AcDbVertex
100
AcDb2dVertex
 10
393.7499999999999
 20
86.94386666882599
 30
0.0
  0
VERTEX
  5
291
330
283
100
AcDbEntity
  8
Ｓ_１_１
  6
CONTINUOUS
 62
     3
100
AcDbVertex
100
AcDb2dVertex
 10
393.6339269999999
 20
86.99619566882602
 30
0.0
  0
VERTEX
  5
292
330
283
100
AcDbEntity
  8
Ｓ_１_１
  6
CONTINUOUS
 62
     3
100
AcDbVertex
100
AcDb2dVertex
 10
393.51303
 20
87.03956266882601
 30
0.0
  0
VERTEX
  5
293
330
283
100
AcDbEntity
  8
Ｓ_１_１
  6
CONTINUOUS
 62
     3
100
AcDbVertex
100
AcDb2dVertex
 10
393.388229
 20
87.07364066882599
 30
0.0
  0
VERTEX
  5
294
330
283
100
AcDbEntity
  8
Ｓ_１_１
  6
CONTINUOUS
 62
     3
100
AcDbVertex
100
AcDb2dVertex
 10
393.260472
 20
87.09816866882598
 30
0.0
  0
VERTEX
  5
295
330
283
100
AcDbEntity
  8
Ｓ_１_１
  6
CONTINUOUS
 62
     3
100
AcDbVertex
100
AcDb2dVertex
 10
393.130734
 20
87.112960668826
 30
0.0
  0
VERTEX
  5
296
330
283
100
AcDbEntity
  8
Ｓ_１_１
  6
CONTINUOUS
 62
     3
100
AcDbVertex
100
AcDb2dVertex
 10
392.9999999999999
 20
87.11790466882599
 30
0.0
  0
VERTEX
  5
297
330
283
100
AcDbEntity
  8
Ｓ_１_１
  6
CONTINUOUS
 62
     3
100
AcDbVertex
100
AcDb2dVertex
 10
392.869266
 20
87.112960668826
 30
0.0
  0
VERTEX
  5
298
330
283
100
AcDbEntity
  8
Ｓ_１_１
  6
CONTINUOUS
 62
     3
100
AcDbVertex
100
AcDb2dVertex
 10
392.739528
 20
87.09816866882598
 30
0.0
  0
VERTEX
  5
299
330
283
100
AcDbEntity
  8
Ｓ_１_１
  6
CONTINUOUS
 62
     3
100
AcDbVertex
100
AcDb2dVertex
 10
392.6117709999999
 20
87.07364066882599
 30
0.0
  0
VERTEX
  5
29A
330
283
100
AcDbEntity
  8
Ｓ_１_１
  6
CONTINUOUS
 62
     3
100
AcDbVertex
100
AcDb2dVertex
 10
392.48697
 20
87.03956266882601
 30
0.0
  0
VERTEX
  5
29B
330
283
100
AcDbEntity
  8
Ｓ_１_１
  6
CONTINUOUS
 62
     3
100
AcDbVertex
100
AcDb2dVertex
 10
392.366073
 20
86.99619566882602
 30
0.0
  0
VERTEX
  5
29C
330
283
100
AcDbEntity
  8
Ｓ_１_１
  6
CONTINUOUS
 62
     3
100
AcDbVertex
100
AcDb2dVertex
 10
392.2499999999999
 20
86.94386666882599
 30
0.0
  0
VERTEX
  5
29D
330
283
100
AcDbEntity
  8
Ｓ_１_１
  6
CONTINUOUS
 62
     3
100
AcDbVertex
100
AcDb2dVertex
 10
392.1396349999999
 20
86.88297666882602
 30
0.0
  0
VERTEX
  5
29E
330
283
100
AcDbEntity
  8
Ｓ_１_１
  6
CONTINUOUS
 62
     3
100
AcDbVertex
100
AcDb2dVertex
 10
392.035819
 20
86.81398866882598
 30
0.0
  0
VERTEX
  5
29F
330
283
100
AcDbEntity
  8
Ｓ_１_１
  6
CONTINUOUS
 62
     3
100
AcDbVertex
100
AcDb2dVertex
 10
391.93934
 20
86.737426668826
 30
0.0
  0
VERTEX
  5
2A0
330
283
100
AcDbEntity
  8
Ｓ_１_１
  6
CONTINUOUS
 62
     3
100
AcDbVertex
100
AcDb2dVertex
 10
391.850933
 20
86.653874668826
 30
0.0
  0
VERTEX
  5
2A1
330
283
100
AcDbEntity
  8
Ｓ_１_１
  6
CONTINUOUS
 62
     3
100
AcDbVertex
100
AcDb2dVertex
 10
391.771272
 20
86.56396666882601
 30
0.0
  0
VERTEX
  5
2A2
330
283
100
AcDbEntity
  8
Ｓ_１_１
  6
CONTINUOUS
 62
     3
100
AcDbVertex
100
AcDb2dVertex
 10
391.7009619999999
 20
86.468388668826
 30
0.0
  0
VERTEX
  5
2A3
330
283
100
AcDbEntity
  8
Ｓ_１_１
  6
CONTINUOUS
 62
     3
100
AcDbVertex
100
AcDb2dVertex
 10
391.6405379999999
 20
86.36786766882601
 30
0.0
  0
VERTEX
  5
2A4
330
283
100
AcDbEntity
  8
Ｓ_１_１
  6
CONTINUOUS
 62
     3
100
AcDbVertex
100
AcDb2dVertex
 10
391.5904609999999
 20
86.26316766882599
 30
0.0
  0
VERTEX
  5
2A5
330
283
100
AcDbEntity
  8
Ｓ_１_１
  6
CONTINUOUS
 62
     3
100
AcDbVertex
100
AcDb2dVertex
 10
391.5511109999999
 20
86.15508666882602
 30
0.0
  0
VERTEX
  5
2A6
330
283
100
AcDbEntity
  8
Ｓ_１_１
  6
CONTINUOUS
 62
     3
100
AcDbVertex
100
AcDb2dVertex
 10
391.5227879999999
 20
86.04444766882598
 30
0.0
  0
VERTEX
  5
2A7
330
283
100
AcDbEntity
  8
Ｓ_１_１
  6
CONTINUOUS
 62
     3
100
AcDbVertex
100
AcDb2dVertex
 10
391.505708
 20
85.93209066882599
 30
0.0
  0
VERTEX
  5
2A8
330
283
100
AcDbEntity
  8
Ｓ_１_１
  6
CONTINUOUS
 62
     3
100
AcDbVertex
100
AcDb2dVertex
 10
391.4999999999999
 20
85.81887266882602
 30
0.0
  0
VERTEX
  5
2A9
330
283
100
AcDbEntity
  8
Ｓ_１_１
  6
CONTINUOUS
 62
     3
100
AcDbVertex
100
AcDb2dVertex
 10
391.505708
 20
85.70565466882601
 30
0.0
  0
VERTEX
  5
2AA
330
283
100
AcDbEntity
  8
Ｓ_１_１
  6
CONTINUOUS
 62
     3
100
AcDbVertex
100
AcDb2dVertex
 10
391.5227879999999
 20
85.593298668826
 30
0.0
  0
VERTEX
  5
2AB
330
283
100
AcDbEntity
  8
Ｓ_１_１
  6
CONTINUOUS
 62
     3
100
AcDbVertex
100
AcDb2dVertex
 10
391.5511109999999
 20
85.48265866882599
 30
0.0
  0
VERTEX
  5
2AC
330
283
100
AcDbEntity
  8
Ｓ_１_１
  6
CONTINUOUS
 62
     3
100
AcDbVertex
100
AcDb2dVertex
 10
391.5904609999999
 20
85.374577668826
 30
0.0
  0
VERTEX
  5
2AD
330
283
100
AcDbEntity
  8
Ｓ_１_１
  6
CONTINUOUS
 62
     3
100
AcDbVertex
100
AcDb2dVertex
 10
391.6405379999999
 20
85.26987866882598
 30
0.0
  0
VERTEX
  5
2AE
330
283
100
AcDbEntity
  8
Ｓ_１_１
  6
CONTINUOUS
 62
     3
100
AcDbVertex
100
AcDb2dVertex
 10
391.7009619999999
 20
85.169356668826
 30
0.0
  0
VERTEX
  5
2AF
330
283
100
AcDbEntity
  8
Ｓ_１_１
  6
CONTINUOUS
 62
     3
100
AcDbVertex
100
AcDb2dVertex
 10
391.771272
 20
85.07377866882601
 30
0.0
  0
VERTEX
  5
2B0
330
283
100
AcDbEntity
  8
Ｓ_１_１
  6
CONTINUOUS
 62
     3
100
AcDbVertex
100
AcDb2dVertex
 10
391.850933
 20
84.983871668826
 30
0.0
  0
VERTEX
  5
2B1
330
283
100
AcDbEntity
  8
Ｓ_１_１
  6
CONTINUOUS
 62
     3
100
AcDbVertex
100
AcDb2dVertex
 10
391.93934
 20
84.900318668826
 30
0.0
  0
VERTEX
  5
2B2
330
283
100
AcDbEntity
  8
Ｓ_１_１
  6
CONTINUOUS
 62
     3
100
AcDbVertex
100
AcDb2dVertex
 10
392.035819
 20
84.82375666882601
 30
0.0
  0
VERTEX
  5
2B3
330
283
100
AcDbEntity
  8
Ｓ_１_１
  6
CONTINUOUS
 62
     3
100
AcDbVertex
100
AcDb2dVertex
 10
392.1396349999999
 20
84.75476866882599
 30
0.0
  0
VERTEX
  5
2B4
330
283
100
AcDbEntity
  8
Ｓ_１_１
  6
CONTINUOUS
 62
     3
100
AcDbVertex
100
AcDb2dVertex
 10
392.2499999999999
 20
84.69387866882602
 30
0.0
  0
VERTEX
  5
2B5
330
283
100
AcDbEntity
  8
Ｓ_１_１
  6
CONTINUOUS
 62
     3
100
AcDbVertex
100
AcDb2dVertex
 10
392.366073
 20
84.641550668826
 30
0.0
  0
VERTEX
  5
2B6
330
283
100
AcDbEntity
  8
Ｓ_１_１
  6
CONTINUOUS
 62
     3
100
AcDbVertex
100
AcDb2dVertex
 10
392.48697
 20
84.59818266882598
 30
0.0
  0
VERTEX
  5
2B7
330
283
100
AcDbEntity
  8
Ｓ_１_１
  6
CONTINUOUS
 62
     3
100
AcDbVertex
100
AcDb2dVertex
 10
392.6117709999999
 20
84.56410466882599
 30
0.0
  0
VERTEX
  5
2B8
330
283
100
AcDbEntity
  8
Ｓ_１_１
  6
CONTINUOUS
 62
     3
100
AcDbVertex
100
AcDb2dVertex
 10
392.739528
 20
84.53957666882599
 30
0.0
  0
VERTEX
  5
2B9
330
283
100
AcDbEntity
  8
Ｓ_１_１
  6
CONTINUOUS
 62
     3
100
AcDbVertex
100
AcDb2dVertex
 10
392.869266
 20
84.52478466882599
 30
0.0
  0
VERTEX
  5
2BA
330
283
100
AcDbEntity
  8
Ｓ_１_１
  6
CONTINUOUS
 62
     3
100
AcDbVertex
100
AcDb2dVertex
 10
392.9999999999999
 20
84.51984166882602
 30
0.0
  0
VERTEX
  5
2BB
330
283
100
AcDbEntity
  8
Ｓ_１_１
  6
CONTINUOUS
 62
     3
100
AcDbVertex
100
AcDb2dVertex
 10
393.130734
 20
84.52478466882599
 30
0.0
  0
VERTEX
  5
2BC
330
283
100
AcDbEntity
  8
Ｓ_１_１
  6
CONTINUOUS
 62
     3
100
AcDbVertex
100
AcDb2dVertex
 10
393.260472
 20
84.53957666882599
 30
0.0
  0
VERTEX
  5
2BD
330
283
100
AcDbEntity
  8
Ｓ_１_１
  6
CONTINUOUS
 62
     3
100
AcDbVertex
100
AcDb2dVertex
 10
393.388229
 20
84.56410466882599
 30
0.0
  0
VERTEX
  5
2BE
330
283
100
AcDbEntity
  8
Ｓ_１_１
  6
CONTINUOUS
 62
     3
100
AcDbVertex
100
AcDb2dVertex
 10
393.51303
 20
84.59818266882598
 30
0.0
  0
VERTEX
  5
2BF
330
283
100
AcDbEntity
  8
Ｓ_１_１
  6
CONTINUOUS
 62
     3
100
AcDbVertex
100
AcDb2dVertex
 10
393.6339269999999
 20
84.641550668826
 30
0.0
  0
VERTEX
  5
2C0
330
283
100
AcDbEntity
  8
Ｓ_１_１
  6
CONTINUOUS
 62
     3
100
AcDbVertex
100
AcDb2dVertex
 10
393.7499999999999
 20
84.69387866882602
 30
0.0
  0
VERTEX
  5
2C1
330
283
100
AcDbEntity
  8
Ｓ_１_１
  6
CONTINUOUS
 62
     3
100
AcDbVertex
100
AcDb2dVertex
 10
393.8603649999999
 20
84.75476866882599
 30
0.0
  0
VERTEX
  5
2C2
330
283
100
AcDbEntity
  8
Ｓ_１_１
  6
CONTINUOUS
 62
     3
100
AcDbVertex
100
AcDb2dVertex
 10
393.964181
 20
84.82375666882601
 30
0.0
  0
VERTEX
  5
2C3
330
283
100
AcDbEntity
  8
Ｓ_１_１
  6
CONTINUOUS
 62
     3
100
AcDbVertex
100
AcDb2dVertex
 10
394.0606599999999
 20
84.900318668826
 30
0.0
  0
VERTEX
  5
2C4
330
283
100
AcDbEntity
  8
Ｓ_１_１
  6
CONTINUOUS
 62
     3
100
AcDbVertex
100
AcDb2dVertex
 10
394.149067
 20
84.983871668826
 30
0.0
  0
VERTEX
  5
2C5
330
283
100
AcDbEntity
  8
Ｓ_１_１
  6
CONTINUOUS
 62
     3
100
AcDbVertex
100
AcDb2dVertex
 10
394.228728
 20
85.07377866882601
 30
0.0
  0
VERTEX
  5
2C6
330
283
100
AcDbEntity
  8
Ｓ_１_１
  6
CONTINUOUS
 62
     3
100
AcDbVertex
100
AcDb2dVertex
 10
394.2990379999999
 20
85.169356668826
 30
0.0
  0
VERTEX
  5
2C7
330
283
100
AcDbEntity
  8
Ｓ_１_１
  6
CONTINUOUS
 62
     3
100
AcDbVertex
100
AcDb2dVertex
 10
394.359462
 20
85.26987866882598
 30
0.0
  0
VERTEX
  5
2C8
330
283
100
AcDbEntity
  8
Ｓ_１_１
  6
CONTINUOUS
 62
     3
100
AcDbVertex
100
AcDb2dVertex
 10
394.4095389999999
 20
85.374577668826
 30
0.0
  0
VERTEX
  5
2C9
330
283
100
AcDbEntity
  8
Ｓ_１_１
  6
CONTINUOUS
 62
     3
100
AcDbVertex
100
AcDb2dVertex
 10
394.448889
 20
85.48265866882599
 30
0.0
  0
VERTEX
  5
2CA
330
283
100
AcDbEntity
  8
Ｓ_１_１
  6
CONTINUOUS
 62
     3
100
AcDbVertex
100
AcDb2dVertex
 10
394.477212
 20
85.593298668826
 30
0.0
  0
VERTEX
  5
2CB
330
283
100
AcDbEntity
  8
Ｓ_１_１
  6
CONTINUOUS
 62
     3
100
AcDbVertex
100
AcDb2dVertex
 10
394.4942919999999
 20
85.70565466882601
 30
0.0
  0
VERTEX
  5
2CC
330
283
100
AcDbEntity
  8
Ｓ_１_１
  6
CONTINUOUS
 62
     3
100
AcDbVertex
100
AcDb2dVertex
 10
394.4999999999999
 20
85.81887266882602
 30
0.0
  0
SEQEND
  5
2CD
330
283
100
AcDbEntity
  8
Ｓ_１_１
  6
CONTINUOUS
 62
     3
  0
POLYLINE
  5
2CE
330
1F
100
AcDbEntity
  8
Ｓ_１_１
  6
CONTINUOUS
 62
     3
100
AcDb2dPolyline
 66
     1
 10
0.0
 20
0.0
 30
0.0
 70
   128
  0
VERTEX
  5
2CF
330
2CE
100
AcDbEntity
  8
Ｓ_１_１
  6
CONTINUOUS
 62
     3
100
AcDbVertex
100
AcDb2dVertex
 10
397.4999999999999
 20
86.81886566882599
 30
0.0
  0
VERTEX
  5
2D0
330
2CE
100
AcDbEntity
  8
Ｓ_１_１
  6
CONTINUOUS
 62
     3
100
AcDbVertex
100
AcDb2dVertex
 10
397.482876
 20
87.15852166882598
 30
0.0
  0
VERTEX
  5
2D1
330
2CE
100
AcDbEntity
  8
Ｓ_１_１
  6
CONTINUOUS
 62
     3
100
AcDbVertex
100
AcDb2dVertex
 10
397.431635
 20
87.49559266882598
 30
0.0
  0
VERTEX
  5
2D2
330
2CE
100
AcDbEntity
  8
Ｓ_１_１
  6
CONTINUOUS
 62
     3
100
AcDbVertex
100
AcDb2dVertex
 10
397.346666
 20
87.82751366882599
 30
0.0
  0
VERTEX
  5
2D3
330
2CE
100
AcDbEntity
  8
Ｓ_１_１
  6
CONTINUOUS
 62
     3
100
AcDbVertex
100
AcDb2dVertex
 10
397.2286169999999
 20
88.15175766882601
 30
0.0
  0
VERTEX
  5
2D4
330
2CE
100
AcDbEntity
  8
Ｓ_１_１
  6
CONTINUOUS
 62
     3
100
AcDbVertex
100
AcDb2dVertex
 10
397.078385
 20
88.465857668826
 30
0.0
  0
VERTEX
  5
2D5
330
2CE
100
AcDbEntity
  8
Ｓ_１_１
  6
CONTINUOUS
 62
     3
100
AcDbVertex
100
AcDb2dVertex
 10
396.8971139999999
 20
88.76742266882599
 30
0.0
  0
VERTEX
  5
2D6
330
2CE
100
AcDbEntity
  8
Ｓ_１_１
  6
CONTINUOUS
 62
     3
100
AcDbVertex
100
AcDb2dVertex
 10
396.686184
 20
89.054158668826
 30
0.0
  0
VERTEX
  5
2D7
330
2CE
100
AcDbEntity
  8
Ｓ_１_１
  6
CONTINUOUS
 62
     3
100
AcDbVertex
100
AcDb2dVertex
 10
396.4472
 20
89.323882668826
 30
0.0
  0
VERTEX
  5
2D8
330
2CE
100
AcDbEntity
  8
Ｓ_１_１
  6
CONTINUOUS
 62
     3
100
AcDbVertex
100
AcDb2dVertex
 10
396.181981
 20
89.57454166882599
 30
0.0
  0
VERTEX
  5
2D9
330
2CE
100
AcDbEntity
  8
Ｓ_１_１
  6
CONTINUOUS
 62
     3
100
AcDbVertex
100
AcDb2dVertex
 10
395.892544
 20
89.804228668826
 30
0.0
  0
VERTEX
  5
2DA
330
2CE
100
AcDbEntity
  8
Ｓ_１_１
  6
CONTINUOUS
 62
     3
100
AcDbVertex
100
AcDb2dVertex
 10
395.581094
 20
90.01119466882601
 30
0.0
  0
VERTEX
  5
2DB
330
2CE
100
AcDbEntity
  8
Ｓ_１_１
  6
CONTINUOUS
 62
     3
100
AcDbVertex
100
AcDb2dVertex
 10
395.2499999999999
 20
90.19386566882599
 30
0.0
  0
VERTEX
  5
2DC
330
2CE
100
AcDbEntity
  8
Ｓ_１_１
  6
CONTINUOUS
 62
     3
100
AcDbVertex
100
AcDb2dVertex
 10
394.901782
 20
90.35085066882601
 30
0.0
  0
VERTEX
  5
2DD
330
2CE
100
AcDbEntity
  8
Ｓ_１_１
  6
CONTINUOUS
 62
     3
100
AcDbVertex
100
AcDb2dVertex
 10
394.5390909999999
 20
90.48095566882598
 30
0.0
  0
VERTEX
  5
2DE
330
2CE
100
AcDbEntity
  8
Ｓ_１_１
  6
CONTINUOUS
 62
     3
100
AcDbVertex
100
AcDb2dVertex
 10
394.164686
 20
90.58318966882602
 30
0.0
  0
VERTEX
  5
2DF
330
2CE
100
AcDbEntity
  8
Ｓ_１_１
  6
CONTINUOUS
 62
     3
100
AcDbVertex
100
AcDb2dVertex
 10
393.781417
 20
90.65677466882602
 30
0.0
  0
VERTEX
  5
2E0
330
2CE
100
AcDbEntity
  8
Ｓ_１_１
  6
CONTINUOUS
 62
     3
100
AcDbVertex
100
AcDb2dVertex
 10
393.3922009999999
 20
90.70115066882602
 30
0.0
  0
VERTEX
  5
2E1
330
2CE
100
AcDbEntity
  8
Ｓ_１_１
  6
CONTINUOUS
 62
     3
100
AcDbVertex
100
AcDb2dVertex
 10
392.9999999999999
 20
90.71598066882602
 30
0.0
  0
VERTEX
  5
2E2
330
2CE
100
AcDbEntity
  8
Ｓ_１_１
  6
CONTINUOUS
 62
     3
100
AcDbVertex
100
AcDb2dVertex
 10
392.6077989999999
 20
90.70115066882602
 30
0.0
  0
VERTEX
  5
2E3
330
2CE
100
AcDbEntity
  8
Ｓ_１_１
  6
CONTINUOUS
 62
     3
100
AcDbVertex
100
AcDb2dVertex
 10
392.2185829999999
 20
90.65677466882602
 30
0.0
  0
VERTEX
  5
2E4
330
2CE
100
AcDbEntity
  8
Ｓ_１_１
  6
CONTINUOUS
 62
     3
100
AcDbVertex
100
AcDb2dVertex
 10
391.835314
 20
90.58318966882602
 30
0.0
  0
VERTEX
  5
2E5
330
2CE
100
AcDbEntity
  8
Ｓ_１_１
  6
CONTINUOUS
 62
     3
100
AcDbVertex
100
AcDb2dVertex
 10
391.460909
 20
90.48095566882598
 30
0.0
  0
VERTEX
  5
2E6
330
2CE
100
AcDbEntity
  8
Ｓ_１_１
  6
CONTINUOUS
 62
     3
100
AcDbVertex
100
AcDb2dVertex
 10
391.0982179999999
 20
90.35085066882601
 30
0.0
  0
VERTEX
  5
2E7
330
2CE
100
AcDbEntity
  8
Ｓ_１_１
  6
CONTINUOUS
 62
     3
100
AcDbVertex
100
AcDb2dVertex
 10
390.7499999999999
 20
90.19386566882599
 30
0.0
  0
VERTEX
  5
2E8
330
2CE
100
AcDbEntity
  8
Ｓ_１_１
  6
CONTINUOUS
 62
     3
100
AcDbVertex
100
AcDb2dVertex
 10
390.4189059999999
 20
90.01119466882601
 30
0.0
  0
VERTEX
  5
2E9
330
2CE
100
AcDbEntity
  8
Ｓ_１_１
  6
CONTINUOUS
 62
     3
100
AcDbVertex
100
AcDb2dVertex
 10
390.107456
 20
89.804228668826
 30
0.0
  0
VERTEX
  5
2EA
330
2CE
100
AcDbEntity
  8
Ｓ_１_１
  6
CONTINUOUS
 62
     3
100
AcDbVertex
100
AcDb2dVertex
 10
389.818019
 20
89.57454166882599
 30
0.0
  0
VERTEX
  5
2EB
330
2CE
100
AcDbEntity
  8
Ｓ_１_１
  6
CONTINUOUS
 62
     3
100
AcDbVertex
100
AcDb2dVertex
 10
389.5528
 20
89.323882668826
 30
0.0
  0
VERTEX
  5
2EC
330
2CE
100
AcDbEntity
  8
Ｓ_１_１
  6
CONTINUOUS
 62
     3
100
AcDbVertex
100
AcDb2dVertex
 10
389.3138159999999
 20
89.054158668826
 30
0.0
  0
VERTEX
  5
2ED
330
2CE
100
AcDbEntity
  8
Ｓ_１_１
  6
CONTINUOUS
 62
     3
100
AcDbVertex
100
AcDb2dVertex
 10
389.102886
 20
88.76742266882599
 30
0.0
  0
VERTEX
  5
2EE
330
2CE
100
AcDbEntity
  8
Ｓ_１_１
  6
CONTINUOUS
 62
     3
100
AcDbVertex
100
AcDb2dVertex
 10
388.9216149999999
 20
88.465857668826
 30
0.0
  0
VERTEX
  5
2EF
330
2CE
100
AcDbEntity
  8
Ｓ_１_１
  6
CONTINUOUS
 62
     3
100
AcDbVertex
100
AcDb2dVertex
 10
388.771383
 20
88.15175766882601
 30
0.0
  0
VERTEX
  5
2F0
330
2CE
100
AcDbEntity
  8
Ｓ_１_１
  6
CONTINUOUS
 62
     3
100
AcDbVertex
100
AcDb2dVertex
 10
388.6533339999999
 20
87.82751366882599
 30
0.0
  0
VERTEX
  5
2F1
330
2CE
100
AcDbEntity
  8
Ｓ_１_１
  6
CONTINUOUS
 62
     3
100
AcDbVertex
100
AcDb2dVertex
 10
388.5683649999999
 20
87.49559266882598
 30
0.0
  0
VERTEX
  5
2F2
330
2CE
100
AcDbEntity
  8
Ｓ_１_１
  6
CONTINUOUS
 62
     3
100
AcDbVertex
100
AcDb2dVertex
 10
388.5171239999999
 20
87.15852166882598
 30
0.0
  0
VERTEX
  5
2F3
330
2CE
100
AcDbEntity
  8
Ｓ_１_１
  6
CONTINUOUS
 62
     3
100
AcDbVertex
100
AcDb2dVertex
 10
388.4999999999999
 20
86.81886566882599
 30
0.0
  0
VERTEX
  5
2F4
330
2CE
100
AcDbEntity
  8
Ｓ_１_１
  6
CONTINUOUS
 62
     3
100
AcDbVertex
100
AcDb2dVertex
 10
388.5171239999999
 20
86.479209668826
 30
0.0
  0
VERTEX
  5
2F5
330
2CE
100
AcDbEntity
  8
Ｓ_１_１
  6
CONTINUOUS
 62
     3
100
AcDbVertex
100
AcDb2dVertex
 10
388.5683649999999
 20
86.14213866882601
 30
0.0
  0
VERTEX
  5
2F6
330
2CE
100
AcDbEntity
  8
Ｓ_１_１
  6
CONTINUOUS
 62
     3
100
AcDbVertex
100
AcDb2dVertex
 10
388.6533339999999
 20
85.810218668826
 30
0.0
  0
VERTEX
  5
2F7
330
2CE
100
AcDbEntity
  8
Ｓ_１_１
  6
CONTINUOUS
 62
     3
100
AcDbVertex
100
AcDb2dVertex
 10
388.771383
 20
85.48597366882602
 30
0.0
  0
VERTEX
  5
2F8
330
2CE
100
AcDbEntity
  8
Ｓ_１_１
  6
CONTINUOUS
 62
     3
100
AcDbVertex
100
AcDb2dVertex
 10
388.9216149999999
 20
85.17187366882601
 30
0.0
  0
VERTEX
  5
2F9
330
2CE
100
AcDbEntity
  8
Ｓ_１_１
  6
CONTINUOUS
 62
     3
100
AcDbVertex
100
AcDb2dVertex
 10
389.102886
 20
84.870308668826
 30
0.0
  0
VERTEX
  5
2FA
330
2CE
100
AcDbEntity
  8
Ｓ_１_１
  6
CONTINUOUS
 62
     3
100
AcDbVertex
100
AcDb2dVertex
 10
389.3138159999999
 20
84.58357266882601
 30
0.0
  0
VERTEX
  5
2FB
330
2CE
100
AcDbEntity
  8
Ｓ_１_１
  6
CONTINUOUS
 62
     3
100
AcDbVertex
100
AcDb2dVertex
 10
389.5528
 20
84.31384866882598
 30
0.0
  0
VERTEX
  5
2FC
330
2CE
100
AcDbEntity
  8
Ｓ_１_１
  6
CONTINUOUS
 62
     3
100
AcDbVertex
100
AcDb2dVertex
 10
389.818019
 20
84.063189668826
 30
0.0
  0
VERTEX
  5
2FD
330
2CE
100
AcDbEntity
  8
Ｓ_１_１
  6
CONTINUOUS
 62
     3
100
AcDbVertex
100
AcDb2dVertex
 10
390.107456
 20
83.83350266882599
 30
0.0
  0
VERTEX
  5
2FE
330
2CE
100
AcDbEntity
  8
Ｓ_１_１
  6
CONTINUOUS
 62
     3
100
AcDbVertex
100
AcDb2dVertex
 10
390.4189059999999
 20
83.62653666882599
 30
0.0
  0
VERTEX
  5
2FF
330
2CE
100
AcDbEntity
  8
Ｓ_１_１
  6
CONTINUOUS
 62
     3
100
AcDbVertex
100
AcDb2dVertex
 10
390.7499999999999
 20
83.44386566882599
 30
0.0
  0
VERTEX
  5
300
330
2CE
100
AcDbEntity
  8
Ｓ_１_１
  6
CONTINUOUS
 62
     3
100
AcDbVertex
100
AcDb2dVertex
 10
391.0982179999999
 20
83.286880668826
 30
0.0
  0
VERTEX
  5
301
330
2CE
100
AcDbEntity
  8
Ｓ_１_１
  6
CONTINUOUS
 62
     3
100
AcDbVertex
100
AcDb2dVertex
 10
391.460909
 20
83.15677566882601
 30
0.0
  0
VERTEX
  5
302
330
2CE
100
AcDbEntity
  8
Ｓ_１_１
  6
CONTINUOUS
 62
     3
100
AcDbVertex
100
AcDb2dVertex
 10
391.835314
 20
83.054542668826
 30
0.0
  0
VERTEX
  5
303
330
2CE
100
AcDbEntity
  8
Ｓ_１_１
  6
CONTINUOUS
 62
     3
100
AcDbVertex
100
AcDb2dVertex
 10
392.2185829999999
 20
82.980957668826
 30
0.0
  0
VERTEX
  5
304
330
2CE
100
AcDbEntity
  8
Ｓ_１_１
  6
CONTINUOUS
 62
     3
100
AcDbVertex
100
AcDb2dVertex
 10
392.6077989999999
 20
82.936580668826
 30
0.0
  0
VERTEX
  5
305
330
2CE
100
AcDbEntity
  8
Ｓ_１_１
  6
CONTINUOUS
 62
     3
100
AcDbVertex
100
AcDb2dVertex
 10
392.9999999999999
 20
82.921751668826
 30
0.0
  0
VERTEX
  5
306
330
2CE
100
AcDbEntity
  8
Ｓ_１_１
  6
CONTINUOUS
 62
     3
100
AcDbVertex
100
AcDb2dVertex
 10
393.3922009999999
 20
82.936580668826
 30
0.0
  0
VERTEX
  5
307
330
2CE
100
AcDbEntity
  8
Ｓ_１_１
  6
CONTINUOUS
 62
     3
100
AcDbVertex
100
AcDb2dVertex
 10
393.781417
 20
82.980957668826
 30
0.0
  0
VERTEX
  5
308
330
2CE
100
AcDbEntity
  8
Ｓ_１_１
  6
CONTINUOUS
 62
     3
100
AcDbVertex
100
AcDb2dVertex
 10
394.164686
 20
83.054542668826
 30
0.0
  0
VERTEX
  5
309
330
2CE
100
AcDbEntity
  8
Ｓ_１_１
  6
CONTINUOUS
 62
     3
100
AcDbVertex
100
AcDb2dVertex
 10
394.5390909999999
 20
83.15677566882601
 30
0.0
  0
VERTEX
  5
30A
330
2CE
100
AcDbEntity
  8
Ｓ_１_１
  6
CONTINUOUS
 62
     3
100
AcDbVertex
100
AcDb2dVertex
 10
394.901782
 20
83.286880668826
 30
0.0
  0
VERTEX
  5
30B
330
2CE
100
AcDbEntity
  8
Ｓ_１_１
  6
CONTINUOUS
 62
     3
100
AcDbVertex
100
AcDb2dVertex
 10
395.2499999999999
 20
83.44386566882599
 30
0.0
  0
VERTEX
  5
30C
330
2CE
100
AcDbEntity
  8
Ｓ_１_１
  6
CONTINUOUS
 62
     3
100
AcDbVertex
100
AcDb2dVertex
 10
395.581094
 20
83.62653666882599
 30
0.0
  0
VERTEX
  5
30D
330
2CE
100
AcDbEntity
  8
Ｓ_１_１
  6
CONTINUOUS
 62
     3
100
AcDbVertex
100
AcDb2dVertex
 10
395.892544
 20
83.83350266882599
 30
0.0
  0
VERTEX
  5
30E
330
2CE
100
AcDbEntity
  8
Ｓ_１_１
  6
CONTINUOUS
 62
     3
100
AcDbVertex
100
AcDb2dVertex
 10
396.181981
 20
84.063189668826
 30
0.0
  0
VERTEX
  5
30F
330
2CE
100
AcDbEntity
  8
Ｓ_１_１
  6
CONTINUOUS
 62
     3
100
AcDbVertex
100
AcDb2dVertex
 10
396.4472
 20
84.31384866882598
 30
0.0
  0
VERTEX
  5
310
330
2CE
100
AcDbEntity
  8
Ｓ_１_１
  6
CONTINUOUS
 62
     3
100
AcDbVertex
100
AcDb2dVertex
 10
396.686184
 20
84.58357266882601
 30
0.0
  0
VERTEX
  5
311
330
2CE
100
AcDbEntity
  8
Ｓ_１_１
  6
CONTINUOUS
 62
     3
100
AcDbVertex
100
AcDb2dVertex
 10
396.8971139999999
 20
84.870308668826
 30
0.0
  0
VERTEX
  5
312
330
2CE
100
AcDbEntity
  8
Ｓ_１_１
  6
CONTINUOUS
 62
     3
100
AcDbVertex
100
AcDb2dVertex
 10
397.078385
 20
85.17187366882601
 30
0.0
  0
VERTEX
  5
313
330
2CE
100
AcDbEntity
  8
Ｓ_１_１
  6
CONTINUOUS
 62
     3
100
AcDbVertex
100
AcDb2dVertex
 10
397.2286169999999
 20
85.48597366882602
 30
0.0
  0
VERTEX
  5
314
330
2CE
100
AcDbEntity
  8
Ｓ_１_１
  6
CONTINUOUS
 62
     3
100
AcDbVertex
100
AcDb2dVertex
 10
397.346666
 20
85.810218668826
 30
0.0
  0
VERTEX
  5
315
330
2CE
100
AcDbEntity
  8
Ｓ_１_１
  6
CONTINUOUS
 62
     3
100
AcDbVertex
100
AcDb2dVertex
 10
397.431635
 20
86.14213866882601
 30
0.0
  0
VERTEX
  5
316
330
2CE
100
AcDbEntity
  8
Ｓ_１_１
  6
CONTINUOUS
 62
     3
100
AcDbVertex
100
AcDb2dVertex
 10
397.482876
 20
86.479209668826
 30
0.0
  0
VERTEX
  5
317
330
2CE
100
AcDbEntity
  8
Ｓ_１_１
  6
CONTINUOUS
 62
     3
100
AcDbVertex
100
AcDb2dVertex
 10
397.4999999999999
 20
86.81886566882599
 30
0.0
  0
SEQEND
  5
318
330
2CE
100
AcDbEntity
  8
Ｓ_１_１
  6
CONTINUOUS
 62
     3
  0
POLYLINE
  5
319
330
1F
100
AcDbEntity
  8
Ｓ_１_１
  6
CONTINUOUS
 62
     3
100
AcDb2dPolyline
 66
     1
 10
0.0
 20
0.0
 30
0.0
 70
   128
  0
VERTEX
  5
31A
330
319
100
AcDbEntity
  8
Ｓ_１_１
  6
CONTINUOUS
 62
     3
100
AcDbVertex
100
AcDb2dVertex
 10
398.4999999999999
 20
87.31886566882599
 30
0.0
  0
VERTEX
  5
31B
330
319
100
AcDbEntity
  8
Ｓ_１_１
  6
CONTINUOUS
 62
     3
100
AcDbVertex
100
AcDb2dVertex
 10
398.4790709999999
 20
87.73400066882601
 30
0.0
  0
VERTEX
  5
31C
330
319
100
AcDbEntity
  8
Ｓ_１_１
  6
CONTINUOUS
 62
     3
100
AcDbVertex
100
AcDb2dVertex
 10
398.416443
 20
88.145976668826
 30
0.0
  0
VERTEX
  5
31D
330
319
100
AcDbEntity
  8
Ｓ_１_１
  6
CONTINUOUS
 62
     3
100
AcDbVertex
100
AcDb2dVertex
 10
398.3125919999999
 20
88.55165666882601
 30
0.0
  0
VERTEX
  5
31E
330
319
100
AcDbEntity
  8
Ｓ_１_１
  6
CONTINUOUS
 62
     3
100
AcDbVertex
100
AcDb2dVertex
 10
398.168309
 20
88.94795566882601
 30
0.0
  0
VERTEX
  5
31F
330
319
100
AcDbEntity
  8
Ｓ_１_１
  6
CONTINUOUS
 62
     3
100
AcDbVertex
100
AcDb2dVertex
 10
397.9846929999999
 20
89.331855668826
 30
0.0
  0
VERTEX
  5
320
330
319
100
AcDbEntity
  8
Ｓ_１_１
  6
CONTINUOUS
 62
     3
100
AcDbVertex
100
AcDb2dVertex
 10
397.76314
 20
89.700435668826
 30
0.0
  0
VERTEX
  5
321
330
319
100
AcDbEntity
  8
Ｓ_１_１
  6
CONTINUOUS
 62
     3
100
AcDbVertex
100
AcDb2dVertex
 10
397.505336
 20
90.05089066882601
 30
0.0
  0
VERTEX
  5
322
330
319
100
AcDbEntity
  8
Ｓ_１_１
  6
CONTINUOUS
 62
     3
100
AcDbVertex
100
AcDb2dVertex
 10
397.213244
 20
90.380552668826
 30
0.0
  0
VERTEX
  5
323
330
319
100
AcDbEntity
  8
Ｓ_１_１
  6
CONTINUOUS
 62
     3
100
AcDbVertex
100
AcDb2dVertex
 10
396.889087
 20
90.68691466882599
 30
0.0
  0
VERTEX
  5
324
330
319
100
AcDbEntity
  8
Ｓ_１_１
  6
CONTINUOUS
 62
     3
100
AcDbVertex
100
AcDb2dVertex
 10
396.535332
 20
90.96764266882599
 30
0.0
  0
VERTEX
  5
325
330
319
100
AcDbEntity
  8
Ｓ_１_１
  6
CONTINUOUS
 62
     3
100
AcDbVertex
100
AcDb2dVertex
 10
396.15467
 20
91.22060166882598
 30
0.0
  0
VERTEX
  5
326
330
319
100
AcDbEntity
  8
Ｓ_１_１
  6
CONTINUOUS
 62
     3
100
AcDbVertex
100
AcDb2dVertex
 10
395.7499999999999
 20
91.44386566882599
 30
0.0
  0
VERTEX
  5
327
330
319
100
AcDbEntity
  8
Ｓ_１_１
  6
CONTINUOUS
 62
     3
100
AcDbVertex
100
AcDb2dVertex
 10
395.3243999999999
 20
91.63573666882598
 30
0.0
  0
VERTEX
  5
328
330
319
100
AcDbEntity
  8
Ｓ_１_１
  6
CONTINUOUS
 62
     3
100
AcDbVertex
100
AcDb2dVertex
 10
394.881111
 20
91.79475266882599
 30
0.0
  0
VERTEX
  5
329
330
319
100
AcDbEntity
  8
Ｓ_１_１
  6
CONTINUOUS
 62
     3
100
AcDbVertex
100
AcDb2dVertex
 10
394.4235049999999
 20
91.919705668826
 30
0.0
  0
VERTEX
  5
32A
330
319
100
AcDbEntity
  8
Ｓ_１_１
  6
CONTINUOUS
 62
     3
100
AcDbVertex
100
AcDb2dVertex
 10
393.9550649999999
 20
92.00964266882602
 30
0.0
  0
VERTEX
  5
32B
330
319
100
AcDbEntity
  8
Ｓ_１_１
  6
CONTINUOUS
 62
     3
100
AcDbVertex
100
AcDb2dVertex
 10
393.479357
 20
92.06388066882602
 30
0.0
  0
VERTEX
  5
32C
330
319
100
AcDbEntity
  8
Ｓ_１_１
  6
CONTINUOUS
 62
     3
100
AcDbVertex
100
AcDb2dVertex
 10
392.9999999999999
 20
92.08200566882601
 30
0.0
  0
VERTEX
  5
32D
330
319
100
AcDbEntity
  8
Ｓ_１_１
  6
CONTINUOUS
 62
     3
100
AcDbVertex
100
AcDb2dVertex
 10
392.520643
 20
92.06388066882602
 30
0.0
  0
VERTEX
  5
32E
330
319
100
AcDbEntity
  8
Ｓ_１_１
  6
CONTINUOUS
 62
     3
100
AcDbVertex
100
AcDb2dVertex
 10
392.044935
 20
92.00964266882602
 30
0.0
  0
VERTEX
  5
32F
330
319
100
AcDbEntity
  8
Ｓ_１_１
  6
CONTINUOUS
 62
     3
100
AcDbVertex
100
AcDb2dVertex
 10
391.576495
 20
91.919705668826
 30
0.0
  0
VERTEX
  5
330
330
319
100
AcDbEntity
  8
Ｓ_１_１
  6
CONTINUOUS
 62
     3
100
AcDbVertex
100
AcDb2dVertex
 10
391.1188889999999
 20
91.79475266882599
 30
0.0
  0
VERTEX
  5
331
330
319
100
AcDbEntity
  8
Ｓ_１_１
  6
CONTINUOUS
 62
     3
100
AcDbVertex
100
AcDb2dVertex
 10
390.6756
 20
91.63573666882598
 30
0.0
  0
VERTEX
  5
332
330
319
100
AcDbEntity
  8
Ｓ_１_１
  6
CONTINUOUS
 62
     3
100
AcDbVertex
100
AcDb2dVertex
 10
390.2499999999999
 20
91.44386566882599
 30
0.0
  0
VERTEX
  5
333
330
319
100
AcDbEntity
  8
Ｓ_１_１
  6
CONTINUOUS
 62
     3
100
AcDbVertex
100
AcDb2dVertex
 10
389.8453299999999
 20
91.22060166882598
 30
0.0
  0
VERTEX
  5
334
330
319
100
AcDbEntity
  8
Ｓ_１_１
  6
CONTINUOUS
 62
     3
100
AcDbVertex
100
AcDb2dVertex
 10
389.464668
 20
90.96764266882599
 30
0.0
  0
VERTEX
  5
335
330
319
100
AcDbEntity
  8
Ｓ_１_１
  6
CONTINUOUS
 62
     3
100
AcDbVertex
100
AcDb2dVertex
 10
389.1109129999999
 20
90.68691466882599
 30
0.0
  0
VERTEX
  5
336
330
319
100
AcDbEntity
  8
Ｓ_１_１
  6
CONTINUOUS
 62
     3
100
AcDbVertex
100
AcDb2dVertex
 10
388.7867559999999
 20
90.380552668826
 30
0.0
  0
VERTEX
  5
337
330
319
100
AcDbEntity
  8
Ｓ_１_１
  6
CONTINUOUS
 62
     3
100
AcDbVertex
100
AcDb2dVertex
 10
388.494664
 20
90.05089066882601
 30
0.0
  0
VERTEX
  5
338
330
319
100
AcDbEntity
  8
Ｓ_１_１
  6
CONTINUOUS
 62
     3
100
AcDbVertex
100
AcDb2dVertex
 10
388.2368599999999
 20
89.700435668826
 30
0.0
  0
VERTEX
  5
339
330
319
100
AcDbEntity
  8
Ｓ_１_１
  6
CONTINUOUS
 62
     3
100
AcDbVertex
100
AcDb2dVertex
 10
388.015307
 20
89.331855668826
 30
0.0
  0
VERTEX
  5
33A
330
319
100
AcDbEntity
  8
Ｓ_１_１
  6
CONTINUOUS
 62
     3
100
AcDbVertex
100
AcDb2dVertex
 10
387.8316909999999
 20
88.94795566882601
 30
0.0
  0
VERTEX
  5
33B
330
319
100
AcDbEntity
  8
Ｓ_１_１
  6
CONTINUOUS
 62
     3
100
AcDbVertex
100
AcDb2dVertex
 10
387.6874079999999
 20
88.55165666882601
 30
0.0
  0
VERTEX
  5
33C
330
319
100
AcDbEntity
  8
Ｓ_１_１
  6
CONTINUOUS
 62
     3
100
AcDbVertex
100
AcDb2dVertex
 10
387.583557
 20
88.145976668826
 30
0.0
  0
VERTEX
  5
33D
330
319
100
AcDbEntity
  8
Ｓ_１_１
  6
CONTINUOUS
 62
     3
100
AcDbVertex
100
AcDb2dVertex
 10
387.520929
 20
87.73400066882601
 30
0.0
  0
VERTEX
  5
33E
330
319
100
AcDbEntity
  8
Ｓ_１_１
  6
CONTINUOUS
 62
     3
100
AcDbVertex
100
AcDb2dVertex
 10
387.4999999999999
 20
87.31886566882599
 30
0.0
  0
VERTEX
  5
33F
330
319
100
AcDbEntity
  8
Ｓ_１_１
  6
CONTINUOUS
 62
     3
100
AcDbVertex
100
AcDb2dVertex
 10
387.520929
 20
86.90373066882599
 30
0.0
  0
VERTEX
  5
340
330
319
100
AcDbEntity
  8
Ｓ_１_１
  6
CONTINUOUS
 62
     3
100
AcDbVertex
100
AcDb2dVertex
 10
387.583557
 20
86.49175566882599
 30
0.0
  0
VERTEX
  5
341
330
319
100
AcDbEntity
  8
Ｓ_１_１
  6
CONTINUOUS
 62
     3
100
AcDbVertex
100
AcDb2dVertex
 10
387.6874079999999
 20
86.08607466882601
 30
0.0
  0
VERTEX
  5
342
330
319
100
AcDbEntity
  8
Ｓ_１_１
  6
CONTINUOUS
 62
     3
100
AcDbVertex
100
AcDb2dVertex
 10
387.8316909999999
 20
85.68977566882602
 30
0.0
  0
VERTEX
  5
343
330
319
100
AcDbEntity
  8
Ｓ_１_１
  6
CONTINUOUS
 62
     3
100
AcDbVertex
100
AcDb2dVertex
 10
388.015307
 20
85.30587566882599
 30
0.0
  0
VERTEX
  5
344
330
319
100
AcDbEntity
  8
Ｓ_１_１
  6
CONTINUOUS
 62
     3
100
AcDbVertex
100
AcDb2dVertex
 10
388.2368599999999
 20
84.93729566882598
 30
0.0
  0
VERTEX
  5
345
330
319
100
AcDbEntity
  8
Ｓ_１_１
  6
CONTINUOUS
 62
     3
100
AcDbVertex
100
AcDb2dVertex
 10
388.494664
 20
84.586840668826
 30
0.0
  0
VERTEX
  5
346
330
319
100
AcDbEntity
  8
Ｓ_１_１
  6
CONTINUOUS
 62
     3
100
AcDbVertex
100
AcDb2dVertex
 10
388.7867559999999
 20
84.25717866882599
 30
0.0
  0
VERTEX
  5
347
330
319
100
AcDbEntity
  8
Ｓ_１_１
  6
CONTINUOUS
 62
     3
100
AcDbVertex
100
AcDb2dVertex
 10
389.1109129999999
 20
83.950817668826
 30
0.0
  0
VERTEX
  5
348
330
319
100
AcDbEntity
  8
Ｓ_１_１
  6
CONTINUOUS
 62
     3
100
AcDbVertex
100
AcDb2dVertex
 10
389.464668
 20
83.670088668826
 30
0.0
  0
VERTEX
  5
349
330
319
100
AcDbEntity
  8
Ｓ_１_１
  6
CONTINUOUS
 62
     3
100
AcDbVertex
100
AcDb2dVertex
 10
389.8453299999999
 20
83.41712966882599
 30
0.0
  0
VERTEX
  5
34A
330
319
100
AcDbEntity
  8
Ｓ_１_１
  6
CONTINUOUS
 62
     3
100
AcDbVertex
100
AcDb2dVertex
 10
390.2499999999999
 20
83.19386566882599
 30
0.0
  0
VERTEX
  5
34B
330
319
100
AcDbEntity
  8
Ｓ_１_１
  6
CONTINUOUS
 62
     3
100
AcDbVertex
100
AcDb2dVertex
 10
390.6756
 20
83.001994668826
 30
0.0
  0
VERTEX
  5
34C
330
319
100
AcDbEntity
  8
Ｓ_１_１
  6
CONTINUOUS
 62
     3
100
AcDbVertex
100
AcDb2dVertex
 10
391.1188889999999
 20
82.84297866882599
 30
0.0
  0
VERTEX
  5
34D
330
319
100
AcDbEntity
  8
Ｓ_１_１
  6
CONTINUOUS
 62
     3
100
AcDbVertex
100
AcDb2dVertex
 10
391.576495
 20
82.71802566882599
 30
0.0
  0
VERTEX
  5
34E
330
319
100
AcDbEntity
  8
Ｓ_１_１
  6
CONTINUOUS
 62
     3
100
AcDbVertex
100
AcDb2dVertex
 10
392.044935
 20
82.628088668826
 30
0.0
  0
VERTEX
  5
34F
330
319
100
AcDbEntity
  8
Ｓ_１_１
  6
CONTINUOUS
 62
     3
100
AcDbVertex
100
AcDb2dVertex
 10
392.520643
 20
82.573851668826
 30
0.0
  0
VERTEX
  5
350
330
319
100
AcDbEntity
  8
Ｓ_１_１
  6
CONTINUOUS
 62
     3
100
AcDbVertex
100
AcDb2dVertex
 10
392.9999999999999
 20
82.555725668826
 30
0.0
  0
VERTEX
  5
351
330
319
100
AcDbEntity
  8
Ｓ_１_１
  6
CONTINUOUS
 62
     3
100
AcDbVertex
100
AcDb2dVertex
 10
393.479357
 20
82.573851668826
 30
0.0
  0
VERTEX
  5
352
330
319
100
AcDbEntity
  8
Ｓ_１_１
  6
CONTINUOUS
 62
     3
100
AcDbVertex
100
AcDb2dVertex
 10
393.9550649999999
 20
82.628088668826
 30
0.0
  0
VERTEX
  5
353
330
319
100
AcDbEntity
  8
Ｓ_１_１
  6
CONTINUOUS
 62
     3
100
AcDbVertex
100
AcDb2dVertex
 10
394.4235049999999
 20
82.71802566882599
 30
0.0
  0
VERTEX
  5
354
330
319
100
AcDbEntity
  8
Ｓ_１_１
  6
CONTINUOUS
 62
     3
100
AcDbVertex
100
AcDb2dVertex
 10
394.881111
 20
82.84297866882599
 30
0.0
  0
VERTEX
  5
355
330
319
100
AcDbEntity
  8
Ｓ_１_１
  6
CONTINUOUS
 62
     3
100
AcDbVertex
100
AcDb2dVertex
 10
395.3243999999999
 20
83.001994668826
 30
0.0
  0
VERTEX
  5
356
330
319
100
AcDbEntity
  8
Ｓ_１_１
  6
CONTINUOUS
 62
     3
100
AcDbVertex
100
AcDb2dVertex
 10
395.7499999999999
 20
83.19386566882599
 30
0.0
  0
VERTEX
  5
357
330
319
100
AcDbEntity
  8
Ｓ_１_１
  6
CONTINUOUS
 62
     3
100
AcDbVertex
100
AcDb2dVertex
 10
396.15467
 20
83.41712966882599
 30
0.0
  0
VERTEX
  5
358
330
319
100
AcDbEntity
  8
Ｓ_１_１
  6
CONTINUOUS
 62
     3
100
AcDbVertex
100
AcDb2dVertex
 10
396.535332
 20
83.670088668826
 30
0.0
  0
VERTEX
  5
359
330
319
100
AcDbEntity
  8
Ｓ_１_１
  6
CONTINUOUS
 62
     3
100
AcDbVertex
100
AcDb2dVertex
 10
396.889087
 20
83.950817668826
 30
0.0
  0
VERTEX
  5
35A
330
319
100
AcDbEntity
  8
Ｓ_１_１
  6
CONTINUOUS
 62
     3
100
AcDbVertex
100
AcDb2dVertex
 10
397.213244
 20
84.25717866882599
 30
0.0
  0
VERTEX
  5
35B
330
319
100
AcDbEntity
  8
Ｓ_１_１
  6
CONTINUOUS
 62
     3
100
AcDbVertex
100
AcDb2dVertex
 10
397.505336
 20
84.586840668826
 30
0.0
  0
VERTEX
  5
35C
330
319
100
AcDbEntity
  8
Ｓ_１_１
  6
CONTINUOUS
 62
     3
100
AcDbVertex
100
AcDb2dVertex
 10
397.76314
 20
84.93729566882598
 30
0.0
  0
VERTEX
  5
35D
330
319
100
AcDbEntity
  8
Ｓ_１_１
  6
CONTINUOUS
 62
     3
100
AcDbVertex
100
AcDb2dVertex
 10
397.9846929999999
 20
85.30587566882599
 30
0.0
  0
VERTEX
  5
35E
330
319
100
AcDbEntity
  8
Ｓ_１_１
  6
CONTINUOUS
 62
     3
100
AcDbVertex
100
AcDb2dVertex
 10
398.168309
 20
85.68977566882602
 30
0.0
  0
VERTEX
  5
35F
330
319
100
AcDbEntity
  8
Ｓ_１_１
  6
CONTINUOUS
 62
     3
100
AcDbVertex
100
AcDb2dVertex
 10
398.3125919999999
 20
86.08607466882601
 30
0.0
  0
VERTEX
  5
360
330
319
100
AcDbEntity
  8
Ｓ_１_１
  6
CONTINUOUS
 62
     3
100
AcDbVertex
100
AcDb2dVertex
 10
398.416443
 20
86.49175566882599
 30
0.0
  0
VERTEX
  5
361
330
319
100
AcDbEntity
  8
Ｓ_１_１
  6
CONTINUOUS
 62
     3
100
AcDbVertex
100
AcDb2dVertex
 10
398.4790709999999
 20
86.90373066882599
 30
0.0
  0
VERTEX
  5
362
330
319
100
AcDbEntity
  8
Ｓ_１_１
  6
CONTINUOUS
 62
     3
100
AcDbVertex
100
AcDb2dVertex
 10
398.4999999999999
 20
87.31886566882599
 30
0.0
  0
SEQEND
  5
363
330
319
100
AcDbEntity
  8
Ｓ_１_１
  6
CONTINUOUS
 62
     3
  0
POLYLINE
  5
364
330
1F
100
AcDbEntity
  8
Ｓ_１_１
  6
CONTINUOUS
 62
     3
100
AcDb2dPolyline
 66
     1
 10
0.0
 20
0.0
 30
0.0
 70
   128
  0
VERTEX
  5
365
330
364
100
AcDbEntity
  8
Ｓ_１_１
  6
CONTINUOUS
 62
     3
100
AcDbVertex
100
AcDb2dVertex
 10
396.4999999999999
 20
86.81887066882602
 30
0.0
  0
VERTEX
  5
366
330
364
100
AcDbEntity
  8
Ｓ_１_１
  6
CONTINUOUS
 62
     3
100
AcDbVertex
100
AcDb2dVertex
 10
396.4866809999999
 20
87.083047668826
 30
0.0
  0
VERTEX
  5
367
330
364
100
AcDbEntity
  8
Ｓ_１_１
  6
CONTINUOUS
 62
     3
100
AcDbVertex
100
AcDb2dVertex
 10
396.4468269999999
 20
87.34521266882602
 30
0.0
  0
VERTEX
  5
368
330
364
100
AcDbEntity
  8
Ｓ_１_１
  6
CONTINUOUS
 62
     3
100
AcDbVertex
100
AcDb2dVertex
 10
396.38074
 20
87.60337266882601
 30
0.0
  0
VERTEX
  5
369
330
364
100
AcDbEntity
  8
Ｓ_１_１
  6
CONTINUOUS
 62
     3
100
AcDbVertex
100
AcDb2dVertex
 10
396.288924
 20
87.855562668826
 30
0.0
  0
VERTEX
  5
36A
330
364
100
AcDbEntity
  8
Ｓ_１_１
  6
CONTINUOUS
 62
     3
100
AcDbVertex
100
AcDb2dVertex
 10
396.172077
 20
88.099862668826
 30
0.0
  0
VERTEX
  5
36B
330
364
100
AcDbEntity
  8
Ｓ_１_１
  6
CONTINUOUS
 62
     3
100
AcDbVertex
100
AcDb2dVertex
 10
396.031089
 20
88.334412668826
 30
0.0
  0
VERTEX
  5
36C
330
364
100
AcDbEntity
  8
Ｓ_１_１
  6
CONTINUOUS
 62
     3
100
AcDbVertex
100
AcDb2dVertex
 10
395.8670319999999
 20
88.55742966882599
 30
0.0
  0
VERTEX
  5
36D
330
364
100
AcDbEntity
  8
Ｓ_１_１
  6
CONTINUOUS
 62
     3
100
AcDbVertex
100
AcDb2dVertex
 10
395.6811559999999
 20
88.767213668826
 30
0.0
  0
VERTEX
  5
36E
330
364
100
AcDbEntity
  8
Ｓ_１_１
  6
CONTINUOUS
 62
     3
100
AcDbVertex
100
AcDb2dVertex
 10
395.4748739999999
 20
88.96217066882599
 30
0.0
  0
VERTEX
  5
36F
330
364
100
AcDbEntity
  8
Ｓ_１_１
  6
CONTINUOUS
 62
     3
100
AcDbVertex
100
AcDb2dVertex
 10
395.249757
 20
89.14081566882601
 30
0.0
  0
VERTEX
  5
370
330
364
100
AcDbEntity
  8
Ｓ_１_１
  6
CONTINUOUS
 62
     3
100
AcDbVertex
100
AcDb2dVertex
 10
395.0075179999999
 20
89.30178966882602
 30
0.0
  0
VERTEX
  5
371
330
364
100
AcDbEntity
  8
Ｓ_１_１
  6
CONTINUOUS
 62
     3
100
AcDbVertex
100
AcDb2dVertex
 10
394.7499999999999
 20
89.44386666882599
 30
0.0
  0
VERTEX
  5
372
330
364
100
AcDbEntity
  8
Ｓ_１_１
  6
CONTINUOUS
 62
     3
100
AcDbVertex
100
AcDb2dVertex
 10
394.4791639999999
 20
89.565965668826
 30
0.0
  0
VERTEX
  5
373
330
364
100
AcDbEntity
  8
Ｓ_１_１
  6
CONTINUOUS
 62
     3
100
AcDbVertex
100
AcDb2dVertex
 10
394.197071
 20
89.667158668826
 30
0.0
  0
VERTEX
  5
374
330
364
100
AcDbEntity
  8
Ｓ_１_１
  6
CONTINUOUS
 62
     3
100
AcDbVertex
100
AcDb2dVertex
 10
393.905867
 20
89.74667366882598
 30
0.0
  0
VERTEX
  5
375
330
364
100
AcDbEntity
  8
Ｓ_１_１
  6
CONTINUOUS
 62
     3
100
AcDbVertex
100
AcDb2dVertex
 10
393.607769
 20
89.80390566882598
 30
0.0
  0
VERTEX
  5
376
330
364
100
AcDbEntity
  8
Ｓ_１_１
  6
CONTINUOUS
 62
     3
100
AcDbVertex
100
AcDb2dVertex
 10
393.305045
 20
89.83842066882602
 30
0.0
  0
VERTEX
  5
377
330
364
100
AcDbEntity
  8
Ｓ_１_１
  6
CONTINUOUS
 62
     3
100
AcDbVertex
100
AcDb2dVertex
 10
392.9999999999999
 20
89.849954668826
 30
0.0
  0
VERTEX
  5
378
330
364
100
AcDbEntity
  8
Ｓ_１_１
  6
CONTINUOUS
 62
     3
100
AcDbVertex
100
AcDb2dVertex
 10
392.694955
 20
89.83842066882602
 30
0.0
  0
VERTEX
  5
379
330
364
100
AcDbEntity
  8
Ｓ_１_１
  6
CONTINUOUS
 62
     3
100
AcDbVertex
100
AcDb2dVertex
 10
392.392231
 20
89.80390566882598
 30
0.0
  0
VERTEX
  5
37A
330
364
100
AcDbEntity
  8
Ｓ_１_１
  6
CONTINUOUS
 62
     3
100
AcDbVertex
100
AcDb2dVertex
 10
392.094133
 20
89.74667366882598
 30
0.0
  0
VERTEX
  5
37B
330
364
100
AcDbEntity
  8
Ｓ_１_１
  6
CONTINUOUS
 62
     3
100
AcDbVertex
100
AcDb2dVertex
 10
391.802929
 20
89.667158668826
 30
0.0
  0
VERTEX
  5
37C
330
364
100
AcDbEntity
  8
Ｓ_１_１
  6
CONTINUOUS
 62
     3
100
AcDbVertex
100
AcDb2dVertex
 10
391.520836
 20
89.565965668826
 30
0.0
  0
VERTEX
  5
37D
330
364
100
AcDbEntity
  8
Ｓ_１_１
  6
CONTINUOUS
 62
     3
100
AcDbVertex
100
AcDb2dVertex
 10
391.2499999999999
 20
89.44386666882599
 30
0.0
  0
VERTEX
  5
37E
330
364
100
AcDbEntity
  8
Ｓ_１_１
  6
CONTINUOUS
 62
     3
100
AcDbVertex
100
AcDb2dVertex
 10
390.9924819999999
 20
89.30178966882602
 30
0.0
  0
VERTEX
  5
37F
330
364
100
AcDbEntity
  8
Ｓ_１_１
  6
CONTINUOUS
 62
     3
100
AcDbVertex
100
AcDb2dVertex
 10
390.750243
 20
89.14081566882601
 30
0.0
  0
VERTEX
  5
380
330
364
100
AcDbEntity
  8
Ｓ_１_１
  6
CONTINUOUS
 62
     3
100
AcDbVertex
100
AcDb2dVertex
 10
390.5251259999999
 20
88.96217066882599
 30
0.0
  0
VERTEX
  5
381
330
364
100
AcDbEntity
  8
Ｓ_１_１
  6
CONTINUOUS
 62
     3
100
AcDbVertex
100
AcDb2dVertex
 10
390.318844
 20
88.767213668826
 30
0.0
  0
VERTEX
  5
382
330
364
100
AcDbEntity
  8
Ｓ_１_１
  6
CONTINUOUS
 62
     3
100
AcDbVertex
100
AcDb2dVertex
 10
390.1329679999999
 20
88.55742966882599
 30
0.0
  0
VERTEX
  5
383
330
364
100
AcDbEntity
  8
Ｓ_１_１
  6
CONTINUOUS
 62
     3
100
AcDbVertex
100
AcDb2dVertex
 10
389.968911
 20
88.334412668826
 30
0.0
  0
VERTEX
  5
384
330
364
100
AcDbEntity
  8
Ｓ_１_１
  6
CONTINUOUS
 62
     3
100
AcDbVertex
100
AcDb2dVertex
 10
389.827923
 20
88.099862668826
 30
0.0
  0
VERTEX
  5
385
330
364
100
AcDbEntity
  8
Ｓ_１_１
  6
CONTINUOUS
 62
     3
100
AcDbVertex
100
AcDb2dVertex
 10
389.711076
 20
87.855562668826
 30
0.0
  0
VERTEX
  5
386
330
364
100
AcDbEntity
  8
Ｓ_１_１
  6
CONTINUOUS
 62
     3
100
AcDbVertex
100
AcDb2dVertex
 10
389.61926
 20
87.60337266882601
 30
0.0
  0
VERTEX
  5
387
330
364
100
AcDbEntity
  8
Ｓ_１_１
  6
CONTINUOUS
 62
     3
100
AcDbVertex
100
AcDb2dVertex
 10
389.553173
 20
87.34521266882602
 30
0.0
  0
VERTEX
  5
388
330
364
100
AcDbEntity
  8
Ｓ_１_１
  6
CONTINUOUS
 62
     3
100
AcDbVertex
100
AcDb2dVertex
 10
389.513319
 20
87.083047668826
 30
0.0
  0
VERTEX
  5
389
330
364
100
AcDbEntity
  8
Ｓ_１_１
  6
CONTINUOUS
 62
     3
100
AcDbVertex
100
AcDb2dVertex
 10
389.4999999999999
 20
86.81887066882602
 30
0.0
  0
VERTEX
  5
38A
330
364
100
AcDbEntity
  8
Ｓ_１_１
  6
CONTINUOUS
 62
     3
100
AcDbVertex
100
AcDb2dVertex
 10
389.513319
 20
86.55469466882602
 30
0.0
  0
VERTEX
  5
38B
330
364
100
AcDbEntity
  8
Ｓ_１_１
  6
CONTINUOUS
 62
     3
100
AcDbVertex
100
AcDb2dVertex
 10
389.553173
 20
86.29252866882602
 30
0.0
  0
VERTEX
  5
38C
330
364
100
AcDbEntity
  8
Ｓ_１_１
  6
CONTINUOUS
 62
     3
100
AcDbVertex
100
AcDb2dVertex
 10
389.61926
 20
86.034368668826
 30
0.0
  0
VERTEX
  5
38D
330
364
100
AcDbEntity
  8
Ｓ_１_１
  6
CONTINUOUS
 62
     3
100
AcDbVertex
100
AcDb2dVertex
 10
389.711076
 20
85.782178668826
 30
0.0
  0
VERTEX
  5
38E
330
364
100
AcDbEntity
  8
Ｓ_１_１
  6
CONTINUOUS
 62
     3
100
AcDbVertex
100
AcDb2dVertex
 10
389.827923
 20
85.53787966882601
 30
0.0
  0
VERTEX
  5
38F
330
364
100
AcDbEntity
  8
Ｓ_１_１
  6
CONTINUOUS
 62
     3
100
AcDbVertex
100
AcDb2dVertex
 10
389.968911
 20
85.303328668826
 30
0.0
  0
VERTEX
  5
390
330
364
100
AcDbEntity
  8
Ｓ_１_１
  6
CONTINUOUS
 62
     3
100
AcDbVertex
100
AcDb2dVertex
 10
390.1329679999999
 20
85.080312668826
 30
0.0
  0
VERTEX
  5
391
330
364
100
AcDbEntity
  8
Ｓ_１_１
  6
CONTINUOUS
 62
     3
100
AcDbVertex
100
AcDb2dVertex
 10
390.318844
 20
84.87052766882601
 30
0.0
  0
VERTEX
  5
392
330
364
100
AcDbEntity
  8
Ｓ_１_１
  6
CONTINUOUS
 62
     3
100
AcDbVertex
100
AcDb2dVertex
 10
390.5251259999999
 20
84.675570668826
 30
0.0
  0
VERTEX
  5
393
330
364
100
AcDbEntity
  8
Ｓ_１_１
  6
CONTINUOUS
 62
     3
100
AcDbVertex
100
AcDb2dVertex
 10
390.750243
 20
84.49692566882601
 30
0.0
  0
VERTEX
  5
394
330
364
100
AcDbEntity
  8
Ｓ_１_１
  6
CONTINUOUS
 62
     3
100
AcDbVertex
100
AcDb2dVertex
 10
390.9924819999999
 20
84.335951668826
 30
0.0
  0
VERTEX
  5
395
330
364
100
AcDbEntity
  8
Ｓ_１_１
  6
CONTINUOUS
 62
     3
100
AcDbVertex
100
AcDb2dVertex
 10
391.2499999999999
 20
84.193874668826
 30
0.0
  0
VERTEX
  5
396
330
364
100
AcDbEntity
  8
Ｓ_１_１
  6
CONTINUOUS
 62
     3
100
AcDbVertex
100
AcDb2dVertex
 10
391.520836
 20
84.071775668826
 30
0.0
  0
VERTEX
  5
397
330
364
100
AcDbEntity
  8
Ｓ_１_１
  6
CONTINUOUS
 62
     3
100
AcDbVertex
100
AcDb2dVertex
 10
391.802929
 20
83.97058366882601
 30
0.0
  0
VERTEX
  5
398
330
364
100
AcDbEntity
  8
Ｓ_１_１
  6
CONTINUOUS
 62
     3
100
AcDbVertex
100
AcDb2dVertex
 10
392.094133
 20
83.891068668826
 30
0.0
  0
VERTEX
  5
399
330
364
100
AcDbEntity
  8
Ｓ_１_１
  6
CONTINUOUS
 62
     3
100
AcDbVertex
100
AcDb2dVertex
 10
392.392231
 20
83.833835668826
 30
0.0
  0
VERTEX
  5
39A
330
364
100
AcDbEntity
  8
Ｓ_１_１
  6
CONTINUOUS
 62
     3
100
AcDbVertex
100
AcDb2dVertex
 10
392.694955
 20
83.799320668826
 30
0.0
  0
VERTEX
  5
39B
330
364
100
AcDbEntity
  8
Ｓ_１_１
  6
CONTINUOUS
 62
     3
100
AcDbVertex
100
AcDb2dVertex
 10
392.9999999999999
 20
83.78778666882602
 30
0.0
  0
VERTEX
  5
39C
330
364
100
AcDbEntity
  8
Ｓ_１_１
  6
CONTINUOUS
 62
     3
100
AcDbVertex
100
AcDb2dVertex
 10
393.305045
 20
83.799320668826
 30
0.0
  0
VERTEX
  5
39D
330
364
100
AcDbEntity
  8
Ｓ_１_１
  6
CONTINUOUS
 62
     3
100
AcDbVertex
100
AcDb2dVertex
 10
393.607769
 20
83.833835668826
 30
0.0
  0
VERTEX
  5
39E
330
364
100
AcDbEntity
  8
Ｓ_１_１
  6
CONTINUOUS
 62
     3
100
AcDbVertex
100
AcDb2dVertex
 10
393.905867
 20
83.891068668826
 30
0.0
  0
VERTEX
  5
39F
330
364
100
AcDbEntity
  8
Ｓ_１_１
  6
CONTINUOUS
 62
     3
100
AcDbVertex
100
AcDb2dVertex
 10
394.197071
 20
83.97058366882601
 30
0.0
  0
VERTEX
  5
3A0
330
364
100
AcDbEntity
  8
Ｓ_１_１
  6
CONTINUOUS
 62
     3
100
AcDbVertex
100
AcDb2dVertex
 10
394.4791639999999
 20
84.071775668826
 30
0.0
  0
VERTEX
  5
3A1
330
364
100
AcDbEntity
  8
Ｓ_１_１
  6
CONTINUOUS
 62
     3
100
AcDbVertex
100
AcDb2dVertex
 10
394.7499999999999
 20
84.193874668826
 30
0.0
  0
VERTEX
  5
3A2
330
364
100
AcDbEntity
  8
Ｓ_１_１
  6
CONTINUOUS
 62
     3
100
AcDbVertex
100
AcDb2dVertex
 10
395.0075179999999
 20
84.335951668826
 30
0.0
  0
VERTEX
  5
3A3
330
364
100
AcDbEntity
  8
Ｓ_１_１
  6
CONTINUOUS
 62
     3
100
AcDbVertex
100
AcDb2dVertex
 10
395.249757
 20
84.49692566882601
 30
0.0
  0
VERTEX
  5
3A4
330
364
100
AcDbEntity
  8
Ｓ_１_１
  6
CONTINUOUS
 62
     3
100
AcDbVertex
100
AcDb2dVertex
 10
395.4748739999999
 20
84.675570668826
 30
0.0
  0
VERTEX
  5
3A5
330
364
100
AcDbEntity
  8
Ｓ_１_１
  6
CONTINUOUS
 62
     3
100
AcDbVertex
100
AcDb2dVertex
 10
395.6811559999999
 20
84.87052766882601
 30
0.0
  0
VERTEX
  5
3A6
330
364
100
AcDbEntity
  8
Ｓ_１_１
  6
CONTINUOUS
 62
     3
100
AcDbVertex
100
AcDb2dVertex
 10
395.8670319999999
 20
85.080312668826
 30
0.0
  0
VERTEX
  5
3A7
330
364
100
AcDbEntity
  8
Ｓ_１_１
  6
CONTINUOUS
 62
     3
100
AcDbVertex
100
AcDb2dVertex
 10
396.031089
 20
85.303328668826
 30
0.0
  0
VERTEX
  5
3A8
330
364
100
AcDbEntity
  8
Ｓ_１_１
  6
CONTINUOUS
 62
     3
100
AcDbVertex
100
AcDb2dVertex
 10
396.172077
 20
85.53787966882601
 30
0.0
  0
VERTEX
  5
3A9
330
364
100
AcDbEntity
  8
Ｓ_１_１
  6
CONTINUOUS
 62
     3
100
AcDbVertex
100
AcDb2dVertex
 10
396.288924
 20
85.782178668826
 30
0.0
  0
VERTEX
  5
3AA
330
364
100
AcDbEntity
  8
Ｓ_１_１
  6
CONTINUOUS
 62
     3
100
AcDbVertex
100
AcDb2dVertex
 10
396.38074
 20
86.034368668826
 30
0.0
  0
VERTEX
  5
3AB
330
364
100
AcDbEntity
  8
Ｓ_１_１
  6
CONTINUOUS
 62
     3
100
AcDbVertex
100
AcDb2dVertex
 10
396.4468269999999
 20
86.29252866882602
 30
0.0
  0
VERTEX
  5
3AC
330
364
100
AcDbEntity
  8
Ｓ_１_１
  6
CONTINUOUS
 62
     3
100
AcDbVertex
100
AcDb2dVertex
 10
396.4866809999999
 20
86.55469466882602
 30
0.0
  0
VERTEX
  5
3AD
330
364
100
AcDbEntity
  8
Ｓ_１_１
  6
CONTINUOUS
 62
     3
100
AcDbVertex
100
AcDb2dVertex
 10
396.4999999999999
 20
86.81887066882602
 30
0.0
  0
SEQEND
  5
3AE
330
364
100
AcDbEntity
  8
Ｓ_１_１
  6
CONTINUOUS
 62
     3
  0
POLYLINE
  5
3AF
330
1F
100
AcDbEntity
  8
Ｓ_１_１
  6
CONTINUOUS
 62
     3
100
AcDb2dPolyline
 66
     1
 10
0.0
 20
0.0
 30
0.0
 70
   128
  0
VERTEX
  5
3B0
330
3AF
100
AcDbEntity
  8
Ｓ_１_１
  6
CONTINUOUS
 62
     3
100
AcDbVertex
100
AcDb2dVertex
 10
398.5000049999999
 20
87.39937966882599
 30
0.0
  0
VERTEX
  5
3B1
330
3AF
100
AcDbEntity
  8
Ｓ_１_１
  6
CONTINUOUS
 62
     3
100
AcDbVertex
100
AcDb2dVertex
 10
399.59154
 20
88.26190866882602
 30
0.0
  0
VERTEX
  5
3B2
330
3AF
100
AcDbEntity
  8
Ｓ_１_１
  6
CONTINUOUS
 62
     3
100
AcDbVertex
100
AcDb2dVertex
 10
400.505396
 20
89.26748866882599
 30
0.0
  0
VERTEX
  5
3B3
330
3AF
100
AcDbEntity
  8
Ｓ_１_１
  6
CONTINUOUS
 62
     3
100
AcDbVertex
100
AcDb2dVertex
 10
401.216941
 20
90.38901466882601
 30
0.0
  0
VERTEX
  5
3B4
330
3AF
100
AcDbEntity
  8
Ｓ_１_１
  6
CONTINUOUS
 62
     3
100
AcDbVertex
100
AcDb2dVertex
 10
401.7069959999999
 20
91.59625366882601
 30
0.0
  0
VERTEX
  5
3B5
330
3AF
100
AcDbEntity
  8
Ｓ_１_１
  6
CONTINUOUS
 62
     3
100
AcDbVertex
100
AcDb2dVertex
 10
401.96235
 20
92.856665668826
 30
0.0
  0
VERTEX
  5
3B6
330
3AF
100
AcDbEntity
  8
Ｓ_１_１
  6
CONTINUOUS
 62
     3
100
AcDbVertex
100
AcDb2dVertex
 10
401.976119
 20
94.13627466882599
 30
0.0
  0
VERTEX
  5
3B7
330
3AF
100
AcDbEntity
  8
Ｓ_１_１
  6
CONTINUOUS
 62
     3
100
AcDbVertex
100
AcDb2dVertex
 10
401.7479339999999
 20
95.400588668826
 30
0.0
  0
VERTEX
  5
3B8
330
3AF
100
AcDbEntity
  8
Ｓ_１_１
  6
CONTINUOUS
 62
     3
100
AcDbVertex
100
AcDb2dVertex
 10
401.283945
 20
96.61552766882602
 30
0.0
  0
VERTEX
  5
3B9
330
3AF
100
AcDbEntity
  8
Ｓ_１_１
  6
CONTINUOUS
 62
     3
100
AcDbVertex
100
AcDb2dVertex
 10
400.596658
 20
97.74834266882601
 30
0.0
  0
VERTEX
  5
3BA
330
3AF
100
AcDbEntity
  8
Ｓ_１_１
  6
CONTINUOUS
 62
     3
100
AcDbVertex
100
AcDb2dVertex
 10
399.7046
 20
98.768497668826
 30
0.0
  0
VERTEX
  5
3BB
330
3AF
100
AcDbEntity
  8
Ｓ_１_１
  6
CONTINUOUS
 62
     3
100
AcDbVertex
100
AcDb2dVertex
 10
398.631818
 20
99.648494668826
 30
0.0
  0
VERTEX
  5
3BC
330
3AF
100
AcDbEntity
  8
Ｓ_１_１
  6
CONTINUOUS
 62
     3
100
AcDbVertex
100
AcDb2dVertex
 10
397.407227
 20
100.364612668826
 30
0.0
  0
VERTEX
  5
3BD
330
3AF
100
AcDbEntity
  8
Ｓ_１_１
  6
CONTINUOUS
 62
     3
100
AcDbVertex
100
AcDb2dVertex
 10
396.063837
 20
100.897547668826
 30
0.0
  0
VERTEX
  5
3BE
330
3AF
100
AcDbEntity
  8
Ｓ_１_１
  6
CONTINUOUS
 62
     3
100
AcDbVertex
100
AcDb2dVertex
 10
394.637861
 20
101.232934668826
 30
0.0
  0
VERTEX
  5
3BF
330
3AF
100
AcDbEntity
  8
Ｓ_１_１
  6
CONTINUOUS
 62
     3
100
AcDbVertex
100
AcDb2dVertex
 10
393.1677349999999
 20
101.361733668826
 30
0.0
  0
VERTEX
  5
3C0
330
3AF
100
AcDbEntity
  8
Ｓ_１_１
  6
CONTINUOUS
 62
     3
100
AcDbVertex
100
AcDb2dVertex
 10
391.6930879999999
 20
101.280472668826
 30
0.0
  0
VERTEX
  5
3C1
330
3AF
100
AcDbEntity
  8
Ｓ_１_１
  6
CONTINUOUS
 62
     3
100
AcDbVertex
100
AcDb2dVertex
 10
390.253669
 20
100.991341668826
 30
0.0
  0
VERTEX
  5
3C2
330
3AF
100
AcDbEntity
  8
Ｓ_１_１
  6
CONTINUOUS
 62
     3
100
AcDbVertex
100
AcDb2dVertex
 10
388.888279
 20
100.502134668826
 30
0.0
  0
VERTEX
  5
3C3
330
3AF
100
AcDbEntity
  8
Ｓ_１_１
  6
CONTINUOUS
 62
     3
100
AcDbVertex
100
AcDb2dVertex
 10
387.633722
 20
99.826037668826
 30
0.0
  0
VERTEX
  5
3C4
330
3AF
100
AcDbEntity
  8
Ｓ_１_１
  6
CONTINUOUS
 62
     3
100
AcDbVertex
100
AcDb2dVertex
 10
386.523815
 20
98.98127666882601
 30
0.0
  0
VERTEX
  5
3C5
330
3AF
100
AcDbEntity
  8
Ｓ_１_１
  6
CONTINUOUS
 62
     3
100
AcDbVertex
100
AcDb2dVertex
 10
385.588476
 20
97.99062166882601
 30
0.0
  0
VERTEX
  5
3C6
330
3AF
100
AcDbEntity
  8
Ｓ_１_１
  6
CONTINUOUS
 62
     3
100
AcDbVertex
100
AcDb2dVertex
 10
384.852918
 20
96.880775668826
 30
0.0
  0
VERTEX
  5
3C7
330
3AF
100
AcDbEntity
  8
Ｓ_１_１
  6
CONTINUOUS
 62
     3
100
AcDbVertex
100
AcDb2dVertex
 10
384.336968
 20
95.68165566882601
 30
0.0
  0
VERTEX
  5
3C8
330
3AF
100
AcDbEntity
  8
Ｓ_１_１
  6
CONTINUOUS
 62
     3
100
AcDbVertex
100
AcDb2dVertex
 10
384.0545339999999
 20
94.42558466882599
 30
0.0
  0
VERTEX
  5
3C9
330
3AF
100
AcDbEntity
  8
Ｓ_１_１
  6
CONTINUOUS
 62
     3
100
AcDbVertex
100
AcDb2dVertex
 10
384.013229
 20
93.14641966882601
 30
0.0
  0
VERTEX
  5
3CA
330
3AF
100
AcDbEntity
  8
Ｓ_１_１
  6
CONTINUOUS
 62
     3
100
AcDbVertex
100
AcDb2dVertex
 10
384.2141649999999
 20
91.87864166882599
 30
0.0
  0
VERTEX
  5
3CB
330
3AF
100
AcDbEntity
  8
Ｓ_１_１
  6
CONTINUOUS
 62
     3
100
AcDbVertex
100
AcDb2dVertex
 10
384.6519279999999
 20
90.65642466882599
 30
0.0
  0
VERTEX
  5
3CC
330
3AF
100
AcDbEntity
  8
Ｓ_１_１
  6
CONTINUOUS
 62
     3
100
AcDbVertex
100
AcDb2dVertex
 10
385.3147159999999
 20
89.512713668826
 30
0.0
  0
VERTEX
  5
3CD
330
3AF
100
AcDbEntity
  8
Ｓ_１_１
  6
CONTINUOUS
 62
     3
100
AcDbVertex
100
AcDb2dVertex
 10
386.1846639999999
 20
88.47833766882599
 30
0.0
  0
VERTEX
  5
3CE
330
3AF
100
AcDbEntity
  8
Ｓ_１_１
  6
CONTINUOUS
 62
     3
100
AcDbVertex
100
AcDb2dVertex
 10
387.238323
 20
87.581177668826
 30
0.0
  0
VERTEX
  5
3CF
330
3AF
100
AcDbEntity
  8
Ｓ_１_１
  6
CONTINUOUS
 62
     3
100
AcDbVertex
100
AcDb2dVertex
 10
387.368182
 20
87.489221668826
 30
0.0
  0
VERTEX
  5
3D0
330
3AF
100
AcDbEntity
  8
Ｓ_１_１
  6
CONTINUOUS
 62
     3
100
AcDbVertex
100
AcDb2dVertex
 10
387.4999989999999
 20
87.399376668826
 30
0.0
  0
SEQEND
  5
3D1
330
3AF
100
AcDbEntity
  8
Ｓ_１_１
  6
CONTINUOUS
 62
     3
  0
POLYLINE
  5
3D2
330
1F
100
AcDbEntity
  8
Ｓ_１_１
  6
CONTINUOUS
 62
     3
100
AcDb2dPolyline
 66
     1
 10
0.0
 20
0.0
 30
0.0
 70
   128
  0
VERTEX
  5
3D3
330
3D2
100
AcDbEntity
  8
Ｓ_１_１
  6
CONTINUOUS
 62
     3
100
AcDbVertex
100
AcDb2dVertex
 10
398.4999999999999
 20
91.81886566882599
 30
0.0
  0
VERTEX
  5
3D4
330
3D2
100
AcDbEntity
  8
Ｓ_１_１
  6
CONTINUOUS
 62
     3
100
AcDbVertex
100
AcDb2dVertex
 10
398.444018
 20
92.49673066882599
 30
0.0
  0
VERTEX
  5
3D5
330
3D2
100
AcDbEntity
  8
Ｓ_１_１
  6
CONTINUOUS
 62
     3
100
AcDbVertex
100
AcDb2dVertex
 10
398.2772109999999
 20
93.16079766882599
 30
0.0
  0
VERTEX
  5
3D6
330
3D2
100
AcDbEntity
  8
Ｓ_１_１
  6
CONTINUOUS
 62
     3
100
AcDbVertex
100
AcDb2dVertex
 10
398.0029759999999
 20
93.79754566882599
 30
0.0
  0
VERTEX
  5
3D7
330
3D2
100
AcDbEntity
  8
Ｓ_１_１
  6
CONTINUOUS
 62
     3
100
AcDbVertex
100
AcDb2dVertex
 10
397.6268939999999
 20
94.394013668826
 30
0.0
  0
VERTEX
  5
3D8
330
3D2
100
AcDbEntity
  8
Ｓ_１_１
  6
CONTINUOUS
 62
     3
100
AcDbVertex
100
AcDb2dVertex
 10
397.1566229999999
 20
94.93805866882599
 30
0.0
  0
VERTEX
  5
3D9
330
3D2
100
AcDbEntity
  8
Ｓ_１_１
  6
CONTINUOUS
 62
     3
100
AcDbVertex
100
AcDb2dVertex
 10
396.6017339999999
 20
95.41860666882599
 30
0.0
  0
VERTEX
  5
3DA
330
3D2
100
AcDbEntity
  8
Ｓ_１_１
  6
CONTINUOUS
 62
     3
100
AcDbVertex
100
AcDb2dVertex
 10
395.9735239999999
 20
95.82587366882599
 30
0.0
  0
VERTEX
  5
3DB
330
3D2
100
AcDbEntity
  8
Ｓ_１_１
  6
CONTINUOUS
 62
     3
100
AcDbVertex
100
AcDb2dVertex
 10
395.284782
 20
96.15157066882598
 30
0.0
  0
VERTEX
  5
3DC
330
3D2
100
AcDbEntity
  8
Ｓ_１_１
  6
CONTINUOUS
 62
     3
100
AcDbVertex
100
AcDb2dVertex
 10
394.5495289999999
 20
96.38906566882599
 30
0.0
  0
VERTEX
  5
3DD
330
3D2
100
AcDbEntity
  8
Ｓ_１_１
  6
CONTINUOUS
 62
     3
100
AcDbVertex
100
AcDb2dVertex
 10
393.782732
 20
96.53352366882602
 30
0.0
  0
VERTEX
  5
3DE
330
3D2
100
AcDbEntity
  8
Ｓ_１_１
  6
CONTINUOUS
 62
     3
100
AcDbVertex
100
AcDb2dVertex
 10
392.9999999999999
 20
96.58200566882601
 30
0.0
  0
VERTEX
  5
3DF
330
3D2
100
AcDbEntity
  8
Ｓ_１_１
  6
CONTINUOUS
 62
     3
100
AcDbVertex
100
AcDb2dVertex
 10
392.2172679999999
 20
96.53352366882602
 30
0.0
  0
VERTEX
  5
3E0
330
3D2
100
AcDbEntity
  8
Ｓ_１_１
  6
CONTINUOUS
 62
     3
100
AcDbVertex
100
AcDb2dVertex
 10
391.4504709999999
 20
96.389064668826
 30
0.0
  0
VERTEX
  5
3E1
330
3D2
100
AcDbEntity
  8
Ｓ_１_１
  6
CONTINUOUS
 62
     3
100
AcDbVertex
100
AcDb2dVertex
 10
390.715217
 20
96.15157066882598
 30
0.0
  0
VERTEX
  5
3E2
330
3D2
100
AcDbEntity
  8
Ｓ_１_１
  6
CONTINUOUS
 62
     3
100
AcDbVertex
100
AcDb2dVertex
 10
390.0264749999999
 20
95.82587366882599
 30
0.0
  0
VERTEX
  5
3E3
330
3D2
100
AcDbEntity
  8
Ｓ_１_１
  6
CONTINUOUS
 62
     3
100
AcDbVertex
100
AcDb2dVertex
 10
389.398266
 20
95.41860666882599
 30
0.0
  0
VERTEX
  5
3E4
330
3D2
100
AcDbEntity
  8
Ｓ_１_１
  6
CONTINUOUS
 62
     3
100
AcDbVertex
100
AcDb2dVertex
 10
388.843377
 20
94.93805866882599
 30
0.0
  0
VERTEX
  5
3E5
330
3D2
100
AcDbEntity
  8
Ｓ_１_１
  6
CONTINUOUS
 62
     3
100
AcDbVertex
100
AcDb2dVertex
 10
388.373106
 20
94.394013668826
 30
0.0
  0
VERTEX
  5
3E6
330
3D2
100
AcDbEntity
  8
Ｓ_１_１
  6
CONTINUOUS
 62
     3
100
AcDbVertex
100
AcDb2dVertex
 10
387.997024
 20
93.79754566882599
 30
0.0
  0
VERTEX
  5
3E7
330
3D2
100
AcDbEntity
  8
Ｓ_１_１
  6
CONTINUOUS
 62
     3
100
AcDbVertex
100
AcDb2dVertex
 10
387.722789
 20
93.16079666882598
 30
0.0
  0
VERTEX
  5
3E8
330
3D2
100
AcDbEntity
  8
Ｓ_１_１
  6
CONTINUOUS
 62
     3
100
AcDbVertex
100
AcDb2dVertex
 10
387.5559819999999
 20
92.49673066882599
 30
0.0
  0
VERTEX
  5
3E9
330
3D2
100
AcDbEntity
  8
Ｓ_１_１
  6
CONTINUOUS
 62
     3
100
AcDbVertex
100
AcDb2dVertex
 10
387.4999999999999
 20
91.81886566882599
 30
0.0
  0
SEQEND
  5
3EA
330
3D2
100
AcDbEntity
  8
Ｓ_１_１
  6
CONTINUOUS
 62
     3
  0
POLYLINE
  5
3EB
330
1F
100
AcDbEntity
  8
Ｓ_１_１
  6
CONTINUOUS
 62
     3
100
AcDb2dPolyline
 66
     1
 10
0.0
 20
0.0
 30
0.0
 70
   128
  0
VERTEX
  5
3EC
330
3EB
100
AcDbEntity
  8
Ｓ_１_１
  6
CONTINUOUS
 62
     3
100
AcDbVertex
100
AcDb2dVertex
 10
401.9999999999999
 20
94.568864668826
 30
0.0
  0
VERTEX
  5
3ED
330
3EB
100
AcDbEntity
  8
Ｓ_１_１
  6
CONTINUOUS
 62
     3
100
AcDbVertex
100
AcDb2dVertex
 10
401.9230039999999
 20
95.58621566882601
 30
0.0
  0
VERTEX
  5
3EE
330
3EB
100
AcDbEntity
  8
Ｓ_１_１
  6
CONTINUOUS
 62
     3
100
AcDbVertex
100
AcDb2dVertex
 10
401.693332
 20
96.58615966882599
 30
0.0
  0
VERTEX
  5
3EF
330
3EB
100
AcDbEntity
  8
Ｓ_１_１
  6
CONTINUOUS
 62
     3
100
AcDbVertex
100
AcDb2dVertex
 10
401.314916
 20
97.551587668826
 30
0.0
  0
VERTEX
  5
3F0
330
3EB
100
AcDbEntity
  8
Ｓ_１_１
  6
CONTINUOUS
 62
     3
100
AcDbVertex
100
AcDb2dVertex
 10
400.7942289999999
 20
98.46597966882602
 30
0.0
  0
VERTEX
  5
3F1
330
3EB
100
AcDbEntity
  8
Ｓ_１_１
  6
CONTINUOUS
 62
     3
100
AcDbVertex
100
AcDb2dVertex
 10
400.1401799999999
 20
99.31369066882598
 30
0.0
  0
VERTEX
  5
3F2
330
3EB
100
AcDbEntity
  8
Ｓ_１_１
  6
CONTINUOUS
 62
     3
100
AcDbVertex
100
AcDb2dVertex
 10
399.363961
 20
100.080216668826
 30
0.0
  0
VERTEX
  5
3F3
330
3EB
100
AcDbEntity
  8
Ｓ_１_１
  6
CONTINUOUS
 62
     3
100
AcDbVertex
100
AcDb2dVertex
 10
398.478853
 20
100.752442668826
 30
0.0
  0
VERTEX
  5
3F4
330
3EB
100
AcDbEntity
  8
Ｓ_１_１
  6
CONTINUOUS
 62
     3
100
AcDbVertex
100
AcDb2dVertex
 10
397.4999999999999
 20
101.318865668826
 30
0.0
  0
VERTEX
  5
3F5
330
3EB
100
AcDbEntity
  8
Ｓ_１_１
  6
CONTINUOUS
 62
     3
100
AcDbVertex
100
AcDb2dVertex
 10
396.444151
 20
101.769793668826
 30
0.0
  0
VERTEX
  5
3F6
330
3EB
100
AcDbEntity
  8
Ｓ_１_１
  6
CONTINUOUS
 62
     3
100
AcDbVertex
100
AcDb2dVertex
 10
395.329371
 20
102.097511668826
 30
0.0
  0
VERTEX
  5
3F7
330
3EB
100
AcDbEntity
  8
Ｓ_１_１
  6
CONTINUOUS
 62
     3
100
AcDbVertex
100
AcDb2dVertex
 10
394.174736
 20
102.296413668826
 30
0.0
  0
VERTEX
  5
3F8
330
3EB
100
AcDbEntity
  8
Ｓ_１_１
  6
CONTINUOUS
 62
     3
100
AcDbVertex
100
AcDb2dVertex
 10
392.9999999999999
 20
102.363093668826
 30
0.0
  0
VERTEX
  5
3F9
330
3EB
100
AcDbEntity
  8
Ｓ_１_１
  6
CONTINUOUS
 62
     3
100
AcDbVertex
100
AcDb2dVertex
 10
391.825264
 20
102.296413668826
 30
0.0
  0
VERTEX
  5
3FA
330
3EB
100
AcDbEntity
  8
Ｓ_１_１
  6
CONTINUOUS
 62
     3
100
AcDbVertex
100
AcDb2dVertex
 10
390.670629
 20
102.097511668826
 30
0.0
  0
VERTEX
  5
3FB
330
3EB
100
AcDbEntity
  8
Ｓ_１_１
  6
CONTINUOUS
 62
     3
100
AcDbVertex
100
AcDb2dVertex
 10
389.5558489999999
 20
101.769793668826
 30
0.0
  0
VERTEX
  5
3FC
330
3EB
100
AcDbEntity
  8
Ｓ_１_１
  6
CONTINUOUS
 62
     3
100
AcDbVertex
100
AcDb2dVertex
 10
388.4999999999999
 20
101.318865668826
 30
0.0
  0
VERTEX
  5
3FD
330
3EB
100
AcDbEntity
  8
Ｓ_１_１
  6
CONTINUOUS
 62
     3
100
AcDbVertex
100
AcDb2dVertex
 10
387.521147
 20
100.752442668826
 30
0.0
  0
VERTEX
  5
3FE
330
3EB
100
AcDbEntity
  8
Ｓ_１_１
  6
CONTINUOUS
 62
     3
100
AcDbVertex
100
AcDb2dVertex
 10
386.6360389999999
 20
100.080216668826
 30
0.0
  0
VERTEX
  5
3FF
330
3EB
100
AcDbEntity
  8
Ｓ_１_１
  6
CONTINUOUS
 62
     3
100
AcDbVertex
100
AcDb2dVertex
 10
385.85982
 20
99.31369066882598
 30
0.0
  0
VERTEX
  5
400
330
3EB
100
AcDbEntity
  8
Ｓ_１_１
  6
CONTINUOUS
 62
     3
100
AcDbVertex
100
AcDb2dVertex
 10
385.205771
 20
98.46597966882602
 30
0.0
  0
VERTEX
  5
401
330
3EB
100
AcDbEntity
  8
Ｓ_１_１
  6
CONTINUOUS
 62
     3
100
AcDbVertex
100
AcDb2dVertex
 10
384.685084
 20
97.551587668826
 30
0.0
  0
VERTEX
  5
402
330
3EB
100
AcDbEntity
  8
Ｓ_１_１
  6
CONTINUOUS
 62
     3
100
AcDbVertex
100
AcDb2dVertex
 10
384.306668
 20
96.58615966882599
 30
0.0
  0
VERTEX
  5
403
330
3EB
100
AcDbEntity
  8
Ｓ_１_１
  6
CONTINUOUS
 62
     3
100
AcDbVertex
100
AcDb2dVertex
 10
384.076996
 20
95.58621566882601
 30
0.0
  0
VERTEX
  5
404
330
3EB
100
AcDbEntity
  8
Ｓ_１_１
  6
CONTINUOUS
 62
     3
100
AcDbVertex
100
AcDb2dVertex
 10
383.9999999999999
 20
94.568864668826
 30
0.0
  0
SEQEND
  5
405
330
3EB
100
AcDbEntity
  8
Ｓ_１_１
  6
CONTINUOUS
 62
     3
  0
POLYLINE
  5
406
330
1F
100
AcDbEntity
  8
Ｓ_１_１
  6
CONTINUOUS
 62
     3
100
AcDb2dPolyline
 66
     1
 10
0.0
 20
0.0
 30
0.0
 70
   128
  0
VERTEX
  5
407
330
406
100
AcDbEntity
  8
Ｓ_１_１
  6
CONTINUOUS
 62
     3
100
AcDbVertex
100
AcDb2dVertex
 10
401.9999999999999
 20
96.818861668826
 30
0.0
  0
VERTEX
  5
408
330
406
100
AcDbEntity
  8
Ｓ_１_１
  6
CONTINUOUS
 62
     3
100
AcDbVertex
100
AcDb2dVertex
 10
401.908393
 20
97.92809566882597
 30
0.0
  0
VERTEX
  5
409
330
406
100
AcDbEntity
  8
Ｓ_１_１
  6
CONTINUOUS
 62
     3
100
AcDbVertex
100
AcDb2dVertex
 10
401.635437
 20
99.01474766882602
 30
0.0
  0
VERTEX
  5
40A
330
406
100
AcDbEntity
  8
Ｓ_１_１
  6
CONTINUOUS
 62
     3
100
AcDbVertex
100
AcDb2dVertex
 10
401.1866879999999
 20
100.056698668826
 30
0.0
  0
VERTEX
  5
40B
330
406
100
AcDbEntity
  8
Ｓ_１_１
  6
CONTINUOUS
 62
     3
100
AcDbVertex
100
AcDb2dVertex
 10
400.5712819999999
 20
101.032736668826
 30
0.0
  0
VERTEX
  5
40C
330
406
100
AcDbEntity
  8
Ｓ_１_１
  6
CONTINUOUS
 62
     3
100
AcDbVertex
100
AcDb2dVertex
 10
399.8017459999999
 20
101.922992668826
 30
0.0
  0
VERTEX
  5
40D
330
406
100
AcDbEntity
  8
Ｓ_１_１
  6
CONTINUOUS
 62
     3
100
AcDbVertex
100
AcDb2dVertex
 10
398.8937459999999
 20
102.709342668826
 30
0.0
  0
VERTEX
  5
40E
330
406
100
AcDbEntity
  8
Ｓ_１_１
  6
CONTINUOUS
 62
     3
100
AcDbVertex
100
AcDb2dVertex
 10
397.8657669999999
 20
103.375779668826
 30
0.0
  0
VERTEX
  5
40F
330
406
100
AcDbEntity
  8
Ｓ_１_１
  6
CONTINUOUS
 62
     3
100
AcDbVertex
100
AcDb2dVertex
 10
396.738735
 20
103.908736668826
 30
0.0
  0
VERTEX
  5
410
330
406
100
AcDbEntity
  8
Ｓ_１_１
  6
CONTINUOUS
 62
     3
100
AcDbVertex
100
AcDb2dVertex
 10
395.535593
 20
104.297364668826
 30
0.0
  0
VERTEX
  5
411
330
406
100
AcDbEntity
  8
Ｓ_１_１
  6
CONTINUOUS
 62
     3
100
AcDbVertex
100
AcDb2dVertex
 10
394.280833
 20
104.533751668826
 30
0.0
  0
VERTEX
  5
412
330
406
100
AcDbEntity
  8
Ｓ_１_１
  6
CONTINUOUS
 62
     3
100
AcDbVertex
100
AcDb2dVertex
 10
392.9999999999999
 20
104.613084668826
 30
0.0
  0
VERTEX
  5
413
330
406
100
AcDbEntity
  8
Ｓ_１_１
  6
CONTINUOUS
 62
     3
100
AcDbVertex
100
AcDb2dVertex
 10
391.7191659999999
 20
104.533750668826
 30
0.0
  0
VERTEX
  5
414
330
406
100
AcDbEntity
  8
Ｓ_１_１
  6
CONTINUOUS
 62
     3
100
AcDbVertex
100
AcDb2dVertex
 10
390.464407
 20
104.297364668826
 30
0.0
  0
VERTEX
  5
415
330
406
100
AcDbEntity
  8
Ｓ_１_１
  6
CONTINUOUS
 62
     3
100
AcDbVertex
100
AcDb2dVertex
 10
389.2612649999999
 20
103.908736668826
 30
0.0
  0
VERTEX
  5
416
330
406
100
AcDbEntity
  8
Ｓ_１_１
  6
CONTINUOUS
 62
     3
100
AcDbVertex
100
AcDb2dVertex
 10
388.1342329999999
 20
103.375779668826
 30
0.0
  0
VERTEX
  5
417
330
406
100
AcDbEntity
  8
Ｓ_１_１
  6
CONTINUOUS
 62
     3
100
AcDbVertex
100
AcDb2dVertex
 10
387.106253
 20
102.709342668826
 30
0.0
  0
VERTEX
  5
418
330
406
100
AcDbEntity
  8
Ｓ_１_１
  6
CONTINUOUS
 62
     3
100
AcDbVertex
100
AcDb2dVertex
 10
386.198254
 20
101.922992668826
 30
0.0
  0
VERTEX
  5
419
330
406
100
AcDbEntity
  8
Ｓ_１_１
  6
CONTINUOUS
 62
     3
100
AcDbVertex
100
AcDb2dVertex
 10
385.4287179999999
 20
101.032736668826
 30
0.0
  0
VERTEX
  5
41A
330
406
100
AcDbEntity
  8
Ｓ_１_１
  6
CONTINUOUS
 62
     3
100
AcDbVertex
100
AcDb2dVertex
 10
384.8133119999999
 20
100.056698668826
 30
0.0
  0
VERTEX
  5
41B
330
406
100
AcDbEntity
  8
Ｓ_１_１
  6
CONTINUOUS
 62
     3
100
AcDbVertex
100
AcDb2dVertex
 10
384.3645629999999
 20
99.01474766882602
 30
0.0
  0
VERTEX
  5
41C
330
406
100
AcDbEntity
  8
Ｓ_１_１
  6
CONTINUOUS
 62
     3
100
AcDbVertex
100
AcDb2dVertex
 10
384.091607
 20
97.92809466882598
 30
0.0
  0
VERTEX
  5
41D
330
406
100
AcDbEntity
  8
Ｓ_１_１
  6
CONTINUOUS
 62
     3
100
AcDbVertex
100
AcDb2dVertex
 10
383.9999999999999
 20
96.818861668826
 30
0.0
  0
SEQEND
  5
41E
330
406
100
AcDbEntity
  8
Ｓ_１_１
  6
CONTINUOUS
 62
     3
  0
POLYLINE
  5
41F
330
1F
100
AcDbEntity
  8
Ｓ_１_１
  6
CONTINUOUS
 62
     3
100
AcDb2dPolyline
 66
     1
 10
0.0
 20
0.0
 30
0.0
 70
   128
  0
VERTEX
  5
420
330
41F
100
AcDbEntity
  8
Ｓ_１_１
  6
CONTINUOUS
 62
     3
100
AcDbVertex
100
AcDb2dVertex
 10
401.9999999999999
 20
101.318866668826
 30
0.0
  0
VERTEX
  5
421
330
41F
100
AcDbEntity
  8
Ｓ_１_１
  6
CONTINUOUS
 62
     3
100
AcDbVertex
100
AcDb2dVertex
 10
401.9230039999999
 20
102.336217668826
 30
0.0
  0
VERTEX
  5
422
330
41F
100
AcDbEntity
  8
Ｓ_１_１
  6
CONTINUOUS
 62
     3
100
AcDbVertex
100
AcDb2dVertex
 10
401.693332
 20
103.336161668826
 30
0.0
  0
VERTEX
  5
423
330
41F
100
AcDbEntity
  8
Ｓ_１_１
  6
CONTINUOUS
 62
     3
100
AcDbVertex
100
AcDb2dVertex
 10
401.314916
 20
104.301588668826
 30
0.0
  0
VERTEX
  5
424
330
41F
100
AcDbEntity
  8
Ｓ_１_１
  6
CONTINUOUS
 62
     3
100
AcDbVertex
100
AcDb2dVertex
 10
400.7942289999999
 20
105.215980668826
 30
0.0
  0
VERTEX
  5
425
330
41F
100
AcDbEntity
  8
Ｓ_１_１
  6
CONTINUOUS
 62
     3
100
AcDbVertex
100
AcDb2dVertex
 10
400.1401799999999
 20
106.063692668826
 30
0.0
  0
VERTEX
  5
426
330
41F
100
AcDbEntity
  8
Ｓ_１_１
  6
CONTINUOUS
 62
     3
100
AcDbVertex
100
AcDb2dVertex
 10
399.363961
 20
106.830218668826
 30
0.0
  0
VERTEX
  5
427
330
41F
100
AcDbEntity
  8
Ｓ_１_１
  6
CONTINUOUS
 62
     3
100
AcDbVertex
100
AcDb2dVertex
 10
398.478853
 20
107.502443668826
 30
0.0
  0
VERTEX
  5
428
330
41F
100
AcDbEntity
  8
Ｓ_１_１
  6
CONTINUOUS
 62
     3
100
AcDbVertex
100
AcDb2dVertex
 10
397.4999999999999
 20
108.068866668826
 30
0.0
  0
VERTEX
  5
429
330
41F
100
AcDbEntity
  8
Ｓ_１_１
  6
CONTINUOUS
 62
     3
100
AcDbVertex
100
AcDb2dVertex
 10
396.444151
 20
108.519794668826
 30
0.0
  0
VERTEX
  5
42A
330
41F
100
AcDbEntity
  8
Ｓ_１_１
  6
CONTINUOUS
 62
     3
100
AcDbVertex
100
AcDb2dVertex
 10
395.329371
 20
108.847513668826
 30
0.0
  0
VERTEX
  5
42B
330
41F
100
AcDbEntity
  8
Ｓ_１_１
  6
CONTINUOUS
 62
     3
100
AcDbVertex
100
AcDb2dVertex
 10
394.174736
 20
109.046414668826
 30
0.0
  0
VERTEX
  5
42C
330
41F
100
AcDbEntity
  8
Ｓ_１_１
  6
CONTINUOUS
 62
     3
100
AcDbVertex
100
AcDb2dVertex
 10
392.9999999999999
 20
109.113095668826
 30
0.0
  0
VERTEX
  5
42D
330
41F
100
AcDbEntity
  8
Ｓ_１_１
  6
CONTINUOUS
 62
     3
100
AcDbVertex
100
AcDb2dVertex
 10
391.825264
 20
109.046414668826
 30
0.0
  0
VERTEX
  5
42E
330
41F
100
AcDbEntity
  8
Ｓ_１_１
  6
CONTINUOUS
 62
     3
100
AcDbVertex
100
AcDb2dVertex
 10
390.670629
 20
108.847513668826
 30
0.0
  0
VERTEX
  5
42F
330
41F
100
AcDbEntity
  8
Ｓ_１_１
  6
CONTINUOUS
 62
     3
100
AcDbVertex
100
AcDb2dVertex
 10
389.5558489999999
 20
108.519794668826
 30
0.0
  0
VERTEX
  5
430
330
41F
100
AcDbEntity
  8
Ｓ_１_１
  6
CONTINUOUS
 62
     3
100
AcDbVertex
100
AcDb2dVertex
 10
388.4999999999999
 20
108.068866668826
 30
0.0
  0
VERTEX
  5
431
330
41F
100
AcDbEntity
  8
Ｓ_１_１
  6
CONTINUOUS
 62
     3
100
AcDbVertex
100
AcDb2dVertex
 10
387.521147
 20
107.502443668826
 30
0.0
  0
VERTEX
  5
432
330
41F
100
AcDbEntity
  8
Ｓ_１_１
  6
CONTINUOUS
 62
     3
100
AcDbVertex
100
AcDb2dVertex
 10
386.6360389999999
 20
106.830218668826
 30
0.0
  0
VERTEX
  5
433
330
41F
100
AcDbEntity
  8
Ｓ_１_１
  6
CONTINUOUS
 62
     3
100
AcDbVertex
100
AcDb2dVertex
 10
385.85982
 20
106.063692668826
 30
0.0
  0
VERTEX
  5
434
330
41F
100
AcDbEntity
  8
Ｓ_１_１
  6
CONTINUOUS
 62
     3
100
AcDbVertex
100
AcDb2dVertex
 10
385.205771
 20
105.215980668826
 30
0.0
  0
VERTEX
  5
435
330
41F
100
AcDbEntity
  8
Ｓ_１_１
  6
CONTINUOUS
 62
     3
100
AcDbVertex
100
AcDb2dVertex
 10
384.685084
 20
104.301588668826
 30
0.0
  0
VERTEX
  5
436
330
41F
100
AcDbEntity
  8
Ｓ_１_１
  6
CONTINUOUS
 62
     3
100
AcDbVertex
100
AcDb2dVertex
 10
384.306668
 20
103.336161668826
 30
0.0
  0
VERTEX
  5
437
330
41F
100
AcDbEntity
  8
Ｓ_１_１
  6
CONTINUOUS
 62
     3
100
AcDbVertex
100
AcDb2dVertex
 10
384.076996
 20
102.336217668826
 30
0.0
  0
VERTEX
  5
438
330
41F
100
AcDbEntity
  8
Ｓ_１_１
  6
CONTINUOUS
 62
     3
100
AcDbVertex
100
AcDb2dVertex
 10
383.9999999999999
 20
101.318866668826
 30
0.0
  0
SEQEND
  5
439
330
41F
100
AcDbEntity
  8
Ｓ_１_１
  6
CONTINUOUS
 62
     3
  0
POLYLINE
  5
43A
330
1F
100
AcDbEntity
  8
Ｓ_１_１
  6
CONTINUOUS
 62
     3
100
AcDb2dPolyline
 66
     1
 10
0.0
 20
0.0
 30
0.0
 70
   128
  0
VERTEX
  5
43B
330
43A
100
AcDbEntity
  8
Ｓ_１_１
  6
CONTINUOUS
 62
     3
100
AcDbVertex
100
AcDb2dVertex
 10
401.9999999999999
 20
95.02693466882602
 30
0.0
  0
VERTEX
  5
43C
330
43A
100
AcDbEntity
  8
Ｓ_１_１
  6
CONTINUOUS
 62
     3
100
AcDbVertex
100
AcDb2dVertex
 10
402.9996469999999
 20
96.22544366882602
 30
0.0
  0
VERTEX
  5
43D
330
43A
100
AcDbEntity
  8
Ｓ_１_１
  6
CONTINUOUS
 62
     3
100
AcDbVertex
100
AcDb2dVertex
 10
403.788199
 20
97.53675266882601
 30
0.0
  0
VERTEX
  5
43E
330
43A
100
AcDbEntity
  8
Ｓ_１_１
  6
CONTINUOUS
 62
     3
100
AcDbVertex
100
AcDb2dVertex
 10
404.349011
 20
98.93318166882598
 30
0.0
  0
VERTEX
  5
43F
330
43A
100
AcDbEntity
  8
Ｓ_１_１
  6
CONTINUOUS
 62
     3
100
AcDbVertex
100
AcDb2dVertex
 10
404.670243
 20
100.385249668826
 30
0.0
  0
VERTEX
  5
440
330
43A
100
AcDbEntity
  8
Ｓ_１_１
  6
CONTINUOUS
 62
     3
100
AcDbVertex
100
AcDb2dVertex
 10
404.745114
 20
101.862303668826
 30
0.0
  0
VERTEX
  5
441
330
43A
100
AcDbEntity
  8
Ｓ_１_１
  6
CONTINUOUS
 62
     3
100
AcDbVertex
100
AcDb2dVertex
 10
404.572043
 20
103.333163668826
 30
0.0
  0
VERTEX
  5
442
330
43A
100
AcDbEntity
  8
Ｓ_１_１
  6
CONTINUOUS
 62
     3
100
AcDbVertex
100
AcDb2dVertex
 10
404.1546839999999
 20
104.766778668826
 30
0.0
  0
VERTEX
  5
443
330
43A
100
AcDbEntity
  8
Ｓ_１_１
  6
CONTINUOUS
 62
     3
100
AcDbVertex
100
AcDb2dVertex
 10
403.5018479999999
 20
106.132885668826
 30
0.0
  0
VERTEX
  5
444
330
43A
100
AcDbEntity
  8
Ｓ_１_１
  6
CONTINUOUS
 62
     3
100
AcDbVertex
100
AcDb2dVertex
 10
402.627316
 20
107.402644668826
 30
0.0
  0
VERTEX
  5
445
330
43A
100
AcDbEntity
  8
Ｓ_１_１
  6
CONTINUOUS
 62
     3
100
AcDbVertex
100
AcDb2dVertex
 10
401.54955
 20
108.549251668826
 30
0.0
  0
VERTEX
  5
446
330
43A
100
AcDbEntity
  8
Ｓ_１_１
  6
CONTINUOUS
 62
     3
100
AcDbVertex
100
AcDb2dVertex
 10
400.2912999999999
 20
109.548501668826
 30
0.0
  0
VERTEX
  5
447
330
43A
100
AcDbEntity
  8
Ｓ_１_１
  6
CONTINUOUS
 62
     3
100
AcDbVertex
100
AcDb2dVertex
 10
398.879131
 20
110.379300668826
 30
0.0
  0
VERTEX
  5
448
330
43A
100
AcDbEntity
  8
Ｓ_１_１
  6
CONTINUOUS
 62
     3
100
AcDbVertex
100
AcDb2dVertex
 10
397.3428509999999
 20
111.024109668826
 30
0.0
  0
VERTEX
  5
449
330
43A
100
AcDbEntity
  8
Ｓ_１_１
  6
CONTINUOUS
 62
     3
100
AcDbVertex
100
AcDb2dVertex
 10
395.714894
 20
111.469315668826
 30
0.0
  0
VERTEX
  5
44A
330
43A
100
AcDbEntity
  8
Ｓ_１_１
  6
CONTINUOUS
 62
     3
100
AcDbVertex
100
AcDb2dVertex
 10
394.029624
 20
111.705522668826
 30
0.0
  0
VERTEX
  5
44B
330
43A
100
AcDbEntity
  8
Ｓ_１_１
  6
CONTINUOUS
 62
     3
100
AcDbVertex
100
AcDb2dVertex
 10
392.322619
 20
111.727741668826
 30
0.0
  0
VERTEX
  5
44C
330
43A
100
AcDbEntity
  8
Ｓ_１_１
  6
CONTINUOUS
 62
     3
100
AcDbVertex
100
AcDb2dVertex
 10
390.6299129999999
 20
111.535505668826
 30
0.0
  0
VERTEX
  5
44D
330
43A
100
AcDbEntity
  8
Ｓ_１_１
  6
CONTINUOUS
 62
     3
100
AcDbVertex
100
AcDb2dVertex
 10
388.987241
 20
111.132872668826
 30
0.0
  0
VERTEX
  5
44E
330
43A
100
AcDbEntity
  8
Ｓ_１_１
  6
CONTINUOUS
 62
     3
100
AcDbVertex
100
AcDb2dVertex
 10
387.429278
 20
110.528340668826
 30
0.0
  0
VERTEX
  5
44F
330
43A
100
AcDbEntity
  8
Ｓ_１_１
  6
CONTINUOUS
 62
     3
100
AcDbVertex
100
AcDb2dVertex
 10
385.988915
 20
109.734672668826
 30
0.0
  0
VERTEX
  5
450
330
43A
100
AcDbEntity
  8
Ｓ_１_１
  6
CONTINUOUS
 62
     3
100
AcDbVertex
100
AcDb2dVertex
 10
384.6965569999999
 20
108.768623668826
 30
0.0
  0
VERTEX
  5
451
330
43A
100
AcDbEntity
  8
Ｓ_１_１
  6
CONTINUOUS
 62
     3
100
AcDbVertex
100
AcDb2dVertex
 10
383.5794859999999
 20
107.650585668826
 30
0.0
  0
VERTEX
  5
452
330
43A
100
AcDbEntity
  8
Ｓ_１_１
  6
CONTINUOUS
 62
     3
100
AcDbVertex
100
AcDb2dVertex
 10
382.661284
 20
106.404162668826
 30
0.0
  0
VERTEX
  5
453
330
43A
100
AcDbEntity
  8
Ｓ_１_１
  6
CONTINUOUS
 62
     3
100
AcDbVertex
100
AcDb2dVertex
 10
381.9613339999999
 20
105.055664668826
 30
0.0
  0
VERTEX
  5
454
330
43A
100
AcDbEntity
  8
Ｓ_１_１
  6
CONTINUOUS
 62
     3
100
AcDbVertex
100
AcDb2dVertex
 10
381.494412
 20
103.633559668826
 30
0.0
  0
VERTEX
  5
455
330
43A
100
AcDbEntity
  8
Ｓ_１_１
  6
CONTINUOUS
 62
     3
100
AcDbVertex
100
AcDb2dVertex
 10
381.270375
 20
102.167868668826
 30
0.0
  0
VERTEX
  5
456
330
43A
100
AcDbEntity
  8
Ｓ_１_１
  6
CONTINUOUS
 62
     3
100
AcDbVertex
100
AcDb2dVertex
 10
381.2939529999999
 20
100.689532668826
 30
0.0
  0
VERTEX
  5
457
330
43A
100
AcDbEntity
  8
Ｓ_１_１
  6
CONTINUOUS
 62
     3
100
AcDbVertex
100
AcDb2dVertex
 10
381.564648
 20
99.22975966882602
 30
0.0
  0
VERTEX
  5
458
330
43A
100
AcDbEntity
  8
Ｓ_１_１
  6
CONTINUOUS
 62
     3
100
AcDbVertex
100
AcDb2dVertex
 10
382.076745
 20
97.81936566882602
 30
0.0
  0
VERTEX
  5
459
330
43A
100
AcDbEntity
  8
Ｓ_１_１
  6
CONTINUOUS
 62
     3
100
AcDbVertex
100
AcDb2dVertex
 10
382.8194339999999
 20
96.488124668826
 30
0.0
  0
VERTEX
  5
45A
330
43A
100
AcDbEntity
  8
Ｓ_１_１
  6
CONTINUOUS
 62
     3
100
AcDbVertex
100
AcDb2dVertex
 10
383.372684
 20
95.735088668826
 30
0.0
  0
VERTEX
  5
45B
330
43A
100
AcDbEntity
  8
Ｓ_１_１
  6
CONTINUOUS
 62
     3
100
AcDbVertex
100
AcDb2dVertex
 10
383.9999999999999
 20
95.02693366882602
 30
0.0
  0
SEQEND
  5
45C
330
43A
100
AcDbEntity
  8
Ｓ_１_１
  6
CONTINUOUS
 62
     3
  0
LINE
  5
45D
330
1F
100
AcDbEntity
  8
Ｓ_１_１
  6
CONTINUOUS
 62
     3
100
AcDbLine
 10
393.0
 20
118.354784097401
 30
0.0
 11
393.0
 21
120.7829772402542
 31
0.0
  0
LINE
  5
45E
330
1F
100
AcDbEntity
  8
Ｓ_１_１
  6
CONTINUOUS
 62
     3
100
AcDbLine
 10
380.99999295275
 20
100.354873367725
 30
0.0
 11
381.3923946860979
 21
100.1586676161273
 31
0.0
  0
ELLIPSE
  5
45F
330
1F
100
AcDbEntity
  8
Ｓ_１_１
  6
CONTINUOUS
 62
     3
100
AcDbEllipse
 10
393.0
 20
105.81888749573
 30
0.0
 11
-11.75
 21
-3.779088226740095E-15
 31
0.0
210
0.0
220
0.0
230
1.0
 40
0.8660287614251917
 41
3.14144200483249
 42
6.283335955851256
  0
ARC
  5
460
330
1F
100
AcDbEntity
  8
Ｓ_１_１
  6
CONTINUOUS
 62
     3
100
AcDbCircle
 10
372.9091642397218
 20
143.5366087727587
 30
0.0
 40
32.21437372974811
100
AcDbArc
 50
284.5459205149284
 51
308.5839466953737
  0
LINE
  5
461
330
1F
100
AcDbEntity
  8
Ｓ_１_１
  6
CONTINUOUS
 62
     3
100
AcDbLine
 10
380.99999295275
 20
100.354873367725
 30
0.0
 11
380.99999295275
 21
114.782925813916
 31
0.0
  0
ARC
  5
462
330
1F
100
AcDbEntity
  8
Ｓ_１_１
  6
CONTINUOUS
 62
     3
100
AcDbCircle
 10
401.0908287130282
 20
89.6011031385533
 30
0.0
 40
32.21437372974811
100
AcDbArc
 50
104.5459205149283
 51
128.5839466953737
  0
ARC
  5
463
330
1F
100
AcDbEntity
  8
Ｓ_１_１
  6
CONTINUOUS
 62
     3
100
AcDbCircle
 10
384.9091712869717
 20
89.6011031385533
 30
0.0
 40
32.21437372974811
100
AcDbArc
 50
51.41605330462631
 51
75.45407948507166
  0
ARC
  5
464
330
1F
100
AcDbEntity
  8
Ｓ_１_１
  6
CONTINUOUS
 62
     3
100
AcDbCircle
 10
413.0908357602781
 20
143.5366087727587
 30
0.0
 40
32.21437372974811
100
AcDbArc
 50
231.4160533046263
 51
255.4540794850716
  0
LINE
  5
465
330
1F
100
AcDbEntity
  8
Ｓ_１_１
  6
CONTINUOUS
 62
     3
100
AcDbLine
 10
405.0000070472499
 20
100.354873367725
 30
0.0
 11
404.607605313902
 21
100.1586676161273
 31
0.0
  0
LINE
  5
466
330
1F
100
AcDbEntity
  8
Ｓ_１_１
  6
CONTINUOUS
 62
     3
100
AcDbLine
 10
405.00000704725
 20
100.354873367725
 30
0.0
 11
405.00000704725
 21
114.7829258139159
 31
0.0
  0
POLYLINE
  5
467
330
1F
100
AcDbEntity
  8
Ｓ_１_１
  6
CONTINUOUS
 62
     3
100
AcDb2dPolyline
 66
     1
 10
0.0
 20
0.0
 30
0.0
 70
   128
  0
VERTEX
  5
468
330
467
100
AcDbEntity
  8
Ｓ_１_１
  6
CONTINUOUS
 62
     3
100
AcDbVertex
100
AcDb2dVertex
 10
382.5
 20
118.7877845601807
 30
0.0
  0
VERTEX
  5
469
330
467
100
AcDbEntity
  8
Ｓ_１_１
  6
CONTINUOUS
 62
     3
100
AcDbVertex
100
AcDb2dVertex
 10
382.5
 20
116.3770439155764
 30
0.0
  0
VERTEX
  5
46A
330
467
100
AcDbEntity
  8
Ｓ_１_１
  6
CONTINUOUS
 62
     3
100
AcDbVertex
100
AcDb2dVertex
 10
382.5
 20
115.9097892053779
 30
0.0
  0
SEQEND
  5
46B
330
467
100
AcDbEntity
  8
Ｓ_１_１
  6
CONTINUOUS
 62
     3
  0
POLYLINE
  5
46C
330
1F
100
AcDbEntity
  8
Ｓ_１_１
  6
CONTINUOUS
 62
     3
100
AcDb2dPolyline
 66
     1
 10
0.0
 20
0.0
 30
0.0
 70
   128
  0
VERTEX
  5
46D
330
46C
100
AcDbEntity
  8
Ｓ_１_１
  6
CONTINUOUS
 62
     3
100
AcDbVertex
100
AcDb2dVertex
 10
402.2871247947704
 20
116.7262318328226
 30
0.0
  0
VERTEX
  5
46E
330
46C
100
AcDbEntity
  8
Ｓ_１_１
  6
CONTINUOUS
 62
     3
100
AcDbVertex
100
AcDb2dVertex
 10
401.9196807895635
 20
117.4178956373543
 30
0.0
  0
VERTEX
  5
46F
330
46C
100
AcDbEntity
  8
Ｓ_１_１
  6
CONTINUOUS
 62
     3
100
AcDbVertex
100
AcDb2dVertex
 10
401.2634678235602
 20
118.3357269662534
 30
0.0
  0
VERTEX
  5
470
330
46C
100
AcDbEntity
  8
Ｓ_１_１
  6
CONTINUOUS
 62
     3
100
AcDbVertex
100
AcDb2dVertex
 10
400.4819891086672
 20
119.1767645424048
 30
0.0
  0
VERTEX
  5
471
330
46C
100
AcDbEntity
  8
Ｓ_１_１
  6
CONTINUOUS
 62
     3
100
AcDbVertex
100
AcDb2dVertex
 10
399.5870910656065
 20
119.9282590934605
 30
0.0
  0
VERTEX
  5
472
330
46C
100
AcDbEntity
  8
Ｓ_１_１
  6
CONTINUOUS
 62
     3
100
AcDbVertex
100
AcDb2dVertex
 10
398.592339436502
 20
120.5788187280578
 30
0.0
  0
VERTEX
  5
473
330
46C
100
AcDbEntity
  8
Ｓ_１_１
  6
CONTINUOUS
 62
     3
100
AcDbVertex
100
AcDb2dVertex
 10
397.5128136420572
 20
121.1185816252802
 30
0.0
  0
VERTEX
  5
474
330
46C
100
AcDbEntity
  8
Ｓ_１_１
  6
CONTINUOUS
 62
     3
100
AcDbVertex
100
AcDb2dVertex
 10
396.3648781929076
 20
121.5393655298099
 30
0.0
  0
VERTEX
  5
475
330
46C
100
AcDbEntity
  8
Ｓ_１_１
  6
CONTINUOUS
 62
     3
100
AcDbVertex
100
AcDb2dVertex
 10
395.1659346203217
 20
121.8347917865776
 30
0.0
  0
VERTEX
  5
476
330
46C
100
AcDbEntity
  8
Ｓ_１_１
  6
CONTINUOUS
 62
     3
100
AcDbVertex
100
AcDb2dVertex
 10
393.9341576867237
 20
122.0003820346717
 30
0.0
  0
VERTEX
  5
477
330
46C
100
AcDbEntity
  8
Ｓ_１_１
  6
CONTINUOUS
 62
     3
100
AcDbVertex
100
AcDb2dVertex
 10
392.6882198748229
 20
122.0336260947245
 30
0.0
  0
VERTEX
  5
478
330
46C
100
AcDbEntity
  8
Ｓ_１_１
  6
CONTINUOUS
 62
     3
100
AcDbVertex
100
AcDb2dVertex
 10
391.4470083318086
 20
121.9340200206728
 30
0.0
  0
VERTEX
  5
479
330
46C
100
AcDbEntity
  8
Ｓ_１_１
  6
CONTINUOUS
 62
     3
100
AcDbVertex
100
AcDb2dVertex
 10
390.2293385594517
 20
121.7030737390663
 30
0.0
  0
VERTEX
  5
47A
330
46C
100
AcDbEntity
  8
Ｓ_１_１
  6
CONTINUOUS
 62
     3
100
AcDbVertex
100
AcDb2dVertex
 10
389.0536691902767
 20
121.3442881601204
 30
0.0
  0
VERTEX
  5
47B
330
46C
100
AcDbEntity
  8
Ｓ_１_１
  6
CONTINUOUS
 62
     3
100
AcDbVertex
100
AcDb2dVertex
 10
387.9378221735089
 20
120.8631021074862
 30
0.0
  0
VERTEX
  5
47C
330
46C
100
AcDbEntity
  8
Ｓ_１_１
  6
CONTINUOUS
 62
     3
100
AcDbVertex
100
AcDb2dVertex
 10
386.8987126124909
 20
120.2668098712275
 30
0.0
  0
VERTEX
  5
47D
330
46C
100
AcDbEntity
  8
Ｓ_１_１
  6
CONTINUOUS
 62
     3
100
AcDbVertex
100
AcDb2dVertex
 10
385.9520923489574
 20
119.5644506338191
 30
0.0
  0
VERTEX
  5
47E
330
46C
100
AcDbEntity
  8
Ｓ_１_１
  6
CONTINUOUS
 62
     3
100
AcDbVertex
100
AcDb2dVertex
 10
385.1123111811724
 20
118.7666714453546
 30
0.0
  0
VERTEX
  5
47F
330
46C
100
AcDbEntity
  8
Ｓ_１_１
  6
CONTINUOUS
 62
     3
100
AcDbVertex
100
AcDb2dVertex
 10
384.3920993356135
 20
117.8855658251198
 30
0.0
  0
VERTEX
  5
480
330
46C
100
AcDbEntity
  8
Ｓ_１_１
  6
CONTINUOUS
 62
     3
100
AcDbVertex
100
AcDb2dVertex
 10
383.8023744897161
 20
116.9344904361678
 30
0.0
  0
VERTEX
  5
481
330
46C
100
AcDbEntity
  8
Ｓ_１_１
  6
CONTINUOUS
 62
     3
100
AcDbVertex
100
AcDb2dVertex
 10
383.7077420624864
 20
116.7229425544123
 30
0.0
  0
SEQEND
  5
482
330
46C
100
AcDbEntity
  8
Ｓ_１_１
  6
CONTINUOUS
 62
     3
  0
POLYLINE
  5
483
330
1F
100
AcDbEntity
  8
Ｓ_１_１
  6
CONTINUOUS
 62
     3
100
AcDb2dPolyline
 66
     1
 10
0.0
 20
0.0
 30
0.0
 70
   128
  0
VERTEX
  5
484
330
483
100
AcDbEntity
  8
Ｓ_１_１
  6
CONTINUOUS
 62
     3
100
AcDbVertex
100
AcDb2dVertex
 10
403.5
 20
115.9097892053778
 30
0.0
  0
VERTEX
  5
485
330
483
100
AcDbEntity
  8
Ｓ_１_１
  6
CONTINUOUS
 62
     3
100
AcDbVertex
100
AcDb2dVertex
 10
403.5
 20
116.3327116093487
 30
0.0
  0
VERTEX
  5
486
330
483
100
AcDbEntity
  8
Ｓ_１_１
  6
CONTINUOUS
 62
     3
100
AcDbVertex
100
AcDb2dVertex
 10
403.5
 20
118.7877845601808
 30
0.0
  0
SEQEND
  5
487
330
483
100
AcDbEntity
  8
Ｓ_１_１
  6
CONTINUOUS
 62
     3
  0
POLYLINE
  5
488
330
1F
100
AcDbEntity
  8
Ｓ_１_１
  6
CONTINUOUS
 62
     3
100
AcDb2dPolyline
 66
     1
 10
0.0
 20
0.0
 30
0.0
 70
   128
  0
VERTEX
  5
489
330
488
100
AcDbEntity
  8
Ｓ_１_１
  6
CONTINUOUS
 62
     3
100
AcDbVertex
100
AcDb2dVertex
 10
407.9999999999999
 20
126.593913
 30
0.0
  0
VERTEX
  5
48A
330
488
100
AcDbEntity
  8
Ｓ_１_１
  6
CONTINUOUS
 62
     3
100
AcDbVertex
100
AcDb2dVertex
 10
407.859348
 20
128.368689
 30
0.0
  0
VERTEX
  5
48B
330
488
100
AcDbEntity
  8
Ｓ_１_１
  6
CONTINUOUS
 62
     3
100
AcDbVertex
100
AcDb2dVertex
 10
407.4400289999999
 20
130.110182
 30
0.0
  0
VERTEX
  5
48C
330
488
100
AcDbEntity
  8
Ｓ_１_１
  6
CONTINUOUS
 62
     3
100
AcDbVertex
100
AcDb2dVertex
 10
406.749907
 20
131.785732
 30
0.0
  0
VERTEX
  5
48D
330
488
100
AcDbEntity
  8
Ｓ_１_１
  6
CONTINUOUS
 62
     3
100
AcDbVertex
100
AcDb2dVertex
 10
405.8019239999999
 20
133.363917
 30
0.0
  0
VERTEX
  5
48E
330
488
100
AcDbEntity
  8
Ｓ_１_１
  6
CONTINUOUS
 62
     3
100
AcDbVertex
100
AcDb2dVertex
 10
404.613859
 20
134.815139
 30
0.0
  0
VERTEX
  5
48F
330
488
100
AcDbEntity
  8
Ｓ_１_１
  6
CONTINUOUS
 62
     3
100
AcDbVertex
100
AcDb2dVertex
 10
403.2079919999999
 20
136.112183
 30
0.0
  0
VERTEX
  5
490
330
488
100
AcDbEntity
  8
Ｓ_１_１
  6
CONTINUOUS
 62
     3
100
AcDbVertex
100
AcDb2dVertex
 10
401.6106879999999
 20
137.230726
 30
0.0
  0
VERTEX
  5
491
330
488
100
AcDbEntity
  8
Ｓ_１_１
  6
CONTINUOUS
 62
     3
100
AcDbVertex
100
AcDb2dVertex
 10
399.8519019999999
 20
138.149789
 30
0.0
  0
VERTEX
  5
492
330
488
100
AcDbEntity
  8
Ｓ_１_１
  6
CONTINUOUS
 62
     3
100
AcDbVertex
100
AcDb2dVertex
 10
397.9646179999999
 20
138.852138
 30
0.0
  0
VERTEX
  5
493
330
488
100
AcDbEntity
  8
Ｓ_１_１
  6
CONTINUOUS
 62
     3
100
AcDbVertex
100
AcDb2dVertex
 10
395.984229
 20
139.324601
 30
0.0
  0
VERTEX
  5
494
330
488
100
AcDbEntity
  8
Ｓ_１_１
  6
CONTINUOUS
 62
     3
100
AcDbVertex
100
AcDb2dVertex
 10
393.947876
 20
139.558317
 30
0.0
  0
VERTEX
  5
495
330
488
100
AcDbEntity
  8
Ｓ_１_１
  6
CONTINUOUS
 62
     3
100
AcDbVertex
100
AcDb2dVertex
 10
391.8937459999999
 20
139.548903
 30
0.0
  0
VERTEX
  5
496
330
488
100
AcDbEntity
  8
Ｓ_１_１
  6
CONTINUOUS
 62
     3
100
AcDbVertex
100
AcDb2dVertex
 10
389.860362
 20
139.296536
 30
0.0
  0
VERTEX
  5
497
330
488
100
AcDbEntity
  8
Ｓ_１_１
  6
CONTINUOUS
 62
     3
100
AcDbVertex
100
AcDb2dVertex
 10
387.8858589999999
 20
138.805949
 30
0.0
  0
VERTEX
  5
498
330
488
100
AcDbEntity
  8
Ｓ_１_１
  6
CONTINUOUS
 62
     3
100
AcDbVertex
100
AcDb2dVertex
 10
386.007264
 20
138.086342
 30
0.0
  0
VERTEX
  5
499
330
488
100
AcDbEntity
  8
Ｓ_１_１
  6
CONTINUOUS
 62
     3
100
AcDbVertex
100
AcDb2dVertex
 10
384.259808
 20
137.15121
 30
0.0
  0
VERTEX
  5
49A
330
488
100
AcDbEntity
  8
Ｓ_１_１
  6
CONTINUOUS
 62
     3
100
AcDbVertex
100
AcDb2dVertex
 10
382.676262
 20
136.018091
 30
0.0
  0
VERTEX
  5
49B
330
488
100
AcDbEntity
  8
Ｓ_１_１
  6
CONTINUOUS
 62
     3
100
AcDbVertex
100
AcDb2dVertex
 10
381.286324
 20
134.708233
 30
0.0
  0
VERTEX
  5
49C
330
488
100
AcDbEntity
  8
Ｓ_１_１
  6
CONTINUOUS
 62
     3
100
AcDbVertex
100
AcDb2dVertex
 10
380.11606
 20
133.246203
 30
0.0
  0
VERTEX
  5
49D
330
488
100
AcDbEntity
  8
Ｓ_１_１
  6
CONTINUOUS
 62
     3
100
AcDbVertex
100
AcDb2dVertex
 10
379.1874169999999
 20
131.659418
 30
0.0
  0
VERTEX
  5
49E
330
488
100
AcDbEntity
  8
Ｓ_１_１
  6
CONTINUOUS
 62
     3
100
AcDbVertex
100
AcDb2dVertex
 10
378.517809
 20
129.977637
 30
0.0
  0
VERTEX
  5
49F
330
488
100
AcDbEntity
  8
Ｓ_１_１
  6
CONTINUOUS
 62
     3
100
AcDbVertex
100
AcDb2dVertex
 10
377.9999999999999
 20
127.7071082897767
 30
0.0
  0
SEQEND
  5
4A0
330
488
100
AcDbEntity
  8
Ｓ_１_１
  6
CONTINUOUS
 62
     3
  0
LINE
  5
4A1
330
1F
100
AcDbEntity
  8
Ｓ_１_１
  6
CONTINUOUS
 62
     3
100
AcDbLine
 10
377.9999999999999
 20
127.7071082897767
 30
0.0
 11
377.9999999999999
 21
121.500018
 31
0.0
  0
LINE
  5
4A2
330
1F
100
AcDbEntity
  8
Ｓ_１_１
  6
CONTINUOUS
 62
     3
100
AcDbLine
 10
407.9999999999999
 20
126.593913
 30
0.0
 11
407.9999999999999
 21
121.500018
 31
0.0
  0
POLYLINE
  5
4A3
330
1F
100
AcDbEntity
  8
Ｓ_１_１
  6
CONTINUOUS
 62
     3
100
AcDb2dPolyline
 66
     1
 10
0.0
 20
0.0
 30
0.0
 70
   128
  0
VERTEX
  5
4A4
330
4A3
100
AcDbEntity
  8
Ｓ_１_１
  6
CONTINUOUS
 62
     3
100
AcDbVertex
100
AcDb2dVertex
 10
392.9999999999999
 20
145.14238
 30
0.0
  0
VERTEX
  5
4A5
330
4A3
100
AcDbEntity
  8
Ｓ_１_１
  6
CONTINUOUS
 62
     3
100
AcDbVertex
100
AcDb2dVertex
 10
390.489446
 20
144.956177
 30
0.0
  0
VERTEX
  5
4A6
330
4A3
100
AcDbEntity
  8
Ｓ_１_１
  6
CONTINUOUS
 62
     3
100
AcDbVertex
100
AcDb2dVertex
 10
388.0279699999999
 20
144.401209
 30
0.0
  0
VERTEX
  5
4A7
330
4A3
100
AcDbEntity
  8
Ｓ_１_１
  6
CONTINUOUS
 62
     3
100
AcDbVertex
100
AcDb2dVertex
 10
385.6636919999999
 20
143.488325
 30
0.0
  0
VERTEX
  5
4A8
330
4A3
100
AcDbEntity
  8
Ｓ_１_１
  6
CONTINUOUS
 62
     3
100
AcDbVertex
100
AcDb2dVertex
 10
383.442831
 20
142.23537
 30
0.0
  0
VERTEX
  5
4A9
330
4A3
100
AcDbEntity
  8
Ｓ_１_１
  6
CONTINUOUS
 62
     3
100
AcDbVertex
100
AcDb2dVertex
 10
381.408801
 20
140.666839
 30
0.0
  0
VERTEX
  5
4AA
330
4A3
100
AcDbEntity
  8
Ｓ_１_１
  6
CONTINUOUS
 62
     3
100
AcDbVertex
100
AcDb2dVertex
 10
379.6013669999999
 20
138.813394
 30
0.0
  0
VERTEX
  5
4AB
330
4A3
100
AcDbEntity
  8
Ｓ_１_１
  6
CONTINUOUS
 62
     3
100
AcDbVertex
100
AcDb2dVertex
 10
378.05586
 20
136.711268
 30
0.0
  0
VERTEX
  5
4AC
330
4A3
100
AcDbEntity
  8
Ｓ_１_１
  6
CONTINUOUS
 62
     3
100
AcDbVertex
100
AcDb2dVertex
 10
376.802495
 20
134.401556
 30
0.0
  0
VERTEX
  5
4AD
330
4A3
100
AcDbEntity
  8
Ｓ_１_１
  6
CONTINUOUS
 62
     3
100
AcDbVertex
100
AcDb2dVertex
 10
375.8657729999999
 20
131.929409
 30
0.0
  0
VERTEX
  5
4AE
330
4A3
100
AcDbEntity
  8
Ｓ_１_１
  6
CONTINUOUS
 62
     3
100
AcDbVertex
100
AcDb2dVertex
 10
375.2640059999999
 20
129.343156
 30
0.0
  0
VERTEX
  5
4AF
330
4A3
100
AcDbEntity
  8
Ｓ_１_１
  6
CONTINUOUS
 62
     3
100
AcDbVertex
100
AcDb2dVertex
 10
375.008958
 20
126.693354
 30
0.0
  0
VERTEX
  5
4B0
330
4A3
100
AcDbEntity
  8
Ｓ_１_１
  6
CONTINUOUS
 62
     3
100
AcDbVertex
100
AcDb2dVertex
 10
375.105615
 20
124.031805
 30
0.0
  0
VERTEX
  5
4B1
330
4A3
100
AcDbEntity
  8
Ｓ_１_１
  6
CONTINUOUS
 62
     3
100
AcDbVertex
100
AcDb2dVertex
 10
375.552086
 20
121.410539
 30
0.0
  0
VERTEX
  5
4B2
330
4A3
100
AcDbEntity
  8
Ｓ_１_１
  6
CONTINUOUS
 62
     3
100
AcDbVertex
100
AcDb2dVertex
 10
376.339645
 20
118.880798
 30
0.0
  0
VERTEX
  5
4B3
330
4A3
100
AcDbEntity
  8
Ｓ_１_１
  6
CONTINUOUS
 62
     3
100
AcDbVertex
100
AcDb2dVertex
 10
377.452895
 20
116.492036
 30
0.0
  0
VERTEX
  5
4B4
330
4A3
100
AcDbEntity
  8
Ｓ_１_１
  6
CONTINUOUS
 62
     3
100
AcDbVertex
100
AcDb2dVertex
 10
378.870074
 20
114.290951
 30
0.0
  0
VERTEX
  5
4B5
330
4A3
100
AcDbEntity
  8
Ｓ_１_１
  6
CONTINUOUS
 62
     3
100
AcDbVertex
100
AcDb2dVertex
 10
380.99999295275
 20
111.8126587233237
 30
0.0
  0
SEQEND
  5
4B6
330
4A3
100
AcDbEntity
  8
Ｓ_１_１
  6
CONTINUOUS
 62
     3
  0
POLYLINE
  5
4B7
330
1F
100
AcDbEntity
  8
Ｓ_１_１
  6
CONTINUOUS
 62
     3
100
AcDb2dPolyline
 66
     1
 10
0.0
 20
0.0
 30
0.0
 70
   128
  0
VERTEX
  5
4B8
330
4B7
100
AcDbEntity
  8
Ｓ_１_１
  6
CONTINUOUS
 62
     3
100
AcDbVertex
100
AcDb2dVertex
 10
405.00000704725
 20
111.7948142937744
 30
0.0
  0
VERTEX
  5
4B9
330
4B7
100
AcDbEntity
  8
Ｓ_１_１
  6
CONTINUOUS
 62
     3
100
AcDbVertex
100
AcDb2dVertex
 10
407.237511
 20
114.436677
 30
0.0
  0
VERTEX
  5
4BA
330
4B7
100
AcDbEntity
  8
Ｓ_１_１
  6
CONTINUOUS
 62
     3
100
AcDbVertex
100
AcDb2dVertex
 10
408.677545
 20
116.732644
 30
0.0
  0
VERTEX
  5
4BB
330
4B7
100
AcDbEntity
  8
Ｓ_１_１
  6
CONTINUOUS
 62
     3
100
AcDbVertex
100
AcDb2dVertex
 10
409.789507
 20
119.224476
 30
0.0
  0
VERTEX
  5
4BC
330
4B7
100
AcDbEntity
  8
Ｓ_１_１
  6
CONTINUOUS
 62
     3
100
AcDbVertex
100
AcDb2dVertex
 10
410.5501289999999
 20
121.860027
 30
0.0
  0
VERTEX
  5
4BD
330
4B7
100
AcDbEntity
  8
Ｓ_１_１
  6
CONTINUOUS
 62
     3
100
AcDbVertex
100
AcDb2dVertex
 10
410.9434939999999
 20
124.584146
 30
0.0
  0
VERTEX
  5
4BE
330
4B7
100
AcDbEntity
  8
Ｓ_１_１
  6
CONTINUOUS
 62
     3
100
AcDbVertex
100
AcDb2dVertex
 10
410.9613689999999
 20
127.339828
 30
0.0
  0
VERTEX
  5
4BF
330
4B7
100
AcDbEntity
  8
Ｓ_１_１
  6
CONTINUOUS
 62
     3
100
AcDbVertex
100
AcDb2dVertex
 10
410.603381
 20
130.069407
 30
0.0
  0
VERTEX
  5
4C0
330
4B7
100
AcDbEntity
  8
Ｓ_１_１
  6
CONTINUOUS
 62
     3
100
AcDbVertex
100
AcDb2dVertex
 10
409.877021
 20
132.715762
 30
0.0
  0
VERTEX
  5
4C1
330
4B7
100
AcDbEntity
  8
Ｓ_１_１
  6
CONTINUOUS
 62
     3
100
AcDbVertex
100
AcDb2dVertex
 10
408.797488
 20
135.223515
 30
0.0
  0
VERTEX
  5
4C2
330
4B7
100
AcDbEntity
  8
Ｓ_１_１
  6
CONTINUOUS
 62
     3
100
AcDbVertex
100
AcDb2dVertex
 10
407.387375
 20
137.54019
 30
0.0
  0
VERTEX
  5
4C3
330
4B7
100
AcDbEntity
  8
Ｓ_１_１
  6
CONTINUOUS
 62
     3
100
AcDbVertex
100
AcDb2dVertex
 10
405.676188
 20
139.617306
 30
0.0
  0
VERTEX
  5
4C4
330
4B7
100
AcDbEntity
  8
Ｓ_１_１
  6
CONTINUOUS
 62
     3
100
AcDbVertex
100
AcDb2dVertex
 10
403.699737
 20
141.411397
 30
0.0
  0
VERTEX
  5
4C5
330
4B7
100
AcDbEntity
  8
Ｓ_１_１
  6
CONTINUOUS
 62
     3
100
AcDbVertex
100
AcDb2dVertex
 10
401.4993809999999
 20
142.884921
 30
0.0
  0
VERTEX
  5
4C6
330
4B7
100
AcDbEntity
  8
Ｓ_１_１
  6
CONTINUOUS
 62
     3
100
AcDbVertex
100
AcDb2dVertex
 10
399.121165
 20
144.007041
 30
0.0
  0
VERTEX
  5
4C7
330
4B7
100
AcDbEntity
  8
Ｓ_１_１
  6
CONTINUOUS
 62
     3
100
AcDbVertex
100
AcDb2dVertex
 10
396.614856
 20
144.754276
 30
0.0
  0
VERTEX
  5
4C8
330
4B7
100
AcDbEntity
  8
Ｓ_１_１
  6
CONTINUOUS
 62
     3
100
AcDbVertex
100
AcDb2dVertex
 10
394.816705
 20
145.045106
 30
0.0
  0
VERTEX
  5
4C9
330
4B7
100
AcDbEntity
  8
Ｓ_１_１
  6
CONTINUOUS
 62
     3
100
AcDbVertex
100
AcDb2dVertex
 10
392.9999999999999
 20
145.14238
 30
0.0
  0
SEQEND
  5
4CA
330
4B7
100
AcDbEntity
  8
Ｓ_１_１
  6
CONTINUOUS
 62
     3
  0
POLYLINE
  5
4CB
330
1F
100
AcDbEntity
  8
Ｓ_１_１
  6
CONTINUOUS
 62
     3
100
AcDb2dPolyline
 66
     1
 10
0.0
 20
0.0
 30
0.0
 70
   128
  0
VERTEX
  5
4CC
330
4CB
100
AcDbEntity
  8
Ｓ_１_１
  6
CONTINUOUS
 62
     3
100
AcDbVertex
100
AcDb2dVertex
 10
405.00000704725
 20
113.7126939349616
 30
0.0
  0
VERTEX
  5
4CD
330
4CB
100
AcDbEntity
  8
Ｓ_１_１
  6
CONTINUOUS
 62
     3
100
AcDbVertex
100
AcDb2dVertex
 10
406.1664389999999
 20
115.276375
 30
0.0
  0
VERTEX
  5
4CE
330
4CB
100
AcDbEntity
  8
Ｓ_１_１
  6
CONTINUOUS
 62
     3
100
AcDbVertex
100
AcDb2dVertex
 10
407.081634
 20
117.024449
 30
0.0
  0
VERTEX
  5
4CF
330
4CB
100
AcDbEntity
  8
Ｓ_１_１
  6
CONTINUOUS
 62
     3
100
AcDbVertex
100
AcDb2dVertex
 10
407.689417
 20
118.870228
 30
0.0
  0
VERTEX
  5
4D0
330
4CB
100
AcDbEntity
  8
Ｓ_１_１
  6
CONTINUOUS
 62
     3
100
AcDbVertex
100
AcDb2dVertex
 10
407.976517
 20
120.773418
 30
0.0
  0
VERTEX
  5
4D1
330
4CB
100
AcDbEntity
  8
Ｓ_１_１
  6
CONTINUOUS
 62
     3
100
AcDbVertex
100
AcDb2dVertex
 10
407.936669
 20
122.69247
 30
0.0
  0
VERTEX
  5
4D2
330
4CB
100
AcDbEntity
  8
Ｓ_１_１
  6
CONTINUOUS
 62
     3
100
AcDbVertex
100
AcDb2dVertex
 10
407.5707409999999
 20
124.58549
 30
0.0
  0
VERTEX
  5
4D3
330
4CB
100
AcDbEntity
  8
Ｓ_１_１
  6
CONTINUOUS
 62
     3
100
AcDbVertex
100
AcDb2dVertex
 10
406.886723
 20
126.411151
 30
0.0
  0
VERTEX
  5
4D4
330
4CB
100
AcDbEntity
  8
Ｓ_１_１
  6
CONTINUOUS
 62
     3
100
AcDbVertex
100
AcDb2dVertex
 10
405.8995459999999
 20
128.129599
 30
0.0
  0
VERTEX
  5
4D5
330
4CB
100
AcDbEntity
  8
Ｓ_１_１
  6
CONTINUOUS
 62
     3
100
AcDbVertex
100
AcDb2dVertex
 10
404.6307619999999
 20
129.703317
 30
0.0
  0
VERTEX
  5
4D6
330
4CB
100
AcDbEntity
  8
Ｓ_１_１
  6
CONTINUOUS
 62
     3
100
AcDbVertex
100
AcDb2dVertex
 10
403.1080689999999
 20
131.097951
 30
0.0
  0
VERTEX
  5
4D7
330
4CB
100
AcDbEntity
  8
Ｓ_１_１
  6
CONTINUOUS
 62
     3
100
AcDbVertex
100
AcDb2dVertex
 10
401.364709
 20
132.283055
 30
0.0
  0
VERTEX
  5
4D8
330
4CB
100
AcDbEntity
  8
Ｓ_１_１
  6
CONTINUOUS
 62
     3
100
AcDbVertex
100
AcDb2dVertex
 10
399.438741
 20
133.232756
 30
0.0
  0
VERTEX
  5
4D9
330
4CB
100
AcDbEntity
  8
Ｓ_１_１
  6
CONTINUOUS
 62
     3
100
AcDbVertex
100
AcDb2dVertex
 10
397.3722099999999
 20
133.926322
 30
0.0
  0
VERTEX
  5
4DA
330
4CB
100
AcDbEntity
  8
Ｓ_１_１
  6
CONTINUOUS
 62
     3
100
AcDbVertex
100
AcDb2dVertex
 10
395.21023
 20
134.348612
 30
0.0
  0
VERTEX
  5
4DB
330
4CB
100
AcDbEntity
  8
Ｓ_１_１
  6
CONTINUOUS
 62
     3
100
AcDbVertex
100
AcDb2dVertex
 10
392.9999989999999
 20
134.490407
 30
0.0
  0
SEQEND
  5
4DC
330
4CB
100
AcDbEntity
  8
Ｓ_１_１
  6
CONTINUOUS
 62
     3
  0
POLYLINE
  5
4DD
330
1F
100
AcDbEntity
  8
Ｓ_１_１
  6
CONTINUOUS
 62
     3
100
AcDb2dPolyline
 66
     1
 10
0.0
 20
0.0
 30
0.0
 70
   128
  0
VERTEX
  5
4DE
330
4DD
100
AcDbEntity
  8
Ｓ_１_１
  6
CONTINUOUS
 62
     3
100
AcDbVertex
100
AcDb2dVertex
 10
392.9999999999999
 20
134.490407
 30
0.0
  0
VERTEX
  5
4DF
330
4DD
100
AcDbEntity
  8
Ｓ_１_１
  6
CONTINUOUS
 62
     3
100
AcDbVertex
100
AcDb2dVertex
 10
390.90845
 20
134.363504
 30
0.0
  0
VERTEX
  5
4E0
330
4DD
100
AcDbEntity
  8
Ｓ_１_１
  6
CONTINUOUS
 62
     3
100
AcDbVertex
100
AcDb2dVertex
 10
388.8577649999999
 20
133.985274
 30
0.0
  0
VERTEX
  5
4E1
330
4DD
100
AcDbEntity
  8
Ｓ_１_１
  6
CONTINUOUS
 62
     3
100
AcDbVertex
100
AcDb2dVertex
 10
386.88801
 20
133.363106
 30
0.0
  0
VERTEX
  5
4E2
330
4DD
100
AcDbEntity
  8
Ｓ_１_１
  6
CONTINUOUS
 62
     3
100
AcDbVertex
100
AcDb2dVertex
 10
385.037672
 20
132.509158
 30
0.0
  0
VERTEX
  5
4E3
330
4DD
100
AcDbEntity
  8
Ｓ_１_１
  6
CONTINUOUS
 62
     3
100
AcDbVertex
100
AcDb2dVertex
 10
383.3429019999999
 20
131.440112
 30
0.0
  0
VERTEX
  5
4E4
330
4DD
100
AcDbEntity
  8
Ｓ_１_１
  6
CONTINUOUS
 62
     3
100
AcDbVertex
100
AcDb2dVertex
 10
381.8368129999999
 20
130.176857
 30
0.0
  0
VERTEX
  5
4E5
330
4DD
100
AcDbEntity
  8
Ｓ_１_１
  6
CONTINUOUS
 62
     3
100
AcDbVertex
100
AcDb2dVertex
 10
380.54883
 20
128.744073
 30
0.0
  0
VERTEX
  5
4E6
330
4DD
100
AcDbEntity
  8
Ｓ_１_１
  6
CONTINUOUS
 62
     3
100
AcDbVertex
100
AcDb2dVertex
 10
379.504118
 20
127.169755
 30
0.0
  0
VERTEX
  5
4E7
330
4DD
100
AcDbEntity
  8
Ｓ_１_１
  6
CONTINUOUS
 62
     3
100
AcDbVertex
100
AcDb2dVertex
 10
378.723089
 20
125.484662
 30
0.0
  0
VERTEX
  5
4E8
330
4DD
100
AcDbEntity
  8
Ｓ_１_１
  6
CONTINUOUS
 62
     3
100
AcDbVertex
100
AcDb2dVertex
 10
378.2210029999999
 20
123.721716
 30
0.0
  0
VERTEX
  5
4E9
330
4DD
100
AcDbEntity
  8
Ｓ_１_１
  6
CONTINUOUS
 62
     3
100
AcDbVertex
100
AcDb2dVertex
 10
378.007669
 20
121.915363
 30
0.0
  0
VERTEX
  5
4EA
330
4DD
100
AcDbEntity
  8
Ｓ_１_１
  6
CONTINUOUS
 62
     3
100
AcDbVertex
100
AcDb2dVertex
 10
378.087256
 20
120.100895
 30
0.0
  0
VERTEX
  5
4EB
330
4DD
100
AcDbEntity
  8
Ｓ_１_１
  6
CONTINUOUS
 62
     3
100
AcDbVertex
100
AcDb2dVertex
 10
378.458208
 20
118.313762
 30
0.0
  0
VERTEX
  5
4EC
330
4DD
100
AcDbEntity
  8
Ｓ_１_１
  6
CONTINUOUS
 62
     3
100
AcDbVertex
100
AcDb2dVertex
 10
379.113277
 20
116.588883
 30
0.0
  0
VERTEX
  5
4ED
330
4DD
100
AcDbEntity
  8
Ｓ_１_１
  6
CONTINUOUS
 62
     3
100
AcDbVertex
100
AcDb2dVertex
 10
380.039666
 20
114.959958
 30
0.0
  0
VERTEX
  5
4EE
330
4DD
100
AcDbEntity
  8
Ｓ_１_１
  6
CONTINUOUS
 62
     3
100
AcDbVertex
100
AcDb2dVertex
 10
380.99999295275
 20
113.7378655731209
 30
0.0
  0
SEQEND
  5
4EF
330
4DD
100
AcDbEntity
  8
Ｓ_１_１
  6
CONTINUOUS
 62
     3
  0
LINE
  5
4F0
330
1F
100
AcDbEntity
  8
Ｓ_１_１
  6
CONTINUOUS
 62
     3
100
AcDbLine
 10
373.4999999999999
 20
94.5
 30
0.0
 11
383.9999999999999
 21
94.5
 31
0.0
  0
LINE
  5
4F1
330
1F
100
AcDbEntity
  8
Ｓ_１_１
  6
CONTINUOUS
 62
     3
100
AcDbLine
 10
401.9999999999999
 20
94.5
 30
0.0
 11
448.9999999999999
 21
94.5
 31
0.0
  0
LINE
  5
4F2
330
1F
100
AcDbEntity
  8
Ｓ_１_１
  6
CONTINUOUS
 62
     3
100
AcDbLine
 10
187.812236
 20
147.0
 30
0.0
 11
187.812236
 21
177.0
 31
0.0
  0
LINE
  5
4F3
330
1F
100
AcDbEntity
  8
Ｓ_１_１
  6
CONTINUOUS
 62
     3
100
AcDbLine
 10
198.0000100000001
 20
146.999985
 30
0.0
 11
198.0000100000001
 21
177.0
 31
0.0
  0
LINE
  5
4F4
330
1F
100
AcDbEntity
  8
Ｓ_１_１
  6
CONTINUOUS
 62
     3
100
AcDbLine
 10
199.5
 20
148.5
 30
0.0
 11
199.5
 21
175.500005
 31
0.0
  0
LINE
  5
4F5
330
1F
100
AcDbEntity
  8
Ｓ_１_１
  6
CONTINUOUS
 62
     3
100
AcDbLine
 10
170.825199
 20
113.60351
 30
0.0
 11
185.8252100884562
 21
139.5842921339736
 31
0.0
  0
ELLIPSE
  5
4F6
330
1F
100
AcDbEntity
  8
Ｓ_１_１
  6
CONTINUOUS
 62
     3
100
AcDbEllipse
 10
393.0
 20
120.74998724722
 30
0.0
 11
-13.49999998645488
 21
0.000604746309236807
 31
0.0
210
0.0
220
0.0
230
1.0
 40
0.8660274432163294
 41
2.625964373861319
 42
6.798908287094077
  0
LINE
  5
4F7
330
1F
100
AcDbEntity
  8
Ｓ_１_１
  6
EXLTYPE2
 62
     1
100
AcDbLine
 10
392.9999999999999
 20
147.697993
 30
0.0
 11
392.9999999999999
 21
77.733333333333
 31
0.0
  0
DIMENSION
  5
4F8
330
1F
100
AcDbEntity
  8
Ｓ_１_１
  6
CONTINUOUS
 62
     2
100
AcDbDimension
  2
*D20
 10
415.0
 20
63.0
 30
0.0
 11
432.5
 21
66.66666666666667
 31
0.0
 70
   160
  3
ISO-25
100
AcDbAlignedDimension
 13
450.0
 23
95.500030000035
 33
0.0
 14
415.0
 24
141.0
 34
0.0
100
AcDbRotatedDimension
1001
ACAD
1000
DSTYLE
1002
{
1070
   270
1070
     2
1070
     6
1000
EX_NORM
1070
     7
1000
EX_NORM
1070
    41
1040
4.0
1070
    42
1040
2.0
1070
    44
1040
1.333333333333336
1070
    73
1070
     0
1070
    74
1070
     0
1070
    75
1070
     0
1070
    76
1070
     0
1070
    77
1070
     1
1070
    78
1070
     8
1070
   140
1040
4.617205542725173
1070
   147
1040
0.0
1070
   173
1070
     1
1070
   176
1070
     2
1070
   177
1070
     2
1070
   178
1070
     2
1070
   271
1070
     2
1070
   277
1070
     2
1070
   279
1070
     2
1070
   280
1070
     0
1070
   287
1070
     5
1070
   340
1005
114
1002
}
  0
DIMENSION
  5
505
330
1F
100
AcDbEntity
  8
Ｓ_１_１
  6
CONTINUOUS
 62
     2
100
AcDbDimension
  2
*D21
 10
393.0
 20
54.0
 30
0.0
 11
421.5
 21
57.66666666666666
 31
0.0
 70
   160
  3
ISO-25
100
AcDbAlignedDimension
 13
450.0
 23
95.500030000035
 33
0.0
 14
393.0
 24
77.733333333333
 34
0.0
100
AcDbRotatedDimension
1001
ACAD
1000
DSTYLE
1002
{
1070
   270
1070
     2
1070
     6
1000
EX_NORM
1070
     7
1000
EX_NORM
1070
    41
1040
4.0
1070
    42
1040
2.0
1070
    44
1040
1.333333333333336
1070
    73
1070
     0
1070
    74
1070
     0
1070
    75
1070
     0
1070
    76
1070
     0
1070
    77
1070
     1
1070
    78
1070
     8
1070
   140
1040
4.617205542725173
1070
   147
1040
0.0
1070
   173
1070
     1
1070
   176
1070
     2
1070
   177
1070
     2
1070
   178
1070
     2
1070
   271
1070
     2
1070
   277
1070
     2
1070
   279
1070
     2
1070
   280
1070
     0
1070
   287
1070
     5
1070
   340
1005
114
1002
}
  0
CIRCLE
  5
512
330
1F
100
AcDbEntity
  8
Ｓ_１_１
  6
EXLTYPE2
 62
     1
100
AcDbCircle
 10
116.9999999999999
 20
162.000000000003
 30
0.0
 40
45.0
  0
CIRCLE
  5
513
330
1F
100
AcDbEntity
  8
Ｓ_１_１
  6
CONTINUOUS
 62
     3
100
AcDbCircle
 10
116.9999999999999
 20
117.000000000003
 30
0.0
 40
2.5
  0
CIRCLE
  5
514
330
1F
100
AcDbEntity
  8
Ｓ_１_１
  6
CONTINUOUS
 62
     3
100
AcDbCircle
 10
116.9999999999999
 20
207.000000000003
 30
0.0
 40
2.5
  0
CIRCLE
  5
515
330
1F
100
AcDbEntity
  8
Ｓ_１_１
  6
CONTINUOUS
 62
     3
100
AcDbCircle
 10
116.9999999999999
 20
117.000000000003
 30
0.0
 40
2.0
  0
CIRCLE
  5
516
330
1F
100
AcDbEntity
  8
Ｓ_１_１
  6
CONTINUOUS
 62
     3
100
AcDbCircle
 10
116.9999999999999
 20
207.000000000003
 30
0.0
 40
2.0
  0
CIRCLE
  5
517
330
1F
100
AcDbEntity
  8
Ｓ_１_１
  6
CONTINUOUS
 62
     3
100
AcDbCircle
 10
117.0
 20
162.0
 30
0.0
 40
14.00000000000001
  0
CIRCLE
  5
518
330
1F
100
AcDbEntity
  8
Ｓ_１_１
  6
CONTINUOUS
 62
     3
100
AcDbCircle
 10
117.0
 20
162.0
 30
0.0
 40
16.0
  0
CIRCLE
  5
519
330
1F
100
AcDbEntity
  8
Ｓ_１_１
  6
CONTINUOUS
 62
     3
100
AcDbCircle
 10
117.0
 20
162.0
 30
0.0
 40
24.00000000000002
  0
CIRCLE
  5
51A
330
1F
100
AcDbEntity
  8
Ｓ_１_１
  6
CONTINUOUS
 62
     3
100
AcDbCircle
 10
117.0
 20
162.0
 30
0.0
 40
26.00000000000002
  0
CIRCLE
  5
51B
330
1F
100
AcDbEntity
  8
Ｓ_１_１
  6
EXLTYPE2
 62
     1
100
AcDbCircle
 10
117.0
 20
162.0
 30
0.0
 40
15.00000000000001
  0
CIRCLE
  5
51C
330
1F
100
AcDbEntity
  8
Ｓ_１_１
  6
EXLTYPE2
 62
     1
100
AcDbCircle
 10
117.0
 20
162.0
 30
0.0
 40
25.00000000000002
  0
CIRCLE
  5
51D
330
1F
100
AcDbEntity
  8
Ｓ_１_１
  6
CONTINUOUS
 62
     3
100
AcDbCircle
 10
117.0
 20
162.0
 30
0.0
 40
9.5
  0
CIRCLE
  5
51E
330
1F
100
AcDbEntity
  8
Ｓ_１_１
  6
CONTINUOUS
 62
     3
100
AcDbCircle
 10
117.0
 20
162.0
 30
0.0
 40
9.0
  0
CIRCLE
  5
51F
330
1F
100
AcDbEntity
  8
Ｓ_１_１
  6
CONTINUOUS
 62
     3
100
AcDbCircle
 10
117.0
 20
162.0
 30
0.0
 40
6.250000000000004
  0
CIRCLE
  5
520
330
1F
100
AcDbEntity
  8
Ｓ_１_１
  6
CONTINUOUS
 62
     3
100
AcDbCircle
 10
117.0
 20
162.0
 30
0.0
 40
5.0
  0
CIRCLE
  5
521
330
1F
100
AcDbEntity
  8
Ｓ_１_１
  6
CONTINUOUS
 62
     3
100
AcDbCircle
 10
117.0
 20
162.0
 30
0.0
 40
4.0
  0
LINE
  5
522
330
1F
100
AcDbEntity
  8
Ｓ_１_１
  6
CONTINUOUS
 62
     3
100
AcDbLine
 10
119.5
 20
162.0
 30
0.0
 11
119.5
 21
163.443375672977
 31
0.0
  0
LINE
  5
523
330
1F
100
AcDbEntity
  8
Ｓ_１_１
  6
CONTINUOUS
 62
     3
100
AcDbLine
 10
118.25
 20
164.16506350946
 30
0.0
 11
119.5
 21
163.443375672977
 31
0.0
  0
LINE
  5
524
330
1F
100
AcDbEntity
  8
Ｓ_１_１
  6
CONTINUOUS
 62
     3
100
AcDbLine
 10
118.25
 20
164.165063509461
 30
0.0
 11
116.9999999999973
 21
164.8867513459496
 31
0.0
  0
LINE
  5
525
330
1F
100
AcDbEntity
  8
Ｓ_１_１
  6
CONTINUOUS
 62
     3
100
AcDbLine
 10
115.7500000000009
 20
164.1650635094605
 30
0.0
 11
116.9999999999973
 21
164.8867513459496
 31
0.0
  0
LINE
  5
526
330
1F
100
AcDbEntity
  8
Ｓ_１_１
  6
CONTINUOUS
 62
     3
100
AcDbLine
 10
115.75
 20
164.165063509461
 30
0.0
 11
114.4999999999975
 21
163.4433756729725
 31
0.0
  0
LINE
  5
527
330
1F
100
AcDbEntity
  8
Ｓ_１_１
  6
CONTINUOUS
 62
     3
100
AcDbLine
 10
114.5000000000009
 20
162.0000000000005
 30
0.0
 11
114.4999999999975
 21
163.4433756729725
 31
0.0
  0
LINE
  5
528
330
1F
100
AcDbEntity
  8
Ｓ_１_１
  6
CONTINUOUS
 62
     3
100
AcDbLine
 10
114.5
 20
162.0
 30
0.0
 11
114.5
 21
160.5566243270229
 31
0.0
  0
LINE
  5
529
330
1F
100
AcDbEntity
  8
Ｓ_１_１
  6
CONTINUOUS
 62
     3
100
AcDbLine
 10
115.75
 20
159.8349364905399
 30
0.0
 11
114.5
 21
160.5566243270229
 31
0.0
  0
LINE
  5
52A
330
1F
100
AcDbEntity
  8
Ｓ_１_１
  6
CONTINUOUS
 62
     3
100
AcDbLine
 10
115.75
 20
159.8349364905389
 30
0.0
 11
117.0000000000027
 21
159.1132486540504
 31
0.0
  0
LINE
  5
52B
330
1F
100
AcDbEntity
  8
Ｓ_１_１
  6
CONTINUOUS
 62
     3
100
AcDbLine
 10
118.2499999999991
 20
159.8349364905395
 30
0.0
 11
117.0000000000027
 21
159.1132486540504
 31
0.0
  0
LINE
  5
52C
330
1F
100
AcDbEntity
  8
Ｓ_１_１
  6
CONTINUOUS
 62
     3
100
AcDbLine
 10
118.25
 20
159.8349364905389
 30
0.0
 11
119.5000000000027
 21
160.5566243270274
 31
0.0
  0
LINE
  5
52D
330
1F
100
AcDbEntity
  8
Ｓ_１_１
  6
CONTINUOUS
 62
     3
100
AcDbLine
 10
119.4999999999991
 20
161.9999999999994
 30
0.0
 11
119.5000000000027
 21
160.5566243270274
 31
0.0
  0
CIRCLE
  5
52E
330
1F
100
AcDbEntity
  8
Ｓ_１_１
  6
CONTINUOUS
 62
     3
100
AcDbCircle
 10
117.0
 20
162.0
 30
0.0
 40
33.5
  0
CIRCLE
  5
52F
330
1F
100
AcDbEntity
  8
Ｓ_１_１
  6
CONTINUOUS
 62
     3
100
AcDbCircle
 10
117.0
 20
162.0
 30
0.0
 40
33.99999999999682
  0
CIRCLE
  5
530
330
1F
100
AcDbEntity
  8
Ｓ_１_１
  6
CONTINUOUS
 62
     3
100
AcDbCircle
 10
117.0
 20
162.0
 30
0.0
 40
35.00000000000043
  0
CIRCLE
  5
531
330
1F
100
AcDbEntity
  8
Ｓ_１_１
  6
CONTINUOUS
 62
     3
100
AcDbCircle
 10
116.9999999999999
 20
141.999997500003
 30
0.0
 40
2.5
  0
CIRCLE
  5
532
330
1F
100
AcDbEntity
  8
Ｓ_１_１
  6
CONTINUOUS
 62
     3
100
AcDbCircle
 10
116.9999999999999
 20
141.999997500003
 30
0.0
 40
2.0
  0
CIRCLE
  5
533
330
1F
100
AcDbEntity
  8
Ｓ_１_１
  6
EXLTYPE2
 62
     1
100
AcDbCircle
 10
117.0
 20
162.0
 30
0.0
 40
20.00000249999999
  0
CIRCLE
  5
534
330
1F
100
AcDbEntity
  8
Ｓ_１_１
  6
CONTINUOUS
 62
     3
100
AcDbCircle
 10
116.9999999999999
 20
182.000002500003
 30
0.0
 40
2.5
  0
CIRCLE
  5
535
330
1F
100
AcDbEntity
  8
Ｓ_１_１
  6
CONTINUOUS
 62
     3
100
AcDbCircle
 10
116.9999999999999
 20
182.000002500003
 30
0.0
 40
2.0
  0
CIRCLE
  5
536
330
1F
100
AcDbEntity
  8
Ｓ_１_１
  6
CONTINUOUS
 62
     3
100
AcDbCircle
 10
71.9999999999999
 20
162.000000000003
 30
0.0
 40
2.5
  0
CIRCLE
  5
537
330
1F
100
AcDbEntity
  8
Ｓ_１_１
  6
CONTINUOUS
 62
     3
100
AcDbCircle
 10
71.9999999999999
 20
162.000000000003
 30
0.0
 40
2.0
  0
CIRCLE
  5
538
330
1F
100
AcDbEntity
  8
Ｓ_１_１
  6
CONTINUOUS
 62
     3
100
AcDbCircle
 10
161.9999999999999
 20
161.999980000003
 30
0.0
 40
2.5
  0
CIRCLE
  5
539
330
1F
100
AcDbEntity
  8
Ｓ_１_１
  6
CONTINUOUS
 62
     3
100
AcDbCircle
 10
161.9999999999999
 20
161.999980000003
 30
0.0
 40
2.0
  0
CIRCLE
  5
53A
330
1F
100
AcDbEntity
  8
Ｓ_１_１
  6
CONTINUOUS
 62
     3
100
AcDbCircle
 10
137.0000024999999
 20
162.000000000003
 30
0.0
 40
2.0
  0
CIRCLE
  5
53B
330
1F
100
AcDbEntity
  8
Ｓ_１_１
  6
CONTINUOUS
 62
     3
100
AcDbCircle
 10
137.0000024999999
 20
162.000000000003
 30
0.0
 40
2.5
  0
CIRCLE
  5
53C
330
1F
100
AcDbEntity
  8
Ｓ_１_１
  6
CONTINUOUS
 62
     3
100
AcDbCircle
 10
96.9999974999999
 20
162.000000000003
 30
0.0
 40
2.0
  0
CIRCLE
  5
53D
330
1F
100
AcDbEntity
  8
Ｓ_１_１
  6
CONTINUOUS
 62
     3
100
AcDbCircle
 10
96.9999974999999
 20
162.000000000003
 30
0.0
 40
2.5
  0
LINE
  5
53E
330
1F
100
AcDbEntity
  8
Ｓ_１_１
  6
CONTINUOUS
 62
     3
100
AcDbLine
 10
372.0000099999999
 20
196.9999950000031
 30
0.0
 11
370.0000079999999
 21
195.8452850000031
 31
0.0
  0
LINE
  5
53F
330
1F
100
AcDbEntity
  8
Ｓ_１_１
  6
CONTINUOUS
 62
     3
100
AcDbLine
 10
369.9999999999999
 20
162.000000000003
 30
0.0
 11
369.9999999999999
 21
128.154704000003
 31
0.0
  0
LINE
  5
540
330
1F
100
AcDbEntity
  8
Ｓ_１_１
  6
CONTINUOUS
 62
     3
100
AcDbLine
 10
372.0000059999999
 20
127.000010000003
 30
0.0
 11
370.0000039999999
 21
128.154720000003
 31
0.0
  0
LINE
  5
541
330
1F
100
AcDbEntity
  8
Ｓ_１_１
  6
CONTINUOUS
 62
     3
100
AcDbLine
 10
365.4999999999981
 20
195.9999809195504
 30
0.0
 11
364.9999999999981
 21
195.4999809195504
 31
0.0
  0
LINE
  5
542
330
1F
100
AcDbEntity
  8
Ｓ_１_１
  6
CONTINUOUS
 62
     3
100
AcDbLine
 10
369.4999999999982
 20
195.9999809195504
 30
0.0
 11
365.4999999999981
 21
195.9999809195504
 31
0.0
  0
LINE
  5
543
330
1F
100
AcDbEntity
  8
Ｓ_１_１
  6
CONTINUOUS
 62
     3
100
AcDbLine
 10
369.4999999999982
 20
195.9999809195504
 30
0.0
 11
369.9999999999982
 21
195.4999809195504
 31
0.0
  0
LINE
  5
544
330
1F
100
AcDbEntity
  8
Ｓ_１_１
  6
EXLTYPE6
 62
     1
100
AcDbLine
 10
364.1799999999982
 20
186.9999809195501
 30
0.0
 11
366.8799999999981
 21
186.9999809195501
 31
0.0
  0
LINE
  5
545
330
1F
100
AcDbEntity
  8
Ｓ_１_１
  6
EXLTYPE6
 62
     1
100
AcDbLine
 10
364.1799999999982
 20
176.9999809195501
 30
0.0
 11
366.8799999999981
 21
176.9999809195501
 31
0.0
  0
LINE
  5
546
330
1F
100
AcDbEntity
  8
Ｓ_１_１
  6
EXLTYPE6
 62
     1
100
AcDbLine
 10
364.1799999999982
 20
146.9999809195501
 30
0.0
 11
366.8799999999981
 21
146.9999809195501
 31
0.0
  0
LINE
  5
547
330
1F
100
AcDbEntity
  8
Ｓ_１_１
  6
EXLTYPE6
 62
     1
100
AcDbLine
 10
364.1799999999982
 20
136.9999809195501
 30
0.0
 11
366.8799999999981
 21
136.9999809195501
 31
0.0
  0
LINE
  5
548
330
1F
100
AcDbEntity
  8
Ｓ_１_１
  6
CONTINUOUS
 62
     3
100
AcDbLine
 10
369.499999999998
 20
127.9999809195501
 30
0.0
 11
365.499999999998
 21
127.9999809195502
 31
0.0
  0
LINE
  5
549
330
1F
100
AcDbEntity
  8
Ｓ_１_１
  6
CONTINUOUS
 62
     3
100
AcDbLine
 10
365.499999999998
 20
127.9999809195502
 30
0.0
 11
364.9999999999981
 21
128.4999809195501
 31
0.0
  0
LINE
  5
54A
330
1F
100
AcDbEntity
  8
Ｓ_１_１
  6
CONTINUOUS
 62
     3
100
AcDbLine
 10
369.499999999998
 20
127.9999809195501
 30
0.0
 11
369.999999999998
 21
128.4999809195501
 31
0.0
  0
LINE
  5
54B
330
1F
100
AcDbEntity
  8
Ｓ_１_１
  6
CONTINUOUS
 62
     3
100
AcDbLine
 10
369.9999999999999
 20
162.000000000003
 30
0.0
 11
369.9999999999999
 21
195.845296000003
 31
0.0
  0
LINE
  5
54C
330
1F
100
AcDbEntity
  8
Ｓ_１_１
  6
CONTINUOUS
 62
     3
100
AcDbLine
 10
364.9999999999981
 20
195.4999809195504
 30
0.0
 11
364.9999999999981
 21
128.4999809195501
 31
0.0
  0
LINE
  5
54D
330
1F
100
AcDbEntity
  8
Ｓ_１_１
  6
CONTINUOUS
 62
     3
100
AcDbLine
 10
365.5000000000001
 20
195.99998091955
 30
0.0
 11
365.4999999999991
 21
127.9999809195502
 31
0.0
  0
LINE
  5
54E
330
1F
100
AcDbEntity
  8
Ｓ_１_１
  6
CONTINUOUS
 62
     3
100
AcDbLine
 10
369.5000000000001
 20
127.99998091955
 30
0.0
 11
369.5000000000001
 21
195.9999809195504
 31
0.0
  0
DIMENSION
  5
54F
330
1F
100
AcDbEntity
  8
Ｓ_１_１
  6
CONTINUOUS
 62
     2
100
AcDbDimension
  2
*D22
 10
342.0
 20
127.9999809195503
 30
0.0
 11
338.3333333333333
 21
161.9999809195501
 31
0.0
 70
   160
  1
%%c68
  3
ISO-25
100
AcDbAlignedDimension
 13
365.5000000000001
 23
195.99998091955
 33
0.0
 14
365.4999999999991
 24
127.9999809195502
 34
0.0
 50
90.0
100
AcDbRotatedDimension
1001
ACAD
1000
DSTYLE
1002
{
1070
   270
1070
     2
1070
     6
1000
EX_NORM
1070
     7
1000
EX_NORM
1070
    41
1040
4.0
1070
    42
1040
2.0
1070
    44
1040
1.333333333333314
1070
    73
1070
     0
1070
    74
1070
     0
1070
    75
1070
     0
1070
    76
1070
     0
1070
    77
1070
     1
1070
    78
1070
     8
1070
   140
1040
4.617205542725173
1070
   147
1040
0.0
1070
   173
1070
     1
1070
   176
1070
     2
1070
   177
1070
     2
1070
   178
1070
     2
1070
   271
1070
     2
1070
   277
1070
     2
1070
   279
1070
     2
1070
   280
1070
     0
1070
   287
1070
     5
1070
   340
1005
114
1002
}
  0
DIMENSION
  5
55C
330
1F
100
AcDbEntity
  8
Ｓ_１_１
  6
CONTINUOUS
 62
     2
100
AcDbDimension
  2
*D23
 10
372.0
 20
252.0
 30
0.0
 11
359.5
 21
255.6666666666667
 31
0.0
 70
   160
  3
ISO-25
100
AcDbAlignedDimension
 13
365.0
 23
195.49998091955
 33
0.0
 14
372.0
 24
228.000009
 34
0.0
100
AcDbRotatedDimension
1001
ACAD
1000
DSTYLE
1002
{
1070
   270
1070
     2
1070
     6
1000
EX_NORM
1070
     7
1000
EX_NORM
1070
    41
1040
4.0
1070
    42
1040
2.0
1070
    44
1040
1.333333333333343
1070
    73
1070
     0
1070
    74
1070
     0
1070
    75
1070
     0
1070
    76
1070
     0
1070
    77
1070
     1
1070
    78
1070
     8
1070
   140
1040
4.617205542725173
1070
   147
1040
0.0
1070
   173
1070
     1
1070
   176
1070
     2
1070
   177
1070
     2
1070
   178
1070
     2
1070
   271
1070
     2
1070
   277
1070
     2
1070
   279
1070
     2
1070
   280
1070
     1
1070
   287
1070
     5
1070
   340
1005
114
1002
}
  0
DIMENSION
  5
56B
330
1F
100
AcDbEntity
  8
Ｓ_１_１
  6
CONTINUOUS
 62
     2
100
AcDbDimension
  2
*D24
 10
450.0
 20
252.0
 30
0.0
 11
411.0
 21
255.6666666666667
 31
0.0
 70
   160
  3
ISO-25
100
AcDbAlignedDimension
 13
372.0
 23
228.000009
 33
0.0
 14
450.0
 24
228.49996500002
 34
0.0
100
AcDbRotatedDimension
1001
ACAD
1000
DSTYLE
1002
{
1070
   270
1070
     2
1070
     6
1000
EX_NORM
1070
     7
1000
EX_NORM
1070
    41
1040
4.0
1070
    42
1040
2.0
1070
    44
1040
1.333333333333343
1070
    73
1070
     0
1070
    74
1070
     0
1070
    75
1070
     0
1070
    76
1070
     0
1070
    77
1070
     1
1070
    78
1070
     8
1070
   140
1040
4.617205542725173
1070
   147
1040
0.0
1070
   173
1070
     1
1070
   176
1070
     2
1070
   177
1070
     2
1070
   178
1070
     2
1070
   271
1070
     2
1070
   277
1070
     2
1070
   279
1070
     2
1070
   280
1070
     0
1070
   287
1070
     5
1070
   340
1005
114
1002
}
  0
DIMENSION
  5
578
330
1F
100
AcDbEntity
  8
Ｓ_１_１
  6
CONTINUOUS
 62
     2
100
AcDbDimension
  2
*D25
 10
365.0
 20
261.0
 30
0.0
 11
407.5
 21
264.6666666666667
 31
0.0
 70
   160
  3
ISO-25
100
AcDbAlignedDimension
 13
450.0
 23
228.49996500002
 33
0.0
 14
365.0
 24
195.49998091955
 34
0.0
100
AcDbRotatedDimension
1001
ACAD
1000
DSTYLE
1002
{
1070
   270
1070
     2
1070
     6
1000
EX_NORM
1070
     7
1000
EX_NORM
1070
    41
1040
4.0
1070
    42
1040
2.0
1070
    44
1040
1.333333333333314
1070
    73
1070
     0
1070
    74
1070
     0
1070
    75
1070
     0
1070
    76
1070
     0
1070
    77
1070
     1
1070
    78
1070
     8
1070
   140
1040
4.617205542725173
1070
   147
1040
0.0
1070
   173
1070
     1
1070
   176
1070
     2
1070
   177
1070
     2
1070
   178
1070
     2
1070
   271
1070
     2
1070
   277
1070
     2
1070
   279
1070
     2
1070
   280
1070
     0
1070
   287
1070
     5
1070
   340
1005
114
1002
}
  0
ENDSEC
  0
SECTION
  2
OBJECTS
  0
DICTIONARY
  5
C
330
0
100
AcDbDictionary
  3
ACAD_GROUP
350
D
  3
ACAD_LAYOUT
350
1A
  3
ACAD_MATERIAL
350
43
  3
ACAD_MLEADERSTYLE
350
6B
  3
ACAD_MLINESTYLE
350
17
  3
ACAD_PLOTSETTINGS
350
19
  3
ACAD_SCALELIST
350
47
  3
ACAD_VISUALSTYLE
350
2A
  3
ACDBHEADERROUNDTRIPXREC
350
585
  3
ACDBVARIABLEDICTIONARY
350
5A6
  0
DICTIONARY
  5
5B1
330
8
100
AcDbDictionary
280
     1
  3
ACAD_XREC_ROUNDTRIP
360
5B2
  0
DICTIONARY
  5
D
102
{ACAD_REACTORS
330
C
102
}
330
C
100
AcDbDictionary
  0
DICTIONARY
  5
1A
102
{ACAD_REACTORS
330
C
102
}
330
C
100
AcDbDictionary
  0
DICTIONARY
  5
43
102
{ACAD_REACTORS
330
C
102
}
330
C
100
AcDbDictionary
  3
BYBLOCK
350
45
  3
BYLAYER
350
44
  3
GLOBAL
350
46
  0
DICTIONARY
  5
6B
102
{ACAD_REACTORS
330
C
102
}
330
C
100
AcDbDictionary
  3
STANDARD
350
6C
  0
DICTIONARY
  5
17
102
{ACAD_REACTORS
330
C
102
}
330
C
100
AcDbDictionary
  3
STANDARD
350
18
  0
DICTIONARY
  5
19
102
{ACAD_REACTORS
330
C
102
}
330
C
100
AcDbDictionary
  0
DICTIONARY
  5
47
102
{ACAD_REACTORS
330
C
102
}
330
C
100
AcDbDictionary
  3
A0
350
48
  3
A1
350
49
  3
A2
350
4A
  3
A3
350
4B
  3
A4
350
4C
  3
A5
350
4D
  3
A6
350
4E
  3
A7
350
4F
  3
A8
350
50
  3
A9
350
51
  3
B0
350
52
  3
B1
350
53
  3
B2
350
54
  3
B3
350
55
  3
B4
350
56
  3
B5
350
57
  3
B6
350
58
  3
B7
350
59
  3
B8
350
5A
  3
B9
350
5B
  3
C0
350
5C
  3
C1
350
5D
  3
C2
350
5E
  3
C3
350
5F
  3
C4
350
60
  3
C5
350
61
  3
C6
350
62
  3
C7
350
63
  3
C8
350
64
  3
C9
350
65
  3
D0
350
66
  3
D1
350
67
  3
D2
350
68
  0
DICTIONARY
  5
2A
102
{ACAD_REACTORS
330
C
102
}
330
C
100
AcDbDictionary
  3
2DWIREFRAME
350
2F
  3
BASIC
350
32
  3
BRIGHTEN
350
36
  3
COLORCHANGE
350
3A
  3
CONCEPTUAL
350
34
  3
DIM
350
35
  3
EDGECOLOROFF
350
3D
  3
FACEPATTERN
350
39
  3
FLAT
350
2B
  3
FLATWITHEDGES
350
2C
  3
GOURAUD
350
2D
  3
GOURAUDWITHEDGES
350
2E
  3
HIDDEN
350
31
  3
JITTEROFF
350
3B
  3
LINEPATTERN
350
38
  3
OVERHANGOFF
350
3C
  3
REALISTIC
350
33
  3
SHADED
350
42
  3
SHADED_WITH_EDGES
350
41
  3
SHADES_OF_GRAY
350
3E
  3
SKETCHY
350
3F
  3
THICKEN
350
37
  3
WIREFRAME
350
30
  3
X-RAY
350
40
  0
DICTIONARY
  5
585
102
{ACAD_REACTORS
330
C
102
}
330
C
100
AcDbDictionary
  3
CEPSNID
350
58F
  3
CEPSNTYPE
350
58E
  3
DIMSTYLEDATA
350
5A5
  3
FINGERPRINTGUID
350
590
  3
HYPERLINKBASE
350
588
  3
INSUNITS
350
58D
  3
LAYOUTDICT
350
58A
  3
LWETCUNION
350
58C
  3
PLOTSETDICT
350
58B
  3
PSVPSCALE
350
592
  3
PUCSBASE
350
595
  3
PUCSORGBACK
350
59B
  3
PUCSORGBOTTOM
350
597
  3
PUCSORGFRONT
350
59A
  3
PUCSORGLEFT
350
598
  3
PUCSORGRIGHT
350
599
  3
PUCSORGTOP
350
596
  3
PUCSORTHOREF
350
593
  3
PUCSORTHOVIEW
350
594
  3
STYLESHEET
350
589
  3
TSTACKALIGN
350
586
  3
TSTACKSIZE
350
587
  3
UCSBASE
350
59E
  3
UCSORGBACK
350
5A4
  3
UCSORGBOTTOM
350
5A0
  3
UCSORGFRONT
350
5A3
  3
UCSORGLEFT
350
5A1
  3
UCSORGRIGHT
350
5A2
  3
UCSORGTOP
350
59F
  3
UCSORTHOREF
350
59C
  3
UCSORTHOVIEW
350
59D
  3
VERSIONGUID
350
591
  0
DICTIONARY
  5
5A6
102
{ACAD_REACTORS
330
C
102
}
330
C
100
AcDbDictionary
  3
CANNOSCALE
350
5B3
  3
CENTEREXE
350
5AD
  3
CENTERLTYPEFILE
350
5AE
  3
CMLEADERSTYLE
350
5A8
  3
CTABLESTYLE
350
5A7
  3
DIMASSOC
350
5AF
  3
HIDETEXT
350
5B0
  3
MSLTSCALE
350
5B4
  3
PSOLHEIGHT
350
5AA
  3
PSOLWIDTH
350
5A9
  0
XRECORD
  5
5B2
102
{ACAD_REACTORS
330
5B1
102
}
330
5B1
100
AcDbXrecord
102
VTR_0.000_0.000_1.000_1.000_VISUALSTYLE
340
2F
102
VTR_0.000_0.000_1.000_1.000_GRIDDISPLAY
 70
     3
102
VTR_0.000_0.000_1.000_1.000_GRIDMAJOR
 70
     5
102
VTR_0.000_0.000_1.000_1.000_DEFAULTLIGHTING
280
     1
102
VTR_0.000_0.000_1.000_1.000_DEFAULTLIGHTINGTYPE
 70
     1
102
VTR_0.000_0.000_1.000_1.000_BRIGHTNESS
141
0.0
102
VTR_0.000_0.000_1.000_1.000_CONTRAST
142
0.0
  0
MATERIAL
  5
45
102
{ACAD_REACTORS
330
43
102
}
102
{ACAD_XDICTIONARY
360
5B7
102
}
330
43
100
AcDbMaterial
  1
BYBLOCK
  0
MATERIAL
  5
44
102
{ACAD_REACTORS
330
43
102
}
102
{ACAD_XDICTIONARY
360
5B5
102
}
330
43
100
AcDbMaterial
  1
BYLAYER
  0
MATERIAL
  5
46
102
{ACAD_REACTORS
330
43
102
}
102
{ACAD_XDICTIONARY
360
5B9
102
}
330
43
100
AcDbMaterial
  1
GLOBAL
  0
ACAD_PROXY_OBJECT
  5
6C
102
{ACAD_REACTORS
330
6B
102
}
330
6B
100
AcDbProxyObject
 90
      499
 91
      505
 93
      610
310
40901902A4063FBFFFFFE0000000000000020400000000000020404214DD185B99185C990000000000000104090141901A00000000000004100000000000000041025764000000000000039000
340
14
340
0
340
11
340
0
 94
        0
1001
ACAD_MLEADERVER
1070
     2
  0
MLINESTYLE
  5
18
102
{ACAD_REACTORS
330
17
102
}
330
17
100
AcDbMlineStyle
  2
Standard
 70
     0
  3

 62
   256
 51
90.0
 52
90.0
 71
     2
 49
0.5
 62
   256
  6
BYLAYER
 49
-0.5
 62
   256
  6
BYLAYER
  0
ACAD_PROXY_OBJECT
  5
48
102
{ACAD_REACTORS
330
47
102
}
330
47
100
AcDbProxyObject
 90
      499
 91
      503
 93
       41
310
903313A31580
  0
ACAD_PROXY_OBJECT
  5
49
102
{ACAD_REACTORS
330
47
102
}
330
47
100
AcDbProxyObject
 90
      499
 91
      503
 93
      105
310
903313A324000000000000004000
  0
ACAD_PROXY_OBJECT
  5
4A
102
{ACAD_REACTORS
330
47
102
}
330
47
100
AcDbProxyObject
 90
      499
 91
      503
 93
      105
310
903313A344000000000000104000
  0
ACAD_PROXY_OBJECT
  5
4B
102
{ACAD_REACTORS
330
47
102
}
330
47
100
AcDbProxyObject
 90
      499
 91
      503
 93
      105
310
903313A354000000000000144000
  0
ACAD_PROXY_OBJECT
  5
4C
102
{ACAD_REACTORS
330
47
102
}
330
47
100
AcDbProxyObject
 90
      499
 91
      503
 93
      105
310
903313A384000000000000204000
  0
ACAD_PROXY_OBJECT
  5
4D
102
{ACAD_REACTORS
330
47
102
}
330
47
100
AcDbProxyObject
 90
      499
 91
      503
 93
      113
310
904313A31304000000000000244000
  0
ACAD_PROXY_OBJECT
  5
4E
102
{ACAD_REACTORS
330
47
102
}
330
47
100
AcDbProxyObject
 90
      499
 91
      503
 93
      113
310
904313A31364000000000000304000
  0
ACAD_PROXY_OBJECT
  5
4F
102
{ACAD_REACTORS
330
47
102
}
330
47
100
AcDbProxyObject
 90
      499
 91
      503
 93
      113
310
904313A32304000000000000344000
  0
ACAD_PROXY_OBJECT
  5
50
102
{ACAD_REACTORS
330
47
102
}
330
47
100
AcDbProxyObject
 90
      499
 91
      503
 93
      113
310
904313A333040000000000003E4000
  0
ACAD_PROXY_OBJECT
  5
51
102
{ACAD_REACTORS
330
47
102
}
330
47
100
AcDbProxyObject
 90
      499
 91
      503
 93
      113
310
904313A34304000000000000444000
  0
ACAD_PROXY_OBJECT
  5
52
102
{ACAD_REACTORS
330
47
102
}
330
47
100
AcDbProxyObject
 90
      499
 91
      503
 93
      113
310
904313A35304000000000000494000
  0
ACAD_PROXY_OBJECT
  5
53
102
{ACAD_REACTORS
330
47
102
}
330
47
100
AcDbProxyObject
 90
      499
 91
      503
 93
      121
310
905313A3130304000000000000594000
  0
ACAD_PROXY_OBJECT
  5
54
102
{ACAD_REACTORS
330
47
102
}
330
47
100
AcDbProxyObject
 90
      499
 91
      503
 93
      105
310
903323A310000000000000010100
  0
ACAD_PROXY_OBJECT
  5
55
102
{ACAD_REACTORS
330
47
102
}
330
47
100
AcDbProxyObject
 90
      499
 91
      503
 93
      105
310
903343A310000000000000410100
  0
ACAD_PROXY_OBJECT
  5
56
102
{ACAD_REACTORS
330
47
102
}
330
47
100
AcDbProxyObject
 90
      499
 91
      503
 93
      105
310
903383A310000000000000810100
  0
ACAD_PROXY_OBJECT
  5
57
102
{ACAD_REACTORS
330
47
102
}
330
47
100
AcDbProxyObject
 90
      499
 91
      503
 93
      113
310
90431303A310000000000000910100
  0
ACAD_PROXY_OBJECT
  5
58
102
{ACAD_REACTORS
330
47
102
}
330
47
100
AcDbProxyObject
 90
      499
 91
      503
 93
      121
310
9053130303A310000000000001650100
  0
ACAD_PROXY_OBJECT
  5
59
102
{ACAD_REACTORS
330
47
102
}
330
47
100
AcDbProxyObject
 90
      499
 91
      503
 93
      257
310
90E312F31323822203D2031272D3022000000000000200FC000000000000284000
  0
ACAD_PROXY_OBJECT
  5
5A
102
{ACAD_REACTORS
330
47
102
}
330
47
100
AcDbProxyObject
 90
      499
 91
      503
 93
      249
310
90D312F363422203D2031272D3022000000000000240FC000000000000284000
  0
ACAD_PROXY_OBJECT
  5
5B
102
{ACAD_REACTORS
330
47
102
}
330
47
100
AcDbProxyObject
 90
      499
 91
      503
 93
      249
310
90D312F333222203D2031272D3022000000000000280FC000000000000284000
  0
ACAD_PROXY_OBJECT
  5
5C
102
{ACAD_REACTORS
330
47
102
}
330
47
100
AcDbProxyObject
 90
      499
 91
      503
 93
      249
310
90D312F313622203D2031272D30220000000000002C0FC000000000000284000
  0
ACAD_PROXY_OBJECT
  5
5D
102
{ACAD_REACTORS
330
47
102
}
330
47
100
AcDbProxyObject
 90
      499
 91
      503
 93
      249
310
90D332F333222203D2031272D30220000000000002E0FC000000000000284000
  0
ACAD_PROXY_OBJECT
  5
5E
102
{ACAD_REACTORS
330
47
102
}
330
47
100
AcDbProxyObject
 90
      499
 91
      503
 93
      241
310
90C312F3822203D2031272D3022000000000000300FC000000000000284000
  0
ACAD_PROXY_OBJECT
  5
5F
102
{ACAD_REACTORS
330
47
102
}
330
47
100
AcDbProxyObject
 90
      499
 91
      503
 93
      249
310
90D332F313622203D2031272D3022000000000000320FC000000000000284000
  0
ACAD_PROXY_OBJECT
  5
60
102
{ACAD_REACTORS
330
47
102
}
330
47
100
AcDbProxyObject
 90
      499
 91
      503
 93
      241
310
90C312F3422203D2031272D3022000000000000340FC000000000000284000
  0
ACAD_PROXY_OBJECT
  5
61
102
{ACAD_REACTORS
330
47
102
}
330
47
100
AcDbProxyObject
 90
      499
 91
      503
 93
      241
310
90C332F3822203D2031272D3022000000000000360FC000000000000284000
  0
ACAD_PROXY_OBJECT
  5
62
102
{ACAD_REACTORS
330
47
102
}
330
47
100
AcDbProxyObject
 90
      499
 91
      503
 93
      241
310
90C312F3222203D2031272D3022000000000000380FC000000000000284000
  0
ACAD_PROXY_OBJECT
  5
63
102
{ACAD_REACTORS
330
47
102
}
330
47
100
AcDbProxyObject
 90
      499
 91
      503
 93
      241
310
90C332F3422203D2031272D30220000000000003A0FC000000000000284000
  0
ACAD_PROXY_OBJECT
  5
64
102
{ACAD_REACTORS
330
47
102
}
330
47
100
AcDbProxyObject
 90
      499
 91
      503
 93
      161
310
90A3122203D2031272D30224000000000000284000
  0
ACAD_PROXY_OBJECT
  5
65
102
{ACAD_REACTORS
330
47
102
}
330
47
100
AcDbProxyObject
 90
      499
 91
      503
 93
      257
310
90E312D312F3222203D2031272D30220000000000003E0FC000000000000284000
  0
ACAD_PROXY_OBJECT
  5
66
102
{ACAD_REACTORS
330
47
102
}
330
47
100
AcDbProxyObject
 90
      499
 91
      503
 93
      225
310
90A3322203D2031272D302200000000000002100000000000000284000
  0
ACAD_PROXY_OBJECT
  5
67
102
{ACAD_REACTORS
330
47
102
}
330
47
100
AcDbProxyObject
 90
      499
 91
      503
 93
      225
310
90A3622203D2031272D302200000000000006100000000000000284000
  0
ACAD_PROXY_OBJECT
  5
68
102
{ACAD_REACTORS
330
47
102
}
330
47
100
AcDbProxyObject
 90
      499
 91
      503
 93
      249
310
90D31272D3022203D2031272D30220000000000000A100000000000000284000
  0
ACAD_PROXY_OBJECT
  5
2F
102
{ACAD_REACTORS
330
2A
102
}
330
2A
100
AcDbProxyObject
 90
      499
 91
      501
 93
      436
310
42CC9915DA5C99599C985B595049028333333333333E33F0000000000000F90107901411070040501600405405064090741402480A0340
1001
ACAD
1000
AcDbSavedByObjectVersion
1070
     0
  0
ACAD_PROXY_OBJECT
  5
32
102
{ACAD_REACTORS
330
2A
102
}
330
2A
100
AcDbProxyObject
 90
      499
 91
      501
 93
      388
310
4150985CDA58D07406404333333333333E33F0000000000000F90107A41107004050150841D405064090741402480A0350
1001
ACAD
1000
AcDbSavedByObjectVersion
1070
     0
  0
ACAD_PROXY_OBJECT
  5
36
102
{ACAD_REACTORS
330
2A
102
}
330
2A
100
AcDbProxyObject
 90
      499
 91
      501
 93
      428
310
42109C9A59DA1D195B90C409028333333333333E33F0000000000000F9010790141107004050150841D405064090741402480A029950
1001
ACAD
1000
AcDbSavedByObjectVersion
1070
     0
  0
ACAD_PROXY_OBJECT
  5
3A
102
{ACAD_REACTORS
330
2A
102
}
330
2A
100
AcDbProxyObject
 90
      499
 91
      501
 93
      452
310
42D0DBDB1BDC90DA185B99D95104090240C333333333333E33F0000000000000F90108901411070040501508421405064090741402480A0350
1001
ACAD
1000
AcDbSavedByObjectVersion
1070
     0
  0
ACAD_PROXY_OBJECT
  5
34
102
{ACAD_REACTORS
330
2A
102
}
330
2A
100
AcDbProxyObject
 90
      499
 91
      501
 93
      500
310
4290DBDB98D95C1D1D585B10940D028333333333333E33F0000000000000F90107902409070040501000000000018199010841D405064090740C02480A0340
1001
ACAD
1000
AcDbSavedByObjectVersion
1070
     0
  0
ACAD_PROXY_OBJECT
  5
35
102
{ACAD_REACTORS
330
2A
102
}
330
2A
100
AcDbProxyObject
 90
      499
 91
      501
 93
      412
310
40D11A5B50B409028333333333333E33F0000000000000F9010790141107004050150841D405064090741402480A02677FFFFFD0
1001
ACAD
1000
AcDbSavedByObjectVersion
1070
     0
  0
ACAD_PROXY_OBJECT
  5
3D
102
{ACAD_REACTORS
330
2A
102
}
330
2A
100
AcDbProxyObject
 90
      499
 91
      501
 93
      452
310
43115919D950DBDB1BDC93D999916409028333333333333E33F0000000000000F9010790141107004050150841D405064090741402480A0350
1001
ACAD
1000
AcDbSavedByObjectVersion
1070
     0
  0
ACAD_PROXY_OBJECT
  5
39
102
{ACAD_REACTORS
330
2A
102
}
330
2A
100
AcDbProxyObject
 90
      499
 91
      501
 93
      444
310
42D19858D95C185D1D195C9B90F409028333333333333E33F0000000000000F9010790141107004050150841D405064090741402480A0350
1001
ACAD
1000
AcDbSavedByObjectVersion
1070
     0
  0
ACAD_PROXY_OBJECT
  5
2B
102
{ACAD_REACTORS
330
2A
102
}
330
2A
100
AcDbProxyObject
 90
      499
 91
      501
 93
      380
310
41119B185D240901404333333333333E33F0000000000000F9010740A907004050150841D405064090741402480A1B50
1001
ACAD
1000
AcDbSavedByObjectVersion
1070
     0
  0
ACAD_PROXY_OBJECT
  5
2C
102
{ACAD_REACTORS
330
2A
102
}
330
2A
100
AcDbProxyObject
 90
      499
 91
      501
 93
      468
310
43519B185D15DA5D1A115919D95CD0140901404333333333333E33F0000000000000F90107409019070040501600405405064090741402480A1B50
1001
ACAD
1000
AcDbSavedByObjectVersion
1070
     0
  0
ACAD_PROXY_OBJECT
  5
2D
102
{ACAD_REACTORS
330
2A
102
}
330
2A
100
AcDbProxyObject
 90
      499
 91
      501
 93
      404
310
41D1DBDD5C985D5910240902404333333333333E33F0000000000000F9010740A9070040501641D405064090741402480A1B50
1001
ACAD
1000
AcDbSavedByObjectVersion
1070
     0
  0
ACAD_PROXY_OBJECT
  5
2E
102
{ACAD_REACTORS
330
2A
102
}
330
2A
100
AcDbProxyObject
 90
      499
 91
      501
 93
      492
310
4411DBDD5C985D5915DA5D1A115919D95CD0340902404333333333333E33F0000000000000F90107409019070040501600405405064090741402480A1B50
1001
ACAD
1000
AcDbSavedByObjectVersion
1070
     0
  0
ACAD_PROXY_OBJECT
  5
31
102
{ACAD_REACTORS
330
2A
102
}
330
2A
100
AcDbProxyObject
 90
      499
 91
      501
 93
      476
310
41921A5919195B90640502408333333333333E33F0000000000000F901079024090700405020000000000001110200405405064090740C02480A0340
1001
ACAD
1000
AcDbSavedByObjectVersion
1070
     0
  0
ACAD_PROXY_OBJECT
  5
3B
102
{ACAD_REACTORS
330
2A
102
}
330
2A
100
AcDbProxyObject
 90
      499
 91
      501
 93
      428
310
42529A5D1D195C93D999914409028333333333333E33F0000000000000F9010790141107004050150A41D405064090741402480A0350
1001
ACAD
1000
AcDbSavedByObjectVersion
1070
     0
  0
ACAD_PROXY_OBJECT
  5
38
102
{ACAD_REACTORS
330
2A
102
}
330
2A
100
AcDbProxyObject
 90
      499
 91
      501
 93
      444
310
42D31A5B995C185D1D195C9B90E409028333333333333E33F0000000000000F9010790141107004050750841D405064090741402483A0350
1001
ACAD
1000
AcDbSavedByObjectVersion
1070
     0
  0
ACAD_PROXY_OBJECT
  5
3C
102
{ACAD_REACTORS
330
2A
102
}
330
2A
100
AcDbProxyObject
 90
      499
 91
      501
 93
      444
310
42D3DD995C9A185B99D3D999915409028333333333333E33F0000000000000F9010790141107004050150941D405064090741402480A0350
1001
ACAD
1000
AcDbSavedByObjectVersion
1070
     0
  0
ACAD_PROXY_OBJECT
  5
33
102
{ACAD_REACTORS
330
2A
102
}
330
2A
100
AcDbProxyObject
 90
      499
 91
      501
 93
      428
310
425499585B1A5CDD1A58D08409038333333333333E33F0000000000000F9010740A907004050150800405405064090740C02480A1B40
1001
ACAD
1000
AcDbSavedByObjectVersion
1070
     0
  0
ACAD_PROXY_OBJECT
  5
42
102
{ACAD_REACTORS
330
2A
102
}
330
2A
100
AcDbProxyObject
 90
      499
 91
      501
 93
      420
310
4194DA1859195911B40902404333333333333E33F0000000000000F9010740A41107004050150800405405064090840C02480A0B40
1001
ACAD
1000
AcDbSavedByObjectVersion
1070
     0
  0
ACAD_PROXY_OBJECT
  5
41
102
{ACAD_REACTORS
330
2A
102
}
330
2A
100
AcDbProxyObject
 90
      499
 91
      501
 93
      516
310
4454DA18591959081DDA5D1A08195919D95CD1A40902404333333333333E33F0000000000000F901074090142907004050250800405405064090740C02480A0B40
1001
ACAD
1000
AcDbSavedByObjectVersion
1070
     0
  0
ACAD_PROXY_OBJECT
  5
3E
102
{ACAD_REACTORS
330
2A
102
}
330
2A
100
AcDbProxyObject
 90
      499
 91
      501
 93
      532
310
4394DA1859195CC81BD98811DC985E5174090240C333333333333E33F0000000000000F901079024090741D01000000000000111010841D405064090740C02480A0340
1001
ACAD
1000
AcDbSavedByObjectVersion
1070
     0
  0
ACAD_PROXY_OBJECT
  5
3F
102
{ACAD_REACTORS
330
2A
102
}
330
2A
100
AcDbProxyObject
 90
      499
 91
      501
 93
      476
310
41D4DAD95D18DA1E51840502408333333333333E33F0000000000000F901079024090741D01000000000000111010B41D405064090741802480A0340
1001
ACAD
1000
AcDbSavedByObjectVersion
1070
     0
  0
ACAD_PROXY_OBJECT
  5
37
102
{ACAD_REACTORS
330
2A
102
}
330
2A
100
AcDbProxyObject
 90
      499
 91
      501
 93
      412
310
41D51A1A58DAD95B90D409028333333333333E33F0000000000000F9010790141107004050150C41D405064090741402480A0350
1001
ACAD
1000
AcDbSavedByObjectVersion
1070
     0
  0
ACAD_PROXY_OBJECT
  5
30
102
{ACAD_REACTORS
330
2A
102
}
330
2A
100
AcDbProxyObject
 90
      499
 91
      501
 93
      420
310
4255DA5C99599C985B595059028333333333333E33F0000000000000F90107901411070040501600405405064090740C02480A0340
1001
ACAD
1000
AcDbSavedByObjectVersion
1070
     0
  0
ACAD_PROXY_OBJECT
  5
40
102
{ACAD_REACTORS
330
2A
102
}
330
2A
100
AcDbProxyObject
 90
      499
 91
      501
 93
      404
310
41560B54985E51940902404000000000000E03F0000000000000F9010740501907004050150841D405064090740C02480A1B40
1001
ACAD
1000
AcDbSavedByObjectVersion
1070
     0
  0
XRECORD
  5
58F
102
{ACAD_REACTORS
330
585
102
}
330
585
100
AcDbXrecord
340
0
  0
XRECORD
  5
58E
102
{ACAD_REACTORS
330
585
102
}
330
585
100
AcDbXrecord
 90
        0
  0
XRECORD
  5
5A5
102
{ACAD_REACTORS
330
585
102
}
330
585
100
AcDbXrecord
1000
DSTYLE
1002
{
1070
   340
340
11
1002
}
  0
XRECORD
  5
590
102
{ACAD_REACTORS
330
585
102
}
330
585
100
AcDbXrecord
  1
{d6445f7b-8a19-428e-83bf-f02cf3427848}
  0
XRECORD
  5
588
102
{ACAD_REACTORS
330
585
102
}
330
585
100
AcDbXrecord
  1

  0
XRECORD
  5
58D
102
{ACAD_REACTORS
330
585
102
}
330
585
100
AcDbXrecord
 90
        4
  0
XRECORD
  5
58A
102
{ACAD_REACTORS
330
585
102
}
330
585
100
AcDbXrecord
340
1A
  0
XRECORD
  5
58C
102
{ACAD_REACTORS
330
585
102
}
330
585
100
AcDbXrecord
 90
    10781
  0
XRECORD
  5
58B
102
{ACAD_REACTORS
330
585
102
}
330
585
100
AcDbXrecord
340
19
  0
XRECORD
  5
592
102
{ACAD_REACTORS
330
585
102
}
330
585
100
AcDbXrecord
 40
0.0
  0
XRECORD
  5
595
102
{ACAD_REACTORS
330
585
102
}
330
585
100
AcDbXrecord
340
0
  0
XRECORD
  5
59B
102
{ACAD_REACTORS
330
585
102
}
330
585
100
AcDbXrecord
 10
0.0
 20
0.0
 30
0.0
  0
XRECORD
  5
597
102
{ACAD_REACTORS
330
585
102
}
330
585
100
AcDbXrecord
 10
0.0
 20
0.0
 30
0.0
  0
XRECORD
  5
59A
102
{ACAD_REACTORS
330
585
102
}
330
585
100
AcDbXrecord
 10
0.0
 20
0.0
 30
0.0
  0
XRECORD
  5
598
102
{ACAD_REACTORS
330
585
102
}
330
585
100
AcDbXrecord
 10
0.0
 20
0.0
 30
0.0
  0
XRECORD
  5
599
102
{ACAD_REACTORS
330
585
102
}
330
585
100
AcDbXrecord
 10
0.0
 20
0.0
 30
0.0
  0
XRECORD
  5
596
102
{ACAD_REACTORS
330
585
102
}
330
585
100
AcDbXrecord
 10
0.0
 20
0.0
 30
0.0
  0
XRECORD
  5
593
102
{ACAD_REACTORS
330
585
102
}
330
585
100
AcDbXrecord
340
0
  0
XRECORD
  5
594
102
{ACAD_REACTORS
330
585
102
}
330
585
100
AcDbXrecord
 70
     0
  0
XRECORD
  5
589
102
{ACAD_REACTORS
330
585
102
}
330
585
100
AcDbXrecord
  1

  0
XRECORD
  5
586
102
{ACAD_REACTORS
330
585
102
}
330
585
100
AcDbXrecord
 90
        1
  0
XRECORD
  5
587
102
{ACAD_REACTORS
330
585
102
}
330
585
100
AcDbXrecord
 90
       70
  0
XRECORD
  5
59E
102
{ACAD_REACTORS
330
585
102
}
330
585
100
AcDbXrecord
340
0
  0
XRECORD
  5
5A4
102
{ACAD_REACTORS
330
585
102
}
330
585
100
AcDbXrecord
 10
0.0
 20
0.0
 30
0.0
  0
XRECORD
  5
5A0
102
{ACAD_REACTORS
330
585
102
}
330
585
100
AcDbXrecord
 10
0.0
 20
0.0
 30
0.0
  0
XRECORD
  5
5A3
102
{ACAD_REACTORS
330
585
102
}
330
585
100
AcDbXrecord
 10
0.0
 20
0.0
 30
0.0
  0
XRECORD
  5
5A1
102
{ACAD_REACTORS
330
585
102
}
330
585
100
AcDbXrecord
 10
0.0
 20
0.0
 30
0.0
  0
XRECORD
  5
5A2
102
{ACAD_REACTORS
330
585
102
}
330
585
100
AcDbXrecord
 10
0.0
 20
0.0
 30
0.0
  0
XRECORD
  5
59F
102
{ACAD_REACTORS
330
585
102
}
330
585
100
AcDbXrecord
 10
0.0
 20
0.0
 30
0.0
  0
XRECORD
  5
59C
102
{ACAD_REACTORS
330
585
102
}
330
585
100
AcDbXrecord
340
0
  0
XRECORD
  5
59D
102
{ACAD_REACTORS
330
585
102
}
330
585
100
AcDbXrecord
 70
     0
  0
XRECORD
  5
591
102
{ACAD_REACTORS
330
585
102
}
330
585
100
AcDbXrecord
  1
{FAEB1C32-E019-11D5-929B-00C0DF256EC4}
  0
DICTIONARYVAR
  5
5B3
102
{ACAD_REACTORS
330
5A6
102
}
330
5A6
100
DictionaryVariables
280
     0
  1
1:1
  0
DICTIONARYVAR
  5
5AD
102
{ACAD_REACTORS
330
5A6
102
}
330
5A6
100
DictionaryVariables
280
     0
  1
3.500000
  0
DICTIONARYVAR
  5
5AE
102
{ACAD_REACTORS
330
5A6
102
}
330
5A6
100
DictionaryVariables
280
     0
  1
acadiso.lin
  0
DICTIONARYVAR
  5
5A8
102
{ACAD_REACTORS
330
5A6
102
}
330
5A6
100
DictionaryVariables
280
     0
  1
Standard
  0
DICTIONARYVAR
  5
5A7
102
{ACAD_REACTORS
330
5A6
102
}
330
5A6
100
DictionaryVariables
280
     0
  1
Standard
  0
DICTIONARYVAR
  5
5AF
102
{ACAD_REACTORS
330
5A6
102
}
330
5A6
100
DictionaryVariables
280
     0
  1
2
  0
DICTIONARYVAR
  5
5B0
102
{ACAD_REACTORS
330
5A6
102
}
330
5A6
100
DictionaryVariables
280
     0
  1
1
  0
DICTIONARYVAR
  5
5B4
102
{ACAD_REACTORS
330
5A6
102
}
330
5A6
100
DictionaryVariables
280
     0
  1
1
  0
DICTIONARYVAR
  5
5AA
102
{ACAD_REACTORS
330
5A6
102
}
330
5A6
100
DictionaryVariables
280
     0
  1
80.000000
  0
DICTIONARYVAR
  5
5A9
102
{ACAD_REACTORS
330
5A6
102
}
330
5A6
100
DictionaryVariables
280
     0
  1
5.000000
  0
DICTIONARY
  5
5B7
330
45
100
AcDbDictionary
280
     1
  3
ACAD_XREC_ROUNDTRIP
360
5B8
  0
DICTIONARY
  5
5B5
330
44
100
AcDbDictionary
280
     1
  3
ACAD_XREC_ROUNDTRIP
360
5B6
  0
DICTIONARY
  5
5B9
330
46
100
AcDbDictionary
280
     1
  3
ACAD_XREC_ROUNDTRIP
360
5BA
  0
XRECORD
  5
5B8
102
{ACAD_REACTORS
330
5B7
102
}
330
5B7
100
AcDbXrecord
102
MATERIAL
148
0.0
149
0.0
149
0.0
 93
        0
 94
      127
282
     0
 72
     1
 77
     1
171
     1
175
     1
179
     1
273
     0
  0
XRECORD
  5
5B6
102
{ACAD_REACTORS
330
5B5
102
}
330
5B5
100
AcDbXrecord
102
MATERIAL
148
0.0
149
0.0
149
0.0
 93
        0
 94
      127
282
     0
 72
     1
 77
     1
171
     1
175
     1
179
     1
273
     0
  0
XRECORD
  5
5BA
102
{ACAD_REACTORS
330
5B9
102
}
330
5B9
100
AcDbXrecord
102
MATERIAL
148
0.0
149
0.0
149
0.0
 93
        0
 94
      127
282
     0
 72
     1
 77
     1
171
     1
175
     1
179
     1
273
     0
  0
ENDSEC
  0
EOF
