  0
SECTION
  2
HEADER
  9
$ACADVER
  1
AC1014
  9
$ACADMAINTVER
 70
     9
  9
$DWGCODEPAGE
  3
ANSI_932
  9
$INSBASE
 10
0.0
 20
0.0
 30
0.0
  9
$EXTMIN
 10
20.0
 20
20.0
 30
0.0
  9
$EXTMAX
 10
820.0
 20
574.0
 30
0.0
  9
$LIMMIN
 10
0.0
 20
0.0
  9
$LIMMAX
 10
420.0
 20
297.0
  9
$ORTHOMODE
 70
     0
  9
$REGENMODE
 70
     1
  9
$FILLMODE
 70
     1
  9
$QTEXTMODE
 70
     0
  9
$MIRRTEXT
 70
     1
  9
$DRAGMODE
 70
     2
  9
$LTSCALE
 40
1.0
  9
$OSMODE
 70
    37
  9
$ATTMODE
 70
     1
  9
$TEXTSIZE
 40
2.5
  9
$TRACEWID
 40
1.0
  9
$TEXTSTYLE
  7
STANDARD
  9
$CLAYER
  8
Ｓ_１_１
  9
$CELTYPE
  6
BYLAYER
  9
$CECOLOR
 62
   256
  9
$CELTSCALE
 40
1.0
  9
$DELOBJ
 70
     1
  9
$DISPSILH
 70
     0
  9
$DIMSCALE
 40
1.0
  9
$DIMASZ
 40
2.5
  9
$DIMEXO
 40
0.625
  9
$DIMDLI
 40
3.75
  9
$DIMRND
 40
0.0
  9
$DIMDLE
 40
0.0
  9
$DIMEXE
 40
1.25
  9
$DIMTP
 40
0.0
  9
$DIMTM
 40
0.0
  9
$DIMTXT
 40
2.5
  9
$DIMCEN
 40
2.5
  9
$DIMTSZ
 40
0.0
  9
$DIMTOL
 70
     0
  9
$DIMLIM
 70
     0
  9
$DIMTIH
 70
     0
  9
$DIMTOH
 70
     0
  9
$DIMSE1
 70
     0
  9
$DIMSE2
 70
     0
  9
$DIMTAD
 70
     1
  9
$DIMZIN
 70
     8
  9
$DIMBLK
  1

  9
$DIMASO
 70
     1
  9
$DIMSHO
 70
     1
  9
$DIMPOST
  1

  9
$DIMAPOST
  1

  9
$DIMALT
 70
     0
  9
$DIMALTD
 70
     3
  9
$DIMALTF
 40
0.03937007874016
  9
$DIMLFAC
 40
1.0
  9
$DIMTOFL
 70
     1
  9
$DIMTVP
 40
0.0
  9
$DIMTIX
 70
     0
  9
$DIMSOXD
 70
     0
  9
$DIMSAH
 70
     0
  9
$DIMBLK1
  1

  9
$DIMBLK2
  1

  9
$DIMSTYLE
  2
ISO-25
  9
$DIMCLRD
 70
     0
  9
$DIMCLRE
 70
     0
  9
$DIMCLRT
 70
     0
  9
$DIMTFAC
 40
1.0
  9
$DIMGAP
 40
0.625
  9
$DIMJUST
 70
     0
  9
$DIMSD1
 70
     0
  9
$DIMSD2
 70
     0
  9
$DIMTOLJ
 70
     0
  9
$DIMTZIN
 70
     8
  9
$DIMALTZ
 70
     0
  9
$DIMALTTZ
 70
     0
  9
$DIMFIT
 70
     3
  9
$DIMUPT
 70
     0
  9
$DIMUNIT
 70
     2
  9
$DIMDEC
 70
     2
  9
$DIMTDEC
 70
     2
  9
$DIMALTU
 70
     2
  9
$DIMALTTD
 70
     3
  9
$DIMTXSTY
  7
STANDARD
  9
$DIMAUNIT
 70
     0
  9
$LUNITS
 70
     2
  9
$LUPREC
 70
     4
  9
$SKETCHINC
 40
1.0
  9
$FILLETRAD
 40
10.0
  9
$AUNITS
 70
     0
  9
$AUPREC
 70
     0
  9
$MENU
  1
.
  9
$ELEVATION
 40
0.0
  9
$PELEVATION
 40
0.0
  9
$THICKNESS
 40
0.0
  9
$LIMCHECK
 70
     0
  9
$CHAMFERA
 40
0.0
  9
$CHAMFERB
 40
0.0
  9
$CHAMFERC
 40
0.0
  9
$CHAMFERD
 40
0.0
  9
$SKPOLY
 70
     0
  9
$TDCREATE
 40
2459591.54317522
  9
$TDUPDATE
 40
2459591.543176296
  9
$TDINDWG
 40
0.0000000116
  9
$TDUSRTIMER
 40
0.0000000116
  9
$USRTIMER
 70
     1
  9
$ANGBASE
 50
0.0
  9
$ANGDIR
 70
     0
  9
$PDMODE
 70
     0
  9
$PDSIZE
 40
0.0
  9
$PLINEWID
 40
0.0
  9
$COORDS
 70
     1
  9
$SPLFRAME
 70
     0
  9
$SPLINETYPE
 70
     6
  9
$SPLINESEGS
 70
     8
  9
$ATTDIA
 70
     0
  9
$ATTREQ
 70
     1
  9
$HANDLING
 70
     1
  9
$HANDSEED
  5
41B
  9
$SURFTAB1
 70
     6
  9
$SURFTAB2
 70
     6
  9
$SURFTYPE
 70
     6
  9
$SURFU
 70
     6
  9
$SURFV
 70
     6
  9
$UCSNAME
  2

  9
$UCSORG
 10
0.0
 20
0.0
 30
0.0
  9
$UCSXDIR
 10
1.0
 20
0.0
 30
0.0
  9
$UCSYDIR
 10
0.0
 20
1.0
 30
0.0
  9
$PUCSNAME
  2

  9
$PUCSORG
 10
0.0
 20
0.0
 30
0.0
  9
$PUCSXDIR
 10
1.0
 20
0.0
 30
0.0
  9
$PUCSYDIR
 10
0.0
 20
1.0
 30
0.0
  9
$USERI1
 70
     0
  9
$USERI2
 70
     0
  9
$USERI3
 70
     0
  9
$USERI4
 70
     0
  9
$USERI5
 70
     0
  9
$USERR1
 40
0.0
  9
$USERR2
 40
0.0
  9
$USERR3
 40
0.0
  9
$USERR4
 40
0.0
  9
$USERR5
 40
0.0
  9
$WORLDVIEW
 70
     1
  9
$SHADEDGE
 70
     3
  9
$SHADEDIF
 70
    70
  9
$TILEMODE
 70
     1
  9
$MAXACTVP
 70
    64
  9
$PINSBASE
 10
0.0
 20
0.0
 30
0.0
  9
$PLIMCHECK
 70
     0
  9
$PEXTMIN
 10
1.000000000000000E+20
 20
1.000000000000000E+20
 30
1.000000000000000E+20
  9
$PEXTMAX
 10
-1.000000000000000E+20
 20
-1.000000000000000E+20
 30
-1.000000000000000E+20
  9
$PLIMMIN
 10
0.0
 20
0.0
  9
$PLIMMAX
 10
420.0
 20
297.0
  9
$UNITMODE
 70
     0
  9
$VISRETAIN
 70
     1
  9
$PLINEGEN
 70
     0
  9
$PSLTSCALE
 70
     1
  9
$TREEDEPTH
 70
  3020
  9
$PICKSTYLE
 70
     1
  9
$CMLSTYLE
  2
STANDARD
  9
$CMLJUST
 70
     0
  9
$CMLSCALE
 40
20.0
  9
$PROXYGRAPHICS
 70
     1
  9
$MEASUREMENT
 70
     1
  0
ENDSEC
  0
SECTION
  2
CLASSES
  0
CLASS
  1
ACDBDICTIONARYWDFLT
  2
AcDbDictionaryWithDefault
  3
ObjectDBX Classes
 90
        0
280
     0
281
     0
  0
CLASS
  1
VISUALSTYLE
  2
AcDbVisualStyle
  3
ObjectDBX Classes
 90
     4095
280
     0
281
     0
  0
CLASS
  1
MATERIAL
  2
AcDbMaterial
  3
ObjectDBX Classes
 90
     1153
280
     0
281
     0
  0
CLASS
  1
SCALE
  2
AcDbScale
  3
ObjectDBX Classes
 90
     1153
280
     0
281
     0
  0
CLASS
  1
TABLESTYLE
  2
AcDbTableStyle
  3
ObjectDBX Classes
 90
     4095
280
     0
281
     0
  0
CLASS
  1
MLEADERSTYLE
  2
AcDbMLeaderStyle
  3
ACDB_MLEADERSTYLE_CLASS
 90
     4095
280
     0
281
     0
  0
CLASS
  1
SUN
  2
AcDbSun
  3
SCENEOE
 90
     1153
280
     0
281
     0
  0
CLASS
  1
DICTIONARYVAR
  2
AcDbDictionaryVar
  3
ObjectDBX Classes
 90
        0
280
     0
281
     0
  0
CLASS
  1
XRECORD
  2
AcDbXrecord
  3
ObjectDBX Classes
 90
        0
280
     0
281
     0
  0
CLASS
  1
LWPOLYLINE
  2
AcDbPolyline
  3
ObjectDBX Classes
 90
        0
280
     0
281
     1
  0
CLASS
  1
HATCH
  2
AcDbHatch
  3
ObjectDBX Classes
 90
        0
280
     0
281
     1
  0
CLASS
  1
ACDBPLACEHOLDER
  2
AcDbPlaceHolder
  3
ObjectDBX Classes
 90
        0
280
     0
281
     0
  0
CLASS
  1
LAYOUT
  2
AcDbLayout
  3
ObjectDBX Classes
 90
        0
280
     0
281
     0
  0
ENDSEC
  0
SECTION
  2
TABLES
  0
TABLE
  2
VPORT
  5
8
102
{ACAD_XDICTIONARY
360
410
102
}
330
0
100
AcDbSymbolTable
 70
     1
  0
VPORT
  5
29
330
8
100
AcDbSymbolTableRecord
100
AcDbViewportTableRecord
  2
*ACTIVE
 70
     0
 10
0.0
 20
0.0
 11
1.0
 21
1.0
 12
420.0
 22
297.0
 13
0.0
 23
0.0
 14
10.0
 24
10.0
 15
10.0
 25
10.0
 16
0.0
 26
0.0
 36
1.0
 17
0.0
 27
0.0
 37
0.0
 40
554.0
 41
1.444043321299639
 42
50.0
 43
0.0
 44
0.0
 50
0.0
 51
0.0
 71
     0
 72
  1000
 73
     1
 74
     3
 75
     0
 76
     0
 77
     0
 78
     0
  0
ENDTAB
  0
TABLE
  2
LTYPE
  5
5
330
0
100
AcDbSymbolTable
 70
     8
  0
LTYPE
  5
14
330
5
100
AcDbSymbolTableRecord
100
AcDbLinetypeTableRecord
  2
BYBLOCK
 70
     0
  3

 72
    65
 73
     0
 40
0.0
  0
LTYPE
  5
15
330
5
100
AcDbSymbolTableRecord
100
AcDbLinetypeTableRecord
  2
BYLAYER
 70
     0
  3

 72
    65
 73
     0
 40
0.0
  0
LTYPE
  5
16
330
5
100
AcDbSymbolTableRecord
100
AcDbLinetypeTableRecord
  2
CONTINUOUS
 70
     0
  3
Solid line
 72
    65
 73
     0
 40
0.0
  0
LTYPE
  5
6E
330
5
100
AcDbSymbolTableRecord
100
AcDbLinetypeTableRecord
  2
EXLTYPE0
 70
     0
  3
破線
 72
    65
 73
     2
 40
4.0
 49
3.0
 74
     0
 49
-1.0
 74
     0
  0
LTYPE
  5
6F
330
5
100
AcDbSymbolTableRecord
100
AcDbLinetypeTableRecord
  2
EXLTYPE1
 70
     0
  3
点線
 72
    65
 73
     2
 40
2.0
 49
1.0
 74
     0
 49
-1.0
 74
     0
  0
LTYPE
  5
70
330
5
100
AcDbSymbolTableRecord
100
AcDbLinetypeTableRecord
  2
EXLTYPE2
 70
     0
  3
一点鎖線
 72
    65
 73
     4
 40
13.0
 49
10.0
 74
     0
 49
-1.0
 74
     0
 49
1.0
 74
     0
 49
-1.0
 74
     0
  0
LTYPE
  5
71
330
5
100
AcDbSymbolTableRecord
100
AcDbLinetypeTableRecord
  2
EXLTYPE3
 70
     0
  3
二点鎖線
 72
    65
 73
     6
 40
15.0
 49
10.0
 74
     0
 49
-1.0
 74
     0
 49
1.0
 74
     0
 49
-1.0
 74
     0
 49
1.0
 74
     0
 49
-1.0
 74
     0
  0
LTYPE
  5
72
330
5
100
AcDbSymbolTableRecord
100
AcDbLinetypeTableRecord
  2
EXLTYPE4
 70
     0
  3
一点鎖線2
 72
    65
 73
     4
 40
3.5
 49
2.0
 74
     0
 49
-0.5
 74
     0
 49
0.5
 74
     0
 49
-0.5
 74
     0
  0
LTYPE
  5
73
330
5
100
AcDbSymbolTableRecord
100
AcDbLinetypeTableRecord
  2
EXLTYPE5
 70
     0
  3
二点鎖線2
 72
    65
 73
     6
 40
4.5
 49
2.0
 74
     0
 49
-0.5
 74
     0
 49
0.5
 74
     0
 49
-0.5
 74
     0
 49
0.5
 74
     0
 49
-0.5
 74
     0
  0
LTYPE
  5
74
330
5
100
AcDbSymbolTableRecord
100
AcDbLinetypeTableRecord
  2
EXLTYPE6
 70
     0
  3
一点鎖線3
 72
    65
 73
     4
 40
13.0
 49
10.0
 74
     0
 49
-1.0
 74
     0
 49
1.0
 74
     0
 49
-1.0
 74
     0
  0
ENDTAB
  0
TABLE
  2
LAYER
  5
2
330
0
100
AcDbSymbolTable
 70
     4
  0
LAYER
  5
10
330
2
100
AcDbSymbolTableRecord
100
AcDbLayerTableRecord
  2
0
 70
     0
 62
     7
  6
CONTINUOUS
  0
LAYER
  5
77
330
2
100
AcDbSymbolTableRecord
100
AcDbLayerTableRecord
  2
図面枠
 70
     4
 62
     7
  6
CONTINUOUS
  0
LAYER
  5
78
330
2
100
AcDbSymbolTableRecord
100
AcDbLayerTableRecord
  2
Ｓ_１_１
 70
     0
 62
     7
  6
CONTINUOUS
  0
LAYER
  5
116
330
2
100
AcDbSymbolTableRecord
100
AcDbLayerTableRecord
  2
DEFPOINTS
 70
     0
 62
     7
  6
CONTINUOUS
  0
ENDTAB
  0
TABLE
  2
STYLE
  5
3
330
0
100
AcDbSymbolTable
 70
     5
  0
STYLE
  5
11
330
3
100
AcDbSymbolTableRecord
100
AcDbTextStyleTableRecord
  2
STANDARD
 70
     0
 40
0.0
 41
1.0
 50
0.0
 71
     0
 42
2.5
  3
monotxt
  4
extfont
  0
STYLE
  5
75
330
3
100
AcDbSymbolTableRecord
100
AcDbTextStyleTableRecord
  2
EXCADSTD
 70
     0
 40
0.0
 41
1.0
 50
0.0
 71
     0
 42
2.5
  3
monotxt
  4
extfont
  0
STYLE
  5
76
330
3
100
AcDbSymbolTableRecord
100
AcDbTextStyleTableRecord
  2
EXCADVERT
 70
     4
 40
0.0
 41
1.0
 50
0.0
 71
     0
 42
2.5
  3
monotxt
  4
extfont
  0
STYLE
  5
DB
330
3
100
AcDbSymbolTableRecord
100
AcDbTextStyleTableRecord
  2
EXCADTTF1
 70
     0
 40
0.0
 41
1.0
 50
0.0
 71
     0
 42
2.5
  3
msgothic.ttc
  4

1001
ACAD
1000
MS Gothic
1071
    32817
  0
STYLE
  5
114
330
3
100
AcDbSymbolTableRecord
100
AcDbTextStyleTableRecord
  2
EXCADDIM1
 70
     0
 40
0.0
 41
1.0
 50
0.0
 71
     0
 42
2.5
  3
msgothic.ttc
  4

1001
ACAD
1000
MS Gothic
1071
    32817
  0
ENDTAB
  0
TABLE
  2
VIEW
  5
6
330
0
100
AcDbSymbolTable
 70
     0
  0
ENDTAB
  0
TABLE
  2
UCS
  5
7
330
0
100
AcDbSymbolTable
 70
     0
  0
ENDTAB
  0
TABLE
  2
APPID
  5
9
330
0
100
AcDbSymbolTable
 70
     2
  0
APPID
  5
12
330
9
100
AcDbSymbolTableRecord
100
AcDbRegAppTableRecord
  2
ACAD
 70
     0
  0
APPID
  5
41A
330
9
100
AcDbSymbolTableRecord
100
AcDbRegAppTableRecord
  2
ACAD_MLEADERVER
 70
     0
  0
ENDTAB
  0
TABLE
  2
DIMSTYLE
  5
A
330
0
100
AcDbSymbolTable
 70
     1
  0
DIMSTYLE
105
27
102
{ACAD_REACTORS
330
115
330
125
330
132
330
13F
330
14C
330
159
330
166
330
173
330
180
330
18D
330
19A
330
1A7
102
}
330
A
100
AcDbSymbolTableRecord
100
AcDbDimStyleTableRecord
  2
ISO-25
 70
     0
  3

  4

  5

  6

  7

 40
1.0
 41
2.5
 42
0.625
 43
3.75
 44
1.25
 45
0.0
 46
0.0
 47
0.0
 48
0.0
140
2.5
141
2.5
142
0.0
143
0.03937007874016
144
1.0
145
0.0
146
1.0
147
0.625
 71
     0
 72
     0
 73
     0
 74
     0
 75
     0
 76
     0
 77
     1
 78
     8
170
     0
171
     3
172
     1
173
     0
174
     0
175
     0
176
     0
177
     0
178
     0
270
     2
271
     2
272
     2
273
     2
274
     3
340
11
275
     0
280
     0
281
     0
282
     0
283
     0
284
     8
285
     0
286
     0
287
     5
288
     0
  0
ENDTAB
  0
TABLE
  2
BLOCK_RECORD
  5
1
330
0
100
AcDbSymbolTable
 70
    26
  0
BLOCK_RECORD
  5
1F
330
1
100
AcDbSymbolTableRecord
100
AcDbBlockTableRecord
  2
*MODEL_SPACE
  0
BLOCK_RECORD
  5
1B
330
1
100
AcDbSymbolTableRecord
100
AcDbBlockTableRecord
  2
*PAPER_SPACE
  0
BLOCK_RECORD
  5
79
330
1
100
AcDbSymbolTableRecord
100
AcDbBlockTableRecord
  2
EX_NORM
  0
BLOCK_RECORD
  5
7C
330
1
100
AcDbSymbolTableRecord
100
AcDbBlockTableRecord
  2
EX_BNORM
  0
BLOCK_RECORD
  5
7F
330
1
100
AcDbSymbolTableRecord
100
AcDbBlockTableRecord
  2
EX_BCIR
  0
BLOCK_RECORD
  5
82
330
1
100
AcDbSymbolTableRecord
100
AcDbBlockTableRecord
  2
EX_RCIVIL
  0
BLOCK_RECORD
  5
85
330
1
100
AcDbSymbolTableRecord
100
AcDbBlockTableRecord
  2
EX_SLANT
  0
BLOCK_RECORD
  5
88
330
1
100
AcDbSymbolTableRecord
100
AcDbBlockTableRecord
  2
EX_NONE
  0
BLOCK_RECORD
  5
8B
330
1
100
AcDbSymbolTableRecord
100
AcDbBlockTableRecord
  2
EX_CIVIL
  0
BLOCK_RECORD
  5
8E
330
1
100
AcDbSymbolTableRecord
100
AcDbBlockTableRecord
  2
EX_WCIR
  0
BLOCK_RECORD
  5
91
330
1
100
AcDbSymbolTableRecord
100
AcDbBlockTableRecord
  2
EX_WCIR2
  0
BLOCK_RECORD
  5
94
330
1
100
AcDbSymbolTableRecord
100
AcDbBlockTableRecord
  2
EX_WNORM
  0
BLOCK_RECORD
  5
97
330
1
100
AcDbSymbolTableRecord
100
AcDbBlockTableRecord
  2
EX_NNORM
  0
BLOCK_RECORD
  5
9A
330
1
100
AcDbSymbolTableRecord
100
AcDbBlockTableRecord
  2
EX_BBOX
  0
BLOCK_RECORD
  5
9D
330
1
100
AcDbSymbolTableRecord
100
AcDbBlockTableRecord
  2
EX_WBOX
  0
BLOCK_RECORD
  5
A0
330
1
100
AcDbSymbolTableRecord
100
AcDbBlockTableRecord
  2
EX_INTEGRAL
  0
BLOCK_RECORD
  5
117
330
1
100
AcDbSymbolTableRecord
100
AcDbBlockTableRecord
  2
*D15
  0
BLOCK_RECORD
  5
126
330
1
100
AcDbSymbolTableRecord
100
AcDbBlockTableRecord
  2
*D16
  0
BLOCK_RECORD
  5
133
330
1
100
AcDbSymbolTableRecord
100
AcDbBlockTableRecord
  2
*D17
  0
BLOCK_RECORD
  5
140
330
1
100
AcDbSymbolTableRecord
100
AcDbBlockTableRecord
  2
*D18
  0
BLOCK_RECORD
  5
14D
330
1
100
AcDbSymbolTableRecord
100
AcDbBlockTableRecord
  2
*D19
  0
BLOCK_RECORD
  5
15A
330
1
100
AcDbSymbolTableRecord
100
AcDbBlockTableRecord
  2
*D20
  0
BLOCK_RECORD
  5
167
330
1
100
AcDbSymbolTableRecord
100
AcDbBlockTableRecord
  2
*D21
  0
BLOCK_RECORD
  5
174
330
1
100
AcDbSymbolTableRecord
100
AcDbBlockTableRecord
  2
*D22
  0
BLOCK_RECORD
  5
181
330
1
100
AcDbSymbolTableRecord
100
AcDbBlockTableRecord
  2
*D23
  0
BLOCK_RECORD
  5
18E
330
1
100
AcDbSymbolTableRecord
100
AcDbBlockTableRecord
  2
*D24
  0
BLOCK_RECORD
  5
19B
330
1
100
AcDbSymbolTableRecord
100
AcDbBlockTableRecord
  2
*D25
  0
BLOCK_RECORD
  5
1A8
330
1
100
AcDbSymbolTableRecord
100
AcDbBlockTableRecord
  2
*D26
  0
ENDTAB
  0
ENDSEC
  0
SECTION
  2
BLOCKS
  0
BLOCK
  5
20
330
1F
100
AcDbEntity
  8
0
100
AcDbBlockBegin
  2
*MODEL_SPACE
 70
     0
 10
0.0
 20
0.0
 30
0.0
  3
*MODEL_SPACE
  1

  0
ENDBLK
  5
21
330
1F
100
AcDbEntity
  8
0
100
AcDbBlockEnd
  0
BLOCK
  5
1C
330
1B
100
AcDbEntity
 67
     1
  8
0
100
AcDbBlockBegin
  2
*PAPER_SPACE
 70
     0
 10
0.0
 20
0.0
 30
0.0
  3
*PAPER_SPACE
  1

  0
ENDBLK
  5
1D
330
1B
100
AcDbEntity
 67
     1
  8
0
100
AcDbBlockEnd
  0
BLOCK
  5
7A
330
79
100
AcDbEntity
  8
0
100
AcDbBlockBegin
  2
EX_NORM
 70
     0
 10
0.0
 20
0.0
 30
0.0
  3
EX_NORM
  1

  0
LINE
  5
A3
330
79
100
AcDbEntity
  8
0
  6
CONTINUOUS
 62
     0
100
AcDbLine
 10
0.0
 20
0.0
 30
0.0
 11
-1.0
 21
0.0
 31
0.0
  0
LINE
  5
A4
330
79
100
AcDbEntity
  8
0
  6
CONTINUOUS
 62
     0
100
AcDbLine
 10
0.0
 20
0.0
 30
0.0
 11
-1.0
 21
0.166666667
 31
0.0
  0
LINE
  5
A5
330
79
100
AcDbEntity
  8
0
  6
CONTINUOUS
 62
     0
100
AcDbLine
 10
0.0
 20
0.0
 30
0.0
 11
-1.0
 21
-0.166666667
 31
0.0
  0
ENDBLK
  5
7B
330
79
100
AcDbEntity
  8
0
100
AcDbBlockEnd
  0
BLOCK
  5
7D
330
7C
100
AcDbEntity
  8
0
100
AcDbBlockBegin
  2
EX_BNORM
 70
     0
 10
0.0
 20
0.0
 30
0.0
  3
EX_BNORM
  1

  0
LINE
  5
A6
330
7C
100
AcDbEntity
  8
0
  6
CONTINUOUS
 62
     0
100
AcDbLine
 10
0.0
 20
0.0
 30
0.0
 11
-1.0
 21
0.0
 31
0.0
  0
LINE
  5
A7
330
7C
100
AcDbEntity
  8
0
  6
CONTINUOUS
 62
     0
100
AcDbLine
 10
0.0
 20
0.0
 30
0.0
 11
-1.0
 21
0.166666667
 31
0.0
  0
LINE
  5
A8
330
7C
100
AcDbEntity
  8
0
  6
CONTINUOUS
 62
     0
100
AcDbLine
 10
0.0
 20
0.0
 30
0.0
 11
-1.0
 21
-0.166666667
 31
0.0
  0
LINE
  5
A9
330
7C
100
AcDbEntity
  8
0
  6
CONTINUOUS
 62
     0
100
AcDbLine
 10
0.0
 20
0.0
 30
0.0
 11
-1.0
 21
0.083333333
 31
0.0
  0
LINE
  5
AA
330
7C
100
AcDbEntity
  8
0
  6
CONTINUOUS
 62
     0
100
AcDbLine
 10
0.0
 20
0.0
 30
0.0
 11
-1.0
 21
-0.083333333
 31
0.0
  0
LINE
  5
AB
330
7C
100
AcDbEntity
  8
0
  6
CONTINUOUS
 62
     0
100
AcDbLine
 10
-1.0
 20
0.166666667
 30
0.0
 11
-1.0
 21
-0.166666667
 31
0.0
  0
ENDBLK
  5
7E
330
7C
100
AcDbEntity
  8
0
100
AcDbBlockEnd
  0
BLOCK
  5
80
330
7F
100
AcDbEntity
  8
0
100
AcDbBlockBegin
  2
EX_BCIR
 70
     0
 10
0.0
 20
0.0
 30
0.0
  3
EX_BCIR
  1

  0
LINE
  5
AC
330
7F
100
AcDbEntity
  8
0
  6
CONTINUOUS
 62
     0
100
AcDbLine
 10
0.0
 20
0.0
 30
0.0
 11
-1.0
 21
0.0
 31
0.0
  0
CIRCLE
  5
AD
330
7F
100
AcDbEntity
  8
0
  6
CONTINUOUS
 62
     0
100
AcDbCircle
 10
0.0
 20
0.0
 30
0.0
 40
0.5
  0
CIRCLE
  5
AE
330
7F
100
AcDbEntity
  8
0
  6
CONTINUOUS
 62
     0
100
AcDbCircle
 10
0.0
 20
0.0
 30
0.0
 40
0.25
  0
ENDBLK
  5
81
330
7F
100
AcDbEntity
  8
0
100
AcDbBlockEnd
  0
BLOCK
  5
83
330
82
100
AcDbEntity
  8
0
100
AcDbBlockBegin
  2
EX_RCIVIL
 70
     0
 10
0.0
 20
0.0
 30
0.0
  3
EX_RCIVIL
  1

  0
LINE
  5
AF
330
82
100
AcDbEntity
  8
0
  6
CONTINUOUS
 62
     0
100
AcDbLine
 10
0.0
 20
0.0
 30
0.0
 11
-1.0
 21
0.0
 31
0.0
  0
LINE
  5
B0
330
82
100
AcDbEntity
  8
0
  6
CONTINUOUS
 62
     0
100
AcDbLine
 10
-1.0
 20
-0.25
 30
0.0
 11
0.0
 21
-0.25
 31
0.0
  0
LINE
  5
B1
330
82
100
AcDbEntity
  8
0
  6
CONTINUOUS
 62
     0
100
AcDbLine
 10
-1.0
 20
-0.125
 30
0.0
 11
0.0
 21
-0.125
 31
0.0
  0
ENDBLK
  5
84
330
82
100
AcDbEntity
  8
0
100
AcDbBlockEnd
  0
BLOCK
  5
86
330
85
100
AcDbEntity
  8
0
100
AcDbBlockBegin
  2
EX_SLANT
 70
     0
 10
0.0
 20
0.0
 30
0.0
  3
EX_SLANT
  1

  0
LINE
  5
B2
330
85
100
AcDbEntity
  8
0
  6
CONTINUOUS
 62
     0
100
AcDbLine
 10
0.0
 20
0.0
 30
0.0
 11
-1.0
 21
0.0
 31
0.0
  0
LINE
  5
B3
330
85
100
AcDbEntity
  8
0
  6
CONTINUOUS
 62
     0
100
AcDbLine
 10
0.707106781
 20
0.707106781
 30
0.0
 11
-0.707106781
 21
-0.707106781
 31
0.0
  0
ENDBLK
  5
87
330
85
100
AcDbEntity
  8
0
100
AcDbBlockEnd
  0
BLOCK
  5
89
330
88
100
AcDbEntity
  8
0
100
AcDbBlockBegin
  2
EX_NONE
 70
     0
 10
0.0
 20
0.0
 30
0.0
  3
EX_NONE
  1

  0
LINE
  5
B4
330
88
100
AcDbEntity
  8
0
  6
CONTINUOUS
 62
     0
100
AcDbLine
 10
0.0
 20
0.0
 30
0.0
 11
-1.0
 21
0.0
 31
0.0
  0
ENDBLK
  5
8A
330
88
100
AcDbEntity
  8
0
100
AcDbBlockEnd
  0
BLOCK
  5
8C
330
8B
100
AcDbEntity
  8
0
100
AcDbBlockBegin
  2
EX_CIVIL
 70
     0
 10
0.0
 20
0.0
 30
0.0
  3
EX_CIVIL
  1

  0
LINE
  5
B5
330
8B
100
AcDbEntity
  8
0
  6
CONTINUOUS
 62
     0
100
AcDbLine
 10
0.0
 20
0.0
 30
0.0
 11
-1.0
 21
0.0
 31
0.0
  0
LINE
  5
B6
330
8B
100
AcDbEntity
  8
0
  6
CONTINUOUS
 62
     0
100
AcDbLine
 10
-1.0
 20
0.25
 30
0.0
 11
0.0
 21
0.25
 31
0.0
  0
LINE
  5
B7
330
8B
100
AcDbEntity
  8
0
  6
CONTINUOUS
 62
     0
100
AcDbLine
 10
-1.0
 20
0.125
 30
0.0
 11
0.0
 21
0.125
 31
0.0
  0
ENDBLK
  5
8D
330
8B
100
AcDbEntity
  8
0
100
AcDbBlockEnd
  0
BLOCK
  5
8F
330
8E
100
AcDbEntity
  8
0
100
AcDbBlockBegin
  2
EX_WCIR
 70
     0
 10
0.0
 20
0.0
 30
0.0
  3
EX_WCIR
  1

  0
LINE
  5
B8
330
8E
100
AcDbEntity
  8
0
  6
CONTINUOUS
 62
     0
100
AcDbLine
 10
0.0
 20
0.0
 30
0.0
 11
-1.0
 21
0.0
 31
0.0
  0
CIRCLE
  5
B9
330
8E
100
AcDbEntity
  8
0
  6
CONTINUOUS
 62
     0
100
AcDbCircle
 10
0.0
 20
0.0
 30
0.0
 40
0.5
  0
ENDBLK
  5
90
330
8E
100
AcDbEntity
  8
0
100
AcDbBlockEnd
  0
BLOCK
  5
92
330
91
100
AcDbEntity
  8
0
100
AcDbBlockBegin
  2
EX_WCIR2
 70
     0
 10
0.0
 20
0.0
 30
0.0
  3
EX_WCIR2
  1

  0
LINE
  5
BA
330
91
100
AcDbEntity
  8
0
  6
CONTINUOUS
 62
     0
100
AcDbLine
 10
-0.5
 20
0.0
 30
0.0
 11
-1.0
 21
0.0
 31
0.0
  0
CIRCLE
  5
BB
330
91
100
AcDbEntity
  8
0
  6
CONTINUOUS
 62
     0
100
AcDbCircle
 10
0.0
 20
0.0
 30
0.0
 40
0.5
  0
ENDBLK
  5
93
330
91
100
AcDbEntity
  8
0
100
AcDbBlockEnd
  0
BLOCK
  5
95
330
94
100
AcDbEntity
  8
0
100
AcDbBlockBegin
  2
EX_WNORM
 70
     0
 10
0.0
 20
0.0
 30
0.0
  3
EX_WNORM
  1

  0
LINE
  5
BC
330
94
100
AcDbEntity
  8
0
  6
CONTINUOUS
 62
     0
100
AcDbLine
 10
-1.0
 20
0.0
 30
0.0
 11
-1.0
 21
0.0
 31
0.0
  0
LINE
  5
BD
330
94
100
AcDbEntity
  8
0
  6
CONTINUOUS
 62
     0
100
AcDbLine
 10
0.0
 20
0.0
 30
0.0
 11
-1.0
 21
0.166666667
 31
0.0
  0
LINE
  5
BE
330
94
100
AcDbEntity
  8
0
  6
CONTINUOUS
 62
     0
100
AcDbLine
 10
0.0
 20
0.0
 30
0.0
 11
-1.0
 21
-0.166666667
 31
0.0
  0
LINE
  5
BF
330
94
100
AcDbEntity
  8
0
  6
CONTINUOUS
 62
     0
100
AcDbLine
 10
-1.0
 20
0.166666667
 30
0.0
 11
-1.0
 21
-0.166666667
 31
0.0
  0
ENDBLK
  5
96
330
94
100
AcDbEntity
  8
0
100
AcDbBlockEnd
  0
BLOCK
  5
98
330
97
100
AcDbEntity
  8
0
100
AcDbBlockBegin
  2
EX_NNORM
 70
     0
 10
0.0
 20
0.0
 30
0.0
  3
EX_NNORM
  1

  0
LINE
  5
C0
330
97
100
AcDbEntity
  8
0
  6
CONTINUOUS
 62
     0
100
AcDbLine
 10
0.0
 20
0.0
 30
0.0
 11
-1.0
 21
0.0
 31
0.0
  0
LINE
  5
C1
330
97
100
AcDbEntity
  8
0
  6
CONTINUOUS
 62
     0
100
AcDbLine
 10
0.0
 20
0.0
 30
0.0
 11
-1.0
 21
0.166666667
 31
0.0
  0
LINE
  5
C2
330
97
100
AcDbEntity
  8
0
  6
CONTINUOUS
 62
     0
100
AcDbLine
 10
0.0
 20
0.0
 30
0.0
 11
-1.0
 21
-0.166666667
 31
0.0
  0
LINE
  5
C3
330
97
100
AcDbEntity
  8
0
  6
CONTINUOUS
 62
     0
100
AcDbLine
 10
-1.0
 20
0.166666667
 30
0.0
 11
-1.0
 21
-0.166666667
 31
0.0
  0
ENDBLK
  5
99
330
97
100
AcDbEntity
  8
0
100
AcDbBlockEnd
  0
BLOCK
  5
9B
330
9A
100
AcDbEntity
  8
0
100
AcDbBlockBegin
  2
EX_BBOX
 70
     0
 10
0.0
 20
0.0
 30
0.0
  3
EX_BBOX
  1

  0
LINE
  5
C4
330
9A
100
AcDbEntity
  8
0
  6
CONTINUOUS
 62
     0
100
AcDbLine
 10
0.0
 20
0.0
 30
0.0
 11
-1.0
 21
0.0
 31
0.0
  0
LINE
  5
C5
330
9A
100
AcDbEntity
  8
0
  6
CONTINUOUS
 62
     0
100
AcDbLine
 10
-0.5
 20
0.5
 30
0.0
 11
0.5
 21
0.5
 31
0.0
  0
LINE
  5
C6
330
9A
100
AcDbEntity
  8
0
  6
CONTINUOUS
 62
     0
100
AcDbLine
 10
0.5
 20
0.5
 30
0.0
 11
0.5
 21
-0.5
 31
0.0
  0
LINE
  5
C7
330
9A
100
AcDbEntity
  8
0
  6
CONTINUOUS
 62
     0
100
AcDbLine
 10
0.5
 20
-0.5
 30
0.0
 11
-0.5
 21
-0.5
 31
0.0
  0
LINE
  5
C8
330
9A
100
AcDbEntity
  8
0
  6
CONTINUOUS
 62
     0
100
AcDbLine
 10
-0.5
 20
-0.5
 30
0.0
 11
-0.5
 21
0.5
 31
0.0
  0
LINE
  5
C9
330
9A
100
AcDbEntity
  8
0
  6
CONTINUOUS
 62
     0
100
AcDbLine
 10
-0.25
 20
0.25
 30
0.0
 11
0.25
 21
0.25
 31
0.0
  0
LINE
  5
CA
330
9A
100
AcDbEntity
  8
0
  6
CONTINUOUS
 62
     0
100
AcDbLine
 10
0.25
 20
0.25
 30
0.0
 11
0.25
 21
-0.25
 31
0.0
  0
LINE
  5
CB
330
9A
100
AcDbEntity
  8
0
  6
CONTINUOUS
 62
     0
100
AcDbLine
 10
0.25
 20
-0.25
 30
0.0
 11
-0.25
 21
-0.25
 31
0.0
  0
LINE
  5
CC
330
9A
100
AcDbEntity
  8
0
  6
CONTINUOUS
 62
     0
100
AcDbLine
 10
-0.25
 20
-0.25
 30
0.0
 11
-0.25
 21
0.25
 31
0.0
  0
ENDBLK
  5
9C
330
9A
100
AcDbEntity
  8
0
100
AcDbBlockEnd
  0
BLOCK
  5
9E
330
9D
100
AcDbEntity
  8
0
100
AcDbBlockBegin
  2
EX_WBOX
 70
     0
 10
0.0
 20
0.0
 30
0.0
  3
EX_WBOX
  1

  0
LINE
  5
CD
330
9D
100
AcDbEntity
  8
0
  6
CONTINUOUS
 62
     0
100
AcDbLine
 10
-0.5
 20
0.0
 30
0.0
 11
-1.0
 21
0.0
 31
0.0
  0
LINE
  5
CE
330
9D
100
AcDbEntity
  8
0
  6
CONTINUOUS
 62
     0
100
AcDbLine
 10
-0.5
 20
0.5
 30
0.0
 11
0.5
 21
0.5
 31
0.0
  0
LINE
  5
CF
330
9D
100
AcDbEntity
  8
0
  6
CONTINUOUS
 62
     0
100
AcDbLine
 10
0.5
 20
0.5
 30
0.0
 11
0.5
 21
-0.5
 31
0.0
  0
LINE
  5
D0
330
9D
100
AcDbEntity
  8
0
  6
CONTINUOUS
 62
     0
100
AcDbLine
 10
0.5
 20
-0.5
 30
0.0
 11
-0.5
 21
-0.5
 31
0.0
  0
LINE
  5
D1
330
9D
100
AcDbEntity
  8
0
  6
CONTINUOUS
 62
     0
100
AcDbLine
 10
-0.5
 20
-0.5
 30
0.0
 11
-0.5
 21
0.5
 31
0.0
  0
ENDBLK
  5
9F
330
9D
100
AcDbEntity
  8
0
100
AcDbBlockEnd
  0
BLOCK
  5
A1
330
A0
100
AcDbEntity
  8
0
100
AcDbBlockBegin
  2
EX_INTEGRAL
 70
     0
 10
0.0
 20
0.0
 30
0.0
  3
EX_INTEGRAL
  1

  0
LINE
  5
D2
330
A0
100
AcDbEntity
  8
0
  6
CONTINUOUS
 62
     0
100
AcDbLine
 10
0.0
 20
0.0
 30
0.0
 11
-1.0
 21
0.0
 31
0.0
  0
ARC
  5
D3
330
A0
100
AcDbEntity
  8
0
  6
CONTINUOUS
 62
     0
100
AcDbCircle
 10
0.542115
 20
0.164992
 30
0.0
 40
0.56667
100
AcDbArc
 50
73.07249033629006
 51
196.9275130221199
  0
ARC
  5
D4
330
A0
100
AcDbEntity
  8
0
  6
CONTINUOUS
 62
     0
100
AcDbCircle
 10
-0.542115
 20
-0.164992
 30
0.0
 40
0.56667
100
AcDbArc
 50
253.0724869220464
 51
16.9275130559125
  0
ENDBLK
  5
A2
330
A0
100
AcDbEntity
  8
0
100
AcDbBlockEnd
  0
BLOCK
  5
118
330
117
100
AcDbEntity
  8
0
100
AcDbBlockBegin
  2
*D15
 70
     1
 10
0.0
 20
0.0
 30
0.0
  3
*D15
  1

  0
LINE
  5
11A
330
117
100
AcDbEntity
  8
Ｓ_１_１
  6
CONTINUOUS
 62
     2
100
AcDbLine
 10
502.9999849999999
 20
227.00000000001
 30
0.0
 11
502.9999849999999
 21
166.00000000001
 31
0.0
  0
LINE
  5
11B
330
117
100
AcDbEntity
  8
Ｓ_１_１
  6
CONTINUOUS
 62
     2
100
AcDbLine
 10
512.9999849999999
 20
193.00000300001
 30
0.0
 11
512.9999849999999
 21
166.00000000001
 31
0.0
  0
LINE
  5
11C
330
117
100
AcDbEntity
  8
Ｓ_１_１
  6
CONTINUOUS
 62
     2
100
AcDbLine
 10
502.9999849999999
 20
168.00000000001
 30
0.0
 11
512.9999849999999
 21
168.00000000001
 31
0.0
  0
LINE
  5
11D
330
117
100
AcDbEntity
  8
Ｓ_１_１
  6
CONTINUOUS
 62
     2
100
AcDbLine
 10
496.9999849999999
 20
168.00000000001
 30
0.0
 11
490.9999849999999
 21
168.00000000001
 31
0.0
  0
LINE
  5
11E
330
117
100
AcDbEntity
  8
Ｓ_１_１
  6
CONTINUOUS
 62
     2
100
AcDbLine
 10
518.9999849999999
 20
168.00000000001
 30
0.0
 11
524.9999849999999
 21
168.00000000001
 31
0.0
  0
INSERT
  5
11F
330
117
100
AcDbEntity
  8
Ｓ_１_１
 62
     2
100
AcDbBlockReference
  2
EX_NORM
 10
502.9999849999999
 20
168.00000000001
 30
0.0
 41
6.0
 42
6.0
 43
6.0
  0
INSERT
  5
120
330
117
100
AcDbEntity
  8
Ｓ_１_１
 62
     2
100
AcDbBlockReference
  2
EX_NORM
 10
512.9999849999999
 20
168.00000000001
 30
0.0
 41
6.0
 42
6.0
 43
6.0
 50
180.0
  0
MTEXT
  5
121
330
117
100
AcDbEntity
  8
Ｓ_１_１
 62
     2
100
AcDbMText
 10
485.7499849999999
 20
173.50000000001
 30
0.0
 40
6.92580831408776
 41
0.0
 71
     5
 72
     1
  1
10(5)
  7
EXCADDIM1
  0
POINT
  5
122
330
117
100
AcDbEntity
  8
DEFPOINTS
 62
     0
100
AcDbPoint
 10
502.9999849999999
 20
230.00000000001
 30
0.0
  0
POINT
  5
123
330
117
100
AcDbEntity
  8
DEFPOINTS
 62
     0
100
AcDbPoint
 10
512.9999849999999
 20
196.00000300001
 30
0.0
  0
POINT
  5
124
330
117
100
AcDbEntity
  8
DEFPOINTS
 62
     0
100
AcDbPoint
 10
512.9999849999999
 20
168.00000000001
 30
0.0
  0
ENDBLK
  5
119
330
117
100
AcDbEntity
  8
0
100
AcDbBlockEnd
  0
BLOCK
  5
127
330
126
100
AcDbEntity
  8
0
100
AcDbBlockBegin
  2
*D16
 70
     1
 10
0.0
 20
0.0
 30
0.0
  3
*D16
  1

  0
LINE
  5
129
330
126
100
AcDbEntity
  8
Ｓ_１_１
  6
CONTINUOUS
 62
     2
100
AcDbLine
 10
512.9999849999999
 20
193.00000300001
 30
0.0
 11
512.9999849999999
 21
166.00000000001
 31
0.0
  0
LINE
  5
12A
330
126
100
AcDbEntity
  8
Ｓ_１_１
  6
CONTINUOUS
 62
     2
100
AcDbLine
 10
648.0
 20
192.00002100002
 30
0.0
 11
648.0
 21
166.00000000001
 31
0.0
  0
LINE
  5
12B
330
126
100
AcDbEntity
  8
Ｓ_１_１
  6
CONTINUOUS
 62
     2
100
AcDbLine
 10
518.9999849999999
 20
168.00000000001
 30
0.0
 11
642.0
 21
168.00000000001
 31
0.0
  0
INSERT
  5
12C
330
126
100
AcDbEntity
  8
Ｓ_１_１
 62
     2
100
AcDbBlockReference
  2
EX_NORM
 10
512.9999849999999
 20
168.00000000001
 30
0.0
 41
6.0
 42
6.0
 43
6.0
 50
180.0
  0
INSERT
  5
12D
330
126
100
AcDbEntity
  8
Ｓ_１_１
 62
     2
100
AcDbBlockReference
  2
EX_NORM
 10
648.0
 20
168.00000000001
 30
0.0
 41
6.0
 42
6.0
 43
6.0
  0
MTEXT
  5
12E
330
126
100
AcDbEntity
  8
Ｓ_１_１
 62
     2
100
AcDbMText
 10
580.4999925
 20
173.50000000001
 30
0.0
 40
6.92580831408776
 41
0.0
 71
     5
 72
     1
  1
135
  7
EXCADDIM1
  0
POINT
  5
12F
330
126
100
AcDbEntity
  8
DEFPOINTS
 62
     0
100
AcDbPoint
 10
512.9999849999999
 20
196.00000300001
 30
0.0
  0
POINT
  5
130
330
126
100
AcDbEntity
  8
DEFPOINTS
 62
     0
100
AcDbPoint
 10
648.0
 20
195.00002100002
 30
0.0
  0
POINT
  5
131
330
126
100
AcDbEntity
  8
DEFPOINTS
 62
     0
100
AcDbPoint
 10
648.0
 20
168.00000000001
 30
0.0
  0
ENDBLK
  5
128
330
126
100
AcDbEntity
  8
0
100
AcDbBlockEnd
  0
BLOCK
  5
134
330
133
100
AcDbEntity
  8
0
100
AcDbBlockBegin
  2
*D17
 70
     1
 10
0.0
 20
0.0
 30
0.0
  3
*D17
  1

  0
LINE
  5
136
330
133
100
AcDbEntity
  8
Ｓ_１_１
  6
CONTINUOUS
 62
     2
100
AcDbLine
 10
502.9999849999999
 20
227.00000000001
 30
0.0
 11
502.9999849999999
 21
154.00000000001
 31
0.0
  0
LINE
  5
137
330
133
100
AcDbEntity
  8
Ｓ_１_１
  6
CONTINUOUS
 62
     2
100
AcDbLine
 10
648.0
 20
192.00002100002
 30
0.0
 11
648.0
 21
154.00000000001
 31
0.0
  0
LINE
  5
138
330
133
100
AcDbEntity
  8
Ｓ_１_１
  6
CONTINUOUS
 62
     2
100
AcDbLine
 10
508.9999849999999
 20
156.00000000001
 30
0.0
 11
642.0
 21
156.00000000001
 31
0.0
  0
INSERT
  5
139
330
133
100
AcDbEntity
  8
Ｓ_１_１
 62
     2
100
AcDbBlockReference
  2
EX_NORM
 10
502.9999849999999
 20
156.00000000001
 30
0.0
 41
6.0
 42
6.0
 43
6.0
 50
180.0
  0
INSERT
  5
13A
330
133
100
AcDbEntity
  8
Ｓ_１_１
 62
     2
100
AcDbBlockReference
  2
EX_NORM
 10
648.0
 20
156.00000000001
 30
0.0
 41
6.0
 42
6.0
 43
6.0
  0
MTEXT
  5
13B
330
133
100
AcDbEntity
  8
Ｓ_１_１
 62
     2
100
AcDbMText
 10
575.4999925
 20
161.50000000001
 30
0.0
 40
6.92580831408776
 41
0.0
 71
     5
 72
     1
  1
145(140)
  7
EXCADDIM1
  0
POINT
  5
13C
330
133
100
AcDbEntity
  8
DEFPOINTS
 62
     0
100
AcDbPoint
 10
502.9999849999999
 20
230.00000000001
 30
0.0
  0
POINT
  5
13D
330
133
100
AcDbEntity
  8
DEFPOINTS
 62
     0
100
AcDbPoint
 10
648.0
 20
195.00002100002
 30
0.0
  0
POINT
  5
13E
330
133
100
AcDbEntity
  8
DEFPOINTS
 62
     0
100
AcDbPoint
 10
648.0
 20
156.00000000001
 30
0.0
  0
ENDBLK
  5
135
330
133
100
AcDbEntity
  8
0
100
AcDbBlockEnd
  0
BLOCK
  5
141
330
140
100
AcDbEntity
  8
0
100
AcDbBlockBegin
  2
*D18
 70
     1
 10
0.0
 20
0.0
 30
0.0
  3
*D18
  1

  0
LINE
  5
143
330
140
100
AcDbEntity
  8
Ｓ_１_１
  6
CONTINUOUS
 62
     2
100
AcDbLine
 10
500.9999849999999
 20
299.0000000000089
 30
0.0
 11
478.0
 21
299.0000000000089
 31
0.0
  0
LINE
  5
144
330
140
100
AcDbEntity
  8
Ｓ_１_１
  6
CONTINUOUS
 62
     2
100
AcDbLine
 10
500.9999849999999
 20
229.0000000000089
 30
0.0
 11
478.0
 21
229.0000000000089
 31
0.0
  0
LINE
  5
145
330
140
100
AcDbEntity
  8
Ｓ_１_１
  6
CONTINUOUS
 62
     2
100
AcDbLine
 10
480.0
 20
293.0000000000089
 30
0.0
 11
480.0
 21
235.0000000000089
 31
0.0
  0
INSERT
  5
146
330
140
100
AcDbEntity
  8
Ｓ_１_１
 62
     2
100
AcDbBlockReference
  2
EX_NORM
 10
480.0
 20
299.0000000000089
 30
0.0
 41
6.0
 42
6.0
 43
6.0
 50
90.0
  0
INSERT
  5
147
330
140
100
AcDbEntity
  8
Ｓ_１_１
 62
     2
100
AcDbBlockReference
  2
EX_NORM
 10
480.0
 20
229.0000000000089
 30
0.0
 41
6.0
 42
6.0
 43
6.0
 50
270.0
  0
MTEXT
  5
148
330
140
100
AcDbEntity
  8
Ｓ_１_１
 62
     2
100
AcDbMText
 10
474.5
 20
264.0000000000089
 30
0.0
 40
6.92580831408776
 41
0.0
 71
     5
 72
     1
  1
%%c70
  7
EXCADDIM1
 11
0.0
 21
1.0
 31
0.0
  0
POINT
  5
149
330
140
100
AcDbEntity
  8
DEFPOINTS
 62
     0
100
AcDbPoint
 10
503.9999849999999
 20
299.0000000000089
 30
0.0
  0
POINT
  5
14A
330
140
100
AcDbEntity
  8
DEFPOINTS
 62
     0
100
AcDbPoint
 10
503.9999849999999
 20
229.0000000000089
 30
0.0
  0
POINT
  5
14B
330
140
100
AcDbEntity
  8
DEFPOINTS
 62
     0
100
AcDbPoint
 10
480.0
 20
229.0000000000089
 30
0.0
  0
ENDBLK
  5
142
330
140
100
AcDbEntity
  8
0
100
AcDbBlockEnd
  0
BLOCK
  5
14E
330
14D
100
AcDbEntity
  8
0
100
AcDbBlockBegin
  2
*D19
 70
     1
 10
0.0
 20
0.0
 30
0.0
  3
*D19
  1

  0
LINE
  5
150
330
14D
100
AcDbEntity
  8
Ｓ_１_１
  6
CONTINUOUS
 62
     2
100
AcDbLine
 10
507.9999849999999
 20
224.0000059696689
 30
0.0
 11
466.0
 21
224.0000059696689
 31
0.0
  0
LINE
  5
151
330
14D
100
AcDbEntity
  8
Ｓ_１_１
  6
CONTINUOUS
 62
     2
100
AcDbLine
 10
507.9999849999999
 20
304.0000000000089
 30
0.0
 11
466.0
 21
304.0000000000089
 31
0.0
  0
LINE
  5
152
330
14D
100
AcDbEntity
  8
Ｓ_１_１
  6
CONTINUOUS
 62
     2
100
AcDbLine
 10
468.0
 20
230.0000059696689
 30
0.0
 11
468.0
 21
298.0000000000089
 31
0.0
  0
INSERT
  5
153
330
14D
100
AcDbEntity
  8
Ｓ_１_１
 62
     2
100
AcDbBlockReference
  2
EX_NORM
 10
468.0
 20
224.0000059696689
 30
0.0
 41
6.0
 42
6.0
 43
6.0
 50
270.0
  0
INSERT
  5
154
330
14D
100
AcDbEntity
  8
Ｓ_１_１
 62
     2
100
AcDbBlockReference
  2
EX_NORM
 10
468.0
 20
304.0000000000089
 30
0.0
 41
6.0
 42
6.0
 43
6.0
 50
90.0
  0
MTEXT
  5
155
330
14D
100
AcDbEntity
  8
Ｓ_１_１
 62
     2
100
AcDbMText
 10
462.5
 20
264.0000029848389
 30
0.0
 40
6.92580831408776
 41
0.0
 71
     5
 72
     1
  1
%%c80
  7
EXCADDIM1
 11
0.0
 21
1.0
 31
0.0
  0
POINT
  5
156
330
14D
100
AcDbEntity
  8
DEFPOINTS
 62
     0
100
AcDbPoint
 10
510.9999849999999
 20
224.0000059696689
 30
0.0
  0
POINT
  5
157
330
14D
100
AcDbEntity
  8
DEFPOINTS
 62
     0
100
AcDbPoint
 10
510.9999849999999
 20
304.0000000000089
 30
0.0
  0
POINT
  5
158
330
14D
100
AcDbEntity
  8
DEFPOINTS
 62
     0
100
AcDbPoint
 10
468.0
 20
304.0000000000089
 30
0.0
  0
ENDBLK
  5
14F
330
14D
100
AcDbEntity
  8
0
100
AcDbBlockEnd
  0
BLOCK
  5
15B
330
15A
100
AcDbEntity
  8
0
100
AcDbBlockBegin
  2
*D20
 70
     1
 10
0.0
 20
0.0
 30
0.0
  3
*D20
  1

  0
LINE
  5
15D
330
15A
100
AcDbEntity
  8
Ｓ_１_１
  6
CONTINUOUS
 62
     2
100
AcDbLine
 10
650.000018
 20
334.0000000000089
 30
0.0
 11
686.0
 21
334.000000000009
 31
0.0
  0
LINE
  5
15E
330
15A
100
AcDbEntity
  8
Ｓ_１_１
  6
CONTINUOUS
 62
     2
100
AcDbLine
 10
650.000018
 20
194.0000000000095
 30
0.0
 11
686.0
 21
194.0000000000095
 31
0.0
  0
LINE
  5
15F
330
15A
100
AcDbEntity
  8
Ｓ_１_１
  6
CONTINUOUS
 62
     2
100
AcDbLine
 10
684.0
 20
328.000000000009
 30
0.0
 11
684.0
 21
200.0000000000095
 31
0.0
  0
INSERT
  5
160
330
15A
100
AcDbEntity
  8
Ｓ_１_１
 62
     2
100
AcDbBlockReference
  2
EX_NORM
 10
684.0
 20
334.000000000009
 30
0.0
 41
6.0
 42
6.0
 43
6.0
 50
90.0
  0
INSERT
  5
161
330
15A
100
AcDbEntity
  8
Ｓ_１_１
 62
     2
100
AcDbBlockReference
  2
EX_NORM
 10
684.0
 20
194.0000000000095
 30
0.0
 41
6.0
 42
6.0
 43
6.0
 50
270.0
  0
MTEXT
  5
162
330
15A
100
AcDbEntity
  8
Ｓ_１_１
 62
     2
100
AcDbMText
 10
678.5
 20
264.0000000000092
 30
0.0
 40
6.92580831408776
 41
0.0
 71
     5
 72
     1
  1
%%c140
  7
EXCADDIM1
 11
0.0
 21
1.0
 31
0.0
  0
POINT
  5
163
330
15A
100
AcDbEntity
  8
DEFPOINTS
 62
     0
100
AcDbPoint
 10
647.000018
 20
334.0000000000089
 30
0.0
  0
POINT
  5
164
330
15A
100
AcDbEntity
  8
DEFPOINTS
 62
     0
100
AcDbPoint
 10
647.000018
 20
194.0000000000095
 30
0.0
  0
POINT
  5
165
330
15A
100
AcDbEntity
  8
DEFPOINTS
 62
     0
100
AcDbPoint
 10
684.0
 20
194.0000000000095
 30
0.0
  0
ENDBLK
  5
15C
330
15A
100
AcDbEntity
  8
0
100
AcDbBlockEnd
  0
BLOCK
  5
168
330
167
100
AcDbEntity
  8
0
100
AcDbBlockBegin
  2
*D21
 70
     1
 10
0.0
 20
0.0
 30
0.0
  3
*D21
  1

  0
LINE
  5
16A
330
167
100
AcDbEntity
  8
Ｓ_１_１
  6
CONTINUOUS
 62
     2
100
AcDbLine
 10
170.0
 20
267.0
 30
0.0
 11
170.0
 21
398.00000000001
 31
0.0
  0
LINE
  5
16B
330
167
100
AcDbEntity
  8
Ｓ_１_１
  6
CONTINUOUS
 62
     2
100
AcDbLine
 10
395.36226846716
 20
279.00000503923
 30
0.0
 11
395.36226846716
 21
398.00000000001
 31
0.0
  0
LINE
  5
16C
330
167
100
AcDbEntity
  8
Ｓ_１_１
  6
CONTINUOUS
 62
     2
100
AcDbLine
 10
176.0
 20
396.00000000001
 30
0.0
 11
389.36226846716
 21
396.00000000001
 31
0.0
  0
INSERT
  5
16D
330
167
100
AcDbEntity
  8
Ｓ_１_１
 62
     2
100
AcDbBlockReference
  2
EX_NORM
 10
170.0
 20
396.00000000001
 30
0.0
 41
6.0
 42
6.0
 43
6.0
 50
180.0
  0
INSERT
  5
16E
330
167
100
AcDbEntity
  8
Ｓ_１_１
 62
     2
100
AcDbBlockReference
  2
EX_NORM
 10
395.36226846716
 20
396.00000000001
 30
0.0
 41
6.0
 42
6.0
 43
6.0
  0
MTEXT
  5
16F
330
167
100
AcDbEntity
  8
Ｓ_１_１
 62
     2
100
AcDbMText
 10
282.68113423358
 20
401.50000000001
 30
0.0
 40
6.92580831408776
 41
0.0
 71
     5
 72
     1
  1
(225)
  7
EXCADDIM1
  0
POINT
  5
170
330
167
100
AcDbEntity
  8
DEFPOINTS
 62
     0
100
AcDbPoint
 10
170.0
 20
264.0
 30
0.0
  0
POINT
  5
171
330
167
100
AcDbEntity
  8
DEFPOINTS
 62
     0
100
AcDbPoint
 10
395.36226846716
 20
276.00000503923
 30
0.0
  0
POINT
  5
172
330
167
100
AcDbEntity
  8
DEFPOINTS
 62
     0
100
AcDbPoint
 10
395.36226846716
 20
396.00000000001
 30
0.0
  0
ENDBLK
  5
169
330
167
100
AcDbEntity
  8
0
100
AcDbBlockEnd
  0
BLOCK
  5
175
330
174
100
AcDbEntity
  8
0
100
AcDbBlockBegin
  2
*D22
 70
     1
 10
0.0
 20
0.0
 30
0.0
  3
*D22
  1

  0
LINE
  5
177
330
174
100
AcDbEntity
  8
Ｓ_１_１
  6
CONTINUOUS
 62
     2
100
AcDbLine
 10
648.0
 20
336.00001800001
 30
0.0
 11
648.0
 21
398.0000000000101
 31
0.0
  0
LINE
  5
178
330
174
100
AcDbEntity
  8
Ｓ_１_１
  6
CONTINUOUS
 62
     2
100
AcDbLine
 10
597.999985
 20
287.00000000001
 30
0.0
 11
597.999985
 21
398.0000000000101
 31
0.0
  0
LINE
  5
179
330
174
100
AcDbEntity
  8
Ｓ_１_１
  6
CONTINUOUS
 62
     2
100
AcDbLine
 10
642.0
 20
396.0000000000101
 30
0.0
 11
603.999985
 21
396.0000000000101
 31
0.0
  0
INSERT
  5
17A
330
174
100
AcDbEntity
  8
Ｓ_１_１
 62
     2
100
AcDbBlockReference
  2
EX_NORM
 10
648.0
 20
396.0000000000101
 30
0.0
 41
6.0
 42
6.0
 43
6.0
  0
INSERT
  5
17B
330
174
100
AcDbEntity
  8
Ｓ_１_１
 62
     2
100
AcDbBlockReference
  2
EX_NORM
 10
597.999985
 20
396.0000000000101
 30
0.0
 41
6.0
 42
6.0
 43
6.0
 50
180.0
  0
MTEXT
  5
17C
330
174
100
AcDbEntity
  8
Ｓ_１_１
 62
     2
100
AcDbMText
 10
622.9999925000001
 20
401.5000000000099
 30
0.0
 40
6.92580831408776
 41
0.0
 71
     5
 72
     1
  1
50
  7
EXCADDIM1
  0
POINT
  5
17D
330
174
100
AcDbEntity
  8
DEFPOINTS
 62
     0
100
AcDbPoint
 10
648.0
 20
333.00001800001
 30
0.0
  0
POINT
  5
17E
330
174
100
AcDbEntity
  8
DEFPOINTS
 62
     0
100
AcDbPoint
 10
597.999985
 20
284.00000000001
 30
0.0
  0
POINT
  5
17F
330
174
100
AcDbEntity
  8
DEFPOINTS
 62
     0
100
AcDbPoint
 10
597.999985
 20
396.0000000000101
 30
0.0
  0
ENDBLK
  5
176
330
174
100
AcDbEntity
  8
0
100
AcDbBlockEnd
  0
BLOCK
  5
182
330
181
100
AcDbEntity
  8
0
100
AcDbBlockBegin
  2
*D23
 70
     1
 10
0.0
 20
0.0
 30
0.0
  3
*D23
  1

  0
LINE
  5
184
330
181
100
AcDbEntity
  8
Ｓ_１_１
  6
CONTINUOUS
 62
     2
100
AcDbLine
 10
597.999985
 20
287.00000000001
 30
0.0
 11
597.999985
 21
398.0000000000101
 31
0.0
  0
LINE
  5
185
330
181
100
AcDbEntity
  8
Ｓ_１_１
  6
CONTINUOUS
 62
     2
100
AcDbLine
 10
551.999985
 20
283.00000000001
 30
0.0
 11
551.999985
 21
398.0000000000101
 31
0.0
  0
LINE
  5
186
330
181
100
AcDbEntity
  8
Ｓ_１_１
  6
CONTINUOUS
 62
     2
100
AcDbLine
 10
591.999985
 20
396.0000000000101
 30
0.0
 11
557.999985
 21
396.0000000000101
 31
0.0
  0
INSERT
  5
187
330
181
100
AcDbEntity
  8
Ｓ_１_１
 62
     2
100
AcDbBlockReference
  2
EX_NORM
 10
597.999985
 20
396.0000000000101
 30
0.0
 41
6.0
 42
6.0
 43
6.0
  0
INSERT
  5
188
330
181
100
AcDbEntity
  8
Ｓ_１_１
 62
     2
100
AcDbBlockReference
  2
EX_NORM
 10
551.999985
 20
396.0000000000101
 30
0.0
 41
6.0
 42
6.0
 43
6.0
 50
180.0
  0
MTEXT
  5
189
330
181
100
AcDbEntity
  8
Ｓ_１_１
 62
     2
100
AcDbMText
 10
574.9999850000002
 20
401.5000000000099
 30
0.0
 40
6.92580831408776
 41
0.0
 71
     5
 72
     1
  1
46
  7
EXCADDIM1
  0
POINT
  5
18A
330
181
100
AcDbEntity
  8
DEFPOINTS
 62
     0
100
AcDbPoint
 10
597.999985
 20
284.00000000001
 30
0.0
  0
POINT
  5
18B
330
181
100
AcDbEntity
  8
DEFPOINTS
 62
     0
100
AcDbPoint
 10
551.999985
 20
280.00000000001
 30
0.0
  0
POINT
  5
18C
330
181
100
AcDbEntity
  8
DEFPOINTS
 62
     0
100
AcDbPoint
 10
551.999985
 20
396.0000000000101
 30
0.0
  0
ENDBLK
  5
183
330
181
100
AcDbEntity
  8
0
100
AcDbBlockEnd
  0
BLOCK
  5
18F
330
18E
100
AcDbEntity
  8
0
100
AcDbBlockBegin
  2
*D24
 70
     1
 10
0.0
 20
0.0
 30
0.0
  3
*D24
  1

  0
LINE
  5
191
330
18E
100
AcDbEntity
  8
Ｓ_１_１
  6
CONTINUOUS
 62
     2
100
AcDbLine
 10
512.999985
 20
334.99997100001
 30
0.0
 11
512.999985
 21
398.00000000001
 31
0.0
  0
LINE
  5
192
330
18E
100
AcDbEntity
  8
Ｓ_１_１
  6
CONTINUOUS
 62
     2
100
AcDbLine
 10
551.999985
 20
283.00000000001
 30
0.0
 11
551.999985
 21
398.00000000001
 31
0.0
  0
LINE
  5
193
330
18E
100
AcDbEntity
  8
Ｓ_１_１
  6
CONTINUOUS
 62
     2
100
AcDbLine
 10
518.999985
 20
396.00000000001
 30
0.0
 11
545.999985
 21
396.00000000001
 31
0.0
  0
INSERT
  5
194
330
18E
100
AcDbEntity
  8
Ｓ_１_１
 62
     2
100
AcDbBlockReference
  2
EX_NORM
 10
512.999985
 20
396.00000000001
 30
0.0
 41
6.0
 42
6.0
 43
6.0
 50
180.0
  0
INSERT
  5
195
330
18E
100
AcDbEntity
  8
Ｓ_１_１
 62
     2
100
AcDbBlockReference
  2
EX_NORM
 10
551.999985
 20
396.00000000001
 30
0.0
 41
6.0
 42
6.0
 43
6.0
  0
MTEXT
  5
196
330
18E
100
AcDbEntity
  8
Ｓ_１_１
 62
     2
100
AcDbMText
 10
532.499985
 20
401.50000000001
 30
0.0
 40
6.92580831408776
 41
0.0
 71
     5
 72
     1
  1
39
  7
EXCADDIM1
  0
POINT
  5
197
330
18E
100
AcDbEntity
  8
DEFPOINTS
 62
     0
100
AcDbPoint
 10
512.999985
 20
331.99997100001
 30
0.0
  0
POINT
  5
198
330
18E
100
AcDbEntity
  8
DEFPOINTS
 62
     0
100
AcDbPoint
 10
551.999985
 20
280.00000000001
 30
0.0
  0
POINT
  5
199
330
18E
100
AcDbEntity
  8
DEFPOINTS
 62
     0
100
AcDbPoint
 10
551.999985
 20
396.00000000001
 30
0.0
  0
ENDBLK
  5
190
330
18E
100
AcDbEntity
  8
0
100
AcDbBlockEnd
  0
BLOCK
  5
19C
330
19B
100
AcDbEntity
  8
0
100
AcDbBlockBegin
  2
*D25
 70
     1
 10
0.0
 20
0.0
 30
0.0
  3
*D25
  1

  0
LINE
  5
19E
330
19B
100
AcDbEntity
  8
Ｓ_１_１
  6
CONTINUOUS
 62
     2
100
AcDbLine
 10
237.0
 20
194.00000000001
 30
0.0
 11
142.0
 21
194.00000000001
 31
0.0
  0
LINE
  5
19F
330
19B
100
AcDbEntity
  8
Ｓ_１_１
  6
CONTINUOUS
 62
     2
100
AcDbLine
 10
224.49999999994
 20
375.03048327207
 30
0.0
 11
142.0
 21
375.03048327207
 31
0.0
  0
LINE
  5
1A0
330
19B
100
AcDbEntity
  8
Ｓ_１_１
  6
CONTINUOUS
 62
     2
100
AcDbLine
 10
144.0
 20
200.00000000001
 30
0.0
 11
144.0
 21
369.03048327207
 31
0.0
  0
INSERT
  5
1A1
330
19B
100
AcDbEntity
  8
Ｓ_１_１
 62
     2
100
AcDbBlockReference
  2
EX_NORM
 10
144.0
 20
194.00000000001
 30
0.0
 41
6.0
 42
6.0
 43
6.0
 50
270.0
  0
INSERT
  5
1A2
330
19B
100
AcDbEntity
  8
Ｓ_１_１
 62
     2
100
AcDbBlockReference
  2
EX_NORM
 10
144.0
 20
375.03048327207
 30
0.0
 41
6.0
 42
6.0
 43
6.0
 50
90.0
  0
MTEXT
  5
1A3
330
19B
100
AcDbEntity
  8
Ｓ_１_１
 62
     2
100
AcDbMText
 10
138.5
 20
284.51524163604
 30
0.0
 40
6.92580831408776
 41
0.0
 71
     5
 72
     1
  1
(181)
  7
EXCADDIM1
 11
0.0
 21
1.0
 31
0.0
  0
POINT
  5
1A4
330
19B
100
AcDbEntity
  8
DEFPOINTS
 62
     0
100
AcDbPoint
 10
240.0
 20
194.00000000001
 30
0.0
  0
POINT
  5
1A5
330
19B
100
AcDbEntity
  8
DEFPOINTS
 62
     0
100
AcDbPoint
 10
227.49999999994
 20
375.03048327207
 30
0.0
  0
POINT
  5
1A6
330
19B
100
AcDbEntity
  8
DEFPOINTS
 62
     0
100
AcDbPoint
 10
144.0
 20
375.03048327207
 30
0.0
  0
ENDBLK
  5
19D
330
19B
100
AcDbEntity
  8
0
100
AcDbBlockEnd
  0
BLOCK
  5
1A9
330
1A8
100
AcDbEntity
  8
0
100
AcDbBlockBegin
  2
*D26
 70
     1
 10
0.0
 20
0.0
 30
0.0
  3
*D26
  1

  0
LINE
  5
1AB
330
1A8
100
AcDbEntity
  8
Ｓ_１_１
  6
CONTINUOUS
 62
     2
100
AcDbLine
 10
344.2367898762462
 20
203.8188613055045
 30
0.0
 11
403.0640067245574
 21
169.8549518224568
 31
0.0
  0
LINE
  5
1AC
330
1A8
100
AcDbEntity
  8
Ｓ_１_１
  6
CONTINUOUS
 62
     2
100
AcDbLine
 10
411.0
 20
264.0000000000048
 30
0.0
 11
428.2900963551195
 21
264.0000000000049
 31
0.0
  0
ARC
  5
1AD
330
1A8
100
AcDbEntity
  8
Ｓ_１_１
  6
CONTINUOUS
 62
     2
100
AcDbCircle
 10
240.0000000000189
 20
264.0000000000045
 30
0.0
 40
186.2900963551007
100
AcDbArc
 50
331.8454525731826
 51
358.1545474268184
  0
INSERT
  5
1AE
330
1A8
100
AcDbEntity
  8
Ｓ_１_１
 62
     2
100
AcDbBlockReference
  2
EX_NORM
 10
401.3319559169885
 20
170.8549518224568
 30
0.0
 41
6.0
 42
6.0
 43
6.0
 50
240.9227262865918
  0
INSERT
  5
1AF
330
1A8
100
AcDbEntity
  8
Ｓ_１_１
 62
     2
100
AcDbBlockReference
  2
EX_NORM
 10
426.2900963551195
 20
264.0000000000049
 30
0.0
 41
6.0
 42
6.0
 43
6.0
 50
89.07727371340926
  0
MTEXT
  5
1B0
330
1A8
100
AcDbEntity
  8
Ｓ_１_１
 62
     2
100
AcDbMText
 10
414.6298232067002
 20
217.2080798973862
 30
0.0
 40
6.92580831408776
 41
0.0
 71
     5
 72
     1
  1
30%%d
  7
EXCADDIM1
 11
0.258819045102512
 21
0.9659258262890706
 31
0.0
  0
POINT
  5
1B1
330
1A8
100
AcDbEntity
  8
DEFPOINTS
 62
     0
100
AcDbPoint
 10
240.0000000000189
 20
264.0000000000045
 30
0.0
  0
POINT
  5
1B2
330
1A8
100
AcDbEntity
  8
DEFPOINTS
 62
     0
100
AcDbPoint
 10
341.6387136648929
 20
205.3188613055044
 30
0.0
  0
POINT
  5
1B3
330
1A8
100
AcDbEntity
  8
DEFPOINTS
 62
     0
100
AcDbPoint
 10
408.0
 20
264.0000000000048
 30
0.0
  0
POINT
  5
1B4
330
1A8
100
AcDbEntity
  8
DEFPOINTS
 62
     0
100
AcDbPoint
 10
415.0554288704035
 20
200.2850345444823
 30
0.0
  0
ENDBLK
  5
1AA
330
1A8
100
AcDbEntity
  8
0
100
AcDbBlockEnd
  0
ENDSEC
  0
SECTION
  2
ENTITIES
  0
LINE
  5
D5
330
1F
100
AcDbEntity
  8
図面枠
  6
CONTINUOUS
 62
     5
100
AcDbLine
 10
20.0
 20
20.0
 30
0.0
 11
820.0
 21
20.0
 31
0.0
  0
LINE
  5
D6
330
1F
100
AcDbEntity
  8
図面枠
  6
CONTINUOUS
 62
     5
100
AcDbLine
 10
820.0
 20
20.0
 30
0.0
 11
820.0
 21
574.0
 31
0.0
  0
LINE
  5
D7
330
1F
100
AcDbEntity
  8
図面枠
  6
CONTINUOUS
 62
     5
100
AcDbLine
 10
820.0
 20
574.0
 30
0.0
 11
20.0000000000001
 21
574.0
 31
0.0
  0
LINE
  5
D8
330
1F
100
AcDbEntity
  8
図面枠
  6
CONTINUOUS
 62
     5
100
AcDbLine
 10
20.0000000000001
 20
574.0
 30
0.0
 11
20.0
 21
20.0
 31
0.0
  0
LINE
  5
D9
330
1F
100
AcDbEntity
  8
図面枠
  6
CONTINUOUS
 62
     3
100
AcDbLine
 10
30.00000000000004
 20
564.0
 30
0.0
 11
30.00000000000004
 21
546.0
 31
0.0
  0
LINE
  5
DA
330
1F
100
AcDbEntity
  8
図面枠
  6
CONTINUOUS
 62
     3
100
AcDbLine
 10
810.0
 20
48.0
 30
0.0
 11
810.0
 21
30.0
 31
0.0
  0
TEXT
  5
DC
330
1F
100
AcDbEntity
  8
図面枠
  6
CONTINUOUS
 62
     4
100
AcDbText
 10
774.0
 20
542.765625
 30
0.0
 40
6.92580831408776
  1
kN
 41
0.9992307692307693
  7
EXCADTTF1
 72
     5
 11
783.0
 21
542.765625
 31
0.0
100
AcDbText
  0
TEXT
  5
DD
330
1F
100
AcDbEntity
  8
図面枠
  6
CONTINUOUS
 62
     4
100
AcDbText
 10
654.0
 20
542.765625
 30
0.0
 40
6.92580831408776
  1
能力
 41
0.9992307692307693
  7
EXCADTTF1
 72
     5
 11
672.0
 21
542.765625
 31
0.0
100
AcDbText
  0
TEXT
  5
DE
330
1F
100
AcDbEntity
  8
図面枠
  6
CONTINUOUS
 62
     4
100
AcDbText
 10
707.5
 20
554.765625
 30
0.0
 40
6.92580831408776
  1
仕　　　様
 41
0.9992307692307693
  7
EXCADTTF1
 72
     5
 11
752.5
 21
554.765625
 31
0.0
100
AcDbText
  0
LINE
  5
DF
330
1F
100
AcDbEntity
  8
図面枠
  6
CONTINUOUS
 62
     3
100
AcDbLine
 10
650.0
 20
564.0
 30
0.0
 11
810.0
 21
564.0
 31
0.0
  0
LINE
  5
E0
330
1F
100
AcDbEntity
  8
図面枠
  6
CONTINUOUS
 62
     3
100
AcDbLine
 10
650.0
 20
552.0
 30
0.0
 11
810.0
 21
552.0
 31
0.0
  0
TEXT
  5
E1
330
1F
100
AcDbEntity
  8
図面枠
  6
CONTINUOUS
 62
     4
100
AcDbText
 10
752.5
 20
542.765625
 30
0.0
 40
6.92580831408776
  1
500
 41
0.9992307692307694
  7
EXCADTTF1
 72
     5
 11
766.0
 21
542.765625
 31
0.0
100
AcDbText
  0
TEXT
  5
E2
330
1F
100
AcDbEntity
  8
図面枠
  6
CONTINUOUS
 62
     4
100
AcDbText
 10
774.0000000000001
 20
470.765625
 30
0.0
 40
6.92580831408776
  1
cm
 41
0.9992307692307693
  7
EXCADTTF1
 72
     5
 11
783.0000000000001
 21
470.765625
 31
0.0
100
AcDbText
  0
TEXT
  5
E3
330
1F
100
AcDbEntity
  8
図面枠
  6
CONTINUOUS
 62
     4
100
AcDbText
 10
780.3000000000001
 20
475.0195313170552
 30
0.0
 40
3.116613521173975
  1
2
 41
0.9992308398189645
  7
EXCADTTF1
 72
     5
 11
782.325
 21
475.0195313170552
 31
0.0
100
AcDbText
  0
TEXT
  5
E4
330
1F
100
AcDbEntity
  8
図面枠
  6
CONTINUOUS
 62
     4
100
AcDbText
 10
774.0
 20
530.765625
 30
0.0
 40
6.92580831408776
  1
mm
 41
0.9992307692307693
  7
EXCADTTF1
 72
     5
 11
783.0
 21
530.765625
 31
0.0
100
AcDbText
  0
TEXT
  5
E5
330
1F
100
AcDbEntity
  8
図面枠
  6
CONTINUOUS
 62
     4
100
AcDbText
 10
774.0
 20
518.765625
 30
0.0
 40
6.92580831408776
  1
mm
 41
0.9992307692307693
  7
EXCADTTF1
 72
     5
 11
783.0
 21
518.765625
 31
0.0
100
AcDbText
  0
TEXT
  5
E6
330
1F
100
AcDbEntity
  8
図面枠
  6
CONTINUOUS
 62
     4
100
AcDbText
 10
774.0
 20
506.765625
 30
0.0
 40
6.92580831408776
  1
mm
 41
0.9992307692307693
  7
EXCADTTF1
 72
     5
 11
783.0
 21
506.765625
 31
0.0
100
AcDbText
  0
TEXT
  5
E7
330
1F
100
AcDbEntity
  8
図面枠
  6
CONTINUOUS
 62
     4
100
AcDbText
 10
774.0
 20
494.765625
 30
0.0
 40
6.92580831408776
  1
mm
 41
0.9992307692307693
  7
EXCADTTF1
 72
     5
 11
783.0
 21
494.765625
 31
0.0
100
AcDbText
  0
TEXT
  5
E8
330
1F
100
AcDbEntity
  8
図面枠
  6
CONTINUOUS
 62
     4
100
AcDbText
 10
774.0
 20
482.765625
 30
0.0
 40
6.92580831408776
  1
mm
 41
0.9992307692307693
  7
EXCADTTF1
 72
     5
 11
783.0
 21
482.765625
 31
0.0
100
AcDbText
  0
TEXT
  5
E9
330
1F
100
AcDbEntity
  8
図面枠
  6
CONTINUOUS
 62
     4
100
AcDbText
 10
774.0
 20
458.765625
 30
0.0
 40
6.92580831408776
  1
MPa
 41
0.9992307692307694
  7
EXCADTTF1
 72
     5
 11
787.5
 21
458.765625
 31
0.0
100
AcDbText
  0
TEXT
  5
EA
330
1F
100
AcDbEntity
  8
図面枠
  6
CONTINUOUS
 62
     4
100
AcDbText
 10
654.0
 20
530.765625
 30
0.0
 40
6.92580831408776
  1
ストローク
 41
0.9992307692307693
  7
EXCADTTF1
 72
     5
 11
699.0
 21
530.765625
 31
0.0
100
AcDbText
  0
TEXT
  5
EB
330
1F
100
AcDbEntity
  8
図面枠
  6
CONTINUOUS
 62
     4
100
AcDbText
 10
654.0
 20
518.765625
 30
0.0
 40
6.92580831408776
  1
最低機械高
 41
0.9992307692307693
  7
EXCADTTF1
 72
     5
 11
699.0
 21
518.765625
 31
0.0
100
AcDbText
  0
TEXT
  5
EC
330
1F
100
AcDbEntity
  8
図面枠
  6
CONTINUOUS
 62
     4
100
AcDbText
 10
654.0
 20
506.765625
 30
0.0
 40
6.92580831408776
  1
シリンダー外径
 41
0.9992307692307691
  7
EXCADTTF1
 72
     5
 11
717.0
 21
506.765625
 31
0.0
100
AcDbText
  0
TEXT
  5
ED
330
1F
100
AcDbEntity
  8
図面枠
  6
CONTINUOUS
 62
     4
100
AcDbText
 10
654.0
 20
494.765625
 30
0.0
 40
6.92580831408776
  1
ヘッド径
 41
0.9992307692307693
  7
EXCADTTF1
 72
     5
 11
690.0
 21
494.765625
 31
0.0
100
AcDbText
  0
TEXT
  5
EE
330
1F
100
AcDbEntity
  8
図面枠
  6
CONTINUOUS
 62
     4
100
AcDbText
 10
654.0
 20
482.765625
 30
0.0
 40
6.92580831408776
  1
ピストン径
 41
0.9992307692307693
  7
EXCADTTF1
 72
     5
 11
699.0
 21
482.765625
 31
0.0
100
AcDbText
  0
TEXT
  5
EF
330
1F
100
AcDbEntity
  8
図面枠
  6
CONTINUOUS
 62
     4
100
AcDbText
 10
654.0
 20
470.765625
 30
0.0
 40
6.92580831408776
  1
受圧面積
 41
0.9992307692307693
  7
EXCADTTF1
 72
     5
 11
690.0
 21
470.765625
 31
0.0
100
AcDbText
  0
TEXT
  5
F0
330
1F
100
AcDbEntity
  8
図面枠
  6
CONTINUOUS
 62
     4
100
AcDbText
 10
654.0
 20
458.765625
 30
0.0
 40
6.92580831408776
  1
最高使用圧力
 41
0.9992307692307693
  7
EXCADTTF1
 72
     5
 11
708.0
 21
458.765625
 31
0.0
100
AcDbText
  0
LINE
  5
F1
330
1F
100
AcDbEntity
  8
図面枠
  6
CONTINUOUS
 62
     2
100
AcDbLine
 10
650.0
 20
540.0
 30
0.0
 11
810.0
 21
540.0
 31
0.0
  0
LINE
  5
F2
330
1F
100
AcDbEntity
  8
図面枠
  6
CONTINUOUS
 62
     2
100
AcDbLine
 10
650.0
 20
528.0
 30
0.0
 11
810.0
 21
528.0
 31
0.0
  0
LINE
  5
F3
330
1F
100
AcDbEntity
  8
図面枠
  6
CONTINUOUS
 62
     2
100
AcDbLine
 10
650.0
 20
516.0
 30
0.0
 11
810.0
 21
516.0
 31
0.0
  0
LINE
  5
F4
330
1F
100
AcDbEntity
  8
図面枠
  6
CONTINUOUS
 62
     2
100
AcDbLine
 10
650.0
 20
504.0
 30
0.0
 11
810.0
 21
504.0
 31
0.0
  0
LINE
  5
F5
330
1F
100
AcDbEntity
  8
図面枠
  6
CONTINUOUS
 62
     2
100
AcDbLine
 10
650.0
 20
492.0
 30
0.0
 11
810.0
 21
492.0
 31
0.0
  0
LINE
  5
F6
330
1F
100
AcDbEntity
  8
図面枠
  6
CONTINUOUS
 62
     2
100
AcDbLine
 10
650.0
 20
480.0
 30
0.0
 11
810.0
 21
480.0
 31
0.0
  0
LINE
  5
F7
330
1F
100
AcDbEntity
  8
図面枠
  6
CONTINUOUS
 62
     2
100
AcDbLine
 10
650.0
 20
468.0
 30
0.0
 11
810.0
 21
468.0
 31
0.0
  0
TEXT
  5
F8
330
1F
100
AcDbEntity
  8
図面枠
  6
CONTINUOUS
 62
     4
100
AcDbText
 10
752.5
 20
482.765625
 30
0.0
 40
6.92580831408776
  1
100
 41
0.9992307692307694
  7
EXCADTTF1
 72
     5
 11
766.0
 21
482.765625
 31
0.0
100
AcDbText
  0
TEXT
  5
F9
330
1F
100
AcDbEntity
  8
図面枠
  6
CONTINUOUS
 62
     4
100
AcDbText
 10
748.0
 20
470.765625
 30
0.0
 40
6.92580831408776
  1
78.5
 41
0.9992307692307693
  7
EXCADTTF1
 72
     5
 11
766.0
 21
470.765625
 31
0.0
100
AcDbText
  0
TEXT
  5
FA
330
1F
100
AcDbEntity
  8
図面枠
  6
CONTINUOUS
 62
     4
100
AcDbText
 10
748.0
 20
458.765625
 30
0.0
 40
6.92580831408776
  1
63.7
 41
0.9992307692307693
  7
EXCADTTF1
 72
     5
 11
766.0
 21
458.765625
 31
0.0
100
AcDbText
  0
TEXT
  5
FB
330
1F
100
AcDbEntity
  8
図面枠
  6
CONTINUOUS
 62
     4
100
AcDbText
 10
757.0
 20
530.765625
 30
0.0
 40
6.92580831408776
  1
50
 41
0.9992307692307693
  7
EXCADTTF1
 72
     5
 11
766.0
 21
530.765625
 31
0.0
100
AcDbText
  0
TEXT
  5
FC
330
1F
100
AcDbEntity
  8
図面枠
  6
CONTINUOUS
 62
     4
100
AcDbText
 10
774.0
 20
434.765625
 30
0.0
 40
6.92580831408776
  1
kg
 41
0.9992307692307693
  7
EXCADTTF1
 72
     5
 11
783.0
 21
434.765625
 31
0.0
100
AcDbText
  0
TEXT
  5
FD
330
1F
100
AcDbEntity
  8
図面枠
  6
CONTINUOUS
 62
     4
100
AcDbText
 10
654.0
 20
446.765625
 30
0.0
 40
6.92580831408776
  1
所要油量
 41
0.9992307692307693
  7
EXCADTTF1
 72
     5
 11
690.0
 21
446.765625
 31
0.0
100
AcDbText
  0
TEXT
  5
FE
330
1F
100
AcDbEntity
  8
図面枠
  6
CONTINUOUS
 62
     4
100
AcDbText
 10
654.0
 20
434.765625
 30
0.0
 40
6.92580831408776
  1
重量
 41
0.9992307692307693
  7
EXCADTTF1
 72
     5
 11
672.0
 21
434.765625
 31
0.0
100
AcDbText
  0
LINE
  5
FF
330
1F
100
AcDbEntity
  8
図面枠
  6
CONTINUOUS
 62
     2
100
AcDbLine
 10
650.0
 20
456.0
 30
0.0
 11
810.0
 21
456.0
 31
0.0
  0
LINE
  5
100
330
1F
100
AcDbEntity
  8
図面枠
  6
CONTINUOUS
 62
     2
100
AcDbLine
 10
650.0
 20
444.0
 30
0.0
 11
810.0
 21
444.0
 31
0.0
  0
LINE
  5
101
330
1F
100
AcDbEntity
  8
図面枠
  6
CONTINUOUS
 62
     3
100
AcDbLine
 10
650.0
 20
432.0
 30
0.0
 11
810.0
 21
432.0
 31
0.0
  0
LINE
  5
102
330
1F
100
AcDbEntity
  8
図面枠
  6
CONTINUOUS
 62
     3
100
AcDbLine
 10
650.0
 20
564.0
 30
0.0
 11
650.0
 21
432.0
 31
0.0
  0
LINE
  5
103
330
1F
100
AcDbEntity
  8
図面枠
  6
CONTINUOUS
 62
     3
100
AcDbLine
 10
810.0
 20
564.0
 30
0.0
 11
810.0
 21
432.0
 31
0.0
  0
LINE
  5
104
330
1F
100
AcDbEntity
  8
図面枠
  6
CONTINUOUS
 62
     2
100
AcDbLine
 10
730.0
 20
552.0
 30
0.0
 11
730.0
 21
432.0
 31
0.0
  0
LINE
  5
105
330
1F
100
AcDbEntity
  8
図面枠
  6
CONTINUOUS
 62
     2
100
AcDbLine
 10
770.0
 20
552.0
 30
0.0
 11
770.0
 21
432.0
 31
0.0
  0
TEXT
  5
106
330
1F
100
AcDbEntity
  8
図面枠
  6
CONTINUOUS
 62
     4
100
AcDbText
 10
752.5
 20
506.765625
 30
0.0
 40
6.92580831408776
  1
140
 41
0.9992307692307694
  7
EXCADTTF1
 72
     5
 11
766.0
 21
506.765625
 31
0.0
100
AcDbText
  0
TEXT
  5
107
330
1F
100
AcDbEntity
  8
図面枠
  6
CONTINUOUS
 62
     4
100
AcDbText
 10
748.0
 20
446.765625
 30
0.0
 40
6.92580831408776
  1
0.39
 41
0.9992307692307693
  7
EXCADTTF1
 72
     5
 11
766.0
 21
446.765625
 31
0.0
100
AcDbText
  0
TEXT
  5
108
330
1F
100
AcDbEntity
  8
図面枠
  6
CONTINUOUS
 62
     4
100
AcDbText
 10
774.0
 20
446.765625
 30
0.0
 40
6.92580831408776
  1
L
 41
0.9992307692307693
  7
EXCADTTF1
 72
     5
 11
778.5
 21
446.765625
 31
0.0
100
AcDbText
  0
LINE
  5
109
330
1F
100
AcDbEntity
  8
図面枠
  6
CONTINUOUS
 62
     3
100
AcDbLine
 10
744.0
 20
48.0
 30
0.0
 11
744.0
 21
30.0
 31
0.0
  0
TEXT
  5
10A
330
1F
100
AcDbEntity
  8
図面枠
  6
CONTINUOUS
 62
     4
100
AcDbText
 10
750.0
 20
34.6875
 30
0.0
 40
9.234411085450347
  1
OTV-505-A
 41
0.9992307692307694
  7
EXCADTTF1
 72
     5
 11
804.0
 21
34.6875
 31
0.0
100
AcDbText
  0
LINE
  5
10B
330
1F
100
AcDbEntity
  8
図面枠
  6
CONTINUOUS
 62
     3
100
AcDbLine
 10
744.0
 20
30.0
 30
0.0
 11
810.0
 21
30.0
 31
0.0
  0
LINE
  5
10C
330
1F
100
AcDbEntity
  8
図面枠
  6
CONTINUOUS
 62
     3
100
AcDbLine
 10
744.0
 20
48.0
 30
0.0
 11
810.0
 21
48.0
 31
0.0
  0
TEXT
  5
10D
330
1F
100
AcDbEntity
  8
図面枠
  6
CONTINUOUS
 62
     4
100
AcDbText
 10
36.00000000000004
 20
550.6875
 30
0.0
 40
9.234411085450347
  1
500kN50ストローク油圧ジャッキ　取手脱着型
 41
0.9992307692307698
  7
EXCADTTF1
 72
     5
 11
282.0000000000001
 21
550.6875
 31
0.0
100
AcDbText
  0
LINE
  5
10E
330
1F
100
AcDbEntity
  8
図面枠
  6
CONTINUOUS
 62
     3
100
AcDbLine
 10
288.0
 20
564.0
 30
0.0
 11
288.0
 21
546.0
 31
0.0
  0
LINE
  5
10F
330
1F
100
AcDbEntity
  8
図面枠
  6
CONTINUOUS
 62
     3
100
AcDbLine
 10
30.00000000000004
 20
564.0
 30
0.0
 11
288.0
 21
564.0
 31
0.0
  0
LINE
  5
110
330
1F
100
AcDbEntity
  8
図面枠
  6
CONTINUOUS
 62
     3
100
AcDbLine
 10
30.00000000000004
 20
546.0
 30
0.0
 11
288.0
 21
546.0
 31
0.0
  0
TEXT
  5
111
330
1F
100
AcDbEntity
  8
図面枠
  6
CONTINUOUS
 62
     4
100
AcDbText
 10
734.5
 20
518.765625
 30
0.0
 40
6.92580831408776
  1
140,145
 41
0.9992307692307691
  7
EXCADTTF1
 72
     5
 11
766.0
 21
518.765625
 31
0.0
100
AcDbText
  0
TEXT
  5
112
330
1F
100
AcDbEntity
  8
図面枠
  6
CONTINUOUS
 62
     4
100
AcDbText
 10
757.0
 20
494.765625
 30
0.0
 40
6.92580831408776
  1
70
 41
0.9992307692307693
  7
EXCADTTF1
 72
     5
 11
766.0
 21
494.765625
 31
0.0
100
AcDbText
  0
TEXT
  5
113
330
1F
100
AcDbEntity
  8
図面枠
  6
CONTINUOUS
 62
     4
100
AcDbText
 10
739.0
 20
434.765625
 30
0.0
 40
6.92580831408776
  1
約16.0
 41
0.9992307692307693
  7
EXCADTTF1
 72
     5
 11
766.0
 21
434.765625
 31
0.0
100
AcDbText
  0
DIMENSION
  5
115
330
1F
100
AcDbEntity
  8
Ｓ_１_１
  6
CONTINUOUS
 62
     2
100
AcDbDimension
  2
*D15
 10
512.9999849999999
 20
168.00000000001
 30
0.0
 11
485.7499849999999
 21
173.50000000001
 31
0.0
 70
   160
  1
10(5)
  3
ISO-25
100
AcDbAlignedDimension
 13
502.9999849999999
 23
230.00000000001
 33
0.0
 14
512.9999849999999
 24
196.00000300001
 34
0.0
100
AcDbRotatedDimension
1001
ACAD
1000
DSTYLE
1002
{
1070
   270
1070
     2
1070
     6
1000
EX_NORM
1070
     7
1000
EX_NORM
1070
    41
1040
6.0
1070
    42
1040
3.0
1070
    44
1040
2.0
1070
    73
1070
     0
1070
    74
1070
     0
1070
    75
1070
     0
1070
    76
1070
     0
1070
    77
1070
     1
1070
    78
1070
     8
1070
   140
1040
6.92580831408776
1070
   147
1040
0.0
1070
   173
1070
     1
1070
   176
1070
     2
1070
   177
1070
     2
1070
   178
1070
     2
1070
   271
1070
     2
1070
   277
1070
     2
1070
   279
1070
     2
1070
   280
1070
     1
1070
   287
1070
     5
1070
   340
1005
114
1002
}
  0
DIMENSION
  5
125
330
1F
100
AcDbEntity
  8
Ｓ_１_１
  6
CONTINUOUS
 62
     2
100
AcDbDimension
  2
*D16
 10
648.0
 20
168.00000000001
 30
0.0
 11
580.4999925
 21
173.50000000001
 31
0.0
 70
   160
  3
ISO-25
100
AcDbAlignedDimension
 13
512.9999849999999
 23
196.00000300001
 33
0.0
 14
648.0
 24
195.00002100002
 34
0.0
100
AcDbRotatedDimension
1001
ACAD
1000
DSTYLE
1002
{
1070
   270
1070
     2
1070
     6
1000
EX_NORM
1070
     7
1000
EX_NORM
1070
    41
1040
6.0
1070
    42
1040
3.0
1070
    44
1040
2.0
1070
    73
1070
     0
1070
    74
1070
     0
1070
    75
1070
     0
1070
    76
1070
     0
1070
    77
1070
     1
1070
    78
1070
     8
1070
   140
1040
6.92580831408776
1070
   147
1040
0.0
1070
   173
1070
     1
1070
   176
1070
     2
1070
   177
1070
     2
1070
   178
1070
     2
1070
   271
1070
     2
1070
   277
1070
     2
1070
   279
1070
     2
1070
   280
1070
     0
1070
   287
1070
     5
1070
   340
1005
114
1002
}
  0
DIMENSION
  5
132
330
1F
100
AcDbEntity
  8
Ｓ_１_１
  6
CONTINUOUS
 62
     2
100
AcDbDimension
  2
*D17
 10
648.0
 20
156.00000000001
 30
0.0
 11
575.4999925
 21
161.50000000001
 31
0.0
 70
   160
  1
145(140)
  3
ISO-25
100
AcDbAlignedDimension
 13
502.9999849999999
 23
230.00000000001
 33
0.0
 14
648.0
 24
195.00002100002
 34
0.0
100
AcDbRotatedDimension
1001
ACAD
1000
DSTYLE
1002
{
1070
   270
1070
     2
1070
     6
1000
EX_NORM
1070
     7
1000
EX_NORM
1070
    41
1040
6.0
1070
    42
1040
3.0
1070
    44
1040
2.0
1070
    73
1070
     0
1070
    74
1070
     0
1070
    75
1070
     0
1070
    76
1070
     0
1070
    77
1070
     1
1070
    78
1070
     8
1070
   140
1040
6.92580831408776
1070
   147
1040
0.0
1070
   173
1070
     1
1070
   176
1070
     2
1070
   177
1070
     2
1070
   178
1070
     2
1070
   271
1070
     2
1070
   277
1070
     2
1070
   279
1070
     2
1070
   280
1070
     0
1070
   287
1070
     5
1070
   340
1005
114
1002
}
  0
DIMENSION
  5
13F
330
1F
100
AcDbEntity
  8
Ｓ_１_１
  6
CONTINUOUS
 62
     2
100
AcDbDimension
  2
*D18
 10
480.0
 20
229.0000000000089
 30
0.0
 11
474.5
 21
264.0000000000089
 31
0.0
 70
   160
  1
%%c70
  3
ISO-25
100
AcDbAlignedDimension
 13
503.9999849999999
 23
299.0000000000089
 33
0.0
 14
503.9999849999999
 24
229.0000000000089
 34
0.0
 50
90.0
100
AcDbRotatedDimension
1001
ACAD
1000
DSTYLE
1002
{
1070
   270
1070
     2
1070
     6
1000
EX_NORM
1070
     7
1000
EX_NORM
1070
    41
1040
6.0
1070
    42
1040
3.0
1070
    44
1040
2.0
1070
    73
1070
     0
1070
    74
1070
     0
1070
    75
1070
     0
1070
    76
1070
     0
1070
    77
1070
     1
1070
    78
1070
     8
1070
   140
1040
6.92580831408776
1070
   147
1040
0.0
1070
   173
1070
     1
1070
   176
1070
     2
1070
   177
1070
     2
1070
   178
1070
     2
1070
   271
1070
     2
1070
   277
1070
     2
1070
   279
1070
     2
1070
   280
1070
     0
1070
   287
1070
     5
1070
   340
1005
114
1002
}
  0
DIMENSION
  5
14C
330
1F
100
AcDbEntity
  8
Ｓ_１_１
  6
CONTINUOUS
 62
     2
100
AcDbDimension
  2
*D19
 10
468.0
 20
304.0000000000089
 30
0.0
 11
462.5
 21
264.0000029848389
 31
0.0
 70
   160
  1
%%c80
  3
ISO-25
100
AcDbAlignedDimension
 13
510.9999849999999
 23
224.0000059696689
 33
0.0
 14
510.9999849999999
 24
304.0000000000089
 34
0.0
 50
90.0
100
AcDbRotatedDimension
1001
ACAD
1000
DSTYLE
1002
{
1070
   270
1070
     2
1070
     6
1000
EX_NORM
1070
     7
1000
EX_NORM
1070
    41
1040
6.0
1070
    42
1040
3.0
1070
    44
1040
2.0
1070
    73
1070
     0
1070
    74
1070
     0
1070
    75
1070
     0
1070
    76
1070
     0
1070
    77
1070
     1
1070
    78
1070
     8
1070
   140
1040
6.92580831408776
1070
   147
1040
0.0
1070
   173
1070
     1
1070
   176
1070
     2
1070
   177
1070
     2
1070
   178
1070
     2
1070
   271
1070
     2
1070
   277
1070
     2
1070
   279
1070
     2
1070
   280
1070
     0
1070
   287
1070
     5
1070
   340
1005
114
1002
}
  0
DIMENSION
  5
159
330
1F
100
AcDbEntity
  8
Ｓ_１_１
  6
CONTINUOUS
 62
     2
100
AcDbDimension
  2
*D20
 10
684.0
 20
194.0000000000095
 30
0.0
 11
678.5
 21
264.0000000000092
 31
0.0
 70
   160
  1
%%c140
  3
ISO-25
100
AcDbAlignedDimension
 13
647.000018
 23
334.0000000000089
 33
0.0
 14
647.000018
 24
194.0000000000095
 34
0.0
 50
90.0
100
AcDbRotatedDimension
1001
ACAD
1000
DSTYLE
1002
{
1070
   270
1070
     2
1070
     6
1000
EX_NORM
1070
     7
1000
EX_NORM
1070
    41
1040
6.0
1070
    42
1040
3.0
1070
    44
1040
2.0
1070
    73
1070
     0
1070
    74
1070
     0
1070
    75
1070
     0
1070
    76
1070
     0
1070
    77
1070
     1
1070
    78
1070
     8
1070
   140
1040
6.92580831408776
1070
   147
1040
0.0
1070
   173
1070
     1
1070
   176
1070
     2
1070
   177
1070
     2
1070
   178
1070
     2
1070
   271
1070
     2
1070
   277
1070
     2
1070
   279
1070
     2
1070
   280
1070
     0
1070
   287
1070
     5
1070
   340
1005
114
1002
}
  0
DIMENSION
  5
166
330
1F
100
AcDbEntity
  8
Ｓ_１_１
  6
CONTINUOUS
 62
     2
100
AcDbDimension
  2
*D21
 10
395.36226846716
 20
396.00000000001
 30
0.0
 11
282.68113423358
 21
401.50000000001
 31
0.0
 70
   160
  1
(<>)
  3
ISO-25
100
AcDbAlignedDimension
 13
170.0
 23
264.0
 33
0.0
 14
395.36226846716
 24
276.00000503923
 34
0.0
100
AcDbRotatedDimension
1001
ACAD
1000
DSTYLE
1002
{
1070
   270
1070
     2
1070
     6
1000
EX_NORM
1070
     7
1000
EX_NORM
1070
    41
1040
6.0
1070
    42
1040
3.0
1070
    44
1040
2.0
1070
    73
1070
     0
1070
    74
1070
     0
1070
    75
1070
     0
1070
    76
1070
     0
1070
    77
1070
     1
1070
    78
1070
     0
1070
   140
1040
6.92580831408776
1070
   147
1040
0.0
1070
   173
1070
     1
1070
   176
1070
     2
1070
   177
1070
     2
1070
   178
1070
     2
1070
   271
1070
     0
1070
   277
1070
     2
1070
   279
1070
     2
1070
   280
1070
     0
1070
   287
1070
     5
1070
   340
1005
114
1002
}
  0
DIMENSION
  5
173
330
1F
100
AcDbEntity
  8
Ｓ_１_１
  6
CONTINUOUS
 62
     2
100
AcDbDimension
  2
*D22
 10
597.999985
 20
396.0000000000101
 30
0.0
 11
622.9999925000001
 21
401.5000000000099
 31
0.0
 70
   160
  3
ISO-25
100
AcDbAlignedDimension
 13
648.0
 23
333.00001800001
 33
0.0
 14
597.999985
 24
284.00000000001
 34
0.0
100
AcDbRotatedDimension
1001
ACAD
1000
DSTYLE
1002
{
1070
   270
1070
     2
1070
     6
1000
EX_NORM
1070
     7
1000
EX_NORM
1070
    41
1040
6.0
1070
    42
1040
3.0
1070
    44
1040
2.0
1070
    73
1070
     0
1070
    74
1070
     0
1070
    75
1070
     0
1070
    76
1070
     0
1070
    77
1070
     1
1070
    78
1070
     8
1070
   140
1040
6.92580831408776
1070
   147
1040
0.0
1070
   173
1070
     1
1070
   176
1070
     2
1070
   177
1070
     2
1070
   178
1070
     2
1070
   271
1070
     2
1070
   277
1070
     2
1070
   279
1070
     2
1070
   280
1070
     0
1070
   287
1070
     5
1070
   340
1005
114
1002
}
  0
DIMENSION
  5
180
330
1F
100
AcDbEntity
  8
Ｓ_１_１
  6
CONTINUOUS
 62
     2
100
AcDbDimension
  2
*D23
 10
551.999985
 20
396.0000000000101
 30
0.0
 11
574.9999850000002
 21
401.5000000000099
 31
0.0
 70
   160
  3
ISO-25
100
AcDbAlignedDimension
 13
597.999985
 23
284.00000000001
 33
0.0
 14
551.999985
 24
280.00000000001
 34
0.0
100
AcDbRotatedDimension
1001
ACAD
1000
DSTYLE
1002
{
1070
   270
1070
     2
1070
     6
1000
EX_NORM
1070
     7
1000
EX_NORM
1070
    41
1040
6.0
1070
    42
1040
3.0
1070
    44
1040
2.0
1070
    73
1070
     0
1070
    74
1070
     0
1070
    75
1070
     0
1070
    76
1070
     0
1070
    77
1070
     1
1070
    78
1070
     8
1070
   140
1040
6.92580831408776
1070
   147
1040
0.0
1070
   173
1070
     1
1070
   176
1070
     2
1070
   177
1070
     2
1070
   178
1070
     2
1070
   271
1070
     2
1070
   277
1070
     2
1070
   279
1070
     2
1070
   280
1070
     0
1070
   287
1070
     5
1070
   340
1005
114
1002
}
  0
DIMENSION
  5
18D
330
1F
100
AcDbEntity
  8
Ｓ_１_１
  6
CONTINUOUS
 62
     2
100
AcDbDimension
  2
*D24
 10
551.999985
 20
396.00000000001
 30
0.0
 11
532.499985
 21
401.50000000001
 31
0.0
 70
   160
  3
ISO-25
100
AcDbAlignedDimension
 13
512.999985
 23
331.99997100001
 33
0.0
 14
551.999985
 24
280.00000000001
 34
0.0
100
AcDbRotatedDimension
1001
ACAD
1000
DSTYLE
1002
{
1070
   270
1070
     2
1070
     6
1000
EX_NORM
1070
     7
1000
EX_NORM
1070
    41
1040
6.0
1070
    42
1040
3.0
1070
    44
1040
2.0
1070
    73
1070
     0
1070
    74
1070
     0
1070
    75
1070
     0
1070
    76
1070
     0
1070
    77
1070
     1
1070
    78
1070
     8
1070
   140
1040
6.92580831408776
1070
   147
1040
0.0
1070
   173
1070
     1
1070
   176
1070
     2
1070
   177
1070
     2
1070
   178
1070
     2
1070
   271
1070
     2
1070
   277
1070
     2
1070
   279
1070
     2
1070
   280
1070
     0
1070
   287
1070
     5
1070
   340
1005
114
1002
}
  0
DIMENSION
  5
19A
330
1F
100
AcDbEntity
  8
Ｓ_１_１
  6
CONTINUOUS
 62
     2
100
AcDbDimension
  2
*D25
 10
144.0
 20
375.03048327207
 30
0.0
 11
138.5
 21
284.51524163604
 31
0.0
 70
   160
  1
(<>)
  3
ISO-25
100
AcDbAlignedDimension
 13
240.0
 23
194.00000000001
 33
0.0
 14
227.49999999994
 24
375.03048327207
 34
0.0
 50
90.0
100
AcDbRotatedDimension
1001
ACAD
1000
DSTYLE
1002
{
1070
   270
1070
     2
1070
     6
1000
EX_NORM
1070
     7
1000
EX_NORM
1070
    41
1040
6.0
1070
    42
1040
3.0
1070
    44
1040
2.0
1070
    73
1070
     0
1070
    74
1070
     0
1070
    75
1070
     0
1070
    76
1070
     0
1070
    77
1070
     1
1070
    78
1070
     0
1070
   140
1040
6.92580831408776
1070
   147
1040
0.0
1070
   173
1070
     1
1070
   176
1070
     2
1070
   177
1070
     2
1070
   178
1070
     2
1070
   271
1070
     0
1070
   277
1070
     2
1070
   279
1070
     2
1070
   280
1070
     0
1070
   287
1070
     5
1070
   340
1005
114
1002
}
  0
DIMENSION
  5
1A7
330
1F
100
AcDbEntity
  8
Ｓ_１_１
  6
CONTINUOUS
 62
     2
100
AcDbDimension
  2
*D26
 10
415.0554288704035
 20
200.2850345444823
 30
0.0
 11
414.6298232067002
 21
217.2080798973862
 31
0.0
 70
   165
  3
ISO-25
100
AcDb3PointAngularDimension
 13
341.6387136648929
 23
205.3188613055044
 33
0.0
 14
408.0
 24
264.0000000000048
 34
0.0
 15
240.0000000000189
 25
264.0000000000045
 35
0.0
1001
ACAD
1000
DSTYLE
1002
{
1070
   270
1070
     2
1070
     6
1000
EX_NORM
1070
     7
1000
EX_NORM
1070
    41
1040
6.0
1070
    42
1040
2.999999999999986
1070
    44
1040
2.000000000000002
1070
    73
1070
     0
1070
    74
1070
     0
1070
    75
1070
     0
1070
    76
1070
     0
1070
    77
1070
     1
1070
    78
1070
     8
1070
    79
1070
     2
1070
   140
1040
6.92580831408776
1070
   147
1040
0.0
1070
   173
1070
     1
1070
   176
1070
     2
1070
   177
1070
     2
1070
   178
1070
     2
1070
   179
1070
     2
1070
   271
1070
     2
1070
   277
1070
     2
1070
   279
1070
     2
1070
   280
1070
     0
1070
   287
1070
     5
1070
   340
1005
114
1002
}
  0
CIRCLE
  5
1B5
330
1F
100
AcDbEntity
  8
Ｓ_１_１
  6
EXLTYPE2
 62
     1
100
AcDbCircle
 10
240.0000000000013
 20
264.0000000000143
 30
0.0
 40
50.00000000000002
  0
CIRCLE
  5
1B6
330
1F
100
AcDbEntity
  8
Ｓ_１_１
  6
CONTINUOUS
 62
     3
100
AcDbCircle
 10
240.0000000000017
 20
214.0000000000145
 30
0.0
 40
3.0
  0
CIRCLE
  5
1B7
330
1F
100
AcDbEntity
  8
Ｓ_１_１
  6
CONTINUOUS
 62
     3
100
AcDbCircle
 10
190.0000000000013
 20
264.0000000000139
 30
0.0
 40
3.0
  0
CIRCLE
  5
1B8
330
1F
100
AcDbEntity
  8
Ｓ_１_１
  6
CONTINUOUS
 62
     3
100
AcDbCircle
 10
240.0000000000013
 20
314.0000000000144
 30
0.0
 40
3.0
  0
CIRCLE
  5
1B9
330
1F
100
AcDbEntity
  8
Ｓ_１_１
  6
CONTINUOUS
 62
     3
100
AcDbCircle
 10
290.0000000000015
 20
264.0000000000142
 30
0.0
 40
3.0
  0
CIRCLE
  5
1BA
330
1F
100
AcDbEntity
  8
Ｓ_１_１
  6
CONTINUOUS
 62
     3
100
AcDbCircle
 10
240.0000000000013
 20
264.0000000000143
 30
0.0
 40
57.49999999999996
  0
CIRCLE
  5
1BB
330
1F
100
AcDbEntity
  8
Ｓ_１_１
  6
CONTINUOUS
 62
     3
100
AcDbCircle
 10
240.0000000000013
 20
264.0000000000143
 30
0.0
 40
67.99999999999997
  0
CIRCLE
  5
1BC
330
1F
100
AcDbEntity
  8
Ｓ_１_１
  6
CONTINUOUS
 62
     3
100
AcDbCircle
 10
190.0000000000016
 20
264.0000000000144
 30
0.0
 40
2.50000000000003
  0
CIRCLE
  5
1BD
330
1F
100
AcDbEntity
  8
Ｓ_１_１
  6
CONTINUOUS
 62
     3
100
AcDbCircle
 10
240.0000000000017
 20
214.0000000000145
 30
0.0
 40
2.5
  0
CIRCLE
  5
1BE
330
1F
100
AcDbEntity
  8
Ｓ_１_１
  6
CONTINUOUS
 62
     3
100
AcDbCircle
 10
240.0000000000013
 20
314.0000000000144
 30
0.0
 40
2.5
  0
CIRCLE
  5
1BF
330
1F
100
AcDbEntity
  8
Ｓ_１_１
  6
CONTINUOUS
 62
     3
100
AcDbCircle
 10
290.0000000000015
 20
264.0000000000142
 30
0.0
 40
2.499999999999972
  0
CIRCLE
  5
1C0
330
1F
100
AcDbEntity
  8
Ｓ_１_１
  6
CONTINUOUS
 62
     3
100
AcDbCircle
 10
240.0000000000013
 20
264.0000000000143
 30
0.0
 40
55.99999999999996
  0
LINE
  5
1C1
330
1F
100
AcDbEntity
  8
Ｓ_１_１
  6
EXLTYPE2
 62
     1
100
AcDbLine
 10
227.4999999999408
 20
370.5304832720662
 30
0.0
 11
252.4999999999407
 21
370.5304832720662
 31
0.0
  0
ARC
  5
1C2
330
1F
100
AcDbEntity
  8
Ｓ_１_１
  6
EXLTYPE2
 62
     1
100
AcDbCircle
 10
227.4999999999406
 20
336.0304832720665
 30
0.0
 40
34.5
100
AcDbArc
 50
89.99999999999991
 51
180.0000000000002
  0
LINE
  5
1C3
330
1F
100
AcDbEntity
  8
Ｓ_１_１
  6
CONTINUOUS
 62
     3
100
AcDbLine
 10
227.4999999999408
 20
375.0304832720664
 30
0.0
 11
252.4999999999408
 21
375.0304832720662
 31
0.0
  0
ARC
  5
1C4
330
1F
100
AcDbEntity
  8
Ｓ_１_１
  6
CONTINUOUS
 62
     3
100
AcDbCircle
 10
227.4999999999407
 20
336.0304832720665
 30
0.0
 40
39.0
100
AcDbArc
 50
89.99999999999991
 51
180.0000000000002
  0
ARC
  5
1C5
330
1F
100
AcDbEntity
  8
Ｓ_１_１
  6
CONTINUOUS
 62
     3
100
AcDbCircle
 10
227.4999999999406
 20
336.0304832719663
 30
0.0
 40
30.0
100
AcDbArc
 50
89.99999999999991
 51
180.0000000000002
  0
LINE
  5
1C6
330
1F
100
AcDbEntity
  8
Ｓ_１_１
  6
CONTINUOUS
 62
     3
100
AcDbLine
 10
227.4999999999407
 20
366.0304832719662
 30
0.0
 11
252.4999999999408
 21
366.0304832719664
 31
0.0
  0
LINE
  5
1C7
330
1F
100
AcDbEntity
  8
Ｓ_１_１
  6
CONTINUOUS
 62
     3
100
AcDbLine
 10
282.4999999999406
 20
324.0304832720738
 30
0.0
 11
282.4999999999406
 21
336.0304832719663
 31
0.0
  0
LINE
  5
1C8
330
1F
100
AcDbEntity
  8
Ｓ_１_１
  6
EXLTYPE2
 62
     1
100
AcDbLine
 10
286.9999999999413
 20
336.030483272066
 30
0.0
 11
286.9999999999413
 21
317.030483272074
 31
0.0
  0
ARC
  5
1C9
330
1F
100
AcDbEntity
  8
Ｓ_１_１
  6
CONTINUOUS
 62
     3
100
AcDbCircle
 10
252.4999999999407
 20
336.0304832719664
 30
0.0
 40
30.0
100
AcDbArc
 50
0.0
 51
89.99999999999991
  0
ARC
  5
1CA
330
1F
100
AcDbEntity
  8
Ｓ_１_１
  6
EXLTYPE2
 62
     1
100
AcDbCircle
 10
252.4999999999414
 20
336.0304832720662
 30
0.0
 40
34.5
100
AcDbArc
 50
0.0
 51
89.99999999999991
  0
ARC
  5
1CB
330
1F
100
AcDbEntity
  8
Ｓ_１_１
  6
CONTINUOUS
 62
     3
100
AcDbCircle
 10
252.4999999999406
 20
336.0304832720662
 30
0.0
 40
39.0
100
AcDbArc
 50
0.0
 51
89.99999999999991
  0
LINE
  5
1CC
330
1F
100
AcDbEntity
  8
Ｓ_１_１
  6
CONTINUOUS
 62
     3
100
AcDbLine
 10
291.4999999999406
 20
315.0304832720745
 30
0.0
 11
291.4999999999406
 21
336.0304832720662
 31
0.0
  0
LINE
  5
1CD
330
1F
100
AcDbEntity
  8
Ｓ_１_１
  6
CONTINUOUS
 62
     3
100
AcDbLine
 10
305.124534547323
 20
309.3255446739844
 30
0.0
 11
304.9174793112409
 21
310.0982853350157
 31
0.0
  0
LINE
  5
1CE
330
1F
100
AcDbEntity
  8
Ｓ_１_１
  6
CONTINUOUS
 62
     3
100
AcDbLine
 10
305.124534547323
 20
309.3255446739844
 30
0.0
 11
301.1647365726785
 21
305.3657466993398
 31
0.0
  0
LINE
  5
1CF
330
1F
100
AcDbEntity
  8
Ｓ_１_１
  6
CONTINUOUS
 62
     3
100
AcDbLine
 10
304.9174793112409
 20
310.0982853350157
 30
0.0
 11
298.8262073964888
 21
316.1895572497679
 31
0.0
  0
LINE
  5
1D0
330
1F
100
AcDbEntity
  8
Ｓ_１_１
  6
CONTINUOUS
 62
     3
100
AcDbLine
 10
305.124534547323
 20
309.3255446739844
 30
0.0
 11
298.0534667354574
 21
316.3966124858499
 31
0.0
  0
LINE
  5
1D1
330
1F
100
AcDbEntity
  8
Ｓ_１_１
  6
CONTINUOUS
 62
     3
100
AcDbLine
 10
298.0534667354574
 20
316.3966124858499
 30
0.0
 11
294.0936687608129
 21
312.4368145112054
 31
0.0
  0
LINE
  5
1D2
330
1F
100
AcDbEntity
  8
Ｓ_１_１
  6
CONTINUOUS
 62
     3
100
AcDbLine
 10
298.0534667354574
 20
316.3966124858499
 30
0.0
 11
298.8262073964888
 21
316.1895572497679
 31
0.0
  0
LINE
  5
1D3
330
1F
100
AcDbEntity
  8
Ｓ_１_１
  6
CONTINUOUS
 62
     3
100
AcDbLine
 10
279.9515331370741
 20
326.5789501349467
 30
0.0
 11
302.5789501350458
 21
303.9515331369774
 31
0.0
  0
LINE
  5
1D4
330
1F
100
AcDbEntity
  8
Ｓ_１_１
  6
CONTINUOUS
 62
     3
100
AcDbLine
 10
301.8718433538587
 20
304.6586399181633
 30
0.0
 11
298.6898628385212
 21
301.4766594028256
 31
0.0
  0
LINE
  5
1D5
330
1F
100
AcDbEntity
  8
Ｓ_１_１
  6
CONTINUOUS
 62
     3
100
AcDbLine
 10
302.5789501351319
 20
303.9515331370554
 30
0.0
 11
299.3969696197933
 21
300.7695526217161
 31
0.0
  0
LINE
  5
1D6
330
1F
100
AcDbEntity
  8
Ｓ_１_１
  6
CONTINUOUS
 62
     3
100
AcDbLine
 10
279.9515331370741
 20
326.578950134944
 30
0.0
 11
276.7695526217402
 21
323.396969619614
 31
0.0
  0
LINE
  5
1D7
330
1F
100
AcDbEntity
  8
Ｓ_１_１
  6
CONTINUOUS
 62
     3
100
AcDbLine
 10
280.6586399182602
 20
325.871843353757
 30
0.0
 11
277.4766594029263
 21
322.689862838427
 31
0.0
  0
LINE
  5
1D8
330
1F
100
AcDbEntity
  8
Ｓ_１_１
  6
CONTINUOUS
 62
     3
100
AcDbLine
 10
299.8306012451764
 20
300.3359209961761
 30
0.0
 11
276.3359209962397
 21
323.8306012451153
 31
0.0
  0
LINE
  5
1D9
330
1F
100
AcDbEntity
  8
Ｓ_１_１
  6
CONTINUOUS
 62
     3
100
AcDbLine
 10
197.4999999999407
 20
336.0304832719664
 30
0.0
 11
197.4999999999407
 21
324.0304832720734
 31
0.0
  0
LINE
  5
1DA
330
1F
100
AcDbEntity
  8
Ｓ_１_１
  6
CONTINUOUS
 62
     3
100
AcDbLine
 10
188.4999999999407
 20
336.0304832720665
 30
0.0
 11
188.4999999999407
 21
315.0304832720744
 31
0.0
  0
LINE
  5
1DB
330
1F
100
AcDbEntity
  8
Ｓ_１_１
  6
EXLTYPE2
 62
     1
100
AcDbLine
 10
192.9999999999407
 20
336.0304832720664
 30
0.0
 11
192.9999999999406
 21
317.0304832720744
 31
0.0
  0
LINE
  5
1DC
330
1F
100
AcDbEntity
  8
Ｓ_１_１
  6
CONTINUOUS
 62
     3
100
AcDbLine
 10
200.0484668628261
 20
326.5789501349469
 30
0.0
 11
177.4210498648545
 21
303.9515331369775
 31
0.0
  0
LINE
  5
1DD
330
1F
100
AcDbEntity
  8
Ｓ_１_１
  6
CONTINUOUS
 62
     3
100
AcDbLine
 10
199.3413600816435
 20
325.8718433537577
 30
0.0
 11
202.5233405969735
 21
322.6898628384277
 31
0.0
  0
LINE
  5
1DE
330
1F
100
AcDbEntity
  8
Ｓ_１_１
  6
CONTINUOUS
 62
     3
100
AcDbLine
 10
203.2304473781601
 20
323.3969696196143
 30
0.0
 11
200.0484668628301
 21
326.5789501349443
 31
0.0
  0
LINE
  5
1DF
330
1F
100
AcDbEntity
  8
Ｓ_１_１
  6
CONTINUOUS
 62
     3
100
AcDbLine
 10
203.6640790036945
 20
323.8306012450061
 30
0.0
 11
180.1693987547551
 21
300.3359209960697
 31
0.0
  0
LINE
  5
1E0
330
1F
100
AcDbEntity
  8
Ｓ_１_１
  6
CONTINUOUS
 62
     3
100
AcDbLine
 10
181.9465332644507
 20
316.3966124858553
 30
0.0
 11
181.1737926034192
 21
316.1895572497733
 31
0.0
  0
LINE
  5
1E1
330
1F
100
AcDbEntity
  8
Ｓ_１_１
  6
CONTINUOUS
 62
     3
100
AcDbLine
 10
181.9465332644507
 20
316.3966124858553
 30
0.0
 11
185.9063312390952
 21
312.4368145112108
 31
0.0
  0
LINE
  5
1E2
330
1F
100
AcDbEntity
  8
Ｓ_１_１
  6
CONTINUOUS
 62
     3
100
AcDbLine
 10
181.1737926034192
 20
316.1895572497733
 30
0.0
 11
175.082520688667
 21
310.0982853350212
 31
0.0
  0
LINE
  5
1E3
330
1F
100
AcDbEntity
  8
Ｓ_１_１
  6
CONTINUOUS
 62
     3
100
AcDbLine
 10
181.9465332644507
 20
316.3966124858553
 30
0.0
 11
174.8754654525852
 21
309.3255446739898
 31
0.0
  0
LINE
  5
1E4
330
1F
100
AcDbEntity
  8
Ｓ_１_１
  6
CONTINUOUS
 62
     3
100
AcDbLine
 10
174.8754654525852
 20
309.3255446739898
 30
0.0
 11
178.8352634272296
 21
305.3657466993453
 31
0.0
  0
LINE
  5
1E5
330
1F
100
AcDbEntity
  8
Ｓ_１_１
  6
CONTINUOUS
 62
     3
100
AcDbLine
 10
174.8754654525852
 20
309.3255446739898
 30
0.0
 11
175.082520688667
 21
310.0982853350212
 31
0.0
  0
LINE
  5
1E6
330
1F
100
AcDbEntity
  8
Ｓ_１_１
  6
CONTINUOUS
 62
     3
100
AcDbLine
 10
177.4210498648551
 20
303.9515331369769
 30
0.0
 11
180.6030303801925
 21
300.7695526216391
 31
0.0
  0
LINE
  5
1E7
330
1F
100
AcDbEntity
  8
Ｓ_１_１
  6
CONTINUOUS
 62
     3
100
AcDbLine
 10
178.1281566460416
 20
304.6586399181635
 30
0.0
 11
181.310137161379
 21
301.4766594028256
 31
0.0
  0
ARC
  5
1E8
330
1F
100
AcDbEntity
  8
Ｓ_１_１
  6
CONTINUOUS
 62
     3
100
AcDbCircle
 10
240.0000000000013
 20
264.0000000000143
 30
0.0
 40
70.00000000000003
100
AcDbArc
 50
58.72913267548851
 51
121.2708673247231
  0
ARC
  5
1E9
330
1F
100
AcDbEntity
  8
Ｓ_１_１
  6
CONTINUOUS
 62
     3
100
AcDbCircle
 10
240.0000000000013
 20
264.0000000000143
 30
0.0
 40
70.00000000000003
100
AcDbArc
 50
148.7291326755825
 51
31.27086732454354
  0
ARC
  5
1EA
330
1F
100
AcDbEntity
  8
Ｓ_１_１
  6
CONTINUOUS
 62
     3
100
AcDbCircle
 10
296.1487684849059
 20
296.4175065994373
 30
0.0
 40
10.46498680114746
100
AcDbArc
 50
8.9855776422157
 51
51.01442235778438
  0
LINE
  5
1EB
330
1F
100
AcDbEntity
  8
Ｓ_１_１
  6
CONTINUOUS
 62
     3
100
AcDbLine
 10
304.3745532649108
 20
292.5000030306368
 30
0.0
 11
308.3617131860124
 21
294.8019908843868
 31
0.0
  0
LINE
  5
1EC
330
1F
100
AcDbEntity
  8
Ｓ_１_１
  6
CONTINUOUS
 62
     3
100
AcDbLine
 10
302.498165764911
 20
295.7500015153239
 30
0.0
 11
306.4853256860124
 21
298.0519893690739
 31
0.0
  0
LINE
  5
1ED
330
1F
100
AcDbEntity
  8
Ｓ_１_１
  6
CONTINUOUS
 62
     3
100
AcDbLine
 10
308.3617131860124
 20
294.8019908843868
 30
0.0
 11
308.3617129049685
 21
296.1940399561688
 31
0.0
  0
ARC
  5
1EE
330
1F
100
AcDbEntity
  8
Ｓ_１_１
  6
CONTINUOUS
 62
     3
100
AcDbCircle
 10
304.6089371780862
 20
294.8019903024605
 30
0.0
 40
3.752776145935058
100
AcDbArc
 50
0.0000088846063757
 51
59.9999911153937
  0
ARC
  5
1EF
330
1F
100
AcDbEntity
  8
Ｓ_１_１
  6
CONTINUOUS
 62
     3
100
AcDbCircle
 10
298.9797746780864
 20
304.5519857565216
 30
0.0
 40
3.752776145935058
100
AcDbArc
 50
0.0000088846063757
 51
30.02693905820388
  0
ARC
  5
1F0
330
1F
100
AcDbEntity
  8
Ｓ_１_１
  6
CONTINUOUS
 62
     3
100
AcDbCircle
 10
298.9797746780864
 20
304.5519857565216
 30
0.0
 40
3.752776145935058
100
AcDbArc
 50
59.9999884324291
 51
59.9999911153937
  0
LINE
  5
1F1
330
1F
100
AcDbEntity
  8
Ｓ_１_１
  6
CONTINUOUS
 62
     3
100
AcDbLine
 10
308.3617129049685
 20
296.1940399561688
 30
0.0
 11
302.3703590728534
 21
306.5713691995147
 31
0.0
  0
LINE
  5
1F2
330
1F
100
AcDbEntity
  8
Ｓ_１_１
  6
CONTINUOUS
 62
     3
100
AcDbLine
 10
300.8561631860125
 20
307.8019848231351
 30
0.0
 11
300.8561633381989
 21
307.8019847352701
 31
0.0
  0
LINE
  5
1F3
330
1F
100
AcDbEntity
  8
Ｓ_１_１
  6
CONTINUOUS
 62
     3
100
AcDbLine
 10
302.2544997627862
 20
304.275983509237
 30
0.0
 11
302.7325506860125
 21
304.551986338448
 31
0.0
  0
LINE
  5
1F4
330
1F
100
AcDbEntity
  8
Ｓ_１_１
  6
CONTINUOUS
 62
     3
100
AcDbLine
 10
299.5257659731448
 20
300.8983489750675
 30
0.0
 11
304.3745532649098
 21
292.5000030306361
 31
0.0
  0
ARC
  5
1F5
330
1F
100
AcDbEntity
  8
Ｓ_１_１
  6
CONTINUOUS
 62
     3
100
AcDbCircle
 10
321.7295169848062
 20
254.9067262066129
 30
0.0
 40
5.367246000000002
100
AcDbArc
 50
145.615851
 51
214.3841430000001
  0
ARC
  5
1F6
330
1F
100
AcDbEntity
  8
Ｓ_１_１
  6
CONTINUOUS
 62
     3
100
AcDbCircle
 10
336.4244658616416
 20
264.0000204177225
 30
0.0
 40
20.062197
100
AcDbArc
 50
162.4121270000001
 51
197.588011
  0
ARC
  5
1F7
330
1F
100
AcDbEntity
  8
Ｓ_１_１
  6
CONTINUOUS
 62
     3
100
AcDbCircle
 10
319.9950201130015
 20
254.9067269137196
 30
0.0
 40
5.367246000000002
100
AcDbArc
 50
325.6159210000001
 51
34.38420600000032
  0
ARC
  5
1F8
330
1F
100
AcDbEntity
  8
Ｓ_１_１
  6
CONTINUOUS
 62
     3
100
AcDbCircle
 10
319.9950186987878
 20
273.0932771521726
 30
0.0
 40
5.367246000000002
100
AcDbArc
 50
325.61584
 51
34.38412400000001
  0
ARC
  5
1F9
330
1F
100
AcDbEntity
  8
Ｓ_１_１
  6
CONTINUOUS
 62
     3
100
AcDbCircle
 10
305.3000733574863
 20
264.0000190035089
 30
0.0
 40
20.062197
100
AcDbArc
 50
342.4120460000004
 51
17.5879310000003
  0
ARC
  5
1FA
330
1F
100
AcDbEntity
  8
Ｓ_１_１
  6
CONTINUOUS
 62
     3
100
AcDbCircle
 10
321.7295183990198
 20
273.0932806877066
 30
0.0
 40
5.367246000000002
100
AcDbArc
 50
145.6159330000001
 51
214.3842240000001
  0
LINE
  5
1FB
330
1F
100
AcDbEntity
  8
Ｓ_１_１
  6
CONTINUOUS
 62
     3
100
AcDbLine
 10
332.8622726158446
 20
256.8201189727374
 30
0.0
 11
326.7245369647775
 21
256.4365100084098
 31
0.0
  0
LINE
  5
1FC
330
1F
100
AcDbEntity
  8
Ｓ_１_１
  6
CONTINUOUS
 62
     3
100
AcDbLine
 10
325.362268880764
 20
255.6500092778316
 30
0.0
 11
326.724538378991
 21
256.436515665264
 31
0.0
  0
LINE
  5
1FD
330
1F
100
AcDbEntity
  8
Ｓ_１_１
  6
CONTINUOUS
 62
     3
100
AcDbLine
 10
332.8622754442717
 20
256.1187553128276
 30
0.0
 11
325.3622512030944
 21
255.6500043280843
 31
0.0
  0
LINE
  5
1FE
330
1F
100
AcDbEntity
  8
Ｓ_１_１
  6
CONTINUOUS
 62
     3
100
AcDbLine
 10
326.7245397932046
 20
271.5634912290553
 30
0.0
 11
325.3622639310164
 21
272.3500011520217
 31
0.0
  0
LINE
  5
1FF
330
1F
100
AcDbEntity
  8
Ｓ_１_１
  6
CONTINUOUS
 62
     3
100
AcDbLine
 10
332.8622726158446
 20
271.8812558241324
 30
0.0
 11
325.3622660523367
 21
272.3500061017691
 31
0.0
  0
LINE
  5
200
330
1F
100
AcDbEntity
  8
Ｓ_１_１
  6
CONTINUOUS
 62
     3
100
AcDbLine
 10
332.8622690803106
 20
271.1798858002616
 30
0.0
 11
326.7245412074182
 21
271.5634940574824
 31
0.0
  0
LINE
  5
201
330
1F
100
AcDbEntity
  8
Ｓ_１_１
  6
CONTINUOUS
 62
     3
100
AcDbLine
 10
326.7245355505639
 20
255.7351392774323
 30
0.0
 11
326.7245355505639
 21
272.2648591316058
 31
0.0
  0
LINE
  5
202
330
1F
100
AcDbEntity
  8
Ｓ_１_１
  6
CONTINUOUS
 62
     3
100
AcDbLine
 10
314.999997304603
 20
271.5634919361621
 30
0.0
 11
316.3622731667912
 21
272.3500018591285
 31
0.0
  0
LINE
  5
203
330
1F
100
AcDbEntity
  8
Ｓ_１_１
  6
CONTINUOUS
 62
     3
100
AcDbLine
 10
316.3622767023251
 20
255.6500071565114
 30
0.0
 11
315.0000079112048
 21
256.4365142510504
 31
0.0
  0
LINE
  5
204
330
1F
100
AcDbEntity
  8
Ｓ_１_１
  6
CONTINUOUS
 62
     3
100
AcDbLine
 10
315.0000022543504
 20
255.7351392774323
 30
0.0
 11
315.0000029614572
 21
272.2648598387126
 31
0.0
  0
LINE
  5
205
330
1F
100
AcDbEntity
  8
Ｓ_１_１
  6
CONTINUOUS
 62
     3
100
AcDbLine
 10
316.3622710454708
 20
253.4999952481983
 30
0.0
 11
317.3000933343297
 21
251.875634500204
 31
0.0
  0
LINE
  5
206
330
1F
100
AcDbEntity
  8
Ｓ_１_１
  6
CONTINUOUS
 62
     3
100
AcDbLine
 10
325.3622759518317
 20
253.4999931268779
 30
0.0
 11
324.4244522487593
 21
251.8756295504566
 31
0.0
  0
LINE
  5
207
330
1F
100
AcDbEntity
  8
Ｓ_１_１
  6
CONTINUOUS
 62
     3
100
AcDbLine
 10
316.3622717525776
 20
274.5000180100823
 30
0.0
 11
317.3000933343296
 21
276.1243780509698
 31
0.0
  0
LINE
  5
208
330
1F
100
AcDbEntity
  8
Ｓ_１_１
  6
CONTINUOUS
 62
     3
100
AcDbLine
 10
325.3622646381233
 20
274.5000137674416
 30
0.0
 11
324.4244437634779
 21
276.1243745154358
 31
0.0
  0
LINE
  5
209
330
1F
100
AcDbEntity
  8
Ｓ_１_１
  6
CONTINUOUS
 62
     3
100
AcDbLine
 10
324.4244487132254
 20
276.1243794651833
 30
0.0
 11
317.300089091689
 21
276.1243794651832
 31
0.0
  0
LINE
  5
20A
330
1F
100
AcDbEntity
  8
Ｓ_１_１
  6
CONTINUOUS
 62
     3
100
AcDbLine
 10
324.4244635624677
 20
251.8756578347278
 30
0.0
 11
317.3000742424466
 21
251.8756578347278
 31
0.0
  0
LINE
  5
20B
330
1F
100
AcDbEntity
  8
Ｓ_１_１
  6
CONTINUOUS
 62
     3
100
AcDbLine
 10
324.4244487132254
 20
257.9378405404386
 30
0.0
 11
317.3000897987957
 21
257.9378412475454
 31
0.0
  0
LINE
  5
20C
330
1F
100
AcDbEntity
  8
Ｓ_１_１
  6
CONTINUOUS
 62
     3
100
AcDbLine
 10
324.4244480061186
 20
270.0621925168317
 30
0.0
 11
317.3000897987957
 21
270.0621925168317
 31
0.0
  0
LINE
  5
20D
330
1F
100
AcDbEntity
  8
Ｓ_１_１
  6
CONTINUOUS
 62
     3
100
AcDbLine
 10
325.362268880764
 20
253.4999860558102
 30
0.0
 11
325.362268880764
 21
274.500012353228
 31
0.0
  0
LINE
  5
20E
330
1F
100
AcDbEntity
  8
Ｓ_１_１
  6
CONTINUOUS
 62
     3
100
AcDbLine
 10
316.3622696312573
 20
253.4999938339847
 30
0.0
 11
316.3622689241505
 21
274.5000208385094
 31
0.0
  0
LINE
  5
20F
330
1F
100
AcDbEntity
  8
Ｓ_１_１
  6
CONTINUOUS
 62
     3
100
AcDbLine
 10
333.9341210803077
 20
277.8563707400518
 30
0.0
 11
332.8623440803082
 21
275.9999987400516
 31
0.0
  0
LINE
  5
210
330
1F
100
AcDbEntity
  8
Ｓ_１_１
  6
CONTINUOUS
 62
     3
100
AcDbLine
 10
332.8622690803077
 20
276.0000027400516
 30
0.0
 11
332.8622690803077
 21
252.0000327400522
 31
0.0
  0
ARC
  5
211
330
1F
100
AcDbEntity
  8
Ｓ_１_１
  6
CONTINUOUS
 62
     3
100
AcDbCircle
 10
338.9960580803076
 20
253.6076987400521
 30
0.0
 40
6.133925000000002
100
AcDbArc
 50
145.615416
 51
214.3845739999998
  0
ARC
  5
212
330
1F
100
AcDbEntity
  8
Ｓ_１_１
  6
CONTINUOUS
 62
     3
100
AcDbCircle
 10
355.7901250803079
 20
264.0000027400521
 30
0.0
 40
22.927942
100
AcDbArc
 50
162.4118210000001
 51
197.5881150000001
  0
ARC
  5
213
330
1F
100
AcDbEntity
  8
Ｓ_１_１
  6
CONTINUOUS
 62
     3
100
AcDbCircle
 10
338.9960580803078
 20
274.3923367400517
 30
0.0
 40
6.133925000000002
100
AcDbArc
 50
145.6154019999991
 51
214.3845609999998
  0
LINE
  5
214
330
1F
100
AcDbEntity
  8
Ｓ_１_１
  6
CONTINUOUS
 62
     3
100
AcDbLine
 10
332.862302080308
 20
252.0000337400521
 30
0.0
 11
333.934079080308
 21
250.143660740052
 31
0.0
  0
LINE
  5
215
330
1F
100
AcDbEntity
  8
Ｓ_１_１
  6
CONTINUOUS
 62
     3
100
AcDbLine
 10
309.55002954616
 20
271.9242280462313
 30
0.0
 11
316.3622710454708
 21
272.3499926667403
 31
0.0
  0
LINE
  5
216
330
1F
100
AcDbEntity
  8
Ｓ_１_１
  6
CONTINUOUS
 62
     3
100
AcDbLine
 10
309.6258696618833
 20
271.227604985528
 30
0.0
 11
314.9999951832826
 21
271.5634884006282
 31
0.0
  0
LINE
  5
217
330
1F
100
AcDbEntity
  8
Ｓ_１_１
  6
CONTINUOUS
 62
     3
100
AcDbLine
 10
309.6258696540388
 20
256.7723949389321
 30
0.0
 11
315.0000029614573
 21
256.4365121297302
 31
0.0
  0
LINE
  5
218
330
1F
100
AcDbEntity
  8
Ｓ_１_１
  6
CONTINUOUS
 62
     3
100
AcDbLine
 10
309.5500295475744
 20
256.0757719662109
 30
0.0
 11
316.3622710454708
 21
255.6500071565113
 31
0.0
  0
LINE
  5
219
330
1F
100
AcDbEntity
  8
Ｓ_１_１
  6
CONTINUOUS
 62
     3
100
AcDbLine
 10
367.8622685973155
 20
277.0000053486759
 30
0.0
 11
360.9396154277533
 21
277.0000053486759
 31
0.0
  0
LINE
  5
21A
330
1F
100
AcDbEntity
  8
Ｓ_１_１
  6
CONTINUOUS
 62
     3
100
AcDbLine
 10
367.8622685973155
 20
251.0000015456438
 30
0.0
 11
360.9396154277533
 21
251.000001545644
 31
0.0
  0
LINE
  5
21B
330
1F
100
AcDbEntity
  8
Ｓ_１_１
  6
CONTINUOUS
 62
     3
100
AcDbLine
 10
395.3622693289872
 20
276.0000050392269
 30
0.0
 11
394.8622691742626
 21
276.0000057463337
 31
0.0
  0
LINE
  5
21C
330
1F
100
AcDbEntity
  8
Ｓ_１_１
  6
CONTINUOUS
 62
     3
100
AcDbLine
 10
391.8622689530225
 20
248.0000020315106
 30
0.0
 11
384.3622694605825
 21
248.0000013244038
 31
0.0
  0
LINE
  5
21D
330
1F
100
AcDbEntity
  8
Ｓ_１_１
  6
CONTINUOUS
 62
     3
100
AcDbLine
 10
391.8622689530225
 20
280.0000048628093
 30
0.0
 11
384.3622687534757
 21
280.0000048628092
 31
0.0
  0
LINE
  5
21E
330
1F
100
AcDbEntity
  8
Ｓ_１_１
  6
CONTINUOUS
 62
     3
100
AcDbLine
 10
394.8622684671558
 20
251.0000015456438
 30
0.0
 11
394.8622684671559
 21
277.0000053486759
 31
0.0
  0
LINE
  5
21F
330
1F
100
AcDbEntity
  8
Ｓ_１_１
  6
CONTINUOUS
 62
     3
100
AcDbLine
 10
360.3622691048755
 20
276.0000057463337
 30
0.0
 11
345.3622694128887
 21
276.0000050392269
 31
0.0
  0
LINE
  5
220
330
1F
100
AcDbEntity
  8
Ｓ_１_１
  6
CONTINUOUS
 62
     3
100
AcDbLine
 10
360.3622691048755
 20
252.000001147986
 30
0.0
 11
345.3622687057818
 21
252.000001147986
 31
0.0
  0
LINE
  5
221
330
1F
100
AcDbEntity
  8
Ｓ_１_１
  6
CONTINUOUS
 62
     3
100
AcDbLine
 10
394.8622847306118
 20
250.9999937674693
 30
0.0
 11
391.8622922875463
 21
248.0000013244038
 31
0.0
  0
LINE
  5
222
330
1F
100
AcDbEntity
  8
Ｓ_１_１
  6
CONTINUOUS
 62
     3
100
AcDbLine
 10
394.8622783666508
 20
277.0000067628895
 30
0.0
 11
391.8622809738379
 21
280.0000041557024
 31
0.0
  0
LINE
  5
223
330
1F
100
AcDbEntity
  8
Ｓ_１_１
  6
CONTINUOUS
 62
     3
100
AcDbLine
 10
383.862269305858
 20
248.5000014791283
 30
0.0
 11
375.8622696586935
 21
248.5000014791283
 31
0.0
  0
LINE
  5
224
330
1F
100
AcDbEntity
  8
Ｓ_１_１
  6
CONTINUOUS
 62
     3
100
AcDbLine
 10
383.862269305858
 20
279.5000054151915
 30
0.0
 11
375.8622689515868
 21
279.5000047080848
 31
0.0
  0
LINE
  5
225
330
1F
100
AcDbEntity
  8
Ｓ_１_１
  6
CONTINUOUS
 62
     3
100
AcDbLine
 10
383.862269305858
 20
248.5000014791283
 30
0.0
 11
383.862269305858
 21
279.5000054151915
 31
0.0
  0
LINE
  5
226
330
1F
100
AcDbEntity
  8
Ｓ_１_１
  6
CONTINUOUS
 62
     3
100
AcDbLine
 10
375.3622737466097
 20
248.0000027386174
 30
0.0
 11
375.8622739013342
 21
248.5000028933418
 31
0.0
  0
LINE
  5
227
330
1F
100
AcDbEntity
  8
Ｓ_１_１
  6
CONTINUOUS
 62
     3
100
AcDbLine
 10
383.8622770840327
 20
279.4999990512306
 30
0.0
 11
384.362277945864
 21
279.9999999130617
 31
0.0
  0
LINE
  5
228
330
1F
100
AcDbEntity
  8
Ｓ_１_１
  6
CONTINUOUS
 62
     3
100
AcDbLine
 10
375.8622739013342
 20
279.500004000978
 30
0.0
 11
375.362273039503
 21
280.0000048628092
 31
0.0
  0
LINE
  5
229
330
1F
100
AcDbEntity
  8
Ｓ_１_１
  6
CONTINUOUS
 62
     3
100
AcDbLine
 10
384.3622722890096
 20
248.0000027386174
 30
0.0
 11
383.8622714271784
 21
248.5000036004486
 31
0.0
  0
LINE
  5
22A
330
1F
100
AcDbEntity
  8
Ｓ_１_１
  6
CONTINUOUS
 62
     3
100
AcDbLine
 10
375.3622695039691
 20
248.0000013244038
 30
0.0
 11
368.36226875204
 21
248.0000013244038
 31
0.0
  0
LINE
  5
22B
330
1F
100
AcDbEntity
  8
Ｓ_１_１
  6
CONTINUOUS
 62
     3
100
AcDbLine
 10
375.3622687968623
 20
280.0000048628092
 30
0.0
 11
368.36226875204
 21
280.000005569916
 31
0.0
  0
LINE
  5
22C
330
1F
100
AcDbEntity
  8
Ｓ_１_１
  6
CONTINUOUS
 62
     3
100
AcDbLine
 10
368.3622708733603
 20
248.0000091025784
 30
0.0
 11
367.8622756683833
 21
248.5000043075554
 31
0.0
  0
LINE
  5
22D
330
1F
100
AcDbEntity
  8
Ｓ_１_１
  6
CONTINUOUS
 62
     3
100
AcDbLine
 10
367.8622749612766
 20
279.5000061222984
 30
0.0
 11
368.362275116001
 21
280.0000062770227
 31
0.0
  0
LINE
  5
22E
330
1F
100
AcDbEntity
  8
Ｓ_１_１
  6
CONTINUOUS
 62
     3
100
AcDbLine
 10
384.3622694605825
 20
248.0000013244038
 30
0.0
 11
384.3622687534757
 21
280.0000048628092
 31
0.0
  0
LINE
  5
22F
330
1F
100
AcDbEntity
  8
Ｓ_１_１
  6
CONTINUOUS
 62
     3
100
AcDbLine
 10
391.8622689530225
 20
248.0000020315106
 30
0.0
 11
391.8622689530225
 21
280.0000048628093
 31
0.0
  0
LINE
  5
230
330
1F
100
AcDbEntity
  8
Ｓ_１_１
  6
CONTINUOUS
 62
     3
100
AcDbLine
 10
366.3622688402488
 20
279.5000054151915
 30
0.0
 11
365.3622685307998
 21
279.5000054151916
 31
0.0
  0
LINE
  5
231
330
1F
100
AcDbEntity
  8
Ｓ_１_１
  6
CONTINUOUS
 62
     3
100
AcDbLine
 10
366.3622688402488
 20
248.5000014791283
 30
0.0
 11
365.3622685308
 21
248.5000014791283
 31
0.0
  0
LINE
  5
232
330
1F
100
AcDbEntity
  8
Ｓ_１_１
  6
CONTINUOUS
 62
     3
100
AcDbLine
 10
364.8622690831822
 20
249.000000926746
 30
0.0
 11
364.8622690831822
 21
251.000001545644
 31
0.0
  0
LINE
  5
233
330
1F
100
AcDbEntity
  8
Ｓ_１_１
  6
CONTINUOUS
 62
     3
100
AcDbLine
 10
366.8622689949734
 20
249.0000016338528
 30
0.0
 11
366.8622689949733
 21
251.0000008385371
 31
0.0
  0
LINE
  5
234
330
1F
100
AcDbEntity
  8
Ｓ_１_１
  6
CONTINUOUS
 62
     3
100
AcDbLine
 10
366.8622689949734
 20
277.0000046415691
 30
0.0
 11
366.8622689949733
 21
279.000005260467
 31
0.0
  0
LINE
  5
235
330
1F
100
AcDbEntity
  8
Ｓ_１_１
  6
CONTINUOUS
 62
     3
100
AcDbLine
 10
364.8622690831822
 20
277.0000053486759
 30
0.0
 11
364.8622683760755
 21
279.0000052604671
 31
0.0
  0
LINE
  5
236
330
1F
100
AcDbEntity
  8
Ｓ_１_１
  6
CONTINUOUS
 62
     3
100
AcDbLine
 10
366.8622590954784
 20
278.9999981893992
 30
0.0
 11
366.3622589407539
 21
279.4999983441237
 31
0.0
  0
LINE
  5
237
330
1F
100
AcDbEntity
  8
Ｓ_１_１
  6
CONTINUOUS
 62
     3
100
AcDbLine
 10
364.8622676689687
 20
279.000008796001
 30
0.0
 11
365.3622579241982
 21
279.4999990512306
 31
0.0
  0
LINE
  5
238
330
1F
100
AcDbEntity
  8
Ｓ_１_１
  6
CONTINUOUS
 62
     3
100
AcDbLine
 10
366.3622645976081
 20
248.5000028933418
 30
0.0
 11
366.8622647523327
 21
249.0000030480663
 31
0.0
  0
LINE
  5
239
330
1F
100
AcDbEntity
  8
Ｓ_１_１
  6
CONTINUOUS
 62
     3
100
AcDbLine
 10
365.3622628739457
 20
248.5000028933418
 30
0.0
 11
364.8622627192212
 21
249.0000030480663
 31
0.0
  0
LINE
  5
23A
330
1F
100
AcDbEntity
  8
Ｓ_１_１
  6
CONTINUOUS
 62
     3
100
AcDbLine
 10
344.7849230900108
 20
251.0000022527506
 30
0.0
 11
345.3622694128886
 21
251.9999961982386
 31
0.0
  0
LINE
  5
23B
330
1F
100
AcDbEntity
  8
Ｓ_１_１
  6
CONTINUOUS
 62
     3
100
AcDbLine
 10
360.3622705190891
 20
276.0000015036931
 30
0.0
 11
360.9396168419669
 21
276.999995449181
 31
0.0
  0
LINE
  5
23C
330
1F
100
AcDbEntity
  8
Ｓ_１_１
  6
CONTINUOUS
 62
     3
100
AcDbLine
 10
345.3622609276073
 20
275.9999979681592
 30
0.0
 11
344.7849068265549
 21
277.0000053486759
 31
0.0
  0
LINE
  5
23D
330
1F
100
AcDbEntity
  8
Ｓ_１_１
  6
CONTINUOUS
 62
     3
100
AcDbLine
 10
360.9396168419669
 20
251.000001545644
 30
0.0
 11
360.3622620338077
 21
252.0000082190539
 31
0.0
  0
LINE
  5
23E
330
1F
100
AcDbEntity
  8
Ｓ_１_１
  6
CONTINUOUS
 62
     3
100
AcDbLine
 10
395.3622684671574
 20
276.0000034471642
 30
0.0
 11
395.3622684671572
 21
252.0000034471644
 31
0.0
  0
LINE
  5
23F
330
1F
100
AcDbEntity
  8
Ｓ_１_１
  6
CONTINUOUS
 62
     3
100
AcDbLine
 10
394.8622757866019
 20
252.0000033428561
 30
0.0
 11
395.3622693492999
 21
252.0000033428558
 31
0.0
  0
LINE
  5
240
330
1F
100
AcDbEntity
  8
Ｓ_１_１
  6
CONTINUOUS
 62
     3
100
AcDbLine
 10
376.8620250803078
 20
258.5000027400521
 30
0.0
 11
367.8622690803077
 21
258.5000027400521
 31
0.0
  0
LINE
  5
241
330
1F
100
AcDbEntity
  8
Ｓ_１_１
  6
CONTINUOUS
 62
     3
100
AcDbLine
 10
367.8620560803079
 20
258.5001527400519
 30
0.0
 11
364.3620840803078
 21
255.0001817400522
 31
0.0
  0
LINE
  5
242
330
1F
100
AcDbEntity
  8
Ｓ_１_１
  6
CONTINUOUS
 62
     3
100
AcDbLine
 10
364.3622560803078
 20
273.0000437400519
 30
0.0
 11
367.8622700803081
 21
269.5000297400517
 31
0.0
  0
LINE
  5
243
330
1F
100
AcDbEntity
  8
Ｓ_１_１
  6
CONTINUOUS
 62
     3
100
AcDbLine
 10
348.3622380803076
 20
275.7500777400516
 30
0.0
 11
348.8621470803078
 21
275.2501797400515
 31
0.0
  0
LINE
  5
244
330
1F
100
AcDbEntity
  8
Ｓ_１_１
  6
CONTINUOUS
 62
     3
100
AcDbLine
 10
348.862236080308
 20
252.7501067400523
 30
0.0
 11
348.362290080308
 21
252.250159740052
 31
0.0
  0
LINE
  5
245
330
1F
100
AcDbEntity
  8
Ｓ_１_１
  6
CONTINUOUS
 62
     3
100
AcDbLine
 10
360.8621470803079
 20
256.5000027400521
 30
0.0
 11
359.3620250803078
 21
256.5000027400521
 31
0.0
  0
LINE
  5
246
330
1F
100
AcDbEntity
  8
Ｓ_１_１
  6
CONTINUOUS
 62
     3
100
AcDbLine
 10
360.8621470803079
 20
271.5000027400516
 30
0.0
 11
359.3620250803079
 21
271.5000027400516
 31
0.0
  0
LINE
  5
247
330
1F
100
AcDbEntity
  8
Ｓ_１_１
  6
CONTINUOUS
 62
     3
100
AcDbLine
 10
357.8622690803078
 20
272.9999717400516
 30
0.0
 11
357.8622690803077
 21
255.0000027400521
 31
0.0
  0
LINE
  5
248
330
1F
100
AcDbEntity
  8
Ｓ_１_１
  6
CONTINUOUS
 62
     3
100
AcDbLine
 10
348.3621470803078
 20
275.7500327400518
 30
0.0
 11
348.3621470803078
 21
252.2500027400521
 31
0.0
  0
LINE
  5
249
330
1F
100
AcDbEntity
  8
Ｓ_１_１
  6
CONTINUOUS
 62
     3
100
AcDbLine
 10
359.3621430803078
 20
256.5001507400522
 30
0.0
 11
357.8621310803078
 21
255.0001377400523
 31
0.0
  0
LINE
  5
24A
330
1F
100
AcDbEntity
  8
Ｓ_１_１
  6
CONTINUOUS
 62
     3
100
AcDbLine
 10
357.862302080308
 20
273.0000007400519
 30
0.0
 11
359.3621850803079
 21
271.5001177400519
 31
0.0
  0
LINE
  5
24B
330
1F
100
AcDbEntity
  8
Ｓ_１_１
  6
CONTINUOUS
 62
     3
100
AcDbLine
 10
362.3621470803079
 20
272.9999717400516
 30
0.0
 11
362.3621470803079
 21
255.0000027400521
 31
0.0
  0
LINE
  5
24C
330
1F
100
AcDbEntity
  8
Ｓ_１_１
  6
CONTINUOUS
 62
     3
100
AcDbLine
 10
360.862154080308
 20
256.5000367400522
 30
0.0
 11
362.3620370803079
 21
255.0001537400523
 31
0.0
  0
LINE
  5
24D
330
1F
100
AcDbEntity
  8
Ｓ_１_１
  6
CONTINUOUS
 62
     3
100
AcDbLine
 10
362.362168080308
 20
273.0001147400518
 30
0.0
 11
360.8621550803077
 21
271.5001027400518
 31
0.0
  0
LINE
  5
24E
330
1F
100
AcDbEntity
  8
Ｓ_１_１
  6
CONTINUOUS
 62
     3
100
AcDbLine
 10
357.8622690803078
 20
272.9999717400516
 30
0.0
 11
348.8621470803079
 21
272.9999717400516
 31
0.0
  0
LINE
  5
24F
330
1F
100
AcDbEntity
  8
Ｓ_１_１
  6
CONTINUOUS
 62
     3
100
AcDbLine
 10
357.8622690803077
 20
255.0000027400521
 30
0.0
 11
348.8621470803078
 21
255.0000027400521
 31
0.0
  0
LINE
  5
250
330
1F
100
AcDbEntity
  8
Ｓ_１_１
  6
CONTINUOUS
 62
     3
100
AcDbLine
 10
364.3620250803078
 20
272.9999717400516
 30
0.0
 11
364.3620250803079
 21
255.0000027400521
 31
0.0
  0
LINE
  5
251
330
1F
100
AcDbEntity
  8
Ｓ_１_１
  6
CONTINUOUS
 62
     3
100
AcDbLine
 10
360.8621470803079
 20
271.5000027400516
 30
0.0
 11
360.8621470803079
 21
256.5000027400521
 31
0.0
  0
LINE
  5
252
330
1F
100
AcDbEntity
  8
Ｓ_１_１
  6
CONTINUOUS
 62
     3
100
AcDbLine
 10
359.3620250803079
 20
271.5000027400516
 30
0.0
 11
359.3620250803078
 21
256.5000027400521
 31
0.0
  0
LINE
  5
253
330
1F
100
AcDbEntity
  8
Ｓ_１_１
  6
CONTINUOUS
 62
     3
100
AcDbLine
 10
377.8623320803076
 20
267.5001707400517
 30
0.0
 11
379.8622910803078
 21
265.5002117400524
 31
0.0
  0
LINE
  5
254
330
1F
100
AcDbEntity
  8
Ｓ_１_１
  6
CONTINUOUS
 62
     3
100
AcDbLine
 10
379.8623340803078
 20
262.5001437400521
 30
0.0
 11
377.8622890803081
 21
260.5000987400523
 31
0.0
  0
LINE
  5
255
330
1F
100
AcDbEntity
  8
Ｓ_１_１
  6
CONTINUOUS
 62
     3
100
AcDbLine
 10
377.8622690803082
 20
268.5000027400516
 30
0.0
 11
377.8622690803081
 21
259.5000327400522
 31
0.0
  0
LINE
  5
256
330
1F
100
AcDbEntity
  8
Ｓ_１_１
  6
CONTINUOUS
 62
     3
100
AcDbLine
 10
339.8621470803078
 20
276.0000027400516
 30
0.0
 11
339.8621470803078
 21
252.0000327400522
 31
0.0
  0
LINE
  5
257
330
1F
100
AcDbEntity
  8
Ｓ_１_１
  6
CONTINUOUS
 62
     3
100
AcDbLine
 10
338.7903690803079
 20
277.8564017400519
 30
0.0
 11
333.9340460803079
 21
277.8564017400519
 31
0.0
  0
LINE
  5
258
330
1F
100
AcDbEntity
  8
Ｓ_１_１
  6
CONTINUOUS
 62
     3
100
AcDbLine
 10
338.7903690803079
 20
270.9281337400517
 30
0.0
 11
333.9340460803078
 21
270.9281337400517
 31
0.0
  0
LINE
  5
259
330
1F
100
AcDbEntity
  8
Ｓ_１_１
  6
CONTINUOUS
 62
     3
100
AcDbLine
 10
338.7903690803079
 20
257.0717797400522
 30
0.0
 11
333.9340460803079
 21
257.0717797400522
 31
0.0
  0
LINE
  5
25A
330
1F
100
AcDbEntity
  8
Ｓ_１_１
  6
CONTINUOUS
 62
     3
100
AcDbLine
 10
338.7903690803079
 20
250.1435877400523
 30
0.0
 11
333.9340460803078
 21
250.1435877400523
 31
0.0
  0
LINE
  5
25B
330
1F
100
AcDbEntity
  8
Ｓ_１_１
  6
CONTINUOUS
 62
     3
100
AcDbLine
 10
338.7906390803079
 20
277.8563637400517
 30
0.0
 11
339.8624160803079
 21
275.9999907400517
 31
0.0
  0
LINE
  5
25C
330
1F
100
AcDbEntity
  8
Ｓ_１_１
  6
CONTINUOUS
 62
     3
100
AcDbLine
 10
339.8623380803078
 20
252.0000757400522
 30
0.0
 11
338.7904990803078
 21
250.1435977400521
 31
0.0
  0
LINE
  5
25D
330
1F
100
AcDbEntity
  8
Ｓ_１_１
  6
CONTINUOUS
 62
     3
100
AcDbLine
 10
348.3621470803078
 20
275.7500327400518
 30
0.0
 11
339.8621470803078
 21
275.7500327400518
 31
0.0
  0
LINE
  5
25E
330
1F
100
AcDbEntity
  8
Ｓ_１_１
  6
CONTINUOUS
 62
     3
100
AcDbLine
 10
348.3621470803078
 20
252.2500027400521
 30
0.0
 11
339.8621470803078
 21
252.2500027400521
 31
0.0
  0
LINE
  5
25F
330
1F
100
AcDbEntity
  8
Ｓ_１_１
  6
CONTINUOUS
 62
     3
100
AcDbLine
 10
348.8621470803078
 20
275.2500027400516
 30
0.0
 11
348.8621470803078
 21
252.7500027400521
 31
0.0
  0
LINE
  5
260
330
1F
100
AcDbEntity
  8
Ｓ_１_１
  6
CONTINUOUS
 62
     3
100
AcDbLine
 10
364.3620250803079
 20
255.0000027400521
 30
0.0
 11
362.3621470803079
 21
255.0000027400521
 31
0.0
  0
LINE
  5
261
330
1F
100
AcDbEntity
  8
Ｓ_１_１
  6
CONTINUOUS
 62
     3
100
AcDbLine
 10
364.3620250803078
 20
272.9999717400516
 30
0.0
 11
362.3621470803079
 21
272.9999717400516
 31
0.0
  0
LINE
  5
262
330
1F
100
AcDbEntity
  8
Ｓ_１_１
  6
CONTINUOUS
 62
     3
100
AcDbLine
 10
367.8622690803077
 20
269.5000327400518
 30
0.0
 11
367.8622690803077
 21
258.5000027400521
 31
0.0
  0
LINE
  5
263
330
1F
100
AcDbEntity
  8
Ｓ_１_１
  6
CONTINUOUS
 62
     3
100
AcDbLine
 10
376.8620250803079
 20
269.5000327400518
 30
0.0
 11
367.8622690803077
 21
269.5000327400518
 31
0.0
  0
LINE
  5
264
330
1F
100
AcDbEntity
  8
Ｓ_１_１
  6
CONTINUOUS
 62
     3
100
AcDbLine
 10
379.8621470803078
 20
265.499971740052
 30
0.0
 11
379.8621470803078
 21
262.5000027400521
 31
0.0
  0
ARC
  5
265
330
1F
100
AcDbEntity
  8
Ｓ_１_１
  6
CONTINUOUS
 62
     3
100
AcDbCircle
 10
376.8620250803078
 20
259.5000327400522
 30
0.0
 40
1.0
100
AcDbArc
 50
269.9999970000025
 51
359.9999780000017
  0
ARC
  5
266
330
1F
100
AcDbEntity
  8
Ｓ_１_１
  6
CONTINUOUS
 62
     3
100
AcDbCircle
 10
333.7283580803079
 20
274.3923367400517
 30
0.0
 40
6.133925000000002
100
AcDbArc
 50
325.6153689999996
 51
34.384513999999
  0
ARC
  5
267
330
1F
100
AcDbEntity
  8
Ｓ_１_１
  6
CONTINUOUS
 62
     3
100
AcDbCircle
 10
376.8620250803079
 20
268.5000027400516
 30
0.0
 40
1.0
100
AcDbArc
 50
359.9999779999952
 51
89.99997499999768
  0
ARC
  5
268
330
1F
100
AcDbEntity
  8
Ｓ_１_１
  6
CONTINUOUS
 62
     3
100
AcDbCircle
 10
316.9340460803079
 20
264.0000027400521
 30
0.0
 40
22.927938
100
AcDbArc
 50
342.411858
 51
17.58816600000017
  0
ARC
  5
269
330
1F
100
AcDbEntity
  8
Ｓ_１_１
  6
CONTINUOUS
 62
     3
100
AcDbCircle
 10
333.7283580803079
 20
253.6076987400521
 30
0.0
 40
6.133925000000002
100
AcDbArc
 50
325.6154380000003
 51
34.38458300000026
  0
LINE
  5
26A
330
1F
100
AcDbEntity
  8
Ｓ_１_１
  6
CONTINUOUS
 62
     3
100
AcDbLine
 10
344.7849068265549
 20
277.0000053486759
 30
0.0
 11
339.2803937730264
 21
277.0000053486759
 31
0.0
  0
LINE
  5
26B
330
1F
100
AcDbEntity
  8
Ｓ_１_１
  6
CONTINUOUS
 62
     3
100
AcDbLine
 10
344.784922382904
 20
251.0000015456438
 30
0.0
 11
339.2803803468248
 21
251.0000015456438
 31
0.0
  0
LINE
  5
26C
330
1F
100
AcDbEntity
  8
Ｓ_１_１
  6
CONTINUOUS
 62
     3
100
AcDbLine
 10
344.784922382904
 20
269.0000057015114
 30
0.0
 11
344.7849205756319
 21
269.0000016192683
 31
0.0
  0
LINE
  5
26D
330
1F
100
AcDbEntity
  8
Ｓ_１_１
  6
CONTINUOUS
 62
     3
100
AcDbLine
 10
344.7849223829041
 20
275.7500327400519
 30
0.0
 11
344.7849223829041
 21
277.0000053486759
 31
0.0
  0
LINE
  5
26E
330
1F
100
AcDbEntity
  8
Ｓ_１_１
  6
CONTINUOUS
 62
     3
100
AcDbLine
 10
344.784922382904
 20
269.0000057015114
 30
0.0
 11
344.784919620144
 21
269.0000057015113
 31
0.0
  0
LINE
  5
26F
330
1F
100
AcDbEntity
  8
Ｓ_１_１
  6
CONTINUOUS
 62
     3
100
AcDbLine
 10
345.3622687057818
 20
275.7500327400518
 30
0.0
 11
345.3622687057818
 21
275.9999901899846
 31
0.0
  0
ARC
  5
270
330
1F
100
AcDbEntity
  8
Ｓ_１_１
  6
CONTINUOUS
 62
     3
100
AcDbCircle
 10
323.4228291292475
 20
264.0000027400532
 30
0.0
 40
21.93943800000001
100
AcDbArc
 50
346.8265070000003
 51
346.8265342233021
  0
LINE
  5
271
330
1F
100
AcDbEntity
  8
Ｓ_１_１
  6
CONTINUOUS
 62
     3
100
AcDbLine
 10
345.3622687057818
 20
252.000001147986
 30
0.0
 11
345.3622687057818
 21
252.2500027400521
 31
0.0
  0
LINE
  5
272
330
1F
100
AcDbEntity
  8
Ｓ_１_１
  6
CONTINUOUS
 62
     3
100
AcDbLine
 10
344.7849223829041
 20
259.0000054354491
 30
0.0
 11
344.7849209441844
 21
259.0000054354491
 31
0.0
  0
LINE
  5
273
330
1F
100
AcDbEntity
  8
Ｓ_１_１
  6
CONTINUOUS
 62
     3
100
AcDbLine
 10
344.784922382904
 20
251.0000015456438
 30
0.0
 11
344.784922382904
 21
252.2500027400522
 31
0.0
  0
LINE
  5
274
330
1F
100
AcDbEntity
  8
Ｓ_１_１
  6
CONTINUOUS
 62
     3
100
AcDbLine
 10
344.784918568502
 20
258.9999952855454
 30
0.0
 11
344.7849223829041
 21
259.0000054354491
 31
0.0
  0
LINE
  5
275
330
1F
100
AcDbEntity
  8
Ｓ_１_１
  6
CONTINUOUS
 62
     3
100
AcDbLine
 10
360.3622691048755
 20
252.000001147986
 30
0.0
 11
360.3622691048755
 21
256.5000027400521
 31
0.0
  0
LINE
  5
276
330
1F
100
AcDbEntity
  8
Ｓ_１_１
  6
CONTINUOUS
 62
     3
100
AcDbLine
 10
360.3622691048755
 20
271.5000027400516
 30
0.0
 11
360.3622691048755
 21
276.0000057463337
 31
0.0
  0
LINE
  5
277
330
1F
100
AcDbEntity
  8
Ｓ_１_１
  6
CONTINUOUS
 62
     3
100
AcDbLine
 10
360.9396154277533
 20
271.5775630358577
 30
0.0
 11
360.9396154277533
 21
277.0000053486759
 31
0.0
  0
LINE
  5
278
330
1F
100
AcDbEntity
  8
Ｓ_１_１
  6
CONTINUOUS
 62
     3
100
AcDbLine
 10
360.9396154277533
 20
251.000001545644
 30
0.0
 11
360.9396154277533
 21
256.4225753926069
 31
0.0
  0
LINE
  5
279
330
1F
100
AcDbEntity
  8
Ｓ_１_１
  6
CONTINUOUS
 62
     3
100
AcDbLine
 10
368.36226875204
 20
269.5000327400518
 30
0.0
 11
368.36226875204
 21
280.000005569916
 31
0.0
  0
LINE
  5
27A
330
1F
100
AcDbEntity
  8
Ｓ_１_１
  6
CONTINUOUS
 62
     3
100
AcDbLine
 10
368.36226875204
 20
248.0000013244038
 30
0.0
 11
368.362269273066
 21
258.5000031618229
 31
0.0
  0
LINE
  5
27B
330
1F
100
AcDbEntity
  8
Ｓ_１_１
  6
CONTINUOUS
 62
     3
100
AcDbLine
 10
375.3622687968623
 20
280.0000048628092
 30
0.0
 11
375.3622690288811
 21
269.5000327069116
 31
0.0
  0
LINE
  5
27C
330
1F
100
AcDbEntity
  8
Ｓ_１_１
  6
CONTINUOUS
 62
     3
100
AcDbLine
 10
375.3622692719496
 20
258.5000027069119
 30
0.0
 11
375.3622695039691
 21
248.0000013244038
 31
0.0
  0
LINE
  5
27D
330
1F
100
AcDbEntity
  8
Ｓ_１_１
  6
CONTINUOUS
 62
     3
100
AcDbLine
 10
375.8622696586935
 20
248.5000014791283
 30
0.0
 11
375.8622694305946
 21
258.5000027172478
 31
0.0
  0
LINE
  5
27E
330
1F
100
AcDbEntity
  8
Ｓ_１_１
  6
CONTINUOUS
 62
     3
100
AcDbLine
 10
375.862269179685
 20
269.5000327172474
 30
0.0
 11
375.8622689515868
 21
279.5000047080848
 31
0.0
  0
LINE
  5
27F
330
1F
100
AcDbEntity
  8
Ｓ_１_１
  6
CONTINUOUS
 62
     3
100
AcDbLine
 10
371.3622689732802
 20
265.7500057564625
 30
0.0
 11
371.3622682661733
 21
265.7500057564624
 31
0.0
  0
LINE
  5
280
330
1F
100
AcDbEntity
  8
Ｓ_１_１
  6
CONTINUOUS
 62
     3
100
AcDbLine
 10
367.8622691115737
 20
269.5000307087861
 30
0.0
 11
367.8622685973155
 21
279.5000054151916
 31
0.0
  0
LINE
  5
281
330
1F
100
AcDbEntity
  8
Ｓ_１_１
  6
CONTINUOUS
 62
     3
100
AcDbLine
 10
367.8622685973155
 20
248.5000014791283
 30
0.0
 11
367.8622685973155
 21
258.5000027400522
 31
0.0
  0
LINE
  5
282
330
1F
100
AcDbEntity
  8
Ｓ_１_１
  6
CONTINUOUS
 62
     3
100
AcDbLine
 10
308.7336489176266
 20
233.0501775057451
 30
0.0
 11
310.3066693827271
 21
233.0501771482684
 31
0.0
  0
LINE
  5
283
330
1F
100
AcDbEntity
  8
Ｓ_１_１
  6
CONTINUOUS
 62
     3
100
AcDbLine
 10
300.8194768748688
 20
219.3424195283523
 30
0.0
 11
309.0843377678814
 21
233.6575770983256
 31
0.0
  0
LINE
  5
284
330
1F
100
AcDbEntity
  8
Ｓ_１_１
  6
CONTINUOUS
 62
     3
100
AcDbLine
 10
304.1942064440435
 20
236.0875680203489
 30
0.0
 11
310.3066629494158
 21
233.0501702480868
 31
0.0
  0
LINE
  5
285
330
1F
100
AcDbEntity
  8
Ｓ_１_１
  6
CONTINUOUS
 62
     3
100
AcDbLine
 10
303.9115743805341
 20
235.446354695056
 30
0.0
 11
308.7336453127424
 21
233.0501755045431
 31
0.0
  0
LINE
  5
286
330
1F
100
AcDbEntity
  8
Ｓ_１_１
  6
CONTINUOUS
 62
     3
100
AcDbLine
 10
301.9566750932808
 20
218.5875557249694
 30
0.0
 11
301.1701692606574
 21
219.9498252446571
 31
0.0
  0
LINE
  5
287
330
1F
100
AcDbEntity
  8
Ｓ_１_１
  6
CONTINUOUS
 62
     3
100
AcDbLine
 10
296.2699784052581
 20
222.3624024435821
 30
0.0
 11
301.9566701943013
 21
218.5875585533964
 31
0.0
  0
LINE
  5
288
330
1F
100
AcDbEntity
  8
Ｓ_１_１
  6
CONTINUOUS
 62
     3
100
AcDbLine
 10
296.6839693504426
 20
222.9277755815862
 30
0.0
 11
301.1701639133903
 21
219.9498258824136
 31
0.0
  0
CIRCLE
  5
289
330
1F
100
AcDbEntity
  8
Ｓ_１_１
  6
EXLTYPE2
 62
     1
100
AcDbCircle
 10
240.0
 20
264.00000000001
 30
0.0
 40
25.0
  0
CIRCLE
  5
28A
330
1F
100
AcDbEntity
  8
Ｓ_１_１
  6
CONTINUOUS
 62
     3
100
AcDbCircle
 10
265.0
 20
264.00000000001
 30
0.0
 40
4.400000000000034
  0
CIRCLE
  5
28B
330
1F
100
AcDbEntity
  8
Ｓ_１_１
  6
CONTINUOUS
 62
     3
100
AcDbCircle
 10
265.0
 20
264.00000000001
 30
0.0
 40
5.0
  0
CIRCLE
  5
28C
330
1F
100
AcDbEntity
  8
Ｓ_１_１
  6
CONTINUOUS
 62
     3
100
AcDbCircle
 10
265.0
 20
264.00000000001
 30
0.0
 40
5.499999999999916
  0
POLYLINE
  5
28D
330
1F
100
AcDbEntity
  8
Ｓ_１_１
  6
CONTINUOUS
 62
     3
100
AcDb2dPolyline
 66
     1
 10
0.0
 20
0.0
 30
0.0
 70
   128
  0
VERTEX
  5
28E
330
28D
100
AcDbEntity
  8
Ｓ_１_１
  6
CONTINUOUS
 62
     3
100
AcDbVertex
100
AcDb2dVertex
 10
267.8867513459481
 20
264.00000000001
 30
0.0
  0
VERTEX
  5
28F
330
28D
100
AcDbEntity
  8
Ｓ_１_１
  6
CONTINUOUS
 62
     3
100
AcDbVertex
100
AcDb2dVertex
 10
266.4433756729741
 20
266.50000000001
 30
0.0
  0
VERTEX
  5
290
330
28D
100
AcDbEntity
  8
Ｓ_１_１
  6
CONTINUOUS
 62
     3
100
AcDbVertex
100
AcDb2dVertex
 10
263.5566243270259
 20
266.50000000001
 30
0.0
  0
VERTEX
  5
291
330
28D
100
AcDbEntity
  8
Ｓ_１_１
  6
CONTINUOUS
 62
     3
100
AcDbVertex
100
AcDb2dVertex
 10
262.1132486540519
 20
264.00000000001
 30
0.0
  0
VERTEX
  5
292
330
28D
100
AcDbEntity
  8
Ｓ_１_１
  6
CONTINUOUS
 62
     3
100
AcDbVertex
100
AcDb2dVertex
 10
263.5566243270259
 20
261.50000000001
 30
0.0
  0
VERTEX
  5
293
330
28D
100
AcDbEntity
  8
Ｓ_１_１
  6
CONTINUOUS
 62
     3
100
AcDbVertex
100
AcDb2dVertex
 10
266.4433756729741
 20
261.50000000001
 30
0.0
  0
VERTEX
  5
294
330
28D
100
AcDbEntity
  8
Ｓ_１_１
  6
CONTINUOUS
 62
     3
100
AcDbVertex
100
AcDb2dVertex
 10
267.8867513459481
 20
264.00000000001
 30
0.0
  0
SEQEND
  5
295
330
28D
100
AcDbEntity
  8
Ｓ_１_１
  6
CONTINUOUS
 62
     3
  0
CIRCLE
  5
296
330
1F
100
AcDbEntity
  8
Ｓ_１_１
  6
CONTINUOUS
 62
     3
100
AcDbCircle
 10
240.00000000001
 20
289.00000000001
 30
0.0
 40
4.400000000000034
  0
CIRCLE
  5
297
330
1F
100
AcDbEntity
  8
Ｓ_１_１
  6
CONTINUOUS
 62
     3
100
AcDbCircle
 10
240.00000000001
 20
289.00000000001
 30
0.0
 40
5.0
  0
CIRCLE
  5
298
330
1F
100
AcDbEntity
  8
Ｓ_１_１
  6
CONTINUOUS
 62
     3
100
AcDbCircle
 10
240.00000000001
 20
289.00000000001
 30
0.0
 40
5.499999999999916
  0
POLYLINE
  5
299
330
1F
100
AcDbEntity
  8
Ｓ_１_１
  6
CONTINUOUS
 62
     3
100
AcDb2dPolyline
 66
     1
 10
0.0
 20
0.0
 30
0.0
 70
   128
  0
VERTEX
  5
29A
330
299
100
AcDbEntity
  8
Ｓ_１_１
  6
CONTINUOUS
 62
     3
100
AcDbVertex
100
AcDb2dVertex
 10
240.00000000001
 20
291.8867513459581
 30
0.0
  0
VERTEX
  5
29B
330
299
100
AcDbEntity
  8
Ｓ_１_１
  6
CONTINUOUS
 62
     3
100
AcDbVertex
100
AcDb2dVertex
 10
237.50000000001
 20
290.4433756729841
 30
0.0
  0
VERTEX
  5
29C
330
299
100
AcDbEntity
  8
Ｓ_１_１
  6
CONTINUOUS
 62
     3
100
AcDbVertex
100
AcDb2dVertex
 10
237.50000000001
 20
287.5566243270359
 30
0.0
  0
VERTEX
  5
29D
330
299
100
AcDbEntity
  8
Ｓ_１_１
  6
CONTINUOUS
 62
     3
100
AcDbVertex
100
AcDb2dVertex
 10
240.00000000001
 20
286.1132486540619
 30
0.0
  0
VERTEX
  5
29E
330
299
100
AcDbEntity
  8
Ｓ_１_１
  6
CONTINUOUS
 62
     3
100
AcDbVertex
100
AcDb2dVertex
 10
242.50000000001
 20
287.5566243270359
 30
0.0
  0
VERTEX
  5
29F
330
299
100
AcDbEntity
  8
Ｓ_１_１
  6
CONTINUOUS
 62
     3
100
AcDbVertex
100
AcDb2dVertex
 10
242.50000000001
 20
290.4433756729841
 30
0.0
  0
VERTEX
  5
2A0
330
299
100
AcDbEntity
  8
Ｓ_１_１
  6
CONTINUOUS
 62
     3
100
AcDbVertex
100
AcDb2dVertex
 10
240.00000000001
 20
291.8867513459581
 30
0.0
  0
SEQEND
  5
2A1
330
299
100
AcDbEntity
  8
Ｓ_１_１
  6
CONTINUOUS
 62
     3
  0
CIRCLE
  5
2A2
330
1F
100
AcDbEntity
  8
Ｓ_１_１
  6
CONTINUOUS
 62
     3
100
AcDbCircle
 10
215.0
 20
264.00000000002
 30
0.0
 40
4.400000000000034
  0
CIRCLE
  5
2A3
330
1F
100
AcDbEntity
  8
Ｓ_１_１
  6
CONTINUOUS
 62
     3
100
AcDbCircle
 10
215.0
 20
264.00000000002
 30
0.0
 40
5.0
  0
CIRCLE
  5
2A4
330
1F
100
AcDbEntity
  8
Ｓ_１_１
  6
CONTINUOUS
 62
     3
100
AcDbCircle
 10
215.0
 20
264.00000000002
 30
0.0
 40
5.499999999999916
  0
POLYLINE
  5
2A5
330
1F
100
AcDbEntity
  8
Ｓ_１_１
  6
CONTINUOUS
 62
     3
100
AcDb2dPolyline
 66
     1
 10
0.0
 20
0.0
 30
0.0
 70
   128
  0
VERTEX
  5
2A6
330
2A5
100
AcDbEntity
  8
Ｓ_１_１
  6
CONTINUOUS
 62
     3
100
AcDbVertex
100
AcDb2dVertex
 10
212.1132486540519
 20
264.00000000002
 30
0.0
  0
VERTEX
  5
2A7
330
2A5
100
AcDbEntity
  8
Ｓ_１_１
  6
CONTINUOUS
 62
     3
100
AcDbVertex
100
AcDb2dVertex
 10
213.556624327026
 20
261.50000000002
 30
0.0
  0
VERTEX
  5
2A8
330
2A5
100
AcDbEntity
  8
Ｓ_１_１
  6
CONTINUOUS
 62
     3
100
AcDbVertex
100
AcDb2dVertex
 10
216.4433756729741
 20
261.50000000002
 30
0.0
  0
VERTEX
  5
2A9
330
2A5
100
AcDbEntity
  8
Ｓ_１_１
  6
CONTINUOUS
 62
     3
100
AcDbVertex
100
AcDb2dVertex
 10
217.8867513459482
 20
264.00000000002
 30
0.0
  0
VERTEX
  5
2AA
330
2A5
100
AcDbEntity
  8
Ｓ_１_１
  6
CONTINUOUS
 62
     3
100
AcDbVertex
100
AcDb2dVertex
 10
216.4433756729741
 20
266.50000000002
 30
0.0
  0
VERTEX
  5
2AB
330
2A5
100
AcDbEntity
  8
Ｓ_１_１
  6
CONTINUOUS
 62
     3
100
AcDbVertex
100
AcDb2dVertex
 10
213.556624327026
 20
266.50000000002
 30
0.0
  0
VERTEX
  5
2AC
330
2A5
100
AcDbEntity
  8
Ｓ_１_１
  6
CONTINUOUS
 62
     3
100
AcDbVertex
100
AcDb2dVertex
 10
212.1132486540519
 20
264.00000000002
 30
0.0
  0
SEQEND
  5
2AD
330
2A5
100
AcDbEntity
  8
Ｓ_１_１
  6
CONTINUOUS
 62
     3
  0
CIRCLE
  5
2AE
330
1F
100
AcDbEntity
  8
Ｓ_１_１
  6
CONTINUOUS
 62
     3
100
AcDbCircle
 10
239.9999999999901
 20
239.00000000001
 30
0.0
 40
4.400000000000034
  0
CIRCLE
  5
2AF
330
1F
100
AcDbEntity
  8
Ｓ_１_１
  6
CONTINUOUS
 62
     3
100
AcDbCircle
 10
239.9999999999901
 20
239.00000000001
 30
0.0
 40
5.0
  0
CIRCLE
  5
2B0
330
1F
100
AcDbEntity
  8
Ｓ_１_１
  6
CONTINUOUS
 62
     3
100
AcDbCircle
 10
239.9999999999901
 20
239.00000000001
 30
0.0
 40
5.499999999999916
  0
POLYLINE
  5
2B1
330
1F
100
AcDbEntity
  8
Ｓ_１_１
  6
CONTINUOUS
 62
     3
100
AcDb2dPolyline
 66
     1
 10
0.0
 20
0.0
 30
0.0
 70
   128
  0
VERTEX
  5
2B2
330
2B1
100
AcDbEntity
  8
Ｓ_１_１
  6
CONTINUOUS
 62
     3
100
AcDbVertex
100
AcDb2dVertex
 10
239.9999999999901
 20
236.1132486540619
 30
0.0
  0
VERTEX
  5
2B3
330
2B1
100
AcDbEntity
  8
Ｓ_１_１
  6
CONTINUOUS
 62
     3
100
AcDbVertex
100
AcDb2dVertex
 10
242.4999999999901
 20
237.556624327036
 30
0.0
  0
VERTEX
  5
2B4
330
2B1
100
AcDbEntity
  8
Ｓ_１_１
  6
CONTINUOUS
 62
     3
100
AcDbVertex
100
AcDb2dVertex
 10
242.4999999999901
 20
240.4433756729841
 30
0.0
  0
VERTEX
  5
2B5
330
2B1
100
AcDbEntity
  8
Ｓ_１_１
  6
CONTINUOUS
 62
     3
100
AcDbVertex
100
AcDb2dVertex
 10
239.9999999999901
 20
241.8867513459582
 30
0.0
  0
VERTEX
  5
2B6
330
2B1
100
AcDbEntity
  8
Ｓ_１_１
  6
CONTINUOUS
 62
     3
100
AcDbVertex
100
AcDb2dVertex
 10
237.4999999999901
 20
240.4433756729841
 30
0.0
  0
VERTEX
  5
2B7
330
2B1
100
AcDbEntity
  8
Ｓ_１_１
  6
CONTINUOUS
 62
     3
100
AcDbVertex
100
AcDb2dVertex
 10
237.4999999999901
 20
237.556624327036
 30
0.0
  0
VERTEX
  5
2B8
330
2B1
100
AcDbEntity
  8
Ｓ_１_１
  6
CONTINUOUS
 62
     3
100
AcDbVertex
100
AcDb2dVertex
 10
239.9999999999901
 20
236.1132486540619
 30
0.0
  0
SEQEND
  5
2B9
330
2B1
100
AcDbEntity
  8
Ｓ_１_１
  6
CONTINUOUS
 62
     3
  0
CIRCLE
  5
2BA
330
1F
100
AcDbEntity
  8
Ｓ_１_１
  6
CONTINUOUS
 62
     3
100
AcDbCircle
 10
240.0
 20
264.00000000001
 30
0.0
 40
35.0
  0
CIRCLE
  5
2BB
330
1F
100
AcDbEntity
  8
Ｓ_１_１
  6
CONTINUOUS
 62
     3
100
AcDbCircle
 10
240.0
 20
264.00000000001
 30
0.0
 40
34.0
  0
CIRCLE
  5
2BC
330
1F
100
AcDbEntity
  8
Ｓ_１_１
  6
CONTINUOUS
 62
     3
100
AcDbCircle
 10
240.0
 20
264.00000000001
 30
0.0
 40
38.26794264913997
  0
CIRCLE
  5
2BD
330
1F
100
AcDbEntity
  8
Ｓ_１_１
  6
CONTINUOUS
 62
     3
100
AcDbCircle
 10
240.0
 20
264.00000000001
 30
0.0
 40
40.0
  0
CIRCLE
  5
2BE
330
1F
100
AcDbEntity
  8
Ｓ_１_１
  6
CONTINUOUS
 62
     3
100
AcDbCircle
 10
240.0
 20
264.00000000001
 30
0.0
 40
42.5
  0
LINE
  5
2BF
330
1F
100
AcDbEntity
  8
Ｓ_１_１
  6
EXLTYPE2
 62
     1
100
AcDbLine
 10
289.7964607176071
 20
235.2500000000155
 30
0.0
 11
341.638713664893
 21
205.3188613055046
 31
0.0
  0
LINE
  5
2C0
330
1F
100
AcDbEntity
  8
Ｓ_１_１
  6
EXLTYPE2
 62
     1
100
AcDbLine
 10
289.7964607176069
 20
292.7500000000138
 30
0.0
 11
307.809789116321
 21
303.1500000000124
 31
0.0
  0
LINE
  5
2C1
330
1F
100
AcDbEntity
  8
Ｓ_１_１
  6
EXLTYPE2
 62
     1
100
AcDbLine
 10
303.99316369743
 20
315.2652416359551
 30
0.0
 11
288.0639610307409
 21
299.3360389692685
 31
0.0
  0
LINE
  5
2C2
330
1F
100
AcDbEntity
  8
Ｓ_１_１
  6
EXLTYPE2
 62
     1
100
AcDbLine
 10
176.0068363025617
 20
315.2652416359553
 30
0.0
 11
191.9360389692507
 21
299.3360389692687
 31
0.0
  0
CIRCLE
  5
2C3
330
1F
100
AcDbEntity
  8
Ｓ_１_１
  6
CONTINUOUS
 62
     3
100
AcDbCircle
 10
240.0
 20
264.0000000000099
 30
0.0
 40
8.999777679739054
  0
CIRCLE
  5
2C4
330
1F
100
AcDbEntity
  8
Ｓ_１_１
  6
CONTINUOUS
 62
     3
100
AcDbCircle
 10
240.0
 20
264.0000000000099
 30
0.0
 40
10.99977767973905
  0
ARC
  5
2C5
330
1F
100
AcDbEntity
  8
Ｓ_１_１
  6
CONTINUOUS
 62
     3
100
AcDbCircle
 10
240.0
 20
264.0000000000099
 30
0.0
 40
26.0
100
AcDbArc
 50
12.17717567402145
 51
77.8228243259572
  0
ARC
  5
2C6
330
1F
100
AcDbEntity
  8
Ｓ_１_１
  6
CONTINUOUS
 62
     3
100
AcDbCircle
 10
240.0
 20
264.0000000000099
 30
0.0
 40
24.0
100
AcDbArc
 50
12.6764040040261
 51
77.32359599595094
  0
ARC
  5
2C7
330
1F
100
AcDbEntity
  8
Ｓ_１_１
  6
CONTINUOUS
 62
     3
100
AcDbCircle
 10
240.0
 20
264.0000000000099
 30
0.0
 40
26.0
100
AcDbArc
 50
102.1771756739996
 51
167.8228243259559
  0
ARC
  5
2C8
330
1F
100
AcDbEntity
  8
Ｓ_１_１
  6
CONTINUOUS
 62
     3
100
AcDbCircle
 10
240.0
 20
264.0000000000099
 30
0.0
 40
24.0
100
AcDbArc
 50
102.6764040040026
 51
167.3235959959513
  0
ARC
  5
2C9
330
1F
100
AcDbEntity
  8
Ｓ_１_１
  6
CONTINUOUS
 62
     3
100
AcDbCircle
 10
240.0
 20
264.0000000000099
 30
0.0
 40
24.0
100
AcDbArc
 50
192.676404004003
 51
257.3235959959513
  0
ARC
  5
2CA
330
1F
100
AcDbEntity
  8
Ｓ_１_１
  6
CONTINUOUS
 62
     3
100
AcDbCircle
 10
240.0
 20
264.0000000000099
 30
0.0
 40
26.0
100
AcDbArc
 50
192.1771756739983
 51
257.822824325956
  0
ARC
  5
2CB
330
1F
100
AcDbEntity
  8
Ｓ_１_１
  6
CONTINUOUS
 62
     3
100
AcDbCircle
 10
240.0
 20
264.0000000000099
 30
0.0
 40
24.0
100
AcDbArc
 50
282.6764040040032
 51
347.3235959959747
  0
ARC
  5
2CC
330
1F
100
AcDbEntity
  8
Ｓ_１_１
  6
CONTINUOUS
 62
     3
100
AcDbCircle
 10
240.0
 20
264.0000000000099
 30
0.0
 40
26.0
100
AcDbArc
 50
282.1771756739984
 51
347.8228243259789
  0
CIRCLE
  5
2CD
330
1F
100
AcDbEntity
  8
Ｓ_１_１
  6
EXLTYPE2
 62
     1
100
AcDbCircle
 10
240.0
 20
264.0000000000099
 30
0.0
 40
10.0
  0
CIRCLE
  5
2CE
330
1F
100
AcDbEntity
  8
Ｓ_１_１
  6
CONTINUOUS
 62
     3
100
AcDbCircle
 10
240.0
 20
264.0000000000099
 30
0.0
 40
35.5
  0
LINE
  5
2CF
330
1F
100
AcDbEntity
  8
Ｓ_１_１
  6
CONTINUOUS
 62
     3
100
AcDbLine
 10
312.9466232657577
 20
236.5509127392347
 30
0.0
 11
311.4825245738174
 21
235.0868103220041
 31
0.0
  0
LINE
  5
2D0
330
1F
100
AcDbEntity
  8
Ｓ_１_１
  6
CONTINUOUS
 62
     3
100
AcDbLine
 10
326.5474793315074
 20
202.698456601697
 30
0.0
 11
327.8624323010586
 21
203.4576446874913
 31
0.0
  0
LINE
  5
2D1
330
1F
100
AcDbEntity
  8
Ｓ_１_１
  6
CONTINUOUS
 62
     3
100
AcDbLine
 10
336.36243462564
 20
218.18007762869
 30
0.0
 11
336.3624346256399
 21
219.6984575255692
 31
0.0
  0
LINE
  5
2D2
330
1F
100
AcDbEntity
  8
Ｓ_１_１
  6
CONTINUOUS
 62
     3
100
AcDbLine
 10
322.6662856340551
 20
206.457647041875
 30
0.0
 11
322.6662856340552
 21
204.9392671449957
 31
0.0
  0
LINE
  5
2D3
330
1F
100
AcDbEntity
  8
Ｓ_１_１
  6
CONTINUOUS
 62
     3
100
AcDbLine
 10
332.4812334776068
 20
221.9392680688678
 30
0.0
 11
331.1662805080556
 21
221.1800762577832
 31
0.0
  0
LINE
  5
2D4
330
1F
100
AcDbEntity
  8
Ｓ_１_１
  6
CONTINUOUS
 62
     3
100
AcDbLine
 10
339.3945899605893
 20
212.3880111738026
 30
0.0
 11
334.6124348044537
 21
215.1489877267657
 31
0.0
  0
LINE
  5
2D5
330
1F
100
AcDbEntity
  8
Ｓ_１_１
  6
CONTINUOUS
 62
     3
100
AcDbLine
 10
329.6124321222449
 20
206.4887345894157
 30
0.0
 11
334.3945872783802
 21
203.7277580364522
 31
0.0
  0
LINE
  5
2D6
330
1F
100
AcDbEntity
  8
Ｓ_１_１
  6
CONTINUOUS
 62
     3
100
AcDbLine
 10
334.3945872783802
 20
203.7277580364522
 30
0.0
 11
335.2225852012778
 21
204.2058021887121
 31
0.0
  0
LINE
  5
2D7
330
1F
100
AcDbEntity
  8
Ｓ_１_１
  6
CONTINUOUS
 62
     3
100
AcDbLine
 10
339.3945899605894
 20
211.4319191439926
 30
0.0
 11
339.3945899605893
 21
212.3880111738026
 31
0.0
  0
LINE
  5
2D8
330
1F
100
AcDbEntity
  8
Ｓ_１_１
  6
CONTINUOUS
 62
     3
100
AcDbLine
 10
320.1013264060162
 20
203.086810664731
 30
0.0
 11
321.565432548537
 21
204.5509130819617
 31
0.0
  0
LINE
  5
2D9
330
1F
100
AcDbEntity
  8
Ｓ_１_１
  6
CONTINUOUS
 62
     3
100
AcDbLine
 10
332.2671335935734
 20
223.0868102176961
 30
0.0
 11
332.8030315041685
 21
225.0868105455218
 31
0.0
  0
LINE
  5
2DA
330
1F
100
AcDbEntity
  8
Ｓ_１_１
  6
CONTINUOUS
 62
     3
100
AcDbLine
 10
300.7808198034905
 20
216.5509113236247
 30
0.0
 11
300.2449218928955
 21
214.5509109957991
 31
0.0
  0
POLYLINE
  5
2DB
330
1F
100
AcDbEntity
  8
Ｓ_１_１
  6
CONTINUOUS
 62
     3
100
AcDb2dPolyline
 66
     1
 10
0.0
 20
0.0
 30
0.0
 70
   128
  0
VERTEX
  5
2DC
330
2DB
100
AcDbEntity
  8
Ｓ_１_１
  6
CONTINUOUS
 62
     3
100
AcDbVertex
100
AcDb2dVertex
 10
330.0274965167188
 20
217.6892669065772
 30
0.0
  0
VERTEX
  5
2DD
330
2DB
100
AcDbEntity
  8
Ｓ_１_１
  6
CONTINUOUS
 62
     3
100
AcDbVertex
100
AcDb2dVertex
 10
330.1515561342382
 20
219.0057733221829
 30
0.0
  0
VERTEX
  5
2DE
330
2DB
100
AcDbEntity
  8
Ｓ_１_１
  6
CONTINUOUS
 62
     3
100
AcDbVertex
100
AcDb2dVertex
 10
330.5968922376775
 20
220.1938615306199
 30
0.0
  0
SEQEND
  5
2DF
330
2DB
100
AcDbEntity
  8
Ｓ_１_１
  6
CONTINUOUS
 62
     3
  0
POLYLINE
  5
2E0
330
1F
100
AcDbEntity
  8
Ｓ_１_１
  6
CONTINUOUS
 62
     3
100
AcDb2dPolyline
 66
     1
 10
0.0
 20
0.0
 30
0.0
 70
   128
  0
VERTEX
  5
2E1
330
2E0
100
AcDbEntity
  8
Ｓ_１_１
  6
CONTINUOUS
 62
     3
100
AcDbVertex
100
AcDb2dVertex
 10
330.5968922376775
 20
220.1938615306199
 30
0.0
  0
VERTEX
  5
2E2
330
2E0
100
AcDbEntity
  8
Ｓ_１_１
  6
CONTINUOUS
 62
     3
100
AcDbVertex
100
AcDb2dVertex
 10
330.687714815154
 20
220.3429029448805
 30
0.0
  0
VERTEX
  5
2E3
330
2E0
100
AcDbEntity
  8
Ｓ_１_１
  6
CONTINUOUS
 62
     3
100
AcDbVertex
100
AcDb2dVertex
 10
331.4539027214193
 20
221.2185473306953
 30
0.0
  0
VERTEX
  5
2E4
330
2E0
100
AcDbEntity
  8
Ｓ_１_１
  6
CONTINUOUS
 62
     3
100
AcDbVertex
100
AcDb2dVertex
 10
332.4812334776068
 20
221.9392680688678
 30
0.0
  0
SEQEND
  5
2E5
330
2E0
100
AcDbEntity
  8
Ｓ_１_１
  6
CONTINUOUS
 62
     3
  0
LINE
  5
2E6
330
1F
100
AcDbEntity
  8
Ｓ_１_１
  6
CONTINUOUS
 62
     3
100
AcDbLine
 10
332.4812334776068
 20
221.9392680688678
 30
0.0
 11
336.3624346256399
 21
219.6984575255692
 31
0.0
  0
POLYLINE
  5
2E7
330
1F
100
AcDbEntity
  8
Ｓ_１_１
  6
CONTINUOUS
 62
     3
100
AcDb2dPolyline
 66
     1
 10
0.0
 20
0.0
 30
0.0
 70
   128
  0
VERTEX
  5
2E8
330
2E7
100
AcDbEntity
  8
Ｓ_１_１
  6
CONTINUOUS
 62
     3
100
AcDbVertex
100
AcDb2dVertex
 10
335.7930389046813
 20
217.1938629015267
 30
0.0
  0
VERTEX
  5
2E9
330
2E7
100
AcDbEntity
  8
Ｓ_１_１
  6
CONTINUOUS
 62
     3
100
AcDbVertex
100
AcDb2dVertex
 10
335.8767014742041
 20
217.3470393880187
 30
0.0
  0
VERTEX
  5
2EA
330
2E7
100
AcDbEntity
  8
Ｓ_１_１
  6
CONTINUOUS
 62
     3
100
AcDbVertex
100
AcDb2dVertex
 10
336.2519425153874
 20
218.4483991130171
 30
0.0
  0
VERTEX
  5
2EB
330
2E7
100
AcDbEntity
  8
Ｓ_１_１
  6
CONTINUOUS
 62
     3
100
AcDbVertex
100
AcDb2dVertex
 10
336.3624346256399
 20
219.6984575255692
 30
0.0
  0
SEQEND
  5
2EC
330
2E7
100
AcDbEntity
  8
Ｓ_１_１
  6
CONTINUOUS
 62
     3
  0
POLYLINE
  5
2ED
330
1F
100
AcDbEntity
  8
Ｓ_１_１
  6
CONTINUOUS
 62
     3
100
AcDb2dPolyline
 66
     1
 10
0.0
 20
0.0
 30
0.0
 70
   128
  0
VERTEX
  5
2EE
330
2ED
100
AcDbEntity
  8
Ｓ_１_１
  6
CONTINUOUS
 62
     3
100
AcDbVertex
100
AcDb2dVertex
 10
333.9086976647521
 20
215.4484563632785
 30
0.0
  0
VERTEX
  5
2EF
330
2ED
100
AcDbEntity
  8
Ｓ_１_１
  6
CONTINUOUS
 62
     3
100
AcDbVertex
100
AcDb2dVertex
 10
334.9867892265461
 20
216.2141450806437
 30
0.0
  0
VERTEX
  5
2F0
330
2ED
100
AcDbEntity
  8
Ｓ_１_１
  6
CONTINUOUS
 62
     3
100
AcDbVertex
100
AcDb2dVertex
 10
335.7930389046813
 20
217.1938629015267
 30
0.0
  0
SEQEND
  5
2F1
330
2ED
100
AcDbEntity
  8
Ｓ_１_１
  6
CONTINUOUS
 62
     3
  0
LINE
  5
2F2
330
1F
100
AcDbEntity
  8
Ｓ_１_１
  6
CONTINUOUS
 62
     3
100
AcDbLine
 10
330.0274965167188
 20
217.6892669065772
 30
0.0
 11
333.9086976647521
 21
215.4484563632785
 31
0.0
  0
POLYLINE
  5
2F3
330
1F
100
AcDbEntity
  8
Ｓ_１_１
  6
CONTINUOUS
 62
     3
100
AcDb2dPolyline
 66
     1
 10
0.0
 20
0.0
 30
0.0
 70
   128
  0
VERTEX
  5
2F4
330
2F3
100
AcDbEntity
  8
Ｓ_１_１
  6
CONTINUOUS
 62
     3
100
AcDbVertex
100
AcDb2dVertex
 10
325.120022594943
 20
209.1892683072865
 30
0.0
  0
VERTEX
  5
2F5
330
2F3
100
AcDbEntity
  8
Ｓ_１_１
  6
CONTINUOUS
 62
     3
100
AcDbVertex
100
AcDb2dVertex
 10
325.4613038897658
 20
210.4241796894847
 30
0.0
  0
VERTEX
  5
2F6
330
2F3
100
AcDbEntity
  8
Ｓ_１_１
  6
CONTINUOUS
 62
     3
100
AcDbVertex
100
AcDb2dVertex
 10
326.9162830710555
 20
213.818861649829
 30
0.0
  0
SEQEND
  5
2F7
330
2F3
100
AcDbEntity
  8
Ｓ_１_１
  6
CONTINUOUS
 62
     3
  0
POLYLINE
  5
2F8
330
1F
100
AcDbEntity
  8
Ｓ_１_１
  6
CONTINUOUS
 62
     3
100
AcDb2dPolyline
 66
     1
 10
0.0
 20
0.0
 30
0.0
 70
   128
  0
VERTEX
  5
2F9
330
2F8
100
AcDbEntity
  8
Ｓ_１_１
  6
CONTINUOUS
 62
     3
100
AcDbVertex
100
AcDb2dVertex
 10
326.9162830710555
 20
213.818861649829
 30
0.0
  0
VERTEX
  5
2FA
330
2F8
100
AcDbEntity
  8
Ｓ_１_１
  6
CONTINUOUS
 62
     3
100
AcDbVertex
100
AcDb2dVertex
 10
327.6361805200718
 20
214.9453521831809
 30
0.0
  0
VERTEX
  5
2FB
330
2F8
100
AcDbEntity
  8
Ｓ_１_１
  6
CONTINUOUS
 62
     3
100
AcDbVertex
100
AcDb2dVertex
 10
330.0274965167188
 20
217.6892669065772
 30
0.0
  0
SEQEND
  5
2FC
330
2F8
100
AcDbEntity
  8
Ｓ_１_１
  6
CONTINUOUS
 62
     3
  0
POLYLINE
  5
2FD
330
1F
100
AcDbEntity
  8
Ｓ_１_１
  6
CONTINUOUS
 62
     3
100
AcDb2dPolyline
 66
     1
 10
0.0
 20
0.0
 30
0.0
 70
   128
  0
VERTEX
  5
2FE
330
2FD
100
AcDbEntity
  8
Ｓ_１_１
  6
CONTINUOUS
 62
     3
100
AcDbVertex
100
AcDb2dVertex
 10
332.1124371886397
 20
210.818863020736
 30
0.0
  0
VERTEX
  5
2FF
330
2FD
100
AcDbEntity
  8
Ｓ_１_１
  6
CONTINUOUS
 62
     3
100
AcDbVertex
100
AcDb2dVertex
 10
332.7280563116214
 20
212.0055579706012
 30
0.0
  0
VERTEX
  5
300
330
2FD
100
AcDbEntity
  8
Ｓ_１_１
  6
CONTINUOUS
 62
     3
100
AcDbVertex
100
AcDb2dVertex
 10
333.9086976647521
 20
215.4484563632785
 30
0.0
  0
SEQEND
  5
301
330
2FD
100
AcDbEntity
  8
Ｓ_１_１
  6
CONTINUOUS
 62
     3
  0
POLYLINE
  5
302
330
1F
100
AcDbEntity
  8
Ｓ_１_１
  6
CONTINUOUS
 62
     3
100
AcDb2dPolyline
 66
     1
 10
0.0
 20
0.0
 30
0.0
 70
   128
  0
VERTEX
  5
303
330
302
100
AcDbEntity
  8
Ｓ_１_１
  6
CONTINUOUS
 62
     3
100
AcDbVertex
100
AcDb2dVertex
 10
329.0012162923958
 20
206.9484577639878
 30
0.0
  0
VERTEX
  5
304
330
302
100
AcDbEntity
  8
Ｓ_１_１
  6
CONTINUOUS
 62
     3
100
AcDbVertex
100
AcDb2dVertex
 10
329.900046885028
 20
207.8614705367862
 30
0.0
  0
VERTEX
  5
305
330
302
100
AcDbEntity
  8
Ｓ_１_１
  6
CONTINUOUS
 62
     3
100
AcDbVertex
100
AcDb2dVertex
 10
332.1124371886397
 20
210.818863020736
 30
0.0
  0
SEQEND
  5
306
330
302
100
AcDbEntity
  8
Ｓ_１_１
  6
CONTINUOUS
 62
     3
  0
LINE
  5
307
330
1F
100
AcDbEntity
  8
Ｓ_１_１
  6
CONTINUOUS
 62
     3
100
AcDbLine
 10
325.120022594943
 20
209.1892683072865
 30
0.0
 11
329.0012162923958
 21
206.9484577639878
 31
0.0
  0
LINE
  5
308
330
1F
100
AcDbEntity
  8
Ｓ_１_１
  6
CONTINUOUS
 62
     3
100
AcDbLine
 10
332.1124344633607
 20
210.8188617213577
 30
0.0
 11
335.7930424294441
 21
217.1938617213576
 31
0.0
  0
POLYLINE
  5
309
330
1F
100
AcDbEntity
  8
Ｓ_１_１
  6
CONTINUOUS
 62
     3
100
AcDb2dPolyline
 66
     1
 10
0.0
 20
0.0
 30
0.0
 70
   128
  0
VERTEX
  5
30A
330
309
100
AcDbEntity
  8
Ｓ_１_１
  6
CONTINUOUS
 62
     3
100
AcDbVertex
100
AcDb2dVertex
 10
323.2356739044333
 20
207.4438617690383
 30
0.0
  0
VERTEX
  5
30B
330
309
100
AcDbEntity
  8
Ｓ_１_１
  6
CONTINUOUS
 62
     3
100
AcDbVertex
100
AcDb2dVertex
 10
323.3264964819097
 20
207.5929031832993
 30
0.0
  0
VERTEX
  5
30C
330
309
100
AcDbEntity
  8
Ｓ_１_１
  6
CONTINUOUS
 62
     3
100
AcDbVertex
100
AcDb2dVertex
 10
324.0926843881751
 20
208.4685475691139
 30
0.0
  0
VERTEX
  5
30D
330
309
100
AcDbEntity
  8
Ｓ_１_１
  6
CONTINUOUS
 62
     3
100
AcDbVertex
100
AcDb2dVertex
 10
325.120022594943
 20
209.1892683072865
 30
0.0
  0
SEQEND
  5
30E
330
309
100
AcDbEntity
  8
Ｓ_１_１
  6
CONTINUOUS
 62
     3
  0
POLYLINE
  5
30F
330
1F
100
AcDbEntity
  8
Ｓ_１_１
  6
CONTINUOUS
 62
     3
100
AcDb2dPolyline
 66
     1
 10
0.0
 20
0.0
 30
0.0
 70
   128
  0
VERTEX
  5
310
330
30F
100
AcDbEntity
  8
Ｓ_１_１
  6
CONTINUOUS
 62
     3
100
AcDbVertex
100
AcDb2dVertex
 10
328.4318280220177
 20
204.4438631399452
 30
0.0
  0
VERTEX
  5
311
330
30F
100
AcDbEntity
  8
Ｓ_１_１
  6
CONTINUOUS
 62
     3
100
AcDbVertex
100
AcDb2dVertex
 10
328.5154905915405
 20
204.597035901147
 30
0.0
  0
VERTEX
  5
312
330
30F
100
AcDbEntity
  8
Ｓ_１_１
  6
CONTINUOUS
 62
     3
100
AcDbVertex
100
AcDb2dVertex
 10
328.8907241821431
 20
205.6983993514358
 30
0.0
  0
VERTEX
  5
313
330
30F
100
AcDbEntity
  8
Ｓ_１_１
  6
CONTINUOUS
 62
     3
100
AcDbVertex
100
AcDb2dVertex
 10
329.0012162923958
 20
206.9484577639878
 30
0.0
  0
SEQEND
  5
314
330
30F
100
AcDbEntity
  8
Ｓ_１_１
  6
CONTINUOUS
 62
     3
  0
LINE
  5
315
330
1F
100
AcDbEntity
  8
Ｓ_１_１
  6
CONTINUOUS
 62
     3
100
AcDbLine
 10
328.4318264972769
 20
204.4438617213576
 30
0.0
 11
332.1124344633607
 21
210.8188617213577
 31
0.0
  0
POLYLINE
  5
316
330
1F
100
AcDbEntity
  8
Ｓ_１_１
  6
CONTINUOUS
 62
     3
100
AcDb2dPolyline
 66
     1
 10
0.0
 20
0.0
 30
0.0
 70
   128
  0
VERTEX
  5
317
330
316
100
AcDbEntity
  8
Ｓ_１_１
  6
CONTINUOUS
 62
     3
100
AcDbVertex
100
AcDb2dVertex
 10
322.6662856340552
 20
204.9392671449957
 30
0.0
  0
VERTEX
  5
318
330
316
100
AcDbEntity
  8
Ｓ_１_１
  6
CONTINUOUS
 62
     3
100
AcDbVertex
100
AcDb2dVertex
 10
322.790337800994
 20
206.2557735606014
 30
0.0
  0
VERTEX
  5
319
330
316
100
AcDbEntity
  8
Ｓ_１_１
  6
CONTINUOUS
 62
     3
100
AcDbVertex
100
AcDb2dVertex
 10
323.2356739044333
 20
207.4438617690383
 30
0.0
  0
SEQEND
  5
31A
330
316
100
AcDbEntity
  8
Ｓ_１_１
  6
CONTINUOUS
 62
     3
  0
POLYLINE
  5
31B
330
1F
100
AcDbEntity
  8
Ｓ_１_１
  6
CONTINUOUS
 62
     3
100
AcDb2dPolyline
 66
     1
 10
0.0
 20
0.0
 30
0.0
 70
   128
  0
VERTEX
  5
31C
330
31B
100
AcDbEntity
  8
Ｓ_１_１
  6
CONTINUOUS
 62
     3
100
AcDbVertex
100
AcDb2dVertex
 10
326.5474793315074
 20
202.698456601697
 30
0.0
  0
VERTEX
  5
31D
330
31B
100
AcDbEntity
  8
Ｓ_１_１
  6
CONTINUOUS
 62
     3
100
AcDbVertex
100
AcDb2dVertex
 10
327.6255783438824
 20
203.4641453190621
 30
0.0
  0
VERTEX
  5
31E
330
31B
100
AcDbEntity
  8
Ｓ_１_１
  6
CONTINUOUS
 62
     3
100
AcDbVertex
100
AcDb2dVertex
 10
328.4318280220177
 20
204.4438631399452
 30
0.0
  0
SEQEND
  5
31F
330
31B
100
AcDbEntity
  8
Ｓ_１_１
  6
CONTINUOUS
 62
     3
  0
LINE
  5
320
330
1F
100
AcDbEntity
  8
Ｓ_１_１
  6
CONTINUOUS
 62
     3
100
AcDbLine
 10
322.6662856340552
 20
204.9392671449957
 30
0.0
 11
326.5474793315074
 21
202.698456601697
 31
0.0
  0
LINE
  5
321
330
1F
100
AcDbEntity
  8
Ｓ_１_１
  6
CONTINUOUS
 62
     3
100
AcDbLine
 10
327.8624344633607
 20
203.4576457891898
 30
0.0
 11
328.4318264972769
 21
204.4438617213576
 31
0.0
  0
LINE
  5
322
330
1F
100
AcDbEntity
  8
Ｓ_１_１
  6
CONTINUOUS
 62
     3
100
AcDbLine
 10
335.7930424294441
 20
217.1938617213576
 30
0.0
 11
336.3624344633603
 21
218.1800776535256
 31
0.0
  0
LINE
  5
323
330
1F
100
AcDbEntity
  8
Ｓ_１_１
  6
CONTINUOUS
 62
     3
100
AcDbLine
 10
339.394586886067
 20
212.3880117517247
 30
0.0
 11
334.3945868860671
 21
203.72775771388
 31
0.0
  0
LINE
  5
324
330
1F
100
AcDbEntity
  8
Ｓ_１_１
  6
CONTINUOUS
 62
     3
100
AcDbLine
 10
339.3945868860671
 20
211.4319197059467
 30
0.0
 11
335.2225868860671
 21
204.205803736769
 31
0.0
  0
POLYLINE
  5
325
330
1F
100
AcDbEntity
  8
Ｓ_１_１
  6
CONTINUOUS
 62
     3
100
AcDb2dPolyline
 66
     1
 10
0.0
 20
0.0
 30
0.0
 70
   128
  0
VERTEX
  5
326
330
325
100
AcDbEntity
  8
Ｓ_１_１
  6
CONTINUOUS
 62
     3
100
AcDbVertex
100
AcDb2dVertex
 10
323.2767564058448
 20
208.586810634929
 30
0.0
  0
VERTEX
  5
327
330
325
100
AcDbEntity
  8
Ｓ_１_１
  6
CONTINUOUS
 62
     3
100
AcDbVertex
100
AcDb2dVertex
 10
322.0991548895977
 20
205.6352966590701
 30
0.0
  0
VERTEX
  5
328
330
325
100
AcDbEntity
  8
Ｓ_１_１
  6
CONTINUOUS
 62
     3
100
AcDbVertex
100
AcDb2dVertex
 10
320.1013264060162
 20
203.086810664731
 30
0.0
  0
SEQEND
  5
329
330
325
100
AcDbEntity
  8
Ｓ_１_１
  6
CONTINUOUS
 62
     3
  0
POLYLINE
  5
32A
330
1F
100
AcDbEntity
  8
Ｓ_１_１
  6
CONTINUOUS
 62
     3
100
AcDb2dPolyline
 66
     1
 10
0.0
 20
0.0
 30
0.0
 70
   128
  0
VERTEX
  5
32B
330
32A
100
AcDbEntity
  8
Ｓ_１_１
  6
CONTINUOUS
 62
     3
100
AcDbVertex
100
AcDb2dVertex
 10
329.6276089549207
 20
219.5868105753242
 30
0.0
  0
VERTEX
  5
32C
330
32A
100
AcDbEntity
  8
Ｓ_１_１
  6
CONTINUOUS
 62
     3
100
AcDbVertex
100
AcDb2dVertex
 10
327.2620049119137
 20
214.5948880477724
 30
0.0
  0
VERTEX
  5
32D
330
32A
100
AcDbEntity
  8
Ｓ_１_１
  6
CONTINUOUS
 62
     3
100
AcDbVertex
100
AcDb2dVertex
 10
324.2412266135357
 20
209.872594581443
 30
0.0
  0
VERTEX
  5
32E
330
32A
100
AcDbEntity
  8
Ｓ_１_１
  6
CONTINUOUS
 62
     3
100
AcDbVertex
100
AcDb2dVertex
 10
323.2767564058448
 20
208.586810634929
 30
0.0
  0
SEQEND
  5
32F
330
32A
100
AcDbEntity
  8
Ｓ_１_１
  6
CONTINUOUS
 62
     3
  0
POLYLINE
  5
330
330
1F
100
AcDbEntity
  8
Ｓ_１_１
  6
CONTINUOUS
 62
     3
100
AcDb2dPolyline
 66
     1
 10
0.0
 20
0.0
 30
0.0
 70
   128
  0
VERTEX
  5
331
330
330
100
AcDbEntity
  8
Ｓ_１_１
  6
CONTINUOUS
 62
     3
100
AcDbVertex
100
AcDb2dVertex
 10
332.8030315041685
 20
225.0868105455218
 30
0.0
  0
VERTEX
  5
332
330
330
100
AcDbEntity
  8
Ｓ_１_１
  6
CONTINUOUS
 62
     3
100
AcDbVertex
100
AcDb2dVertex
 10
331.6254299879218
 20
222.1352965696633
 30
0.0
  0
VERTEX
  5
333
330
330
100
AcDbEntity
  8
Ｓ_１_１
  6
CONTINUOUS
 62
     3
100
AcDbVertex
100
AcDb2dVertex
 10
329.6276089549207
 20
219.5868105753242
 30
0.0
  0
SEQEND
  5
334
330
330
100
AcDbEntity
  8
Ｓ_１_１
  6
CONTINUOUS
 62
     3
  0
LINE
  5
335
330
1F
100
AcDbEntity
  8
Ｓ_１_１
  6
CONTINUOUS
 62
     3
100
AcDbLine
 10
332.2671350017396
 20
223.086810913789
 30
0.0
 11
321.5654290795681
 21
204.5509125289262
 31
0.0
  0
LINE
  5
336
330
1F
100
AcDbEntity
  8
Ｓ_１_１
  6
CONTINUOUS
 62
     3
100
AcDbLine
 10
332.8030315041685
 20
225.0868105455218
 30
0.0
 11
312.9466232657577
 21
236.5509127392347
 31
0.0
  0
LINE
  5
337
330
1F
100
AcDbEntity
  8
Ｓ_１_１
  6
CONTINUOUS
 62
     3
100
AcDbLine
 10
329.6276089549207
 20
219.5868105753242
 30
0.0
 11
309.7712007165098
 21
231.0509109063921
 31
0.0
  0
POLYLINE
  5
338
330
1F
100
AcDbEntity
  8
Ｓ_１_１
  6
CONTINUOUS
 62
     3
100
AcDb2dPolyline
 66
     1
 10
0.0
 20
0.0
 30
0.0
 70
   128
  0
VERTEX
  5
339
330
338
100
AcDbEntity
  8
Ｓ_１_１
  6
CONTINUOUS
 62
     3
100
AcDbVertex
100
AcDb2dVertex
 10
309.7712007165098
 20
231.0509109063921
 30
0.0
  0
VERTEX
  5
33A
330
338
100
AcDbEntity
  8
Ｓ_１_１
  6
CONTINUOUS
 62
     3
100
AcDbVertex
100
AcDb2dVertex
 10
310.9488022327564
 20
234.0024248822509
 30
0.0
  0
VERTEX
  5
33B
330
338
100
AcDbEntity
  8
Ｓ_１_１
  6
CONTINUOUS
 62
     3
100
AcDbVertex
100
AcDb2dVertex
 10
312.9466232657577
 20
236.5509127392347
 30
0.0
  0
SEQEND
  5
33C
330
338
100
AcDbEntity
  8
Ｓ_１_１
  6
CONTINUOUS
 62
     3
  0
POLYLINE
  5
33D
330
1F
100
AcDbEntity
  8
Ｓ_１_１
  6
CONTINUOUS
 62
     3
100
AcDb2dPolyline
 66
     1
 10
0.0
 20
0.0
 30
0.0
 70
   128
  0
VERTEX
  5
33E
330
33D
100
AcDbEntity
  8
Ｓ_１_１
  6
CONTINUOUS
 62
     3
100
AcDbVertex
100
AcDb2dVertex
 10
303.4203481674339
 20
220.050910965997
 30
0.0
  0
VERTEX
  5
33F
330
33D
100
AcDbEntity
  8
Ｓ_１_１
  6
CONTINUOUS
 62
     3
100
AcDbVertex
100
AcDb2dVertex
 10
304.0516284108306
 20
221.5290651782335
 30
0.0
  0
VERTEX
  5
340
330
33D
100
AcDbEntity
  8
Ｓ_１_１
  6
CONTINUOUS
 62
     3
100
AcDbVertex
100
AcDb2dVertex
 10
306.5871727466728
 20
226.4338866933166
 30
0.0
  0
VERTEX
  5
341
330
33D
100
AcDbEntity
  8
Ｓ_１_１
  6
CONTINUOUS
 62
     3
100
AcDbVertex
100
AcDb2dVertex
 10
309.7712007165098
 20
231.0509109063921
 30
0.0
  0
SEQEND
  5
342
330
33D
100
AcDbEntity
  8
Ｓ_１_１
  6
CONTINUOUS
 62
     3
  0
POLYLINE
  5
343
330
1F
100
AcDbEntity
  8
Ｓ_１_１
  6
CONTINUOUS
 62
     3
100
AcDb2dPolyline
 66
     1
 10
0.0
 20
0.0
 30
0.0
 70
   128
  0
VERTEX
  5
344
330
343
100
AcDbEntity
  8
Ｓ_１_１
  6
CONTINUOUS
 62
     3
100
AcDbVertex
100
AcDb2dVertex
 10
300.2449218928955
 20
214.5509109957991
 30
0.0
  0
VERTEX
  5
345
330
343
100
AcDbEntity
  8
Ｓ_１_１
  6
CONTINUOUS
 62
     3
100
AcDbVertex
100
AcDb2dVertex
 10
301.4225196838523
 20
217.5024249716581
 30
0.0
  0
VERTEX
  5
346
330
343
100
AcDbEntity
  8
Ｓ_１_１
  6
CONTINUOUS
 62
     3
100
AcDbVertex
100
AcDb2dVertex
 10
303.4203481674339
 20
220.050910965997
 30
0.0
  0
SEQEND
  5
347
330
343
100
AcDbEntity
  8
Ｓ_１_１
  6
CONTINUOUS
 62
     3
  0
LINE
  5
348
330
1F
100
AcDbEntity
  8
Ｓ_１_１
  6
CONTINUOUS
 62
     3
100
AcDbLine
 10
311.482525310913
 20
235.0868109137883
 30
0.0
 11
300.7808193887416
 21
216.5509125289262
 31
0.0
  0
LINE
  5
349
330
1F
100
AcDbEntity
  8
Ｓ_１_１
  6
CONTINUOUS
 62
     3
100
AcDbLine
 10
323.2767564058448
 20
208.586810634929
 30
0.0
 11
303.4203481674339
 21
220.050910965997
 31
0.0
  0
LINE
  5
34A
330
1F
100
AcDbEntity
  8
Ｓ_１_１
  6
CONTINUOUS
 62
     3
100
AcDbLine
 10
320.1013264060162
 20
203.086810664731
 30
0.0
 11
300.2449218928955
 21
214.5509109957991
 31
0.0
  0
CIRCLE
  5
34B
330
1F
100
AcDbEntity
  8
Ｓ_１_１
  6
CONTINUOUS
 62
     3
100
AcDbCircle
 10
204.6446609406703
 20
299.3553390593414
 30
0.0
 40
3.0
  0
CIRCLE
  5
34C
330
1F
100
AcDbEntity
  8
Ｓ_１_１
  6
CONTINUOUS
 62
     3
100
AcDbCircle
 10
204.6446609406703
 20
299.3553390593414
 30
0.0
 40
2.5
  0
CIRCLE
  5
34D
330
1F
100
AcDbEntity
  8
Ｓ_１_１
  6
CONTINUOUS
 62
     3
100
AcDbCircle
 10
275.3553390593254
 20
299.3553390593414
 30
0.0
 40
3.0
  0
CIRCLE
  5
34E
330
1F
100
AcDbEntity
  8
Ｓ_１_１
  6
CONTINUOUS
 62
     3
100
AcDbCircle
 10
275.3553390593254
 20
299.3553390593414
 30
0.0
 40
2.499999999999972
  0
CIRCLE
  5
34F
330
1F
100
AcDbEntity
  8
Ｓ_１_１
  6
CONTINUOUS
 62
     3
100
AcDbCircle
 10
275.3553390593253
 20
228.6446609406869
 30
0.0
 40
3.0
  0
CIRCLE
  5
350
330
1F
100
AcDbEntity
  8
Ｓ_１_１
  6
CONTINUOUS
 62
     3
100
AcDbCircle
 10
275.3553390593253
 20
228.6446609406869
 30
0.0
 40
2.5
  0
CIRCLE
  5
351
330
1F
100
AcDbEntity
  8
Ｓ_１_１
  6
CONTINUOUS
 62
     3
100
AcDbCircle
 10
204.6446609406707
 20
228.6446609406862
 30
0.0
 40
3.0
  0
CIRCLE
  5
352
330
1F
100
AcDbEntity
  8
Ｓ_１_１
  6
CONTINUOUS
 62
     3
100
AcDbCircle
 10
204.6446609406706
 20
228.6446609406868
 30
0.0
 40
2.50000000000003
  0
LINE
  5
353
330
1F
100
AcDbEntity
  8
Ｓ_１_１
  6
EXLTYPE2
 62
     1
100
AcDbLine
 10
208.1801948466027
 20
295.8198051534072
 30
0.0
 11
201.1091270347373
 21
302.8908729652726
 31
0.0
  0
LINE
  5
354
330
1F
100
AcDbEntity
  8
Ｓ_１_１
  6
EXLTYPE2
 62
     1
100
AcDbLine
 10
208.1801948466026
 20
232.1801948466217
 30
0.0
 11
201.1091270347372
 21
225.1091270347562
 31
0.0
  0
LINE
  5
355
330
1F
100
AcDbEntity
  8
Ｓ_１_１
  6
EXLTYPE2
 62
     1
100
AcDbLine
 10
271.8198051533888
 20
232.1801948466216
 30
0.0
 11
278.8908729652542
 21
225.1091270347561
 31
0.0
  0
LINE
  5
356
330
1F
100
AcDbEntity
  8
Ｓ_１_１
  6
EXLTYPE2
 62
     1
100
AcDbLine
 10
271.8198051533889
 20
295.8198051534071
 30
0.0
 11
278.8908729652543
 21
302.8908729652725
 31
0.0
  0
LINE
  5
357
330
1F
100
AcDbEntity
  8
Ｓ_１_１
  6
CONTINUOUS
 62
     3
100
AcDbLine
 10
296.26997840526
 20
222.36240244358
 30
0.0
 11
304.19420644527
 21
236.08756801964
 31
0.0
  0
LINE
  5
358
330
1F
100
AcDbEntity
  8
Ｓ_１_１
  6
CONTINUOUS
 62
     3
100
AcDbLine
 10
510.9999849999997
 20
224.0000000000094
 30
0.0
 11
510.9999849999997
 21
224.0000059696682
 31
0.0
  0
LINE
  5
359
330
1F
100
AcDbEntity
  8
Ｓ_１_１
  6
CONTINUOUS
 62
     3
100
AcDbLine
 10
510.9999849999997
 20
304.0000000000094
 30
0.0
 11
512.9999849999997
 21
304.0000000000094
 31
0.0
  0
LINE
  5
35A
330
1F
100
AcDbEntity
  8
Ｓ_１_１
  6
CONTINUOUS
 62
     3
100
AcDbLine
 10
511.0000049999996
 20
304.0000200000094
 30
0.0
 11
507.9999959999997
 21
302.2679640000094
 31
0.0
  0
LINE
  5
35B
330
1F
100
AcDbEntity
  8
Ｓ_１_１
  6
CONTINUOUS
 62
     3
100
AcDbLine
 10
511.0000039999996
 20
223.9999950000094
 30
0.0
 11
507.9999959999997
 21
225.7320510000094
 31
0.0
  0
LINE
  5
35C
330
1F
100
AcDbEntity
  8
Ｓ_１_１
  6
CONTINUOUS
 62
     3
100
AcDbLine
 10
512.9999849999997
 20
196.0000000000095
 30
0.0
 11
512.9999849999997
 21
224.0000000000094
 31
0.0
  0
LINE
  5
35D
330
1F
100
AcDbEntity
  8
Ｓ_１_１
  6
CONTINUOUS
 62
     3
100
AcDbLine
 10
647.9999999999998
 20
195.0000000000095
 30
0.0
 11
647.9999999999998
 21
333.0000000000094
 31
0.0
  0
LINE
  5
35E
330
1F
100
AcDbEntity
  8
Ｓ_１_１
  6
CONTINUOUS
 62
     3
100
AcDbLine
 10
510.9999849999997
 20
224.0000000000094
 30
0.0
 11
512.9999849999997
 21
224.0000000000094
 31
0.0
  0
LINE
  5
35F
330
1F
100
AcDbEntity
  8
Ｓ_１_１
  6
CONTINUOUS
 62
     3
100
AcDbLine
 10
514.9999889999997
 20
333.9999750000094
 30
0.0
 11
512.9999869999997
 21
331.9999730000094
 31
0.0
  0
LINE
  5
360
330
1F
100
AcDbEntity
  8
Ｓ_１_１
  6
CONTINUOUS
 62
     3
100
AcDbLine
 10
512.9999869999997
 20
196.0000010000094
 30
0.0
 11
514.9999889999997
 21
193.9999990000094
 31
0.0
  0
LINE
  5
361
330
1F
100
AcDbEntity
  8
Ｓ_１_１
  6
CONTINUOUS
 62
     3
100
AcDbLine
 10
646.9999999999998
 20
334.0000180000094
 30
0.0
 11
648.0000009999999
 21
333.0000170000094
 31
0.0
  0
LINE
  5
362
330
1F
100
AcDbEntity
  8
Ｓ_１_１
  6
CONTINUOUS
 62
     3
100
AcDbLine
 10
647.9999899999998
 20
195.0000110000094
 30
0.0
 11
646.9999679999999
 21
193.9999880000096
 31
0.0
  0
LINE
  5
363
330
1F
100
AcDbEntity
  8
Ｓ_１_１
  6
CONTINUOUS
 62
     3
100
AcDbLine
 10
514.9999849999997
 20
333.9999710000094
 30
0.0
 11
514.9999849999997
 21
334.0000000000094
 31
0.0
  0
LINE
  5
364
330
1F
100
AcDbEntity
  8
Ｓ_１_１
  6
EXLTYPE2
 62
     1
100
AcDbLine
 10
498.2186317621399
 20
264.0000000000094
 30
0.0
 11
652.9999999999998
 21
264.0000000000094
 31
0.0
  0
LINE
  5
365
330
1F
100
AcDbEntity
  8
Ｓ_１_１
  6
CONTINUOUS
 62
     3
100
AcDbLine
 10
502.9999849999999
 20
230.0000000000089
 30
0.0
 11
503.9999849999999
 21
229.0000000000089
 31
0.0
  0
LINE
  5
366
330
1F
100
AcDbEntity
  8
Ｓ_１_１
  6
CONTINUOUS
 62
     3
100
AcDbLine
 10
502.9999849999999
 20
298.00000000001
 30
0.0
 11
503.9999849999999
 21
299.00000000001
 31
0.0
  0
LINE
  5
367
330
1F
100
AcDbEntity
  8
Ｓ_１_１
  6
CONTINUOUS
 62
     3
100
AcDbLine
 10
502.9999849999997
 20
230.000000000009
 30
0.0
 11
502.9999849999997
 21
298.0000000000098
 31
0.0
  0
LINE
  5
368
330
1F
100
AcDbEntity
  8
Ｓ_１_１
  6
CONTINUOUS
 62
     3
100
AcDbLine
 10
507.9999849999997
 20
225.7320560000094
 30
0.0
 11
507.9999849999998
 21
302.2679576491566
 31
0.0
  0
LINE
  5
369
330
1F
100
AcDbEntity
  8
Ｓ_１_１
  6
CONTINUOUS
 62
     3
100
AcDbLine
 10
512.9999849999997
 20
197.2207640000095
 30
0.0
 11
512.9999849999997
 21
331.9999730000089
 31
0.0
  0
LINE
  5
36A
330
1F
100
AcDbEntity
  8
Ｓ_１_１
  6
CONTINUOUS
 62
     3
100
AcDbLine
 10
512.9999849999997
 20
304.0000000000094
 30
0.0
 11
510.9999849999997
 21
304.0000000000094
 31
0.0
  0
LINE
  5
36B
330
1F
100
AcDbEntity
  8
Ｓ_１_１
  6
CONTINUOUS
 62
     3
100
AcDbLine
 10
512.9999849999997
 20
224.0000000000094
 30
0.0
 11
510.9999849999997
 21
224.0000000000094
 31
0.0
  0
LINE
  5
36C
330
1F
100
AcDbEntity
  8
Ｓ_１_１
  6
CONTINUOUS
 62
     3
100
AcDbLine
 10
503.9999849999999
 20
229.0000000000089
 30
0.0
 11
507.9999849999997
 21
229.0000000000089
 31
0.0
  0
LINE
  5
36D
330
1F
100
AcDbEntity
  8
Ｓ_１_１
  6
CONTINUOUS
 62
     3
100
AcDbLine
 10
503.9999849999988
 20
299.0000000000089
 30
0.0
 11
507.9999849999997
 21
299.0000000000089
 31
0.0
  0
LINE
  5
36E
330
1F
100
AcDbEntity
  8
Ｓ_１_１
  6
CONTINUOUS
 62
     3
100
AcDbLine
 10
503.9999849999999
 20
299.0000000000089
 30
0.0
 11
503.9999849999999
 21
229.0000000000089
 31
0.0
  0
LINE
  5
36F
330
1F
100
AcDbEntity
  8
Ｓ_１_１
  6
CONTINUOUS
 62
     3
100
AcDbLine
 10
510.9999849999999
 20
224.0000059696689
 30
0.0
 11
510.9999849999999
 21
304.0000000000089
 31
0.0
  0
LINE
  5
370
330
1F
100
AcDbEntity
  8
Ｓ_１_１
  6
CONTINUOUS
 62
     3
100
AcDbLine
 10
647.000018
 20
334.0000000000089
 30
0.0
 11
647.000018
 21
194.0000000000095
 31
0.0
  0
LINE
  5
371
330
1F
100
AcDbEntity
  8
Ｓ_１_１
  6
CONTINUOUS
 62
     3
100
AcDbLine
 10
540.9999858376399
 20
208.58681063493
 30
0.0
 11
540.9999858376399
 21
231.05091090639
 31
0.0
  0
LINE
  5
372
330
1F
100
AcDbEntity
  8
Ｓ_１_１
  6
CONTINUOUS
 62
     3
100
AcDbLine
 10
562.9999841623599
 20
208.58681063493
 30
0.0
 11
562.9999841623599
 21
231.05091090639
 31
0.0
  0
LINE
  5
373
330
1F
100
AcDbEntity
  8
Ｓ_１_１
  6
CONTINUOUS
 62
     3
100
AcDbLine
 10
543.4999836776699
 20
206.94845285491
 30
0.0
 11
551.9999849999999
 21
202.6984566017
 31
0.0
  0
LINE
  5
374
330
1F
100
AcDbEntity
  8
Ｓ_１_１
  6
CONTINUOUS
 62
     3
100
AcDbLine
 10
551.9999849999999
 20
202.6984566017
 30
0.0
 11
560.49998632232
 21
206.94845285491
 31
0.0
  0
LINE
  5
375
330
1F
100
AcDbEntity
  8
Ｓ_１_１
  6
CONTINUOUS
 62
     3
100
AcDbLine
 10
540.9999858376399
 20
208.58681063493
 30
0.0
 11
543.4999836776699
 21
207.3368116265014
 31
0.0
  0
LINE
  5
376
330
1F
100
AcDbEntity
  8
Ｓ_１_１
  6
CONTINUOUS
 62
     3
100
AcDbLine
 10
560.49998632232
 20
207.3368116264964
 30
0.0
 11
562.9999841623599
 21
208.58681063493
 31
0.0
  0
ELLIPSE
  5
377
330
1F
100
AcDbEntity
  8
Ｓ_１_１
  6
CONTINUOUS
 62
     3
100
AcDbEllipse
 10
551.9999849999999
 20
213.81884428366
 30
0.0
 11
-10.99999916235998
 21
-3.537869559883023E-15
 31
0.0
210
0.0
220
0.0
230
1.0
 40
0.8425399417822883
 41
2.453923283768897
 42
6.97085467699906
  0
LINE
  5
378
330
1F
100
AcDbEntity
  8
Ｓ_１_１
  6
CONTINUOUS
 62
     3
100
AcDbLine
 10
543.4999836776699
 20
206.94845285491
 30
0.0
 11
543.4999836776699
 21
217.68926698511
 31
0.0
  0
LINE
  5
379
330
1F
100
AcDbEntity
  8
Ｓ_１_１
  6
CONTINUOUS
 62
     3
100
AcDbLine
 10
560.49998632232
 20
206.94845285491
 30
0.0
 11
560.49998632232
 21
217.68926698511
 31
0.0
  0
ELLIPSE
  5
37A
330
1F
100
AcDbEntity
  8
Ｓ_１_１
  6
CONTINUOUS
 62
     3
100
AcDbEllipse
 10
551.9999849999999
 20
210.818861971925
 30
0.0
 11
-8.500001322336487
 21
-2.733808929746133E-15
 31
0.0
210
0.0
220
0.0
230
1.0
 40
0.8660252726468456
 41
1.347179232492069
 42
1.794413421097285
  0
ELLIPSE
  5
37B
330
1F
100
AcDbEntity
  8
Ｓ_１_１
  6
CONTINUOUS
 62
     3
100
AcDbEllipse
 10
551.9999849999999
 20
210.818861971925
 30
0.0
 11
-8.500001322336487
 21
-2.733808929746133E-15
 31
0.0
210
0.0
220
0.0
230
1.0
 40
0.8660252726468456
 41
2.39437601661557
 42
7.030401944155262
  0
ARC
  5
37C
330
1F
100
AcDbEntity
  8
Ｓ_１_１
  6
CONTINUOUS
 62
     3
100
AcDbCircle
 10
532.9751405658833
 20
247.1231454347266
 30
0.0
 40
33.37750742416203
100
AcDbArc
 50
288.3805806220034
 51
304.7495262898764
  0
ARC
  5
37D
330
1F
100
AcDbEntity
  8
Ｓ_１_１
  6
CONTINUOUS
 62
     3
100
AcDbCircle
 10
571.0248294341163
 20
247.1231454347266
 30
0.0
 40
33.37750742416203
100
AcDbArc
 50
235.2504737101236
 51
251.6194193779966
  0
ARC
  5
37E
330
1F
100
AcDbEntity
  8
Ｓ_１_１
  6
CONTINUOUS
 62
     3
100
AcDbCircle
 10
563.8885455912484
 20
187.5371482316096
 30
0.0
 40
36.39840274282673
100
AcDbArc
 50
109.0639414639108
 51
124.0661654479691
  0
ARC
  5
37F
330
1F
100
AcDbEntity
  8
Ｓ_１_１
  6
CONTINUOUS
 62
     3
100
AcDbCircle
 10
540.1114244087508
 20
187.5371482316096
 30
0.0
 40
36.39840274282673
100
AcDbArc
 50
55.93383455203092
 51
70.93605853608929
  0
ARC
  5
380
330
1F
100
AcDbEntity
  8
Ｓ_１_１
  6
CONTINUOUS
 62
     3
100
AcDbCircle
 10
529.4874244913128
 20
256.9811506456296
 30
0.0
 40
39.03926627228988
100
AcDbArc
 50
287.1513593645221
 51
305.2162844470827
  0
ARC
  5
381
330
1F
100
AcDbEntity
  8
Ｓ_１_１
  6
CONTINUOUS
 62
     3
100
AcDbCircle
 10
574.5125455086869
 20
256.9811506456296
 30
0.0
 40
39.03926627228988
100
AcDbArc
 50
234.7837155529173
 51
252.8486406354779
  0
ARC
  5
382
330
1F
100
AcDbEntity
  8
Ｓ_１_１
  6
CONTINUOUS
 62
     3
100
AcDbCircle
 10
573.2722766530862
 20
179.3080343081657
 30
0.0
 40
60.98217799599983
100
AcDbArc
 50
110.4156475769445
 51
121.9519962346603
  0
ARC
  5
383
330
1F
100
AcDbEntity
  8
Ｓ_１_１
  6
CONTINUOUS
 62
     3
100
AcDbCircle
 10
530.7276933469132
 20
179.3080343081657
 30
0.0
 40
60.98217799599983
100
AcDbArc
 50
58.04800376533972
 51
69.58435242305552
  0
ELLIPSE
  5
384
330
1F
100
AcDbEntity
  8
Ｓ_１_１
  6
CONTINUOUS
 62
     3
100
AcDbEllipse
 10
551.9999849999999
 20
229.22498522623
 30
0.0
 11
-7.92731435372997
 21
-2.549618752667975E-15
 31
0.0
210
0.0
220
0.0
230
1.0
 40
0.8656882378949684
 41
-1.423578013085901
 42
-0.7714194400301944
  0
ELLIPSE
  5
385
330
1F
100
AcDbEntity
  8
Ｓ_１_１
  6
CONTINUOUS
 62
     3
100
AcDbEllipse
 10
551.9999849999999
 20
229.22498522623
 30
0.0
 11
-7.92731435372997
 21
-2.549618752667975E-15
 31
0.0
210
0.0
220
0.0
230
1.0
 40
0.8656882378949684
 41
3.913012093619886
 42
4.56517066667578
  0
ELLIPSE
  5
386
330
1F
100
AcDbEntity
  8
Ｓ_１_１
  6
CONTINUOUS
 62
     3
100
AcDbEllipse
 10
551.9999849999999
 20
207.8188613055
 30
0.0
 11
-4.172006629240001
 21
5.109234564520305E-16
 31
0.0
210
0.0
220
0.0
230
1.0
 40
0.8581782732503034
 41
0.0
 42
6.283185307179586
  0
ELLIPSE
  5
387
330
1F
100
AcDbEntity
  8
Ｓ_１_１
  6
CONTINUOUS
 62
     3
100
AcDbEllipse
 10
551.9999849999999
 20
208.05788431695
 30
0.0
 11
-5.000001516949968
 21
-1.608123137564957E-15
 31
0.0
210
0.0
220
0.0
230
1.0
 40
0.8660262892562892
 41
0.0
 42
6.283185307179586
  0
LINE
  5
388
330
1F
100
AcDbEntity
  8
Ｓ_１_１
  6
CONTINUOUS
 62
     3
100
AcDbLine
 10
546.9999834830498
 20
210.81885615739
 30
0.0
 11
546.9999834830498
 21
208.05788431695
 31
0.0
  0
LINE
  5
389
330
1F
100
AcDbEntity
  8
Ｓ_１_１
  6
CONTINUOUS
 62
     3
100
AcDbLine
 10
556.9999865169493
 20
210.81885615739
 30
0.0
 11
556.9999865169493
 21
208.05788431695
 31
0.0
  0
ELLIPSE
  5
38A
330
1F
100
AcDbEntity
  8
Ｓ_１_１
  6
CONTINUOUS
 62
     3
100
AcDbEllipse
 10
551.9999849999999
 20
210.81885615739
 30
0.0
 11
-5.000001516949968
 21
-1.608123137564957E-15
 31
0.0
210
0.0
220
0.0
230
1.0
 40
0.8660262892562892
 41
3.141592653589793
 42
6.283185307179586
  0
LINE
  5
38B
330
1F
100
AcDbEntity
  8
Ｓ_１_１
  6
CONTINUOUS
 62
     3
100
AcDbLine
 10
549.11323365405
 20
207.8188613055
 30
0.0
 11
550.5566093270199
 21
210.3188613055
 31
0.0
  0
LINE
  5
38C
330
1F
100
AcDbEntity
  8
Ｓ_１_１
  6
CONTINUOUS
 62
     3
100
AcDbLine
 10
549.11323365405
 20
207.8188613055
 30
0.0
 11
550.5566093270199
 21
205.3188613055
 31
0.0
  0
LINE
  5
38D
330
1F
100
AcDbEntity
  8
Ｓ_１_１
  6
CONTINUOUS
 62
     3
100
AcDbLine
 10
554.8867363459494
 20
207.8188613055
 30
0.0
 11
553.4433606729795
 21
210.3188613055
 31
0.0
  0
LINE
  5
38E
330
1F
100
AcDbEntity
  8
Ｓ_１_１
  6
CONTINUOUS
 62
     3
100
AcDbLine
 10
554.8867363459494
 20
207.8188613055
 30
0.0
 11
553.4433606729795
 21
205.3188613055
 31
0.0
  0
LINE
  5
38F
330
1F
100
AcDbEntity
  8
Ｓ_１_１
  6
CONTINUOUS
 62
     3
100
AcDbLine
 10
550.5566093270199
 20
210.3188613055
 30
0.0
 11
553.4433606729795
 21
210.3188613055
 31
0.0
  0
LINE
  5
390
330
1F
100
AcDbEntity
  8
Ｓ_１_１
  6
CONTINUOUS
 62
     3
100
AcDbLine
 10
550.5566093270199
 20
205.3188613055
 30
0.0
 11
553.4433606729795
 21
205.3188613055
 31
0.0
  0
LINE
  5
391
330
1F
100
AcDbEntity
  8
Ｓ_１_１
  6
CONTINUOUS
 62
     3
100
AcDbLine
 10
550.5566093270199
 20
209.06866347232
 30
0.0
 11
553.4433606729795
 21
209.06866347232
 31
0.0
  0
LINE
  5
392
330
1F
100
AcDbEntity
  8
Ｓ_１_１
  6
CONTINUOUS
 62
     3
100
AcDbLine
 10
550.1957082992576
 20
209.69376238891
 30
0.0
 11
550.5566093270199
 21
209.06866347232
 31
0.0
  0
LINE
  5
393
330
1F
100
AcDbEntity
  8
Ｓ_１_１
  6
CONTINUOUS
 62
     3
100
AcDbLine
 10
550.5566093270199
 20
205.3188613055
 30
0.0
 11
550.5566093270199
 21
209.06866347232
 31
0.0
  0
LINE
  5
394
330
1F
100
AcDbEntity
  8
Ｓ_１_１
  6
CONTINUOUS
 62
     3
100
AcDbLine
 10
553.4433606729799
 20
205.3188613055
 30
0.0
 11
553.4433606729799
 21
209.0686634723209
 31
0.0
  0
LINE
  5
395
330
1F
100
AcDbEntity
  8
Ｓ_１_１
  6
CONTINUOUS
 62
     3
100
AcDbLine
 10
553.8042617007418
 20
209.69376238891
 30
0.0
 11
553.4433606729795
 21
209.06866347232
 31
0.0
  0
LINE
  5
396
330
1F
100
AcDbEntity
  8
Ｓ_１_１
  6
CONTINUOUS
 62
     3
100
AcDbLine
 10
514.9999879999999
 20
194.0000000000095
 30
0.0
 11
646.9999999999998
 21
194.0000000000095
 31
0.0
  0
LINE
  5
397
330
1F
100
AcDbEntity
  8
Ｓ_１_１
  6
CONTINUOUS
 62
     3
100
AcDbLine
 10
551.9999529999993
 20
277.8564880000098
 30
0.0
 11
539.9997869999995
 21
270.9281890000099
 31
0.0
  0
LINE
  5
398
330
1F
100
AcDbEntity
  8
Ｓ_１_１
  6
CONTINUOUS
 62
     3
100
AcDbLine
 10
564.0001089999994
 20
270.9282270000098
 30
0.0
 11
551.9998639999994
 21
277.8565720000099
 31
0.0
  0
LINE
  5
399
330
1F
100
AcDbEntity
  8
Ｓ_１_１
  6
CONTINUOUS
 62
     3
100
AcDbLine
 10
540.0000459999994
 20
257.0717770000098
 30
0.0
 11
540.0000459999994
 21
270.9282230000098
 31
0.0
  0
LINE
  5
39A
330
1F
100
AcDbEntity
  8
Ｓ_１_１
  6
CONTINUOUS
 62
     3
100
AcDbLine
 10
551.9999869999995
 20
250.1434060000099
 30
0.0
 11
539.9997419999995
 21
257.0717510000099
 31
0.0
  0
LINE
  5
39B
330
1F
100
AcDbEntity
  8
Ｓ_１_１
  6
CONTINUOUS
 62
     3
100
AcDbLine
 10
564.0000139999995
 20
257.0717730000098
 30
0.0
 11
551.9998479999995
 21
250.1434740000099
 31
0.0
  0
LINE
  5
39C
330
1F
100
AcDbEntity
  8
Ｓ_１_１
  6
CONTINUOUS
 62
     3
100
AcDbLine
 10
563.9999239999995
 20
270.9282230000098
 30
0.0
 11
563.9999239999995
 21
257.0717770000098
 31
0.0
  0
CIRCLE
  5
39D
330
1F
100
AcDbEntity
  8
Ｓ_１_１
  6
CONTINUOUS
 62
     3
100
AcDbCircle
 10
551.9999849999995
 20
264.0000000000099
 30
0.0
 40
9.00004
  0
CIRCLE
  5
39E
330
1F
100
AcDbEntity
  8
Ｓ_１_１
  6
CONTINUOUS
 62
     3
100
AcDbCircle
 10
551.9999849999995
 20
264.0000000000099
 30
0.0
 40
5.499979000000002
  0
CIRCLE
  5
39F
330
1F
100
AcDbEntity
  8
Ｓ_１_１
  6
CONTINUOUS
 62
     3
100
AcDbCircle
 10
551.9999849999995
 20
264.0000000000099
 30
0.0
 40
1.500041
  0
CIRCLE
  5
3A0
330
1F
100
AcDbEntity
  8
Ｓ_１_１
  6
CONTINUOUS
 62
     3
100
AcDbCircle
 10
551.9999849999995
 20
264.0000000000099
 30
0.0
 40
11.74997900000001
  0
LINE
  5
3A1
330
1F
100
AcDbEntity
  8
Ｓ_１_１
  6
EXLTYPE6
 62
     1
100
AcDbLine
 10
551.9999849999997
 20
280.0000000000099
 30
0.0
 11
551.9999849999997
 21
248.0000000000099
 31
0.0
  0
CIRCLE
  5
3A2
330
1F
100
AcDbEntity
  8
Ｓ_１_１
  6
CONTINUOUS
 62
     3
100
AcDbCircle
 10
597.9999849999995
 20
264.0000000000099
 30
0.0
 40
12.00002
  0
CIRCLE
  5
3A3
330
1F
100
AcDbEntity
  8
Ｓ_１_１
  6
CONTINUOUS
 62
     3
100
AcDbCircle
 10
597.9999849999995
 20
264.0000000000099
 30
0.0
 40
12.999939
  0
CIRCLE
  5
3A4
330
1F
100
AcDbEntity
  8
Ｓ_１_１
  6
CONTINUOUS
 62
     3
100
AcDbCircle
 10
597.9999849999995
 20
264.0000000000099
 30
0.0
 40
16.00008
  0
LINE
  5
3A5
330
1F
100
AcDbEntity
  8
Ｓ_１_１
  6
EXLTYPE6
 62
     1
100
AcDbLine
 10
597.9999849999997
 20
284.0000000000101
 30
0.0
 11
597.9999849999997
 21
244.00000000001
 31
0.0
  0
LINE
  5
3A6
330
1F
100
AcDbEntity
  8
Ｓ_１_１
  6
CONTINUOUS
 62
     3
100
AcDbLine
 10
551.9999849999999
 20
225.08681054552
 30
0.0
 11
551.9999849999999
 21
236.4597240553798
 31
0.0
  0
LINE
  5
3A7
330
1F
100
AcDbEntity
  8
Ｓ_１_１
  6
EXLTYPE2
 62
     1
100
AcDbLine
 10
551.9999849999999
 20
200.40000000001
 30
0.0
 11
551.9999849999999
 21
239.72000000001
 31
0.0
  0
LINE
  5
3A8
330
1F
100
AcDbEntity
  8
Ｓ_１_１
  6
CONTINUOUS
 62
     3
100
AcDbLine
 10
510.9999849999997
 20
304.0000000000103
 30
0.0
 11
512.9999849999997
 21
304.0000000000103
 31
0.0
  0
LINE
  5
3A9
330
1F
100
AcDbEntity
  8
Ｓ_１_１
  6
CONTINUOUS
 62
     3
100
AcDbLine
 10
512.9999849999997
 20
304.0000000000103
 30
0.0
 11
510.9999849999997
 21
304.0000000000103
 31
0.0
  0
LINE
  5
3AA
330
1F
100
AcDbEntity
  8
Ｓ_１_１
  6
CONTINUOUS
 62
     3
100
AcDbLine
 10
512.9999849999997
 20
300.3359209960498
 30
0.0
 11
540.9999849999999
 21
300.3359209960499
 31
0.0
  0
LINE
  5
3AB
330
1F
100
AcDbEntity
  8
Ｓ_１_１
  6
CONTINUOUS
 62
     3
100
AcDbLine
 10
540.9999849999999
 20
300.3359209960499
 30
0.0
 11
540.9999849999999
 21
323.8306012452799
 31
0.0
  0
LINE
  5
3AC
330
1F
100
AcDbEntity
  8
Ｓ_１_１
  6
CONTINUOUS
 62
     3
100
AcDbLine
 10
539.9999849999999
 20
323.8306012452799
 30
0.0
 11
540.9999849999999
 21
323.8306012452799
 31
0.0
  0
LINE
  5
3AD
330
1F
100
AcDbEntity
  8
Ｓ_１_１
  6
CONTINUOUS
 62
     3
100
AcDbLine
 10
512.9999849999997
 20
323.8306012452798
 30
0.0
 11
513.9999849999999
 21
323.8306012452798
 31
0.0
  0
LINE
  5
3AE
330
1F
100
AcDbEntity
  8
Ｓ_１_１
  6
CONTINUOUS
 62
     3
100
AcDbLine
 10
513.9999849999999
 20
304.6586399181598
 30
0.0
 11
514.9999849999999
 21
303.9515331369798
 31
0.0
  0
LINE
  5
3AF
330
1F
100
AcDbEntity
  8
Ｓ_１_１
  6
CONTINUOUS
 62
     3
100
AcDbLine
 10
514.9999849999999
 20
303.9515331369798
 30
0.0
 11
514.9999849999999
 21
300.7695526215698
 31
0.0
  0
LINE
  5
3B0
330
1F
100
AcDbEntity
  8
Ｓ_１_１
  6
CONTINUOUS
 62
     3
100
AcDbLine
 10
513.9999849999999
 20
301.4766594027499
 30
0.0
 11
514.9999849999999
 21
300.7695526215698
 31
0.0
  0
LINE
  5
3B1
330
1F
100
AcDbEntity
  8
Ｓ_１_１
  6
CONTINUOUS
 62
     3
100
AcDbLine
 10
539.9999849999999
 20
304.6586399181598
 30
0.0
 11
538.9999849999999
 21
303.9515331369799
 31
0.0
  0
LINE
  5
3B2
330
1F
100
AcDbEntity
  8
Ｓ_１_１
  6
CONTINUOUS
 62
     3
100
AcDbLine
 10
539.9999849999999
 20
301.4766594027499
 30
0.0
 11
538.9999849999999
 21
300.7695526215699
 31
0.0
  0
LINE
  5
3B3
330
1F
100
AcDbEntity
  8
Ｓ_１_１
  6
CONTINUOUS
 62
     3
100
AcDbLine
 10
538.9999849999999
 20
303.9515331369799
 30
0.0
 11
538.9999849999999
 21
300.7695526215699
 31
0.0
  0
LINE
  5
3B4
330
1F
100
AcDbEntity
  8
Ｓ_１_１
  6
CONTINUOUS
 62
     3
100
AcDbLine
 10
514.9999849999999
 20
303.9515331369798
 30
0.0
 11
538.9999849999999
 21
303.9515331369799
 31
0.0
  0
LINE
  5
3B5
330
1F
100
AcDbEntity
  8
Ｓ_１_１
  6
CONTINUOUS
 62
     3
100
AcDbLine
 10
514.9999849999999
 20
300.7695526215698
 30
0.0
 11
538.9999849999999
 21
300.7695526215699
 31
0.0
  0
LINE
  5
3B6
330
1F
100
AcDbEntity
  8
Ｓ_１_１
  6
CONTINUOUS
 62
     3
100
AcDbLine
 10
515.0000139999999
 20
326.5789501349499
 30
0.0
 11
513.9999849999999
 21
325.8718433537598
 31
0.0
  0
LINE
  5
3B7
330
1F
100
AcDbEntity
  8
Ｓ_１_１
  6
CONTINUOUS
 62
     3
100
AcDbLine
 10
513.9999849999999
 20
301.4766594027499
 30
0.0
 11
513.9999849999999
 21
325.8718433537598
 31
0.0
  0
LINE
  5
3B8
330
1F
100
AcDbEntity
  8
Ｓ_１_１
  6
CONTINUOUS
 62
     3
100
AcDbLine
 10
538.9999559999999
 20
326.5789501349499
 30
0.0
 11
539.9999849999999
 21
325.8718433537599
 31
0.0
  0
LINE
  5
3B9
330
1F
100
AcDbEntity
  8
Ｓ_１_１
  6
CONTINUOUS
 62
     3
100
AcDbLine
 10
539.9999849999999
 20
301.4766594027499
 30
0.0
 11
539.9999849999999
 21
325.8718433537599
 31
0.0
  0
ARC
  5
3BA
330
1F
100
AcDbEntity
  8
Ｓ_１_１
  6
CONTINUOUS
 62
     3
100
AcDbCircle
 10
526.9999849999999
 20
319.5304832720599
 30
0.0
 40
4.5
100
AcDbArc
 50
180.0
 51
0.0000000000001146
  0
LINE
  5
3BB
330
1F
100
AcDbEntity
  8
Ｓ_１_１
  6
CONTINUOUS
 62
     3
100
AcDbLine
 10
522.4999849999999
 20
370.5304832720698
 30
0.0
 11
522.4999849999999
 21
319.5304832720599
 31
0.0
  0
LINE
  5
3BC
330
1F
100
AcDbEntity
  8
Ｓ_１_１
  6
CONTINUOUS
 62
     3
100
AcDbLine
 10
531.4999849999999
 20
370.5304832720698
 30
0.0
 11
531.4999849999999
 21
319.5304832720599
 31
0.0
  0
ARC
  5
3BD
330
1F
100
AcDbEntity
  8
Ｓ_１_１
  6
CONTINUOUS
 62
     3
100
AcDbCircle
 10
526.9999849999999
 20
370.5304832720698
 30
0.0
 40
4.5
100
AcDbArc
 50
0.0
 51
180.0
  0
LINE
  5
3BE
330
1F
100
AcDbEntity
  8
Ｓ_１_１
  6
CONTINUOUS
 62
     3
100
AcDbLine
 10
515.0000139999999
 20
326.5789501349499
 30
0.0
 11
522.4999849999999
 21
326.5789501349499
 31
0.0
  0
LINE
  5
3BF
330
1F
100
AcDbEntity
  8
Ｓ_１_１
  6
CONTINUOUS
 62
     3
100
AcDbLine
 10
531.4999849999999
 20
326.5789501349499
 30
0.0
 11
538.9999559999999
 21
326.5789501349499
 31
0.0
  0
ARC
  5
3C0
330
1F
100
AcDbEntity
  8
Ｓ_１_１
  6
EXLTYPE0
 62
     2
100
AcDbCircle
 10
526.9999849999999
 20
370.5304832720698
 30
0.0
 40
4.5
100
AcDbArc
 50
180.0
 51
0.0
  0
ELLIPSE
  5
3C1
330
1F
100
AcDbEntity
  8
Ｓ_１_１
  6
CONTINUOUS
 62
     3
100
AcDbEllipse
 10
520.9999849999999
 20
312.8610785799598
 30
0.0
 11
-5.0
 21
-1.608122649676637E-15
 31
0.0
210
0.0
220
0.0
230
1.0
 40
0.7071067811799991
 41
0.0
 42
6.283185307179586
  0
ELLIPSE
  5
3C2
330
1F
100
AcDbEntity
  8
Ｓ_１_１
  6
CONTINUOUS
 62
     3
100
AcDbEllipse
 10
520.999985000055
 20
313.1439212924398
 30
0.0
 11
4.307179676974984
 21
0.0
 31
0.0
210
0.0
220
0.0
230
1.0
 40
0.7071067811754291
 41
0.0
 42
6.283185307179586
  0
ELLIPSE
  5
3C3
330
1F
100
AcDbEntity
  8
Ｓ_１_１
  6
CONTINUOUS
 62
     3
100
AcDbEllipse
 10
520.9999849999999
 20
308.9012806052498
 30
0.0
 11
-5.0
 21
-1.608122649676637E-15
 31
0.0
210
0.0
220
0.0
230
1.0
 40
0.7071067811799991
 41
0.0
 42
3.141592653589793
  0
LINE
  5
3C4
330
1F
100
AcDbEntity
  8
Ｓ_１_１
  6
CONTINUOUS
 62
     3
100
AcDbLine
 10
525.9999849999999
 20
312.8610785799598
 30
0.0
 11
525.9999849999999
 21
308.9012806052498
 31
0.0
  0
LINE
  5
3C5
330
1F
100
AcDbEntity
  8
Ｓ_１_１
  6
CONTINUOUS
 62
     3
100
AcDbLine
 10
515.9999849999999
 20
312.8610785799598
 30
0.0
 11
515.9999849999999
 21
308.9012806052498
 31
0.0
  0
LINE
  5
3C6
330
1F
100
AcDbEntity
  8
Ｓ_１_１
  6
CONTINUOUS
 62
     3
100
AcDbLine
 10
519.55660932703
 20
314.8889141290998
 30
0.0
 11
518.1132336540498
 21
313.1439212924398
 31
0.0
  0
LINE
  5
3C7
330
1F
100
AcDbEntity
  8
Ｓ_１_１
  6
CONTINUOUS
 62
     3
100
AcDbLine
 10
518.1132336540498
 20
313.1439212924398
 30
0.0
 11
519.55660932703
 21
311.3761543394698
 31
0.0
  0
LINE
  5
3C8
330
1F
100
AcDbEntity
  8
Ｓ_１_１
  6
CONTINUOUS
 62
     3
100
AcDbLine
 10
522.4433606729699
 20
314.8889141290998
 30
0.0
 11
523.8867363459499
 21
313.1439212924398
 31
0.0
  0
LINE
  5
3C9
330
1F
100
AcDbEntity
  8
Ｓ_１_１
  6
CONTINUOUS
 62
     3
100
AcDbLine
 10
523.8867363459499
 20
313.1439212924398
 30
0.0
 11
522.4433606729699
 21
311.3761543394698
 31
0.0
  0
LINE
  5
3CA
330
1F
100
AcDbEntity
  8
Ｓ_１_１
  6
CONTINUOUS
 62
     3
100
AcDbLine
 10
519.55660932703
 20
311.3761543394698
 30
0.0
 11
522.4433606729699
 21
311.3761543394698
 31
0.0
  0
LINE
  5
3CB
330
1F
100
AcDbEntity
  8
Ｓ_１_１
  6
CONTINUOUS
 62
     3
100
AcDbLine
 10
519.55660932703
 20
314.8889141290998
 30
0.0
 11
522.4433606729699
 21
314.8889141290998
 31
0.0
  0
LINE
  5
3CC
330
1F
100
AcDbEntity
  8
Ｓ_１_１
  6
CONTINUOUS
 62
     3
100
AcDbLine
 10
519.55660932703
 20
314.8889141290998
 30
0.0
 11
519.55660932703
 21
311.3761543394698
 31
0.0
  0
LINE
  5
3CD
330
1F
100
AcDbEntity
  8
Ｓ_１_１
  6
CONTINUOUS
 62
     3
100
AcDbLine
 10
522.4433606729699
 20
314.8889141290998
 30
0.0
 11
522.4433606729699
 21
311.3761543394698
 31
0.0
  0
ELLIPSE
  5
3CE
330
1F
100
AcDbEntity
  8
Ｓ_１_１
  6
CONTINUOUS
 62
     3
100
AcDbEllipse
 10
532.9999849999999
 20
312.8610785799598
 30
0.0
 11
-5.0
 21
-1.608122649676637E-15
 31
0.0
210
0.0
220
0.0
230
1.0
 40
0.7071067811799991
 41
0.0
 42
6.283185307179586
  0
ELLIPSE
  5
3CF
330
1F
100
AcDbEntity
  8
Ｓ_１_１
  6
CONTINUOUS
 62
     3
100
AcDbEllipse
 10
532.999985000055
 20
313.1439212924399
 30
0.0
 11
4.307179676974984
 21
0.0
 31
0.0
210
0.0
220
0.0
230
1.0
 40
0.7071067811754291
 41
0.0
 42
6.283185307179586
  0
ELLIPSE
  5
3D0
330
1F
100
AcDbEntity
  8
Ｓ_１_１
  6
CONTINUOUS
 62
     3
100
AcDbEllipse
 10
532.9999849999999
 20
308.9012806052498
 30
0.0
 11
-5.0
 21
-1.608122649676637E-15
 31
0.0
210
0.0
220
0.0
230
1.0
 40
0.7071067811799991
 41
0.0
 42
3.141592653589793
  0
LINE
  5
3D1
330
1F
100
AcDbEntity
  8
Ｓ_１_１
  6
CONTINUOUS
 62
     3
100
AcDbLine
 10
537.9999849999999
 20
312.8610785799598
 30
0.0
 11
537.9999849999999
 21
308.9012806052498
 31
0.0
  0
LINE
  5
3D2
330
1F
100
AcDbEntity
  8
Ｓ_１_１
  6
CONTINUOUS
 62
     3
100
AcDbLine
 10
527.9999849999999
 20
312.8610785799598
 30
0.0
 11
527.9999849999999
 21
308.9012806052498
 31
0.0
  0
LINE
  5
3D3
330
1F
100
AcDbEntity
  8
Ｓ_１_１
  6
CONTINUOUS
 62
     3
100
AcDbLine
 10
531.55660932703
 20
314.8889141290999
 30
0.0
 11
530.1132336540498
 21
313.1439212924399
 31
0.0
  0
LINE
  5
3D4
330
1F
100
AcDbEntity
  8
Ｓ_１_１
  6
CONTINUOUS
 62
     3
100
AcDbLine
 10
530.1132336540498
 20
313.1439212924399
 30
0.0
 11
531.55660932703
 21
311.3761543394699
 31
0.0
  0
LINE
  5
3D5
330
1F
100
AcDbEntity
  8
Ｓ_１_１
  6
CONTINUOUS
 62
     3
100
AcDbLine
 10
534.4433606729699
 20
314.8889141290999
 30
0.0
 11
535.8867363459499
 21
313.1439212924399
 31
0.0
  0
LINE
  5
3D6
330
1F
100
AcDbEntity
  8
Ｓ_１_１
  6
CONTINUOUS
 62
     3
100
AcDbLine
 10
535.8867363459499
 20
313.1439212924399
 30
0.0
 11
534.4433606729699
 21
311.3761543394699
 31
0.0
  0
LINE
  5
3D7
330
1F
100
AcDbEntity
  8
Ｓ_１_１
  6
CONTINUOUS
 62
     3
100
AcDbLine
 10
531.55660932703
 20
311.3761543394699
 30
0.0
 11
534.4433606729699
 21
311.3761543394699
 31
0.0
  0
LINE
  5
3D8
330
1F
100
AcDbEntity
  8
Ｓ_１_１
  6
CONTINUOUS
 62
     3
100
AcDbLine
 10
531.55660932703
 20
314.8889141290999
 30
0.0
 11
531.55660932703
 21
311.3761543394699
 31
0.0
  0
LINE
  5
3D9
330
1F
100
AcDbEntity
  8
Ｓ_１_１
  6
CONTINUOUS
 62
     3
100
AcDbLine
 10
534.4433606729699
 20
314.8889141290999
 30
0.0
 11
534.4433606729699
 21
311.3761543394699
 31
0.0
  0
LINE
  5
3DA
330
1F
100
AcDbEntity
  8
Ｓ_１_１
  6
CONTINUOUS
 62
     3
100
AcDbLine
 10
531.55660932703
 20
314.8889141290999
 30
0.0
 11
534.4433606729699
 21
314.8889141290999
 31
0.0
  0
LINE
  5
3DB
330
1F
100
AcDbEntity
  8
Ｓ_１_１
  6
EXLTYPE2
 62
     1
100
AcDbLine
 10
520.9999849999999
 20
317.1600000000099
 30
0.0
 11
520.9999849999999
 21
294.3400000000098
 31
0.0
  0
LINE
  5
3DC
330
1F
100
AcDbEntity
  8
Ｓ_１_１
  6
EXLTYPE2
 62
     1
100
AcDbLine
 10
532.9999849999999
 20
317.1600000000099
 30
0.0
 11
532.9999849999999
 21
294.3400000000098
 31
0.0
  0
LINE
  5
3DD
330
1F
100
AcDbEntity
  8
Ｓ_１_１
  6
EXLTYPE2
 62
     1
100
AcDbLine
 10
526.9999849999999
 20
310.8000000000098
 30
0.0
 11
526.9999849999999
 21
379.2000000000098
 31
0.0
  0
LINE
  5
3DE
330
1F
100
AcDbEntity
  8
Ｓ_１_１
  6
CONTINUOUS
 62
     3
100
AcDbLine
 10
514.9999879999999
 20
326.5789317507067
 30
0.0
 11
514.9999879999999
 21
334.0000000000094
 31
0.0
  0
LINE
  5
3DF
330
1F
100
AcDbEntity
  8
Ｓ_１_１
  6
CONTINUOUS
 62
     3
100
AcDbLine
 10
514.9999879999999
 20
194.0000000000089
 30
0.0
 11
514.9999879999999
 21
300.3359209960498
 31
0.0
  0
LINE
  5
3E0
330
1F
100
AcDbEntity
  8
Ｓ_１_１
  6
CONTINUOUS
 62
     3
100
AcDbLine
 10
514.9999849999997
 20
334.0000000000094
 30
0.0
 11
522.4999849999999
 21
334.0000000000094
 31
0.0
  0
LINE
  5
3E1
330
1F
100
AcDbEntity
  8
Ｓ_１_１
  6
CONTINUOUS
 62
     3
100
AcDbLine
 10
531.4999849999999
 20
334.0000000000094
 30
0.0
 11
646.9999999999998
 21
334.0000000000094
 31
0.0
  0
LINE
  5
3E2
330
1F
100
AcDbEntity
  8
Ｓ_１_１
  6
EXLTYPE2
 62
     1
100
AcDbLine
 10
239.9999999999959
 20
384.00000000001
 30
0.0
 11
239.9999999999957
 21
180.00000000001
 31
0.0
  0
LINE
  5
3E3
330
1F
100
AcDbEntity
  8
Ｓ_１_１
  6
EXLTYPE2
 62
     1
100
AcDbLine
 10
408.0
 20
264.0000000000048
 30
0.0
 11
156.0
 21
264.0000000000043
 31
0.0
  0
ENDSEC
  0
SECTION
  2
OBJECTS
  0
DICTIONARY
  5
C
330
0
100
AcDbDictionary
  3
ACAD_GROUP
350
D
  3
ACAD_LAYOUT
350
1A
  3
ACAD_MATERIAL
350
43
  3
ACAD_MLEADERSTYLE
350
6B
  3
ACAD_MLINESTYLE
350
17
  3
ACAD_PLOTSETTINGS
350
19
  3
ACAD_SCALELIST
350
47
  3
ACAD_VISUALSTYLE
350
2A
  3
ACDBHEADERROUNDTRIPXREC
350
3E4
  3
ACDBVARIABLEDICTIONARY
350
405
  0
DICTIONARY
  5
410
330
8
100
AcDbDictionary
280
     1
  3
ACAD_XREC_ROUNDTRIP
360
411
  0
DICTIONARY
  5
D
102
{ACAD_REACTORS
330
C
102
}
330
C
100
AcDbDictionary
  0
DICTIONARY
  5
1A
102
{ACAD_REACTORS
330
C
102
}
330
C
100
AcDbDictionary
  0
DICTIONARY
  5
43
102
{ACAD_REACTORS
330
C
102
}
330
C
100
AcDbDictionary
  3
BYBLOCK
350
45
  3
BYLAYER
350
44
  3
GLOBAL
350
46
  0
DICTIONARY
  5
6B
102
{ACAD_REACTORS
330
C
102
}
330
C
100
AcDbDictionary
  3
STANDARD
350
6C
  0
DICTIONARY
  5
17
102
{ACAD_REACTORS
330
C
102
}
330
C
100
AcDbDictionary
  3
STANDARD
350
18
  0
DICTIONARY
  5
19
102
{ACAD_REACTORS
330
C
102
}
330
C
100
AcDbDictionary
  0
DICTIONARY
  5
47
102
{ACAD_REACTORS
330
C
102
}
330
C
100
AcDbDictionary
  3
A0
350
48
  3
A1
350
49
  3
A2
350
4A
  3
A3
350
4B
  3
A4
350
4C
  3
A5
350
4D
  3
A6
350
4E
  3
A7
350
4F
  3
A8
350
50
  3
A9
350
51
  3
B0
350
52
  3
B1
350
53
  3
B2
350
54
  3
B3
350
55
  3
B4
350
56
  3
B5
350
57
  3
B6
350
58
  3
B7
350
59
  3
B8
350
5A
  3
B9
350
5B
  3
C0
350
5C
  3
C1
350
5D
  3
C2
350
5E
  3
C3
350
5F
  3
C4
350
60
  3
C5
350
61
  3
C6
350
62
  3
C7
350
63
  3
C8
350
64
  3
C9
350
65
  3
D0
350
66
  3
D1
350
67
  3
D2
350
68
  0
DICTIONARY
  5
2A
102
{ACAD_REACTORS
330
C
102
}
330
C
100
AcDbDictionary
  3
2DWIREFRAME
350
2F
  3
BASIC
350
32
  3
BRIGHTEN
350
36
  3
COLORCHANGE
350
3A
  3
CONCEPTUAL
350
34
  3
DIM
350
35
  3
EDGECOLOROFF
350
3D
  3
FACEPATTERN
350
39
  3
FLAT
350
2B
  3
FLATWITHEDGES
350
2C
  3
GOURAUD
350
2D
  3
GOURAUDWITHEDGES
350
2E
  3
HIDDEN
350
31
  3
JITTEROFF
350
3B
  3
LINEPATTERN
350
38
  3
OVERHANGOFF
350
3C
  3
REALISTIC
350
33
  3
SHADED
350
42
  3
SHADED_WITH_EDGES
350
41
  3
SHADES_OF_GRAY
350
3E
  3
SKETCHY
350
3F
  3
THICKEN
350
37
  3
WIREFRAME
350
30
  3
X-RAY
350
40
  0
DICTIONARY
  5
3E4
102
{ACAD_REACTORS
330
C
102
}
330
C
100
AcDbDictionary
  3
CEPSNID
350
3EE
  3
CEPSNTYPE
350
3ED
  3
DIMSTYLEDATA
350
404
  3
FINGERPRINTGUID
350
3EF
  3
HYPERLINKBASE
350
3E7
  3
INSUNITS
350
3EC
  3
LAYOUTDICT
350
3E9
  3
LWETCUNION
350
3EB
  3
PLOTSETDICT
350
3EA
  3
PSVPSCALE
350
3F1
  3
PUCSBASE
350
3F4
  3
PUCSORGBACK
350
3FA
  3
PUCSORGBOTTOM
350
3F6
  3
PUCSORGFRONT
350
3F9
  3
PUCSORGLEFT
350
3F7
  3
PUCSORGRIGHT
350
3F8
  3
PUCSORGTOP
350
3F5
  3
PUCSORTHOREF
350
3F2
  3
PUCSORTHOVIEW
350
3F3
  3
STYLESHEET
350
3E8
  3
TSTACKALIGN
350
3E5
  3
TSTACKSIZE
350
3E6
  3
UCSBASE
350
3FD
  3
UCSORGBACK
350
403
  3
UCSORGBOTTOM
350
3FF
  3
UCSORGFRONT
350
402
  3
UCSORGLEFT
350
400
  3
UCSORGRIGHT
350
401
  3
UCSORGTOP
350
3FE
  3
UCSORTHOREF
350
3FB
  3
UCSORTHOVIEW
350
3FC
  3
VERSIONGUID
350
3F0
  0
DICTIONARY
  5
405
102
{ACAD_REACTORS
330
C
102
}
330
C
100
AcDbDictionary
  3
CANNOSCALE
350
412
  3
CENTEREXE
350
40C
  3
CENTERLTYPEFILE
350
40D
  3
CMLEADERSTYLE
350
407
  3
CTABLESTYLE
350
406
  3
DIMASSOC
350
40E
  3
HIDETEXT
350
40F
  3
MSLTSCALE
350
413
  3
PSOLHEIGHT
350
409
  3
PSOLWIDTH
350
408
  0
XRECORD
  5
411
102
{ACAD_REACTORS
330
410
102
}
330
410
100
AcDbXrecord
102
VTR_0.000_0.000_1.000_1.000_VISUALSTYLE
340
2F
102
VTR_0.000_0.000_1.000_1.000_GRIDDISPLAY
 70
     3
102
VTR_0.000_0.000_1.000_1.000_GRIDMAJOR
 70
     5
102
VTR_0.000_0.000_1.000_1.000_DEFAULTLIGHTING
280
     1
102
VTR_0.000_0.000_1.000_1.000_DEFAULTLIGHTINGTYPE
 70
     1
102
VTR_0.000_0.000_1.000_1.000_BRIGHTNESS
141
0.0
102
VTR_0.000_0.000_1.000_1.000_CONTRAST
142
0.0
  0
MATERIAL
  5
45
102
{ACAD_REACTORS
330
43
102
}
102
{ACAD_XDICTIONARY
360
416
102
}
330
43
100
AcDbMaterial
  1
BYBLOCK
  0
MATERIAL
  5
44
102
{ACAD_REACTORS
330
43
102
}
102
{ACAD_XDICTIONARY
360
414
102
}
330
43
100
AcDbMaterial
  1
BYLAYER
  0
MATERIAL
  5
46
102
{ACAD_REACTORS
330
43
102
}
102
{ACAD_XDICTIONARY
360
418
102
}
330
43
100
AcDbMaterial
  1
GLOBAL
  0
ACAD_PROXY_OBJECT
  5
6C
102
{ACAD_REACTORS
330
6B
102
}
330
6B
100
AcDbProxyObject
 90
      499
 91
      505
 93
      610
310
40901902A4063FBFFFFFE0000000000000020400000000000020404214DD185B99185C990000000000000104090141901A00000000000004100000000000000041025764000000000000039000
340
14
340
0
340
11
340
0
 94
        0
1001
ACAD_MLEADERVER
1070
     2
  0
MLINESTYLE
  5
18
102
{ACAD_REACTORS
330
17
102
}
330
17
100
AcDbMlineStyle
  2
Standard
 70
     0
  3

 62
   256
 51
90.0
 52
90.0
 71
     2
 49
0.5
 62
   256
  6
BYLAYER
 49
-0.5
 62
   256
  6
BYLAYER
  0
ACAD_PROXY_OBJECT
  5
48
102
{ACAD_REACTORS
330
47
102
}
330
47
100
AcDbProxyObject
 90
      499
 91
      503
 93
       41
310
903313A31580
  0
ACAD_PROXY_OBJECT
  5
49
102
{ACAD_REACTORS
330
47
102
}
330
47
100
AcDbProxyObject
 90
      499
 91
      503
 93
      105
310
903313A324000000000000004000
  0
ACAD_PROXY_OBJECT
  5
4A
102
{ACAD_REACTORS
330
47
102
}
330
47
100
AcDbProxyObject
 90
      499
 91
      503
 93
      105
310
903313A344000000000000104000
  0
ACAD_PROXY_OBJECT
  5
4B
102
{ACAD_REACTORS
330
47
102
}
330
47
100
AcDbProxyObject
 90
      499
 91
      503
 93
      105
310
903313A354000000000000144000
  0
ACAD_PROXY_OBJECT
  5
4C
102
{ACAD_REACTORS
330
47
102
}
330
47
100
AcDbProxyObject
 90
      499
 91
      503
 93
      105
310
903313A384000000000000204000
  0
ACAD_PROXY_OBJECT
  5
4D
102
{ACAD_REACTORS
330
47
102
}
330
47
100
AcDbProxyObject
 90
      499
 91
      503
 93
      113
310
904313A31304000000000000244000
  0
ACAD_PROXY_OBJECT
  5
4E
102
{ACAD_REACTORS
330
47
102
}
330
47
100
AcDbProxyObject
 90
      499
 91
      503
 93
      113
310
904313A31364000000000000304000
  0
ACAD_PROXY_OBJECT
  5
4F
102
{ACAD_REACTORS
330
47
102
}
330
47
100
AcDbProxyObject
 90
      499
 91
      503
 93
      113
310
904313A32304000000000000344000
  0
ACAD_PROXY_OBJECT
  5
50
102
{ACAD_REACTORS
330
47
102
}
330
47
100
AcDbProxyObject
 90
      499
 91
      503
 93
      113
310
904313A333040000000000003E4000
  0
ACAD_PROXY_OBJECT
  5
51
102
{ACAD_REACTORS
330
47
102
}
330
47
100
AcDbProxyObject
 90
      499
 91
      503
 93
      113
310
904313A34304000000000000444000
  0
ACAD_PROXY_OBJECT
  5
52
102
{ACAD_REACTORS
330
47
102
}
330
47
100
AcDbProxyObject
 90
      499
 91
      503
 93
      113
310
904313A35304000000000000494000
  0
ACAD_PROXY_OBJECT
  5
53
102
{ACAD_REACTORS
330
47
102
}
330
47
100
AcDbProxyObject
 90
      499
 91
      503
 93
      121
310
905313A3130304000000000000594000
  0
ACAD_PROXY_OBJECT
  5
54
102
{ACAD_REACTORS
330
47
102
}
330
47
100
AcDbProxyObject
 90
      499
 91
      503
 93
      105
310
903323A310000000000000010100
  0
ACAD_PROXY_OBJECT
  5
55
102
{ACAD_REACTORS
330
47
102
}
330
47
100
AcDbProxyObject
 90
      499
 91
      503
 93
      105
310
903343A310000000000000410100
  0
ACAD_PROXY_OBJECT
  5
56
102
{ACAD_REACTORS
330
47
102
}
330
47
100
AcDbProxyObject
 90
      499
 91
      503
 93
      105
310
903383A310000000000000810100
  0
ACAD_PROXY_OBJECT
  5
57
102
{ACAD_REACTORS
330
47
102
}
330
47
100
AcDbProxyObject
 90
      499
 91
      503
 93
      113
310
90431303A310000000000000910100
  0
ACAD_PROXY_OBJECT
  5
58
102
{ACAD_REACTORS
330
47
102
}
330
47
100
AcDbProxyObject
 90
      499
 91
      503
 93
      121
310
9053130303A310000000000001650100
  0
ACAD_PROXY_OBJECT
  5
59
102
{ACAD_REACTORS
330
47
102
}
330
47
100
AcDbProxyObject
 90
      499
 91
      503
 93
      257
310
90E312F31323822203D2031272D3022000000000000200FC000000000000284000
  0
ACAD_PROXY_OBJECT
  5
5A
102
{ACAD_REACTORS
330
47
102
}
330
47
100
AcDbProxyObject
 90
      499
 91
      503
 93
      249
310
90D312F363422203D2031272D3022000000000000240FC000000000000284000
  0
ACAD_PROXY_OBJECT
  5
5B
102
{ACAD_REACTORS
330
47
102
}
330
47
100
AcDbProxyObject
 90
      499
 91
      503
 93
      249
310
90D312F333222203D2031272D3022000000000000280FC000000000000284000
  0
ACAD_PROXY_OBJECT
  5
5C
102
{ACAD_REACTORS
330
47
102
}
330
47
100
AcDbProxyObject
 90
      499
 91
      503
 93
      249
310
90D312F313622203D2031272D30220000000000002C0FC000000000000284000
  0
ACAD_PROXY_OBJECT
  5
5D
102
{ACAD_REACTORS
330
47
102
}
330
47
100
AcDbProxyObject
 90
      499
 91
      503
 93
      249
310
90D332F333222203D2031272D30220000000000002E0FC000000000000284000
  0
ACAD_PROXY_OBJECT
  5
5E
102
{ACAD_REACTORS
330
47
102
}
330
47
100
AcDbProxyObject
 90
      499
 91
      503
 93
      241
310
90C312F3822203D2031272D3022000000000000300FC000000000000284000
  0
ACAD_PROXY_OBJECT
  5
5F
102
{ACAD_REACTORS
330
47
102
}
330
47
100
AcDbProxyObject
 90
      499
 91
      503
 93
      249
310
90D332F313622203D2031272D3022000000000000320FC000000000000284000
  0
ACAD_PROXY_OBJECT
  5
60
102
{ACAD_REACTORS
330
47
102
}
330
47
100
AcDbProxyObject
 90
      499
 91
      503
 93
      241
310
90C312F3422203D2031272D3022000000000000340FC000000000000284000
  0
ACAD_PROXY_OBJECT
  5
61
102
{ACAD_REACTORS
330
47
102
}
330
47
100
AcDbProxyObject
 90
      499
 91
      503
 93
      241
310
90C332F3822203D2031272D3022000000000000360FC000000000000284000
  0
ACAD_PROXY_OBJECT
  5
62
102
{ACAD_REACTORS
330
47
102
}
330
47
100
AcDbProxyObject
 90
      499
 91
      503
 93
      241
310
90C312F3222203D2031272D3022000000000000380FC000000000000284000
  0
ACAD_PROXY_OBJECT
  5
63
102
{ACAD_REACTORS
330
47
102
}
330
47
100
AcDbProxyObject
 90
      499
 91
      503
 93
      241
310
90C332F3422203D2031272D30220000000000003A0FC000000000000284000
  0
ACAD_PROXY_OBJECT
  5
64
102
{ACAD_REACTORS
330
47
102
}
330
47
100
AcDbProxyObject
 90
      499
 91
      503
 93
      161
310
90A3122203D2031272D30224000000000000284000
  0
ACAD_PROXY_OBJECT
  5
65
102
{ACAD_REACTORS
330
47
102
}
330
47
100
AcDbProxyObject
 90
      499
 91
      503
 93
      257
310
90E312D312F3222203D2031272D30220000000000003E0FC000000000000284000
  0
ACAD_PROXY_OBJECT
  5
66
102
{ACAD_REACTORS
330
47
102
}
330
47
100
AcDbProxyObject
 90
      499
 91
      503
 93
      225
310
90A3322203D2031272D302200000000000002100000000000000284000
  0
ACAD_PROXY_OBJECT
  5
67
102
{ACAD_REACTORS
330
47
102
}
330
47
100
AcDbProxyObject
 90
      499
 91
      503
 93
      225
310
90A3622203D2031272D302200000000000006100000000000000284000
  0
ACAD_PROXY_OBJECT
  5
68
102
{ACAD_REACTORS
330
47
102
}
330
47
100
AcDbProxyObject
 90
      499
 91
      503
 93
      249
310
90D31272D3022203D2031272D30220000000000000A100000000000000284000
  0
ACAD_PROXY_OBJECT
  5
2F
102
{ACAD_REACTORS
330
2A
102
}
330
2A
100
AcDbProxyObject
 90
      499
 91
      501
 93
      436
310
42CC9915DA5C99599C985B595049028333333333333E33F0000000000000F90107901411070040501600405405064090741402480A0340
1001
ACAD
1000
AcDbSavedByObjectVersion
1070
     0
  0
ACAD_PROXY_OBJECT
  5
32
102
{ACAD_REACTORS
330
2A
102
}
330
2A
100
AcDbProxyObject
 90
      499
 91
      501
 93
      388
310
4150985CDA58D07406404333333333333E33F0000000000000F90107A41107004050150841D405064090741402480A0350
1001
ACAD
1000
AcDbSavedByObjectVersion
1070
     0
  0
ACAD_PROXY_OBJECT
  5
36
102
{ACAD_REACTORS
330
2A
102
}
330
2A
100
AcDbProxyObject
 90
      499
 91
      501
 93
      428
310
42109C9A59DA1D195B90C409028333333333333E33F0000000000000F9010790141107004050150841D405064090741402480A029950
1001
ACAD
1000
AcDbSavedByObjectVersion
1070
     0
  0
ACAD_PROXY_OBJECT
  5
3A
102
{ACAD_REACTORS
330
2A
102
}
330
2A
100
AcDbProxyObject
 90
      499
 91
      501
 93
      452
310
42D0DBDB1BDC90DA185B99D95104090240C333333333333E33F0000000000000F90108901411070040501508421405064090741402480A0350
1001
ACAD
1000
AcDbSavedByObjectVersion
1070
     0
  0
ACAD_PROXY_OBJECT
  5
34
102
{ACAD_REACTORS
330
2A
102
}
330
2A
100
AcDbProxyObject
 90
      499
 91
      501
 93
      500
310
4290DBDB98D95C1D1D585B10940D028333333333333E33F0000000000000F90107902409070040501000000000018199010841D405064090740C02480A0340
1001
ACAD
1000
AcDbSavedByObjectVersion
1070
     0
  0
ACAD_PROXY_OBJECT
  5
35
102
{ACAD_REACTORS
330
2A
102
}
330
2A
100
AcDbProxyObject
 90
      499
 91
      501
 93
      412
310
40D11A5B50B409028333333333333E33F0000000000000F9010790141107004050150841D405064090741402480A02677FFFFFD0
1001
ACAD
1000
AcDbSavedByObjectVersion
1070
     0
  0
ACAD_PROXY_OBJECT
  5
3D
102
{ACAD_REACTORS
330
2A
102
}
330
2A
100
AcDbProxyObject
 90
      499
 91
      501
 93
      452
310
43115919D950DBDB1BDC93D999916409028333333333333E33F0000000000000F9010790141107004050150841D405064090741402480A0350
1001
ACAD
1000
AcDbSavedByObjectVersion
1070
     0
  0
ACAD_PROXY_OBJECT
  5
39
102
{ACAD_REACTORS
330
2A
102
}
330
2A
100
AcDbProxyObject
 90
      499
 91
      501
 93
      444
310
42D19858D95C185D1D195C9B90F409028333333333333E33F0000000000000F9010790141107004050150841D405064090741402480A0350
1001
ACAD
1000
AcDbSavedByObjectVersion
1070
     0
  0
ACAD_PROXY_OBJECT
  5
2B
102
{ACAD_REACTORS
330
2A
102
}
330
2A
100
AcDbProxyObject
 90
      499
 91
      501
 93
      380
310
41119B185D240901404333333333333E33F0000000000000F9010740A907004050150841D405064090741402480A1B50
1001
ACAD
1000
AcDbSavedByObjectVersion
1070
     0
  0
ACAD_PROXY_OBJECT
  5
2C
102
{ACAD_REACTORS
330
2A
102
}
330
2A
100
AcDbProxyObject
 90
      499
 91
      501
 93
      468
310
43519B185D15DA5D1A115919D95CD0140901404333333333333E33F0000000000000F90107409019070040501600405405064090741402480A1B50
1001
ACAD
1000
AcDbSavedByObjectVersion
1070
     0
  0
ACAD_PROXY_OBJECT
  5
2D
102
{ACAD_REACTORS
330
2A
102
}
330
2A
100
AcDbProxyObject
 90
      499
 91
      501
 93
      404
310
41D1DBDD5C985D5910240902404333333333333E33F0000000000000F9010740A9070040501641D405064090741402480A1B50
1001
ACAD
1000
AcDbSavedByObjectVersion
1070
     0
  0
ACAD_PROXY_OBJECT
  5
2E
102
{ACAD_REACTORS
330
2A
102
}
330
2A
100
AcDbProxyObject
 90
      499
 91
      501
 93
      492
310
4411DBDD5C985D5915DA5D1A115919D95CD0340902404333333333333E33F0000000000000F90107409019070040501600405405064090741402480A1B50
1001
ACAD
1000
AcDbSavedByObjectVersion
1070
     0
  0
ACAD_PROXY_OBJECT
  5
31
102
{ACAD_REACTORS
330
2A
102
}
330
2A
100
AcDbProxyObject
 90
      499
 91
      501
 93
      476
310
41921A5919195B90640502408333333333333E33F0000000000000F901079024090700405020000000000001110200405405064090740C02480A0340
1001
ACAD
1000
AcDbSavedByObjectVersion
1070
     0
  0
ACAD_PROXY_OBJECT
  5
3B
102
{ACAD_REACTORS
330
2A
102
}
330
2A
100
AcDbProxyObject
 90
      499
 91
      501
 93
      428
310
42529A5D1D195C93D999914409028333333333333E33F0000000000000F9010790141107004050150A41D405064090741402480A0350
1001
ACAD
1000
AcDbSavedByObjectVersion
1070
     0
  0
ACAD_PROXY_OBJECT
  5
38
102
{ACAD_REACTORS
330
2A
102
}
330
2A
100
AcDbProxyObject
 90
      499
 91
      501
 93
      444
310
42D31A5B995C185D1D195C9B90E409028333333333333E33F0000000000000F9010790141107004050750841D405064090741402483A0350
1001
ACAD
1000
AcDbSavedByObjectVersion
1070
     0
  0
ACAD_PROXY_OBJECT
  5
3C
102
{ACAD_REACTORS
330
2A
102
}
330
2A
100
AcDbProxyObject
 90
      499
 91
      501
 93
      444
310
42D3DD995C9A185B99D3D999915409028333333333333E33F0000000000000F9010790141107004050150941D405064090741402480A0350
1001
ACAD
1000
AcDbSavedByObjectVersion
1070
     0
  0
ACAD_PROXY_OBJECT
  5
33
102
{ACAD_REACTORS
330
2A
102
}
330
2A
100
AcDbProxyObject
 90
      499
 91
      501
 93
      428
310
425499585B1A5CDD1A58D08409038333333333333E33F0000000000000F9010740A907004050150800405405064090740C02480A1B40
1001
ACAD
1000
AcDbSavedByObjectVersion
1070
     0
  0
ACAD_PROXY_OBJECT
  5
42
102
{ACAD_REACTORS
330
2A
102
}
330
2A
100
AcDbProxyObject
 90
      499
 91
      501
 93
      420
310
4194DA1859195911B40902404333333333333E33F0000000000000F9010740A41107004050150800405405064090840C02480A0B40
1001
ACAD
1000
AcDbSavedByObjectVersion
1070
     0
  0
ACAD_PROXY_OBJECT
  5
41
102
{ACAD_REACTORS
330
2A
102
}
330
2A
100
AcDbProxyObject
 90
      499
 91
      501
 93
      516
310
4454DA18591959081DDA5D1A08195919D95CD1A40902404333333333333E33F0000000000000F901074090142907004050250800405405064090740C02480A0B40
1001
ACAD
1000
AcDbSavedByObjectVersion
1070
     0
  0
ACAD_PROXY_OBJECT
  5
3E
102
{ACAD_REACTORS
330
2A
102
}
330
2A
100
AcDbProxyObject
 90
      499
 91
      501
 93
      532
310
4394DA1859195CC81BD98811DC985E5174090240C333333333333E33F0000000000000F901079024090741D01000000000000111010841D405064090740C02480A0340
1001
ACAD
1000
AcDbSavedByObjectVersion
1070
     0
  0
ACAD_PROXY_OBJECT
  5
3F
102
{ACAD_REACTORS
330
2A
102
}
330
2A
100
AcDbProxyObject
 90
      499
 91
      501
 93
      476
310
41D4DAD95D18DA1E51840502408333333333333E33F0000000000000F901079024090741D01000000000000111010B41D405064090741802480A0340
1001
ACAD
1000
AcDbSavedByObjectVersion
1070
     0
  0
ACAD_PROXY_OBJECT
  5
37
102
{ACAD_REACTORS
330
2A
102
}
330
2A
100
AcDbProxyObject
 90
      499
 91
      501
 93
      412
310
41D51A1A58DAD95B90D409028333333333333E33F0000000000000F9010790141107004050150C41D405064090741402480A0350
1001
ACAD
1000
AcDbSavedByObjectVersion
1070
     0
  0
ACAD_PROXY_OBJECT
  5
30
102
{ACAD_REACTORS
330
2A
102
}
330
2A
100
AcDbProxyObject
 90
      499
 91
      501
 93
      420
310
4255DA5C99599C985B595059028333333333333E33F0000000000000F90107901411070040501600405405064090740C02480A0340
1001
ACAD
1000
AcDbSavedByObjectVersion
1070
     0
  0
ACAD_PROXY_OBJECT
  5
40
102
{ACAD_REACTORS
330
2A
102
}
330
2A
100
AcDbProxyObject
 90
      499
 91
      501
 93
      404
310
41560B54985E51940902404000000000000E03F0000000000000F9010740501907004050150841D405064090740C02480A1B40
1001
ACAD
1000
AcDbSavedByObjectVersion
1070
     0
  0
XRECORD
  5
3EE
102
{ACAD_REACTORS
330
3E4
102
}
330
3E4
100
AcDbXrecord
340
0
  0
XRECORD
  5
3ED
102
{ACAD_REACTORS
330
3E4
102
}
330
3E4
100
AcDbXrecord
 90
        0
  0
XRECORD
  5
404
102
{ACAD_REACTORS
330
3E4
102
}
330
3E4
100
AcDbXrecord
1000
DSTYLE
1002
{
1070
   340
340
11
1002
}
  0
XRECORD
  5
3EF
102
{ACAD_REACTORS
330
3E4
102
}
330
3E4
100
AcDbXrecord
  1
{4d7c0abc-26d0-4bf1-80c0-5b6ba334b7e0}
  0
XRECORD
  5
3E7
102
{ACAD_REACTORS
330
3E4
102
}
330
3E4
100
AcDbXrecord
  1

  0
XRECORD
  5
3EC
102
{ACAD_REACTORS
330
3E4
102
}
330
3E4
100
AcDbXrecord
 90
        4
  0
XRECORD
  5
3E9
102
{ACAD_REACTORS
330
3E4
102
}
330
3E4
100
AcDbXrecord
340
1A
  0
XRECORD
  5
3EB
102
{ACAD_REACTORS
330
3E4
102
}
330
3E4
100
AcDbXrecord
 90
    10781
  0
XRECORD
  5
3EA
102
{ACAD_REACTORS
330
3E4
102
}
330
3E4
100
AcDbXrecord
340
19
  0
XRECORD
  5
3F1
102
{ACAD_REACTORS
330
3E4
102
}
330
3E4
100
AcDbXrecord
 40
0.0
  0
XRECORD
  5
3F4
102
{ACAD_REACTORS
330
3E4
102
}
330
3E4
100
AcDbXrecord
340
0
  0
XRECORD
  5
3FA
102
{ACAD_REACTORS
330
3E4
102
}
330
3E4
100
AcDbXrecord
 10
0.0
 20
0.0
 30
0.0
  0
XRECORD
  5
3F6
102
{ACAD_REACTORS
330
3E4
102
}
330
3E4
100
AcDbXrecord
 10
0.0
 20
0.0
 30
0.0
  0
XRECORD
  5
3F9
102
{ACAD_REACTORS
330
3E4
102
}
330
3E4
100
AcDbXrecord
 10
0.0
 20
0.0
 30
0.0
  0
XRECORD
  5
3F7
102
{ACAD_REACTORS
330
3E4
102
}
330
3E4
100
AcDbXrecord
 10
0.0
 20
0.0
 30
0.0
  0
XRECORD
  5
3F8
102
{ACAD_REACTORS
330
3E4
102
}
330
3E4
100
AcDbXrecord
 10
0.0
 20
0.0
 30
0.0
  0
XRECORD
  5
3F5
102
{ACAD_REACTORS
330
3E4
102
}
330
3E4
100
AcDbXrecord
 10
0.0
 20
0.0
 30
0.0
  0
XRECORD
  5
3F2
102
{ACAD_REACTORS
330
3E4
102
}
330
3E4
100
AcDbXrecord
340
0
  0
XRECORD
  5
3F3
102
{ACAD_REACTORS
330
3E4
102
}
330
3E4
100
AcDbXrecord
 70
     0
  0
XRECORD
  5
3E8
102
{ACAD_REACTORS
330
3E4
102
}
330
3E4
100
AcDbXrecord
  1

  0
XRECORD
  5
3E5
102
{ACAD_REACTORS
330
3E4
102
}
330
3E4
100
AcDbXrecord
 90
        1
  0
XRECORD
  5
3E6
102
{ACAD_REACTORS
330
3E4
102
}
330
3E4
100
AcDbXrecord
 90
       70
  0
XRECORD
  5
3FD
102
{ACAD_REACTORS
330
3E4
102
}
330
3E4
100
AcDbXrecord
340
0
  0
XRECORD
  5
403
102
{ACAD_REACTORS
330
3E4
102
}
330
3E4
100
AcDbXrecord
 10
0.0
 20
0.0
 30
0.0
  0
XRECORD
  5
3FF
102
{ACAD_REACTORS
330
3E4
102
}
330
3E4
100
AcDbXrecord
 10
0.0
 20
0.0
 30
0.0
  0
XRECORD
  5
402
102
{ACAD_REACTORS
330
3E4
102
}
330
3E4
100
AcDbXrecord
 10
0.0
 20
0.0
 30
0.0
  0
XRECORD
  5
400
102
{ACAD_REACTORS
330
3E4
102
}
330
3E4
100
AcDbXrecord
 10
0.0
 20
0.0
 30
0.0
  0
XRECORD
  5
401
102
{ACAD_REACTORS
330
3E4
102
}
330
3E4
100
AcDbXrecord
 10
0.0
 20
0.0
 30
0.0
  0
XRECORD
  5
3FE
102
{ACAD_REACTORS
330
3E4
102
}
330
3E4
100
AcDbXrecord
 10
0.0
 20
0.0
 30
0.0
  0
XRECORD
  5
3FB
102
{ACAD_REACTORS
330
3E4
102
}
330
3E4
100
AcDbXrecord
340
0
  0
XRECORD
  5
3FC
102
{ACAD_REACTORS
330
3E4
102
}
330
3E4
100
AcDbXrecord
 70
     0
  0
XRECORD
  5
3F0
102
{ACAD_REACTORS
330
3E4
102
}
330
3E4
100
AcDbXrecord
  1
{FAEB1C32-E019-11D5-929B-00C0DF256EC4}
  0
DICTIONARYVAR
  5
412
102
{ACAD_REACTORS
330
405
102
}
330
405
100
DictionaryVariables
280
     0
  1
1:1
  0
DICTIONARYVAR
  5
40C
102
{ACAD_REACTORS
330
405
102
}
330
405
100
DictionaryVariables
280
     0
  1
3.500000
  0
DICTIONARYVAR
  5
40D
102
{ACAD_REACTORS
330
405
102
}
330
405
100
DictionaryVariables
280
     0
  1
acadiso.lin
  0
DICTIONARYVAR
  5
407
102
{ACAD_REACTORS
330
405
102
}
330
405
100
DictionaryVariables
280
     0
  1
Standard
  0
DICTIONARYVAR
  5
406
102
{ACAD_REACTORS
330
405
102
}
330
405
100
DictionaryVariables
280
     0
  1
Standard
  0
DICTIONARYVAR
  5
40E
102
{ACAD_REACTORS
330
405
102
}
330
405
100
DictionaryVariables
280
     0
  1
2
  0
DICTIONARYVAR
  5
40F
102
{ACAD_REACTORS
330
405
102
}
330
405
100
DictionaryVariables
280
     0
  1
1
  0
DICTIONARYVAR
  5
413
102
{ACAD_REACTORS
330
405
102
}
330
405
100
DictionaryVariables
280
     0
  1
1
  0
DICTIONARYVAR
  5
409
102
{ACAD_REACTORS
330
405
102
}
330
405
100
DictionaryVariables
280
     0
  1
80.000000
  0
DICTIONARYVAR
  5
408
102
{ACAD_REACTORS
330
405
102
}
330
405
100
DictionaryVariables
280
     0
  1
5.000000
  0
DICTIONARY
  5
416
330
45
100
AcDbDictionary
280
     1
  3
ACAD_XREC_ROUNDTRIP
360
417
  0
DICTIONARY
  5
414
330
44
100
AcDbDictionary
280
     1
  3
ACAD_XREC_ROUNDTRIP
360
415
  0
DICTIONARY
  5
418
330
46
100
AcDbDictionary
280
     1
  3
ACAD_XREC_ROUNDTRIP
360
419
  0
XRECORD
  5
417
102
{ACAD_REACTORS
330
416
102
}
330
416
100
AcDbXrecord
102
MATERIAL
148
0.0
149
0.0
149
0.0
 93
        0
 94
      127
282
     0
 72
     1
 77
     1
171
     1
175
     1
179
     1
273
     0
  0
XRECORD
  5
415
102
{ACAD_REACTORS
330
414
102
}
330
414
100
AcDbXrecord
102
MATERIAL
148
0.0
149
0.0
149
0.0
 93
        0
 94
      127
282
     0
 72
     1
 77
     1
171
     1
175
     1
179
     1
273
     0
  0
XRECORD
  5
419
102
{ACAD_REACTORS
330
418
102
}
330
418
100
AcDbXrecord
102
MATERIAL
148
0.0
149
0.0
149
0.0
 93
        0
 94
      127
282
     0
 72
     1
 77
     1
171
     1
175
     1
179
     1
273
     0
  0
ENDSEC
  0
EOF
