  0
SECTION
  2
HEADER
  9
$ACADVER
  1
AC1014
  9
$ACADMAINTVER
 70
     9
  9
$DWGCODEPAGE
  3
ANSI_932
  9
$INSBASE
 10
0.0
 20
0.0
 30
0.0
  9
$EXTMIN
 10
15.0
 20
15.0
 30
0.0
  9
$EXTMAX
 10
615.0
 20
430.5
 30
0.0
  9
$LIMMIN
 10
0.0
 20
0.0
  9
$LIMMAX
 10
420.0
 20
297.0
  9
$ORTHOMODE
 70
     0
  9
$REGENMODE
 70
     1
  9
$FILLMODE
 70
     1
  9
$QTEXTMODE
 70
     0
  9
$MIRRTEXT
 70
     1
  9
$DRAGMODE
 70
     2
  9
$LTSCALE
 40
1.0
  9
$OSMODE
 70
    37
  9
$ATTMODE
 70
     1
  9
$TEXTSIZE
 40
2.5
  9
$TRACEWID
 40
1.0
  9
$TEXTSTYLE
  7
STANDARD
  9
$CLAYER
  8
Ｓ_１_１
  9
$CELTYPE
  6
BYLAYER
  9
$CECOLOR
 62
   256
  9
$CELTSCALE
 40
1.0
  9
$DELOBJ
 70
     1
  9
$DISPSILH
 70
     0
  9
$DIMSCALE
 40
1.0
  9
$DIMASZ
 40
2.5
  9
$DIMEXO
 40
0.625
  9
$DIMDLI
 40
3.75
  9
$DIMRND
 40
0.0
  9
$DIMDLE
 40
0.0
  9
$DIMEXE
 40
1.25
  9
$DIMTP
 40
0.0
  9
$DIMTM
 40
0.0
  9
$DIMTXT
 40
2.5
  9
$DIMCEN
 40
2.5
  9
$DIMTSZ
 40
0.0
  9
$DIMTOL
 70
     0
  9
$DIMLIM
 70
     0
  9
$DIMTIH
 70
     0
  9
$DIMTOH
 70
     0
  9
$DIMSE1
 70
     0
  9
$DIMSE2
 70
     0
  9
$DIMTAD
 70
     1
  9
$DIMZIN
 70
     8
  9
$DIMBLK
  1

  9
$DIMASO
 70
     1
  9
$DIMSHO
 70
     1
  9
$DIMPOST
  1

  9
$DIMAPOST
  1

  9
$DIMALT
 70
     0
  9
$DIMALTD
 70
     3
  9
$DIMALTF
 40
0.03937007874016
  9
$DIMLFAC
 40
1.0
  9
$DIMTOFL
 70
     1
  9
$DIMTVP
 40
0.0
  9
$DIMTIX
 70
     0
  9
$DIMSOXD
 70
     0
  9
$DIMSAH
 70
     0
  9
$DIMBLK1
  1

  9
$DIMBLK2
  1

  9
$DIMSTYLE
  2
ISO-25
  9
$DIMCLRD
 70
     0
  9
$DIMCLRE
 70
     0
  9
$DIMCLRT
 70
     0
  9
$DIMTFAC
 40
1.0
  9
$DIMGAP
 40
0.625
  9
$DIMJUST
 70
     0
  9
$DIMSD1
 70
     0
  9
$DIMSD2
 70
     0
  9
$DIMTOLJ
 70
     0
  9
$DIMTZIN
 70
     8
  9
$DIMALTZ
 70
     0
  9
$DIMALTTZ
 70
     0
  9
$DIMFIT
 70
     3
  9
$DIMUPT
 70
     0
  9
$DIMUNIT
 70
     2
  9
$DIMDEC
 70
     2
  9
$DIMTDEC
 70
     2
  9
$DIMALTU
 70
     2
  9
$DIMALTTD
 70
     3
  9
$DIMTXSTY
  7
STANDARD
  9
$DIMAUNIT
 70
     0
  9
$LUNITS
 70
     2
  9
$LUPREC
 70
     4
  9
$SKETCHINC
 40
1.0
  9
$FILLETRAD
 40
10.0
  9
$AUNITS
 70
     0
  9
$AUPREC
 70
     0
  9
$MENU
  1
.
  9
$ELEVATION
 40
0.0
  9
$PELEVATION
 40
0.0
  9
$THICKNESS
 40
0.0
  9
$LIMCHECK
 70
     0
  9
$CHAMFERA
 40
0.0
  9
$CHAMFERB
 40
0.0
  9
$CHAMFERC
 40
0.0
  9
$CHAMFERD
 40
0.0
  9
$SKPOLY
 70
     0
  9
$TDCREATE
 40
2459591.543181435
  9
$TDUPDATE
 40
2459591.543182384
  9
$TDINDWG
 40
0.0000000116
  9
$TDUSRTIMER
 40
0.0000000116
  9
$USRTIMER
 70
     1
  9
$ANGBASE
 50
0.0
  9
$ANGDIR
 70
     0
  9
$PDMODE
 70
     0
  9
$PDSIZE
 40
0.0
  9
$PLINEWID
 40
0.0
  9
$COORDS
 70
     1
  9
$SPLFRAME
 70
     0
  9
$SPLINETYPE
 70
     6
  9
$SPLINESEGS
 70
     8
  9
$ATTDIA
 70
     0
  9
$ATTREQ
 70
     1
  9
$HANDLING
 70
     1
  9
$HANDSEED
  5
3A1
  9
$SURFTAB1
 70
     6
  9
$SURFTAB2
 70
     6
  9
$SURFTYPE
 70
     6
  9
$SURFU
 70
     6
  9
$SURFV
 70
     6
  9
$UCSNAME
  2

  9
$UCSORG
 10
0.0
 20
0.0
 30
0.0
  9
$UCSXDIR
 10
1.0
 20
0.0
 30
0.0
  9
$UCSYDIR
 10
0.0
 20
1.0
 30
0.0
  9
$PUCSNAME
  2

  9
$PUCSORG
 10
0.0
 20
0.0
 30
0.0
  9
$PUCSXDIR
 10
1.0
 20
0.0
 30
0.0
  9
$PUCSYDIR
 10
0.0
 20
1.0
 30
0.0
  9
$USERI1
 70
     0
  9
$USERI2
 70
     0
  9
$USERI3
 70
     0
  9
$USERI4
 70
     0
  9
$USERI5
 70
     0
  9
$USERR1
 40
0.0
  9
$USERR2
 40
0.0
  9
$USERR3
 40
0.0
  9
$USERR4
 40
0.0
  9
$USERR5
 40
0.0
  9
$WORLDVIEW
 70
     1
  9
$SHADEDGE
 70
     3
  9
$SHADEDIF
 70
    70
  9
$TILEMODE
 70
     1
  9
$MAXACTVP
 70
    64
  9
$PINSBASE
 10
0.0
 20
0.0
 30
0.0
  9
$PLIMCHECK
 70
     0
  9
$PEXTMIN
 10
1.000000000000000E+20
 20
1.000000000000000E+20
 30
1.000000000000000E+20
  9
$PEXTMAX
 10
-1.000000000000000E+20
 20
-1.000000000000000E+20
 30
-1.000000000000000E+20
  9
$PLIMMIN
 10
0.0
 20
0.0
  9
$PLIMMAX
 10
420.0
 20
297.0
  9
$UNITMODE
 70
     0
  9
$VISRETAIN
 70
     1
  9
$PLINEGEN
 70
     0
  9
$PSLTSCALE
 70
     1
  9
$TREEDEPTH
 70
  3020
  9
$PICKSTYLE
 70
     1
  9
$CMLSTYLE
  2
STANDARD
  9
$CMLJUST
 70
     0
  9
$CMLSCALE
 40
20.0
  9
$PROXYGRAPHICS
 70
     1
  9
$MEASUREMENT
 70
     1
  0
ENDSEC
  0
SECTION
  2
CLASSES
  0
CLASS
  1
ACDBDICTIONARYWDFLT
  2
AcDbDictionaryWithDefault
  3
ObjectDBX Classes
 90
        0
280
     0
281
     0
  0
CLASS
  1
VISUALSTYLE
  2
AcDbVisualStyle
  3
ObjectDBX Classes
 90
     4095
280
     0
281
     0
  0
CLASS
  1
MATERIAL
  2
AcDbMaterial
  3
ObjectDBX Classes
 90
     1153
280
     0
281
     0
  0
CLASS
  1
SCALE
  2
AcDbScale
  3
ObjectDBX Classes
 90
     1153
280
     0
281
     0
  0
CLASS
  1
TABLESTYLE
  2
AcDbTableStyle
  3
ObjectDBX Classes
 90
     4095
280
     0
281
     0
  0
CLASS
  1
MLEADERSTYLE
  2
AcDbMLeaderStyle
  3
ACDB_MLEADERSTYLE_CLASS
 90
     4095
280
     0
281
     0
  0
CLASS
  1
SUN
  2
AcDbSun
  3
SCENEOE
 90
     1153
280
     0
281
     0
  0
CLASS
  1
DICTIONARYVAR
  2
AcDbDictionaryVar
  3
ObjectDBX Classes
 90
        0
280
     0
281
     0
  0
CLASS
  1
XRECORD
  2
AcDbXrecord
  3
ObjectDBX Classes
 90
        0
280
     0
281
     0
  0
CLASS
  1
LWPOLYLINE
  2
AcDbPolyline
  3
ObjectDBX Classes
 90
        0
280
     0
281
     1
  0
CLASS
  1
HATCH
  2
AcDbHatch
  3
ObjectDBX Classes
 90
        0
280
     0
281
     1
  0
CLASS
  1
ACDBPLACEHOLDER
  2
AcDbPlaceHolder
  3
ObjectDBX Classes
 90
        0
280
     0
281
     0
  0
CLASS
  1
LAYOUT
  2
AcDbLayout
  3
ObjectDBX Classes
 90
        0
280
     0
281
     0
  0
ENDSEC
  0
SECTION
  2
TABLES
  0
TABLE
  2
VPORT
  5
8
102
{ACAD_XDICTIONARY
360
396
102
}
330
0
100
AcDbSymbolTable
 70
     1
  0
VPORT
  5
29
330
8
100
AcDbSymbolTableRecord
100
AcDbViewportTableRecord
  2
*ACTIVE
 70
     0
 10
0.0
 20
0.0
 11
1.0
 21
1.0
 12
315.0
 22
222.75
 13
0.0
 23
0.0
 14
10.0
 24
10.0
 15
10.0
 25
10.0
 16
0.0
 26
0.0
 36
1.0
 17
0.0
 27
0.0
 37
0.0
 40
415.5
 41
1.444043321299639
 42
50.0
 43
0.0
 44
0.0
 50
0.0
 51
0.0
 71
     0
 72
  1000
 73
     1
 74
     3
 75
     0
 76
     0
 77
     0
 78
     0
  0
ENDTAB
  0
TABLE
  2
LTYPE
  5
5
330
0
100
AcDbSymbolTable
 70
     8
  0
LTYPE
  5
14
330
5
100
AcDbSymbolTableRecord
100
AcDbLinetypeTableRecord
  2
BYBLOCK
 70
     0
  3

 72
    65
 73
     0
 40
0.0
  0
LTYPE
  5
15
330
5
100
AcDbSymbolTableRecord
100
AcDbLinetypeTableRecord
  2
BYLAYER
 70
     0
  3

 72
    65
 73
     0
 40
0.0
  0
LTYPE
  5
16
330
5
100
AcDbSymbolTableRecord
100
AcDbLinetypeTableRecord
  2
CONTINUOUS
 70
     0
  3
Solid line
 72
    65
 73
     0
 40
0.0
  0
LTYPE
  5
6E
330
5
100
AcDbSymbolTableRecord
100
AcDbLinetypeTableRecord
  2
EXLTYPE0
 70
     0
  3
破線
 72
    65
 73
     2
 40
4.0
 49
3.0
 74
     0
 49
-1.0
 74
     0
  0
LTYPE
  5
6F
330
5
100
AcDbSymbolTableRecord
100
AcDbLinetypeTableRecord
  2
EXLTYPE1
 70
     0
  3
点線
 72
    65
 73
     2
 40
2.0
 49
1.0
 74
     0
 49
-1.0
 74
     0
  0
LTYPE
  5
70
330
5
100
AcDbSymbolTableRecord
100
AcDbLinetypeTableRecord
  2
EXLTYPE2
 70
     0
  3
一点鎖線
 72
    65
 73
     4
 40
13.0
 49
10.0
 74
     0
 49
-1.0
 74
     0
 49
1.0
 74
     0
 49
-1.0
 74
     0
  0
LTYPE
  5
71
330
5
100
AcDbSymbolTableRecord
100
AcDbLinetypeTableRecord
  2
EXLTYPE3
 70
     0
  3
二点鎖線
 72
    65
 73
     6
 40
15.0
 49
10.0
 74
     0
 49
-1.0
 74
     0
 49
1.0
 74
     0
 49
-1.0
 74
     0
 49
1.0
 74
     0
 49
-1.0
 74
     0
  0
LTYPE
  5
72
330
5
100
AcDbSymbolTableRecord
100
AcDbLinetypeTableRecord
  2
EXLTYPE4
 70
     0
  3
一点鎖線2
 72
    65
 73
     4
 40
3.5
 49
2.0
 74
     0
 49
-0.5
 74
     0
 49
0.5
 74
     0
 49
-0.5
 74
     0
  0
LTYPE
  5
73
330
5
100
AcDbSymbolTableRecord
100
AcDbLinetypeTableRecord
  2
EXLTYPE5
 70
     0
  3
二点鎖線2
 72
    65
 73
     6
 40
4.5
 49
2.0
 74
     0
 49
-0.5
 74
     0
 49
0.5
 74
     0
 49
-0.5
 74
     0
 49
0.5
 74
     0
 49
-0.5
 74
     0
  0
LTYPE
  5
74
330
5
100
AcDbSymbolTableRecord
100
AcDbLinetypeTableRecord
  2
EXLTYPE6
 70
     0
  3
一点鎖線4
 72
    65
 73
     4
 40
33.0
 49
30.0
 74
     0
 49
-1.0
 74
     0
 49
1.0
 74
     0
 49
-1.0
 74
     0
  0
ENDTAB
  0
TABLE
  2
LAYER
  5
2
330
0
100
AcDbSymbolTable
 70
     4
  0
LAYER
  5
10
330
2
100
AcDbSymbolTableRecord
100
AcDbLayerTableRecord
  2
0
 70
     0
 62
     7
  6
CONTINUOUS
  0
LAYER
  5
77
330
2
100
AcDbSymbolTableRecord
100
AcDbLayerTableRecord
  2
図面枠
 70
     4
 62
     7
  6
CONTINUOUS
  0
LAYER
  5
78
330
2
100
AcDbSymbolTableRecord
100
AcDbLayerTableRecord
  2
Ｓ_１_１
 70
     0
 62
     7
  6
CONTINUOUS
  0
LAYER
  5
1F6
330
2
100
AcDbSymbolTableRecord
100
AcDbLayerTableRecord
  2
DEFPOINTS
 70
     0
 62
     7
  6
CONTINUOUS
  0
ENDTAB
  0
TABLE
  2
STYLE
  5
3
330
0
100
AcDbSymbolTable
 70
     5
  0
STYLE
  5
11
330
3
100
AcDbSymbolTableRecord
100
AcDbTextStyleTableRecord
  2
STANDARD
 70
     0
 40
0.0
 41
1.0
 50
0.0
 71
     0
 42
2.5
  3
monotxt
  4
extfont
  0
STYLE
  5
75
330
3
100
AcDbSymbolTableRecord
100
AcDbTextStyleTableRecord
  2
EXCADSTD
 70
     0
 40
0.0
 41
1.0
 50
0.0
 71
     0
 42
2.5
  3
monotxt
  4
extfont
  0
STYLE
  5
76
330
3
100
AcDbSymbolTableRecord
100
AcDbTextStyleTableRecord
  2
EXCADVERT
 70
     4
 40
0.0
 41
1.0
 50
0.0
 71
     0
 42
2.5
  3
monotxt
  4
extfont
  0
STYLE
  5
D9
330
3
100
AcDbSymbolTableRecord
100
AcDbTextStyleTableRecord
  2
EXCADTTF1
 70
     0
 40
0.0
 41
1.0
 50
0.0
 71
     0
 42
2.5
  3
msgothic.ttc
  4

1001
ACAD
1000
MS Gothic
1071
    32817
  0
STYLE
  5
1F4
330
3
100
AcDbSymbolTableRecord
100
AcDbTextStyleTableRecord
  2
EXCADDIM1
 70
     0
 40
0.0
 41
1.0
 50
0.0
 71
     0
 42
2.5
  3
msgothic.ttc
  4

1001
ACAD
1000
MS Gothic
1071
    32817
  0
ENDTAB
  0
TABLE
  2
VIEW
  5
6
330
0
100
AcDbSymbolTable
 70
     0
  0
ENDTAB
  0
TABLE
  2
UCS
  5
7
330
0
100
AcDbSymbolTable
 70
     0
  0
ENDTAB
  0
TABLE
  2
APPID
  5
9
330
0
100
AcDbSymbolTable
 70
     2
  0
APPID
  5
12
330
9
100
AcDbSymbolTableRecord
100
AcDbRegAppTableRecord
  2
ACAD
 70
     0
  0
APPID
  5
3A0
330
9
100
AcDbSymbolTableRecord
100
AcDbRegAppTableRecord
  2
ACAD_MLEADERVER
 70
     0
  0
ENDTAB
  0
TABLE
  2
DIMSTYLE
  5
A
330
0
100
AcDbSymbolTable
 70
     1
  0
DIMSTYLE
105
27
102
{ACAD_REACTORS
330
1F5
330
203
330
210
330
21D
330
22A
330
237
330
245
330
261
330
26E
330
27B
330
288
330
35D
102
}
330
A
100
AcDbSymbolTableRecord
100
AcDbDimStyleTableRecord
  2
ISO-25
 70
     0
  3

  4

  5

  6

  7

 40
1.0
 41
2.5
 42
0.625
 43
3.75
 44
1.25
 45
0.0
 46
0.0
 47
0.0
 48
0.0
140
2.5
141
2.5
142
0.0
143
0.03937007874016
144
1.0
145
0.0
146
1.0
147
0.625
 71
     0
 72
     0
 73
     0
 74
     0
 75
     0
 76
     0
 77
     1
 78
     8
170
     0
171
     3
172
     1
173
     0
174
     0
175
     0
176
     0
177
     0
178
     0
270
     2
271
     2
272
     2
273
     2
274
     3
340
11
275
     0
280
     0
281
     0
282
     0
283
     0
284
     8
285
     0
286
     0
287
     5
288
     0
  0
ENDTAB
  0
TABLE
  2
BLOCK_RECORD
  5
1
330
0
100
AcDbSymbolTable
 70
    26
  0
BLOCK_RECORD
  5
1F
330
1
100
AcDbSymbolTableRecord
100
AcDbBlockTableRecord
  2
*MODEL_SPACE
  0
BLOCK_RECORD
  5
1B
330
1
100
AcDbSymbolTableRecord
100
AcDbBlockTableRecord
  2
*PAPER_SPACE
  0
BLOCK_RECORD
  5
79
330
1
100
AcDbSymbolTableRecord
100
AcDbBlockTableRecord
  2
EX_NORM
  0
BLOCK_RECORD
  5
7C
330
1
100
AcDbSymbolTableRecord
100
AcDbBlockTableRecord
  2
EX_BNORM
  0
BLOCK_RECORD
  5
7F
330
1
100
AcDbSymbolTableRecord
100
AcDbBlockTableRecord
  2
EX_BCIR
  0
BLOCK_RECORD
  5
82
330
1
100
AcDbSymbolTableRecord
100
AcDbBlockTableRecord
  2
EX_RCIVIL
  0
BLOCK_RECORD
  5
85
330
1
100
AcDbSymbolTableRecord
100
AcDbBlockTableRecord
  2
EX_SLANT
  0
BLOCK_RECORD
  5
88
330
1
100
AcDbSymbolTableRecord
100
AcDbBlockTableRecord
  2
EX_NONE
  0
BLOCK_RECORD
  5
8B
330
1
100
AcDbSymbolTableRecord
100
AcDbBlockTableRecord
  2
EX_CIVIL
  0
BLOCK_RECORD
  5
8E
330
1
100
AcDbSymbolTableRecord
100
AcDbBlockTableRecord
  2
EX_WCIR
  0
BLOCK_RECORD
  5
91
330
1
100
AcDbSymbolTableRecord
100
AcDbBlockTableRecord
  2
EX_WCIR2
  0
BLOCK_RECORD
  5
94
330
1
100
AcDbSymbolTableRecord
100
AcDbBlockTableRecord
  2
EX_WNORM
  0
BLOCK_RECORD
  5
97
330
1
100
AcDbSymbolTableRecord
100
AcDbBlockTableRecord
  2
EX_NNORM
  0
BLOCK_RECORD
  5
9A
330
1
100
AcDbSymbolTableRecord
100
AcDbBlockTableRecord
  2
EX_BBOX
  0
BLOCK_RECORD
  5
9D
330
1
100
AcDbSymbolTableRecord
100
AcDbBlockTableRecord
  2
EX_WBOX
  0
BLOCK_RECORD
  5
A0
330
1
100
AcDbSymbolTableRecord
100
AcDbBlockTableRecord
  2
EX_INTEGRAL
  0
BLOCK_RECORD
  5
1F7
330
1
100
AcDbSymbolTableRecord
100
AcDbBlockTableRecord
  2
*D15
  0
BLOCK_RECORD
  5
204
330
1
100
AcDbSymbolTableRecord
100
AcDbBlockTableRecord
  2
*D16
  0
BLOCK_RECORD
  5
211
330
1
100
AcDbSymbolTableRecord
100
AcDbBlockTableRecord
  2
*D17
  0
BLOCK_RECORD
  5
21E
330
1
100
AcDbSymbolTableRecord
100
AcDbBlockTableRecord
  2
*D18
  0
BLOCK_RECORD
  5
22B
330
1
100
AcDbSymbolTableRecord
100
AcDbBlockTableRecord
  2
*D19
  0
BLOCK_RECORD
  5
238
330
1
100
AcDbSymbolTableRecord
100
AcDbBlockTableRecord
  2
*D20
  0
BLOCK_RECORD
  5
246
330
1
100
AcDbSymbolTableRecord
100
AcDbBlockTableRecord
  2
*D21
  0
BLOCK_RECORD
  5
262
330
1
100
AcDbSymbolTableRecord
100
AcDbBlockTableRecord
  2
*D22
  0
BLOCK_RECORD
  5
26F
330
1
100
AcDbSymbolTableRecord
100
AcDbBlockTableRecord
  2
*D23
  0
BLOCK_RECORD
  5
27C
330
1
100
AcDbSymbolTableRecord
100
AcDbBlockTableRecord
  2
*D24
  0
BLOCK_RECORD
  5
289
330
1
100
AcDbSymbolTableRecord
100
AcDbBlockTableRecord
  2
*D25
  0
BLOCK_RECORD
  5
35E
330
1
100
AcDbSymbolTableRecord
100
AcDbBlockTableRecord
  2
*D26
  0
ENDTAB
  0
ENDSEC
  0
SECTION
  2
BLOCKS
  0
BLOCK
  5
20
330
1F
100
AcDbEntity
  8
0
100
AcDbBlockBegin
  2
*MODEL_SPACE
 70
     0
 10
0.0
 20
0.0
 30
0.0
  3
*MODEL_SPACE
  1

  0
ENDBLK
  5
21
330
1F
100
AcDbEntity
  8
0
100
AcDbBlockEnd
  0
BLOCK
  5
1C
330
1B
100
AcDbEntity
 67
     1
  8
0
100
AcDbBlockBegin
  2
*PAPER_SPACE
 70
     0
 10
0.0
 20
0.0
 30
0.0
  3
*PAPER_SPACE
  1

  0
ENDBLK
  5
1D
330
1B
100
AcDbEntity
 67
     1
  8
0
100
AcDbBlockEnd
  0
BLOCK
  5
7A
330
79
100
AcDbEntity
  8
0
100
AcDbBlockBegin
  2
EX_NORM
 70
     0
 10
0.0
 20
0.0
 30
0.0
  3
EX_NORM
  1

  0
LINE
  5
A3
330
79
100
AcDbEntity
  8
0
  6
CONTINUOUS
 62
     0
100
AcDbLine
 10
0.0
 20
0.0
 30
0.0
 11
-1.0
 21
0.0
 31
0.0
  0
LINE
  5
A4
330
79
100
AcDbEntity
  8
0
  6
CONTINUOUS
 62
     0
100
AcDbLine
 10
0.0
 20
0.0
 30
0.0
 11
-1.0
 21
0.166666667
 31
0.0
  0
LINE
  5
A5
330
79
100
AcDbEntity
  8
0
  6
CONTINUOUS
 62
     0
100
AcDbLine
 10
0.0
 20
0.0
 30
0.0
 11
-1.0
 21
-0.166666667
 31
0.0
  0
ENDBLK
  5
7B
330
79
100
AcDbEntity
  8
0
100
AcDbBlockEnd
  0
BLOCK
  5
7D
330
7C
100
AcDbEntity
  8
0
100
AcDbBlockBegin
  2
EX_BNORM
 70
     0
 10
0.0
 20
0.0
 30
0.0
  3
EX_BNORM
  1

  0
LINE
  5
A6
330
7C
100
AcDbEntity
  8
0
  6
CONTINUOUS
 62
     0
100
AcDbLine
 10
0.0
 20
0.0
 30
0.0
 11
-1.0
 21
0.0
 31
0.0
  0
LINE
  5
A7
330
7C
100
AcDbEntity
  8
0
  6
CONTINUOUS
 62
     0
100
AcDbLine
 10
0.0
 20
0.0
 30
0.0
 11
-1.0
 21
0.166666667
 31
0.0
  0
LINE
  5
A8
330
7C
100
AcDbEntity
  8
0
  6
CONTINUOUS
 62
     0
100
AcDbLine
 10
0.0
 20
0.0
 30
0.0
 11
-1.0
 21
-0.166666667
 31
0.0
  0
LINE
  5
A9
330
7C
100
AcDbEntity
  8
0
  6
CONTINUOUS
 62
     0
100
AcDbLine
 10
0.0
 20
0.0
 30
0.0
 11
-1.0
 21
0.083333333
 31
0.0
  0
LINE
  5
AA
330
7C
100
AcDbEntity
  8
0
  6
CONTINUOUS
 62
     0
100
AcDbLine
 10
0.0
 20
0.0
 30
0.0
 11
-1.0
 21
-0.083333333
 31
0.0
  0
LINE
  5
AB
330
7C
100
AcDbEntity
  8
0
  6
CONTINUOUS
 62
     0
100
AcDbLine
 10
-1.0
 20
0.166666667
 30
0.0
 11
-1.0
 21
-0.166666667
 31
0.0
  0
ENDBLK
  5
7E
330
7C
100
AcDbEntity
  8
0
100
AcDbBlockEnd
  0
BLOCK
  5
80
330
7F
100
AcDbEntity
  8
0
100
AcDbBlockBegin
  2
EX_BCIR
 70
     0
 10
0.0
 20
0.0
 30
0.0
  3
EX_BCIR
  1

  0
LINE
  5
AC
330
7F
100
AcDbEntity
  8
0
  6
CONTINUOUS
 62
     0
100
AcDbLine
 10
0.0
 20
0.0
 30
0.0
 11
-1.0
 21
0.0
 31
0.0
  0
CIRCLE
  5
AD
330
7F
100
AcDbEntity
  8
0
  6
CONTINUOUS
 62
     0
100
AcDbCircle
 10
0.0
 20
0.0
 30
0.0
 40
0.5
  0
CIRCLE
  5
AE
330
7F
100
AcDbEntity
  8
0
  6
CONTINUOUS
 62
     0
100
AcDbCircle
 10
0.0
 20
0.0
 30
0.0
 40
0.25
  0
ENDBLK
  5
81
330
7F
100
AcDbEntity
  8
0
100
AcDbBlockEnd
  0
BLOCK
  5
83
330
82
100
AcDbEntity
  8
0
100
AcDbBlockBegin
  2
EX_RCIVIL
 70
     0
 10
0.0
 20
0.0
 30
0.0
  3
EX_RCIVIL
  1

  0
LINE
  5
AF
330
82
100
AcDbEntity
  8
0
  6
CONTINUOUS
 62
     0
100
AcDbLine
 10
0.0
 20
0.0
 30
0.0
 11
-1.0
 21
0.0
 31
0.0
  0
LINE
  5
B0
330
82
100
AcDbEntity
  8
0
  6
CONTINUOUS
 62
     0
100
AcDbLine
 10
-1.0
 20
-0.25
 30
0.0
 11
0.0
 21
-0.25
 31
0.0
  0
LINE
  5
B1
330
82
100
AcDbEntity
  8
0
  6
CONTINUOUS
 62
     0
100
AcDbLine
 10
-1.0
 20
-0.125
 30
0.0
 11
0.0
 21
-0.125
 31
0.0
  0
ENDBLK
  5
84
330
82
100
AcDbEntity
  8
0
100
AcDbBlockEnd
  0
BLOCK
  5
86
330
85
100
AcDbEntity
  8
0
100
AcDbBlockBegin
  2
EX_SLANT
 70
     0
 10
0.0
 20
0.0
 30
0.0
  3
EX_SLANT
  1

  0
LINE
  5
B2
330
85
100
AcDbEntity
  8
0
  6
CONTINUOUS
 62
     0
100
AcDbLine
 10
0.0
 20
0.0
 30
0.0
 11
-1.0
 21
0.0
 31
0.0
  0
LINE
  5
B3
330
85
100
AcDbEntity
  8
0
  6
CONTINUOUS
 62
     0
100
AcDbLine
 10
0.707106781
 20
0.707106781
 30
0.0
 11
-0.707106781
 21
-0.707106781
 31
0.0
  0
ENDBLK
  5
87
330
85
100
AcDbEntity
  8
0
100
AcDbBlockEnd
  0
BLOCK
  5
89
330
88
100
AcDbEntity
  8
0
100
AcDbBlockBegin
  2
EX_NONE
 70
     0
 10
0.0
 20
0.0
 30
0.0
  3
EX_NONE
  1

  0
LINE
  5
B4
330
88
100
AcDbEntity
  8
0
  6
CONTINUOUS
 62
     0
100
AcDbLine
 10
0.0
 20
0.0
 30
0.0
 11
-1.0
 21
0.0
 31
0.0
  0
ENDBLK
  5
8A
330
88
100
AcDbEntity
  8
0
100
AcDbBlockEnd
  0
BLOCK
  5
8C
330
8B
100
AcDbEntity
  8
0
100
AcDbBlockBegin
  2
EX_CIVIL
 70
     0
 10
0.0
 20
0.0
 30
0.0
  3
EX_CIVIL
  1

  0
LINE
  5
B5
330
8B
100
AcDbEntity
  8
0
  6
CONTINUOUS
 62
     0
100
AcDbLine
 10
0.0
 20
0.0
 30
0.0
 11
-1.0
 21
0.0
 31
0.0
  0
LINE
  5
B6
330
8B
100
AcDbEntity
  8
0
  6
CONTINUOUS
 62
     0
100
AcDbLine
 10
-1.0
 20
0.25
 30
0.0
 11
0.0
 21
0.25
 31
0.0
  0
LINE
  5
B7
330
8B
100
AcDbEntity
  8
0
  6
CONTINUOUS
 62
     0
100
AcDbLine
 10
-1.0
 20
0.125
 30
0.0
 11
0.0
 21
0.125
 31
0.0
  0
ENDBLK
  5
8D
330
8B
100
AcDbEntity
  8
0
100
AcDbBlockEnd
  0
BLOCK
  5
8F
330
8E
100
AcDbEntity
  8
0
100
AcDbBlockBegin
  2
EX_WCIR
 70
     0
 10
0.0
 20
0.0
 30
0.0
  3
EX_WCIR
  1

  0
LINE
  5
B8
330
8E
100
AcDbEntity
  8
0
  6
CONTINUOUS
 62
     0
100
AcDbLine
 10
0.0
 20
0.0
 30
0.0
 11
-1.0
 21
0.0
 31
0.0
  0
CIRCLE
  5
B9
330
8E
100
AcDbEntity
  8
0
  6
CONTINUOUS
 62
     0
100
AcDbCircle
 10
0.0
 20
0.0
 30
0.0
 40
0.5
  0
ENDBLK
  5
90
330
8E
100
AcDbEntity
  8
0
100
AcDbBlockEnd
  0
BLOCK
  5
92
330
91
100
AcDbEntity
  8
0
100
AcDbBlockBegin
  2
EX_WCIR2
 70
     0
 10
0.0
 20
0.0
 30
0.0
  3
EX_WCIR2
  1

  0
LINE
  5
BA
330
91
100
AcDbEntity
  8
0
  6
CONTINUOUS
 62
     0
100
AcDbLine
 10
-0.5
 20
0.0
 30
0.0
 11
-1.0
 21
0.0
 31
0.0
  0
CIRCLE
  5
BB
330
91
100
AcDbEntity
  8
0
  6
CONTINUOUS
 62
     0
100
AcDbCircle
 10
0.0
 20
0.0
 30
0.0
 40
0.5
  0
ENDBLK
  5
93
330
91
100
AcDbEntity
  8
0
100
AcDbBlockEnd
  0
BLOCK
  5
95
330
94
100
AcDbEntity
  8
0
100
AcDbBlockBegin
  2
EX_WNORM
 70
     0
 10
0.0
 20
0.0
 30
0.0
  3
EX_WNORM
  1

  0
LINE
  5
BC
330
94
100
AcDbEntity
  8
0
  6
CONTINUOUS
 62
     0
100
AcDbLine
 10
-1.0
 20
0.0
 30
0.0
 11
-1.0
 21
0.0
 31
0.0
  0
LINE
  5
BD
330
94
100
AcDbEntity
  8
0
  6
CONTINUOUS
 62
     0
100
AcDbLine
 10
0.0
 20
0.0
 30
0.0
 11
-1.0
 21
0.166666667
 31
0.0
  0
LINE
  5
BE
330
94
100
AcDbEntity
  8
0
  6
CONTINUOUS
 62
     0
100
AcDbLine
 10
0.0
 20
0.0
 30
0.0
 11
-1.0
 21
-0.166666667
 31
0.0
  0
LINE
  5
BF
330
94
100
AcDbEntity
  8
0
  6
CONTINUOUS
 62
     0
100
AcDbLine
 10
-1.0
 20
0.166666667
 30
0.0
 11
-1.0
 21
-0.166666667
 31
0.0
  0
ENDBLK
  5
96
330
94
100
AcDbEntity
  8
0
100
AcDbBlockEnd
  0
BLOCK
  5
98
330
97
100
AcDbEntity
  8
0
100
AcDbBlockBegin
  2
EX_NNORM
 70
     0
 10
0.0
 20
0.0
 30
0.0
  3
EX_NNORM
  1

  0
LINE
  5
C0
330
97
100
AcDbEntity
  8
0
  6
CONTINUOUS
 62
     0
100
AcDbLine
 10
0.0
 20
0.0
 30
0.0
 11
-1.0
 21
0.0
 31
0.0
  0
LINE
  5
C1
330
97
100
AcDbEntity
  8
0
  6
CONTINUOUS
 62
     0
100
AcDbLine
 10
0.0
 20
0.0
 30
0.0
 11
-1.0
 21
0.166666667
 31
0.0
  0
LINE
  5
C2
330
97
100
AcDbEntity
  8
0
  6
CONTINUOUS
 62
     0
100
AcDbLine
 10
0.0
 20
0.0
 30
0.0
 11
-1.0
 21
-0.166666667
 31
0.0
  0
LINE
  5
C3
330
97
100
AcDbEntity
  8
0
  6
CONTINUOUS
 62
     0
100
AcDbLine
 10
-1.0
 20
0.166666667
 30
0.0
 11
-1.0
 21
-0.166666667
 31
0.0
  0
ENDBLK
  5
99
330
97
100
AcDbEntity
  8
0
100
AcDbBlockEnd
  0
BLOCK
  5
9B
330
9A
100
AcDbEntity
  8
0
100
AcDbBlockBegin
  2
EX_BBOX
 70
     0
 10
0.0
 20
0.0
 30
0.0
  3
EX_BBOX
  1

  0
LINE
  5
C4
330
9A
100
AcDbEntity
  8
0
  6
CONTINUOUS
 62
     0
100
AcDbLine
 10
0.0
 20
0.0
 30
0.0
 11
-1.0
 21
0.0
 31
0.0
  0
LINE
  5
C5
330
9A
100
AcDbEntity
  8
0
  6
CONTINUOUS
 62
     0
100
AcDbLine
 10
-0.5
 20
0.5
 30
0.0
 11
0.5
 21
0.5
 31
0.0
  0
LINE
  5
C6
330
9A
100
AcDbEntity
  8
0
  6
CONTINUOUS
 62
     0
100
AcDbLine
 10
0.5
 20
0.5
 30
0.0
 11
0.5
 21
-0.5
 31
0.0
  0
LINE
  5
C7
330
9A
100
AcDbEntity
  8
0
  6
CONTINUOUS
 62
     0
100
AcDbLine
 10
0.5
 20
-0.5
 30
0.0
 11
-0.5
 21
-0.5
 31
0.0
  0
LINE
  5
C8
330
9A
100
AcDbEntity
  8
0
  6
CONTINUOUS
 62
     0
100
AcDbLine
 10
-0.5
 20
-0.5
 30
0.0
 11
-0.5
 21
0.5
 31
0.0
  0
LINE
  5
C9
330
9A
100
AcDbEntity
  8
0
  6
CONTINUOUS
 62
     0
100
AcDbLine
 10
-0.25
 20
0.25
 30
0.0
 11
0.25
 21
0.25
 31
0.0
  0
LINE
  5
CA
330
9A
100
AcDbEntity
  8
0
  6
CONTINUOUS
 62
     0
100
AcDbLine
 10
0.25
 20
0.25
 30
0.0
 11
0.25
 21
-0.25
 31
0.0
  0
LINE
  5
CB
330
9A
100
AcDbEntity
  8
0
  6
CONTINUOUS
 62
     0
100
AcDbLine
 10
0.25
 20
-0.25
 30
0.0
 11
-0.25
 21
-0.25
 31
0.0
  0
LINE
  5
CC
330
9A
100
AcDbEntity
  8
0
  6
CONTINUOUS
 62
     0
100
AcDbLine
 10
-0.25
 20
-0.25
 30
0.0
 11
-0.25
 21
0.25
 31
0.0
  0
ENDBLK
  5
9C
330
9A
100
AcDbEntity
  8
0
100
AcDbBlockEnd
  0
BLOCK
  5
9E
330
9D
100
AcDbEntity
  8
0
100
AcDbBlockBegin
  2
EX_WBOX
 70
     0
 10
0.0
 20
0.0
 30
0.0
  3
EX_WBOX
  1

  0
LINE
  5
CD
330
9D
100
AcDbEntity
  8
0
  6
CONTINUOUS
 62
     0
100
AcDbLine
 10
-0.5
 20
0.0
 30
0.0
 11
-1.0
 21
0.0
 31
0.0
  0
LINE
  5
CE
330
9D
100
AcDbEntity
  8
0
  6
CONTINUOUS
 62
     0
100
AcDbLine
 10
-0.5
 20
0.5
 30
0.0
 11
0.5
 21
0.5
 31
0.0
  0
LINE
  5
CF
330
9D
100
AcDbEntity
  8
0
  6
CONTINUOUS
 62
     0
100
AcDbLine
 10
0.5
 20
0.5
 30
0.0
 11
0.5
 21
-0.5
 31
0.0
  0
LINE
  5
D0
330
9D
100
AcDbEntity
  8
0
  6
CONTINUOUS
 62
     0
100
AcDbLine
 10
0.5
 20
-0.5
 30
0.0
 11
-0.5
 21
-0.5
 31
0.0
  0
LINE
  5
D1
330
9D
100
AcDbEntity
  8
0
  6
CONTINUOUS
 62
     0
100
AcDbLine
 10
-0.5
 20
-0.5
 30
0.0
 11
-0.5
 21
0.5
 31
0.0
  0
ENDBLK
  5
9F
330
9D
100
AcDbEntity
  8
0
100
AcDbBlockEnd
  0
BLOCK
  5
A1
330
A0
100
AcDbEntity
  8
0
100
AcDbBlockBegin
  2
EX_INTEGRAL
 70
     0
 10
0.0
 20
0.0
 30
0.0
  3
EX_INTEGRAL
  1

  0
LINE
  5
D2
330
A0
100
AcDbEntity
  8
0
  6
CONTINUOUS
 62
     0
100
AcDbLine
 10
0.0
 20
0.0
 30
0.0
 11
-1.0
 21
0.0
 31
0.0
  0
ARC
  5
D3
330
A0
100
AcDbEntity
  8
0
  6
CONTINUOUS
 62
     0
100
AcDbCircle
 10
0.542115
 20
0.164992
 30
0.0
 40
0.56667
100
AcDbArc
 50
73.07249033629006
 51
196.9275130221199
  0
ARC
  5
D4
330
A0
100
AcDbEntity
  8
0
  6
CONTINUOUS
 62
     0
100
AcDbCircle
 10
-0.542115
 20
-0.164992
 30
0.0
 40
0.56667
100
AcDbArc
 50
253.0724869220464
 51
16.9275130559125
  0
ENDBLK
  5
A2
330
A0
100
AcDbEntity
  8
0
100
AcDbBlockEnd
  0
BLOCK
  5
1F8
330
1F7
100
AcDbEntity
  8
0
100
AcDbBlockBegin
  2
*D15
 70
     1
 10
0.0
 20
0.0
 30
0.0
  3
*D15
  1

  0
LINE
  5
1FA
330
1F7
100
AcDbEntity
  8
Ｓ_１_１
  6
CONTINUOUS
 62
     2
100
AcDbLine
 10
471.2500000000001
 20
227.4999999999999
 30
0.0
 11
501.5
 21
227.4999999999999
 31
0.0
  0
LINE
  5
1FB
330
1F7
100
AcDbEntity
  8
Ｓ_１_１
  6
CONTINUOUS
 62
     2
100
AcDbLine
 10
471.2500000000001
 20
92.49999999999994
 30
0.0
 11
501.5
 21
92.49999999999994
 31
0.0
  0
LINE
  5
1FC
330
1F7
100
AcDbEntity
  8
Ｓ_１_１
  6
CONTINUOUS
 62
     2
100
AcDbLine
 10
500.0
 20
222.9999999999999
 30
0.0
 11
500.0
 21
96.99999999999994
 31
0.0
  0
INSERT
  5
1FD
330
1F7
100
AcDbEntity
  8
Ｓ_１_１
 62
     2
100
AcDbBlockReference
  2
EX_NORM
 10
500.0
 20
227.4999999999999
 30
0.0
 41
4.5
 42
4.5
 43
4.5
 50
90.0
  0
INSERT
  5
1FE
330
1F7
100
AcDbEntity
  8
Ｓ_１_１
 62
     2
100
AcDbBlockReference
  2
EX_NORM
 10
500.0
 20
92.49999999999994
 30
0.0
 41
4.5
 42
4.5
 43
4.5
 50
270.0
  0
MTEXT
  5
1FF
330
1F7
100
AcDbEntity
  8
Ｓ_１_１
 62
     2
100
AcDbMText
 10
495.875
 20
159.9999999999999
 30
0.0
 40
5.19435623556582
 41
0.0
 71
     5
 72
     1
  1
%%c135
  7
EXCADDIM1
 11
0.0
 21
1.0
 31
0.0
  0
POINT
  5
200
330
1F7
100
AcDbEntity
  8
DEFPOINTS
 62
     0
100
AcDbPoint
 10
469.0000000000001
 20
227.4999999999999
 30
0.0
  0
POINT
  5
201
330
1F7
100
AcDbEntity
  8
DEFPOINTS
 62
     0
100
AcDbPoint
 10
469.0000000000001
 20
92.49999999999994
 30
0.0
  0
POINT
  5
202
330
1F7
100
AcDbEntity
  8
DEFPOINTS
 62
     0
100
AcDbPoint
 10
500.0
 20
92.49999999999994
 30
0.0
  0
ENDBLK
  5
1F9
330
1F7
100
AcDbEntity
  8
0
100
AcDbBlockEnd
  0
BLOCK
  5
205
330
204
100
AcDbEntity
  8
0
100
AcDbBlockBegin
  2
*D16
 70
     1
 10
0.0
 20
0.0
 30
0.0
  3
*D16
  1

  0
LINE
  5
207
330
204
100
AcDbEntity
  8
Ｓ_１_１
  6
CONTINUOUS
 62
     2
100
AcDbLine
 10
471.249985
 20
227.5
 30
0.0
 11
501.5
 21
227.5
 31
0.0
  0
LINE
  5
208
330
204
100
AcDbEntity
  8
Ｓ_１_１
  6
CONTINUOUS
 62
     2
100
AcDbLine
 10
429.2499849999
 20
316.58752080861
 30
0.0
 11
501.5
 21
316.58752080861
 31
0.0
  0
LINE
  5
209
330
204
100
AcDbEntity
  8
Ｓ_１_１
  6
CONTINUOUS
 62
     2
100
AcDbLine
 10
500.0
 20
232.0
 30
0.0
 11
500.0
 21
312.08752080861
 31
0.0
  0
INSERT
  5
20A
330
204
100
AcDbEntity
  8
Ｓ_１_１
 62
     2
100
AcDbBlockReference
  2
EX_NORM
 10
500.0
 20
227.5
 30
0.0
 41
4.5
 42
4.5
 43
4.5
 50
270.0
  0
INSERT
  5
20B
330
204
100
AcDbEntity
  8
Ｓ_１_１
 62
     2
100
AcDbBlockReference
  2
EX_NORM
 10
500.0
 20
316.58752080861
 30
0.0
 41
4.5
 42
4.5
 43
4.5
 50
90.0
  0
MTEXT
  5
20C
330
204
100
AcDbEntity
  8
Ｓ_１_１
 62
     2
100
AcDbMText
 10
495.875
 20
272.043760404305
 30
0.0
 40
5.19435623556582
 41
0.0
 71
     5
 72
     1
  1
(89)
  7
EXCADDIM1
 11
0.0
 21
1.0
 31
0.0
  0
POINT
  5
20D
330
204
100
AcDbEntity
  8
DEFPOINTS
 62
     0
100
AcDbPoint
 10
468.999985
 20
227.5
 30
0.0
  0
POINT
  5
20E
330
204
100
AcDbEntity
  8
DEFPOINTS
 62
     0
100
AcDbPoint
 10
426.9999849999
 20
316.58752080861
 30
0.0
  0
POINT
  5
20F
330
204
100
AcDbEntity
  8
DEFPOINTS
 62
     0
100
AcDbPoint
 10
500.0
 20
316.58752080861
 30
0.0
  0
ENDBLK
  5
206
330
204
100
AcDbEntity
  8
0
100
AcDbBlockEnd
  0
BLOCK
  5
212
330
211
100
AcDbEntity
  8
0
100
AcDbBlockBegin
  2
*D17
 70
     1
 10
0.0
 20
0.0
 30
0.0
  3
*D17
  1

  0
LINE
  5
214
330
211
100
AcDbEntity
  8
Ｓ_１_１
  6
CONTINUOUS
 62
     2
100
AcDbLine
 10
470.0
 20
228.749985
 30
0.0
 11
470.0
 21
351.5
 31
0.0
  0
LINE
  5
215
330
211
100
AcDbEntity
  8
Ｓ_１_１
  6
CONTINUOUS
 62
     2
100
AcDbLine
 10
414.999985
 20
322.11711573657
 30
0.0
 11
414.999985
 21
351.5
 31
0.0
  0
LINE
  5
216
330
211
100
AcDbEntity
  8
Ｓ_１_１
  6
CONTINUOUS
 62
     2
100
AcDbLine
 10
465.5
 20
350.0
 30
0.0
 11
419.499985
 21
350.0
 31
0.0
  0
INSERT
  5
217
330
211
100
AcDbEntity
  8
Ｓ_１_１
 62
     2
100
AcDbBlockReference
  2
EX_NORM
 10
470.0
 20
350.0
 30
0.0
 41
4.5
 42
4.5
 43
4.5
  0
INSERT
  5
218
330
211
100
AcDbEntity
  8
Ｓ_１_１
 62
     2
100
AcDbBlockReference
  2
EX_NORM
 10
414.999985
 20
350.0
 30
0.0
 41
4.5
 42
4.5
 43
4.5
 50
180.0
  0
MTEXT
  5
219
330
211
100
AcDbEntity
  8
Ｓ_１_１
 62
     2
100
AcDbMText
 10
442.4999925
 20
354.125
 30
0.0
 40
5.19435623556582
 41
0.0
 71
     5
 72
     1
  1
55
  7
EXCADDIM1
  0
POINT
  5
21A
330
211
100
AcDbEntity
  8
DEFPOINTS
 62
     0
100
AcDbPoint
 10
470.0
 20
226.499985
 30
0.0
  0
POINT
  5
21B
330
211
100
AcDbEntity
  8
DEFPOINTS
 62
     0
100
AcDbPoint
 10
414.999985
 20
319.86711573657
 30
0.0
  0
POINT
  5
21C
330
211
100
AcDbEntity
  8
DEFPOINTS
 62
     0
100
AcDbPoint
 10
414.999985
 20
350.0
 30
0.0
  0
ENDBLK
  5
213
330
211
100
AcDbEntity
  8
0
100
AcDbBlockEnd
  0
BLOCK
  5
21F
330
21E
100
AcDbEntity
  8
0
100
AcDbBlockBegin
  2
*D18
 70
     1
 10
0.0
 20
0.0
 30
0.0
  3
*D18
  1

  0
LINE
  5
221
330
21E
100
AcDbEntity
  8
Ｓ_１_１
  6
CONTINUOUS
 62
     2
100
AcDbLine
 10
414.999985
 20
322.11711573657
 30
0.0
 11
414.999985
 21
351.5
 31
0.0
  0
LINE
  5
222
330
21E
100
AcDbEntity
  8
Ｓ_１_１
  6
CONTINUOUS
 62
     2
100
AcDbLine
 10
344.999985
 20
332.6
 30
0.0
 11
344.999985
 21
351.5
 31
0.0
  0
LINE
  5
223
330
21E
100
AcDbEntity
  8
Ｓ_１_１
  6
CONTINUOUS
 62
     2
100
AcDbLine
 10
410.499985
 20
350.0
 30
0.0
 11
349.499985
 21
350.0
 31
0.0
  0
INSERT
  5
224
330
21E
100
AcDbEntity
  8
Ｓ_１_１
 62
     2
100
AcDbBlockReference
  2
EX_NORM
 10
414.999985
 20
350.0
 30
0.0
 41
4.5
 42
4.5
 43
4.5
  0
INSERT
  5
225
330
21E
100
AcDbEntity
  8
Ｓ_１_１
 62
     2
100
AcDbBlockReference
  2
EX_NORM
 10
344.999985
 20
350.0
 30
0.0
 41
4.5
 42
4.5
 43
4.5
 50
180.0
  0
MTEXT
  5
226
330
21E
100
AcDbEntity
  8
Ｓ_１_１
 62
     2
100
AcDbMText
 10
379.999985
 20
354.125
 30
0.0
 40
5.19435623556582
 41
0.0
 71
     5
 72
     1
  1
70
  7
EXCADDIM1
  0
POINT
  5
227
330
21E
100
AcDbEntity
  8
DEFPOINTS
 62
     0
100
AcDbPoint
 10
414.999985
 20
319.86711573657
 30
0.0
  0
POINT
  5
228
330
21E
100
AcDbEntity
  8
DEFPOINTS
 62
     0
100
AcDbPoint
 10
344.999985
 20
330.35
 30
0.0
  0
POINT
  5
229
330
21E
100
AcDbEntity
  8
DEFPOINTS
 62
     0
100
AcDbPoint
 10
344.999985
 20
350.0
 30
0.0
  0
ENDBLK
  5
220
330
21E
100
AcDbEntity
  8
0
100
AcDbBlockEnd
  0
BLOCK
  5
22C
330
22B
100
AcDbEntity
  8
0
100
AcDbBlockBegin
  2
*D19
 70
     1
 10
0.0
 20
0.0
 30
0.0
  3
*D19
  1

  0
LINE
  5
22E
330
22B
100
AcDbEntity
  8
Ｓ_１_１
  6
CONTINUOUS
 62
     2
100
AcDbLine
 10
344.999985
 20
332.6
 30
0.0
 11
344.999985
 21
351.5
 31
0.0
  0
LINE
  5
22F
330
22B
100
AcDbEntity
  8
Ｓ_１_１
  6
CONTINUOUS
 62
     2
100
AcDbLine
 10
299.999985
 20
227.75
 30
0.0
 11
299.999985
 21
351.5
 31
0.0
  0
LINE
  5
230
330
22B
100
AcDbEntity
  8
Ｓ_１_１
  6
CONTINUOUS
 62
     2
100
AcDbLine
 10
340.499985
 20
350.0
 30
0.0
 11
304.499985
 21
350.0
 31
0.0
  0
INSERT
  5
231
330
22B
100
AcDbEntity
  8
Ｓ_１_１
 62
     2
100
AcDbBlockReference
  2
EX_NORM
 10
344.999985
 20
350.0
 30
0.0
 41
4.5
 42
4.5
 43
4.5
  0
INSERT
  5
232
330
22B
100
AcDbEntity
  8
Ｓ_１_１
 62
     2
100
AcDbBlockReference
  2
EX_NORM
 10
299.999985
 20
350.0
 30
0.0
 41
4.5
 42
4.5
 43
4.5
 50
180.0
  0
MTEXT
  5
233
330
22B
100
AcDbEntity
  8
Ｓ_１_１
 62
     2
100
AcDbMText
 10
322.499985
 20
354.125
 30
0.0
 40
5.19435623556582
 41
0.0
 71
     5
 72
     1
  1
45
  7
EXCADDIM1
  0
POINT
  5
234
330
22B
100
AcDbEntity
  8
DEFPOINTS
 62
     0
100
AcDbPoint
 10
344.999985
 20
330.35
 30
0.0
  0
POINT
  5
235
330
22B
100
AcDbEntity
  8
DEFPOINTS
 62
     0
100
AcDbPoint
 10
299.999985
 20
225.5
 30
0.0
  0
POINT
  5
236
330
22B
100
AcDbEntity
  8
DEFPOINTS
 62
     0
100
AcDbPoint
 10
299.999985
 20
350.0
 30
0.0
  0
ENDBLK
  5
22D
330
22B
100
AcDbEntity
  8
0
100
AcDbBlockEnd
  0
BLOCK
  5
239
330
238
100
AcDbEntity
  8
0
100
AcDbBlockBegin
  2
*D20
 70
     1
 10
0.0
 20
0.0
 30
0.0
  3
*D20
  1

  0
LINE
  5
23B
330
238
100
AcDbEntity
  8
Ｓ_１_１
  6
CONTINUOUS
 62
     2
100
AcDbLine
 10
180.7424426816002
 20
265.0935020204776
 30
0.0
 11
215.8166809999975
 21
325.8438648247206
 31
0.0
  0
LINE
  5
23C
330
238
100
AcDbEntity
  8
Ｓ_１_１
  6
CONTINUOUS
 62
     2
100
AcDbLine
 10
120.0666810000002
 20
335.11711573657
 30
0.0
 11
120.0666810000002
 21
351.5
 31
0.0
  0
ARC
  5
23D
330
238
100
AcDbEntity
  8
Ｓ_１_１
  6
CONTINUOUS
 62
     2
100
AcDbCircle
 10
120.0666810000002
 20
160.0000000000064
 30
0.0
 40
189.9999999999936
100
AcDbArc
 50
61.35703702296856
 51
88.64296297703127
  0
INSERT
  5
23E
330
238
100
AcDbEntity
  8
Ｓ_１_１
 62
     2
100
AcDbBlockReference
  2
EX_NORM
 10
215.0666809999975
 20
324.5448267190439
 30
0.0
 41
4.5
 42
4.5
 43
4.5
 50
330.6785185114842
  0
INSERT
  5
23F
330
238
100
AcDbEntity
  8
Ｓ_１_１
 62
     2
100
AcDbBlockReference
  2
EX_NORM
 10
120.0666810000002
 20
350.0
 30
0.0
 41
4.5
 42
4.5
 43
4.5
 50
179.3214814885156
  0
MTEXT
  5
240
330
238
100
AcDbEntity
  8
Ｓ_１_１
 62
     2
100
AcDbMText
 10
170.3099281305257
 20
347.5103510283655
 30
0.0
 40
5.19435623556582
 41
0.0
 71
     5
 72
     1
  1
30%%d
  7
EXCADDIM1
 11
0.965925826289068
 21
-0.2588190451025223
 31
0.0
  0
POINT
  5
241
330
238
100
AcDbEntity
  8
DEFPOINTS
 62
     0
100
AcDbPoint
 10
120.0666810000002
 20
160.0000000000064
 30
0.0
  0
POINT
  5
242
330
238
100
AcDbEntity
  8
DEFPOINTS
 62
     0
100
AcDbPoint
 10
179.6174426816002
 20
263.1449448619626
 30
0.0
  0
POINT
  5
243
330
238
100
AcDbEntity
  8
DEFPOINTS
 62
     0
100
AcDbPoint
 10
120.0666810000002
 20
332.86711573657
 30
0.0
  0
POINT
  5
244
330
238
100
AcDbEntity
  8
DEFPOINTS
 62
     0
100
AcDbPoint
 10
185.0505082318755
 20
338.5415979493229
 30
0.0
  0
ENDBLK
  5
23A
330
238
100
AcDbEntity
  8
0
100
AcDbBlockEnd
  0
BLOCK
  5
247
330
246
100
AcDbEntity
  8
0
100
AcDbBlockBegin
  2
*D21
 70
     1
 10
0.0
 20
0.0
 30
0.0
  3
*D21
  1

  0
LINE
  5
249
330
246
100
AcDbEntity
  8
Ｓ_１_１
  6
CONTINUOUS
 62
     2
100
AcDbLine
 10
88.21488368455606
 20
100.446563842447
 30
0.0
 11
166.8512988323002
 21
55.012625689086
 31
0.0
  0
LINE
  5
24A
330
246
100
AcDbEntity
  8
Ｓ_１_１
  6
CONTINUOUS
 62
     2
100
AcDbLine
 10
179.5148820835661
 20
258.467304920597
 30
0.0
 11
258.1512972313103
 21
213.033366767236
 31
0.0
  0
LINE
  5
24B
330
246
100
AcDbEntity
  8
Ｓ_１_１
  6
CONTINUOUS
 62
     2
100
AcDbLine
 10
167.8037311391688
 20
59.65943886596678
 30
0.0
 11
254.6012634796868
 21
209.8873756098525
 31
0.0
  0
INSERT
  5
24C
330
246
100
AcDbEntity
  8
Ｓ_１_１
 62
     2
100
AcDbBlockReference
  2
EX_NORM
 10
165.5524981099228
 20
55.76303669883467
 30
0.0
 41
4.5
 42
4.5
 43
4.5
 50
239.9818702195944
  0
INSERT
  5
24D
330
246
100
AcDbEntity
  8
Ｓ_１_１
 62
     2
100
AcDbBlockReference
  2
EX_NORM
 10
256.8524965089329
 20
213.7837777769847
 30
0.0
 41
4.5
 42
4.5
 43
4.5
 50
59.9818702195944
  0
MTEXT
  5
24E
330
246
100
AcDbEntity
  8
Ｓ_１_１
 62
     2
100
AcDbMText
 10
207.6307953228901
 20
136.8370375147185
 30
0.0
 40
5.19435623556582
 41
0.0
 71
     5
 72
     1
  1
182.5
  7
EXCADDIM1
 11
0.5002740064991116
 21
0.865867148251582
 31
0.0
  0
POINT
  5
24F
330
246
100
AcDbEntity
  8
DEFPOINTS
 62
     0
100
AcDbPoint
 10
86.26668260099001
 20
101.57218035707
 30
0.0
  0
POINT
  5
250
330
246
100
AcDbEntity
  8
DEFPOINTS
 62
     0
100
AcDbPoint
 10
177.566681
 20
259.59292143522
 30
0.0
  0
POINT
  5
251
330
246
100
AcDbEntity
  8
DEFPOINTS
 62
     0
100
AcDbPoint
 10
256.8524965089329
 20
213.7837777769847
 30
0.0
  0
ENDBLK
  5
248
330
246
100
AcDbEntity
  8
0
100
AcDbBlockEnd
  0
BLOCK
  5
263
330
262
100
AcDbEntity
  8
0
100
AcDbBlockBegin
  2
*D22
 70
     1
 10
0.0
 20
0.0
 30
0.0
  3
*D22
  1

  0
LINE
  5
265
330
262
100
AcDbEntity
  8
Ｓ_１_１
  6
CONTINUOUS
 62
     2
100
AcDbLine
 10
299.999985
 20
92.250029
 30
0.0
 11
299.999985
 21
58.5
 31
0.0
  0
LINE
  5
266
330
262
100
AcDbEntity
  8
Ｓ_１_１
  6
CONTINUOUS
 62
     2
100
AcDbLine
 10
470.0
 20
91.249982
 30
0.0
 11
470.0
 21
58.5
 31
0.0
  0
LINE
  5
267
330
262
100
AcDbEntity
  8
Ｓ_１_１
  6
CONTINUOUS
 62
     2
100
AcDbLine
 10
304.499985
 20
60.0
 30
0.0
 11
465.5
 21
60.0
 31
0.0
  0
INSERT
  5
268
330
262
100
AcDbEntity
  8
Ｓ_１_１
 62
     2
100
AcDbBlockReference
  2
EX_NORM
 10
299.999985
 20
60.0
 30
0.0
 41
4.5
 42
4.5
 43
4.5
 50
180.0
  0
INSERT
  5
269
330
262
100
AcDbEntity
  8
Ｓ_１_１
 62
     2
100
AcDbBlockReference
  2
EX_NORM
 10
470.0
 20
60.0
 30
0.0
 41
4.5
 42
4.5
 43
4.5
  0
MTEXT
  5
26A
330
262
100
AcDbEntity
  8
Ｓ_１_１
 62
     2
100
AcDbMText
 10
384.9999925
 20
63.75
 30
0.0
 40
4.617205542725173
 41
0.0
 71
     5
 72
     1
  1
170
  7
EXCADDIM1
  0
POINT
  5
26B
330
262
100
AcDbEntity
  8
DEFPOINTS
 62
     0
100
AcDbPoint
 10
299.999985
 20
94.500029
 30
0.0
  0
POINT
  5
26C
330
262
100
AcDbEntity
  8
DEFPOINTS
 62
     0
100
AcDbPoint
 10
470.0
 20
93.499982
 30
0.0
  0
POINT
  5
26D
330
262
100
AcDbEntity
  8
DEFPOINTS
 62
     0
100
AcDbPoint
 10
470.0
 20
60.0
 30
0.0
  0
ENDBLK
  5
264
330
262
100
AcDbEntity
  8
0
100
AcDbBlockEnd
  0
BLOCK
  5
270
330
26F
100
AcDbEntity
  8
0
100
AcDbBlockBegin
  2
*D23
 70
     1
 10
0.0
 20
0.0
 30
0.0
  3
*D23
  1

  0
LINE
  5
272
330
26F
100
AcDbEntity
  8
Ｓ_１_１
  6
CONTINUOUS
 62
     2
100
AcDbLine
 10
289.999985
 20
123.75
 30
0.0
 11
289.999985
 21
48.49999999999999
 31
0.0
  0
LINE
  5
273
330
26F
100
AcDbEntity
  8
Ｓ_１_１
  6
CONTINUOUS
 62
     2
100
AcDbLine
 10
470.0
 20
91.249982
 30
0.0
 11
470.0
 21
48.49999999999999
 31
0.0
  0
LINE
  5
274
330
26F
100
AcDbEntity
  8
Ｓ_１_１
  6
CONTINUOUS
 62
     2
100
AcDbLine
 10
294.499985
 20
49.99999999999999
 30
0.0
 11
465.5
 21
49.99999999999999
 31
0.0
  0
INSERT
  5
275
330
26F
100
AcDbEntity
  8
Ｓ_１_１
 62
     2
100
AcDbBlockReference
  2
EX_NORM
 10
289.999985
 20
49.99999999999999
 30
0.0
 41
4.5
 42
4.5
 43
4.5
 50
180.0
  0
INSERT
  5
276
330
26F
100
AcDbEntity
  8
Ｓ_１_１
 62
     2
100
AcDbBlockReference
  2
EX_NORM
 10
470.0
 20
49.99999999999999
 30
0.0
 41
4.5
 42
4.5
 43
4.5
  0
MTEXT
  5
277
330
26F
100
AcDbEntity
  8
Ｓ_１_１
 62
     2
100
AcDbMText
 10
379.9999925
 20
53.74999999999999
 30
0.0
 40
4.617205542725173
 41
0.0
 71
     5
 72
     1
  1
180
  7
EXCADDIM1
  0
POINT
  5
278
330
26F
100
AcDbEntity
  8
DEFPOINTS
 62
     0
100
AcDbPoint
 10
289.999985
 20
126.0
 30
0.0
  0
POINT
  5
279
330
26F
100
AcDbEntity
  8
DEFPOINTS
 62
     0
100
AcDbPoint
 10
470.0
 20
93.499982
 30
0.0
  0
POINT
  5
27A
330
26F
100
AcDbEntity
  8
DEFPOINTS
 62
     0
100
AcDbPoint
 10
470.0
 20
49.99999999999999
 30
0.0
  0
ENDBLK
  5
271
330
26F
100
AcDbEntity
  8
0
100
AcDbBlockEnd
  0
BLOCK
  5
27D
330
27C
100
AcDbEntity
  8
0
100
AcDbBlockBegin
  2
*D24
 70
     1
 10
0.0
 20
0.0
 30
0.0
  3
*D24
  1

  0
LINE
  5
27F
330
27C
100
AcDbEntity
  8
Ｓ_１_１
  6
CONTINUOUS
 62
     2
100
AcDbLine
 10
289.999985
 20
123.75
 30
0.0
 11
289.999985
 21
58.5
 31
0.0
  0
LINE
  5
280
330
27C
100
AcDbEntity
  8
Ｓ_１_１
  6
CONTINUOUS
 62
     2
100
AcDbLine
 10
299.999985
 20
92.250029
 30
0.0
 11
299.999985
 21
58.5
 31
0.0
  0
LINE
  5
281
330
27C
100
AcDbEntity
  8
Ｓ_１_１
  6
CONTINUOUS
 62
     2
100
AcDbLine
 10
294.499985
 20
60.0
 30
0.0
 11
295.499985
 21
60.0
 31
0.0
  0
INSERT
  5
282
330
27C
100
AcDbEntity
  8
Ｓ_１_１
 62
     2
100
AcDbBlockReference
  2
EX_NORM
 10
289.999985
 20
60.0
 30
0.0
 41
4.5
 42
4.5
 43
4.5
 50
180.0
  0
INSERT
  5
283
330
27C
100
AcDbEntity
  8
Ｓ_１_１
 62
     2
100
AcDbBlockReference
  2
EX_NORM
 10
299.999985
 20
60.0
 30
0.0
 41
4.5
 42
4.5
 43
4.5
  0
MTEXT
  5
284
330
27C
100
AcDbEntity
  8
Ｓ_１_１
 62
     2
100
AcDbMText
 10
282.499985
 20
63.75
 30
0.0
 40
4.617205542725173
 41
0.0
 71
     5
 72
     1
  1
10
  7
EXCADDIM1
  0
POINT
  5
285
330
27C
100
AcDbEntity
  8
DEFPOINTS
 62
     0
100
AcDbPoint
 10
289.999985
 20
126.0
 30
0.0
  0
POINT
  5
286
330
27C
100
AcDbEntity
  8
DEFPOINTS
 62
     0
100
AcDbPoint
 10
299.999985
 20
94.500029
 30
0.0
  0
POINT
  5
287
330
27C
100
AcDbEntity
  8
DEFPOINTS
 62
     0
100
AcDbPoint
 10
299.999985
 20
60.0
 30
0.0
  0
ENDBLK
  5
27E
330
27C
100
AcDbEntity
  8
0
100
AcDbBlockEnd
  0
BLOCK
  5
28A
330
289
100
AcDbEntity
  8
0
100
AcDbBlockBegin
  2
*D25
 70
     1
 10
0.0
 20
0.0
 30
0.0
  3
*D25
  1

  0
LINE
  5
28C
330
289
100
AcDbEntity
  8
Ｓ_１_１
  6
CONTINUOUS
 62
     2
100
AcDbLine
 10
288.749985
 20
195.0
 30
0.0
 11
268.5
 21
195.0
 31
0.0
  0
LINE
  5
28D
330
289
100
AcDbEntity
  8
Ｓ_１_１
  6
CONTINUOUS
 62
     2
100
AcDbLine
 10
288.749985
 20
125.0
 30
0.0
 11
268.5
 21
125.0
 31
0.0
  0
LINE
  5
28E
330
289
100
AcDbEntity
  8
Ｓ_１_１
  6
CONTINUOUS
 62
     2
100
AcDbLine
 10
270.0
 20
190.5
 30
0.0
 11
270.0
 21
129.5
 31
0.0
  0
INSERT
  5
28F
330
289
100
AcDbEntity
  8
Ｓ_１_１
 62
     2
100
AcDbBlockReference
  2
EX_NORM
 10
270.0
 20
195.0
 30
0.0
 41
4.5
 42
4.5
 43
4.5
 50
90.0
  0
INSERT
  5
290
330
289
100
AcDbEntity
  8
Ｓ_１_１
 62
     2
100
AcDbBlockReference
  2
EX_NORM
 10
270.0
 20
125.0
 30
0.0
 41
4.5
 42
4.5
 43
4.5
 50
270.0
  0
MTEXT
  5
291
330
289
100
AcDbEntity
  8
Ｓ_１_１
 62
     2
100
AcDbMText
 10
266.25
 20
160.0
 30
0.0
 40
4.617205542725173
 41
0.0
 71
     5
 72
     1
  1
%%c70
  7
EXCADDIM1
 11
0.0
 21
1.0
 31
0.0
  0
POINT
  5
292
330
289
100
AcDbEntity
  8
DEFPOINTS
 62
     0
100
AcDbPoint
 10
290.999985
 20
195.0
 30
0.0
  0
POINT
  5
293
330
289
100
AcDbEntity
  8
DEFPOINTS
 62
     0
100
AcDbPoint
 10
290.999985
 20
125.0
 30
0.0
  0
POINT
  5
294
330
289
100
AcDbEntity
  8
DEFPOINTS
 62
     0
100
AcDbPoint
 10
270.0
 20
125.0
 30
0.0
  0
ENDBLK
  5
28B
330
289
100
AcDbEntity
  8
0
100
AcDbBlockEnd
  0
BLOCK
  5
35F
330
35E
100
AcDbEntity
  8
0
100
AcDbBlockBegin
  2
*D26
 70
     1
 10
0.0
 20
0.0
 30
0.0
  3
*D26
  1

  0
LINE
  5
361
330
35E
100
AcDbEntity
  8
Ｓ_１_１
  6
CONTINUOUS
 62
     2
100
AcDbLine
 10
295.74997035898
 20
200.0
 30
0.0
 11
258.5
 21
200.0
 31
0.0
  0
LINE
  5
362
330
35E
100
AcDbEntity
  8
Ｓ_１_１
  6
CONTINUOUS
 62
     2
100
AcDbLine
 10
295.74997035898
 20
120.0
 30
0.0
 11
258.5
 21
120.0
 31
0.0
  0
LINE
  5
363
330
35E
100
AcDbEntity
  8
Ｓ_１_１
  6
CONTINUOUS
 62
     2
100
AcDbLine
 10
260.0
 20
195.5
 30
0.0
 11
260.0
 21
124.5
 31
0.0
  0
INSERT
  5
364
330
35E
100
AcDbEntity
  8
Ｓ_１_１
 62
     2
100
AcDbBlockReference
  2
EX_NORM
 10
260.0
 20
200.0
 30
0.0
 41
4.5
 42
4.5
 43
4.5
 50
90.0
  0
INSERT
  5
365
330
35E
100
AcDbEntity
  8
Ｓ_１_１
 62
     2
100
AcDbBlockReference
  2
EX_NORM
 10
260.0
 20
120.0
 30
0.0
 41
4.5
 42
4.5
 43
4.5
 50
270.0
  0
MTEXT
  5
366
330
35E
100
AcDbEntity
  8
Ｓ_１_１
 62
     2
100
AcDbMText
 10
256.25
 20
160.0
 30
0.0
 40
4.617205542725173
 41
0.0
 71
     5
 72
     1
  1
%%c80
  7
EXCADDIM1
 11
0.0
 21
1.0
 31
0.0
  0
POINT
  5
367
330
35E
100
AcDbEntity
  8
DEFPOINTS
 62
     0
100
AcDbPoint
 10
297.99997035898
 20
200.0
 30
0.0
  0
POINT
  5
368
330
35E
100
AcDbEntity
  8
DEFPOINTS
 62
     0
100
AcDbPoint
 10
297.99997035898
 20
120.0
 30
0.0
  0
POINT
  5
369
330
35E
100
AcDbEntity
  8
DEFPOINTS
 62
     0
100
AcDbPoint
 10
260.0
 20
120.0
 30
0.0
  0
ENDBLK
  5
360
330
35E
100
AcDbEntity
  8
0
100
AcDbBlockEnd
  0
ENDSEC
  0
SECTION
  2
ENTITIES
  0
LINE
  5
D5
330
1F
100
AcDbEntity
  8
図面枠
  6
CONTINUOUS
 62
     5
100
AcDbLine
 10
15.0
 20
15.0
 30
0.0
 11
615.0
 21
15.0
 31
0.0
  0
LINE
  5
D6
330
1F
100
AcDbEntity
  8
図面枠
  6
CONTINUOUS
 62
     5
100
AcDbLine
 10
615.0
 20
15.0
 30
0.0
 11
615.0
 21
430.5
 31
0.0
  0
LINE
  5
D7
330
1F
100
AcDbEntity
  8
図面枠
  6
CONTINUOUS
 62
     5
100
AcDbLine
 10
615.0
 20
430.5
 30
0.0
 11
15.00000000000008
 21
430.5
 31
0.0
  0
LINE
  5
D8
330
1F
100
AcDbEntity
  8
図面枠
  6
CONTINUOUS
 62
     5
100
AcDbLine
 10
15.00000000000008
 20
430.5
 30
0.0
 11
15.0
 21
15.0
 31
0.0
  0
TEXT
  5
DA
330
1F
100
AcDbEntity
  8
図面枠
  6
CONTINUOUS
 62
     4
100
AcDbText
 10
580.5
 20
407.07421875
 30
0.0
 40
5.19435623556582
  1
kN
 41
0.999230769230769
  7
EXCADTTF1
 72
     5
 11
587.25
 21
407.07421875
 31
0.0
100
AcDbText
  0
TEXT
  5
DB
330
1F
100
AcDbEntity
  8
図面枠
  6
CONTINUOUS
 62
     4
100
AcDbText
 10
490.5
 20
407.07421875
 30
0.0
 40
5.19435623556582
  1
能力
 41
0.999230769230769
  7
EXCADTTF1
 72
     5
 11
504.0
 21
407.07421875
 31
0.0
100
AcDbText
  0
TEXT
  5
DC
330
1F
100
AcDbEntity
  8
図面枠
  6
CONTINUOUS
 62
     4
100
AcDbText
 10
530.625
 20
416.07421875
 30
0.0
 40
5.19435623556582
  1
仕　　　様
 41
0.9992307692307689
  7
EXCADTTF1
 72
     5
 11
564.375
 21
416.07421875
 31
0.0
100
AcDbText
  0
LINE
  5
DD
330
1F
100
AcDbEntity
  8
図面枠
  6
CONTINUOUS
 62
     3
100
AcDbLine
 10
487.5
 20
423.0
 30
0.0
 11
607.5
 21
423.0
 31
0.0
  0
LINE
  5
DE
330
1F
100
AcDbEntity
  8
図面枠
  6
CONTINUOUS
 62
     3
100
AcDbLine
 10
487.5
 20
414.0
 30
0.0
 11
607.5
 21
414.0
 31
0.0
  0
TEXT
  5
DF
330
1F
100
AcDbEntity
  8
図面枠
  6
CONTINUOUS
 62
     4
100
AcDbText
 10
564.375
 20
407.07421875
 30
0.0
 40
5.19435623556582
  1
500
 41
0.999230769230769
  7
EXCADTTF1
 72
     5
 11
574.5
 21
407.07421875
 31
0.0
100
AcDbText
  0
LINE
  5
E0
330
1F
100
AcDbEntity
  8
図面枠
  6
CONTINUOUS
 62
     3
100
AcDbLine
 10
22.50000000000002
 20
423.0
 30
0.0
 11
22.50000000000002
 21
409.5
 31
0.0
  0
LINE
  5
E1
330
1F
100
AcDbEntity
  8
図面枠
  6
CONTINUOUS
 62
     3
100
AcDbLine
 10
607.5
 20
36.0
 30
0.0
 11
607.5
 21
22.5
 31
0.0
  0
TEXT
  5
E2
330
1F
100
AcDbEntity
  8
図面枠
  6
CONTINUOUS
 62
     4
100
AcDbText
 10
580.5
 20
398.07421875
 30
0.0
 40
5.19435623556582
  1
mm
 41
0.999230769230769
  7
EXCADTTF1
 72
     5
 11
587.25
 21
398.07421875
 31
0.0
100
AcDbText
  0
TEXT
  5
E3
330
1F
100
AcDbEntity
  8
図面枠
  6
CONTINUOUS
 62
     4
100
AcDbText
 10
580.5
 20
389.07421875
 30
0.0
 40
5.19435623556582
  1
mm
 41
0.999230769230769
  7
EXCADTTF1
 72
     5
 11
587.25
 21
389.07421875
 31
0.0
100
AcDbText
  0
TEXT
  5
E4
330
1F
100
AcDbEntity
  8
図面枠
  6
CONTINUOUS
 62
     4
100
AcDbText
 10
580.5
 20
380.07421875
 30
0.0
 40
5.19435623556582
  1
mm
 41
0.999230769230769
  7
EXCADTTF1
 72
     5
 11
587.25
 21
380.07421875
 31
0.0
100
AcDbText
  0
TEXT
  5
E5
330
1F
100
AcDbEntity
  8
図面枠
  6
CONTINUOUS
 62
     4
100
AcDbText
 10
580.5
 20
371.07421875
 30
0.0
 40
5.19435623556582
  1
mm
 41
0.999230769230769
  7
EXCADTTF1
 72
     5
 11
587.25
 21
371.07421875
 31
0.0
100
AcDbText
  0
TEXT
  5
E6
330
1F
100
AcDbEntity
  8
図面枠
  6
CONTINUOUS
 62
     4
100
AcDbText
 10
580.5
 20
362.07421875
 30
0.0
 40
5.19435623556582
  1
mm
 41
0.999230769230769
  7
EXCADTTF1
 72
     5
 11
587.25
 21
362.07421875
 31
0.0
100
AcDbText
  0
TEXT
  5
E7
330
1F
100
AcDbEntity
  8
図面枠
  6
CONTINUOUS
 62
     4
100
AcDbText
 10
580.5
 20
344.07421875
 30
0.0
 40
5.19435623556582
  1
MPa
 41
0.999230769230769
  7
EXCADTTF1
 72
     5
 11
590.625
 21
344.07421875
 31
0.0
100
AcDbText
  0
TEXT
  5
E8
330
1F
100
AcDbEntity
  8
図面枠
  6
CONTINUOUS
 62
     4
100
AcDbText
 10
490.5
 20
398.07421875
 30
0.0
 40
5.19435623556582
  1
ストローク
 41
0.9992307692307689
  7
EXCADTTF1
 72
     5
 11
524.25
 21
398.07421875
 31
0.0
100
AcDbText
  0
TEXT
  5
E9
330
1F
100
AcDbEntity
  8
図面枠
  6
CONTINUOUS
 62
     4
100
AcDbText
 10
490.5
 20
389.07421875
 30
0.0
 40
5.19435623556582
  1
最低機械高
 41
0.9992307692307689
  7
EXCADTTF1
 72
     5
 11
524.25
 21
389.07421875
 31
0.0
100
AcDbText
  0
TEXT
  5
EA
330
1F
100
AcDbEntity
  8
図面枠
  6
CONTINUOUS
 62
     4
100
AcDbText
 10
490.5
 20
380.07421875
 30
0.0
 40
5.19435623556582
  1
シリンダー外径
 41
0.9992307692307688
  7
EXCADTTF1
 72
     5
 11
537.75
 21
380.07421875
 31
0.0
100
AcDbText
  0
TEXT
  5
EB
330
1F
100
AcDbEntity
  8
図面枠
  6
CONTINUOUS
 62
     4
100
AcDbText
 10
490.5
 20
371.07421875
 30
0.0
 40
5.19435623556582
  1
ヘッド径
 41
0.999230769230769
  7
EXCADTTF1
 72
     5
 11
517.5
 21
371.07421875
 31
0.0
100
AcDbText
  0
TEXT
  5
EC
330
1F
100
AcDbEntity
  8
図面枠
  6
CONTINUOUS
 62
     4
100
AcDbText
 10
490.5
 20
362.07421875
 30
0.0
 40
5.19435623556582
  1
ピストン径
 41
0.9992307692307689
  7
EXCADTTF1
 72
     5
 11
524.25
 21
362.07421875
 31
0.0
100
AcDbText
  0
TEXT
  5
ED
330
1F
100
AcDbEntity
  8
図面枠
  6
CONTINUOUS
 62
     4
100
AcDbText
 10
490.5
 20
353.07421875
 30
0.0
 40
5.19435623556582
  1
受圧面積
 41
0.999230769230769
  7
EXCADTTF1
 72
     5
 11
517.5
 21
353.07421875
 31
0.0
100
AcDbText
  0
TEXT
  5
EE
330
1F
100
AcDbEntity
  8
図面枠
  6
CONTINUOUS
 62
     4
100
AcDbText
 10
490.5
 20
344.07421875
 30
0.0
 40
5.19435623556582
  1
最高使用圧力
 41
0.9992307692307689
  7
EXCADTTF1
 72
     5
 11
531.0
 21
344.07421875
 31
0.0
100
AcDbText
  0
LINE
  5
EF
330
1F
100
AcDbEntity
  8
図面枠
  6
CONTINUOUS
 62
     2
100
AcDbLine
 10
487.5
 20
405.0
 30
0.0
 11
607.5
 21
405.0
 31
0.0
  0
LINE
  5
F0
330
1F
100
AcDbEntity
  8
図面枠
  6
CONTINUOUS
 62
     2
100
AcDbLine
 10
487.5
 20
396.0
 30
0.0
 11
607.5
 21
396.0
 31
0.0
  0
LINE
  5
F1
330
1F
100
AcDbEntity
  8
図面枠
  6
CONTINUOUS
 62
     2
100
AcDbLine
 10
487.5
 20
387.0
 30
0.0
 11
607.5
 21
387.0
 31
0.0
  0
LINE
  5
F2
330
1F
100
AcDbEntity
  8
図面枠
  6
CONTINUOUS
 62
     2
100
AcDbLine
 10
487.5
 20
378.0
 30
0.0
 11
607.5
 21
378.0
 31
0.0
  0
LINE
  5
F3
330
1F
100
AcDbEntity
  8
図面枠
  6
CONTINUOUS
 62
     2
100
AcDbLine
 10
487.5
 20
369.0
 30
0.0
 11
607.5
 21
369.0
 31
0.0
  0
LINE
  5
F4
330
1F
100
AcDbEntity
  8
図面枠
  6
CONTINUOUS
 62
     2
100
AcDbLine
 10
487.5
 20
360.0
 30
0.0
 11
607.5
 21
360.0
 31
0.0
  0
LINE
  5
F5
330
1F
100
AcDbEntity
  8
図面枠
  6
CONTINUOUS
 62
     2
100
AcDbLine
 10
487.5
 20
351.0
 30
0.0
 11
607.5
 21
351.0
 31
0.0
  0
TEXT
  5
F6
330
1F
100
AcDbEntity
  8
図面枠
  6
CONTINUOUS
 62
     4
100
AcDbText
 10
580.5
 20
326.07421875
 30
0.0
 40
5.19435623556582
  1
kg
 41
0.999230769230769
  7
EXCADTTF1
 72
     5
 11
587.25
 21
326.07421875
 31
0.0
100
AcDbText
  0
TEXT
  5
F7
330
1F
100
AcDbEntity
  8
図面枠
  6
CONTINUOUS
 62
     4
100
AcDbText
 10
490.5
 20
335.07421875
 30
0.0
 40
5.19435623556582
  1
所要油量
 41
0.999230769230769
  7
EXCADTTF1
 72
     5
 11
517.5
 21
335.07421875
 31
0.0
100
AcDbText
  0
LINE
  5
F8
330
1F
100
AcDbEntity
  8
図面枠
  6
CONTINUOUS
 62
     2
100
AcDbLine
 10
487.5
 20
342.0
 30
0.0
 11
607.5
 21
342.0
 31
0.0
  0
LINE
  5
F9
330
1F
100
AcDbEntity
  8
図面枠
  6
CONTINUOUS
 62
     2
100
AcDbLine
 10
487.5
 20
333.0
 30
0.0
 11
607.5
 21
333.0
 31
0.0
  0
LINE
  5
FA
330
1F
100
AcDbEntity
  8
図面枠
  6
CONTINUOUS
 62
     3
100
AcDbLine
 10
487.5
 20
324.0
 30
0.0
 11
607.5
 21
324.0
 31
0.0
  0
TEXT
  5
FB
330
1F
100
AcDbEntity
  8
図面枠
  6
CONTINUOUS
 62
     4
100
AcDbText
 10
490.5
 20
326.07421875
 30
0.0
 40
5.19435623556582
  1
重量
 41
0.999230769230769
  7
EXCADTTF1
 72
     5
 11
504.0
 21
326.07421875
 31
0.0
100
AcDbText
  0
LINE
  5
FC
330
1F
100
AcDbEntity
  8
図面枠
  6
CONTINUOUS
 62
     3
100
AcDbLine
 10
487.5
 20
423.0
 30
0.0
 11
487.5
 21
324.0
 31
0.0
  0
LINE
  5
FD
330
1F
100
AcDbEntity
  8
図面枠
  6
CONTINUOUS
 62
     3
100
AcDbLine
 10
607.5
 20
423.0
 30
0.0
 11
607.5
 21
324.0
 31
0.0
  0
LINE
  5
FE
330
1F
100
AcDbEntity
  8
図面枠
  6
CONTINUOUS
 62
     2
100
AcDbLine
 10
547.5
 20
414.0
 30
0.0
 11
547.5
 21
324.0
 31
0.0
  0
LINE
  5
FF
330
1F
100
AcDbEntity
  8
図面枠
  6
CONTINUOUS
 62
     2
100
AcDbLine
 10
577.5
 20
414.0
 30
0.0
 11
577.5
 21
324.0
 31
0.0
  0
TEXT
  5
100
330
1F
100
AcDbEntity
  8
図面枠
  6
CONTINUOUS
 62
     4
100
AcDbText
 10
580.5000000000001
 20
353.07421875
 30
0.0
 40
5.19435623556582
  1
cm
 41
0.999230769230769
  7
EXCADTTF1
 72
     5
 11
587.2500000000001
 21
353.07421875
 31
0.0
100
AcDbText
  0
TEXT
  5
101
330
1F
100
AcDbEntity
  8
図面枠
  6
CONTINUOUS
 62
     4
100
AcDbText
 10
585.2250000000001
 20
356.2646484710276
 30
0.0
 40
2.337460049144849
  1
2
 41
0.9992308790346205
  7
EXCADTTF1
 72
     5
 11
586.7437500000001
 21
356.2646484710276
 31
0.0
100
AcDbText
  0
TEXT
  5
102
330
1F
100
AcDbEntity
  8
図面枠
  6
CONTINUOUS
 62
     4
100
AcDbText
 10
580.5
 20
335.07421875
 30
0.0
 40
5.19435623556582
  1
L
 41
0.999230769230769
  7
EXCADTTF1
 72
     5
 11
583.875
 21
335.07421875
 31
0.0
100
AcDbText
  0
TEXT
  5
103
330
1F
100
AcDbEntity
  8
図面枠
  6
CONTINUOUS
 62
     4
100
AcDbText
 10
567.75
 20
398.07421875
 30
0.0
 40
5.19435623556582
  1
75
 41
0.999230769230769
  7
EXCADTTF1
 72
     5
 11
574.5
 21
398.07421875
 31
0.0
100
AcDbText
  0
TEXT
  5
104
330
1F
100
AcDbEntity
  8
図面枠
  6
CONTINUOUS
 62
     4
100
AcDbText
 10
564.375
 20
380.07421875
 30
0.0
 40
5.19435623556582
  1
135
 41
0.999230769230769
  7
EXCADTTF1
 72
     5
 11
574.5
 21
380.07421875
 31
0.0
100
AcDbText
  0
TEXT
  5
105
330
1F
100
AcDbEntity
  8
図面枠
  6
CONTINUOUS
 62
     4
100
AcDbText
 10
567.75
 20
371.07421875
 30
0.0
 40
5.19435623556582
  1
80
 41
0.999230769230769
  7
EXCADTTF1
 72
     5
 11
574.5
 21
371.07421875
 31
0.0
100
AcDbText
  0
TEXT
  5
106
330
1F
100
AcDbEntity
  8
図面枠
  6
CONTINUOUS
 62
     4
100
AcDbText
 10
564.375
 20
362.07421875
 30
0.0
 40
5.19435623556582
  1
100
 41
0.999230769230769
  7
EXCADTTF1
 72
     5
 11
574.5
 21
362.07421875
 31
0.0
100
AcDbText
  0
TEXT
  5
107
330
1F
100
AcDbEntity
  8
図面枠
  6
CONTINUOUS
 62
     4
100
AcDbText
 10
561.0
 20
353.07421875
 30
0.0
 40
5.19435623556582
  1
78.5
 41
0.999230769230769
  7
EXCADTTF1
 72
     5
 11
574.5
 21
353.07421875
 31
0.0
100
AcDbText
  0
TEXT
  5
108
330
1F
100
AcDbEntity
  8
図面枠
  6
CONTINUOUS
 62
     4
100
AcDbText
 10
561.0
 20
335.07421875
 30
0.0
 40
5.19435623556582
  1
0.59
 41
0.999230769230769
  7
EXCADTTF1
 72
     5
 11
574.5
 21
335.07421875
 31
0.0
100
AcDbText
  0
TEXT
  5
109
330
1F
100
AcDbEntity
  8
図面枠
  6
CONTINUOUS
 62
     4
100
AcDbText
 10
554.25
 20
326.07421875
 30
0.0
 40
5.19435623556582
  1
約17.5
 41
0.9992307692307689
  7
EXCADTTF1
 72
     5
 11
574.5
 21
326.07421875
 31
0.0
100
AcDbText
  0
TEXT
  5
10A
330
1F
100
AcDbEntity
  8
図面枠
  6
CONTINUOUS
 62
     4
100
AcDbText
 10
564.375
 20
389.07421875
 30
0.0
 40
5.19435623556582
  1
180
 41
0.999230769230769
  7
EXCADTTF1
 72
     5
 11
574.5
 21
389.07421875
 31
0.0
100
AcDbText
  0
TEXT
  5
10B
330
1F
100
AcDbEntity
  8
図面枠
  6
CONTINUOUS
 62
     4
100
AcDbText
 10
561.0
 20
344.07421875
 30
0.0
 40
5.19435623556582
  1
63.7
 41
0.999230769230769
  7
EXCADTTF1
 72
     5
 11
574.5
 21
344.07421875
 31
0.0
100
AcDbText
  0
TEXT
  5
10C
330
1F
100
AcDbEntity
  8
図面枠
  6
CONTINUOUS
 62
     4
100
AcDbText
 10
27.00000000000002
 20
413.015625
 30
0.0
 40
6.92580831408776
  1
500kN75ストローク油圧ジャッキ　ヘッドキャップ型
 41
0.9992307692307697
  7
EXCADTTF1
 72
     5
 11
238.5
 21
413.015625
 31
0.0
100
AcDbText
  0
LINE
  5
10D
330
1F
100
AcDbEntity
  8
図面枠
  6
CONTINUOUS
 62
     3
100
AcDbLine
 10
243.0000000000001
 20
423.0
 30
0.0
 11
243.0000000000001
 21
409.5
 31
0.0
  0
LINE
  5
10E
330
1F
100
AcDbEntity
  8
図面枠
  6
CONTINUOUS
 62
     3
100
AcDbLine
 10
22.50000000000002
 20
423.0
 30
0.0
 11
243.0
 21
423.0
 31
0.0
  0
LINE
  5
10F
330
1F
100
AcDbEntity
  8
図面枠
  6
CONTINUOUS
 62
     3
100
AcDbLine
 10
22.50000000000002
 20
409.5
 30
0.0
 11
243.0
 21
409.5
 31
0.0
  0
TEXT
  5
110
330
1F
100
AcDbEntity
  8
図面枠
  6
CONTINUOUS
 62
     4
100
AcDbText
 10
553.5
 20
26.015625
 30
0.0
 40
6.92580831408776
  1
OTV-507.5-B
 41
0.9992307692307693
  7
EXCADTTF1
 72
     5
 11
603.0
 21
26.015625
 31
0.0
100
AcDbText
  0
LINE
  5
111
330
1F
100
AcDbEntity
  8
図面枠
  6
CONTINUOUS
 62
     3
100
AcDbLine
 10
549.0
 20
36.0
 30
0.0
 11
549.0
 21
22.5
 31
0.0
  0
LINE
  5
112
330
1F
100
AcDbEntity
  8
図面枠
  6
CONTINUOUS
 62
     3
100
AcDbLine
 10
549.0
 20
36.0
 30
0.0
 11
607.5
 21
36.00000000000001
 31
0.0
  0
LINE
  5
113
330
1F
100
AcDbEntity
  8
図面枠
  6
CONTINUOUS
 62
     3
100
AcDbLine
 10
549.0
 20
22.5
 30
0.0
 11
607.5
 21
22.50000000000001
 31
0.0
  0
ELLIPSE
  5
114
330
1F
100
AcDbEntity
  8
Ｓ_１_１
  6
CONTINUOUS
 62
     3
100
AcDbEllipse
 10
455.0
 20
223.51408311033
 30
0.0
 11
-5.0
 21
6.123233995736766E-16
 31
0.0
210
0.0
220
0.0
230
1.0
 40
0.5
 41
0.0
 42
6.283185307179586
  0
LINE
  5
115
330
1F
100
AcDbEntity
  8
Ｓ_１_１
  6
CONTINUOUS
 62
     3
100
AcDbLine
 10
456.73205080757
 20
225.01408311033
 30
0.0
 11
456.73205080757
 21
222.01408311033
 31
0.0
  0
LINE
  5
116
330
1F
100
AcDbEntity
  8
Ｓ_１_１
  6
CONTINUOUS
 62
     3
100
AcDbLine
 10
453.2679491924299
 20
225.01408311033
 30
0.0
 11
453.2679491924299
 21
222.01408311033
 31
0.0
  0
LINE
  5
117
330
1F
100
AcDbEntity
  8
Ｓ_１_１
  6
CONTINUOUS
 62
     3
100
AcDbLine
 10
453.2679491924299
 20
225.01408311033
 30
0.0
 11
456.73205080757
 21
225.01408311033
 31
0.0
  0
LINE
  5
118
330
1F
100
AcDbEntity
  8
Ｓ_１_１
  6
CONTINUOUS
 62
     3
100
AcDbLine
 10
453.2679491924299
 20
222.01408311033
 30
0.0
 11
456.73205080757
 21
222.01408311033
 31
0.0
  0
LINE
  5
119
330
1F
100
AcDbEntity
  8
Ｓ_１_１
  6
CONTINUOUS
 62
     3
100
AcDbLine
 10
451.5358983848599
 20
223.51408311033
 30
0.0
 11
453.2679491924299
 21
225.01408311033
 31
0.0
  0
LINE
  5
11A
330
1F
100
AcDbEntity
  8
Ｓ_１_１
  6
CONTINUOUS
 62
     3
100
AcDbLine
 10
458.46410161514
 20
223.51408311033
 30
0.0
 11
456.73205080757
 21
225.01408311033
 31
0.0
  0
LINE
  5
11B
330
1F
100
AcDbEntity
  8
Ｓ_１_１
  6
CONTINUOUS
 62
     3
100
AcDbLine
 10
456.73205080757
 20
222.01408311033
 30
0.0
 11
458.46410161514
 21
223.51408311033
 31
0.0
  0
LINE
  5
11C
330
1F
100
AcDbEntity
  8
Ｓ_１_１
  6
CONTINUOUS
 62
     3
100
AcDbLine
 10
451.5358983848599
 20
223.51408311033
 30
0.0
 11
453.2679491924299
 21
222.01408311033
 31
0.0
  0
LINE
  5
11D
330
1F
100
AcDbEntity
  8
Ｓ_１_１
  6
EXLTYPE2
 62
     1
100
AcDbLine
 10
455.0
 20
201.8
 30
0.0
 11
455.0
 21
227.525
 31
0.0
  0
ELLIPSE
  5
11E
330
1F
100
AcDbEntity
  8
Ｓ_１_１
  6
CONTINUOUS
 62
     3
100
AcDbEllipse
 10
455.0
 20
222.64805770655
 30
0.0
 11
-6.0
 21
-1.929747179611964E-15
 31
0.0
210
0.0
220
0.0
230
1.0
 40
0.5
 41
-0.6154797086739883
 42
3.757072362263844
  0
LINE
  5
11F
330
1F
100
AcDbEntity
  8
Ｓ_１_１
  6
CONTINUOUS
 62
     3
100
AcDbLine
 10
459.8989794855538
 20
224.3801085141278
 30
0.0
 11
459.0824829046281
 21
224.9574587833114
 31
0.0
  0
LINE
  5
120
330
1F
100
AcDbEntity
  8
Ｓ_１_１
  6
CONTINUOUS
 62
     3
100
AcDbLine
 10
450.1010205144462
 20
224.3801085141277
 30
0.0
 11
450.9175170953717
 21
224.9574587833114
 31
0.0
  0
ELLIPSE
  5
121
330
1F
100
AcDbEntity
  8
Ｓ_１_１
  6
CONTINUOUS
 62
     3
100
AcDbEllipse
 10
455.0
 20
216.58587988006
 30
0.0
 11
-6.0
 21
-1.929747179611964E-15
 31
0.0
210
0.0
220
0.0
230
1.0
 40
0.5
 41
0.0
 42
3.141592653589793
  0
LINE
  5
122
330
1F
100
AcDbEntity
  8
Ｓ_１_１
  6
CONTINUOUS
 62
     3
100
AcDbLine
 10
341.73205080757
 20
225.01408311033
 30
0.0
 11
341.73205080757
 21
222.01408311033
 31
0.0
  0
LINE
  5
123
330
1F
100
AcDbEntity
  8
Ｓ_１_１
  6
CONTINUOUS
 62
     3
100
AcDbLine
 10
338.26794919243
 20
225.01408311033
 30
0.0
 11
338.26794919243
 21
222.01408311033
 31
0.0
  0
LINE
  5
124
330
1F
100
AcDbEntity
  8
Ｓ_１_１
  6
CONTINUOUS
 62
     3
100
AcDbLine
 10
338.26794919243
 20
225.01408311033
 30
0.0
 11
341.73205080757
 21
225.01408311033
 31
0.0
  0
LINE
  5
125
330
1F
100
AcDbEntity
  8
Ｓ_１_１
  6
CONTINUOUS
 62
     3
100
AcDbLine
 10
338.26794919243
 20
222.01408311033
 30
0.0
 11
341.73205080757
 21
222.01408311033
 31
0.0
  0
LINE
  5
126
330
1F
100
AcDbEntity
  8
Ｓ_１_１
  6
CONTINUOUS
 62
     3
100
AcDbLine
 10
336.53589838486
 20
223.51408311033
 30
0.0
 11
338.26794919243
 21
225.01408311033
 31
0.0
  0
LINE
  5
127
330
1F
100
AcDbEntity
  8
Ｓ_１_１
  6
CONTINUOUS
 62
     3
100
AcDbLine
 10
343.46410161514
 20
223.51408311033
 30
0.0
 11
341.73205080757
 21
225.01408311033
 31
0.0
  0
LINE
  5
128
330
1F
100
AcDbEntity
  8
Ｓ_１_１
  6
CONTINUOUS
 62
     3
100
AcDbLine
 10
341.73205080757
 20
222.01408311033
 30
0.0
 11
343.46410161514
 21
223.51408311033
 31
0.0
  0
LINE
  5
129
330
1F
100
AcDbEntity
  8
Ｓ_１_１
  6
CONTINUOUS
 62
     3
100
AcDbLine
 10
336.53589838486
 20
223.51408311033
 30
0.0
 11
338.26794919243
 21
222.01408311033
 31
0.0
  0
LINE
  5
12A
330
1F
100
AcDbEntity
  8
Ｓ_１_１
  6
EXLTYPE2
 62
     1
100
AcDbLine
 10
340.0
 20
201.8
 30
0.0
 11
340.0
 21
227.525
 31
0.0
  0
ELLIPSE
  5
12B
330
1F
100
AcDbEntity
  8
Ｓ_１_１
  6
CONTINUOUS
 62
     3
100
AcDbEllipse
 10
340.0
 20
222.64805770655
 30
0.0
 11
-6.0
 21
-1.929747179611964E-15
 31
0.0
210
0.0
220
0.0
230
1.0
 40
0.5
 41
-0.6154797086739883
 42
3.757072362263844
  0
LINE
  5
12C
330
1F
100
AcDbEntity
  8
Ｓ_１_１
  6
CONTINUOUS
 62
     3
100
AcDbLine
 10
344.8989794855538
 20
224.3801085141278
 30
0.0
 11
344.0824829046281
 21
224.9574587833114
 31
0.0
  0
LINE
  5
12D
330
1F
100
AcDbEntity
  8
Ｓ_１_１
  6
CONTINUOUS
 62
     3
100
AcDbLine
 10
335.1010205144462
 20
224.3801085141277
 30
0.0
 11
335.9175170953718
 21
224.9574587833114
 31
0.0
  0
ELLIPSE
  5
12E
330
1F
100
AcDbEntity
  8
Ｓ_１_１
  6
CONTINUOUS
 62
     3
100
AcDbEllipse
 10
340.0
 20
216.58587988006
 30
0.0
 11
-6.0
 21
-1.929747179611964E-15
 31
0.0
210
0.0
220
0.0
230
1.0
 40
0.5
 41
0.0
 42
3.141592653589793
  0
ELLIPSE
  5
12F
330
1F
100
AcDbEntity
  8
Ｓ_１_１
  6
CONTINUOUS
 62
     3
100
AcDbEllipse
 10
340.0
 20
223.51408311033
 30
0.0
 11
-5.0
 21
6.123233995736766E-16
 31
0.0
210
0.0
220
0.0
230
1.0
 40
0.5
 41
0.0
 42
6.283185307179586
  0
LINE
  5
130
330
1F
100
AcDbEntity
  8
Ｓ_１_１
  6
EXLTYPE2
 62
     1
100
AcDbLine
 10
344.9999849999999
 20
330.35
 30
0.0
 11
344.9999849999999
 21
208.06711573657
 31
0.0
  0
LINE
  5
131
330
1F
100
AcDbEntity
  8
Ｓ_１_１
  6
CONTINUOUS
 62
     3
100
AcDbLine
 10
346.9999999999999
 20
243.7986928011593
 30
0.0
 11
447.9999999999999
 21
243.7986928011593
 31
0.0
  0
LINE
  5
132
330
1F
100
AcDbEntity
  8
Ｓ_１_１
  6
CONTINUOUS
 62
     3
100
AcDbLine
 10
346.9999999999999
 20
259.7986928011591
 30
0.0
 11
447.9999999999999
 21
259.7986928011591
 31
0.0
  0
LINE
  5
133
330
1F
100
AcDbEntity
  8
Ｓ_１_１
  6
CONTINUOUS
 62
     3
100
AcDbLine
 10
389.4999850000007
 20
244.6500000843071
 30
0.0
 11
389.4999855800007
 21
244.6500006643071
 31
0.0
  0
LINE
  5
134
330
1F
100
AcDbEntity
  8
Ｓ_１_１
  6
CONTINUOUS
 62
     3
100
AcDbLine
 10
357.4999850000002
 20
238.1500000000072
 30
0.0
 11
357.4999850000002
 21
243.7986928011593
 31
0.0
  0
LINE
  5
135
330
1F
100
AcDbEntity
  8
Ｓ_１_１
  6
CONTINUOUS
 62
     3
100
AcDbLine
 10
357.4999850000002
 20
269.1500000000072
 30
0.0
 11
357.4999850000002
 21
259.7986928011591
 31
0.0
  0
LINE
  5
136
330
1F
100
AcDbEntity
  8
Ｓ_１_１
  6
CONTINUOUS
 62
     3
100
AcDbLine
 10
427.1240084374496
 20
243.7986928011593
 30
0.0
 11
427.1240084374496
 21
238.0876831055071
 31
0.0
  0
LINE
  5
137
330
1F
100
AcDbEntity
  8
Ｓ_１_１
  6
CONTINUOUS
 62
     3
100
AcDbLine
 10
421.0619967187497
 20
243.7986928011593
 30
0.0
 11
421.0619967187497
 21
238.0876831055071
 31
0.0
  0
LINE
  5
138
330
1F
100
AcDbEntity
  8
Ｓ_１_１
  6
CONTINUOUS
 62
     3
100
AcDbLine
 10
408.9377291405496
 20
243.7986928011593
 30
0.0
 11
408.9377291405496
 21
238.0876831055071
 31
0.0
  0
LINE
  5
139
330
1F
100
AcDbEntity
  8
Ｓ_１_１
  6
CONTINUOUS
 62
     3
100
AcDbLine
 10
402.8754732812496
 20
243.7986928011593
 30
0.0
 11
402.8754732812496
 21
238.0876831055071
 31
0.0
  0
LINE
  5
13A
330
1F
100
AcDbEntity
  8
Ｓ_１_１
  6
CONTINUOUS
 62
     3
100
AcDbLine
 10
427.9999849998998
 20
266.0101282305074
 30
0.0
 11
427.9999849998998
 21
259.7986928011591
 31
0.0
  0
LINE
  5
13B
330
1F
100
AcDbEntity
  8
Ｓ_１_１
  6
CONTINUOUS
 62
     3
100
AcDbLine
 10
419.9999849998999
 20
266.0101282305074
 30
0.0
 11
419.9999849998999
 21
259.7986928011591
 31
0.0
  0
LINE
  5
13C
330
1F
100
AcDbEntity
  8
Ｓ_１_１
  6
CONTINUOUS
 62
     3
100
AcDbLine
 10
409.9999849998998
 20
266.0101282305074
 30
0.0
 11
409.9999849998998
 21
259.7986928011591
 31
0.0
  0
LINE
  5
13D
330
1F
100
AcDbEntity
  8
Ｓ_１_１
  6
CONTINUOUS
 62
     3
100
AcDbLine
 10
401.9999849998999
 20
266.0101282305074
 30
0.0
 11
401.9999849998999
 21
259.7986928011591
 31
0.0
  0
LINE
  5
13E
330
1F
100
AcDbEntity
  8
Ｓ_１_１
  6
EXLTYPE2
 62
     1
100
AcDbLine
 10
464.3380910012401
 20
251.7986928011596
 30
0.0
 11
331.73809100124
 21
251.7986928011598
 31
0.0
  0
LINE
  5
13F
330
1F
100
AcDbEntity
  8
Ｓ_１_１
  6
CONTINUOUS
 62
     3
100
AcDbLine
 10
345.999999999999
 20
256.79869280116
 30
0.0
 11
346.9999999999999
 21
256.79869280116
 31
0.0
  0
LINE
  5
140
330
1F
100
AcDbEntity
  8
Ｓ_１_１
  6
CONTINUOUS
 62
     3
100
AcDbLine
 10
345.9999999999991
 20
246.79869280116
 30
0.0
 11
346.9999999999999
 21
246.79869280116
 31
0.0
  0
LINE
  5
141
330
1F
100
AcDbEntity
  8
Ｓ_１_１
  6
CONTINUOUS
 62
     3
100
AcDbLine
 10
346.9999999999999
 20
259.7986928011593
 30
0.0
 11
346.9999999999999
 21
243.7986928011596
 31
0.0
  0
LINE
  5
142
330
1F
100
AcDbEntity
  8
Ｓ_１_１
  6
CONTINUOUS
 62
     3
100
AcDbLine
 10
449.0000000000009
 20
246.7986928011598
 30
0.0
 11
447.9999999999999
 21
246.7986928011598
 31
0.0
  0
LINE
  5
143
330
1F
100
AcDbEntity
  8
Ｓ_１_１
  6
CONTINUOUS
 62
     3
100
AcDbLine
 10
449.0
 20
256.7986928011597
 30
0.0
 11
447.9999999999999
 21
256.7986928011597
 31
0.0
  0
LINE
  5
144
330
1F
100
AcDbEntity
  8
Ｓ_１_１
  6
CONTINUOUS
 62
     3
100
AcDbLine
 10
447.9999999999999
 20
259.7986928011591
 30
0.0
 11
447.9999999999999
 21
243.7986928011593
 31
0.0
  0
LINE
  5
145
330
1F
100
AcDbEntity
  8
Ｓ_１_１
  6
CONTINUOUS
 62
     3
100
AcDbLine
 10
461.0
 20
227.4999999999999
 30
0.0
 11
468.999985
 21
227.4999999999999
 31
0.0
  0
LINE
  5
146
330
1F
100
AcDbEntity
  8
Ｓ_１_１
  6
CONTINUOUS
 62
     3
100
AcDbLine
 10
346.0
 20
227.4999999999999
 30
0.0
 11
449.0
 21
227.4999999999999
 31
0.0
  0
LINE
  5
147
330
1F
100
AcDbEntity
  8
Ｓ_１_１
  6
CONTINUOUS
 62
     3
100
AcDbLine
 10
346.0
 20
204.6756258422101
 30
0.0
 11
346.0
 21
263.09292143522
 31
0.0
  0
LINE
  5
148
330
1F
100
AcDbEntity
  8
Ｓ_１_１
  6
CONTINUOUS
 62
     3
100
AcDbLine
 10
333.4999850000002
 20
237.1500000000072
 30
0.0
 11
334.0
 21
237.1500000000072
 31
0.0
  0
LINE
  5
149
330
1F
100
AcDbEntity
  8
Ｓ_１_１
  6
CONTINUOUS
 62
     3
100
AcDbLine
 10
332.4999850000002
 20
238.1500000000072
 30
0.0
 11
334.0
 21
238.1500000000072
 31
0.0
  0
LINE
  5
14A
330
1F
100
AcDbEntity
  8
Ｓ_１_１
  6
CONTINUOUS
 62
     3
100
AcDbLine
 10
346.0
 20
238.1500000000072
 30
0.0
 11
357.4999850000002
 21
238.1500000000072
 31
0.0
  0
LINE
  5
14B
330
1F
100
AcDbEntity
  8
Ｓ_１_１
  6
CONTINUOUS
 62
     3
100
AcDbLine
 10
346.0
 20
237.1500000000072
 30
0.0
 11
356.4999850000002
 21
237.1500000000072
 31
0.0
  0
LINE
  5
14C
330
1F
100
AcDbEntity
  8
Ｓ_１_１
  6
CONTINUOUS
 62
     3
100
AcDbLine
 10
346.0
 20
234.7174777111473
 30
0.0
 11
353.5565311784717
 21
234.7174777111473
 31
0.0
  0
LINE
  5
14D
330
1F
100
AcDbEntity
  8
Ｓ_１_１
  6
CONTINUOUS
 62
     3
100
AcDbLine
 10
346.0
 20
233.1500000000074
 30
0.0
 11
352.6515474999988
 21
233.1500000000074
 31
0.0
  0
LINE
  5
14E
330
1F
100
AcDbEntity
  8
Ｓ_１_１
  6
CONTINUOUS
 62
     3
100
AcDbLine
 10
301.9999849999998
 20
227.4999999999999
 30
0.0
 11
334.0
 21
227.4999999999999
 31
0.0
  0
LINE
  5
14F
330
1F
100
AcDbEntity
  8
Ｓ_１_１
  6
CONTINUOUS
 62
     3
100
AcDbLine
 10
449.0
 20
254.72689603144
 30
0.0
 11
461.0
 21
254.72689603144
 31
0.0
  0
LINE
  5
150
330
1F
100
AcDbEntity
  8
Ｓ_１_１
  6
CONTINUOUS
 62
     3
100
AcDbLine
 10
449.0
 20
256.09292143522
 30
0.0
 11
461.0
 21
256.09292143522
 31
0.0
  0
LINE
  5
151
330
1F
100
AcDbEntity
  8
Ｓ_１_１
  6
CONTINUOUS
 62
     3
100
AcDbLine
 10
449.0
 20
263.09292143522
 30
0.0
 11
461.0
 21
263.09292143522
 31
0.0
  0
LINE
  5
152
330
1F
100
AcDbEntity
  8
Ｓ_１_１
  6
CONTINUOUS
 62
     3
100
AcDbLine
 10
334.0
 20
263.09292143522
 30
0.0
 11
346.0
 21
263.09292143522
 31
0.0
  0
LINE
  5
153
330
1F
100
AcDbEntity
  8
Ｓ_１_１
  6
CONTINUOUS
 62
     3
100
AcDbLine
 10
334.0
 20
254.72689603144
 30
0.0
 11
346.0
 21
254.72689603144
 31
0.0
  0
LINE
  5
154
330
1F
100
AcDbEntity
  8
Ｓ_１_１
  6
CONTINUOUS
 62
     3
100
AcDbLine
 10
334.0
 20
256.09292143522
 30
0.0
 11
346.0
 21
256.09292143522
 31
0.0
  0
LINE
  5
155
330
1F
100
AcDbEntity
  8
Ｓ_１_１
  6
CONTINUOUS
 62
     3
100
AcDbLine
 10
449.0
 20
204.6756258422101
 30
0.0
 11
449.0
 21
263.09292143522
 31
0.0
  0
LINE
  5
156
330
1F
100
AcDbEntity
  8
Ｓ_１_１
  6
CONTINUOUS
 62
     3
100
AcDbLine
 10
461.0
 20
204.6756258422101
 30
0.0
 11
461.0
 21
263.0929214352201
 31
0.0
  0
LINE
  5
157
330
1F
100
AcDbEntity
  8
Ｓ_１_１
  6
CONTINUOUS
 62
     3
100
AcDbLine
 10
449.0
 20
213.33587988006
 30
0.0
 11
461.0
 21
213.33587988006
 31
0.0
  0
LINE
  5
158
330
1F
100
AcDbEntity
  8
Ｓ_１_１
  6
CONTINUOUS
 62
     3
100
AcDbLine
 10
334.0
 20
204.6756258422101
 30
0.0
 11
334.0
 21
263.09292143522
 31
0.0
  0
LINE
  5
159
330
1F
100
AcDbEntity
  8
Ｓ_１_１
  6
CONTINUOUS
 62
     3
100
AcDbLine
 10
334.0
 20
204.6756258422101
 30
0.0
 11
346.0
 21
204.6756258422101
 31
0.0
  0
LINE
  5
15A
330
1F
100
AcDbEntity
  8
Ｓ_１_１
  6
CONTINUOUS
 62
     3
100
AcDbLine
 10
334.0
 20
213.33587988006
 30
0.0
 11
346.0
 21
213.33587988006
 31
0.0
  0
LINE
  5
15B
330
1F
100
AcDbEntity
  8
Ｓ_１_１
  6
CONTINUOUS
 62
     3
100
AcDbLine
 10
449.0
 20
204.6756258422101
 30
0.0
 11
461.0
 21
204.6756258422101
 31
0.0
  0
LINE
  5
15C
330
1F
100
AcDbEntity
  8
Ｓ_１_１
  6
EXLTYPE2
 62
     1
100
AcDbLine
 10
414.9999849999996
 20
319.86711573657
 30
0.0
 11
414.9999849999996
 21
211.2671157365698
 31
0.0
  0
LINE
  5
15D
330
1F
100
AcDbEntity
  8
Ｓ_１_１
  6
EXLTYPE2
 62
     1
100
AcDbLine
 10
345.2961222881902
 20
324.8000000000071
 30
0.0
 11
345.0937717222101
 21
324.8000000000071
 31
0.0
  0
LINE
  5
15E
330
1F
100
AcDbEntity
  8
Ｓ_１_１
  6
EXLTYPE2
 62
     1
100
AcDbLine
 10
344.8961222881902
 20
326.8001220703073
 30
0.0
 11
345.0938937925101
 21
326.8001220703073
 31
0.0
  0
LINE
  5
15F
330
1F
100
AcDbEntity
  8
Ｓ_１_１
  6
EXLTYPE2
 62
     1
100
AcDbLine
 10
344.9950080403501
 20
326.8001220703073
 30
0.0
 11
345.0938937925101
 21
326.8001220703073
 31
0.0
  0
LINE
  5
160
330
1F
100
AcDbEntity
  8
Ｓ_１_１
  6
CONTINUOUS
 62
     3
100
AcDbLine
 10
469.0000000000001
 20
227.4999999999999
 30
0.0
 11
469.0000000000001
 21
92.49999999999994
 31
0.0
  0
LINE
  5
161
330
1F
100
AcDbEntity
  8
Ｓ_１_１
  6
CONTINUOUS
 62
     3
100
AcDbLine
 10
301.9999849999999
 20
227.4999999999999
 30
0.0
 11
301.999985
 21
92.49999999999989
 31
0.0
  0
LINE
  5
162
330
1F
100
AcDbEntity
  8
Ｓ_１_１
  6
CONTINUOUS
 62
     3
100
AcDbLine
 10
299.9999849999999
 20
225.5
 30
0.0
 11
299.999985
 21
94.49999999999987
 31
0.0
  0
LINE
  5
163
330
1F
100
AcDbEntity
  8
Ｓ_１_１
  6
CONTINUOUS
 62
     3
100
AcDbLine
 10
423.3309849999998
 20
227.4999999999999
 30
0.0
 11
423.6325475000001
 21
237.1500000000072
 31
0.0
  0
LINE
  5
164
330
1F
100
AcDbEntity
  8
Ｓ_１_１
  6
CONTINUOUS
 62
     3
100
AcDbLine
 10
422.4749849999981
 20
227.4999999999999
 30
0.0
 11
422.6515474999985
 21
233.1500000000074
 31
0.0
  0
LINE
  5
165
330
1F
100
AcDbEntity
  8
Ｓ_１_１
  6
CONTINUOUS
 62
     3
100
AcDbLine
 10
423.3309849999982
 20
227.4999999999999
 30
0.0
 11
423.6325474999983
 21
237.1500000000072
 31
0.0
  0
LINE
  5
166
330
1F
100
AcDbEntity
  8
Ｓ_１_１
  6
CONTINUOUS
 62
     3
100
AcDbLine
 10
406.6689849999996
 20
227.4999999999999
 30
0.0
 11
406.3674224999993
 21
237.1500000000072
 31
0.0
  0
LINE
  5
167
330
1F
100
AcDbEntity
  8
Ｓ_１_１
  6
CONTINUOUS
 62
     3
100
AcDbLine
 10
407.5249849999996
 20
227.4999999999999
 30
0.0
 11
407.3484224999993
 21
233.1500000000074
 31
0.0
  0
LINE
  5
168
330
1F
100
AcDbEntity
  8
Ｓ_１_１
  6
CONTINUOUS
 62
     3
100
AcDbLine
 10
353.3309849999985
 20
227.4999999999999
 30
0.0
 11
353.6325474999986
 21
237.1500000000072
 31
0.0
  0
LINE
  5
169
330
1F
100
AcDbEntity
  8
Ｓ_１_１
  6
CONTINUOUS
 62
     3
100
AcDbLine
 10
352.4749849999985
 20
227.4999999999999
 30
0.0
 11
352.6515474999988
 21
233.1500000000074
 31
0.0
  0
LINE
  5
16A
330
1F
100
AcDbEntity
  8
Ｓ_１_１
  6
CONTINUOUS
 62
     3
100
AcDbLine
 10
301.999985
 20
92.49999999999989
 30
0.0
 11
469.0000000000001
 21
92.49999999999994
 31
0.0
  0
LINE
  5
16B
330
1F
100
AcDbEntity
  8
Ｓ_１_１
  6
CONTINUOUS
 62
     3
100
AcDbLine
 10
470.0000000000001
 20
226.5
 30
0.0
 11
470.0000000000001
 21
93.49999999999994
 31
0.0
  0
LINE
  5
16C
330
1F
100
AcDbEntity
  8
Ｓ_１_１
  6
CONTINUOUS
 62
     3
100
AcDbLine
 10
469.0000000000001
 20
92.49998199999999
 30
0.0
 11
470.0000010000002
 21
93.49998299999987
 31
0.0
  0
LINE
  5
16D
330
1F
100
AcDbEntity
  8
Ｓ_１_１
  6
CONTINUOUS
 62
     3
100
AcDbLine
 10
469.9999849999999
 20
226.5
 30
0.0
 11
468.999985
 21
227.5
 31
0.0
  0
LINE
  5
16E
330
1F
100
AcDbEntity
  8
Ｓ_１_１
  6
CONTINUOUS
 62
     3
100
AcDbLine
 10
407.3484224999993
 20
233.1500000000074
 30
0.0
 11
422.6515474999985
 21
233.1500000000074
 31
0.0
  0
LINE
  5
16F
330
1F
100
AcDbEntity
  8
Ｓ_１_１
  6
CONTINUOUS
 62
     3
100
AcDbLine
 10
423.5565311784699
 20
234.7174777111473
 30
0.0
 11
422.6515474999997
 21
233.1500000000072
 31
0.0
  0
LINE
  5
170
330
1F
100
AcDbEntity
  8
Ｓ_１_１
  6
CONTINUOUS
 62
     3
100
AcDbLine
 10
406.4434388215298
 20
234.7174777111473
 30
0.0
 11
423.5565311784714
 21
234.7174777111473
 31
0.0
  0
LINE
  5
171
330
1F
100
AcDbEntity
  8
Ｓ_１_１
  6
CONTINUOUS
 62
     3
100
AcDbLine
 10
407.3484224999997
 20
233.1500000000072
 30
0.0
 11
406.4434388215263
 21
234.717477711144
 31
0.0
  0
LINE
  5
172
330
1F
100
AcDbEntity
  8
Ｓ_１_１
  6
CONTINUOUS
 62
     3
100
AcDbLine
 10
425.4996453008496
 20
237.1499011962074
 30
0.0
 11
427.1242903089499
 21
238.0878866820072
 31
0.0
  0
ARC
  5
173
330
1F
100
AcDbEntity
  8
Ｓ_１_１
  6
CONTINUOUS
 62
     3
100
AcDbCircle
 10
424.0930025780496
 20
242.5171264648071
 30
0.0
 40
5.3672456741
100
AcDbArc
 50
235.6158500905
 51
304.3841378430002
  0
ARC
  5
174
330
1F
100
AcDbEntity
  8
Ｓ_１_１
  6
CONTINUOUS
 62
     3
100
AcDbCircle
 10
414.9999849999497
 20
257.2121948242071
 30
0.0
 40
20.0621948242
100
AcDbArc
 50
252.4121151275003
 51
287.5879991644001
  0
LINE
  5
175
330
1F
100
AcDbEntity
  8
Ｓ_１_１
  6
CONTINUOUS
 62
     3
100
AcDbLine
 10
425.4999849999497
 20
237.1500610352073
 30
0.0
 11
404.4999849999497
 21
237.1500610352073
 31
0.0
  0
ARC
  5
176
330
1F
100
AcDbEntity
  8
Ｓ_１_１
  6
CONTINUOUS
 62
     3
100
AcDbCircle
 10
405.9067232812497
 20
242.5171264648071
 30
0.0
 40
5.3672456741
100
AcDbArc
 50
235.6159320528
 51
304.3842198053001
  0
LINE
  5
177
330
1F
100
AcDbEntity
  8
Ｓ_１_１
  6
CONTINUOUS
 62
     3
100
AcDbLine
 10
404.4997329639498
 20
237.1500914555068
 30
0.0
 11
402.8754051041499
 21
238.0878938364072
 31
0.0
  0
ARC
  5
178
330
1F
100
AcDbEntity
  8
Ｓ_１_１
  6
CONTINUOUS
 62
     3
100
AcDbCircle
 10
414.9999849998999
 20
244.6481897539072
 30
0.0
 40
21.93943595890001
100
AcDbArc
 50
76.82650919050003
 51
103.1734721402001
  0
LINE
  5
179
330
1F
100
AcDbEntity
  8
Ｓ_１_１
  6
CONTINUOUS
 62
     3
100
AcDbLine
 10
426.9999849998999
 20
316.5875208086069
 30
0.0
 11
402.9999849998999
 21
316.5875208086069
 31
0.0
  0
LINE
  5
17A
330
1F
100
AcDbEntity
  8
Ｓ_１_１
  6
CONTINUOUS
 62
     3
100
AcDbLine
 10
426.9999849998999
 20
266.5875208086069
 30
0.0
 11
402.9999849998999
 21
266.5875208086069
 31
0.0
  0
LINE
  5
17B
330
1F
100
AcDbEntity
  8
Ｓ_１_１
  6
CONTINUOUS
 62
     3
100
AcDbLine
 10
426.9999849998999
 20
281.5875208086069
 30
0.0
 11
402.9999849998999
 21
281.5875208086069
 31
0.0
  0
LINE
  5
17C
330
1F
100
AcDbEntity
  8
Ｓ_１_１
  6
CONTINUOUS
 62
     3
100
AcDbLine
 10
430.4999849998999
 20
289.0875208086069
 30
0.0
 11
416.7499849998998
 21
289.0875208086069
 31
0.0
  0
LINE
  5
17D
330
1F
100
AcDbEntity
  8
Ｓ_１_１
  6
CONTINUOUS
 62
     3
100
AcDbLine
 10
401.9999849998999
 20
289.0875208086069
 30
0.0
 11
401.9999849998999
 21
282.1649133868074
 31
0.0
  0
LINE
  5
17E
330
1F
100
AcDbEntity
  8
Ｓ_１_１
  6
CONTINUOUS
 62
     3
100
AcDbLine
 10
427.9999849998998
 20
289.0875208086069
 30
0.0
 11
427.9999849998998
 21
282.1649133868074
 31
0.0
  0
LINE
  5
17F
330
1F
100
AcDbEntity
  8
Ｓ_１_１
  6
CONTINUOUS
 62
     3
100
AcDbLine
 10
426.9999849998999
 20
316.5875208086069
 30
0.0
 11
426.9999849998999
 21
316.0876428789072
 31
0.0
  0
LINE
  5
180
330
1F
100
AcDbEntity
  8
Ｓ_１_１
  6
CONTINUOUS
 62
     3
100
AcDbLine
 10
402.9999849998999
 20
316.5875208086069
 30
0.0
 11
402.9999849998999
 21
316.0876428789072
 31
0.0
  0
LINE
  5
181
330
1F
100
AcDbEntity
  8
Ｓ_１_１
  6
CONTINUOUS
 62
     3
100
AcDbLine
 10
430.9997408592999
 20
313.0876428789072
 30
0.0
 11
430.9997408592999
 21
305.5876428789072
 31
0.0
  0
LINE
  5
182
330
1F
100
AcDbEntity
  8
Ｓ_１_１
  6
CONTINUOUS
 62
     3
100
AcDbLine
 10
398.9999849998999
 20
313.0876428789072
 30
0.0
 11
398.9999849998999
 21
305.5876428789072
 31
0.0
  0
LINE
  5
183
330
1F
100
AcDbEntity
  8
Ｓ_１_１
  6
CONTINUOUS
 62
     3
100
AcDbLine
 10
427.9999849998998
 20
316.0876428789072
 30
0.0
 11
401.9999849998999
 21
316.0876428789072
 31
0.0
  0
LINE
  5
184
330
1F
100
AcDbEntity
  8
Ｓ_１_１
  6
CONTINUOUS
 62
     3
100
AcDbLine
 10
402.9999849998999
 20
281.5875208086069
 30
0.0
 11
402.9999849998999
 21
266.5875208086069
 31
0.0
  0
LINE
  5
185
330
1F
100
AcDbEntity
  8
Ｓ_１_１
  6
CONTINUOUS
 62
     3
100
AcDbLine
 10
426.9999849998999
 20
281.5875208086069
 30
0.0
 11
426.9999849998999
 21
266.5875208086069
 31
0.0
  0
LINE
  5
186
330
1F
100
AcDbEntity
  8
Ｓ_１_１
  6
CONTINUOUS
 62
     3
100
AcDbLine
 10
427.9997814925
 20
316.0875458176071
 30
0.0
 11
430.9998062565001
 21
313.0875210536071
 31
0.0
  0
LINE
  5
187
330
1F
100
AcDbEntity
  8
Ｓ_１_１
  6
CONTINUOUS
 62
     3
100
AcDbLine
 10
401.9998402079
 20
316.0875026592072
 30
0.0
 11
398.9999880774999
 21
313.0876505287071
 31
0.0
  0
LINE
  5
188
330
1F
100
AcDbEntity
  8
Ｓ_１_１
  6
CONTINUOUS
 62
     3
100
AcDbLine
 10
430.4999849998999
 20
305.0876428789072
 30
0.0
 11
430.4999849998999
 21
297.0875208086069
 31
0.0
  0
LINE
  5
189
330
1F
100
AcDbEntity
  8
Ｓ_１_１
  6
CONTINUOUS
 62
     3
100
AcDbLine
 10
399.4999849998998
 20
305.0876428789072
 30
0.0
 11
399.4999849998998
 21
297.0875208086069
 31
0.0
  0
LINE
  5
18A
330
1F
100
AcDbEntity
  8
Ｓ_１_１
  6
CONTINUOUS
 62
     3
100
AcDbLine
 10
430.4999849998999
 20
297.0875208086069
 30
0.0
 11
399.4999849998998
 21
297.0875208086069
 31
0.0
  0
LINE
  5
18B
330
1F
100
AcDbEntity
  8
Ｓ_１_１
  6
CONTINUOUS
 62
     3
100
AcDbLine
 10
430.4999849998999
 20
305.0876428789072
 30
0.0
 11
399.4999849998998
 21
305.0876428789072
 31
0.0
  0
LINE
  5
18C
330
1F
100
AcDbEntity
  8
Ｓ_１_１
  6
CONTINUOUS
 62
     3
100
AcDbLine
 10
430.9997641495997
 20
296.587746302707
 30
0.0
 11
430.4997312077998
 21
297.0877792023072
 31
0.0
  0
LINE
  5
18D
330
1F
100
AcDbEntity
  8
Ｓ_１_１
  6
CONTINUOUS
 62
     3
100
AcDbLine
 10
399.4997613923996
 20
305.0877867256074
 30
0.0
 11
398.9998147674
 21
305.587733308507
 31
0.0
  0
LINE
  5
18E
330
1F
100
AcDbEntity
  8
Ｓ_１_１
  6
CONTINUOUS
 62
     3
100
AcDbLine
 10
399.4996474290001
 20
297.0874612070072
 30
0.0
 11
398.9997008039999
 21
296.5875146242071
 31
0.0
  0
LINE
  5
18F
330
1F
100
AcDbEntity
  8
Ｓ_１_１
  6
CONTINUOUS
 62
     3
100
AcDbLine
 10
430.9997365028999
 20
305.5875879467073
 30
0.0
 11
430.4996172444999
 21
305.0874687304074
 31
0.0
  0
LINE
  5
190
330
1F
100
AcDbEntity
  8
Ｓ_１_１
  6
CONTINUOUS
 62
     3
100
AcDbLine
 10
430.9997408592999
 20
296.5875208086069
 30
0.0
 11
430.9997408592999
 21
289.5875208086069
 31
0.0
  0
LINE
  5
191
330
1F
100
AcDbEntity
  8
Ｓ_１_１
  6
CONTINUOUS
 62
     3
100
AcDbLine
 10
398.9999849998999
 20
296.5875208086069
 30
0.0
 11
398.9999849998999
 21
289.5875208086069
 31
0.0
  0
LINE
  5
192
330
1F
100
AcDbEntity
  8
Ｓ_１_１
  6
CONTINUOUS
 62
     3
100
AcDbLine
 10
430.9997358286
 20
289.5875702869072
 30
0.0
 11
430.4996165701
 21
289.0874510706068
 31
0.0
  0
LINE
  5
193
330
1F
100
AcDbEntity
  8
Ｓ_１_１
  6
CONTINUOUS
 62
     3
100
AcDbLine
 10
399.4995894333001
 20
289.0875964323074
 30
0.0
 11
398.9996428083
 21
289.587543015207
 31
0.0
  0
LINE
  5
194
330
1F
100
AcDbEntity
  8
Ｓ_１_１
  6
CONTINUOUS
 62
     3
100
AcDbLine
 10
398.9999849998999
 20
296.5875208086069
 30
0.0
 11
430.9997408592999
 21
296.5875208086069
 31
0.0
  0
LINE
  5
195
330
1F
100
AcDbEntity
  8
Ｓ_１_１
  6
CONTINUOUS
 62
     3
100
AcDbLine
 10
430.9997408592999
 20
289.5875208086069
 30
0.0
 11
416.7499849998998
 21
289.5875208086069
 31
0.0
  0
LINE
  5
196
330
1F
100
AcDbEntity
  8
Ｓ_１_１
  6
CONTINUOUS
 62
     3
100
AcDbLine
 10
430.9997408592999
 20
305.5876428789072
 30
0.0
 11
398.9999849998999
 21
305.5876428789072
 31
0.0
  0
LINE
  5
197
330
1F
100
AcDbEntity
  8
Ｓ_１_１
  6
CONTINUOUS
 62
     3
100
AcDbLine
 10
430.9997408592999
 20
313.0876428789072
 30
0.0
 11
398.9999849998999
 21
313.0876428789072
 31
0.0
  0
LINE
  5
198
330
1F
100
AcDbEntity
  8
Ｓ_１_１
  6
CONTINUOUS
 62
     3
100
AcDbLine
 10
416.8546725351998
 20
289.5876211976071
 30
0.0
 11
416.7497378490998
 21
289.7693734255069
 31
0.0
  0
LINE
  5
199
330
1F
100
AcDbEntity
  8
Ｓ_１_１
  6
CONTINUOUS
 62
     3
100
AcDbLine
 10
399.4999849998998
 20
287.5876428789072
 30
0.0
 11
399.4999849998998
 21
286.5875208086069
 31
0.0
  0
LINE
  5
19A
330
1F
100
AcDbEntity
  8
Ｓ_１_１
  6
CONTINUOUS
 62
     3
100
AcDbLine
 10
430.4999849998999
 20
287.5876428789072
 30
0.0
 11
430.4999849998999
 21
286.5875208086069
 31
0.0
  0
LINE
  5
19B
330
1F
100
AcDbEntity
  8
Ｓ_１_１
  6
CONTINUOUS
 62
     3
100
AcDbLine
 10
429.9999849998999
 20
286.0876428789072
 30
0.0
 11
427.9999849998998
 21
286.0876428789072
 31
0.0
  0
LINE
  5
19C
330
1F
100
AcDbEntity
  8
Ｓ_１_１
  6
CONTINUOUS
 62
     3
100
AcDbLine
 10
429.9999849998999
 20
288.0876428789072
 30
0.0
 11
427.9999849998998
 21
288.0876428789072
 31
0.0
  0
LINE
  5
19D
330
1F
100
AcDbEntity
  8
Ｓ_１_１
  6
CONTINUOUS
 62
     3
100
AcDbLine
 10
401.9999849998999
 20
288.0876428789072
 30
0.0
 11
399.9999849998999
 21
288.0876428789072
 31
0.0
  0
LINE
  5
19E
330
1F
100
AcDbEntity
  8
Ｓ_１_１
  6
CONTINUOUS
 62
     3
100
AcDbLine
 10
401.9999849998999
 20
286.0876428789072
 30
0.0
 11
399.9999849998999
 21
286.0876428789072
 31
0.0
  0
LINE
  5
19F
330
1F
100
AcDbEntity
  8
Ｓ_１_１
  6
CONTINUOUS
 62
     3
100
AcDbLine
 10
399.9998380848001
 20
288.0876024098072
 30
0.0
 11
399.4997188683997
 21
287.5874831935072
 31
0.0
  0
LINE
  5
1A0
330
1F
100
AcDbEntity
  8
Ｓ_１_１
  6
CONTINUOUS
 62
     3
100
AcDbLine
 10
399.9997517679999
 20
286.0875571282074
 30
0.0
 11
399.4998483435998
 21
286.5874605527071
 31
0.0
  0
LINE
  5
1A1
330
1F
100
AcDbEntity
  8
Ｓ_１_１
  6
CONTINUOUS
 62
     3
100
AcDbLine
 10
430.4998165152997
 20
287.5875263519071
 30
0.0
 11
429.9998267740998
 21
288.087516093107
 31
0.0
  0
LINE
  5
1A2
330
1F
100
AcDbEntity
  8
Ｓ_１_１
  6
CONTINUOUS
 62
     3
100
AcDbLine
 10
430.4998596737
 20
286.5875900278072
 30
0.0
 11
429.9999130908
 21
286.0876434450071
 31
0.0
  0
LINE
  5
1A3
330
1F
100
AcDbEntity
  8
Ｓ_１_１
  6
CONTINUOUS
 62
     3
100
AcDbLine
 10
413.2499849998999
 20
292.5876428789072
 30
0.0
 11
413.2499849998999
 21
289.0875208086069
 31
0.0
  0
LINE
  5
1A4
330
1F
100
AcDbEntity
  8
Ｓ_１_１
  6
CONTINUOUS
 62
     3
100
AcDbLine
 10
416.7499849998998
 20
292.5876428789072
 30
0.0
 11
416.7499849998998
 21
289.0875208086069
 31
0.0
  0
LINE
  5
1A5
330
1F
100
AcDbEntity
  8
Ｓ_１_１
  6
CONTINUOUS
 62
     3
100
AcDbLine
 10
416.7499849998998
 20
292.5876428789072
 30
0.0
 11
413.2499849998999
 21
292.5876428789072
 31
0.0
  0
LINE
  5
1A6
330
1F
100
AcDbEntity
  8
Ｓ_１_１
  6
CONTINUOUS
 62
     3
100
AcDbLine
 10
413.2499849998999
 20
289.0875208086069
 30
0.0
 11
399.4999849998998
 21
289.0875208086069
 31
0.0
  0
LINE
  5
1A7
330
1F
100
AcDbEntity
  8
Ｓ_１_１
  6
CONTINUOUS
 62
     3
100
AcDbLine
 10
413.2499849998999
 20
289.5875208086069
 30
0.0
 11
398.9999849998999
 21
289.5875208086069
 31
0.0
  0
LINE
  5
1A8
330
1F
100
AcDbEntity
  8
Ｓ_１_１
  6
CONTINUOUS
 62
     3
100
AcDbLine
 10
413.2498831856001
 20
289.7694781181069
 30
0.0
 11
413.1449027230996
 21
289.5876466031074
 31
0.0
  0
LINE
  5
1A9
330
1F
100
AcDbEntity
  8
Ｓ_１_１
  6
CONTINUOUS
 62
     3
100
AcDbLine
 10
427.9998155856997
 20
266.0103889686072
 30
0.0
 11
426.9998480383996
 21
266.5877205116073
 31
0.0
  0
LINE
  5
1AA
330
1F
100
AcDbEntity
  8
Ｓ_１_１
  6
CONTINUOUS
 62
     3
100
AcDbLine
 10
402.999724667
 20
281.5876226050074
 30
0.0
 11
401.9997571197
 21
282.1649541480071
 31
0.0
  0
LINE
  5
1AB
330
1F
100
AcDbEntity
  8
Ｓ_１_１
  6
CONTINUOUS
 62
     3
100
AcDbLine
 10
402.9997921798999
 20
266.5876204678072
 30
0.0
 11
401.9999303486998
 21
266.010349960007
 31
0.0
  0
LINE
  5
1AC
330
1F
100
AcDbEntity
  8
Ｓ_１_１
  6
CONTINUOUS
 62
     3
100
AcDbLine
 10
427.9999430382999
 20
282.1649944263069
 30
0.0
 11
426.9998697749998
 21
281.5876018482074
 31
0.0
  0
LINE
  5
1AD
330
1F
100
AcDbEntity
  8
Ｓ_１_１
  6
CONTINUOUS
 62
     3
100
AcDbLine
 10
427.9999849998998
 20
282.1649133868074
 30
0.0
 11
401.9999849998999
 21
282.1649133868074
 31
0.0
  0
LINE
  5
1AE
330
1F
100
AcDbEntity
  8
Ｓ_１_１
  6
CONTINUOUS
 62
     3
100
AcDbLine
 10
427.9999849998998
 20
266.0101282305074
 30
0.0
 11
419.9999849998999
 21
266.0101282305074
 31
0.0
  0
LINE
  5
1AF
330
1F
100
AcDbEntity
  8
Ｓ_１_１
  6
CONTINUOUS
 62
     3
100
AcDbLine
 10
409.9999849998998
 20
266.0101282305074
 30
0.0
 11
401.9999849998999
 21
266.0101282305074
 31
0.0
  0
LINE
  5
1B0
330
1F
100
AcDbEntity
  8
Ｓ_１_１
  6
CONTINUOUS
 62
     3
100
AcDbLine
 10
353.3309849999987
 20
279.8000000000071
 30
0.0
 11
353.6325474999986
 21
270.1500000000073
 31
0.0
  0
LINE
  5
1B1
330
1F
100
AcDbEntity
  8
Ｓ_１_１
  6
CONTINUOUS
 62
     3
100
AcDbLine
 10
352.4749849999988
 20
279.8000000000071
 30
0.0
 11
352.6515474999988
 21
274.150000000007
 31
0.0
  0
LINE
  5
1B2
330
1F
100
AcDbEntity
  8
Ｓ_１_１
  6
CONTINUOUS
 62
     3
100
AcDbLine
 10
337.5249849999996
 20
279.8000000000071
 30
0.0
 11
337.3484224999996
 21
274.150000000007
 31
0.0
  0
LINE
  5
1B3
330
1F
100
AcDbEntity
  8
Ｓ_１_１
  6
CONTINUOUS
 62
     3
100
AcDbLine
 10
336.6689849999996
 20
279.8000000000071
 30
0.0
 11
336.3674224999996
 21
270.1500000000073
 31
0.0
  0
LINE
  5
1B4
330
1F
100
AcDbEntity
  8
Ｓ_１_１
  6
CONTINUOUS
 62
     3
100
AcDbLine
 10
337.3484224999996
 20
274.150000000007
 30
0.0
 11
352.6515474999988
 21
274.150000000007
 31
0.0
  0
LINE
  5
1B5
330
1F
100
AcDbEntity
  8
Ｓ_１_１
  6
CONTINUOUS
 62
     3
100
AcDbLine
 10
353.5565311784702
 20
272.5825222888673
 30
0.0
 11
352.6515474999999
 21
274.1500000000072
 31
0.0
  0
LINE
  5
1B6
330
1F
100
AcDbEntity
  8
Ｓ_１_１
  6
CONTINUOUS
 62
     3
100
AcDbLine
 10
336.44343882153
 20
272.5825222888673
 30
0.0
 11
353.5565311784717
 21
272.5825222888673
 31
0.0
  0
LINE
  5
1B7
330
1F
100
AcDbEntity
  8
Ｓ_１_１
  6
CONTINUOUS
 62
     3
100
AcDbLine
 10
337.3484225
 20
274.1500000000072
 30
0.0
 11
336.4434388215266
 21
272.5825222888705
 31
0.0
  0
LINE
  5
1B8
330
1F
100
AcDbEntity
  8
Ｓ_１_１
  6
CONTINUOUS
 62
     3
100
AcDbLine
 10
353.5565311784702
 20
234.7174777111473
 30
0.0
 11
352.6515474999999
 21
233.1500000000072
 31
0.0
  0
ARC
  5
1B9
330
1F
100
AcDbEntity
  8
Ｓ_１_１
  6
CONTINUOUS
 62
     3
100
AcDbCircle
 10
334.7015598081096
 20
280.6660888672073
 30
0.0
 40
6.1339254379
100
AcDbArc
 50
55.61541136450016
 51
124.3845631360001
  0
ARC
  5
1BA
330
1F
100
AcDbEntity
  8
Ｓ_１_１
  6
CONTINUOUS
 62
     3
100
AcDbCircle
 10
345.0938937925101
 20
263.8721435547073
 30
0.0
 40
22.9279384613
100
AcDbArc
 50
72.41183691100024
 51
107.5881444197001
  0
ARC
  5
1BB
330
1F
100
AcDbEntity
  8
Ｓ_１_１
  6
CONTINUOUS
 62
     3
100
AcDbCircle
 10
355.4859836362101
 20
285.9340332032075
 30
0.0
 40
6.1339254379
100
AcDbArc
 50
235.6154402791002
 51
304.3846022959
  0
ARC
  5
1BC
330
1F
100
AcDbEntity
  8
Ｓ_１_１
  6
CONTINUOUS
 62
     3
100
AcDbCircle
 10
349.5936496519105
 20
323.8001220703073
 30
0.0
 40
1.0
100
AcDbArc
 50
0.0000223118001692
 51
90.00002481630007
  0
ARC
  5
1BD
330
1F
100
AcDbEntity
  8
Ｓ_１_１
  6
CONTINUOUS
 62
     3
100
AcDbCircle
 10
355.4859836362101
 20
280.6660888672073
 30
0.0
 40
6.1339254379
100
AcDbArc
 50
55.61547966640025
 51
124.3846314378002
  0
ARC
  5
1BE
330
1F
100
AcDbEntity
  8
Ｓ_１_１
  6
CONTINUOUS
 62
     3
100
AcDbCircle
 10
345.0938937925101
 20
302.7279785157075
 30
0.0
 40
22.92794227600001
100
AcDbArc
 50
252.4118829011
 51
287.5881767494
  0
ARC
  5
1BF
330
1F
100
AcDbEntity
  8
Ｓ_１_１
  6
CONTINUOUS
 62
     3
100
AcDbCircle
 10
334.7015598081096
 20
285.9340332032075
 30
0.0
 40
6.1339254379
100
AcDbArc
 50
235.6154266188
 51
304.3845886355002
  0
ARC
  5
1C0
330
1F
100
AcDbEntity
  8
Ｓ_１_１
  6
CONTINUOUS
 62
     3
100
AcDbCircle
 10
340.5938937925101
 20
323.8001220703073
 30
0.0
 40
1.0
100
AcDbArc
 50
90.00002481630007
 51
180.0000025045
  0
LINE
  5
1C1
330
1F
100
AcDbEntity
  8
Ｓ_１_１
  6
CONTINUOUS
 62
     3
100
AcDbLine
 10
357.0936496519105
 20
279.8000000000071
 30
0.0
 11
333.0938937925101
 21
279.8000000000071
 31
0.0
  0
LINE
  5
1C2
330
1F
100
AcDbEntity
  8
Ｓ_１_１
  6
CONTINUOUS
 62
     3
100
AcDbLine
 10
350.5938937925101
 20
323.8001220703073
 30
0.0
 11
350.5938937925101
 21
314.8000000000071
 31
0.0
  0
LINE
  5
1C3
330
1F
100
AcDbEntity
  8
Ｓ_１_１
  6
CONTINUOUS
 62
     3
100
AcDbLine
 10
350.5938937925101
 20
314.8000000000071
 30
0.0
 11
339.5936496519105
 21
314.8000000000071
 31
0.0
  0
LINE
  5
1C4
330
1F
100
AcDbEntity
  8
Ｓ_１_１
  6
CONTINUOUS
 62
     3
100
AcDbLine
 10
354.0938937925101
 20
311.3001220703073
 30
0.0
 11
354.0938937925101
 21
309.3001220703073
 31
0.0
  0
LINE
  5
1C5
330
1F
100
AcDbEntity
  8
Ｓ_１_１
  6
CONTINUOUS
 62
     3
100
AcDbLine
 10
336.0938937925101
 20
311.3001220703073
 30
0.0
 11
336.0938937925101
 21
309.3001220703073
 31
0.0
  0
LINE
  5
1C6
330
1F
100
AcDbEntity
  8
Ｓ_１_１
  6
CONTINUOUS
 62
     3
100
AcDbLine
 10
356.3438937925101
 20
295.8001220703073
 30
0.0
 11
333.8438937925101
 21
295.8001220703073
 31
0.0
  0
LINE
  5
1C7
330
1F
100
AcDbEntity
  8
Ｓ_１_１
  6
CONTINUOUS
 62
     3
100
AcDbLine
 10
333.3436496519105
 20
295.3000000000071
 30
0.0
 11
333.3436496519105
 21
286.8001220703073
 31
0.0
  0
LINE
  5
1C8
330
1F
100
AcDbEntity
  8
Ｓ_１_１
  6
CONTINUOUS
 62
     3
100
AcDbLine
 10
356.8438937925101
 20
295.3000000000071
 30
0.0
 11
356.8438937925101
 21
286.8001220703073
 31
0.0
  0
LINE
  5
1C9
330
1F
100
AcDbEntity
  8
Ｓ_１_１
  6
CONTINUOUS
 62
     3
100
AcDbLine
 10
358.9504054125107
 20
280.8718879838075
 30
0.0
 11
357.0940326321095
 21
279.8001106401076
 31
0.0
  0
LINE
  5
1CA
330
1F
100
AcDbEntity
  8
Ｓ_１_１
  6
CONTINUOUS
 62
     3
100
AcDbLine
 10
333.0940044493098
 20
286.8000430828075
 30
0.0
 11
331.2376316688104
 21
285.7282657391075
 31
0.0
  0
LINE
  5
1CB
330
1F
100
AcDbEntity
  8
Ｓ_１_１
  6
CONTINUOUS
 62
     3
100
AcDbLine
 10
333.0939171178096
 20
279.8001249345076
 30
0.0
 11
331.2375443373101
 21
280.8719022783076
 31
0.0
  0
LINE
  5
1CC
330
1F
100
AcDbEntity
  8
Ｓ_１_１
  6
CONTINUOUS
 62
     3
100
AcDbLine
 10
358.9503791162104
 20
285.7283857495073
 30
0.0
 11
357.09400633571
 21
286.8001630933073
 31
0.0
  0
LINE
  5
1CD
330
1F
100
AcDbEntity
  8
Ｓ_１_１
  6
CONTINUOUS
 62
     3
100
AcDbLine
 10
331.2374484800101
 20
285.7283447266073
 30
0.0
 11
331.2374484800101
 21
280.8718994141073
 31
0.0
  0
LINE
  5
1CE
330
1F
100
AcDbEntity
  8
Ｓ_１_１
  6
CONTINUOUS
 62
     3
100
AcDbLine
 10
338.1654269956096
 20
285.7283447266073
 30
0.0
 11
338.1654269956096
 21
280.8718994141073
 31
0.0
  0
LINE
  5
1CF
330
1F
100
AcDbEntity
  8
Ｓ_１_１
  6
CONTINUOUS
 62
     3
100
AcDbLine
 10
352.0218723081096
 20
285.7283447266073
 30
0.0
 11
352.0218723081096
 21
280.8718994141073
 31
0.0
  0
LINE
  5
1D0
330
1F
100
AcDbEntity
  8
Ｓ_１_１
  6
CONTINUOUS
 62
     3
100
AcDbLine
 10
358.9503391050101
 20
285.7283447266073
 30
0.0
 11
358.9503391050101
 21
280.8717773438071
 31
0.0
  0
LINE
  5
1D1
330
1F
100
AcDbEntity
  8
Ｓ_１_１
  6
CONTINUOUS
 62
     3
100
AcDbLine
 10
357.0936496519105
 20
286.8001220703073
 30
0.0
 11
333.0938937925101
 21
286.8001220703073
 31
0.0
  0
LINE
  5
1D2
330
1F
100
AcDbEntity
  8
Ｓ_１_１
  6
CONTINUOUS
 62
     3
100
AcDbLine
 10
349.5936496519105
 20
324.8000000000071
 30
0.0
 11
340.5938937925101
 21
324.8000000000071
 31
0.0
  0
LINE
  5
1D3
330
1F
100
AcDbEntity
  8
Ｓ_１_１
  6
CONTINUOUS
 62
     3
100
AcDbLine
 10
343.5941431417103
 20
326.8003327729071
 30
0.0
 11
341.5941841769098
 21
324.8003738081075
 31
0.0
  0
LINE
  5
1D4
330
1F
100
AcDbEntity
  8
Ｓ_１_１
  6
CONTINUOUS
 62
     3
100
AcDbLine
 10
348.5940405537102
 20
324.8001148579074
 30
0.0
 11
346.59399527221
 21
326.8001601394076
 31
0.0
  0
LINE
  5
1D5
330
1F
100
AcDbEntity
  8
Ｓ_１_１
  6
CONTINUOUS
 62
     3
100
AcDbLine
 10
352.5938937925101
 20
306.3001220703073
 30
0.0
 11
337.5938937925101
 21
306.3001220703073
 31
0.0
  0
LINE
  5
1D6
330
1F
100
AcDbEntity
  8
Ｓ_１_１
  6
CONTINUOUS
 62
     3
100
AcDbLine
 10
352.5938937925101
 20
307.8000000000071
 30
0.0
 11
337.5938937925101
 21
307.8000000000071
 31
0.0
  0
LINE
  5
1D7
330
1F
100
AcDbEntity
  8
Ｓ_１_１
  6
CONTINUOUS
 62
     3
100
AcDbLine
 10
354.0938937925101
 20
311.3001220703073
 30
0.0
 11
336.0938937925101
 21
311.3001220703073
 31
0.0
  0
LINE
  5
1D8
330
1F
100
AcDbEntity
  8
Ｓ_１_１
  6
CONTINUOUS
 62
     3
100
AcDbLine
 10
336.0938937925101
 20
304.8000000000071
 30
0.0
 11
336.0938937925101
 21
295.8001220703073
 31
0.0
  0
LINE
  5
1D9
330
1F
100
AcDbEntity
  8
Ｓ_１_１
  6
CONTINUOUS
 62
     3
100
AcDbLine
 10
354.0938937925101
 20
304.8000000000071
 30
0.0
 11
354.0938937925101
 21
295.8001220703073
 31
0.0
  0
LINE
  5
1DA
330
1F
100
AcDbEntity
  8
Ｓ_１_１
  6
CONTINUOUS
 62
     3
100
AcDbLine
 10
354.0939398447106
 20
309.3001326708073
 30
0.0
 11
352.5939273363099
 21
307.8001202888072
 31
0.0
  0
LINE
  5
1DB
330
1F
100
AcDbEntity
  8
Ｓ_１_１
  6
CONTINUOUS
 62
     3
100
AcDbLine
 10
337.5939184493098
 20
307.800172927507
 30
0.0
 11
336.09390594091
 21
309.3001853095071
 31
0.0
  0
LINE
  5
1DC
330
1F
100
AcDbEntity
  8
Ｓ_１_１
  6
CONTINUOUS
 62
     3
100
AcDbLine
 10
354.0938937925101
 20
309.3001220703073
 30
0.0
 11
336.0938937925101
 21
309.3001220703073
 31
0.0
  0
LINE
  5
1DD
330
1F
100
AcDbEntity
  8
Ｓ_１_１
  6
CONTINUOUS
 62
     3
100
AcDbLine
 10
354.0938828394099
 20
304.8001487326074
 30
0.0
 11
352.5938703310101
 21
306.300161114607
 31
0.0
  0
LINE
  5
1DE
330
1F
100
AcDbEntity
  8
Ｓ_１_１
  6
CONTINUOUS
 62
     3
100
AcDbLine
 10
337.5940617714103
 20
306.3000221591074
 30
0.0
 11
336.0940492629096
 21
304.8000097771074
 31
0.0
  0
LINE
  5
1DF
330
1F
100
AcDbEntity
  8
Ｓ_１_１
  6
CONTINUOUS
 62
     3
100
AcDbLine
 10
356.8438937925101
 20
295.3000000000071
 30
0.0
 11
333.3436496519105
 21
295.3000000000071
 31
0.0
  0
LINE
  5
1E0
330
1F
100
AcDbEntity
  8
Ｓ_１_１
  6
CONTINUOUS
 62
     3
100
AcDbLine
 10
354.0938937925101
 20
304.8000000000071
 30
0.0
 11
336.0938937925101
 21
304.8000000000071
 31
0.0
  0
LINE
  5
1E1
330
1F
100
AcDbEntity
  8
Ｓ_１_１
  6
CONTINUOUS
 62
     3
100
AcDbLine
 10
352.5938937925101
 20
307.8000000000071
 30
0.0
 11
352.5938937925101
 21
306.3001220703073
 31
0.0
  0
LINE
  5
1E2
330
1F
100
AcDbEntity
  8
Ｓ_１_１
  6
CONTINUOUS
 62
     3
100
AcDbLine
 10
337.5938937925101
 20
307.8000000000071
 30
0.0
 11
337.5938937925101
 21
306.3001220703073
 31
0.0
  0
LINE
  5
1E3
330
1F
100
AcDbEntity
  8
Ｓ_１_１
  6
CONTINUOUS
 62
     3
100
AcDbLine
 10
333.8441489756104
 20
295.8001919677072
 30
0.0
 11
333.3442023928099
 21
295.3002453849072
 31
0.0
  0
LINE
  5
1E4
330
1F
100
AcDbEntity
  8
Ｓ_１_１
  6
CONTINUOUS
 62
     3
100
AcDbLine
 10
356.84395652321
 20
295.3000844327076
 30
0.0
 11
356.3439293138097
 21
295.8001230646074
 31
0.0
  0
LINE
  5
1E5
330
1F
100
AcDbEntity
  8
Ｓ_１_１
  6
CONTINUOUS
 62
     3
100
AcDbLine
 10
354.0938825655101
 20
311.3001451173073
 30
0.0
 11
350.5939972404101
 21
314.8000301473072
 31
0.0
  0
LINE
  5
1E6
330
1F
100
AcDbEntity
  8
Ｓ_１_１
  6
CONTINUOUS
 62
     3
100
AcDbLine
 10
339.5941074955106
 20
314.800236458807
 30
0.0
 11
336.09413585371
 21
311.3002651120074
 31
0.0
  0
LINE
  5
1E7
330
1F
100
AcDbEntity
  8
Ｓ_１_１
  6
CONTINUOUS
 62
     3
100
AcDbLine
 10
339.5936496519105
 20
323.8001220703073
 30
0.0
 11
339.5936496519105
 21
314.8000000000071
 31
0.0
  0
LINE
  5
1E8
330
1F
100
AcDbEntity
  8
Ｓ_１_１
  6
CONTINUOUS
 62
     3
100
AcDbLine
 10
346.5938937925101
 20
326.8001220703073
 30
0.0
 11
343.5938937925101
 21
326.8001220703073
 31
0.0
  0
LINE
  5
1E9
330
1F
100
AcDbEntity
  8
Ｓ_１_１
  6
CONTINUOUS
 62
     3
100
AcDbLine
 10
344.9999850000002
 20
270.1500000000072
 30
0.0
 11
356.4999850000002
 21
270.1500000000072
 31
0.0
  0
LINE
  5
1EA
330
1F
100
AcDbEntity
  8
Ｓ_１_１
  6
CONTINUOUS
 62
     3
100
AcDbLine
 10
333.4999850000002
 20
270.1500000000072
 30
0.0
 11
344.9999850000002
 21
270.1500000000072
 31
0.0
  0
LINE
  5
1EB
330
1F
100
AcDbEntity
  8
Ｓ_１_１
  6
CONTINUOUS
 62
     3
100
AcDbLine
 10
356.4999838018001
 20
237.1499997057072
 30
0.0
 11
357.4999848634
 21
238.1500008516073
 31
0.0
  0
LINE
  5
1EC
330
1F
100
AcDbEntity
  8
Ｓ_１_１
  6
CONTINUOUS
 62
     3
100
AcDbLine
 10
332.4999850000002
 20
269.1500000000072
 30
0.0
 11
332.4999850000002
 21
253.6500000000072
 31
0.0
  0
LINE
  5
1ED
330
1F
100
AcDbEntity
  8
Ｓ_１_１
  6
CONTINUOUS
 62
     3
100
AcDbLine
 10
332.4999850000002
 20
269.1500000000072
 30
0.0
 11
357.4999850000002
 21
269.1500000000072
 31
0.0
  0
LINE
  5
1EE
330
1F
100
AcDbEntity
  8
Ｓ_１_１
  6
CONTINUOUS
 62
     3
100
AcDbLine
 10
332.4999827266002
 20
269.1499982311073
 30
0.0
 11
333.4999838725001
 21
270.1499992927073
 31
0.0
  0
LINE
  5
1EF
330
1F
100
AcDbEntity
  8
Ｓ_１_１
  6
CONTINUOUS
 62
     3
100
AcDbLine
 10
332.4999850000002
 20
238.1500000000072
 30
0.0
 11
332.4999850000002
 21
253.6500000000072
 31
0.0
  0
LINE
  5
1F0
330
1F
100
AcDbEntity
  8
Ｓ_１_１
  6
CONTINUOUS
 62
     3
100
AcDbLine
 10
333.4999824817001
 20
237.1500006330073
 30
0.0
 11
332.4999841175002
 21
238.1499990815074
 31
0.0
  0
LINE
  5
1F1
330
1F
100
AcDbEntity
  8
Ｓ_１_１
  6
CONTINUOUS
 62
     3
100
AcDbLine
 10
357.4999835568001
 20
269.1499973039072
 30
0.0
 11
356.4999824109
 21
270.1499983655072
 31
0.0
  0
LINE
  5
1F2
330
1F
100
AcDbEntity
  8
Ｓ_１_１
  6
CONTINUOUS
 62
     3
100
AcDbLine
 10
299.9999849999998
 20
225.4999999999999
 30
0.0
 11
301.9999849999998
 21
227.4999999999999
 31
0.0
  0
LINE
  5
1F3
330
1F
100
AcDbEntity
  8
Ｓ_１_１
  6
CONTINUOUS
 62
     3
100
AcDbLine
 10
301.9999890000001
 20
92.50002499999994
 30
0.0
 11
299.999987
 21
94.50002699999993
 31
0.0
  0
DIMENSION
  5
1F5
330
1F
100
AcDbEntity
  8
Ｓ_１_１
  6
CONTINUOUS
 62
     2
100
AcDbDimension
  2
*D15
 10
500.0
 20
92.49999999999994
 30
0.0
 11
495.875
 21
159.9999999999999
 31
0.0
 70
   160
  1
%%c135
  3
ISO-25
100
AcDbAlignedDimension
 13
469.0000000000001
 23
227.4999999999999
 33
0.0
 14
469.0000000000001
 24
92.49999999999994
 34
0.0
 50
90.0
100
AcDbRotatedDimension
1001
ACAD
1000
DSTYLE
1002
{
1070
   270
1070
     2
1070
     6
1000
EX_NORM
1070
     7
1000
EX_NORM
1070
    41
1040
4.5
1070
    42
1040
2.25
1070
    44
1040
1.5
1070
    73
1070
     0
1070
    74
1070
     0
1070
    75
1070
     0
1070
    76
1070
     0
1070
    77
1070
     1
1070
    78
1070
     8
1070
   140
1040
5.19435623556582
1070
   147
1040
0.0
1070
   173
1070
     1
1070
   176
1070
     2
1070
   177
1070
     2
1070
   178
1070
     2
1070
   271
1070
     2
1070
   277
1070
     2
1070
   279
1070
     2
1070
   280
1070
     0
1070
   287
1070
     5
1070
   340
1005
1F4
1002
}
  0
DIMENSION
  5
203
330
1F
100
AcDbEntity
  8
Ｓ_１_１
  6
CONTINUOUS
 62
     2
100
AcDbDimension
  2
*D16
 10
500.0
 20
316.58752080861
 30
0.0
 11
495.875
 21
272.043760404305
 31
0.0
 70
   160
  1
(89)
  3
ISO-25
100
AcDbAlignedDimension
 13
468.999985
 23
227.5
 33
0.0
 14
426.9999849999
 24
316.58752080861
 34
0.0
 50
90.0
100
AcDbRotatedDimension
1001
ACAD
1000
DSTYLE
1002
{
1070
   270
1070
     2
1070
     6
1000
EX_NORM
1070
     7
1000
EX_NORM
1070
    41
1040
4.5
1070
    42
1040
2.25
1070
    44
1040
1.5
1070
    73
1070
     0
1070
    74
1070
     0
1070
    75
1070
     0
1070
    76
1070
     0
1070
    77
1070
     1
1070
    78
1070
     8
1070
   140
1040
5.19435623556582
1070
   147
1040
0.0
1070
   173
1070
     1
1070
   176
1070
     2
1070
   177
1070
     2
1070
   178
1070
     2
1070
   271
1070
     2
1070
   277
1070
     2
1070
   279
1070
     2
1070
   280
1070
     0
1070
   287
1070
     5
1070
   340
1005
1F4
1002
}
  0
DIMENSION
  5
210
330
1F
100
AcDbEntity
  8
Ｓ_１_１
  6
CONTINUOUS
 62
     2
100
AcDbDimension
  2
*D17
 10
414.999985
 20
350.0
 30
0.0
 11
442.4999925
 21
354.125
 31
0.0
 70
   160
  3
ISO-25
100
AcDbAlignedDimension
 13
470.0
 23
226.499985
 33
0.0
 14
414.999985
 24
319.86711573657
 34
0.0
100
AcDbRotatedDimension
1001
ACAD
1000
DSTYLE
1002
{
1070
   270
1070
     2
1070
     6
1000
EX_NORM
1070
     7
1000
EX_NORM
1070
    41
1040
4.5
1070
    42
1040
2.25
1070
    44
1040
1.5
1070
    73
1070
     0
1070
    74
1070
     0
1070
    75
1070
     0
1070
    76
1070
     0
1070
    77
1070
     1
1070
    78
1070
     8
1070
   140
1040
5.19435623556582
1070
   147
1040
0.0
1070
   173
1070
     1
1070
   176
1070
     2
1070
   177
1070
     2
1070
   178
1070
     2
1070
   271
1070
     2
1070
   277
1070
     2
1070
   279
1070
     2
1070
   280
1070
     0
1070
   287
1070
     5
1070
   340
1005
1F4
1002
}
  0
DIMENSION
  5
21D
330
1F
100
AcDbEntity
  8
Ｓ_１_１
  6
CONTINUOUS
 62
     2
100
AcDbDimension
  2
*D18
 10
344.999985
 20
350.0
 30
0.0
 11
379.999985
 21
354.125
 31
0.0
 70
   160
  3
ISO-25
100
AcDbAlignedDimension
 13
414.999985
 23
319.86711573657
 33
0.0
 14
344.999985
 24
330.35
 34
0.0
100
AcDbRotatedDimension
1001
ACAD
1000
DSTYLE
1002
{
1070
   270
1070
     2
1070
     6
1000
EX_NORM
1070
     7
1000
EX_NORM
1070
    41
1040
4.5
1070
    42
1040
2.25
1070
    44
1040
1.5
1070
    73
1070
     0
1070
    74
1070
     0
1070
    75
1070
     0
1070
    76
1070
     0
1070
    77
1070
     1
1070
    78
1070
     8
1070
   140
1040
5.19435623556582
1070
   147
1040
0.0
1070
   173
1070
     1
1070
   176
1070
     2
1070
   177
1070
     2
1070
   178
1070
     2
1070
   271
1070
     2
1070
   277
1070
     2
1070
   279
1070
     2
1070
   280
1070
     0
1070
   287
1070
     5
1070
   340
1005
1F4
1002
}
  0
DIMENSION
  5
22A
330
1F
100
AcDbEntity
  8
Ｓ_１_１
  6
CONTINUOUS
 62
     2
100
AcDbDimension
  2
*D19
 10
299.999985
 20
350.0
 30
0.0
 11
322.499985
 21
354.125
 31
0.0
 70
   160
  3
ISO-25
100
AcDbAlignedDimension
 13
344.999985
 23
330.35
 33
0.0
 14
299.999985
 24
225.5
 34
0.0
100
AcDbRotatedDimension
1001
ACAD
1000
DSTYLE
1002
{
1070
   270
1070
     2
1070
     6
1000
EX_NORM
1070
     7
1000
EX_NORM
1070
    41
1040
4.5
1070
    42
1040
2.25
1070
    44
1040
1.5
1070
    73
1070
     0
1070
    74
1070
     0
1070
    75
1070
     0
1070
    76
1070
     0
1070
    77
1070
     1
1070
    78
1070
     8
1070
   140
1040
5.19435623556582
1070
   147
1040
0.0
1070
   173
1070
     1
1070
   176
1070
     2
1070
   177
1070
     2
1070
   178
1070
     2
1070
   271
1070
     2
1070
   277
1070
     2
1070
   279
1070
     2
1070
   280
1070
     0
1070
   287
1070
     5
1070
   340
1005
1F4
1002
}
  0
DIMENSION
  5
237
330
1F
100
AcDbEntity
  8
Ｓ_１_１
  6
CONTINUOUS
 62
     2
100
AcDbDimension
  2
*D20
 10
185.0505082318755
 20
338.5415979493229
 30
0.0
 11
170.3099281305257
 21
347.5103510283655
 31
0.0
 70
   165
  3
ISO-25
100
AcDb3PointAngularDimension
 13
179.6174426816002
 23
263.1449448619626
 33
0.0
 14
120.0666810000002
 24
332.86711573657
 34
0.0
 15
120.0666810000002
 25
160.0000000000064
 35
0.0
1001
ACAD
1000
DSTYLE
1002
{
1070
   270
1070
     2
1070
     6
1000
EX_NORM
1070
     7
1000
EX_NORM
1070
    41
1040
4.5
1070
    42
1040
2.249999999999986
1070
    44
1040
1.500000000000025
1070
    73
1070
     0
1070
    74
1070
     0
1070
    75
1070
     0
1070
    76
1070
     0
1070
    77
1070
     1
1070
    78
1070
     8
1070
    79
1070
     2
1070
   140
1040
5.19435623556582
1070
   147
1040
0.0
1070
   173
1070
     1
1070
   176
1070
     2
1070
   177
1070
     2
1070
   178
1070
     2
1070
   179
1070
     2
1070
   271
1070
     2
1070
   277
1070
     2
1070
   279
1070
     2
1070
   280
1070
     0
1070
   287
1070
     5
1070
   340
1005
1F4
1002
}
  0
DIMENSION
  5
245
330
1F
100
AcDbEntity
  8
Ｓ_１_１
  6
CONTINUOUS
 62
     2
100
AcDbDimension
  2
*D21
 10
256.8524965089329
 20
213.7837777769847
 30
0.0
 11
207.6307953228901
 21
136.8370375147185
 31
0.0
 70
   160
  3
ISO-25
100
AcDbAlignedDimension
 13
86.26668260099001
 23
101.57218035707
 33
0.0
 14
177.566681
 24
259.59292143522
 34
0.0
 50
239.9818702195944
100
AcDbRotatedDimension
1001
ACAD
1000
DSTYLE
1002
{
1070
   270
1070
     2
1070
     6
1000
EX_NORM
1070
     7
1000
EX_NORM
1070
    41
1040
4.5
1070
    42
1040
2.249999999999984
1070
    44
1040
1.499999999999993
1070
    73
1070
     0
1070
    74
1070
     0
1070
    75
1070
     0
1070
    76
1070
     0
1070
    77
1070
     1
1070
    78
1070
     8
1070
   140
1040
5.19435623556582
1070
   147
1040
0.0
1070
   173
1070
     1
1070
   176
1070
     2
1070
   177
1070
     2
1070
   178
1070
     2
1070
   271
1070
     2
1070
   277
1070
     2
1070
   279
1070
     2
1070
   280
1070
     0
1070
   287
1070
     5
1070
   340
1005
1F4
1002
}
  0
LINE
  5
252
330
1F
100
AcDbEntity
  8
Ｓ_１_１
  6
CONTINUOUS
 62
     3
100
AcDbLine
 10
297.9999849999999
 20
119.9999999999998
 30
0.0
 11
299.9999849999999
 21
119.9999999999998
 31
0.0
  0
LINE
  5
253
330
1F
100
AcDbEntity
  8
Ｓ_１_１
  6
CONTINUOUS
 62
     3
100
AcDbLine
 10
298.0000049999999
 20
119.9999799999999
 30
0.0
 11
294.999996
 21
121.7320359999998
 31
0.0
  0
LINE
  5
254
330
1F
100
AcDbEntity
  8
Ｓ_１_１
  6
CONTINUOUS
 62
     3
100
AcDbLine
 10
289.999985
 20
125.9999999999988
 30
0.0
 11
290.999985
 21
124.9999999999988
 31
0.0
  0
LINE
  5
255
330
1F
100
AcDbEntity
  8
Ｓ_１_１
  6
CONTINUOUS
 62
     3
100
AcDbLine
 10
289.9999849999998
 20
193.9999999999998
 30
0.0
 11
289.9999849999998
 21
125.999999999999
 31
0.0
  0
LINE
  5
256
330
1F
100
AcDbEntity
  8
Ｓ_１_１
  6
EXLTYPE2
 62
     1
100
AcDbLine
 10
288.5519650954698
 20
150.000222320259
 30
0.0
 11
292.4519650954699
 21
150.000222320259
 31
0.0
  0
LINE
  5
257
330
1F
100
AcDbEntity
  8
Ｓ_１_１
  6
CONTINUOUS
 62
     3
100
AcDbLine
 10
290.9999849999988
 20
124.9999999999999
 30
0.0
 11
294.9999849999999
 21
124.9999999999999
 31
0.0
  0
LINE
  5
258
330
1F
100
AcDbEntity
  8
Ｓ_１_１
  6
CONTINUOUS
 62
     3
100
AcDbLine
 10
290.9999849999987
 20
194.9999999999997
 30
0.0
 11
294.9999849999998
 21
194.9999999999997
 31
0.0
  0
LINE
  5
259
330
1F
100
AcDbEntity
  8
Ｓ_１_１
  6
CONTINUOUS
 62
     3
100
AcDbLine
 10
289.9999849999999
 20
194.0000000000008
 30
0.0
 11
290.9999849999999
 21
195.0000000000009
 31
0.0
  0
LINE
  5
25A
330
1F
100
AcDbEntity
  8
Ｓ_１_１
  6
CONTINUOUS
 62
     3
100
AcDbLine
 10
298.0000049999998
 20
200.0000199999998
 30
0.0
 11
294.9999959999998
 21
198.2679639999999
 31
0.0
  0
LINE
  5
25B
330
1F
100
AcDbEntity
  8
Ｓ_１_１
  6
CONTINUOUS
 62
     3
100
AcDbLine
 10
297.9999849999997
 20
199.9999999999999
 30
0.0
 11
299.9999849999997
 21
199.9999999999999
 31
0.0
  0
LINE
  5
25C
330
1F
100
AcDbEntity
  8
Ｓ_１_１
  6
CONTINUOUS
 62
     3
100
AcDbLine
 10
290.999985
 20
124.9999999999999
 30
0.0
 11
290.999985
 21
195.0
 31
0.0
  0
LINE
  5
25D
330
1F
100
AcDbEntity
  8
Ｓ_１_１
  6
CONTINUOUS
 62
     3
100
AcDbLine
 10
294.9999849999999
 20
198.267964
 30
0.0
 11
294.9999849999999
 21
121.7320423508528
 31
0.0
  0
LINE
  5
25E
330
1F
100
AcDbEntity
  8
Ｓ_１_１
  6
CONTINUOUS
 62
     3
100
AcDbLine
 10
297.9999849999999
 20
200.0
 30
0.0
 11
297.9999849999999
 21
119.9999999999998
 31
0.0
  0
LINE
  5
25F
330
1F
100
AcDbEntity
  8
Ｓ_１_１
  6
EXLTYPE2
 62
     1
100
AcDbLine
 10
284.55
 20
159.9999999999998
 30
0.0
 11
474.5999850000001
 21
160.0000000000002
 31
0.0
  0
LINE
  5
260
330
1F
100
AcDbEntity
  8
Ｓ_１_１
  6
EXLTYPE2
 62
     1
100
AcDbLine
 10
288.5519650954698
 20
169.9997776797407
 30
0.0
 11
292.4519650954699
 21
169.9997776797407
 31
0.0
  0
DIMENSION
  5
261
330
1F
100
AcDbEntity
  8
Ｓ_１_１
  6
CONTINUOUS
 62
     2
100
AcDbDimension
  2
*D22
 10
470.0
 20
60.0
 30
0.0
 11
384.9999925
 21
63.75
 31
0.0
 70
   160
  3
ISO-25
100
AcDbAlignedDimension
 13
299.999985
 23
94.500029
 33
0.0
 14
470.0
 24
93.499982
 34
0.0
100
AcDbRotatedDimension
1001
ACAD
1000
DSTYLE
1002
{
1070
   270
1070
     2
1070
     6
1000
EX_NORM
1070
     7
1000
EX_NORM
1070
    41
1040
4.5
1070
    42
1040
2.25
1070
    44
1040
1.5
1070
    73
1070
     0
1070
    74
1070
     0
1070
    75
1070
     0
1070
    76
1070
     0
1070
    77
1070
     1
1070
    78
1070
     8
1070
   140
1040
4.617205542725173
1070
   147
1040
0.0
1070
   173
1070
     1
1070
   176
1070
     2
1070
   177
1070
     2
1070
   178
1070
     2
1070
   271
1070
     2
1070
   277
1070
     2
1070
   279
1070
     2
1070
   280
1070
     0
1070
   287
1070
     5
1070
   340
1005
1F4
1002
}
  0
DIMENSION
  5
26E
330
1F
100
AcDbEntity
  8
Ｓ_１_１
  6
CONTINUOUS
 62
     2
100
AcDbDimension
  2
*D23
 10
470.0
 20
49.99999999999999
 30
0.0
 11
379.9999925
 21
53.74999999999999
 31
0.0
 70
   160
  3
ISO-25
100
AcDbAlignedDimension
 13
289.999985
 23
126.0
 33
0.0
 14
470.0
 24
93.499982
 34
0.0
100
AcDbRotatedDimension
1001
ACAD
1000
DSTYLE
1002
{
1070
   270
1070
     2
1070
     6
1000
EX_NORM
1070
     7
1000
EX_NORM
1070
    41
1040
4.5
1070
    42
1040
2.25
1070
    44
1040
1.5
1070
    73
1070
     0
1070
    74
1070
     0
1070
    75
1070
     0
1070
    76
1070
     0
1070
    77
1070
     1
1070
    78
1070
     8
1070
   140
1040
4.617205542725173
1070
   147
1040
0.0
1070
   173
1070
     1
1070
   176
1070
     2
1070
   177
1070
     2
1070
   178
1070
     2
1070
   271
1070
     2
1070
   277
1070
     2
1070
   279
1070
     2
1070
   280
1070
     0
1070
   287
1070
     5
1070
   340
1005
1F4
1002
}
  0
DIMENSION
  5
27B
330
1F
100
AcDbEntity
  8
Ｓ_１_１
  6
CONTINUOUS
 62
     2
100
AcDbDimension
  2
*D24
 10
299.999985
 20
60.0
 30
0.0
 11
282.499985
 21
63.75
 31
0.0
 70
   160
  3
ISO-25
100
AcDbAlignedDimension
 13
289.999985
 23
126.0
 33
0.0
 14
299.999985
 24
94.500029
 34
0.0
100
AcDbRotatedDimension
1001
ACAD
1000
DSTYLE
1002
{
1070
   270
1070
     2
1070
     6
1000
EX_NORM
1070
     7
1000
EX_NORM
1070
    41
1040
4.5
1070
    42
1040
2.25
1070
    44
1040
1.5
1070
    73
1070
     0
1070
    74
1070
     0
1070
    75
1070
     0
1070
    76
1070
     0
1070
    77
1070
     1
1070
    78
1070
     8
1070
   140
1040
4.617205542725173
1070
   147
1040
0.0
1070
   173
1070
     1
1070
   176
1070
     2
1070
   177
1070
     2
1070
   178
1070
     2
1070
   271
1070
     2
1070
   277
1070
     2
1070
   279
1070
     2
1070
   280
1070
     1
1070
   287
1070
     5
1070
   340
1005
1F4
1002
}
  0
DIMENSION
  5
288
330
1F
100
AcDbEntity
  8
Ｓ_１_１
  6
CONTINUOUS
 62
     2
100
AcDbDimension
  2
*D25
 10
270.0
 20
125.0
 30
0.0
 11
266.25
 21
160.0
 31
0.0
 70
   160
  1
%%c<>
  3
ISO-25
100
AcDbAlignedDimension
 13
290.999985
 23
195.0
 33
0.0
 14
290.999985
 24
125.0
 34
0.0
 50
90.0
100
AcDbRotatedDimension
1001
ACAD
1000
DSTYLE
1002
{
1070
   270
1070
     2
1070
     6
1000
EX_NORM
1070
     7
1000
EX_NORM
1070
    41
1040
4.5
1070
    42
1040
2.25
1070
    44
1040
1.5
1070
    73
1070
     0
1070
    74
1070
     0
1070
    75
1070
     0
1070
    76
1070
     0
1070
    77
1070
     1
1070
    78
1070
     8
1070
   140
1040
4.617205542725173
1070
   147
1040
0.0
1070
   173
1070
     1
1070
   176
1070
     2
1070
   177
1070
     2
1070
   178
1070
     2
1070
   271
1070
     2
1070
   277
1070
     2
1070
   279
1070
     2
1070
   280
1070
     0
1070
   287
1070
     5
1070
   340
1005
1F4
1002
}
  0
LINE
  5
295
330
1F
100
AcDbEntity
  8
Ｓ_１_１
  6
CONTINUOUS
 62
     3
100
AcDbLine
 10
132.5666810000002
 20
269.1500000000072
 30
0.0
 11
132.5666810000002
 21
238.1500000000072
 31
0.0
  0
LINE
  5
296
330
1F
100
AcDbEntity
  8
Ｓ_１_１
  6
CONTINUOUS
 62
     3
100
AcDbLine
 10
107.5666810000002
 20
269.1500000000072
 30
0.0
 11
107.5666810000002
 21
238.1500000000072
 31
0.0
  0
LINE
  5
297
330
1F
100
AcDbEntity
  8
Ｓ_１_１
  6
EXLTYPE2
 62
     1
100
AcDbLine
 10
179.6174426816
 20
263.1449448619627
 30
0.0
 11
150.5666810000016
 21
212.8275496308593
 31
0.0
  0
LINE
  5
298
330
1F
100
AcDbEntity
  8
Ｓ_１_１
  6
EXLTYPE0
 62
     2
100
AcDbLine
 10
170.686227181369
 20
204.6756258422082
 30
0.0
 11
133.447134818636
 21
226.175625842214
 31
0.0
  0
CIRCLE
  5
299
330
1F
100
AcDbEntity
  8
Ｓ_１_１
  6
EXLTYPE0
 62
     2
100
AcDbCircle
 10
173.0666810000018
 20
251.7986928011595
 30
0.0
 40
8.000000000000796
  0
LINE
  5
29A
330
1F
100
AcDbEntity
  8
Ｓ_１_１
  6
EXLTYPE2
 62
     1
100
AcDbLine
 10
148.3762999432349
 20
239.0336983526033
 30
0.0
 11
137.176299943236
 21
219.6347293078335
 31
0.0
  0
LINE
  5
29B
330
1F
100
AcDbEntity
  8
Ｓ_１_１
  6
EXLTYPE2
 62
     1
100
AcDbLine
 10
174.3570620567683
 20
224.0336983526031
 30
0.0
 11
163.1570620567692
 21
204.6347293078334
 31
0.0
  0
LINE
  5
29C
330
1F
100
AcDbEntity
  8
Ｓ_１_１
  6
EXLTYPE2
 62
     1
100
AcDbLine
 10
176.7039876958966
 20
249.6986928011593
 30
0.0
 11
170.1221946271348
 21
253.4986928011594
 31
0.0
  0
LINE
  5
29D
330
1F
100
AcDbEntity
  8
Ｓ_１_１
  6
EXLTYPE2
 62
     1
100
AcDbLine
 10
120.3628182881903
 20
324.8000000000071
 30
0.0
 11
120.1604677222101
 21
324.8000000000071
 31
0.0
  0
LINE
  5
29E
330
1F
100
AcDbEntity
  8
Ｓ_１_１
  6
EXLTYPE2
 62
     1
100
AcDbLine
 10
119.9628182881902
 20
326.8001220703073
 30
0.0
 11
120.1605897925101
 21
326.8001220703073
 31
0.0
  0
LINE
  5
29F
330
1F
100
AcDbEntity
  8
Ｓ_１_１
  6
EXLTYPE2
 62
     1
100
AcDbLine
 10
120.0617040403501
 20
326.8001220703073
 30
0.0
 11
120.1605897925101
 21
326.8001220703073
 31
0.0
  0
LINE
  5
2A0
330
1F
100
AcDbEntity
  8
Ｓ_１_１
  6
EXLTYPE2
 62
     1
100
AcDbLine
 10
45.06676984749474
 20
159.9999999999998
 30
0.0
 11
195.0665921525055
 21
159.9999999999998
 31
0.0
  0
LINE
  5
2A1
330
1F
100
AcDbEntity
  8
Ｓ_１_１
  6
CONTINUOUS
 62
     3
100
AcDbLine
 10
150.1384777697253
 20
228.0858798800561
 30
0.0
 11
138.447134818636
 21
234.8358798800572
 31
0.0
  0
LINE
  5
2A2
330
1F
100
AcDbEntity
  8
Ｓ_１_１
  6
CONTINUOUS
 62
     3
100
AcDbLine
 10
163.9948842302792
 20
220.0858798800543
 30
0.0
 11
175.6862271813672
 21
213.3358798800569
 31
0.0
  0
LINE
  5
2A3
330
1F
100
AcDbEntity
  8
Ｓ_１_１
  6
CONTINUOUS
 62
     3
100
AcDbLine
 10
133.4471348186342
 20
226.1756258422108
 30
0.0
 11
138.447134818636
 21
234.8358798800572
 31
0.0
  0
LINE
  5
2A4
330
1F
100
AcDbEntity
  8
Ｓ_１_１
  6
CONTINUOUS
 62
     3
100
AcDbLine
 10
142.3801475205302
 20
240.6480577065493
 30
0.0
 11
152.7724523659426
 21
234.6480577065487
 31
0.0
  0
LINE
  5
2A5
330
1F
100
AcDbEntity
  8
Ｓ_１_１
  6
CONTINUOUS
 62
     3
100
AcDbLine
 10
143.7461729243141
 20
241.0140831103325
 30
0.0
 11
142.3801475205296
 21
240.6480577065482
 31
0.0
  0
LINE
  5
2A6
330
1F
100
AcDbEntity
  8
Ｓ_１_１
  6
CONTINUOUS
 62
     3
100
AcDbLine
 10
142.3801475205296
 20
240.6480577065482
 30
0.0
 11
138.8801475205277
 21
234.5858798800548
 31
0.0
  0
LINE
  5
2A7
330
1F
100
AcDbEntity
  8
Ｓ_１_１
  6
CONTINUOUS
 62
     3
100
AcDbLine
 10
143.7461729243141
 20
241.0140831103325
 30
0.0
 11
152.4064269621576
 21
236.014083110332
 31
0.0
  0
LINE
  5
2A8
330
1F
100
AcDbEntity
  8
Ｓ_１_１
  6
CONTINUOUS
 62
     3
100
AcDbLine
 10
152.4064269621576
 20
236.014083110332
 30
0.0
 11
152.7724523659419
 21
234.6480577065476
 31
0.0
  0
LINE
  5
2A9
330
1F
100
AcDbEntity
  8
Ｓ_１_１
  6
CONTINUOUS
 62
     3
100
AcDbLine
 10
152.7724523659419
 20
234.6480577065476
 30
0.0
 11
149.272452365941
 21
228.5858798800562
 31
0.0
  0
LINE
  5
2AA
330
1F
100
AcDbEntity
  8
Ｓ_１_１
  6
CONTINUOUS
 62
     3
100
AcDbLine
 10
170.6862271813665
 20
204.6756258422101
 30
0.0
 11
175.6862271813672
 21
213.3358798800569
 31
0.0
  0
LINE
  5
2AB
330
1F
100
AcDbEntity
  8
Ｓ_１_１
  6
CONTINUOUS
 62
     3
100
AcDbLine
 10
178.753214479475
 20
219.6480577065502
 30
0.0
 11
168.3609096340617
 21
225.6480577065492
 31
0.0
  0
LINE
  5
2AC
330
1F
100
AcDbEntity
  8
Ｓ_１_１
  6
CONTINUOUS
 62
     3
100
AcDbLine
 10
178.3871890756897
 20
221.0140831103336
 30
0.0
 11
178.7532144794743
 21
219.6480577065492
 31
0.0
  0
LINE
  5
2AD
330
1F
100
AcDbEntity
  8
Ｓ_１_１
  6
CONTINUOUS
 62
     3
100
AcDbLine
 10
178.7532144794743
 20
219.6480577065492
 30
0.0
 11
175.2532144794733
 21
213.5858798800553
 31
0.0
  0
LINE
  5
2AE
330
1F
100
AcDbEntity
  8
Ｓ_１_１
  6
CONTINUOUS
 62
     3
100
AcDbLine
 10
178.3871890756897
 20
221.0140831103336
 30
0.0
 11
169.7269350378454
 21
226.0140831103326
 31
0.0
  0
LINE
  5
2AF
330
1F
100
AcDbEntity
  8
Ｓ_１_１
  6
CONTINUOUS
 62
     3
100
AcDbLine
 10
169.7269350378454
 20
226.0140831103326
 30
0.0
 11
168.360909634061
 21
225.648057706548
 31
0.0
  0
LINE
  5
2B0
330
1F
100
AcDbEntity
  8
Ｓ_１_１
  6
CONTINUOUS
 62
     3
100
AcDbLine
 10
168.360909634061
 20
225.648057706548
 30
0.0
 11
164.8609096340611
 21
219.5858798800561
 31
0.0
  0
LINE
  5
2B1
330
1F
100
AcDbEntity
  8
Ｓ_１_１
  6
CONTINUOUS
 62
     3
100
AcDbLine
 10
171.504503173511
 20
263.0929214352203
 30
0.0
 11
170.1384777697266
 21
262.7268960314357
 31
0.0
  0
LINE
  5
2B2
330
1F
100
AcDbEntity
  8
Ｓ_１_１
  6
CONTINUOUS
 62
     3
100
AcDbLine
 10
170.1384777697266
 20
262.7268960314357
 30
0.0
 11
150.1384777697253
 21
228.0858798800559
 31
0.0
  0
LINE
  5
2B3
330
1F
100
AcDbEntity
  8
Ｓ_１_１
  6
CONTINUOUS
 62
     3
100
AcDbLine
 10
171.504503173511
 20
263.0929214352203
 30
0.0
 11
183.6288588264928
 21
256.0929214352205
 31
0.0
  0
LINE
  5
2B4
330
1F
100
AcDbEntity
  8
Ｓ_１_１
  6
CONTINUOUS
 62
     3
100
AcDbLine
 10
183.9948842302773
 20
254.726896031436
 30
0.0
 11
183.6288588264928
 21
256.0929214352205
 31
0.0
  0
LINE
  5
2B5
330
1F
100
AcDbEntity
  8
Ｓ_１_１
  6
CONTINUOUS
 62
     3
100
AcDbLine
 10
183.9948842302773
 20
254.726896031436
 30
0.0
 11
163.9948842302787
 21
220.0858798800545
 31
0.0
  0
CIRCLE
  5
2B6
330
1F
100
AcDbEntity
  8
Ｓ_１_１
  6
CONTINUOUS
 62
     3
100
AcDbCircle
 10
173.0666810000017
 20
251.798692801159
 30
0.0
 40
5.0
  0
CIRCLE
  5
2B7
330
1F
100
AcDbEntity
  8
Ｓ_１_１
  6
CONTINUOUS
 62
     3
100
AcDbCircle
 10
120.0666810000004
 20
159.9999999999999
 30
0.0
 40
66.42005920022504
  0
CIRCLE
  5
2B8
330
1F
100
AcDbEntity
  8
Ｓ_１_１
  6
CONTINUOUS
 62
     3
100
AcDbCircle
 10
120.0666810000004
 20
159.9999999999999
 30
0.0
 40
67.49999999999994
  0
LINE
  5
2B9
330
1F
100
AcDbEntity
  8
Ｓ_１_１
  6
CONTINUOUS
 62
     3
100
AcDbLine
 10
128.381943012729
 20
226.9963844073746
 30
0.0
 11
128.6992434999986
 21
237.1500000000072
 31
0.0
  0
LINE
  5
2BA
330
1F
100
AcDbEntity
  8
Ｓ_１_１
  6
CONTINUOUS
 62
     3
100
AcDbLine
 10
127.5289921219589
 20
227.0939559027318
 30
0.0
 11
127.7182434999988
 21
233.1500000000074
 31
0.0
  0
LINE
  5
2BB
330
1F
100
AcDbEntity
  8
Ｓ_１_１
  6
CONTINUOUS
 62
     3
100
AcDbLine
 10
112.6039245296
 20
227.1082070527984
 30
0.0
 11
112.4151184999996
 21
233.1500000000074
 31
0.0
  0
LINE
  5
2BC
330
1F
100
AcDbEntity
  8
Ｓ_１_１
  6
CONTINUOUS
 62
     3
100
AcDbLine
 10
111.7509222363723
 20
227.0122804360894
 30
0.0
 11
111.4341184999996
 21
237.1500000000072
 31
0.0
  0
LINE
  5
2BD
330
1F
100
AcDbEntity
  8
Ｓ_１_１
  6
CONTINUOUS
 62
     3
100
AcDbLine
 10
128.3976809999988
 20
279.8000000000071
 30
0.0
 11
128.6992434999986
 21
270.1500000000073
 31
0.0
  0
LINE
  5
2BE
330
1F
100
AcDbEntity
  8
Ｓ_１_１
  6
CONTINUOUS
 62
     3
100
AcDbLine
 10
127.5416809999988
 20
279.8000000000071
 30
0.0
 11
127.7182434999988
 21
274.150000000007
 31
0.0
  0
LINE
  5
2BF
330
1F
100
AcDbEntity
  8
Ｓ_１_１
  6
CONTINUOUS
 62
     3
100
AcDbLine
 10
112.5916809999996
 20
279.8000000000071
 30
0.0
 11
112.4151184999996
 21
274.150000000007
 31
0.0
  0
LINE
  5
2C0
330
1F
100
AcDbEntity
  8
Ｓ_１_１
  6
CONTINUOUS
 62
     3
100
AcDbLine
 10
111.7356809999996
 20
279.8000000000071
 30
0.0
 11
111.4341184999996
 21
270.1500000000073
 31
0.0
  0
LINE
  5
2C1
330
1F
100
AcDbEntity
  8
Ｓ_１_１
  6
CONTINUOUS
 62
     3
100
AcDbLine
 10
112.4151184999996
 20
274.150000000007
 30
0.0
 11
127.7182434999988
 21
274.150000000007
 31
0.0
  0
LINE
  5
2C2
330
1F
100
AcDbEntity
  8
Ｓ_１_１
  6
CONTINUOUS
 62
     3
100
AcDbLine
 10
128.6232271784702
 20
272.5825222888673
 30
0.0
 11
127.7182435
 21
274.1500000000072
 31
0.0
  0
LINE
  5
2C3
330
1F
100
AcDbEntity
  8
Ｓ_１_１
  6
CONTINUOUS
 62
     3
100
AcDbLine
 10
111.5101348215301
 20
272.5825222888673
 30
0.0
 11
128.6232271784718
 21
272.5825222888673
 31
0.0
  0
LINE
  5
2C4
330
1F
100
AcDbEntity
  8
Ｓ_１_１
  6
CONTINUOUS
 62
     3
100
AcDbLine
 10
112.4151185
 20
274.1500000000072
 30
0.0
 11
111.5101348215266
 21
272.5825222888705
 31
0.0
  0
LINE
  5
2C5
330
1F
100
AcDbEntity
  8
Ｓ_１_１
  6
CONTINUOUS
 62
     3
100
AcDbLine
 10
112.4151184999996
 20
233.1500000000074
 30
0.0
 11
127.7182434999988
 21
233.1500000000074
 31
0.0
  0
LINE
  5
2C6
330
1F
100
AcDbEntity
  8
Ｓ_１_１
  6
CONTINUOUS
 62
     3
100
AcDbLine
 10
128.6232271784702
 20
234.7174777111472
 30
0.0
 11
127.7182435
 21
233.1500000000072
 31
0.0
  0
LINE
  5
2C7
330
1F
100
AcDbEntity
  8
Ｓ_１_１
  6
CONTINUOUS
 62
     3
100
AcDbLine
 10
111.5101348215301
 20
234.7174777111472
 30
0.0
 11
128.6232271784718
 21
234.7174777111472
 31
0.0
  0
LINE
  5
2C8
330
1F
100
AcDbEntity
  8
Ｓ_１_１
  6
CONTINUOUS
 62
     3
100
AcDbLine
 10
112.4151185
 20
233.1500000000072
 30
0.0
 11
111.5101348215266
 21
234.717477711144
 31
0.0
  0
ARC
  5
2C9
330
1F
100
AcDbEntity
  8
Ｓ_１_１
  6
CONTINUOUS
 62
     3
100
AcDbCircle
 10
109.7682558081096
 20
280.6660888672073
 30
0.0
 40
6.1339254379
100
AcDbArc
 50
55.61541136450016
 51
124.3845631360001
  0
ARC
  5
2CA
330
1F
100
AcDbEntity
  8
Ｓ_１_１
  6
CONTINUOUS
 62
     3
100
AcDbCircle
 10
120.1605897925101
 20
263.8721435547073
 30
0.0
 40
22.9279384613
100
AcDbArc
 50
72.41183691100024
 51
107.5881444197001
  0
ARC
  5
2CB
330
1F
100
AcDbEntity
  8
Ｓ_１_１
  6
CONTINUOUS
 62
     3
100
AcDbCircle
 10
130.5526796362101
 20
285.9340332032075
 30
0.0
 40
6.1339254379
100
AcDbArc
 50
235.6154402791002
 51
304.3846022959
  0
ARC
  5
2CC
330
1F
100
AcDbEntity
  8
Ｓ_１_１
  6
CONTINUOUS
 62
     3
100
AcDbCircle
 10
124.6603456519106
 20
323.8001220703073
 30
0.0
 40
1.0
100
AcDbArc
 50
0.0000223118001692
 51
90.00002481630007
  0
ARC
  5
2CD
330
1F
100
AcDbEntity
  8
Ｓ_１_１
  6
CONTINUOUS
 62
     3
100
AcDbCircle
 10
130.5526796362101
 20
280.6660888672073
 30
0.0
 40
6.1339254379
100
AcDbArc
 50
55.61547966640025
 51
124.3846314378002
  0
ARC
  5
2CE
330
1F
100
AcDbEntity
  8
Ｓ_１_１
  6
CONTINUOUS
 62
     3
100
AcDbCircle
 10
120.1605897925101
 20
302.7279785157075
 30
0.0
 40
22.92794227600001
100
AcDbArc
 50
252.4118829011
 51
287.5881767494
  0
ARC
  5
2CF
330
1F
100
AcDbEntity
  8
Ｓ_１_１
  6
CONTINUOUS
 62
     3
100
AcDbCircle
 10
109.7682558081096
 20
285.9340332032075
 30
0.0
 40
6.1339254379
100
AcDbArc
 50
235.6154266188
 51
304.3845886355002
  0
ARC
  5
2D0
330
1F
100
AcDbEntity
  8
Ｓ_１_１
  6
CONTINUOUS
 62
     3
100
AcDbCircle
 10
115.6605897925101
 20
323.8001220703073
 30
0.0
 40
1.0
100
AcDbArc
 50
90.00002481630007
 51
180.0000025045
  0
LINE
  5
2D1
330
1F
100
AcDbEntity
  8
Ｓ_１_１
  6
CONTINUOUS
 62
     3
100
AcDbLine
 10
132.1603456519106
 20
279.8000000000071
 30
0.0
 11
108.1605897925101
 21
279.8000000000071
 31
0.0
  0
LINE
  5
2D2
330
1F
100
AcDbEntity
  8
Ｓ_１_１
  6
CONTINUOUS
 62
     3
100
AcDbLine
 10
125.6605897925101
 20
323.8001220703073
 30
0.0
 11
125.6605897925101
 21
314.8000000000071
 31
0.0
  0
LINE
  5
2D3
330
1F
100
AcDbEntity
  8
Ｓ_１_１
  6
CONTINUOUS
 62
     3
100
AcDbLine
 10
125.6605897925101
 20
314.8000000000071
 30
0.0
 11
114.6603456519105
 21
314.8000000000071
 31
0.0
  0
LINE
  5
2D4
330
1F
100
AcDbEntity
  8
Ｓ_１_１
  6
CONTINUOUS
 62
     3
100
AcDbLine
 10
129.1605897925101
 20
311.3001220703073
 30
0.0
 11
129.1605897925101
 21
309.3001220703073
 31
0.0
  0
LINE
  5
2D5
330
1F
100
AcDbEntity
  8
Ｓ_１_１
  6
CONTINUOUS
 62
     3
100
AcDbLine
 10
111.1605897925101
 20
311.3001220703073
 30
0.0
 11
111.1605897925101
 21
309.3001220703073
 31
0.0
  0
LINE
  5
2D6
330
1F
100
AcDbEntity
  8
Ｓ_１_１
  6
CONTINUOUS
 62
     3
100
AcDbLine
 10
131.4105897925101
 20
295.8001220703073
 30
0.0
 11
108.9105897925101
 21
295.8001220703073
 31
0.0
  0
LINE
  5
2D7
330
1F
100
AcDbEntity
  8
Ｓ_１_１
  6
CONTINUOUS
 62
     3
100
AcDbLine
 10
108.4103456519106
 20
295.3000000000071
 30
0.0
 11
108.4103456519106
 21
286.8001220703073
 31
0.0
  0
LINE
  5
2D8
330
1F
100
AcDbEntity
  8
Ｓ_１_１
  6
CONTINUOUS
 62
     3
100
AcDbLine
 10
131.9105897925101
 20
295.3000000000071
 30
0.0
 11
131.9105897925101
 21
286.8001220703073
 31
0.0
  0
LINE
  5
2D9
330
1F
100
AcDbEntity
  8
Ｓ_１_１
  6
CONTINUOUS
 62
     3
100
AcDbLine
 10
134.0171014125108
 20
280.8718879838075
 30
0.0
 11
132.1607286321096
 21
279.8001106401076
 31
0.0
  0
LINE
  5
2DA
330
1F
100
AcDbEntity
  8
Ｓ_１_１
  6
CONTINUOUS
 62
     3
100
AcDbLine
 10
108.1607004493098
 20
286.8000430828075
 30
0.0
 11
106.3043276688104
 21
285.7282657391075
 31
0.0
  0
LINE
  5
2DB
330
1F
100
AcDbEntity
  8
Ｓ_１_１
  6
CONTINUOUS
 62
     3
100
AcDbLine
 10
108.1606131178096
 20
279.8001249345076
 30
0.0
 11
106.3042403373101
 21
280.8719022783076
 31
0.0
  0
LINE
  5
2DC
330
1F
100
AcDbEntity
  8
Ｓ_１_１
  6
CONTINUOUS
 62
     3
100
AcDbLine
 10
134.0170751162104
 20
285.7283857495073
 30
0.0
 11
132.1607023357101
 21
286.8001630933073
 31
0.0
  0
LINE
  5
2DD
330
1F
100
AcDbEntity
  8
Ｓ_１_１
  6
CONTINUOUS
 62
     3
100
AcDbLine
 10
106.3041444800101
 20
285.7283447266073
 30
0.0
 11
106.3041444800101
 21
280.8718994141073
 31
0.0
  0
LINE
  5
2DE
330
1F
100
AcDbEntity
  8
Ｓ_１_１
  6
CONTINUOUS
 62
     3
100
AcDbLine
 10
113.2321229956096
 20
285.7283447266073
 30
0.0
 11
113.2321229956096
 21
280.8718994141073
 31
0.0
  0
LINE
  5
2DF
330
1F
100
AcDbEntity
  8
Ｓ_１_１
  6
CONTINUOUS
 62
     3
100
AcDbLine
 10
127.0885683081096
 20
285.7283447266073
 30
0.0
 11
127.0885683081096
 21
280.8718994141073
 31
0.0
  0
LINE
  5
2E0
330
1F
100
AcDbEntity
  8
Ｓ_１_１
  6
CONTINUOUS
 62
     3
100
AcDbLine
 10
134.0170351050101
 20
285.7283447266073
 30
0.0
 11
134.0170351050101
 21
280.8717773438071
 31
0.0
  0
LINE
  5
2E1
330
1F
100
AcDbEntity
  8
Ｓ_１_１
  6
CONTINUOUS
 62
     3
100
AcDbLine
 10
132.1603456519106
 20
286.8001220703073
 30
0.0
 11
108.1605897925101
 21
286.8001220703073
 31
0.0
  0
LINE
  5
2E2
330
1F
100
AcDbEntity
  8
Ｓ_１_１
  6
CONTINUOUS
 62
     3
100
AcDbLine
 10
124.6603456519106
 20
324.8000000000071
 30
0.0
 11
115.6605897925101
 21
324.8000000000071
 31
0.0
  0
LINE
  5
2E3
330
1F
100
AcDbEntity
  8
Ｓ_１_１
  6
CONTINUOUS
 62
     3
100
AcDbLine
 10
118.6608391417103
 20
326.8003327729071
 30
0.0
 11
116.6608801769098
 21
324.8003738081075
 31
0.0
  0
LINE
  5
2E4
330
1F
100
AcDbEntity
  8
Ｓ_１_１
  6
CONTINUOUS
 62
     3
100
AcDbLine
 10
123.6607365537102
 20
324.8001148579074
 30
0.0
 11
121.66069127221
 21
326.8001601394076
 31
0.0
  0
LINE
  5
2E5
330
1F
100
AcDbEntity
  8
Ｓ_１_１
  6
CONTINUOUS
 62
     3
100
AcDbLine
 10
127.6605897925101
 20
306.3001220703073
 30
0.0
 11
112.6605897925101
 21
306.3001220703073
 31
0.0
  0
LINE
  5
2E6
330
1F
100
AcDbEntity
  8
Ｓ_１_１
  6
CONTINUOUS
 62
     3
100
AcDbLine
 10
127.6605897925101
 20
307.8000000000071
 30
0.0
 11
112.6605897925101
 21
307.8000000000071
 31
0.0
  0
LINE
  5
2E7
330
1F
100
AcDbEntity
  8
Ｓ_１_１
  6
CONTINUOUS
 62
     3
100
AcDbLine
 10
129.1605897925101
 20
311.3001220703073
 30
0.0
 11
111.1605897925101
 21
311.3001220703073
 31
0.0
  0
LINE
  5
2E8
330
1F
100
AcDbEntity
  8
Ｓ_１_１
  6
CONTINUOUS
 62
     3
100
AcDbLine
 10
111.1605897925101
 20
304.8000000000071
 30
0.0
 11
111.1605897925101
 21
295.8001220703073
 31
0.0
  0
LINE
  5
2E9
330
1F
100
AcDbEntity
  8
Ｓ_１_１
  6
CONTINUOUS
 62
     3
100
AcDbLine
 10
129.1605897925101
 20
304.8000000000071
 30
0.0
 11
129.1605897925101
 21
295.8001220703073
 31
0.0
  0
LINE
  5
2EA
330
1F
100
AcDbEntity
  8
Ｓ_１_１
  6
CONTINUOUS
 62
     3
100
AcDbLine
 10
129.1606358447107
 20
309.3001326708073
 30
0.0
 11
127.66062333631
 21
307.8001202888072
 31
0.0
  0
LINE
  5
2EB
330
1F
100
AcDbEntity
  8
Ｓ_１_１
  6
CONTINUOUS
 62
     3
100
AcDbLine
 10
112.6606144493098
 20
307.800172927507
 30
0.0
 11
111.16060194091
 21
309.3001853095071
 31
0.0
  0
LINE
  5
2EC
330
1F
100
AcDbEntity
  8
Ｓ_１_１
  6
CONTINUOUS
 62
     3
100
AcDbLine
 10
129.1605897925101
 20
309.3001220703073
 30
0.0
 11
111.1605897925101
 21
309.3001220703073
 31
0.0
  0
LINE
  5
2ED
330
1F
100
AcDbEntity
  8
Ｓ_１_１
  6
CONTINUOUS
 62
     3
100
AcDbLine
 10
129.1605788394099
 20
304.8001487326074
 30
0.0
 11
127.6605663310101
 21
306.300161114607
 31
0.0
  0
LINE
  5
2EE
330
1F
100
AcDbEntity
  8
Ｓ_１_１
  6
CONTINUOUS
 62
     3
100
AcDbLine
 10
112.6607577714103
 20
306.3000221591074
 30
0.0
 11
111.1607452629096
 21
304.8000097771074
 31
0.0
  0
LINE
  5
2EF
330
1F
100
AcDbEntity
  8
Ｓ_１_１
  6
CONTINUOUS
 62
     3
100
AcDbLine
 10
131.9105897925101
 20
295.3000000000071
 30
0.0
 11
108.4103456519106
 21
295.3000000000071
 31
0.0
  0
LINE
  5
2F0
330
1F
100
AcDbEntity
  8
Ｓ_１_１
  6
CONTINUOUS
 62
     3
100
AcDbLine
 10
129.1605897925101
 20
304.8000000000071
 30
0.0
 11
111.1605897925101
 21
304.8000000000071
 31
0.0
  0
LINE
  5
2F1
330
1F
100
AcDbEntity
  8
Ｓ_１_１
  6
CONTINUOUS
 62
     3
100
AcDbLine
 10
127.6605897925101
 20
307.8000000000071
 30
0.0
 11
127.6605897925101
 21
306.3001220703073
 31
0.0
  0
LINE
  5
2F2
330
1F
100
AcDbEntity
  8
Ｓ_１_１
  6
CONTINUOUS
 62
     3
100
AcDbLine
 10
112.6605897925101
 20
307.8000000000071
 30
0.0
 11
112.6605897925101
 21
306.3001220703073
 31
0.0
  0
LINE
  5
2F3
330
1F
100
AcDbEntity
  8
Ｓ_１_１
  6
CONTINUOUS
 62
     3
100
AcDbLine
 10
108.9108449756104
 20
295.8001919677072
 30
0.0
 11
108.4108983928099
 21
295.3002453849072
 31
0.0
  0
LINE
  5
2F4
330
1F
100
AcDbEntity
  8
Ｓ_１_１
  6
CONTINUOUS
 62
     3
100
AcDbLine
 10
131.91065252321
 20
295.3000844327076
 30
0.0
 11
131.4106253138098
 21
295.8001230646074
 31
0.0
  0
LINE
  5
2F5
330
1F
100
AcDbEntity
  8
Ｓ_１_１
  6
CONTINUOUS
 62
     3
100
AcDbLine
 10
129.1605785655101
 20
311.3001451173073
 30
0.0
 11
125.6606932404102
 21
314.8000301473072
 31
0.0
  0
LINE
  5
2F6
330
1F
100
AcDbEntity
  8
Ｓ_１_１
  6
CONTINUOUS
 62
     3
100
AcDbLine
 10
114.6608034955106
 20
314.800236458807
 30
0.0
 11
111.1608318537101
 21
311.3002651120074
 31
0.0
  0
LINE
  5
2F7
330
1F
100
AcDbEntity
  8
Ｓ_１_１
  6
CONTINUOUS
 62
     3
100
AcDbLine
 10
114.6603456519105
 20
323.8001220703073
 30
0.0
 11
114.6603456519105
 21
314.8000000000071
 31
0.0
  0
LINE
  5
2F8
330
1F
100
AcDbEntity
  8
Ｓ_１_１
  6
CONTINUOUS
 62
     3
100
AcDbLine
 10
121.6605897925101
 20
326.8001220703073
 30
0.0
 11
118.6605897925101
 21
326.8001220703073
 31
0.0
  0
LINE
  5
2F9
330
1F
100
AcDbEntity
  8
Ｓ_１_１
  6
CONTINUOUS
 62
     3
100
AcDbLine
 10
120.0666810000002
 20
270.1500000000072
 30
0.0
 11
131.5666810000002
 21
270.1500000000072
 31
0.0
  0
LINE
  5
2FA
330
1F
100
AcDbEntity
  8
Ｓ_１_１
  6
CONTINUOUS
 62
     3
100
AcDbLine
 10
108.5666810000002
 20
270.1500000000072
 30
0.0
 11
120.0666810000002
 21
270.1500000000072
 31
0.0
  0
LINE
  5
2FB
330
1F
100
AcDbEntity
  8
Ｓ_１_１
  6
CONTINUOUS
 62
     3
100
AcDbLine
 10
131.5666798018001
 20
237.1499997057072
 30
0.0
 11
132.5666808634001
 21
238.1500008516073
 31
0.0
  0
LINE
  5
2FC
330
1F
100
AcDbEntity
  8
Ｓ_１_１
  6
CONTINUOUS
 62
     3
100
AcDbLine
 10
107.5666810000002
 20
269.1500000000072
 30
0.0
 11
132.5666810000002
 21
269.1500000000072
 31
0.0
  0
LINE
  5
2FD
330
1F
100
AcDbEntity
  8
Ｓ_１_１
  6
CONTINUOUS
 62
     3
100
AcDbLine
 10
107.5666787266002
 20
269.1499982311073
 30
0.0
 11
108.5666798725001
 21
270.1499992927073
 31
0.0
  0
LINE
  5
2FE
330
1F
100
AcDbEntity
  8
Ｓ_１_１
  6
CONTINUOUS
 62
     3
100
AcDbLine
 10
108.5666810000002
 20
237.1500000000072
 30
0.0
 11
120.0666810000002
 21
237.1500000000072
 31
0.0
  0
LINE
  5
2FF
330
1F
100
AcDbEntity
  8
Ｓ_１_１
  6
CONTINUOUS
 62
     3
100
AcDbLine
 10
120.0666810000002
 20
237.1500000000072
 30
0.0
 11
131.5666810000002
 21
237.1500000000072
 31
0.0
  0
LINE
  5
300
330
1F
100
AcDbEntity
  8
Ｓ_１_１
  6
CONTINUOUS
 62
     3
100
AcDbLine
 10
108.5666784817001
 20
237.1500006330073
 30
0.0
 11
107.5666801175002
 21
238.1499990815074
 31
0.0
  0
LINE
  5
301
330
1F
100
AcDbEntity
  8
Ｓ_１_１
  6
CONTINUOUS
 62
     3
100
AcDbLine
 10
107.5666810000002
 20
238.1500000000072
 30
0.0
 11
132.5666810000002
 21
238.1500000000072
 31
0.0
  0
LINE
  5
302
330
1F
100
AcDbEntity
  8
Ｓ_１_１
  6
CONTINUOUS
 62
     3
100
AcDbLine
 10
132.5666795568002
 20
269.1499973039072
 30
0.0
 11
131.5666784109001
 21
270.1499983655072
 31
0.0
  0
LINE
  5
303
330
1F
100
AcDbEntity
  8
Ｓ_１_１
  6
EXLTYPE2
 62
     1
100
AcDbLine
 10
120.0666810000002
 20
332.8671157365699
 30
0.0
 11
120.0666810000002
 21
84.88455686975993
 31
0.0
  0
CIRCLE
  5
304
330
1F
100
AcDbEntity
  8
Ｓ_１_１
  6
CONTINUOUS
 62
     3
100
AcDbCircle
 10
120.0000000000002
 20
159.9999999999998
 30
0.0
 40
56.00000000000004
  0
CIRCLE
  5
305
330
1F
100
AcDbEntity
  8
Ｓ_１_１
  6
CONTINUOUS
 62
     3
100
AcDbCircle
 10
120.0000000000002
 20
159.9999999999998
 30
0.0
 40
57.50000000000004
  0
CIRCLE
  5
306
330
1F
100
AcDbEntity
  8
Ｓ_１_１
  6
CONTINUOUS
 62
     3
100
AcDbCircle
 10
120.0666809999998
 20
184.9999999999999
 30
0.0
 40
4.400000000000034
  0
CIRCLE
  5
307
330
1F
100
AcDbEntity
  8
Ｓ_１_１
  6
CONTINUOUS
 62
     3
100
AcDbCircle
 10
120.0666809999998
 20
184.9999999999999
 30
0.0
 40
5.0
  0
CIRCLE
  5
308
330
1F
100
AcDbEntity
  8
Ｓ_１_１
  6
CONTINUOUS
 62
     3
100
AcDbCircle
 10
120.0666809999998
 20
184.9999999999999
 30
0.0
 40
5.499999999999916
  0
CIRCLE
  5
309
330
1F
100
AcDbEntity
  8
Ｓ_１_１
  6
CONTINUOUS
 62
     3
100
AcDbCircle
 10
95.06668099999983
 20
160.0000000000099
 30
0.0
 40
4.400000000000034
  0
CIRCLE
  5
30A
330
1F
100
AcDbEntity
  8
Ｓ_１_１
  6
CONTINUOUS
 62
     3
100
AcDbCircle
 10
95.06668099999983
 20
160.0000000000099
 30
0.0
 40
5.0
  0
CIRCLE
  5
30B
330
1F
100
AcDbEntity
  8
Ｓ_１_１
  6
CONTINUOUS
 62
     3
100
AcDbCircle
 10
95.06668099999983
 20
160.0000000000099
 30
0.0
 40
5.499999999999916
  0
POLYLINE
  5
30C
330
1F
100
AcDbEntity
  8
Ｓ_１_１
  6
CONTINUOUS
 62
     3
100
AcDb2dPolyline
 66
     1
 10
0.0
 20
0.0
 30
0.0
 70
   128
  0
VERTEX
  5
30D
330
30C
100
AcDbEntity
  8
Ｓ_１_１
  6
CONTINUOUS
 62
     3
100
AcDbVertex
100
AcDb2dVertex
 10
92.17992965405169
 20
160.0000000000099
 30
0.0
  0
VERTEX
  5
30E
330
30C
100
AcDbEntity
  8
Ｓ_１_１
  6
CONTINUOUS
 62
     3
100
AcDbVertex
100
AcDb2dVertex
 10
93.62330532702576
 20
157.5000000000099
 30
0.0
  0
VERTEX
  5
30F
330
30C
100
AcDbEntity
  8
Ｓ_１_１
  6
CONTINUOUS
 62
     3
100
AcDbVertex
100
AcDb2dVertex
 10
96.5100566729739
 20
157.5000000000099
 30
0.0
  0
VERTEX
  5
310
330
30C
100
AcDbEntity
  8
Ｓ_１_１
  6
CONTINUOUS
 62
     3
100
AcDbVertex
100
AcDb2dVertex
 10
97.95343234594796
 20
160.0000000000099
 30
0.0
  0
VERTEX
  5
311
330
30C
100
AcDbEntity
  8
Ｓ_１_１
  6
CONTINUOUS
 62
     3
100
AcDbVertex
100
AcDb2dVertex
 10
96.5100566729739
 20
162.5000000000099
 30
0.0
  0
VERTEX
  5
312
330
30C
100
AcDbEntity
  8
Ｓ_１_１
  6
CONTINUOUS
 62
     3
100
AcDbVertex
100
AcDb2dVertex
 10
93.62330532702576
 20
162.5000000000099
 30
0.0
  0
VERTEX
  5
313
330
30C
100
AcDbEntity
  8
Ｓ_１_１
  6
CONTINUOUS
 62
     3
100
AcDbVertex
100
AcDb2dVertex
 10
92.17992965405169
 20
160.0000000000099
 30
0.0
  0
SEQEND
  5
314
330
30C
100
AcDbEntity
  8
Ｓ_１_１
  6
CONTINUOUS
 62
     3
  0
CIRCLE
  5
315
330
1F
100
AcDbEntity
  8
Ｓ_１_１
  6
CONTINUOUS
 62
     3
100
AcDbCircle
 10
120.0666809999899
 20
134.9999999999999
 30
0.0
 40
4.400000000000034
  0
CIRCLE
  5
316
330
1F
100
AcDbEntity
  8
Ｓ_１_１
  6
CONTINUOUS
 62
     3
100
AcDbCircle
 10
120.0666809999899
 20
134.9999999999999
 30
0.0
 40
5.0
  0
CIRCLE
  5
317
330
1F
100
AcDbEntity
  8
Ｓ_１_１
  6
CONTINUOUS
 62
     3
100
AcDbCircle
 10
120.0666809999899
 20
134.9999999999999
 30
0.0
 40
5.499999999999916
  0
POLYLINE
  5
318
330
1F
100
AcDbEntity
  8
Ｓ_１_１
  6
CONTINUOUS
 62
     3
100
AcDb2dPolyline
 66
     1
 10
0.0
 20
0.0
 30
0.0
 70
   128
  0
VERTEX
  5
319
330
318
100
AcDbEntity
  8
Ｓ_１_１
  6
CONTINUOUS
 62
     3
100
AcDbVertex
100
AcDb2dVertex
 10
120.0666809999899
 20
132.1132486540518
 30
0.0
  0
VERTEX
  5
31A
330
318
100
AcDbEntity
  8
Ｓ_１_１
  6
CONTINUOUS
 62
     3
100
AcDbVertex
100
AcDb2dVertex
 10
122.5666809999899
 20
133.5566243270259
 30
0.0
  0
VERTEX
  5
31B
330
318
100
AcDbEntity
  8
Ｓ_１_１
  6
CONTINUOUS
 62
     3
100
AcDbVertex
100
AcDb2dVertex
 10
122.5666809999899
 20
136.443375672974
 30
0.0
  0
VERTEX
  5
31C
330
318
100
AcDbEntity
  8
Ｓ_１_１
  6
CONTINUOUS
 62
     3
100
AcDbVertex
100
AcDb2dVertex
 10
120.0666809999899
 20
137.8867513459481
 30
0.0
  0
VERTEX
  5
31D
330
318
100
AcDbEntity
  8
Ｓ_１_１
  6
CONTINUOUS
 62
     3
100
AcDbVertex
100
AcDb2dVertex
 10
117.5666809999899
 20
136.443375672974
 30
0.0
  0
VERTEX
  5
31E
330
318
100
AcDbEntity
  8
Ｓ_１_１
  6
CONTINUOUS
 62
     3
100
AcDbVertex
100
AcDb2dVertex
 10
117.5666809999899
 20
133.5566243270259
 30
0.0
  0
VERTEX
  5
31F
330
318
100
AcDbEntity
  8
Ｓ_１_１
  6
CONTINUOUS
 62
     3
100
AcDbVertex
100
AcDb2dVertex
 10
120.0666809999899
 20
132.1132486540518
 30
0.0
  0
SEQEND
  5
320
330
318
100
AcDbEntity
  8
Ｓ_１_１
  6
CONTINUOUS
 62
     3
  0
CIRCLE
  5
321
330
1F
100
AcDbEntity
  8
Ｓ_１_１
  6
CONTINUOUS
 62
     3
100
AcDbCircle
 10
120.0666809999998
 20
159.9999999999999
 30
0.0
 40
35.0
  0
CIRCLE
  5
322
330
1F
100
AcDbEntity
  8
Ｓ_１_１
  6
CONTINUOUS
 62
     3
100
AcDbCircle
 10
120.0666809999998
 20
159.9999999999999
 30
0.0
 40
34.0
  0
CIRCLE
  5
323
330
1F
100
AcDbEntity
  8
Ｓ_１_１
  6
CONTINUOUS
 62
     3
100
AcDbCircle
 10
120.0666809999999
 20
159.9999999999999
 30
0.0
 40
8.999777679739054
  0
CIRCLE
  5
324
330
1F
100
AcDbEntity
  8
Ｓ_１_１
  6
CONTINUOUS
 62
     3
100
AcDbCircle
 10
120.0666809999999
 20
159.9999999999999
 30
0.0
 40
10.99977767973905
  0
ARC
  5
325
330
1F
100
AcDbEntity
  8
Ｓ_１_１
  6
CONTINUOUS
 62
     3
100
AcDbCircle
 10
120.0666809999999
 20
159.9999999999999
 30
0.0
 40
26.0
100
AcDbArc
 50
102.1771756740215
 51
167.8228243259572
  0
ARC
  5
326
330
1F
100
AcDbEntity
  8
Ｓ_１_１
  6
CONTINUOUS
 62
     3
100
AcDbCircle
 10
120.0666809999999
 20
159.9999999999999
 30
0.0
 40
24.0
100
AcDbArc
 50
102.6764040040261
 51
167.3235959959509
  0
ARC
  5
327
330
1F
100
AcDbEntity
  8
Ｓ_１_１
  6
CONTINUOUS
 62
     3
100
AcDbCircle
 10
120.0666809999999
 20
159.9999999999999
 30
0.0
 40
26.0
100
AcDbArc
 50
192.1771756739997
 51
257.8228243259558
  0
ARC
  5
328
330
1F
100
AcDbEntity
  8
Ｓ_１_１
  6
CONTINUOUS
 62
     3
100
AcDbCircle
 10
120.0666809999999
 20
159.9999999999999
 30
0.0
 40
24.0
100
AcDbArc
 50
192.6764040040026
 51
257.3235959959512
  0
ARC
  5
329
330
1F
100
AcDbEntity
  8
Ｓ_１_１
  6
CONTINUOUS
 62
     3
100
AcDbCircle
 10
120.0666809999999
 20
159.9999999999999
 30
0.0
 40
24.0
100
AcDbArc
 50
282.676404004003
 51
347.3235959959513
  0
ARC
  5
32A
330
1F
100
AcDbEntity
  8
Ｓ_１_１
  6
CONTINUOUS
 62
     3
100
AcDbCircle
 10
120.0666809999999
 20
159.9999999999999
 30
0.0
 40
26.0
100
AcDbArc
 50
282.1771756739983
 51
347.822824325956
  0
CIRCLE
  5
32B
330
1F
100
AcDbEntity
  8
Ｓ_１_１
  6
EXLTYPE2
 62
     1
100
AcDbCircle
 10
120.0666809999999
 20
159.9999999999999
 30
0.0
 40
10.0
  0
CIRCLE
  5
32C
330
1F
100
AcDbEntity
  8
Ｓ_１_１
  6
CONTINUOUS
 62
     3
100
AcDbCircle
 10
120.0666809999999
 20
159.9999999999999
 30
0.0
 40
35.5
  0
POLYLINE
  5
32D
330
1F
100
AcDbEntity
  8
Ｓ_１_１
  6
CONTINUOUS
 62
     3
100
AcDb2dPolyline
 66
     1
 10
0.0
 20
0.0
 30
0.0
 70
   128
  0
VERTEX
  5
32E
330
32D
100
AcDbEntity
  8
Ｓ_１_１
  6
CONTINUOUS
 62
     3
100
AcDbVertex
100
AcDb2dVertex
 10
120.0666809999998
 20
187.8867513459481
 30
0.0
  0
VERTEX
  5
32F
330
32D
100
AcDbEntity
  8
Ｓ_１_１
  6
CONTINUOUS
 62
     3
100
AcDbVertex
100
AcDb2dVertex
 10
117.5666809999998
 20
186.443375672974
 30
0.0
  0
VERTEX
  5
330
330
32D
100
AcDbEntity
  8
Ｓ_１_１
  6
CONTINUOUS
 62
     3
100
AcDbVertex
100
AcDb2dVertex
 10
117.5666809999998
 20
183.5566243270259
 30
0.0
  0
VERTEX
  5
331
330
32D
100
AcDbEntity
  8
Ｓ_１_１
  6
CONTINUOUS
 62
     3
100
AcDbVertex
100
AcDb2dVertex
 10
120.0666809999998
 20
182.1132486540518
 30
0.0
  0
VERTEX
  5
332
330
32D
100
AcDbEntity
  8
Ｓ_１_１
  6
CONTINUOUS
 62
     3
100
AcDbVertex
100
AcDb2dVertex
 10
122.5666809999998
 20
183.5566243270259
 30
0.0
  0
VERTEX
  5
333
330
32D
100
AcDbEntity
  8
Ｓ_１_１
  6
CONTINUOUS
 62
     3
100
AcDbVertex
100
AcDb2dVertex
 10
122.5666809999998
 20
186.443375672974
 30
0.0
  0
VERTEX
  5
334
330
32D
100
AcDbEntity
  8
Ｓ_１_１
  6
CONTINUOUS
 62
     3
100
AcDbVertex
100
AcDb2dVertex
 10
120.0666809999998
 20
187.8867513459481
 30
0.0
  0
SEQEND
  5
335
330
32D
100
AcDbEntity
  8
Ｓ_１_１
  6
CONTINUOUS
 62
     3
  0
ARC
  5
336
330
1F
100
AcDbEntity
  8
Ｓ_１_１
  6
CONTINUOUS
 62
     3
100
AcDbCircle
 10
120.0666809999999
 20
159.9999999999999
 30
0.0
 40
24.0
100
AcDbArc
 50
12.67640400400313
 51
77.32359599597467
  0
ARC
  5
337
330
1F
100
AcDbEntity
  8
Ｓ_１_１
  6
CONTINUOUS
 62
     3
100
AcDbCircle
 10
120.0666809999999
 20
159.9999999999999
 30
0.0
 40
26.0
100
AcDbArc
 50
12.17717567399842
 51
77.82282432597887
  0
CIRCLE
  5
338
330
1F
100
AcDbEntity
  8
Ｓ_１_１
  6
EXLTYPE2
 62
     1
100
AcDbCircle
 10
120.0666809999998
 20
159.9999999999999
 30
0.0
 40
25.0
  0
CIRCLE
  5
339
330
1F
100
AcDbEntity
  8
Ｓ_１_１
  6
CONTINUOUS
 62
     3
100
AcDbCircle
 10
145.0666809999998
 20
159.99999999999
 30
0.0
 40
4.400000000000034
  0
CIRCLE
  5
33A
330
1F
100
AcDbEntity
  8
Ｓ_１_１
  6
CONTINUOUS
 62
     3
100
AcDbCircle
 10
145.0666809999998
 20
159.99999999999
 30
0.0
 40
5.0
  0
CIRCLE
  5
33B
330
1F
100
AcDbEntity
  8
Ｓ_１_１
  6
CONTINUOUS
 62
     3
100
AcDbCircle
 10
145.0666809999998
 20
159.99999999999
 30
0.0
 40
5.499999999999916
  0
POLYLINE
  5
33C
330
1F
100
AcDbEntity
  8
Ｓ_１_１
  6
CONTINUOUS
 62
     3
100
AcDb2dPolyline
 66
     1
 10
0.0
 20
0.0
 30
0.0
 70
   128
  0
VERTEX
  5
33D
330
33C
100
AcDbEntity
  8
Ｓ_１_１
  6
CONTINUOUS
 62
     3
100
AcDbVertex
100
AcDb2dVertex
 10
147.953432345948
 20
159.99999999999
 30
0.0
  0
VERTEX
  5
33E
330
33C
100
AcDbEntity
  8
Ｓ_１_１
  6
CONTINUOUS
 62
     3
100
AcDbVertex
100
AcDb2dVertex
 10
146.5100566729739
 20
162.49999999999
 30
0.0
  0
VERTEX
  5
33F
330
33C
100
AcDbEntity
  8
Ｓ_１_１
  6
CONTINUOUS
 62
     3
100
AcDbVertex
100
AcDb2dVertex
 10
143.6233053270258
 20
162.49999999999
 30
0.0
  0
VERTEX
  5
340
330
33C
100
AcDbEntity
  8
Ｓ_１_１
  6
CONTINUOUS
 62
     3
100
AcDbVertex
100
AcDb2dVertex
 10
142.1799296540517
 20
159.99999999999
 30
0.0
  0
VERTEX
  5
341
330
33C
100
AcDbEntity
  8
Ｓ_１_１
  6
CONTINUOUS
 62
     3
100
AcDbVertex
100
AcDb2dVertex
 10
143.6233053270258
 20
157.49999999999
 30
0.0
  0
VERTEX
  5
342
330
33C
100
AcDbEntity
  8
Ｓ_１_１
  6
CONTINUOUS
 62
     3
100
AcDbVertex
100
AcDb2dVertex
 10
146.5100566729739
 20
157.49999999999
 30
0.0
  0
VERTEX
  5
343
330
33C
100
AcDbEntity
  8
Ｓ_１_１
  6
CONTINUOUS
 62
     3
100
AcDbVertex
100
AcDb2dVertex
 10
147.953432345948
 20
159.99999999999
 30
0.0
  0
SEQEND
  5
344
330
33C
100
AcDbEntity
  8
Ｓ_１_１
  6
CONTINUOUS
 62
     3
  0
CIRCLE
  5
345
330
1F
100
AcDbEntity
  8
Ｓ_１_１
  6
CONTINUOUS
 62
     3
100
AcDbCircle
 10
120.0666809999999
 20
159.9999999999999
 30
0.0
 40
38.267944
  0
CIRCLE
  5
346
330
1F
100
AcDbEntity
  8
Ｓ_１_１
  6
CONTINUOUS
 62
     3
100
AcDbCircle
 10
120.0666809999999
 20
159.9999999999999
 30
0.0
 40
40.0
  0
CIRCLE
  5
347
330
1F
100
AcDbEntity
  8
Ｓ_１_１
  6
CONTINUOUS
 62
     3
100
AcDbCircle
 10
120.0666809999999
 20
159.9999999999999
 30
0.0
 40
42.50000000000004
  0
CIRCLE
  5
348
330
1F
100
AcDbEntity
  8
Ｓ_１_１
  6
EXLTYPE2
 62
     1
100
AcDbCircle
 10
120.0666809999999
 20
159.9999999999999
 30
0.0
 40
50.50000000000003
  0
CIRCLE
  5
349
330
1F
100
AcDbEntity
  8
Ｓ_１_１
  6
CONTINUOUS
 62
     3
100
AcDbCircle
 10
69.56668099999995
 20
159.9999999999999
 30
0.0
 40
3.374999999999602
  0
CIRCLE
  5
34A
330
1F
100
AcDbEntity
  8
Ｓ_１_１
  6
CONTINUOUS
 62
     3
100
AcDbCircle
 10
69.56668099999995
 20
159.9999999999999
 30
0.0
 40
4.00000000000057
  0
CIRCLE
  5
34B
330
1F
100
AcDbEntity
  8
Ｓ_１_１
  6
CONTINUOUS
 62
     3
100
AcDbCircle
 10
120.0666809999999
 20
109.4999999999999
 30
0.0
 40
3.374999999999602
  0
CIRCLE
  5
34C
330
1F
100
AcDbEntity
  8
Ｓ_１_１
  6
CONTINUOUS
 62
     3
100
AcDbCircle
 10
120.0666809999999
 20
109.4999999999999
 30
0.0
 40
4.00000000000057
  0
CIRCLE
  5
34D
330
1F
100
AcDbEntity
  8
Ｓ_１_１
  6
CONTINUOUS
 62
     3
100
AcDbCircle
 10
170.566681
 20
159.9999999999999
 30
0.0
 40
3.374999999999602
  0
CIRCLE
  5
34E
330
1F
100
AcDbEntity
  8
Ｓ_１_１
  6
CONTINUOUS
 62
     3
100
AcDbCircle
 10
170.566681
 20
159.9999999999999
 30
0.0
 40
4.00000000000057
  0
CIRCLE
  5
34F
330
1F
100
AcDbEntity
  8
Ｓ_１_１
  6
CONTINUOUS
 62
     3
100
AcDbCircle
 10
155.7755734499205
 20
195.7088924499199
 30
0.0
 40
3.374999999999602
  0
CIRCLE
  5
350
330
1F
100
AcDbEntity
  8
Ｓ_１_１
  6
CONTINUOUS
 62
     3
100
AcDbCircle
 10
155.7755734499205
 20
195.7088924499199
 30
0.0
 40
4.00000000000057
  0
LINE
  5
351
330
1F
100
AcDbEntity
  8
Ｓ_１_１
  6
EXLTYPE2
 62
     1
100
AcDbLine
 10
151.43189321237
 20
191.36521221237
 30
0.0
 11
159.48189321237
 21
199.41521221237
 31
0.0
  0
CIRCLE
  5
352
330
1F
100
AcDbEntity
  8
Ｓ_１_１
  6
CONTINUOUS
 62
     3
100
AcDbCircle
 10
155.7755734499205
 20
124.2911075500797
 30
0.0
 40
3.374999999999602
  0
CIRCLE
  5
353
330
1F
100
AcDbEntity
  8
Ｓ_１_１
  6
CONTINUOUS
 62
     3
100
AcDbCircle
 10
155.7755734499205
 20
124.2911075500797
 30
0.0
 40
4.00000000000057
  0
LINE
  5
354
330
1F
100
AcDbEntity
  8
Ｓ_１_１
  6
EXLTYPE2
 62
     1
100
AcDbLine
 10
151.43189321237
 20
128.6347877876296
 30
0.0
 11
159.48189321237
 21
120.5847877876296
 31
0.0
  0
CIRCLE
  5
355
330
1F
100
AcDbEntity
  8
Ｓ_１_１
  6
CONTINUOUS
 62
     3
100
AcDbCircle
 10
84.35778855007992
 20
195.7088924499199
 30
0.0
 40
3.374999999999602
  0
CIRCLE
  5
356
330
1F
100
AcDbEntity
  8
Ｓ_１_１
  6
CONTINUOUS
 62
     3
100
AcDbCircle
 10
84.35778855007992
 20
195.7088924499199
 30
0.0
 40
4.00000000000057
  0
LINE
  5
357
330
1F
100
AcDbEntity
  8
Ｓ_１_１
  6
EXLTYPE2
 62
     1
100
AcDbLine
 10
88.70146878763045
 20
191.36521221237
 30
0.0
 11
80.65146878763044
 21
199.41521221237
 31
0.0
  0
CIRCLE
  5
358
330
1F
100
AcDbEntity
  8
Ｓ_１_１
  6
CONTINUOUS
 62
     3
100
AcDbCircle
 10
84.35778855007992
 20
124.2911075500797
 30
0.0
 40
3.374999999999602
  0
CIRCLE
  5
359
330
1F
100
AcDbEntity
  8
Ｓ_１_１
  6
CONTINUOUS
 62
     3
100
AcDbCircle
 10
84.35778855007992
 20
124.2911075500797
 30
0.0
 40
4.00000000000057
  0
LINE
  5
35A
330
1F
100
AcDbEntity
  8
Ｓ_１_１
  6
EXLTYPE2
 62
     1
100
AcDbLine
 10
88.70146878763045
 20
128.6347877876296
 30
0.0
 11
80.65146878763038
 21
120.5847877876296
 31
0.0
  0
CIRCLE
  5
35B
330
1F
100
AcDbEntity
  8
Ｓ_１_１
  6
CONTINUOUS
 62
     3
100
AcDbCircle
 10
120.0666809999999
 20
210.4999999999999
 30
0.0
 40
4.00000000000057
  0
CIRCLE
  5
35C
330
1F
100
AcDbEntity
  8
Ｓ_１_１
  6
CONTINUOUS
 62
     3
100
AcDbCircle
 10
120.0666809999999
 20
210.4999999999999
 30
0.0
 40
3.374999999999602
  0
DIMENSION
  5
35D
330
1F
100
AcDbEntity
  8
Ｓ_１_１
  6
CONTINUOUS
 62
     2
100
AcDbDimension
  2
*D26
 10
260.0
 20
120.0
 30
0.0
 11
256.25
 21
160.0
 31
0.0
 70
   160
  1
%%c<>
  3
ISO-25
100
AcDbAlignedDimension
 13
297.99997035898
 23
200.0
 33
0.0
 14
297.99997035898
 24
120.0
 34
0.0
 50
90.0
100
AcDbRotatedDimension
1001
ACAD
1000
DSTYLE
1002
{
1070
   270
1070
     2
1070
     6
1000
EX_NORM
1070
     7
1000
EX_NORM
1070
    41
1040
4.5
1070
    42
1040
2.25
1070
    44
1040
1.5
1070
    73
1070
     0
1070
    74
1070
     0
1070
    75
1070
     0
1070
    76
1070
     0
1070
    77
1070
     1
1070
    78
1070
     8
1070
   140
1040
4.617205542725173
1070
   147
1040
0.0
1070
   173
1070
     1
1070
   176
1070
     2
1070
   177
1070
     2
1070
   178
1070
     2
1070
   271
1070
     2
1070
   277
1070
     2
1070
   279
1070
     2
1070
   280
1070
     0
1070
   287
1070
     5
1070
   340
1005
1F4
1002
}
  0
ENDSEC
  0
SECTION
  2
OBJECTS
  0
DICTIONARY
  5
C
330
0
100
AcDbDictionary
  3
ACAD_GROUP
350
D
  3
ACAD_LAYOUT
350
1A
  3
ACAD_MATERIAL
350
43
  3
ACAD_MLEADERSTYLE
350
6B
  3
ACAD_MLINESTYLE
350
17
  3
ACAD_PLOTSETTINGS
350
19
  3
ACAD_SCALELIST
350
47
  3
ACAD_VISUALSTYLE
350
2A
  3
ACDBHEADERROUNDTRIPXREC
350
36A
  3
ACDBVARIABLEDICTIONARY
350
38B
  0
DICTIONARY
  5
396
330
8
100
AcDbDictionary
280
     1
  3
ACAD_XREC_ROUNDTRIP
360
397
  0
DICTIONARY
  5
D
102
{ACAD_REACTORS
330
C
102
}
330
C
100
AcDbDictionary
  0
DICTIONARY
  5
1A
102
{ACAD_REACTORS
330
C
102
}
330
C
100
AcDbDictionary
  0
DICTIONARY
  5
43
102
{ACAD_REACTORS
330
C
102
}
330
C
100
AcDbDictionary
  3
BYBLOCK
350
45
  3
BYLAYER
350
44
  3
GLOBAL
350
46
  0
DICTIONARY
  5
6B
102
{ACAD_REACTORS
330
C
102
}
330
C
100
AcDbDictionary
  3
STANDARD
350
6C
  0
DICTIONARY
  5
17
102
{ACAD_REACTORS
330
C
102
}
330
C
100
AcDbDictionary
  3
STANDARD
350
18
  0
DICTIONARY
  5
19
102
{ACAD_REACTORS
330
C
102
}
330
C
100
AcDbDictionary
  0
DICTIONARY
  5
47
102
{ACAD_REACTORS
330
C
102
}
330
C
100
AcDbDictionary
  3
A0
350
48
  3
A1
350
49
  3
A2
350
4A
  3
A3
350
4B
  3
A4
350
4C
  3
A5
350
4D
  3
A6
350
4E
  3
A7
350
4F
  3
A8
350
50
  3
A9
350
51
  3
B0
350
52
  3
B1
350
53
  3
B2
350
54
  3
B3
350
55
  3
B4
350
56
  3
B5
350
57
  3
B6
350
58
  3
B7
350
59
  3
B8
350
5A
  3
B9
350
5B
  3
C0
350
5C
  3
C1
350
5D
  3
C2
350
5E
  3
C3
350
5F
  3
C4
350
60
  3
C5
350
61
  3
C6
350
62
  3
C7
350
63
  3
C8
350
64
  3
C9
350
65
  3
D0
350
66
  3
D1
350
67
  3
D2
350
68
  0
DICTIONARY
  5
2A
102
{ACAD_REACTORS
330
C
102
}
330
C
100
AcDbDictionary
  3
2DWIREFRAME
350
2F
  3
BASIC
350
32
  3
BRIGHTEN
350
36
  3
COLORCHANGE
350
3A
  3
CONCEPTUAL
350
34
  3
DIM
350
35
  3
EDGECOLOROFF
350
3D
  3
FACEPATTERN
350
39
  3
FLAT
350
2B
  3
FLATWITHEDGES
350
2C
  3
GOURAUD
350
2D
  3
GOURAUDWITHEDGES
350
2E
  3
HIDDEN
350
31
  3
JITTEROFF
350
3B
  3
LINEPATTERN
350
38
  3
OVERHANGOFF
350
3C
  3
REALISTIC
350
33
  3
SHADED
350
42
  3
SHADED_WITH_EDGES
350
41
  3
SHADES_OF_GRAY
350
3E
  3
SKETCHY
350
3F
  3
THICKEN
350
37
  3
WIREFRAME
350
30
  3
X-RAY
350
40
  0
DICTIONARY
  5
36A
102
{ACAD_REACTORS
330
C
102
}
330
C
100
AcDbDictionary
  3
CEPSNID
350
374
  3
CEPSNTYPE
350
373
  3
DIMSTYLEDATA
350
38A
  3
FINGERPRINTGUID
350
375
  3
HYPERLINKBASE
350
36D
  3
INSUNITS
350
372
  3
LAYOUTDICT
350
36F
  3
LWETCUNION
350
371
  3
PLOTSETDICT
350
370
  3
PSVPSCALE
350
377
  3
PUCSBASE
350
37A
  3
PUCSORGBACK
350
380
  3
PUCSORGBOTTOM
350
37C
  3
PUCSORGFRONT
350
37F
  3
PUCSORGLEFT
350
37D
  3
PUCSORGRIGHT
350
37E
  3
PUCSORGTOP
350
37B
  3
PUCSORTHOREF
350
378
  3
PUCSORTHOVIEW
350
379
  3
STYLESHEET
350
36E
  3
TSTACKALIGN
350
36B
  3
TSTACKSIZE
350
36C
  3
UCSBASE
350
383
  3
UCSORGBACK
350
389
  3
UCSORGBOTTOM
350
385
  3
UCSORGFRONT
350
388
  3
UCSORGLEFT
350
386
  3
UCSORGRIGHT
350
387
  3
UCSORGTOP
350
384
  3
UCSORTHOREF
350
381
  3
UCSORTHOVIEW
350
382
  3
VERSIONGUID
350
376
  0
DICTIONARY
  5
38B
102
{ACAD_REACTORS
330
C
102
}
330
C
100
AcDbDictionary
  3
CANNOSCALE
350
398
  3
CENTEREXE
350
392
  3
CENTERLTYPEFILE
350
393
  3
CMLEADERSTYLE
350
38D
  3
CTABLESTYLE
350
38C
  3
DIMASSOC
350
394
  3
HIDETEXT
350
395
  3
MSLTSCALE
350
399
  3
PSOLHEIGHT
350
38F
  3
PSOLWIDTH
350
38E
  0
XRECORD
  5
397
102
{ACAD_REACTORS
330
396
102
}
330
396
100
AcDbXrecord
102
VTR_0.000_0.000_1.000_1.000_VISUALSTYLE
340
2F
102
VTR_0.000_0.000_1.000_1.000_GRIDDISPLAY
 70
     3
102
VTR_0.000_0.000_1.000_1.000_GRIDMAJOR
 70
     5
102
VTR_0.000_0.000_1.000_1.000_DEFAULTLIGHTING
280
     1
102
VTR_0.000_0.000_1.000_1.000_DEFAULTLIGHTINGTYPE
 70
     1
102
VTR_0.000_0.000_1.000_1.000_BRIGHTNESS
141
0.0
102
VTR_0.000_0.000_1.000_1.000_CONTRAST
142
0.0
  0
MATERIAL
  5
45
102
{ACAD_REACTORS
330
43
102
}
102
{ACAD_XDICTIONARY
360
39C
102
}
330
43
100
AcDbMaterial
  1
BYBLOCK
  0
MATERIAL
  5
44
102
{ACAD_REACTORS
330
43
102
}
102
{ACAD_XDICTIONARY
360
39A
102
}
330
43
100
AcDbMaterial
  1
BYLAYER
  0
MATERIAL
  5
46
102
{ACAD_REACTORS
330
43
102
}
102
{ACAD_XDICTIONARY
360
39E
102
}
330
43
100
AcDbMaterial
  1
GLOBAL
  0
ACAD_PROXY_OBJECT
  5
6C
102
{ACAD_REACTORS
330
6B
102
}
330
6B
100
AcDbProxyObject
 90
      499
 91
      505
 93
      610
310
40901902A4063FBFFFFFE0000000000000020400000000000020404214DD185B99185C990000000000000104090141901A00000000000004100000000000000041025764000000000000039000
340
14
340
0
340
11
340
0
 94
        0
1001
ACAD_MLEADERVER
1070
     2
  0
MLINESTYLE
  5
18
102
{ACAD_REACTORS
330
17
102
}
330
17
100
AcDbMlineStyle
  2
Standard
 70
     0
  3

 62
   256
 51
90.0
 52
90.0
 71
     2
 49
0.5
 62
   256
  6
BYLAYER
 49
-0.5
 62
   256
  6
BYLAYER
  0
ACAD_PROXY_OBJECT
  5
48
102
{ACAD_REACTORS
330
47
102
}
330
47
100
AcDbProxyObject
 90
      499
 91
      503
 93
       41
310
903313A31580
  0
ACAD_PROXY_OBJECT
  5
49
102
{ACAD_REACTORS
330
47
102
}
330
47
100
AcDbProxyObject
 90
      499
 91
      503
 93
      105
310
903313A324000000000000004000
  0
ACAD_PROXY_OBJECT
  5
4A
102
{ACAD_REACTORS
330
47
102
}
330
47
100
AcDbProxyObject
 90
      499
 91
      503
 93
      105
310
903313A344000000000000104000
  0
ACAD_PROXY_OBJECT
  5
4B
102
{ACAD_REACTORS
330
47
102
}
330
47
100
AcDbProxyObject
 90
      499
 91
      503
 93
      105
310
903313A354000000000000144000
  0
ACAD_PROXY_OBJECT
  5
4C
102
{ACAD_REACTORS
330
47
102
}
330
47
100
AcDbProxyObject
 90
      499
 91
      503
 93
      105
310
903313A384000000000000204000
  0
ACAD_PROXY_OBJECT
  5
4D
102
{ACAD_REACTORS
330
47
102
}
330
47
100
AcDbProxyObject
 90
      499
 91
      503
 93
      113
310
904313A31304000000000000244000
  0
ACAD_PROXY_OBJECT
  5
4E
102
{ACAD_REACTORS
330
47
102
}
330
47
100
AcDbProxyObject
 90
      499
 91
      503
 93
      113
310
904313A31364000000000000304000
  0
ACAD_PROXY_OBJECT
  5
4F
102
{ACAD_REACTORS
330
47
102
}
330
47
100
AcDbProxyObject
 90
      499
 91
      503
 93
      113
310
904313A32304000000000000344000
  0
ACAD_PROXY_OBJECT
  5
50
102
{ACAD_REACTORS
330
47
102
}
330
47
100
AcDbProxyObject
 90
      499
 91
      503
 93
      113
310
904313A333040000000000003E4000
  0
ACAD_PROXY_OBJECT
  5
51
102
{ACAD_REACTORS
330
47
102
}
330
47
100
AcDbProxyObject
 90
      499
 91
      503
 93
      113
310
904313A34304000000000000444000
  0
ACAD_PROXY_OBJECT
  5
52
102
{ACAD_REACTORS
330
47
102
}
330
47
100
AcDbProxyObject
 90
      499
 91
      503
 93
      113
310
904313A35304000000000000494000
  0
ACAD_PROXY_OBJECT
  5
53
102
{ACAD_REACTORS
330
47
102
}
330
47
100
AcDbProxyObject
 90
      499
 91
      503
 93
      121
310
905313A3130304000000000000594000
  0
ACAD_PROXY_OBJECT
  5
54
102
{ACAD_REACTORS
330
47
102
}
330
47
100
AcDbProxyObject
 90
      499
 91
      503
 93
      105
310
903323A310000000000000010100
  0
ACAD_PROXY_OBJECT
  5
55
102
{ACAD_REACTORS
330
47
102
}
330
47
100
AcDbProxyObject
 90
      499
 91
      503
 93
      105
310
903343A310000000000000410100
  0
ACAD_PROXY_OBJECT
  5
56
102
{ACAD_REACTORS
330
47
102
}
330
47
100
AcDbProxyObject
 90
      499
 91
      503
 93
      105
310
903383A310000000000000810100
  0
ACAD_PROXY_OBJECT
  5
57
102
{ACAD_REACTORS
330
47
102
}
330
47
100
AcDbProxyObject
 90
      499
 91
      503
 93
      113
310
90431303A310000000000000910100
  0
ACAD_PROXY_OBJECT
  5
58
102
{ACAD_REACTORS
330
47
102
}
330
47
100
AcDbProxyObject
 90
      499
 91
      503
 93
      121
310
9053130303A310000000000001650100
  0
ACAD_PROXY_OBJECT
  5
59
102
{ACAD_REACTORS
330
47
102
}
330
47
100
AcDbProxyObject
 90
      499
 91
      503
 93
      257
310
90E312F31323822203D2031272D3022000000000000200FC000000000000284000
  0
ACAD_PROXY_OBJECT
  5
5A
102
{ACAD_REACTORS
330
47
102
}
330
47
100
AcDbProxyObject
 90
      499
 91
      503
 93
      249
310
90D312F363422203D2031272D3022000000000000240FC000000000000284000
  0
ACAD_PROXY_OBJECT
  5
5B
102
{ACAD_REACTORS
330
47
102
}
330
47
100
AcDbProxyObject
 90
      499
 91
      503
 93
      249
310
90D312F333222203D2031272D3022000000000000280FC000000000000284000
  0
ACAD_PROXY_OBJECT
  5
5C
102
{ACAD_REACTORS
330
47
102
}
330
47
100
AcDbProxyObject
 90
      499
 91
      503
 93
      249
310
90D312F313622203D2031272D30220000000000002C0FC000000000000284000
  0
ACAD_PROXY_OBJECT
  5
5D
102
{ACAD_REACTORS
330
47
102
}
330
47
100
AcDbProxyObject
 90
      499
 91
      503
 93
      249
310
90D332F333222203D2031272D30220000000000002E0FC000000000000284000
  0
ACAD_PROXY_OBJECT
  5
5E
102
{ACAD_REACTORS
330
47
102
}
330
47
100
AcDbProxyObject
 90
      499
 91
      503
 93
      241
310
90C312F3822203D2031272D3022000000000000300FC000000000000284000
  0
ACAD_PROXY_OBJECT
  5
5F
102
{ACAD_REACTORS
330
47
102
}
330
47
100
AcDbProxyObject
 90
      499
 91
      503
 93
      249
310
90D332F313622203D2031272D3022000000000000320FC000000000000284000
  0
ACAD_PROXY_OBJECT
  5
60
102
{ACAD_REACTORS
330
47
102
}
330
47
100
AcDbProxyObject
 90
      499
 91
      503
 93
      241
310
90C312F3422203D2031272D3022000000000000340FC000000000000284000
  0
ACAD_PROXY_OBJECT
  5
61
102
{ACAD_REACTORS
330
47
102
}
330
47
100
AcDbProxyObject
 90
      499
 91
      503
 93
      241
310
90C332F3822203D2031272D3022000000000000360FC000000000000284000
  0
ACAD_PROXY_OBJECT
  5
62
102
{ACAD_REACTORS
330
47
102
}
330
47
100
AcDbProxyObject
 90
      499
 91
      503
 93
      241
310
90C312F3222203D2031272D3022000000000000380FC000000000000284000
  0
ACAD_PROXY_OBJECT
  5
63
102
{ACAD_REACTORS
330
47
102
}
330
47
100
AcDbProxyObject
 90
      499
 91
      503
 93
      241
310
90C332F3422203D2031272D30220000000000003A0FC000000000000284000
  0
ACAD_PROXY_OBJECT
  5
64
102
{ACAD_REACTORS
330
47
102
}
330
47
100
AcDbProxyObject
 90
      499
 91
      503
 93
      161
310
90A3122203D2031272D30224000000000000284000
  0
ACAD_PROXY_OBJECT
  5
65
102
{ACAD_REACTORS
330
47
102
}
330
47
100
AcDbProxyObject
 90
      499
 91
      503
 93
      257
310
90E312D312F3222203D2031272D30220000000000003E0FC000000000000284000
  0
ACAD_PROXY_OBJECT
  5
66
102
{ACAD_REACTORS
330
47
102
}
330
47
100
AcDbProxyObject
 90
      499
 91
      503
 93
      225
310
90A3322203D2031272D302200000000000002100000000000000284000
  0
ACAD_PROXY_OBJECT
  5
67
102
{ACAD_REACTORS
330
47
102
}
330
47
100
AcDbProxyObject
 90
      499
 91
      503
 93
      225
310
90A3622203D2031272D302200000000000006100000000000000284000
  0
ACAD_PROXY_OBJECT
  5
68
102
{ACAD_REACTORS
330
47
102
}
330
47
100
AcDbProxyObject
 90
      499
 91
      503
 93
      249
310
90D31272D3022203D2031272D30220000000000000A100000000000000284000
  0
ACAD_PROXY_OBJECT
  5
2F
102
{ACAD_REACTORS
330
2A
102
}
330
2A
100
AcDbProxyObject
 90
      499
 91
      501
 93
      436
310
42CC9915DA5C99599C985B595049028333333333333E33F0000000000000F90107901411070040501600405405064090741402480A0340
1001
ACAD
1000
AcDbSavedByObjectVersion
1070
     0
  0
ACAD_PROXY_OBJECT
  5
32
102
{ACAD_REACTORS
330
2A
102
}
330
2A
100
AcDbProxyObject
 90
      499
 91
      501
 93
      388
310
4150985CDA58D07406404333333333333E33F0000000000000F90107A41107004050150841D405064090741402480A0350
1001
ACAD
1000
AcDbSavedByObjectVersion
1070
     0
  0
ACAD_PROXY_OBJECT
  5
36
102
{ACAD_REACTORS
330
2A
102
}
330
2A
100
AcDbProxyObject
 90
      499
 91
      501
 93
      428
310
42109C9A59DA1D195B90C409028333333333333E33F0000000000000F9010790141107004050150841D405064090741402480A029950
1001
ACAD
1000
AcDbSavedByObjectVersion
1070
     0
  0
ACAD_PROXY_OBJECT
  5
3A
102
{ACAD_REACTORS
330
2A
102
}
330
2A
100
AcDbProxyObject
 90
      499
 91
      501
 93
      452
310
42D0DBDB1BDC90DA185B99D95104090240C333333333333E33F0000000000000F90108901411070040501508421405064090741402480A0350
1001
ACAD
1000
AcDbSavedByObjectVersion
1070
     0
  0
ACAD_PROXY_OBJECT
  5
34
102
{ACAD_REACTORS
330
2A
102
}
330
2A
100
AcDbProxyObject
 90
      499
 91
      501
 93
      500
310
4290DBDB98D95C1D1D585B10940D028333333333333E33F0000000000000F90107902409070040501000000000018199010841D405064090740C02480A0340
1001
ACAD
1000
AcDbSavedByObjectVersion
1070
     0
  0
ACAD_PROXY_OBJECT
  5
35
102
{ACAD_REACTORS
330
2A
102
}
330
2A
100
AcDbProxyObject
 90
      499
 91
      501
 93
      412
310
40D11A5B50B409028333333333333E33F0000000000000F9010790141107004050150841D405064090741402480A02677FFFFFD0
1001
ACAD
1000
AcDbSavedByObjectVersion
1070
     0
  0
ACAD_PROXY_OBJECT
  5
3D
102
{ACAD_REACTORS
330
2A
102
}
330
2A
100
AcDbProxyObject
 90
      499
 91
      501
 93
      452
310
43115919D950DBDB1BDC93D999916409028333333333333E33F0000000000000F9010790141107004050150841D405064090741402480A0350
1001
ACAD
1000
AcDbSavedByObjectVersion
1070
     0
  0
ACAD_PROXY_OBJECT
  5
39
102
{ACAD_REACTORS
330
2A
102
}
330
2A
100
AcDbProxyObject
 90
      499
 91
      501
 93
      444
310
42D19858D95C185D1D195C9B90F409028333333333333E33F0000000000000F9010790141107004050150841D405064090741402480A0350
1001
ACAD
1000
AcDbSavedByObjectVersion
1070
     0
  0
ACAD_PROXY_OBJECT
  5
2B
102
{ACAD_REACTORS
330
2A
102
}
330
2A
100
AcDbProxyObject
 90
      499
 91
      501
 93
      380
310
41119B185D240901404333333333333E33F0000000000000F9010740A907004050150841D405064090741402480A1B50
1001
ACAD
1000
AcDbSavedByObjectVersion
1070
     0
  0
ACAD_PROXY_OBJECT
  5
2C
102
{ACAD_REACTORS
330
2A
102
}
330
2A
100
AcDbProxyObject
 90
      499
 91
      501
 93
      468
310
43519B185D15DA5D1A115919D95CD0140901404333333333333E33F0000000000000F90107409019070040501600405405064090741402480A1B50
1001
ACAD
1000
AcDbSavedByObjectVersion
1070
     0
  0
ACAD_PROXY_OBJECT
  5
2D
102
{ACAD_REACTORS
330
2A
102
}
330
2A
100
AcDbProxyObject
 90
      499
 91
      501
 93
      404
310
41D1DBDD5C985D5910240902404333333333333E33F0000000000000F9010740A9070040501641D405064090741402480A1B50
1001
ACAD
1000
AcDbSavedByObjectVersion
1070
     0
  0
ACAD_PROXY_OBJECT
  5
2E
102
{ACAD_REACTORS
330
2A
102
}
330
2A
100
AcDbProxyObject
 90
      499
 91
      501
 93
      492
310
4411DBDD5C985D5915DA5D1A115919D95CD0340902404333333333333E33F0000000000000F90107409019070040501600405405064090741402480A1B50
1001
ACAD
1000
AcDbSavedByObjectVersion
1070
     0
  0
ACAD_PROXY_OBJECT
  5
31
102
{ACAD_REACTORS
330
2A
102
}
330
2A
100
AcDbProxyObject
 90
      499
 91
      501
 93
      476
310
41921A5919195B90640502408333333333333E33F0000000000000F901079024090700405020000000000001110200405405064090740C02480A0340
1001
ACAD
1000
AcDbSavedByObjectVersion
1070
     0
  0
ACAD_PROXY_OBJECT
  5
3B
102
{ACAD_REACTORS
330
2A
102
}
330
2A
100
AcDbProxyObject
 90
      499
 91
      501
 93
      428
310
42529A5D1D195C93D999914409028333333333333E33F0000000000000F9010790141107004050150A41D405064090741402480A0350
1001
ACAD
1000
AcDbSavedByObjectVersion
1070
     0
  0
ACAD_PROXY_OBJECT
  5
38
102
{ACAD_REACTORS
330
2A
102
}
330
2A
100
AcDbProxyObject
 90
      499
 91
      501
 93
      444
310
42D31A5B995C185D1D195C9B90E409028333333333333E33F0000000000000F9010790141107004050750841D405064090741402483A0350
1001
ACAD
1000
AcDbSavedByObjectVersion
1070
     0
  0
ACAD_PROXY_OBJECT
  5
3C
102
{ACAD_REACTORS
330
2A
102
}
330
2A
100
AcDbProxyObject
 90
      499
 91
      501
 93
      444
310
42D3DD995C9A185B99D3D999915409028333333333333E33F0000000000000F9010790141107004050150941D405064090741402480A0350
1001
ACAD
1000
AcDbSavedByObjectVersion
1070
     0
  0
ACAD_PROXY_OBJECT
  5
33
102
{ACAD_REACTORS
330
2A
102
}
330
2A
100
AcDbProxyObject
 90
      499
 91
      501
 93
      428
310
425499585B1A5CDD1A58D08409038333333333333E33F0000000000000F9010740A907004050150800405405064090740C02480A1B40
1001
ACAD
1000
AcDbSavedByObjectVersion
1070
     0
  0
ACAD_PROXY_OBJECT
  5
42
102
{ACAD_REACTORS
330
2A
102
}
330
2A
100
AcDbProxyObject
 90
      499
 91
      501
 93
      420
310
4194DA1859195911B40902404333333333333E33F0000000000000F9010740A41107004050150800405405064090840C02480A0B40
1001
ACAD
1000
AcDbSavedByObjectVersion
1070
     0
  0
ACAD_PROXY_OBJECT
  5
41
102
{ACAD_REACTORS
330
2A
102
}
330
2A
100
AcDbProxyObject
 90
      499
 91
      501
 93
      516
310
4454DA18591959081DDA5D1A08195919D95CD1A40902404333333333333E33F0000000000000F901074090142907004050250800405405064090740C02480A0B40
1001
ACAD
1000
AcDbSavedByObjectVersion
1070
     0
  0
ACAD_PROXY_OBJECT
  5
3E
102
{ACAD_REACTORS
330
2A
102
}
330
2A
100
AcDbProxyObject
 90
      499
 91
      501
 93
      532
310
4394DA1859195CC81BD98811DC985E5174090240C333333333333E33F0000000000000F901079024090741D01000000000000111010841D405064090740C02480A0340
1001
ACAD
1000
AcDbSavedByObjectVersion
1070
     0
  0
ACAD_PROXY_OBJECT
  5
3F
102
{ACAD_REACTORS
330
2A
102
}
330
2A
100
AcDbProxyObject
 90
      499
 91
      501
 93
      476
310
41D4DAD95D18DA1E51840502408333333333333E33F0000000000000F901079024090741D01000000000000111010B41D405064090741802480A0340
1001
ACAD
1000
AcDbSavedByObjectVersion
1070
     0
  0
ACAD_PROXY_OBJECT
  5
37
102
{ACAD_REACTORS
330
2A
102
}
330
2A
100
AcDbProxyObject
 90
      499
 91
      501
 93
      412
310
41D51A1A58DAD95B90D409028333333333333E33F0000000000000F9010790141107004050150C41D405064090741402480A0350
1001
ACAD
1000
AcDbSavedByObjectVersion
1070
     0
  0
ACAD_PROXY_OBJECT
  5
30
102
{ACAD_REACTORS
330
2A
102
}
330
2A
100
AcDbProxyObject
 90
      499
 91
      501
 93
      420
310
4255DA5C99599C985B595059028333333333333E33F0000000000000F90107901411070040501600405405064090740C02480A0340
1001
ACAD
1000
AcDbSavedByObjectVersion
1070
     0
  0
ACAD_PROXY_OBJECT
  5
40
102
{ACAD_REACTORS
330
2A
102
}
330
2A
100
AcDbProxyObject
 90
      499
 91
      501
 93
      404
310
41560B54985E51940902404000000000000E03F0000000000000F9010740501907004050150841D405064090740C02480A1B40
1001
ACAD
1000
AcDbSavedByObjectVersion
1070
     0
  0
XRECORD
  5
374
102
{ACAD_REACTORS
330
36A
102
}
330
36A
100
AcDbXrecord
340
0
  0
XRECORD
  5
373
102
{ACAD_REACTORS
330
36A
102
}
330
36A
100
AcDbXrecord
 90
        0
  0
XRECORD
  5
38A
102
{ACAD_REACTORS
330
36A
102
}
330
36A
100
AcDbXrecord
1000
DSTYLE
1002
{
1070
   340
340
11
1002
}
  0
XRECORD
  5
375
102
{ACAD_REACTORS
330
36A
102
}
330
36A
100
AcDbXrecord
  1
{d82b2e15-c2a3-4342-bafa-cfae08629382}
  0
XRECORD
  5
36D
102
{ACAD_REACTORS
330
36A
102
}
330
36A
100
AcDbXrecord
  1

  0
XRECORD
  5
372
102
{ACAD_REACTORS
330
36A
102
}
330
36A
100
AcDbXrecord
 90
        4
  0
XRECORD
  5
36F
102
{ACAD_REACTORS
330
36A
102
}
330
36A
100
AcDbXrecord
340
1A
  0
XRECORD
  5
371
102
{ACAD_REACTORS
330
36A
102
}
330
36A
100
AcDbXrecord
 90
    10781
  0
XRECORD
  5
370
102
{ACAD_REACTORS
330
36A
102
}
330
36A
100
AcDbXrecord
340
19
  0
XRECORD
  5
377
102
{ACAD_REACTORS
330
36A
102
}
330
36A
100
AcDbXrecord
 40
0.0
  0
XRECORD
  5
37A
102
{ACAD_REACTORS
330
36A
102
}
330
36A
100
AcDbXrecord
340
0
  0
XRECORD
  5
380
102
{ACAD_REACTORS
330
36A
102
}
330
36A
100
AcDbXrecord
 10
0.0
 20
0.0
 30
0.0
  0
XRECORD
  5
37C
102
{ACAD_REACTORS
330
36A
102
}
330
36A
100
AcDbXrecord
 10
0.0
 20
0.0
 30
0.0
  0
XRECORD
  5
37F
102
{ACAD_REACTORS
330
36A
102
}
330
36A
100
AcDbXrecord
 10
0.0
 20
0.0
 30
0.0
  0
XRECORD
  5
37D
102
{ACAD_REACTORS
330
36A
102
}
330
36A
100
AcDbXrecord
 10
0.0
 20
0.0
 30
0.0
  0
XRECORD
  5
37E
102
{ACAD_REACTORS
330
36A
102
}
330
36A
100
AcDbXrecord
 10
0.0
 20
0.0
 30
0.0
  0
XRECORD
  5
37B
102
{ACAD_REACTORS
330
36A
102
}
330
36A
100
AcDbXrecord
 10
0.0
 20
0.0
 30
0.0
  0
XRECORD
  5
378
102
{ACAD_REACTORS
330
36A
102
}
330
36A
100
AcDbXrecord
340
0
  0
XRECORD
  5
379
102
{ACAD_REACTORS
330
36A
102
}
330
36A
100
AcDbXrecord
 70
     0
  0
XRECORD
  5
36E
102
{ACAD_REACTORS
330
36A
102
}
330
36A
100
AcDbXrecord
  1

  0
XRECORD
  5
36B
102
{ACAD_REACTORS
330
36A
102
}
330
36A
100
AcDbXrecord
 90
        1
  0
XRECORD
  5
36C
102
{ACAD_REACTORS
330
36A
102
}
330
36A
100
AcDbXrecord
 90
       70
  0
XRECORD
  5
383
102
{ACAD_REACTORS
330
36A
102
}
330
36A
100
AcDbXrecord
340
0
  0
XRECORD
  5
389
102
{ACAD_REACTORS
330
36A
102
}
330
36A
100
AcDbXrecord
 10
0.0
 20
0.0
 30
0.0
  0
XRECORD
  5
385
102
{ACAD_REACTORS
330
36A
102
}
330
36A
100
AcDbXrecord
 10
0.0
 20
0.0
 30
0.0
  0
XRECORD
  5
388
102
{ACAD_REACTORS
330
36A
102
}
330
36A
100
AcDbXrecord
 10
0.0
 20
0.0
 30
0.0
  0
XRECORD
  5
386
102
{ACAD_REACTORS
330
36A
102
}
330
36A
100
AcDbXrecord
 10
0.0
 20
0.0
 30
0.0
  0
XRECORD
  5
387
102
{ACAD_REACTORS
330
36A
102
}
330
36A
100
AcDbXrecord
 10
0.0
 20
0.0
 30
0.0
  0
XRECORD
  5
384
102
{ACAD_REACTORS
330
36A
102
}
330
36A
100
AcDbXrecord
 10
0.0
 20
0.0
 30
0.0
  0
XRECORD
  5
381
102
{ACAD_REACTORS
330
36A
102
}
330
36A
100
AcDbXrecord
340
0
  0
XRECORD
  5
382
102
{ACAD_REACTORS
330
36A
102
}
330
36A
100
AcDbXrecord
 70
     0
  0
XRECORD
  5
376
102
{ACAD_REACTORS
330
36A
102
}
330
36A
100
AcDbXrecord
  1
{FAEB1C32-E019-11D5-929B-00C0DF256EC4}
  0
DICTIONARYVAR
  5
398
102
{ACAD_REACTORS
330
38B
102
}
330
38B
100
DictionaryVariables
280
     0
  1
1:1
  0
DICTIONARYVAR
  5
392
102
{ACAD_REACTORS
330
38B
102
}
330
38B
100
DictionaryVariables
280
     0
  1
3.500000
  0
DICTIONARYVAR
  5
393
102
{ACAD_REACTORS
330
38B
102
}
330
38B
100
DictionaryVariables
280
     0
  1
acadiso.lin
  0
DICTIONARYVAR
  5
38D
102
{ACAD_REACTORS
330
38B
102
}
330
38B
100
DictionaryVariables
280
     0
  1
Standard
  0
DICTIONARYVAR
  5
38C
102
{ACAD_REACTORS
330
38B
102
}
330
38B
100
DictionaryVariables
280
     0
  1
Standard
  0
DICTIONARYVAR
  5
394
102
{ACAD_REACTORS
330
38B
102
}
330
38B
100
DictionaryVariables
280
     0
  1
2
  0
DICTIONARYVAR
  5
395
102
{ACAD_REACTORS
330
38B
102
}
330
38B
100
DictionaryVariables
280
     0
  1
1
  0
DICTIONARYVAR
  5
399
102
{ACAD_REACTORS
330
38B
102
}
330
38B
100
DictionaryVariables
280
     0
  1
1
  0
DICTIONARYVAR
  5
38F
102
{ACAD_REACTORS
330
38B
102
}
330
38B
100
DictionaryVariables
280
     0
  1
80.000000
  0
DICTIONARYVAR
  5
38E
102
{ACAD_REACTORS
330
38B
102
}
330
38B
100
DictionaryVariables
280
     0
  1
5.000000
  0
DICTIONARY
  5
39C
330
45
100
AcDbDictionary
280
     1
  3
ACAD_XREC_ROUNDTRIP
360
39D
  0
DICTIONARY
  5
39A
330
44
100
AcDbDictionary
280
     1
  3
ACAD_XREC_ROUNDTRIP
360
39B
  0
DICTIONARY
  5
39E
330
46
100
AcDbDictionary
280
     1
  3
ACAD_XREC_ROUNDTRIP
360
39F
  0
XRECORD
  5
39D
102
{ACAD_REACTORS
330
39C
102
}
330
39C
100
AcDbXrecord
102
MATERIAL
148
0.0
149
0.0
149
0.0
 93
        0
 94
      127
282
     0
 72
     1
 77
     1
171
     1
175
     1
179
     1
273
     0
  0
XRECORD
  5
39B
102
{ACAD_REACTORS
330
39A
102
}
330
39A
100
AcDbXrecord
102
MATERIAL
148
0.0
149
0.0
149
0.0
 93
        0
 94
      127
282
     0
 72
     1
 77
     1
171
     1
175
     1
179
     1
273
     0
  0
XRECORD
  5
39F
102
{ACAD_REACTORS
330
39E
102
}
330
39E
100
AcDbXrecord
102
MATERIAL
148
0.0
149
0.0
149
0.0
 93
        0
 94
      127
282
     0
 72
     1
 77
     1
171
     1
175
     1
179
     1
273
     0
  0
ENDSEC
  0
EOF
