  0
SECTION
  2
HEADER
  9
$ACADVER
  1
AC1014
  9
$ACADMAINTVER
 70
     9
  9
$DWGCODEPAGE
  3
ANSI_932
  9
$INSBASE
 10
0.0
 20
0.0
 30
0.0
  9
$EXTMIN
 10
20.0
 20
20.0
 30
0.0
  9
$EXTMAX
 10
820.0
 20
574.0
 30
0.0
  9
$LIMMIN
 10
0.0
 20
0.0
  9
$LIMMAX
 10
420.0
 20
297.0
  9
$ORTHOMODE
 70
     0
  9
$REGENMODE
 70
     1
  9
$FILLMODE
 70
     1
  9
$QTEXTMODE
 70
     0
  9
$MIRRTEXT
 70
     1
  9
$DRAGMODE
 70
     2
  9
$LTSCALE
 40
1.0
  9
$OSMODE
 70
    37
  9
$ATTMODE
 70
     1
  9
$TEXTSIZE
 40
2.5
  9
$TRACEWID
 40
1.0
  9
$TEXTSTYLE
  7
STANDARD
  9
$CLAYER
  8
Ｓ_１_１
  9
$CELTYPE
  6
BYLAYER
  9
$CECOLOR
 62
   256
  9
$CELTSCALE
 40
1.0
  9
$DELOBJ
 70
     1
  9
$DISPSILH
 70
     0
  9
$DIMSCALE
 40
1.0
  9
$DIMASZ
 40
2.5
  9
$DIMEXO
 40
0.625
  9
$DIMDLI
 40
3.75
  9
$DIMRND
 40
0.0
  9
$DIMDLE
 40
0.0
  9
$DIMEXE
 40
1.25
  9
$DIMTP
 40
0.0
  9
$DIMTM
 40
0.0
  9
$DIMTXT
 40
2.5
  9
$DIMCEN
 40
2.5
  9
$DIMTSZ
 40
0.0
  9
$DIMTOL
 70
     0
  9
$DIMLIM
 70
     0
  9
$DIMTIH
 70
     0
  9
$DIMTOH
 70
     0
  9
$DIMSE1
 70
     0
  9
$DIMSE2
 70
     0
  9
$DIMTAD
 70
     1
  9
$DIMZIN
 70
     8
  9
$DIMBLK
  1

  9
$DIMASO
 70
     1
  9
$DIMSHO
 70
     1
  9
$DIMPOST
  1

  9
$DIMAPOST
  1

  9
$DIMALT
 70
     0
  9
$DIMALTD
 70
     3
  9
$DIMALTF
 40
0.03937007874016
  9
$DIMLFAC
 40
1.0
  9
$DIMTOFL
 70
     1
  9
$DIMTVP
 40
0.0
  9
$DIMTIX
 70
     0
  9
$DIMSOXD
 70
     0
  9
$DIMSAH
 70
     0
  9
$DIMBLK1
  1

  9
$DIMBLK2
  1

  9
$DIMSTYLE
  2
ISO-25
  9
$DIMCLRD
 70
     0
  9
$DIMCLRE
 70
     0
  9
$DIMCLRT
 70
     0
  9
$DIMTFAC
 40
1.0
  9
$DIMGAP
 40
0.625
  9
$DIMJUST
 70
     0
  9
$DIMSD1
 70
     0
  9
$DIMSD2
 70
     0
  9
$DIMTOLJ
 70
     0
  9
$DIMTZIN
 70
     8
  9
$DIMALTZ
 70
     0
  9
$DIMALTTZ
 70
     0
  9
$DIMFIT
 70
     3
  9
$DIMUPT
 70
     0
  9
$DIMUNIT
 70
     2
  9
$DIMDEC
 70
     2
  9
$DIMTDEC
 70
     2
  9
$DIMALTU
 70
     2
  9
$DIMALTTD
 70
     3
  9
$DIMTXSTY
  7
STANDARD
  9
$DIMAUNIT
 70
     0
  9
$LUNITS
 70
     2
  9
$LUPREC
 70
     4
  9
$SKETCHINC
 40
1.0
  9
$FILLETRAD
 40
10.0
  9
$AUNITS
 70
     0
  9
$AUPREC
 70
     0
  9
$MENU
  1
.
  9
$ELEVATION
 40
0.0
  9
$PELEVATION
 40
0.0
  9
$THICKNESS
 40
0.0
  9
$LIMCHECK
 70
     0
  9
$CHAMFERA
 40
0.0
  9
$CHAMFERB
 40
0.0
  9
$CHAMFERC
 40
0.0
  9
$CHAMFERD
 40
0.0
  9
$SKPOLY
 70
     0
  9
$TDCREATE
 40
2459591.54320206
  9
$TDUPDATE
 40
2459591.543203576
  9
$TDINDWG
 40
0.0000000116
  9
$TDUSRTIMER
 40
0.0000000116
  9
$USRTIMER
 70
     1
  9
$ANGBASE
 50
0.0
  9
$ANGDIR
 70
     0
  9
$PDMODE
 70
     0
  9
$PDSIZE
 40
0.0
  9
$PLINEWID
 40
0.0
  9
$COORDS
 70
     1
  9
$SPLFRAME
 70
     0
  9
$SPLINETYPE
 70
     6
  9
$SPLINESEGS
 70
     8
  9
$ATTDIA
 70
     0
  9
$ATTREQ
 70
     1
  9
$HANDLING
 70
     1
  9
$HANDSEED
  5
464
  9
$SURFTAB1
 70
     6
  9
$SURFTAB2
 70
     6
  9
$SURFTYPE
 70
     6
  9
$SURFU
 70
     6
  9
$SURFV
 70
     6
  9
$UCSNAME
  2

  9
$UCSORG
 10
0.0
 20
0.0
 30
0.0
  9
$UCSXDIR
 10
1.0
 20
0.0
 30
0.0
  9
$UCSYDIR
 10
0.0
 20
1.0
 30
0.0
  9
$PUCSNAME
  2

  9
$PUCSORG
 10
0.0
 20
0.0
 30
0.0
  9
$PUCSXDIR
 10
1.0
 20
0.0
 30
0.0
  9
$PUCSYDIR
 10
0.0
 20
1.0
 30
0.0
  9
$USERI1
 70
     0
  9
$USERI2
 70
     0
  9
$USERI3
 70
     0
  9
$USERI4
 70
     0
  9
$USERI5
 70
     0
  9
$USERR1
 40
0.0
  9
$USERR2
 40
0.0
  9
$USERR3
 40
0.0
  9
$USERR4
 40
0.0
  9
$USERR5
 40
0.0
  9
$WORLDVIEW
 70
     1
  9
$SHADEDGE
 70
     3
  9
$SHADEDIF
 70
    70
  9
$TILEMODE
 70
     1
  9
$MAXACTVP
 70
    64
  9
$PINSBASE
 10
0.0
 20
0.0
 30
0.0
  9
$PLIMCHECK
 70
     0
  9
$PEXTMIN
 10
1.000000000000000E+20
 20
1.000000000000000E+20
 30
1.000000000000000E+20
  9
$PEXTMAX
 10
-1.000000000000000E+20
 20
-1.000000000000000E+20
 30
-1.000000000000000E+20
  9
$PLIMMIN
 10
0.0
 20
0.0
  9
$PLIMMAX
 10
420.0
 20
297.0
  9
$UNITMODE
 70
     0
  9
$VISRETAIN
 70
     1
  9
$PLINEGEN
 70
     0
  9
$PSLTSCALE
 70
     1
  9
$TREEDEPTH
 70
  3020
  9
$PICKSTYLE
 70
     1
  9
$CMLSTYLE
  2
STANDARD
  9
$CMLJUST
 70
     0
  9
$CMLSCALE
 40
20.0
  9
$PROXYGRAPHICS
 70
     1
  9
$MEASUREMENT
 70
     1
  0
ENDSEC
  0
SECTION
  2
CLASSES
  0
CLASS
  1
ACDBDICTIONARYWDFLT
  2
AcDbDictionaryWithDefault
  3
ObjectDBX Classes
 90
        0
280
     0
281
     0
  0
CLASS
  1
VISUALSTYLE
  2
AcDbVisualStyle
  3
ObjectDBX Classes
 90
     4095
280
     0
281
     0
  0
CLASS
  1
MATERIAL
  2
AcDbMaterial
  3
ObjectDBX Classes
 90
     1153
280
     0
281
     0
  0
CLASS
  1
SCALE
  2
AcDbScale
  3
ObjectDBX Classes
 90
     1153
280
     0
281
     0
  0
CLASS
  1
TABLESTYLE
  2
AcDbTableStyle
  3
ObjectDBX Classes
 90
     4095
280
     0
281
     0
  0
CLASS
  1
MLEADERSTYLE
  2
AcDbMLeaderStyle
  3
ACDB_MLEADERSTYLE_CLASS
 90
     4095
280
     0
281
     0
  0
CLASS
  1
SUN
  2
AcDbSun
  3
SCENEOE
 90
     1153
280
     0
281
     0
  0
CLASS
  1
DICTIONARYVAR
  2
AcDbDictionaryVar
  3
ObjectDBX Classes
 90
        0
280
     0
281
     0
  0
CLASS
  1
XRECORD
  2
AcDbXrecord
  3
ObjectDBX Classes
 90
        0
280
     0
281
     0
  0
CLASS
  1
LWPOLYLINE
  2
AcDbPolyline
  3
ObjectDBX Classes
 90
        0
280
     0
281
     1
  0
CLASS
  1
HATCH
  2
AcDbHatch
  3
ObjectDBX Classes
 90
        0
280
     0
281
     1
  0
CLASS
  1
ACDBPLACEHOLDER
  2
AcDbPlaceHolder
  3
ObjectDBX Classes
 90
        0
280
     0
281
     0
  0
CLASS
  1
LAYOUT
  2
AcDbLayout
  3
ObjectDBX Classes
 90
        0
280
     0
281
     0
  0
ENDSEC
  0
SECTION
  2
TABLES
  0
TABLE
  2
VPORT
  5
8
102
{ACAD_XDICTIONARY
360
459
102
}
330
0
100
AcDbSymbolTable
 70
     1
  0
VPORT
  5
29
330
8
100
AcDbSymbolTableRecord
100
AcDbViewportTableRecord
  2
*ACTIVE
 70
     0
 10
0.0
 20
0.0
 11
1.0
 21
1.0
 12
420.0
 22
297.0
 13
0.0
 23
0.0
 14
10.0
 24
10.0
 15
10.0
 25
10.0
 16
0.0
 26
0.0
 36
1.0
 17
0.0
 27
0.0
 37
0.0
 40
554.0
 41
1.444043321299639
 42
50.0
 43
0.0
 44
0.0
 50
0.0
 51
0.0
 71
     0
 72
  1000
 73
     1
 74
     3
 75
     0
 76
     0
 77
     0
 78
     0
  0
ENDTAB
  0
TABLE
  2
LTYPE
  5
5
330
0
100
AcDbSymbolTable
 70
     7
  0
LTYPE
  5
14
330
5
100
AcDbSymbolTableRecord
100
AcDbLinetypeTableRecord
  2
BYBLOCK
 70
     0
  3

 72
    65
 73
     0
 40
0.0
  0
LTYPE
  5
15
330
5
100
AcDbSymbolTableRecord
100
AcDbLinetypeTableRecord
  2
BYLAYER
 70
     0
  3

 72
    65
 73
     0
 40
0.0
  0
LTYPE
  5
16
330
5
100
AcDbSymbolTableRecord
100
AcDbLinetypeTableRecord
  2
CONTINUOUS
 70
     0
  3
Solid line
 72
    65
 73
     0
 40
0.0
  0
LTYPE
  5
6E
330
5
100
AcDbSymbolTableRecord
100
AcDbLinetypeTableRecord
  2
EXLTYPE0
 70
     0
  3
破線
 72
    65
 73
     2
 40
4.0
 49
3.0
 74
     0
 49
-1.0
 74
     0
  0
LTYPE
  5
6F
330
5
100
AcDbSymbolTableRecord
100
AcDbLinetypeTableRecord
  2
EXLTYPE1
 70
     0
  3
点線
 72
    65
 73
     2
 40
2.0
 49
1.0
 74
     0
 49
-1.0
 74
     0
  0
LTYPE
  5
70
330
5
100
AcDbSymbolTableRecord
100
AcDbLinetypeTableRecord
  2
EXLTYPE2
 70
     0
  3
一点鎖線
 72
    65
 73
     4
 40
13.0
 49
10.0
 74
     0
 49
-1.0
 74
     0
 49
1.0
 74
     0
 49
-1.0
 74
     0
  0
LTYPE
  5
71
330
5
100
AcDbSymbolTableRecord
100
AcDbLinetypeTableRecord
  2
EXLTYPE3
 70
     0
  3
二点鎖線
 72
    65
 73
     6
 40
15.0
 49
10.0
 74
     0
 49
-1.0
 74
     0
 49
1.0
 74
     0
 49
-1.0
 74
     0
 49
1.0
 74
     0
 49
-1.0
 74
     0
  0
LTYPE
  5
72
330
5
100
AcDbSymbolTableRecord
100
AcDbLinetypeTableRecord
  2
EXLTYPE4
 70
     0
  3
一点鎖線2
 72
    65
 73
     4
 40
3.5
 49
2.0
 74
     0
 49
-0.5
 74
     0
 49
0.5
 74
     0
 49
-0.5
 74
     0
  0
LTYPE
  5
73
330
5
100
AcDbSymbolTableRecord
100
AcDbLinetypeTableRecord
  2
EXLTYPE5
 70
     0
  3
二点鎖線2
 72
    65
 73
     6
 40
4.5
 49
2.0
 74
     0
 49
-0.5
 74
     0
 49
0.5
 74
     0
 49
-0.5
 74
     0
 49
0.5
 74
     0
 49
-0.5
 74
     0
  0
ENDTAB
  0
TABLE
  2
LAYER
  5
2
330
0
100
AcDbSymbolTable
 70
     4
  0
LAYER
  5
10
330
2
100
AcDbSymbolTableRecord
100
AcDbLayerTableRecord
  2
0
 70
     0
 62
     7
  6
CONTINUOUS
  0
LAYER
  5
76
330
2
100
AcDbSymbolTableRecord
100
AcDbLayerTableRecord
  2
図面枠
 70
     4
 62
     7
  6
CONTINUOUS
  0
LAYER
  5
77
330
2
100
AcDbSymbolTableRecord
100
AcDbLayerTableRecord
  2
Ｓ_１_１
 70
     0
 62
     7
  6
CONTINUOUS
  0
LAYER
  5
3A9
330
2
100
AcDbSymbolTableRecord
100
AcDbLayerTableRecord
  2
DEFPOINTS
 70
     0
 62
     7
  6
CONTINUOUS
  0
ENDTAB
  0
TABLE
  2
STYLE
  5
3
330
0
100
AcDbSymbolTable
 70
     5
  0
STYLE
  5
11
330
3
100
AcDbSymbolTableRecord
100
AcDbTextStyleTableRecord
  2
STANDARD
 70
     0
 40
0.0
 41
1.0
 50
0.0
 71
     0
 42
2.5
  3
monotxt
  4
extfont
  0
STYLE
  5
74
330
3
100
AcDbSymbolTableRecord
100
AcDbTextStyleTableRecord
  2
EXCADSTD
 70
     0
 40
0.0
 41
1.0
 50
0.0
 71
     0
 42
2.5
  3
monotxt
  4
extfont
  0
STYLE
  5
75
330
3
100
AcDbSymbolTableRecord
100
AcDbTextStyleTableRecord
  2
EXCADVERT
 70
     4
 40
0.0
 41
1.0
 50
0.0
 71
     0
 42
2.5
  3
monotxt
  4
extfont
  0
STYLE
  5
DA
330
3
100
AcDbSymbolTableRecord
100
AcDbTextStyleTableRecord
  2
EXCADTTF1
 70
     0
 40
0.0
 41
1.0
 50
0.0
 71
     0
 42
2.5
  3
msgothic.ttc
  4

1001
ACAD
1000
MS Gothic
1071
    32817
  0
STYLE
  5
3A7
330
3
100
AcDbSymbolTableRecord
100
AcDbTextStyleTableRecord
  2
EXCADDIM1
 70
     0
 40
0.0
 41
1.0
 50
0.0
 71
     0
 42
2.5
  3
msgothic.ttc
  4

1001
ACAD
1000
MS Gothic
1071
    32817
  0
ENDTAB
  0
TABLE
  2
VIEW
  5
6
330
0
100
AcDbSymbolTable
 70
     0
  0
ENDTAB
  0
TABLE
  2
UCS
  5
7
330
0
100
AcDbSymbolTable
 70
     0
  0
ENDTAB
  0
TABLE
  2
APPID
  5
9
330
0
100
AcDbSymbolTable
 70
     2
  0
APPID
  5
12
330
9
100
AcDbSymbolTableRecord
100
AcDbRegAppTableRecord
  2
ACAD
 70
     0
  0
APPID
  5
463
330
9
100
AcDbSymbolTableRecord
100
AcDbRegAppTableRecord
  2
ACAD_MLEADERVER
 70
     0
  0
ENDTAB
  0
TABLE
  2
DIMSTYLE
  5
A
330
0
100
AcDbSymbolTable
 70
     1
  0
DIMSTYLE
105
27
102
{ACAD_REACTORS
330
3A8
330
3B6
330
3C3
330
3D0
330
3DD
330
3EC
330
3F9
330
406
330
413
330
420
102
}
330
A
100
AcDbSymbolTableRecord
100
AcDbDimStyleTableRecord
  2
ISO-25
 70
     0
  3

  4

  5

  6

  7

 40
1.0
 41
2.5
 42
0.625
 43
3.75
 44
1.25
 45
0.0
 46
0.0
 47
0.0
 48
0.0
140
2.5
141
2.5
142
0.0
143
0.03937007874016
144
1.0
145
0.0
146
1.0
147
0.625
 71
     0
 72
     0
 73
     0
 74
     0
 75
     0
 76
     0
 77
     1
 78
     8
170
     0
171
     3
172
     1
173
     0
174
     0
175
     0
176
     0
177
     0
178
     0
270
     2
271
     2
272
     2
273
     2
274
     3
340
11
275
     0
280
     0
281
     0
282
     0
283
     0
284
     8
285
     0
286
     0
287
     5
288
     0
  0
ENDTAB
  0
TABLE
  2
BLOCK_RECORD
  5
1
330
0
100
AcDbSymbolTable
 70
    24
  0
BLOCK_RECORD
  5
1F
330
1
100
AcDbSymbolTableRecord
100
AcDbBlockTableRecord
  2
*MODEL_SPACE
  0
BLOCK_RECORD
  5
1B
330
1
100
AcDbSymbolTableRecord
100
AcDbBlockTableRecord
  2
*PAPER_SPACE
  0
BLOCK_RECORD
  5
78
330
1
100
AcDbSymbolTableRecord
100
AcDbBlockTableRecord
  2
EX_NORM
  0
BLOCK_RECORD
  5
7B
330
1
100
AcDbSymbolTableRecord
100
AcDbBlockTableRecord
  2
EX_BNORM
  0
BLOCK_RECORD
  5
7E
330
1
100
AcDbSymbolTableRecord
100
AcDbBlockTableRecord
  2
EX_BCIR
  0
BLOCK_RECORD
  5
81
330
1
100
AcDbSymbolTableRecord
100
AcDbBlockTableRecord
  2
EX_RCIVIL
  0
BLOCK_RECORD
  5
84
330
1
100
AcDbSymbolTableRecord
100
AcDbBlockTableRecord
  2
EX_SLANT
  0
BLOCK_RECORD
  5
87
330
1
100
AcDbSymbolTableRecord
100
AcDbBlockTableRecord
  2
EX_NONE
  0
BLOCK_RECORD
  5
8A
330
1
100
AcDbSymbolTableRecord
100
AcDbBlockTableRecord
  2
EX_CIVIL
  0
BLOCK_RECORD
  5
8D
330
1
100
AcDbSymbolTableRecord
100
AcDbBlockTableRecord
  2
EX_WCIR
  0
BLOCK_RECORD
  5
90
330
1
100
AcDbSymbolTableRecord
100
AcDbBlockTableRecord
  2
EX_WCIR2
  0
BLOCK_RECORD
  5
93
330
1
100
AcDbSymbolTableRecord
100
AcDbBlockTableRecord
  2
EX_WNORM
  0
BLOCK_RECORD
  5
96
330
1
100
AcDbSymbolTableRecord
100
AcDbBlockTableRecord
  2
EX_NNORM
  0
BLOCK_RECORD
  5
99
330
1
100
AcDbSymbolTableRecord
100
AcDbBlockTableRecord
  2
EX_BBOX
  0
BLOCK_RECORD
  5
9C
330
1
100
AcDbSymbolTableRecord
100
AcDbBlockTableRecord
  2
EX_WBOX
  0
BLOCK_RECORD
  5
9F
330
1
100
AcDbSymbolTableRecord
100
AcDbBlockTableRecord
  2
EX_INTEGRAL
  0
BLOCK_RECORD
  5
3AA
330
1
100
AcDbSymbolTableRecord
100
AcDbBlockTableRecord
  2
*D15
  0
BLOCK_RECORD
  5
3B7
330
1
100
AcDbSymbolTableRecord
100
AcDbBlockTableRecord
  2
*D16
  0
BLOCK_RECORD
  5
3C4
330
1
100
AcDbSymbolTableRecord
100
AcDbBlockTableRecord
  2
*D17
  0
BLOCK_RECORD
  5
3D1
330
1
100
AcDbSymbolTableRecord
100
AcDbBlockTableRecord
  2
*D18
  0
BLOCK_RECORD
  5
3DE
330
1
100
AcDbSymbolTableRecord
100
AcDbBlockTableRecord
  2
*D19
  0
BLOCK_RECORD
  5
3ED
330
1
100
AcDbSymbolTableRecord
100
AcDbBlockTableRecord
  2
*D20
  0
BLOCK_RECORD
  5
3FA
330
1
100
AcDbSymbolTableRecord
100
AcDbBlockTableRecord
  2
*D21
  0
BLOCK_RECORD
  5
407
330
1
100
AcDbSymbolTableRecord
100
AcDbBlockTableRecord
  2
*D22
  0
BLOCK_RECORD
  5
414
330
1
100
AcDbSymbolTableRecord
100
AcDbBlockTableRecord
  2
*D23
  0
BLOCK_RECORD
  5
421
330
1
100
AcDbSymbolTableRecord
100
AcDbBlockTableRecord
  2
*D24
  0
ENDTAB
  0
ENDSEC
  0
SECTION
  2
BLOCKS
  0
BLOCK
  5
20
330
1F
100
AcDbEntity
  8
0
100
AcDbBlockBegin
  2
*MODEL_SPACE
 70
     0
 10
0.0
 20
0.0
 30
0.0
  3
*MODEL_SPACE
  1

  0
ENDBLK
  5
21
330
1F
100
AcDbEntity
  8
0
100
AcDbBlockEnd
  0
BLOCK
  5
1C
330
1B
100
AcDbEntity
 67
     1
  8
0
100
AcDbBlockBegin
  2
*PAPER_SPACE
 70
     0
 10
0.0
 20
0.0
 30
0.0
  3
*PAPER_SPACE
  1

  0
ENDBLK
  5
1D
330
1B
100
AcDbEntity
 67
     1
  8
0
100
AcDbBlockEnd
  0
BLOCK
  5
79
330
78
100
AcDbEntity
  8
0
100
AcDbBlockBegin
  2
EX_NORM
 70
     0
 10
0.0
 20
0.0
 30
0.0
  3
EX_NORM
  1

  0
LINE
  5
A2
330
78
100
AcDbEntity
  8
0
  6
CONTINUOUS
 62
     0
100
AcDbLine
 10
0.0
 20
0.0
 30
0.0
 11
-1.0
 21
0.0
 31
0.0
  0
LINE
  5
A3
330
78
100
AcDbEntity
  8
0
  6
CONTINUOUS
 62
     0
100
AcDbLine
 10
0.0
 20
0.0
 30
0.0
 11
-1.0
 21
0.166666667
 31
0.0
  0
LINE
  5
A4
330
78
100
AcDbEntity
  8
0
  6
CONTINUOUS
 62
     0
100
AcDbLine
 10
0.0
 20
0.0
 30
0.0
 11
-1.0
 21
-0.166666667
 31
0.0
  0
ENDBLK
  5
7A
330
78
100
AcDbEntity
  8
0
100
AcDbBlockEnd
  0
BLOCK
  5
7C
330
7B
100
AcDbEntity
  8
0
100
AcDbBlockBegin
  2
EX_BNORM
 70
     0
 10
0.0
 20
0.0
 30
0.0
  3
EX_BNORM
  1

  0
LINE
  5
A5
330
7B
100
AcDbEntity
  8
0
  6
CONTINUOUS
 62
     0
100
AcDbLine
 10
0.0
 20
0.0
 30
0.0
 11
-1.0
 21
0.0
 31
0.0
  0
LINE
  5
A6
330
7B
100
AcDbEntity
  8
0
  6
CONTINUOUS
 62
     0
100
AcDbLine
 10
0.0
 20
0.0
 30
0.0
 11
-1.0
 21
0.166666667
 31
0.0
  0
LINE
  5
A7
330
7B
100
AcDbEntity
  8
0
  6
CONTINUOUS
 62
     0
100
AcDbLine
 10
0.0
 20
0.0
 30
0.0
 11
-1.0
 21
-0.166666667
 31
0.0
  0
LINE
  5
A8
330
7B
100
AcDbEntity
  8
0
  6
CONTINUOUS
 62
     0
100
AcDbLine
 10
0.0
 20
0.0
 30
0.0
 11
-1.0
 21
0.083333333
 31
0.0
  0
LINE
  5
A9
330
7B
100
AcDbEntity
  8
0
  6
CONTINUOUS
 62
     0
100
AcDbLine
 10
0.0
 20
0.0
 30
0.0
 11
-1.0
 21
-0.083333333
 31
0.0
  0
LINE
  5
AA
330
7B
100
AcDbEntity
  8
0
  6
CONTINUOUS
 62
     0
100
AcDbLine
 10
-1.0
 20
0.166666667
 30
0.0
 11
-1.0
 21
-0.166666667
 31
0.0
  0
ENDBLK
  5
7D
330
7B
100
AcDbEntity
  8
0
100
AcDbBlockEnd
  0
BLOCK
  5
7F
330
7E
100
AcDbEntity
  8
0
100
AcDbBlockBegin
  2
EX_BCIR
 70
     0
 10
0.0
 20
0.0
 30
0.0
  3
EX_BCIR
  1

  0
LINE
  5
AB
330
7E
100
AcDbEntity
  8
0
  6
CONTINUOUS
 62
     0
100
AcDbLine
 10
0.0
 20
0.0
 30
0.0
 11
-1.0
 21
0.0
 31
0.0
  0
CIRCLE
  5
AC
330
7E
100
AcDbEntity
  8
0
  6
CONTINUOUS
 62
     0
100
AcDbCircle
 10
0.0
 20
0.0
 30
0.0
 40
0.5
  0
CIRCLE
  5
AD
330
7E
100
AcDbEntity
  8
0
  6
CONTINUOUS
 62
     0
100
AcDbCircle
 10
0.0
 20
0.0
 30
0.0
 40
0.25
  0
ENDBLK
  5
80
330
7E
100
AcDbEntity
  8
0
100
AcDbBlockEnd
  0
BLOCK
  5
82
330
81
100
AcDbEntity
  8
0
100
AcDbBlockBegin
  2
EX_RCIVIL
 70
     0
 10
0.0
 20
0.0
 30
0.0
  3
EX_RCIVIL
  1

  0
LINE
  5
AE
330
81
100
AcDbEntity
  8
0
  6
CONTINUOUS
 62
     0
100
AcDbLine
 10
0.0
 20
0.0
 30
0.0
 11
-1.0
 21
0.0
 31
0.0
  0
LINE
  5
AF
330
81
100
AcDbEntity
  8
0
  6
CONTINUOUS
 62
     0
100
AcDbLine
 10
-1.0
 20
-0.25
 30
0.0
 11
0.0
 21
-0.25
 31
0.0
  0
LINE
  5
B0
330
81
100
AcDbEntity
  8
0
  6
CONTINUOUS
 62
     0
100
AcDbLine
 10
-1.0
 20
-0.125
 30
0.0
 11
0.0
 21
-0.125
 31
0.0
  0
ENDBLK
  5
83
330
81
100
AcDbEntity
  8
0
100
AcDbBlockEnd
  0
BLOCK
  5
85
330
84
100
AcDbEntity
  8
0
100
AcDbBlockBegin
  2
EX_SLANT
 70
     0
 10
0.0
 20
0.0
 30
0.0
  3
EX_SLANT
  1

  0
LINE
  5
B1
330
84
100
AcDbEntity
  8
0
  6
CONTINUOUS
 62
     0
100
AcDbLine
 10
0.0
 20
0.0
 30
0.0
 11
-1.0
 21
0.0
 31
0.0
  0
LINE
  5
B2
330
84
100
AcDbEntity
  8
0
  6
CONTINUOUS
 62
     0
100
AcDbLine
 10
0.707106781
 20
0.707106781
 30
0.0
 11
-0.707106781
 21
-0.707106781
 31
0.0
  0
ENDBLK
  5
86
330
84
100
AcDbEntity
  8
0
100
AcDbBlockEnd
  0
BLOCK
  5
88
330
87
100
AcDbEntity
  8
0
100
AcDbBlockBegin
  2
EX_NONE
 70
     0
 10
0.0
 20
0.0
 30
0.0
  3
EX_NONE
  1

  0
LINE
  5
B3
330
87
100
AcDbEntity
  8
0
  6
CONTINUOUS
 62
     0
100
AcDbLine
 10
0.0
 20
0.0
 30
0.0
 11
-1.0
 21
0.0
 31
0.0
  0
ENDBLK
  5
89
330
87
100
AcDbEntity
  8
0
100
AcDbBlockEnd
  0
BLOCK
  5
8B
330
8A
100
AcDbEntity
  8
0
100
AcDbBlockBegin
  2
EX_CIVIL
 70
     0
 10
0.0
 20
0.0
 30
0.0
  3
EX_CIVIL
  1

  0
LINE
  5
B4
330
8A
100
AcDbEntity
  8
0
  6
CONTINUOUS
 62
     0
100
AcDbLine
 10
0.0
 20
0.0
 30
0.0
 11
-1.0
 21
0.0
 31
0.0
  0
LINE
  5
B5
330
8A
100
AcDbEntity
  8
0
  6
CONTINUOUS
 62
     0
100
AcDbLine
 10
-1.0
 20
0.25
 30
0.0
 11
0.0
 21
0.25
 31
0.0
  0
LINE
  5
B6
330
8A
100
AcDbEntity
  8
0
  6
CONTINUOUS
 62
     0
100
AcDbLine
 10
-1.0
 20
0.125
 30
0.0
 11
0.0
 21
0.125
 31
0.0
  0
ENDBLK
  5
8C
330
8A
100
AcDbEntity
  8
0
100
AcDbBlockEnd
  0
BLOCK
  5
8E
330
8D
100
AcDbEntity
  8
0
100
AcDbBlockBegin
  2
EX_WCIR
 70
     0
 10
0.0
 20
0.0
 30
0.0
  3
EX_WCIR
  1

  0
LINE
  5
B7
330
8D
100
AcDbEntity
  8
0
  6
CONTINUOUS
 62
     0
100
AcDbLine
 10
0.0
 20
0.0
 30
0.0
 11
-1.0
 21
0.0
 31
0.0
  0
CIRCLE
  5
B8
330
8D
100
AcDbEntity
  8
0
  6
CONTINUOUS
 62
     0
100
AcDbCircle
 10
0.0
 20
0.0
 30
0.0
 40
0.5
  0
ENDBLK
  5
8F
330
8D
100
AcDbEntity
  8
0
100
AcDbBlockEnd
  0
BLOCK
  5
91
330
90
100
AcDbEntity
  8
0
100
AcDbBlockBegin
  2
EX_WCIR2
 70
     0
 10
0.0
 20
0.0
 30
0.0
  3
EX_WCIR2
  1

  0
LINE
  5
B9
330
90
100
AcDbEntity
  8
0
  6
CONTINUOUS
 62
     0
100
AcDbLine
 10
-0.5
 20
0.0
 30
0.0
 11
-1.0
 21
0.0
 31
0.0
  0
CIRCLE
  5
BA
330
90
100
AcDbEntity
  8
0
  6
CONTINUOUS
 62
     0
100
AcDbCircle
 10
0.0
 20
0.0
 30
0.0
 40
0.5
  0
ENDBLK
  5
92
330
90
100
AcDbEntity
  8
0
100
AcDbBlockEnd
  0
BLOCK
  5
94
330
93
100
AcDbEntity
  8
0
100
AcDbBlockBegin
  2
EX_WNORM
 70
     0
 10
0.0
 20
0.0
 30
0.0
  3
EX_WNORM
  1

  0
LINE
  5
BB
330
93
100
AcDbEntity
  8
0
  6
CONTINUOUS
 62
     0
100
AcDbLine
 10
-1.0
 20
0.0
 30
0.0
 11
-1.0
 21
0.0
 31
0.0
  0
LINE
  5
BC
330
93
100
AcDbEntity
  8
0
  6
CONTINUOUS
 62
     0
100
AcDbLine
 10
0.0
 20
0.0
 30
0.0
 11
-1.0
 21
0.166666667
 31
0.0
  0
LINE
  5
BD
330
93
100
AcDbEntity
  8
0
  6
CONTINUOUS
 62
     0
100
AcDbLine
 10
0.0
 20
0.0
 30
0.0
 11
-1.0
 21
-0.166666667
 31
0.0
  0
LINE
  5
BE
330
93
100
AcDbEntity
  8
0
  6
CONTINUOUS
 62
     0
100
AcDbLine
 10
-1.0
 20
0.166666667
 30
0.0
 11
-1.0
 21
-0.166666667
 31
0.0
  0
ENDBLK
  5
95
330
93
100
AcDbEntity
  8
0
100
AcDbBlockEnd
  0
BLOCK
  5
97
330
96
100
AcDbEntity
  8
0
100
AcDbBlockBegin
  2
EX_NNORM
 70
     0
 10
0.0
 20
0.0
 30
0.0
  3
EX_NNORM
  1

  0
LINE
  5
BF
330
96
100
AcDbEntity
  8
0
  6
CONTINUOUS
 62
     0
100
AcDbLine
 10
0.0
 20
0.0
 30
0.0
 11
-1.0
 21
0.0
 31
0.0
  0
LINE
  5
C0
330
96
100
AcDbEntity
  8
0
  6
CONTINUOUS
 62
     0
100
AcDbLine
 10
0.0
 20
0.0
 30
0.0
 11
-1.0
 21
0.166666667
 31
0.0
  0
LINE
  5
C1
330
96
100
AcDbEntity
  8
0
  6
CONTINUOUS
 62
     0
100
AcDbLine
 10
0.0
 20
0.0
 30
0.0
 11
-1.0
 21
-0.166666667
 31
0.0
  0
LINE
  5
C2
330
96
100
AcDbEntity
  8
0
  6
CONTINUOUS
 62
     0
100
AcDbLine
 10
-1.0
 20
0.166666667
 30
0.0
 11
-1.0
 21
-0.166666667
 31
0.0
  0
ENDBLK
  5
98
330
96
100
AcDbEntity
  8
0
100
AcDbBlockEnd
  0
BLOCK
  5
9A
330
99
100
AcDbEntity
  8
0
100
AcDbBlockBegin
  2
EX_BBOX
 70
     0
 10
0.0
 20
0.0
 30
0.0
  3
EX_BBOX
  1

  0
LINE
  5
C3
330
99
100
AcDbEntity
  8
0
  6
CONTINUOUS
 62
     0
100
AcDbLine
 10
0.0
 20
0.0
 30
0.0
 11
-1.0
 21
0.0
 31
0.0
  0
LINE
  5
C4
330
99
100
AcDbEntity
  8
0
  6
CONTINUOUS
 62
     0
100
AcDbLine
 10
-0.5
 20
0.5
 30
0.0
 11
0.5
 21
0.5
 31
0.0
  0
LINE
  5
C5
330
99
100
AcDbEntity
  8
0
  6
CONTINUOUS
 62
     0
100
AcDbLine
 10
0.5
 20
0.5
 30
0.0
 11
0.5
 21
-0.5
 31
0.0
  0
LINE
  5
C6
330
99
100
AcDbEntity
  8
0
  6
CONTINUOUS
 62
     0
100
AcDbLine
 10
0.5
 20
-0.5
 30
0.0
 11
-0.5
 21
-0.5
 31
0.0
  0
LINE
  5
C7
330
99
100
AcDbEntity
  8
0
  6
CONTINUOUS
 62
     0
100
AcDbLine
 10
-0.5
 20
-0.5
 30
0.0
 11
-0.5
 21
0.5
 31
0.0
  0
LINE
  5
C8
330
99
100
AcDbEntity
  8
0
  6
CONTINUOUS
 62
     0
100
AcDbLine
 10
-0.25
 20
0.25
 30
0.0
 11
0.25
 21
0.25
 31
0.0
  0
LINE
  5
C9
330
99
100
AcDbEntity
  8
0
  6
CONTINUOUS
 62
     0
100
AcDbLine
 10
0.25
 20
0.25
 30
0.0
 11
0.25
 21
-0.25
 31
0.0
  0
LINE
  5
CA
330
99
100
AcDbEntity
  8
0
  6
CONTINUOUS
 62
     0
100
AcDbLine
 10
0.25
 20
-0.25
 30
0.0
 11
-0.25
 21
-0.25
 31
0.0
  0
LINE
  5
CB
330
99
100
AcDbEntity
  8
0
  6
CONTINUOUS
 62
     0
100
AcDbLine
 10
-0.25
 20
-0.25
 30
0.0
 11
-0.25
 21
0.25
 31
0.0
  0
ENDBLK
  5
9B
330
99
100
AcDbEntity
  8
0
100
AcDbBlockEnd
  0
BLOCK
  5
9D
330
9C
100
AcDbEntity
  8
0
100
AcDbBlockBegin
  2
EX_WBOX
 70
     0
 10
0.0
 20
0.0
 30
0.0
  3
EX_WBOX
  1

  0
LINE
  5
CC
330
9C
100
AcDbEntity
  8
0
  6
CONTINUOUS
 62
     0
100
AcDbLine
 10
-0.5
 20
0.0
 30
0.0
 11
-1.0
 21
0.0
 31
0.0
  0
LINE
  5
CD
330
9C
100
AcDbEntity
  8
0
  6
CONTINUOUS
 62
     0
100
AcDbLine
 10
-0.5
 20
0.5
 30
0.0
 11
0.5
 21
0.5
 31
0.0
  0
LINE
  5
CE
330
9C
100
AcDbEntity
  8
0
  6
CONTINUOUS
 62
     0
100
AcDbLine
 10
0.5
 20
0.5
 30
0.0
 11
0.5
 21
-0.5
 31
0.0
  0
LINE
  5
CF
330
9C
100
AcDbEntity
  8
0
  6
CONTINUOUS
 62
     0
100
AcDbLine
 10
0.5
 20
-0.5
 30
0.0
 11
-0.5
 21
-0.5
 31
0.0
  0
LINE
  5
D0
330
9C
100
AcDbEntity
  8
0
  6
CONTINUOUS
 62
     0
100
AcDbLine
 10
-0.5
 20
-0.5
 30
0.0
 11
-0.5
 21
0.5
 31
0.0
  0
ENDBLK
  5
9E
330
9C
100
AcDbEntity
  8
0
100
AcDbBlockEnd
  0
BLOCK
  5
A0
330
9F
100
AcDbEntity
  8
0
100
AcDbBlockBegin
  2
EX_INTEGRAL
 70
     0
 10
0.0
 20
0.0
 30
0.0
  3
EX_INTEGRAL
  1

  0
LINE
  5
D1
330
9F
100
AcDbEntity
  8
0
  6
CONTINUOUS
 62
     0
100
AcDbLine
 10
0.0
 20
0.0
 30
0.0
 11
-1.0
 21
0.0
 31
0.0
  0
ARC
  5
D2
330
9F
100
AcDbEntity
  8
0
  6
CONTINUOUS
 62
     0
100
AcDbCircle
 10
0.542115
 20
0.164992
 30
0.0
 40
0.56667
100
AcDbArc
 50
73.07249033629006
 51
196.9275130221199
  0
ARC
  5
D3
330
9F
100
AcDbEntity
  8
0
  6
CONTINUOUS
 62
     0
100
AcDbCircle
 10
-0.542115
 20
-0.164992
 30
0.0
 40
0.56667
100
AcDbArc
 50
253.0724869220464
 51
16.9275130559125
  0
ENDBLK
  5
A1
330
9F
100
AcDbEntity
  8
0
100
AcDbBlockEnd
  0
BLOCK
  5
3AB
330
3AA
100
AcDbEntity
  8
0
100
AcDbBlockBegin
  2
*D15
 70
     1
 10
0.0
 20
0.0
 30
0.0
  3
*D15
  1

  0
LINE
  5
3AD
330
3AA
100
AcDbEntity
  8
Ｓ_１_１
  6
CONTINUOUS
 62
     2
100
AcDbLine
 10
600.00000000002
 20
322.499999
 30
0.0
 11
600.00000000002
 21
446.0
 31
0.0
  0
LINE
  5
3AE
330
3AA
100
AcDbEntity
  8
Ｓ_１_１
  6
CONTINUOUS
 62
     2
100
AcDbLine
 10
549.99999999999
 20
411.65000762937
 30
0.0
 11
549.99999999999
 21
446.0
 31
0.0
  0
LINE
  5
3AF
330
3AA
100
AcDbEntity
  8
Ｓ_１_１
  6
CONTINUOUS
 62
     2
100
AcDbLine
 10
594.00000000002
 20
444.0
 30
0.0
 11
555.99999999999
 21
444.0
 31
0.0
  0
INSERT
  5
3B0
330
3AA
100
AcDbEntity
  8
Ｓ_１_１
 62
     2
100
AcDbBlockReference
  2
EX_NORM
 10
600.00000000002
 20
444.0
 30
0.0
 41
6.0
 42
6.0
 43
6.0
  0
INSERT
  5
3B1
330
3AA
100
AcDbEntity
  8
Ｓ_１_１
 62
     2
100
AcDbBlockReference
  2
EX_NORM
 10
549.99999999999
 20
444.0
 30
0.0
 41
6.0
 42
6.0
 43
6.0
 50
180.0
  0
MTEXT
  5
3B2
330
3AA
100
AcDbEntity
  8
Ｓ_１_１
 62
     2
100
AcDbMText
 10
575.000000000005
 20
449.5
 30
0.0
 40
6.92580831408776
 41
0.0
 71
     5
 72
     1
  1
50
  7
EXCADDIM1
  0
POINT
  5
3B3
330
3AA
100
AcDbEntity
  8
DEFPOINTS
 62
     0
100
AcDbPoint
 10
600.00000000002
 20
319.499999
 30
0.0
  0
POINT
  5
3B4
330
3AA
100
AcDbEntity
  8
DEFPOINTS
 62
     0
100
AcDbPoint
 10
549.99999999999
 20
408.65000762937
 30
0.0
  0
POINT
  5
3B5
330
3AA
100
AcDbEntity
  8
DEFPOINTS
 62
     0
100
AcDbPoint
 10
549.99999999999
 20
444.0
 30
0.0
  0
ENDBLK
  5
3AC
330
3AA
100
AcDbEntity
  8
0
100
AcDbBlockEnd
  0
BLOCK
  5
3B8
330
3B7
100
AcDbEntity
  8
0
100
AcDbBlockBegin
  2
*D16
 70
     1
 10
0.0
 20
0.0
 30
0.0
  3
*D16
  1

  0
LINE
  5
3BA
330
3B7
100
AcDbEntity
  8
Ｓ_１_１
  6
CONTINUOUS
 62
     2
100
AcDbLine
 10
549.99999999999
 20
411.65000762937
 30
0.0
 11
549.99999999999
 21
446.0
 31
0.0
  0
LINE
  5
3BB
330
3B7
100
AcDbEntity
  8
Ｓ_１_１
  6
CONTINUOUS
 62
     2
100
AcDbLine
 10
493.00000000002
 20
419.36217248358
 30
0.0
 11
493.00000000002
 21
446.0
 31
0.0
  0
LINE
  5
3BC
330
3B7
100
AcDbEntity
  8
Ｓ_１_１
  6
CONTINUOUS
 62
     2
100
AcDbLine
 10
543.99999999999
 20
444.0
 30
0.0
 11
499.00000000002
 21
444.0
 31
0.0
  0
INSERT
  5
3BD
330
3B7
100
AcDbEntity
  8
Ｓ_１_１
 62
     2
100
AcDbBlockReference
  2
EX_NORM
 10
549.99999999999
 20
444.0
 30
0.0
 41
6.0
 42
6.0
 43
6.0
  0
INSERT
  5
3BE
330
3B7
100
AcDbEntity
  8
Ｓ_１_１
 62
     2
100
AcDbBlockReference
  2
EX_NORM
 10
493.00000000002
 20
444.0
 30
0.0
 41
6.0
 42
6.0
 43
6.0
 50
180.0
  0
MTEXT
  5
3BF
330
3B7
100
AcDbEntity
  8
Ｓ_１_１
 62
     2
100
AcDbMText
 10
521.500000000005
 20
449.5
 30
0.0
 40
6.92580831408776
 41
0.0
 71
     5
 72
     1
  1
57
  7
EXCADDIM1
  0
POINT
  5
3C0
330
3B7
100
AcDbEntity
  8
DEFPOINTS
 62
     0
100
AcDbPoint
 10
549.99999999999
 20
408.65000762937
 30
0.0
  0
POINT
  5
3C1
330
3B7
100
AcDbEntity
  8
DEFPOINTS
 62
     0
100
AcDbPoint
 10
493.00000000002
 20
416.36217248358
 30
0.0
  0
POINT
  5
3C2
330
3B7
100
AcDbEntity
  8
DEFPOINTS
 62
     0
100
AcDbPoint
 10
493.00000000002
 20
444.0
 30
0.0
  0
ENDBLK
  5
3B9
330
3B7
100
AcDbEntity
  8
0
100
AcDbBlockEnd
  0
BLOCK
  5
3C5
330
3C4
100
AcDbEntity
  8
0
100
AcDbBlockBegin
  2
*D17
 70
     1
 10
0.0
 20
0.0
 30
0.0
  3
*D17
  1

  0
LINE
  5
3C7
330
3C4
100
AcDbEntity
  8
Ｓ_１_１
  6
CONTINUOUS
 62
     2
100
AcDbLine
 10
493.00000000002
 20
419.36217248358
 30
0.0
 11
493.00000000002
 21
446.0
 31
0.0
  0
LINE
  5
3C8
330
3C4
100
AcDbEntity
  8
Ｓ_１_１
  6
CONTINUOUS
 62
     2
100
AcDbLine
 10
456.00000000002
 20
321.2
 30
0.0
 11
456.00000000002
 21
446.0
 31
0.0
  0
LINE
  5
3C9
330
3C4
100
AcDbEntity
  8
Ｓ_１_１
  6
CONTINUOUS
 62
     2
100
AcDbLine
 10
487.00000000002
 20
444.0
 30
0.0
 11
462.00000000002
 21
444.0
 31
0.0
  0
INSERT
  5
3CA
330
3C4
100
AcDbEntity
  8
Ｓ_１_１
 62
     2
100
AcDbBlockReference
  2
EX_NORM
 10
493.00000000002
 20
444.0
 30
0.0
 41
6.0
 42
6.0
 43
6.0
  0
INSERT
  5
3CB
330
3C4
100
AcDbEntity
  8
Ｓ_１_１
 62
     2
100
AcDbBlockReference
  2
EX_NORM
 10
456.00000000002
 20
444.0
 30
0.0
 41
6.0
 42
6.0
 43
6.0
 50
180.0
  0
MTEXT
  5
3CC
330
3C4
100
AcDbEntity
  8
Ｓ_１_１
 62
     2
100
AcDbMText
 10
474.50000000002
 20
449.5
 30
0.0
 40
6.92580831408776
 41
0.0
 71
     5
 72
     1
  1
37
  7
EXCADDIM1
  0
POINT
  5
3CD
330
3C4
100
AcDbEntity
  8
DEFPOINTS
 62
     0
100
AcDbPoint
 10
493.00000000002
 20
416.36217248358
 30
0.0
  0
POINT
  5
3CE
330
3C4
100
AcDbEntity
  8
DEFPOINTS
 62
     0
100
AcDbPoint
 10
456.00000000002
 20
318.2
 30
0.0
  0
POINT
  5
3CF
330
3C4
100
AcDbEntity
  8
DEFPOINTS
 62
     0
100
AcDbPoint
 10
456.00000000002
 20
444.0
 30
0.0
  0
ENDBLK
  5
3C6
330
3C4
100
AcDbEntity
  8
0
100
AcDbBlockEnd
  0
BLOCK
  5
3D2
330
3D1
100
AcDbEntity
  8
0
100
AcDbBlockBegin
  2
*D18
 70
     1
 10
0.0
 20
0.0
 30
0.0
  3
*D18
  1

  0
LINE
  5
3D4
330
3D1
100
AcDbEntity
  8
Ｓ_１_１
  6
CONTINUOUS
 62
     2
100
AcDbLine
 10
600.00000000002
 20
133.500001
 30
0.0
 11
600.00000000002
 21
106.0
 31
0.0
  0
LINE
  5
3D5
330
3D1
100
AcDbEntity
  8
Ｓ_１_１
  6
CONTINUOUS
 62
     2
100
AcDbLine
 10
456.00000000002
 20
133.49999
 30
0.0
 11
456.00000000002
 21
106.0
 31
0.0
  0
LINE
  5
3D6
330
3D1
100
AcDbEntity
  8
Ｓ_１_１
  6
CONTINUOUS
 62
     2
100
AcDbLine
 10
594.00000000002
 20
108.0
 30
0.0
 11
462.00000000002
 21
108.0
 31
0.0
  0
INSERT
  5
3D7
330
3D1
100
AcDbEntity
  8
Ｓ_１_１
 62
     2
100
AcDbBlockReference
  2
EX_NORM
 10
600.00000000002
 20
108.0
 30
0.0
 41
6.0
 42
6.0
 43
6.0
  0
INSERT
  5
3D8
330
3D1
100
AcDbEntity
  8
Ｓ_１_１
 62
     2
100
AcDbBlockReference
  2
EX_NORM
 10
456.00000000002
 20
108.0
 30
0.0
 41
6.0
 42
6.0
 43
6.0
 50
180.0
  0
MTEXT
  5
3D9
330
3D1
100
AcDbEntity
  8
Ｓ_１_１
 62
     2
100
AcDbMText
 10
528.00000000002
 20
113.5
 30
0.0
 40
6.92580831408776
 41
0.0
 71
     5
 72
     1
  1
144
  7
EXCADDIM1
  0
POINT
  5
3DA
330
3D1
100
AcDbEntity
  8
DEFPOINTS
 62
     0
100
AcDbPoint
 10
600.00000000002
 20
136.500001
 30
0.0
  0
POINT
  5
3DB
330
3D1
100
AcDbEntity
  8
DEFPOINTS
 62
     0
100
AcDbPoint
 10
456.00000000002
 20
136.49999
 30
0.0
  0
POINT
  5
3DC
330
3D1
100
AcDbEntity
  8
DEFPOINTS
 62
     0
100
AcDbPoint
 10
456.00000000002
 20
108.0
 30
0.0
  0
ENDBLK
  5
3D3
330
3D1
100
AcDbEntity
  8
0
100
AcDbBlockEnd
  0
BLOCK
  5
3DF
330
3DE
100
AcDbEntity
  8
0
100
AcDbBlockBegin
  2
*D19
 70
     1
 10
0.0
 20
0.0
 30
0.0
  3
*D19
  1

  0
LINE
  5
3E1
330
3DE
100
AcDbEntity
  8
Ｓ_１_１
  6
CONTINUOUS
 62
     2
100
AcDbLine
 10
456.00000000002
 20
133.49999
 30
0.0
 11
456.00000000002
 21
106.0
 31
0.0
  0
LINE
  5
3E2
330
3DE
100
AcDbEntity
  8
Ｓ_１_１
  6
CONTINUOUS
 62
     2
100
AcDbLine
 10
445.00000700001
 20
173.00000000001
 30
0.0
 11
445.00000700001
 21
106.0
 31
0.0
  0
LINE
  5
3E3
330
3DE
100
AcDbEntity
  8
Ｓ_１_１
  6
CONTINUOUS
 62
     2
100
AcDbLine
 10
456.00000000002
 20
108.0
 30
0.0
 11
445.00000700001
 21
108.0
 31
0.0
  0
LINE
  5
3E4
330
3DE
100
AcDbEntity
  8
Ｓ_１_１
  6
CONTINUOUS
 62
     2
100
AcDbLine
 10
462.00000000002
 20
108.0
 30
0.0
 11
468.00000000002
 21
108.0
 31
0.0
  0
LINE
  5
3E5
330
3DE
100
AcDbEntity
  8
Ｓ_１_１
  6
CONTINUOUS
 62
     2
100
AcDbLine
 10
439.00000700001
 20
108.0
 30
0.0
 11
433.00000700001
 21
108.0
 31
0.0
  0
INSERT
  5
3E6
330
3DE
100
AcDbEntity
  8
Ｓ_１_１
 62
     2
100
AcDbBlockReference
  2
EX_NORM
 10
456.00000000002
 20
108.0
 30
0.0
 41
6.0
 42
6.0
 43
6.0
 50
180.0
  0
INSERT
  5
3E7
330
3DE
100
AcDbEntity
  8
Ｓ_１_１
 62
     2
100
AcDbBlockReference
  2
EX_NORM
 10
445.00000700001
 20
108.0
 30
0.0
 41
6.0
 42
6.0
 43
6.0
  0
MTEXT
  5
3E8
330
3DE
100
AcDbEntity
  8
Ｓ_１_１
 62
     2
100
AcDbMText
 10
434.50000700001
 20
113.4999999999999
 30
0.0
 40
6.92580831408776
 41
0.0
 71
     5
 72
     1
  1
11
  7
EXCADDIM1
  0
POINT
  5
3E9
330
3DE
100
AcDbEntity
  8
DEFPOINTS
 62
     0
100
AcDbPoint
 10
456.00000000002
 20
136.49999
 30
0.0
  0
POINT
  5
3EA
330
3DE
100
AcDbEntity
  8
DEFPOINTS
 62
     0
100
AcDbPoint
 10
445.00000700001
 20
176.00000000001
 30
0.0
  0
POINT
  5
3EB
330
3DE
100
AcDbEntity
  8
DEFPOINTS
 62
     0
100
AcDbPoint
 10
445.00000700001
 20
108.0
 30
0.0
  0
ENDBLK
  5
3E0
330
3DE
100
AcDbEntity
  8
0
100
AcDbBlockEnd
  0
BLOCK
  5
3EE
330
3ED
100
AcDbEntity
  8
0
100
AcDbBlockBegin
  2
*D20
 70
     1
 10
0.0
 20
0.0
 30
0.0
  3
*D20
  1

  0
LINE
  5
3F0
330
3ED
100
AcDbEntity
  8
Ｓ_１_１
  6
CONTINUOUS
 62
     2
100
AcDbLine
 10
445.00000700001
 20
173.00000000001
 30
0.0
 11
445.00000700001
 21
94.0
 31
0.0
  0
LINE
  5
3F1
330
3ED
100
AcDbEntity
  8
Ｓ_１_１
  6
CONTINUOUS
 62
     2
100
AcDbLine
 10
600.00000000002
 20
133.500001
 30
0.0
 11
600.00000000002
 21
94.0
 31
0.0
  0
LINE
  5
3F2
330
3ED
100
AcDbEntity
  8
Ｓ_１_１
  6
CONTINUOUS
 62
     2
100
AcDbLine
 10
451.00000700001
 20
96.0
 30
0.0
 11
594.00000000002
 21
96.0
 31
0.0
  0
INSERT
  5
3F3
330
3ED
100
AcDbEntity
  8
Ｓ_１_１
 62
     2
100
AcDbBlockReference
  2
EX_NORM
 10
445.00000700001
 20
96.0
 30
0.0
 41
6.0
 42
6.0
 43
6.0
 50
180.0
  0
INSERT
  5
3F4
330
3ED
100
AcDbEntity
  8
Ｓ_１_１
 62
     2
100
AcDbBlockReference
  2
EX_NORM
 10
600.00000000002
 20
96.0
 30
0.0
 41
6.0
 42
6.0
 43
6.0
  0
MTEXT
  5
3F5
330
3ED
100
AcDbEntity
  8
Ｓ_１_１
 62
     2
100
AcDbMText
 10
522.500003500015
 20
101.5
 30
0.0
 40
6.92580831408776
 41
0.0
 71
     5
 72
     1
  1
155
  7
EXCADDIM1
  0
POINT
  5
3F6
330
3ED
100
AcDbEntity
  8
DEFPOINTS
 62
     0
100
AcDbPoint
 10
445.00000700001
 20
176.00000000001
 30
0.0
  0
POINT
  5
3F7
330
3ED
100
AcDbEntity
  8
DEFPOINTS
 62
     0
100
AcDbPoint
 10
600.00000000002
 20
136.500001
 30
0.0
  0
POINT
  5
3F8
330
3ED
100
AcDbEntity
  8
DEFPOINTS
 62
     0
100
AcDbPoint
 10
600.00000000002
 20
96.0
 30
0.0
  0
ENDBLK
  5
3EF
330
3ED
100
AcDbEntity
  8
0
100
AcDbBlockEnd
  0
BLOCK
  5
3FB
330
3FA
100
AcDbEntity
  8
0
100
AcDbBlockBegin
  2
*D21
 70
     1
 10
0.0
 20
0.0
 30
0.0
  3
*D21
  1

  0
LINE
  5
3FD
330
3FA
100
AcDbEntity
  8
Ｓ_１_１
  6
CONTINUOUS
 62
     2
100
AcDbLine
 10
442.5000070000001
 20
280.500000000001
 30
0.0
 11
405.9999999999999
 21
280.500000000001
 31
0.0
  0
LINE
  5
3FE
330
3FA
100
AcDbEntity
  8
Ｓ_１_１
  6
CONTINUOUS
 62
     2
100
AcDbLine
 10
442.5000070000001
 20
175.4999999999991
 30
0.0
 11
405.9999999999999
 21
175.4999999999991
 31
0.0
  0
LINE
  5
3FF
330
3FA
100
AcDbEntity
  8
Ｓ_１_１
  6
CONTINUOUS
 62
     2
100
AcDbLine
 10
408.0
 20
274.500000000001
 30
0.0
 11
408.0
 21
181.4999999999991
 31
0.0
  0
INSERT
  5
400
330
3FA
100
AcDbEntity
  8
Ｓ_１_１
 62
     2
100
AcDbBlockReference
  2
EX_NORM
 10
408.0
 20
280.500000000001
 30
0.0
 41
6.0
 42
6.0
 43
6.0
 50
90.0
  0
INSERT
  5
401
330
3FA
100
AcDbEntity
  8
Ｓ_１_１
 62
     2
100
AcDbBlockReference
  2
EX_NORM
 10
408.0
 20
175.4999999999991
 30
0.0
 41
6.0
 42
6.0
 43
6.0
 50
270.0
  0
MTEXT
  5
402
330
3FA
100
AcDbEntity
  8
Ｓ_１_１
 62
     2
100
AcDbMText
 10
402.5
 20
228.0000000000001
 30
0.0
 40
6.92580831408776
 41
0.0
 71
     5
 72
     1
  1
%%c105
  7
EXCADDIM1
 11
0.0
 21
1.0
 31
0.0
  0
POINT
  5
403
330
3FA
100
AcDbEntity
  8
DEFPOINTS
 62
     0
100
AcDbPoint
 10
445.5000070000001
 20
280.500000000001
 30
0.0
  0
POINT
  5
404
330
3FA
100
AcDbEntity
  8
DEFPOINTS
 62
     0
100
AcDbPoint
 10
445.5000070000001
 20
175.4999999999991
 30
0.0
  0
POINT
  5
405
330
3FA
100
AcDbEntity
  8
DEFPOINTS
 62
     0
100
AcDbPoint
 10
408.0
 20
175.4999999999991
 30
0.0
  0
ENDBLK
  5
3FC
330
3FA
100
AcDbEntity
  8
0
100
AcDbBlockEnd
  0
BLOCK
  5
408
330
407
100
AcDbEntity
  8
0
100
AcDbBlockBegin
  2
*D22
 70
     1
 10
0.0
 20
0.0
 30
0.0
  3
*D22
  1

  0
LINE
  5
40A
330
407
100
AcDbEntity
  8
Ｓ_１_１
  6
CONTINUOUS
 62
     2
100
AcDbLine
 10
602.0
 20
320.500000000001
 30
0.0
 11
638.0
 21
320.500000000001
 31
0.0
  0
LINE
  5
40B
330
407
100
AcDbEntity
  8
Ｓ_１_１
  6
CONTINUOUS
 62
     2
100
AcDbLine
 10
602.0
 20
135.4999999999991
 30
0.0
 11
638.0
 21
135.4999999999991
 31
0.0
  0
LINE
  5
40C
330
407
100
AcDbEntity
  8
Ｓ_１_１
  6
CONTINUOUS
 62
     2
100
AcDbLine
 10
636.0
 20
314.500000000001
 30
0.0
 11
636.0
 21
141.4999999999991
 31
0.0
  0
INSERT
  5
40D
330
407
100
AcDbEntity
  8
Ｓ_１_１
 62
     2
100
AcDbBlockReference
  2
EX_NORM
 10
636.0
 20
320.500000000001
 30
0.0
 41
6.0
 42
6.0
 43
6.0
 50
90.0
  0
INSERT
  5
40E
330
407
100
AcDbEntity
  8
Ｓ_１_１
 62
     2
100
AcDbBlockReference
  2
EX_NORM
 10
636.0
 20
135.4999999999991
 30
0.0
 41
6.0
 42
6.0
 43
6.0
 50
270.0
  0
MTEXT
  5
40F
330
407
100
AcDbEntity
  8
Ｓ_１_１
 62
     2
100
AcDbMText
 10
630.5
 20
228.0000000000001
 30
0.0
 40
6.92580831408776
 41
0.0
 71
     5
 72
     1
  1
%%c185
  7
EXCADDIM1
 11
0.0
 21
1.0
 31
0.0
  0
POINT
  5
410
330
407
100
AcDbEntity
  8
DEFPOINTS
 62
     0
100
AcDbPoint
 10
599.0
 20
320.500000000001
 30
0.0
  0
POINT
  5
411
330
407
100
AcDbEntity
  8
DEFPOINTS
 62
     0
100
AcDbPoint
 10
599.0
 20
135.4999999999991
 30
0.0
  0
POINT
  5
412
330
407
100
AcDbEntity
  8
DEFPOINTS
 62
     0
100
AcDbPoint
 10
636.0
 20
135.4999999999991
 30
0.0
  0
ENDBLK
  5
409
330
407
100
AcDbEntity
  8
0
100
AcDbBlockEnd
  0
BLOCK
  5
415
330
414
100
AcDbEntity
  8
0
100
AcDbBlockBegin
  2
*D23
 70
     1
 10
0.0
 20
0.0
 30
0.0
  3
*D23
  1

  0
LINE
  5
417
330
414
100
AcDbEntity
  8
Ｓ_１_１
  6
CONTINUOUS
 62
     2
100
AcDbLine
 10
109.94260479341
 20
259.00000000002
 30
0.0
 11
109.94260479341
 21
446.0
 31
0.0
  0
LINE
  5
418
330
414
100
AcDbEntity
  8
Ｓ_１_１
  6
CONTINUOUS
 62
     2
100
AcDbLine
 10
370.05739520667
 20
259.00000000002
 30
0.0
 11
370.05739520667
 21
446.0
 31
0.0
  0
LINE
  5
419
330
414
100
AcDbEntity
  8
Ｓ_１_１
  6
CONTINUOUS
 62
     2
100
AcDbLine
 10
115.94260479341
 20
444.0
 30
0.0
 11
364.05739520667
 21
444.0
 31
0.0
  0
INSERT
  5
41A
330
414
100
AcDbEntity
  8
Ｓ_１_１
 62
     2
100
AcDbBlockReference
  2
EX_NORM
 10
109.94260479341
 20
444.0
 30
0.0
 41
6.0
 42
6.0
 43
6.0
 50
180.0
  0
INSERT
  5
41B
330
414
100
AcDbEntity
  8
Ｓ_１_１
 62
     2
100
AcDbBlockReference
  2
EX_NORM
 10
370.05739520667
 20
444.0
 30
0.0
 41
6.0
 42
6.0
 43
6.0
  0
MTEXT
  5
41C
330
414
100
AcDbEntity
  8
Ｓ_１_１
 62
     2
100
AcDbMText
 10
240.00000000004
 20
449.5
 30
0.0
 40
6.92580831408776
 41
0.0
 71
     5
 72
     1
  1
(260)
  7
EXCADDIM1
  0
POINT
  5
41D
330
414
100
AcDbEntity
  8
DEFPOINTS
 62
     0
100
AcDbPoint
 10
109.94260479341
 20
256.00000000002
 30
0.0
  0
POINT
  5
41E
330
414
100
AcDbEntity
  8
DEFPOINTS
 62
     0
100
AcDbPoint
 10
370.05739520667
 20
256.00000000002
 30
0.0
  0
POINT
  5
41F
330
414
100
AcDbEntity
  8
DEFPOINTS
 62
     0
100
AcDbPoint
 10
370.05739520667
 20
444.0
 30
0.0
  0
ENDBLK
  5
416
330
414
100
AcDbEntity
  8
0
100
AcDbBlockEnd
  0
BLOCK
  5
422
330
421
100
AcDbEntity
  8
0
100
AcDbBlockBegin
  2
*D24
 70
     1
 10
0.0
 20
0.0
 30
0.0
  3
*D24
  1

  0
LINE
  5
424
330
421
100
AcDbEntity
  8
Ｓ_１_１
  6
CONTINUOUS
 62
     2
100
AcDbLine
 10
602.0
 20
320.5
 30
0.0
 11
638.0
 21
320.5
 31
0.0
  0
LINE
  5
425
330
421
100
AcDbEntity
  8
Ｓ_１_１
  6
CONTINUOUS
 62
     2
100
AcDbLine
 10
565.09500296447
 20
405.86226351741
 30
0.0
 11
638.0
 21
405.86226351741
 31
0.0
  0
LINE
  5
426
330
421
100
AcDbEntity
  8
Ｓ_１_１
  6
CONTINUOUS
 62
     2
100
AcDbLine
 10
636.0
 20
326.5
 30
0.0
 11
636.0
 21
399.86226351741
 31
0.0
  0
INSERT
  5
427
330
421
100
AcDbEntity
  8
Ｓ_１_１
 62
     2
100
AcDbBlockReference
  2
EX_NORM
 10
636.0
 20
320.5
 30
0.0
 41
6.0
 42
6.0
 43
6.0
 50
270.0
  0
INSERT
  5
428
330
421
100
AcDbEntity
  8
Ｓ_１_１
 62
     2
100
AcDbBlockReference
  2
EX_NORM
 10
636.0
 20
405.86226351741
 30
0.0
 41
6.0
 42
6.0
 43
6.0
 50
90.0
  0
MTEXT
  5
429
330
421
100
AcDbEntity
  8
Ｓ_１_１
 62
     2
100
AcDbMText
 10
630.5
 20
363.181131758705
 30
0.0
 40
6.92580831408776
 41
0.0
 71
     5
 72
     1
  1
(85)
  7
EXCADDIM1
 11
0.0
 21
1.0
 31
0.0
  0
POINT
  5
42A
330
421
100
AcDbEntity
  8
DEFPOINTS
 62
     0
100
AcDbPoint
 10
599.0
 20
320.5
 30
0.0
  0
POINT
  5
42B
330
421
100
AcDbEntity
  8
DEFPOINTS
 62
     0
100
AcDbPoint
 10
562.09500296447
 20
405.86226351741
 30
0.0
  0
POINT
  5
42C
330
421
100
AcDbEntity
  8
DEFPOINTS
 62
     0
100
AcDbPoint
 10
636.0
 20
405.86226351741
 30
0.0
  0
ENDBLK
  5
423
330
421
100
AcDbEntity
  8
0
100
AcDbBlockEnd
  0
ENDSEC
  0
SECTION
  2
ENTITIES
  0
LINE
  5
D4
330
1F
100
AcDbEntity
  8
図面枠
  6
CONTINUOUS
 62
     5
100
AcDbLine
 10
20.0
 20
20.0
 30
0.0
 11
820.0
 21
20.0
 31
0.0
  0
LINE
  5
D5
330
1F
100
AcDbEntity
  8
図面枠
  6
CONTINUOUS
 62
     5
100
AcDbLine
 10
820.0
 20
20.0
 30
0.0
 11
820.0
 21
574.0
 31
0.0
  0
LINE
  5
D6
330
1F
100
AcDbEntity
  8
図面枠
  6
CONTINUOUS
 62
     5
100
AcDbLine
 10
820.0
 20
574.0
 30
0.0
 11
20.0000000000001
 21
574.0
 31
0.0
  0
LINE
  5
D7
330
1F
100
AcDbEntity
  8
図面枠
  6
CONTINUOUS
 62
     5
100
AcDbLine
 10
20.0000000000001
 20
574.0
 30
0.0
 11
20.0
 21
20.0
 31
0.0
  0
LINE
  5
D8
330
1F
100
AcDbEntity
  8
図面枠
  6
CONTINUOUS
 62
     3
100
AcDbLine
 10
30.00000000000004
 20
564.0
 30
0.0
 11
30.00000000000004
 21
546.0
 31
0.0
  0
LINE
  5
D9
330
1F
100
AcDbEntity
  8
図面枠
  6
CONTINUOUS
 62
     3
100
AcDbLine
 10
810.0
 20
48.0
 30
0.0
 11
810.0
 21
30.0
 31
0.0
  0
TEXT
  5
DB
330
1F
100
AcDbEntity
  8
図面枠
  6
CONTINUOUS
 62
     4
100
AcDbText
 10
774.0
 20
542.765625
 30
0.0
 40
6.92580831408776
  1
kN
 41
0.9992307692307693
  7
EXCADTTF1
 72
     5
 11
783.0
 21
542.765625
 31
0.0
100
AcDbText
  0
TEXT
  5
DC
330
1F
100
AcDbEntity
  8
図面枠
  6
CONTINUOUS
 62
     4
100
AcDbText
 10
654.0
 20
542.765625
 30
0.0
 40
6.92580831408776
  1
能力
 41
0.9992307692307693
  7
EXCADTTF1
 72
     5
 11
672.0
 21
542.765625
 31
0.0
100
AcDbText
  0
TEXT
  5
DD
330
1F
100
AcDbEntity
  8
図面枠
  6
CONTINUOUS
 62
     4
100
AcDbText
 10
707.5
 20
554.765625
 30
0.0
 40
6.92580831408776
  1
仕　　　様
 41
0.9992307692307693
  7
EXCADTTF1
 72
     5
 11
752.5
 21
554.765625
 31
0.0
100
AcDbText
  0
LINE
  5
DE
330
1F
100
AcDbEntity
  8
図面枠
  6
CONTINUOUS
 62
     3
100
AcDbLine
 10
650.0
 20
564.0
 30
0.0
 11
810.0
 21
564.0
 31
0.0
  0
LINE
  5
DF
330
1F
100
AcDbEntity
  8
図面枠
  6
CONTINUOUS
 62
     3
100
AcDbLine
 10
650.0
 20
552.0
 30
0.0
 11
810.0
 21
552.0
 31
0.0
  0
TEXT
  5
E0
330
1F
100
AcDbEntity
  8
図面枠
  6
CONTINUOUS
 62
     4
100
AcDbText
 10
748.0
 20
542.765625
 30
0.0
 40
6.92580831408776
  1
1000
 41
0.9992307692307693
  7
EXCADTTF1
 72
     5
 11
766.0
 21
542.765625
 31
0.0
100
AcDbText
  0
TEXT
  5
E1
330
1F
100
AcDbEntity
  8
図面枠
  6
CONTINUOUS
 62
     4
100
AcDbText
 10
774.0
 20
530.765625
 30
0.0
 40
6.92580831408776
  1
mm
 41
0.9992307692307693
  7
EXCADTTF1
 72
     5
 11
783.0
 21
530.765625
 31
0.0
100
AcDbText
  0
TEXT
  5
E2
330
1F
100
AcDbEntity
  8
図面枠
  6
CONTINUOUS
 62
     4
100
AcDbText
 10
774.0
 20
518.765625
 30
0.0
 40
6.92580831408776
  1
mm
 41
0.9992307692307693
  7
EXCADTTF1
 72
     5
 11
783.0
 21
518.765625
 31
0.0
100
AcDbText
  0
TEXT
  5
E3
330
1F
100
AcDbEntity
  8
図面枠
  6
CONTINUOUS
 62
     4
100
AcDbText
 10
774.0
 20
506.765625
 30
0.0
 40
6.92580831408776
  1
mm
 41
0.9992307692307693
  7
EXCADTTF1
 72
     5
 11
783.0
 21
506.765625
 31
0.0
100
AcDbText
  0
TEXT
  5
E4
330
1F
100
AcDbEntity
  8
図面枠
  6
CONTINUOUS
 62
     4
100
AcDbText
 10
774.0
 20
494.765625
 30
0.0
 40
6.92580831408776
  1
mm
 41
0.9992307692307693
  7
EXCADTTF1
 72
     5
 11
783.0
 21
494.765625
 31
0.0
100
AcDbText
  0
TEXT
  5
E5
330
1F
100
AcDbEntity
  8
図面枠
  6
CONTINUOUS
 62
     4
100
AcDbText
 10
774.0
 20
482.765625
 30
0.0
 40
6.92580831408776
  1
mm
 41
0.9992307692307693
  7
EXCADTTF1
 72
     5
 11
783.0
 21
482.765625
 31
0.0
100
AcDbText
  0
TEXT
  5
E6
330
1F
100
AcDbEntity
  8
図面枠
  6
CONTINUOUS
 62
     4
100
AcDbText
 10
774.0
 20
458.765625
 30
0.0
 40
6.92580831408776
  1
MPa
 41
0.9992307692307694
  7
EXCADTTF1
 72
     5
 11
787.5
 21
458.765625
 31
0.0
100
AcDbText
  0
TEXT
  5
E7
330
1F
100
AcDbEntity
  8
図面枠
  6
CONTINUOUS
 62
     4
100
AcDbText
 10
654.0
 20
530.765625
 30
0.0
 40
6.92580831408776
  1
ストローク
 41
0.9992307692307693
  7
EXCADTTF1
 72
     5
 11
699.0
 21
530.765625
 31
0.0
100
AcDbText
  0
TEXT
  5
E8
330
1F
100
AcDbEntity
  8
図面枠
  6
CONTINUOUS
 62
     4
100
AcDbText
 10
654.0
 20
518.765625
 30
0.0
 40
6.92580831408776
  1
最低機械高
 41
0.9992307692307693
  7
EXCADTTF1
 72
     5
 11
699.0
 21
518.765625
 31
0.0
100
AcDbText
  0
TEXT
  5
E9
330
1F
100
AcDbEntity
  8
図面枠
  6
CONTINUOUS
 62
     4
100
AcDbText
 10
654.0
 20
506.765625
 30
0.0
 40
6.92580831408776
  1
シリンダー外径
 41
0.9992307692307691
  7
EXCADTTF1
 72
     5
 11
717.0
 21
506.765625
 31
0.0
100
AcDbText
  0
TEXT
  5
EA
330
1F
100
AcDbEntity
  8
図面枠
  6
CONTINUOUS
 62
     4
100
AcDbText
 10
654.0
 20
494.765625
 30
0.0
 40
6.92580831408776
  1
ヘッド径
 41
0.9992307692307693
  7
EXCADTTF1
 72
     5
 11
690.0
 21
494.765625
 31
0.0
100
AcDbText
  0
TEXT
  5
EB
330
1F
100
AcDbEntity
  8
図面枠
  6
CONTINUOUS
 62
     4
100
AcDbText
 10
654.0
 20
482.765625
 30
0.0
 40
6.92580831408776
  1
ピストン径
 41
0.9992307692307693
  7
EXCADTTF1
 72
     5
 11
699.0
 21
482.765625
 31
0.0
100
AcDbText
  0
TEXT
  5
EC
330
1F
100
AcDbEntity
  8
図面枠
  6
CONTINUOUS
 62
     4
100
AcDbText
 10
654.0
 20
470.765625
 30
0.0
 40
6.92580831408776
  1
受圧面積
 41
0.9992307692307693
  7
EXCADTTF1
 72
     5
 11
690.0
 21
470.765625
 31
0.0
100
AcDbText
  0
TEXT
  5
ED
330
1F
100
AcDbEntity
  8
図面枠
  6
CONTINUOUS
 62
     4
100
AcDbText
 10
654.0
 20
458.765625
 30
0.0
 40
6.92580831408776
  1
最高使用圧力
 41
0.9992307692307693
  7
EXCADTTF1
 72
     5
 11
708.0
 21
458.765625
 31
0.0
100
AcDbText
  0
LINE
  5
EE
330
1F
100
AcDbEntity
  8
図面枠
  6
CONTINUOUS
 62
     2
100
AcDbLine
 10
650.0
 20
540.0
 30
0.0
 11
810.0
 21
540.0
 31
0.0
  0
LINE
  5
EF
330
1F
100
AcDbEntity
  8
図面枠
  6
CONTINUOUS
 62
     2
100
AcDbLine
 10
650.0
 20
528.0
 30
0.0
 11
810.0
 21
528.0
 31
0.0
  0
LINE
  5
F0
330
1F
100
AcDbEntity
  8
図面枠
  6
CONTINUOUS
 62
     2
100
AcDbLine
 10
650.0
 20
516.0
 30
0.0
 11
810.0
 21
516.0
 31
0.0
  0
LINE
  5
F1
330
1F
100
AcDbEntity
  8
図面枠
  6
CONTINUOUS
 62
     2
100
AcDbLine
 10
650.0
 20
504.0
 30
0.0
 11
810.0
 21
504.0
 31
0.0
  0
LINE
  5
F2
330
1F
100
AcDbEntity
  8
図面枠
  6
CONTINUOUS
 62
     2
100
AcDbLine
 10
650.0
 20
492.0
 30
0.0
 11
810.0
 21
492.0
 31
0.0
  0
LINE
  5
F3
330
1F
100
AcDbEntity
  8
図面枠
  6
CONTINUOUS
 62
     2
100
AcDbLine
 10
650.0
 20
480.0
 30
0.0
 11
810.0
 21
480.0
 31
0.0
  0
LINE
  5
F4
330
1F
100
AcDbEntity
  8
図面枠
  6
CONTINUOUS
 62
     2
100
AcDbLine
 10
650.0
 20
468.0
 30
0.0
 11
810.0
 21
468.0
 31
0.0
  0
TEXT
  5
F5
330
1F
100
AcDbEntity
  8
図面枠
  6
CONTINUOUS
 62
     4
100
AcDbText
 10
752.5
 20
482.765625
 30
0.0
 40
6.92580831408776
  1
145
 41
0.9992307692307694
  7
EXCADTTF1
 72
     5
 11
766.0
 21
482.765625
 31
0.0
100
AcDbText
  0
TEXT
  5
F6
330
1F
100
AcDbEntity
  8
図面枠
  6
CONTINUOUS
 62
     4
100
AcDbText
 10
748.0
 20
458.765625
 30
0.0
 40
6.92580831408776
  1
60.6
 41
0.9992307692307693
  7
EXCADTTF1
 72
     5
 11
766.0
 21
458.765625
 31
0.0
100
AcDbText
  0
TEXT
  5
F7
330
1F
100
AcDbEntity
  8
図面枠
  6
CONTINUOUS
 62
     4
100
AcDbText
 10
743.5
 20
470.765625
 30
0.0
 40
6.92580831408776
  1
165.1
 41
0.9992307692307693
  7
EXCADTTF1
 72
     5
 11
766.0
 21
470.765625
 31
0.0
100
AcDbText
  0
TEXT
  5
F8
330
1F
100
AcDbEntity
  8
図面枠
  6
CONTINUOUS
 62
     4
100
AcDbText
 10
757.0
 20
530.765625
 30
0.0
 40
6.92580831408776
  1
60
 41
0.9992307692307693
  7
EXCADTTF1
 72
     5
 11
766.0
 21
530.765625
 31
0.0
100
AcDbText
  0
TEXT
  5
F9
330
1F
100
AcDbEntity
  8
図面枠
  6
CONTINUOUS
 62
     4
100
AcDbText
 10
752.5
 20
506.765625
 30
0.0
 40
6.92580831408776
  1
185
 41
0.9992307692307694
  7
EXCADTTF1
 72
     5
 11
766.0
 21
506.765625
 31
0.0
100
AcDbText
  0
TEXT
  5
FA
330
1F
100
AcDbEntity
  8
図面枠
  6
CONTINUOUS
 62
     4
100
AcDbText
 10
774.0
 20
434.765625
 30
0.0
 40
6.92580831408776
  1
kg
 41
0.9992307692307693
  7
EXCADTTF1
 72
     5
 11
783.0
 21
434.765625
 31
0.0
100
AcDbText
  0
TEXT
  5
FB
330
1F
100
AcDbEntity
  8
図面枠
  6
CONTINUOUS
 62
     4
100
AcDbText
 10
654.0
 20
446.765625
 30
0.0
 40
6.92580831408776
  1
所要油量
 41
0.9992307692307693
  7
EXCADTTF1
 72
     5
 11
690.0
 21
446.765625
 31
0.0
100
AcDbText
  0
TEXT
  5
FC
330
1F
100
AcDbEntity
  8
図面枠
  6
CONTINUOUS
 62
     4
100
AcDbText
 10
654.0
 20
434.765625
 30
0.0
 40
6.92580831408776
  1
重量
 41
0.9992307692307693
  7
EXCADTTF1
 72
     5
 11
672.0
 21
434.765625
 31
0.0
100
AcDbText
  0
LINE
  5
FD
330
1F
100
AcDbEntity
  8
図面枠
  6
CONTINUOUS
 62
     2
100
AcDbLine
 10
650.0
 20
456.0
 30
0.0
 11
810.0
 21
456.0
 31
0.0
  0
LINE
  5
FE
330
1F
100
AcDbEntity
  8
図面枠
  6
CONTINUOUS
 62
     2
100
AcDbLine
 10
650.0
 20
444.0
 30
0.0
 11
810.0
 21
444.0
 31
0.0
  0
TEXT
  5
FF
330
1F
100
AcDbEntity
  8
図面枠
  6
CONTINUOUS
 62
     4
100
AcDbText
 10
774.0000000000001
 20
470.765625
 30
0.0
 40
6.92580831408776
  1
cm
 41
0.9992307692307693
  7
EXCADTTF1
 72
     5
 11
783.0000000000001
 21
470.765625
 31
0.0
100
AcDbText
  0
TEXT
  5
100
330
1F
100
AcDbEntity
  8
図面枠
  6
CONTINUOUS
 62
     4
100
AcDbText
 10
780.3000000000001
 20
475.0195313170552
 30
0.0
 40
3.116613521173975
  1
2
 41
0.9992308398189645
  7
EXCADTTF1
 72
     5
 11
782.325
 21
475.0195313170552
 31
0.0
100
AcDbText
  0
LINE
  5
101
330
1F
100
AcDbEntity
  8
図面枠
  6
CONTINUOUS
 62
     3
100
AcDbLine
 10
650.0
 20
408.0
 30
0.0
 11
810.0
 21
408.0
 31
0.0
  0
LINE
  5
102
330
1F
100
AcDbEntity
  8
図面枠
  6
CONTINUOUS
 62
     2
100
AcDbLine
 10
730.0
 20
420.0
 30
0.0
 11
810.0
 21
420.0
 31
0.0
  0
TEXT
  5
103
330
1F
100
AcDbEntity
  8
図面枠
  6
CONTINUOUS
 62
     4
100
AcDbText
 10
774.0
 20
410.765625
 30
0.0
 40
6.92580831408776
  1
%%%
 41
0.9992307692307693
  7
EXCADTTF1
 72
     5
 11
778.5
 21
410.765625
 31
0.0
100
AcDbText
  0
TEXT
  5
104
330
1F
100
AcDbEntity
  8
図面枠
  6
CONTINUOUS
 62
     4
100
AcDbText
 10
774.0
 20
422.765625
 30
0.0
 40
6.92580831408776
  1
°
 41
0.9992307692307693
  7
EXCADTTF1
 72
     5
 11
783.0
 21
422.765625
 31
0.0
100
AcDbText
  0
LINE
  5
105
330
1F
100
AcDbEntity
  8
図面枠
  6
CONTINUOUS
 62
     3
100
AcDbLine
 10
650.0
 20
564.0
 30
0.0
 11
650.0
 21
408.0
 31
0.0
  0
LINE
  5
106
330
1F
100
AcDbEntity
  8
図面枠
  6
CONTINUOUS
 62
     2
100
AcDbLine
 10
730.0
 20
552.0
 30
0.0
 11
730.0
 21
408.0
 31
0.0
  0
LINE
  5
107
330
1F
100
AcDbEntity
  8
図面枠
  6
CONTINUOUS
 62
     2
100
AcDbLine
 10
770.0
 20
552.0
 30
0.0
 11
770.0
 21
408.0
 31
0.0
  0
LINE
  5
108
330
1F
100
AcDbEntity
  8
図面枠
  6
CONTINUOUS
 62
     3
100
AcDbLine
 10
810.0
 20
564.0
 30
0.0
 11
810.0
 21
408.0
 31
0.0
  0
LINE
  5
109
330
1F
100
AcDbEntity
  8
図面枠
  6
CONTINUOUS
 62
     2
100
AcDbLine
 10
650.0
 20
432.0
 30
0.0
 11
810.0
 21
432.0
 31
0.0
  0
TEXT
  5
10A
330
1F
100
AcDbEntity
  8
図面枠
  6
CONTINUOUS
 62
     4
100
AcDbText
 10
752.5
 20
422.765625
 30
0.0
 40
6.92580831408776
  1
±3
 41
0.9992307692307694
  7
EXCADTTF1
 72
     5
 11
766.0
 21
422.765625
 31
0.0
100
AcDbText
  0
TEXT
  5
10B
330
1F
100
AcDbEntity
  8
図面枠
  6
CONTINUOUS
 62
     4
100
AcDbText
 10
752.5
 20
410.765625
 30
0.0
 40
6.92580831408776
  1
±5
 41
0.9992307692307694
  7
EXCADTTF1
 72
     5
 11
766.0
 21
410.765625
 31
0.0
100
AcDbText
  0
TEXT
  5
10C
330
1F
100
AcDbEntity
  8
図面枠
  6
CONTINUOUS
 62
     4
100
AcDbText
 10
654.0
 20
422.765625
 30
0.0
 40
6.92580831408776
  1
ユニバーサル
 41
0.9992307692307693
  7
EXCADTTF1
 72
     5
 11
708.0
 21
422.765625
 31
0.0
100
AcDbText
  0
TEXT
  5
10D
330
1F
100
AcDbEntity
  8
図面枠
  6
CONTINUOUS
 62
     4
100
AcDbText
 10
654.0
 20
413.765625
 30
0.0
 40
6.92580831408776
  1
振り角
 41
0.9992307692307694
  7
EXCADTTF1
 72
     5
 11
681.0
 21
413.765625
 31
0.0
100
AcDbText
  0
LINE
  5
10E
330
1F
100
AcDbEntity
  8
図面枠
  6
CONTINUOUS
 62
     3
100
AcDbLine
 10
732.0
 20
48.0
 30
0.0
 11
732.0
 21
30.0
 31
0.0
  0
LINE
  5
10F
330
1F
100
AcDbEntity
  8
図面枠
  6
CONTINUOUS
 62
     3
100
AcDbLine
 10
732.0
 20
48.0
 30
0.0
 11
810.0
 21
48.0
 31
0.0
  0
LINE
  5
110
330
1F
100
AcDbEntity
  8
図面枠
  6
CONTINUOUS
 62
     3
100
AcDbLine
 10
732.0
 20
30.0
 30
0.0
 11
810.0
 21
30.0
 31
0.0
  0
TEXT
  5
111
330
1F
100
AcDbEntity
  8
図面枠
  6
CONTINUOUS
 62
     4
100
AcDbText
 10
752.5
 20
518.765625
 30
0.0
 40
6.92580831408776
  1
155
 41
0.9992307692307694
  7
EXCADTTF1
 72
     5
 11
766.0
 21
518.765625
 31
0.0
100
AcDbText
  0
TEXT
  5
112
330
1F
100
AcDbEntity
  8
図面枠
  6
CONTINUOUS
 62
     4
100
AcDbText
 10
748.0
 20
434.765625
 30
0.0
 40
6.92580831408776
  1
約30
 41
0.9992307692307693
  7
EXCADTTF1
 72
     5
 11
766.0
 21
434.765625
 31
0.0
100
AcDbText
  0
TEXT
  5
113
330
1F
100
AcDbEntity
  8
図面枠
  6
CONTINUOUS
 62
     4
100
AcDbText
 10
752.5
 20
494.765625
 30
0.0
 40
6.92580831408776
  1
105
 41
0.9992307692307694
  7
EXCADTTF1
 72
     5
 11
766.0
 21
494.765625
 31
0.0
100
AcDbText
  0
TEXT
  5
114
330
1F
100
AcDbEntity
  8
図面枠
  6
CONTINUOUS
 62
     4
100
AcDbText
 10
748.0
 20
446.765625
 30
0.0
 40
6.92580831408776
  1
0.99
 41
0.9992307692307693
  7
EXCADTTF1
 72
     5
 11
766.0
 21
446.765625
 31
0.0
100
AcDbText
  0
TEXT
  5
115
330
1F
100
AcDbEntity
  8
図面枠
  6
CONTINUOUS
 62
     4
100
AcDbText
 10
774.0
 20
446.765625
 30
0.0
 40
6.92580831408776
  1
L
 41
0.9992307692307693
  7
EXCADTTF1
 72
     5
 11
778.5
 21
446.765625
 31
0.0
100
AcDbText
  0
TEXT
  5
116
330
1F
100
AcDbEntity
  8
図面枠
  6
CONTINUOUS
 62
     4
100
AcDbText
 10
36.00000000000004
 20
550.6875
 30
0.0
 40
9.234411085450347
  1
1000kN60ストローク油圧ジャッキ　ユニバーサルヘッド付き　取手脱着型
 41
0.9992307692307689
  7
EXCADTTF1
 72
     5
 11
432.0000000000001
 21
550.6875
 31
0.0
100
AcDbText
  0
LINE
  5
117
330
1F
100
AcDbEntity
  8
図面枠
  6
CONTINUOUS
 62
     3
100
AcDbLine
 10
438.0000000000001
 20
564.0
 30
0.0
 11
438.0000000000001
 21
546.0
 31
0.0
  0
LINE
  5
118
330
1F
100
AcDbEntity
  8
図面枠
  6
CONTINUOUS
 62
     3
100
AcDbLine
 10
30.00000000000004
 20
564.0
 30
0.0
 11
438.0000000000001
 21
564.0
 31
0.0
  0
LINE
  5
119
330
1F
100
AcDbEntity
  8
図面枠
  6
CONTINUOUS
 62
     3
100
AcDbLine
 10
30.00000000000004
 20
546.0
 30
0.0
 11
438.0000000000001
 21
546.0
 31
0.0
  0
TEXT
  5
11A
330
1F
100
AcDbEntity
  8
図面枠
  6
CONTINUOUS
 62
     4
100
AcDbText
 10
738.0
 20
34.6875
 30
0.0
 40
9.234411085450347
  1
OTV-1006-UC
 41
0.9992307692307695
  7
EXCADTTF1
 72
     5
 11
804.0
 21
34.6875
 31
0.0
100
AcDbText
  0
LINE
  5
11B
330
1F
100
AcDbEntity
  8
Ｓ_１_１
  6
EXLTYPE2
 62
     1
100
AcDbLine
 10
438.0
 20
228.000000000001
 30
0.0
 11
606.2994443111401
 21
228.000000000001
 31
0.0
  0
CIRCLE
  5
11C
330
1F
100
AcDbEntity
  8
Ｓ_１_１
  6
CONTINUOUS
 62
     3
100
AcDbCircle
 10
240.00000000004
 20
298.000000000021
 30
0.0
 40
3.000000000000002
  0
CIRCLE
  5
11D
330
1F
100
AcDbEntity
  8
Ｓ_１_１
  6
CONTINUOUS
 62
     3
100
AcDbCircle
 10
240.00000000004
 20
158.0000000000211
 30
0.0
 40
3.000000000000002
  0
CIRCLE
  5
11E
330
1F
100
AcDbEntity
  8
Ｓ_１_１
  6
CONTINUOUS
 62
     3
100
AcDbCircle
 10
240.00000000004
 20
228.0000000000211
 30
0.0
 40
79.0
  0
CIRCLE
  5
11F
330
1F
100
AcDbEntity
  8
Ｓ_１_１
  6
CONTINUOUS
 62
     3
100
AcDbCircle
 10
240.00000000004
 20
228.0000000000211
 30
0.0
 40
23.00000000000002
  0
CIRCLE
  5
120
330
1F
100
AcDbEntity
  8
Ｓ_１_１
  6
CONTINUOUS
 62
     3
100
AcDbCircle
 10
240.00000000004
 20
228.0000000000211
 30
0.0
 40
27.00000000000002
  0
CIRCLE
  5
121
330
1F
100
AcDbEntity
  8
Ｓ_１_１
  6
CONTINUOUS
 62
     3
100
AcDbCircle
 10
240.00000000004
 20
228.0000000000211
 30
0.0
 40
38.00000400000001
  0
CIRCLE
  5
122
330
1F
100
AcDbEntity
  8
Ｓ_１_１
  6
CONTINUOUS
 62
     3
100
AcDbCircle
 10
240.00000000004
 20
228.0000000000211
 30
0.0
 40
42.0
  0
CIRCLE
  5
123
330
1F
100
AcDbEntity
  8
Ｓ_１_１
  6
CONTINUOUS
 62
     3
100
AcDbCircle
 10
240.00000000004
 20
228.0000000000211
 30
0.0
 40
8.0
  0
CIRCLE
  5
124
330
1F
100
AcDbEntity
  8
Ｓ_１_１
  6
CONTINUOUS
 62
     3
100
AcDbCircle
 10
240.00000000004
 20
228.0000000000211
 30
0.0
 40
9.0
  0
CIRCLE
  5
125
330
1F
100
AcDbEntity
  8
Ｓ_１_１
  6
CONTINUOUS
 62
     3
100
AcDbCircle
 10
240.00000000004
 20
228.0000000000211
 30
0.0
 40
14.000001
  0
LINE
  5
126
330
1F
100
AcDbEntity
  8
Ｓ_１_１
  6
CONTINUOUS
 62
     3
100
AcDbLine
 10
245.7735150000401
 20
227.9999960000211
 30
0.0
 11
242.8867660000401
 21
223.0000000000211
 31
0.0
  0
LINE
  5
127
330
1F
100
AcDbEntity
  8
Ｓ_１_１
  6
CONTINUOUS
 62
     3
100
AcDbLine
 10
242.88674900004
 20
223.0000000000211
 30
0.0
 11
237.11325100004
 21
223.0000000000211
 31
0.0
  0
LINE
  5
128
330
1F
100
AcDbEntity
  8
Ｓ_１_１
  6
CONTINUOUS
 62
     3
100
AcDbLine
 10
237.11326500004
 20
223.0000010000211
 30
0.0
 11
234.22651200004
 21
228.0000040000211
 31
0.0
  0
LINE
  5
129
330
1F
100
AcDbEntity
  8
Ｓ_１_１
  6
CONTINUOUS
 62
     3
100
AcDbLine
 10
234.22651200004
 20
228.0000000000211
 30
0.0
 11
237.11326100004
 21
232.9999960000211
 31
0.0
  0
LINE
  5
12A
330
1F
100
AcDbEntity
  8
Ｓ_１_１
  6
CONTINUOUS
 62
     3
100
AcDbLine
 10
242.88674900004
 20
233.0000000000211
 30
0.0
 11
237.11325100004
 21
233.0000000000211
 31
0.0
  0
LINE
  5
12B
330
1F
100
AcDbEntity
  8
Ｓ_１_１
  6
CONTINUOUS
 62
     3
100
AcDbLine
 10
245.7735190000401
 20
228.0000010000211
 30
0.0
 11
242.8867660000401
 21
233.0000040000211
 31
0.0
  0
CIRCLE
  5
12C
330
1F
100
AcDbEntity
  8
Ｓ_１_１
  6
EXLTYPE2
 62
     1
100
AcDbCircle
 10
240.00000000004
 20
228.0000000000211
 30
0.0
 40
70.0
  0
CIRCLE
  5
12D
330
1F
100
AcDbEntity
  8
Ｓ_１_１
  6
EXLTYPE2
 62
     1
100
AcDbCircle
 10
240.00000000004
 20
228.0000000000211
 30
0.0
 40
40.0
  0
CIRCLE
  5
12E
330
1F
100
AcDbEntity
  8
Ｓ_１_１
  6
EXLTYPE2
 62
     1
100
AcDbCircle
 10
240.00000000004
 20
228.0000000000211
 30
0.0
 40
25.00000000000002
  0
CIRCLE
  5
12F
330
1F
100
AcDbEntity
  8
Ｓ_１_１
  6
CONTINUOUS
 62
     3
100
AcDbCircle
 10
240.00000000004
 20
228.0000000000201
 30
0.0
 40
52.49999199999996
  0
CIRCLE
  5
130
330
1F
100
AcDbEntity
  8
Ｓ_１_１
  6
CONTINUOUS
 62
     3
100
AcDbCircle
 10
240.00000000004
 20
228.0000000000201
 30
0.0
 40
51.49999199999996
  0
CIRCLE
  5
131
330
1F
100
AcDbEntity
  8
Ｓ_１_１
  6
CONTINUOUS
 62
     3
100
AcDbCircle
 10
240.00000000004
 20
228.0000000000211
 30
0.0
 40
78.0
  0
CIRCLE
  5
132
330
1F
100
AcDbEntity
  8
Ｓ_１_１
  6
CONTINUOUS
 62
     3
100
AcDbCircle
 10
240.0000000000398
 20
228.0000000000201
 30
0.0
 40
53.55661960193999
  0
CIRCLE
  5
133
330
1F
100
AcDbEntity
  8
Ｓ_１_１
  6
CONTINUOUS
 62
     3
100
AcDbCircle
 10
240.0000000000398
 20
228.0000000000201
 30
0.0
 40
57.49999200000003
  0
LINE
  5
134
330
1F
100
AcDbEntity
  8
Ｓ_１_１
  6
CONTINUOUS
 62
     3
100
AcDbLine
 10
160.1912314419988
 20
274.763345274381
 30
0.0
 11
193.2366547256802
 21
307.8087685580625
 31
0.0
  0
LINE
  5
135
330
1F
100
AcDbEntity
  8
Ｓ_１_１
  6
CONTINUOUS
 62
     3
100
AcDbLine
 10
193.236654725679
 20
148.1912314419789
 30
0.0
 11
160.1912314419974
 21
181.2366547256603
 31
0.0
  0
ARC
  5
136
330
1F
100
AcDbEntity
  8
Ｓ_１_１
  6
CONTINUOUS
 62
     3
100
AcDbCircle
 10
240.00000000004
 20
228.0000000000211
 30
0.0
 40
92.50000000000007
100
AcDbArc
 50
148.7589628602176
 51
211.2410371397821
  0
ARC
  5
137
330
1F
100
AcDbEntity
  8
Ｓ_１_１
  6
CONTINUOUS
 62
     3
100
AcDbCircle
 10
240.00000000004
 20
228.0000000000211
 30
0.0
 40
91.50000000000007
100
AcDbArc
 50
147.0015222585137
 51
212.9984777414908
  0
LINE
  5
138
330
1F
100
AcDbEntity
  8
Ｓ_１_１
  6
CONTINUOUS
 62
     3
100
AcDbLine
 10
286.7633452744012
 20
148.1912314419789
 30
0.0
 11
319.8087685580826
 21
181.2366547256603
 31
0.0
  0
ARC
  5
139
330
1F
100
AcDbEntity
  8
Ｓ_１_１
  6
CONTINUOUS
 62
     3
100
AcDbCircle
 10
240.00000000004
 20
228.0000000000211
 30
0.0
 40
92.50000000000007
100
AcDbArc
 50
238.7589628602175
 51
301.2410371397826
  0
ARC
  5
13A
330
1F
100
AcDbEntity
  8
Ｓ_１_１
  6
CONTINUOUS
 62
     3
100
AcDbCircle
 10
240.00000000004
 20
228.0000000000211
 30
0.0
 40
91.50000000000007
100
AcDbArc
 50
237.0015222585093
 51
302.9984777414909
  0
ARC
  5
13B
330
1F
100
AcDbEntity
  8
Ｓ_１_１
  6
CONTINUOUS
 62
     3
100
AcDbCircle
 10
240.00000000004
 20
228.0000000000211
 30
0.0
 40
91.50000000000007
100
AcDbArc
 50
327.0015222585092
 51
32.99847774148647
  0
ARC
  5
13C
330
1F
100
AcDbEntity
  8
Ｓ_１_１
  6
CONTINUOUS
 62
     3
100
AcDbCircle
 10
240.00000000004
 20
228.0000000000211
 30
0.0
 40
92.50000000000007
100
AcDbArc
 50
328.758962860218
 51
31.24103713978235
  0
LINE
  5
13D
330
1F
100
AcDbEntity
  8
Ｓ_１_１
  6
CONTINUOUS
 62
     3
100
AcDbLine
 10
319.8087685580815
 20
274.7633452743809
 30
0.0
 11
286.7633452744001
 21
307.8087685580625
 31
0.0
  0
ARC
  5
13E
330
1F
100
AcDbEntity
  8
Ｓ_１_１
  6
CONTINUOUS
 62
     3
100
AcDbCircle
 10
240.00000000004
 20
228.0000000000211
 30
0.0
 40
91.50000000000007
100
AcDbArc
 50
57.0015222585135
 51
122.9984777414864
  0
ARC
  5
13F
330
1F
100
AcDbEntity
  8
Ｓ_１_１
  6
CONTINUOUS
 62
     3
100
AcDbCircle
 10
240.00000000004
 20
228.0000000000211
 30
0.0
 40
92.50000000000007
100
AcDbArc
 50
58.75896286021773
 51
121.1553841182632
  0
LINE
  5
140
330
1F
100
AcDbEntity
  8
Ｓ_１_１
  6
EXLTYPE2
 62
     1
100
AcDbLine
 10
240.00000000004
 20
422.14996491792
 30
0.0
 11
240.00000000004
 21
125.500000000021
 31
0.0
  0
LINE
  5
141
330
1F
100
AcDbEntity
  8
Ｓ_１_１
  6
CONTINUOUS
 62
     3
100
AcDbLine
 10
228.49998073247
 20
327.2363991530401
 30
0.0
 11
227.4999810195698
 21
328.2363989501401
 31
0.0
  0
LINE
  5
142
330
1F
100
AcDbEntity
  8
Ｓ_１_１
  6
CONTINUOUS
 62
     3
100
AcDbLine
 10
251.4999823897699
 20
327.2363980571401
 30
0.0
 11
252.4999824397698
 21
328.2363981915401
 31
0.0
  0
LINE
  5
143
330
1F
100
AcDbEntity
  8
Ｓ_１_１
  6
CONTINUOUS
 62
     3
100
AcDbLine
 10
228.49998073247
 20
358.2364000786401
 30
0.0
 11
227.4999810195698
 21
357.2364002815401
 31
0.0
  0
LINE
  5
144
330
1F
100
AcDbEntity
  8
Ｓ_１_１
  6
CONTINUOUS
 62
     3
100
AcDbLine
 10
251.4999823897699
 20
358.23640117454
 30
0.0
 11
252.4999824397698
 21
357.23640104014
 31
0.0
  0
ARC
  5
145
330
1F
100
AcDbEntity
  8
Ｓ_１_１
  6
CONTINUOUS
 62
     3
100
AcDbCircle
 10
286.4847274522506
 20
350.2288131366401
 30
0.0
 40
2.5152013302
100
AcDbArc
 50
307.0432390866997
 51
359.9999974954998
  0
ARC
  5
146
330
1F
100
AcDbEntity
  8
Ｓ_１_１
  6
CONTINUOUS
 62
     3
100
AcDbCircle
 10
273.4582629899503
 20
342.7363996158401
 30
0.0
 40
15.5416669846
100
AcDbArc
 50
339.3345225011999
 51
20.66547931999995
  0
ARC
  5
147
330
1F
100
AcDbEntity
  8
Ｓ_１_１
  6
CONTINUOUS
 62
     3
100
AcDbCircle
 10
286.4847274522506
 20
335.24398514134
 30
0.0
 40
2.5152013302
100
AcDbArc
 50
359.9999974954998
 51
52.95676614969999
  0
ARC
  5
148
330
1F
100
AcDbEntity
  8
Ｓ_１_１
  6
CONTINUOUS
 62
     3
100
AcDbCircle
 10
285.5151305894503
 20
350.2288131366401
 30
0.0
 40
2.5152013302
100
AcDbArc
 50
180.0000025044993
 51
232.9567609133003
  0
ARC
  5
149
330
1F
100
AcDbEntity
  8
Ｓ_１_１
  6
CONTINUOUS
 62
     3
100
AcDbCircle
 10
298.5415969590506
 20
342.7363996158401
 30
0.0
 40
15.5416669846
100
AcDbArc
 50
159.3345206800002
 51
200.6654774987997
  0
ARC
  5
14A
330
1F
100
AcDbEntity
  8
Ｓ_１_１
  6
CONTINUOUS
 62
     3
100
AcDbCircle
 10
285.5151305894503
 20
335.24398514134
 30
0.0
 40
2.5152013302
100
AcDbArc
 50
127.0432338503001
 51
180.0000025044993
  0
LINE
  5
14B
330
1F
100
AcDbEntity
  8
Ｓ_１_１
  6
CONTINUOUS
 62
     3
100
AcDbLine
 10
282.9999293057506
 20
351.2363997513401
 30
0.0
 11
281.9999295085506
 21
352.23639946424
 31
0.0
  0
LINE
  5
14C
330
1F
100
AcDbEntity
  8
Ｓ_１_１
  6
CONTINUOUS
 62
     3
100
AcDbLine
 10
281.9999295718505
 20
333.2363993348401
 30
0.0
 11
282.9999296008502
 21
334.23639944814
 31
0.0
  0
LINE
  5
14D
330
1F
100
AcDbEntity
  8
Ｓ_１_１
  6
CONTINUOUS
 62
     3
100
AcDbLine
 10
281.9999290208505
 20
342.7363996158401
 30
0.0
 11
281.9999290208505
 21
333.3109731326401
 31
0.0
  0
LINE
  5
14E
330
1F
100
AcDbEntity
  8
Ｓ_１_１
  6
CONTINUOUS
 62
     3
100
AcDbLine
 10
281.9999290208505
 20
352.2363996158401
 30
0.0
 11
281.9999290208505
 21
342.7363996158401
 31
0.0
  0
LINE
  5
14F
330
1F
100
AcDbEntity
  8
Ｓ_１_１
  6
CONTINUOUS
 62
     3
100
AcDbLine
 10
283.9999290208505
 20
352.2363996158401
 30
0.0
 11
287.9999290208505
 21
352.2363996158401
 31
0.0
  0
LINE
  5
150
330
1F
100
AcDbEntity
  8
Ｓ_１_１
  6
CONTINUOUS
 62
     3
100
AcDbLine
 10
283.9999290208505
 20
333.2363996158401
 30
0.0
 11
287.9999290208505
 21
333.2363996158401
 31
0.0
  0
LINE
  5
151
330
1F
100
AcDbEntity
  8
Ｓ_１_１
  6
CONTINUOUS
 62
     3
100
AcDbLine
 10
288.9999285152505
 20
335.2439859736401
 30
0.0
 11
287.9999286763502
 21
333.2364000952401
 31
0.0
  0
LINE
  5
152
330
1F
100
AcDbEntity
  8
Ｓ_１_１
  6
CONTINUOUS
 62
     3
100
AcDbLine
 10
288.9999292589503
 20
350.2288134745401
 30
0.0
 11
287.9999287822504
 21
352.2364006333401
 31
0.0
  0
LINE
  5
153
330
1F
100
AcDbEntity
  8
Ｓ_１_１
  6
CONTINUOUS
 62
     3
100
AcDbLine
 10
282.9999280158506
 20
335.2439869836401
 30
0.0
 11
283.9999276422502
 21
333.2364015321401
 31
0.0
  0
LINE
  5
154
330
1F
100
AcDbEntity
  8
Ｓ_１_１
  6
CONTINUOUS
 62
     3
100
AcDbLine
 10
282.9999279099504
 20
350.2288137449401
 30
0.0
 11
283.9999279615506
 21
352.23640005014
 31
0.0
  0
LINE
  5
155
330
1F
100
AcDbEntity
  8
Ｓ_１_１
  6
CONTINUOUS
 62
     3
100
AcDbLine
 10
283.9999290208505
 20
348.22122761114
 30
0.0
 11
287.9999290208505
 21
348.22122761114
 31
0.0
  0
LINE
  5
156
330
1F
100
AcDbEntity
  8
Ｓ_１_１
  6
CONTINUOUS
 62
     3
100
AcDbLine
 10
283.9999290208505
 20
337.2515725742401
 30
0.0
 11
287.9999290208505
 21
337.2515725742401
 31
0.0
  0
LINE
  5
157
330
1F
100
AcDbEntity
  8
Ｓ_１_１
  6
CONTINUOUS
 62
     3
100
AcDbLine
 10
252.4999290208505
 20
352.2363996158401
 30
0.0
 11
281.9999290208505
 21
352.2363996158401
 31
0.0
  0
LINE
  5
158
330
1F
100
AcDbEntity
  8
Ｓ_１_１
  6
CONTINUOUS
 62
     3
100
AcDbLine
 10
252.4999290208505
 20
333.2363996158401
 30
0.0
 11
281.9999290208505
 21
333.2363996158401
 31
0.0
  0
LINE
  5
159
330
1F
100
AcDbEntity
  8
Ｓ_１_１
  6
CONTINUOUS
 62
     3
100
AcDbLine
 10
282.9999290208505
 20
342.7363996158401
 30
0.0
 11
282.9999290208505
 21
334.2363996158401
 31
0.0
  0
LINE
  5
15A
330
1F
100
AcDbEntity
  8
Ｓ_１_１
  6
CONTINUOUS
 62
     3
100
AcDbLine
 10
288.9999290208505
 20
342.7363996158401
 30
0.0
 11
288.9999290208505
 21
335.24398514134
 31
0.0
  0
LINE
  5
15B
330
1F
100
AcDbEntity
  8
Ｓ_１_１
  6
CONTINUOUS
 62
     3
100
AcDbLine
 10
293.9999306678503
 20
338.4863976905401
 30
0.0
 11
293.2499304827504
 21
337.7363975687401
 31
0.0
  0
LINE
  5
15C
330
1F
100
AcDbEntity
  8
Ｓ_１_１
  6
CONTINUOUS
 62
     3
100
AcDbLine
 10
293.2499315785506
 20
347.73639849084
 30
0.0
 11
293.9999296773506
 21
346.98640032884
 31
0.0
  0
LINE
  5
15D
330
1F
100
AcDbEntity
  8
Ｓ_１_１
  6
CONTINUOUS
 62
     3
100
AcDbLine
 10
293.2499290208505
 20
347.7363996158401
 30
0.0
 11
293.2499290208505
 21
337.7363996158401
 31
0.0
  0
LINE
  5
15E
330
1F
100
AcDbEntity
  8
Ｓ_１_１
  6
CONTINUOUS
 62
     3
100
AcDbLine
 10
293.9999290208505
 20
346.9863996158401
 30
0.0
 11
293.9999290208505
 21
338.4863996158401
 31
0.0
  0
LINE
  5
15F
330
1F
100
AcDbEntity
  8
Ｓ_１_１
  6
CONTINUOUS
 62
     3
100
AcDbLine
 10
282.9999290208505
 20
351.2363996158401
 30
0.0
 11
282.9999290208505
 21
342.7363996158401
 31
0.0
  0
LINE
  5
160
330
1F
100
AcDbEntity
  8
Ｓ_１_１
  6
CONTINUOUS
 62
     3
100
AcDbLine
 10
288.9999290208505
 20
337.7363996158401
 30
0.0
 11
293.2499290208505
 21
337.7363996158401
 31
0.0
  0
LINE
  5
161
330
1F
100
AcDbEntity
  8
Ｓ_１_１
  6
CONTINUOUS
 62
     3
100
AcDbLine
 10
288.9999290208505
 20
347.7363996158401
 30
0.0
 11
293.2499290208505
 21
347.7363996158401
 31
0.0
  0
LINE
  5
162
330
1F
100
AcDbEntity
  8
Ｓ_１_１
  6
CONTINUOUS
 62
     3
100
AcDbLine
 10
288.9999290208505
 20
346.9863996158401
 30
0.0
 11
293.9999290208505
 21
346.9863996158401
 31
0.0
  0
LINE
  5
163
330
1F
100
AcDbEntity
  8
Ｓ_１_１
  6
CONTINUOUS
 62
     3
100
AcDbLine
 10
288.9999290208505
 20
338.4863996158401
 30
0.0
 11
293.9999290208505
 21
338.4863996158401
 31
0.0
  0
LINE
  5
164
330
1F
100
AcDbEntity
  8
Ｓ_１_１
  6
CONTINUOUS
 62
     3
100
AcDbLine
 10
288.9999290208505
 20
350.2288131366401
 30
0.0
 11
288.9999290208505
 21
342.7363996158401
 31
0.0
  0
LINE
  5
165
330
1F
100
AcDbEntity
  8
Ｓ_１_１
  6
CONTINUOUS
 62
     3
100
AcDbLine
 10
227.4999810208699
 20
328.2363996158401
 30
0.0
 11
252.4999810208699
 21
328.2363996158401
 31
0.0
  0
LINE
  5
166
330
1F
100
AcDbEntity
  8
Ｓ_１_１
  6
CONTINUOUS
 62
     3
100
AcDbLine
 10
227.9999765345599
 20
356.8864208644092
 30
0.0
 11
228.0000001237061
 21
356.886407245209
 31
0.0
  0
LINE
  5
167
330
1F
100
AcDbEntity
  8
Ｓ_１_１
  6
CONTINUOUS
 62
     3
100
AcDbLine
 10
234.9999550208602
 20
357.4636777531088
 30
0.0
 11
234.9999588545268
 21
357.4637684262655
 31
0.0
  0
LINE
  5
168
330
1F
100
AcDbEntity
  8
Ｓ_１_１
  6
CONTINUOUS
 62
     3
100
AcDbLine
 10
252.4999810208699
 20
357.2364024590401
 30
0.0
 11
252.4999810208699
 21
328.2363996158401
 31
0.0
  0
LINE
  5
169
330
1F
100
AcDbEntity
  8
Ｓ_１_１
  6
CONTINUOUS
 62
     3
100
AcDbLine
 10
227.4999810208699
 20
357.2364002828401
 30
0.0
 11
227.4999810208699
 21
328.2363996158401
 31
0.0
  0
LINE
  5
16A
330
1F
100
AcDbEntity
  8
Ｓ_１_１
  6
CONTINUOUS
 62
     3
100
AcDbLine
 10
232.4365088268976
 20
325.8741276427432
 30
0.0
 11
231.6499989039312
 21
327.2364035049314
 31
0.0
  0
LINE
  5
16B
330
1F
100
AcDbEntity
  8
Ｓ_１_１
  6
CONTINUOUS
 62
     3
100
AcDbLine
 10
248.3499936065484
 20
327.2364070404652
 30
0.0
 11
247.5634865120094
 21
325.874138249345
 31
0.0
  0
LINE
  5
16C
330
1F
100
AcDbEntity
  8
Ｓ_１_１
  6
CONTINUOUS
 62
     3
100
AcDbLine
 10
248.2648614856273
 20
325.8741325924905
 30
0.0
 11
231.7351409243472
 21
325.8741332995974
 31
0.0
  0
LINE
  5
16D
330
1F
100
AcDbEntity
  8
Ｓ_１_１
  6
CONTINUOUS
 62
     3
100
AcDbLine
 10
232.0757727168284
 20
320.4241598843001
 30
0.0
 11
231.6500080963194
 21
327.2364013836109
 31
0.0
  0
LINE
  5
16E
330
1F
100
AcDbEntity
  8
Ｓ_１_１
  6
CONTINUOUS
 62
     3
100
AcDbLine
 10
232.7723957775318
 20
320.5000000000235
 30
0.0
 11
232.4365123624314
 21
325.8741255214227
 31
0.0
  0
LINE
  5
16F
330
1F
100
AcDbEntity
  8
Ｓ_１_１
  6
CONTINUOUS
 62
     3
100
AcDbLine
 10
247.2276058241277
 20
320.4999999921789
 30
0.0
 11
247.5634886333294
 21
325.8741332995974
 31
0.0
  0
LINE
  5
170
330
1F
100
AcDbEntity
  8
Ｓ_１_１
  6
CONTINUOUS
 62
     3
100
AcDbLine
 10
247.9242287968489
 20
320.4241598857146
 30
0.0
 11
248.3499936065484
 21
327.2364013836109
 31
0.0
  0
LINE
  5
171
330
1F
100
AcDbEntity
  8
Ｓ_１_１
  6
CONTINUOUS
 62
     3
100
AcDbLine
 10
228.49998073247
 20
327.2363991530401
 30
0.0
 11
251.4999823897699
 21
327.2363991530401
 31
0.0
  0
LINE
  5
172
330
1F
100
AcDbEntity
  8
Ｓ_１_１
  6
CONTINUOUS
 62
     3
100
AcDbLine
 10
252.4999810208699
 20
357.2364024590401
 30
0.0
 11
227.4999810208699
 21
357.2364024590401
 31
0.0
  0
LINE
  5
173
330
1F
100
AcDbEntity
  8
Ｓ_１_１
  6
CONTINUOUS
 62
     3
100
AcDbLine
 10
228.49998073247
 20
358.2364000786401
 30
0.0
 11
251.4999823897699
 21
358.2364000786401
 31
0.0
  0
LINE
  5
174
330
1F
100
AcDbEntity
  8
Ｓ_１_１
  6
CONTINUOUS
 62
     3
100
AcDbLine
 10
238.249982190734
 20
401.2364147711402
 30
0.0
 11
238.2499814836272
 21
401.2364147711402
 31
0.0
  0
LINE
  5
175
330
1F
100
AcDbEntity
  8
Ｓ_１_１
  6
CONTINUOUS
 62
     3
100
AcDbLine
 10
238.2499821907338
 20
400.7364158570278
 30
0.0
 11
238.2499821907338
 21
400.7364153235225
 31
0.0
  0
LINE
  5
176
330
1F
100
AcDbEntity
  8
Ｓ_１_１
  6
CONTINUOUS
 62
     3
100
AcDbLine
 10
238.2499857262678
 20
401.418132021517
 30
0.0
 11
238.2499820530077
 21
401.418125659276
 31
0.0
  0
LINE
  5
177
330
1F
100
AcDbEntity
  8
Ｓ_１_１
  6
CONTINUOUS
 62
     3
100
AcDbLine
 10
238.2499814836272
 20
404.2364149923803
 30
0.0
 11
238.2499814836274
 21
404.2364142852734
 31
0.0
  0
LINE
  5
178
330
1F
100
AcDbEntity
  8
Ｓ_１_１
  6
CONTINUOUS
 62
     3
100
AcDbLine
 10
241.7499818595918
 20
401.4181457475942
 30
0.0
 11
241.7499754956307
 21
401.4181567702544
 31
0.0
  0
LINE
  5
179
330
1F
100
AcDbEntity
  8
Ｓ_１_１
  6
CONTINUOUS
 62
     3
100
AcDbLine
 10
241.7499818595918
 20
400.7364150994078
 30
0.0
 11
241.7499818595918
 21
400.7364146164159
 31
0.0
  0
ARC
  5
17A
330
1F
100
AcDbEntity
  8
Ｓ_１_１
  6
CONTINUOUS
 62
     3
100
AcDbCircle
 10
250.3922885000377
 20
366.6025040994081
 30
0.0
 40
6.133925000000002
100
AcDbArc
 50
55.61543800000034
 51
124.3845830000003
  0
ARC
  5
17B
330
1F
100
AcDbEntity
  8
Ｓ_１_１
  6
CONTINUOUS
 62
     3
100
AcDbCircle
 10
239.9999845000377
 20
349.8081920994081
 30
0.0
 40
22.927938
100
AcDbArc
 50
72.411858
 51
107.5881660000001
  0
ARC
  5
17C
330
1F
100
AcDbEntity
  8
Ｓ_１_１
  6
CONTINUOUS
 62
     3
100
AcDbCircle
 10
235.4999845000382
 20
409.7361710994082
 30
0.0
 40
1.0
100
AcDbArc
 50
89.99997799999524
 51
179.9999749999977
  0
ARC
  5
17D
330
1F
100
AcDbEntity
  8
Ｓ_１_１
  6
CONTINUOUS
 62
     3
100
AcDbCircle
 10
229.6076505000381
 20
366.6025040994081
 30
0.0
 40
6.133925000000002
100
AcDbArc
 50
55.61536899999965
 51
124.384513999999
  0
ARC
  5
17E
330
1F
100
AcDbEntity
  8
Ｓ_１_１
  6
CONTINUOUS
 62
     3
100
AcDbCircle
 10
244.4999545000376
 20
409.736171099408
 30
0.0
 40
1.0
100
AcDbArc
 50
359.9999970000025
 51
89.99997800000166
  0
LINE
  5
17F
330
1F
100
AcDbEntity
  8
Ｓ_１_１
  6
CONTINUOUS
 62
     3
100
AcDbLine
 10
238.5000155000378
 20
412.7362930994079
 30
0.0
 11
241.4999845000377
 21
412.7362930994079
 31
0.0
  0
LINE
  5
180
330
1F
100
AcDbEntity
  8
Ｓ_１_１
  6
CONTINUOUS
 62
     3
100
AcDbLine
 10
234.499954500038
 20
409.7361710994082
 30
0.0
 11
234.499954500038
 21
400.7364150994078
 31
0.0
  0
LINE
  5
181
330
1F
100
AcDbEntity
  8
Ｓ_１_１
  6
CONTINUOUS
 62
     3
100
AcDbLine
 10
234.499954500038
 20
400.7364150994078
 30
0.0
 11
245.4999845000377
 21
400.7364150994078
 31
0.0
  0
LINE
  5
182
330
1F
100
AcDbEntity
  8
Ｓ_１_１
  6
CONTINUOUS
 62
     3
100
AcDbLine
 10
231.0000155000382
 20
397.236171099408
 30
0.0
 11
231.0000155000382
 21
395.2362930994081
 31
0.0
  0
LINE
  5
183
330
1F
100
AcDbEntity
  8
Ｓ_１_１
  6
CONTINUOUS
 62
     3
100
AcDbLine
 10
248.9999845000377
 20
397.2361710994082
 30
0.0
 11
248.9999845000377
 21
395.2362930994081
 31
0.0
  0
LINE
  5
184
330
1F
100
AcDbEntity
  8
Ｓ_１_１
  6
CONTINUOUS
 62
     3
100
AcDbLine
 10
228.7499845000382
 20
381.7362930994079
 30
0.0
 11
251.2499845000377
 21
381.7362930994079
 31
0.0
  0
LINE
  5
185
330
1F
100
AcDbEntity
  8
Ｓ_１_１
  6
CONTINUOUS
 62
     3
100
AcDbLine
 10
251.7499845000377
 20
381.2362930994079
 30
0.0
 11
251.7499845000377
 21
372.7362930994079
 31
0.0
  0
LINE
  5
186
330
1F
100
AcDbEntity
  8
Ｓ_１_１
  6
CONTINUOUS
 62
     3
100
AcDbLine
 10
228.249954500038
 20
381.2362930994079
 30
0.0
 11
228.249954500038
 21
372.7362930994079
 31
0.0
  0
LINE
  5
187
330
1F
100
AcDbEntity
  8
Ｓ_１_１
  6
CONTINUOUS
 62
     3
100
AcDbLine
 10
251.9999115000376
 20
372.736484099408
 30
0.0
 11
253.8563895000377
 21
371.664645099408
 31
0.0
  0
LINE
  5
188
330
1F
100
AcDbEntity
  8
Ｓ_１_１
  6
CONTINUOUS
 62
     3
100
AcDbLine
 10
226.1436235000381
 20
371.6647850994081
 30
0.0
 11
227.9999965000382
 21
372.736562099408
 31
0.0
  0
LINE
  5
189
330
1F
100
AcDbEntity
  8
Ｓ_１_１
  6
CONTINUOUS
 62
     3
100
AcDbLine
 10
253.8563995000375
 20
371.6645150994081
 30
0.0
 11
253.8563995000375
 21
366.8081920994079
 31
0.0
  0
LINE
  5
18A
330
1F
100
AcDbEntity
  8
Ｓ_１_１
  6
CONTINUOUS
 62
     3
100
AcDbLine
 10
246.9282075000376
 20
371.6645150994081
 30
0.0
 11
246.9282075000376
 21
366.8081920994081
 31
0.0
  0
LINE
  5
18B
330
1F
100
AcDbEntity
  8
Ｓ_１_１
  6
CONTINUOUS
 62
     3
100
AcDbLine
 10
233.0718535000381
 20
371.6645150994081
 30
0.0
 11
233.0718535000381
 21
366.8081920994079
 31
0.0
  0
LINE
  5
18C
330
1F
100
AcDbEntity
  8
Ｓ_１_１
  6
CONTINUOUS
 62
     3
100
AcDbLine
 10
226.1435855000379
 20
371.6645150994081
 30
0.0
 11
226.1435855000379
 21
366.8081920994081
 31
0.0
  0
LINE
  5
18D
330
1F
100
AcDbEntity
  8
Ｓ_１_１
  6
CONTINUOUS
 62
     3
100
AcDbLine
 10
227.9999845000382
 20
372.7362930994079
 30
0.0
 11
251.9999545000376
 21
372.7362930994079
 31
0.0
  0
LINE
  5
18E
330
1F
100
AcDbEntity
  8
Ｓ_１_１
  6
CONTINUOUS
 62
     3
100
AcDbLine
 10
235.4999845000382
 20
410.7364150994085
 30
0.0
 11
244.4999545000376
 21
410.7364150994082
 31
0.0
  0
LINE
  5
18F
330
1F
100
AcDbEntity
  8
Ｓ_１_１
  6
CONTINUOUS
 62
     3
100
AcDbLine
 10
241.4998435000377
 20
412.736480099408
 30
0.0
 11
243.4998885000375
 21
410.7364350994082
 31
0.0
  0
LINE
  5
190
330
1F
100
AcDbEntity
  8
Ｓ_１_１
  6
CONTINUOUS
 62
     3
100
AcDbLine
 10
236.4998165000382
 20
410.7364780994077
 30
0.0
 11
238.4997755000375
 21
412.736437099408
 31
0.0
  0
LINE
  5
191
330
1F
100
AcDbEntity
  8
Ｓ_１_１
  6
CONTINUOUS
 62
     3
100
AcDbLine
 10
232.4999845000382
 20
392.2361710994082
 30
0.0
 11
247.4999845000377
 21
392.236171099408
 31
0.0
  0
LINE
  5
192
330
1F
100
AcDbEntity
  8
Ｓ_１_１
  6
CONTINUOUS
 62
     3
100
AcDbLine
 10
232.4999845000382
 20
393.7362930994081
 30
0.0
 11
247.4999845000377
 21
393.7362930994081
 31
0.0
  0
LINE
  5
193
330
1F
100
AcDbEntity
  8
Ｓ_１_１
  6
CONTINUOUS
 62
     3
100
AcDbLine
 10
231.0000155000382
 20
397.236171099408
 30
0.0
 11
248.9999845000377
 21
397.2361710994082
 31
0.0
  0
LINE
  5
194
330
1F
100
AcDbEntity
  8
Ｓ_１_１
  6
CONTINUOUS
 62
     3
100
AcDbLine
 10
248.9999845000377
 20
390.7364150994078
 30
0.0
 11
248.9999845000377
 21
381.7362930994079
 31
0.0
  0
LINE
  5
195
330
1F
100
AcDbEntity
  8
Ｓ_１_１
  6
CONTINUOUS
 62
     3
100
AcDbLine
 10
231.0000155000382
 20
390.736415099408
 30
0.0
 11
231.0000155000382
 21
381.7362930994081
 31
0.0
  0
LINE
  5
196
330
1F
100
AcDbEntity
  8
Ｓ_１_１
  6
CONTINUOUS
 62
     3
100
AcDbLine
 10
230.999872500038
 20
395.2363140994082
 30
0.0
 11
232.499884500038
 21
393.7363010994079
 31
0.0
  0
LINE
  5
197
330
1F
100
AcDbEntity
  8
Ｓ_１_１
  6
CONTINUOUS
 62
     3
100
AcDbLine
 10
247.4999505000376
 20
393.7363000994082
 30
0.0
 11
248.9998335000375
 21
395.2361830994082
 31
0.0
  0
LINE
  5
198
330
1F
100
AcDbEntity
  8
Ｓ_１_１
  6
CONTINUOUS
 62
     3
100
AcDbLine
 10
231.0000155000382
 20
395.2362930994081
 30
0.0
 11
248.9999845000377
 21
395.2362930994081
 31
0.0
  0
LINE
  5
199
330
1F
100
AcDbEntity
  8
Ｓ_１_１
  6
CONTINUOUS
 62
     3
100
AcDbLine
 10
230.9999865000379
 20
390.7364480994083
 30
0.0
 11
232.4998695000379
 21
392.236331099408
 31
0.0
  0
LINE
  5
19A
330
1F
100
AcDbEntity
  8
Ｓ_１_１
  6
CONTINUOUS
 62
     3
100
AcDbLine
 10
247.4998365000376
 20
392.2362890994079
 30
0.0
 11
248.9998495000375
 21
390.7362770994079
 31
0.0
  0
LINE
  5
19B
330
1F
100
AcDbEntity
  8
Ｓ_１_１
  6
CONTINUOUS
 62
     3
100
AcDbLine
 10
228.249954500038
 20
381.2362930994079
 30
0.0
 11
251.7499845000377
 21
381.2362930994079
 31
0.0
  0
LINE
  5
19C
330
1F
100
AcDbEntity
  8
Ｓ_１_１
  6
CONTINUOUS
 62
     3
100
AcDbLine
 10
231.0000155000382
 20
390.736415099408
 30
0.0
 11
248.9999845000377
 21
390.7364150994078
 31
0.0
  0
LINE
  5
19D
330
1F
100
AcDbEntity
  8
Ｓ_１_１
  6
CONTINUOUS
 62
     3
100
AcDbLine
 10
232.4999845000382
 20
393.7362930994081
 30
0.0
 11
232.4999845000382
 21
392.2361710994082
 31
0.0
  0
LINE
  5
19E
330
1F
100
AcDbEntity
  8
Ｓ_１_１
  6
CONTINUOUS
 62
     3
100
AcDbLine
 10
247.4999845000377
 20
393.7362930994081
 30
0.0
 11
247.4999845000377
 21
392.236171099408
 31
0.0
  0
LINE
  5
19F
330
1F
100
AcDbEntity
  8
Ｓ_１_１
  6
CONTINUOUS
 62
     3
100
AcDbLine
 10
251.2498805000375
 20
381.7363820994082
 30
0.0
 11
251.7498275000378
 21
381.2364360994081
 31
0.0
  0
LINE
  5
1A0
330
1F
100
AcDbEntity
  8
Ｓ_１_１
  6
CONTINUOUS
 62
     3
100
AcDbLine
 10
228.2499095000383
 20
381.2363840994078
 30
0.0
 11
228.7498075000383
 21
381.7362930994079
 31
0.0
  0
LINE
  5
1A1
330
1F
100
AcDbEntity
  8
Ｓ_１_１
  6
CONTINUOUS
 62
     3
100
AcDbLine
 10
230.9999435000379
 20
397.2364020994079
 30
0.0
 11
234.4999575000381
 21
400.7364160994084
 31
0.0
  0
LINE
  5
1A2
330
1F
100
AcDbEntity
  8
Ｓ_１_１
  6
CONTINUOUS
 62
     3
100
AcDbLine
 10
245.4998345000379
 20
400.736202099408
 30
0.0
 11
248.9998055000376
 21
397.2362300994079
 31
0.0
  0
LINE
  5
1A3
330
1F
100
AcDbEntity
  8
Ｓ_１_１
  6
CONTINUOUS
 62
     3
100
AcDbLine
 10
245.4999845000377
 20
409.736171099408
 30
0.0
 11
245.4999845000377
 21
400.7364150994078
 31
0.0
  0
LINE
  5
1A4
330
1F
100
AcDbEntity
  8
Ｓ_１_１
  6
CONTINUOUS
 62
     3
100
AcDbLine
 10
251.9999535000377
 20
365.7364480994083
 30
0.0
 11
253.8563265000378
 21
366.8082250994082
 31
0.0
  0
ARC
  5
1A5
330
1F
100
AcDbEntity
  8
Ｓ_１_１
  6
CONTINUOUS
 62
     3
100
AcDbCircle
 10
229.6076505000381
 20
371.870204099408
 30
0.0
 40
6.133925000000002
100
AcDbArc
 50
235.6154019999991
 51
304.3845609999998
  0
ARC
  5
1A6
330
1F
100
AcDbEntity
  8
Ｓ_１_１
  6
CONTINUOUS
 62
     3
100
AcDbCircle
 10
239.9999845000377
 20
388.664271099408
 30
0.0
 40
22.927942
100
AcDbArc
 50
252.4118210000001
 51
287.5881150000001
  0
ARC
  5
1A7
330
1F
100
AcDbEntity
  8
Ｓ_１_１
  6
CONTINUOUS
 62
     3
100
AcDbCircle
 10
250.3922885000377
 20
371.8702040994078
 30
0.0
 40
6.133925000000002
100
AcDbArc
 50
235.6154159999999
 51
304.3845739999999
  0
LINE
  5
1A8
330
1F
100
AcDbEntity
  8
Ｓ_１_１
  6
CONTINUOUS
 62
     3
100
AcDbLine
 10
227.9999845000382
 20
365.7364150994078
 30
0.0
 11
251.9999545000376
 21
365.7364150994078
 31
0.0
  0
LINE
  5
1A9
330
1F
100
AcDbEntity
  8
Ｓ_１_１
  6
CONTINUOUS
 62
     3
100
AcDbLine
 10
226.143616500038
 20
366.8082670994078
 30
0.0
 11
227.9999885000382
 21
365.7364900994084
 31
0.0
  0
LINE
  5
1AA
330
1F
100
AcDbEntity
  8
Ｓ_１_１
  6
CONTINUOUS
 62
     3
100
AcDbLine
 10
248.2648479626575
 20
359.5986815696642
 30
0.0
 11
231.7351281084839
 21
359.5986815696642
 31
0.0
  0
LINE
  5
1AB
330
1F
100
AcDbEntity
  8
Ｓ_１_１
  6
CONTINUOUS
 62
     3
100
AcDbLine
 10
232.820101439828
 20
365.7364150994107
 30
0.0
 11
232.4364931826074
 21
359.5986872265184
 31
0.0
  0
LINE
  5
1AC
330
1F
100
AcDbEntity
  8
Ｓ_１_１
  6
CONTINUOUS
 62
     3
100
AcDbLine
 10
232.1187314159572
 20
365.7364186349448
 30
0.0
 11
231.6499811383208
 21
358.2364120714369
 31
0.0
  0
LINE
  5
1AD
330
1F
100
AcDbEntity
  8
Ｓ_１_１
  6
CONTINUOUS
 62
     3
100
AcDbLine
 10
232.4364960110345
 20
359.5986858123048
 30
0.0
 11
231.6499860880679
 21
358.2364099501166
 31
0.0
  0
LINE
  5
1AE
330
1F
100
AcDbEntity
  8
Ｓ_１_１
  6
CONTINUOUS
 62
     3
100
AcDbLine
 10
247.8812319272622
 20
365.7364214633719
 30
0.0
 11
248.3499829120053
 21
358.2363972221946
 31
0.0
  0
LINE
  5
1AF
330
1F
100
AcDbEntity
  8
Ｓ_１_１
  6
CONTINUOUS
 62
     3
100
AcDbLine
 10
248.3499779622582
 20
358.2364148998642
 30
0.0
 11
247.5634715748258
 21
359.5986843980913
 31
0.0
  0
LINE
  5
1B0
330
1F
100
AcDbEntity
  8
Ｓ_１_１
  6
CONTINUOUS
 62
     3
100
AcDbLine
 10
247.1798682673523
 20
365.7364186349448
 30
0.0
 11
247.5634772316801
 21
359.5986829838777
 31
0.0
  0
LINE
  5
1B1
330
1F
100
AcDbEntity
  8
Ｓ_１_１
  6
CONTINUOUS
 62
     3
100
AcDbLine
 10
253.3506807435458
 20
378.3622685973355
 30
0.0
 11
253.3506807435458
 21
371.4396154277733
 31
0.0
  0
LINE
  5
1B2
330
1F
100
AcDbEntity
  8
Ｓ_１_１
  6
CONTINUOUS
 62
     3
100
AcDbLine
 10
228.3506772499627
 20
405.8622693290071
 30
0.0
 11
228.3506765428558
 21
405.3622691742825
 31
0.0
  0
LINE
  5
1B3
330
1F
100
AcDbEntity
  8
Ｓ_１_１
  6
CONTINUOUS
 62
     3
100
AcDbLine
 10
256.3506802576792
 20
402.3622689530425
 30
0.0
 11
256.3506809647859
 21
394.8622694606025
 31
0.0
  0
LINE
  5
1B4
330
1F
100
AcDbEntity
  8
Ｓ_１_１
  6
CONTINUOUS
 62
     3
100
AcDbLine
 10
224.3506774263803
 20
402.3622689530426
 30
0.0
 11
224.3506774263803
 21
394.8622687534957
 31
0.0
  0
LINE
  5
1B5
330
1F
100
AcDbEntity
  8
Ｓ_１_１
  6
CONTINUOUS
 62
     3
100
AcDbLine
 10
253.3506885217205
 20
405.3622847306318
 30
0.0
 11
256.3506809647859
 21
402.3622922875663
 31
0.0
  0
LINE
  5
1B6
330
1F
100
AcDbEntity
  8
Ｓ_１_１
  6
CONTINUOUS
 62
     3
100
AcDbLine
 10
227.3506755263002
 20
405.3622783666708
 30
0.0
 11
224.3506781334872
 21
402.3622809738578
 31
0.0
  0
LINE
  5
1B7
330
1F
100
AcDbEntity
  8
Ｓ_１_１
  6
CONTINUOUS
 62
     3
100
AcDbLine
 10
255.8506808100612
 20
394.362269305878
 30
0.0
 11
255.8506808100612
 21
386.3622696587135
 31
0.0
  0
LINE
  5
1B8
330
1F
100
AcDbEntity
  8
Ｓ_１_１
  6
CONTINUOUS
 62
     3
100
AcDbLine
 10
224.8506768739983
 20
394.362269305878
 30
0.0
 11
224.8506775811049
 21
386.3622689516067
 31
0.0
  0
LINE
  5
1B9
330
1F
100
AcDbEntity
  8
Ｓ_１_１
  6
CONTINUOUS
 62
     3
100
AcDbLine
 10
256.3506795505725
 20
385.8622737466297
 30
0.0
 11
255.8506793958479
 21
386.3622739013543
 31
0.0
  0
LINE
  5
1BA
330
1F
100
AcDbEntity
  8
Ｓ_１_１
  6
CONTINUOUS
 62
     3
100
AcDbLine
 10
224.8506832379592
 20
394.3622770840527
 30
0.0
 11
224.3506823761279
 21
394.8622779458839
 31
0.0
  0
LINE
  5
1BB
330
1F
100
AcDbEntity
  8
Ｓ_１_１
  6
CONTINUOUS
 62
     3
100
AcDbLine
 10
224.8506782882116
 20
386.3622739013542
 30
0.0
 11
224.3506774263803
 21
385.862273039523
 31
0.0
  0
LINE
  5
1BC
330
1F
100
AcDbEntity
  8
Ｓ_１_１
  6
CONTINUOUS
 62
     3
100
AcDbLine
 10
256.3506795505725
 20
394.8622722890296
 30
0.0
 11
255.8506786887413
 21
394.3622714271983
 31
0.0
  0
LINE
  5
1BD
330
1F
100
AcDbEntity
  8
Ｓ_１_１
  6
CONTINUOUS
 62
     3
100
AcDbLine
 10
256.3506809647859
 20
385.862269503989
 30
0.0
 11
256.3506809647859
 21
378.8622687520599
 31
0.0
  0
LINE
  5
1BE
330
1F
100
AcDbEntity
  8
Ｓ_１_１
  6
CONTINUOUS
 62
     3
100
AcDbLine
 10
224.3506774263803
 20
385.8622687968823
 30
0.0
 11
224.3506767192737
 21
378.8622687520599
 31
0.0
  0
LINE
  5
1BF
330
1F
100
AcDbEntity
  8
Ｓ_１_１
  6
CONTINUOUS
 62
     3
100
AcDbLine
 10
256.3506731866112
 20
378.8622708733803
 30
0.0
 11
255.8506779816341
 21
378.3622756684032
 31
0.0
  0
LINE
  5
1C0
330
1F
100
AcDbEntity
  8
Ｓ_１_１
  6
CONTINUOUS
 62
     3
100
AcDbLine
 10
224.8506761668912
 20
378.3622749612966
 30
0.0
 11
224.350676012167
 21
378.862275116021
 31
0.0
  0
LINE
  5
1C1
330
1F
100
AcDbEntity
  8
Ｓ_１_１
  6
CONTINUOUS
 62
     3
100
AcDbLine
 10
224.8506768739983
 20
376.8622688402688
 30
0.0
 11
224.8506768739983
 21
375.8622685308199
 31
0.0
  0
LINE
  5
1C2
330
1F
100
AcDbEntity
  8
Ｓ_１_１
  6
CONTINUOUS
 62
     3
100
AcDbLine
 10
255.8506808100612
 20
376.8622688402688
 30
0.0
 11
255.8506808100612
 21
375.8622685308199
 31
0.0
  0
LINE
  5
1C3
330
1F
100
AcDbEntity
  8
Ｓ_１_１
  6
CONTINUOUS
 62
     3
100
AcDbLine
 10
255.3506813624438
 20
375.3622690832022
 30
0.0
 11
253.3506807435458
 21
375.3622690832022
 31
0.0
  0
LINE
  5
1C4
330
1F
100
AcDbEntity
  8
Ｓ_１_１
  6
CONTINUOUS
 62
     3
100
AcDbLine
 10
255.3506806553371
 20
377.3622689949934
 30
0.0
 11
253.3506814506525
 21
377.3622689949933
 31
0.0
  0
LINE
  5
1C5
330
1F
100
AcDbEntity
  8
Ｓ_１_１
  6
CONTINUOUS
 62
     3
100
AcDbLine
 10
227.3506776476204
 20
377.3622689949934
 30
0.0
 11
225.3506770287227
 21
377.3622689949933
 31
0.0
  0
LINE
  5
1C6
330
1F
100
AcDbEntity
  8
Ｓ_１_１
  6
CONTINUOUS
 62
     3
100
AcDbLine
 10
227.3506769405137
 20
375.3622690832022
 30
0.0
 11
225.3506770287224
 21
375.3622683760954
 31
0.0
  0
LINE
  5
1C7
330
1F
100
AcDbEntity
  8
Ｓ_１_１
  6
CONTINUOUS
 62
     3
100
AcDbLine
 10
225.3506840997904
 20
377.3622590954984
 30
0.0
 11
224.8506839450658
 21
376.8622589407739
 31
0.0
  0
LINE
  5
1C8
330
1F
100
AcDbEntity
  8
Ｓ_１_１
  6
CONTINUOUS
 62
     3
100
AcDbLine
 10
225.3506734931887
 20
375.3622676689886
 30
0.0
 11
224.8506832379592
 21
375.8622579242181
 31
0.0
  0
LINE
  5
1C9
330
1F
100
AcDbEntity
  8
Ｓ_１_１
  6
CONTINUOUS
 62
     3
100
AcDbLine
 10
255.8506793958479
 20
376.8622645976281
 30
0.0
 11
255.3506792411233
 21
377.3622647523527
 31
0.0
  0
LINE
  5
1CA
330
1F
100
AcDbEntity
  8
Ｓ_１_１
  6
CONTINUOUS
 62
     3
100
AcDbLine
 10
255.8506793958479
 20
375.8622628739657
 30
0.0
 11
255.3506792411233
 21
375.3622627192412
 31
0.0
  0
LINE
  5
1CB
330
1F
100
AcDbEntity
  8
Ｓ_１_１
  6
CONTINUOUS
 62
     3
100
AcDbLine
 10
252.3506789463336
 20
405.3622757866219
 30
0.0
 11
252.3506789463338
 21
405.8622693493199
 31
0.0
  0
LINE
  5
1CC
330
1F
100
AcDbEntity
  8
Ｓ_１_１
  6
CONTINUOUS
 62
     3
100
AcDbLine
 10
234.499954500038
 20
402.3622689530426
 30
0.0
 11
224.3506774263803
 21
402.3622689530426
 31
0.0
  0
LINE
  5
1CD
330
1F
100
AcDbEntity
  8
Ｓ_１_１
  6
CONTINUOUS
 62
     3
100
AcDbLine
 10
253.3506807435458
 20
405.3622684671757
 30
0.0
 11
245.4999845000377
 21
405.3622684671757
 31
0.0
  0
LINE
  5
1CE
330
1F
100
AcDbEntity
  8
Ｓ_１_１
  6
CONTINUOUS
 62
     3
100
AcDbLine
 10
234.499954500038
 20
405.3622684671759
 30
0.0
 11
227.3506769405137
 21
405.3622684671759
 31
0.0
  0
LINE
  5
1CF
330
1F
100
AcDbEntity
  8
Ｓ_１_１
  6
CONTINUOUS
 62
     3
100
AcDbLine
 10
228.3506788420254
 20
405.8622684671773
 30
0.0
 11
234.499954500038
 21
405.8622684671773
 31
0.0
  0
LINE
  5
1D0
330
1F
100
AcDbEntity
  8
Ｓ_１_１
  6
CONTINUOUS
 62
     3
100
AcDbLine
 10
245.4999845000377
 20
405.8622684671773
 30
0.0
 11
252.3506788420252
 21
405.8622684671771
 31
0.0
  0
LINE
  5
1D1
330
1F
100
AcDbEntity
  8
Ｓ_１_１
  6
CONTINUOUS
 62
     3
100
AcDbLine
 10
256.3506809647859
 20
394.8622694606025
 30
0.0
 11
248.6259196905371
 21
394.8622692899078
 31
0.0
  0
LINE
  5
1D2
330
1F
100
AcDbEntity
  8
Ｓ_１_１
  6
CONTINUOUS
 62
     3
100
AcDbLine
 10
231.3739174413959
 20
394.8622689086888
 30
0.0
 11
224.3506774263803
 21
394.8622687534957
 31
0.0
  0
LINE
  5
1D3
330
1F
100
AcDbEntity
  8
Ｓ_１_１
  6
CONTINUOUS
 62
     3
100
AcDbLine
 10
255.8506808100612
 20
394.362269305878
 30
0.0
 11
248.1259197065071
 21
394.362269305878
 31
0.0
  0
LINE
  5
1D4
330
1F
100
AcDbEntity
  8
Ｓ_１_１
  6
CONTINUOUS
 62
     3
100
AcDbLine
 10
231.8739167108763
 20
394.362269305878
 30
0.0
 11
224.8506768739983
 21
394.362269305878
 31
0.0
  0
LINE
  5
1D5
330
1F
100
AcDbEntity
  8
Ｓ_１_１
  6
CONTINUOUS
 62
     3
100
AcDbLine
 10
256.3506802576792
 20
402.3622689530425
 30
0.0
 11
245.4999845000377
 21
402.3622689530426
 31
0.0
  0
LINE
  5
1D6
330
1F
100
AcDbEntity
  8
Ｓ_１_１
  6
CONTINUOUS
 62
     3
100
AcDbLine
 10
255.8506808100612
 20
386.3622696587135
 30
0.0
 11
248.9999845998116
 21
386.3622695024498
 31
0.0
  0
LINE
  5
1D7
330
1F
100
AcDbEntity
  8
Ｓ_１_１
  6
CONTINUOUS
 62
     3
100
AcDbLine
 10
231.0000155998121
 20
386.3622690918725
 30
0.0
 11
224.8506775811049
 21
386.3622689516067
 31
0.0
  0
LINE
  5
1D8
330
1F
100
AcDbEntity
  8
Ｓ_１_１
  6
CONTINUOUS
 62
     3
100
AcDbLine
 10
224.3506774263803
 20
385.8622687968823
 30
0.0
 11
231.0000156077424
 21
385.8622689438133
 31
0.0
  0
LINE
  5
1D9
330
1F
100
AcDbEntity
  8
Ｓ_１_１
  6
CONTINUOUS
 62
     3
100
AcDbLine
 10
248.9999846077419
 20
385.8622693415601
 30
0.0
 11
256.3506809647859
 21
385.862269503989
 31
0.0
  0
LINE
  5
1DA
330
1F
100
AcDbEntity
  8
Ｓ_１_１
  6
CONTINUOUS
 62
     3
100
AcDbLine
 10
228.249954500038
 20
378.8622687520599
 30
0.0
 11
224.3506767192737
 21
378.8622687520599
 31
0.0
  0
LINE
  5
1DB
330
1F
100
AcDbEntity
  8
Ｓ_１_１
  6
CONTINUOUS
 62
     3
100
AcDbLine
 10
228.2499546478373
 20
378.3622687721466
 30
0.0
 11
224.8506768739983
 21
378.3622685973356
 31
0.0
  0
LINE
  5
1DC
330
1F
100
AcDbEntity
  8
Ｓ_１_１
  6
CONTINUOUS
 62
     3
100
AcDbLine
 10
255.8506808100612
 20
378.3622685973355
 30
0.0
 11
251.7499845000377
 21
378.3622685973355
 31
0.0
  0
LINE
  5
1DD
330
1F
100
AcDbEntity
  8
Ｓ_１_１
  6
CONTINUOUS
 62
     3
100
AcDbLine
 10
256.3506809647859
 20
378.8622687520599
 30
0.0
 11
251.749984382235
 21
378.8622689803535
 31
0.0
  0
LINE
  5
1DE
330
1F
100
AcDbEntity
  8
Ｓ_１_１
  6
CONTINUOUS
 62
     3
100
AcDbLine
 10
228.3506765428558
 20
370.8622691048955
 30
0.0
 11
228.3506765428558
 21
370.862272968597
 31
0.0
  0
LINE
  5
1DF
330
1F
100
AcDbEntity
  8
Ｓ_１_１
  6
CONTINUOUS
 62
     3
100
AcDbLine
 10
227.3506892895002
 20
371.4396154277733
 30
0.0
 11
227.3506769405137
 21
371.4396154277733
 31
0.0
  0
LINE
  5
1E0
330
1F
100
AcDbEntity
  8
Ｓ_１_１
  6
CONTINUOUS
 62
     3
100
AcDbLine
 10
227.3506769405137
 20
378.3622685973355
 30
0.0
 11
227.3506769405137
 21
372.3061087716513
 31
0.0
  0
LINE
  5
1E1
330
1F
100
AcDbEntity
  8
Ｓ_１_１
  6
CONTINUOUS
 62
     3
100
AcDbLine
 10
252.3506811412037
 20
370.8622691048955
 30
0.0
 11
252.3506863175701
 21
370.8622691048955
 31
0.0
  0
LINE
  5
1E2
330
1F
100
AcDbEntity
  8
Ｓ_１_１
  6
CONTINUOUS
 62
     3
100
AcDbLine
 10
253.3506807435458
 20
371.4396168419868
 30
0.0
 11
253.3506782940588
 21
371.4396154277733
 31
0.0
  0
LINE
  5
1E3
330
1F
100
AcDbEntity
  8
Ｓ_１_１
  6
CONTINUOUS
 62
     3
100
AcDbLine
 10
252.3506811412037
 20
370.8622661163154
 30
0.0
 11
252.3506740701357
 21
370.8622620338277
 31
0.0
  0
LINE
  5
1E4
330
1F
100
AcDbEntity
  8
Ｓ_１_１
  6
CONTINUOUS
 62
     3
100
AcDbLine
 10
228.3506843210305
 20
355.8622609276272
 30
0.0
 11
228.3506977932343
 21
355.8622687058019
 31
0.0
  0
LINE
  5
1E5
330
1F
100
AcDbEntity
  8
Ｓ_１_１
  6
CONTINUOUS
 62
     3
100
AcDbLine
 10
228.350676778361
 20
365.8664508592557
 30
0.0
 11
228.3506771450832
 21
358.0870964786821
 31
0.0
  0
LINE
  5
1E6
330
1F
100
AcDbEntity
  8
Ｓ_１_１
  6
CONTINUOUS
 62
     3
100
AcDbLine
 10
252.3506811412037
 20
366.057310313293
 30
0.0
 11
252.3506811412037
 21
357.2364024590401
 31
0.0
  0
LINE
  5
1E7
330
1F
100
AcDbEntity
  8
Ｓ_１_１
  6
EXLTYPE2
 62
     1
100
AcDbLine
 10
234.9999550208602
 20
342.7363996158401
 30
0.0
 11
303.9999290208505
 21
342.7363996158401
 31
0.0
  0
ARC
  5
1E8
330
1F
100
AcDbEntity
  8
Ｓ_１_１
  6
CONTINUOUS
 62
     3
100
AcDbCircle
 10
188.1980142435282
 20
306.4653462632564
 30
0.0
 40
3.752776145935058
100
AcDbArc
 50
149.9999884324291
 51
149.9999911153937
  0
LINE
  5
1E9
330
1F
100
AcDbEntity
  8
Ｓ_１_１
  6
CONTINUOUS
 62
     3
100
AcDbLine
 10
184.9480151769147
 20
308.3417347711824
 30
0.0
 11
184.9480152647797
 21
308.341734923369
 31
0.0
  0
ARC
  5
1EA
330
1F
100
AcDbEntity
  8
Ｓ_１_１
  6
CONTINUOUS
 62
     3
100
AcDbCircle
 10
196.3324934006125
 20
303.6343400700759
 30
0.0
 40
10.46498680114746
100
AcDbArc
 50
141.0144213967603
 51
141.0144223577844
  0
LINE
  5
1EB
330
1F
100
AcDbEntity
  8
Ｓ_１_１
  6
CONTINUOUS
 62
     3
100
AcDbLine
 10
215.4160466923543
 20
317.488616709445
 30
0.0
 11
213.8413942610072
 21
321.8149387080604
 31
0.0
  0
LINE
  5
1EC
330
1F
100
AcDbEntity
  8
Ｓ_１_１
  6
CONTINUOUS
 62
     3
100
AcDbLine
 10
211.8895917173844
 20
316.2050920660761
 30
0.0
 11
210.3149392860373
 21
320.5314140646915
 31
0.0
  0
LINE
  5
1ED
330
1F
100
AcDbEntity
  8
Ｓ_１_１
  6
CONTINUOUS
 62
     3
100
AcDbLine
 10
213.8413942610072
 20
321.8149387080604
 30
0.0
 11
212.4704934937402
 21
322.0566652158241
 31
0.0
  0
ARC
  5
1EE
330
1F
100
AcDbEntity
  8
Ｓ_１_１
  6
CONTINUOUS
 62
     3
100
AcDbCircle
 10
213.1897321191241
 20
318.1191756990861
 30
0.0
 40
3.752776145935058
100
AcDbArc
 50
80.00000888460634
 51
139.9999911153937
  0
LINE
  5
1EF
330
1F
100
AcDbEntity
  8
Ｓ_１_１
  6
EXLTYPE2
 62
     1
100
AcDbLine
 10
240.0000000000352
 20
228.0000000000138
 30
0.0
 11
204.8403292661588
 21
324.6004014168015
 31
0.0
  0
LINE
  5
1F0
330
1F
100
AcDbEntity
  8
Ｓ_１_１
  6
CONTINUOUS
 62
     3
100
AcDbLine
 10
204.836681767442
 20
313.6380427793372
 30
0.0
 11
203.262029336095
 21
317.9643647779526
 31
0.0
  0
LINE
  5
1F1
330
1F
100
AcDbEntity
  8
Ｓ_１_１
  6
CONTINUOUS
 62
     3
100
AcDbLine
 10
201.3102267924721
 20
312.3545181359681
 30
0.0
 11
199.7355743611251
 21
316.6808401345837
 31
0.0
  0
ARC
  5
1F2
330
1F
100
AcDbEntity
  8
Ｓ_１_１
  6
CONTINUOUS
 62
     3
100
AcDbCircle
 10
202.6103671942121
 20
314.2686017689783
 30
0.0
 40
3.752776145935058
100
AcDbArc
 50
80.00000888460548
 51
139.9999911153926
  0
LINE
  5
1F3
330
1F
100
AcDbEntity
  8
Ｓ_１_１
  6
CONTINUOUS
 62
     3
100
AcDbLine
 10
199.7355743611251
 20
316.6808401345837
 30
0.0
 11
200.6303664718343
 21
317.7472114099196
 31
0.0
  0
ARC
  5
1F4
330
1F
100
AcDbEntity
  8
Ｓ_１_１
  6
CONTINUOUS
 62
     3
100
AcDbCircle
 10
210.1296662684182
 20
310.0680674392122
 30
0.0
 40
10.46498680114746
100
AcDbArc
 50
88.98557764221567
 51
131.0144223525549
  0
LINE
  5
1F5
330
1F
100
AcDbEntity
  8
Ｓ_１_１
  6
CONTINUOUS
 62
     3
100
AcDbLine
 10
212.4704934937402
 20
322.0566652158241
 30
0.0
 11
200.6303664718305
 21
317.7472114099184
 31
0.0
  0
LINE
  5
1F6
330
1F
100
AcDbEntity
  8
Ｓ_１_１
  6
CONTINUOUS
 62
     3
100
AcDbLine
 10
201.3102267924725
 20
312.3545181359672
 30
0.0
 11
215.4160466923547
 21
317.4886167094438
 31
0.0
  0
LINE
  5
1F7
330
1F
100
AcDbEntity
  8
Ｓ_１_１
  6
CONTINUOUS
 62
     3
100
AcDbLine
 10
156.914953210621
 20
279.9723484172349
 30
0.0
 11
188.0276515828265
 21
311.0850467894406
 31
0.0
  0
ARC
  5
1F8
330
1F
100
AcDbEntity
  8
Ｓ_１_１
  6
CONTINUOUS
 62
     3
100
AcDbCircle
 10
151.9426047934109
 20
256.00000000002
 30
0.0
 40
30.0
100
AcDbArc
 50
90.00000000000001
 51
180.0
  0
ARC
  5
1F9
330
1F
100
AcDbEntity
  8
Ｓ_１_１
  6
CONTINUOUS
 62
     3
100
AcDbCircle
 10
151.9426047934109
 20
256.00000000002
 30
0.0
 40
42.0
100
AcDbArc
 50
90.00000000000001
 51
180.0
  0
ARC
  5
1FA
330
1F
100
AcDbEntity
  8
Ｓ_１_１
  6
EXLTYPE2
 62
     1
100
AcDbCircle
 10
151.9426047934109
 20
256.0000000000201
 30
0.0
 40
36.0
100
AcDbArc
 50
90.00000000000009
 51
180.0
  0
LINE
  5
1FB
330
1F
100
AcDbEntity
  8
Ｓ_１_１
  6
EXLTYPE2
 62
     1
100
AcDbLine
 10
171.9426047934109
 20
292.0000000000201
 30
0.0
 11
151.9426047934109
 21
292.0000000000201
 31
0.0
  0
LINE
  5
1FC
330
1F
100
AcDbEntity
  8
Ｓ_１_１
  6
CONTINUOUS
 62
     3
100
AcDbLine
 10
162.9426047934109
 20
286.00000000002
 30
0.0
 11
151.9426047934109
 21
286.00000000002
 31
0.0
  0
LINE
  5
1FD
330
1F
100
AcDbEntity
  8
Ｓ_１_１
  6
CONTINUOUS
 62
     3
100
AcDbLine
 10
174.9426047934106
 20
298.00000000002
 30
0.0
 11
151.9426047934109
 21
298.00000000002
 31
0.0
  0
LINE
  5
1FE
330
1F
100
AcDbEntity
  8
Ｓ_１_１
  6
CONTINUOUS
 62
     3
100
AcDbLine
 10
121.9426047934109
 20
256.00000000002
 30
0.0
 11
121.9426047934109
 21
200.0000000000222
 31
0.0
  0
LINE
  5
1FF
330
1F
100
AcDbEntity
  8
Ｓ_１_１
  6
CONTINUOUS
 62
     3
100
AcDbLine
 10
109.9426047934109
 20
256.00000000002
 30
0.0
 11
109.9426047934109
 21
200.0000000000222
 31
0.0
  0
LINE
  5
200
330
1F
100
AcDbEntity
  8
Ｓ_１_１
  6
EXLTYPE2
 62
     1
100
AcDbLine
 10
115.9426047934109
 20
256.00000000002
 30
0.0
 11
115.9426047934109
 21
200.0000000000222
 31
0.0
  0
ARC
  5
201
330
1F
100
AcDbEntity
  8
Ｓ_１_１
  6
CONTINUOUS
 62
     3
100
AcDbCircle
 10
151.9426047934109
 20
200.0000000000222
 30
0.0
 40
30.0
100
AcDbArc
 50
180.0
 51
270.0
  0
ARC
  5
202
330
1F
100
AcDbEntity
  8
Ｓ_１_１
  6
CONTINUOUS
 62
     3
100
AcDbCircle
 10
151.9426047934109
 20
200.0000000000222
 30
0.0
 40
42.0
100
AcDbArc
 50
180.0
 51
270.0
  0
ARC
  5
203
330
1F
100
AcDbEntity
  8
Ｓ_１_１
  6
EXLTYPE2
 62
     1
100
AcDbCircle
 10
151.9426047934109
 20
200.0000000000222
 30
0.0
 40
36.0
100
AcDbArc
 50
180.0
 51
270.0
  0
LINE
  5
204
330
1F
100
AcDbEntity
  8
Ｓ_１_１
  6
CONTINUOUS
 62
     3
100
AcDbLine
 10
174.9426047934086
 20
158.0000000000222
 30
0.0
 11
151.9426047934109
 21
158.0000000000222
 31
0.0
  0
LINE
  5
205
330
1F
100
AcDbEntity
  8
Ｓ_１_１
  6
EXLTYPE2
 62
     1
100
AcDbLine
 10
171.9426047934086
 20
164.0000000000222
 30
0.0
 11
151.9426047934109
 21
164.0000000000222
 31
0.0
  0
LINE
  5
206
330
1F
100
AcDbEntity
  8
Ｓ_１_１
  6
CONTINUOUS
 62
     3
100
AcDbLine
 10
162.9426047934086
 20
170.0000000000222
 30
0.0
 11
151.9426047934109
 21
170.0000000000222
 31
0.0
  0
LINE
  5
207
330
1F
100
AcDbEntity
  8
Ｓ_１_１
  6
CONTINUOUS
 62
     3
100
AcDbLine
 10
188.027651582825
 20
144.914953210601
 30
0.0
 11
156.9149532106194
 21
176.0276515828066
 31
0.0
  0
LINE
  5
208
330
1F
100
AcDbEntity
  8
Ｓ_１_１
  6
CONTINUOUS
 62
     3
100
AcDbLine
 10
158.3291667729925
 20
174.6134380204336
 30
0.0
 11
162.5718074601068
 21
178.856078707548
 31
0.0
  0
LINE
  5
209
330
1F
100
AcDbEntity
  8
Ｓ_１_１
  6
CONTINUOUS
 62
     3
100
AcDbLine
 10
156.9149532106196
 20
176.027651582807
 30
0.0
 11
161.1575938977337
 21
180.270292269921
 31
0.0
  0
LINE
  5
20A
330
1F
100
AcDbEntity
  8
Ｓ_１_１
  6
CONTINUOUS
 62
     3
100
AcDbLine
 10
186.6134380204519
 20
146.3291667729741
 30
0.0
 11
190.8560787075662
 21
150.5718074600884
 31
0.0
  0
LINE
  5
20B
330
1F
100
AcDbEntity
  8
Ｓ_１_１
  6
CONTINUOUS
 62
     3
100
AcDbLine
 10
188.027651582825
 20
144.914953210601
 30
0.0
 11
192.2702922699393
 21
149.1575938977153
 31
0.0
  0
LINE
  5
20C
330
1F
100
AcDbEntity
  8
Ｓ_１_１
  6
CONTINUOUS
 62
     3
100
AcDbLine
 10
156.9149532106209
 20
279.9723484172348
 30
0.0
 11
161.1575938977351
 21
275.7297077301205
 31
0.0
  0
LINE
  5
20D
330
1F
100
AcDbEntity
  8
Ｓ_１_１
  6
CONTINUOUS
 62
     3
100
AcDbLine
 10
158.329166772994
 20
281.3865619796079
 30
0.0
 11
162.5718074601082
 21
277.1439212924936
 31
0.0
  0
LINE
  5
20E
330
1F
100
AcDbEntity
  8
Ｓ_１_１
  6
CONTINUOUS
 62
     3
100
AcDbLine
 10
186.6134380204535
 20
309.6708332270674
 30
0.0
 11
190.8560787075678
 21
305.4281925399532
 31
0.0
  0
LINE
  5
20F
330
1F
100
AcDbEntity
  8
Ｓ_１_１
  6
CONTINUOUS
 62
     3
100
AcDbLine
 10
188.0276515828263
 20
311.0850467894408
 30
0.0
 11
192.2702922699409
 21
306.8424061023263
 31
0.0
  0
LINE
  5
210
330
1F
100
AcDbEntity
  8
Ｓ_１_１
  6
EXLTYPE2
 62
     1
100
AcDbLine
 10
99.94260479341085
 20
228.0000000000211
 30
0.0
 11
385.3571247281004
 21
228.0000000000211
 31
0.0
  0
ARC
  5
211
330
1F
100
AcDbEntity
  8
Ｓ_１_１
  6
CONTINUOUS
 62
     3
100
AcDbCircle
 10
328.0573952066693
 20
256.00000000002
 30
0.0
 40
30.0
100
AcDbArc
 50
0.0
 51
90.00000000000001
  0
ARC
  5
212
330
1F
100
AcDbEntity
  8
Ｓ_１_１
  6
CONTINUOUS
 62
     3
100
AcDbCircle
 10
328.0573952066693
 20
256.00000000002
 30
0.0
 40
42.0
100
AcDbArc
 50
0.0
 51
90.00000000000001
  0
ARC
  5
213
330
1F
100
AcDbEntity
  8
Ｓ_１_１
  6
EXLTYPE2
 62
     1
100
AcDbCircle
 10
328.0573952066693
 20
256.0000000000201
 30
0.0
 40
36.0
100
AcDbArc
 50
0.0
 51
89.99999999999991
  0
LINE
  5
214
330
1F
100
AcDbEntity
  8
Ｓ_１_１
  6
CONTINUOUS
 62
     3
100
AcDbLine
 10
358.0573952066695
 20
256.00000000002
 30
0.0
 11
358.0573952066693
 21
200.0000000000221
 31
0.0
  0
LINE
  5
215
330
1F
100
AcDbEntity
  8
Ｓ_１_１
  6
CONTINUOUS
 62
     3
100
AcDbLine
 10
370.0573952066695
 20
256.00000000002
 30
0.0
 11
370.0573952066693
 21
200.0000000000221
 31
0.0
  0
LINE
  5
216
330
1F
100
AcDbEntity
  8
Ｓ_１_１
  6
EXLTYPE2
 62
     1
100
AcDbLine
 10
364.0573952066695
 20
256.00000000002
 30
0.0
 11
364.0573952066693
 21
200.0000000000221
 31
0.0
  0
ARC
  5
217
330
1F
100
AcDbEntity
  8
Ｓ_１_１
  6
CONTINUOUS
 62
     3
100
AcDbCircle
 10
328.0573952066693
 20
200.0000000000221
 30
0.0
 40
30.0
100
AcDbArc
 50
270.0
 51
0.0
  0
ARC
  5
218
330
1F
100
AcDbEntity
  8
Ｓ_１_１
  6
CONTINUOUS
 62
     3
100
AcDbCircle
 10
328.0573952066693
 20
200.0000000000221
 30
0.0
 40
42.0
100
AcDbArc
 50
270.0
 51
0.0
  0
ARC
  5
219
330
1F
100
AcDbEntity
  8
Ｓ_１_１
  6
EXLTYPE2
 62
     1
100
AcDbCircle
 10
328.0573952066693
 20
200.0000000000221
 30
0.0
 40
36.0
100
AcDbArc
 50
270.0
 51
0.0
  0
LINE
  5
21A
330
1F
100
AcDbEntity
  8
Ｓ_１_１
  6
CONTINUOUS
 62
     3
100
AcDbLine
 10
305.0573952066716
 20
158.0000000000222
 30
0.0
 11
328.0573952066693
 21
158.0000000000222
 31
0.0
  0
LINE
  5
21B
330
1F
100
AcDbEntity
  8
Ｓ_１_１
  6
EXLTYPE2
 62
     1
100
AcDbLine
 10
308.0573952066716
 20
164.0000000000222
 30
0.0
 11
328.0573952066693
 21
164.0000000000222
 31
0.0
  0
LINE
  5
21C
330
1F
100
AcDbEntity
  8
Ｓ_１_１
  6
CONTINUOUS
 62
     3
100
AcDbLine
 10
317.0573952066716
 20
170.0000000000221
 30
0.0
 11
328.0573952066693
 21
170.0000000000221
 31
0.0
  0
LINE
  5
21D
330
1F
100
AcDbEntity
  8
Ｓ_１_１
  6
CONTINUOUS
 62
     3
100
AcDbLine
 10
321.6708332270878
 20
174.6134380204335
 30
0.0
 11
317.4281925399735
 21
178.8560787075479
 31
0.0
  0
LINE
  5
21E
330
1F
100
AcDbEntity
  8
Ｓ_１_１
  6
CONTINUOUS
 62
     3
100
AcDbLine
 10
323.0850467894604
 20
176.0276515828069
 30
0.0
 11
318.8424061023463
 21
180.2702922699209
 31
0.0
  0
LINE
  5
21F
330
1F
100
AcDbEntity
  8
Ｓ_１_１
  6
CONTINUOUS
 62
     3
100
AcDbLine
 10
291.9723484172553
 20
144.914953210601
 30
0.0
 11
323.0850467894609
 21
176.0276515828066
 31
0.0
  0
LINE
  5
220
330
1F
100
AcDbEntity
  8
Ｓ_１_１
  6
CONTINUOUS
 62
     3
100
AcDbLine
 10
293.3865619796281
 20
146.3291667729741
 30
0.0
 11
289.1439212925141
 21
150.5718074600884
 31
0.0
  0
LINE
  5
221
330
1F
100
AcDbEntity
  8
Ｓ_１_１
  6
CONTINUOUS
 62
     3
100
AcDbLine
 10
291.9723484172553
 20
144.914953210601
 30
0.0
 11
287.7297077301407
 21
149.1575938977153
 31
0.0
  0
LINE
  5
222
330
1F
100
AcDbEntity
  8
Ｓ_１_１
  6
EXLTYPE2
 62
     1
100
AcDbLine
 10
308.0573952066695
 20
292.0000000000201
 30
0.0
 11
328.0573952066695
 21
292.0000000000201
 31
0.0
  0
LINE
  5
223
330
1F
100
AcDbEntity
  8
Ｓ_１_１
  6
CONTINUOUS
 62
     3
100
AcDbLine
 10
317.0573952066693
 20
286.00000000002
 30
0.0
 11
328.0573952066693
 21
286.00000000002
 31
0.0
  0
LINE
  5
224
330
1F
100
AcDbEntity
  8
Ｓ_１_１
  6
CONTINUOUS
 62
     3
100
AcDbLine
 10
305.0573952066695
 20
298.00000000002
 30
0.0
 11
328.0573952066693
 21
298.00000000002
 31
0.0
  0
LINE
  5
225
330
1F
100
AcDbEntity
  8
Ｓ_１_１
  6
CONTINUOUS
 62
     3
100
AcDbLine
 10
323.0850467894593
 20
279.9723484172347
 30
0.0
 11
318.842406102345
 21
275.7297077301205
 31
0.0
  0
LINE
  5
226
330
1F
100
AcDbEntity
  8
Ｓ_１_１
  6
CONTINUOUS
 62
     3
100
AcDbLine
 10
321.6708332270862
 20
281.3865619796078
 30
0.0
 11
317.4281925399721
 21
277.1439212924936
 31
0.0
  0
ARC
  5
227
330
1F
100
AcDbEntity
  8
Ｓ_１_１
  6
CONTINUOUS
 62
     3
100
AcDbCircle
 10
291.8019857565521
 20
306.4653462632564
 30
0.0
 40
3.752776145935058
100
AcDbArc
 50
30.00000888460604
 51
30.00001156757087
  0
LINE
  5
228
330
1F
100
AcDbEntity
  8
Ｓ_１_１
  6
CONTINUOUS
 62
     3
100
AcDbLine
 10
295.0519848231654
 20
308.3417347711824
 30
0.0
 11
295.0519847353005
 21
308.341734923369
 31
0.0
  0
LINE
  5
229
330
1F
100
AcDbEntity
  8
Ｓ_１_１
  6
CONTINUOUS
 62
     3
100
AcDbLine
 10
293.3865619796268
 20
309.6708332270674
 30
0.0
 11
289.1439212925125
 21
305.4281925399532
 31
0.0
  0
LINE
  5
22A
330
1F
100
AcDbEntity
  8
Ｓ_１_１
  6
CONTINUOUS
 62
     3
100
AcDbLine
 10
323.0850467894593
 20
279.9723484172349
 30
0.0
 11
291.9723484172539
 21
311.0850467894406
 31
0.0
  0
LINE
  5
22B
330
1F
100
AcDbEntity
  8
Ｓ_１_１
  6
CONTINUOUS
 62
     3
100
AcDbLine
 10
291.9723484172539
 20
311.0850467894408
 30
0.0
 11
287.7297077301394
 21
306.8424061023263
 31
0.0
  0
LINE
  5
22C
330
1F
100
AcDbEntity
  8
Ｓ_１_１
  6
CONTINUOUS
 62
     3
100
AcDbLine
 10
457.0000000000205
 20
320.5000080000009
 30
0.0
 11
457.0000000000205
 21
320.500000000001
 31
0.0
  0
LINE
  5
22D
330
1F
100
AcDbEntity
  8
Ｓ_１_１
  6
CONTINUOUS
 62
     3
100
AcDbLine
 10
456.9999910000145
 20
320.500000000001
 30
0.0
 11
456.0000010000203
 21
319.5000110000009
 31
0.0
  0
LINE
  5
22E
330
1F
100
AcDbEntity
  8
Ｓ_１_１
  6
CONTINUOUS
 62
     3
100
AcDbLine
 10
457.0000000000205
 20
135.4999920000011
 30
0.0
 11
457.0000000000205
 21
135.5000000000011
 31
0.0
  0
LINE
  5
22F
330
1F
100
AcDbEntity
  8
Ｓ_１_１
  6
CONTINUOUS
 62
     3
100
AcDbLine
 10
456.9999910000145
 20
135.5000000000011
 30
0.0
 11
456.0000010000203
 21
136.4999890000011
 31
0.0
  0
LINE
  5
230
330
1F
100
AcDbEntity
  8
Ｓ_１_１
  6
CONTINUOUS
 62
     3
100
AcDbLine
 10
465.9999890000204
 20
135.5000000000011
 30
0.0
 11
470.9999910000204
 21
135.5000000000011
 31
0.0
  0
LINE
  5
231
330
1F
100
AcDbEntity
  8
Ｓ_１_１
  6
CONTINUOUS
 62
     3
100
AcDbLine
 10
445.5000070000206
 20
280.500000000001
 30
0.0
 11
445.0000070000206
 21
280.000000000001
 31
0.0
  0
LINE
  5
232
330
1F
100
AcDbEntity
  8
Ｓ_１_１
  6
CONTINUOUS
 62
     3
100
AcDbLine
 10
449.5000070000203
 20
280.500000000001
 30
0.0
 11
445.5000070000206
 21
280.500000000001
 31
0.0
  0
LINE
  5
233
330
1F
100
AcDbEntity
  8
Ｓ_１_１
  6
CONTINUOUS
 62
     3
100
AcDbLine
 10
449.5000070000203
 20
280.500000000001
 30
0.0
 11
450.0000070000203
 21
280.000000000001
 31
0.0
  0
LINE
  5
234
330
1F
100
AcDbEntity
  8
Ｓ_１_１
  6
CONTINUOUS
 62
     3
100
AcDbLine
 10
456.9999910000145
 20
135.5000000000011
 30
0.0
 11
599.0000000000202
 21
135.5000000000012
 31
0.0
  0
LINE
  5
235
330
1F
100
AcDbEntity
  8
Ｓ_１_１
  6
CONTINUOUS
 62
     3
100
AcDbLine
 10
599.0000000000202
 20
135.5000000000011
 30
0.0
 11
600.0000000000202
 21
136.5000009999997
 31
0.0
  0
LINE
  5
236
330
1F
100
AcDbEntity
  8
Ｓ_１_１
  6
CONTINUOUS
 62
     3
100
AcDbLine
 10
599.0000000000202
 20
320.500000000002
 30
0.0
 11
600.0000000000202
 21
319.4999990000032
 31
0.0
  0
LINE
  5
237
330
1F
100
AcDbEntity
  8
Ｓ_１_１
  6
CONTINUOUS
 62
     3
100
AcDbLine
 10
600.0000000000202
 20
136.5000009999997
 30
0.0
 11
600.0000000000202
 21
319.4999990000032
 31
0.0
  0
LINE
  5
238
330
1F
100
AcDbEntity
  8
Ｓ_１_１
  6
CONTINUOUS
 62
     3
100
AcDbLine
 10
455.5000144973303
 20
283.0000076293978
 30
0.0
 11
453.0000070000203
 21
281.5566276019436
 31
0.0
  0
LINE
  5
239
330
1F
100
AcDbEntity
  8
Ｓ_１_１
  6
CONTINUOUS
 62
     3
100
AcDbLine
 10
453.0000070000203
 20
174.1546972582824
 30
0.0
 11
453.0000034996706
 21
174.1546992792103
 31
0.0
  0
LINE
  5
23A
330
1F
100
AcDbEntity
  8
Ｓ_１_１
  6
CONTINUOUS
 62
     3
100
AcDbLine
 10
505.5000000000202
 20
357.8622174835693
 30
0.0
 11
505.5000000000202
 21
342.3622174835693
 31
0.0
  0
LINE
  5
23B
330
1F
100
AcDbEntity
  8
Ｓ_１_１
  6
CONTINUOUS
 62
     3
100
AcDbLine
 10
481.5000000000202
 20
358.8622174835693
 30
0.0
 11
493.0000000000202
 21
358.8622174835693
 31
0.0
  0
LINE
  5
23C
330
1F
100
AcDbEntity
  8
Ｓ_１_１
  6
CONTINUOUS
 62
     3
100
AcDbLine
 10
493.0000000000202
 20
358.8622174835693
 30
0.0
 11
504.5000000000202
 21
358.8622174835693
 31
0.0
  0
LINE
  5
23D
330
1F
100
AcDbEntity
  8
Ｓ_１_１
  6
CONTINUOUS
 62
     3
100
AcDbLine
 10
504.5000013689203
 20
358.862219042269
 30
0.0
 11
505.5000014189202
 21
357.8622189078689
 31
0.0
  0
LINE
  5
23E
330
1F
100
AcDbEntity
  8
Ｓ_１_１
  6
CONTINUOUS
 62
     3
100
AcDbLine
 10
481.4999997116204
 20
358.8622179463693
 30
0.0
 11
480.4999999987201
 21
357.8622181492689
 31
0.0
  0
LINE
  5
23F
330
1F
100
AcDbEntity
  8
Ｓ_１_１
  6
CONTINUOUS
 62
     3
100
AcDbLine
 10
480.5000000000202
 20
357.8622174835693
 30
0.0
 11
480.5000000000202
 21
342.3622174835693
 31
0.0
  0
LINE
  5
240
330
1F
100
AcDbEntity
  8
Ｓ_１_１
  6
CONTINUOUS
 62
     3
100
AcDbLine
 10
480.5000000000202
 20
357.8622174835693
 30
0.0
 11
505.5000000000202
 21
357.8622174835693
 31
0.0
  0
LINE
  5
241
330
1F
100
AcDbEntity
  8
Ｓ_１_１
  6
CONTINUOUS
 62
     3
100
AcDbLine
 10
501.2648620000202
 20
360.22448948358
 30
0.0
 11
484.7351450000203
 21
360.22448948358
 31
0.0
  0
LINE
  5
242
330
1F
100
AcDbEntity
  8
Ｓ_１_１
  6
CONTINUOUS
 62
     3
100
AcDbLine
 10
485.8201190000202
 20
366.3621904835802
 30
0.0
 11
485.4365110000201
 21
360.2244774835801
 31
0.0
  0
LINE
  5
243
330
1F
100
AcDbEntity
  8
Ｓ_１_１
  6
CONTINUOUS
 62
     3
100
AcDbLine
 10
485.11874900002
 20
366.3622084835801
 30
0.0
 11
484.6499980000201
 21
358.8621944835801
 31
0.0
  0
LINE
  5
244
330
1F
100
AcDbEntity
  8
Ｓ_１_１
  6
CONTINUOUS
 62
     3
100
AcDbLine
 10
485.4365260000202
 20
360.2244974835801
 30
0.0
 11
484.65001100002
 21
358.8622144835801
 31
0.0
  0
LINE
  5
245
330
1F
100
AcDbEntity
  8
Ｓ_１_１
  6
CONTINUOUS
 62
     3
100
AcDbLine
 10
500.8812500000201
 20
366.3622204835801
 30
0.0
 11
501.3500030000203
 21
358.8621754835801
 31
0.0
  0
LINE
  5
246
330
1F
100
AcDbEntity
  8
Ｓ_１_１
  6
CONTINUOUS
 62
     3
100
AcDbLine
 10
501.3499890000201
 20
358.8621984835801
 30
0.0
 11
500.5634830000201
 21
360.2244684835801
 31
0.0
  0
LINE
  5
247
330
1F
100
AcDbEntity
  8
Ｓ_１_１
  6
CONTINUOUS
 62
     3
100
AcDbLine
 10
500.1798880000204
 20
366.3622024835801
 30
0.0
 11
500.5634970000203
 21
360.2244594835801
 31
0.0
  0
ARC
  5
248
330
1F
100
AcDbEntity
  8
Ｓ_１_１
  6
CONTINUOUS
 62
     3
100
AcDbCircle
 10
503.39228850001
 20
367.2283834835786
 30
0.0
 40
6.133925000000002
100
AcDbArc
 50
55.61543800000034
 51
124.3845830000003
  0
ARC
  5
249
330
1F
100
AcDbEntity
  8
Ｓ_１_１
  6
CONTINUOUS
 62
     3
100
AcDbCircle
 10
492.99998450001
 20
350.4340714835786
 30
0.0
 40
22.927938
100
AcDbArc
 50
72.411858
 51
107.5881660000001
  0
ARC
  5
24A
330
1F
100
AcDbEntity
  8
Ｓ_１_１
  6
CONTINUOUS
 62
     3
100
AcDbCircle
 10
482.6076505000103
 20
372.4960834835785
 30
0.0
 40
6.133925000000002
100
AcDbArc
 50
235.6154019999991
 51
304.3845609999998
  0
ARC
  5
24B
330
1F
100
AcDbEntity
  8
Ｓ_１_１
  6
CONTINUOUS
 62
     3
100
AcDbCircle
 10
488.4999845000104
 20
410.3620504835787
 30
0.0
 40
1.0
100
AcDbArc
 50
89.99997799999524
 51
179.9999749999976
  0
ARC
  5
24C
330
1F
100
AcDbEntity
  8
Ｓ_１_１
  6
CONTINUOUS
 62
     3
100
AcDbCircle
 10
482.6076505000103
 20
367.2283834835786
 30
0.0
 40
6.133925000000002
100
AcDbArc
 50
55.6153689999997
 51
124.384513999999
  0
ARC
  5
24D
330
1F
100
AcDbEntity
  8
Ｓ_１_１
  6
CONTINUOUS
 62
     3
100
AcDbCircle
 10
492.99998450001
 20
389.2901504835788
 30
0.0
 40
22.927942
100
AcDbArc
 50
252.4118210000002
 51
287.5881150000001
  0
ARC
  5
24E
330
1F
100
AcDbEntity
  8
Ｓ_１_１
  6
CONTINUOUS
 62
     3
100
AcDbCircle
 10
503.39228850001
 20
372.4960834835785
 30
0.0
 40
6.133925000000002
100
AcDbArc
 50
235.6154159999998
 51
304.3845739999999
  0
ARC
  5
24F
330
1F
100
AcDbEntity
  8
Ｓ_１_１
  6
CONTINUOUS
 62
     3
100
AcDbCircle
 10
497.4999545000098
 20
410.3620504835787
 30
0.0
 40
1.0
100
AcDbArc
 50
359.9999970000023
 51
89.9999780000017
  0
LINE
  5
250
330
1F
100
AcDbEntity
  8
Ｓ_１_１
  6
CONTINUOUS
 62
     3
100
AcDbLine
 10
491.50001550001
 20
413.3621724835785
 30
0.0
 11
494.49998450001
 21
413.3621724835785
 31
0.0
  0
LINE
  5
251
330
1F
100
AcDbEntity
  8
Ｓ_１_１
  6
CONTINUOUS
 62
     3
100
AcDbLine
 10
480.9999845000104
 20
366.3622944835785
 30
0.0
 11
504.9999545000098
 21
366.3622944835785
 31
0.0
  0
LINE
  5
252
330
1F
100
AcDbEntity
  8
Ｓ_１_１
  6
CONTINUOUS
 62
     3
100
AcDbLine
 10
487.4999545000103
 20
410.3620504835787
 30
0.0
 11
487.4999545000103
 21
401.3622944835785
 31
0.0
  0
LINE
  5
253
330
1F
100
AcDbEntity
  8
Ｓ_１_１
  6
CONTINUOUS
 62
     3
100
AcDbLine
 10
487.4999545000103
 20
401.3622944835785
 30
0.0
 11
498.49998450001
 21
401.3622944835785
 31
0.0
  0
LINE
  5
254
330
1F
100
AcDbEntity
  8
Ｓ_１_１
  6
CONTINUOUS
 62
     3
100
AcDbLine
 10
484.0000155000105
 20
397.8620504835787
 30
0.0
 11
484.0000155000105
 21
395.8621724835786
 31
0.0
  0
LINE
  5
255
330
1F
100
AcDbEntity
  8
Ｓ_１_１
  6
CONTINUOUS
 62
     3
100
AcDbLine
 10
501.99998450001
 20
397.8620504835787
 30
0.0
 11
501.99998450001
 21
395.8621724835786
 31
0.0
  0
LINE
  5
256
330
1F
100
AcDbEntity
  8
Ｓ_１_１
  6
CONTINUOUS
 62
     3
100
AcDbLine
 10
481.7499845000104
 20
382.3621724835786
 30
0.0
 11
504.24998450001
 21
382.3621724835786
 31
0.0
  0
LINE
  5
257
330
1F
100
AcDbEntity
  8
Ｓ_１_１
  6
CONTINUOUS
 62
     3
100
AcDbLine
 10
504.74998450001
 20
381.8621724835786
 30
0.0
 11
504.74998450001
 21
373.3621724835786
 31
0.0
  0
LINE
  5
258
330
1F
100
AcDbEntity
  8
Ｓ_１_１
  6
CONTINUOUS
 62
     3
100
AcDbLine
 10
481.2499545000103
 20
381.8621724835786
 30
0.0
 11
481.2499545000103
 21
373.3621724835786
 31
0.0
  0
LINE
  5
259
330
1F
100
AcDbEntity
  8
Ｓ_１_１
  6
CONTINUOUS
 62
     3
100
AcDbLine
 10
479.1436165000102
 20
367.4341464835786
 30
0.0
 11
480.9999885000104
 21
366.3623694835789
 31
0.0
  0
LINE
  5
25A
330
1F
100
AcDbEntity
  8
Ｓ_１_１
  6
CONTINUOUS
 62
     3
100
AcDbLine
 10
504.9999115000098
 20
373.3623634835787
 30
0.0
 11
506.85638950001
 21
372.2905244835785
 31
0.0
  0
LINE
  5
25B
330
1F
100
AcDbEntity
  8
Ｓ_１_１
  6
CONTINUOUS
 62
     3
100
AcDbLine
 10
504.99995350001
 20
366.3623274835788
 30
0.0
 11
506.85632650001
 21
367.4341044835789
 31
0.0
  0
LINE
  5
25C
330
1F
100
AcDbEntity
  8
Ｓ_１_１
  6
CONTINUOUS
 62
     3
100
AcDbLine
 10
479.1436235000103
 20
372.2906644835786
 30
0.0
 11
480.9999965000104
 21
373.3624414835787
 31
0.0
  0
LINE
  5
25D
330
1F
100
AcDbEntity
  8
Ｓ_１_１
  6
CONTINUOUS
 62
     3
100
AcDbLine
 10
506.8563995000097
 20
372.2903944835786
 30
0.0
 11
506.8563995000097
 21
367.4340714835786
 31
0.0
  0
LINE
  5
25E
330
1F
100
AcDbEntity
  8
Ｓ_１_１
  6
CONTINUOUS
 62
     3
100
AcDbLine
 10
499.9282075000099
 20
372.2903944835786
 30
0.0
 11
499.9282075000099
 21
367.4340714835786
 31
0.0
  0
LINE
  5
25F
330
1F
100
AcDbEntity
  8
Ｓ_１_１
  6
CONTINUOUS
 62
     3
100
AcDbLine
 10
486.0718535000103
 20
372.2903944835786
 30
0.0
 11
486.0718535000103
 21
367.4340714835786
 31
0.0
  0
LINE
  5
260
330
1F
100
AcDbEntity
  8
Ｓ_１_１
  6
CONTINUOUS
 62
     3
100
AcDbLine
 10
479.1435855000102
 20
372.2903944835786
 30
0.0
 11
479.1435855000102
 21
367.4340714835786
 31
0.0
  0
LINE
  5
261
330
1F
100
AcDbEntity
  8
Ｓ_１_１
  6
CONTINUOUS
 62
     3
100
AcDbLine
 10
480.9999845000104
 20
373.3621724835786
 30
0.0
 11
504.9999545000098
 21
373.3621724835786
 31
0.0
  0
LINE
  5
262
330
1F
100
AcDbEntity
  8
Ｓ_１_１
  6
CONTINUOUS
 62
     3
100
AcDbLine
 10
488.4999845000104
 20
411.362294483579
 30
0.0
 11
497.4999545000098
 21
411.362294483579
 31
0.0
  0
LINE
  5
263
330
1F
100
AcDbEntity
  8
Ｓ_１_１
  6
CONTINUOUS
 62
     3
100
AcDbLine
 10
494.49984350001
 20
413.3623594835786
 30
0.0
 11
496.4998885000098
 21
411.3623144835789
 31
0.0
  0
LINE
  5
264
330
1F
100
AcDbEntity
  8
Ｓ_１_１
  6
CONTINUOUS
 62
     3
100
AcDbLine
 10
489.4998165000104
 20
411.3623574835785
 30
0.0
 11
491.4997755000097
 21
413.3623164835786
 31
0.0
  0
LINE
  5
265
330
1F
100
AcDbEntity
  8
Ｓ_１_１
  6
CONTINUOUS
 62
     3
100
AcDbLine
 10
485.4999845000104
 20
392.8620504835787
 30
0.0
 11
500.49998450001
 21
392.8620504835787
 31
0.0
  0
LINE
  5
266
330
1F
100
AcDbEntity
  8
Ｓ_１_１
  6
CONTINUOUS
 62
     3
100
AcDbLine
 10
485.4999845000104
 20
394.3621724835786
 30
0.0
 11
500.49998450001
 21
394.3621724835786
 31
0.0
  0
LINE
  5
267
330
1F
100
AcDbEntity
  8
Ｓ_１_１
  6
CONTINUOUS
 62
     3
100
AcDbLine
 10
484.0000155000105
 20
397.8620504835787
 30
0.0
 11
501.99998450001
 21
397.8620504835787
 31
0.0
  0
LINE
  5
268
330
1F
100
AcDbEntity
  8
Ｓ_１_１
  6
CONTINUOUS
 62
     3
100
AcDbLine
 10
501.99998450001
 20
391.3622944835785
 30
0.0
 11
501.99998450001
 21
382.3621724835786
 31
0.0
  0
LINE
  5
269
330
1F
100
AcDbEntity
  8
Ｓ_１_１
  6
CONTINUOUS
 62
     3
100
AcDbLine
 10
484.0000155000105
 20
391.3622944835785
 30
0.0
 11
484.0000155000105
 21
382.3621724835786
 31
0.0
  0
LINE
  5
26A
330
1F
100
AcDbEntity
  8
Ｓ_１_１
  6
CONTINUOUS
 62
     3
100
AcDbLine
 10
483.9998725000103
 20
395.8621934835789
 30
0.0
 11
485.4998845000102
 21
394.3621804835786
 31
0.0
  0
LINE
  5
26B
330
1F
100
AcDbEntity
  8
Ｓ_１_１
  6
CONTINUOUS
 62
     3
100
AcDbLine
 10
500.4999505000098
 20
394.3621794835787
 30
0.0
 11
501.9998335000098
 21
395.8620624835787
 31
0.0
  0
LINE
  5
26C
330
1F
100
AcDbEntity
  8
Ｓ_１_１
  6
CONTINUOUS
 62
     3
100
AcDbLine
 10
484.0000155000105
 20
395.8621724835786
 30
0.0
 11
501.99998450001
 21
395.8621724835786
 31
0.0
  0
LINE
  5
26D
330
1F
100
AcDbEntity
  8
Ｓ_１_１
  6
CONTINUOUS
 62
     3
100
AcDbLine
 10
483.9999865000102
 20
391.3623274835788
 30
0.0
 11
485.4998695000102
 21
392.8622104835787
 31
0.0
  0
LINE
  5
26E
330
1F
100
AcDbEntity
  8
Ｓ_１_１
  6
CONTINUOUS
 62
     3
100
AcDbLine
 10
500.4998365000099
 20
392.8621684835786
 30
0.0
 11
501.9998495000098
 21
391.3621564835786
 31
0.0
  0
LINE
  5
26F
330
1F
100
AcDbEntity
  8
Ｓ_１_１
  6
CONTINUOUS
 62
     3
100
AcDbLine
 10
481.2499545000103
 20
381.8621724835786
 30
0.0
 11
504.74998450001
 21
381.8621724835786
 31
0.0
  0
LINE
  5
270
330
1F
100
AcDbEntity
  8
Ｓ_１_１
  6
CONTINUOUS
 62
     3
100
AcDbLine
 10
484.0000155000105
 20
391.3622944835785
 30
0.0
 11
501.99998450001
 21
391.3622944835785
 31
0.0
  0
LINE
  5
271
330
1F
100
AcDbEntity
  8
Ｓ_１_１
  6
CONTINUOUS
 62
     3
100
AcDbLine
 10
485.4999845000104
 20
394.3621724835786
 30
0.0
 11
485.4999845000104
 21
392.8620504835787
 31
0.0
  0
LINE
  5
272
330
1F
100
AcDbEntity
  8
Ｓ_１_１
  6
CONTINUOUS
 62
     3
100
AcDbLine
 10
500.49998450001
 20
394.3621724835786
 30
0.0
 11
500.49998450001
 21
392.8620504835787
 31
0.0
  0
LINE
  5
273
330
1F
100
AcDbEntity
  8
Ｓ_１_１
  6
CONTINUOUS
 62
     3
100
AcDbLine
 10
504.2498805000098
 20
382.3622614835787
 30
0.0
 11
504.74982750001
 21
381.8623154835788
 31
0.0
  0
LINE
  5
274
330
1F
100
AcDbEntity
  8
Ｓ_１_１
  6
CONTINUOUS
 62
     3
100
AcDbLine
 10
481.2499095000105
 20
381.8622634835785
 30
0.0
 11
481.7498075000105
 21
382.3621724835786
 31
0.0
  0
LINE
  5
275
330
1F
100
AcDbEntity
  8
Ｓ_１_１
  6
CONTINUOUS
 62
     3
100
AcDbLine
 10
483.9999435000102
 20
397.8622814835787
 30
0.0
 11
487.4999575000104
 21
401.3622954835789
 31
0.0
  0
LINE
  5
276
330
1F
100
AcDbEntity
  8
Ｓ_１_１
  6
CONTINUOUS
 62
     3
100
AcDbLine
 10
498.4998345000101
 20
401.3620814835787
 30
0.0
 11
501.9998055000099
 21
397.8621094835786
 31
0.0
  0
LINE
  5
277
330
1F
100
AcDbEntity
  8
Ｓ_１_１
  6
CONTINUOUS
 62
     3
100
AcDbLine
 10
498.49998450001
 20
410.3620504835787
 30
0.0
 11
498.49998450001
 21
401.3622944835785
 31
0.0
  0
LINE
  5
278
330
1F
100
AcDbEntity
  8
Ｓ_１_１
  6
CONTINUOUS
 62
     3
100
AcDbLine
 10
481.5000000000202
 20
326.8622790000093
 30
0.0
 11
493.0000000000202
 21
326.8622790000093
 31
0.0
  0
LINE
  5
279
330
1F
100
AcDbEntity
  8
Ｓ_１_１
  6
CONTINUOUS
 62
     3
100
AcDbLine
 10
493.0000000000202
 20
326.8622790000093
 30
0.0
 11
504.5000000000202
 21
326.8622790000093
 31
0.0
  0
LINE
  5
27A
330
1F
100
AcDbEntity
  8
Ｓ_１_１
  6
CONTINUOUS
 62
     3
100
AcDbLine
 10
480.5000000000202
 20
327.8622790000093
 30
0.0
 11
505.5000000000202
 21
327.8622790000093
 31
0.0
  0
LINE
  5
27B
330
1F
100
AcDbEntity
  8
Ｓ_１_１
  6
CONTINUOUS
 62
     3
100
AcDbLine
 10
505.50000078672
 20
327.862277902909
 30
0.0
 11
504.50000098962
 21
326.8622781900092
 31
0.0
  0
LINE
  5
27C
330
1F
100
AcDbEntity
  8
Ｓ_１_１
  6
CONTINUOUS
 62
     3
100
AcDbLine
 10
480.5000000481202
 20
327.8622790758093
 30
0.0
 11
481.5000001752203
 21
326.8622790330089
 31
0.0
  0
CIRCLE
  5
27D
330
1F
100
AcDbEntity
  8
Ｓ_１_１
  6
CONTINUOUS
 62
     3
100
AcDbCircle
 10
493.0000000000202
 20
343.3622790000102
 30
0.0
 40
10.0
  0
POLYLINE
  5
27E
330
1F
100
AcDbEntity
  8
Ｓ_１_１
  6
CONTINUOUS
 62
     3
100
AcDb2dPolyline
 66
     1
 10
0.0
 20
0.0
 30
0.0
 70
   128
  0
VERTEX
  5
27F
330
27E
100
AcDbEntity
  8
Ｓ_１_１
  6
CONTINUOUS
 62
     3
100
AcDbVertex
100
AcDb2dVertex
 10
493.0000000000202
 20
352.8622790000102
 30
0.0
  0
VERTEX
  5
280
330
27E
100
AcDbEntity
  8
Ｓ_１_１
  6
CONTINUOUS
 62
     3
100
AcDbVertex
100
AcDb2dVertex
 10
484.7727586640679
 20
348.1122790000102
 30
0.0
  0
VERTEX
  5
281
330
27E
100
AcDbEntity
  8
Ｓ_１_１
  6
CONTINUOUS
 62
     3
100
AcDbVertex
100
AcDb2dVertex
 10
484.7727586640679
 20
338.6122790000102
 30
0.0
  0
VERTEX
  5
282
330
27E
100
AcDbEntity
  8
Ｓ_１_１
  6
CONTINUOUS
 62
     3
100
AcDbVertex
100
AcDb2dVertex
 10
493.0000000000202
 20
333.8622790000102
 30
0.0
  0
VERTEX
  5
283
330
27E
100
AcDbEntity
  8
Ｓ_１_１
  6
CONTINUOUS
 62
     3
100
AcDbVertex
100
AcDb2dVertex
 10
501.2272413359722
 20
338.6122790000102
 30
0.0
  0
VERTEX
  5
284
330
27E
100
AcDbEntity
  8
Ｓ_１_１
  6
CONTINUOUS
 62
     3
100
AcDbVertex
100
AcDb2dVertex
 10
501.2272413359722
 20
348.1122790000102
 30
0.0
  0
VERTEX
  5
285
330
27E
100
AcDbEntity
  8
Ｓ_１_１
  6
CONTINUOUS
 62
     3
100
AcDbVertex
100
AcDb2dVertex
 10
493.0000000000202
 20
352.8622790000102
 30
0.0
  0
SEQEND
  5
286
330
27E
100
AcDbEntity
  8
Ｓ_１_１
  6
CONTINUOUS
 62
     3
  0
CIRCLE
  5
287
330
1F
100
AcDbEntity
  8
Ｓ_１_１
  6
CONTINUOUS
 62
     3
100
AcDbCircle
 10
493.0000000000202
 20
343.3622790000102
 30
0.0
 40
8.227241335951572
  0
ARC
  5
288
330
1F
100
AcDbEntity
  8
Ｓ_１_１
  6
CONTINUOUS
 62
     3
100
AcDbCircle
 10
493.0000000000202
 20
343.3622790000102
 30
0.0
 40
8.999999915700016
100
AcDbArc
 50
96.08359749728285
 51
143.9164025027172
  0
ARC
  5
289
330
1F
100
AcDbEntity
  8
Ｓ_１_１
  6
CONTINUOUS
 62
     3
100
AcDbCircle
 10
493.0000000000202
 20
343.3622790000102
 30
0.0
 40
8.999999915700016
100
AcDbArc
 50
156.0835974972827
 51
203.9164025027173
  0
ARC
  5
28A
330
1F
100
AcDbEntity
  8
Ｓ_１_１
  6
CONTINUOUS
 62
     3
100
AcDbCircle
 10
493.0000000000202
 20
343.3622790000102
 30
0.0
 40
8.999999915700016
100
AcDbArc
 50
216.0835974972828
 51
263.9164025027172
  0
ARC
  5
28B
330
1F
100
AcDbEntity
  8
Ｓ_１_１
  6
CONTINUOUS
 62
     3
100
AcDbCircle
 10
493.0000000000202
 20
343.3622790000102
 30
0.0
 40
8.999999915700016
100
AcDbArc
 50
276.0835974972829
 51
323.9164025027172
  0
ARC
  5
28C
330
1F
100
AcDbEntity
  8
Ｓ_１_１
  6
CONTINUOUS
 62
     3
100
AcDbCircle
 10
493.0000000000202
 20
343.3622790000102
 30
0.0
 40
8.999999915700016
100
AcDbArc
 50
336.0835974972827
 51
23.91640250271736
  0
ARC
  5
28D
330
1F
100
AcDbEntity
  8
Ｓ_１_１
  6
CONTINUOUS
 62
     3
100
AcDbCircle
 10
493.0000000000202
 20
343.3622790000102
 30
0.0
 40
8.999999915700016
100
AcDbArc
 50
36.08359749728283
 51
83.91640250271715
  0
CIRCLE
  5
28E
330
1F
100
AcDbEntity
  8
Ｓ_１_１
  6
CONTINUOUS
 62
     3
100
AcDbCircle
 10
493.0000000000202
 20
343.3622790000102
 30
0.0
 40
5.0
  0
CIRCLE
  5
28F
330
1F
100
AcDbEntity
  8
Ｓ_１_１
  6
CONTINUOUS
 62
     3
100
AcDbCircle
 10
493.0000000000202
 20
343.3622790000102
 30
0.0
 40
4.25
  0
LINE
  5
290
330
1F
100
AcDbEntity
  8
Ｓ_１_１
  6
EXLTYPE2
 62
     1
100
AcDbLine
 10
506.0000000000202
 20
343.3622790000093
 30
0.0
 11
480.0000000000202
 21
343.3622790000093
 31
0.0
  0
POLYLINE
  5
291
330
1F
100
AcDbEntity
  8
Ｓ_１_１
  6
CONTINUOUS
 62
     3
100
AcDb2dPolyline
 66
     1
 10
0.0
 20
0.0
 30
0.0
 70
   128
  0
VERTEX
  5
292
330
291
100
AcDbEntity
  8
Ｓ_１_１
  6
CONTINUOUS
 62
     3
100
AcDbVertex
100
AcDb2dVertex
 10
493.0000000000202
 20
346.2490303459582
 30
0.0
  0
VERTEX
  5
293
330
291
100
AcDbEntity
  8
Ｓ_１_１
  6
CONTINUOUS
 62
     3
100
AcDbVertex
100
AcDb2dVertex
 10
490.5000000000202
 20
344.8056546729841
 30
0.0
  0
VERTEX
  5
294
330
291
100
AcDbEntity
  8
Ｓ_１_１
  6
CONTINUOUS
 62
     3
100
AcDbVertex
100
AcDb2dVertex
 10
490.5000000000202
 20
341.918903327036
 30
0.0
  0
VERTEX
  5
295
330
291
100
AcDbEntity
  8
Ｓ_１_１
  6
CONTINUOUS
 62
     3
100
AcDbVertex
100
AcDb2dVertex
 10
493.0000000000202
 20
340.4755276540619
 30
0.0
  0
VERTEX
  5
296
330
291
100
AcDbEntity
  8
Ｓ_１_１
  6
CONTINUOUS
 62
     3
100
AcDbVertex
100
AcDb2dVertex
 10
495.5000000000202
 20
341.918903327036
 30
0.0
  0
VERTEX
  5
297
330
291
100
AcDbEntity
  8
Ｓ_１_１
  6
CONTINUOUS
 62
     3
100
AcDbVertex
100
AcDb2dVertex
 10
495.5000000000202
 20
344.8056546729841
 30
0.0
  0
VERTEX
  5
298
330
291
100
AcDbEntity
  8
Ｓ_１_１
  6
CONTINUOUS
 62
     3
100
AcDbVertex
100
AcDb2dVertex
 10
493.0000000000202
 20
346.2490303459582
 30
0.0
  0
SEQEND
  5
299
330
291
100
AcDbEntity
  8
Ｓ_１_１
  6
CONTINUOUS
 62
     3
  0
LINE
  5
29A
330
1F
100
AcDbEntity
  8
Ｓ_１_１
  6
CONTINUOUS
 62
     3
100
AcDbLine
 10
480.5000000000202
 20
327.8622790000093
 30
0.0
 11
480.5000000000202
 21
342.3622174835693
 31
0.0
  0
LINE
  5
29B
330
1F
100
AcDbEntity
  8
Ｓ_１_１
  6
CONTINUOUS
 62
     3
100
AcDbLine
 10
505.5000000000202
 20
327.8622771162093
 30
0.0
 11
505.5000000000202
 21
342.3622174835693
 31
0.0
  0
LINE
  5
29C
330
1F
100
AcDbEntity
  8
Ｓ_１_１
  6
CONTINUOUS
 62
     3
100
AcDbLine
 10
544.7940715160946
 20
371.1922319990323
 30
0.0
 11
546.6058077829287
 21
371.6776876743746
 31
0.0
  0
LINE
  5
29D
330
1F
100
AcDbEntity
  8
Ｓ_１_１
  6
CONTINUOUS
 62
     3
100
AcDbLine
 10
560.5950124733449
 20
326.8622646815073
 30
0.0
 11
539.5949854688204
 21
326.8622639744004
 31
0.0
  0
LINE
  5
29E
330
1F
100
AcDbEntity
  8
Ｓ_１_１
  6
CONTINUOUS
 62
     3
100
AcDbLine
 10
560.5950202515194
 20
335.862263931014
 30
0.0
 11
539.5949939541017
 21
335.8622639310139
 31
0.0
  0
LINE
  5
29F
330
1F
100
AcDbEntity
  8
Ｓ_１_１
  6
CONTINUOUS
 62
     3
100
AcDbLine
 10
544.0328137904978
 20
334.9244430563686
 30
0.0
 11
544.0328137904978
 21
327.8000848490457
 31
0.0
  0
LINE
  5
2A0
330
1F
100
AcDbEntity
  8
Ｓ_１_１
  6
CONTINUOUS
 62
     3
100
AcDbLine
 10
556.157165766891
 20
334.9244437634754
 30
0.0
 11
556.1571650597841
 21
327.8000848490457
 31
0.0
  0
LINE
  5
2A1
330
1F
100
AcDbEntity
  8
Ｓ_１_１
  6
CONTINUOUS
 62
     3
100
AcDbLine
 10
562.219348472602
 20
334.9244586127177
 30
0.0
 11
562.219348472602
 21
327.8000692926966
 31
0.0
  0
LINE
  5
2A2
330
1F
100
AcDbEntity
  8
Ｓ_１_１
  6
CONTINUOUS
 62
     3
100
AcDbLine
 10
537.9706268421462
 20
334.9244437634754
 30
0.0
 11
537.9706268421464
 21
327.800084141939
 31
0.0
  0
LINE
  5
2A3
330
1F
100
AcDbEntity
  8
Ｓ_１_１
  6
CONTINUOUS
 62
     3
100
AcDbLine
 10
539.5949925398879
 20
335.8622596883732
 30
0.0
 11
537.9706317918938
 21
334.9244388137279
 31
0.0
  0
LINE
  5
2A4
330
1F
100
AcDbEntity
  8
Ｓ_１_１
  6
CONTINUOUS
 62
     3
100
AcDbLine
 10
539.5949882972475
 20
326.8622668028275
 30
0.0
 11
537.97062825636
 21
327.8000883845796
 31
0.0
  0
LINE
  5
2A5
330
1F
100
AcDbEntity
  8
Ｓ_１_１
  6
CONTINUOUS
 62
     3
100
AcDbLine
 10
560.5950131804518
 20
335.8622710020817
 30
0.0
 11
562.2193767568731
 21
334.9244472990093
 31
0.0
  0
LINE
  5
2A6
330
1F
100
AcDbEntity
  8
Ｓ_１_１
  6
CONTINUOUS
 62
     3
100
AcDbLine
 10
560.5950110591314
 20
326.8622660957208
 30
0.0
 11
562.2193718071255
 21
327.8000883845797
 31
0.0
  0
LINE
  5
2A7
330
1F
100
AcDbEntity
  8
Ｓ_１_１
  6
CONTINUOUS
 62
     3
100
AcDbLine
 10
558.3598670298973
 20
337.2245306008139
 30
0.0
 11
541.8301471757238
 21
337.2245306008139
 31
0.0
  0
LINE
  5
2A8
330
1F
100
AcDbEntity
  8
Ｓ_１_１
  6
CONTINUOUS
 62
     3
100
AcDbLine
 10
542.915120507068
 20
343.3622641305606
 30
0.0
 11
542.5315122498471
 21
337.2245362576681
 31
0.0
  0
LINE
  5
2A9
330
1F
100
AcDbEntity
  8
Ｓ_１_１
  6
CONTINUOUS
 62
     3
100
AcDbLine
 10
542.2137504831971
 20
343.3622676660946
 30
0.0
 11
541.7450002055605
 21
335.8622611025867
 31
0.0
  0
LINE
  5
2AA
330
1F
100
AcDbEntity
  8
Ｓ_１_１
  6
CONTINUOUS
 62
     3
100
AcDbLine
 10
542.5315150782742
 20
337.2245348434546
 30
0.0
 11
541.745005155308
 21
335.8622589812664
 31
0.0
  0
LINE
  5
2AB
330
1F
100
AcDbEntity
  8
Ｓ_１_１
  6
CONTINUOUS
 62
     3
100
AcDbLine
 10
557.9762509945019
 20
343.3622704945217
 30
0.0
 11
558.4450019792455
 21
335.8622462533444
 31
0.0
  0
LINE
  5
2AC
330
1F
100
AcDbEntity
  8
Ｓ_１_１
  6
CONTINUOUS
 62
     3
100
AcDbLine
 10
558.4449970294979
 20
335.8622639310139
 30
0.0
 11
557.6584906420655
 21
337.224533429241
 31
0.0
  0
LINE
  5
2AD
330
1F
100
AcDbEntity
  8
Ｓ_１_１
  6
CONTINUOUS
 62
     3
100
AcDbLine
 10
557.2748873345922
 20
343.3622676660946
 30
0.0
 11
557.6584962989198
 21
337.2245320150274
 31
0.0
  0
LINE
  5
2AE
330
1F
100
AcDbEntity
  8
Ｓ_１_１
  6
CONTINUOUS
 62
     3
100
AcDbLine
 10
562.0950051593438
 20
355.8622637560319
 30
0.0
 11
538.0950161173453
 21
355.8622637560319
 31
0.0
  0
LINE
  5
2AF
330
1F
100
AcDbEntity
  8
Ｓ_１_１
  6
CONTINUOUS
 62
     3
100
AcDbLine
 10
562.0950051593438
 20
370.8622641551255
 30
0.0
 11
538.0950005609959
 21
370.8622641551255
 31
0.0
  0
LINE
  5
2B0
330
1F
100
AcDbEntity
  8
Ｓ_１_１
  6
CONTINUOUS
 62
     3
100
AcDbLine
 10
565.5950048282016
 20
378.3622636475655
 30
0.0
 11
551.845000926832
 21
378.3622636475656
 31
0.0
  0
LINE
  5
2B1
330
1F
100
AcDbEntity
  8
Ｓ_１_１
  6
CONTINUOUS
 62
     3
100
AcDbLine
 10
537.0950009586538
 20
378.3622636475655
 30
0.0
 11
537.0950009586538
 21
371.4396104780033
 31
0.0
  0
LINE
  5
2B2
330
1F
100
AcDbEntity
  8
Ｓ_１_１
  6
CONTINUOUS
 62
     3
100
AcDbLine
 10
563.0950047616859
 20
378.3622636475655
 30
0.0
 11
563.0950047616859
 21
371.4396104780033
 31
0.0
  0
LINE
  5
2B3
330
1F
100
AcDbEntity
  8
Ｓ_１_１
  6
CONTINUOUS
 62
     3
100
AcDbLine
 10
538.0950012681028
 20
405.8622643792372
 30
0.0
 11
538.0950005609959
 21
405.3622642245126
 31
0.0
  0
LINE
  5
2B4
330
1F
100
AcDbEntity
  8
Ｓ_１_１
  6
CONTINUOUS
 62
     3
100
AcDbLine
 10
563.0950047616859
 20
355.2849174331541
 30
0.0
 11
563.0950047616859
 21
343.9396111605452
 31
0.0
  0
LINE
  5
2B5
330
1F
100
AcDbEntity
  8
Ｓ_１_１
  6
CONTINUOUS
 62
     3
100
AcDbLine
 10
537.0950009586538
 20
355.2849018768049
 30
0.0
 11
537.0950009586538
 21
343.9396111605452
 31
0.0
  0
LINE
  5
2B6
330
1F
100
AcDbEntity
  8
Ｓ_１_１
  6
CONTINUOUS
 62
     3
100
AcDbLine
 10
566.0950042758193
 20
402.3622640032725
 30
0.0
 11
566.095004982926
 21
394.8622645108325
 31
0.0
  0
LINE
  5
2B7
330
1F
100
AcDbEntity
  8
Ｓ_１_１
  6
CONTINUOUS
 62
     3
100
AcDbLine
 10
534.0950014445204
 20
402.3622640032726
 30
0.0
 11
534.0950014445204
 21
394.8622638037257
 31
0.0
  0
LINE
  5
2B8
330
1F
100
AcDbEntity
  8
Ｓ_１_１
  6
CONTINUOUS
 62
     3
100
AcDbLine
 10
563.0950047616859
 20
405.3622635174058
 30
0.0
 11
537.0950009586538
 21
405.3622635174059
 31
0.0
  0
LINE
  5
2B9
330
1F
100
AcDbEntity
  8
Ｓ_１_１
  6
CONTINUOUS
 62
     3
100
AcDbLine
 10
538.0950005609959
 20
370.8622641551255
 30
0.0
 11
538.0950012681028
 21
355.8622644631387
 31
0.0
  0
LINE
  5
2BA
330
1F
100
AcDbEntity
  8
Ｓ_１_１
  6
CONTINUOUS
 62
     3
100
AcDbLine
 10
562.0950051593438
 20
370.8622641551255
 30
0.0
 11
562.0950051593438
 21
355.8622637560319
 31
0.0
  0
LINE
  5
2BB
330
1F
100
AcDbEntity
  8
Ｓ_１_１
  6
CONTINUOUS
 62
     3
100
AcDbLine
 10
563.0950125398606
 20
405.3622797808619
 30
0.0
 11
566.095004982926
 21
402.3622873377963
 31
0.0
  0
LINE
  5
2BC
330
1F
100
AcDbEntity
  8
Ｓ_１_１
  6
CONTINUOUS
 62
     3
100
AcDbLine
 10
537.0949995444403
 20
405.3622734169008
 30
0.0
 11
534.0950021516273
 21
402.3622760240879
 31
0.0
  0
LINE
  5
2BD
330
1F
100
AcDbEntity
  8
Ｓ_１_１
  6
CONTINUOUS
 62
     3
100
AcDbLine
 10
565.5950048282016
 20
394.362264356108
 30
0.0
 11
565.5950048282016
 21
386.3622647089435
 31
0.0
  0
LINE
  5
2BE
330
1F
100
AcDbEntity
  8
Ｓ_１_１
  6
CONTINUOUS
 62
     3
100
AcDbLine
 10
534.5950008921384
 20
394.362264356108
 30
0.0
 11
534.595001599245
 21
386.3622640018368
 31
0.0
  0
LINE
  5
2BF
330
1F
100
AcDbEntity
  8
Ｓ_１_１
  6
CONTINUOUS
 62
     3
100
AcDbLine
 10
565.5950048282016
 20
386.3622647089435
 30
0.0
 11
534.595001599245
 21
386.3622640018368
 31
0.0
  0
LINE
  5
2C0
330
1F
100
AcDbEntity
  8
Ｓ_１_１
  6
CONTINUOUS
 62
     3
100
AcDbLine
 10
565.5950048282016
 20
394.362264356108
 30
0.0
 11
534.5950008921384
 21
394.362264356108
 31
0.0
  0
LINE
  5
2C1
330
1F
100
AcDbEntity
  8
Ｓ_１_１
  6
CONTINUOUS
 62
     3
100
AcDbLine
 10
566.0950035687126
 20
385.8622687968597
 30
0.0
 11
565.595003413988
 21
386.3622689515843
 31
0.0
  0
LINE
  5
2C2
330
1F
100
AcDbEntity
  8
Ｓ_１_１
  6
CONTINUOUS
 62
     3
100
AcDbLine
 10
534.5950072560993
 20
394.3622721342827
 30
0.0
 11
534.095006394268
 21
394.862272996114
 31
0.0
  0
LINE
  5
2C3
330
1F
100
AcDbEntity
  8
Ｓ_１_１
  6
CONTINUOUS
 62
     3
100
AcDbLine
 10
534.5950023063517
 20
386.3622689515842
 30
0.0
 11
534.0950014445204
 21
385.862268089753
 31
0.0
  0
LINE
  5
2C4
330
1F
100
AcDbEntity
  8
Ｓ_１_１
  6
CONTINUOUS
 62
     3
100
AcDbLine
 10
566.0950035687126
 20
394.8622673392596
 30
0.0
 11
565.5950027068814
 21
394.3622664774284
 31
0.0
  0
LINE
  5
2C5
330
1F
100
AcDbEntity
  8
Ｓ_１_１
  6
CONTINUOUS
 62
     3
100
AcDbLine
 10
566.095004982926
 20
385.8622645542191
 30
0.0
 11
566.095004982926
 21
378.86226380229
 31
0.0
  0
LINE
  5
2C6
330
1F
100
AcDbEntity
  8
Ｓ_１_１
  6
CONTINUOUS
 62
     3
100
AcDbLine
 10
534.0950014445204
 20
385.8622638471123
 30
0.0
 11
534.0950007374138
 21
378.86226380229
 31
0.0
  0
LINE
  5
2C7
330
1F
100
AcDbEntity
  8
Ｓ_１_１
  6
CONTINUOUS
 62
     3
100
AcDbLine
 10
566.0949972047515
 20
378.8622659236103
 30
0.0
 11
565.5950019997745
 21
378.3622707186333
 31
0.0
  0
LINE
  5
2C8
330
1F
100
AcDbEntity
  8
Ｓ_１_１
  6
CONTINUOUS
 62
     3
100
AcDbLine
 10
534.5950001850315
 20
378.3622700115266
 30
0.0
 11
534.0950000303071
 21
378.862270166251
 31
0.0
  0
LINE
  5
2C9
330
1F
100
AcDbEntity
  8
Ｓ_１_１
  6
CONTINUOUS
 62
     3
100
AcDbLine
 10
534.0950014445204
 20
385.8622638471123
 30
0.0
 11
566.095004982926
 21
385.8622645542191
 31
0.0
  0
LINE
  5
2CA
330
1F
100
AcDbEntity
  8
Ｓ_１_１
  6
CONTINUOUS
 62
     3
100
AcDbLine
 10
566.095004982926
 20
378.86226380229
 30
0.0
 11
551.845000926832
 21
378.8622645093968
 31
0.0
  0
LINE
  5
2CB
330
1F
100
AcDbEntity
  8
Ｓ_１_１
  6
CONTINUOUS
 62
     3
100
AcDbLine
 10
566.095004982926
 20
394.8622645108325
 30
0.0
 11
534.0950014445204
 21
394.8622638037257
 31
0.0
  0
LINE
  5
2CC
330
1F
100
AcDbEntity
  8
Ｓ_１_１
  6
CONTINUOUS
 62
     3
100
AcDbLine
 10
566.0950042758193
 20
402.3622640032725
 30
0.0
 11
534.0950014445204
 21
402.3622640032726
 31
0.0
  0
LINE
  5
2CD
330
1F
100
AcDbEntity
  8
Ｓ_１_１
  6
CONTINUOUS
 62
     3
100
AcDbLine
 10
551.9499221381309
 20
378.8622666307171
 30
0.0
 11
551.8449945628709
 21
379.0440058014041
 31
0.0
  0
LINE
  5
2CE
330
1F
100
AcDbEntity
  8
Ｓ_１_１
  6
CONTINUOUS
 62
     3
100
AcDbLine
 10
534.5950008921384
 20
376.8622638904988
 30
0.0
 11
534.5950008921384
 21
375.8622635810499
 31
0.0
  0
LINE
  5
2CF
330
1F
100
AcDbEntity
  8
Ｓ_１_１
  6
CONTINUOUS
 62
     3
100
AcDbLine
 10
565.5950048282016
 20
376.8622638904988
 30
0.0
 11
565.5950048282016
 21
375.8622635810499
 31
0.0
  0
LINE
  5
2D0
330
1F
100
AcDbEntity
  8
Ｓ_１_１
  6
CONTINUOUS
 62
     3
100
AcDbLine
 10
565.0950053805839
 20
375.3622641334322
 30
0.0
 11
563.0950047616859
 21
375.3622641334322
 31
0.0
  0
LINE
  5
2D1
330
1F
100
AcDbEntity
  8
Ｓ_１_１
  6
CONTINUOUS
 62
     3
100
AcDbLine
 10
565.0950046734772
 20
377.3622640452234
 30
0.0
 11
563.0950054687928
 21
377.3622640452233
 31
0.0
  0
LINE
  5
2D2
330
1F
100
AcDbEntity
  8
Ｓ_１_１
  6
CONTINUOUS
 62
     3
100
AcDbLine
 10
537.0950016657605
 20
377.3622640452234
 30
0.0
 11
535.0950010468628
 21
377.3622640452233
 31
0.0
  0
LINE
  5
2D3
330
1F
100
AcDbEntity
  8
Ｓ_１_１
  6
CONTINUOUS
 62
     3
100
AcDbLine
 10
537.0950009586538
 20
375.3622641334322
 30
0.0
 11
535.0950010468628
 21
375.3622634263255
 31
0.0
  0
LINE
  5
2D4
330
1F
100
AcDbEntity
  8
Ｓ_１_１
  6
CONTINUOUS
 62
     3
100
AcDbLine
 10
535.0950081179305
 20
377.3622541457284
 30
0.0
 11
534.595007963206
 21
376.8622539910039
 31
0.0
  0
LINE
  5
2D5
330
1F
100
AcDbEntity
  8
Ｓ_１_１
  6
CONTINUOUS
 62
     3
100
AcDbLine
 10
535.0949975113288
 20
375.3622627192187
 30
0.0
 11
534.5950072560993
 21
375.8622529744482
 31
0.0
  0
LINE
  5
2D6
330
1F
100
AcDbEntity
  8
Ｓ_１_１
  6
CONTINUOUS
 62
     3
100
AcDbLine
 10
565.595003413988
 20
376.8622596478581
 30
0.0
 11
565.0950032592634
 21
377.3622598025827
 31
0.0
  0
LINE
  5
2D7
330
1F
100
AcDbEntity
  8
Ｓ_１_１
  6
CONTINUOUS
 62
     3
100
AcDbLine
 10
565.595003413988
 20
375.8622579241957
 30
0.0
 11
565.0950032592634
 21
375.3622577694712
 31
0.0
  0
LINE
  5
2D8
330
1F
100
AcDbEntity
  8
Ｓ_１_１
  6
CONTINUOUS
 62
     3
100
AcDbLine
 10
548.3450005508673
 20
381.8622640235301
 30
0.0
 11
548.345001257974
 21
378.3622643546723
 31
0.0
  0
LINE
  5
2D9
330
1F
100
AcDbEntity
  8
Ｓ_１_１
  6
CONTINUOUS
 62
     3
100
AcDbLine
 10
551.845000926832
 20
381.8622640235301
 30
0.0
 11
551.845000926832
 21
378.3622636475656
 31
0.0
  0
LINE
  5
2DA
330
1F
100
AcDbEntity
  8
Ｓ_１_１
  6
CONTINUOUS
 62
     3
100
AcDbLine
 10
551.845000926832
 20
381.8622640235301
 30
0.0
 11
548.3450005508673
 21
381.8622640235301
 31
0.0
  0
LINE
  5
2DB
330
1F
100
AcDbEntity
  8
Ｓ_１_１
  6
CONTINUOUS
 62
     3
100
AcDbLine
 10
548.345001257974
 20
378.3622643546723
 30
0.0
 11
534.5950008921384
 21
378.3622636475656
 31
0.0
  0
LINE
  5
2DC
330
1F
100
AcDbEntity
  8
Ｓ_１_１
  6
CONTINUOUS
 62
     3
100
AcDbLine
 10
548.345001257974
 20
378.86226380229
 30
0.0
 11
534.0950007374138
 21
378.86226380229
 31
0.0
  0
LINE
  5
2DD
330
1F
100
AcDbEntity
  8
Ｓ_１_１
  6
CONTINUOUS
 62
     3
100
AcDbLine
 10
548.3450047935078
 20
379.0439810526668
 30
0.0
 11
548.2400885319562
 21
378.8622616809697
 31
0.0
  0
LINE
  5
2DE
330
1F
100
AcDbEntity
  8
Ｓ_１_１
  6
CONTINUOUS
 62
     3
100
AcDbLine
 10
555.0950008718808
 20
355.2849174331541
 30
0.0
 11
555.0950008718808
 21
343.9396111605452
 31
0.0
  0
LINE
  5
2DF
330
1F
100
AcDbEntity
  8
Ｓ_１_１
  6
CONTINUOUS
 62
     3
100
AcDbLine
 10
545.0950006058183
 20
355.2849174331541
 30
0.0
 11
545.0950013129252
 21
343.9396104534384
 31
0.0
  0
LINE
  5
2E0
330
1F
100
AcDbEntity
  8
Ｓ_１_１
  6
CONTINUOUS
 62
     3
100
AcDbLine
 10
538.095003389423
 20
343.362263423454
 30
0.0
 11
537.0950023728676
 21
343.9396139889723
 31
0.0
  0
LINE
  5
2E1
330
1F
100
AcDbEntity
  8
Ｓ_１_１
  6
CONTINUOUS
 62
     3
100
AcDbLine
 10
563.0950040545792
 20
355.2849181402609
 30
0.0
 11
562.0950101090914
 21
355.8622644631387
 31
0.0
  0
LINE
  5
2E2
330
1F
100
AcDbEntity
  8
Ｓ_１_１
  6
CONTINUOUS
 62
     3
100
AcDbLine
 10
538.0950048036368
 20
370.8622655693391
 30
0.0
 11
537.0950108581487
 21
371.4396118922169
 31
0.0
  0
LINE
  5
2E3
330
1F
100
AcDbEntity
  8
Ｓ_１_１
  6
CONTINUOUS
 62
     3
100
AcDbLine
 10
563.0950068830064
 20
343.9396062107978
 30
0.0
 11
562.0950122304116
 21
343.3622591808132
 31
0.0
  0
LINE
  5
2E4
330
1F
100
AcDbEntity
  8
Ｓ_１_１
  6
CONTINUOUS
 62
     3
100
AcDbLine
 10
538.0950083391706
 20
355.8622559778573
 30
0.0
 11
537.0950009586538
 21
355.2849018768049
 31
0.0
  0
LINE
  5
2E5
330
1F
100
AcDbEntity
  8
Ｓ_１_１
  6
CONTINUOUS
 62
     3
100
AcDbLine
 10
563.0950047616859
 20
371.4396118922169
 30
0.0
 11
562.0949980882758
 21
370.8622570840577
 31
0.0
  0
LINE
  5
2E6
330
1F
100
AcDbEntity
  8
Ｓ_１_１
  6
CONTINUOUS
 62
     3
100
AcDbLine
 10
563.0950047616859
 20
371.4396104780033
 30
0.0
 11
537.0950009586538
 21
371.4396104780033
 31
0.0
  0
LINE
  5
2E7
330
1F
100
AcDbEntity
  8
Ｓ_１_１
  6
CONTINUOUS
 62
     3
100
AcDbLine
 10
563.0950047616859
 20
355.2849174331541
 30
0.0
 11
555.0950008718808
 21
355.2849174331541
 31
0.0
  0
LINE
  5
2E8
330
1F
100
AcDbEntity
  8
Ｓ_１_１
  6
CONTINUOUS
 62
     3
100
AcDbLine
 10
563.0950047616859
 20
343.9396111605452
 30
0.0
 11
555.0950008718808
 21
343.9396111605452
 31
0.0
  0
LINE
  5
2E9
330
1F
100
AcDbEntity
  8
Ｓ_１_１
  6
CONTINUOUS
 62
     3
100
AcDbLine
 10
545.0950006058183
 20
355.2849174331541
 30
0.0
 11
537.0950009586538
 21
355.2849174331541
 31
0.0
  0
LINE
  5
2EA
330
1F
100
AcDbEntity
  8
Ｓ_１_１
  6
CONTINUOUS
 62
     3
100
AcDbLine
 10
545.0950013129252
 20
343.9396104534384
 30
0.0
 11
537.0950009586538
 21
343.9396111605452
 31
0.0
  0
LINE
  5
2EB
330
1F
100
AcDbEntity
  8
Ｓ_１_１
  6
CONTINUOUS
 62
     3
100
AcDbLine
 10
562.0950200085861
 20
343.3622641305606
 30
0.0
 11
538.0950012681028
 21
343.3622641305607
 31
0.0
  0
ARC
  5
2EC
330
1F
100
AcDbEntity
  8
Ｓ_１_１
  6
CONTINUOUS
 62
     3
100
AcDbCircle
 10
541.0017256196231
 20
332.2295134492697
 30
0.0
 40
5.367246000000002
100
AcDbArc
 50
235.6159330000001
 51
304.3842240000001
  0
ARC
  5
2ED
330
1F
100
AcDbEntity
  8
Ｓ_１_１
  6
CONTINUOUS
 62
     3
100
AcDbCircle
 10
550.0949873038207
 20
315.8000684077363
 30
0.0
 40
20.062197
100
AcDbArc
 50
72.4120460000003
 51
107.5879310000003
  0
ARC
  5
2EE
330
1F
100
AcDbEntity
  8
Ｓ_１_１
  6
CONTINUOUS
 62
     3
100
AcDbCircle
 10
541.0017291551569
 20
330.4950137490378
 30
0.0
 40
5.367246000000002
100
AcDbArc
 50
55.61584000000011
 51
124.384124
  0
ARC
  5
2EF
330
1F
100
AcDbEntity
  8
Ｓ_１_１
  6
CONTINUOUS
 62
     3
100
AcDbCircle
 10
559.18827939361
 20
330.4950151632514
 30
0.0
 40
5.367246000000002
100
AcDbArc
 50
55.6159210000001
 51
124.3842060000003
  0
ARC
  5
2F0
330
1F
100
AcDbEntity
  8
Ｓ_１_１
  6
CONTINUOUS
 62
     3
100
AcDbCircle
 10
550.0949858896072
 20
346.9244609118916
 30
0.0
 40
20.062197
100
AcDbArc
 50
252.4121270000001
 51
287.588011
  0
ARC
  5
2F1
330
1F
100
AcDbEntity
  8
Ｓ_１_１
  6
CONTINUOUS
 62
     3
100
AcDbCircle
 10
559.1882801007166
 20
332.2295120350562
 30
0.0
 40
5.367246000000002
100
AcDbArc
 50
235.615851
 51
304.3841430000001
  0
ARC
  5
2F2
330
1F
100
AcDbEntity
  8
Ｓ_１_１
  6
CONTINUOUS
 62
     3
100
AcDbCircle
 10
550.0950035672765
 20
365.3017015857748
 30
0.0
 40
21.93943800000001
100
AcDbArc
 50
256.8265330000001
 51
283.1735230000001
  0
ARC
  5
2F3
330
1F
100
AcDbEntity
  8
Ｓ_１_１
  6
CONTINUOUS
 62
     3
100
AcDbCircle
 10
550.0950035672765
 20
333.9228241794975
 30
0.0
 40
21.93943800000001
100
AcDbArc
 50
76.82650700000033
 51
103.1734700000002
  0
LINE
  5
2F4
330
1F
100
AcDbEntity
  8
Ｓ_１_１
  6
CONTINUOUS
 62
     3
100
AcDbLine
 10
538.0950028601656
 20
405.8622635174074
 30
0.0
 11
562.0950028601653
 21
405.8622635174071
 31
0.0
  0
LINE
  5
2F5
330
1F
100
AcDbEntity
  8
Ｓ_１_１
  6
CONTINUOUS
 62
     3
100
AcDbLine
 10
562.0950029644737
 20
405.3622708368519
 30
0.0
 11
562.0950029644739
 21
405.8622643995499
 31
0.0
  0
LINE
  5
2F6
330
1F
100
AcDbEntity
  8
Ｓ_１_１
  6
CONTINUOUS
 62
     3
100
AcDbLine
 10
445.5000070000206
 20
175.4999999999991
 30
0.0
 11
445.0000070000206
 21
175.9999999999991
 31
0.0
  0
LINE
  5
2F7
330
1F
100
AcDbEntity
  8
Ｓ_１_１
  6
CONTINUOUS
 62
     3
100
AcDbLine
 10
449.5000070000203
 20
175.4999999999991
 30
0.0
 11
445.5000070000206
 21
175.4999999999991
 31
0.0
  0
LINE
  5
2F8
330
1F
100
AcDbEntity
  8
Ｓ_１_１
  6
CONTINUOUS
 62
     3
100
AcDbLine
 10
449.5000070000203
 20
175.4999999999991
 30
0.0
 11
450.0000070000203
 21
175.9999999999991
 31
0.0
  0
LINE
  5
2F9
330
1F
100
AcDbEntity
  8
Ｓ_１_１
  6
CONTINUOUS
 62
     3
100
AcDbLine
 10
455.5000144973303
 20
172.9999923706023
 30
0.0
 11
453.0000070000203
 21
174.4433723980565
 31
0.0
  0
LINE
  5
2FA
330
1F
100
AcDbEntity
  8
Ｓ_１_１
  6
CONTINUOUS
 62
     3
100
AcDbLine
 10
457.00000000002
 20
135.4999999999991
 30
0.0
 11
599.00000000002
 21
135.4999999999991
 31
0.0
  0
LINE
  5
2FB
330
1F
100
AcDbEntity
  8
Ｓ_１_１
  6
CONTINUOUS
 62
     3
100
AcDbLine
 10
456.9999910000145
 20
135.4999999999991
 30
0.0
 11
456.0000010000203
 21
136.4999889999992
 31
0.0
  0
LINE
  5
2FC
330
1F
100
AcDbEntity
  8
Ｓ_１_１
  6
CONTINUOUS
 62
     3
100
AcDbLine
 10
599.0000000000202
 20
135.4999999999981
 30
0.0
 11
600.0000000000202
 21
136.5000009999969
 31
0.0
  0
LINE
  5
2FD
330
1F
100
AcDbEntity
  8
Ｓ_１_１
  6
CONTINUOUS
 62
     3
100
AcDbLine
 10
445.0000070000099
 20
280.0000000000001
 30
0.0
 11
445.0000070000099
 21
176.0000000000001
 31
0.0
  0
LINE
  5
2FE
330
1F
100
AcDbEntity
  8
Ｓ_１_１
  6
CONTINUOUS
 62
     3
100
AcDbLine
 10
500.2274369733757
 20
322.8622790000101
 30
0.0
 11
500.227437232925
 21
322.8622790000101
 31
0.0
  0
LINE
  5
2FF
330
1F
100
AcDbEntity
  8
Ｓ_１_１
  6
CONTINUOUS
 62
     3
100
AcDbLine
 10
484.7351380000198
 20
325.500007
 30
0.0
 11
501.2648550000197
 21
325.500007
 31
0.0
  0
LINE
  5
300
330
1F
100
AcDbEntity
  8
Ｓ_１_１
  6
CONTINUOUS
 62
     3
100
AcDbLine
 10
500.5634740000198
 20
325.4999989999999
 30
0.0
 11
501.3499890000201
 21
326.8622819999999
 31
0.0
  0
LINE
  5
301
330
1F
100
AcDbEntity
  8
Ｓ_１_１
  6
CONTINUOUS
 62
     3
100
AcDbLine
 10
484.65001100002
 20
326.8622979999999
 30
0.0
 11
485.4365170000199
 21
325.5000279999999
 31
0.0
  0
LINE
  5
302
330
1F
100
AcDbEntity
  8
Ｓ_１_１
  6
CONTINUOUS
 62
     3
100
AcDbLine
 10
541.8301245651398
 20
325.49999232794
 30
0.0
 11
558.3598415651397
 21
325.49999232794
 31
0.0
  0
LINE
  5
303
330
1F
100
AcDbEntity
  8
Ｓ_１_１
  6
CONTINUOUS
 62
     3
100
AcDbLine
 10
557.6584605651399
 20
325.4999843279399
 30
0.0
 11
558.4449755651401
 21
326.8622673279399
 31
0.0
  0
LINE
  5
304
330
1F
100
AcDbEntity
  8
Ｓ_１_１
  6
CONTINUOUS
 62
     3
100
AcDbLine
 10
541.74499756514
 20
326.8622833279399
 30
0.0
 11
542.5315035651399
 21
325.5000133279399
 31
0.0
  0
ARC
  5
305
330
1F
100
AcDbEntity
  8
Ｓ_１_１
  6
CONTINUOUS
 62
     3
100
AcDbCircle
 10
436.0000070000203
 20
228.0000080000011
 30
0.0
 40
50.00000400000001
100
AcDbArc
 50
70.1231275870914
 51
73.73979662858937
  0
ARC
  5
306
330
1F
100
AcDbEntity
  8
Ｓ_１_１
  6
CONTINUOUS
 62
     3
100
AcDbCircle
 10
436.0000070000203
 20
227.9999919999991
 30
0.0
 40
50.00000400000001
100
AcDbArc
 50
286.2602033714106
 51
289.8768724129085
  0
LINE
  5
307
330
1F
100
AcDbEntity
  8
Ｓ_１_１
  6
CONTINUOUS
 62
     3
100
AcDbLine
 10
450.0000070000203
 20
175.9999999999991
 30
0.0
 11
450.0000070000203
 21
280.000000000001
 31
0.0
  0
LINE
  5
308
330
1F
100
AcDbEntity
  8
Ｓ_１_１
  6
CONTINUOUS
 62
     3
100
AcDbLine
 10
456.0000000000205
 20
319.500010000002
 30
0.0
 11
456.0000000000205
 21
136.4999919999992
 31
0.0
  0
LINE
  5
309
330
1F
100
AcDbEntity
  8
Ｓ_１_１
  6
CONTINUOUS
 62
     3
100
AcDbLine
 10
455.5000144973001
 20
172.9999923706
 30
0.0
 11
455.5000144973001
 21
283.0000076293803
 31
0.0
  0
LINE
  5
30A
330
1F
100
AcDbEntity
  8
Ｓ_１_１
  6
CONTINUOUS
 62
     3
100
AcDbLine
 10
453.0000070000203
 20
281.5566276019435
 30
0.0
 11
453.0000070000203
 21
174.4433723980565
 31
0.0
  0
LINE
  5
30B
330
1F
100
AcDbEntity
  8
Ｓ_１_１
  6
CONTINUOUS
 62
     3
100
AcDbLine
 10
455.5000144973001
 20
283.000007629398
 30
0.0
 11
456.0000000000205
 21
283.000007629398
 31
0.0
  0
LINE
  5
30C
330
1F
100
AcDbEntity
  8
Ｓ_１_１
  6
CONTINUOUS
 62
     3
100
AcDbLine
 10
455.5000144973001
 20
172.9999923706
 30
0.0
 11
456.0000000000205
 21
172.9999923706
 31
0.0
  0
LINE
  5
30D
330
1F
100
AcDbEntity
  8
Ｓ_１_１
  6
CONTINUOUS
 62
     3
100
AcDbLine
 10
457.0
 20
320.500000000001
 30
0.0
 11
599.00000000002
 21
320.500000000001
 31
0.0
  0
LINE
  5
30E
330
1F
100
AcDbEntity
  8
Ｓ_１_１
  6
CONTINUOUS
 62
     3
100
AcDbLine
 10
485.0476422215768
 20
320.500000000001
 30
0.0
 11
484.6499970000198
 21
326.862321
 31
0.0
  0
LINE
  5
30F
330
1F
100
AcDbEntity
  8
Ｓ_１_１
  6
CONTINUOUS
 62
     3
100
AcDbLine
 10
485.7490053634344
 20
320.500000000001
 30
0.0
 11
485.4365030000197
 21
325.5000369999999
 31
0.0
  0
LINE
  5
310
330
1F
100
AcDbEntity
  8
Ｓ_１_１
  6
CONTINUOUS
 62
     3
100
AcDbLine
 10
500.9523580189818
 20
320.500000000001
 30
0.0
 11
501.3500020000199
 21
326.8623019999999
 31
0.0
  0
LINE
  5
311
330
1F
100
AcDbEntity
  8
Ｓ_１_１
  6
CONTINUOUS
 62
     3
100
AcDbLine
 10
500.2509870487961
 20
320.500000000001
 30
0.0
 11
500.5634890000199
 21
325.500019
 31
0.0
  0
LINE
  5
312
330
1F
100
AcDbEntity
  8
Ｓ_１_１
  6
CONTINUOUS
 62
     3
100
AcDbLine
 10
542.1426278696929
 20
320.500000000001
 30
0.0
 11
541.7449835651398
 21
326.86230632794
 31
0.0
  0
LINE
  5
313
330
1F
100
AcDbEntity
  8
Ｓ_１_１
  6
CONTINUOUS
 62
     3
100
AcDbLine
 10
542.8439910115505
 20
320.500000000001
 30
0.0
 11
542.5314895651397
 21
325.5000223279399
 31
0.0
  0
LINE
  5
314
330
1F
100
AcDbEntity
  8
Ｓ_１_１
  6
CONTINUOUS
 62
     3
100
AcDbLine
 10
557.3459745309221
 20
320.500000000001
 30
0.0
 11
557.65847556514
 21
325.50000432794
 31
0.0
  0
LINE
  5
315
330
1F
100
AcDbEntity
  8
Ｓ_１_１
  6
CONTINUOUS
 62
     3
100
AcDbLine
 10
558.0473455011058
 20
320.500000000001
 30
0.0
 11
558.44498856514
 21
326.8622873279399
 31
0.0
  0
LINE
  5
316
330
1F
100
AcDbEntity
  8
Ｓ_１_１
  6
EXLTYPE2
 62
     1
100
AcDbLine
 10
493.0000000000193
 20
416.3621724835785
 30
0.0
 11
493.0000000000193
 21
310.2
 31
0.0
  0
LINE
  5
317
330
1F
100
AcDbEntity
  8
Ｓ_１_１
  6
EXLTYPE2
 62
     1
100
AcDbLine
 10
549.9999999999902
 20
408.6500076293704
 30
0.0
 11
549.9999999999902
 21
310.2
 31
0.0
  0
LINE
  5
318
330
1F
100
AcDbEntity
  8
Ｓ_１_１
  6
CONTINUOUS
 62
     3
100
AcDbLine
 10
599.0
 20
320.500000000001
 30
0.0
 11
599.0
 21
135.4999999999991
 31
0.0
  0
LINE
  5
319
330
1F
100
AcDbEntity
  8
Ｓ_１_１
  6
CONTINUOUS
 62
     3
100
AcDbLine
 10
445.5000070000001
 20
280.500000000001
 30
0.0
 11
445.5000070000001
 21
175.4999999999991
 31
0.0
  0
LINE
  5
31A
330
1F
100
AcDbEntity
  8
Ｓ_１_１
  6
CONTINUOUS
 62
     3
100
AcDbLine
 10
449.5000070000001
 20
175.5
 30
0.0
 11
449.5000070000001
 21
280.500000000001
 31
0.0
  0
LINE
  5
31B
330
1F
100
AcDbEntity
  8
Ｓ_１_１
  6
CONTINUOUS
 62
     3
100
AcDbLine
 10
489.5000000000205
 20
148.19123144198
 30
0.0
 11
491.0000000000205
 21
148.19123144198
 31
0.0
  0
LINE
  5
31C
330
1F
100
AcDbEntity
  8
Ｓ_１_１
  6
CONTINUOUS
 62
     3
100
AcDbLine
 10
491.0000000000205
 20
181.23665472566
 30
0.0
 11
491.0000000000205
 21
148.19123144198
 31
0.0
  0
LINE
  5
31D
330
1F
100
AcDbEntity
  8
Ｓ_１_１
  6
CONTINUOUS
 62
     3
100
AcDbLine
 10
457.0
 20
148.19123144198
 30
0.0
 11
457.0
 21
135.4999999999991
 31
0.0
  0
LINE
  5
31E
330
1F
100
AcDbEntity
  8
Ｓ_１_１
  6
CONTINUOUS
 62
     3
100
AcDbLine
 10
456.0000000000205
 20
148.19123144198
 30
0.0
 11
457.5000000000205
 21
148.19123144198
 31
0.0
  0
LINE
  5
31F
330
1F
100
AcDbEntity
  8
Ｓ_１_１
  6
CONTINUOUS
 62
     3
100
AcDbLine
 10
457.50000000002
 20
174.61343802043
 30
0.0
 11
459.50000000002
 21
176.02765158281
 31
0.0
  0
LINE
  5
320
330
1F
100
AcDbEntity
  8
Ｓ_１_１
  6
CONTINUOUS
 62
     3
100
AcDbLine
 10
457.50000000002
 20
146.32916677297
 30
0.0
 11
459.50000000002
 21
144.9149532106
 31
0.0
  0
LINE
  5
321
330
1F
100
AcDbEntity
  8
Ｓ_１_１
  6
CONTINUOUS
 62
     3
100
AcDbLine
 10
457.50000000002
 20
178.85607870754
 30
0.0
 11
459.50000000002
 21
180.27029226992
 31
0.0
  0
LINE
  5
322
330
1F
100
AcDbEntity
  8
Ｓ_１_１
  6
CONTINUOUS
 62
     3
100
AcDbLine
 10
457.5000000000205
 20
178.8560787075403
 30
0.0
 11
457.5000000000205
 21
146.3291667729697
 31
0.0
  0
LINE
  5
323
330
1F
100
AcDbEntity
  8
Ｓ_１_１
  6
CONTINUOUS
 62
     3
100
AcDbLine
 10
459.5000000000205
 20
180.27029226992
 30
0.0
 11
459.5000000000205
 21
176.02765158281
 31
0.0
  0
LINE
  5
324
330
1F
100
AcDbEntity
  8
Ｓ_１_１
  6
CONTINUOUS
 62
     3
100
AcDbLine
 10
489.50000000002
 20
174.61343802043
 30
0.0
 11
487.50000000002
 21
176.02765158281
 31
0.0
  0
LINE
  5
325
330
1F
100
AcDbEntity
  8
Ｓ_１_１
  6
CONTINUOUS
 62
     3
100
AcDbLine
 10
489.50000000002
 20
178.85607870754
 30
0.0
 11
487.50000000002
 21
180.27029226992
 31
0.0
  0
LINE
  5
326
330
1F
100
AcDbEntity
  8
Ｓ_１_１
  6
CONTINUOUS
 62
     3
100
AcDbLine
 10
487.50000000002
 20
176.02765158281
 30
0.0
 11
487.50000000002
 21
180.27029226992
 31
0.0
  0
LINE
  5
327
330
1F
100
AcDbEntity
  8
Ｓ_１_１
  6
CONTINUOUS
 62
     3
100
AcDbLine
 10
489.50000000002
 20
146.32916677297
 30
0.0
 11
487.50000000002
 21
144.9149532106
 31
0.0
  0
LINE
  5
328
330
1F
100
AcDbEntity
  8
Ｓ_１_１
  6
CONTINUOUS
 62
     3
100
AcDbLine
 10
489.5000000000205
 20
178.8560787075397
 30
0.0
 11
489.5000000000205
 21
146.3291667729703
 31
0.0
  0
LINE
  5
329
330
1F
100
AcDbEntity
  8
Ｓ_１_１
  6
CONTINUOUS
 62
     3
100
AcDbLine
 10
304.9831131911015
 20
150.2889647476153
 30
0.0
 11
301.1647365726943
 21
154.1073413660226
 31
0.0
  0
LINE
  5
32A
330
1F
100
AcDbEntity
  8
Ｓ_１_１
  6
CONTINUOUS
 62
     3
100
AcDbLine
 10
304.9831131911015
 20
149.4404366101914
 30
0.0
 11
304.9831131911015
 21
150.2889647476153
 31
0.0
  0
LINE
  5
32B
330
1F
100
AcDbEntity
  8
Ｓ_１_１
  6
CONTINUOUS
 62
     3
100
AcDbLine
 10
298.7605735166599
 20
143.2178969357498
 30
0.0
 11
304.9831131911015
 21
149.4404366101914
 31
0.0
  0
LINE
  5
32C
330
1F
100
AcDbEntity
  8
Ｓ_１_１
  6
EXLTYPE2
 62
     1
100
AcDbLine
 10
286.8722978607198
 20
161.3287122661312
 30
0.0
 11
304.3682720164111
 21
143.8327381104397
 31
0.0
  0
LINE
  5
32D
330
1F
100
AcDbEntity
  8
Ｓ_１_１
  6
CONTINUOUS
 62
     3
100
AcDbLine
 10
297.912045379236
 20
143.2178969357498
 30
0.0
 11
298.7605735166599
 21
143.2178969357498
 31
0.0
  0
LINE
  5
32E
330
1F
100
AcDbEntity
  8
Ｓ_１_１
  6
CONTINUOUS
 62
     3
100
AcDbLine
 10
297.912045379236
 20
143.2178969357498
 30
0.0
 11
294.0936687608287
 21
147.0362735541571
 31
0.0
  0
LINE
  5
32F
330
1F
100
AcDbEntity
  8
Ｓ_１_１
  6
CONTINUOUS
 62
     3
100
AcDbLine
 10
304.9831131911017
 20
150.2889647476151
 30
0.0
 11
297.9120453792362
 21
143.2178969357497
 31
0.0
  0
LINE
  5
330
330
1F
100
AcDbEntity
  8
Ｓ_１_１
  6
CONTINUOUS
 62
     3
100
AcDbLine
 10
304.9831131911014
 20
305.711035252427
 30
0.0
 11
301.1647365726942
 21
301.8926586340197
 31
0.0
  0
LINE
  5
331
330
1F
100
AcDbEntity
  8
Ｓ_１_１
  6
CONTINUOUS
 62
     3
100
AcDbLine
 10
304.9831131911014
 20
306.559563389851
 30
0.0
 11
304.9831131911014
 21
305.711035252427
 31
0.0
  0
LINE
  5
332
330
1F
100
AcDbEntity
  8
Ｓ_１_１
  6
CONTINUOUS
 62
     3
100
AcDbLine
 10
298.7605735166599
 20
312.7821030642925
 30
0.0
 11
304.9831131911014
 21
306.559563389851
 31
0.0
  0
LINE
  5
333
330
1F
100
AcDbEntity
  8
Ｓ_１_１
  6
EXLTYPE2
 62
     1
100
AcDbLine
 10
286.8722978607198
 20
294.6712877339111
 30
0.0
 11
304.3682720164111
 21
312.1672618896026
 31
0.0
  0
LINE
  5
334
330
1F
100
AcDbEntity
  8
Ｓ_１_１
  6
CONTINUOUS
 62
     3
100
AcDbLine
 10
297.9120453792359
 20
312.7821030642925
 30
0.0
 11
298.7605735166599
 21
312.7821030642925
 31
0.0
  0
LINE
  5
335
330
1F
100
AcDbEntity
  8
Ｓ_１_１
  6
CONTINUOUS
 62
     3
100
AcDbLine
 10
297.9120453792359
 20
312.7821030642925
 30
0.0
 11
294.0936687608287
 21
308.9637264458852
 31
0.0
  0
LINE
  5
336
330
1F
100
AcDbEntity
  8
Ｓ_１_１
  6
CONTINUOUS
 62
     3
100
AcDbLine
 10
304.9831131911017
 20
305.7110352524272
 30
0.0
 11
297.9120453792361
 21
312.7821030642926
 31
0.0
  0
LINE
  5
337
330
1F
100
AcDbEntity
  8
Ｓ_１_１
  6
CONTINUOUS
 62
     3
100
AcDbLine
 10
175.0168868089787
 20
305.711035252427
 30
0.0
 11
178.8352634273859
 21
301.8926586340197
 31
0.0
  0
LINE
  5
338
330
1F
100
AcDbEntity
  8
Ｓ_１_１
  6
CONTINUOUS
 62
     3
100
AcDbLine
 10
175.0168868089787
 20
306.559563389851
 30
0.0
 11
175.0168868089787
 21
305.711035252427
 31
0.0
  0
LINE
  5
339
330
1F
100
AcDbEntity
  8
Ｓ_１_１
  6
CONTINUOUS
 62
     3
100
AcDbLine
 10
181.2394264834203
 20
312.7821030642925
 30
0.0
 11
175.0168868089787
 21
306.559563389851
 31
0.0
  0
LINE
  5
33A
330
1F
100
AcDbEntity
  8
Ｓ_１_１
  6
EXLTYPE2
 62
     1
100
AcDbLine
 10
193.1277021393604
 20
294.6712877339111
 30
0.0
 11
175.631727983669
 21
312.1672618896026
 31
0.0
  0
LINE
  5
33B
330
1F
100
AcDbEntity
  8
Ｓ_１_１
  6
CONTINUOUS
 62
     3
100
AcDbLine
 10
182.0879546208442
 20
312.7821030642925
 30
0.0
 11
181.2394264834203
 21
312.7821030642925
 31
0.0
  0
LINE
  5
33C
330
1F
100
AcDbEntity
  8
Ｓ_１_１
  6
CONTINUOUS
 62
     3
100
AcDbLine
 10
182.0879546208442
 20
312.7821030642925
 30
0.0
 11
185.9063312392514
 21
308.9637264458852
 31
0.0
  0
LINE
  5
33D
330
1F
100
AcDbEntity
  8
Ｓ_１_１
  6
CONTINUOUS
 62
     3
100
AcDbLine
 10
175.0168868089785
 20
305.7110352524272
 30
0.0
 11
182.087954620844
 21
312.7821030642926
 31
0.0
  0
LINE
  5
33E
330
1F
100
AcDbEntity
  8
Ｓ_１_１
  6
CONTINUOUS
 62
     3
100
AcDbLine
 10
175.0168868089786
 20
150.2889647476154
 30
0.0
 11
178.8352634273858
 21
154.1073413660226
 31
0.0
  0
LINE
  5
33F
330
1F
100
AcDbEntity
  8
Ｓ_１_１
  6
CONTINUOUS
 62
     3
100
AcDbLine
 10
175.0168868089786
 20
149.4404366101914
 30
0.0
 11
175.0168868089786
 21
150.2889647476154
 31
0.0
  0
LINE
  5
340
330
1F
100
AcDbEntity
  8
Ｓ_１_１
  6
CONTINUOUS
 62
     3
100
AcDbLine
 10
181.2394264834202
 20
143.2178969357498
 30
0.0
 11
175.0168868089786
 21
149.4404366101914
 31
0.0
  0
LINE
  5
341
330
1F
100
AcDbEntity
  8
Ｓ_１_１
  6
EXLTYPE2
 62
     1
100
AcDbLine
 10
193.1277021393603
 20
161.3287122661312
 30
0.0
 11
175.631727983669
 21
143.8327381104397
 31
0.0
  0
LINE
  5
342
330
1F
100
AcDbEntity
  8
Ｓ_１_１
  6
CONTINUOUS
 62
     3
100
AcDbLine
 10
182.0879546208441
 20
143.2178969357498
 30
0.0
 11
181.2394264834202
 21
143.2178969357498
 31
0.0
  0
LINE
  5
343
330
1F
100
AcDbEntity
  8
Ｓ_１_１
  6
CONTINUOUS
 62
     3
100
AcDbLine
 10
182.0879546208441
 20
143.2178969357498
 30
0.0
 11
185.9063312392514
 21
147.0362735541572
 31
0.0
  0
LINE
  5
344
330
1F
100
AcDbEntity
  8
Ｓ_１_１
  6
CONTINUOUS
 62
     3
100
AcDbLine
 10
175.0168868089784
 20
150.2889647476151
 30
0.0
 11
182.0879546208439
 21
143.2178969357497
 31
0.0
  0
ELLIPSE
  5
345
330
1F
100
AcDbEntity
  8
Ｓ_１_１
  6
CONTINUOUS
 62
     3
100
AcDbEllipse
 10
465.50000000002
 20
146.32916677297
 30
0.0
 11
-4.399999999999978
 21
5.388445916248327E-16
 31
0.0
210
0.0
220
0.0
230
1.0
 40
0.7071067811863722
 41
0.0
 42
6.283185307179586
  0
ELLIPSE
  5
346
330
1F
100
AcDbEntity
  8
Ｓ_１_１
  6
CONTINUOUS
 62
     3
100
AcDbEllipse
 10
465.50000000002
 20
146.75343084168
 30
0.0
 11
-5.0
 21
6.123233995736766E-16
 31
0.0
210
0.0
220
0.0
230
1.0
 40
0.7071067811859961
 41
0.0
 42
6.283185307179586
  0
ELLIPSE
  5
347
330
1F
100
AcDbEntity
  8
Ｓ_１_１
  6
CONTINUOUS
 62
     3
100
AcDbEllipse
 10
465.50000000002
 20
150.5718074601
 30
0.0
 11
-5.0
 21
6.123233995736766E-16
 31
0.0
210
0.0
220
0.0
230
1.0
 40
0.7071067811859961
 41
3.141592653589793
 42
6.283185307179586
  0
LINE
  5
348
330
1F
100
AcDbEntity
  8
Ｓ_１_１
  6
CONTINUOUS
 62
     3
100
AcDbLine
 10
460.50000000002
 20
146.75343084168
 30
0.0
 11
460.50000000002
 21
150.5718074601
 31
0.0
  0
LINE
  5
349
330
1F
100
AcDbEntity
  8
Ｓ_１_１
  6
CONTINUOUS
 62
     3
100
AcDbLine
 10
470.5000000000199
 20
146.75343084168
 30
0.0
 11
470.5000000000199
 21
150.5718074601
 31
0.0
  0
LINE
  5
34A
330
1F
100
AcDbEntity
  8
Ｓ_１_１
  6
EXLTYPE2
 62
     1
100
AcDbLine
 10
465.50000000002
 20
140.80578643763
 30
0.0
 11
465.50000000002
 21
158.02578643763
 31
0.0
  0
LINE
  5
34B
330
1F
100
AcDbEntity
  8
Ｓ_１_１
  6
CONTINUOUS
 62
     3
100
AcDbLine
 10
462.61324865407
 20
146.32916677297
 30
0.0
 11
464.05662432705
 21
148.37040822529
 31
0.0
  0
LINE
  5
34C
330
1F
100
AcDbEntity
  8
Ｓ_１_１
  6
CONTINUOUS
 62
     3
100
AcDbLine
 10
466.94337567299
 20
148.37040822529
 30
0.0
 11
468.38675134597
 21
146.32916677297
 31
0.0
  0
LINE
  5
34D
330
1F
100
AcDbEntity
  8
Ｓ_１_１
  6
CONTINUOUS
 62
     3
100
AcDbLine
 10
462.61324865407
 20
146.32916677297
 30
0.0
 11
464.05662432705
 21
144.28792532065
 31
0.0
  0
LINE
  5
34E
330
1F
100
AcDbEntity
  8
Ｓ_１_１
  6
CONTINUOUS
 62
     3
100
AcDbLine
 10
466.94337567299
 20
144.28792532065
 30
0.0
 11
468.38675134597
 21
146.32916677297
 31
0.0
  0
LINE
  5
34F
330
1F
100
AcDbEntity
  8
Ｓ_１_１
  6
CONTINUOUS
 62
     3
100
AcDbLine
 10
464.05662432705
 20
148.37040822529
 30
0.0
 11
466.94337567299
 21
148.37040822529
 31
0.0
  0
LINE
  5
350
330
1F
100
AcDbEntity
  8
Ｓ_１_１
  6
CONTINUOUS
 62
     3
100
AcDbLine
 10
464.05662432705
 20
144.28792532065
 30
0.0
 11
464.05662432705
 21
148.37040822529
 31
0.0
  0
LINE
  5
351
330
1F
100
AcDbEntity
  8
Ｓ_１_１
  6
CONTINUOUS
 62
     3
100
AcDbLine
 10
464.05662432705
 20
144.28792532065
 30
0.0
 11
466.94337567299
 21
144.28792532065
 31
0.0
  0
LINE
  5
352
330
1F
100
AcDbEntity
  8
Ｓ_１_１
  6
CONTINUOUS
 62
     3
100
AcDbLine
 10
466.94337567299
 20
144.28792532065
 30
0.0
 11
466.94337567299
 21
148.37040822529
 31
0.0
  0
ELLIPSE
  5
353
330
1F
100
AcDbEntity
  8
Ｓ_１_１
  6
CONTINUOUS
 62
     3
100
AcDbEllipse
 10
481.50000000002
 20
146.32916677297
 30
0.0
 11
-4.399999999999978
 21
5.388445916248327E-16
 31
0.0
210
0.0
220
0.0
230
1.0
 40
0.7071067811863722
 41
0.0
 42
6.283185307179586
  0
ELLIPSE
  5
354
330
1F
100
AcDbEntity
  8
Ｓ_１_１
  6
CONTINUOUS
 62
     3
100
AcDbEllipse
 10
481.50000000002
 20
146.75343084168
 30
0.0
 11
-5.0
 21
6.123233995736766E-16
 31
0.0
210
0.0
220
0.0
230
1.0
 40
0.7071067811859961
 41
0.0
 42
6.283185307179586
  0
ELLIPSE
  5
355
330
1F
100
AcDbEntity
  8
Ｓ_１_１
  6
CONTINUOUS
 62
     3
100
AcDbEllipse
 10
481.50000000002
 20
150.5718074601
 30
0.0
 11
-5.0
 21
6.123233995736766E-16
 31
0.0
210
0.0
220
0.0
230
1.0
 40
0.7071067811859961
 41
3.141592653589793
 42
6.283185307179586
  0
LINE
  5
356
330
1F
100
AcDbEntity
  8
Ｓ_１_１
  6
CONTINUOUS
 62
     3
100
AcDbLine
 10
476.50000000002
 20
146.75343084168
 30
0.0
 11
476.50000000002
 21
150.5718074601
 31
0.0
  0
LINE
  5
357
330
1F
100
AcDbEntity
  8
Ｓ_１_１
  6
CONTINUOUS
 62
     3
100
AcDbLine
 10
486.5000000000199
 20
146.75343084168
 30
0.0
 11
486.5000000000199
 21
150.5718074601
 31
0.0
  0
LINE
  5
358
330
1F
100
AcDbEntity
  8
Ｓ_１_１
  6
EXLTYPE2
 62
     1
100
AcDbLine
 10
481.50000000002
 20
140.80578643763
 30
0.0
 11
481.50000000002
 21
158.02578643763
 31
0.0
  0
LINE
  5
359
330
1F
100
AcDbEntity
  8
Ｓ_１_１
  6
CONTINUOUS
 62
     3
100
AcDbLine
 10
478.61324865407
 20
146.32916677297
 30
0.0
 11
480.05662432705
 21
148.37040822529
 31
0.0
  0
LINE
  5
35A
330
1F
100
AcDbEntity
  8
Ｓ_１_１
  6
CONTINUOUS
 62
     3
100
AcDbLine
 10
482.94337567299
 20
148.37040822529
 30
0.0
 11
484.38675134597
 21
146.32916677297
 31
0.0
  0
LINE
  5
35B
330
1F
100
AcDbEntity
  8
Ｓ_１_１
  6
CONTINUOUS
 62
     3
100
AcDbLine
 10
478.61324865407
 20
146.32916677297
 30
0.0
 11
480.05662432705
 21
144.28792532065
 31
0.0
  0
LINE
  5
35C
330
1F
100
AcDbEntity
  8
Ｓ_１_１
  6
CONTINUOUS
 62
     3
100
AcDbLine
 10
482.94337567299
 20
144.28792532065
 30
0.0
 11
484.38675134597
 21
146.32916677297
 31
0.0
  0
LINE
  5
35D
330
1F
100
AcDbEntity
  8
Ｓ_１_１
  6
CONTINUOUS
 62
     3
100
AcDbLine
 10
480.05662432705
 20
148.37040822529
 30
0.0
 11
482.94337567299
 21
148.37040822529
 31
0.0
  0
LINE
  5
35E
330
1F
100
AcDbEntity
  8
Ｓ_１_１
  6
CONTINUOUS
 62
     3
100
AcDbLine
 10
480.05662432705
 20
144.28792532065
 30
0.0
 11
480.05662432705
 21
148.37040822529
 31
0.0
  0
LINE
  5
35F
330
1F
100
AcDbEntity
  8
Ｓ_１_１
  6
CONTINUOUS
 62
     3
100
AcDbLine
 10
480.05662432705
 20
144.28792532065
 30
0.0
 11
482.94337567299
 21
144.28792532065
 31
0.0
  0
LINE
  5
360
330
1F
100
AcDbEntity
  8
Ｓ_１_１
  6
CONTINUOUS
 62
     3
100
AcDbLine
 10
482.94337567299
 20
144.28792532065
 30
0.0
 11
482.94337567299
 21
148.37040822529
 31
0.0
  0
LINE
  5
361
330
1F
100
AcDbEntity
  8
Ｓ_１_１
  6
CONTINUOUS
 62
     3
100
AcDbLine
 10
459.50000000002
 20
144.9149532106
 30
0.0
 11
461.2291686992044
 21
144.9149532106
 31
0.0
  0
LINE
  5
362
330
1F
100
AcDbEntity
  8
Ｓ_１_１
  6
CONTINUOUS
 62
     3
100
AcDbLine
 10
469.7708313008357
 20
144.9149532106
 30
0.0
 11
477.2291686992044
 21
144.9149532106
 31
0.0
  0
LINE
  5
363
330
1F
100
AcDbEntity
  8
Ｓ_１_１
  6
CONTINUOUS
 62
     3
100
AcDbLine
 10
485.7708313008357
 20
144.9149532106
 30
0.0
 11
487.50000000002
 21
144.9149532106
 31
0.0
  0
LINE
  5
364
330
1F
100
AcDbEntity
  8
Ｓ_１_１
  6
CONTINUOUS
 62
     3
100
AcDbLine
 10
489.5000000000205
 20
307.8087685580221
 30
0.0
 11
491.0000000000205
 21
307.8087685580221
 31
0.0
  0
LINE
  5
365
330
1F
100
AcDbEntity
  8
Ｓ_１_１
  6
CONTINUOUS
 62
     3
100
AcDbLine
 10
491.0000000000205
 20
274.763345274342
 30
0.0
 11
491.0000000000205
 21
307.8087685580221
 31
0.0
  0
LINE
  5
366
330
1F
100
AcDbEntity
  8
Ｓ_１_１
  6
CONTINUOUS
 62
     3
100
AcDbLine
 10
456.0000000000205
 20
307.8087685580221
 30
0.0
 11
457.5000000000205
 21
307.8087685580221
 31
0.0
  0
LINE
  5
367
330
1F
100
AcDbEntity
  8
Ｓ_１_１
  6
CONTINUOUS
 62
     3
100
AcDbLine
 10
457.50000000002
 20
281.386561979572
 30
0.0
 11
459.50000000002
 21
279.9723484171921
 31
0.0
  0
LINE
  5
368
330
1F
100
AcDbEntity
  8
Ｓ_１_１
  6
CONTINUOUS
 62
     3
100
AcDbLine
 10
457.50000000002
 20
309.6708332270321
 30
0.0
 11
459.50000000002
 21
311.085046789402
 31
0.0
  0
LINE
  5
369
330
1F
100
AcDbEntity
  8
Ｓ_１_１
  6
CONTINUOUS
 62
     3
100
AcDbLine
 10
457.50000000002
 20
277.143921292462
 30
0.0
 11
459.50000000002
 21
275.7297077300821
 31
0.0
  0
LINE
  5
36A
330
1F
100
AcDbEntity
  8
Ｓ_１_１
  6
CONTINUOUS
 62
     3
100
AcDbLine
 10
457.5000000000205
 20
277.1439212924618
 30
0.0
 11
457.5000000000205
 21
309.6708332270323
 31
0.0
  0
LINE
  5
36B
330
1F
100
AcDbEntity
  8
Ｓ_１_１
  6
CONTINUOUS
 62
     3
100
AcDbLine
 10
459.5000000000205
 20
275.7297077300821
 30
0.0
 11
459.5000000000205
 21
279.9723484171921
 31
0.0
  0
LINE
  5
36C
330
1F
100
AcDbEntity
  8
Ｓ_１_１
  6
CONTINUOUS
 62
     3
100
AcDbLine
 10
489.50000000002
 20
281.386561979572
 30
0.0
 11
487.50000000002
 21
279.9723484171921
 31
0.0
  0
LINE
  5
36D
330
1F
100
AcDbEntity
  8
Ｓ_１_１
  6
CONTINUOUS
 62
     3
100
AcDbLine
 10
489.50000000002
 20
277.143921292462
 30
0.0
 11
487.50000000002
 21
275.7297077300821
 31
0.0
  0
LINE
  5
36E
330
1F
100
AcDbEntity
  8
Ｓ_１_１
  6
CONTINUOUS
 62
     3
100
AcDbLine
 10
487.50000000002
 20
279.9723484171921
 30
0.0
 11
487.50000000002
 21
275.7297077300821
 31
0.0
  0
LINE
  5
36F
330
1F
100
AcDbEntity
  8
Ｓ_１_１
  6
CONTINUOUS
 62
     3
100
AcDbLine
 10
489.50000000002
 20
309.6708332270321
 30
0.0
 11
487.50000000002
 21
311.085046789402
 31
0.0
  0
LINE
  5
370
330
1F
100
AcDbEntity
  8
Ｓ_１_１
  6
CONTINUOUS
 62
     3
100
AcDbLine
 10
489.5000000000205
 20
277.1439212924624
 30
0.0
 11
489.5000000000205
 21
309.6708332270317
 31
0.0
  0
ELLIPSE
  5
371
330
1F
100
AcDbEntity
  8
Ｓ_１_１
  6
CONTINUOUS
 62
     3
100
AcDbEllipse
 10
465.50000000002
 20
309.6708332270321
 30
0.0
 11
4.399999999999978
 21
0.0
 31
0.0
210
0.0
220
0.0
230
1.0
 40
0.7071067811863722
 41
0.0
 42
6.283185307179586
  0
ELLIPSE
  5
372
330
1F
100
AcDbEntity
  8
Ｓ_１_１
  6
CONTINUOUS
 62
     3
100
AcDbEllipse
 10
465.50000000002
 20
309.246569158322
 30
0.0
 11
5.0
 21
0.0
 31
0.0
210
0.0
220
0.0
230
1.0
 40
0.7071067811859961
 41
0.0
 42
6.283185307179586
  0
ELLIPSE
  5
373
330
1F
100
AcDbEntity
  8
Ｓ_１_１
  6
CONTINUOUS
 62
     3
100
AcDbEllipse
 10
465.50000000002
 20
305.4281925399021
 30
0.0
 11
5.0
 21
0.0
 31
0.0
210
0.0
220
0.0
230
1.0
 40
0.7071067811859961
 41
3.141592653589793
 42
6.283185307179586
  0
LINE
  5
374
330
1F
100
AcDbEntity
  8
Ｓ_１_１
  6
CONTINUOUS
 62
     3
100
AcDbLine
 10
460.50000000002
 20
309.246569158322
 30
0.0
 11
460.50000000002
 21
305.4281925399021
 31
0.0
  0
LINE
  5
375
330
1F
100
AcDbEntity
  8
Ｓ_１_１
  6
CONTINUOUS
 62
     3
100
AcDbLine
 10
470.5000000000199
 20
309.246569158322
 30
0.0
 11
470.5000000000199
 21
305.4281925399021
 31
0.0
  0
LINE
  5
376
330
1F
100
AcDbEntity
  8
Ｓ_１_１
  6
EXLTYPE2
 62
     1
100
AcDbLine
 10
465.50000000002
 20
315.1942135623721
 30
0.0
 11
465.50000000002
 21
297.974213562372
 31
0.0
  0
LINE
  5
377
330
1F
100
AcDbEntity
  8
Ｓ_１_１
  6
CONTINUOUS
 62
     3
100
AcDbLine
 10
462.61324865407
 20
309.6708332270321
 30
0.0
 11
464.05662432705
 21
307.629591774712
 31
0.0
  0
LINE
  5
378
330
1F
100
AcDbEntity
  8
Ｓ_１_１
  6
CONTINUOUS
 62
     3
100
AcDbLine
 10
466.94337567299
 20
307.629591774712
 30
0.0
 11
468.38675134597
 21
309.6708332270321
 31
0.0
  0
LINE
  5
379
330
1F
100
AcDbEntity
  8
Ｓ_１_１
  6
CONTINUOUS
 62
     3
100
AcDbLine
 10
462.61324865407
 20
309.6708332270321
 30
0.0
 11
464.05662432705
 21
311.7120746793521
 31
0.0
  0
LINE
  5
37A
330
1F
100
AcDbEntity
  8
Ｓ_１_１
  6
CONTINUOUS
 62
     3
100
AcDbLine
 10
466.94337567299
 20
311.7120746793521
 30
0.0
 11
468.38675134597
 21
309.6708332270321
 31
0.0
  0
LINE
  5
37B
330
1F
100
AcDbEntity
  8
Ｓ_１_１
  6
CONTINUOUS
 62
     3
100
AcDbLine
 10
464.05662432705
 20
307.629591774712
 30
0.0
 11
466.94337567299
 21
307.629591774712
 31
0.0
  0
LINE
  5
37C
330
1F
100
AcDbEntity
  8
Ｓ_１_１
  6
CONTINUOUS
 62
     3
100
AcDbLine
 10
464.05662432705
 20
311.7120746793521
 30
0.0
 11
464.05662432705
 21
307.629591774712
 31
0.0
  0
LINE
  5
37D
330
1F
100
AcDbEntity
  8
Ｓ_１_１
  6
CONTINUOUS
 62
     3
100
AcDbLine
 10
464.05662432705
 20
311.7120746793521
 30
0.0
 11
466.94337567299
 21
311.7120746793521
 31
0.0
  0
LINE
  5
37E
330
1F
100
AcDbEntity
  8
Ｓ_１_１
  6
CONTINUOUS
 62
     3
100
AcDbLine
 10
466.94337567299
 20
311.7120746793521
 30
0.0
 11
466.94337567299
 21
307.629591774712
 31
0.0
  0
ELLIPSE
  5
37F
330
1F
100
AcDbEntity
  8
Ｓ_１_１
  6
CONTINUOUS
 62
     3
100
AcDbEllipse
 10
481.50000000002
 20
309.6708332270321
 30
0.0
 11
4.399999999999978
 21
0.0
 31
0.0
210
0.0
220
0.0
230
1.0
 40
0.7071067811863722
 41
0.0
 42
6.283185307179586
  0
ELLIPSE
  5
380
330
1F
100
AcDbEntity
  8
Ｓ_１_１
  6
CONTINUOUS
 62
     3
100
AcDbEllipse
 10
481.50000000002
 20
309.246569158322
 30
0.0
 11
5.0
 21
0.0
 31
0.0
210
0.0
220
0.0
230
1.0
 40
0.7071067811859961
 41
0.0
 42
6.283185307179586
  0
ELLIPSE
  5
381
330
1F
100
AcDbEntity
  8
Ｓ_１_１
  6
CONTINUOUS
 62
     3
100
AcDbEllipse
 10
481.50000000002
 20
305.4281925399021
 30
0.0
 11
5.0
 21
0.0
 31
0.0
210
0.0
220
0.0
230
1.0
 40
0.7071067811859961
 41
3.141592653589793
 42
6.283185307179586
  0
LINE
  5
382
330
1F
100
AcDbEntity
  8
Ｓ_１_１
  6
CONTINUOUS
 62
     3
100
AcDbLine
 10
476.50000000002
 20
309.246569158322
 30
0.0
 11
476.50000000002
 21
305.4281925399021
 31
0.0
  0
LINE
  5
383
330
1F
100
AcDbEntity
  8
Ｓ_１_１
  6
CONTINUOUS
 62
     3
100
AcDbLine
 10
486.5000000000199
 20
309.246569158322
 30
0.0
 11
486.5000000000199
 21
305.4281925399021
 31
0.0
  0
LINE
  5
384
330
1F
100
AcDbEntity
  8
Ｓ_１_１
  6
EXLTYPE2
 62
     1
100
AcDbLine
 10
481.50000000002
 20
315.1942135623721
 30
0.0
 11
481.50000000002
 21
297.974213562372
 31
0.0
  0
LINE
  5
385
330
1F
100
AcDbEntity
  8
Ｓ_１_１
  6
CONTINUOUS
 62
     3
100
AcDbLine
 10
478.61324865407
 20
309.6708332270321
 30
0.0
 11
480.05662432705
 21
307.629591774712
 31
0.0
  0
LINE
  5
386
330
1F
100
AcDbEntity
  8
Ｓ_１_１
  6
CONTINUOUS
 62
     3
100
AcDbLine
 10
482.94337567299
 20
307.629591774712
 30
0.0
 11
484.38675134597
 21
309.6708332270321
 31
0.0
  0
LINE
  5
387
330
1F
100
AcDbEntity
  8
Ｓ_１_１
  6
CONTINUOUS
 62
     3
100
AcDbLine
 10
478.61324865407
 20
309.6708332270321
 30
0.0
 11
480.05662432705
 21
311.7120746793521
 31
0.0
  0
LINE
  5
388
330
1F
100
AcDbEntity
  8
Ｓ_１_１
  6
CONTINUOUS
 62
     3
100
AcDbLine
 10
482.94337567299
 20
311.7120746793521
 30
0.0
 11
484.38675134597
 21
309.6708332270321
 31
0.0
  0
LINE
  5
389
330
1F
100
AcDbEntity
  8
Ｓ_１_１
  6
CONTINUOUS
 62
     3
100
AcDbLine
 10
480.05662432705
 20
307.629591774712
 30
0.0
 11
482.94337567299
 21
307.629591774712
 31
0.0
  0
LINE
  5
38A
330
1F
100
AcDbEntity
  8
Ｓ_１_１
  6
CONTINUOUS
 62
     3
100
AcDbLine
 10
480.05662432705
 20
311.7120746793521
 30
0.0
 11
480.05662432705
 21
307.629591774712
 31
0.0
  0
LINE
  5
38B
330
1F
100
AcDbEntity
  8
Ｓ_１_１
  6
CONTINUOUS
 62
     3
100
AcDbLine
 10
480.05662432705
 20
311.7120746793521
 30
0.0
 11
482.94337567299
 21
311.7120746793521
 31
0.0
  0
LINE
  5
38C
330
1F
100
AcDbEntity
  8
Ｓ_１_１
  6
CONTINUOUS
 62
     3
100
AcDbLine
 10
482.94337567299
 20
311.7120746793521
 30
0.0
 11
482.94337567299
 21
307.629591774712
 31
0.0
  0
LINE
  5
38D
330
1F
100
AcDbEntity
  8
Ｓ_１_１
  6
CONTINUOUS
 62
     3
100
AcDbLine
 10
459.50000000002
 20
311.085046789402
 30
0.0
 11
461.2291686992044
 21
311.085046789402
 31
0.0
  0
LINE
  5
38E
330
1F
100
AcDbEntity
  8
Ｓ_１_１
  6
CONTINUOUS
 62
     3
100
AcDbLine
 10
469.7708313008357
 20
311.085046789402
 30
0.0
 11
477.2291686992044
 21
311.085046789402
 31
0.0
  0
LINE
  5
38F
330
1F
100
AcDbEntity
  8
Ｓ_１_１
  6
CONTINUOUS
 62
     3
100
AcDbLine
 10
485.7708313008357
 20
311.085046789402
 30
0.0
 11
487.50000000002
 21
311.085046789402
 31
0.0
  0
LINE
  5
390
330
1F
100
AcDbEntity
  8
Ｓ_１_１
  6
CONTINUOUS
 62
     3
100
AcDbLine
 10
457.00000000002
 20
320.5
 30
0.0
 11
457.00000000002
 21
307.8087685580221
 31
0.0
  0
LINE
  5
391
330
1F
100
AcDbEntity
  8
Ｓ_１_１
  6
CONTINUOUS
 62
     3
100
AcDbLine
 10
457.00000000002
 20
274.763345274342
 30
0.0
 11
457.00000000002
 21
181.23665472566
 31
0.0
  0
LINE
  5
392
330
1F
100
AcDbEntity
  8
Ｓ_１_１
  6
CONTINUOUS
 62
     3
100
AcDbLine
 10
479.50000000002
 20
164.00000000002
 30
0.0
 11
479.50000000002
 21
291.999999999982
 31
0.0
  0
LINE
  5
393
330
1F
100
AcDbEntity
  8
Ｓ_１_１
  6
CONTINUOUS
 62
     3
100
AcDbLine
 10
467.50000000002
 20
164.00000000002
 30
0.0
 11
467.50000000002
 21
291.999999999982
 31
0.0
  0
LINE
  5
394
330
1F
100
AcDbEntity
  8
Ｓ_１_１
  6
EXLTYPE2
 62
     1
100
AcDbLine
 10
473.50000000002
 20
154.00000000002
 30
0.0
 11
473.50000000002
 21
301.99999999998
 31
0.0
  0
LINE
  5
395
330
1F
100
AcDbEntity
  8
Ｓ_１_１
  6
EXLTYPE2
 62
     1
100
AcDbLine
 10
483.50000000002
 20
291.99999999998
 30
0.0
 11
463.50000000002
 21
291.99999999998
 31
0.0
  0
LINE
  5
396
330
1F
100
AcDbEntity
  8
Ｓ_１_１
  6
EXLTYPE2
 62
     1
100
AcDbLine
 10
463.50000000002
 20
164.00000000002
 30
0.0
 11
483.50000000002
 21
164.00000000002
 31
0.0
  0
LINE
  5
397
330
1F
100
AcDbEntity
  8
Ｓ_１_１
  6
CONTINUOUS
 62
     3
100
AcDbLine
 10
459.50000000002
 20
176.02765158281
 30
0.0
 11
467.50000000002
 21
176.02765158281
 31
0.0
  0
LINE
  5
398
330
1F
100
AcDbEntity
  8
Ｓ_１_１
  6
CONTINUOUS
 62
     3
100
AcDbLine
 10
459.50000000002
 20
180.27029226992
 30
0.0
 11
467.50000000002
 21
180.27029226992
 31
0.0
  0
LINE
  5
399
330
1F
100
AcDbEntity
  8
Ｓ_１_１
  6
CONTINUOUS
 62
     3
100
AcDbLine
 10
456.0000000000205
 20
181.23665472566
 30
0.0
 11
467.50000000002
 21
181.23665472566
 31
0.0
  0
LINE
  5
39A
330
1F
100
AcDbEntity
  8
Ｓ_１_１
  6
CONTINUOUS
 62
     3
100
AcDbLine
 10
479.50000000002
 20
181.23665472566
 30
0.0
 11
491.0000000000205
 21
181.23665472566
 31
0.0
  0
LINE
  5
39B
330
1F
100
AcDbEntity
  8
Ｓ_１_１
  6
CONTINUOUS
 62
     3
100
AcDbLine
 10
479.50000000002
 20
180.27029226992
 30
0.0
 11
487.50000000002
 21
180.27029226992
 31
0.0
  0
LINE
  5
39C
330
1F
100
AcDbEntity
  8
Ｓ_１_１
  6
CONTINUOUS
 62
     3
100
AcDbLine
 10
479.50000000002
 20
176.02765158281
 30
0.0
 11
487.50000000002
 21
176.02765158281
 31
0.0
  0
LINE
  5
39D
330
1F
100
AcDbEntity
  8
Ｓ_１_１
  6
CONTINUOUS
 62
     3
100
AcDbLine
 10
459.50000000002
 20
275.7297077300821
 30
0.0
 11
467.50000000002
 21
275.7297077300821
 31
0.0
  0
LINE
  5
39E
330
1F
100
AcDbEntity
  8
Ｓ_１_１
  6
CONTINUOUS
 62
     3
100
AcDbLine
 10
459.50000000002
 20
279.9723484171921
 30
0.0
 11
467.50000000002
 21
279.9723484171921
 31
0.0
  0
LINE
  5
39F
330
1F
100
AcDbEntity
  8
Ｓ_１_１
  6
CONTINUOUS
 62
     3
100
AcDbLine
 10
479.50000000002
 20
279.9723484171921
 30
0.0
 11
487.50000000002
 21
279.9723484171921
 31
0.0
  0
LINE
  5
3A0
330
1F
100
AcDbEntity
  8
Ｓ_１_１
  6
CONTINUOUS
 62
     3
100
AcDbLine
 10
479.50000000002
 20
275.7297077300821
 30
0.0
 11
487.50000000002
 21
275.7297077300821
 31
0.0
  0
LINE
  5
3A1
330
1F
100
AcDbEntity
  8
Ｓ_１_１
  6
CONTINUOUS
 62
     3
100
AcDbLine
 10
479.50000000002
 20
274.763345274342
 30
0.0
 11
491.0000000000205
 21
274.763345274342
 31
0.0
  0
LINE
  5
3A2
330
1F
100
AcDbEntity
  8
Ｓ_１_１
  6
CONTINUOUS
 62
     3
100
AcDbLine
 10
456.0000000000205
 20
274.763345274342
 30
0.0
 11
467.50000000002
 21
274.763345274342
 31
0.0
  0
ARC
  5
3A3
330
1F
100
AcDbEntity
  8
Ｓ_１_１
  6
CONTINUOUS
 62
     3
100
AcDbCircle
 10
473.50000000002
 20
291.999999999982
 30
0.0
 40
6.000000000002558
100
AcDbArc
 50
0.0
 51
180.0000000000196
  0
ARC
  5
3A4
330
1F
100
AcDbEntity
  8
Ｓ_１_１
  6
CONTINUOUS
 62
     3
100
AcDbCircle
 10
473.50000000002
 20
164.00000000002
 30
0.0
 40
6.000000000002558
100
AcDbArc
 50
180.0
 51
0.0
  0
ARC
  5
3A5
330
1F
100
AcDbEntity
  8
Ｓ_１_１
  6
EXLTYPE0
 62
     2
100
AcDbCircle
 10
473.50000000002
 20
291.999999999982
 30
0.0
 40
6.000000000002558
100
AcDbArc
 50
180.0000000000196
 51
0.0
  0
ARC
  5
3A6
330
1F
100
AcDbEntity
  8
Ｓ_１_１
  6
EXLTYPE0
 62
     2
100
AcDbCircle
 10
473.50000000002
 20
164.00000000002
 30
0.0
 40
6.000000000002558
100
AcDbArc
 50
0.0
 51
180.0
  0
DIMENSION
  5
3A8
330
1F
100
AcDbEntity
  8
Ｓ_１_１
  6
CONTINUOUS
 62
     2
100
AcDbDimension
  2
*D15
 10
549.99999999999
 20
444.0
 30
0.0
 11
575.000000000005
 21
449.5
 31
0.0
 70
   160
  3
ISO-25
100
AcDbAlignedDimension
 13
600.00000000002
 23
319.499999
 33
0.0
 14
549.99999999999
 24
408.65000762937
 34
0.0
100
AcDbRotatedDimension
1001
ACAD
1000
DSTYLE
1002
{
1070
   270
1070
     2
1070
     6
1000
EX_NORM
1070
     7
1000
EX_NORM
1070
    41
1040
6.0
1070
    42
1040
3.0
1070
    44
1040
2.0
1070
    73
1070
     0
1070
    74
1070
     0
1070
    75
1070
     0
1070
    76
1070
     0
1070
    77
1070
     1
1070
    78
1070
     8
1070
   140
1040
6.92580831408776
1070
   147
1040
0.0
1070
   173
1070
     1
1070
   176
1070
     2
1070
   177
1070
     2
1070
   178
1070
     2
1070
   271
1070
     2
1070
   277
1070
     2
1070
   279
1070
     2
1070
   280
1070
     0
1070
   287
1070
     5
1070
   340
1005
3A7
1002
}
  0
DIMENSION
  5
3B6
330
1F
100
AcDbEntity
  8
Ｓ_１_１
  6
CONTINUOUS
 62
     2
100
AcDbDimension
  2
*D16
 10
493.00000000002
 20
444.0
 30
0.0
 11
521.500000000005
 21
449.5
 31
0.0
 70
   160
  3
ISO-25
100
AcDbAlignedDimension
 13
549.99999999999
 23
408.65000762937
 33
0.0
 14
493.00000000002
 24
416.36217248358
 34
0.0
100
AcDbRotatedDimension
1001
ACAD
1000
DSTYLE
1002
{
1070
   270
1070
     2
1070
     6
1000
EX_NORM
1070
     7
1000
EX_NORM
1070
    41
1040
6.0
1070
    42
1040
3.0
1070
    44
1040
2.0
1070
    73
1070
     0
1070
    74
1070
     0
1070
    75
1070
     0
1070
    76
1070
     0
1070
    77
1070
     1
1070
    78
1070
     8
1070
   140
1040
6.92580831408776
1070
   147
1040
0.0
1070
   173
1070
     1
1070
   176
1070
     2
1070
   177
1070
     2
1070
   178
1070
     2
1070
   271
1070
     2
1070
   277
1070
     2
1070
   279
1070
     2
1070
   280
1070
     0
1070
   287
1070
     5
1070
   340
1005
3A7
1002
}
  0
DIMENSION
  5
3C3
330
1F
100
AcDbEntity
  8
Ｓ_１_１
  6
CONTINUOUS
 62
     2
100
AcDbDimension
  2
*D17
 10
456.00000000002
 20
444.0
 30
0.0
 11
474.50000000002
 21
449.5
 31
0.0
 70
   160
  3
ISO-25
100
AcDbAlignedDimension
 13
493.00000000002
 23
416.36217248358
 33
0.0
 14
456.00000000002
 24
318.2
 34
0.0
100
AcDbRotatedDimension
1001
ACAD
1000
DSTYLE
1002
{
1070
   270
1070
     2
1070
     6
1000
EX_NORM
1070
     7
1000
EX_NORM
1070
    41
1040
6.0
1070
    42
1040
3.0
1070
    44
1040
2.0
1070
    73
1070
     0
1070
    74
1070
     0
1070
    75
1070
     0
1070
    76
1070
     0
1070
    77
1070
     1
1070
    78
1070
     8
1070
   140
1040
6.92580831408776
1070
   147
1040
0.0
1070
   173
1070
     1
1070
   176
1070
     2
1070
   177
1070
     2
1070
   178
1070
     2
1070
   271
1070
     2
1070
   277
1070
     2
1070
   279
1070
     2
1070
   280
1070
     0
1070
   287
1070
     5
1070
   340
1005
3A7
1002
}
  0
DIMENSION
  5
3D0
330
1F
100
AcDbEntity
  8
Ｓ_１_１
  6
CONTINUOUS
 62
     2
100
AcDbDimension
  2
*D18
 10
456.00000000002
 20
108.0
 30
0.0
 11
528.00000000002
 21
113.5
 31
0.0
 70
   160
  3
ISO-25
100
AcDbAlignedDimension
 13
600.00000000002
 23
136.500001
 33
0.0
 14
456.00000000002
 24
136.49999
 34
0.0
100
AcDbRotatedDimension
1001
ACAD
1000
DSTYLE
1002
{
1070
   270
1070
     2
1070
     6
1000
EX_NORM
1070
     7
1000
EX_NORM
1070
    41
1040
6.0
1070
    42
1040
3.0
1070
    44
1040
2.0
1070
    73
1070
     0
1070
    74
1070
     0
1070
    75
1070
     0
1070
    76
1070
     0
1070
    77
1070
     1
1070
    78
1070
     8
1070
   140
1040
6.92580831408776
1070
   147
1040
0.0
1070
   173
1070
     1
1070
   176
1070
     2
1070
   177
1070
     2
1070
   178
1070
     2
1070
   271
1070
     2
1070
   277
1070
     2
1070
   279
1070
     2
1070
   280
1070
     0
1070
   287
1070
     5
1070
   340
1005
3A7
1002
}
  0
DIMENSION
  5
3DD
330
1F
100
AcDbEntity
  8
Ｓ_１_１
  6
CONTINUOUS
 62
     2
100
AcDbDimension
  2
*D19
 10
445.00000700001
 20
108.0
 30
0.0
 11
434.50000700001
 21
113.4999999999999
 31
0.0
 70
   160
  3
ISO-25
100
AcDbAlignedDimension
 13
456.00000000002
 23
136.49999
 33
0.0
 14
445.00000700001
 24
176.00000000001
 34
0.0
100
AcDbRotatedDimension
1001
ACAD
1000
DSTYLE
1002
{
1070
   270
1070
     2
1070
     6
1000
EX_NORM
1070
     7
1000
EX_NORM
1070
    41
1040
6.0
1070
    42
1040
3.0
1070
    44
1040
2.0
1070
    73
1070
     0
1070
    74
1070
     0
1070
    75
1070
     0
1070
    76
1070
     0
1070
    77
1070
     1
1070
    78
1070
     8
1070
   140
1040
6.92580831408776
1070
   147
1040
0.0
1070
   173
1070
     1
1070
   176
1070
     2
1070
   177
1070
     2
1070
   178
1070
     2
1070
   271
1070
     2
1070
   277
1070
     2
1070
   279
1070
     2
1070
   280
1070
     2
1070
   287
1070
     5
1070
   340
1005
3A7
1002
}
  0
DIMENSION
  5
3EC
330
1F
100
AcDbEntity
  8
Ｓ_１_１
  6
CONTINUOUS
 62
     2
100
AcDbDimension
  2
*D20
 10
600.00000000002
 20
96.0
 30
0.0
 11
522.500003500015
 21
101.5
 31
0.0
 70
   160
  3
ISO-25
100
AcDbAlignedDimension
 13
445.00000700001
 23
176.00000000001
 33
0.0
 14
600.00000000002
 24
136.500001
 34
0.0
100
AcDbRotatedDimension
1001
ACAD
1000
DSTYLE
1002
{
1070
   270
1070
     2
1070
     6
1000
EX_NORM
1070
     7
1000
EX_NORM
1070
    41
1040
6.0
1070
    42
1040
3.0
1070
    44
1040
2.0
1070
    73
1070
     0
1070
    74
1070
     0
1070
    75
1070
     0
1070
    76
1070
     0
1070
    77
1070
     1
1070
    78
1070
     8
1070
   140
1040
6.92580831408776
1070
   147
1040
0.0
1070
   173
1070
     1
1070
   176
1070
     2
1070
   177
1070
     2
1070
   178
1070
     2
1070
   271
1070
     2
1070
   277
1070
     2
1070
   279
1070
     2
1070
   280
1070
     0
1070
   287
1070
     5
1070
   340
1005
3A7
1002
}
  0
DIMENSION
  5
3F9
330
1F
100
AcDbEntity
  8
Ｓ_１_１
  6
CONTINUOUS
 62
     2
100
AcDbDimension
  2
*D21
 10
408.0
 20
175.4999999999991
 30
0.0
 11
402.5
 21
228.0000000000001
 31
0.0
 70
   160
  1
%%c105
  3
ISO-25
100
AcDbAlignedDimension
 13
445.5000070000001
 23
280.500000000001
 33
0.0
 14
445.5000070000001
 24
175.4999999999991
 34
0.0
 50
90.0
100
AcDbRotatedDimension
1001
ACAD
1000
DSTYLE
1002
{
1070
   270
1070
     2
1070
     6
1000
EX_NORM
1070
     7
1000
EX_NORM
1070
    41
1040
6.0
1070
    42
1040
3.0
1070
    44
1040
2.000000000000057
1070
    73
1070
     0
1070
    74
1070
     0
1070
    75
1070
     0
1070
    76
1070
     0
1070
    77
1070
     1
1070
    78
1070
     8
1070
   140
1040
6.92580831408776
1070
   147
1040
0.0
1070
   173
1070
     1
1070
   176
1070
     2
1070
   177
1070
     2
1070
   178
1070
     2
1070
   271
1070
     2
1070
   277
1070
     2
1070
   279
1070
     2
1070
   280
1070
     0
1070
   287
1070
     5
1070
   340
1005
3A7
1002
}
  0
DIMENSION
  5
406
330
1F
100
AcDbEntity
  8
Ｓ_１_１
  6
CONTINUOUS
 62
     2
100
AcDbDimension
  2
*D22
 10
636.0
 20
135.4999999999991
 30
0.0
 11
630.5
 21
228.0000000000001
 31
0.0
 70
   160
  1
%%c185
  3
ISO-25
100
AcDbAlignedDimension
 13
599.0
 23
320.500000000001
 33
0.0
 14
599.0
 24
135.4999999999991
 34
0.0
 50
90.0
100
AcDbRotatedDimension
1001
ACAD
1000
DSTYLE
1002
{
1070
   270
1070
     2
1070
     6
1000
EX_NORM
1070
     7
1000
EX_NORM
1070
    41
1040
6.0
1070
    42
1040
3.0
1070
    44
1040
2.0
1070
    73
1070
     0
1070
    74
1070
     0
1070
    75
1070
     0
1070
    76
1070
     0
1070
    77
1070
     1
1070
    78
1070
     8
1070
   140
1040
6.92580831408776
1070
   147
1040
0.0
1070
   173
1070
     1
1070
   176
1070
     2
1070
   177
1070
     2
1070
   178
1070
     2
1070
   271
1070
     2
1070
   277
1070
     2
1070
   279
1070
     2
1070
   280
1070
     0
1070
   287
1070
     5
1070
   340
1005
3A7
1002
}
  0
DIMENSION
  5
413
330
1F
100
AcDbEntity
  8
Ｓ_１_１
  6
CONTINUOUS
 62
     2
100
AcDbDimension
  2
*D23
 10
370.05739520667
 20
444.0
 30
0.0
 11
240.00000000004
 21
449.5
 31
0.0
 70
   160
  1
(<>)
  3
ISO-25
100
AcDbAlignedDimension
 13
109.94260479341
 23
256.00000000002
 33
0.0
 14
370.05739520667
 24
256.00000000002
 34
0.0
100
AcDbRotatedDimension
1001
ACAD
1000
DSTYLE
1002
{
1070
   270
1070
     2
1070
     6
1000
EX_NORM
1070
     7
1000
EX_NORM
1070
    41
1040
6.0
1070
    42
1040
3.0
1070
    44
1040
2.0
1070
    73
1070
     0
1070
    74
1070
     0
1070
    75
1070
     0
1070
    76
1070
     0
1070
    77
1070
     1
1070
    78
1070
     0
1070
   140
1040
6.92580831408776
1070
   147
1040
0.0
1070
   173
1070
     1
1070
   176
1070
     2
1070
   177
1070
     2
1070
   178
1070
     2
1070
   271
1070
     0
1070
   277
1070
     2
1070
   279
1070
     2
1070
   280
1070
     0
1070
   287
1070
     5
1070
   340
1005
3A7
1002
}
  0
DIMENSION
  5
420
330
1F
100
AcDbEntity
  8
Ｓ_１_１
  6
CONTINUOUS
 62
     2
100
AcDbDimension
  2
*D24
 10
636.0
 20
405.86226351741
 30
0.0
 11
630.5
 21
363.181131758705
 31
0.0
 70
   160
  1
(<>)
  3
ISO-25
100
AcDbAlignedDimension
 13
599.0
 23
320.5
 33
0.0
 14
562.09500296447
 24
405.86226351741
 34
0.0
 50
90.0
100
AcDbRotatedDimension
1001
ACAD
1000
DSTYLE
1002
{
1070
   270
1070
     2
1070
     6
1000
EX_NORM
1070
     7
1000
EX_NORM
1070
    41
1040
6.0
1070
    42
1040
3.0
1070
    44
1040
2.0
1070
    73
1070
     0
1070
    74
1070
     0
1070
    75
1070
     0
1070
    76
1070
     0
1070
    77
1070
     1
1070
    78
1070
     0
1070
   140
1040
6.92580831408776
1070
   147
1040
0.0
1070
   173
1070
     1
1070
   176
1070
     2
1070
   177
1070
     2
1070
   178
1070
     2
1070
   271
1070
     0
1070
   277
1070
     2
1070
   279
1070
     2
1070
   280
1070
     0
1070
   287
1070
     5
1070
   340
1005
3A7
1002
}
  0
ENDSEC
  0
SECTION
  2
OBJECTS
  0
DICTIONARY
  5
C
330
0
100
AcDbDictionary
  3
ACAD_GROUP
350
D
  3
ACAD_LAYOUT
350
1A
  3
ACAD_MATERIAL
350
43
  3
ACAD_MLEADERSTYLE
350
6B
  3
ACAD_MLINESTYLE
350
17
  3
ACAD_PLOTSETTINGS
350
19
  3
ACAD_SCALELIST
350
47
  3
ACAD_VISUALSTYLE
350
2A
  3
ACDBHEADERROUNDTRIPXREC
350
42D
  3
ACDBVARIABLEDICTIONARY
350
44E
  0
DICTIONARY
  5
459
330
8
100
AcDbDictionary
280
     1
  3
ACAD_XREC_ROUNDTRIP
360
45A
  0
DICTIONARY
  5
D
102
{ACAD_REACTORS
330
C
102
}
330
C
100
AcDbDictionary
  0
DICTIONARY
  5
1A
102
{ACAD_REACTORS
330
C
102
}
330
C
100
AcDbDictionary
  0
DICTIONARY
  5
43
102
{ACAD_REACTORS
330
C
102
}
330
C
100
AcDbDictionary
  3
BYBLOCK
350
45
  3
BYLAYER
350
44
  3
GLOBAL
350
46
  0
DICTIONARY
  5
6B
102
{ACAD_REACTORS
330
C
102
}
330
C
100
AcDbDictionary
  3
STANDARD
350
6C
  0
DICTIONARY
  5
17
102
{ACAD_REACTORS
330
C
102
}
330
C
100
AcDbDictionary
  3
STANDARD
350
18
  0
DICTIONARY
  5
19
102
{ACAD_REACTORS
330
C
102
}
330
C
100
AcDbDictionary
  0
DICTIONARY
  5
47
102
{ACAD_REACTORS
330
C
102
}
330
C
100
AcDbDictionary
  3
A0
350
48
  3
A1
350
49
  3
A2
350
4A
  3
A3
350
4B
  3
A4
350
4C
  3
A5
350
4D
  3
A6
350
4E
  3
A7
350
4F
  3
A8
350
50
  3
A9
350
51
  3
B0
350
52
  3
B1
350
53
  3
B2
350
54
  3
B3
350
55
  3
B4
350
56
  3
B5
350
57
  3
B6
350
58
  3
B7
350
59
  3
B8
350
5A
  3
B9
350
5B
  3
C0
350
5C
  3
C1
350
5D
  3
C2
350
5E
  3
C3
350
5F
  3
C4
350
60
  3
C5
350
61
  3
C6
350
62
  3
C7
350
63
  3
C8
350
64
  3
C9
350
65
  3
D0
350
66
  3
D1
350
67
  3
D2
350
68
  0
DICTIONARY
  5
2A
102
{ACAD_REACTORS
330
C
102
}
330
C
100
AcDbDictionary
  3
2DWIREFRAME
350
2F
  3
BASIC
350
32
  3
BRIGHTEN
350
36
  3
COLORCHANGE
350
3A
  3
CONCEPTUAL
350
34
  3
DIM
350
35
  3
EDGECOLOROFF
350
3D
  3
FACEPATTERN
350
39
  3
FLAT
350
2B
  3
FLATWITHEDGES
350
2C
  3
GOURAUD
350
2D
  3
GOURAUDWITHEDGES
350
2E
  3
HIDDEN
350
31
  3
JITTEROFF
350
3B
  3
LINEPATTERN
350
38
  3
OVERHANGOFF
350
3C
  3
REALISTIC
350
33
  3
SHADED
350
42
  3
SHADED_WITH_EDGES
350
41
  3
SHADES_OF_GRAY
350
3E
  3
SKETCHY
350
3F
  3
THICKEN
350
37
  3
WIREFRAME
350
30
  3
X-RAY
350
40
  0
DICTIONARY
  5
42D
102
{ACAD_REACTORS
330
C
102
}
330
C
100
AcDbDictionary
  3
CEPSNID
350
437
  3
CEPSNTYPE
350
436
  3
DIMSTYLEDATA
350
44D
  3
FINGERPRINTGUID
350
438
  3
HYPERLINKBASE
350
430
  3
INSUNITS
350
435
  3
LAYOUTDICT
350
432
  3
LWETCUNION
350
434
  3
PLOTSETDICT
350
433
  3
PSVPSCALE
350
43A
  3
PUCSBASE
350
43D
  3
PUCSORGBACK
350
443
  3
PUCSORGBOTTOM
350
43F
  3
PUCSORGFRONT
350
442
  3
PUCSORGLEFT
350
440
  3
PUCSORGRIGHT
350
441
  3
PUCSORGTOP
350
43E
  3
PUCSORTHOREF
350
43B
  3
PUCSORTHOVIEW
350
43C
  3
STYLESHEET
350
431
  3
TSTACKALIGN
350
42E
  3
TSTACKSIZE
350
42F
  3
UCSBASE
350
446
  3
UCSORGBACK
350
44C
  3
UCSORGBOTTOM
350
448
  3
UCSORGFRONT
350
44B
  3
UCSORGLEFT
350
449
  3
UCSORGRIGHT
350
44A
  3
UCSORGTOP
350
447
  3
UCSORTHOREF
350
444
  3
UCSORTHOVIEW
350
445
  3
VERSIONGUID
350
439
  0
DICTIONARY
  5
44E
102
{ACAD_REACTORS
330
C
102
}
330
C
100
AcDbDictionary
  3
CANNOSCALE
350
45B
  3
CENTEREXE
350
455
  3
CENTERLTYPEFILE
350
456
  3
CMLEADERSTYLE
350
450
  3
CTABLESTYLE
350
44F
  3
DIMASSOC
350
457
  3
HIDETEXT
350
458
  3
MSLTSCALE
350
45C
  3
PSOLHEIGHT
350
452
  3
PSOLWIDTH
350
451
  0
XRECORD
  5
45A
102
{ACAD_REACTORS
330
459
102
}
330
459
100
AcDbXrecord
102
VTR_0.000_0.000_1.000_1.000_VISUALSTYLE
340
2F
102
VTR_0.000_0.000_1.000_1.000_GRIDDISPLAY
 70
     3
102
VTR_0.000_0.000_1.000_1.000_GRIDMAJOR
 70
     5
102
VTR_0.000_0.000_1.000_1.000_DEFAULTLIGHTING
280
     1
102
VTR_0.000_0.000_1.000_1.000_DEFAULTLIGHTINGTYPE
 70
     1
102
VTR_0.000_0.000_1.000_1.000_BRIGHTNESS
141
0.0
102
VTR_0.000_0.000_1.000_1.000_CONTRAST
142
0.0
  0
MATERIAL
  5
45
102
{ACAD_REACTORS
330
43
102
}
102
{ACAD_XDICTIONARY
360
45F
102
}
330
43
100
AcDbMaterial
  1
BYBLOCK
  0
MATERIAL
  5
44
102
{ACAD_REACTORS
330
43
102
}
102
{ACAD_XDICTIONARY
360
45D
102
}
330
43
100
AcDbMaterial
  1
BYLAYER
  0
MATERIAL
  5
46
102
{ACAD_REACTORS
330
43
102
}
102
{ACAD_XDICTIONARY
360
461
102
}
330
43
100
AcDbMaterial
  1
GLOBAL
  0
ACAD_PROXY_OBJECT
  5
6C
102
{ACAD_REACTORS
330
6B
102
}
330
6B
100
AcDbProxyObject
 90
      499
 91
      505
 93
      610
310
40901902A4063FBFFFFFE0000000000000020400000000000020404214DD185B99185C990000000000000104090141901A00000000000004100000000000000041025764000000000000039000
340
14
340
0
340
11
340
0
 94
        0
1001
ACAD_MLEADERVER
1070
     2
  0
MLINESTYLE
  5
18
102
{ACAD_REACTORS
330
17
102
}
330
17
100
AcDbMlineStyle
  2
Standard
 70
     0
  3

 62
   256
 51
90.0
 52
90.0
 71
     2
 49
0.5
 62
   256
  6
BYLAYER
 49
-0.5
 62
   256
  6
BYLAYER
  0
ACAD_PROXY_OBJECT
  5
48
102
{ACAD_REACTORS
330
47
102
}
330
47
100
AcDbProxyObject
 90
      499
 91
      503
 93
       41
310
903313A31580
  0
ACAD_PROXY_OBJECT
  5
49
102
{ACAD_REACTORS
330
47
102
}
330
47
100
AcDbProxyObject
 90
      499
 91
      503
 93
      105
310
903313A324000000000000004000
  0
ACAD_PROXY_OBJECT
  5
4A
102
{ACAD_REACTORS
330
47
102
}
330
47
100
AcDbProxyObject
 90
      499
 91
      503
 93
      105
310
903313A344000000000000104000
  0
ACAD_PROXY_OBJECT
  5
4B
102
{ACAD_REACTORS
330
47
102
}
330
47
100
AcDbProxyObject
 90
      499
 91
      503
 93
      105
310
903313A354000000000000144000
  0
ACAD_PROXY_OBJECT
  5
4C
102
{ACAD_REACTORS
330
47
102
}
330
47
100
AcDbProxyObject
 90
      499
 91
      503
 93
      105
310
903313A384000000000000204000
  0
ACAD_PROXY_OBJECT
  5
4D
102
{ACAD_REACTORS
330
47
102
}
330
47
100
AcDbProxyObject
 90
      499
 91
      503
 93
      113
310
904313A31304000000000000244000
  0
ACAD_PROXY_OBJECT
  5
4E
102
{ACAD_REACTORS
330
47
102
}
330
47
100
AcDbProxyObject
 90
      499
 91
      503
 93
      113
310
904313A31364000000000000304000
  0
ACAD_PROXY_OBJECT
  5
4F
102
{ACAD_REACTORS
330
47
102
}
330
47
100
AcDbProxyObject
 90
      499
 91
      503
 93
      113
310
904313A32304000000000000344000
  0
ACAD_PROXY_OBJECT
  5
50
102
{ACAD_REACTORS
330
47
102
}
330
47
100
AcDbProxyObject
 90
      499
 91
      503
 93
      113
310
904313A333040000000000003E4000
  0
ACAD_PROXY_OBJECT
  5
51
102
{ACAD_REACTORS
330
47
102
}
330
47
100
AcDbProxyObject
 90
      499
 91
      503
 93
      113
310
904313A34304000000000000444000
  0
ACAD_PROXY_OBJECT
  5
52
102
{ACAD_REACTORS
330
47
102
}
330
47
100
AcDbProxyObject
 90
      499
 91
      503
 93
      113
310
904313A35304000000000000494000
  0
ACAD_PROXY_OBJECT
  5
53
102
{ACAD_REACTORS
330
47
102
}
330
47
100
AcDbProxyObject
 90
      499
 91
      503
 93
      121
310
905313A3130304000000000000594000
  0
ACAD_PROXY_OBJECT
  5
54
102
{ACAD_REACTORS
330
47
102
}
330
47
100
AcDbProxyObject
 90
      499
 91
      503
 93
      105
310
903323A310000000000000010100
  0
ACAD_PROXY_OBJECT
  5
55
102
{ACAD_REACTORS
330
47
102
}
330
47
100
AcDbProxyObject
 90
      499
 91
      503
 93
      105
310
903343A310000000000000410100
  0
ACAD_PROXY_OBJECT
  5
56
102
{ACAD_REACTORS
330
47
102
}
330
47
100
AcDbProxyObject
 90
      499
 91
      503
 93
      105
310
903383A310000000000000810100
  0
ACAD_PROXY_OBJECT
  5
57
102
{ACAD_REACTORS
330
47
102
}
330
47
100
AcDbProxyObject
 90
      499
 91
      503
 93
      113
310
90431303A310000000000000910100
  0
ACAD_PROXY_OBJECT
  5
58
102
{ACAD_REACTORS
330
47
102
}
330
47
100
AcDbProxyObject
 90
      499
 91
      503
 93
      121
310
9053130303A310000000000001650100
  0
ACAD_PROXY_OBJECT
  5
59
102
{ACAD_REACTORS
330
47
102
}
330
47
100
AcDbProxyObject
 90
      499
 91
      503
 93
      257
310
90E312F31323822203D2031272D3022000000000000200FC000000000000284000
  0
ACAD_PROXY_OBJECT
  5
5A
102
{ACAD_REACTORS
330
47
102
}
330
47
100
AcDbProxyObject
 90
      499
 91
      503
 93
      249
310
90D312F363422203D2031272D3022000000000000240FC000000000000284000
  0
ACAD_PROXY_OBJECT
  5
5B
102
{ACAD_REACTORS
330
47
102
}
330
47
100
AcDbProxyObject
 90
      499
 91
      503
 93
      249
310
90D312F333222203D2031272D3022000000000000280FC000000000000284000
  0
ACAD_PROXY_OBJECT
  5
5C
102
{ACAD_REACTORS
330
47
102
}
330
47
100
AcDbProxyObject
 90
      499
 91
      503
 93
      249
310
90D312F313622203D2031272D30220000000000002C0FC000000000000284000
  0
ACAD_PROXY_OBJECT
  5
5D
102
{ACAD_REACTORS
330
47
102
}
330
47
100
AcDbProxyObject
 90
      499
 91
      503
 93
      249
310
90D332F333222203D2031272D30220000000000002E0FC000000000000284000
  0
ACAD_PROXY_OBJECT
  5
5E
102
{ACAD_REACTORS
330
47
102
}
330
47
100
AcDbProxyObject
 90
      499
 91
      503
 93
      241
310
90C312F3822203D2031272D3022000000000000300FC000000000000284000
  0
ACAD_PROXY_OBJECT
  5
5F
102
{ACAD_REACTORS
330
47
102
}
330
47
100
AcDbProxyObject
 90
      499
 91
      503
 93
      249
310
90D332F313622203D2031272D3022000000000000320FC000000000000284000
  0
ACAD_PROXY_OBJECT
  5
60
102
{ACAD_REACTORS
330
47
102
}
330
47
100
AcDbProxyObject
 90
      499
 91
      503
 93
      241
310
90C312F3422203D2031272D3022000000000000340FC000000000000284000
  0
ACAD_PROXY_OBJECT
  5
61
102
{ACAD_REACTORS
330
47
102
}
330
47
100
AcDbProxyObject
 90
      499
 91
      503
 93
      241
310
90C332F3822203D2031272D3022000000000000360FC000000000000284000
  0
ACAD_PROXY_OBJECT
  5
62
102
{ACAD_REACTORS
330
47
102
}
330
47
100
AcDbProxyObject
 90
      499
 91
      503
 93
      241
310
90C312F3222203D2031272D3022000000000000380FC000000000000284000
  0
ACAD_PROXY_OBJECT
  5
63
102
{ACAD_REACTORS
330
47
102
}
330
47
100
AcDbProxyObject
 90
      499
 91
      503
 93
      241
310
90C332F3422203D2031272D30220000000000003A0FC000000000000284000
  0
ACAD_PROXY_OBJECT
  5
64
102
{ACAD_REACTORS
330
47
102
}
330
47
100
AcDbProxyObject
 90
      499
 91
      503
 93
      161
310
90A3122203D2031272D30224000000000000284000
  0
ACAD_PROXY_OBJECT
  5
65
102
{ACAD_REACTORS
330
47
102
}
330
47
100
AcDbProxyObject
 90
      499
 91
      503
 93
      257
310
90E312D312F3222203D2031272D30220000000000003E0FC000000000000284000
  0
ACAD_PROXY_OBJECT
  5
66
102
{ACAD_REACTORS
330
47
102
}
330
47
100
AcDbProxyObject
 90
      499
 91
      503
 93
      225
310
90A3322203D2031272D302200000000000002100000000000000284000
  0
ACAD_PROXY_OBJECT
  5
67
102
{ACAD_REACTORS
330
47
102
}
330
47
100
AcDbProxyObject
 90
      499
 91
      503
 93
      225
310
90A3622203D2031272D302200000000000006100000000000000284000
  0
ACAD_PROXY_OBJECT
  5
68
102
{ACAD_REACTORS
330
47
102
}
330
47
100
AcDbProxyObject
 90
      499
 91
      503
 93
      249
310
90D31272D3022203D2031272D30220000000000000A100000000000000284000
  0
ACAD_PROXY_OBJECT
  5
2F
102
{ACAD_REACTORS
330
2A
102
}
330
2A
100
AcDbProxyObject
 90
      499
 91
      501
 93
      436
310
42CC9915DA5C99599C985B595049028333333333333E33F0000000000000F90107901411070040501600405405064090741402480A0340
1001
ACAD
1000
AcDbSavedByObjectVersion
1070
     0
  0
ACAD_PROXY_OBJECT
  5
32
102
{ACAD_REACTORS
330
2A
102
}
330
2A
100
AcDbProxyObject
 90
      499
 91
      501
 93
      388
310
4150985CDA58D07406404333333333333E33F0000000000000F90107A41107004050150841D405064090741402480A0350
1001
ACAD
1000
AcDbSavedByObjectVersion
1070
     0
  0
ACAD_PROXY_OBJECT
  5
36
102
{ACAD_REACTORS
330
2A
102
}
330
2A
100
AcDbProxyObject
 90
      499
 91
      501
 93
      428
310
42109C9A59DA1D195B90C409028333333333333E33F0000000000000F9010790141107004050150841D405064090741402480A029950
1001
ACAD
1000
AcDbSavedByObjectVersion
1070
     0
  0
ACAD_PROXY_OBJECT
  5
3A
102
{ACAD_REACTORS
330
2A
102
}
330
2A
100
AcDbProxyObject
 90
      499
 91
      501
 93
      452
310
42D0DBDB1BDC90DA185B99D95104090240C333333333333E33F0000000000000F90108901411070040501508421405064090741402480A0350
1001
ACAD
1000
AcDbSavedByObjectVersion
1070
     0
  0
ACAD_PROXY_OBJECT
  5
34
102
{ACAD_REACTORS
330
2A
102
}
330
2A
100
AcDbProxyObject
 90
      499
 91
      501
 93
      500
310
4290DBDB98D95C1D1D585B10940D028333333333333E33F0000000000000F90107902409070040501000000000018199010841D405064090740C02480A0340
1001
ACAD
1000
AcDbSavedByObjectVersion
1070
     0
  0
ACAD_PROXY_OBJECT
  5
35
102
{ACAD_REACTORS
330
2A
102
}
330
2A
100
AcDbProxyObject
 90
      499
 91
      501
 93
      412
310
40D11A5B50B409028333333333333E33F0000000000000F9010790141107004050150841D405064090741402480A02677FFFFFD0
1001
ACAD
1000
AcDbSavedByObjectVersion
1070
     0
  0
ACAD_PROXY_OBJECT
  5
3D
102
{ACAD_REACTORS
330
2A
102
}
330
2A
100
AcDbProxyObject
 90
      499
 91
      501
 93
      452
310
43115919D950DBDB1BDC93D999916409028333333333333E33F0000000000000F9010790141107004050150841D405064090741402480A0350
1001
ACAD
1000
AcDbSavedByObjectVersion
1070
     0
  0
ACAD_PROXY_OBJECT
  5
39
102
{ACAD_REACTORS
330
2A
102
}
330
2A
100
AcDbProxyObject
 90
      499
 91
      501
 93
      444
310
42D19858D95C185D1D195C9B90F409028333333333333E33F0000000000000F9010790141107004050150841D405064090741402480A0350
1001
ACAD
1000
AcDbSavedByObjectVersion
1070
     0
  0
ACAD_PROXY_OBJECT
  5
2B
102
{ACAD_REACTORS
330
2A
102
}
330
2A
100
AcDbProxyObject
 90
      499
 91
      501
 93
      380
310
41119B185D240901404333333333333E33F0000000000000F9010740A907004050150841D405064090741402480A1B50
1001
ACAD
1000
AcDbSavedByObjectVersion
1070
     0
  0
ACAD_PROXY_OBJECT
  5
2C
102
{ACAD_REACTORS
330
2A
102
}
330
2A
100
AcDbProxyObject
 90
      499
 91
      501
 93
      468
310
43519B185D15DA5D1A115919D95CD0140901404333333333333E33F0000000000000F90107409019070040501600405405064090741402480A1B50
1001
ACAD
1000
AcDbSavedByObjectVersion
1070
     0
  0
ACAD_PROXY_OBJECT
  5
2D
102
{ACAD_REACTORS
330
2A
102
}
330
2A
100
AcDbProxyObject
 90
      499
 91
      501
 93
      404
310
41D1DBDD5C985D5910240902404333333333333E33F0000000000000F9010740A9070040501641D405064090741402480A1B50
1001
ACAD
1000
AcDbSavedByObjectVersion
1070
     0
  0
ACAD_PROXY_OBJECT
  5
2E
102
{ACAD_REACTORS
330
2A
102
}
330
2A
100
AcDbProxyObject
 90
      499
 91
      501
 93
      492
310
4411DBDD5C985D5915DA5D1A115919D95CD0340902404333333333333E33F0000000000000F90107409019070040501600405405064090741402480A1B50
1001
ACAD
1000
AcDbSavedByObjectVersion
1070
     0
  0
ACAD_PROXY_OBJECT
  5
31
102
{ACAD_REACTORS
330
2A
102
}
330
2A
100
AcDbProxyObject
 90
      499
 91
      501
 93
      476
310
41921A5919195B90640502408333333333333E33F0000000000000F901079024090700405020000000000001110200405405064090740C02480A0340
1001
ACAD
1000
AcDbSavedByObjectVersion
1070
     0
  0
ACAD_PROXY_OBJECT
  5
3B
102
{ACAD_REACTORS
330
2A
102
}
330
2A
100
AcDbProxyObject
 90
      499
 91
      501
 93
      428
310
42529A5D1D195C93D999914409028333333333333E33F0000000000000F9010790141107004050150A41D405064090741402480A0350
1001
ACAD
1000
AcDbSavedByObjectVersion
1070
     0
  0
ACAD_PROXY_OBJECT
  5
38
102
{ACAD_REACTORS
330
2A
102
}
330
2A
100
AcDbProxyObject
 90
      499
 91
      501
 93
      444
310
42D31A5B995C185D1D195C9B90E409028333333333333E33F0000000000000F9010790141107004050750841D405064090741402483A0350
1001
ACAD
1000
AcDbSavedByObjectVersion
1070
     0
  0
ACAD_PROXY_OBJECT
  5
3C
102
{ACAD_REACTORS
330
2A
102
}
330
2A
100
AcDbProxyObject
 90
      499
 91
      501
 93
      444
310
42D3DD995C9A185B99D3D999915409028333333333333E33F0000000000000F9010790141107004050150941D405064090741402480A0350
1001
ACAD
1000
AcDbSavedByObjectVersion
1070
     0
  0
ACAD_PROXY_OBJECT
  5
33
102
{ACAD_REACTORS
330
2A
102
}
330
2A
100
AcDbProxyObject
 90
      499
 91
      501
 93
      428
310
425499585B1A5CDD1A58D08409038333333333333E33F0000000000000F9010740A907004050150800405405064090740C02480A1B40
1001
ACAD
1000
AcDbSavedByObjectVersion
1070
     0
  0
ACAD_PROXY_OBJECT
  5
42
102
{ACAD_REACTORS
330
2A
102
}
330
2A
100
AcDbProxyObject
 90
      499
 91
      501
 93
      420
310
4194DA1859195911B40902404333333333333E33F0000000000000F9010740A41107004050150800405405064090840C02480A0B40
1001
ACAD
1000
AcDbSavedByObjectVersion
1070
     0
  0
ACAD_PROXY_OBJECT
  5
41
102
{ACAD_REACTORS
330
2A
102
}
330
2A
100
AcDbProxyObject
 90
      499
 91
      501
 93
      516
310
4454DA18591959081DDA5D1A08195919D95CD1A40902404333333333333E33F0000000000000F901074090142907004050250800405405064090740C02480A0B40
1001
ACAD
1000
AcDbSavedByObjectVersion
1070
     0
  0
ACAD_PROXY_OBJECT
  5
3E
102
{ACAD_REACTORS
330
2A
102
}
330
2A
100
AcDbProxyObject
 90
      499
 91
      501
 93
      532
310
4394DA1859195CC81BD98811DC985E5174090240C333333333333E33F0000000000000F901079024090741D01000000000000111010841D405064090740C02480A0340
1001
ACAD
1000
AcDbSavedByObjectVersion
1070
     0
  0
ACAD_PROXY_OBJECT
  5
3F
102
{ACAD_REACTORS
330
2A
102
}
330
2A
100
AcDbProxyObject
 90
      499
 91
      501
 93
      476
310
41D4DAD95D18DA1E51840502408333333333333E33F0000000000000F901079024090741D01000000000000111010B41D405064090741802480A0340
1001
ACAD
1000
AcDbSavedByObjectVersion
1070
     0
  0
ACAD_PROXY_OBJECT
  5
37
102
{ACAD_REACTORS
330
2A
102
}
330
2A
100
AcDbProxyObject
 90
      499
 91
      501
 93
      412
310
41D51A1A58DAD95B90D409028333333333333E33F0000000000000F9010790141107004050150C41D405064090741402480A0350
1001
ACAD
1000
AcDbSavedByObjectVersion
1070
     0
  0
ACAD_PROXY_OBJECT
  5
30
102
{ACAD_REACTORS
330
2A
102
}
330
2A
100
AcDbProxyObject
 90
      499
 91
      501
 93
      420
310
4255DA5C99599C985B595059028333333333333E33F0000000000000F90107901411070040501600405405064090740C02480A0340
1001
ACAD
1000
AcDbSavedByObjectVersion
1070
     0
  0
ACAD_PROXY_OBJECT
  5
40
102
{ACAD_REACTORS
330
2A
102
}
330
2A
100
AcDbProxyObject
 90
      499
 91
      501
 93
      404
310
41560B54985E51940902404000000000000E03F0000000000000F9010740501907004050150841D405064090740C02480A1B40
1001
ACAD
1000
AcDbSavedByObjectVersion
1070
     0
  0
XRECORD
  5
437
102
{ACAD_REACTORS
330
42D
102
}
330
42D
100
AcDbXrecord
340
0
  0
XRECORD
  5
436
102
{ACAD_REACTORS
330
42D
102
}
330
42D
100
AcDbXrecord
 90
        0
  0
XRECORD
  5
44D
102
{ACAD_REACTORS
330
42D
102
}
330
42D
100
AcDbXrecord
1000
DSTYLE
1002
{
1070
   340
340
11
1002
}
  0
XRECORD
  5
438
102
{ACAD_REACTORS
330
42D
102
}
330
42D
100
AcDbXrecord
  1
{81229b62-5ddf-4e1b-9a70-dc0475a68100}
  0
XRECORD
  5
430
102
{ACAD_REACTORS
330
42D
102
}
330
42D
100
AcDbXrecord
  1

  0
XRECORD
  5
435
102
{ACAD_REACTORS
330
42D
102
}
330
42D
100
AcDbXrecord
 90
        4
  0
XRECORD
  5
432
102
{ACAD_REACTORS
330
42D
102
}
330
42D
100
AcDbXrecord
340
1A
  0
XRECORD
  5
434
102
{ACAD_REACTORS
330
42D
102
}
330
42D
100
AcDbXrecord
 90
    10781
  0
XRECORD
  5
433
102
{ACAD_REACTORS
330
42D
102
}
330
42D
100
AcDbXrecord
340
19
  0
XRECORD
  5
43A
102
{ACAD_REACTORS
330
42D
102
}
330
42D
100
AcDbXrecord
 40
0.0
  0
XRECORD
  5
43D
102
{ACAD_REACTORS
330
42D
102
}
330
42D
100
AcDbXrecord
340
0
  0
XRECORD
  5
443
102
{ACAD_REACTORS
330
42D
102
}
330
42D
100
AcDbXrecord
 10
0.0
 20
0.0
 30
0.0
  0
XRECORD
  5
43F
102
{ACAD_REACTORS
330
42D
102
}
330
42D
100
AcDbXrecord
 10
0.0
 20
0.0
 30
0.0
  0
XRECORD
  5
442
102
{ACAD_REACTORS
330
42D
102
}
330
42D
100
AcDbXrecord
 10
0.0
 20
0.0
 30
0.0
  0
XRECORD
  5
440
102
{ACAD_REACTORS
330
42D
102
}
330
42D
100
AcDbXrecord
 10
0.0
 20
0.0
 30
0.0
  0
XRECORD
  5
441
102
{ACAD_REACTORS
330
42D
102
}
330
42D
100
AcDbXrecord
 10
0.0
 20
0.0
 30
0.0
  0
XRECORD
  5
43E
102
{ACAD_REACTORS
330
42D
102
}
330
42D
100
AcDbXrecord
 10
0.0
 20
0.0
 30
0.0
  0
XRECORD
  5
43B
102
{ACAD_REACTORS
330
42D
102
}
330
42D
100
AcDbXrecord
340
0
  0
XRECORD
  5
43C
102
{ACAD_REACTORS
330
42D
102
}
330
42D
100
AcDbXrecord
 70
     0
  0
XRECORD
  5
431
102
{ACAD_REACTORS
330
42D
102
}
330
42D
100
AcDbXrecord
  1

  0
XRECORD
  5
42E
102
{ACAD_REACTORS
330
42D
102
}
330
42D
100
AcDbXrecord
 90
        1
  0
XRECORD
  5
42F
102
{ACAD_REACTORS
330
42D
102
}
330
42D
100
AcDbXrecord
 90
       70
  0
XRECORD
  5
446
102
{ACAD_REACTORS
330
42D
102
}
330
42D
100
AcDbXrecord
340
0
  0
XRECORD
  5
44C
102
{ACAD_REACTORS
330
42D
102
}
330
42D
100
AcDbXrecord
 10
0.0
 20
0.0
 30
0.0
  0
XRECORD
  5
448
102
{ACAD_REACTORS
330
42D
102
}
330
42D
100
AcDbXrecord
 10
0.0
 20
0.0
 30
0.0
  0
XRECORD
  5
44B
102
{ACAD_REACTORS
330
42D
102
}
330
42D
100
AcDbXrecord
 10
0.0
 20
0.0
 30
0.0
  0
XRECORD
  5
449
102
{ACAD_REACTORS
330
42D
102
}
330
42D
100
AcDbXrecord
 10
0.0
 20
0.0
 30
0.0
  0
XRECORD
  5
44A
102
{ACAD_REACTORS
330
42D
102
}
330
42D
100
AcDbXrecord
 10
0.0
 20
0.0
 30
0.0
  0
XRECORD
  5
447
102
{ACAD_REACTORS
330
42D
102
}
330
42D
100
AcDbXrecord
 10
0.0
 20
0.0
 30
0.0
  0
XRECORD
  5
444
102
{ACAD_REACTORS
330
42D
102
}
330
42D
100
AcDbXrecord
340
0
  0
XRECORD
  5
445
102
{ACAD_REACTORS
330
42D
102
}
330
42D
100
AcDbXrecord
 70
     0
  0
XRECORD
  5
439
102
{ACAD_REACTORS
330
42D
102
}
330
42D
100
AcDbXrecord
  1
{FAEB1C32-E019-11D5-929B-00C0DF256EC4}
  0
DICTIONARYVAR
  5
45B
102
{ACAD_REACTORS
330
44E
102
}
330
44E
100
DictionaryVariables
280
     0
  1
1:1
  0
DICTIONARYVAR
  5
455
102
{ACAD_REACTORS
330
44E
102
}
330
44E
100
DictionaryVariables
280
     0
  1
3.500000
  0
DICTIONARYVAR
  5
456
102
{ACAD_REACTORS
330
44E
102
}
330
44E
100
DictionaryVariables
280
     0
  1
acadiso.lin
  0
DICTIONARYVAR
  5
450
102
{ACAD_REACTORS
330
44E
102
}
330
44E
100
DictionaryVariables
280
     0
  1
Standard
  0
DICTIONARYVAR
  5
44F
102
{ACAD_REACTORS
330
44E
102
}
330
44E
100
DictionaryVariables
280
     0
  1
Standard
  0
DICTIONARYVAR
  5
457
102
{ACAD_REACTORS
330
44E
102
}
330
44E
100
DictionaryVariables
280
     0
  1
2
  0
DICTIONARYVAR
  5
458
102
{ACAD_REACTORS
330
44E
102
}
330
44E
100
DictionaryVariables
280
     0
  1
1
  0
DICTIONARYVAR
  5
45C
102
{ACAD_REACTORS
330
44E
102
}
330
44E
100
DictionaryVariables
280
     0
  1
1
  0
DICTIONARYVAR
  5
452
102
{ACAD_REACTORS
330
44E
102
}
330
44E
100
DictionaryVariables
280
     0
  1
80.000000
  0
DICTIONARYVAR
  5
451
102
{ACAD_REACTORS
330
44E
102
}
330
44E
100
DictionaryVariables
280
     0
  1
5.000000
  0
DICTIONARY
  5
45F
330
45
100
AcDbDictionary
280
     1
  3
ACAD_XREC_ROUNDTRIP
360
460
  0
DICTIONARY
  5
45D
330
44
100
AcDbDictionary
280
     1
  3
ACAD_XREC_ROUNDTRIP
360
45E
  0
DICTIONARY
  5
461
330
46
100
AcDbDictionary
280
     1
  3
ACAD_XREC_ROUNDTRIP
360
462
  0
XRECORD
  5
460
102
{ACAD_REACTORS
330
45F
102
}
330
45F
100
AcDbXrecord
102
MATERIAL
148
0.0
149
0.0
149
0.0
 93
        0
 94
      127
282
     0
 72
     1
 77
     1
171
     1
175
     1
179
     1
273
     0
  0
XRECORD
  5
45E
102
{ACAD_REACTORS
330
45D
102
}
330
45D
100
AcDbXrecord
102
MATERIAL
148
0.0
149
0.0
149
0.0
 93
        0
 94
      127
282
     0
 72
     1
 77
     1
171
     1
175
     1
179
     1
273
     0
  0
XRECORD
  5
462
102
{ACAD_REACTORS
330
461
102
}
330
461
100
AcDbXrecord
102
MATERIAL
148
0.0
149
0.0
149
0.0
 93
        0
 94
      127
282
     0
 72
     1
 77
     1
171
     1
175
     1
179
     1
273
     0
  0
ENDSEC
  0
EOF
