  0
SECTION
  2
HEADER
  9
$ACADVER
  1
AC1014
  9
$ACADMAINTVER
 70
     9
  9
$DWGCODEPAGE
  3
ANSI_932
  9
$INSBASE
 10
0.0
 20
0.0
 30
0.0
  9
$EXTMIN
 10
20.0
 20
20.0
 30
0.0
  9
$EXTMAX
 10
820.0
 20
574.0
 30
0.0
  9
$LIMMIN
 10
0.0
 20
0.0
  9
$LIMMAX
 10
420.0
 20
297.0
  9
$ORTHOMODE
 70
     0
  9
$REGENMODE
 70
     1
  9
$FILLMODE
 70
     1
  9
$QTEXTMODE
 70
     0
  9
$MIRRTEXT
 70
     1
  9
$DRAGMODE
 70
     2
  9
$LTSCALE
 40
1.0
  9
$OSMODE
 70
    37
  9
$ATTMODE
 70
     1
  9
$TEXTSIZE
 40
2.5
  9
$TRACEWID
 40
1.0
  9
$TEXTSTYLE
  7
STANDARD
  9
$CLAYER
  8
Ｓ_１_１
  9
$CELTYPE
  6
BYLAYER
  9
$CECOLOR
 62
   256
  9
$CELTSCALE
 40
1.0
  9
$DELOBJ
 70
     1
  9
$DISPSILH
 70
     0
  9
$DIMSCALE
 40
1.0
  9
$DIMASZ
 40
2.5
  9
$DIMEXO
 40
0.625
  9
$DIMDLI
 40
3.75
  9
$DIMRND
 40
0.0
  9
$DIMDLE
 40
0.0
  9
$DIMEXE
 40
1.25
  9
$DIMTP
 40
0.0
  9
$DIMTM
 40
0.0
  9
$DIMTXT
 40
2.5
  9
$DIMCEN
 40
2.5
  9
$DIMTSZ
 40
0.0
  9
$DIMTOL
 70
     0
  9
$DIMLIM
 70
     0
  9
$DIMTIH
 70
     0
  9
$DIMTOH
 70
     0
  9
$DIMSE1
 70
     0
  9
$DIMSE2
 70
     0
  9
$DIMTAD
 70
     1
  9
$DIMZIN
 70
     8
  9
$DIMBLK
  1

  9
$DIMASO
 70
     1
  9
$DIMSHO
 70
     1
  9
$DIMPOST
  1

  9
$DIMAPOST
  1

  9
$DIMALT
 70
     0
  9
$DIMALTD
 70
     3
  9
$DIMALTF
 40
0.03937007874016
  9
$DIMLFAC
 40
1.0
  9
$DIMTOFL
 70
     1
  9
$DIMTVP
 40
0.0
  9
$DIMTIX
 70
     0
  9
$DIMSOXD
 70
     0
  9
$DIMSAH
 70
     0
  9
$DIMBLK1
  1

  9
$DIMBLK2
  1

  9
$DIMSTYLE
  2
ISO-25
  9
$DIMCLRD
 70
     0
  9
$DIMCLRE
 70
     0
  9
$DIMCLRT
 70
     0
  9
$DIMTFAC
 40
1.0
  9
$DIMGAP
 40
0.625
  9
$DIMJUST
 70
     0
  9
$DIMSD1
 70
     0
  9
$DIMSD2
 70
     0
  9
$DIMTOLJ
 70
     0
  9
$DIMTZIN
 70
     8
  9
$DIMALTZ
 70
     0
  9
$DIMALTTZ
 70
     0
  9
$DIMFIT
 70
     3
  9
$DIMUPT
 70
     0
  9
$DIMUNIT
 70
     2
  9
$DIMDEC
 70
     2
  9
$DIMTDEC
 70
     2
  9
$DIMALTU
 70
     2
  9
$DIMALTTD
 70
     3
  9
$DIMTXSTY
  7
STANDARD
  9
$DIMAUNIT
 70
     0
  9
$LUNITS
 70
     2
  9
$LUPREC
 70
     4
  9
$SKETCHINC
 40
1.0
  9
$FILLETRAD
 40
10.0
  9
$AUNITS
 70
     0
  9
$AUPREC
 70
     0
  9
$MENU
  1
.
  9
$ELEVATION
 40
0.0
  9
$PELEVATION
 40
0.0
  9
$THICKNESS
 40
0.0
  9
$LIMCHECK
 70
     0
  9
$CHAMFERA
 40
0.0
  9
$CHAMFERB
 40
0.0
  9
$CHAMFERC
 40
0.0
  9
$CHAMFERD
 40
0.0
  9
$SKPOLY
 70
     0
  9
$TDCREATE
 40
2459591.543208866
  9
$TDUPDATE
 40
2459591.543210347
  9
$TDINDWG
 40
0.0000000116
  9
$TDUSRTIMER
 40
0.0000000116
  9
$USRTIMER
 70
     1
  9
$ANGBASE
 50
0.0
  9
$ANGDIR
 70
     0
  9
$PDMODE
 70
     0
  9
$PDSIZE
 40
0.0
  9
$PLINEWID
 40
0.0
  9
$COORDS
 70
     1
  9
$SPLFRAME
 70
     0
  9
$SPLINETYPE
 70
     6
  9
$SPLINESEGS
 70
     8
  9
$ATTDIA
 70
     0
  9
$ATTREQ
 70
     1
  9
$HANDLING
 70
     1
  9
$HANDSEED
  5
5C4
  9
$SURFTAB1
 70
     6
  9
$SURFTAB2
 70
     6
  9
$SURFTYPE
 70
     6
  9
$SURFU
 70
     6
  9
$SURFV
 70
     6
  9
$UCSNAME
  2

  9
$UCSORG
 10
0.0
 20
0.0
 30
0.0
  9
$UCSXDIR
 10
1.0
 20
0.0
 30
0.0
  9
$UCSYDIR
 10
0.0
 20
1.0
 30
0.0
  9
$PUCSNAME
  2

  9
$PUCSORG
 10
0.0
 20
0.0
 30
0.0
  9
$PUCSXDIR
 10
1.0
 20
0.0
 30
0.0
  9
$PUCSYDIR
 10
0.0
 20
1.0
 30
0.0
  9
$USERI1
 70
     0
  9
$USERI2
 70
     0
  9
$USERI3
 70
     0
  9
$USERI4
 70
     0
  9
$USERI5
 70
     0
  9
$USERR1
 40
0.0
  9
$USERR2
 40
0.0
  9
$USERR3
 40
0.0
  9
$USERR4
 40
0.0
  9
$USERR5
 40
0.0
  9
$WORLDVIEW
 70
     1
  9
$SHADEDGE
 70
     3
  9
$SHADEDIF
 70
    70
  9
$TILEMODE
 70
     1
  9
$MAXACTVP
 70
    64
  9
$PINSBASE
 10
0.0
 20
0.0
 30
0.0
  9
$PLIMCHECK
 70
     0
  9
$PEXTMIN
 10
1.000000000000000E+20
 20
1.000000000000000E+20
 30
1.000000000000000E+20
  9
$PEXTMAX
 10
-1.000000000000000E+20
 20
-1.000000000000000E+20
 30
-1.000000000000000E+20
  9
$PLIMMIN
 10
0.0
 20
0.0
  9
$PLIMMAX
 10
420.0
 20
297.0
  9
$UNITMODE
 70
     0
  9
$VISRETAIN
 70
     1
  9
$PLINEGEN
 70
     0
  9
$PSLTSCALE
 70
     1
  9
$TREEDEPTH
 70
  3020
  9
$PICKSTYLE
 70
     1
  9
$CMLSTYLE
  2
STANDARD
  9
$CMLJUST
 70
     0
  9
$CMLSCALE
 40
20.0
  9
$PROXYGRAPHICS
 70
     1
  9
$MEASUREMENT
 70
     1
  0
ENDSEC
  0
SECTION
  2
CLASSES
  0
CLASS
  1
ACDBDICTIONARYWDFLT
  2
AcDbDictionaryWithDefault
  3
ObjectDBX Classes
 90
        0
280
     0
281
     0
  0
CLASS
  1
VISUALSTYLE
  2
AcDbVisualStyle
  3
ObjectDBX Classes
 90
     4095
280
     0
281
     0
  0
CLASS
  1
MATERIAL
  2
AcDbMaterial
  3
ObjectDBX Classes
 90
     1153
280
     0
281
     0
  0
CLASS
  1
SCALE
  2
AcDbScale
  3
ObjectDBX Classes
 90
     1153
280
     0
281
     0
  0
CLASS
  1
TABLESTYLE
  2
AcDbTableStyle
  3
ObjectDBX Classes
 90
     4095
280
     0
281
     0
  0
CLASS
  1
MLEADERSTYLE
  2
AcDbMLeaderStyle
  3
ACDB_MLEADERSTYLE_CLASS
 90
     4095
280
     0
281
     0
  0
CLASS
  1
SUN
  2
AcDbSun
  3
SCENEOE
 90
     1153
280
     0
281
     0
  0
CLASS
  1
DICTIONARYVAR
  2
AcDbDictionaryVar
  3
ObjectDBX Classes
 90
        0
280
     0
281
     0
  0
CLASS
  1
XRECORD
  2
AcDbXrecord
  3
ObjectDBX Classes
 90
        0
280
     0
281
     0
  0
CLASS
  1
LWPOLYLINE
  2
AcDbPolyline
  3
ObjectDBX Classes
 90
        0
280
     0
281
     1
  0
CLASS
  1
HATCH
  2
AcDbHatch
  3
ObjectDBX Classes
 90
        0
280
     0
281
     1
  0
CLASS
  1
ACDBPLACEHOLDER
  2
AcDbPlaceHolder
  3
ObjectDBX Classes
 90
        0
280
     0
281
     0
  0
CLASS
  1
LAYOUT
  2
AcDbLayout
  3
ObjectDBX Classes
 90
        0
280
     0
281
     0
  0
ENDSEC
  0
SECTION
  2
TABLES
  0
TABLE
  2
VPORT
  5
8
102
{ACAD_XDICTIONARY
360
5B9
102
}
330
0
100
AcDbSymbolTable
 70
     1
  0
VPORT
  5
29
330
8
100
AcDbSymbolTableRecord
100
AcDbViewportTableRecord
  2
*ACTIVE
 70
     0
 10
0.0
 20
0.0
 11
1.0
 21
1.0
 12
420.0
 22
297.0
 13
0.0
 23
0.0
 14
10.0
 24
10.0
 15
10.0
 25
10.0
 16
0.0
 26
0.0
 36
1.0
 17
0.0
 27
0.0
 37
0.0
 40
554.0
 41
1.444043321299639
 42
50.0
 43
0.0
 44
0.0
 50
0.0
 51
0.0
 71
     0
 72
  1000
 73
     1
 74
     3
 75
     0
 76
     0
 77
     0
 78
     0
  0
ENDTAB
  0
TABLE
  2
LTYPE
  5
5
330
0
100
AcDbSymbolTable
 70
     7
  0
LTYPE
  5
14
330
5
100
AcDbSymbolTableRecord
100
AcDbLinetypeTableRecord
  2
BYBLOCK
 70
     0
  3

 72
    65
 73
     0
 40
0.0
  0
LTYPE
  5
15
330
5
100
AcDbSymbolTableRecord
100
AcDbLinetypeTableRecord
  2
BYLAYER
 70
     0
  3

 72
    65
 73
     0
 40
0.0
  0
LTYPE
  5
16
330
5
100
AcDbSymbolTableRecord
100
AcDbLinetypeTableRecord
  2
CONTINUOUS
 70
     0
  3
Solid line
 72
    65
 73
     0
 40
0.0
  0
LTYPE
  5
6E
330
5
100
AcDbSymbolTableRecord
100
AcDbLinetypeTableRecord
  2
EXLTYPE0
 70
     0
  3
破線
 72
    65
 73
     2
 40
4.0
 49
3.0
 74
     0
 49
-1.0
 74
     0
  0
LTYPE
  5
6F
330
5
100
AcDbSymbolTableRecord
100
AcDbLinetypeTableRecord
  2
EXLTYPE1
 70
     0
  3
点線
 72
    65
 73
     2
 40
2.0
 49
1.0
 74
     0
 49
-1.0
 74
     0
  0
LTYPE
  5
70
330
5
100
AcDbSymbolTableRecord
100
AcDbLinetypeTableRecord
  2
EXLTYPE2
 70
     0
  3
一点鎖線
 72
    65
 73
     4
 40
13.0
 49
10.0
 74
     0
 49
-1.0
 74
     0
 49
1.0
 74
     0
 49
-1.0
 74
     0
  0
LTYPE
  5
71
330
5
100
AcDbSymbolTableRecord
100
AcDbLinetypeTableRecord
  2
EXLTYPE3
 70
     0
  3
二点鎖線
 72
    65
 73
     6
 40
15.0
 49
10.0
 74
     0
 49
-1.0
 74
     0
 49
1.0
 74
     0
 49
-1.0
 74
     0
 49
1.0
 74
     0
 49
-1.0
 74
     0
  0
LTYPE
  5
72
330
5
100
AcDbSymbolTableRecord
100
AcDbLinetypeTableRecord
  2
EXLTYPE4
 70
     0
  3
一点鎖線2
 72
    65
 73
     4
 40
3.5
 49
2.0
 74
     0
 49
-0.5
 74
     0
 49
0.5
 74
     0
 49
-0.5
 74
     0
  0
LTYPE
  5
73
330
5
100
AcDbSymbolTableRecord
100
AcDbLinetypeTableRecord
  2
EXLTYPE5
 70
     0
  3
二点鎖線2
 72
    65
 73
     6
 40
4.5
 49
2.0
 74
     0
 49
-0.5
 74
     0
 49
0.5
 74
     0
 49
-0.5
 74
     0
 49
0.5
 74
     0
 49
-0.5
 74
     0
  0
ENDTAB
  0
TABLE
  2
LAYER
  5
2
330
0
100
AcDbSymbolTable
 70
     4
  0
LAYER
  5
10
330
2
100
AcDbSymbolTableRecord
100
AcDbLayerTableRecord
  2
0
 70
     0
 62
     7
  6
CONTINUOUS
  0
LAYER
  5
76
330
2
100
AcDbSymbolTableRecord
100
AcDbLayerTableRecord
  2
図面枠
 70
     4
 62
     7
  6
CONTINUOUS
  0
LAYER
  5
77
330
2
100
AcDbSymbolTableRecord
100
AcDbLayerTableRecord
  2
Ｓ_１_１
 70
     0
 62
     7
  6
CONTINUOUS
  0
LAYER
  5
268
330
2
100
AcDbSymbolTableRecord
100
AcDbLayerTableRecord
  2
DEFPOINTS
 70
     0
 62
     7
  6
CONTINUOUS
  0
ENDTAB
  0
TABLE
  2
STYLE
  5
3
330
0
100
AcDbSymbolTable
 70
     5
  0
STYLE
  5
11
330
3
100
AcDbSymbolTableRecord
100
AcDbTextStyleTableRecord
  2
STANDARD
 70
     0
 40
0.0
 41
1.0
 50
0.0
 71
     0
 42
2.5
  3
monotxt
  4
extfont
  0
STYLE
  5
74
330
3
100
AcDbSymbolTableRecord
100
AcDbTextStyleTableRecord
  2
EXCADSTD
 70
     0
 40
0.0
 41
1.0
 50
0.0
 71
     0
 42
2.5
  3
monotxt
  4
extfont
  0
STYLE
  5
75
330
3
100
AcDbSymbolTableRecord
100
AcDbTextStyleTableRecord
  2
EXCADVERT
 70
     4
 40
0.0
 41
1.0
 50
0.0
 71
     0
 42
2.5
  3
monotxt
  4
extfont
  0
STYLE
  5
D8
330
3
100
AcDbSymbolTableRecord
100
AcDbTextStyleTableRecord
  2
EXCADTTF1
 70
     0
 40
0.0
 41
1.0
 50
0.0
 71
     0
 42
2.5
  3
msgothic.ttc
  4

1001
ACAD
1000
MS Gothic
1071
    32817
  0
STYLE
  5
266
330
3
100
AcDbSymbolTableRecord
100
AcDbTextStyleTableRecord
  2
EXCADDIM1
 70
     0
 40
0.0
 41
1.0
 50
0.0
 71
     0
 42
2.5
  3
msgothic.ttc
  4

1001
ACAD
1000
MS Gothic
1071
    32817
  0
ENDTAB
  0
TABLE
  2
VIEW
  5
6
330
0
100
AcDbSymbolTable
 70
     0
  0
ENDTAB
  0
TABLE
  2
UCS
  5
7
330
0
100
AcDbSymbolTable
 70
     0
  0
ENDTAB
  0
TABLE
  2
APPID
  5
9
330
0
100
AcDbSymbolTable
 70
     2
  0
APPID
  5
12
330
9
100
AcDbSymbolTableRecord
100
AcDbRegAppTableRecord
  2
ACAD
 70
     0
  0
APPID
  5
5C3
330
9
100
AcDbSymbolTableRecord
100
AcDbRegAppTableRecord
  2
ACAD_MLEADERVER
 70
     0
  0
ENDTAB
  0
TABLE
  2
DIMSTYLE
  5
A
330
0
100
AcDbSymbolTable
 70
     1
  0
DIMSTYLE
105
27
102
{ACAD_REACTORS
330
267
330
275
330
282
330
28F
330
29E
330
2AB
330
2B8
330
2C5
330
2D2
330
2DF
330
2EC
330
2FA
102
}
330
A
100
AcDbSymbolTableRecord
100
AcDbDimStyleTableRecord
  2
ISO-25
 70
     0
  3

  4

  5

  6

  7

 40
1.0
 41
2.5
 42
0.625
 43
3.75
 44
1.25
 45
0.0
 46
0.0
 47
0.0
 48
0.0
140
2.5
141
2.5
142
0.0
143
0.03937007874016
144
1.0
145
0.0
146
1.0
147
0.625
 71
     0
 72
     0
 73
     0
 74
     0
 75
     0
 76
     0
 77
     1
 78
     8
170
     0
171
     3
172
     1
173
     0
174
     0
175
     0
176
     0
177
     0
178
     0
270
     2
271
     2
272
     2
273
     2
274
     3
340
11
275
     0
280
     0
281
     0
282
     0
283
     0
284
     8
285
     0
286
     0
287
     5
288
     0
  0
ENDTAB
  0
TABLE
  2
BLOCK_RECORD
  5
1
330
0
100
AcDbSymbolTable
 70
    26
  0
BLOCK_RECORD
  5
1F
330
1
100
AcDbSymbolTableRecord
100
AcDbBlockTableRecord
  2
*MODEL_SPACE
  0
BLOCK_RECORD
  5
1B
330
1
100
AcDbSymbolTableRecord
100
AcDbBlockTableRecord
  2
*PAPER_SPACE
  0
BLOCK_RECORD
  5
78
330
1
100
AcDbSymbolTableRecord
100
AcDbBlockTableRecord
  2
EX_NORM
  0
BLOCK_RECORD
  5
7B
330
1
100
AcDbSymbolTableRecord
100
AcDbBlockTableRecord
  2
EX_BNORM
  0
BLOCK_RECORD
  5
7E
330
1
100
AcDbSymbolTableRecord
100
AcDbBlockTableRecord
  2
EX_BCIR
  0
BLOCK_RECORD
  5
81
330
1
100
AcDbSymbolTableRecord
100
AcDbBlockTableRecord
  2
EX_RCIVIL
  0
BLOCK_RECORD
  5
84
330
1
100
AcDbSymbolTableRecord
100
AcDbBlockTableRecord
  2
EX_SLANT
  0
BLOCK_RECORD
  5
87
330
1
100
AcDbSymbolTableRecord
100
AcDbBlockTableRecord
  2
EX_NONE
  0
BLOCK_RECORD
  5
8A
330
1
100
AcDbSymbolTableRecord
100
AcDbBlockTableRecord
  2
EX_CIVIL
  0
BLOCK_RECORD
  5
8D
330
1
100
AcDbSymbolTableRecord
100
AcDbBlockTableRecord
  2
EX_WCIR
  0
BLOCK_RECORD
  5
90
330
1
100
AcDbSymbolTableRecord
100
AcDbBlockTableRecord
  2
EX_WCIR2
  0
BLOCK_RECORD
  5
93
330
1
100
AcDbSymbolTableRecord
100
AcDbBlockTableRecord
  2
EX_WNORM
  0
BLOCK_RECORD
  5
96
330
1
100
AcDbSymbolTableRecord
100
AcDbBlockTableRecord
  2
EX_NNORM
  0
BLOCK_RECORD
  5
99
330
1
100
AcDbSymbolTableRecord
100
AcDbBlockTableRecord
  2
EX_BBOX
  0
BLOCK_RECORD
  5
9C
330
1
100
AcDbSymbolTableRecord
100
AcDbBlockTableRecord
  2
EX_WBOX
  0
BLOCK_RECORD
  5
9F
330
1
100
AcDbSymbolTableRecord
100
AcDbBlockTableRecord
  2
EX_INTEGRAL
  0
BLOCK_RECORD
  5
269
330
1
100
AcDbSymbolTableRecord
100
AcDbBlockTableRecord
  2
*D15
  0
BLOCK_RECORD
  5
276
330
1
100
AcDbSymbolTableRecord
100
AcDbBlockTableRecord
  2
*D16
  0
BLOCK_RECORD
  5
283
330
1
100
AcDbSymbolTableRecord
100
AcDbBlockTableRecord
  2
*D17
  0
BLOCK_RECORD
  5
290
330
1
100
AcDbSymbolTableRecord
100
AcDbBlockTableRecord
  2
*D18
  0
BLOCK_RECORD
  5
29F
330
1
100
AcDbSymbolTableRecord
100
AcDbBlockTableRecord
  2
*D19
  0
BLOCK_RECORD
  5
2AC
330
1
100
AcDbSymbolTableRecord
100
AcDbBlockTableRecord
  2
*D20
  0
BLOCK_RECORD
  5
2B9
330
1
100
AcDbSymbolTableRecord
100
AcDbBlockTableRecord
  2
*D21
  0
BLOCK_RECORD
  5
2C6
330
1
100
AcDbSymbolTableRecord
100
AcDbBlockTableRecord
  2
*D22
  0
BLOCK_RECORD
  5
2D3
330
1
100
AcDbSymbolTableRecord
100
AcDbBlockTableRecord
  2
*D23
  0
BLOCK_RECORD
  5
2E0
330
1
100
AcDbSymbolTableRecord
100
AcDbBlockTableRecord
  2
*D24
  0
BLOCK_RECORD
  5
2ED
330
1
100
AcDbSymbolTableRecord
100
AcDbBlockTableRecord
  2
*D25
  0
BLOCK_RECORD
  5
2FB
330
1
100
AcDbSymbolTableRecord
100
AcDbBlockTableRecord
  2
*D26
  0
ENDTAB
  0
ENDSEC
  0
SECTION
  2
BLOCKS
  0
BLOCK
  5
20
330
1F
100
AcDbEntity
  8
0
100
AcDbBlockBegin
  2
*MODEL_SPACE
 70
     0
 10
0.0
 20
0.0
 30
0.0
  3
*MODEL_SPACE
  1

  0
ENDBLK
  5
21
330
1F
100
AcDbEntity
  8
0
100
AcDbBlockEnd
  0
BLOCK
  5
1C
330
1B
100
AcDbEntity
 67
     1
  8
0
100
AcDbBlockBegin
  2
*PAPER_SPACE
 70
     0
 10
0.0
 20
0.0
 30
0.0
  3
*PAPER_SPACE
  1

  0
ENDBLK
  5
1D
330
1B
100
AcDbEntity
 67
     1
  8
0
100
AcDbBlockEnd
  0
BLOCK
  5
79
330
78
100
AcDbEntity
  8
0
100
AcDbBlockBegin
  2
EX_NORM
 70
     0
 10
0.0
 20
0.0
 30
0.0
  3
EX_NORM
  1

  0
LINE
  5
A2
330
78
100
AcDbEntity
  8
0
  6
CONTINUOUS
 62
     0
100
AcDbLine
 10
0.0
 20
0.0
 30
0.0
 11
-1.0
 21
0.0
 31
0.0
  0
LINE
  5
A3
330
78
100
AcDbEntity
  8
0
  6
CONTINUOUS
 62
     0
100
AcDbLine
 10
0.0
 20
0.0
 30
0.0
 11
-1.0
 21
0.166666667
 31
0.0
  0
LINE
  5
A4
330
78
100
AcDbEntity
  8
0
  6
CONTINUOUS
 62
     0
100
AcDbLine
 10
0.0
 20
0.0
 30
0.0
 11
-1.0
 21
-0.166666667
 31
0.0
  0
ENDBLK
  5
7A
330
78
100
AcDbEntity
  8
0
100
AcDbBlockEnd
  0
BLOCK
  5
7C
330
7B
100
AcDbEntity
  8
0
100
AcDbBlockBegin
  2
EX_BNORM
 70
     0
 10
0.0
 20
0.0
 30
0.0
  3
EX_BNORM
  1

  0
LINE
  5
A5
330
7B
100
AcDbEntity
  8
0
  6
CONTINUOUS
 62
     0
100
AcDbLine
 10
0.0
 20
0.0
 30
0.0
 11
-1.0
 21
0.0
 31
0.0
  0
LINE
  5
A6
330
7B
100
AcDbEntity
  8
0
  6
CONTINUOUS
 62
     0
100
AcDbLine
 10
0.0
 20
0.0
 30
0.0
 11
-1.0
 21
0.166666667
 31
0.0
  0
LINE
  5
A7
330
7B
100
AcDbEntity
  8
0
  6
CONTINUOUS
 62
     0
100
AcDbLine
 10
0.0
 20
0.0
 30
0.0
 11
-1.0
 21
-0.166666667
 31
0.0
  0
LINE
  5
A8
330
7B
100
AcDbEntity
  8
0
  6
CONTINUOUS
 62
     0
100
AcDbLine
 10
0.0
 20
0.0
 30
0.0
 11
-1.0
 21
0.083333333
 31
0.0
  0
LINE
  5
A9
330
7B
100
AcDbEntity
  8
0
  6
CONTINUOUS
 62
     0
100
AcDbLine
 10
0.0
 20
0.0
 30
0.0
 11
-1.0
 21
-0.083333333
 31
0.0
  0
LINE
  5
AA
330
7B
100
AcDbEntity
  8
0
  6
CONTINUOUS
 62
     0
100
AcDbLine
 10
-1.0
 20
0.166666667
 30
0.0
 11
-1.0
 21
-0.166666667
 31
0.0
  0
ENDBLK
  5
7D
330
7B
100
AcDbEntity
  8
0
100
AcDbBlockEnd
  0
BLOCK
  5
7F
330
7E
100
AcDbEntity
  8
0
100
AcDbBlockBegin
  2
EX_BCIR
 70
     0
 10
0.0
 20
0.0
 30
0.0
  3
EX_BCIR
  1

  0
LINE
  5
AB
330
7E
100
AcDbEntity
  8
0
  6
CONTINUOUS
 62
     0
100
AcDbLine
 10
0.0
 20
0.0
 30
0.0
 11
-1.0
 21
0.0
 31
0.0
  0
CIRCLE
  5
AC
330
7E
100
AcDbEntity
  8
0
  6
CONTINUOUS
 62
     0
100
AcDbCircle
 10
0.0
 20
0.0
 30
0.0
 40
0.5
  0
CIRCLE
  5
AD
330
7E
100
AcDbEntity
  8
0
  6
CONTINUOUS
 62
     0
100
AcDbCircle
 10
0.0
 20
0.0
 30
0.0
 40
0.25
  0
ENDBLK
  5
80
330
7E
100
AcDbEntity
  8
0
100
AcDbBlockEnd
  0
BLOCK
  5
82
330
81
100
AcDbEntity
  8
0
100
AcDbBlockBegin
  2
EX_RCIVIL
 70
     0
 10
0.0
 20
0.0
 30
0.0
  3
EX_RCIVIL
  1

  0
LINE
  5
AE
330
81
100
AcDbEntity
  8
0
  6
CONTINUOUS
 62
     0
100
AcDbLine
 10
0.0
 20
0.0
 30
0.0
 11
-1.0
 21
0.0
 31
0.0
  0
LINE
  5
AF
330
81
100
AcDbEntity
  8
0
  6
CONTINUOUS
 62
     0
100
AcDbLine
 10
-1.0
 20
-0.25
 30
0.0
 11
0.0
 21
-0.25
 31
0.0
  0
LINE
  5
B0
330
81
100
AcDbEntity
  8
0
  6
CONTINUOUS
 62
     0
100
AcDbLine
 10
-1.0
 20
-0.125
 30
0.0
 11
0.0
 21
-0.125
 31
0.0
  0
ENDBLK
  5
83
330
81
100
AcDbEntity
  8
0
100
AcDbBlockEnd
  0
BLOCK
  5
85
330
84
100
AcDbEntity
  8
0
100
AcDbBlockBegin
  2
EX_SLANT
 70
     0
 10
0.0
 20
0.0
 30
0.0
  3
EX_SLANT
  1

  0
LINE
  5
B1
330
84
100
AcDbEntity
  8
0
  6
CONTINUOUS
 62
     0
100
AcDbLine
 10
0.0
 20
0.0
 30
0.0
 11
-1.0
 21
0.0
 31
0.0
  0
LINE
  5
B2
330
84
100
AcDbEntity
  8
0
  6
CONTINUOUS
 62
     0
100
AcDbLine
 10
0.707106781
 20
0.707106781
 30
0.0
 11
-0.707106781
 21
-0.707106781
 31
0.0
  0
ENDBLK
  5
86
330
84
100
AcDbEntity
  8
0
100
AcDbBlockEnd
  0
BLOCK
  5
88
330
87
100
AcDbEntity
  8
0
100
AcDbBlockBegin
  2
EX_NONE
 70
     0
 10
0.0
 20
0.0
 30
0.0
  3
EX_NONE
  1

  0
LINE
  5
B3
330
87
100
AcDbEntity
  8
0
  6
CONTINUOUS
 62
     0
100
AcDbLine
 10
0.0
 20
0.0
 30
0.0
 11
-1.0
 21
0.0
 31
0.0
  0
ENDBLK
  5
89
330
87
100
AcDbEntity
  8
0
100
AcDbBlockEnd
  0
BLOCK
  5
8B
330
8A
100
AcDbEntity
  8
0
100
AcDbBlockBegin
  2
EX_CIVIL
 70
     0
 10
0.0
 20
0.0
 30
0.0
  3
EX_CIVIL
  1

  0
LINE
  5
B4
330
8A
100
AcDbEntity
  8
0
  6
CONTINUOUS
 62
     0
100
AcDbLine
 10
0.0
 20
0.0
 30
0.0
 11
-1.0
 21
0.0
 31
0.0
  0
LINE
  5
B5
330
8A
100
AcDbEntity
  8
0
  6
CONTINUOUS
 62
     0
100
AcDbLine
 10
-1.0
 20
0.25
 30
0.0
 11
0.0
 21
0.25
 31
0.0
  0
LINE
  5
B6
330
8A
100
AcDbEntity
  8
0
  6
CONTINUOUS
 62
     0
100
AcDbLine
 10
-1.0
 20
0.125
 30
0.0
 11
0.0
 21
0.125
 31
0.0
  0
ENDBLK
  5
8C
330
8A
100
AcDbEntity
  8
0
100
AcDbBlockEnd
  0
BLOCK
  5
8E
330
8D
100
AcDbEntity
  8
0
100
AcDbBlockBegin
  2
EX_WCIR
 70
     0
 10
0.0
 20
0.0
 30
0.0
  3
EX_WCIR
  1

  0
LINE
  5
B7
330
8D
100
AcDbEntity
  8
0
  6
CONTINUOUS
 62
     0
100
AcDbLine
 10
0.0
 20
0.0
 30
0.0
 11
-1.0
 21
0.0
 31
0.0
  0
CIRCLE
  5
B8
330
8D
100
AcDbEntity
  8
0
  6
CONTINUOUS
 62
     0
100
AcDbCircle
 10
0.0
 20
0.0
 30
0.0
 40
0.5
  0
ENDBLK
  5
8F
330
8D
100
AcDbEntity
  8
0
100
AcDbBlockEnd
  0
BLOCK
  5
91
330
90
100
AcDbEntity
  8
0
100
AcDbBlockBegin
  2
EX_WCIR2
 70
     0
 10
0.0
 20
0.0
 30
0.0
  3
EX_WCIR2
  1

  0
LINE
  5
B9
330
90
100
AcDbEntity
  8
0
  6
CONTINUOUS
 62
     0
100
AcDbLine
 10
-0.5
 20
0.0
 30
0.0
 11
-1.0
 21
0.0
 31
0.0
  0
CIRCLE
  5
BA
330
90
100
AcDbEntity
  8
0
  6
CONTINUOUS
 62
     0
100
AcDbCircle
 10
0.0
 20
0.0
 30
0.0
 40
0.5
  0
ENDBLK
  5
92
330
90
100
AcDbEntity
  8
0
100
AcDbBlockEnd
  0
BLOCK
  5
94
330
93
100
AcDbEntity
  8
0
100
AcDbBlockBegin
  2
EX_WNORM
 70
     0
 10
0.0
 20
0.0
 30
0.0
  3
EX_WNORM
  1

  0
LINE
  5
BB
330
93
100
AcDbEntity
  8
0
  6
CONTINUOUS
 62
     0
100
AcDbLine
 10
-1.0
 20
0.0
 30
0.0
 11
-1.0
 21
0.0
 31
0.0
  0
LINE
  5
BC
330
93
100
AcDbEntity
  8
0
  6
CONTINUOUS
 62
     0
100
AcDbLine
 10
0.0
 20
0.0
 30
0.0
 11
-1.0
 21
0.166666667
 31
0.0
  0
LINE
  5
BD
330
93
100
AcDbEntity
  8
0
  6
CONTINUOUS
 62
     0
100
AcDbLine
 10
0.0
 20
0.0
 30
0.0
 11
-1.0
 21
-0.166666667
 31
0.0
  0
LINE
  5
BE
330
93
100
AcDbEntity
  8
0
  6
CONTINUOUS
 62
     0
100
AcDbLine
 10
-1.0
 20
0.166666667
 30
0.0
 11
-1.0
 21
-0.166666667
 31
0.0
  0
ENDBLK
  5
95
330
93
100
AcDbEntity
  8
0
100
AcDbBlockEnd
  0
BLOCK
  5
97
330
96
100
AcDbEntity
  8
0
100
AcDbBlockBegin
  2
EX_NNORM
 70
     0
 10
0.0
 20
0.0
 30
0.0
  3
EX_NNORM
  1

  0
LINE
  5
BF
330
96
100
AcDbEntity
  8
0
  6
CONTINUOUS
 62
     0
100
AcDbLine
 10
0.0
 20
0.0
 30
0.0
 11
-1.0
 21
0.0
 31
0.0
  0
LINE
  5
C0
330
96
100
AcDbEntity
  8
0
  6
CONTINUOUS
 62
     0
100
AcDbLine
 10
0.0
 20
0.0
 30
0.0
 11
-1.0
 21
0.166666667
 31
0.0
  0
LINE
  5
C1
330
96
100
AcDbEntity
  8
0
  6
CONTINUOUS
 62
     0
100
AcDbLine
 10
0.0
 20
0.0
 30
0.0
 11
-1.0
 21
-0.166666667
 31
0.0
  0
LINE
  5
C2
330
96
100
AcDbEntity
  8
0
  6
CONTINUOUS
 62
     0
100
AcDbLine
 10
-1.0
 20
0.166666667
 30
0.0
 11
-1.0
 21
-0.166666667
 31
0.0
  0
ENDBLK
  5
98
330
96
100
AcDbEntity
  8
0
100
AcDbBlockEnd
  0
BLOCK
  5
9A
330
99
100
AcDbEntity
  8
0
100
AcDbBlockBegin
  2
EX_BBOX
 70
     0
 10
0.0
 20
0.0
 30
0.0
  3
EX_BBOX
  1

  0
LINE
  5
C3
330
99
100
AcDbEntity
  8
0
  6
CONTINUOUS
 62
     0
100
AcDbLine
 10
0.0
 20
0.0
 30
0.0
 11
-1.0
 21
0.0
 31
0.0
  0
LINE
  5
C4
330
99
100
AcDbEntity
  8
0
  6
CONTINUOUS
 62
     0
100
AcDbLine
 10
-0.5
 20
0.5
 30
0.0
 11
0.5
 21
0.5
 31
0.0
  0
LINE
  5
C5
330
99
100
AcDbEntity
  8
0
  6
CONTINUOUS
 62
     0
100
AcDbLine
 10
0.5
 20
0.5
 30
0.0
 11
0.5
 21
-0.5
 31
0.0
  0
LINE
  5
C6
330
99
100
AcDbEntity
  8
0
  6
CONTINUOUS
 62
     0
100
AcDbLine
 10
0.5
 20
-0.5
 30
0.0
 11
-0.5
 21
-0.5
 31
0.0
  0
LINE
  5
C7
330
99
100
AcDbEntity
  8
0
  6
CONTINUOUS
 62
     0
100
AcDbLine
 10
-0.5
 20
-0.5
 30
0.0
 11
-0.5
 21
0.5
 31
0.0
  0
LINE
  5
C8
330
99
100
AcDbEntity
  8
0
  6
CONTINUOUS
 62
     0
100
AcDbLine
 10
-0.25
 20
0.25
 30
0.0
 11
0.25
 21
0.25
 31
0.0
  0
LINE
  5
C9
330
99
100
AcDbEntity
  8
0
  6
CONTINUOUS
 62
     0
100
AcDbLine
 10
0.25
 20
0.25
 30
0.0
 11
0.25
 21
-0.25
 31
0.0
  0
LINE
  5
CA
330
99
100
AcDbEntity
  8
0
  6
CONTINUOUS
 62
     0
100
AcDbLine
 10
0.25
 20
-0.25
 30
0.0
 11
-0.25
 21
-0.25
 31
0.0
  0
LINE
  5
CB
330
99
100
AcDbEntity
  8
0
  6
CONTINUOUS
 62
     0
100
AcDbLine
 10
-0.25
 20
-0.25
 30
0.0
 11
-0.25
 21
0.25
 31
0.0
  0
ENDBLK
  5
9B
330
99
100
AcDbEntity
  8
0
100
AcDbBlockEnd
  0
BLOCK
  5
9D
330
9C
100
AcDbEntity
  8
0
100
AcDbBlockBegin
  2
EX_WBOX
 70
     0
 10
0.0
 20
0.0
 30
0.0
  3
EX_WBOX
  1

  0
LINE
  5
CC
330
9C
100
AcDbEntity
  8
0
  6
CONTINUOUS
 62
     0
100
AcDbLine
 10
-0.5
 20
0.0
 30
0.0
 11
-1.0
 21
0.0
 31
0.0
  0
LINE
  5
CD
330
9C
100
AcDbEntity
  8
0
  6
CONTINUOUS
 62
     0
100
AcDbLine
 10
-0.5
 20
0.5
 30
0.0
 11
0.5
 21
0.5
 31
0.0
  0
LINE
  5
CE
330
9C
100
AcDbEntity
  8
0
  6
CONTINUOUS
 62
     0
100
AcDbLine
 10
0.5
 20
0.5
 30
0.0
 11
0.5
 21
-0.5
 31
0.0
  0
LINE
  5
CF
330
9C
100
AcDbEntity
  8
0
  6
CONTINUOUS
 62
     0
100
AcDbLine
 10
0.5
 20
-0.5
 30
0.0
 11
-0.5
 21
-0.5
 31
0.0
  0
LINE
  5
D0
330
9C
100
AcDbEntity
  8
0
  6
CONTINUOUS
 62
     0
100
AcDbLine
 10
-0.5
 20
-0.5
 30
0.0
 11
-0.5
 21
0.5
 31
0.0
  0
ENDBLK
  5
9E
330
9C
100
AcDbEntity
  8
0
100
AcDbBlockEnd
  0
BLOCK
  5
A0
330
9F
100
AcDbEntity
  8
0
100
AcDbBlockBegin
  2
EX_INTEGRAL
 70
     0
 10
0.0
 20
0.0
 30
0.0
  3
EX_INTEGRAL
  1

  0
LINE
  5
D1
330
9F
100
AcDbEntity
  8
0
  6
CONTINUOUS
 62
     0
100
AcDbLine
 10
0.0
 20
0.0
 30
0.0
 11
-1.0
 21
0.0
 31
0.0
  0
ARC
  5
D2
330
9F
100
AcDbEntity
  8
0
  6
CONTINUOUS
 62
     0
100
AcDbCircle
 10
0.542115
 20
0.164992
 30
0.0
 40
0.56667
100
AcDbArc
 50
73.07249033629006
 51
196.9275130221199
  0
ARC
  5
D3
330
9F
100
AcDbEntity
  8
0
  6
CONTINUOUS
 62
     0
100
AcDbCircle
 10
-0.542115
 20
-0.164992
 30
0.0
 40
0.56667
100
AcDbArc
 50
253.0724869220464
 51
16.9275130559125
  0
ENDBLK
  5
A1
330
9F
100
AcDbEntity
  8
0
100
AcDbBlockEnd
  0
BLOCK
  5
26A
330
269
100
AcDbEntity
  8
0
100
AcDbBlockBegin
  2
*D15
 70
     1
 10
0.0
 20
0.0
 30
0.0
  3
*D15
  1

  0
LINE
  5
26C
330
269
100
AcDbEntity
  8
Ｓ_１_１
  6
CONTINUOUS
 62
     2
100
AcDbLine
 10
636.0
 20
320.0000000776
 30
0.0
 11
636.0
 21
446.0
 31
0.0
  0
LINE
  5
26D
330
269
100
AcDbEntity
  8
Ｓ_１_１
  6
CONTINUOUS
 62
     2
100
AcDbLine
 10
576.0
 20
426.8
 30
0.0
 11
576.0
 21
446.0
 31
0.0
  0
LINE
  5
26E
330
269
100
AcDbEntity
  8
Ｓ_１_１
  6
CONTINUOUS
 62
     2
100
AcDbLine
 10
630.0
 20
444.0
 30
0.0
 11
582.0
 21
444.0
 31
0.0
  0
INSERT
  5
26F
330
269
100
AcDbEntity
  8
Ｓ_１_１
 62
     2
100
AcDbBlockReference
  2
EX_NORM
 10
636.0
 20
444.0
 30
0.0
 41
6.0
 42
6.0
 43
6.0
  0
INSERT
  5
270
330
269
100
AcDbEntity
  8
Ｓ_１_１
 62
     2
100
AcDbBlockReference
  2
EX_NORM
 10
576.0
 20
444.0
 30
0.0
 41
6.0
 42
6.0
 43
6.0
 50
180.0
  0
MTEXT
  5
271
330
269
100
AcDbEntity
  8
Ｓ_１_１
 62
     2
100
AcDbMText
 10
606.0
 20
449.5
 30
0.0
 40
6.92580831408776
 41
0.0
 71
     5
 72
     1
  1
60
  7
EXCADDIM1
  0
POINT
  5
272
330
269
100
AcDbEntity
  8
DEFPOINTS
 62
     0
100
AcDbPoint
 10
636.0
 20
317.0000000776
 30
0.0
  0
POINT
  5
273
330
269
100
AcDbEntity
  8
DEFPOINTS
 62
     0
100
AcDbPoint
 10
576.0
 20
423.8
 30
0.0
  0
POINT
  5
274
330
269
100
AcDbEntity
  8
DEFPOINTS
 62
     0
100
AcDbPoint
 10
576.0
 20
444.0
 30
0.0
  0
ENDBLK
  5
26B
330
269
100
AcDbEntity
  8
0
100
AcDbBlockEnd
  0
BLOCK
  5
277
330
276
100
AcDbEntity
  8
0
100
AcDbBlockBegin
  2
*D16
 70
     1
 10
0.0
 20
0.0
 30
0.0
  3
*D16
  1

  0
LINE
  5
279
330
276
100
AcDbEntity
  8
Ｓ_１_１
  6
CONTINUOUS
 62
     2
100
AcDbLine
 10
576.0
 20
426.8
 30
0.0
 11
576.0
 21
446.0
 31
0.0
  0
LINE
  5
27A
330
276
100
AcDbEntity
  8
Ｓ_１_１
  6
CONTINUOUS
 62
     2
100
AcDbLine
 10
499.0
 20
412.4
 30
0.0
 11
499.0
 21
446.0
 31
0.0
  0
LINE
  5
27B
330
276
100
AcDbEntity
  8
Ｓ_１_１
  6
CONTINUOUS
 62
     2
100
AcDbLine
 10
570.0
 20
444.0
 30
0.0
 11
505.0
 21
444.0
 31
0.0
  0
INSERT
  5
27C
330
276
100
AcDbEntity
  8
Ｓ_１_１
 62
     2
100
AcDbBlockReference
  2
EX_NORM
 10
576.0
 20
444.0
 30
0.0
 41
6.0
 42
6.0
 43
6.0
  0
INSERT
  5
27D
330
276
100
AcDbEntity
  8
Ｓ_１_１
 62
     2
100
AcDbBlockReference
  2
EX_NORM
 10
499.0
 20
444.0
 30
0.0
 41
6.0
 42
6.0
 43
6.0
 50
180.0
  0
MTEXT
  5
27E
330
276
100
AcDbEntity
  8
Ｓ_１_１
 62
     2
100
AcDbMText
 10
537.5
 20
449.5
 30
0.0
 40
6.92580831408776
 41
0.0
 71
     5
 72
     1
  1
77
  7
EXCADDIM1
  0
POINT
  5
27F
330
276
100
AcDbEntity
  8
DEFPOINTS
 62
     0
100
AcDbPoint
 10
576.0
 20
423.8
 30
0.0
  0
POINT
  5
280
330
276
100
AcDbEntity
  8
DEFPOINTS
 62
     0
100
AcDbPoint
 10
499.0
 20
409.4
 30
0.0
  0
POINT
  5
281
330
276
100
AcDbEntity
  8
DEFPOINTS
 62
     0
100
AcDbPoint
 10
499.0
 20
444.0
 30
0.0
  0
ENDBLK
  5
278
330
276
100
AcDbEntity
  8
0
100
AcDbBlockEnd
  0
BLOCK
  5
284
330
283
100
AcDbEntity
  8
0
100
AcDbBlockBegin
  2
*D17
 70
     1
 10
0.0
 20
0.0
 30
0.0
  3
*D17
  1

  0
LINE
  5
286
330
283
100
AcDbEntity
  8
Ｓ_１_１
  6
CONTINUOUS
 62
     2
100
AcDbLine
 10
499.0
 20
412.4
 30
0.0
 11
499.0
 21
446.0
 31
0.0
  0
LINE
  5
287
330
283
100
AcDbEntity
  8
Ｓ_１_１
  6
CONTINUOUS
 62
     2
100
AcDbLine
 10
446.0
 20
319.99999746198
 30
0.0
 11
446.0
 21
446.0
 31
0.0
  0
LINE
  5
288
330
283
100
AcDbEntity
  8
Ｓ_１_１
  6
CONTINUOUS
 62
     2
100
AcDbLine
 10
493.0
 20
444.0
 30
0.0
 11
452.0
 21
444.0
 31
0.0
  0
INSERT
  5
289
330
283
100
AcDbEntity
  8
Ｓ_１_１
 62
     2
100
AcDbBlockReference
  2
EX_NORM
 10
499.0
 20
444.0
 30
0.0
 41
6.0
 42
6.0
 43
6.0
  0
INSERT
  5
28A
330
283
100
AcDbEntity
  8
Ｓ_１_１
 62
     2
100
AcDbBlockReference
  2
EX_NORM
 10
446.0
 20
444.0
 30
0.0
 41
6.0
 42
6.0
 43
6.0
 50
180.0
  0
MTEXT
  5
28B
330
283
100
AcDbEntity
  8
Ｓ_１_１
 62
     2
100
AcDbMText
 10
472.5
 20
449.5
 30
0.0
 40
6.92580831408776
 41
0.0
 71
     5
 72
     1
  1
53
  7
EXCADDIM1
  0
POINT
  5
28C
330
283
100
AcDbEntity
  8
DEFPOINTS
 62
     0
100
AcDbPoint
 10
499.0
 20
409.4
 30
0.0
  0
POINT
  5
28D
330
283
100
AcDbEntity
  8
DEFPOINTS
 62
     0
100
AcDbPoint
 10
446.0
 20
316.99999746198
 30
0.0
  0
POINT
  5
28E
330
283
100
AcDbEntity
  8
DEFPOINTS
 62
     0
100
AcDbPoint
 10
446.0
 20
444.0
 30
0.0
  0
ENDBLK
  5
285
330
283
100
AcDbEntity
  8
0
100
AcDbBlockEnd
  0
BLOCK
  5
291
330
290
100
AcDbEntity
  8
0
100
AcDbBlockBegin
  2
*D18
 70
     1
 10
0.0
 20
0.0
 30
0.0
  3
*D18
  1

  0
LINE
  5
293
330
290
100
AcDbEntity
  8
Ｓ_１_１
  6
CONTINUOUS
 62
     2
100
AcDbLine
 10
436.0
 20
171.0
 30
0.0
 11
436.0
 21
106.0
 31
0.0
  0
LINE
  5
294
330
290
100
AcDbEntity
  8
Ｓ_１_１
  6
CONTINUOUS
 62
     2
100
AcDbLine
 10
446.0
 20
136.00000253802
 30
0.0
 11
446.0
 21
106.0
 31
0.0
  0
LINE
  5
295
330
290
100
AcDbEntity
  8
Ｓ_１_１
  6
CONTINUOUS
 62
     2
100
AcDbLine
 10
436.0
 20
108.0
 30
0.0
 11
446.0
 21
108.0
 31
0.0
  0
LINE
  5
296
330
290
100
AcDbEntity
  8
Ｓ_１_１
  6
CONTINUOUS
 62
     2
100
AcDbLine
 10
430.0
 20
108.0
 30
0.0
 11
424.0
 21
108.0
 31
0.0
  0
LINE
  5
297
330
290
100
AcDbEntity
  8
Ｓ_１_１
  6
CONTINUOUS
 62
     2
100
AcDbLine
 10
452.0
 20
108.0
 30
0.0
 11
458.0
 21
108.0
 31
0.0
  0
INSERT
  5
298
330
290
100
AcDbEntity
  8
Ｓ_１_１
 62
     2
100
AcDbBlockReference
  2
EX_NORM
 10
436.0
 20
108.0
 30
0.0
 41
6.0
 42
6.0
 43
6.0
  0
INSERT
  5
299
330
290
100
AcDbEntity
  8
Ｓ_１_１
 62
     2
100
AcDbBlockReference
  2
EX_NORM
 10
446.0
 20
108.0
 30
0.0
 41
6.0
 42
6.0
 43
6.0
 50
180.0
  0
MTEXT
  5
29A
330
290
100
AcDbEntity
  8
Ｓ_１_１
 62
     2
100
AcDbMText
 10
425.5
 20
113.5
 30
0.0
 40
6.92580831408776
 41
0.0
 71
     5
 72
     1
  1
10
  7
EXCADDIM1
  0
POINT
  5
29B
330
290
100
AcDbEntity
  8
DEFPOINTS
 62
     0
100
AcDbPoint
 10
436.0
 20
174.0
 30
0.0
  0
POINT
  5
29C
330
290
100
AcDbEntity
  8
DEFPOINTS
 62
     0
100
AcDbPoint
 10
446.0
 20
139.00000253802
 30
0.0
  0
POINT
  5
29D
330
290
100
AcDbEntity
  8
DEFPOINTS
 62
     0
100
AcDbPoint
 10
446.0
 20
108.0
 30
0.0
  0
ENDBLK
  5
292
330
290
100
AcDbEntity
  8
0
100
AcDbBlockEnd
  0
BLOCK
  5
2A0
330
29F
100
AcDbEntity
  8
0
100
AcDbBlockBegin
  2
*D19
 70
     1
 10
0.0
 20
0.0
 30
0.0
  3
*D19
  1

  0
LINE
  5
2A2
330
29F
100
AcDbEntity
  8
Ｓ_１_１
  6
CONTINUOUS
 62
     2
100
AcDbLine
 10
446.0
 20
136.00000253802
 30
0.0
 11
446.0
 21
106.0
 31
0.0
  0
LINE
  5
2A3
330
29F
100
AcDbEntity
  8
Ｓ_１_１
  6
CONTINUOUS
 62
     2
100
AcDbLine
 10
636.0
 20
135.99999992239
 30
0.0
 11
636.0
 21
106.0
 31
0.0
  0
LINE
  5
2A4
330
29F
100
AcDbEntity
  8
Ｓ_１_１
  6
CONTINUOUS
 62
     2
100
AcDbLine
 10
452.0
 20
108.0
 30
0.0
 11
630.0
 21
108.0
 31
0.0
  0
INSERT
  5
2A5
330
29F
100
AcDbEntity
  8
Ｓ_１_１
 62
     2
100
AcDbBlockReference
  2
EX_NORM
 10
446.0
 20
108.0
 30
0.0
 41
6.0
 42
6.0
 43
6.0
 50
180.0
  0
INSERT
  5
2A6
330
29F
100
AcDbEntity
  8
Ｓ_１_１
 62
     2
100
AcDbBlockReference
  2
EX_NORM
 10
636.0
 20
108.0
 30
0.0
 41
6.0
 42
6.0
 43
6.0
  0
MTEXT
  5
2A7
330
29F
100
AcDbEntity
  8
Ｓ_１_１
 62
     2
100
AcDbMText
 10
541.0
 20
113.5
 30
0.0
 40
6.92580831408776
 41
0.0
 71
     5
 72
     1
  1
190
  7
EXCADDIM1
  0
POINT
  5
2A8
330
29F
100
AcDbEntity
  8
DEFPOINTS
 62
     0
100
AcDbPoint
 10
446.0
 20
139.00000253802
 30
0.0
  0
POINT
  5
2A9
330
29F
100
AcDbEntity
  8
DEFPOINTS
 62
     0
100
AcDbPoint
 10
636.0
 20
138.99999992239
 30
0.0
  0
POINT
  5
2AA
330
29F
100
AcDbEntity
  8
DEFPOINTS
 62
     0
100
AcDbPoint
 10
636.0
 20
108.0
 30
0.0
  0
ENDBLK
  5
2A1
330
29F
100
AcDbEntity
  8
0
100
AcDbBlockEnd
  0
BLOCK
  5
2AD
330
2AC
100
AcDbEntity
  8
0
100
AcDbBlockBegin
  2
*D20
 70
     1
 10
0.0
 20
0.0
 30
0.0
  3
*D20
  1

  0
LINE
  5
2AF
330
2AC
100
AcDbEntity
  8
Ｓ_１_１
  6
CONTINUOUS
 62
     2
100
AcDbLine
 10
636.0
 20
135.99999992239
 30
0.0
 11
636.0
 21
94.0
 31
0.0
  0
LINE
  5
2B0
330
2AC
100
AcDbEntity
  8
Ｓ_１_１
  6
CONTINUOUS
 62
     2
100
AcDbLine
 10
436.0
 20
171.0
 30
0.0
 11
436.0
 21
94.0
 31
0.0
  0
LINE
  5
2B1
330
2AC
100
AcDbEntity
  8
Ｓ_１_１
  6
CONTINUOUS
 62
     2
100
AcDbLine
 10
630.0
 20
96.0
 30
0.0
 11
442.0
 21
96.0
 31
0.0
  0
INSERT
  5
2B2
330
2AC
100
AcDbEntity
  8
Ｓ_１_１
 62
     2
100
AcDbBlockReference
  2
EX_NORM
 10
636.0
 20
96.0
 30
0.0
 41
6.0
 42
6.0
 43
6.0
  0
INSERT
  5
2B3
330
2AC
100
AcDbEntity
  8
Ｓ_１_１
 62
     2
100
AcDbBlockReference
  2
EX_NORM
 10
436.0
 20
96.0
 30
0.0
 41
6.0
 42
6.0
 43
6.0
 50
180.0
  0
MTEXT
  5
2B4
330
2AC
100
AcDbEntity
  8
Ｓ_１_１
 62
     2
100
AcDbMText
 10
536.0
 20
101.5
 30
0.0
 40
6.92580831408776
 41
0.0
 71
     5
 72
     1
  1
200
  7
EXCADDIM1
  0
POINT
  5
2B5
330
2AC
100
AcDbEntity
  8
DEFPOINTS
 62
     0
100
AcDbPoint
 10
636.0
 20
138.99999992239
 30
0.0
  0
POINT
  5
2B6
330
2AC
100
AcDbEntity
  8
DEFPOINTS
 62
     0
100
AcDbPoint
 10
436.0
 20
174.0
 30
0.0
  0
POINT
  5
2B7
330
2AC
100
AcDbEntity
  8
DEFPOINTS
 62
     0
100
AcDbPoint
 10
436.0
 20
96.0
 30
0.0
  0
ENDBLK
  5
2AE
330
2AC
100
AcDbEntity
  8
0
100
AcDbBlockEnd
  0
BLOCK
  5
2BA
330
2B9
100
AcDbEntity
  8
0
100
AcDbBlockBegin
  2
*D21
 70
     1
 10
0.0
 20
0.0
 30
0.0
  3
*D21
  1

  0
LINE
  5
2BC
330
2B9
100
AcDbEntity
  8
Ｓ_１_１
  6
CONTINUOUS
 62
     2
100
AcDbLine
 10
638.00000007761
 20
138.0
 30
0.0
 11
674.0
 21
138.0
 31
0.0
  0
LINE
  5
2BD
330
2B9
100
AcDbEntity
  8
Ｓ_１_１
  6
CONTINUOUS
 62
     2
100
AcDbLine
 10
638.00000007761
 20
317.9999999999991
 30
0.0
 11
674.0
 21
317.9999999999991
 31
0.0
  0
LINE
  5
2BE
330
2B9
100
AcDbEntity
  8
Ｓ_１_１
  6
CONTINUOUS
 62
     2
100
AcDbLine
 10
672.0
 20
144.0
 30
0.0
 11
672.0
 21
311.9999999999991
 31
0.0
  0
INSERT
  5
2BF
330
2B9
100
AcDbEntity
  8
Ｓ_１_１
 62
     2
100
AcDbBlockReference
  2
EX_NORM
 10
672.0
 20
138.0
 30
0.0
 41
6.0
 42
6.0
 43
6.0
 50
270.0
  0
INSERT
  5
2C0
330
2B9
100
AcDbEntity
  8
Ｓ_１_１
 62
     2
100
AcDbBlockReference
  2
EX_NORM
 10
672.0
 20
317.9999999999991
 30
0.0
 41
6.0
 42
6.0
 43
6.0
 50
90.0
  0
MTEXT
  5
2C1
330
2B9
100
AcDbEntity
  8
Ｓ_１_１
 62
     2
100
AcDbMText
 10
666.5
 20
227.9999999999995
 30
0.0
 40
6.92580831408776
 41
0.0
 71
     5
 72
     1
  1
%%c180
  7
EXCADDIM1
 11
0.0
 21
1.0
 31
0.0
  0
POINT
  5
2C2
330
2B9
100
AcDbEntity
  8
DEFPOINTS
 62
     0
100
AcDbPoint
 10
635.00000007761
 20
138.0
 30
0.0
  0
POINT
  5
2C3
330
2B9
100
AcDbEntity
  8
DEFPOINTS
 62
     0
100
AcDbPoint
 10
635.00000007761
 20
317.9999999999991
 30
0.0
  0
POINT
  5
2C4
330
2B9
100
AcDbEntity
  8
DEFPOINTS
 62
     0
100
AcDbPoint
 10
672.0
 20
317.9999999999991
 30
0.0
  0
ENDBLK
  5
2BB
330
2B9
100
AcDbEntity
  8
0
100
AcDbBlockEnd
  0
BLOCK
  5
2C7
330
2C6
100
AcDbEntity
  8
0
100
AcDbBlockBegin
  2
*D22
 70
     1
 10
0.0
 20
0.0
 30
0.0
  3
*D22
  1

  0
LINE
  5
2C9
330
2C6
100
AcDbEntity
  8
Ｓ_１_１
  6
CONTINUOUS
 62
     2
100
AcDbLine
 10
638.00000007761
 20
318.0
 30
0.0
 11
674.0
 21
318.0
 31
0.0
  0
LINE
  5
2CA
330
2C6
100
AcDbEntity
  8
Ｓ_１_１
  6
CONTINUOUS
 62
     2
100
AcDbLine
 10
591.09500296448
 20
417.86227365577
 30
0.0
 11
674.0
 21
417.86227365577
 31
0.0
  0
LINE
  5
2CB
330
2C6
100
AcDbEntity
  8
Ｓ_１_１
  6
CONTINUOUS
 62
     2
100
AcDbLine
 10
672.0
 20
324.0
 30
0.0
 11
672.0
 21
411.86227365577
 31
0.0
  0
INSERT
  5
2CC
330
2C6
100
AcDbEntity
  8
Ｓ_１_１
 62
     2
100
AcDbBlockReference
  2
EX_NORM
 10
672.0
 20
318.0
 30
0.0
 41
6.0
 42
6.0
 43
6.0
 50
270.0
  0
INSERT
  5
2CD
330
2C6
100
AcDbEntity
  8
Ｓ_１_１
 62
     2
100
AcDbBlockReference
  2
EX_NORM
 10
672.0
 20
417.86227365577
 30
0.0
 41
6.0
 42
6.0
 43
6.0
 50
90.0
  0
MTEXT
  5
2CE
330
2C6
100
AcDbEntity
  8
Ｓ_１_１
 62
     2
100
AcDbMText
 10
666.5
 20
367.931136827885
 30
0.0
 40
6.92580831408776
 41
0.0
 71
     5
 72
     1
  1
(100)
  7
EXCADDIM1
 11
0.0
 21
1.0
 31
0.0
  0
POINT
  5
2CF
330
2C6
100
AcDbEntity
  8
DEFPOINTS
 62
     0
100
AcDbPoint
 10
635.00000007761
 20
318.0
 30
0.0
  0
POINT
  5
2D0
330
2C6
100
AcDbEntity
  8
DEFPOINTS
 62
     0
100
AcDbPoint
 10
588.09500296448
 20
417.86227365577
 30
0.0
  0
POINT
  5
2D1
330
2C6
100
AcDbEntity
  8
DEFPOINTS
 62
     0
100
AcDbPoint
 10
672.0
 20
417.86227365577
 30
0.0
  0
ENDBLK
  5
2C8
330
2C6
100
AcDbEntity
  8
0
100
AcDbBlockEnd
  0
BLOCK
  5
2D4
330
2D3
100
AcDbEntity
  8
0
100
AcDbBlockBegin
  2
*D23
 70
     1
 10
0.0
 20
0.0
 30
0.0
  3
*D23
  1

  0
LINE
  5
2D6
330
2D3
100
AcDbEntity
  8
Ｓ_１_１
  6
CONTINUOUS
 62
     2
100
AcDbLine
 10
434.0
 20
173.0
 30
0.0
 11
393.9999999999999
 21
173.0
 31
0.0
  0
LINE
  5
2D7
330
2D3
100
AcDbEntity
  8
Ｓ_１_１
  6
CONTINUOUS
 62
     2
100
AcDbLine
 10
434.0
 20
283.0
 30
0.0
 11
393.9999999999999
 21
283.0
 31
0.0
  0
LINE
  5
2D8
330
2D3
100
AcDbEntity
  8
Ｓ_１_１
  6
CONTINUOUS
 62
     2
100
AcDbLine
 10
396.0
 20
179.0
 30
0.0
 11
396.0
 21
277.0
 31
0.0
  0
INSERT
  5
2D9
330
2D3
100
AcDbEntity
  8
Ｓ_１_１
 62
     2
100
AcDbBlockReference
  2
EX_NORM
 10
396.0
 20
173.0
 30
0.0
 41
6.0
 42
6.0
 43
6.0
 50
270.0
  0
INSERT
  5
2DA
330
2D3
100
AcDbEntity
  8
Ｓ_１_１
 62
     2
100
AcDbBlockReference
  2
EX_NORM
 10
396.0
 20
283.0
 30
0.0
 41
6.0
 42
6.0
 43
6.0
 50
90.0
  0
MTEXT
  5
2DB
330
2D3
100
AcDbEntity
  8
Ｓ_１_１
 62
     2
100
AcDbMText
 10
390.5
 20
228.0
 30
0.0
 40
6.92580831408776
 41
0.0
 71
     5
 72
     1
  1
%%c110
  7
EXCADDIM1
 11
0.0
 21
1.0
 31
0.0
  0
POINT
  5
2DC
330
2D3
100
AcDbEntity
  8
DEFPOINTS
 62
     0
100
AcDbPoint
 10
437.0
 20
173.0
 30
0.0
  0
POINT
  5
2DD
330
2D3
100
AcDbEntity
  8
DEFPOINTS
 62
     0
100
AcDbPoint
 10
437.0
 20
283.0
 30
0.0
  0
POINT
  5
2DE
330
2D3
100
AcDbEntity
  8
DEFPOINTS
 62
     0
100
AcDbPoint
 10
396.0
 20
283.0
 30
0.0
  0
ENDBLK
  5
2D5
330
2D3
100
AcDbEntity
  8
0
100
AcDbBlockEnd
  0
BLOCK
  5
2E1
330
2E0
100
AcDbEntity
  8
0
100
AcDbBlockBegin
  2
*D24
 70
     1
 10
0.0
 20
0.0
 30
0.0
  3
*D24
  1

  0
LINE
  5
2E3
330
2E0
100
AcDbEntity
  8
Ｓ_１_１
  6
CONTINUOUS
 62
     2
100
AcDbLine
 10
440.99999880101
 20
167.99999928035
 30
0.0
 11
381.9999999999999
 21
167.99999928035
 31
0.0
  0
LINE
  5
2E4
330
2E0
100
AcDbEntity
  8
Ｓ_１_１
  6
CONTINUOUS
 62
     2
100
AcDbLine
 10
440.99999880101
 20
288.0000007196468
 30
0.0
 11
381.9999999999999
 21
288.0000007196468
 31
0.0
  0
LINE
  5
2E5
330
2E0
100
AcDbEntity
  8
Ｓ_１_１
  6
CONTINUOUS
 62
     2
100
AcDbLine
 10
384.0
 20
173.99999928035
 30
0.0
 11
384.0
 21
282.0000007196468
 31
0.0
  0
INSERT
  5
2E6
330
2E0
100
AcDbEntity
  8
Ｓ_１_１
 62
     2
100
AcDbBlockReference
  2
EX_NORM
 10
384.0
 20
167.99999928035
 30
0.0
 41
6.0
 42
6.0
 43
6.0
 50
270.0
  0
INSERT
  5
2E7
330
2E0
100
AcDbEntity
  8
Ｓ_１_１
 62
     2
100
AcDbBlockReference
  2
EX_NORM
 10
384.0
 20
288.0000007196468
 30
0.0
 41
6.0
 42
6.0
 43
6.0
 50
90.0
  0
MTEXT
  5
2E8
330
2E0
100
AcDbEntity
  8
Ｓ_１_１
 62
     2
100
AcDbMText
 10
378.5
 20
227.9999999999984
 30
0.0
 40
6.92580831408776
 41
0.0
 71
     5
 72
     1
  1
%%c120
  7
EXCADDIM1
 11
0.0
 21
1.0
 31
0.0
  0
POINT
  5
2E9
330
2E0
100
AcDbEntity
  8
DEFPOINTS
 62
     0
100
AcDbPoint
 10
443.99999880101
 20
167.99999928035
 30
0.0
  0
POINT
  5
2EA
330
2E0
100
AcDbEntity
  8
DEFPOINTS
 62
     0
100
AcDbPoint
 10
443.99999880101
 20
288.0000007196468
 30
0.0
  0
POINT
  5
2EB
330
2E0
100
AcDbEntity
  8
DEFPOINTS
 62
     0
100
AcDbPoint
 10
384.0
 20
288.0000007196468
 30
0.0
  0
ENDBLK
  5
2E2
330
2E0
100
AcDbEntity
  8
0
100
AcDbBlockEnd
  0
BLOCK
  5
2EE
330
2ED
100
AcDbEntity
  8
0
100
AcDbBlockBegin
  2
*D25
 70
     1
 10
0.0
 20
0.0
 30
0.0
  3
*D25
  1

  0
LINE
  5
2F0
330
2ED
100
AcDbEntity
  8
Ｓ_１_１
  6
CONTINUOUS
 62
     2
100
AcDbLine
 10
286.1811454168352
 20
349.5572940707964
 30
0.0
 11
325.0000077622698
 21
416.7935359451149
 31
0.0
  0
LINE
  5
2F1
330
2ED
100
AcDbEntity
  8
Ｓ_１_１
  6
CONTINUOUS
 62
     2
100
AcDbLine
 10
216.0
 20
426.8
 30
0.0
 11
216.0
 21
446.0
 31
0.0
  0
ARC
  5
2F2
330
2ED
100
AcDbEntity
  8
Ｓ_１_１
  6
CONTINUOUS
 62
     2
100
AcDbCircle
 10
216.0
 20
227.9999844754522
 30
0.0
 40
216.0000155245478
100
AcDbArc
 50
61.59160048960387
 51
88.40839951039733
  0
INSERT
  5
2F3
330
2ED
100
AcDbEntity
  8
Ｓ_１_１
 62
     2
100
AcDbBlockReference
  2
EX_NORM
 10
324.0000077622699
 20
415.061485137546
 30
0.0
 41
6.0
 42
6.0
 43
6.0
 50
330.7958002448025
  0
INSERT
  5
2F4
330
2ED
100
AcDbEntity
  8
Ｓ_１_１
 62
     2
100
AcDbBlockReference
  2
EX_NORM
 10
216.0
 20
444.0
 30
0.0
 41
6.0
 42
6.0
 43
6.0
 50
179.2041997551987
  0
MTEXT
  5
2F5
330
2ED
100
AcDbEntity
  8
Ｓ_１_１
 62
     2
100
AcDbMText
 10
273.3284225082547
 20
441.9525699940431
 30
0.0
 40
6.92580831408776
 41
0.0
 71
     5
 72
     1
  1
30%%d
  7
EXCADDIM1
 11
0.9659258262890711
 21
-0.2588190451025105
 31
0.0
  0
POINT
  5
2F6
330
2ED
100
AcDbEntity
  8
DEFPOINTS
 62
     0
100
AcDbPoint
 10
216.0
 20
227.9999844754522
 30
0.0
  0
POINT
  5
2F7
330
2ED
100
AcDbEntity
  8
DEFPOINTS
 62
     0
100
AcDbPoint
 10
284.6811454168352
 20
346.9592178594431
 30
0.0
  0
POINT
  5
2F8
330
2ED
100
AcDbEntity
  8
DEFPOINTS
 62
     0
100
AcDbPoint
 10
216.0
 20
423.8
 30
0.0
  0
POINT
  5
2F9
330
2ED
100
AcDbEntity
  8
DEFPOINTS
 62
     0
100
AcDbPoint
 10
289.8763562680496
 20
430.9736051535124
 30
0.0
  0
ENDBLK
  5
2EF
330
2ED
100
AcDbEntity
  8
0
100
AcDbBlockEnd
  0
BLOCK
  5
2FC
330
2FB
100
AcDbEntity
  8
0
100
AcDbBlockBegin
  2
*D26
 70
     1
 10
0.0
 20
0.0
 30
0.0
  3
*D26
  1

  0
LINE
  5
2FE
330
2FB
100
AcDbEntity
  8
Ｓ_１_１
  6
CONTINUOUS
 62
     2
100
AcDbLine
 10
86.771031918132
 20
257.0
 30
0.0
 11
86.771031918132
 21
458.0
 31
0.0
  0
LINE
  5
2FF
330
2FB
100
AcDbEntity
  8
Ｓ_１_１
  6
CONTINUOUS
 62
     2
100
AcDbLine
 10
345.22896808187
 20
257.0
 30
0.0
 11
345.22896808187
 21
458.0
 31
0.0
  0
LINE
  5
300
330
2FB
100
AcDbEntity
  8
Ｓ_１_１
  6
CONTINUOUS
 62
     2
100
AcDbLine
 10
92.771031918132
 20
456.0
 30
0.0
 11
339.22896808187
 21
456.0
 31
0.0
  0
INSERT
  5
301
330
2FB
100
AcDbEntity
  8
Ｓ_１_１
 62
     2
100
AcDbBlockReference
  2
EX_NORM
 10
86.771031918132
 20
456.0
 30
0.0
 41
6.0
 42
6.0
 43
6.0
 50
180.0
  0
INSERT
  5
302
330
2FB
100
AcDbEntity
  8
Ｓ_１_１
 62
     2
100
AcDbBlockReference
  2
EX_NORM
 10
345.22896808187
 20
456.0
 30
0.0
 41
6.0
 42
6.0
 43
6.0
  0
MTEXT
  5
303
330
2FB
100
AcDbEntity
  8
Ｓ_１_１
 62
     2
100
AcDbMText
 10
216.000000000001
 20
461.5
 30
0.0
 40
6.92580831408776
 41
0.0
 71
     5
 72
     1
  1
(258)
  7
EXCADDIM1
  0
POINT
  5
304
330
2FB
100
AcDbEntity
  8
DEFPOINTS
 62
     0
100
AcDbPoint
 10
86.771031918132
 20
254.0
 30
0.0
  0
POINT
  5
305
330
2FB
100
AcDbEntity
  8
DEFPOINTS
 62
     0
100
AcDbPoint
 10
345.22896808187
 20
254.0
 30
0.0
  0
POINT
  5
306
330
2FB
100
AcDbEntity
  8
DEFPOINTS
 62
     0
100
AcDbPoint
 10
345.22896808187
 20
456.0
 30
0.0
  0
ENDBLK
  5
2FD
330
2FB
100
AcDbEntity
  8
0
100
AcDbBlockEnd
  0
ENDSEC
  0
SECTION
  2
ENTITIES
  0
LINE
  5
D4
330
1F
100
AcDbEntity
  8
図面枠
  6
CONTINUOUS
 62
     5
100
AcDbLine
 10
20.0
 20
20.0
 30
0.0
 11
820.0
 21
20.0
 31
0.0
  0
LINE
  5
D5
330
1F
100
AcDbEntity
  8
図面枠
  6
CONTINUOUS
 62
     5
100
AcDbLine
 10
820.0
 20
20.0
 30
0.0
 11
820.0
 21
574.0
 31
0.0
  0
LINE
  5
D6
330
1F
100
AcDbEntity
  8
図面枠
  6
CONTINUOUS
 62
     5
100
AcDbLine
 10
820.0
 20
574.0
 30
0.0
 11
20.0000000000001
 21
574.0
 31
0.0
  0
LINE
  5
D7
330
1F
100
AcDbEntity
  8
図面枠
  6
CONTINUOUS
 62
     5
100
AcDbLine
 10
20.0000000000001
 20
574.0
 30
0.0
 11
20.0
 21
20.0
 31
0.0
  0
TEXT
  5
D9
330
1F
100
AcDbEntity
  8
図面枠
  6
CONTINUOUS
 62
     4
100
AcDbText
 10
774.0
 20
542.765625
 30
0.0
 40
6.92580831408776
  1
kN
 41
0.9992307692307693
  7
EXCADTTF1
 72
     5
 11
783.0
 21
542.765625
 31
0.0
100
AcDbText
  0
TEXT
  5
DA
330
1F
100
AcDbEntity
  8
図面枠
  6
CONTINUOUS
 62
     4
100
AcDbText
 10
654.0
 20
542.765625
 30
0.0
 40
6.92580831408776
  1
能力
 41
0.9992307692307693
  7
EXCADTTF1
 72
     5
 11
672.0
 21
542.765625
 31
0.0
100
AcDbText
  0
TEXT
  5
DB
330
1F
100
AcDbEntity
  8
図面枠
  6
CONTINUOUS
 62
     4
100
AcDbText
 10
707.5
 20
554.765625
 30
0.0
 40
6.92580831408776
  1
仕　　　様
 41
0.9992307692307693
  7
EXCADTTF1
 72
     5
 11
752.5
 21
554.765625
 31
0.0
100
AcDbText
  0
LINE
  5
DC
330
1F
100
AcDbEntity
  8
図面枠
  6
CONTINUOUS
 62
     3
100
AcDbLine
 10
650.0
 20
564.0
 30
0.0
 11
810.0
 21
564.0
 31
0.0
  0
LINE
  5
DD
330
1F
100
AcDbEntity
  8
図面枠
  6
CONTINUOUS
 62
     3
100
AcDbLine
 10
650.0
 20
552.0
 30
0.0
 11
810.0
 21
552.0
 31
0.0
  0
TEXT
  5
DE
330
1F
100
AcDbEntity
  8
図面枠
  6
CONTINUOUS
 62
     4
100
AcDbText
 10
748.0
 20
542.765625
 30
0.0
 40
6.92580831408776
  1
1000
 41
0.9992307692307693
  7
EXCADTTF1
 72
     5
 11
766.0
 21
542.765625
 31
0.0
100
AcDbText
  0
LINE
  5
DF
330
1F
100
AcDbEntity
  8
図面枠
  6
CONTINUOUS
 62
     3
100
AcDbLine
 10
30.40000000000003
 20
564.0
 30
0.0
 11
30.40000000000003
 21
546.0
 31
0.0
  0
LINE
  5
E0
330
1F
100
AcDbEntity
  8
図面枠
  6
CONTINUOUS
 62
     3
100
AcDbLine
 10
810.0
 20
48.0
 30
0.0
 11
810.0
 21
30.0
 31
0.0
  0
TEXT
  5
E1
330
1F
100
AcDbEntity
  8
図面枠
  6
CONTINUOUS
 62
     4
100
AcDbText
 10
774.0
 20
530.765625
 30
0.0
 40
6.92580831408776
  1
mm
 41
0.9992307692307693
  7
EXCADTTF1
 72
     5
 11
783.0
 21
530.765625
 31
0.0
100
AcDbText
  0
TEXT
  5
E2
330
1F
100
AcDbEntity
  8
図面枠
  6
CONTINUOUS
 62
     4
100
AcDbText
 10
774.0
 20
518.765625
 30
0.0
 40
6.92580831408776
  1
mm
 41
0.9992307692307693
  7
EXCADTTF1
 72
     5
 11
783.0
 21
518.765625
 31
0.0
100
AcDbText
  0
TEXT
  5
E3
330
1F
100
AcDbEntity
  8
図面枠
  6
CONTINUOUS
 62
     4
100
AcDbText
 10
774.0
 20
506.765625
 30
0.0
 40
6.92580831408776
  1
mm
 41
0.9992307692307693
  7
EXCADTTF1
 72
     5
 11
783.0
 21
506.765625
 31
0.0
100
AcDbText
  0
TEXT
  5
E4
330
1F
100
AcDbEntity
  8
図面枠
  6
CONTINUOUS
 62
     4
100
AcDbText
 10
774.0
 20
494.765625
 30
0.0
 40
6.92580831408776
  1
mm
 41
0.9992307692307693
  7
EXCADTTF1
 72
     5
 11
783.0
 21
494.765625
 31
0.0
100
AcDbText
  0
TEXT
  5
E5
330
1F
100
AcDbEntity
  8
図面枠
  6
CONTINUOUS
 62
     4
100
AcDbText
 10
774.0
 20
482.765625
 30
0.0
 40
6.92580831408776
  1
mm
 41
0.9992307692307693
  7
EXCADTTF1
 72
     5
 11
783.0
 21
482.765625
 31
0.0
100
AcDbText
  0
TEXT
  5
E6
330
1F
100
AcDbEntity
  8
図面枠
  6
CONTINUOUS
 62
     4
100
AcDbText
 10
774.0
 20
458.765625
 30
0.0
 40
6.92580831408776
  1
MPa
 41
0.9992307692307694
  7
EXCADTTF1
 72
     5
 11
787.5
 21
458.765625
 31
0.0
100
AcDbText
  0
TEXT
  5
E7
330
1F
100
AcDbEntity
  8
図面枠
  6
CONTINUOUS
 62
     4
100
AcDbText
 10
654.0
 20
530.765625
 30
0.0
 40
6.92580831408776
  1
ストローク
 41
0.9992307692307693
  7
EXCADTTF1
 72
     5
 11
699.0
 21
530.765625
 31
0.0
100
AcDbText
  0
TEXT
  5
E8
330
1F
100
AcDbEntity
  8
図面枠
  6
CONTINUOUS
 62
     4
100
AcDbText
 10
654.0
 20
518.765625
 30
0.0
 40
6.92580831408776
  1
最低機械高
 41
0.9992307692307693
  7
EXCADTTF1
 72
     5
 11
699.0
 21
518.765625
 31
0.0
100
AcDbText
  0
TEXT
  5
E9
330
1F
100
AcDbEntity
  8
図面枠
  6
CONTINUOUS
 62
     4
100
AcDbText
 10
654.0
 20
506.765625
 30
0.0
 40
6.92580831408776
  1
シリンダー外径
 41
0.9992307692307691
  7
EXCADTTF1
 72
     5
 11
717.0
 21
506.765625
 31
0.0
100
AcDbText
  0
TEXT
  5
EA
330
1F
100
AcDbEntity
  8
図面枠
  6
CONTINUOUS
 62
     4
100
AcDbText
 10
654.0
 20
494.765625
 30
0.0
 40
6.92580831408776
  1
ヘッド径
 41
0.9992307692307693
  7
EXCADTTF1
 72
     5
 11
690.0
 21
494.765625
 31
0.0
100
AcDbText
  0
TEXT
  5
EB
330
1F
100
AcDbEntity
  8
図面枠
  6
CONTINUOUS
 62
     4
100
AcDbText
 10
654.0
 20
482.765625
 30
0.0
 40
6.92580831408776
  1
ピストン径
 41
0.9992307692307693
  7
EXCADTTF1
 72
     5
 11
699.0
 21
482.765625
 31
0.0
100
AcDbText
  0
TEXT
  5
EC
330
1F
100
AcDbEntity
  8
図面枠
  6
CONTINUOUS
 62
     4
100
AcDbText
 10
654.0
 20
470.765625
 30
0.0
 40
6.92580831408776
  1
受圧面積
 41
0.9992307692307693
  7
EXCADTTF1
 72
     5
 11
690.0
 21
470.765625
 31
0.0
100
AcDbText
  0
TEXT
  5
ED
330
1F
100
AcDbEntity
  8
図面枠
  6
CONTINUOUS
 62
     4
100
AcDbText
 10
654.0
 20
458.765625
 30
0.0
 40
6.92580831408776
  1
最高使用圧力
 41
0.9992307692307693
  7
EXCADTTF1
 72
     5
 11
708.0
 21
458.765625
 31
0.0
100
AcDbText
  0
LINE
  5
EE
330
1F
100
AcDbEntity
  8
図面枠
  6
CONTINUOUS
 62
     2
100
AcDbLine
 10
650.0
 20
540.0
 30
0.0
 11
810.0
 21
540.0
 31
0.0
  0
LINE
  5
EF
330
1F
100
AcDbEntity
  8
図面枠
  6
CONTINUOUS
 62
     2
100
AcDbLine
 10
650.0
 20
528.0
 30
0.0
 11
810.0
 21
528.0
 31
0.0
  0
LINE
  5
F0
330
1F
100
AcDbEntity
  8
図面枠
  6
CONTINUOUS
 62
     2
100
AcDbLine
 10
650.0
 20
516.0
 30
0.0
 11
810.0
 21
516.0
 31
0.0
  0
LINE
  5
F1
330
1F
100
AcDbEntity
  8
図面枠
  6
CONTINUOUS
 62
     2
100
AcDbLine
 10
650.0
 20
504.0
 30
0.0
 11
810.0
 21
504.0
 31
0.0
  0
LINE
  5
F2
330
1F
100
AcDbEntity
  8
図面枠
  6
CONTINUOUS
 62
     2
100
AcDbLine
 10
650.0
 20
492.0
 30
0.0
 11
810.0
 21
492.0
 31
0.0
  0
LINE
  5
F3
330
1F
100
AcDbEntity
  8
図面枠
  6
CONTINUOUS
 62
     2
100
AcDbLine
 10
650.0
 20
480.0
 30
0.0
 11
810.0
 21
480.0
 31
0.0
  0
LINE
  5
F4
330
1F
100
AcDbEntity
  8
図面枠
  6
CONTINUOUS
 62
     2
100
AcDbLine
 10
650.0
 20
468.0
 30
0.0
 11
810.0
 21
468.0
 31
0.0
  0
TEXT
  5
F5
330
1F
100
AcDbEntity
  8
図面枠
  6
CONTINUOUS
 62
     4
100
AcDbText
 10
752.5
 20
482.765625
 30
0.0
 40
6.92580831408776
  1
145
 41
0.9992307692307694
  7
EXCADTTF1
 72
     5
 11
766.0
 21
482.765625
 31
0.0
100
AcDbText
  0
TEXT
  5
F6
330
1F
100
AcDbEntity
  8
図面枠
  6
CONTINUOUS
 62
     4
100
AcDbText
 10
748.0
 20
458.765625
 30
0.0
 40
6.92580831408776
  1
60.6
 41
0.9992307692307693
  7
EXCADTTF1
 72
     5
 11
766.0
 21
458.765625
 31
0.0
100
AcDbText
  0
TEXT
  5
F7
330
1F
100
AcDbEntity
  8
図面枠
  6
CONTINUOUS
 62
     4
100
AcDbText
 10
743.5
 20
470.765625
 30
0.0
 40
6.92580831408776
  1
165.1
 41
0.9992307692307693
  7
EXCADTTF1
 72
     5
 11
766.0
 21
470.765625
 31
0.0
100
AcDbText
  0
TEXT
  5
F8
330
1F
100
AcDbEntity
  8
図面枠
  6
CONTINUOUS
 62
     4
100
AcDbText
 10
757.0
 20
530.765625
 30
0.0
 40
6.92580831408776
  1
75
 41
0.9992307692307693
  7
EXCADTTF1
 72
     5
 11
766.0
 21
530.765625
 31
0.0
100
AcDbText
  0
TEXT
  5
F9
330
1F
100
AcDbEntity
  8
図面枠
  6
CONTINUOUS
 62
     4
100
AcDbText
 10
752.5
 20
506.765625
 30
0.0
 40
6.92580831408776
  1
180
 41
0.9992307692307694
  7
EXCADTTF1
 72
     5
 11
766.0
 21
506.765625
 31
0.0
100
AcDbText
  0
TEXT
  5
FA
330
1F
100
AcDbEntity
  8
図面枠
  6
CONTINUOUS
 62
     4
100
AcDbText
 10
774.0
 20
434.765625
 30
0.0
 40
6.92580831408776
  1
kg
 41
0.9992307692307693
  7
EXCADTTF1
 72
     5
 11
783.0
 21
434.765625
 31
0.0
100
AcDbText
  0
TEXT
  5
FB
330
1F
100
AcDbEntity
  8
図面枠
  6
CONTINUOUS
 62
     4
100
AcDbText
 10
654.0
 20
446.765625
 30
0.0
 40
6.92580831408776
  1
所要油量
 41
0.9992307692307693
  7
EXCADTTF1
 72
     5
 11
690.0
 21
446.765625
 31
0.0
100
AcDbText
  0
TEXT
  5
FC
330
1F
100
AcDbEntity
  8
図面枠
  6
CONTINUOUS
 62
     4
100
AcDbText
 10
654.0
 20
434.765625
 30
0.0
 40
6.92580831408776
  1
重量
 41
0.9992307692307693
  7
EXCADTTF1
 72
     5
 11
672.0
 21
434.765625
 31
0.0
100
AcDbText
  0
LINE
  5
FD
330
1F
100
AcDbEntity
  8
図面枠
  6
CONTINUOUS
 62
     2
100
AcDbLine
 10
650.0
 20
456.0
 30
0.0
 11
810.0
 21
456.0
 31
0.0
  0
LINE
  5
FE
330
1F
100
AcDbEntity
  8
図面枠
  6
CONTINUOUS
 62
     2
100
AcDbLine
 10
650.0
 20
444.0
 30
0.0
 11
810.0
 21
444.0
 31
0.0
  0
LINE
  5
FF
330
1F
100
AcDbEntity
  8
図面枠
  6
CONTINUOUS
 62
     3
100
AcDbLine
 10
650.0
 20
432.0
 30
0.0
 11
810.0
 21
432.0
 31
0.0
  0
LINE
  5
100
330
1F
100
AcDbEntity
  8
図面枠
  6
CONTINUOUS
 62
     3
100
AcDbLine
 10
650.0
 20
564.0
 30
0.0
 11
650.0
 21
432.0
 31
0.0
  0
LINE
  5
101
330
1F
100
AcDbEntity
  8
図面枠
  6
CONTINUOUS
 62
     3
100
AcDbLine
 10
810.0
 20
564.0
 30
0.0
 11
810.0
 21
432.0
 31
0.0
  0
LINE
  5
102
330
1F
100
AcDbEntity
  8
図面枠
  6
CONTINUOUS
 62
     2
100
AcDbLine
 10
730.0
 20
552.0
 30
0.0
 11
730.0
 21
432.0
 31
0.0
  0
LINE
  5
103
330
1F
100
AcDbEntity
  8
図面枠
  6
CONTINUOUS
 62
     2
100
AcDbLine
 10
770.0
 20
552.0
 30
0.0
 11
770.0
 21
432.0
 31
0.0
  0
TEXT
  5
104
330
1F
100
AcDbEntity
  8
図面枠
  6
CONTINUOUS
 62
     4
100
AcDbText
 10
774.0000000000001
 20
470.765625
 30
0.0
 40
6.92580831408776
  1
cm
 41
0.9992307692307693
  7
EXCADTTF1
 72
     5
 11
783.0000000000001
 21
470.765625
 31
0.0
100
AcDbText
  0
TEXT
  5
105
330
1F
100
AcDbEntity
  8
図面枠
  6
CONTINUOUS
 62
     4
100
AcDbText
 10
780.3000000000001
 20
475.0195313170552
 30
0.0
 40
3.116613521173975
  1
2
 41
0.9992308398189645
  7
EXCADTTF1
 72
     5
 11
782.325
 21
475.0195313170552
 31
0.0
100
AcDbText
  0
TEXT
  5
106
330
1F
100
AcDbEntity
  8
図面枠
  6
CONTINUOUS
 62
     4
100
AcDbText
 10
774.0
 20
446.765625
 30
0.0
 40
6.92580831408776
  1
L
 41
0.9992307692307693
  7
EXCADTTF1
 72
     5
 11
778.5
 21
446.765625
 31
0.0
100
AcDbText
  0
TEXT
  5
107
330
1F
100
AcDbEntity
  8
図面枠
  6
CONTINUOUS
 62
     4
100
AcDbText
 10
752.5
 20
446.765625
 30
0.0
 40
6.92580831408776
  1
1.2
 41
0.9992307692307694
  7
EXCADTTF1
 72
     5
 11
766.0
 21
446.765625
 31
0.0
100
AcDbText
  0
LINE
  5
108
330
1F
100
AcDbEntity
  8
図面枠
  6
CONTINUOUS
 62
     3
100
AcDbLine
 10
726.0
 20
48.0
 30
0.0
 11
726.0
 21
30.0
 31
0.0
  0
LINE
  5
109
330
1F
100
AcDbEntity
  8
図面枠
  6
CONTINUOUS
 62
     3
100
AcDbLine
 10
726.0
 20
30.0
 30
0.0
 11
810.0
 21
30.0
 31
0.0
  0
LINE
  5
10A
330
1F
100
AcDbEntity
  8
図面枠
  6
CONTINUOUS
 62
     3
100
AcDbLine
 10
726.0
 20
48.0
 30
0.0
 11
810.0
 21
48.0
 31
0.0
  0
TEXT
  5
10B
330
1F
100
AcDbEntity
  8
図面枠
  6
CONTINUOUS
 62
     4
100
AcDbText
 10
752.5
 20
518.765625
 30
0.0
 40
6.92580831408776
  1
200
 41
0.9992307692307694
  7
EXCADTTF1
 72
     5
 11
766.0
 21
518.765625
 31
0.0
100
AcDbText
  0
TEXT
  5
10C
330
1F
100
AcDbEntity
  8
図面枠
  6
CONTINUOUS
 62
     4
100
AcDbText
 10
748.0
 20
434.765625
 30
0.0
 40
6.92580831408776
  1
約38
 41
0.9992307692307693
  7
EXCADTTF1
 72
     5
 11
766.0
 21
434.765625
 31
0.0
100
AcDbText
  0
TEXT
  5
10D
330
1F
100
AcDbEntity
  8
図面枠
  6
CONTINUOUS
 62
     4
100
AcDbText
 10
752.5
 20
494.765625
 30
0.0
 40
6.92580831408776
  1
110
 41
0.9992307692307694
  7
EXCADTTF1
 72
     5
 11
766.0
 21
494.765625
 31
0.0
100
AcDbText
  0
TEXT
  5
10E
330
1F
100
AcDbEntity
  8
図面枠
  6
CONTINUOUS
 62
     4
100
AcDbText
 10
732.0
 20
34.6875
 30
0.0
 40
9.234411085450347
  1
OTV-1007.5-C
 41
0.9992307692307695
  7
EXCADTTF1
 72
     5
 11
804.0
 21
34.6875
 31
0.0
100
AcDbText
  0
TEXT
  5
10F
330
1F
100
AcDbEntity
  8
図面枠
  6
CONTINUOUS
 62
     4
100
AcDbText
 10
36.40000000000003
 20
550.6875
 30
0.0
 40
9.234411085450347
  1
1000kN75ストローク油圧ジャッキ　取手脱着型
 41
0.9992307692307697
  7
EXCADTTF1
 72
     5
 11
288.4
 21
550.6875
 31
0.0
100
AcDbText
  0
LINE
  5
110
330
1F
100
AcDbEntity
  8
図面枠
  6
CONTINUOUS
 62
     3
100
AcDbLine
 10
294.4
 20
564.0
 30
0.0
 11
294.4
 21
546.0
 31
0.0
  0
LINE
  5
111
330
1F
100
AcDbEntity
  8
図面枠
  6
CONTINUOUS
 62
     3
100
AcDbLine
 10
30.40000000000003
 20
564.0
 30
0.0
 11
294.4
 21
564.0
 31
0.0
  0
LINE
  5
112
330
1F
100
AcDbEntity
  8
図面枠
  6
CONTINUOUS
 62
     3
100
AcDbLine
 10
30.40000000000003
 20
546.0
 30
0.0
 11
294.4
 21
546.0
 31
0.0
  0
LINE
  5
113
330
1F
100
AcDbEntity
  8
Ｓ_１_１
  6
EXLTYPE2
 62
     1
100
AcDbLine
 10
432.0
 20
228.0
 30
0.0
 11
648.0
 21
228.0000000000001
 31
0.0
  0
LINE
  5
114
330
1F
100
AcDbEntity
  8
Ｓ_１_１
  6
CONTINUOUS
 62
     3
100
AcDbLine
 10
635.0000012934917
 20
317.9999987841129
 30
0.0
 11
635.9999969602846
 21
317.0000031173199
 31
0.0
  0
LINE
  5
115
330
1F
100
AcDbEntity
  8
Ｓ_１_１
  6
CONTINUOUS
 62
     3
100
AcDbLine
 10
446.9999986247384
 20
317.9999960867146
 30
0.0
 11
446.0000029579454
 21
317.0000004199217
 31
0.0
  0
LINE
  5
116
330
1F
100
AcDbEntity
  8
Ｓ_１_１
  6
CONTINUOUS
 62
     3
100
AcDbLine
 10
589.999993982938
 20
332.9999958261676
 30
0.0
 11
590.9999950445275
 21
331.9999947645781
 31
0.0
  0
LINE
  5
117
330
1F
100
AcDbEntity
  8
Ｓ_１_１
  6
CONTINUOUS
 62
     3
100
AcDbLine
 10
562.0000013476582
 20
333.0000018953137
 30
0.0
 11
561.0000002860687
 21
332.0000008337242
 31
0.0
  0
LINE
  5
118
330
1F
100
AcDbEntity
  8
Ｓ_１_１
  6
CONTINUOUS
 62
     3
100
AcDbLine
 10
591.000000439324
 20
323.0000013946621
 30
0.0
 11
596.000000352475
 21
318.0000014815112
 31
0.0
  0
LINE
  5
119
330
1F
100
AcDbEntity
  8
Ｓ_１_１
  6
CONTINUOUS
 62
     3
100
AcDbLine
 10
560.9999955656216
 20
322.9999959998656
 30
0.0
 11
556.0000010472671
 21
318.0000014815112
 31
0.0
  0
LINE
  5
11A
330
1F
100
AcDbEntity
  8
Ｓ_１_１
  6
CONTINUOUS
 62
     3
100
AcDbLine
 10
512.9999972085915
 20
332.9999971748666
 30
0.0
 11
513.999996921482
 21
331.9999974619764
 31
0.0
  0
LINE
  5
11B
330
1F
100
AcDbEntity
  8
Ｓ_１_１
  6
CONTINUOUS
 62
     3
100
AcDbLine
 10
484.9999985041655
 20
332.9999985235659
 30
0.0
 11
483.999997442576
 21
331.9999974619764
 31
0.0
  0
LINE
  5
11C
330
1F
100
AcDbEntity
  8
Ｓ_１_１
  6
CONTINUOUS
 62
     3
100
AcDbLine
 10
513.999998270181
 20
322.9999973485646
 30
0.0
 11
518.999998183332
 21
317.9999974354137
 31
0.0
  0
LINE
  5
11D
330
1F
100
AcDbEntity
  8
Ｓ_１_１
  6
CONTINUOUS
 62
     3
100
AcDbLine
 10
483.999997442576
 20
322.9999986972639
 30
0.0
 11
478.9999975294251
 21
317.9999987841129
 31
0.0
  0
LINE
  5
11E
330
1F
100
AcDbEntity
  8
Ｓ_１_１
  6
CONTINUOUS
 62
     3
100
AcDbLine
 10
443.9999988010148
 20
288.0000007196496
 30
0.0
 11
440.9999985989895
 21
286.2679497643541
 31
0.0
  0
LINE
  5
11F
330
1F
100
AcDbEntity
  8
Ｓ_１_１
  6
CONTINUOUS
 62
     3
100
AcDbLine
 10
636.0000000000001
 20
316.9999999999991
 30
0.0
 11
636.0000000000001
 21
138.999999999999
 31
0.0
  0
LINE
  5
120
330
1F
100
AcDbEntity
  8
Ｓ_１_１
  6
CONTINUOUS
 62
     3
100
AcDbLine
 10
446.9999986247384
 20
138.0000039132834
 30
0.0
 11
446.0000029579454
 21
138.9999995800764
 31
0.0
  0
LINE
  5
121
330
1F
100
AcDbEntity
  8
Ｓ_１_１
  6
CONTINUOUS
 62
     3
100
AcDbLine
 10
443.9999988010148
 20
167.9999992803483
 30
0.0
 11
440.9999985989895
 21
169.7320502356439
 31
0.0
  0
LINE
  5
122
330
1F
100
AcDbEntity
  8
Ｓ_１_１
  6
CONTINUOUS
 62
     3
100
AcDbLine
 10
635.0000012934917
 20
138.0000012158852
 30
0.0
 11
635.9999969602846
 21
138.9999968826781
 31
0.0
  0
LINE
  5
123
330
1F
100
AcDbEntity
  8
Ｓ_１_１
  6
CONTINUOUS
 62
     3
100
AcDbLine
 10
446.9999986247402
 20
137.999999999999
 30
0.0
 11
635.0000000776055
 21
137.999999999999
 31
0.0
  0
LINE
  5
124
330
1F
100
AcDbEntity
  8
Ｓ_１_１
  6
CONTINUOUS
 62
     3
100
AcDbLine
 10
484.0000000000001
 20
331.9999999999991
 30
0.0
 11
484.0000000000001
 21
322.9999961398398
 31
0.0
  0
LINE
  5
125
330
1F
100
AcDbEntity
  8
Ｓ_１_１
  6
CONTINUOUS
 62
     3
100
AcDbLine
 10
514.0000000000001
 20
331.9999999999991
 30
0.0
 11
514.0000000000001
 21
322.9999956187457
 31
0.0
  0
LINE
  5
126
330
1F
100
AcDbEntity
  8
Ｓ_１_１
  6
CONTINUOUS
 62
     3
100
AcDbLine
 10
561.0000000000001
 20
331.9999999999991
 30
0.0
 11
561.0000000000001
 21
322.9999915654871
 31
0.0
  0
LINE
  5
127
330
1F
100
AcDbEntity
  8
Ｓ_１_１
  6
CONTINUOUS
 62
     3
100
AcDbLine
 10
591.0000000000001
 20
331.9999999999991
 30
0.0
 11
591.0000000000001
 21
323.0000009553382
 31
0.0
  0
LINE
  5
128
330
1F
100
AcDbEntity
  8
Ｓ_１_１
  6
CONTINUOUS
 62
     3
100
AcDbLine
 10
437.0000000000001
 20
283.0
 30
0.0
 11
436.0000000000001
 21
282.0
 31
0.0
  0
LINE
  5
129
330
1F
100
AcDbEntity
  8
Ｓ_１_１
  6
CONTINUOUS
 62
     3
100
AcDbLine
 10
436.0000000000001
 20
173.999999999998
 30
0.0
 11
436.0000000000001
 21
282.0
 31
0.0
  0
LINE
  5
12A
330
1F
100
AcDbEntity
  8
Ｓ_１_１
  6
CONTINUOUS
 62
     3
100
AcDbLine
 10
436.0000000000001
 20
173.999999999998
 30
0.0
 11
437.0000000000001
 21
172.999999999998
 31
0.0
  0
LINE
  5
12B
330
1F
100
AcDbEntity
  8
Ｓ_１_１
  6
CONTINUOUS
 62
     3
100
AcDbLine
 10
586.5950124733548
 20
338.8622748198673
 30
0.0
 11
565.5949854688303
 21
338.8622741127604
 31
0.0
  0
LINE
  5
12C
330
1F
100
AcDbEntity
  8
Ｓ_１_１
  6
CONTINUOUS
 62
     3
100
AcDbLine
 10
586.5950202515295
 20
347.8622740693738
 30
0.0
 11
565.5949939541116
 21
347.8622740693738
 31
0.0
  0
LINE
  5
12D
330
1F
100
AcDbEntity
  8
Ｓ_１_１
  6
CONTINUOUS
 62
     3
100
AcDbLine
 10
570.0328137905079
 20
346.9244531947286
 30
0.0
 11
570.0328137905079
 21
339.8000949874056
 31
0.0
  0
LINE
  5
12E
330
1F
100
AcDbEntity
  8
Ｓ_１_１
  6
CONTINUOUS
 62
     3
100
AcDbLine
 10
582.1571657669009
 20
346.9244539018352
 30
0.0
 11
582.1571650597942
 21
339.8000949874056
 31
0.0
  0
LINE
  5
12F
330
1F
100
AcDbEntity
  8
Ｓ_１_１
  6
CONTINUOUS
 62
     3
100
AcDbLine
 10
588.2193484726118
 20
346.9244687510777
 30
0.0
 11
588.2193484726118
 21
339.8000794310565
 31
0.0
  0
LINE
  5
130
330
1F
100
AcDbEntity
  8
Ｓ_１_１
  6
CONTINUOUS
 62
     3
100
AcDbLine
 10
563.9706268421563
 20
346.9244539018352
 30
0.0
 11
563.9706268421563
 21
339.8000942802989
 31
0.0
  0
LINE
  5
131
330
1F
100
AcDbEntity
  8
Ｓ_１_１
  6
CONTINUOUS
 62
     3
100
AcDbLine
 10
565.594992539898
 20
347.8622698267332
 30
0.0
 11
563.9706317919039
 21
346.9244489520879
 31
0.0
  0
LINE
  5
132
330
1F
100
AcDbEntity
  8
Ｓ_１_１
  6
CONTINUOUS
 62
     3
100
AcDbLine
 10
565.5949882972574
 20
338.8622769411875
 30
0.0
 11
563.9706282563699
 21
339.8000985229396
 31
0.0
  0
LINE
  5
133
330
1F
100
AcDbEntity
  8
Ｓ_１_１
  6
CONTINUOUS
 62
     3
100
AcDbLine
 10
586.5950131804617
 20
347.8622811404416
 30
0.0
 11
588.219376756883
 21
346.9244574373693
 31
0.0
  0
LINE
  5
134
330
1F
100
AcDbEntity
  8
Ｓ_１_１
  6
CONTINUOUS
 62
     3
100
AcDbLine
 10
586.5950110591413
 20
338.8622762340808
 30
0.0
 11
588.2193718071356
 21
339.8000985229396
 31
0.0
  0
LINE
  5
135
330
1F
100
AcDbEntity
  8
Ｓ_１_１
  6
CONTINUOUS
 62
     3
100
AcDbLine
 10
584.3598670299074
 20
349.2245407391738
 30
0.0
 11
567.8301471757337
 21
349.2245407391738
 31
0.0
  0
LINE
  5
136
330
1F
100
AcDbEntity
  8
Ｓ_１_１
  6
CONTINUOUS
 62
     3
100
AcDbLine
 10
568.9151205070779
 20
355.3622742689206
 30
0.0
 11
568.5315122498572
 21
349.224546396028
 31
0.0
  0
LINE
  5
137
330
1F
100
AcDbEntity
  8
Ｓ_１_１
  6
CONTINUOUS
 62
     3
100
AcDbLine
 10
568.213750483207
 20
355.3622778044546
 30
0.0
 11
567.7450002055706
 21
347.8622712409467
 31
0.0
  0
LINE
  5
138
330
1F
100
AcDbEntity
  8
Ｓ_１_１
  6
CONTINUOUS
 62
     3
100
AcDbLine
 10
568.5315150782843
 20
349.2245449818145
 30
0.0
 11
567.7450051553179
 21
347.8622691196263
 31
0.0
  0
LINE
  5
139
330
1F
100
AcDbEntity
  8
Ｓ_１_１
  6
CONTINUOUS
 62
     3
100
AcDbLine
 10
583.976250994512
 20
355.3622806328817
 30
0.0
 11
584.4450019792554
 21
347.8622563917042
 31
0.0
  0
LINE
  5
13A
330
1F
100
AcDbEntity
  8
Ｓ_１_１
  6
CONTINUOUS
 62
     3
100
AcDbLine
 10
584.444997029508
 20
347.8622740693738
 30
0.0
 11
583.6584906420757
 21
349.2245435676009
 31
0.0
  0
LINE
  5
13B
330
1F
100
AcDbEntity
  8
Ｓ_１_１
  6
CONTINUOUS
 62
     3
100
AcDbLine
 10
583.2748873346021
 20
355.3622778044546
 30
0.0
 11
583.6584962989299
 21
349.2245421533873
 31
0.0
  0
LINE
  5
13C
330
1F
100
AcDbEntity
  8
Ｓ_１_１
  6
CONTINUOUS
 62
     3
100
AcDbLine
 10
588.0950051593537
 20
367.8622738943918
 30
0.0
 11
564.0950161173552
 21
367.8622738943918
 31
0.0
  0
LINE
  5
13D
330
1F
100
AcDbEntity
  8
Ｓ_１_１
  6
CONTINUOUS
 62
     3
100
AcDbLine
 10
588.0950051593537
 20
382.8622742934854
 30
0.0
 11
564.095000561006
 21
382.8622742934854
 31
0.0
  0
LINE
  5
13E
330
1F
100
AcDbEntity
  8
Ｓ_１_１
  6
CONTINUOUS
 62
     3
100
AcDbLine
 10
591.5950048282115
 20
390.3622737859255
 30
0.0
 11
577.8450009268419
 21
390.3622737859255
 31
0.0
  0
LINE
  5
13F
330
1F
100
AcDbEntity
  8
Ｓ_１_１
  6
CONTINUOUS
 62
     3
100
AcDbLine
 10
563.095000958664
 20
390.3622737859255
 30
0.0
 11
563.095000958664
 21
383.4396206163633
 31
0.0
  0
LINE
  5
140
330
1F
100
AcDbEntity
  8
Ｓ_１_１
  6
CONTINUOUS
 62
     3
100
AcDbLine
 10
589.095004761696
 20
390.3622737859255
 30
0.0
 11
589.0950047616958
 21
383.4396206163633
 31
0.0
  0
LINE
  5
141
330
1F
100
AcDbEntity
  8
Ｓ_１_１
  6
CONTINUOUS
 62
     3
100
AcDbLine
 10
564.0950012681127
 20
417.8622745175971
 30
0.0
 11
564.095000561006
 21
417.3622743628725
 31
0.0
  0
LINE
  5
142
330
1F
100
AcDbEntity
  8
Ｓ_１_１
  6
CONTINUOUS
 62
     3
100
AcDbLine
 10
589.095004761696
 20
367.2849275715141
 30
0.0
 11
589.095004761696
 21
355.9396212989052
 31
0.0
  0
LINE
  5
143
330
1F
100
AcDbEntity
  8
Ｓ_１_１
  6
CONTINUOUS
 62
     3
100
AcDbLine
 10
563.095000958664
 20
367.2849120151648
 30
0.0
 11
563.095000958664
 21
355.9396212989052
 31
0.0
  0
LINE
  5
144
330
1F
100
AcDbEntity
  8
Ｓ_１_１
  6
CONTINUOUS
 62
     3
100
AcDbLine
 10
592.0950042758292
 20
414.3622741416325
 30
0.0
 11
592.0950049829361
 21
406.8622746491924
 31
0.0
  0
LINE
  5
145
330
1F
100
AcDbEntity
  8
Ｓ_１_１
  6
CONTINUOUS
 62
     3
100
AcDbLine
 10
560.0950014445306
 20
414.3622741416325
 30
0.0
 11
560.0950014445306
 21
406.8622739420857
 31
0.0
  0
LINE
  5
146
330
1F
100
AcDbEntity
  8
Ｓ_１_１
  6
CONTINUOUS
 62
     3
100
AcDbLine
 10
589.095004761696
 20
417.3622736557656
 30
0.0
 11
563.095000958664
 21
417.3622736557659
 31
0.0
  0
LINE
  5
147
330
1F
100
AcDbEntity
  8
Ｓ_１_１
  6
CONTINUOUS
 62
     3
100
AcDbLine
 10
564.095000561006
 20
382.8622742934854
 30
0.0
 11
564.0950012681127
 21
367.8622746014987
 31
0.0
  0
LINE
  5
148
330
1F
100
AcDbEntity
  8
Ｓ_１_１
  6
CONTINUOUS
 62
     3
100
AcDbLine
 10
588.0950051593537
 20
382.8622742934854
 30
0.0
 11
588.0950051593537
 21
367.8622738943918
 31
0.0
  0
LINE
  5
149
330
1F
100
AcDbEntity
  8
Ｓ_１_１
  6
CONTINUOUS
 62
     3
100
AcDbLine
 10
589.0950125398705
 20
417.3622899192219
 30
0.0
 11
592.0950049829361
 21
414.3622974761563
 31
0.0
  0
LINE
  5
14A
330
1F
100
AcDbEntity
  8
Ｓ_１_１
  6
CONTINUOUS
 62
     3
100
AcDbLine
 10
563.0949995444502
 20
417.3622835552608
 30
0.0
 11
560.0950021516372
 21
414.3622861624478
 31
0.0
  0
LINE
  5
14B
330
1F
100
AcDbEntity
  8
Ｓ_１_１
  6
CONTINUOUS
 62
     3
100
AcDbLine
 10
591.5950048282115
 20
406.362274494468
 30
0.0
 11
591.5950048282115
 21
398.3622748473035
 31
0.0
  0
LINE
  5
14C
330
1F
100
AcDbEntity
  8
Ｓ_１_１
  6
CONTINUOUS
 62
     3
100
AcDbLine
 10
560.5950008921483
 20
406.362274494468
 30
0.0
 11
560.5950015992549
 21
398.3622741401966
 31
0.0
  0
LINE
  5
14D
330
1F
100
AcDbEntity
  8
Ｓ_１_１
  6
CONTINUOUS
 62
     3
100
AcDbLine
 10
591.5950048282115
 20
398.3622748473035
 30
0.0
 11
560.5950015992549
 21
398.3622741401966
 31
0.0
  0
LINE
  5
14E
330
1F
100
AcDbEntity
  8
Ｓ_１_１
  6
CONTINUOUS
 62
     3
100
AcDbLine
 10
591.5950048282115
 20
406.362274494468
 30
0.0
 11
560.5950008921483
 21
406.362274494468
 31
0.0
  0
LINE
  5
14F
330
1F
100
AcDbEntity
  8
Ｓ_１_１
  6
CONTINUOUS
 62
     3
100
AcDbLine
 10
592.0950035687225
 20
397.8622789352196
 30
0.0
 11
591.5950034139979
 21
398.3622790899442
 31
0.0
  0
LINE
  5
150
330
1F
100
AcDbEntity
  8
Ｓ_１_１
  6
CONTINUOUS
 62
     3
100
AcDbLine
 10
560.5950072561092
 20
406.3622822726427
 30
0.0
 11
560.0950063942781
 21
406.862283134474
 31
0.0
  0
LINE
  5
151
330
1F
100
AcDbEntity
  8
Ｓ_１_１
  6
CONTINUOUS
 62
     3
100
AcDbLine
 10
560.5950023063618
 20
398.3622790899442
 30
0.0
 11
560.0950014445306
 21
397.8622782281129
 31
0.0
  0
LINE
  5
152
330
1F
100
AcDbEntity
  8
Ｓ_１_１
  6
CONTINUOUS
 62
     3
100
AcDbLine
 10
592.0950035687225
 20
406.8622774776195
 30
0.0
 11
591.5950027068913
 21
406.3622766157882
 31
0.0
  0
LINE
  5
153
330
1F
100
AcDbEntity
  8
Ｓ_１_１
  6
CONTINUOUS
 62
     3
100
AcDbLine
 10
592.0950049829361
 20
397.8622746925789
 30
0.0
 11
592.0950049829361
 21
390.8622739406499
 31
0.0
  0
LINE
  5
154
330
1F
100
AcDbEntity
  8
Ｓ_１_１
  6
CONTINUOUS
 62
     3
100
AcDbLine
 10
560.0950014445306
 20
397.8622739854723
 30
0.0
 11
560.0950007374239
 21
390.8622739406499
 31
0.0
  0
LINE
  5
155
330
1F
100
AcDbEntity
  8
Ｓ_１_１
  6
CONTINUOUS
 62
     3
100
AcDbLine
 10
592.0949972047614
 20
390.8622760619703
 30
0.0
 11
591.5950019997844
 21
390.3622808569933
 31
0.0
  0
LINE
  5
156
330
1F
100
AcDbEntity
  8
Ｓ_１_１
  6
CONTINUOUS
 62
     3
100
AcDbLine
 10
560.5950001850414
 20
390.3622801498866
 30
0.0
 11
560.095000030317
 21
390.862280304611
 31
0.0
  0
LINE
  5
157
330
1F
100
AcDbEntity
  8
Ｓ_１_１
  6
CONTINUOUS
 62
     3
100
AcDbLine
 10
560.0950014445306
 20
397.8622739854723
 30
0.0
 11
592.0950049829361
 21
397.8622746925789
 31
0.0
  0
LINE
  5
158
330
1F
100
AcDbEntity
  8
Ｓ_１_１
  6
CONTINUOUS
 62
     3
100
AcDbLine
 10
592.0950049829361
 20
390.8622739406499
 30
0.0
 11
577.8450009268419
 21
390.8622746477567
 31
0.0
  0
LINE
  5
159
330
1F
100
AcDbEntity
  8
Ｓ_１_１
  6
CONTINUOUS
 62
     3
100
AcDbLine
 10
592.0950049829361
 20
406.8622746491924
 30
0.0
 11
560.0950014445306
 21
406.8622739420857
 31
0.0
  0
LINE
  5
15A
330
1F
100
AcDbEntity
  8
Ｓ_１_１
  6
CONTINUOUS
 62
     3
100
AcDbLine
 10
592.0950042758292
 20
414.3622741416325
 30
0.0
 11
560.0950014445306
 21
414.3622741416325
 31
0.0
  0
LINE
  5
15B
330
1F
100
AcDbEntity
  8
Ｓ_１_１
  6
CONTINUOUS
 62
     3
100
AcDbLine
 10
577.949922138141
 20
390.862276769077
 30
0.0
 11
577.8449945628807
 21
391.044015939764
 31
0.0
  0
LINE
  5
15C
330
1F
100
AcDbEntity
  8
Ｓ_１_１
  6
CONTINUOUS
 62
     3
100
AcDbLine
 10
560.5950008921483
 20
388.8622740288588
 30
0.0
 11
560.5950008921483
 21
387.8622737194098
 31
0.0
  0
LINE
  5
15D
330
1F
100
AcDbEntity
  8
Ｓ_１_１
  6
CONTINUOUS
 62
     3
100
AcDbLine
 10
591.5950048282115
 20
388.8622740288588
 30
0.0
 11
591.5950048282115
 21
387.8622737194098
 31
0.0
  0
LINE
  5
15E
330
1F
100
AcDbEntity
  8
Ｓ_１_１
  6
CONTINUOUS
 62
     3
100
AcDbLine
 10
591.0950053805938
 20
387.3622742717921
 30
0.0
 11
589.0950047616958
 21
387.3622742717921
 31
0.0
  0
LINE
  5
15F
330
1F
100
AcDbEntity
  8
Ｓ_１_１
  6
CONTINUOUS
 62
     3
100
AcDbLine
 10
591.0950046734871
 20
389.3622741835834
 30
0.0
 11
589.0950054688027
 21
389.3622741835832
 31
0.0
  0
LINE
  5
160
330
1F
100
AcDbEntity
  8
Ｓ_１_１
  6
CONTINUOUS
 62
     3
100
AcDbLine
 10
563.0950016657706
 20
389.3622741835834
 30
0.0
 11
561.0950010468727
 21
389.3622741835832
 31
0.0
  0
LINE
  5
161
330
1F
100
AcDbEntity
  8
Ｓ_１_１
  6
CONTINUOUS
 62
     3
100
AcDbLine
 10
563.095000958664
 20
387.3622742717921
 30
0.0
 11
561.0950010468727
 21
387.3622735646854
 31
0.0
  0
LINE
  5
162
330
1F
100
AcDbEntity
  8
Ｓ_１_１
  6
CONTINUOUS
 62
     3
100
AcDbLine
 10
561.0950081179407
 20
389.3622642840883
 30
0.0
 11
560.5950079632161
 21
388.8622641293639
 31
0.0
  0
LINE
  5
163
330
1F
100
AcDbEntity
  8
Ｓ_１_１
  6
CONTINUOUS
 62
     3
100
AcDbLine
 10
561.0949975113389
 20
387.3622728575785
 30
0.0
 11
560.5950072561092
 21
387.8622631128083
 31
0.0
  0
LINE
  5
164
330
1F
100
AcDbEntity
  8
Ｓ_１_１
  6
CONTINUOUS
 62
     3
100
AcDbLine
 10
591.5950034139979
 20
388.8622697862181
 30
0.0
 11
591.0950032592735
 21
389.3622699409427
 31
0.0
  0
LINE
  5
165
330
1F
100
AcDbEntity
  8
Ｓ_１_１
  6
CONTINUOUS
 62
     3
100
AcDbLine
 10
591.5950034139979
 20
387.8622680625556
 30
0.0
 11
591.0950032592735
 21
387.3622679078312
 31
0.0
  0
LINE
  5
166
330
1F
100
AcDbEntity
  8
Ｓ_１_１
  6
CONTINUOUS
 62
     3
100
AcDbLine
 10
574.3450005508772
 20
393.8622741618901
 30
0.0
 11
574.3450012579841
 21
390.3622744930324
 31
0.0
  0
LINE
  5
167
330
1F
100
AcDbEntity
  8
Ｓ_１_１
  6
CONTINUOUS
 62
     3
100
AcDbLine
 10
577.8450009268419
 20
393.8622741618901
 30
0.0
 11
577.8450009268419
 21
390.3622737859255
 31
0.0
  0
LINE
  5
168
330
1F
100
AcDbEntity
  8
Ｓ_１_１
  6
CONTINUOUS
 62
     3
100
AcDbLine
 10
577.8450009268419
 20
393.8622741618901
 30
0.0
 11
574.3450005508772
 21
393.8622741618901
 31
0.0
  0
LINE
  5
169
330
1F
100
AcDbEntity
  8
Ｓ_１_１
  6
CONTINUOUS
 62
     3
100
AcDbLine
 10
574.3450012579841
 20
390.3622744930324
 30
0.0
 11
560.5950008921483
 21
390.3622737859255
 31
0.0
  0
LINE
  5
16A
330
1F
100
AcDbEntity
  8
Ｓ_１_１
  6
CONTINUOUS
 62
     3
100
AcDbLine
 10
574.3450012579841
 20
390.8622739406499
 30
0.0
 11
560.0950007374239
 21
390.8622739406499
 31
0.0
  0
LINE
  5
16B
330
1F
100
AcDbEntity
  8
Ｓ_１_１
  6
CONTINUOUS
 62
     3
100
AcDbLine
 10
574.3450047935179
 20
391.0439911910266
 30
0.0
 11
574.2400885319661
 21
390.8622718193296
 31
0.0
  0
LINE
  5
16C
330
1F
100
AcDbEntity
  8
Ｓ_１_１
  6
CONTINUOUS
 62
     3
100
AcDbLine
 10
581.0950008718906
 20
367.2849275715141
 30
0.0
 11
581.0950008718906
 21
355.9396212989052
 31
0.0
  0
LINE
  5
16D
330
1F
100
AcDbEntity
  8
Ｓ_１_１
  6
CONTINUOUS
 62
     3
100
AcDbLine
 10
571.0950006058282
 20
367.2849275715141
 30
0.0
 11
571.0950013129351
 21
355.9396205917983
 31
0.0
  0
LINE
  5
16E
330
1F
100
AcDbEntity
  8
Ｓ_１_１
  6
CONTINUOUS
 62
     3
100
AcDbLine
 10
564.0950033894331
 20
355.3622735618139
 30
0.0
 11
563.0950023728775
 21
355.9396241273323
 31
0.0
  0
LINE
  5
16F
330
1F
100
AcDbEntity
  8
Ｓ_１_１
  6
CONTINUOUS
 62
     3
100
AcDbLine
 10
589.0950040545891
 20
367.2849282786208
 30
0.0
 11
588.0950101091013
 21
367.8622746014987
 31
0.0
  0
LINE
  5
170
330
1F
100
AcDbEntity
  8
Ｓ_１_１
  6
CONTINUOUS
 62
     3
100
AcDbLine
 10
564.0950048036467
 20
382.8622757076989
 30
0.0
 11
563.0950108581586
 21
383.4396220305769
 31
0.0
  0
LINE
  5
171
330
1F
100
AcDbEntity
  8
Ｓ_１_１
  6
CONTINUOUS
 62
     3
100
AcDbLine
 10
589.0950068830163
 20
355.9396163491576
 30
0.0
 11
588.0950122304215
 21
355.362269319173
 31
0.0
  0
LINE
  5
172
330
1F
100
AcDbEntity
  8
Ｓ_１_１
  6
CONTINUOUS
 62
     3
100
AcDbLine
 10
564.0950083391807
 20
367.8622661162171
 30
0.0
 11
563.095000958664
 21
367.2849120151648
 31
0.0
  0
LINE
  5
173
330
1F
100
AcDbEntity
  8
Ｓ_１_１
  6
CONTINUOUS
 62
     3
100
AcDbLine
 10
589.0950047616958
 20
383.4396220305769
 30
0.0
 11
588.0949980882859
 21
382.8622672224176
 31
0.0
  0
LINE
  5
174
330
1F
100
AcDbEntity
  8
Ｓ_１_１
  6
CONTINUOUS
 62
     3
100
AcDbLine
 10
589.0950047616958
 20
383.4396206163633
 30
0.0
 11
563.095000958664
 21
383.4396206163633
 31
0.0
  0
LINE
  5
175
330
1F
100
AcDbEntity
  8
Ｓ_１_１
  6
CONTINUOUS
 62
     3
100
AcDbLine
 10
589.095004761696
 20
367.2849275715141
 30
0.0
 11
581.0950008718906
 21
367.2849275715141
 31
0.0
  0
LINE
  5
176
330
1F
100
AcDbEntity
  8
Ｓ_１_１
  6
CONTINUOUS
 62
     3
100
AcDbLine
 10
589.095004761696
 20
355.9396212989052
 30
0.0
 11
581.0950008718906
 21
355.9396212989052
 31
0.0
  0
LINE
  5
177
330
1F
100
AcDbEntity
  8
Ｓ_１_１
  6
CONTINUOUS
 62
     3
100
AcDbLine
 10
571.0950006058282
 20
367.2849275715141
 30
0.0
 11
563.095000958664
 21
367.2849275715141
 31
0.0
  0
LINE
  5
178
330
1F
100
AcDbEntity
  8
Ｓ_１_１
  6
CONTINUOUS
 62
     3
100
AcDbLine
 10
571.0950013129351
 20
355.9396205917983
 30
0.0
 11
563.095000958664
 21
355.9396212989052
 31
0.0
  0
LINE
  5
179
330
1F
100
AcDbEntity
  8
Ｓ_１_１
  6
CONTINUOUS
 62
     3
100
AcDbLine
 10
588.0950200085962
 20
355.3622742689206
 30
0.0
 11
564.0950012681127
 21
355.3622742689206
 31
0.0
  0
ARC
  5
17A
330
1F
100
AcDbEntity
  8
Ｓ_１_１
  6
CONTINUOUS
 62
     3
100
AcDbCircle
 10
567.001725619633
 20
344.2295235876297
 30
0.0
 40
5.367246000000002
100
AcDbArc
 50
235.6159330000001
 51
304.3842240000001
  0
ARC
  5
17B
330
1F
100
AcDbEntity
  8
Ｓ_１_１
  6
CONTINUOUS
 62
     3
100
AcDbCircle
 10
576.0949873038306
 20
327.8000785460963
 30
0.0
 40
20.062197
100
AcDbArc
 50
72.4120460000003
 51
107.5879310000003
  0
ARC
  5
17C
330
1F
100
AcDbEntity
  8
Ｓ_１_１
  6
CONTINUOUS
 62
     3
100
AcDbCircle
 10
567.001729155167
 20
342.4950238873978
 30
0.0
 40
5.367246000000002
100
AcDbArc
 50
55.61584000000011
 51
124.384124
  0
ARC
  5
17D
330
1F
100
AcDbEntity
  8
Ｓ_１_１
  6
CONTINUOUS
 62
     3
100
AcDbCircle
 10
585.1882793936201
 20
342.4950253016113
 30
0.0
 40
5.367246000000002
100
AcDbArc
 50
55.6159210000001
 51
124.3842060000003
  0
ARC
  5
17E
330
1F
100
AcDbEntity
  8
Ｓ_１_１
  6
CONTINUOUS
 62
     3
100
AcDbCircle
 10
576.0949858896171
 20
358.9244710502514
 30
0.0
 40
20.062197
100
AcDbArc
 50
252.4121270000001
 51
287.588011
  0
ARC
  5
17F
330
1F
100
AcDbEntity
  8
Ｓ_１_１
  6
CONTINUOUS
 62
     3
100
AcDbCircle
 10
585.1882801007267
 20
344.2295221734162
 30
0.0
 40
5.367246000000002
100
AcDbArc
 50
235.615851
 51
304.3841430000001
  0
ARC
  5
180
330
1F
100
AcDbEntity
  8
Ｓ_１_１
  6
CONTINUOUS
 62
     3
100
AcDbCircle
 10
576.0950035672867
 20
377.3017117241347
 30
0.0
 40
21.93943800000001
100
AcDbArc
 50
256.8265330000001
 51
283.1735230000001
  0
ARC
  5
181
330
1F
100
AcDbEntity
  8
Ｓ_１_１
  6
CONTINUOUS
 62
     3
100
AcDbCircle
 10
576.0950035672867
 20
345.9228343178575
 30
0.0
 40
21.93943800000001
100
AcDbArc
 50
76.82650700000033
 51
103.1734700000002
  0
LINE
  5
182
330
1F
100
AcDbEntity
  8
Ｓ_１_１
  6
CONTINUOUS
 62
     3
100
AcDbLine
 10
564.0950028601754
 20
417.8622736557672
 30
0.0
 11
588.0950028601754
 21
417.862273655767
 31
0.0
  0
LINE
  5
183
330
1F
100
AcDbEntity
  8
Ｓ_１_１
  6
CONTINUOUS
 62
     3
100
AcDbLine
 10
588.0950029644836
 20
417.3622809752119
 30
0.0
 11
588.095002964484
 21
417.8622745379098
 31
0.0
  0
LINE
  5
184
330
1F
100
AcDbEntity
  8
Ｓ_１_１
  6
CONTINUOUS
 62
     3
100
AcDbLine
 10
584.2648694597375
 20
337.4999929720964
 30
0.0
 11
567.7351496055638
 21
337.4999929720964
 31
0.0
  0
LINE
  5
185
330
1F
100
AcDbEntity
  8
Ｓ_１_１
  6
CONTINUOUS
 62
     3
100
AcDbLine
 10
568.4365175081144
 20
337.4999887294557
 30
0.0
 11
567.650007585148
 21
338.8622645916439
 31
0.0
  0
ARC
  5
186
330
1F
100
AcDbEntity
  8
Ｓ_１_１
  6
CONTINUOUS
 62
     3
100
AcDbCircle
 10
509.3923012599577
 20
356.2283682186678
 30
0.0
 40
6.133925000000002
100
AcDbArc
 50
55.61543800000034
 51
124.3845830000003
  0
ARC
  5
187
330
1F
100
AcDbEntity
  8
Ｓ_１_１
  6
CONTINUOUS
 62
     3
100
AcDbCircle
 10
498.9999972599577
 20
339.4340562186678
 30
0.0
 40
22.927938
100
AcDbArc
 50
72.411858
 51
107.5881660000001
  0
ARC
  5
188
330
1F
100
AcDbEntity
  8
Ｓ_１_１
  6
CONTINUOUS
 62
     3
100
AcDbCircle
 10
488.607663259958
 20
361.4960682186677
 30
0.0
 40
6.133925000000002
100
AcDbArc
 50
235.6154019999991
 51
304.3845609999998
  0
ARC
  5
189
330
1F
100
AcDbEntity
  8
Ｓ_１_１
  6
CONTINUOUS
 62
     3
100
AcDbCircle
 10
494.4999972599581
 20
399.3620352186679
 30
0.0
 40
1.0
100
AcDbArc
 50
89.99997799999524
 51
179.9999749999977
  0
ARC
  5
18A
330
1F
100
AcDbEntity
  8
Ｓ_１_１
  6
CONTINUOUS
 62
     3
100
AcDbCircle
 10
488.607663259958
 20
356.2283682186678
 30
0.0
 40
6.133925000000002
100
AcDbArc
 50
55.61536899999965
 51
124.384513999999
  0
ARC
  5
18B
330
1F
100
AcDbEntity
  8
Ｓ_１_１
  6
CONTINUOUS
 62
     3
100
AcDbCircle
 10
498.9999972599577
 20
378.290135218668
 30
0.0
 40
22.927942
100
AcDbArc
 50
252.4118210000001
 51
287.5881150000001
  0
ARC
  5
18C
330
1F
100
AcDbEntity
  8
Ｓ_１_１
  6
CONTINUOUS
 62
     3
100
AcDbCircle
 10
509.3923012599577
 20
361.4960682186677
 30
0.0
 40
6.133925000000002
100
AcDbArc
 50
235.6154159999999
 51
304.3845739999999
  0
ARC
  5
18D
330
1F
100
AcDbEntity
  8
Ｓ_１_１
  6
CONTINUOUS
 62
     3
100
AcDbCircle
 10
503.4999672599575
 20
399.3620352186679
 30
0.0
 40
1.0
100
AcDbArc
 50
359.9999970000025
 51
89.99997800000166
  0
LINE
  5
18E
330
1F
100
AcDbEntity
  8
Ｓ_１_１
  6
CONTINUOUS
 62
     3
100
AcDbLine
 10
497.5000282599577
 20
402.3621572186678
 30
0.0
 11
500.4999972599577
 21
402.3621572186678
 31
0.0
  0
LINE
  5
18F
330
1F
100
AcDbEntity
  8
Ｓ_１_１
  6
CONTINUOUS
 62
     3
100
AcDbLine
 10
486.9999972599581
 20
355.3622792186677
 30
0.0
 11
510.9999672599575
 21
355.3622792186677
 31
0.0
  0
LINE
  5
190
330
1F
100
AcDbEntity
  8
Ｓ_１_１
  6
CONTINUOUS
 62
     3
100
AcDbLine
 10
493.499967259958
 20
399.3620352186679
 30
0.0
 11
493.499967259958
 21
390.3622792186677
 31
0.0
  0
LINE
  5
191
330
1F
100
AcDbEntity
  8
Ｓ_１_１
  6
CONTINUOUS
 62
     3
100
AcDbLine
 10
493.499967259958
 20
390.3622792186677
 30
0.0
 11
504.4999972599577
 21
390.3622792186677
 31
0.0
  0
LINE
  5
192
330
1F
100
AcDbEntity
  8
Ｓ_１_１
  6
CONTINUOUS
 62
     3
100
AcDbLine
 10
490.0000282599582
 20
386.8620352186679
 30
0.0
 11
490.0000282599582
 21
384.8621572186678
 31
0.0
  0
LINE
  5
193
330
1F
100
AcDbEntity
  8
Ｓ_１_１
  6
CONTINUOUS
 62
     3
100
AcDbLine
 10
507.9999972599577
 20
386.8620352186679
 30
0.0
 11
507.9999972599577
 21
384.8621572186678
 31
0.0
  0
LINE
  5
194
330
1F
100
AcDbEntity
  8
Ｓ_１_１
  6
CONTINUOUS
 62
     3
100
AcDbLine
 10
487.7499972599581
 20
371.3621572186678
 30
0.0
 11
510.2499972599577
 21
371.3621572186678
 31
0.0
  0
LINE
  5
195
330
1F
100
AcDbEntity
  8
Ｓ_１_１
  6
CONTINUOUS
 62
     3
100
AcDbLine
 10
510.7499972599577
 20
370.8621572186678
 30
0.0
 11
510.7499972599577
 21
362.3621572186678
 31
0.0
  0
LINE
  5
196
330
1F
100
AcDbEntity
  8
Ｓ_１_１
  6
CONTINUOUS
 62
     3
100
AcDbLine
 10
487.249967259958
 20
370.8621572186678
 30
0.0
 11
487.249967259958
 21
362.3621572186678
 31
0.0
  0
LINE
  5
197
330
1F
100
AcDbEntity
  8
Ｓ_１_１
  6
CONTINUOUS
 62
     3
100
AcDbLine
 10
485.1436292599579
 20
356.4341312186677
 30
0.0
 11
487.0000012599581
 21
355.3623542186681
 31
0.0
  0
LINE
  5
198
330
1F
100
AcDbEntity
  8
Ｓ_１_１
  6
CONTINUOUS
 62
     3
100
AcDbLine
 10
510.9999242599575
 20
362.3623482186679
 30
0.0
 11
512.8564022599577
 21
361.2905092186677
 31
0.0
  0
LINE
  5
199
330
1F
100
AcDbEntity
  8
Ｓ_１_１
  6
CONTINUOUS
 62
     3
100
AcDbLine
 10
510.9999662599577
 20
355.362312218668
 30
0.0
 11
512.8563392599577
 21
356.4340892186681
 31
0.0
  0
LINE
  5
19A
330
1F
100
AcDbEntity
  8
Ｓ_１_１
  6
CONTINUOUS
 62
     3
100
AcDbLine
 10
485.143636259958
 20
361.2906492186678
 30
0.0
 11
487.0000092599581
 21
362.3624262186679
 31
0.0
  0
LINE
  5
19B
330
1F
100
AcDbEntity
  8
Ｓ_１_１
  6
CONTINUOUS
 62
     3
100
AcDbLine
 10
512.8564122599574
 20
361.2903792186678
 30
0.0
 11
512.8564122599574
 21
356.4340562186678
 31
0.0
  0
LINE
  5
19C
330
1F
100
AcDbEntity
  8
Ｓ_１_１
  6
CONTINUOUS
 62
     3
100
AcDbLine
 10
505.9282202599576
 20
361.2903792186678
 30
0.0
 11
505.9282202599576
 21
356.4340562186678
 31
0.0
  0
LINE
  5
19D
330
1F
100
AcDbEntity
  8
Ｓ_１_１
  6
CONTINUOUS
 62
     3
100
AcDbLine
 10
492.071866259958
 20
361.2903792186678
 30
0.0
 11
492.071866259958
 21
356.4340562186678
 31
0.0
  0
LINE
  5
19E
330
1F
100
AcDbEntity
  8
Ｓ_１_１
  6
CONTINUOUS
 62
     3
100
AcDbLine
 10
485.1435982599579
 20
361.2903792186678
 30
0.0
 11
485.1435982599579
 21
356.4340562186678
 31
0.0
  0
LINE
  5
19F
330
1F
100
AcDbEntity
  8
Ｓ_１_１
  6
CONTINUOUS
 62
     3
100
AcDbLine
 10
486.9999972599581
 20
362.3621572186678
 30
0.0
 11
510.9999672599575
 21
362.3621572186678
 31
0.0
  0
LINE
  5
1A0
330
1F
100
AcDbEntity
  8
Ｓ_１_１
  6
CONTINUOUS
 62
     3
100
AcDbLine
 10
494.4999972599581
 20
400.3622792186682
 30
0.0
 11
503.4999672599575
 21
400.3622792186682
 31
0.0
  0
LINE
  5
1A1
330
1F
100
AcDbEntity
  8
Ｓ_１_１
  6
CONTINUOUS
 62
     3
100
AcDbLine
 10
500.4998562599577
 20
402.3623442186679
 30
0.0
 11
502.4999012599575
 21
400.3622992186681
 31
0.0
  0
LINE
  5
1A2
330
1F
100
AcDbEntity
  8
Ｓ_１_１
  6
CONTINUOUS
 62
     3
100
AcDbLine
 10
495.4998292599581
 20
400.3623422186677
 30
0.0
 11
497.4997882599574
 21
402.3623012186679
 31
0.0
  0
LINE
  5
1A3
330
1F
100
AcDbEntity
  8
Ｓ_１_１
  6
CONTINUOUS
 62
     3
100
AcDbLine
 10
491.4999972599581
 20
381.8620352186679
 30
0.0
 11
506.4999972599577
 21
381.8620352186679
 31
0.0
  0
LINE
  5
1A4
330
1F
100
AcDbEntity
  8
Ｓ_１_１
  6
CONTINUOUS
 62
     3
100
AcDbLine
 10
491.4999972599581
 20
383.3621572186678
 30
0.0
 11
506.4999972599577
 21
383.3621572186678
 31
0.0
  0
LINE
  5
1A5
330
1F
100
AcDbEntity
  8
Ｓ_１_１
  6
CONTINUOUS
 62
     3
100
AcDbLine
 10
490.0000282599582
 20
386.8620352186679
 30
0.0
 11
507.9999972599577
 21
386.8620352186679
 31
0.0
  0
LINE
  5
1A6
330
1F
100
AcDbEntity
  8
Ｓ_１_１
  6
CONTINUOUS
 62
     3
100
AcDbLine
 10
507.9999972599577
 20
380.3622792186677
 30
0.0
 11
507.9999972599577
 21
371.3621572186678
 31
0.0
  0
LINE
  5
1A7
330
1F
100
AcDbEntity
  8
Ｓ_１_１
  6
CONTINUOUS
 62
     3
100
AcDbLine
 10
490.0000282599582
 20
380.3622792186677
 30
0.0
 11
490.0000282599582
 21
371.3621572186678
 31
0.0
  0
LINE
  5
1A8
330
1F
100
AcDbEntity
  8
Ｓ_１_１
  6
CONTINUOUS
 62
     3
100
AcDbLine
 10
489.999885259958
 20
384.8621782186681
 30
0.0
 11
491.4998972599579
 21
383.3621652186678
 31
0.0
  0
LINE
  5
1A9
330
1F
100
AcDbEntity
  8
Ｓ_１_１
  6
CONTINUOUS
 62
     3
100
AcDbLine
 10
506.4999632599576
 20
383.3621642186679
 30
0.0
 11
507.9998462599575
 21
384.8620472186678
 31
0.0
  0
LINE
  5
1AA
330
1F
100
AcDbEntity
  8
Ｓ_１_１
  6
CONTINUOUS
 62
     3
100
AcDbLine
 10
490.0000282599582
 20
384.8621572186678
 30
0.0
 11
507.9999972599577
 21
384.8621572186678
 31
0.0
  0
LINE
  5
1AB
330
1F
100
AcDbEntity
  8
Ｓ_１_１
  6
CONTINUOUS
 62
     3
100
AcDbLine
 10
489.9999992599579
 20
380.362312218668
 30
0.0
 11
491.4998822599579
 21
381.8621952186679
 31
0.0
  0
LINE
  5
1AC
330
1F
100
AcDbEntity
  8
Ｓ_１_１
  6
CONTINUOUS
 62
     3
100
AcDbLine
 10
506.4998492599576
 20
381.8621532186678
 30
0.0
 11
507.9998622599575
 21
380.3621412186678
 31
0.0
  0
LINE
  5
1AD
330
1F
100
AcDbEntity
  8
Ｓ_１_１
  6
CONTINUOUS
 62
     3
100
AcDbLine
 10
487.249967259958
 20
370.8621572186678
 30
0.0
 11
510.7499972599577
 21
370.8621572186678
 31
0.0
  0
LINE
  5
1AE
330
1F
100
AcDbEntity
  8
Ｓ_１_１
  6
CONTINUOUS
 62
     3
100
AcDbLine
 10
490.0000282599582
 20
380.3622792186677
 30
0.0
 11
507.9999972599577
 21
380.3622792186677
 31
0.0
  0
LINE
  5
1AF
330
1F
100
AcDbEntity
  8
Ｓ_１_１
  6
CONTINUOUS
 62
     3
100
AcDbLine
 10
491.4999972599581
 20
383.3621572186678
 30
0.0
 11
491.4999972599581
 21
381.8620352186679
 31
0.0
  0
LINE
  5
1B0
330
1F
100
AcDbEntity
  8
Ｓ_１_１
  6
CONTINUOUS
 62
     3
100
AcDbLine
 10
506.4999972599577
 20
383.3621572186678
 30
0.0
 11
506.4999972599577
 21
381.8620352186679
 31
0.0
  0
LINE
  5
1B1
330
1F
100
AcDbEntity
  8
Ｓ_１_１
  6
CONTINUOUS
 62
     3
100
AcDbLine
 10
510.2498932599575
 20
371.3622462186679
 30
0.0
 11
510.7498402599578
 21
370.862300218668
 31
0.0
  0
LINE
  5
1B2
330
1F
100
AcDbEntity
  8
Ｓ_１_１
  6
CONTINUOUS
 62
     3
100
AcDbLine
 10
487.2499222599582
 20
370.8622482186677
 30
0.0
 11
487.7498202599583
 21
371.3621572186678
 31
0.0
  0
LINE
  5
1B3
330
1F
100
AcDbEntity
  8
Ｓ_１_１
  6
CONTINUOUS
 62
     3
100
AcDbLine
 10
489.9999562599579
 20
386.8622662186679
 30
0.0
 11
493.4999702599581
 21
390.362280218668
 31
0.0
  0
LINE
  5
1B4
330
1F
100
AcDbEntity
  8
Ｓ_１_１
  6
CONTINUOUS
 62
     3
100
AcDbLine
 10
504.4998472599578
 20
390.3620662186679
 30
0.0
 11
507.9998182599576
 21
386.8620942186678
 31
0.0
  0
LINE
  5
1B5
330
1F
100
AcDbEntity
  8
Ｓ_１_１
  6
CONTINUOUS
 62
     3
100
AcDbLine
 10
504.4999972599577
 20
399.3620352186679
 30
0.0
 11
504.4999972599577
 21
390.3622792186677
 31
0.0
  0
LINE
  5
1B6
330
1F
100
AcDbEntity
  8
Ｓ_１_１
  6
CONTINUOUS
 62
     3
100
AcDbLine
 10
509.5000061660252
 20
338.8622797696173
 30
0.0
 11
488.4999791615004
 21
338.8622790625104
 31
0.0
  0
LINE
  5
1B7
330
1F
100
AcDbEntity
  8
Ｓ_１_１
  6
CONTINUOUS
 62
     3
100
AcDbLine
 10
509.5000139441996
 20
347.8622790191239
 30
0.0
 11
488.4999876467817
 21
347.8622790191239
 31
0.0
  0
LINE
  5
1B8
330
1F
100
AcDbEntity
  8
Ｓ_１_１
  6
CONTINUOUS
 62
     3
100
AcDbLine
 10
492.9378074831781
 20
346.9244581444786
 30
0.0
 11
492.9378074831781
 21
339.8000999371557
 31
0.0
  0
LINE
  5
1B9
330
1F
100
AcDbEntity
  8
Ｓ_１_１
  6
CONTINUOUS
 62
     3
100
AcDbLine
 10
505.0621594595713
 20
346.9244588515853
 30
0.0
 11
505.0621587524644
 21
339.8000999371557
 31
0.0
  0
LINE
  5
1BA
330
1F
100
AcDbEntity
  8
Ｓ_１_１
  6
CONTINUOUS
 62
     3
100
AcDbLine
 10
511.124342165282
 20
346.9244737008278
 30
0.0
 11
511.124342165282
 21
339.8000843808065
 31
0.0
  0
LINE
  5
1BB
330
1F
100
AcDbEntity
  8
Ｓ_１_１
  6
CONTINUOUS
 62
     3
100
AcDbLine
 10
486.8756205348265
 20
346.9244588515853
 30
0.0
 11
486.8756205348267
 21
339.800099230049
 31
0.0
  0
LINE
  5
1BC
330
1F
100
AcDbEntity
  8
Ｓ_１_１
  6
CONTINUOUS
 62
     3
100
AcDbLine
 10
488.4999862325682
 20
347.8622747764832
 30
0.0
 11
486.875625484574
 21
346.924453901838
 31
0.0
  0
LINE
  5
1BD
330
1F
100
AcDbEntity
  8
Ｓ_１_１
  6
CONTINUOUS
 62
     3
100
AcDbLine
 10
488.4999819899275
 20
338.8622818909375
 30
0.0
 11
486.87562194904
 21
339.8001034726897
 31
0.0
  0
LINE
  5
1BE
330
1F
100
AcDbEntity
  8
Ｓ_１_１
  6
CONTINUOUS
 62
     3
100
AcDbLine
 10
509.5000068731318
 20
347.8622860901917
 30
0.0
 11
511.1243704495531
 21
346.9244623871193
 31
0.0
  0
LINE
  5
1BF
330
1F
100
AcDbEntity
  8
Ｓ_１_１
  6
CONTINUOUS
 62
     3
100
AcDbLine
 10
509.5000047518114
 20
338.8622811838309
 30
0.0
 11
511.1243654998058
 21
339.8001034726897
 31
0.0
  0
LINE
  5
1C0
330
1F
100
AcDbEntity
  8
Ｓ_１_１
  6
CONTINUOUS
 62
     3
100
AcDbLine
 10
507.2648607225775
 20
349.2245456889239
 30
0.0
 11
490.7351408684038
 21
349.2245456889239
 31
0.0
  0
LINE
  5
1C1
330
1F
100
AcDbEntity
  8
Ｓ_１_１
  6
CONTINUOUS
 62
     3
100
AcDbLine
 10
491.8201141997482
 20
355.3622792186707
 30
0.0
 11
491.4365059425273
 21
349.2245513457781
 31
0.0
  0
LINE
  5
1C2
330
1F
100
AcDbEntity
  8
Ｓ_１_１
  6
CONTINUOUS
 62
     3
100
AcDbLine
 10
491.1187441758774
 20
355.3622827542047
 30
0.0
 11
490.6499938982407
 21
347.8622761906968
 31
0.0
  0
LINE
  5
1C3
330
1F
100
AcDbEntity
  8
Ｓ_１_１
  6
CONTINUOUS
 62
     3
100
AcDbLine
 10
491.4365087709544
 20
349.2245499315645
 30
0.0
 11
490.6499988479881
 21
347.8622740693763
 31
0.0
  0
LINE
  5
1C4
330
1F
100
AcDbEntity
  8
Ｓ_１_１
  6
CONTINUOUS
 62
     3
100
AcDbLine
 10
506.8812446871822
 20
355.3622855826318
 30
0.0
 11
507.3499956719255
 21
347.8622613414543
 31
0.0
  0
LINE
  5
1C5
330
1F
100
AcDbEntity
  8
Ｓ_１_１
  6
CONTINUOUS
 62
     3
100
AcDbLine
 10
507.3499907221782
 20
347.8622790191239
 30
0.0
 11
506.5634843347458
 21
349.224548517351
 31
0.0
  0
LINE
  5
1C6
330
1F
100
AcDbEntity
  8
Ｓ_１_１
  6
CONTINUOUS
 62
     3
100
AcDbLine
 10
506.1798810272725
 20
355.3622827542047
 30
0.0
 11
506.5634899916
 21
349.2245471031374
 31
0.0
  0
ARC
  5
1C7
330
1F
100
AcDbEntity
  8
Ｓ_１_１
  6
CONTINUOUS
 62
     3
100
AcDbCircle
 10
489.9067193123032
 20
344.2295285373798
 30
0.0
 40
5.367246000000002
100
AcDbArc
 50
235.6159330000001
 51
304.3842240000001
  0
ARC
  5
1C8
330
1F
100
AcDbEntity
  8
Ｓ_１_１
  6
CONTINUOUS
 62
     3
100
AcDbCircle
 10
498.999980996501
 20
327.8000834958464
 30
0.0
 40
20.062197
100
AcDbArc
 50
72.4120460000003
 51
107.5879310000003
  0
ARC
  5
1C9
330
1F
100
AcDbEntity
  8
Ｓ_１_１
  6
CONTINUOUS
 62
     3
100
AcDbCircle
 10
489.9067228478372
 20
342.4950288371479
 30
0.0
 40
5.367246000000002
100
AcDbArc
 50
55.61584000000011
 51
124.384124
  0
ARC
  5
1CA
330
1F
100
AcDbEntity
  8
Ｓ_１_１
  6
CONTINUOUS
 62
     3
100
AcDbCircle
 10
508.0932730862902
 20
342.4950302513614
 30
0.0
 40
5.367246000000002
100
AcDbArc
 50
55.6159210000001
 51
124.3842060000003
  0
ARC
  5
1CB
330
1F
100
AcDbEntity
  8
Ｓ_１_１
  6
CONTINUOUS
 62
     3
100
AcDbCircle
 10
498.9999795822872
 20
358.9244760000015
 30
0.0
 40
20.062197
100
AcDbArc
 50
252.4121270000001
 51
287.588011
  0
ARC
  5
1CC
330
1F
100
AcDbEntity
  8
Ｓ_１_１
  6
CONTINUOUS
 62
     3
100
AcDbCircle
 10
508.0932737933969
 20
344.2295271231662
 30
0.0
 40
5.367246000000002
100
AcDbArc
 50
235.615851
 51
304.3841430000001
  0
LINE
  5
1CD
330
1F
100
AcDbEntity
  8
Ｓ_１_１
  6
CONTINUOUS
 62
     3
100
AcDbLine
 10
507.2648607225775
 20
337.5000123927164
 30
0.0
 11
490.7351408684038
 21
337.5000123927164
 31
0.0
  0
LINE
  5
1CE
330
1F
100
AcDbEntity
  8
Ｓ_１_１
  6
CONTINUOUS
 62
     3
100
AcDbLine
 10
491.4365087709544
 20
337.5000081500757
 30
0.0
 11
490.6499988479881
 21
338.8622840122639
 31
0.0
  0
LINE
  5
1CF
330
1F
100
AcDbEntity
  8
Ｓ_１_１
  6
CONTINUOUS
 62
     3
100
AcDbLine
 10
507.3499907221782
 20
338.8622790625163
 30
0.0
 11
506.5634843347458
 21
337.5000095642893
 31
0.0
  0
LINE
  5
1D0
330
1F
100
AcDbEntity
  8
Ｓ_１_１
  6
EXLTYPE2
 62
     1
100
AcDbLine
 10
576.0000000000001
 20
423.8
 30
0.0
 11
576.0000000000001
 21
302.96
 31
0.0
  0
LINE
  5
1D1
330
1F
100
AcDbEntity
  8
Ｓ_１_１
  6
CONTINUOUS
 62
     3
100
AcDbLine
 10
446.0000000000001
 20
138.999999999999
 30
0.0
 11
446.0000000000001
 21
317.00000041992
 31
0.0
  0
LINE
  5
1D2
330
1F
100
AcDbEntity
  8
Ｓ_１_１
  6
CONTINUOUS
 62
     3
100
AcDbLine
 10
443.99999880101
 20
288.00000071965
 30
0.0
 11
446.0000000000001
 21
288.00000071965
 31
0.0
  0
LINE
  5
1D3
330
1F
100
AcDbEntity
  8
Ｓ_１_１
  6
CONTINUOUS
 62
     3
100
AcDbLine
 10
443.99999880101
 20
167.99999928035
 30
0.0
 11
446.0000000000001
 21
167.99999928035
 31
0.0
  0
LINE
  5
1D4
330
1F
100
AcDbEntity
  8
Ｓ_１_１
  6
CONTINUOUS
 62
     3
100
AcDbLine
 10
443.99999880101
 20
167.99999928035
 30
0.0
 11
443.99999880101
 21
288.0000007196468
 31
0.0
  0
LINE
  5
1D5
330
1F
100
AcDbEntity
  8
Ｓ_１_１
  6
CONTINUOUS
 62
     3
100
AcDbLine
 10
441.0000000000002
 20
169.7320494267699
 30
0.0
 11
441.0000000000001
 21
286.2679443359365
 31
0.0
  0
LINE
  5
1D6
330
1F
100
AcDbEntity
  8
Ｓ_１_１
  6
CONTINUOUS
 62
     3
100
AcDbLine
 10
437.0
 20
173.0
 30
0.0
 11
437.0
 21
283.0
 31
0.0
  0
LINE
  5
1D7
330
1F
100
AcDbEntity
  8
Ｓ_１_１
  6
CONTINUOUS
 62
     3
100
AcDbLine
 10
441.0000000000001
 20
283.0
 30
0.0
 11
437.0000000000001
 21
283.0
 31
0.0
  0
LINE
  5
1D8
330
1F
100
AcDbEntity
  8
Ｓ_１_１
  6
CONTINUOUS
 62
     3
100
AcDbLine
 10
441.0000000000002
 20
172.999999999998
 30
0.0
 11
437.0000000000001
 21
172.999999999998
 31
0.0
  0
LINE
  5
1D9
330
1F
100
AcDbEntity
  8
Ｓ_１_１
  6
CONTINUOUS
 62
     3
100
AcDbLine
 10
635.00000007761
 20
138.0
 30
0.0
 11
635.00000007761
 21
317.9999999999991
 31
0.0
  0
LINE
  5
1DA
330
1F
100
AcDbEntity
  8
Ｓ_１_１
  6
CONTINUOUS
 62
     3
100
AcDbLine
 10
484.0
 20
323.00000125469
 30
0.0
 11
514.0000000000001
 21
323.00000125469
 31
0.0
  0
LINE
  5
1DB
330
1F
100
AcDbEntity
  8
Ｓ_１_１
  6
CONTINUOUS
 62
     3
100
AcDbLine
 10
484.0
 20
332.0000000194
 30
0.0
 11
514.0000000000001
 21
332.0000000194
 31
0.0
  0
LINE
  5
1DC
330
1F
100
AcDbEntity
  8
Ｓ_１_１
  6
CONTINUOUS
 62
     3
100
AcDbLine
 10
561.0
 20
332.00000054766
 30
0.0
 11
591.0000000000001
 21
332.00000054766
 31
0.0
  0
LINE
  5
1DD
330
1F
100
AcDbEntity
  8
Ｓ_１_１
  6
CONTINUOUS
 62
     3
100
AcDbLine
 10
560.99999556562
 20
322.99999599987
 30
0.0
 11
591.0000000000001
 21
322.99999599987
 31
0.0
  0
LINE
  5
1DE
330
1F
100
AcDbEntity
  8
Ｓ_１_１
  6
CONTINUOUS
 62
     3
100
AcDbLine
 10
485.0000000000001
 20
332.9999999999991
 30
0.0
 11
512.99999720859
 21
332.9999999999991
 31
0.0
  0
LINE
  5
1DF
330
1F
100
AcDbEntity
  8
Ｓ_１_１
  6
CONTINUOUS
 62
     3
100
AcDbLine
 10
562.0000000000001
 20
332.9999999999991
 30
0.0
 11
589.9999939829399
 21
332.9999999999991
 31
0.0
  0
LINE
  5
1E0
330
1F
100
AcDbEntity
  8
Ｓ_１_１
  6
CONTINUOUS
 62
     3
100
AcDbLine
 10
491.0163864127934
 20
332.9999999999991
 30
0.0
 11
490.6499938982407
 21
338.8622818909434
 31
0.0
  0
LINE
  5
1E1
330
1F
100
AcDbEntity
  8
Ｓ_１_１
  6
CONTINUOUS
 62
     3
100
AcDbLine
 10
491.7177565579302
 20
332.9999999999991
 30
0.0
 11
491.4365059425273
 21
337.5000067358621
 31
0.0
  0
LINE
  5
1E2
330
1F
100
AcDbEntity
  8
Ｓ_１_１
  6
CONTINUOUS
 62
     3
100
AcDbLine
 10
506.2822389490227
 20
332.9999999999991
 30
0.0
 11
506.5634899916
 21
337.5000109785028
 31
0.0
  0
LINE
  5
1E3
330
1F
100
AcDbEntity
  8
Ｓ_１_１
  6
CONTINUOUS
 62
     3
100
AcDbLine
 10
506.9836025401896
 20
332.9999999999991
 30
0.0
 11
507.3499956719255
 21
338.8622967401859
 31
0.0
  0
LINE
  5
1E4
330
1F
100
AcDbEntity
  8
Ｓ_１_１
  6
CONTINUOUS
 62
     3
100
AcDbLine
 10
568.016393936165
 20
332.9999999999991
 30
0.0
 11
567.6500026354007
 21
338.8622624703235
 31
0.0
  0
LINE
  5
1E5
330
1F
100
AcDbEntity
  8
Ｓ_１_１
  6
CONTINUOUS
 62
     3
100
AcDbLine
 10
568.7177640813006
 20
332.9999999999991
 30
0.0
 11
568.4365146796873
 21
337.4999873152422
 31
0.0
  0
LINE
  5
1E6
330
1F
100
AcDbEntity
  8
Ｓ_１_１
  6
CONTINUOUS
 62
     3
100
AcDbLine
 10
583.983612491137
 20
332.9999999999991
 30
0.0
 11
584.3500044090855
 21
338.8622773195659
 31
0.0
  0
LINE
  5
1E7
330
1F
100
AcDbEntity
  8
Ｓ_１_１
  6
CONTINUOUS
 62
     3
100
AcDbLine
 10
583.282248899973
 20
332.9999999999991
 30
0.0
 11
583.56349872876
 21
337.4999915578828
 31
0.0
  0
ARC
  5
1E8
330
1F
100
AcDbEntity
  8
Ｓ_１_１
  6
CONTINUOUS
 62
     3
100
AcDbCircle
 10
498.99999718203
 20
415.9984502520601
 30
0.0
 40
100.0184792389602
100
AcDbArc
 50
258.4652027040759
 51
281.5347972959241
  0
ARC
  5
1E9
330
1F
100
AcDbEntity
  8
Ｓ_１_１
  6
CONTINUOUS
 62
     3
100
AcDbCircle
 10
576.000000699875
 20
415.9984769585602
 30
0.0
 40
100.0185059454602
100
AcDbArc
 50
258.465204249284
 51
281.534795750716
  0
LINE
  5
1EA
330
1F
100
AcDbEntity
  8
Ｓ_１_１
  6
CONTINUOUS
 62
     3
100
AcDbLine
 10
483.999997442576
 20
322.9999986972639
 30
0.0
 11
483.9999948851499
 21
323.00000125469
 31
0.0
  0
LINE
  5
1EB
330
1F
100
AcDbEntity
  8
Ｓ_１_１
  6
CONTINUOUS
 62
     3
100
AcDbLine
 10
488.9999961398406
 20
317.9999999999991
 30
0.0
 11
488.999998704426
 21
317.9999974354137
 31
0.0
  0
LINE
  5
1EC
330
1F
100
AcDbEntity
  8
Ｓ_１_１
  6
CONTINUOUS
 62
     3
100
AcDbLine
 10
513.999998270181
 20
322.9999973485646
 30
0.0
 11
514.0000021763063
 21
323.00000125469
 31
0.0
  0
LINE
  5
1ED
330
1F
100
AcDbEntity
  8
Ｓ_１_１
  6
CONTINUOUS
 62
     3
100
AcDbLine
 10
509.0000009216154
 20
317.9999999999991
 30
0.0
 11
508.99999835703
 21
317.9999974354137
 31
0.0
  0
LINE
  5
1EE
330
1F
100
AcDbEntity
  8
Ｓ_１_１
  6
CONTINUOUS
 62
     3
100
AcDbLine
 10
446.9999986247402
 20
317.9999999999991
 30
0.0
 11
478.9999987453144
 21
317.9999999999991
 31
0.0
  0
LINE
  5
1EF
330
1F
100
AcDbEntity
  8
Ｓ_１_１
  6
CONTINUOUS
 62
     3
100
AcDbLine
 10
560.9999955656216
 20
322.9999959998656
 30
0.0
 11
561.0000000000001
 21
322.9999915654871
 31
0.0
  0
LINE
  5
1F0
330
1F
100
AcDbEntity
  8
Ｓ_１_１
  6
CONTINUOUS
 62
     3
100
AcDbLine
 10
565.9999915654881
 20
317.9999999999991
 30
0.0
 11
565.9999954787726
 21
317.9999960867146
 31
0.0
  0
LINE
  5
1F1
330
1F
100
AcDbEntity
  8
Ｓ_１_１
  6
CONTINUOUS
 62
     3
100
AcDbLine
 10
591.000000439324
 20
323.0000013946621
 30
0.0
 11
590.9999950445318
 21
322.99999599987
 31
0.0
  0
LINE
  5
1F2
330
1F
100
AcDbEntity
  8
Ｓ_１_１
  6
CONTINUOUS
 62
     3
100
AcDbLine
 10
585.999999044661
 20
317.9999999999991
 30
0.0
 11
585.9999951313765
 21
317.9999960867146
 31
0.0
  0
LINE
  5
1F3
330
1F
100
AcDbEntity
  8
Ｓ_１_１
  6
CONTINUOUS
 62
     3
100
AcDbLine
 10
596.0000018339856
 20
317.9999999999991
 30
0.0
 11
635.0000000776055
 21
317.9999999999991
 31
0.0
  0
LINE
  5
1F4
330
1F
100
AcDbEntity
  8
Ｓ_１_１
  6
CONTINUOUS
 62
     3
100
AcDbLine
 10
518.9999956187455
 20
317.9999999999991
 30
0.0
 11
555.9999995657645
 21
317.9999999999991
 31
0.0
  0
LINE
  5
1F5
330
1F
100
AcDbEntity
  8
Ｓ_１_１
  6
CONTINUOUS
 62
     3
100
AcDbLine
 10
481.0000000000001
 20
181.0236257559581
 30
0.0
 11
481.0000000000002
 21
151.2326875363981
 31
0.0
  0
LINE
  5
1F6
330
1F
100
AcDbEntity
  8
Ｓ_１_１
  6
CONTINUOUS
 62
     3
100
AcDbLine
 10
447.0000025380199
 20
151.232687536398
 30
0.0
 11
447.00000253802
 21
137.999999999999
 31
0.0
  0
LINE
  5
1F7
330
1F
100
AcDbEntity
  8
Ｓ_１_１
  6
CONTINUOUS
 62
     3
100
AcDbLine
 10
447.00000253802
 20
318.0
 30
0.0
 11
447.00000253802
 21
304.7673124636
 31
0.0
  0
LINE
  5
1F8
330
1F
100
AcDbEntity
  8
Ｓ_１_１
  6
CONTINUOUS
 62
     3
100
AcDbLine
 10
447.00000253802
 20
274.97637424404
 30
0.0
 11
447.00000253802
 21
181.0236257559579
 31
0.0
  0
LINE
  5
1F9
330
1F
100
AcDbEntity
  8
Ｓ_１_１
  6
CONTINUOUS
 62
     3
100
AcDbLine
 10
446.0000000000002
 20
151.232687536398
 30
0.0
 11
447.5000000000001
 21
151.232687536398
 31
0.0
  0
LINE
  5
1FA
330
1F
100
AcDbEntity
  8
Ｓ_１_１
  6
CONTINUOUS
 62
     3
100
AcDbLine
 10
479.5
 20
151.2326875363981
 30
0.0
 11
481.0000000000002
 21
151.2326875363981
 31
0.0
  0
LINE
  5
1FB
330
1F
100
AcDbEntity
  8
Ｓ_１_１
  6
CONTINUOUS
 62
     3
100
AcDbLine
 10
447.5
 20
175.3205448016
 30
0.0
 11
449.5
 21
176.73475836398
 31
0.0
  0
LINE
  5
1FC
330
1F
100
AcDbEntity
  8
Ｓ_１_１
  6
CONTINUOUS
 62
     3
100
AcDbLine
 10
447.5
 20
179.56318548872
 30
0.0
 11
449.5
 21
180.97739905109
 31
0.0
  0
LINE
  5
1FD
330
1F
100
AcDbEntity
  8
Ｓ_１_１
  6
CONTINUOUS
 62
     3
100
AcDbLine
 10
479.5
 20
179.56318548872
 30
0.0
 11
477.5
 21
180.97739905109
 31
0.0
  0
LINE
  5
1FE
330
1F
100
AcDbEntity
  8
Ｓ_１_１
  6
CONTINUOUS
 62
     3
100
AcDbLine
 10
479.5
 20
175.3205448016
 30
0.0
 11
477.5
 21
176.73475836398
 31
0.0
  0
LINE
  5
1FF
330
1F
100
AcDbEntity
  8
Ｓ_１_１
  6
CONTINUOUS
 62
     3
100
AcDbLine
 10
477.5
 20
176.73475836398
 30
0.0
 11
477.5
 21
180.97739905109
 31
0.0
  0
LINE
  5
200
330
1F
100
AcDbEntity
  8
Ｓ_１_１
  6
CONTINUOUS
 62
     3
100
AcDbLine
 10
447.5
 20
148.45048711653
 30
0.0
 11
449.5
 21
147.03627355415
 31
0.0
  0
LINE
  5
201
330
1F
100
AcDbEntity
  8
Ｓ_１_１
  6
CONTINUOUS
 62
     3
100
AcDbLine
 10
479.5
 20
148.45048711653
 30
0.0
 11
477.5
 21
147.03627355415
 31
0.0
  0
LINE
  5
202
330
1F
100
AcDbEntity
  8
Ｓ_１_１
  6
CONTINUOUS
 62
     3
100
AcDbLine
 10
447.5000000000001
 20
148.45048711653
 30
0.0
 11
447.5000000000001
 21
179.56318548872
 31
0.0
  0
LINE
  5
203
330
1F
100
AcDbEntity
  8
Ｓ_１_１
  6
CONTINUOUS
 62
     3
100
AcDbLine
 10
479.5
 20
148.45048711653
 30
0.0
 11
479.5
 21
179.56318548872
 31
0.0
  0
LINE
  5
204
330
1F
100
AcDbEntity
  8
Ｓ_１_１
  6
CONTINUOUS
 62
     3
100
AcDbLine
 10
449.5000000000001
 20
176.73475836398
 30
0.0
 11
449.5000000000001
 21
180.97739905109
 31
0.0
  0
LINE
  5
205
330
1F
100
AcDbEntity
  8
Ｓ_１_１
  6
CONTINUOUS
 62
     3
100
AcDbLine
 10
449.5
 20
176.73475836398
 30
0.0
 11
457.5
 21
176.73475836398
 31
0.0
  0
LINE
  5
206
330
1F
100
AcDbEntity
  8
Ｓ_１_１
  6
CONTINUOUS
 62
     3
100
AcDbLine
 10
449.5000000000001
 20
180.97739905109
 30
0.0
 11
457.5
 21
180.97739905109
 31
0.0
  0
LINE
  5
207
330
1F
100
AcDbEntity
  8
Ｓ_１_１
  6
CONTINUOUS
 62
     3
100
AcDbLine
 10
469.5
 20
180.97739905109
 30
0.0
 11
477.5
 21
180.97739905109
 31
0.0
  0
LINE
  5
208
330
1F
100
AcDbEntity
  8
Ｓ_１_１
  6
CONTINUOUS
 62
     3
100
AcDbLine
 10
469.5
 20
176.73475836398
 30
0.0
 11
477.5
 21
176.73475836398
 31
0.0
  0
ARC
  5
209
330
1F
100
AcDbEntity
  8
Ｓ_１_１
  6
CONTINUOUS
 62
     3
100
AcDbCircle
 10
463.5
 20
166.0
 30
0.0
 40
6.0
100
AcDbArc
 50
180.0
 51
0.0
  0
ARC
  5
20A
330
1F
100
AcDbEntity
  8
Ｓ_１_１
  6
EXLTYPE0
 62
     2
100
AcDbCircle
 10
463.5
 20
166.0
 30
0.0
 40
6.0
100
AcDbArc
 50
0.0
 51
180.0
  0
LINE
  5
20B
330
1F
100
AcDbEntity
  8
Ｓ_１_１
  6
CONTINUOUS
 62
     3
100
AcDbLine
 10
446.0000000000001
 20
181.0236257559579
 30
0.0
 11
457.5
 21
181.023625755958
 31
0.0
  0
LINE
  5
20C
330
1F
100
AcDbEntity
  8
Ｓ_１_１
  6
CONTINUOUS
 62
     3
100
AcDbLine
 10
469.5
 20
181.023625755958
 30
0.0
 11
481.0000000000001
 21
181.0236257559581
 31
0.0
  0
ELLIPSE
  5
20D
330
1F
100
AcDbEntity
  8
Ｓ_１_１
  6
CONTINUOUS
 62
     3
100
AcDbEllipse
 10
455.5
 20
147.74338033534
 30
0.0
 11
-4.399999999999978
 21
5.388445916248327E-16
 31
0.0
210
0.0
220
0.0
230
1.0
 40
0.7071067811863722
 41
0.0
 42
6.283185307179586
  0
ELLIPSE
  5
20E
330
1F
100
AcDbEntity
  8
Ｓ_１_１
  6
CONTINUOUS
 62
     3
100
AcDbEllipse
 10
455.5
 20
148.16764440405
 30
0.0
 11
-5.0
 21
6.123233995736766E-16
 31
0.0
210
0.0
220
0.0
230
1.0
 40
0.7071067811859961
 41
0.0
 42
6.283185307179586
  0
ELLIPSE
  5
20F
330
1F
100
AcDbEntity
  8
Ｓ_１_１
  6
CONTINUOUS
 62
     3
100
AcDbEllipse
 10
455.5
 20
151.98602102247
 30
0.0
 11
-5.0
 21
6.123233995736766E-16
 31
0.0
210
0.0
220
0.0
230
1.0
 40
0.7071067811859961
 41
3.141592653589793
 42
6.283185307179586
  0
LINE
  5
210
330
1F
100
AcDbEntity
  8
Ｓ_１_１
  6
CONTINUOUS
 62
     3
100
AcDbLine
 10
450.5
 20
148.16764440405
 30
0.0
 11
450.5
 21
151.98602102247
 31
0.0
  0
LINE
  5
211
330
1F
100
AcDbEntity
  8
Ｓ_１_１
  6
CONTINUOUS
 62
     3
100
AcDbLine
 10
460.4999999999999
 20
148.16764440405
 30
0.0
 11
460.4999999999999
 21
151.98602102247
 31
0.0
  0
LINE
  5
212
330
1F
100
AcDbEntity
  8
Ｓ_１_１
  6
CONTINUOUS
 62
     3
100
AcDbLine
 10
449.5000000000001
 20
147.03627355415
 30
0.0
 11
450.7629122870703
 21
147.03627355415
 31
0.0
  0
LINE
  5
213
330
1F
100
AcDbEntity
  8
Ｓ_１_１
  6
EXLTYPE2
 62
     1
100
AcDbLine
 10
455.4999999999999
 20
142.22
 30
0.0
 11
455.4999999999999
 21
159.44
 31
0.0
  0
LINE
  5
214
330
1F
100
AcDbEntity
  8
Ｓ_１_１
  6
CONTINUOUS
 62
     3
100
AcDbLine
 10
452.61324865405
 20
147.74338033534
 30
0.0
 11
454.05662432703
 21
149.78462178766
 31
0.0
  0
LINE
  5
215
330
1F
100
AcDbEntity
  8
Ｓ_１_１
  6
CONTINUOUS
 62
     3
100
AcDbLine
 10
456.94337567297
 20
149.78462178766
 30
0.0
 11
458.38675134595
 21
147.74338033534
 31
0.0
  0
LINE
  5
216
330
1F
100
AcDbEntity
  8
Ｓ_１_１
  6
CONTINUOUS
 62
     3
100
AcDbLine
 10
452.61324865405
 20
147.74338033534
 30
0.0
 11
454.05662432703
 21
145.70213888302
 31
0.0
  0
LINE
  5
217
330
1F
100
AcDbEntity
  8
Ｓ_１_１
  6
CONTINUOUS
 62
     3
100
AcDbLine
 10
456.94337567297
 20
145.70213888302
 30
0.0
 11
458.38675134595
 21
147.74338033534
 31
0.0
  0
LINE
  5
218
330
1F
100
AcDbEntity
  8
Ｓ_１_１
  6
CONTINUOUS
 62
     3
100
AcDbLine
 10
454.05662432703
 20
149.78462178766
 30
0.0
 11
456.94337567297
 21
149.78462178766
 31
0.0
  0
LINE
  5
219
330
1F
100
AcDbEntity
  8
Ｓ_１_１
  6
CONTINUOUS
 62
     3
100
AcDbLine
 10
454.05662432703
 20
145.70213888302
 30
0.0
 11
454.05662432703
 21
149.78462178766
 31
0.0
  0
LINE
  5
21A
330
1F
100
AcDbEntity
  8
Ｓ_１_１
  6
CONTINUOUS
 62
     3
100
AcDbLine
 10
454.05662432703
 20
145.70213888302
 30
0.0
 11
456.94337567297
 21
145.70213888302
 31
0.0
  0
LINE
  5
21B
330
1F
100
AcDbEntity
  8
Ｓ_１_１
  6
CONTINUOUS
 62
     3
100
AcDbLine
 10
456.94337567297
 20
145.70213888302
 30
0.0
 11
456.94337567297
 21
149.78462178766
 31
0.0
  0
ELLIPSE
  5
21C
330
1F
100
AcDbEntity
  8
Ｓ_１_１
  6
CONTINUOUS
 62
     3
100
AcDbEllipse
 10
471.5
 20
147.74338033534
 30
0.0
 11
-4.399999999999978
 21
5.388445916248327E-16
 31
0.0
210
0.0
220
0.0
230
1.0
 40
0.7071067811863722
 41
0.0
 42
6.283185307179586
  0
ELLIPSE
  5
21D
330
1F
100
AcDbEntity
  8
Ｓ_１_１
  6
CONTINUOUS
 62
     3
100
AcDbEllipse
 10
471.5
 20
148.16764440405
 30
0.0
 11
-5.0
 21
6.123233995736766E-16
 31
0.0
210
0.0
220
0.0
230
1.0
 40
0.7071067811859961
 41
0.0
 42
6.283185307179586
  0
ELLIPSE
  5
21E
330
1F
100
AcDbEntity
  8
Ｓ_１_１
  6
CONTINUOUS
 62
     3
100
AcDbEllipse
 10
471.5
 20
151.98602102247
 30
0.0
 11
-5.0
 21
6.123233995736766E-16
 31
0.0
210
0.0
220
0.0
230
1.0
 40
0.7071067811859961
 41
3.141592653589793
 42
6.283185307179586
  0
LINE
  5
21F
330
1F
100
AcDbEntity
  8
Ｓ_１_１
  6
CONTINUOUS
 62
     3
100
AcDbLine
 10
466.5
 20
148.16764440405
 30
0.0
 11
466.5
 21
151.98602102247
 31
0.0
  0
LINE
  5
220
330
1F
100
AcDbEntity
  8
Ｓ_１_１
  6
CONTINUOUS
 62
     3
100
AcDbLine
 10
476.4999999999999
 20
148.16764440405
 30
0.0
 11
476.4999999999999
 21
151.98602102247
 31
0.0
  0
LINE
  5
221
330
1F
100
AcDbEntity
  8
Ｓ_１_１
  6
EXLTYPE2
 62
     1
100
AcDbLine
 10
471.4999999999999
 20
142.22
 30
0.0
 11
471.4999999999999
 21
159.44
 31
0.0
  0
LINE
  5
222
330
1F
100
AcDbEntity
  8
Ｓ_１_１
  6
CONTINUOUS
 62
     3
100
AcDbLine
 10
468.61324865405
 20
147.74338033534
 30
0.0
 11
470.05662432703
 21
149.78462178766
 31
0.0
  0
LINE
  5
223
330
1F
100
AcDbEntity
  8
Ｓ_１_１
  6
CONTINUOUS
 62
     3
100
AcDbLine
 10
472.94337567297
 20
149.78462178766
 30
0.0
 11
474.38675134595
 21
147.74338033534
 31
0.0
  0
LINE
  5
224
330
1F
100
AcDbEntity
  8
Ｓ_１_１
  6
CONTINUOUS
 62
     3
100
AcDbLine
 10
468.61324865405
 20
147.74338033534
 30
0.0
 11
470.05662432703
 21
145.70213888302
 31
0.0
  0
LINE
  5
225
330
1F
100
AcDbEntity
  8
Ｓ_１_１
  6
CONTINUOUS
 62
     3
100
AcDbLine
 10
472.94337567297
 20
145.70213888302
 30
0.0
 11
474.38675134595
 21
147.74338033534
 31
0.0
  0
LINE
  5
226
330
1F
100
AcDbEntity
  8
Ｓ_１_１
  6
CONTINUOUS
 62
     3
100
AcDbLine
 10
470.05662432703
 20
149.78462178766
 30
0.0
 11
472.94337567297
 21
149.78462178766
 31
0.0
  0
LINE
  5
227
330
1F
100
AcDbEntity
  8
Ｓ_１_１
  6
CONTINUOUS
 62
     3
100
AcDbLine
 10
470.05662432703
 20
145.70213888302
 30
0.0
 11
470.05662432703
 21
149.78462178766
 31
0.0
  0
LINE
  5
228
330
1F
100
AcDbEntity
  8
Ｓ_１_１
  6
CONTINUOUS
 62
     3
100
AcDbLine
 10
470.05662432703
 20
145.70213888302
 30
0.0
 11
472.94337567297
 21
145.70213888302
 31
0.0
  0
LINE
  5
229
330
1F
100
AcDbEntity
  8
Ｓ_１_１
  6
CONTINUOUS
 62
     3
100
AcDbLine
 10
472.94337567297
 20
145.70213888302
 30
0.0
 11
472.94337567297
 21
149.78462178766
 31
0.0
  0
LINE
  5
22A
330
1F
100
AcDbEntity
  8
Ｓ_１_１
  6
CONTINUOUS
 62
     3
100
AcDbLine
 10
460.2370877129297
 20
147.03627355415
 30
0.0
 11
466.7629122870703
 21
147.03627355415
 31
0.0
  0
LINE
  5
22B
330
1F
100
AcDbEntity
  8
Ｓ_１_１
  6
CONTINUOUS
 62
     3
100
AcDbLine
 10
476.2370877129297
 20
147.03627355415
 30
0.0
 11
477.5
 21
147.03627355415
 31
0.0
  0
LINE
  5
22C
330
1F
100
AcDbEntity
  8
Ｓ_１_１
  6
CONTINUOUS
 62
     3
100
AcDbLine
 10
481.0000000000001
 20
274.9763742440419
 30
0.0
 11
481.0000000000002
 21
304.7673124636019
 31
0.0
  0
LINE
  5
22D
330
1F
100
AcDbEntity
  8
Ｓ_１_１
  6
CONTINUOUS
 62
     3
100
AcDbLine
 10
446.0000000000002
 20
304.767312463602
 30
0.0
 11
447.5
 21
304.767312463602
 31
0.0
  0
LINE
  5
22E
330
1F
100
AcDbEntity
  8
Ｓ_１_１
  6
CONTINUOUS
 62
     3
100
AcDbLine
 10
479.4999999999999
 20
304.7673124636019
 30
0.0
 11
481.0000000000002
 21
304.7673124636019
 31
0.0
  0
LINE
  5
22F
330
1F
100
AcDbEntity
  8
Ｓ_１_１
  6
CONTINUOUS
 62
     3
100
AcDbLine
 10
447.4999999999999
 20
280.6794551984
 30
0.0
 11
449.5
 21
279.26524163602
 31
0.0
  0
LINE
  5
230
330
1F
100
AcDbEntity
  8
Ｓ_１_１
  6
CONTINUOUS
 62
     3
100
AcDbLine
 10
447.5
 20
276.43681451128
 30
0.0
 11
449.5
 21
275.02260094891
 31
0.0
  0
LINE
  5
231
330
1F
100
AcDbEntity
  8
Ｓ_１_１
  6
CONTINUOUS
 62
     3
100
AcDbLine
 10
479.5
 20
276.43681451128
 30
0.0
 11
477.5
 21
275.0226009489101
 31
0.0
  0
LINE
  5
232
330
1F
100
AcDbEntity
  8
Ｓ_１_１
  6
CONTINUOUS
 62
     3
100
AcDbLine
 10
479.5
 20
280.6794551984
 30
0.0
 11
477.5
 21
279.2652416360201
 31
0.0
  0
LINE
  5
233
330
1F
100
AcDbEntity
  8
Ｓ_１_１
  6
CONTINUOUS
 62
     3
100
AcDbLine
 10
477.5
 20
279.2652416360201
 30
0.0
 11
477.5
 21
275.0226009489101
 31
0.0
  0
LINE
  5
234
330
1F
100
AcDbEntity
  8
Ｓ_１_１
  6
CONTINUOUS
 62
     3
100
AcDbLine
 10
447.4999999999999
 20
307.54951288347
 30
0.0
 11
449.4999999999999
 21
308.96372644585
 31
0.0
  0
LINE
  5
235
330
1F
100
AcDbEntity
  8
Ｓ_１_１
  6
CONTINUOUS
 62
     3
100
AcDbLine
 10
479.4999999999999
 20
307.54951288347
 30
0.0
 11
477.4999999999999
 21
308.9637264458501
 31
0.0
  0
LINE
  5
236
330
1F
100
AcDbEntity
  8
Ｓ_１_１
  6
CONTINUOUS
 62
     3
100
AcDbLine
 10
447.5
 20
307.54951288347
 30
0.0
 11
447.5000000000001
 21
276.43681451128
 31
0.0
  0
LINE
  5
237
330
1F
100
AcDbEntity
  8
Ｓ_１_１
  6
CONTINUOUS
 62
     3
100
AcDbLine
 10
479.4999999999999
 20
307.54951288347
 30
0.0
 11
479.5
 21
276.43681451128
 31
0.0
  0
LINE
  5
238
330
1F
100
AcDbEntity
  8
Ｓ_１_１
  6
CONTINUOUS
 62
     3
100
AcDbLine
 10
449.5
 20
279.26524163602
 30
0.0
 11
449.5000000000001
 21
275.02260094891
 31
0.0
  0
LINE
  5
239
330
1F
100
AcDbEntity
  8
Ｓ_１_１
  6
CONTINUOUS
 62
     3
100
AcDbLine
 10
449.5
 20
279.26524163602
 30
0.0
 11
457.5
 21
279.26524163602
 31
0.0
  0
LINE
  5
23A
330
1F
100
AcDbEntity
  8
Ｓ_１_１
  6
CONTINUOUS
 62
     3
100
AcDbLine
 10
449.5000000000001
 20
275.02260094891
 30
0.0
 11
457.5
 21
275.02260094891
 31
0.0
  0
LINE
  5
23B
330
1F
100
AcDbEntity
  8
Ｓ_１_１
  6
CONTINUOUS
 62
     3
100
AcDbLine
 10
469.5
 20
275.02260094891
 30
0.0
 11
477.5
 21
275.0226009489101
 31
0.0
  0
LINE
  5
23C
330
1F
100
AcDbEntity
  8
Ｓ_１_１
  6
CONTINUOUS
 62
     3
100
AcDbLine
 10
469.5
 20
279.26524163602
 30
0.0
 11
477.5
 21
279.2652416360201
 31
0.0
  0
ARC
  5
23D
330
1F
100
AcDbEntity
  8
Ｓ_１_１
  6
CONTINUOUS
 62
     3
100
AcDbCircle
 10
463.4999999999999
 20
290.0
 30
0.0
 40
6.0
100
AcDbArc
 50
0.0
 51
180.0
  0
ARC
  5
23E
330
1F
100
AcDbEntity
  8
Ｓ_１_１
  6
EXLTYPE0
 62
     2
100
AcDbCircle
 10
463.4999999999999
 20
290.0
 30
0.0
 40
6.0
100
AcDbArc
 50
180.0
 51
0.0
  0
LINE
  5
23F
330
1F
100
AcDbEntity
  8
Ｓ_１_１
  6
CONTINUOUS
 62
     3
100
AcDbLine
 10
446.0000000000001
 20
274.9763742440421
 30
0.0
 11
457.5
 21
274.9763742440421
 31
0.0
  0
LINE
  5
240
330
1F
100
AcDbEntity
  8
Ｓ_１_１
  6
CONTINUOUS
 62
     3
100
AcDbLine
 10
469.5
 20
274.976374244042
 30
0.0
 11
481.0000000000001
 21
274.9763742440419
 31
0.0
  0
ELLIPSE
  5
241
330
1F
100
AcDbEntity
  8
Ｓ_１_１
  6
CONTINUOUS
 62
     3
100
AcDbEllipse
 10
455.4999999999999
 20
308.25661966466
 30
0.0
 11
4.399999999999978
 21
0.0
 31
0.0
210
0.0
220
0.0
230
1.0
 40
0.7071067811863722
 41
0.0
 42
6.283185307179586
  0
ELLIPSE
  5
242
330
1F
100
AcDbEntity
  8
Ｓ_１_１
  6
CONTINUOUS
 62
     3
100
AcDbEllipse
 10
455.4999999999999
 20
307.83235559595
 30
0.0
 11
5.0
 21
0.0
 31
0.0
210
0.0
220
0.0
230
1.0
 40
0.7071067811859961
 41
0.0
 42
6.283185307179586
  0
ELLIPSE
  5
243
330
1F
100
AcDbEntity
  8
Ｓ_１_１
  6
CONTINUOUS
 62
     3
100
AcDbEllipse
 10
455.4999999999999
 20
304.01397897753
 30
0.0
 11
5.0
 21
0.0
 31
0.0
210
0.0
220
0.0
230
1.0
 40
0.7071067811859961
 41
3.141592653589793
 42
6.283185307179586
  0
LINE
  5
244
330
1F
100
AcDbEntity
  8
Ｓ_１_１
  6
CONTINUOUS
 62
     3
100
AcDbLine
 10
450.4999999999999
 20
307.83235559595
 30
0.0
 11
450.4999999999999
 21
304.01397897753
 31
0.0
  0
LINE
  5
245
330
1F
100
AcDbEntity
  8
Ｓ_１_１
  6
CONTINUOUS
 62
     3
100
AcDbLine
 10
460.4999999999998
 20
307.83235559595
 30
0.0
 11
460.4999999999998
 21
304.01397897753
 31
0.0
  0
LINE
  5
246
330
1F
100
AcDbEntity
  8
Ｓ_１_１
  6
CONTINUOUS
 62
     3
100
AcDbLine
 10
449.5
 20
308.96372644585
 30
0.0
 11
450.7629122870703
 21
308.96372644585
 31
0.0
  0
LINE
  5
247
330
1F
100
AcDbEntity
  8
Ｓ_１_１
  6
EXLTYPE2
 62
     1
100
AcDbLine
 10
455.4999999999999
 20
313.78
 30
0.0
 11
455.4999999999999
 21
296.56
 31
0.0
  0
LINE
  5
248
330
1F
100
AcDbEntity
  8
Ｓ_１_１
  6
CONTINUOUS
 62
     3
100
AcDbLine
 10
452.6132486540499
 20
308.25661966466
 30
0.0
 11
454.05662432703
 21
306.21537821234
 31
0.0
  0
LINE
  5
249
330
1F
100
AcDbEntity
  8
Ｓ_１_１
  6
CONTINUOUS
 62
     3
100
AcDbLine
 10
456.9433756729699
 20
306.21537821234
 30
0.0
 11
458.38675134595
 21
308.25661966466
 31
0.0
  0
LINE
  5
24A
330
1F
100
AcDbEntity
  8
Ｓ_１_１
  6
CONTINUOUS
 62
     3
100
AcDbLine
 10
452.6132486540499
 20
308.25661966466
 30
0.0
 11
454.05662432703
 21
310.29786111698
 31
0.0
  0
LINE
  5
24B
330
1F
100
AcDbEntity
  8
Ｓ_１_１
  6
CONTINUOUS
 62
     3
100
AcDbLine
 10
456.9433756729699
 20
310.29786111698
 30
0.0
 11
458.38675134595
 21
308.25661966466
 31
0.0
  0
LINE
  5
24C
330
1F
100
AcDbEntity
  8
Ｓ_１_１
  6
CONTINUOUS
 62
     3
100
AcDbLine
 10
454.05662432703
 20
306.21537821234
 30
0.0
 11
456.9433756729699
 21
306.21537821234
 31
0.0
  0
LINE
  5
24D
330
1F
100
AcDbEntity
  8
Ｓ_１_１
  6
CONTINUOUS
 62
     3
100
AcDbLine
 10
454.05662432703
 20
310.29786111698
 30
0.0
 11
454.05662432703
 21
306.21537821234
 31
0.0
  0
LINE
  5
24E
330
1F
100
AcDbEntity
  8
Ｓ_１_１
  6
CONTINUOUS
 62
     3
100
AcDbLine
 10
454.05662432703
 20
310.29786111698
 30
0.0
 11
456.9433756729699
 21
310.29786111698
 31
0.0
  0
LINE
  5
24F
330
1F
100
AcDbEntity
  8
Ｓ_１_１
  6
CONTINUOUS
 62
     3
100
AcDbLine
 10
456.9433756729699
 20
310.29786111698
 30
0.0
 11
456.9433756729699
 21
306.21537821234
 31
0.0
  0
ELLIPSE
  5
250
330
1F
100
AcDbEntity
  8
Ｓ_１_１
  6
CONTINUOUS
 62
     3
100
AcDbEllipse
 10
471.4999999999999
 20
308.25661966466
 30
0.0
 11
4.399999999999978
 21
0.0
 31
0.0
210
0.0
220
0.0
230
1.0
 40
0.7071067811863722
 41
0.0
 42
6.283185307179586
  0
ELLIPSE
  5
251
330
1F
100
AcDbEntity
  8
Ｓ_１_１
  6
CONTINUOUS
 62
     3
100
AcDbEllipse
 10
471.4999999999999
 20
307.83235559595
 30
0.0
 11
5.0
 21
0.0
 31
0.0
210
0.0
220
0.0
230
1.0
 40
0.7071067811859961
 41
0.0
 42
6.283185307179586
  0
ELLIPSE
  5
252
330
1F
100
AcDbEntity
  8
Ｓ_１_１
  6
CONTINUOUS
 62
     3
100
AcDbEllipse
 10
471.4999999999999
 20
304.01397897753
 30
0.0
 11
5.0
 21
0.0
 31
0.0
210
0.0
220
0.0
230
1.0
 40
0.7071067811859961
 41
3.141592653589793
 42
6.283185307179586
  0
LINE
  5
253
330
1F
100
AcDbEntity
  8
Ｓ_１_１
  6
CONTINUOUS
 62
     3
100
AcDbLine
 10
466.4999999999999
 20
307.83235559595
 30
0.0
 11
466.4999999999999
 21
304.01397897753
 31
0.0
  0
LINE
  5
254
330
1F
100
AcDbEntity
  8
Ｓ_１_１
  6
CONTINUOUS
 62
     3
100
AcDbLine
 10
476.4999999999998
 20
307.83235559595
 30
0.0
 11
476.4999999999998
 21
304.01397897753
 31
0.0
  0
LINE
  5
255
330
1F
100
AcDbEntity
  8
Ｓ_１_１
  6
EXLTYPE2
 62
     1
100
AcDbLine
 10
471.4999999999999
 20
313.78
 30
0.0
 11
471.4999999999999
 21
296.5600000000001
 31
0.0
  0
LINE
  5
256
330
1F
100
AcDbEntity
  8
Ｓ_１_１
  6
CONTINUOUS
 62
     3
100
AcDbLine
 10
468.6132486540499
 20
308.25661966466
 30
0.0
 11
470.05662432703
 21
306.2153782123401
 31
0.0
  0
LINE
  5
257
330
1F
100
AcDbEntity
  8
Ｓ_１_１
  6
CONTINUOUS
 62
     3
100
AcDbLine
 10
472.9433756729699
 20
306.2153782123401
 30
0.0
 11
474.38675134595
 21
308.25661966466
 31
0.0
  0
LINE
  5
258
330
1F
100
AcDbEntity
  8
Ｓ_１_１
  6
CONTINUOUS
 62
     3
100
AcDbLine
 10
468.6132486540499
 20
308.25661966466
 30
0.0
 11
470.05662432703
 21
310.29786111698
 31
0.0
  0
LINE
  5
259
330
1F
100
AcDbEntity
  8
Ｓ_１_１
  6
CONTINUOUS
 62
     3
100
AcDbLine
 10
472.9433756729699
 20
310.29786111698
 30
0.0
 11
474.38675134595
 21
308.25661966466
 31
0.0
  0
LINE
  5
25A
330
1F
100
AcDbEntity
  8
Ｓ_１_１
  6
CONTINUOUS
 62
     3
100
AcDbLine
 10
470.05662432703
 20
306.2153782123401
 30
0.0
 11
472.9433756729699
 21
306.2153782123401
 31
0.0
  0
LINE
  5
25B
330
1F
100
AcDbEntity
  8
Ｓ_１_１
  6
CONTINUOUS
 62
     3
100
AcDbLine
 10
470.05662432703
 20
310.29786111698
 30
0.0
 11
470.05662432703
 21
306.2153782123401
 31
0.0
  0
LINE
  5
25C
330
1F
100
AcDbEntity
  8
Ｓ_１_１
  6
CONTINUOUS
 62
     3
100
AcDbLine
 10
470.05662432703
 20
310.29786111698
 30
0.0
 11
472.9433756729699
 21
310.29786111698
 31
0.0
  0
LINE
  5
25D
330
1F
100
AcDbEntity
  8
Ｓ_１_１
  6
CONTINUOUS
 62
     3
100
AcDbLine
 10
472.9433756729699
 20
310.29786111698
 30
0.0
 11
472.9433756729699
 21
306.2153782123401
 31
0.0
  0
LINE
  5
25E
330
1F
100
AcDbEntity
  8
Ｓ_１_１
  6
CONTINUOUS
 62
     3
100
AcDbLine
 10
460.2370877129296
 20
308.96372644585
 30
0.0
 11
466.7629122870703
 21
308.96372644585
 31
0.0
  0
LINE
  5
25F
330
1F
100
AcDbEntity
  8
Ｓ_１_１
  6
CONTINUOUS
 62
     3
100
AcDbLine
 10
476.2370877129296
 20
308.9637264458501
 30
0.0
 11
477.4999999999999
 21
308.9637264458501
 31
0.0
  0
LINE
  5
260
330
1F
100
AcDbEntity
  8
Ｓ_１_１
  6
EXLTYPE2
 62
     1
100
AcDbLine
 10
432.0
 20
228.0
 30
0.0
 11
648.0
 21
228.0000000000001
 31
0.0
  0
LINE
  5
261
330
1F
100
AcDbEntity
  8
Ｓ_１_１
  6
CONTINUOUS
 62
     3
100
AcDbLine
 10
457.5
 20
166.0
 30
0.0
 11
457.5
 21
290.0
 31
0.0
  0
LINE
  5
262
330
1F
100
AcDbEntity
  8
Ｓ_１_１
  6
CONTINUOUS
 62
     3
100
AcDbLine
 10
469.5
 20
166.0
 30
0.0
 11
469.5
 21
290.0
 31
0.0
  0
LINE
  5
263
330
1F
100
AcDbEntity
  8
Ｓ_１_１
  6
EXLTYPE2
 62
     1
100
AcDbLine
 10
463.5
 20
156.0
 30
0.0
 11
463.5
 21
300.0
 31
0.0
  0
LINE
  5
264
330
1F
100
AcDbEntity
  8
Ｓ_１_１
  6
EXLTYPE2
 62
     1
100
AcDbLine
 10
473.5
 20
290.0
 30
0.0
 11
453.5
 21
290.0
 31
0.0
  0
LINE
  5
265
330
1F
100
AcDbEntity
  8
Ｓ_１_１
  6
EXLTYPE2
 62
     1
100
AcDbLine
 10
473.5
 20
166.0
 30
0.0
 11
453.5
 21
166.0
 31
0.0
  0
DIMENSION
  5
267
330
1F
100
AcDbEntity
  8
Ｓ_１_１
  6
CONTINUOUS
 62
     2
100
AcDbDimension
  2
*D15
 10
576.0
 20
444.0
 30
0.0
 11
606.0
 21
449.5
 31
0.0
 70
   160
  3
ISO-25
100
AcDbAlignedDimension
 13
636.0
 23
317.0000000776
 33
0.0
 14
576.0
 24
423.8
 34
0.0
100
AcDbRotatedDimension
1001
ACAD
1000
DSTYLE
1002
{
1070
   270
1070
     2
1070
     6
1000
EX_NORM
1070
     7
1000
EX_NORM
1070
    41
1040
6.0
1070
    42
1040
3.0
1070
    44
1040
2.0
1070
    73
1070
     0
1070
    74
1070
     0
1070
    75
1070
     0
1070
    76
1070
     0
1070
    77
1070
     1
1070
    78
1070
     8
1070
   140
1040
6.92580831408776
1070
   147
1040
0.0
1070
   173
1070
     1
1070
   176
1070
     2
1070
   177
1070
     2
1070
   178
1070
     2
1070
   271
1070
     2
1070
   277
1070
     2
1070
   279
1070
     2
1070
   280
1070
     0
1070
   287
1070
     5
1070
   340
1005
266
1002
}
  0
DIMENSION
  5
275
330
1F
100
AcDbEntity
  8
Ｓ_１_１
  6
CONTINUOUS
 62
     2
100
AcDbDimension
  2
*D16
 10
499.0
 20
444.0
 30
0.0
 11
537.5
 21
449.5
 31
0.0
 70
   160
  3
ISO-25
100
AcDbAlignedDimension
 13
576.0
 23
423.8
 33
0.0
 14
499.0
 24
409.4
 34
0.0
100
AcDbRotatedDimension
1001
ACAD
1000
DSTYLE
1002
{
1070
   270
1070
     2
1070
     6
1000
EX_NORM
1070
     7
1000
EX_NORM
1070
    41
1040
6.0
1070
    42
1040
3.0
1070
    44
1040
2.0
1070
    73
1070
     0
1070
    74
1070
     0
1070
    75
1070
     0
1070
    76
1070
     0
1070
    77
1070
     1
1070
    78
1070
     8
1070
   140
1040
6.92580831408776
1070
   147
1040
0.0
1070
   173
1070
     1
1070
   176
1070
     2
1070
   177
1070
     2
1070
   178
1070
     2
1070
   271
1070
     2
1070
   277
1070
     2
1070
   279
1070
     2
1070
   280
1070
     0
1070
   287
1070
     5
1070
   340
1005
266
1002
}
  0
DIMENSION
  5
282
330
1F
100
AcDbEntity
  8
Ｓ_１_１
  6
CONTINUOUS
 62
     2
100
AcDbDimension
  2
*D17
 10
446.0
 20
444.0
 30
0.0
 11
472.5
 21
449.5
 31
0.0
 70
   160
  3
ISO-25
100
AcDbAlignedDimension
 13
499.0
 23
409.4
 33
0.0
 14
446.0
 24
316.99999746198
 34
0.0
100
AcDbRotatedDimension
1001
ACAD
1000
DSTYLE
1002
{
1070
   270
1070
     2
1070
     6
1000
EX_NORM
1070
     7
1000
EX_NORM
1070
    41
1040
6.0
1070
    42
1040
3.0
1070
    44
1040
2.0
1070
    73
1070
     0
1070
    74
1070
     0
1070
    75
1070
     0
1070
    76
1070
     0
1070
    77
1070
     1
1070
    78
1070
     8
1070
   140
1040
6.92580831408776
1070
   147
1040
0.0
1070
   173
1070
     1
1070
   176
1070
     2
1070
   177
1070
     2
1070
   178
1070
     2
1070
   271
1070
     2
1070
   277
1070
     2
1070
   279
1070
     2
1070
   280
1070
     0
1070
   287
1070
     5
1070
   340
1005
266
1002
}
  0
DIMENSION
  5
28F
330
1F
100
AcDbEntity
  8
Ｓ_１_１
  6
CONTINUOUS
 62
     2
100
AcDbDimension
  2
*D18
 10
446.0
 20
108.0
 30
0.0
 11
425.5
 21
113.5
 31
0.0
 70
   160
  3
ISO-25
100
AcDbAlignedDimension
 13
436.0
 23
174.0
 33
0.0
 14
446.0
 24
139.00000253802
 34
0.0
100
AcDbRotatedDimension
1001
ACAD
1000
DSTYLE
1002
{
1070
   270
1070
     2
1070
     6
1000
EX_NORM
1070
     7
1000
EX_NORM
1070
    41
1040
6.0
1070
    42
1040
3.0
1070
    44
1040
2.0
1070
    73
1070
     0
1070
    74
1070
     0
1070
    75
1070
     0
1070
    76
1070
     0
1070
    77
1070
     1
1070
    78
1070
     8
1070
   140
1040
6.92580831408776
1070
   147
1040
0.0
1070
   173
1070
     1
1070
   176
1070
     2
1070
   177
1070
     2
1070
   178
1070
     2
1070
   271
1070
     2
1070
   277
1070
     2
1070
   279
1070
     2
1070
   280
1070
     1
1070
   287
1070
     5
1070
   340
1005
266
1002
}
  0
DIMENSION
  5
29E
330
1F
100
AcDbEntity
  8
Ｓ_１_１
  6
CONTINUOUS
 62
     2
100
AcDbDimension
  2
*D19
 10
636.0
 20
108.0
 30
0.0
 11
541.0
 21
113.5
 31
0.0
 70
   160
  3
ISO-25
100
AcDbAlignedDimension
 13
446.0
 23
139.00000253802
 33
0.0
 14
636.0
 24
138.99999992239
 34
0.0
100
AcDbRotatedDimension
1001
ACAD
1000
DSTYLE
1002
{
1070
   270
1070
     2
1070
     6
1000
EX_NORM
1070
     7
1000
EX_NORM
1070
    41
1040
6.0
1070
    42
1040
3.0
1070
    44
1040
2.0
1070
    73
1070
     0
1070
    74
1070
     0
1070
    75
1070
     0
1070
    76
1070
     0
1070
    77
1070
     1
1070
    78
1070
     8
1070
   140
1040
6.92580831408776
1070
   147
1040
0.0
1070
   173
1070
     1
1070
   176
1070
     2
1070
   177
1070
     2
1070
   178
1070
     2
1070
   271
1070
     2
1070
   277
1070
     2
1070
   279
1070
     2
1070
   280
1070
     0
1070
   287
1070
     5
1070
   340
1005
266
1002
}
  0
DIMENSION
  5
2AB
330
1F
100
AcDbEntity
  8
Ｓ_１_１
  6
CONTINUOUS
 62
     2
100
AcDbDimension
  2
*D20
 10
436.0
 20
96.0
 30
0.0
 11
536.0
 21
101.5
 31
0.0
 70
   160
  3
ISO-25
100
AcDbAlignedDimension
 13
636.0
 23
138.99999992239
 33
0.0
 14
436.0
 24
174.0
 34
0.0
100
AcDbRotatedDimension
1001
ACAD
1000
DSTYLE
1002
{
1070
   270
1070
     2
1070
     6
1000
EX_NORM
1070
     7
1000
EX_NORM
1070
    41
1040
6.0
1070
    42
1040
3.0
1070
    44
1040
2.0
1070
    73
1070
     0
1070
    74
1070
     0
1070
    75
1070
     0
1070
    76
1070
     0
1070
    77
1070
     1
1070
    78
1070
     8
1070
   140
1040
6.92580831408776
1070
   147
1040
0.0
1070
   173
1070
     1
1070
   176
1070
     2
1070
   177
1070
     2
1070
   178
1070
     2
1070
   271
1070
     2
1070
   277
1070
     2
1070
   279
1070
     2
1070
   280
1070
     0
1070
   287
1070
     5
1070
   340
1005
266
1002
}
  0
DIMENSION
  5
2B8
330
1F
100
AcDbEntity
  8
Ｓ_１_１
  6
CONTINUOUS
 62
     2
100
AcDbDimension
  2
*D21
 10
672.0
 20
317.9999999999991
 30
0.0
 11
666.5
 21
227.9999999999995
 31
0.0
 70
   160
  1
%%c<>
  3
ISO-25
100
AcDbAlignedDimension
 13
635.00000007761
 23
138.0
 33
0.0
 14
635.00000007761
 24
317.9999999999991
 34
0.0
 50
90.0
100
AcDbRotatedDimension
1001
ACAD
1000
DSTYLE
1002
{
1070
   270
1070
     2
1070
     6
1000
EX_NORM
1070
     7
1000
EX_NORM
1070
    41
1040
6.0
1070
    42
1040
3.0
1070
    44
1040
2.0
1070
    73
1070
     0
1070
    74
1070
     0
1070
    75
1070
     0
1070
    76
1070
     0
1070
    77
1070
     1
1070
    78
1070
     8
1070
   140
1040
6.92580831408776
1070
   147
1040
0.0
1070
   173
1070
     1
1070
   176
1070
     2
1070
   177
1070
     2
1070
   178
1070
     2
1070
   271
1070
     2
1070
   277
1070
     2
1070
   279
1070
     2
1070
   280
1070
     0
1070
   287
1070
     5
1070
   340
1005
266
1002
}
  0
DIMENSION
  5
2C5
330
1F
100
AcDbEntity
  8
Ｓ_１_１
  6
CONTINUOUS
 62
     2
100
AcDbDimension
  2
*D22
 10
672.0
 20
417.86227365577
 30
0.0
 11
666.5
 21
367.931136827885
 31
0.0
 70
   160
  1
(<>)
  3
ISO-25
100
AcDbAlignedDimension
 13
635.00000007761
 23
318.0
 33
0.0
 14
588.09500296448
 24
417.86227365577
 34
0.0
 50
90.0
100
AcDbRotatedDimension
1001
ACAD
1000
DSTYLE
1002
{
1070
   270
1070
     2
1070
     6
1000
EX_NORM
1070
     7
1000
EX_NORM
1070
    41
1040
6.0
1070
    42
1040
3.0
1070
    44
1040
2.0
1070
    73
1070
     0
1070
    74
1070
     0
1070
    75
1070
     0
1070
    76
1070
     0
1070
    77
1070
     1
1070
    78
1070
     0
1070
   140
1040
6.92580831408776
1070
   147
1040
0.0
1070
   173
1070
     1
1070
   176
1070
     2
1070
   177
1070
     2
1070
   178
1070
     2
1070
   271
1070
     0
1070
   277
1070
     2
1070
   279
1070
     2
1070
   280
1070
     0
1070
   287
1070
     5
1070
   340
1005
266
1002
}
  0
DIMENSION
  5
2D2
330
1F
100
AcDbEntity
  8
Ｓ_１_１
  6
CONTINUOUS
 62
     2
100
AcDbDimension
  2
*D23
 10
396.0
 20
283.0
 30
0.0
 11
390.5
 21
228.0
 31
0.0
 70
   160
  1
%%c<>
  3
ISO-25
100
AcDbAlignedDimension
 13
437.0
 23
173.0
 33
0.0
 14
437.0
 24
283.0
 34
0.0
 50
90.0
100
AcDbRotatedDimension
1001
ACAD
1000
DSTYLE
1002
{
1070
   270
1070
     2
1070
     6
1000
EX_NORM
1070
     7
1000
EX_NORM
1070
    41
1040
6.0
1070
    42
1040
3.0
1070
    44
1040
2.000000000000057
1070
    73
1070
     0
1070
    74
1070
     0
1070
    75
1070
     0
1070
    76
1070
     0
1070
    77
1070
     1
1070
    78
1070
     8
1070
   140
1040
6.92580831408776
1070
   147
1040
0.0
1070
   173
1070
     1
1070
   176
1070
     2
1070
   177
1070
     2
1070
   178
1070
     2
1070
   271
1070
     2
1070
   277
1070
     2
1070
   279
1070
     2
1070
   280
1070
     0
1070
   287
1070
     5
1070
   340
1005
266
1002
}
  0
DIMENSION
  5
2DF
330
1F
100
AcDbEntity
  8
Ｓ_１_１
  6
CONTINUOUS
 62
     2
100
AcDbDimension
  2
*D24
 10
384.0
 20
288.0000007196468
 30
0.0
 11
378.5
 21
227.9999999999984
 31
0.0
 70
   160
  1
%%c<>
  3
ISO-25
100
AcDbAlignedDimension
 13
443.99999880101
 23
167.99999928035
 33
0.0
 14
443.99999880101
 24
288.0000007196468
 34
0.0
 50
90.0
100
AcDbRotatedDimension
1001
ACAD
1000
DSTYLE
1002
{
1070
   270
1070
     2
1070
     6
1000
EX_NORM
1070
     7
1000
EX_NORM
1070
    41
1040
6.0
1070
    42
1040
3.0
1070
    44
1040
2.000000000000057
1070
    73
1070
     0
1070
    74
1070
     0
1070
    75
1070
     0
1070
    76
1070
     0
1070
    77
1070
     1
1070
    78
1070
     8
1070
   140
1040
6.92580831408776
1070
   147
1040
0.0
1070
   173
1070
     1
1070
   176
1070
     2
1070
   177
1070
     2
1070
   178
1070
     2
1070
   271
1070
     2
1070
   277
1070
     2
1070
   279
1070
     2
1070
   280
1070
     0
1070
   287
1070
     5
1070
   340
1005
266
1002
}
  0
DIMENSION
  5
2EC
330
1F
100
AcDbEntity
  8
Ｓ_１_１
  6
CONTINUOUS
 62
     2
100
AcDbDimension
  2
*D25
 10
289.8763562680496
 20
430.9736051535124
 30
0.0
 11
273.3284225082547
 21
441.9525699940431
 31
0.0
 70
   165
  3
ISO-25
100
AcDb3PointAngularDimension
 13
284.6811454168352
 23
346.9592178594431
 33
0.0
 14
216.0
 24
423.8
 34
0.0
 15
216.0
 25
227.9999844754522
 35
0.0
1001
ACAD
1000
DSTYLE
1002
{
1070
   270
1070
     2
1070
     6
1000
EX_NORM
1070
     7
1000
EX_NORM
1070
    41
1040
6.0
1070
    42
1040
3.000000000000028
1070
    44
1040
1.999999999999988
1070
    73
1070
     0
1070
    74
1070
     0
1070
    75
1070
     0
1070
    76
1070
     0
1070
    77
1070
     1
1070
    78
1070
     8
1070
    79
1070
     2
1070
   140
1040
6.92580831408776
1070
   147
1040
0.0
1070
   173
1070
     1
1070
   176
1070
     2
1070
   177
1070
     2
1070
   178
1070
     2
1070
   179
1070
     2
1070
   271
1070
     2
1070
   277
1070
     2
1070
   279
1070
     2
1070
   280
1070
     0
1070
   287
1070
     5
1070
   340
1005
266
1002
}
  0
DIMENSION
  5
2FA
330
1F
100
AcDbEntity
  8
Ｓ_１_１
  6
CONTINUOUS
 62
     2
100
AcDbDimension
  2
*D26
 10
345.22896808187
 20
456.0
 30
0.0
 11
216.000000000001
 21
461.5
 31
0.0
 70
   160
  1
(<>)
  3
ISO-25
100
AcDbAlignedDimension
 13
86.771031918132
 23
254.0
 33
0.0
 14
345.22896808187
 24
254.0
 34
0.0
100
AcDbRotatedDimension
1001
ACAD
1000
DSTYLE
1002
{
1070
   270
1070
     2
1070
     6
1000
EX_NORM
1070
     7
1000
EX_NORM
1070
    41
1040
6.0
1070
    42
1040
3.0
1070
    44
1040
2.0
1070
    73
1070
     0
1070
    74
1070
     0
1070
    75
1070
     0
1070
    76
1070
     0
1070
    77
1070
     1
1070
    78
1070
     0
1070
   140
1040
6.92580831408776
1070
   147
1040
0.0
1070
   173
1070
     1
1070
   176
1070
     2
1070
   177
1070
     2
1070
   178
1070
     2
1070
   271
1070
     0
1070
   277
1070
     2
1070
   279
1070
     2
1070
   280
1070
     0
1070
   287
1070
     5
1070
   340
1005
266
1002
}
  0
LINE
  5
307
330
1F
100
AcDbEntity
  8
Ｓ_１_１
  6
CONTINUOUS
 62
     3
100
AcDbLine
 10
253.4490933194254
 20
318.2671256025476
 30
0.0
 11
254.913195736656
 21
316.8030269106073
 31
0.0
  0
POLYLINE
  5
308
330
1F
100
AcDbEntity
  8
Ｓ_１_１
  6
CONTINUOUS
 62
     3
100
AcDb2dPolyline
 66
     1
 10
0.0
 20
0.0
 30
0.0
 70
   128
  0
VERTEX
  5
309
330
308
100
AcDbEntity
  8
Ｓ_１_１
  6
CONTINUOUS
 62
     3
100
AcDbVertex
100
AcDb2dVertex
 10
258.9490951522678
 20
315.0917030532999
 30
0.0
  0
VERTEX
  5
30A
330
308
100
AcDbEntity
  8
Ｓ_１_１
  6
CONTINUOUS
 62
     3
100
AcDbVertex
100
AcDb2dVertex
 10
255.9975811764091
 20
316.2693045695464
 30
0.0
  0
VERTEX
  5
30B
330
308
100
AcDbEntity
  8
Ｓ_１_１
  6
CONTINUOUS
 62
     3
100
AcDbVertex
100
AcDb2dVertex
 10
253.4490933194254
 20
318.2671256025476
 30
0.0
  0
SEQEND
  5
30C
330
308
100
AcDbEntity
  8
Ｓ_１_１
  6
CONTINUOUS
 62
     3
  0
LINE
  5
30D
330
1F
100
AcDbEntity
  8
Ｓ_１_１
  6
CONTINUOUS
 62
     3
100
AcDbLine
 10
287.3015494569629
 20
331.8679816682975
 30
0.0
 11
286.5423613711689
 21
333.1829346378486
 31
0.0
  0
LINE
  5
30E
330
1F
100
AcDbEntity
  8
Ｓ_１_１
  6
CONTINUOUS
 62
     3
100
AcDbLine
 10
271.8199284299701
 20
341.6829369624299
 30
0.0
 11
270.3015485330909
 21
341.6829369624299
 31
0.0
  0
LINE
  5
30F
330
1F
100
AcDbEntity
  8
Ｓ_１_１
  6
CONTINUOUS
 62
     3
100
AcDbLine
 10
283.542359016785
 20
327.9867879708452
 30
0.0
 11
285.0607389136642
 21
327.9867879708452
 31
0.0
  0
LINE
  5
310
330
1F
100
AcDbEntity
  8
Ｓ_１_１
  6
CONTINUOUS
 62
     3
100
AcDbLine
 10
268.0607379897922
 20
337.8017358143968
 30
0.0
 11
268.8199298008769
 21
336.4867828448457
 31
0.0
  0
LINE
  5
311
330
1F
100
AcDbEntity
  8
Ｓ_１_１
  6
CONTINUOUS
 62
     3
100
AcDbLine
 10
277.6119948848575
 20
344.7150922973792
 30
0.0
 11
274.8510183318942
 21
339.9329371412437
 31
0.0
  0
LINE
  5
312
330
1F
100
AcDbEntity
  8
Ｓ_１_１
  6
CONTINUOUS
 62
     3
100
AcDbLine
 10
283.5112714692443
 20
334.9329344590349
 30
0.0
 11
286.272248022208
 21
339.7150896151702
 31
0.0
  0
LINE
  5
313
330
1F
100
AcDbEntity
  8
Ｓ_１_１
  6
CONTINUOUS
 62
     3
100
AcDbLine
 10
286.272248022208
 20
339.7150896151702
 30
0.0
 11
285.7942038699478
 21
340.5430875380678
 31
0.0
  0
LINE
  5
314
330
1F
100
AcDbEntity
  8
Ｓ_１_１
  6
CONTINUOUS
 62
     3
100
AcDbLine
 10
278.5680869146674
 20
344.7150922973794
 30
0.0
 11
277.6119948848575
 21
344.7150922973792
 31
0.0
  0
LINE
  5
315
330
1F
100
AcDbEntity
  8
Ｓ_１_１
  6
CONTINUOUS
 62
     3
100
AcDbLine
 10
286.9131953939288
 20
325.4218287428062
 30
0.0
 11
285.4490929766982
 21
326.8859348853271
 31
0.0
  0
LINE
  5
316
330
1F
100
AcDbEntity
  8
Ｓ_１_１
  6
CONTINUOUS
 62
     3
100
AcDbLine
 10
266.9131958409641
 20
337.5876359303634
 30
0.0
 11
264.9131955131381
 21
338.1235338409585
 31
0.0
  0
POLYLINE
  5
317
330
1F
100
AcDbEntity
  8
Ｓ_１_１
  6
CONTINUOUS
 62
     3
100
AcDb2dPolyline
 66
     1
 10
0.0
 20
0.0
 30
0.0
 70
   128
  0
VERTEX
  5
318
330
317
100
AcDbEntity
  8
Ｓ_１_１
  6
CONTINUOUS
 62
     3
100
AcDbVertex
100
AcDb2dVertex
 10
272.3107391520828
 20
335.3479988535089
 30
0.0
  0
VERTEX
  5
319
330
317
100
AcDbEntity
  8
Ｓ_１_１
  6
CONTINUOUS
 62
     3
100
AcDbVertex
100
AcDb2dVertex
 10
270.9942327364772
 20
335.4720584710283
 30
0.0
  0
VERTEX
  5
31A
330
317
100
AcDbEntity
  8
Ｓ_１_１
  6
CONTINUOUS
 62
     3
100
AcDbVertex
100
AcDb2dVertex
 10
269.8061445280402
 20
335.9173945744676
 30
0.0
  0
SEQEND
  5
31B
330
317
100
AcDbEntity
  8
Ｓ_１_１
  6
CONTINUOUS
 62
     3
  0
POLYLINE
  5
31C
330
1F
100
AcDbEntity
  8
Ｓ_１_１
  6
CONTINUOUS
 62
     3
100
AcDb2dPolyline
 66
     1
 10
0.0
 20
0.0
 30
0.0
 70
   128
  0
VERTEX
  5
31D
330
31C
100
AcDbEntity
  8
Ｓ_１_１
  6
CONTINUOUS
 62
     3
100
AcDbVertex
100
AcDb2dVertex
 10
269.8061445280402
 20
335.9173945744676
 30
0.0
  0
VERTEX
  5
31E
330
31C
100
AcDbEntity
  8
Ｓ_１_１
  6
CONTINUOUS
 62
     3
100
AcDbVertex
100
AcDb2dVertex
 10
269.6571031137794
 20
336.0082171519441
 30
0.0
  0
VERTEX
  5
31F
330
31C
100
AcDbEntity
  8
Ｓ_１_１
  6
CONTINUOUS
 62
     3
100
AcDbVertex
100
AcDb2dVertex
 10
268.7814587279647
 20
336.7744050582094
 30
0.0
  0
VERTEX
  5
320
330
31C
100
AcDbEntity
  8
Ｓ_１_１
  6
CONTINUOUS
 62
     3
100
AcDbVertex
100
AcDb2dVertex
 10
268.0607379897922
 20
337.8017358143968
 30
0.0
  0
SEQEND
  5
321
330
31C
100
AcDbEntity
  8
Ｓ_１_１
  6
CONTINUOUS
 62
     3
  0
LINE
  5
322
330
1F
100
AcDbEntity
  8
Ｓ_１_１
  6
CONTINUOUS
 62
     3
100
AcDbLine
 10
268.0607379897922
 20
337.8017358143968
 30
0.0
 11
270.3015485330909
 21
341.6829369624299
 31
0.0
  0
POLYLINE
  5
323
330
1F
100
AcDbEntity
  8
Ｓ_１_１
  6
CONTINUOUS
 62
     3
100
AcDb2dPolyline
 66
     1
 10
0.0
 20
0.0
 30
0.0
 70
   128
  0
VERTEX
  5
324
330
323
100
AcDbEntity
  8
Ｓ_１_１
  6
CONTINUOUS
 62
     3
100
AcDbVertex
100
AcDb2dVertex
 10
272.8061431571334
 20
341.1135412414712
 30
0.0
  0
VERTEX
  5
325
330
323
100
AcDbEntity
  8
Ｓ_１_１
  6
CONTINUOUS
 62
     3
100
AcDbVertex
100
AcDb2dVertex
 10
272.6529666706413
 20
341.1972038109941
 30
0.0
  0
VERTEX
  5
326
330
323
100
AcDbEntity
  8
Ｓ_１_１
  6
CONTINUOUS
 62
     3
100
AcDbVertex
100
AcDb2dVertex
 10
271.5516069456428
 20
341.5724448521773
 30
0.0
  0
VERTEX
  5
327
330
323
100
AcDbEntity
  8
Ｓ_１_１
  6
CONTINUOUS
 62
     3
100
AcDbVertex
100
AcDb2dVertex
 10
270.3015485330909
 20
341.6829369624299
 30
0.0
  0
SEQEND
  5
328
330
323
100
AcDbEntity
  8
Ｓ_１_１
  6
CONTINUOUS
 62
     3
  0
POLYLINE
  5
329
330
1F
100
AcDbEntity
  8
Ｓ_１_１
  6
CONTINUOUS
 62
     3
100
AcDb2dPolyline
 66
     1
 10
0.0
 20
0.0
 30
0.0
 70
   128
  0
VERTEX
  5
32A
330
329
100
AcDbEntity
  8
Ｓ_１_１
  6
CONTINUOUS
 62
     3
100
AcDbVertex
100
AcDb2dVertex
 10
274.5515496953815
 20
339.229200001542
 30
0.0
  0
VERTEX
  5
32B
330
329
100
AcDbEntity
  8
Ｓ_１_１
  6
CONTINUOUS
 62
     3
100
AcDbVertex
100
AcDb2dVertex
 10
273.7858609780162
 20
340.3072915633361
 30
0.0
  0
VERTEX
  5
32C
330
329
100
AcDbEntity
  8
Ｓ_１_１
  6
CONTINUOUS
 62
     3
100
AcDbVertex
100
AcDb2dVertex
 10
272.8061431571334
 20
341.1135412414712
 30
0.0
  0
SEQEND
  5
32D
330
329
100
AcDbEntity
  8
Ｓ_１_１
  6
CONTINUOUS
 62
     3
  0
LINE
  5
32E
330
1F
100
AcDbEntity
  8
Ｓ_１_１
  6
CONTINUOUS
 62
     3
100
AcDbLine
 10
272.3107391520828
 20
335.3479988535089
 30
0.0
 11
274.5515496953815
 21
339.229200001542
 31
0.0
  0
POLYLINE
  5
32F
330
1F
100
AcDbEntity
  8
Ｓ_１_１
  6
CONTINUOUS
 62
     3
100
AcDb2dPolyline
 66
     1
 10
0.0
 20
0.0
 30
0.0
 70
   128
  0
VERTEX
  5
330
330
32F
100
AcDbEntity
  8
Ｓ_１_１
  6
CONTINUOUS
 62
     3
100
AcDbVertex
100
AcDb2dVertex
 10
280.8107377513736
 20
330.4405249317331
 30
0.0
  0
VERTEX
  5
331
330
32F
100
AcDbEntity
  8
Ｓ_１_１
  6
CONTINUOUS
 62
     3
100
AcDbVertex
100
AcDb2dVertex
 10
279.5758263691753
 20
330.7818062265558
 30
0.0
  0
VERTEX
  5
332
330
32F
100
AcDbEntity
  8
Ｓ_１_１
  6
CONTINUOUS
 62
     3
100
AcDbVertex
100
AcDb2dVertex
 10
276.181144408831
 20
332.2367854078454
 30
0.0
  0
SEQEND
  5
333
330
32F
100
AcDbEntity
  8
Ｓ_１_１
  6
CONTINUOUS
 62
     3
  0
POLYLINE
  5
334
330
1F
100
AcDbEntity
  8
Ｓ_１_１
  6
CONTINUOUS
 62
     3
100
AcDb2dPolyline
 66
     1
 10
0.0
 20
0.0
 30
0.0
 70
   128
  0
VERTEX
  5
335
330
334
100
AcDbEntity
  8
Ｓ_１_１
  6
CONTINUOUS
 62
     3
100
AcDbVertex
100
AcDb2dVertex
 10
276.181144408831
 20
332.2367854078454
 30
0.0
  0
VERTEX
  5
336
330
334
100
AcDbEntity
  8
Ｓ_１_１
  6
CONTINUOUS
 62
     3
100
AcDbVertex
100
AcDb2dVertex
 10
275.0546538754791
 20
332.9566828568618
 30
0.0
  0
VERTEX
  5
337
330
334
100
AcDbEntity
  8
Ｓ_１_１
  6
CONTINUOUS
 62
     3
100
AcDbVertex
100
AcDb2dVertex
 10
272.3107391520828
 20
335.3479988535089
 30
0.0
  0
SEQEND
  5
338
330
334
100
AcDbEntity
  8
Ｓ_１_１
  6
CONTINUOUS
 62
     3
  0
POLYLINE
  5
339
330
1F
100
AcDbEntity
  8
Ｓ_１_１
  6
CONTINUOUS
 62
     3
100
AcDb2dPolyline
 66
     1
 10
0.0
 20
0.0
 30
0.0
 70
   128
  0
VERTEX
  5
33A
330
339
100
AcDbEntity
  8
Ｓ_１_１
  6
CONTINUOUS
 62
     3
100
AcDbVertex
100
AcDb2dVertex
 10
279.1811430379241
 20
337.4329395254297
 30
0.0
  0
VERTEX
  5
33B
330
339
100
AcDbEntity
  8
Ｓ_１_１
  6
CONTINUOUS
 62
     3
100
AcDbVertex
100
AcDb2dVertex
 10
277.9944480880588
 20
338.0485586484115
 30
0.0
  0
VERTEX
  5
33C
330
339
100
AcDbEntity
  8
Ｓ_１_１
  6
CONTINUOUS
 62
     3
100
AcDbVertex
100
AcDb2dVertex
 10
274.5515496953815
 20
339.229200001542
 30
0.0
  0
SEQEND
  5
33D
330
339
100
AcDbEntity
  8
Ｓ_１_１
  6
CONTINUOUS
 62
     3
  0
POLYLINE
  5
33E
330
1F
100
AcDbEntity
  8
Ｓ_１_１
  6
CONTINUOUS
 62
     3
100
AcDb2dPolyline
 66
     1
 10
0.0
 20
0.0
 30
0.0
 70
   128
  0
VERTEX
  5
33F
330
33E
100
AcDbEntity
  8
Ｓ_１_１
  6
CONTINUOUS
 62
     3
100
AcDbVertex
100
AcDb2dVertex
 10
283.0515482946723
 20
334.3217186291859
 30
0.0
  0
VERTEX
  5
340
330
33E
100
AcDbEntity
  8
Ｓ_１_１
  6
CONTINUOUS
 62
     3
100
AcDbVertex
100
AcDb2dVertex
 10
282.1385355218738
 20
335.2205492218179
 30
0.0
  0
VERTEX
  5
341
330
33E
100
AcDbEntity
  8
Ｓ_１_１
  6
CONTINUOUS
 62
     3
100
AcDbVertex
100
AcDb2dVertex
 10
279.1811430379241
 20
337.4329395254297
 30
0.0
  0
SEQEND
  5
342
330
33E
100
AcDbEntity
  8
Ｓ_１_１
  6
CONTINUOUS
 62
     3
  0
LINE
  5
343
330
1F
100
AcDbEntity
  8
Ｓ_１_１
  6
CONTINUOUS
 62
     3
100
AcDbLine
 10
280.8107377513736
 20
330.4405249317331
 30
0.0
 11
283.0515482946723
 21
334.3217186291859
 31
0.0
  0
LINE
  5
344
330
1F
100
AcDbEntity
  8
Ｓ_１_１
  6
CONTINUOUS
 62
     3
100
AcDbLine
 10
279.1811443373024
 20
337.4329368001506
 30
0.0
 11
272.8061443373024
 21
341.1135447662341
 31
0.0
  0
POLYLINE
  5
345
330
1F
100
AcDbEntity
  8
Ｓ_１_１
  6
CONTINUOUS
 62
     3
100
AcDb2dPolyline
 66
     1
 10
0.0
 20
0.0
 30
0.0
 70
   128
  0
VERTEX
  5
346
330
345
100
AcDbEntity
  8
Ｓ_１_１
  6
CONTINUOUS
 62
     3
100
AcDbVertex
100
AcDb2dVertex
 10
282.5561442896217
 20
328.5561762412233
 30
0.0
  0
VERTEX
  5
347
330
345
100
AcDbEntity
  8
Ｓ_１_１
  6
CONTINUOUS
 62
     3
100
AcDbVertex
100
AcDb2dVertex
 10
282.4071028753608
 20
328.6469988186998
 30
0.0
  0
VERTEX
  5
348
330
345
100
AcDbEntity
  8
Ｓ_１_１
  6
CONTINUOUS
 62
     3
100
AcDbVertex
100
AcDb2dVertex
 10
281.5314584895461
 20
329.413186724965
 30
0.0
  0
VERTEX
  5
349
330
345
100
AcDbEntity
  8
Ｓ_１_１
  6
CONTINUOUS
 62
     3
100
AcDbVertex
100
AcDb2dVertex
 10
280.8107377513736
 20
330.4405249317331
 30
0.0
  0
SEQEND
  5
34A
330
345
100
AcDbEntity
  8
Ｓ_１_１
  6
CONTINUOUS
 62
     3
  0
POLYLINE
  5
34B
330
1F
100
AcDbEntity
  8
Ｓ_１_１
  6
CONTINUOUS
 62
     3
100
AcDb2dPolyline
 66
     1
 10
0.0
 20
0.0
 30
0.0
 70
   128
  0
VERTEX
  5
34C
330
34B
100
AcDbEntity
  8
Ｓ_１_１
  6
CONTINUOUS
 62
     3
100
AcDbVertex
100
AcDb2dVertex
 10
285.5561429187148
 20
333.7523303588077
 30
0.0
  0
VERTEX
  5
34D
330
34B
100
AcDbEntity
  8
Ｓ_１_１
  6
CONTINUOUS
 62
     3
100
AcDbVertex
100
AcDb2dVertex
 10
285.402970157513
 20
333.8359929283306
 30
0.0
  0
VERTEX
  5
34E
330
34B
100
AcDbEntity
  8
Ｓ_１_１
  6
CONTINUOUS
 62
     3
100
AcDbVertex
100
AcDb2dVertex
 10
284.3016067072242
 20
334.211226518933
 30
0.0
  0
VERTEX
  5
34F
330
34B
100
AcDbEntity
  8
Ｓ_１_１
  6
CONTINUOUS
 62
     3
100
AcDbVertex
100
AcDb2dVertex
 10
283.0515482946723
 20
334.3217186291859
 30
0.0
  0
SEQEND
  5
350
330
34B
100
AcDbEntity
  8
Ｓ_１_１
  6
CONTINUOUS
 62
     3
  0
LINE
  5
351
330
1F
100
AcDbEntity
  8
Ｓ_１_１
  6
CONTINUOUS
 62
     3
100
AcDbLine
 10
285.5561443373024
 20
333.7523288340669
 30
0.0
 11
279.1811443373024
 21
337.4329368001506
 31
0.0
  0
POLYLINE
  5
352
330
1F
100
AcDbEntity
  8
Ｓ_１_１
  6
CONTINUOUS
 62
     3
100
AcDb2dPolyline
 66
     1
 10
0.0
 20
0.0
 30
0.0
 70
   128
  0
VERTEX
  5
353
330
352
100
AcDbEntity
  8
Ｓ_１_１
  6
CONTINUOUS
 62
     3
100
AcDbVertex
100
AcDb2dVertex
 10
285.0607389136642
 20
327.9867879708452
 30
0.0
  0
VERTEX
  5
354
330
352
100
AcDbEntity
  8
Ｓ_１_１
  6
CONTINUOUS
 62
     3
100
AcDbVertex
100
AcDb2dVertex
 10
283.7442324980586
 20
328.110840137784
 30
0.0
  0
VERTEX
  5
355
330
352
100
AcDbEntity
  8
Ｓ_１_１
  6
CONTINUOUS
 62
     3
100
AcDbVertex
100
AcDb2dVertex
 10
282.5561442896217
 20
328.5561762412233
 30
0.0
  0
SEQEND
  5
356
330
352
100
AcDbEntity
  8
Ｓ_１_１
  6
CONTINUOUS
 62
     3
  0
POLYLINE
  5
357
330
1F
100
AcDbEntity
  8
Ｓ_１_１
  6
CONTINUOUS
 62
     3
100
AcDb2dPolyline
 66
     1
 10
0.0
 20
0.0
 30
0.0
 70
   128
  0
VERTEX
  5
358
330
357
100
AcDbEntity
  8
Ｓ_１_１
  6
CONTINUOUS
 62
     3
100
AcDbVertex
100
AcDb2dVertex
 10
287.3015494569629
 20
331.8679816682975
 30
0.0
  0
VERTEX
  5
359
330
357
100
AcDbEntity
  8
Ｓ_１_１
  6
CONTINUOUS
 62
     3
100
AcDbVertex
100
AcDb2dVertex
 10
286.5358607395981
 20
332.9460806806724
 30
0.0
  0
VERTEX
  5
35A
330
357
100
AcDbEntity
  8
Ｓ_１_１
  6
CONTINUOUS
 62
     3
100
AcDbVertex
100
AcDb2dVertex
 10
285.5561429187148
 20
333.7523303588077
 30
0.0
  0
SEQEND
  5
35B
330
357
100
AcDbEntity
  8
Ｓ_１_１
  6
CONTINUOUS
 62
     3
  0
LINE
  5
35C
330
1F
100
AcDbEntity
  8
Ｓ_１_１
  6
CONTINUOUS
 62
     3
100
AcDbLine
 10
285.0607389136642
 20
327.9867879708452
 30
0.0
 11
287.3015494569629
 21
331.8679816682975
 31
0.0
  0
LINE
  5
35D
330
1F
100
AcDbEntity
  8
Ｓ_１_１
  6
CONTINUOUS
 62
     3
100
AcDbLine
 10
286.5423602694702
 20
333.1829368001506
 30
0.0
 11
285.5561443373024
 21
333.7523288340669
 31
0.0
  0
LINE
  5
35E
330
1F
100
AcDbEntity
  8
Ｓ_１_１
  6
CONTINUOUS
 62
     3
100
AcDbLine
 10
272.8061443373024
 20
341.1135447662341
 30
0.0
 11
271.8199284051345
 21
341.6829368001504
 31
0.0
  0
LINE
  5
35F
330
1F
100
AcDbEntity
  8
Ｓ_１_１
  6
CONTINUOUS
 62
     3
100
AcDbLine
 10
277.6119943069355
 20
344.7150892228569
 30
0.0
 11
286.2722483447799
 21
339.7150892228572
 31
0.0
  0
LINE
  5
360
330
1F
100
AcDbEntity
  8
Ｓ_１_１
  6
CONTINUOUS
 62
     3
100
AcDbLine
 10
278.5680863527134
 20
344.7150892228572
 30
0.0
 11
285.7942023218909
 21
340.5430892228571
 31
0.0
  0
POLYLINE
  5
361
330
1F
100
AcDbEntity
  8
Ｓ_１_１
  6
CONTINUOUS
 62
     3
100
AcDb2dPolyline
 66
     1
 10
0.0
 20
0.0
 30
0.0
 70
   128
  0
VERTEX
  5
362
330
361
100
AcDbEntity
  8
Ｓ_１_１
  6
CONTINUOUS
 62
     3
100
AcDbVertex
100
AcDb2dVertex
 10
281.4131954237312
 20
328.5972587426347
 30
0.0
  0
VERTEX
  5
363
330
361
100
AcDbEntity
  8
Ｓ_１_１
  6
CONTINUOUS
 62
     3
100
AcDbVertex
100
AcDb2dVertex
 10
284.3647093995899
 20
327.4196572263877
 30
0.0
  0
VERTEX
  5
364
330
361
100
AcDbEntity
  8
Ｓ_１_１
  6
CONTINUOUS
 62
     3
100
AcDbVertex
100
AcDb2dVertex
 10
286.9131953939288
 20
325.4218287428062
 30
0.0
  0
SEQEND
  5
365
330
361
100
AcDbEntity
  8
Ｓ_１_１
  6
CONTINUOUS
 62
     3
  0
POLYLINE
  5
366
330
1F
100
AcDbEntity
  8
Ｓ_１_１
  6
CONTINUOUS
 62
     3
100
AcDb2dPolyline
 66
     1
 10
0.0
 20
0.0
 30
0.0
 70
   128
  0
VERTEX
  5
367
330
366
100
AcDbEntity
  8
Ｓ_１_１
  6
CONTINUOUS
 62
     3
100
AcDbVertex
100
AcDb2dVertex
 10
270.4131954833358
 20
334.9481112917108
 30
0.0
  0
VERTEX
  5
368
330
366
100
AcDbEntity
  8
Ｓ_１_１
  6
CONTINUOUS
 62
     3
100
AcDbVertex
100
AcDb2dVertex
 10
275.4051180108875
 20
332.5825072487037
 30
0.0
  0
VERTEX
  5
369
330
366
100
AcDbEntity
  8
Ｓ_１_１
  6
CONTINUOUS
 62
     3
100
AcDbVertex
100
AcDb2dVertex
 10
280.127411477217
 20
329.5617289503257
 30
0.0
  0
VERTEX
  5
36A
330
366
100
AcDbEntity
  8
Ｓ_１_１
  6
CONTINUOUS
 62
     3
100
AcDbVertex
100
AcDb2dVertex
 10
281.4131954237312
 20
328.5972587426347
 30
0.0
  0
SEQEND
  5
36B
330
366
100
AcDbEntity
  8
Ｓ_１_１
  6
CONTINUOUS
 62
     3
  0
POLYLINE
  5
36C
330
1F
100
AcDbEntity
  8
Ｓ_１_１
  6
CONTINUOUS
 62
     3
100
AcDb2dPolyline
 66
     1
 10
0.0
 20
0.0
 30
0.0
 70
   128
  0
VERTEX
  5
36D
330
36C
100
AcDbEntity
  8
Ｓ_１_１
  6
CONTINUOUS
 62
     3
100
AcDbVertex
100
AcDb2dVertex
 10
264.9131955131381
 20
338.1235338409585
 30
0.0
  0
VERTEX
  5
36E
330
36C
100
AcDbEntity
  8
Ｓ_１_１
  6
CONTINUOUS
 62
     3
100
AcDbVertex
100
AcDb2dVertex
 10
267.8647094889968
 20
336.9459323247117
 30
0.0
  0
VERTEX
  5
36F
330
36C
100
AcDbEntity
  8
Ｓ_１_１
  6
CONTINUOUS
 62
     3
100
AcDbVertex
100
AcDb2dVertex
 10
270.4131954833358
 20
334.9481112917108
 30
0.0
  0
SEQEND
  5
370
330
36C
100
AcDbEntity
  8
Ｓ_１_１
  6
CONTINUOUS
 62
     3
  0
LINE
  5
371
330
1F
100
AcDbEntity
  8
Ｓ_１_１
  6
CONTINUOUS
 62
     3
100
AcDbLine
 10
266.913195144871
 20
337.5876373385297
 30
0.0
 11
285.4490935297338
 21
326.8859314163581
 31
0.0
  0
LINE
  5
372
330
1F
100
AcDbEntity
  8
Ｓ_１_１
  6
CONTINUOUS
 62
     3
100
AcDbLine
 10
264.9131955131381
 20
338.1235338409585
 30
0.0
 11
253.4490933194254
 21
318.2671256025476
 31
0.0
  0
LINE
  5
373
330
1F
100
AcDbEntity
  8
Ｓ_１_１
  6
CONTINUOUS
 62
     3
100
AcDbLine
 10
270.4131954833358
 20
334.9481112917108
 30
0.0
 11
258.9490951522678
 21
315.0917030532999
 31
0.0
  0
LINE
  5
374
330
1F
100
AcDbEntity
  8
Ｓ_１_１
  6
CONTINUOUS
 62
     3
100
AcDbLine
 10
265.8201681565649
 20
308.9328665287705
 30
0.0
 11
256.3424296240144
 21
314.4048419624314
 31
0.0
  0
POLYLINE
  5
375
330
1F
100
AcDbEntity
  8
Ｓ_１_１
  6
CONTINUOUS
 62
     3
100
AcDb2dPolyline
 66
     1
 10
0.0
 20
0.0
 30
0.0
 70
   128
  0
VERTEX
  5
376
330
375
100
AcDbEntity
  8
Ｓ_１_１
  6
CONTINUOUS
 62
     3
100
AcDbVertex
100
AcDb2dVertex
 10
231.0000000000007
 20
321.74119567871
 30
0.0
  0
VERTEX
  5
377
330
375
100
AcDbEntity
  8
Ｓ_１_１
  6
CONTINUOUS
 62
     3
100
AcDbVertex
100
AcDb2dVertex
 10
231.0108359384278
 20
321.7338147493318
 30
0.0
  0
VERTEX
  5
378
330
375
100
AcDbEntity
  8
Ｓ_１_１
  6
CONTINUOUS
 62
     3
100
AcDbVertex
100
AcDb2dVertex
 10
231.0415577679003
 20
321.7127831827102
 30
0.0
  0
VERTEX
  5
379
330
375
100
AcDbEntity
  8
Ｓ_１_１
  6
CONTINUOUS
 62
     3
100
AcDbVertex
100
AcDb2dVertex
 10
231.0894865097055
 20
321.6797678111151
 30
0.0
  0
VERTEX
  5
37A
330
375
100
AcDbEntity
  8
Ｓ_１_１
  6
CONTINUOUS
 62
     3
100
AcDbVertex
100
AcDb2dVertex
 10
231.1519431851302
 20
321.6364354668159
 30
0.0
  0
VERTEX
  5
37B
330
375
100
AcDbEntity
  8
Ｓ_１_１
  6
CONTINUOUS
 62
     3
100
AcDbVertex
100
AcDb2dVertex
 10
231.2262488154614
 20
321.5844529820826
 30
0.0
  0
VERTEX
  5
37C
330
375
100
AcDbEntity
  8
Ｓ_１_１
  6
CONTINUOUS
 62
     3
100
AcDbVertex
100
AcDb2dVertex
 10
231.3097244219863
 20
321.5254871891845
 30
0.0
  0
VERTEX
  5
37D
330
375
100
AcDbEntity
  8
Ｓ_１_１
  6
CONTINUOUS
 62
     3
100
AcDbVertex
100
AcDb2dVertex
 10
231.3996910259919
 20
321.4612049203917
 30
0.0
  0
VERTEX
  5
37E
330
375
100
AcDbEntity
  8
Ｓ_１_１
  6
CONTINUOUS
 62
     3
100
AcDbVertex
100
AcDb2dVertex
 10
231.4934696487651
 20
321.3932730079737
 30
0.0
  0
VERTEX
  5
37F
330
375
100
AcDbEntity
  8
Ｓ_１_１
  6
CONTINUOUS
 62
     3
100
AcDbVertex
100
AcDb2dVertex
 10
231.5883813115931
 20
321.3233582842001
 30
0.0
  0
VERTEX
  5
380
330
375
100
AcDbEntity
  8
Ｓ_１_１
  6
CONTINUOUS
 62
     3
100
AcDbVertex
100
AcDb2dVertex
 10
231.6817470357628
 20
321.2531275813408
 30
0.0
  0
VERTEX
  5
381
330
375
100
AcDbEntity
  8
Ｓ_１_１
  6
CONTINUOUS
 62
     3
100
AcDbVertex
100
AcDb2dVertex
 10
231.7708878425613
 20
321.1842477316655
 30
0.0
  0
VERTEX
  5
382
330
375
100
AcDbEntity
  8
Ｓ_１_１
  6
CONTINUOUS
 62
     3
100
AcDbVertex
100
AcDb2dVertex
 10
231.8535584283603
 20
321.1181355606274
 30
0.0
  0
VERTEX
  5
383
330
375
100
AcDbEntity
  8
Ｓ_１_１
  6
CONTINUOUS
 62
     3
100
AcDbVertex
100
AcDb2dVertex
 10
231.9300303289127
 20
321.0545782272351
 30
0.0
  0
VERTEX
  5
384
330
375
100
AcDbEntity
  8
Ｓ_１_１
  6
CONTINUOUS
 62
     3
100
AcDbVertex
100
AcDb2dVertex
 10
232.0009866974728
 20
320.9931225250263
 30
0.0
  0
VERTEX
  5
385
330
375
100
AcDbEntity
  8
Ｓ_１_１
  6
CONTINUOUS
 62
     3
100
AcDbVertex
100
AcDb2dVertex
 10
232.0671106872952
 20
320.9333152475388
 30
0.0
  0
VERTEX
  5
386
330
375
100
AcDbEntity
  8
Ｓ_１_１
  6
CONTINUOUS
 62
     3
100
AcDbVertex
100
AcDb2dVertex
 10
232.1290854516341
 20
320.8747031883103
 30
0.0
  0
VERTEX
  5
387
330
375
100
AcDbEntity
  8
Ｓ_１_１
  6
CONTINUOUS
 62
     3
100
AcDbVertex
100
AcDb2dVertex
 10
232.1875941437441
 20
320.8168331408787
 30
0.0
  0
VERTEX
  5
388
330
375
100
AcDbEntity
  8
Ｓ_１_１
  6
CONTINUOUS
 62
     3
100
AcDbVertex
100
AcDb2dVertex
 10
232.2433199168797
 20
320.7592518987814
 30
0.0
  0
VERTEX
  5
389
330
375
100
AcDbEntity
  8
Ｓ_１_１
  6
CONTINUOUS
 62
     3
100
AcDbVertex
100
AcDb2dVertex
 10
232.2969459242952
 20
320.7015062555562
 30
0.0
  0
VERTEX
  5
38A
330
375
100
AcDbEntity
  8
Ｓ_１_１
  6
CONTINUOUS
 62
     3
100
AcDbVertex
100
AcDb2dVertex
 10
232.3491553192452
 20
320.643143004741
 30
0.0
  0
VERTEX
  5
38B
330
375
100
AcDbEntity
  8
Ｓ_１_１
  6
CONTINUOUS
 62
     3
100
AcDbVertex
100
AcDb2dVertex
 10
232.4006312549841
 20
320.5837089398734
 30
0.0
  0
VERTEX
  5
38C
330
375
100
AcDbEntity
  8
Ｓ_１_１
  6
CONTINUOUS
 62
     3
100
AcDbVertex
100
AcDb2dVertex
 10
232.4520568847663
 20
320.5227508544913
 30
0.0
  0
VERTEX
  5
38D
330
375
100
AcDbEntity
  8
Ｓ_１_１
  6
CONTINUOUS
 62
     3
100
AcDbVertex
100
AcDb2dVertex
 10
232.5008222461027
 20
320.4637689576407
 30
0.0
  0
VERTEX
  5
38E
330
375
100
AcDbEntity
  8
Ｓ_１_１
  6
CONTINUOUS
 62
     3
100
AcDbVertex
100
AcDb2dVertex
 10
232.550007115532
 20
320.403187049291
 30
0.0
  0
VERTEX
  5
38F
330
375
100
AcDbEntity
  8
Ｓ_１_１
  6
CONTINUOUS
 62
     3
100
AcDbVertex
100
AcDb2dVertex
 10
232.599472307803
 20
320.3411506631252
 30
0.0
  0
VERTEX
  5
390
330
375
100
AcDbEntity
  8
Ｓ_１_１
  6
CONTINUOUS
 62
     3
100
AcDbVertex
100
AcDb2dVertex
 10
232.6490786376643
 20
320.2778053328264
 30
0.0
  0
VERTEX
  5
391
330
375
100
AcDbEntity
  8
Ｓ_１_１
  6
CONTINUOUS
 62
     3
100
AcDbVertex
100
AcDb2dVertex
 10
232.6986869198648
 20
320.2132965920775
 30
0.0
  0
VERTEX
  5
392
330
375
100
AcDbEntity
  8
Ｓ_１_１
  6
CONTINUOUS
 62
     3
100
AcDbVertex
100
AcDb2dVertex
 10
232.7481579691532
 20
320.1477699745617
 30
0.0
  0
VERTEX
  5
393
330
375
100
AcDbEntity
  8
Ｓ_１_１
  6
CONTINUOUS
 62
     3
100
AcDbVertex
100
AcDb2dVertex
 10
232.7973526002784
 20
320.081371013962
 30
0.0
  0
VERTEX
  5
394
330
375
100
AcDbEntity
  8
Ｓ_１_１
  6
CONTINUOUS
 62
     3
100
AcDbVertex
100
AcDb2dVertex
 10
232.846131627989
 20
320.0142452439616
 30
0.0
  0
VERTEX
  5
395
330
375
100
AcDbEntity
  8
Ｓ_１_１
  6
CONTINUOUS
 62
     3
100
AcDbVertex
100
AcDb2dVertex
 10
232.8943558670339
 20
319.9465381982433
 30
0.0
  0
VERTEX
  5
396
330
375
100
AcDbEntity
  8
Ｓ_１_１
  6
CONTINUOUS
 62
     3
100
AcDbVertex
100
AcDb2dVertex
 10
232.9418861321617
 20
319.8783954104904
 30
0.0
  0
VERTEX
  5
397
330
375
100
AcDbEntity
  8
Ｓ_１_１
  6
CONTINUOUS
 62
     3
100
AcDbVertex
100
AcDb2dVertex
 10
232.9885832381215
 20
319.8099624143858
 30
0.0
  0
VERTEX
  5
398
330
375
100
AcDbEntity
  8
Ｓ_１_１
  6
CONTINUOUS
 62
     3
100
AcDbVertex
100
AcDb2dVertex
 10
233.034532671773
 20
319.7410777620004
 30
0.0
  0
VERTEX
  5
399
330
375
100
AcDbEntity
  8
Ｓ_１_１
  6
CONTINUOUS
 62
     3
100
AcDbVertex
100
AcDb2dVertex
 10
233.0795839619349
 20
319.6720602565895
 30
0.0
  0
VERTEX
  5
39A
330
375
100
AcDbEntity
  8
Ｓ_１_１
  6
CONTINUOUS
 62
     3
100
AcDbVertex
100
AcDb2dVertex
 10
233.1238193938216
 20
319.6029229226532
 30
0.0
  0
VERTEX
  5
39B
330
375
100
AcDbEntity
  8
Ｓ_１_１
  6
CONTINUOUS
 62
     3
100
AcDbVertex
100
AcDb2dVertex
 10
233.1673212526477
 20
319.5336787846917
 30
0.0
  0
VERTEX
  5
39C
330
375
100
AcDbEntity
  8
Ｓ_１_１
  6
CONTINUOUS
 62
     3
100
AcDbVertex
100
AcDb2dVertex
 10
233.2101718236278
 20
319.4643408672049
 30
0.0
  0
VERTEX
  5
39D
330
375
100
AcDbEntity
  8
Ｓ_１_１
  6
CONTINUOUS
 62
     3
100
AcDbVertex
100
AcDb2dVertex
 10
233.2524533919765
 20
319.3949221946929
 30
0.0
  0
VERTEX
  5
39E
330
375
100
AcDbEntity
  8
Ｓ_１_１
  6
CONTINUOUS
 62
     3
100
AcDbVertex
100
AcDb2dVertex
 10
233.2942482429083
 20
319.3254357916557
 30
0.0
  0
VERTEX
  5
39F
330
375
100
AcDbEntity
  8
Ｓ_１_１
  6
CONTINUOUS
 62
     3
100
AcDbVertex
100
AcDb2dVertex
 10
233.3356386616379
 20
319.2558946825934
 30
0.0
  0
VERTEX
  5
3A0
330
375
100
AcDbEntity
  8
Ｓ_１_１
  6
CONTINUOUS
 62
     3
100
AcDbVertex
100
AcDb2dVertex
 10
233.3767069333798
 20
319.1863118920062
 30
0.0
  0
VERTEX
  5
3A1
330
375
100
AcDbEntity
  8
Ｓ_１_１
  6
CONTINUOUS
 62
     3
100
AcDbVertex
100
AcDb2dVertex
 10
233.4175353433484
 20
319.116700444394
 30
0.0
  0
VERTEX
  5
3A2
330
375
100
AcDbEntity
  8
Ｓ_１_１
  6
CONTINUOUS
 62
     3
100
AcDbVertex
100
AcDb2dVertex
 10
233.4582061767586
 20
319.047073364257
 30
0.0
  0
VERTEX
  5
3A3
330
375
100
AcDbEntity
  8
Ｓ_１_１
  6
CONTINUOUS
 62
     3
100
AcDbVertex
100
AcDb2dVertex
 10
233.5031248293943
 20
318.9699806555296
 30
0.0
  0
VERTEX
  5
3A4
330
375
100
AcDbEntity
  8
Ｓ_１_１
  6
CONTINUOUS
 62
     3
100
AcDbVertex
100
AcDb2dVertex
 10
233.5479492583354
 20
318.8928175848312
 30
0.0
  0
VERTEX
  5
3A5
330
375
100
AcDbEntity
  8
Ｓ_１_１
  6
CONTINUOUS
 62
     3
100
AcDbVertex
100
AcDb2dVertex
 10
233.5926775029369
 20
318.8155169861005
 30
0.0
  0
VERTEX
  5
3A6
330
375
100
AcDbEntity
  8
Ｓ_１_１
  6
CONTINUOUS
 62
     3
100
AcDbVertex
100
AcDb2dVertex
 10
233.6373076025541
 20
318.7380116932758
 30
0.0
  0
VERTEX
  5
3A7
330
375
100
AcDbEntity
  8
Ｓ_１_１
  6
CONTINUOUS
 62
     3
100
AcDbVertex
100
AcDb2dVertex
 10
233.6818375965424
 20
318.6602345402956
 30
0.0
  0
VERTEX
  5
3A8
330
375
100
AcDbEntity
  8
Ｓ_１_１
  6
CONTINUOUS
 62
     3
100
AcDbVertex
100
AcDb2dVertex
 10
233.7262655242569
 20
318.5821183610987
 30
0.0
  0
VERTEX
  5
3A9
330
375
100
AcDbEntity
  8
Ｓ_１_１
  6
CONTINUOUS
 62
     3
100
AcDbVertex
100
AcDb2dVertex
 10
233.770589425053
 20
318.5035959896234
 30
0.0
  0
VERTEX
  5
3AA
330
375
100
AcDbEntity
  8
Ｓ_１_１
  6
CONTINUOUS
 62
     3
100
AcDbVertex
100
AcDb2dVertex
 10
233.814807338286
 20
318.4246002598084
 30
0.0
  0
VERTEX
  5
3AB
330
375
100
AcDbEntity
  8
Ｓ_１_１
  6
CONTINUOUS
 62
     3
100
AcDbVertex
100
AcDb2dVertex
 10
233.858917303311
 20
318.345064005592
 30
0.0
  0
VERTEX
  5
3AC
330
375
100
AcDbEntity
  8
Ｓ_１_１
  6
CONTINUOUS
 62
     3
100
AcDbVertex
100
AcDb2dVertex
 10
233.9029173594834
 20
318.2649200609131
 30
0.0
  0
VERTEX
  5
3AD
330
375
100
AcDbEntity
  8
Ｓ_１_１
  6
CONTINUOUS
 62
     3
100
AcDbVertex
100
AcDb2dVertex
 10
233.9468055461584
 20
318.18410125971
 30
0.0
  0
VERTEX
  5
3AE
330
375
100
AcDbEntity
  8
Ｓ_１_１
  6
CONTINUOUS
 62
     3
100
AcDbVertex
100
AcDb2dVertex
 10
233.9904649943526
 20
318.1027751827986
 30
0.0
  0
VERTEX
  5
3AF
330
375
100
AcDbEntity
  8
Ｓ_１_１
  6
CONTINUOUS
 62
     3
100
AcDbVertex
100
AcDb2dVertex
 10
234.0339040093905
 20
318.0209568208464
 30
0.0
  0
VERTEX
  5
3B0
330
375
100
AcDbEntity
  8
Ｓ_１_１
  6
CONTINUOUS
 62
     3
100
AcDbVertex
100
AcDb2dVertex
 10
234.0770154816998
 20
317.9388926093051
 30
0.0
  0
VERTEX
  5
3B1
330
375
100
AcDbEntity
  8
Ｓ_１_１
  6
CONTINUOUS
 62
     3
100
AcDbVertex
100
AcDb2dVertex
 10
234.1196923017079
 20
317.856828983626
 30
0.0
  0
VERTEX
  5
3B2
330
375
100
AcDbEntity
  8
Ｓ_１_１
  6
CONTINUOUS
 62
     3
100
AcDbVertex
100
AcDb2dVertex
 10
234.1618273598423
 20
317.7750123792605
 30
0.0
  0
VERTEX
  5
3B3
330
375
100
AcDbEntity
  8
Ｓ_１_１
  6
CONTINUOUS
 62
     3
100
AcDbVertex
100
AcDb2dVertex
 10
234.2033135465306
 20
317.6936892316602
 30
0.0
  0
VERTEX
  5
3B4
330
375
100
AcDbEntity
  8
Ｓ_１_１
  6
CONTINUOUS
 62
     3
100
AcDbVertex
100
AcDb2dVertex
 10
234.2440437522003
 20
317.6131059762764
 30
0.0
  0
VERTEX
  5
3B5
330
375
100
AcDbEntity
  8
Ｓ_１_１
  6
CONTINUOUS
 62
     3
100
AcDbVertex
100
AcDb2dVertex
 10
234.2839108672788
 20
317.5335090485607
 30
0.0
  0
VERTEX
  5
3B6
330
375
100
AcDbEntity
  8
Ｓ_１_１
  6
CONTINUOUS
 62
     3
100
AcDbVertex
100
AcDb2dVertex
 10
234.3228077821938
 20
317.4551448839646
 30
0.0
  0
VERTEX
  5
3B7
330
375
100
AcDbEntity
  8
Ｓ_１_１
  6
CONTINUOUS
 62
     3
100
AcDbVertex
100
AcDb2dVertex
 10
234.3606273873726
 20
317.3782599179394
 30
0.0
  0
VERTEX
  5
3B8
330
375
100
AcDbEntity
  8
Ｓ_１_１
  6
CONTINUOUS
 62
     3
100
AcDbVertex
100
AcDb2dVertex
 10
234.3972625732429
 20
317.3031005859366
 30
0.0
  0
VERTEX
  5
3B9
330
375
100
AcDbEntity
  8
Ｓ_１_１
  6
CONTINUOUS
 62
     3
100
AcDbVertex
100
AcDb2dVertex
 10
234.4231280059312
 20
317.2495881120024
 30
0.0
  0
VERTEX
  5
3BA
330
375
100
AcDbEntity
  8
Ｓ_１_１
  6
CONTINUOUS
 62
     3
100
AcDbVertex
100
AcDb2dVertex
 10
234.4485298937985
 20
317.1965515693827
 30
0.0
  0
VERTEX
  5
3BB
330
375
100
AcDbEntity
  8
Ｓ_１_１
  6
CONTINUOUS
 62
     3
100
AcDbVertex
100
AcDb2dVertex
 10
234.4736869278034
 20
317.1434251656062
 30
0.0
  0
VERTEX
  5
3BC
330
375
100
AcDbEntity
  8
Ｓ_１_１
  6
CONTINUOUS
 62
     3
100
AcDbVertex
100
AcDb2dVertex
 10
234.498817798905
 20
317.0896431082018
 30
0.0
  0
VERTEX
  5
3BD
330
375
100
AcDbEntity
  8
Ｓ_１_１
  6
CONTINUOUS
 62
     3
100
AcDbVertex
100
AcDb2dVertex
 10
234.5241411980618
 20
317.034639604698
 30
0.0
  0
VERTEX
  5
3BE
330
375
100
AcDbEntity
  8
Ｓ_１_１
  6
CONTINUOUS
 62
     3
100
AcDbVertex
100
AcDb2dVertex
 10
234.5498758162329
 20
316.9778488626237
 30
0.0
  0
VERTEX
  5
3BF
330
375
100
AcDbEntity
  8
Ｓ_１_１
  6
CONTINUOUS
 62
     3
100
AcDbVertex
100
AcDb2dVertex
 10
234.576240344377
 20
316.9187050895075
 30
0.0
  0
VERTEX
  5
3C0
330
375
100
AcDbEntity
  8
Ｓ_１_１
  6
CONTINUOUS
 62
     3
100
AcDbVertex
100
AcDb2dVertex
 10
234.6034534734529
 20
316.8566424928782
 30
0.0
  0
VERTEX
  5
3C1
330
375
100
AcDbEntity
  8
Ｓ_１_１
  6
CONTINUOUS
 62
     3
100
AcDbVertex
100
AcDb2dVertex
 10
234.6317338944194
 20
316.7910952802645
 30
0.0
  0
VERTEX
  5
3C2
330
375
100
AcDbEntity
  8
Ｓ_１_１
  6
CONTINUOUS
 62
     3
100
AcDbVertex
100
AcDb2dVertex
 10
234.6613002982353
 20
316.7214976591949
 30
0.0
  0
VERTEX
  5
3C3
330
375
100
AcDbEntity
  8
Ｓ_１_１
  6
CONTINUOUS
 62
     3
100
AcDbVertex
100
AcDb2dVertex
 10
234.6923713758595
 20
316.6472838371983
 30
0.0
  0
VERTEX
  5
3C4
330
375
100
AcDbEntity
  8
Ｓ_１_１
  6
CONTINUOUS
 62
     3
100
AcDbVertex
100
AcDb2dVertex
 10
234.7250007001888
 20
316.5683228709443
 30
0.0
  0
VERTEX
  5
3C5
330
375
100
AcDbEntity
  8
Ｓ_１_１
  6
CONTINUOUS
 62
     3
100
AcDbVertex
100
AcDb2dVertex
 10
234.7585136221045
 20
316.4863875696593
 30
0.0
  0
VERTEX
  5
3C6
330
375
100
AcDbEntity
  8
Ｓ_１_１
  6
CONTINUOUS
 62
     3
100
AcDbVertex
100
AcDb2dVertex
 10
234.7920691964766
 20
316.4036891336929
 30
0.0
  0
VERTEX
  5
3C7
330
375
100
AcDbEntity
  8
Ｓ_１_１
  6
CONTINUOUS
 62
     3
100
AcDbVertex
100
AcDb2dVertex
 10
234.8248264781748
 20
316.3224387633941
 30
0.0
  0
VERTEX
  5
3C8
330
375
100
AcDbEntity
  8
Ｓ_１_１
  6
CONTINUOUS
 62
     3
100
AcDbVertex
100
AcDb2dVertex
 10
234.855944522069
 20
316.2448476591128
 30
0.0
  0
VERTEX
  5
3C9
330
375
100
AcDbEntity
  8
Ｓ_１_１
  6
CONTINUOUS
 62
     3
100
AcDbVertex
100
AcDb2dVertex
 10
234.8845823830289
 20
316.1731270211981
 30
0.0
  0
VERTEX
  5
3CA
330
375
100
AcDbEntity
  8
Ｓ_１_１
  6
CONTINUOUS
 62
     3
100
AcDbVertex
100
AcDb2dVertex
 10
234.9098991159244
 20
316.1094880499995
 30
0.0
  0
VERTEX
  5
3CB
330
375
100
AcDbEntity
  8
Ｓ_１_１
  6
CONTINUOUS
 62
     3
100
AcDbVertex
100
AcDb2dVertex
 10
234.9310537756253
 20
316.0561419458665
 30
0.0
  0
VERTEX
  5
3CC
330
375
100
AcDbEntity
  8
Ｓ_１_１
  6
CONTINUOUS
 62
     3
100
AcDbVertex
100
AcDb2dVertex
 10
234.9472054170014
 20
316.0152999091484
 30
0.0
  0
VERTEX
  5
3CD
330
375
100
AcDbEntity
  8
Ｓ_１_１
  6
CONTINUOUS
 62
     3
100
AcDbVertex
100
AcDb2dVertex
 10
234.9575130949225
 20
315.9891731401946
 30
0.0
  0
VERTEX
  5
3CE
330
375
100
AcDbEntity
  8
Ｓ_１_１
  6
CONTINUOUS
 62
     3
100
AcDbVertex
100
AcDb2dVertex
 10
234.9611358642585
 20
315.9799728393546
 30
0.0
  0
SEQEND
  5
3CF
330
375
100
AcDbEntity
  8
Ｓ_１_１
  6
CONTINUOUS
 62
     3
  0
LINE
  5
3D0
330
1F
100
AcDbEntity
  8
Ｓ_１_１
  6
CONTINUOUS
 62
     3
100
AcDbLine
 10
229.9999941158956
 20
333.0000047381
 30
0.0
 11
230.9999951774851
 21
332.0000035922167
 31
0.0
  0
LINE
  5
3D1
330
1F
100
AcDbEntity
  8
Ｓ_１_１
  6
CONTINUOUS
 62
     3
100
AcDbLine
 10
231.0000000000007
 20
331.9999999999991
 30
0.0
 11
231.0000000000007
 21
321.74119567871
 31
0.0
  0
CIRCLE
  5
3D2
330
1F
100
AcDbEntity
  8
Ｓ_１_１
  6
CONTINUOUS
 62
     3
100
AcDbCircle
 10
216.0000000000007
 20
227.999999999999
 30
0.0
 40
58.26794815063477
  0
CIRCLE
  5
3D3
330
1F
100
AcDbEntity
  8
Ｓ_１_１
  6
CONTINUOUS
 62
     3
100
AcDbCircle
 10
216.0000000000007
 20
227.999999999999
 30
0.0
 40
60.00000000000004
  0
CIRCLE
  5
3D4
330
1F
100
AcDbEntity
  8
Ｓ_１_１
  6
EXLTYPE2
 62
     1
100
AcDbCircle
 10
216.0000000000007
 20
227.999999999999
 30
0.0
 40
72.5
  0
CIRCLE
  5
3D5
330
1F
100
AcDbEntity
  8
Ｓ_１_１
  6
CONTINUOUS
 62
     3
100
AcDbCircle
 10
216.0000000000007
 20
227.999999999999
 30
0.0
 40
78.5
  0
CIRCLE
  5
3D6
330
1F
100
AcDbEntity
  8
Ｓ_１_１
  6
CONTINUOUS
 62
     3
100
AcDbCircle
 10
216.0000000000007
 20
227.999999999999
 30
0.0
 40
80.0
  0
POLYLINE
  5
3D7
330
1F
100
AcDbEntity
  8
Ｓ_１_１
  6
CONTINUOUS
 62
     3
100
AcDb2dPolyline
 66
     1
 10
0.0
 20
0.0
 30
0.0
 70
   128
  0
VERTEX
  5
3D8
330
3D7
100
AcDbEntity
  8
Ｓ_１_１
  6
CONTINUOUS
 62
     3
100
AcDbVertex
100
AcDb2dVertex
 10
201.0000000000007
 20
321.74119567871
 30
0.0
  0
VERTEX
  5
3D9
330
3D7
100
AcDbEntity
  8
Ｓ_１_１
  6
CONTINUOUS
 62
     3
100
AcDbVertex
100
AcDb2dVertex
 10
200.9891640615736
 20
321.7338147493318
 30
0.0
  0
VERTEX
  5
3DA
330
3D7
100
AcDbEntity
  8
Ｓ_１_１
  6
CONTINUOUS
 62
     3
100
AcDbVertex
100
AcDb2dVertex
 10
200.958442232101
 20
321.7127831827102
 30
0.0
  0
VERTEX
  5
3DB
330
3D7
100
AcDbEntity
  8
Ｓ_１_１
  6
CONTINUOUS
 62
     3
100
AcDbVertex
100
AcDb2dVertex
 10
200.9105134902959
 20
321.6797678111151
 30
0.0
  0
VERTEX
  5
3DC
330
3D7
100
AcDbEntity
  8
Ｓ_１_１
  6
CONTINUOUS
 62
     3
100
AcDbVertex
100
AcDb2dVertex
 10
200.8480568148713
 20
321.6364354668159
 30
0.0
  0
VERTEX
  5
3DD
330
3D7
100
AcDbEntity
  8
Ｓ_１_１
  6
CONTINUOUS
 62
     3
100
AcDbVertex
100
AcDb2dVertex
 10
200.7737511845399
 20
321.5844529820826
 30
0.0
  0
VERTEX
  5
3DE
330
3D7
100
AcDbEntity
  8
Ｓ_１_１
  6
CONTINUOUS
 62
     3
100
AcDbVertex
100
AcDb2dVertex
 10
200.690275578015
 20
321.5254871891845
 30
0.0
  0
VERTEX
  5
3DF
330
3D7
100
AcDbEntity
  8
Ｓ_１_１
  6
CONTINUOUS
 62
     3
100
AcDbVertex
100
AcDb2dVertex
 10
200.6003089740095
 20
321.4612049203917
 30
0.0
  0
VERTEX
  5
3E0
330
3D7
100
AcDbEntity
  8
Ｓ_１_１
  6
CONTINUOUS
 62
     3
100
AcDbVertex
100
AcDb2dVertex
 10
200.5065303512363
 20
321.3932730079737
 30
0.0
  0
VERTEX
  5
3E1
330
3D7
100
AcDbEntity
  8
Ｓ_１_１
  6
CONTINUOUS
 62
     3
100
AcDbVertex
100
AcDb2dVertex
 10
200.4116186884083
 20
321.3233582842001
 30
0.0
  0
VERTEX
  5
3E2
330
3D7
100
AcDbEntity
  8
Ｓ_１_１
  6
CONTINUOUS
 62
     3
100
AcDbVertex
100
AcDb2dVertex
 10
200.3182529642386
 20
321.2531275813408
 30
0.0
  0
VERTEX
  5
3E3
330
3D7
100
AcDbEntity
  8
Ｓ_１_１
  6
CONTINUOUS
 62
     3
100
AcDbVertex
100
AcDb2dVertex
 10
200.2291121574401
 20
321.1842477316655
 30
0.0
  0
VERTEX
  5
3E4
330
3D7
100
AcDbEntity
  8
Ｓ_１_１
  6
CONTINUOUS
 62
     3
100
AcDbVertex
100
AcDb2dVertex
 10
200.146441571641
 20
321.1181355606274
 30
0.0
  0
VERTEX
  5
3E5
330
3D7
100
AcDbEntity
  8
Ｓ_１_１
  6
CONTINUOUS
 62
     3
100
AcDbVertex
100
AcDb2dVertex
 10
200.0699696710886
 20
321.0545782272351
 30
0.0
  0
VERTEX
  5
3E6
330
3D7
100
AcDbEntity
  8
Ｓ_１_１
  6
CONTINUOUS
 62
     3
100
AcDbVertex
100
AcDb2dVertex
 10
199.9990133025285
 20
320.9931225250263
 30
0.0
  0
VERTEX
  5
3E7
330
3D7
100
AcDbEntity
  8
Ｓ_１_１
  6
CONTINUOUS
 62
     3
100
AcDbVertex
100
AcDb2dVertex
 10
199.9328893127062
 20
320.9333152475388
 30
0.0
  0
VERTEX
  5
3E8
330
3D7
100
AcDbEntity
  8
Ｓ_１_１
  6
CONTINUOUS
 62
     3
100
AcDbVertex
100
AcDb2dVertex
 10
199.8709145483672
 20
320.8747031883103
 30
0.0
  0
VERTEX
  5
3E9
330
3D7
100
AcDbEntity
  8
Ｓ_１_１
  6
CONTINUOUS
 62
     3
100
AcDbVertex
100
AcDb2dVertex
 10
199.8124058562572
 20
320.8168331408787
 30
0.0
  0
VERTEX
  5
3EA
330
3D7
100
AcDbEntity
  8
Ｓ_１_１
  6
CONTINUOUS
 62
     3
100
AcDbVertex
100
AcDb2dVertex
 10
199.7566800831216
 20
320.7592518987814
 30
0.0
  0
VERTEX
  5
3EB
330
3D7
100
AcDbEntity
  8
Ｓ_１_１
  6
CONTINUOUS
 62
     3
100
AcDbVertex
100
AcDb2dVertex
 10
199.703054075706
 20
320.7015062555562
 30
0.0
  0
VERTEX
  5
3EC
330
3D7
100
AcDbEntity
  8
Ｓ_１_１
  6
CONTINUOUS
 62
     3
100
AcDbVertex
100
AcDb2dVertex
 10
199.6508446807561
 20
320.643143004741
 30
0.0
  0
VERTEX
  5
3ED
330
3D7
100
AcDbEntity
  8
Ｓ_１_１
  6
CONTINUOUS
 62
     3
100
AcDbVertex
100
AcDb2dVertex
 10
199.5993687450172
 20
320.5837089398734
 30
0.0
  0
VERTEX
  5
3EE
330
3D7
100
AcDbEntity
  8
Ｓ_１_１
  6
CONTINUOUS
 62
     3
100
AcDbVertex
100
AcDb2dVertex
 10
199.547943115235
 20
320.5227508544913
 30
0.0
  0
VERTEX
  5
3EF
330
3D7
100
AcDbEntity
  8
Ｓ_１_１
  6
CONTINUOUS
 62
     3
100
AcDbVertex
100
AcDb2dVertex
 10
199.4991777538985
 20
320.4637689576407
 30
0.0
  0
VERTEX
  5
3F0
330
3D7
100
AcDbEntity
  8
Ｓ_１_１
  6
CONTINUOUS
 62
     3
100
AcDbVertex
100
AcDb2dVertex
 10
199.4499928844692
 20
320.403187049291
 30
0.0
  0
VERTEX
  5
3F1
330
3D7
100
AcDbEntity
  8
Ｓ_１_１
  6
CONTINUOUS
 62
     3
100
AcDbVertex
100
AcDb2dVertex
 10
199.4005276921983
 20
320.3411506631252
 30
0.0
  0
VERTEX
  5
3F2
330
3D7
100
AcDbEntity
  8
Ｓ_１_１
  6
CONTINUOUS
 62
     3
100
AcDbVertex
100
AcDb2dVertex
 10
199.350921362337
 20
320.2778053328264
 30
0.0
  0
VERTEX
  5
3F3
330
3D7
100
AcDbEntity
  8
Ｓ_１_１
  6
CONTINUOUS
 62
     3
100
AcDbVertex
100
AcDb2dVertex
 10
199.3013130801365
 20
320.2132965920775
 30
0.0
  0
VERTEX
  5
3F4
330
3D7
100
AcDbEntity
  8
Ｓ_１_１
  6
CONTINUOUS
 62
     3
100
AcDbVertex
100
AcDb2dVertex
 10
199.2518420308481
 20
320.1477699745617
 30
0.0
  0
VERTEX
  5
3F5
330
3D7
100
AcDbEntity
  8
Ｓ_１_１
  6
CONTINUOUS
 62
     3
100
AcDbVertex
100
AcDb2dVertex
 10
199.2026473997229
 20
320.081371013962
 30
0.0
  0
VERTEX
  5
3F6
330
3D7
100
AcDbEntity
  8
Ｓ_１_１
  6
CONTINUOUS
 62
     3
100
AcDbVertex
100
AcDb2dVertex
 10
199.1538683720123
 20
320.0142452439616
 30
0.0
  0
VERTEX
  5
3F7
330
3D7
100
AcDbEntity
  8
Ｓ_１_１
  6
CONTINUOUS
 62
     3
100
AcDbVertex
100
AcDb2dVertex
 10
199.1056441329674
 20
319.9465381982433
 30
0.0
  0
VERTEX
  5
3F8
330
3D7
100
AcDbEntity
  8
Ｓ_１_１
  6
CONTINUOUS
 62
     3
100
AcDbVertex
100
AcDb2dVertex
 10
199.0581138678396
 20
319.8783954104904
 30
0.0
  0
VERTEX
  5
3F9
330
3D7
100
AcDbEntity
  8
Ｓ_１_１
  6
CONTINUOUS
 62
     3
100
AcDbVertex
100
AcDb2dVertex
 10
199.0114167618799
 20
319.8099624143858
 30
0.0
  0
VERTEX
  5
3FA
330
3D7
100
AcDbEntity
  8
Ｓ_１_１
  6
CONTINUOUS
 62
     3
100
AcDbVertex
100
AcDb2dVertex
 10
198.9654673282284
 20
319.7410777620004
 30
0.0
  0
VERTEX
  5
3FB
330
3D7
100
AcDbEntity
  8
Ｓ_１_１
  6
CONTINUOUS
 62
     3
100
AcDbVertex
100
AcDb2dVertex
 10
198.9204160380665
 20
319.6720602565895
 30
0.0
  0
VERTEX
  5
3FC
330
3D7
100
AcDbEntity
  8
Ｓ_１_１
  6
CONTINUOUS
 62
     3
100
AcDbVertex
100
AcDb2dVertex
 10
198.8761806061798
 20
319.6029229226532
 30
0.0
  0
VERTEX
  5
3FD
330
3D7
100
AcDbEntity
  8
Ｓ_１_１
  6
CONTINUOUS
 62
     3
100
AcDbVertex
100
AcDb2dVertex
 10
198.8326787473537
 20
319.5336787846917
 30
0.0
  0
VERTEX
  5
3FE
330
3D7
100
AcDbEntity
  8
Ｓ_１_１
  6
CONTINUOUS
 62
     3
100
AcDbVertex
100
AcDb2dVertex
 10
198.7898281763736
 20
319.4643408672049
 30
0.0
  0
VERTEX
  5
3FF
330
3D7
100
AcDbEntity
  8
Ｓ_１_１
  6
CONTINUOUS
 62
     3
100
AcDbVertex
100
AcDb2dVertex
 10
198.7475466080249
 20
319.3949221946929
 30
0.0
  0
VERTEX
  5
400
330
3D7
100
AcDbEntity
  8
Ｓ_１_１
  6
CONTINUOUS
 62
     3
100
AcDbVertex
100
AcDb2dVertex
 10
198.705751757093
 20
319.3254357916557
 30
0.0
  0
VERTEX
  5
401
330
3D7
100
AcDbEntity
  8
Ｓ_１_１
  6
CONTINUOUS
 62
     3
100
AcDbVertex
100
AcDb2dVertex
 10
198.6643613383634
 20
319.2558946825934
 30
0.0
  0
VERTEX
  5
402
330
3D7
100
AcDbEntity
  8
Ｓ_１_１
  6
CONTINUOUS
 62
     3
100
AcDbVertex
100
AcDb2dVertex
 10
198.6232930666217
 20
319.1863118920062
 30
0.0
  0
VERTEX
  5
403
330
3D7
100
AcDbEntity
  8
Ｓ_１_１
  6
CONTINUOUS
 62
     3
100
AcDbVertex
100
AcDb2dVertex
 10
198.5824646566529
 20
319.116700444394
 30
0.0
  0
VERTEX
  5
404
330
3D7
100
AcDbEntity
  8
Ｓ_１_１
  6
CONTINUOUS
 62
     3
100
AcDbVertex
100
AcDb2dVertex
 10
198.5417938232429
 20
319.047073364257
 30
0.0
  0
VERTEX
  5
405
330
3D7
100
AcDbEntity
  8
Ｓ_１_１
  6
CONTINUOUS
 62
     3
100
AcDbVertex
100
AcDb2dVertex
 10
198.496875170607
 20
318.9699806555296
 30
0.0
  0
VERTEX
  5
406
330
3D7
100
AcDbEntity
  8
Ｓ_１_１
  6
CONTINUOUS
 62
     3
100
AcDbVertex
100
AcDb2dVertex
 10
198.452050741666
 20
318.8928175848312
 30
0.0
  0
VERTEX
  5
407
330
3D7
100
AcDbEntity
  8
Ｓ_１_１
  6
CONTINUOUS
 62
     3
100
AcDbVertex
100
AcDb2dVertex
 10
198.4073224970645
 20
318.8155169861005
 30
0.0
  0
VERTEX
  5
408
330
3D7
100
AcDbEntity
  8
Ｓ_１_１
  6
CONTINUOUS
 62
     3
100
AcDbVertex
100
AcDb2dVertex
 10
198.3626923974472
 20
318.7380116932758
 30
0.0
  0
VERTEX
  5
409
330
3D7
100
AcDbEntity
  8
Ｓ_１_１
  6
CONTINUOUS
 62
     3
100
AcDbVertex
100
AcDb2dVertex
 10
198.318162403459
 20
318.6602345402956
 30
0.0
  0
VERTEX
  5
40A
330
3D7
100
AcDbEntity
  8
Ｓ_１_１
  6
CONTINUOUS
 62
     3
100
AcDbVertex
100
AcDb2dVertex
 10
198.2737344757444
 20
318.5821183610987
 30
0.0
  0
VERTEX
  5
40B
330
3D7
100
AcDbEntity
  8
Ｓ_１_１
  6
CONTINUOUS
 62
     3
100
AcDbVertex
100
AcDb2dVertex
 10
198.2294105749483
 20
318.5035959896234
 30
0.0
  0
VERTEX
  5
40C
330
3D7
100
AcDbEntity
  8
Ｓ_１_１
  6
CONTINUOUS
 62
     3
100
AcDbVertex
100
AcDb2dVertex
 10
198.1851926617154
 20
318.4246002598084
 30
0.0
  0
VERTEX
  5
40D
330
3D7
100
AcDbEntity
  8
Ｓ_１_１
  6
CONTINUOUS
 62
     3
100
AcDbVertex
100
AcDb2dVertex
 10
198.1410826966904
 20
318.345064005592
 30
0.0
  0
VERTEX
  5
40E
330
3D7
100
AcDbEntity
  8
Ｓ_１_１
  6
CONTINUOUS
 62
     3
100
AcDbVertex
100
AcDb2dVertex
 10
198.097082640518
 20
318.2649200609131
 30
0.0
  0
VERTEX
  5
40F
330
3D7
100
AcDbEntity
  8
Ｓ_１_１
  6
CONTINUOUS
 62
     3
100
AcDbVertex
100
AcDb2dVertex
 10
198.0531944538429
 20
318.18410125971
 30
0.0
  0
VERTEX
  5
410
330
3D7
100
AcDbEntity
  8
Ｓ_１_１
  6
CONTINUOUS
 62
     3
100
AcDbVertex
100
AcDb2dVertex
 10
198.0095350056488
 20
318.1027751827986
 30
0.0
  0
VERTEX
  5
411
330
3D7
100
AcDbEntity
  8
Ｓ_１_１
  6
CONTINUOUS
 62
     3
100
AcDbVertex
100
AcDb2dVertex
 10
197.9660959906109
 20
318.0209568208464
 30
0.0
  0
VERTEX
  5
412
330
3D7
100
AcDbEntity
  8
Ｓ_１_１
  6
CONTINUOUS
 62
     3
100
AcDbVertex
100
AcDb2dVertex
 10
197.9229845183016
 20
317.9388926093051
 30
0.0
  0
VERTEX
  5
413
330
3D7
100
AcDbEntity
  8
Ｓ_１_１
  6
CONTINUOUS
 62
     3
100
AcDbVertex
100
AcDb2dVertex
 10
197.8803076982935
 20
317.856828983626
 30
0.0
  0
VERTEX
  5
414
330
3D7
100
AcDbEntity
  8
Ｓ_１_１
  6
CONTINUOUS
 62
     3
100
AcDbVertex
100
AcDb2dVertex
 10
197.8381726401591
 20
317.7750123792605
 30
0.0
  0
VERTEX
  5
415
330
3D7
100
AcDbEntity
  8
Ｓ_１_１
  6
CONTINUOUS
 62
     3
100
AcDbVertex
100
AcDb2dVertex
 10
197.7966864534708
 20
317.6936892316602
 30
0.0
  0
VERTEX
  5
416
330
3D7
100
AcDbEntity
  8
Ｓ_１_１
  6
CONTINUOUS
 62
     3
100
AcDbVertex
100
AcDb2dVertex
 10
197.7559562478011
 20
317.6131059762764
 30
0.0
  0
VERTEX
  5
417
330
3D7
100
AcDbEntity
  8
Ｓ_１_１
  6
CONTINUOUS
 62
     3
100
AcDbVertex
100
AcDb2dVertex
 10
197.7160891327225
 20
317.5335090485607
 30
0.0
  0
VERTEX
  5
418
330
3D7
100
AcDbEntity
  8
Ｓ_１_１
  6
CONTINUOUS
 62
     3
100
AcDbVertex
100
AcDb2dVertex
 10
197.6771922178076
 20
317.4551448839646
 30
0.0
  0
VERTEX
  5
419
330
3D7
100
AcDbEntity
  8
Ｓ_１_１
  6
CONTINUOUS
 62
     3
100
AcDbVertex
100
AcDb2dVertex
 10
197.6393726126288
 20
317.3782599179394
 30
0.0
  0
VERTEX
  5
41A
330
3D7
100
AcDbEntity
  8
Ｓ_１_１
  6
CONTINUOUS
 62
     3
100
AcDbVertex
100
AcDb2dVertex
 10
197.6027374267586
 20
317.3031005859366
 30
0.0
  0
VERTEX
  5
41B
330
3D7
100
AcDbEntity
  8
Ｓ_１_１
  6
CONTINUOUS
 62
     3
100
AcDbVertex
100
AcDb2dVertex
 10
197.5768719940702
 20
317.2495881120024
 30
0.0
  0
VERTEX
  5
41C
330
3D7
100
AcDbEntity
  8
Ｓ_１_１
  6
CONTINUOUS
 62
     3
100
AcDbVertex
100
AcDb2dVertex
 10
197.551470106203
 20
317.1965515693827
 30
0.0
  0
VERTEX
  5
41D
330
3D7
100
AcDbEntity
  8
Ｓ_１_１
  6
CONTINUOUS
 62
     3
100
AcDbVertex
100
AcDb2dVertex
 10
197.526313072198
 20
317.1434251656062
 30
0.0
  0
VERTEX
  5
41E
330
3D7
100
AcDbEntity
  8
Ｓ_１_１
  6
CONTINUOUS
 62
     3
100
AcDbVertex
100
AcDb2dVertex
 10
197.5011822010964
 20
317.0896431082018
 30
0.0
  0
VERTEX
  5
41F
330
3D7
100
AcDbEntity
  8
Ｓ_１_１
  6
CONTINUOUS
 62
     3
100
AcDbVertex
100
AcDb2dVertex
 10
197.4758588019395
 20
317.034639604698
 30
0.0
  0
VERTEX
  5
420
330
3D7
100
AcDbEntity
  8
Ｓ_１_１
  6
CONTINUOUS
 62
     3
100
AcDbVertex
100
AcDb2dVertex
 10
197.4501241837685
 20
316.9778488626237
 30
0.0
  0
VERTEX
  5
421
330
3D7
100
AcDbEntity
  8
Ｓ_１_１
  6
CONTINUOUS
 62
     3
100
AcDbVertex
100
AcDb2dVertex
 10
197.4237596556244
 20
316.9187050895075
 30
0.0
  0
VERTEX
  5
422
330
3D7
100
AcDbEntity
  8
Ｓ_１_１
  6
CONTINUOUS
 62
     3
100
AcDbVertex
100
AcDb2dVertex
 10
197.3965465265485
 20
316.8566424928782
 30
0.0
  0
VERTEX
  5
423
330
3D7
100
AcDbEntity
  8
Ｓ_１_１
  6
CONTINUOUS
 62
     3
100
AcDbVertex
100
AcDb2dVertex
 10
197.3682661055821
 20
316.7910952802645
 30
0.0
  0
VERTEX
  5
424
330
3D7
100
AcDbEntity
  8
Ｓ_１_１
  6
CONTINUOUS
 62
     3
100
AcDbVertex
100
AcDb2dVertex
 10
197.338699701766
 20
316.7214976591949
 30
0.0
  0
VERTEX
  5
425
330
3D7
100
AcDbEntity
  8
Ｓ_１_１
  6
CONTINUOUS
 62
     3
100
AcDbVertex
100
AcDb2dVertex
 10
197.3076286241419
 20
316.6472838371983
 30
0.0
  0
VERTEX
  5
426
330
3D7
100
AcDbEntity
  8
Ｓ_１_１
  6
CONTINUOUS
 62
     3
100
AcDbVertex
100
AcDb2dVertex
 10
197.2749992998126
 20
316.5683228709443
 30
0.0
  0
VERTEX
  5
427
330
3D7
100
AcDbEntity
  8
Ｓ_１_１
  6
CONTINUOUS
 62
     3
100
AcDbVertex
100
AcDb2dVertex
 10
197.2414863778968
 20
316.4863875696593
 30
0.0
  0
VERTEX
  5
428
330
3D7
100
AcDbEntity
  8
Ｓ_１_１
  6
CONTINUOUS
 62
     3
100
AcDbVertex
100
AcDb2dVertex
 10
197.2079308035247
 20
316.4036891336929
 30
0.0
  0
VERTEX
  5
429
330
3D7
100
AcDbEntity
  8
Ｓ_１_１
  6
CONTINUOUS
 62
     3
100
AcDbVertex
100
AcDb2dVertex
 10
197.1751735218265
 20
316.3224387633941
 30
0.0
  0
VERTEX
  5
42A
330
3D7
100
AcDbEntity
  8
Ｓ_１_１
  6
CONTINUOUS
 62
     3
100
AcDbVertex
100
AcDb2dVertex
 10
197.1440554779324
 20
316.2448476591128
 30
0.0
  0
VERTEX
  5
42B
330
3D7
100
AcDbEntity
  8
Ｓ_１_１
  6
CONTINUOUS
 62
     3
100
AcDbVertex
100
AcDb2dVertex
 10
197.1154176169725
 20
316.1731270211981
 30
0.0
  0
VERTEX
  5
42C
330
3D7
100
AcDbEntity
  8
Ｓ_１_１
  6
CONTINUOUS
 62
     3
100
AcDbVertex
100
AcDb2dVertex
 10
197.0901008840769
 20
316.1094880499995
 30
0.0
  0
VERTEX
  5
42D
330
3D7
100
AcDbEntity
  8
Ｓ_１_１
  6
CONTINUOUS
 62
     3
100
AcDbVertex
100
AcDb2dVertex
 10
197.0689462243761
 20
316.0561419458665
 30
0.0
  0
VERTEX
  5
42E
330
3D7
100
AcDbEntity
  8
Ｓ_１_１
  6
CONTINUOUS
 62
     3
100
AcDbVertex
100
AcDb2dVertex
 10
197.052794583
 20
316.0152999091484
 30
0.0
  0
VERTEX
  5
42F
330
3D7
100
AcDbEntity
  8
Ｓ_１_１
  6
CONTINUOUS
 62
     3
100
AcDbVertex
100
AcDb2dVertex
 10
197.0424869050788
 20
315.9891731401946
 30
0.0
  0
VERTEX
  5
430
330
3D7
100
AcDbEntity
  8
Ｓ_１_１
  6
CONTINUOUS
 62
     3
100
AcDbVertex
100
AcDb2dVertex
 10
197.0388641357429
 20
315.9799728393546
 30
0.0
  0
SEQEND
  5
431
330
3D7
100
AcDbEntity
  8
Ｓ_１_１
  6
CONTINUOUS
 62
     3
  0
LINE
  5
432
330
1F
100
AcDbEntity
  8
Ｓ_１_１
  6
CONTINUOUS
 62
     3
100
AcDbLine
 10
202.0000058841058
 20
333.0000047381
 30
0.0
 11
201.0000048225163
 21
332.0000035922167
 31
0.0
  0
LINE
  5
433
330
1F
100
AcDbEntity
  8
Ｓ_１_１
  6
CONTINUOUS
 62
     3
100
AcDbLine
 10
201.0000000000007
 20
331.9999999999991
 30
0.0
 11
201.0000000000007
 21
321.74119567871
 31
0.0
  0
ARC
  5
434
330
1F
100
AcDbEntity
  8
Ｓ_１_１
  6
CONTINUOUS
 62
     3
100
AcDbCircle
 10
216.0000000000007
 20
232.999999999999
 30
0.0
 40
90.0
100
AcDbArc
 50
80.40592947549558
 51
99.59406822686036
  0
LINE
  5
435
330
1F
100
AcDbEntity
  8
Ｓ_１_１
  6
CONTINUOUS
 62
     3
100
AcDbLine
 10
201.0000000000007
 20
331.9999999999991
 30
0.0
 11
231.0000000000007
 21
331.9999999999991
 31
0.0
  0
LINE
  5
436
330
1F
100
AcDbEntity
  8
Ｓ_１_１
  6
CONTINUOUS
 62
     3
100
AcDbLine
 10
202.0000058841099
 20
332.9999999999991
 30
0.0
 11
230.0000000000007
 21
332.9999999999991
 31
0.0
  0
CIRCLE
  5
437
330
1F
100
AcDbEntity
  8
Ｓ_１_１
  6
CONTINUOUS
 62
     3
100
AcDbCircle
 10
216.0
 20
228.0
 30
0.0
 40
13.5
  0
CIRCLE
  5
438
330
1F
100
AcDbEntity
  8
Ｓ_１_１
  6
CONTINUOUS
 62
     3
100
AcDbCircle
 10
216.0
 20
228.0
 30
0.0
 40
16.5
  0
CIRCLE
  5
439
330
1F
100
AcDbEntity
  8
Ｓ_１_１
  6
CONTINUOUS
 62
     3
100
AcDbCircle
 10
216.0
 20
228.0
 30
0.0
 40
43.5
  0
CIRCLE
  5
43A
330
1F
100
AcDbEntity
  8
Ｓ_１_１
  6
CONTINUOUS
 62
     3
100
AcDbCircle
 10
216.0
 20
228.0
 30
0.0
 40
46.5
  0
CIRCLE
  5
43B
330
1F
100
AcDbEntity
  8
Ｓ_１_１
  6
EXLTYPE2
 62
     1
100
AcDbCircle
 10
216.0
 20
228.0
 30
0.0
 40
15.0
  0
CIRCLE
  5
43C
330
1F
100
AcDbEntity
  8
Ｓ_１_１
  6
EXLTYPE2
 62
     1
100
AcDbCircle
 10
216.0
 20
228.0
 30
0.0
 40
30.0
  0
CIRCLE
  5
43D
330
1F
100
AcDbEntity
  8
Ｓ_１_１
  6
EXLTYPE2
 62
     1
100
AcDbCircle
 10
216.0
 20
228.0
 30
0.0
 40
45.0
  0
CIRCLE
  5
43E
330
1F
100
AcDbEntity
  8
Ｓ_１_１
  6
CONTINUOUS
 62
     3
100
AcDbCircle
 10
216.0
 20
228.0
 30
0.0
 40
53.99999999999994
  0
CIRCLE
  5
43F
330
1F
100
AcDbEntity
  8
Ｓ_１_１
  6
CONTINUOUS
 62
     3
100
AcDbCircle
 10
216.0
 20
228.0
 30
0.0
 40
55.00000000000006
  0
CIRCLE
  5
440
330
1F
100
AcDbEntity
  8
Ｓ_１_１
  6
CONTINUOUS
 62
     3
100
AcDbCircle
 10
216.0
 20
228.0
 30
0.0
 40
55.5
  0
CIRCLE
  5
441
330
1F
100
AcDbEntity
  8
Ｓ_１_１
  6
CONTINUOUS
 62
     3
100
AcDbCircle
 10
216.0
 20
258.0
 30
0.0
 40
4.400000000000034
  0
CIRCLE
  5
442
330
1F
100
AcDbEntity
  8
Ｓ_１_１
  6
CONTINUOUS
 62
     3
100
AcDbCircle
 10
216.0
 20
258.0
 30
0.0
 40
5.0
  0
CIRCLE
  5
443
330
1F
100
AcDbEntity
  8
Ｓ_１_１
  6
CONTINUOUS
 62
     3
100
AcDbCircle
 10
216.0
 20
258.0
 30
0.0
 40
5.499999999999916
  0
POLYLINE
  5
444
330
1F
100
AcDbEntity
  8
Ｓ_１_１
  6
CONTINUOUS
 62
     3
100
AcDb2dPolyline
 66
     1
 10
0.0
 20
0.0
 30
0.0
 70
   128
  0
VERTEX
  5
445
330
444
100
AcDbEntity
  8
Ｓ_１_１
  6
CONTINUOUS
 62
     3
100
AcDbVertex
100
AcDb2dVertex
 10
216.0
 20
260.8867513459481
 30
0.0
  0
VERTEX
  5
446
330
444
100
AcDbEntity
  8
Ｓ_１_１
  6
CONTINUOUS
 62
     3
100
AcDbVertex
100
AcDb2dVertex
 10
213.5
 20
259.4433756729741
 30
0.0
  0
VERTEX
  5
447
330
444
100
AcDbEntity
  8
Ｓ_１_１
  6
CONTINUOUS
 62
     3
100
AcDbVertex
100
AcDb2dVertex
 10
213.5
 20
256.5566243270259
 30
0.0
  0
VERTEX
  5
448
330
444
100
AcDbEntity
  8
Ｓ_１_１
  6
CONTINUOUS
 62
     3
100
AcDbVertex
100
AcDb2dVertex
 10
216.0
 20
255.1132486540519
 30
0.0
  0
VERTEX
  5
449
330
444
100
AcDbEntity
  8
Ｓ_１_１
  6
CONTINUOUS
 62
     3
100
AcDbVertex
100
AcDb2dVertex
 10
218.5
 20
256.5566243270259
 30
0.0
  0
VERTEX
  5
44A
330
444
100
AcDbEntity
  8
Ｓ_１_１
  6
CONTINUOUS
 62
     3
100
AcDbVertex
100
AcDb2dVertex
 10
218.5
 20
259.4433756729741
 30
0.0
  0
VERTEX
  5
44B
330
444
100
AcDbEntity
  8
Ｓ_１_１
  6
CONTINUOUS
 62
     3
100
AcDbVertex
100
AcDb2dVertex
 10
216.0
 20
260.8867513459481
 30
0.0
  0
SEQEND
  5
44C
330
444
100
AcDbEntity
  8
Ｓ_１_１
  6
CONTINUOUS
 62
     3
  0
CIRCLE
  5
44D
330
1F
100
AcDbEntity
  8
Ｓ_１_１
  6
CONTINUOUS
 62
     3
100
AcDbCircle
 10
216.0
 20
198.0
 30
0.0
 40
4.400000000000034
  0
CIRCLE
  5
44E
330
1F
100
AcDbEntity
  8
Ｓ_１_１
  6
CONTINUOUS
 62
     3
100
AcDbCircle
 10
216.0
 20
198.0
 30
0.0
 40
5.0
  0
CIRCLE
  5
44F
330
1F
100
AcDbEntity
  8
Ｓ_１_１
  6
CONTINUOUS
 62
     3
100
AcDbCircle
 10
216.0
 20
198.0
 30
0.0
 40
5.499999999999916
  0
POLYLINE
  5
450
330
1F
100
AcDbEntity
  8
Ｓ_１_１
  6
CONTINUOUS
 62
     3
100
AcDb2dPolyline
 66
     1
 10
0.0
 20
0.0
 30
0.0
 70
   128
  0
VERTEX
  5
451
330
450
100
AcDbEntity
  8
Ｓ_１_１
  6
CONTINUOUS
 62
     3
100
AcDbVertex
100
AcDb2dVertex
 10
216.0
 20
200.8867513459481
 30
0.0
  0
VERTEX
  5
452
330
450
100
AcDbEntity
  8
Ｓ_１_１
  6
CONTINUOUS
 62
     3
100
AcDbVertex
100
AcDb2dVertex
 10
213.5
 20
199.4433756729741
 30
0.0
  0
VERTEX
  5
453
330
450
100
AcDbEntity
  8
Ｓ_１_１
  6
CONTINUOUS
 62
     3
100
AcDbVertex
100
AcDb2dVertex
 10
213.5
 20
196.5566243270259
 30
0.0
  0
VERTEX
  5
454
330
450
100
AcDbEntity
  8
Ｓ_１_１
  6
CONTINUOUS
 62
     3
100
AcDbVertex
100
AcDb2dVertex
 10
216.0
 20
195.1132486540519
 30
0.0
  0
VERTEX
  5
455
330
450
100
AcDbEntity
  8
Ｓ_１_１
  6
CONTINUOUS
 62
     3
100
AcDbVertex
100
AcDb2dVertex
 10
218.5
 20
196.5566243270259
 30
0.0
  0
VERTEX
  5
456
330
450
100
AcDbEntity
  8
Ｓ_１_１
  6
CONTINUOUS
 62
     3
100
AcDbVertex
100
AcDb2dVertex
 10
218.5
 20
199.4433756729741
 30
0.0
  0
VERTEX
  5
457
330
450
100
AcDbEntity
  8
Ｓ_１_１
  6
CONTINUOUS
 62
     3
100
AcDbVertex
100
AcDb2dVertex
 10
216.0
 20
200.8867513459481
 30
0.0
  0
SEQEND
  5
458
330
450
100
AcDbEntity
  8
Ｓ_１_１
  6
CONTINUOUS
 62
     3
  0
CIRCLE
  5
459
330
1F
100
AcDbEntity
  8
Ｓ_１_１
  6
CONTINUOUS
 62
     3
100
AcDbCircle
 10
186.0
 20
228.0
 30
0.0
 40
4.400000000000034
  0
CIRCLE
  5
45A
330
1F
100
AcDbEntity
  8
Ｓ_１_１
  6
CONTINUOUS
 62
     3
100
AcDbCircle
 10
186.0
 20
228.0
 30
0.0
 40
5.0
  0
CIRCLE
  5
45B
330
1F
100
AcDbEntity
  8
Ｓ_１_１
  6
CONTINUOUS
 62
     3
100
AcDbCircle
 10
186.0
 20
228.0
 30
0.0
 40
5.499999999999916
  0
POLYLINE
  5
45C
330
1F
100
AcDbEntity
  8
Ｓ_１_１
  6
CONTINUOUS
 62
     3
100
AcDb2dPolyline
 66
     1
 10
0.0
 20
0.0
 30
0.0
 70
   128
  0
VERTEX
  5
45D
330
45C
100
AcDbEntity
  8
Ｓ_１_１
  6
CONTINUOUS
 62
     3
100
AcDbVertex
100
AcDb2dVertex
 10
183.1132486540519
 20
228.0
 30
0.0
  0
VERTEX
  5
45E
330
45C
100
AcDbEntity
  8
Ｓ_１_１
  6
CONTINUOUS
 62
     3
100
AcDbVertex
100
AcDb2dVertex
 10
184.5566243270259
 20
225.5
 30
0.0
  0
VERTEX
  5
45F
330
45C
100
AcDbEntity
  8
Ｓ_１_１
  6
CONTINUOUS
 62
     3
100
AcDbVertex
100
AcDb2dVertex
 10
187.4433756729741
 20
225.5
 30
0.0
  0
VERTEX
  5
460
330
45C
100
AcDbEntity
  8
Ｓ_１_１
  6
CONTINUOUS
 62
     3
100
AcDbVertex
100
AcDb2dVertex
 10
188.8867513459481
 20
228.0
 30
0.0
  0
VERTEX
  5
461
330
45C
100
AcDbEntity
  8
Ｓ_１_１
  6
CONTINUOUS
 62
     3
100
AcDbVertex
100
AcDb2dVertex
 10
187.4433756729741
 20
230.5
 30
0.0
  0
VERTEX
  5
462
330
45C
100
AcDbEntity
  8
Ｓ_１_１
  6
CONTINUOUS
 62
     3
100
AcDbVertex
100
AcDb2dVertex
 10
184.5566243270259
 20
230.5
 30
0.0
  0
VERTEX
  5
463
330
45C
100
AcDbEntity
  8
Ｓ_１_１
  6
CONTINUOUS
 62
     3
100
AcDbVertex
100
AcDb2dVertex
 10
183.1132486540519
 20
228.0
 30
0.0
  0
SEQEND
  5
464
330
45C
100
AcDbEntity
  8
Ｓ_１_１
  6
CONTINUOUS
 62
     3
  0
CIRCLE
  5
465
330
1F
100
AcDbEntity
  8
Ｓ_１_１
  6
CONTINUOUS
 62
     3
100
AcDbCircle
 10
246.0
 20
228.0
 30
0.0
 40
4.400000000000034
  0
CIRCLE
  5
466
330
1F
100
AcDbEntity
  8
Ｓ_１_１
  6
CONTINUOUS
 62
     3
100
AcDbCircle
 10
246.0
 20
228.0
 30
0.0
 40
5.0
  0
CIRCLE
  5
467
330
1F
100
AcDbEntity
  8
Ｓ_１_１
  6
CONTINUOUS
 62
     3
100
AcDbCircle
 10
246.0
 20
228.0
 30
0.0
 40
5.499999999999916
  0
POLYLINE
  5
468
330
1F
100
AcDbEntity
  8
Ｓ_１_１
  6
CONTINUOUS
 62
     3
100
AcDb2dPolyline
 66
     1
 10
0.0
 20
0.0
 30
0.0
 70
   128
  0
VERTEX
  5
469
330
468
100
AcDbEntity
  8
Ｓ_１_１
  6
CONTINUOUS
 62
     3
100
AcDbVertex
100
AcDb2dVertex
 10
243.1132486540519
 20
228.0
 30
0.0
  0
VERTEX
  5
46A
330
468
100
AcDbEntity
  8
Ｓ_１_１
  6
CONTINUOUS
 62
     3
100
AcDbVertex
100
AcDb2dVertex
 10
244.5566243270259
 20
225.5
 30
0.0
  0
VERTEX
  5
46B
330
468
100
AcDbEntity
  8
Ｓ_１_１
  6
CONTINUOUS
 62
     3
100
AcDbVertex
100
AcDb2dVertex
 10
247.4433756729741
 20
225.5
 30
0.0
  0
VERTEX
  5
46C
330
468
100
AcDbEntity
  8
Ｓ_１_１
  6
CONTINUOUS
 62
     3
100
AcDbVertex
100
AcDb2dVertex
 10
248.8867513459481
 20
228.0
 30
0.0
  0
VERTEX
  5
46D
330
468
100
AcDbEntity
  8
Ｓ_１_１
  6
CONTINUOUS
 62
     3
100
AcDbVertex
100
AcDb2dVertex
 10
247.4433756729741
 20
230.5
 30
0.0
  0
VERTEX
  5
46E
330
468
100
AcDbEntity
  8
Ｓ_１_１
  6
CONTINUOUS
 62
     3
100
AcDbVertex
100
AcDb2dVertex
 10
244.5566243270259
 20
230.5
 30
0.0
  0
VERTEX
  5
46F
330
468
100
AcDbEntity
  8
Ｓ_１_１
  6
CONTINUOUS
 62
     3
100
AcDbVertex
100
AcDb2dVertex
 10
243.1132486540519
 20
228.0
 30
0.0
  0
SEQEND
  5
470
330
468
100
AcDbEntity
  8
Ｓ_１_１
  6
CONTINUOUS
 62
     3
  0
ARC
  5
471
330
1F
100
AcDbEntity
  8
Ｓ_１_１
  6
CONTINUOUS
 62
     3
100
AcDbCircle
 10
216.0
 20
228.0
 30
0.0
 40
31.5
100
AcDbArc
 50
189.8746877613968
 51
260.1253122386034
  0
ARC
  5
472
330
1F
100
AcDbEntity
  8
Ｓ_１_１
  6
CONTINUOUS
 62
     3
100
AcDbCircle
 10
216.0
 20
228.0
 30
0.0
 40
28.5
100
AcDbArc
 50
190.3827639926135
 51
259.6172360073866
  0
ARC
  5
473
330
1F
100
AcDbEntity
  8
Ｓ_１_１
  6
CONTINUOUS
 62
     3
100
AcDbCircle
 10
216.0
 20
228.0
 30
0.0
 40
28.5
100
AcDbArc
 50
280.3827639926135
 51
349.6172360073866
  0
ARC
  5
474
330
1F
100
AcDbEntity
  8
Ｓ_１_１
  6
CONTINUOUS
 62
     3
100
AcDbCircle
 10
216.0
 20
228.0
 30
0.0
 40
31.5
100
AcDbArc
 50
279.8746877613968
 51
350.1253122386032
  0
ARC
  5
475
330
1F
100
AcDbEntity
  8
Ｓ_１_１
  6
CONTINUOUS
 62
     3
100
AcDbCircle
 10
216.0
 20
228.0
 30
0.0
 40
28.5
100
AcDbArc
 50
10.38276399261346
 51
79.61723600738645
  0
ARC
  5
476
330
1F
100
AcDbEntity
  8
Ｓ_１_１
  6
CONTINUOUS
 62
     3
100
AcDbCircle
 10
216.0
 20
228.0
 30
0.0
 40
31.5
100
AcDbArc
 50
9.874687761396721
 51
80.12531223860319
  0
ARC
  5
477
330
1F
100
AcDbEntity
  8
Ｓ_１_１
  6
CONTINUOUS
 62
     3
100
AcDbCircle
 10
216.0
 20
228.0
 30
0.0
 40
31.5
100
AcDbArc
 50
99.87468776139669
 51
170.1253122386032
  0
ARC
  5
478
330
1F
100
AcDbEntity
  8
Ｓ_１_１
  6
CONTINUOUS
 62
     3
100
AcDbCircle
 10
216.0
 20
228.0
 30
0.0
 40
28.5
100
AcDbArc
 50
100.3827639926135
 51
169.6172360073864
  0
CIRCLE
  5
479
330
1F
100
AcDbEntity
  8
Ｓ_１_１
  6
CONTINUOUS
 62
     3
100
AcDbCircle
 10
216.0
 20
228.0
 30
0.0
 40
62.49999999999994
  0
ARC
  5
47A
330
1F
100
AcDbEntity
  8
Ｓ_１_１
  6
CONTINUOUS
 62
     3
100
AcDbCircle
 10
226.3923024253675
 20
356.2283682186678
 30
0.0
 40
6.133925000000002
100
AcDbArc
 50
55.61543800000034
 51
124.3845830000003
  0
ARC
  5
47B
330
1F
100
AcDbEntity
  8
Ｓ_１_１
  6
CONTINUOUS
 62
     3
100
AcDbCircle
 10
215.9999984253675
 20
339.4340562186678
 30
0.0
 40
22.927938
100
AcDbArc
 50
72.411858
 51
107.5881660000001
  0
ARC
  5
47C
330
1F
100
AcDbEntity
  8
Ｓ_１_１
  6
CONTINUOUS
 62
     3
100
AcDbCircle
 10
205.6076644253678
 20
361.4960682186677
 30
0.0
 40
6.133925000000002
100
AcDbArc
 50
235.6154019999991
 51
304.3845609999998
  0
ARC
  5
47D
330
1F
100
AcDbEntity
  8
Ｓ_１_１
  6
CONTINUOUS
 62
     3
100
AcDbCircle
 10
211.4999984253679
 20
399.3620352186679
 30
0.0
 40
1.0
100
AcDbArc
 50
89.99997799999524
 51
179.9999749999977
  0
ARC
  5
47E
330
1F
100
AcDbEntity
  8
Ｓ_１_１
  6
CONTINUOUS
 62
     3
100
AcDbCircle
 10
205.6076644253678
 20
356.2283682186678
 30
0.0
 40
6.133925000000002
100
AcDbArc
 50
55.61536899999965
 51
124.384513999999
  0
ARC
  5
47F
330
1F
100
AcDbEntity
  8
Ｓ_１_１
  6
CONTINUOUS
 62
     3
100
AcDbCircle
 10
215.9999984253675
 20
378.290135218668
 30
0.0
 40
22.927942
100
AcDbArc
 50
252.4118210000001
 51
287.5881150000001
  0
ARC
  5
480
330
1F
100
AcDbEntity
  8
Ｓ_１_１
  6
CONTINUOUS
 62
     3
100
AcDbCircle
 10
226.3923024253675
 20
361.4960682186677
 30
0.0
 40
6.133925000000002
100
AcDbArc
 50
235.6154159999999
 51
304.3845739999999
  0
ARC
  5
481
330
1F
100
AcDbEntity
  8
Ｓ_１_１
  6
CONTINUOUS
 62
     3
100
AcDbCircle
 10
220.4999684253673
 20
399.3620352186679
 30
0.0
 40
1.0
100
AcDbArc
 50
359.9999970000025
 51
89.99997800000166
  0
LINE
  5
482
330
1F
100
AcDbEntity
  8
Ｓ_１_１
  6
CONTINUOUS
 62
     3
100
AcDbLine
 10
214.5000294253675
 20
402.3621572186678
 30
0.0
 11
217.4999984253675
 21
402.3621572186678
 31
0.0
  0
LINE
  5
483
330
1F
100
AcDbEntity
  8
Ｓ_１_１
  6
CONTINUOUS
 62
     3
100
AcDbLine
 10
203.9999984253679
 20
355.3622792186677
 30
0.0
 11
227.9999684253673
 21
355.3622792186677
 31
0.0
  0
LINE
  5
484
330
1F
100
AcDbEntity
  8
Ｓ_１_１
  6
CONTINUOUS
 62
     3
100
AcDbLine
 10
210.4999684253678
 20
399.3620352186679
 30
0.0
 11
210.4999684253678
 21
390.3622792186677
 31
0.0
  0
LINE
  5
485
330
1F
100
AcDbEntity
  8
Ｓ_１_１
  6
CONTINUOUS
 62
     3
100
AcDbLine
 10
210.4999684253678
 20
390.3622792186677
 30
0.0
 11
221.4999984253675
 21
390.3622792186677
 31
0.0
  0
LINE
  5
486
330
1F
100
AcDbEntity
  8
Ｓ_１_１
  6
CONTINUOUS
 62
     3
100
AcDbLine
 10
207.000029425368
 20
386.8620352186679
 30
0.0
 11
207.000029425368
 21
384.8621572186678
 31
0.0
  0
LINE
  5
487
330
1F
100
AcDbEntity
  8
Ｓ_１_１
  6
CONTINUOUS
 62
     3
100
AcDbLine
 10
224.9999984253675
 20
386.8620352186679
 30
0.0
 11
224.9999984253675
 21
384.8621572186678
 31
0.0
  0
LINE
  5
488
330
1F
100
AcDbEntity
  8
Ｓ_１_１
  6
CONTINUOUS
 62
     3
100
AcDbLine
 10
204.7499984253679
 20
371.3621572186678
 30
0.0
 11
227.2499984253675
 21
371.3621572186678
 31
0.0
  0
LINE
  5
489
330
1F
100
AcDbEntity
  8
Ｓ_１_１
  6
CONTINUOUS
 62
     3
100
AcDbLine
 10
227.7499984253675
 20
370.8621572186678
 30
0.0
 11
227.7499984253675
 21
362.3621572186678
 31
0.0
  0
LINE
  5
48A
330
1F
100
AcDbEntity
  8
Ｓ_１_１
  6
CONTINUOUS
 62
     3
100
AcDbLine
 10
204.2499684253678
 20
370.8621572186678
 30
0.0
 11
204.2499684253678
 21
362.3621572186678
 31
0.0
  0
LINE
  5
48B
330
1F
100
AcDbEntity
  8
Ｓ_１_１
  6
CONTINUOUS
 62
     3
100
AcDbLine
 10
202.1436304253677
 20
356.4341312186677
 30
0.0
 11
204.0000024253679
 21
355.3623542186681
 31
0.0
  0
LINE
  5
48C
330
1F
100
AcDbEntity
  8
Ｓ_１_１
  6
CONTINUOUS
 62
     3
100
AcDbLine
 10
227.9999254253673
 20
362.3623482186679
 30
0.0
 11
229.8564034253675
 21
361.2905092186677
 31
0.0
  0
LINE
  5
48D
330
1F
100
AcDbEntity
  8
Ｓ_１_１
  6
CONTINUOUS
 62
     3
100
AcDbLine
 10
227.9999674253675
 20
355.362312218668
 30
0.0
 11
229.8563404253675
 21
356.4340892186681
 31
0.0
  0
LINE
  5
48E
330
1F
100
AcDbEntity
  8
Ｓ_１_１
  6
CONTINUOUS
 62
     3
100
AcDbLine
 10
202.1436374253678
 20
361.2906492186678
 30
0.0
 11
204.0000104253679
 21
362.3624262186679
 31
0.0
  0
LINE
  5
48F
330
1F
100
AcDbEntity
  8
Ｓ_１_１
  6
CONTINUOUS
 62
     3
100
AcDbLine
 10
229.8564134253672
 20
361.2903792186678
 30
0.0
 11
229.8564134253672
 21
356.4340562186678
 31
0.0
  0
LINE
  5
490
330
1F
100
AcDbEntity
  8
Ｓ_１_１
  6
CONTINUOUS
 62
     3
100
AcDbLine
 10
222.9282214253674
 20
361.2903792186678
 30
0.0
 11
222.9282214253674
 21
356.4340562186678
 31
0.0
  0
LINE
  5
491
330
1F
100
AcDbEntity
  8
Ｓ_１_１
  6
CONTINUOUS
 62
     3
100
AcDbLine
 10
209.0718674253678
 20
361.2903792186678
 30
0.0
 11
209.0718674253678
 21
356.4340562186678
 31
0.0
  0
LINE
  5
492
330
1F
100
AcDbEntity
  8
Ｓ_１_１
  6
CONTINUOUS
 62
     3
100
AcDbLine
 10
202.1435994253677
 20
361.2903792186678
 30
0.0
 11
202.1435994253677
 21
356.4340562186678
 31
0.0
  0
LINE
  5
493
330
1F
100
AcDbEntity
  8
Ｓ_１_１
  6
CONTINUOUS
 62
     3
100
AcDbLine
 10
203.9999984253679
 20
362.3621572186678
 30
0.0
 11
227.9999684253673
 21
362.3621572186678
 31
0.0
  0
LINE
  5
494
330
1F
100
AcDbEntity
  8
Ｓ_１_１
  6
CONTINUOUS
 62
     3
100
AcDbLine
 10
211.4999984253679
 20
400.3622792186682
 30
0.0
 11
220.4999684253673
 21
400.3622792186682
 31
0.0
  0
LINE
  5
495
330
1F
100
AcDbEntity
  8
Ｓ_１_１
  6
CONTINUOUS
 62
     3
100
AcDbLine
 10
217.4998574253675
 20
402.3623442186679
 30
0.0
 11
219.4999024253673
 21
400.3622992186681
 31
0.0
  0
LINE
  5
496
330
1F
100
AcDbEntity
  8
Ｓ_１_１
  6
CONTINUOUS
 62
     3
100
AcDbLine
 10
212.4998304253679
 20
400.3623422186677
 30
0.0
 11
214.4997894253672
 21
402.3623012186679
 31
0.0
  0
LINE
  5
497
330
1F
100
AcDbEntity
  8
Ｓ_１_１
  6
CONTINUOUS
 62
     3
100
AcDbLine
 10
208.4999984253679
 20
381.8620352186679
 30
0.0
 11
223.4999984253675
 21
381.8620352186679
 31
0.0
  0
LINE
  5
498
330
1F
100
AcDbEntity
  8
Ｓ_１_１
  6
CONTINUOUS
 62
     3
100
AcDbLine
 10
208.4999984253679
 20
383.3621572186678
 30
0.0
 11
223.4999984253675
 21
383.3621572186678
 31
0.0
  0
LINE
  5
499
330
1F
100
AcDbEntity
  8
Ｓ_１_１
  6
CONTINUOUS
 62
     3
100
AcDbLine
 10
207.000029425368
 20
386.8620352186679
 30
0.0
 11
224.9999984253675
 21
386.8620352186679
 31
0.0
  0
LINE
  5
49A
330
1F
100
AcDbEntity
  8
Ｓ_１_１
  6
CONTINUOUS
 62
     3
100
AcDbLine
 10
224.9999984253675
 20
380.3622792186677
 30
0.0
 11
224.9999984253675
 21
371.3621572186678
 31
0.0
  0
LINE
  5
49B
330
1F
100
AcDbEntity
  8
Ｓ_１_１
  6
CONTINUOUS
 62
     3
100
AcDbLine
 10
207.000029425368
 20
380.3622792186677
 30
0.0
 11
207.000029425368
 21
371.3621572186678
 31
0.0
  0
LINE
  5
49C
330
1F
100
AcDbEntity
  8
Ｓ_１_１
  6
CONTINUOUS
 62
     3
100
AcDbLine
 10
206.9998864253678
 20
384.8621782186681
 30
0.0
 11
208.4998984253677
 21
383.3621652186678
 31
0.0
  0
LINE
  5
49D
330
1F
100
AcDbEntity
  8
Ｓ_１_１
  6
CONTINUOUS
 62
     3
100
AcDbLine
 10
223.4999644253674
 20
383.3621642186679
 30
0.0
 11
224.9998474253673
 21
384.8620472186678
 31
0.0
  0
LINE
  5
49E
330
1F
100
AcDbEntity
  8
Ｓ_１_１
  6
CONTINUOUS
 62
     3
100
AcDbLine
 10
207.000029425368
 20
384.8621572186678
 30
0.0
 11
224.9999984253675
 21
384.8621572186678
 31
0.0
  0
LINE
  5
49F
330
1F
100
AcDbEntity
  8
Ｓ_１_１
  6
CONTINUOUS
 62
     3
100
AcDbLine
 10
207.0000004253677
 20
380.362312218668
 30
0.0
 11
208.4998834253677
 21
381.8621952186679
 31
0.0
  0
LINE
  5
4A0
330
1F
100
AcDbEntity
  8
Ｓ_１_１
  6
CONTINUOUS
 62
     3
100
AcDbLine
 10
223.4998504253674
 20
381.8621532186678
 30
0.0
 11
224.9998634253673
 21
380.3621412186678
 31
0.0
  0
LINE
  5
4A1
330
1F
100
AcDbEntity
  8
Ｓ_１_１
  6
CONTINUOUS
 62
     3
100
AcDbLine
 10
204.2499684253678
 20
370.8621572186678
 30
0.0
 11
227.7499984253675
 21
370.8621572186678
 31
0.0
  0
LINE
  5
4A2
330
1F
100
AcDbEntity
  8
Ｓ_１_１
  6
CONTINUOUS
 62
     3
100
AcDbLine
 10
207.000029425368
 20
380.3622792186677
 30
0.0
 11
224.9999984253675
 21
380.3622792186677
 31
0.0
  0
LINE
  5
4A3
330
1F
100
AcDbEntity
  8
Ｓ_１_１
  6
CONTINUOUS
 62
     3
100
AcDbLine
 10
208.4999984253679
 20
383.3621572186678
 30
0.0
 11
208.4999984253679
 21
381.8620352186679
 31
0.0
  0
LINE
  5
4A4
330
1F
100
AcDbEntity
  8
Ｓ_１_１
  6
CONTINUOUS
 62
     3
100
AcDbLine
 10
223.4999984253675
 20
383.3621572186678
 30
0.0
 11
223.4999984253675
 21
381.8620352186679
 31
0.0
  0
LINE
  5
4A5
330
1F
100
AcDbEntity
  8
Ｓ_１_１
  6
CONTINUOUS
 62
     3
100
AcDbLine
 10
227.2498944253673
 20
371.3622462186679
 30
0.0
 11
227.7498414253675
 21
370.862300218668
 31
0.0
  0
LINE
  5
4A6
330
1F
100
AcDbEntity
  8
Ｓ_１_１
  6
CONTINUOUS
 62
     3
100
AcDbLine
 10
204.249923425368
 20
370.8622482186677
 30
0.0
 11
204.7498214253681
 21
371.3621572186678
 31
0.0
  0
LINE
  5
4A7
330
1F
100
AcDbEntity
  8
Ｓ_１_１
  6
CONTINUOUS
 62
     3
100
AcDbLine
 10
206.9999574253677
 20
386.8622662186679
 30
0.0
 11
210.4999714253679
 21
390.362280218668
 31
0.0
  0
LINE
  5
4A8
330
1F
100
AcDbEntity
  8
Ｓ_１_１
  6
CONTINUOUS
 62
     3
100
AcDbLine
 10
221.4998484253676
 20
390.3620662186679
 30
0.0
 11
224.9998194253674
 21
386.8620942186678
 31
0.0
  0
LINE
  5
4A9
330
1F
100
AcDbEntity
  8
Ｓ_１_１
  6
CONTINUOUS
 62
     3
100
AcDbLine
 10
221.4999984253675
 20
399.3620352186679
 30
0.0
 11
221.4999984253675
 21
390.3622792186677
 31
0.0
  0
LINE
  5
4AA
330
1F
100
AcDbEntity
  8
Ｓ_１_１
  6
CONTINUOUS
 62
     3
100
AcDbLine
 10
226.5000073314352
 20
338.8622797696173
 30
0.0
 11
205.4999803269104
 21
338.8622790625104
 31
0.0
  0
LINE
  5
4AB
330
1F
100
AcDbEntity
  8
Ｓ_１_１
  6
CONTINUOUS
 62
     3
100
AcDbLine
 10
226.5000151096094
 20
347.8622790191239
 30
0.0
 11
205.4999888121918
 21
347.8622790191239
 31
0.0
  0
LINE
  5
4AC
330
1F
100
AcDbEntity
  8
Ｓ_１_１
  6
CONTINUOUS
 62
     3
100
AcDbLine
 10
209.9378086485879
 20
346.9244581444786
 30
0.0
 11
209.9378086485879
 21
339.8000999371557
 31
0.0
  0
LINE
  5
4AD
330
1F
100
AcDbEntity
  8
Ｓ_１_１
  6
CONTINUOUS
 62
     3
100
AcDbLine
 10
222.0621606249813
 20
346.9244588515853
 30
0.0
 11
222.0621599178742
 21
339.8000999371557
 31
0.0
  0
LINE
  5
4AE
330
1F
100
AcDbEntity
  8
Ｓ_１_１
  6
CONTINUOUS
 62
     3
100
AcDbLine
 10
228.124343330692
 20
346.9244737008278
 30
0.0
 11
228.124343330692
 21
339.8000843808065
 31
0.0
  0
LINE
  5
4AF
330
1F
100
AcDbEntity
  8
Ｓ_１_１
  6
CONTINUOUS
 62
     3
100
AcDbLine
 10
203.8756217002363
 20
346.9244588515853
 30
0.0
 11
203.8756217002367
 21
339.800099230049
 31
0.0
  0
LINE
  5
4B0
330
1F
100
AcDbEntity
  8
Ｓ_１_１
  6
CONTINUOUS
 62
     3
100
AcDbLine
 10
205.499987397978
 20
347.8622747764832
 30
0.0
 11
203.8756266499838
 21
346.924453901838
 31
0.0
  0
LINE
  5
4B1
330
1F
100
AcDbEntity
  8
Ｓ_１_１
  6
CONTINUOUS
 62
     3
100
AcDbLine
 10
205.4999831553375
 20
338.8622818909375
 30
0.0
 11
203.87562311445
 21
339.8001034726897
 31
0.0
  0
LINE
  5
4B2
330
1F
100
AcDbEntity
  8
Ｓ_１_１
  6
CONTINUOUS
 62
     3
100
AcDbLine
 10
226.5000080385419
 20
347.8622860901917
 30
0.0
 11
228.1243716149631
 21
346.9244623871193
 31
0.0
  0
LINE
  5
4B3
330
1F
100
AcDbEntity
  8
Ｓ_１_１
  6
CONTINUOUS
 62
     3
100
AcDbLine
 10
226.5000059172214
 20
338.8622811838309
 30
0.0
 11
228.1243666652156
 21
339.8001034726897
 31
0.0
  0
LINE
  5
4B4
330
1F
100
AcDbEntity
  8
Ｓ_１_１
  6
CONTINUOUS
 62
     3
100
AcDbLine
 10
224.2648618879873
 20
349.2245456889239
 30
0.0
 11
207.7351420338139
 21
349.2245456889239
 31
0.0
  0
LINE
  5
4B5
330
1F
100
AcDbEntity
  8
Ｓ_１_１
  6
CONTINUOUS
 62
     3
100
AcDbLine
 10
208.8201153651582
 20
355.3622792186707
 30
0.0
 11
208.4365071079371
 21
349.2245513457781
 31
0.0
  0
LINE
  5
4B6
330
1F
100
AcDbEntity
  8
Ｓ_１_１
  6
CONTINUOUS
 62
     3
100
AcDbLine
 10
208.1187453412874
 20
355.3622827542047
 30
0.0
 11
207.6499950636505
 21
347.8622761906968
 31
0.0
  0
LINE
  5
4B7
330
1F
100
AcDbEntity
  8
Ｓ_１_１
  6
CONTINUOUS
 62
     3
100
AcDbLine
 10
208.4365099363642
 20
349.2245499315645
 30
0.0
 11
207.6500000133981
 21
347.8622740693763
 31
0.0
  0
LINE
  5
4B8
330
1F
100
AcDbEntity
  8
Ｓ_１_１
  6
CONTINUOUS
 62
     3
100
AcDbLine
 10
223.881245852592
 20
355.3622855826318
 30
0.0
 11
224.3499968373355
 21
347.8622613414543
 31
0.0
  0
LINE
  5
4B9
330
1F
100
AcDbEntity
  8
Ｓ_１_１
  6
CONTINUOUS
 62
     3
100
AcDbLine
 10
224.349991887588
 20
347.8622790191239
 30
0.0
 11
223.5634855001556
 21
349.224548517351
 31
0.0
  0
LINE
  5
4BA
330
1F
100
AcDbEntity
  8
Ｓ_１_１
  6
CONTINUOUS
 62
     3
100
AcDbLine
 10
223.1798821926825
 20
355.3622827542047
 30
0.0
 11
223.5634911570098
 21
349.2245471031374
 31
0.0
  0
ARC
  5
4BB
330
1F
100
AcDbEntity
  8
Ｓ_１_１
  6
CONTINUOUS
 62
     3
100
AcDbCircle
 10
206.9067204777132
 20
344.2295285373798
 30
0.0
 40
5.367246000000002
100
AcDbArc
 50
235.6159330000001
 51
304.3842240000001
  0
ARC
  5
4BC
330
1F
100
AcDbEntity
  8
Ｓ_１_１
  6
CONTINUOUS
 62
     3
100
AcDbCircle
 10
215.999982161911
 20
327.8000834958464
 30
0.0
 40
20.062197
100
AcDbArc
 50
72.4120460000003
 51
107.5879310000003
  0
ARC
  5
4BD
330
1F
100
AcDbEntity
  8
Ｓ_１_１
  6
CONTINUOUS
 62
     3
100
AcDbCircle
 10
206.906724013247
 20
342.4950288371479
 30
0.0
 40
5.367246000000002
100
AcDbArc
 50
55.61584000000011
 51
124.384124
  0
ARC
  5
4BE
330
1F
100
AcDbEntity
  8
Ｓ_１_１
  6
CONTINUOUS
 62
     3
100
AcDbCircle
 10
225.0932742517
 20
342.4950302513614
 30
0.0
 40
5.367246000000002
100
AcDbArc
 50
55.6159210000001
 51
124.3842060000003
  0
ARC
  5
4BF
330
1F
100
AcDbEntity
  8
Ｓ_１_１
  6
CONTINUOUS
 62
     3
100
AcDbCircle
 10
215.9999807476972
 20
358.9244760000015
 30
0.0
 40
20.062197
100
AcDbArc
 50
252.4121270000001
 51
287.588011
  0
ARC
  5
4C0
330
1F
100
AcDbEntity
  8
Ｓ_１_１
  6
CONTINUOUS
 62
     3
100
AcDbCircle
 10
225.0932749588067
 20
344.2295271231662
 30
0.0
 40
5.367246000000002
100
AcDbArc
 50
235.615851
 51
304.3841430000001
  0
LINE
  5
4C1
330
1F
100
AcDbEntity
  8
Ｓ_１_１
  6
CONTINUOUS
 62
     3
100
AcDbLine
 10
224.2648618879873
 20
337.5000123927164
 30
0.0
 11
207.7351420338139
 21
337.5000123927164
 31
0.0
  0
LINE
  5
4C2
330
1F
100
AcDbEntity
  8
Ｓ_１_１
  6
CONTINUOUS
 62
     3
100
AcDbLine
 10
208.4365099363642
 20
337.5000081500757
 30
0.0
 11
207.6500000133981
 21
338.8622840122639
 31
0.0
  0
LINE
  5
4C3
330
1F
100
AcDbEntity
  8
Ｓ_１_１
  6
CONTINUOUS
 62
     3
100
AcDbLine
 10
224.349991887588
 20
338.8622790625163
 30
0.0
 11
223.5634855001556
 21
337.5000095642893
 31
0.0
  0
LINE
  5
4C4
330
1F
100
AcDbEntity
  8
Ｓ_１_１
  6
CONTINUOUS
 62
     3
100
AcDbLine
 10
208.0163875782032
 20
332.9999999999991
 30
0.0
 11
207.6499950636505
 21
338.8622818909434
 31
0.0
  0
LINE
  5
4C5
330
1F
100
AcDbEntity
  8
Ｓ_１_１
  6
CONTINUOUS
 62
     3
100
AcDbLine
 10
208.7177577233401
 20
332.9999999999991
 30
0.0
 11
208.4365071079371
 21
337.5000067358621
 31
0.0
  0
LINE
  5
4C6
330
1F
100
AcDbEntity
  8
Ｓ_１_１
  6
CONTINUOUS
 62
     3
100
AcDbLine
 10
223.2822401144326
 20
332.9999999999991
 30
0.0
 11
223.5634911570098
 21
337.5000109785028
 31
0.0
  0
LINE
  5
4C7
330
1F
100
AcDbEntity
  8
Ｓ_１_１
  6
CONTINUOUS
 62
     3
100
AcDbLine
 10
223.9836037055995
 20
332.9999999999991
 30
0.0
 11
224.3499968373355
 21
338.8622967401859
 31
0.0
  0
LINE
  5
4C8
330
1F
100
AcDbEntity
  8
Ｓ_１_１
  6
CONTINUOUS
 62
     3
100
AcDbLine
 10
256.9498292165949
 20
314.0541531121767
 30
0.0
 11
256.9498295740716
 21
315.6271735772771
 31
0.0
  0
LINE
  5
4C9
330
1F
100
AcDbEntity
  8
Ｓ_１_１
  6
EXLTYPE2
 62
     1
100
AcDbLine
 10
254.7500067223245
 20
295.1169649121571
 30
0.0
 11
284.6811454168353
 21
346.959217859443
 31
0.0
  0
LINE
  5
4CA
330
1F
100
AcDbEntity
  8
Ｓ_１_１
  6
CONTINUOUS
 62
     3
100
AcDbLine
 10
254.5906731841926
 20
309.3065799501535
 30
0.0
 11
256.9498312177968
 21
314.0541495072923
 31
0.0
  0
LINE
  5
4CB
330
1F
100
AcDbEntity
  8
Ｓ_１_１
  6
CONTINUOUS
 62
     3
100
AcDbLine
 10
253.9569762008784
 20
309.6043378607155
 30
0.0
 11
256.9498364742531
 21
315.6271671439658
 31
0.0
  0
LINE
  5
4CC
330
1F
100
AcDbEntity
  8
Ｓ_１_１
  6
CONTINUOUS
 62
     3
100
AcDbLine
 10
202.999994651334
 20
390.3622787356755
 30
0.0
 11
202.999994651334
 21
383.4396255661134
 31
0.0
  0
LINE
  5
4CD
330
1F
100
AcDbEntity
  8
Ｓ_１_１
  6
CONTINUOUS
 62
     3
100
AcDbLine
 10
203.9999949607829
 20
417.8622794673472
 30
0.0
 11
203.9999942536763
 21
417.3622793126226
 31
0.0
  0
LINE
  5
4CE
330
1F
100
AcDbEntity
  8
Ｓ_１_１
  6
CONTINUOUS
 62
     3
100
AcDbLine
 10
199.9999951372006
 20
414.3622790913826
 30
0.0
 11
199.9999951372008
 21
406.8622788918358
 31
0.0
  0
LINE
  5
4CF
330
1F
100
AcDbEntity
  8
Ｓ_１_１
  6
CONTINUOUS
 62
     3
100
AcDbLine
 10
202.9999932371204
 20
417.3622885050108
 30
0.0
 11
199.9999958443075
 21
414.3622911121979
 31
0.0
  0
LINE
  5
4D0
330
1F
100
AcDbEntity
  8
Ｓ_１_１
  6
CONTINUOUS
 62
     3
100
AcDbLine
 10
200.4999945848185
 20
406.3622794442181
 30
0.0
 11
200.4999952919252
 21
398.3622790899467
 31
0.0
  0
LINE
  5
4D1
330
1F
100
AcDbEntity
  8
Ｓ_１_１
  6
CONTINUOUS
 62
     3
100
AcDbLine
 10
200.5000009487794
 20
406.3622872223928
 30
0.0
 11
200.0000000869481
 21
406.862288084224
 31
0.0
  0
LINE
  5
4D2
330
1F
100
AcDbEntity
  8
Ｓ_１_１
  6
CONTINUOUS
 62
     3
100
AcDbLine
 10
200.4999959990319
 20
398.3622840396943
 30
0.0
 11
199.9999951372008
 21
397.862283177863
 31
0.0
  0
LINE
  5
4D3
330
1F
100
AcDbEntity
  8
Ｓ_１_１
  6
CONTINUOUS
 62
     3
100
AcDbLine
 10
199.9999951372008
 20
397.8622789352223
 30
0.0
 11
199.9999944300939
 21
390.8622788903999
 31
0.0
  0
LINE
  5
4D4
330
1F
100
AcDbEntity
  8
Ｓ_１_１
  6
CONTINUOUS
 62
     3
100
AcDbLine
 10
200.4999938777116
 20
390.3622850996367
 30
0.0
 11
199.9999937229873
 21
390.862285254361
 31
0.0
  0
LINE
  5
4D5
330
1F
100
AcDbEntity
  8
Ｓ_１_１
  6
CONTINUOUS
 62
     3
100
AcDbLine
 10
200.4999945848185
 20
388.8622789786089
 30
0.0
 11
200.4999945848183
 21
387.8622786691599
 31
0.0
  0
LINE
  5
4D6
330
1F
100
AcDbEntity
  8
Ｓ_１_１
  6
CONTINUOUS
 62
     3
100
AcDbLine
 10
202.9999953584409
 20
389.3622791333335
 30
0.0
 11
200.9999947395429
 21
389.3622791333332
 31
0.0
  0
LINE
  5
4D7
330
1F
100
AcDbEntity
  8
Ｓ_１_１
  6
CONTINUOUS
 62
     3
100
AcDbLine
 10
202.999994651334
 20
387.3622792215422
 30
0.0
 11
200.9999947395429
 21
387.3622785144355
 31
0.0
  0
LINE
  5
4D8
330
1F
100
AcDbEntity
  8
Ｓ_１_１
  6
CONTINUOUS
 62
     3
100
AcDbLine
 10
201.0000018106107
 20
389.3622692338383
 30
0.0
 11
200.5000016558863
 21
388.862269079114
 31
0.0
  0
LINE
  5
4D9
330
1F
100
AcDbEntity
  8
Ｓ_１_１
  6
CONTINUOUS
 62
     3
100
AcDbLine
 10
200.9999912040089
 20
387.3622778073286
 30
0.0
 11
200.5000009487794
 21
387.8622680625581
 31
0.0
  0
LINE
  5
4DA
330
1F
100
AcDbEntity
  8
Ｓ_１_１
  6
CONTINUOUS
 62
     3
100
AcDbLine
 10
203.9999984963169
 20
382.862280657449
 30
0.0
 11
203.0000045508289
 21
383.4396269803269
 31
0.0
  0
LINE
  5
4DB
330
1F
100
AcDbEntity
  8
Ｓ_１_１
  6
CONTINUOUS
 62
     3
100
AcDbLine
 10
208.4999972599583
 20
382.8622792432354
 30
0.0
 11
203.9999942536763
 21
382.8622792432354
 31
0.0
  0
LINE
  5
4DC
330
1F
100
AcDbEntity
  8
Ｓ_１_１
  6
CONTINUOUS
 62
     3
100
AcDbLine
 10
208.4224369641522
 20
383.4396255661134
 30
0.0
 11
202.999994651334
 21
383.4396255661134
 31
0.0
  0
LINE
  5
4DD
330
1F
100
AcDbEntity
  8
Ｓ_１_１
  6
CONTINUOUS
 62
     3
100
AcDbLine
 10
210.4999672599581
 20
390.8622788903999
 30
0.0
 11
199.9999944300939
 21
390.8622788903999
 31
0.0
  0
LINE
  5
4DE
330
1F
100
AcDbEntity
  8
Ｓ_１_１
  6
CONTINUOUS
 62
     3
100
AcDbLine
 10
199.9999951372008
 20
397.8622789352223
 30
0.0
 11
210.4999672930983
 21
397.862279167241
 31
0.0
  0
LINE
  5
4DF
330
1F
100
AcDbEntity
  8
Ｓ_１_１
  6
CONTINUOUS
 62
     3
100
AcDbLine
 10
210.4999672827626
 20
398.362279318045
 30
0.0
 11
200.4999952919252
 21
398.3622790899467
 31
0.0
  0
LINE
  5
4E0
330
1F
100
AcDbEntity
  8
Ｓ_１_１
  6
CONTINUOUS
 62
     3
100
AcDbLine
 10
210.4999692912238
 20
390.3622792499336
 30
0.0
 11
200.4999945848183
 21
390.3622787356755
 31
0.0
  0
LINE
  5
4E1
330
1F
100
AcDbEntity
  8
Ｓ_１_１
  6
CONTINUOUS
 62
     3
100
AcDbLine
 10
228.9999984543661
 20
390.3622787356755
 30
0.0
 11
228.9999984543661
 21
383.4396255661134
 31
0.0
  0
LINE
  5
4E2
330
1F
100
AcDbEntity
  8
Ｓ_１_１
  6
CONTINUOUS
 62
     3
100
AcDbLine
 10
231.9999979684994
 20
414.3622790913826
 30
0.0
 11
231.9999986756061
 21
406.8622795989425
 31
0.0
  0
LINE
  5
4E3
330
1F
100
AcDbEntity
  8
Ｓ_１_１
  6
CONTINUOUS
 62
     3
100
AcDbLine
 10
229.0000062325407
 20
417.3622948689717
 30
0.0
 11
231.9999986756061
 21
414.3623024259064
 31
0.0
  0
LINE
  5
4E4
330
1F
100
AcDbEntity
  8
Ｓ_１_１
  6
CONTINUOUS
 62
     3
100
AcDbLine
 10
231.4999985208817
 20
406.3622794442181
 30
0.0
 11
231.4999985208817
 21
398.3622797970536
 31
0.0
  0
LINE
  5
4E5
330
1F
100
AcDbEntity
  8
Ｓ_１_１
  6
CONTINUOUS
 62
     3
100
AcDbLine
 10
231.9999972613925
 20
397.8622838849697
 30
0.0
 11
231.4999971066682
 21
398.3622840396943
 31
0.0
  0
LINE
  5
4E6
330
1F
100
AcDbEntity
  8
Ｓ_１_１
  6
CONTINUOUS
 62
     3
100
AcDbLine
 10
231.9999972613925
 20
406.8622824273696
 30
0.0
 11
231.4999963995613
 21
406.3622815655383
 31
0.0
  0
LINE
  5
4E7
330
1F
100
AcDbEntity
  8
Ｓ_１_１
  6
CONTINUOUS
 62
     3
100
AcDbLine
 10
231.9999986756061
 20
397.862279642329
 30
0.0
 11
231.9999986756061
 21
390.8622788903999
 31
0.0
  0
LINE
  5
4E8
330
1F
100
AcDbEntity
  8
Ｓ_１_１
  6
CONTINUOUS
 62
     3
100
AcDbLine
 10
231.9999908974316
 20
390.8622810117204
 30
0.0
 11
231.4999956924546
 21
390.3622858067433
 31
0.0
  0
LINE
  5
4E9
330
1F
100
AcDbEntity
  8
Ｓ_１_１
  6
CONTINUOUS
 62
     3
100
AcDbLine
 10
231.4999985208817
 20
388.8622789786089
 30
0.0
 11
231.4999985208817
 21
387.8622786691599
 31
0.0
  0
LINE
  5
4EA
330
1F
100
AcDbEntity
  8
Ｓ_１_１
  6
CONTINUOUS
 62
     3
100
AcDbLine
 10
230.999999073264
 20
387.3622792215422
 30
0.0
 11
228.9999984543661
 21
387.3622792215422
 31
0.0
  0
LINE
  5
4EB
330
1F
100
AcDbEntity
  8
Ｓ_１_１
  6
CONTINUOUS
 62
     3
100
AcDbLine
 10
230.9999983661571
 20
389.3622791333335
 30
0.0
 11
228.9999991614729
 21
389.3622791333332
 31
0.0
  0
LINE
  5
4EC
330
1F
100
AcDbEntity
  8
Ｓ_１_１
  6
CONTINUOUS
 62
     3
100
AcDbLine
 10
231.4999971066682
 20
388.8622747359682
 30
0.0
 11
230.9999969519436
 21
389.3622748906928
 31
0.0
  0
LINE
  5
4ED
330
1F
100
AcDbEntity
  8
Ｓ_１_１
  6
CONTINUOUS
 62
     3
100
AcDbLine
 10
231.4999971066682
 20
387.8622730123056
 30
0.0
 11
230.9999969519436
 21
387.3622728575813
 31
0.0
  0
LINE
  5
4EE
330
1F
100
AcDbEntity
  8
Ｓ_１_１
  6
CONTINUOUS
 62
     3
100
AcDbLine
 10
228.9999984543661
 20
383.4396269803269
 30
0.0
 11
227.999991780956
 21
382.8622721721676
 31
0.0
  0
LINE
  5
4EF
330
1F
100
AcDbEntity
  8
Ｓ_１_１
  6
CONTINUOUS
 62
     3
100
AcDbLine
 10
227.9999966571538
 20
417.362285924962
 30
0.0
 11
227.999996657154
 21
417.8622794876599
 31
0.0
  0
LINE
  5
4F0
330
1F
100
AcDbEntity
  8
Ｓ_１_１
  6
CONTINUOUS
 62
     3
100
AcDbLine
 10
227.999998852024
 20
382.8622792432354
 30
0.0
 11
223.4999972599578
 21
382.8622792432354
 31
0.0
  0
LINE
  5
4F1
330
1F
100
AcDbEntity
  8
Ｓ_１_１
  6
CONTINUOUS
 62
     3
100
AcDbLine
 10
228.9999984543661
 20
383.4396255661134
 30
0.0
 11
223.5774246074031
 21
383.4396255661134
 31
0.0
  0
LINE
  5
4F2
330
1F
100
AcDbEntity
  8
Ｓ_１_１
  6
CONTINUOUS
 62
     3
100
AcDbLine
 10
231.9999986756061
 20
390.8622788903999
 30
0.0
 11
221.4999968381871
 21
390.862279411426
 31
0.0
  0
LINE
  5
4F3
330
1F
100
AcDbEntity
  8
Ｓ_１_１
  6
CONTINUOUS
 62
     3
100
AcDbLine
 10
221.499997293098
 20
397.8622794103096
 30
0.0
 11
231.9999986756061
 21
397.862279642329
 31
0.0
  0
LINE
  5
4F4
330
1F
100
AcDbEntity
  8
Ｓ_１_１
  6
CONTINUOUS
 62
     3
100
AcDbLine
 10
231.4999985208817
 20
398.3622797970536
 30
0.0
 11
221.4999972827623
 21
398.3622795689546
 31
0.0
  0
LINE
  5
4F5
330
1F
100
AcDbEntity
  8
Ｓ_１_１
  6
CONTINUOUS
 62
     3
100
AcDbLine
 10
231.4999985208817
 20
390.3622787356755
 30
0.0
 11
221.4999972599578
 21
390.3622787356755
 31
0.0
  0
LINE
  5
4F6
330
1F
100
AcDbEntity
  8
Ｓ_１_１
  6
CONTINUOUS
 62
     3
100
AcDbLine
 10
228.9999984543661
 20
417.3622786055157
 30
0.0
 11
202.999994651334
 21
417.3622786055159
 31
0.0
  0
LINE
  5
4F7
330
1F
100
AcDbEntity
  8
Ｓ_１_１
  6
CONTINUOUS
 62
     3
100
AcDbLine
 10
231.4999985208817
 20
406.3622794442181
 30
0.0
 11
200.4999945848185
 21
406.3622794442181
 31
0.0
  0
LINE
  5
4F8
330
1F
100
AcDbEntity
  8
Ｓ_１_１
  6
CONTINUOUS
 62
     3
100
AcDbLine
 10
231.9999986756061
 20
406.8622795989425
 30
0.0
 11
199.9999951372008
 21
406.8622788918358
 31
0.0
  0
LINE
  5
4F9
330
1F
100
AcDbEntity
  8
Ｓ_１_１
  6
CONTINUOUS
 62
     3
100
AcDbLine
 10
231.9999979684994
 20
414.3622790913826
 30
0.0
 11
199.9999951372006
 21
414.3622790913826
 31
0.0
  0
LINE
  5
4FA
330
1F
100
AcDbEntity
  8
Ｓ_１_１
  6
CONTINUOUS
 62
     3
100
AcDbLine
 10
203.9999965528457
 20
417.8622786055173
 30
0.0
 11
227.9999965528455
 21
417.8622786055171
 31
0.0
  0
LINE
  5
4FB
330
1F
100
AcDbEntity
  8
Ｓ_１_１
  6
CONTINUOUS
 62
     3
100
AcDbLine
 10
204.0000020318507
 20
367.8622710659672
 30
0.0
 11
202.999994651334
 21
367.2849169649148
 31
0.0
  0
LINE
  5
4FC
330
1F
100
AcDbEntity
  8
Ｓ_１_１
  6
CONTINUOUS
 62
     3
100
AcDbLine
 10
202.999994651334
 20
367.2849169649148
 30
0.0
 11
202.999994651334
 21
361.7804039113864
 31
0.0
  0
LINE
  5
4FD
330
1F
100
AcDbEntity
  8
Ｓ_１_１
  6
CONTINUOUS
 62
     3
100
AcDbLine
 10
204.2499672599581
 20
367.2849325212642
 30
0.0
 11
202.999994651334
 21
367.2849325212642
 31
0.0
  0
LINE
  5
4FE
330
1F
100
AcDbEntity
  8
Ｓ_１_１
  6
CONTINUOUS
 62
     3
100
AcDbLine
 10
204.2499672599581
 20
367.8622788441419
 30
0.0
 11
204.0000098100254
 21
367.8622788441419
 31
0.0
  0
LINE
  5
4FF
330
1F
100
AcDbEntity
  8
Ｓ_１_１
  6
CONTINUOUS
 62
     3
100
AcDbLine
 10
203.9999942536763
 20
382.8622792432354
 30
0.0
 11
203.9999949607829
 21
367.8622795512488
 31
0.0
  0
LINE
  5
500
330
1F
100
AcDbEntity
  8
Ｓ_１_１
  6
CONTINUOUS
 62
     3
100
AcDbLine
 10
228.9999977472594
 20
367.2849332283708
 30
0.0
 11
228.0000038017713
 21
367.8622795512485
 31
0.0
  0
LINE
  5
501
330
1F
100
AcDbEntity
  8
Ｓ_１_１
  6
CONTINUOUS
 62
     3
100
AcDbLine
 10
228.9999984543661
 20
367.284932521264
 30
0.0
 11
228.9999984543661
 21
361.7803904851849
 31
0.0
  0
LINE
  5
502
330
1F
100
AcDbEntity
  8
Ｓ_１_１
  6
CONTINUOUS
 62
     3
100
AcDbLine
 10
227.999998852024
 20
367.8622788441419
 30
0.0
 11
227.7499972599578
 21
367.8622788441419
 31
0.0
  0
LINE
  5
503
330
1F
100
AcDbEntity
  8
Ｓ_１_１
  6
CONTINUOUS
 62
     3
100
AcDbLine
 10
228.9999984543661
 20
367.284932521264
 30
0.0
 11
227.7499972599578
 21
367.284932521264
 31
0.0
  0
LINE
  5
504
330
1F
100
AcDbEntity
  8
Ｓ_１_１
  6
CONTINUOUS
 62
     3
100
AcDbLine
 10
227.999998852024
 20
382.8622792432354
 30
0.0
 11
227.999998852024
 21
367.8622788441419
 31
0.0
  0
ARC
  5
505
330
1F
100
AcDbEntity
  8
Ｓ_１_１
  6
CONTINUOUS
 62
     3
100
AcDbCircle
 10
266.0342188035422
 20
304.6975793102654
 30
0.0
 40
3.752776145935058
100
AcDbArc
 50
30.00000888460604
 51
30.00001156757087
  0
LINE
  5
506
330
1F
100
AcDbEntity
  8
Ｓ_１_１
  6
CONTINUOUS
 62
     3
100
AcDbLine
 10
269.2842178701555
 20
306.5739678181914
 30
0.0
 11
269.2842177822906
 21
306.573967970378
 31
0.0
  0
LINE
  5
507
330
1F
100
AcDbEntity
  8
Ｓ_１_１
  6
CONTINUOUS
 62
     3
100
AcDbLine
 10
254.9131951448719
 20
316.8030276477029
 30
0.0
 11
269.5071475899381
 21
308.3772052750036
 31
0.0
  0
LINE
  5
508
330
1F
100
AcDbEntity
  8
Ｓ_１_１
  6
CONTINUOUS
 62
     3
100
AcDbLine
 10
281.4131954237312
 20
328.5972587426347
 30
0.0
 11
270.0560579364383
 21
308.9261156215038
 31
0.0
  0
LINE
  5
509
330
1F
100
AcDbEntity
  8
Ｓ_１_１
  6
CONTINUOUS
 62
     3
100
AcDbLine
 10
286.9131953939288
 20
325.4218287428062
 30
0.0
 11
276.5444712351007
 21
307.4626714398382
 31
0.0
  0
POLYLINE
  5
50A
330
1F
100
AcDbEntity
  8
Ｓ_１_１
  6
CONTINUOUS
 62
     3
100
AcDb2dPolyline
 66
     1
 10
0.0
 20
0.0
 30
0.0
 70
   128
  0
VERTEX
  5
50B
330
50A
100
AcDbEntity
  8
Ｓ_１_１
  6
CONTINUOUS
 62
     3
100
AcDbVertex
100
AcDb2dVertex
 10
269.8959686949072
 20
308.7660263799727
 30
0.0
  0
VERTEX
  5
50C
330
50A
100
AcDbEntity
  8
Ｓ_１_１
  6
CONTINUOUS
 62
     3
100
AcDbVertex
100
AcDb2dVertex
 10
264.9571725651126
 20
311.1064545472263
 30
0.0
  0
VERTEX
  5
50D
330
50A
100
AcDbEntity
  8
Ｓ_１_１
  6
CONTINUOUS
 62
     3
100
AcDbVertex
100
AcDb2dVertex
 10
260.234879098783
 20
314.1272328456043
 30
0.0
  0
VERTEX
  5
50E
330
50A
100
AcDbEntity
  8
Ｓ_１_１
  6
CONTINUOUS
 62
     3
100
AcDbVertex
100
AcDb2dVertex
 10
258.9490951522691
 20
315.0917030532954
 30
0.0
  0
SEQEND
  5
50F
330
50A
100
AcDbEntity
  8
Ｓ_１_１
  6
CONTINUOUS
 62
     3
  0
LINE
  5
510
330
1F
100
AcDbEntity
  8
Ｓ_１_１
  6
CONTINUOUS
 62
     3
100
AcDbLine
 10
192.2710970506243
 20
315.1393851574651
 30
0.0
 11
190.6964446192774
 21
319.4657071560806
 31
0.0
  0
LINE
  5
511
330
1F
100
AcDbEntity
  8
Ｓ_１_１
  6
CONTINUOUS
 62
     3
100
AcDbLine
 10
188.7446420756544
 20
313.8558605140962
 30
0.0
 11
187.1699896443076
 21
318.1821825127116
 31
0.0
  0
LINE
  5
512
330
1F
100
AcDbEntity
  8
Ｓ_１_１
  6
CONTINUOUS
 62
     3
100
AcDbLine
 10
190.6964446192774
 20
319.4657071560806
 30
0.0
 11
189.3255438520102
 21
319.7074336638441
 31
0.0
  0
ARC
  5
513
330
1F
100
AcDbEntity
  8
Ｓ_１_１
  6
CONTINUOUS
 62
     3
100
AcDbCircle
 10
190.0447824773944
 20
315.7699441471062
 30
0.0
 40
3.752776145935058
100
AcDbArc
 50
80.00000888460634
 51
139.9999911153937
  0
LINE
  5
514
330
1F
100
AcDbEntity
  8
Ｓ_１_１
  6
CONTINUOUS
 62
     3
100
AcDbLine
 10
181.6917321257122
 20
311.2888112273573
 30
0.0
 11
180.117079694365
 21
315.6151332259727
 31
0.0
  0
LINE
  5
515
330
1F
100
AcDbEntity
  8
Ｓ_１_１
  6
CONTINUOUS
 62
     3
100
AcDbLine
 10
178.1652771507422
 20
310.0052865839882
 30
0.0
 11
176.5906247193952
 21
314.3316085826037
 31
0.0
  0
ARC
  5
516
330
1F
100
AcDbEntity
  8
Ｓ_１_１
  6
CONTINUOUS
 62
     3
100
AcDbCircle
 10
179.4654175524822
 20
311.9193702169984
 30
0.0
 40
3.752776145935058
100
AcDbArc
 50
80.00000888460548
 51
139.9999911153926
  0
LINE
  5
517
330
1F
100
AcDbEntity
  8
Ｓ_１_１
  6
CONTINUOUS
 62
     3
100
AcDbLine
 10
176.5906247193952
 20
314.3316085826037
 30
0.0
 11
177.4854168301044
 21
315.3979798579397
 31
0.0
  0
ARC
  5
518
330
1F
100
AcDbEntity
  8
Ｓ_１_１
  6
CONTINUOUS
 62
     3
100
AcDbCircle
 10
186.9847166266884
 20
307.7188358872323
 30
0.0
 40
10.46498680114746
100
AcDbArc
 50
88.98557764221567
 51
131.0144223525549
  0
LINE
  5
519
330
1F
100
AcDbEntity
  8
Ｓ_１_１
  6
CONTINUOUS
 62
     3
100
AcDbLine
 10
189.3255438520102
 20
319.7074336638441
 30
0.0
 11
177.4854168301006
 21
315.3979798579384
 31
0.0
  0
LINE
  5
51A
330
1F
100
AcDbEntity
  8
Ｓ_１_１
  6
CONTINUOUS
 62
     3
100
AcDbLine
 10
178.1652771507427
 20
310.0052865839872
 30
0.0
 11
192.2710970506248
 21
315.1393851574639
 31
0.0
  0
LINE
  5
51B
330
1F
100
AcDbEntity
  8
Ｓ_１_１
  6
EXLTYPE2
 62
     1
100
AcDbLine
 10
188.6383885339417
 20
303.1754096628696
 30
0.0
 11
182.3939686763645
 21
320.3318122191569
 31
0.0
  0
LINE
  5
51C
330
1F
100
AcDbEntity
  8
Ｓ_１_１
  6
CONTINUOUS
 62
     3
100
AcDbLine
 10
159.5021681831854
 20
311.3678895018801
 30
0.0
 11
163.3205448015926
 21
307.5495128834729
 31
0.0
  0
LINE
  5
51D
330
1F
100
AcDbEntity
  8
Ｓ_１_１
  6
CONTINUOUS
 62
     3
100
AcDbLine
 10
158.6536400457614
 20
311.3678895018803
 30
0.0
 11
159.5021681831854
 21
311.3678895018801
 31
0.0
  0
LINE
  5
51E
330
1F
100
AcDbEntity
  8
Ｓ_１_１
  6
CONTINUOUS
 62
     3
100
AcDbLine
 10
152.4311003713199
 20
305.1453498274386
 30
0.0
 11
158.6536400457614
 21
311.3678895018802
 31
0.0
  0
LINE
  5
51F
330
1F
100
AcDbEntity
  8
Ｓ_１_１
  6
EXLTYPE2
 62
     1
100
AcDbLine
 10
170.5419157017013
 20
293.2570741714969
 30
0.0
 11
153.0459415460102
 21
310.7530483271884
 31
0.0
  0
LINE
  5
520
330
1F
100
AcDbEntity
  8
Ｓ_１_１
  6
CONTINUOUS
 62
     3
100
AcDbLine
 10
152.4311003713199
 20
304.2968216900147
 30
0.0
 11
152.4311003713199
 21
305.1453498274386
 31
0.0
  0
LINE
  5
521
330
1F
100
AcDbEntity
  8
Ｓ_１_１
  6
CONTINUOUS
 62
     3
100
AcDbLine
 10
159.5021681831852
 20
311.3678895018803
 30
0.0
 11
152.4311003713199
 21
304.2968216900148
 31
0.0
  0
LINE
  5
522
330
1F
100
AcDbEntity
  8
Ｓ_１_１
  6
CONTINUOUS
 62
     3
100
AcDbLine
 10
152.4311003713199
 20
304.2968216900147
 30
0.0
 11
156.2494769897271
 21
300.4784450716074
 31
0.0
  0
LINE
  5
523
330
1F
100
AcDbEntity
  8
Ｓ_１_１
  6
CONTINUOUS
 62
     3
100
AcDbLine
 10
152.4311003713199
 20
151.7031783099853
 30
0.0
 11
156.2494769897271
 21
155.5215549283926
 31
0.0
  0
LINE
  5
524
330
1F
100
AcDbEntity
  8
Ｓ_１_１
  6
CONTINUOUS
 62
     3
100
AcDbLine
 10
152.4311003713199
 20
150.8546501725614
 30
0.0
 11
152.4311003713199
 21
151.7031783099853
 31
0.0
  0
LINE
  5
525
330
1F
100
AcDbEntity
  8
Ｓ_１_１
  6
CONTINUOUS
 62
     3
100
AcDbLine
 10
158.6536400457614
 20
144.6321104981197
 30
0.0
 11
152.4311003713199
 21
150.8546501725613
 31
0.0
  0
LINE
  5
526
330
1F
100
AcDbEntity
  8
Ｓ_１_１
  6
EXLTYPE2
 62
     1
100
AcDbLine
 10
170.5419157017016
 20
162.7429258285011
 30
0.0
 11
153.0459415460102
 21
145.2469516728096
 31
0.0
  0
LINE
  5
527
330
1F
100
AcDbEntity
  8
Ｓ_１_１
  6
CONTINUOUS
 62
     3
100
AcDbLine
 10
159.5021681831854
 20
144.6321104981198
 30
0.0
 11
158.6536400457614
 21
144.6321104981197
 31
0.0
  0
LINE
  5
528
330
1F
100
AcDbEntity
  8
Ｓ_１_１
  6
CONTINUOUS
 62
     3
100
AcDbLine
 10
159.5021681831854
 20
144.6321104981198
 30
0.0
 11
163.3205448015926
 21
148.4504871165271
 31
0.0
  0
LINE
  5
529
330
1F
100
AcDbEntity
  8
Ｓ_１_１
  6
CONTINUOUS
 62
     3
100
AcDbLine
 10
152.4311003713199
 20
151.7031783099851
 30
0.0
 11
159.5021681831852
 21
144.6321104981196
 31
0.0
  0
ARC
  5
52A
330
1F
100
AcDbEntity
  8
Ｓ_１_１
  6
CONTINUOUS
 62
     3
100
AcDbCircle
 10
216.0000000000007
 20
227.999999999999
 30
0.0
 40
90.0
100
AcDbArc
 50
148.5362027373916
 51
211.4637972626084
  0
ARC
  5
52B
330
1F
100
AcDbEntity
  8
Ｓ_１_１
  6
CONTINUOUS
 62
     3
100
AcDbCircle
 10
216.0000000000007
 20
227.999999999999
 30
0.0
 40
89.0
100
AcDbArc
 50
145.5341649408855
 51
214.4658350591146
  0
LINE
  5
52C
330
1F
100
AcDbEntity
  8
Ｓ_１_１
  6
CONTINUOUS
 62
     3
100
AcDbLine
 10
163.3205448016045
 20
307.5495128834764
 30
0.0
 11
167.5631854887188
 21
303.3068721963621
 31
0.0
  0
LINE
  5
52D
330
1F
100
AcDbEntity
  8
Ｓ_１_１
  6
CONTINUOUS
 62
     3
100
AcDbLine
 10
164.7347583639773
 20
308.9637264458498
 30
0.0
 11
168.9773990510919
 21
304.7210857587352
 31
0.0
  0
LINE
  5
52E
330
1F
100
AcDbEntity
  8
Ｓ_１_１
  6
CONTINUOUS
 62
     3
100
AcDbLine
 10
136.4504871165251
 20
280.6794551983969
 30
0.0
 11
140.6931278036393
 21
276.4368145112827
 31
0.0
  0
LINE
  5
52F
330
1F
100
AcDbEntity
  8
Ｓ_１_１
  6
CONTINUOUS
 62
     3
100
AcDbLine
 10
135.036273554152
 20
279.2652416360238
 30
0.0
 11
139.2789142412662
 21
275.0226009489096
 31
0.0
  0
LINE
  5
530
330
1F
100
AcDbEntity
  8
Ｓ_１_１
  6
CONTINUOUS
 62
     3
100
AcDbLine
 10
135.0362735541519
 20
279.2652416360239
 30
0.0
 11
164.7347583639776
 21
308.9637264458496
 31
0.0
  0
LINE
  5
531
330
1F
100
AcDbEntity
  8
Ｓ_１_１
  6
CONTINUOUS
 62
     3
100
AcDbLine
 10
169.0236257559579
 20
304.7673124635966
 30
0.0
 11
139.232687536403
 21
274.9763742440418
 31
0.0
  0
LINE
  5
532
330
1F
100
AcDbEntity
  8
Ｓ_１_１
  6
CONTINUOUS
 62
     3
100
AcDbLine
 10
151.7710319181269
 20
295.999999999999
 30
0.0
 11
128.7710319181318
 21
295.999999999999
 31
0.0
  0
LINE
  5
533
330
1F
100
AcDbEntity
  8
Ｓ_１_１
  6
EXLTYPE2
 62
     1
100
AcDbLine
 10
149.0032649651619
 20
289.9999999999991
 30
0.0
 11
128.7710319181318
 21
289.9999999999991
 31
0.0
  0
LINE
  5
534
330
1F
100
AcDbEntity
  8
Ｓ_１_１
  6
CONTINUOUS
 62
     3
100
AcDbLine
 10
139.7710319181271
 20
283.999999999999
 30
0.0
 11
128.7710319181318
 21
283.999999999999
 31
0.0
  0
ARC
  5
535
330
1F
100
AcDbEntity
  8
Ｓ_１_１
  6
CONTINUOUS
 62
     3
100
AcDbCircle
 10
128.7710319181318
 20
253.9999999999991
 30
0.0
 40
30.0
100
AcDbArc
 50
89.99999999999996
 51
180.0
  0
ARC
  5
536
330
1F
100
AcDbEntity
  8
Ｓ_１_１
  6
CONTINUOUS
 62
     3
100
AcDbCircle
 10
128.7710319181318
 20
253.9999999999991
 30
0.0
 40
42.0
100
AcDbArc
 50
89.99999999999996
 51
180.0
  0
ARC
  5
537
330
1F
100
AcDbEntity
  8
Ｓ_１_１
  6
EXLTYPE2
 62
     1
100
AcDbCircle
 10
128.7710319181318
 20
253.9999999999991
 30
0.0
 40
36.0
100
AcDbArc
 50
89.99999999999996
 51
180.0
  0
LINE
  5
538
330
1F
100
AcDbEntity
  8
Ｓ_１_１
  6
EXLTYPE2
 62
     1
100
AcDbLine
 10
92.77103191813194
 20
253.9999999999991
 30
0.0
 11
92.77103191813194
 21
200.0000000000011
 31
0.0
  0
LINE
  5
539
330
1F
100
AcDbEntity
  8
Ｓ_１_１
  6
CONTINUOUS
 62
     3
100
AcDbLine
 10
86.77103191813194
 20
253.9999999999991
 30
0.0
 11
86.77103191813194
 21
200.0000000000011
 31
0.0
  0
LINE
  5
53A
330
1F
100
AcDbEntity
  8
Ｓ_１_１
  6
CONTINUOUS
 62
     3
100
AcDbLine
 10
98.77103191813194
 20
253.9999999999991
 30
0.0
 11
98.77103191813194
 21
202.0000000000013
 31
0.0
  0
ARC
  5
53B
330
1F
100
AcDbEntity
  8
Ｓ_１_１
  6
CONTINUOUS
 62
     3
100
AcDbCircle
 10
128.7710319181318
 20
202.0000000000013
 30
0.0
 40
42.0
100
AcDbArc
 50
179.9999999999999
 51
270.0
  0
ARC
  5
53C
330
1F
100
AcDbEntity
  8
Ｓ_１_１
  6
EXLTYPE2
 62
     1
100
AcDbCircle
 10
128.7710319181318
 20
202.0000000000013
 30
0.0
 40
36.0
100
AcDbArc
 50
180.0
 51
270.0
  0
ARC
  5
53D
330
1F
100
AcDbEntity
  8
Ｓ_１_１
  6
CONTINUOUS
 62
     3
100
AcDbCircle
 10
128.7710319181318
 20
202.0000000000013
 30
0.0
 40
30.0
100
AcDbArc
 50
180.0
 51
270.0
  0
LINE
  5
53E
330
1F
100
AcDbEntity
  8
Ｓ_１_１
  6
CONTINUOUS
 62
     3
100
AcDbLine
 10
151.7710319181269
 20
160.0000000000014
 30
0.0
 11
128.7710319181318
 21
160.0000000000014
 31
0.0
  0
LINE
  5
53F
330
1F
100
AcDbEntity
  8
Ｓ_１_１
  6
EXLTYPE2
 62
     1
100
AcDbLine
 10
149.0032649651619
 20
166.0000000000013
 30
0.0
 11
128.7710319181318
 21
166.0000000000013
 31
0.0
  0
LINE
  5
540
330
1F
100
AcDbEntity
  8
Ｓ_１_１
  6
CONTINUOUS
 62
     3
100
AcDbLine
 10
139.7710319181271
 20
172.0000000000014
 30
0.0
 11
128.7710319181318
 21
172.0000000000014
 31
0.0
  0
LINE
  5
541
330
1F
100
AcDbEntity
  8
Ｓ_１_１
  6
CONTINUOUS
 62
     3
100
AcDbLine
 10
135.0362735541521
 20
176.7347583639743
 30
0.0
 11
139.2789142412662
 21
180.9773990510885
 31
0.0
  0
LINE
  5
542
330
1F
100
AcDbEntity
  8
Ｓ_１_１
  6
CONTINUOUS
 62
     3
100
AcDbLine
 10
136.4504871165252
 20
175.3205448016012
 30
0.0
 11
140.6931278036393
 21
179.5631854887154
 31
0.0
  0
LINE
  5
543
330
1F
100
AcDbEntity
  8
Ｓ_１_１
  6
CONTINUOUS
 62
     3
100
AcDbLine
 10
163.3205448016045
 20
148.4504871165216
 30
0.0
 11
167.563185488719
 21
152.693127803636
 31
0.0
  0
LINE
  5
544
330
1F
100
AcDbEntity
  8
Ｓ_１_１
  6
CONTINUOUS
 62
     3
100
AcDbLine
 10
164.7347583639773
 20
147.0362735541482
 30
0.0
 11
168.9773990510919
 21
151.2789142412629
 31
0.0
  0
LINE
  5
545
330
1F
100
AcDbEntity
  8
Ｓ_１_１
  6
CONTINUOUS
 62
     3
100
AcDbLine
 10
169.0236257559579
 20
151.2326875364013
 30
0.0
 11
139.232687536403
 21
181.0236257559562
 31
0.0
  0
LINE
  5
546
330
1F
100
AcDbEntity
  8
Ｓ_１_１
  6
CONTINUOUS
 62
     3
100
AcDbLine
 10
135.0362735541531
 20
176.7347583639753
 30
0.0
 11
164.7347583639787
 21
147.0362735541497
 31
0.0
  0
LINE
  5
547
330
1F
100
AcDbEntity
  8
Ｓ_１_１
  6
CONTINUOUS
 62
     3
100
AcDbLine
 10
280.2289680818747
 20
295.999999999999
 30
0.0
 11
303.2289680818697
 21
295.999999999999
 31
0.0
  0
LINE
  5
548
330
1F
100
AcDbEntity
  8
Ｓ_１_１
  6
EXLTYPE2
 62
     1
100
AcDbLine
 10
282.9967350348395
 20
289.9999999999991
 30
0.0
 11
303.2289680818697
 21
289.9999999999991
 31
0.0
  0
LINE
  5
549
330
1F
100
AcDbEntity
  8
Ｓ_１_１
  6
CONTINUOUS
 62
     3
100
AcDbLine
 10
292.2289680818744
 20
283.999999999999
 30
0.0
 11
303.2289680818697
 21
283.999999999999
 31
0.0
  0
ARC
  5
54A
330
1F
100
AcDbEntity
  8
Ｓ_１_１
  6
CONTINUOUS
 62
     3
100
AcDbCircle
 10
303.2289680818697
 20
253.9999999999991
 30
0.0
 40
30.0
100
AcDbArc
 50
0.0
 51
90.00000000000014
  0
ARC
  5
54B
330
1F
100
AcDbEntity
  8
Ｓ_１_１
  6
CONTINUOUS
 62
     3
100
AcDbCircle
 10
303.2289680818697
 20
253.9999999999991
 30
0.0
 40
42.0
100
AcDbArc
 50
0.0
 51
90.00000000000009
  0
ARC
  5
54C
330
1F
100
AcDbEntity
  8
Ｓ_１_１
  6
EXLTYPE2
 62
     1
100
AcDbCircle
 10
303.2289680818697
 20
253.9999999999991
 30
0.0
 40
36.0
100
AcDbArc
 50
0.0
 51
90.00000000000009
  0
LINE
  5
54D
330
1F
100
AcDbEntity
  8
Ｓ_１_１
  6
CONTINUOUS
 62
     3
100
AcDbLine
 10
295.5495128834764
 20
280.6794551983969
 30
0.0
 11
291.3068721963621
 21
276.4368145112827
 31
0.0
  0
LINE
  5
54E
330
1F
100
AcDbEntity
  8
Ｓ_１_１
  6
CONTINUOUS
 62
     3
100
AcDbLine
 10
296.9637264458495
 20
279.2652416360238
 30
0.0
 11
292.7210857587354
 21
275.0226009489096
 31
0.0
  0
LINE
  5
54F
330
1F
100
AcDbEntity
  8
Ｓ_１_１
  6
CONTINUOUS
 62
     3
100
AcDbLine
 10
272.4978318168162
 20
311.3678895018801
 30
0.0
 11
268.6794551984087
 21
307.5495128834729
 31
0.0
  0
LINE
  5
550
330
1F
100
AcDbEntity
  8
Ｓ_１_１
  6
CONTINUOUS
 62
     3
100
AcDbLine
 10
273.3463599542399
 20
311.3678895018803
 30
0.0
 11
272.4978318168162
 21
311.3678895018801
 31
0.0
  0
LINE
  5
551
330
1F
100
AcDbEntity
  8
Ｓ_１_１
  6
CONTINUOUS
 62
     3
100
AcDbLine
 10
279.5688996286815
 20
305.1453498274386
 30
0.0
 11
273.3463599542399
 21
311.3678895018802
 31
0.0
  0
LINE
  5
552
330
1F
100
AcDbEntity
  8
Ｓ_１_１
  6
EXLTYPE2
 62
     1
100
AcDbLine
 10
261.4580842983
 20
293.2570741714969
 30
0.0
 11
278.9540584539914
 21
310.7530483271884
 31
0.0
  0
LINE
  5
553
330
1F
100
AcDbEntity
  8
Ｓ_１_１
  6
CONTINUOUS
 62
     3
100
AcDbLine
 10
279.5688996286815
 20
304.2968216900147
 30
0.0
 11
279.5688996286815
 21
305.1453498274386
 31
0.0
  0
LINE
  5
554
330
1F
100
AcDbEntity
  8
Ｓ_１_１
  6
CONTINUOUS
 62
     3
100
AcDbLine
 10
272.4978318168162
 20
311.3678895018803
 30
0.0
 11
279.5688996286817
 21
304.2968216900148
 31
0.0
  0
LINE
  5
555
330
1F
100
AcDbEntity
  8
Ｓ_１_１
  6
CONTINUOUS
 62
     3
100
AcDbLine
 10
279.5688996286815
 20
304.2968216900147
 30
0.0
 11
275.7505230102743
 21
300.4784450716073
 31
0.0
  0
LINE
  5
556
330
1F
100
AcDbEntity
  8
Ｓ_１_１
  6
CONTINUOUS
 62
     3
100
AcDbLine
 10
268.6794551983969
 20
307.5495128834764
 30
0.0
 11
264.4368145112826
 21
303.3068721963621
 31
0.0
  0
LINE
  5
557
330
1F
100
AcDbEntity
  8
Ｓ_１_１
  6
CONTINUOUS
 62
     3
100
AcDbLine
 10
267.2652416360243
 20
308.9637264458498
 30
0.0
 11
263.0226009489095
 21
304.7210857587352
 31
0.0
  0
LINE
  5
558
330
1F
100
AcDbEntity
  8
Ｓ_１_１
  6
CONTINUOUS
 62
     3
100
AcDbLine
 10
296.9637264458495
 20
279.2652416360238
 30
0.0
 11
267.2652416360238
 21
308.9637264458496
 31
0.0
  0
LINE
  5
559
330
1F
100
AcDbEntity
  8
Ｓ_１_１
  6
CONTINUOUS
 62
     3
100
AcDbLine
 10
262.9763742440434
 20
304.7673124635966
 30
0.0
 11
292.7673124635985
 21
274.9763742440417
 31
0.0
  0
LINE
  5
55A
330
1F
100
AcDbEntity
  8
Ｓ_１_１
  6
EXLTYPE2
 62
     1
100
AcDbLine
 10
339.2289680818697
 20
253.9999999999991
 30
0.0
 11
339.2289680818697
 21
200.0000000000011
 31
0.0
  0
LINE
  5
55B
330
1F
100
AcDbEntity
  8
Ｓ_１_１
  6
CONTINUOUS
 62
     3
100
AcDbLine
 10
345.2289680818697
 20
253.9999999999991
 30
0.0
 11
345.2289680818697
 21
200.0000000000011
 31
0.0
  0
LINE
  5
55C
330
1F
100
AcDbEntity
  8
Ｓ_１_１
  6
CONTINUOUS
 62
     3
100
AcDbLine
 10
333.2289680818697
 20
253.9999999999991
 30
0.0
 11
333.2289680818697
 21
202.0000000000013
 31
0.0
  0
ARC
  5
55D
330
1F
100
AcDbEntity
  8
Ｓ_１_１
  6
CONTINUOUS
 62
     3
100
AcDbCircle
 10
303.2289680818697
 20
202.0000000000013
 30
0.0
 40
42.0
100
AcDbArc
 50
269.9999999999999
 51
0.0000000000001719
  0
ARC
  5
55E
330
1F
100
AcDbEntity
  8
Ｓ_１_１
  6
EXLTYPE2
 62
     1
100
AcDbCircle
 10
303.2289680818697
 20
202.0000000000013
 30
0.0
 40
36.0
100
AcDbArc
 50
269.9999999999999
 51
0.0
  0
ARC
  5
55F
330
1F
100
AcDbEntity
  8
Ｓ_１_１
  6
CONTINUOUS
 62
     3
100
AcDbCircle
 10
303.2289680818697
 20
202.0000000000013
 30
0.0
 40
30.0
100
AcDbArc
 50
269.9999999999999
 51
0.0
  0
LINE
  5
560
330
1F
100
AcDbEntity
  8
Ｓ_１_１
  6
CONTINUOUS
 62
     3
100
AcDbLine
 10
279.5688996286815
 20
151.7031783099853
 30
0.0
 11
275.7505230102743
 21
155.5215549283926
 31
0.0
  0
LINE
  5
561
330
1F
100
AcDbEntity
  8
Ｓ_１_１
  6
CONTINUOUS
 62
     3
100
AcDbLine
 10
279.5688996286815
 20
150.8546501725614
 30
0.0
 11
279.5688996286815
 21
151.7031783099853
 31
0.0
  0
LINE
  5
562
330
1F
100
AcDbEntity
  8
Ｓ_１_１
  6
CONTINUOUS
 62
     3
100
AcDbLine
 10
273.3463599542399
 20
144.6321104981197
 30
0.0
 11
279.5688996286815
 21
150.8546501725613
 31
0.0
  0
LINE
  5
563
330
1F
100
AcDbEntity
  8
Ｓ_１_１
  6
EXLTYPE2
 62
     1
100
AcDbLine
 10
261.4580842982998
 20
162.7429258285011
 30
0.0
 11
278.9540584539911
 21
145.2469516728096
 31
0.0
  0
LINE
  5
564
330
1F
100
AcDbEntity
  8
Ｓ_１_１
  6
CONTINUOUS
 62
     3
100
AcDbLine
 10
272.497831816816
 20
144.6321104981198
 30
0.0
 11
273.3463599542399
 21
144.6321104981197
 31
0.0
  0
LINE
  5
565
330
1F
100
AcDbEntity
  8
Ｓ_１_１
  6
CONTINUOUS
 62
     3
100
AcDbLine
 10
272.497831816816
 20
144.6321104981198
 30
0.0
 11
268.6794551984087
 21
148.4504871165271
 31
0.0
  0
LINE
  5
566
330
1F
100
AcDbEntity
  8
Ｓ_１_１
  6
CONTINUOUS
 62
     3
100
AcDbLine
 10
279.5688996286817
 20
151.7031783099851
 30
0.0
 11
272.4978318168162
 21
144.6321104981196
 31
0.0
  0
LINE
  5
567
330
1F
100
AcDbEntity
  8
Ｓ_１_１
  6
CONTINUOUS
 62
     3
100
AcDbLine
 10
280.2289680818744
 20
160.0000000000014
 30
0.0
 11
303.2289680818697
 21
160.0000000000014
 31
0.0
  0
LINE
  5
568
330
1F
100
AcDbEntity
  8
Ｓ_１_１
  6
EXLTYPE2
 62
     1
100
AcDbLine
 10
282.9967350348395
 20
166.0000000000013
 30
0.0
 11
303.2289680818697
 21
166.0000000000013
 31
0.0
  0
LINE
  5
569
330
1F
100
AcDbEntity
  8
Ｓ_１_１
  6
CONTINUOUS
 62
     3
100
AcDbLine
 10
292.2289680818744
 20
172.0000000000014
 30
0.0
 11
303.2289680818697
 21
172.0000000000014
 31
0.0
  0
LINE
  5
56A
330
1F
100
AcDbEntity
  8
Ｓ_１_１
  6
CONTINUOUS
 62
     3
100
AcDbLine
 10
296.9637264458495
 20
176.7347583639743
 30
0.0
 11
292.7210857587352
 21
180.9773990510885
 31
0.0
  0
LINE
  5
56B
330
1F
100
AcDbEntity
  8
Ｓ_１_１
  6
CONTINUOUS
 62
     3
100
AcDbLine
 10
295.5495128834762
 20
175.3205448016012
 30
0.0
 11
291.3068721963621
 21
179.5631854887154
 31
0.0
  0
LINE
  5
56C
330
1F
100
AcDbEntity
  8
Ｓ_１_１
  6
CONTINUOUS
 62
     3
100
AcDbLine
 10
268.6794551983969
 20
148.4504871165216
 30
0.0
 11
264.4368145112824
 21
152.693127803636
 31
0.0
  0
LINE
  5
56D
330
1F
100
AcDbEntity
  8
Ｓ_１_１
  6
CONTINUOUS
 62
     3
100
AcDbLine
 10
267.265241636024
 20
147.0362735541482
 30
0.0
 11
263.0226009489095
 21
151.2789142412629
 31
0.0
  0
LINE
  5
56E
330
1F
100
AcDbEntity
  8
Ｓ_１_１
  6
CONTINUOUS
 62
     3
100
AcDbLine
 10
262.9763742440434
 20
151.2326875364013
 30
0.0
 11
292.7673124635983
 21
181.0236257559562
 31
0.0
  0
LINE
  5
56F
330
1F
100
AcDbEntity
  8
Ｓ_１_１
  6
CONTINUOUS
 62
     3
100
AcDbLine
 10
296.9637264458481
 20
176.7347583639753
 30
0.0
 11
267.2652416360227
 21
147.0362735541497
 31
0.0
  0
ARC
  5
570
330
1F
100
AcDbEntity
  8
Ｓ_１_１
  6
CONTINUOUS
 62
     3
100
AcDbCircle
 10
216.0000000000007
 20
227.999999999999
 30
0.0
 40
90.0
100
AcDbArc
 50
58.53620273739131
 51
121.4637972626085
  0
ARC
  5
571
330
1F
100
AcDbEntity
  8
Ｓ_１_１
  6
CONTINUOUS
 62
     3
100
AcDbCircle
 10
216.0000000000007
 20
227.999999999999
 30
0.0
 40
89.0
100
AcDbArc
 50
55.5341649408851
 51
124.4658350591147
  0
ARC
  5
572
330
1F
100
AcDbEntity
  8
Ｓ_１_１
  6
CONTINUOUS
 62
     3
100
AcDbCircle
 10
216.0000000000007
 20
227.999999999999
 30
0.0
 40
89.0
100
AcDbArc
 50
325.5341649408854
 51
34.46583505911499
  0
ARC
  5
573
330
1F
100
AcDbEntity
  8
Ｓ_１_１
  6
CONTINUOUS
 62
     3
100
AcDbCircle
 10
216.0000000000007
 20
227.999999999999
 30
0.0
 40
90.0
100
AcDbArc
 50
328.5362027373916
 51
31.46379726260877
  0
ARC
  5
574
330
1F
100
AcDbEntity
  8
Ｓ_１_１
  6
CONTINUOUS
 62
     3
100
AcDbCircle
 10
216.0000000000007
 20
227.999999999999
 30
0.0
 40
89.0
100
AcDbArc
 50
235.5341649408854
 51
304.4658350591146
  0
ARC
  5
575
330
1F
100
AcDbEntity
  8
Ｓ_１_１
  6
CONTINUOUS
 62
     3
100
AcDbCircle
 10
216.0000000000007
 20
227.999999999999
 30
0.0
 40
90.0
100
AcDbArc
 50
238.5362027373915
 51
301.4637972626084
  0
CIRCLE
  5
576
330
1F
100
AcDbEntity
  8
Ｓ_１_１
  6
CONTINUOUS
 62
     3
100
AcDbCircle
 10
216.0
 20
300.5
 30
0.0
 40
3.375
  0
CIRCLE
  5
577
330
1F
100
AcDbEntity
  8
Ｓ_１_１
  6
CONTINUOUS
 62
     3
100
AcDbCircle
 10
216.0
 20
300.5
 30
0.0
 40
4.0
  0
CIRCLE
  5
578
330
1F
100
AcDbEntity
  8
Ｓ_１_１
  6
CONTINUOUS
 62
     3
100
AcDbCircle
 10
164.7347583639801
 20
279.26524163602
 30
0.0
 40
3.375
  0
CIRCLE
  5
579
330
1F
100
AcDbEntity
  8
Ｓ_１_１
  6
CONTINUOUS
 62
     3
100
AcDbCircle
 10
164.7347583639801
 20
279.26524163602
 30
0.0
 40
4.0
  0
CIRCLE
  5
57A
330
1F
100
AcDbEntity
  8
Ｓ_１_１
  6
CONTINUOUS
 62
     3
100
AcDbCircle
 10
143.5
 20
228.0
 30
0.0
 40
3.375
  0
CIRCLE
  5
57B
330
1F
100
AcDbEntity
  8
Ｓ_１_１
  6
CONTINUOUS
 62
     3
100
AcDbCircle
 10
143.5
 20
228.0
 30
0.0
 40
4.0
  0
CIRCLE
  5
57C
330
1F
100
AcDbEntity
  8
Ｓ_１_１
  6
CONTINUOUS
 62
     3
100
AcDbCircle
 10
164.7347583639801
 20
176.7347583639699
 30
0.0
 40
3.375
  0
CIRCLE
  5
57D
330
1F
100
AcDbEntity
  8
Ｓ_１_１
  6
CONTINUOUS
 62
     3
100
AcDbCircle
 10
164.7347583639801
 20
176.7347583639699
 30
0.0
 40
4.0
  0
CIRCLE
  5
57E
330
1F
100
AcDbEntity
  8
Ｓ_１_１
  6
CONTINUOUS
 62
     3
100
AcDbCircle
 10
216.0
 20
155.5
 30
0.0
 40
3.375
  0
CIRCLE
  5
57F
330
1F
100
AcDbEntity
  8
Ｓ_１_１
  6
CONTINUOUS
 62
     3
100
AcDbCircle
 10
216.0
 20
155.5
 30
0.0
 40
4.0
  0
CIRCLE
  5
580
330
1F
100
AcDbEntity
  8
Ｓ_１_１
  6
CONTINUOUS
 62
     3
100
AcDbCircle
 10
267.2652416360299
 20
176.7347583639699
 30
0.0
 40
3.375
  0
CIRCLE
  5
581
330
1F
100
AcDbEntity
  8
Ｓ_１_１
  6
CONTINUOUS
 62
     3
100
AcDbCircle
 10
267.2652416360299
 20
176.7347583639699
 30
0.0
 40
4.0
  0
CIRCLE
  5
582
330
1F
100
AcDbEntity
  8
Ｓ_１_１
  6
CONTINUOUS
 62
     3
100
AcDbCircle
 10
288.5
 20
228.0
 30
0.0
 40
3.375
  0
CIRCLE
  5
583
330
1F
100
AcDbEntity
  8
Ｓ_１_１
  6
CONTINUOUS
 62
     3
100
AcDbCircle
 10
288.5
 20
228.0
 30
0.0
 40
4.0
  0
CIRCLE
  5
584
330
1F
100
AcDbEntity
  8
Ｓ_１_１
  6
CONTINUOUS
 62
     3
100
AcDbCircle
 10
267.2652416360299
 20
279.26524163602
 30
0.0
 40
3.375
  0
CIRCLE
  5
585
330
1F
100
AcDbEntity
  8
Ｓ_１_１
  6
CONTINUOUS
 62
     3
100
AcDbCircle
 10
267.2652416360299
 20
279.26524163602
 30
0.0
 40
4.0
  0
LINE
  5
586
330
1F
100
AcDbEntity
  8
Ｓ_１_１
  6
EXLTYPE2
 62
     1
100
AcDbLine
 10
168.9773990510994
 20
275.0226009489008
 30
0.0
 11
160.4921176768607
 21
283.5078823231393
 31
0.0
  0
LINE
  5
587
330
1F
100
AcDbEntity
  8
Ｓ_１_１
  6
EXLTYPE2
 62
     1
100
AcDbLine
 10
263.0226009489022
 20
275.0226009489008
 30
0.0
 11
271.5078823231406
 21
283.5078823231393
 31
0.0
  0
LINE
  5
588
330
1F
100
AcDbEntity
  8
Ｓ_１_１
  6
EXLTYPE2
 62
     1
100
AcDbLine
 10
168.9773990510994
 20
180.9773990510973
 30
0.0
 11
160.492117676861
 21
172.4921176768588
 31
0.0
  0
LINE
  5
589
330
1F
100
AcDbEntity
  8
Ｓ_１_１
  6
EXLTYPE2
 62
     1
100
AcDbLine
 10
263.0226009489022
 20
180.9773990510974
 30
0.0
 11
271.5078823231408
 21
172.4921176768589
 31
0.0
  0
LINE
  5
58A
330
1F
100
AcDbEntity
  8
Ｓ_１_１
  6
EXLTYPE2
 62
     1
100
AcDbLine
 10
72.0
 20
228.0
 30
0.0
 11
360.0
 21
228.0000000000001
 31
0.0
  0
LINE
  5
58B
330
1F
100
AcDbEntity
  8
Ｓ_１_１
  6
EXLTYPE2
 62
     1
100
AcDbLine
 10
216.0
 20
423.8
 30
0.0
 11
216.0
 21
132.0
 31
0.0
  0
LINE
  5
58C
330
1F
100
AcDbEntity
  8
Ｓ_１_１
  6
EXLTYPE2
 62
     1
100
AcDbLine
 10
499.0000000000001
 20
409.4000000000001
 30
0.0
 11
499.0000000000001
 21
302.96
 31
0.0
  0
ENDSEC
  0
SECTION
  2
OBJECTS
  0
DICTIONARY
  5
C
330
0
100
AcDbDictionary
  3
ACAD_GROUP
350
D
  3
ACAD_LAYOUT
350
1A
  3
ACAD_MATERIAL
350
43
  3
ACAD_MLEADERSTYLE
350
6B
  3
ACAD_MLINESTYLE
350
17
  3
ACAD_PLOTSETTINGS
350
19
  3
ACAD_SCALELIST
350
47
  3
ACAD_VISUALSTYLE
350
2A
  3
ACDBHEADERROUNDTRIPXREC
350
58D
  3
ACDBVARIABLEDICTIONARY
350
5AE
  0
DICTIONARY
  5
5B9
330
8
100
AcDbDictionary
280
     1
  3
ACAD_XREC_ROUNDTRIP
360
5BA
  0
DICTIONARY
  5
D
102
{ACAD_REACTORS
330
C
102
}
330
C
100
AcDbDictionary
  0
DICTIONARY
  5
1A
102
{ACAD_REACTORS
330
C
102
}
330
C
100
AcDbDictionary
  0
DICTIONARY
  5
43
102
{ACAD_REACTORS
330
C
102
}
330
C
100
AcDbDictionary
  3
BYBLOCK
350
45
  3
BYLAYER
350
44
  3
GLOBAL
350
46
  0
DICTIONARY
  5
6B
102
{ACAD_REACTORS
330
C
102
}
330
C
100
AcDbDictionary
  3
STANDARD
350
6C
  0
DICTIONARY
  5
17
102
{ACAD_REACTORS
330
C
102
}
330
C
100
AcDbDictionary
  3
STANDARD
350
18
  0
DICTIONARY
  5
19
102
{ACAD_REACTORS
330
C
102
}
330
C
100
AcDbDictionary
  0
DICTIONARY
  5
47
102
{ACAD_REACTORS
330
C
102
}
330
C
100
AcDbDictionary
  3
A0
350
48
  3
A1
350
49
  3
A2
350
4A
  3
A3
350
4B
  3
A4
350
4C
  3
A5
350
4D
  3
A6
350
4E
  3
A7
350
4F
  3
A8
350
50
  3
A9
350
51
  3
B0
350
52
  3
B1
350
53
  3
B2
350
54
  3
B3
350
55
  3
B4
350
56
  3
B5
350
57
  3
B6
350
58
  3
B7
350
59
  3
B8
350
5A
  3
B9
350
5B
  3
C0
350
5C
  3
C1
350
5D
  3
C2
350
5E
  3
C3
350
5F
  3
C4
350
60
  3
C5
350
61
  3
C6
350
62
  3
C7
350
63
  3
C8
350
64
  3
C9
350
65
  3
D0
350
66
  3
D1
350
67
  3
D2
350
68
  0
DICTIONARY
  5
2A
102
{ACAD_REACTORS
330
C
102
}
330
C
100
AcDbDictionary
  3
2DWIREFRAME
350
2F
  3
BASIC
350
32
  3
BRIGHTEN
350
36
  3
COLORCHANGE
350
3A
  3
CONCEPTUAL
350
34
  3
DIM
350
35
  3
EDGECOLOROFF
350
3D
  3
FACEPATTERN
350
39
  3
FLAT
350
2B
  3
FLATWITHEDGES
350
2C
  3
GOURAUD
350
2D
  3
GOURAUDWITHEDGES
350
2E
  3
HIDDEN
350
31
  3
JITTEROFF
350
3B
  3
LINEPATTERN
350
38
  3
OVERHANGOFF
350
3C
  3
REALISTIC
350
33
  3
SHADED
350
42
  3
SHADED_WITH_EDGES
350
41
  3
SHADES_OF_GRAY
350
3E
  3
SKETCHY
350
3F
  3
THICKEN
350
37
  3
WIREFRAME
350
30
  3
X-RAY
350
40
  0
DICTIONARY
  5
58D
102
{ACAD_REACTORS
330
C
102
}
330
C
100
AcDbDictionary
  3
CEPSNID
350
597
  3
CEPSNTYPE
350
596
  3
DIMSTYLEDATA
350
5AD
  3
FINGERPRINTGUID
350
598
  3
HYPERLINKBASE
350
590
  3
INSUNITS
350
595
  3
LAYOUTDICT
350
592
  3
LWETCUNION
350
594
  3
PLOTSETDICT
350
593
  3
PSVPSCALE
350
59A
  3
PUCSBASE
350
59D
  3
PUCSORGBACK
350
5A3
  3
PUCSORGBOTTOM
350
59F
  3
PUCSORGFRONT
350
5A2
  3
PUCSORGLEFT
350
5A0
  3
PUCSORGRIGHT
350
5A1
  3
PUCSORGTOP
350
59E
  3
PUCSORTHOREF
350
59B
  3
PUCSORTHOVIEW
350
59C
  3
STYLESHEET
350
591
  3
TSTACKALIGN
350
58E
  3
TSTACKSIZE
350
58F
  3
UCSBASE
350
5A6
  3
UCSORGBACK
350
5AC
  3
UCSORGBOTTOM
350
5A8
  3
UCSORGFRONT
350
5AB
  3
UCSORGLEFT
350
5A9
  3
UCSORGRIGHT
350
5AA
  3
UCSORGTOP
350
5A7
  3
UCSORTHOREF
350
5A4
  3
UCSORTHOVIEW
350
5A5
  3
VERSIONGUID
350
599
  0
DICTIONARY
  5
5AE
102
{ACAD_REACTORS
330
C
102
}
330
C
100
AcDbDictionary
  3
CANNOSCALE
350
5BB
  3
CENTEREXE
350
5B5
  3
CENTERLTYPEFILE
350
5B6
  3
CMLEADERSTYLE
350
5B0
  3
CTABLESTYLE
350
5AF
  3
DIMASSOC
350
5B7
  3
HIDETEXT
350
5B8
  3
MSLTSCALE
350
5BC
  3
PSOLHEIGHT
350
5B2
  3
PSOLWIDTH
350
5B1
  0
XRECORD
  5
5BA
102
{ACAD_REACTORS
330
5B9
102
}
330
5B9
100
AcDbXrecord
102
VTR_0.000_0.000_1.000_1.000_VISUALSTYLE
340
2F
102
VTR_0.000_0.000_1.000_1.000_GRIDDISPLAY
 70
     3
102
VTR_0.000_0.000_1.000_1.000_GRIDMAJOR
 70
     5
102
VTR_0.000_0.000_1.000_1.000_DEFAULTLIGHTING
280
     1
102
VTR_0.000_0.000_1.000_1.000_DEFAULTLIGHTINGTYPE
 70
     1
102
VTR_0.000_0.000_1.000_1.000_BRIGHTNESS
141
0.0
102
VTR_0.000_0.000_1.000_1.000_CONTRAST
142
0.0
  0
MATERIAL
  5
45
102
{ACAD_REACTORS
330
43
102
}
102
{ACAD_XDICTIONARY
360
5BF
102
}
330
43
100
AcDbMaterial
  1
BYBLOCK
  0
MATERIAL
  5
44
102
{ACAD_REACTORS
330
43
102
}
102
{ACAD_XDICTIONARY
360
5BD
102
}
330
43
100
AcDbMaterial
  1
BYLAYER
  0
MATERIAL
  5
46
102
{ACAD_REACTORS
330
43
102
}
102
{ACAD_XDICTIONARY
360
5C1
102
}
330
43
100
AcDbMaterial
  1
GLOBAL
  0
ACAD_PROXY_OBJECT
  5
6C
102
{ACAD_REACTORS
330
6B
102
}
330
6B
100
AcDbProxyObject
 90
      499
 91
      505
 93
      610
310
40901902A4063FBFFFFFE0000000000000020400000000000020404214DD185B99185C990000000000000104090141901A00000000000004100000000000000041025764000000000000039000
340
14
340
0
340
11
340
0
 94
        0
1001
ACAD_MLEADERVER
1070
     2
  0
MLINESTYLE
  5
18
102
{ACAD_REACTORS
330
17
102
}
330
17
100
AcDbMlineStyle
  2
Standard
 70
     0
  3

 62
   256
 51
90.0
 52
90.0
 71
     2
 49
0.5
 62
   256
  6
BYLAYER
 49
-0.5
 62
   256
  6
BYLAYER
  0
ACAD_PROXY_OBJECT
  5
48
102
{ACAD_REACTORS
330
47
102
}
330
47
100
AcDbProxyObject
 90
      499
 91
      503
 93
       41
310
903313A31580
  0
ACAD_PROXY_OBJECT
  5
49
102
{ACAD_REACTORS
330
47
102
}
330
47
100
AcDbProxyObject
 90
      499
 91
      503
 93
      105
310
903313A324000000000000004000
  0
ACAD_PROXY_OBJECT
  5
4A
102
{ACAD_REACTORS
330
47
102
}
330
47
100
AcDbProxyObject
 90
      499
 91
      503
 93
      105
310
903313A344000000000000104000
  0
ACAD_PROXY_OBJECT
  5
4B
102
{ACAD_REACTORS
330
47
102
}
330
47
100
AcDbProxyObject
 90
      499
 91
      503
 93
      105
310
903313A354000000000000144000
  0
ACAD_PROXY_OBJECT
  5
4C
102
{ACAD_REACTORS
330
47
102
}
330
47
100
AcDbProxyObject
 90
      499
 91
      503
 93
      105
310
903313A384000000000000204000
  0
ACAD_PROXY_OBJECT
  5
4D
102
{ACAD_REACTORS
330
47
102
}
330
47
100
AcDbProxyObject
 90
      499
 91
      503
 93
      113
310
904313A31304000000000000244000
  0
ACAD_PROXY_OBJECT
  5
4E
102
{ACAD_REACTORS
330
47
102
}
330
47
100
AcDbProxyObject
 90
      499
 91
      503
 93
      113
310
904313A31364000000000000304000
  0
ACAD_PROXY_OBJECT
  5
4F
102
{ACAD_REACTORS
330
47
102
}
330
47
100
AcDbProxyObject
 90
      499
 91
      503
 93
      113
310
904313A32304000000000000344000
  0
ACAD_PROXY_OBJECT
  5
50
102
{ACAD_REACTORS
330
47
102
}
330
47
100
AcDbProxyObject
 90
      499
 91
      503
 93
      113
310
904313A333040000000000003E4000
  0
ACAD_PROXY_OBJECT
  5
51
102
{ACAD_REACTORS
330
47
102
}
330
47
100
AcDbProxyObject
 90
      499
 91
      503
 93
      113
310
904313A34304000000000000444000
  0
ACAD_PROXY_OBJECT
  5
52
102
{ACAD_REACTORS
330
47
102
}
330
47
100
AcDbProxyObject
 90
      499
 91
      503
 93
      113
310
904313A35304000000000000494000
  0
ACAD_PROXY_OBJECT
  5
53
102
{ACAD_REACTORS
330
47
102
}
330
47
100
AcDbProxyObject
 90
      499
 91
      503
 93
      121
310
905313A3130304000000000000594000
  0
ACAD_PROXY_OBJECT
  5
54
102
{ACAD_REACTORS
330
47
102
}
330
47
100
AcDbProxyObject
 90
      499
 91
      503
 93
      105
310
903323A310000000000000010100
  0
ACAD_PROXY_OBJECT
  5
55
102
{ACAD_REACTORS
330
47
102
}
330
47
100
AcDbProxyObject
 90
      499
 91
      503
 93
      105
310
903343A310000000000000410100
  0
ACAD_PROXY_OBJECT
  5
56
102
{ACAD_REACTORS
330
47
102
}
330
47
100
AcDbProxyObject
 90
      499
 91
      503
 93
      105
310
903383A310000000000000810100
  0
ACAD_PROXY_OBJECT
  5
57
102
{ACAD_REACTORS
330
47
102
}
330
47
100
AcDbProxyObject
 90
      499
 91
      503
 93
      113
310
90431303A310000000000000910100
  0
ACAD_PROXY_OBJECT
  5
58
102
{ACAD_REACTORS
330
47
102
}
330
47
100
AcDbProxyObject
 90
      499
 91
      503
 93
      121
310
9053130303A310000000000001650100
  0
ACAD_PROXY_OBJECT
  5
59
102
{ACAD_REACTORS
330
47
102
}
330
47
100
AcDbProxyObject
 90
      499
 91
      503
 93
      257
310
90E312F31323822203D2031272D3022000000000000200FC000000000000284000
  0
ACAD_PROXY_OBJECT
  5
5A
102
{ACAD_REACTORS
330
47
102
}
330
47
100
AcDbProxyObject
 90
      499
 91
      503
 93
      249
310
90D312F363422203D2031272D3022000000000000240FC000000000000284000
  0
ACAD_PROXY_OBJECT
  5
5B
102
{ACAD_REACTORS
330
47
102
}
330
47
100
AcDbProxyObject
 90
      499
 91
      503
 93
      249
310
90D312F333222203D2031272D3022000000000000280FC000000000000284000
  0
ACAD_PROXY_OBJECT
  5
5C
102
{ACAD_REACTORS
330
47
102
}
330
47
100
AcDbProxyObject
 90
      499
 91
      503
 93
      249
310
90D312F313622203D2031272D30220000000000002C0FC000000000000284000
  0
ACAD_PROXY_OBJECT
  5
5D
102
{ACAD_REACTORS
330
47
102
}
330
47
100
AcDbProxyObject
 90
      499
 91
      503
 93
      249
310
90D332F333222203D2031272D30220000000000002E0FC000000000000284000
  0
ACAD_PROXY_OBJECT
  5
5E
102
{ACAD_REACTORS
330
47
102
}
330
47
100
AcDbProxyObject
 90
      499
 91
      503
 93
      241
310
90C312F3822203D2031272D3022000000000000300FC000000000000284000
  0
ACAD_PROXY_OBJECT
  5
5F
102
{ACAD_REACTORS
330
47
102
}
330
47
100
AcDbProxyObject
 90
      499
 91
      503
 93
      249
310
90D332F313622203D2031272D3022000000000000320FC000000000000284000
  0
ACAD_PROXY_OBJECT
  5
60
102
{ACAD_REACTORS
330
47
102
}
330
47
100
AcDbProxyObject
 90
      499
 91
      503
 93
      241
310
90C312F3422203D2031272D3022000000000000340FC000000000000284000
  0
ACAD_PROXY_OBJECT
  5
61
102
{ACAD_REACTORS
330
47
102
}
330
47
100
AcDbProxyObject
 90
      499
 91
      503
 93
      241
310
90C332F3822203D2031272D3022000000000000360FC000000000000284000
  0
ACAD_PROXY_OBJECT
  5
62
102
{ACAD_REACTORS
330
47
102
}
330
47
100
AcDbProxyObject
 90
      499
 91
      503
 93
      241
310
90C312F3222203D2031272D3022000000000000380FC000000000000284000
  0
ACAD_PROXY_OBJECT
  5
63
102
{ACAD_REACTORS
330
47
102
}
330
47
100
AcDbProxyObject
 90
      499
 91
      503
 93
      241
310
90C332F3422203D2031272D30220000000000003A0FC000000000000284000
  0
ACAD_PROXY_OBJECT
  5
64
102
{ACAD_REACTORS
330
47
102
}
330
47
100
AcDbProxyObject
 90
      499
 91
      503
 93
      161
310
90A3122203D2031272D30224000000000000284000
  0
ACAD_PROXY_OBJECT
  5
65
102
{ACAD_REACTORS
330
47
102
}
330
47
100
AcDbProxyObject
 90
      499
 91
      503
 93
      257
310
90E312D312F3222203D2031272D30220000000000003E0FC000000000000284000
  0
ACAD_PROXY_OBJECT
  5
66
102
{ACAD_REACTORS
330
47
102
}
330
47
100
AcDbProxyObject
 90
      499
 91
      503
 93
      225
310
90A3322203D2031272D302200000000000002100000000000000284000
  0
ACAD_PROXY_OBJECT
  5
67
102
{ACAD_REACTORS
330
47
102
}
330
47
100
AcDbProxyObject
 90
      499
 91
      503
 93
      225
310
90A3622203D2031272D302200000000000006100000000000000284000
  0
ACAD_PROXY_OBJECT
  5
68
102
{ACAD_REACTORS
330
47
102
}
330
47
100
AcDbProxyObject
 90
      499
 91
      503
 93
      249
310
90D31272D3022203D2031272D30220000000000000A100000000000000284000
  0
ACAD_PROXY_OBJECT
  5
2F
102
{ACAD_REACTORS
330
2A
102
}
330
2A
100
AcDbProxyObject
 90
      499
 91
      501
 93
      436
310
42CC9915DA5C99599C985B595049028333333333333E33F0000000000000F90107901411070040501600405405064090741402480A0340
1001
ACAD
1000
AcDbSavedByObjectVersion
1070
     0
  0
ACAD_PROXY_OBJECT
  5
32
102
{ACAD_REACTORS
330
2A
102
}
330
2A
100
AcDbProxyObject
 90
      499
 91
      501
 93
      388
310
4150985CDA58D07406404333333333333E33F0000000000000F90107A41107004050150841D405064090741402480A0350
1001
ACAD
1000
AcDbSavedByObjectVersion
1070
     0
  0
ACAD_PROXY_OBJECT
  5
36
102
{ACAD_REACTORS
330
2A
102
}
330
2A
100
AcDbProxyObject
 90
      499
 91
      501
 93
      428
310
42109C9A59DA1D195B90C409028333333333333E33F0000000000000F9010790141107004050150841D405064090741402480A029950
1001
ACAD
1000
AcDbSavedByObjectVersion
1070
     0
  0
ACAD_PROXY_OBJECT
  5
3A
102
{ACAD_REACTORS
330
2A
102
}
330
2A
100
AcDbProxyObject
 90
      499
 91
      501
 93
      452
310
42D0DBDB1BDC90DA185B99D95104090240C333333333333E33F0000000000000F90108901411070040501508421405064090741402480A0350
1001
ACAD
1000
AcDbSavedByObjectVersion
1070
     0
  0
ACAD_PROXY_OBJECT
  5
34
102
{ACAD_REACTORS
330
2A
102
}
330
2A
100
AcDbProxyObject
 90
      499
 91
      501
 93
      500
310
4290DBDB98D95C1D1D585B10940D028333333333333E33F0000000000000F90107902409070040501000000000018199010841D405064090740C02480A0340
1001
ACAD
1000
AcDbSavedByObjectVersion
1070
     0
  0
ACAD_PROXY_OBJECT
  5
35
102
{ACAD_REACTORS
330
2A
102
}
330
2A
100
AcDbProxyObject
 90
      499
 91
      501
 93
      412
310
40D11A5B50B409028333333333333E33F0000000000000F9010790141107004050150841D405064090741402480A02677FFFFFD0
1001
ACAD
1000
AcDbSavedByObjectVersion
1070
     0
  0
ACAD_PROXY_OBJECT
  5
3D
102
{ACAD_REACTORS
330
2A
102
}
330
2A
100
AcDbProxyObject
 90
      499
 91
      501
 93
      452
310
43115919D950DBDB1BDC93D999916409028333333333333E33F0000000000000F9010790141107004050150841D405064090741402480A0350
1001
ACAD
1000
AcDbSavedByObjectVersion
1070
     0
  0
ACAD_PROXY_OBJECT
  5
39
102
{ACAD_REACTORS
330
2A
102
}
330
2A
100
AcDbProxyObject
 90
      499
 91
      501
 93
      444
310
42D19858D95C185D1D195C9B90F409028333333333333E33F0000000000000F9010790141107004050150841D405064090741402480A0350
1001
ACAD
1000
AcDbSavedByObjectVersion
1070
     0
  0
ACAD_PROXY_OBJECT
  5
2B
102
{ACAD_REACTORS
330
2A
102
}
330
2A
100
AcDbProxyObject
 90
      499
 91
      501
 93
      380
310
41119B185D240901404333333333333E33F0000000000000F9010740A907004050150841D405064090741402480A1B50
1001
ACAD
1000
AcDbSavedByObjectVersion
1070
     0
  0
ACAD_PROXY_OBJECT
  5
2C
102
{ACAD_REACTORS
330
2A
102
}
330
2A
100
AcDbProxyObject
 90
      499
 91
      501
 93
      468
310
43519B185D15DA5D1A115919D95CD0140901404333333333333E33F0000000000000F90107409019070040501600405405064090741402480A1B50
1001
ACAD
1000
AcDbSavedByObjectVersion
1070
     0
  0
ACAD_PROXY_OBJECT
  5
2D
102
{ACAD_REACTORS
330
2A
102
}
330
2A
100
AcDbProxyObject
 90
      499
 91
      501
 93
      404
310
41D1DBDD5C985D5910240902404333333333333E33F0000000000000F9010740A9070040501641D405064090741402480A1B50
1001
ACAD
1000
AcDbSavedByObjectVersion
1070
     0
  0
ACAD_PROXY_OBJECT
  5
2E
102
{ACAD_REACTORS
330
2A
102
}
330
2A
100
AcDbProxyObject
 90
      499
 91
      501
 93
      492
310
4411DBDD5C985D5915DA5D1A115919D95CD0340902404333333333333E33F0000000000000F90107409019070040501600405405064090741402480A1B50
1001
ACAD
1000
AcDbSavedByObjectVersion
1070
     0
  0
ACAD_PROXY_OBJECT
  5
31
102
{ACAD_REACTORS
330
2A
102
}
330
2A
100
AcDbProxyObject
 90
      499
 91
      501
 93
      476
310
41921A5919195B90640502408333333333333E33F0000000000000F901079024090700405020000000000001110200405405064090740C02480A0340
1001
ACAD
1000
AcDbSavedByObjectVersion
1070
     0
  0
ACAD_PROXY_OBJECT
  5
3B
102
{ACAD_REACTORS
330
2A
102
}
330
2A
100
AcDbProxyObject
 90
      499
 91
      501
 93
      428
310
42529A5D1D195C93D999914409028333333333333E33F0000000000000F9010790141107004050150A41D405064090741402480A0350
1001
ACAD
1000
AcDbSavedByObjectVersion
1070
     0
  0
ACAD_PROXY_OBJECT
  5
38
102
{ACAD_REACTORS
330
2A
102
}
330
2A
100
AcDbProxyObject
 90
      499
 91
      501
 93
      444
310
42D31A5B995C185D1D195C9B90E409028333333333333E33F0000000000000F9010790141107004050750841D405064090741402483A0350
1001
ACAD
1000
AcDbSavedByObjectVersion
1070
     0
  0
ACAD_PROXY_OBJECT
  5
3C
102
{ACAD_REACTORS
330
2A
102
}
330
2A
100
AcDbProxyObject
 90
      499
 91
      501
 93
      444
310
42D3DD995C9A185B99D3D999915409028333333333333E33F0000000000000F9010790141107004050150941D405064090741402480A0350
1001
ACAD
1000
AcDbSavedByObjectVersion
1070
     0
  0
ACAD_PROXY_OBJECT
  5
33
102
{ACAD_REACTORS
330
2A
102
}
330
2A
100
AcDbProxyObject
 90
      499
 91
      501
 93
      428
310
425499585B1A5CDD1A58D08409038333333333333E33F0000000000000F9010740A907004050150800405405064090740C02480A1B40
1001
ACAD
1000
AcDbSavedByObjectVersion
1070
     0
  0
ACAD_PROXY_OBJECT
  5
42
102
{ACAD_REACTORS
330
2A
102
}
330
2A
100
AcDbProxyObject
 90
      499
 91
      501
 93
      420
310
4194DA1859195911B40902404333333333333E33F0000000000000F9010740A41107004050150800405405064090840C02480A0B40
1001
ACAD
1000
AcDbSavedByObjectVersion
1070
     0
  0
ACAD_PROXY_OBJECT
  5
41
102
{ACAD_REACTORS
330
2A
102
}
330
2A
100
AcDbProxyObject
 90
      499
 91
      501
 93
      516
310
4454DA18591959081DDA5D1A08195919D95CD1A40902404333333333333E33F0000000000000F901074090142907004050250800405405064090740C02480A0B40
1001
ACAD
1000
AcDbSavedByObjectVersion
1070
     0
  0
ACAD_PROXY_OBJECT
  5
3E
102
{ACAD_REACTORS
330
2A
102
}
330
2A
100
AcDbProxyObject
 90
      499
 91
      501
 93
      532
310
4394DA1859195CC81BD98811DC985E5174090240C333333333333E33F0000000000000F901079024090741D01000000000000111010841D405064090740C02480A0340
1001
ACAD
1000
AcDbSavedByObjectVersion
1070
     0
  0
ACAD_PROXY_OBJECT
  5
3F
102
{ACAD_REACTORS
330
2A
102
}
330
2A
100
AcDbProxyObject
 90
      499
 91
      501
 93
      476
310
41D4DAD95D18DA1E51840502408333333333333E33F0000000000000F901079024090741D01000000000000111010B41D405064090741802480A0340
1001
ACAD
1000
AcDbSavedByObjectVersion
1070
     0
  0
ACAD_PROXY_OBJECT
  5
37
102
{ACAD_REACTORS
330
2A
102
}
330
2A
100
AcDbProxyObject
 90
      499
 91
      501
 93
      412
310
41D51A1A58DAD95B90D409028333333333333E33F0000000000000F9010790141107004050150C41D405064090741402480A0350
1001
ACAD
1000
AcDbSavedByObjectVersion
1070
     0
  0
ACAD_PROXY_OBJECT
  5
30
102
{ACAD_REACTORS
330
2A
102
}
330
2A
100
AcDbProxyObject
 90
      499
 91
      501
 93
      420
310
4255DA5C99599C985B595059028333333333333E33F0000000000000F90107901411070040501600405405064090740C02480A0340
1001
ACAD
1000
AcDbSavedByObjectVersion
1070
     0
  0
ACAD_PROXY_OBJECT
  5
40
102
{ACAD_REACTORS
330
2A
102
}
330
2A
100
AcDbProxyObject
 90
      499
 91
      501
 93
      404
310
41560B54985E51940902404000000000000E03F0000000000000F9010740501907004050150841D405064090740C02480A1B40
1001
ACAD
1000
AcDbSavedByObjectVersion
1070
     0
  0
XRECORD
  5
597
102
{ACAD_REACTORS
330
58D
102
}
330
58D
100
AcDbXrecord
340
0
  0
XRECORD
  5
596
102
{ACAD_REACTORS
330
58D
102
}
330
58D
100
AcDbXrecord
 90
        0
  0
XRECORD
  5
5AD
102
{ACAD_REACTORS
330
58D
102
}
330
58D
100
AcDbXrecord
1000
DSTYLE
1002
{
1070
   340
340
11
1002
}
  0
XRECORD
  5
598
102
{ACAD_REACTORS
330
58D
102
}
330
58D
100
AcDbXrecord
  1
{7a03d8e8-6ca6-4212-ab89-b26c4fd498f4}
  0
XRECORD
  5
590
102
{ACAD_REACTORS
330
58D
102
}
330
58D
100
AcDbXrecord
  1

  0
XRECORD
  5
595
102
{ACAD_REACTORS
330
58D
102
}
330
58D
100
AcDbXrecord
 90
        4
  0
XRECORD
  5
592
102
{ACAD_REACTORS
330
58D
102
}
330
58D
100
AcDbXrecord
340
1A
  0
XRECORD
  5
594
102
{ACAD_REACTORS
330
58D
102
}
330
58D
100
AcDbXrecord
 90
    10781
  0
XRECORD
  5
593
102
{ACAD_REACTORS
330
58D
102
}
330
58D
100
AcDbXrecord
340
19
  0
XRECORD
  5
59A
102
{ACAD_REACTORS
330
58D
102
}
330
58D
100
AcDbXrecord
 40
0.0
  0
XRECORD
  5
59D
102
{ACAD_REACTORS
330
58D
102
}
330
58D
100
AcDbXrecord
340
0
  0
XRECORD
  5
5A3
102
{ACAD_REACTORS
330
58D
102
}
330
58D
100
AcDbXrecord
 10
0.0
 20
0.0
 30
0.0
  0
XRECORD
  5
59F
102
{ACAD_REACTORS
330
58D
102
}
330
58D
100
AcDbXrecord
 10
0.0
 20
0.0
 30
0.0
  0
XRECORD
  5
5A2
102
{ACAD_REACTORS
330
58D
102
}
330
58D
100
AcDbXrecord
 10
0.0
 20
0.0
 30
0.0
  0
XRECORD
  5
5A0
102
{ACAD_REACTORS
330
58D
102
}
330
58D
100
AcDbXrecord
 10
0.0
 20
0.0
 30
0.0
  0
XRECORD
  5
5A1
102
{ACAD_REACTORS
330
58D
102
}
330
58D
100
AcDbXrecord
 10
0.0
 20
0.0
 30
0.0
  0
XRECORD
  5
59E
102
{ACAD_REACTORS
330
58D
102
}
330
58D
100
AcDbXrecord
 10
0.0
 20
0.0
 30
0.0
  0
XRECORD
  5
59B
102
{ACAD_REACTORS
330
58D
102
}
330
58D
100
AcDbXrecord
340
0
  0
XRECORD
  5
59C
102
{ACAD_REACTORS
330
58D
102
}
330
58D
100
AcDbXrecord
 70
     0
  0
XRECORD
  5
591
102
{ACAD_REACTORS
330
58D
102
}
330
58D
100
AcDbXrecord
  1

  0
XRECORD
  5
58E
102
{ACAD_REACTORS
330
58D
102
}
330
58D
100
AcDbXrecord
 90
        1
  0
XRECORD
  5
58F
102
{ACAD_REACTORS
330
58D
102
}
330
58D
100
AcDbXrecord
 90
       70
  0
XRECORD
  5
5A6
102
{ACAD_REACTORS
330
58D
102
}
330
58D
100
AcDbXrecord
340
0
  0
XRECORD
  5
5AC
102
{ACAD_REACTORS
330
58D
102
}
330
58D
100
AcDbXrecord
 10
0.0
 20
0.0
 30
0.0
  0
XRECORD
  5
5A8
102
{ACAD_REACTORS
330
58D
102
}
330
58D
100
AcDbXrecord
 10
0.0
 20
0.0
 30
0.0
  0
XRECORD
  5
5AB
102
{ACAD_REACTORS
330
58D
102
}
330
58D
100
AcDbXrecord
 10
0.0
 20
0.0
 30
0.0
  0
XRECORD
  5
5A9
102
{ACAD_REACTORS
330
58D
102
}
330
58D
100
AcDbXrecord
 10
0.0
 20
0.0
 30
0.0
  0
XRECORD
  5
5AA
102
{ACAD_REACTORS
330
58D
102
}
330
58D
100
AcDbXrecord
 10
0.0
 20
0.0
 30
0.0
  0
XRECORD
  5
5A7
102
{ACAD_REACTORS
330
58D
102
}
330
58D
100
AcDbXrecord
 10
0.0
 20
0.0
 30
0.0
  0
XRECORD
  5
5A4
102
{ACAD_REACTORS
330
58D
102
}
330
58D
100
AcDbXrecord
340
0
  0
XRECORD
  5
5A5
102
{ACAD_REACTORS
330
58D
102
}
330
58D
100
AcDbXrecord
 70
     0
  0
XRECORD
  5
599
102
{ACAD_REACTORS
330
58D
102
}
330
58D
100
AcDbXrecord
  1
{FAEB1C32-E019-11D5-929B-00C0DF256EC4}
  0
DICTIONARYVAR
  5
5BB
102
{ACAD_REACTORS
330
5AE
102
}
330
5AE
100
DictionaryVariables
280
     0
  1
1:1
  0
DICTIONARYVAR
  5
5B5
102
{ACAD_REACTORS
330
5AE
102
}
330
5AE
100
DictionaryVariables
280
     0
  1
3.500000
  0
DICTIONARYVAR
  5
5B6
102
{ACAD_REACTORS
330
5AE
102
}
330
5AE
100
DictionaryVariables
280
     0
  1
acadiso.lin
  0
DICTIONARYVAR
  5
5B0
102
{ACAD_REACTORS
330
5AE
102
}
330
5AE
100
DictionaryVariables
280
     0
  1
Standard
  0
DICTIONARYVAR
  5
5AF
102
{ACAD_REACTORS
330
5AE
102
}
330
5AE
100
DictionaryVariables
280
     0
  1
Standard
  0
DICTIONARYVAR
  5
5B7
102
{ACAD_REACTORS
330
5AE
102
}
330
5AE
100
DictionaryVariables
280
     0
  1
2
  0
DICTIONARYVAR
  5
5B8
102
{ACAD_REACTORS
330
5AE
102
}
330
5AE
100
DictionaryVariables
280
     0
  1
1
  0
DICTIONARYVAR
  5
5BC
102
{ACAD_REACTORS
330
5AE
102
}
330
5AE
100
DictionaryVariables
280
     0
  1
1
  0
DICTIONARYVAR
  5
5B2
102
{ACAD_REACTORS
330
5AE
102
}
330
5AE
100
DictionaryVariables
280
     0
  1
80.000000
  0
DICTIONARYVAR
  5
5B1
102
{ACAD_REACTORS
330
5AE
102
}
330
5AE
100
DictionaryVariables
280
     0
  1
5.000000
  0
DICTIONARY
  5
5BF
330
45
100
AcDbDictionary
280
     1
  3
ACAD_XREC_ROUNDTRIP
360
5C0
  0
DICTIONARY
  5
5BD
330
44
100
AcDbDictionary
280
     1
  3
ACAD_XREC_ROUNDTRIP
360
5BE
  0
DICTIONARY
  5
5C1
330
46
100
AcDbDictionary
280
     1
  3
ACAD_XREC_ROUNDTRIP
360
5C2
  0
XRECORD
  5
5C0
102
{ACAD_REACTORS
330
5BF
102
}
330
5BF
100
AcDbXrecord
102
MATERIAL
148
0.0
149
0.0
149
0.0
 93
        0
 94
      127
282
     0
 72
     1
 77
     1
171
     1
175
     1
179
     1
273
     0
  0
XRECORD
  5
5BE
102
{ACAD_REACTORS
330
5BD
102
}
330
5BD
100
AcDbXrecord
102
MATERIAL
148
0.0
149
0.0
149
0.0
 93
        0
 94
      127
282
     0
 72
     1
 77
     1
171
     1
175
     1
179
     1
273
     0
  0
XRECORD
  5
5C2
102
{ACAD_REACTORS
330
5C1
102
}
330
5C1
100
AcDbXrecord
102
MATERIAL
148
0.0
149
0.0
149
0.0
 93
        0
 94
      127
282
     0
 72
     1
 77
     1
171
     1
175
     1
179
     1
273
     0
  0
ENDSEC
  0
EOF
