  0
SECTION
  2
HEADER
  9
$ACADVER
  1
AC1014
  9
$ACADMAINTVER
 70
     9
  9
$DWGCODEPAGE
  3
ANSI_932
  9
$INSBASE
 10
0.0
 20
0.0
 30
0.0
  9
$EXTMIN
 10
25.0
 20
25.0
 30
0.0
  9
$EXTMAX
 10
1025.0
 20
717.5
 30
0.0
  9
$LIMMIN
 10
0.0
 20
0.0
  9
$LIMMAX
 10
420.0
 20
297.0
  9
$ORTHOMODE
 70
     0
  9
$REGENMODE
 70
     1
  9
$FILLMODE
 70
     1
  9
$QTEXTMODE
 70
     0
  9
$MIRRTEXT
 70
     1
  9
$DRAGMODE
 70
     2
  9
$LTSCALE
 40
1.0
  9
$OSMODE
 70
    37
  9
$ATTMODE
 70
     1
  9
$TEXTSIZE
 40
2.5
  9
$TRACEWID
 40
1.0
  9
$TEXTSTYLE
  7
STANDARD
  9
$CLAYER
  8
S_1_1
  9
$CELTYPE
  6
BYLAYER
  9
$CECOLOR
 62
   256
  9
$CELTSCALE
 40
1.0
  9
$DELOBJ
 70
     1
  9
$DISPSILH
 70
     0
  9
$DIMSCALE
 40
1.0
  9
$DIMASZ
 40
2.5
  9
$DIMEXO
 40
0.625
  9
$DIMDLI
 40
3.75
  9
$DIMRND
 40
0.0
  9
$DIMDLE
 40
0.0
  9
$DIMEXE
 40
1.25
  9
$DIMTP
 40
0.0
  9
$DIMTM
 40
0.0
  9
$DIMTXT
 40
2.5
  9
$DIMCEN
 40
2.5
  9
$DIMTSZ
 40
0.0
  9
$DIMTOL
 70
     0
  9
$DIMLIM
 70
     0
  9
$DIMTIH
 70
     0
  9
$DIMTOH
 70
     0
  9
$DIMSE1
 70
     0
  9
$DIMSE2
 70
     0
  9
$DIMTAD
 70
     1
  9
$DIMZIN
 70
     8
  9
$DIMBLK
  1

  9
$DIMASO
 70
     1
  9
$DIMSHO
 70
     1
  9
$DIMPOST
  1

  9
$DIMAPOST
  1

  9
$DIMALT
 70
     0
  9
$DIMALTD
 70
     3
  9
$DIMALTF
 40
0.03937007874016
  9
$DIMLFAC
 40
1.0
  9
$DIMTOFL
 70
     1
  9
$DIMTVP
 40
0.0
  9
$DIMTIX
 70
     0
  9
$DIMSOXD
 70
     0
  9
$DIMSAH
 70
     0
  9
$DIMBLK1
  1

  9
$DIMBLK2
  1

  9
$DIMSTYLE
  2
ISO-25
  9
$DIMCLRD
 70
     0
  9
$DIMCLRE
 70
     0
  9
$DIMCLRT
 70
     0
  9
$DIMTFAC
 40
1.0
  9
$DIMGAP
 40
0.625
  9
$DIMJUST
 70
     0
  9
$DIMSD1
 70
     0
  9
$DIMSD2
 70
     0
  9
$DIMTOLJ
 70
     0
  9
$DIMTZIN
 70
     8
  9
$DIMALTZ
 70
     0
  9
$DIMALTTZ
 70
     0
  9
$DIMFIT
 70
     3
  9
$DIMUPT
 70
     0
  9
$DIMUNIT
 70
     2
  9
$DIMDEC
 70
     2
  9
$DIMTDEC
 70
     2
  9
$DIMALTU
 70
     2
  9
$DIMALTTD
 70
     3
  9
$DIMTXSTY
  7
STANDARD
  9
$DIMAUNIT
 70
     0
  9
$LUNITS
 70
     2
  9
$LUPREC
 70
     4
  9
$SKETCHINC
 40
1.0
  9
$FILLETRAD
 40
10.0
  9
$AUNITS
 70
     0
  9
$AUPREC
 70
     0
  9
$MENU
  1
.
  9
$ELEVATION
 40
0.0
  9
$PELEVATION
 40
0.0
  9
$THICKNESS
 40
0.0
  9
$LIMCHECK
 70
     0
  9
$CHAMFERA
 40
0.0
  9
$CHAMFERB
 40
0.0
  9
$CHAMFERC
 40
0.0
  9
$CHAMFERD
 40
0.0
  9
$SKPOLY
 70
     0
  9
$TDCREATE
 40
2459591.543215671
  9
$TDUPDATE
 40
2459591.543216805
  9
$TDINDWG
 40
0.0000000116
  9
$TDUSRTIMER
 40
0.0000000116
  9
$USRTIMER
 70
     1
  9
$ANGBASE
 50
0.0
  9
$ANGDIR
 70
     0
  9
$PDMODE
 70
     0
  9
$PDSIZE
 40
0.0
  9
$PLINEWID
 40
0.0
  9
$COORDS
 70
     1
  9
$SPLFRAME
 70
     0
  9
$SPLINETYPE
 70
     6
  9
$SPLINESEGS
 70
     8
  9
$ATTDIA
 70
     0
  9
$ATTREQ
 70
     1
  9
$HANDLING
 70
     1
  9
$HANDSEED
  5
489
  9
$SURFTAB1
 70
     6
  9
$SURFTAB2
 70
     6
  9
$SURFTYPE
 70
     6
  9
$SURFU
 70
     6
  9
$SURFV
 70
     6
  9
$UCSNAME
  2

  9
$UCSORG
 10
0.0
 20
0.0
 30
0.0
  9
$UCSXDIR
 10
1.0
 20
0.0
 30
0.0
  9
$UCSYDIR
 10
0.0
 20
1.0
 30
0.0
  9
$PUCSNAME
  2

  9
$PUCSORG
 10
0.0
 20
0.0
 30
0.0
  9
$PUCSXDIR
 10
1.0
 20
0.0
 30
0.0
  9
$PUCSYDIR
 10
0.0
 20
1.0
 30
0.0
  9
$USERI1
 70
     0
  9
$USERI2
 70
     0
  9
$USERI3
 70
     0
  9
$USERI4
 70
     0
  9
$USERI5
 70
     0
  9
$USERR1
 40
0.0
  9
$USERR2
 40
0.0
  9
$USERR3
 40
0.0
  9
$USERR4
 40
0.0
  9
$USERR5
 40
0.0
  9
$WORLDVIEW
 70
     1
  9
$SHADEDGE
 70
     3
  9
$SHADEDIF
 70
    70
  9
$TILEMODE
 70
     1
  9
$MAXACTVP
 70
    64
  9
$PINSBASE
 10
0.0
 20
0.0
 30
0.0
  9
$PLIMCHECK
 70
     0
  9
$PEXTMIN
 10
1.000000000000000E+20
 20
1.000000000000000E+20
 30
1.000000000000000E+20
  9
$PEXTMAX
 10
-1.000000000000000E+20
 20
-1.000000000000000E+20
 30
-1.000000000000000E+20
  9
$PLIMMIN
 10
0.0
 20
0.0
  9
$PLIMMAX
 10
420.0
 20
297.0
  9
$UNITMODE
 70
     0
  9
$VISRETAIN
 70
     1
  9
$PLINEGEN
 70
     0
  9
$PSLTSCALE
 70
     1
  9
$TREEDEPTH
 70
  3020
  9
$PICKSTYLE
 70
     1
  9
$CMLSTYLE
  2
STANDARD
  9
$CMLJUST
 70
     0
  9
$CMLSCALE
 40
20.0
  9
$PROXYGRAPHICS
 70
     1
  9
$MEASUREMENT
 70
     1
  0
ENDSEC
  0
SECTION
  2
CLASSES
  0
CLASS
  1
ACDBDICTIONARYWDFLT
  2
AcDbDictionaryWithDefault
  3
ObjectDBX Classes
 90
        0
280
     0
281
     0
  0
CLASS
  1
VISUALSTYLE
  2
AcDbVisualStyle
  3
ObjectDBX Classes
 90
     4095
280
     0
281
     0
  0
CLASS
  1
MATERIAL
  2
AcDbMaterial
  3
ObjectDBX Classes
 90
     1153
280
     0
281
     0
  0
CLASS
  1
SCALE
  2
AcDbScale
  3
ObjectDBX Classes
 90
     1153
280
     0
281
     0
  0
CLASS
  1
TABLESTYLE
  2
AcDbTableStyle
  3
ObjectDBX Classes
 90
     4095
280
     0
281
     0
  0
CLASS
  1
MLEADERSTYLE
  2
AcDbMLeaderStyle
  3
ACDB_MLEADERSTYLE_CLASS
 90
     4095
280
     0
281
     0
  0
CLASS
  1
SUN
  2
AcDbSun
  3
SCENEOE
 90
     1153
280
     0
281
     0
  0
CLASS
  1
DICTIONARYVAR
  2
AcDbDictionaryVar
  3
ObjectDBX Classes
 90
        0
280
     0
281
     0
  0
CLASS
  1
XRECORD
  2
AcDbXrecord
  3
ObjectDBX Classes
 90
        0
280
     0
281
     0
  0
CLASS
  1
LWPOLYLINE
  2
AcDbPolyline
  3
ObjectDBX Classes
 90
        0
280
     0
281
     1
  0
CLASS
  1
HATCH
  2
AcDbHatch
  3
ObjectDBX Classes
 90
        0
280
     0
281
     1
  0
CLASS
  1
ACDBPLACEHOLDER
  2
AcDbPlaceHolder
  3
ObjectDBX Classes
 90
        0
280
     0
281
     0
  0
CLASS
  1
LAYOUT
  2
AcDbLayout
  3
ObjectDBX Classes
 90
        0
280
     0
281
     0
  0
ENDSEC
  0
SECTION
  2
TABLES
  0
TABLE
  2
VPORT
  5
8
102
{ACAD_XDICTIONARY
360
47E
102
}
330
0
100
AcDbSymbolTable
 70
     1
  0
VPORT
  5
29
330
8
100
AcDbSymbolTableRecord
100
AcDbViewportTableRecord
  2
*ACTIVE
 70
     0
 10
0.0
 20
0.0
 11
1.0
 21
1.0
 12
525.0
 22
371.25
 13
0.0
 23
0.0
 14
10.0
 24
10.0
 15
10.0
 25
10.0
 16
0.0
 26
0.0
 36
1.0
 17
0.0
 27
0.0
 37
0.0
 40
692.5
 41
1.444043321299639
 42
50.0
 43
0.0
 44
0.0
 50
0.0
 51
0.0
 71
     0
 72
  1000
 73
     1
 74
     3
 75
     0
 76
     0
 77
     0
 78
     0
  0
ENDTAB
  0
TABLE
  2
LTYPE
  5
5
330
0
100
AcDbSymbolTable
 70
    24
  0
LTYPE
  5
14
330
5
100
AcDbSymbolTableRecord
100
AcDbLinetypeTableRecord
  2
BYBLOCK
 70
     0
  3

 72
    65
 73
     0
 40
0.0
  0
LTYPE
  5
15
330
5
100
AcDbSymbolTableRecord
100
AcDbLinetypeTableRecord
  2
BYLAYER
 70
     0
  3

 72
    65
 73
     0
 40
0.0
  0
LTYPE
  5
16
330
5
100
AcDbSymbolTableRecord
100
AcDbLinetypeTableRecord
  2
CONTINUOUS
 70
     0
  3
Solid line
 72
    65
 73
     0
 40
0.0
  0
LTYPE
  5
6E
330
5
100
AcDbSymbolTableRecord
100
AcDbLinetypeTableRecord
  2
EXLTYPE0
 70
     0
  3
破線
 72
    65
 73
     2
 40
4.0
 49
3.0
 74
     0
 49
-1.0
 74
     0
  0
LTYPE
  5
6F
330
5
100
AcDbSymbolTableRecord
100
AcDbLinetypeTableRecord
  2
EXLTYPE1
 70
     0
  3
点線
 72
    65
 73
     2
 40
2.0
 49
1.0
 74
     0
 49
-1.0
 74
     0
  0
LTYPE
  5
70
330
5
100
AcDbSymbolTableRecord
100
AcDbLinetypeTableRecord
  2
EXLTYPE2
 70
     0
  3
一点鎖線
 72
    65
 73
     4
 40
13.0
 49
10.0
 74
     0
 49
-1.0
 74
     0
 49
1.0
 74
     0
 49
-1.0
 74
     0
  0
LTYPE
  5
71
330
5
100
AcDbSymbolTableRecord
100
AcDbLinetypeTableRecord
  2
EXLTYPE3
 70
     0
  3
二点鎖線
 72
    65
 73
     6
 40
15.0
 49
10.0
 74
     0
 49
-1.0
 74
     0
 49
1.0
 74
     0
 49
-1.0
 74
     0
 49
1.0
 74
     0
 49
-1.0
 74
     0
  0
LTYPE
  5
72
330
5
100
AcDbSymbolTableRecord
100
AcDbLinetypeTableRecord
  2
EXLTYPE4
 70
     0
  3
一点鎖線2
 72
    65
 73
     4
 40
3.5
 49
2.0
 74
     0
 49
-0.5
 74
     0
 49
0.5
 74
     0
 49
-0.5
 74
     0
  0
LTYPE
  5
73
330
5
100
AcDbSymbolTableRecord
100
AcDbLinetypeTableRecord
  2
EXLTYPE5
 70
     0
  3
二点鎖線2
 72
    65
 73
     6
 40
4.5
 49
2.0
 74
     0
 49
-0.5
 74
     0
 49
0.5
 74
     0
 49
-0.5
 74
     0
 49
0.5
 74
     0
 49
-0.5
 74
     0
  0
LTYPE
  5
74
330
5
100
AcDbSymbolTableRecord
100
AcDbLinetypeTableRecord
  2
EXLTYPE6
 70
     0
  3
一点鎖線8
 72
    65
 73
     4
 40
13.0
 49
10.0
 74
     0
 49
-1.0
 74
     0
 49
1.0
 74
     0
 49
-1.0
 74
     0
  0
LTYPE
  5
75
330
5
100
AcDbSymbolTableRecord
100
AcDbLinetypeTableRecord
  2
EXLTYPE7
 70
     0
  3
二点鎖線4
 72
    65
 73
     6
 40
15.0
 49
10.0
 74
     0
 49
-1.0
 74
     0
 49
1.0
 74
     0
 49
-1.0
 74
     0
 49
1.0
 74
     0
 49
-1.0
 74
     0
  0
LTYPE
  5
76
330
5
100
AcDbSymbolTableRecord
100
AcDbLinetypeTableRecord
  2
EXLTYPE8
 70
     0
  3
一点鎖線4
 72
    65
 73
     4
 40
33.0
 49
30.0
 74
     0
 49
-1.0
 74
     0
 49
1.0
 74
     0
 49
-1.0
 74
     0
  0
LTYPE
  5
77
330
5
100
AcDbSymbolTableRecord
100
AcDbLinetypeTableRecord
  2
EXLTYPE9
 70
     0
  3
一点鎖線7
 72
    65
 73
     4
 40
13.0
 49
10.0
 74
     0
 49
-1.0
 74
     0
 49
1.0
 74
     0
 49
-1.0
 74
     0
  0
LTYPE
  5
78
330
5
100
AcDbSymbolTableRecord
100
AcDbLinetypeTableRecord
  2
EXLTYPE10
 70
     0
  3
一点鎖線3
 72
    65
 73
     4
 40
33.0
 49
30.0
 74
     0
 49
-1.0
 74
     0
 49
1.0
 74
     0
 49
-1.0
 74
     0
  0
LTYPE
  5
79
330
5
100
AcDbSymbolTableRecord
100
AcDbLinetypeTableRecord
  2
EXLTYPE11
 70
     0
  3
破線8
 72
    65
 73
     2
 40
2.2
 49
1.2
 74
     0
 49
-1.0
 74
     0
  0
LTYPE
  5
7A
330
5
100
AcDbSymbolTableRecord
100
AcDbLinetypeTableRecord
  2
EXLTYPE12
 70
     0
  3
破線5
 72
    65
 73
     2
 40
4.0
 49
3.0
 74
     0
 49
-1.0
 74
     0
  0
LTYPE
  5
7B
330
5
100
AcDbSymbolTableRecord
100
AcDbLinetypeTableRecord
  2
EXLTYPE13
 70
     0
  3
破線7
 72
    65
 73
     2
 40
2.2
 49
1.2
 74
     0
 49
-1.0
 74
     0
  0
LTYPE
  5
7C
330
5
100
AcDbSymbolTableRecord
100
AcDbLinetypeTableRecord
  2
EXLTYPE14
 70
     0
  3
二点鎖線3
 72
    65
 73
     6
 40
35.0
 49
30.0
 74
     0
 49
-1.0
 74
     0
 49
1.0
 74
     0
 49
-1.0
 74
     0
 49
1.0
 74
     0
 49
-1.0
 74
     0
  0
LTYPE
  5
7D
330
5
100
AcDbSymbolTableRecord
100
AcDbLinetypeTableRecord
  2
EXLTYPE15
 70
     0
  3
一点鎖線9
 72
    65
 73
     4
 40
13.0
 49
10.0
 74
     0
 49
-1.0
 74
     0
 49
1.0
 74
     0
 49
-1.0
 74
     0
  0
LTYPE
  5
7E
330
5
100
AcDbSymbolTableRecord
100
AcDbLinetypeTableRecord
  2
EXLTYPE16
 70
     0
  3
一点鎖線5
 72
    65
 73
     4
 40
13.0
 49
10.0
 74
     0
 49
-1.0
 74
     0
 49
1.0
 74
     0
 49
-1.0
 74
     0
  0
LTYPE
  5
7F
330
5
100
AcDbSymbolTableRecord
100
AcDbLinetypeTableRecord
  2
EXLTYPE17
 70
     0
  3
破線10
 72
    65
 73
     2
 40
2.5
 49
1.5
 74
     0
 49
-1.0
 74
     0
  0
LTYPE
  5
80
330
5
100
AcDbSymbolTableRecord
100
AcDbLinetypeTableRecord
  2
EXLTYPE18
 70
     0
  3
破線12
 72
    65
 73
     2
 40
2.5
 49
1.5
 74
     0
 49
-1.0
 74
     0
  0
LTYPE
  5
81
330
5
100
AcDbSymbolTableRecord
100
AcDbLinetypeTableRecord
  2
EXLTYPE19
 70
     0
  3
一点鎖線12
 72
    65
 73
     4
 40
4.5
 49
1.5
 74
     0
 49
-1.0
 74
     0
 49
1.0
 74
     0
 49
-1.0
 74
     0
  0
LTYPE
  5
82
330
5
100
AcDbSymbolTableRecord
100
AcDbLinetypeTableRecord
  2
EXLTYPE20
 70
     0
  3
一点鎖線11
 72
    65
 73
     4
 40
13.0
 49
10.0
 74
     0
 49
-1.0
 74
     0
 49
1.0
 74
     0
 49
-1.0
 74
     0
  0
LTYPE
  5
83
330
5
100
AcDbSymbolTableRecord
100
AcDbLinetypeTableRecord
  2
EXLTYPE21
 70
     0
  3
一点鎖線6
 72
    65
 73
     4
 40
13.0
 49
10.0
 74
     0
 49
-1.0
 74
     0
 49
1.0
 74
     0
 49
-1.0
 74
     0
  0
LTYPE
  5
84
330
5
100
AcDbSymbolTableRecord
100
AcDbLinetypeTableRecord
  2
EXLTYPE22
 70
     0
  3
破線2
 72
    65
 73
     2
 40
2.0
 49
1.0
 74
     0
 49
-1.0
 74
     0
  0
ENDTAB
  0
TABLE
  2
LAYER
  5
2
330
0
100
AcDbSymbolTable
 70
     4
  0
LAYER
  5
10
330
2
100
AcDbSymbolTableRecord
100
AcDbLayerTableRecord
  2
0
 70
     0
 62
     7
  6
CONTINUOUS
  0
LAYER
  5
87
330
2
100
AcDbSymbolTableRecord
100
AcDbLayerTableRecord
  2
図面枠
 70
     4
 62
     7
  6
CONTINUOUS
  0
LAYER
  5
88
330
2
100
AcDbSymbolTableRecord
100
AcDbLayerTableRecord
  2
S_1_1
 70
     0
 62
     7
  6
CONTINUOUS
  0
LAYER
  5
12E
330
2
100
AcDbSymbolTableRecord
100
AcDbLayerTableRecord
  2
DEFPOINTS
 70
     0
 62
     7
  6
CONTINUOUS
  0
ENDTAB
  0
TABLE
  2
STYLE
  5
3
330
0
100
AcDbSymbolTable
 70
     5
  0
STYLE
  5
11
330
3
100
AcDbSymbolTableRecord
100
AcDbTextStyleTableRecord
  2
STANDARD
 70
     0
 40
0.0
 41
1.0
 50
0.0
 71
     0
 42
2.5
  3
monotxt
  4
extfont
  0
STYLE
  5
85
330
3
100
AcDbSymbolTableRecord
100
AcDbTextStyleTableRecord
  2
EXCADSTD
 70
     0
 40
0.0
 41
1.0
 50
0.0
 71
     0
 42
2.5
  3
monotxt
  4
extfont
  0
STYLE
  5
86
330
3
100
AcDbSymbolTableRecord
100
AcDbTextStyleTableRecord
  2
EXCADVERT
 70
     4
 40
0.0
 41
1.0
 50
0.0
 71
     0
 42
2.5
  3
monotxt
  4
extfont
  0
STYLE
  5
EA
330
3
100
AcDbSymbolTableRecord
100
AcDbTextStyleTableRecord
  2
EXCADTTF1
 70
     0
 40
0.0
 41
1.0
 50
0.0
 71
     0
 42
2.5
  3
msgothic.ttc
  4

1001
ACAD
1000
MS Gothic
1071
    32817
  0
STYLE
  5
12C
330
3
100
AcDbSymbolTableRecord
100
AcDbTextStyleTableRecord
  2
EXCADDIM1
 70
     0
 40
0.0
 41
1.0
 50
0.0
 71
     0
 42
2.5
  3
msgothic.ttc
  4

1001
ACAD
1000
MS Gothic
1071
    32817
  0
ENDTAB
  0
TABLE
  2
VIEW
  5
6
330
0
100
AcDbSymbolTable
 70
     0
  0
ENDTAB
  0
TABLE
  2
UCS
  5
7
330
0
100
AcDbSymbolTable
 70
     0
  0
ENDTAB
  0
TABLE
  2
APPID
  5
9
330
0
100
AcDbSymbolTable
 70
     2
  0
APPID
  5
12
330
9
100
AcDbSymbolTableRecord
100
AcDbRegAppTableRecord
  2
ACAD
 70
     0
  0
APPID
  5
488
330
9
100
AcDbSymbolTableRecord
100
AcDbRegAppTableRecord
  2
ACAD_MLEADERVER
 70
     0
  0
ENDTAB
  0
TABLE
  2
DIMSTYLE
  5
A
330
0
100
AcDbSymbolTable
 70
     1
  0
DIMSTYLE
105
27
102
{ACAD_REACTORS
330
12D
330
13B
330
147
330
152
330
160
330
16C
330
179
330
294
330
2A3
330
3C5
330
3D2
330
3DF
330
444
102
}
330
A
100
AcDbSymbolTableRecord
100
AcDbDimStyleTableRecord
  2
ISO-25
 70
     0
  3

  4

  5

  6

  7

 40
1.0
 41
2.5
 42
0.625
 43
3.75
 44
1.25
 45
0.0
 46
0.0
 47
0.0
 48
0.0
140
2.5
141
2.5
142
0.0
143
0.03937007874016
144
1.0
145
0.0
146
1.0
147
0.625
 71
     0
 72
     0
 73
     0
 74
     0
 75
     0
 76
     0
 77
     1
 78
     8
170
     0
171
     3
172
     1
173
     0
174
     0
175
     0
176
     0
177
     0
178
     0
270
     2
271
     2
272
     2
273
     2
274
     3
340
11
275
     0
280
     0
281
     0
282
     0
283
     0
284
     8
285
     0
286
     0
287
     5
288
     0
  0
ENDTAB
  0
TABLE
  2
BLOCK_RECORD
  5
1
330
0
100
AcDbSymbolTable
 70
    27
  0
BLOCK_RECORD
  5
1F
330
1
100
AcDbSymbolTableRecord
100
AcDbBlockTableRecord
  2
*MODEL_SPACE
  0
BLOCK_RECORD
  5
1B
330
1
100
AcDbSymbolTableRecord
100
AcDbBlockTableRecord
  2
*PAPER_SPACE
  0
BLOCK_RECORD
  5
89
330
1
100
AcDbSymbolTableRecord
100
AcDbBlockTableRecord
  2
EX_NORM
  0
BLOCK_RECORD
  5
8C
330
1
100
AcDbSymbolTableRecord
100
AcDbBlockTableRecord
  2
EX_BNORM
  0
BLOCK_RECORD
  5
8F
330
1
100
AcDbSymbolTableRecord
100
AcDbBlockTableRecord
  2
EX_BCIR
  0
BLOCK_RECORD
  5
92
330
1
100
AcDbSymbolTableRecord
100
AcDbBlockTableRecord
  2
EX_RCIVIL
  0
BLOCK_RECORD
  5
95
330
1
100
AcDbSymbolTableRecord
100
AcDbBlockTableRecord
  2
EX_SLANT
  0
BLOCK_RECORD
  5
98
330
1
100
AcDbSymbolTableRecord
100
AcDbBlockTableRecord
  2
EX_NONE
  0
BLOCK_RECORD
  5
9B
330
1
100
AcDbSymbolTableRecord
100
AcDbBlockTableRecord
  2
EX_CIVIL
  0
BLOCK_RECORD
  5
9E
330
1
100
AcDbSymbolTableRecord
100
AcDbBlockTableRecord
  2
EX_WCIR
  0
BLOCK_RECORD
  5
A1
330
1
100
AcDbSymbolTableRecord
100
AcDbBlockTableRecord
  2
EX_WCIR2
  0
BLOCK_RECORD
  5
A4
330
1
100
AcDbSymbolTableRecord
100
AcDbBlockTableRecord
  2
EX_WNORM
  0
BLOCK_RECORD
  5
A7
330
1
100
AcDbSymbolTableRecord
100
AcDbBlockTableRecord
  2
EX_NNORM
  0
BLOCK_RECORD
  5
AA
330
1
100
AcDbSymbolTableRecord
100
AcDbBlockTableRecord
  2
EX_BBOX
  0
BLOCK_RECORD
  5
AD
330
1
100
AcDbSymbolTableRecord
100
AcDbBlockTableRecord
  2
EX_WBOX
  0
BLOCK_RECORD
  5
B0
330
1
100
AcDbSymbolTableRecord
100
AcDbBlockTableRecord
  2
EX_INTEGRAL
  0
BLOCK_RECORD
  5
12F
330
1
100
AcDbSymbolTableRecord
100
AcDbBlockTableRecord
  2
*D15
  0
BLOCK_RECORD
  5
13C
330
1
100
AcDbSymbolTableRecord
100
AcDbBlockTableRecord
  2
*D16
  0
BLOCK_RECORD
  5
148
330
1
100
AcDbSymbolTableRecord
100
AcDbBlockTableRecord
  2
*D17
  0
BLOCK_RECORD
  5
153
330
1
100
AcDbSymbolTableRecord
100
AcDbBlockTableRecord
  2
*D18
  0
BLOCK_RECORD
  5
161
330
1
100
AcDbSymbolTableRecord
100
AcDbBlockTableRecord
  2
*D19
  0
BLOCK_RECORD
  5
16D
330
1
100
AcDbSymbolTableRecord
100
AcDbBlockTableRecord
  2
*D20
  0
BLOCK_RECORD
  5
17A
330
1
100
AcDbSymbolTableRecord
100
AcDbBlockTableRecord
  2
*D21
  0
BLOCK_RECORD
  5
295
330
1
100
AcDbSymbolTableRecord
100
AcDbBlockTableRecord
  2
*D22
  0
BLOCK_RECORD
  5
2A4
330
1
100
AcDbSymbolTableRecord
100
AcDbBlockTableRecord
  2
*D23
  0
BLOCK_RECORD
  5
3C6
330
1
100
AcDbSymbolTableRecord
100
AcDbBlockTableRecord
  2
*D24
  0
BLOCK_RECORD
  5
3D3
330
1
100
AcDbSymbolTableRecord
100
AcDbBlockTableRecord
  2
*D25
  0
BLOCK_RECORD
  5
3E0
330
1
100
AcDbSymbolTableRecord
100
AcDbBlockTableRecord
  2
*D26
  0
BLOCK_RECORD
  5
445
330
1
100
AcDbSymbolTableRecord
100
AcDbBlockTableRecord
  2
*D27
  0
ENDTAB
  0
ENDSEC
  0
SECTION
  2
BLOCKS
  0
BLOCK
  5
20
330
1F
100
AcDbEntity
  8
0
100
AcDbBlockBegin
  2
*MODEL_SPACE
 70
     0
 10
0.0
 20
0.0
 30
0.0
  3
*MODEL_SPACE
  1

  0
ENDBLK
  5
21
330
1F
100
AcDbEntity
  8
0
100
AcDbBlockEnd
  0
BLOCK
  5
1C
330
1B
100
AcDbEntity
 67
     1
  8
0
100
AcDbBlockBegin
  2
*PAPER_SPACE
 70
     0
 10
0.0
 20
0.0
 30
0.0
  3
*PAPER_SPACE
  1

  0
ENDBLK
  5
1D
330
1B
100
AcDbEntity
 67
     1
  8
0
100
AcDbBlockEnd
  0
BLOCK
  5
8A
330
89
100
AcDbEntity
  8
0
100
AcDbBlockBegin
  2
EX_NORM
 70
     0
 10
0.0
 20
0.0
 30
0.0
  3
EX_NORM
  1

  0
LINE
  5
B3
330
89
100
AcDbEntity
  8
0
  6
CONTINUOUS
 62
     0
100
AcDbLine
 10
0.0
 20
0.0
 30
0.0
 11
-1.0
 21
0.0
 31
0.0
  0
LINE
  5
B4
330
89
100
AcDbEntity
  8
0
  6
CONTINUOUS
 62
     0
100
AcDbLine
 10
0.0
 20
0.0
 30
0.0
 11
-1.0
 21
0.166666667
 31
0.0
  0
LINE
  5
B5
330
89
100
AcDbEntity
  8
0
  6
CONTINUOUS
 62
     0
100
AcDbLine
 10
0.0
 20
0.0
 30
0.0
 11
-1.0
 21
-0.166666667
 31
0.0
  0
ENDBLK
  5
8B
330
89
100
AcDbEntity
  8
0
100
AcDbBlockEnd
  0
BLOCK
  5
8D
330
8C
100
AcDbEntity
  8
0
100
AcDbBlockBegin
  2
EX_BNORM
 70
     0
 10
0.0
 20
0.0
 30
0.0
  3
EX_BNORM
  1

  0
LINE
  5
B6
330
8C
100
AcDbEntity
  8
0
  6
CONTINUOUS
 62
     0
100
AcDbLine
 10
0.0
 20
0.0
 30
0.0
 11
-1.0
 21
0.0
 31
0.0
  0
LINE
  5
B7
330
8C
100
AcDbEntity
  8
0
  6
CONTINUOUS
 62
     0
100
AcDbLine
 10
0.0
 20
0.0
 30
0.0
 11
-1.0
 21
0.166666667
 31
0.0
  0
LINE
  5
B8
330
8C
100
AcDbEntity
  8
0
  6
CONTINUOUS
 62
     0
100
AcDbLine
 10
0.0
 20
0.0
 30
0.0
 11
-1.0
 21
-0.166666667
 31
0.0
  0
LINE
  5
B9
330
8C
100
AcDbEntity
  8
0
  6
CONTINUOUS
 62
     0
100
AcDbLine
 10
0.0
 20
0.0
 30
0.0
 11
-1.0
 21
0.083333333
 31
0.0
  0
LINE
  5
BA
330
8C
100
AcDbEntity
  8
0
  6
CONTINUOUS
 62
     0
100
AcDbLine
 10
0.0
 20
0.0
 30
0.0
 11
-1.0
 21
-0.083333333
 31
0.0
  0
LINE
  5
BB
330
8C
100
AcDbEntity
  8
0
  6
CONTINUOUS
 62
     0
100
AcDbLine
 10
-1.0
 20
0.166666667
 30
0.0
 11
-1.0
 21
-0.166666667
 31
0.0
  0
ENDBLK
  5
8E
330
8C
100
AcDbEntity
  8
0
100
AcDbBlockEnd
  0
BLOCK
  5
90
330
8F
100
AcDbEntity
  8
0
100
AcDbBlockBegin
  2
EX_BCIR
 70
     0
 10
0.0
 20
0.0
 30
0.0
  3
EX_BCIR
  1

  0
LINE
  5
BC
330
8F
100
AcDbEntity
  8
0
  6
CONTINUOUS
 62
     0
100
AcDbLine
 10
0.0
 20
0.0
 30
0.0
 11
-1.0
 21
0.0
 31
0.0
  0
CIRCLE
  5
BD
330
8F
100
AcDbEntity
  8
0
  6
CONTINUOUS
 62
     0
100
AcDbCircle
 10
0.0
 20
0.0
 30
0.0
 40
0.5
  0
CIRCLE
  5
BE
330
8F
100
AcDbEntity
  8
0
  6
CONTINUOUS
 62
     0
100
AcDbCircle
 10
0.0
 20
0.0
 30
0.0
 40
0.25
  0
ENDBLK
  5
91
330
8F
100
AcDbEntity
  8
0
100
AcDbBlockEnd
  0
BLOCK
  5
93
330
92
100
AcDbEntity
  8
0
100
AcDbBlockBegin
  2
EX_RCIVIL
 70
     0
 10
0.0
 20
0.0
 30
0.0
  3
EX_RCIVIL
  1

  0
LINE
  5
BF
330
92
100
AcDbEntity
  8
0
  6
CONTINUOUS
 62
     0
100
AcDbLine
 10
0.0
 20
0.0
 30
0.0
 11
-1.0
 21
0.0
 31
0.0
  0
LINE
  5
C0
330
92
100
AcDbEntity
  8
0
  6
CONTINUOUS
 62
     0
100
AcDbLine
 10
-1.0
 20
-0.25
 30
0.0
 11
0.0
 21
-0.25
 31
0.0
  0
LINE
  5
C1
330
92
100
AcDbEntity
  8
0
  6
CONTINUOUS
 62
     0
100
AcDbLine
 10
-1.0
 20
-0.125
 30
0.0
 11
0.0
 21
-0.125
 31
0.0
  0
ENDBLK
  5
94
330
92
100
AcDbEntity
  8
0
100
AcDbBlockEnd
  0
BLOCK
  5
96
330
95
100
AcDbEntity
  8
0
100
AcDbBlockBegin
  2
EX_SLANT
 70
     0
 10
0.0
 20
0.0
 30
0.0
  3
EX_SLANT
  1

  0
LINE
  5
C2
330
95
100
AcDbEntity
  8
0
  6
CONTINUOUS
 62
     0
100
AcDbLine
 10
0.0
 20
0.0
 30
0.0
 11
-1.0
 21
0.0
 31
0.0
  0
LINE
  5
C3
330
95
100
AcDbEntity
  8
0
  6
CONTINUOUS
 62
     0
100
AcDbLine
 10
0.707106781
 20
0.707106781
 30
0.0
 11
-0.707106781
 21
-0.707106781
 31
0.0
  0
ENDBLK
  5
97
330
95
100
AcDbEntity
  8
0
100
AcDbBlockEnd
  0
BLOCK
  5
99
330
98
100
AcDbEntity
  8
0
100
AcDbBlockBegin
  2
EX_NONE
 70
     0
 10
0.0
 20
0.0
 30
0.0
  3
EX_NONE
  1

  0
LINE
  5
C4
330
98
100
AcDbEntity
  8
0
  6
CONTINUOUS
 62
     0
100
AcDbLine
 10
0.0
 20
0.0
 30
0.0
 11
-1.0
 21
0.0
 31
0.0
  0
ENDBLK
  5
9A
330
98
100
AcDbEntity
  8
0
100
AcDbBlockEnd
  0
BLOCK
  5
9C
330
9B
100
AcDbEntity
  8
0
100
AcDbBlockBegin
  2
EX_CIVIL
 70
     0
 10
0.0
 20
0.0
 30
0.0
  3
EX_CIVIL
  1

  0
LINE
  5
C5
330
9B
100
AcDbEntity
  8
0
  6
CONTINUOUS
 62
     0
100
AcDbLine
 10
0.0
 20
0.0
 30
0.0
 11
-1.0
 21
0.0
 31
0.0
  0
LINE
  5
C6
330
9B
100
AcDbEntity
  8
0
  6
CONTINUOUS
 62
     0
100
AcDbLine
 10
-1.0
 20
0.25
 30
0.0
 11
0.0
 21
0.25
 31
0.0
  0
LINE
  5
C7
330
9B
100
AcDbEntity
  8
0
  6
CONTINUOUS
 62
     0
100
AcDbLine
 10
-1.0
 20
0.125
 30
0.0
 11
0.0
 21
0.125
 31
0.0
  0
ENDBLK
  5
9D
330
9B
100
AcDbEntity
  8
0
100
AcDbBlockEnd
  0
BLOCK
  5
9F
330
9E
100
AcDbEntity
  8
0
100
AcDbBlockBegin
  2
EX_WCIR
 70
     0
 10
0.0
 20
0.0
 30
0.0
  3
EX_WCIR
  1

  0
LINE
  5
C8
330
9E
100
AcDbEntity
  8
0
  6
CONTINUOUS
 62
     0
100
AcDbLine
 10
0.0
 20
0.0
 30
0.0
 11
-1.0
 21
0.0
 31
0.0
  0
CIRCLE
  5
C9
330
9E
100
AcDbEntity
  8
0
  6
CONTINUOUS
 62
     0
100
AcDbCircle
 10
0.0
 20
0.0
 30
0.0
 40
0.5
  0
ENDBLK
  5
A0
330
9E
100
AcDbEntity
  8
0
100
AcDbBlockEnd
  0
BLOCK
  5
A2
330
A1
100
AcDbEntity
  8
0
100
AcDbBlockBegin
  2
EX_WCIR2
 70
     0
 10
0.0
 20
0.0
 30
0.0
  3
EX_WCIR2
  1

  0
LINE
  5
CA
330
A1
100
AcDbEntity
  8
0
  6
CONTINUOUS
 62
     0
100
AcDbLine
 10
-0.5
 20
0.0
 30
0.0
 11
-1.0
 21
0.0
 31
0.0
  0
CIRCLE
  5
CB
330
A1
100
AcDbEntity
  8
0
  6
CONTINUOUS
 62
     0
100
AcDbCircle
 10
0.0
 20
0.0
 30
0.0
 40
0.5
  0
ENDBLK
  5
A3
330
A1
100
AcDbEntity
  8
0
100
AcDbBlockEnd
  0
BLOCK
  5
A5
330
A4
100
AcDbEntity
  8
0
100
AcDbBlockBegin
  2
EX_WNORM
 70
     0
 10
0.0
 20
0.0
 30
0.0
  3
EX_WNORM
  1

  0
LINE
  5
CC
330
A4
100
AcDbEntity
  8
0
  6
CONTINUOUS
 62
     0
100
AcDbLine
 10
-1.0
 20
0.0
 30
0.0
 11
-1.0
 21
0.0
 31
0.0
  0
LINE
  5
CD
330
A4
100
AcDbEntity
  8
0
  6
CONTINUOUS
 62
     0
100
AcDbLine
 10
0.0
 20
0.0
 30
0.0
 11
-1.0
 21
0.166666667
 31
0.0
  0
LINE
  5
CE
330
A4
100
AcDbEntity
  8
0
  6
CONTINUOUS
 62
     0
100
AcDbLine
 10
0.0
 20
0.0
 30
0.0
 11
-1.0
 21
-0.166666667
 31
0.0
  0
LINE
  5
CF
330
A4
100
AcDbEntity
  8
0
  6
CONTINUOUS
 62
     0
100
AcDbLine
 10
-1.0
 20
0.166666667
 30
0.0
 11
-1.0
 21
-0.166666667
 31
0.0
  0
ENDBLK
  5
A6
330
A4
100
AcDbEntity
  8
0
100
AcDbBlockEnd
  0
BLOCK
  5
A8
330
A7
100
AcDbEntity
  8
0
100
AcDbBlockBegin
  2
EX_NNORM
 70
     0
 10
0.0
 20
0.0
 30
0.0
  3
EX_NNORM
  1

  0
LINE
  5
D0
330
A7
100
AcDbEntity
  8
0
  6
CONTINUOUS
 62
     0
100
AcDbLine
 10
0.0
 20
0.0
 30
0.0
 11
-1.0
 21
0.0
 31
0.0
  0
LINE
  5
D1
330
A7
100
AcDbEntity
  8
0
  6
CONTINUOUS
 62
     0
100
AcDbLine
 10
0.0
 20
0.0
 30
0.0
 11
-1.0
 21
0.166666667
 31
0.0
  0
LINE
  5
D2
330
A7
100
AcDbEntity
  8
0
  6
CONTINUOUS
 62
     0
100
AcDbLine
 10
0.0
 20
0.0
 30
0.0
 11
-1.0
 21
-0.166666667
 31
0.0
  0
LINE
  5
D3
330
A7
100
AcDbEntity
  8
0
  6
CONTINUOUS
 62
     0
100
AcDbLine
 10
-1.0
 20
0.166666667
 30
0.0
 11
-1.0
 21
-0.166666667
 31
0.0
  0
ENDBLK
  5
A9
330
A7
100
AcDbEntity
  8
0
100
AcDbBlockEnd
  0
BLOCK
  5
AB
330
AA
100
AcDbEntity
  8
0
100
AcDbBlockBegin
  2
EX_BBOX
 70
     0
 10
0.0
 20
0.0
 30
0.0
  3
EX_BBOX
  1

  0
LINE
  5
D4
330
AA
100
AcDbEntity
  8
0
  6
CONTINUOUS
 62
     0
100
AcDbLine
 10
0.0
 20
0.0
 30
0.0
 11
-1.0
 21
0.0
 31
0.0
  0
LINE
  5
D5
330
AA
100
AcDbEntity
  8
0
  6
CONTINUOUS
 62
     0
100
AcDbLine
 10
-0.5
 20
0.5
 30
0.0
 11
0.5
 21
0.5
 31
0.0
  0
LINE
  5
D6
330
AA
100
AcDbEntity
  8
0
  6
CONTINUOUS
 62
     0
100
AcDbLine
 10
0.5
 20
0.5
 30
0.0
 11
0.5
 21
-0.5
 31
0.0
  0
LINE
  5
D7
330
AA
100
AcDbEntity
  8
0
  6
CONTINUOUS
 62
     0
100
AcDbLine
 10
0.5
 20
-0.5
 30
0.0
 11
-0.5
 21
-0.5
 31
0.0
  0
LINE
  5
D8
330
AA
100
AcDbEntity
  8
0
  6
CONTINUOUS
 62
     0
100
AcDbLine
 10
-0.5
 20
-0.5
 30
0.0
 11
-0.5
 21
0.5
 31
0.0
  0
LINE
  5
D9
330
AA
100
AcDbEntity
  8
0
  6
CONTINUOUS
 62
     0
100
AcDbLine
 10
-0.25
 20
0.25
 30
0.0
 11
0.25
 21
0.25
 31
0.0
  0
LINE
  5
DA
330
AA
100
AcDbEntity
  8
0
  6
CONTINUOUS
 62
     0
100
AcDbLine
 10
0.25
 20
0.25
 30
0.0
 11
0.25
 21
-0.25
 31
0.0
  0
LINE
  5
DB
330
AA
100
AcDbEntity
  8
0
  6
CONTINUOUS
 62
     0
100
AcDbLine
 10
0.25
 20
-0.25
 30
0.0
 11
-0.25
 21
-0.25
 31
0.0
  0
LINE
  5
DC
330
AA
100
AcDbEntity
  8
0
  6
CONTINUOUS
 62
     0
100
AcDbLine
 10
-0.25
 20
-0.25
 30
0.0
 11
-0.25
 21
0.25
 31
0.0
  0
ENDBLK
  5
AC
330
AA
100
AcDbEntity
  8
0
100
AcDbBlockEnd
  0
BLOCK
  5
AE
330
AD
100
AcDbEntity
  8
0
100
AcDbBlockBegin
  2
EX_WBOX
 70
     0
 10
0.0
 20
0.0
 30
0.0
  3
EX_WBOX
  1

  0
LINE
  5
DD
330
AD
100
AcDbEntity
  8
0
  6
CONTINUOUS
 62
     0
100
AcDbLine
 10
-0.5
 20
0.0
 30
0.0
 11
-1.0
 21
0.0
 31
0.0
  0
LINE
  5
DE
330
AD
100
AcDbEntity
  8
0
  6
CONTINUOUS
 62
     0
100
AcDbLine
 10
-0.5
 20
0.5
 30
0.0
 11
0.5
 21
0.5
 31
0.0
  0
LINE
  5
DF
330
AD
100
AcDbEntity
  8
0
  6
CONTINUOUS
 62
     0
100
AcDbLine
 10
0.5
 20
0.5
 30
0.0
 11
0.5
 21
-0.5
 31
0.0
  0
LINE
  5
E0
330
AD
100
AcDbEntity
  8
0
  6
CONTINUOUS
 62
     0
100
AcDbLine
 10
0.5
 20
-0.5
 30
0.0
 11
-0.5
 21
-0.5
 31
0.0
  0
LINE
  5
E1
330
AD
100
AcDbEntity
  8
0
  6
CONTINUOUS
 62
     0
100
AcDbLine
 10
-0.5
 20
-0.5
 30
0.0
 11
-0.5
 21
0.5
 31
0.0
  0
ENDBLK
  5
AF
330
AD
100
AcDbEntity
  8
0
100
AcDbBlockEnd
  0
BLOCK
  5
B1
330
B0
100
AcDbEntity
  8
0
100
AcDbBlockBegin
  2
EX_INTEGRAL
 70
     0
 10
0.0
 20
0.0
 30
0.0
  3
EX_INTEGRAL
  1

  0
LINE
  5
E2
330
B0
100
AcDbEntity
  8
0
  6
CONTINUOUS
 62
     0
100
AcDbLine
 10
0.0
 20
0.0
 30
0.0
 11
-1.0
 21
0.0
 31
0.0
  0
ARC
  5
E3
330
B0
100
AcDbEntity
  8
0
  6
CONTINUOUS
 62
     0
100
AcDbCircle
 10
0.542115
 20
0.164992
 30
0.0
 40
0.56667
100
AcDbArc
 50
73.07249033629006
 51
196.9275130221199
  0
ARC
  5
E4
330
B0
100
AcDbEntity
  8
0
  6
CONTINUOUS
 62
     0
100
AcDbCircle
 10
-0.542115
 20
-0.164992
 30
0.0
 40
0.56667
100
AcDbArc
 50
253.0724869220464
 51
16.9275130559125
  0
ENDBLK
  5
B2
330
B0
100
AcDbEntity
  8
0
100
AcDbBlockEnd
  0
BLOCK
  5
130
330
12F
100
AcDbEntity
  8
0
100
AcDbBlockBegin
  2
*D15
 70
     1
 10
0.0
 20
0.0
 30
0.0
  3
*D15
  1

  0
LINE
  5
132
330
12F
100
AcDbEntity
  8
S_1_1
  6
CONTINUOUS
 62
     2
100
AcDbLine
 10
500.2508868243274
 20
384.9999894425667
 30
0.0
 11
462.5
 21
384.9999894425667
 31
0.0
  0
LINE
  5
133
330
12F
100
AcDbEntity
  8
S_1_1
  6
CONTINUOUS
 62
     2
100
AcDbLine
 10
500.2508868243274
 20
214.9999788851343
 30
0.0
 11
462.5
 21
214.9999788851343
 31
0.0
  0
LINE
  5
134
330
12F
100
AcDbEntity
  8
S_1_1
  6
CONTINUOUS
 62
     2
100
AcDbLine
 10
465.0
 20
377.4999894425667
 30
0.0
 11
465.0
 21
222.4999788851343
 31
0.0
  0
INSERT
  5
135
330
12F
100
AcDbEntity
  8
S_1_1
 62
     2
100
AcDbBlockReference
  2
EX_NORM
 10
465.0
 20
384.9999894425667
 30
0.0
 41
7.5
 42
7.5
 43
7.5
 50
90.0
  0
INSERT
  5
136
330
12F
100
AcDbEntity
  8
S_1_1
 62
     2
100
AcDbBlockReference
  2
EX_NORM
 10
465.0
 20
214.9999788851343
 30
0.0
 41
7.5
 42
7.5
 43
7.5
 50
270.0
  0
MTEXT
  5
137
330
12F
100
AcDbEntity
  8
S_1_1
 62
     2
100
AcDbMText
 10
458.125
 20
299.9999841638505
 30
0.0
 40
8.6572603926097
 41
0.0
 71
     5
 72
     1
  1
%%c170
  7
EXCADDIM1
 11
0.0
 21
1.0
 31
0.0
  0
POINT
  5
138
330
12F
100
AcDbEntity
  8
DEFPOINTS
 62
     0
100
AcDbPoint
 10
504.0008868243274
 20
384.9999894425667
 30
0.0
  0
POINT
  5
139
330
12F
100
AcDbEntity
  8
DEFPOINTS
 62
     0
100
AcDbPoint
 10
504.0008868243274
 20
214.9999788851343
 30
0.0
  0
POINT
  5
13A
330
12F
100
AcDbEntity
  8
DEFPOINTS
 62
     0
100
AcDbPoint
 10
465.0
 20
214.9999788851343
 30
0.0
  0
ENDBLK
  5
131
330
12F
100
AcDbEntity
  8
0
100
AcDbBlockEnd
  0
BLOCK
  5
13D
330
13C
100
AcDbEntity
  8
0
100
AcDbBlockBegin
  2
*D16
 70
     1
 10
0.0
 20
0.0
 30
0.0
  3
*D16
  1

  0
LINE
  5
13F
330
13C
100
AcDbEntity
  8
S_1_1
  6
CONTINUOUS
 62
     2
100
AcDbLine
 10
797.7506123310841
 20
209.9998416385126
 30
0.0
 11
842.5
 21
209.9998416385126
 31
0.0
  0
LINE
  5
140
330
13C
100
AcDbEntity
  8
S_1_1
  6
CONTINUOUS
 62
     2
100
AcDbLine
 10
840.0
 20
382.4993982263505
 30
0.0
 11
840.0
 21
217.4998416385126
 31
0.0
  0
INSERT
  5
141
330
13C
100
AcDbEntity
  8
S_1_1
 62
     2
100
AcDbBlockReference
  2
EX_NORM
 10
840.0
 20
389.9993982263505
 30
0.0
 41
7.5
 42
7.5
 43
7.5
 50
90.0
  0
INSERT
  5
142
330
13C
100
AcDbEntity
  8
S_1_1
 62
     2
100
AcDbBlockReference
  2
EX_NORM
 10
840.0
 20
209.9998416385126
 30
0.0
 41
7.5
 42
7.5
 43
7.5
 50
270.0
  0
MTEXT
  5
143
330
13C
100
AcDbEntity
  8
S_1_1
 62
     2
100
AcDbMText
 10
833.125
 20
299.9996199324316
 30
0.0
 40
8.6572603926097
 41
0.0
 71
     5
 72
     1
  1
%%c180
  7
EXCADDIM1
 11
0.0
 21
1.0
 31
0.0
  0
POINT
  5
144
330
13C
100
AcDbEntity
  8
DEFPOINTS
 62
     0
100
AcDbPoint
 10
794.0006123310841
 20
389.9993982263505
 30
0.0
  0
POINT
  5
145
330
13C
100
AcDbEntity
  8
DEFPOINTS
 62
     0
100
AcDbPoint
 10
794.0006123310841
 20
209.9998416385126
 30
0.0
  0
POINT
  5
146
330
13C
100
AcDbEntity
  8
DEFPOINTS
 62
     0
100
AcDbPoint
 10
840.0
 20
209.9998416385126
 30
0.0
  0
ENDBLK
  5
13E
330
13C
100
AcDbEntity
  8
0
100
AcDbBlockEnd
  0
BLOCK
  5
149
330
148
100
AcDbEntity
  8
0
100
AcDbBlockBegin
  2
*D17
 70
     1
 10
0.0
 20
0.0
 30
0.0
  3
*D17
  1

  0
LINE
  5
14B
330
148
100
AcDbEntity
  8
S_1_1
  6
CONTINUOUS
 62
     2
100
AcDbLine
 10
787.5
 20
165.0
 30
0.0
 11
552.50001055744
 21
165.0
 31
0.0
  0
INSERT
  5
14C
330
148
100
AcDbEntity
  8
S_1_1
 62
     2
100
AcDbBlockReference
  2
EX_NORM
 10
795.0
 20
165.0
 30
0.0
 41
7.5
 42
7.5
 43
7.5
  0
INSERT
  5
14D
330
148
100
AcDbEntity
  8
S_1_1
 62
     2
100
AcDbBlockReference
  2
EX_NORM
 10
545.00001055744
 20
165.0
 30
0.0
 41
7.5
 42
7.5
 43
7.5
 50
180.0
  0
MTEXT
  5
14E
330
148
100
AcDbEntity
  8
S_1_1
 62
     2
100
AcDbMText
 10
670.00000527872
 20
171.875
 30
0.0
 40
8.6572603926097
 41
0.0
 71
     5
 72
     1
  1
250
  7
EXCADDIM1
  0
POINT
  5
14F
330
148
100
AcDbEntity
  8
DEFPOINTS
 62
     0
100
AcDbPoint
 10
795.0
 20
210.99929265203
 30
0.0
  0
POINT
  5
150
330
148
100
AcDbEntity
  8
DEFPOINTS
 62
     0
100
AcDbPoint
 10
545.00001055744
 20
211.99953547297
 30
0.0
  0
POINT
  5
151
330
148
100
AcDbEntity
  8
DEFPOINTS
 62
     0
100
AcDbPoint
 10
545.00001055744
 20
165.0
 30
0.0
  0
ENDBLK
  5
14A
330
148
100
AcDbEntity
  8
0
100
AcDbBlockEnd
  0
BLOCK
  5
154
330
153
100
AcDbEntity
  8
0
100
AcDbBlockBegin
  2
*D18
 70
     1
 10
0.0
 20
0.0
 30
0.0
  3
*D18
  1

  0
LINE
  5
156
330
153
100
AcDbEntity
  8
S_1_1
  6
CONTINUOUS
 62
     2
100
AcDbLine
 10
545.00001055744
 20
208.24953547297
 30
0.0
 11
545.00001055744
 21
162.5
 31
0.0
  0
LINE
  5
157
330
153
100
AcDbEntity
  8
S_1_1
  6
CONTINUOUS
 62
     2
100
AcDbLine
 10
545.00001055744
 20
165.0
 30
0.0
 11
535.00090793919
 21
165.0
 31
0.0
  0
LINE
  5
158
330
153
100
AcDbEntity
  8
S_1_1
  6
CONTINUOUS
 62
     2
100
AcDbLine
 10
552.50001055744
 20
165.0
 30
0.0
 11
560.00001055744
 21
165.0
 31
0.0
  0
LINE
  5
159
330
153
100
AcDbEntity
  8
S_1_1
  6
CONTINUOUS
 62
     2
100
AcDbLine
 10
527.50090793919
 20
165.0
 30
0.0
 11
520.00090793919
 21
165.0
 31
0.0
  0
INSERT
  5
15A
330
153
100
AcDbEntity
  8
S_1_1
 62
     2
100
AcDbBlockReference
  2
EX_NORM
 10
545.00001055744
 20
165.0
 30
0.0
 41
7.5
 42
7.5
 43
7.5
 50
180.0
  0
INSERT
  5
15B
330
153
100
AcDbEntity
  8
S_1_1
 62
     2
100
AcDbBlockReference
  2
EX_NORM
 10
535.00090793919
 20
165.0
 30
0.0
 41
7.5
 42
7.5
 43
7.5
  0
MTEXT
  5
15C
330
153
100
AcDbEntity
  8
S_1_1
 62
     2
100
AcDbMText
 10
540.000459248315
 20
171.875
 30
0.0
 40
8.6572603926097
 41
0.0
 71
     5
 72
     1
  1
10
  7
EXCADDIM1
  0
POINT
  5
15D
330
153
100
AcDbEntity
  8
DEFPOINTS
 62
     0
100
AcDbPoint
 10
545.00001055744
 20
211.99953547297
 30
0.0
  0
POINT
  5
15E
330
153
100
AcDbEntity
  8
DEFPOINTS
 62
     0
100
AcDbPoint
 10
535.00090793919
 20
241.73203125
 30
0.0
  0
POINT
  5
15F
330
153
100
AcDbEntity
  8
DEFPOINTS
 62
     0
100
AcDbPoint
 10
535.00090793919
 20
165.0
 30
0.0
  0
ENDBLK
  5
155
330
153
100
AcDbEntity
  8
0
100
AcDbBlockEnd
  0
BLOCK
  5
162
330
161
100
AcDbEntity
  8
0
100
AcDbBlockBegin
  2
*D19
 70
     1
 10
0.0
 20
0.0
 30
0.0
  3
*D19
  1

  0
LINE
  5
164
330
161
100
AcDbEntity
  8
S_1_1
  6
CONTINUOUS
 62
     2
100
AcDbLine
 10
535.00090793919
 20
237.98203125
 30
0.0
 11
535.00090793919
 21
162.5
 31
0.0
  0
LINE
  5
165
330
161
100
AcDbEntity
  8
S_1_1
  6
CONTINUOUS
 62
     2
100
AcDbLine
 10
527.50090793919
 20
165.0
 30
0.0
 11
509.50090793919
 21
165.0
 31
0.0
  0
INSERT
  5
166
330
161
100
AcDbEntity
  8
S_1_1
 62
     2
100
AcDbBlockReference
  2
EX_NORM
 10
535.00090793919
 20
165.0
 30
0.0
 41
7.5
 42
7.5
 43
7.5
  0
INSERT
  5
167
330
161
100
AcDbEntity
  8
S_1_1
 62
     2
100
AcDbBlockReference
  2
EX_NORM
 10
502.00090793919
 20
165.0
 30
0.0
 41
7.5
 42
7.5
 43
7.5
 50
180.0
  0
MTEXT
  5
168
330
161
100
AcDbEntity
  8
S_1_1
 62
     2
100
AcDbMText
 10
518.50090793919
 20
171.875
 30
0.0
 40
8.6572603926097
 41
0.0
 71
     5
 72
     1
  1
33
  7
EXCADDIM1
  0
POINT
  5
169
330
161
100
AcDbEntity
  8
DEFPOINTS
 62
     0
100
AcDbPoint
 10
535.00090793919
 20
241.73203125
 30
0.0
  0
POINT
  5
16A
330
161
100
AcDbEntity
  8
DEFPOINTS
 62
     0
100
AcDbPoint
 10
502.00090793919
 20
216.99998944257
 30
0.0
  0
POINT
  5
16B
330
161
100
AcDbEntity
  8
DEFPOINTS
 62
     0
100
AcDbPoint
 10
502.00090793919
 20
165.0
 30
0.0
  0
ENDBLK
  5
163
330
161
100
AcDbEntity
  8
0
100
AcDbBlockEnd
  0
BLOCK
  5
16E
330
16D
100
AcDbEntity
  8
0
100
AcDbBlockBegin
  2
*D20
 70
     1
 10
0.0
 20
0.0
 30
0.0
  3
*D20
  1

  0
LINE
  5
170
330
16D
100
AcDbEntity
  8
S_1_1
  6
CONTINUOUS
 62
     2
100
AcDbLine
 10
502.00090793919
 20
213.24998944257
 30
0.0
 11
502.00090793919
 21
147.5
 31
0.0
  0
LINE
  5
171
330
16D
100
AcDbEntity
  8
S_1_1
  6
CONTINUOUS
 62
     2
100
AcDbLine
 10
795.0
 20
207.24929265203
 30
0.0
 11
795.0
 21
147.5
 31
0.0
  0
LINE
  5
172
330
16D
100
AcDbEntity
  8
S_1_1
  6
CONTINUOUS
 62
     2
100
AcDbLine
 10
509.50090793919
 20
150.0
 30
0.0
 11
787.5
 21
150.0
 31
0.0
  0
INSERT
  5
173
330
16D
100
AcDbEntity
  8
S_1_1
 62
     2
100
AcDbBlockReference
  2
EX_NORM
 10
502.00090793919
 20
150.0
 30
0.0
 41
7.5
 42
7.5
 43
7.5
 50
180.0
  0
INSERT
  5
174
330
16D
100
AcDbEntity
  8
S_1_1
 62
     2
100
AcDbBlockReference
  2
EX_NORM
 10
795.0
 20
150.0
 30
0.0
 41
7.5
 42
7.5
 43
7.5
  0
MTEXT
  5
175
330
16D
100
AcDbEntity
  8
S_1_1
 62
     2
100
AcDbMText
 10
648.500453969595
 20
156.875
 30
0.0
 40
8.6572603926097
 41
0.0
 71
     5
 72
     1
  1
293
  7
EXCADDIM1
  0
POINT
  5
176
330
16D
100
AcDbEntity
  8
DEFPOINTS
 62
     0
100
AcDbPoint
 10
502.00090793919
 20
216.99998944257
 30
0.0
  0
POINT
  5
177
330
16D
100
AcDbEntity
  8
DEFPOINTS
 62
     0
100
AcDbPoint
 10
795.0
 20
210.99929265203
 30
0.0
  0
POINT
  5
178
330
16D
100
AcDbEntity
  8
DEFPOINTS
 62
     0
100
AcDbPoint
 10
795.0
 20
150.0
 30
0.0
  0
ENDBLK
  5
16F
330
16D
100
AcDbEntity
  8
0
100
AcDbBlockEnd
  0
BLOCK
  5
17B
330
17A
100
AcDbEntity
  8
0
100
AcDbBlockBegin
  2
*D21
 70
     1
 10
0.0
 20
0.0
 30
0.0
  3
*D21
  1

  0
LINE
  5
17D
330
17A
100
AcDbEntity
  8
S_1_1
  6
CONTINUOUS
 62
     2
100
AcDbLine
 10
797.75061233108
 20
389.99939822635
 30
0.0
 11
842.5
 21
389.99939822635
 31
0.0
  0
LINE
  5
17E
330
17A
100
AcDbEntity
  8
S_1_1
  6
CONTINUOUS
 62
     2
100
AcDbLine
 10
710.75111908784
 20
490.3617504223
 30
0.0
 11
842.5
 21
490.3617504223
 31
0.0
  0
LINE
  5
17F
330
17A
100
AcDbEntity
  8
S_1_1
  6
CONTINUOUS
 62
     2
100
AcDbLine
 10
840.0
 20
397.49939822635
 30
0.0
 11
840.0
 21
482.8617504223
 31
0.0
  0
INSERT
  5
180
330
17A
100
AcDbEntity
  8
S_1_1
 62
     2
100
AcDbBlockReference
  2
EX_NORM
 10
840.0
 20
389.99939822635
 30
0.0
 41
7.5
 42
7.5
 43
7.5
 50
270.0
  0
INSERT
  5
181
330
17A
100
AcDbEntity
  8
S_1_1
 62
     2
100
AcDbBlockReference
  2
EX_NORM
 10
840.0
 20
490.3617504223
 30
0.0
 41
7.5
 42
7.5
 43
7.5
 50
90.0
  0
MTEXT
  5
182
330
17A
100
AcDbEntity
  8
S_1_1
 62
     2
100
AcDbMText
 10
833.125
 20
440.1805743243251
 30
0.0
 40
8.6572603926097
 41
0.0
 71
     5
 72
     1
  1
(100)
  7
EXCADDIM1
 11
0.0
 21
1.0
 31
0.0
  0
POINT
  5
183
330
17A
100
AcDbEntity
  8
DEFPOINTS
 62
     0
100
AcDbPoint
 10
794.00061233108
 20
389.99939822635
 30
0.0
  0
POINT
  5
184
330
17A
100
AcDbEntity
  8
DEFPOINTS
 62
     0
100
AcDbPoint
 10
707.00111908784
 20
490.3617504223
 30
0.0
  0
POINT
  5
185
330
17A
100
AcDbEntity
  8
DEFPOINTS
 62
     0
100
AcDbPoint
 10
840.0
 20
490.3617504223
 30
0.0
  0
ENDBLK
  5
17C
330
17A
100
AcDbEntity
  8
0
100
AcDbBlockEnd
  0
BLOCK
  5
296
330
295
100
AcDbEntity
  8
0
100
AcDbBlockBegin
  2
*D22
 70
     1
 10
0.0
 20
0.0
 30
0.0
  3
*D22
  1

  0
LINE
  5
298
330
295
100
AcDbEntity
  8
S_1_1
  6
CONTINUOUS
 62
     2
100
AcDbLine
 10
155.73769003379
 20
324.24941934122
 30
0.0
 11
155.73769003379
 21
527.5
 31
0.0
  0
LINE
  5
299
330
295
100
AcDbEntity
  8
S_1_1
  6
CONTINUOUS
 62
     2
100
AcDbLine
 10
414.26226245777
 20
324.24941934122
 30
0.0
 11
414.26226245777
 21
527.5
 31
0.0
  0
LINE
  5
29A
330
295
100
AcDbEntity
  8
S_1_1
  6
CONTINUOUS
 62
     2
100
AcDbLine
 10
163.23769003379
 20
525.0
 30
0.0
 11
406.76226245777
 21
525.0
 31
0.0
  0
INSERT
  5
29B
330
295
100
AcDbEntity
  8
S_1_1
 62
     2
100
AcDbBlockReference
  2
EX_NORM
 10
155.73769003379
 20
525.0
 30
0.0
 41
7.5
 42
7.5
 43
7.5
 50
180.0
  0
INSERT
  5
29C
330
295
100
AcDbEntity
  8
S_1_1
 62
     2
100
AcDbBlockReference
  2
EX_NORM
 10
414.26226245777
 20
525.0
 30
0.0
 41
7.5
 42
7.5
 43
7.5
  0
MTEXT
  5
29D
330
295
100
AcDbEntity
  8
S_1_1
 62
     2
100
AcDbMText
 10
284.99997624578
 20
531.875
 30
0.0
 40
8.6572603926097
 41
0.0
 71
     5
 72
     1
  1
258.5
  7
EXCADDIM1
  0
POINT
  5
29E
330
295
100
AcDbEntity
  8
DEFPOINTS
 62
     0
100
AcDbPoint
 10
155.73769003379
 20
320.49941934122
 30
0.0
  0
POINT
  5
29F
330
295
100
AcDbEntity
  8
DEFPOINTS
 62
     0
100
AcDbPoint
 10
414.26226245777
 20
320.49941934122
 30
0.0
  0
POINT
  5
2A0
330
295
100
AcDbEntity
  8
DEFPOINTS
 62
     0
100
AcDbPoint
 10
414.26226245777
 20
525.0
 30
0.0
  0
ENDBLK
  5
297
330
295
100
AcDbEntity
  8
0
100
AcDbBlockEnd
  0
BLOCK
  5
2A5
330
2A4
100
AcDbEntity
  8
0
100
AcDbBlockBegin
  2
*D23
 70
     1
 10
0.0
 20
0.0
 30
0.0
  3
*D23
  1

  0
LINE
  5
2A7
330
2A4
100
AcDbEntity
  8
S_1_1
  6
CONTINUOUS
 62
     2
100
AcDbLine
 10
332.7297077300939
 20
347.729707730092
 30
0.0
 11
387.3808140880758
 21
402.3808140880762
 31
0.0
  0
LINE
  5
2A8
330
2A4
100
AcDbEntity
  8
S_1_1
  6
CONTINUOUS
 62
     2
100
AcDbLine
 10
237.270292269912
 20
252.2702922699061
 30
0.0
 11
231.966991411013
 21
246.9669914110069
 31
0.0
  0
MTEXT
  5
2A9
330
2A4
100
AcDbEntity
  8
S_1_1
 62
     2
100
AcDbMText
 10
365.0130952729235
 20
387.9047662199993
 30
0.0
 40
8.6572603926097
 41
0.0
 71
     5
 72
     1
  1
P.C.D 120
  7
EXCADDIM1
 11
0.7071067811865326
 21
0.7071067811865623
 31
0.0
  0
LINE
  5
2AA
330
2A4
100
AcDbEntity
  8
S_1_1
  6
CONTINUOUS
 62
     2
100
AcDbLine
 10
242.573593128811
 20
257.5735931288053
 30
0.0
 11
327.4264068711949
 21
342.4264068711928
 31
0.0
  0
INSERT
  5
2AB
330
2A4
100
AcDbEntity
  8
S_1_1
 62
     2
100
AcDbBlockReference
  2
EX_NORM
 10
242.573593128811
 20
257.5735931288053
 30
0.0
 41
7.5
 42
7.5
 43
7.5
 50
45.00000000000121
  0
INSERT
  5
2AC
330
2A4
100
AcDbEntity
  8
S_1_1
 62
     2
100
AcDbBlockReference
  2
EX_NORM
 10
327.4264068711949
 20
342.4264068711928
 30
0.0
 41
7.5
 42
7.5
 43
7.5
 50
225.0000000000012
  0
POINT
  5
2AD
330
2A4
100
AcDbEntity
  8
DEFPOINTS
 62
     0
100
AcDbPoint
 10
327.4264068711949
 20
342.4264068711928
 30
0.0
  0
POINT
  5
2AE
330
2A4
100
AcDbEntity
  8
DEFPOINTS
 62
     0
100
AcDbPoint
 10
242.573593128811
 20
257.5735931288053
 30
0.0
  0
ENDBLK
  5
2A6
330
2A4
100
AcDbEntity
  8
0
100
AcDbBlockEnd
  0
BLOCK
  5
3C7
330
3C6
100
AcDbEntity
  8
0
100
AcDbBlockBegin
  2
*D24
 70
     1
 10
0.0
 20
0.0
 30
0.0
  3
*D24
  1

  0
LINE
  5
3C9
330
3C6
100
AcDbEntity
  8
S_1_1
  6
CONTINUOUS
 62
     2
100
AcDbLine
 10
795.0
 20
392.74994721284
 30
0.0
 11
795.0
 21
527.5
 31
0.0
  0
LINE
  5
3CA
330
3C6
100
AcDbEntity
  8
S_1_1
  6
CONTINUOUS
 62
     2
100
AcDbLine
 10
694.99997888514
 20
497.0790646114901
 30
0.0
 11
694.99997888514
 21
527.5
 31
0.0
  0
LINE
  5
3CB
330
3C6
100
AcDbEntity
  8
S_1_1
  6
CONTINUOUS
 62
     2
100
AcDbLine
 10
787.5
 20
525.0
 30
0.0
 11
702.49997888514
 21
525.0
 31
0.0
  0
INSERT
  5
3CC
330
3C6
100
AcDbEntity
  8
S_1_1
 62
     2
100
AcDbBlockReference
  2
EX_NORM
 10
795.0
 20
525.0
 30
0.0
 41
7.5
 42
7.5
 43
7.5
  0
INSERT
  5
3CD
330
3C6
100
AcDbEntity
  8
S_1_1
 62
     2
100
AcDbBlockReference
  2
EX_NORM
 10
694.99997888514
 20
525.0
 30
0.0
 41
7.5
 42
7.5
 43
7.5
 50
180.0
  0
MTEXT
  5
3CE
330
3C6
100
AcDbEntity
  8
S_1_1
 62
     2
100
AcDbMText
 10
744.9999894425699
 20
531.875
 30
0.0
 40
8.6572603926097
 41
0.0
 71
     5
 72
     1
  1
100
  7
EXCADDIM1
  0
POINT
  5
3CF
330
3C6
100
AcDbEntity
  8
DEFPOINTS
 62
     0
100
AcDbPoint
 10
795.0
 20
388.99994721284
 30
0.0
  0
POINT
  5
3D0
330
3C6
100
AcDbEntity
  8
DEFPOINTS
 62
     0
100
AcDbPoint
 10
694.99997888514
 20
493.3290646114901
 30
0.0
  0
POINT
  5
3D1
330
3C6
100
AcDbEntity
  8
DEFPOINTS
 62
     0
100
AcDbPoint
 10
694.99997888514
 20
525.0
 30
0.0
  0
ENDBLK
  5
3C8
330
3C6
100
AcDbEntity
  8
0
100
AcDbBlockEnd
  0
BLOCK
  5
3D4
330
3D3
100
AcDbEntity
  8
0
100
AcDbBlockBegin
  2
*D25
 70
     1
 10
0.0
 20
0.0
 30
0.0
  3
*D25
  1

  0
LINE
  5
3D6
330
3D3
100
AcDbEntity
  8
S_1_1
  6
CONTINUOUS
 62
     2
100
AcDbLine
 10
694.99997888514
 20
497.0790646114901
 30
0.0
 11
694.99997888514
 21
527.5
 31
0.0
  0
LINE
  5
3D7
330
3D3
100
AcDbEntity
  8
S_1_1
  6
CONTINUOUS
 62
     2
100
AcDbLine
 10
605.00058065879
 20
484.54955958784
 30
0.0
 11
605.00058065879
 21
527.5
 31
0.0
  0
LINE
  5
3D8
330
3D3
100
AcDbEntity
  8
S_1_1
  6
CONTINUOUS
 62
     2
100
AcDbLine
 10
687.49997888514
 20
525.0
 30
0.0
 11
612.50058065879
 21
525.0
 31
0.0
  0
INSERT
  5
3D9
330
3D3
100
AcDbEntity
  8
S_1_1
 62
     2
100
AcDbBlockReference
  2
EX_NORM
 10
694.99997888514
 20
525.0
 30
0.0
 41
7.5
 42
7.5
 43
7.5
  0
INSERT
  5
3DA
330
3D3
100
AcDbEntity
  8
S_1_1
 62
     2
100
AcDbBlockReference
  2
EX_NORM
 10
605.00058065879
 20
525.0
 30
0.0
 41
7.5
 42
7.5
 43
7.5
 50
180.0
  0
MTEXT
  5
3DB
330
3D3
100
AcDbEntity
  8
S_1_1
 62
     2
100
AcDbMText
 10
650.0002797719651
 20
531.875
 30
0.0
 40
8.6572603926097
 41
0.0
 71
     5
 72
     1
  1
90
  7
EXCADDIM1
  0
POINT
  5
3DC
330
3D3
100
AcDbEntity
  8
DEFPOINTS
 62
     0
100
AcDbPoint
 10
694.99997888514
 20
493.3290646114901
 30
0.0
  0
POINT
  5
3DD
330
3D3
100
AcDbEntity
  8
DEFPOINTS
 62
     0
100
AcDbPoint
 10
605.00058065879
 20
480.79955958784
 30
0.0
  0
POINT
  5
3DE
330
3D3
100
AcDbEntity
  8
DEFPOINTS
 62
     0
100
AcDbPoint
 10
605.00058065879
 20
525.0
 30
0.0
  0
ENDBLK
  5
3D5
330
3D3
100
AcDbEntity
  8
0
100
AcDbBlockEnd
  0
BLOCK
  5
3E1
330
3E0
100
AcDbEntity
  8
0
100
AcDbBlockBegin
  2
*D26
 70
     1
 10
0.0
 20
0.0
 30
0.0
  3
*D26
  1

  0
LINE
  5
3E3
330
3E0
100
AcDbEntity
  8
S_1_1
  6
CONTINUOUS
 62
     2
100
AcDbLine
 10
605.00058065879
 20
484.54955958784
 30
0.0
 11
605.00058065879
 21
527.5
 31
0.0
  0
LINE
  5
3E4
330
3E0
100
AcDbEntity
  8
S_1_1
  6
CONTINUOUS
 62
     2
100
AcDbLine
 10
545.00001055744
 20
391.74970439189
 30
0.0
 11
545.00001055744
 21
527.5
 31
0.0
  0
LINE
  5
3E5
330
3E0
100
AcDbEntity
  8
S_1_1
  6
CONTINUOUS
 62
     2
100
AcDbLine
 10
597.50058065879
 20
525.0
 30
0.0
 11
552.50001055744
 21
525.0
 31
0.0
  0
INSERT
  5
3E6
330
3E0
100
AcDbEntity
  8
S_1_1
 62
     2
100
AcDbBlockReference
  2
EX_NORM
 10
605.00058065879
 20
525.0
 30
0.0
 41
7.5
 42
7.5
 43
7.5
  0
INSERT
  5
3E7
330
3E0
100
AcDbEntity
  8
S_1_1
 62
     2
100
AcDbBlockReference
  2
EX_NORM
 10
545.00001055744
 20
525.0
 30
0.0
 41
7.5
 42
7.5
 43
7.5
 50
180.0
  0
MTEXT
  5
3E8
330
3E0
100
AcDbEntity
  8
S_1_1
 62
     2
100
AcDbMText
 10
575.0002956081149
 20
531.875
 30
0.0
 40
8.6572603926097
 41
0.0
 71
     5
 72
     1
  1
60
  7
EXCADDIM1
  0
POINT
  5
3E9
330
3E0
100
AcDbEntity
  8
DEFPOINTS
 62
     0
100
AcDbPoint
 10
605.00058065879
 20
480.79955958784
 30
0.0
  0
POINT
  5
3EA
330
3E0
100
AcDbEntity
  8
DEFPOINTS
 62
     0
100
AcDbPoint
 10
545.00001055744
 20
387.99970439189
 30
0.0
  0
POINT
  5
3EB
330
3E0
100
AcDbEntity
  8
DEFPOINTS
 62
     0
100
AcDbPoint
 10
545.00001055744
 20
525.0
 30
0.0
  0
ENDBLK
  5
3E2
330
3E0
100
AcDbEntity
  8
0
100
AcDbBlockEnd
  0
BLOCK
  5
446
330
445
100
AcDbEntity
  8
0
100
AcDbBlockBegin
  2
*D27
 70
     1
 10
0.0
 20
0.0
 30
0.0
  3
*D27
  1

  0
LINE
  5
448
330
445
100
AcDbEntity
  8
S_1_1
  6
CONTINUOUS
 62
     2
100
AcDbLine
 10
285.000000000003
 20
484.54955958784
 30
0.0
 11
285.000000000003
 21
512.5
 31
0.0
  0
LINE
  5
449
330
445
100
AcDbEntity
  8
S_1_1
  6
CONTINUOUS
 62
     2
100
AcDbLine
 10
215.5100194991954
 20
420.3601768443654
 30
0.0
 11
178.750000000001
 21
484.0303983041927
 31
0.0
  0
ARC
  5
44A
330
445
100
AcDbEntity
  8
S_1_1
  6
CONTINUOUS
 62
     2
100
AcDbCircle
 10
285.000000000003
 20
299.9999999999961
 30
0.0
 40
210.0000000000039
100
AcDbArc
 50
92.04638660737226
 51
117.9536133926278
  0
INSERT
  5
44B
330
445
100
AcDbEntity
  8
S_1_1
 62
     2
100
AcDbBlockReference
  2
EX_NORM
 10
285.000000000003
 20
510.0
 30
0.0
 41
7.5
 42
7.5
 43
7.5
 50
1.023193303686124
  0
INSERT
  5
44C
330
445
100
AcDbEntity
  8
S_1_1
 62
     2
100
AcDbBlockReference
  2
EX_NORM
 10
180.000000000001
 20
481.8653347947316
 30
0.0
 41
7.5
 42
7.5
 43
7.5
 50
208.9768066963139
  0
MTEXT
  5
44D
330
445
100
AcDbEntity
  8
S_1_1
 62
     2
100
AcDbMText
 10
228.8686195933928
 20
509.4851635764415
 30
0.0
 40
8.6572603926097
 41
0.0
 71
     5
 72
     1
  1
30%%d
  7
EXCADDIM1
 11
0.9659258262890684
 21
0.2588190451025207
 31
0.0
  0
POINT
  5
44E
330
445
100
AcDbEntity
  8
DEFPOINTS
 62
     0
100
AcDbPoint
 10
285.000000000003
 20
299.9999999999961
 30
0.0
  0
POINT
  5
44F
330
445
100
AcDbEntity
  8
DEFPOINTS
 62
     0
100
AcDbPoint
 10
285.000000000003
 20
480.79955958784
 30
0.0
  0
POINT
  5
450
330
445
100
AcDbEntity
  8
DEFPOINTS
 62
     0
100
AcDbPoint
 10
217.3850194991954
 20
417.1125815801737
 30
0.0
  0
POINT
  5
451
330
445
100
AcDbEntity
  8
DEFPOINTS
 62
     0
100
AcDbPoint
 10
248.5338826899469
 20
506.8096281325636
 30
0.0
  0
ENDBLK
  5
447
330
445
100
AcDbEntity
  8
0
100
AcDbBlockEnd
  0
ENDSEC
  0
SECTION
  2
ENTITIES
  0
LINE
  5
E5
330
1F
100
AcDbEntity
  8
図面枠
  6
CONTINUOUS
 62
     5
100
AcDbLine
 10
25.0
 20
25.0
 30
0.0
 11
1025.0
 21
25.0
 31
0.0
  0
LINE
  5
E6
330
1F
100
AcDbEntity
  8
図面枠
  6
CONTINUOUS
 62
     5
100
AcDbLine
 10
1025.0
 20
25.0
 30
0.0
 11
1025.0
 21
717.5
 31
0.0
  0
LINE
  5
E7
330
1F
100
AcDbEntity
  8
図面枠
  6
CONTINUOUS
 62
     5
100
AcDbLine
 10
1025.0
 20
717.5
 30
0.0
 11
25.00000000000013
 21
717.5
 31
0.0
  0
LINE
  5
E8
330
1F
100
AcDbEntity
  8
図面枠
  6
CONTINUOUS
 62
     5
100
AcDbLine
 10
25.00000000000013
 20
717.5
 30
0.0
 11
25.0
 21
25.0
 31
0.0
  0
LINE
  5
E9
330
1F
100
AcDbEntity
  8
図面枠
  6
CONTINUOUS
 62
     3
100
AcDbLine
 10
37.50000000000004
 20
705.0
 30
0.0
 11
37.50000000000004
 21
682.5
 31
0.0
  0
TEXT
  5
EB
330
1F
100
AcDbEntity
  8
図面枠
  6
CONTINUOUS
 62
     4
100
AcDbText
 10
967.5
 20
678.45703125
 30
0.0
 40
8.6572603926097
  1
kN
 41
0.999230769230769
  7
EXCADTTF1
 72
     5
 11
978.75
 21
678.45703125
 31
0.0
100
AcDbText
  0
TEXT
  5
EC
330
1F
100
AcDbEntity
  8
図面枠
  6
CONTINUOUS
 62
     4
100
AcDbText
 10
817.5
 20
678.45703125
 30
0.0
 40
8.6572603926097
  1
能力
 41
0.999230769230769
  7
EXCADTTF1
 72
     5
 11
840.0
 21
678.45703125
 31
0.0
100
AcDbText
  0
TEXT
  5
ED
330
1F
100
AcDbEntity
  8
図面枠
  6
CONTINUOUS
 62
     4
100
AcDbText
 10
884.375
 20
693.45703125
 30
0.0
 40
8.6572603926097
  1
仕　　　様
 41
0.9992307692307691
  7
EXCADTTF1
 72
     5
 11
940.625
 21
693.45703125
 31
0.0
100
AcDbText
  0
LINE
  5
EE
330
1F
100
AcDbEntity
  8
図面枠
  6
CONTINUOUS
 62
     3
100
AcDbLine
 10
812.5
 20
705.0
 30
0.0
 11
1012.5
 21
705.0
 31
0.0
  0
LINE
  5
EF
330
1F
100
AcDbEntity
  8
図面枠
  6
CONTINUOUS
 62
     3
100
AcDbLine
 10
812.5
 20
690.0
 30
0.0
 11
1012.5
 21
690.0
 31
0.0
  0
TEXT
  5
F0
330
1F
100
AcDbEntity
  8
図面枠
  6
CONTINUOUS
 62
     4
100
AcDbText
 10
935.0
 20
678.45703125
 30
0.0
 40
8.6572603926097
  1
1000
 41
0.999230769230769
  7
EXCADTTF1
 72
     5
 11
957.5
 21
678.45703125
 31
0.0
100
AcDbText
  0
TEXT
  5
F1
330
1F
100
AcDbEntity
  8
図面枠
  6
CONTINUOUS
 62
     4
100
AcDbText
 10
967.5
 20
663.45703125
 30
0.0
 40
8.6572603926097
  1
mm
 41
0.999230769230769
  7
EXCADTTF1
 72
     5
 11
978.75
 21
663.45703125
 31
0.0
100
AcDbText
  0
TEXT
  5
F2
330
1F
100
AcDbEntity
  8
図面枠
  6
CONTINUOUS
 62
     4
100
AcDbText
 10
967.5
 20
648.45703125
 30
0.0
 40
8.6572603926097
  1
mm
 41
0.999230769230769
  7
EXCADTTF1
 72
     5
 11
978.75
 21
648.45703125
 31
0.0
100
AcDbText
  0
TEXT
  5
F3
330
1F
100
AcDbEntity
  8
図面枠
  6
CONTINUOUS
 62
     4
100
AcDbText
 10
967.5
 20
633.45703125
 30
0.0
 40
8.6572603926097
  1
mm
 41
0.999230769230769
  7
EXCADTTF1
 72
     5
 11
978.75
 21
633.45703125
 31
0.0
100
AcDbText
  0
TEXT
  5
F4
330
1F
100
AcDbEntity
  8
図面枠
  6
CONTINUOUS
 62
     4
100
AcDbText
 10
967.5
 20
618.45703125
 30
0.0
 40
8.6572603926097
  1
mm
 41
0.999230769230769
  7
EXCADTTF1
 72
     5
 11
978.75
 21
618.45703125
 31
0.0
100
AcDbText
  0
TEXT
  5
F5
330
1F
100
AcDbEntity
  8
図面枠
  6
CONTINUOUS
 62
     4
100
AcDbText
 10
967.5
 20
603.45703125
 30
0.0
 40
8.6572603926097
  1
mm
 41
0.999230769230769
  7
EXCADTTF1
 72
     5
 11
978.75
 21
603.45703125
 31
0.0
100
AcDbText
  0
TEXT
  5
F6
330
1F
100
AcDbEntity
  8
図面枠
  6
CONTINUOUS
 62
     4
100
AcDbText
 10
967.5
 20
573.45703125
 30
0.0
 40
8.6572603926097
  1
MPa
 41
0.9992307692307689
  7
EXCADTTF1
 72
     5
 11
984.375
 21
573.45703125
 31
0.0
100
AcDbText
  0
TEXT
  5
F7
330
1F
100
AcDbEntity
  8
図面枠
  6
CONTINUOUS
 62
     4
100
AcDbText
 10
817.5
 20
663.45703125
 30
0.0
 40
8.6572603926097
  1
ストローク
 41
0.9992307692307691
  7
EXCADTTF1
 72
     5
 11
873.75
 21
663.45703125
 31
0.0
100
AcDbText
  0
TEXT
  5
F8
330
1F
100
AcDbEntity
  8
図面枠
  6
CONTINUOUS
 62
     4
100
AcDbText
 10
817.5
 20
648.45703125
 30
0.0
 40
8.6572603926097
  1
最低機械高
 41
0.9992307692307691
  7
EXCADTTF1
 72
     5
 11
873.75
 21
648.45703125
 31
0.0
100
AcDbText
  0
TEXT
  5
F9
330
1F
100
AcDbEntity
  8
図面枠
  6
CONTINUOUS
 62
     4
100
AcDbText
 10
817.5
 20
633.45703125
 30
0.0
 40
8.6572603926097
  1
シリンダー外径
 41
0.9992307692307693
  7
EXCADTTF1
 72
     5
 11
896.25
 21
633.45703125
 31
0.0
100
AcDbText
  0
TEXT
  5
FA
330
1F
100
AcDbEntity
  8
図面枠
  6
CONTINUOUS
 62
     4
100
AcDbText
 10
817.5
 20
618.45703125
 30
0.0
 40
8.6572603926097
  1
ヘッド径
 41
0.999230769230769
  7
EXCADTTF1
 72
     5
 11
862.5
 21
618.45703125
 31
0.0
100
AcDbText
  0
TEXT
  5
FB
330
1F
100
AcDbEntity
  8
図面枠
  6
CONTINUOUS
 62
     4
100
AcDbText
 10
817.5
 20
603.45703125
 30
0.0
 40
8.6572603926097
  1
ピストン径
 41
0.9992307692307691
  7
EXCADTTF1
 72
     5
 11
873.75
 21
603.45703125
 31
0.0
100
AcDbText
  0
TEXT
  5
FC
330
1F
100
AcDbEntity
  8
図面枠
  6
CONTINUOUS
 62
     4
100
AcDbText
 10
817.5
 20
588.45703125
 30
0.0
 40
8.6572603926097
  1
受圧面積
 41
0.999230769230769
  7
EXCADTTF1
 72
     5
 11
862.5
 21
588.45703125
 31
0.0
100
AcDbText
  0
TEXT
  5
FD
330
1F
100
AcDbEntity
  8
図面枠
  6
CONTINUOUS
 62
     4
100
AcDbText
 10
817.5
 20
573.45703125
 30
0.0
 40
8.6572603926097
  1
最高使用圧力
 41
0.9992307692307691
  7
EXCADTTF1
 72
     5
 11
885.0
 21
573.45703125
 31
0.0
100
AcDbText
  0
LINE
  5
FE
330
1F
100
AcDbEntity
  8
図面枠
  6
CONTINUOUS
 62
     2
100
AcDbLine
 10
812.5
 20
675.0
 30
0.0
 11
1012.5
 21
675.0
 31
0.0
  0
LINE
  5
FF
330
1F
100
AcDbEntity
  8
図面枠
  6
CONTINUOUS
 62
     2
100
AcDbLine
 10
812.5
 20
660.0
 30
0.0
 11
1012.5
 21
660.0
 31
0.0
  0
LINE
  5
100
330
1F
100
AcDbEntity
  8
図面枠
  6
CONTINUOUS
 62
     2
100
AcDbLine
 10
812.5
 20
645.0
 30
0.0
 11
1012.5
 21
645.0
 31
0.0
  0
LINE
  5
101
330
1F
100
AcDbEntity
  8
図面枠
  6
CONTINUOUS
 62
     2
100
AcDbLine
 10
812.5
 20
630.0
 30
0.0
 11
1012.5
 21
630.0
 31
0.0
  0
LINE
  5
102
330
1F
100
AcDbEntity
  8
図面枠
  6
CONTINUOUS
 62
     2
100
AcDbLine
 10
812.5
 20
615.0
 30
0.0
 11
1012.5
 21
615.0
 31
0.0
  0
LINE
  5
103
330
1F
100
AcDbEntity
  8
図面枠
  6
CONTINUOUS
 62
     2
100
AcDbLine
 10
812.5
 20
600.0
 30
0.0
 11
1012.5
 21
600.0
 31
0.0
  0
LINE
  5
104
330
1F
100
AcDbEntity
  8
図面枠
  6
CONTINUOUS
 62
     2
100
AcDbLine
 10
812.5
 20
585.0
 30
0.0
 11
1012.5
 21
585.0
 31
0.0
  0
TEXT
  5
105
330
1F
100
AcDbEntity
  8
図面枠
  6
CONTINUOUS
 62
     4
100
AcDbText
 10
935.0
 20
573.45703125
 30
0.0
 40
8.6572603926097
  1
60.6
 41
0.999230769230769
  7
EXCADTTF1
 72
     5
 11
957.5
 21
573.45703125
 31
0.0
100
AcDbText
  0
TEXT
  5
106
330
1F
100
AcDbEntity
  8
図面枠
  6
CONTINUOUS
 62
     4
100
AcDbText
 10
929.375
 20
588.45703125
 30
0.0
 40
8.6572603926097
  1
165.1
 41
0.9992307692307691
  7
EXCADTTF1
 72
     5
 11
957.5
 21
588.45703125
 31
0.0
100
AcDbText
  0
TEXT
  5
107
330
1F
100
AcDbEntity
  8
図面枠
  6
CONTINUOUS
 62
     4
100
AcDbText
 10
940.625
 20
603.45703125
 30
0.0
 40
8.6572603926097
  1
145
 41
0.9992307692307689
  7
EXCADTTF1
 72
     5
 11
957.5
 21
603.45703125
 31
0.0
100
AcDbText
  0
TEXT
  5
108
330
1F
100
AcDbEntity
  8
図面枠
  6
CONTINUOUS
 62
     4
100
AcDbText
 10
967.5000000000001
 20
588.45703125
 30
0.0
 40
8.6572603926097
  1
cm
 41
0.999230769230769
  7
EXCADTTF1
 72
     5
 11
978.7500000000001
 21
588.45703125
 31
0.0
100
AcDbText
  0
TEXT
  5
109
330
1F
100
AcDbEntity
  8
図面枠
  6
CONTINUOUS
 62
     4
100
AcDbText
 10
975.3750000000001
 20
593.7744141295552
 30
0.0
 40
3.895766809731837
  1
2
 41
0.9992308633483801
  7
EXCADTTF1
 72
     5
 11
977.9062500000001
 21
593.7744141295552
 31
0.0
100
AcDbText
  0
TEXT
  5
10A
330
1F
100
AcDbEntity
  8
図面枠
  6
CONTINUOUS
 62
     4
100
AcDbText
 10
967.5
 20
543.45703125
 30
0.0
 40
8.6572603926097
  1
kg
 41
0.999230769230769
  7
EXCADTTF1
 72
     5
 11
978.75
 21
543.45703125
 31
0.0
100
AcDbText
  0
TEXT
  5
10B
330
1F
100
AcDbEntity
  8
図面枠
  6
CONTINUOUS
 62
     4
100
AcDbText
 10
817.5
 20
558.45703125
 30
0.0
 40
8.6572603926097
  1
所要油量
 41
0.999230769230769
  7
EXCADTTF1
 72
     5
 11
862.5
 21
558.45703125
 31
0.0
100
AcDbText
  0
TEXT
  5
10C
330
1F
100
AcDbEntity
  8
図面枠
  6
CONTINUOUS
 62
     4
100
AcDbText
 10
817.5
 20
543.45703125
 30
0.0
 40
8.6572603926097
  1
重量
 41
0.999230769230769
  7
EXCADTTF1
 72
     5
 11
840.0
 21
543.45703125
 31
0.0
100
AcDbText
  0
LINE
  5
10D
330
1F
100
AcDbEntity
  8
図面枠
  6
CONTINUOUS
 62
     2
100
AcDbLine
 10
812.5
 20
570.0
 30
0.0
 11
1012.5
 21
570.0
 31
0.0
  0
LINE
  5
10E
330
1F
100
AcDbEntity
  8
図面枠
  6
CONTINUOUS
 62
     2
100
AcDbLine
 10
812.5
 20
555.0
 30
0.0
 11
1012.5
 21
555.0
 31
0.0
  0
TEXT
  5
10F
330
1F
100
AcDbEntity
  8
図面枠
  6
CONTINUOUS
 62
     4
100
AcDbText
 10
817.5
 20
528.45703125
 30
0.0
 40
8.6572603926097
  1
ユニバーサル
 41
0.9992307692307691
  7
EXCADTTF1
 72
     5
 11
885.0
 21
528.45703125
 31
0.0
100
AcDbText
  0
TEXT
  5
110
330
1F
100
AcDbEntity
  8
図面枠
  6
CONTINUOUS
 62
     4
100
AcDbText
 10
817.5
 20
517.20703125
 30
0.0
 40
8.6572603926097
  1
振り角
 41
0.9992307692307689
  7
EXCADTTF1
 72
     5
 11
851.25
 21
517.20703125
 31
0.0
100
AcDbText
  0
TEXT
  5
111
330
1F
100
AcDbEntity
  8
図面枠
  6
CONTINUOUS
 62
     4
100
AcDbText
 10
940.625
 20
528.45703125
 30
0.0
 40
8.6572603926097
  1
±3
 41
0.9992307692307689
  7
EXCADTTF1
 72
     5
 11
957.5
 21
528.45703125
 31
0.0
100
AcDbText
  0
TEXT
  5
112
330
1F
100
AcDbEntity
  8
図面枠
  6
CONTINUOUS
 62
     4
100
AcDbText
 10
967.5
 20
528.45703125
 30
0.0
 40
8.6572603926097
  1
°
 41
0.999230769230769
  7
EXCADTTF1
 72
     5
 11
978.75
 21
528.45703125
 31
0.0
100
AcDbText
  0
TEXT
  5
113
330
1F
100
AcDbEntity
  8
図面枠
  6
CONTINUOUS
 62
     4
100
AcDbText
 10
967.5
 20
513.45703125
 30
0.0
 40
8.6572603926097
  1
%%%
 41
0.999230769230769
  7
EXCADTTF1
 72
     5
 11
973.125
 21
513.45703125
 31
0.0
100
AcDbText
  0
TEXT
  5
114
330
1F
100
AcDbEntity
  8
図面枠
  6
CONTINUOUS
 62
     4
100
AcDbText
 10
940.625
 20
513.45703125
 30
0.0
 40
8.6572603926097
  1
±5
 41
0.9992307692307689
  7
EXCADTTF1
 72
     5
 11
957.5
 21
513.45703125
 31
0.0
100
AcDbText
  0
LINE
  5
115
330
1F
100
AcDbEntity
  8
図面枠
  6
CONTINUOUS
 62
     2
100
AcDbLine
 10
912.5
 20
525.0
 30
0.0
 11
1012.5
 21
525.0
 31
0.0
  0
LINE
  5
116
330
1F
100
AcDbEntity
  8
図面枠
  6
CONTINUOUS
 62
     3
100
AcDbLine
 10
812.5
 20
510.0
 30
0.0
 11
1012.5
 21
510.0
 31
0.0
  0
LINE
  5
117
330
1F
100
AcDbEntity
  8
図面枠
  6
CONTINUOUS
 62
     2
100
AcDbLine
 10
812.5
 20
540.0
 30
0.0
 11
1012.5
 21
540.0
 31
0.0
  0
LINE
  5
118
330
1F
100
AcDbEntity
  8
図面枠
  6
CONTINUOUS
 62
     3
100
AcDbLine
 10
812.5
 20
705.0
 30
0.0
 11
812.5
 21
510.0
 31
0.0
  0
LINE
  5
119
330
1F
100
AcDbEntity
  8
図面枠
  6
CONTINUOUS
 62
     3
100
AcDbLine
 10
1012.5
 20
705.0
 30
0.0
 11
1012.5
 21
510.0
 31
0.0
  0
LINE
  5
11A
330
1F
100
AcDbEntity
  8
図面枠
  6
CONTINUOUS
 62
     2
100
AcDbLine
 10
912.5
 20
690.0
 30
0.0
 11
912.5
 21
510.0
 31
0.0
  0
LINE
  5
11B
330
1F
100
AcDbEntity
  8
図面枠
  6
CONTINUOUS
 62
     2
100
AcDbLine
 10
962.5
 20
690.0
 30
0.0
 11
962.5
 21
510.0
 31
0.0
  0
LINE
  5
11C
330
1F
100
AcDbEntity
  8
図面枠
  6
CONTINUOUS
 62
     3
100
AcDbLine
 10
1012.5
 20
60.0
 30
0.0
 11
1012.5
 21
37.5
 31
0.0
  0
TEXT
  5
11D
330
1F
100
AcDbEntity
  8
図面枠
  6
CONTINUOUS
 62
     4
100
AcDbText
 10
940.625
 20
663.45703125
 30
0.0
 40
8.6572603926097
  1
110
 41
0.9992307692307689
  7
EXCADTTF1
 72
     5
 11
957.5
 21
663.45703125
 31
0.0
100
AcDbText
  0
TEXT
  5
11E
330
1F
100
AcDbEntity
  8
図面枠
  6
CONTINUOUS
 62
     4
100
AcDbText
 10
940.625
 20
648.45703125
 30
0.0
 40
8.6572603926097
  1
293
 41
0.9992307692307689
  7
EXCADTTF1
 72
     5
 11
957.5
 21
648.45703125
 31
0.0
100
AcDbText
  0
TEXT
  5
11F
330
1F
100
AcDbEntity
  8
図面枠
  6
CONTINUOUS
 62
     4
100
AcDbText
 10
940.625
 20
633.45703125
 30
0.0
 40
8.6572603926097
  1
180
 41
0.9992307692307689
  7
EXCADTTF1
 72
     5
 11
957.5
 21
633.45703125
 31
0.0
100
AcDbText
  0
TEXT
  5
120
330
1F
100
AcDbEntity
  8
図面枠
  6
CONTINUOUS
 62
     4
100
AcDbText
 10
940.625
 20
618.45703125
 30
0.0
 40
8.6572603926097
  1
170
 41
0.9992307692307689
  7
EXCADTTF1
 72
     5
 11
957.5
 21
618.45703125
 31
0.0
100
AcDbText
  0
TEXT
  5
121
330
1F
100
AcDbEntity
  8
図面枠
  6
CONTINUOUS
 62
     4
100
AcDbText
 10
935.0
 20
543.45703125
 30
0.0
 40
8.6572603926097
  1
約55
 41
0.999230769230769
  7
EXCADTTF1
 72
     5
 11
957.5
 21
543.45703125
 31
0.0
100
AcDbText
  0
TEXT
  5
122
330
1F
100
AcDbEntity
  8
図面枠
  6
CONTINUOUS
 62
     4
100
AcDbText
 10
45.00000000000004
 20
688.359375
 30
0.0
 40
11.54301385681293
  1
1000kN110ストローク油圧ジャッキ　ユニバーサルヘッド付き　H=293mm
 41
0.9992307692307688
  7
EXCADTTF1
 72
     5
 11
525.0
 21
688.359375
 31
0.0
100
AcDbText
  0
LINE
  5
123
330
1F
100
AcDbEntity
  8
図面枠
  6
CONTINUOUS
 62
     3
100
AcDbLine
 10
532.5
 20
705.0
 30
0.0
 11
532.5
 21
682.5
 31
0.0
  0
LINE
  5
124
330
1F
100
AcDbEntity
  8
図面枠
  6
CONTINUOUS
 62
     3
100
AcDbLine
 10
37.50000000000004
 20
682.5
 30
0.0
 11
532.5
 21
682.5000000000001
 31
0.0
  0
LINE
  5
125
330
1F
100
AcDbEntity
  8
図面枠
  6
CONTINUOUS
 62
     3
100
AcDbLine
 10
37.50000000000004
 20
705.0
 30
0.0
 11
532.5
 21
705.0
 31
0.0
  0
LINE
  5
126
330
1F
100
AcDbEntity
  8
図面枠
  6
CONTINUOUS
 62
     3
100
AcDbLine
 10
907.5
 20
60.0
 30
0.0
 11
907.5
 21
37.5
 31
0.0
  0
TEXT
  5
127
330
1F
100
AcDbEntity
  8
図面枠
  6
CONTINUOUS
 62
     4
100
AcDbText
 10
915.0
 20
43.359375
 30
0.0
 40
11.54301385681293
  1
OTV-10011-UA
 41
0.9992307692307693
  7
EXCADTTF1
 72
     5
 11
1005.0
 21
43.359375
 31
0.0
100
AcDbText
  0
LINE
  5
128
330
1F
100
AcDbEntity
  8
図面枠
  6
CONTINUOUS
 62
     3
100
AcDbLine
 10
907.5
 20
60.0
 30
0.0
 11
1012.5
 21
60.0
 31
0.0
  0
LINE
  5
129
330
1F
100
AcDbEntity
  8
図面枠
  6
CONTINUOUS
 62
     3
100
AcDbLine
 10
907.5
 20
37.5
 30
0.0
 11
1012.5
 21
37.5
 31
0.0
  0
TEXT
  5
12A
330
1F
100
AcDbEntity
  8
図面枠
  6
CONTINUOUS
 62
     4
100
AcDbText
 10
967.5
 20
558.45703125
 30
0.0
 40
8.6572603926097
  1
L
 41
0.999230769230769
  7
EXCADTTF1
 72
     5
 11
973.125
 21
558.45703125
 31
0.0
100
AcDbText
  0
TEXT
  5
12B
330
1F
100
AcDbEntity
  8
図面枠
  6
CONTINUOUS
 62
     4
100
AcDbText
 10
940.625
 20
558.45703125
 30
0.0
 40
8.6572603926097
  1
1.8
 41
0.9992307692307689
  7
EXCADTTF1
 72
     5
 11
957.5
 21
558.45703125
 31
0.0
100
AcDbText
  0
DIMENSION
  5
12D
330
1F
100
AcDbEntity
  8
S_1_1
  6
CONTINUOUS
 62
     2
100
AcDbDimension
  2
*D15
 10
465.0
 20
214.9999788851343
 30
0.0
 11
458.125
 21
299.9999841638505
 31
0.0
 70
   160
  1
%%c170
  3
ISO-25
100
AcDbAlignedDimension
 13
504.0008868243274
 23
384.9999894425667
 33
0.0
 14
504.0008868243274
 24
214.9999788851343
 34
0.0
 50
90.0
100
AcDbRotatedDimension
1001
ACAD
1000
DSTYLE
1002
{
1070
   270
1070
     2
1070
     6
1000
EX_NORM
1070
     7
1000
EX_NORM
1070
    41
1040
7.5
1070
    42
1040
3.75
1070
    44
1040
2.5
1070
    73
1070
     0
1070
    74
1070
     0
1070
    75
1070
     0
1070
    76
1070
     0
1070
    77
1070
     1
1070
    78
1070
     8
1070
   140
1040
8.6572603926097
1070
   147
1040
0.0
1070
   173
1070
     1
1070
   176
1070
     2
1070
   177
1070
     2
1070
   178
1070
     2
1070
   271
1070
     2
1070
   277
1070
     2
1070
   279
1070
     2
1070
   280
1070
     0
1070
   287
1070
     5
1070
   340
1005
12C
1002
}
  0
DIMENSION
  5
13B
330
1F
100
AcDbEntity
  8
S_1_1
  6
CONTINUOUS
 62
     2
100
AcDbDimension
  2
*D16
 10
840.0
 20
209.9998416385126
 30
0.0
 11
833.125
 21
299.9996199324316
 31
0.0
 70
   160
  1
%%c180
  3
ISO-25
100
AcDbAlignedDimension
 13
794.0006123310841
 23
389.9993982263505
 33
0.0
 14
794.0006123310841
 24
209.9998416385126
 34
0.0
 50
90.0
100
AcDbRotatedDimension
1001
ACAD
1000
DSTYLE
1002
{
1070
   270
1070
     2
1070
     6
1000
EX_NORM
1070
     7
1000
EX_NORM
1070
    41
1040
7.5
1070
    42
1040
3.75
1070
    44
1040
2.5
1070
    73
1070
     0
1070
    74
1070
     0
1070
    75
1070
     1
1070
    76
1070
     0
1070
    77
1070
     1
1070
    78
1070
     8
1070
   140
1040
8.6572603926097
1070
   147
1040
0.0
1070
   173
1070
     1
1070
   176
1070
     2
1070
   177
1070
     2
1070
   178
1070
     2
1070
   271
1070
     2
1070
   277
1070
     2
1070
   279
1070
     2
1070
   280
1070
     0
1070
   287
1070
     5
1070
   340
1005
12C
1002
}
  0
DIMENSION
  5
147
330
1F
100
AcDbEntity
  8
S_1_1
  6
CONTINUOUS
 62
     2
100
AcDbDimension
  2
*D17
 10
545.00001055744
 20
165.0
 30
0.0
 11
670.00000527872
 21
171.875
 31
0.0
 70
   160
  3
ISO-25
100
AcDbAlignedDimension
 13
795.0
 23
210.99929265203
 33
0.0
 14
545.00001055744
 24
211.99953547297
 34
0.0
100
AcDbRotatedDimension
1001
ACAD
1000
DSTYLE
1002
{
1070
   270
1070
     2
1070
     6
1000
EX_NORM
1070
     7
1000
EX_NORM
1070
    41
1040
7.5
1070
    42
1040
0.0
1070
    44
1040
0.0
1070
    73
1070
     0
1070
    74
1070
     0
1070
    75
1070
     1
1070
    76
1070
     1
1070
    77
1070
     1
1070
    78
1070
     8
1070
   140
1040
8.6572603926097
1070
   147
1040
0.0
1070
   173
1070
     1
1070
   176
1070
     2
1070
   177
1070
     2
1070
   178
1070
     2
1070
   271
1070
     2
1070
   277
1070
     2
1070
   279
1070
     2
1070
   280
1070
     0
1070
   287
1070
     5
1070
   340
1005
12C
1002
}
  0
DIMENSION
  5
152
330
1F
100
AcDbEntity
  8
S_1_1
  6
CONTINUOUS
 62
     2
100
AcDbDimension
  2
*D18
 10
535.00090793919
 20
165.0
 30
0.0
 11
540.000459248315
 21
171.875
 31
0.0
 70
   160
  3
ISO-25
100
AcDbAlignedDimension
 13
545.00001055744
 23
211.99953547297
 33
0.0
 14
535.00090793919
 24
241.73203125
 34
0.0
100
AcDbRotatedDimension
1001
ACAD
1000
DSTYLE
1002
{
1070
   270
1070
     2
1070
     6
1000
EX_NORM
1070
     7
1000
EX_NORM
1070
    41
1040
7.5
1070
    42
1040
3.75
1070
    44
1040
2.5
1070
    73
1070
     0
1070
    74
1070
     0
1070
    75
1070
     0
1070
    76
1070
     1
1070
    77
1070
     1
1070
    78
1070
     8
1070
   140
1040
8.6572603926097
1070
   147
1040
0.0
1070
   173
1070
     1
1070
   176
1070
     2
1070
   177
1070
     2
1070
   178
1070
     2
1070
   271
1070
     2
1070
   277
1070
     2
1070
   279
1070
     2
1070
   280
1070
     0
1070
   287
1070
     5
1070
   340
1005
12C
1002
}
  0
DIMENSION
  5
160
330
1F
100
AcDbEntity
  8
S_1_1
  6
CONTINUOUS
 62
     2
100
AcDbDimension
  2
*D19
 10
502.00090793919
 20
165.0
 30
0.0
 11
518.50090793919
 21
171.875
 31
0.0
 70
   160
  3
ISO-25
100
AcDbAlignedDimension
 13
535.00090793919
 23
241.73203125
 33
0.0
 14
502.00090793919
 24
216.99998944257
 34
0.0
100
AcDbRotatedDimension
1001
ACAD
1000
DSTYLE
1002
{
1070
   270
1070
     2
1070
     6
1000
EX_NORM
1070
     7
1000
EX_NORM
1070
    41
1040
7.5
1070
    42
1040
3.75
1070
    44
1040
2.5
1070
    73
1070
     0
1070
    74
1070
     0
1070
    75
1070
     0
1070
    76
1070
     1
1070
    77
1070
     1
1070
    78
1070
     8
1070
   140
1040
8.6572603926097
1070
   147
1040
0.0
1070
   173
1070
     1
1070
   176
1070
     2
1070
   177
1070
     2
1070
   178
1070
     2
1070
   271
1070
     2
1070
   277
1070
     2
1070
   279
1070
     2
1070
   280
1070
     0
1070
   287
1070
     5
1070
   340
1005
12C
1002
}
  0
DIMENSION
  5
16C
330
1F
100
AcDbEntity
  8
S_1_1
  6
CONTINUOUS
 62
     2
100
AcDbDimension
  2
*D20
 10
795.0
 20
150.0
 30
0.0
 11
648.500453969595
 21
156.875
 31
0.0
 70
   160
  3
ISO-25
100
AcDbAlignedDimension
 13
502.00090793919
 23
216.99998944257
 33
0.0
 14
795.0
 24
210.99929265203
 34
0.0
100
AcDbRotatedDimension
1001
ACAD
1000
DSTYLE
1002
{
1070
   270
1070
     2
1070
     6
1000
EX_NORM
1070
     7
1000
EX_NORM
1070
    41
1040
7.5
1070
    42
1040
3.75
1070
    44
1040
2.5
1070
    73
1070
     0
1070
    74
1070
     0
1070
    75
1070
     0
1070
    76
1070
     0
1070
    77
1070
     1
1070
    78
1070
     8
1070
   140
1040
8.6572603926097
1070
   147
1040
0.0
1070
   173
1070
     1
1070
   176
1070
     2
1070
   177
1070
     2
1070
   178
1070
     2
1070
   271
1070
     2
1070
   277
1070
     2
1070
   279
1070
     2
1070
   280
1070
     0
1070
   287
1070
     5
1070
   340
1005
12C
1002
}
  0
DIMENSION
  5
179
330
1F
100
AcDbEntity
  8
S_1_1
  6
CONTINUOUS
 62
     2
100
AcDbDimension
  2
*D21
 10
840.0
 20
490.3617504223
 30
0.0
 11
833.125
 21
440.1805743243251
 31
0.0
 70
   160
  1
(100)
  3
ISO-25
100
AcDbAlignedDimension
 13
794.00061233108
 23
389.99939822635
 33
0.0
 14
707.00111908784
 24
490.3617504223
 34
0.0
 50
90.0
100
AcDbRotatedDimension
1001
ACAD
1000
DSTYLE
1002
{
1070
   270
1070
     2
1070
     6
1000
EX_NORM
1070
     7
1000
EX_NORM
1070
    41
1040
7.5
1070
    42
1040
3.75
1070
    44
1040
2.5
1070
    73
1070
     0
1070
    74
1070
     0
1070
    75
1070
     0
1070
    76
1070
     0
1070
    77
1070
     1
1070
    78
1070
     8
1070
   140
1040
8.6572603926097
1070
   147
1040
0.0
1070
   173
1070
     1
1070
   176
1070
     2
1070
   177
1070
     2
1070
   178
1070
     2
1070
   271
1070
     2
1070
   277
1070
     2
1070
   279
1070
     2
1070
   280
1070
     0
1070
   287
1070
     5
1070
   340
1005
12C
1002
}
  0
LINE
  5
186
330
1F
100
AcDbEntity
  8
S_1_1
  6
EXLTYPE2
 62
     1
100
AcDbLine
 10
499.3244087837869
 20
299.9999999999991
 30
0.0
 11
801.7807854729758
 21
299.9999999999991
 31
0.0
  0
LINE
  5
187
330
1F
100
AcDbEntity
  8
S_1_1
  6
EXLTYPE2
 62
     1
100
AcDbLine
 10
595.0000211148679
 20
323.3337415540531
 30
0.0
 11
595.0000211148679
 21
277.2499155405396
 31
0.0
  0
LINE
  5
188
330
1F
100
AcDbEntity
  8
S_1_1
  6
EXLTYPE2
 62
     1
100
AcDbLine
 10
694.999978885138
 20
493.3290646114857
 30
0.0
 11
694.999978885138
 21
381.9000633445938
 31
0.0
  0
LINE
  5
189
330
1F
100
AcDbEntity
  8
S_1_1
  6
CONTINUOUS
 62
     3
100
AcDbLine
 10
600.9997360641921
 20
278.9993348817559
 30
0.0
 11
600.9997360641921
 21
279.4997888513504
 31
0.0
  0
LINE
  5
18A
330
1F
100
AcDbEntity
  8
S_1_1
  6
CONTINUOUS
 62
     3
100
AcDbLine
 10
589.0001794763543
 20
278.9993348817559
 30
0.0
 11
589.0001794763543
 21
279.4997888513504
 31
0.0
  0
LINE
  5
18B
330
1F
100
AcDbEntity
  8
S_1_1
  6
CONTINUOUS
 62
     3
100
AcDbLine
 10
709.0000211148678
 20
404.999556587837
 30
0.0
 11
710.000929054057
 21
403.9993137668911
 31
0.0
  0
LINE
  5
18C
330
1F
100
AcDbEntity
  8
S_1_1
  6
CONTINUOUS
 62
     3
100
AcDbLine
 10
711.999831081084
 20
290.9995882601343
 30
0.0
 11
713.0008023648679
 21
291.9997994087829
 31
0.0
  0
LINE
  5
18D
330
1F
100
AcDbEntity
  8
S_1_1
  6
CONTINUOUS
 62
     3
100
AcDbLine
 10
613.4997149493272
 20
290.9995882601343
 30
0.0
 11
711.999831081084
 21
290.9995882601343
 31
0.0
  0
LINE
  5
18E
330
1F
100
AcDbEntity
  8
S_1_1
  6
CONTINUOUS
 62
     3
100
AcDbLine
 10
572.9998733108139
 20
290.4998627533774
 30
0.0
 11
613.0008129223002
 21
290.4998627533774
 31
0.0
  0
LINE
  5
18F
330
1F
100
AcDbEntity
  8
S_1_1
  6
CONTINUOUS
 62
     3
100
AcDbLine
 10
591.0006651182462
 20
404.999556587837
 30
0.0
 11
589.9997255067597
 21
403.9993137668911
 31
0.0
  0
LINE
  5
190
330
1F
100
AcDbEntity
  8
S_1_1
  6
CONTINUOUS
 62
     3
100
AcDbLine
 10
575.0003589527057
 20
288.4994404560802
 30
0.0
 11
614.9997466216246
 21
288.4994404560802
 31
0.0
  0
LINE
  5
191
330
1F
100
AcDbEntity
  8
S_1_1
  6
CONTINUOUS
 62
     3
100
AcDbLine
 10
575.0003589527057
 20
279.4997888513504
 30
0.0
 11
614.9997466216246
 21
279.4997888513504
 31
0.0
  0
LINE
  5
192
330
1F
100
AcDbEntity
  8
S_1_1
  6
CONTINUOUS
 62
     3
100
AcDbLine
 10
681.0000633445975
 20
404.999556587837
 30
0.0
 11
680.0006123310841
 21
403.9993137668911
 31
0.0
  0
LINE
  5
193
330
1F
100
AcDbEntity
  8
S_1_1
  6
CONTINUOUS
 62
     3
100
AcDbLine
 10
530.271315456084
 20
383.0027343749992
 30
0.0
 11
530.271315456084
 21
216.9972656249992
 31
0.0
  0
LINE
  5
194
330
1F
100
AcDbEntity
  8
S_1_1
  6
CONTINUOUS
 62
     3
100
AcDbLine
 10
528.1665962837867
 20
214.9999788851343
 30
0.0
 11
528.1665962837867
 21
384.9999894425667
 31
0.0
  0
LINE
  5
195
330
1F
100
AcDbEntity
  8
S_1_1
  6
CONTINUOUS
 62
     3
100
AcDbLine
 10
504.0008868243274
 20
384.9999894425667
 30
0.0
 11
504.0008868243274
 21
214.9999788851343
 31
0.0
  0
LINE
  5
196
330
1F
100
AcDbEntity
  8
S_1_1
  6
CONTINUOUS
 62
     3
100
AcDbLine
 10
545.0000105574354
 20
387.999704391891
 30
0.0
 11
545.0000105574354
 21
211.9995354729721
 31
0.0
  0
LINE
  5
197
330
1F
100
AcDbEntity
  8
S_1_1
  6
CONTINUOUS
 62
     3
100
AcDbLine
 10
619.0005278716246
 20
404.999556587837
 30
0.0
 11
620.0000422297326
 21
403.9993137668911
 31
0.0
  0
LINE
  5
198
330
1F
100
AcDbEntity
  8
S_1_1
  6
CONTINUOUS
 62
     3
100
AcDbLine
 10
575.0003589527057
 20
288.4994404560802
 30
0.0
 11
575.0003589527057
 21
279.4997888513504
 31
0.0
  0
LINE
  5
199
330
1F
100
AcDbEntity
  8
S_1_1
  6
CONTINUOUS
 62
     3
100
AcDbLine
 10
614.9997466216246
 20
288.4994404560802
 30
0.0
 11
614.9997466216246
 21
279.4997888513504
 31
0.0
  0
LINE
  5
19A
330
1F
100
AcDbEntity
  8
S_1_1
  6
CONTINUOUS
 62
     3
100
AcDbLine
 10
545.0000105574354
 20
211.9995354729721
 30
0.0
 11
547.0004328547327
 21
209.9998416385127
 31
0.0
  0
LINE
  5
19B
330
1F
100
AcDbEntity
  8
S_1_1
  6
CONTINUOUS
 62
     3
100
AcDbLine
 10
547.0004328547327
 20
389.9993982263505
 30
0.0
 11
545.0000105574354
 21
387.999704391891
 31
0.0
  0
LINE
  5
19C
330
1F
100
AcDbEntity
  8
S_1_1
  6
CONTINUOUS
 62
     3
100
AcDbLine
 10
591.0006651182462
 20
404.999556587837
 30
0.0
 11
619.0005278716246
 21
404.999556587837
 31
0.0
  0
LINE
  5
19D
330
1F
100
AcDbEntity
  8
S_1_1
  6
CONTINUOUS
 62
     3
100
AcDbLine
 10
794.0006123310841
 20
389.9993982263505
 30
0.0
 11
794.0006123310841
 21
209.9998416385127
 31
0.0
  0
LINE
  5
19E
330
1F
100
AcDbEntity
  8
S_1_1
  6
CONTINUOUS
 62
     3
100
AcDbLine
 10
794.0006123310841
 20
209.9998416385127
 30
0.0
 11
795.000000000003
 21
210.9992926520262
 31
0.0
  0
LINE
  5
19F
330
1F
100
AcDbEntity
  8
S_1_1
  6
CONTINUOUS
 62
     3
100
AcDbLine
 10
795.000000000003
 20
388.9999472128369
 30
0.0
 11
794.0006123310841
 21
389.9993982263505
 31
0.0
  0
LINE
  5
1A0
330
1F
100
AcDbEntity
  8
S_1_1
  6
CONTINUOUS
 62
     3
100
AcDbLine
 10
547.0004328547327
 20
209.9998416385127
 30
0.0
 11
794.0006123310841
 21
209.9998416385127
 31
0.0
  0
LINE
  5
1A1
330
1F
100
AcDbEntity
  8
S_1_1
  6
CONTINUOUS
 62
     3
100
AcDbLine
 10
681.0000633445975
 20
404.999556587837
 30
0.0
 11
709.0000211148678
 21
404.999556587837
 31
0.0
  0
LINE
  5
1A2
330
1F
100
AcDbEntity
  8
S_1_1
  6
CONTINUOUS
 62
     3
100
AcDbLine
 10
547.0004328547327
 20
389.9993982263505
 30
0.0
 11
547.0004328547327
 21
209.9998416385127
 31
0.0
  0
LINE
  5
1A3
330
1F
100
AcDbEntity
  8
S_1_1
  6
CONTINUOUS
 62
     3
100
AcDbLine
 10
528.1666279560841
 20
384.9999894425667
 30
0.0
 11
504.0008868243274
 21
384.9999894425667
 31
0.0
  0
LINE
  5
1A4
330
1F
100
AcDbEntity
  8
S_1_1
  6
CONTINUOUS
 62
     3
100
AcDbLine
 10
528.1665962837867
 20
214.9999788851343
 30
0.0
 11
504.0008868243274
 21
214.9999788851343
 31
0.0
  0
LINE
  5
1A5
330
1F
100
AcDbEntity
  8
S_1_1
  6
CONTINUOUS
 62
     3
100
AcDbLine
 10
532.0009079391921
 20
249.9999894425667
 30
0.0
 11
532.0009079391921
 21
349.9999788851342
 31
0.0
  0
LINE
  5
1A6
330
1F
100
AcDbEntity
  8
S_1_1
  6
CONTINUOUS
 62
     3
100
AcDbLine
 10
502.0009079391921
 20
216.9999894425668
 30
0.0
 11
502.0009079391921
 21
382.9999788851343
 31
0.0
  0
LINE
  5
1A7
330
1F
100
AcDbEntity
  8
S_1_1
  6
CONTINUOUS
 62
     3
100
AcDbLine
 10
530.2712837837867
 20
216.9972656249992
 30
0.0
 11
532.0009079391921
 21
249.9999894425667
 31
0.0
  0
LINE
  5
1A8
330
1F
100
AcDbEntity
  8
S_1_1
  6
CONTINUOUS
 62
     3
100
AcDbLine
 10
504.0008868243274
 20
214.9999788851343
 30
0.0
 11
502.0009079391921
 21
216.9999894425668
 31
0.0
  0
LINE
  5
1A9
330
1F
100
AcDbEntity
  8
S_1_1
  6
CONTINUOUS
 62
     3
100
AcDbLine
 10
530.2712837837867
 20
216.9972656249992
 30
0.0
 11
528.1665962837867
 21
214.9999788851343
 31
0.0
  0
LINE
  5
1AA
330
1F
100
AcDbEntity
  8
S_1_1
  6
CONTINUOUS
 62
     3
100
AcDbLine
 10
504.0008868243274
 20
384.9999894425667
 30
0.0
 11
502.0009079391921
 21
382.9999788851343
 31
0.0
  0
LINE
  5
1AB
330
1F
100
AcDbEntity
  8
S_1_1
  6
CONTINUOUS
 62
     3
100
AcDbLine
 10
538.000781250003
 20
359.9998416385127
 30
0.0
 11
535.0009079391921
 21
358.267208614864
 31
0.0
  0
LINE
  5
1AC
330
1F
100
AcDbEntity
  8
S_1_1
  6
CONTINUOUS
 62
     3
100
AcDbLine
 10
795.000000000003
 20
388.9999472128369
 30
0.0
 11
795.000000000003
 21
210.9992926520262
 31
0.0
  0
LINE
  5
1AD
330
1F
100
AcDbEntity
  8
S_1_1
  6
CONTINUOUS
 62
     3
100
AcDbLine
 10
530.271315456084
 20
383.0027343749992
 30
0.0
 11
532.0009079391921
 21
349.9999788851342
 31
0.0
  0
LINE
  5
1AE
330
1F
100
AcDbEntity
  8
S_1_1
  6
CONTINUOUS
 62
     3
100
AcDbLine
 10
538.000781250003
 20
239.9993982263506
 30
0.0
 11
535.0009079391921
 21
241.7320312499992
 31
0.0
  0
LINE
  5
1AF
330
1F
100
AcDbEntity
  8
S_1_1
  6
CONTINUOUS
 62
     3
100
AcDbLine
 10
538.000781250003
 20
359.9998416385127
 30
0.0
 11
538.000781250003
 21
239.9993982263506
 31
0.0
  0
LINE
  5
1B0
330
1F
100
AcDbEntity
  8
S_1_1
  6
CONTINUOUS
 62
     3
100
AcDbLine
 10
538.000781250003
 20
239.9993982263506
 30
0.0
 11
545.0000105574354
 21
239.9993982263506
 31
0.0
  0
LINE
  5
1B1
330
1F
100
AcDbEntity
  8
S_1_1
  6
CONTINUOUS
 62
     3
100
AcDbLine
 10
528.1666279560841
 20
384.9999894425667
 30
0.0
 11
530.271315456084
 21
383.0027343749992
 31
0.0
  0
LINE
  5
1B2
330
1F
100
AcDbEntity
  8
S_1_1
  6
CONTINUOUS
 62
     3
100
AcDbLine
 10
535.0009079391921
 20
358.267208614864
 30
0.0
 11
535.0009079391921
 21
241.7320312499992
 31
0.0
  0
LINE
  5
1B3
330
1F
100
AcDbEntity
  8
S_1_1
  6
CONTINUOUS
 62
     3
100
AcDbLine
 10
538.000781250003
 20
359.9998416385127
 30
0.0
 11
545.0000105574354
 21
359.9998416385127
 31
0.0
  0
LINE
  5
1B4
330
1F
100
AcDbEntity
  8
S_1_1
  6
CONTINUOUS
 62
     3
100
AcDbLine
 10
703.2656250000028
 20
409.9998205236478
 30
0.0
 11
686.7357896959488
 21
409.9998205236478
 31
0.0
  0
LINE
  5
1B5
330
1F
100
AcDbEntity
  8
S_1_1
  6
CONTINUOUS
 62
     3
100
AcDbLine
 10
703.3495565878409
 20
411.361665962837
 30
0.0
 11
702.5637668918947
 21
409.9998205236478
 31
0.0
  0
LINE
  5
1B6
330
1F
100
AcDbEntity
  8
S_1_1
  6
CONTINUOUS
 62
     3
100
AcDbLine
 10
687.749049831084
 20
404.999556587837
 30
0.0
 11
687.4361908783812
 21
409.9998205236478
 31
0.0
  0
LINE
  5
1B7
330
1F
100
AcDbEntity
  8
S_1_1
  6
CONTINUOUS
 62
     3
100
AcDbLine
 10
702.9528293918947
 20
404.999556587837
 30
0.0
 11
703.3495565878409
 21
411.361665962837
 31
0.0
  0
LINE
  5
1B8
330
1F
100
AcDbEntity
  8
S_1_1
  6
CONTINUOUS
 62
     3
100
AcDbLine
 10
703.2656250000028
 20
421.7239231418911
 30
0.0
 11
686.7357896959488
 21
421.7239231418911
 31
0.0
  0
LINE
  5
1B9
330
1F
100
AcDbEntity
  8
S_1_1
  6
CONTINUOUS
 62
     3
100
AcDbLine
 10
702.2509079391921
 20
404.999556587837
 30
0.0
 11
702.5637668918947
 21
409.9998205236478
 31
0.0
  0
LINE
  5
1BA
330
1F
100
AcDbEntity
  8
S_1_1
  6
CONTINUOUS
 62
     3
100
AcDbLine
 10
684.5004222973002
 20
411.361665962837
 30
0.0
 11
682.8753167229759
 21
412.2993243243235
 31
0.0
  0
LINE
  5
1BB
330
1F
100
AcDbEntity
  8
S_1_1
  6
CONTINUOUS
 62
     3
100
AcDbLine
 10
705.4995354729758
 20
420.3620460304045
 30
0.0
 11
707.1247043918947
 21
419.4244510135126
 31
0.0
  0
LINE
  5
1BC
330
1F
100
AcDbEntity
  8
S_1_1
  6
CONTINUOUS
 62
     3
100
AcDbLine
 10
705.4995354729758
 20
411.361665962837
 30
0.0
 11
707.1247043918947
 21
412.2993243243235
 31
0.0
  0
LINE
  5
1BD
330
1F
100
AcDbEntity
  8
S_1_1
  6
CONTINUOUS
 62
     3
100
AcDbLine
 10
707.1247043918947
 20
419.4244510135126
 30
0.0
 11
707.1247043918947
 21
412.2993243243235
 31
0.0
  0
LINE
  5
1BE
330
1F
100
AcDbEntity
  8
S_1_1
  6
CONTINUOUS
 62
     3
100
AcDbLine
 10
687.0486486486516
 20
404.999556587837
 30
0.0
 11
686.6503378378409
 21
411.361665962837
 31
0.0
  0
LINE
  5
1BF
330
1F
100
AcDbEntity
  8
S_1_1
  6
CONTINUOUS
 62
     3
100
AcDbLine
 10
687.4361908783812
 20
409.9998205236478
 30
0.0
 11
686.6503378378409
 21
411.361665962837
 31
0.0
  0
LINE
  5
1C0
330
1F
100
AcDbEntity
  8
S_1_1
  6
CONTINUOUS
 62
     3
100
AcDbLine
 10
682.8753167229759
 20
419.4244510135126
 30
0.0
 11
682.8753167229759
 21
412.2993243243235
 31
0.0
  0
LINE
  5
1C1
330
1F
100
AcDbEntity
  8
S_1_1
  6
CONTINUOUS
 62
     3
100
AcDbLine
 10
684.5004222973002
 20
420.3620460304045
 30
0.0
 11
682.8753167229759
 21
419.4244510135126
 31
0.0
  0
LINE
  5
1C2
330
1F
100
AcDbEntity
  8
S_1_1
  6
CONTINUOUS
 62
     3
100
AcDbLine
 10
589.0001794763543
 20
278.9993348817559
 30
0.0
 11
600.9997360641921
 21
278.9993348817559
 31
0.0
  0
LINE
  5
1C3
330
1F
100
AcDbEntity
  8
S_1_1
  6
CONTINUOUS
 62
     3
100
AcDbLine
 10
678.9996410473001
 20
470.3620882601343
 30
0.0
 11
711.0003167229759
 21
470.3620882601343
 31
0.0
  0
LINE
  5
1C4
330
1F
100
AcDbEntity
  8
S_1_1
  6
CONTINUOUS
 62
     3
100
AcDbLine
 10
679.5001266891919
 20
462.8615815033776
 30
0.0
 11
678.9996410473001
 21
463.3620671452694
 31
0.0
  0
LINE
  5
1C5
330
1F
100
AcDbEntity
  8
S_1_1
  6
CONTINUOUS
 62
     3
100
AcDbLine
 10
711.0003167229759
 20
470.3620882601343
 30
0.0
 11
711.0003167229759
 21
463.3620671452694
 31
0.0
  0
LINE
  5
1C6
330
1F
100
AcDbEntity
  8
S_1_1
  6
CONTINUOUS
 62
     3
100
AcDbLine
 10
711.0003167229759
 20
463.3620671452694
 30
0.0
 11
696.750126689192
 21
463.3620671452694
 31
0.0
  0
LINE
  5
1C7
330
1F
100
AcDbEntity
  8
S_1_1
  6
CONTINUOUS
 62
     3
100
AcDbLine
 10
711.0003167229759
 20
479.3616448479722
 30
0.0
 11
678.9996410473001
 21
479.3616448479722
 31
0.0
  0
LINE
  5
1C8
330
1F
100
AcDbEntity
  8
S_1_1
  6
CONTINUOUS
 62
     3
100
AcDbLine
 10
678.9996410473001
 20
470.3620882601343
 30
0.0
 11
678.9996410473001
 21
463.3620671452694
 31
0.0
  0
LINE
  5
1C9
330
1F
100
AcDbEntity
  8
S_1_1
  6
CONTINUOUS
 62
     3
100
AcDbLine
 10
683.0004856418948
 20
455.3618982263505
 30
0.0
 11
683.0004856418948
 21
440.361739864864
 31
0.0
  0
LINE
  5
1CA
330
1F
100
AcDbEntity
  8
S_1_1
  6
CONTINUOUS
 62
     3
100
AcDbLine
 10
711.0003167229759
 20
486.8621516047289
 30
0.0
 11
711.0003167229759
 21
479.3616448479722
 31
0.0
  0
LINE
  5
1CB
330
1F
100
AcDbEntity
  8
S_1_1
  6
CONTINUOUS
 62
     3
100
AcDbLine
 10
708.0004434121652
 20
489.8620882601344
 30
0.0
 11
711.0003167229759
 21
486.8621516047289
 31
0.0
  0
LINE
  5
1CC
330
1F
100
AcDbEntity
  8
S_1_1
  6
CONTINUOUS
 62
     3
100
AcDbLine
 10
682.0010346283814
 20
489.8620882601344
 30
0.0
 11
678.9996410473001
 21
486.8621516047289
 31
0.0
  0
LINE
  5
1CD
330
1F
100
AcDbEntity
  8
S_1_1
  6
CONTINUOUS
 62
     3
100
AcDbLine
 10
678.9996410473001
 20
486.8621516047289
 30
0.0
 11
678.9996410473001
 21
479.3616448479722
 31
0.0
  0
LINE
  5
1CE
330
1F
100
AcDbEntity
  8
S_1_1
  6
CONTINUOUS
 62
     3
100
AcDbLine
 10
679.5001266891919
 20
478.8619826858099
 30
0.0
 11
678.9996410473001
 21
479.3616448479722
 31
0.0
  0
LINE
  5
1CF
330
1F
100
AcDbEntity
  8
S_1_1
  6
CONTINUOUS
 62
     3
100
AcDbLine
 10
679.5001266891919
 20
470.861813766891
 30
0.0
 11
678.9996410473001
 21
470.3620882601343
 31
0.0
  0
LINE
  5
1D0
330
1F
100
AcDbEntity
  8
S_1_1
  6
CONTINUOUS
 62
     3
100
AcDbLine
 10
708.0004434121652
 20
489.8620882601344
 30
0.0
 11
682.0010346283814
 21
489.8620882601344
 31
0.0
  0
LINE
  5
1D1
330
1F
100
AcDbEntity
  8
S_1_1
  6
CONTINUOUS
 62
     3
100
AcDbLine
 10
711.0003167229759
 20
470.3620882601343
 30
0.0
 11
710.499831081084
 21
470.861813766891
 31
0.0
  0
LINE
  5
1D2
330
1F
100
AcDbEntity
  8
S_1_1
  6
CONTINUOUS
 62
     3
100
AcDbLine
 10
707.0011190878407
 20
455.3618982263505
 30
0.0
 11
707.0011190878407
 21
440.361739864864
 31
0.0
  0
LINE
  5
1D3
330
1F
100
AcDbEntity
  8
S_1_1
  6
CONTINUOUS
 62
     3
100
AcDbLine
 10
710.000929054057
 20
461.8621304898639
 30
0.0
 11
708.0004434121652
 21
461.8621304898639
 31
0.0
  0
LINE
  5
1D4
330
1F
100
AcDbEntity
  8
S_1_1
  6
CONTINUOUS
 62
     3
100
AcDbLine
 10
682.0010346283814
 20
461.8621304898639
 30
0.0
 11
680.0006123310841
 21
461.8621304898639
 31
0.0
  0
LINE
  5
1D5
330
1F
100
AcDbEntity
  8
S_1_1
  6
CONTINUOUS
 62
     3
100
AcDbLine
 10
711.0003167229759
 20
463.3620671452694
 30
0.0
 11
710.499831081084
 21
462.8615815033776
 31
0.0
  0
LINE
  5
1D6
330
1F
100
AcDbEntity
  8
S_1_1
  6
CONTINUOUS
 62
     3
100
AcDbLine
 10
710.000929054057
 20
459.8617715371614
 30
0.0
 11
708.0004434121652
 21
459.8617715371614
 31
0.0
  0
LINE
  5
1D7
330
1F
100
AcDbEntity
  8
S_1_1
  6
CONTINUOUS
 62
     3
100
AcDbLine
 10
710.499831081084
 20
461.3616448479721
 30
0.0
 11
710.499831081084
 21
460.3621938344587
 31
0.0
  0
LINE
  5
1D8
330
1F
100
AcDbEntity
  8
S_1_1
  6
CONTINUOUS
 62
     3
100
AcDbLine
 10
679.5001266891919
 20
461.3616448479721
 30
0.0
 11
679.5001266891919
 21
460.3621938344587
 31
0.0
  0
LINE
  5
1D9
330
1F
100
AcDbEntity
  8
S_1_1
  6
CONTINUOUS
 62
     3
100
AcDbLine
 10
711.0003167229759
 20
479.3616448479722
 30
0.0
 11
710.499831081084
 21
478.8619826858099
 31
0.0
  0
LINE
  5
1DA
330
1F
100
AcDbEntity
  8
S_1_1
  6
CONTINUOUS
 62
     3
100
AcDbLine
 10
711.0003167229759
 20
486.8621516047289
 30
0.0
 11
678.9996410473001
 21
486.8621516047289
 31
0.0
  0
LINE
  5
1DB
330
1F
100
AcDbEntity
  8
S_1_1
  6
CONTINUOUS
 62
     3
100
AcDbLine
 10
696.855468750003
 20
463.3620671452694
 30
0.0
 11
696.750126689192
 21
463.5436760979723
 31
0.0
  0
LINE
  5
1DC
330
1F
100
AcDbEntity
  8
S_1_1
  6
CONTINUOUS
 62
     3
100
AcDbLine
 10
680.0006123310841
 20
403.9993137668911
 30
0.0
 11
710.000929054057
 21
403.9993137668911
 31
0.0
  0
LINE
  5
1DD
330
1F
100
AcDbEntity
  8
S_1_1
  6
CONTINUOUS
 62
     3
100
AcDbLine
 10
600.9997360641921
 20
288.4994404560802
 30
0.0
 11
600.9997360641921
 21
290.4998627533774
 31
0.0
  0
LINE
  5
1DE
330
1F
100
AcDbEntity
  8
S_1_1
  6
CONTINUOUS
 62
     3
100
AcDbLine
 10
575.0003589527057
 20
320.4994193412153
 30
0.0
 11
614.9997466216246
 21
320.4994193412153
 31
0.0
  0
LINE
  5
1DF
330
1F
100
AcDbEntity
  8
S_1_1
  6
CONTINUOUS
 62
     3
100
AcDbLine
 10
572.9998733108139
 20
309.4993137668911
 30
0.0
 11
613.0008129223002
 21
309.4993137668911
 31
0.0
  0
LINE
  5
1E0
330
1F
100
AcDbEntity
  8
S_1_1
  6
CONTINUOUS
 62
     3
100
AcDbLine
 10
589.0001794763543
 20
288.4994404560802
 30
0.0
 11
589.0001794763543
 21
290.4998627533774
 31
0.0
  0
LINE
  5
1E1
330
1F
100
AcDbEntity
  8
S_1_1
  6
CONTINUOUS
 62
     3
100
AcDbLine
 10
711.999831081084
 20
290.9995882601343
 30
0.0
 11
711.999831081084
 21
308.9996516047289
 31
0.0
  0
LINE
  5
1E2
330
1F
100
AcDbEntity
  8
S_1_1
  6
CONTINUOUS
 62
     3
100
AcDbLine
 10
705.4995354729758
 20
420.3620460304045
 30
0.0
 11
684.5004222973002
 21
420.3620460304045
 31
0.0
  0
LINE
  5
1E3
330
1F
100
AcDbEntity
  8
S_1_1
  6
CONTINUOUS
 62
     3
100
AcDbLine
 10
688.937647804057
 20
419.4244510135126
 30
0.0
 11
688.937647804057
 21
412.2993243243235
 31
0.0
  0
LINE
  5
1E4
330
1F
100
AcDbEntity
  8
S_1_1
  6
CONTINUOUS
 62
     3
100
AcDbLine
 10
572.9998733108139
 20
290.4998627533774
 30
0.0
 11
572.9998733108139
 21
309.4993137668911
 31
0.0
  0
LINE
  5
1E5
330
1F
100
AcDbEntity
  8
S_1_1
  6
CONTINUOUS
 62
     3
100
AcDbLine
 10
613.4997149493272
 20
308.9996516047289
 30
0.0
 11
711.999831081084
 21
308.9996516047289
 31
0.0
  0
LINE
  5
1E6
330
1F
100
AcDbEntity
  8
S_1_1
  6
CONTINUOUS
 62
     3
100
AcDbLine
 10
701.0623099662191
 20
419.4244510135126
 30
0.0
 11
701.0623099662191
 21
412.2993243243235
 31
0.0
  0
LINE
  5
1E7
330
1F
100
AcDbEntity
  8
S_1_1
  6
CONTINUOUS
 62
     3
100
AcDbLine
 10
589.0001794763543
 20
311.4997994087829
 30
0.0
 11
589.0001794763543
 21
309.4993137668911
 31
0.0
  0
LINE
  5
1E8
330
1F
100
AcDbEntity
  8
S_1_1
  6
CONTINUOUS
 62
     3
100
AcDbLine
 10
705.4995354729758
 20
411.361665962837
 30
0.0
 11
684.5004222973002
 21
411.361665962837
 31
0.0
  0
LINE
  5
1E9
330
1F
100
AcDbEntity
  8
S_1_1
  6
CONTINUOUS
 62
     3
100
AcDbLine
 10
600.9997360641921
 20
311.4997994087829
 30
0.0
 11
600.9997360641921
 21
309.4993137668911
 31
0.0
  0
LINE
  5
1EA
330
1F
100
AcDbEntity
  8
S_1_1
  6
CONTINUOUS
 62
     3
100
AcDbLine
 10
713.0008023648679
 20
291.9997994087829
 30
0.0
 11
713.0008023648679
 21
307.9994087837829
 31
0.0
  0
LINE
  5
1EB
330
1F
100
AcDbEntity
  8
S_1_1
  6
CONTINUOUS
 62
     3
100
AcDbLine
 10
683.0004856418948
 20
490.3617504222965
 30
0.0
 11
683.0004856418948
 21
489.8620882601344
 31
0.0
  0
LINE
  5
1EC
330
1F
100
AcDbEntity
  8
S_1_1
  6
CONTINUOUS
 62
     3
100
AcDbLine
 10
708.0004434121652
 20
439.7842588682423
 30
0.0
 11
708.0004434121652
 21
428.4393369932424
 31
0.0
  0
LINE
  5
1ED
330
1F
100
AcDbEntity
  8
S_1_1
  6
CONTINUOUS
 62
     3
100
AcDbLine
 10
702.8810599662191
 20
427.861760979729
 30
0.0
 11
703.3495565878409
 21
420.3620460304045
 31
0.0
  0
LINE
  5
1EE
330
1F
100
AcDbEntity
  8
S_1_1
  6
CONTINUOUS
 62
     3
100
AcDbLine
 10
707.0011190878407
 20
490.3617504222965
 30
0.0
 11
707.0011190878407
 21
489.8620882601344
 31
0.0
  0
LINE
  5
1EF
330
1F
100
AcDbEntity
  8
S_1_1
  6
CONTINUOUS
 62
     3
100
AcDbLine
 10
708.0004434121652
 20
462.8615815033776
 30
0.0
 11
708.0004434121652
 21
455.9394742398641
 31
0.0
  0
LINE
  5
1F0
330
1F
100
AcDbEntity
  8
S_1_1
  6
CONTINUOUS
 62
     3
100
AcDbLine
 10
682.0010346283814
 20
462.8615815033776
 30
0.0
 11
682.0010346283814
 21
455.9394742398641
 31
0.0
  0
LINE
  5
1F1
330
1F
100
AcDbEntity
  8
S_1_1
  6
CONTINUOUS
 62
     3
100
AcDbLine
 10
687.8207559121652
 20
427.861760979729
 30
0.0
 11
687.4361908783812
 21
421.7239231418911
 31
0.0
  0
LINE
  5
1F2
330
1F
100
AcDbEntity
  8
S_1_1
  6
CONTINUOUS
 62
     3
100
AcDbLine
 10
707.0011190878407
 20
455.3618982263505
 30
0.0
 11
683.0004856418948
 21
455.3618982263505
 31
0.0
  0
LINE
  5
1F3
330
1F
100
AcDbEntity
  8
S_1_1
  6
CONTINUOUS
 62
     3
100
AcDbLine
 10
710.499831081084
 20
462.8615815033776
 30
0.0
 11
696.750126689192
 21
462.8615815033776
 31
0.0
  0
LINE
  5
1F4
330
1F
100
AcDbEntity
  8
S_1_1
  6
CONTINUOUS
 62
     3
100
AcDbLine
 10
687.4361908783812
 20
421.7239231418911
 30
0.0
 11
686.6503378378409
 21
420.3620460304045
 31
0.0
  0
LINE
  5
1F5
330
1F
100
AcDbEntity
  8
S_1_1
  6
CONTINUOUS
 62
     3
100
AcDbLine
 10
575.0003589527057
 20
311.4997994087829
 30
0.0
 11
575.0003589527057
 21
320.4994193412153
 31
0.0
  0
LINE
  5
1F6
330
1F
100
AcDbEntity
  8
S_1_1
  6
CONTINUOUS
 62
     3
100
AcDbLine
 10
614.9997466216246
 20
311.4997994087829
 30
0.0
 11
614.9997466216246
 21
320.4994193412153
 31
0.0
  0
LINE
  5
1F7
330
1F
100
AcDbEntity
  8
S_1_1
  6
CONTINUOUS
 62
     3
100
AcDbLine
 10
575.0003589527057
 20
311.4997994087829
 30
0.0
 11
614.9997466216246
 21
311.4997994087829
 31
0.0
  0
LINE
  5
1F8
330
1F
100
AcDbEntity
  8
S_1_1
  6
CONTINUOUS
 62
     3
100
AcDbLine
 10
589.9997255067597
 20
403.9993137668911
 30
0.0
 11
620.0000422297326
 21
403.9993137668911
 31
0.0
  0
LINE
  5
1F9
330
1F
100
AcDbEntity
  8
S_1_1
  6
CONTINUOUS
 62
     3
100
AcDbLine
 10
702.1807854729759
 20
427.861760979729
 30
0.0
 11
702.5637668918947
 21
421.7239231418911
 31
0.0
  0
LINE
  5
1FA
330
1F
100
AcDbEntity
  8
S_1_1
  6
CONTINUOUS
 62
     3
100
AcDbLine
 10
703.3495565878409
 20
420.3620460304045
 30
0.0
 11
702.5637668918947
 21
421.7239231418911
 31
0.0
  0
LINE
  5
1FB
330
1F
100
AcDbEntity
  8
S_1_1
  6
CONTINUOUS
 62
     3
100
AcDbLine
 10
687.1187711148676
 20
427.861760979729
 30
0.0
 11
686.6503378378409
 21
420.3620460304045
 31
0.0
  0
LINE
  5
1FC
330
1F
100
AcDbEntity
  8
S_1_1
  6
CONTINUOUS
 62
     3
100
AcDbLine
 10
707.0011190878407
 20
490.3617504222965
 30
0.0
 11
683.0004856418948
 21
490.3617504222965
 31
0.0
  0
LINE
  5
1FD
330
1F
100
AcDbEntity
  8
S_1_1
  6
CONTINUOUS
 62
     3
100
AcDbLine
 10
707.0011190878407
 20
440.361739864864
 30
0.0
 11
683.0004856418948
 21
440.361739864864
 31
0.0
  0
LINE
  5
1FE
330
1F
100
AcDbEntity
  8
S_1_1
  6
CONTINUOUS
 62
     3
100
AcDbLine
 10
683.0004856418948
 20
440.361739864864
 30
0.0
 11
682.0010346283814
 21
439.7842588682423
 31
0.0
  0
LINE
  5
1FF
330
1F
100
AcDbEntity
  8
S_1_1
  6
CONTINUOUS
 62
     3
100
AcDbLine
 10
707.0011190878407
 20
427.861760979729
 30
0.0
 11
683.0004856418948
 21
427.861760979729
 31
0.0
  0
LINE
  5
200
330
1F
100
AcDbEntity
  8
S_1_1
  6
CONTINUOUS
 62
     3
100
AcDbLine
 10
708.0004434121652
 20
439.7842588682423
 30
0.0
 11
707.0011190878407
 21
440.361739864864
 31
0.0
  0
LINE
  5
201
330
1F
100
AcDbEntity
  8
S_1_1
  6
CONTINUOUS
 62
     3
100
AcDbLine
 10
689.9996832770299
 20
439.7842588682423
 30
0.0
 11
682.0010346283814
 21
439.7842588682423
 31
0.0
  0
LINE
  5
202
330
1F
100
AcDbEntity
  8
S_1_1
  6
CONTINUOUS
 62
     3
100
AcDbLine
 10
689.9996832770299
 20
428.4393369932424
 30
0.0
 11
682.0010346283814
 21
428.4393369932424
 31
0.0
  0
LINE
  5
203
330
1F
100
AcDbEntity
  8
S_1_1
  6
CONTINUOUS
 62
     3
100
AcDbLine
 10
708.0004434121652
 20
428.4393369932424
 30
0.0
 11
707.0011190878407
 21
427.861760979729
 31
0.0
  0
LINE
  5
204
330
1F
100
AcDbEntity
  8
S_1_1
  6
CONTINUOUS
 62
     3
100
AcDbLine
 10
679.5001266891919
 20
478.8619826858099
 30
0.0
 11
679.5001266891919
 21
470.861813766891
 31
0.0
  0
LINE
  5
205
330
1F
100
AcDbEntity
  8
S_1_1
  6
CONTINUOUS
 62
     3
100
AcDbLine
 10
710.499831081084
 20
470.861813766891
 30
0.0
 11
679.5001266891919
 21
470.861813766891
 31
0.0
  0
LINE
  5
206
330
1F
100
AcDbEntity
  8
S_1_1
  6
CONTINUOUS
 62
     3
100
AcDbLine
 10
710.499831081084
 20
478.8619826858099
 30
0.0
 11
679.5001266891919
 21
478.8619826858099
 31
0.0
  0
LINE
  5
207
330
1F
100
AcDbEntity
  8
S_1_1
  6
CONTINUOUS
 62
     3
100
AcDbLine
 10
710.499831081084
 20
478.8619826858099
 30
0.0
 11
710.499831081084
 21
470.861813766891
 31
0.0
  0
LINE
  5
208
330
1F
100
AcDbEntity
  8
S_1_1
  6
CONTINUOUS
 62
     3
100
AcDbLine
 10
708.0004434121652
 20
455.9394742398641
 30
0.0
 11
682.0010346283814
 21
455.9394742398641
 31
0.0
  0
LINE
  5
209
330
1F
100
AcDbEntity
  8
S_1_1
  6
CONTINUOUS
 62
     3
100
AcDbLine
 10
708.0004434121652
 20
455.9394742398641
 30
0.0
 11
707.0011190878407
 21
455.3618982263505
 31
0.0
  0
LINE
  5
20A
330
1F
100
AcDbEntity
  8
S_1_1
  6
CONTINUOUS
 62
     3
100
AcDbLine
 10
683.0004856418948
 20
455.3618982263505
 30
0.0
 11
682.0010346283814
 21
455.9394742398641
 31
0.0
  0
LINE
  5
20B
330
1F
100
AcDbEntity
  8
S_1_1
  6
CONTINUOUS
 62
     3
100
AcDbLine
 10
708.0004434121652
 20
439.7842588682423
 30
0.0
 11
700.0003378378407
 21
439.7842588682423
 31
0.0
  0
LINE
  5
20C
330
1F
100
AcDbEntity
  8
S_1_1
  6
CONTINUOUS
 62
     3
100
AcDbLine
 10
708.0004434121652
 20
428.4393369932424
 30
0.0
 11
700.0003378378407
 21
428.4393369932424
 31
0.0
  0
LINE
  5
20D
330
1F
100
AcDbEntity
  8
S_1_1
  6
CONTINUOUS
 62
     3
100
AcDbLine
 10
710.499831081084
 20
460.3621938344587
 30
0.0
 11
710.000929054057
 21
459.8617715371614
 31
0.0
  0
LINE
  5
20E
330
1F
100
AcDbEntity
  8
S_1_1
  6
CONTINUOUS
 62
     3
100
AcDbLine
 10
693.249831081084
 20
463.3620671452694
 30
0.0
 11
678.9996410473001
 21
463.3620671452694
 31
0.0
  0
LINE
  5
20F
330
1F
100
AcDbEntity
  8
S_1_1
  6
CONTINUOUS
 62
     3
100
AcDbLine
 10
682.0010346283814
 20
439.7842588682423
 30
0.0
 11
682.0010346283814
 21
428.4393369932424
 31
0.0
  0
LINE
  5
210
330
1F
100
AcDbEntity
  8
S_1_1
  6
CONTINUOUS
 62
     3
100
AcDbLine
 10
696.750126689192
 20
466.3620038006749
 30
0.0
 11
693.249831081084
 21
466.3620038006749
 31
0.0
  0
LINE
  5
211
330
1F
100
AcDbEntity
  8
S_1_1
  6
CONTINUOUS
 62
     3
100
AcDbLine
 10
693.249831081084
 20
462.8615815033776
 30
0.0
 11
679.5001266891919
 21
462.8615815033776
 31
0.0
  0
LINE
  5
212
330
1F
100
AcDbEntity
  8
S_1_1
  6
CONTINUOUS
 62
     3
100
AcDbLine
 10
600.9997360641921
 20
320.9999049831073
 30
0.0
 11
600.9997360641921
 21
320.4994193412153
 31
0.0
  0
LINE
  5
213
330
1F
100
AcDbEntity
  8
S_1_1
  6
CONTINUOUS
 62
     3
100
AcDbLine
 10
711.999831081084
 20
308.9996516047289
 30
0.0
 11
713.0008023648679
 21
307.9994087837829
 31
0.0
  0
LINE
  5
214
330
1F
100
AcDbEntity
  8
S_1_1
  6
CONTINUOUS
 62
     3
100
AcDbLine
 10
613.0008129223002
 20
290.4998627533774
 30
0.0
 11
613.0008129223002
 21
309.4993137668911
 31
0.0
  0
LINE
  5
215
330
1F
100
AcDbEntity
  8
S_1_1
  6
CONTINUOUS
 62
     3
100
AcDbLine
 10
589.0001794763543
 20
320.9999049831073
 30
0.0
 11
589.0001794763543
 21
320.4994193412153
 31
0.0
  0
LINE
  5
216
330
1F
100
AcDbEntity
  8
S_1_1
  6
CONTINUOUS
 62
     3
100
AcDbLine
 10
589.0001794763543
 20
320.9999049831073
 30
0.0
 11
600.9997360641921
 21
320.9999049831073
 31
0.0
  0
LINE
  5
217
330
1F
100
AcDbEntity
  8
S_1_1
  6
CONTINUOUS
 62
     3
100
AcDbLine
 10
693.249831081084
 20
463.5436760979723
 30
0.0
 11
693.1460726351381
 21
463.3620671452694
 31
0.0
  0
LINE
  5
218
330
1F
100
AcDbEntity
  8
S_1_1
  6
CONTINUOUS
 62
     3
100
AcDbLine
 10
710.499831081084
 20
461.3616448479721
 30
0.0
 11
710.000929054057
 21
461.8621304898639
 31
0.0
  0
LINE
  5
219
330
1F
100
AcDbEntity
  8
S_1_1
  6
CONTINUOUS
 62
     3
100
AcDbLine
 10
682.0010346283814
 20
459.8617715371614
 30
0.0
 11
680.0006123310841
 21
459.8617715371614
 31
0.0
  0
LINE
  5
21A
330
1F
100
AcDbEntity
  8
S_1_1
  6
CONTINUOUS
 62
     3
100
AcDbLine
 10
693.249831081084
 20
466.3620038006749
 30
0.0
 11
693.249831081084
 21
462.8615815033776
 31
0.0
  0
LINE
  5
21B
330
1F
100
AcDbEntity
  8
S_1_1
  6
CONTINUOUS
 62
     3
100
AcDbLine
 10
696.750126689192
 20
466.3620038006749
 30
0.0
 11
696.750126689192
 21
462.8615815033776
 31
0.0
  0
LINE
  5
21C
330
1F
100
AcDbEntity
  8
S_1_1
  6
CONTINUOUS
 62
     3
100
AcDbLine
 10
680.0006123310841
 20
461.8621304898639
 30
0.0
 11
679.5001266891919
 21
461.3616448479721
 31
0.0
  0
LINE
  5
21D
330
1F
100
AcDbEntity
  8
S_1_1
  6
CONTINUOUS
 62
     3
100
AcDbLine
 10
689.9996832770299
 20
439.7842588682423
 30
0.0
 11
689.9996832770299
 21
428.4393369932424
 31
0.0
  0
LINE
  5
21E
330
1F
100
AcDbEntity
  8
S_1_1
  6
CONTINUOUS
 62
     3
100
AcDbLine
 10
683.0004856418948
 20
427.861760979729
 30
0.0
 11
682.0010346283814
 21
428.4393369932424
 31
0.0
  0
LINE
  5
21F
330
1F
100
AcDbEntity
  8
S_1_1
  6
CONTINUOUS
 62
     3
100
AcDbLine
 10
680.0006123310841
 20
459.8617715371614
 30
0.0
 11
679.5001266891919
 21
460.3621938344587
 31
0.0
  0
LINE
  5
220
330
1F
100
AcDbEntity
  8
S_1_1
  6
CONTINUOUS
 62
     3
100
AcDbLine
 10
700.0003378378407
 20
439.7842588682423
 30
0.0
 11
700.0003378378407
 21
428.4393369932424
 31
0.0
  0
CIRCLE
  5
221
330
1F
100
AcDbEntity
  8
S_1_1
  6
CONTINUOUS
 62
     3
100
AcDbCircle
 10
595.0000211148679
 20
299.9999999999991
 30
0.0
 40
2.1
  0
CIRCLE
  5
222
330
1F
100
AcDbEntity
  8
S_1_1
  6
CONTINUOUS
 62
     3
100
AcDbCircle
 10
595.0000211148679
 20
299.9999999999991
 30
0.0
 40
2.499999835040118
  0
ARC
  5
223
330
1F
100
AcDbEntity
  8
S_1_1
  6
CONTINUOUS
 62
     3
100
AcDbCircle
 10
532.0009079391921
 20
299.9999999999991
 30
0.0
 40
49.99999868032095
100
AcDbArc
 50
269.9999999999998
 51
273.4398193359373
  0
ARC
  5
224
330
1F
100
AcDbEntity
  8
S_1_1
  6
CONTINUOUS
 62
     3
100
AcDbCircle
 10
613.4997149493272
 20
290.4998627533774
 30
0.0
 40
0.499999948450037
100
AcDbArc
 50
89.99999999999991
 51
179.9999999999998
  0
ARC
  5
225
330
1F
100
AcDbEntity
  8
S_1_1
  6
CONTINUOUS
 62
     3
100
AcDbCircle
 10
595.0000211148679
 20
303.4995988175666
 30
0.0
 40
18.49999868032094
100
AcDbArc
 50
71.07536315917952
 51
108.9246520996093
  0
ARC
  5
226
330
1F
100
AcDbEntity
  8
S_1_1
  6
CONTINUOUS
 62
     3
100
AcDbCircle
 10
595.0000211148679
 20
296.4996410472964
 30
0.0
 40
18.49999868032094
100
AcDbArc
 50
251.0753479003903
 51
288.9246520996091
  0
ARC
  5
227
330
1F
100
AcDbEntity
  8
S_1_1
  6
CONTINUOUS
 62
     3
100
AcDbCircle
 10
694.999978885138
 20
418.4226879222965
 30
0.0
 40
21.93943992820946
100
AcDbArc
 50
76.82650756835928
 51
103.1734771728514
  0
ARC
  5
228
330
1F
100
AcDbEntity
  8
S_1_1
  6
CONTINUOUS
 62
     3
100
AcDbCircle
 10
704.0942356418948
 20
416.7289801520261
 30
0.0
 40
5.367245400918497
100
AcDbArc
 50
235.6158447265621
 51
304.3841247558591
  0
ARC
  5
229
330
1F
100
AcDbEntity
  8
S_1_1
  6
CONTINUOUS
 62
     3
100
AcDbCircle
 10
532.0009079391921
 20
299.9999999999991
 30
0.0
 40
49.99999868032095
100
AcDbArc
 50
86.56019592285148
 51
89.99999999999996
  0
ARC
  5
22A
330
1F
100
AcDbEntity
  8
S_1_1
  6
CONTINUOUS
 62
     3
100
AcDbCircle
 10
613.4997149493272
 20
309.4993137668911
 30
0.0
 40
0.499999948450037
100
AcDbArc
 50
179.9999847412111
 51
270.0000000000002
  0
ARC
  5
22B
330
1F
100
AcDbEntity
  8
S_1_1
  6
CONTINUOUS
 62
     3
100
AcDbCircle
 10
694.999978885138
 20
449.8015730574318
 30
0.0
 40
21.93943992820946
100
AcDbArc
 50
256.8265380859373
 51
283.1735229492186
  0
ARC
  5
22C
330
1F
100
AcDbEntity
  8
S_1_1
  6
CONTINUOUS
 62
     3
100
AcDbCircle
 10
704.0942356418948
 20
414.9947951858099
 30
0.0
 40
5.367245400918497
100
AcDbArc
 50
55.61592102050718
 51
124.3842010498047
  0
ARC
  5
22D
330
1F
100
AcDbEntity
  8
S_1_1
  6
CONTINUOUS
 62
     3
100
AcDbCircle
 10
694.999978885138
 20
431.423944256756
 30
0.0
 40
20.06219515413851
100
AcDbArc
 50
252.4121246337888
 51
287.5880126953121
  0
ARC
  5
22E
330
1F
100
AcDbEntity
  8
S_1_1
  6
CONTINUOUS
 62
     3
100
AcDbCircle
 10
694.999978885138
 20
400.2998310810802
 30
0.0
 40
20.06219515413851
100
AcDbArc
 50
72.41204833984351
 51
107.5879364013673
  0
ARC
  5
22F
330
1F
100
AcDbEntity
  8
S_1_1
  6
CONTINUOUS
 62
     3
100
AcDbCircle
 10
685.9073057432463
 20
416.7289801520261
 30
0.0
 40
5.367245400918497
100
AcDbArc
 50
235.6159210205072
 51
304.3842163085933
  0
ARC
  5
230
330
1F
100
AcDbEntity
  8
S_1_1
  6
CONTINUOUS
 62
     3
100
AcDbCircle
 10
685.9073057432463
 20
414.9947951858099
 30
0.0
 40
5.367245400918497
100
AcDbArc
 50
55.6158294677732
 51
124.3841247558591
  0
LINE
  5
231
330
1F
100
AcDbEntity
  8
S_1_1
  6
EXLTYPE2
 62
     1
100
AcDbLine
 10
418.777370143584
 20
299.9999999999991
 30
0.0
 11
149.5670238598002
 21
299.9999999999991
 31
0.0
  0
LINE
  5
232
330
1F
100
AcDbEntity
  8
S_1_1
  6
EXLTYPE2
 62
     1
100
AcDbLine
 10
394.2622519003407
 20
276.1451224662154
 30
0.0
 11
394.2622519003407
 21
324.6929581925666
 31
0.0
  0
LINE
  5
233
330
1F
100
AcDbEntity
  8
S_1_1
  6
EXLTYPE2
 62
     1
100
AcDbLine
 10
175.7376926731449
 20
276.1451224662154
 30
0.0
 11
175.7376926731449
 21
324.6929581925666
 31
0.0
  0
CIRCLE
  5
234
330
1F
100
AcDbEntity
  8
S_1_1
  6
EXLTYPE2
 62
     1
100
AcDbCircle
 10
285.000000000003
 20
299.9999999999991
 30
0.0
 40
60.0
  0
CIRCLE
  5
235
330
1F
100
AcDbEntity
  8
S_1_1
  6
EXLTYPE2
 62
     1
100
AcDbCircle
 10
285.000000000003
 20
299.9999999999991
 30
0.0
 40
30.0
  0
CIRCLE
  5
236
330
1F
100
AcDbEntity
  8
S_1_1
  6
EXLTYPE2
 62
     1
100
AcDbCircle
 10
285.000000000003
 20
299.9999999999991
 30
0.0
 40
49.99999868032095
  0
CIRCLE
  5
237
330
1F
100
AcDbEntity
  8
S_1_1
  6
EXLTYPE2
 62
     1
100
AcDbCircle
 10
285.000000000003
 20
299.9999999999991
 30
0.0
 40
69.9999973606419
  0
LINE
  5
238
330
1F
100
AcDbEntity
  8
S_1_1
  6
CONTINUOUS
 62
     3
100
AcDbLine
 10
400.2619351773678
 20
311.4997994087829
 30
0.0
 11
400.2619351773678
 21
309.9999894425667
 31
0.0
  0
LINE
  5
239
330
1F
100
AcDbEntity
  8
S_1_1
  6
CONTINUOUS
 62
     3
100
AcDbLine
 10
388.2624102618272
 20
311.4997994087829
 30
0.0
 11
388.2624102618272
 21
309.9999894425667
 31
0.0
  0
LINE
  5
23A
330
1F
100
AcDbEntity
  8
S_1_1
  6
CONTINUOUS
 62
     3
100
AcDbLine
 10
388.2624102618272
 20
320.9999049831073
 30
0.0
 11
400.2619351773678
 21
320.9999049831073
 31
0.0
  0
LINE
  5
23B
330
1F
100
AcDbEntity
  8
S_1_1
  6
CONTINUOUS
 62
     3
100
AcDbLine
 10
388.2624102618272
 20
320.9999049831073
 30
0.0
 11
388.2624102618272
 21
320.4994193412153
 31
0.0
  0
LINE
  5
23C
330
1F
100
AcDbEntity
  8
S_1_1
  6
CONTINUOUS
 62
     3
100
AcDbLine
 10
400.2619351773678
 20
320.9999049831073
 30
0.0
 11
400.2619351773678
 21
320.4994193412153
 31
0.0
  0
LINE
  5
23D
330
1F
100
AcDbEntity
  8
S_1_1
  6
CONTINUOUS
 62
     3
100
AcDbLine
 10
400.2619351773678
 20
288.4994404560802
 30
0.0
 11
400.2619351773678
 21
289.9999788851343
 31
0.0
  0
LINE
  5
23E
330
1F
100
AcDbEntity
  8
S_1_1
  6
CONTINUOUS
 62
     3
100
AcDbLine
 10
388.2624102618272
 20
288.4994404560802
 30
0.0
 11
388.2624102618272
 21
289.9999788851343
 31
0.0
  0
LINE
  5
23F
330
1F
100
AcDbEntity
  8
S_1_1
  6
CONTINUOUS
 62
     3
100
AcDbLine
 10
400.2619351773678
 20
278.9993348817559
 30
0.0
 11
400.2619351773678
 21
279.4997888513504
 31
0.0
  0
LINE
  5
240
330
1F
100
AcDbEntity
  8
S_1_1
  6
CONTINUOUS
 62
     3
100
AcDbLine
 10
388.2624102618272
 20
278.9993348817559
 30
0.0
 11
388.2624102618272
 21
279.4997888513504
 31
0.0
  0
LINE
  5
241
330
1F
100
AcDbEntity
  8
S_1_1
  6
CONTINUOUS
 62
     3
100
AcDbLine
 10
388.2624102618272
 20
278.9993348817559
 30
0.0
 11
400.2619351773678
 21
278.9993348817559
 31
0.0
  0
LINE
  5
242
330
1F
100
AcDbEntity
  8
S_1_1
  6
CONTINUOUS
 62
     3
100
AcDbLine
 10
169.7378510346314
 20
311.4997994087829
 30
0.0
 11
169.7378510346314
 21
309.9999894425667
 31
0.0
  0
LINE
  5
243
330
1F
100
AcDbEntity
  8
S_1_1
  6
CONTINUOUS
 62
     3
100
AcDbLine
 10
181.737375950172
 20
278.9993348817559
 30
0.0
 11
181.737375950172
 21
279.4997888513504
 31
0.0
  0
LINE
  5
244
330
1F
100
AcDbEntity
  8
S_1_1
  6
CONTINUOUS
 62
     3
100
AcDbLine
 10
181.737375950172
 20
288.4994404560802
 30
0.0
 11
181.737375950172
 21
289.9999788851343
 31
0.0
  0
LINE
  5
245
330
1F
100
AcDbEntity
  8
S_1_1
  6
CONTINUOUS
 62
     3
100
AcDbLine
 10
181.737375950172
 20
311.4997994087829
 30
0.0
 11
181.737375950172
 21
309.9999894425667
 31
0.0
  0
LINE
  5
246
330
1F
100
AcDbEntity
  8
S_1_1
  6
CONTINUOUS
 62
     3
100
AcDbLine
 10
169.7378510346314
 20
278.9993348817559
 30
0.0
 11
181.737375950172
 21
278.9993348817559
 31
0.0
  0
LINE
  5
247
330
1F
100
AcDbEntity
  8
S_1_1
  6
CONTINUOUS
 62
     3
100
AcDbLine
 10
181.737375950172
 20
320.9999049831073
 30
0.0
 11
181.737375950172
 21
320.4994193412153
 31
0.0
  0
LINE
  5
248
330
1F
100
AcDbEntity
  8
S_1_1
  6
CONTINUOUS
 62
     3
100
AcDbLine
 10
169.7378510346314
 20
288.4994404560802
 30
0.0
 11
169.7378510346314
 21
289.9999788851343
 31
0.0
  0
LINE
  5
249
330
1F
100
AcDbEntity
  8
S_1_1
  6
CONTINUOUS
 62
     3
100
AcDbLine
 10
169.7378510346314
 20
278.9993348817559
 30
0.0
 11
169.7378510346314
 21
279.4997888513504
 31
0.0
  0
LINE
  5
24A
330
1F
100
AcDbEntity
  8
S_1_1
  6
CONTINUOUS
 62
     3
100
AcDbLine
 10
169.7378510346314
 20
320.9999049831073
 30
0.0
 11
169.7378510346314
 21
320.4994193412153
 31
0.0
  0
LINE
  5
24B
330
1F
100
AcDbEntity
  8
S_1_1
  6
CONTINUOUS
 62
     3
100
AcDbLine
 10
169.7378510346314
 20
320.9999049831073
 30
0.0
 11
181.737375950172
 21
320.9999049831073
 31
0.0
  0
LINE
  5
24C
330
1F
100
AcDbEntity
  8
S_1_1
  6
CONTINUOUS
 62
     3
100
AcDbLine
 10
414.2622624577732
 20
311.4997994087829
 30
0.0
 11
414.2622624577732
 21
320.4994193412153
 31
0.0
  0
LINE
  5
24D
330
1F
100
AcDbEntity
  8
S_1_1
  6
CONTINUOUS
 62
     3
100
AcDbLine
 10
414.2621357685841
 20
288.4994404560802
 30
0.0
 11
374.2621463260163
 21
288.4994404560802
 31
0.0
  0
LINE
  5
24E
330
1F
100
AcDbEntity
  8
S_1_1
  6
CONTINUOUS
 62
     3
100
AcDbLine
 10
374.2621463260163
 20
279.4997888513504
 30
0.0
 11
374.2621463260163
 21
288.4994404560802
 31
0.0
  0
LINE
  5
24F
330
1F
100
AcDbEntity
  8
S_1_1
  6
CONTINUOUS
 62
     3
100
AcDbLine
 10
414.2622624577732
 20
320.4994193412153
 30
0.0
 11
374.2622730152057
 21
320.4994193412153
 31
0.0
  0
LINE
  5
250
330
1F
100
AcDbEntity
  8
S_1_1
  6
CONTINUOUS
 62
     3
100
AcDbLine
 10
374.2622730152057
 20
311.4997994087829
 30
0.0
 11
374.2622730152057
 21
320.4994193412153
 31
0.0
  0
LINE
  5
251
330
1F
100
AcDbEntity
  8
S_1_1
  6
CONTINUOUS
 62
     3
100
AcDbLine
 10
414.2621357685841
 20
279.4997888513504
 30
0.0
 11
374.2621463260163
 21
279.4997888513504
 31
0.0
  0
LINE
  5
252
330
1F
100
AcDbEntity
  8
S_1_1
  6
CONTINUOUS
 62
     3
100
AcDbLine
 10
414.2622624577732
 20
311.4997994087829
 30
0.0
 11
374.2622730152057
 21
311.4997994087829
 31
0.0
  0
LINE
  5
253
330
1F
100
AcDbEntity
  8
S_1_1
  6
CONTINUOUS
 62
     3
100
AcDbLine
 10
195.7376873944286
 20
311.4997994087829
 30
0.0
 11
195.7376873944286
 21
320.4994193412153
 31
0.0
  0
LINE
  5
254
330
1F
100
AcDbEntity
  8
S_1_1
  6
CONTINUOUS
 62
     3
100
AcDbLine
 10
289.0414009712867
 20
306.9999894425667
 30
0.0
 11
280.9585040118272
 21
306.9999894425667
 31
0.0
  0
LINE
  5
255
330
1F
100
AcDbEntity
  8
S_1_1
  6
CONTINUOUS
 62
     3
100
AcDbLine
 10
155.7376900337867
 20
311.4997994087829
 30
0.0
 11
195.7376873944286
 21
311.4997994087829
 31
0.0
  0
LINE
  5
256
330
1F
100
AcDbEntity
  8
S_1_1
  6
CONTINUOUS
 62
     3
100
AcDbLine
 10
155.7378088049015
 20
279.4997888513504
 30
0.0
 11
195.7378061655436
 21
279.4997888513504
 31
0.0
  0
LINE
  5
257
330
1F
100
AcDbEntity
  8
S_1_1
  6
CONTINUOUS
 62
     3
100
AcDbLine
 10
155.7378088049015
 20
288.4994404560802
 30
0.0
 11
195.7378061655436
 21
288.4994404560802
 31
0.0
  0
LINE
  5
258
330
1F
100
AcDbEntity
  8
S_1_1
  6
CONTINUOUS
 62
     3
100
AcDbLine
 10
155.7376900337867
 20
320.4994193412153
 30
0.0
 11
195.7376873944286
 21
320.4994193412153
 31
0.0
  0
LINE
  5
259
330
1F
100
AcDbEntity
  8
S_1_1
  6
CONTINUOUS
 62
     3
100
AcDbLine
 10
190.7378114442597
 20
279.4997888513504
 30
0.0
 11
200.0979254645299
 21
270.1396431587829
 31
0.0
  0
LINE
  5
25A
330
1F
100
AcDbEntity
  8
S_1_1
  6
CONTINUOUS
 62
     3
100
AcDbLine
 10
280.9585040118272
 20
292.9999788851343
 30
0.0
 11
289.0414484797327
 21
292.9999788851343
 31
0.0
  0
LINE
  5
25B
330
1F
100
AcDbEntity
  8
S_1_1
  6
CONTINUOUS
 62
     3
100
AcDbLine
 10
190.7376926731449
 20
320.4994193412153
 30
0.0
 11
200.0975374788882
 21
329.8592483108099
 31
0.0
  0
LINE
  5
25C
330
1F
100
AcDbEntity
  8
S_1_1
  6
CONTINUOUS
 62
     3
100
AcDbLine
 10
280.9585040118272
 20
306.9999894425667
 30
0.0
 11
276.9170713682463
 21
299.9999999999991
 31
0.0
  0
LINE
  5
25D
330
1F
100
AcDbEntity
  8
S_1_1
  6
CONTINUOUS
 62
     3
100
AcDbLine
 10
293.0828811233137
 20
299.9999999999991
 30
0.0
 11
289.0414009712867
 21
306.9999894425667
 31
0.0
  0
LINE
  5
25E
330
1F
100
AcDbEntity
  8
S_1_1
  6
CONTINUOUS
 62
     3
100
AcDbLine
 10
289.0414484797327
 20
292.9999788851343
 30
0.0
 11
293.0828811233137
 21
299.9999999999991
 31
0.0
  0
LINE
  5
25F
330
1F
100
AcDbEntity
  8
S_1_1
  6
CONTINUOUS
 62
     3
100
AcDbLine
 10
155.7376900337867
 20
311.4997994087829
 30
0.0
 11
155.7376900337867
 21
320.4994193412153
 31
0.0
  0
LINE
  5
260
330
1F
100
AcDbEntity
  8
S_1_1
  6
CONTINUOUS
 62
     3
100
AcDbLine
 10
195.7378061655436
 20
279.4997888513504
 30
0.0
 11
195.7378061655436
 21
288.4994404560802
 31
0.0
  0
LINE
  5
261
330
1F
100
AcDbEntity
  8
S_1_1
  6
CONTINUOUS
 62
     3
100
AcDbLine
 10
276.9170713682463
 20
299.9999999999991
 30
0.0
 11
280.9585040118272
 21
292.9999788851343
 31
0.0
  0
LINE
  5
262
330
1F
100
AcDbEntity
  8
S_1_1
  6
CONTINUOUS
 62
     3
100
AcDbLine
 10
155.7378088049015
 20
279.4997888513504
 30
0.0
 11
155.7378088049015
 21
288.4994404560802
 31
0.0
  0
LINE
  5
263
330
1F
100
AcDbEntity
  8
S_1_1
  6
CONTINUOUS
 62
     3
100
AcDbLine
 10
155.7376900337867
 20
289.9999788851343
 30
0.0
 11
190.7376926731449
 21
289.9999788851343
 31
0.0
  0
LINE
  5
264
330
1F
100
AcDbEntity
  8
S_1_1
  6
CONTINUOUS
 62
     3
100
AcDbLine
 10
155.7376900337867
 20
289.9999788851343
 30
0.0
 11
155.7376900337867
 21
309.9999894425667
 31
0.0
  0
LINE
  5
265
330
1F
100
AcDbEntity
  8
S_1_1
  6
CONTINUOUS
 62
     3
100
AcDbLine
 10
190.7376926731449
 20
289.9999788851343
 30
0.0
 11
190.7376926731449
 21
309.9999894425667
 31
0.0
  0
LINE
  5
266
330
1F
100
AcDbEntity
  8
S_1_1
  6
CONTINUOUS
 62
     3
100
AcDbLine
 10
190.7376926731449
 20
309.9999894425667
 30
0.0
 11
155.7376900337867
 21
309.9999894425667
 31
0.0
  0
LINE
  5
267
330
1F
100
AcDbEntity
  8
S_1_1
  6
CONTINUOUS
 62
     3
100
AcDbLine
 10
414.2622624577732
 20
309.9999894425667
 30
0.0
 11
379.2622519003407
 21
309.9999894425667
 31
0.0
  0
LINE
  5
268
330
1F
100
AcDbEntity
  8
S_1_1
  6
CONTINUOUS
 62
     3
100
AcDbLine
 10
379.2622519003407
 20
289.9999788851343
 30
0.0
 11
379.2622519003407
 21
309.9999894425667
 31
0.0
  0
LINE
  5
269
330
1F
100
AcDbEntity
  8
S_1_1
  6
CONTINUOUS
 62
     3
100
AcDbLine
 10
379.2622519003407
 20
289.9999788851343
 30
0.0
 11
414.2622624577732
 21
289.9999788851343
 31
0.0
  0
LINE
  5
26A
330
1F
100
AcDbEntity
  8
S_1_1
  6
CONTINUOUS
 62
     3
100
AcDbLine
 10
414.2621357685841
 20
279.4997888513504
 30
0.0
 11
414.2621357685841
 21
288.4994404560802
 31
0.0
  0
LINE
  5
26B
330
1F
100
AcDbEntity
  8
S_1_1
  6
CONTINUOUS
 62
     3
100
AcDbLine
 10
379.2622519003407
 20
320.4994193412153
 30
0.0
 11
369.9024229307463
 21
329.8592483108099
 31
0.0
  0
LINE
  5
26C
330
1F
100
AcDbEntity
  8
S_1_1
  6
CONTINUOUS
 62
     3
100
AcDbLine
 10
379.2621568834488
 20
279.4997888513504
 30
0.0
 11
369.9020111908812
 21
270.1396431587829
 31
0.0
  0
LINE
  5
26D
330
1F
100
AcDbEntity
  8
S_1_1
  6
CONTINUOUS
 62
     3
100
AcDbLine
 10
298.9999947212866
 20
404.999556587837
 30
0.0
 11
270.9999894425705
 21
404.999556587837
 31
0.0
  0
LINE
  5
26E
330
1F
100
AcDbEntity
  8
S_1_1
  6
CONTINUOUS
 62
     3
100
AcDbLine
 10
414.2622624577732
 20
289.9999788851343
 30
0.0
 11
414.2622624577732
 21
309.9999894425667
 31
0.0
  0
LINE
  5
26F
330
1F
100
AcDbEntity
  8
S_1_1
  6
CONTINUOUS
 62
     3
100
AcDbLine
 10
270.000000000003
 20
403.9995671452695
 30
0.0
 11
270.9999894425705
 21
404.999556587837
 31
0.0
  0
LINE
  5
270
330
1F
100
AcDbEntity
  8
S_1_1
  6
CONTINUOUS
 62
     3
100
AcDbLine
 10
270.000000000003
 20
393.8083086993234
 30
0.0
 11
263.6138196790571
 21
387.4221283783776
 31
0.0
  0
LINE
  5
271
330
1F
100
AcDbEntity
  8
S_1_1
  6
CONTINUOUS
 62
     3
100
AcDbLine
 10
300.000000000003
 20
393.8083086993234
 30
0.0
 11
300.000000000003
 21
403.9995671452695
 31
0.0
  0
LINE
  5
272
330
1F
100
AcDbEntity
  8
S_1_1
  6
CONTINUOUS
 62
     3
100
AcDbLine
 10
270.000000000003
 20
403.9995671452695
 30
0.0
 11
300.000000000003
 21
403.9995671452695
 31
0.0
  0
LINE
  5
273
330
1F
100
AcDbEntity
  8
S_1_1
  6
CONTINUOUS
 62
     3
100
AcDbLine
 10
298.9999947212866
 20
404.999556587837
 30
0.0
 11
300.000000000003
 21
403.9995671452695
 31
0.0
  0
LINE
  5
274
330
1F
100
AcDbEntity
  8
S_1_1
  6
CONTINUOUS
 62
     3
100
AcDbLine
 10
270.000000000003
 20
393.8083086993234
 30
0.0
 11
270.000000000003
 21
403.9995671452695
 31
0.0
  0
LINE
  5
275
330
1F
100
AcDbEntity
  8
S_1_1
  6
CONTINUOUS
 62
     3
100
AcDbLine
 10
300.000000000003
 20
393.8083086993234
 30
0.0
 11
306.3861644848002
 21
387.4221283783776
 31
0.0
  0
CIRCLE
  5
276
330
1F
100
AcDbEntity
  8
S_1_1
  6
CONTINUOUS
 62
     3
100
AcDbCircle
 10
394.2622519003407
 20
299.9999999999991
 30
0.0
 40
2.1
  0
CIRCLE
  5
277
330
1F
100
AcDbEntity
  8
S_1_1
  6
CONTINUOUS
 62
     3
100
AcDbCircle
 10
394.2622519003407
 20
299.9999999999991
 30
0.0
 40
2.499999835040118
  0
ARC
  5
278
330
1F
100
AcDbEntity
  8
S_1_1
  6
CONTINUOUS
 62
     3
100
AcDbCircle
 10
175.7376926731449
 20
303.4995988175666
 30
0.0
 40
18.49999868032094
100
AcDbArc
 50
71.07536315917963
 51
108.9246520996093
  0
CIRCLE
  5
279
330
1F
100
AcDbEntity
  8
S_1_1
  6
CONTINUOUS
 62
     3
100
AcDbCircle
 10
285.000000000003
 20
359.9999999999992
 30
0.0
 40
5.000000164959882
  0
CIRCLE
  5
27A
330
1F
100
AcDbEntity
  8
S_1_1
  6
CONTINUOUS
 62
     3
100
AcDbCircle
 10
225.000000000003
 20
299.9999999999991
 30
0.0
 40
5.000000164959882
  0
ARC
  5
27B
330
1F
100
AcDbEntity
  8
S_1_1
  6
CONTINUOUS
 62
     3
100
AcDbCircle
 10
394.2622519003407
 20
303.4995988175666
 30
0.0
 40
18.49999868032094
100
AcDbArc
 50
71.07536315917967
 51
108.9246520996093
  0
CIRCLE
  5
27C
330
1F
100
AcDbEntity
  8
S_1_1
  6
CONTINUOUS
 62
     3
100
AcDbCircle
 10
285.000000000003
 20
239.9999999999991
 30
0.0
 40
5.000000164959882
  0
CIRCLE
  5
27D
330
1F
100
AcDbEntity
  8
S_1_1
  6
CONTINUOUS
 62
     3
100
AcDbCircle
 10
285.000000000003
 20
359.9999999999992
 30
0.0
 40
6.000000000000001
  0
CIRCLE
  5
27E
330
1F
100
AcDbEntity
  8
S_1_1
  6
CONTINUOUS
 62
     3
100
AcDbCircle
 10
344.9999841638544
 20
299.9999999999991
 30
0.0
 40
5.000000164959882
  0
CIRCLE
  5
27F
330
1F
100
AcDbEntity
  8
S_1_1
  6
CONTINUOUS
 62
     3
100
AcDbCircle
 10
175.7376926731449
 20
299.9999999999991
 30
0.0
 40
2.1
  0
ARC
  5
280
330
1F
100
AcDbEntity
  8
S_1_1
  6
CONTINUOUS
 62
     3
100
AcDbCircle
 10
394.2622519003407
 20
296.4996410472964
 30
0.0
 40
18.49999868032094
100
AcDbArc
 50
251.0753479003903
 51
288.9246520996091
  0
CIRCLE
  5
281
330
1F
100
AcDbEntity
  8
S_1_1
  6
CONTINUOUS
 62
     3
100
AcDbCircle
 10
175.7376926731449
 20
299.9999999999991
 30
0.0
 40
2.499999835040118
  0
ARC
  5
282
330
1F
100
AcDbEntity
  8
S_1_1
  6
CONTINUOUS
 62
     3
100
AcDbCircle
 10
175.7376926731449
 20
296.4996410472964
 30
0.0
 40
18.49999868032094
100
AcDbArc
 50
251.0753479003905
 51
288.9246520996091
  0
CIRCLE
  5
283
330
1F
100
AcDbEntity
  8
S_1_1
  6
CONTINUOUS
 62
     3
100
AcDbCircle
 10
285.000000000003
 20
299.9999999999991
 30
0.0
 40
14.00000164959882
  0
CIRCLE
  5
284
330
1F
100
AcDbEntity
  8
S_1_1
  6
CONTINUOUS
 62
     3
100
AcDbCircle
 10
285.000000000003
 20
299.9999999999991
 30
0.0
 40
12.0
  0
CIRCLE
  5
285
330
1F
100
AcDbEntity
  8
S_1_1
  6
CONTINUOUS
 62
     3
100
AcDbCircle
 10
285.000000000003
 20
299.9999999999991
 30
0.0
 40
10.99999967008024
  0
CIRCLE
  5
286
330
1F
100
AcDbEntity
  8
S_1_1
  6
CONTINUOUS
 62
     3
100
AcDbCircle
 10
285.000000000003
 20
299.9999999999991
 30
0.0
 40
84.9999973606419
  0
CIRCLE
  5
287
330
1F
100
AcDbEntity
  8
S_1_1
  6
CONTINUOUS
 62
     3
100
AcDbCircle
 10
285.000000000003
 20
299.9999999999991
 30
0.0
 40
90.0
  0
ARC
  5
288
330
1F
100
AcDbEntity
  8
S_1_1
  6
CONTINUOUS
 62
     3
100
AcDbCircle
 10
285.000000000003
 20
299.9999999999991
 30
0.0
 40
95.00000263935812
100
AcDbArc
 50
80.91528320312494
 51
99.08471679687493
  0
CIRCLE
  5
289
330
1F
100
AcDbEntity
  8
S_1_1
  6
CONTINUOUS
 62
     3
100
AcDbCircle
 10
285.000000000003
 20
299.9999999999991
 30
0.0
 40
71.00000263935812
  0
CIRCLE
  5
28A
330
1F
100
AcDbEntity
  8
S_1_1
  6
CONTINUOUS
 62
     3
100
AcDbCircle
 10
285.000000000003
 20
299.9999999999991
 30
0.0
 40
29.00000065983953
  0
CIRCLE
  5
28B
330
1F
100
AcDbEntity
  8
S_1_1
  6
CONTINUOUS
 62
     3
100
AcDbCircle
 10
344.9999841638544
 20
299.9999999999991
 30
0.0
 40
6.000000000000001
  0
CIRCLE
  5
28C
330
1F
100
AcDbEntity
  8
S_1_1
  6
CONTINUOUS
 62
     3
100
AcDbCircle
 10
225.000000000003
 20
299.9999999999991
 30
0.0
 40
6.000000000000001
  0
CIRCLE
  5
28D
330
1F
100
AcDbEntity
  8
S_1_1
  6
CONTINUOUS
 62
     3
100
AcDbCircle
 10
285.000000000003
 20
299.9999999999991
 30
0.0
 40
87.9999973606419
  0
CIRCLE
  5
28E
330
1F
100
AcDbEntity
  8
S_1_1
  6
CONTINUOUS
 62
     3
100
AcDbCircle
 10
285.000000000003
 20
239.9999999999991
 30
0.0
 40
6.000000000000001
  0
CIRCLE
  5
28F
330
1F
100
AcDbEntity
  8
S_1_1
  6
CONTINUOUS
 62
     3
100
AcDbCircle
 10
285.000000000003
 20
299.9999999999991
 30
0.0
 40
49.00000131967906
  0
CIRCLE
  5
290
330
1F
100
AcDbEntity
  8
S_1_1
  6
CONTINUOUS
 62
     3
100
AcDbCircle
 10
285.000000000003
 20
299.9999999999991
 30
0.0
 40
69.0
  0
CIRCLE
  5
291
330
1F
100
AcDbEntity
  8
S_1_1
  6
CONTINUOUS
 62
     3
100
AcDbCircle
 10
285.000000000003
 20
299.9999999999991
 30
0.0
 40
83.00000263935812
  0
CIRCLE
  5
292
330
1F
100
AcDbEntity
  8
S_1_1
  6
CONTINUOUS
 62
     3
100
AcDbCircle
 10
285.000000000003
 20
299.9999999999991
 30
0.0
 40
30.99999934016047
  0
CIRCLE
  5
293
330
1F
100
AcDbEntity
  8
S_1_1
  6
CONTINUOUS
 62
     3
100
AcDbCircle
 10
285.000000000003
 20
299.9999999999991
 30
0.0
 40
51.0
  0
DIMENSION
  5
294
330
1F
100
AcDbEntity
  8
S_1_1
  6
CONTINUOUS
 62
     2
100
AcDbDimension
  2
*D22
 10
414.26226245777
 20
525.0
 30
0.0
 11
284.99997624578
 21
531.875
 31
0.0
 70
   160
  1
258.5
  3
ISO-25
100
AcDbAlignedDimension
 13
155.73769003379
 23
320.49941934122
 33
0.0
 14
414.26226245777
 24
320.49941934122
 34
0.0
100
AcDbRotatedDimension
1001
ACAD
1000
DSTYLE
1002
{
1070
   270
1070
     2
1070
     6
1000
EX_NORM
1070
     7
1000
EX_NORM
1070
    41
1040
7.5
1070
    42
1040
3.75
1070
    44
1040
2.5
1070
    73
1070
     0
1070
    74
1070
     0
1070
    75
1070
     0
1070
    76
1070
     0
1070
    77
1070
     1
1070
    78
1070
     8
1070
   140
1040
8.6572603926097
1070
   147
1040
0.0
1070
   173
1070
     1
1070
   176
1070
     2
1070
   177
1070
     2
1070
   178
1070
     2
1070
   271
1070
     2
1070
   277
1070
     2
1070
   279
1070
     2
1070
   280
1070
     0
1070
   287
1070
     5
1070
   340
1005
12C
1002
}
  0
TEXT
  5
2A1
330
1F
100
AcDbEntity
  8
S_1_1
  6
CONTINUOUS
 62
     4
100
AcDbText
 10
329.6249999999999
 20
431.65499452435
 30
0.0
 40
8.6572603926097
  1
4-M12ネジ深20
 50
0.0000000000000445
 41
0.9992307692307691
  7
EXCADTTF1
 72
     5
 11
402.7499999999999
 21
431.6549945243501
 31
0.0
100
AcDbText
  0
LEADER
  5
2A2
330
1F
100
AcDbEntity
  8
S_1_1
  6
CONTINUOUS
 62
     2
100
AcDbLeader
  3
ISO-25
 76
     3
 10
289.1121881940251
 20
364.36919995615
 30
0.0
 10
326.324585796075
 20
428.82296327435
 30
0.0
 10
402.7499999999999
 20
428.8229632743501
 30
0.0
1001
ACAD
1000
DSTYLE
1002
{
1070
     5
1000
EX_NORM
1070
    41
1040
7.5
1070
   341
1005
89
1002
}
  0
DIMENSION
  5
2A3
330
1F
100
AcDbEntity
  8
S_1_1
  6
CONTINUOUS
 62
     2
100
AcDbDimension
  2
*D23
 10
242.573593128811
 20
257.5735931288053
 30
0.0
 11
368.9589307464616
 21
383.9589307464613
 31
0.0
 70
   163
  1
P.C.D 120
  3
ISO-25
100
AcDbDiametricDimension
 15
327.4264068711949
 25
342.4264068711928
 35
0.0
 40
0.0
1001
ACAD
1000
DSTYLE
1002
{
1070
   270
1070
     2
1070
     6
1000
EX_NORM
1070
     7
1000
EX_NORM
1070
    41
1040
7.5
1070
    73
1070
     0
1070
    74
1070
     0
1070
    77
1070
     1
1070
    78
1070
     8
1070
   140
1040
8.6572603926097
1070
   147
1040
1.25
1070
   173
1070
     1
1070
   176
1070
     2
1070
   177
1070
     2
1070
   178
1070
     2
1070
   271
1070
     2
1070
   277
1070
     2
1070
   279
1070
     0
1070
   280
1070
     0
1070
   287
1070
     3
1070
   340
1005
12C
1002
}
  0
LINE
  5
2AF
330
1F
100
AcDbEntity
  8
S_1_1
  6
CONTINUOUS
 62
     3
100
AcDbLine
 10
589.9997255067597
 20
403.9993137668911
 30
0.0
 11
589.9997255067597
 21
395.00000263936
 31
0.0
  0
LINE
  5
2B0
330
1F
100
AcDbEntity
  8
S_1_1
  6
CONTINUOUS
 62
     3
100
AcDbLine
 10
620.0000422297326
 20
403.9993137668911
 30
0.0
 11
620.0000422297326
 21
395.00000263936
 31
0.0
  0
LINE
  5
2B1
330
1F
100
AcDbEntity
  8
S_1_1
  6
CONTINUOUS
 62
     3
100
AcDbLine
 10
547.0004328547327
 20
389.9993982263505
 30
0.0
 11
584.9996188666951
 21
389.9993982263505
 31
0.0
  0
LINE
  5
2B2
330
1F
100
AcDbEntity
  8
S_1_1
  6
CONTINUOUS
 62
     3
100
AcDbLine
 10
589.9997255067597
 20
395.0000026393635
 30
0.0
 11
584.9996188666951
 21
389.9993982263505
 31
0.0
  0
LINE
  5
2B3
330
1F
100
AcDbEntity
  8
S_1_1
  6
CONTINUOUS
 62
     3
100
AcDbLine
 10
620.0000422297326
 20
395.0000026393635
 30
0.0
 11
625.0012122938233
 21
389.9993982263505
 31
0.0
  0
ARC
  5
2B4
330
1F
100
AcDbEntity
  8
S_1_1
  6
CONTINUOUS
 62
     3
100
AcDbCircle
 10
604.99988386825
 20
488.8103136460624
 30
0.0
 40
95.00199577926772
100
AcDbArc
 50
260.9153754566315
 51
279.0846245433686
  0
ARC
  5
2B5
330
1F
100
AcDbEntity
  8
S_1_1
  6
CONTINUOUS
 62
     3
100
AcDbCircle
 10
605.00041558026
 20
466.3192406507081
 30
0.0
 40
78.89708623806077
100
AcDbArc
 50
255.3149894301346
 51
284.6850105698654
  0
ARC
  5
2B6
330
1F
100
AcDbEntity
  8
S_1_1
  6
CONTINUOUS
 62
     3
100
AcDbCircle
 10
694.9992820946
 20
488.8103136460624
 30
0.0
 40
95.00199577926772
100
AcDbArc
 50
260.9153754566315
 51
279.0846245433686
  0
ARC
  5
2B7
330
1F
100
AcDbEntity
  8
S_1_1
  6
CONTINUOUS
 62
     3
100
AcDbCircle
 10
694.99981380661
 20
466.3192406507081
 30
0.0
 40
78.89708623806077
100
AcDbArc
 50
255.3149894301346
 51
284.6850105698654
  0
LINE
  5
2B8
330
1F
100
AcDbEntity
  8
S_1_1
  6
CONTINUOUS
 62
     3
100
AcDbLine
 10
679.9991237331096
 20
395.0000026393635
 30
0.0
 11
674.999017093045
 21
389.9993982263505
 31
0.0
  0
LINE
  5
2B9
330
1F
100
AcDbEntity
  8
S_1_1
  6
CONTINUOUS
 62
     3
100
AcDbLine
 10
709.9994404560825
 20
395.0000026393635
 30
0.0
 11
715.0006105201733
 21
389.9993982263505
 31
0.0
  0
LINE
  5
2BA
330
1F
100
AcDbEntity
  8
S_1_1
  6
CONTINUOUS
 62
     3
100
AcDbLine
 10
625.0012122938233
 20
389.9993982263505
 30
0.0
 11
674.999017093048
 21
389.9993982263505
 31
0.0
  0
LINE
  5
2BB
330
1F
100
AcDbEntity
  8
S_1_1
  6
CONTINUOUS
 62
     3
100
AcDbLine
 10
715.0006105201718
 20
389.9993982263505
 30
0.0
 11
794.0006123310841
 21
389.9993982263505
 31
0.0
  0
LINE
  5
2BC
330
1F
100
AcDbEntity
  8
S_1_1
  6
CONTINUOUS
 62
     3
100
AcDbLine
 10
710.000929054057
 20
403.9993137668911
 30
0.0
 11
710.000929054057
 21
395.0002406765362
 31
0.0
  0
LINE
  5
2BD
330
1F
100
AcDbEntity
  8
S_1_1
  6
CONTINUOUS
 62
     3
100
AcDbLine
 10
680.0006123310841
 20
403.9993137668911
 30
0.0
 11
680.0006123310841
 21
394.9997646264079
 31
0.0
  0
LINE
  5
2BE
330
1F
100
AcDbEntity
  8
S_1_1
  6
CONTINUOUS
 62
     3
100
AcDbLine
 10
244.6575769507728
 20
386.4048504217
 30
0.0
 11
230.3424221114054
 21
378.1399919217
 31
0.0
  0
LINE
  5
2BF
330
1F
100
AcDbEntity
  8
S_1_1
  6
CONTINUOUS
 62
     3
100
AcDbLine
 10
244.0501735139052
 20
387.6272040350469
 30
0.0
 11
244.0501739094729
 21
386.0541753499032
 31
0.0
  0
LINE
  5
2C0
330
1F
100
AcDbEntity
  8
S_1_1
  6
CONTINUOUS
 62
     3
100
AcDbLine
 10
230.9498199565528
 20
378.4906639934967
 30
0.0
 11
229.5875499142985
 21
379.2771709203102
 31
0.0
  0
LINE
  5
2C1
330
1F
100
AcDbEntity
  8
S_1_1
  6
EXLTYPE2
 62
     1
100
AcDbLine
 10
244.7321894991966
 20
369.7458936969484
 30
0.0
 11
217.3850194991954
 21
417.1125815801737
 31
0.0
  0
LINE
  5
2C2
330
1F
100
AcDbEntity
  8
S_1_1
  6
CONTINUOUS
 62
     3
100
AcDbLine
 10
232.1800764321621
 20
408.486791271399
 30
0.0
 11
232.9392658107173
 21
409.8017458476227
 31
0.0
  0
LINE
  5
2C3
330
1F
100
AcDbEntity
  8
S_1_1
  6
CONTINUOUS
 62
     3
100
AcDbLine
 10
215.9392658107171
 20
399.986791271399
 30
0.0
 11
217.4576445678267
 21
399.986791271399
 31
0.0
  0
LINE
  5
2C4
330
1F
100
AcDbEntity
  8
S_1_1
  6
CONTINUOUS
 62
     3
100
AcDbLine
 10
230.6984551892721
 20
413.6829436941059
 30
0.0
 11
229.1800764321621
 21
413.6829436941056
 31
0.0
  0
LINE
  5
2C5
330
1F
100
AcDbEntity
  8
S_1_1
  6
CONTINUOUS
 62
     3
100
AcDbLine
 10
214.4576445678267
 20
405.1829436941057
 30
0.0
 11
213.6984551892719
 21
403.8679891178822
 31
0.0
  0
LINE
  5
2C6
330
1F
100
AcDbEntity
  8
S_1_1
  6
CONTINUOUS
 62
     3
100
AcDbLine
 10
225.5509113075634
 20
377.5654302346244
 30
0.0
 11
227.5509113075634
 21
378.1013286194867
 31
0.0
  0
LINE
  5
2C7
330
1F
100
AcDbEntity
  8
S_1_1
  6
CONTINUOUS
 62
     3
100
AcDbLine
 10
246.0868096924254
 20
388.8030345416583
 30
0.0
 11
247.5509113075631
 21
390.2671361567961
 31
0.0
  0
LINE
  5
2C8
330
1F
100
AcDbEntity
  8
S_1_1
  6
CONTINUOUS
 62
     3
100
AcDbLine
 10
236.0868096924254
 20
410.123542617347
 30
0.0
 11
234.0868096924254
 21
409.5876442324848
 31
0.0
  0
LINE
  5
2C9
330
1F
100
AcDbEntity
  8
S_1_1
  6
CONTINUOUS
 62
     3
100
AcDbLine
 10
215.5509113075634
 20
398.8859383103132
 30
0.0
 11
214.0868096924257
 21
397.4218366951754
 31
0.0
  0
POLYLINE
  5
2CA
330
1F
100
AcDbEntity
  8
S_1_1
  6
CONTINUOUS
 62
     3
100
AcDb2dPolyline
 66
     1
 10
0.0
 20
0.0
 30
0.0
 70
   128
  0
VERTEX
  5
2CB
330
2CA
100
AcDbEntity
  8
S_1_1
  6
CONTINUOUS
 62
     3
100
AcDbVertex
100
AcDb2dVertex
 10
232.9392658107173
 20
409.8017458476227
 30
0.0
  0
VERTEX
  5
2CC
330
2CA
100
AcDbEntity
  8
S_1_1
  6
CONTINUOUS
 62
     3
100
AcDbVertex
100
AcDb2dVertex
 10
232.5785538590088
 20
409.2345842841141
 30
0.0
  0
VERTEX
  5
2CD
330
2CA
100
AcDbEntity
  8
S_1_1
  6
CONTINUOUS
 62
     3
100
AcDbVertex
100
AcDb2dVertex
 10
232.1735753897167
 20
408.7236487494602
 30
0.0
  0
VERTEX
  5
2CE
330
2CA
100
AcDbEntity
  8
S_1_1
  6
CONTINUOUS
 62
     3
100
AcDbVertex
100
AcDb2dVertex
 10
231.7125784160384
 20
408.278785239485
 30
0.0
  0
VERTEX
  5
2CF
330
2CA
100
AcDbEntity
  8
S_1_1
  6
CONTINUOUS
 62
     3
100
AcDbVertex
100
AcDb2dVertex
 10
231.1938604999945
 20
407.9173992374829
 30
0.0
  0
SEQEND
  5
2D0
330
2CA
100
AcDbEntity
  8
S_1_1
  6
CONTINUOUS
 62
     3
  0
POLYLINE
  5
2D1
330
1F
100
AcDbEntity
  8
S_1_1
  6
CONTINUOUS
 62
     3
100
AcDb2dPolyline
 66
     1
 10
0.0
 20
0.0
 30
0.0
 70
   128
  0
VERTEX
  5
2D2
330
2D1
100
AcDbEntity
  8
S_1_1
  6
CONTINUOUS
 62
     3
100
AcDbVertex
100
AcDb2dVertex
 10
231.1938604999945
 20
407.9173992374829
 30
0.0
  0
VERTEX
  5
2D3
330
2D1
100
AcDbEntity
  8
S_1_1
  6
CONTINUOUS
 62
     3
100
AcDbVertex
100
AcDb2dVertex
 10
231.0406845946041
 20
407.8337367897958
 30
0.0
  0
VERTEX
  5
2D4
330
2D1
100
AcDbEntity
  8
S_1_1
  6
CONTINUOUS
 62
     3
100
AcDbVertex
100
AcDb2dVertex
 10
230.5105860941475
 20
407.6094747167517
 30
0.0
  0
VERTEX
  5
2D5
330
2D1
100
AcDbEntity
  8
S_1_1
  6
CONTINUOUS
 62
     3
100
AcDbVertex
100
AcDb2dVertex
 10
229.9393229733449
 20
407.4585025229161
 30
0.0
  0
VERTEX
  5
2D6
330
2D1
100
AcDbEntity
  8
S_1_1
  6
CONTINUOUS
 62
     3
100
AcDbVertex
100
AcDb2dVertex
 10
229.3280447659467
 20
407.3739273400318
 30
0.0
  0
VERTEX
  5
2D7
330
2D1
100
AcDbEntity
  8
S_1_1
  6
CONTINUOUS
 62
     3
100
AcDbVertex
100
AcDb2dVertex
 10
228.689265810717
 20
407.3480072035666
 30
0.0
  0
SEQEND
  5
2D8
330
2D1
100
AcDbEntity
  8
S_1_1
  6
CONTINUOUS
 62
     3
  0
LINE
  5
2D9
330
1F
100
AcDbEntity
  8
S_1_1
  6
CONTINUOUS
 62
     3
100
AcDbLine
 10
228.689265810717
 20
407.3480072035666
 30
0.0
 11
226.4484551892717
 21
411.2292050500498
 31
0.0
  0
POLYLINE
  5
2DA
330
1F
100
AcDbEntity
  8
S_1_1
  6
CONTINUOUS
 62
     3
100
AcDb2dPolyline
 66
     1
 10
0.0
 20
0.0
 30
0.0
 70
   128
  0
VERTEX
  5
2DB
330
2DA
100
AcDbEntity
  8
S_1_1
  6
CONTINUOUS
 62
     3
100
AcDbVertex
100
AcDb2dVertex
 10
228.1938604999945
 20
413.1135516601896
 30
0.0
  0
VERTEX
  5
2DC
330
2DA
100
AcDbEntity
  8
S_1_1
  6
CONTINUOUS
 62
     3
100
AcDbVertex
100
AcDb2dVertex
 10
228.0448187422594
 20
413.0227286587173
 30
0.0
  0
VERTEX
  5
2DD
330
2DA
100
AcDbEntity
  8
S_1_1
  6
CONTINUOUS
 62
     3
100
AcDbVertex
100
AcDb2dVertex
 10
227.5855528396695
 20
412.675780927336
 30
0.0
  0
VERTEX
  5
2DE
330
2DA
100
AcDbEntity
  8
S_1_1
  6
CONTINUOUS
 62
     3
100
AcDbVertex
100
AcDb2dVertex
 10
227.1691755241416
 20
412.2565386493935
 30
0.0
  0
VERTEX
  5
2DF
330
2DA
100
AcDbEntity
  8
S_1_1
  6
CONTINUOUS
 62
     3
100
AcDbVertex
100
AcDb2dVertex
 10
226.790292163535
 20
411.769443784449
 30
0.0
  0
VERTEX
  5
2E0
330
2DA
100
AcDbEntity
  8
S_1_1
  6
CONTINUOUS
 62
     3
100
AcDbVertex
100
AcDb2dVertex
 10
226.4484551892717
 20
411.2292050500498
 30
0.0
  0
SEQEND
  5
2E1
330
2DA
100
AcDbEntity
  8
S_1_1
  6
CONTINUOUS
 62
     3
  0
POLYLINE
  5
2E2
330
1F
100
AcDbEntity
  8
S_1_1
  6
CONTINUOUS
 62
     3
100
AcDb2dPolyline
 66
     1
 10
0.0
 20
0.0
 30
0.0
 70
   128
  0
VERTEX
  5
2E3
330
2E2
100
AcDbEntity
  8
S_1_1
  6
CONTINUOUS
 62
     3
100
AcDbVertex
100
AcDb2dVertex
 10
230.6984551892721
 20
413.6829436941059
 30
0.0
  0
VERTEX
  5
2E4
330
2E2
100
AcDbEntity
  8
S_1_1
  6
CONTINUOUS
 62
     3
100
AcDbVertex
100
AcDb2dVertex
 10
230.0269228913693
 20
413.654138762232
 30
0.0
  0
VERTEX
  5
2E5
330
2E2
100
AcDbEntity
  8
S_1_1
  6
CONTINUOUS
 62
     3
100
AcDbVertex
100
AcDb2dVertex
 10
229.3819505040167
 20
413.5588848871663
 30
0.0
  0
VERTEX
  5
2E6
330
2E2
100
AcDbEntity
  8
S_1_1
  6
CONTINUOUS
 62
     3
100
AcDbVertex
100
AcDb2dVertex
 10
228.7661889163222
 20
413.3820815518807
 30
0.0
  0
VERTEX
  5
2E7
330
2E2
100
AcDbEntity
  8
S_1_1
  6
CONTINUOUS
 62
     3
100
AcDbVertex
100
AcDb2dVertex
 10
228.1938604999945
 20
413.1135516601896
 30
0.0
  0
SEQEND
  5
2E8
330
2E2
100
AcDbEntity
  8
S_1_1
  6
CONTINUOUS
 62
     3
  0
LINE
  5
2E9
330
1F
100
AcDbEntity
  8
S_1_1
  6
CONTINUOUS
 62
     3
100
AcDbLine
 10
232.9392658107173
 20
409.8017458476227
 30
0.0
 11
230.6984551892721
 21
413.6829436941059
 31
0.0
  0
POLYLINE
  5
2EA
330
1F
100
AcDbEntity
  8
S_1_1
  6
CONTINUOUS
 62
     3
100
AcDb2dPolyline
 66
     1
 10
0.0
 20
0.0
 30
0.0
 70
   128
  0
VERTEX
  5
2EB
330
2EA
100
AcDbEntity
  8
S_1_1
  6
CONTINUOUS
 62
     3
100
AcDbVertex
100
AcDb2dVertex
 10
220.1892658107171
 20
402.4405299154549
 30
0.0
  0
VERTEX
  5
2EC
330
2EA
100
AcDbEntity
  8
S_1_1
  6
CONTINUOUS
 62
     3
100
AcDbVertex
100
AcDb2dVertex
 10
219.8285538590086
 20
401.8733683519463
 30
0.0
  0
VERTEX
  5
2ED
330
2EA
100
AcDbEntity
  8
S_1_1
  6
CONTINUOUS
 62
     3
100
AcDbVertex
100
AcDb2dVertex
 10
219.4235753897164
 20
401.3624328172924
 30
0.0
  0
VERTEX
  5
2EE
330
2EA
100
AcDbEntity
  8
S_1_1
  6
CONTINUOUS
 62
     3
100
AcDbVertex
100
AcDb2dVertex
 10
218.9625784160382
 20
400.9175693073171
 30
0.0
  0
VERTEX
  5
2EF
330
2EA
100
AcDbEntity
  8
S_1_1
  6
CONTINUOUS
 62
     3
100
AcDbVertex
100
AcDb2dVertex
 10
218.4438604999943
 20
400.5561833053151
 30
0.0
  0
SEQEND
  5
2F0
330
2EA
100
AcDbEntity
  8
S_1_1
  6
CONTINUOUS
 62
     3
  0
POLYLINE
  5
2F1
330
1F
100
AcDbEntity
  8
S_1_1
  6
CONTINUOUS
 62
     3
100
AcDb2dPolyline
 66
     1
 10
0.0
 20
0.0
 30
0.0
 70
   128
  0
VERTEX
  5
2F2
330
2F1
100
AcDbEntity
  8
S_1_1
  6
CONTINUOUS
 62
     3
100
AcDbVertex
100
AcDb2dVertex
 10
218.4438604999943
 20
400.5561833053151
 30
0.0
  0
VERTEX
  5
2F3
330
2F1
100
AcDbEntity
  8
S_1_1
  6
CONTINUOUS
 62
     3
100
AcDbVertex
100
AcDb2dVertex
 10
218.2906845946042
 20
400.4725208576281
 30
0.0
  0
VERTEX
  5
2F4
330
2F1
100
AcDbEntity
  8
S_1_1
  6
CONTINUOUS
 62
     3
100
AcDbVertex
100
AcDb2dVertex
 10
217.7605860941472
 20
400.2482587845838
 30
0.0
  0
VERTEX
  5
2F5
330
2F1
100
AcDbEntity
  8
S_1_1
  6
CONTINUOUS
 62
     3
100
AcDbVertex
100
AcDb2dVertex
 10
217.1893229733446
 20
400.0972865907483
 30
0.0
  0
VERTEX
  5
2F6
330
2F1
100
AcDbEntity
  8
S_1_1
  6
CONTINUOUS
 62
     3
100
AcDbVertex
100
AcDb2dVertex
 10
216.5780447659465
 20
400.012711407864
 30
0.0
  0
VERTEX
  5
2F7
330
2F1
100
AcDbEntity
  8
S_1_1
  6
CONTINUOUS
 62
     3
100
AcDbVertex
100
AcDb2dVertex
 10
215.9392658107171
 20
399.986791271399
 30
0.0
  0
SEQEND
  5
2F8
330
2F1
100
AcDbEntity
  8
S_1_1
  6
CONTINUOUS
 62
     3
  0
LINE
  5
2F9
330
1F
100
AcDbEntity
  8
S_1_1
  6
CONTINUOUS
 62
     3
100
AcDbLine
 10
215.9392658107171
 20
399.986791271399
 30
0.0
 11
213.6984551892719
 21
403.8679891178822
 31
0.0
  0
POLYLINE
  5
2FA
330
1F
100
AcDbEntity
  8
S_1_1
  6
CONTINUOUS
 62
     3
100
AcDb2dPolyline
 66
     1
 10
0.0
 20
0.0
 30
0.0
 70
   128
  0
VERTEX
  5
2FB
330
2FA
100
AcDbEntity
  8
S_1_1
  6
CONTINUOUS
 62
     3
100
AcDbVertex
100
AcDb2dVertex
 10
215.4438604999943
 20
405.7523357280218
 30
0.0
  0
VERTEX
  5
2FC
330
2FA
100
AcDbEntity
  8
S_1_1
  6
CONTINUOUS
 62
     3
100
AcDbVertex
100
AcDb2dVertex
 10
215.2948187422596
 20
405.6615127265497
 30
0.0
  0
VERTEX
  5
2FD
330
2FA
100
AcDbEntity
  8
S_1_1
  6
CONTINUOUS
 62
     3
100
AcDbVertex
100
AcDb2dVertex
 10
214.8355528396693
 20
405.3145649951682
 30
0.0
  0
VERTEX
  5
2FE
330
2FA
100
AcDbEntity
  8
S_1_1
  6
CONTINUOUS
 62
     3
100
AcDbVertex
100
AcDb2dVertex
 10
214.4191755241414
 20
404.8953227172257
 30
0.0
  0
VERTEX
  5
2FF
330
2FA
100
AcDbEntity
  8
S_1_1
  6
CONTINUOUS
 62
     3
100
AcDbVertex
100
AcDb2dVertex
 10
214.0402921635348
 20
404.4082278522812
 30
0.0
  0
VERTEX
  5
300
330
2FA
100
AcDbEntity
  8
S_1_1
  6
CONTINUOUS
 62
     3
100
AcDbVertex
100
AcDb2dVertex
 10
213.6984551892719
 20
403.8679891178822
 30
0.0
  0
SEQEND
  5
301
330
2FA
100
AcDbEntity
  8
S_1_1
  6
CONTINUOUS
 62
     3
  0
POLYLINE
  5
302
330
1F
100
AcDbEntity
  8
S_1_1
  6
CONTINUOUS
 62
     3
100
AcDb2dPolyline
 66
     1
 10
0.0
 20
0.0
 30
0.0
 70
   128
  0
VERTEX
  5
303
330
302
100
AcDbEntity
  8
S_1_1
  6
CONTINUOUS
 62
     3
100
AcDbVertex
100
AcDb2dVertex
 10
217.9484551892718
 20
406.321727761938
 30
0.0
  0
VERTEX
  5
304
330
302
100
AcDbEntity
  8
S_1_1
  6
CONTINUOUS
 62
     3
100
AcDbVertex
100
AcDb2dVertex
 10
217.276922891369
 20
406.2929228300641
 30
0.0
  0
VERTEX
  5
305
330
302
100
AcDbEntity
  8
S_1_1
  6
CONTINUOUS
 62
     3
100
AcDbVertex
100
AcDb2dVertex
 10
216.6319505040164
 20
406.1976689549984
 30
0.0
  0
VERTEX
  5
306
330
302
100
AcDbEntity
  8
S_1_1
  6
CONTINUOUS
 62
     3
100
AcDbVertex
100
AcDb2dVertex
 10
216.0161889163221
 20
406.0208656197129
 30
0.0
  0
VERTEX
  5
307
330
302
100
AcDbEntity
  8
S_1_1
  6
CONTINUOUS
 62
     3
100
AcDbVertex
100
AcDb2dVertex
 10
215.4438604999943
 20
405.7523357280218
 30
0.0
  0
SEQEND
  5
308
330
302
100
AcDbEntity
  8
S_1_1
  6
CONTINUOUS
 62
     3
  0
LINE
  5
309
330
1F
100
AcDbEntity
  8
S_1_1
  6
CONTINUOUS
 62
     3
100
AcDbLine
 10
220.1892658107171
 20
402.4405299154549
 30
0.0
 11
217.9484551892718
 21
406.321727761938
 31
0.0
  0
POLYLINE
  5
30A
330
1F
100
AcDbEntity
  8
S_1_1
  6
CONTINUOUS
 62
     3
100
AcDb2dPolyline
 66
     1
 10
0.0
 20
0.0
 30
0.0
 70
   128
  0
VERTEX
  5
30B
330
30A
100
AcDbEntity
  8
S_1_1
  6
CONTINUOUS
 62
     3
100
AcDbVertex
100
AcDb2dVertex
 10
224.8188604999944
 20
404.2367912713991
 30
0.0
  0
VERTEX
  5
30C
330
30A
100
AcDbEntity
  8
S_1_1
  6
CONTINUOUS
 62
     3
100
AcDbVertex
100
AcDb2dVertex
 10
225.9453527287952
 20
404.9566911484817
 30
0.0
  0
VERTEX
  5
30D
330
30A
100
AcDbEntity
  8
S_1_1
  6
CONTINUOUS
 62
     3
100
AcDbVertex
100
AcDb2dVertex
 10
226.6707212014649
 20
405.4985168464319
 30
0.0
  0
VERTEX
  5
30E
330
30A
100
AcDbEntity
  8
S_1_1
  6
CONTINUOUS
 62
     3
100
AcDbVertex
100
AcDb2dVertex
 10
227.3679534511523
 20
406.080345430737
 30
0.0
  0
VERTEX
  5
30F
330
30A
100
AcDbEntity
  8
S_1_1
  6
CONTINUOUS
 62
     3
100
AcDbVertex
100
AcDb2dVertex
 10
228.0413252160793
 20
406.699692602565
 30
0.0
  0
VERTEX
  5
310
330
30A
100
AcDbEntity
  8
S_1_1
  6
CONTINUOUS
 62
     3
100
AcDbVertex
100
AcDb2dVertex
 10
228.689265810717
 20
407.3480072035666
 30
0.0
  0
SEQEND
  5
311
330
30A
100
AcDbEntity
  8
S_1_1
  6
CONTINUOUS
 62
     3
  0
POLYLINE
  5
312
330
1F
100
AcDbEntity
  8
S_1_1
  6
CONTINUOUS
 62
     3
100
AcDb2dPolyline
 66
     1
 10
0.0
 20
0.0
 30
0.0
 70
   128
  0
VERTEX
  5
313
330
312
100
AcDbEntity
  8
S_1_1
  6
CONTINUOUS
 62
     3
100
AcDbVertex
100
AcDb2dVertex
 10
221.8188604999944
 20
409.4329436941056
 30
0.0
  0
VERTEX
  5
314
330
312
100
AcDbEntity
  8
S_1_1
  6
CONTINUOUS
 62
     3
100
AcDbVertex
100
AcDb2dVertex
 10
223.0055581961297
 20
410.0485646428715
 30
0.0
  0
VERTEX
  5
315
330
312
100
AcDbEntity
  8
S_1_1
  6
CONTINUOUS
 62
     3
100
AcDbVertex
100
AcDb2dVertex
 10
223.8374772513126
 20
410.4058393183328
 30
0.0
  0
VERTEX
  5
316
330
312
100
AcDbEntity
  8
S_1_1
  6
CONTINUOUS
 62
     3
100
AcDbVertex
100
AcDb2dVertex
 10
224.6899717108125
 20
410.7187458667474
 30
0.0
  0
VERTEX
  5
317
330
312
100
AcDbEntity
  8
S_1_1
  6
CONTINUOUS
 62
     3
100
AcDbVertex
100
AcDb2dVertex
 10
225.5630279778411
 20
410.9922293354511
 30
0.0
  0
VERTEX
  5
318
330
312
100
AcDbEntity
  8
S_1_1
  6
CONTINUOUS
 62
     3
100
AcDbVertex
100
AcDb2dVertex
 10
226.4484551892717
 20
411.2292050500498
 30
0.0
  0
SEQEND
  5
319
330
312
100
AcDbEntity
  8
S_1_1
  6
CONTINUOUS
 62
     3
  0
POLYLINE
  5
31A
330
1F
100
AcDbEntity
  8
S_1_1
  6
CONTINUOUS
 62
     3
100
AcDb2dPolyline
 66
     1
 10
0.0
 20
0.0
 30
0.0
 70
   128
  0
VERTEX
  5
31B
330
31A
100
AcDbEntity
  8
S_1_1
  6
CONTINUOUS
 62
     3
100
AcDbVertex
100
AcDb2dVertex
 10
220.1892658107171
 20
402.4405299154549
 30
0.0
  0
VERTEX
  5
31C
330
31A
100
AcDbEntity
  8
S_1_1
  6
CONTINUOUS
 62
     3
100
AcDbVertex
100
AcDb2dVertex
 10
221.4241783690441
 20
402.7818097459475
 30
0.0
  0
VERTEX
  5
31D
330
31A
100
AcDbEntity
  8
S_1_1
  6
CONTINUOUS
 62
     3
100
AcDbVertex
100
AcDb2dVertex
 10
222.2953104596378
 20
403.072619193249
 30
0.0
  0
VERTEX
  5
31E
330
31A
100
AcDbEntity
  8
S_1_1
  6
CONTINUOUS
 62
     3
100
AcDbVertex
100
AcDb2dVertex
 10
223.1525776703681
 20
403.4084499151186
 30
0.0
  0
VERTEX
  5
31F
330
31A
100
AcDbEntity
  8
S_1_1
  6
CONTINUOUS
 62
     3
100
AcDbVertex
100
AcDb2dVertex
 10
223.9969151801484
 20
403.7962112308946
 30
0.0
  0
VERTEX
  5
320
330
31A
100
AcDbEntity
  8
S_1_1
  6
CONTINUOUS
 62
     3
100
AcDbVertex
100
AcDb2dVertex
 10
224.8188604999944
 20
404.2367912713991
 30
0.0
  0
SEQEND
  5
321
330
31A
100
AcDbEntity
  8
S_1_1
  6
CONTINUOUS
 62
     3
  0
POLYLINE
  5
322
330
1F
100
AcDbEntity
  8
S_1_1
  6
CONTINUOUS
 62
     3
100
AcDb2dPolyline
 66
     1
 10
0.0
 20
0.0
 30
0.0
 70
   128
  0
VERTEX
  5
323
330
322
100
AcDbEntity
  8
S_1_1
  6
CONTINUOUS
 62
     3
100
AcDbVertex
100
AcDb2dVertex
 10
217.9484551892718
 20
406.321727761938
 30
0.0
  0
VERTEX
  5
324
330
322
100
AcDbEntity
  8
S_1_1
  6
CONTINUOUS
 62
     3
100
AcDbVertex
100
AcDb2dVertex
 10
218.8614684714412
 20
407.2205534936553
 30
0.0
  0
VERTEX
  5
325
330
322
100
AcDbEntity
  8
S_1_1
  6
CONTINUOUS
 62
     3
100
AcDbVertex
100
AcDb2dVertex
 10
219.5488828857616
 20
407.8295712905107
 30
0.0
  0
VERTEX
  5
326
330
322
100
AcDbEntity
  8
S_1_1
  6
CONTINUOUS
 62
     3
100
AcDbVertex
100
AcDb2dVertex
 10
220.2683544276371
 20
408.4040711118997
 30
0.0
  0
VERTEX
  5
327
330
322
100
AcDbEntity
  8
S_1_1
  6
CONTINUOUS
 62
     3
100
AcDbVertex
100
AcDb2dVertex
 10
221.0263343325945
 20
408.9414081868492
 30
0.0
  0
VERTEX
  5
328
330
322
100
AcDbEntity
  8
S_1_1
  6
CONTINUOUS
 62
     3
100
AcDbVertex
100
AcDb2dVertex
 10
221.8188604999944
 20
409.4329436941056
 30
0.0
  0
SEQEND
  5
329
330
322
100
AcDbEntity
  8
S_1_1
  6
CONTINUOUS
 62
     3
  0
POLYLINE
  5
32A
330
1F
100
AcDbEntity
  8
S_1_1
  6
CONTINUOUS
 62
     3
100
AcDb2dPolyline
 66
     1
 10
0.0
 20
0.0
 30
0.0
 70
   128
  0
VERTEX
  5
32B
330
32A
100
AcDbEntity
  8
S_1_1
  6
CONTINUOUS
 62
     3
100
AcDbVertex
100
AcDb2dVertex
 10
242.0509113075632
 20
387.0917096762532
 30
0.0
  0
VERTEX
  5
32C
330
32A
100
AcDbEntity
  8
S_1_1
  6
CONTINUOUS
 62
     3
100
AcDbVertex
100
AcDb2dVertex
 10
239.8265216801052
 20
385.4593785373598
 30
0.0
  0
VERTEX
  5
32D
330
32A
100
AcDbEntity
  8
S_1_1
  6
CONTINUOUS
 62
     3
100
AcDbVertex
100
AcDb2dVertex
 10
238.6788358894779
 20
384.687467968355
 30
0.0
  0
VERTEX
  5
32E
330
32A
100
AcDbEntity
  8
S_1_1
  6
CONTINUOUS
 62
     3
100
AcDbVertex
100
AcDb2dVertex
 10
237.5062771834981
 20
383.9513794350898
 30
0.0
  0
VERTEX
  5
32F
330
32A
100
AcDbEntity
  8
S_1_1
  6
CONTINUOUS
 62
     3
100
AcDbVertex
100
AcDb2dVertex
 10
236.2975349657824
 20
383.2477952215484
 30
0.0
  0
VERTEX
  5
330
330
32A
100
AcDbEntity
  8
S_1_1
  6
CONTINUOUS
 62
     3
100
AcDbVertex
100
AcDb2dVertex
 10
235.0642890391881
 20
382.5847103552515
 30
0.0
  0
VERTEX
  5
331
330
32A
100
AcDbEntity
  8
S_1_1
  6
CONTINUOUS
 62
     3
100
AcDbVertex
100
AcDb2dVertex
 10
233.8062321743952
 20
381.9599265545547
 30
0.0
  0
VERTEX
  5
332
330
32A
100
AcDbEntity
  8
S_1_1
  6
CONTINUOUS
 62
     3
100
AcDbVertex
100
AcDb2dVertex
 10
232.5290645549548
 20
381.3721408415295
 30
0.0
  0
VERTEX
  5
333
330
32A
100
AcDbEntity
  8
S_1_1
  6
CONTINUOUS
 62
     3
100
AcDbVertex
100
AcDb2dVertex
 10
231.0509113075633
 20
380.7408567151674
 30
0.0
  0
SEQEND
  5
334
330
32A
100
AcDbEntity
  8
S_1_1
  6
CONTINUOUS
 62
     3
  0
POLYLINE
  5
335
330
1F
100
AcDbEntity
  8
S_1_1
  6
CONTINUOUS
 62
     3
100
AcDb2dPolyline
 66
     1
 10
0.0
 20
0.0
 30
0.0
 70
   128
  0
VERTEX
  5
336
330
335
100
AcDbEntity
  8
S_1_1
  6
CONTINUOUS
 62
     3
100
AcDbVertex
100
AcDb2dVertex
 10
247.5509113075631
 20
390.2671361567961
 30
0.0
  0
VERTEX
  5
337
330
335
100
AcDbEntity
  8
S_1_1
  6
CONTINUOUS
 62
     3
100
AcDbVertex
100
AcDb2dVertex
 10
246.9687713585723
 20
389.7130150304224
 30
0.0
  0
VERTEX
  5
338
330
335
100
AcDbEntity
  8
S_1_1
  6
CONTINUOUS
 62
     3
100
AcDbVertex
100
AcDb2dVertex
 10
246.3607182347251
 20
389.1961496781136
 30
0.0
  0
VERTEX
  5
339
330
335
100
AcDbEntity
  8
S_1_1
  6
CONTINUOUS
 62
     3
100
AcDbVertex
100
AcDb2dVertex
 10
245.7238683994286
 20
388.7235243335226
 30
0.0
  0
VERTEX
  5
33A
330
335
100
AcDbEntity
  8
S_1_1
  6
CONTINUOUS
 62
     3
100
AcDbVertex
100
AcDb2dVertex
 10
245.051259914911
 20
388.2974896738663
 30
0.0
  0
VERTEX
  5
33B
330
335
100
AcDbEntity
  8
S_1_1
  6
CONTINUOUS
 62
     3
100
AcDbVertex
100
AcDb2dVertex
 10
244.3468833052874
 20
387.9240478403949
 30
0.0
  0
VERTEX
  5
33C
330
335
100
AcDbEntity
  8
S_1_1
  6
CONTINUOUS
 62
     3
100
AcDbVertex
100
AcDb2dVertex
 10
243.6072244933973
 20
387.6002541654421
 30
0.0
  0
VERTEX
  5
33D
330
335
100
AcDbEntity
  8
S_1_1
  6
CONTINUOUS
 62
     3
100
AcDbVertex
100
AcDb2dVertex
 10
242.8407717432914
 20
387.3249283561497
 30
0.0
  0
VERTEX
  5
33E
330
335
100
AcDbEntity
  8
S_1_1
  6
CONTINUOUS
 62
     3
100
AcDbVertex
100
AcDb2dVertex
 10
242.0509113075632
 20
387.0917096762532
 30
0.0
  0
SEQEND
  5
33F
330
335
100
AcDbEntity
  8
S_1_1
  6
CONTINUOUS
 62
     3
  0
POLYLINE
  5
340
330
1F
100
AcDbEntity
  8
S_1_1
  6
CONTINUOUS
 62
     3
100
AcDb2dPolyline
 66
     1
 10
0.0
 20
0.0
 30
0.0
 70
   128
  0
VERTEX
  5
341
330
340
100
AcDbEntity
  8
S_1_1
  6
CONTINUOUS
 62
     3
100
AcDbVertex
100
AcDb2dVertex
 10
231.0509113075633
 20
380.7408567151674
 30
0.0
  0
VERTEX
  5
342
330
340
100
AcDbEntity
  8
S_1_1
  6
CONTINUOUS
 62
     3
100
AcDbVertex
100
AcDb2dVertex
 10
230.468771358572
 20
380.1867355887935
 30
0.0
  0
VERTEX
  5
343
330
340
100
AcDbEntity
  8
S_1_1
  6
CONTINUOUS
 62
     3
100
AcDbVertex
100
AcDb2dVertex
 10
229.8607182347253
 20
379.6698702364849
 30
0.0
  0
VERTEX
  5
344
330
340
100
AcDbEntity
  8
S_1_1
  6
CONTINUOUS
 62
     3
100
AcDbVertex
100
AcDb2dVertex
 10
229.2238683994287
 20
379.1972448918938
 30
0.0
  0
VERTEX
  5
345
330
340
100
AcDbEntity
  8
S_1_1
  6
CONTINUOUS
 62
     3
100
AcDbVertex
100
AcDb2dVertex
 10
228.5512599149112
 20
378.7712102322375
 30
0.0
  0
VERTEX
  5
346
330
340
100
AcDbEntity
  8
S_1_1
  6
CONTINUOUS
 62
     3
100
AcDbVertex
100
AcDb2dVertex
 10
227.8468833052872
 20
378.3977683987659
 30
0.0
  0
VERTEX
  5
347
330
340
100
AcDbEntity
  8
S_1_1
  6
CONTINUOUS
 62
     3
100
AcDbVertex
100
AcDb2dVertex
 10
227.1072244933971
 20
378.0739747238131
 30
0.0
  0
VERTEX
  5
348
330
340
100
AcDbEntity
  8
S_1_1
  6
CONTINUOUS
 62
     3
100
AcDbVertex
100
AcDb2dVertex
 10
226.3407717432916
 20
377.7986489145209
 30
0.0
  0
VERTEX
  5
349
330
340
100
AcDbEntity
  8
S_1_1
  6
CONTINUOUS
 62
     3
100
AcDbVertex
100
AcDb2dVertex
 10
225.5509113075634
 20
377.5654302346244
 30
0.0
  0
SEQEND
  5
34A
330
340
100
AcDbEntity
  8
S_1_1
  6
CONTINUOUS
 62
     3
  0
LINE
  5
34B
330
1F
100
AcDbEntity
  8
S_1_1
  6
CONTINUOUS
 62
     3
100
AcDbLine
 10
219.5868096924256
 20
400.5972631757183
 30
0.0
 11
231.0509113075633
 21
380.7408567151674
 31
0.0
  0
POLYLINE
  5
34C
330
1F
100
AcDbEntity
  8
S_1_1
  6
CONTINUOUS
 62
     3
100
AcDb2dPolyline
 66
     1
 10
0.0
 20
0.0
 30
0.0
 70
   128
  0
VERTEX
  5
34D
330
34C
100
AcDbEntity
  8
S_1_1
  6
CONTINUOUS
 62
     3
100
AcDbVertex
100
AcDb2dVertex
 10
219.5868096924256
 20
400.5972631757183
 30
0.0
  0
VERTEX
  5
34E
330
34C
100
AcDbEntity
  8
S_1_1
  6
CONTINUOUS
 62
     3
100
AcDbVertex
100
AcDb2dVertex
 10
220.872594406557
 20
401.5617393754644
 30
0.0
  0
VERTEX
  5
34F
330
34C
100
AcDbEntity
  8
S_1_1
  6
CONTINUOUS
 62
     3
100
AcDbVertex
100
AcDb2dVertex
 10
221.997224724583
 20
402.3581127879967
 30
0.0
  0
VERTEX
  5
350
330
34C
100
AcDbEntity
  8
S_1_1
  6
CONTINUOUS
 62
     3
100
AcDbVertex
100
AcDb2dVertex
 10
223.1453985250953
 20
403.1221632194232
 30
0.0
  0
VERTEX
  5
351
330
34C
100
AcDbEntity
  8
S_1_1
  6
CONTINUOUS
 62
     3
100
AcDbVertex
100
AcDb2dVertex
 10
224.3206133786626
 20
403.8513603066841
 30
0.0
  0
VERTEX
  5
352
330
34C
100
AcDbEntity
  8
S_1_1
  6
CONTINUOUS
 62
     3
100
AcDbVertex
100
AcDb2dVertex
 10
225.5208453092485
 20
404.5416683635526
 30
0.0
  0
VERTEX
  5
353
330
34C
100
AcDbEntity
  8
S_1_1
  6
CONTINUOUS
 62
     3
100
AcDbVertex
100
AcDb2dVertex
 10
226.7568329811928
 20
405.198442885638
 30
0.0
  0
VERTEX
  5
354
330
34C
100
AcDbEntity
  8
S_1_1
  6
CONTINUOUS
 62
     3
100
AcDbVertex
100
AcDb2dVertex
 10
228.0145148222136
 20
405.8159855393109
 30
0.0
  0
VERTEX
  5
355
330
34C
100
AcDbEntity
  8
S_1_1
  6
CONTINUOUS
 62
     3
100
AcDbVertex
100
AcDb2dVertex
 10
230.5868096924255
 20
406.9481161368041
 30
0.0
  0
SEQEND
  5
356
330
34C
100
AcDbEntity
  8
S_1_1
  6
CONTINUOUS
 62
     3
  0
LINE
  5
357
330
1F
100
AcDbEntity
  8
S_1_1
  6
CONTINUOUS
 62
     3
100
AcDbLine
 10
230.5868096924255
 20
406.9481161368041
 30
0.0
 11
242.0509113075632
 21
387.0917096762532
 31
0.0
  0
LINE
  5
358
330
1F
100
AcDbEntity
  8
S_1_1
  6
CONTINUOUS
 62
     3
100
AcDbLine
 10
214.0868096924257
 20
397.4218366951754
 30
0.0
 11
225.5509113075634
 21
377.5654302346244
 31
0.0
  0
POLYLINE
  5
359
330
1F
100
AcDbEntity
  8
S_1_1
  6
CONTINUOUS
 62
     3
100
AcDb2dPolyline
 66
     1
 10
0.0
 20
0.0
 30
0.0
 70
   128
  0
VERTEX
  5
35A
330
359
100
AcDbEntity
  8
S_1_1
  6
CONTINUOUS
 62
     3
100
AcDbVertex
100
AcDb2dVertex
 10
214.0868096924257
 20
397.4218366951754
 30
0.0
  0
VERTEX
  5
35B
330
359
100
AcDbEntity
  8
S_1_1
  6
CONTINUOUS
 62
     3
100
AcDbVertex
100
AcDb2dVertex
 10
214.6692117584491
 20
397.9761660123717
 30
0.0
  0
VERTEX
  5
35C
330
359
100
AcDbEntity
  8
S_1_1
  6
CONTINUOUS
 62
     3
100
AcDbVertex
100
AcDb2dVertex
 10
215.2763887223954
 20
398.4923336946784
 30
0.0
  0
VERTEX
  5
35D
330
359
100
AcDbEntity
  8
S_1_1
  6
CONTINUOUS
 62
     3
100
AcDbVertex
100
AcDb2dVertex
 10
215.9143735236789
 20
398.9656283156216
 30
0.0
  0
VERTEX
  5
35E
330
359
100
AcDbEntity
  8
S_1_1
  6
CONTINUOUS
 62
     3
100
AcDbVertex
100
AcDb2dVertex
 10
216.5823975920196
 20
399.3891222133849
 30
0.0
  0
VERTEX
  5
35F
330
359
100
AcDbEntity
  8
S_1_1
  6
CONTINUOUS
 62
     3
100
AcDbVertex
100
AcDb2dVertex
 10
217.2914268582478
 20
399.7650323321014
 30
0.0
  0
VERTEX
  5
360
330
359
100
AcDbEntity
  8
S_1_1
  6
CONTINUOUS
 62
     3
100
AcDbVertex
100
AcDb2dVertex
 10
218.0295693801374
 20
400.0883512741467
 30
0.0
  0
VERTEX
  5
361
330
359
100
AcDbEntity
  8
S_1_1
  6
CONTINUOUS
 62
     3
100
AcDbVertex
100
AcDb2dVertex
 10
218.7973077678184
 20
400.3641350808283
 30
0.0
  0
VERTEX
  5
362
330
359
100
AcDbEntity
  8
S_1_1
  6
CONTINUOUS
 62
     3
100
AcDbVertex
100
AcDb2dVertex
 10
219.5868096924256
 20
400.5972631757183
 30
0.0
  0
SEQEND
  5
363
330
359
100
AcDbEntity
  8
S_1_1
  6
CONTINUOUS
 62
     3
  0
POLYLINE
  5
364
330
1F
100
AcDbEntity
  8
S_1_1
  6
CONTINUOUS
 62
     3
100
AcDb2dPolyline
 66
     1
 10
0.0
 20
0.0
 30
0.0
 70
   128
  0
VERTEX
  5
365
330
364
100
AcDbEntity
  8
S_1_1
  6
CONTINUOUS
 62
     3
100
AcDbVertex
100
AcDb2dVertex
 10
230.5868096924255
 20
406.9481161368041
 30
0.0
  0
VERTEX
  5
366
330
364
100
AcDbEntity
  8
S_1_1
  6
CONTINUOUS
 62
     3
100
AcDbVertex
100
AcDb2dVertex
 10
231.1692117584493
 20
407.5024454540007
 30
0.0
  0
VERTEX
  5
367
330
364
100
AcDbEntity
  8
S_1_1
  6
CONTINUOUS
 62
     3
100
AcDbVertex
100
AcDb2dVertex
 10
231.7763887223952
 20
408.0186131363071
 30
0.0
  0
VERTEX
  5
368
330
364
100
AcDbEntity
  8
S_1_1
  6
CONTINUOUS
 62
     3
100
AcDbVertex
100
AcDb2dVertex
 10
232.4143735236791
 20
408.4919077572506
 30
0.0
  0
VERTEX
  5
369
330
364
100
AcDbEntity
  8
S_1_1
  6
CONTINUOUS
 62
     3
100
AcDbVertex
100
AcDb2dVertex
 10
233.0823975920199
 20
408.9154016550139
 30
0.0
  0
VERTEX
  5
36A
330
364
100
AcDbEntity
  8
S_1_1
  6
CONTINUOUS
 62
     3
100
AcDbVertex
100
AcDb2dVertex
 10
233.791426858248
 20
409.2913117737304
 30
0.0
  0
VERTEX
  5
36B
330
364
100
AcDbEntity
  8
S_1_1
  6
CONTINUOUS
 62
     3
100
AcDbVertex
100
AcDb2dVertex
 10
234.5295693801372
 20
409.6146307157754
 30
0.0
  0
VERTEX
  5
36C
330
364
100
AcDbEntity
  8
S_1_1
  6
CONTINUOUS
 62
     3
100
AcDbVertex
100
AcDb2dVertex
 10
235.2973077678187
 20
409.8904145224572
 30
0.0
  0
VERTEX
  5
36D
330
364
100
AcDbEntity
  8
S_1_1
  6
CONTINUOUS
 62
     3
100
AcDbVertex
100
AcDb2dVertex
 10
236.0868096924254
 20
410.123542617347
 30
0.0
  0
SEQEND
  5
36E
330
364
100
AcDbEntity
  8
S_1_1
  6
CONTINUOUS
 62
     3
  0
LINE
  5
36F
330
1F
100
AcDbEntity
  8
S_1_1
  6
CONTINUOUS
 62
     3
100
AcDbLine
 10
236.0868096924254
 20
410.123542617347
 30
0.0
 11
247.5509113075631
 21
390.2671361567961
 31
0.0
  0
LINE
  5
370
330
1F
100
AcDbEntity
  8
S_1_1
  6
CONTINUOUS
 62
     3
100
AcDbLine
 10
227.5509113075645
 20
378.1013286194873
 30
0.0
 11
246.0868096924254
 21
388.8030345416583
 31
0.0
  0
LINE
  5
371
330
1F
100
AcDbEntity
  8
S_1_1
  6
CONTINUOUS
 62
     3
100
AcDbLine
 10
215.5509113075634
 20
398.8859383103132
 30
0.0
 11
234.0868096924254
 21
409.5876442324848
 31
0.0
  0
LINE
  5
372
330
1F
100
AcDbEntity
  8
S_1_1
  6
CONTINUOUS
 62
     3
100
AcDbLine
 10
233.3070537207842
 20
373.6738712500821
 30
0.0
 11
229.5875650386542
 21
379.2771727241578
 31
0.0
  0
LINE
  5
373
330
1F
100
AcDbEntity
  8
S_1_1
  6
CONTINUOUS
 62
     3
100
AcDbLine
 10
233.8817682596428
 20
374.073790126729
 30
0.0
 11
230.9498231168068
 21
378.4906785197762
 31
0.0
  0
LINE
  5
374
330
1F
100
AcDbEntity
  8
S_1_1
  6
CONTINUOUS
 62
     3
100
AcDbLine
 10
246.4093352475624
 20
381.306583952129
 30
0.0
 11
244.0501754812697
 21
386.0541566274713
 31
0.0
  0
LINE
  5
375
330
1F
100
AcDbEntity
  8
S_1_1
  6
CONTINUOUS
 62
     3
100
AcDbLine
 10
247.043032496274
 20
381.6043419060573
 30
0.0
 11
244.0501805594224
 21
387.6271538318529
 31
0.0
  0
ARC
  5
376
330
1F
100
AcDbEntity
  8
S_1_1
  6
CONTINUOUS
 62
     3
100
AcDbCircle
 10
595.9072966587898
 20
416.72907158784
 30
0.0
 40
5.367246000000002
100
AcDbArc
 50
235.615862
 51
304.3841460000003
  0
ARC
  5
377
330
1F
100
AcDbEntity
  8
S_1_1
  6
CONTINUOUS
 62
     3
100
AcDbCircle
 10
605.0005886587899
 20
431.4240175878401
 30
0.0
 40
20.062197
100
AcDbArc
 50
252.4119940000001
 51
287.5878780000001
  0
ARC
  5
378
330
1F
100
AcDbEntity
  8
S_1_1
  6
CONTINUOUS
 62
     3
100
AcDbCircle
 10
595.9072966587898
 20
414.9945745878401
 30
0.0
 40
5.367246000000002
100
AcDbArc
 50
55.61579900000001
 51
124.384083
  0
ARC
  5
379
330
1F
100
AcDbEntity
  8
S_1_1
  6
CONTINUOUS
 62
     3
100
AcDbCircle
 10
614.0938656587899
 20
414.9945745878401
 30
0.0
 40
5.367246000000002
100
AcDbArc
 50
55.61588100000003
 51
124.384165
  0
ARC
  5
37A
330
1F
100
AcDbEntity
  8
S_1_1
  6
CONTINUOUS
 62
     3
100
AcDbCircle
 10
605.0005886587899
 20
400.29962858784
 30
0.0
 40
20.062197
100
AcDbArc
 50
72.41206700000001
 51
107.587951
  0
ARC
  5
37B
330
1F
100
AcDbEntity
  8
S_1_1
  6
CONTINUOUS
 62
     3
100
AcDbCircle
 10
614.0938656587899
 20
416.72907158784
 30
0.0
 40
5.367246000000002
100
AcDbArc
 50
235.61578
 51
304.384065
  0
LINE
  5
37C
330
1F
100
AcDbEntity
  8
S_1_1
  6
CONTINUOUS
 62
     3
100
AcDbLine
 10
597.8206976587899
 20
427.8618325878401
 30
0.0
 11
597.4370886587899
 21
421.7240965878401
 31
0.0
  0
LINE
  5
37D
330
1F
100
AcDbEntity
  8
S_1_1
  6
CONTINUOUS
 62
     3
100
AcDbLine
 10
596.6505896587898
 20
420.36181858784
 30
0.0
 11
597.43709565879
 21
421.7240885878401
 31
0.0
  0
LINE
  5
37E
330
1F
100
AcDbEntity
  8
S_1_1
  6
CONTINUOUS
 62
     3
100
AcDbLine
 10
597.11933465879
 20
427.8618355878401
 30
0.0
 11
596.6505836587899
 21
420.3618135878401
 31
0.0
  0
LINE
  5
37F
330
1F
100
AcDbEntity
  8
S_1_1
  6
CONTINUOUS
 62
     3
100
AcDbLine
 10
612.5640656587899
 20
421.7240915878401
 30
0.0
 11
613.3505756587899
 21
420.36181558784
 31
0.0
  0
LINE
  5
380
330
1F
100
AcDbEntity
  8
S_1_1
  6
CONTINUOUS
 62
     3
100
AcDbLine
 10
612.88183865879
 20
427.8618275878401
 30
0.0
 11
613.3505896587899
 21
420.36182158784
 31
0.0
  0
LINE
  5
381
330
1F
100
AcDbEntity
  8
S_1_1
  6
CONTINUOUS
 62
     3
100
AcDbLine
 10
612.18046865879
 20
427.8618245878401
 30
0.0
 11
612.5640766587899
 21
421.7240965878401
 31
0.0
  0
LINE
  5
382
330
1F
100
AcDbEntity
  8
S_1_1
  6
CONTINUOUS
 62
     3
100
AcDbLine
 10
596.7357266587899
 20
421.7240895878401
 30
0.0
 11
613.2654356587899
 21
421.7240895878401
 31
0.0
  0
LINE
  5
383
330
1F
100
AcDbEntity
  8
S_1_1
  6
CONTINUOUS
 62
     3
100
AcDbLine
 10
612.5640706587899
 20
409.99955658784
 30
0.0
 11
613.3505776587899
 21
411.3618265878401
 31
0.0
  0
LINE
  5
384
330
1F
100
AcDbEntity
  8
S_1_1
  6
CONTINUOUS
 62
     3
100
AcDbLine
 10
612.9529346587899
 20
404.99956158784
 30
0.0
 11
613.3505766587899
 21
411.3618345878401
 31
0.0
  0
LINE
  5
385
330
1F
100
AcDbEntity
  8
S_1_1
  6
CONTINUOUS
 62
     3
100
AcDbLine
 10
612.2515636587899
 20
404.99955758784
 30
0.0
 11
612.5640636587899
 21
409.99955958784
 31
0.0
  0
LINE
  5
386
330
1F
100
AcDbEntity
  8
S_1_1
  6
CONTINUOUS
 62
     3
100
AcDbLine
 10
596.6505856587899
 20
411.3618305878401
 30
0.0
 11
597.4370926587899
 21
409.99956158784
 31
0.0
  0
LINE
  5
387
330
1F
100
AcDbEntity
  8
S_1_1
  6
CONTINUOUS
 62
     3
100
AcDbLine
 10
596.7357266587899
 20
409.99955658784
 30
0.0
 11
613.2654356587899
 21
409.99955658784
 31
0.0
  0
LINE
  5
388
330
1F
100
AcDbEntity
  8
S_1_1
  6
CONTINUOUS
 62
     3
100
AcDbLine
 10
597.04822365879
 20
404.99956058784
 30
0.0
 11
596.6505816587899
 21
411.3618265878401
 31
0.0
  0
LINE
  5
389
330
1F
100
AcDbEntity
  8
S_1_1
  6
CONTINUOUS
 62
     3
100
AcDbLine
 10
597.7495946587899
 20
404.99955658784
 30
0.0
 11
597.4370946587899
 21
409.9995585878401
 31
0.0
  0
LINE
  5
38A
330
1F
100
AcDbEntity
  8
S_1_1
  6
CONTINUOUS
 62
     3
100
AcDbLine
 10
594.5005696587899
 20
411.36182258784
 30
0.0
 11
592.8762066587899
 21
412.2996445878401
 31
0.0
  0
LINE
  5
38B
330
1F
100
AcDbEntity
  8
S_1_1
  6
CONTINUOUS
 62
     3
100
AcDbLine
 10
594.5005676587899
 20
420.36182358784
 30
0.0
 11
592.87621365879
 21
419.42400558784
 31
0.0
  0
LINE
  5
38C
330
1F
100
AcDbEntity
  8
S_1_1
  6
CONTINUOUS
 62
     3
100
AcDbLine
 10
615.50059165879
 20
411.36182058784
 30
0.0
 11
617.12495965879
 21
412.2996455878401
 31
0.0
  0
LINE
  5
38D
330
1F
100
AcDbEntity
  8
S_1_1
  6
CONTINUOUS
 62
     3
100
AcDbLine
 10
615.50059365879
 20
420.36182558784
 30
0.0
 11
617.12495165879
 21
419.42400658784
 31
0.0
  0
LINE
  5
38E
330
1F
100
AcDbEntity
  8
S_1_1
  6
CONTINUOUS
 62
     3
100
AcDbLine
 10
617.12494765879
 20
419.4240025878401
 30
0.0
 11
617.12494765879
 21
412.2996435878401
 31
0.0
  0
LINE
  5
38F
330
1F
100
AcDbEntity
  8
S_1_1
  6
CONTINUOUS
 62
     3
100
AcDbLine
 10
592.8762376587899
 20
419.4240175878401
 30
0.0
 11
592.8762376587899
 21
412.2996285878401
 31
0.0
  0
LINE
  5
390
330
1F
100
AcDbEntity
  8
S_1_1
  6
CONTINUOUS
 62
     3
100
AcDbLine
 10
598.93841665879
 20
419.4240025878401
 30
0.0
 11
598.93841665879
 21
412.2996435878401
 31
0.0
  0
LINE
  5
391
330
1F
100
AcDbEntity
  8
S_1_1
  6
CONTINUOUS
 62
     3
100
AcDbLine
 10
611.06276865879
 20
419.4240025878401
 30
0.0
 11
611.06276865879
 21
412.2996435878401
 31
0.0
  0
LINE
  5
392
330
1F
100
AcDbEntity
  8
S_1_1
  6
CONTINUOUS
 62
     3
100
AcDbLine
 10
594.5005656587899
 20
420.36182258784
 30
0.0
 11
615.5005886587899
 21
420.36182258784
 31
0.0
  0
LINE
  5
393
330
1F
100
AcDbEntity
  8
S_1_1
  6
CONTINUOUS
 62
     3
100
AcDbLine
 10
594.5005736587899
 20
411.36182258784
 30
0.0
 11
615.5005966587898
 21
411.36182258784
 31
0.0
  0
ARC
  5
394
330
1F
100
AcDbEntity
  8
S_1_1
  6
CONTINUOUS
 62
     3
100
AcDbCircle
 10
615.3928691587798
 20
428.7280105878385
 30
0.0
 40
6.133925000000002
100
AcDbArc
 50
55.61543800000034
 51
124.3845830000003
  0
ARC
  5
395
330
1F
100
AcDbEntity
  8
S_1_1
  6
CONTINUOUS
 62
     3
100
AcDbCircle
 10
605.0005651587799
 20
411.9336985878385
 30
0.0
 40
22.927938
100
AcDbArc
 50
72.411858
 51
107.5881660000001
  0
ARC
  5
396
330
1F
100
AcDbEntity
  8
S_1_1
  6
CONTINUOUS
 62
     3
100
AcDbCircle
 10
594.6082311587802
 20
433.9957105878383
 30
0.0
 40
6.133925000000002
100
AcDbArc
 50
235.6154019999991
 51
304.3845609999998
  0
ARC
  5
397
330
1F
100
AcDbEntity
  8
S_1_1
  6
CONTINUOUS
 62
     3
100
AcDbCircle
 10
600.5005651587803
 20
471.8616775878385
 30
0.0
 40
1.0
100
AcDbArc
 50
89.99997799999524
 51
179.9999749999976
  0
ARC
  5
398
330
1F
100
AcDbEntity
  8
S_1_1
  6
CONTINUOUS
 62
     3
100
AcDbCircle
 10
594.6082311587802
 20
428.7280105878385
 30
0.0
 40
6.133925000000002
100
AcDbArc
 50
55.6153689999997
 51
124.384513999999
  0
ARC
  5
399
330
1F
100
AcDbEntity
  8
S_1_1
  6
CONTINUOUS
 62
     3
100
AcDbCircle
 10
605.0005651587799
 20
450.7897775878386
 30
0.0
 40
22.927942
100
AcDbArc
 50
252.4118210000002
 51
287.5881150000001
  0
ARC
  5
39A
330
1F
100
AcDbEntity
  8
S_1_1
  6
CONTINUOUS
 62
     3
100
AcDbCircle
 10
615.3928691587798
 20
433.9957105878383
 30
0.0
 40
6.133925000000002
100
AcDbArc
 50
235.6154159999998
 51
304.3845739999999
  0
ARC
  5
39B
330
1F
100
AcDbEntity
  8
S_1_1
  6
CONTINUOUS
 62
     3
100
AcDbCircle
 10
609.5005351587797
 20
471.8616775878385
 30
0.0
 40
1.0
100
AcDbArc
 50
359.9999970000023
 51
89.9999780000017
  0
LINE
  5
39C
330
1F
100
AcDbEntity
  8
S_1_1
  6
CONTINUOUS
 62
     3
100
AcDbLine
 10
603.5005961587799
 20
474.8617995878385
 30
0.0
 11
606.5005651587799
 21
474.8617995878385
 31
0.0
  0
LINE
  5
39D
330
1F
100
AcDbEntity
  8
S_1_1
  6
CONTINUOUS
 62
     3
100
AcDbLine
 10
593.0005651587803
 20
427.8619215878384
 30
0.0
 11
617.0005351587797
 21
427.8619215878384
 31
0.0
  0
LINE
  5
39E
330
1F
100
AcDbEntity
  8
S_1_1
  6
CONTINUOUS
 62
     3
100
AcDbLine
 10
599.5005351587802
 20
471.8616775878385
 30
0.0
 11
599.5005351587802
 21
462.8619215878384
 31
0.0
  0
LINE
  5
39F
330
1F
100
AcDbEntity
  8
S_1_1
  6
CONTINUOUS
 62
     3
100
AcDbLine
 10
599.5005351587802
 20
462.8619215878384
 30
0.0
 11
610.5005651587799
 21
462.8619215878384
 31
0.0
  0
LINE
  5
3A0
330
1F
100
AcDbEntity
  8
S_1_1
  6
CONTINUOUS
 62
     3
100
AcDbLine
 10
596.0005961587804
 20
459.3616775878385
 30
0.0
 11
596.0005961587804
 21
457.3617995878385
 31
0.0
  0
LINE
  5
3A1
330
1F
100
AcDbEntity
  8
S_1_1
  6
CONTINUOUS
 62
     3
100
AcDbLine
 10
614.0005651587799
 20
459.3616775878385
 30
0.0
 11
614.0005651587799
 21
457.3617995878385
 31
0.0
  0
LINE
  5
3A2
330
1F
100
AcDbEntity
  8
S_1_1
  6
CONTINUOUS
 62
     3
100
AcDbLine
 10
593.7505651587803
 20
443.8617995878384
 30
0.0
 11
616.2505651587799
 21
443.8617995878384
 31
0.0
  0
LINE
  5
3A3
330
1F
100
AcDbEntity
  8
S_1_1
  6
CONTINUOUS
 62
     3
100
AcDbLine
 10
616.7505651587799
 20
443.3617995878384
 30
0.0
 11
616.7505651587799
 21
434.8617995878385
 31
0.0
  0
LINE
  5
3A4
330
1F
100
AcDbEntity
  8
S_1_1
  6
CONTINUOUS
 62
     3
100
AcDbLine
 10
593.2505351587802
 20
443.3617995878384
 30
0.0
 11
593.2505351587802
 21
434.8617995878385
 31
0.0
  0
LINE
  5
3A5
330
1F
100
AcDbEntity
  8
S_1_1
  6
CONTINUOUS
 62
     3
100
AcDbLine
 10
591.1441971587801
 20
428.9337735878384
 30
0.0
 11
593.0005691587803
 21
427.8619965878387
 31
0.0
  0
LINE
  5
3A6
330
1F
100
AcDbEntity
  8
S_1_1
  6
CONTINUOUS
 62
     3
100
AcDbLine
 10
617.0004921587797
 20
434.8619905878385
 30
0.0
 11
618.8569701587799
 21
433.7901515878384
 31
0.0
  0
LINE
  5
3A7
330
1F
100
AcDbEntity
  8
S_1_1
  6
CONTINUOUS
 62
     3
100
AcDbLine
 10
617.0005341587798
 20
427.8619545878386
 30
0.0
 11
618.8569071587799
 21
428.9337315878387
 31
0.0
  0
LINE
  5
3A8
330
1F
100
AcDbEntity
  8
S_1_1
  6
CONTINUOUS
 62
     3
100
AcDbLine
 10
591.1442041587802
 20
433.7902915878385
 30
0.0
 11
593.0005771587803
 21
434.8620685878386
 31
0.0
  0
LINE
  5
3A9
330
1F
100
AcDbEntity
  8
S_1_1
  6
CONTINUOUS
 62
     3
100
AcDbLine
 10
618.8569801587796
 20
433.7900215878385
 30
0.0
 11
618.8569801587796
 21
428.9336985878385
 31
0.0
  0
LINE
  5
3AA
330
1F
100
AcDbEntity
  8
S_1_1
  6
CONTINUOUS
 62
     3
100
AcDbLine
 10
611.9287881587798
 20
433.7900215878385
 30
0.0
 11
611.9287881587798
 21
428.9336985878385
 31
0.0
  0
LINE
  5
3AB
330
1F
100
AcDbEntity
  8
S_1_1
  6
CONTINUOUS
 62
     3
100
AcDbLine
 10
598.0724341587802
 20
433.7900215878385
 30
0.0
 11
598.0724341587802
 21
428.9336985878385
 31
0.0
  0
LINE
  5
3AC
330
1F
100
AcDbEntity
  8
S_1_1
  6
CONTINUOUS
 62
     3
100
AcDbLine
 10
591.1441661587801
 20
433.7900215878385
 30
0.0
 11
591.1441661587801
 21
428.9336985878385
 31
0.0
  0
LINE
  5
3AD
330
1F
100
AcDbEntity
  8
S_1_1
  6
CONTINUOUS
 62
     3
100
AcDbLine
 10
593.0005651587803
 20
434.8617995878385
 30
0.0
 11
617.0005351587797
 21
434.8617995878385
 31
0.0
  0
LINE
  5
3AE
330
1F
100
AcDbEntity
  8
S_1_1
  6
CONTINUOUS
 62
     3
100
AcDbLine
 10
600.5005651587803
 20
472.8619215878388
 30
0.0
 11
609.5005351587797
 21
472.8619215878388
 31
0.0
  0
LINE
  5
3AF
330
1F
100
AcDbEntity
  8
S_1_1
  6
CONTINUOUS
 62
     3
100
AcDbLine
 10
606.5004241587799
 20
474.8619865878385
 30
0.0
 11
608.5004691587797
 21
472.8619415878388
 31
0.0
  0
LINE
  5
3B0
330
1F
100
AcDbEntity
  8
S_1_1
  6
CONTINUOUS
 62
     3
100
AcDbLine
 10
601.5003971587803
 20
472.8619845878383
 30
0.0
 11
603.5003561587796
 21
474.8619435878385
 31
0.0
  0
LINE
  5
3B1
330
1F
100
AcDbEntity
  8
S_1_1
  6
CONTINUOUS
 62
     3
100
AcDbLine
 10
597.5005651587803
 20
454.3616775878385
 30
0.0
 11
612.5005651587799
 21
454.3616775878385
 31
0.0
  0
LINE
  5
3B2
330
1F
100
AcDbEntity
  8
S_1_1
  6
CONTINUOUS
 62
     3
100
AcDbLine
 10
597.5005651587803
 20
455.8617995878384
 30
0.0
 11
612.5005651587799
 21
455.8617995878384
 31
0.0
  0
LINE
  5
3B3
330
1F
100
AcDbEntity
  8
S_1_1
  6
CONTINUOUS
 62
     3
100
AcDbLine
 10
596.0005961587804
 20
459.3616775878385
 30
0.0
 11
614.0005651587799
 21
459.3616775878385
 31
0.0
  0
LINE
  5
3B4
330
1F
100
AcDbEntity
  8
S_1_1
  6
CONTINUOUS
 62
     3
100
AcDbLine
 10
614.0005651587799
 20
452.8619215878384
 30
0.0
 11
614.0005651587799
 21
443.8617995878384
 31
0.0
  0
LINE
  5
3B5
330
1F
100
AcDbEntity
  8
S_1_1
  6
CONTINUOUS
 62
     3
100
AcDbLine
 10
596.0005961587804
 20
452.8619215878384
 30
0.0
 11
596.0005961587804
 21
443.8617995878384
 31
0.0
  0
LINE
  5
3B6
330
1F
100
AcDbEntity
  8
S_1_1
  6
CONTINUOUS
 62
     3
100
AcDbLine
 10
596.0004531587801
 20
457.3618205878387
 30
0.0
 11
597.5004651587801
 21
455.8618075878384
 31
0.0
  0
LINE
  5
3B7
330
1F
100
AcDbEntity
  8
S_1_1
  6
CONTINUOUS
 62
     3
100
AcDbLine
 10
612.5005311587797
 20
455.8618065878386
 30
0.0
 11
614.0004141587797
 21
457.3616895878385
 31
0.0
  0
LINE
  5
3B8
330
1F
100
AcDbEntity
  8
S_1_1
  6
CONTINUOUS
 62
     3
100
AcDbLine
 10
596.0005961587804
 20
457.3617995878385
 30
0.0
 11
614.0005651587799
 21
457.3617995878385
 31
0.0
  0
LINE
  5
3B9
330
1F
100
AcDbEntity
  8
S_1_1
  6
CONTINUOUS
 62
     3
100
AcDbLine
 10
596.0005671587801
 20
452.8619545878386
 30
0.0
 11
597.50045015878
 21
454.3618375878386
 31
0.0
  0
LINE
  5
3BA
330
1F
100
AcDbEntity
  8
S_1_1
  6
CONTINUOUS
 62
     3
100
AcDbLine
 10
612.5004171587798
 20
454.3617955878385
 30
0.0
 11
614.0004301587796
 21
452.8617835878385
 31
0.0
  0
LINE
  5
3BB
330
1F
100
AcDbEntity
  8
S_1_1
  6
CONTINUOUS
 62
     3
100
AcDbLine
 10
593.2505351587802
 20
443.3617995878384
 30
0.0
 11
616.7505651587799
 21
443.3617995878384
 31
0.0
  0
LINE
  5
3BC
330
1F
100
AcDbEntity
  8
S_1_1
  6
CONTINUOUS
 62
     3
100
AcDbLine
 10
596.0005961587804
 20
452.8619215878384
 30
0.0
 11
614.0005651587799
 21
452.8619215878384
 31
0.0
  0
LINE
  5
3BD
330
1F
100
AcDbEntity
  8
S_1_1
  6
CONTINUOUS
 62
     3
100
AcDbLine
 10
597.5005651587803
 20
455.8617995878384
 30
0.0
 11
597.5005651587803
 21
454.3616775878385
 31
0.0
  0
LINE
  5
3BE
330
1F
100
AcDbEntity
  8
S_1_1
  6
CONTINUOUS
 62
     3
100
AcDbLine
 10
612.5005651587799
 20
455.8617995878384
 30
0.0
 11
612.5005651587799
 21
454.3616775878385
 31
0.0
  0
LINE
  5
3BF
330
1F
100
AcDbEntity
  8
S_1_1
  6
CONTINUOUS
 62
     3
100
AcDbLine
 10
616.2504611587797
 20
443.8618885878386
 30
0.0
 11
616.7504081587799
 21
443.3619425878387
 31
0.0
  0
LINE
  5
3C0
330
1F
100
AcDbEntity
  8
S_1_1
  6
CONTINUOUS
 62
     3
100
AcDbLine
 10
593.2504901587804
 20
443.3618905878383
 30
0.0
 11
593.7503881587804
 21
443.8617995878384
 31
0.0
  0
LINE
  5
3C1
330
1F
100
AcDbEntity
  8
S_1_1
  6
CONTINUOUS
 62
     3
100
AcDbLine
 10
596.0005241587801
 20
459.3619085878385
 30
0.0
 11
599.5005381587803
 21
462.8619225878387
 31
0.0
  0
LINE
  5
3C2
330
1F
100
AcDbEntity
  8
S_1_1
  6
CONTINUOUS
 62
     3
100
AcDbLine
 10
610.50041515878
 20
462.8617085878386
 30
0.0
 11
614.0003861587797
 21
459.3617365878385
 31
0.0
  0
LINE
  5
3C3
330
1F
100
AcDbEntity
  8
S_1_1
  6
CONTINUOUS
 62
     3
100
AcDbLine
 10
610.5005651587799
 20
471.8616775878385
 30
0.0
 11
610.5005651587799
 21
462.8619215878384
 31
0.0
  0
LINE
  5
3C4
330
1F
100
AcDbEntity
  8
S_1_1
  6
EXLTYPE2
 62
     1
100
AcDbLine
 10
605.00058065879
 20
381.90006334459
 30
0.0
 11
605.00058065879
 21
480.79955958784
 31
0.0
  0
DIMENSION
  5
3C5
330
1F
100
AcDbEntity
  8
S_1_1
  6
CONTINUOUS
 62
     2
100
AcDbDimension
  2
*D24
 10
694.99997888514
 20
525.0
 30
0.0
 11
744.9999894425699
 21
531.875
 31
0.0
 70
   160
  3
ISO-25
100
AcDbAlignedDimension
 13
795.0
 23
388.99994721284
 33
0.0
 14
694.99997888514
 24
493.3290646114901
 34
0.0
100
AcDbRotatedDimension
1001
ACAD
1000
DSTYLE
1002
{
1070
   270
1070
     2
1070
     6
1000
EX_NORM
1070
     7
1000
EX_NORM
1070
    41
1040
7.5
1070
    42
1040
3.75
1070
    44
1040
2.5
1070
    73
1070
     0
1070
    74
1070
     0
1070
    75
1070
     0
1070
    76
1070
     0
1070
    77
1070
     1
1070
    78
1070
     8
1070
   140
1040
8.6572603926097
1070
   147
1040
0.0
1070
   173
1070
     1
1070
   176
1070
     2
1070
   177
1070
     2
1070
   178
1070
     2
1070
   271
1070
     2
1070
   277
1070
     2
1070
   279
1070
     2
1070
   280
1070
     0
1070
   287
1070
     5
1070
   340
1005
12C
1002
}
  0
DIMENSION
  5
3D2
330
1F
100
AcDbEntity
  8
S_1_1
  6
CONTINUOUS
 62
     2
100
AcDbDimension
  2
*D25
 10
605.00058065879
 20
525.0
 30
0.0
 11
650.0002797719651
 21
531.875
 31
0.0
 70
   160
  3
ISO-25
100
AcDbAlignedDimension
 13
694.99997888514
 23
493.3290646114901
 33
0.0
 14
605.00058065879
 24
480.79955958784
 34
0.0
100
AcDbRotatedDimension
1001
ACAD
1000
DSTYLE
1002
{
1070
   270
1070
     2
1070
     6
1000
EX_NORM
1070
     7
1000
EX_NORM
1070
    41
1040
7.5
1070
    42
1040
3.75
1070
    44
1040
2.5
1070
    73
1070
     0
1070
    74
1070
     0
1070
    75
1070
     0
1070
    76
1070
     0
1070
    77
1070
     1
1070
    78
1070
     8
1070
   140
1040
8.6572603926097
1070
   147
1040
0.0
1070
   173
1070
     1
1070
   176
1070
     2
1070
   177
1070
     2
1070
   178
1070
     2
1070
   271
1070
     2
1070
   277
1070
     2
1070
   279
1070
     2
1070
   280
1070
     0
1070
   287
1070
     5
1070
   340
1005
12C
1002
}
  0
DIMENSION
  5
3DF
330
1F
100
AcDbEntity
  8
S_1_1
  6
CONTINUOUS
 62
     2
100
AcDbDimension
  2
*D26
 10
545.00001055744
 20
525.0
 30
0.0
 11
575.0002956081149
 21
531.875
 31
0.0
 70
   160
  3
ISO-25
100
AcDbAlignedDimension
 13
605.00058065879
 23
480.79955958784
 33
0.0
 14
545.00001055744
 24
387.99970439189
 34
0.0
100
AcDbRotatedDimension
1001
ACAD
1000
DSTYLE
1002
{
1070
   270
1070
     2
1070
     6
1000
EX_NORM
1070
     7
1000
EX_NORM
1070
    41
1040
7.5
1070
    42
1040
3.75
1070
    44
1040
2.5
1070
    73
1070
     0
1070
    74
1070
     0
1070
    75
1070
     0
1070
    76
1070
     0
1070
    77
1070
     1
1070
    78
1070
     8
1070
   140
1040
8.6572603926097
1070
   147
1040
0.0
1070
   173
1070
     1
1070
   176
1070
     2
1070
   177
1070
     2
1070
   178
1070
     2
1070
   271
1070
     2
1070
   277
1070
     2
1070
   279
1070
     2
1070
   280
1070
     0
1070
   287
1070
     5
1070
   340
1005
12C
1002
}
  0
ARC
  5
3EC
330
1F
100
AcDbEntity
  8
S_1_1
  6
CONTINUOUS
 62
     3
100
AcDbCircle
 10
275.9067159999998
 20
416.72907158784
 30
0.0
 40
5.367246000000002
100
AcDbArc
 50
235.615862
 51
304.3841460000003
  0
ARC
  5
3ED
330
1F
100
AcDbEntity
  8
S_1_1
  6
CONTINUOUS
 62
     3
100
AcDbCircle
 10
285.0000079999999
 20
431.4240175878401
 30
0.0
 40
20.062197
100
AcDbArc
 50
252.4119940000001
 51
287.5878780000001
  0
ARC
  5
3EE
330
1F
100
AcDbEntity
  8
S_1_1
  6
CONTINUOUS
 62
     3
100
AcDbCircle
 10
275.9067159999998
 20
414.9945745878401
 30
0.0
 40
5.367246000000002
100
AcDbArc
 50
55.61579900000001
 51
124.384083
  0
ARC
  5
3EF
330
1F
100
AcDbEntity
  8
S_1_1
  6
CONTINUOUS
 62
     3
100
AcDbCircle
 10
294.0932849999999
 20
414.9945745878401
 30
0.0
 40
5.367246000000002
100
AcDbArc
 50
55.61588100000003
 51
124.384165
  0
ARC
  5
3F0
330
1F
100
AcDbEntity
  8
S_1_1
  6
CONTINUOUS
 62
     3
100
AcDbCircle
 10
285.0000079999999
 20
400.29962858784
 30
0.0
 40
20.062197
100
AcDbArc
 50
72.41206700000001
 51
107.587951
  0
ARC
  5
3F1
330
1F
100
AcDbEntity
  8
S_1_1
  6
CONTINUOUS
 62
     3
100
AcDbCircle
 10
294.0932849999999
 20
416.72907158784
 30
0.0
 40
5.367246000000002
100
AcDbArc
 50
235.61578
 51
304.384065
  0
LINE
  5
3F2
330
1F
100
AcDbEntity
  8
S_1_1
  6
CONTINUOUS
 62
     3
100
AcDbLine
 10
277.8201169999999
 20
427.8618325878401
 30
0.0
 11
277.4365079999999
 21
421.7240965878401
 31
0.0
  0
LINE
  5
3F3
330
1F
100
AcDbEntity
  8
S_1_1
  6
CONTINUOUS
 62
     3
100
AcDbLine
 10
276.6500089999998
 20
420.36181858784
 30
0.0
 11
277.436515
 21
421.7240885878401
 31
0.0
  0
LINE
  5
3F4
330
1F
100
AcDbEntity
  8
S_1_1
  6
CONTINUOUS
 62
     3
100
AcDbLine
 10
277.118754
 20
427.8618355878401
 30
0.0
 11
276.6500029999999
 21
420.3618135878401
 31
0.0
  0
LINE
  5
3F5
330
1F
100
AcDbEntity
  8
S_1_1
  6
CONTINUOUS
 62
     3
100
AcDbLine
 10
292.5634849999999
 20
421.7240915878401
 30
0.0
 11
293.3499949999999
 21
420.36181558784
 31
0.0
  0
LINE
  5
3F6
330
1F
100
AcDbEntity
  8
S_1_1
  6
CONTINUOUS
 62
     3
100
AcDbLine
 10
292.881258
 20
427.8618275878401
 30
0.0
 11
293.3500089999999
 21
420.36182158784
 31
0.0
  0
LINE
  5
3F7
330
1F
100
AcDbEntity
  8
S_1_1
  6
CONTINUOUS
 62
     3
100
AcDbLine
 10
292.179888
 20
427.8618245878401
 30
0.0
 11
292.5634959999999
 21
421.7240965878401
 31
0.0
  0
LINE
  5
3F8
330
1F
100
AcDbEntity
  8
S_1_1
  6
CONTINUOUS
 62
     3
100
AcDbLine
 10
276.7351459999999
 20
421.7240895878401
 30
0.0
 11
293.2648549999999
 21
421.7240895878401
 31
0.0
  0
LINE
  5
3F9
330
1F
100
AcDbEntity
  8
S_1_1
  6
CONTINUOUS
 62
     3
100
AcDbLine
 10
292.5634899999999
 20
409.99955658784
 30
0.0
 11
293.3499969999999
 21
411.3618265878401
 31
0.0
  0
LINE
  5
3FA
330
1F
100
AcDbEntity
  8
S_1_1
  6
CONTINUOUS
 62
     3
100
AcDbLine
 10
292.9523539999999
 20
404.99956158784
 30
0.0
 11
293.3499959999999
 21
411.3618345878401
 31
0.0
  0
LINE
  5
3FB
330
1F
100
AcDbEntity
  8
S_1_1
  6
CONTINUOUS
 62
     3
100
AcDbLine
 10
292.2509829999999
 20
404.99955758784
 30
0.0
 11
292.5634829999999
 21
409.99955958784
 31
0.0
  0
LINE
  5
3FC
330
1F
100
AcDbEntity
  8
S_1_1
  6
CONTINUOUS
 62
     3
100
AcDbLine
 10
276.6500049999999
 20
411.3618305878401
 30
0.0
 11
277.4365119999999
 21
409.99956158784
 31
0.0
  0
LINE
  5
3FD
330
1F
100
AcDbEntity
  8
S_1_1
  6
CONTINUOUS
 62
     3
100
AcDbLine
 10
276.7351459999999
 20
409.99955658784
 30
0.0
 11
293.2648549999999
 21
409.99955658784
 31
0.0
  0
LINE
  5
3FE
330
1F
100
AcDbEntity
  8
S_1_1
  6
CONTINUOUS
 62
     3
100
AcDbLine
 10
277.047643
 20
404.99956058784
 30
0.0
 11
276.6500009999999
 21
411.3618265878401
 31
0.0
  0
LINE
  5
3FF
330
1F
100
AcDbEntity
  8
S_1_1
  6
CONTINUOUS
 62
     3
100
AcDbLine
 10
277.7490139999999
 20
404.99955658784
 30
0.0
 11
277.4365139999999
 21
409.9995585878401
 31
0.0
  0
LINE
  5
400
330
1F
100
AcDbEntity
  8
S_1_1
  6
CONTINUOUS
 62
     3
100
AcDbLine
 10
274.4999889999999
 20
411.36182258784
 30
0.0
 11
272.8756259999999
 21
412.2996445878401
 31
0.0
  0
LINE
  5
401
330
1F
100
AcDbEntity
  8
S_1_1
  6
CONTINUOUS
 62
     3
100
AcDbLine
 10
274.4999869999999
 20
420.36182358784
 30
0.0
 11
272.875633
 21
419.42400558784
 31
0.0
  0
LINE
  5
402
330
1F
100
AcDbEntity
  8
S_1_1
  6
CONTINUOUS
 62
     3
100
AcDbLine
 10
295.500011
 20
411.36182058784
 30
0.0
 11
297.124379
 21
412.2996455878401
 31
0.0
  0
LINE
  5
403
330
1F
100
AcDbEntity
  8
S_1_1
  6
CONTINUOUS
 62
     3
100
AcDbLine
 10
295.500013
 20
420.36182558784
 30
0.0
 11
297.124371
 21
419.42400658784
 31
0.0
  0
LINE
  5
404
330
1F
100
AcDbEntity
  8
S_1_1
  6
CONTINUOUS
 62
     3
100
AcDbLine
 10
297.124367
 20
419.4240025878401
 30
0.0
 11
297.124367
 21
412.2996435878401
 31
0.0
  0
LINE
  5
405
330
1F
100
AcDbEntity
  8
S_1_1
  6
CONTINUOUS
 62
     3
100
AcDbLine
 10
272.8756569999999
 20
419.4240175878401
 30
0.0
 11
272.8756569999999
 21
412.2996285878401
 31
0.0
  0
LINE
  5
406
330
1F
100
AcDbEntity
  8
S_1_1
  6
CONTINUOUS
 62
     3
100
AcDbLine
 10
278.9378359999999
 20
419.4240025878401
 30
0.0
 11
278.9378359999999
 21
412.2996435878401
 31
0.0
  0
LINE
  5
407
330
1F
100
AcDbEntity
  8
S_1_1
  6
CONTINUOUS
 62
     3
100
AcDbLine
 10
291.062188
 20
419.4240025878401
 30
0.0
 11
291.062188
 21
412.2996435878401
 31
0.0
  0
LINE
  5
408
330
1F
100
AcDbEntity
  8
S_1_1
  6
CONTINUOUS
 62
     3
100
AcDbLine
 10
274.4999849999999
 20
420.36182258784
 30
0.0
 11
295.5000079999999
 21
420.36182258784
 31
0.0
  0
LINE
  5
409
330
1F
100
AcDbEntity
  8
S_1_1
  6
CONTINUOUS
 62
     3
100
AcDbLine
 10
274.4999929999999
 20
411.36182258784
 30
0.0
 11
295.5000159999998
 21
411.36182258784
 31
0.0
  0
ARC
  5
40A
330
1F
100
AcDbEntity
  8
S_1_1
  6
CONTINUOUS
 62
     3
100
AcDbCircle
 10
295.3922884999898
 20
428.7280105878385
 30
0.0
 40
6.133925000000002
100
AcDbArc
 50
55.61543800000034
 51
124.3845830000003
  0
ARC
  5
40B
330
1F
100
AcDbEntity
  8
S_1_1
  6
CONTINUOUS
 62
     3
100
AcDbCircle
 10
284.9999844999899
 20
411.9336985878385
 30
0.0
 40
22.927938
100
AcDbArc
 50
72.411858
 51
107.5881660000001
  0
ARC
  5
40C
330
1F
100
AcDbEntity
  8
S_1_1
  6
CONTINUOUS
 62
     3
100
AcDbCircle
 10
274.6076504999902
 20
433.9957105878383
 30
0.0
 40
6.133925000000002
100
AcDbArc
 50
235.6154019999991
 51
304.3845609999998
  0
ARC
  5
40D
330
1F
100
AcDbEntity
  8
S_1_1
  6
CONTINUOUS
 62
     3
100
AcDbCircle
 10
280.4999844999903
 20
471.8616775878385
 30
0.0
 40
1.0
100
AcDbArc
 50
89.99997799999524
 51
179.9999749999976
  0
ARC
  5
40E
330
1F
100
AcDbEntity
  8
S_1_1
  6
CONTINUOUS
 62
     3
100
AcDbCircle
 10
274.6076504999902
 20
428.7280105878385
 30
0.0
 40
6.133925000000002
100
AcDbArc
 50
55.6153689999997
 51
124.384513999999
  0
ARC
  5
40F
330
1F
100
AcDbEntity
  8
S_1_1
  6
CONTINUOUS
 62
     3
100
AcDbCircle
 10
284.9999844999899
 20
450.7897775878386
 30
0.0
 40
22.927942
100
AcDbArc
 50
252.4118210000002
 51
287.5881150000001
  0
ARC
  5
410
330
1F
100
AcDbEntity
  8
S_1_1
  6
CONTINUOUS
 62
     3
100
AcDbCircle
 10
295.3922884999898
 20
433.9957105878383
 30
0.0
 40
6.133925000000002
100
AcDbArc
 50
235.6154159999998
 51
304.3845739999999
  0
ARC
  5
411
330
1F
100
AcDbEntity
  8
S_1_1
  6
CONTINUOUS
 62
     3
100
AcDbCircle
 10
289.4999544999897
 20
471.8616775878385
 30
0.0
 40
1.0
100
AcDbArc
 50
359.9999970000023
 51
89.9999780000017
  0
LINE
  5
412
330
1F
100
AcDbEntity
  8
S_1_1
  6
CONTINUOUS
 62
     3
100
AcDbLine
 10
283.5000154999899
 20
474.8617995878385
 30
0.0
 11
286.4999844999899
 21
474.8617995878385
 31
0.0
  0
LINE
  5
413
330
1F
100
AcDbEntity
  8
S_1_1
  6
CONTINUOUS
 62
     3
100
AcDbLine
 10
272.9999844999903
 20
427.8619215878384
 30
0.0
 11
296.9999544999897
 21
427.8619215878384
 31
0.0
  0
LINE
  5
414
330
1F
100
AcDbEntity
  8
S_1_1
  6
CONTINUOUS
 62
     3
100
AcDbLine
 10
279.4999544999902
 20
471.8616775878385
 30
0.0
 11
279.4999544999902
 21
462.8619215878384
 31
0.0
  0
LINE
  5
415
330
1F
100
AcDbEntity
  8
S_1_1
  6
CONTINUOUS
 62
     3
100
AcDbLine
 10
279.4999544999902
 20
462.8619215878384
 30
0.0
 11
290.4999844999899
 21
462.8619215878384
 31
0.0
  0
LINE
  5
416
330
1F
100
AcDbEntity
  8
S_1_1
  6
CONTINUOUS
 62
     3
100
AcDbLine
 10
276.0000154999904
 20
459.3616775878385
 30
0.0
 11
276.0000154999904
 21
457.3617995878385
 31
0.0
  0
LINE
  5
417
330
1F
100
AcDbEntity
  8
S_1_1
  6
CONTINUOUS
 62
     3
100
AcDbLine
 10
293.9999844999899
 20
459.3616775878385
 30
0.0
 11
293.9999844999899
 21
457.3617995878385
 31
0.0
  0
LINE
  5
418
330
1F
100
AcDbEntity
  8
S_1_1
  6
CONTINUOUS
 62
     3
100
AcDbLine
 10
273.7499844999903
 20
443.8617995878384
 30
0.0
 11
296.2499844999899
 21
443.8617995878384
 31
0.0
  0
LINE
  5
419
330
1F
100
AcDbEntity
  8
S_1_1
  6
CONTINUOUS
 62
     3
100
AcDbLine
 10
296.7499844999899
 20
443.3617995878384
 30
0.0
 11
296.7499844999899
 21
434.8617995878385
 31
0.0
  0
LINE
  5
41A
330
1F
100
AcDbEntity
  8
S_1_1
  6
CONTINUOUS
 62
     3
100
AcDbLine
 10
273.2499544999902
 20
443.3617995878384
 30
0.0
 11
273.2499544999902
 21
434.8617995878385
 31
0.0
  0
LINE
  5
41B
330
1F
100
AcDbEntity
  8
S_1_1
  6
CONTINUOUS
 62
     3
100
AcDbLine
 10
271.1436164999901
 20
428.9337735878384
 30
0.0
 11
272.9999884999903
 21
427.8619965878387
 31
0.0
  0
LINE
  5
41C
330
1F
100
AcDbEntity
  8
S_1_1
  6
CONTINUOUS
 62
     3
100
AcDbLine
 10
296.9999114999897
 20
434.8619905878385
 30
0.0
 11
298.8563894999899
 21
433.7901515878384
 31
0.0
  0
LINE
  5
41D
330
1F
100
AcDbEntity
  8
S_1_1
  6
CONTINUOUS
 62
     3
100
AcDbLine
 10
296.9999534999898
 20
427.8619545878386
 30
0.0
 11
298.8563264999899
 21
428.9337315878387
 31
0.0
  0
LINE
  5
41E
330
1F
100
AcDbEntity
  8
S_1_1
  6
CONTINUOUS
 62
     3
100
AcDbLine
 10
271.1436234999902
 20
433.7902915878385
 30
0.0
 11
272.9999964999903
 21
434.8620685878386
 31
0.0
  0
LINE
  5
41F
330
1F
100
AcDbEntity
  8
S_1_1
  6
CONTINUOUS
 62
     3
100
AcDbLine
 10
298.8563994999896
 20
433.7900215878385
 30
0.0
 11
298.8563994999896
 21
428.9336985878385
 31
0.0
  0
LINE
  5
420
330
1F
100
AcDbEntity
  8
S_1_1
  6
CONTINUOUS
 62
     3
100
AcDbLine
 10
291.9282074999898
 20
433.7900215878385
 30
0.0
 11
291.9282074999898
 21
428.9336985878385
 31
0.0
  0
LINE
  5
421
330
1F
100
AcDbEntity
  8
S_1_1
  6
CONTINUOUS
 62
     3
100
AcDbLine
 10
278.0718534999902
 20
433.7900215878385
 30
0.0
 11
278.0718534999902
 21
428.9336985878385
 31
0.0
  0
LINE
  5
422
330
1F
100
AcDbEntity
  8
S_1_1
  6
CONTINUOUS
 62
     3
100
AcDbLine
 10
271.1435854999901
 20
433.7900215878385
 30
0.0
 11
271.1435854999901
 21
428.9336985878385
 31
0.0
  0
LINE
  5
423
330
1F
100
AcDbEntity
  8
S_1_1
  6
CONTINUOUS
 62
     3
100
AcDbLine
 10
272.9999844999903
 20
434.8617995878385
 30
0.0
 11
296.9999544999897
 21
434.8617995878385
 31
0.0
  0
LINE
  5
424
330
1F
100
AcDbEntity
  8
S_1_1
  6
CONTINUOUS
 62
     3
100
AcDbLine
 10
280.4999844999903
 20
472.8619215878388
 30
0.0
 11
289.4999544999897
 21
472.8619215878388
 31
0.0
  0
LINE
  5
425
330
1F
100
AcDbEntity
  8
S_1_1
  6
CONTINUOUS
 62
     3
100
AcDbLine
 10
286.4998434999899
 20
474.8619865878385
 30
0.0
 11
288.4998884999897
 21
472.8619415878388
 31
0.0
  0
LINE
  5
426
330
1F
100
AcDbEntity
  8
S_1_1
  6
CONTINUOUS
 62
     3
100
AcDbLine
 10
281.4998164999903
 20
472.8619845878383
 30
0.0
 11
283.4997754999896
 21
474.8619435878385
 31
0.0
  0
LINE
  5
427
330
1F
100
AcDbEntity
  8
S_1_1
  6
CONTINUOUS
 62
     3
100
AcDbLine
 10
277.4999844999903
 20
454.3616775878385
 30
0.0
 11
292.4999844999899
 21
454.3616775878385
 31
0.0
  0
LINE
  5
428
330
1F
100
AcDbEntity
  8
S_1_1
  6
CONTINUOUS
 62
     3
100
AcDbLine
 10
277.4999844999903
 20
455.8617995878384
 30
0.0
 11
292.4999844999899
 21
455.8617995878384
 31
0.0
  0
LINE
  5
429
330
1F
100
AcDbEntity
  8
S_1_1
  6
CONTINUOUS
 62
     3
100
AcDbLine
 10
276.0000154999904
 20
459.3616775878385
 30
0.0
 11
293.9999844999899
 21
459.3616775878385
 31
0.0
  0
LINE
  5
42A
330
1F
100
AcDbEntity
  8
S_1_1
  6
CONTINUOUS
 62
     3
100
AcDbLine
 10
293.9999844999899
 20
452.8619215878384
 30
0.0
 11
293.9999844999899
 21
443.8617995878384
 31
0.0
  0
LINE
  5
42B
330
1F
100
AcDbEntity
  8
S_1_1
  6
CONTINUOUS
 62
     3
100
AcDbLine
 10
276.0000154999904
 20
452.8619215878384
 30
0.0
 11
276.0000154999904
 21
443.8617995878384
 31
0.0
  0
LINE
  5
42C
330
1F
100
AcDbEntity
  8
S_1_1
  6
CONTINUOUS
 62
     3
100
AcDbLine
 10
275.9998724999901
 20
457.3618205878387
 30
0.0
 11
277.4998844999901
 21
455.8618075878384
 31
0.0
  0
LINE
  5
42D
330
1F
100
AcDbEntity
  8
S_1_1
  6
CONTINUOUS
 62
     3
100
AcDbLine
 10
292.4999504999897
 20
455.8618065878386
 30
0.0
 11
293.9998334999897
 21
457.3616895878385
 31
0.0
  0
LINE
  5
42E
330
1F
100
AcDbEntity
  8
S_1_1
  6
CONTINUOUS
 62
     3
100
AcDbLine
 10
276.0000154999904
 20
457.3617995878385
 30
0.0
 11
293.9999844999899
 21
457.3617995878385
 31
0.0
  0
LINE
  5
42F
330
1F
100
AcDbEntity
  8
S_1_1
  6
CONTINUOUS
 62
     3
100
AcDbLine
 10
275.9999864999901
 20
452.8619545878386
 30
0.0
 11
277.49986949999
 21
454.3618375878386
 31
0.0
  0
LINE
  5
430
330
1F
100
AcDbEntity
  8
S_1_1
  6
CONTINUOUS
 62
     3
100
AcDbLine
 10
292.4998364999898
 20
454.3617955878385
 30
0.0
 11
293.9998494999896
 21
452.8617835878385
 31
0.0
  0
LINE
  5
431
330
1F
100
AcDbEntity
  8
S_1_1
  6
CONTINUOUS
 62
     3
100
AcDbLine
 10
273.2499544999902
 20
443.3617995878384
 30
0.0
 11
296.7499844999899
 21
443.3617995878384
 31
0.0
  0
LINE
  5
432
330
1F
100
AcDbEntity
  8
S_1_1
  6
CONTINUOUS
 62
     3
100
AcDbLine
 10
276.0000154999904
 20
452.8619215878384
 30
0.0
 11
293.9999844999899
 21
452.8619215878384
 31
0.0
  0
LINE
  5
433
330
1F
100
AcDbEntity
  8
S_1_1
  6
CONTINUOUS
 62
     3
100
AcDbLine
 10
277.4999844999903
 20
455.8617995878384
 30
0.0
 11
277.4999844999903
 21
454.3616775878385
 31
0.0
  0
LINE
  5
434
330
1F
100
AcDbEntity
  8
S_1_1
  6
CONTINUOUS
 62
     3
100
AcDbLine
 10
292.4999844999899
 20
455.8617995878384
 30
0.0
 11
292.4999844999899
 21
454.3616775878385
 31
0.0
  0
LINE
  5
435
330
1F
100
AcDbEntity
  8
S_1_1
  6
CONTINUOUS
 62
     3
100
AcDbLine
 10
296.2498804999897
 20
443.8618885878386
 30
0.0
 11
296.7498274999899
 21
443.3619425878387
 31
0.0
  0
LINE
  5
436
330
1F
100
AcDbEntity
  8
S_1_1
  6
CONTINUOUS
 62
     3
100
AcDbLine
 10
273.2499094999904
 20
443.3618905878383
 30
0.0
 11
273.7498074999904
 21
443.8617995878384
 31
0.0
  0
LINE
  5
437
330
1F
100
AcDbEntity
  8
S_1_1
  6
CONTINUOUS
 62
     3
100
AcDbLine
 10
275.9999434999901
 20
459.3619085878385
 30
0.0
 11
279.4999574999903
 21
462.8619225878387
 31
0.0
  0
LINE
  5
438
330
1F
100
AcDbEntity
  8
S_1_1
  6
CONTINUOUS
 62
     3
100
AcDbLine
 10
290.49983449999
 20
462.8617085878386
 30
0.0
 11
293.9998054999897
 21
459.3617365878385
 31
0.0
  0
LINE
  5
439
330
1F
100
AcDbEntity
  8
S_1_1
  6
CONTINUOUS
 62
     3
100
AcDbLine
 10
290.4999844999899
 20
471.8616775878385
 30
0.0
 11
290.4999844999899
 21
462.8619215878384
 31
0.0
  0
LINE
  5
43A
330
1F
100
AcDbEntity
  8
S_1_1
  6
EXLTYPE2
 62
     1
100
AcDbLine
 10
285.000000000003
 20
480.79955958784
 30
0.0
 11
285.000000000003
 21
199.784005489864
 31
0.0
  0
LINE
  5
43B
330
1F
100
AcDbEntity
  8
S_1_1
  6
CONTINUOUS
 62
     3
100
AcDbLine
 10
215.1382525339222
 20
412.5040961168125
 30
0.0
 11
218.1382525339222
 21
407.3079436941057
 31
0.0
  0
LINE
  5
43C
330
1F
100
AcDbEntity
  8
S_1_1
  6
CONTINUOUS
 62
     3
100
AcDbLine
 10
214.8637334810822
 20
411.4795770639741
 30
0.0
 11
217.4887334810822
 21
406.9329436941058
 31
0.0
  0
LINE
  5
43D
330
1F
100
AcDbEntity
  8
S_1_1
  6
CONTINUOUS
 62
     3
100
AcDbLine
 10
215.1382525339205
 20
412.5040961168125
 30
0.0
 11
214.8637334810822
 21
411.4795770639741
 31
0.0
  0
LINE
  5
43E
330
1F
100
AcDbEntity
  8
S_1_1
  6
CONTINUOUS
 62
     3
100
AcDbLine
 10
222.4994684660922
 20
416.7540961168124
 30
0.0
 11
225.4994684660922
 21
411.5579436941057
 31
0.0
  0
LINE
  5
43F
330
1F
100
AcDbEntity
  8
S_1_1
  6
CONTINUOUS
 62
     3
100
AcDbLine
 10
223.5239875189266
 20
416.479577063974
 30
0.0
 11
226.1489875189266
 21
411.9329436941058
 31
0.0
  0
LINE
  5
440
330
1F
100
AcDbEntity
  8
S_1_1
  6
CONTINUOUS
 62
     3
100
AcDbLine
 10
222.4994684660882
 20
416.7540961168124
 30
0.0
 11
223.5239875189266
 21
416.479577063974
 31
0.0
  0
LINE
  5
441
330
1F
100
AcDbEntity
  8
S_1_1
  6
CONTINUOUS
 62
     3
100
AcDbLine
 10
222.4994684660882
 20
416.7540961168124
 30
0.0
 11
215.1382525339205
 21
412.5040961168125
 31
0.0
  0
LINE
  5
442
330
1F
100
AcDbEntity
  8
S_1_1
  6
CONTINUOUS
 62
     3
100
AcDbLine
 10
214.86373348108
 20
411.4795770639701
 30
0.0
 11
223.52398751893
 21
416.4795770639701
 31
0.0
  0
LINE
  5
443
330
1F
100
AcDbEntity
  8
S_1_1
  6
CONTINUOUS
 62
     3
100
AcDbLine
 10
229.1800764321622
 20
413.6829436941056
 30
0.0
 11
214.4576445678267
 21
405.1829436941057
 31
0.0
  0
DIMENSION
  5
444
330
1F
100
AcDbEntity
  8
S_1_1
  6
CONTINUOUS
 62
     2
100
AcDbDimension
  2
*D27
 10
248.5338826899469
 20
506.8096281325636
 30
0.0
 11
228.8686195933928
 21
509.4851635764415
 31
0.0
 70
   165
  3
ISO-25
100
AcDb3PointAngularDimension
 13
285.000000000003
 23
480.79955958784
 33
0.0
 14
217.3850194991954
 24
417.1125815801737
 34
0.0
 15
285.000000000003
 25
299.9999999999961
 35
0.0
1001
ACAD
1000
DSTYLE
1002
{
1070
   270
1070
     2
1070
     6
1000
EX_NORM
1070
     7
1000
EX_NORM
1070
    41
1040
7.5
1070
    42
1040
3.75
1070
    44
1040
2.5
1070
    73
1070
     0
1070
    74
1070
     0
1070
    75
1070
     0
1070
    76
1070
     0
1070
    77
1070
     1
1070
    78
1070
     8
1070
    79
1070
     2
1070
   140
1040
8.6572603926097
1070
   147
1040
0.0
1070
   173
1070
     1
1070
   176
1070
     2
1070
   177
1070
     2
1070
   178
1070
     2
1070
   179
1070
     2
1070
   271
1070
     2
1070
   277
1070
     2
1070
   279
1070
     2
1070
   280
1070
     0
1070
   287
1070
     5
1070
   340
1005
12C
1002
}
  0
ENDSEC
  0
SECTION
  2
OBJECTS
  0
DICTIONARY
  5
C
330
0
100
AcDbDictionary
  3
ACAD_GROUP
350
D
  3
ACAD_LAYOUT
350
1A
  3
ACAD_MATERIAL
350
43
  3
ACAD_MLEADERSTYLE
350
6B
  3
ACAD_MLINESTYLE
350
17
  3
ACAD_PLOTSETTINGS
350
19
  3
ACAD_SCALELIST
350
47
  3
ACAD_VISUALSTYLE
350
2A
  3
ACDBHEADERROUNDTRIPXREC
350
452
  3
ACDBVARIABLEDICTIONARY
350
473
  0
DICTIONARY
  5
47E
330
8
100
AcDbDictionary
280
     1
  3
ACAD_XREC_ROUNDTRIP
360
47F
  0
DICTIONARY
  5
D
102
{ACAD_REACTORS
330
C
102
}
330
C
100
AcDbDictionary
  0
DICTIONARY
  5
1A
102
{ACAD_REACTORS
330
C
102
}
330
C
100
AcDbDictionary
  0
DICTIONARY
  5
43
102
{ACAD_REACTORS
330
C
102
}
330
C
100
AcDbDictionary
  3
BYBLOCK
350
45
  3
BYLAYER
350
44
  3
GLOBAL
350
46
  0
DICTIONARY
  5
6B
102
{ACAD_REACTORS
330
C
102
}
330
C
100
AcDbDictionary
  3
STANDARD
350
6C
  0
DICTIONARY
  5
17
102
{ACAD_REACTORS
330
C
102
}
330
C
100
AcDbDictionary
  3
STANDARD
350
18
  0
DICTIONARY
  5
19
102
{ACAD_REACTORS
330
C
102
}
330
C
100
AcDbDictionary
  0
DICTIONARY
  5
47
102
{ACAD_REACTORS
330
C
102
}
330
C
100
AcDbDictionary
  3
A0
350
48
  3
A1
350
49
  3
A2
350
4A
  3
A3
350
4B
  3
A4
350
4C
  3
A5
350
4D
  3
A6
350
4E
  3
A7
350
4F
  3
A8
350
50
  3
A9
350
51
  3
B0
350
52
  3
B1
350
53
  3
B2
350
54
  3
B3
350
55
  3
B4
350
56
  3
B5
350
57
  3
B6
350
58
  3
B7
350
59
  3
B8
350
5A
  3
B9
350
5B
  3
C0
350
5C
  3
C1
350
5D
  3
C2
350
5E
  3
C3
350
5F
  3
C4
350
60
  3
C5
350
61
  3
C6
350
62
  3
C7
350
63
  3
C8
350
64
  3
C9
350
65
  3
D0
350
66
  3
D1
350
67
  3
D2
350
68
  0
DICTIONARY
  5
2A
102
{ACAD_REACTORS
330
C
102
}
330
C
100
AcDbDictionary
  3
2DWIREFRAME
350
2F
  3
BASIC
350
32
  3
BRIGHTEN
350
36
  3
COLORCHANGE
350
3A
  3
CONCEPTUAL
350
34
  3
DIM
350
35
  3
EDGECOLOROFF
350
3D
  3
FACEPATTERN
350
39
  3
FLAT
350
2B
  3
FLATWITHEDGES
350
2C
  3
GOURAUD
350
2D
  3
GOURAUDWITHEDGES
350
2E
  3
HIDDEN
350
31
  3
JITTEROFF
350
3B
  3
LINEPATTERN
350
38
  3
OVERHANGOFF
350
3C
  3
REALISTIC
350
33
  3
SHADED
350
42
  3
SHADED_WITH_EDGES
350
41
  3
SHADES_OF_GRAY
350
3E
  3
SKETCHY
350
3F
  3
THICKEN
350
37
  3
WIREFRAME
350
30
  3
X-RAY
350
40
  0
DICTIONARY
  5
452
102
{ACAD_REACTORS
330
C
102
}
330
C
100
AcDbDictionary
  3
CEPSNID
350
45C
  3
CEPSNTYPE
350
45B
  3
DIMSTYLEDATA
350
472
  3
FINGERPRINTGUID
350
45D
  3
HYPERLINKBASE
350
455
  3
INSUNITS
350
45A
  3
LAYOUTDICT
350
457
  3
LWETCUNION
350
459
  3
PLOTSETDICT
350
458
  3
PSVPSCALE
350
45F
  3
PUCSBASE
350
462
  3
PUCSORGBACK
350
468
  3
PUCSORGBOTTOM
350
464
  3
PUCSORGFRONT
350
467
  3
PUCSORGLEFT
350
465
  3
PUCSORGRIGHT
350
466
  3
PUCSORGTOP
350
463
  3
PUCSORTHOREF
350
460
  3
PUCSORTHOVIEW
350
461
  3
STYLESHEET
350
456
  3
TSTACKALIGN
350
453
  3
TSTACKSIZE
350
454
  3
UCSBASE
350
46B
  3
UCSORGBACK
350
471
  3
UCSORGBOTTOM
350
46D
  3
UCSORGFRONT
350
470
  3
UCSORGLEFT
350
46E
  3
UCSORGRIGHT
350
46F
  3
UCSORGTOP
350
46C
  3
UCSORTHOREF
350
469
  3
UCSORTHOVIEW
350
46A
  3
VERSIONGUID
350
45E
  0
DICTIONARY
  5
473
102
{ACAD_REACTORS
330
C
102
}
330
C
100
AcDbDictionary
  3
CANNOSCALE
350
480
  3
CENTEREXE
350
47A
  3
CENTERLTYPEFILE
350
47B
  3
CMLEADERSTYLE
350
475
  3
CTABLESTYLE
350
474
  3
DIMASSOC
350
47C
  3
HIDETEXT
350
47D
  3
MSLTSCALE
350
481
  3
PSOLHEIGHT
350
477
  3
PSOLWIDTH
350
476
  0
XRECORD
  5
47F
102
{ACAD_REACTORS
330
47E
102
}
330
47E
100
AcDbXrecord
102
VTR_0.000_0.000_1.000_1.000_VISUALSTYLE
340
2F
102
VTR_0.000_0.000_1.000_1.000_GRIDDISPLAY
 70
     3
102
VTR_0.000_0.000_1.000_1.000_GRIDMAJOR
 70
     5
102
VTR_0.000_0.000_1.000_1.000_DEFAULTLIGHTING
280
     1
102
VTR_0.000_0.000_1.000_1.000_DEFAULTLIGHTINGTYPE
 70
     1
102
VTR_0.000_0.000_1.000_1.000_BRIGHTNESS
141
0.0
102
VTR_0.000_0.000_1.000_1.000_CONTRAST
142
0.0
  0
MATERIAL
  5
45
102
{ACAD_REACTORS
330
43
102
}
102
{ACAD_XDICTIONARY
360
484
102
}
330
43
100
AcDbMaterial
  1
BYBLOCK
  0
MATERIAL
  5
44
102
{ACAD_REACTORS
330
43
102
}
102
{ACAD_XDICTIONARY
360
482
102
}
330
43
100
AcDbMaterial
  1
BYLAYER
  0
MATERIAL
  5
46
102
{ACAD_REACTORS
330
43
102
}
102
{ACAD_XDICTIONARY
360
486
102
}
330
43
100
AcDbMaterial
  1
GLOBAL
  0
ACAD_PROXY_OBJECT
  5
6C
102
{ACAD_REACTORS
330
6B
102
}
330
6B
100
AcDbProxyObject
 90
      499
 91
      505
 93
      610
310
40901902A4063FBFFFFFE0000000000000020400000000000020404214DD185B99185C990000000000000104090141901A00000000000004100000000000000041025764000000000000039000
340
14
340
0
340
11
340
0
 94
        0
1001
ACAD_MLEADERVER
1070
     2
  0
MLINESTYLE
  5
18
102
{ACAD_REACTORS
330
17
102
}
330
17
100
AcDbMlineStyle
  2
Standard
 70
     0
  3

 62
   256
 51
90.0
 52
90.0
 71
     2
 49
0.5
 62
   256
  6
BYLAYER
 49
-0.5
 62
   256
  6
BYLAYER
  0
ACAD_PROXY_OBJECT
  5
48
102
{ACAD_REACTORS
330
47
102
}
330
47
100
AcDbProxyObject
 90
      499
 91
      503
 93
       41
310
903313A31580
  0
ACAD_PROXY_OBJECT
  5
49
102
{ACAD_REACTORS
330
47
102
}
330
47
100
AcDbProxyObject
 90
      499
 91
      503
 93
      105
310
903313A324000000000000004000
  0
ACAD_PROXY_OBJECT
  5
4A
102
{ACAD_REACTORS
330
47
102
}
330
47
100
AcDbProxyObject
 90
      499
 91
      503
 93
      105
310
903313A344000000000000104000
  0
ACAD_PROXY_OBJECT
  5
4B
102
{ACAD_REACTORS
330
47
102
}
330
47
100
AcDbProxyObject
 90
      499
 91
      503
 93
      105
310
903313A354000000000000144000
  0
ACAD_PROXY_OBJECT
  5
4C
102
{ACAD_REACTORS
330
47
102
}
330
47
100
AcDbProxyObject
 90
      499
 91
      503
 93
      105
310
903313A384000000000000204000
  0
ACAD_PROXY_OBJECT
  5
4D
102
{ACAD_REACTORS
330
47
102
}
330
47
100
AcDbProxyObject
 90
      499
 91
      503
 93
      113
310
904313A31304000000000000244000
  0
ACAD_PROXY_OBJECT
  5
4E
102
{ACAD_REACTORS
330
47
102
}
330
47
100
AcDbProxyObject
 90
      499
 91
      503
 93
      113
310
904313A31364000000000000304000
  0
ACAD_PROXY_OBJECT
  5
4F
102
{ACAD_REACTORS
330
47
102
}
330
47
100
AcDbProxyObject
 90
      499
 91
      503
 93
      113
310
904313A32304000000000000344000
  0
ACAD_PROXY_OBJECT
  5
50
102
{ACAD_REACTORS
330
47
102
}
330
47
100
AcDbProxyObject
 90
      499
 91
      503
 93
      113
310
904313A333040000000000003E4000
  0
ACAD_PROXY_OBJECT
  5
51
102
{ACAD_REACTORS
330
47
102
}
330
47
100
AcDbProxyObject
 90
      499
 91
      503
 93
      113
310
904313A34304000000000000444000
  0
ACAD_PROXY_OBJECT
  5
52
102
{ACAD_REACTORS
330
47
102
}
330
47
100
AcDbProxyObject
 90
      499
 91
      503
 93
      113
310
904313A35304000000000000494000
  0
ACAD_PROXY_OBJECT
  5
53
102
{ACAD_REACTORS
330
47
102
}
330
47
100
AcDbProxyObject
 90
      499
 91
      503
 93
      121
310
905313A3130304000000000000594000
  0
ACAD_PROXY_OBJECT
  5
54
102
{ACAD_REACTORS
330
47
102
}
330
47
100
AcDbProxyObject
 90
      499
 91
      503
 93
      105
310
903323A310000000000000010100
  0
ACAD_PROXY_OBJECT
  5
55
102
{ACAD_REACTORS
330
47
102
}
330
47
100
AcDbProxyObject
 90
      499
 91
      503
 93
      105
310
903343A310000000000000410100
  0
ACAD_PROXY_OBJECT
  5
56
102
{ACAD_REACTORS
330
47
102
}
330
47
100
AcDbProxyObject
 90
      499
 91
      503
 93
      105
310
903383A310000000000000810100
  0
ACAD_PROXY_OBJECT
  5
57
102
{ACAD_REACTORS
330
47
102
}
330
47
100
AcDbProxyObject
 90
      499
 91
      503
 93
      113
310
90431303A310000000000000910100
  0
ACAD_PROXY_OBJECT
  5
58
102
{ACAD_REACTORS
330
47
102
}
330
47
100
AcDbProxyObject
 90
      499
 91
      503
 93
      121
310
9053130303A310000000000001650100
  0
ACAD_PROXY_OBJECT
  5
59
102
{ACAD_REACTORS
330
47
102
}
330
47
100
AcDbProxyObject
 90
      499
 91
      503
 93
      257
310
90E312F31323822203D2031272D3022000000000000200FC000000000000284000
  0
ACAD_PROXY_OBJECT
  5
5A
102
{ACAD_REACTORS
330
47
102
}
330
47
100
AcDbProxyObject
 90
      499
 91
      503
 93
      249
310
90D312F363422203D2031272D3022000000000000240FC000000000000284000
  0
ACAD_PROXY_OBJECT
  5
5B
102
{ACAD_REACTORS
330
47
102
}
330
47
100
AcDbProxyObject
 90
      499
 91
      503
 93
      249
310
90D312F333222203D2031272D3022000000000000280FC000000000000284000
  0
ACAD_PROXY_OBJECT
  5
5C
102
{ACAD_REACTORS
330
47
102
}
330
47
100
AcDbProxyObject
 90
      499
 91
      503
 93
      249
310
90D312F313622203D2031272D30220000000000002C0FC000000000000284000
  0
ACAD_PROXY_OBJECT
  5
5D
102
{ACAD_REACTORS
330
47
102
}
330
47
100
AcDbProxyObject
 90
      499
 91
      503
 93
      249
310
90D332F333222203D2031272D30220000000000002E0FC000000000000284000
  0
ACAD_PROXY_OBJECT
  5
5E
102
{ACAD_REACTORS
330
47
102
}
330
47
100
AcDbProxyObject
 90
      499
 91
      503
 93
      241
310
90C312F3822203D2031272D3022000000000000300FC000000000000284000
  0
ACAD_PROXY_OBJECT
  5
5F
102
{ACAD_REACTORS
330
47
102
}
330
47
100
AcDbProxyObject
 90
      499
 91
      503
 93
      249
310
90D332F313622203D2031272D3022000000000000320FC000000000000284000
  0
ACAD_PROXY_OBJECT
  5
60
102
{ACAD_REACTORS
330
47
102
}
330
47
100
AcDbProxyObject
 90
      499
 91
      503
 93
      241
310
90C312F3422203D2031272D3022000000000000340FC000000000000284000
  0
ACAD_PROXY_OBJECT
  5
61
102
{ACAD_REACTORS
330
47
102
}
330
47
100
AcDbProxyObject
 90
      499
 91
      503
 93
      241
310
90C332F3822203D2031272D3022000000000000360FC000000000000284000
  0
ACAD_PROXY_OBJECT
  5
62
102
{ACAD_REACTORS
330
47
102
}
330
47
100
AcDbProxyObject
 90
      499
 91
      503
 93
      241
310
90C312F3222203D2031272D3022000000000000380FC000000000000284000
  0
ACAD_PROXY_OBJECT
  5
63
102
{ACAD_REACTORS
330
47
102
}
330
47
100
AcDbProxyObject
 90
      499
 91
      503
 93
      241
310
90C332F3422203D2031272D30220000000000003A0FC000000000000284000
  0
ACAD_PROXY_OBJECT
  5
64
102
{ACAD_REACTORS
330
47
102
}
330
47
100
AcDbProxyObject
 90
      499
 91
      503
 93
      161
310
90A3122203D2031272D30224000000000000284000
  0
ACAD_PROXY_OBJECT
  5
65
102
{ACAD_REACTORS
330
47
102
}
330
47
100
AcDbProxyObject
 90
      499
 91
      503
 93
      257
310
90E312D312F3222203D2031272D30220000000000003E0FC000000000000284000
  0
ACAD_PROXY_OBJECT
  5
66
102
{ACAD_REACTORS
330
47
102
}
330
47
100
AcDbProxyObject
 90
      499
 91
      503
 93
      225
310
90A3322203D2031272D302200000000000002100000000000000284000
  0
ACAD_PROXY_OBJECT
  5
67
102
{ACAD_REACTORS
330
47
102
}
330
47
100
AcDbProxyObject
 90
      499
 91
      503
 93
      225
310
90A3622203D2031272D302200000000000006100000000000000284000
  0
ACAD_PROXY_OBJECT
  5
68
102
{ACAD_REACTORS
330
47
102
}
330
47
100
AcDbProxyObject
 90
      499
 91
      503
 93
      249
310
90D31272D3022203D2031272D30220000000000000A100000000000000284000
  0
ACAD_PROXY_OBJECT
  5
2F
102
{ACAD_REACTORS
330
2A
102
}
330
2A
100
AcDbProxyObject
 90
      499
 91
      501
 93
      436
310
42CC9915DA5C99599C985B595049028333333333333E33F0000000000000F90107901411070040501600405405064090741402480A0340
1001
ACAD
1000
AcDbSavedByObjectVersion
1070
     0
  0
ACAD_PROXY_OBJECT
  5
32
102
{ACAD_REACTORS
330
2A
102
}
330
2A
100
AcDbProxyObject
 90
      499
 91
      501
 93
      388
310
4150985CDA58D07406404333333333333E33F0000000000000F90107A41107004050150841D405064090741402480A0350
1001
ACAD
1000
AcDbSavedByObjectVersion
1070
     0
  0
ACAD_PROXY_OBJECT
  5
36
102
{ACAD_REACTORS
330
2A
102
}
330
2A
100
AcDbProxyObject
 90
      499
 91
      501
 93
      428
310
42109C9A59DA1D195B90C409028333333333333E33F0000000000000F9010790141107004050150841D405064090741402480A029950
1001
ACAD
1000
AcDbSavedByObjectVersion
1070
     0
  0
ACAD_PROXY_OBJECT
  5
3A
102
{ACAD_REACTORS
330
2A
102
}
330
2A
100
AcDbProxyObject
 90
      499
 91
      501
 93
      452
310
42D0DBDB1BDC90DA185B99D95104090240C333333333333E33F0000000000000F90108901411070040501508421405064090741402480A0350
1001
ACAD
1000
AcDbSavedByObjectVersion
1070
     0
  0
ACAD_PROXY_OBJECT
  5
34
102
{ACAD_REACTORS
330
2A
102
}
330
2A
100
AcDbProxyObject
 90
      499
 91
      501
 93
      500
310
4290DBDB98D95C1D1D585B10940D028333333333333E33F0000000000000F90107902409070040501000000000018199010841D405064090740C02480A0340
1001
ACAD
1000
AcDbSavedByObjectVersion
1070
     0
  0
ACAD_PROXY_OBJECT
  5
35
102
{ACAD_REACTORS
330
2A
102
}
330
2A
100
AcDbProxyObject
 90
      499
 91
      501
 93
      412
310
40D11A5B50B409028333333333333E33F0000000000000F9010790141107004050150841D405064090741402480A02677FFFFFD0
1001
ACAD
1000
AcDbSavedByObjectVersion
1070
     0
  0
ACAD_PROXY_OBJECT
  5
3D
102
{ACAD_REACTORS
330
2A
102
}
330
2A
100
AcDbProxyObject
 90
      499
 91
      501
 93
      452
310
43115919D950DBDB1BDC93D999916409028333333333333E33F0000000000000F9010790141107004050150841D405064090741402480A0350
1001
ACAD
1000
AcDbSavedByObjectVersion
1070
     0
  0
ACAD_PROXY_OBJECT
  5
39
102
{ACAD_REACTORS
330
2A
102
}
330
2A
100
AcDbProxyObject
 90
      499
 91
      501
 93
      444
310
42D19858D95C185D1D195C9B90F409028333333333333E33F0000000000000F9010790141107004050150841D405064090741402480A0350
1001
ACAD
1000
AcDbSavedByObjectVersion
1070
     0
  0
ACAD_PROXY_OBJECT
  5
2B
102
{ACAD_REACTORS
330
2A
102
}
330
2A
100
AcDbProxyObject
 90
      499
 91
      501
 93
      380
310
41119B185D240901404333333333333E33F0000000000000F9010740A907004050150841D405064090741402480A1B50
1001
ACAD
1000
AcDbSavedByObjectVersion
1070
     0
  0
ACAD_PROXY_OBJECT
  5
2C
102
{ACAD_REACTORS
330
2A
102
}
330
2A
100
AcDbProxyObject
 90
      499
 91
      501
 93
      468
310
43519B185D15DA5D1A115919D95CD0140901404333333333333E33F0000000000000F90107409019070040501600405405064090741402480A1B50
1001
ACAD
1000
AcDbSavedByObjectVersion
1070
     0
  0
ACAD_PROXY_OBJECT
  5
2D
102
{ACAD_REACTORS
330
2A
102
}
330
2A
100
AcDbProxyObject
 90
      499
 91
      501
 93
      404
310
41D1DBDD5C985D5910240902404333333333333E33F0000000000000F9010740A9070040501641D405064090741402480A1B50
1001
ACAD
1000
AcDbSavedByObjectVersion
1070
     0
  0
ACAD_PROXY_OBJECT
  5
2E
102
{ACAD_REACTORS
330
2A
102
}
330
2A
100
AcDbProxyObject
 90
      499
 91
      501
 93
      492
310
4411DBDD5C985D5915DA5D1A115919D95CD0340902404333333333333E33F0000000000000F90107409019070040501600405405064090741402480A1B50
1001
ACAD
1000
AcDbSavedByObjectVersion
1070
     0
  0
ACAD_PROXY_OBJECT
  5
31
102
{ACAD_REACTORS
330
2A
102
}
330
2A
100
AcDbProxyObject
 90
      499
 91
      501
 93
      476
310
41921A5919195B90640502408333333333333E33F0000000000000F901079024090700405020000000000001110200405405064090740C02480A0340
1001
ACAD
1000
AcDbSavedByObjectVersion
1070
     0
  0
ACAD_PROXY_OBJECT
  5
3B
102
{ACAD_REACTORS
330
2A
102
}
330
2A
100
AcDbProxyObject
 90
      499
 91
      501
 93
      428
310
42529A5D1D195C93D999914409028333333333333E33F0000000000000F9010790141107004050150A41D405064090741402480A0350
1001
ACAD
1000
AcDbSavedByObjectVersion
1070
     0
  0
ACAD_PROXY_OBJECT
  5
38
102
{ACAD_REACTORS
330
2A
102
}
330
2A
100
AcDbProxyObject
 90
      499
 91
      501
 93
      444
310
42D31A5B995C185D1D195C9B90E409028333333333333E33F0000000000000F9010790141107004050750841D405064090741402483A0350
1001
ACAD
1000
AcDbSavedByObjectVersion
1070
     0
  0
ACAD_PROXY_OBJECT
  5
3C
102
{ACAD_REACTORS
330
2A
102
}
330
2A
100
AcDbProxyObject
 90
      499
 91
      501
 93
      444
310
42D3DD995C9A185B99D3D999915409028333333333333E33F0000000000000F9010790141107004050150941D405064090741402480A0350
1001
ACAD
1000
AcDbSavedByObjectVersion
1070
     0
  0
ACAD_PROXY_OBJECT
  5
33
102
{ACAD_REACTORS
330
2A
102
}
330
2A
100
AcDbProxyObject
 90
      499
 91
      501
 93
      428
310
425499585B1A5CDD1A58D08409038333333333333E33F0000000000000F9010740A907004050150800405405064090740C02480A1B40
1001
ACAD
1000
AcDbSavedByObjectVersion
1070
     0
  0
ACAD_PROXY_OBJECT
  5
42
102
{ACAD_REACTORS
330
2A
102
}
330
2A
100
AcDbProxyObject
 90
      499
 91
      501
 93
      420
310
4194DA1859195911B40902404333333333333E33F0000000000000F9010740A41107004050150800405405064090840C02480A0B40
1001
ACAD
1000
AcDbSavedByObjectVersion
1070
     0
  0
ACAD_PROXY_OBJECT
  5
41
102
{ACAD_REACTORS
330
2A
102
}
330
2A
100
AcDbProxyObject
 90
      499
 91
      501
 93
      516
310
4454DA18591959081DDA5D1A08195919D95CD1A40902404333333333333E33F0000000000000F901074090142907004050250800405405064090740C02480A0B40
1001
ACAD
1000
AcDbSavedByObjectVersion
1070
     0
  0
ACAD_PROXY_OBJECT
  5
3E
102
{ACAD_REACTORS
330
2A
102
}
330
2A
100
AcDbProxyObject
 90
      499
 91
      501
 93
      532
310
4394DA1859195CC81BD98811DC985E5174090240C333333333333E33F0000000000000F901079024090741D01000000000000111010841D405064090740C02480A0340
1001
ACAD
1000
AcDbSavedByObjectVersion
1070
     0
  0
ACAD_PROXY_OBJECT
  5
3F
102
{ACAD_REACTORS
330
2A
102
}
330
2A
100
AcDbProxyObject
 90
      499
 91
      501
 93
      476
310
41D4DAD95D18DA1E51840502408333333333333E33F0000000000000F901079024090741D01000000000000111010B41D405064090741802480A0340
1001
ACAD
1000
AcDbSavedByObjectVersion
1070
     0
  0
ACAD_PROXY_OBJECT
  5
37
102
{ACAD_REACTORS
330
2A
102
}
330
2A
100
AcDbProxyObject
 90
      499
 91
      501
 93
      412
310
41D51A1A58DAD95B90D409028333333333333E33F0000000000000F9010790141107004050150C41D405064090741402480A0350
1001
ACAD
1000
AcDbSavedByObjectVersion
1070
     0
  0
ACAD_PROXY_OBJECT
  5
30
102
{ACAD_REACTORS
330
2A
102
}
330
2A
100
AcDbProxyObject
 90
      499
 91
      501
 93
      420
310
4255DA5C99599C985B595059028333333333333E33F0000000000000F90107901411070040501600405405064090740C02480A0340
1001
ACAD
1000
AcDbSavedByObjectVersion
1070
     0
  0
ACAD_PROXY_OBJECT
  5
40
102
{ACAD_REACTORS
330
2A
102
}
330
2A
100
AcDbProxyObject
 90
      499
 91
      501
 93
      404
310
41560B54985E51940902404000000000000E03F0000000000000F9010740501907004050150841D405064090740C02480A1B40
1001
ACAD
1000
AcDbSavedByObjectVersion
1070
     0
  0
XRECORD
  5
45C
102
{ACAD_REACTORS
330
452
102
}
330
452
100
AcDbXrecord
340
0
  0
XRECORD
  5
45B
102
{ACAD_REACTORS
330
452
102
}
330
452
100
AcDbXrecord
 90
        0
  0
XRECORD
  5
472
102
{ACAD_REACTORS
330
452
102
}
330
452
100
AcDbXrecord
1000
DSTYLE
1002
{
1070
   340
340
11
1002
}
  0
XRECORD
  5
45D
102
{ACAD_REACTORS
330
452
102
}
330
452
100
AcDbXrecord
  1
{56b9b640-4ca8-47c9-9427-5ea3919cdd9c}
  0
XRECORD
  5
455
102
{ACAD_REACTORS
330
452
102
}
330
452
100
AcDbXrecord
  1

  0
XRECORD
  5
45A
102
{ACAD_REACTORS
330
452
102
}
330
452
100
AcDbXrecord
 90
        4
  0
XRECORD
  5
457
102
{ACAD_REACTORS
330
452
102
}
330
452
100
AcDbXrecord
340
1A
  0
XRECORD
  5
459
102
{ACAD_REACTORS
330
452
102
}
330
452
100
AcDbXrecord
 90
    10781
  0
XRECORD
  5
458
102
{ACAD_REACTORS
330
452
102
}
330
452
100
AcDbXrecord
340
19
  0
XRECORD
  5
45F
102
{ACAD_REACTORS
330
452
102
}
330
452
100
AcDbXrecord
 40
0.0
  0
XRECORD
  5
462
102
{ACAD_REACTORS
330
452
102
}
330
452
100
AcDbXrecord
340
0
  0
XRECORD
  5
468
102
{ACAD_REACTORS
330
452
102
}
330
452
100
AcDbXrecord
 10
0.0
 20
0.0
 30
0.0
  0
XRECORD
  5
464
102
{ACAD_REACTORS
330
452
102
}
330
452
100
AcDbXrecord
 10
0.0
 20
0.0
 30
0.0
  0
XRECORD
  5
467
102
{ACAD_REACTORS
330
452
102
}
330
452
100
AcDbXrecord
 10
0.0
 20
0.0
 30
0.0
  0
XRECORD
  5
465
102
{ACAD_REACTORS
330
452
102
}
330
452
100
AcDbXrecord
 10
0.0
 20
0.0
 30
0.0
  0
XRECORD
  5
466
102
{ACAD_REACTORS
330
452
102
}
330
452
100
AcDbXrecord
 10
0.0
 20
0.0
 30
0.0
  0
XRECORD
  5
463
102
{ACAD_REACTORS
330
452
102
}
330
452
100
AcDbXrecord
 10
0.0
 20
0.0
 30
0.0
  0
XRECORD
  5
460
102
{ACAD_REACTORS
330
452
102
}
330
452
100
AcDbXrecord
340
0
  0
XRECORD
  5
461
102
{ACAD_REACTORS
330
452
102
}
330
452
100
AcDbXrecord
 70
     0
  0
XRECORD
  5
456
102
{ACAD_REACTORS
330
452
102
}
330
452
100
AcDbXrecord
  1

  0
XRECORD
  5
453
102
{ACAD_REACTORS
330
452
102
}
330
452
100
AcDbXrecord
 90
        1
  0
XRECORD
  5
454
102
{ACAD_REACTORS
330
452
102
}
330
452
100
AcDbXrecord
 90
       70
  0
XRECORD
  5
46B
102
{ACAD_REACTORS
330
452
102
}
330
452
100
AcDbXrecord
340
0
  0
XRECORD
  5
471
102
{ACAD_REACTORS
330
452
102
}
330
452
100
AcDbXrecord
 10
0.0
 20
0.0
 30
0.0
  0
XRECORD
  5
46D
102
{ACAD_REACTORS
330
452
102
}
330
452
100
AcDbXrecord
 10
0.0
 20
0.0
 30
0.0
  0
XRECORD
  5
470
102
{ACAD_REACTORS
330
452
102
}
330
452
100
AcDbXrecord
 10
0.0
 20
0.0
 30
0.0
  0
XRECORD
  5
46E
102
{ACAD_REACTORS
330
452
102
}
330
452
100
AcDbXrecord
 10
0.0
 20
0.0
 30
0.0
  0
XRECORD
  5
46F
102
{ACAD_REACTORS
330
452
102
}
330
452
100
AcDbXrecord
 10
0.0
 20
0.0
 30
0.0
  0
XRECORD
  5
46C
102
{ACAD_REACTORS
330
452
102
}
330
452
100
AcDbXrecord
 10
0.0
 20
0.0
 30
0.0
  0
XRECORD
  5
469
102
{ACAD_REACTORS
330
452
102
}
330
452
100
AcDbXrecord
340
0
  0
XRECORD
  5
46A
102
{ACAD_REACTORS
330
452
102
}
330
452
100
AcDbXrecord
 70
     0
  0
XRECORD
  5
45E
102
{ACAD_REACTORS
330
452
102
}
330
452
100
AcDbXrecord
  1
{FAEB1C32-E019-11D5-929B-00C0DF256EC4}
  0
DICTIONARYVAR
  5
480
102
{ACAD_REACTORS
330
473
102
}
330
473
100
DictionaryVariables
280
     0
  1
1:1
  0
DICTIONARYVAR
  5
47A
102
{ACAD_REACTORS
330
473
102
}
330
473
100
DictionaryVariables
280
     0
  1
3.500000
  0
DICTIONARYVAR
  5
47B
102
{ACAD_REACTORS
330
473
102
}
330
473
100
DictionaryVariables
280
     0
  1
acadiso.lin
  0
DICTIONARYVAR
  5
475
102
{ACAD_REACTORS
330
473
102
}
330
473
100
DictionaryVariables
280
     0
  1
Standard
  0
DICTIONARYVAR
  5
474
102
{ACAD_REACTORS
330
473
102
}
330
473
100
DictionaryVariables
280
     0
  1
Standard
  0
DICTIONARYVAR
  5
47C
102
{ACAD_REACTORS
330
473
102
}
330
473
100
DictionaryVariables
280
     0
  1
2
  0
DICTIONARYVAR
  5
47D
102
{ACAD_REACTORS
330
473
102
}
330
473
100
DictionaryVariables
280
     0
  1
1
  0
DICTIONARYVAR
  5
481
102
{ACAD_REACTORS
330
473
102
}
330
473
100
DictionaryVariables
280
     0
  1
1
  0
DICTIONARYVAR
  5
477
102
{ACAD_REACTORS
330
473
102
}
330
473
100
DictionaryVariables
280
     0
  1
80.000000
  0
DICTIONARYVAR
  5
476
102
{ACAD_REACTORS
330
473
102
}
330
473
100
DictionaryVariables
280
     0
  1
5.000000
  0
DICTIONARY
  5
484
330
45
100
AcDbDictionary
280
     1
  3
ACAD_XREC_ROUNDTRIP
360
485
  0
DICTIONARY
  5
482
330
44
100
AcDbDictionary
280
     1
  3
ACAD_XREC_ROUNDTRIP
360
483
  0
DICTIONARY
  5
486
330
46
100
AcDbDictionary
280
     1
  3
ACAD_XREC_ROUNDTRIP
360
487
  0
XRECORD
  5
485
102
{ACAD_REACTORS
330
484
102
}
330
484
100
AcDbXrecord
102
MATERIAL
148
0.0
149
0.0
149
0.0
 93
        0
 94
      127
282
     0
 72
     1
 77
     1
171
     1
175
     1
179
     1
273
     0
  0
XRECORD
  5
483
102
{ACAD_REACTORS
330
482
102
}
330
482
100
AcDbXrecord
102
MATERIAL
148
0.0
149
0.0
149
0.0
 93
        0
 94
      127
282
     0
 72
     1
 77
     1
171
     1
175
     1
179
     1
273
     0
  0
XRECORD
  5
487
102
{ACAD_REACTORS
330
486
102
}
330
486
100
AcDbXrecord
102
MATERIAL
148
0.0
149
0.0
149
0.0
 93
        0
 94
      127
282
     0
 72
     1
 77
     1
171
     1
175
     1
179
     1
273
     0
  0
ENDSEC
  0
EOF
