  0
SECTION
  2
HEADER
  9
$ACADVER
  1
AC1014
  9
$ACADMAINTVER
 70
     9
  9
$DWGCODEPAGE
  3
ANSI_932
  9
$INSBASE
 10
0.0
 20
0.0
 30
0.0
  9
$EXTMIN
 10
25.0
 20
25.0
 30
0.0
  9
$EXTMAX
 10
1025.0
 20
717.5
 30
0.0
  9
$LIMMIN
 10
0.0
 20
0.0
  9
$LIMMAX
 10
420.0
 20
297.0
  9
$ORTHOMODE
 70
     0
  9
$REGENMODE
 70
     1
  9
$FILLMODE
 70
     1
  9
$QTEXTMODE
 70
     0
  9
$MIRRTEXT
 70
     1
  9
$DRAGMODE
 70
     2
  9
$LTSCALE
 40
1.0
  9
$OSMODE
 70
    37
  9
$ATTMODE
 70
     1
  9
$TEXTSIZE
 40
2.5
  9
$TRACEWID
 40
1.0
  9
$TEXTSTYLE
  7
STANDARD
  9
$CLAYER
  8
S_1_1
  9
$CELTYPE
  6
BYLAYER
  9
$CECOLOR
 62
   256
  9
$CELTSCALE
 40
1.0
  9
$DELOBJ
 70
     1
  9
$DISPSILH
 70
     0
  9
$DIMSCALE
 40
1.0
  9
$DIMASZ
 40
2.5
  9
$DIMEXO
 40
0.625
  9
$DIMDLI
 40
3.75
  9
$DIMRND
 40
0.0
  9
$DIMDLE
 40
0.0
  9
$DIMEXE
 40
1.25
  9
$DIMTP
 40
0.0
  9
$DIMTM
 40
0.0
  9
$DIMTXT
 40
2.5
  9
$DIMCEN
 40
2.5
  9
$DIMTSZ
 40
0.0
  9
$DIMTOL
 70
     0
  9
$DIMLIM
 70
     0
  9
$DIMTIH
 70
     0
  9
$DIMTOH
 70
     0
  9
$DIMSE1
 70
     0
  9
$DIMSE2
 70
     0
  9
$DIMTAD
 70
     1
  9
$DIMZIN
 70
     8
  9
$DIMBLK
  1

  9
$DIMASO
 70
     1
  9
$DIMSHO
 70
     1
  9
$DIMPOST
  1

  9
$DIMAPOST
  1

  9
$DIMALT
 70
     0
  9
$DIMALTD
 70
     3
  9
$DIMALTF
 40
0.03937007874016
  9
$DIMLFAC
 40
1.0
  9
$DIMTOFL
 70
     1
  9
$DIMTVP
 40
0.0
  9
$DIMTIX
 70
     0
  9
$DIMSOXD
 70
     0
  9
$DIMSAH
 70
     0
  9
$DIMBLK1
  1

  9
$DIMBLK2
  1

  9
$DIMSTYLE
  2
ISO-25
  9
$DIMCLRD
 70
     0
  9
$DIMCLRE
 70
     0
  9
$DIMCLRT
 70
     0
  9
$DIMTFAC
 40
1.0
  9
$DIMGAP
 40
0.625
  9
$DIMJUST
 70
     0
  9
$DIMSD1
 70
     0
  9
$DIMSD2
 70
     0
  9
$DIMTOLJ
 70
     0
  9
$DIMTZIN
 70
     8
  9
$DIMALTZ
 70
     0
  9
$DIMALTTZ
 70
     0
  9
$DIMFIT
 70
     3
  9
$DIMUPT
 70
     0
  9
$DIMUNIT
 70
     2
  9
$DIMDEC
 70
     2
  9
$DIMTDEC
 70
     2
  9
$DIMALTU
 70
     2
  9
$DIMALTTD
 70
     3
  9
$DIMTXSTY
  7
STANDARD
  9
$DIMAUNIT
 70
     0
  9
$LUNITS
 70
     2
  9
$LUPREC
 70
     4
  9
$SKETCHINC
 40
1.0
  9
$FILLETRAD
 40
10.0
  9
$AUNITS
 70
     0
  9
$AUPREC
 70
     0
  9
$MENU
  1
.
  9
$ELEVATION
 40
0.0
  9
$PELEVATION
 40
0.0
  9
$THICKNESS
 40
0.0
  9
$LIMCHECK
 70
     0
  9
$CHAMFERA
 40
0.0
  9
$CHAMFERB
 40
0.0
  9
$CHAMFERC
 40
0.0
  9
$CHAMFERD
 40
0.0
  9
$SKPOLY
 70
     0
  9
$TDCREATE
 40
2459591.543217835
  9
$TDUPDATE
 40
2459591.543219213
  9
$TDINDWG
 40
0.0000000116
  9
$TDUSRTIMER
 40
0.0000000116
  9
$USRTIMER
 70
     1
  9
$ANGBASE
 50
0.0
  9
$ANGDIR
 70
     0
  9
$PDMODE
 70
     0
  9
$PDSIZE
 40
0.0
  9
$PLINEWID
 40
0.0
  9
$COORDS
 70
     1
  9
$SPLFRAME
 70
     0
  9
$SPLINETYPE
 70
     6
  9
$SPLINESEGS
 70
     8
  9
$ATTDIA
 70
     0
  9
$ATTREQ
 70
     1
  9
$HANDLING
 70
     1
  9
$HANDSEED
  5
4D0
  9
$SURFTAB1
 70
     6
  9
$SURFTAB2
 70
     6
  9
$SURFTYPE
 70
     6
  9
$SURFU
 70
     6
  9
$SURFV
 70
     6
  9
$UCSNAME
  2

  9
$UCSORG
 10
0.0
 20
0.0
 30
0.0
  9
$UCSXDIR
 10
1.0
 20
0.0
 30
0.0
  9
$UCSYDIR
 10
0.0
 20
1.0
 30
0.0
  9
$PUCSNAME
  2

  9
$PUCSORG
 10
0.0
 20
0.0
 30
0.0
  9
$PUCSXDIR
 10
1.0
 20
0.0
 30
0.0
  9
$PUCSYDIR
 10
0.0
 20
1.0
 30
0.0
  9
$USERI1
 70
     0
  9
$USERI2
 70
     0
  9
$USERI3
 70
     0
  9
$USERI4
 70
     0
  9
$USERI5
 70
     0
  9
$USERR1
 40
0.0
  9
$USERR2
 40
0.0
  9
$USERR3
 40
0.0
  9
$USERR4
 40
0.0
  9
$USERR5
 40
0.0
  9
$WORLDVIEW
 70
     1
  9
$SHADEDGE
 70
     3
  9
$SHADEDIF
 70
    70
  9
$TILEMODE
 70
     1
  9
$MAXACTVP
 70
    64
  9
$PINSBASE
 10
0.0
 20
0.0
 30
0.0
  9
$PLIMCHECK
 70
     0
  9
$PEXTMIN
 10
1.000000000000000E+20
 20
1.000000000000000E+20
 30
1.000000000000000E+20
  9
$PEXTMAX
 10
-1.000000000000000E+20
 20
-1.000000000000000E+20
 30
-1.000000000000000E+20
  9
$PLIMMIN
 10
0.0
 20
0.0
  9
$PLIMMAX
 10
420.0
 20
297.0
  9
$UNITMODE
 70
     0
  9
$VISRETAIN
 70
     1
  9
$PLINEGEN
 70
     0
  9
$PSLTSCALE
 70
     1
  9
$TREEDEPTH
 70
  3020
  9
$PICKSTYLE
 70
     1
  9
$CMLSTYLE
  2
STANDARD
  9
$CMLJUST
 70
     0
  9
$CMLSCALE
 40
20.0
  9
$PROXYGRAPHICS
 70
     1
  9
$MEASUREMENT
 70
     1
  0
ENDSEC
  0
SECTION
  2
CLASSES
  0
CLASS
  1
ACDBDICTIONARYWDFLT
  2
AcDbDictionaryWithDefault
  3
ObjectDBX Classes
 90
        0
280
     0
281
     0
  0
CLASS
  1
VISUALSTYLE
  2
AcDbVisualStyle
  3
ObjectDBX Classes
 90
     4095
280
     0
281
     0
  0
CLASS
  1
MATERIAL
  2
AcDbMaterial
  3
ObjectDBX Classes
 90
     1153
280
     0
281
     0
  0
CLASS
  1
SCALE
  2
AcDbScale
  3
ObjectDBX Classes
 90
     1153
280
     0
281
     0
  0
CLASS
  1
TABLESTYLE
  2
AcDbTableStyle
  3
ObjectDBX Classes
 90
     4095
280
     0
281
     0
  0
CLASS
  1
MLEADERSTYLE
  2
AcDbMLeaderStyle
  3
ACDB_MLEADERSTYLE_CLASS
 90
     4095
280
     0
281
     0
  0
CLASS
  1
SUN
  2
AcDbSun
  3
SCENEOE
 90
     1153
280
     0
281
     0
  0
CLASS
  1
DICTIONARYVAR
  2
AcDbDictionaryVar
  3
ObjectDBX Classes
 90
        0
280
     0
281
     0
  0
CLASS
  1
XRECORD
  2
AcDbXrecord
  3
ObjectDBX Classes
 90
        0
280
     0
281
     0
  0
CLASS
  1
LWPOLYLINE
  2
AcDbPolyline
  3
ObjectDBX Classes
 90
        0
280
     0
281
     1
  0
CLASS
  1
HATCH
  2
AcDbHatch
  3
ObjectDBX Classes
 90
        0
280
     0
281
     1
  0
CLASS
  1
ACDBPLACEHOLDER
  2
AcDbPlaceHolder
  3
ObjectDBX Classes
 90
        0
280
     0
281
     0
  0
CLASS
  1
LAYOUT
  2
AcDbLayout
  3
ObjectDBX Classes
 90
        0
280
     0
281
     0
  0
ENDSEC
  0
SECTION
  2
TABLES
  0
TABLE
  2
VPORT
  5
8
102
{ACAD_XDICTIONARY
360
4C5
102
}
330
0
100
AcDbSymbolTable
 70
     1
  0
VPORT
  5
29
330
8
100
AcDbSymbolTableRecord
100
AcDbViewportTableRecord
  2
*ACTIVE
 70
     0
 10
0.0
 20
0.0
 11
1.0
 21
1.0
 12
525.0
 22
371.25
 13
0.0
 23
0.0
 14
10.0
 24
10.0
 15
10.0
 25
10.0
 16
0.0
 26
0.0
 36
1.0
 17
0.0
 27
0.0
 37
0.0
 40
692.5
 41
1.444043321299639
 42
50.0
 43
0.0
 44
0.0
 50
0.0
 51
0.0
 71
     0
 72
  1000
 73
     1
 74
     3
 75
     0
 76
     0
 77
     0
 78
     0
  0
ENDTAB
  0
TABLE
  2
LTYPE
  5
5
330
0
100
AcDbSymbolTable
 70
    24
  0
LTYPE
  5
14
330
5
100
AcDbSymbolTableRecord
100
AcDbLinetypeTableRecord
  2
BYBLOCK
 70
     0
  3

 72
    65
 73
     0
 40
0.0
  0
LTYPE
  5
15
330
5
100
AcDbSymbolTableRecord
100
AcDbLinetypeTableRecord
  2
BYLAYER
 70
     0
  3

 72
    65
 73
     0
 40
0.0
  0
LTYPE
  5
16
330
5
100
AcDbSymbolTableRecord
100
AcDbLinetypeTableRecord
  2
CONTINUOUS
 70
     0
  3
Solid line
 72
    65
 73
     0
 40
0.0
  0
LTYPE
  5
6E
330
5
100
AcDbSymbolTableRecord
100
AcDbLinetypeTableRecord
  2
EXLTYPE0
 70
     0
  3
破線
 72
    65
 73
     2
 40
4.0
 49
3.0
 74
     0
 49
-1.0
 74
     0
  0
LTYPE
  5
6F
330
5
100
AcDbSymbolTableRecord
100
AcDbLinetypeTableRecord
  2
EXLTYPE1
 70
     0
  3
点線
 72
    65
 73
     2
 40
2.0
 49
1.0
 74
     0
 49
-1.0
 74
     0
  0
LTYPE
  5
70
330
5
100
AcDbSymbolTableRecord
100
AcDbLinetypeTableRecord
  2
EXLTYPE2
 70
     0
  3
一点鎖線
 72
    65
 73
     4
 40
13.0
 49
10.0
 74
     0
 49
-1.0
 74
     0
 49
1.0
 74
     0
 49
-1.0
 74
     0
  0
LTYPE
  5
71
330
5
100
AcDbSymbolTableRecord
100
AcDbLinetypeTableRecord
  2
EXLTYPE3
 70
     0
  3
二点鎖線
 72
    65
 73
     6
 40
15.0
 49
10.0
 74
     0
 49
-1.0
 74
     0
 49
1.0
 74
     0
 49
-1.0
 74
     0
 49
1.0
 74
     0
 49
-1.0
 74
     0
  0
LTYPE
  5
72
330
5
100
AcDbSymbolTableRecord
100
AcDbLinetypeTableRecord
  2
EXLTYPE4
 70
     0
  3
一点鎖線2
 72
    65
 73
     4
 40
3.5
 49
2.0
 74
     0
 49
-0.5
 74
     0
 49
0.5
 74
     0
 49
-0.5
 74
     0
  0
LTYPE
  5
73
330
5
100
AcDbSymbolTableRecord
100
AcDbLinetypeTableRecord
  2
EXLTYPE5
 70
     0
  3
二点鎖線2
 72
    65
 73
     6
 40
4.5
 49
2.0
 74
     0
 49
-0.5
 74
     0
 49
0.5
 74
     0
 49
-0.5
 74
     0
 49
0.5
 74
     0
 49
-0.5
 74
     0
  0
LTYPE
  5
74
330
5
100
AcDbSymbolTableRecord
100
AcDbLinetypeTableRecord
  2
EXLTYPE6
 70
     0
  3
一点鎖線8
 72
    65
 73
     4
 40
13.0
 49
10.0
 74
     0
 49
-1.0
 74
     0
 49
1.0
 74
     0
 49
-1.0
 74
     0
  0
LTYPE
  5
75
330
5
100
AcDbSymbolTableRecord
100
AcDbLinetypeTableRecord
  2
EXLTYPE7
 70
     0
  3
二点鎖線4
 72
    65
 73
     6
 40
15.0
 49
10.0
 74
     0
 49
-1.0
 74
     0
 49
1.0
 74
     0
 49
-1.0
 74
     0
 49
1.0
 74
     0
 49
-1.0
 74
     0
  0
LTYPE
  5
76
330
5
100
AcDbSymbolTableRecord
100
AcDbLinetypeTableRecord
  2
EXLTYPE8
 70
     0
  3
一点鎖線4
 72
    65
 73
     4
 40
33.0
 49
30.0
 74
     0
 49
-1.0
 74
     0
 49
1.0
 74
     0
 49
-1.0
 74
     0
  0
LTYPE
  5
77
330
5
100
AcDbSymbolTableRecord
100
AcDbLinetypeTableRecord
  2
EXLTYPE9
 70
     0
  3
一点鎖線7
 72
    65
 73
     4
 40
13.0
 49
10.0
 74
     0
 49
-1.0
 74
     0
 49
1.0
 74
     0
 49
-1.0
 74
     0
  0
LTYPE
  5
78
330
5
100
AcDbSymbolTableRecord
100
AcDbLinetypeTableRecord
  2
EXLTYPE10
 70
     0
  3
一点鎖線3
 72
    65
 73
     4
 40
33.0
 49
30.0
 74
     0
 49
-1.0
 74
     0
 49
1.0
 74
     0
 49
-1.0
 74
     0
  0
LTYPE
  5
79
330
5
100
AcDbSymbolTableRecord
100
AcDbLinetypeTableRecord
  2
EXLTYPE11
 70
     0
  3
破線8
 72
    65
 73
     2
 40
2.2
 49
1.2
 74
     0
 49
-1.0
 74
     0
  0
LTYPE
  5
7A
330
5
100
AcDbSymbolTableRecord
100
AcDbLinetypeTableRecord
  2
EXLTYPE12
 70
     0
  3
破線5
 72
    65
 73
     2
 40
4.0
 49
3.0
 74
     0
 49
-1.0
 74
     0
  0
LTYPE
  5
7B
330
5
100
AcDbSymbolTableRecord
100
AcDbLinetypeTableRecord
  2
EXLTYPE13
 70
     0
  3
破線7
 72
    65
 73
     2
 40
2.2
 49
1.2
 74
     0
 49
-1.0
 74
     0
  0
LTYPE
  5
7C
330
5
100
AcDbSymbolTableRecord
100
AcDbLinetypeTableRecord
  2
EXLTYPE14
 70
     0
  3
二点鎖線3
 72
    65
 73
     6
 40
35.0
 49
30.0
 74
     0
 49
-1.0
 74
     0
 49
1.0
 74
     0
 49
-1.0
 74
     0
 49
1.0
 74
     0
 49
-1.0
 74
     0
  0
LTYPE
  5
7D
330
5
100
AcDbSymbolTableRecord
100
AcDbLinetypeTableRecord
  2
EXLTYPE15
 70
     0
  3
一点鎖線9
 72
    65
 73
     4
 40
13.0
 49
10.0
 74
     0
 49
-1.0
 74
     0
 49
1.0
 74
     0
 49
-1.0
 74
     0
  0
LTYPE
  5
7E
330
5
100
AcDbSymbolTableRecord
100
AcDbLinetypeTableRecord
  2
EXLTYPE16
 70
     0
  3
一点鎖線5
 72
    65
 73
     4
 40
13.0
 49
10.0
 74
     0
 49
-1.0
 74
     0
 49
1.0
 74
     0
 49
-1.0
 74
     0
  0
LTYPE
  5
7F
330
5
100
AcDbSymbolTableRecord
100
AcDbLinetypeTableRecord
  2
EXLTYPE17
 70
     0
  3
破線10
 72
    65
 73
     2
 40
2.5
 49
1.5
 74
     0
 49
-1.0
 74
     0
  0
LTYPE
  5
80
330
5
100
AcDbSymbolTableRecord
100
AcDbLinetypeTableRecord
  2
EXLTYPE18
 70
     0
  3
破線12
 72
    65
 73
     2
 40
2.5
 49
1.5
 74
     0
 49
-1.0
 74
     0
  0
LTYPE
  5
81
330
5
100
AcDbSymbolTableRecord
100
AcDbLinetypeTableRecord
  2
EXLTYPE19
 70
     0
  3
一点鎖線12
 72
    65
 73
     4
 40
4.5
 49
1.5
 74
     0
 49
-1.0
 74
     0
 49
1.0
 74
     0
 49
-1.0
 74
     0
  0
LTYPE
  5
82
330
5
100
AcDbSymbolTableRecord
100
AcDbLinetypeTableRecord
  2
EXLTYPE20
 70
     0
  3
一点鎖線11
 72
    65
 73
     4
 40
13.0
 49
10.0
 74
     0
 49
-1.0
 74
     0
 49
1.0
 74
     0
 49
-1.0
 74
     0
  0
LTYPE
  5
83
330
5
100
AcDbSymbolTableRecord
100
AcDbLinetypeTableRecord
  2
EXLTYPE21
 70
     0
  3
一点鎖線6
 72
    65
 73
     4
 40
13.0
 49
10.0
 74
     0
 49
-1.0
 74
     0
 49
1.0
 74
     0
 49
-1.0
 74
     0
  0
LTYPE
  5
84
330
5
100
AcDbSymbolTableRecord
100
AcDbLinetypeTableRecord
  2
EXLTYPE22
 70
     0
  3
破線2
 72
    65
 73
     2
 40
2.0
 49
1.0
 74
     0
 49
-1.0
 74
     0
  0
ENDTAB
  0
TABLE
  2
LAYER
  5
2
330
0
100
AcDbSymbolTable
 70
     4
  0
LAYER
  5
10
330
2
100
AcDbSymbolTableRecord
100
AcDbLayerTableRecord
  2
0
 70
     0
 62
     7
  6
CONTINUOUS
  0
LAYER
  5
87
330
2
100
AcDbSymbolTableRecord
100
AcDbLayerTableRecord
  2
図面枠
 70
     4
 62
     7
  6
CONTINUOUS
  0
LAYER
  5
88
330
2
100
AcDbSymbolTableRecord
100
AcDbLayerTableRecord
  2
S_1_1
 70
     0
 62
     7
  6
CONTINUOUS
  0
LAYER
  5
12E
330
2
100
AcDbSymbolTableRecord
100
AcDbLayerTableRecord
  2
DEFPOINTS
 70
     0
 62
     7
  6
CONTINUOUS
  0
ENDTAB
  0
TABLE
  2
STYLE
  5
3
330
0
100
AcDbSymbolTable
 70
     5
  0
STYLE
  5
11
330
3
100
AcDbSymbolTableRecord
100
AcDbTextStyleTableRecord
  2
STANDARD
 70
     0
 40
0.0
 41
1.0
 50
0.0
 71
     0
 42
2.5
  3
monotxt
  4
extfont
  0
STYLE
  5
85
330
3
100
AcDbSymbolTableRecord
100
AcDbTextStyleTableRecord
  2
EXCADSTD
 70
     0
 40
0.0
 41
1.0
 50
0.0
 71
     0
 42
2.5
  3
monotxt
  4
extfont
  0
STYLE
  5
86
330
3
100
AcDbSymbolTableRecord
100
AcDbTextStyleTableRecord
  2
EXCADVERT
 70
     4
 40
0.0
 41
1.0
 50
0.0
 71
     0
 42
2.5
  3
monotxt
  4
extfont
  0
STYLE
  5
EA
330
3
100
AcDbSymbolTableRecord
100
AcDbTextStyleTableRecord
  2
EXCADTTF1
 70
     0
 40
0.0
 41
1.0
 50
0.0
 71
     0
 42
2.5
  3
msgothic.ttc
  4

1001
ACAD
1000
MS Gothic
1071
    32817
  0
STYLE
  5
12C
330
3
100
AcDbSymbolTableRecord
100
AcDbTextStyleTableRecord
  2
EXCADDIM1
 70
     0
 40
0.0
 41
1.0
 50
0.0
 71
     0
 42
2.5
  3
msgothic.ttc
  4

1001
ACAD
1000
MS Gothic
1071
    32817
  0
ENDTAB
  0
TABLE
  2
VIEW
  5
6
330
0
100
AcDbSymbolTable
 70
     0
  0
ENDTAB
  0
TABLE
  2
UCS
  5
7
330
0
100
AcDbSymbolTable
 70
     0
  0
ENDTAB
  0
TABLE
  2
APPID
  5
9
330
0
100
AcDbSymbolTable
 70
     2
  0
APPID
  5
12
330
9
100
AcDbSymbolTableRecord
100
AcDbRegAppTableRecord
  2
ACAD
 70
     0
  0
APPID
  5
4CF
330
9
100
AcDbSymbolTableRecord
100
AcDbRegAppTableRecord
  2
ACAD_MLEADERVER
 70
     0
  0
ENDTAB
  0
TABLE
  2
DIMSTYLE
  5
A
330
0
100
AcDbSymbolTable
 70
     1
  0
DIMSTYLE
105
27
102
{ACAD_REACTORS
330
12D
330
13B
330
148
330
153
330
160
330
16B
330
17A
330
189
330
196
330
1A3
330
1B0
330
1BC
330
39B
330
3A8
330
3B5
102
}
330
A
100
AcDbSymbolTableRecord
100
AcDbDimStyleTableRecord
  2
ISO-25
 70
     0
  3

  4

  5

  6

  7

 40
1.0
 41
2.5
 42
0.625
 43
3.75
 44
1.25
 45
0.0
 46
0.0
 47
0.0
 48
0.0
140
2.5
141
2.5
142
0.0
143
0.03937007874016
144
1.0
145
0.0
146
1.0
147
0.625
 71
     0
 72
     0
 73
     0
 74
     0
 75
     0
 76
     0
 77
     1
 78
     8
170
     0
171
     3
172
     1
173
     0
174
     0
175
     0
176
     0
177
     0
178
     0
270
     2
271
     2
272
     2
273
     2
274
     3
340
11
275
     0
280
     0
281
     0
282
     0
283
     0
284
     8
285
     0
286
     0
287
     5
288
     0
  0
ENDTAB
  0
TABLE
  2
BLOCK_RECORD
  5
1
330
0
100
AcDbSymbolTable
 70
    29
  0
BLOCK_RECORD
  5
1F
330
1
100
AcDbSymbolTableRecord
100
AcDbBlockTableRecord
  2
*MODEL_SPACE
  0
BLOCK_RECORD
  5
1B
330
1
100
AcDbSymbolTableRecord
100
AcDbBlockTableRecord
  2
*PAPER_SPACE
  0
BLOCK_RECORD
  5
89
330
1
100
AcDbSymbolTableRecord
100
AcDbBlockTableRecord
  2
EX_NORM
  0
BLOCK_RECORD
  5
8C
330
1
100
AcDbSymbolTableRecord
100
AcDbBlockTableRecord
  2
EX_BNORM
  0
BLOCK_RECORD
  5
8F
330
1
100
AcDbSymbolTableRecord
100
AcDbBlockTableRecord
  2
EX_BCIR
  0
BLOCK_RECORD
  5
92
330
1
100
AcDbSymbolTableRecord
100
AcDbBlockTableRecord
  2
EX_RCIVIL
  0
BLOCK_RECORD
  5
95
330
1
100
AcDbSymbolTableRecord
100
AcDbBlockTableRecord
  2
EX_SLANT
  0
BLOCK_RECORD
  5
98
330
1
100
AcDbSymbolTableRecord
100
AcDbBlockTableRecord
  2
EX_NONE
  0
BLOCK_RECORD
  5
9B
330
1
100
AcDbSymbolTableRecord
100
AcDbBlockTableRecord
  2
EX_CIVIL
  0
BLOCK_RECORD
  5
9E
330
1
100
AcDbSymbolTableRecord
100
AcDbBlockTableRecord
  2
EX_WCIR
  0
BLOCK_RECORD
  5
A1
330
1
100
AcDbSymbolTableRecord
100
AcDbBlockTableRecord
  2
EX_WCIR2
  0
BLOCK_RECORD
  5
A4
330
1
100
AcDbSymbolTableRecord
100
AcDbBlockTableRecord
  2
EX_WNORM
  0
BLOCK_RECORD
  5
A7
330
1
100
AcDbSymbolTableRecord
100
AcDbBlockTableRecord
  2
EX_NNORM
  0
BLOCK_RECORD
  5
AA
330
1
100
AcDbSymbolTableRecord
100
AcDbBlockTableRecord
  2
EX_BBOX
  0
BLOCK_RECORD
  5
AD
330
1
100
AcDbSymbolTableRecord
100
AcDbBlockTableRecord
  2
EX_WBOX
  0
BLOCK_RECORD
  5
B0
330
1
100
AcDbSymbolTableRecord
100
AcDbBlockTableRecord
  2
EX_INTEGRAL
  0
BLOCK_RECORD
  5
12F
330
1
100
AcDbSymbolTableRecord
100
AcDbBlockTableRecord
  2
*D15
  0
BLOCK_RECORD
  5
13C
330
1
100
AcDbSymbolTableRecord
100
AcDbBlockTableRecord
  2
*D16
  0
BLOCK_RECORD
  5
149
330
1
100
AcDbSymbolTableRecord
100
AcDbBlockTableRecord
  2
*D17
  0
BLOCK_RECORD
  5
154
330
1
100
AcDbSymbolTableRecord
100
AcDbBlockTableRecord
  2
*D18
  0
BLOCK_RECORD
  5
161
330
1
100
AcDbSymbolTableRecord
100
AcDbBlockTableRecord
  2
*D19
  0
BLOCK_RECORD
  5
16C
330
1
100
AcDbSymbolTableRecord
100
AcDbBlockTableRecord
  2
*D20
  0
BLOCK_RECORD
  5
17B
330
1
100
AcDbSymbolTableRecord
100
AcDbBlockTableRecord
  2
*D21
  0
BLOCK_RECORD
  5
18A
330
1
100
AcDbSymbolTableRecord
100
AcDbBlockTableRecord
  2
*D22
  0
BLOCK_RECORD
  5
197
330
1
100
AcDbSymbolTableRecord
100
AcDbBlockTableRecord
  2
*D23
  0
BLOCK_RECORD
  5
1A4
330
1
100
AcDbSymbolTableRecord
100
AcDbBlockTableRecord
  2
*D24
  0
BLOCK_RECORD
  5
1B1
330
1
100
AcDbSymbolTableRecord
100
AcDbBlockTableRecord
  2
*D25
  0
BLOCK_RECORD
  5
1BD
330
1
100
AcDbSymbolTableRecord
100
AcDbBlockTableRecord
  2
*D26
  0
BLOCK_RECORD
  5
39C
330
1
100
AcDbSymbolTableRecord
100
AcDbBlockTableRecord
  2
*D27
  0
BLOCK_RECORD
  5
3A9
330
1
100
AcDbSymbolTableRecord
100
AcDbBlockTableRecord
  2
*D28
  0
BLOCK_RECORD
  5
3B6
330
1
100
AcDbSymbolTableRecord
100
AcDbBlockTableRecord
  2
*D29
  0
ENDTAB
  0
ENDSEC
  0
SECTION
  2
BLOCKS
  0
BLOCK
  5
20
330
1F
100
AcDbEntity
  8
0
100
AcDbBlockBegin
  2
*MODEL_SPACE
 70
     0
 10
0.0
 20
0.0
 30
0.0
  3
*MODEL_SPACE
  1

  0
ENDBLK
  5
21
330
1F
100
AcDbEntity
  8
0
100
AcDbBlockEnd
  0
BLOCK
  5
1C
330
1B
100
AcDbEntity
 67
     1
  8
0
100
AcDbBlockBegin
  2
*PAPER_SPACE
 70
     0
 10
0.0
 20
0.0
 30
0.0
  3
*PAPER_SPACE
  1

  0
ENDBLK
  5
1D
330
1B
100
AcDbEntity
 67
     1
  8
0
100
AcDbBlockEnd
  0
BLOCK
  5
8A
330
89
100
AcDbEntity
  8
0
100
AcDbBlockBegin
  2
EX_NORM
 70
     0
 10
0.0
 20
0.0
 30
0.0
  3
EX_NORM
  1

  0
LINE
  5
B3
330
89
100
AcDbEntity
  8
0
  6
CONTINUOUS
 62
     0
100
AcDbLine
 10
0.0
 20
0.0
 30
0.0
 11
-1.0
 21
0.0
 31
0.0
  0
LINE
  5
B4
330
89
100
AcDbEntity
  8
0
  6
CONTINUOUS
 62
     0
100
AcDbLine
 10
0.0
 20
0.0
 30
0.0
 11
-1.0
 21
0.166666667
 31
0.0
  0
LINE
  5
B5
330
89
100
AcDbEntity
  8
0
  6
CONTINUOUS
 62
     0
100
AcDbLine
 10
0.0
 20
0.0
 30
0.0
 11
-1.0
 21
-0.166666667
 31
0.0
  0
ENDBLK
  5
8B
330
89
100
AcDbEntity
  8
0
100
AcDbBlockEnd
  0
BLOCK
  5
8D
330
8C
100
AcDbEntity
  8
0
100
AcDbBlockBegin
  2
EX_BNORM
 70
     0
 10
0.0
 20
0.0
 30
0.0
  3
EX_BNORM
  1

  0
LINE
  5
B6
330
8C
100
AcDbEntity
  8
0
  6
CONTINUOUS
 62
     0
100
AcDbLine
 10
0.0
 20
0.0
 30
0.0
 11
-1.0
 21
0.0
 31
0.0
  0
LINE
  5
B7
330
8C
100
AcDbEntity
  8
0
  6
CONTINUOUS
 62
     0
100
AcDbLine
 10
0.0
 20
0.0
 30
0.0
 11
-1.0
 21
0.166666667
 31
0.0
  0
LINE
  5
B8
330
8C
100
AcDbEntity
  8
0
  6
CONTINUOUS
 62
     0
100
AcDbLine
 10
0.0
 20
0.0
 30
0.0
 11
-1.0
 21
-0.166666667
 31
0.0
  0
LINE
  5
B9
330
8C
100
AcDbEntity
  8
0
  6
CONTINUOUS
 62
     0
100
AcDbLine
 10
0.0
 20
0.0
 30
0.0
 11
-1.0
 21
0.083333333
 31
0.0
  0
LINE
  5
BA
330
8C
100
AcDbEntity
  8
0
  6
CONTINUOUS
 62
     0
100
AcDbLine
 10
0.0
 20
0.0
 30
0.0
 11
-1.0
 21
-0.083333333
 31
0.0
  0
LINE
  5
BB
330
8C
100
AcDbEntity
  8
0
  6
CONTINUOUS
 62
     0
100
AcDbLine
 10
-1.0
 20
0.166666667
 30
0.0
 11
-1.0
 21
-0.166666667
 31
0.0
  0
ENDBLK
  5
8E
330
8C
100
AcDbEntity
  8
0
100
AcDbBlockEnd
  0
BLOCK
  5
90
330
8F
100
AcDbEntity
  8
0
100
AcDbBlockBegin
  2
EX_BCIR
 70
     0
 10
0.0
 20
0.0
 30
0.0
  3
EX_BCIR
  1

  0
LINE
  5
BC
330
8F
100
AcDbEntity
  8
0
  6
CONTINUOUS
 62
     0
100
AcDbLine
 10
0.0
 20
0.0
 30
0.0
 11
-1.0
 21
0.0
 31
0.0
  0
CIRCLE
  5
BD
330
8F
100
AcDbEntity
  8
0
  6
CONTINUOUS
 62
     0
100
AcDbCircle
 10
0.0
 20
0.0
 30
0.0
 40
0.5
  0
CIRCLE
  5
BE
330
8F
100
AcDbEntity
  8
0
  6
CONTINUOUS
 62
     0
100
AcDbCircle
 10
0.0
 20
0.0
 30
0.0
 40
0.25
  0
ENDBLK
  5
91
330
8F
100
AcDbEntity
  8
0
100
AcDbBlockEnd
  0
BLOCK
  5
93
330
92
100
AcDbEntity
  8
0
100
AcDbBlockBegin
  2
EX_RCIVIL
 70
     0
 10
0.0
 20
0.0
 30
0.0
  3
EX_RCIVIL
  1

  0
LINE
  5
BF
330
92
100
AcDbEntity
  8
0
  6
CONTINUOUS
 62
     0
100
AcDbLine
 10
0.0
 20
0.0
 30
0.0
 11
-1.0
 21
0.0
 31
0.0
  0
LINE
  5
C0
330
92
100
AcDbEntity
  8
0
  6
CONTINUOUS
 62
     0
100
AcDbLine
 10
-1.0
 20
-0.25
 30
0.0
 11
0.0
 21
-0.25
 31
0.0
  0
LINE
  5
C1
330
92
100
AcDbEntity
  8
0
  6
CONTINUOUS
 62
     0
100
AcDbLine
 10
-1.0
 20
-0.125
 30
0.0
 11
0.0
 21
-0.125
 31
0.0
  0
ENDBLK
  5
94
330
92
100
AcDbEntity
  8
0
100
AcDbBlockEnd
  0
BLOCK
  5
96
330
95
100
AcDbEntity
  8
0
100
AcDbBlockBegin
  2
EX_SLANT
 70
     0
 10
0.0
 20
0.0
 30
0.0
  3
EX_SLANT
  1

  0
LINE
  5
C2
330
95
100
AcDbEntity
  8
0
  6
CONTINUOUS
 62
     0
100
AcDbLine
 10
0.0
 20
0.0
 30
0.0
 11
-1.0
 21
0.0
 31
0.0
  0
LINE
  5
C3
330
95
100
AcDbEntity
  8
0
  6
CONTINUOUS
 62
     0
100
AcDbLine
 10
0.707106781
 20
0.707106781
 30
0.0
 11
-0.707106781
 21
-0.707106781
 31
0.0
  0
ENDBLK
  5
97
330
95
100
AcDbEntity
  8
0
100
AcDbBlockEnd
  0
BLOCK
  5
99
330
98
100
AcDbEntity
  8
0
100
AcDbBlockBegin
  2
EX_NONE
 70
     0
 10
0.0
 20
0.0
 30
0.0
  3
EX_NONE
  1

  0
LINE
  5
C4
330
98
100
AcDbEntity
  8
0
  6
CONTINUOUS
 62
     0
100
AcDbLine
 10
0.0
 20
0.0
 30
0.0
 11
-1.0
 21
0.0
 31
0.0
  0
ENDBLK
  5
9A
330
98
100
AcDbEntity
  8
0
100
AcDbBlockEnd
  0
BLOCK
  5
9C
330
9B
100
AcDbEntity
  8
0
100
AcDbBlockBegin
  2
EX_CIVIL
 70
     0
 10
0.0
 20
0.0
 30
0.0
  3
EX_CIVIL
  1

  0
LINE
  5
C5
330
9B
100
AcDbEntity
  8
0
  6
CONTINUOUS
 62
     0
100
AcDbLine
 10
0.0
 20
0.0
 30
0.0
 11
-1.0
 21
0.0
 31
0.0
  0
LINE
  5
C6
330
9B
100
AcDbEntity
  8
0
  6
CONTINUOUS
 62
     0
100
AcDbLine
 10
-1.0
 20
0.25
 30
0.0
 11
0.0
 21
0.25
 31
0.0
  0
LINE
  5
C7
330
9B
100
AcDbEntity
  8
0
  6
CONTINUOUS
 62
     0
100
AcDbLine
 10
-1.0
 20
0.125
 30
0.0
 11
0.0
 21
0.125
 31
0.0
  0
ENDBLK
  5
9D
330
9B
100
AcDbEntity
  8
0
100
AcDbBlockEnd
  0
BLOCK
  5
9F
330
9E
100
AcDbEntity
  8
0
100
AcDbBlockBegin
  2
EX_WCIR
 70
     0
 10
0.0
 20
0.0
 30
0.0
  3
EX_WCIR
  1

  0
LINE
  5
C8
330
9E
100
AcDbEntity
  8
0
  6
CONTINUOUS
 62
     0
100
AcDbLine
 10
0.0
 20
0.0
 30
0.0
 11
-1.0
 21
0.0
 31
0.0
  0
CIRCLE
  5
C9
330
9E
100
AcDbEntity
  8
0
  6
CONTINUOUS
 62
     0
100
AcDbCircle
 10
0.0
 20
0.0
 30
0.0
 40
0.5
  0
ENDBLK
  5
A0
330
9E
100
AcDbEntity
  8
0
100
AcDbBlockEnd
  0
BLOCK
  5
A2
330
A1
100
AcDbEntity
  8
0
100
AcDbBlockBegin
  2
EX_WCIR2
 70
     0
 10
0.0
 20
0.0
 30
0.0
  3
EX_WCIR2
  1

  0
LINE
  5
CA
330
A1
100
AcDbEntity
  8
0
  6
CONTINUOUS
 62
     0
100
AcDbLine
 10
-0.5
 20
0.0
 30
0.0
 11
-1.0
 21
0.0
 31
0.0
  0
CIRCLE
  5
CB
330
A1
100
AcDbEntity
  8
0
  6
CONTINUOUS
 62
     0
100
AcDbCircle
 10
0.0
 20
0.0
 30
0.0
 40
0.5
  0
ENDBLK
  5
A3
330
A1
100
AcDbEntity
  8
0
100
AcDbBlockEnd
  0
BLOCK
  5
A5
330
A4
100
AcDbEntity
  8
0
100
AcDbBlockBegin
  2
EX_WNORM
 70
     0
 10
0.0
 20
0.0
 30
0.0
  3
EX_WNORM
  1

  0
LINE
  5
CC
330
A4
100
AcDbEntity
  8
0
  6
CONTINUOUS
 62
     0
100
AcDbLine
 10
-1.0
 20
0.0
 30
0.0
 11
-1.0
 21
0.0
 31
0.0
  0
LINE
  5
CD
330
A4
100
AcDbEntity
  8
0
  6
CONTINUOUS
 62
     0
100
AcDbLine
 10
0.0
 20
0.0
 30
0.0
 11
-1.0
 21
0.166666667
 31
0.0
  0
LINE
  5
CE
330
A4
100
AcDbEntity
  8
0
  6
CONTINUOUS
 62
     0
100
AcDbLine
 10
0.0
 20
0.0
 30
0.0
 11
-1.0
 21
-0.166666667
 31
0.0
  0
LINE
  5
CF
330
A4
100
AcDbEntity
  8
0
  6
CONTINUOUS
 62
     0
100
AcDbLine
 10
-1.0
 20
0.166666667
 30
0.0
 11
-1.0
 21
-0.166666667
 31
0.0
  0
ENDBLK
  5
A6
330
A4
100
AcDbEntity
  8
0
100
AcDbBlockEnd
  0
BLOCK
  5
A8
330
A7
100
AcDbEntity
  8
0
100
AcDbBlockBegin
  2
EX_NNORM
 70
     0
 10
0.0
 20
0.0
 30
0.0
  3
EX_NNORM
  1

  0
LINE
  5
D0
330
A7
100
AcDbEntity
  8
0
  6
CONTINUOUS
 62
     0
100
AcDbLine
 10
0.0
 20
0.0
 30
0.0
 11
-1.0
 21
0.0
 31
0.0
  0
LINE
  5
D1
330
A7
100
AcDbEntity
  8
0
  6
CONTINUOUS
 62
     0
100
AcDbLine
 10
0.0
 20
0.0
 30
0.0
 11
-1.0
 21
0.166666667
 31
0.0
  0
LINE
  5
D2
330
A7
100
AcDbEntity
  8
0
  6
CONTINUOUS
 62
     0
100
AcDbLine
 10
0.0
 20
0.0
 30
0.0
 11
-1.0
 21
-0.166666667
 31
0.0
  0
LINE
  5
D3
330
A7
100
AcDbEntity
  8
0
  6
CONTINUOUS
 62
     0
100
AcDbLine
 10
-1.0
 20
0.166666667
 30
0.0
 11
-1.0
 21
-0.166666667
 31
0.0
  0
ENDBLK
  5
A9
330
A7
100
AcDbEntity
  8
0
100
AcDbBlockEnd
  0
BLOCK
  5
AB
330
AA
100
AcDbEntity
  8
0
100
AcDbBlockBegin
  2
EX_BBOX
 70
     0
 10
0.0
 20
0.0
 30
0.0
  3
EX_BBOX
  1

  0
LINE
  5
D4
330
AA
100
AcDbEntity
  8
0
  6
CONTINUOUS
 62
     0
100
AcDbLine
 10
0.0
 20
0.0
 30
0.0
 11
-1.0
 21
0.0
 31
0.0
  0
LINE
  5
D5
330
AA
100
AcDbEntity
  8
0
  6
CONTINUOUS
 62
     0
100
AcDbLine
 10
-0.5
 20
0.5
 30
0.0
 11
0.5
 21
0.5
 31
0.0
  0
LINE
  5
D6
330
AA
100
AcDbEntity
  8
0
  6
CONTINUOUS
 62
     0
100
AcDbLine
 10
0.5
 20
0.5
 30
0.0
 11
0.5
 21
-0.5
 31
0.0
  0
LINE
  5
D7
330
AA
100
AcDbEntity
  8
0
  6
CONTINUOUS
 62
     0
100
AcDbLine
 10
0.5
 20
-0.5
 30
0.0
 11
-0.5
 21
-0.5
 31
0.0
  0
LINE
  5
D8
330
AA
100
AcDbEntity
  8
0
  6
CONTINUOUS
 62
     0
100
AcDbLine
 10
-0.5
 20
-0.5
 30
0.0
 11
-0.5
 21
0.5
 31
0.0
  0
LINE
  5
D9
330
AA
100
AcDbEntity
  8
0
  6
CONTINUOUS
 62
     0
100
AcDbLine
 10
-0.25
 20
0.25
 30
0.0
 11
0.25
 21
0.25
 31
0.0
  0
LINE
  5
DA
330
AA
100
AcDbEntity
  8
0
  6
CONTINUOUS
 62
     0
100
AcDbLine
 10
0.25
 20
0.25
 30
0.0
 11
0.25
 21
-0.25
 31
0.0
  0
LINE
  5
DB
330
AA
100
AcDbEntity
  8
0
  6
CONTINUOUS
 62
     0
100
AcDbLine
 10
0.25
 20
-0.25
 30
0.0
 11
-0.25
 21
-0.25
 31
0.0
  0
LINE
  5
DC
330
AA
100
AcDbEntity
  8
0
  6
CONTINUOUS
 62
     0
100
AcDbLine
 10
-0.25
 20
-0.25
 30
0.0
 11
-0.25
 21
0.25
 31
0.0
  0
ENDBLK
  5
AC
330
AA
100
AcDbEntity
  8
0
100
AcDbBlockEnd
  0
BLOCK
  5
AE
330
AD
100
AcDbEntity
  8
0
100
AcDbBlockBegin
  2
EX_WBOX
 70
     0
 10
0.0
 20
0.0
 30
0.0
  3
EX_WBOX
  1

  0
LINE
  5
DD
330
AD
100
AcDbEntity
  8
0
  6
CONTINUOUS
 62
     0
100
AcDbLine
 10
-0.5
 20
0.0
 30
0.0
 11
-1.0
 21
0.0
 31
0.0
  0
LINE
  5
DE
330
AD
100
AcDbEntity
  8
0
  6
CONTINUOUS
 62
     0
100
AcDbLine
 10
-0.5
 20
0.5
 30
0.0
 11
0.5
 21
0.5
 31
0.0
  0
LINE
  5
DF
330
AD
100
AcDbEntity
  8
0
  6
CONTINUOUS
 62
     0
100
AcDbLine
 10
0.5
 20
0.5
 30
0.0
 11
0.5
 21
-0.5
 31
0.0
  0
LINE
  5
E0
330
AD
100
AcDbEntity
  8
0
  6
CONTINUOUS
 62
     0
100
AcDbLine
 10
0.5
 20
-0.5
 30
0.0
 11
-0.5
 21
-0.5
 31
0.0
  0
LINE
  5
E1
330
AD
100
AcDbEntity
  8
0
  6
CONTINUOUS
 62
     0
100
AcDbLine
 10
-0.5
 20
-0.5
 30
0.0
 11
-0.5
 21
0.5
 31
0.0
  0
ENDBLK
  5
AF
330
AD
100
AcDbEntity
  8
0
100
AcDbBlockEnd
  0
BLOCK
  5
B1
330
B0
100
AcDbEntity
  8
0
100
AcDbBlockBegin
  2
EX_INTEGRAL
 70
     0
 10
0.0
 20
0.0
 30
0.0
  3
EX_INTEGRAL
  1

  0
LINE
  5
E2
330
B0
100
AcDbEntity
  8
0
  6
CONTINUOUS
 62
     0
100
AcDbLine
 10
0.0
 20
0.0
 30
0.0
 11
-1.0
 21
0.0
 31
0.0
  0
ARC
  5
E3
330
B0
100
AcDbEntity
  8
0
  6
CONTINUOUS
 62
     0
100
AcDbCircle
 10
0.542115
 20
0.164992
 30
0.0
 40
0.56667
100
AcDbArc
 50
73.07249033629006
 51
196.9275130221199
  0
ARC
  5
E4
330
B0
100
AcDbEntity
  8
0
  6
CONTINUOUS
 62
     0
100
AcDbCircle
 10
-0.542115
 20
-0.164992
 30
0.0
 40
0.56667
100
AcDbArc
 50
253.0724869220464
 51
16.9275130559125
  0
ENDBLK
  5
B2
330
B0
100
AcDbEntity
  8
0
100
AcDbBlockEnd
  0
BLOCK
  5
130
330
12F
100
AcDbEntity
  8
0
100
AcDbBlockBegin
  2
*D15
 70
     1
 10
0.0
 20
0.0
 30
0.0
  3
*D15
  1

  0
LINE
  5
132
330
12F
100
AcDbEntity
  8
S_1_1
  6
CONTINUOUS
 62
     2
100
AcDbLine
 10
797.7500338004
 20
390.00006354057
 30
0.0
 11
842.5
 21
390.00006354057
 31
0.0
  0
LINE
  5
133
330
12F
100
AcDbEntity
  8
S_1_1
  6
CONTINUOUS
 62
     2
100
AcDbLine
 10
797.7500338004
 20
210.0001348554999
 30
0.0
 11
842.5
 21
210.0001348554999
 31
0.0
  0
LINE
  5
134
330
12F
100
AcDbEntity
  8
S_1_1
  6
CONTINUOUS
 62
     2
100
AcDbLine
 10
840.0
 20
382.50006354057
 30
0.0
 11
840.0
 21
217.5001348554999
 31
0.0
  0
INSERT
  5
135
330
12F
100
AcDbEntity
  8
S_1_1
 62
     2
100
AcDbBlockReference
  2
EX_NORM
 10
840.0
 20
390.00006354057
 30
0.0
 41
7.5
 42
7.5
 43
7.5
 50
90.0
  0
INSERT
  5
136
330
12F
100
AcDbEntity
  8
S_1_1
 62
     2
100
AcDbBlockReference
  2
EX_NORM
 10
840.0
 20
210.0001348554999
 30
0.0
 41
7.5
 42
7.5
 43
7.5
 50
270.0
  0
MTEXT
  5
137
330
12F
100
AcDbEntity
  8
S_1_1
 62
     2
100
AcDbMText
 10
833.125
 20
300.0000991980349
 30
0.0
 40
8.6572603926097
 41
0.0
 71
     5
 72
     1
  1
%%c180
  7
EXCADDIM1
 11
0.0
 21
1.0
 31
0.0
  0
POINT
  5
138
330
12F
100
AcDbEntity
  8
DEFPOINTS
 62
     0
100
AcDbPoint
 10
794.0000338004
 20
390.00006354057
 30
0.0
  0
POINT
  5
139
330
12F
100
AcDbEntity
  8
DEFPOINTS
 62
     0
100
AcDbPoint
 10
794.0000338004
 20
210.0001348554999
 30
0.0
  0
POINT
  5
13A
330
12F
100
AcDbEntity
  8
DEFPOINTS
 62
     0
100
AcDbPoint
 10
840.0
 20
210.0001348554999
 30
0.0
  0
ENDBLK
  5
131
330
12F
100
AcDbEntity
  8
0
100
AcDbBlockEnd
  0
BLOCK
  5
13D
330
13C
100
AcDbEntity
  8
0
100
AcDbBlockBegin
  2
*D16
 70
     1
 10
0.0
 20
0.0
 30
0.0
  3
*D16
  1

  0
LINE
  5
13F
330
13C
100
AcDbEntity
  8
S_1_1
  6
CONTINUOUS
 62
     2
100
AcDbLine
 10
507.2503126756001
 20
379.9999415875
 30
0.0
 11
462.5
 21
379.9999415875
 31
0.0
  0
LINE
  5
140
330
13C
100
AcDbEntity
  8
S_1_1
  6
CONTINUOUS
 62
     2
100
AcDbLine
 10
507.2503126756001
 20
220.0000584125
 30
0.0
 11
462.5
 21
220.0000584125
 31
0.0
  0
LINE
  5
141
330
13C
100
AcDbEntity
  8
S_1_1
  6
CONTINUOUS
 62
     2
100
AcDbLine
 10
465.0
 20
372.4999415875
 30
0.0
 11
465.0
 21
227.5000584125
 31
0.0
  0
INSERT
  5
142
330
13C
100
AcDbEntity
  8
S_1_1
 62
     2
100
AcDbBlockReference
  2
EX_NORM
 10
465.0
 20
379.9999415875
 30
0.0
 41
7.5
 42
7.5
 43
7.5
 50
90.0
  0
INSERT
  5
143
330
13C
100
AcDbEntity
  8
S_1_1
 62
     2
100
AcDbBlockReference
  2
EX_NORM
 10
465.0
 20
220.0000584125
 30
0.0
 41
7.5
 42
7.5
 43
7.5
 50
270.0
  0
MTEXT
  5
144
330
13C
100
AcDbEntity
  8
S_1_1
 62
     2
100
AcDbMText
 10
458.1250000000001
 20
300.0
 30
0.0
 40
8.6572603926097
 41
0.0
 71
     5
 72
     1
  1
%%c160
  7
EXCADDIM1
 11
0.0
 21
1.0
 31
0.0
  0
POINT
  5
145
330
13C
100
AcDbEntity
  8
DEFPOINTS
 62
     0
100
AcDbPoint
 10
511.0003126756001
 20
379.9999415875
 30
0.0
  0
POINT
  5
146
330
13C
100
AcDbEntity
  8
DEFPOINTS
 62
     0
100
AcDbPoint
 10
511.0003126756001
 20
220.0000584125
 30
0.0
  0
POINT
  5
147
330
13C
100
AcDbEntity
  8
DEFPOINTS
 62
     0
100
AcDbPoint
 10
465.0
 20
220.0000584125
 30
0.0
  0
ENDBLK
  5
13E
330
13C
100
AcDbEntity
  8
0
100
AcDbBlockEnd
  0
BLOCK
  5
14A
330
149
100
AcDbEntity
  8
0
100
AcDbBlockBegin
  2
*D17
 70
     1
 10
0.0
 20
0.0
 30
0.0
  3
*D17
  1

  0
LINE
  5
14C
330
149
100
AcDbEntity
  8
S_1_1
  6
CONTINUOUS
 62
     2
100
AcDbLine
 10
787.5
 20
165.0
 30
0.0
 11
552.499945958
 21
165.0
 31
0.0
  0
INSERT
  5
14D
330
149
100
AcDbEntity
  8
S_1_1
 62
     2
100
AcDbBlockReference
  2
EX_NORM
 10
795.0
 20
165.0
 30
0.0
 41
7.5
 42
7.5
 43
7.5
  0
INSERT
  5
14E
330
149
100
AcDbEntity
  8
S_1_1
 62
     2
100
AcDbBlockReference
  2
EX_NORM
 10
544.999945958
 20
165.0
 30
0.0
 41
7.5
 42
7.5
 43
7.5
 50
180.0
  0
MTEXT
  5
14F
330
149
100
AcDbEntity
  8
S_1_1
 62
     2
100
AcDbMText
 10
652.3999729789998
 20
171.875
 30
0.0
 40
8.6572603926097
 41
0.0
 71
     5
 72
     1
  1
250
  7
EXCADDIM1
  0
POINT
  5
150
330
149
100
AcDbEntity
  8
DEFPOINTS
 62
     0
100
AcDbPoint
 10
795.0
 20
210.9995975728
 30
0.0
  0
POINT
  5
151
330
149
100
AcDbEntity
  8
DEFPOINTS
 62
     0
100
AcDbPoint
 10
544.999945958
 20
212.00016927797
 30
0.0
  0
POINT
  5
152
330
149
100
AcDbEntity
  8
DEFPOINTS
 62
     0
100
AcDbPoint
 10
544.999945958
 20
165.0
 30
0.0
  0
ENDBLK
  5
14B
330
149
100
AcDbEntity
  8
0
100
AcDbBlockEnd
  0
BLOCK
  5
155
330
154
100
AcDbEntity
  8
0
100
AcDbBlockBegin
  2
*D18
 70
     1
 10
0.0
 20
0.0
 30
0.0
  3
*D18
  1

  0
LINE
  5
157
330
154
100
AcDbEntity
  8
S_1_1
  6
CONTINUOUS
 62
     2
100
AcDbLine
 10
510.0005949781
 20
217.24943499302
 30
0.0
 11
510.0005949781
 21
147.5
 31
0.0
  0
LINE
  5
158
330
154
100
AcDbEntity
  8
S_1_1
  6
CONTINUOUS
 62
     2
100
AcDbLine
 10
795.0
 20
207.2495975728
 30
0.0
 11
795.0
 21
147.5
 31
0.0
  0
LINE
  5
159
330
154
100
AcDbEntity
  8
S_1_1
  6
CONTINUOUS
 62
     2
100
AcDbLine
 10
517.5005949781
 20
150.0
 30
0.0
 11
787.5
 21
150.0
 31
0.0
  0
INSERT
  5
15A
330
154
100
AcDbEntity
  8
S_1_1
 62
     2
100
AcDbBlockReference
  2
EX_NORM
 10
510.0005949781
 20
150.0
 30
0.0
 41
7.5
 42
7.5
 43
7.5
 50
180.0
  0
INSERT
  5
15B
330
154
100
AcDbEntity
  8
S_1_1
 62
     2
100
AcDbBlockReference
  2
EX_NORM
 10
795.0
 20
150.0
 30
0.0
 41
7.5
 42
7.5
 43
7.5
  0
MTEXT
  5
15C
330
154
100
AcDbEntity
  8
S_1_1
 62
     2
100
AcDbMText
 10
652.50029748905
 20
156.875
 30
0.0
 40
8.6572603926097
 41
0.0
 71
     5
 72
     1
  1
285
  7
EXCADDIM1
  0
POINT
  5
15D
330
154
100
AcDbEntity
  8
DEFPOINTS
 62
     0
100
AcDbPoint
 10
510.0005949781
 20
220.99943499302
 30
0.0
  0
POINT
  5
15E
330
154
100
AcDbEntity
  8
DEFPOINTS
 62
     0
100
AcDbPoint
 10
795.0
 20
210.9995975728
 30
0.0
  0
POINT
  5
15F
330
154
100
AcDbEntity
  8
DEFPOINTS
 62
     0
100
AcDbPoint
 10
795.0
 20
150.0
 30
0.0
  0
ENDBLK
  5
156
330
154
100
AcDbEntity
  8
0
100
AcDbBlockEnd
  0
BLOCK
  5
162
330
161
100
AcDbEntity
  8
0
100
AcDbBlockBegin
  2
*D19
 70
     1
 10
0.0
 20
0.0
 30
0.0
  3
*D19
  1

  0
LINE
  5
164
330
161
100
AcDbEntity
  8
S_1_1
  6
CONTINUOUS
 62
     2
100
AcDbLine
 10
532.5005946055999
 20
165.0
 30
0.0
 11
512.5005949781
 21
165.0
 31
0.0
  0
INSERT
  5
165
330
161
100
AcDbEntity
  8
S_1_1
 62
     2
100
AcDbBlockReference
  2
EX_BCIR
 10
535.0005946055999
 20
165.0
 30
0.0
 41
2.5
 42
2.5
 43
2.5
  0
INSERT
  5
166
330
161
100
AcDbEntity
  8
S_1_1
 62
     2
100
AcDbBlockReference
  2
EX_NORM
 10
510.0005949781
 20
165.0
 30
0.0
 41
2.5
 42
2.5
 43
2.5
 50
180.0
  0
MTEXT
  5
167
330
161
100
AcDbEntity
  8
S_1_1
 62
     2
100
AcDbMText
 10
522.50059479185
 20
171.875
 30
0.0
 40
8.6572603926097
 41
0.0
 71
     5
 72
     1
  1
25
  7
EXCADDIM1
  0
POINT
  5
168
330
161
100
AcDbEntity
  8
DEFPOINTS
 62
     0
100
AcDbPoint
 10
535.0005946055999
 20
241.73230244612
 30
0.0
  0
POINT
  5
169
330
161
100
AcDbEntity
  8
DEFPOINTS
 62
     0
100
AcDbPoint
 10
510.0005949781
 20
220.99943499302
 30
0.0
  0
POINT
  5
16A
330
161
100
AcDbEntity
  8
DEFPOINTS
 62
     0
100
AcDbPoint
 10
510.0005949781
 20
165.0
 30
0.0
  0
ENDBLK
  5
163
330
161
100
AcDbEntity
  8
0
100
AcDbBlockEnd
  0
BLOCK
  5
16D
330
16C
100
AcDbEntity
  8
0
100
AcDbBlockBegin
  2
*D20
 70
     1
 10
0.0
 20
0.0
 30
0.0
  3
*D20
  1

  0
LINE
  5
16F
330
16C
100
AcDbEntity
  8
S_1_1
  6
CONTINUOUS
 62
     2
100
AcDbLine
 10
544.999945958
 20
208.25016927797
 30
0.0
 11
544.999945958
 21
162.5
 31
0.0
  0
LINE
  5
170
330
16C
100
AcDbEntity
  8
S_1_1
  6
CONTINUOUS
 62
     2
100
AcDbLine
 10
535.0005946055999
 20
237.98230244612
 30
0.0
 11
535.0005946055999
 21
162.5
 31
0.0
  0
LINE
  5
171
330
16C
100
AcDbEntity
  8
S_1_1
  6
CONTINUOUS
 62
     2
100
AcDbLine
 10
544.999945958
 20
165.0
 30
0.0
 11
535.0005946055999
 21
165.0
 31
0.0
  0
LINE
  5
172
330
16C
100
AcDbEntity
  8
S_1_1
  6
CONTINUOUS
 62
     2
100
AcDbLine
 10
552.499945958
 20
165.0
 30
0.0
 11
559.999945958
 21
165.0
 31
0.0
  0
LINE
  5
173
330
16C
100
AcDbEntity
  8
S_1_1
  6
CONTINUOUS
 62
     2
100
AcDbLine
 10
527.5005946055999
 20
165.0
 30
0.0
 11
520.0005946055999
 21
165.0
 31
0.0
  0
INSERT
  5
174
330
16C
100
AcDbEntity
  8
S_1_1
 62
     2
100
AcDbBlockReference
  2
EX_NORM
 10
544.999945958
 20
165.0
 30
0.0
 41
7.5
 42
7.5
 43
7.5
 50
180.0
  0
INSERT
  5
175
330
16C
100
AcDbEntity
  8
S_1_1
 62
     2
100
AcDbBlockReference
  2
EX_BCIR
 10
535.0005946055999
 20
165.0
 30
0.0
 41
7.5
 42
7.5
 43
7.5
  0
MTEXT
  5
176
330
16C
100
AcDbEntity
  8
S_1_1
 62
     2
100
AcDbMText
 10
540.0002702818
 20
171.875
 30
0.0
 40
8.6572603926097
 41
0.0
 71
     5
 72
     1
  1
10
  7
EXCADDIM1
  0
POINT
  5
177
330
16C
100
AcDbEntity
  8
DEFPOINTS
 62
     0
100
AcDbPoint
 10
544.999945958
 20
212.00016927797
 30
0.0
  0
POINT
  5
178
330
16C
100
AcDbEntity
  8
DEFPOINTS
 62
     0
100
AcDbPoint
 10
535.0005946055999
 20
241.73230244612
 30
0.0
  0
POINT
  5
179
330
16C
100
AcDbEntity
  8
DEFPOINTS
 62
     0
100
AcDbPoint
 10
535.0005946055999
 20
165.0
 30
0.0
  0
ENDBLK
  5
16E
330
16C
100
AcDbEntity
  8
0
100
AcDbBlockEnd
  0
BLOCK
  5
17C
330
17B
100
AcDbEntity
  8
0
100
AcDbBlockBegin
  2
*D21
 70
     1
 10
0.0
 20
0.0
 30
0.0
  3
*D21
  1

  0
LINE
  5
17E
330
17B
100
AcDbEntity
  8
S_1_1
  6
CONTINUOUS
 62
     2
100
AcDbLine
 10
797.75023225702
 20
389.9998651445001
 30
0.0
 11
842.5
 21
389.9998651445001
 31
0.0
  0
LINE
  5
17F
330
17B
100
AcDbEntity
  8
S_1_1
  6
CONTINUOUS
 62
     2
100
AcDbLine
 10
710.75032379046
 20
490.36200153496
 30
0.0
 11
842.5
 21
490.36200153496
 31
0.0
  0
LINE
  5
180
330
17B
100
AcDbEntity
  8
S_1_1
  6
CONTINUOUS
 62
     2
100
AcDbLine
 10
840.0
 20
397.4998651445001
 30
0.0
 11
840.0
 21
482.86200153496
 31
0.0
  0
INSERT
  5
181
330
17B
100
AcDbEntity
  8
S_1_1
 62
     2
100
AcDbBlockReference
  2
EX_NORM
 10
840.0
 20
389.9998651445001
 30
0.0
 41
7.5
 42
7.5
 43
7.5
 50
270.0
  0
INSERT
  5
182
330
17B
100
AcDbEntity
  8
S_1_1
 62
     2
100
AcDbBlockReference
  2
EX_NORM
 10
840.0
 20
490.36200153496
 30
0.0
 41
7.5
 42
7.5
 43
7.5
 50
90.0
  0
MTEXT
  5
183
330
17B
100
AcDbEntity
  8
S_1_1
 62
     2
100
AcDbMText
 10
833.125
 20
440.18093333973
 30
0.0
 40
8.6572603926097
 41
0.0
 71
     5
 72
     1
  1
(100)
  7
EXCADDIM1
 11
0.0
 21
1.0
 31
0.0
  0
POINT
  5
184
330
17B
100
AcDbEntity
  8
DEFPOINTS
 62
     0
100
AcDbPoint
 10
794.00023225702
 20
389.9998651445001
 30
0.0
  0
POINT
  5
185
330
17B
100
AcDbEntity
  8
DEFPOINTS
 62
     0
100
AcDbPoint
 10
707.00032379046
 20
490.36200153496
 30
0.0
  0
POINT
  5
186
330
17B
100
AcDbEntity
  8
DEFPOINTS
 62
     0
100
AcDbPoint
 10
840.0
 20
490.36200153496
 30
0.0
  0
ENDBLK
  5
17D
330
17B
100
AcDbEntity
  8
0
100
AcDbBlockEnd
  0
BLOCK
  5
18B
330
18A
100
AcDbEntity
  8
0
100
AcDbBlockBegin
  2
*D22
 70
     1
 10
0.0
 20
0.0
 30
0.0
  3
*D22
  1

  0
LINE
  5
18D
330
18A
100
AcDbEntity
  8
S_1_1
  6
CONTINUOUS
 62
     2
100
AcDbLine
 10
133.8006039887
 20
323.7499997019999
 30
0.0
 11
133.8006039887
 21
527.5
 31
0.0
  0
LINE
  5
18E
330
18A
100
AcDbEntity
  8
S_1_1
  6
CONTINUOUS
 62
     2
100
AcDbLine
 10
406.1994150847
 20
323.7499997019999
 30
0.0
 11
406.1994150847
 21
527.5
 31
0.0
  0
LINE
  5
18F
330
18A
100
AcDbEntity
  8
S_1_1
  6
CONTINUOUS
 62
     2
100
AcDbLine
 10
141.3006039887
 20
525.0
 30
0.0
 11
398.6994150847
 21
525.0
 31
0.0
  0
INSERT
  5
190
330
18A
100
AcDbEntity
  8
S_1_1
 62
     2
100
AcDbBlockReference
  2
EX_NORM
 10
133.8006039887
 20
525.0
 30
0.0
 41
7.5
 42
7.5
 43
7.5
 50
180.0
  0
INSERT
  5
191
330
18A
100
AcDbEntity
  8
S_1_1
 62
     2
100
AcDbBlockReference
  2
EX_NORM
 10
406.1994150847
 20
525.0
 30
0.0
 41
7.5
 42
7.5
 43
7.5
  0
MTEXT
  5
192
330
18A
100
AcDbEntity
  8
S_1_1
 62
     2
100
AcDbMText
 10
270.0000095367001
 20
531.875
 30
0.0
 40
8.6572603926097
 41
0.0
 71
     5
 72
     1
  1
272.4
  7
EXCADDIM1
  0
POINT
  5
193
330
18A
100
AcDbEntity
  8
DEFPOINTS
 62
     0
100
AcDbPoint
 10
133.8006039887
 20
319.999999702
 30
0.0
  0
POINT
  5
194
330
18A
100
AcDbEntity
  8
DEFPOINTS
 62
     0
100
AcDbPoint
 10
406.1994150847
 20
319.999999702
 30
0.0
  0
POINT
  5
195
330
18A
100
AcDbEntity
  8
DEFPOINTS
 62
     0
100
AcDbPoint
 10
406.1994150847
 20
525.0
 30
0.0
  0
ENDBLK
  5
18C
330
18A
100
AcDbEntity
  8
0
100
AcDbBlockEnd
  0
BLOCK
  5
198
330
197
100
AcDbEntity
  8
0
100
AcDbBlockBegin
  2
*D23
 70
     1
 10
0.0
 20
0.0
 30
0.0
  3
*D23
  1

  0
LINE
  5
19A
330
197
100
AcDbEntity
  8
S_1_1
  6
CONTINUOUS
 62
     2
100
AcDbLine
 10
177.5457883598604
 20
364.1699403926796
 30
0.0
 11
155.9650974233035
 21
385.7506313292363
 31
0.0
  0
LINE
  5
19B
330
197
100
AcDbEntity
  8
S_1_1
  6
CONTINUOUS
 62
     2
100
AcDbLine
 10
205.8300596073204
 20
392.4542116401396
 30
0.0
 11
184.2493686707635
 21
414.0349025766964
 31
0.0
  0
LINE
  5
19C
330
197
100
AcDbEntity
  8
S_1_1
  6
CONTINUOUS
 62
     2
100
AcDbLine
 10
163.036165235169
 20
389.2861652351691
 30
0.0
 11
180.7138347648308
 21
406.9638347648309
 31
0.0
  0
INSERT
  5
19D
330
197
100
AcDbEntity
  8
S_1_1
 62
     2
100
AcDbBlockReference
  2
EX_NORM
 10
157.7328643762699
 20
383.98286437627
 30
0.0
 41
7.5
 42
7.5
 43
7.5
 50
225.0000000000001
  0
INSERT
  5
19E
330
197
100
AcDbEntity
  8
S_1_1
 62
     2
100
AcDbBlockReference
  2
EX_NORM
 10
186.0171356237298
 20
412.26713562373
 30
0.0
 41
7.5
 42
7.5
 43
7.5
 50
45.00000000000015
  0
MTEXT
  5
19F
330
197
100
AcDbEntity
  8
S_1_1
 62
     2
100
AcDbMText
 10
173.3886408793425
 20
409.3613591206577
 30
0.0
 40
8.6572603926097
 41
0.0
 71
     5
 72
     1
  1
40
  7
EXCADDIM1
 11
0.7071067811865457
 21
0.7071067811865492
 31
0.0
  0
POINT
  5
1A0
330
197
100
AcDbEntity
  8
DEFPOINTS
 62
     0
100
AcDbPoint
 10
180.19743878931
 20
361.51828996323
 30
0.0
  0
POINT
  5
1A1
330
197
100
AcDbEntity
  8
DEFPOINTS
 62
     0
100
AcDbPoint
 10
208.48171003677
 20
389.8025612106901
 30
0.0
  0
POINT
  5
1A2
330
197
100
AcDbEntity
  8
DEFPOINTS
 62
     0
100
AcDbPoint
 10
186.0171356237298
 20
412.26713562373
 30
0.0
  0
ENDBLK
  5
199
330
197
100
AcDbEntity
  8
0
100
AcDbBlockEnd
  0
BLOCK
  5
1A5
330
1A4
100
AcDbEntity
  8
0
100
AcDbBlockBegin
  2
*D24
 70
     1
 10
0.0
 20
0.0
 30
0.0
  3
*D24
  1

  0
LINE
  5
1A7
330
1A4
100
AcDbEntity
  8
S_1_1
  6
CONTINUOUS
 62
     2
100
AcDbLine
 10
334.1699403926796
 20
207.5457883598603
 30
0.0
 11
355.7506313292363
 21
185.9650974233035
 31
0.0
  0
LINE
  5
1A8
330
1A4
100
AcDbEntity
  8
S_1_1
  6
CONTINUOUS
 62
     2
100
AcDbLine
 10
362.4542116401396
 20
235.8300596073204
 30
0.0
 11
384.0349025766964
 21
214.2493686707635
 31
0.0
  0
LINE
  5
1A9
330
1A4
100
AcDbEntity
  8
S_1_1
  6
CONTINUOUS
 62
     2
100
AcDbLine
 10
359.286165235169
 20
193.036165235169
 30
0.0
 11
376.9638347648309
 21
210.7138347648308
 31
0.0
  0
INSERT
  5
1AA
330
1A4
100
AcDbEntity
  8
S_1_1
 62
     2
100
AcDbBlockReference
  2
EX_NORM
 10
353.9828643762699
 20
187.7328643762699
 30
0.0
 41
7.5
 42
7.5
 43
7.5
 50
224.9999999999998
  0
INSERT
  5
1AB
330
1A4
100
AcDbEntity
  8
S_1_1
 62
     2
100
AcDbBlockReference
  2
EX_NORM
 10
382.26713562373
 20
216.0171356237299
 30
0.0
 41
7.5
 42
7.5
 43
7.5
 50
44.99999999999986
  0
MTEXT
  5
1AC
330
1A4
100
AcDbEntity
  8
S_1_1
 62
     2
100
AcDbMText
 10
363.2636408793425
 20
206.7363591206575
 30
0.0
 40
8.6572603926097
 41
0.0
 71
     5
 72
     1
  1
40
  7
EXCADDIM1
 11
0.7071067811865492
 21
0.7071067811865457
 31
0.0
  0
POINT
  5
1AD
330
1A4
100
AcDbEntity
  8
DEFPOINTS
 62
     0
100
AcDbPoint
 10
331.51828996323
 20
210.1974387893099
 30
0.0
  0
POINT
  5
1AE
330
1A4
100
AcDbEntity
  8
DEFPOINTS
 62
     0
100
AcDbPoint
 10
359.80256121069
 20
238.48171003677
 30
0.0
  0
POINT
  5
1AF
330
1A4
100
AcDbEntity
  8
DEFPOINTS
 62
     0
100
AcDbPoint
 10
382.26713562373
 20
216.0171356237299
 30
0.0
  0
ENDBLK
  5
1A6
330
1A4
100
AcDbEntity
  8
0
100
AcDbBlockEnd
  0
BLOCK
  5
1B2
330
1B1
100
AcDbEntity
  8
0
100
AcDbBlockBegin
  2
*D25
 70
     1
 10
0.0
 20
0.0
 30
0.0
  3
*D25
  1

  0
ARC
  5
1B4
330
1B1
100
AcDbEntity
  8
S_1_1
  6
CONTINUOUS
 62
     2
100
AcDbCircle
 10
269.9999999999968
 20
300.0000000000032
 30
0.0
 40
167.7050983124805
100
AcDbArc
 50
92.56255873312311
 51
132.4374412668768
  0
INSERT
  5
1B5
330
1B1
100
AcDbEntity
  8
S_1_1
 62
     2
100
AcDbBlockReference
  2
EX_NORM
 10
269.9999999999969
 20
467.7050983124837
 30
0.0
 41
7.5
 42
7.5
 43
7.5
 50
1.281279366561531
  0
INSERT
  5
1B6
330
1B1
100
AcDbEntity
  8
S_1_1
 62
     2
100
AcDbBlockReference
  2
EX_NORM
 10
151.4145877436852
 20
418.5854122563148
 30
0.0
 41
7.5
 42
7.5
 43
7.5
 50
223.7187206334384
  0
MTEXT
  5
1B7
330
1B1
100
AcDbEntity
  8
S_1_1
 62
     2
100
AcDbMText
 10
203.1910887551419
 20
461.2909796147122
 30
0.0
 40
8.6572603926097
 41
0.0
 71
     5
 72
     1
  1
45%%d
  7
EXCADDIM1
 11
0.923879532511287
 21
0.3826834323650894
 31
0.0
  0
POINT
  5
1B8
330
1B1
100
AcDbEntity
  8
DEFPOINTS
 62
     0
100
AcDbPoint
 10
269.9999999999968
 20
300.0000000000032
 30
0.0
  0
POINT
  5
1B9
330
1B1
100
AcDbEntity
  8
DEFPOINTS
 62
     0
100
AcDbPoint
 10
269.9999999999969
 20
467.7050983124836
 30
0.0
  0
POINT
  5
1BA
330
1B1
100
AcDbEntity
  8
DEFPOINTS
 62
     0
100
AcDbPoint
 10
151.4145877436852
 20
418.5854122563148
 30
0.0
  0
POINT
  5
1BB
330
1B1
100
AcDbEntity
  8
DEFPOINTS
 62
     0
100
AcDbPoint
 10
226.5947265959363
 20
461.9906856603754
 30
0.0
  0
ENDBLK
  5
1B3
330
1B1
100
AcDbEntity
  8
0
100
AcDbBlockEnd
  0
BLOCK
  5
1BE
330
1BD
100
AcDbEntity
  8
0
100
AcDbBlockBegin
  2
*D26
 70
     1
 10
0.0
 20
0.0
 30
0.0
  3
*D26
  1

  0
LINE
  5
1C0
330
1BD
100
AcDbEntity
  8
S_1_1
  6
CONTINUOUS
 62
     2
100
AcDbLine
 10
317.7297070978677
 20
347.7297070978677
 30
0.0
 11
373.6308134558509
 21
403.6308134558508
 31
0.0
  0
LINE
  5
1C1
330
1BD
100
AcDbEntity
  8
S_1_1
  6
CONTINUOUS
 62
     2
100
AcDbLine
 10
222.2702929021321
 20
252.2702929021323
 30
0.0
 11
216.966992043233
 21
246.9669920432332
 31
0.0
  0
MTEXT
  5
1C2
330
1BD
100
AcDbEntity
  8
S_1_1
 62
     2
100
AcDbMText
 10
351.2630946406982
 20
389.1547655877743
 30
0.0
 40
8.6572603926097
 41
0.0
 71
     5
 72
     1
  1
P.C.D 120
  7
EXCADDIM1
 11
0.7071067811865479
 21
0.707106781186547
 31
0.0
  0
LINE
  5
1C3
330
1BD
100
AcDbEntity
  8
S_1_1
  6
CONTINUOUS
 62
     2
100
AcDbLine
 10
227.5735937610312
 20
257.5735937610314
 30
0.0
 11
312.4264062389686
 21
342.4264062389686
 31
0.0
  0
INSERT
  5
1C4
330
1BD
100
AcDbEntity
  8
S_1_1
 62
     2
100
AcDbBlockReference
  2
EX_NORM
 10
227.5735937610312
 20
257.5735937610314
 30
0.0
 41
7.5
 42
7.5
 43
7.5
 50
44.99999999999997
  0
INSERT
  5
1C5
330
1BD
100
AcDbEntity
  8
S_1_1
 62
     2
100
AcDbBlockReference
  2
EX_NORM
 10
312.4264062389686
 20
342.4264062389686
 30
0.0
 41
7.5
 42
7.5
 43
7.5
 50
225.0
  0
POINT
  5
1C6
330
1BD
100
AcDbEntity
  8
DEFPOINTS
 62
     0
100
AcDbPoint
 10
312.4264062389686
 20
342.4264062389686
 30
0.0
  0
POINT
  5
1C7
330
1BD
100
AcDbEntity
  8
DEFPOINTS
 62
     0
100
AcDbPoint
 10
227.5735937610312
 20
257.5735937610314
 30
0.0
  0
ENDBLK
  5
1BF
330
1BD
100
AcDbEntity
  8
0
100
AcDbBlockEnd
  0
BLOCK
  5
39D
330
39C
100
AcDbEntity
  8
0
100
AcDbBlockBegin
  2
*D27
 70
     1
 10
0.0
 20
0.0
 30
0.0
  3
*D27
  1

  0
LINE
  5
39F
330
39C
100
AcDbEntity
  8
S_1_1
  6
CONTINUOUS
 62
     2
100
AcDbLine
 10
544.999945958
 20
391.74983072203
 30
0.0
 11
544.999945958
 21
527.5
 31
0.0
  0
LINE
  5
3A0
330
39C
100
AcDbEntity
  8
S_1_1
  6
CONTINUOUS
 62
     2
100
AcDbLine
 10
634.9999827639
 20
508.75
 30
0.0
 11
634.9999827639
 21
527.5
 31
0.0
  0
LINE
  5
3A1
330
39C
100
AcDbEntity
  8
S_1_1
  6
CONTINUOUS
 62
     2
100
AcDbLine
 10
552.499945958
 20
525.0
 30
0.0
 11
627.4999827639
 21
525.0
 31
0.0
  0
INSERT
  5
3A2
330
39C
100
AcDbEntity
  8
S_1_1
 62
     2
100
AcDbBlockReference
  2
EX_NORM
 10
544.999945958
 20
525.0
 30
0.0
 41
7.5
 42
7.5
 43
7.5
 50
180.0
  0
INSERT
  5
3A3
330
39C
100
AcDbEntity
  8
S_1_1
 62
     2
100
AcDbBlockReference
  2
EX_NORM
 10
634.9999827639
 20
525.0
 30
0.0
 41
7.5
 42
7.5
 43
7.5
  0
MTEXT
  5
3A4
330
39C
100
AcDbEntity
  8
S_1_1
 62
     2
100
AcDbMText
 10
589.99996436095
 20
531.875
 30
0.0
 40
8.6572603926097
 41
0.0
 71
     5
 72
     1
  1
90
  7
EXCADDIM1
  0
POINT
  5
3A5
330
39C
100
AcDbEntity
  8
DEFPOINTS
 62
     0
100
AcDbPoint
 10
544.999945958
 20
387.99983072203
 30
0.0
  0
POINT
  5
3A6
330
39C
100
AcDbEntity
  8
DEFPOINTS
 62
     0
100
AcDbPoint
 10
634.9999827639
 20
505.0
 30
0.0
  0
POINT
  5
3A7
330
39C
100
AcDbEntity
  8
DEFPOINTS
 62
     0
100
AcDbPoint
 10
634.9999827639
 20
525.0
 30
0.0
  0
ENDBLK
  5
39E
330
39C
100
AcDbEntity
  8
0
100
AcDbBlockEnd
  0
BLOCK
  5
3AA
330
3A9
100
AcDbEntity
  8
0
100
AcDbBlockBegin
  2
*D28
 70
     1
 10
0.0
 20
0.0
 30
0.0
  3
*D28
  1

  0
LINE
  5
3AC
330
3A9
100
AcDbEntity
  8
S_1_1
  6
CONTINUOUS
 62
     2
100
AcDbLine
 10
634.9999827639
 20
508.75
 30
0.0
 11
634.9999827639
 21
527.5
 31
0.0
  0
LINE
  5
3AD
330
3A9
100
AcDbEntity
  8
S_1_1
  6
CONTINUOUS
 62
     2
100
AcDbLine
 10
694.99918358776
 20
497.07931572415
 30
0.0
 11
694.99918358776
 21
527.5
 31
0.0
  0
LINE
  5
3AE
330
3A9
100
AcDbEntity
  8
S_1_1
  6
CONTINUOUS
 62
     2
100
AcDbLine
 10
642.4999827639
 20
525.0
 30
0.0
 11
687.49918358776
 21
525.0
 31
0.0
  0
INSERT
  5
3AF
330
3A9
100
AcDbEntity
  8
S_1_1
 62
     2
100
AcDbBlockReference
  2
EX_NORM
 10
634.9999827639
 20
525.0
 30
0.0
 41
7.5
 42
7.5
 43
7.5
 50
180.0
  0
INSERT
  5
3B0
330
3A9
100
AcDbEntity
  8
S_1_1
 62
     2
100
AcDbBlockReference
  2
EX_NORM
 10
694.99918358776
 20
525.0
 30
0.0
 41
7.5
 42
7.5
 43
7.5
  0
MTEXT
  5
3B1
330
3A9
100
AcDbEntity
  8
S_1_1
 62
     2
100
AcDbMText
 10
664.99958317583
 20
531.875
 30
0.0
 40
8.6572603926097
 41
0.0
 71
     5
 72
     1
  1
60
  7
EXCADDIM1
  0
POINT
  5
3B2
330
3A9
100
AcDbEntity
  8
DEFPOINTS
 62
     0
100
AcDbPoint
 10
634.9999827639
 20
505.0
 30
0.0
  0
POINT
  5
3B3
330
3A9
100
AcDbEntity
  8
DEFPOINTS
 62
     0
100
AcDbPoint
 10
694.99918358776
 20
493.32931572415
 30
0.0
  0
POINT
  5
3B4
330
3A9
100
AcDbEntity
  8
DEFPOINTS
 62
     0
100
AcDbPoint
 10
694.99918358776
 20
525.0
 30
0.0
  0
ENDBLK
  5
3AB
330
3A9
100
AcDbEntity
  8
0
100
AcDbBlockEnd
  0
BLOCK
  5
3B7
330
3B6
100
AcDbEntity
  8
0
100
AcDbBlockBegin
  2
*D29
 70
     1
 10
0.0
 20
0.0
 30
0.0
  3
*D29
  1

  0
LINE
  5
3B9
330
3B6
100
AcDbEntity
  8
S_1_1
  6
CONTINUOUS
 62
     2
100
AcDbLine
 10
694.99918358776
 20
497.07931572415
 30
0.0
 11
694.99918358776
 21
527.5
 31
0.0
  0
LINE
  5
3BA
330
3B6
100
AcDbEntity
  8
S_1_1
  6
CONTINUOUS
 62
     2
100
AcDbLine
 10
795.0
 20
392.7504024272
 30
0.0
 11
795.0
 21
527.5
 31
0.0
  0
LINE
  5
3BB
330
3B6
100
AcDbEntity
  8
S_1_1
  6
CONTINUOUS
 62
     2
100
AcDbLine
 10
702.49918358776
 20
525.0
 30
0.0
 11
787.5
 21
525.0
 31
0.0
  0
INSERT
  5
3BC
330
3B6
100
AcDbEntity
  8
S_1_1
 62
     2
100
AcDbBlockReference
  2
EX_NORM
 10
694.99918358776
 20
525.0
 30
0.0
 41
7.5
 42
7.5
 43
7.5
 50
180.0
  0
INSERT
  5
3BD
330
3B6
100
AcDbEntity
  8
S_1_1
 62
     2
100
AcDbBlockReference
  2
EX_NORM
 10
795.0
 20
525.0
 30
0.0
 41
7.5
 42
7.5
 43
7.5
  0
MTEXT
  5
3BE
330
3B6
100
AcDbEntity
  8
S_1_1
 62
     2
100
AcDbMText
 10
744.99959179388
 20
531.875
 30
0.0
 40
8.6572603926097
 41
0.0
 71
     5
 72
     1
  1
100
  7
EXCADDIM1
  0
POINT
  5
3BF
330
3B6
100
AcDbEntity
  8
DEFPOINTS
 62
     0
100
AcDbPoint
 10
694.99918358776
 20
493.32931572415
 30
0.0
  0
POINT
  5
3C0
330
3B6
100
AcDbEntity
  8
DEFPOINTS
 62
     0
100
AcDbPoint
 10
795.0
 20
389.0004024272
 30
0.0
  0
POINT
  5
3C1
330
3B6
100
AcDbEntity
  8
DEFPOINTS
 62
     0
100
AcDbPoint
 10
795.0
 20
525.0
 30
0.0
  0
ENDBLK
  5
3B8
330
3B6
100
AcDbEntity
  8
0
100
AcDbBlockEnd
  0
ENDSEC
  0
SECTION
  2
ENTITIES
  0
LINE
  5
E5
330
1F
100
AcDbEntity
  8
図面枠
  6
CONTINUOUS
 62
     5
100
AcDbLine
 10
25.0
 20
25.0
 30
0.0
 11
1025.0
 21
25.0
 31
0.0
  0
LINE
  5
E6
330
1F
100
AcDbEntity
  8
図面枠
  6
CONTINUOUS
 62
     5
100
AcDbLine
 10
1025.0
 20
25.0
 30
0.0
 11
1025.0
 21
717.5
 31
0.0
  0
LINE
  5
E7
330
1F
100
AcDbEntity
  8
図面枠
  6
CONTINUOUS
 62
     5
100
AcDbLine
 10
1025.0
 20
717.5
 30
0.0
 11
25.00000000000013
 21
717.5
 31
0.0
  0
LINE
  5
E8
330
1F
100
AcDbEntity
  8
図面枠
  6
CONTINUOUS
 62
     5
100
AcDbLine
 10
25.00000000000013
 20
717.5
 30
0.0
 11
25.0
 21
25.0
 31
0.0
  0
LINE
  5
E9
330
1F
100
AcDbEntity
  8
図面枠
  6
CONTINUOUS
 62
     3
100
AcDbLine
 10
37.50000000000004
 20
705.0
 30
0.0
 11
37.50000000000004
 21
682.5
 31
0.0
  0
TEXT
  5
EB
330
1F
100
AcDbEntity
  8
図面枠
  6
CONTINUOUS
 62
     4
100
AcDbText
 10
967.5
 20
678.45703125
 30
0.0
 40
8.6572603926097
  1
kN
 41
0.999230769230769
  7
EXCADTTF1
 72
     5
 11
978.75
 21
678.45703125
 31
0.0
100
AcDbText
  0
TEXT
  5
EC
330
1F
100
AcDbEntity
  8
図面枠
  6
CONTINUOUS
 62
     4
100
AcDbText
 10
817.5
 20
678.45703125
 30
0.0
 40
8.6572603926097
  1
能力
 41
0.999230769230769
  7
EXCADTTF1
 72
     5
 11
840.0
 21
678.45703125
 31
0.0
100
AcDbText
  0
TEXT
  5
ED
330
1F
100
AcDbEntity
  8
図面枠
  6
CONTINUOUS
 62
     4
100
AcDbText
 10
884.375
 20
693.45703125
 30
0.0
 40
8.6572603926097
  1
仕　　　様
 41
0.9992307692307691
  7
EXCADTTF1
 72
     5
 11
940.625
 21
693.45703125
 31
0.0
100
AcDbText
  0
LINE
  5
EE
330
1F
100
AcDbEntity
  8
図面枠
  6
CONTINUOUS
 62
     3
100
AcDbLine
 10
812.5
 20
705.0
 30
0.0
 11
1012.5
 21
705.0
 31
0.0
  0
LINE
  5
EF
330
1F
100
AcDbEntity
  8
図面枠
  6
CONTINUOUS
 62
     3
100
AcDbLine
 10
812.5
 20
690.0
 30
0.0
 11
1012.5
 21
690.0
 31
0.0
  0
TEXT
  5
F0
330
1F
100
AcDbEntity
  8
図面枠
  6
CONTINUOUS
 62
     4
100
AcDbText
 10
935.0
 20
678.45703125
 30
0.0
 40
8.6572603926097
  1
1000
 41
0.999230769230769
  7
EXCADTTF1
 72
     5
 11
957.5
 21
678.45703125
 31
0.0
100
AcDbText
  0
TEXT
  5
F1
330
1F
100
AcDbEntity
  8
図面枠
  6
CONTINUOUS
 62
     4
100
AcDbText
 10
967.5
 20
663.45703125
 30
0.0
 40
8.6572603926097
  1
mm
 41
0.999230769230769
  7
EXCADTTF1
 72
     5
 11
978.75
 21
663.45703125
 31
0.0
100
AcDbText
  0
TEXT
  5
F2
330
1F
100
AcDbEntity
  8
図面枠
  6
CONTINUOUS
 62
     4
100
AcDbText
 10
967.5
 20
648.45703125
 30
0.0
 40
8.6572603926097
  1
mm
 41
0.999230769230769
  7
EXCADTTF1
 72
     5
 11
978.75
 21
648.45703125
 31
0.0
100
AcDbText
  0
TEXT
  5
F3
330
1F
100
AcDbEntity
  8
図面枠
  6
CONTINUOUS
 62
     4
100
AcDbText
 10
967.5
 20
633.45703125
 30
0.0
 40
8.6572603926097
  1
mm
 41
0.999230769230769
  7
EXCADTTF1
 72
     5
 11
978.75
 21
633.45703125
 31
0.0
100
AcDbText
  0
TEXT
  5
F4
330
1F
100
AcDbEntity
  8
図面枠
  6
CONTINUOUS
 62
     4
100
AcDbText
 10
967.5
 20
618.45703125
 30
0.0
 40
8.6572603926097
  1
mm
 41
0.999230769230769
  7
EXCADTTF1
 72
     5
 11
978.75
 21
618.45703125
 31
0.0
100
AcDbText
  0
TEXT
  5
F5
330
1F
100
AcDbEntity
  8
図面枠
  6
CONTINUOUS
 62
     4
100
AcDbText
 10
967.5
 20
603.45703125
 30
0.0
 40
8.6572603926097
  1
mm
 41
0.999230769230769
  7
EXCADTTF1
 72
     5
 11
978.75
 21
603.45703125
 31
0.0
100
AcDbText
  0
TEXT
  5
F6
330
1F
100
AcDbEntity
  8
図面枠
  6
CONTINUOUS
 62
     4
100
AcDbText
 10
967.5
 20
573.45703125
 30
0.0
 40
8.6572603926097
  1
MPa
 41
0.9992307692307689
  7
EXCADTTF1
 72
     5
 11
984.375
 21
573.45703125
 31
0.0
100
AcDbText
  0
TEXT
  5
F7
330
1F
100
AcDbEntity
  8
図面枠
  6
CONTINUOUS
 62
     4
100
AcDbText
 10
817.5
 20
663.45703125
 30
0.0
 40
8.6572603926097
  1
ストローク
 41
0.9992307692307691
  7
EXCADTTF1
 72
     5
 11
873.75
 21
663.45703125
 31
0.0
100
AcDbText
  0
TEXT
  5
F8
330
1F
100
AcDbEntity
  8
図面枠
  6
CONTINUOUS
 62
     4
100
AcDbText
 10
817.5
 20
648.45703125
 30
0.0
 40
8.6572603926097
  1
最低機械高
 41
0.9992307692307691
  7
EXCADTTF1
 72
     5
 11
873.75
 21
648.45703125
 31
0.0
100
AcDbText
  0
TEXT
  5
F9
330
1F
100
AcDbEntity
  8
図面枠
  6
CONTINUOUS
 62
     4
100
AcDbText
 10
817.5
 20
633.45703125
 30
0.0
 40
8.6572603926097
  1
シリンダー外径
 41
0.9992307692307693
  7
EXCADTTF1
 72
     5
 11
896.25
 21
633.45703125
 31
0.0
100
AcDbText
  0
TEXT
  5
FA
330
1F
100
AcDbEntity
  8
図面枠
  6
CONTINUOUS
 62
     4
100
AcDbText
 10
817.5
 20
618.45703125
 30
0.0
 40
8.6572603926097
  1
ヘッド径
 41
0.999230769230769
  7
EXCADTTF1
 72
     5
 11
862.5
 21
618.45703125
 31
0.0
100
AcDbText
  0
TEXT
  5
FB
330
1F
100
AcDbEntity
  8
図面枠
  6
CONTINUOUS
 62
     4
100
AcDbText
 10
817.5
 20
603.45703125
 30
0.0
 40
8.6572603926097
  1
ピストン径
 41
0.9992307692307691
  7
EXCADTTF1
 72
     5
 11
873.75
 21
603.45703125
 31
0.0
100
AcDbText
  0
TEXT
  5
FC
330
1F
100
AcDbEntity
  8
図面枠
  6
CONTINUOUS
 62
     4
100
AcDbText
 10
817.5
 20
588.45703125
 30
0.0
 40
8.6572603926097
  1
受圧面積
 41
0.999230769230769
  7
EXCADTTF1
 72
     5
 11
862.5
 21
588.45703125
 31
0.0
100
AcDbText
  0
TEXT
  5
FD
330
1F
100
AcDbEntity
  8
図面枠
  6
CONTINUOUS
 62
     4
100
AcDbText
 10
817.5
 20
573.45703125
 30
0.0
 40
8.6572603926097
  1
最高使用圧力
 41
0.9992307692307691
  7
EXCADTTF1
 72
     5
 11
885.0
 21
573.45703125
 31
0.0
100
AcDbText
  0
LINE
  5
FE
330
1F
100
AcDbEntity
  8
図面枠
  6
CONTINUOUS
 62
     2
100
AcDbLine
 10
812.5
 20
675.0
 30
0.0
 11
1012.5
 21
675.0
 31
0.0
  0
LINE
  5
FF
330
1F
100
AcDbEntity
  8
図面枠
  6
CONTINUOUS
 62
     2
100
AcDbLine
 10
812.5
 20
660.0
 30
0.0
 11
1012.5
 21
660.0
 31
0.0
  0
LINE
  5
100
330
1F
100
AcDbEntity
  8
図面枠
  6
CONTINUOUS
 62
     2
100
AcDbLine
 10
812.5
 20
645.0
 30
0.0
 11
1012.5
 21
645.0
 31
0.0
  0
LINE
  5
101
330
1F
100
AcDbEntity
  8
図面枠
  6
CONTINUOUS
 62
     2
100
AcDbLine
 10
812.5
 20
630.0
 30
0.0
 11
1012.5
 21
630.0
 31
0.0
  0
LINE
  5
102
330
1F
100
AcDbEntity
  8
図面枠
  6
CONTINUOUS
 62
     2
100
AcDbLine
 10
812.5
 20
615.0
 30
0.0
 11
1012.5
 21
615.0
 31
0.0
  0
LINE
  5
103
330
1F
100
AcDbEntity
  8
図面枠
  6
CONTINUOUS
 62
     2
100
AcDbLine
 10
812.5
 20
600.0
 30
0.0
 11
1012.5
 21
600.0
 31
0.0
  0
LINE
  5
104
330
1F
100
AcDbEntity
  8
図面枠
  6
CONTINUOUS
 62
     2
100
AcDbLine
 10
812.5
 20
585.0
 30
0.0
 11
1012.5
 21
585.0
 31
0.0
  0
TEXT
  5
105
330
1F
100
AcDbEntity
  8
図面枠
  6
CONTINUOUS
 62
     4
100
AcDbText
 10
935.0
 20
573.45703125
 30
0.0
 40
8.6572603926097
  1
60.6
 41
0.999230769230769
  7
EXCADTTF1
 72
     5
 11
957.5
 21
573.45703125
 31
0.0
100
AcDbText
  0
TEXT
  5
106
330
1F
100
AcDbEntity
  8
図面枠
  6
CONTINUOUS
 62
     4
100
AcDbText
 10
929.375
 20
588.45703125
 30
0.0
 40
8.6572603926097
  1
165.1
 41
0.9992307692307691
  7
EXCADTTF1
 72
     5
 11
957.5
 21
588.45703125
 31
0.0
100
AcDbText
  0
TEXT
  5
107
330
1F
100
AcDbEntity
  8
図面枠
  6
CONTINUOUS
 62
     4
100
AcDbText
 10
940.625
 20
603.45703125
 30
0.0
 40
8.6572603926097
  1
145
 41
0.9992307692307689
  7
EXCADTTF1
 72
     5
 11
957.5
 21
603.45703125
 31
0.0
100
AcDbText
  0
TEXT
  5
108
330
1F
100
AcDbEntity
  8
図面枠
  6
CONTINUOUS
 62
     4
100
AcDbText
 10
967.5000000000001
 20
588.45703125
 30
0.0
 40
8.6572603926097
  1
cm
 41
0.999230769230769
  7
EXCADTTF1
 72
     5
 11
978.7500000000001
 21
588.45703125
 31
0.0
100
AcDbText
  0
TEXT
  5
109
330
1F
100
AcDbEntity
  8
図面枠
  6
CONTINUOUS
 62
     4
100
AcDbText
 10
975.3750000000001
 20
593.7744141295552
 30
0.0
 40
3.895766809731837
  1
2
 41
0.9992308633483801
  7
EXCADTTF1
 72
     5
 11
977.9062500000001
 21
593.7744141295552
 31
0.0
100
AcDbText
  0
TEXT
  5
10A
330
1F
100
AcDbEntity
  8
図面枠
  6
CONTINUOUS
 62
     4
100
AcDbText
 10
967.5
 20
543.45703125
 30
0.0
 40
8.6572603926097
  1
kg
 41
0.999230769230769
  7
EXCADTTF1
 72
     5
 11
978.75
 21
543.45703125
 31
0.0
100
AcDbText
  0
TEXT
  5
10B
330
1F
100
AcDbEntity
  8
図面枠
  6
CONTINUOUS
 62
     4
100
AcDbText
 10
817.5
 20
558.45703125
 30
0.0
 40
8.6572603926097
  1
所要油量
 41
0.999230769230769
  7
EXCADTTF1
 72
     5
 11
862.5
 21
558.45703125
 31
0.0
100
AcDbText
  0
TEXT
  5
10C
330
1F
100
AcDbEntity
  8
図面枠
  6
CONTINUOUS
 62
     4
100
AcDbText
 10
817.5
 20
543.45703125
 30
0.0
 40
8.6572603926097
  1
重量
 41
0.999230769230769
  7
EXCADTTF1
 72
     5
 11
840.0
 21
543.45703125
 31
0.0
100
AcDbText
  0
LINE
  5
10D
330
1F
100
AcDbEntity
  8
図面枠
  6
CONTINUOUS
 62
     2
100
AcDbLine
 10
812.5
 20
570.0
 30
0.0
 11
1012.5
 21
570.0
 31
0.0
  0
LINE
  5
10E
330
1F
100
AcDbEntity
  8
図面枠
  6
CONTINUOUS
 62
     2
100
AcDbLine
 10
812.5
 20
555.0
 30
0.0
 11
1012.5
 21
555.0
 31
0.0
  0
TEXT
  5
10F
330
1F
100
AcDbEntity
  8
図面枠
  6
CONTINUOUS
 62
     4
100
AcDbText
 10
817.5
 20
528.45703125
 30
0.0
 40
8.6572603926097
  1
ユニバーサル
 41
0.9992307692307691
  7
EXCADTTF1
 72
     5
 11
885.0
 21
528.45703125
 31
0.0
100
AcDbText
  0
TEXT
  5
110
330
1F
100
AcDbEntity
  8
図面枠
  6
CONTINUOUS
 62
     4
100
AcDbText
 10
817.5
 20
517.20703125
 30
0.0
 40
8.6572603926097
  1
振り角
 41
0.9992307692307689
  7
EXCADTTF1
 72
     5
 11
851.25
 21
517.20703125
 31
0.0
100
AcDbText
  0
TEXT
  5
111
330
1F
100
AcDbEntity
  8
図面枠
  6
CONTINUOUS
 62
     4
100
AcDbText
 10
940.625
 20
528.45703125
 30
0.0
 40
8.6572603926097
  1
±3
 41
0.9992307692307689
  7
EXCADTTF1
 72
     5
 11
957.5
 21
528.45703125
 31
0.0
100
AcDbText
  0
TEXT
  5
112
330
1F
100
AcDbEntity
  8
図面枠
  6
CONTINUOUS
 62
     4
100
AcDbText
 10
967.5
 20
528.45703125
 30
0.0
 40
8.6572603926097
  1
°
 41
0.999230769230769
  7
EXCADTTF1
 72
     5
 11
978.75
 21
528.45703125
 31
0.0
100
AcDbText
  0
TEXT
  5
113
330
1F
100
AcDbEntity
  8
図面枠
  6
CONTINUOUS
 62
     4
100
AcDbText
 10
967.5
 20
513.45703125
 30
0.0
 40
8.6572603926097
  1
%%%
 41
0.999230769230769
  7
EXCADTTF1
 72
     5
 11
973.125
 21
513.45703125
 31
0.0
100
AcDbText
  0
TEXT
  5
114
330
1F
100
AcDbEntity
  8
図面枠
  6
CONTINUOUS
 62
     4
100
AcDbText
 10
940.625
 20
513.45703125
 30
0.0
 40
8.6572603926097
  1
±5
 41
0.9992307692307689
  7
EXCADTTF1
 72
     5
 11
957.5
 21
513.45703125
 31
0.0
100
AcDbText
  0
LINE
  5
115
330
1F
100
AcDbEntity
  8
図面枠
  6
CONTINUOUS
 62
     2
100
AcDbLine
 10
912.5
 20
525.0
 30
0.0
 11
1012.5
 21
525.0
 31
0.0
  0
LINE
  5
116
330
1F
100
AcDbEntity
  8
図面枠
  6
CONTINUOUS
 62
     3
100
AcDbLine
 10
812.5
 20
510.0
 30
0.0
 11
1012.5
 21
510.0
 31
0.0
  0
LINE
  5
117
330
1F
100
AcDbEntity
  8
図面枠
  6
CONTINUOUS
 62
     2
100
AcDbLine
 10
812.5
 20
540.0
 30
0.0
 11
1012.5
 21
540.0
 31
0.0
  0
LINE
  5
118
330
1F
100
AcDbEntity
  8
図面枠
  6
CONTINUOUS
 62
     3
100
AcDbLine
 10
812.5
 20
705.0
 30
0.0
 11
812.5
 21
510.0
 31
0.0
  0
LINE
  5
119
330
1F
100
AcDbEntity
  8
図面枠
  6
CONTINUOUS
 62
     3
100
AcDbLine
 10
1012.5
 20
705.0
 30
0.0
 11
1012.5
 21
510.0
 31
0.0
  0
LINE
  5
11A
330
1F
100
AcDbEntity
  8
図面枠
  6
CONTINUOUS
 62
     2
100
AcDbLine
 10
912.5
 20
690.0
 30
0.0
 11
912.5
 21
510.0
 31
0.0
  0
LINE
  5
11B
330
1F
100
AcDbEntity
  8
図面枠
  6
CONTINUOUS
 62
     2
100
AcDbLine
 10
962.5
 20
690.0
 30
0.0
 11
962.5
 21
510.0
 31
0.0
  0
LINE
  5
11C
330
1F
100
AcDbEntity
  8
図面枠
  6
CONTINUOUS
 62
     3
100
AcDbLine
 10
1012.5
 20
60.0
 30
0.0
 11
1012.5
 21
37.5
 31
0.0
  0
TEXT
  5
11D
330
1F
100
AcDbEntity
  8
図面枠
  6
CONTINUOUS
 62
     4
100
AcDbText
 10
940.625
 20
663.45703125
 30
0.0
 40
8.6572603926097
  1
110
 41
0.9992307692307689
  7
EXCADTTF1
 72
     5
 11
957.5
 21
663.45703125
 31
0.0
100
AcDbText
  0
TEXT
  5
11E
330
1F
100
AcDbEntity
  8
図面枠
  6
CONTINUOUS
 62
     4
100
AcDbText
 10
940.625
 20
633.45703125
 30
0.0
 40
8.6572603926097
  1
180
 41
0.9992307692307689
  7
EXCADTTF1
 72
     5
 11
957.5
 21
633.45703125
 31
0.0
100
AcDbText
  0
LINE
  5
11F
330
1F
100
AcDbEntity
  8
図面枠
  6
CONTINUOUS
 62
     3
100
AcDbLine
 10
907.5
 20
60.0
 30
0.0
 11
907.5
 21
37.5
 31
0.0
  0
TEXT
  5
120
330
1F
100
AcDbEntity
  8
図面枠
  6
CONTINUOUS
 62
     4
100
AcDbText
 10
915.0
 20
43.359375
 30
0.0
 40
11.54301385681293
  1
OTV-10011-UB
 41
0.9992307692307693
  7
EXCADTTF1
 72
     5
 11
1005.0
 21
43.359375
 31
0.0
100
AcDbText
  0
LINE
  5
121
330
1F
100
AcDbEntity
  8
図面枠
  6
CONTINUOUS
 62
     3
100
AcDbLine
 10
907.5
 20
60.0
 30
0.0
 11
1012.5
 21
60.0
 31
0.0
  0
LINE
  5
122
330
1F
100
AcDbEntity
  8
図面枠
  6
CONTINUOUS
 62
     3
100
AcDbLine
 10
907.5
 20
37.5
 30
0.0
 11
1012.5
 21
37.5
 31
0.0
  0
TEXT
  5
123
330
1F
100
AcDbEntity
  8
図面枠
  6
CONTINUOUS
 62
     4
100
AcDbText
 10
940.625
 20
648.45703125
 30
0.0
 40
8.6572603926097
  1
285
 41
0.9992307692307689
  7
EXCADTTF1
 72
     5
 11
957.5
 21
648.45703125
 31
0.0
100
AcDbText
  0
TEXT
  5
124
330
1F
100
AcDbEntity
  8
図面枠
  6
CONTINUOUS
 62
     4
100
AcDbText
 10
940.625
 20
618.45703125
 30
0.0
 40
8.6572603926097
  1
160
 41
0.9992307692307689
  7
EXCADTTF1
 72
     5
 11
957.5
 21
618.45703125
 31
0.0
100
AcDbText
  0
TEXT
  5
125
330
1F
100
AcDbEntity
  8
図面枠
  6
CONTINUOUS
 62
     4
100
AcDbText
 10
935.0
 20
543.45703125
 30
0.0
 40
8.6572603926097
  1
約50
 41
0.999230769230769
  7
EXCADTTF1
 72
     5
 11
957.5
 21
543.45703125
 31
0.0
100
AcDbText
  0
TEXT
  5
126
330
1F
100
AcDbEntity
  8
図面枠
  6
CONTINUOUS
 62
     4
100
AcDbText
 10
45.00000000000004
 20
688.359375
 30
0.0
 40
11.54301385681293
  1
1000kN110ストローク油圧ジャッキ　ユニバーサルヘッド付き　H=285mm
 41
0.9992307692307688
  7
EXCADTTF1
 72
     5
 11
525.0
 21
688.359375
 31
0.0
100
AcDbText
  0
LINE
  5
127
330
1F
100
AcDbEntity
  8
図面枠
  6
CONTINUOUS
 62
     3
100
AcDbLine
 10
532.5
 20
705.0
 30
0.0
 11
532.5
 21
682.5
 31
0.0
  0
LINE
  5
128
330
1F
100
AcDbEntity
  8
図面枠
  6
CONTINUOUS
 62
     3
100
AcDbLine
 10
37.50000000000004
 20
682.5
 30
0.0
 11
532.5
 21
682.5
 31
0.0
  0
LINE
  5
129
330
1F
100
AcDbEntity
  8
図面枠
  6
CONTINUOUS
 62
     3
100
AcDbLine
 10
37.50000000000004
 20
705.0
 30
0.0
 11
532.5
 21
705.0
 31
0.0
  0
TEXT
  5
12A
330
1F
100
AcDbEntity
  8
図面枠
  6
CONTINUOUS
 62
     4
100
AcDbText
 10
967.5
 20
558.45703125
 30
0.0
 40
8.6572603926097
  1
L
 41
0.999230769230769
  7
EXCADTTF1
 72
     5
 11
973.125
 21
558.45703125
 31
0.0
100
AcDbText
  0
TEXT
  5
12B
330
1F
100
AcDbEntity
  8
図面枠
  6
CONTINUOUS
 62
     4
100
AcDbText
 10
940.625
 20
558.45703125
 30
0.0
 40
8.6572603926097
  1
1.8
 41
0.9992307692307689
  7
EXCADTTF1
 72
     5
 11
957.5
 21
558.45703125
 31
0.0
100
AcDbText
  0
DIMENSION
  5
12D
330
1F
100
AcDbEntity
  8
S_1_1
  6
CONTINUOUS
 62
     2
100
AcDbDimension
  2
*D15
 10
840.0
 20
210.0001348554999
 30
0.0
 11
833.125
 21
300.0000991980349
 31
0.0
 70
   160
  1
%%c180
  3
ISO-25
100
AcDbAlignedDimension
 13
794.0000338004
 23
390.00006354057
 33
0.0
 14
794.0000338004
 24
210.0001348554999
 34
0.0
 50
90.0
100
AcDbRotatedDimension
1001
ACAD
1000
DSTYLE
1002
{
1070
   270
1070
     2
1070
     6
1000
EX_NORM
1070
     7
1000
EX_NORM
1070
    41
1040
7.5
1070
    42
1040
3.75
1070
    44
1040
2.5
1070
    73
1070
     0
1070
    74
1070
     0
1070
    75
1070
     0
1070
    76
1070
     0
1070
    77
1070
     1
1070
    78
1070
     8
1070
   140
1040
8.6572603926097
1070
   147
1040
0.0
1070
   173
1070
     1
1070
   176
1070
     2
1070
   177
1070
     2
1070
   178
1070
     2
1070
   271
1070
     2
1070
   277
1070
     2
1070
   279
1070
     2
1070
   280
1070
     0
1070
   287
1070
     5
1070
   340
1005
12C
1002
}
  0
DIMENSION
  5
13B
330
1F
100
AcDbEntity
  8
S_1_1
  6
CONTINUOUS
 62
     2
100
AcDbDimension
  2
*D16
 10
465.0
 20
220.0000584125
 30
0.0
 11
458.1250000000001
 21
300.0
 31
0.0
 70
   160
  1
%%c160
  3
ISO-25
100
AcDbAlignedDimension
 13
511.0003126756001
 23
379.9999415875
 33
0.0
 14
511.0003126756001
 24
220.0000584125
 34
0.0
 50
90.0
100
AcDbRotatedDimension
1001
ACAD
1000
DSTYLE
1002
{
1070
   270
1070
     2
1070
     6
1000
EX_NORM
1070
     7
1000
EX_NORM
1070
    41
1040
7.5
1070
    42
1040
3.75
1070
    44
1040
2.5
1070
    73
1070
     0
1070
    74
1070
     0
1070
    75
1070
     0
1070
    76
1070
     0
1070
    77
1070
     1
1070
    78
1070
     8
1070
   140
1040
8.6572603926097
1070
   147
1040
0.0
1070
   173
1070
     1
1070
   176
1070
     2
1070
   177
1070
     2
1070
   178
1070
     2
1070
   271
1070
     2
1070
   277
1070
     2
1070
   279
1070
     2
1070
   280
1070
     0
1070
   287
1070
     5
1070
   340
1005
12C
1002
}
  0
DIMENSION
  5
148
330
1F
100
AcDbEntity
  8
S_1_1
  6
CONTINUOUS
 62
     2
100
AcDbDimension
  2
*D17
 10
544.999945958
 20
165.0
 30
0.0
 11
652.3999729789998
 21
171.875
 31
0.0
 70
   160
  3
ISO-25
100
AcDbAlignedDimension
 13
795.0
 23
210.9995975728
 33
0.0
 14
544.999945958
 24
212.00016927797
 34
0.0
100
AcDbRotatedDimension
1001
ACAD
1000
DSTYLE
1002
{
1070
   270
1070
     2
1070
     6
1000
EX_NORM
1070
     7
1000
EX_NORM
1070
    41
1040
7.5
1070
    42
1040
0.0
1070
    44
1040
0.0
1070
    73
1070
     1
1070
    74
1070
     1
1070
    75
1070
     1
1070
    76
1070
     1
1070
    77
1070
     1
1070
    78
1070
     8
1070
   140
1040
8.6572603926097
1070
   147
1040
0.0
1070
   173
1070
     1
1070
   176
1070
     2
1070
   177
1070
     2
1070
   178
1070
     2
1070
   271
1070
     2
1070
   277
1070
     2
1070
   279
1070
     2
1070
   280
1070
     0
1070
   287
1070
     5
1070
   340
1005
12C
1002
}
  0
DIMENSION
  5
153
330
1F
100
AcDbEntity
  8
S_1_1
  6
CONTINUOUS
 62
     2
100
AcDbDimension
  2
*D18
 10
795.0
 20
150.0
 30
0.0
 11
652.50029748905
 21
156.875
 31
0.0
 70
   160
  3
ISO-25
100
AcDbAlignedDimension
 13
510.0005949781
 23
220.99943499302
 33
0.0
 14
795.0
 24
210.9995975728
 34
0.0
100
AcDbRotatedDimension
1001
ACAD
1000
DSTYLE
1002
{
1070
   270
1070
     2
1070
     6
1000
EX_NORM
1070
     7
1000
EX_NORM
1070
    41
1040
7.5
1070
    42
1040
3.75
1070
    44
1040
2.5
1070
    73
1070
     0
1070
    74
1070
     0
1070
    75
1070
     0
1070
    76
1070
     0
1070
    77
1070
     1
1070
    78
1070
     8
1070
   140
1040
8.6572603926097
1070
   147
1040
0.0
1070
   173
1070
     1
1070
   176
1070
     2
1070
   177
1070
     2
1070
   178
1070
     2
1070
   271
1070
     2
1070
   277
1070
     2
1070
   279
1070
     2
1070
   280
1070
     0
1070
   287
1070
     5
1070
   340
1005
12C
1002
}
  0
DIMENSION
  5
160
330
1F
100
AcDbEntity
  8
S_1_1
  6
CONTINUOUS
 62
     2
100
AcDbDimension
  2
*D19
 10
510.0005949781
 20
165.0
 30
0.0
 11
522.50059479185
 21
171.875
 31
0.0
 70
   160
  3
ISO-25
100
AcDbAlignedDimension
 13
535.0005946055999
 23
241.73230244612
 33
0.0
 14
510.0005949781
 24
220.99943499302
 34
0.0
100
AcDbRotatedDimension
1001
ACAD
1000
DSTYLE
1002
{
1070
   270
1070
     2
1070
     6
1000
EX_BCIR
1070
     7
1000
EX_NORM
1070
    41
1040
2.5
1070
    42
1040
0.0
1070
    44
1040
0.0
1070
    73
1070
     0
1070
    74
1070
     0
1070
    75
1070
     1
1070
    76
1070
     1
1070
    77
1070
     1
1070
    78
1070
     8
1070
   140
1040
8.6572603926097
1070
   147
1040
0.0
1070
   173
1070
     1
1070
   176
1070
     2
1070
   177
1070
     2
1070
   178
1070
     2
1070
   271
1070
     2
1070
   277
1070
     2
1070
   279
1070
     2
1070
   280
1070
     0
1070
   287
1070
     5
1070
   340
1005
12C
1002
}
  0
DIMENSION
  5
16B
330
1F
100
AcDbEntity
  8
S_1_1
  6
CONTINUOUS
 62
     2
100
AcDbDimension
  2
*D20
 10
535.0005946055999
 20
165.0
 30
0.0
 11
540.0002702818
 21
171.875
 31
0.0
 70
   160
  3
ISO-25
100
AcDbAlignedDimension
 13
544.999945958
 23
212.00016927797
 33
0.0
 14
535.0005946055999
 24
241.73230244612
 34
0.0
100
AcDbRotatedDimension
1001
ACAD
1000
DSTYLE
1002
{
1070
   270
1070
     2
1070
     6
1000
EX_NORM
1070
     7
1000
EX_BCIR
1070
    41
1040
7.5
1070
    42
1040
3.75
1070
    44
1040
2.5
1070
    73
1070
     0
1070
    74
1070
     0
1070
    75
1070
     0
1070
    76
1070
     0
1070
    77
1070
     1
1070
    78
1070
     8
1070
   140
1040
8.6572603926097
1070
   147
1040
0.0
1070
   173
1070
     1
1070
   176
1070
     2
1070
   177
1070
     2
1070
   178
1070
     2
1070
   271
1070
     2
1070
   277
1070
     2
1070
   279
1070
     2
1070
   280
1070
     0
1070
   287
1070
     5
1070
   340
1005
12C
1002
}
  0
DIMENSION
  5
17A
330
1F
100
AcDbEntity
  8
S_1_1
  6
CONTINUOUS
 62
     2
100
AcDbDimension
  2
*D21
 10
840.0
 20
490.36200153496
 30
0.0
 11
833.125
 21
440.18093333973
 31
0.0
 70
   160
  1
(100)
  3
ISO-25
100
AcDbAlignedDimension
 13
794.00023225702
 23
389.9998651445001
 33
0.0
 14
707.00032379046
 24
490.36200153496
 34
0.0
 50
90.0
100
AcDbRotatedDimension
1001
ACAD
1000
DSTYLE
1002
{
1070
   270
1070
     2
1070
     6
1000
EX_NORM
1070
     7
1000
EX_NORM
1070
    41
1040
7.5
1070
    42
1040
3.75
1070
    44
1040
2.5
1070
    73
1070
     0
1070
    74
1070
     0
1070
    75
1070
     0
1070
    76
1070
     0
1070
    77
1070
     1
1070
    78
1070
     8
1070
   140
1040
8.6572603926097
1070
   147
1040
0.0
1070
   173
1070
     1
1070
   176
1070
     2
1070
   177
1070
     2
1070
   178
1070
     2
1070
   271
1070
     2
1070
   277
1070
     2
1070
   279
1070
     2
1070
   280
1070
     0
1070
   287
1070
     5
1070
   340
1005
12C
1002
}
  0
TEXT
  5
187
330
1F
100
AcDbEntity
  8
S_1_1
  6
CONTINUOUS
 62
     4
100
AcDbText
 10
327.55648816048
 20
445.5502358623901
 30
0.0
 40
8.6572603926097
  1
4-M12ネジ深20
 41
0.9992307692307691
  7
EXCADTTF1
 72
     5
 11
400.68148816048
 21
445.5502358623901
 31
0.0
100
AcDbText
  0
LEADER
  5
188
330
1F
100
AcDbEntity
  8
S_1_1
  6
CONTINUOUS
 62
     2
100
AcDbLeader
  3
ISO-25
 76
     3
 10
275.3197141419084
 20
362.7750011030848
 30
0.0
 10
321.47494420789
 20
442.7182046123901
 30
0.0
 10
400.68148816048
 20
442.7182046123901
 30
0.0
1001
ACAD
1000
DSTYLE
1002
{
1070
     5
1000
EX_NORM
1070
    41
1040
7.5
1070
   341
1005
89
1002
}
  0
DIMENSION
  5
189
330
1F
100
AcDbEntity
  8
S_1_1
  6
CONTINUOUS
 62
     2
100
AcDbDimension
  2
*D22
 10
406.1994150847
 20
525.0
 30
0.0
 11
270.0000095367001
 21
531.875
 31
0.0
 70
   160
  3
ISO-25
100
AcDbAlignedDimension
 13
133.8006039887
 23
319.999999702
 33
0.0
 14
406.1994150847
 24
319.999999702
 34
0.0
100
AcDbRotatedDimension
1001
ACAD
1000
DSTYLE
1002
{
1070
   270
1070
     2
1070
     6
1000
EX_NORM
1070
     7
1000
EX_NORM
1070
    41
1040
7.5
1070
    42
1040
3.749999999999943
1070
    44
1040
2.5
1070
    73
1070
     0
1070
    74
1070
     0
1070
    75
1070
     0
1070
    76
1070
     0
1070
    77
1070
     1
1070
    78
1070
     8
1070
   140
1040
8.6572603926097
1070
   147
1040
0.0
1070
   173
1070
     1
1070
   176
1070
     2
1070
   177
1070
     2
1070
   178
1070
     2
1070
   271
1070
     2
1070
   277
1070
     2
1070
   279
1070
     2
1070
   280
1070
     0
1070
   287
1070
     5
1070
   340
1005
12C
1002
}
  0
DIMENSION
  5
196
330
1F
100
AcDbEntity
  8
S_1_1
  6
CONTINUOUS
 62
     2
100
AcDbDimension
  2
*D23
 10
186.0171356237298
 20
412.26713562373
 30
0.0
 11
173.3886408793425
 21
409.3613591206577
 31
0.0
 70
   160
  3
ISO-25
100
AcDbAlignedDimension
 13
180.19743878931
 23
361.51828996323
 33
0.0
 14
208.48171003677
 24
389.8025612106901
 34
0.0
 50
225.0000000000002
100
AcDbRotatedDimension
1001
ACAD
1000
DSTYLE
1002
{
1070
   270
1070
     2
1070
     6
1000
EX_NORM
1070
     7
1000
EX_NORM
1070
    41
1040
7.5
1070
    42
1040
3.75000000000003
1070
    44
1040
2.50000000000002
1070
    73
1070
     0
1070
    74
1070
     0
1070
    75
1070
     0
1070
    76
1070
     0
1070
    77
1070
     1
1070
    78
1070
     8
1070
   140
1040
8.6572603926097
1070
   147
1040
0.0
1070
   173
1070
     1
1070
   176
1070
     2
1070
   177
1070
     2
1070
   178
1070
     2
1070
   271
1070
     2
1070
   277
1070
     2
1070
   279
1070
     2
1070
   280
1070
     0
1070
   287
1070
     5
1070
   340
1005
12C
1002
}
  0
DIMENSION
  5
1A3
330
1F
100
AcDbEntity
  8
S_1_1
  6
CONTINUOUS
 62
     2
100
AcDbDimension
  2
*D24
 10
382.26713562373
 20
216.0171356237299
 30
0.0
 11
363.2636408793425
 21
206.7363591206575
 31
0.0
 70
   160
  3
ISO-25
100
AcDbAlignedDimension
 13
331.51828996323
 23
210.1974387893099
 33
0.0
 14
359.80256121069
 24
238.48171003677
 34
0.0
 50
224.9999999999999
100
AcDbRotatedDimension
1001
ACAD
1000
DSTYLE
1002
{
1070
   270
1070
     2
1070
     6
1000
EX_NORM
1070
     7
1000
EX_NORM
1070
    41
1040
7.5
1070
    42
1040
3.75000000000001
1070
    44
1040
2.50000000000002
1070
    73
1070
     0
1070
    74
1070
     0
1070
    75
1070
     0
1070
    76
1070
     0
1070
    77
1070
     1
1070
    78
1070
     8
1070
   140
1040
8.6572603926097
1070
   147
1040
0.0
1070
   173
1070
     1
1070
   176
1070
     2
1070
   177
1070
     2
1070
   178
1070
     2
1070
   271
1070
     2
1070
   277
1070
     2
1070
   279
1070
     2
1070
   280
1070
     0
1070
   287
1070
     5
1070
   340
1005
12C
1002
}
  0
DIMENSION
  5
1B0
330
1F
100
AcDbEntity
  8
S_1_1
  6
CONTINUOUS
 62
     2
100
AcDbDimension
  2
*D25
 10
226.5947265959363
 20
461.9906856603754
 30
0.0
 11
203.1910887551419
 21
461.2909796147122
 31
0.0
 70
   165
  3
ISO-25
100
AcDb3PointAngularDimension
 13
269.9999999999969
 23
467.7050983124836
 33
0.0
 14
151.4145877436852
 24
418.5854122563148
 34
0.0
 15
269.9999999999968
 25
300.0000000000032
 35
0.0
1001
ACAD
1000
DSTYLE
1002
{
1070
   270
1070
     2
1070
     6
1000
EX_NORM
1070
     7
1000
EX_NORM
1070
    41
1040
7.5
1070
    42
1040
0.0
1070
    44
1040
0.0
1070
    73
1070
     0
1070
    74
1070
     0
1070
    75
1070
     1
1070
    76
1070
     1
1070
    77
1070
     1
1070
    78
1070
     8
1070
    79
1070
     2
1070
   140
1040
8.6572603926097
1070
   147
1040
0.0
1070
   173
1070
     1
1070
   176
1070
     2
1070
   177
1070
     2
1070
   178
1070
     2
1070
   179
1070
     2
1070
   271
1070
     2
1070
   277
1070
     2
1070
   279
1070
     2
1070
   280
1070
     0
1070
   287
1070
     5
1070
   340
1005
12C
1002
}
  0
DIMENSION
  5
1BC
330
1F
100
AcDbEntity
  8
S_1_1
  6
CONTINUOUS
 62
     2
100
AcDbDimension
  2
*D26
 10
227.5735937610312
 20
257.5735937610314
 30
0.0
 11
355.2089301142363
 21
385.2089301142362
 31
0.0
 70
   163
  1
P.C.D 120
  3
ISO-25
100
AcDbDiametricDimension
 15
312.4264062389686
 25
342.4264062389686
 35
0.0
 40
0.0
1001
ACAD
1000
DSTYLE
1002
{
1070
   270
1070
     2
1070
     6
1000
EX_NORM
1070
     7
1000
EX_NORM
1070
    41
1040
7.5
1070
    73
1070
     0
1070
    74
1070
     0
1070
    77
1070
     1
1070
    78
1070
     8
1070
   140
1040
8.6572603926097
1070
   147
1040
1.25
1070
   173
1070
     1
1070
   176
1070
     2
1070
   177
1070
     2
1070
   178
1070
     2
1070
   271
1070
     2
1070
   277
1070
     2
1070
   279
1070
     0
1070
   280
1070
     0
1070
   287
1070
     3
1070
   340
1005
12C
1002
}
  0
ELLIPSE
  5
1C8
330
1F
100
AcDbEntity
  8
S_1_1
  6
CONTINUOUS
 62
     3
100
AcDbEllipse
 10
624.9999447659
 20
268.1237225514
 30
0.0
 11
-6.500015161931288
 21
7.960222762468416E-16
 31
0.0
210
0.0
220
0.0
230
1.0
 40
0.9396912450000002
 41
3.141586408176268
 42
6.283185307179586
  0
ELLIPSE
  5
1C9
330
1F
100
AcDbEntity
  8
S_1_1
  6
CONTINUOUS
 62
     3
100
AcDbEllipse
 10
624.9999447659
 20
265.3875928314
 30
0.0
 11
-6.500015161931288
 21
7.960222762468416E-16
 31
0.0
210
0.0
220
0.0
230
1.0
 40
0.9396868434000001
 41
0.0
 42
6.283185307179586
  0
ELLIPSE
  5
1CA
330
1F
100
AcDbEntity
  8
S_1_1
  6
CONTINUOUS
 62
     3
100
AcDbEllipse
 10
594.9999261394998
 20
268.1237225514
 30
0.0
 11
6.499996088445244
 21
0.0
 31
0.0
210
0.0
220
0.0
230
1.0
 40
0.9396940024000002
 41
0.0
 42
3.141589530883043
  0
ELLIPSE
  5
1CB
330
1F
100
AcDbEntity
  8
S_1_1
  6
CONTINUOUS
 62
     3
100
AcDbEllipse
 10
594.9999261394998
 20
265.3875928314
 30
0.0
 11
6.499996088445244
 21
0.0
 31
0.0
210
0.0
220
0.0
230
1.0
 40
0.9396896008000002
 41
0.0
 42
6.283185307179586
  0
ARC
  5
1CC
330
1F
100
AcDbEntity
  8
S_1_1
  6
CONTINUOUS
 62
     3
100
AcDbCircle
 10
604.999945064
 20
300.0
 30
0.0
 40
2.4999998137
100
AcDbArc
 50
179.9999913486001
 51
0.0000100178999922
  0
ARC
  5
1CD
330
1F
100
AcDbEntity
  8
S_1_1
  6
CONTINUOUS
 62
     3
100
AcDbCircle
 10
604.999945064
 20
300.0
 30
0.0
 40
2.0999999031
100
AcDbArc
 50
179.9999913486001
 51
0.0000100178999922
  0
ARC
  5
1CE
330
1F
100
AcDbEntity
  8
S_1_1
  6
CONTINUOUS
 62
     3
100
AcDbCircle
 10
623.4998532355999
 20
290.4999925122
 30
0.0
 40
0.5
100
AcDbArc
 50
90.00000250450003
 51
180.0000050090001
  0
ARC
  5
1CF
330
1F
100
AcDbEntity
  8
S_1_1
  6
CONTINUOUS
 62
     3
100
AcDbCircle
 10
604.999945064
 20
297.0499420606
 30
0.0
 40
18.4999999627
100
AcDbArc
 50
251.0753533055
 51
288.9246416855
  0
ARC
  5
1D0
330
1F
100
AcDbEntity
  8
S_1_1
  6
CONTINUOUS
 62
     3
100
AcDbCircle
 10
530.0005565331
 20
300.0
 30
0.0
 40
49.99999925490002
100
AcDbArc
 50
272.2391725621
 51
275.7391732287
  0
LINE
  5
1D1
330
1F
100
AcDbEntity
  8
S_1_1
  6
CONTINUOUS
 62
     3
100
AcDbLine
 10
622.0554562844
 20
266.6875653462
 30
0.0
 11
622.0554562844
 21
264.0875821697
 31
0.0
  0
LINE
  5
1D2
330
1F
100
AcDbEntity
  8
S_1_1
  6
CONTINUOUS
 62
     3
100
AcDbLine
 10
622.0554874203999
 20
264.0876129131
 30
0.0
 11
624.999975018
 21
262.3876121755
 31
0.0
  0
LINE
  5
1D3
330
1F
100
AcDbEntity
  8
S_1_1
  6
CONTINUOUS
 62
     3
100
AcDbLine
 10
624.9999156417
 20
262.3875607067
 30
0.0
 11
627.9443702030999
 21
264.0875423708
 31
0.0
  0
LINE
  5
1D4
330
1F
100
AcDbEntity
  8
S_1_1
  6
CONTINUOUS
 62
     3
100
AcDbLine
 10
627.9444332475
 20
264.0875821697
 30
0.0
 11
627.9444332475
 21
266.6875653462
 31
0.0
  0
LINE
  5
1D5
330
1F
100
AcDbEntity
  8
S_1_1
  6
CONTINUOUS
 62
     3
100
AcDbLine
 10
624.9999292175
 20
268.3875936309
 30
0.0
 11
627.9444498512999
 21
266.6875738198
 31
0.0
  0
LINE
  5
1D6
330
1F
100
AcDbEntity
  8
S_1_1
  6
CONTINUOUS
 62
     3
100
AcDbLine
 10
622.0554878073999
 20
266.6875935342
 30
0.0
 11
624.9998762963
 21
268.3875370514
 31
0.0
  0
LINE
  5
1D7
330
1F
100
AcDbEntity
  8
S_1_1
  6
CONTINUOUS
 62
     3
100
AcDbLine
 10
618.499929604
 20
268.1237225514
 30
0.0
 11
618.499929604
 21
265.3875928314
 31
0.0
  0
LINE
  5
1D8
330
1F
100
AcDbEntity
  8
S_1_1
  6
CONTINUOUS
 62
     3
100
AcDbLine
 10
631.4999599278999
 20
268.1237225514
 30
0.0
 11
631.4999599278999
 21
265.3875928314
 31
0.0
  0
LINE
  5
1D9
330
1F
100
AcDbEntity
  8
S_1_1
  6
CONTINUOUS
 62
     3
100
AcDbLine
 10
629.9999446914001
 20
260.6119733958
 30
0.0
 11
629.0524120517
 21
260.6119733958
 31
0.0
  0
LINE
  5
1DA
330
1F
100
AcDbEntity
  8
S_1_1
  6
CONTINUOUS
 62
     3
100
AcDbLine
 10
597.9443955474999
 20
266.6875653462
 30
0.0
 11
597.9443955474999
 21
264.0875821697
 31
0.0
  0
LINE
  5
1DB
330
1F
100
AcDbEntity
  8
S_1_1
  6
CONTINUOUS
 62
     3
100
AcDbLine
 10
597.9444413033
 20
264.0875799431
 30
0.0
 11
594.9999206694999
 21
262.387560132
 31
0.0
  0
LINE
  5
1DC
330
1F
100
AcDbEntity
  8
S_1_1
  6
CONTINUOUS
 62
     3
100
AcDbLine
 10
594.9999597801
 20
262.3875776492
 30
0.0
 11
592.0554721824999
 21
264.0875783868
 31
0.0
  0
LINE
  5
1DD
330
1F
100
AcDbEntity
  8
S_1_1
  6
CONTINUOUS
 62
     3
100
AcDbLine
 10
592.0555330253999
 20
264.0875821697
 30
0.0
 11
592.0555330253999
 21
266.6875653462
 31
0.0
  0
LINE
  5
1DE
330
1F
100
AcDbEntity
  8
S_1_1
  6
CONTINUOUS
 62
     3
100
AcDbLine
 10
594.9998837082001
 20
268.3875323472
 30
0.0
 11
592.0553630744
 21
266.6875125361
 31
0.0
  0
LINE
  5
1DF
330
1F
100
AcDbEntity
  8
S_1_1
  6
CONTINUOUS
 62
     3
100
AcDbLine
 10
597.9444536869999
 20
266.6875723297001
 30
0.0
 11
594.9999660894
 21
268.3875730673
 31
0.0
  0
LINE
  5
1E0
330
1F
100
AcDbEntity
  8
S_1_1
  6
CONTINUOUS
 62
     3
100
AcDbLine
 10
583.0000140563
 20
290.4999925122
 30
0.0
 11
622.9999753133
 21
290.4999925122
 31
0.0
  0
LINE
  5
1E1
330
1F
100
AcDbEntity
  8
S_1_1
  6
CONTINUOUS
 62
     3
100
AcDbLine
 10
623.4998532355999
 20
290.9999467283
 30
0.0
 11
721.9999128029999
 21
290.9999467283
 31
0.0
  0
LINE
  5
1E2
330
1F
100
AcDbEntity
  8
S_1_1
  6
CONTINUOUS
 62
     3
100
AcDbLine
 10
721.9999097629
 20
290.9999087046
 30
0.0
 11
722.9998892304
 21
291.9998882564
 31
0.0
  0
LINE
  5
1E3
330
1F
100
AcDbEntity
  8
S_1_1
  6
CONTINUOUS
 62
     3
100
AcDbLine
 10
610.9998534218
 20
288.9999772757
 30
0.0
 11
610.9998534218
 21
290.4999925122
 31
0.0
  0
LINE
  5
1E4
330
1F
100
AcDbEntity
  8
S_1_1
  6
CONTINUOUS
 62
     3
100
AcDbLine
 10
610.9998534218
 20
279.5499423213
 30
0.0
 11
610.9998534218
 21
280.0499346845
 31
0.0
  0
LINE
  5
1E5
330
1F
100
AcDbEntity
  8
S_1_1
  6
CONTINUOUS
 62
     3
100
AcDbLine
 10
598.9998841182
 20
279.5499423213
 30
0.0
 11
598.9998841182
 21
280.0499346845
 31
0.0
  0
LINE
  5
1E6
330
1F
100
AcDbEntity
  8
S_1_1
  6
CONTINUOUS
 62
     3
100
AcDbLine
 10
598.9998841182
 20
279.5499423213
 30
0.0
 11
610.9998534218
 21
279.5499423213
 31
0.0
  0
LINE
  5
1E7
330
1F
100
AcDbEntity
  8
S_1_1
  6
CONTINUOUS
 62
     3
100
AcDbLine
 10
598.9998841182
 20
288.9999772757
 30
0.0
 11
598.9998841182
 21
290.4999925122
 31
0.0
  0
LINE
  5
1E8
330
1F
100
AcDbEntity
  8
S_1_1
  6
CONTINUOUS
 62
     3
100
AcDbLine
 10
601.4999222279
 20
268.1237225514
 30
0.0
 11
601.4999222279
 21
265.3875928314
 31
0.0
  0
LINE
  5
1E9
330
1F
100
AcDbEntity
  8
S_1_1
  6
CONTINUOUS
 62
     3
100
AcDbLine
 10
588.4999300509999
 20
268.1237225514
 30
0.0
 11
588.4999300509999
 21
265.3875928314
 31
0.0
  0
LINE
  5
1EA
330
1F
100
AcDbEntity
  8
S_1_1
  6
CONTINUOUS
 62
     3
100
AcDbLine
 10
599.0523743517999
 20
260.6119733958
 30
0.0
 11
620.9475156270998
 21
260.6119733958
 31
0.0
  0
LINE
  5
1EB
330
1F
100
AcDbEntity
  8
S_1_1
  6
CONTINUOUS
 62
     3
100
AcDbLine
 10
629.9998944900999
 20
260.6119458209
 30
0.0
 11
634.9998997236
 21
265.6119514758
 31
0.0
  0
LINE
  5
1EC
330
1F
100
AcDbEntity
  8
S_1_1
  6
CONTINUOUS
 62
     3
100
AcDbLine
 10
584.9999251694001
 20
260.6119484818
 30
0.0
 11
579.9999199359
 21
265.6119541367
 31
0.0
  0
LINE
  5
1ED
330
1F
100
AcDbEntity
  8
S_1_1
  6
CONTINUOUS
 62
     3
100
AcDbLine
 10
584.999907215
 20
260.6119733958
 30
0.0
 11
590.9475542211001
 21
260.6119733958
 31
0.0
  0
LINE
  5
1EE
330
1F
100
AcDbEntity
  8
S_1_1
  6
CONTINUOUS
 62
     3
100
AcDbLine
 10
594.999945213
 20
288.9999772757
 30
0.0
 11
594.999945213
 21
279.999962151
 31
0.0
  0
LINE
  5
1EF
330
1F
100
AcDbEntity
  8
S_1_1
  6
CONTINUOUS
 62
     3
100
AcDbLine
 10
614.999944915
 20
288.9999772757
 30
0.0
 11
614.999944915
 21
279.999962151
 31
0.0
  0
LINE
  5
1F0
330
1F
100
AcDbEntity
  8
S_1_1
  6
CONTINUOUS
 62
     3
100
AcDbLine
 10
624.9999447659
 20
288.9999772757
 30
0.0
 11
624.9999447659
 21
279.999962151
 31
0.0
  0
LINE
  5
1F1
330
1F
100
AcDbEntity
  8
S_1_1
  6
CONTINUOUS
 62
     3
100
AcDbLine
 10
584.9999453620001
 20
288.9999772757
 30
0.0
 11
624.9999447659
 21
288.9999772757
 31
0.0
  0
LINE
  5
1F2
330
1F
100
AcDbEntity
  8
S_1_1
  6
CONTINUOUS
 62
     3
100
AcDbLine
 10
584.9999453620001
 20
279.999962151
 30
0.0
 11
624.9999447659
 21
279.999962151
 31
0.0
  0
LINE
  5
1F3
330
1F
100
AcDbEntity
  8
S_1_1
  6
CONTINUOUS
 62
     3
100
AcDbLine
 10
584.9999453620001
 20
288.9999772757
 30
0.0
 11
584.9999453620001
 21
279.999962151
 31
0.0
  0
LINE
  5
1F4
330
1F
100
AcDbEntity
  8
S_1_1
  6
CONTINUOUS
 62
     3
100
AcDbLine
 10
634.9999827638999
 20
290.9999467283
 30
0.0
 11
634.9999827638999
 21
265.6119923947
 31
0.0
  0
LINE
  5
1F5
330
1F
100
AcDbEntity
  8
S_1_1
  6
CONTINUOUS
 62
     3
100
AcDbLine
 10
538.0000147269
 20
240.0000962615001
 30
0.0
 11
544.999945958
 21
240.0000962615001
 31
0.0
  0
LINE
  5
1F6
330
1F
100
AcDbEntity
  8
S_1_1
  6
CONTINUOUS
 62
     3
100
AcDbLine
 10
537.9999600954001
 20
240.0001563532001
 30
0.0
 11
535.0006009152
 21
241.7322988023
 31
0.0
  0
LINE
  5
1F7
330
1F
100
AcDbEntity
  8
S_1_1
  6
CONTINUOUS
 62
     3
100
AcDbLine
 10
511.0003126756001
 20
220.0000584125
 30
0.0
 11
529.1168819247
 21
220.0000584125
 31
0.0
  0
LINE
  5
1F8
330
1F
100
AcDbEntity
  8
S_1_1
  6
CONTINUOUS
 62
     3
100
AcDbLine
 10
531.9541390924999
 20
250.0381299032
 30
0.0
 11
530.1820781964
 21
221.0651913462
 31
0.0
  0
LINE
  5
1F9
330
1F
100
AcDbEntity
  8
S_1_1
  6
CONTINUOUS
 62
     3
100
AcDbLine
 10
529.1168748962
 20
220.0000201779
 30
0.0
 11
530.1820235047
 21
221.0651688762
 31
0.0
  0
LINE
  5
1FA
330
1F
100
AcDbEntity
  8
S_1_1
  6
CONTINUOUS
 62
     3
100
AcDbLine
 10
674.9999784954
 20
389.9998472797001
 30
0.0
 11
679.9999297808998
 21
394.9997989866001
 31
0.0
  0
LINE
  5
1FB
330
1F
100
AcDbEntity
  8
S_1_1
  6
CONTINUOUS
 62
     3
100
AcDbLine
 10
654.9999124322001
 20
389.9997641717
 30
0.0
 11
649.9999139422
 21
394.9997630830999
 31
0.0
  0
LINE
  5
1FC
330
1F
100
AcDbEntity
  8
S_1_1
  6
CONTINUOUS
 62
     3
100
AcDbLine
 10
619.9999448403998
 20
403.9997848272001
 30
0.0
 11
619.9999448403998
 21
394.9998078495
 31
0.0
  0
LINE
  5
1FD
330
1F
100
AcDbEntity
  8
S_1_1
  6
CONTINUOUS
 62
     3
100
AcDbLine
 10
615.0000008307
 20
389.9998649813001
 30
0.0
 11
619.9998981681999
 21
394.9997627403
 31
0.0
  0
LINE
  5
1FE
330
1F
100
AcDbEntity
  8
S_1_1
  6
CONTINUOUS
 62
     3
100
AcDbLine
 10
648.9998547939999
 20
404.9997082779001
 30
0.0
 11
649.9998477484999
 21
403.9997153233999
 31
0.0
  0
LINE
  5
1FF
330
1F
100
AcDbEntity
  8
S_1_1
  6
CONTINUOUS
 62
     3
100
AcDbLine
 10
619.9999222728
 20
403.9997655051
 30
0.0
 11
621.0000077816001
 21
404.9998548075
 31
0.0
  0
LINE
  5
200
330
1F
100
AcDbEntity
  8
S_1_1
  6
CONTINUOUS
 62
     3
100
AcDbLine
 10
714.9999373013
 20
389.9998021039
 30
0.0
 11
709.9999320678999
 21
394.9998077588
 31
0.0
  0
LINE
  5
201
330
1F
100
AcDbEntity
  8
S_1_1
  6
CONTINUOUS
 62
     3
100
AcDbLine
 10
634.9999827638999
 20
404.9998077005
 30
0.0
 11
648.9999596671
 21
404.9998077005
 31
0.0
  0
LINE
  5
202
330
1F
100
AcDbEntity
  8
S_1_1
  6
CONTINUOUS
 62
     3
100
AcDbLine
 10
679.9999439464
 20
403.9997848272001
 30
0.0
 11
679.9999439464
 21
394.9998078495
 31
0.0
  0
LINE
  5
203
330
1F
100
AcDbEntity
  8
S_1_1
  6
CONTINUOUS
 62
     3
100
AcDbLine
 10
620.9998914198
 20
404.9998077005
 30
0.0
 11
634.9999827638999
 21
404.9998077005
 31
0.0
  0
LINE
  5
204
330
1F
100
AcDbEntity
  8
S_1_1
  6
CONTINUOUS
 62
     3
100
AcDbLine
 10
649.9999443933999
 20
403.9997848272001
 30
0.0
 11
649.9999443933999
 21
394.9998078495
 31
0.0
  0
LINE
  5
205
330
1F
100
AcDbEntity
  8
S_1_1
  6
CONTINUOUS
 62
     3
100
AcDbLine
 10
694.9999437229
 20
404.9998077005
 30
0.0
 11
708.9999587729998
 21
404.9998077005
 31
0.0
  0
LINE
  5
206
330
1F
100
AcDbEntity
  8
S_1_1
  6
CONTINUOUS
 62
     3
100
AcDbLine
 10
679.9999066812999
 20
403.9997444317001
 30
0.0
 11
680.9999382421998
 21
404.9997797860001
 31
0.0
  0
LINE
  5
207
330
1F
100
AcDbEntity
  8
S_1_1
  6
CONTINUOUS
 62
     3
100
AcDbLine
 10
708.9998906213
 20
404.9997352518999
 30
0.0
 11
709.9998835757999
 21
403.9997422974
 31
0.0
  0
LINE
  5
208
330
1F
100
AcDbEntity
  8
S_1_1
  6
CONTINUOUS
 62
     3
100
AcDbLine
 10
547.0003449521
 20
210.0000754646
 30
0.0
 11
544.9999232242
 21
212.0001920083
 31
0.0
  0
LINE
  5
209
330
1F
100
AcDbEntity
  8
S_1_1
  6
CONTINUOUS
 62
     3
100
AcDbLine
 10
709.9999434992999
 20
403.9997848272001
 30
0.0
 11
709.9999434992999
 21
394.9998078495
 31
0.0
  0
LINE
  5
20A
330
1F
100
AcDbEntity
  8
S_1_1
  6
CONTINUOUS
 62
     3
100
AcDbLine
 10
680.9999286727
 20
404.9998077005
 30
0.0
 11
694.9999437229
 21
404.9998077005
 31
0.0
  0
LINE
  5
20B
330
1F
100
AcDbEntity
  8
S_1_1
  6
CONTINUOUS
 62
     3
100
AcDbLine
 10
510.0005114672
 20
220.9995184848
 30
0.0
 11
511.0002816783001
 21
219.9999771365
 31
0.0
  0
LINE
  5
20C
330
1F
100
AcDbEntity
  8
S_1_1
  6
CONTINUOUS
 62
     3
100
AcDbLine
 10
793.9999758765
 20
209.9998785532
 30
0.0
 11
795.0
 21
210.9995975728
 31
0.0
  0
ARC
  5
20D
330
1F
100
AcDbEntity
  8
S_1_1
  6
CONTINUOUS
 62
     3
100
AcDbCircle
 10
530.0005565331
 20
300.0
 30
0.0
 40
49.99999925490002
100
AcDbArc
 50
84.26082677130006
 51
87.76082743789998
  0
LINE
  5
20E
330
1F
100
AcDbEntity
  8
S_1_1
  6
CONTINUOUS
 62
     3
100
AcDbLine
 10
538.0000147269
 20
359.9999037385
 30
0.0
 11
544.999945958
 21
359.9999037385
 31
0.0
  0
LINE
  5
20F
330
1F
100
AcDbEntity
  8
S_1_1
  6
CONTINUOUS
 62
     3
100
AcDbLine
 10
537.9999600954001
 20
359.9998436467999
 30
0.0
 11
535.0006009152
 21
358.2677011977
 31
0.0
  0
LINE
  5
210
330
1F
100
AcDbEntity
  8
S_1_1
  6
CONTINUOUS
 62
     3
100
AcDbLine
 10
511.0003126756001
 20
379.9999415875
 30
0.0
 11
529.1168819247
 21
379.9999415875
 31
0.0
  0
LINE
  5
211
330
1F
100
AcDbEntity
  8
S_1_1
  6
CONTINUOUS
 62
     3
100
AcDbLine
 10
531.9541390924999
 20
349.9618700967999
 30
0.0
 11
530.1820781964
 21
378.9348086538
 31
0.0
  0
LINE
  5
212
330
1F
100
AcDbEntity
  8
S_1_1
  6
CONTINUOUS
 62
     3
100
AcDbLine
 10
529.1168748962
 20
379.9999798221002
 30
0.0
 11
530.1820235047
 21
378.9348311238
 31
0.0
  0
LINE
  5
213
330
1F
100
AcDbEntity
  8
S_1_1
  6
CONTINUOUS
 62
     3
100
AcDbLine
 10
547.0003449521
 20
389.9999245354002
 30
0.0
 11
544.9999232242
 21
387.9998079917
 31
0.0
  0
LINE
  5
214
330
1F
100
AcDbEntity
  8
S_1_1
  6
CONTINUOUS
 62
     3
100
AcDbLine
 10
510.0005114672
 20
379.0004815152001
 30
0.0
 11
511.0002816783001
 21
380.0000228634999
 31
0.0
  0
ELLIPSE
  5
215
330
1F
100
AcDbEntity
  8
S_1_1
  6
CONTINUOUS
 62
     3
100
AcDbEllipse
 10
624.9999447659
 20
331.8762774485999
 30
0.0
 11
6.500015161931288
 21
0.0
 31
0.0
210
0.0
220
0.0
230
1.0
 40
0.9396912450000002
 41
3.141592653589793
 42
6.283191552593112
  0
ELLIPSE
  5
216
330
1F
100
AcDbEntity
  8
S_1_1
  6
CONTINUOUS
 62
     3
100
AcDbEllipse
 10
624.9999447659
 20
334.6124071685999
 30
0.0
 11
6.500015161931288
 21
0.0
 31
0.0
210
0.0
220
0.0
230
1.0
 40
0.9396868434000001
 41
0.0
 42
6.283185307179586
  0
ELLIPSE
  5
217
330
1F
100
AcDbEntity
  8
S_1_1
  6
CONTINUOUS
 62
     3
100
AcDbEllipse
 10
594.9999261394998
 20
331.8762774485999
 30
0.0
 11
-6.499996088445244
 21
7.960199404184785E-16
 31
0.0
210
0.0
220
0.0
230
1.0
 40
0.9396940024000002
 41
0.000003122706754
 42
3.141592653589793
  0
ELLIPSE
  5
218
330
1F
100
AcDbEntity
  8
S_1_1
  6
CONTINUOUS
 62
     3
100
AcDbEllipse
 10
594.9999261394998
 20
334.6124071685999
 30
0.0
 11
-6.499996088445244
 21
7.960199404184785E-16
 31
0.0
210
0.0
220
0.0
230
1.0
 40
0.9396896008000002
 41
0.0
 42
6.283185307179586
  0
ARC
  5
219
330
1F
100
AcDbEntity
  8
S_1_1
  6
CONTINUOUS
 62
     3
100
AcDbCircle
 10
623.4998532355999
 20
309.5000074878001
 30
0.0
 40
0.5
100
AcDbArc
 50
179.9999949909976
 51
269.9999974955052
  0
ARC
  5
21A
330
1F
100
AcDbEntity
  8
S_1_1
  6
CONTINUOUS
 62
     3
100
AcDbCircle
 10
604.999945064
 20
302.9500579394
 30
0.0
 40
18.4999999627
100
AcDbArc
 50
71.07535831449987
 51
108.9246466945001
  0
LINE
  5
21B
330
1F
100
AcDbEntity
  8
S_1_1
  6
CONTINUOUS
 62
     3
100
AcDbLine
 10
622.0554562844
 20
333.3124346538002
 30
0.0
 11
622.0554562844
 21
335.9124178303
 31
0.0
  0
LINE
  5
21C
330
1F
100
AcDbEntity
  8
S_1_1
  6
CONTINUOUS
 62
     3
100
AcDbLine
 10
622.0554874203999
 20
335.9123870869
 30
0.0
 11
624.999975018
 21
337.6123878245
 31
0.0
  0
LINE
  5
21D
330
1F
100
AcDbEntity
  8
S_1_1
  6
CONTINUOUS
 62
     3
100
AcDbLine
 10
624.9999156417
 20
337.6124392933002
 30
0.0
 11
627.9443702030999
 21
335.9124576292002
 31
0.0
  0
LINE
  5
21E
330
1F
100
AcDbEntity
  8
S_1_1
  6
CONTINUOUS
 62
     3
100
AcDbLine
 10
627.9444332475
 20
335.9124178303
 30
0.0
 11
627.9444332475
 21
333.3124346538002
 31
0.0
  0
LINE
  5
21F
330
1F
100
AcDbEntity
  8
S_1_1
  6
CONTINUOUS
 62
     3
100
AcDbLine
 10
624.9999292175
 20
331.6124063691
 30
0.0
 11
627.9444498512999
 21
333.3124261802
 31
0.0
  0
LINE
  5
220
330
1F
100
AcDbEntity
  8
S_1_1
  6
CONTINUOUS
 62
     3
100
AcDbLine
 10
622.0554878073999
 20
333.3124064658
 30
0.0
 11
624.9998762963
 21
331.6124629486001
 31
0.0
  0
LINE
  5
221
330
1F
100
AcDbEntity
  8
S_1_1
  6
CONTINUOUS
 62
     3
100
AcDbLine
 10
618.499929604
 20
331.8762774485999
 30
0.0
 11
618.499929604
 21
334.6124071685999
 31
0.0
  0
LINE
  5
222
330
1F
100
AcDbEntity
  8
S_1_1
  6
CONTINUOUS
 62
     3
100
AcDbLine
 10
631.4999599278999
 20
331.8762774485999
 30
0.0
 11
631.4999599278999
 21
334.6124071685999
 31
0.0
  0
LINE
  5
223
330
1F
100
AcDbEntity
  8
S_1_1
  6
CONTINUOUS
 62
     3
100
AcDbLine
 10
629.9999446914001
 20
339.3880266042001
 30
0.0
 11
629.0524120517
 21
339.3880266042001
 31
0.0
  0
LINE
  5
224
330
1F
100
AcDbEntity
  8
S_1_1
  6
CONTINUOUS
 62
     3
100
AcDbLine
 10
597.9443955474999
 20
333.3124346538002
 30
0.0
 11
597.9443955474999
 21
335.9124178303
 31
0.0
  0
LINE
  5
225
330
1F
100
AcDbEntity
  8
S_1_1
  6
CONTINUOUS
 62
     3
100
AcDbLine
 10
597.9444413033
 20
335.9124200568999
 30
0.0
 11
594.9999206694999
 21
337.6124398679999
 31
0.0
  0
LINE
  5
226
330
1F
100
AcDbEntity
  8
S_1_1
  6
CONTINUOUS
 62
     3
100
AcDbLine
 10
594.9999597801
 20
337.6124223507999
 30
0.0
 11
592.0554721824999
 21
335.9124216132
 31
0.0
  0
LINE
  5
227
330
1F
100
AcDbEntity
  8
S_1_1
  6
CONTINUOUS
 62
     3
100
AcDbLine
 10
592.0555330253999
 20
335.9124178303
 30
0.0
 11
592.0555330253999
 21
333.3124346538002
 31
0.0
  0
LINE
  5
228
330
1F
100
AcDbEntity
  8
S_1_1
  6
CONTINUOUS
 62
     3
100
AcDbLine
 10
594.9998837082001
 20
331.6124676528001
 30
0.0
 11
592.0553630744
 21
333.3124874639002
 31
0.0
  0
LINE
  5
229
330
1F
100
AcDbEntity
  8
S_1_1
  6
CONTINUOUS
 62
     3
100
AcDbLine
 10
597.9444536869999
 20
333.3124276703002
 30
0.0
 11
594.9999660894
 21
331.6124269327001
 31
0.0
  0
LINE
  5
22A
330
1F
100
AcDbEntity
  8
S_1_1
  6
CONTINUOUS
 62
     3
100
AcDbLine
 10
583.0000140563
 20
309.5000074878001
 30
0.0
 11
622.9999753133
 21
309.5000074878001
 31
0.0
  0
LINE
  5
22B
330
1F
100
AcDbEntity
  8
S_1_1
  6
CONTINUOUS
 62
     3
100
AcDbLine
 10
623.4998532355999
 20
309.0000532717
 30
0.0
 11
721.9999128029999
 21
309.0000532717
 31
0.0
  0
LINE
  5
22C
330
1F
100
AcDbEntity
  8
S_1_1
  6
CONTINUOUS
 62
     3
100
AcDbLine
 10
721.9999097629
 20
309.0000912954
 30
0.0
 11
722.9998892304
 21
308.0001117436001
 31
0.0
  0
LINE
  5
22D
330
1F
100
AcDbEntity
  8
S_1_1
  6
CONTINUOUS
 62
     3
100
AcDbLine
 10
610.9998534218
 20
311.0000227243
 30
0.0
 11
610.9998534218
 21
309.5000074878001
 31
0.0
  0
LINE
  5
22E
330
1F
100
AcDbEntity
  8
S_1_1
  6
CONTINUOUS
 62
     3
100
AcDbLine
 10
610.9998534218
 20
320.4500576787001
 30
0.0
 11
610.9998534218
 21
319.9500653155001
 31
0.0
  0
LINE
  5
22F
330
1F
100
AcDbEntity
  8
S_1_1
  6
CONTINUOUS
 62
     3
100
AcDbLine
 10
598.9998841182
 20
320.4500576787001
 30
0.0
 11
598.9998841182
 21
319.9500653155001
 31
0.0
  0
LINE
  5
230
330
1F
100
AcDbEntity
  8
S_1_1
  6
CONTINUOUS
 62
     3
100
AcDbLine
 10
598.9998841182
 20
320.4500576787001
 30
0.0
 11
610.9998534218
 21
320.4500576787001
 31
0.0
  0
LINE
  5
231
330
1F
100
AcDbEntity
  8
S_1_1
  6
CONTINUOUS
 62
     3
100
AcDbLine
 10
598.9998841182
 20
311.0000227243
 30
0.0
 11
598.9998841182
 21
309.5000074878001
 31
0.0
  0
LINE
  5
232
330
1F
100
AcDbEntity
  8
S_1_1
  6
CONTINUOUS
 62
     3
100
AcDbLine
 10
601.4999222279
 20
331.8762774485999
 30
0.0
 11
601.4999222279
 21
334.6124071685999
 31
0.0
  0
LINE
  5
233
330
1F
100
AcDbEntity
  8
S_1_1
  6
CONTINUOUS
 62
     3
100
AcDbLine
 10
588.4999300509999
 20
331.8762774485999
 30
0.0
 11
588.4999300509999
 21
334.6124071685999
 31
0.0
  0
LINE
  5
234
330
1F
100
AcDbEntity
  8
S_1_1
  6
CONTINUOUS
 62
     3
100
AcDbLine
 10
599.0523743517999
 20
339.3880266042001
 30
0.0
 11
620.9475156270998
 21
339.3880266042001
 31
0.0
  0
LINE
  5
235
330
1F
100
AcDbEntity
  8
S_1_1
  6
CONTINUOUS
 62
     3
100
AcDbLine
 10
629.9998944900999
 20
339.3880541790999
 30
0.0
 11
634.9998997236
 21
334.3880485242
 31
0.0
  0
LINE
  5
236
330
1F
100
AcDbEntity
  8
S_1_1
  6
CONTINUOUS
 62
     3
100
AcDbLine
 10
584.9999251694001
 20
339.3880515182
 30
0.0
 11
579.9999199359
 21
334.3880458633
 31
0.0
  0
LINE
  5
237
330
1F
100
AcDbEntity
  8
S_1_1
  6
CONTINUOUS
 62
     3
100
AcDbLine
 10
584.999907215
 20
339.3880266042001
 30
0.0
 11
590.9475542211001
 21
339.3880266042001
 31
0.0
  0
LINE
  5
238
330
1F
100
AcDbEntity
  8
S_1_1
  6
CONTINUOUS
 62
     3
100
AcDbLine
 10
594.999945213
 20
311.0000227243
 30
0.0
 11
594.999945213
 21
320.000037849
 31
0.0
  0
LINE
  5
239
330
1F
100
AcDbEntity
  8
S_1_1
  6
CONTINUOUS
 62
     3
100
AcDbLine
 10
614.999944915
 20
311.0000227243
 30
0.0
 11
614.999944915
 21
320.000037849
 31
0.0
  0
LINE
  5
23A
330
1F
100
AcDbEntity
  8
S_1_1
  6
CONTINUOUS
 62
     3
100
AcDbLine
 10
624.9999447659
 20
311.0000227243
 30
0.0
 11
624.9999447659
 21
320.000037849
 31
0.0
  0
LINE
  5
23B
330
1F
100
AcDbEntity
  8
S_1_1
  6
CONTINUOUS
 62
     3
100
AcDbLine
 10
584.9999453620001
 20
311.0000227243
 30
0.0
 11
624.9999447659
 21
311.0000227243
 31
0.0
  0
LINE
  5
23C
330
1F
100
AcDbEntity
  8
S_1_1
  6
CONTINUOUS
 62
     3
100
AcDbLine
 10
584.9999453620001
 20
320.000037849
 30
0.0
 11
624.9999447659
 21
320.000037849
 31
0.0
  0
LINE
  5
23D
330
1F
100
AcDbEntity
  8
S_1_1
  6
CONTINUOUS
 62
     3
100
AcDbLine
 10
584.9999453620001
 20
311.0000227243
 30
0.0
 11
584.9999453620001
 21
320.000037849
 31
0.0
  0
LINE
  5
23E
330
1F
100
AcDbEntity
  8
S_1_1
  6
CONTINUOUS
 62
     3
100
AcDbLine
 10
634.9999827638999
 20
309.0000532717
 30
0.0
 11
634.9999827638999
 21
334.3880076053001
 31
0.0
  0
ARC
  5
23F
330
1F
100
AcDbEntity
  8
S_1_1
  6
CONTINUOUS
 62
     3
100
AcDbCircle
 10
604.999945064
 20
300.0
 30
0.0
 40
2.4999998137
100
AcDbArc
 50
359.9999899820998
 51
180.0000086513999
  0
ARC
  5
240
330
1F
100
AcDbEntity
  8
S_1_1
  6
CONTINUOUS
 62
     3
100
AcDbCircle
 10
604.999945064
 20
300.0
 30
0.0
 40
2.0999999031
100
AcDbArc
 50
359.9999899821007
 51
180.0000086514008
  0
LINE
  5
241
330
1F
100
AcDbEntity
  8
S_1_1
  6
CONTINUOUS
 62
     3
100
AcDbLine
 10
793.9999758765
 20
390.0001214468003
 30
0.0
 11
795.0
 21
389.0004024272002
 31
0.0
  0
LINE
  5
242
330
1F
100
AcDbEntity
  8
S_1_1
  6
CONTINUOUS
 62
     3
100
AcDbLine
 10
795.0
 20
389.0004024272
 30
0.0
 11
795.0
 21
210.9995975728
 31
0.0
  0
LINE
  5
243
330
1F
100
AcDbEntity
  8
S_1_1
  6
CONTINUOUS
 62
     3
100
AcDbLine
 10
679.9999439464
 20
394.9998078495
 30
0.0
 11
709.9999320678999
 21
394.9998078495
 31
0.0
  0
LINE
  5
244
330
1F
100
AcDbEntity
  8
S_1_1
  6
CONTINUOUS
 62
     3
100
AcDbLine
 10
679.9999439464
 20
403.9997816969399
 30
0.0
 11
709.99984417626
 21
403.9997816969399
 31
0.0
  0
LINE
  5
245
330
1F
100
AcDbEntity
  8
S_1_1
  6
CONTINUOUS
 62
     3
100
AcDbLine
 10
619.9999222728
 20
403.9997655051
 30
0.0
 11
649.9998477484999
 21
403.9997655051
 31
0.0
  0
LINE
  5
246
330
1F
100
AcDbEntity
  8
S_1_1
  6
CONTINUOUS
 62
     3
100
AcDbLine
 10
619.9999448403998
 20
394.9998078495
 30
0.0
 11
649.9999443933999
 21
394.9998078495
 31
0.0
  0
LINE
  5
247
330
1F
100
AcDbEntity
  8
S_1_1
  6
CONTINUOUS
 62
     3
100
AcDbLine
 10
703.2648297026228
 20
410.0000716363079
 30
0.0
 11
686.7349943985688
 21
410.0000716363079
 31
0.0
  0
LINE
  5
248
330
1F
100
AcDbEntity
  8
S_1_1
  6
CONTINUOUS
 62
     3
100
AcDbLine
 10
703.3487612904609
 20
411.3619170754969
 30
0.0
 11
702.5629715945147
 21
410.0000716363079
 31
0.0
  0
LINE
  5
249
330
1F
100
AcDbEntity
  8
S_1_1
  6
CONTINUOUS
 62
     3
100
AcDbLine
 10
687.748254533704
 20
404.9998077004971
 30
0.0
 11
687.4353955810012
 21
410.0000716363079
 31
0.0
  0
LINE
  5
24A
330
1F
100
AcDbEntity
  8
S_1_1
  6
CONTINUOUS
 62
     3
100
AcDbLine
 10
702.9520340945147
 20
404.9998077004971
 30
0.0
 11
703.3487612904609
 21
411.3619170754969
 31
0.0
  0
LINE
  5
24B
330
1F
100
AcDbEntity
  8
S_1_1
  6
CONTINUOUS
 62
     3
100
AcDbLine
 10
703.2648297026228
 20
421.7241742545511
 30
0.0
 11
686.7349943985688
 21
421.7241742545511
 31
0.0
  0
LINE
  5
24C
330
1F
100
AcDbEntity
  8
S_1_1
  6
CONTINUOUS
 62
     3
100
AcDbLine
 10
702.250112641812
 20
404.9998077004971
 30
0.0
 11
702.5629715945147
 21
410.0000716363079
 31
0.0
  0
LINE
  5
24D
330
1F
100
AcDbEntity
  8
S_1_1
  6
CONTINUOUS
 62
     3
100
AcDbLine
 10
684.4996269999202
 20
411.3619170754969
 30
0.0
 11
682.8745214255958
 21
412.2995754369836
 31
0.0
  0
LINE
  5
24E
330
1F
100
AcDbEntity
  8
S_1_1
  6
CONTINUOUS
 62
     3
100
AcDbLine
 10
705.4987401755958
 20
420.3622971430646
 30
0.0
 11
707.1239090945147
 21
419.4247021261726
 31
0.0
  0
LINE
  5
24F
330
1F
100
AcDbEntity
  8
S_1_1
  6
CONTINUOUS
 62
     3
100
AcDbLine
 10
705.4987401755958
 20
411.3619170754969
 30
0.0
 11
707.1239090945147
 21
412.2995754369836
 31
0.0
  0
LINE
  5
250
330
1F
100
AcDbEntity
  8
S_1_1
  6
CONTINUOUS
 62
     3
100
AcDbLine
 10
707.1239090945147
 20
419.4247021261726
 30
0.0
 11
707.1239090945147
 21
412.2995754369836
 31
0.0
  0
LINE
  5
251
330
1F
100
AcDbEntity
  8
S_1_1
  6
CONTINUOUS
 62
     3
100
AcDbLine
 10
687.0478533512716
 20
404.9998077004971
 30
0.0
 11
686.6495425404609
 21
411.3619170754969
 31
0.0
  0
LINE
  5
252
330
1F
100
AcDbEntity
  8
S_1_1
  6
CONTINUOUS
 62
     3
100
AcDbLine
 10
687.4353955810012
 20
410.0000716363079
 30
0.0
 11
686.6495425404609
 21
411.3619170754969
 31
0.0
  0
LINE
  5
253
330
1F
100
AcDbEntity
  8
S_1_1
  6
CONTINUOUS
 62
     3
100
AcDbLine
 10
682.8745214255958
 20
419.4247021261726
 30
0.0
 11
682.8745214255958
 21
412.2995754369836
 31
0.0
  0
LINE
  5
254
330
1F
100
AcDbEntity
  8
S_1_1
  6
CONTINUOUS
 62
     3
100
AcDbLine
 10
684.4996269999202
 20
420.3622971430646
 30
0.0
 11
682.8745214255958
 21
419.4247021261726
 31
0.0
  0
LINE
  5
255
330
1F
100
AcDbEntity
  8
S_1_1
  6
CONTINUOUS
 62
     3
100
AcDbLine
 10
678.9988457499201
 20
470.3623393727944
 30
0.0
 11
710.9995214255958
 21
470.3623393727944
 31
0.0
  0
LINE
  5
256
330
1F
100
AcDbEntity
  8
S_1_1
  6
CONTINUOUS
 62
     3
100
AcDbLine
 10
679.4993313918119
 20
462.8618326160376
 30
0.0
 11
678.9988457499201
 21
463.3623182579295
 31
0.0
  0
LINE
  5
257
330
1F
100
AcDbEntity
  8
S_1_1
  6
CONTINUOUS
 62
     3
100
AcDbLine
 10
710.9995214255958
 20
470.3623393727944
 30
0.0
 11
710.9995214255958
 21
463.3623182579295
 31
0.0
  0
LINE
  5
258
330
1F
100
AcDbEntity
  8
S_1_1
  6
CONTINUOUS
 62
     3
100
AcDbLine
 10
710.9995214255958
 20
463.3623182579295
 30
0.0
 11
696.749331391812
 21
463.3623182579295
 31
0.0
  0
LINE
  5
259
330
1F
100
AcDbEntity
  8
S_1_1
  6
CONTINUOUS
 62
     3
100
AcDbLine
 10
710.9995214255958
 20
479.361895960632
 30
0.0
 11
678.9988457499201
 21
479.361895960632
 31
0.0
  0
LINE
  5
25A
330
1F
100
AcDbEntity
  8
S_1_1
  6
CONTINUOUS
 62
     3
100
AcDbLine
 10
678.9988457499201
 20
470.3623393727944
 30
0.0
 11
678.9988457499201
 21
463.3623182579295
 31
0.0
  0
LINE
  5
25B
330
1F
100
AcDbEntity
  8
S_1_1
  6
CONTINUOUS
 62
     3
100
AcDbLine
 10
682.9996903445148
 20
455.3621493390106
 30
0.0
 11
682.9996903445148
 21
440.3619909775239
 31
0.0
  0
LINE
  5
25C
330
1F
100
AcDbEntity
  8
S_1_1
  6
CONTINUOUS
 62
     3
100
AcDbLine
 10
710.9995214255958
 20
486.8624027173887
 30
0.0
 11
710.9995214255958
 21
479.361895960632
 31
0.0
  0
LINE
  5
25D
330
1F
100
AcDbEntity
  8
S_1_1
  6
CONTINUOUS
 62
     3
100
AcDbLine
 10
707.9996481147851
 20
489.8623393727944
 30
0.0
 11
710.9995214255958
 21
486.8624027173887
 31
0.0
  0
LINE
  5
25E
330
1F
100
AcDbEntity
  8
S_1_1
  6
CONTINUOUS
 62
     3
100
AcDbLine
 10
682.0002393310014
 20
489.8623393727944
 30
0.0
 11
678.9988457499201
 21
486.8624027173887
 31
0.0
  0
LINE
  5
25F
330
1F
100
AcDbEntity
  8
S_1_1
  6
CONTINUOUS
 62
     3
100
AcDbLine
 10
678.9988457499201
 20
486.8624027173887
 30
0.0
 11
678.9988457499201
 21
479.361895960632
 31
0.0
  0
LINE
  5
260
330
1F
100
AcDbEntity
  8
S_1_1
  6
CONTINUOUS
 62
     3
100
AcDbLine
 10
679.4993313918119
 20
478.8622337984698
 30
0.0
 11
678.9988457499201
 21
479.361895960632
 31
0.0
  0
LINE
  5
261
330
1F
100
AcDbEntity
  8
S_1_1
  6
CONTINUOUS
 62
     3
100
AcDbLine
 10
679.4993313918119
 20
470.8620648795509
 30
0.0
 11
678.9988457499201
 21
470.3623393727944
 31
0.0
  0
LINE
  5
262
330
1F
100
AcDbEntity
  8
S_1_1
  6
CONTINUOUS
 62
     3
100
AcDbLine
 10
707.9996481147851
 20
489.8623393727944
 30
0.0
 11
682.0002393310014
 21
489.8623393727944
 31
0.0
  0
LINE
  5
263
330
1F
100
AcDbEntity
  8
S_1_1
  6
CONTINUOUS
 62
     3
100
AcDbLine
 10
710.9995214255958
 20
470.3623393727944
 30
0.0
 11
710.499035783704
 21
470.8620648795509
 31
0.0
  0
LINE
  5
264
330
1F
100
AcDbEntity
  8
S_1_1
  6
CONTINUOUS
 62
     3
100
AcDbLine
 10
707.0003237904607
 20
455.3621493390106
 30
0.0
 11
707.0003237904607
 21
440.3619909775239
 31
0.0
  0
LINE
  5
265
330
1F
100
AcDbEntity
  8
S_1_1
  6
CONTINUOUS
 62
     3
100
AcDbLine
 10
710.000133756677
 20
461.8623816025238
 30
0.0
 11
707.9996481147851
 21
461.8623816025238
 31
0.0
  0
LINE
  5
266
330
1F
100
AcDbEntity
  8
S_1_1
  6
CONTINUOUS
 62
     3
100
AcDbLine
 10
682.0002393310014
 20
461.8623816025238
 30
0.0
 11
679.9998170337041
 21
461.8623816025238
 31
0.0
  0
LINE
  5
267
330
1F
100
AcDbEntity
  8
S_1_1
  6
CONTINUOUS
 62
     3
100
AcDbLine
 10
710.9995214255958
 20
463.3623182579295
 30
0.0
 11
710.499035783704
 21
462.8618326160376
 31
0.0
  0
LINE
  5
268
330
1F
100
AcDbEntity
  8
S_1_1
  6
CONTINUOUS
 62
     3
100
AcDbLine
 10
710.000133756677
 20
459.8620226498215
 30
0.0
 11
707.9996481147851
 21
459.8620226498215
 31
0.0
  0
LINE
  5
269
330
1F
100
AcDbEntity
  8
S_1_1
  6
CONTINUOUS
 62
     3
100
AcDbLine
 10
710.499035783704
 20
461.361895960632
 30
0.0
 11
710.499035783704
 21
460.3624449471185
 31
0.0
  0
LINE
  5
26A
330
1F
100
AcDbEntity
  8
S_1_1
  6
CONTINUOUS
 62
     3
100
AcDbLine
 10
679.4993313918119
 20
461.361895960632
 30
0.0
 11
679.4993313918119
 21
460.3624449471185
 31
0.0
  0
LINE
  5
26B
330
1F
100
AcDbEntity
  8
S_1_1
  6
CONTINUOUS
 62
     3
100
AcDbLine
 10
710.9995214255958
 20
479.361895960632
 30
0.0
 11
710.499035783704
 21
478.8622337984698
 31
0.0
  0
LINE
  5
26C
330
1F
100
AcDbEntity
  8
S_1_1
  6
CONTINUOUS
 62
     3
100
AcDbLine
 10
710.9995214255958
 20
486.8624027173887
 30
0.0
 11
678.9988457499201
 21
486.8624027173887
 31
0.0
  0
LINE
  5
26D
330
1F
100
AcDbEntity
  8
S_1_1
  6
CONTINUOUS
 62
     3
100
AcDbLine
 10
696.8546734526229
 20
463.3623182579295
 30
0.0
 11
696.749331391812
 21
463.5439272106323
 31
0.0
  0
LINE
  5
26E
330
1F
100
AcDbEntity
  8
S_1_1
  6
CONTINUOUS
 62
     3
100
AcDbLine
 10
705.4987401755958
 20
420.3622971430646
 30
0.0
 11
684.4996269999202
 21
420.3622971430646
 31
0.0
  0
LINE
  5
26F
330
1F
100
AcDbEntity
  8
S_1_1
  6
CONTINUOUS
 62
     3
100
AcDbLine
 10
688.9368525066769
 20
419.4247021261726
 30
0.0
 11
688.9368525066769
 21
412.2995754369836
 31
0.0
  0
LINE
  5
270
330
1F
100
AcDbEntity
  8
S_1_1
  6
CONTINUOUS
 62
     3
100
AcDbLine
 10
701.0615146688391
 20
419.4247021261726
 30
0.0
 11
701.0615146688391
 21
412.2995754369836
 31
0.0
  0
LINE
  5
271
330
1F
100
AcDbEntity
  8
S_1_1
  6
CONTINUOUS
 62
     3
100
AcDbLine
 10
705.4987401755958
 20
411.3619170754969
 30
0.0
 11
684.4996269999202
 21
411.3619170754969
 31
0.0
  0
LINE
  5
272
330
1F
100
AcDbEntity
  8
S_1_1
  6
CONTINUOUS
 62
     3
100
AcDbLine
 10
682.9996903445148
 20
490.3620015349566
 30
0.0
 11
682.9996903445148
 21
489.8623393727944
 31
0.0
  0
LINE
  5
273
330
1F
100
AcDbEntity
  8
S_1_1
  6
CONTINUOUS
 62
     3
100
AcDbLine
 10
707.9996481147851
 20
439.7845099809024
 30
0.0
 11
707.9996481147851
 21
428.4395881059022
 31
0.0
  0
LINE
  5
274
330
1F
100
AcDbEntity
  8
S_1_1
  6
CONTINUOUS
 62
     3
100
AcDbLine
 10
702.8802646688391
 20
427.8620120923888
 30
0.0
 11
703.3487612904609
 21
420.3622971430646
 31
0.0
  0
LINE
  5
275
330
1F
100
AcDbEntity
  8
S_1_1
  6
CONTINUOUS
 62
     3
100
AcDbLine
 10
707.0003237904607
 20
490.3620015349566
 30
0.0
 11
707.0003237904607
 21
489.8623393727944
 31
0.0
  0
LINE
  5
276
330
1F
100
AcDbEntity
  8
S_1_1
  6
CONTINUOUS
 62
     3
100
AcDbLine
 10
707.9996481147851
 20
462.8618326160376
 30
0.0
 11
707.9996481147851
 21
455.939725352524
 31
0.0
  0
LINE
  5
277
330
1F
100
AcDbEntity
  8
S_1_1
  6
CONTINUOUS
 62
     3
100
AcDbLine
 10
682.0002393310014
 20
462.8618326160376
 30
0.0
 11
682.0002393310014
 21
455.939725352524
 31
0.0
  0
LINE
  5
278
330
1F
100
AcDbEntity
  8
S_1_1
  6
CONTINUOUS
 62
     3
100
AcDbLine
 10
687.8199606147851
 20
427.8620120923888
 30
0.0
 11
687.4353955810012
 21
421.7241742545511
 31
0.0
  0
LINE
  5
279
330
1F
100
AcDbEntity
  8
S_1_1
  6
CONTINUOUS
 62
     3
100
AcDbLine
 10
707.0003237904607
 20
455.3621493390106
 30
0.0
 11
682.9996903445148
 21
455.3621493390106
 31
0.0
  0
LINE
  5
27A
330
1F
100
AcDbEntity
  8
S_1_1
  6
CONTINUOUS
 62
     3
100
AcDbLine
 10
710.499035783704
 20
462.8618326160376
 30
0.0
 11
696.749331391812
 21
462.8618326160376
 31
0.0
  0
LINE
  5
27B
330
1F
100
AcDbEntity
  8
S_1_1
  6
CONTINUOUS
 62
     3
100
AcDbLine
 10
687.4353955810012
 20
421.7241742545511
 30
0.0
 11
686.6495425404609
 21
420.3622971430646
 31
0.0
  0
LINE
  5
27C
330
1F
100
AcDbEntity
  8
S_1_1
  6
CONTINUOUS
 62
     3
100
AcDbLine
 10
702.1799901755959
 20
427.8620120923888
 30
0.0
 11
702.5629715945147
 21
421.7241742545511
 31
0.0
  0
LINE
  5
27D
330
1F
100
AcDbEntity
  8
S_1_1
  6
CONTINUOUS
 62
     3
100
AcDbLine
 10
703.3487612904609
 20
420.3622971430646
 30
0.0
 11
702.5629715945147
 21
421.7241742545511
 31
0.0
  0
LINE
  5
27E
330
1F
100
AcDbEntity
  8
S_1_1
  6
CONTINUOUS
 62
     3
100
AcDbLine
 10
687.1179758174876
 20
427.8620120923888
 30
0.0
 11
686.6495425404609
 21
420.3622971430646
 31
0.0
  0
LINE
  5
27F
330
1F
100
AcDbEntity
  8
S_1_1
  6
CONTINUOUS
 62
     3
100
AcDbLine
 10
707.0003237904607
 20
490.3620015349566
 30
0.0
 11
682.9996903445148
 21
490.3620015349566
 31
0.0
  0
LINE
  5
280
330
1F
100
AcDbEntity
  8
S_1_1
  6
CONTINUOUS
 62
     3
100
AcDbLine
 10
707.0003237904607
 20
440.3619909775239
 30
0.0
 11
682.9996903445148
 21
440.3619909775239
 31
0.0
  0
LINE
  5
281
330
1F
100
AcDbEntity
  8
S_1_1
  6
CONTINUOUS
 62
     3
100
AcDbLine
 10
682.9996903445148
 20
440.3619909775239
 30
0.0
 11
682.0002393310014
 21
439.7845099809024
 31
0.0
  0
LINE
  5
282
330
1F
100
AcDbEntity
  8
S_1_1
  6
CONTINUOUS
 62
     3
100
AcDbLine
 10
707.0003237904607
 20
427.8620120923888
 30
0.0
 11
682.9996903445148
 21
427.8620120923888
 31
0.0
  0
LINE
  5
283
330
1F
100
AcDbEntity
  8
S_1_1
  6
CONTINUOUS
 62
     3
100
AcDbLine
 10
707.9996481147851
 20
439.7845099809024
 30
0.0
 11
707.0003237904607
 21
440.3619909775239
 31
0.0
  0
LINE
  5
284
330
1F
100
AcDbEntity
  8
S_1_1
  6
CONTINUOUS
 62
     3
100
AcDbLine
 10
689.9988879796499
 20
439.7845099809024
 30
0.0
 11
682.0002393310014
 21
439.7845099809024
 31
0.0
  0
LINE
  5
285
330
1F
100
AcDbEntity
  8
S_1_1
  6
CONTINUOUS
 62
     3
100
AcDbLine
 10
689.9988879796499
 20
428.4395881059022
 30
0.0
 11
682.0002393310014
 21
428.4395881059022
 31
0.0
  0
LINE
  5
286
330
1F
100
AcDbEntity
  8
S_1_1
  6
CONTINUOUS
 62
     3
100
AcDbLine
 10
707.9996481147851
 20
428.4395881059022
 30
0.0
 11
707.0003237904607
 21
427.8620120923888
 31
0.0
  0
LINE
  5
287
330
1F
100
AcDbEntity
  8
S_1_1
  6
CONTINUOUS
 62
     3
100
AcDbLine
 10
679.4993313918119
 20
478.8622337984698
 30
0.0
 11
679.4993313918119
 21
470.8620648795509
 31
0.0
  0
LINE
  5
288
330
1F
100
AcDbEntity
  8
S_1_1
  6
CONTINUOUS
 62
     3
100
AcDbLine
 10
710.499035783704
 20
470.8620648795509
 30
0.0
 11
679.4993313918119
 21
470.8620648795509
 31
0.0
  0
LINE
  5
289
330
1F
100
AcDbEntity
  8
S_1_1
  6
CONTINUOUS
 62
     3
100
AcDbLine
 10
710.499035783704
 20
478.8622337984698
 30
0.0
 11
679.4993313918119
 21
478.8622337984698
 31
0.0
  0
LINE
  5
28A
330
1F
100
AcDbEntity
  8
S_1_1
  6
CONTINUOUS
 62
     3
100
AcDbLine
 10
710.499035783704
 20
478.8622337984698
 30
0.0
 11
710.499035783704
 21
470.8620648795509
 31
0.0
  0
LINE
  5
28B
330
1F
100
AcDbEntity
  8
S_1_1
  6
CONTINUOUS
 62
     3
100
AcDbLine
 10
707.9996481147851
 20
455.939725352524
 30
0.0
 11
682.0002393310014
 21
455.939725352524
 31
0.0
  0
LINE
  5
28C
330
1F
100
AcDbEntity
  8
S_1_1
  6
CONTINUOUS
 62
     3
100
AcDbLine
 10
707.9996481147851
 20
455.939725352524
 30
0.0
 11
707.0003237904607
 21
455.3621493390106
 31
0.0
  0
LINE
  5
28D
330
1F
100
AcDbEntity
  8
S_1_1
  6
CONTINUOUS
 62
     3
100
AcDbLine
 10
682.9996903445148
 20
455.3621493390106
 30
0.0
 11
682.0002393310014
 21
455.939725352524
 31
0.0
  0
LINE
  5
28E
330
1F
100
AcDbEntity
  8
S_1_1
  6
CONTINUOUS
 62
     3
100
AcDbLine
 10
707.9996481147851
 20
439.7845099809024
 30
0.0
 11
699.9995425404607
 21
439.7845099809024
 31
0.0
  0
LINE
  5
28F
330
1F
100
AcDbEntity
  8
S_1_1
  6
CONTINUOUS
 62
     3
100
AcDbLine
 10
707.9996481147851
 20
428.4395881059022
 30
0.0
 11
699.9995425404607
 21
428.4395881059022
 31
0.0
  0
LINE
  5
290
330
1F
100
AcDbEntity
  8
S_1_1
  6
CONTINUOUS
 62
     3
100
AcDbLine
 10
710.499035783704
 20
460.3624449471185
 30
0.0
 11
710.000133756677
 21
459.8620226498215
 31
0.0
  0
LINE
  5
291
330
1F
100
AcDbEntity
  8
S_1_1
  6
CONTINUOUS
 62
     3
100
AcDbLine
 10
693.249035783704
 20
463.3623182579295
 30
0.0
 11
678.9988457499201
 21
463.3623182579295
 31
0.0
  0
LINE
  5
292
330
1F
100
AcDbEntity
  8
S_1_1
  6
CONTINUOUS
 62
     3
100
AcDbLine
 10
682.0002393310014
 20
439.7845099809024
 30
0.0
 11
682.0002393310014
 21
428.4395881059022
 31
0.0
  0
LINE
  5
293
330
1F
100
AcDbEntity
  8
S_1_1
  6
CONTINUOUS
 62
     3
100
AcDbLine
 10
696.749331391812
 20
466.3622549133348
 30
0.0
 11
693.249035783704
 21
466.3622549133348
 31
0.0
  0
LINE
  5
294
330
1F
100
AcDbEntity
  8
S_1_1
  6
CONTINUOUS
 62
     3
100
AcDbLine
 10
693.249035783704
 20
462.8618326160376
 30
0.0
 11
679.4993313918119
 21
462.8618326160376
 31
0.0
  0
LINE
  5
295
330
1F
100
AcDbEntity
  8
S_1_1
  6
CONTINUOUS
 62
     3
100
AcDbLine
 10
693.249035783704
 20
463.5439272106323
 30
0.0
 11
693.1452773377581
 21
463.3623182579295
 31
0.0
  0
LINE
  5
296
330
1F
100
AcDbEntity
  8
S_1_1
  6
CONTINUOUS
 62
     3
100
AcDbLine
 10
710.499035783704
 20
461.361895960632
 30
0.0
 11
710.000133756677
 21
461.8623816025238
 31
0.0
  0
LINE
  5
297
330
1F
100
AcDbEntity
  8
S_1_1
  6
CONTINUOUS
 62
     3
100
AcDbLine
 10
682.0002393310014
 20
459.8620226498215
 30
0.0
 11
679.9998170337041
 21
459.8620226498215
 31
0.0
  0
LINE
  5
298
330
1F
100
AcDbEntity
  8
S_1_1
  6
CONTINUOUS
 62
     3
100
AcDbLine
 10
693.249035783704
 20
466.3622549133348
 30
0.0
 11
693.249035783704
 21
462.8618326160376
 31
0.0
  0
LINE
  5
299
330
1F
100
AcDbEntity
  8
S_1_1
  6
CONTINUOUS
 62
     3
100
AcDbLine
 10
696.749331391812
 20
466.3622549133348
 30
0.0
 11
696.749331391812
 21
462.8618326160376
 31
0.0
  0
LINE
  5
29A
330
1F
100
AcDbEntity
  8
S_1_1
  6
CONTINUOUS
 62
     3
100
AcDbLine
 10
679.9998170337041
 20
461.8623816025238
 30
0.0
 11
679.4993313918119
 21
461.361895960632
 31
0.0
  0
LINE
  5
29B
330
1F
100
AcDbEntity
  8
S_1_1
  6
CONTINUOUS
 62
     3
100
AcDbLine
 10
689.9988879796499
 20
439.7845099809024
 30
0.0
 11
689.9988879796499
 21
428.4395881059022
 31
0.0
  0
LINE
  5
29C
330
1F
100
AcDbEntity
  8
S_1_1
  6
CONTINUOUS
 62
     3
100
AcDbLine
 10
682.9996903445148
 20
427.8620120923888
 30
0.0
 11
682.0002393310014
 21
428.4395881059022
 31
0.0
  0
LINE
  5
29D
330
1F
100
AcDbEntity
  8
S_1_1
  6
CONTINUOUS
 62
     3
100
AcDbLine
 10
679.9998170337041
 20
459.8620226498215
 30
0.0
 11
679.4993313918119
 21
460.3624449471185
 31
0.0
  0
LINE
  5
29E
330
1F
100
AcDbEntity
  8
S_1_1
  6
CONTINUOUS
 62
     3
100
AcDbLine
 10
699.9995425404607
 20
439.7845099809024
 30
0.0
 11
699.9995425404607
 21
428.4395881059022
 31
0.0
  0
ARC
  5
29F
330
1F
100
AcDbEntity
  8
S_1_1
  6
CONTINUOUS
 62
     3
100
AcDbCircle
 10
694.999183587758
 20
418.4229390349565
 30
0.0
 40
21.93943992820946
100
AcDbArc
 50
76.82650756835928
 51
103.1734771728514
  0
ARC
  5
2A0
330
1F
100
AcDbEntity
  8
S_1_1
  6
CONTINUOUS
 62
     3
100
AcDbCircle
 10
704.0934403445148
 20
416.729231264686
 30
0.0
 40
5.367245400918497
100
AcDbArc
 50
235.6158447265621
 51
304.3841247558591
  0
ARC
  5
2A1
330
1F
100
AcDbEntity
  8
S_1_1
  6
CONTINUOUS
 62
     3
100
AcDbCircle
 10
694.999183587758
 20
449.8018241700916
 30
0.0
 40
21.93943992820946
100
AcDbArc
 50
256.8265380859373
 51
283.1735229492186
  0
ARC
  5
2A2
330
1F
100
AcDbEntity
  8
S_1_1
  6
CONTINUOUS
 62
     3
100
AcDbCircle
 10
704.0934403445148
 20
414.9950462984698
 30
0.0
 40
5.367245400918497
100
AcDbArc
 50
55.61592102050718
 51
124.3842010498047
  0
ARC
  5
2A3
330
1F
100
AcDbEntity
  8
S_1_1
  6
CONTINUOUS
 62
     3
100
AcDbCircle
 10
694.999183587758
 20
431.4241953694159
 30
0.0
 40
20.06219515413851
100
AcDbArc
 50
252.4121246337888
 51
287.5880126953121
  0
ARC
  5
2A4
330
1F
100
AcDbEntity
  8
S_1_1
  6
CONTINUOUS
 62
     3
100
AcDbCircle
 10
694.999183587758
 20
400.3000821937403
 30
0.0
 40
20.06219515413851
100
AcDbArc
 50
72.41204833984351
 51
107.5879364013673
  0
ARC
  5
2A5
330
1F
100
AcDbEntity
  8
S_1_1
  6
CONTINUOUS
 62
     3
100
AcDbCircle
 10
685.9065104458663
 20
416.729231264686
 30
0.0
 40
5.367245400918497
100
AcDbArc
 50
235.6159210205072
 51
304.3842163085933
  0
ARC
  5
2A6
330
1F
100
AcDbEntity
  8
S_1_1
  6
CONTINUOUS
 62
     3
100
AcDbCircle
 10
685.9065104458663
 20
414.9950462984698
 30
0.0
 40
5.367245400918497
100
AcDbArc
 50
55.6158294677732
 51
124.3841247558591
  0
LINE
  5
2A7
330
1F
100
AcDbEntity
  8
S_1_1
  6
EXLTYPE2
 62
     1
100
AcDbLine
 10
632.6261729848
 20
265.3875928314
 30
0.0
 11
616.6858121994001
 21
265.3875928314
 31
0.0
  0
LINE
  5
2A8
330
1F
100
AcDbEntity
  8
S_1_1
  6
EXLTYPE2
 62
     1
100
AcDbLine
 10
624.9999829128999
 20
275.6983951375
 30
0.0
 11
624.9999829128999
 21
256.2349707449
 31
0.0
  0
LINE
  5
2A9
330
1F
100
AcDbEntity
  8
S_1_1
  6
EXLTYPE2
 62
     1
100
AcDbLine
 10
587.3737169941
 20
265.3875928314
 30
0.0
 11
603.3140777794999
 21
265.3875928314
 31
0.0
  0
LINE
  5
2AA
330
1F
100
AcDbEntity
  8
S_1_1
  6
EXLTYPE2
 62
     1
100
AcDbLine
 10
594.999945213
 20
275.6983951375
 30
0.0
 11
594.999945213
 21
256.2349707449
 31
0.0
  0
LINE
  5
2AB
330
1F
100
AcDbEntity
  8
S_1_1
  6
EXLTYPE2
 62
     1
100
AcDbLine
 10
604.999945064
 20
300.0
 30
0.0
 11
604.999945064
 21
275.4392246091001
 31
0.0
  0
LINE
  5
2AC
330
1F
100
AcDbEntity
  8
S_1_1
  6
EXLTYPE2
 62
     1
100
AcDbLine
 10
506.8007888124001
 20
239.9998673797
 30
0.0
 11
532.5089106826999
 21
239.9998673797
 31
0.0
  0
LINE
  5
2AD
330
1F
100
AcDbEntity
  8
S_1_1
  6
EXLTYPE2
 62
     1
100
AcDbLine
 10
506.8007888124001
 20
360.0001326203001
 30
0.0
 11
532.5089106826999
 21
360.0001326203001
 31
0.0
  0
LINE
  5
2AE
330
1F
100
AcDbEntity
  8
S_1_1
  6
EXLTYPE2
 62
     1
100
AcDbLine
 10
500.7044067621
 20
300.0
 30
0.0
 11
808.1939117627002
 21
300.0000000000001
 31
0.0
  0
LINE
  5
2AF
330
1F
100
AcDbEntity
  8
S_1_1
  6
EXLTYPE2
 62
     1
100
AcDbLine
 10
632.6261729848
 20
334.6124071685999
 30
0.0
 11
616.6858121994001
 21
334.6124071685999
 31
0.0
  0
LINE
  5
2B0
330
1F
100
AcDbEntity
  8
S_1_1
  6
EXLTYPE2
 62
     1
100
AcDbLine
 10
624.9999829128999
 20
324.3016048625001
 30
0.0
 11
624.9999829128999
 21
343.7650292551002
 31
0.0
  0
LINE
  5
2B1
330
1F
100
AcDbEntity
  8
S_1_1
  6
EXLTYPE2
 62
     1
100
AcDbLine
 10
587.3737169941
 20
334.6124071685999
 30
0.0
 11
603.3140777794999
 21
334.6124071685999
 31
0.0
  0
LINE
  5
2B2
330
1F
100
AcDbEntity
  8
S_1_1
  6
EXLTYPE2
 62
     1
100
AcDbLine
 10
594.999945213
 20
324.3016048625001
 30
0.0
 11
594.999945213
 21
343.7650292551002
 31
0.0
  0
LINE
  5
2B3
330
1F
100
AcDbEntity
  8
S_1_1
  6
EXLTYPE2
 62
     1
100
AcDbLine
 10
604.999945064
 20
300.0
 30
0.0
 11
604.999945064
 21
324.5607753909001
 31
0.0
  0
LINE
  5
2B4
330
1F
100
AcDbEntity
  8
S_1_1
  6
EXLTYPE2
 62
     1
100
AcDbLine
 10
694.999183587758
 20
493.3293157241455
 30
0.0
 11
694.999183587758
 21
381.9003144572538
 31
0.0
  0
LINE
  5
2B5
330
1F
100
AcDbEntity
  8
S_1_1
  6
CONTINUOUS
 62
     3
100
AcDbLine
 10
510.0005949781
 20
220.9995184848001
 30
0.0
 11
510.0005949781
 21
379.0004336983002
 31
0.0
  0
LINE
  5
2B6
330
1F
100
AcDbEntity
  8
S_1_1
  6
CONTINUOUS
 62
     3
100
AcDbLine
 10
511.0003126756001
 20
220.0000584125
 30
0.0
 11
511.0003126756001
 21
379.9999415875
 31
0.0
  0
LINE
  5
2B7
330
1F
100
AcDbEntity
  8
S_1_1
  6
CONTINUOUS
 62
     3
100
AcDbLine
 10
529.1168819247
 20
220.0000584125
 30
0.0
 11
529.1168819247
 21
379.9999415875
 31
0.0
  0
LINE
  5
2B8
330
1F
100
AcDbEntity
  8
S_1_1
  6
CONTINUOUS
 62
     3
100
AcDbLine
 10
530.1820216792999
 20
221.0642672998146
 30
0.0
 11
530.1820216792999
 21
378.9347636858001
 31
0.0
  0
LINE
  5
2B9
330
1F
100
AcDbEntity
  8
S_1_1
  6
CONTINUOUS
 62
     3
100
AcDbLine
 10
531.9541011207
 20
250.0381786857779
 30
0.0
 11
531.9541011207
 21
349.9618332094001
 31
0.0
  0
LINE
  5
2BA
330
1F
100
AcDbEntity
  8
S_1_1
  6
CONTINUOUS
 62
     3
100
AcDbLine
 10
535.0005946055999
 20
358.2677069565001
 30
0.0
 11
535.0005946055999
 21
241.7323024461203
 31
0.0
  0
LINE
  5
2BB
330
1F
100
AcDbEntity
  8
S_1_1
  6
CONTINUOUS
 62
     3
100
AcDbLine
 10
538.0000147269
 20
240.0000962615001
 30
0.0
 11
538.0000147269
 21
359.9999037385
 31
0.0
  0
LINE
  5
2BC
330
1F
100
AcDbEntity
  8
S_1_1
  6
CONTINUOUS
 62
     3
100
AcDbLine
 10
544.999945958
 20
387.9997621775001
 30
0.0
 11
544.999945958
 21
212.00016927797
 31
0.0
  0
LINE
  5
2BD
330
1F
100
AcDbEntity
  8
S_1_1
  6
CONTINUOUS
 62
     3
100
AcDbLine
 10
547.0003731743
 20
210.0001348554999
 30
0.0
 11
547.0003731743
 21
389.9998651445001
 31
0.0
  0
LINE
  5
2BE
330
1F
100
AcDbEntity
  8
S_1_1
  6
CONTINUOUS
 62
     3
100
AcDbLine
 10
794.0000338004
 20
210.0001348554999
 30
0.0
 11
794.0000338004
 21
390.0001893938002
 31
0.0
  0
LINE
  5
2BF
330
1F
100
AcDbEntity
  8
S_1_1
  6
CONTINUOUS
 62
     3
100
AcDbLine
 10
579.9999454365001
 20
265.6119286360978
 30
0.0
 11
579.9999454365001
 21
334.3880076053001
 31
0.0
  0
LINE
  5
2C0
330
1F
100
AcDbEntity
  8
S_1_1
  6
CONTINUOUS
 62
     3
100
AcDbLine
 10
583.0000140563
 20
309.5000074878001
 30
0.0
 11
583.0000140563
 21
290.4999925122
 31
0.0
  0
LINE
  5
2C1
330
1F
100
AcDbEntity
  8
S_1_1
  6
CONTINUOUS
 62
     3
100
AcDbLine
 10
622.9999753133
 20
309.5000074878001
 30
0.0
 11
622.9999753133
 21
290.4999925122
 31
0.0
  0
LINE
  5
2C2
330
1F
100
AcDbEntity
  8
S_1_1
  6
CONTINUOUS
 62
     3
100
AcDbLine
 10
721.9999128029999
 20
309.0000532717
 30
0.0
 11
721.9999128029999
 21
290.9999467283
 31
0.0
  0
LINE
  5
2C3
330
1F
100
AcDbEntity
  8
S_1_1
  6
CONTINUOUS
 62
     3
100
AcDbLine
 10
722.9999738232
 20
308.0000685453
 30
0.0
 11
722.9999738232
 21
291.9998882564
 31
0.0
  0
ARC
  5
2C4
330
1F
100
AcDbEntity
  8
S_1_1
  6
CONTINUOUS
 62
     3
100
AcDbCircle
 10
270.0
 20
300.0
 30
0.0
 40
63.00000096860001
100
AcDbArc
 50
274.8438105605001
 51
355.1561813854
  0
ARC
  5
2C5
330
1F
100
AcDbEntity
  8
S_1_1
  6
CONTINUOUS
 62
     3
100
AcDbCircle
 10
270.0
 20
300.0
 30
0.0
 40
63.00000096860001
100
AcDbArc
 50
4.843818614599984
 51
85.1561826093
  0
ARC
  5
2C6
330
1F
100
AcDbEntity
  8
S_1_1
  6
CONTINUOUS
 62
     3
100
AcDbCircle
 10
270.0
 20
300.0
 30
0.0
 40
63.00000096860001
100
AcDbArc
 50
94.84381556950001
 51
175.1561851137
  0
ARC
  5
2C7
330
1F
100
AcDbEntity
  8
S_1_1
  6
CONTINUOUS
 62
     3
100
AcDbCircle
 10
270.0
 20
300.0
 30
0.0
 40
63.00000096860001
100
AcDbArc
 50
184.8438148863002
 51
265.1561912607001
  0
CIRCLE
  5
2C8
330
1F
100
AcDbEntity
  8
S_1_1
  6
CONTINUOUS
 62
     3
100
AcDbCircle
 10
270.0
 20
300.0
 30
0.0
 40
67.0000018626
  0
CIRCLE
  5
2C9
330
1F
100
AcDbEntity
  8
S_1_1
  6
CONTINUOUS
 62
     3
100
AcDbCircle
 10
270.0
 20
300.0
 30
0.0
 40
52.00000208620001
  0
CIRCLE
  5
2CA
330
1F
100
AcDbEntity
  8
S_1_1
  6
CONTINUOUS
 62
     3
100
AcDbCircle
 10
270.0
 20
300.0
 30
0.0
 40
48.00000119210001
  0
CIRCLE
  5
2CB
330
1F
100
AcDbEntity
  8
S_1_1
  6
CONTINUOUS
 62
     3
100
AcDbCircle
 10
270.0
 20
300.0
 30
0.0
 40
36.99999992550002
  0
CIRCLE
  5
2CC
330
1F
100
AcDbEntity
  8
S_1_1
  6
CONTINUOUS
 62
     3
100
AcDbCircle
 10
270.0
 20
300.0
 30
0.0
 40
32.9999990314
  0
ARC
  5
2CD
330
1F
100
AcDbEntity
  8
S_1_1
  6
CONTINUOUS
 62
     3
100
AcDbCircle
 10
177.723943178
 20
260.5612379229
 30
0.0
 40
1.0
100
AcDbArc
 50
200.0000046545
 51
290.0000003288001
  0
ARC
  5
2CE
330
1F
100
AcDbEntity
  8
S_1_1
  6
CONTINUOUS
 62
     3
100
AcDbCircle
 10
173.9617171293
 20
270.8978848025
 30
0.0
 40
1.0
100
AcDbArc
 50
109.9999985076
 51
200.000001012
  0
ARC
  5
2CF
330
1F
100
AcDbEntity
  8
S_1_1
  6
CONTINUOUS
 62
     3
100
AcDbCircle
 10
177.8949369803
 20
339.9085992588
 30
0.0
 40
1.0
100
AcDbArc
 50
69.99999967119999
 51
159.9999953455
  0
ARC
  5
2D0
330
1F
100
AcDbEntity
  8
S_1_1
  6
CONTINUOUS
 62
     3
100
AcDbCircle
 10
173.7906851799
 20
328.6322398687999
 30
0.0
 40
1.0
100
AcDbArc
 50
159.9999953455
 51
250.0000046802
  0
ARC
  5
2D1
330
1F
100
AcDbEntity
  8
S_1_1
  6
CONTINUOUS
 62
     3
100
AcDbCircle
 10
386.1993772357
 20
296.9999695271
 30
0.0
 40
18.4999999627
100
AcDbArc
 50
251.0753533055
 51
288.9246416855
  0
ARC
  5
2D2
330
1F
100
AcDbEntity
  8
S_1_1
  6
CONTINUOUS
 62
     3
100
AcDbCircle
 10
386.1993772357
 20
303.0000304729
 30
0.0
 40
18.4999999627
100
AcDbArc
 50
71.0753583145
 51
108.9246466945
  0
ARC
  5
2D3
330
1F
100
AcDbEntity
  8
S_1_1
  6
CONTINUOUS
 62
     3
100
AcDbCircle
 10
286.6994855299
 20
300.0
 30
0.0
 40
82.49998923390004
100
AcDbArc
 50
7.662251352399982
 51
14.02966788540003
  0
ARC
  5
2D4
330
1F
100
AcDbEntity
  8
S_1_1
  6
CONTINUOUS
 62
     3
100
AcDbCircle
 10
153.8006036907
 20
296.9999695271
 30
0.0
 40
18.4999999627
100
AcDbArc
 50
251.0753601357003
 51
288.9246485157002
  0
ARC
  5
2D5
330
1F
100
AcDbEntity
  8
S_1_1
  6
CONTINUOUS
 62
     3
100
AcDbCircle
 10
153.8006036907
 20
303.0000304729
 30
0.0
 40
18.4999999627
100
AcDbArc
 50
71.07535148430001
 51
108.9246398643
  0
ARC
  5
2D6
330
1F
100
AcDbEntity
  8
S_1_1
  6
CONTINUOUS
 62
     3
100
AcDbCircle
 10
253.300552617
 20
300.0
 30
0.0
 40
82.49998923390004
100
AcDbArc
 50
165.9703320009
 51
172.3377485339
  0
ARC
  5
2D7
330
1F
100
AcDbEntity
  8
S_1_1
  6
CONTINUOUS
 62
     3
100
AcDbCircle
 10
253.300552617
 20
300.0
 30
0.0
 40
82.49998923390004
100
AcDbArc
 50
187.6622514661001
 51
194.0296679991
  0
ARC
  5
2D8
330
1F
100
AcDbEntity
  8
S_1_1
  6
CONTINUOUS
 62
     3
100
AcDbCircle
 10
362.2760377485
 20
260.5612379229
 30
0.0
 40
1.0
100
AcDbArc
 50
250.0000014924001
 51
340.0000005818
  0
ARC
  5
2D9
330
1F
100
AcDbEntity
  8
S_1_1
  6
CONTINUOUS
 62
     3
100
AcDbCircle
 10
366.0382447237
 20
270.8978848025
 30
0.0
 40
1.0
100
AcDbArc
 50
340.0000005818
 51
69.99999967119999
  0
ARC
  5
2DA
330
1F
100
AcDbEntity
  8
S_1_1
  6
CONTINUOUS
 62
     3
100
AcDbCircle
 10
362.1050630196
 20
339.9085992588
 30
0.0
 40
1.0
100
AcDbArc
 50
19.99999941819998
 51
109.9999985076
  0
ARC
  5
2DB
330
1F
100
AcDbEntity
  8
S_1_1
  6
CONTINUOUS
 62
     3
100
AcDbCircle
 10
366.2093338935
 20
328.6322398687999
 30
0.0
 40
1.0
100
AcDbArc
 50
290.0000003288001
 51
19.99999941819998
  0
ARC
  5
2DC
330
1F
100
AcDbEntity
  8
S_1_1
  6
CONTINUOUS
 62
     3
100
AcDbCircle
 10
270.0
 20
300.0
 30
0.0
 40
93.1999860227
100
AcDbArc
 50
154.9999963447
 51
205.0000000128
  0
ARC
  5
2DD
330
1F
100
AcDbEntity
  8
S_1_1
  6
CONTINUOUS
 62
     3
100
AcDbCircle
 10
270.0
 20
300.0
 30
0.0
 40
93.1999860227
100
AcDbArc
 50
334.9999998735
 51
25.00000012650001
  0
CIRCLE
  5
2DE
330
1F
100
AcDbEntity
  8
S_1_1
  6
CONTINUOUS
 62
     3
100
AcDbCircle
 10
270.0
 20
300.0
 30
0.0
 40
7.999999404
  0
CIRCLE
  5
2DF
330
1F
100
AcDbEntity
  8
S_1_1
  6
CONTINUOUS
 62
     3
100
AcDbCircle
 10
270.0
 20
300.0
 30
0.0
 40
8.99999903140001
  0
CIRCLE
  5
2E0
330
1F
100
AcDbEntity
  8
S_1_1
  6
CONTINUOUS
 62
     3
100
AcDbCircle
 10
270.0
 20
300.0
 30
0.0
 40
16.9999990314
  0
CIRCLE
  5
2E1
330
1F
100
AcDbEntity
  8
S_1_1
  6
CONTINUOUS
 62
     3
100
AcDbCircle
 10
270.0
 20
300.0
 30
0.0
 40
14.9999997765
  0
CIRCLE
  5
2E2
330
1F
100
AcDbEntity
  8
S_1_1
  6
CONTINUOUS
 62
     3
100
AcDbCircle
 10
270.0
 20
359.9999991058998
 30
0.0
 40
5.999999553
  0
CIRCLE
  5
2E3
330
1F
100
AcDbEntity
  8
S_1_1
  6
CONTINUOUS
 62
     3
100
AcDbCircle
 10
329.9999991059
 20
300.0
 30
0.0
 40
5.999999553
  0
CIRCLE
  5
2E4
330
1F
100
AcDbEntity
  8
S_1_1
  6
CONTINUOUS
 62
     3
100
AcDbCircle
 10
270.0
 20
240.0000199675
 30
0.0
 40
5.999999553
  0
CIRCLE
  5
2E5
330
1F
100
AcDbEntity
  8
S_1_1
  6
CONTINUOUS
 62
     3
100
AcDbCircle
 10
210.0000199675001
 20
300.0
 30
0.0
 40
5.999999553
  0
CIRCLE
  5
2E6
330
1F
100
AcDbEntity
  8
S_1_1
  6
CONTINUOUS
 62
     3
100
AcDbCircle
 10
270.0000762939001
 20
300.0
 30
0.0
 40
89.99999865890005
  0
CIRCLE
  5
2E7
330
1F
100
AcDbEntity
  8
S_1_1
  6
CONTINUOUS
 62
     3
100
AcDbCircle
 10
270.0000762939001
 20
300.0
 30
0.0
 40
87.9999910593
  0
ARC
  5
2E8
330
1F
100
AcDbEntity
  8
S_1_1
  6
CONTINUOUS
 62
     3
100
AcDbCircle
 10
286.6994855299
 20
300.0
 30
0.0
 40
82.49998923390004
100
AcDbArc
 50
345.9703321146003
 51
352.3377486476002
  0
LINE
  5
2E9
330
1F
100
AcDbEntity
  8
S_1_1
  6
CONTINUOUS
 62
     3
100
AcDbLine
 10
180.1975407824
 20
274.2317308043
 30
0.0
 11
173.6196853957999
 21
271.8375871525
 31
0.0
  0
LINE
  5
2EA
330
1F
100
AcDbEntity
  8
S_1_1
  6
CONTINUOUS
 62
     3
100
AcDbLine
 10
176.7842873746
 20
260.2192668707
 30
0.0
 11
173.0220579085
 21
270.5559070056
 31
0.0
  0
LINE
  5
2EB
330
1F
100
AcDbEntity
  8
S_1_1
  6
CONTINUOUS
 62
     3
100
AcDbLine
 10
184.6437935852
 20
262.0157520648
 30
0.0
 11
180.1975407824
 21
274.2317308043
 31
0.0
  0
LINE
  5
2EC
330
1F
100
AcDbEntity
  8
S_1_1
  6
CONTINUOUS
 62
     3
100
AcDbLine
 10
184.6437935852
 20
262.0157520648
 30
0.0
 11
178.0659381987
 21
259.6216084131
 31
0.0
  0
LINE
  5
2ED
330
1F
100
AcDbEntity
  8
S_1_1
  6
CONTINUOUS
 62
     3
100
AcDbLine
 10
176.9552582726001
 20
340.2505801419001
 30
0.0
 11
172.8510138762999
 21
328.9742617431
 31
0.0
  0
LINE
  5
2EE
330
1F
100
AcDbEntity
  8
S_1_1
  6
CONTINUOUS
 62
     3
100
AcDbLine
 10
184.8148109385
 20
338.4541389321998
 30
0.0
 11
180.026523635
 21
325.2984281592001
 31
0.0
  0
LINE
  5
2EF
330
1F
100
AcDbEntity
  8
S_1_1
  6
CONTINUOUS
 62
     3
100
AcDbLine
 10
180.026523635
 20
325.2984281592001
 30
0.0
 11
173.4486682485001
 21
327.6925718109
 31
0.0
  0
LINE
  5
2F0
330
1F
100
AcDbEntity
  8
S_1_1
  6
CONTINUOUS
 62
     3
100
AcDbLine
 10
184.8148109385
 20
338.4541389321998
 30
0.0
 11
178.236955552
 21
340.8482825839001
 31
0.0
  0
LINE
  5
2F1
330
1F
100
AcDbEntity
  8
S_1_1
  6
CONTINUOUS
 62
     3
100
AcDbLine
 10
405.1994685053
 20
290.4999925122
 30
0.0
 11
405.1994685053
 21
309.4999693409
 31
0.0
  0
LINE
  5
2F2
330
1F
100
AcDbEntity
  8
S_1_1
  6
CONTINUOUS
 62
     3
100
AcDbLine
 10
367.199438554
 20
290.4999925122
 30
0.0
 11
367.199438554
 21
309.4999693409
 31
0.0
  0
LINE
  5
2F3
330
1F
100
AcDbEntity
  8
S_1_1
  6
CONTINUOUS
 62
     3
100
AcDbLine
 10
405.1994685053
 20
309.4999693409
 30
0.0
 11
367.199438554
 21
309.4999693409
 31
0.0
  0
LINE
  5
2F4
330
1F
100
AcDbEntity
  8
S_1_1
  6
CONTINUOUS
 62
     3
100
AcDbLine
 10
388.1993848353001
 20
290.4999925122
 30
0.0
 11
388.1993848353001
 21
309.4999693409
 31
0.0
  0
LINE
  5
2F5
330
1F
100
AcDbEntity
  8
S_1_1
  6
CONTINUOUS
 62
     3
100
AcDbLine
 10
380.1994688779
 20
279.4999697879
 30
0.0
 11
392.1994000345001
 21
279.4999697879
 31
0.0
  0
LINE
  5
2F6
330
1F
100
AcDbEntity
  8
S_1_1
  6
CONTINUOUS
 62
     3
100
AcDbLine
 10
380.1994688779
 20
288.9999772757
 30
0.0
 11
380.1994688779
 21
290.4999925122
 31
0.0
  0
LINE
  5
2F7
330
1F
100
AcDbEntity
  8
S_1_1
  6
CONTINUOUS
 62
     3
100
AcDbLine
 10
392.1994000345001
 20
288.9999772757
 30
0.0
 11
392.1994000345001
 21
290.4999925122
 31
0.0
  0
LINE
  5
2F8
330
1F
100
AcDbEntity
  8
S_1_1
  6
CONTINUOUS
 62
     3
100
AcDbLine
 10
380.1994688779
 20
320.4999920651001
 30
0.0
 11
392.1994000345001
 21
320.4999920651001
 31
0.0
  0
LINE
  5
2F9
330
1F
100
AcDbEntity
  8
S_1_1
  6
CONTINUOUS
 62
     3
100
AcDbLine
 10
380.1994688779
 20
310.9999845773
 30
0.0
 11
380.1994688779
 21
309.4999693409
 31
0.0
  0
LINE
  5
2FA
330
1F
100
AcDbEntity
  8
S_1_1
  6
CONTINUOUS
 62
     3
100
AcDbLine
 10
392.1994000345001
 20
310.9999845773
 30
0.0
 11
392.1994000345001
 21
309.4999693409
 31
0.0
  0
LINE
  5
2FB
330
1F
100
AcDbEntity
  8
S_1_1
  6
CONTINUOUS
 62
     3
100
AcDbLine
 10
392.1994000345001
 20
320.4999920651001
 30
0.0
 11
392.1994000345001
 21
319.999999702
 31
0.0
  0
LINE
  5
2FC
330
1F
100
AcDbEntity
  8
S_1_1
  6
CONTINUOUS
 62
     3
100
AcDbLine
 10
380.1994688779
 20
320.4999920651001
 30
0.0
 11
380.1994688779
 21
319.999999702
 31
0.0
  0
LINE
  5
2FD
330
1F
100
AcDbEntity
  8
S_1_1
  6
CONTINUOUS
 62
     3
100
AcDbLine
 10
380.1994688779
 20
279.4999697879
 30
0.0
 11
380.1994688779
 21
280.000000298
 31
0.0
  0
LINE
  5
2FE
330
1F
100
AcDbEntity
  8
S_1_1
  6
CONTINUOUS
 62
     3
100
AcDbLine
 10
392.1994000345001
 20
279.4999697879
 30
0.0
 11
392.1994000345001
 21
280.000000298
 31
0.0
  0
LINE
  5
2FF
330
1F
100
AcDbEntity
  8
S_1_1
  6
CONTINUOUS
 62
     3
100
AcDbLine
 10
405.1994685053
 20
290.4999925122
 30
0.0
 11
367.199438554
 21
290.4999925122
 31
0.0
  0
LINE
  5
300
330
1F
100
AcDbEntity
  8
S_1_1
  6
CONTINUOUS
 62
     3
100
AcDbLine
 10
396.1994152337001
 20
288.9999772757
 30
0.0
 11
396.1994152337001
 21
280.000000298
 31
0.0
  0
LINE
  5
301
330
1F
100
AcDbEntity
  8
S_1_1
  6
CONTINUOUS
 62
     3
100
AcDbLine
 10
366.7384781559
 20
319.9999895237
 30
0.0
 11
360.1015178145
 21
323.831852469
 31
0.0
  0
LINE
  5
302
330
1F
100
AcDbEntity
  8
S_1_1
  6
CONTINUOUS
 62
     3
100
AcDbLine
 10
366.7385086903
 20
319.999999702
 30
0.0
 11
406.1994150847
 21
319.999999702
 31
0.0
  0
LINE
  5
303
330
1F
100
AcDbEntity
  8
S_1_1
  6
CONTINUOUS
 62
     3
100
AcDbLine
 10
406.1994150847
 20
310.9999845773
 30
0.0
 11
406.1994150847
 21
319.999999702
 31
0.0
  0
LINE
  5
304
330
1F
100
AcDbEntity
  8
S_1_1
  6
CONTINUOUS
 62
     3
100
AcDbLine
 10
368.4628281226001
 20
310.9999845773
 30
0.0
 11
406.1994150847
 21
310.9999845773
 31
0.0
  0
LINE
  5
305
330
1F
100
AcDbEntity
  8
S_1_1
  6
CONTINUOUS
 62
     3
100
AcDbLine
 10
368.4628537345001
 20
310.9999762884
 30
0.0
 11
362.7185673531001
 21
309.4608025814
 31
0.0
  0
LINE
  5
306
330
1F
100
AcDbEntity
  8
S_1_1
  6
CONTINUOUS
 62
     3
100
AcDbLine
 10
134.800588715
 20
290.4999925122
 30
0.0
 11
134.800588715
 21
309.4999693409
 31
0.0
  0
LINE
  5
307
330
1F
100
AcDbEntity
  8
S_1_1
  6
CONTINUOUS
 62
     3
100
AcDbLine
 10
172.8006186663999
 20
290.4999925122
 30
0.0
 11
172.8006186663999
 21
309.4999693409
 31
0.0
  0
LINE
  5
308
330
1F
100
AcDbEntity
  8
S_1_1
  6
CONTINUOUS
 62
     3
100
AcDbLine
 10
134.800588715
 20
309.4999693409
 30
0.0
 11
172.8006186663999
 21
309.4999693409
 31
0.0
  0
LINE
  5
309
330
1F
100
AcDbEntity
  8
S_1_1
  6
CONTINUOUS
 62
     3
100
AcDbLine
 10
151.8006342381
 20
290.4999925122
 30
0.0
 11
151.8006342381
 21
309.4999693409
 31
0.0
  0
LINE
  5
30A
330
1F
100
AcDbEntity
  8
S_1_1
  6
CONTINUOUS
 62
     3
100
AcDbLine
 10
159.8005883425001
 20
279.4999697879
 30
0.0
 11
147.8006190389001
 21
279.4999697879
 31
0.0
  0
LINE
  5
30B
330
1F
100
AcDbEntity
  8
S_1_1
  6
CONTINUOUS
 62
     3
100
AcDbLine
 10
159.8005883425001
 20
288.9999772757
 30
0.0
 11
159.8005883425001
 21
290.4999925122
 31
0.0
  0
LINE
  5
30C
330
1F
100
AcDbEntity
  8
S_1_1
  6
CONTINUOUS
 62
     3
100
AcDbLine
 10
147.8006190389001
 20
288.9999772757
 30
0.0
 11
147.8006190389001
 21
290.4999925122
 31
0.0
  0
LINE
  5
30D
330
1F
100
AcDbEntity
  8
S_1_1
  6
CONTINUOUS
 62
     3
100
AcDbLine
 10
159.8005883425001
 20
320.4999920651001
 30
0.0
 11
147.8006190389001
 21
320.4999920651001
 31
0.0
  0
LINE
  5
30E
330
1F
100
AcDbEntity
  8
S_1_1
  6
CONTINUOUS
 62
     3
100
AcDbLine
 10
159.8005883425001
 20
310.9999845773
 30
0.0
 11
159.8005883425001
 21
309.4999693409
 31
0.0
  0
LINE
  5
30F
330
1F
100
AcDbEntity
  8
S_1_1
  6
CONTINUOUS
 62
     3
100
AcDbLine
 10
147.8006190389001
 20
310.9999845773
 30
0.0
 11
147.8006190389001
 21
309.4999693409
 31
0.0
  0
LINE
  5
310
330
1F
100
AcDbEntity
  8
S_1_1
  6
CONTINUOUS
 62
     3
100
AcDbLine
 10
147.8006190389001
 20
320.4999920651001
 30
0.0
 11
147.8006190389001
 21
319.999999702
 31
0.0
  0
LINE
  5
311
330
1F
100
AcDbEntity
  8
S_1_1
  6
CONTINUOUS
 62
     3
100
AcDbLine
 10
159.8005883425001
 20
320.4999920651001
 30
0.0
 11
159.8005883425001
 21
319.999999702
 31
0.0
  0
LINE
  5
312
330
1F
100
AcDbEntity
  8
S_1_1
  6
CONTINUOUS
 62
     3
100
AcDbLine
 10
159.8005883425001
 20
279.4999697879
 30
0.0
 11
159.8005883425001
 21
280.000000298
 31
0.0
  0
LINE
  5
313
330
1F
100
AcDbEntity
  8
S_1_1
  6
CONTINUOUS
 62
     3
100
AcDbLine
 10
147.8006190389001
 20
279.4999697879
 30
0.0
 11
147.8006190389001
 21
280.000000298
 31
0.0
  0
LINE
  5
314
330
1F
100
AcDbEntity
  8
S_1_1
  6
CONTINUOUS
 62
     3
100
AcDbLine
 10
134.800588715
 20
290.4999925122
 30
0.0
 11
172.8006186663999
 21
290.4999925122
 31
0.0
  0
LINE
  5
315
330
1F
100
AcDbEntity
  8
S_1_1
  6
CONTINUOUS
 62
     3
100
AcDbLine
 10
143.8006038397
 20
288.9999772757
 30
0.0
 11
143.8006038397
 21
280.000000298
 31
0.0
  0
LINE
  5
316
330
1F
100
AcDbEntity
  8
S_1_1
  6
CONTINUOUS
 62
     3
100
AcDbLine
 10
173.2615325900999
 20
319.9999884084
 30
0.0
 11
179.8984433771
 21
323.8318227435
 31
0.0
  0
LINE
  5
317
330
1F
100
AcDbEntity
  8
S_1_1
  6
CONTINUOUS
 62
     3
100
AcDbLine
 10
173.2614913095999
 20
319.999999702
 30
0.0
 11
133.8006039887
 21
319.999999702
 31
0.0
  0
LINE
  5
318
330
1F
100
AcDbEntity
  8
S_1_1
  6
CONTINUOUS
 62
     3
100
AcDbLine
 10
133.8006039887
 20
310.9999845773
 30
0.0
 11
133.8006039887
 21
319.999999702
 31
0.0
  0
LINE
  5
319
330
1F
100
AcDbEntity
  8
S_1_1
  6
CONTINUOUS
 62
     3
100
AcDbLine
 10
171.5372100243001
 20
310.9999845773
 30
0.0
 11
133.8006039887
 21
310.9999845773
 31
0.0
  0
LINE
  5
31A
330
1F
100
AcDbEntity
  8
S_1_1
  6
CONTINUOUS
 62
     3
100
AcDbLine
 10
171.5371607739
 20
310.9999681206
 30
0.0
 11
177.2814379434001
 21
309.4607968819
 31
0.0
  0
LINE
  5
31B
330
1F
100
AcDbEntity
  8
S_1_1
  6
CONTINUOUS
 62
     3
100
AcDbLine
 10
359.8024637809
 20
274.2316777012001
 30
0.0
 11
366.3803370906
 21
271.837527526
 31
0.0
  0
LINE
  5
31C
330
1F
100
AcDbEntity
  8
S_1_1
  6
CONTINUOUS
 62
     3
100
AcDbLine
 10
363.2157970523
 20
260.2192658899
 30
0.0
 11
366.9780134714
 21
270.5558701784
 31
0.0
  0
LINE
  5
31D
330
1F
100
AcDbEntity
  8
S_1_1
  6
CONTINUOUS
 62
     3
100
AcDbLine
 10
355.3562044546
 20
262.0156810385
 30
0.0
 11
359.8024637809
 21
274.2316777012001
 31
0.0
  0
LINE
  5
31E
330
1F
100
AcDbEntity
  8
S_1_1
  6
CONTINUOUS
 62
     3
100
AcDbLine
 10
355.3562044546
 20
262.0156810385
 30
0.0
 11
361.9340777643
 21
259.6215308633
 31
0.0
  0
LINE
  5
31F
330
1F
100
AcDbEntity
  8
S_1_1
  6
CONTINUOUS
 62
     3
100
AcDbLine
 10
363.0447772609
 20
340.2506039221
 30
0.0
 11
367.1490216572
 21
328.9742855233
 31
0.0
  0
LINE
  5
320
330
1F
100
AcDbEntity
  8
S_1_1
  6
CONTINUOUS
 62
     3
100
AcDbLine
 10
355.1852286805
 20
338.4541236042
 30
0.0
 11
359.9734964134
 21
325.2984666008
 31
0.0
  0
LINE
  5
321
330
1F
100
AcDbEntity
  8
S_1_1
  6
CONTINUOUS
 62
     3
100
AcDbLine
 10
359.9734964134
 20
325.2984666008
 30
0.0
 11
366.5513517999
 21
327.6926102525
 31
0.0
  0
LINE
  5
322
330
1F
100
AcDbEntity
  8
S_1_1
  6
CONTINUOUS
 62
     3
100
AcDbLine
 10
355.1852286805
 20
338.4541236042
 30
0.0
 11
361.763084067
 21
340.8482672559001
 31
0.0
  0
LINE
  5
323
330
1F
100
AcDbEntity
  8
S_1_1
  6
CONTINUOUS
 62
     3
100
AcDbLine
 10
188.4322292439
 20
261.9642993169
 30
0.0
 11
185.5321161860001
 21
260.6119544063
 31
0.0
  0
LINE
  5
324
330
1F
100
AcDbEntity
  8
S_1_1
  6
CONTINUOUS
 62
     3
100
AcDbLine
 10
188.4322859231
 20
338.0356739514
 30
0.0
 11
185.5321339707
 21
339.3880369988001
 31
0.0
  0
LINE
  5
325
330
1F
100
AcDbEntity
  8
S_1_1
  6
CONTINUOUS
 62
     3
100
AcDbLine
 10
351.5678028251
 20
261.964334104
 30
0.0
 11
354.4678985967
 21
260.6119972542
 31
0.0
  0
LINE
  5
326
330
1F
100
AcDbEntity
  8
S_1_1
  6
CONTINUOUS
 62
     3
100
AcDbLine
 10
351.5677720756
 20
338.0356512554999
 30
0.0
 11
354.4678505607
 21
339.3879800445
 31
0.0
  0
LINE
  5
327
330
1F
100
AcDbEntity
  8
S_1_1
  6
CONTINUOUS
 62
     3
100
AcDbLine
 10
270.000073935
 20
294.2265339529
 30
0.0
 11
275.0000760899001
 21
297.1132883687
 31
0.0
  0
LINE
  5
328
330
1F
100
AcDbEntity
  8
S_1_1
  6
CONTINUOUS
 62
     3
100
AcDbLine
 10
265.0000521472
 20
297.1132550995
 30
0.0
 11
270.0000460431
 21
294.2265054521
 31
0.0
  0
LINE
  5
329
330
1F
100
AcDbEntity
  8
S_1_1
  6
CONTINUOUS
 62
     3
100
AcDbLine
 10
265.0000000745
 20
302.8867339658
 30
0.0
 11
265.0000000745
 21
297.1132278872
 31
0.0
  0
LINE
  5
32A
330
1F
100
AcDbEntity
  8
S_1_1
  6
CONTINUOUS
 62
     3
100
AcDbLine
 10
270.0000737802001
 20
305.7735409299
 30
0.0
 11
265.0000716253001
 21
302.8867865142
 31
0.0
  0
LINE
  5
32B
330
1F
100
AcDbEntity
  8
S_1_1
  6
CONTINUOUS
 62
     3
100
AcDbLine
 10
275.0000483528
 20
302.8867580133
 30
0.0
 11
270.0000544569
 21
305.7735076607
 31
0.0
  0
LINE
  5
32C
330
1F
100
AcDbEntity
  8
S_1_1
  6
CONTINUOUS
 62
     3
100
AcDbLine
 10
274.9999999255
 20
297.1132278872
 30
0.0
 11
274.9999999255
 21
302.8867339658
 31
0.0
  0
LINE
  5
32D
330
1F
100
AcDbEntity
  8
S_1_1
  6
CONTINUOUS
 62
     3
100
AcDbLine
 10
406.1994150847
 20
288.9999772757
 30
0.0
 11
406.1994150847
 21
280.000000298
 31
0.0
  0
LINE
  5
32E
330
1F
100
AcDbEntity
  8
S_1_1
  6
CONTINUOUS
 62
     3
100
AcDbLine
 10
368.4627994689
 20
288.9999712358
 30
0.0
 11
362.7185587961999
 21
290.5391687435
 31
0.0
  0
LINE
  5
32F
330
1F
100
AcDbEntity
  8
S_1_1
  6
CONTINUOUS
 62
     3
100
AcDbLine
 10
368.4628281226001
 20
288.9999772757
 30
0.0
 11
406.1994150847
 21
288.9999772757
 31
0.0
  0
LINE
  5
330
330
1F
100
AcDbEntity
  8
S_1_1
  6
CONTINUOUS
 62
     3
100
AcDbLine
 10
256.0006033304001
 20
404.9995400162002
 30
0.0
 11
255.0007015063001
 21
403.9997526451
 31
0.0
  0
LINE
  5
331
330
1F
100
AcDbEntity
  8
S_1_1
  6
CONTINUOUS
 62
     3
100
AcDbLine
 10
289.1925365247
 20
390.871001841
 30
0.0
 11
289.9093045559
 21
387.7703984807999
 31
0.0
  0
LINE
  5
332
330
1F
100
AcDbEntity
  8
S_1_1
  6
CONTINUOUS
 62
     3
100
AcDbLine
 10
252.4982937818
 20
394.6567937295999
 30
0.0
 11
251.4168735908
 21
392.6960544801
 31
0.0
  0
LINE
  5
333
330
1F
100
AcDbEntity
  8
S_1_1
  6
CONTINUOUS
 62
     3
100
AcDbLine
 10
251.4168266663
 20
392.6960575631001
 30
0.0
 11
250.8081383666
 21
390.8710608063
 31
0.0
  0
LINE
  5
334
330
1F
100
AcDbEntity
  8
S_1_1
  6
CONTINUOUS
 62
     3
100
AcDbLine
 10
286.4205680422
 20
396.0765996148
 30
0.0
 11
287.5019024692
 21
394.6567546172
 31
0.0
  0
LINE
  5
335
330
1F
100
AcDbEntity
  8
S_1_1
  6
CONTINUOUS
 62
     3
100
AcDbLine
 10
366.7385113834
 20
280.0000319518
 30
0.0
 11
360.1015562878
 21
276.1682748142
 31
0.0
  0
LINE
  5
336
330
1F
100
AcDbEntity
  8
S_1_1
  6
CONTINUOUS
 62
     3
100
AcDbLine
 10
171.5372100243001
 20
288.9999772757
 30
0.0
 11
133.8006039887
 21
288.9999772757
 31
0.0
  0
LINE
  5
337
330
1F
100
AcDbEntity
  8
S_1_1
  6
CONTINUOUS
 62
     3
100
AcDbLine
 10
143.8006038397
 20
310.9999845773
 30
0.0
 11
143.8006038397
 21
319.999999702
 31
0.0
  0
LINE
  5
338
330
1F
100
AcDbEntity
  8
S_1_1
  6
CONTINUOUS
 62
     3
100
AcDbLine
 10
173.2615962955001
 20
279.9999682569
 30
0.0
 11
133.8005563867
 21
279.999999568
 31
0.0
  0
LINE
  5
339
330
1F
100
AcDbEntity
  8
S_1_1
  6
CONTINUOUS
 62
     3
100
AcDbLine
 10
173.2615173863001
 20
280.0000157479
 30
0.0
 11
179.8984683523
 21
276.1682609944
 31
0.0
  0
LINE
  5
33A
330
1F
100
AcDbEntity
  8
S_1_1
  6
CONTINUOUS
 62
     3
100
AcDbLine
 10
171.5372319947
 20
289.0000061997
 30
0.0
 11
177.2814726673
 21
290.5392037074
 31
0.0
  0
LINE
  5
33B
330
1F
100
AcDbEntity
  8
S_1_1
  6
CONTINUOUS
 62
     3
100
AcDbLine
 10
133.8006039887
 20
288.9999772757
 30
0.0
 11
133.8006039887
 21
280.000000298
 31
0.0
  0
LINE
  5
33C
330
1F
100
AcDbEntity
  8
S_1_1
  6
CONTINUOUS
 62
     3
100
AcDbLine
 10
285.0001142174
 20
396.9992432445001
 30
0.0
 11
255.0007059425001
 21
396.9992432445001
 31
0.0
  0
LINE
  5
33D
330
1F
100
AcDbEntity
  8
S_1_1
  6
CONTINUOUS
 62
     3
100
AcDbLine
 10
255.0007059425001
 20
403.9997848272001
 30
0.0
 11
255.0007059425001
 21
396.9998154491
 31
0.0
  0
LINE
  5
33E
330
1F
100
AcDbEntity
  8
S_1_1
  6
CONTINUOUS
 62
     3
100
AcDbLine
 10
366.7384037048
 20
280.0000332696
 30
0.0
 11
406.1995008341
 21
280.0000645808
 31
0.0
  0
LINE
  5
33F
330
1F
100
AcDbEntity
  8
S_1_1
  6
CONTINUOUS
 62
     3
100
AcDbLine
 10
396.1994152337001
 20
310.9999845773
 30
0.0
 11
396.1994152337001
 21
319.999999702
 31
0.0
  0
LINE
  5
340
330
1F
100
AcDbEntity
  8
S_1_1
  6
CONTINUOUS
 62
     3
100
AcDbLine
 10
287.5018550307
 20
394.656718791
 30
0.0
 11
288.5834451383
 21
392.6959861437999
 31
0.0
  0
LINE
  5
341
330
1F
100
AcDbEntity
  8
S_1_1
  6
CONTINUOUS
 62
     3
100
AcDbLine
 10
255.0006417341
 20
396.9998254396
 30
0.0
 11
253.5805300016
 21
396.0765830631999
 31
0.0
  0
LINE
  5
342
330
1F
100
AcDbEntity
  8
S_1_1
  6
CONTINUOUS
 62
     3
100
AcDbLine
 10
284.0004728138
 20
404.9995406717001
 30
0.0
 11
256.0006143748
 21
404.9995406717001
 31
0.0
  0
LINE
  5
343
330
1F
100
AcDbEntity
  8
S_1_1
  6
CONTINUOUS
 62
     3
100
AcDbLine
 10
253.5805492719001
 20
396.0765432522001
 30
0.0
 11
252.4982348276001
 21
394.6567016124
 31
0.0
  0
LINE
  5
344
330
1F
100
AcDbEntity
  8
S_1_1
  6
CONTINUOUS
 62
     3
100
AcDbLine
 10
285.0001142174
 20
403.9997848272001
 30
0.0
 11
285.0001142174
 21
396.9998154491
 31
0.0
  0
LINE
  5
345
330
1F
100
AcDbEntity
  8
S_1_1
  6
CONTINUOUS
 62
     3
100
AcDbLine
 10
284.0004676505
 20
404.9995379085999
 30
0.0
 11
285.0000663120001
 21
403.9997103711999
 31
0.0
  0
LINE
  5
346
330
1F
100
AcDbEntity
  8
S_1_1
  6
CONTINUOUS
 62
     3
100
AcDbLine
 10
288.583452429
 20
392.6960407399001
 30
0.0
 11
289.1925081433001
 21
390.8710861674999
 31
0.0
  0
LINE
  5
347
330
1F
100
AcDbEntity
  8
S_1_1
  6
CONTINUOUS
 62
     3
100
AcDbLine
 10
250.8081416185
 20
390.871084614
 30
0.0
 11
250.0916189496
 21
387.7704636025001
 31
0.0
  0
LINE
  5
348
330
1F
100
AcDbEntity
  8
S_1_1
  6
CONTINUOUS
 62
     3
100
AcDbLine
 10
285.0001168864001
 20
396.9997632437999
 30
0.0
 11
286.4205639543001
 21
396.0765641946
 31
0.0
  0
LINE
  5
349
330
1F
100
AcDbEntity
  8
S_1_1
  6
CONTINUOUS
 62
     3
100
AcDbLine
 10
285.0001142174
 20
403.9997848272001
 30
0.0
 11
255.0007059425001
 21
403.9997848272001
 31
0.0
  0
ARC
  5
34A
330
1F
100
AcDbEntity
  8
S_1_1
  6
EXLTYPE2
 62
     1
100
AcDbCircle
 10
270.0
 20
300.0
 30
0.0
 40
64.9999990314
100
AcDbArc
 50
273.0432224312
 51
356.9567513721001
  0
ARC
  5
34B
330
1F
100
AcDbEntity
  8
S_1_1
  6
EXLTYPE2
 62
     1
100
AcDbCircle
 10
270.0
 20
300.0
 30
0.0
 40
64.9999990314
100
AcDbArc
 50
3.043248627900013
 51
86.95675024810001
  0
ARC
  5
34C
330
1F
100
AcDbEntity
  8
S_1_1
  6
EXLTYPE2
 62
     1
100
AcDbCircle
 10
270.0
 20
300.0
 30
0.0
 40
64.9999990314
100
AcDbArc
 50
93.0432479307
 51
176.9567732431001
  0
ARC
  5
34D
330
1F
100
AcDbEntity
  8
S_1_1
  6
EXLTYPE2
 62
     1
100
AcDbCircle
 10
270.0
 20
300.0
 30
0.0
 40
64.9999990314
100
AcDbArc
 50
183.0432267569
 51
266.9567793901003
  0
CIRCLE
  5
34E
330
1F
100
AcDbEntity
  8
S_1_1
  6
EXLTYPE2
 62
     1
100
AcDbCircle
 10
270.0
 20
300.0
 30
0.0
 40
49.99999925490002
  0
CIRCLE
  5
34F
330
1F
100
AcDbEntity
  8
S_1_1
  6
EXLTYPE2
 62
     1
100
AcDbCircle
 10
270.0
 20
300.0
 30
0.0
 40
34.9999994785
  0
CIRCLE
  5
350
330
1F
100
AcDbEntity
  8
S_1_1
  6
EXLTYPE2
 62
     1
100
AcDbCircle
 10
270.0
 20
300.0
 30
0.0
 40
59.9999991059
  0
LINE
  5
351
330
1F
100
AcDbEntity
  8
S_1_1
  6
EXLTYPE2
 62
     1
100
AcDbLine
 10
264.4273758765
 20
382.9998003988999
 30
0.0
 11
275.730361853
 21
382.9998003988999
 31
0.0
  0
LINE
  5
352
330
1F
100
AcDbEntity
  8
S_1_1
  6
EXLTYPE2
 62
     1
100
AcDbLine
 10
188.9038977856001
 20
270.4834140336
 30
0.0
 11
173.3758704068
 21
264.8316740685
 31
0.0
  0
LINE
  5
353
330
1F
100
AcDbEntity
  8
S_1_1
  6
EXLTYPE2
 62
     1
100
AcDbLine
 10
188.9038750563
 20
329.5165482154
 30
0.0
 11
173.3759014471
 21
335.16826861
 31
0.0
  0
LINE
  5
354
330
1F
100
AcDbEntity
  8
S_1_1
  6
EXLTYPE2
 62
     1
100
AcDbLine
 10
153.8006036907
 20
276.3667300885
 30
0.0
 11
153.8006036907
 21
323.4591671309
 31
0.0
  0
LINE
  5
355
330
1F
100
AcDbEntity
  8
S_1_1
  6
EXLTYPE2
 62
     1
100
AcDbLine
 10
351.0961198247001
 20
270.4833967770001
 30
0.0
 11
366.6241292803001
 21
264.8316633353
 31
0.0
  0
LINE
  5
356
330
1F
100
AcDbEntity
  8
S_1_1
  6
EXLTYPE2
 62
     1
100
AcDbLine
 10
351.0961515156
 20
329.5165687338
 30
0.0
 11
366.6241430480001
 21
335.1682956519001
 31
0.0
  0
LINE
  5
357
330
1F
100
AcDbEntity
  8
S_1_1
  6
EXLTYPE2
 62
     1
100
AcDbLine
 10
386.1993772357
 20
276.3667300885
 30
0.0
 11
386.1993772357
 21
323.4591671309
 31
0.0
  0
LINE
  5
358
330
1F
100
AcDbEntity
  8
S_1_1
  6
EXLTYPE2
 62
     1
100
AcDbLine
 10
411.5000000000001
 20
300.0
 30
0.0
 11
128.8678762485
 21
300.0
 31
0.0
  0
CIRCLE
  5
359
330
1F
100
AcDbEntity
  8
S_1_1
  6
CONTINUOUS
 62
     3
100
AcDbCircle
 10
270.0
 20
300.0
 30
0.0
 40
79.99994158750002
  0
CIRCLE
  5
35A
330
1F
100
AcDbEntity
  8
S_1_1
  6
CONTINUOUS
 62
     3
100
AcDbCircle
 10
270.0
 20
300.0
 30
0.0
 40
79.00056500697997
  0
ARC
  5
35B
330
1F
100
AcDbEntity
  8
S_1_1
  6
CONTINUOUS
 62
     3
100
AcDbCircle
 10
270.0
 20
382.9998003988999
 30
0.0
 40
4.9000000224
100
AcDbArc
 50
320.9003864861712
 51
219.0996135138296
  0
CIRCLE
  5
35C
330
1F
100
AcDbEntity
  8
S_1_1
  6
CONTINUOUS
 62
     3
100
AcDbCircle
 10
329.9999991059
 20
300.0
 30
0.0
 40
5.125
  0
CIRCLE
  5
35D
330
1F
100
AcDbEntity
  8
S_1_1
  6
CONTINUOUS
 62
     3
100
AcDbCircle
 10
270.0
 20
359.9999991058998
 30
0.0
 40
5.125
  0
CIRCLE
  5
35E
330
1F
100
AcDbEntity
  8
S_1_1
  6
CONTINUOUS
 62
     3
100
AcDbCircle
 10
210.0000199675001
 20
300.0
 30
0.0
 40
5.125
  0
CIRCLE
  5
35F
330
1F
100
AcDbEntity
  8
S_1_1
  6
CONTINUOUS
 62
     3
100
AcDbCircle
 10
270.0000095367
 20
240.0000104308
 30
0.0
 40
5.125
  0
LINE
  5
360
330
1F
100
AcDbEntity
  8
S_1_1
  6
CONTINUOUS
 62
     3
100
AcDbLine
 10
180.1974387893085
 20
361.5182899632295
 30
0.0
 11
193.8094961463147
 21
347.9062326062235
 31
0.0
  0
LINE
  5
361
330
1F
100
AcDbEntity
  8
S_1_1
  6
CONTINUOUS
 62
     3
100
AcDbLine
 10
180.1974387893085
 20
361.5182899632295
 30
0.0
 11
180.1974387893085
 21
365.7609306503489
 31
0.0
  0
LINE
  5
362
330
1F
100
AcDbEntity
  8
S_1_1
  6
CONTINUOUS
 62
     3
100
AcDbLine
 10
204.2390693496511
 20
389.8025612106915
 30
0.0
 11
180.1974387893085
 21
365.7609306503489
 31
0.0
  0
LINE
  5
363
330
1F
100
AcDbEntity
  8
S_1_1
  6
CONTINUOUS
 62
     3
100
AcDbLine
 10
180.19743878931
 20
361.51828996323
 30
0.0
 11
208.48171003677
 21
389.8025612106901
 31
0.0
  0
LINE
  5
364
330
1F
100
AcDbEntity
  8
S_1_1
  6
CONTINUOUS
 62
     3
100
AcDbLine
 10
180.19743878931
 20
365.76093065035
 30
0.0
 11
195.4852314581277
 21
350.4731379815323
 31
0.0
  0
LINE
  5
365
330
1F
100
AcDbEntity
  8
S_1_1
  6
CONTINUOUS
 62
     3
100
AcDbLine
 10
208.4817100367704
 20
389.8025612106915
 30
0.0
 11
222.0937673937767
 21
376.1905038536851
 31
0.0
  0
LINE
  5
366
330
1F
100
AcDbEntity
  8
S_1_1
  6
CONTINUOUS
 62
     3
100
AcDbLine
 10
204.23906934965
 20
389.8025612106901
 30
0.0
 11
219.5268473432205
 21
374.5147832171194
 31
0.0
  0
LINE
  5
367
330
1F
100
AcDbEntity
  8
S_1_1
  6
CONTINUOUS
 62
     3
100
AcDbLine
 10
204.2390693496511
 20
389.8025612106915
 30
0.0
 11
208.4817100367704
 21
389.8025612106915
 31
0.0
  0
LINE
  5
368
330
1F
100
AcDbEntity
  8
S_1_1
  6
CONTINUOUS
 62
     3
100
AcDbLine
 10
331.5182899632296
 20
210.1974387893085
 30
0.0
 11
317.9062326062234
 21
223.8094961463147
 31
0.0
  0
LINE
  5
369
330
1F
100
AcDbEntity
  8
S_1_1
  6
CONTINUOUS
 62
     3
100
AcDbLine
 10
331.5182899632296
 20
210.1974387893085
 30
0.0
 11
335.7609306503489
 21
210.1974387893085
 31
0.0
  0
LINE
  5
36A
330
1F
100
AcDbEntity
  8
S_1_1
  6
CONTINUOUS
 62
     3
100
AcDbLine
 10
359.8025612106915
 20
234.2390693496511
 30
0.0
 11
335.7609306503489
 21
210.1974387893085
 31
0.0
  0
LINE
  5
36B
330
1F
100
AcDbEntity
  8
S_1_1
  6
CONTINUOUS
 62
     3
100
AcDbLine
 10
331.5182899632295
 20
210.1974387893084
 30
0.0
 11
359.8025612106915
 21
238.4817100367703
 31
0.0
  0
LINE
  5
36C
330
1F
100
AcDbEntity
  8
S_1_1
  6
CONTINUOUS
 62
     3
100
AcDbLine
 10
335.76093065035
 20
210.19743878931
 30
0.0
 11
320.4732142754322
 21
225.4851551642278
 31
0.0
  0
LINE
  5
36D
330
1F
100
AcDbEntity
  8
S_1_1
  6
CONTINUOUS
 62
     3
100
AcDbLine
 10
359.8025612106915
 20
238.4817100367704
 30
0.0
 11
346.1905038536851
 21
252.0937673937767
 31
0.0
  0
LINE
  5
36E
330
1F
100
AcDbEntity
  8
S_1_1
  6
CONTINUOUS
 62
     3
100
AcDbLine
 10
359.8025612106899
 20
234.23906934965
 30
0.0
 11
344.5148595110194
 21
249.5267710493206
 31
0.0
  0
LINE
  5
36F
330
1F
100
AcDbEntity
  8
S_1_1
  6
CONTINUOUS
 62
     3
100
AcDbLine
 10
359.8025612106915
 20
234.2390693496511
 30
0.0
 11
359.8025612106915
 21
238.4817100367704
 31
0.0
  0
LINE
  5
370
330
1F
100
AcDbEntity
  8
S_1_1
  6
CONTINUOUS
 62
     3
100
AcDbLine
 10
547.0003449521
 20
210.0001348554999
 30
0.0
 11
553.5759985940401
 21
210.0001348554999
 31
0.0
  0
LINE
  5
371
330
1F
100
AcDbEntity
  8
S_1_1
  6
CONTINUOUS
 62
     3
100
AcDbLine
 10
636.4239594030068
 20
210.0001348554999
 30
0.0
 11
794.0000338004
 21
210.0001348554999
 31
0.0
  0
LINE
  5
372
330
1F
100
AcDbEntity
  8
S_1_1
  6
EXLTYPE2
 62
     1
100
AcDbLine
 10
624.9999829128944
 20
215.0545591953181
 30
0.0
 11
624.9999829128944
 21
229.1965572756015
 31
0.0
  0
LINE
  5
373
330
1F
100
AcDbEntity
  8
S_1_1
  6
EXLTYPE2
 62
     1
100
AcDbLine
 10
594.9999452129572
 20
215.0545591953181
 30
0.0
 11
594.9999452129572
 21
229.1965572756015
 31
0.0
  0
LINE
  5
374
330
1F
100
AcDbEntity
  8
S_1_1
  6
EXLTYPE2
 62
     1
100
AcDbLine
 10
616.2965604961988
 20
222.7182858877603
 30
0.0
 11
633.6902064772477
 21
222.7182858877603
 31
0.0
  0
LINE
  5
375
330
1F
100
AcDbEntity
  8
S_1_1
  6
EXLTYPE2
 62
     1
100
AcDbLine
 10
586.2965227962616
 20
222.7182858877603
 30
0.0
 11
603.6902069242825
 21
222.7182858877603
 31
0.0
  0
LINE
  5
376
330
1F
100
AcDbEntity
  8
S_1_1
  6
EXLTYPE2
 62
     1
100
AcDbLine
 10
149.9999999999999
 20
420.0
 30
0.0
 11
351.5335560176025
 21
218.4664439823975
 31
0.0
  0
ELLIPSE
  5
377
330
1F
100
AcDbEntity
  8
S_1_1
  6
CONTINUOUS
 62
     3
100
AcDbEllipse
 10
624.9999638394083
 20
222.2181218632309
 30
0.0
 11
6.999988451600246
 21
0.0
 31
0.0
210
0.0
220
0.0
230
1.0
 40
0.7071111522856888
 41
0.0
 42
6.283185307179586
  0
ELLIPSE
  5
378
330
1F
100
AcDbEntity
  8
S_1_1
  6
CONTINUOUS
 62
     3
100
AcDbEllipse
 10
594.9999642864432
 20
222.2181218632309
 30
0.0
 11
7.000026598572334
 21
0.0
 31
0.0
210
0.0
220
0.0
230
1.0
 40
0.7071072988504182
 41
0.0
 42
6.283185307179586
  0
ELLIPSE
  5
379
330
1F
100
AcDbEntity
  8
S_1_1
  6
CONTINUOUS
 62
     3
100
AcDbEllipse
 10
594.9999261394712
 20
222.6423924867916
 30
0.0
 11
6.499996088445246
 21
0.0
 31
0.0
210
0.0
220
0.0
230
1.0
 40
0.7071073720535112
 41
2.181520148327229
 42
7.243253613787195
  0
ELLIPSE
  5
37A
330
1F
100
AcDbEntity
  8
S_1_1
  6
CONTINUOUS
 62
     3
100
AcDbEllipse
 10
624.9999447659224
 20
222.6423924867916
 30
0.0
 11
6.500015161931288
 21
0.0
 31
0.0
210
0.0
220
0.0
230
1.0
 40
0.7071052971348756
 41
2.181515998467483
 42
7.243253613787193
  0
LINE
  5
37B
330
1F
100
AcDbEntity
  8
S_1_1
  6
CONTINUOUS
 62
     3
100
AcDbLine
 10
628.0000133857686
 20
223.4503262821255
 30
0.0
 11
628.0000133857686
 21
221.9862454933951
 31
0.0
  0
LINE
  5
37C
330
1F
100
AcDbEntity
  8
S_1_1
  6
CONTINUOUS
 62
     3
100
AcDbLine
 10
621.9999524400203
 20
221.9862454933951
 30
0.0
 11
621.9999524400203
 21
223.4503262821255
 31
0.0
  0
LINE
  5
37D
330
1F
100
AcDbEntity
  8
S_1_1
  6
CONTINUOUS
 62
     3
100
AcDbLine
 10
624.9999376589308
 20
220.2541303223775
 30
0.0
 11
621.9998830950407
 21
221.9862126635109
 31
0.0
  0
LINE
  5
37E
330
1F
100
AcDbEntity
  8
S_1_1
  6
CONTINUOUS
 62
     3
100
AcDbLine
 10
627.9999953013353
 20
221.9862587292287
 30
0.0
 11
624.9999737736915
 21
220.2541954615814
 31
0.0
  0
LINE
  5
37F
330
1F
100
AcDbEntity
  8
S_1_1
  6
CONTINUOUS
 62
     3
100
AcDbLine
 10
624.9999396866265
 20
225.1823853995129
 30
0.0
 11
621.9999842314753
 21
223.4503602788377
 31
0.0
  0
LINE
  5
380
330
1F
100
AcDbEntity
  8
S_1_1
  6
CONTINUOUS
 62
     3
100
AcDbLine
 10
627.9999486588188
 20
223.4503323054109
 30
0.0
 11
624.9999601674214
 21
225.1823764995722
 31
0.0
  0
LINE
  5
381
330
1F
100
AcDbEntity
  8
S_1_1
  6
CONTINUOUS
 62
     3
100
AcDbLine
 10
597.9999375388593
 20
223.4503262821255
 30
0.0
 11
597.9999375388593
 21
221.9862454933951
 31
0.0
  0
LINE
  5
382
330
1F
100
AcDbEntity
  8
S_1_1
  6
CONTINUOUS
 62
     3
100
AcDbLine
 10
591.9999910340272
 20
221.9862454933951
 30
0.0
 11
591.9999910340272
 21
223.4503262821255
 31
0.0
  0
LINE
  5
383
330
1F
100
AcDbEntity
  8
S_1_1
  6
CONTINUOUS
 62
     3
100
AcDbLine
 10
594.9999224211067
 20
220.2540957960152
 30
0.0
 11
591.9998678572166
 21
221.9861781371485
 31
0.0
  0
LINE
  5
384
330
1F
100
AcDbEntity
  8
S_1_1
  6
CONTINUOUS
 62
     3
100
AcDbLine
 10
597.9999306803189
 20
221.9862262019035
 30
0.0
 11
594.9999752251678
 21
220.2542010812283
 31
0.0
  0
LINE
  5
385
330
1F
100
AcDbEntity
  8
S_1_1
  6
CONTINUOUS
 62
     3
100
AcDbLine
 10
594.9998798339816
 20
225.1823446131262
 30
0.0
 11
591.999990451323
 21
223.4503576394231
 31
0.0
  0
LINE
  5
386
330
1F
100
AcDbEntity
  8
S_1_1
  6
CONTINUOUS
 62
     3
100
AcDbLine
 10
597.9999003847485
 20
223.4503168525346
 30
0.0
 11
594.9999449295973
 21
225.1823419732098
 31
0.0
  0
LINE
  5
387
330
1F
100
AcDbEntity
  8
S_1_1
  6
CONTINUOUS
 62
     3
100
AcDbLine
 10
635.4999555458992
 20
252.7096819739907
 30
0.0
 11
637.4999414548864
 21
250.7096958964172
 31
0.0
  0
LINE
  5
388
330
1F
100
AcDbEntity
  8
S_1_1
  6
CONTINUOUS
 62
     3
100
AcDbLine
 10
554.4999915928207
 20
252.7097214454918
 30
0.0
 11
554.4999915928207
 21
237.360390772115
 31
0.0
  0
LINE
  5
389
330
1F
100
AcDbEntity
  8
S_1_1
  6
CONTINUOUS
 62
     3
100
AcDbLine
 10
552.4999298258418
 20
250.7096725049164
 30
0.0
 11
554.4999698513843
 21
252.709712361868
 31
0.0
  0
LINE
  5
38A
330
1F
100
AcDbEntity
  8
S_1_1
  6
CONTINUOUS
 62
     3
100
AcDbLine
 10
635.4999751270378
 20
252.7097214454918
 30
0.0
 11
635.4999751270378
 21
237.360390772115
 31
0.0
  0
LINE
  5
38B
330
1F
100
AcDbEntity
  8
S_1_1
  6
CONTINUOUS
 62
     3
100
AcDbLine
 10
554.4999814993589
 20
209.0761518722953
 30
0.0
 11
552.4999955903716
 21
211.0761379498688
 31
0.0
  0
LINE
  5
38C
330
1F
100
AcDbEntity
  8
S_1_1
  6
CONTINUOUS
 62
     3
100
AcDbLine
 10
635.4999458091423
 20
209.076121183747
 30
0.0
 11
637.4999317181297
 21
211.0761072613204
 31
0.0
  0
LINE
  5
38D
330
1F
100
AcDbEntity
  8
S_1_1
  6
CONTINUOUS
 62
     3
100
AcDbLine
 10
635.5000223339356
 20
237.360446966404
 30
0.0
 11
637.500021729914
 21
235.3604474018382
 31
0.0
  0
LINE
  5
38E
330
1F
100
AcDbEntity
  8
S_1_1
  6
CONTINUOUS
 62
     3
100
AcDbLine
 10
552.4999831268849
 20
235.3603970363552
 30
0.0
 11
554.4999692044585
 21
237.3603829453425
 31
0.0
  0
LINE
  5
38F
330
1F
100
AcDbEntity
  8
S_1_1
  6
CONTINUOUS
 62
     3
100
AcDbLine
 10
554.5000297397928
 20
209.0761085092574
 30
0.0
 11
635.4999369800657
 21
209.0761085092574
 31
0.0
  0
LINE
  5
390
330
1F
100
AcDbEntity
  8
S_1_1
  6
CONTINUOUS
 62
     3
100
AcDbLine
 10
554.4999915928207
 20
237.360390772115
 30
0.0
 11
635.4999751270378
 21
237.360390772115
 31
0.0
  0
LINE
  5
391
330
1F
100
AcDbEntity
  8
S_1_1
  6
CONTINUOUS
 62
     3
100
AcDbLine
 10
554.4999915928207
 20
252.7097214454918
 30
0.0
 11
635.4999751270378
 21
252.7097214454918
 31
0.0
  0
LINE
  5
392
330
1F
100
AcDbEntity
  8
S_1_1
  6
CONTINUOUS
 62
     3
100
AcDbLine
 10
552.4999839932286
 20
211.0761351823356
 30
0.0
 11
552.4999839932286
 21
250.7097138458996
 31
0.0
  0
LINE
  5
393
330
1F
100
AcDbEntity
  8
S_1_1
  6
CONTINUOUS
 62
     3
100
AcDbLine
 10
637.4999827266299
 20
211.0761351823356
 30
0.0
 11
637.4999827266299
 21
250.7097138458996
 31
0.0
  0
ARC
  5
394
330
1F
100
AcDbEntity
  8
S_1_1
  6
CONTINUOUS
 62
     3
100
AcDbCircle
 10
634.999906226655
 20
478.5944881040476
 30
0.0
 40
90.82402450157987
100
AcDbArc
 50
257.2789254950642
 51
282.7210745049359
  0
ARC
  5
395
330
1F
100
AcDbEntity
  8
S_1_1
  6
CONTINUOUS
 62
     3
100
AcDbCircle
 10
694.999935310455
 20
478.594790457728
 30
0.0
 40
90.82432685833884
100
AcDbArc
 50
257.2789467480844
 51
282.7210532519157
  0
LINE
  5
396
330
1F
100
AcDbEntity
  8
S_1_1
  6
CONTINUOUS
 62
     3
100
AcDbLine
 10
714.9998742607053
 20
389.9998651445002
 30
0.0
 11
794.0000338004
 21
389.9998651445003
 31
0.0
  0
LINE
  5
397
330
1F
100
AcDbEntity
  8
S_1_1
  6
CONTINUOUS
 62
     3
100
AcDbLine
 10
615.0000009939
 20
389.9998651445
 30
0.0
 11
547.0003731743
 21
389.9998651445
 31
0.0
  0
LINE
  5
398
330
1F
100
AcDbEntity
  8
S_1_1
  6
CONTINUOUS
 62
     3
100
AcDbLine
 10
674.9999963602
 20
389.9998651445
 30
0.0
 11
654.9998114594086
 21
389.9998651445
 31
0.0
  0
LINE
  5
399
330
1F
100
AcDbEntity
  8
S_1_1
  6
EXLTYPE2
 62
     1
100
AcDbLine
 10
270.0
 20
195.0
 30
0.0
 11
269.9999999999999
 21
505.0
 31
0.0
  0
LINE
  5
39A
330
1F
100
AcDbEntity
  8
S_1_1
  6
EXLTYPE2
 62
     1
100
AcDbLine
 10
634.9999827638968
 20
505.0
 30
0.0
 11
634.9999827638968
 21
380.5426497613475
 31
0.0
  0
DIMENSION
  5
39B
330
1F
100
AcDbEntity
  8
S_1_1
  6
CONTINUOUS
 62
     2
100
AcDbDimension
  2
*D27
 10
634.9999827639
 20
525.0
 30
0.0
 11
589.99996436095
 21
531.875
 31
0.0
 70
   160
  3
ISO-25
100
AcDbAlignedDimension
 13
544.999945958
 23
387.99983072203
 33
0.0
 14
634.9999827639
 24
505.0
 34
0.0
100
AcDbRotatedDimension
1001
ACAD
1000
DSTYLE
1002
{
1070
   270
1070
     2
1070
     6
1000
EX_NORM
1070
     7
1000
EX_NORM
1070
    41
1040
7.5
1070
    42
1040
3.75
1070
    44
1040
2.5
1070
    73
1070
     0
1070
    74
1070
     0
1070
    75
1070
     0
1070
    76
1070
     0
1070
    77
1070
     1
1070
    78
1070
     8
1070
   140
1040
8.6572603926097
1070
   147
1040
0.0
1070
   173
1070
     1
1070
   176
1070
     2
1070
   177
1070
     2
1070
   178
1070
     2
1070
   271
1070
     2
1070
   277
1070
     2
1070
   279
1070
     2
1070
   280
1070
     0
1070
   287
1070
     5
1070
   340
1005
12C
1002
}
  0
DIMENSION
  5
3A8
330
1F
100
AcDbEntity
  8
S_1_1
  6
CONTINUOUS
 62
     2
100
AcDbDimension
  2
*D28
 10
694.99918358776
 20
525.0
 30
0.0
 11
664.99958317583
 21
531.875
 31
0.0
 70
   160
  3
ISO-25
100
AcDbAlignedDimension
 13
634.9999827639
 23
505.0
 33
0.0
 14
694.99918358776
 24
493.32931572415
 34
0.0
100
AcDbRotatedDimension
1001
ACAD
1000
DSTYLE
1002
{
1070
   270
1070
     2
1070
     6
1000
EX_NORM
1070
     7
1000
EX_NORM
1070
    41
1040
7.5
1070
    42
1040
3.75
1070
    44
1040
2.5
1070
    73
1070
     0
1070
    74
1070
     0
1070
    75
1070
     0
1070
    76
1070
     0
1070
    77
1070
     1
1070
    78
1070
     8
1070
   140
1040
8.6572603926097
1070
   147
1040
0.0
1070
   173
1070
     1
1070
   176
1070
     2
1070
   177
1070
     2
1070
   178
1070
     2
1070
   271
1070
     2
1070
   277
1070
     2
1070
   279
1070
     2
1070
   280
1070
     0
1070
   287
1070
     5
1070
   340
1005
12C
1002
}
  0
DIMENSION
  5
3B5
330
1F
100
AcDbEntity
  8
S_1_1
  6
CONTINUOUS
 62
     2
100
AcDbDimension
  2
*D29
 10
795.0
 20
525.0
 30
0.0
 11
744.99959179388
 21
531.875
 31
0.0
 70
   160
  3
ISO-25
100
AcDbAlignedDimension
 13
694.99918358776
 23
493.32931572415
 33
0.0
 14
795.0
 24
389.0004024272
 34
0.0
100
AcDbRotatedDimension
1001
ACAD
1000
DSTYLE
1002
{
1070
   270
1070
     2
1070
     6
1000
EX_NORM
1070
     7
1000
EX_NORM
1070
    41
1040
7.5
1070
    42
1040
3.75
1070
    44
1040
2.5
1070
    73
1070
     0
1070
    74
1070
     0
1070
    75
1070
     0
1070
    76
1070
     0
1070
    77
1070
     1
1070
    78
1070
     8
1070
   140
1040
8.6572603926097
1070
   147
1040
0.0
1070
   173
1070
     1
1070
   176
1070
     2
1070
   177
1070
     2
1070
   178
1070
     2
1070
   271
1070
     2
1070
   277
1070
     2
1070
   279
1070
     2
1070
   280
1070
     0
1070
   287
1070
     5
1070
   340
1005
12C
1002
}
  0
LINE
  5
3C2
330
1F
100
AcDbEntity
  8
S_1_1
  6
CONTINUOUS
 62
     3
100
AcDbLine
 10
258.5000000000002
 20
411.361819671709
 30
0.0
 11
270.0000000000002
 21
411.361819671709
 31
0.0
  0
LINE
  5
3C3
330
1F
100
AcDbEntity
  8
S_1_1
  6
CONTINUOUS
 62
     3
100
AcDbLine
 10
270.0000000000002
 20
411.361819671709
 30
0.0
 11
281.5000000000002
 21
411.361819671709
 31
0.0
  0
LINE
  5
3C4
330
1F
100
AcDbEntity
  8
S_1_1
  6
CONTINUOUS
 62
     3
100
AcDbLine
 10
258.5000000000002
 20
444.361819671709
 30
0.0
 11
270.0000000000002
 21
444.361819671709
 31
0.0
  0
LINE
  5
3C5
330
1F
100
AcDbEntity
  8
S_1_1
  6
CONTINUOUS
 62
     3
100
AcDbLine
 10
270.0000000000002
 20
444.361819671709
 30
0.0
 11
281.5000000000002
 21
444.361819671709
 31
0.0
  0
LINE
  5
3C6
330
1F
100
AcDbEntity
  8
S_1_1
  6
CONTINUOUS
 62
     3
100
AcDbLine
 10
281.5000013689003
 20
444.3618212304088
 30
0.0
 11
282.5000014189002
 21
443.3618210960086
 31
0.0
  0
LINE
  5
3C7
330
1F
100
AcDbEntity
  8
S_1_1
  6
CONTINUOUS
 62
     3
100
AcDbLine
 10
282.5000007867
 20
412.3618185746088
 30
0.0
 11
281.5000009896
 21
411.3618188617089
 31
0.0
  0
LINE
  5
3C8
330
1F
100
AcDbEntity
  8
S_1_1
  6
CONTINUOUS
 62
     3
100
AcDbLine
 10
257.5000000481002
 20
412.3618197475091
 30
0.0
 11
258.5000001752003
 21
411.3618197047087
 31
0.0
  0
LINE
  5
3C9
330
1F
100
AcDbEntity
  8
S_1_1
  6
CONTINUOUS
 62
     3
100
AcDbLine
 10
258.4999997116004
 20
444.361820134509
 30
0.0
 11
257.4999999987001
 21
443.3618203374087
 31
0.0
  0
LINE
  5
3CA
330
1F
100
AcDbEntity
  8
S_1_1
  6
CONTINUOUS
 62
     3
100
AcDbLine
 10
257.5000000000002
 20
443.361819671709
 30
0.0
 11
282.5000000000002
 21
443.361819671709
 31
0.0
  0
LINE
  5
3CB
330
1F
100
AcDbEntity
  8
S_1_1
  6
CONTINUOUS
 62
     3
100
AcDbLine
 10
257.5000000000002
 20
412.361819671709
 30
0.0
 11
282.5000000000002
 21
412.361819671709
 31
0.0
  0
LINE
  5
3CC
330
1F
100
AcDbEntity
  8
S_1_1
  6
CONTINUOUS
 62
     3
100
AcDbLine
 10
278.2648620000002
 20
445.7240916717199
 30
0.0
 11
261.7351450000003
 21
445.7240916717199
 31
0.0
  0
LINE
  5
3CD
330
1F
100
AcDbEntity
  8
S_1_1
  6
CONTINUOUS
 62
     3
100
AcDbLine
 10
262.8201190000002
 20
451.8617926717199
 30
0.0
 11
262.4365110000001
 21
445.7240796717199
 31
0.0
  0
LINE
  5
3CE
330
1F
100
AcDbEntity
  8
S_1_1
  6
CONTINUOUS
 62
     3
100
AcDbLine
 10
262.118749
 20
451.8618106717199
 30
0.0
 11
261.6499980000001
 21
444.3617966717198
 31
0.0
  0
LINE
  5
3CF
330
1F
100
AcDbEntity
  8
S_1_1
  6
CONTINUOUS
 62
     3
100
AcDbLine
 10
262.4365260000002
 20
445.7240996717199
 30
0.0
 11
261.6500110000002
 21
444.3618166717199
 31
0.0
  0
LINE
  5
3D0
330
1F
100
AcDbEntity
  8
S_1_1
  6
CONTINUOUS
 62
     3
100
AcDbLine
 10
277.8812500000001
 20
451.8618226717199
 30
0.0
 11
278.3500030000002
 21
444.3617776717199
 31
0.0
  0
LINE
  5
3D1
330
1F
100
AcDbEntity
  8
S_1_1
  6
CONTINUOUS
 62
     3
100
AcDbLine
 10
278.3499890000001
 20
444.3618006717199
 30
0.0
 11
277.5634830000001
 21
445.7240706717199
 31
0.0
  0
LINE
  5
3D2
330
1F
100
AcDbEntity
  8
S_1_1
  6
CONTINUOUS
 62
     3
100
AcDbLine
 10
277.1798880000003
 20
451.8618046717199
 30
0.0
 11
277.5634970000003
 21
445.7240616717199
 31
0.0
  0
LINE
  5
3D3
330
1F
100
AcDbEntity
  8
S_1_1
  6
CONTINUOUS
 62
     3
100
AcDbLine
 10
278.2648620000002
 20
409.9995476716999
 30
0.0
 11
261.7351450000003
 21
409.9995476716999
 31
0.0
  0
LINE
  5
3D4
330
1F
100
AcDbEntity
  8
S_1_1
  6
CONTINUOUS
 62
     3
100
AcDbLine
 10
278.3500120000001
 20
411.3618386716999
 30
0.0
 11
277.5634980000002
 21
409.9995556716999
 31
0.0
  0
LINE
  5
3D5
330
1F
100
AcDbEntity
  8
S_1_1
  6
CONTINUOUS
 62
     3
100
AcDbLine
 10
262.4365030000001
 20
409.9995396716998
 30
0.0
 11
261.6499960000003
 21
411.3618096716999
 31
0.0
  0
ARC
  5
3D6
330
1F
100
AcDbEntity
  8
S_1_1
  6
CONTINUOUS
 62
     3
100
AcDbCircle
 10
280.3922884999899
 20
452.7279856717183
 30
0.0
 40
6.133925000000002
100
AcDbArc
 50
55.61543800000034
 51
124.3845830000003
  0
ARC
  5
3D7
330
1F
100
AcDbEntity
  8
S_1_1
  6
CONTINUOUS
 62
     3
100
AcDbCircle
 10
269.99998449999
 20
435.9336736717183
 30
0.0
 40
22.927938
100
AcDbArc
 50
72.411858
 51
107.5881660000001
  0
ARC
  5
3D8
330
1F
100
AcDbEntity
  8
S_1_1
  6
CONTINUOUS
 62
     3
100
AcDbCircle
 10
259.6076504999903
 20
457.9956856717182
 30
0.0
 40
6.133925000000002
100
AcDbArc
 50
235.6154019999991
 51
304.3845609999998
  0
ARC
  5
3D9
330
1F
100
AcDbEntity
  8
S_1_1
  6
CONTINUOUS
 62
     3
100
AcDbCircle
 10
265.4999844999904
 20
495.8616526717184
 30
0.0
 40
1.0
100
AcDbArc
 50
89.99997799999524
 51
179.9999749999976
  0
ARC
  5
3DA
330
1F
100
AcDbEntity
  8
S_1_1
  6
CONTINUOUS
 62
     3
100
AcDbCircle
 10
259.6076504999903
 20
452.7279856717183
 30
0.0
 40
6.133925000000002
100
AcDbArc
 50
55.6153689999997
 51
124.384513999999
  0
ARC
  5
3DB
330
1F
100
AcDbEntity
  8
S_1_1
  6
CONTINUOUS
 62
     3
100
AcDbCircle
 10
269.99998449999
 20
474.7897526717185
 30
0.0
 40
22.927942
100
AcDbArc
 50
252.4118210000002
 51
287.5881150000001
  0
ARC
  5
3DC
330
1F
100
AcDbEntity
  8
S_1_1
  6
CONTINUOUS
 62
     3
100
AcDbCircle
 10
280.3922884999899
 20
457.9956856717182
 30
0.0
 40
6.133925000000002
100
AcDbArc
 50
235.6154159999998
 51
304.3845739999999
  0
ARC
  5
3DD
330
1F
100
AcDbEntity
  8
S_1_1
  6
CONTINUOUS
 62
     3
100
AcDbCircle
 10
274.4999544999898
 20
495.8616526717184
 30
0.0
 40
1.0
100
AcDbArc
 50
359.9999970000023
 51
89.9999780000017
  0
LINE
  5
3DE
330
1F
100
AcDbEntity
  8
S_1_1
  6
CONTINUOUS
 62
     3
100
AcDbLine
 10
268.50001549999
 20
498.8617746717183
 30
0.0
 11
271.49998449999
 21
498.8617746717183
 31
0.0
  0
LINE
  5
3DF
330
1F
100
AcDbEntity
  8
S_1_1
  6
CONTINUOUS
 62
     3
100
AcDbLine
 10
257.9999844999904
 20
451.8618966717182
 30
0.0
 11
281.9999544999898
 21
451.8618966717182
 31
0.0
  0
LINE
  5
3E0
330
1F
100
AcDbEntity
  8
S_1_1
  6
CONTINUOUS
 62
     3
100
AcDbLine
 10
264.4999544999903
 20
495.8616526717184
 30
0.0
 11
264.4999544999903
 21
486.8618966717182
 31
0.0
  0
LINE
  5
3E1
330
1F
100
AcDbEntity
  8
S_1_1
  6
CONTINUOUS
 62
     3
100
AcDbLine
 10
264.4999544999903
 20
486.8618966717182
 30
0.0
 11
275.49998449999
 21
486.8618966717182
 31
0.0
  0
LINE
  5
3E2
330
1F
100
AcDbEntity
  8
S_1_1
  6
CONTINUOUS
 62
     3
100
AcDbLine
 10
261.0000154999905
 20
483.3616526717184
 30
0.0
 11
261.0000154999905
 21
481.3617746717183
 31
0.0
  0
LINE
  5
3E3
330
1F
100
AcDbEntity
  8
S_1_1
  6
CONTINUOUS
 62
     3
100
AcDbLine
 10
278.99998449999
 20
483.3616526717184
 30
0.0
 11
278.99998449999
 21
481.3617746717183
 31
0.0
  0
LINE
  5
3E4
330
1F
100
AcDbEntity
  8
S_1_1
  6
CONTINUOUS
 62
     3
100
AcDbLine
 10
258.7499844999904
 20
467.8617746717183
 30
0.0
 11
281.24998449999
 21
467.8617746717183
 31
0.0
  0
LINE
  5
3E5
330
1F
100
AcDbEntity
  8
S_1_1
  6
CONTINUOUS
 62
     3
100
AcDbLine
 10
281.74998449999
 20
467.3617746717183
 30
0.0
 11
281.74998449999
 21
458.8617746717183
 31
0.0
  0
LINE
  5
3E6
330
1F
100
AcDbEntity
  8
S_1_1
  6
CONTINUOUS
 62
     3
100
AcDbLine
 10
258.2499544999903
 20
467.3617746717183
 30
0.0
 11
258.2499544999903
 21
458.8617746717183
 31
0.0
  0
LINE
  5
3E7
330
1F
100
AcDbEntity
  8
S_1_1
  6
CONTINUOUS
 62
     3
100
AcDbLine
 10
256.1436164999902
 20
452.9337486717183
 30
0.0
 11
257.9999884999904
 21
451.8619716717186
 31
0.0
  0
LINE
  5
3E8
330
1F
100
AcDbEntity
  8
S_1_1
  6
CONTINUOUS
 62
     3
100
AcDbLine
 10
281.9999114999898
 20
458.8619656717184
 30
0.0
 11
283.85638949999
 21
457.7901266717183
 31
0.0
  0
LINE
  5
3E9
330
1F
100
AcDbEntity
  8
S_1_1
  6
CONTINUOUS
 62
     3
100
AcDbLine
 10
281.9999534999899
 20
451.8619296717185
 30
0.0
 11
283.85632649999
 21
452.9337066717186
 31
0.0
  0
LINE
  5
3EA
330
1F
100
AcDbEntity
  8
S_1_1
  6
CONTINUOUS
 62
     3
100
AcDbLine
 10
256.1436234999903
 20
457.7902666717183
 30
0.0
 11
257.9999964999904
 21
458.8620436717184
 31
0.0
  0
LINE
  5
3EB
330
1F
100
AcDbEntity
  8
S_1_1
  6
CONTINUOUS
 62
     3
100
AcDbLine
 10
283.8563994999897
 20
457.7899966717183
 30
0.0
 11
283.8563994999897
 21
452.9336736717184
 31
0.0
  0
LINE
  5
3EC
330
1F
100
AcDbEntity
  8
S_1_1
  6
CONTINUOUS
 62
     3
100
AcDbLine
 10
276.9282074999899
 20
457.7899966717183
 30
0.0
 11
276.9282074999899
 21
452.9336736717184
 31
0.0
  0
LINE
  5
3ED
330
1F
100
AcDbEntity
  8
S_1_1
  6
CONTINUOUS
 62
     3
100
AcDbLine
 10
263.0718534999903
 20
457.7899966717183
 30
0.0
 11
263.0718534999903
 21
452.9336736717184
 31
0.0
  0
LINE
  5
3EE
330
1F
100
AcDbEntity
  8
S_1_1
  6
CONTINUOUS
 62
     3
100
AcDbLine
 10
256.1435854999902
 20
457.7899966717183
 30
0.0
 11
256.1435854999902
 21
452.9336736717184
 31
0.0
  0
LINE
  5
3EF
330
1F
100
AcDbEntity
  8
S_1_1
  6
CONTINUOUS
 62
     3
100
AcDbLine
 10
257.9999844999904
 20
458.8617746717183
 30
0.0
 11
281.9999544999898
 21
458.8617746717183
 31
0.0
  0
LINE
  5
3F0
330
1F
100
AcDbEntity
  8
S_1_1
  6
CONTINUOUS
 62
     3
100
AcDbLine
 10
265.4999844999904
 20
496.8618966717187
 30
0.0
 11
274.4999544999898
 21
496.8618966717187
 31
0.0
  0
LINE
  5
3F1
330
1F
100
AcDbEntity
  8
S_1_1
  6
CONTINUOUS
 62
     3
100
AcDbLine
 10
271.49984349999
 20
498.8619616717185
 30
0.0
 11
273.4998884999898
 21
496.8619166717187
 31
0.0
  0
LINE
  5
3F2
330
1F
100
AcDbEntity
  8
S_1_1
  6
CONTINUOUS
 62
     3
100
AcDbLine
 10
266.4998164999904
 20
496.8619596717182
 30
0.0
 11
268.4997754999897
 21
498.8619186717185
 31
0.0
  0
LINE
  5
3F3
330
1F
100
AcDbEntity
  8
S_1_1
  6
CONTINUOUS
 62
     3
100
AcDbLine
 10
262.4999844999904
 20
478.3616526717184
 30
0.0
 11
277.49998449999
 21
478.3616526717184
 31
0.0
  0
LINE
  5
3F4
330
1F
100
AcDbEntity
  8
S_1_1
  6
CONTINUOUS
 62
     3
100
AcDbLine
 10
262.4999844999904
 20
479.8617746717183
 30
0.0
 11
277.49998449999
 21
479.8617746717183
 31
0.0
  0
LINE
  5
3F5
330
1F
100
AcDbEntity
  8
S_1_1
  6
CONTINUOUS
 62
     3
100
AcDbLine
 10
261.0000154999905
 20
483.3616526717184
 30
0.0
 11
278.99998449999
 21
483.3616526717184
 31
0.0
  0
LINE
  5
3F6
330
1F
100
AcDbEntity
  8
S_1_1
  6
CONTINUOUS
 62
     3
100
AcDbLine
 10
278.99998449999
 20
476.8618966717182
 30
0.0
 11
278.99998449999
 21
467.8617746717183
 31
0.0
  0
LINE
  5
3F7
330
1F
100
AcDbEntity
  8
S_1_1
  6
CONTINUOUS
 62
     3
100
AcDbLine
 10
261.0000154999905
 20
476.8618966717182
 30
0.0
 11
261.0000154999905
 21
467.8617746717183
 31
0.0
  0
LINE
  5
3F8
330
1F
100
AcDbEntity
  8
S_1_1
  6
CONTINUOUS
 62
     3
100
AcDbLine
 10
260.9998724999903
 20
481.3617956717187
 30
0.0
 11
262.4998844999902
 21
479.8617826717183
 31
0.0
  0
LINE
  5
3F9
330
1F
100
AcDbEntity
  8
S_1_1
  6
CONTINUOUS
 62
     3
100
AcDbLine
 10
277.4999504999898
 20
479.8617816717184
 30
0.0
 11
278.9998334999898
 21
481.3616646717184
 31
0.0
  0
LINE
  5
3FA
330
1F
100
AcDbEntity
  8
S_1_1
  6
CONTINUOUS
 62
     3
100
AcDbLine
 10
261.0000154999905
 20
481.3617746717183
 30
0.0
 11
278.99998449999
 21
481.3617746717183
 31
0.0
  0
LINE
  5
3FB
330
1F
100
AcDbEntity
  8
S_1_1
  6
CONTINUOUS
 62
     3
100
AcDbLine
 10
260.9999864999902
 20
476.8619296717185
 30
0.0
 11
262.4998694999902
 21
478.3618126717184
 31
0.0
  0
LINE
  5
3FC
330
1F
100
AcDbEntity
  8
S_1_1
  6
CONTINUOUS
 62
     3
100
AcDbLine
 10
277.4998364999899
 20
478.3617706717183
 30
0.0
 11
278.9998494999898
 21
476.8617586717184
 31
0.0
  0
LINE
  5
3FD
330
1F
100
AcDbEntity
  8
S_1_1
  6
CONTINUOUS
 62
     3
100
AcDbLine
 10
258.2499544999903
 20
467.3617746717183
 30
0.0
 11
281.74998449999
 21
467.3617746717183
 31
0.0
  0
LINE
  5
3FE
330
1F
100
AcDbEntity
  8
S_1_1
  6
CONTINUOUS
 62
     3
100
AcDbLine
 10
261.0000154999905
 20
476.8618966717182
 30
0.0
 11
278.99998449999
 21
476.8618966717182
 31
0.0
  0
LINE
  5
3FF
330
1F
100
AcDbEntity
  8
S_1_1
  6
CONTINUOUS
 62
     3
100
AcDbLine
 10
262.4999844999904
 20
479.8617746717183
 30
0.0
 11
262.4999844999904
 21
478.3616526717184
 31
0.0
  0
LINE
  5
400
330
1F
100
AcDbEntity
  8
S_1_1
  6
CONTINUOUS
 62
     3
100
AcDbLine
 10
277.49998449999
 20
479.8617746717183
 30
0.0
 11
277.49998449999
 21
478.3616526717184
 31
0.0
  0
LINE
  5
401
330
1F
100
AcDbEntity
  8
S_1_1
  6
CONTINUOUS
 62
     3
100
AcDbLine
 10
281.2498804999898
 20
467.8618636717184
 30
0.0
 11
281.74982749999
 21
467.3619176717185
 31
0.0
  0
LINE
  5
402
330
1F
100
AcDbEntity
  8
S_1_1
  6
CONTINUOUS
 62
     3
100
AcDbLine
 10
258.2499094999905
 20
467.3618656717182
 30
0.0
 11
258.7498074999905
 21
467.8617746717183
 31
0.0
  0
LINE
  5
403
330
1F
100
AcDbEntity
  8
S_1_1
  6
CONTINUOUS
 62
     3
100
AcDbLine
 10
260.9999434999902
 20
483.3618836717184
 30
0.0
 11
264.4999574999904
 21
486.8618976717186
 31
0.0
  0
LINE
  5
404
330
1F
100
AcDbEntity
  8
S_1_1
  6
CONTINUOUS
 62
     3
100
AcDbLine
 10
275.4998344999901
 20
486.8616836717184
 30
0.0
 11
278.9998054999899
 21
483.3617116717184
 31
0.0
  0
LINE
  5
405
330
1F
100
AcDbEntity
  8
S_1_1
  6
CONTINUOUS
 62
     3
100
AcDbLine
 10
275.49998449999
 20
495.8616526717184
 30
0.0
 11
275.49998449999
 21
486.8618966717182
 31
0.0
  0
LINE
  5
406
330
1F
100
AcDbEntity
  8
S_1_1
  6
CONTINUOUS
 62
     3
100
AcDbLine
 10
319.0000000000007
 20
432.111819671709
 30
0.0
 11
324.0000000000007
 21
432.111819671709
 31
0.0
  0
LINE
  5
407
330
1F
100
AcDbEntity
  8
S_1_1
  6
CONTINUOUS
 62
     3
100
AcDbLine
 10
319.0000000000007
 20
423.611819671709
 30
0.0
 11
324.0000000000007
 21
423.611819671709
 31
0.0
  0
LINE
  5
408
330
1F
100
AcDbEntity
  8
S_1_1
  6
CONTINUOUS
 62
     3
100
AcDbLine
 10
319.0000000000007
 20
422.861819671709
 30
0.0
 11
323.2500000000006
 21
422.861819671709
 31
0.0
  0
LINE
  5
409
330
1F
100
AcDbEntity
  8
S_1_1
  6
CONTINUOUS
 62
     3
100
AcDbLine
 10
319.0000000000007
 20
432.861819671709
 30
0.0
 11
323.2500000000006
 21
432.861819671709
 31
0.0
  0
LINE
  5
40A
330
1F
100
AcDbEntity
  8
S_1_1
  6
CONTINUOUS
 62
     3
100
AcDbLine
 10
324.0000000000007
 20
423.611819671709
 30
0.0
 11
324.0000000000007
 21
432.111819671709
 31
0.0
  0
LINE
  5
40B
330
1F
100
AcDbEntity
  8
S_1_1
  6
CONTINUOUS
 62
     3
100
AcDbLine
 10
323.2500000000006
 20
422.861819671709
 30
0.0
 11
323.2500000000006
 21
432.861819671709
 31
0.0
  0
LINE
  5
40C
330
1F
100
AcDbEntity
  8
S_1_1
  6
CONTINUOUS
 62
     3
100
AcDbLine
 10
323.2500025577008
 20
422.861820796709
 30
0.0
 11
324.0000006565008
 21
423.6118189587089
 31
0.0
  0
LINE
  5
40D
330
1F
100
AcDbEntity
  8
S_1_1
  6
CONTINUOUS
 62
     3
100
AcDbLine
 10
324.0000016470005
 20
432.1118215970088
 30
0.0
 11
323.2500014619006
 21
432.8618217188088
 31
0.0
  0
LINE
  5
40E
330
1F
100
AcDbEntity
  8
S_1_1
  6
CONTINUOUS
 62
     3
100
AcDbLine
 10
312.0000000000007
 20
427.861819671709
 30
0.0
 11
312.0000000000007
 21
437.861819671709
 31
0.0
  0
LINE
  5
40F
330
1F
100
AcDbEntity
  8
S_1_1
  6
CONTINUOUS
 62
     3
100
AcDbLine
 10
312.0000000000007
 20
417.861819671709
 30
0.0
 11
312.0000000000007
 21
427.861819671709
 31
0.0
  0
LINE
  5
410
330
1F
100
AcDbEntity
  8
S_1_1
  6
CONTINUOUS
 62
     3
100
AcDbLine
 10
312.0000005510008
 20
437.8618191207089
 30
0.0
 11
313.0000005800005
 21
436.8618190074086
 31
0.0
  0
LINE
  5
411
330
1F
100
AcDbEntity
  8
S_1_1
  6
CONTINUOUS
 62
     3
100
AcDbLine
 10
313.0000002849008
 20
418.861819872309
 30
0.0
 11
312.0000004877008
 21
417.8618201594088
 31
0.0
  0
LINE
  5
412
330
1F
100
AcDbEntity
  8
S_1_1
  6
CONTINUOUS
 62
     3
100
AcDbLine
 10
313.0000000000007
 20
418.861819872309
 30
0.0
 11
313.0000000000007
 21
427.861819671709
 31
0.0
  0
LINE
  5
413
330
1F
100
AcDbEntity
  8
S_1_1
  6
CONTINUOUS
 62
     3
100
AcDbLine
 10
313.0000000000007
 20
427.861819671709
 30
0.0
 11
313.0000000000007
 21
436.8618190074086
 31
0.0
  0
LINE
  5
414
330
1F
100
AcDbEntity
  8
S_1_1
  6
CONTINUOUS
 62
     3
100
AcDbLine
 10
282.5000000000002
 20
437.861819671709
 30
0.0
 11
312.0000000000007
 21
437.861819671709
 31
0.0
  0
LINE
  5
415
330
1F
100
AcDbEntity
  8
S_1_1
  6
CONTINUOUS
 62
     3
100
AcDbLine
 10
318.9999981656008
 20
435.354232334909
 30
0.0
 11
317.9999979724005
 21
437.3618189246087
 31
0.0
  0
LINE
  5
416
330
1F
100
AcDbEntity
  8
S_1_1
  6
CONTINUOUS
 62
     3
100
AcDbLine
 10
318.9999995145006
 20
420.369405915709
 30
0.0
 11
317.9999993213007
 21
418.3618193260088
 31
0.0
  0
LINE
  5
417
330
1F
100
AcDbEntity
  8
S_1_1
  6
CONTINUOUS
 62
     3
100
AcDbLine
 10
312.9999999766007
 20
435.354232977909
 30
0.0
 11
314.0000001698006
 21
437.3618195676087
 31
0.0
  0
LINE
  5
418
330
1F
100
AcDbEntity
  8
S_1_1
  6
CONTINUOUS
 62
     3
100
AcDbLine
 10
312.9999984859007
 20
420.369405557409
 30
0.0
 11
313.9999985375005
 21
418.3618192522087
 31
0.0
  0
LINE
  5
419
330
1F
100
AcDbEntity
  8
S_1_1
  6
CONTINUOUS
 62
     3
100
AcDbLine
 10
314.0000000000007
 20
418.361819671709
 30
0.0
 11
318.0000000000007
 21
418.361819671709
 31
0.0
  0
LINE
  5
41A
330
1F
100
AcDbEntity
  8
S_1_1
  6
CONTINUOUS
 62
     3
100
AcDbLine
 10
314.0000000000007
 20
437.361819671709
 30
0.0
 11
318.0000000000007
 21
437.361819671709
 31
0.0
  0
LINE
  5
41B
330
1F
100
AcDbEntity
  8
S_1_1
  6
CONTINUOUS
 62
     3
100
AcDbLine
 10
319.0000000000007
 20
427.861819671709
 30
0.0
 11
319.0000000000007
 21
435.3542335104091
 31
0.0
  0
LINE
  5
41C
330
1F
100
AcDbEntity
  8
S_1_1
  6
CONTINUOUS
 62
     3
100
AcDbLine
 10
319.0000000000007
 20
420.369405833009
 30
0.0
 11
319.0000000000007
 21
427.861819671709
 31
0.0
  0
ARC
  5
41D
330
1F
100
AcDbEntity
  8
S_1_1
  6
CONTINUOUS
 62
     3
100
AcDbCircle
 10
328.5416666667008
 20
427.861819671709
 30
0.0
 40
15.5416666667
100
AcDbArc
 50
159.3345163543002
 51
159.3345238904477
  0
ARC
  5
41E
330
1F
100
AcDbEntity
  8
S_1_1
  6
CONTINUOUS
 62
     3
100
AcDbCircle
 10
303.4583333333005
 20
427.861819671709
 30
0.0
 40
15.5416666667
100
AcDbArc
 50
20.66547610955293
 51
20.66547840939962
  0
ARC
  5
41F
330
1F
100
AcDbEntity
  8
S_1_1
  6
CONTINUOUS
 62
     3
100
AcDbCircle
 10
328.5416666667008
 20
427.861819671709
 30
0.0
 40
15.5416666667
100
AcDbArc
 50
162.8126324028145
 51
197.1873680951787
  0
ARC
  5
420
330
1F
100
AcDbEntity
  8
S_1_1
  6
CONTINUOUS
 62
     3
100
AcDbCircle
 10
328.5416666667008
 20
427.861819671709
 30
0.0
 40
15.5416666667
100
AcDbArc
 50
200.6654786560356
 51
200.6654800033002
  0
ARC
  5
421
330
1F
100
AcDbEntity
  8
S_1_1
  6
CONTINUOUS
 62
     3
100
AcDbCircle
 10
303.4583333333005
 20
427.861819671709
 30
0.0
 40
15.5416666667
100
AcDbArc
 50
342.8126319048212
 51
17.18736759718547
  0
LINE
  5
422
330
1F
100
AcDbEntity
  8
S_1_1
  6
CONTINUOUS
 62
     3
100
AcDbLine
 10
318.3059641178627
 20
432.454342166389
 30
0.0
 11
313.6940358821387
 21
432.454342166389
 31
0.0
  0
LINE
  5
423
330
1F
100
AcDbEntity
  8
S_1_1
  6
CONTINUOUS
 62
     3
100
AcDbLine
 10
318.3059640779463
 20
423.269297047979
 30
0.0
 11
313.694035922055
 21
423.269297047979
 31
0.0
  0
ARC
  5
424
330
1F
100
AcDbEntity
  8
S_1_1
  6
CONTINUOUS
 62
     3
100
AcDbCircle
 10
313.0000000000007
 20
420.3694025177189
 30
0.0
 40
6.000000000001596
100
AcDbArc
 50
0.0000417559226242
 51
28.90218407791362
  0
ARC
  5
425
330
1F
100
AcDbEntity
  8
S_1_1
  6
CONTINUOUS
 62
     3
100
AcDbCircle
 10
319.0000000000007
 20
420.3694068903889
 30
0.0
 40
6.000000000001596
100
AcDbArc
 50
151.0978636188124
 51
180.0000417558857
  0
ARC
  5
426
330
1F
100
AcDbEntity
  8
S_1_1
  6
CONTINUOUS
 62
     3
100
AcDbCircle
 10
319.0000000000007
 20
435.354233024889
 30
0.0
 40
6.000000000000006
100
AcDbArc
 50
179.9999920172612
 51
208.9021440266621
  0
ARC
  5
427
330
1F
100
AcDbEntity
  8
S_1_1
  6
CONTINUOUS
 62
     3
100
AcDbCircle
 10
313.0000000000007
 20
435.354233024889
 30
0.0
 40
6.000000000001596
100
AcDbArc
 50
331.0978559733464
 51
0.0
  0
LINE
  5
428
330
1F
100
AcDbEntity
  8
S_1_1
  6
CONTINUOUS
 62
     3
100
AcDbLine
 10
282.5000000000002
 20
417.861819671709
 30
0.0
 11
312.0000000000007
 21
417.861819671709
 31
0.0
  0
LINE
  5
429
330
1F
100
AcDbEntity
  8
S_1_1
  6
EXLTYPE2
 62
     1
100
AcDbLine
 10
256.1188507080003
 20
427.861819671709
 30
0.0
 11
325.0114479065007
 21
427.861819671709
 31
0.0
  0
LINE
  5
42A
330
1F
100
AcDbEntity
  8
S_1_1
  6
CONTINUOUS
 62
     3
100
AcDbLine
 10
257.5000000000002
 20
412.361819671709
 30
0.0
 11
257.5000000000002
 21
443.361819671709
 31
0.0
  0
LINE
  5
42B
330
1F
100
AcDbEntity
  8
S_1_1
  6
CONTINUOUS
 62
     3
100
AcDbLine
 10
282.5000000000002
 20
412.361819671709
 30
0.0
 11
282.5000000000002
 21
443.361819671709
 31
0.0
  0
LINE
  5
42C
330
1F
100
AcDbEntity
  8
S_1_1
  6
CONTINUOUS
 62
     3
100
AcDbLine
 10
262.0476508124991
 20
404.9995406716969
 30
0.0
 11
261.6500100000001
 21
411.3618036716999
 31
0.0
  0
LINE
  5
42D
330
1F
100
AcDbEntity
  8
S_1_1
  6
CONTINUOUS
 62
     3
100
AcDbLine
 10
262.7490140000004
 20
404.9995406716969
 30
0.0
 11
262.4365130000003
 21
409.9995506716999
 31
0.0
  0
LINE
  5
42E
330
1F
100
AcDbEntity
  8
S_1_1
  6
CONTINUOUS
 62
     3
100
AcDbLine
 10
277.2509897500008
 20
404.9995406716969
 30
0.0
 11
277.5634900000002
 21
409.9995386716999
 31
0.0
  0
LINE
  5
42F
330
1F
100
AcDbEntity
  8
S_1_1
  6
CONTINUOUS
 62
     3
100
AcDbLine
 10
277.9523530000001
 20
404.9995406716969
 30
0.0
 11
278.349993
 21
411.3617916716998
 31
0.0
  0
LINE
  5
430
330
1F
100
AcDbEntity
  8
S_1_1
  6
CONTINUOUS
 62
     3
100
AcDbLine
 10
623.49998276389
 20
411.3620867005091
 30
0.0
 11
634.99998276389
 21
411.3620867005091
 31
0.0
  0
LINE
  5
431
330
1F
100
AcDbEntity
  8
S_1_1
  6
CONTINUOUS
 62
     3
100
AcDbLine
 10
634.99998276389
 20
411.3620867005091
 30
0.0
 11
646.49998276389
 21
411.3620867005091
 31
0.0
  0
LINE
  5
432
330
1F
100
AcDbEntity
  8
S_1_1
  6
CONTINUOUS
 62
     3
100
AcDbLine
 10
647.49998276389
 20
412.3620867005091
 30
0.0
 11
647.49998276389
 21
427.8620867005091
 31
0.0
  0
LINE
  5
433
330
1F
100
AcDbEntity
  8
S_1_1
  6
CONTINUOUS
 62
     3
100
AcDbLine
 10
647.49998276389
 20
443.3620867005091
 30
0.0
 11
647.49998276389
 21
427.8620867005091
 31
0.0
  0
LINE
  5
434
330
1F
100
AcDbEntity
  8
S_1_1
  6
CONTINUOUS
 62
     3
100
AcDbLine
 10
623.49998276389
 20
444.3620867005091
 30
0.0
 11
634.99998276389
 21
444.3620867005091
 31
0.0
  0
LINE
  5
435
330
1F
100
AcDbEntity
  8
S_1_1
  6
CONTINUOUS
 62
     3
100
AcDbLine
 10
634.99998276389
 20
444.3620867005091
 30
0.0
 11
646.49998276389
 21
444.3620867005091
 31
0.0
  0
LINE
  5
436
330
1F
100
AcDbEntity
  8
S_1_1
  6
CONTINUOUS
 62
     3
100
AcDbLine
 10
646.49998413279
 20
444.3620882592089
 30
0.0
 11
647.4999841827898
 21
443.3620881248087
 31
0.0
  0
LINE
  5
437
330
1F
100
AcDbEntity
  8
S_1_1
  6
CONTINUOUS
 62
     3
100
AcDbLine
 10
647.4999835505897
 20
412.3620856034088
 30
0.0
 11
646.4999837534898
 21
411.362085890509
 31
0.0
  0
LINE
  5
438
330
1F
100
AcDbEntity
  8
S_1_1
  6
CONTINUOUS
 62
     3
100
AcDbLine
 10
622.49998281199
 20
412.3620867763091
 30
0.0
 11
623.49998293909
 21
411.3620867335088
 31
0.0
  0
LINE
  5
439
330
1F
100
AcDbEntity
  8
S_1_1
  6
CONTINUOUS
 62
     3
100
AcDbLine
 10
622.49998276389
 20
412.3620867005091
 30
0.0
 11
622.49998276389
 21
427.8620867005091
 31
0.0
  0
LINE
  5
43A
330
1F
100
AcDbEntity
  8
S_1_1
  6
CONTINUOUS
 62
     3
100
AcDbLine
 10
623.4999824754901
 20
444.3620871633091
 30
0.0
 11
622.4999827625899
 21
443.3620873662088
 31
0.0
  0
LINE
  5
43B
330
1F
100
AcDbEntity
  8
S_1_1
  6
CONTINUOUS
 62
     3
100
AcDbLine
 10
622.49998276389
 20
443.3620867005091
 30
0.0
 11
622.49998276389
 21
427.8620867005091
 31
0.0
  0
LINE
  5
43C
330
1F
100
AcDbEntity
  8
S_1_1
  6
CONTINUOUS
 62
     3
100
AcDbLine
 10
622.49998276389
 20
443.3620867005091
 30
0.0
 11
647.49998276389
 21
443.3620867005091
 31
0.0
  0
LINE
  5
43D
330
1F
100
AcDbEntity
  8
S_1_1
  6
CONTINUOUS
 62
     3
100
AcDbLine
 10
622.49998276389
 20
412.3620867005091
 30
0.0
 11
647.49998276389
 21
412.3620867005091
 31
0.0
  0
LINE
  5
43E
330
1F
100
AcDbEntity
  8
S_1_1
  6
CONTINUOUS
 62
     3
100
AcDbLine
 10
643.26484476389
 20
445.7243587005199
 30
0.0
 11
626.7351277638901
 21
445.7243587005199
 31
0.0
  0
LINE
  5
43F
330
1F
100
AcDbEntity
  8
S_1_1
  6
CONTINUOUS
 62
     3
100
AcDbLine
 10
627.82010176389
 20
451.8620597005199
 30
0.0
 11
627.4364937638901
 21
445.72434670052
 31
0.0
  0
LINE
  5
440
330
1F
100
AcDbEntity
  8
S_1_1
  6
CONTINUOUS
 62
     3
100
AcDbLine
 10
627.11873176389
 20
451.8620777005199
 30
0.0
 11
626.6499807638901
 21
444.3620637005199
 31
0.0
  0
LINE
  5
441
330
1F
100
AcDbEntity
  8
S_1_1
  6
CONTINUOUS
 62
     3
100
AcDbLine
 10
627.4365087638902
 20
445.72436670052
 30
0.0
 11
626.6499937638899
 21
444.3620837005199
 31
0.0
  0
LINE
  5
442
330
1F
100
AcDbEntity
  8
S_1_1
  6
CONTINUOUS
 62
     3
100
AcDbLine
 10
642.8812327638898
 20
451.86208970052
 30
0.0
 11
643.3499857638899
 21
444.36204470052
 31
0.0
  0
LINE
  5
443
330
1F
100
AcDbEntity
  8
S_1_1
  6
CONTINUOUS
 62
     3
100
AcDbLine
 10
643.34997176389
 20
444.36206770052
 30
0.0
 11
642.5634657638899
 21
445.7243377005199
 31
0.0
  0
LINE
  5
444
330
1F
100
AcDbEntity
  8
S_1_1
  6
CONTINUOUS
 62
     3
100
AcDbLine
 10
642.17987076389
 20
451.86207170052
 30
0.0
 11
642.5634797638901
 21
445.7243287005199
 31
0.0
  0
LINE
  5
445
330
1F
100
AcDbEntity
  8
S_1_1
  6
CONTINUOUS
 62
     3
100
AcDbLine
 10
643.26484476389
 20
409.9998147004999
 30
0.0
 11
626.7351277638901
 21
409.9998147004999
 31
0.0
  0
LINE
  5
446
330
1F
100
AcDbEntity
  8
S_1_1
  6
CONTINUOUS
 62
     3
100
AcDbLine
 10
643.3499947638901
 20
411.3621057005
 30
0.0
 11
642.56348076389
 21
409.9998227005
 31
0.0
  0
LINE
  5
447
330
1F
100
AcDbEntity
  8
S_1_1
  6
CONTINUOUS
 62
     3
100
AcDbLine
 10
627.4364857638901
 20
409.9998067004999
 30
0.0
 11
626.6499787638901
 21
411.3620767005
 31
0.0
  0
ARC
  5
448
330
1F
100
AcDbEntity
  8
S_1_1
  6
CONTINUOUS
 62
     3
100
AcDbCircle
 10
645.3922712638797
 20
452.7282527005184
 30
0.0
 40
6.133925000000002
100
AcDbArc
 50
55.61543800000034
 51
124.3845830000003
  0
ARC
  5
449
330
1F
100
AcDbEntity
  8
S_1_1
  6
CONTINUOUS
 62
     3
100
AcDbCircle
 10
634.9999672638797
 20
435.9339407005184
 30
0.0
 40
22.927938
100
AcDbArc
 50
72.411858
 51
107.5881660000001
  0
ARC
  5
44A
330
1F
100
AcDbEntity
  8
S_1_1
  6
CONTINUOUS
 62
     3
100
AcDbCircle
 10
624.6076332638801
 20
457.9959527005183
 30
0.0
 40
6.133925000000002
100
AcDbArc
 50
235.6154019999991
 51
304.3845609999998
  0
ARC
  5
44B
330
1F
100
AcDbEntity
  8
S_1_1
  6
CONTINUOUS
 62
     3
100
AcDbCircle
 10
630.4999672638802
 20
495.8619197005186
 30
0.0
 40
1.0
100
AcDbArc
 50
89.99997799999524
 51
179.9999749999976
  0
ARC
  5
44C
330
1F
100
AcDbEntity
  8
S_1_1
  6
CONTINUOUS
 62
     3
100
AcDbCircle
 10
624.6076332638801
 20
452.7282527005184
 30
0.0
 40
6.133925000000002
100
AcDbArc
 50
55.6153689999997
 51
124.384513999999
  0
ARC
  5
44D
330
1F
100
AcDbEntity
  8
S_1_1
  6
CONTINUOUS
 62
     3
100
AcDbCircle
 10
634.9999672638797
 20
474.7900197005186
 30
0.0
 40
22.927942
100
AcDbArc
 50
252.4118210000002
 51
287.5881150000001
  0
ARC
  5
44E
330
1F
100
AcDbEntity
  8
S_1_1
  6
CONTINUOUS
 62
     3
100
AcDbCircle
 10
645.3922712638797
 20
457.9959527005183
 30
0.0
 40
6.133925000000002
100
AcDbArc
 50
235.6154159999998
 51
304.3845739999999
  0
ARC
  5
44F
330
1F
100
AcDbEntity
  8
S_1_1
  6
CONTINUOUS
 62
     3
100
AcDbCircle
 10
639.4999372638796
 20
495.8619197005186
 30
0.0
 40
1.0
100
AcDbArc
 50
359.9999970000023
 51
89.9999780000017
  0
LINE
  5
450
330
1F
100
AcDbEntity
  8
S_1_1
  6
CONTINUOUS
 62
     3
100
AcDbLine
 10
633.4999982638798
 20
498.8620417005184
 30
0.0
 11
636.4999672638797
 21
498.8620417005184
 31
0.0
  0
LINE
  5
451
330
1F
100
AcDbEntity
  8
S_1_1
  6
CONTINUOUS
 62
     3
100
AcDbLine
 10
622.9999672638802
 20
451.8621637005183
 30
0.0
 11
646.9999372638796
 21
451.8621637005183
 31
0.0
  0
LINE
  5
452
330
1F
100
AcDbEntity
  8
S_1_1
  6
CONTINUOUS
 62
     3
100
AcDbLine
 10
629.49993726388
 20
495.8619197005186
 30
0.0
 11
629.49993726388
 21
486.8621637005184
 31
0.0
  0
LINE
  5
453
330
1F
100
AcDbEntity
  8
S_1_1
  6
CONTINUOUS
 62
     3
100
AcDbLine
 10
629.49993726388
 20
486.8621637005184
 30
0.0
 11
640.4999672638797
 21
486.8621637005184
 31
0.0
  0
LINE
  5
454
330
1F
100
AcDbEntity
  8
S_1_1
  6
CONTINUOUS
 62
     3
100
AcDbLine
 10
625.9999982638802
 20
483.3619197005186
 30
0.0
 11
625.9999982638802
 21
481.3620417005184
 31
0.0
  0
LINE
  5
455
330
1F
100
AcDbEntity
  8
S_1_1
  6
CONTINUOUS
 62
     3
100
AcDbLine
 10
643.9999672638797
 20
483.3619197005186
 30
0.0
 11
643.9999672638797
 21
481.3620417005184
 31
0.0
  0
LINE
  5
456
330
1F
100
AcDbEntity
  8
S_1_1
  6
CONTINUOUS
 62
     3
100
AcDbLine
 10
623.7499672638802
 20
467.8620417005184
 30
0.0
 11
646.2499672638797
 21
467.8620417005184
 31
0.0
  0
LINE
  5
457
330
1F
100
AcDbEntity
  8
S_1_1
  6
CONTINUOUS
 62
     3
100
AcDbLine
 10
646.7499672638797
 20
467.3620417005185
 30
0.0
 11
646.7499672638797
 21
458.8620417005184
 31
0.0
  0
LINE
  5
458
330
1F
100
AcDbEntity
  8
S_1_1
  6
CONTINUOUS
 62
     3
100
AcDbLine
 10
623.24993726388
 20
467.3620417005185
 30
0.0
 11
623.24993726388
 21
458.8620417005184
 31
0.0
  0
LINE
  5
459
330
1F
100
AcDbEntity
  8
S_1_1
  6
CONTINUOUS
 62
     3
100
AcDbLine
 10
621.14359926388
 20
452.9340157005183
 30
0.0
 11
622.9999712638802
 21
451.8622387005187
 31
0.0
  0
LINE
  5
45A
330
1F
100
AcDbEntity
  8
S_1_1
  6
CONTINUOUS
 62
     3
100
AcDbLine
 10
646.9998942638796
 20
458.8622327005185
 30
0.0
 11
648.8563722638796
 21
457.7903937005183
 31
0.0
  0
LINE
  5
45B
330
1F
100
AcDbEntity
  8
S_1_1
  6
CONTINUOUS
 62
     3
100
AcDbLine
 10
646.9999362638797
 20
451.8621967005186
 30
0.0
 11
648.8563092638797
 21
452.9339737005187
 31
0.0
  0
LINE
  5
45C
330
1F
100
AcDbEntity
  8
S_1_1
  6
CONTINUOUS
 62
     3
100
AcDbLine
 10
621.1436062638801
 20
457.7905337005184
 30
0.0
 11
622.9999792638802
 21
458.8623107005185
 31
0.0
  0
LINE
  5
45D
330
1F
100
AcDbEntity
  8
S_1_1
  6
CONTINUOUS
 62
     3
100
AcDbLine
 10
648.8563822638795
 20
457.7902637005184
 30
0.0
 11
648.8563822638795
 21
452.9339407005185
 31
0.0
  0
LINE
  5
45E
330
1F
100
AcDbEntity
  8
S_1_1
  6
CONTINUOUS
 62
     3
100
AcDbLine
 10
641.9281902638796
 20
457.7902637005184
 30
0.0
 11
641.9281902638796
 21
452.9339407005185
 31
0.0
  0
LINE
  5
45F
330
1F
100
AcDbEntity
  8
S_1_1
  6
CONTINUOUS
 62
     3
100
AcDbLine
 10
628.0718362638801
 20
457.7902637005184
 30
0.0
 11
628.0718362638801
 21
452.9339407005185
 31
0.0
  0
LINE
  5
460
330
1F
100
AcDbEntity
  8
S_1_1
  6
CONTINUOUS
 62
     3
100
AcDbLine
 10
621.14356826388
 20
457.7902637005184
 30
0.0
 11
621.14356826388
 21
452.9339407005185
 31
0.0
  0
LINE
  5
461
330
1F
100
AcDbEntity
  8
S_1_1
  6
CONTINUOUS
 62
     3
100
AcDbLine
 10
622.9999672638802
 20
458.8620417005184
 30
0.0
 11
646.9999372638796
 21
458.8620417005184
 31
0.0
  0
LINE
  5
462
330
1F
100
AcDbEntity
  8
S_1_1
  6
CONTINUOUS
 62
     3
100
AcDbLine
 10
630.4999672638802
 20
496.8621637005188
 30
0.0
 11
639.4999372638796
 21
496.8621637005188
 31
0.0
  0
LINE
  5
463
330
1F
100
AcDbEntity
  8
S_1_1
  6
CONTINUOUS
 62
     3
100
AcDbLine
 10
636.4998262638798
 20
498.8622287005185
 30
0.0
 11
638.4998712638795
 21
496.8621837005188
 31
0.0
  0
LINE
  5
464
330
1F
100
AcDbEntity
  8
S_1_1
  6
CONTINUOUS
 62
     3
100
AcDbLine
 10
631.4997992638802
 20
496.8622267005183
 30
0.0
 11
633.4997582638795
 21
498.8621857005185
 31
0.0
  0
LINE
  5
465
330
1F
100
AcDbEntity
  8
S_1_1
  6
CONTINUOUS
 62
     3
100
AcDbLine
 10
627.4999672638802
 20
478.3619197005186
 30
0.0
 11
642.4999672638797
 21
478.3619197005186
 31
0.0
  0
LINE
  5
466
330
1F
100
AcDbEntity
  8
S_1_1
  6
CONTINUOUS
 62
     3
100
AcDbLine
 10
627.4999672638802
 20
479.8620417005185
 30
0.0
 11
642.4999672638797
 21
479.8620417005185
 31
0.0
  0
LINE
  5
467
330
1F
100
AcDbEntity
  8
S_1_1
  6
CONTINUOUS
 62
     3
100
AcDbLine
 10
625.9999982638802
 20
483.3619197005186
 30
0.0
 11
643.9999672638797
 21
483.3619197005186
 31
0.0
  0
LINE
  5
468
330
1F
100
AcDbEntity
  8
S_1_1
  6
CONTINUOUS
 62
     3
100
AcDbLine
 10
643.9999672638797
 20
476.8621637005184
 30
0.0
 11
643.9999672638797
 21
467.8620417005184
 31
0.0
  0
LINE
  5
469
330
1F
100
AcDbEntity
  8
S_1_1
  6
CONTINUOUS
 62
     3
100
AcDbLine
 10
625.9999982638802
 20
476.8621637005184
 30
0.0
 11
625.9999982638802
 21
467.8620417005184
 31
0.0
  0
LINE
  5
46A
330
1F
100
AcDbEntity
  8
S_1_1
  6
CONTINUOUS
 62
     3
100
AcDbLine
 10
625.99985526388
 20
481.3620627005187
 30
0.0
 11
627.49986726388
 21
479.8620497005184
 31
0.0
  0
LINE
  5
46B
330
1F
100
AcDbEntity
  8
S_1_1
  6
CONTINUOUS
 62
     3
100
AcDbLine
 10
642.4999332638796
 20
479.8620487005185
 30
0.0
 11
643.9998162638796
 21
481.3619317005185
 31
0.0
  0
LINE
  5
46C
330
1F
100
AcDbEntity
  8
S_1_1
  6
CONTINUOUS
 62
     3
100
AcDbLine
 10
625.9999982638802
 20
481.3620417005184
 30
0.0
 11
643.9999672638797
 21
481.3620417005184
 31
0.0
  0
LINE
  5
46D
330
1F
100
AcDbEntity
  8
S_1_1
  6
CONTINUOUS
 62
     3
100
AcDbLine
 10
625.99996926388
 20
476.8621967005186
 30
0.0
 11
627.4998522638799
 21
478.3620797005186
 31
0.0
  0
LINE
  5
46E
330
1F
100
AcDbEntity
  8
S_1_1
  6
CONTINUOUS
 62
     3
100
AcDbLine
 10
642.4998192638797
 20
478.3620377005184
 30
0.0
 11
643.9998322638795
 21
476.8620257005185
 31
0.0
  0
LINE
  5
46F
330
1F
100
AcDbEntity
  8
S_1_1
  6
CONTINUOUS
 62
     3
100
AcDbLine
 10
623.24993726388
 20
467.3620417005185
 30
0.0
 11
646.7499672638797
 21
467.3620417005185
 31
0.0
  0
LINE
  5
470
330
1F
100
AcDbEntity
  8
S_1_1
  6
CONTINUOUS
 62
     3
100
AcDbLine
 10
625.9999982638802
 20
476.8621637005184
 30
0.0
 11
643.9999672638797
 21
476.8621637005184
 31
0.0
  0
LINE
  5
471
330
1F
100
AcDbEntity
  8
S_1_1
  6
CONTINUOUS
 62
     3
100
AcDbLine
 10
627.4999672638802
 20
479.8620417005185
 30
0.0
 11
627.4999672638802
 21
478.3619197005186
 31
0.0
  0
LINE
  5
472
330
1F
100
AcDbEntity
  8
S_1_1
  6
CONTINUOUS
 62
     3
100
AcDbLine
 10
642.4999672638797
 20
479.8620417005185
 30
0.0
 11
642.4999672638797
 21
478.3619197005186
 31
0.0
  0
LINE
  5
473
330
1F
100
AcDbEntity
  8
S_1_1
  6
CONTINUOUS
 62
     3
100
AcDbLine
 10
646.2498632638795
 20
467.8621307005185
 30
0.0
 11
646.7498102638798
 21
467.3621847005186
 31
0.0
  0
LINE
  5
474
330
1F
100
AcDbEntity
  8
S_1_1
  6
CONTINUOUS
 62
     3
100
AcDbLine
 10
623.2498922638803
 20
467.3621327005183
 30
0.0
 11
623.7497902638803
 21
467.8620417005184
 31
0.0
  0
LINE
  5
475
330
1F
100
AcDbEntity
  8
S_1_1
  6
CONTINUOUS
 62
     3
100
AcDbLine
 10
625.99992626388
 20
483.3621507005185
 30
0.0
 11
629.4999402638801
 21
486.8621647005187
 31
0.0
  0
LINE
  5
476
330
1F
100
AcDbEntity
  8
S_1_1
  6
CONTINUOUS
 62
     3
100
AcDbLine
 10
640.4998172638799
 20
486.8619507005185
 30
0.0
 11
643.9997882638796
 21
483.3619787005185
 31
0.0
  0
LINE
  5
477
330
1F
100
AcDbEntity
  8
S_1_1
  6
CONTINUOUS
 62
     3
100
AcDbLine
 10
640.4999672638797
 20
495.8619197005186
 30
0.0
 11
640.4999672638797
 21
486.8621637005184
 31
0.0
  0
CIRCLE
  5
478
330
1F
100
AcDbEntity
  8
S_1_1
  6
CONTINUOUS
 62
     3
100
AcDbCircle
 10
634.99998276389
 20
427.86208670051
 30
0.0
 40
10.0
  0
POLYLINE
  5
479
330
1F
100
AcDbEntity
  8
S_1_1
  6
CONTINUOUS
 62
     3
100
AcDb2dPolyline
 66
     1
 10
0.0
 20
0.0
 30
0.0
 70
   128
  0
VERTEX
  5
47A
330
479
100
AcDbEntity
  8
S_1_1
  6
CONTINUOUS
 62
     3
100
AcDbVertex
100
AcDb2dVertex
 10
634.99998276389
 20
437.36208670051
 30
0.0
  0
VERTEX
  5
47B
330
479
100
AcDbEntity
  8
S_1_1
  6
CONTINUOUS
 62
     3
100
AcDbVertex
100
AcDb2dVertex
 10
626.7727414279378
 20
432.61208670051
 30
0.0
  0
VERTEX
  5
47C
330
479
100
AcDbEntity
  8
S_1_1
  6
CONTINUOUS
 62
     3
100
AcDbVertex
100
AcDb2dVertex
 10
626.7727414279378
 20
423.11208670051
 30
0.0
  0
VERTEX
  5
47D
330
479
100
AcDbEntity
  8
S_1_1
  6
CONTINUOUS
 62
     3
100
AcDbVertex
100
AcDb2dVertex
 10
634.99998276389
 20
418.36208670051
 30
0.0
  0
VERTEX
  5
47E
330
479
100
AcDbEntity
  8
S_1_1
  6
CONTINUOUS
 62
     3
100
AcDbVertex
100
AcDb2dVertex
 10
643.2272240998421
 20
423.11208670051
 30
0.0
  0
VERTEX
  5
47F
330
479
100
AcDbEntity
  8
S_1_1
  6
CONTINUOUS
 62
     3
100
AcDbVertex
100
AcDb2dVertex
 10
643.2272240998421
 20
432.61208670051
 30
0.0
  0
VERTEX
  5
480
330
479
100
AcDbEntity
  8
S_1_1
  6
CONTINUOUS
 62
     3
100
AcDbVertex
100
AcDb2dVertex
 10
634.99998276389
 20
437.36208670051
 30
0.0
  0
SEQEND
  5
481
330
479
100
AcDbEntity
  8
S_1_1
  6
CONTINUOUS
 62
     3
  0
CIRCLE
  5
482
330
1F
100
AcDbEntity
  8
S_1_1
  6
CONTINUOUS
 62
     3
100
AcDbCircle
 10
634.99998276389
 20
427.86208670051
 30
0.0
 40
8.227241335951572
  0
ARC
  5
483
330
1F
100
AcDbEntity
  8
S_1_1
  6
CONTINUOUS
 62
     3
100
AcDbCircle
 10
634.99998276389
 20
427.86208670051
 30
0.0
 40
8.999999915700016
100
AcDbArc
 50
96.08359749728285
 51
143.9164025027172
  0
ARC
  5
484
330
1F
100
AcDbEntity
  8
S_1_1
  6
CONTINUOUS
 62
     3
100
AcDbCircle
 10
634.99998276389
 20
427.86208670051
 30
0.0
 40
8.999999915700016
100
AcDbArc
 50
156.0835974972827
 51
203.9164025027173
  0
ARC
  5
485
330
1F
100
AcDbEntity
  8
S_1_1
  6
CONTINUOUS
 62
     3
100
AcDbCircle
 10
634.99998276389
 20
427.86208670051
 30
0.0
 40
8.999999915700016
100
AcDbArc
 50
216.0835974972828
 51
263.9164025027172
  0
ARC
  5
486
330
1F
100
AcDbEntity
  8
S_1_1
  6
CONTINUOUS
 62
     3
100
AcDbCircle
 10
634.99998276389
 20
427.86208670051
 30
0.0
 40
8.999999915700016
100
AcDbArc
 50
276.0835974972829
 51
323.9164025027172
  0
ARC
  5
487
330
1F
100
AcDbEntity
  8
S_1_1
  6
CONTINUOUS
 62
     3
100
AcDbCircle
 10
634.99998276389
 20
427.86208670051
 30
0.0
 40
8.999999915700016
100
AcDbArc
 50
336.0835974972827
 51
23.91640250271736
  0
ARC
  5
488
330
1F
100
AcDbEntity
  8
S_1_1
  6
CONTINUOUS
 62
     3
100
AcDbCircle
 10
634.99998276389
 20
427.86208670051
 30
0.0
 40
8.999999915700016
100
AcDbArc
 50
36.08359749728283
 51
83.91640250271715
  0
CIRCLE
  5
489
330
1F
100
AcDbEntity
  8
S_1_1
  6
CONTINUOUS
 62
     3
100
AcDbCircle
 10
634.99998276389
 20
427.86208670051
 30
0.0
 40
5.0
  0
CIRCLE
  5
48A
330
1F
100
AcDbEntity
  8
S_1_1
  6
CONTINUOUS
 62
     3
100
AcDbCircle
 10
634.99998276389
 20
427.86208670051
 30
0.0
 40
4.25
  0
LINE
  5
48B
330
1F
100
AcDbEntity
  8
S_1_1
  6
EXLTYPE2
 62
     1
100
AcDbLine
 10
647.99998276389
 20
427.8620867005091
 30
0.0
 11
621.99998276389
 21
427.8620867005091
 31
0.0
  0
LINE
  5
48C
330
1F
100
AcDbEntity
  8
S_1_1
  6
CONTINUOUS
 62
     3
100
AcDbLine
 10
627.0476335763891
 20
404.9998077004969
 30
0.0
 11
626.64999276389
 21
411.3620707004999
 31
0.0
  0
LINE
  5
48D
330
1F
100
AcDbEntity
  8
S_1_1
  6
CONTINUOUS
 62
     3
100
AcDbLine
 10
627.7489967638902
 20
404.9998077004969
 30
0.0
 11
627.4364957638901
 21
409.9998177005
 31
0.0
  0
LINE
  5
48E
330
1F
100
AcDbEntity
  8
S_1_1
  6
CONTINUOUS
 62
     3
100
AcDbLine
 10
642.2509725138908
 20
404.9998077004969
 30
0.0
 11
642.56347276389
 21
409.9998057004999
 31
0.0
  0
LINE
  5
48F
330
1F
100
AcDbEntity
  8
S_1_1
  6
CONTINUOUS
 62
     3
100
AcDbLine
 10
642.9523357638899
 20
404.9998077004969
 30
0.0
 11
643.3499757638899
 21
411.3620587005
 31
0.0
  0
POLYLINE
  5
490
330
1F
100
AcDbEntity
  8
S_1_1
  6
CONTINUOUS
 62
     3
100
AcDb2dPolyline
 66
     1
 10
0.0
 20
0.0
 30
0.0
 70
   128
  0
VERTEX
  5
491
330
490
100
AcDbEntity
  8
S_1_1
  6
CONTINUOUS
 62
     3
100
AcDbVertex
100
AcDb2dVertex
 10
634.9999827639
 20
430.7488380464582
 30
0.0
  0
VERTEX
  5
492
330
490
100
AcDbEntity
  8
S_1_1
  6
CONTINUOUS
 62
     3
100
AcDbVertex
100
AcDb2dVertex
 10
632.4999827639
 20
429.3054623734841
 30
0.0
  0
VERTEX
  5
493
330
490
100
AcDbEntity
  8
S_1_1
  6
CONTINUOUS
 62
     3
100
AcDbVertex
100
AcDb2dVertex
 10
632.4999827639
 20
426.4187110275359
 30
0.0
  0
VERTEX
  5
494
330
490
100
AcDbEntity
  8
S_1_1
  6
CONTINUOUS
 62
     3
100
AcDbVertex
100
AcDb2dVertex
 10
634.9999827639
 20
424.9753353545619
 30
0.0
  0
VERTEX
  5
495
330
490
100
AcDbEntity
  8
S_1_1
  6
CONTINUOUS
 62
     3
100
AcDbVertex
100
AcDb2dVertex
 10
637.4999827639
 20
426.4187110275359
 30
0.0
  0
VERTEX
  5
496
330
490
100
AcDbEntity
  8
S_1_1
  6
CONTINUOUS
 62
     3
100
AcDbVertex
100
AcDb2dVertex
 10
637.4999827639
 20
429.3054623734841
 30
0.0
  0
VERTEX
  5
497
330
490
100
AcDbEntity
  8
S_1_1
  6
CONTINUOUS
 62
     3
100
AcDbVertex
100
AcDb2dVertex
 10
634.9999827639
 20
430.7488380464582
 30
0.0
  0
SEQEND
  5
498
330
490
100
AcDbEntity
  8
S_1_1
  6
CONTINUOUS
 62
     3
  0
ENDSEC
  0
SECTION
  2
OBJECTS
  0
DICTIONARY
  5
C
330
0
100
AcDbDictionary
  3
ACAD_GROUP
350
D
  3
ACAD_LAYOUT
350
1A
  3
ACAD_MATERIAL
350
43
  3
ACAD_MLEADERSTYLE
350
6B
  3
ACAD_MLINESTYLE
350
17
  3
ACAD_PLOTSETTINGS
350
19
  3
ACAD_SCALELIST
350
47
  3
ACAD_VISUALSTYLE
350
2A
  3
ACDBHEADERROUNDTRIPXREC
350
499
  3
ACDBVARIABLEDICTIONARY
350
4BA
  0
DICTIONARY
  5
4C5
330
8
100
AcDbDictionary
280
     1
  3
ACAD_XREC_ROUNDTRIP
360
4C6
  0
DICTIONARY
  5
D
102
{ACAD_REACTORS
330
C
102
}
330
C
100
AcDbDictionary
  0
DICTIONARY
  5
1A
102
{ACAD_REACTORS
330
C
102
}
330
C
100
AcDbDictionary
  0
DICTIONARY
  5
43
102
{ACAD_REACTORS
330
C
102
}
330
C
100
AcDbDictionary
  3
BYBLOCK
350
45
  3
BYLAYER
350
44
  3
GLOBAL
350
46
  0
DICTIONARY
  5
6B
102
{ACAD_REACTORS
330
C
102
}
330
C
100
AcDbDictionary
  3
STANDARD
350
6C
  0
DICTIONARY
  5
17
102
{ACAD_REACTORS
330
C
102
}
330
C
100
AcDbDictionary
  3
STANDARD
350
18
  0
DICTIONARY
  5
19
102
{ACAD_REACTORS
330
C
102
}
330
C
100
AcDbDictionary
  0
DICTIONARY
  5
47
102
{ACAD_REACTORS
330
C
102
}
330
C
100
AcDbDictionary
  3
A0
350
48
  3
A1
350
49
  3
A2
350
4A
  3
A3
350
4B
  3
A4
350
4C
  3
A5
350
4D
  3
A6
350
4E
  3
A7
350
4F
  3
A8
350
50
  3
A9
350
51
  3
B0
350
52
  3
B1
350
53
  3
B2
350
54
  3
B3
350
55
  3
B4
350
56
  3
B5
350
57
  3
B6
350
58
  3
B7
350
59
  3
B8
350
5A
  3
B9
350
5B
  3
C0
350
5C
  3
C1
350
5D
  3
C2
350
5E
  3
C3
350
5F
  3
C4
350
60
  3
C5
350
61
  3
C6
350
62
  3
C7
350
63
  3
C8
350
64
  3
C9
350
65
  3
D0
350
66
  3
D1
350
67
  3
D2
350
68
  0
DICTIONARY
  5
2A
102
{ACAD_REACTORS
330
C
102
}
330
C
100
AcDbDictionary
  3
2DWIREFRAME
350
2F
  3
BASIC
350
32
  3
BRIGHTEN
350
36
  3
COLORCHANGE
350
3A
  3
CONCEPTUAL
350
34
  3
DIM
350
35
  3
EDGECOLOROFF
350
3D
  3
FACEPATTERN
350
39
  3
FLAT
350
2B
  3
FLATWITHEDGES
350
2C
  3
GOURAUD
350
2D
  3
GOURAUDWITHEDGES
350
2E
  3
HIDDEN
350
31
  3
JITTEROFF
350
3B
  3
LINEPATTERN
350
38
  3
OVERHANGOFF
350
3C
  3
REALISTIC
350
33
  3
SHADED
350
42
  3
SHADED_WITH_EDGES
350
41
  3
SHADES_OF_GRAY
350
3E
  3
SKETCHY
350
3F
  3
THICKEN
350
37
  3
WIREFRAME
350
30
  3
X-RAY
350
40
  0
DICTIONARY
  5
499
102
{ACAD_REACTORS
330
C
102
}
330
C
100
AcDbDictionary
  3
CEPSNID
350
4A3
  3
CEPSNTYPE
350
4A2
  3
DIMSTYLEDATA
350
4B9
  3
FINGERPRINTGUID
350
4A4
  3
HYPERLINKBASE
350
49C
  3
INSUNITS
350
4A1
  3
LAYOUTDICT
350
49E
  3
LWETCUNION
350
4A0
  3
PLOTSETDICT
350
49F
  3
PSVPSCALE
350
4A6
  3
PUCSBASE
350
4A9
  3
PUCSORGBACK
350
4AF
  3
PUCSORGBOTTOM
350
4AB
  3
PUCSORGFRONT
350
4AE
  3
PUCSORGLEFT
350
4AC
  3
PUCSORGRIGHT
350
4AD
  3
PUCSORGTOP
350
4AA
  3
PUCSORTHOREF
350
4A7
  3
PUCSORTHOVIEW
350
4A8
  3
STYLESHEET
350
49D
  3
TSTACKALIGN
350
49A
  3
TSTACKSIZE
350
49B
  3
UCSBASE
350
4B2
  3
UCSORGBACK
350
4B8
  3
UCSORGBOTTOM
350
4B4
  3
UCSORGFRONT
350
4B7
  3
UCSORGLEFT
350
4B5
  3
UCSORGRIGHT
350
4B6
  3
UCSORGTOP
350
4B3
  3
UCSORTHOREF
350
4B0
  3
UCSORTHOVIEW
350
4B1
  3
VERSIONGUID
350
4A5
  0
DICTIONARY
  5
4BA
102
{ACAD_REACTORS
330
C
102
}
330
C
100
AcDbDictionary
  3
CANNOSCALE
350
4C7
  3
CENTEREXE
350
4C1
  3
CENTERLTYPEFILE
350
4C2
  3
CMLEADERSTYLE
350
4BC
  3
CTABLESTYLE
350
4BB
  3
DIMASSOC
350
4C3
  3
HIDETEXT
350
4C4
  3
MSLTSCALE
350
4C8
  3
PSOLHEIGHT
350
4BE
  3
PSOLWIDTH
350
4BD
  0
XRECORD
  5
4C6
102
{ACAD_REACTORS
330
4C5
102
}
330
4C5
100
AcDbXrecord
102
VTR_0.000_0.000_1.000_1.000_VISUALSTYLE
340
2F
102
VTR_0.000_0.000_1.000_1.000_GRIDDISPLAY
 70
     3
102
VTR_0.000_0.000_1.000_1.000_GRIDMAJOR
 70
     5
102
VTR_0.000_0.000_1.000_1.000_DEFAULTLIGHTING
280
     1
102
VTR_0.000_0.000_1.000_1.000_DEFAULTLIGHTINGTYPE
 70
     1
102
VTR_0.000_0.000_1.000_1.000_BRIGHTNESS
141
0.0
102
VTR_0.000_0.000_1.000_1.000_CONTRAST
142
0.0
  0
MATERIAL
  5
45
102
{ACAD_REACTORS
330
43
102
}
102
{ACAD_XDICTIONARY
360
4CB
102
}
330
43
100
AcDbMaterial
  1
BYBLOCK
  0
MATERIAL
  5
44
102
{ACAD_REACTORS
330
43
102
}
102
{ACAD_XDICTIONARY
360
4C9
102
}
330
43
100
AcDbMaterial
  1
BYLAYER
  0
MATERIAL
  5
46
102
{ACAD_REACTORS
330
43
102
}
102
{ACAD_XDICTIONARY
360
4CD
102
}
330
43
100
AcDbMaterial
  1
GLOBAL
  0
ACAD_PROXY_OBJECT
  5
6C
102
{ACAD_REACTORS
330
6B
102
}
330
6B
100
AcDbProxyObject
 90
      499
 91
      505
 93
      610
310
40901902A4063FBFFFFFE0000000000000020400000000000020404214DD185B99185C990000000000000104090141901A00000000000004100000000000000041025764000000000000039000
340
14
340
0
340
11
340
0
 94
        0
1001
ACAD_MLEADERVER
1070
     2
  0
MLINESTYLE
  5
18
102
{ACAD_REACTORS
330
17
102
}
330
17
100
AcDbMlineStyle
  2
Standard
 70
     0
  3

 62
   256
 51
90.0
 52
90.0
 71
     2
 49
0.5
 62
   256
  6
BYLAYER
 49
-0.5
 62
   256
  6
BYLAYER
  0
ACAD_PROXY_OBJECT
  5
48
102
{ACAD_REACTORS
330
47
102
}
330
47
100
AcDbProxyObject
 90
      499
 91
      503
 93
       41
310
903313A31580
  0
ACAD_PROXY_OBJECT
  5
49
102
{ACAD_REACTORS
330
47
102
}
330
47
100
AcDbProxyObject
 90
      499
 91
      503
 93
      105
310
903313A324000000000000004000
  0
ACAD_PROXY_OBJECT
  5
4A
102
{ACAD_REACTORS
330
47
102
}
330
47
100
AcDbProxyObject
 90
      499
 91
      503
 93
      105
310
903313A344000000000000104000
  0
ACAD_PROXY_OBJECT
  5
4B
102
{ACAD_REACTORS
330
47
102
}
330
47
100
AcDbProxyObject
 90
      499
 91
      503
 93
      105
310
903313A354000000000000144000
  0
ACAD_PROXY_OBJECT
  5
4C
102
{ACAD_REACTORS
330
47
102
}
330
47
100
AcDbProxyObject
 90
      499
 91
      503
 93
      105
310
903313A384000000000000204000
  0
ACAD_PROXY_OBJECT
  5
4D
102
{ACAD_REACTORS
330
47
102
}
330
47
100
AcDbProxyObject
 90
      499
 91
      503
 93
      113
310
904313A31304000000000000244000
  0
ACAD_PROXY_OBJECT
  5
4E
102
{ACAD_REACTORS
330
47
102
}
330
47
100
AcDbProxyObject
 90
      499
 91
      503
 93
      113
310
904313A31364000000000000304000
  0
ACAD_PROXY_OBJECT
  5
4F
102
{ACAD_REACTORS
330
47
102
}
330
47
100
AcDbProxyObject
 90
      499
 91
      503
 93
      113
310
904313A32304000000000000344000
  0
ACAD_PROXY_OBJECT
  5
50
102
{ACAD_REACTORS
330
47
102
}
330
47
100
AcDbProxyObject
 90
      499
 91
      503
 93
      113
310
904313A333040000000000003E4000
  0
ACAD_PROXY_OBJECT
  5
51
102
{ACAD_REACTORS
330
47
102
}
330
47
100
AcDbProxyObject
 90
      499
 91
      503
 93
      113
310
904313A34304000000000000444000
  0
ACAD_PROXY_OBJECT
  5
52
102
{ACAD_REACTORS
330
47
102
}
330
47
100
AcDbProxyObject
 90
      499
 91
      503
 93
      113
310
904313A35304000000000000494000
  0
ACAD_PROXY_OBJECT
  5
53
102
{ACAD_REACTORS
330
47
102
}
330
47
100
AcDbProxyObject
 90
      499
 91
      503
 93
      121
310
905313A3130304000000000000594000
  0
ACAD_PROXY_OBJECT
  5
54
102
{ACAD_REACTORS
330
47
102
}
330
47
100
AcDbProxyObject
 90
      499
 91
      503
 93
      105
310
903323A310000000000000010100
  0
ACAD_PROXY_OBJECT
  5
55
102
{ACAD_REACTORS
330
47
102
}
330
47
100
AcDbProxyObject
 90
      499
 91
      503
 93
      105
310
903343A310000000000000410100
  0
ACAD_PROXY_OBJECT
  5
56
102
{ACAD_REACTORS
330
47
102
}
330
47
100
AcDbProxyObject
 90
      499
 91
      503
 93
      105
310
903383A310000000000000810100
  0
ACAD_PROXY_OBJECT
  5
57
102
{ACAD_REACTORS
330
47
102
}
330
47
100
AcDbProxyObject
 90
      499
 91
      503
 93
      113
310
90431303A310000000000000910100
  0
ACAD_PROXY_OBJECT
  5
58
102
{ACAD_REACTORS
330
47
102
}
330
47
100
AcDbProxyObject
 90
      499
 91
      503
 93
      121
310
9053130303A310000000000001650100
  0
ACAD_PROXY_OBJECT
  5
59
102
{ACAD_REACTORS
330
47
102
}
330
47
100
AcDbProxyObject
 90
      499
 91
      503
 93
      257
310
90E312F31323822203D2031272D3022000000000000200FC000000000000284000
  0
ACAD_PROXY_OBJECT
  5
5A
102
{ACAD_REACTORS
330
47
102
}
330
47
100
AcDbProxyObject
 90
      499
 91
      503
 93
      249
310
90D312F363422203D2031272D3022000000000000240FC000000000000284000
  0
ACAD_PROXY_OBJECT
  5
5B
102
{ACAD_REACTORS
330
47
102
}
330
47
100
AcDbProxyObject
 90
      499
 91
      503
 93
      249
310
90D312F333222203D2031272D3022000000000000280FC000000000000284000
  0
ACAD_PROXY_OBJECT
  5
5C
102
{ACAD_REACTORS
330
47
102
}
330
47
100
AcDbProxyObject
 90
      499
 91
      503
 93
      249
310
90D312F313622203D2031272D30220000000000002C0FC000000000000284000
  0
ACAD_PROXY_OBJECT
  5
5D
102
{ACAD_REACTORS
330
47
102
}
330
47
100
AcDbProxyObject
 90
      499
 91
      503
 93
      249
310
90D332F333222203D2031272D30220000000000002E0FC000000000000284000
  0
ACAD_PROXY_OBJECT
  5
5E
102
{ACAD_REACTORS
330
47
102
}
330
47
100
AcDbProxyObject
 90
      499
 91
      503
 93
      241
310
90C312F3822203D2031272D3022000000000000300FC000000000000284000
  0
ACAD_PROXY_OBJECT
  5
5F
102
{ACAD_REACTORS
330
47
102
}
330
47
100
AcDbProxyObject
 90
      499
 91
      503
 93
      249
310
90D332F313622203D2031272D3022000000000000320FC000000000000284000
  0
ACAD_PROXY_OBJECT
  5
60
102
{ACAD_REACTORS
330
47
102
}
330
47
100
AcDbProxyObject
 90
      499
 91
      503
 93
      241
310
90C312F3422203D2031272D3022000000000000340FC000000000000284000
  0
ACAD_PROXY_OBJECT
  5
61
102
{ACAD_REACTORS
330
47
102
}
330
47
100
AcDbProxyObject
 90
      499
 91
      503
 93
      241
310
90C332F3822203D2031272D3022000000000000360FC000000000000284000
  0
ACAD_PROXY_OBJECT
  5
62
102
{ACAD_REACTORS
330
47
102
}
330
47
100
AcDbProxyObject
 90
      499
 91
      503
 93
      241
310
90C312F3222203D2031272D3022000000000000380FC000000000000284000
  0
ACAD_PROXY_OBJECT
  5
63
102
{ACAD_REACTORS
330
47
102
}
330
47
100
AcDbProxyObject
 90
      499
 91
      503
 93
      241
310
90C332F3422203D2031272D30220000000000003A0FC000000000000284000
  0
ACAD_PROXY_OBJECT
  5
64
102
{ACAD_REACTORS
330
47
102
}
330
47
100
AcDbProxyObject
 90
      499
 91
      503
 93
      161
310
90A3122203D2031272D30224000000000000284000
  0
ACAD_PROXY_OBJECT
  5
65
102
{ACAD_REACTORS
330
47
102
}
330
47
100
AcDbProxyObject
 90
      499
 91
      503
 93
      257
310
90E312D312F3222203D2031272D30220000000000003E0FC000000000000284000
  0
ACAD_PROXY_OBJECT
  5
66
102
{ACAD_REACTORS
330
47
102
}
330
47
100
AcDbProxyObject
 90
      499
 91
      503
 93
      225
310
90A3322203D2031272D302200000000000002100000000000000284000
  0
ACAD_PROXY_OBJECT
  5
67
102
{ACAD_REACTORS
330
47
102
}
330
47
100
AcDbProxyObject
 90
      499
 91
      503
 93
      225
310
90A3622203D2031272D302200000000000006100000000000000284000
  0
ACAD_PROXY_OBJECT
  5
68
102
{ACAD_REACTORS
330
47
102
}
330
47
100
AcDbProxyObject
 90
      499
 91
      503
 93
      249
310
90D31272D3022203D2031272D30220000000000000A100000000000000284000
  0
ACAD_PROXY_OBJECT
  5
2F
102
{ACAD_REACTORS
330
2A
102
}
330
2A
100
AcDbProxyObject
 90
      499
 91
      501
 93
      436
310
42CC9915DA5C99599C985B595049028333333333333E33F0000000000000F90107901411070040501600405405064090741402480A0340
1001
ACAD
1000
AcDbSavedByObjectVersion
1070
     0
  0
ACAD_PROXY_OBJECT
  5
32
102
{ACAD_REACTORS
330
2A
102
}
330
2A
100
AcDbProxyObject
 90
      499
 91
      501
 93
      388
310
4150985CDA58D07406404333333333333E33F0000000000000F90107A41107004050150841D405064090741402480A0350
1001
ACAD
1000
AcDbSavedByObjectVersion
1070
     0
  0
ACAD_PROXY_OBJECT
  5
36
102
{ACAD_REACTORS
330
2A
102
}
330
2A
100
AcDbProxyObject
 90
      499
 91
      501
 93
      428
310
42109C9A59DA1D195B90C409028333333333333E33F0000000000000F9010790141107004050150841D405064090741402480A029950
1001
ACAD
1000
AcDbSavedByObjectVersion
1070
     0
  0
ACAD_PROXY_OBJECT
  5
3A
102
{ACAD_REACTORS
330
2A
102
}
330
2A
100
AcDbProxyObject
 90
      499
 91
      501
 93
      452
310
42D0DBDB1BDC90DA185B99D95104090240C333333333333E33F0000000000000F90108901411070040501508421405064090741402480A0350
1001
ACAD
1000
AcDbSavedByObjectVersion
1070
     0
  0
ACAD_PROXY_OBJECT
  5
34
102
{ACAD_REACTORS
330
2A
102
}
330
2A
100
AcDbProxyObject
 90
      499
 91
      501
 93
      500
310
4290DBDB98D95C1D1D585B10940D028333333333333E33F0000000000000F90107902409070040501000000000018199010841D405064090740C02480A0340
1001
ACAD
1000
AcDbSavedByObjectVersion
1070
     0
  0
ACAD_PROXY_OBJECT
  5
35
102
{ACAD_REACTORS
330
2A
102
}
330
2A
100
AcDbProxyObject
 90
      499
 91
      501
 93
      412
310
40D11A5B50B409028333333333333E33F0000000000000F9010790141107004050150841D405064090741402480A02677FFFFFD0
1001
ACAD
1000
AcDbSavedByObjectVersion
1070
     0
  0
ACAD_PROXY_OBJECT
  5
3D
102
{ACAD_REACTORS
330
2A
102
}
330
2A
100
AcDbProxyObject
 90
      499
 91
      501
 93
      452
310
43115919D950DBDB1BDC93D999916409028333333333333E33F0000000000000F9010790141107004050150841D405064090741402480A0350
1001
ACAD
1000
AcDbSavedByObjectVersion
1070
     0
  0
ACAD_PROXY_OBJECT
  5
39
102
{ACAD_REACTORS
330
2A
102
}
330
2A
100
AcDbProxyObject
 90
      499
 91
      501
 93
      444
310
42D19858D95C185D1D195C9B90F409028333333333333E33F0000000000000F9010790141107004050150841D405064090741402480A0350
1001
ACAD
1000
AcDbSavedByObjectVersion
1070
     0
  0
ACAD_PROXY_OBJECT
  5
2B
102
{ACAD_REACTORS
330
2A
102
}
330
2A
100
AcDbProxyObject
 90
      499
 91
      501
 93
      380
310
41119B185D240901404333333333333E33F0000000000000F9010740A907004050150841D405064090741402480A1B50
1001
ACAD
1000
AcDbSavedByObjectVersion
1070
     0
  0
ACAD_PROXY_OBJECT
  5
2C
102
{ACAD_REACTORS
330
2A
102
}
330
2A
100
AcDbProxyObject
 90
      499
 91
      501
 93
      468
310
43519B185D15DA5D1A115919D95CD0140901404333333333333E33F0000000000000F90107409019070040501600405405064090741402480A1B50
1001
ACAD
1000
AcDbSavedByObjectVersion
1070
     0
  0
ACAD_PROXY_OBJECT
  5
2D
102
{ACAD_REACTORS
330
2A
102
}
330
2A
100
AcDbProxyObject
 90
      499
 91
      501
 93
      404
310
41D1DBDD5C985D5910240902404333333333333E33F0000000000000F9010740A9070040501641D405064090741402480A1B50
1001
ACAD
1000
AcDbSavedByObjectVersion
1070
     0
  0
ACAD_PROXY_OBJECT
  5
2E
102
{ACAD_REACTORS
330
2A
102
}
330
2A
100
AcDbProxyObject
 90
      499
 91
      501
 93
      492
310
4411DBDD5C985D5915DA5D1A115919D95CD0340902404333333333333E33F0000000000000F90107409019070040501600405405064090741402480A1B50
1001
ACAD
1000
AcDbSavedByObjectVersion
1070
     0
  0
ACAD_PROXY_OBJECT
  5
31
102
{ACAD_REACTORS
330
2A
102
}
330
2A
100
AcDbProxyObject
 90
      499
 91
      501
 93
      476
310
41921A5919195B90640502408333333333333E33F0000000000000F901079024090700405020000000000001110200405405064090740C02480A0340
1001
ACAD
1000
AcDbSavedByObjectVersion
1070
     0
  0
ACAD_PROXY_OBJECT
  5
3B
102
{ACAD_REACTORS
330
2A
102
}
330
2A
100
AcDbProxyObject
 90
      499
 91
      501
 93
      428
310
42529A5D1D195C93D999914409028333333333333E33F0000000000000F9010790141107004050150A41D405064090741402480A0350
1001
ACAD
1000
AcDbSavedByObjectVersion
1070
     0
  0
ACAD_PROXY_OBJECT
  5
38
102
{ACAD_REACTORS
330
2A
102
}
330
2A
100
AcDbProxyObject
 90
      499
 91
      501
 93
      444
310
42D31A5B995C185D1D195C9B90E409028333333333333E33F0000000000000F9010790141107004050750841D405064090741402483A0350
1001
ACAD
1000
AcDbSavedByObjectVersion
1070
     0
  0
ACAD_PROXY_OBJECT
  5
3C
102
{ACAD_REACTORS
330
2A
102
}
330
2A
100
AcDbProxyObject
 90
      499
 91
      501
 93
      444
310
42D3DD995C9A185B99D3D999915409028333333333333E33F0000000000000F9010790141107004050150941D405064090741402480A0350
1001
ACAD
1000
AcDbSavedByObjectVersion
1070
     0
  0
ACAD_PROXY_OBJECT
  5
33
102
{ACAD_REACTORS
330
2A
102
}
330
2A
100
AcDbProxyObject
 90
      499
 91
      501
 93
      428
310
425499585B1A5CDD1A58D08409038333333333333E33F0000000000000F9010740A907004050150800405405064090740C02480A1B40
1001
ACAD
1000
AcDbSavedByObjectVersion
1070
     0
  0
ACAD_PROXY_OBJECT
  5
42
102
{ACAD_REACTORS
330
2A
102
}
330
2A
100
AcDbProxyObject
 90
      499
 91
      501
 93
      420
310
4194DA1859195911B40902404333333333333E33F0000000000000F9010740A41107004050150800405405064090840C02480A0B40
1001
ACAD
1000
AcDbSavedByObjectVersion
1070
     0
  0
ACAD_PROXY_OBJECT
  5
41
102
{ACAD_REACTORS
330
2A
102
}
330
2A
100
AcDbProxyObject
 90
      499
 91
      501
 93
      516
310
4454DA18591959081DDA5D1A08195919D95CD1A40902404333333333333E33F0000000000000F901074090142907004050250800405405064090740C02480A0B40
1001
ACAD
1000
AcDbSavedByObjectVersion
1070
     0
  0
ACAD_PROXY_OBJECT
  5
3E
102
{ACAD_REACTORS
330
2A
102
}
330
2A
100
AcDbProxyObject
 90
      499
 91
      501
 93
      532
310
4394DA1859195CC81BD98811DC985E5174090240C333333333333E33F0000000000000F901079024090741D01000000000000111010841D405064090740C02480A0340
1001
ACAD
1000
AcDbSavedByObjectVersion
1070
     0
  0
ACAD_PROXY_OBJECT
  5
3F
102
{ACAD_REACTORS
330
2A
102
}
330
2A
100
AcDbProxyObject
 90
      499
 91
      501
 93
      476
310
41D4DAD95D18DA1E51840502408333333333333E33F0000000000000F901079024090741D01000000000000111010B41D405064090741802480A0340
1001
ACAD
1000
AcDbSavedByObjectVersion
1070
     0
  0
ACAD_PROXY_OBJECT
  5
37
102
{ACAD_REACTORS
330
2A
102
}
330
2A
100
AcDbProxyObject
 90
      499
 91
      501
 93
      412
310
41D51A1A58DAD95B90D409028333333333333E33F0000000000000F9010790141107004050150C41D405064090741402480A0350
1001
ACAD
1000
AcDbSavedByObjectVersion
1070
     0
  0
ACAD_PROXY_OBJECT
  5
30
102
{ACAD_REACTORS
330
2A
102
}
330
2A
100
AcDbProxyObject
 90
      499
 91
      501
 93
      420
310
4255DA5C99599C985B595059028333333333333E33F0000000000000F90107901411070040501600405405064090740C02480A0340
1001
ACAD
1000
AcDbSavedByObjectVersion
1070
     0
  0
ACAD_PROXY_OBJECT
  5
40
102
{ACAD_REACTORS
330
2A
102
}
330
2A
100
AcDbProxyObject
 90
      499
 91
      501
 93
      404
310
41560B54985E51940902404000000000000E03F0000000000000F9010740501907004050150841D405064090740C02480A1B40
1001
ACAD
1000
AcDbSavedByObjectVersion
1070
     0
  0
XRECORD
  5
4A3
102
{ACAD_REACTORS
330
499
102
}
330
499
100
AcDbXrecord
340
0
  0
XRECORD
  5
4A2
102
{ACAD_REACTORS
330
499
102
}
330
499
100
AcDbXrecord
 90
        0
  0
XRECORD
  5
4B9
102
{ACAD_REACTORS
330
499
102
}
330
499
100
AcDbXrecord
1000
DSTYLE
1002
{
1070
   340
340
11
1002
}
  0
XRECORD
  5
4A4
102
{ACAD_REACTORS
330
499
102
}
330
499
100
AcDbXrecord
  1
{35c7a444-eddb-43f0-a4a8-0aa6d2b8a520}
  0
XRECORD
  5
49C
102
{ACAD_REACTORS
330
499
102
}
330
499
100
AcDbXrecord
  1

  0
XRECORD
  5
4A1
102
{ACAD_REACTORS
330
499
102
}
330
499
100
AcDbXrecord
 90
        4
  0
XRECORD
  5
49E
102
{ACAD_REACTORS
330
499
102
}
330
499
100
AcDbXrecord
340
1A
  0
XRECORD
  5
4A0
102
{ACAD_REACTORS
330
499
102
}
330
499
100
AcDbXrecord
 90
    10781
  0
XRECORD
  5
49F
102
{ACAD_REACTORS
330
499
102
}
330
499
100
AcDbXrecord
340
19
  0
XRECORD
  5
4A6
102
{ACAD_REACTORS
330
499
102
}
330
499
100
AcDbXrecord
 40
0.0
  0
XRECORD
  5
4A9
102
{ACAD_REACTORS
330
499
102
}
330
499
100
AcDbXrecord
340
0
  0
XRECORD
  5
4AF
102
{ACAD_REACTORS
330
499
102
}
330
499
100
AcDbXrecord
 10
0.0
 20
0.0
 30
0.0
  0
XRECORD
  5
4AB
102
{ACAD_REACTORS
330
499
102
}
330
499
100
AcDbXrecord
 10
0.0
 20
0.0
 30
0.0
  0
XRECORD
  5
4AE
102
{ACAD_REACTORS
330
499
102
}
330
499
100
AcDbXrecord
 10
0.0
 20
0.0
 30
0.0
  0
XRECORD
  5
4AC
102
{ACAD_REACTORS
330
499
102
}
330
499
100
AcDbXrecord
 10
0.0
 20
0.0
 30
0.0
  0
XRECORD
  5
4AD
102
{ACAD_REACTORS
330
499
102
}
330
499
100
AcDbXrecord
 10
0.0
 20
0.0
 30
0.0
  0
XRECORD
  5
4AA
102
{ACAD_REACTORS
330
499
102
}
330
499
100
AcDbXrecord
 10
0.0
 20
0.0
 30
0.0
  0
XRECORD
  5
4A7
102
{ACAD_REACTORS
330
499
102
}
330
499
100
AcDbXrecord
340
0
  0
XRECORD
  5
4A8
102
{ACAD_REACTORS
330
499
102
}
330
499
100
AcDbXrecord
 70
     0
  0
XRECORD
  5
49D
102
{ACAD_REACTORS
330
499
102
}
330
499
100
AcDbXrecord
  1

  0
XRECORD
  5
49A
102
{ACAD_REACTORS
330
499
102
}
330
499
100
AcDbXrecord
 90
        1
  0
XRECORD
  5
49B
102
{ACAD_REACTORS
330
499
102
}
330
499
100
AcDbXrecord
 90
       70
  0
XRECORD
  5
4B2
102
{ACAD_REACTORS
330
499
102
}
330
499
100
AcDbXrecord
340
0
  0
XRECORD
  5
4B8
102
{ACAD_REACTORS
330
499
102
}
330
499
100
AcDbXrecord
 10
0.0
 20
0.0
 30
0.0
  0
XRECORD
  5
4B4
102
{ACAD_REACTORS
330
499
102
}
330
499
100
AcDbXrecord
 10
0.0
 20
0.0
 30
0.0
  0
XRECORD
  5
4B7
102
{ACAD_REACTORS
330
499
102
}
330
499
100
AcDbXrecord
 10
0.0
 20
0.0
 30
0.0
  0
XRECORD
  5
4B5
102
{ACAD_REACTORS
330
499
102
}
330
499
100
AcDbXrecord
 10
0.0
 20
0.0
 30
0.0
  0
XRECORD
  5
4B6
102
{ACAD_REACTORS
330
499
102
}
330
499
100
AcDbXrecord
 10
0.0
 20
0.0
 30
0.0
  0
XRECORD
  5
4B3
102
{ACAD_REACTORS
330
499
102
}
330
499
100
AcDbXrecord
 10
0.0
 20
0.0
 30
0.0
  0
XRECORD
  5
4B0
102
{ACAD_REACTORS
330
499
102
}
330
499
100
AcDbXrecord
340
0
  0
XRECORD
  5
4B1
102
{ACAD_REACTORS
330
499
102
}
330
499
100
AcDbXrecord
 70
     0
  0
XRECORD
  5
4A5
102
{ACAD_REACTORS
330
499
102
}
330
499
100
AcDbXrecord
  1
{FAEB1C32-E019-11D5-929B-00C0DF256EC4}
  0
DICTIONARYVAR
  5
4C7
102
{ACAD_REACTORS
330
4BA
102
}
330
4BA
100
DictionaryVariables
280
     0
  1
1:1
  0
DICTIONARYVAR
  5
4C1
102
{ACAD_REACTORS
330
4BA
102
}
330
4BA
100
DictionaryVariables
280
     0
  1
3.500000
  0
DICTIONARYVAR
  5
4C2
102
{ACAD_REACTORS
330
4BA
102
}
330
4BA
100
DictionaryVariables
280
     0
  1
acadiso.lin
  0
DICTIONARYVAR
  5
4BC
102
{ACAD_REACTORS
330
4BA
102
}
330
4BA
100
DictionaryVariables
280
     0
  1
Standard
  0
DICTIONARYVAR
  5
4BB
102
{ACAD_REACTORS
330
4BA
102
}
330
4BA
100
DictionaryVariables
280
     0
  1
Standard
  0
DICTIONARYVAR
  5
4C3
102
{ACAD_REACTORS
330
4BA
102
}
330
4BA
100
DictionaryVariables
280
     0
  1
2
  0
DICTIONARYVAR
  5
4C4
102
{ACAD_REACTORS
330
4BA
102
}
330
4BA
100
DictionaryVariables
280
     0
  1
1
  0
DICTIONARYVAR
  5
4C8
102
{ACAD_REACTORS
330
4BA
102
}
330
4BA
100
DictionaryVariables
280
     0
  1
1
  0
DICTIONARYVAR
  5
4BE
102
{ACAD_REACTORS
330
4BA
102
}
330
4BA
100
DictionaryVariables
280
     0
  1
80.000000
  0
DICTIONARYVAR
  5
4BD
102
{ACAD_REACTORS
330
4BA
102
}
330
4BA
100
DictionaryVariables
280
     0
  1
5.000000
  0
DICTIONARY
  5
4CB
330
45
100
AcDbDictionary
280
     1
  3
ACAD_XREC_ROUNDTRIP
360
4CC
  0
DICTIONARY
  5
4C9
330
44
100
AcDbDictionary
280
     1
  3
ACAD_XREC_ROUNDTRIP
360
4CA
  0
DICTIONARY
  5
4CD
330
46
100
AcDbDictionary
280
     1
  3
ACAD_XREC_ROUNDTRIP
360
4CE
  0
XRECORD
  5
4CC
102
{ACAD_REACTORS
330
4CB
102
}
330
4CB
100
AcDbXrecord
102
MATERIAL
148
0.0
149
0.0
149
0.0
 93
        0
 94
      127
282
     0
 72
     1
 77
     1
171
     1
175
     1
179
     1
273
     0
  0
XRECORD
  5
4CA
102
{ACAD_REACTORS
330
4C9
102
}
330
4C9
100
AcDbXrecord
102
MATERIAL
148
0.0
149
0.0
149
0.0
 93
        0
 94
      127
282
     0
 72
     1
 77
     1
171
     1
175
     1
179
     1
273
     0
  0
XRECORD
  5
4CE
102
{ACAD_REACTORS
330
4CD
102
}
330
4CD
100
AcDbXrecord
102
MATERIAL
148
0.0
149
0.0
149
0.0
 93
        0
 94
      127
282
     0
 72
     1
 77
     1
171
     1
175
     1
179
     1
273
     0
  0
ENDSEC
  0
EOF
