  0
SECTION
  2
HEADER
  9
$ACADVER
  1
AC1014
  9
$ACADMAINTVER
 70
     9
  9
$DWGCODEPAGE
  3
ANSI_932
  9
$INSBASE
 10
0.0
 20
0.0
 30
0.0
  9
$EXTMIN
 10
25.0
 20
25.0
 30
0.0
  9
$EXTMAX
 10
1025.0
 20
717.5
 30
0.0
  9
$LIMMIN
 10
0.0
 20
0.0
  9
$LIMMAX
 10
420.0
 20
297.0
  9
$ORTHOMODE
 70
     0
  9
$REGENMODE
 70
     1
  9
$FILLMODE
 70
     1
  9
$QTEXTMODE
 70
     0
  9
$MIRRTEXT
 70
     1
  9
$DRAGMODE
 70
     2
  9
$LTSCALE
 40
1.0
  9
$OSMODE
 70
    37
  9
$ATTMODE
 70
     1
  9
$TEXTSIZE
 40
2.5
  9
$TRACEWID
 40
1.0
  9
$TEXTSTYLE
  7
STANDARD
  9
$CLAYER
  8
Ｓ_１_１
  9
$CELTYPE
  6
BYLAYER
  9
$CECOLOR
 62
   256
  9
$CELTSCALE
 40
1.0
  9
$DELOBJ
 70
     1
  9
$DISPSILH
 70
     0
  9
$DIMSCALE
 40
1.0
  9
$DIMASZ
 40
2.5
  9
$DIMEXO
 40
0.625
  9
$DIMDLI
 40
3.75
  9
$DIMRND
 40
0.0
  9
$DIMDLE
 40
0.0
  9
$DIMEXE
 40
1.25
  9
$DIMTP
 40
0.0
  9
$DIMTM
 40
0.0
  9
$DIMTXT
 40
2.5
  9
$DIMCEN
 40
2.5
  9
$DIMTSZ
 40
0.0
  9
$DIMTOL
 70
     0
  9
$DIMLIM
 70
     0
  9
$DIMTIH
 70
     0
  9
$DIMTOH
 70
     0
  9
$DIMSE1
 70
     0
  9
$DIMSE2
 70
     0
  9
$DIMTAD
 70
     1
  9
$DIMZIN
 70
     8
  9
$DIMBLK
  1

  9
$DIMASO
 70
     1
  9
$DIMSHO
 70
     1
  9
$DIMPOST
  1

  9
$DIMAPOST
  1

  9
$DIMALT
 70
     0
  9
$DIMALTD
 70
     3
  9
$DIMALTF
 40
0.03937007874016
  9
$DIMLFAC
 40
1.0
  9
$DIMTOFL
 70
     1
  9
$DIMTVP
 40
0.0
  9
$DIMTIX
 70
     0
  9
$DIMSOXD
 70
     0
  9
$DIMSAH
 70
     0
  9
$DIMBLK1
  1

  9
$DIMBLK2
  1

  9
$DIMSTYLE
  2
ISO-25
  9
$DIMCLRD
 70
     0
  9
$DIMCLRE
 70
     0
  9
$DIMCLRT
 70
     0
  9
$DIMTFAC
 40
1.0
  9
$DIMGAP
 40
0.625
  9
$DIMJUST
 70
     0
  9
$DIMSD1
 70
     0
  9
$DIMSD2
 70
     0
  9
$DIMTOLJ
 70
     0
  9
$DIMTZIN
 70
     8
  9
$DIMALTZ
 70
     0
  9
$DIMALTTZ
 70
     0
  9
$DIMFIT
 70
     3
  9
$DIMUPT
 70
     0
  9
$DIMUNIT
 70
     2
  9
$DIMDEC
 70
     2
  9
$DIMTDEC
 70
     2
  9
$DIMALTU
 70
     2
  9
$DIMALTTD
 70
     3
  9
$DIMTXSTY
  7
STANDARD
  9
$DIMAUNIT
 70
     0
  9
$LUNITS
 70
     2
  9
$LUPREC
 70
     4
  9
$SKETCHINC
 40
1.0
  9
$FILLETRAD
 40
10.0
  9
$AUNITS
 70
     0
  9
$AUPREC
 70
     0
  9
$MENU
  1
.
  9
$ELEVATION
 40
0.0
  9
$PELEVATION
 40
0.0
  9
$THICKNESS
 40
0.0
  9
$LIMCHECK
 70
     0
  9
$CHAMFERA
 40
0.0
  9
$CHAMFERB
 40
0.0
  9
$CHAMFERC
 40
0.0
  9
$CHAMFERD
 40
0.0
  9
$SKPOLY
 70
     0
  9
$TDCREATE
 40
2459591.543222269
  9
$TDUPDATE
 40
2459591.543223218
  9
$TDINDWG
 40
0.0000000116
  9
$TDUSRTIMER
 40
0.0000000116
  9
$USRTIMER
 70
     1
  9
$ANGBASE
 50
0.0
  9
$ANGDIR
 70
     0
  9
$PDMODE
 70
     0
  9
$PDSIZE
 40
0.0
  9
$PLINEWID
 40
0.0
  9
$COORDS
 70
     1
  9
$SPLFRAME
 70
     0
  9
$SPLINETYPE
 70
     6
  9
$SPLINESEGS
 70
     8
  9
$ATTDIA
 70
     0
  9
$ATTREQ
 70
     1
  9
$HANDLING
 70
     1
  9
$HANDSEED
  5
383
  9
$SURFTAB1
 70
     6
  9
$SURFTAB2
 70
     6
  9
$SURFTYPE
 70
     6
  9
$SURFU
 70
     6
  9
$SURFV
 70
     6
  9
$UCSNAME
  2

  9
$UCSORG
 10
0.0
 20
0.0
 30
0.0
  9
$UCSXDIR
 10
1.0
 20
0.0
 30
0.0
  9
$UCSYDIR
 10
0.0
 20
1.0
 30
0.0
  9
$PUCSNAME
  2

  9
$PUCSORG
 10
0.0
 20
0.0
 30
0.0
  9
$PUCSXDIR
 10
1.0
 20
0.0
 30
0.0
  9
$PUCSYDIR
 10
0.0
 20
1.0
 30
0.0
  9
$USERI1
 70
     0
  9
$USERI2
 70
     0
  9
$USERI3
 70
     0
  9
$USERI4
 70
     0
  9
$USERI5
 70
     0
  9
$USERR1
 40
0.0
  9
$USERR2
 40
0.0
  9
$USERR3
 40
0.0
  9
$USERR4
 40
0.0
  9
$USERR5
 40
0.0
  9
$WORLDVIEW
 70
     1
  9
$SHADEDGE
 70
     3
  9
$SHADEDIF
 70
    70
  9
$TILEMODE
 70
     1
  9
$MAXACTVP
 70
    64
  9
$PINSBASE
 10
0.0
 20
0.0
 30
0.0
  9
$PLIMCHECK
 70
     0
  9
$PEXTMIN
 10
1.000000000000000E+20
 20
1.000000000000000E+20
 30
1.000000000000000E+20
  9
$PEXTMAX
 10
-1.000000000000000E+20
 20
-1.000000000000000E+20
 30
-1.000000000000000E+20
  9
$PLIMMIN
 10
0.0
 20
0.0
  9
$PLIMMAX
 10
420.0
 20
297.0
  9
$UNITMODE
 70
     0
  9
$VISRETAIN
 70
     1
  9
$PLINEGEN
 70
     0
  9
$PSLTSCALE
 70
     1
  9
$TREEDEPTH
 70
  3020
  9
$PICKSTYLE
 70
     1
  9
$CMLSTYLE
  2
STANDARD
  9
$CMLJUST
 70
     0
  9
$CMLSCALE
 40
20.0
  9
$PROXYGRAPHICS
 70
     1
  9
$MEASUREMENT
 70
     1
  0
ENDSEC
  0
SECTION
  2
CLASSES
  0
CLASS
  1
ACDBDICTIONARYWDFLT
  2
AcDbDictionaryWithDefault
  3
ObjectDBX Classes
 90
        0
280
     0
281
     0
  0
CLASS
  1
VISUALSTYLE
  2
AcDbVisualStyle
  3
ObjectDBX Classes
 90
     4095
280
     0
281
     0
  0
CLASS
  1
MATERIAL
  2
AcDbMaterial
  3
ObjectDBX Classes
 90
     1153
280
     0
281
     0
  0
CLASS
  1
SCALE
  2
AcDbScale
  3
ObjectDBX Classes
 90
     1153
280
     0
281
     0
  0
CLASS
  1
TABLESTYLE
  2
AcDbTableStyle
  3
ObjectDBX Classes
 90
     4095
280
     0
281
     0
  0
CLASS
  1
MLEADERSTYLE
  2
AcDbMLeaderStyle
  3
ACDB_MLEADERSTYLE_CLASS
 90
     4095
280
     0
281
     0
  0
CLASS
  1
SUN
  2
AcDbSun
  3
SCENEOE
 90
     1153
280
     0
281
     0
  0
CLASS
  1
DICTIONARYVAR
  2
AcDbDictionaryVar
  3
ObjectDBX Classes
 90
        0
280
     0
281
     0
  0
CLASS
  1
XRECORD
  2
AcDbXrecord
  3
ObjectDBX Classes
 90
        0
280
     0
281
     0
  0
CLASS
  1
LWPOLYLINE
  2
AcDbPolyline
  3
ObjectDBX Classes
 90
        0
280
     0
281
     1
  0
CLASS
  1
HATCH
  2
AcDbHatch
  3
ObjectDBX Classes
 90
        0
280
     0
281
     1
  0
CLASS
  1
ACDBPLACEHOLDER
  2
AcDbPlaceHolder
  3
ObjectDBX Classes
 90
        0
280
     0
281
     0
  0
CLASS
  1
LAYOUT
  2
AcDbLayout
  3
ObjectDBX Classes
 90
        0
280
     0
281
     0
  0
ENDSEC
  0
SECTION
  2
TABLES
  0
TABLE
  2
VPORT
  5
8
102
{ACAD_XDICTIONARY
360
378
102
}
330
0
100
AcDbSymbolTable
 70
     1
  0
VPORT
  5
29
330
8
100
AcDbSymbolTableRecord
100
AcDbViewportTableRecord
  2
*ACTIVE
 70
     0
 10
0.0
 20
0.0
 11
1.0
 21
1.0
 12
525.0
 22
371.25
 13
0.0
 23
0.0
 14
10.0
 24
10.0
 15
10.0
 25
10.0
 16
0.0
 26
0.0
 36
1.0
 17
0.0
 27
0.0
 37
0.0
 40
692.5
 41
1.444043321299639
 42
50.0
 43
0.0
 44
0.0
 50
0.0
 51
0.0
 71
     0
 72
  1000
 73
     1
 74
     3
 75
     0
 76
     0
 77
     0
 78
     0
  0
ENDTAB
  0
TABLE
  2
LTYPE
  5
5
330
0
100
AcDbSymbolTable
 70
     7
  0
LTYPE
  5
14
330
5
100
AcDbSymbolTableRecord
100
AcDbLinetypeTableRecord
  2
BYBLOCK
 70
     0
  3

 72
    65
 73
     0
 40
0.0
  0
LTYPE
  5
15
330
5
100
AcDbSymbolTableRecord
100
AcDbLinetypeTableRecord
  2
BYLAYER
 70
     0
  3

 72
    65
 73
     0
 40
0.0
  0
LTYPE
  5
16
330
5
100
AcDbSymbolTableRecord
100
AcDbLinetypeTableRecord
  2
CONTINUOUS
 70
     0
  3
Solid line
 72
    65
 73
     0
 40
0.0
  0
LTYPE
  5
6E
330
5
100
AcDbSymbolTableRecord
100
AcDbLinetypeTableRecord
  2
EXLTYPE0
 70
     0
  3
破線
 72
    65
 73
     2
 40
4.0
 49
3.0
 74
     0
 49
-1.0
 74
     0
  0
LTYPE
  5
6F
330
5
100
AcDbSymbolTableRecord
100
AcDbLinetypeTableRecord
  2
EXLTYPE1
 70
     0
  3
点線
 72
    65
 73
     2
 40
2.0
 49
1.0
 74
     0
 49
-1.0
 74
     0
  0
LTYPE
  5
70
330
5
100
AcDbSymbolTableRecord
100
AcDbLinetypeTableRecord
  2
EXLTYPE2
 70
     0
  3
一点鎖線
 72
    65
 73
     4
 40
13.0
 49
10.0
 74
     0
 49
-1.0
 74
     0
 49
1.0
 74
     0
 49
-1.0
 74
     0
  0
LTYPE
  5
71
330
5
100
AcDbSymbolTableRecord
100
AcDbLinetypeTableRecord
  2
EXLTYPE3
 70
     0
  3
二点鎖線
 72
    65
 73
     6
 40
15.0
 49
10.0
 74
     0
 49
-1.0
 74
     0
 49
1.0
 74
     0
 49
-1.0
 74
     0
 49
1.0
 74
     0
 49
-1.0
 74
     0
  0
LTYPE
  5
72
330
5
100
AcDbSymbolTableRecord
100
AcDbLinetypeTableRecord
  2
EXLTYPE4
 70
     0
  3
一点鎖線2
 72
    65
 73
     4
 40
3.5
 49
2.0
 74
     0
 49
-0.5
 74
     0
 49
0.5
 74
     0
 49
-0.5
 74
     0
  0
LTYPE
  5
73
330
5
100
AcDbSymbolTableRecord
100
AcDbLinetypeTableRecord
  2
EXLTYPE5
 70
     0
  3
二点鎖線2
 72
    65
 73
     6
 40
4.5
 49
2.0
 74
     0
 49
-0.5
 74
     0
 49
0.5
 74
     0
 49
-0.5
 74
     0
 49
0.5
 74
     0
 49
-0.5
 74
     0
  0
ENDTAB
  0
TABLE
  2
LAYER
  5
2
330
0
100
AcDbSymbolTable
 70
     4
  0
LAYER
  5
10
330
2
100
AcDbSymbolTableRecord
100
AcDbLayerTableRecord
  2
0
 70
     0
 62
     7
  6
CONTINUOUS
  0
LAYER
  5
76
330
2
100
AcDbSymbolTableRecord
100
AcDbLayerTableRecord
  2
図面枠
 70
     4
 62
     7
  6
CONTINUOUS
  0
LAYER
  5
77
330
2
100
AcDbSymbolTableRecord
100
AcDbLayerTableRecord
  2
Ｓ_１_１
 70
     0
 62
     7
  6
CONTINUOUS
  0
LAYER
  5
115
330
2
100
AcDbSymbolTableRecord
100
AcDbLayerTableRecord
  2
DEFPOINTS
 70
     0
 62
     7
  6
CONTINUOUS
  0
ENDTAB
  0
TABLE
  2
STYLE
  5
3
330
0
100
AcDbSymbolTable
 70
     5
  0
STYLE
  5
11
330
3
100
AcDbSymbolTableRecord
100
AcDbTextStyleTableRecord
  2
STANDARD
 70
     0
 40
0.0
 41
1.0
 50
0.0
 71
     0
 42
2.5
  3
monotxt
  4
extfont
  0
STYLE
  5
74
330
3
100
AcDbSymbolTableRecord
100
AcDbTextStyleTableRecord
  2
EXCADSTD
 70
     0
 40
0.0
 41
1.0
 50
0.0
 71
     0
 42
2.5
  3
monotxt
  4
extfont
  0
STYLE
  5
75
330
3
100
AcDbSymbolTableRecord
100
AcDbTextStyleTableRecord
  2
EXCADVERT
 70
     4
 40
0.0
 41
1.0
 50
0.0
 71
     0
 42
2.5
  3
monotxt
  4
extfont
  0
STYLE
  5
DC
330
3
100
AcDbSymbolTableRecord
100
AcDbTextStyleTableRecord
  2
EXCADTTF1
 70
     0
 40
0.0
 41
1.0
 50
0.0
 71
     0
 42
2.5
  3
msgothic.ttc
  4

1001
ACAD
1000
MS Gothic
1071
    32817
  0
STYLE
  5
113
330
3
100
AcDbSymbolTableRecord
100
AcDbTextStyleTableRecord
  2
EXCADDIM1
 70
     0
 40
0.0
 41
1.0
 50
0.0
 71
     0
 42
2.5
  3
msgothic.ttc
  4

1001
ACAD
1000
MS Gothic
1071
    32817
  0
ENDTAB
  0
TABLE
  2
VIEW
  5
6
330
0
100
AcDbSymbolTable
 70
     0
  0
ENDTAB
  0
TABLE
  2
UCS
  5
7
330
0
100
AcDbSymbolTable
 70
     0
  0
ENDTAB
  0
TABLE
  2
APPID
  5
9
330
0
100
AcDbSymbolTable
 70
     2
  0
APPID
  5
12
330
9
100
AcDbSymbolTableRecord
100
AcDbRegAppTableRecord
  2
ACAD
 70
     0
  0
APPID
  5
382
330
9
100
AcDbSymbolTableRecord
100
AcDbRegAppTableRecord
  2
ACAD_MLEADERVER
 70
     0
  0
ENDTAB
  0
TABLE
  2
DIMSTYLE
  5
A
330
0
100
AcDbSymbolTable
 70
     1
  0
DIMSTYLE
105
27
102
{ACAD_REACTORS
330
114
330
120
330
12E
330
13B
330
148
330
154
330
161
330
16E
330
17B
330
188
102
}
330
A
100
AcDbSymbolTableRecord
100
AcDbDimStyleTableRecord
  2
ISO-25
 70
     0
  3

  4

  5

  6

  7

 40
1.0
 41
2.5
 42
0.625
 43
3.75
 44
1.25
 45
0.0
 46
0.0
 47
0.0
 48
0.0
140
2.5
141
2.5
142
0.0
143
0.03937007874016
144
1.0
145
0.0
146
1.0
147
0.625
 71
     0
 72
     0
 73
     0
 74
     0
 75
     0
 76
     0
 77
     1
 78
     8
170
     0
171
     3
172
     1
173
     0
174
     0
175
     0
176
     0
177
     0
178
     0
270
     2
271
     2
272
     2
273
     2
274
     3
340
11
275
     0
280
     0
281
     0
282
     0
283
     0
284
     8
285
     0
286
     0
287
     5
288
     0
  0
ENDTAB
  0
TABLE
  2
BLOCK_RECORD
  5
1
330
0
100
AcDbSymbolTable
 70
    24
  0
BLOCK_RECORD
  5
1F
330
1
100
AcDbSymbolTableRecord
100
AcDbBlockTableRecord
  2
*MODEL_SPACE
  0
BLOCK_RECORD
  5
1B
330
1
100
AcDbSymbolTableRecord
100
AcDbBlockTableRecord
  2
*PAPER_SPACE
  0
BLOCK_RECORD
  5
78
330
1
100
AcDbSymbolTableRecord
100
AcDbBlockTableRecord
  2
EX_NORM
  0
BLOCK_RECORD
  5
7B
330
1
100
AcDbSymbolTableRecord
100
AcDbBlockTableRecord
  2
EX_BNORM
  0
BLOCK_RECORD
  5
7E
330
1
100
AcDbSymbolTableRecord
100
AcDbBlockTableRecord
  2
EX_BCIR
  0
BLOCK_RECORD
  5
81
330
1
100
AcDbSymbolTableRecord
100
AcDbBlockTableRecord
  2
EX_RCIVIL
  0
BLOCK_RECORD
  5
84
330
1
100
AcDbSymbolTableRecord
100
AcDbBlockTableRecord
  2
EX_SLANT
  0
BLOCK_RECORD
  5
87
330
1
100
AcDbSymbolTableRecord
100
AcDbBlockTableRecord
  2
EX_NONE
  0
BLOCK_RECORD
  5
8A
330
1
100
AcDbSymbolTableRecord
100
AcDbBlockTableRecord
  2
EX_CIVIL
  0
BLOCK_RECORD
  5
8D
330
1
100
AcDbSymbolTableRecord
100
AcDbBlockTableRecord
  2
EX_WCIR
  0
BLOCK_RECORD
  5
90
330
1
100
AcDbSymbolTableRecord
100
AcDbBlockTableRecord
  2
EX_WCIR2
  0
BLOCK_RECORD
  5
93
330
1
100
AcDbSymbolTableRecord
100
AcDbBlockTableRecord
  2
EX_WNORM
  0
BLOCK_RECORD
  5
96
330
1
100
AcDbSymbolTableRecord
100
AcDbBlockTableRecord
  2
EX_NNORM
  0
BLOCK_RECORD
  5
99
330
1
100
AcDbSymbolTableRecord
100
AcDbBlockTableRecord
  2
EX_BBOX
  0
BLOCK_RECORD
  5
9C
330
1
100
AcDbSymbolTableRecord
100
AcDbBlockTableRecord
  2
EX_WBOX
  0
BLOCK_RECORD
  5
9F
330
1
100
AcDbSymbolTableRecord
100
AcDbBlockTableRecord
  2
EX_INTEGRAL
  0
BLOCK_RECORD
  5
116
330
1
100
AcDbSymbolTableRecord
100
AcDbBlockTableRecord
  2
*D15
  0
BLOCK_RECORD
  5
121
330
1
100
AcDbSymbolTableRecord
100
AcDbBlockTableRecord
  2
*D16
  0
BLOCK_RECORD
  5
12F
330
1
100
AcDbSymbolTableRecord
100
AcDbBlockTableRecord
  2
*D17
  0
BLOCK_RECORD
  5
13C
330
1
100
AcDbSymbolTableRecord
100
AcDbBlockTableRecord
  2
*D18
  0
BLOCK_RECORD
  5
149
330
1
100
AcDbSymbolTableRecord
100
AcDbBlockTableRecord
  2
*D19
  0
BLOCK_RECORD
  5
155
330
1
100
AcDbSymbolTableRecord
100
AcDbBlockTableRecord
  2
*D20
  0
BLOCK_RECORD
  5
162
330
1
100
AcDbSymbolTableRecord
100
AcDbBlockTableRecord
  2
*D21
  0
BLOCK_RECORD
  5
16F
330
1
100
AcDbSymbolTableRecord
100
AcDbBlockTableRecord
  2
*D22
  0
BLOCK_RECORD
  5
17C
330
1
100
AcDbSymbolTableRecord
100
AcDbBlockTableRecord
  2
*D23
  0
BLOCK_RECORD
  5
189
330
1
100
AcDbSymbolTableRecord
100
AcDbBlockTableRecord
  2
*D24
  0
ENDTAB
  0
ENDSEC
  0
SECTION
  2
BLOCKS
  0
BLOCK
  5
20
330
1F
100
AcDbEntity
  8
0
100
AcDbBlockBegin
  2
*MODEL_SPACE
 70
     0
 10
0.0
 20
0.0
 30
0.0
  3
*MODEL_SPACE
  1

  0
ENDBLK
  5
21
330
1F
100
AcDbEntity
  8
0
100
AcDbBlockEnd
  0
BLOCK
  5
1C
330
1B
100
AcDbEntity
 67
     1
  8
0
100
AcDbBlockBegin
  2
*PAPER_SPACE
 70
     0
 10
0.0
 20
0.0
 30
0.0
  3
*PAPER_SPACE
  1

  0
ENDBLK
  5
1D
330
1B
100
AcDbEntity
 67
     1
  8
0
100
AcDbBlockEnd
  0
BLOCK
  5
79
330
78
100
AcDbEntity
  8
0
100
AcDbBlockBegin
  2
EX_NORM
 70
     0
 10
0.0
 20
0.0
 30
0.0
  3
EX_NORM
  1

  0
LINE
  5
A2
330
78
100
AcDbEntity
  8
0
  6
CONTINUOUS
 62
     0
100
AcDbLine
 10
0.0
 20
0.0
 30
0.0
 11
-1.0
 21
0.0
 31
0.0
  0
LINE
  5
A3
330
78
100
AcDbEntity
  8
0
  6
CONTINUOUS
 62
     0
100
AcDbLine
 10
0.0
 20
0.0
 30
0.0
 11
-1.0
 21
0.166666667
 31
0.0
  0
LINE
  5
A4
330
78
100
AcDbEntity
  8
0
  6
CONTINUOUS
 62
     0
100
AcDbLine
 10
0.0
 20
0.0
 30
0.0
 11
-1.0
 21
-0.166666667
 31
0.0
  0
ENDBLK
  5
7A
330
78
100
AcDbEntity
  8
0
100
AcDbBlockEnd
  0
BLOCK
  5
7C
330
7B
100
AcDbEntity
  8
0
100
AcDbBlockBegin
  2
EX_BNORM
 70
     0
 10
0.0
 20
0.0
 30
0.0
  3
EX_BNORM
  1

  0
LINE
  5
A5
330
7B
100
AcDbEntity
  8
0
  6
CONTINUOUS
 62
     0
100
AcDbLine
 10
0.0
 20
0.0
 30
0.0
 11
-1.0
 21
0.0
 31
0.0
  0
LINE
  5
A6
330
7B
100
AcDbEntity
  8
0
  6
CONTINUOUS
 62
     0
100
AcDbLine
 10
0.0
 20
0.0
 30
0.0
 11
-1.0
 21
0.166666667
 31
0.0
  0
LINE
  5
A7
330
7B
100
AcDbEntity
  8
0
  6
CONTINUOUS
 62
     0
100
AcDbLine
 10
0.0
 20
0.0
 30
0.0
 11
-1.0
 21
-0.166666667
 31
0.0
  0
LINE
  5
A8
330
7B
100
AcDbEntity
  8
0
  6
CONTINUOUS
 62
     0
100
AcDbLine
 10
0.0
 20
0.0
 30
0.0
 11
-1.0
 21
0.083333333
 31
0.0
  0
LINE
  5
A9
330
7B
100
AcDbEntity
  8
0
  6
CONTINUOUS
 62
     0
100
AcDbLine
 10
0.0
 20
0.0
 30
0.0
 11
-1.0
 21
-0.083333333
 31
0.0
  0
LINE
  5
AA
330
7B
100
AcDbEntity
  8
0
  6
CONTINUOUS
 62
     0
100
AcDbLine
 10
-1.0
 20
0.166666667
 30
0.0
 11
-1.0
 21
-0.166666667
 31
0.0
  0
ENDBLK
  5
7D
330
7B
100
AcDbEntity
  8
0
100
AcDbBlockEnd
  0
BLOCK
  5
7F
330
7E
100
AcDbEntity
  8
0
100
AcDbBlockBegin
  2
EX_BCIR
 70
     0
 10
0.0
 20
0.0
 30
0.0
  3
EX_BCIR
  1

  0
LINE
  5
AB
330
7E
100
AcDbEntity
  8
0
  6
CONTINUOUS
 62
     0
100
AcDbLine
 10
0.0
 20
0.0
 30
0.0
 11
-1.0
 21
0.0
 31
0.0
  0
CIRCLE
  5
AC
330
7E
100
AcDbEntity
  8
0
  6
CONTINUOUS
 62
     0
100
AcDbCircle
 10
0.0
 20
0.0
 30
0.0
 40
0.5
  0
CIRCLE
  5
AD
330
7E
100
AcDbEntity
  8
0
  6
CONTINUOUS
 62
     0
100
AcDbCircle
 10
0.0
 20
0.0
 30
0.0
 40
0.25
  0
ENDBLK
  5
80
330
7E
100
AcDbEntity
  8
0
100
AcDbBlockEnd
  0
BLOCK
  5
82
330
81
100
AcDbEntity
  8
0
100
AcDbBlockBegin
  2
EX_RCIVIL
 70
     0
 10
0.0
 20
0.0
 30
0.0
  3
EX_RCIVIL
  1

  0
LINE
  5
AE
330
81
100
AcDbEntity
  8
0
  6
CONTINUOUS
 62
     0
100
AcDbLine
 10
0.0
 20
0.0
 30
0.0
 11
-1.0
 21
0.0
 31
0.0
  0
LINE
  5
AF
330
81
100
AcDbEntity
  8
0
  6
CONTINUOUS
 62
     0
100
AcDbLine
 10
-1.0
 20
-0.25
 30
0.0
 11
0.0
 21
-0.25
 31
0.0
  0
LINE
  5
B0
330
81
100
AcDbEntity
  8
0
  6
CONTINUOUS
 62
     0
100
AcDbLine
 10
-1.0
 20
-0.125
 30
0.0
 11
0.0
 21
-0.125
 31
0.0
  0
ENDBLK
  5
83
330
81
100
AcDbEntity
  8
0
100
AcDbBlockEnd
  0
BLOCK
  5
85
330
84
100
AcDbEntity
  8
0
100
AcDbBlockBegin
  2
EX_SLANT
 70
     0
 10
0.0
 20
0.0
 30
0.0
  3
EX_SLANT
  1

  0
LINE
  5
B1
330
84
100
AcDbEntity
  8
0
  6
CONTINUOUS
 62
     0
100
AcDbLine
 10
0.0
 20
0.0
 30
0.0
 11
-1.0
 21
0.0
 31
0.0
  0
LINE
  5
B2
330
84
100
AcDbEntity
  8
0
  6
CONTINUOUS
 62
     0
100
AcDbLine
 10
0.707106781
 20
0.707106781
 30
0.0
 11
-0.707106781
 21
-0.707106781
 31
0.0
  0
ENDBLK
  5
86
330
84
100
AcDbEntity
  8
0
100
AcDbBlockEnd
  0
BLOCK
  5
88
330
87
100
AcDbEntity
  8
0
100
AcDbBlockBegin
  2
EX_NONE
 70
     0
 10
0.0
 20
0.0
 30
0.0
  3
EX_NONE
  1

  0
LINE
  5
B3
330
87
100
AcDbEntity
  8
0
  6
CONTINUOUS
 62
     0
100
AcDbLine
 10
0.0
 20
0.0
 30
0.0
 11
-1.0
 21
0.0
 31
0.0
  0
ENDBLK
  5
89
330
87
100
AcDbEntity
  8
0
100
AcDbBlockEnd
  0
BLOCK
  5
8B
330
8A
100
AcDbEntity
  8
0
100
AcDbBlockBegin
  2
EX_CIVIL
 70
     0
 10
0.0
 20
0.0
 30
0.0
  3
EX_CIVIL
  1

  0
LINE
  5
B4
330
8A
100
AcDbEntity
  8
0
  6
CONTINUOUS
 62
     0
100
AcDbLine
 10
0.0
 20
0.0
 30
0.0
 11
-1.0
 21
0.0
 31
0.0
  0
LINE
  5
B5
330
8A
100
AcDbEntity
  8
0
  6
CONTINUOUS
 62
     0
100
AcDbLine
 10
-1.0
 20
0.25
 30
0.0
 11
0.0
 21
0.25
 31
0.0
  0
LINE
  5
B6
330
8A
100
AcDbEntity
  8
0
  6
CONTINUOUS
 62
     0
100
AcDbLine
 10
-1.0
 20
0.125
 30
0.0
 11
0.0
 21
0.125
 31
0.0
  0
ENDBLK
  5
8C
330
8A
100
AcDbEntity
  8
0
100
AcDbBlockEnd
  0
BLOCK
  5
8E
330
8D
100
AcDbEntity
  8
0
100
AcDbBlockBegin
  2
EX_WCIR
 70
     0
 10
0.0
 20
0.0
 30
0.0
  3
EX_WCIR
  1

  0
LINE
  5
B7
330
8D
100
AcDbEntity
  8
0
  6
CONTINUOUS
 62
     0
100
AcDbLine
 10
0.0
 20
0.0
 30
0.0
 11
-1.0
 21
0.0
 31
0.0
  0
CIRCLE
  5
B8
330
8D
100
AcDbEntity
  8
0
  6
CONTINUOUS
 62
     0
100
AcDbCircle
 10
0.0
 20
0.0
 30
0.0
 40
0.5
  0
ENDBLK
  5
8F
330
8D
100
AcDbEntity
  8
0
100
AcDbBlockEnd
  0
BLOCK
  5
91
330
90
100
AcDbEntity
  8
0
100
AcDbBlockBegin
  2
EX_WCIR2
 70
     0
 10
0.0
 20
0.0
 30
0.0
  3
EX_WCIR2
  1

  0
LINE
  5
B9
330
90
100
AcDbEntity
  8
0
  6
CONTINUOUS
 62
     0
100
AcDbLine
 10
-0.5
 20
0.0
 30
0.0
 11
-1.0
 21
0.0
 31
0.0
  0
CIRCLE
  5
BA
330
90
100
AcDbEntity
  8
0
  6
CONTINUOUS
 62
     0
100
AcDbCircle
 10
0.0
 20
0.0
 30
0.0
 40
0.5
  0
ENDBLK
  5
92
330
90
100
AcDbEntity
  8
0
100
AcDbBlockEnd
  0
BLOCK
  5
94
330
93
100
AcDbEntity
  8
0
100
AcDbBlockBegin
  2
EX_WNORM
 70
     0
 10
0.0
 20
0.0
 30
0.0
  3
EX_WNORM
  1

  0
LINE
  5
BB
330
93
100
AcDbEntity
  8
0
  6
CONTINUOUS
 62
     0
100
AcDbLine
 10
-1.0
 20
0.0
 30
0.0
 11
-1.0
 21
0.0
 31
0.0
  0
LINE
  5
BC
330
93
100
AcDbEntity
  8
0
  6
CONTINUOUS
 62
     0
100
AcDbLine
 10
0.0
 20
0.0
 30
0.0
 11
-1.0
 21
0.166666667
 31
0.0
  0
LINE
  5
BD
330
93
100
AcDbEntity
  8
0
  6
CONTINUOUS
 62
     0
100
AcDbLine
 10
0.0
 20
0.0
 30
0.0
 11
-1.0
 21
-0.166666667
 31
0.0
  0
LINE
  5
BE
330
93
100
AcDbEntity
  8
0
  6
CONTINUOUS
 62
     0
100
AcDbLine
 10
-1.0
 20
0.166666667
 30
0.0
 11
-1.0
 21
-0.166666667
 31
0.0
  0
ENDBLK
  5
95
330
93
100
AcDbEntity
  8
0
100
AcDbBlockEnd
  0
BLOCK
  5
97
330
96
100
AcDbEntity
  8
0
100
AcDbBlockBegin
  2
EX_NNORM
 70
     0
 10
0.0
 20
0.0
 30
0.0
  3
EX_NNORM
  1

  0
LINE
  5
BF
330
96
100
AcDbEntity
  8
0
  6
CONTINUOUS
 62
     0
100
AcDbLine
 10
0.0
 20
0.0
 30
0.0
 11
-1.0
 21
0.0
 31
0.0
  0
LINE
  5
C0
330
96
100
AcDbEntity
  8
0
  6
CONTINUOUS
 62
     0
100
AcDbLine
 10
0.0
 20
0.0
 30
0.0
 11
-1.0
 21
0.166666667
 31
0.0
  0
LINE
  5
C1
330
96
100
AcDbEntity
  8
0
  6
CONTINUOUS
 62
     0
100
AcDbLine
 10
0.0
 20
0.0
 30
0.0
 11
-1.0
 21
-0.166666667
 31
0.0
  0
LINE
  5
C2
330
96
100
AcDbEntity
  8
0
  6
CONTINUOUS
 62
     0
100
AcDbLine
 10
-1.0
 20
0.166666667
 30
0.0
 11
-1.0
 21
-0.166666667
 31
0.0
  0
ENDBLK
  5
98
330
96
100
AcDbEntity
  8
0
100
AcDbBlockEnd
  0
BLOCK
  5
9A
330
99
100
AcDbEntity
  8
0
100
AcDbBlockBegin
  2
EX_BBOX
 70
     0
 10
0.0
 20
0.0
 30
0.0
  3
EX_BBOX
  1

  0
LINE
  5
C3
330
99
100
AcDbEntity
  8
0
  6
CONTINUOUS
 62
     0
100
AcDbLine
 10
0.0
 20
0.0
 30
0.0
 11
-1.0
 21
0.0
 31
0.0
  0
LINE
  5
C4
330
99
100
AcDbEntity
  8
0
  6
CONTINUOUS
 62
     0
100
AcDbLine
 10
-0.5
 20
0.5
 30
0.0
 11
0.5
 21
0.5
 31
0.0
  0
LINE
  5
C5
330
99
100
AcDbEntity
  8
0
  6
CONTINUOUS
 62
     0
100
AcDbLine
 10
0.5
 20
0.5
 30
0.0
 11
0.5
 21
-0.5
 31
0.0
  0
LINE
  5
C6
330
99
100
AcDbEntity
  8
0
  6
CONTINUOUS
 62
     0
100
AcDbLine
 10
0.5
 20
-0.5
 30
0.0
 11
-0.5
 21
-0.5
 31
0.0
  0
LINE
  5
C7
330
99
100
AcDbEntity
  8
0
  6
CONTINUOUS
 62
     0
100
AcDbLine
 10
-0.5
 20
-0.5
 30
0.0
 11
-0.5
 21
0.5
 31
0.0
  0
LINE
  5
C8
330
99
100
AcDbEntity
  8
0
  6
CONTINUOUS
 62
     0
100
AcDbLine
 10
-0.25
 20
0.25
 30
0.0
 11
0.25
 21
0.25
 31
0.0
  0
LINE
  5
C9
330
99
100
AcDbEntity
  8
0
  6
CONTINUOUS
 62
     0
100
AcDbLine
 10
0.25
 20
0.25
 30
0.0
 11
0.25
 21
-0.25
 31
0.0
  0
LINE
  5
CA
330
99
100
AcDbEntity
  8
0
  6
CONTINUOUS
 62
     0
100
AcDbLine
 10
0.25
 20
-0.25
 30
0.0
 11
-0.25
 21
-0.25
 31
0.0
  0
LINE
  5
CB
330
99
100
AcDbEntity
  8
0
  6
CONTINUOUS
 62
     0
100
AcDbLine
 10
-0.25
 20
-0.25
 30
0.0
 11
-0.25
 21
0.25
 31
0.0
  0
ENDBLK
  5
9B
330
99
100
AcDbEntity
  8
0
100
AcDbBlockEnd
  0
BLOCK
  5
9D
330
9C
100
AcDbEntity
  8
0
100
AcDbBlockBegin
  2
EX_WBOX
 70
     0
 10
0.0
 20
0.0
 30
0.0
  3
EX_WBOX
  1

  0
LINE
  5
CC
330
9C
100
AcDbEntity
  8
0
  6
CONTINUOUS
 62
     0
100
AcDbLine
 10
-0.5
 20
0.0
 30
0.0
 11
-1.0
 21
0.0
 31
0.0
  0
LINE
  5
CD
330
9C
100
AcDbEntity
  8
0
  6
CONTINUOUS
 62
     0
100
AcDbLine
 10
-0.5
 20
0.5
 30
0.0
 11
0.5
 21
0.5
 31
0.0
  0
LINE
  5
CE
330
9C
100
AcDbEntity
  8
0
  6
CONTINUOUS
 62
     0
100
AcDbLine
 10
0.5
 20
0.5
 30
0.0
 11
0.5
 21
-0.5
 31
0.0
  0
LINE
  5
CF
330
9C
100
AcDbEntity
  8
0
  6
CONTINUOUS
 62
     0
100
AcDbLine
 10
0.5
 20
-0.5
 30
0.0
 11
-0.5
 21
-0.5
 31
0.0
  0
LINE
  5
D0
330
9C
100
AcDbEntity
  8
0
  6
CONTINUOUS
 62
     0
100
AcDbLine
 10
-0.5
 20
-0.5
 30
0.0
 11
-0.5
 21
0.5
 31
0.0
  0
ENDBLK
  5
9E
330
9C
100
AcDbEntity
  8
0
100
AcDbBlockEnd
  0
BLOCK
  5
A0
330
9F
100
AcDbEntity
  8
0
100
AcDbBlockBegin
  2
EX_INTEGRAL
 70
     0
 10
0.0
 20
0.0
 30
0.0
  3
EX_INTEGRAL
  1

  0
LINE
  5
D1
330
9F
100
AcDbEntity
  8
0
  6
CONTINUOUS
 62
     0
100
AcDbLine
 10
0.0
 20
0.0
 30
0.0
 11
-1.0
 21
0.0
 31
0.0
  0
ARC
  5
D2
330
9F
100
AcDbEntity
  8
0
  6
CONTINUOUS
 62
     0
100
AcDbCircle
 10
0.542115
 20
0.164992
 30
0.0
 40
0.56667
100
AcDbArc
 50
73.07249033629006
 51
196.9275130221199
  0
ARC
  5
D3
330
9F
100
AcDbEntity
  8
0
  6
CONTINUOUS
 62
     0
100
AcDbCircle
 10
-0.542115
 20
-0.164992
 30
0.0
 40
0.56667
100
AcDbArc
 50
253.0724869220464
 51
16.9275130559125
  0
ENDBLK
  5
A1
330
9F
100
AcDbEntity
  8
0
100
AcDbBlockEnd
  0
BLOCK
  5
117
330
116
100
AcDbEntity
  8
0
100
AcDbBlockBegin
  2
*D15
 70
     1
 10
0.0
 20
0.0
 30
0.0
  3
*D15
  1

  0
LINE
  5
119
330
116
100
AcDbEntity
  8
Ｓ_１_１
  6
CONTINUOUS
 62
     2
100
AcDbLine
 10
862.5
 20
135.0
 30
0.0
 11
512.500005
 21
135.0
 31
0.0
  0
INSERT
  5
11A
330
116
100
AcDbEntity
  8
Ｓ_１_１
 62
     2
100
AcDbBlockReference
  2
EX_NORM
 10
870.0
 20
135.0
 30
0.0
 41
7.5
 42
7.5
 43
7.5
  0
INSERT
  5
11B
330
116
100
AcDbEntity
  8
Ｓ_１_１
 62
     2
100
AcDbBlockReference
  2
EX_NORM
 10
505.000005
 20
135.0
 30
0.0
 41
7.5
 42
7.5
 43
7.5
 50
180.0
  0
MTEXT
  5
11C
330
116
100
AcDbEntity
  8
Ｓ_１_１
 62
     2
100
AcDbMText
 10
687.5000024999999
 20
141.875
 30
0.0
 40
8.6572603926097
 41
0.0
 71
     5
 72
     1
  1
365
  7
EXCADDIM1
  0
POINT
  5
11D
330
116
100
AcDbEntity
  8
DEFPOINTS
 62
     0
100
AcDbPoint
 10
870.0
 20
193.00001999999
 30
0.0
  0
POINT
  5
11E
330
116
100
AcDbEntity
  8
DEFPOINTS
 62
     0
100
AcDbPoint
 10
505.000005
 20
192.999995
 30
0.0
  0
POINT
  5
11F
330
116
100
AcDbEntity
  8
DEFPOINTS
 62
     0
100
AcDbPoint
 10
505.000005
 20
135.0
 30
0.0
  0
ENDBLK
  5
118
330
116
100
AcDbEntity
  8
0
100
AcDbBlockEnd
  0
BLOCK
  5
122
330
121
100
AcDbEntity
  8
0
100
AcDbBlockBegin
  2
*D16
 70
     1
 10
0.0
 20
0.0
 30
0.0
  3
*D16
  1

  0
LINE
  5
124
330
121
100
AcDbEntity
  8
Ｓ_１_１
  6
CONTINUOUS
 62
     2
100
AcDbLine
 10
505.000005
 20
189.249995
 30
0.0
 11
505.000005
 21
132.5
 31
0.0
  0
LINE
  5
125
330
121
100
AcDbEntity
  8
Ｓ_１_１
  6
CONTINUOUS
 62
     2
100
AcDbLine
 10
505.000005
 20
135.0
 30
0.0
 11
495.000005
 21
135.0
 31
0.0
  0
LINE
  5
126
330
121
100
AcDbEntity
  8
Ｓ_１_１
  6
CONTINUOUS
 62
     2
100
AcDbLine
 10
512.500005
 20
135.0
 30
0.0
 11
520.000005
 21
135.0
 31
0.0
  0
LINE
  5
127
330
121
100
AcDbEntity
  8
Ｓ_１_１
  6
CONTINUOUS
 62
     2
100
AcDbLine
 10
487.500005
 20
135.0
 30
0.0
 11
480.000005
 21
135.0
 31
0.0
  0
INSERT
  5
128
330
121
100
AcDbEntity
  8
Ｓ_１_１
 62
     2
100
AcDbBlockReference
  2
EX_NORM
 10
505.000005
 20
135.0
 30
0.0
 41
7.5
 42
7.5
 43
7.5
 50
180.0
  0
INSERT
  5
129
330
121
100
AcDbEntity
  8
Ｓ_１_１
 62
     2
100
AcDbBlockReference
  2
EX_NORM
 10
495.000005
 20
135.0
 30
0.0
 41
7.5
 42
7.5
 43
7.5
  0
MTEXT
  5
12A
330
121
100
AcDbEntity
  8
Ｓ_１_１
 62
     2
100
AcDbMText
 10
481.875005
 20
141.8749999999999
 30
0.0
 40
8.6572603926097
 41
0.0
 71
     5
 72
     1
  1
10
  7
EXCADDIM1
  0
POINT
  5
12B
330
121
100
AcDbEntity
  8
DEFPOINTS
 62
     0
100
AcDbPoint
 10
505.000005
 20
192.999995
 30
0.0
  0
POINT
  5
12C
330
121
100
AcDbEntity
  8
DEFPOINTS
 62
     0
100
AcDbPoint
 10
495.000005
 20
231.732053
 30
0.0
  0
POINT
  5
12D
330
121
100
AcDbEntity
  8
DEFPOINTS
 62
     0
100
AcDbPoint
 10
495.000005
 20
135.0
 30
0.0
  0
ENDBLK
  5
123
330
121
100
AcDbEntity
  8
0
100
AcDbBlockEnd
  0
BLOCK
  5
130
330
12F
100
AcDbEntity
  8
0
100
AcDbBlockBegin
  2
*D17
 70
     1
 10
0.0
 20
0.0
 30
0.0
  3
*D17
  1

  0
LINE
  5
132
330
12F
100
AcDbEntity
  8
Ｓ_１_１
  6
CONTINUOUS
 62
     2
100
AcDbLine
 10
495.000005
 20
227.982053
 30
0.0
 11
495.000005
 21
117.5
 31
0.0
  0
LINE
  5
133
330
12F
100
AcDbEntity
  8
Ｓ_１_１
  6
CONTINUOUS
 62
     2
100
AcDbLine
 10
870.0
 20
189.25001999999
 30
0.0
 11
870.0
 21
117.5
 31
0.0
  0
LINE
  5
134
330
12F
100
AcDbEntity
  8
Ｓ_１_１
  6
CONTINUOUS
 62
     2
100
AcDbLine
 10
502.500005
 20
120.0
 30
0.0
 11
862.5
 21
120.0
 31
0.0
  0
INSERT
  5
135
330
12F
100
AcDbEntity
  8
Ｓ_１_１
 62
     2
100
AcDbBlockReference
  2
EX_NORM
 10
495.000005
 20
120.0
 30
0.0
 41
7.5
 42
7.5
 43
7.5
 50
180.0
  0
INSERT
  5
136
330
12F
100
AcDbEntity
  8
Ｓ_１_１
 62
     2
100
AcDbBlockReference
  2
EX_NORM
 10
870.0
 20
120.0
 30
0.0
 41
7.5
 42
7.5
 43
7.5
  0
MTEXT
  5
137
330
12F
100
AcDbEntity
  8
Ｓ_１_１
 62
     2
100
AcDbMText
 10
682.5000024999999
 20
126.875
 30
0.0
 40
8.6572603926097
 41
0.0
 71
     5
 72
     1
  1
375
  7
EXCADDIM1
  0
POINT
  5
138
330
12F
100
AcDbEntity
  8
DEFPOINTS
 62
     0
100
AcDbPoint
 10
495.000005
 20
231.732053
 30
0.0
  0
POINT
  5
139
330
12F
100
AcDbEntity
  8
DEFPOINTS
 62
     0
100
AcDbPoint
 10
870.0
 20
193.00001999999
 30
0.0
  0
POINT
  5
13A
330
12F
100
AcDbEntity
  8
DEFPOINTS
 62
     0
100
AcDbPoint
 10
870.0
 20
120.0
 30
0.0
  0
ENDBLK
  5
131
330
12F
100
AcDbEntity
  8
0
100
AcDbBlockEnd
  0
BLOCK
  5
13D
330
13C
100
AcDbEntity
  8
0
100
AcDbBlockBegin
  2
*D18
 70
     1
 10
0.0
 20
0.0
 30
0.0
  3
*D18
  1

  0
LINE
  5
13F
330
13C
100
AcDbEntity
  8
Ｓ_１_１
  6
CONTINUOUS
 62
     2
100
AcDbLine
 10
494.2500069999999
 20
339.999998
 30
0.0
 11
447.5
 21
339.999998
 31
0.0
  0
LINE
  5
140
330
13C
100
AcDbEntity
  8
Ｓ_１_１
  6
CONTINUOUS
 62
     2
100
AcDbLine
 10
494.2500069999999
 20
230.000001
 30
0.0
 11
447.5
 21
230.000001
 31
0.0
  0
LINE
  5
141
330
13C
100
AcDbEntity
  8
Ｓ_１_１
  6
CONTINUOUS
 62
     2
100
AcDbLine
 10
450.0
 20
332.499998
 30
0.0
 11
450.0
 21
237.500001
 31
0.0
  0
INSERT
  5
142
330
13C
100
AcDbEntity
  8
Ｓ_１_１
 62
     2
100
AcDbBlockReference
  2
EX_NORM
 10
450.0
 20
339.999998
 30
0.0
 41
7.5
 42
7.5
 43
7.5
 50
90.0
  0
INSERT
  5
143
330
13C
100
AcDbEntity
  8
Ｓ_１_１
 62
     2
100
AcDbBlockReference
  2
EX_NORM
 10
450.0
 20
230.000001
 30
0.0
 41
7.5
 42
7.5
 43
7.5
 50
270.0
  0
MTEXT
  5
144
330
13C
100
AcDbEntity
  8
Ｓ_１_１
 62
     2
100
AcDbMText
 10
443.125
 20
284.9999995
 30
0.0
 40
8.6572603926097
 41
0.0
 71
     5
 72
     1
  1
%%c110
  7
EXCADDIM1
 11
0.0
 21
1.0
 31
0.0
  0
POINT
  5
145
330
13C
100
AcDbEntity
  8
DEFPOINTS
 62
     0
100
AcDbPoint
 10
498.0000069999999
 20
339.999998
 30
0.0
  0
POINT
  5
146
330
13C
100
AcDbEntity
  8
DEFPOINTS
 62
     0
100
AcDbPoint
 10
498.0000069999999
 20
230.000001
 30
0.0
  0
POINT
  5
147
330
13C
100
AcDbEntity
  8
DEFPOINTS
 62
     0
100
AcDbPoint
 10
450.0
 20
230.000001
 30
0.0
  0
ENDBLK
  5
13E
330
13C
100
AcDbEntity
  8
0
100
AcDbBlockEnd
  0
BLOCK
  5
14A
330
149
100
AcDbEntity
  8
0
100
AcDbBlockBegin
  2
*D19
 70
     1
 10
0.0
 20
0.0
 30
0.0
  3
*D19
  1

  0
LINE
  5
14C
330
149
100
AcDbEntity
  8
Ｓ_１_１
  6
CONTINUOUS
 62
     2
100
AcDbLine
 10
870.7500069999999
 20
190.000001
 30
0.0
 11
917.5
 21
190.000001
 31
0.0
  0
LINE
  5
14D
330
149
100
AcDbEntity
  8
Ｓ_１_１
  6
CONTINUOUS
 62
     2
100
AcDbLine
 10
915.0
 20
372.4999989999999
 30
0.0
 11
915.0
 21
197.500001
 31
0.0
  0
INSERT
  5
14E
330
149
100
AcDbEntity
  8
Ｓ_１_１
 62
     2
100
AcDbBlockReference
  2
EX_NORM
 10
915.0
 20
379.9999989999999
 30
0.0
 41
7.5
 42
7.5
 43
7.5
 50
90.0
  0
INSERT
  5
14F
330
149
100
AcDbEntity
  8
Ｓ_１_１
 62
     2
100
AcDbBlockReference
  2
EX_NORM
 10
915.0
 20
190.000001
 30
0.0
 41
7.5
 42
7.5
 43
7.5
 50
270.0
  0
MTEXT
  5
150
330
149
100
AcDbEntity
  8
Ｓ_１_１
 62
     2
100
AcDbMText
 10
908.125
 20
285.0
 30
0.0
 40
8.6572603926097
 41
0.0
 71
     5
 72
     1
  1
%%c190
  7
EXCADDIM1
 11
0.0
 21
1.0
 31
0.0
  0
POINT
  5
151
330
149
100
AcDbEntity
  8
DEFPOINTS
 62
     0
100
AcDbPoint
 10
867.0000069999999
 20
379.9999989999999
 30
0.0
  0
POINT
  5
152
330
149
100
AcDbEntity
  8
DEFPOINTS
 62
     0
100
AcDbPoint
 10
867.0000069999999
 20
190.000001
 30
0.0
  0
POINT
  5
153
330
149
100
AcDbEntity
  8
DEFPOINTS
 62
     0
100
AcDbPoint
 10
915.0
 20
190.000001
 30
0.0
  0
ENDBLK
  5
14B
330
149
100
AcDbEntity
  8
0
100
AcDbBlockEnd
  0
BLOCK
  5
156
330
155
100
AcDbEntity
  8
0
100
AcDbBlockBegin
  2
*D20
 70
     1
 10
0.0
 20
0.0
 30
0.0
  3
*D20
  1

  0
LINE
  5
158
330
155
100
AcDbEntity
  8
Ｓ_１_１
  6
CONTINUOUS
 62
     2
100
AcDbLine
 10
870.750007
 20
379.9999989999999
 30
0.0
 11
917.5
 21
379.9999989999999
 31
0.0
  0
LINE
  5
159
330
155
100
AcDbEntity
  8
Ｓ_１_１
  6
CONTINUOUS
 62
     2
100
AcDbLine
 10
785.750009
 20
465.36227
 30
0.0
 11
917.5
 21
465.36227
 31
0.0
  0
LINE
  5
15A
330
155
100
AcDbEntity
  8
Ｓ_１_１
  6
CONTINUOUS
 62
     2
100
AcDbLine
 10
915.0
 20
387.4999989999999
 30
0.0
 11
915.0
 21
457.86227
 31
0.0
  0
INSERT
  5
15B
330
155
100
AcDbEntity
  8
Ｓ_１_１
 62
     2
100
AcDbBlockReference
  2
EX_NORM
 10
915.0
 20
379.9999989999999
 30
0.0
 41
7.5
 42
7.5
 43
7.5
 50
270.0
  0
INSERT
  5
15C
330
155
100
AcDbEntity
  8
Ｓ_１_１
 62
     2
100
AcDbBlockReference
  2
EX_NORM
 10
915.0
 20
465.36227
 30
0.0
 41
7.5
 42
7.5
 43
7.5
 50
90.0
  0
MTEXT
  5
15D
330
155
100
AcDbEntity
  8
Ｓ_１_１
 62
     2
100
AcDbMText
 10
908.125
 20
422.6811345
 30
0.0
 40
8.6572603926097
 41
0.0
 71
     5
 72
     1
  1
(85)
  7
EXCADDIM1
 11
0.0
 21
1.0
 31
0.0
  0
POINT
  5
15E
330
155
100
AcDbEntity
  8
DEFPOINTS
 62
     0
100
AcDbPoint
 10
867.000007
 20
379.9999989999999
 30
0.0
  0
POINT
  5
15F
330
155
100
AcDbEntity
  8
DEFPOINTS
 62
     0
100
AcDbPoint
 10
782.000009
 20
465.36227
 30
0.0
  0
POINT
  5
160
330
155
100
AcDbEntity
  8
DEFPOINTS
 62
     0
100
AcDbPoint
 10
915.0
 20
465.36227
 30
0.0
  0
ENDBLK
  5
157
330
155
100
AcDbEntity
  8
0
100
AcDbBlockEnd
  0
BLOCK
  5
163
330
162
100
AcDbEntity
  8
0
100
AcDbBlockBegin
  2
*D21
 70
     1
 10
0.0
 20
0.0
 30
0.0
  3
*D21
  1

  0
LINE
  5
165
330
162
100
AcDbEntity
  8
Ｓ_１_１
  6
CONTINUOUS
 62
     2
100
AcDbLine
 10
138.000013
 20
298.249998
 30
0.0
 11
138.000013
 21
512.5
 31
0.0
  0
LINE
  5
166
330
162
100
AcDbEntity
  8
Ｓ_１_１
  6
CONTINUOUS
 62
     2
100
AcDbLine
 10
401.999996
 20
298.249998
 30
0.0
 11
401.999996
 21
512.5
 31
0.0
  0
LINE
  5
167
330
162
100
AcDbEntity
  8
Ｓ_１_１
  6
CONTINUOUS
 62
     2
100
AcDbLine
 10
145.500013
 20
510.0
 30
0.0
 11
394.499996
 21
510.0
 31
0.0
  0
INSERT
  5
168
330
162
100
AcDbEntity
  8
Ｓ_１_１
 62
     2
100
AcDbBlockReference
  2
EX_NORM
 10
138.000013
 20
510.0
 30
0.0
 41
7.5
 42
7.5
 43
7.5
 50
180.0
  0
INSERT
  5
169
330
162
100
AcDbEntity
  8
Ｓ_１_１
 62
     2
100
AcDbBlockReference
  2
EX_NORM
 10
401.999996
 20
510.0
 30
0.0
 41
7.5
 42
7.5
 43
7.5
  0
MTEXT
  5
16A
330
162
100
AcDbEntity
  8
Ｓ_１_１
 62
     2
100
AcDbMText
 10
270.0000045
 20
516.875
 30
0.0
 40
8.6572603926097
 41
0.0
 71
     5
 72
     1
  1
264
  7
EXCADDIM1
  0
POINT
  5
16B
330
162
100
AcDbEntity
  8
DEFPOINTS
 62
     0
100
AcDbPoint
 10
138.000013
 20
294.499998
 30
0.0
  0
POINT
  5
16C
330
162
100
AcDbEntity
  8
DEFPOINTS
 62
     0
100
AcDbPoint
 10
401.999996
 20
294.499998
 30
0.0
  0
POINT
  5
16D
330
162
100
AcDbEntity
  8
DEFPOINTS
 62
     0
100
AcDbPoint
 10
401.999996
 20
510.0
 30
0.0
  0
ENDBLK
  5
164
330
162
100
AcDbEntity
  8
0
100
AcDbBlockEnd
  0
BLOCK
  5
170
330
16F
100
AcDbEntity
  8
0
100
AcDbBlockBegin
  2
*D22
 70
     1
 10
0.0
 20
0.0
 30
0.0
  3
*D22
  1

  0
LINE
  5
172
330
16F
100
AcDbEntity
  8
Ｓ_１_１
  6
CONTINUOUS
 62
     2
100
AcDbLine
 10
505.000005
 20
380.749995
 30
0.0
 11
505.000005
 21
512.5
 31
0.0
  0
LINE
  5
173
330
16F
100
AcDbEntity
  8
Ｓ_１_１
  6
CONTINUOUS
 62
     2
100
AcDbLine
 10
575.000004
 20
484.75
 30
0.0
 11
575.000004
 21
512.5
 31
0.0
  0
LINE
  5
174
330
16F
100
AcDbEntity
  8
Ｓ_１_１
  6
CONTINUOUS
 62
     2
100
AcDbLine
 10
512.500005
 20
510.0
 30
0.0
 11
567.500004
 21
510.0
 31
0.0
  0
INSERT
  5
175
330
16F
100
AcDbEntity
  8
Ｓ_１_１
 62
     2
100
AcDbBlockReference
  2
EX_NORM
 10
505.000005
 20
510.0
 30
0.0
 41
7.5
 42
7.5
 43
7.5
 50
180.0
  0
INSERT
  5
176
330
16F
100
AcDbEntity
  8
Ｓ_１_１
 62
     2
100
AcDbBlockReference
  2
EX_NORM
 10
575.000004
 20
510.0
 30
0.0
 41
7.5
 42
7.5
 43
7.5
  0
MTEXT
  5
177
330
16F
100
AcDbEntity
  8
Ｓ_１_１
 62
     2
100
AcDbMText
 10
540.0000044999999
 20
516.875
 30
0.0
 40
8.6572603926097
 41
0.0
 71
     5
 72
     1
  1
70
  7
EXCADDIM1
  0
POINT
  5
178
330
16F
100
AcDbEntity
  8
DEFPOINTS
 62
     0
100
AcDbPoint
 10
505.000005
 20
376.999995
 30
0.0
  0
POINT
  5
179
330
16F
100
AcDbEntity
  8
DEFPOINTS
 62
     0
100
AcDbPoint
 10
575.000004
 20
481.0
 30
0.0
  0
POINT
  5
17A
330
16F
100
AcDbEntity
  8
DEFPOINTS
 62
     0
100
AcDbPoint
 10
575.000004
 20
510.0
 30
0.0
  0
ENDBLK
  5
171
330
16F
100
AcDbEntity
  8
0
100
AcDbBlockEnd
  0
BLOCK
  5
17D
330
17C
100
AcDbEntity
  8
0
100
AcDbBlockBegin
  2
*D23
 70
     1
 10
0.0
 20
0.0
 30
0.0
  3
*D23
  1

  0
LINE
  5
17F
330
17C
100
AcDbEntity
  8
Ｓ_１_１
  6
CONTINUOUS
 62
     2
100
AcDbLine
 10
575.000004
 20
484.75
 30
0.0
 11
575.000004
 21
512.5
 31
0.0
  0
LINE
  5
180
330
17C
100
AcDbEntity
  8
Ｓ_１_１
  6
CONTINUOUS
 62
     2
100
AcDbLine
 10
770.000001
 20
477.76242
 30
0.0
 11
770.000001
 21
512.5
 31
0.0
  0
LINE
  5
181
330
17C
100
AcDbEntity
  8
Ｓ_１_１
  6
CONTINUOUS
 62
     2
100
AcDbLine
 10
582.500004
 20
510.0
 30
0.0
 11
762.500001
 21
510.0
 31
0.0
  0
INSERT
  5
182
330
17C
100
AcDbEntity
  8
Ｓ_１_１
 62
     2
100
AcDbBlockReference
  2
EX_NORM
 10
575.000004
 20
510.0
 30
0.0
 41
7.5
 42
7.5
 43
7.5
 50
180.0
  0
INSERT
  5
183
330
17C
100
AcDbEntity
  8
Ｓ_１_１
 62
     2
100
AcDbBlockReference
  2
EX_NORM
 10
770.000001
 20
510.0
 30
0.0
 41
7.5
 42
7.5
 43
7.5
  0
MTEXT
  5
184
330
17C
100
AcDbEntity
  8
Ｓ_１_１
 62
     2
100
AcDbMText
 10
672.5000024999999
 20
516.875
 30
0.0
 40
8.6572603926097
 41
0.0
 71
     5
 72
     1
  1
195
  7
EXCADDIM1
  0
POINT
  5
185
330
17C
100
AcDbEntity
  8
DEFPOINTS
 62
     0
100
AcDbPoint
 10
575.000004
 20
481.0
 30
0.0
  0
POINT
  5
186
330
17C
100
AcDbEntity
  8
DEFPOINTS
 62
     0
100
AcDbPoint
 10
770.000001
 20
474.01242
 30
0.0
  0
POINT
  5
187
330
17C
100
AcDbEntity
  8
DEFPOINTS
 62
     0
100
AcDbPoint
 10
770.000001
 20
510.0
 30
0.0
  0
ENDBLK
  5
17E
330
17C
100
AcDbEntity
  8
0
100
AcDbBlockEnd
  0
BLOCK
  5
18A
330
189
100
AcDbEntity
  8
0
100
AcDbBlockBegin
  2
*D24
 70
     1
 10
0.0
 20
0.0
 30
0.0
  3
*D24
  1

  0
LINE
  5
18C
330
189
100
AcDbEntity
  8
Ｓ_１_１
  6
CONTINUOUS
 62
     2
100
AcDbLine
 10
770.000001
 20
477.76242
 30
0.0
 11
770.000001
 21
512.5
 31
0.0
  0
LINE
  5
18D
330
189
100
AcDbEntity
  8
Ｓ_１_１
  6
CONTINUOUS
 62
     2
100
AcDbLine
 10
870.0
 20
380.750003
 30
0.0
 11
870.0
 21
512.5
 31
0.0
  0
LINE
  5
18E
330
189
100
AcDbEntity
  8
Ｓ_１_１
  6
CONTINUOUS
 62
     2
100
AcDbLine
 10
777.500001
 20
510.0
 30
0.0
 11
862.5
 21
510.0
 31
0.0
  0
INSERT
  5
18F
330
189
100
AcDbEntity
  8
Ｓ_１_１
 62
     2
100
AcDbBlockReference
  2
EX_NORM
 10
770.000001
 20
510.0
 30
0.0
 41
7.5
 42
7.5
 43
7.5
 50
180.0
  0
INSERT
  5
190
330
189
100
AcDbEntity
  8
Ｓ_１_１
 62
     2
100
AcDbBlockReference
  2
EX_NORM
 10
870.0
 20
510.0
 30
0.0
 41
7.5
 42
7.5
 43
7.5
  0
MTEXT
  5
191
330
189
100
AcDbEntity
  8
Ｓ_１_１
 62
     2
100
AcDbMText
 10
820.0000005
 20
516.875
 30
0.0
 40
8.6572603926097
 41
0.0
 71
     5
 72
     1
  1
100
  7
EXCADDIM1
  0
POINT
  5
192
330
189
100
AcDbEntity
  8
DEFPOINTS
 62
     0
100
AcDbPoint
 10
770.000001
 20
474.01242
 30
0.0
  0
POINT
  5
193
330
189
100
AcDbEntity
  8
DEFPOINTS
 62
     0
100
AcDbPoint
 10
870.0
 20
377.000003
 30
0.0
  0
POINT
  5
194
330
189
100
AcDbEntity
  8
DEFPOINTS
 62
     0
100
AcDbPoint
 10
870.0
 20
510.0
 30
0.0
  0
ENDBLK
  5
18B
330
189
100
AcDbEntity
  8
0
100
AcDbBlockEnd
  0
ENDSEC
  0
SECTION
  2
ENTITIES
  0
LINE
  5
D4
330
1F
100
AcDbEntity
  8
図面枠
  6
CONTINUOUS
 62
     5
100
AcDbLine
 10
25.0
 20
25.0
 30
0.0
 11
1025.0
 21
25.0
 31
0.0
  0
LINE
  5
D5
330
1F
100
AcDbEntity
  8
図面枠
  6
CONTINUOUS
 62
     5
100
AcDbLine
 10
1025.0
 20
25.0
 30
0.0
 11
1025.0
 21
717.5
 31
0.0
  0
LINE
  5
D6
330
1F
100
AcDbEntity
  8
図面枠
  6
CONTINUOUS
 62
     5
100
AcDbLine
 10
1025.0
 20
717.5
 30
0.0
 11
25.00000000000013
 21
717.5
 31
0.0
  0
LINE
  5
D7
330
1F
100
AcDbEntity
  8
図面枠
  6
CONTINUOUS
 62
     5
100
AcDbLine
 10
25.00000000000013
 20
717.5
 30
0.0
 11
25.0
 21
25.0
 31
0.0
  0
LINE
  5
D8
330
1F
100
AcDbEntity
  8
図面枠
  6
CONTINUOUS
 62
     3
100
AcDbLine
 10
930.0
 20
60.0
 30
0.0
 11
1012.5
 21
60.0
 31
0.0
  0
LINE
  5
D9
330
1F
100
AcDbEntity
  8
図面枠
  6
CONTINUOUS
 62
     3
100
AcDbLine
 10
930.0
 20
37.5
 30
0.0
 11
1012.5
 21
37.5
 31
0.0
  0
LINE
  5
DA
330
1F
100
AcDbEntity
  8
図面枠
  6
CONTINUOUS
 62
     3
100
AcDbLine
 10
930.0
 20
60.0
 30
0.0
 11
930.0
 21
37.5
 31
0.0
  0
LINE
  5
DB
330
1F
100
AcDbEntity
  8
図面枠
  6
CONTINUOUS
 62
     3
100
AcDbLine
 10
1012.5
 20
60.0
 30
0.0
 11
1012.5
 21
37.5
 31
0.0
  0
TEXT
  5
DD
330
1F
100
AcDbEntity
  8
図面枠
  6
CONTINUOUS
 62
     4
100
AcDbText
 10
937.5
 20
43.359375
 30
0.0
 40
11.54301385681293
  1
OTV-10020
 41
0.9992307692307691
  7
EXCADTTF1
 72
     5
 11
1005.0
 21
43.359375
 31
0.0
100
AcDbText
  0
LINE
  5
DE
330
1F
100
AcDbEntity
  8
図面枠
  6
CONTINUOUS
 62
     3
100
AcDbLine
 10
37.50000000000004
 20
705.0
 30
0.0
 11
37.50000000000004
 21
682.5
 31
0.0
  0
TEXT
  5
DF
330
1F
100
AcDbEntity
  8
図面枠
  6
CONTINUOUS
 62
     4
100
AcDbText
 10
967.5
 20
678.45703125
 30
0.0
 40
8.6572603926097
  1
kN
 41
0.999230769230769
  7
EXCADTTF1
 72
     5
 11
978.75
 21
678.45703125
 31
0.0
100
AcDbText
  0
TEXT
  5
E0
330
1F
100
AcDbEntity
  8
図面枠
  6
CONTINUOUS
 62
     4
100
AcDbText
 10
817.5
 20
678.45703125
 30
0.0
 40
8.6572603926097
  1
能力
 41
0.999230769230769
  7
EXCADTTF1
 72
     5
 11
840.0
 21
678.45703125
 31
0.0
100
AcDbText
  0
TEXT
  5
E1
330
1F
100
AcDbEntity
  8
図面枠
  6
CONTINUOUS
 62
     4
100
AcDbText
 10
884.375
 20
693.45703125
 30
0.0
 40
8.6572603926097
  1
仕　　　様
 41
0.9992307692307691
  7
EXCADTTF1
 72
     5
 11
940.625
 21
693.45703125
 31
0.0
100
AcDbText
  0
LINE
  5
E2
330
1F
100
AcDbEntity
  8
図面枠
  6
CONTINUOUS
 62
     3
100
AcDbLine
 10
812.5
 20
705.0
 30
0.0
 11
1012.5
 21
705.0
 31
0.0
  0
LINE
  5
E3
330
1F
100
AcDbEntity
  8
図面枠
  6
CONTINUOUS
 62
     3
100
AcDbLine
 10
812.5
 20
690.0
 30
0.0
 11
1012.5
 21
690.0
 31
0.0
  0
TEXT
  5
E4
330
1F
100
AcDbEntity
  8
図面枠
  6
CONTINUOUS
 62
     4
100
AcDbText
 10
935.0
 20
678.45703125
 30
0.0
 40
8.6572603926097
  1
1000
 41
0.999230769230769
  7
EXCADTTF1
 72
     5
 11
957.5
 21
678.45703125
 31
0.0
100
AcDbText
  0
TEXT
  5
E5
330
1F
100
AcDbEntity
  8
図面枠
  6
CONTINUOUS
 62
     4
100
AcDbText
 10
45.00000000000004
 20
688.359375
 30
0.0
 40
11.54301385681293
  1
1000kN200ストローク油圧ジャッキ
 41
0.9992307692307693
  7
EXCADTTF1
 72
     5
 11
277.5000000000001
 21
688.359375
 31
0.0
100
AcDbText
  0
LINE
  5
E6
330
1F
100
AcDbEntity
  8
図面枠
  6
CONTINUOUS
 62
     3
100
AcDbLine
 10
285.0
 20
705.0
 30
0.0
 11
285.0
 21
682.5
 31
0.0
  0
LINE
  5
E7
330
1F
100
AcDbEntity
  8
図面枠
  6
CONTINUOUS
 62
     3
100
AcDbLine
 10
37.50000000000004
 20
682.5
 30
0.0
 11
285.0
 21
682.5
 31
0.0
  0
LINE
  5
E8
330
1F
100
AcDbEntity
  8
図面枠
  6
CONTINUOUS
 62
     3
100
AcDbLine
 10
37.50000000000004
 20
705.0
 30
0.0
 11
285.0
 21
705.0
 31
0.0
  0
TEXT
  5
E9
330
1F
100
AcDbEntity
  8
図面枠
  6
CONTINUOUS
 62
     4
100
AcDbText
 10
967.5000000000001
 20
588.45703125
 30
0.0
 40
8.6572603926097
  1
cm
 41
0.999230769230769
  7
EXCADTTF1
 72
     5
 11
978.7500000000001
 21
588.45703125
 31
0.0
100
AcDbText
  0
TEXT
  5
EA
330
1F
100
AcDbEntity
  8
図面枠
  6
CONTINUOUS
 62
     4
100
AcDbText
 10
975.3750000000001
 20
593.7744141295552
 30
0.0
 40
3.895766809731837
  1
2
 41
0.9992308633483801
  7
EXCADTTF1
 72
     5
 11
977.9062500000001
 21
593.7744141295552
 31
0.0
100
AcDbText
  0
TEXT
  5
EB
330
1F
100
AcDbEntity
  8
図面枠
  6
CONTINUOUS
 62
     4
100
AcDbText
 10
967.5
 20
663.45703125
 30
0.0
 40
8.6572603926097
  1
mm
 41
0.999230769230769
  7
EXCADTTF1
 72
     5
 11
978.75
 21
663.45703125
 31
0.0
100
AcDbText
  0
TEXT
  5
EC
330
1F
100
AcDbEntity
  8
図面枠
  6
CONTINUOUS
 62
     4
100
AcDbText
 10
967.5
 20
648.45703125
 30
0.0
 40
8.6572603926097
  1
mm
 41
0.999230769230769
  7
EXCADTTF1
 72
     5
 11
978.75
 21
648.45703125
 31
0.0
100
AcDbText
  0
TEXT
  5
ED
330
1F
100
AcDbEntity
  8
図面枠
  6
CONTINUOUS
 62
     4
100
AcDbText
 10
967.5
 20
633.45703125
 30
0.0
 40
8.6572603926097
  1
mm
 41
0.999230769230769
  7
EXCADTTF1
 72
     5
 11
978.75
 21
633.45703125
 31
0.0
100
AcDbText
  0
TEXT
  5
EE
330
1F
100
AcDbEntity
  8
図面枠
  6
CONTINUOUS
 62
     4
100
AcDbText
 10
967.5
 20
618.45703125
 30
0.0
 40
8.6572603926097
  1
mm
 41
0.999230769230769
  7
EXCADTTF1
 72
     5
 11
978.75
 21
618.45703125
 31
0.0
100
AcDbText
  0
TEXT
  5
EF
330
1F
100
AcDbEntity
  8
図面枠
  6
CONTINUOUS
 62
     4
100
AcDbText
 10
967.5
 20
603.45703125
 30
0.0
 40
8.6572603926097
  1
mm
 41
0.999230769230769
  7
EXCADTTF1
 72
     5
 11
978.75
 21
603.45703125
 31
0.0
100
AcDbText
  0
TEXT
  5
F0
330
1F
100
AcDbEntity
  8
図面枠
  6
CONTINUOUS
 62
     4
100
AcDbText
 10
967.5
 20
573.45703125
 30
0.0
 40
8.6572603926097
  1
MPa
 41
0.9992307692307689
  7
EXCADTTF1
 72
     5
 11
984.375
 21
573.45703125
 31
0.0
100
AcDbText
  0
TEXT
  5
F1
330
1F
100
AcDbEntity
  8
図面枠
  6
CONTINUOUS
 62
     4
100
AcDbText
 10
817.5
 20
663.45703125
 30
0.0
 40
8.6572603926097
  1
ストローク
 41
0.9992307692307691
  7
EXCADTTF1
 72
     5
 11
873.75
 21
663.45703125
 31
0.0
100
AcDbText
  0
TEXT
  5
F2
330
1F
100
AcDbEntity
  8
図面枠
  6
CONTINUOUS
 62
     4
100
AcDbText
 10
817.5
 20
648.45703125
 30
0.0
 40
8.6572603926097
  1
最低機械高
 41
0.9992307692307691
  7
EXCADTTF1
 72
     5
 11
873.75
 21
648.45703125
 31
0.0
100
AcDbText
  0
TEXT
  5
F3
330
1F
100
AcDbEntity
  8
図面枠
  6
CONTINUOUS
 62
     4
100
AcDbText
 10
817.5
 20
633.45703125
 30
0.0
 40
8.6572603926097
  1
シリンダー外径
 41
0.9992307692307693
  7
EXCADTTF1
 72
     5
 11
896.25
 21
633.45703125
 31
0.0
100
AcDbText
  0
TEXT
  5
F4
330
1F
100
AcDbEntity
  8
図面枠
  6
CONTINUOUS
 62
     4
100
AcDbText
 10
817.5
 20
618.45703125
 30
0.0
 40
8.6572603926097
  1
ヘッド径
 41
0.999230769230769
  7
EXCADTTF1
 72
     5
 11
862.5
 21
618.45703125
 31
0.0
100
AcDbText
  0
TEXT
  5
F5
330
1F
100
AcDbEntity
  8
図面枠
  6
CONTINUOUS
 62
     4
100
AcDbText
 10
817.5
 20
603.45703125
 30
0.0
 40
8.6572603926097
  1
ピストン径
 41
0.9992307692307691
  7
EXCADTTF1
 72
     5
 11
873.75
 21
603.45703125
 31
0.0
100
AcDbText
  0
TEXT
  5
F6
330
1F
100
AcDbEntity
  8
図面枠
  6
CONTINUOUS
 62
     4
100
AcDbText
 10
817.5
 20
588.45703125
 30
0.0
 40
8.6572603926097
  1
受圧面積
 41
0.999230769230769
  7
EXCADTTF1
 72
     5
 11
862.5
 21
588.45703125
 31
0.0
100
AcDbText
  0
TEXT
  5
F7
330
1F
100
AcDbEntity
  8
図面枠
  6
CONTINUOUS
 62
     4
100
AcDbText
 10
817.5
 20
573.45703125
 30
0.0
 40
8.6572603926097
  1
最高使用圧力
 41
0.9992307692307691
  7
EXCADTTF1
 72
     5
 11
885.0
 21
573.45703125
 31
0.0
100
AcDbText
  0
LINE
  5
F8
330
1F
100
AcDbEntity
  8
図面枠
  6
CONTINUOUS
 62
     2
100
AcDbLine
 10
812.5
 20
675.0
 30
0.0
 11
1012.5
 21
675.0
 31
0.0
  0
LINE
  5
F9
330
1F
100
AcDbEntity
  8
図面枠
  6
CONTINUOUS
 62
     2
100
AcDbLine
 10
812.5
 20
660.0
 30
0.0
 11
1012.5
 21
660.0
 31
0.0
  0
LINE
  5
FA
330
1F
100
AcDbEntity
  8
図面枠
  6
CONTINUOUS
 62
     2
100
AcDbLine
 10
812.5
 20
645.0
 30
0.0
 11
1012.5
 21
645.0
 31
0.0
  0
LINE
  5
FB
330
1F
100
AcDbEntity
  8
図面枠
  6
CONTINUOUS
 62
     2
100
AcDbLine
 10
812.5
 20
630.0
 30
0.0
 11
1012.5
 21
630.0
 31
0.0
  0
LINE
  5
FC
330
1F
100
AcDbEntity
  8
図面枠
  6
CONTINUOUS
 62
     2
100
AcDbLine
 10
812.5
 20
615.0
 30
0.0
 11
1012.5
 21
615.0
 31
0.0
  0
LINE
  5
FD
330
1F
100
AcDbEntity
  8
図面枠
  6
CONTINUOUS
 62
     2
100
AcDbLine
 10
812.5
 20
600.0
 30
0.0
 11
1012.5
 21
600.0
 31
0.0
  0
LINE
  5
FE
330
1F
100
AcDbEntity
  8
図面枠
  6
CONTINUOUS
 62
     2
100
AcDbLine
 10
812.5
 20
585.0
 30
0.0
 11
1012.5
 21
585.0
 31
0.0
  0
TEXT
  5
FF
330
1F
100
AcDbEntity
  8
図面枠
  6
CONTINUOUS
 62
     4
100
AcDbText
 10
940.625
 20
603.45703125
 30
0.0
 40
8.6572603926097
  1
145
 41
0.9992307692307689
  7
EXCADTTF1
 72
     5
 11
957.5
 21
603.45703125
 31
0.0
100
AcDbText
  0
TEXT
  5
100
330
1F
100
AcDbEntity
  8
図面枠
  6
CONTINUOUS
 62
     4
100
AcDbText
 10
935.0
 20
573.45703125
 30
0.0
 40
8.6572603926097
  1
60.6
 41
0.999230769230769
  7
EXCADTTF1
 72
     5
 11
957.5
 21
573.45703125
 31
0.0
100
AcDbText
  0
TEXT
  5
101
330
1F
100
AcDbEntity
  8
図面枠
  6
CONTINUOUS
 62
     4
100
AcDbText
 10
929.375
 20
588.45703125
 30
0.0
 40
8.6572603926097
  1
165.1
 41
0.9992307692307691
  7
EXCADTTF1
 72
     5
 11
957.5
 21
588.45703125
 31
0.0
100
AcDbText
  0
TEXT
  5
102
330
1F
100
AcDbEntity
  8
図面枠
  6
CONTINUOUS
 62
     4
100
AcDbText
 10
940.625
 20
663.45703125
 30
0.0
 40
8.6572603926097
  1
200
 41
0.9992307692307689
  7
EXCADTTF1
 72
     5
 11
957.5
 21
663.45703125
 31
0.0
100
AcDbText
  0
TEXT
  5
103
330
1F
100
AcDbEntity
  8
図面枠
  6
CONTINUOUS
 62
     4
100
AcDbText
 10
940.625
 20
648.45703125
 30
0.0
 40
8.6572603926097
  1
375
 41
0.9992307692307689
  7
EXCADTTF1
 72
     5
 11
957.5
 21
648.45703125
 31
0.0
100
AcDbText
  0
TEXT
  5
104
330
1F
100
AcDbEntity
  8
図面枠
  6
CONTINUOUS
 62
     4
100
AcDbText
 10
940.625
 20
633.45703125
 30
0.0
 40
8.6572603926097
  1
190
 41
0.9992307692307689
  7
EXCADTTF1
 72
     5
 11
957.5
 21
633.45703125
 31
0.0
100
AcDbText
  0
TEXT
  5
105
330
1F
100
AcDbEntity
  8
図面枠
  6
CONTINUOUS
 62
     4
100
AcDbText
 10
940.625
 20
618.45703125
 30
0.0
 40
8.6572603926097
  1
110
 41
0.9992307692307689
  7
EXCADTTF1
 72
     5
 11
957.5
 21
618.45703125
 31
0.0
100
AcDbText
  0
TEXT
  5
106
330
1F
100
AcDbEntity
  8
図面枠
  6
CONTINUOUS
 62
     4
100
AcDbText
 10
967.5
 20
543.45703125
 30
0.0
 40
8.6572603926097
  1
kg
 41
0.999230769230769
  7
EXCADTTF1
 72
     5
 11
978.75
 21
543.45703125
 31
0.0
100
AcDbText
  0
TEXT
  5
107
330
1F
100
AcDbEntity
  8
図面枠
  6
CONTINUOUS
 62
     4
100
AcDbText
 10
817.5
 20
558.45703125
 30
0.0
 40
8.6572603926097
  1
所要油量
 41
0.999230769230769
  7
EXCADTTF1
 72
     5
 11
862.5
 21
558.45703125
 31
0.0
100
AcDbText
  0
TEXT
  5
108
330
1F
100
AcDbEntity
  8
図面枠
  6
CONTINUOUS
 62
     4
100
AcDbText
 10
817.5
 20
543.45703125
 30
0.0
 40
8.6572603926097
  1
重量
 41
0.999230769230769
  7
EXCADTTF1
 72
     5
 11
840.0
 21
543.45703125
 31
0.0
100
AcDbText
  0
LINE
  5
109
330
1F
100
AcDbEntity
  8
図面枠
  6
CONTINUOUS
 62
     2
100
AcDbLine
 10
812.5
 20
570.0
 30
0.0
 11
1012.5
 21
570.0
 31
0.0
  0
LINE
  5
10A
330
1F
100
AcDbEntity
  8
図面枠
  6
CONTINUOUS
 62
     2
100
AcDbLine
 10
812.5
 20
555.0
 30
0.0
 11
1012.5
 21
555.0
 31
0.0
  0
LINE
  5
10B
330
1F
100
AcDbEntity
  8
図面枠
  6
CONTINUOUS
 62
     3
100
AcDbLine
 10
812.5
 20
540.0
 30
0.0
 11
1012.5
 21
540.0
 31
0.0
  0
LINE
  5
10C
330
1F
100
AcDbEntity
  8
図面枠
  6
CONTINUOUS
 62
     3
100
AcDbLine
 10
812.5
 20
705.0
 30
0.0
 11
812.5
 21
540.0
 31
0.0
  0
LINE
  5
10D
330
1F
100
AcDbEntity
  8
図面枠
  6
CONTINUOUS
 62
     3
100
AcDbLine
 10
1012.5
 20
705.0
 30
0.0
 11
1012.5
 21
540.0
 31
0.0
  0
LINE
  5
10E
330
1F
100
AcDbEntity
  8
図面枠
  6
CONTINUOUS
 62
     2
100
AcDbLine
 10
912.5
 20
690.0
 30
0.0
 11
912.5
 21
540.0
 31
0.0
  0
LINE
  5
10F
330
1F
100
AcDbEntity
  8
図面枠
  6
CONTINUOUS
 62
     2
100
AcDbLine
 10
962.5
 20
690.0
 30
0.0
 11
962.5
 21
540.0
 31
0.0
  0
TEXT
  5
110
330
1F
100
AcDbEntity
  8
図面枠
  6
CONTINUOUS
 62
     4
100
AcDbText
 10
967.5
 20
558.45703125
 30
0.0
 40
8.6572603926097
  1
L
 41
0.999230769230769
  7
EXCADTTF1
 72
     5
 11
973.125
 21
558.45703125
 31
0.0
100
AcDbText
  0
TEXT
  5
111
330
1F
100
AcDbEntity
  8
図面枠
  6
CONTINUOUS
 62
     4
100
AcDbText
 10
940.625
 20
558.45703125
 30
0.0
 40
8.6572603926097
  1
3.3
 41
0.9992307692307689
  7
EXCADTTF1
 72
     5
 11
957.5
 21
558.45703125
 31
0.0
100
AcDbText
  0
TEXT
  5
112
330
1F
100
AcDbEntity
  8
図面枠
  6
CONTINUOUS
 62
     4
100
AcDbText
 10
935.0
 20
543.45703125
 30
0.0
 40
8.6572603926097
  1
約66
 41
0.999230769230769
  7
EXCADTTF1
 72
     5
 11
957.5
 21
543.45703125
 31
0.0
100
AcDbText
  0
DIMENSION
  5
114
330
1F
100
AcDbEntity
  8
Ｓ_１_１
  6
CONTINUOUS
 62
     2
100
AcDbDimension
  2
*D15
 10
505.000005
 20
135.0
 30
0.0
 11
687.5000024999999
 21
141.875
 31
0.0
 70
   160
  3
ISO-25
100
AcDbAlignedDimension
 13
870.0
 23
193.00001999999
 33
0.0
 14
505.000005
 24
192.999995
 34
0.0
100
AcDbRotatedDimension
1001
ACAD
1000
DSTYLE
1002
{
1070
   270
1070
     2
1070
     6
1000
EX_NORM
1070
     7
1000
EX_NORM
1070
    41
1040
7.5
1070
    42
1040
0.0
1070
    44
1040
0.0
1070
    73
1070
     0
1070
    74
1070
     0
1070
    75
1070
     1
1070
    76
1070
     1
1070
    77
1070
     1
1070
    78
1070
     8
1070
   140
1040
8.6572603926097
1070
   147
1040
0.0
1070
   173
1070
     1
1070
   176
1070
     2
1070
   177
1070
     2
1070
   178
1070
     2
1070
   271
1070
     2
1070
   277
1070
     2
1070
   279
1070
     2
1070
   280
1070
     0
1070
   287
1070
     5
1070
   340
1005
113
1002
}
  0
DIMENSION
  5
120
330
1F
100
AcDbEntity
  8
Ｓ_１_１
  6
CONTINUOUS
 62
     2
100
AcDbDimension
  2
*D16
 10
495.000005
 20
135.0
 30
0.0
 11
481.875005
 21
141.8749999999999
 31
0.0
 70
   160
  3
ISO-25
100
AcDbAlignedDimension
 13
505.000005
 23
192.999995
 33
0.0
 14
495.000005
 24
231.732053
 34
0.0
100
AcDbRotatedDimension
1001
ACAD
1000
DSTYLE
1002
{
1070
   270
1070
     2
1070
     6
1000
EX_NORM
1070
     7
1000
EX_NORM
1070
    41
1040
7.5
1070
    42
1040
3.75
1070
    44
1040
2.5
1070
    73
1070
     0
1070
    74
1070
     0
1070
    75
1070
     0
1070
    76
1070
     1
1070
    77
1070
     1
1070
    78
1070
     8
1070
   140
1040
8.6572603926097
1070
   147
1040
0.0
1070
   173
1070
     1
1070
   176
1070
     2
1070
   177
1070
     2
1070
   178
1070
     2
1070
   271
1070
     2
1070
   277
1070
     2
1070
   279
1070
     2
1070
   280
1070
     2
1070
   287
1070
     5
1070
   340
1005
113
1002
}
  0
DIMENSION
  5
12E
330
1F
100
AcDbEntity
  8
Ｓ_１_１
  6
CONTINUOUS
 62
     2
100
AcDbDimension
  2
*D17
 10
870.0
 20
120.0
 30
0.0
 11
682.5000024999999
 21
126.875
 31
0.0
 70
   160
  3
ISO-25
100
AcDbAlignedDimension
 13
495.000005
 23
231.732053
 33
0.0
 14
870.0
 24
193.00001999999
 34
0.0
100
AcDbRotatedDimension
1001
ACAD
1000
DSTYLE
1002
{
1070
   270
1070
     2
1070
     6
1000
EX_NORM
1070
     7
1000
EX_NORM
1070
    41
1040
7.5
1070
    42
1040
3.75
1070
    44
1040
2.5
1070
    73
1070
     0
1070
    74
1070
     0
1070
    75
1070
     0
1070
    76
1070
     0
1070
    77
1070
     1
1070
    78
1070
     8
1070
   140
1040
8.6572603926097
1070
   147
1040
0.0
1070
   173
1070
     1
1070
   176
1070
     2
1070
   177
1070
     2
1070
   178
1070
     2
1070
   271
1070
     2
1070
   277
1070
     2
1070
   279
1070
     2
1070
   280
1070
     0
1070
   287
1070
     5
1070
   340
1005
113
1002
}
  0
DIMENSION
  5
13B
330
1F
100
AcDbEntity
  8
Ｓ_１_１
  6
CONTINUOUS
 62
     2
100
AcDbDimension
  2
*D18
 10
450.0
 20
230.000001
 30
0.0
 11
443.125
 21
284.9999995
 31
0.0
 70
   160
  1
%%c110
  3
ISO-25
100
AcDbAlignedDimension
 13
498.0000069999999
 23
339.999998
 33
0.0
 14
498.0000069999999
 24
230.000001
 34
0.0
 50
90.0
100
AcDbRotatedDimension
1001
ACAD
1000
DSTYLE
1002
{
1070
   270
1070
     2
1070
     6
1000
EX_NORM
1070
     7
1000
EX_NORM
1070
    41
1040
7.5
1070
    42
1040
3.75
1070
    44
1040
2.5
1070
    73
1070
     0
1070
    74
1070
     0
1070
    75
1070
     0
1070
    76
1070
     0
1070
    77
1070
     1
1070
    78
1070
     8
1070
   140
1040
8.6572603926097
1070
   147
1040
0.0
1070
   173
1070
     1
1070
   176
1070
     2
1070
   177
1070
     2
1070
   178
1070
     2
1070
   271
1070
     2
1070
   277
1070
     2
1070
   279
1070
     2
1070
   280
1070
     0
1070
   287
1070
     5
1070
   340
1005
113
1002
}
  0
DIMENSION
  5
148
330
1F
100
AcDbEntity
  8
Ｓ_１_１
  6
CONTINUOUS
 62
     2
100
AcDbDimension
  2
*D19
 10
915.0
 20
190.000001
 30
0.0
 11
908.125
 21
285.0
 31
0.0
 70
   160
  1
%%c190
  3
ISO-25
100
AcDbAlignedDimension
 13
867.0000069999999
 23
379.9999989999999
 33
0.0
 14
867.0000069999999
 24
190.000001
 34
0.0
 50
90.0
100
AcDbRotatedDimension
1001
ACAD
1000
DSTYLE
1002
{
1070
   270
1070
     2
1070
     6
1000
EX_NORM
1070
     7
1000
EX_NORM
1070
    41
1040
7.5
1070
    42
1040
3.75
1070
    44
1040
2.5
1070
    73
1070
     0
1070
    74
1070
     0
1070
    75
1070
     1
1070
    76
1070
     0
1070
    77
1070
     1
1070
    78
1070
     8
1070
   140
1040
8.6572603926097
1070
   147
1040
0.0
1070
   173
1070
     1
1070
   176
1070
     2
1070
   177
1070
     2
1070
   178
1070
     2
1070
   271
1070
     2
1070
   277
1070
     2
1070
   279
1070
     2
1070
   280
1070
     0
1070
   287
1070
     5
1070
   340
1005
113
1002
}
  0
DIMENSION
  5
154
330
1F
100
AcDbEntity
  8
Ｓ_１_１
  6
CONTINUOUS
 62
     2
100
AcDbDimension
  2
*D20
 10
915.0
 20
465.36227
 30
0.0
 11
908.125
 21
422.6811345
 31
0.0
 70
   160
  1
(85)
  3
ISO-25
100
AcDbAlignedDimension
 13
867.000007
 23
379.9999989999999
 33
0.0
 14
782.000009
 24
465.36227
 34
0.0
 50
90.0
100
AcDbRotatedDimension
1001
ACAD
1000
DSTYLE
1002
{
1070
   270
1070
     2
1070
     6
1000
EX_NORM
1070
     7
1000
EX_NORM
1070
    41
1040
7.5
1070
    42
1040
3.75
1070
    44
1040
2.5
1070
    73
1070
     0
1070
    74
1070
     0
1070
    75
1070
     0
1070
    76
1070
     0
1070
    77
1070
     1
1070
    78
1070
     8
1070
   140
1040
8.6572603926097
1070
   147
1040
0.0
1070
   173
1070
     1
1070
   176
1070
     2
1070
   177
1070
     2
1070
   178
1070
     2
1070
   271
1070
     2
1070
   277
1070
     2
1070
   279
1070
     2
1070
   280
1070
     0
1070
   287
1070
     5
1070
   340
1005
113
1002
}
  0
DIMENSION
  5
161
330
1F
100
AcDbEntity
  8
Ｓ_１_１
  6
CONTINUOUS
 62
     2
100
AcDbDimension
  2
*D21
 10
401.999996
 20
510.0
 30
0.0
 11
270.0000045
 21
516.875
 31
0.0
 70
   160
  3
ISO-25
100
AcDbAlignedDimension
 13
138.000013
 23
294.499998
 33
0.0
 14
401.999996
 24
294.499998
 34
0.0
100
AcDbRotatedDimension
1001
ACAD
1000
DSTYLE
1002
{
1070
   270
1070
     2
1070
     6
1000
EX_NORM
1070
     7
1000
EX_NORM
1070
    41
1040
7.5
1070
    42
1040
3.75
1070
    44
1040
2.5
1070
    73
1070
     0
1070
    74
1070
     0
1070
    75
1070
     0
1070
    76
1070
     0
1070
    77
1070
     1
1070
    78
1070
     8
1070
   140
1040
8.6572603926097
1070
   147
1040
0.0
1070
   173
1070
     1
1070
   176
1070
     2
1070
   177
1070
     2
1070
   178
1070
     2
1070
   271
1070
     2
1070
   277
1070
     2
1070
   279
1070
     2
1070
   280
1070
     0
1070
   287
1070
     5
1070
   340
1005
113
1002
}
  0
DIMENSION
  5
16E
330
1F
100
AcDbEntity
  8
Ｓ_１_１
  6
CONTINUOUS
 62
     2
100
AcDbDimension
  2
*D22
 10
575.000004
 20
510.0
 30
0.0
 11
540.0000044999999
 21
516.875
 31
0.0
 70
   160
  3
ISO-25
100
AcDbAlignedDimension
 13
505.000005
 23
376.999995
 33
0.0
 14
575.000004
 24
481.0
 34
0.0
100
AcDbRotatedDimension
1001
ACAD
1000
DSTYLE
1002
{
1070
   270
1070
     2
1070
     6
1000
EX_NORM
1070
     7
1000
EX_NORM
1070
    41
1040
7.5
1070
    42
1040
3.75
1070
    44
1040
2.5
1070
    73
1070
     0
1070
    74
1070
     0
1070
    75
1070
     0
1070
    76
1070
     0
1070
    77
1070
     1
1070
    78
1070
     8
1070
   140
1040
8.6572603926097
1070
   147
1040
0.0
1070
   173
1070
     1
1070
   176
1070
     2
1070
   177
1070
     2
1070
   178
1070
     2
1070
   271
1070
     2
1070
   277
1070
     2
1070
   279
1070
     2
1070
   280
1070
     0
1070
   287
1070
     5
1070
   340
1005
113
1002
}
  0
DIMENSION
  5
17B
330
1F
100
AcDbEntity
  8
Ｓ_１_１
  6
CONTINUOUS
 62
     2
100
AcDbDimension
  2
*D23
 10
770.000001
 20
510.0
 30
0.0
 11
672.5000024999999
 21
516.875
 31
0.0
 70
   160
  3
ISO-25
100
AcDbAlignedDimension
 13
575.000004
 23
481.0
 33
0.0
 14
770.000001
 24
474.01242
 34
0.0
100
AcDbRotatedDimension
1001
ACAD
1000
DSTYLE
1002
{
1070
   270
1070
     2
1070
     6
1000
EX_NORM
1070
     7
1000
EX_NORM
1070
    41
1040
7.5
1070
    42
1040
3.75
1070
    44
1040
2.5
1070
    73
1070
     0
1070
    74
1070
     0
1070
    75
1070
     0
1070
    76
1070
     0
1070
    77
1070
     1
1070
    78
1070
     8
1070
   140
1040
8.6572603926097
1070
   147
1040
0.0
1070
   173
1070
     1
1070
   176
1070
     2
1070
   177
1070
     2
1070
   178
1070
     2
1070
   271
1070
     2
1070
   277
1070
     2
1070
   279
1070
     2
1070
   280
1070
     0
1070
   287
1070
     5
1070
   340
1005
113
1002
}
  0
DIMENSION
  5
188
330
1F
100
AcDbEntity
  8
Ｓ_１_１
  6
CONTINUOUS
 62
     2
100
AcDbDimension
  2
*D24
 10
870.0
 20
510.0
 30
0.0
 11
820.0000005
 21
516.875
 31
0.0
 70
   160
  3
ISO-25
100
AcDbAlignedDimension
 13
770.000001
 23
474.01242
 33
0.0
 14
870.0
 24
377.000003
 34
0.0
100
AcDbRotatedDimension
1001
ACAD
1000
DSTYLE
1002
{
1070
   270
1070
     2
1070
     6
1000
EX_NORM
1070
     7
1000
EX_NORM
1070
    41
1040
7.5
1070
    42
1040
3.75
1070
    44
1040
2.5
1070
    73
1070
     0
1070
    74
1070
     0
1070
    75
1070
     0
1070
    76
1070
     0
1070
    77
1070
     1
1070
    78
1070
     8
1070
   140
1040
8.6572603926097
1070
   147
1040
0.0
1070
   173
1070
     1
1070
   176
1070
     2
1070
   177
1070
     2
1070
   178
1070
     2
1070
   271
1070
     2
1070
   277
1070
     2
1070
   279
1070
     2
1070
   280
1070
     0
1070
   287
1070
     5
1070
   340
1005
113
1002
}
  0
LINE
  5
195
330
1F
100
AcDbEntity
  8
Ｓ_１_１
  6
EXLTYPE2
 62
     1
100
AcDbLine
 10
770.0000009999999
 20
474.01242
 30
0.0
 11
770.0000009999999
 21
365.417762
 31
0.0
  0
LINE
  5
196
330
1F
100
AcDbEntity
  8
Ｓ_１_１
  6
EXLTYPE2
 62
     1
100
AcDbLine
 10
567.0000019999999
 20
308.334431
 30
0.0
 11
567.0000019999999
 21
262.249995
 31
0.0
  0
ARC
  5
197
330
1F
100
AcDbEntity
  8
Ｓ_１_１
  6
CONTINUOUS
 62
     3
100
AcDbCircle
 10
770.0000009999999
 20
393.422826
 30
0.0
 40
21.939437
100
AcDbArc
 50
76.82650699999999
 51
103.17347
  0
ARC
  5
198
330
1F
100
AcDbEntity
  8
Ｓ_１_１
  6
CONTINUOUS
 62
     3
100
AcDbCircle
 10
770.0000009999999
 20
424.801705
 30
0.0
 40
21.939437
100
AcDbArc
 50
256.8265370000001
 51
283.173527
  0
ARC
  5
199
330
1F
100
AcDbEntity
  8
Ｓ_１_１
  6
CONTINUOUS
 62
     3
100
AcDbCircle
 10
779.0932859999998
 20
391.7295110000001
 30
0.0
 40
5.367246000000002
100
AcDbArc
 50
235.6158480000003
 51
304.3841360000004
  0
ARC
  5
19A
330
1F
100
AcDbEntity
  8
Ｓ_１_１
  6
CONTINUOUS
 62
     3
100
AcDbCircle
 10
770.0000009999999
 20
406.424459
 30
0.0
 40
20.062196
100
AcDbArc
 50
252.412124
 51
287.588008
  0
ARC
  5
19B
330
1F
100
AcDbEntity
  8
Ｓ_１_１
  6
CONTINUOUS
 62
     3
100
AcDbCircle
 10
779.0932859999998
 20
389.995015
 30
0.0
 40
5.367246000000002
100
AcDbArc
 50
55.61591800000001
 51
124.384206
  0
ARC
  5
19C
330
1F
100
AcDbEntity
  8
Ｓ_１_１
  6
CONTINUOUS
 62
     3
100
AcDbCircle
 10
760.9067169999998
 20
389.995015
 30
0.0
 40
5.367246000000002
100
AcDbArc
 50
55.615836
 51
124.384124
  0
ARC
  5
19D
330
1F
100
AcDbEntity
  8
Ｓ_１_１
  6
CONTINUOUS
 62
     3
100
AcDbCircle
 10
770.0000009999999
 20
375.30007
 30
0.0
 40
20.062196
100
AcDbArc
 50
72.41204699999997
 51
107.587931
  0
ARC
  5
19E
330
1F
100
AcDbEntity
  8
Ｓ_１_１
  6
CONTINUOUS
 62
     3
100
AcDbCircle
 10
760.9067169999998
 20
391.7295110000001
 30
0.0
 40
5.367246000000002
100
AcDbArc
 50
235.6159300000003
 51
304.3842180000003
  0
ARC
  5
19F
330
1F
100
AcDbEntity
  8
Ｓ_１_１
  6
CONTINUOUS
 62
     3
100
AcDbCircle
 10
585.5000059999999
 20
294.499998
 30
0.0
 40
0.5
100
AcDbArc
 50
179.999991
 51
270.0000010000001
  0
ARC
  5
1A0
330
1F
100
AcDbEntity
  8
Ｓ_１_１
  6
CONTINUOUS
 62
     3
100
AcDbCircle
 10
567.0000019999999
 20
288.499999
 30
0.0
 40
18.5
100
AcDbArc
 50
71.07535800000001
 51
108.924647
  0
ARC
  5
1A1
330
1F
100
AcDbEntity
  8
Ｓ_１_１
  6
CONTINUOUS
 62
     3
100
AcDbCircle
 10
567.0000019999999
 20
281.500001
 30
0.0
 40
18.5
100
AcDbArc
 50
251.0753530000003
 51
288.9246420000002
  0
ARC
  5
1A2
330
1F
100
AcDbEntity
  8
Ｓ_１_１
  6
CONTINUOUS
 62
     3
100
AcDbCircle
 10
585.5000059999999
 20
275.499997
 30
0.0
 40
0.5
100
AcDbArc
 50
90.000003
 51
180.000005
  0
CIRCLE
  5
1A3
330
1F
100
AcDbEntity
  8
Ｓ_１_１
  6
CONTINUOUS
 62
     3
100
AcDbCircle
 10
567.0000019999999
 20
285.0
 30
0.0
 40
2.1
  0
CIRCLE
  5
1A4
330
1F
100
AcDbEntity
  8
Ｓ_１_１
  6
CONTINUOUS
 62
     3
100
AcDbCircle
 10
567.0000019999999
 20
285.0
 30
0.0
 40
2.5
  0
LINE
  5
1A5
330
1F
100
AcDbEntity
  8
Ｓ_１_１
  6
CONTINUOUS
 62
     3
100
AcDbLine
 10
782.0000089999999
 20
402.862266
 30
0.0
 11
758.0000129999999
 21
402.862266
 31
0.0
  0
LINE
  5
1A6
330
1F
100
AcDbEntity
  8
Ｓ_１_１
  6
CONTINUOUS
 62
     3
100
AcDbLine
 10
765.0000009999999
 20
403.439611
 30
0.0
 11
757.0000089999999
 21
403.439611
 31
0.0
  0
LINE
  5
1A7
330
1F
100
AcDbEntity
  8
Ｓ_１_１
  6
CONTINUOUS
 62
     3
100
AcDbLine
 10
765.0000009999999
 20
414.7849210000001
 30
0.0
 11
757.0000089999999
 21
414.7849210000001
 31
0.0
  0
LINE
  5
1A8
330
1F
100
AcDbEntity
  8
Ｓ_１_１
  6
CONTINUOUS
 62
     3
100
AcDbLine
 10
782.9999929999998
 20
403.439611
 30
0.0
 11
775.0000009999999
 21
403.439611
 31
0.0
  0
LINE
  5
1A9
330
1F
100
AcDbEntity
  8
Ｓ_１_１
  6
CONTINUOUS
 62
     3
100
AcDbLine
 10
782.9999929999998
 20
414.7849210000001
 30
0.0
 11
775.0000009999999
 21
414.7849210000001
 31
0.0
  0
LINE
  5
1AA
330
1F
100
AcDbEntity
  8
Ｓ_１_１
  6
CONTINUOUS
 62
     3
100
AcDbLine
 10
782.9999929999998
 20
430.9396150000001
 30
0.0
 11
757.0000089999999
 21
430.9396150000001
 31
0.0
  0
LINE
  5
1AB
330
1F
100
AcDbEntity
  8
Ｓ_１_１
  6
CONTINUOUS
 62
     3
100
AcDbLine
 10
782.9999829999998
 20
430.939606
 30
0.0
 11
781.999975
 21
430.362252
 31
0.0
  0
LINE
  5
1AC
330
1F
100
AcDbEntity
  8
Ｓ_１_１
  6
CONTINUOUS
 62
     3
100
AcDbLine
 10
758.0000169999997
 20
415.362264
 30
0.0
 11
757.0000089999999
 21
414.78491
 31
0.0
  0
LINE
  5
1AD
330
1F
100
AcDbEntity
  8
Ｓ_１_１
  6
CONTINUOUS
 62
     3
100
AcDbLine
 10
783.0000039999999
 20
403.439608
 30
0.0
 11
782.000013
 21
402.862263
 31
0.0
  0
LINE
  5
1AE
330
1F
100
AcDbEntity
  8
Ｓ_１_１
  6
CONTINUOUS
 62
     3
100
AcDbLine
 10
758.0000019999998
 20
430.362267
 30
0.0
 11
757.0000119999999
 21
430.939612
 31
0.0
  0
LINE
  5
1AF
330
1F
100
AcDbEntity
  8
Ｓ_１_１
  6
CONTINUOUS
 62
     3
100
AcDbLine
 10
783.0000009999999
 20
414.784906
 30
0.0
 11
782.0000109999999
 21
415.36225
 31
0.0
  0
LINE
  5
1B0
330
1F
100
AcDbEntity
  8
Ｓ_１_１
  6
CONTINUOUS
 62
     3
100
AcDbLine
 10
757.9999969999998
 20
402.8622590000001
 30
0.0
 11
757.0000069999999
 21
403.439604
 31
0.0
  0
LINE
  5
1B1
330
1F
100
AcDbEntity
  8
Ｓ_１_１
  6
CONTINUOUS
 62
     3
100
AcDbLine
 10
765.0000009999999
 20
414.7849210000001
 30
0.0
 11
765.0000009999999
 21
403.439611
 31
0.0
  0
LINE
  5
1B2
330
1F
100
AcDbEntity
  8
Ｓ_１_１
  6
CONTINUOUS
 62
     3
100
AcDbLine
 10
775.0000009999999
 20
414.7849210000001
 30
0.0
 11
775.0000009999999
 21
403.439611
 31
0.0
  0
LINE
  5
1B3
330
1F
100
AcDbEntity
  8
Ｓ_１_１
  6
CONTINUOUS
 62
     3
100
AcDbLine
 10
768.2500169999998
 20
438.543983
 30
0.0
 11
768.145103
 21
438.362267
 31
0.0
  0
LINE
  5
1B4
330
1F
100
AcDbEntity
  8
Ｓ_１_１
  6
CONTINUOUS
 62
     3
100
AcDbLine
 10
768.2500089999999
 20
438.362262
 30
0.0
 11
753.9999979999999
 21
438.362262
 31
0.0
  0
LINE
  5
1B5
330
1F
100
AcDbEntity
  8
Ｓ_１_１
  6
CONTINUOUS
 62
     3
100
AcDbLine
 10
768.2500089999999
 20
437.86227
 30
0.0
 11
754.5000089999999
 21
437.86227
 31
0.0
  0
LINE
  5
1B6
330
1F
100
AcDbEntity
  8
Ｓ_１_１
  6
CONTINUOUS
 62
     3
100
AcDbLine
 10
771.7499939999999
 20
441.362264
 30
0.0
 11
768.2500089999999
 21
441.362264
 31
0.0
  0
LINE
  5
1B7
330
1F
100
AcDbEntity
  8
Ｓ_１_１
  6
CONTINUOUS
 62
     3
100
AcDbLine
 10
771.7499939999999
 20
441.362264
 30
0.0
 11
771.7499939999999
 21
437.86227
 31
0.0
  0
LINE
  5
1B8
330
1F
100
AcDbEntity
  8
Ｓ_１_１
  6
CONTINUOUS
 62
     3
100
AcDbLine
 10
768.2500089999999
 20
441.362264
 30
0.0
 11
768.2500089999999
 21
437.86227
 31
0.0
  0
LINE
  5
1B9
330
1F
100
AcDbEntity
  8
Ｓ_１_１
  6
CONTINUOUS
 62
     3
100
AcDbLine
 10
785.4999869999998
 20
435.3622540000001
 30
0.0
 11
784.9999839999998
 21
434.862251
 31
0.0
  0
LINE
  5
1BA
330
1F
100
AcDbEntity
  8
Ｓ_１_１
  6
CONTINUOUS
 62
     3
100
AcDbLine
 10
785.4999869999998
 20
436.362261
 30
0.0
 11
784.9999839999998
 21
436.862264
 31
0.0
  0
LINE
  5
1BB
330
1F
100
AcDbEntity
  8
Ｓ_１_１
  6
CONTINUOUS
 62
     3
100
AcDbLine
 10
754.9999929999998
 20
434.862264
 30
0.0
 11
754.5000039999999
 21
435.3622540000001
 31
0.0
  0
LINE
  5
1BC
330
1F
100
AcDbEntity
  8
Ｓ_１_１
  6
CONTINUOUS
 62
     3
100
AcDbLine
 10
754.9999929999998
 20
436.8622500000001
 30
0.0
 11
754.4999899999997
 21
436.362247
 31
0.0
  0
LINE
  5
1BD
330
1F
100
AcDbEntity
  8
Ｓ_１_１
  6
CONTINUOUS
 62
     3
100
AcDbLine
 10
757.0000089999999
 20
434.862268
 30
0.0
 11
755.0000009999999
 21
434.862268
 31
0.0
  0
LINE
  5
1BE
330
1F
100
AcDbEntity
  8
Ｓ_１_１
  6
CONTINUOUS
 62
     3
100
AcDbLine
 10
757.0000089999999
 20
436.862266
 30
0.0
 11
755.0000009999999
 21
436.862266
 31
0.0
  0
LINE
  5
1BF
330
1F
100
AcDbEntity
  8
Ｓ_１_１
  6
CONTINUOUS
 62
     3
100
AcDbLine
 10
785.0000009999999
 20
436.862266
 30
0.0
 11
782.9999929999998
 21
436.862266
 31
0.0
  0
LINE
  5
1C0
330
1F
100
AcDbEntity
  8
Ｓ_１_１
  6
CONTINUOUS
 62
     3
100
AcDbLine
 10
785.0000009999999
 20
434.862268
 30
0.0
 11
782.9999929999998
 21
434.862268
 31
0.0
  0
LINE
  5
1C1
330
1F
100
AcDbEntity
  8
Ｓ_１_１
  6
CONTINUOUS
 62
     3
100
AcDbLine
 10
785.4999929999998
 20
436.362264
 30
0.0
 11
785.4999929999998
 21
435.36227
 31
0.0
  0
LINE
  5
1C2
330
1F
100
AcDbEntity
  8
Ｓ_１_１
  6
CONTINUOUS
 62
     3
100
AcDbLine
 10
754.5000089999999
 20
436.362264
 30
0.0
 11
754.5000089999999
 21
435.36227
 31
0.0
  0
LINE
  5
1C3
330
1F
100
AcDbEntity
  8
Ｓ_１_１
  6
CONTINUOUS
 62
     3
100
AcDbLine
 10
771.8549179999999
 20
438.36226
 30
0.0
 11
771.7499889999999
 21
438.544001
 31
0.0
  0
LINE
  5
1C4
330
1F
100
AcDbEntity
  8
Ｓ_１_１
  6
CONTINUOUS
 62
     3
100
AcDbLine
 10
786.0000239999999
 20
461.862266
 30
0.0
 11
753.9999979999999
 21
461.862266
 31
0.0
  0
LINE
  5
1C5
330
1F
100
AcDbEntity
  8
Ｓ_１_１
  6
CONTINUOUS
 62
     3
100
AcDbLine
 10
786.0000239999999
 20
454.362266
 30
0.0
 11
753.9999979999999
 21
454.362266
 31
0.0
  0
LINE
  5
1C6
330
1F
100
AcDbEntity
  8
Ｓ_１_１
  6
CONTINUOUS
 62
     3
100
AcDbLine
 10
786.0000239999999
 20
438.362262
 30
0.0
 11
771.7499939999999
 21
438.362262
 31
0.0
  0
LINE
  5
1C7
330
1F
100
AcDbEntity
  8
Ｓ_１_１
  6
CONTINUOUS
 62
     3
100
AcDbLine
 10
753.9999979999999
 20
445.36227
 30
0.0
 11
786.0000239999999
 21
445.36227
 31
0.0
  0
LINE
  5
1C8
330
1F
100
AcDbEntity
  8
Ｓ_１_１
  6
CONTINUOUS
 62
     3
100
AcDbLine
 10
754.4999989999999
 20
437.86226
 30
0.0
 11
754.0000029999999
 21
438.3622560000001
 31
0.0
  0
LINE
  5
1C9
330
1F
100
AcDbEntity
  8
Ｓ_１_１
  6
CONTINUOUS
 62
     3
100
AcDbLine
 10
785.9999949999999
 20
438.362263
 30
0.0
 11
785.5000059999999
 21
437.8622730000001
 31
0.0
  0
LINE
  5
1CA
330
1F
100
AcDbEntity
  8
Ｓ_１_１
  6
CONTINUOUS
 62
     3
100
AcDbLine
 10
753.9999979999999
 20
445.36227
 30
0.0
 11
753.9999979999999
 21
438.362262
 31
0.0
  0
LINE
  5
1CB
330
1F
100
AcDbEntity
  8
Ｓ_１_１
  6
CONTINUOUS
 62
     3
100
AcDbLine
 10
786.0000239999999
 20
445.36227
 30
0.0
 11
786.0000239999999
 21
438.362262
 31
0.0
  0
LINE
  5
1CC
330
1F
100
AcDbEntity
  8
Ｓ_１_１
  6
CONTINUOUS
 62
     3
100
AcDbLine
 10
786.000009
 20
454.362272
 30
0.0
 11
785.5000059999999
 21
453.862269
 31
0.0
  0
LINE
  5
1CD
330
1F
100
AcDbEntity
  8
Ｓ_１_１
  6
CONTINUOUS
 62
     3
100
AcDbLine
 10
754.5000069999999
 20
445.862259
 30
0.0
 11
754.0000039999999
 21
445.362256
 31
0.0
  0
LINE
  5
1CE
330
1F
100
AcDbEntity
  8
Ｓ_１_１
  6
CONTINUOUS
 62
     3
100
AcDbLine
 10
754.5000119999999
 20
453.862269
 30
0.0
 11
754.0000159999997
 21
454.362266
 31
0.0
  0
LINE
  5
1CF
330
1F
100
AcDbEntity
  8
Ｓ_１_１
  6
CONTINUOUS
 62
     3
100
AcDbLine
 10
786.0000009999999
 20
445.36227
 30
0.0
 11
785.5000109999999
 21
445.862259
 31
0.0
  0
LINE
  5
1D0
330
1F
100
AcDbEntity
  8
Ｓ_１_１
  6
CONTINUOUS
 62
     3
100
AcDbLine
 10
785.4999929999998
 20
453.862264
 30
0.0
 11
754.5000089999999
 21
453.862264
 31
0.0
  0
LINE
  5
1D1
330
1F
100
AcDbEntity
  8
Ｓ_１_１
  6
CONTINUOUS
 62
     3
100
AcDbLine
 10
785.4999929999998
 20
445.862262
 30
0.0
 11
754.5000089999999
 21
445.862262
 31
0.0
  0
LINE
  5
1D2
330
1F
100
AcDbEntity
  8
Ｓ_１_１
  6
CONTINUOUS
 62
     3
100
AcDbLine
 10
754.5000089999999
 20
453.862264
 30
0.0
 11
754.5000089999999
 21
445.862262
 31
0.0
  0
LINE
  5
1D3
330
1F
100
AcDbEntity
  8
Ｓ_１_１
  6
CONTINUOUS
 62
     3
100
AcDbLine
 10
785.4999929999998
 20
453.862264
 30
0.0
 11
785.4999929999998
 21
445.862262
 31
0.0
  0
LINE
  5
1D4
330
1F
100
AcDbEntity
  8
Ｓ_１_１
  6
CONTINUOUS
 62
     3
100
AcDbLine
 10
756.9999859999998
 20
464.862262
 30
0.0
 11
753.9999939999998
 21
461.86227
 31
0.0
  0
LINE
  5
1D5
330
1F
100
AcDbEntity
  8
Ｓ_１_１
  6
CONTINUOUS
 62
     3
100
AcDbLine
 10
783.0000189999998
 20
464.862289
 30
0.0
 11
786.000004
 21
461.8623030000001
 31
0.0
  0
LINE
  5
1D6
330
1F
100
AcDbEntity
  8
Ｓ_１_１
  6
CONTINUOUS
 62
     3
100
AcDbLine
 10
782.0000089999999
 20
430.36227
 30
0.0
 11
782.0000089999999
 21
415.362266
 31
0.0
  0
LINE
  5
1D7
330
1F
100
AcDbEntity
  8
Ｓ_１_１
  6
CONTINUOUS
 62
     3
100
AcDbLine
 10
757.9999939999997
 20
430.36227
 30
0.0
 11
757.9999939999997
 21
415.362266
 31
0.0
  0
LINE
  5
1D8
330
1F
100
AcDbEntity
  8
Ｓ_１_１
  6
CONTINUOUS
 62
     3
100
AcDbLine
 10
782.9999929999998
 20
464.862268
 30
0.0
 11
757.0000089999999
 21
464.862268
 31
0.0
  0
LINE
  5
1D9
330
1F
100
AcDbEntity
  8
Ｓ_１_１
  6
CONTINUOUS
 62
     3
100
AcDbLine
 10
753.9999979999999
 20
461.862266
 30
0.0
 11
753.9999979999999
 21
454.362266
 31
0.0
  0
LINE
  5
1DA
330
1F
100
AcDbEntity
  8
Ｓ_１_１
  6
CONTINUOUS
 62
     3
100
AcDbLine
 10
786.0000239999999
 20
461.862266
 30
0.0
 11
786.0000239999999
 21
454.362266
 31
0.0
  0
LINE
  5
1DB
330
1F
100
AcDbEntity
  8
Ｓ_１_１
  6
CONTINUOUS
 62
     3
100
AcDbLine
 10
757.0000089999999
 20
414.784902
 30
0.0
 11
757.0000089999999
 21
403.439611
 31
0.0
  0
LINE
  5
1DC
330
1F
100
AcDbEntity
  8
Ｓ_１_１
  6
CONTINUOUS
 62
     3
100
AcDbLine
 10
782.9999929999998
 20
414.7849210000001
 30
0.0
 11
782.9999929999998
 21
403.439611
 31
0.0
  0
LINE
  5
1DD
330
1F
100
AcDbEntity
  8
Ｓ_１_１
  6
CONTINUOUS
 62
     3
100
AcDbLine
 10
757.9999939999997
 20
465.36227
 30
0.0
 11
757.9999939999997
 21
464.862268
 31
0.0
  0
LINE
  5
1DE
330
1F
100
AcDbEntity
  8
Ｓ_１_１
  6
CONTINUOUS
 62
     3
100
AcDbLine
 10
782.0000089999999
 20
465.36227
 30
0.0
 11
782.0000089999999
 21
464.862268
 31
0.0
  0
LINE
  5
1DF
330
1F
100
AcDbEntity
  8
Ｓ_１_１
  6
CONTINUOUS
 62
     3
100
AcDbLine
 10
782.9999929999998
 20
437.86227
 30
0.0
 11
782.9999929999998
 21
430.9396150000001
 31
0.0
  0
LINE
  5
1E0
330
1F
100
AcDbEntity
  8
Ｓ_１_１
  6
CONTINUOUS
 62
     3
100
AcDbLine
 10
757.0000089999999
 20
437.86227
 30
0.0
 11
757.0000089999999
 21
430.9396150000001
 31
0.0
  0
LINE
  5
1E1
330
1F
100
AcDbEntity
  8
Ｓ_１_１
  6
CONTINUOUS
 62
     3
100
AcDbLine
 10
785.4999929999998
 20
437.86227
 30
0.0
 11
771.7499939999999
 21
437.86227
 31
0.0
  0
LINE
  5
1E2
330
1F
100
AcDbEntity
  8
Ｓ_１_１
  6
CONTINUOUS
 62
     3
100
AcDbLine
 10
782.0000089999999
 20
430.36227
 30
0.0
 11
758.0000129999999
 21
430.36227
 31
0.0
  0
LINE
  5
1E3
330
1F
100
AcDbEntity
  8
Ｓ_１_１
  6
CONTINUOUS
 62
     3
100
AcDbLine
 10
763.9378179999998
 20
394.424442
 30
0.0
 11
763.9378179999998
 21
387.300084
 31
0.0
  0
LINE
  5
1E4
330
1F
100
AcDbEntity
  8
Ｓ_１_１
  6
CONTINUOUS
 62
     3
100
AcDbLine
 10
782.1243679999999
 20
394.424461
 30
0.0
 11
782.1243679999999
 21
387.30007
 31
0.0
  0
LINE
  5
1E5
330
1F
100
AcDbEntity
  8
Ｓ_１_１
  6
CONTINUOUS
 62
     3
100
AcDbLine
 10
757.8756349999999
 20
394.424442
 30
0.0
 11
757.8756349999999
 21
387.300084
 31
0.0
  0
LINE
  5
1E6
330
1F
100
AcDbEntity
  8
Ｓ_１_１
  6
CONTINUOUS
 62
     3
100
AcDbLine
 10
759.5000069999999
 20
395.36227
 30
0.0
 11
757.8756459999997
 21
394.424448
 31
0.0
  0
LINE
  5
1E7
330
1F
100
AcDbEntity
  8
Ｓ_１_１
  6
CONTINUOUS
 62
     3
100
AcDbLine
 10
776.0621649999998
 20
394.424442
 30
0.0
 11
776.0621649999998
 21
387.300084
 31
0.0
  0
LINE
  5
1E8
330
1F
100
AcDbEntity
  8
Ｓ_１_１
  6
CONTINUOUS
 62
     3
100
AcDbLine
 10
759.4999899999997
 20
386.362263
 30
0.0
 11
757.8756289999999
 21
387.300084
 31
0.0
  0
LINE
  5
1E9
330
1F
100
AcDbEntity
  8
Ｓ_１_１
  6
CONTINUOUS
 62
     3
100
AcDbLine
 10
780.5000319999999
 20
395.362266
 30
0.0
 11
759.4999899999997
 21
395.362266
 31
0.0
  0
LINE
  5
1EA
330
1F
100
AcDbEntity
  8
Ｓ_１_１
  6
CONTINUOUS
 62
     3
100
AcDbLine
 10
780.5000319999999
 20
386.362265
 30
0.0
 11
759.4999899999997
 21
386.362265
 31
0.0
  0
LINE
  5
1EB
330
1F
100
AcDbEntity
  8
Ｓ_１_１
  6
CONTINUOUS
 62
     3
100
AcDbLine
 10
778.3500119999999
 20
386.362278
 30
0.0
 11
777.5635079999998
 21
385.000011
 31
0.0
  0
LINE
  5
1EC
330
1F
100
AcDbEntity
  8
Ｓ_１_１
  6
CONTINUOUS
 62
     3
100
AcDbLine
 10
780.5000229999998
 20
386.3622730000001
 30
0.0
 11
782.124384
 21
387.3000940000001
 31
0.0
  0
LINE
  5
1ED
330
1F
100
AcDbEntity
  8
Ｓ_１_１
  6
CONTINUOUS
 62
     3
100
AcDbLine
 10
780.5000269999999
 20
395.3622590000001
 30
0.0
 11
782.1243879999998
 21
394.424437
 31
0.0
  0
LINE
  5
1EE
330
1F
100
AcDbEntity
  8
Ｓ_１_１
  6
CONTINUOUS
 62
     3
100
AcDbLine
 10
777.2509779999998
 20
379.9999989999999
 30
0.0
 11
777.5634779999998
 21
384.9999990000001
 31
0.0
  0
LINE
  5
1EF
330
1F
100
AcDbEntity
  8
Ｓ_１_１
  6
CONTINUOUS
 62
     3
100
AcDbLine
 10
777.9523789999998
 20
379.999997
 30
0.0
 11
778.350021
 21
386.362266
 31
0.0
  0
LINE
  5
1F0
330
1F
100
AcDbEntity
  8
Ｓ_１_１
  6
CONTINUOUS
 62
     3
100
AcDbLine
 10
778.2648859999998
 20
384.999998
 30
0.0
 11
761.7351539999999
 21
384.999998
 31
0.0
  0
LINE
  5
1F1
330
1F
100
AcDbEntity
  8
Ｓ_１_１
  6
CONTINUOUS
 62
     3
100
AcDbLine
 10
777.1798799999999
 20
402.862268
 30
0.0
 11
777.5634889999999
 21
396.7245320000001
 31
0.0
  0
LINE
  5
1F2
330
1F
100
AcDbEntity
  8
Ｓ_１_１
  6
CONTINUOUS
 62
     3
100
AcDbLine
 10
782.0000089999999
 20
465.36227
 30
0.0
 11
757.9999939999997
 21
465.36227
 31
0.0
  0
LINE
  5
1F3
330
1F
100
AcDbEntity
  8
Ｓ_１_１
  6
CONTINUOUS
 62
     3
100
AcDbLine
 10
777.8812429999999
 20
402.86227
 30
0.0
 11
778.3499939999998
 21
395.3622490000001
 31
0.0
  0
LINE
  5
1F4
330
1F
100
AcDbEntity
  8
Ｓ_１_１
  6
CONTINUOUS
 62
     3
100
AcDbLine
 10
782.0000089999999
 20
415.362266
 30
0.0
 11
758.0000129999999
 21
415.362266
 31
0.0
  0
LINE
  5
1F5
330
1F
100
AcDbEntity
  8
Ｓ_１_１
  6
CONTINUOUS
 62
     3
100
AcDbLine
 10
778.3499989999998
 20
395.362262
 30
0.0
 11
777.5634939999999
 21
396.724528
 31
0.0
  0
LINE
  5
1F6
330
1F
100
AcDbEntity
  8
Ｓ_１_１
  6
CONTINUOUS
 62
     3
100
AcDbLine
 10
762.4365309999998
 20
396.724544
 30
0.0
 11
761.6500169999998
 21
395.362261
 31
0.0
  0
LINE
  5
1F7
330
1F
100
AcDbEntity
  8
Ｓ_１_１
  6
CONTINUOUS
 62
     3
100
AcDbLine
 10
762.1187639999997
 20
402.86227
 30
0.0
 11
761.6500139999997
 21
395.362261
 31
0.0
  0
LINE
  5
1F8
330
1F
100
AcDbEntity
  8
Ｓ_１_１
  6
CONTINUOUS
 62
     3
100
AcDbLine
 10
762.0476659999998
 20
379.9999989999999
 30
0.0
 11
761.6500239999997
 21
386.362271
 31
0.0
  0
LINE
  5
1F9
330
1F
100
AcDbEntity
  8
Ｓ_１_１
  6
CONTINUOUS
 62
     3
100
AcDbLine
 10
762.4365219999999
 20
384.999987
 30
0.0
 11
761.6500129999998
 21
386.362262
 31
0.0
  0
LINE
  5
1FA
330
1F
100
AcDbEntity
  8
Ｓ_１_１
  6
CONTINUOUS
 62
     3
100
AcDbLine
 10
762.7490289999998
 20
379.9999989999999
 30
0.0
 11
762.4365289999998
 21
384.9999940000001
 31
0.0
  0
LINE
  5
1FB
330
1F
100
AcDbEntity
  8
Ｓ_１_１
  6
CONTINUOUS
 62
     3
100
AcDbLine
 10
762.8201269999997
 20
402.862265
 30
0.0
 11
762.4365189999999
 21
396.7245389999999
 31
0.0
  0
LINE
  5
1FC
330
1F
100
AcDbEntity
  8
Ｓ_１_１
  6
CONTINUOUS
 62
     3
100
AcDbLine
 10
778.2648859999998
 20
396.7245320000001
 30
0.0
 11
761.7351539999999
 21
396.7245320000001
 31
0.0
  0
LINE
  5
1FD
330
1F
100
AcDbEntity
  8
Ｓ_１_１
  6
CONTINUOUS
 62
     3
100
AcDbLine
 10
505.0000009999999
 20
192.999999
 30
0.0
 11
507.9999999999999
 21
190.0
 31
0.0
  0
LINE
  5
1FE
330
1F
100
AcDbEntity
  8
Ｓ_１_１
  6
CONTINUOUS
 62
     3
100
AcDbLine
 10
508.0000069999999
 20
379.999997
 30
0.0
 11
505.0000079999999
 21
376.999998
 31
0.0
  0
LINE
  5
1FF
330
1F
100
AcDbEntity
  8
Ｓ_１_１
  6
CONTINUOUS
 62
     3
100
AcDbLine
 10
869.9999919999999
 20
377.000011
 30
0.0
 11
866.9999999999999
 21
380.000003
 31
0.0
  0
LINE
  5
200
330
1F
100
AcDbEntity
  8
Ｓ_１_１
  6
CONTINUOUS
 62
     3
100
AcDbLine
 10
866.9999859999998
 20
190.000007
 30
0.0
 11
869.9999789999998
 21
192.999999
 31
0.0
  0
LINE
  5
201
330
1F
100
AcDbEntity
  8
Ｓ_１_１
  6
CONTINUOUS
 62
     3
100
AcDbLine
 10
867.0000069999999
 20
379.9999989999999
 30
0.0
 11
867.0000069999999
 21
190.000001
 31
0.0
  0
LINE
  5
202
330
1F
100
AcDbEntity
  8
Ｓ_１_１
  6
CONTINUOUS
 62
     3
100
AcDbLine
 10
508.0000069999999
 20
379.9999989999999
 30
0.0
 11
508.0000069999999
 21
190.000001
 31
0.0
  0
LINE
  5
203
330
1F
100
AcDbEntity
  8
Ｓ_１_１
  6
CONTINUOUS
 62
     3
100
AcDbLine
 10
508.0000069999999
 20
379.9999989999999
 30
0.0
 11
867.0000069999999
 21
379.9999989999999
 31
0.0
  0
LINE
  5
204
330
1F
100
AcDbEntity
  8
Ｓ_１_１
  6
CONTINUOUS
 62
     3
100
AcDbLine
 10
508.0000069999999
 20
190.000001
 30
0.0
 11
867.0000069999999
 21
190.000001
 31
0.0
  0
LINE
  5
205
330
1F
100
AcDbEntity
  8
Ｓ_１_１
  6
CONTINUOUS
 62
     3
100
AcDbLine
 10
870.0
 20
377.000001
 30
0.0
 11
870.0
 21
193.000003
 31
0.0
  0
LINE
  5
206
330
1F
100
AcDbEntity
  8
Ｓ_１_１
  6
CONTINUOUS
 62
     3
100
AcDbLine
 10
505.0000049999999
 20
377.000001
 30
0.0
 11
505.0000049999999
 21
193.000003
 31
0.0
  0
LINE
  5
207
330
1F
100
AcDbEntity
  8
Ｓ_１_１
  6
CONTINUOUS
 62
     3
100
AcDbLine
 10
561.0000179999998
 20
296.500001
 30
0.0
 11
561.0000179999998
 21
294.499998
 31
0.0
  0
LINE
  5
208
330
1F
100
AcDbEntity
  8
Ｓ_１_１
  6
CONTINUOUS
 62
     3
100
AcDbLine
 10
573.0000059999999
 20
296.500001
 30
0.0
 11
573.0000059999999
 21
294.499998
 31
0.0
  0
LINE
  5
209
330
1F
100
AcDbEntity
  8
Ｓ_１_１
  6
CONTINUOUS
 62
     3
100
AcDbLine
 10
561.0000179999998
 20
305.999999
 30
0.0
 11
573.0000059999999
 21
305.999999
 31
0.0
  0
LINE
  5
20A
330
1F
100
AcDbEntity
  8
Ｓ_１_１
  6
CONTINUOUS
 62
     3
100
AcDbLine
 10
561.0000179999998
 20
305.999999
 30
0.0
 11
561.0000179999998
 21
305.499997
 31
0.0
  0
LINE
  5
20B
330
1F
100
AcDbEntity
  8
Ｓ_１_１
  6
CONTINUOUS
 62
     3
100
AcDbLine
 10
573.0000059999999
 20
305.999999
 30
0.0
 11
573.0000059999999
 21
305.499997
 31
0.0
  0
LINE
  5
20C
330
1F
100
AcDbEntity
  8
Ｓ_１_１
  6
CONTINUOUS
 62
     3
100
AcDbLine
 10
684.0000019999999
 20
293.99999
 30
0.0
 11
684.9999949999998
 21
292.999997
 31
0.0
  0
LINE
  5
20D
330
1F
100
AcDbEntity
  8
Ｓ_１_１
  6
CONTINUOUS
 62
     3
100
AcDbLine
 10
585.5000059999999
 20
294.000001
 30
0.0
 11
683.9999989999999
 21
294.000001
 31
0.0
  0
LINE
  5
20E
330
1F
100
AcDbEntity
  8
Ｓ_１_１
  6
CONTINUOUS
 62
     3
100
AcDbLine
 10
545.0000049999999
 20
275.499997
 30
0.0
 11
545.0000049999999
 21
294.499998
 31
0.0
  0
LINE
  5
20F
330
1F
100
AcDbEntity
  8
Ｓ_１_１
  6
CONTINUOUS
 62
     3
100
AcDbLine
 10
585.0000039999999
 20
275.499997
 30
0.0
 11
585.0000039999999
 21
294.499998
 31
0.0
  0
LINE
  5
210
330
1F
100
AcDbEntity
  8
Ｓ_１_１
  6
CONTINUOUS
 62
     3
100
AcDbLine
 10
683.9999989999999
 20
275.999999
 30
0.0
 11
683.9999989999999
 21
294.000001
 31
0.0
  0
LINE
  5
211
330
1F
100
AcDbEntity
  8
Ｓ_１_１
  6
CONTINUOUS
 62
     3
100
AcDbLine
 10
684.9999829999998
 20
276.999989
 30
0.0
 11
684.9999829999998
 21
292.999997
 31
0.0
  0
LINE
  5
212
330
1F
100
AcDbEntity
  8
Ｓ_１_１
  6
CONTINUOUS
 62
     3
100
AcDbLine
 10
545.0000049999999
 20
294.499998
 30
0.0
 11
585.0000039999999
 21
294.499998
 31
0.0
  0
LINE
  5
213
330
1F
100
AcDbEntity
  8
Ｓ_１_１
  6
CONTINUOUS
 62
     3
100
AcDbLine
 10
547.0000029999999
 20
305.499997
 30
0.0
 11
587.0000019999999
 21
305.499997
 31
0.0
  0
LINE
  5
214
330
1F
100
AcDbEntity
  8
Ｓ_１_１
  6
CONTINUOUS
 62
     3
100
AcDbLine
 10
547.0000029999999
 20
296.500001
 30
0.0
 11
587.0000019999999
 21
296.500001
 31
0.0
  0
LINE
  5
215
330
1F
100
AcDbEntity
  8
Ｓ_１_１
  6
CONTINUOUS
 62
     3
100
AcDbLine
 10
587.0000019999999
 20
296.500001
 30
0.0
 11
587.0000019999999
 21
305.499997
 31
0.0
  0
LINE
  5
216
330
1F
100
AcDbEntity
  8
Ｓ_１_１
  6
CONTINUOUS
 62
     3
100
AcDbLine
 10
547.0000029999999
 20
296.500001
 30
0.0
 11
547.0000029999999
 21
305.499997
 31
0.0
  0
LINE
  5
217
330
1F
100
AcDbEntity
  8
Ｓ_１_１
  6
CONTINUOUS
 62
     3
100
AcDbLine
 10
561.0000179999998
 20
273.499999
 30
0.0
 11
561.0000179999998
 21
275.499997
 31
0.0
  0
LINE
  5
218
330
1F
100
AcDbEntity
  8
Ｓ_１_１
  6
CONTINUOUS
 62
     3
100
AcDbLine
 10
573.0000059999999
 20
273.499999
 30
0.0
 11
573.0000059999999
 21
275.499997
 31
0.0
  0
LINE
  5
219
330
1F
100
AcDbEntity
  8
Ｓ_１_１
  6
CONTINUOUS
 62
     3
100
AcDbLine
 10
561.0000179999998
 20
263.999996
 30
0.0
 11
573.0000059999999
 21
263.999996
 31
0.0
  0
LINE
  5
21A
330
1F
100
AcDbEntity
  8
Ｓ_１_１
  6
CONTINUOUS
 62
     3
100
AcDbLine
 10
561.0000179999998
 20
263.999996
 30
0.0
 11
561.0000179999998
 21
264.499998
 31
0.0
  0
LINE
  5
21B
330
1F
100
AcDbEntity
  8
Ｓ_１_１
  6
CONTINUOUS
 62
     3
100
AcDbLine
 10
573.0000059999999
 20
263.999996
 30
0.0
 11
573.0000059999999
 21
264.499998
 31
0.0
  0
LINE
  5
21C
330
1F
100
AcDbEntity
  8
Ｓ_１_１
  6
CONTINUOUS
 62
     3
100
AcDbLine
 10
684.0000139999999
 20
276.000008
 30
0.0
 11
684.9999939999999
 21
276.999988
 31
0.0
  0
LINE
  5
21D
330
1F
100
AcDbEntity
  8
Ｓ_１_１
  6
CONTINUOUS
 62
     3
100
AcDbLine
 10
585.5000059999999
 20
275.999999
 30
0.0
 11
683.9999989999999
 21
275.999999
 31
0.0
  0
LINE
  5
21E
330
1F
100
AcDbEntity
  8
Ｓ_１_１
  6
CONTINUOUS
 62
     3
100
AcDbLine
 10
545.0000049999999
 20
275.499997
 30
0.0
 11
585.0000039999999
 21
275.499997
 31
0.0
  0
LINE
  5
21F
330
1F
100
AcDbEntity
  8
Ｓ_１_１
  6
CONTINUOUS
 62
     3
100
AcDbLine
 10
547.0000029999999
 20
264.499998
 30
0.0
 11
587.0000019999999
 21
264.499998
 31
0.0
  0
LINE
  5
220
330
1F
100
AcDbEntity
  8
Ｓ_１_１
  6
CONTINUOUS
 62
     3
100
AcDbLine
 10
547.0000029999999
 20
273.499999
 30
0.0
 11
587.0000019999999
 21
273.499999
 31
0.0
  0
LINE
  5
221
330
1F
100
AcDbEntity
  8
Ｓ_１_１
  6
CONTINUOUS
 62
     3
100
AcDbLine
 10
587.0000019999999
 20
273.499999
 30
0.0
 11
587.0000019999999
 21
264.499998
 31
0.0
  0
LINE
  5
222
330
1F
100
AcDbEntity
  8
Ｓ_１_１
  6
CONTINUOUS
 62
     3
100
AcDbLine
 10
547.0000029999999
 20
273.499999
 30
0.0
 11
547.0000029999999
 21
264.499998
 31
0.0
  0
LINE
  5
223
330
1F
100
AcDbEntity
  8
Ｓ_１_１
  6
CONTINUOUS
 62
     3
100
AcDbLine
 10
498.0000069999999
 20
339.9999989999999
 30
0.0
 11
495.0000059999999
 21
338.267948
 31
0.0
  0
LINE
  5
224
330
1F
100
AcDbEntity
  8
Ｓ_１_１
  6
CONTINUOUS
 62
     3
100
AcDbLine
 10
498.0000009999999
 20
230.000004
 30
0.0
 11
495.0000049999999
 21
231.7320530000001
 31
0.0
  0
LINE
  5
225
330
1F
100
AcDbEntity
  8
Ｓ_１_１
  6
CONTINUOUS
 62
     3
100
AcDbLine
 10
498.0000069999999
 20
339.999998
 30
0.0
 11
498.0000069999999
 21
230.000001
 31
0.0
  0
LINE
  5
226
330
1F
100
AcDbEntity
  8
Ｓ_１_１
  6
CONTINUOUS
 62
     3
100
AcDbLine
 10
498.0000069999999
 20
230.000001
 30
0.0
 11
505.0000049999999
 21
230.000001
 31
0.0
  0
LINE
  5
227
330
1F
100
AcDbEntity
  8
Ｓ_１_１
  6
CONTINUOUS
 62
     3
100
AcDbLine
 10
498.0000069999999
 20
339.999998
 30
0.0
 11
505.0000049999999
 21
339.999998
 31
0.0
  0
LINE
  5
228
330
1F
100
AcDbEntity
  8
Ｓ_１_１
  6
CONTINUOUS
 62
     3
100
AcDbLine
 10
495.0000049999999
 20
338.267949
 30
0.0
 11
495.0000049999999
 21
231.732045
 31
0.0
  0
CIRCLE
  5
229
330
1F
100
AcDbEntity
  8
Ｓ_１_１
  6
EXLTYPE2
 62
     1
100
AcDbCircle
 10
269.9999999999999
 20
285.0
 30
0.0
 40
9.999999
  0
CIRCLE
  5
22A
330
1F
100
AcDbEntity
  8
Ｓ_１_１
  6
EXLTYPE2
 62
     1
100
AcDbCircle
 10
269.9999999999999
 20
285.0
 30
0.0
 40
25.00000000000002
  0
CIRCLE
  5
22B
330
1F
100
AcDbEntity
  8
Ｓ_１_１
  6
EXLTYPE2
 62
     1
100
AcDbCircle
 10
269.9999999999999
 20
285.0
 30
0.0
 40
39.999999
  0
CIRCLE
  5
22C
330
1F
100
AcDbEntity
  8
Ｓ_１_１
  6
EXLTYPE2
 62
     1
100
AcDbCircle
 10
269.9999999999999
 20
285.0
 30
0.0
 40
69.999999
  0
LINE
  5
22D
330
1F
100
AcDbEntity
  8
Ｓ_１_１
  6
EXLTYPE2
 62
     1
100
AcDbLine
 10
157.0000089999999
 20
307.7642060000001
 30
0.0
 11
157.0000089999999
 21
258.7642010000001
 31
0.0
  0
LINE
  5
22E
330
1F
100
AcDbEntity
  8
Ｓ_１_１
  6
EXLTYPE2
 62
     1
100
AcDbLine
 10
382.9999959999999
 20
307.7642060000001
 30
0.0
 11
382.9999959999999
 21
258.7642010000001
 31
0.0
  0
CIRCLE
  5
22F
330
1F
100
AcDbEntity
  8
Ｓ_１_１
  6
CONTINUOUS
 62
     3
100
AcDbCircle
 10
269.9999999999999
 20
285.0
 30
0.0
 40
8.999999000000004
  0
CIRCLE
  5
230
330
1F
100
AcDbEntity
  8
Ｓ_１_１
  6
CONTINUOUS
 62
     3
100
AcDbCircle
 10
269.9999999999999
 20
285.0
 30
0.0
 40
10.999999
  0
CIRCLE
  5
231
330
1F
100
AcDbEntity
  8
Ｓ_１_１
  6
CONTINUOUS
 62
     3
100
AcDbCircle
 10
269.9999999999999
 20
285.0
 30
0.0
 40
25.99999900000001
  0
CIRCLE
  5
232
330
1F
100
AcDbEntity
  8
Ｓ_１_１
  6
CONTINUOUS
 62
     3
100
AcDbCircle
 10
269.9999999999999
 20
285.0
 30
0.0
 40
23.999998
  0
CIRCLE
  5
233
330
1F
100
AcDbEntity
  8
Ｓ_１_１
  6
CONTINUOUS
 62
     3
100
AcDbCircle
 10
269.9999999999999
 20
285.0
 30
0.0
 40
39.0
  0
CIRCLE
  5
234
330
1F
100
AcDbEntity
  8
Ｓ_１_１
  6
CONTINUOUS
 62
     3
100
AcDbCircle
 10
269.9999999999999
 20
285.0
 30
0.0
 40
40.99999800000001
  0
ARC
  5
235
330
1F
100
AcDbEntity
  8
Ｓ_１_１
  6
CONTINUOUS
 62
     3
100
AcDbCircle
 10
157.0000089999999
 20
288.499999
 30
0.0
 40
18.5
100
AcDbArc
 50
71.07535099999998
 51
108.92464
  0
ARC
  5
236
330
1F
100
AcDbEntity
  8
Ｓ_１_１
  6
CONTINUOUS
 62
     3
100
AcDbCircle
 10
157.0000089999999
 20
281.500001
 30
0.0
 40
18.5
100
AcDbArc
 50
251.0753600000002
 51
288.9246490000002
  0
CIRCLE
  5
237
330
1F
100
AcDbEntity
  8
Ｓ_１_１
  6
CONTINUOUS
 62
     3
100
AcDbCircle
 10
269.9999999999999
 20
285.0
 30
0.0
 40
91.999997
  0
CIRCLE
  5
238
330
1F
100
AcDbEntity
  8
Ｓ_１_１
  6
CONTINUOUS
 62
     3
100
AcDbCircle
 10
269.9999999999999
 20
285.0
 30
0.0
 40
94.999999
  0
CIRCLE
  5
239
330
1F
100
AcDbEntity
  8
Ｓ_１_１
  6
CONTINUOUS
 62
     3
100
AcDbCircle
 10
269.9999999999999
 20
285.0
 30
0.0
 40
53.26795000000003
  0
CIRCLE
  5
23A
330
1F
100
AcDbEntity
  8
Ｓ_１_１
  6
CONTINUOUS
 62
     3
100
AcDbCircle
 10
269.9999999999999
 20
285.0
 30
0.0
 40
54.999999
  0
CIRCLE
  5
23B
330
1F
100
AcDbEntity
  8
Ｓ_１_１
  6
CONTINUOUS
 62
     3
100
AcDbCircle
 10
200.0000009999999
 20
285.0
 30
0.0
 40
3.000000000000003
  0
CIRCLE
  5
23C
330
1F
100
AcDbEntity
  8
Ｓ_１_１
  6
CONTINUOUS
 62
     3
100
AcDbCircle
 10
200.0000009999999
 20
285.0
 30
0.0
 40
2.5
  0
CIRCLE
  5
23D
330
1F
100
AcDbEntity
  8
Ｓ_１_１
  6
CONTINUOUS
 62
     3
100
AcDbCircle
 10
269.9999999999999
 20
285.0
 30
0.0
 40
75.999998
  0
CIRCLE
  5
23E
330
1F
100
AcDbEntity
  8
Ｓ_１_１
  6
CONTINUOUS
 62
     3
100
AcDbCircle
 10
269.9999999999999
 20
285.0
 30
0.0
 40
77.499999
  0
CIRCLE
  5
23F
330
1F
100
AcDbEntity
  8
Ｓ_１_１
  6
CONTINUOUS
 62
     3
100
AcDbCircle
 10
269.9999999999999
 20
354.999998
 30
0.0
 40
2.5
  0
CIRCLE
  5
240
330
1F
100
AcDbEntity
  8
Ｓ_１_１
  6
CONTINUOUS
 62
     3
100
AcDbCircle
 10
339.9999989999999
 20
285.0
 30
0.0
 40
2.5
  0
CIRCLE
  5
241
330
1F
100
AcDbEntity
  8
Ｓ_１_１
  6
CONTINUOUS
 62
     3
100
AcDbCircle
 10
269.9999999999999
 20
215.000001
 30
0.0
 40
2.5
  0
CIRCLE
  5
242
330
1F
100
AcDbEntity
  8
Ｓ_１_１
  6
CONTINUOUS
 62
     3
100
AcDbCircle
 10
269.9999999999999
 20
215.000001
 30
0.0
 40
3.000000000000003
  0
CIRCLE
  5
243
330
1F
100
AcDbEntity
  8
Ｓ_１_１
  6
CONTINUOUS
 62
     3
100
AcDbCircle
 10
339.9999989999999
 20
285.0
 30
0.0
 40
3.000000000000003
  0
CIRCLE
  5
244
330
1F
100
AcDbEntity
  8
Ｓ_１_１
  6
CONTINUOUS
 62
     3
100
AcDbCircle
 10
269.9999999999999
 20
354.999998
 30
0.0
 40
3.000000000000003
  0
ARC
  5
245
330
1F
100
AcDbEntity
  8
Ｓ_１_１
  6
CONTINUOUS
 62
     3
100
AcDbCircle
 10
382.9999959999999
 20
288.499999
 30
0.0
 40
18.5
100
AcDbArc
 50
71.07535800000001
 51
108.924647
  0
ARC
  5
246
330
1F
100
AcDbEntity
  8
Ｓ_１_１
  6
CONTINUOUS
 62
     3
100
AcDbCircle
 10
382.9999959999999
 20
281.500001
 30
0.0
 40
18.5
100
AcDbArc
 50
251.0753530000003
 51
288.9246420000002
  0
LINE
  5
247
330
1F
100
AcDbEntity
  8
Ｓ_１_１
  6
CONTINUOUS
 62
     3
100
AcDbLine
 10
151.0000059999999
 20
263.999996
 30
0.0
 11
151.0000059999999
 21
264.499998
 31
0.0
  0
LINE
  5
248
330
1F
100
AcDbEntity
  8
Ｓ_１_１
  6
CONTINUOUS
 62
     3
100
AcDbLine
 10
163.0000129999999
 20
263.999996
 30
0.0
 11
163.0000129999999
 21
264.499998
 31
0.0
  0
LINE
  5
249
330
1F
100
AcDbEntity
  8
Ｓ_１_１
  6
CONTINUOUS
 62
     3
100
AcDbLine
 10
163.0000129999999
 20
305.999999
 30
0.0
 11
163.0000129999999
 21
305.499997
 31
0.0
  0
LINE
  5
24A
330
1F
100
AcDbEntity
  8
Ｓ_１_１
  6
CONTINUOUS
 62
     3
100
AcDbLine
 10
151.0000059999999
 20
305.999999
 30
0.0
 11
151.0000059999999
 21
305.499997
 31
0.0
  0
LINE
  5
24B
330
1F
100
AcDbEntity
  8
Ｓ_１_１
  6
CONTINUOUS
 62
     3
100
AcDbLine
 10
151.0000059999999
 20
296.500001
 30
0.0
 11
151.0000059999999
 21
294.499998
 31
0.0
  0
LINE
  5
24C
330
1F
100
AcDbEntity
  8
Ｓ_１_１
  6
CONTINUOUS
 62
     3
100
AcDbLine
 10
163.0000129999999
 20
296.500001
 30
0.0
 11
163.0000129999999
 21
294.499998
 31
0.0
  0
LINE
  5
24D
330
1F
100
AcDbEntity
  8
Ｓ_１_１
  6
CONTINUOUS
 62
     3
100
AcDbLine
 10
163.0000129999999
 20
305.999999
 30
0.0
 11
151.0000059999999
 21
305.999999
 31
0.0
  0
LINE
  5
24E
330
1F
100
AcDbEntity
  8
Ｓ_１_１
  6
CONTINUOUS
 62
     3
100
AcDbLine
 10
151.0000059999999
 20
273.499999
 30
0.0
 11
151.0000059999999
 21
275.499997
 31
0.0
  0
LINE
  5
24F
330
1F
100
AcDbEntity
  8
Ｓ_１_１
  6
CONTINUOUS
 62
     3
100
AcDbLine
 10
163.0000129999999
 20
273.499999
 30
0.0
 11
163.0000129999999
 21
275.499997
 31
0.0
  0
LINE
  5
250
330
1F
100
AcDbEntity
  8
Ｓ_１_１
  6
CONTINUOUS
 62
     3
100
AcDbLine
 10
163.0000129999999
 20
263.999996
 30
0.0
 11
151.0000059999999
 21
263.999996
 31
0.0
  0
LINE
  5
251
330
1F
100
AcDbEntity
  8
Ｓ_１_１
  6
CONTINUOUS
 62
     3
100
AcDbLine
 10
155.0000019999999
 20
275.499992
 30
0.0
 11
155.0000019999999
 21
294.499998
 31
0.0
  0
LINE
  5
252
330
1F
100
AcDbEntity
  8
Ｓ_１_１
  6
CONTINUOUS
 62
     3
100
AcDbLine
 10
138.0000129999999
 20
275.499992
 30
0.0
 11
173.9999979999999
 21
275.499992
 31
0.0
  0
LINE
  5
253
330
1F
100
AcDbEntity
  8
Ｓ_１_１
  6
CONTINUOUS
 62
     3
100
AcDbLine
 10
138.0000129999999
 20
294.499998
 30
0.0
 11
173.9999979999999
 21
294.499998
 31
0.0
  0
LINE
  5
254
330
1F
100
AcDbEntity
  8
Ｓ_１_１
  6
CONTINUOUS
 62
     3
100
AcDbLine
 10
173.9999979999999
 20
275.499992
 30
0.0
 11
173.9999979999999
 21
294.499998
 31
0.0
  0
LINE
  5
255
330
1F
100
AcDbEntity
  8
Ｓ_１_１
  6
CONTINUOUS
 62
     3
100
AcDbLine
 10
138.0000129999999
 20
275.499992
 30
0.0
 11
138.0000129999999
 21
294.499998
 31
0.0
  0
LINE
  5
256
330
1F
100
AcDbEntity
  8
Ｓ_１_１
  6
CONTINUOUS
 62
     3
100
AcDbLine
 10
138.9999979999999
 20
273.499999
 30
0.0
 11
138.9999979999999
 21
264.499998
 31
0.0
  0
LINE
  5
257
330
1F
100
AcDbEntity
  8
Ｓ_１_１
  6
CONTINUOUS
 62
     3
100
AcDbLine
 10
138.9999979999999
 20
305.499997
 30
0.0
 11
138.9999979999999
 21
296.500001
 31
0.0
  0
LINE
  5
258
330
1F
100
AcDbEntity
  8
Ｓ_１_１
  6
CONTINUOUS
 62
     3
100
AcDbLine
 10
177.2381989999999
 20
305.499997
 30
0.0
 11
138.9999979999999
 21
305.499997
 31
0.0
  0
LINE
  5
259
330
1F
100
AcDbEntity
  8
Ｓ_１_１
  6
CONTINUOUS
 62
     3
100
AcDbLine
 10
175.6986249999999
 20
296.500001
 30
0.0
 11
138.9999979999999
 21
296.500001
 31
0.0
  0
LINE
  5
25A
330
1F
100
AcDbEntity
  8
Ｓ_１_１
  6
CONTINUOUS
 62
     3
100
AcDbLine
 10
177.2381989999999
 20
264.499998
 30
0.0
 11
138.9999979999999
 21
264.499998
 31
0.0
  0
LINE
  5
25B
330
1F
100
AcDbEntity
  8
Ｓ_１_１
  6
CONTINUOUS
 62
     3
100
AcDbLine
 10
175.6986249999999
 20
273.499999
 30
0.0
 11
138.9999979999999
 21
273.499999
 31
0.0
  0
LINE
  5
25C
330
1F
100
AcDbEntity
  8
Ｓ_１_１
  6
CONTINUOUS
 62
     3
100
AcDbLine
 10
388.9999939999998
 20
263.999996
 30
0.0
 11
388.9999939999998
 21
264.499998
 31
0.0
  0
LINE
  5
25D
330
1F
100
AcDbEntity
  8
Ｓ_１_１
  6
CONTINUOUS
 62
     3
100
AcDbLine
 10
376.9999969999999
 20
263.999996
 30
0.0
 11
376.9999969999999
 21
264.499998
 31
0.0
  0
LINE
  5
25E
330
1F
100
AcDbEntity
  8
Ｓ_１_１
  6
CONTINUOUS
 62
     3
100
AcDbLine
 10
376.9999969999999
 20
305.999999
 30
0.0
 11
376.9999969999999
 21
305.499997
 31
0.0
  0
LINE
  5
25F
330
1F
100
AcDbEntity
  8
Ｓ_１_１
  6
CONTINUOUS
 62
     3
100
AcDbLine
 10
388.9999939999998
 20
305.999999
 30
0.0
 11
388.9999939999998
 21
305.499997
 31
0.0
  0
LINE
  5
260
330
1F
100
AcDbEntity
  8
Ｓ_１_１
  6
CONTINUOUS
 62
     3
100
AcDbLine
 10
388.9999939999998
 20
296.500001
 30
0.0
 11
388.9999939999998
 21
294.499998
 31
0.0
  0
LINE
  5
261
330
1F
100
AcDbEntity
  8
Ｓ_１_１
  6
CONTINUOUS
 62
     3
100
AcDbLine
 10
376.9999969999999
 20
296.500001
 30
0.0
 11
376.9999969999999
 21
294.499998
 31
0.0
  0
LINE
  5
262
330
1F
100
AcDbEntity
  8
Ｓ_１_１
  6
CONTINUOUS
 62
     3
100
AcDbLine
 10
376.9999969999999
 20
305.999999
 30
0.0
 11
388.9999939999998
 21
305.999999
 31
0.0
  0
LINE
  5
263
330
1F
100
AcDbEntity
  8
Ｓ_１_１
  6
CONTINUOUS
 62
     3
100
AcDbLine
 10
388.9999939999998
 20
273.499999
 30
0.0
 11
388.9999939999998
 21
275.499997
 31
0.0
  0
LINE
  5
264
330
1F
100
AcDbEntity
  8
Ｓ_１_１
  6
CONTINUOUS
 62
     3
100
AcDbLine
 10
376.9999969999999
 20
273.499999
 30
0.0
 11
376.9999969999999
 21
275.499997
 31
0.0
  0
LINE
  5
265
330
1F
100
AcDbEntity
  8
Ｓ_１_１
  6
CONTINUOUS
 62
     3
100
AcDbLine
 10
376.9999969999999
 20
263.999996
 30
0.0
 11
388.9999939999998
 21
263.999996
 31
0.0
  0
LINE
  5
266
330
1F
100
AcDbEntity
  8
Ｓ_１_１
  6
CONTINUOUS
 62
     3
100
AcDbLine
 10
384.9999939999998
 20
275.499992
 30
0.0
 11
384.9999939999998
 21
294.499998
 31
0.0
  0
LINE
  5
267
330
1F
100
AcDbEntity
  8
Ｓ_１_１
  6
CONTINUOUS
 62
     3
100
AcDbLine
 10
401.9999959999998
 20
275.499992
 30
0.0
 11
365.9999929999999
 21
275.499992
 31
0.0
  0
LINE
  5
268
330
1F
100
AcDbEntity
  8
Ｓ_１_１
  6
CONTINUOUS
 62
     3
100
AcDbLine
 10
401.9999959999998
 20
294.499998
 30
0.0
 11
365.9999929999999
 21
294.499998
 31
0.0
  0
LINE
  5
269
330
1F
100
AcDbEntity
  8
Ｓ_１_１
  6
CONTINUOUS
 62
     3
100
AcDbLine
 10
365.9999929999999
 20
275.499992
 30
0.0
 11
365.9999929999999
 21
294.499998
 31
0.0
  0
LINE
  5
26A
330
1F
100
AcDbEntity
  8
Ｓ_１_１
  6
CONTINUOUS
 62
     3
100
AcDbLine
 10
401.9999959999998
 20
275.499992
 30
0.0
 11
401.9999959999998
 21
294.499998
 31
0.0
  0
LINE
  5
26B
330
1F
100
AcDbEntity
  8
Ｓ_１_１
  6
CONTINUOUS
 62
     3
100
AcDbLine
 10
400.9999919999998
 20
273.499999
 30
0.0
 11
400.9999919999998
 21
264.499998
 31
0.0
  0
LINE
  5
26C
330
1F
100
AcDbEntity
  8
Ｓ_１_１
  6
CONTINUOUS
 62
     3
100
AcDbLine
 10
400.9999919999998
 20
305.499997
 30
0.0
 11
400.9999919999998
 21
296.500001
 31
0.0
  0
LINE
  5
26D
330
1F
100
AcDbEntity
  8
Ｓ_１_１
  6
CONTINUOUS
 62
     3
100
AcDbLine
 10
362.7617919999998
 20
305.499997
 30
0.0
 11
400.9999919999998
 21
305.499997
 31
0.0
  0
LINE
  5
26E
330
1F
100
AcDbEntity
  8
Ｓ_１_１
  6
CONTINUOUS
 62
     3
100
AcDbLine
 10
362.7617919999998
 20
264.499998
 30
0.0
 11
400.9999919999998
 21
264.499998
 31
0.0
  0
LINE
  5
26F
330
1F
100
AcDbEntity
  8
Ｓ_１_１
  6
CONTINUOUS
 62
     3
100
AcDbLine
 10
364.3013749999999
 20
296.500001
 30
0.0
 11
400.9999919999998
 21
296.500001
 31
0.0
  0
LINE
  5
270
330
1F
100
AcDbEntity
  8
Ｓ_１_１
  6
CONTINUOUS
 62
     3
100
AcDbLine
 10
364.3013749999999
 20
273.499999
 30
0.0
 11
400.9999919999998
 21
273.499999
 31
0.0
  0
LINE
  5
271
330
1F
100
AcDbEntity
  8
Ｓ_１_１
  6
EXLTYPE2
 62
     1
100
AcDbLine
 10
130.25
 20
285.0
 30
0.0
 11
408.75
 21
285.0000000000001
 31
0.0
  0
LINE
  5
272
330
1F
100
AcDbEntity
  8
Ｓ_１_１
  6
EXLTYPE2
 62
     1
100
AcDbLine
 10
486.425
 20
285.0
 30
0.0
 11
876.668205
 21
285.0
 31
0.0
  0
LINE
  5
273
330
1F
100
AcDbEntity
  8
Ｓ_１_１
  6
EXLTYPE2
 62
     1
100
AcDbLine
 10
575.0000039999999
 20
481.0
 30
0.0
 11
575.0000039999999
 21
365.417761
 31
0.0
  0
LINE
  5
274
330
1F
100
AcDbEntity
  8
Ｓ_１_１
  6
EXLTYPE2
 62
     1
100
AcDbLine
 10
269.9999999999999
 20
481.0
 30
0.0
 11
269.9999999999999
 21
181.75
 31
0.0
  0
LINE
  5
275
330
1F
100
AcDbEntity
  8
Ｓ_１_１
  6
CONTINUOUS
 62
     3
100
AcDbLine
 10
258.5000000000002
 20
386.3622780000091
 30
0.0
 11
270.0000000000002
 21
386.362278000009
 31
0.0
  0
LINE
  5
276
330
1F
100
AcDbEntity
  8
Ｓ_１_１
  6
CONTINUOUS
 62
     3
100
AcDbLine
 10
270.0000000000002
 20
386.362278000009
 30
0.0
 11
281.5000000000002
 21
386.362278000009
 31
0.0
  0
LINE
  5
277
330
1F
100
AcDbEntity
  8
Ｓ_１_１
  6
CONTINUOUS
 62
     3
100
AcDbLine
 10
258.5000000000002
 20
419.362278000009
 30
0.0
 11
270.0000000000002
 21
419.362278000009
 31
0.0
  0
LINE
  5
278
330
1F
100
AcDbEntity
  8
Ｓ_１_１
  6
CONTINUOUS
 62
     3
100
AcDbLine
 10
270.0000000000002
 20
419.362278000009
 30
0.0
 11
281.5000000000002
 21
419.362278000009
 31
0.0
  0
LINE
  5
279
330
1F
100
AcDbEntity
  8
Ｓ_１_１
  6
CONTINUOUS
 62
     3
100
AcDbLine
 10
281.5000013689003
 20
419.3622795587087
 30
0.0
 11
282.5000014189002
 21
418.3622794243087
 31
0.0
  0
LINE
  5
27A
330
1F
100
AcDbEntity
  8
Ｓ_１_１
  6
CONTINUOUS
 62
     3
100
AcDbLine
 10
282.5000007867
 20
387.3622769029087
 30
0.0
 11
281.5000009896
 21
386.3622771900089
 31
0.0
  0
LINE
  5
27B
330
1F
100
AcDbEntity
  8
Ｓ_１_１
  6
CONTINUOUS
 62
     3
100
AcDbLine
 10
257.5000000481002
 20
387.362278075809
 30
0.0
 11
258.5000001752003
 21
386.3622780330087
 31
0.0
  0
LINE
  5
27C
330
1F
100
AcDbEntity
  8
Ｓ_１_１
  6
CONTINUOUS
 62
     3
100
AcDbLine
 10
258.4999997116004
 20
419.362278462809
 30
0.0
 11
257.4999999987001
 21
418.3622786657086
 31
0.0
  0
LINE
  5
27D
330
1F
100
AcDbEntity
  8
Ｓ_１_１
  6
CONTINUOUS
 62
     3
100
AcDbLine
 10
257.5000000000002
 20
418.362278000009
 30
0.0
 11
282.5000000000002
 21
418.362278000009
 31
0.0
  0
LINE
  5
27E
330
1F
100
AcDbEntity
  8
Ｓ_１_１
  6
CONTINUOUS
 62
     3
100
AcDbLine
 10
257.5000000000002
 20
387.362278000009
 30
0.0
 11
282.5000000000002
 21
387.362278000009
 31
0.0
  0
LINE
  5
27F
330
1F
100
AcDbEntity
  8
Ｓ_１_１
  6
CONTINUOUS
 62
     3
100
AcDbLine
 10
278.2648620000002
 20
420.7245500000199
 30
0.0
 11
261.7351450000003
 21
420.7245500000199
 31
0.0
  0
LINE
  5
280
330
1F
100
AcDbEntity
  8
Ｓ_１_１
  6
CONTINUOUS
 62
     3
100
AcDbLine
 10
262.8201190000002
 20
426.8622510000199
 30
0.0
 11
262.4365110000001
 21
420.7245380000199
 31
0.0
  0
LINE
  5
281
330
1F
100
AcDbEntity
  8
Ｓ_１_１
  6
CONTINUOUS
 62
     3
100
AcDbLine
 10
262.118749
 20
426.8622690000199
 30
0.0
 11
261.6499980000001
 21
419.3622550000198
 31
0.0
  0
LINE
  5
282
330
1F
100
AcDbEntity
  8
Ｓ_１_１
  6
CONTINUOUS
 62
     3
100
AcDbLine
 10
262.4365260000002
 20
420.7245580000199
 30
0.0
 11
261.6500110000002
 21
419.3622750000199
 31
0.0
  0
LINE
  5
283
330
1F
100
AcDbEntity
  8
Ｓ_１_１
  6
CONTINUOUS
 62
     3
100
AcDbLine
 10
277.8812500000001
 20
426.8622810000199
 30
0.0
 11
278.3500030000002
 21
419.3622360000199
 31
0.0
  0
LINE
  5
284
330
1F
100
AcDbEntity
  8
Ｓ_１_１
  6
CONTINUOUS
 62
     3
100
AcDbLine
 10
278.3499890000001
 20
419.3622590000199
 30
0.0
 11
277.5634830000001
 21
420.7245290000199
 31
0.0
  0
LINE
  5
285
330
1F
100
AcDbEntity
  8
Ｓ_１_１
  6
CONTINUOUS
 62
     3
100
AcDbLine
 10
277.1798880000003
 20
426.8622630000199
 30
0.0
 11
277.5634970000003
 21
420.7245200000199
 31
0.0
  0
LINE
  5
286
330
1F
100
AcDbEntity
  8
Ｓ_１_１
  6
CONTINUOUS
 62
     3
100
AcDbLine
 10
278.2648620000002
 20
385.0000059999999
 30
0.0
 11
261.7351450000003
 21
385.0000059999999
 31
0.0
  0
LINE
  5
287
330
1F
100
AcDbEntity
  8
Ｓ_１_１
  6
CONTINUOUS
 62
     3
100
AcDbLine
 10
278.3500120000001
 20
386.3622969999998
 30
0.0
 11
277.5634980000002
 21
385.0000139999999
 31
0.0
  0
LINE
  5
288
330
1F
100
AcDbEntity
  8
Ｓ_１_１
  6
CONTINUOUS
 62
     3
100
AcDbLine
 10
262.4365030000001
 20
384.9999979999998
 30
0.0
 11
261.6499960000003
 21
386.3622679999999
 31
0.0
  0
ARC
  5
289
330
1F
100
AcDbEntity
  8
Ｓ_１_１
  6
CONTINUOUS
 62
     3
100
AcDbCircle
 10
280.3922884999899
 20
427.7284440000183
 30
0.0
 40
6.133925000000002
100
AcDbArc
 50
55.61543800000034
 51
124.3845830000003
  0
ARC
  5
28A
330
1F
100
AcDbEntity
  8
Ｓ_１_１
  6
CONTINUOUS
 62
     3
100
AcDbCircle
 10
269.99998449999
 20
410.9341320000183
 30
0.0
 40
22.927938
100
AcDbArc
 50
72.411858
 51
107.5881660000001
  0
ARC
  5
28B
330
1F
100
AcDbEntity
  8
Ｓ_１_１
  6
CONTINUOUS
 62
     3
100
AcDbCircle
 10
259.6076504999903
 20
432.9961440000182
 30
0.0
 40
6.133925000000002
100
AcDbArc
 50
235.6154019999991
 51
304.3845609999998
  0
ARC
  5
28C
330
1F
100
AcDbEntity
  8
Ｓ_１_１
  6
CONTINUOUS
 62
     3
100
AcDbCircle
 10
265.4999844999904
 20
470.8621110000184
 30
0.0
 40
1.0
100
AcDbArc
 50
89.99997799999524
 51
179.9999749999976
  0
ARC
  5
28D
330
1F
100
AcDbEntity
  8
Ｓ_１_１
  6
CONTINUOUS
 62
     3
100
AcDbCircle
 10
259.6076504999903
 20
427.7284440000183
 30
0.0
 40
6.133925000000002
100
AcDbArc
 50
55.6153689999997
 51
124.384513999999
  0
ARC
  5
28E
330
1F
100
AcDbEntity
  8
Ｓ_１_１
  6
CONTINUOUS
 62
     3
100
AcDbCircle
 10
269.99998449999
 20
449.7902110000185
 30
0.0
 40
22.927942
100
AcDbArc
 50
252.4118210000002
 51
287.5881150000001
  0
ARC
  5
28F
330
1F
100
AcDbEntity
  8
Ｓ_１_１
  6
CONTINUOUS
 62
     3
100
AcDbCircle
 10
280.3922884999899
 20
432.9961440000182
 30
0.0
 40
6.133925000000002
100
AcDbArc
 50
235.6154159999998
 51
304.3845739999999
  0
ARC
  5
290
330
1F
100
AcDbEntity
  8
Ｓ_１_１
  6
CONTINUOUS
 62
     3
100
AcDbCircle
 10
274.4999544999898
 20
470.8621110000184
 30
0.0
 40
1.0
100
AcDbArc
 50
359.9999970000023
 51
89.9999780000017
  0
LINE
  5
291
330
1F
100
AcDbEntity
  8
Ｓ_１_１
  6
CONTINUOUS
 62
     3
100
AcDbLine
 10
268.50001549999
 20
473.8622330000183
 30
0.0
 11
271.49998449999
 21
473.8622330000183
 31
0.0
  0
LINE
  5
292
330
1F
100
AcDbEntity
  8
Ｓ_１_１
  6
CONTINUOUS
 62
     3
100
AcDbLine
 10
257.9999844999904
 20
426.8623550000183
 30
0.0
 11
281.9999544999898
 21
426.8623550000183
 31
0.0
  0
LINE
  5
293
330
1F
100
AcDbEntity
  8
Ｓ_１_１
  6
CONTINUOUS
 62
     3
100
AcDbLine
 10
264.4999544999903
 20
470.8621110000184
 30
0.0
 11
264.4999544999903
 21
461.8623550000183
 31
0.0
  0
LINE
  5
294
330
1F
100
AcDbEntity
  8
Ｓ_１_１
  6
CONTINUOUS
 62
     3
100
AcDbLine
 10
264.4999544999903
 20
461.8623550000183
 30
0.0
 11
275.49998449999
 21
461.8623550000183
 31
0.0
  0
LINE
  5
295
330
1F
100
AcDbEntity
  8
Ｓ_１_１
  6
CONTINUOUS
 62
     3
100
AcDbLine
 10
261.0000154999905
 20
458.3621110000184
 30
0.0
 11
261.0000154999905
 21
456.3622330000183
 31
0.0
  0
LINE
  5
296
330
1F
100
AcDbEntity
  8
Ｓ_１_１
  6
CONTINUOUS
 62
     3
100
AcDbLine
 10
278.99998449999
 20
458.3621110000184
 30
0.0
 11
278.99998449999
 21
456.3622330000183
 31
0.0
  0
LINE
  5
297
330
1F
100
AcDbEntity
  8
Ｓ_１_１
  6
CONTINUOUS
 62
     3
100
AcDbLine
 10
258.7499844999904
 20
442.8622330000184
 30
0.0
 11
281.24998449999
 21
442.8622330000184
 31
0.0
  0
LINE
  5
298
330
1F
100
AcDbEntity
  8
Ｓ_１_１
  6
CONTINUOUS
 62
     3
100
AcDbLine
 10
281.74998449999
 20
442.3622330000183
 30
0.0
 11
281.74998449999
 21
433.8622330000183
 31
0.0
  0
LINE
  5
299
330
1F
100
AcDbEntity
  8
Ｓ_１_１
  6
CONTINUOUS
 62
     3
100
AcDbLine
 10
258.2499544999903
 20
442.3622330000183
 30
0.0
 11
258.2499544999903
 21
433.8622330000183
 31
0.0
  0
LINE
  5
29A
330
1F
100
AcDbEntity
  8
Ｓ_１_１
  6
CONTINUOUS
 62
     3
100
AcDbLine
 10
256.1436164999902
 20
427.9342070000183
 30
0.0
 11
257.9999884999904
 21
426.8624300000187
 31
0.0
  0
LINE
  5
29B
330
1F
100
AcDbEntity
  8
Ｓ_１_１
  6
CONTINUOUS
 62
     3
100
AcDbLine
 10
281.9999114999898
 20
433.8624240000184
 30
0.0
 11
283.85638949999
 21
432.7905850000182
 31
0.0
  0
LINE
  5
29C
330
1F
100
AcDbEntity
  8
Ｓ_１_１
  6
CONTINUOUS
 62
     3
100
AcDbLine
 10
281.9999534999899
 20
426.8623880000185
 30
0.0
 11
283.85632649999
 21
427.9341650000186
 31
0.0
  0
LINE
  5
29D
330
1F
100
AcDbEntity
  8
Ｓ_１_１
  6
CONTINUOUS
 62
     3
100
AcDbLine
 10
256.1436234999903
 20
432.7907250000183
 30
0.0
 11
257.9999964999904
 21
433.8625020000184
 31
0.0
  0
LINE
  5
29E
330
1F
100
AcDbEntity
  8
Ｓ_１_１
  6
CONTINUOUS
 62
     3
100
AcDbLine
 10
283.8563994999897
 20
432.7904550000183
 30
0.0
 11
283.8563994999897
 21
427.9341320000183
 31
0.0
  0
LINE
  5
29F
330
1F
100
AcDbEntity
  8
Ｓ_１_１
  6
CONTINUOUS
 62
     3
100
AcDbLine
 10
276.9282074999899
 20
432.7904550000183
 30
0.0
 11
276.9282074999899
 21
427.9341320000183
 31
0.0
  0
LINE
  5
2A0
330
1F
100
AcDbEntity
  8
Ｓ_１_１
  6
CONTINUOUS
 62
     3
100
AcDbLine
 10
263.0718534999903
 20
432.7904550000183
 30
0.0
 11
263.0718534999903
 21
427.9341320000183
 31
0.0
  0
LINE
  5
2A1
330
1F
100
AcDbEntity
  8
Ｓ_１_１
  6
CONTINUOUS
 62
     3
100
AcDbLine
 10
256.1435854999902
 20
432.7904550000183
 30
0.0
 11
256.1435854999902
 21
427.9341320000183
 31
0.0
  0
LINE
  5
2A2
330
1F
100
AcDbEntity
  8
Ｓ_１_１
  6
CONTINUOUS
 62
     3
100
AcDbLine
 10
257.9999844999904
 20
433.8622330000183
 30
0.0
 11
281.9999544999898
 21
433.8622330000183
 31
0.0
  0
LINE
  5
2A3
330
1F
100
AcDbEntity
  8
Ｓ_１_１
  6
CONTINUOUS
 62
     3
100
AcDbLine
 10
265.4999844999904
 20
471.8623550000187
 30
0.0
 11
274.4999544999898
 21
471.8623550000187
 31
0.0
  0
LINE
  5
2A4
330
1F
100
AcDbEntity
  8
Ｓ_１_１
  6
CONTINUOUS
 62
     3
100
AcDbLine
 10
271.49984349999
 20
473.8624200000184
 30
0.0
 11
273.4998884999898
 21
471.8623750000186
 31
0.0
  0
LINE
  5
2A5
330
1F
100
AcDbEntity
  8
Ｓ_１_１
  6
CONTINUOUS
 62
     3
100
AcDbLine
 10
266.4998164999904
 20
471.8624180000182
 30
0.0
 11
268.4997754999897
 21
473.8623770000184
 31
0.0
  0
LINE
  5
2A6
330
1F
100
AcDbEntity
  8
Ｓ_１_１
  6
CONTINUOUS
 62
     3
100
AcDbLine
 10
262.4999844999904
 20
453.3621110000184
 30
0.0
 11
277.49998449999
 21
453.3621110000184
 31
0.0
  0
LINE
  5
2A7
330
1F
100
AcDbEntity
  8
Ｓ_１_１
  6
CONTINUOUS
 62
     3
100
AcDbLine
 10
262.4999844999904
 20
454.8622330000183
 30
0.0
 11
277.49998449999
 21
454.8622330000183
 31
0.0
  0
LINE
  5
2A8
330
1F
100
AcDbEntity
  8
Ｓ_１_１
  6
CONTINUOUS
 62
     3
100
AcDbLine
 10
261.0000154999905
 20
458.3621110000184
 30
0.0
 11
278.99998449999
 21
458.3621110000184
 31
0.0
  0
LINE
  5
2A9
330
1F
100
AcDbEntity
  8
Ｓ_１_１
  6
CONTINUOUS
 62
     3
100
AcDbLine
 10
278.99998449999
 20
451.8623550000183
 30
0.0
 11
278.99998449999
 21
442.8622330000184
 31
0.0
  0
LINE
  5
2AA
330
1F
100
AcDbEntity
  8
Ｓ_１_１
  6
CONTINUOUS
 62
     3
100
AcDbLine
 10
261.0000154999905
 20
451.8623550000183
 30
0.0
 11
261.0000154999905
 21
442.8622330000184
 31
0.0
  0
LINE
  5
2AB
330
1F
100
AcDbEntity
  8
Ｓ_１_１
  6
CONTINUOUS
 62
     3
100
AcDbLine
 10
260.9998724999903
 20
456.3622540000186
 30
0.0
 11
262.4998844999902
 21
454.8622410000183
 31
0.0
  0
LINE
  5
2AC
330
1F
100
AcDbEntity
  8
Ｓ_１_１
  6
CONTINUOUS
 62
     3
100
AcDbLine
 10
277.4999504999898
 20
454.8622400000184
 30
0.0
 11
278.9998334999898
 21
456.3621230000184
 31
0.0
  0
LINE
  5
2AD
330
1F
100
AcDbEntity
  8
Ｓ_１_１
  6
CONTINUOUS
 62
     3
100
AcDbLine
 10
261.0000154999905
 20
456.3622330000183
 30
0.0
 11
278.99998449999
 21
456.3622330000183
 31
0.0
  0
LINE
  5
2AE
330
1F
100
AcDbEntity
  8
Ｓ_１_１
  6
CONTINUOUS
 62
     3
100
AcDbLine
 10
260.9999864999902
 20
451.8623880000185
 30
0.0
 11
262.4998694999902
 21
453.3622710000185
 31
0.0
  0
LINE
  5
2AF
330
1F
100
AcDbEntity
  8
Ｓ_１_１
  6
CONTINUOUS
 62
     3
100
AcDbLine
 10
277.4998364999899
 20
453.3622290000183
 30
0.0
 11
278.9998494999898
 21
451.8622170000183
 31
0.0
  0
LINE
  5
2B0
330
1F
100
AcDbEntity
  8
Ｓ_１_１
  6
CONTINUOUS
 62
     3
100
AcDbLine
 10
258.2499544999903
 20
442.3622330000183
 30
0.0
 11
281.74998449999
 21
442.3622330000183
 31
0.0
  0
LINE
  5
2B1
330
1F
100
AcDbEntity
  8
Ｓ_１_１
  6
CONTINUOUS
 62
     3
100
AcDbLine
 10
261.0000154999905
 20
451.8623550000183
 30
0.0
 11
278.99998449999
 21
451.8623550000183
 31
0.0
  0
LINE
  5
2B2
330
1F
100
AcDbEntity
  8
Ｓ_１_１
  6
CONTINUOUS
 62
     3
100
AcDbLine
 10
262.4999844999904
 20
454.8622330000183
 30
0.0
 11
262.4999844999904
 21
453.3621110000184
 31
0.0
  0
LINE
  5
2B3
330
1F
100
AcDbEntity
  8
Ｓ_１_１
  6
CONTINUOUS
 62
     3
100
AcDbLine
 10
277.49998449999
 20
454.8622330000183
 30
0.0
 11
277.49998449999
 21
453.3621110000184
 31
0.0
  0
LINE
  5
2B4
330
1F
100
AcDbEntity
  8
Ｓ_１_１
  6
CONTINUOUS
 62
     3
100
AcDbLine
 10
281.2498804999898
 20
442.8623220000185
 30
0.0
 11
281.74982749999
 21
442.3623760000186
 31
0.0
  0
LINE
  5
2B5
330
1F
100
AcDbEntity
  8
Ｓ_１_１
  6
CONTINUOUS
 62
     3
100
AcDbLine
 10
258.2499094999905
 20
442.3623240000182
 30
0.0
 11
258.7498074999905
 21
442.8622330000184
 31
0.0
  0
LINE
  5
2B6
330
1F
100
AcDbEntity
  8
Ｓ_１_１
  6
CONTINUOUS
 62
     3
100
AcDbLine
 10
260.9999434999902
 20
458.3623420000184
 30
0.0
 11
264.4999574999904
 21
461.8623560000186
 31
0.0
  0
LINE
  5
2B7
330
1F
100
AcDbEntity
  8
Ｓ_１_１
  6
CONTINUOUS
 62
     3
100
AcDbLine
 10
275.4998344999901
 20
461.8621420000184
 30
0.0
 11
278.9998054999899
 21
458.3621700000184
 31
0.0
  0
LINE
  5
2B8
330
1F
100
AcDbEntity
  8
Ｓ_１_１
  6
CONTINUOUS
 62
     3
100
AcDbLine
 10
275.49998449999
 20
470.8621110000184
 30
0.0
 11
275.49998449999
 21
461.8623550000183
 31
0.0
  0
LINE
  5
2B9
330
1F
100
AcDbEntity
  8
Ｓ_１_１
  6
CONTINUOUS
 62
     3
100
AcDbLine
 10
319.0000000000007
 20
407.112278000009
 30
0.0
 11
324.0000000000007
 21
407.112278000009
 31
0.0
  0
LINE
  5
2BA
330
1F
100
AcDbEntity
  8
Ｓ_１_１
  6
CONTINUOUS
 62
     3
100
AcDbLine
 10
319.0000000000007
 20
398.612278000009
 30
0.0
 11
324.0000000000007
 21
398.612278000009
 31
0.0
  0
LINE
  5
2BB
330
1F
100
AcDbEntity
  8
Ｓ_１_１
  6
CONTINUOUS
 62
     3
100
AcDbLine
 10
319.0000000000007
 20
397.862278000009
 30
0.0
 11
323.2500000000006
 21
397.862278000009
 31
0.0
  0
LINE
  5
2BC
330
1F
100
AcDbEntity
  8
Ｓ_１_１
  6
CONTINUOUS
 62
     3
100
AcDbLine
 10
319.0000000000007
 20
407.862278000009
 30
0.0
 11
323.2500000000006
 21
407.862278000009
 31
0.0
  0
LINE
  5
2BD
330
1F
100
AcDbEntity
  8
Ｓ_１_１
  6
CONTINUOUS
 62
     3
100
AcDbLine
 10
324.0000000000007
 20
398.612278000009
 30
0.0
 11
324.0000000000007
 21
407.112278000009
 31
0.0
  0
LINE
  5
2BE
330
1F
100
AcDbEntity
  8
Ｓ_１_１
  6
CONTINUOUS
 62
     3
100
AcDbLine
 10
323.2500000000006
 20
397.862278000009
 30
0.0
 11
323.2500000000006
 21
407.862278000009
 31
0.0
  0
LINE
  5
2BF
330
1F
100
AcDbEntity
  8
Ｓ_１_１
  6
CONTINUOUS
 62
     3
100
AcDbLine
 10
323.2500025577008
 20
397.862279125009
 30
0.0
 11
324.0000006565008
 21
398.6122772870089
 31
0.0
  0
LINE
  5
2C0
330
1F
100
AcDbEntity
  8
Ｓ_１_１
  6
CONTINUOUS
 62
     3
100
AcDbLine
 10
324.0000016470005
 20
407.1122799253088
 30
0.0
 11
323.2500014619006
 21
407.8622800471088
 31
0.0
  0
LINE
  5
2C1
330
1F
100
AcDbEntity
  8
Ｓ_１_１
  6
CONTINUOUS
 62
     3
100
AcDbLine
 10
312.0000000000007
 20
402.862278000009
 30
0.0
 11
312.0000000000007
 21
412.862278000009
 31
0.0
  0
LINE
  5
2C2
330
1F
100
AcDbEntity
  8
Ｓ_１_１
  6
CONTINUOUS
 62
     3
100
AcDbLine
 10
312.0000000000007
 20
392.862278000009
 30
0.0
 11
312.0000000000007
 21
402.862278000009
 31
0.0
  0
LINE
  5
2C3
330
1F
100
AcDbEntity
  8
Ｓ_１_１
  6
CONTINUOUS
 62
     3
100
AcDbLine
 10
312.0000005510008
 20
412.8622774490089
 30
0.0
 11
313.0000005800005
 21
411.8622773357086
 31
0.0
  0
LINE
  5
2C4
330
1F
100
AcDbEntity
  8
Ｓ_１_１
  6
CONTINUOUS
 62
     3
100
AcDbLine
 10
313.0000002849008
 20
393.862278200609
 30
0.0
 11
312.0000004877008
 21
392.8622784877087
 31
0.0
  0
LINE
  5
2C5
330
1F
100
AcDbEntity
  8
Ｓ_１_１
  6
CONTINUOUS
 62
     3
100
AcDbLine
 10
313.0000000000007
 20
393.862278200609
 30
0.0
 11
313.0000000000007
 21
402.862278000009
 31
0.0
  0
LINE
  5
2C6
330
1F
100
AcDbEntity
  8
Ｓ_１_１
  6
CONTINUOUS
 62
     3
100
AcDbLine
 10
313.0000000000007
 20
402.862278000009
 30
0.0
 11
313.0000000000007
 21
411.8622773357086
 31
0.0
  0
LINE
  5
2C7
330
1F
100
AcDbEntity
  8
Ｓ_１_１
  6
CONTINUOUS
 62
     3
100
AcDbLine
 10
282.5000000000002
 20
412.862278000009
 30
0.0
 11
312.0000000000007
 21
412.862278000009
 31
0.0
  0
LINE
  5
2C8
330
1F
100
AcDbEntity
  8
Ｓ_１_１
  6
CONTINUOUS
 62
     3
100
AcDbLine
 10
318.9999981656008
 20
410.354690663209
 30
0.0
 11
317.9999979724005
 21
412.3622772529087
 31
0.0
  0
LINE
  5
2C9
330
1F
100
AcDbEntity
  8
Ｓ_１_１
  6
CONTINUOUS
 62
     3
100
AcDbLine
 10
318.9999995145006
 20
395.3698642440089
 30
0.0
 11
317.9999993213007
 21
393.3622776543087
 31
0.0
  0
LINE
  5
2CA
330
1F
100
AcDbEntity
  8
Ｓ_１_１
  6
CONTINUOUS
 62
     3
100
AcDbLine
 10
312.9999999766007
 20
410.354691306209
 30
0.0
 11
314.0000001698006
 21
412.3622778959087
 31
0.0
  0
LINE
  5
2CB
330
1F
100
AcDbEntity
  8
Ｓ_１_１
  6
CONTINUOUS
 62
     3
100
AcDbLine
 10
312.9999984859007
 20
395.3698638857089
 30
0.0
 11
313.9999985375005
 21
393.3622775805087
 31
0.0
  0
LINE
  5
2CC
330
1F
100
AcDbEntity
  8
Ｓ_１_１
  6
CONTINUOUS
 62
     3
100
AcDbLine
 10
314.0000000000007
 20
393.362278000009
 30
0.0
 11
318.0000000000007
 21
393.362278000009
 31
0.0
  0
LINE
  5
2CD
330
1F
100
AcDbEntity
  8
Ｓ_１_１
  6
CONTINUOUS
 62
     3
100
AcDbLine
 10
314.0000000000007
 20
412.362278000009
 30
0.0
 11
318.0000000000007
 21
412.362278000009
 31
0.0
  0
LINE
  5
2CE
330
1F
100
AcDbEntity
  8
Ｓ_１_１
  6
CONTINUOUS
 62
     3
100
AcDbLine
 10
319.0000000000007
 20
402.862278000009
 30
0.0
 11
319.0000000000007
 21
410.3546918387091
 31
0.0
  0
LINE
  5
2CF
330
1F
100
AcDbEntity
  8
Ｓ_１_１
  6
CONTINUOUS
 62
     3
100
AcDbLine
 10
319.0000000000007
 20
395.369864161309
 30
0.0
 11
319.0000000000007
 21
402.862278000009
 31
0.0
  0
ARC
  5
2D0
330
1F
100
AcDbEntity
  8
Ｓ_１_１
  6
CONTINUOUS
 62
     3
100
AcDbCircle
 10
328.5416666667008
 20
402.862278000009
 30
0.0
 40
15.5416666667
100
AcDbArc
 50
159.3345163543002
 51
159.3345238904477
  0
ARC
  5
2D1
330
1F
100
AcDbEntity
  8
Ｓ_１_１
  6
CONTINUOUS
 62
     3
100
AcDbCircle
 10
303.4583333333005
 20
402.862278000009
 30
0.0
 40
15.5416666667
100
AcDbArc
 50
20.66547610955293
 51
20.66547840939962
  0
ARC
  5
2D2
330
1F
100
AcDbEntity
  8
Ｓ_１_１
  6
CONTINUOUS
 62
     3
100
AcDbCircle
 10
328.5416666667008
 20
402.862278000009
 30
0.0
 40
15.5416666667
100
AcDbArc
 50
162.8126324028145
 51
197.1873680951787
  0
ARC
  5
2D3
330
1F
100
AcDbEntity
  8
Ｓ_１_１
  6
CONTINUOUS
 62
     3
100
AcDbCircle
 10
328.5416666667008
 20
402.862278000009
 30
0.0
 40
15.5416666667
100
AcDbArc
 50
200.6654786560356
 51
200.6654800033002
  0
ARC
  5
2D4
330
1F
100
AcDbEntity
  8
Ｓ_１_１
  6
CONTINUOUS
 62
     3
100
AcDbCircle
 10
303.4583333333005
 20
402.862278000009
 30
0.0
 40
15.5416666667
100
AcDbArc
 50
342.8126319048212
 51
17.18736759718547
  0
LINE
  5
2D5
330
1F
100
AcDbEntity
  8
Ｓ_１_１
  6
CONTINUOUS
 62
     3
100
AcDbLine
 10
318.3059641178627
 20
407.4548004946891
 30
0.0
 11
313.6940358821387
 21
407.4548004946891
 31
0.0
  0
LINE
  5
2D6
330
1F
100
AcDbEntity
  8
Ｓ_１_１
  6
CONTINUOUS
 62
     3
100
AcDbLine
 10
318.3059640779463
 20
398.269755376279
 30
0.0
 11
313.694035922055
 21
398.269755376279
 31
0.0
  0
ARC
  5
2D7
330
1F
100
AcDbEntity
  8
Ｓ_１_１
  6
CONTINUOUS
 62
     3
100
AcDbCircle
 10
313.0000000000007
 20
395.3698608460189
 30
0.0
 40
6.000000000001596
100
AcDbArc
 50
0.0000417559226242
 51
28.90218407791362
  0
ARC
  5
2D8
330
1F
100
AcDbEntity
  8
Ｓ_１_１
  6
CONTINUOUS
 62
     3
100
AcDbCircle
 10
319.0000000000007
 20
395.369865218689
 30
0.0
 40
6.000000000001596
100
AcDbArc
 50
151.0978636188124
 51
180.0000417558857
  0
ARC
  5
2D9
330
1F
100
AcDbEntity
  8
Ｓ_１_１
  6
CONTINUOUS
 62
     3
100
AcDbCircle
 10
319.0000000000007
 20
410.354691353189
 30
0.0
 40
6.000000000000006
100
AcDbArc
 50
179.9999920172612
 51
208.9021440266621
  0
ARC
  5
2DA
330
1F
100
AcDbEntity
  8
Ｓ_１_１
  6
CONTINUOUS
 62
     3
100
AcDbCircle
 10
313.0000000000007
 20
410.354691353189
 30
0.0
 40
6.000000000001596
100
AcDbArc
 50
331.0978559733464
 51
0.0
  0
LINE
  5
2DB
330
1F
100
AcDbEntity
  8
Ｓ_１_１
  6
CONTINUOUS
 62
     3
100
AcDbLine
 10
282.5000000000002
 20
392.862278000009
 30
0.0
 11
312.0000000000007
 21
392.862278000009
 31
0.0
  0
LINE
  5
2DC
330
1F
100
AcDbEntity
  8
Ｓ_１_１
  6
EXLTYPE2
 62
     1
100
AcDbLine
 10
256.1188507080003
 20
402.862278000009
 30
0.0
 11
325.0114479065007
 21
402.862278000009
 31
0.0
  0
LINE
  5
2DD
330
1F
100
AcDbEntity
  8
Ｓ_１_１
  6
CONTINUOUS
 62
     3
100
AcDbLine
 10
257.5000000000002
 20
387.362278000009
 30
0.0
 11
257.5000000000002
 21
418.362278000009
 31
0.0
  0
LINE
  5
2DE
330
1F
100
AcDbEntity
  8
Ｓ_１_１
  6
CONTINUOUS
 62
     3
100
AcDbLine
 10
282.5000000000002
 20
387.362278000009
 30
0.0
 11
282.5000000000002
 21
418.362278000009
 31
0.0
  0
LINE
  5
2DF
330
1F
100
AcDbEntity
  8
Ｓ_１_１
  6
CONTINUOUS
 62
     3
100
AcDbLine
 10
563.50000399999
 20
386.3622780000091
 30
0.0
 11
575.00000399999
 21
386.3622780000091
 31
0.0
  0
LINE
  5
2E0
330
1F
100
AcDbEntity
  8
Ｓ_１_１
  6
CONTINUOUS
 62
     3
100
AcDbLine
 10
575.00000399999
 20
386.3622780000091
 30
0.0
 11
586.50000399999
 21
386.3622780000091
 31
0.0
  0
LINE
  5
2E1
330
1F
100
AcDbEntity
  8
Ｓ_１_１
  6
CONTINUOUS
 62
     3
100
AcDbLine
 10
587.50000399999
 20
387.362278000009
 30
0.0
 11
587.50000399999
 21
402.862278000009
 31
0.0
  0
LINE
  5
2E2
330
1F
100
AcDbEntity
  8
Ｓ_１_１
  6
CONTINUOUS
 62
     3
100
AcDbLine
 10
587.50000399999
 20
418.362278000009
 30
0.0
 11
587.50000399999
 21
402.862278000009
 31
0.0
  0
LINE
  5
2E3
330
1F
100
AcDbEntity
  8
Ｓ_１_１
  6
CONTINUOUS
 62
     3
100
AcDbLine
 10
563.50000399999
 20
419.362278000009
 30
0.0
 11
575.00000399999
 21
419.362278000009
 31
0.0
  0
LINE
  5
2E4
330
1F
100
AcDbEntity
  8
Ｓ_１_１
  6
CONTINUOUS
 62
     3
100
AcDbLine
 10
575.00000399999
 20
419.362278000009
 30
0.0
 11
586.50000399999
 21
419.362278000009
 31
0.0
  0
LINE
  5
2E5
330
1F
100
AcDbEntity
  8
Ｓ_１_１
  6
CONTINUOUS
 62
     3
100
AcDbLine
 10
586.50000536889
 20
419.3622795587088
 30
0.0
 11
587.5000054188899
 21
418.3622794243087
 31
0.0
  0
LINE
  5
2E6
330
1F
100
AcDbEntity
  8
Ｓ_１_１
  6
CONTINUOUS
 62
     3
100
AcDbLine
 10
587.5000047866897
 20
387.3622769029088
 30
0.0
 11
586.5000049895898
 21
386.362277190009
 31
0.0
  0
LINE
  5
2E7
330
1F
100
AcDbEntity
  8
Ｓ_１_１
  6
CONTINUOUS
 62
     3
100
AcDbLine
 10
562.50000404809
 20
387.3622780758091
 30
0.0
 11
563.50000417519
 21
386.3622780330087
 31
0.0
  0
LINE
  5
2E8
330
1F
100
AcDbEntity
  8
Ｓ_１_１
  6
CONTINUOUS
 62
     3
100
AcDbLine
 10
562.50000399999
 20
387.3622780000091
 30
0.0
 11
562.50000399999
 21
402.862278000009
 31
0.0
  0
LINE
  5
2E9
330
1F
100
AcDbEntity
  8
Ｓ_１_１
  6
CONTINUOUS
 62
     3
100
AcDbLine
 10
563.5000037115901
 20
419.3622784628091
 30
0.0
 11
562.5000039986899
 21
418.3622786657087
 31
0.0
  0
LINE
  5
2EA
330
1F
100
AcDbEntity
  8
Ｓ_１_１
  6
CONTINUOUS
 62
     3
100
AcDbLine
 10
562.50000399999
 20
418.362278000009
 30
0.0
 11
562.50000399999
 21
402.862278000009
 31
0.0
  0
LINE
  5
2EB
330
1F
100
AcDbEntity
  8
Ｓ_１_１
  6
CONTINUOUS
 62
     3
100
AcDbLine
 10
562.50000399999
 20
418.362278000009
 30
0.0
 11
587.50000399999
 21
418.362278000009
 31
0.0
  0
LINE
  5
2EC
330
1F
100
AcDbEntity
  8
Ｓ_１_１
  6
CONTINUOUS
 62
     3
100
AcDbLine
 10
562.50000399999
 20
387.3622780000091
 30
0.0
 11
587.50000399999
 21
387.362278000009
 31
0.0
  0
LINE
  5
2ED
330
1F
100
AcDbEntity
  8
Ｓ_１_１
  6
CONTINUOUS
 62
     3
100
AcDbLine
 10
583.26486599999
 20
420.7245500000199
 30
0.0
 11
566.7351489999901
 21
420.7245500000199
 31
0.0
  0
LINE
  5
2EE
330
1F
100
AcDbEntity
  8
Ｓ_１_１
  6
CONTINUOUS
 62
     3
100
AcDbLine
 10
567.82012299999
 20
426.8622510000199
 30
0.0
 11
567.4365149999901
 21
420.7245380000199
 31
0.0
  0
LINE
  5
2EF
330
1F
100
AcDbEntity
  8
Ｓ_１_１
  6
CONTINUOUS
 62
     3
100
AcDbLine
 10
567.11875299999
 20
426.86226900002
 30
0.0
 11
566.6500019999901
 21
419.36225500002
 31
0.0
  0
LINE
  5
2F0
330
1F
100
AcDbEntity
  8
Ｓ_１_１
  6
CONTINUOUS
 62
     3
100
AcDbLine
 10
567.4365299999902
 20
420.72455800002
 30
0.0
 11
566.6500149999899
 21
419.3622750000199
 31
0.0
  0
LINE
  5
2F1
330
1F
100
AcDbEntity
  8
Ｓ_１_１
  6
CONTINUOUS
 62
     3
100
AcDbLine
 10
582.8812539999899
 20
426.8622810000199
 30
0.0
 11
583.35000699999
 21
419.3622360000199
 31
0.0
  0
LINE
  5
2F2
330
1F
100
AcDbEntity
  8
Ｓ_１_１
  6
CONTINUOUS
 62
     3
100
AcDbLine
 10
583.34999299999
 20
419.36225900002
 30
0.0
 11
582.5634869999899
 21
420.7245290000199
 31
0.0
  0
LINE
  5
2F3
330
1F
100
AcDbEntity
  8
Ｓ_１_１
  6
CONTINUOUS
 62
     3
100
AcDbLine
 10
582.1798919999901
 20
426.8622630000199
 30
0.0
 11
582.5635009999901
 21
420.7245200000199
 31
0.0
  0
LINE
  5
2F4
330
1F
100
AcDbEntity
  8
Ｓ_１_１
  6
CONTINUOUS
 62
     3
100
AcDbLine
 10
583.26486599999
 20
385.0000059999999
 30
0.0
 11
566.7351489999901
 21
385.0000059999999
 31
0.0
  0
LINE
  5
2F5
330
1F
100
AcDbEntity
  8
Ｓ_１_１
  6
CONTINUOUS
 62
     3
100
AcDbLine
 10
583.3500159999901
 20
386.3622969999999
 30
0.0
 11
582.56350199999
 21
385.0000139999999
 31
0.0
  0
LINE
  5
2F6
330
1F
100
AcDbEntity
  8
Ｓ_１_１
  6
CONTINUOUS
 62
     3
100
AcDbLine
 10
567.4365069999901
 20
384.9999979999999
 30
0.0
 11
566.6499999999901
 21
386.3622679999999
 31
0.0
  0
ARC
  5
2F7
330
1F
100
AcDbEntity
  8
Ｓ_１_１
  6
CONTINUOUS
 62
     3
100
AcDbCircle
 10
585.3922924999797
 20
427.7284440000184
 30
0.0
 40
6.133925000000002
100
AcDbArc
 50
55.61543800000034
 51
124.3845830000003
  0
ARC
  5
2F8
330
1F
100
AcDbEntity
  8
Ｓ_１_１
  6
CONTINUOUS
 62
     3
100
AcDbCircle
 10
574.9999884999797
 20
410.9341320000184
 30
0.0
 40
22.927938
100
AcDbArc
 50
72.411858
 51
107.5881660000001
  0
ARC
  5
2F9
330
1F
100
AcDbEntity
  8
Ｓ_１_１
  6
CONTINUOUS
 62
     3
100
AcDbCircle
 10
564.6076544999801
 20
432.9961440000183
 30
0.0
 40
6.133925000000002
100
AcDbArc
 50
235.6154019999991
 51
304.3845609999998
  0
ARC
  5
2FA
330
1F
100
AcDbEntity
  8
Ｓ_１_１
  6
CONTINUOUS
 62
     3
100
AcDbCircle
 10
570.4999884999802
 20
470.8621110000185
 30
0.0
 40
1.0
100
AcDbArc
 50
89.99997799999524
 51
179.9999749999976
  0
ARC
  5
2FB
330
1F
100
AcDbEntity
  8
Ｓ_１_１
  6
CONTINUOUS
 62
     3
100
AcDbCircle
 10
564.6076544999801
 20
427.7284440000184
 30
0.0
 40
6.133925000000002
100
AcDbArc
 50
55.6153689999997
 51
124.384513999999
  0
ARC
  5
2FC
330
1F
100
AcDbEntity
  8
Ｓ_１_１
  6
CONTINUOUS
 62
     3
100
AcDbCircle
 10
574.9999884999797
 20
449.7902110000186
 30
0.0
 40
22.927942
100
AcDbArc
 50
252.4118210000002
 51
287.5881150000001
  0
ARC
  5
2FD
330
1F
100
AcDbEntity
  8
Ｓ_１_１
  6
CONTINUOUS
 62
     3
100
AcDbCircle
 10
585.3922924999797
 20
432.9961440000183
 30
0.0
 40
6.133925000000002
100
AcDbArc
 50
235.6154159999998
 51
304.3845739999999
  0
ARC
  5
2FE
330
1F
100
AcDbEntity
  8
Ｓ_１_１
  6
CONTINUOUS
 62
     3
100
AcDbCircle
 10
579.4999584999796
 20
470.8621110000185
 30
0.0
 40
1.0
100
AcDbArc
 50
359.9999970000023
 51
89.9999780000017
  0
LINE
  5
2FF
330
1F
100
AcDbEntity
  8
Ｓ_１_１
  6
CONTINUOUS
 62
     3
100
AcDbLine
 10
573.5000194999798
 20
473.8622330000184
 30
0.0
 11
576.4999884999797
 21
473.8622330000184
 31
0.0
  0
LINE
  5
300
330
1F
100
AcDbEntity
  8
Ｓ_１_１
  6
CONTINUOUS
 62
     3
100
AcDbLine
 10
562.9999884999802
 20
426.8623550000183
 30
0.0
 11
586.9999584999796
 21
426.8623550000183
 31
0.0
  0
LINE
  5
301
330
1F
100
AcDbEntity
  8
Ｓ_１_１
  6
CONTINUOUS
 62
     3
100
AcDbLine
 10
569.49995849998
 20
470.8621110000185
 30
0.0
 11
569.49995849998
 21
461.8623550000183
 31
0.0
  0
LINE
  5
302
330
1F
100
AcDbEntity
  8
Ｓ_１_１
  6
CONTINUOUS
 62
     3
100
AcDbLine
 10
569.49995849998
 20
461.8623550000183
 30
0.0
 11
580.4999884999797
 21
461.8623550000183
 31
0.0
  0
LINE
  5
303
330
1F
100
AcDbEntity
  8
Ｓ_１_１
  6
CONTINUOUS
 62
     3
100
AcDbLine
 10
566.0000194999802
 20
458.3621110000185
 30
0.0
 11
566.0000194999802
 21
456.3622330000184
 31
0.0
  0
LINE
  5
304
330
1F
100
AcDbEntity
  8
Ｓ_１_１
  6
CONTINUOUS
 62
     3
100
AcDbLine
 10
583.9999884999797
 20
458.3621110000185
 30
0.0
 11
583.9999884999797
 21
456.3622330000184
 31
0.0
  0
LINE
  5
305
330
1F
100
AcDbEntity
  8
Ｓ_１_１
  6
CONTINUOUS
 62
     3
100
AcDbLine
 10
563.7499884999802
 20
442.8622330000184
 30
0.0
 11
586.2499884999797
 21
442.8622330000184
 31
0.0
  0
LINE
  5
306
330
1F
100
AcDbEntity
  8
Ｓ_１_１
  6
CONTINUOUS
 62
     3
100
AcDbLine
 10
586.7499884999797
 20
442.3622330000184
 30
0.0
 11
586.7499884999797
 21
433.8622330000184
 31
0.0
  0
LINE
  5
307
330
1F
100
AcDbEntity
  8
Ｓ_１_１
  6
CONTINUOUS
 62
     3
100
AcDbLine
 10
563.24995849998
 20
442.3622330000184
 30
0.0
 11
563.24995849998
 21
433.8622330000184
 31
0.0
  0
LINE
  5
308
330
1F
100
AcDbEntity
  8
Ｓ_１_１
  6
CONTINUOUS
 62
     3
100
AcDbLine
 10
561.14362049998
 20
427.9342070000183
 30
0.0
 11
562.9999924999802
 21
426.8624300000187
 31
0.0
  0
LINE
  5
309
330
1F
100
AcDbEntity
  8
Ｓ_１_１
  6
CONTINUOUS
 62
     3
100
AcDbLine
 10
586.9999154999796
 20
433.8624240000184
 30
0.0
 11
588.8563934999797
 21
432.7905850000183
 31
0.0
  0
LINE
  5
30A
330
1F
100
AcDbEntity
  8
Ｓ_１_１
  6
CONTINUOUS
 62
     3
100
AcDbLine
 10
586.9999574999797
 20
426.8623880000186
 30
0.0
 11
588.8563304999798
 21
427.9341650000187
 31
0.0
  0
LINE
  5
30B
330
1F
100
AcDbEntity
  8
Ｓ_１_１
  6
CONTINUOUS
 62
     3
100
AcDbLine
 10
561.1436274999801
 20
432.7907250000184
 30
0.0
 11
563.0000004999802
 21
433.8625020000185
 31
0.0
  0
LINE
  5
30C
330
1F
100
AcDbEntity
  8
Ｓ_１_１
  6
CONTINUOUS
 62
     3
100
AcDbLine
 10
588.8564034999795
 20
432.7904550000184
 30
0.0
 11
588.8564034999795
 21
427.9341320000184
 31
0.0
  0
LINE
  5
30D
330
1F
100
AcDbEntity
  8
Ｓ_１_１
  6
CONTINUOUS
 62
     3
100
AcDbLine
 10
581.9282114999796
 20
432.7904550000184
 30
0.0
 11
581.9282114999796
 21
427.9341320000184
 31
0.0
  0
LINE
  5
30E
330
1F
100
AcDbEntity
  8
Ｓ_１_１
  6
CONTINUOUS
 62
     3
100
AcDbLine
 10
568.0718574999801
 20
432.7904550000184
 30
0.0
 11
568.0718574999801
 21
427.9341320000184
 31
0.0
  0
LINE
  5
30F
330
1F
100
AcDbEntity
  8
Ｓ_１_１
  6
CONTINUOUS
 62
     3
100
AcDbLine
 10
561.14358949998
 20
432.7904550000184
 30
0.0
 11
561.14358949998
 21
427.9341320000184
 31
0.0
  0
LINE
  5
310
330
1F
100
AcDbEntity
  8
Ｓ_１_１
  6
CONTINUOUS
 62
     3
100
AcDbLine
 10
562.9999884999802
 20
433.8622330000184
 30
0.0
 11
586.9999584999796
 21
433.8622330000184
 31
0.0
  0
LINE
  5
311
330
1F
100
AcDbEntity
  8
Ｓ_１_１
  6
CONTINUOUS
 62
     3
100
AcDbLine
 10
570.4999884999802
 20
471.8623550000189
 30
0.0
 11
579.4999584999796
 21
471.8623550000189
 31
0.0
  0
LINE
  5
312
330
1F
100
AcDbEntity
  8
Ｓ_１_１
  6
CONTINUOUS
 62
     3
100
AcDbLine
 10
576.4998474999798
 20
473.8624200000186
 30
0.0
 11
578.4998924999795
 21
471.8623750000188
 31
0.0
  0
LINE
  5
313
330
1F
100
AcDbEntity
  8
Ｓ_１_１
  6
CONTINUOUS
 62
     3
100
AcDbLine
 10
571.4998204999802
 20
471.8624180000183
 30
0.0
 11
573.4997794999795
 21
473.8623770000186
 31
0.0
  0
LINE
  5
314
330
1F
100
AcDbEntity
  8
Ｓ_１_１
  6
CONTINUOUS
 62
     3
100
AcDbLine
 10
567.4999884999802
 20
453.3621110000185
 30
0.0
 11
582.4999884999797
 21
453.3621110000185
 31
0.0
  0
LINE
  5
315
330
1F
100
AcDbEntity
  8
Ｓ_１_１
  6
CONTINUOUS
 62
     3
100
AcDbLine
 10
567.4999884999802
 20
454.8622330000184
 30
0.0
 11
582.4999884999797
 21
454.8622330000184
 31
0.0
  0
LINE
  5
316
330
1F
100
AcDbEntity
  8
Ｓ_１_１
  6
CONTINUOUS
 62
     3
100
AcDbLine
 10
566.0000194999802
 20
458.3621110000185
 30
0.0
 11
583.9999884999797
 21
458.3621110000185
 31
0.0
  0
LINE
  5
317
330
1F
100
AcDbEntity
  8
Ｓ_１_１
  6
CONTINUOUS
 62
     3
100
AcDbLine
 10
583.9999884999797
 20
451.8623550000183
 30
0.0
 11
583.9999884999797
 21
442.8622330000184
 31
0.0
  0
LINE
  5
318
330
1F
100
AcDbEntity
  8
Ｓ_１_１
  6
CONTINUOUS
 62
     3
100
AcDbLine
 10
566.0000194999802
 20
451.8623550000183
 30
0.0
 11
566.0000194999802
 21
442.8622330000184
 31
0.0
  0
LINE
  5
319
330
1F
100
AcDbEntity
  8
Ｓ_１_１
  6
CONTINUOUS
 62
     3
100
AcDbLine
 10
565.99987649998
 20
456.3622540000188
 30
0.0
 11
567.49988849998
 21
454.8622410000184
 31
0.0
  0
LINE
  5
31A
330
1F
100
AcDbEntity
  8
Ｓ_１_１
  6
CONTINUOUS
 62
     3
100
AcDbLine
 10
582.4999544999796
 20
454.8622400000185
 30
0.0
 11
583.9998374999795
 21
456.3621230000185
 31
0.0
  0
LINE
  5
31B
330
1F
100
AcDbEntity
  8
Ｓ_１_１
  6
CONTINUOUS
 62
     3
100
AcDbLine
 10
566.0000194999802
 20
456.3622330000184
 30
0.0
 11
583.9999884999797
 21
456.3622330000184
 31
0.0
  0
LINE
  5
31C
330
1F
100
AcDbEntity
  8
Ｓ_１_１
  6
CONTINUOUS
 62
     3
100
AcDbLine
 10
565.99999049998
 20
451.8623880000186
 30
0.0
 11
567.4998734999799
 21
453.3622710000186
 31
0.0
  0
LINE
  5
31D
330
1F
100
AcDbEntity
  8
Ｓ_１_１
  6
CONTINUOUS
 62
     3
100
AcDbLine
 10
582.4998404999797
 20
453.3622290000184
 30
0.0
 11
583.9998534999795
 21
451.8622170000185
 31
0.0
  0
LINE
  5
31E
330
1F
100
AcDbEntity
  8
Ｓ_１_１
  6
CONTINUOUS
 62
     3
100
AcDbLine
 10
563.24995849998
 20
442.3622330000184
 30
0.0
 11
586.7499884999797
 21
442.3622330000184
 31
0.0
  0
LINE
  5
31F
330
1F
100
AcDbEntity
  8
Ｓ_１_１
  6
CONTINUOUS
 62
     3
100
AcDbLine
 10
566.0000194999802
 20
451.8623550000183
 30
0.0
 11
583.9999884999797
 21
451.8623550000183
 31
0.0
  0
LINE
  5
320
330
1F
100
AcDbEntity
  8
Ｓ_１_１
  6
CONTINUOUS
 62
     3
100
AcDbLine
 10
567.4999884999802
 20
454.8622330000184
 30
0.0
 11
567.4999884999802
 21
453.3621110000185
 31
0.0
  0
LINE
  5
321
330
1F
100
AcDbEntity
  8
Ｓ_１_１
  6
CONTINUOUS
 62
     3
100
AcDbLine
 10
582.4999884999797
 20
454.8622330000184
 30
0.0
 11
582.4999884999797
 21
453.3621110000185
 31
0.0
  0
LINE
  5
322
330
1F
100
AcDbEntity
  8
Ｓ_１_１
  6
CONTINUOUS
 62
     3
100
AcDbLine
 10
586.2498844999795
 20
442.8623220000185
 30
0.0
 11
586.7498314999798
 21
442.3623760000186
 31
0.0
  0
LINE
  5
323
330
1F
100
AcDbEntity
  8
Ｓ_１_１
  6
CONTINUOUS
 62
     3
100
AcDbLine
 10
563.2499134999803
 20
442.3623240000183
 30
0.0
 11
563.7498114999803
 21
442.8622330000184
 31
0.0
  0
LINE
  5
324
330
1F
100
AcDbEntity
  8
Ｓ_１_１
  6
CONTINUOUS
 62
     3
100
AcDbLine
 10
565.99994749998
 20
458.3623420000185
 30
0.0
 11
569.4999614999801
 21
461.8623560000187
 31
0.0
  0
LINE
  5
325
330
1F
100
AcDbEntity
  8
Ｓ_１_１
  6
CONTINUOUS
 62
     3
100
AcDbLine
 10
580.4998384999799
 20
461.8621420000185
 30
0.0
 11
583.9998094999796
 21
458.3621700000185
 31
0.0
  0
LINE
  5
326
330
1F
100
AcDbEntity
  8
Ｓ_１_１
  6
CONTINUOUS
 62
     3
100
AcDbLine
 10
580.4999884999797
 20
470.8621110000185
 30
0.0
 11
580.4999884999797
 21
461.8623550000183
 31
0.0
  0
CIRCLE
  5
327
330
1F
100
AcDbEntity
  8
Ｓ_１_１
  6
CONTINUOUS
 62
     3
100
AcDbCircle
 10
575.00000399999
 20
402.86227800001
 30
0.0
 40
10.0
  0
POLYLINE
  5
328
330
1F
100
AcDbEntity
  8
Ｓ_１_１
  6
CONTINUOUS
 62
     3
100
AcDb2dPolyline
 66
     1
 10
0.0
 20
0.0
 30
0.0
 70
   128
  0
VERTEX
  5
329
330
328
100
AcDbEntity
  8
Ｓ_１_１
  6
CONTINUOUS
 62
     3
100
AcDbVertex
100
AcDb2dVertex
 10
575.00000399999
 20
412.36227800001
 30
0.0
  0
VERTEX
  5
32A
330
328
100
AcDbEntity
  8
Ｓ_１_１
  6
CONTINUOUS
 62
     3
100
AcDbVertex
100
AcDb2dVertex
 10
566.7727626640378
 20
407.61227800001
 30
0.0
  0
VERTEX
  5
32B
330
328
100
AcDbEntity
  8
Ｓ_１_１
  6
CONTINUOUS
 62
     3
100
AcDbVertex
100
AcDb2dVertex
 10
566.7727626640378
 20
398.11227800001
 30
0.0
  0
VERTEX
  5
32C
330
328
100
AcDbEntity
  8
Ｓ_１_１
  6
CONTINUOUS
 62
     3
100
AcDbVertex
100
AcDb2dVertex
 10
575.00000399999
 20
393.36227800001
 30
0.0
  0
VERTEX
  5
32D
330
328
100
AcDbEntity
  8
Ｓ_１_１
  6
CONTINUOUS
 62
     3
100
AcDbVertex
100
AcDb2dVertex
 10
583.2272453359421
 20
398.11227800001
 30
0.0
  0
VERTEX
  5
32E
330
328
100
AcDbEntity
  8
Ｓ_１_１
  6
CONTINUOUS
 62
     3
100
AcDbVertex
100
AcDb2dVertex
 10
583.2272453359421
 20
407.61227800001
 30
0.0
  0
VERTEX
  5
32F
330
328
100
AcDbEntity
  8
Ｓ_１_１
  6
CONTINUOUS
 62
     3
100
AcDbVertex
100
AcDb2dVertex
 10
575.00000399999
 20
412.36227800001
 30
0.0
  0
SEQEND
  5
330
330
328
100
AcDbEntity
  8
Ｓ_１_１
  6
CONTINUOUS
 62
     3
  0
CIRCLE
  5
331
330
1F
100
AcDbEntity
  8
Ｓ_１_１
  6
CONTINUOUS
 62
     3
100
AcDbCircle
 10
575.00000399999
 20
402.86227800001
 30
0.0
 40
8.227241335951572
  0
ARC
  5
332
330
1F
100
AcDbEntity
  8
Ｓ_１_１
  6
CONTINUOUS
 62
     3
100
AcDbCircle
 10
575.00000399999
 20
402.86227800001
 30
0.0
 40
8.999999915700016
100
AcDbArc
 50
96.08359749728285
 51
143.9164025027172
  0
ARC
  5
333
330
1F
100
AcDbEntity
  8
Ｓ_１_１
  6
CONTINUOUS
 62
     3
100
AcDbCircle
 10
575.00000399999
 20
402.86227800001
 30
0.0
 40
8.999999915700016
100
AcDbArc
 50
156.0835974972827
 51
203.9164025027173
  0
ARC
  5
334
330
1F
100
AcDbEntity
  8
Ｓ_１_１
  6
CONTINUOUS
 62
     3
100
AcDbCircle
 10
575.00000399999
 20
402.86227800001
 30
0.0
 40
8.999999915700016
100
AcDbArc
 50
216.0835974972828
 51
263.9164025027172
  0
ARC
  5
335
330
1F
100
AcDbEntity
  8
Ｓ_１_１
  6
CONTINUOUS
 62
     3
100
AcDbCircle
 10
575.00000399999
 20
402.86227800001
 30
0.0
 40
8.999999915700016
100
AcDbArc
 50
276.0835974972829
 51
323.9164025027172
  0
ARC
  5
336
330
1F
100
AcDbEntity
  8
Ｓ_１_１
  6
CONTINUOUS
 62
     3
100
AcDbCircle
 10
575.00000399999
 20
402.86227800001
 30
0.0
 40
8.999999915700016
100
AcDbArc
 50
336.0835974972827
 51
23.91640250271736
  0
ARC
  5
337
330
1F
100
AcDbEntity
  8
Ｓ_１_１
  6
CONTINUOUS
 62
     3
100
AcDbCircle
 10
575.00000399999
 20
402.86227800001
 30
0.0
 40
8.999999915700016
100
AcDbArc
 50
36.08359749728283
 51
83.91640250271715
  0
CIRCLE
  5
338
330
1F
100
AcDbEntity
  8
Ｓ_１_１
  6
CONTINUOUS
 62
     3
100
AcDbCircle
 10
575.00000399999
 20
402.86227800001
 30
0.0
 40
5.0
  0
CIRCLE
  5
339
330
1F
100
AcDbEntity
  8
Ｓ_１_１
  6
CONTINUOUS
 62
     3
100
AcDbCircle
 10
575.00000399999
 20
402.86227800001
 30
0.0
 40
4.25
  0
LINE
  5
33A
330
1F
100
AcDbEntity
  8
Ｓ_１_１
  6
EXLTYPE2
 62
     1
100
AcDbLine
 10
588.00000399999
 20
402.862278000009
 30
0.0
 11
562.00000399999
 21
402.862278000009
 31
0.0
  0
LINE
  5
33B
330
1F
100
AcDbEntity
  8
Ｓ_１_１
  6
CONTINUOUS
 62
     3
100
AcDbLine
 10
567.0476548124891
 20
379.9999989999969
 30
0.0
 11
566.65001399999
 21
386.3622619999999
 31
0.0
  0
LINE
  5
33C
330
1F
100
AcDbEntity
  8
Ｓ_１_１
  6
CONTINUOUS
 62
     3
100
AcDbLine
 10
567.7490179999902
 20
379.9999989999969
 30
0.0
 11
567.4365169999901
 21
385.0000089999999
 31
0.0
  0
LINE
  5
33D
330
1F
100
AcDbEntity
  8
Ｓ_１_１
  6
CONTINUOUS
 62
     3
100
AcDbLine
 10
582.2509937499908
 20
379.9999989999969
 30
0.0
 11
582.56349399999
 21
384.9999969999999
 31
0.0
  0
LINE
  5
33E
330
1F
100
AcDbEntity
  8
Ｓ_１_１
  6
CONTINUOUS
 62
     3
100
AcDbLine
 10
582.9523569999899
 20
379.9999989999969
 30
0.0
 11
583.34999699999
 21
386.36225
 31
0.0
  0
LINE
  5
33F
330
1F
100
AcDbEntity
  8
Ｓ_１_１
  6
CONTINUOUS
 62
     3
100
AcDbLine
 10
262.0683812382484
 20
379.6683116666725
 30
0.0
 11
261.6500100000001
 21
386.3622619999999
 31
0.0
  0
LINE
  5
340
330
1F
100
AcDbEntity
  8
Ｓ_１_１
  6
CONTINUOUS
 62
     3
100
AcDbLine
 10
262.7662519091928
 20
379.7241927838857
 30
0.0
 11
262.4365130000003
 21
385.0000089999999
 31
0.0
  0
LINE
  5
341
330
1F
100
AcDbEntity
  8
Ｓ_１_１
  6
CONTINUOUS
 62
     3
100
AcDbLine
 10
277.2337518229951
 20
379.7241924988717
 30
0.0
 11
277.5634900000002
 21
384.9999969999999
 31
0.0
  0
LINE
  5
342
330
1F
100
AcDbEntity
  8
Ｓ_１_１
  6
CONTINUOUS
 62
     3
100
AcDbLine
 10
277.9316225576324
 20
379.6683113486411
 30
0.0
 11
278.349993
 21
386.3622499999998
 31
0.0
  0
POLYLINE
  5
343
330
1F
100
AcDbEntity
  8
Ｓ_１_１
  6
CONTINUOUS
 62
     3
100
AcDb2dPolyline
 66
     1
 10
0.0
 20
0.0
 30
0.0
 70
   128
  0
VERTEX
  5
344
330
343
100
AcDbEntity
  8
Ｓ_１_１
  6
CONTINUOUS
 62
     3
100
AcDbVertex
100
AcDb2dVertex
 10
575.000004
 20
405.7490293459581
 30
0.0
  0
VERTEX
  5
345
330
343
100
AcDbEntity
  8
Ｓ_１_１
  6
CONTINUOUS
 62
     3
100
AcDbVertex
100
AcDb2dVertex
 10
572.500004
 20
404.3056536729841
 30
0.0
  0
VERTEX
  5
346
330
343
100
AcDbEntity
  8
Ｓ_１_１
  6
CONTINUOUS
 62
     3
100
AcDbVertex
100
AcDb2dVertex
 10
572.500004
 20
401.4189023270359
 30
0.0
  0
VERTEX
  5
347
330
343
100
AcDbEntity
  8
Ｓ_１_１
  6
CONTINUOUS
 62
     3
100
AcDbVertex
100
AcDb2dVertex
 10
575.000004
 20
399.9755266540619
 30
0.0
  0
VERTEX
  5
348
330
343
100
AcDbEntity
  8
Ｓ_１_１
  6
CONTINUOUS
 62
     3
100
AcDbVertex
100
AcDb2dVertex
 10
577.500004
 20
401.4189023270359
 30
0.0
  0
VERTEX
  5
349
330
343
100
AcDbEntity
  8
Ｓ_１_１
  6
CONTINUOUS
 62
     3
100
AcDbVertex
100
AcDb2dVertex
 10
577.500004
 20
404.3056536729841
 30
0.0
  0
VERTEX
  5
34A
330
343
100
AcDbEntity
  8
Ｓ_１_１
  6
CONTINUOUS
 62
     3
100
AcDbVertex
100
AcDb2dVertex
 10
575.000004
 20
405.7490293459581
 30
0.0
  0
SEQEND
  5
34B
330
343
100
AcDbEntity
  8
Ｓ_１_１
  6
CONTINUOUS
 62
     3
  0
ENDSEC
  0
SECTION
  2
OBJECTS
  0
DICTIONARY
  5
C
330
0
100
AcDbDictionary
  3
ACAD_GROUP
350
D
  3
ACAD_LAYOUT
350
1A
  3
ACAD_MATERIAL
350
43
  3
ACAD_MLEADERSTYLE
350
6B
  3
ACAD_MLINESTYLE
350
17
  3
ACAD_PLOTSETTINGS
350
19
  3
ACAD_SCALELIST
350
47
  3
ACAD_VISUALSTYLE
350
2A
  3
ACDBHEADERROUNDTRIPXREC
350
34C
  3
ACDBVARIABLEDICTIONARY
350
36D
  0
DICTIONARY
  5
378
330
8
100
AcDbDictionary
280
     1
  3
ACAD_XREC_ROUNDTRIP
360
379
  0
DICTIONARY
  5
D
102
{ACAD_REACTORS
330
C
102
}
330
C
100
AcDbDictionary
  0
DICTIONARY
  5
1A
102
{ACAD_REACTORS
330
C
102
}
330
C
100
AcDbDictionary
  0
DICTIONARY
  5
43
102
{ACAD_REACTORS
330
C
102
}
330
C
100
AcDbDictionary
  3
BYBLOCK
350
45
  3
BYLAYER
350
44
  3
GLOBAL
350
46
  0
DICTIONARY
  5
6B
102
{ACAD_REACTORS
330
C
102
}
330
C
100
AcDbDictionary
  3
STANDARD
350
6C
  0
DICTIONARY
  5
17
102
{ACAD_REACTORS
330
C
102
}
330
C
100
AcDbDictionary
  3
STANDARD
350
18
  0
DICTIONARY
  5
19
102
{ACAD_REACTORS
330
C
102
}
330
C
100
AcDbDictionary
  0
DICTIONARY
  5
47
102
{ACAD_REACTORS
330
C
102
}
330
C
100
AcDbDictionary
  3
A0
350
48
  3
A1
350
49
  3
A2
350
4A
  3
A3
350
4B
  3
A4
350
4C
  3
A5
350
4D
  3
A6
350
4E
  3
A7
350
4F
  3
A8
350
50
  3
A9
350
51
  3
B0
350
52
  3
B1
350
53
  3
B2
350
54
  3
B3
350
55
  3
B4
350
56
  3
B5
350
57
  3
B6
350
58
  3
B7
350
59
  3
B8
350
5A
  3
B9
350
5B
  3
C0
350
5C
  3
C1
350
5D
  3
C2
350
5E
  3
C3
350
5F
  3
C4
350
60
  3
C5
350
61
  3
C6
350
62
  3
C7
350
63
  3
C8
350
64
  3
C9
350
65
  3
D0
350
66
  3
D1
350
67
  3
D2
350
68
  0
DICTIONARY
  5
2A
102
{ACAD_REACTORS
330
C
102
}
330
C
100
AcDbDictionary
  3
2DWIREFRAME
350
2F
  3
BASIC
350
32
  3
BRIGHTEN
350
36
  3
COLORCHANGE
350
3A
  3
CONCEPTUAL
350
34
  3
DIM
350
35
  3
EDGECOLOROFF
350
3D
  3
FACEPATTERN
350
39
  3
FLAT
350
2B
  3
FLATWITHEDGES
350
2C
  3
GOURAUD
350
2D
  3
GOURAUDWITHEDGES
350
2E
  3
HIDDEN
350
31
  3
JITTEROFF
350
3B
  3
LINEPATTERN
350
38
  3
OVERHANGOFF
350
3C
  3
REALISTIC
350
33
  3
SHADED
350
42
  3
SHADED_WITH_EDGES
350
41
  3
SHADES_OF_GRAY
350
3E
  3
SKETCHY
350
3F
  3
THICKEN
350
37
  3
WIREFRAME
350
30
  3
X-RAY
350
40
  0
DICTIONARY
  5
34C
102
{ACAD_REACTORS
330
C
102
}
330
C
100
AcDbDictionary
  3
CEPSNID
350
356
  3
CEPSNTYPE
350
355
  3
DIMSTYLEDATA
350
36C
  3
FINGERPRINTGUID
350
357
  3
HYPERLINKBASE
350
34F
  3
INSUNITS
350
354
  3
LAYOUTDICT
350
351
  3
LWETCUNION
350
353
  3
PLOTSETDICT
350
352
  3
PSVPSCALE
350
359
  3
PUCSBASE
350
35C
  3
PUCSORGBACK
350
362
  3
PUCSORGBOTTOM
350
35E
  3
PUCSORGFRONT
350
361
  3
PUCSORGLEFT
350
35F
  3
PUCSORGRIGHT
350
360
  3
PUCSORGTOP
350
35D
  3
PUCSORTHOREF
350
35A
  3
PUCSORTHOVIEW
350
35B
  3
STYLESHEET
350
350
  3
TSTACKALIGN
350
34D
  3
TSTACKSIZE
350
34E
  3
UCSBASE
350
365
  3
UCSORGBACK
350
36B
  3
UCSORGBOTTOM
350
367
  3
UCSORGFRONT
350
36A
  3
UCSORGLEFT
350
368
  3
UCSORGRIGHT
350
369
  3
UCSORGTOP
350
366
  3
UCSORTHOREF
350
363
  3
UCSORTHOVIEW
350
364
  3
VERSIONGUID
350
358
  0
DICTIONARY
  5
36D
102
{ACAD_REACTORS
330
C
102
}
330
C
100
AcDbDictionary
  3
CANNOSCALE
350
37A
  3
CENTEREXE
350
374
  3
CENTERLTYPEFILE
350
375
  3
CMLEADERSTYLE
350
36F
  3
CTABLESTYLE
350
36E
  3
DIMASSOC
350
376
  3
HIDETEXT
350
377
  3
MSLTSCALE
350
37B
  3
PSOLHEIGHT
350
371
  3
PSOLWIDTH
350
370
  0
XRECORD
  5
379
102
{ACAD_REACTORS
330
378
102
}
330
378
100
AcDbXrecord
102
VTR_0.000_0.000_1.000_1.000_VISUALSTYLE
340
2F
102
VTR_0.000_0.000_1.000_1.000_GRIDDISPLAY
 70
     3
102
VTR_0.000_0.000_1.000_1.000_GRIDMAJOR
 70
     5
102
VTR_0.000_0.000_1.000_1.000_DEFAULTLIGHTING
280
     1
102
VTR_0.000_0.000_1.000_1.000_DEFAULTLIGHTINGTYPE
 70
     1
102
VTR_0.000_0.000_1.000_1.000_BRIGHTNESS
141
0.0
102
VTR_0.000_0.000_1.000_1.000_CONTRAST
142
0.0
  0
MATERIAL
  5
45
102
{ACAD_REACTORS
330
43
102
}
102
{ACAD_XDICTIONARY
360
37E
102
}
330
43
100
AcDbMaterial
  1
BYBLOCK
  0
MATERIAL
  5
44
102
{ACAD_REACTORS
330
43
102
}
102
{ACAD_XDICTIONARY
360
37C
102
}
330
43
100
AcDbMaterial
  1
BYLAYER
  0
MATERIAL
  5
46
102
{ACAD_REACTORS
330
43
102
}
102
{ACAD_XDICTIONARY
360
380
102
}
330
43
100
AcDbMaterial
  1
GLOBAL
  0
ACAD_PROXY_OBJECT
  5
6C
102
{ACAD_REACTORS
330
6B
102
}
330
6B
100
AcDbProxyObject
 90
      499
 91
      505
 93
      610
310
40901902A4063FBFFFFFE0000000000000020400000000000020404214DD185B99185C990000000000000104090141901A00000000000004100000000000000041025764000000000000039000
340
14
340
0
340
11
340
0
 94
        0
1001
ACAD_MLEADERVER
1070
     2
  0
MLINESTYLE
  5
18
102
{ACAD_REACTORS
330
17
102
}
330
17
100
AcDbMlineStyle
  2
Standard
 70
     0
  3

 62
   256
 51
90.0
 52
90.0
 71
     2
 49
0.5
 62
   256
  6
BYLAYER
 49
-0.5
 62
   256
  6
BYLAYER
  0
ACAD_PROXY_OBJECT
  5
48
102
{ACAD_REACTORS
330
47
102
}
330
47
100
AcDbProxyObject
 90
      499
 91
      503
 93
       41
310
903313A31580
  0
ACAD_PROXY_OBJECT
  5
49
102
{ACAD_REACTORS
330
47
102
}
330
47
100
AcDbProxyObject
 90
      499
 91
      503
 93
      105
310
903313A324000000000000004000
  0
ACAD_PROXY_OBJECT
  5
4A
102
{ACAD_REACTORS
330
47
102
}
330
47
100
AcDbProxyObject
 90
      499
 91
      503
 93
      105
310
903313A344000000000000104000
  0
ACAD_PROXY_OBJECT
  5
4B
102
{ACAD_REACTORS
330
47
102
}
330
47
100
AcDbProxyObject
 90
      499
 91
      503
 93
      105
310
903313A354000000000000144000
  0
ACAD_PROXY_OBJECT
  5
4C
102
{ACAD_REACTORS
330
47
102
}
330
47
100
AcDbProxyObject
 90
      499
 91
      503
 93
      105
310
903313A384000000000000204000
  0
ACAD_PROXY_OBJECT
  5
4D
102
{ACAD_REACTORS
330
47
102
}
330
47
100
AcDbProxyObject
 90
      499
 91
      503
 93
      113
310
904313A31304000000000000244000
  0
ACAD_PROXY_OBJECT
  5
4E
102
{ACAD_REACTORS
330
47
102
}
330
47
100
AcDbProxyObject
 90
      499
 91
      503
 93
      113
310
904313A31364000000000000304000
  0
ACAD_PROXY_OBJECT
  5
4F
102
{ACAD_REACTORS
330
47
102
}
330
47
100
AcDbProxyObject
 90
      499
 91
      503
 93
      113
310
904313A32304000000000000344000
  0
ACAD_PROXY_OBJECT
  5
50
102
{ACAD_REACTORS
330
47
102
}
330
47
100
AcDbProxyObject
 90
      499
 91
      503
 93
      113
310
904313A333040000000000003E4000
  0
ACAD_PROXY_OBJECT
  5
51
102
{ACAD_REACTORS
330
47
102
}
330
47
100
AcDbProxyObject
 90
      499
 91
      503
 93
      113
310
904313A34304000000000000444000
  0
ACAD_PROXY_OBJECT
  5
52
102
{ACAD_REACTORS
330
47
102
}
330
47
100
AcDbProxyObject
 90
      499
 91
      503
 93
      113
310
904313A35304000000000000494000
  0
ACAD_PROXY_OBJECT
  5
53
102
{ACAD_REACTORS
330
47
102
}
330
47
100
AcDbProxyObject
 90
      499
 91
      503
 93
      121
310
905313A3130304000000000000594000
  0
ACAD_PROXY_OBJECT
  5
54
102
{ACAD_REACTORS
330
47
102
}
330
47
100
AcDbProxyObject
 90
      499
 91
      503
 93
      105
310
903323A310000000000000010100
  0
ACAD_PROXY_OBJECT
  5
55
102
{ACAD_REACTORS
330
47
102
}
330
47
100
AcDbProxyObject
 90
      499
 91
      503
 93
      105
310
903343A310000000000000410100
  0
ACAD_PROXY_OBJECT
  5
56
102
{ACAD_REACTORS
330
47
102
}
330
47
100
AcDbProxyObject
 90
      499
 91
      503
 93
      105
310
903383A310000000000000810100
  0
ACAD_PROXY_OBJECT
  5
57
102
{ACAD_REACTORS
330
47
102
}
330
47
100
AcDbProxyObject
 90
      499
 91
      503
 93
      113
310
90431303A310000000000000910100
  0
ACAD_PROXY_OBJECT
  5
58
102
{ACAD_REACTORS
330
47
102
}
330
47
100
AcDbProxyObject
 90
      499
 91
      503
 93
      121
310
9053130303A310000000000001650100
  0
ACAD_PROXY_OBJECT
  5
59
102
{ACAD_REACTORS
330
47
102
}
330
47
100
AcDbProxyObject
 90
      499
 91
      503
 93
      257
310
90E312F31323822203D2031272D3022000000000000200FC000000000000284000
  0
ACAD_PROXY_OBJECT
  5
5A
102
{ACAD_REACTORS
330
47
102
}
330
47
100
AcDbProxyObject
 90
      499
 91
      503
 93
      249
310
90D312F363422203D2031272D3022000000000000240FC000000000000284000
  0
ACAD_PROXY_OBJECT
  5
5B
102
{ACAD_REACTORS
330
47
102
}
330
47
100
AcDbProxyObject
 90
      499
 91
      503
 93
      249
310
90D312F333222203D2031272D3022000000000000280FC000000000000284000
  0
ACAD_PROXY_OBJECT
  5
5C
102
{ACAD_REACTORS
330
47
102
}
330
47
100
AcDbProxyObject
 90
      499
 91
      503
 93
      249
310
90D312F313622203D2031272D30220000000000002C0FC000000000000284000
  0
ACAD_PROXY_OBJECT
  5
5D
102
{ACAD_REACTORS
330
47
102
}
330
47
100
AcDbProxyObject
 90
      499
 91
      503
 93
      249
310
90D332F333222203D2031272D30220000000000002E0FC000000000000284000
  0
ACAD_PROXY_OBJECT
  5
5E
102
{ACAD_REACTORS
330
47
102
}
330
47
100
AcDbProxyObject
 90
      499
 91
      503
 93
      241
310
90C312F3822203D2031272D3022000000000000300FC000000000000284000
  0
ACAD_PROXY_OBJECT
  5
5F
102
{ACAD_REACTORS
330
47
102
}
330
47
100
AcDbProxyObject
 90
      499
 91
      503
 93
      249
310
90D332F313622203D2031272D3022000000000000320FC000000000000284000
  0
ACAD_PROXY_OBJECT
  5
60
102
{ACAD_REACTORS
330
47
102
}
330
47
100
AcDbProxyObject
 90
      499
 91
      503
 93
      241
310
90C312F3422203D2031272D3022000000000000340FC000000000000284000
  0
ACAD_PROXY_OBJECT
  5
61
102
{ACAD_REACTORS
330
47
102
}
330
47
100
AcDbProxyObject
 90
      499
 91
      503
 93
      241
310
90C332F3822203D2031272D3022000000000000360FC000000000000284000
  0
ACAD_PROXY_OBJECT
  5
62
102
{ACAD_REACTORS
330
47
102
}
330
47
100
AcDbProxyObject
 90
      499
 91
      503
 93
      241
310
90C312F3222203D2031272D3022000000000000380FC000000000000284000
  0
ACAD_PROXY_OBJECT
  5
63
102
{ACAD_REACTORS
330
47
102
}
330
47
100
AcDbProxyObject
 90
      499
 91
      503
 93
      241
310
90C332F3422203D2031272D30220000000000003A0FC000000000000284000
  0
ACAD_PROXY_OBJECT
  5
64
102
{ACAD_REACTORS
330
47
102
}
330
47
100
AcDbProxyObject
 90
      499
 91
      503
 93
      161
310
90A3122203D2031272D30224000000000000284000
  0
ACAD_PROXY_OBJECT
  5
65
102
{ACAD_REACTORS
330
47
102
}
330
47
100
AcDbProxyObject
 90
      499
 91
      503
 93
      257
310
90E312D312F3222203D2031272D30220000000000003E0FC000000000000284000
  0
ACAD_PROXY_OBJECT
  5
66
102
{ACAD_REACTORS
330
47
102
}
330
47
100
AcDbProxyObject
 90
      499
 91
      503
 93
      225
310
90A3322203D2031272D302200000000000002100000000000000284000
  0
ACAD_PROXY_OBJECT
  5
67
102
{ACAD_REACTORS
330
47
102
}
330
47
100
AcDbProxyObject
 90
      499
 91
      503
 93
      225
310
90A3622203D2031272D302200000000000006100000000000000284000
  0
ACAD_PROXY_OBJECT
  5
68
102
{ACAD_REACTORS
330
47
102
}
330
47
100
AcDbProxyObject
 90
      499
 91
      503
 93
      249
310
90D31272D3022203D2031272D30220000000000000A100000000000000284000
  0
ACAD_PROXY_OBJECT
  5
2F
102
{ACAD_REACTORS
330
2A
102
}
330
2A
100
AcDbProxyObject
 90
      499
 91
      501
 93
      436
310
42CC9915DA5C99599C985B595049028333333333333E33F0000000000000F90107901411070040501600405405064090741402480A0340
1001
ACAD
1000
AcDbSavedByObjectVersion
1070
     0
  0
ACAD_PROXY_OBJECT
  5
32
102
{ACAD_REACTORS
330
2A
102
}
330
2A
100
AcDbProxyObject
 90
      499
 91
      501
 93
      388
310
4150985CDA58D07406404333333333333E33F0000000000000F90107A41107004050150841D405064090741402480A0350
1001
ACAD
1000
AcDbSavedByObjectVersion
1070
     0
  0
ACAD_PROXY_OBJECT
  5
36
102
{ACAD_REACTORS
330
2A
102
}
330
2A
100
AcDbProxyObject
 90
      499
 91
      501
 93
      428
310
42109C9A59DA1D195B90C409028333333333333E33F0000000000000F9010790141107004050150841D405064090741402480A029950
1001
ACAD
1000
AcDbSavedByObjectVersion
1070
     0
  0
ACAD_PROXY_OBJECT
  5
3A
102
{ACAD_REACTORS
330
2A
102
}
330
2A
100
AcDbProxyObject
 90
      499
 91
      501
 93
      452
310
42D0DBDB1BDC90DA185B99D95104090240C333333333333E33F0000000000000F90108901411070040501508421405064090741402480A0350
1001
ACAD
1000
AcDbSavedByObjectVersion
1070
     0
  0
ACAD_PROXY_OBJECT
  5
34
102
{ACAD_REACTORS
330
2A
102
}
330
2A
100
AcDbProxyObject
 90
      499
 91
      501
 93
      500
310
4290DBDB98D95C1D1D585B10940D028333333333333E33F0000000000000F90107902409070040501000000000018199010841D405064090740C02480A0340
1001
ACAD
1000
AcDbSavedByObjectVersion
1070
     0
  0
ACAD_PROXY_OBJECT
  5
35
102
{ACAD_REACTORS
330
2A
102
}
330
2A
100
AcDbProxyObject
 90
      499
 91
      501
 93
      412
310
40D11A5B50B409028333333333333E33F0000000000000F9010790141107004050150841D405064090741402480A02677FFFFFD0
1001
ACAD
1000
AcDbSavedByObjectVersion
1070
     0
  0
ACAD_PROXY_OBJECT
  5
3D
102
{ACAD_REACTORS
330
2A
102
}
330
2A
100
AcDbProxyObject
 90
      499
 91
      501
 93
      452
310
43115919D950DBDB1BDC93D999916409028333333333333E33F0000000000000F9010790141107004050150841D405064090741402480A0350
1001
ACAD
1000
AcDbSavedByObjectVersion
1070
     0
  0
ACAD_PROXY_OBJECT
  5
39
102
{ACAD_REACTORS
330
2A
102
}
330
2A
100
AcDbProxyObject
 90
      499
 91
      501
 93
      444
310
42D19858D95C185D1D195C9B90F409028333333333333E33F0000000000000F9010790141107004050150841D405064090741402480A0350
1001
ACAD
1000
AcDbSavedByObjectVersion
1070
     0
  0
ACAD_PROXY_OBJECT
  5
2B
102
{ACAD_REACTORS
330
2A
102
}
330
2A
100
AcDbProxyObject
 90
      499
 91
      501
 93
      380
310
41119B185D240901404333333333333E33F0000000000000F9010740A907004050150841D405064090741402480A1B50
1001
ACAD
1000
AcDbSavedByObjectVersion
1070
     0
  0
ACAD_PROXY_OBJECT
  5
2C
102
{ACAD_REACTORS
330
2A
102
}
330
2A
100
AcDbProxyObject
 90
      499
 91
      501
 93
      468
310
43519B185D15DA5D1A115919D95CD0140901404333333333333E33F0000000000000F90107409019070040501600405405064090741402480A1B50
1001
ACAD
1000
AcDbSavedByObjectVersion
1070
     0
  0
ACAD_PROXY_OBJECT
  5
2D
102
{ACAD_REACTORS
330
2A
102
}
330
2A
100
AcDbProxyObject
 90
      499
 91
      501
 93
      404
310
41D1DBDD5C985D5910240902404333333333333E33F0000000000000F9010740A9070040501641D405064090741402480A1B50
1001
ACAD
1000
AcDbSavedByObjectVersion
1070
     0
  0
ACAD_PROXY_OBJECT
  5
2E
102
{ACAD_REACTORS
330
2A
102
}
330
2A
100
AcDbProxyObject
 90
      499
 91
      501
 93
      492
310
4411DBDD5C985D5915DA5D1A115919D95CD0340902404333333333333E33F0000000000000F90107409019070040501600405405064090741402480A1B50
1001
ACAD
1000
AcDbSavedByObjectVersion
1070
     0
  0
ACAD_PROXY_OBJECT
  5
31
102
{ACAD_REACTORS
330
2A
102
}
330
2A
100
AcDbProxyObject
 90
      499
 91
      501
 93
      476
310
41921A5919195B90640502408333333333333E33F0000000000000F901079024090700405020000000000001110200405405064090740C02480A0340
1001
ACAD
1000
AcDbSavedByObjectVersion
1070
     0
  0
ACAD_PROXY_OBJECT
  5
3B
102
{ACAD_REACTORS
330
2A
102
}
330
2A
100
AcDbProxyObject
 90
      499
 91
      501
 93
      428
310
42529A5D1D195C93D999914409028333333333333E33F0000000000000F9010790141107004050150A41D405064090741402480A0350
1001
ACAD
1000
AcDbSavedByObjectVersion
1070
     0
  0
ACAD_PROXY_OBJECT
  5
38
102
{ACAD_REACTORS
330
2A
102
}
330
2A
100
AcDbProxyObject
 90
      499
 91
      501
 93
      444
310
42D31A5B995C185D1D195C9B90E409028333333333333E33F0000000000000F9010790141107004050750841D405064090741402483A0350
1001
ACAD
1000
AcDbSavedByObjectVersion
1070
     0
  0
ACAD_PROXY_OBJECT
  5
3C
102
{ACAD_REACTORS
330
2A
102
}
330
2A
100
AcDbProxyObject
 90
      499
 91
      501
 93
      444
310
42D3DD995C9A185B99D3D999915409028333333333333E33F0000000000000F9010790141107004050150941D405064090741402480A0350
1001
ACAD
1000
AcDbSavedByObjectVersion
1070
     0
  0
ACAD_PROXY_OBJECT
  5
33
102
{ACAD_REACTORS
330
2A
102
}
330
2A
100
AcDbProxyObject
 90
      499
 91
      501
 93
      428
310
425499585B1A5CDD1A58D08409038333333333333E33F0000000000000F9010740A907004050150800405405064090740C02480A1B40
1001
ACAD
1000
AcDbSavedByObjectVersion
1070
     0
  0
ACAD_PROXY_OBJECT
  5
42
102
{ACAD_REACTORS
330
2A
102
}
330
2A
100
AcDbProxyObject
 90
      499
 91
      501
 93
      420
310
4194DA1859195911B40902404333333333333E33F0000000000000F9010740A41107004050150800405405064090840C02480A0B40
1001
ACAD
1000
AcDbSavedByObjectVersion
1070
     0
  0
ACAD_PROXY_OBJECT
  5
41
102
{ACAD_REACTORS
330
2A
102
}
330
2A
100
AcDbProxyObject
 90
      499
 91
      501
 93
      516
310
4454DA18591959081DDA5D1A08195919D95CD1A40902404333333333333E33F0000000000000F901074090142907004050250800405405064090740C02480A0B40
1001
ACAD
1000
AcDbSavedByObjectVersion
1070
     0
  0
ACAD_PROXY_OBJECT
  5
3E
102
{ACAD_REACTORS
330
2A
102
}
330
2A
100
AcDbProxyObject
 90
      499
 91
      501
 93
      532
310
4394DA1859195CC81BD98811DC985E5174090240C333333333333E33F0000000000000F901079024090741D01000000000000111010841D405064090740C02480A0340
1001
ACAD
1000
AcDbSavedByObjectVersion
1070
     0
  0
ACAD_PROXY_OBJECT
  5
3F
102
{ACAD_REACTORS
330
2A
102
}
330
2A
100
AcDbProxyObject
 90
      499
 91
      501
 93
      476
310
41D4DAD95D18DA1E51840502408333333333333E33F0000000000000F901079024090741D01000000000000111010B41D405064090741802480A0340
1001
ACAD
1000
AcDbSavedByObjectVersion
1070
     0
  0
ACAD_PROXY_OBJECT
  5
37
102
{ACAD_REACTORS
330
2A
102
}
330
2A
100
AcDbProxyObject
 90
      499
 91
      501
 93
      412
310
41D51A1A58DAD95B90D409028333333333333E33F0000000000000F9010790141107004050150C41D405064090741402480A0350
1001
ACAD
1000
AcDbSavedByObjectVersion
1070
     0
  0
ACAD_PROXY_OBJECT
  5
30
102
{ACAD_REACTORS
330
2A
102
}
330
2A
100
AcDbProxyObject
 90
      499
 91
      501
 93
      420
310
4255DA5C99599C985B595059028333333333333E33F0000000000000F90107901411070040501600405405064090740C02480A0340
1001
ACAD
1000
AcDbSavedByObjectVersion
1070
     0
  0
ACAD_PROXY_OBJECT
  5
40
102
{ACAD_REACTORS
330
2A
102
}
330
2A
100
AcDbProxyObject
 90
      499
 91
      501
 93
      404
310
41560B54985E51940902404000000000000E03F0000000000000F9010740501907004050150841D405064090740C02480A1B40
1001
ACAD
1000
AcDbSavedByObjectVersion
1070
     0
  0
XRECORD
  5
356
102
{ACAD_REACTORS
330
34C
102
}
330
34C
100
AcDbXrecord
340
0
  0
XRECORD
  5
355
102
{ACAD_REACTORS
330
34C
102
}
330
34C
100
AcDbXrecord
 90
        0
  0
XRECORD
  5
36C
102
{ACAD_REACTORS
330
34C
102
}
330
34C
100
AcDbXrecord
1000
DSTYLE
1002
{
1070
   340
340
11
1002
}
  0
XRECORD
  5
357
102
{ACAD_REACTORS
330
34C
102
}
330
34C
100
AcDbXrecord
  1
{5d1a7534-1b10-458b-af63-8ed3436b32b8}
  0
XRECORD
  5
34F
102
{ACAD_REACTORS
330
34C
102
}
330
34C
100
AcDbXrecord
  1

  0
XRECORD
  5
354
102
{ACAD_REACTORS
330
34C
102
}
330
34C
100
AcDbXrecord
 90
        4
  0
XRECORD
  5
351
102
{ACAD_REACTORS
330
34C
102
}
330
34C
100
AcDbXrecord
340
1A
  0
XRECORD
  5
353
102
{ACAD_REACTORS
330
34C
102
}
330
34C
100
AcDbXrecord
 90
    10781
  0
XRECORD
  5
352
102
{ACAD_REACTORS
330
34C
102
}
330
34C
100
AcDbXrecord
340
19
  0
XRECORD
  5
359
102
{ACAD_REACTORS
330
34C
102
}
330
34C
100
AcDbXrecord
 40
0.0
  0
XRECORD
  5
35C
102
{ACAD_REACTORS
330
34C
102
}
330
34C
100
AcDbXrecord
340
0
  0
XRECORD
  5
362
102
{ACAD_REACTORS
330
34C
102
}
330
34C
100
AcDbXrecord
 10
0.0
 20
0.0
 30
0.0
  0
XRECORD
  5
35E
102
{ACAD_REACTORS
330
34C
102
}
330
34C
100
AcDbXrecord
 10
0.0
 20
0.0
 30
0.0
  0
XRECORD
  5
361
102
{ACAD_REACTORS
330
34C
102
}
330
34C
100
AcDbXrecord
 10
0.0
 20
0.0
 30
0.0
  0
XRECORD
  5
35F
102
{ACAD_REACTORS
330
34C
102
}
330
34C
100
AcDbXrecord
 10
0.0
 20
0.0
 30
0.0
  0
XRECORD
  5
360
102
{ACAD_REACTORS
330
34C
102
}
330
34C
100
AcDbXrecord
 10
0.0
 20
0.0
 30
0.0
  0
XRECORD
  5
35D
102
{ACAD_REACTORS
330
34C
102
}
330
34C
100
AcDbXrecord
 10
0.0
 20
0.0
 30
0.0
  0
XRECORD
  5
35A
102
{ACAD_REACTORS
330
34C
102
}
330
34C
100
AcDbXrecord
340
0
  0
XRECORD
  5
35B
102
{ACAD_REACTORS
330
34C
102
}
330
34C
100
AcDbXrecord
 70
     0
  0
XRECORD
  5
350
102
{ACAD_REACTORS
330
34C
102
}
330
34C
100
AcDbXrecord
  1

  0
XRECORD
  5
34D
102
{ACAD_REACTORS
330
34C
102
}
330
34C
100
AcDbXrecord
 90
        1
  0
XRECORD
  5
34E
102
{ACAD_REACTORS
330
34C
102
}
330
34C
100
AcDbXrecord
 90
       70
  0
XRECORD
  5
365
102
{ACAD_REACTORS
330
34C
102
}
330
34C
100
AcDbXrecord
340
0
  0
XRECORD
  5
36B
102
{ACAD_REACTORS
330
34C
102
}
330
34C
100
AcDbXrecord
 10
0.0
 20
0.0
 30
0.0
  0
XRECORD
  5
367
102
{ACAD_REACTORS
330
34C
102
}
330
34C
100
AcDbXrecord
 10
0.0
 20
0.0
 30
0.0
  0
XRECORD
  5
36A
102
{ACAD_REACTORS
330
34C
102
}
330
34C
100
AcDbXrecord
 10
0.0
 20
0.0
 30
0.0
  0
XRECORD
  5
368
102
{ACAD_REACTORS
330
34C
102
}
330
34C
100
AcDbXrecord
 10
0.0
 20
0.0
 30
0.0
  0
XRECORD
  5
369
102
{ACAD_REACTORS
330
34C
102
}
330
34C
100
AcDbXrecord
 10
0.0
 20
0.0
 30
0.0
  0
XRECORD
  5
366
102
{ACAD_REACTORS
330
34C
102
}
330
34C
100
AcDbXrecord
 10
0.0
 20
0.0
 30
0.0
  0
XRECORD
  5
363
102
{ACAD_REACTORS
330
34C
102
}
330
34C
100
AcDbXrecord
340
0
  0
XRECORD
  5
364
102
{ACAD_REACTORS
330
34C
102
}
330
34C
100
AcDbXrecord
 70
     0
  0
XRECORD
  5
358
102
{ACAD_REACTORS
330
34C
102
}
330
34C
100
AcDbXrecord
  1
{FAEB1C32-E019-11D5-929B-00C0DF256EC4}
  0
DICTIONARYVAR
  5
37A
102
{ACAD_REACTORS
330
36D
102
}
330
36D
100
DictionaryVariables
280
     0
  1
1:1
  0
DICTIONARYVAR
  5
374
102
{ACAD_REACTORS
330
36D
102
}
330
36D
100
DictionaryVariables
280
     0
  1
3.500000
  0
DICTIONARYVAR
  5
375
102
{ACAD_REACTORS
330
36D
102
}
330
36D
100
DictionaryVariables
280
     0
  1
acadiso.lin
  0
DICTIONARYVAR
  5
36F
102
{ACAD_REACTORS
330
36D
102
}
330
36D
100
DictionaryVariables
280
     0
  1
Standard
  0
DICTIONARYVAR
  5
36E
102
{ACAD_REACTORS
330
36D
102
}
330
36D
100
DictionaryVariables
280
     0
  1
Standard
  0
DICTIONARYVAR
  5
376
102
{ACAD_REACTORS
330
36D
102
}
330
36D
100
DictionaryVariables
280
     0
  1
2
  0
DICTIONARYVAR
  5
377
102
{ACAD_REACTORS
330
36D
102
}
330
36D
100
DictionaryVariables
280
     0
  1
1
  0
DICTIONARYVAR
  5
37B
102
{ACAD_REACTORS
330
36D
102
}
330
36D
100
DictionaryVariables
280
     0
  1
1
  0
DICTIONARYVAR
  5
371
102
{ACAD_REACTORS
330
36D
102
}
330
36D
100
DictionaryVariables
280
     0
  1
80.000000
  0
DICTIONARYVAR
  5
370
102
{ACAD_REACTORS
330
36D
102
}
330
36D
100
DictionaryVariables
280
     0
  1
5.000000
  0
DICTIONARY
  5
37E
330
45
100
AcDbDictionary
280
     1
  3
ACAD_XREC_ROUNDTRIP
360
37F
  0
DICTIONARY
  5
37C
330
44
100
AcDbDictionary
280
     1
  3
ACAD_XREC_ROUNDTRIP
360
37D
  0
DICTIONARY
  5
380
330
46
100
AcDbDictionary
280
     1
  3
ACAD_XREC_ROUNDTRIP
360
381
  0
XRECORD
  5
37F
102
{ACAD_REACTORS
330
37E
102
}
330
37E
100
AcDbXrecord
102
MATERIAL
148
0.0
149
0.0
149
0.0
 93
        0
 94
      127
282
     0
 72
     1
 77
     1
171
     1
175
     1
179
     1
273
     0
  0
XRECORD
  5
37D
102
{ACAD_REACTORS
330
37C
102
}
330
37C
100
AcDbXrecord
102
MATERIAL
148
0.0
149
0.0
149
0.0
 93
        0
 94
      127
282
     0
 72
     1
 77
     1
171
     1
175
     1
179
     1
273
     0
  0
XRECORD
  5
381
102
{ACAD_REACTORS
330
380
102
}
330
380
100
AcDbXrecord
102
MATERIAL
148
0.0
149
0.0
149
0.0
 93
        0
 94
      127
282
     0
 72
     1
 77
     1
171
     1
175
     1
179
     1
273
     0
  0
ENDSEC
  0
EOF
