  0
SECTION
  2
HEADER
  9
$ACADVER
  1
AC1014
  9
$ACADMAINTVER
 70
     9
  9
$DWGCODEPAGE
  3
ANSI_932
  9
$INSBASE
 10
0.0
 20
0.0
 30
0.0
  9
$EXTMIN
 10
35.0
 20
35.0
 30
0.0
  9
$EXTMAX
 10
1435.0
 20
1004.5
 30
0.0
  9
$LIMMIN
 10
0.0
 20
0.0
  9
$LIMMAX
 10
420.0
 20
297.0
  9
$ORTHOMODE
 70
     0
  9
$REGENMODE
 70
     1
  9
$FILLMODE
 70
     1
  9
$QTEXTMODE
 70
     0
  9
$MIRRTEXT
 70
     1
  9
$DRAGMODE
 70
     2
  9
$LTSCALE
 40
1.0
  9
$OSMODE
 70
    37
  9
$ATTMODE
 70
     1
  9
$TEXTSIZE
 40
2.5
  9
$TRACEWID
 40
1.0
  9
$TEXTSTYLE
  7
STANDARD
  9
$CLAYER
  8
Ｓ_１_１
  9
$CELTYPE
  6
BYLAYER
  9
$CECOLOR
 62
   256
  9
$CELTSCALE
 40
1.0
  9
$DELOBJ
 70
     1
  9
$DISPSILH
 70
     0
  9
$DIMSCALE
 40
1.0
  9
$DIMASZ
 40
2.5
  9
$DIMEXO
 40
0.625
  9
$DIMDLI
 40
3.75
  9
$DIMRND
 40
0.0
  9
$DIMDLE
 40
0.0
  9
$DIMEXE
 40
1.25
  9
$DIMTP
 40
0.0
  9
$DIMTM
 40
0.0
  9
$DIMTXT
 40
2.5
  9
$DIMCEN
 40
2.5
  9
$DIMTSZ
 40
0.0
  9
$DIMTOL
 70
     0
  9
$DIMLIM
 70
     0
  9
$DIMTIH
 70
     0
  9
$DIMTOH
 70
     0
  9
$DIMSE1
 70
     0
  9
$DIMSE2
 70
     0
  9
$DIMTAD
 70
     1
  9
$DIMZIN
 70
     8
  9
$DIMBLK
  1

  9
$DIMASO
 70
     1
  9
$DIMSHO
 70
     1
  9
$DIMPOST
  1

  9
$DIMAPOST
  1

  9
$DIMALT
 70
     0
  9
$DIMALTD
 70
     3
  9
$DIMALTF
 40
0.03937007874016
  9
$DIMLFAC
 40
1.0
  9
$DIMTOFL
 70
     1
  9
$DIMTVP
 40
0.0
  9
$DIMTIX
 70
     0
  9
$DIMSOXD
 70
     0
  9
$DIMSAH
 70
     0
  9
$DIMBLK1
  1

  9
$DIMBLK2
  1

  9
$DIMSTYLE
  2
ISO-25
  9
$DIMCLRD
 70
     0
  9
$DIMCLRE
 70
     0
  9
$DIMCLRT
 70
     0
  9
$DIMTFAC
 40
1.0
  9
$DIMGAP
 40
0.625
  9
$DIMJUST
 70
     0
  9
$DIMSD1
 70
     0
  9
$DIMSD2
 70
     0
  9
$DIMTOLJ
 70
     0
  9
$DIMTZIN
 70
     8
  9
$DIMALTZ
 70
     0
  9
$DIMALTTZ
 70
     0
  9
$DIMFIT
 70
     3
  9
$DIMUPT
 70
     0
  9
$DIMUNIT
 70
     2
  9
$DIMDEC
 70
     2
  9
$DIMTDEC
 70
     2
  9
$DIMALTU
 70
     2
  9
$DIMALTTD
 70
     3
  9
$DIMTXSTY
  7
STANDARD
  9
$DIMAUNIT
 70
     0
  9
$LUNITS
 70
     2
  9
$LUPREC
 70
     4
  9
$SKETCHINC
 40
1.0
  9
$FILLETRAD
 40
10.0
  9
$AUNITS
 70
     0
  9
$AUPREC
 70
     0
  9
$MENU
  1
.
  9
$ELEVATION
 40
0.0
  9
$PELEVATION
 40
0.0
  9
$THICKNESS
 40
0.0
  9
$LIMCHECK
 70
     0
  9
$CHAMFERA
 40
0.0
  9
$CHAMFERB
 40
0.0
  9
$CHAMFERC
 40
0.0
  9
$CHAMFERD
 40
0.0
  9
$SKPOLY
 70
     0
  9
$TDCREATE
 40
2459591.543224421
  9
$TDUPDATE
 40
2459591.543225741
  9
$TDINDWG
 40
0.0000000116
  9
$TDUSRTIMER
 40
0.0000000116
  9
$USRTIMER
 70
     1
  9
$ANGBASE
 50
0.0
  9
$ANGDIR
 70
     0
  9
$PDMODE
 70
     0
  9
$PDSIZE
 40
0.0
  9
$PLINEWID
 40
0.0
  9
$COORDS
 70
     1
  9
$SPLFRAME
 70
     0
  9
$SPLINETYPE
 70
     6
  9
$SPLINESEGS
 70
     8
  9
$ATTDIA
 70
     0
  9
$ATTREQ
 70
     1
  9
$HANDLING
 70
     1
  9
$HANDSEED
  5
4F0
  9
$SURFTAB1
 70
     6
  9
$SURFTAB2
 70
     6
  9
$SURFTYPE
 70
     6
  9
$SURFU
 70
     6
  9
$SURFV
 70
     6
  9
$UCSNAME
  2

  9
$UCSORG
 10
0.0
 20
0.0
 30
0.0
  9
$UCSXDIR
 10
1.0
 20
0.0
 30
0.0
  9
$UCSYDIR
 10
0.0
 20
1.0
 30
0.0
  9
$PUCSNAME
  2

  9
$PUCSORG
 10
0.0
 20
0.0
 30
0.0
  9
$PUCSXDIR
 10
1.0
 20
0.0
 30
0.0
  9
$PUCSYDIR
 10
0.0
 20
1.0
 30
0.0
  9
$USERI1
 70
     0
  9
$USERI2
 70
     0
  9
$USERI3
 70
     0
  9
$USERI4
 70
     0
  9
$USERI5
 70
     0
  9
$USERR1
 40
0.0
  9
$USERR2
 40
0.0
  9
$USERR3
 40
0.0
  9
$USERR4
 40
0.0
  9
$USERR5
 40
0.0
  9
$WORLDVIEW
 70
     1
  9
$SHADEDGE
 70
     3
  9
$SHADEDIF
 70
    70
  9
$TILEMODE
 70
     1
  9
$MAXACTVP
 70
    64
  9
$PINSBASE
 10
0.0
 20
0.0
 30
0.0
  9
$PLIMCHECK
 70
     0
  9
$PEXTMIN
 10
1.000000000000000E+20
 20
1.000000000000000E+20
 30
1.000000000000000E+20
  9
$PEXTMAX
 10
-1.000000000000000E+20
 20
-1.000000000000000E+20
 30
-1.000000000000000E+20
  9
$PLIMMIN
 10
0.0
 20
0.0
  9
$PLIMMAX
 10
420.0
 20
297.0
  9
$UNITMODE
 70
     0
  9
$VISRETAIN
 70
     1
  9
$PLINEGEN
 70
     0
  9
$PSLTSCALE
 70
     1
  9
$TREEDEPTH
 70
  3020
  9
$PICKSTYLE
 70
     1
  9
$CMLSTYLE
  2
STANDARD
  9
$CMLJUST
 70
     0
  9
$CMLSCALE
 40
20.0
  9
$PROXYGRAPHICS
 70
     1
  9
$MEASUREMENT
 70
     1
  0
ENDSEC
  0
SECTION
  2
CLASSES
  0
CLASS
  1
ACDBDICTIONARYWDFLT
  2
AcDbDictionaryWithDefault
  3
ObjectDBX Classes
 90
        0
280
     0
281
     0
  0
CLASS
  1
VISUALSTYLE
  2
AcDbVisualStyle
  3
ObjectDBX Classes
 90
     4095
280
     0
281
     0
  0
CLASS
  1
MATERIAL
  2
AcDbMaterial
  3
ObjectDBX Classes
 90
     1153
280
     0
281
     0
  0
CLASS
  1
SCALE
  2
AcDbScale
  3
ObjectDBX Classes
 90
     1153
280
     0
281
     0
  0
CLASS
  1
TABLESTYLE
  2
AcDbTableStyle
  3
ObjectDBX Classes
 90
     4095
280
     0
281
     0
  0
CLASS
  1
MLEADERSTYLE
  2
AcDbMLeaderStyle
  3
ACDB_MLEADERSTYLE_CLASS
 90
     4095
280
     0
281
     0
  0
CLASS
  1
SUN
  2
AcDbSun
  3
SCENEOE
 90
     1153
280
     0
281
     0
  0
CLASS
  1
DICTIONARYVAR
  2
AcDbDictionaryVar
  3
ObjectDBX Classes
 90
        0
280
     0
281
     0
  0
CLASS
  1
XRECORD
  2
AcDbXrecord
  3
ObjectDBX Classes
 90
        0
280
     0
281
     0
  0
CLASS
  1
LWPOLYLINE
  2
AcDbPolyline
  3
ObjectDBX Classes
 90
        0
280
     0
281
     1
  0
CLASS
  1
HATCH
  2
AcDbHatch
  3
ObjectDBX Classes
 90
        0
280
     0
281
     1
  0
CLASS
  1
ACDBPLACEHOLDER
  2
AcDbPlaceHolder
  3
ObjectDBX Classes
 90
        0
280
     0
281
     0
  0
CLASS
  1
LAYOUT
  2
AcDbLayout
  3
ObjectDBX Classes
 90
        0
280
     0
281
     0
  0
ENDSEC
  0
SECTION
  2
TABLES
  0
TABLE
  2
VPORT
  5
8
102
{ACAD_XDICTIONARY
360
4E5
102
}
330
0
100
AcDbSymbolTable
 70
     1
  0
VPORT
  5
29
330
8
100
AcDbSymbolTableRecord
100
AcDbViewportTableRecord
  2
*ACTIVE
 70
     0
 10
0.0
 20
0.0
 11
1.0
 21
1.0
 12
735.0
 22
519.75
 13
0.0
 23
0.0
 14
10.0
 24
10.0
 15
10.0
 25
10.0
 16
0.0
 26
0.0
 36
1.0
 17
0.0
 27
0.0
 37
0.0
 40
969.5
 41
1.444043321299639
 42
50.0
 43
0.0
 44
0.0
 50
0.0
 51
0.0
 71
     0
 72
  1000
 73
     1
 74
     3
 75
     0
 76
     0
 77
     0
 78
     0
  0
ENDTAB
  0
TABLE
  2
LTYPE
  5
5
330
0
100
AcDbSymbolTable
 70
     9
  0
LTYPE
  5
14
330
5
100
AcDbSymbolTableRecord
100
AcDbLinetypeTableRecord
  2
BYBLOCK
 70
     0
  3

 72
    65
 73
     0
 40
0.0
  0
LTYPE
  5
15
330
5
100
AcDbSymbolTableRecord
100
AcDbLinetypeTableRecord
  2
BYLAYER
 70
     0
  3

 72
    65
 73
     0
 40
0.0
  0
LTYPE
  5
16
330
5
100
AcDbSymbolTableRecord
100
AcDbLinetypeTableRecord
  2
CONTINUOUS
 70
     0
  3
Solid line
 72
    65
 73
     0
 40
0.0
  0
LTYPE
  5
6E
330
5
100
AcDbSymbolTableRecord
100
AcDbLinetypeTableRecord
  2
EXLTYPE0
 70
     0
  3
破線
 72
    65
 73
     2
 40
4.0
 49
3.0
 74
     0
 49
-1.0
 74
     0
  0
LTYPE
  5
6F
330
5
100
AcDbSymbolTableRecord
100
AcDbLinetypeTableRecord
  2
EXLTYPE1
 70
     0
  3
点線
 72
    65
 73
     2
 40
2.0
 49
1.0
 74
     0
 49
-1.0
 74
     0
  0
LTYPE
  5
70
330
5
100
AcDbSymbolTableRecord
100
AcDbLinetypeTableRecord
  2
EXLTYPE2
 70
     0
  3
一点鎖線
 72
    65
 73
     4
 40
13.0
 49
10.0
 74
     0
 49
-1.0
 74
     0
 49
1.0
 74
     0
 49
-1.0
 74
     0
  0
LTYPE
  5
71
330
5
100
AcDbSymbolTableRecord
100
AcDbLinetypeTableRecord
  2
EXLTYPE3
 70
     0
  3
二点鎖線
 72
    65
 73
     6
 40
15.0
 49
10.0
 74
     0
 49
-1.0
 74
     0
 49
1.0
 74
     0
 49
-1.0
 74
     0
 49
1.0
 74
     0
 49
-1.0
 74
     0
  0
LTYPE
  5
72
330
5
100
AcDbSymbolTableRecord
100
AcDbLinetypeTableRecord
  2
EXLTYPE4
 70
     0
  3
一点鎖線2
 72
    65
 73
     4
 40
3.5
 49
2.0
 74
     0
 49
-0.5
 74
     0
 49
0.5
 74
     0
 49
-0.5
 74
     0
  0
LTYPE
  5
73
330
5
100
AcDbSymbolTableRecord
100
AcDbLinetypeTableRecord
  2
EXLTYPE5
 70
     0
  3
二点鎖線2
 72
    65
 73
     6
 40
4.5
 49
2.0
 74
     0
 49
-0.5
 74
     0
 49
0.5
 74
     0
 49
-0.5
 74
     0
 49
0.5
 74
     0
 49
-0.5
 74
     0
  0
LTYPE
  5
74
330
5
100
AcDbSymbolTableRecord
100
AcDbLinetypeTableRecord
  2
EXLTYPE6
 70
     0
  3
一点鎖線3
 72
    65
 73
     4
 40
13.0
 49
10.0
 74
     0
 49
-1.0
 74
     0
 49
1.0
 74
     0
 49
-1.0
 74
     0
  0
LTYPE
  5
75
330
5
100
AcDbSymbolTableRecord
100
AcDbLinetypeTableRecord
  2
EXLTYPE7
 70
     0
  3
破線5
 72
    65
 73
     2
 40
2.2
 49
1.2
 74
     0
 49
-1.0
 74
     0
  0
ENDTAB
  0
TABLE
  2
LAYER
  5
2
330
0
100
AcDbSymbolTable
 70
     4
  0
LAYER
  5
10
330
2
100
AcDbSymbolTableRecord
100
AcDbLayerTableRecord
  2
0
 70
     0
 62
     7
  6
CONTINUOUS
  0
LAYER
  5
78
330
2
100
AcDbSymbolTableRecord
100
AcDbLayerTableRecord
  2
図面枠
 70
     4
 62
     7
  6
CONTINUOUS
  0
LAYER
  5
79
330
2
100
AcDbSymbolTableRecord
100
AcDbLayerTableRecord
  2
Ｓ_１_１
 70
     0
 62
     7
  6
CONTINUOUS
  0
LAYER
  5
11F
330
2
100
AcDbSymbolTableRecord
100
AcDbLayerTableRecord
  2
DEFPOINTS
 70
     0
 62
     7
  6
CONTINUOUS
  0
ENDTAB
  0
TABLE
  2
STYLE
  5
3
330
0
100
AcDbSymbolTable
 70
     5
  0
STYLE
  5
11
330
3
100
AcDbSymbolTableRecord
100
AcDbTextStyleTableRecord
  2
STANDARD
 70
     0
 40
0.0
 41
1.0
 50
0.0
 71
     0
 42
2.5
  3
monotxt
  4
extfont
  0
STYLE
  5
76
330
3
100
AcDbSymbolTableRecord
100
AcDbTextStyleTableRecord
  2
EXCADSTD
 70
     0
 40
0.0
 41
1.0
 50
0.0
 71
     0
 42
2.5
  3
monotxt
  4
extfont
  0
STYLE
  5
77
330
3
100
AcDbSymbolTableRecord
100
AcDbTextStyleTableRecord
  2
EXCADVERT
 70
     4
 40
0.0
 41
1.0
 50
0.0
 71
     0
 42
2.5
  3
monotxt
  4
extfont
  0
STYLE
  5
DA
330
3
100
AcDbSymbolTableRecord
100
AcDbTextStyleTableRecord
  2
EXCADTTF1
 70
     0
 40
0.0
 41
1.0
 50
0.0
 71
     0
 42
2.5
  3
msgothic.ttc
  4

1001
ACAD
1000
MS Gothic
1071
    32817
  0
STYLE
  5
11D
330
3
100
AcDbSymbolTableRecord
100
AcDbTextStyleTableRecord
  2
EXCADDIM1
 70
     0
 40
0.0
 41
1.0
 50
0.0
 71
     0
 42
2.5
  3
msgothic.ttc
  4

1001
ACAD
1000
MS Gothic
1071
    32817
  0
ENDTAB
  0
TABLE
  2
VIEW
  5
6
330
0
100
AcDbSymbolTable
 70
     0
  0
ENDTAB
  0
TABLE
  2
UCS
  5
7
330
0
100
AcDbSymbolTable
 70
     0
  0
ENDTAB
  0
TABLE
  2
APPID
  5
9
330
0
100
AcDbSymbolTable
 70
     2
  0
APPID
  5
12
330
9
100
AcDbSymbolTableRecord
100
AcDbRegAppTableRecord
  2
ACAD
 70
     0
  0
APPID
  5
4EF
330
9
100
AcDbSymbolTableRecord
100
AcDbRegAppTableRecord
  2
ACAD_MLEADERVER
 70
     0
  0
ENDTAB
  0
TABLE
  2
DIMSTYLE
  5
A
330
0
100
AcDbSymbolTable
 70
     1
  0
DIMSTYLE
105
27
102
{ACAD_REACTORS
330
11E
330
12A
330
138
330
144
330
151
330
15E
330
16B
330
176
330
181
330
397
330
470
330
47D
330
48A
102
}
330
A
100
AcDbSymbolTableRecord
100
AcDbDimStyleTableRecord
  2
ISO-25
 70
     0
  3

  4

  5

  6

  7

 40
1.0
 41
2.5
 42
0.625
 43
3.75
 44
1.25
 45
0.0
 46
0.0
 47
0.0
 48
0.0
140
2.5
141
2.5
142
0.0
143
0.03937007874016
144
1.0
145
0.0
146
1.0
147
0.625
 71
     0
 72
     0
 73
     0
 74
     0
 75
     0
 76
     0
 77
     1
 78
     8
170
     0
171
     3
172
     1
173
     0
174
     0
175
     0
176
     0
177
     0
178
     0
270
     2
271
     2
272
     2
273
     2
274
     3
340
11
275
     0
280
     0
281
     0
282
     0
283
     0
284
     8
285
     0
286
     0
287
     5
288
     0
  0
ENDTAB
  0
TABLE
  2
BLOCK_RECORD
  5
1
330
0
100
AcDbSymbolTable
 70
    27
  0
BLOCK_RECORD
  5
1F
330
1
100
AcDbSymbolTableRecord
100
AcDbBlockTableRecord
  2
*MODEL_SPACE
  0
BLOCK_RECORD
  5
1B
330
1
100
AcDbSymbolTableRecord
100
AcDbBlockTableRecord
  2
*PAPER_SPACE
  0
BLOCK_RECORD
  5
7A
330
1
100
AcDbSymbolTableRecord
100
AcDbBlockTableRecord
  2
EX_NORM
  0
BLOCK_RECORD
  5
7D
330
1
100
AcDbSymbolTableRecord
100
AcDbBlockTableRecord
  2
EX_BNORM
  0
BLOCK_RECORD
  5
80
330
1
100
AcDbSymbolTableRecord
100
AcDbBlockTableRecord
  2
EX_BCIR
  0
BLOCK_RECORD
  5
83
330
1
100
AcDbSymbolTableRecord
100
AcDbBlockTableRecord
  2
EX_RCIVIL
  0
BLOCK_RECORD
  5
86
330
1
100
AcDbSymbolTableRecord
100
AcDbBlockTableRecord
  2
EX_SLANT
  0
BLOCK_RECORD
  5
89
330
1
100
AcDbSymbolTableRecord
100
AcDbBlockTableRecord
  2
EX_NONE
  0
BLOCK_RECORD
  5
8C
330
1
100
AcDbSymbolTableRecord
100
AcDbBlockTableRecord
  2
EX_CIVIL
  0
BLOCK_RECORD
  5
8F
330
1
100
AcDbSymbolTableRecord
100
AcDbBlockTableRecord
  2
EX_WCIR
  0
BLOCK_RECORD
  5
92
330
1
100
AcDbSymbolTableRecord
100
AcDbBlockTableRecord
  2
EX_WCIR2
  0
BLOCK_RECORD
  5
95
330
1
100
AcDbSymbolTableRecord
100
AcDbBlockTableRecord
  2
EX_WNORM
  0
BLOCK_RECORD
  5
98
330
1
100
AcDbSymbolTableRecord
100
AcDbBlockTableRecord
  2
EX_NNORM
  0
BLOCK_RECORD
  5
9B
330
1
100
AcDbSymbolTableRecord
100
AcDbBlockTableRecord
  2
EX_BBOX
  0
BLOCK_RECORD
  5
9E
330
1
100
AcDbSymbolTableRecord
100
AcDbBlockTableRecord
  2
EX_WBOX
  0
BLOCK_RECORD
  5
A1
330
1
100
AcDbSymbolTableRecord
100
AcDbBlockTableRecord
  2
EX_INTEGRAL
  0
BLOCK_RECORD
  5
120
330
1
100
AcDbSymbolTableRecord
100
AcDbBlockTableRecord
  2
*D15
  0
BLOCK_RECORD
  5
12B
330
1
100
AcDbSymbolTableRecord
100
AcDbBlockTableRecord
  2
*D16
  0
BLOCK_RECORD
  5
139
330
1
100
AcDbSymbolTableRecord
100
AcDbBlockTableRecord
  2
*D17
  0
BLOCK_RECORD
  5
145
330
1
100
AcDbSymbolTableRecord
100
AcDbBlockTableRecord
  2
*D18
  0
BLOCK_RECORD
  5
152
330
1
100
AcDbSymbolTableRecord
100
AcDbBlockTableRecord
  2
*D19
  0
BLOCK_RECORD
  5
15F
330
1
100
AcDbSymbolTableRecord
100
AcDbBlockTableRecord
  2
*D20
  0
BLOCK_RECORD
  5
16C
330
1
100
AcDbSymbolTableRecord
100
AcDbBlockTableRecord
  2
*D21
  0
BLOCK_RECORD
  5
177
330
1
100
AcDbSymbolTableRecord
100
AcDbBlockTableRecord
  2
*D22
  0
BLOCK_RECORD
  5
182
330
1
100
AcDbSymbolTableRecord
100
AcDbBlockTableRecord
  2
*D23
  0
BLOCK_RECORD
  5
398
330
1
100
AcDbSymbolTableRecord
100
AcDbBlockTableRecord
  2
*D24
  0
BLOCK_RECORD
  5
471
330
1
100
AcDbSymbolTableRecord
100
AcDbBlockTableRecord
  2
*D25
  0
BLOCK_RECORD
  5
47E
330
1
100
AcDbSymbolTableRecord
100
AcDbBlockTableRecord
  2
*D26
  0
BLOCK_RECORD
  5
48B
330
1
100
AcDbSymbolTableRecord
100
AcDbBlockTableRecord
  2
*D27
  0
ENDTAB
  0
ENDSEC
  0
SECTION
  2
BLOCKS
  0
BLOCK
  5
20
330
1F
100
AcDbEntity
  8
0
100
AcDbBlockBegin
  2
*MODEL_SPACE
 70
     0
 10
0.0
 20
0.0
 30
0.0
  3
*MODEL_SPACE
  1

  0
ENDBLK
  5
21
330
1F
100
AcDbEntity
  8
0
100
AcDbBlockEnd
  0
BLOCK
  5
1C
330
1B
100
AcDbEntity
 67
     1
  8
0
100
AcDbBlockBegin
  2
*PAPER_SPACE
 70
     0
 10
0.0
 20
0.0
 30
0.0
  3
*PAPER_SPACE
  1

  0
ENDBLK
  5
1D
330
1B
100
AcDbEntity
 67
     1
  8
0
100
AcDbBlockEnd
  0
BLOCK
  5
7B
330
7A
100
AcDbEntity
  8
0
100
AcDbBlockBegin
  2
EX_NORM
 70
     0
 10
0.0
 20
0.0
 30
0.0
  3
EX_NORM
  1

  0
LINE
  5
A4
330
7A
100
AcDbEntity
  8
0
  6
CONTINUOUS
 62
     0
100
AcDbLine
 10
0.0
 20
0.0
 30
0.0
 11
-1.0
 21
0.0
 31
0.0
  0
LINE
  5
A5
330
7A
100
AcDbEntity
  8
0
  6
CONTINUOUS
 62
     0
100
AcDbLine
 10
0.0
 20
0.0
 30
0.0
 11
-1.0
 21
0.166666667
 31
0.0
  0
LINE
  5
A6
330
7A
100
AcDbEntity
  8
0
  6
CONTINUOUS
 62
     0
100
AcDbLine
 10
0.0
 20
0.0
 30
0.0
 11
-1.0
 21
-0.166666667
 31
0.0
  0
ENDBLK
  5
7C
330
7A
100
AcDbEntity
  8
0
100
AcDbBlockEnd
  0
BLOCK
  5
7E
330
7D
100
AcDbEntity
  8
0
100
AcDbBlockBegin
  2
EX_BNORM
 70
     0
 10
0.0
 20
0.0
 30
0.0
  3
EX_BNORM
  1

  0
LINE
  5
A7
330
7D
100
AcDbEntity
  8
0
  6
CONTINUOUS
 62
     0
100
AcDbLine
 10
0.0
 20
0.0
 30
0.0
 11
-1.0
 21
0.0
 31
0.0
  0
LINE
  5
A8
330
7D
100
AcDbEntity
  8
0
  6
CONTINUOUS
 62
     0
100
AcDbLine
 10
0.0
 20
0.0
 30
0.0
 11
-1.0
 21
0.166666667
 31
0.0
  0
LINE
  5
A9
330
7D
100
AcDbEntity
  8
0
  6
CONTINUOUS
 62
     0
100
AcDbLine
 10
0.0
 20
0.0
 30
0.0
 11
-1.0
 21
-0.166666667
 31
0.0
  0
LINE
  5
AA
330
7D
100
AcDbEntity
  8
0
  6
CONTINUOUS
 62
     0
100
AcDbLine
 10
0.0
 20
0.0
 30
0.0
 11
-1.0
 21
0.083333333
 31
0.0
  0
LINE
  5
AB
330
7D
100
AcDbEntity
  8
0
  6
CONTINUOUS
 62
     0
100
AcDbLine
 10
0.0
 20
0.0
 30
0.0
 11
-1.0
 21
-0.083333333
 31
0.0
  0
LINE
  5
AC
330
7D
100
AcDbEntity
  8
0
  6
CONTINUOUS
 62
     0
100
AcDbLine
 10
-1.0
 20
0.166666667
 30
0.0
 11
-1.0
 21
-0.166666667
 31
0.0
  0
ENDBLK
  5
7F
330
7D
100
AcDbEntity
  8
0
100
AcDbBlockEnd
  0
BLOCK
  5
81
330
80
100
AcDbEntity
  8
0
100
AcDbBlockBegin
  2
EX_BCIR
 70
     0
 10
0.0
 20
0.0
 30
0.0
  3
EX_BCIR
  1

  0
LINE
  5
AD
330
80
100
AcDbEntity
  8
0
  6
CONTINUOUS
 62
     0
100
AcDbLine
 10
0.0
 20
0.0
 30
0.0
 11
-1.0
 21
0.0
 31
0.0
  0
CIRCLE
  5
AE
330
80
100
AcDbEntity
  8
0
  6
CONTINUOUS
 62
     0
100
AcDbCircle
 10
0.0
 20
0.0
 30
0.0
 40
0.5
  0
CIRCLE
  5
AF
330
80
100
AcDbEntity
  8
0
  6
CONTINUOUS
 62
     0
100
AcDbCircle
 10
0.0
 20
0.0
 30
0.0
 40
0.25
  0
ENDBLK
  5
82
330
80
100
AcDbEntity
  8
0
100
AcDbBlockEnd
  0
BLOCK
  5
84
330
83
100
AcDbEntity
  8
0
100
AcDbBlockBegin
  2
EX_RCIVIL
 70
     0
 10
0.0
 20
0.0
 30
0.0
  3
EX_RCIVIL
  1

  0
LINE
  5
B0
330
83
100
AcDbEntity
  8
0
  6
CONTINUOUS
 62
     0
100
AcDbLine
 10
0.0
 20
0.0
 30
0.0
 11
-1.0
 21
0.0
 31
0.0
  0
LINE
  5
B1
330
83
100
AcDbEntity
  8
0
  6
CONTINUOUS
 62
     0
100
AcDbLine
 10
-1.0
 20
-0.25
 30
0.0
 11
0.0
 21
-0.25
 31
0.0
  0
LINE
  5
B2
330
83
100
AcDbEntity
  8
0
  6
CONTINUOUS
 62
     0
100
AcDbLine
 10
-1.0
 20
-0.125
 30
0.0
 11
0.0
 21
-0.125
 31
0.0
  0
ENDBLK
  5
85
330
83
100
AcDbEntity
  8
0
100
AcDbBlockEnd
  0
BLOCK
  5
87
330
86
100
AcDbEntity
  8
0
100
AcDbBlockBegin
  2
EX_SLANT
 70
     0
 10
0.0
 20
0.0
 30
0.0
  3
EX_SLANT
  1

  0
LINE
  5
B3
330
86
100
AcDbEntity
  8
0
  6
CONTINUOUS
 62
     0
100
AcDbLine
 10
0.0
 20
0.0
 30
0.0
 11
-1.0
 21
0.0
 31
0.0
  0
LINE
  5
B4
330
86
100
AcDbEntity
  8
0
  6
CONTINUOUS
 62
     0
100
AcDbLine
 10
0.707106781
 20
0.707106781
 30
0.0
 11
-0.707106781
 21
-0.707106781
 31
0.0
  0
ENDBLK
  5
88
330
86
100
AcDbEntity
  8
0
100
AcDbBlockEnd
  0
BLOCK
  5
8A
330
89
100
AcDbEntity
  8
0
100
AcDbBlockBegin
  2
EX_NONE
 70
     0
 10
0.0
 20
0.0
 30
0.0
  3
EX_NONE
  1

  0
LINE
  5
B5
330
89
100
AcDbEntity
  8
0
  6
CONTINUOUS
 62
     0
100
AcDbLine
 10
0.0
 20
0.0
 30
0.0
 11
-1.0
 21
0.0
 31
0.0
  0
ENDBLK
  5
8B
330
89
100
AcDbEntity
  8
0
100
AcDbBlockEnd
  0
BLOCK
  5
8D
330
8C
100
AcDbEntity
  8
0
100
AcDbBlockBegin
  2
EX_CIVIL
 70
     0
 10
0.0
 20
0.0
 30
0.0
  3
EX_CIVIL
  1

  0
LINE
  5
B6
330
8C
100
AcDbEntity
  8
0
  6
CONTINUOUS
 62
     0
100
AcDbLine
 10
0.0
 20
0.0
 30
0.0
 11
-1.0
 21
0.0
 31
0.0
  0
LINE
  5
B7
330
8C
100
AcDbEntity
  8
0
  6
CONTINUOUS
 62
     0
100
AcDbLine
 10
-1.0
 20
0.25
 30
0.0
 11
0.0
 21
0.25
 31
0.0
  0
LINE
  5
B8
330
8C
100
AcDbEntity
  8
0
  6
CONTINUOUS
 62
     0
100
AcDbLine
 10
-1.0
 20
0.125
 30
0.0
 11
0.0
 21
0.125
 31
0.0
  0
ENDBLK
  5
8E
330
8C
100
AcDbEntity
  8
0
100
AcDbBlockEnd
  0
BLOCK
  5
90
330
8F
100
AcDbEntity
  8
0
100
AcDbBlockBegin
  2
EX_WCIR
 70
     0
 10
0.0
 20
0.0
 30
0.0
  3
EX_WCIR
  1

  0
LINE
  5
B9
330
8F
100
AcDbEntity
  8
0
  6
CONTINUOUS
 62
     0
100
AcDbLine
 10
0.0
 20
0.0
 30
0.0
 11
-1.0
 21
0.0
 31
0.0
  0
CIRCLE
  5
BA
330
8F
100
AcDbEntity
  8
0
  6
CONTINUOUS
 62
     0
100
AcDbCircle
 10
0.0
 20
0.0
 30
0.0
 40
0.5
  0
ENDBLK
  5
91
330
8F
100
AcDbEntity
  8
0
100
AcDbBlockEnd
  0
BLOCK
  5
93
330
92
100
AcDbEntity
  8
0
100
AcDbBlockBegin
  2
EX_WCIR2
 70
     0
 10
0.0
 20
0.0
 30
0.0
  3
EX_WCIR2
  1

  0
LINE
  5
BB
330
92
100
AcDbEntity
  8
0
  6
CONTINUOUS
 62
     0
100
AcDbLine
 10
-0.5
 20
0.0
 30
0.0
 11
-1.0
 21
0.0
 31
0.0
  0
CIRCLE
  5
BC
330
92
100
AcDbEntity
  8
0
  6
CONTINUOUS
 62
     0
100
AcDbCircle
 10
0.0
 20
0.0
 30
0.0
 40
0.5
  0
ENDBLK
  5
94
330
92
100
AcDbEntity
  8
0
100
AcDbBlockEnd
  0
BLOCK
  5
96
330
95
100
AcDbEntity
  8
0
100
AcDbBlockBegin
  2
EX_WNORM
 70
     0
 10
0.0
 20
0.0
 30
0.0
  3
EX_WNORM
  1

  0
LINE
  5
BD
330
95
100
AcDbEntity
  8
0
  6
CONTINUOUS
 62
     0
100
AcDbLine
 10
-1.0
 20
0.0
 30
0.0
 11
-1.0
 21
0.0
 31
0.0
  0
LINE
  5
BE
330
95
100
AcDbEntity
  8
0
  6
CONTINUOUS
 62
     0
100
AcDbLine
 10
0.0
 20
0.0
 30
0.0
 11
-1.0
 21
0.166666667
 31
0.0
  0
LINE
  5
BF
330
95
100
AcDbEntity
  8
0
  6
CONTINUOUS
 62
     0
100
AcDbLine
 10
0.0
 20
0.0
 30
0.0
 11
-1.0
 21
-0.166666667
 31
0.0
  0
LINE
  5
C0
330
95
100
AcDbEntity
  8
0
  6
CONTINUOUS
 62
     0
100
AcDbLine
 10
-1.0
 20
0.166666667
 30
0.0
 11
-1.0
 21
-0.166666667
 31
0.0
  0
ENDBLK
  5
97
330
95
100
AcDbEntity
  8
0
100
AcDbBlockEnd
  0
BLOCK
  5
99
330
98
100
AcDbEntity
  8
0
100
AcDbBlockBegin
  2
EX_NNORM
 70
     0
 10
0.0
 20
0.0
 30
0.0
  3
EX_NNORM
  1

  0
LINE
  5
C1
330
98
100
AcDbEntity
  8
0
  6
CONTINUOUS
 62
     0
100
AcDbLine
 10
0.0
 20
0.0
 30
0.0
 11
-1.0
 21
0.0
 31
0.0
  0
LINE
  5
C2
330
98
100
AcDbEntity
  8
0
  6
CONTINUOUS
 62
     0
100
AcDbLine
 10
0.0
 20
0.0
 30
0.0
 11
-1.0
 21
0.166666667
 31
0.0
  0
LINE
  5
C3
330
98
100
AcDbEntity
  8
0
  6
CONTINUOUS
 62
     0
100
AcDbLine
 10
0.0
 20
0.0
 30
0.0
 11
-1.0
 21
-0.166666667
 31
0.0
  0
LINE
  5
C4
330
98
100
AcDbEntity
  8
0
  6
CONTINUOUS
 62
     0
100
AcDbLine
 10
-1.0
 20
0.166666667
 30
0.0
 11
-1.0
 21
-0.166666667
 31
0.0
  0
ENDBLK
  5
9A
330
98
100
AcDbEntity
  8
0
100
AcDbBlockEnd
  0
BLOCK
  5
9C
330
9B
100
AcDbEntity
  8
0
100
AcDbBlockBegin
  2
EX_BBOX
 70
     0
 10
0.0
 20
0.0
 30
0.0
  3
EX_BBOX
  1

  0
LINE
  5
C5
330
9B
100
AcDbEntity
  8
0
  6
CONTINUOUS
 62
     0
100
AcDbLine
 10
0.0
 20
0.0
 30
0.0
 11
-1.0
 21
0.0
 31
0.0
  0
LINE
  5
C6
330
9B
100
AcDbEntity
  8
0
  6
CONTINUOUS
 62
     0
100
AcDbLine
 10
-0.5
 20
0.5
 30
0.0
 11
0.5
 21
0.5
 31
0.0
  0
LINE
  5
C7
330
9B
100
AcDbEntity
  8
0
  6
CONTINUOUS
 62
     0
100
AcDbLine
 10
0.5
 20
0.5
 30
0.0
 11
0.5
 21
-0.5
 31
0.0
  0
LINE
  5
C8
330
9B
100
AcDbEntity
  8
0
  6
CONTINUOUS
 62
     0
100
AcDbLine
 10
0.5
 20
-0.5
 30
0.0
 11
-0.5
 21
-0.5
 31
0.0
  0
LINE
  5
C9
330
9B
100
AcDbEntity
  8
0
  6
CONTINUOUS
 62
     0
100
AcDbLine
 10
-0.5
 20
-0.5
 30
0.0
 11
-0.5
 21
0.5
 31
0.0
  0
LINE
  5
CA
330
9B
100
AcDbEntity
  8
0
  6
CONTINUOUS
 62
     0
100
AcDbLine
 10
-0.25
 20
0.25
 30
0.0
 11
0.25
 21
0.25
 31
0.0
  0
LINE
  5
CB
330
9B
100
AcDbEntity
  8
0
  6
CONTINUOUS
 62
     0
100
AcDbLine
 10
0.25
 20
0.25
 30
0.0
 11
0.25
 21
-0.25
 31
0.0
  0
LINE
  5
CC
330
9B
100
AcDbEntity
  8
0
  6
CONTINUOUS
 62
     0
100
AcDbLine
 10
0.25
 20
-0.25
 30
0.0
 11
-0.25
 21
-0.25
 31
0.0
  0
LINE
  5
CD
330
9B
100
AcDbEntity
  8
0
  6
CONTINUOUS
 62
     0
100
AcDbLine
 10
-0.25
 20
-0.25
 30
0.0
 11
-0.25
 21
0.25
 31
0.0
  0
ENDBLK
  5
9D
330
9B
100
AcDbEntity
  8
0
100
AcDbBlockEnd
  0
BLOCK
  5
9F
330
9E
100
AcDbEntity
  8
0
100
AcDbBlockBegin
  2
EX_WBOX
 70
     0
 10
0.0
 20
0.0
 30
0.0
  3
EX_WBOX
  1

  0
LINE
  5
CE
330
9E
100
AcDbEntity
  8
0
  6
CONTINUOUS
 62
     0
100
AcDbLine
 10
-0.5
 20
0.0
 30
0.0
 11
-1.0
 21
0.0
 31
0.0
  0
LINE
  5
CF
330
9E
100
AcDbEntity
  8
0
  6
CONTINUOUS
 62
     0
100
AcDbLine
 10
-0.5
 20
0.5
 30
0.0
 11
0.5
 21
0.5
 31
0.0
  0
LINE
  5
D0
330
9E
100
AcDbEntity
  8
0
  6
CONTINUOUS
 62
     0
100
AcDbLine
 10
0.5
 20
0.5
 30
0.0
 11
0.5
 21
-0.5
 31
0.0
  0
LINE
  5
D1
330
9E
100
AcDbEntity
  8
0
  6
CONTINUOUS
 62
     0
100
AcDbLine
 10
0.5
 20
-0.5
 30
0.0
 11
-0.5
 21
-0.5
 31
0.0
  0
LINE
  5
D2
330
9E
100
AcDbEntity
  8
0
  6
CONTINUOUS
 62
     0
100
AcDbLine
 10
-0.5
 20
-0.5
 30
0.0
 11
-0.5
 21
0.5
 31
0.0
  0
ENDBLK
  5
A0
330
9E
100
AcDbEntity
  8
0
100
AcDbBlockEnd
  0
BLOCK
  5
A2
330
A1
100
AcDbEntity
  8
0
100
AcDbBlockBegin
  2
EX_INTEGRAL
 70
     0
 10
0.0
 20
0.0
 30
0.0
  3
EX_INTEGRAL
  1

  0
LINE
  5
D3
330
A1
100
AcDbEntity
  8
0
  6
CONTINUOUS
 62
     0
100
AcDbLine
 10
0.0
 20
0.0
 30
0.0
 11
-1.0
 21
0.0
 31
0.0
  0
ARC
  5
D4
330
A1
100
AcDbEntity
  8
0
  6
CONTINUOUS
 62
     0
100
AcDbCircle
 10
0.542115
 20
0.164992
 30
0.0
 40
0.56667
100
AcDbArc
 50
73.07249033629006
 51
196.9275130221199
  0
ARC
  5
D5
330
A1
100
AcDbEntity
  8
0
  6
CONTINUOUS
 62
     0
100
AcDbCircle
 10
-0.542115
 20
-0.164992
 30
0.0
 40
0.56667
100
AcDbArc
 50
253.0724869220464
 51
16.9275130559125
  0
ENDBLK
  5
A3
330
A1
100
AcDbEntity
  8
0
100
AcDbBlockEnd
  0
BLOCK
  5
121
330
120
100
AcDbEntity
  8
0
100
AcDbBlockBegin
  2
*D15
 70
     1
 10
0.0
 20
0.0
 30
0.0
  3
*D15
  1

  0
LINE
  5
123
330
120
100
AcDbEntity
  8
Ｓ_１_１
  6
CONTINUOUS
 62
     2
100
AcDbLine
 10
964.4999999999998
 20
300.0
 30
0.0
 11
620.5
 21
300.0
 31
0.0
  0
INSERT
  5
124
330
120
100
AcDbEntity
  8
Ｓ_１_１
 62
     2
100
AcDbBlockReference
  2
EX_NORM
 10
974.9999999999998
 20
300.0
 30
0.0
 41
10.5
 42
10.5
 43
10.5
  0
INSERT
  5
125
330
120
100
AcDbEntity
  8
Ｓ_１_１
 62
     2
100
AcDbBlockReference
  2
EX_NORM
 10
610.0
 20
300.0
 30
0.0
 41
10.5
 42
10.5
 43
10.5
 50
180.0
  0
MTEXT
  5
126
330
120
100
AcDbEntity
  8
Ｓ_１_１
 62
     2
100
AcDbMText
 10
792.4999999999999
 20
309.625
 30
0.0
 40
12.12016381576852
 41
0.0
 71
     5
 72
     1
  1
365
  7
EXCADDIM1
  0
POINT
  5
127
330
120
100
AcDbEntity
  8
DEFPOINTS
 62
     0
100
AcDbPoint
 10
974.9999999999998
 20
384.4999999999999
 30
0.0
  0
POINT
  5
128
330
120
100
AcDbEntity
  8
DEFPOINTS
 62
     0
100
AcDbPoint
 10
610.0
 20
384.4999999999999
 30
0.0
  0
POINT
  5
129
330
120
100
AcDbEntity
  8
DEFPOINTS
 62
     0
100
AcDbPoint
 10
610.0
 20
300.0
 30
0.0
  0
ENDBLK
  5
122
330
120
100
AcDbEntity
  8
0
100
AcDbBlockEnd
  0
BLOCK
  5
12C
330
12B
100
AcDbEntity
  8
0
100
AcDbBlockBegin
  2
*D16
 70
     1
 10
0.0
 20
0.0
 30
0.0
  3
*D16
  1

  0
LINE
  5
12E
330
12B
100
AcDbEntity
  8
Ｓ_１_１
  6
CONTINUOUS
 62
     2
100
AcDbLine
 10
610.0
 20
379.2499999999999
 30
0.0
 11
610.0
 21
296.5000000000001
 31
0.0
  0
LINE
  5
12F
330
12B
100
AcDbEntity
  8
Ｓ_１_１
  6
CONTINUOUS
 62
     2
100
AcDbLine
 10
610.0
 20
300.0000000000001
 30
0.0
 11
595.0
 21
300.0000000000001
 31
0.0
  0
LINE
  5
130
330
12B
100
AcDbEntity
  8
Ｓ_１_１
  6
CONTINUOUS
 62
     2
100
AcDbLine
 10
620.5
 20
300.0000000000001
 30
0.0
 11
631.0
 21
300.0000000000001
 31
0.0
  0
LINE
  5
131
330
12B
100
AcDbEntity
  8
Ｓ_１_１
  6
CONTINUOUS
 62
     2
100
AcDbLine
 10
584.5
 20
300.0000000000001
 30
0.0
 11
574.0
 21
300.0000000000001
 31
0.0
  0
INSERT
  5
132
330
12B
100
AcDbEntity
  8
Ｓ_１_１
 62
     2
100
AcDbBlockReference
  2
EX_NORM
 10
610.0
 20
300.0000000000001
 30
0.0
 41
10.5
 42
10.5
 43
10.5
 50
180.0
  0
INSERT
  5
133
330
12B
100
AcDbEntity
  8
Ｓ_１_１
 62
     2
100
AcDbBlockReference
  2
EX_BCIR
 10
595.0
 20
300.0000000000001
 30
0.0
 41
10.5
 42
10.5
 43
10.5
  0
MTEXT
  5
134
330
12B
100
AcDbEntity
  8
Ｓ_１_１
 62
     2
100
AcDbMText
 10
602.5
 20
309.6249999999999
 30
0.0
 40
12.12016381576852
 41
0.0
 71
     5
 72
     1
  1
15
  7
EXCADDIM1
  0
POINT
  5
135
330
12B
100
AcDbEntity
  8
DEFPOINTS
 62
     0
100
AcDbPoint
 10
610.0
 20
384.4999999999999
 30
0.0
  0
POINT
  5
136
330
12B
100
AcDbEntity
  8
DEFPOINTS
 62
     0
100
AcDbPoint
 10
595.0
 20
424.9999999999999
 30
0.0
  0
POINT
  5
137
330
12B
100
AcDbEntity
  8
DEFPOINTS
 62
     0
100
AcDbPoint
 10
595.0
 20
300.0000000000001
 30
0.0
  0
ENDBLK
  5
12D
330
12B
100
AcDbEntity
  8
0
100
AcDbBlockEnd
  0
BLOCK
  5
13A
330
139
100
AcDbEntity
  8
0
100
AcDbBlockBegin
  2
*D17
 70
     1
 10
0.0
 20
0.0
 30
0.0
  3
*D17
  1

  0
LINE
  5
13C
330
139
100
AcDbEntity
  8
Ｓ_１_１
  6
CONTINUOUS
 62
     2
100
AcDbLine
 10
595.0
 20
419.7499999999999
 30
0.0
 11
595.0
 21
296.5
 31
0.0
  0
LINE
  5
13D
330
139
100
AcDbEntity
  8
Ｓ_１_１
  6
CONTINUOUS
 62
     2
100
AcDbLine
 10
591.5000002384186
 20
300.0
 30
0.0
 11
568.4999997615814
 21
300.0
 31
0.0
  0
INSERT
  5
13E
330
139
100
AcDbEntity
  8
Ｓ_１_１
 62
     2
100
AcDbBlockReference
  2
EX_BCIR
 10
595.0
 20
300.0
 30
0.0
 41
3.499999761581421
 42
3.499999761581421
 43
3.499999761581421
  0
INSERT
  5
13F
330
139
100
AcDbEntity
  8
Ｓ_１_１
 62
     2
100
AcDbBlockReference
  2
EX_NORM
 10
565.0
 20
300.0
 30
0.0
 41
3.499999761581421
 42
3.499999761581421
 43
3.499999761581421
 50
180.0
  0
MTEXT
  5
140
330
139
100
AcDbEntity
  8
Ｓ_１_１
 62
     2
100
AcDbMText
 10
580.0000000000001
 20
309.6249999999999
 30
0.0
 40
12.12016381576852
 41
0.0
 71
     5
 72
     1
  1
30
  7
EXCADDIM1
  0
POINT
  5
141
330
139
100
AcDbEntity
  8
DEFPOINTS
 62
     0
100
AcDbPoint
 10
595.0
 20
424.9999999999999
 30
0.0
  0
POINT
  5
142
330
139
100
AcDbEntity
  8
DEFPOINTS
 62
     0
100
AcDbPoint
 10
565.0
 20
387.9999999999999
 30
0.0
  0
POINT
  5
143
330
139
100
AcDbEntity
  8
DEFPOINTS
 62
     0
100
AcDbPoint
 10
565.0
 20
300.0
 30
0.0
  0
ENDBLK
  5
13B
330
139
100
AcDbEntity
  8
0
100
AcDbBlockEnd
  0
BLOCK
  5
146
330
145
100
AcDbEntity
  8
0
100
AcDbBlockBegin
  2
*D18
 70
     1
 10
0.0
 20
0.0
 30
0.0
  3
*D18
  1

  0
LINE
  5
148
330
145
100
AcDbEntity
  8
Ｓ_１_１
  6
CONTINUOUS
 62
     2
100
AcDbLine
 10
565.0
 20
382.7499999999999
 30
0.0
 11
565.0
 21
271.5
 31
0.0
  0
LINE
  5
149
330
145
100
AcDbEntity
  8
Ｓ_１_１
  6
CONTINUOUS
 62
     2
100
AcDbLine
 10
974.9999999999998
 20
379.2499999999999
 30
0.0
 11
974.9999999999998
 21
271.5
 31
0.0
  0
LINE
  5
14A
330
145
100
AcDbEntity
  8
Ｓ_１_１
  6
CONTINUOUS
 62
     2
100
AcDbLine
 10
575.5
 20
275.0
 30
0.0
 11
964.4999999999998
 21
275.0
 31
0.0
  0
INSERT
  5
14B
330
145
100
AcDbEntity
  8
Ｓ_１_１
 62
     2
100
AcDbBlockReference
  2
EX_NORM
 10
565.0
 20
275.0
 30
0.0
 41
10.5
 42
10.5
 43
10.5
 50
180.0
  0
INSERT
  5
14C
330
145
100
AcDbEntity
  8
Ｓ_１_１
 62
     2
100
AcDbBlockReference
  2
EX_NORM
 10
974.9999999999998
 20
275.0
 30
0.0
 41
10.5
 42
10.5
 43
10.5
  0
MTEXT
  5
14D
330
145
100
AcDbEntity
  8
Ｓ_１_１
 62
     2
100
AcDbMText
 10
769.9999999999999
 20
284.625
 30
0.0
 40
12.12016381576852
 41
0.0
 71
     5
 72
     1
  1
410
  7
EXCADDIM1
  0
POINT
  5
14E
330
145
100
AcDbEntity
  8
DEFPOINTS
 62
     0
100
AcDbPoint
 10
565.0
 20
387.9999999999999
 30
0.0
  0
POINT
  5
14F
330
145
100
AcDbEntity
  8
DEFPOINTS
 62
     0
100
AcDbPoint
 10
974.9999999999998
 20
384.4999999999999
 30
0.0
  0
POINT
  5
150
330
145
100
AcDbEntity
  8
DEFPOINTS
 62
     0
100
AcDbPoint
 10
974.9999999999998
 20
275.0
 30
0.0
  0
ENDBLK
  5
147
330
145
100
AcDbEntity
  8
0
100
AcDbBlockEnd
  0
BLOCK
  5
153
330
152
100
AcDbEntity
  8
0
100
AcDbBlockBegin
  2
*D19
 70
     1
 10
0.0
 20
0.0
 30
0.0
  3
*D19
  1

  0
LINE
  5
155
330
152
100
AcDbEntity
  8
Ｓ_１_１
  6
CONTINUOUS
 62
     2
100
AcDbLine
 10
562.75
 20
564.9999999999999
 30
0.0
 11
496.4999999999998
 21
564.9999999999998
 31
0.0
  0
LINE
  5
156
330
152
100
AcDbEntity
  8
Ｓ_１_１
  6
CONTINUOUS
 62
     2
100
AcDbLine
 10
562.75
 20
384.9999999999999
 30
0.0
 11
496.4999999999998
 21
384.9999999999999
 31
0.0
  0
LINE
  5
157
330
152
100
AcDbEntity
  8
Ｓ_１_１
  6
CONTINUOUS
 62
     2
100
AcDbLine
 10
499.9999999999999
 20
554.4999999999998
 30
0.0
 11
499.9999999999999
 21
395.4999999999999
 31
0.0
  0
INSERT
  5
158
330
152
100
AcDbEntity
  8
Ｓ_１_１
 62
     2
100
AcDbBlockReference
  2
EX_NORM
 10
499.9999999999999
 20
564.9999999999998
 30
0.0
 41
10.5
 42
10.5
 43
10.5
 50
90.0
  0
INSERT
  5
159
330
152
100
AcDbEntity
  8
Ｓ_１_１
 62
     2
100
AcDbBlockReference
  2
EX_NORM
 10
499.9999999999999
 20
384.9999999999999
 30
0.0
 41
10.5
 42
10.5
 43
10.5
 50
270.0
  0
MTEXT
  5
15A
330
152
100
AcDbEntity
  8
Ｓ_１_１
 62
     2
100
AcDbMText
 10
490.3750000000001
 20
474.9999999999998
 30
0.0
 40
12.12016381576852
 41
0.0
 71
     5
 72
     1
  1
%%c180
  7
EXCADDIM1
 11
0.0
 21
1.0
 31
0.0
  0
POINT
  5
15B
330
152
100
AcDbEntity
  8
DEFPOINTS
 62
     0
100
AcDbPoint
 10
568.0
 20
564.9999999999999
 30
0.0
  0
POINT
  5
15C
330
152
100
AcDbEntity
  8
DEFPOINTS
 62
     0
100
AcDbPoint
 10
568.0
 20
384.9999999999999
 30
0.0
  0
POINT
  5
15D
330
152
100
AcDbEntity
  8
DEFPOINTS
 62
     0
100
AcDbPoint
 10
499.9999999999999
 20
384.9999999999999
 30
0.0
  0
ENDBLK
  5
154
330
152
100
AcDbEntity
  8
0
100
AcDbBlockEnd
  0
BLOCK
  5
160
330
15F
100
AcDbEntity
  8
0
100
AcDbBlockBegin
  2
*D20
 70
     1
 10
0.0
 20
0.0
 30
0.0
  3
*D20
  1

  0
LINE
  5
162
330
15F
100
AcDbEntity
  8
Ｓ_１_１
  6
CONTINUOUS
 62
     2
100
AcDbLine
 10
978.2499999999997
 20
567.4999999999998
 30
0.0
 11
1053.5
 21
567.4999999999998
 31
0.0
  0
LINE
  5
163
330
15F
100
AcDbEntity
  8
Ｓ_１_１
  6
CONTINUOUS
 62
     2
100
AcDbLine
 10
978.2499999999997
 20
382.4999999999999
 30
0.0
 11
1053.5
 21
382.4999999999999
 31
0.0
  0
LINE
  5
164
330
15F
100
AcDbEntity
  8
Ｓ_１_１
  6
CONTINUOUS
 62
     2
100
AcDbLine
 10
1050.0
 20
556.9999999999998
 30
0.0
 11
1050.0
 21
392.9999999999999
 31
0.0
  0
INSERT
  5
165
330
15F
100
AcDbEntity
  8
Ｓ_１_１
 62
     2
100
AcDbBlockReference
  2
EX_NORM
 10
1050.0
 20
567.4999999999998
 30
0.0
 41
10.5
 42
10.5
 43
10.5
 50
90.0
  0
INSERT
  5
166
330
15F
100
AcDbEntity
  8
Ｓ_１_１
 62
     2
100
AcDbBlockReference
  2
EX_NORM
 10
1050.0
 20
382.4999999999999
 30
0.0
 41
10.5
 42
10.5
 43
10.5
 50
270.0
  0
MTEXT
  5
167
330
15F
100
AcDbEntity
  8
Ｓ_１_１
 62
     2
100
AcDbMText
 10
1040.375
 20
474.9999999999995
 30
0.0
 40
12.12016381576852
 41
0.0
 71
     5
 72
     1
  1
%%c185
  7
EXCADDIM1
 11
0.0
 21
1.0
 31
0.0
  0
POINT
  5
168
330
15F
100
AcDbEntity
  8
DEFPOINTS
 62
     0
100
AcDbPoint
 10
972.9999999999997
 20
567.4999999999998
 30
0.0
  0
POINT
  5
169
330
15F
100
AcDbEntity
  8
DEFPOINTS
 62
     0
100
AcDbPoint
 10
972.9999999999997
 20
382.4999999999999
 30
0.0
  0
POINT
  5
16A
330
15F
100
AcDbEntity
  8
DEFPOINTS
 62
     0
100
AcDbPoint
 10
1050.0
 20
382.4999999999999
 30
0.0
  0
ENDBLK
  5
161
330
15F
100
AcDbEntity
  8
0
100
AcDbBlockEnd
  0
BLOCK
  5
16D
330
16C
100
AcDbEntity
  8
0
100
AcDbBlockBegin
  2
*D21
 70
     1
 10
0.0
 20
0.0
 30
0.0
  3
*D21
  1

  0
LINE
  5
16F
330
16C
100
AcDbEntity
  8
Ｓ_１_１
  6
CONTINUOUS
 62
     2
100
AcDbLine
 10
1305.8586385441
 20
507.2499999999932
 30
0.0
 11
1194.141361455899
 21
442.7500000000064
 31
0.0
  0
MTEXT
  5
170
330
16C
100
AcDbEntity
  8
Ｓ_１_１
 62
     2
100
AcDbMText
 10
1365.386944126151
 20
552.4440007995595
 30
0.0
 40
12.12016381576852
 41
0.0
 71
     5
 72
     1
  1
P.C.D 150
  7
EXCADDIM1
 11
0.8660254037844981
 21
0.4999999999998969
 31
0.0
  0
LINE
  5
171
330
16C
100
AcDbEntity
  8
Ｓ_１_１
  6
CONTINUOUS
 62
     2
100
AcDbLine
 10
1185.048094716162
 20
437.5000000000074
 30
0.0
 11
1314.951905283837
 21
512.4999999999922
 31
0.0
  0
INSERT
  5
172
330
16C
100
AcDbEntity
  8
Ｓ_１_１
 62
     2
100
AcDbBlockReference
  2
EX_NORM
 10
1185.048094716162
 20
437.5000000000074
 30
0.0
 41
10.5
 42
10.5
 43
10.5
 50
209.9999999999932
  0
INSERT
  5
173
330
16C
100
AcDbEntity
  8
Ｓ_１_１
 62
     2
100
AcDbBlockReference
  2
EX_NORM
 10
1314.951905283837
 20
512.4999999999922
 30
0.0
 41
10.5
 42
10.5
 43
10.5
 50
29.99999999999318
  0
POINT
  5
174
330
16C
100
AcDbEntity
  8
DEFPOINTS
 62
     0
100
AcDbPoint
 10
1314.951905283837
 20
512.4999999999922
 30
0.0
  0
POINT
  5
175
330
16C
100
AcDbEntity
  8
DEFPOINTS
 62
     0
100
AcDbPoint
 10
1185.048094716162
 20
437.5000000000074
 30
0.0
  0
ENDBLK
  5
16E
330
16C
100
AcDbEntity
  8
0
100
AcDbBlockEnd
  0
BLOCK
  5
178
330
177
100
AcDbEntity
  8
0
100
AcDbBlockBegin
  2
*D22
 70
     1
 10
0.0
 20
0.0
 30
0.0
  3
*D22
  1

  0
LINE
  5
17A
330
177
100
AcDbEntity
  8
Ｓ_１_１
  6
CONTINUOUS
 62
     2
100
AcDbLine
 10
299.3634480157136
 20
446.5000000000011
 30
0.0
 11
200.6365519842865
 21
503.4999999999989
 31
0.0
  0
MTEXT
  5
17B
330
177
100
AcDbEntity
  8
Ｓ_１_１
 62
     2
100
AcDbMText
 10
378.2020893355395
 20
411.8078067587612
 30
0.0
 40
12.12016381576852
 41
0.0
 71
     5
 72
     1
  1
P.C.D 135
  7
EXCADDIM1
 11
0.8660254037844499
 21
-0.4999999999999806
 31
0.0
  0
LINE
  5
17C
330
177
100
AcDbEntity
  8
Ｓ_１_１
  6
CONTINUOUS
 62
     2
100
AcDbLine
 10
191.5432852445497
 20
508.7499999999986
 30
0.0
 11
308.4567147554504
 21
441.2500000000013
 31
0.0
  0
INSERT
  5
17D
330
177
100
AcDbEntity
  8
Ｓ_１_１
 62
     2
100
AcDbBlockReference
  2
EX_NORM
 10
191.5432852445497
 20
508.7499999999986
 30
0.0
 41
10.5
 42
10.5
 43
10.5
 50
150.0000000000013
  0
INSERT
  5
17E
330
177
100
AcDbEntity
  8
Ｓ_１_１
 62
     2
100
AcDbBlockReference
  2
EX_NORM
 10
308.4567147554504
 20
441.2500000000013
 30
0.0
 41
10.5
 42
10.5
 43
10.5
 50
330.0000000000013
  0
POINT
  5
17F
330
177
100
AcDbEntity
  8
DEFPOINTS
 62
     0
100
AcDbPoint
 10
308.4567147554504
 20
441.2500000000013
 30
0.0
  0
POINT
  5
180
330
177
100
AcDbEntity
  8
DEFPOINTS
 62
     0
100
AcDbPoint
 10
191.5432852445497
 20
508.7499999999986
 30
0.0
  0
ENDBLK
  5
179
330
177
100
AcDbEntity
  8
0
100
AcDbBlockEnd
  0
BLOCK
  5
183
330
182
100
AcDbEntity
  8
0
100
AcDbBlockBegin
  2
*D23
 70
     1
 10
0.0
 20
0.0
 30
0.0
  3
*D23
  1

  0
LINE
  5
185
330
182
100
AcDbEntity
  8
Ｓ_１_１
  6
CONTINUOUS
 62
     2
100
AcDbLine
 10
235.25
 20
339.4999999999999
 30
0.0
 11
96.49999999999999
 21
339.4999999999999
 31
0.0
  0
LINE
  5
186
330
182
100
AcDbEntity
  8
Ｓ_１_１
  6
CONTINUOUS
 62
     2
100
AcDbLine
 10
235.25
 20
610.5
 30
0.0
 11
96.5
 21
610.5
 31
0.0
  0
LINE
  5
187
330
182
100
AcDbEntity
  8
Ｓ_１_１
  6
CONTINUOUS
 62
     2
100
AcDbLine
 10
100.0
 20
349.9999999999999
 30
0.0
 11
100.0
 21
600.0
 31
0.0
  0
INSERT
  5
188
330
182
100
AcDbEntity
  8
Ｓ_１_１
 62
     2
100
AcDbBlockReference
  2
EX_NORM
 10
100.0
 20
339.4999999999999
 30
0.0
 41
10.5
 42
10.5
 43
10.5
 50
270.0
  0
INSERT
  5
189
330
182
100
AcDbEntity
  8
Ｓ_１_１
 62
     2
100
AcDbBlockReference
  2
EX_NORM
 10
100.0
 20
610.5
 30
0.0
 41
10.5
 42
10.5
 43
10.5
 50
90.0
  0
MTEXT
  5
18A
330
182
100
AcDbEntity
  8
Ｓ_１_１
 62
     2
100
AcDbMText
 10
90.37500000000004
 20
474.9999999999999
 30
0.0
 40
12.12016381576852
 41
0.0
 71
     5
 72
     1
  1
271
  7
EXCADDIM1
 11
5.243857828487823E-17
 21
1.0
 31
0.0
  0
POINT
  5
18B
330
182
100
AcDbEntity
  8
DEFPOINTS
 62
     0
100
AcDbPoint
 10
240.5
 20
339.4999999999999
 30
0.0
  0
POINT
  5
18C
330
182
100
AcDbEntity
  8
DEFPOINTS
 62
     0
100
AcDbPoint
 10
240.5
 20
610.5
 30
0.0
  0
POINT
  5
18D
330
182
100
AcDbEntity
  8
DEFPOINTS
 62
     0
100
AcDbPoint
 10
100.0
 20
610.5
 30
0.0
  0
ENDBLK
  5
184
330
182
100
AcDbEntity
  8
0
100
AcDbBlockEnd
  0
BLOCK
  5
399
330
398
100
AcDbEntity
  8
0
100
AcDbBlockBegin
  2
*D24
 70
     1
 10
0.0
 20
0.0
 30
0.0
  3
*D24
  1

  0
LINE
  5
39B
330
398
100
AcDbEntity
  8
Ｓ_１_１
  6
CONTINUOUS
 62
     2
100
AcDbLine
 10
423.45
 20
475.0000000000001
 30
0.0
 11
443.8943276465977
 21
475.0000000000001
 31
0.0
  0
LINE
  5
39C
330
398
100
AcDbEntity
  8
Ｓ_１_１
  6
CONTINUOUS
 62
     2
100
AcDbLine
 10
355.3123106012296
 20
580.3123106012292
 30
0.0
 11
387.1039939125157
 21
612.1039939125152
 31
0.0
  0
ARC
  5
39D
330
398
100
AcDbEntity
  8
Ｓ_１_１
  6
CONTINUOUS
 62
     2
100
AcDbCircle
 10
250.0000000000001
 20
475.0000000000001
 30
0.0
 40
190.3943276465976
100
AcDbArc
 50
3.160188417288315
 51
41.8398115827116
  0
INSERT
  5
39E
330
398
100
AcDbEntity
  8
Ｓ_１_１
 62
     2
100
AcDbBlockReference
  2
EX_NORM
 10
440.3943276465977
 20
475.0000000000001
 30
0.0
 41
10.5
 42
10.5
 43
10.5
 50
271.5800942086441
  0
INSERT
  5
39F
330
398
100
AcDbEntity
  8
Ｓ_１_１
 62
     2
100
AcDbBlockReference
  2
EX_NORM
 10
384.6291201783628
 20
609.6291201783623
 30
0.0
 41
10.5
 42
10.5
 43
10.5
 50
133.4199057913558
  0
MTEXT
  5
3A0
330
398
100
AcDbEntity
  8
Ｓ_１_１
 62
     2
100
AcDbMText
 10
434.7937629193607
 20
551.5440828431574
 30
0.0
 40
12.12016381576852
 41
0.0
 71
     5
 72
     1
  1
45%%d
  7
EXCADDIM1
 11
0.3826834323650892
 21
-0.9238795325112871
 31
0.0
  0
POINT
  5
3A1
330
398
100
AcDbEntity
  8
DEFPOINTS
 62
     0
100
AcDbPoint
 10
250.0000000000001
 20
475.0000000000001
 30
0.0
  0
POINT
  5
3A2
330
398
100
AcDbEntity
  8
DEFPOINTS
 62
     0
100
AcDbPoint
 10
418.2
 20
475.0000000000001
 30
0.0
  0
POINT
  5
3A3
330
398
100
AcDbEntity
  8
DEFPOINTS
 62
     0
100
AcDbPoint
 10
351.6000000000003
 20
576.5999999999999
 30
0.0
  0
POINT
  5
3A4
330
398
100
AcDbEntity
  8
DEFPOINTS
 62
     0
100
AcDbPoint
 10
433.9067982527915
 20
524.2776780744289
 30
0.0
  0
ENDBLK
  5
39A
330
398
100
AcDbEntity
  8
0
100
AcDbBlockEnd
  0
BLOCK
  5
472
330
471
100
AcDbEntity
  8
0
100
AcDbBlockBegin
  2
*D25
 70
     1
 10
0.0
 20
0.0
 30
0.0
  3
*D25
  1

  0
LINE
  5
474
330
471
100
AcDbEntity
  8
Ｓ_１_１
  6
CONTINUOUS
 62
     2
100
AcDbLine
 10
975.0
 20
570.75
 30
0.0
 11
975.0
 21
653.5000000000002
 31
0.0
  0
LINE
  5
475
330
471
100
AcDbEntity
  8
Ｓ_１_１
  6
CONTINUOUS
 62
     2
100
AcDbLine
 10
755.0
 20
500.25
 30
0.0
 11
755.0
 21
653.5000000000002
 31
0.0
  0
LINE
  5
476
330
471
100
AcDbEntity
  8
Ｓ_１_１
  6
CONTINUOUS
 62
     2
100
AcDbLine
 10
964.5
 20
650.0
 30
0.0
 11
765.5
 21
650.0
 31
0.0
  0
INSERT
  5
477
330
471
100
AcDbEntity
  8
Ｓ_１_１
 62
     2
100
AcDbBlockReference
  2
EX_NORM
 10
975.0
 20
650.0
 30
0.0
 41
10.5
 42
10.5
 43
10.5
  0
INSERT
  5
478
330
471
100
AcDbEntity
  8
Ｓ_１_１
 62
     2
100
AcDbBlockReference
  2
EX_NORM
 10
755.0
 20
650.0
 30
0.0
 41
10.5
 42
10.5
 43
10.5
 50
180.0
  0
MTEXT
  5
479
330
471
100
AcDbEntity
  8
Ｓ_１_１
 62
     2
100
AcDbMText
 10
864.9999999999999
 20
659.625
 30
0.0
 40
12.12016381576852
 41
0.0
 71
     5
 72
     1
  1
220
  7
EXCADDIM1
  0
POINT
  5
47A
330
471
100
AcDbEntity
  8
DEFPOINTS
 62
     0
100
AcDbPoint
 10
975.0
 20
565.5
 30
0.0
  0
POINT
  5
47B
330
471
100
AcDbEntity
  8
DEFPOINTS
 62
     0
100
AcDbPoint
 10
755.0
 20
495.0
 30
0.0
  0
POINT
  5
47C
330
471
100
AcDbEntity
  8
DEFPOINTS
 62
     0
100
AcDbPoint
 10
755.0
 20
650.0
 30
0.0
  0
ENDBLK
  5
473
330
471
100
AcDbEntity
  8
0
100
AcDbBlockEnd
  0
BLOCK
  5
47F
330
47E
100
AcDbEntity
  8
0
100
AcDbBlockBegin
  2
*D26
 70
     1
 10
0.0
 20
0.0
 30
0.0
  3
*D26
  1

  0
LINE
  5
481
330
47E
100
AcDbEntity
  8
Ｓ_１_１
  6
CONTINUOUS
 62
     2
100
AcDbLine
 10
755.0
 20
500.25
 30
0.0
 11
755.0
 21
653.5000000000002
 31
0.0
  0
LINE
  5
482
330
47E
100
AcDbEntity
  8
Ｓ_１_１
  6
CONTINUOUS
 62
     2
100
AcDbLine
 10
680.0
 20
583.45
 30
0.0
 11
680.0
 21
653.5000000000002
 31
0.0
  0
LINE
  5
483
330
47E
100
AcDbEntity
  8
Ｓ_１_１
  6
CONTINUOUS
 62
     2
100
AcDbLine
 10
744.5
 20
650.0
 30
0.0
 11
690.5
 21
650.0
 31
0.0
  0
INSERT
  5
484
330
47E
100
AcDbEntity
  8
Ｓ_１_１
 62
     2
100
AcDbBlockReference
  2
EX_NORM
 10
755.0
 20
650.0
 30
0.0
 41
10.5
 42
10.5
 43
10.5
  0
INSERT
  5
485
330
47E
100
AcDbEntity
  8
Ｓ_１_１
 62
     2
100
AcDbBlockReference
  2
EX_NORM
 10
680.0
 20
650.0
 30
0.0
 41
10.5
 42
10.5
 43
10.5
 50
180.0
  0
MTEXT
  5
486
330
47E
100
AcDbEntity
  8
Ｓ_１_１
 62
     2
100
AcDbMText
 10
717.5
 20
659.625
 30
0.0
 40
12.12016381576852
 41
0.0
 71
     5
 72
     1
  1
75
  7
EXCADDIM1
  0
POINT
  5
487
330
47E
100
AcDbEntity
  8
DEFPOINTS
 62
     0
100
AcDbPoint
 10
755.0
 20
495.0
 30
0.0
  0
POINT
  5
488
330
47E
100
AcDbEntity
  8
DEFPOINTS
 62
     0
100
AcDbPoint
 10
680.0
 20
578.2
 30
0.0
  0
POINT
  5
489
330
47E
100
AcDbEntity
  8
DEFPOINTS
 62
     0
100
AcDbPoint
 10
680.0
 20
650.0
 30
0.0
  0
ENDBLK
  5
480
330
47E
100
AcDbEntity
  8
0
100
AcDbBlockEnd
  0
BLOCK
  5
48C
330
48B
100
AcDbEntity
  8
0
100
AcDbBlockBegin
  2
*D27
 70
     1
 10
0.0
 20
0.0
 30
0.0
  3
*D27
  1

  0
LINE
  5
48E
330
48B
100
AcDbEntity
  8
Ｓ_１_１
  6
CONTINUOUS
 62
     2
100
AcDbLine
 10
680.0
 20
583.45
 30
0.0
 11
680.0
 21
653.5000000000002
 31
0.0
  0
LINE
  5
48F
330
48B
100
AcDbEntity
  8
Ｓ_１_１
  6
CONTINUOUS
 62
     2
100
AcDbLine
 10
610.0
 20
570.75
 30
0.0
 11
610.0
 21
653.5000000000002
 31
0.0
  0
LINE
  5
490
330
48B
100
AcDbEntity
  8
Ｓ_１_１
  6
CONTINUOUS
 62
     2
100
AcDbLine
 10
669.5
 20
650.0
 30
0.0
 11
620.5
 21
650.0
 31
0.0
  0
INSERT
  5
491
330
48B
100
AcDbEntity
  8
Ｓ_１_１
 62
     2
100
AcDbBlockReference
  2
EX_NORM
 10
680.0
 20
650.0
 30
0.0
 41
10.5
 42
10.5
 43
10.5
  0
INSERT
  5
492
330
48B
100
AcDbEntity
  8
Ｓ_１_１
 62
     2
100
AcDbBlockReference
  2
EX_NORM
 10
610.0
 20
650.0
 30
0.0
 41
10.5
 42
10.5
 43
10.5
 50
180.0
  0
MTEXT
  5
493
330
48B
100
AcDbEntity
  8
Ｓ_１_１
 62
     2
100
AcDbMText
 10
645.0
 20
659.625
 30
0.0
 40
12.12016381576852
 41
0.0
 71
     5
 72
     1
  1
70
  7
EXCADDIM1
  0
POINT
  5
494
330
48B
100
AcDbEntity
  8
DEFPOINTS
 62
     0
100
AcDbPoint
 10
680.0
 20
578.2
 30
0.0
  0
POINT
  5
495
330
48B
100
AcDbEntity
  8
DEFPOINTS
 62
     0
100
AcDbPoint
 10
610.0
 20
565.5
 30
0.0
  0
POINT
  5
496
330
48B
100
AcDbEntity
  8
DEFPOINTS
 62
     0
100
AcDbPoint
 10
610.0
 20
650.0
 30
0.0
  0
ENDBLK
  5
48D
330
48B
100
AcDbEntity
  8
0
100
AcDbBlockEnd
  0
ENDSEC
  0
SECTION
  2
ENTITIES
  0
LINE
  5
D6
330
1F
100
AcDbEntity
  8
図面枠
  6
CONTINUOUS
 62
     5
100
AcDbLine
 10
35.0
 20
35.0
 30
0.0
 11
1435.0
 21
35.0
 31
0.0
  0
LINE
  5
D7
330
1F
100
AcDbEntity
  8
図面枠
  6
CONTINUOUS
 62
     5
100
AcDbLine
 10
1435.0
 20
35.0
 30
0.0
 11
1435.0
 21
1004.5
 31
0.0
  0
LINE
  5
D8
330
1F
100
AcDbEntity
  8
図面枠
  6
CONTINUOUS
 62
     5
100
AcDbLine
 10
1435.0
 20
1004.5
 30
0.0
 11
35.00000000000018
 21
1004.5
 31
0.0
  0
LINE
  5
D9
330
1F
100
AcDbEntity
  8
図面枠
  6
CONTINUOUS
 62
     5
100
AcDbLine
 10
35.00000000000018
 20
1004.5
 30
0.0
 11
35.0
 21
35.0
 31
0.0
  0
TEXT
  5
DB
330
1F
100
AcDbEntity
  8
図面枠
  6
CONTINUOUS
 62
     4
100
AcDbText
 10
1354.5
 20
949.8398440927267
 30
0.0
 40
12.12016381576852
  1
kN
 41
0.9992308297349457
  7
EXCADTTF1
 72
     5
 11
1370.25
 21
949.8398440927267
 31
0.0
100
AcDbText
  0
TEXT
  5
DC
330
1F
100
AcDbEntity
  8
図面枠
  6
CONTINUOUS
 62
     4
100
AcDbText
 10
1144.5
 20
949.8398440927267
 30
0.0
 40
12.12016381576852
  1
能力
 41
0.9992308297349457
  7
EXCADTTF1
 72
     5
 11
1176.0
 21
949.8398440927267
 31
0.0
100
AcDbText
  0
TEXT
  5
DD
330
1F
100
AcDbEntity
  8
図面枠
  6
CONTINUOUS
 62
     4
100
AcDbText
 10
1238.125
 20
970.8398440927267
 30
0.0
 40
12.12016381576852
  1
仕　　　様
 41
0.9992308297349457
  7
EXCADTTF1
 72
     5
 11
1316.875
 21
970.8398440927267
 31
0.0
100
AcDbText
  0
LINE
  5
DE
330
1F
100
AcDbEntity
  8
図面枠
  6
CONTINUOUS
 62
     3
100
AcDbLine
 10
1137.5
 20
987.0
 30
0.0
 11
1417.5
 21
987.0
 31
0.0
  0
LINE
  5
DF
330
1F
100
AcDbEntity
  8
図面枠
  6
CONTINUOUS
 62
     3
100
AcDbLine
 10
1137.5
 20
966.0
 30
0.0
 11
1417.5
 21
966.0
 31
0.0
  0
TEXT
  5
E0
330
1F
100
AcDbEntity
  8
図面枠
  6
CONTINUOUS
 62
     4
100
AcDbText
 10
1309.0
 20
949.8398440927267
 30
0.0
 40
12.12016381576852
  1
1000
 41
0.9992308297349457
  7
EXCADTTF1
 72
     5
 11
1340.5
 21
949.8398440927267
 31
0.0
100
AcDbText
  0
LINE
  5
E1
330
1F
100
AcDbEntity
  8
図面枠
  6
CONTINUOUS
 62
     3
100
AcDbLine
 10
52.50000000000006
 20
987.0
 30
0.0
 11
651.0000000000001
 21
987.0
 31
0.0
  0
LINE
  5
E2
330
1F
100
AcDbEntity
  8
図面枠
  6
CONTINUOUS
 62
     3
100
AcDbLine
 10
52.50000000000006
 20
955.5
 30
0.0
 11
651.0000000000001
 21
955.5
 31
0.0
  0
LINE
  5
E3
330
1F
100
AcDbEntity
  8
図面枠
  6
CONTINUOUS
 62
     3
100
AcDbLine
 10
52.50000000000006
 20
987.0
 30
0.0
 11
52.50000000000006
 21
955.5
 31
0.0
  0
LINE
  5
E4
330
1F
100
AcDbEntity
  8
図面枠
  6
CONTINUOUS
 62
     3
100
AcDbLine
 10
651.0000000000001
 20
987.0
 30
0.0
 11
651.0000000000001
 21
955.5
 31
0.0
  0
LINE
  5
E5
330
1F
100
AcDbEntity
  8
図面枠
  6
CONTINUOUS
 62
     3
100
AcDbLine
 10
1281.0
 20
84.0
 30
0.0
 11
1417.5
 21
84.0
 31
0.0
  0
LINE
  5
E6
330
1F
100
AcDbEntity
  8
図面枠
  6
CONTINUOUS
 62
     3
100
AcDbLine
 10
1281.0
 20
52.5
 30
0.0
 11
1417.5
 21
52.5
 31
0.0
  0
LINE
  5
E7
330
1F
100
AcDbEntity
  8
図面枠
  6
CONTINUOUS
 62
     3
100
AcDbLine
 10
1281.0
 20
84.0
 30
0.0
 11
1281.0
 21
52.5
 31
0.0
  0
LINE
  5
E8
330
1F
100
AcDbEntity
  8
図面枠
  6
CONTINUOUS
 62
     3
100
AcDbLine
 10
1417.5
 20
84.0
 30
0.0
 11
1417.5
 21
52.5
 31
0.0
  0
TEXT
  5
E9
330
1F
100
AcDbEntity
  8
図面枠
  6
CONTINUOUS
 62
     4
100
AcDbText
 10
1291.5
 20
60.703125
 30
0.0
 40
16.16021939953811
  1
OTV-10020-U
 41
0.999230769230769
  7
EXCADTTF1
 72
     5
 11
1407.0
 21
60.703125
 31
0.0
100
AcDbText
  0
TEXT
  5
EA
330
1F
100
AcDbEntity
  8
図面枠
  6
CONTINUOUS
 62
     4
100
AcDbText
 10
63.00000000000006
 20
963.703125
 30
0.0
 40
16.16021939953811
  1
1000kN200ストローク油圧ジャッキ　ユニバーサルヘッド付き
 41
0.999230769230769
  7
EXCADTTF1
 72
     5
 11
640.5000000000001
 21
963.703125
 31
0.0
100
AcDbText
  0
TEXT
  5
EB
330
1F
100
AcDbEntity
  8
図面枠
  6
CONTINUOUS
 62
     4
100
AcDbText
 10
1354.5
 20
823.8398436158895
 30
0.0
 40
12.12016381576852
  1
cm
 41
0.9992308297349457
  7
EXCADTTF1
 72
     5
 11
1370.25
 21
823.8398436158895
 31
0.0
100
AcDbText
  0
TEXT
  5
EC
330
1F
100
AcDbEntity
  8
図面枠
  6
CONTINUOUS
 62
     4
100
AcDbText
 10
1365.525
 20
831.2841797545552
 30
0.0
 40
5.45407338684756
  1
2
 41
0.9992308902391421
  7
EXCADTTF1
 72
     5
 11
1369.06875
 21
831.2841797545552
 31
0.0
100
AcDbText
  0
TEXT
  5
ED
330
1F
100
AcDbEntity
  8
図面枠
  6
CONTINUOUS
 62
     4
100
AcDbText
 10
1354.5
 20
928.8398440927267
 30
0.0
 40
12.12016381576852
  1
mm
 41
0.9992308297349457
  7
EXCADTTF1
 72
     5
 11
1370.25
 21
928.8398440927267
 31
0.0
100
AcDbText
  0
TEXT
  5
EE
330
1F
100
AcDbEntity
  8
図面枠
  6
CONTINUOUS
 62
     4
100
AcDbText
 10
1354.5
 20
907.8398440927267
 30
0.0
 40
12.12016381576852
  1
mm
 41
0.9992308297349457
  7
EXCADTTF1
 72
     5
 11
1370.25
 21
907.8398440927267
 31
0.0
100
AcDbText
  0
TEXT
  5
EF
330
1F
100
AcDbEntity
  8
図面枠
  6
CONTINUOUS
 62
     4
100
AcDbText
 10
1354.5
 20
886.8398440927267
 30
0.0
 40
12.12016381576852
  1
mm
 41
0.9992308297349457
  7
EXCADTTF1
 72
     5
 11
1370.25
 21
886.8398440927267
 31
0.0
100
AcDbText
  0
TEXT
  5
F0
330
1F
100
AcDbEntity
  8
図面枠
  6
CONTINUOUS
 62
     4
100
AcDbText
 10
1354.5
 20
865.8398440927267
 30
0.0
 40
12.12016381576852
  1
mm
 41
0.9992308297349457
  7
EXCADTTF1
 72
     5
 11
1370.25
 21
865.8398440927267
 31
0.0
100
AcDbText
  0
TEXT
  5
F1
330
1F
100
AcDbEntity
  8
図面枠
  6
CONTINUOUS
 62
     4
100
AcDbText
 10
1354.5
 20
844.8398440927267
 30
0.0
 40
12.12016381576852
  1
mm
 41
0.9992308297349457
  7
EXCADTTF1
 72
     5
 11
1370.25
 21
844.8398440927267
 31
0.0
100
AcDbText
  0
TEXT
  5
F2
330
1F
100
AcDbEntity
  8
図面枠
  6
CONTINUOUS
 62
     4
100
AcDbText
 10
1354.5
 20
802.8398440927267
 30
0.0
 40
12.12016381576852
  1
MPa
 41
0.9992308297349456
  7
EXCADTTF1
 72
     5
 11
1378.125
 21
802.8398440927267
 31
0.0
100
AcDbText
  0
TEXT
  5
F3
330
1F
100
AcDbEntity
  8
図面枠
  6
CONTINUOUS
 62
     4
100
AcDbText
 10
1144.5
 20
928.8398440927267
 30
0.0
 40
12.12016381576852
  1
ストローク
 41
0.9992308297349457
  7
EXCADTTF1
 72
     5
 11
1223.25
 21
928.8398440927267
 31
0.0
100
AcDbText
  0
TEXT
  5
F4
330
1F
100
AcDbEntity
  8
図面枠
  6
CONTINUOUS
 62
     4
100
AcDbText
 10
1144.5
 20
907.8398440927267
 30
0.0
 40
12.12016381576852
  1
最低機械高
 41
0.9992308297349457
  7
EXCADTTF1
 72
     5
 11
1223.25
 21
907.8398440927267
 31
0.0
100
AcDbText
  0
TEXT
  5
F5
330
1F
100
AcDbEntity
  8
図面枠
  6
CONTINUOUS
 62
     4
100
AcDbText
 10
1144.5
 20
886.8398440927267
 30
0.0
 40
12.12016381576852
  1
シリンダー外径
 41
0.9992308297349456
  7
EXCADTTF1
 72
     5
 11
1254.75
 21
886.8398440927267
 31
0.0
100
AcDbText
  0
TEXT
  5
F6
330
1F
100
AcDbEntity
  8
図面枠
  6
CONTINUOUS
 62
     4
100
AcDbText
 10
1144.5
 20
865.8398440927267
 30
0.0
 40
12.12016381576852
  1
ヘッド径
 41
0.9992308297349457
  7
EXCADTTF1
 72
     5
 11
1207.5
 21
865.8398440927267
 31
0.0
100
AcDbText
  0
TEXT
  5
F7
330
1F
100
AcDbEntity
  8
図面枠
  6
CONTINUOUS
 62
     4
100
AcDbText
 10
1144.5
 20
844.8398440927267
 30
0.0
 40
12.12016381576852
  1
ピストン径
 41
0.9992308297349457
  7
EXCADTTF1
 72
     5
 11
1223.25
 21
844.8398440927267
 31
0.0
100
AcDbText
  0
TEXT
  5
F8
330
1F
100
AcDbEntity
  8
図面枠
  6
CONTINUOUS
 62
     4
100
AcDbText
 10
1144.5
 20
823.8398440927267
 30
0.0
 40
12.12016381576852
  1
受圧面積
 41
0.9992308297349457
  7
EXCADTTF1
 72
     5
 11
1207.5
 21
823.8398440927267
 31
0.0
100
AcDbText
  0
TEXT
  5
F9
330
1F
100
AcDbEntity
  8
図面枠
  6
CONTINUOUS
 62
     4
100
AcDbText
 10
1144.5
 20
802.8398440927267
 30
0.0
 40
12.12016381576852
  1
最高使用圧力
 41
0.9992308297349456
  7
EXCADTTF1
 72
     5
 11
1239.0
 21
802.8398440927267
 31
0.0
100
AcDbText
  0
LINE
  5
FA
330
1F
100
AcDbEntity
  8
図面枠
  6
CONTINUOUS
 62
     2
100
AcDbLine
 10
1137.5
 20
945.0
 30
0.0
 11
1417.5
 21
945.0
 31
0.0
  0
LINE
  5
FB
330
1F
100
AcDbEntity
  8
図面枠
  6
CONTINUOUS
 62
     2
100
AcDbLine
 10
1137.5
 20
924.0
 30
0.0
 11
1417.5
 21
924.0
 31
0.0
  0
LINE
  5
FC
330
1F
100
AcDbEntity
  8
図面枠
  6
CONTINUOUS
 62
     2
100
AcDbLine
 10
1137.5
 20
903.0
 30
0.0
 11
1417.5
 21
903.0
 31
0.0
  0
LINE
  5
FD
330
1F
100
AcDbEntity
  8
図面枠
  6
CONTINUOUS
 62
     2
100
AcDbLine
 10
1137.5
 20
882.0
 30
0.0
 11
1417.5
 21
882.0
 31
0.0
  0
LINE
  5
FE
330
1F
100
AcDbEntity
  8
図面枠
  6
CONTINUOUS
 62
     2
100
AcDbLine
 10
1137.5
 20
861.0
 30
0.0
 11
1417.5
 21
861.0
 31
0.0
  0
LINE
  5
FF
330
1F
100
AcDbEntity
  8
図面枠
  6
CONTINUOUS
 62
     2
100
AcDbLine
 10
1137.5
 20
840.0
 30
0.0
 11
1417.5
 21
840.0
 31
0.0
  0
LINE
  5
100
330
1F
100
AcDbEntity
  8
図面枠
  6
CONTINUOUS
 62
     2
100
AcDbLine
 10
1137.5
 20
819.0
 30
0.0
 11
1417.5
 21
819.0
 31
0.0
  0
TEXT
  5
101
330
1F
100
AcDbEntity
  8
図面枠
  6
CONTINUOUS
 62
     4
100
AcDbText
 10
1309.0
 20
802.8398440927267
 30
0.0
 40
12.12016381576852
  1
60.6
 41
0.9992308297349457
  7
EXCADTTF1
 72
     5
 11
1340.5
 21
802.8398440927267
 31
0.0
100
AcDbText
  0
TEXT
  5
102
330
1F
100
AcDbEntity
  8
図面枠
  6
CONTINUOUS
 62
     4
100
AcDbText
 10
1301.125
 20
823.8398440927267
 30
0.0
 40
12.12016381576852
  1
165.1
 41
0.9992308297349457
  7
EXCADTTF1
 72
     5
 11
1340.5
 21
823.8398440927267
 31
0.0
100
AcDbText
  0
TEXT
  5
103
330
1F
100
AcDbEntity
  8
図面枠
  6
CONTINUOUS
 62
     4
100
AcDbText
 10
1316.875
 20
928.8398440927267
 30
0.0
 40
12.12016381576852
  1
200
 41
0.9992308297349456
  7
EXCADTTF1
 72
     5
 11
1340.5
 21
928.8398440927267
 31
0.0
100
AcDbText
  0
TEXT
  5
104
330
1F
100
AcDbEntity
  8
図面枠
  6
CONTINUOUS
 62
     4
100
AcDbText
 10
1316.875
 20
907.8398440927267
 30
0.0
 40
12.12016381576852
  1
410
 41
0.9992308297349456
  7
EXCADTTF1
 72
     5
 11
1340.5
 21
907.8398440927267
 31
0.0
100
AcDbText
  0
TEXT
  5
105
330
1F
100
AcDbEntity
  8
図面枠
  6
CONTINUOUS
 62
     4
100
AcDbText
 10
1316.875
 20
886.8398440927267
 30
0.0
 40
12.12016381576852
  1
185
 41
0.9992308297349456
  7
EXCADTTF1
 72
     5
 11
1340.5
 21
886.8398440927267
 31
0.0
100
AcDbText
  0
TEXT
  5
106
330
1F
100
AcDbEntity
  8
図面枠
  6
CONTINUOUS
 62
     4
100
AcDbText
 10
1316.875
 20
865.8398440927267
 30
0.0
 40
12.12016381576852
  1
180
 41
0.9992308297349456
  7
EXCADTTF1
 72
     5
 11
1340.5
 21
865.8398440927267
 31
0.0
100
AcDbText
  0
TEXT
  5
107
330
1F
100
AcDbEntity
  8
図面枠
  6
CONTINUOUS
 62
     4
100
AcDbText
 10
1316.875
 20
844.8398440927267
 30
0.0
 40
12.12016381576852
  1
145
 41
0.9992308297349456
  7
EXCADTTF1
 72
     5
 11
1340.5
 21
844.8398440927267
 31
0.0
100
AcDbText
  0
TEXT
  5
108
330
1F
100
AcDbEntity
  8
図面枠
  6
CONTINUOUS
 62
     4
100
AcDbText
 10
1354.5
 20
760.8398440927267
 30
0.0
 40
12.12016381576852
  1
kg
 41
0.9992308297349457
  7
EXCADTTF1
 72
     5
 11
1370.25
 21
760.8398440927267
 31
0.0
100
AcDbText
  0
TEXT
  5
109
330
1F
100
AcDbEntity
  8
図面枠
  6
CONTINUOUS
 62
     4
100
AcDbText
 10
1144.5
 20
781.8398440927267
 30
0.0
 40
12.12016381576852
  1
所要油量
 41
0.9992308297349457
  7
EXCADTTF1
 72
     5
 11
1207.5
 21
781.8398440927267
 31
0.0
100
AcDbText
  0
TEXT
  5
10A
330
1F
100
AcDbEntity
  8
図面枠
  6
CONTINUOUS
 62
     4
100
AcDbText
 10
1144.5
 20
760.8398440927267
 30
0.0
 40
12.12016381576852
  1
重量
 41
0.9992308297349457
  7
EXCADTTF1
 72
     5
 11
1176.0
 21
760.8398440927267
 31
0.0
100
AcDbText
  0
LINE
  5
10B
330
1F
100
AcDbEntity
  8
図面枠
  6
CONTINUOUS
 62
     2
100
AcDbLine
 10
1137.5
 20
798.0
 30
0.0
 11
1417.5
 21
798.0
 31
0.0
  0
LINE
  5
10C
330
1F
100
AcDbEntity
  8
図面枠
  6
CONTINUOUS
 62
     2
100
AcDbLine
 10
1137.5
 20
777.0
 30
0.0
 11
1417.5
 21
777.0
 31
0.0
  0
TEXT
  5
10D
330
1F
100
AcDbEntity
  8
図面枠
  6
CONTINUOUS
 62
     4
100
AcDbText
 10
1144.5
 20
739.8398436158895
 30
0.0
 40
12.12016381576852
  1
ユニバーサル
 41
0.9992308297349456
  7
EXCADTTF1
 72
     5
 11
1239.0
 21
739.8398436158895
 31
0.0
100
AcDbText
  0
TEXT
  5
10E
330
1F
100
AcDbEntity
  8
図面枠
  6
CONTINUOUS
 62
     4
100
AcDbText
 10
1144.5
 20
724.0898445695639
 30
0.0
 40
12.12016381576852
  1
振り角
 41
0.9992308297349456
  7
EXCADTTF1
 72
     5
 11
1191.75
 21
724.0898445695639
 31
0.0
100
AcDbText
  0
TEXT
  5
10F
330
1F
100
AcDbEntity
  8
図面枠
  6
CONTINUOUS
 62
     4
100
AcDbText
 10
1316.875
 20
739.8398440927267
 30
0.0
 40
12.12016381576852
  1
±3
 41
0.9992308297349456
  7
EXCADTTF1
 72
     5
 11
1340.5
 21
739.8398440927267
 31
0.0
100
AcDbText
  0
TEXT
  5
110
330
1F
100
AcDbEntity
  8
図面枠
  6
CONTINUOUS
 62
     4
100
AcDbText
 10
1354.5
 20
739.8398440927267
 30
0.0
 40
12.12016381576852
  1
°
 41
0.9992308297349457
  7
EXCADTTF1
 72
     5
 11
1370.25
 21
739.8398440927267
 31
0.0
100
AcDbText
  0
TEXT
  5
111
330
1F
100
AcDbEntity
  8
図面枠
  6
CONTINUOUS
 62
     4
100
AcDbText
 10
1354.5
 20
718.8398440927267
 30
0.0
 40
12.12016381576852
  1
%%%
 41
0.9992308297349457
  7
EXCADTTF1
 72
     5
 11
1362.375
 21
718.8398440927267
 31
0.0
100
AcDbText
  0
TEXT
  5
112
330
1F
100
AcDbEntity
  8
図面枠
  6
CONTINUOUS
 62
     4
100
AcDbText
 10
1316.875
 20
718.8398440927267
 30
0.0
 40
12.12016381576852
  1
±5
 41
0.9992308297349456
  7
EXCADTTF1
 72
     5
 11
1340.5
 21
718.8398440927267
 31
0.0
100
AcDbText
  0
LINE
  5
113
330
1F
100
AcDbEntity
  8
図面枠
  6
CONTINUOUS
 62
     2
100
AcDbLine
 10
1277.5
 20
735.0
 30
0.0
 11
1417.5
 21
735.0
 31
0.0
  0
LINE
  5
114
330
1F
100
AcDbEntity
  8
図面枠
  6
CONTINUOUS
 62
     3
100
AcDbLine
 10
1137.5
 20
714.0
 30
0.0
 11
1417.5
 21
714.0
 31
0.0
  0
LINE
  5
115
330
1F
100
AcDbEntity
  8
図面枠
  6
CONTINUOUS
 62
     2
100
AcDbLine
 10
1137.5
 20
756.0
 30
0.0
 11
1417.5
 21
756.0
 31
0.0
  0
LINE
  5
116
330
1F
100
AcDbEntity
  8
図面枠
  6
CONTINUOUS
 62
     3
100
AcDbLine
 10
1137.5
 20
987.0
 30
0.0
 11
1137.5
 21
714.0
 31
0.0
  0
LINE
  5
117
330
1F
100
AcDbEntity
  8
図面枠
  6
CONTINUOUS
 62
     3
100
AcDbLine
 10
1417.5
 20
987.0
 30
0.0
 11
1417.5
 21
714.0
 31
0.0
  0
LINE
  5
118
330
1F
100
AcDbEntity
  8
図面枠
  6
CONTINUOUS
 62
     2
100
AcDbLine
 10
1277.5
 20
966.0
 30
0.0
 11
1277.5
 21
714.0
 31
0.0
  0
LINE
  5
119
330
1F
100
AcDbEntity
  8
図面枠
  6
CONTINUOUS
 62
     2
100
AcDbLine
 10
1347.5
 20
966.0
 30
0.0
 11
1347.5
 21
714.0
 31
0.0
  0
TEXT
  5
11A
330
1F
100
AcDbEntity
  8
図面枠
  6
CONTINUOUS
 62
     4
100
AcDbText
 10
1354.5
 20
781.8398440927267
 30
0.0
 40
12.12016381576852
  1
L
 41
0.9992308297349457
  7
EXCADTTF1
 72
     5
 11
1362.375
 21
781.8398440927267
 31
0.0
100
AcDbText
  0
TEXT
  5
11B
330
1F
100
AcDbEntity
  8
図面枠
  6
CONTINUOUS
 62
     4
100
AcDbText
 10
1316.875
 20
781.8398440927267
 30
0.0
 40
12.12016381576852
  1
3.3
 41
0.9992308297349456
  7
EXCADTTF1
 72
     5
 11
1340.5
 21
781.8398440927267
 31
0.0
100
AcDbText
  0
TEXT
  5
11C
330
1F
100
AcDbEntity
  8
図面枠
  6
CONTINUOUS
 62
     4
100
AcDbText
 10
1309.0
 20
760.8398440927267
 30
0.0
 40
12.12016381576852
  1
約78
 41
0.9992308297349457
  7
EXCADTTF1
 72
     5
 11
1340.5
 21
760.8398440927267
 31
0.0
100
AcDbText
  0
DIMENSION
  5
11E
330
1F
100
AcDbEntity
  8
Ｓ_１_１
  6
CONTINUOUS
 62
     2
100
AcDbDimension
  2
*D15
 10
610.0
 20
300.0
 30
0.0
 11
792.4999999999999
 21
309.625
 31
0.0
 70
   160
  3
ISO-25
100
AcDbAlignedDimension
 13
974.9999999999998
 23
384.4999999999999
 33
0.0
 14
610.0
 24
384.4999999999999
 34
0.0
100
AcDbRotatedDimension
1001
ACAD
1000
DSTYLE
1002
{
1070
   270
1070
     2
1070
     6
1000
EX_NORM
1070
     7
1000
EX_NORM
1070
    41
1040
10.5
1070
    42
1040
0.0
1070
    44
1040
0.0
1070
    73
1070
     0
1070
    74
1070
     0
1070
    75
1070
     1
1070
    76
1070
     1
1070
    77
1070
     1
1070
    78
1070
     8
1070
   140
1040
12.12016381576852
1070
   147
1040
0.0
1070
   173
1070
     1
1070
   176
1070
     2
1070
   177
1070
     2
1070
   178
1070
     2
1070
   271
1070
     2
1070
   277
1070
     2
1070
   279
1070
     2
1070
   280
1070
     0
1070
   287
1070
     5
1070
   340
1005
11D
1002
}
  0
DIMENSION
  5
12A
330
1F
100
AcDbEntity
  8
Ｓ_１_１
  6
CONTINUOUS
 62
     2
100
AcDbDimension
  2
*D16
 10
595.0
 20
300.0000000000001
 30
0.0
 11
602.5
 21
309.6249999999999
 31
0.0
 70
   160
  3
ISO-25
100
AcDbAlignedDimension
 13
610.0
 23
384.4999999999999
 33
0.0
 14
595.0
 24
424.9999999999999
 34
0.0
100
AcDbRotatedDimension
1001
ACAD
1000
DSTYLE
1002
{
1070
   270
1070
     2
1070
     6
1000
EX_NORM
1070
     7
1000
EX_BCIR
1070
    41
1040
10.5
1070
    42
1040
5.25
1070
    44
1040
3.5
1070
    73
1070
     0
1070
    74
1070
     0
1070
    75
1070
     0
1070
    76
1070
     1
1070
    77
1070
     1
1070
    78
1070
     8
1070
   140
1040
12.12016381576852
1070
   147
1040
0.0
1070
   173
1070
     1
1070
   176
1070
     2
1070
   177
1070
     2
1070
   178
1070
     2
1070
   271
1070
     2
1070
   277
1070
     2
1070
   279
1070
     2
1070
   280
1070
     0
1070
   287
1070
     5
1070
   340
1005
11D
1002
}
  0
DIMENSION
  5
138
330
1F
100
AcDbEntity
  8
Ｓ_１_１
  6
CONTINUOUS
 62
     2
100
AcDbDimension
  2
*D17
 10
565.0
 20
300.0
 30
0.0
 11
580.0000000000001
 21
309.6249999999999
 31
0.0
 70
   160
  3
ISO-25
100
AcDbAlignedDimension
 13
595.0
 23
424.9999999999999
 33
0.0
 14
565.0
 24
387.9999999999999
 34
0.0
100
AcDbRotatedDimension
1001
ACAD
1000
DSTYLE
1002
{
1070
   270
1070
     2
1070
     6
1000
EX_BCIR
1070
     7
1000
EX_NORM
1070
    41
1040
3.499999761581421
1070
    42
1040
5.25
1070
    44
1040
3.5
1070
    73
1070
     0
1070
    74
1070
     0
1070
    75
1070
     0
1070
    76
1070
     1
1070
    77
1070
     1
1070
    78
1070
     8
1070
   140
1040
12.12016381576852
1070
   147
1040
0.0
1070
   173
1070
     1
1070
   176
1070
     2
1070
   177
1070
     2
1070
   178
1070
     2
1070
   271
1070
     2
1070
   277
1070
     2
1070
   279
1070
     2
1070
   280
1070
     0
1070
   287
1070
     5
1070
   340
1005
11D
1002
}
  0
DIMENSION
  5
144
330
1F
100
AcDbEntity
  8
Ｓ_１_１
  6
CONTINUOUS
 62
     2
100
AcDbDimension
  2
*D18
 10
974.9999999999998
 20
275.0
 30
0.0
 11
769.9999999999999
 21
284.625
 31
0.0
 70
   160
  3
ISO-25
100
AcDbAlignedDimension
 13
565.0
 23
387.9999999999999
 33
0.0
 14
974.9999999999998
 24
384.4999999999999
 34
0.0
100
AcDbRotatedDimension
1001
ACAD
1000
DSTYLE
1002
{
1070
   270
1070
     2
1070
     6
1000
EX_NORM
1070
     7
1000
EX_NORM
1070
    41
1040
10.5
1070
    42
1040
5.25
1070
    44
1040
3.5
1070
    73
1070
     0
1070
    74
1070
     0
1070
    75
1070
     0
1070
    76
1070
     0
1070
    77
1070
     1
1070
    78
1070
     8
1070
   140
1040
12.12016381576852
1070
   147
1040
0.0
1070
   173
1070
     1
1070
   176
1070
     2
1070
   177
1070
     2
1070
   178
1070
     2
1070
   271
1070
     2
1070
   277
1070
     2
1070
   279
1070
     2
1070
   280
1070
     0
1070
   287
1070
     5
1070
   340
1005
11D
1002
}
  0
DIMENSION
  5
151
330
1F
100
AcDbEntity
  8
Ｓ_１_１
  6
CONTINUOUS
 62
     2
100
AcDbDimension
  2
*D19
 10
499.9999999999999
 20
384.9999999999999
 30
0.0
 11
490.3750000000001
 21
474.9999999999998
 31
0.0
 70
   160
  1
%%c180
  3
ISO-25
100
AcDbAlignedDimension
 13
568.0
 23
564.9999999999999
 33
0.0
 14
568.0
 24
384.9999999999999
 34
0.0
 50
90.0
100
AcDbRotatedDimension
1001
ACAD
1000
DSTYLE
1002
{
1070
   270
1070
     2
1070
     6
1000
EX_NORM
1070
     7
1000
EX_NORM
1070
    41
1040
10.5
1070
    42
1040
5.25
1070
    44
1040
3.500000000000114
1070
    73
1070
     0
1070
    74
1070
     0
1070
    75
1070
     0
1070
    76
1070
     0
1070
    77
1070
     1
1070
    78
1070
     8
1070
   140
1040
12.12016381576852
1070
   147
1040
0.0
1070
   173
1070
     1
1070
   176
1070
     2
1070
   177
1070
     2
1070
   178
1070
     2
1070
   271
1070
     2
1070
   277
1070
     2
1070
   279
1070
     2
1070
   280
1070
     0
1070
   287
1070
     5
1070
   340
1005
11D
1002
}
  0
DIMENSION
  5
15E
330
1F
100
AcDbEntity
  8
Ｓ_１_１
  6
CONTINUOUS
 62
     2
100
AcDbDimension
  2
*D20
 10
1050.0
 20
382.4999999999999
 30
0.0
 11
1040.375
 21
474.9999999999995
 31
0.0
 70
   160
  1
%%c185
  3
ISO-25
100
AcDbAlignedDimension
 13
972.9999999999997
 23
567.4999999999998
 33
0.0
 14
972.9999999999997
 24
382.4999999999999
 34
0.0
 50
90.0
100
AcDbRotatedDimension
1001
ACAD
1000
DSTYLE
1002
{
1070
   270
1070
     2
1070
     6
1000
EX_NORM
1070
     7
1000
EX_NORM
1070
    41
1040
10.5
1070
    42
1040
5.25
1070
    44
1040
3.499999999999773
1070
    73
1070
     0
1070
    74
1070
     0
1070
    75
1070
     0
1070
    76
1070
     0
1070
    77
1070
     1
1070
    78
1070
     8
1070
   140
1040
12.12016381576852
1070
   147
1040
0.0
1070
   173
1070
     1
1070
   176
1070
     2
1070
   177
1070
     2
1070
   178
1070
     2
1070
   271
1070
     2
1070
   277
1070
     2
1070
   279
1070
     2
1070
   280
1070
     0
1070
   287
1070
     5
1070
   340
1005
11D
1002
}
  0
DIMENSION
  5
16B
330
1F
100
AcDbEntity
  8
Ｓ_１_１
  6
CONTINUOUS
 62
     2
100
AcDbDimension
  2
*D21
 10
1185.048094716162
 20
437.5000000000074
 30
0.0
 11
1365.386944126151
 21
552.4440007995595
 31
0.0
 70
   163
  1
P.C.D 150
  3
ISO-25
100
AcDbDiametricDimension
 15
1314.951905283837
 25
512.4999999999922
 35
0.0
 40
0.0
1001
ACAD
1000
DSTYLE
1002
{
1070
   270
1070
     2
1070
     6
1000
EX_NORM
1070
     7
1000
EX_NORM
1070
    41
1040
10.5
1070
    73
1070
     0
1070
    74
1070
     0
1070
    77
1070
     1
1070
    78
1070
     8
1070
   140
1040
12.12016381576852
1070
   147
1040
0.0
1070
   173
1070
     1
1070
   176
1070
     2
1070
   177
1070
     2
1070
   178
1070
     2
1070
   271
1070
     2
1070
   277
1070
     2
1070
   279
1070
     2
1070
   280
1070
     0
1070
   287
1070
     5
1070
   340
1005
11D
1002
}
  0
DIMENSION
  5
176
330
1F
100
AcDbEntity
  8
Ｓ_１_１
  6
CONTINUOUS
 62
     2
100
AcDbDimension
  2
*D22
 10
191.5432852445497
 20
508.7499999999986
 30
0.0
 11
378.2020893355395
 21
411.8078067587612
 31
0.0
 70
   163
  1
P.C.D 135
  3
ISO-25
100
AcDbDiametricDimension
 15
308.4567147554504
 25
441.2500000000013
 35
0.0
 40
0.0
1001
ACAD
1000
DSTYLE
1002
{
1070
   270
1070
     2
1070
     6
1000
EX_NORM
1070
     7
1000
EX_NORM
1070
    41
1040
10.5
1070
    73
1070
     0
1070
    74
1070
     0
1070
    77
1070
     1
1070
    78
1070
     8
1070
   140
1040
12.12016381576852
1070
   147
1040
0.0
1070
   173
1070
     1
1070
   176
1070
     2
1070
   177
1070
     2
1070
   178
1070
     2
1070
   271
1070
     2
1070
   277
1070
     2
1070
   279
1070
     2
1070
   280
1070
     0
1070
   287
1070
     5
1070
   340
1005
11D
1002
}
  0
DIMENSION
  5
181
330
1F
100
AcDbEntity
  8
Ｓ_１_１
  6
CONTINUOUS
 62
     2
100
AcDbDimension
  2
*D23
 10
100.0
 20
610.5
 30
0.0
 11
90.37500000000004
 21
474.9999999999999
 31
0.0
 70
   160
  3
ISO-25
100
AcDbAlignedDimension
 13
240.5
 23
339.4999999999999
 33
0.0
 14
240.5
 24
610.5
 34
0.0
 50
90.0
100
AcDbRotatedDimension
1001
ACAD
1000
DSTYLE
1002
{
1070
   270
1070
     2
1070
     6
1000
EX_NORM
1070
     7
1000
EX_NORM
1070
    41
1040
10.5
1070
    42
1040
5.25
1070
    44
1040
3.5
1070
    73
1070
     0
1070
    74
1070
     0
1070
    75
1070
     0
1070
    76
1070
     0
1070
    77
1070
     1
1070
    78
1070
     8
1070
   140
1040
12.12016381576852
1070
   147
1040
0.0
1070
   173
1070
     1
1070
   176
1070
     2
1070
   177
1070
     2
1070
   178
1070
     2
1070
   271
1070
     2
1070
   277
1070
     2
1070
   279
1070
     2
1070
   280
1070
     0
1070
   287
1070
     5
1070
   340
1005
11D
1002
}
  0
LEADER
  5
18E
330
1F
100
AcDbEntity
  8
Ｓ_１_１
  6
CONTINUOUS
 62
     2
100
AcDbLeader
  3
ISO-25
 76
     3
 10
245.7178954690501
 20
546.70280629889
 30
0.0
 10
189.4333338956602
 20
644.19052662574
 30
0.0
 10
305.2
 20
644.19052662574
 30
0.0
1001
ACAD
1000
DSTYLE
1002
{
1070
     5
1000
EX_NORM
1070
    41
1040
10.5
1070
   341
1005
7A
1002
}
  0
TEXT
  5
18F
330
1F
100
AcDbEntity
  8
Ｓ_１_１
  6
CONTINUOUS
 62
     4
100
AcDbText
 10
203.5250000000001
 20
648.1553702416295
 30
0.0
 40
12.12016381576852
  1
4-M12ネジ通シ
 41
0.9992308297349456
  7
EXCADTTF1
 72
     5
 11
305.9000000000001
 21
648.1553702416295
 31
0.0
100
AcDbText
  0
TEXT
  5
190
330
1F
100
AcDbEntity
  8
Ｓ_１_１
  6
CONTINUOUS
 62
     4
100
AcDbText
 10
1137.43357174813
 20
643.0719466792895
 30
0.0
 40
12.12016381576852
  1
4-M12ネジ深25
 41
0.9992308297349456
  7
EXCADTTF1
 72
     5
 11
1239.80857174813
 21
643.0719466792895
 31
0.0
100
AcDbText
  0
LEADER
  5
191
330
1F
100
AcDbEntity
  8
Ｓ_１_１
  6
CONTINUOUS
 62
     2
100
AcDbLeader
  3
ISO-25
 76
     3
 10
1192.72435005922
 20
532.2756494333687
 30
0.0
 10
1131.045181548
 20
639.1071030633999
 30
0.0
 10
1240.0261688628
 20
639.1071030633999
 30
0.0
1001
ACAD
1000
DSTYLE
1002
{
1070
     5
1000
EX_NORM
1070
    41
1040
10.5
1070
   341
1005
7A
1002
}
  0
ARC
  5
192
330
1F
100
AcDbEntity
  8
Ｓ_１_１
  6
CONTINUOUS
 62
     3
100
AcDbCircle
 10
939.9999999999998
 20
475.0000000000001
 30
0.0
 40
6.000000000000004
100
AcDbArc
 50
180.0
 51
0.0
  0
ARC
  5
193
330
1F
100
AcDbEntity
  8
Ｓ_１_１
  6
CONTINUOUS
 62
     3
100
AcDbCircle
 10
939.9999999999998
 20
475.0000000000001
 30
0.0
 40
3.000000000000002
100
AcDbArc
 50
180.0
 51
0.0
  0
LINE
  5
194
330
1F
100
AcDbEntity
  8
Ｓ_１_１
  6
CONTINUOUS
 62
     3
100
AcDbLine
 10
649.9999999999998
 20
366.5
 30
0.0
 11
647.9999999999998
 21
364.5
 31
0.0
  0
LINE
  5
195
330
1F
100
AcDbEntity
  8
Ｓ_１_１
  6
CONTINUOUS
 62
     3
100
AcDbLine
 10
682.9999999999998
 20
339.5
 30
0.0
 11
687.9999999999998
 21
344.5
 31
0.0
  0
LINE
  5
196
330
1F
100
AcDbEntity
  8
Ｓ_１_１
  6
CONTINUOUS
 62
     3
100
AcDbLine
 10
647.9999999999998
 20
344.5
 30
0.0
 11
652.9999999999998
 21
339.5
 31
0.0
  0
LINE
  5
197
330
1F
100
AcDbEntity
  8
Ｓ_１_１
  6
CONTINUOUS
 62
     3
100
AcDbLine
 10
786.9999999999998
 20
369.5
 30
0.0
 11
786.9999999999998
 21
360.5
 31
0.0
  0
LINE
  5
198
330
1F
100
AcDbEntity
  8
Ｓ_１_１
  6
CONTINUOUS
 62
     3
100
AcDbLine
 10
787.9999999999998
 20
360.5
 30
0.0
 11
787.9999999999998
 21
368.5
 31
0.0
  0
LINE
  5
199
330
1F
100
AcDbEntity
  8
Ｓ_１_１
  6
CONTINUOUS
 62
     3
100
AcDbLine
 10
786.9999999999998
 20
369.5
 30
0.0
 11
787.9999999999998
 21
368.5
 31
0.0
  0
LINE
  5
19A
330
1F
100
AcDbEntity
  8
Ｓ_１_１
  6
CONTINUOUS
 62
     3
100
AcDbLine
 10
689.9999999999998
 20
369.5
 30
0.0
 11
786.9999999999998
 21
369.5
 31
0.0
  0
LINE
  5
19B
330
1F
100
AcDbEntity
  8
Ｓ_１_１
  6
CONTINUOUS
 62
     3
100
AcDbLine
 10
786.9999999999998
 20
351.5
 30
0.0
 11
787.9999999999998
 21
352.5
 31
0.0
  0
LINE
  5
19C
330
1F
100
AcDbEntity
  8
Ｓ_１_１
  6
CONTINUOUS
 62
     3
100
AcDbLine
 10
787.9999999999998
 20
360.5
 30
0.0
 11
787.9999999999998
 21
352.5
 31
0.0
  0
LINE
  5
19D
330
1F
100
AcDbEntity
  8
Ｓ_１_１
  6
CONTINUOUS
 62
     3
100
AcDbLine
 10
689.9999999999998
 20
351.5
 30
0.0
 11
786.9999999999998
 21
351.5
 31
0.0
  0
LINE
  5
19E
330
1F
100
AcDbEntity
  8
Ｓ_１_１
  6
CONTINUOUS
 62
     3
100
AcDbLine
 10
786.9999999999998
 20
351.5
 30
0.0
 11
786.9999999999998
 21
360.5
 31
0.0
  0
LINE
  5
19F
330
1F
100
AcDbEntity
  8
Ｓ_１_１
  6
CONTINUOUS
 62
     3
100
AcDbLine
 10
687.9999999999998
 20
348.5
 30
0.0
 11
687.9999999999998
 21
344.5
 31
0.0
  0
LINE
  5
1A0
330
1F
100
AcDbEntity
  8
Ｓ_１_１
  6
CONTINUOUS
 62
     3
100
AcDbLine
 10
682.9999999999998
 20
339.5
 30
0.0
 11
652.9999999999998
 21
339.5
 31
0.0
  0
LINE
  5
1A1
330
1F
100
AcDbEntity
  8
Ｓ_１_１
  6
CONTINUOUS
 62
     3
100
AcDbLine
 10
647.9999999999998
 20
344.5
 30
0.0
 11
647.9999999999998
 21
364.5
 31
0.0
  0
LINE
  5
1A2
330
1F
100
AcDbEntity
  8
Ｓ_１_１
  6
CONTINUOUS
 62
     3
100
AcDbLine
 10
689.9999999999998
 20
376.5
 30
0.0
 11
695.9999999999998
 21
382.5
 31
0.0
  0
LINE
  5
1A3
330
1F
100
AcDbEntity
  8
Ｓ_１_１
  6
CONTINUOUS
 62
     3
100
AcDbLine
 10
649.9999999999998
 20
376.5
 30
0.0
 11
643.9999999999998
 21
382.5
 31
0.0
  0
LINE
  5
1A4
330
1F
100
AcDbEntity
  8
Ｓ_１_１
  6
CONTINUOUS
 62
     3
100
AcDbLine
 10
649.9999999999998
 20
376.5
 30
0.0
 11
689.9999999999998
 21
376.5
 31
0.0
  0
LINE
  5
1A5
330
1F
100
AcDbEntity
  8
Ｓ_１_１
  6
CONTINUOUS
 62
     3
100
AcDbLine
 10
689.9999999999998
 20
350.5
 30
0.0
 11
679.9999999999998
 21
340.5
 31
0.0
  0
LINE
  5
1A6
330
1F
100
AcDbEntity
  8
Ｓ_１_１
  6
CONTINUOUS
 62
     3
100
AcDbLine
 10
659.9999999999998
 20
340.5
 30
0.0
 11
649.9999999999998
 21
350.5
 31
0.0
  0
CIRCLE
  5
1A7
330
1F
100
AcDbEntity
  8
Ｓ_１_１
  6
CONTINUOUS
 62
     3
100
AcDbCircle
 10
669.9999999999998
 20
360.5
 30
0.0
 40
6.500000000000004
  0
CIRCLE
  5
1A8
330
1F
100
AcDbEntity
  8
Ｓ_１_１
  6
CONTINUOUS
 62
     3
100
AcDbCircle
 10
669.9999999999998
 20
360.5
 30
0.0
 40
6.000000000000004
  0
LINE
  5
1A9
330
1F
100
AcDbEntity
  8
Ｓ_１_１
  6
CONTINUOUS
 62
     3
100
AcDbLine
 10
659.9999999999998
 20
340.5
 30
0.0
 11
679.9999999999998
 21
340.5
 31
0.0
  0
LINE
  5
1AA
330
1F
100
AcDbEntity
  8
Ｓ_１_１
  6
CONTINUOUS
 62
     3
100
AcDbLine
 10
689.9999999999998
 20
376.5
 30
0.0
 11
689.9999999999998
 21
350.5
 31
0.0
  0
LINE
  5
1AB
330
1F
100
AcDbEntity
  8
Ｓ_１_１
  6
CONTINUOUS
 62
     3
100
AcDbLine
 10
649.9999999999998
 20
376.5
 30
0.0
 11
649.9999999999998
 21
350.5
 31
0.0
  0
LINE
  5
1AC
330
1F
100
AcDbEntity
  8
Ｓ_１_１
  6
CONTINUOUS
 62
     3
100
AcDbLine
 10
611.9999999999998
 20
382.5
 30
0.0
 11
972.9999999999999
 21
382.5
 31
0.0
  0
LINE
  5
1AD
330
1F
100
AcDbEntity
  8
Ｓ_１_１
  6
CONTINUOUS
 62
     3
100
AcDbLine
 10
974.9999999999998
 20
475.0000000000001
 30
0.0
 11
974.9999999999998
 21
384.5
 31
0.0
  0
LINE
  5
1AE
330
1F
100
AcDbEntity
  8
Ｓ_１_１
  6
CONTINUOUS
 62
     3
100
AcDbLine
 10
609.9999999999998
 20
475.0000000000001
 30
0.0
 11
609.9999999999998
 21
384.5
 31
0.0
  0
LINE
  5
1AF
330
1F
100
AcDbEntity
  8
Ｓ_１_１
  6
CONTINUOUS
 62
     3
100
AcDbLine
 10
611.9999999999998
 20
382.5
 30
0.0
 11
609.9999999999998
 21
384.5
 31
0.0
  0
LINE
  5
1B0
330
1F
100
AcDbEntity
  8
Ｓ_１_１
  6
CONTINUOUS
 62
     3
100
AcDbLine
 10
974.9999999999998
 20
384.5
 30
0.0
 11
972.9999999999999
 21
382.5
 31
0.0
  0
LINE
  5
1B1
330
1F
100
AcDbEntity
  8
Ｓ_１_１
  6
CONTINUOUS
 62
     3
100
AcDbLine
 10
611.9999999999998
 20
382.5
 30
0.0
 11
611.9999999999998
 21
475.0000000000001
 31
0.0
  0
LINE
  5
1B2
330
1F
100
AcDbEntity
  8
Ｓ_１_１
  6
CONTINUOUS
 62
     3
100
AcDbLine
 10
972.9999999999999
 20
382.5
 30
0.0
 11
972.9999999999999
 21
475.0000000000001
 31
0.0
  0
CIRCLE
  5
1B3
330
1F
100
AcDbEntity
  8
Ｓ_１_１
  6
CONTINUOUS
 62
     3
100
AcDbCircle
 10
669.9999999999998
 20
360.5
 30
0.0
 40
5.0
  0
CIRCLE
  5
1B4
330
1F
100
AcDbEntity
  8
Ｓ_１_１
  6
CONTINUOUS
 62
     3
100
AcDbCircle
 10
669.9999999999998
 20
589.5
 30
0.0
 40
5.0
  0
LINE
  5
1B5
330
1F
100
AcDbEntity
  8
Ｓ_１_１
  6
CONTINUOUS
 62
     3
100
AcDbLine
 10
972.9999999999999
 20
567.5
 30
0.0
 11
972.9999999999999
 21
475.0000000000001
 31
0.0
  0
LINE
  5
1B6
330
1F
100
AcDbEntity
  8
Ｓ_１_１
  6
CONTINUOUS
 62
     3
100
AcDbLine
 10
611.9999999999998
 20
567.5
 30
0.0
 11
611.9999999999998
 21
475.0000000000001
 31
0.0
  0
LINE
  5
1B7
330
1F
100
AcDbEntity
  8
Ｓ_１_１
  6
CONTINUOUS
 62
     3
100
AcDbLine
 10
974.9999999999998
 20
565.5
 30
0.0
 11
972.9999999999999
 21
567.5
 31
0.0
  0
LINE
  5
1B8
330
1F
100
AcDbEntity
  8
Ｓ_１_１
  6
CONTINUOUS
 62
     3
100
AcDbLine
 10
611.9999999999998
 20
567.5
 30
0.0
 11
609.9999999999998
 21
565.5
 31
0.0
  0
LINE
  5
1B9
330
1F
100
AcDbEntity
  8
Ｓ_１_１
  6
CONTINUOUS
 62
     3
100
AcDbLine
 10
609.9999999999998
 20
475.0000000000001
 30
0.0
 11
609.9999999999998
 21
565.5
 31
0.0
  0
LINE
  5
1BA
330
1F
100
AcDbEntity
  8
Ｓ_１_１
  6
CONTINUOUS
 62
     3
100
AcDbLine
 10
974.9999999999998
 20
475.0000000000001
 30
0.0
 11
974.9999999999998
 21
565.5
 31
0.0
  0
LINE
  5
1BB
330
1F
100
AcDbEntity
  8
Ｓ_１_１
  6
CONTINUOUS
 62
     3
100
AcDbLine
 10
649.9999999999998
 20
573.5
 30
0.0
 11
649.9999999999998
 21
599.5
 31
0.0
  0
LINE
  5
1BC
330
1F
100
AcDbEntity
  8
Ｓ_１_１
  6
CONTINUOUS
 62
     3
100
AcDbLine
 10
689.9999999999998
 20
573.5
 30
0.0
 11
689.9999999999998
 21
599.5
 31
0.0
  0
LINE
  5
1BD
330
1F
100
AcDbEntity
  8
Ｓ_１_１
  6
CONTINUOUS
 62
     3
100
AcDbLine
 10
659.9999999999998
 20
609.5
 30
0.0
 11
679.9999999999998
 21
609.5
 31
0.0
  0
CIRCLE
  5
1BE
330
1F
100
AcDbEntity
  8
Ｓ_１_１
  6
CONTINUOUS
 62
     3
100
AcDbCircle
 10
669.9999999999998
 20
589.5
 30
0.0
 40
6.000000000000004
  0
CIRCLE
  5
1BF
330
1F
100
AcDbEntity
  8
Ｓ_１_１
  6
CONTINUOUS
 62
     3
100
AcDbCircle
 10
669.9999999999998
 20
589.5
 30
0.0
 40
6.500000000000004
  0
LINE
  5
1C0
330
1F
100
AcDbEntity
  8
Ｓ_１_１
  6
CONTINUOUS
 62
     3
100
AcDbLine
 10
659.9999999999998
 20
609.5
 30
0.0
 11
649.9999999999998
 21
599.5
 31
0.0
  0
LINE
  5
1C1
330
1F
100
AcDbEntity
  8
Ｓ_１_１
  6
CONTINUOUS
 62
     3
100
AcDbLine
 10
689.9999999999998
 20
599.5
 30
0.0
 11
679.9999999999998
 21
609.5
 31
0.0
  0
LINE
  5
1C2
330
1F
100
AcDbEntity
  8
Ｓ_１_１
  6
CONTINUOUS
 62
     3
100
AcDbLine
 10
649.9999999999998
 20
573.5
 30
0.0
 11
643.9999999999998
 21
567.5
 31
0.0
  0
LINE
  5
1C3
330
1F
100
AcDbEntity
  8
Ｓ_１_１
  6
CONTINUOUS
 62
     3
100
AcDbLine
 10
689.9999999999998
 20
573.5
 30
0.0
 11
695.9999999999998
 21
567.5
 31
0.0
  0
LINE
  5
1C4
330
1F
100
AcDbEntity
  8
Ｓ_１_１
  6
CONTINUOUS
 62
     3
100
AcDbLine
 10
647.9999999999998
 20
605.5
 30
0.0
 11
647.9999999999998
 21
585.5
 31
0.0
  0
LINE
  5
1C5
330
1F
100
AcDbEntity
  8
Ｓ_１_１
  6
CONTINUOUS
 62
     3
100
AcDbLine
 10
682.9999999999998
 20
610.5
 30
0.0
 11
652.9999999999998
 21
610.5
 31
0.0
  0
LINE
  5
1C6
330
1F
100
AcDbEntity
  8
Ｓ_１_１
  6
CONTINUOUS
 62
     3
100
AcDbLine
 10
687.9999999999998
 20
601.5
 30
0.0
 11
687.9999999999998
 21
605.5
 31
0.0
  0
LINE
  5
1C7
330
1F
100
AcDbEntity
  8
Ｓ_１_１
  6
CONTINUOUS
 62
     3
100
AcDbLine
 10
786.9999999999998
 20
598.5
 30
0.0
 11
786.9999999999998
 21
589.5
 31
0.0
  0
LINE
  5
1C8
330
1F
100
AcDbEntity
  8
Ｓ_１_１
  6
CONTINUOUS
 62
     3
100
AcDbLine
 10
689.9999999999998
 20
598.5
 30
0.0
 11
786.9999999999998
 21
598.5
 31
0.0
  0
LINE
  5
1C9
330
1F
100
AcDbEntity
  8
Ｓ_１_１
  6
CONTINUOUS
 62
     3
100
AcDbLine
 10
787.9999999999998
 20
589.5
 30
0.0
 11
787.9999999999998
 21
597.5
 31
0.0
  0
LINE
  5
1CA
330
1F
100
AcDbEntity
  8
Ｓ_１_１
  6
CONTINUOUS
 62
     3
100
AcDbLine
 10
786.9999999999998
 20
598.5
 30
0.0
 11
787.9999999999998
 21
597.5
 31
0.0
  0
LINE
  5
1CB
330
1F
100
AcDbEntity
  8
Ｓ_１_１
  6
CONTINUOUS
 62
     3
100
AcDbLine
 10
689.9999999999998
 20
580.5
 30
0.0
 11
786.9999999999998
 21
580.5
 31
0.0
  0
LINE
  5
1CC
330
1F
100
AcDbEntity
  8
Ｓ_１_１
  6
CONTINUOUS
 62
     3
100
AcDbLine
 10
786.9999999999998
 20
580.5
 30
0.0
 11
787.9999999999998
 21
581.5
 31
0.0
  0
LINE
  5
1CD
330
1F
100
AcDbEntity
  8
Ｓ_１_１
  6
CONTINUOUS
 62
     3
100
AcDbLine
 10
787.9999999999998
 20
589.5
 30
0.0
 11
787.9999999999998
 21
581.5
 31
0.0
  0
LINE
  5
1CE
330
1F
100
AcDbEntity
  8
Ｓ_１_１
  6
CONTINUOUS
 62
     3
100
AcDbLine
 10
786.9999999999998
 20
580.5
 30
0.0
 11
786.9999999999998
 21
589.5
 31
0.0
  0
LINE
  5
1CF
330
1F
100
AcDbEntity
  8
Ｓ_１_１
  6
CONTINUOUS
 62
     3
100
AcDbLine
 10
647.9999999999998
 20
605.5
 30
0.0
 11
652.9999999999998
 21
610.5
 31
0.0
  0
LINE
  5
1D0
330
1F
100
AcDbEntity
  8
Ｓ_１_１
  6
CONTINUOUS
 62
     3
100
AcDbLine
 10
682.9999999999998
 20
610.5
 30
0.0
 11
687.9999999999998
 21
605.5
 31
0.0
  0
LINE
  5
1D1
330
1F
100
AcDbEntity
  8
Ｓ_１_１
  6
CONTINUOUS
 62
     3
100
AcDbLine
 10
649.9999999999998
 20
583.5
 30
0.0
 11
647.9999999999998
 21
585.5
 31
0.0
  0
ARC
  5
1D2
330
1F
100
AcDbEntity
  8
Ｓ_１_１
  6
CONTINUOUS
 62
     3
100
AcDbCircle
 10
939.9999999999998
 20
475.0000000000001
 30
0.0
 40
3.000000000000002
100
AcDbArc
 50
0.0
 51
180.0
  0
ARC
  5
1D3
330
1F
100
AcDbEntity
  8
Ｓ_１_１
  6
CONTINUOUS
 62
     3
100
AcDbCircle
 10
939.9999999999998
 20
475.0000000000001
 30
0.0
 40
6.000000000000004
100
AcDbArc
 50
0.0
 51
180.0
  0
LINE
  5
1D4
330
1F
100
AcDbEntity
  8
Ｓ_１_１
  6
CONTINUOUS
 62
     3
100
AcDbLine
 10
602.9999999999998
 20
535.0
 30
0.0
 11
599.9999999999998
 21
533.267949
 31
0.0
  0
LINE
  5
1D5
330
1F
100
AcDbEntity
  8
Ｓ_１_１
  6
CONTINUOUS
 62
     3
100
AcDbLine
 10
602.9999999999998
 20
535.0
 30
0.0
 11
602.9999999999998
 21
475.0000000000001
 31
0.0
  0
LINE
  5
1D6
330
1F
100
AcDbEntity
  8
Ｓ_１_１
  6
CONTINUOUS
 62
     3
100
AcDbLine
 10
599.9999999999998
 20
533.267949
 30
0.0
 11
599.9999999999998
 21
475.0000000000001
 31
0.0
  0
LINE
  5
1D7
330
1F
100
AcDbEntity
  8
Ｓ_１_１
  6
CONTINUOUS
 62
     3
100
AcDbLine
 10
602.9999999999998
 20
535.0
 30
0.0
 11
609.9999999999998
 21
535.0
 31
0.0
  0
LINE
  5
1D8
330
1F
100
AcDbEntity
  8
Ｓ_１_１
  6
CONTINUOUS
 62
     3
100
AcDbLine
 10
602.9999999999998
 20
415.0
 30
0.0
 11
599.9999999999998
 21
416.732051
 31
0.0
  0
LINE
  5
1D9
330
1F
100
AcDbEntity
  8
Ｓ_１_１
  6
CONTINUOUS
 62
     3
100
AcDbLine
 10
602.9999999999998
 20
415.0
 30
0.0
 11
602.9999999999998
 21
475.0000000000001
 31
0.0
  0
LINE
  5
1DA
330
1F
100
AcDbEntity
  8
Ｓ_１_１
  6
CONTINUOUS
 62
     3
100
AcDbLine
 10
599.9999999999998
 20
416.732051
 30
0.0
 11
599.9999999999998
 21
475.0000000000001
 31
0.0
  0
LINE
  5
1DB
330
1F
100
AcDbEntity
  8
Ｓ_１_１
  6
CONTINUOUS
 62
     3
100
AcDbLine
 10
602.9999999999998
 20
415.0
 30
0.0
 11
609.9999999999998
 21
415.0
 31
0.0
  0
LINE
  5
1DC
330
1F
100
AcDbEntity
  8
Ｓ_１_１
  6
CONTINUOUS
 62
     3
100
AcDbLine
 10
567.9999999999998
 20
565.0
 30
0.0
 11
586.9378959999999
 21
565.0
 31
0.0
  0
LINE
  5
1DD
330
1F
100
AcDbEntity
  8
Ｓ_１_１
  6
CONTINUOUS
 62
     3
100
AcDbLine
 10
594.9999999999998
 20
525.0
 30
0.0
 11
591.9378959999999
 21
560.0
 31
0.0
  0
LINE
  5
1DE
330
1F
100
AcDbEntity
  8
Ｓ_１_１
  6
CONTINUOUS
 62
     3
100
AcDbLine
 10
591.9378959999999
 20
560.0
 30
0.0
 11
586.9378959999999
 21
565.0
 31
0.0
  0
LINE
  5
1DF
330
1F
100
AcDbEntity
  8
Ｓ_１_１
  6
CONTINUOUS
 62
     3
100
AcDbLine
 10
567.9999999999998
 20
565.0
 30
0.0
 11
564.9999999999998
 21
562.0
 31
0.0
  0
ARC
  5
1E0
330
1F
100
AcDbEntity
  8
Ｓ_１_１
  6
CONTINUOUS
 62
     3
100
AcDbCircle
 10
594.9999999999998
 20
475.0000000000001
 30
0.0
 40
50.00000000000004
100
AcDbArc
 50
84.26083000000003
 51
90.00000000000001
  0
LINE
  5
1E1
330
1F
100
AcDbEntity
  8
Ｓ_１_１
  6
CONTINUOUS
 62
     3
100
AcDbLine
 10
594.9999999999998
 20
525.0
 30
0.0
 11
594.9999999999998
 21
475.0000000000001
 31
0.0
  0
LINE
  5
1E2
330
1F
100
AcDbEntity
  8
Ｓ_１_１
  6
CONTINUOUS
 62
     3
100
AcDbLine
 10
564.9999999999998
 20
562.0
 30
0.0
 11
564.9999999999998
 21
475.0000000000001
 31
0.0
  0
LINE
  5
1E3
330
1F
100
AcDbEntity
  8
Ｓ_１_１
  6
CONTINUOUS
 62
     3
100
AcDbLine
 10
567.9999999999998
 20
565.0
 30
0.0
 11
567.9999999999998
 21
475.0000000000001
 31
0.0
  0
LINE
  5
1E4
330
1F
100
AcDbEntity
  8
Ｓ_１_１
  6
CONTINUOUS
 62
     3
100
AcDbLine
 10
586.9378959999999
 20
565.0
 30
0.0
 11
586.9378959999999
 21
475.0000000000001
 31
0.0
  0
LINE
  5
1E5
330
1F
100
AcDbEntity
  8
Ｓ_１_１
  6
CONTINUOUS
 62
     3
100
AcDbLine
 10
591.9378959999999
 20
560.0
 30
0.0
 11
591.9378959999999
 21
475.0000000000001
 31
0.0
  0
ARC
  5
1E6
330
1F
100
AcDbEntity
  8
Ｓ_１_１
  6
CONTINUOUS
 62
     3
100
AcDbCircle
 10
594.9999999999998
 20
475.0000000000001
 30
0.0
 40
50.00000000000004
100
AcDbArc
 50
270.0000000000002
 51
275.7391700000001
  0
LINE
  5
1E7
330
1F
100
AcDbEntity
  8
Ｓ_１_１
  6
CONTINUOUS
 62
     3
100
AcDbLine
 10
567.9999999999998
 20
385.0
 30
0.0
 11
564.9999999999998
 21
388.0
 31
0.0
  0
LINE
  5
1E8
330
1F
100
AcDbEntity
  8
Ｓ_１_１
  6
CONTINUOUS
 62
     3
100
AcDbLine
 10
591.9378959999999
 20
390.0
 30
0.0
 11
586.9378959999999
 21
385.0
 31
0.0
  0
LINE
  5
1E9
330
1F
100
AcDbEntity
  8
Ｓ_１_１
  6
CONTINUOUS
 62
     3
100
AcDbLine
 10
594.9999999999998
 20
425.0
 30
0.0
 11
591.9378959999999
 21
390.0
 31
0.0
  0
LINE
  5
1EA
330
1F
100
AcDbEntity
  8
Ｓ_１_１
  6
CONTINUOUS
 62
     3
100
AcDbLine
 10
567.9999999999998
 20
385.0
 30
0.0
 11
586.9378959999999
 21
385.0
 31
0.0
  0
LINE
  5
1EB
330
1F
100
AcDbEntity
  8
Ｓ_１_１
  6
CONTINUOUS
 62
     3
100
AcDbLine
 10
594.9999999999998
 20
425.0
 30
0.0
 11
594.9999999999998
 21
475.0000000000001
 31
0.0
  0
LINE
  5
1EC
330
1F
100
AcDbEntity
  8
Ｓ_１_１
  6
CONTINUOUS
 62
     3
100
AcDbLine
 10
564.9999999999998
 20
388.0
 30
0.0
 11
564.9999999999998
 21
475.0000000000001
 31
0.0
  0
LINE
  5
1ED
330
1F
100
AcDbEntity
  8
Ｓ_１_１
  6
CONTINUOUS
 62
     3
100
AcDbLine
 10
567.9999999999998
 20
385.0
 30
0.0
 11
567.9999999999998
 21
475.0000000000001
 31
0.0
  0
LINE
  5
1EE
330
1F
100
AcDbEntity
  8
Ｓ_１_１
  6
CONTINUOUS
 62
     3
100
AcDbLine
 10
586.9378959999999
 20
385.0
 30
0.0
 11
586.9378959999999
 21
475.0000000000001
 31
0.0
  0
LINE
  5
1EF
330
1F
100
AcDbEntity
  8
Ｓ_１_１
  6
CONTINUOUS
 62
     3
100
AcDbLine
 10
591.9378959999999
 20
390.0
 30
0.0
 11
591.9378959999999
 21
475.0000000000001
 31
0.0
  0
LINE
  5
1F0
330
1F
100
AcDbEntity
  8
Ｓ_１_１
  6
EXLTYPE6
 62
     1
100
AcDbLine
 10
554.9999999999998
 20
475.0000000000001
 30
0.0
 11
984.9999999999997
 21
475.0000000000001
 31
0.0
  0
LINE
  5
1F1
330
1F
100
AcDbEntity
  8
Ｓ_１_１
  6
EXLTYPE6
 62
     1
100
AcDbLine
 10
669.9999999999998
 20
615.5
 30
0.0
 11
669.9999999999998
 21
562.5
 31
0.0
  0
LINE
  5
1F2
330
1F
100
AcDbEntity
  8
Ｓ_１_１
  6
EXLTYPE6
 62
     1
100
AcDbLine
 10
792.9999999999998
 20
589.5
 30
0.0
 11
642.9999999999998
 21
589.5
 31
0.0
  0
LINE
  5
1F3
330
1F
100
AcDbEntity
  8
Ｓ_１_１
  6
EXLTYPE6
 62
     1
100
AcDbLine
 10
792.9999999999998
 20
360.5
 30
0.0
 11
642.9999999999998
 21
360.5
 31
0.0
  0
LINE
  5
1F4
330
1F
100
AcDbEntity
  8
Ｓ_１_１
  6
EXLTYPE6
 62
     1
100
AcDbLine
 10
669.9999999999998
 20
334.5
 30
0.0
 11
669.9999999999998
 21
387.5
 31
0.0
  0
LINE
  5
1F5
330
1F
100
AcDbEntity
  8
Ｓ_１_１
  6
EXLTYPE6
 62
     1
100
AcDbLine
 10
561.9999999999998
 20
542.5
 30
0.0
 11
596.468948
 21
542.5
 31
0.0
  0
LINE
  5
1F6
330
1F
100
AcDbEntity
  8
Ｓ_１_１
  6
EXLTYPE6
 62
     1
100
AcDbLine
 10
561.9999999999998
 20
407.5
 30
0.0
 11
596.468948
 21
407.5
 31
0.0
  0
LINE
  5
1F7
330
1F
100
AcDbEntity
  8
Ｓ_１_１
  6
EXLTYPE6
 62
     1
100
AcDbLine
 10
561.9999999999998
 20
395.0
 30
0.0
 11
569.4999999999998
 21
395.0
 31
0.0
  0
LINE
  5
1F8
330
1F
100
AcDbEntity
  8
Ｓ_１_１
  6
EXLTYPE6
 62
     1
100
AcDbLine
 10
561.9999999999998
 20
420.0
 30
0.0
 11
569.4999999999998
 21
420.0
 31
0.0
  0
LINE
  5
1F9
330
1F
100
AcDbEntity
  8
Ｓ_１_１
  6
EXLTYPE6
 62
     1
100
AcDbLine
 10
561.9999999999998
 20
445.0000000000001
 30
0.0
 11
569.4999999999998
 21
445.0000000000001
 31
0.0
  0
LINE
  5
1FA
330
1F
100
AcDbEntity
  8
Ｓ_１_１
  6
EXLTYPE6
 62
     1
100
AcDbLine
 10
561.9999999999998
 20
505.0000000000001
 30
0.0
 11
569.4999999999998
 21
505.0000000000001
 31
0.0
  0
LINE
  5
1FB
330
1F
100
AcDbEntity
  8
Ｓ_１_１
  6
EXLTYPE6
 62
     1
100
AcDbLine
 10
561.9999999999998
 20
530.0
 30
0.0
 11
569.4999999999998
 21
530.0
 31
0.0
  0
LINE
  5
1FC
330
1F
100
AcDbEntity
  8
Ｓ_１_１
  6
EXLTYPE6
 62
     1
100
AcDbLine
 10
561.9999999999998
 20
555.0
 30
0.0
 11
569.4999999999998
 21
555.0
 31
0.0
  0
LINE
  5
1FD
330
1F
100
AcDbEntity
  8
Ｓ_１_１
  6
EXLTYPE6
 62
     1
100
AcDbLine
 10
939.9999999999995
 20
484.9737399999999
 30
0.0
 11
939.9999999999995
 21
464.0000000000001
 31
0.0
  0
LINE
  5
1FE
330
1F
100
AcDbEntity
  8
Ｓ_１_１
  6
EXLTYPE7
 62
     2
100
AcDbLine
 10
667.4999999999998
 20
339.5
 30
0.0
 11
667.4999999999998
 21
354.5
 31
0.0
  0
LINE
  5
1FF
330
1F
100
AcDbEntity
  8
Ｓ_１_１
  6
EXLTYPE7
 62
     2
100
AcDbLine
 10
667.8999999999999
 20
339.5
 30
0.0
 11
667.8999999999999
 21
354.348578
 31
0.0
  0
LINE
  5
200
330
1F
100
AcDbEntity
  8
Ｓ_１_１
  6
EXLTYPE7
 62
     2
100
AcDbLine
 10
672.0999999999999
 20
339.5
 30
0.0
 11
672.0999999999999
 21
354.348578
 31
0.0
  0
LINE
  5
201
330
1F
100
AcDbEntity
  8
Ｓ_１_１
  6
EXLTYPE7
 62
     2
100
AcDbLine
 10
672.4999999999998
 20
339.5
 30
0.0
 11
672.4999999999998
 21
354.5
 31
0.0
  0
LINE
  5
202
330
1F
100
AcDbEntity
  8
Ｓ_１_１
  6
EXLTYPE7
 62
     2
100
AcDbLine
 10
667.8999999999999
 20
610.5
 30
0.0
 11
667.8999999999999
 21
595.651423
 31
0.0
  0
LINE
  5
203
330
1F
100
AcDbEntity
  8
Ｓ_１_１
  6
EXLTYPE7
 62
     2
100
AcDbLine
 10
667.4999999999998
 20
610.5
 30
0.0
 11
667.4999999999998
 21
595.5
 31
0.0
  0
LINE
  5
204
330
1F
100
AcDbEntity
  8
Ｓ_１_１
  6
EXLTYPE7
 62
     2
100
AcDbLine
 10
672.0999999999999
 20
610.5
 30
0.0
 11
672.0999999999999
 21
595.651423
 31
0.0
  0
LINE
  5
205
330
1F
100
AcDbEntity
  8
Ｓ_１_１
  6
EXLTYPE7
 62
     2
100
AcDbLine
 10
672.4999999999998
 20
610.5
 30
0.0
 11
672.4999999999998
 21
595.5
 31
0.0
  0
LINE
  5
206
330
1F
100
AcDbEntity
  8
Ｓ_１_１
  6
CONTINUOUS
 62
     3
100
AcDbLine
 10
679.9999679999994
 20
488.8564879999997
 30
0.0
 11
667.9998019999996
 21
481.9281889999999
 31
0.0
  0
LINE
  5
207
330
1F
100
AcDbEntity
  8
Ｓ_１_１
  6
CONTINUOUS
 62
     3
100
AcDbLine
 10
692.0001239999995
 20
481.9282269999998
 30
0.0
 11
679.9998789999995
 21
488.8565719999999
 31
0.0
  0
LINE
  5
208
330
1F
100
AcDbEntity
  8
Ｓ_１_１
  6
CONTINUOUS
 62
     3
100
AcDbLine
 10
668.0000609999995
 20
468.0717769999998
 30
0.0
 11
668.0000609999995
 21
481.9282229999998
 31
0.0
  0
LINE
  5
209
330
1F
100
AcDbEntity
  8
Ｓ_１_１
  6
CONTINUOUS
 62
     3
100
AcDbLine
 10
680.0000019999995
 20
461.1434059999998
 30
0.0
 11
667.9997569999996
 21
468.0717509999999
 31
0.0
  0
LINE
  5
20A
330
1F
100
AcDbEntity
  8
Ｓ_１_１
  6
CONTINUOUS
 62
     3
100
AcDbLine
 10
692.0000289999996
 20
468.0717729999997
 30
0.0
 11
679.9998629999996
 21
461.1434739999999
 31
0.0
  0
LINE
  5
20B
330
1F
100
AcDbEntity
  8
Ｓ_１_１
  6
CONTINUOUS
 62
     3
100
AcDbLine
 10
691.9999389999996
 20
481.9282229999998
 30
0.0
 11
691.9999389999996
 21
468.0717769999998
 31
0.0
  0
CIRCLE
  5
20C
330
1F
100
AcDbEntity
  8
Ｓ_１_１
  6
CONTINUOUS
 62
     3
100
AcDbCircle
 10
679.9999999999995
 20
474.9999999999998
 30
0.0
 40
9.00004
  0
CIRCLE
  5
20D
330
1F
100
AcDbEntity
  8
Ｓ_１_１
  6
CONTINUOUS
 62
     3
100
AcDbCircle
 10
679.9999999999995
 20
474.9999999999998
 30
0.0
 40
5.499979000000002
  0
CIRCLE
  5
20E
330
1F
100
AcDbEntity
  8
Ｓ_１_１
  6
CONTINUOUS
 62
     3
100
AcDbCircle
 10
679.9999999999995
 20
474.9999999999998
 30
0.0
 40
1.500041
  0
CIRCLE
  5
20F
330
1F
100
AcDbEntity
  8
Ｓ_１_１
  6
CONTINUOUS
 62
     3
100
AcDbCircle
 10
679.9999999999995
 20
474.9999999999998
 30
0.0
 40
11.74997900000001
  0
CIRCLE
  5
210
330
1F
100
AcDbEntity
  8
Ｓ_１_１
  6
CONTINUOUS
 62
     3
100
AcDbCircle
 10
754.9999999999995
 20
474.9999999999998
 30
0.0
 40
12.00002
  0
CIRCLE
  5
211
330
1F
100
AcDbEntity
  8
Ｓ_１_１
  6
CONTINUOUS
 62
     3
100
AcDbCircle
 10
754.9999999999995
 20
474.9999999999998
 30
0.0
 40
12.999939
  0
CIRCLE
  5
212
330
1F
100
AcDbEntity
  8
Ｓ_１_１
  6
CONTINUOUS
 62
     3
100
AcDbCircle
 10
754.9999999999995
 20
474.9999999999998
 30
0.0
 40
16.00008
  0
LINE
  5
213
330
1F
100
AcDbEntity
  8
Ｓ_１_１
  6
CONTINUOUS
 62
     3
100
AcDbLine
 10
239.0
 20
608.843617
 30
0.0
 11
239.0
 21
566.843617
 31
0.0
  0
LINE
  5
214
330
1F
100
AcDbEntity
  8
Ｓ_１_１
  6
CONTINUOUS
 62
     3
100
AcDbLine
 10
230.0
 20
608.843617
 30
0.0
 11
230.0
 21
566.843617
 31
0.0
  0
LINE
  5
215
330
1F
100
AcDbEntity
  8
Ｓ_１_１
  6
CONTINUOUS
 62
     3
100
AcDbLine
 10
240.5
 20
610.5
 30
0.0
 11
240.5
 21
570.5
 31
0.0
  0
LINE
  5
216
330
1F
100
AcDbEntity
  8
Ｓ_１_１
  6
CONTINUOUS
 62
     3
100
AcDbLine
 10
250.0000000000001
 20
610.5
 30
0.0
 11
240.5
 21
610.5
 31
0.0
  0
LINE
  5
217
330
1F
100
AcDbEntity
  8
Ｓ_１_１
  6
CONTINUOUS
 62
     3
100
AcDbLine
 10
250.0000000000001
 20
570.5
 30
0.0
 11
240.5
 21
570.5
 31
0.0
  0
LINE
  5
218
330
1F
100
AcDbEntity
  8
Ｓ_１_１
  6
CONTINUOUS
 62
     3
100
AcDbLine
 10
250.0000000000001
 20
605.5
 30
0.0
 11
240.5
 21
605.5
 31
0.0
  0
LINE
  5
219
330
1F
100
AcDbEntity
  8
Ｓ_１_１
  6
CONTINUOUS
 62
     3
100
AcDbLine
 10
239.0
 20
595.5
 30
0.0
 11
240.5
 21
595.5
 31
0.0
  0
LINE
  5
21A
330
1F
100
AcDbEntity
  8
Ｓ_１_１
  6
CONTINUOUS
 62
     3
100
AcDbLine
 10
239.0
 20
583.5
 30
0.0
 11
240.5
 21
583.5
 31
0.0
  0
LINE
  5
21B
330
1F
100
AcDbEntity
  8
Ｓ_１_１
  6
CONTINUOUS
 62
     3
100
AcDbLine
 10
239.0
 20
566.843617
 30
0.0
 11
230.0
 21
566.843617
 31
0.0
  0
LINE
  5
21C
330
1F
100
AcDbEntity
  8
Ｓ_１_１
  6
CONTINUOUS
 62
     3
100
AcDbLine
 10
239.0
 20
608.843617
 30
0.0
 11
230.0
 21
608.843617
 31
0.0
  0
LINE
  5
21D
330
1F
100
AcDbEntity
  8
Ｓ_１_１
  6
CONTINUOUS
 62
     3
100
AcDbLine
 10
239.0
 20
598.843617
 30
0.0
 11
230.0
 21
598.843617
 31
0.0
  0
LINE
  5
21E
330
1F
100
AcDbEntity
  8
Ｓ_１_１
  6
CONTINUOUS
 62
     3
100
AcDbLine
 10
230.0
 20
573.5
 30
0.0
 11
218.454918
 21
561.9549179999999
 31
0.0
  0
LINE
  5
21F
330
1F
100
AcDbEntity
  8
Ｓ_１_１
  6
CONTINUOUS
 62
     3
100
AcDbLine
 10
250.0000000000001
 20
610.5
 30
0.0
 11
259.5000000000001
 21
610.5
 31
0.0
  0
LINE
  5
220
330
1F
100
AcDbEntity
  8
Ｓ_１_１
  6
CONTINUOUS
 62
     3
100
AcDbLine
 10
250.0000000000001
 20
570.5
 30
0.0
 11
259.5000000000001
 21
570.5
 31
0.0
  0
LINE
  5
221
330
1F
100
AcDbEntity
  8
Ｓ_１_１
  6
CONTINUOUS
 62
     3
100
AcDbLine
 10
250.0000000000001
 20
605.5
 30
0.0
 11
259.5000000000001
 21
605.5
 31
0.0
  0
LINE
  5
222
330
1F
100
AcDbEntity
  8
Ｓ_１_１
  6
CONTINUOUS
 62
     3
100
AcDbLine
 10
270.0000000000001
 20
573.5
 30
0.0
 11
281.545081
 21
561.9549179999999
 31
0.0
  0
LINE
  5
223
330
1F
100
AcDbEntity
  8
Ｓ_１_１
  6
CONTINUOUS
 62
     3
100
AcDbLine
 10
261.0000000000001
 20
598.843617
 30
0.0
 11
270.0000000000001
 21
598.843617
 31
0.0
  0
LINE
  5
224
330
1F
100
AcDbEntity
  8
Ｓ_１_１
  6
CONTINUOUS
 62
     3
100
AcDbLine
 10
261.0000000000001
 20
608.843617
 30
0.0
 11
270.0000000000001
 21
608.843617
 31
0.0
  0
LINE
  5
225
330
1F
100
AcDbEntity
  8
Ｓ_１_１
  6
CONTINUOUS
 62
     3
100
AcDbLine
 10
261.0000000000001
 20
566.843617
 30
0.0
 11
270.0000000000001
 21
566.843617
 31
0.0
  0
LINE
  5
226
330
1F
100
AcDbEntity
  8
Ｓ_１_１
  6
CONTINUOUS
 62
     3
100
AcDbLine
 10
261.0000000000001
 20
583.5
 30
0.0
 11
259.5000000000001
 21
583.5
 31
0.0
  0
LINE
  5
227
330
1F
100
AcDbEntity
  8
Ｓ_１_１
  6
CONTINUOUS
 62
     3
100
AcDbLine
 10
261.0000000000001
 20
595.5
 30
0.0
 11
259.5000000000001
 21
595.5
 31
0.0
  0
LINE
  5
228
330
1F
100
AcDbEntity
  8
Ｓ_１_１
  6
CONTINUOUS
 62
     3
100
AcDbLine
 10
259.5000000000001
 20
610.5
 30
0.0
 11
259.5000000000001
 21
570.5
 31
0.0
  0
LINE
  5
229
330
1F
100
AcDbEntity
  8
Ｓ_１_１
  6
CONTINUOUS
 62
     3
100
AcDbLine
 10
270.0000000000001
 20
608.843617
 30
0.0
 11
270.0000000000001
 21
566.843617
 31
0.0
  0
LINE
  5
22A
330
1F
100
AcDbEntity
  8
Ｓ_１_１
  6
CONTINUOUS
 62
     3
100
AcDbLine
 10
261.0000000000001
 20
608.843617
 30
0.0
 11
261.0000000000001
 21
566.843617
 31
0.0
  0
LINE
  5
22B
330
1F
100
AcDbEntity
  8
Ｓ_１_１
  6
CONTINUOUS
 62
     3
100
AcDbLine
 10
261.0000000000001
 20
340.5
 30
0.0
 11
261.0000000000001
 21
383.156383
 31
0.0
  0
LINE
  5
22C
330
1F
100
AcDbEntity
  8
Ｓ_１_１
  6
CONTINUOUS
 62
     3
100
AcDbLine
 10
270.0000000000001
 20
340.5
 30
0.0
 11
270.0000000000001
 21
383.156383
 31
0.0
  0
LINE
  5
22D
330
1F
100
AcDbEntity
  8
Ｓ_１_１
  6
CONTINUOUS
 62
     3
100
AcDbLine
 10
259.5000000000001
 20
339.5
 30
0.0
 11
259.5000000000001
 21
379.5
 31
0.0
  0
LINE
  5
22E
330
1F
100
AcDbEntity
  8
Ｓ_１_１
  6
CONTINUOUS
 62
     3
100
AcDbLine
 10
270.0000000000001
 20
354.5
 30
0.0
 11
271.0000000000001
 21
354.5
 31
0.0
  0
LINE
  5
22F
330
1F
100
AcDbEntity
  8
Ｓ_１_１
  6
CONTINUOUS
 62
     3
100
AcDbLine
 10
270.0000000000001
 20
366.5
 30
0.0
 11
271.0000000000001
 21
366.5
 31
0.0
  0
LINE
  5
230
330
1F
100
AcDbEntity
  8
Ｓ_１_１
  6
CONTINUOUS
 62
     3
100
AcDbLine
 10
261.0000000000001
 20
354.5
 30
0.0
 11
259.5000000000001
 21
354.5
 31
0.0
  0
LINE
  5
231
330
1F
100
AcDbEntity
  8
Ｓ_１_１
  6
CONTINUOUS
 62
     3
100
AcDbLine
 10
261.0000000000001
 20
366.5
 30
0.0
 11
259.5000000000001
 21
366.5
 31
0.0
  0
LINE
  5
232
330
1F
100
AcDbEntity
  8
Ｓ_１_１
  6
CONTINUOUS
 62
     3
100
AcDbLine
 10
261.0000000000001
 20
383.156383
 30
0.0
 11
270.0000000000001
 21
383.156383
 31
0.0
  0
LINE
  5
233
330
1F
100
AcDbEntity
  8
Ｓ_１_１
  6
CONTINUOUS
 62
     3
100
AcDbLine
 10
261.0000000000001
 20
340.5
 30
0.0
 11
270.0000000000001
 21
340.5
 31
0.0
  0
LINE
  5
234
330
1F
100
AcDbEntity
  8
Ｓ_１_１
  6
CONTINUOUS
 62
     3
100
AcDbLine
 10
261.0000000000001
 20
351.156383
 30
0.0
 11
270.0000000000001
 21
351.156383
 31
0.0
  0
LINE
  5
235
330
1F
100
AcDbEntity
  8
Ｓ_１_１
  6
CONTINUOUS
 62
     3
100
AcDbLine
 10
270.0000000000001
 20
376.5
 30
0.0
 11
281.545081
 21
388.045082
 31
0.0
  0
LINE
  5
236
330
1F
100
AcDbEntity
  8
Ｓ_１_１
  6
CONTINUOUS
 62
     3
100
AcDbLine
 10
250.0000000000001
 20
344.5
 30
0.0
 11
259.5000000000001
 21
344.5
 31
0.0
  0
LINE
  5
237
330
1F
100
AcDbEntity
  8
Ｓ_１_１
  6
CONTINUOUS
 62
     3
100
AcDbLine
 10
250.0000000000001
 20
379.5
 30
0.0
 11
259.5000000000001
 21
379.5
 31
0.0
  0
LINE
  5
238
330
1F
100
AcDbEntity
  8
Ｓ_１_１
  6
CONTINUOUS
 62
     3
100
AcDbLine
 10
250.0000000000001
 20
339.5
 30
0.0
 11
259.5000000000001
 21
339.5
 31
0.0
  0
LINE
  5
239
330
1F
100
AcDbEntity
  8
Ｓ_１_１
  6
CONTINUOUS
 62
     3
100
AcDbLine
 10
230.0
 20
376.5
 30
0.0
 11
218.454918
 21
388.045082
 31
0.0
  0
LINE
  5
23A
330
1F
100
AcDbEntity
  8
Ｓ_１_１
  6
CONTINUOUS
 62
     3
100
AcDbLine
 10
239.0
 20
351.156383
 30
0.0
 11
230.0
 21
351.156383
 31
0.0
  0
LINE
  5
23B
330
1F
100
AcDbEntity
  8
Ｓ_１_１
  6
CONTINUOUS
 62
     3
100
AcDbLine
 10
239.0
 20
340.5
 30
0.0
 11
230.0
 21
340.5
 31
0.0
  0
LINE
  5
23C
330
1F
100
AcDbEntity
  8
Ｓ_１_１
  6
CONTINUOUS
 62
     3
100
AcDbLine
 10
239.0
 20
383.156383
 30
0.0
 11
230.0
 21
383.156383
 31
0.0
  0
LINE
  5
23D
330
1F
100
AcDbEntity
  8
Ｓ_１_１
  6
CONTINUOUS
 62
     3
100
AcDbLine
 10
239.0
 20
366.5
 30
0.0
 11
240.5
 21
366.5
 31
0.0
  0
LINE
  5
23E
330
1F
100
AcDbEntity
  8
Ｓ_１_１
  6
CONTINUOUS
 62
     3
100
AcDbLine
 10
239.0
 20
354.5
 30
0.0
 11
240.5
 21
354.5
 31
0.0
  0
LINE
  5
23F
330
1F
100
AcDbEntity
  8
Ｓ_１_１
  6
CONTINUOUS
 62
     3
100
AcDbLine
 10
250.0000000000001
 20
344.5
 30
0.0
 11
240.5
 21
344.5
 31
0.0
  0
LINE
  5
240
330
1F
100
AcDbEntity
  8
Ｓ_１_１
  6
CONTINUOUS
 62
     3
100
AcDbLine
 10
250.0000000000001
 20
379.5
 30
0.0
 11
240.5
 21
379.5
 31
0.0
  0
LINE
  5
241
330
1F
100
AcDbEntity
  8
Ｓ_１_１
  6
CONTINUOUS
 62
     3
100
AcDbLine
 10
250.0000000000001
 20
339.5
 30
0.0
 11
240.5
 21
339.5
 31
0.0
  0
LINE
  5
242
330
1F
100
AcDbEntity
  8
Ｓ_１_１
  6
CONTINUOUS
 62
     3
100
AcDbLine
 10
240.5
 20
339.5
 30
0.0
 11
240.5
 21
379.5
 31
0.0
  0
LINE
  5
243
330
1F
100
AcDbEntity
  8
Ｓ_１_１
  6
CONTINUOUS
 62
     3
100
AcDbLine
 10
230.0
 20
340.5
 30
0.0
 11
230.0
 21
383.156383
 31
0.0
  0
LINE
  5
244
330
1F
100
AcDbEntity
  8
Ｓ_１_１
  6
CONTINUOUS
 62
     3
100
AcDbLine
 10
239.0
 20
340.5
 30
0.0
 11
239.0
 21
383.156383
 31
0.0
  0
CIRCLE
  5
245
330
1F
100
AcDbEntity
  8
Ｓ_１_１
  6
CONTINUOUS
 62
     3
100
AcDbCircle
 10
250.0000000000001
 20
475.0000000000001
 30
0.0
 40
92.50000000000007
  0
LINE
  5
246
330
1F
100
AcDbEntity
  8
Ｓ_１_１
  6
CONTINUOUS
 62
     3
100
AcDbLine
 10
272.0000000000001
 20
365.5
 30
0.0
 11
272.0000000000001
 21
355.5
 31
0.0
  0
LINE
  5
247
330
1F
100
AcDbEntity
  8
Ｓ_１_１
  6
CONTINUOUS
 62
     3
100
AcDbLine
 10
272.0000000000001
 20
355.5
 30
0.0
 11
271.0000000000001
 21
354.5
 31
0.0
  0
LINE
  5
248
330
1F
100
AcDbEntity
  8
Ｓ_１_１
  6
CONTINUOUS
 62
     3
100
AcDbLine
 10
272.0000000000001
 20
365.5
 30
0.0
 11
271.0000000000001
 21
366.5
 31
0.0
  0
LINE
  5
249
330
1F
100
AcDbEntity
  8
Ｓ_１_１
  6
CONTINUOUS
 62
     3
100
AcDbLine
 10
271.0000000000001
 20
354.5
 30
0.0
 11
271.0000000000001
 21
366.5
 31
0.0
  0
LINE
  5
24A
330
1F
100
AcDbEntity
  8
Ｓ_１_１
  6
CONTINUOUS
 62
     3
100
AcDbLine
 10
230.0
 20
354.5
 30
0.0
 11
229.0000000000001
 21
354.5
 31
0.0
  0
LINE
  5
24B
330
1F
100
AcDbEntity
  8
Ｓ_１_１
  6
CONTINUOUS
 62
     3
100
AcDbLine
 10
230.0
 20
366.5
 30
0.0
 11
229.0000000000001
 21
366.5
 31
0.0
  0
LINE
  5
24C
330
1F
100
AcDbEntity
  8
Ｓ_１_１
  6
CONTINUOUS
 62
     3
100
AcDbLine
 10
229.0000000000001
 20
354.5
 30
0.0
 11
229.0000000000001
 21
366.5
 31
0.0
  0
LINE
  5
24D
330
1F
100
AcDbEntity
  8
Ｓ_１_１
  6
CONTINUOUS
 62
     3
100
AcDbLine
 10
228.0000000000001
 20
365.5
 30
0.0
 11
229.0000000000001
 21
366.5
 31
0.0
  0
LINE
  5
24E
330
1F
100
AcDbEntity
  8
Ｓ_１_１
  6
CONTINUOUS
 62
     3
100
AcDbLine
 10
228.0000000000001
 20
355.5
 30
0.0
 11
229.0000000000001
 21
354.5
 31
0.0
  0
LINE
  5
24F
330
1F
100
AcDbEntity
  8
Ｓ_１_１
  6
CONTINUOUS
 62
     3
100
AcDbLine
 10
228.0000000000001
 20
365.5
 30
0.0
 11
228.0000000000001
 21
355.5
 31
0.0
  0
LINE
  5
250
330
1F
100
AcDbEntity
  8
Ｓ_１_１
  6
CONTINUOUS
 62
     3
100
AcDbLine
 10
270.0000000000001
 20
595.5
 30
0.0
 11
271.0000000000001
 21
595.5
 31
0.0
  0
LINE
  5
251
330
1F
100
AcDbEntity
  8
Ｓ_１_１
  6
CONTINUOUS
 62
     3
100
AcDbLine
 10
270.0000000000001
 20
583.5
 30
0.0
 11
271.0000000000001
 21
583.5
 31
0.0
  0
LINE
  5
252
330
1F
100
AcDbEntity
  8
Ｓ_１_１
  6
CONTINUOUS
 62
     3
100
AcDbLine
 10
271.0000000000001
 20
595.5
 30
0.0
 11
271.0000000000001
 21
583.5
 31
0.0
  0
LINE
  5
253
330
1F
100
AcDbEntity
  8
Ｓ_１_１
  6
CONTINUOUS
 62
     3
100
AcDbLine
 10
272.0000000000001
 20
584.5
 30
0.0
 11
271.0000000000001
 21
583.5
 31
0.0
  0
LINE
  5
254
330
1F
100
AcDbEntity
  8
Ｓ_１_１
  6
CONTINUOUS
 62
     3
100
AcDbLine
 10
272.0000000000001
 20
594.5
 30
0.0
 11
271.0000000000001
 21
595.5
 31
0.0
  0
LINE
  5
255
330
1F
100
AcDbEntity
  8
Ｓ_１_１
  6
CONTINUOUS
 62
     3
100
AcDbLine
 10
272.0000000000001
 20
584.5
 30
0.0
 11
272.0000000000001
 21
594.5
 31
0.0
  0
LINE
  5
256
330
1F
100
AcDbEntity
  8
Ｓ_１_１
  6
CONTINUOUS
 62
     3
100
AcDbLine
 10
228.0000000000001
 20
584.5
 30
0.0
 11
229.0000000000001
 21
583.5
 31
0.0
  0
LINE
  5
257
330
1F
100
AcDbEntity
  8
Ｓ_１_１
  6
CONTINUOUS
 62
     3
100
AcDbLine
 10
228.0000000000001
 20
594.5
 30
0.0
 11
229.0000000000001
 21
595.5
 31
0.0
  0
LINE
  5
258
330
1F
100
AcDbEntity
  8
Ｓ_１_１
  6
CONTINUOUS
 62
     3
100
AcDbLine
 10
228.0000000000001
 20
584.5
 30
0.0
 11
228.0000000000001
 21
594.5
 31
0.0
  0
LINE
  5
259
330
1F
100
AcDbEntity
  8
Ｓ_１_１
  6
CONTINUOUS
 62
     3
100
AcDbLine
 10
229.0000000000001
 20
595.5
 30
0.0
 11
229.0000000000001
 21
583.5
 31
0.0
  0
LINE
  5
25A
330
1F
100
AcDbEntity
  8
Ｓ_１_１
  6
CONTINUOUS
 62
     3
100
AcDbLine
 10
230.0
 20
583.5
 30
0.0
 11
229.0000000000001
 21
583.5
 31
0.0
  0
LINE
  5
25B
330
1F
100
AcDbEntity
  8
Ｓ_１_１
  6
CONTINUOUS
 62
     3
100
AcDbLine
 10
230.0
 20
595.5
 30
0.0
 11
229.0000000000001
 21
595.5
 31
0.0
  0
CIRCLE
  5
25C
330
1F
100
AcDbEntity
  8
Ｓ_１_１
  6
CONTINUOUS
 62
     3
100
AcDbCircle
 10
317.5000000000001
 20
475.0000000000001
 30
0.0
 40
5.125
  0
CIRCLE
  5
25D
330
1F
100
AcDbEntity
  8
Ｓ_１_１
  6
CONTINUOUS
 62
     3
100
AcDbCircle
 10
317.5000000000001
 20
475.0000000000001
 30
0.0
 40
6.000000000000004
  0
CIRCLE
  5
25E
330
1F
100
AcDbEntity
  8
Ｓ_１_１
  6
CONTINUOUS
 62
     3
100
AcDbCircle
 10
250.0000000000001
 20
407.5
 30
0.0
 40
5.125
  0
CIRCLE
  5
25F
330
1F
100
AcDbEntity
  8
Ｓ_１_１
  6
CONTINUOUS
 62
     3
100
AcDbCircle
 10
250.0000000000001
 20
407.5
 30
0.0
 40
6.000000000000004
  0
CIRCLE
  5
260
330
1F
100
AcDbEntity
  8
Ｓ_１_１
  6
CONTINUOUS
 62
     3
100
AcDbCircle
 10
182.5000000000001
 20
475.0000000000001
 30
0.0
 40
5.125
  0
CIRCLE
  5
261
330
1F
100
AcDbEntity
  8
Ｓ_１_１
  6
CONTINUOUS
 62
     3
100
AcDbCircle
 10
182.5000000000001
 20
475.0000000000001
 30
0.0
 40
6.000000000000004
  0
CIRCLE
  5
262
330
1F
100
AcDbEntity
  8
Ｓ_１_１
  6
CONTINUOUS
 62
     3
100
AcDbCircle
 10
250.0000000000001
 20
542.5
 30
0.0
 40
5.125
  0
CIRCLE
  5
263
330
1F
100
AcDbEntity
  8
Ｓ_１_１
  6
CONTINUOUS
 62
     3
100
AcDbCircle
 10
250.0000000000001
 20
542.5
 30
0.0
 40
6.000000000000004
  0
CIRCLE
  5
264
330
1F
100
AcDbEntity
  8
Ｓ_１_１
  6
CONTINUOUS
 62
     3
100
AcDbCircle
 10
250.0000000000001
 20
475.0000000000001
 30
0.0
 40
30.00000000000002
  0
CIRCLE
  5
265
330
1F
100
AcDbEntity
  8
Ｓ_１_１
  6
CONTINUOUS
 62
     3
100
AcDbCircle
 10
250.0000000000001
 20
475.0000000000001
 30
0.0
 40
55.00000000000004
  0
CIRCLE
  5
266
330
1F
100
AcDbEntity
  8
Ｓ_１_１
  6
CONTINUOUS
 62
     3
100
AcDbCircle
 10
250.0000000000001
 20
475.0000000000001
 30
0.0
 40
80.0
  0
CIRCLE
  5
267
330
1F
100
AcDbEntity
  8
Ｓ_１_１
  6
CONTINUOUS
 62
     3
100
AcDbCircle
 10
250.0000000000001
 20
475.0000000000001
 30
0.0
 40
15.00000000000001
  0
CIRCLE
  5
268
330
1F
100
AcDbEntity
  8
Ｓ_１_１
  6
CONTINUOUS
 62
     3
100
AcDbCircle
 10
250.0000000000001
 20
475.0000000000001
 30
0.0
 40
17.0
  0
CIRCLE
  5
269
330
1F
100
AcDbEntity
  8
Ｓ_１_１
  6
CONTINUOUS
 62
     3
100
AcDbCircle
 10
250.0000000000001
 20
475.0000000000001
 30
0.0
 40
28.50000000000002
  0
CIRCLE
  5
26A
330
1F
100
AcDbEntity
  8
Ｓ_１_１
  6
CONTINUOUS
 62
     3
100
AcDbCircle
 10
250.0000000000001
 20
475.0000000000001
 30
0.0
 40
31.50000000000002
  0
CIRCLE
  5
26B
330
1F
100
AcDbEntity
  8
Ｓ_１_１
  6
CONTINUOUS
 62
     3
100
AcDbCircle
 10
250.0000000000001
 20
475.0000000000001
 30
0.0
 40
53.50000000000004
  0
CIRCLE
  5
26C
330
1F
100
AcDbEntity
  8
Ｓ_１_１
  6
CONTINUOUS
 62
     3
100
AcDbCircle
 10
250.0000000000001
 20
475.0000000000001
 30
0.0
 40
56.50000000000004
  0
CIRCLE
  5
26D
330
1F
100
AcDbEntity
  8
Ｓ_１_１
  6
CONTINUOUS
 62
     3
100
AcDbCircle
 10
250.0000000000001
 20
475.0000000000001
 30
0.0
 40
78.5
  0
CIRCLE
  5
26E
330
1F
100
AcDbEntity
  8
Ｓ_１_１
  6
CONTINUOUS
 62
     3
100
AcDbCircle
 10
250.0000000000001
 20
475.0000000000001
 30
0.0
 40
81.5
  0
CIRCLE
  5
26F
330
1F
100
AcDbEntity
  8
Ｓ_１_１
  6
CONTINUOUS
 62
     3
100
AcDbCircle
 10
250.0000000000001
 20
475.0000000000001
 30
0.0
 40
87.0
  0
CIRCLE
  5
270
330
1F
100
AcDbEntity
  8
Ｓ_１_１
  6
CONTINUOUS
 62
     3
100
AcDbCircle
 10
250.0000000000001
 20
475.0000000000001
 30
0.0
 40
90.0
  0
LINE
  5
271
330
1F
100
AcDbEntity
  8
Ｓ_１_１
  6
CONTINUOUS
 62
     3
100
AcDbLine
 10
255.0000000000001
 20
477.8867519999999
 30
0.0
 11
255.0000000000001
 21
472.1132479999999
 31
0.0
  0
LINE
  5
272
330
1F
100
AcDbEntity
  8
Ｓ_１_１
  6
CONTINUOUS
 62
     3
100
AcDbLine
 10
255.0000000000001
 20
477.8867519999999
 30
0.0
 11
250.0000000000001
 21
480.7735029999999
 31
0.0
  0
LINE
  5
273
330
1F
100
AcDbEntity
  8
Ｓ_１_１
  6
CONTINUOUS
 62
     3
100
AcDbLine
 10
250.0000000000001
 20
480.7735029999999
 30
0.0
 11
245.0000000000001
 21
477.8867519999999
 31
0.0
  0
LINE
  5
274
330
1F
100
AcDbEntity
  8
Ｓ_１_１
  6
CONTINUOUS
 62
     3
100
AcDbLine
 10
245.0000000000001
 20
477.8867519999999
 30
0.0
 11
245.0000000000001
 21
472.1132479999999
 31
0.0
  0
LINE
  5
275
330
1F
100
AcDbEntity
  8
Ｓ_１_１
  6
CONTINUOUS
 62
     3
100
AcDbLine
 10
245.0000000000001
 20
472.1132479999999
 30
0.0
 11
250.0000000000001
 21
469.2264969999999
 31
0.0
  0
LINE
  5
276
330
1F
100
AcDbEntity
  8
Ｓ_１_１
  6
CONTINUOUS
 62
     3
100
AcDbLine
 10
250.0000000000001
 20
469.2264969999999
 30
0.0
 11
255.0000000000001
 21
472.1132479999999
 31
0.0
  0
CIRCLE
  5
277
330
1F
100
AcDbEntity
  8
Ｓ_１_１
  6
CONTINUOUS
 62
     3
100
AcDbCircle
 10
250.0000000000001
 20
475.0000000000001
 30
0.0
 40
9.0
  0
CIRCLE
  5
278
330
1F
100
AcDbEntity
  8
Ｓ_１_１
  6
CONTINUOUS
 62
     3
100
AcDbCircle
 10
250.0000000000001
 20
475.0000000000001
 30
0.0
 40
7.787565000000003
  0
CIRCLE
  5
279
330
1F
100
AcDbEntity
  8
Ｓ_１_１
  6
CONTINUOUS
 62
     3
100
AcDbCircle
 10
250.0000000000001
 20
475.0000000000001
 30
0.0
 40
12.00000000000001
  0
CIRCLE
  5
27A
330
1F
100
AcDbEntity
  8
Ｓ_１_１
  6
EXLTYPE6
 62
     1
100
AcDbCircle
 10
250.0000000000001
 20
475.0000000000001
 30
0.0
 40
67.5
  0
LINE
  5
27B
330
1F
100
AcDbEntity
  8
Ｓ_１_１
  6
EXLTYPE6
 62
     1
100
AcDbLine
 10
224.097398
 20
589.5
 30
0.0
 11
277.0000000000001
 21
589.5
 31
0.0
  0
LINE
  5
27C
330
1F
100
AcDbEntity
  8
Ｓ_１_１
  6
EXLTYPE6
 62
     1
100
AcDbLine
 10
250.0000000000001
 20
615.7137399999999
 30
0.0
 11
250.0000000000001
 21
329.4999999999999
 31
0.0
  0
LINE
  5
27D
330
1F
100
AcDbEntity
  8
Ｓ_１_１
  6
EXLTYPE6
 62
     1
100
AcDbLine
 10
224.6373979999999
 20
360.5
 30
0.0
 11
277.0000000000001
 21
360.5
 31
0.0
  0
LINE
  5
27E
330
1F
100
AcDbEntity
  8
Ｓ_１_１
  6
EXLTYPE6
 62
     1
100
AcDbLine
 10
418.2
 20
475.0000000000001
 30
0.0
 11
147.5000000000001
 21
475.0000000000001
 31
0.0
  0
ARC
  5
27F
330
1F
100
AcDbEntity
  8
Ｓ_１_１
  6
CONTINUOUS
 62
     3
100
AcDbCircle
 10
366.2283390000001
 20
485.3923229999997
 30
0.0
 40
6.133926000000002
100
AcDbArc
 50
325.6154130000001
 51
34.38456100000001
  0
ARC
  5
280
330
1F
100
AcDbEntity
  8
Ｓ_１_１
  6
CONTINUOUS
 62
     3
100
AcDbCircle
 10
349.4343270000002
 20
475.0000189999998
 30
0.0
 40
22.92794000000001
100
AcDbArc
 50
342.4118280000001
 51
17.58814300000006
  0
ARC
  5
281
330
1F
100
AcDbEntity
  8
Ｓ_１_１
  6
CONTINUOUS
 62
     3
100
AcDbCircle
 10
354.2295160000002
 20
484.0932749999998
 30
0.0
 40
5.367246000000002
100
AcDbArc
 50
145.6159300000004
 51
214.3842180000004
  0
ARC
  5
282
330
1F
100
AcDbEntity
  8
Ｓ_１_１
  6
CONTINUOUS
 62
     3
100
AcDbCircle
 10
354.2295160000002
 20
465.9067159999997
 30
0.0
 40
5.367246000000002
100
AcDbArc
 50
145.6158480000003
 51
214.3841360000003
  0
ARC
  5
283
330
1F
100
AcDbEntity
  8
Ｓ_１_１
  6
CONTINUOUS
 62
     3
100
AcDbCircle
 10
368.9244620000002
 20
475.0000099999997
 30
0.0
 40
20.062196
100
AcDbArc
 50
162.4121240000001
 51
197.5880079999999
  0
ARC
  5
284
330
1F
100
AcDbEntity
  8
Ｓ_１_１
  6
CONTINUOUS
 62
     3
100
AcDbCircle
 10
352.4950190000002
 20
465.9067159999997
 30
0.0
 40
5.367246000000002
100
AcDbArc
 50
325.6159180000001
 51
34.38420599999998
  0
ARC
  5
285
330
1F
100
AcDbEntity
  8
Ｓ_１_１
  6
CONTINUOUS
 62
     3
100
AcDbCircle
 10
352.4950190000002
 20
484.0932749999998
 30
0.0
 40
5.367246000000002
100
AcDbArc
 50
325.6158360000001
 51
34.38412400000001
  0
ARC
  5
286
330
1F
100
AcDbEntity
  8
Ｓ_１_１
  6
CONTINUOUS
 62
     3
100
AcDbCircle
 10
337.8000730000002
 20
475.0000099999997
 30
0.0
 40
20.062196
100
AcDbArc
 50
342.412047
 51
17.58793099999995
  0
ARC
  5
287
330
1F
100
AcDbEntity
  8
Ｓ_１_１
  6
CONTINUOUS
 62
     3
100
AcDbCircle
 10
371.4961920000001
 20
464.6076779999999
 30
0.0
 40
6.133926000000002
100
AcDbArc
 50
145.6154390000003
 51
214.3846010000001
  0
ARC
  5
288
330
1F
100
AcDbEntity
  8
Ｓ_１_１
  6
CONTINUOUS
 62
     3
100
AcDbCircle
 10
409.362269
 20
470.5000019999997
 30
0.0
 40
1.0
100
AcDbArc
 50
270.0000360000001
 51
0.000016000000039
  0
ARC
  5
289
330
1F
100
AcDbEntity
  8
Ｓ_１_１
  6
CONTINUOUS
 62
     3
100
AcDbCircle
 10
366.2283390000001
 20
464.6076779999999
 30
0.0
 40
6.133926000000002
100
AcDbArc
 50
325.615481
 51
34.38463000000007
  0
ARC
  5
28A
330
1F
100
AcDbEntity
  8
Ｓ_１_１
  6
CONTINUOUS
 62
     3
100
AcDbCircle
 10
388.2902160000002
 20
475.0000189999998
 30
0.0
 40
22.927942
100
AcDbArc
 50
162.4118850000003
 51
197.5881790000003
  0
ARC
  5
28B
330
1F
100
AcDbEntity
  8
Ｓ_１_１
  6
CONTINUOUS
 62
     3
100
AcDbCircle
 10
371.4961920000001
 20
485.3923229999997
 30
0.0
 40
6.133926000000002
100
AcDbArc
 50
145.6154390000003
 51
214.3845870000004
  0
ARC
  5
28C
330
1F
100
AcDbEntity
  8
Ｓ_１_１
  6
CONTINUOUS
 62
     3
100
AcDbCircle
 10
409.362269
 20
479.4999979999998
 30
0.0
 40
1.0
100
AcDbArc
 50
0.000016000000039
 51
90.00000499999999
  0
LINE
  5
28D
330
1F
100
AcDbEntity
  8
Ｓ_１_１
  6
CONTINUOUS
 62
     3
100
AcDbLine
 10
359.2245350000001
 20
482.5634949999997
 30
0.0
 11
357.862269
 21
483.3499999999998
 31
0.0
  0
LINE
  5
28E
330
1F
100
AcDbEntity
  8
Ｓ_１_１
  6
CONTINUOUS
 62
     3
100
AcDbLine
 10
365.3622710000002
 20
482.1798769999997
 30
0.0
 11
359.2245350000001
 21
482.5634849999998
 31
0.0
  0
LINE
  5
28F
330
1F
100
AcDbEntity
  8
Ｓ_１_１
  6
CONTINUOUS
 62
     3
100
AcDbLine
 10
365.3622720000001
 20
467.8201149999998
 30
0.0
 11
359.2245360000002
 21
467.4365059999998
 31
0.0
  0
LINE
  5
290
330
1F
100
AcDbEntity
  8
Ｓ_１_１
  6
CONTINUOUS
 62
     3
100
AcDbLine
 10
359.2245330000001
 20
466.7351439999998
 30
0.0
 11
359.2245330000001
 21
483.2648569999997
 31
0.0
  0
LINE
  5
291
330
1F
100
AcDbEntity
  8
Ｓ_１_１
  6
CONTINUOUS
 62
     3
100
AcDbLine
 10
357.862261
 20
466.6499989999998
 30
0.0
 11
359.2245320000002
 21
467.4365059999998
 31
0.0
  0
LINE
  5
292
330
1F
100
AcDbEntity
  8
Ｓ_１_１
  6
CONTINUOUS
 62
     3
100
AcDbLine
 10
347.5000020000001
 20
466.7351439999998
 30
0.0
 11
347.5000020000001
 21
483.2648569999997
 31
0.0
  0
LINE
  5
293
330
1F
100
AcDbEntity
  8
Ｓ_１_１
  6
CONTINUOUS
 62
     3
100
AcDbLine
 10
348.8622770000002
 20
466.6500099999998
 30
0.0
 11
347.5000030000002
 21
467.4365189999999
 31
0.0
  0
LINE
  5
294
330
1F
100
AcDbEntity
  8
Ｓ_１_１
  6
CONTINUOUS
 62
     3
100
AcDbLine
 10
347.4999990000002
 20
482.5634829999998
 30
0.0
 11
348.862269
 21
483.3499899999998
 31
0.0
  0
LINE
  5
295
330
1F
100
AcDbEntity
  8
Ｓ_１_１
  6
CONTINUOUS
 62
     3
100
AcDbLine
 10
365.3622570000001
 20
482.8812589999998
 30
0.0
 11
357.8622620000002
 21
483.3500089999997
 31
0.0
  0
LINE
  5
296
330
1F
100
AcDbEntity
  8
Ｓ_１_１
  6
CONTINUOUS
 62
     3
100
AcDbLine
 10
365.3622740000001
 20
467.1187519999999
 30
0.0
 11
357.8622500000002
 21
466.6500009999997
 31
0.0
  0
LINE
  5
297
330
1F
100
AcDbEntity
  8
Ｓ_１_１
  6
CONTINUOUS
 62
     3
100
AcDbLine
 10
380.8622660000001
 20
463.2499989999996
 30
0.0
 11
380.8622660000001
 21
486.7500019999997
 31
0.0
  0
LINE
  5
298
330
1F
100
AcDbEntity
  8
Ｓ_１_１
  6
CONTINUOUS
 62
     3
100
AcDbLine
 10
381.3622630000003
 20
486.2500049999997
 30
0.0
 11
380.8622670000003
 21
486.7500009999998
 31
0.0
  0
LINE
  5
299
330
1F
100
AcDbEntity
  8
Ｓ_１_１
  6
CONTINUOUS
 62
     3
100
AcDbLine
 10
380.8622720000001
 20
463.2499939999998
 30
0.0
 11
381.3622750000002
 21
463.7499849999999
 31
0.0
  0
LINE
  5
29A
330
1F
100
AcDbEntity
  8
Ｓ_１_１
  6
CONTINUOUS
 62
     3
100
AcDbLine
 10
412.3622750000002
 20
476.4999889999998
 30
0.0
 11
410.3622620000002
 21
478.5000019999998
 31
0.0
  0
LINE
  5
29B
330
1F
100
AcDbEntity
  8
Ｓ_１_１
  6
CONTINUOUS
 62
     3
100
AcDbLine
 10
410.3622590000003
 20
471.5000079999998
 30
0.0
 11
412.3622550000003
 21
473.5000039999998
 31
0.0
  0
LINE
  5
29C
330
1F
100
AcDbEntity
  8
Ｓ_１_１
  6
CONTINUOUS
 62
     3
100
AcDbLine
 10
391.862269
 20
467.4999999999998
 30
0.0
 11
391.862269
 21
482.4999999999997
 31
0.0
  0
LINE
  5
29D
330
1F
100
AcDbEntity
  8
Ｓ_１_１
  6
CONTINUOUS
 62
     3
100
AcDbLine
 10
393.3622660000001
 20
467.4999999999998
 30
0.0
 11
393.3622660000001
 21
482.4999909999998
 31
0.0
  0
LINE
  5
29E
330
1F
100
AcDbEntity
  8
Ｓ_１_１
  6
CONTINUOUS
 62
     3
100
AcDbLine
 10
396.8622840000001
 20
466.0000039999997
 30
0.0
 11
396.8622840000001
 21
483.9999959999998
 31
0.0
  0
LINE
  5
29F
330
1F
100
AcDbEntity
  8
Ｓ_１_１
  6
CONTINUOUS
 62
     3
100
AcDbLine
 10
390.362269
 20
483.9999959999998
 30
0.0
 11
381.3622680000001
 21
483.9999959999998
 31
0.0
  0
LINE
  5
2A0
330
1F
100
AcDbEntity
  8
Ｓ_１_１
  6
CONTINUOUS
 62
     3
100
AcDbLine
 10
390.362269
 20
466.0000039999997
 30
0.0
 11
381.3622680000001
 21
466.0000039999997
 31
0.0
  0
LINE
  5
2A1
330
1F
100
AcDbEntity
  8
Ｓ_１_１
  6
CONTINUOUS
 62
     3
100
AcDbLine
 10
394.8622670000003
 20
466.0000029999997
 30
0.0
 11
393.3622640000002
 21
467.5000059999997
 31
0.0
  0
LINE
  5
2A2
330
1F
100
AcDbEntity
  8
Ｓ_１_１
  6
CONTINUOUS
 62
     3
100
AcDbLine
 10
393.3622590000003
 20
482.4999969999998
 30
0.0
 11
394.8622550000003
 21
483.9999929999998
 31
0.0
  0
LINE
  5
2A3
330
1F
100
AcDbEntity
  8
Ｓ_１_１
  6
CONTINUOUS
 62
     3
100
AcDbLine
 10
394.8622670000003
 20
466.0000039999997
 30
0.0
 11
394.8622670000003
 21
483.9999959999998
 31
0.0
  0
LINE
  5
2A4
330
1F
100
AcDbEntity
  8
Ｓ_１_１
  6
CONTINUOUS
 62
     3
100
AcDbLine
 10
390.3622670000003
 20
465.9999979999998
 30
0.0
 11
391.8622700000001
 21
467.5000009999999
 31
0.0
  0
LINE
  5
2A5
330
1F
100
AcDbEntity
  8
Ｓ_１_１
  6
CONTINUOUS
 62
     3
100
AcDbLine
 10
391.8622720000001
 20
482.4999979999998
 30
0.0
 11
390.362269
 21
484.0000009999997
 31
0.0
  0
LINE
  5
2A6
330
1F
100
AcDbEntity
  8
Ｓ_１_１
  6
CONTINUOUS
 62
     3
100
AcDbLine
 10
390.362269
 20
466.0000039999997
 30
0.0
 11
390.362269
 21
483.9999959999998
 31
0.0
  0
LINE
  5
2A7
330
1F
100
AcDbEntity
  8
Ｓ_１_１
  6
CONTINUOUS
 62
     3
100
AcDbLine
 10
393.3622660000001
 20
467.4999999999998
 30
0.0
 11
391.862269
 21
467.4999999999998
 31
0.0
  0
LINE
  5
2A8
330
1F
100
AcDbEntity
  8
Ｓ_１_１
  6
CONTINUOUS
 62
     3
100
AcDbLine
 10
393.3622510000003
 20
482.4999999999997
 30
0.0
 11
391.862269
 21
482.4999999999997
 31
0.0
  0
LINE
  5
2A9
330
1F
100
AcDbEntity
  8
Ｓ_１_１
  6
CONTINUOUS
 62
     3
100
AcDbLine
 10
396.8622860000001
 20
466.0000019999998
 30
0.0
 11
400.3622710000002
 21
469.4999879999998
 31
0.0
  0
LINE
  5
2AA
330
1F
100
AcDbEntity
  8
Ｓ_１_１
  6
CONTINUOUS
 62
     3
100
AcDbLine
 10
400.362269
 20
480.4999949999998
 30
0.0
 11
396.8622670000003
 21
483.9999979999997
 31
0.0
  0
LINE
  5
2AB
330
1F
100
AcDbEntity
  8
Ｓ_１_１
  6
CONTINUOUS
 62
     3
100
AcDbLine
 10
409.362269
 20
480.5000019999998
 30
0.0
 11
400.3622680000001
 21
480.5000019999998
 31
0.0
  0
LINE
  5
2AC
330
1F
100
AcDbEntity
  8
Ｓ_１_１
  6
CONTINUOUS
 62
     3
100
AcDbLine
 10
409.362269
 20
469.4999989999998
 30
0.0
 11
400.3622680000001
 21
469.4999989999998
 31
0.0
  0
LINE
  5
2AD
330
1F
100
AcDbEntity
  8
Ｓ_１_１
  6
CONTINUOUS
 62
     3
100
AcDbLine
 10
400.3622680000001
 20
469.4999989999998
 30
0.0
 11
400.3622680000001
 21
480.5000019999998
 31
0.0
  0
LINE
  5
2AE
330
1F
100
AcDbEntity
  8
Ｓ_１_１
  6
CONTINUOUS
 62
     3
100
AcDbLine
 10
396.8622840000001
 20
466.0000039999997
 30
0.0
 11
394.8622670000003
 21
466.0000039999997
 31
0.0
  0
LINE
  5
2AF
330
1F
100
AcDbEntity
  8
Ｓ_１_１
  6
CONTINUOUS
 62
     3
100
AcDbLine
 10
396.862269
 20
483.9999959999998
 30
0.0
 11
394.8622670000003
 21
483.9999959999998
 31
0.0
  0
LINE
  5
2B0
330
1F
100
AcDbEntity
  8
Ｓ_１_１
  6
CONTINUOUS
 62
     3
100
AcDbLine
 10
381.3622680000001
 20
463.7499909999997
 30
0.0
 11
381.3622680000001
 21
486.2499999999998
 31
0.0
  0
LINE
  5
2B1
330
1F
100
AcDbEntity
  8
Ｓ_１_１
  6
CONTINUOUS
 62
     3
100
AcDbLine
 10
380.8622660000001
 20
486.7500019999997
 30
0.0
 11
372.3622670000003
 21
486.7500019999997
 31
0.0
  0
LINE
  5
2B2
330
1F
100
AcDbEntity
  8
Ｓ_１_１
  6
CONTINUOUS
 62
     3
100
AcDbLine
 10
380.8622660000001
 20
463.2499989999996
 30
0.0
 11
372.3622670000003
 21
463.2499989999996
 31
0.0
  0
LINE
  5
2B3
330
1F
100
AcDbEntity
  8
Ｓ_１_１
  6
CONTINUOUS
 62
     3
100
AcDbLine
 10
366.4340480000001
 20
461.1436079999999
 30
0.0
 11
365.3622710000002
 21
462.9999809999999
 31
0.0
  0
LINE
  5
2B4
330
1F
100
AcDbEntity
  8
Ｓ_１_１
  6
CONTINUOUS
 62
     3
100
AcDbLine
 10
372.362269
 20
487.0000049999998
 30
0.0
 11
371.2904630000001
 21
488.8564279999998
 31
0.0
  0
LINE
  5
2B5
330
1F
100
AcDbEntity
  8
Ｓ_１_１
  6
CONTINUOUS
 62
     3
100
AcDbLine
 10
365.3622660000001
 20
487.0000049999998
 30
0.0
 11
366.4340720000003
 21
488.8564279999998
 31
0.0
  0
LINE
  5
2B6
330
1F
100
AcDbEntity
  8
Ｓ_１_１
  6
CONTINUOUS
 62
     3
100
AcDbLine
 10
371.2904800000002
 20
461.1436119999998
 30
0.0
 11
372.3622720000001
 21
463.0000089999998
 31
0.0
  0
LINE
  5
2B7
330
1F
100
AcDbEntity
  8
Ｓ_１_１
  6
CONTINUOUS
 62
     3
100
AcDbLine
 10
371.2904610000001
 20
488.8564209999997
 30
0.0
 11
366.4340750000002
 21
488.8564209999997
 31
0.0
  0
LINE
  5
2B8
330
1F
100
AcDbEntity
  8
Ｓ_１_１
  6
CONTINUOUS
 62
     3
100
AcDbLine
 10
371.2904610000001
 20
481.9282149999997
 30
0.0
 11
366.4340750000002
 21
481.9282149999997
 31
0.0
  0
LINE
  5
2B9
330
1F
100
AcDbEntity
  8
Ｓ_１_１
  6
CONTINUOUS
 62
     3
100
AcDbLine
 10
371.2904610000001
 20
468.0718239999997
 30
0.0
 11
366.4340750000002
 21
468.0718239999997
 31
0.0
  0
LINE
  5
2BA
330
1F
100
AcDbEntity
  8
Ｓ_１_１
  6
CONTINUOUS
 62
     3
100
AcDbLine
 10
371.2904750000001
 20
461.1436179999998
 30
0.0
 11
366.4340460000001
 21
461.1436179999998
 31
0.0
  0
LINE
  5
2BB
330
1F
100
AcDbEntity
  8
Ｓ_１_１
  6
CONTINUOUS
 62
     3
100
AcDbLine
 10
372.3622670000003
 20
463.0000119999997
 30
0.0
 11
372.3622670000003
 21
487.0000079999997
 31
0.0
  0
LINE
  5
2BC
330
1F
100
AcDbEntity
  8
Ｓ_１_１
  6
CONTINUOUS
 62
     3
100
AcDbLine
 10
410.3622630000003
 20
470.5000019999997
 30
0.0
 11
410.3622630000003
 21
479.4999979999998
 31
0.0
  0
LINE
  5
2BD
330
1F
100
AcDbEntity
  8
Ｓ_１_１
  6
CONTINUOUS
 62
     3
100
AcDbLine
 10
412.3622710000002
 20
473.5000139999997
 30
0.0
 11
412.3622710000002
 21
476.4999969999997
 31
0.0
  0
LINE
  5
2BE
330
1F
100
AcDbEntity
  8
Ｓ_１_１
  6
CONTINUOUS
 62
     3
100
AcDbLine
 10
348.8622700000001
 20
464.4999939999998
 30
0.0
 11
349.8000920000002
 21
462.8756339999997
 31
0.0
  0
LINE
  5
2BF
330
1F
100
AcDbEntity
  8
Ｓ_１_１
  6
CONTINUOUS
 62
     3
100
AcDbLine
 10
357.8622820000001
 20
464.4999819999998
 30
0.0
 11
356.9244610000001
 21
462.8756209999997
 31
0.0
  0
LINE
  5
2C0
330
1F
100
AcDbEntity
  8
Ｓ_１_１
  6
CONTINUOUS
 62
     3
100
AcDbLine
 10
348.862269
 20
485.5000069999998
 30
0.0
 11
349.8000910000001
 21
487.1243679999997
 31
0.0
  0
LINE
  5
2C1
330
1F
100
AcDbEntity
  8
Ｓ_１_１
  6
CONTINUOUS
 62
     3
100
AcDbLine
 10
357.8622660000001
 20
485.5000209999998
 30
0.0
 11
356.9244500000003
 21
487.1243729999998
 31
0.0
  0
LINE
  5
2C2
330
1F
100
AcDbEntity
  8
Ｓ_１_１
  6
CONTINUOUS
 62
     3
100
AcDbLine
 10
356.9244470000002
 20
487.1243669999998
 30
0.0
 11
349.800088
 21
487.1243669999998
 31
0.0
  0
LINE
  5
2C3
330
1F
100
AcDbEntity
  8
Ｓ_１_１
  6
CONTINUOUS
 62
     3
100
AcDbLine
 10
356.9244610000001
 20
462.8756529999998
 30
0.0
 11
349.8000730000002
 21
462.8756529999998
 31
0.0
  0
LINE
  5
2C4
330
1F
100
AcDbEntity
  8
Ｓ_１_１
  6
CONTINUOUS
 62
     3
100
AcDbLine
 10
356.9244470000002
 20
468.9378359999998
 30
0.0
 11
349.800088
 21
468.9378359999998
 31
0.0
  0
LINE
  5
2C5
330
1F
100
AcDbEntity
  8
Ｓ_１_１
  6
CONTINUOUS
 62
     3
100
AcDbLine
 10
356.9244470000002
 20
481.0621839999997
 30
0.0
 11
349.800088
 21
481.0621839999997
 31
0.0
  0
LINE
  5
2C6
330
1F
100
AcDbEntity
  8
Ｓ_１_１
  6
CONTINUOUS
 62
     3
100
AcDbLine
 10
365.362269
 20
462.9999929999999
 30
0.0
 11
365.362269
 21
487.0000079999997
 31
0.0
  0
LINE
  5
2C7
330
1F
100
AcDbEntity
  8
Ｓ_１_１
  6
CONTINUOUS
 62
     3
100
AcDbLine
 10
357.8622670000003
 20
464.4999889999999
 30
0.0
 11
357.8622670000003
 21
485.5000019999998
 31
0.0
  0
LINE
  5
2C8
330
1F
100
AcDbEntity
  8
Ｓ_１_１
  6
CONTINUOUS
 62
     3
100
AcDbLine
 10
348.8622680000001
 20
464.4999889999999
 30
0.0
 11
348.8622680000001
 21
485.5000119999997
 31
0.0
  0
LINE
  5
2C9
330
1F
100
AcDbEntity
  8
Ｓ_１_１
  6
CONTINUOUS
 62
     3
100
AcDbLine
 10
342.2167535274046
 20
482.2332820258812
 30
0.0
 11
347.4999990000002
 21
482.5634849999998
 31
0.0
  0
LINE
  5
2CA
330
1F
100
AcDbEntity
  8
Ｓ_１_１
  6
CONTINUOUS
 62
     3
100
AcDbLine
 10
342.159362917158
 20
482.9310671856684
 30
0.0
 11
348.862273
 21
483.3499989999998
 31
0.0
  0
LINE
  5
2CB
330
1F
100
AcDbEntity
  8
Ｓ_１_１
  6
CONTINUOUS
 62
     3
100
AcDbLine
 10
342.1593630098242
 20
467.068933891117
 30
0.0
 11
348.8622680000001
 21
466.6500019999997
 31
0.0
  0
LINE
  5
2CC
330
1F
100
AcDbEntity
  8
Ｓ_１_１
  6
CONTINUOUS
 62
     3
100
AcDbLine
 10
342.2167529029628
 20
467.7667100131459
 30
0.0
 11
347.4999990000002
 21
467.4365069999999
 31
0.0
  0
LINE
  5
2CD
330
1F
100
AcDbEntity
  8
Ｓ_１_１
  6
CONTINUOUS
 62
     3
100
AcDbLine
 10
1270.0
 20
595.5
 30
0.0
 11
1271.0
 21
595.5
 31
0.0
  0
LINE
  5
2CE
330
1F
100
AcDbEntity
  8
Ｓ_１_１
  6
CONTINUOUS
 62
     3
100
AcDbLine
 10
1270.0
 20
583.5
 30
0.0
 11
1271.0
 21
583.5
 31
0.0
  0
LINE
  5
2CF
330
1F
100
AcDbEntity
  8
Ｓ_１_１
  6
CONTINUOUS
 62
     3
100
AcDbLine
 10
1271.0
 20
595.5
 30
0.0
 11
1271.0
 21
583.5
 31
0.0
  0
LINE
  5
2D0
330
1F
100
AcDbEntity
  8
Ｓ_１_１
  6
CONTINUOUS
 62
     3
100
AcDbLine
 10
1272.0
 20
584.5
 30
0.0
 11
1272.0
 21
594.5
 31
0.0
  0
LINE
  5
2D1
330
1F
100
AcDbEntity
  8
Ｓ_１_１
  6
CONTINUOUS
 62
     3
100
AcDbLine
 10
1272.0
 20
594.5
 30
0.0
 11
1271.0
 21
595.5
 31
0.0
  0
LINE
  5
2D2
330
1F
100
AcDbEntity
  8
Ｓ_１_１
  6
CONTINUOUS
 62
     3
100
AcDbLine
 10
1272.0
 20
584.5
 30
0.0
 11
1271.0
 21
583.5
 31
0.0
  0
LINE
  5
2D3
330
1F
100
AcDbEntity
  8
Ｓ_１_１
  6
CONTINUOUS
 62
     3
100
AcDbLine
 10
1228.0
 20
584.5
 30
0.0
 11
1228.0
 21
594.5
 31
0.0
  0
LINE
  5
2D4
330
1F
100
AcDbEntity
  8
Ｓ_１_１
  6
CONTINUOUS
 62
     3
100
AcDbLine
 10
1228.0
 20
594.5
 30
0.0
 11
1229.0
 21
595.5
 31
0.0
  0
LINE
  5
2D5
330
1F
100
AcDbEntity
  8
Ｓ_１_１
  6
CONTINUOUS
 62
     3
100
AcDbLine
 10
1228.0
 20
584.5
 30
0.0
 11
1229.0
 21
583.5
 31
0.0
  0
LINE
  5
2D6
330
1F
100
AcDbEntity
  8
Ｓ_１_１
  6
CONTINUOUS
 62
     3
100
AcDbLine
 10
1229.0
 20
595.5
 30
0.0
 11
1229.0
 21
583.5
 31
0.0
  0
LINE
  5
2D7
330
1F
100
AcDbEntity
  8
Ｓ_１_１
  6
CONTINUOUS
 62
     3
100
AcDbLine
 10
1230.0
 20
583.5
 30
0.0
 11
1229.0
 21
583.5
 31
0.0
  0
LINE
  5
2D8
330
1F
100
AcDbEntity
  8
Ｓ_１_１
  6
CONTINUOUS
 62
     3
100
AcDbLine
 10
1230.0
 20
595.5
 30
0.0
 11
1229.0
 21
595.5
 31
0.0
  0
LINE
  5
2D9
330
1F
100
AcDbEntity
  8
Ｓ_１_１
  6
CONTINUOUS
 62
     3
100
AcDbLine
 10
1272.0
 20
365.5
 30
0.0
 11
1272.0
 21
355.5
 31
0.0
  0
LINE
  5
2DA
330
1F
100
AcDbEntity
  8
Ｓ_１_１
  6
CONTINUOUS
 62
     3
100
AcDbLine
 10
1272.0
 20
355.5
 30
0.0
 11
1271.0
 21
354.5
 31
0.0
  0
LINE
  5
2DB
330
1F
100
AcDbEntity
  8
Ｓ_１_１
  6
CONTINUOUS
 62
     3
100
AcDbLine
 10
1272.0
 20
365.5
 30
0.0
 11
1271.0
 21
366.5
 31
0.0
  0
LINE
  5
2DC
330
1F
100
AcDbEntity
  8
Ｓ_１_１
  6
CONTINUOUS
 62
     3
100
AcDbLine
 10
1271.0
 20
354.5
 30
0.0
 11
1271.0
 21
366.5
 31
0.0
  0
LINE
  5
2DD
330
1F
100
AcDbEntity
  8
Ｓ_１_１
  6
CONTINUOUS
 62
     3
100
AcDbLine
 10
1270.0
 20
366.5
 30
0.0
 11
1271.0
 21
366.5
 31
0.0
  0
LINE
  5
2DE
330
1F
100
AcDbEntity
  8
Ｓ_１_１
  6
CONTINUOUS
 62
     3
100
AcDbLine
 10
1270.0
 20
354.5
 30
0.0
 11
1271.0
 21
354.5
 31
0.0
  0
LINE
  5
2DF
330
1F
100
AcDbEntity
  8
Ｓ_１_１
  6
CONTINUOUS
 62
     3
100
AcDbLine
 10
1229.0
 20
354.5
 30
0.0
 11
1229.0
 21
366.5
 31
0.0
  0
LINE
  5
2E0
330
1F
100
AcDbEntity
  8
Ｓ_１_１
  6
CONTINUOUS
 62
     3
100
AcDbLine
 10
1228.0
 20
365.5
 30
0.0
 11
1229.0
 21
366.5
 31
0.0
  0
LINE
  5
2E1
330
1F
100
AcDbEntity
  8
Ｓ_１_１
  6
CONTINUOUS
 62
     3
100
AcDbLine
 10
1228.0
 20
355.5
 30
0.0
 11
1229.0
 21
354.5
 31
0.0
  0
LINE
  5
2E2
330
1F
100
AcDbEntity
  8
Ｓ_１_１
  6
CONTINUOUS
 62
     3
100
AcDbLine
 10
1228.0
 20
365.5
 30
0.0
 11
1228.0
 21
355.5
 31
0.0
  0
CIRCLE
  5
2E3
330
1F
100
AcDbEntity
  8
Ｓ_１_１
  6
CONTINUOUS
 62
     3
100
AcDbCircle
 10
1250.0
 20
475.0000000000001
 30
0.0
 40
92.50000000000007
  0
CIRCLE
  5
2E4
330
1F
100
AcDbEntity
  8
Ｓ_１_１
  6
CONTINUOUS
 62
     3
100
AcDbCircle
 10
1250.0
 20
475.0000000000001
 30
0.0
 40
89.5
  0
CIRCLE
  5
2E5
330
1F
100
AcDbEntity
  8
Ｓ_１_１
  6
CONTINUOUS
 62
     3
100
AcDbCircle
 10
1196.966991
 20
421.966992
 30
0.0
 40
6.000000000000004
  0
CIRCLE
  5
2E6
330
1F
100
AcDbEntity
  8
Ｓ_１_１
  6
CONTINUOUS
 62
     3
100
AcDbCircle
 10
1196.966991
 20
421.966992
 30
0.0
 40
5.125
  0
CIRCLE
  5
2E7
330
1F
100
AcDbEntity
  8
Ｓ_１_１
  6
CONTINUOUS
 62
     3
100
AcDbCircle
 10
1303.033008
 20
421.966992
 30
0.0
 40
6.000000000000004
  0
CIRCLE
  5
2E8
330
1F
100
AcDbEntity
  8
Ｓ_１_１
  6
CONTINUOUS
 62
     3
100
AcDbCircle
 10
1303.033008
 20
421.966992
 30
0.0
 40
5.125
  0
CIRCLE
  5
2E9
330
1F
100
AcDbEntity
  8
Ｓ_１_１
  6
CONTINUOUS
 62
     3
100
AcDbCircle
 10
1303.033008
 20
528.033009
 30
0.0
 40
6.000000000000004
  0
CIRCLE
  5
2EA
330
1F
100
AcDbEntity
  8
Ｓ_１_１
  6
CONTINUOUS
 62
     3
100
AcDbCircle
 10
1303.033008
 20
528.033009
 30
0.0
 40
5.125
  0
CIRCLE
  5
2EB
330
1F
100
AcDbEntity
  8
Ｓ_１_１
  6
CONTINUOUS
 62
     3
100
AcDbCircle
 10
1196.966991
 20
528.033009
 30
0.0
 40
6.000000000000004
  0
CIRCLE
  5
2EC
330
1F
100
AcDbEntity
  8
Ｓ_１_１
  6
CONTINUOUS
 62
     3
100
AcDbCircle
 10
1196.966991
 20
528.033009
 30
0.0
 40
5.125
  0
LINE
  5
2ED
330
1F
100
AcDbEntity
  8
Ｓ_１_１
  6
CONTINUOUS
 62
     3
100
AcDbLine
 10
1261.0
 20
340.5
 30
0.0
 11
1261.0
 21
383.156383
 31
0.0
  0
LINE
  5
2EE
330
1F
100
AcDbEntity
  8
Ｓ_１_１
  6
CONTINUOUS
 62
     3
100
AcDbLine
 10
1270.0
 20
340.5
 30
0.0
 11
1270.0
 21
383.156383
 31
0.0
  0
LINE
  5
2EF
330
1F
100
AcDbEntity
  8
Ｓ_１_１
  6
CONTINUOUS
 62
     3
100
AcDbLine
 10
1259.5
 20
339.5
 30
0.0
 11
1259.5
 21
379.5
 31
0.0
  0
LINE
  5
2F0
330
1F
100
AcDbEntity
  8
Ｓ_１_１
  6
CONTINUOUS
 62
     3
100
AcDbLine
 10
1250.0
 20
339.5
 30
0.0
 11
1259.5
 21
339.5
 31
0.0
  0
ARC
  5
2F1
330
1F
100
AcDbEntity
  8
Ｓ_１_１
  6
CONTINUOUS
 62
     3
100
AcDbCircle
 10
1250.0
 20
360.5
 30
0.0
 40
9.0
100
AcDbArc
 50
270.0000000000002
 51
90.00000000000001
  0
ARC
  5
2F2
330
1F
100
AcDbEntity
  8
Ｓ_１_１
  6
CONTINUOUS
 62
     3
100
AcDbCircle
 10
1250.0
 20
360.5
 30
0.0
 40
8.0
100
AcDbArc
 50
270.0000000000002
 51
90.00000000000001
  0
LINE
  5
2F3
330
1F
100
AcDbEntity
  8
Ｓ_１_１
  6
CONTINUOUS
 62
     3
100
AcDbLine
 10
1250.0
 20
379.5
 30
0.0
 11
1259.5
 21
379.5
 31
0.0
  0
LINE
  5
2F4
330
1F
100
AcDbEntity
  8
Ｓ_１_１
  6
CONTINUOUS
 62
     3
100
AcDbLine
 10
1250.0
 20
344.5
 30
0.0
 11
1259.5
 21
344.5
 31
0.0
  0
LINE
  5
2F5
330
1F
100
AcDbEntity
  8
Ｓ_１_１
  6
CONTINUOUS
 62
     3
100
AcDbLine
 10
1261.0
 20
354.5
 30
0.0
 11
1259.5
 21
354.5
 31
0.0
  0
LINE
  5
2F6
330
1F
100
AcDbEntity
  8
Ｓ_１_１
  6
CONTINUOUS
 62
     3
100
AcDbLine
 10
1261.0
 20
366.5
 30
0.0
 11
1259.5
 21
366.5
 31
0.0
  0
LINE
  5
2F7
330
1F
100
AcDbEntity
  8
Ｓ_１_１
  6
CONTINUOUS
 62
     3
100
AcDbLine
 10
1261.0
 20
383.156383
 30
0.0
 11
1270.0
 21
383.156383
 31
0.0
  0
LINE
  5
2F8
330
1F
100
AcDbEntity
  8
Ｓ_１_１
  6
CONTINUOUS
 62
     3
100
AcDbLine
 10
1261.0
 20
340.5
 30
0.0
 11
1270.0
 21
340.5
 31
0.0
  0
LINE
  5
2F9
330
1F
100
AcDbEntity
  8
Ｓ_１_１
  6
CONTINUOUS
 62
     3
100
AcDbLine
 10
1261.0
 20
351.156383
 30
0.0
 11
1270.0
 21
351.156383
 31
0.0
  0
LINE
  5
2FA
330
1F
100
AcDbEntity
  8
Ｓ_１_１
  6
CONTINUOUS
 62
     3
100
AcDbLine
 10
1270.0
 20
376.5
 30
0.0
 11
1281.545081
 21
388.045082
 31
0.0
  0
LINE
  5
2FB
330
1F
100
AcDbEntity
  8
Ｓ_１_１
  6
CONTINUOUS
 62
     3
100
AcDbLine
 10
1250.0
 20
339.5
 30
0.0
 11
1240.5
 21
339.5
 31
0.0
  0
ARC
  5
2FC
330
1F
100
AcDbEntity
  8
Ｓ_１_１
  6
CONTINUOUS
 62
     3
100
AcDbCircle
 10
1250.0
 20
360.5
 30
0.0
 40
9.0
100
AcDbArc
 50
90.00000000000001
 51
270.0000000000002
  0
ARC
  5
2FD
330
1F
100
AcDbEntity
  8
Ｓ_１_１
  6
CONTINUOUS
 62
     3
100
AcDbCircle
 10
1250.0
 20
360.5
 30
0.0
 40
8.0
100
AcDbArc
 50
90.00000000000001
 51
270.0000000000002
  0
LINE
  5
2FE
330
1F
100
AcDbEntity
  8
Ｓ_１_１
  6
CONTINUOUS
 62
     3
100
AcDbLine
 10
1250.0
 20
379.5
 30
0.0
 11
1240.5
 21
379.5
 31
0.0
  0
LINE
  5
2FF
330
1F
100
AcDbEntity
  8
Ｓ_１_１
  6
CONTINUOUS
 62
     3
100
AcDbLine
 10
1250.0
 20
344.5
 30
0.0
 11
1240.5
 21
344.5
 31
0.0
  0
LINE
  5
300
330
1F
100
AcDbEntity
  8
Ｓ_１_１
  6
CONTINUOUS
 62
     3
100
AcDbLine
 10
1230.0
 20
376.5
 30
0.0
 11
1218.454918
 21
388.045082
 31
0.0
  0
LINE
  5
301
330
1F
100
AcDbEntity
  8
Ｓ_１_１
  6
CONTINUOUS
 62
     3
100
AcDbLine
 10
1239.0
 20
351.156383
 30
0.0
 11
1230.0
 21
351.156383
 31
0.0
  0
LINE
  5
302
330
1F
100
AcDbEntity
  8
Ｓ_１_１
  6
CONTINUOUS
 62
     3
100
AcDbLine
 10
1239.0
 20
340.5
 30
0.0
 11
1230.0
 21
340.5
 31
0.0
  0
LINE
  5
303
330
1F
100
AcDbEntity
  8
Ｓ_１_１
  6
CONTINUOUS
 62
     3
100
AcDbLine
 10
1239.0
 20
383.156383
 30
0.0
 11
1230.0
 21
383.156383
 31
0.0
  0
LINE
  5
304
330
1F
100
AcDbEntity
  8
Ｓ_１_１
  6
CONTINUOUS
 62
     3
100
AcDbLine
 10
1239.0
 20
366.5
 30
0.0
 11
1240.5
 21
366.5
 31
0.0
  0
LINE
  5
305
330
1F
100
AcDbEntity
  8
Ｓ_１_１
  6
CONTINUOUS
 62
     3
100
AcDbLine
 10
1239.0
 20
354.5
 30
0.0
 11
1240.5
 21
354.5
 31
0.0
  0
LINE
  5
306
330
1F
100
AcDbEntity
  8
Ｓ_１_１
  6
CONTINUOUS
 62
     3
100
AcDbLine
 10
1230.0
 20
366.5
 30
0.0
 11
1229.0
 21
366.5
 31
0.0
  0
LINE
  5
307
330
1F
100
AcDbEntity
  8
Ｓ_１_１
  6
CONTINUOUS
 62
     3
100
AcDbLine
 10
1230.0
 20
354.5
 30
0.0
 11
1229.0
 21
354.5
 31
0.0
  0
LINE
  5
308
330
1F
100
AcDbEntity
  8
Ｓ_１_１
  6
CONTINUOUS
 62
     3
100
AcDbLine
 10
1240.5
 20
339.5
 30
0.0
 11
1240.5
 21
379.5
 31
0.0
  0
LINE
  5
309
330
1F
100
AcDbEntity
  8
Ｓ_１_１
  6
CONTINUOUS
 62
     3
100
AcDbLine
 10
1230.0
 20
340.5
 30
0.0
 11
1230.0
 21
383.156383
 31
0.0
  0
LINE
  5
30A
330
1F
100
AcDbEntity
  8
Ｓ_１_１
  6
CONTINUOUS
 62
     3
100
AcDbLine
 10
1239.0
 20
340.5
 30
0.0
 11
1239.0
 21
383.156383
 31
0.0
  0
LINE
  5
30B
330
1F
100
AcDbEntity
  8
Ｓ_１_１
  6
CONTINUOUS
 62
     3
100
AcDbLine
 10
1239.0
 20
608.843617
 30
0.0
 11
1239.0
 21
566.843617
 31
0.0
  0
LINE
  5
30C
330
1F
100
AcDbEntity
  8
Ｓ_１_１
  6
CONTINUOUS
 62
     3
100
AcDbLine
 10
1230.0
 20
608.843617
 30
0.0
 11
1230.0
 21
566.843617
 31
0.0
  0
LINE
  5
30D
330
1F
100
AcDbEntity
  8
Ｓ_１_１
  6
CONTINUOUS
 62
     3
100
AcDbLine
 10
1240.5
 20
610.5
 30
0.0
 11
1240.5
 21
570.5
 31
0.0
  0
LINE
  5
30E
330
1F
100
AcDbEntity
  8
Ｓ_１_１
  6
CONTINUOUS
 62
     3
100
AcDbLine
 10
1239.0
 20
595.5
 30
0.0
 11
1240.5
 21
595.5
 31
0.0
  0
LINE
  5
30F
330
1F
100
AcDbEntity
  8
Ｓ_１_１
  6
CONTINUOUS
 62
     3
100
AcDbLine
 10
1239.0
 20
583.5
 30
0.0
 11
1240.5
 21
583.5
 31
0.0
  0
LINE
  5
310
330
1F
100
AcDbEntity
  8
Ｓ_１_１
  6
CONTINUOUS
 62
     3
100
AcDbLine
 10
1239.0
 20
566.843617
 30
0.0
 11
1230.0
 21
566.843617
 31
0.0
  0
LINE
  5
311
330
1F
100
AcDbEntity
  8
Ｓ_１_１
  6
CONTINUOUS
 62
     3
100
AcDbLine
 10
1239.0
 20
608.843617
 30
0.0
 11
1230.0
 21
608.843617
 31
0.0
  0
LINE
  5
312
330
1F
100
AcDbEntity
  8
Ｓ_１_１
  6
CONTINUOUS
 62
     3
100
AcDbLine
 10
1239.0
 20
598.843617
 30
0.0
 11
1230.0
 21
598.843617
 31
0.0
  0
LINE
  5
313
330
1F
100
AcDbEntity
  8
Ｓ_１_１
  6
CONTINUOUS
 62
     3
100
AcDbLine
 10
1230.0
 20
573.5
 30
0.0
 11
1218.454918
 21
561.9549179999999
 31
0.0
  0
LINE
  5
314
330
1F
100
AcDbEntity
  8
Ｓ_１_１
  6
CONTINUOUS
 62
     3
100
AcDbLine
 10
1250.0
 20
605.5
 30
0.0
 11
1240.5
 21
605.5
 31
0.0
  0
LINE
  5
315
330
1F
100
AcDbEntity
  8
Ｓ_１_１
  6
CONTINUOUS
 62
     3
100
AcDbLine
 10
1250.0
 20
570.5
 30
0.0
 11
1240.5
 21
570.5
 31
0.0
  0
ARC
  5
316
330
1F
100
AcDbEntity
  8
Ｓ_１_１
  6
CONTINUOUS
 62
     3
100
AcDbCircle
 10
1250.0
 20
589.5
 30
0.0
 40
8.0
100
AcDbArc
 50
90.00000000000001
 51
270.0000000000002
  0
ARC
  5
317
330
1F
100
AcDbEntity
  8
Ｓ_１_１
  6
CONTINUOUS
 62
     3
100
AcDbCircle
 10
1250.0
 20
589.5
 30
0.0
 40
9.0
100
AcDbArc
 50
90.00000000000001
 51
270.0000000000002
  0
LINE
  5
318
330
1F
100
AcDbEntity
  8
Ｓ_１_１
  6
CONTINUOUS
 62
     3
100
AcDbLine
 10
1250.0
 20
610.5
 30
0.0
 11
1240.5
 21
610.5
 31
0.0
  0
LINE
  5
319
330
1F
100
AcDbEntity
  8
Ｓ_１_１
  6
CONTINUOUS
 62
     3
100
AcDbLine
 10
1270.0
 20
573.5
 30
0.0
 11
1281.545081
 21
561.9549179999999
 31
0.0
  0
LINE
  5
31A
330
1F
100
AcDbEntity
  8
Ｓ_１_１
  6
CONTINUOUS
 62
     3
100
AcDbLine
 10
1261.0
 20
598.843617
 30
0.0
 11
1270.0
 21
598.843617
 31
0.0
  0
LINE
  5
31B
330
1F
100
AcDbEntity
  8
Ｓ_１_１
  6
CONTINUOUS
 62
     3
100
AcDbLine
 10
1261.0
 20
608.843617
 30
0.0
 11
1270.0
 21
608.843617
 31
0.0
  0
LINE
  5
31C
330
1F
100
AcDbEntity
  8
Ｓ_１_１
  6
CONTINUOUS
 62
     3
100
AcDbLine
 10
1261.0
 20
566.843617
 30
0.0
 11
1270.0
 21
566.843617
 31
0.0
  0
LINE
  5
31D
330
1F
100
AcDbEntity
  8
Ｓ_１_１
  6
CONTINUOUS
 62
     3
100
AcDbLine
 10
1261.0
 20
583.5
 30
0.0
 11
1259.5
 21
583.5
 31
0.0
  0
LINE
  5
31E
330
1F
100
AcDbEntity
  8
Ｓ_１_１
  6
CONTINUOUS
 62
     3
100
AcDbLine
 10
1261.0
 20
595.5
 30
0.0
 11
1259.5
 21
595.5
 31
0.0
  0
LINE
  5
31F
330
1F
100
AcDbEntity
  8
Ｓ_１_１
  6
CONTINUOUS
 62
     3
100
AcDbLine
 10
1250.0
 20
605.5
 30
0.0
 11
1259.5
 21
605.5
 31
0.0
  0
LINE
  5
320
330
1F
100
AcDbEntity
  8
Ｓ_１_１
  6
CONTINUOUS
 62
     3
100
AcDbLine
 10
1250.0
 20
570.5
 30
0.0
 11
1259.5
 21
570.5
 31
0.0
  0
ARC
  5
321
330
1F
100
AcDbEntity
  8
Ｓ_１_１
  6
CONTINUOUS
 62
     3
100
AcDbCircle
 10
1250.0
 20
589.5
 30
0.0
 40
8.0
100
AcDbArc
 50
270.0000000000002
 51
90.00000000000001
  0
ARC
  5
322
330
1F
100
AcDbEntity
  8
Ｓ_１_１
  6
CONTINUOUS
 62
     3
100
AcDbCircle
 10
1250.0
 20
589.5
 30
0.0
 40
9.0
100
AcDbArc
 50
270.0000000000002
 51
90.00000000000001
  0
LINE
  5
323
330
1F
100
AcDbEntity
  8
Ｓ_１_１
  6
CONTINUOUS
 62
     3
100
AcDbLine
 10
1250.0
 20
610.5
 30
0.0
 11
1259.5
 21
610.5
 31
0.0
  0
LINE
  5
324
330
1F
100
AcDbEntity
  8
Ｓ_１_１
  6
CONTINUOUS
 62
     3
100
AcDbLine
 10
1259.5
 20
610.5
 30
0.0
 11
1259.5
 21
570.5
 31
0.0
  0
LINE
  5
325
330
1F
100
AcDbEntity
  8
Ｓ_１_１
  6
CONTINUOUS
 62
     3
100
AcDbLine
 10
1270.0
 20
608.843617
 30
0.0
 11
1270.0
 21
566.843617
 31
0.0
  0
LINE
  5
326
330
1F
100
AcDbEntity
  8
Ｓ_１_１
  6
CONTINUOUS
 62
     3
100
AcDbLine
 10
1261.0
 20
608.843617
 30
0.0
 11
1261.0
 21
566.843617
 31
0.0
  0
CIRCLE
  5
327
330
1F
100
AcDbEntity
  8
Ｓ_１_１
  6
CONTINUOUS
 62
     3
100
AcDbCircle
 10
1169.0
 20
475.0000000000001
 30
0.0
 40
8.0
  0
CIRCLE
  5
328
330
1F
100
AcDbEntity
  8
Ｓ_１_１
  6
CONTINUOUS
 62
     3
100
AcDbCircle
 10
1169.0
 20
475.0000000000001
 30
0.0
 40
4.0
  0
CIRCLE
  5
329
330
1F
100
AcDbEntity
  8
Ｓ_１_１
  6
CONTINUOUS
 62
     3
100
AcDbCircle
 10
1169.0
 20
475.0000000000001
 30
0.0
 40
3.000000000000002
  0
LINE
  5
32A
330
1F
100
AcDbEntity
  8
Ｓ_１_１
  6
EXLTYPE6
 62
     1
100
AcDbLine
 10
1169.0
 20
462.0
 30
0.0
 11
1169.0
 21
488.0000000000001
 31
0.0
  0
CIRCLE
  5
32B
330
1F
100
AcDbEntity
  8
Ｓ_１_１
  6
EXLTYPE6
 62
     1
100
AcDbCircle
 10
1250.0
 20
475.0000000000001
 30
0.0
 40
75.0
  0
LINE
  5
32C
330
1F
100
AcDbEntity
  8
Ｓ_１_１
  6
EXLTYPE6
 62
     1
100
AcDbLine
 10
1310.811183
 20
414.188817
 30
0.0
 11
1295.254834
 21
429.745166
 31
0.0
  0
LINE
  5
32D
330
1F
100
AcDbEntity
  8
Ｓ_１_１
  6
EXLTYPE6
 62
     1
100
AcDbLine
 10
1189.188816
 20
414.188817
 30
0.0
 11
1204.745166
 21
429.745166
 31
0.0
  0
LINE
  5
32E
330
1F
100
AcDbEntity
  8
Ｓ_１_１
  6
EXLTYPE6
 62
     1
100
AcDbLine
 10
1310.811183
 20
535.811183
 30
0.0
 11
1295.254834
 21
520.2548340000001
 31
0.0
  0
LINE
  5
32F
330
1F
100
AcDbEntity
  8
Ｓ_１_１
  6
EXLTYPE6
 62
     1
100
AcDbLine
 10
1223.137398
 20
589.5
 30
0.0
 11
1277.0
 21
589.5
 31
0.0
  0
LINE
  5
330
330
1F
100
AcDbEntity
  8
Ｓ_１_１
  6
EXLTYPE6
 62
     1
100
AcDbLine
 10
1189.3868286752
 20
535.6131706764427
 30
0.0
 11
1204.745166
 21
520.2548340000001
 31
0.0
  0
LINE
  5
331
330
1F
100
AcDbEntity
  8
Ｓ_１_１
  6
EXLTYPE6
 62
     1
100
AcDbLine
 10
1224.037398
 20
360.5
 30
0.0
 11
1277.0
 21
360.5
 31
0.0
  0
LINE
  5
332
330
1F
100
AcDbEntity
  8
Ｓ_１_１
  6
EXLTYPE6
 62
     1
100
AcDbLine
 10
1250.0
 20
614.18374
 30
0.0
 11
1250.0
 21
334.8837399999999
 31
0.0
  0
ARC
  5
333
330
1F
100
AcDbEntity
  8
Ｓ_１_１
  6
CONTINUOUS
 62
     3
100
AcDbCircle
 10
1144.077171
 20
475.0000000000002
 30
0.0
 40
21.939437
100
AcDbArc
 50
166.826507
 51
193.17347
  0
ARC
  5
334
330
1F
100
AcDbEntity
  8
Ｓ_１_１
  6
CONTINUOUS
 62
     3
100
AcDbCircle
 10
1112.698292
 20
475.0000000000002
 30
0.0
 40
21.939437
100
AcDbArc
 50
346.8265370000001
 51
13.173527
  0
ARC
  5
335
330
1F
100
AcDbEntity
  8
Ｓ_１_１
  6
CONTINUOUS
 62
     3
100
AcDbCircle
 10
1145.770484
 20
484.0932839999999
 30
0.0
 40
5.367246000000002
100
AcDbArc
 50
325.6158480000003
 51
34.38413600000035
  0
ARC
  5
336
330
1F
100
AcDbEntity
  8
Ｓ_１_１
  6
CONTINUOUS
 62
     3
100
AcDbCircle
 10
1131.075538
 20
475.0000000000002
 30
0.0
 40
20.062196
100
AcDbArc
 50
342.4121240000001
 51
17.58800800000001
  0
ARC
  5
337
330
1F
100
AcDbEntity
  8
Ｓ_１_１
  6
CONTINUOUS
 62
     3
100
AcDbCircle
 10
1147.504981
 20
484.0932839999999
 30
0.0
 40
5.367246000000002
100
AcDbArc
 50
145.6159180000001
 51
214.3842060000001
  0
ARC
  5
338
330
1F
100
AcDbEntity
  8
Ｓ_１_１
  6
CONTINUOUS
 62
     3
100
AcDbCircle
 10
1147.504981
 20
465.906715
 30
0.0
 40
5.367246000000002
100
AcDbArc
 50
145.615836
 51
214.384124
  0
ARC
  5
339
330
1F
100
AcDbEntity
  8
Ｓ_１_１
  6
CONTINUOUS
 62
     3
100
AcDbCircle
 10
1162.199927
 20
475.0000000000002
 30
0.0
 40
20.062196
100
AcDbArc
 50
162.412047
 51
197.5879309999999
  0
ARC
  5
33A
330
1F
100
AcDbEntity
  8
Ｓ_１_１
  6
CONTINUOUS
 62
     3
100
AcDbCircle
 10
1145.770484
 20
465.906715
 30
0.0
 40
5.367246000000002
100
AcDbArc
 50
325.6159300000003
 51
34.38421800000031
  0
LINE
  5
33B
330
1F
100
AcDbEntity
  8
Ｓ_１_１
  6
CONTINUOUS
 62
     3
100
AcDbLine
 10
1134.637731
 20
487.000007
 30
0.0
 11
1134.637731
 21
463.0000300000001
 31
0.0
  0
LINE
  5
33C
330
1F
100
AcDbEntity
  8
Ｓ_１_１
  6
CONTINUOUS
 62
     3
100
AcDbLine
 10
1134.060386
 20
470.0000000000001
 30
0.0
 11
1134.060386
 21
462.0000080000002
 31
0.0
  0
LINE
  5
33D
330
1F
100
AcDbEntity
  8
Ｓ_１_１
  6
CONTINUOUS
 62
     3
100
AcDbLine
 10
1122.715076
 20
470.0000000000001
 30
0.0
 11
1122.715076
 21
462.0000080000002
 31
0.0
  0
LINE
  5
33E
330
1F
100
AcDbEntity
  8
Ｓ_１_１
  6
CONTINUOUS
 62
     3
100
AcDbLine
 10
1134.060386
 20
487.9999919999998
 30
0.0
 11
1134.060386
 21
480.0000000000001
 31
0.0
  0
LINE
  5
33F
330
1F
100
AcDbEntity
  8
Ｓ_１_１
  6
CONTINUOUS
 62
     3
100
AcDbLine
 10
1122.715076
 20
487.9999919999998
 30
0.0
 11
1122.715076
 21
480.0000000000001
 31
0.0
  0
LINE
  5
340
330
1F
100
AcDbEntity
  8
Ｓ_１_１
  6
CONTINUOUS
 62
     3
100
AcDbLine
 10
1106.560387
 20
487.9999919999998
 30
0.0
 11
1106.560387
 21
462.0000080000002
 31
0.0
  0
LINE
  5
341
330
1F
100
AcDbEntity
  8
Ｓ_１_１
  6
CONTINUOUS
 62
     3
100
AcDbLine
 10
1106.56038
 20
488.0000059999998
 30
0.0
 11
1107.137734
 21
486.999999
 31
0.0
  0
LINE
  5
342
330
1F
100
AcDbEntity
  8
Ｓ_１_１
  6
CONTINUOUS
 62
     3
100
AcDbLine
 10
1122.137741
 20
463.000007
 30
0.0
 11
1122.715095
 21
462.0000000000001
 31
0.0
  0
LINE
  5
343
330
1F
100
AcDbEntity
  8
Ｓ_１_１
  6
CONTINUOUS
 62
     3
100
AcDbLine
 10
1134.060387
 20
488.000011
 30
0.0
 11
1134.637742
 21
487.0000040000001
 31
0.0
  0
LINE
  5
344
330
1F
100
AcDbEntity
  8
Ｓ_１_１
  6
CONTINUOUS
 62
     3
100
AcDbLine
 10
1107.137741
 20
463.0000019999998
 30
0.0
 11
1106.560386
 21
461.999995
 31
0.0
  0
LINE
  5
345
330
1F
100
AcDbEntity
  8
Ｓ_１_１
  6
CONTINUOUS
 62
     3
100
AcDbLine
 10
1122.715076
 20
487.9999950000001
 30
0.0
 11
1122.137731
 21
487.0000040000001
 31
0.0
  0
LINE
  5
346
330
1F
100
AcDbEntity
  8
Ｓ_１_１
  6
CONTINUOUS
 62
     3
100
AcDbLine
 10
1134.637732
 20
463.000007
 30
0.0
 11
1134.060378
 21
462.0000000000001
 31
0.0
  0
LINE
  5
347
330
1F
100
AcDbEntity
  8
Ｓ_１_１
  6
CONTINUOUS
 62
     3
100
AcDbLine
 10
1122.715076
 20
470.0000000000001
 30
0.0
 11
1134.060386
 21
470.0000000000001
 31
0.0
  0
LINE
  5
348
330
1F
100
AcDbEntity
  8
Ｓ_１_１
  6
CONTINUOUS
 62
     3
100
AcDbLine
 10
1122.715076
 20
480.0000000000001
 30
0.0
 11
1134.060386
 21
480.0000000000001
 31
0.0
  0
LINE
  5
349
330
1F
100
AcDbEntity
  8
Ｓ_１_１
  6
CONTINUOUS
 62
     3
100
AcDbLine
 10
1098.956
 20
473.249999
 30
0.0
 11
1099.137716
 21
473.1450849999999
 31
0.0
  0
LINE
  5
34A
330
1F
100
AcDbEntity
  8
Ｓ_１_１
  6
CONTINUOUS
 62
     3
100
AcDbLine
 10
1099.13773
 20
473.2500069999999
 30
0.0
 11
1099.13773
 21
459.000015
 31
0.0
  0
LINE
  5
34B
330
1F
100
AcDbEntity
  8
Ｓ_１_１
  6
CONTINUOUS
 62
     3
100
AcDbLine
 10
1099.637732
 20
473.2500069999999
 30
0.0
 11
1099.637732
 21
459.5000080000001
 31
0.0
  0
LINE
  5
34C
330
1F
100
AcDbEntity
  8
Ｓ_１_１
  6
CONTINUOUS
 62
     3
100
AcDbLine
 10
1096.137733
 20
476.749992
 30
0.0
 11
1096.137733
 21
473.2500069999999
 31
0.0
  0
LINE
  5
34D
330
1F
100
AcDbEntity
  8
Ｓ_１_１
  6
CONTINUOUS
 62
     3
100
AcDbLine
 10
1096.137733
 20
476.749992
 30
0.0
 11
1099.637732
 21
476.749992
 31
0.0
  0
LINE
  5
34E
330
1F
100
AcDbEntity
  8
Ｓ_１_１
  6
CONTINUOUS
 62
     3
100
AcDbLine
 10
1096.137733
 20
473.2500069999999
 30
0.0
 11
1099.637732
 21
473.2500069999999
 31
0.0
  0
LINE
  5
34F
330
1F
100
AcDbEntity
  8
Ｓ_１_１
  6
CONTINUOUS
 62
     3
100
AcDbLine
 10
1102.137741
 20
490.5000049999999
 30
0.0
 11
1102.637731
 21
490.000016
 31
0.0
  0
LINE
  5
350
330
1F
100
AcDbEntity
  8
Ｓ_１_１
  6
CONTINUOUS
 62
     3
100
AcDbLine
 10
1101.137735
 20
490.5000049999999
 30
0.0
 11
1100.637745
 21
490.000016
 31
0.0
  0
LINE
  5
351
330
1F
100
AcDbEntity
  8
Ｓ_１_１
  6
CONTINUOUS
 62
     3
100
AcDbLine
 10
1102.637731
 20
460.000011
 30
0.0
 11
1102.137741
 21
459.5000209999999
 31
0.0
  0
LINE
  5
352
330
1F
100
AcDbEntity
  8
Ｓ_１_１
  6
CONTINUOUS
 62
     3
100
AcDbLine
 10
1100.637745
 20
460.000011
 30
0.0
 11
1101.137735
 21
459.5000209999999
 31
0.0
  0
LINE
  5
353
330
1F
100
AcDbEntity
  8
Ｓ_１_１
  6
CONTINUOUS
 62
     3
100
AcDbLine
 10
1102.637733
 20
462.0000080000002
 30
0.0
 11
1102.637733
 21
460.0000000000001
 31
0.0
  0
LINE
  5
354
330
1F
100
AcDbEntity
  8
Ｓ_１_１
  6
CONTINUOUS
 62
     3
100
AcDbLine
 10
1100.637731
 20
462.0000080000002
 30
0.0
 11
1100.637731
 21
460.0000000000001
 31
0.0
  0
LINE
  5
355
330
1F
100
AcDbEntity
  8
Ｓ_１_１
  6
CONTINUOUS
 62
     3
100
AcDbLine
 10
1100.637731
 20
490.0000000000001
 30
0.0
 11
1100.637731
 21
487.9999919999998
 31
0.0
  0
LINE
  5
356
330
1F
100
AcDbEntity
  8
Ｓ_１_１
  6
CONTINUOUS
 62
     3
100
AcDbLine
 10
1102.637733
 20
490.0000000000001
 30
0.0
 11
1102.637733
 21
487.9999919999998
 31
0.0
  0
LINE
  5
357
330
1F
100
AcDbEntity
  8
Ｓ_１_１
  6
CONTINUOUS
 62
     3
100
AcDbLine
 10
1101.137733
 20
490.4999919999999
 30
0.0
 11
1102.137732
 21
490.4999919999999
 31
0.0
  0
LINE
  5
358
330
1F
100
AcDbEntity
  8
Ｓ_１_１
  6
CONTINUOUS
 62
     3
100
AcDbLine
 10
1101.137733
 20
459.5000080000001
 30
0.0
 11
1102.137732
 21
459.5000080000001
 31
0.0
  0
LINE
  5
359
330
1F
100
AcDbEntity
  8
Ｓ_１_１
  6
CONTINUOUS
 62
     3
100
AcDbLine
 10
1099.13773
 20
476.8549279999999
 30
0.0
 11
1098.95599
 21
476.7500000000002
 31
0.0
  0
LINE
  5
35A
330
1F
100
AcDbEntity
  8
Ｓ_１_１
  6
CONTINUOUS
 62
     3
100
AcDbLine
 10
1075.637731
 20
491.0000220000001
 30
0.0
 11
1075.637731
 21
459.000015
 31
0.0
  0
LINE
  5
35B
330
1F
100
AcDbEntity
  8
Ｓ_１_１
  6
CONTINUOUS
 62
     3
100
AcDbLine
 10
1083.137731
 20
491.0000220000001
 30
0.0
 11
1083.137731
 21
459.000015
 31
0.0
  0
LINE
  5
35C
330
1F
100
AcDbEntity
  8
Ｓ_１_１
  6
CONTINUOUS
 62
     3
100
AcDbLine
 10
1099.13773
 20
491.0000220000001
 30
0.0
 11
1099.13773
 21
476.749992
 31
0.0
  0
LINE
  5
35D
330
1F
100
AcDbEntity
  8
Ｓ_１_１
  6
CONTINUOUS
 62
     3
100
AcDbLine
 10
1092.137727
 20
459.000015
 30
0.0
 11
1092.137727
 21
491.0000220000001
 31
0.0
  0
LINE
  5
35E
330
1F
100
AcDbEntity
  8
Ｓ_１_１
  6
CONTINUOUS
 62
     3
100
AcDbLine
 10
1099.637724
 20
459.5000180000001
 30
0.0
 11
1099.137721
 21
459.000015
 31
0.0
  0
LINE
  5
35F
330
1F
100
AcDbEntity
  8
Ｓ_１_１
  6
CONTINUOUS
 62
     3
100
AcDbLine
 10
1099.137724
 20
491.0000120000001
 30
0.0
 11
1099.637727
 21
490.5000089999999
 31
0.0
  0
LINE
  5
360
330
1F
100
AcDbEntity
  8
Ｓ_１_１
  6
CONTINUOUS
 62
     3
100
AcDbLine
 10
1092.137727
 20
459.000015
 30
0.0
 11
1099.13773
 21
459.000015
 31
0.0
  0
LINE
  5
361
330
1F
100
AcDbEntity
  8
Ｓ_１_１
  6
CONTINUOUS
 62
     3
100
AcDbLine
 10
1092.137727
 20
491.0000220000001
 30
0.0
 11
1099.13773
 21
491.0000220000001
 31
0.0
  0
LINE
  5
362
330
1F
100
AcDbEntity
  8
Ｓ_１_１
  6
CONTINUOUS
 62
     3
100
AcDbLine
 10
1083.137742
 20
490.9999989999999
 30
0.0
 11
1083.637732
 21
490.5000089999999
 31
0.0
  0
LINE
  5
363
330
1F
100
AcDbEntity
  8
Ｓ_１_１
  6
CONTINUOUS
 62
     3
100
AcDbLine
 10
1091.637714
 20
459.500011
 30
0.0
 11
1092.137718
 21
459.0000080000001
 31
0.0
  0
LINE
  5
364
330
1F
100
AcDbEntity
  8
Ｓ_１_１
  6
CONTINUOUS
 62
     3
100
AcDbLine
 10
1083.637729
 20
459.500017
 30
0.0
 11
1083.137726
 21
459.0000139999999
 31
0.0
  0
LINE
  5
365
330
1F
100
AcDbEntity
  8
Ｓ_１_１
  6
CONTINUOUS
 62
     3
100
AcDbLine
 10
1092.137729
 20
491.000005
 30
0.0
 11
1091.637725
 21
490.5000019999999
 31
0.0
  0
LINE
  5
366
330
1F
100
AcDbEntity
  8
Ｓ_１_１
  6
CONTINUOUS
 62
     3
100
AcDbLine
 10
1083.637733
 20
490.4999919999999
 30
0.0
 11
1083.637733
 21
459.5000080000001
 31
0.0
  0
LINE
  5
367
330
1F
100
AcDbEntity
  8
Ｓ_１_１
  6
CONTINUOUS
 62
     3
100
AcDbLine
 10
1091.637735
 20
490.4999919999999
 30
0.0
 11
1091.637735
 21
459.5000080000001
 31
0.0
  0
LINE
  5
368
330
1F
100
AcDbEntity
  8
Ｓ_１_１
  6
CONTINUOUS
 62
     3
100
AcDbLine
 10
1083.637733
 20
459.5000080000001
 30
0.0
 11
1091.637735
 21
459.5000080000001
 31
0.0
  0
LINE
  5
369
330
1F
100
AcDbEntity
  8
Ｓ_１_１
  6
CONTINUOUS
 62
     3
100
AcDbLine
 10
1083.637733
 20
490.4999919999999
 30
0.0
 11
1091.637735
 21
490.4999919999999
 31
0.0
  0
LINE
  5
36A
330
1F
100
AcDbEntity
  8
Ｓ_１_１
  6
CONTINUOUS
 62
     3
100
AcDbLine
 10
1072.637713
 20
462.0000099999999
 30
0.0
 11
1075.637718
 21
459.0000040000001
 31
0.0
  0
LINE
  5
36B
330
1F
100
AcDbEntity
  8
Ｓ_１_１
  6
CONTINUOUS
 62
     3
100
AcDbLine
 10
1072.637726
 20
488.0000029999999
 30
0.0
 11
1075.637718
 21
490.999995
 31
0.0
  0
LINE
  5
36C
330
1F
100
AcDbEntity
  8
Ｓ_１_１
  6
CONTINUOUS
 62
     3
100
AcDbLine
 10
1107.137732
 20
487.000007
 30
0.0
 11
1122.137731
 21
487.000007
 31
0.0
  0
LINE
  5
36D
330
1F
100
AcDbEntity
  8
Ｓ_１_１
  6
CONTINUOUS
 62
     3
100
AcDbLine
 10
1107.137732
 20
462.9999919999999
 30
0.0
 11
1122.137731
 21
462.9999919999999
 31
0.0
  0
LINE
  5
36E
330
1F
100
AcDbEntity
  8
Ｓ_１_１
  6
CONTINUOUS
 62
     3
100
AcDbLine
 10
1072.637729
 20
487.9999919999998
 30
0.0
 11
1072.637729
 21
462.0000080000002
 31
0.0
  0
LINE
  5
36F
330
1F
100
AcDbEntity
  8
Ｓ_１_１
  6
CONTINUOUS
 62
     3
100
AcDbLine
 10
1075.637731
 20
459.000015
 30
0.0
 11
1083.137731
 21
459.000015
 31
0.0
  0
LINE
  5
370
330
1F
100
AcDbEntity
  8
Ｓ_１_１
  6
CONTINUOUS
 62
     3
100
AcDbLine
 10
1075.637731
 20
491.0000220000001
 30
0.0
 11
1083.137731
 21
491.0000220000001
 31
0.0
  0
LINE
  5
371
330
1F
100
AcDbEntity
  8
Ｓ_１_１
  6
CONTINUOUS
 62
     3
100
AcDbLine
 10
1122.715095
 20
462.0000080000002
 30
0.0
 11
1134.060386
 21
462.0000080000002
 31
0.0
  0
LINE
  5
372
330
1F
100
AcDbEntity
  8
Ｓ_１_１
  6
CONTINUOUS
 62
     3
100
AcDbLine
 10
1122.715076
 20
487.9999919999998
 30
0.0
 11
1134.060386
 21
487.9999919999998
 31
0.0
  0
LINE
  5
373
330
1F
100
AcDbEntity
  8
Ｓ_１_１
  6
CONTINUOUS
 62
     3
100
AcDbLine
 10
1072.137727
 20
462.9999919999999
 30
0.0
 11
1072.637729
 21
462.9999919999999
 31
0.0
  0
LINE
  5
374
330
1F
100
AcDbEntity
  8
Ｓ_１_１
  6
CONTINUOUS
 62
     3
100
AcDbLine
 10
1072.137727
 20
487.000007
 30
0.0
 11
1072.637729
 21
487.000007
 31
0.0
  0
LINE
  5
375
330
1F
100
AcDbEntity
  8
Ｓ_１_１
  6
CONTINUOUS
 62
     3
100
AcDbLine
 10
1099.637732
 20
487.9999919999998
 30
0.0
 11
1106.560387
 21
487.9999919999998
 31
0.0
  0
LINE
  5
376
330
1F
100
AcDbEntity
  8
Ｓ_１_１
  6
CONTINUOUS
 62
     3
100
AcDbLine
 10
1099.637732
 20
462.0000080000002
 30
0.0
 11
1106.560387
 21
462.0000080000002
 31
0.0
  0
LINE
  5
377
330
1F
100
AcDbEntity
  8
Ｓ_１_１
  6
CONTINUOUS
 62
     3
100
AcDbLine
 10
1099.637732
 20
490.4999919999999
 30
0.0
 11
1099.637732
 21
476.749992
 31
0.0
  0
LINE
  5
378
330
1F
100
AcDbEntity
  8
Ｓ_１_１
  6
CONTINUOUS
 62
     3
100
AcDbLine
 10
1107.137732
 20
487.000007
 30
0.0
 11
1107.137732
 21
463.0000300000001
 31
0.0
  0
LINE
  5
379
330
1F
100
AcDbEntity
  8
Ｓ_１_１
  6
CONTINUOUS
 62
     3
100
AcDbLine
 10
1122.137731
 20
487.000007
 30
0.0
 11
1122.137731
 21
463.0000300000001
 31
0.0
  0
LINE
  5
37A
330
1F
100
AcDbEntity
  8
Ｓ_１_１
  6
CONTINUOUS
 62
     3
100
AcDbLine
 10
1072.137727
 20
487.000007
 30
0.0
 11
1072.137727
 21
462.9999919999999
 31
0.0
  0
LINE
  5
37B
330
1F
100
AcDbEntity
  8
Ｓ_１_１
  6
CONTINUOUS
 62
     3
100
AcDbLine
 10
1134.637728
 20
482.1798869999999
 30
0.0
 11
1140.775464
 21
482.5634959999999
 31
0.0
  0
LINE
  5
37C
330
1F
100
AcDbEntity
  8
Ｓ_１_１
  6
CONTINUOUS
 62
     3
100
AcDbLine
 10
1142.137727
 20
483.3500089999998
 30
0.0
 11
1140.775461
 21
482.563505
 31
0.0
  0
LINE
  5
37D
330
1F
100
AcDbEntity
  8
Ｓ_１_１
  6
CONTINUOUS
 62
     3
100
AcDbLine
 10
1134.637725
 20
482.8812500000001
 30
0.0
 11
1142.137749
 21
483.3500009999999
 31
0.0
  0
LINE
  5
37E
330
1F
100
AcDbEntity
  8
Ｓ_１_１
  6
CONTINUOUS
 62
     3
100
AcDbLine
 10
1140.775455
 20
467.4365039999998
 30
0.0
 11
1142.137721
 21
466.6499989999999
 31
0.0
  0
LINE
  5
37F
330
1F
100
AcDbEntity
  8
Ｓ_１_１
  6
CONTINUOUS
 62
     3
100
AcDbLine
 10
1134.637732
 20
467.1187619999999
 30
0.0
 11
1142.137737
 21
466.6500119999999
 31
0.0
  0
LINE
  5
380
330
1F
100
AcDbEntity
  8
Ｓ_１_１
  6
CONTINUOUS
 62
     3
100
AcDbLine
 10
1134.637737
 20
467.8201249999998
 30
0.0
 11
1140.775463
 21
467.436517
 31
0.0
  0
LINE
  5
381
330
1F
100
AcDbEntity
  8
Ｓ_１_１
  6
CONTINUOUS
 62
     3
100
AcDbLine
 10
1140.775467
 20
483.264885
 30
0.0
 11
1140.775467
 21
466.7351529999999
 31
0.0
  0
LINE
  5
382
330
1F
100
AcDbEntity
  8
Ｓ_１_１
  6
CONTINUOUS
 62
     3
100
AcDbLine
 10
1152.500011
 20
467.436517
 30
0.0
 11
1151.137728
 21
466.650002
 31
0.0
  0
LINE
  5
383
330
1F
100
AcDbEntity
  8
Ｓ_１_１
  6
CONTINUOUS
 62
     3
100
AcDbLine
 10
1151.137721
 20
483.3499849999999
 30
0.0
 11
1152.499987
 21
482.5634799999999
 31
0.0
  0
LINE
  5
384
330
1F
100
AcDbEntity
  8
Ｓ_１_１
  6
CONTINUOUS
 62
     3
100
AcDbLine
 10
1152.499998
 20
483.264885
 30
0.0
 11
1152.499998
 21
466.7351529999999
 31
0.0
  0
LINE
  5
385
330
1F
100
AcDbEntity
  8
Ｓ_１_１
  6
CONTINUOUS
 62
     3
100
AcDbLine
 10
1151.137714
 20
485.500034
 30
0.0
 11
1150.199893
 21
487.1243949999999
 31
0.0
  0
LINE
  5
386
330
1F
100
AcDbEntity
  8
Ｓ_１_１
  6
CONTINUOUS
 62
     3
100
AcDbLine
 10
1142.137731
 20
485.500004
 30
0.0
 11
1143.075552
 21
487.1243650000001
 31
0.0
  0
LINE
  5
387
330
1F
100
AcDbEntity
  8
Ｓ_１_１
  6
CONTINUOUS
 62
     3
100
AcDbLine
 10
1151.137736
 20
464.499983
 30
0.0
 11
1150.199914
 21
462.8756219999999
 31
0.0
  0
LINE
  5
388
330
1F
100
AcDbEntity
  8
Ｓ_１_１
  6
CONTINUOUS
 62
     3
100
AcDbLine
 10
1143.075553
 20
462.875633
 30
0.0
 11
1150.199912
 21
462.875633
 31
0.0
  0
LINE
  5
389
330
1F
100
AcDbEntity
  8
Ｓ_１_１
  6
CONTINUOUS
 62
     3
100
AcDbLine
 10
1143.075539
 20
487.1243660000001
 30
0.0
 11
1150.199927
 21
487.1243660000001
 31
0.0
  0
LINE
  5
38A
330
1F
100
AcDbEntity
  8
Ｓ_１_１
  6
CONTINUOUS
 62
     3
100
AcDbLine
 10
1143.075553
 20
481.062164
 30
0.0
 11
1150.199912
 21
481.062164
 31
0.0
  0
LINE
  5
38B
330
1F
100
AcDbEntity
  8
Ｓ_１_１
  6
CONTINUOUS
 62
     3
100
AcDbLine
 10
1142.137733
 20
485.50003
 30
0.0
 11
1142.137733
 21
464.500008
 31
0.0
  0
LINE
  5
38C
330
1F
100
AcDbEntity
  8
Ｓ_１_１
  6
CONTINUOUS
 62
     3
100
AcDbLine
 10
1143.075553
 20
468.937836
 30
0.0
 11
1150.199912
 21
468.937836
 31
0.0
  0
LINE
  5
38D
330
1F
100
AcDbEntity
  8
Ｓ_１_１
  6
CONTINUOUS
 62
     3
100
AcDbLine
 10
1142.137745
 20
464.4999899999999
 30
0.0
 11
1143.075566
 21
462.875629
 31
0.0
  0
LINE
  5
38E
330
1F
100
AcDbEntity
  8
Ｓ_１_１
  6
CONTINUOUS
 62
     3
100
AcDbLine
 10
1151.137732
 20
485.50003
 30
0.0
 11
1151.137732
 21
464.500008
 31
0.0
  0
LINE
  5
38F
330
1F
100
AcDbEntity
  8
Ｓ_１_１
  6
CONTINUOUS
 62
     3
100
AcDbLine
 10
1157.783245765773
 20
482.233273014639
 30
0.0
 11
1152.499998
 21
482.5634759999999
 31
0.0
  0
LINE
  5
390
330
1F
100
AcDbEntity
  8
Ｓ_１_１
  6
CONTINUOUS
 62
     3
100
AcDbLine
 10
1157.840635528806
 20
482.9310491276795
 30
0.0
 11
1151.137734
 21
483.3499809999999
 31
0.0
  0
LINE
  5
391
330
1F
100
AcDbEntity
  8
Ｓ_１_１
  6
CONTINUOUS
 62
     3
100
AcDbLine
 10
1157.783247808006
 20
467.7667009490536
 30
0.0
 11
1152.500005
 21
467.436499
 31
0.0
  0
LINE
  5
392
330
1F
100
AcDbEntity
  8
Ｓ_１_１
  6
CONTINUOUS
 62
     3
100
AcDbLine
 10
1157.840637771635
 20
467.0689248105331
 30
0.0
 11
1151.137729
 21
466.6499939999999
 31
0.0
  0
LINE
  5
393
330
1F
100
AcDbEntity
  8
Ｓ_１_１
  6
EXLTYPE6
 62
     1
100
AcDbLine
 10
1066.3
 20
475.0000000000001
 30
0.0
 11
1352.5
 21
475.0000000000001
 31
0.0
  0
LINE
  5
394
330
1F
100
AcDbEntity
  8
Ｓ_１_１
  6
EXLTYPE6
 62
     1
100
AcDbLine
 10
679.9999999999998
 20
490.9999999999999
 30
0.0
 11
679.9999999999998
 21
458.9999999999999
 31
0.0
  0
LINE
  5
395
330
1F
100
AcDbEntity
  8
Ｓ_１_１
  6
EXLTYPE6
 62
     1
100
AcDbLine
 10
754.9999999999998
 20
495.0
 30
0.0
 11
754.9999999999998
 21
454.9999999999999
 31
0.0
  0
LINE
  5
396
330
1F
100
AcDbEntity
  8
Ｓ_１_１
  6
EXLTYPE6
 62
     1
100
AcDbLine
 10
351.6
 20
576.6
 30
0.0
 11
295.2548340000001
 21
520.2548340000001
 31
0.0
  0
DIMENSION
  5
397
330
1F
100
AcDbEntity
  8
Ｓ_１_１
  6
CONTINUOUS
 62
     2
100
AcDbDimension
  2
*D24
 10
433.9067982527915
 20
524.2776780744289
 30
0.0
 11
434.7937629193607
 21
551.5440828431574
 31
0.0
 70
   165
  3
ISO-25
100
AcDb3PointAngularDimension
 13
418.2
 23
475.0000000000001
 33
0.0
 14
351.6000000000003
 24
576.5999999999999
 34
0.0
 15
250.0000000000001
 25
475.0000000000001
 35
0.0
1001
ACAD
1000
DSTYLE
1002
{
1070
   270
1070
     2
1070
     6
1000
EX_NORM
1070
     7
1000
EX_NORM
1070
    41
1040
10.5
1070
    42
1040
5.25
1070
    44
1040
3.5
1070
    73
1070
     0
1070
    74
1070
     0
1070
    75
1070
     0
1070
    76
1070
     0
1070
    77
1070
     1
1070
    78
1070
     8
1070
    79
1070
     2
1070
   140
1040
12.12016381576852
1070
   147
1040
0.0
1070
   173
1070
     1
1070
   176
1070
     2
1070
   177
1070
     2
1070
   178
1070
     2
1070
   179
1070
     2
1070
   271
1070
     2
1070
   277
1070
     2
1070
   279
1070
     2
1070
   280
1070
     0
1070
   287
1070
     5
1070
   340
1005
11D
1002
}
  0
LINE
  5
3A5
330
1F
100
AcDbEntity
  8
Ｓ_１_１
  6
CONTINUOUS
 62
     3
100
AcDbLine
 10
649.9999999999998
 20
573.5
 30
0.0
 11
676.1653334597174
 21
573.5
 31
0.0
  0
LINE
  5
3A6
330
1F
100
AcDbEntity
  8
Ｓ_１_１
  6
CONTINUOUS
 62
     3
100
AcDbLine
 10
683.8346665402826
 20
573.5
 30
0.0
 11
689.9999999999998
 21
573.5
 31
0.0
  0
LINE
  5
3A7
330
1F
100
AcDbEntity
  8
Ｓ_１_１
  6
CONTINUOUS
 62
     3
100
AcDbLine
 10
332.280558968302
 20
569.3013742484717
 30
0.0
 11
331.8875736282828
 21
570.768015504053
 31
0.0
  0
LINE
  5
3A8
330
1F
100
AcDbEntity
  8
Ｓ_１_１
  6
CONTINUOUS
 62
     3
100
AcDbLine
 10
345.7680155040543
 20
556.8875736282815
 30
0.0
 11
344.3013742484733
 21
557.2805589683004
 31
0.0
  0
LINE
  5
3A9
330
1F
100
AcDbEntity
  8
Ｓ_１_１
  6
CONTINUOUS
 62
     3
100
AcDbLine
 10
335.0565583998402
 20
573.9370002756103
 30
0.0
 11
336.5231996554213
 21
573.544014935591
 31
0.0
  0
LINE
  5
3AA
330
1F
100
AcDbEntity
  8
Ｓ_１_１
  6
CONTINUOUS
 62
     3
100
AcDbLine
 10
348.5440149355926
 20
561.5231996554197
 30
0.0
 11
348.9370002756117
 21
560.0565583998389
 31
0.0
  0
LINE
  5
3AB
330
1F
100
AcDbEntity
  8
Ｓ_１_１
  6
CONTINUOUS
 62
     3
100
AcDbLine
 10
330.6808036320785
 20
537.7178788516671
 30
0.0
 11
328.8876526877424
 21
538.7531550320771
 31
0.0
  0
LINE
  5
3AC
330
1F
100
AcDbEntity
  8
Ｓ_１_１
  6
CONTINUOUS
 62
     3
100
AcDbLine
 10
313.7531550320788
 20
553.8876526877407
 30
0.0
 11
312.7178788516687
 21
555.6808036320768
 31
0.0
  0
LINE
  5
3AD
330
1F
100
AcDbEntity
  8
Ｓ_１_１
  6
CONTINUOUS
 62
     3
100
AcDbLine
 10
328.9305668362199
 20
571.893491616628
 30
0.0
 11
330.7237177805559
 21
570.8582154362178
 31
0.0
  0
LINE
  5
3AE
330
1F
100
AcDbEntity
  8
Ｓ_１_１
  6
CONTINUOUS
 62
     3
100
AcDbLine
 10
345.8582154362195
 20
555.7237177805542
 30
0.0
 11
346.8934916166297
 21
553.9305668362182
 31
0.0
  0
POLYLINE
  5
3AF
330
1F
100
AcDbEntity
  8
Ｓ_１_１
  6
CONTINUOUS
 62
     3
100
AcDb2dPolyline
 66
     1
 10
0.0
 20
0.0
 30
0.0
 70
   128
  0
VERTEX
  5
3B0
330
3AF
100
AcDbEntity
  8
Ｓ_１_１
  6
CONTINUOUS
 62
     3
100
AcDbVertex
100
AcDb2dVertex
 10
331.8875736282828
 20
570.768015504053
 30
0.0
  0
VERTEX
  5
3B1
330
3AF
100
AcDbEntity
  8
Ｓ_１_１
  6
CONTINUOUS
 62
     3
100
AcDbVertex
100
AcDb2dVertex
 10
332.0892024040029
 20
570.1268203792831
 30
0.0
  0
VERTEX
  5
3B2
330
3AF
100
AcDbEntity
  8
Ｓ_１_１
  6
CONTINUOUS
 62
     3
100
AcDbVertex
100
AcDb2dVertex
 10
332.3481417193951
 20
569.5284784100827
 30
0.0
  0
VERTEX
  5
3B3
330
3AF
100
AcDbEntity
  8
Ｓ_１_１
  6
CONTINUOUS
 62
     3
100
AcDbVertex
100
AcDb2dVertex
 10
332.6782914532595
 20
568.9794584601017
 30
0.0
  0
VERTEX
  5
3B4
330
3AF
100
AcDbEntity
  8
Ｓ_１_１
  6
CONTINUOUS
 62
     3
100
AcDbVertex
100
AcDb2dVertex
 10
333.0858009049734
 20
568.4961323118004
 30
0.0
  0
SEQEND
  5
3B5
330
3AF
100
AcDbEntity
  8
Ｓ_１_１
  6
CONTINUOUS
 62
     3
  0
POLYLINE
  5
3B6
330
1F
100
AcDbEntity
  8
Ｓ_１_１
  6
CONTINUOUS
 62
     3
100
AcDb2dPolyline
 66
     1
 10
0.0
 20
0.0
 30
0.0
 70
   128
  0
VERTEX
  5
3B7
330
3B6
100
AcDbEntity
  8
Ｓ_１_１
  6
CONTINUOUS
 62
     3
100
AcDbVertex
100
AcDb2dVertex
 10
333.0858009049734
 20
568.4961323118004
 30
0.0
  0
VERTEX
  5
3B8
330
3B6
100
AcDbEntity
  8
Ｓ_１_１
  6
CONTINUOUS
 62
     3
100
AcDbVertex
100
AcDb2dVertex
 10
333.2121040331339
 20
568.3756757513229
 30
0.0
  0
VERTEX
  5
3B9
330
3B6
100
AcDbEntity
  8
Ｓ_１_１
  6
CONTINUOUS
 62
     3
100
AcDbVertex
100
AcDb2dVertex
 10
333.666096569604
 20
568.021855635414
 30
0.0
  0
VERTEX
  5
3BA
330
3B6
100
AcDbEntity
  8
Ｓ_１_１
  6
CONTINUOUS
 62
     3
100
AcDbVertex
100
AcDb2dVertex
 10
334.1788198925482
 20
567.7281739189084
 30
0.0
  0
VERTEX
  5
3BB
330
3B6
100
AcDbEntity
  8
Ｓ_１_１
  6
CONTINUOUS
 62
     3
100
AcDbVertex
100
AcDb2dVertex
 10
334.7473796320483
 20
567.4882701235665
 30
0.0
  0
VERTEX
  5
3BC
330
3B6
100
AcDbEntity
  8
Ｓ_１_１
  6
CONTINUOUS
 62
     3
100
AcDbVertex
100
AcDb2dVertex
 10
335.357684097226
 20
567.2979050351099
 30
0.0
  0
SEQEND
  5
3BD
330
3B6
100
AcDbEntity
  8
Ｓ_１_１
  6
CONTINUOUS
 62
     3
  0
LINE
  5
3BE
330
1F
100
AcDbEntity
  8
Ｓ_１_１
  6
CONTINUOUS
 62
     3
100
AcDbLine
 10
335.357684097226
 20
567.2979050351099
 30
0.0
 11
338.5266688687833
 21
570.4668898066673
 31
0.0
  0
POLYLINE
  5
3BF
330
1F
100
AcDbEntity
  8
Ｓ_１_１
  6
CONTINUOUS
 62
     3
100
AcDb2dPolyline
 66
     1
 10
0.0
 20
0.0
 30
0.0
 70
   128
  0
VERTEX
  5
3C0
330
3BF
100
AcDbEntity
  8
Ｓ_１_１
  6
CONTINUOUS
 62
     3
100
AcDbVertex
100
AcDb2dVertex
 10
337.3284415920926
 20
572.7387729989197
 30
0.0
  0
VERTEX
  5
3C1
330
3BF
100
AcDbEntity
  8
Ｓ_１_１
  6
CONTINUOUS
 62
     3
100
AcDbVertex
100
AcDb2dVertex
 10
337.4488981525703
 20
572.6124698707594
 30
0.0
  0
VERTEX
  5
3C2
330
3BF
100
AcDbEntity
  8
Ｓ_１_１
  6
CONTINUOUS
 62
     3
100
AcDbVertex
100
AcDb2dVertex
 10
337.8027182684792
 20
572.1584773342892
 30
0.0
  0
VERTEX
  5
3C3
330
3BF
100
AcDbEntity
  8
Ｓ_１_１
  6
CONTINUOUS
 62
     3
100
AcDbVertex
100
AcDb2dVertex
 10
338.0963999849848
 20
571.645754011345
 30
0.0
  0
VERTEX
  5
3C4
330
3BF
100
AcDbEntity
  8
Ｓ_１_１
  6
CONTINUOUS
 62
     3
100
AcDbVertex
100
AcDb2dVertex
 10
338.3363037803265
 20
571.0771942718449
 30
0.0
  0
VERTEX
  5
3C5
330
3BF
100
AcDbEntity
  8
Ｓ_１_１
  6
CONTINUOUS
 62
     3
100
AcDbVertex
100
AcDb2dVertex
 10
338.5266688687833
 20
570.4668898066673
 30
0.0
  0
SEQEND
  5
3C6
330
3BF
100
AcDbEntity
  8
Ｓ_１_１
  6
CONTINUOUS
 62
     3
  0
POLYLINE
  5
3C7
330
1F
100
AcDbEntity
  8
Ｓ_１_１
  6
CONTINUOUS
 62
     3
100
AcDb2dPolyline
 66
     1
 10
0.0
 20
0.0
 30
0.0
 70
   128
  0
VERTEX
  5
3C8
330
3C7
100
AcDbEntity
  8
Ｓ_１_１
  6
CONTINUOUS
 62
     3
100
AcDbVertex
100
AcDb2dVertex
 10
335.0565583998402
 20
573.9370002756103
 30
0.0
  0
VERTEX
  5
3C9
330
3C7
100
AcDbEntity
  8
Ｓ_１_１
  6
CONTINUOUS
 62
     3
100
AcDbVertex
100
AcDb2dVertex
 10
335.6977535246099
 20
573.7353714998901
 30
0.0
  0
VERTEX
  5
3CA
330
3C7
100
AcDbEntity
  8
Ｓ_１_１
  6
CONTINUOUS
 62
     3
100
AcDbVertex
100
AcDb2dVertex
 10
336.2960954938103
 20
573.476432184498
 30
0.0
  0
VERTEX
  5
3CB
330
3C7
100
AcDbEntity
  8
Ｓ_１_１
  6
CONTINUOUS
 62
     3
100
AcDbVertex
100
AcDb2dVertex
 10
336.8451154437915
 20
573.1462824506337
 30
0.0
  0
VERTEX
  5
3CC
330
3C7
100
AcDbEntity
  8
Ｓ_１_１
  6
CONTINUOUS
 62
     3
100
AcDbVertex
100
AcDb2dVertex
 10
337.3284415920926
 20
572.7387729989197
 30
0.0
  0
SEQEND
  5
3CD
330
3C7
100
AcDbEntity
  8
Ｓ_１_１
  6
CONTINUOUS
 62
     3
  0
LINE
  5
3CE
330
1F
100
AcDbEntity
  8
Ｓ_１_１
  6
CONTINUOUS
 62
     3
100
AcDbLine
 10
331.8875736282828
 20
570.768015504053
 30
0.0
 11
335.0565583998402
 21
573.9370002756103
 31
0.0
  0
POLYLINE
  5
3CF
330
1F
100
AcDbEntity
  8
Ｓ_１_１
  6
CONTINUOUS
 62
     3
100
AcDb2dPolyline
 66
     1
 10
0.0
 20
0.0
 30
0.0
 70
   128
  0
VERTEX
  5
3D0
330
3CF
100
AcDbEntity
  8
Ｓ_１_１
  6
CONTINUOUS
 62
     3
100
AcDbVertex
100
AcDb2dVertex
 10
342.2979050351115
 20
560.3576840972243
 30
0.0
  0
VERTEX
  5
3D1
330
3CF
100
AcDbEntity
  8
Ｓ_１_１
  6
CONTINUOUS
 62
     3
100
AcDbVertex
100
AcDb2dVertex
 10
342.4995338108316
 20
559.7164889724544
 30
0.0
  0
VERTEX
  5
3D2
330
3CF
100
AcDbEntity
  8
Ｓ_１_１
  6
CONTINUOUS
 62
     3
100
AcDbVertex
100
AcDb2dVertex
 10
342.7584731262238
 20
559.1181470032541
 30
0.0
  0
VERTEX
  5
3D3
330
3CF
100
AcDbEntity
  8
Ｓ_１_１
  6
CONTINUOUS
 62
     3
100
AcDbVertex
100
AcDb2dVertex
 10
343.0886228600882
 20
558.569127053273
 30
0.0
  0
VERTEX
  5
3D4
330
3CF
100
AcDbEntity
  8
Ｓ_１_１
  6
CONTINUOUS
 62
     3
100
AcDbVertex
100
AcDb2dVertex
 10
343.4961323118021
 20
558.0858009049717
 30
0.0
  0
SEQEND
  5
3D5
330
3CF
100
AcDbEntity
  8
Ｓ_１_１
  6
CONTINUOUS
 62
     3
  0
POLYLINE
  5
3D6
330
1F
100
AcDbEntity
  8
Ｓ_１_１
  6
CONTINUOUS
 62
     3
100
AcDb2dPolyline
 66
     1
 10
0.0
 20
0.0
 30
0.0
 70
   128
  0
VERTEX
  5
3D7
330
3D6
100
AcDbEntity
  8
Ｓ_１_１
  6
CONTINUOUS
 62
     3
100
AcDbVertex
100
AcDb2dVertex
 10
343.4961323118021
 20
558.0858009049717
 30
0.0
  0
VERTEX
  5
3D8
330
3D6
100
AcDbEntity
  8
Ｓ_１_１
  6
CONTINUOUS
 62
     3
100
AcDbVertex
100
AcDb2dVertex
 10
343.6224354399623
 20
557.9653443444945
 30
0.0
  0
VERTEX
  5
3D9
330
3D6
100
AcDbEntity
  8
Ｓ_１_１
  6
CONTINUOUS
 62
     3
100
AcDbVertex
100
AcDb2dVertex
 10
344.0764279764327
 20
557.6115242285853
 30
0.0
  0
VERTEX
  5
3DA
330
3D6
100
AcDbEntity
  8
Ｓ_１_１
  6
CONTINUOUS
 62
     3
100
AcDbVertex
100
AcDb2dVertex
 10
344.5891512993769
 20
557.3178425120797
 30
0.0
  0
VERTEX
  5
3DB
330
3D6
100
AcDbEntity
  8
Ｓ_１_１
  6
CONTINUOUS
 62
     3
100
AcDbVertex
100
AcDb2dVertex
 10
345.1577110388769
 20
557.0779387167378
 30
0.0
  0
VERTEX
  5
3DC
330
3D6
100
AcDbEntity
  8
Ｓ_１_１
  6
CONTINUOUS
 62
     3
100
AcDbVertex
100
AcDb2dVertex
 10
345.7680155040543
 20
556.8875736282815
 30
0.0
  0
SEQEND
  5
3DD
330
3D6
100
AcDbEntity
  8
Ｓ_１_１
  6
CONTINUOUS
 62
     3
  0
LINE
  5
3DE
330
1F
100
AcDbEntity
  8
Ｓ_１_１
  6
CONTINUOUS
 62
     3
100
AcDbLine
 10
345.7680155040543
 20
556.8875736282815
 30
0.0
 11
348.9370002756117
 21
560.0565583998389
 31
0.0
  0
POLYLINE
  5
3DF
330
1F
100
AcDbEntity
  8
Ｓ_１_１
  6
CONTINUOUS
 62
     3
100
AcDb2dPolyline
 66
     1
 10
0.0
 20
0.0
 30
0.0
 70
   128
  0
VERTEX
  5
3E0
330
3DF
100
AcDbEntity
  8
Ｓ_１_１
  6
CONTINUOUS
 62
     3
100
AcDbVertex
100
AcDb2dVertex
 10
347.7387729989213
 20
562.3284415920909
 30
0.0
  0
VERTEX
  5
3E1
330
3DF
100
AcDbEntity
  8
Ｓ_１_１
  6
CONTINUOUS
 62
     3
100
AcDbVertex
100
AcDb2dVertex
 10
347.8592295593986
 20
562.202138463931
 30
0.0
  0
VERTEX
  5
3E2
330
3DF
100
AcDbEntity
  8
Ｓ_１_１
  6
CONTINUOUS
 62
     3
100
AcDbVertex
100
AcDb2dVertex
 10
348.2130496753079
 20
561.7481459274605
 30
0.0
  0
VERTEX
  5
3E3
330
3DF
100
AcDbEntity
  8
Ｓ_１_１
  6
CONTINUOUS
 62
     3
100
AcDbVertex
100
AcDb2dVertex
 10
348.5067313918133
 20
561.2354226045162
 30
0.0
  0
VERTEX
  5
3E4
330
3DF
100
AcDbEntity
  8
Ｓ_１_１
  6
CONTINUOUS
 62
     3
100
AcDbVertex
100
AcDb2dVertex
 10
348.7466351871552
 20
560.6668628650161
 30
0.0
  0
VERTEX
  5
3E5
330
3DF
100
AcDbEntity
  8
Ｓ_１_１
  6
CONTINUOUS
 62
     3
100
AcDbVertex
100
AcDb2dVertex
 10
348.9370002756117
 20
560.0565583998389
 30
0.0
  0
SEQEND
  5
3E6
330
3DF
100
AcDbEntity
  8
Ｓ_１_１
  6
CONTINUOUS
 62
     3
  0
POLYLINE
  5
3E7
330
1F
100
AcDbEntity
  8
Ｓ_１_１
  6
CONTINUOUS
 62
     3
100
AcDb2dPolyline
 66
     1
 10
0.0
 20
0.0
 30
0.0
 70
   128
  0
VERTEX
  5
3E8
330
3E7
100
AcDbEntity
  8
Ｓ_１_１
  6
CONTINUOUS
 62
     3
100
AcDbVertex
100
AcDb2dVertex
 10
345.4668898066689
 20
563.5266688687817
 30
0.0
  0
VERTEX
  5
3E9
330
3E7
100
AcDbEntity
  8
Ｓ_１_１
  6
CONTINUOUS
 62
     3
100
AcDbVertex
100
AcDb2dVertex
 10
346.1080849314386
 20
563.3250400930615
 30
0.0
  0
VERTEX
  5
3EA
330
3E7
100
AcDbEntity
  8
Ｓ_１_１
  6
CONTINUOUS
 62
     3
100
AcDbVertex
100
AcDb2dVertex
 10
346.706426900639
 20
563.0661007776692
 30
0.0
  0
VERTEX
  5
3EB
330
3E7
100
AcDbEntity
  8
Ｓ_１_１
  6
CONTINUOUS
 62
     3
100
AcDbVertex
100
AcDb2dVertex
 10
347.2554468506202
 20
562.735951043805
 30
0.0
  0
VERTEX
  5
3EC
330
3E7
100
AcDbEntity
  8
Ｓ_１_１
  6
CONTINUOUS
 62
     3
100
AcDbVertex
100
AcDb2dVertex
 10
347.7387729989213
 20
562.3284415920909
 30
0.0
  0
SEQEND
  5
3ED
330
3E7
100
AcDbEntity
  8
Ｓ_１_１
  6
CONTINUOUS
 62
     3
  0
LINE
  5
3EE
330
1F
100
AcDbEntity
  8
Ｓ_１_１
  6
CONTINUOUS
 62
     3
100
AcDbLine
 10
342.2979050351115
 20
560.3576840972243
 30
0.0
 11
345.4668898066689
 21
563.5266688687817
 31
0.0
  0
POLYLINE
  5
3EF
330
1F
100
AcDbEntity
  8
Ｓ_１_１
  6
CONTINUOUS
 62
     3
100
AcDb2dPolyline
 66
     1
 10
0.0
 20
0.0
 30
0.0
 70
   128
  0
VERTEX
  5
3F0
330
3EF
100
AcDbEntity
  8
Ｓ_１_１
  6
CONTINUOUS
 62
     3
100
AcDbVertex
100
AcDb2dVertex
 10
338.2909666083877
 20
563.290966608386
 30
0.0
  0
VERTEX
  5
3F1
330
3EF
100
AcDbEntity
  8
Ｓ_１_１
  6
CONTINUOUS
 62
     3
100
AcDbVertex
100
AcDb2dVertex
 10
337.389182470231
 20
564.2778941349762
 30
0.0
  0
VERTEX
  5
3F2
330
3EF
100
AcDbEntity
  8
Ｓ_１_１
  6
CONTINUOUS
 62
     3
100
AcDbVertex
100
AcDb2dVertex
 10
336.8287651386592
 20
564.9889967454172
 30
0.0
  0
VERTEX
  5
3F3
330
3EF
100
AcDbEntity
  8
Ｓ_１_１
  6
CONTINUOUS
 62
     3
100
AcDbVertex
100
AcDb2dVertex
 10
336.3058788203675
 20
565.7314569865495
 30
0.0
  0
VERTEX
  5
3F4
330
3EF
100
AcDbEntity
  8
Ｓ_１_１
  6
CONTINUOUS
 62
     3
100
AcDbVertex
100
AcDb2dVertex
 10
335.8157504855302
 20
566.5039818524547
 30
0.0
  0
VERTEX
  5
3F5
330
3EF
100
AcDbEntity
  8
Ｓ_１_１
  6
CONTINUOUS
 62
     3
100
AcDbVertex
100
AcDb2dVertex
 10
335.357684097226
 20
567.2979050351099
 30
0.0
  0
SEQEND
  5
3F6
330
3EF
100
AcDbEntity
  8
Ｓ_１_１
  6
CONTINUOUS
 62
     3
  0
POLYLINE
  5
3F7
330
1F
100
AcDbEntity
  8
Ｓ_１_１
  6
CONTINUOUS
 62
     3
100
AcDb2dPolyline
 66
     1
 10
0.0
 20
0.0
 30
0.0
 70
   128
  0
VERTEX
  5
3F8
330
3F7
100
AcDbEntity
  8
Ｓ_１_１
  6
CONTINUOUS
 62
     3
100
AcDbVertex
100
AcDb2dVertex
 10
342.533607295507
 20
567.5336072955054
 30
0.0
  0
VERTEX
  5
3F9
330
3F7
100
AcDbEntity
  8
Ｓ_１_１
  6
CONTINUOUS
 62
     3
100
AcDbVertex
100
AcDb2dVertex
 10
341.5466797689169
 20
568.435391433662
 30
0.0
  0
VERTEX
  5
3FA
330
3F7
100
AcDbEntity
  8
Ｓ_１_１
  6
CONTINUOUS
 62
     3
100
AcDbVertex
100
AcDb2dVertex
 10
340.8355771584759
 20
568.9958087652341
 30
0.0
  0
VERTEX
  5
3FB
330
3F7
100
AcDbEntity
  8
Ｓ_１_１
  6
CONTINUOUS
 62
     3
100
AcDbVertex
100
AcDb2dVertex
 10
340.0931169173436
 20
569.5186950835256
 30
0.0
  0
VERTEX
  5
3FC
330
3F7
100
AcDbEntity
  8
Ｓ_１_１
  6
CONTINUOUS
 62
     3
100
AcDbVertex
100
AcDb2dVertex
 10
339.3205920514384
 20
570.0088234183628
 30
0.0
  0
VERTEX
  5
3FD
330
3F7
100
AcDbEntity
  8
Ｓ_１_１
  6
CONTINUOUS
 62
     3
100
AcDbVertex
100
AcDb2dVertex
 10
338.5266688687833
 20
570.4668898066673
 30
0.0
  0
SEQEND
  5
3FE
330
3F7
100
AcDbEntity
  8
Ｓ_１_１
  6
CONTINUOUS
 62
     3
  0
POLYLINE
  5
3FF
330
1F
100
AcDbEntity
  8
Ｓ_１_１
  6
CONTINUOUS
 62
     3
100
AcDb2dPolyline
 66
     1
 10
0.0
 20
0.0
 30
0.0
 70
   128
  0
VERTEX
  5
400
330
3FF
100
AcDbEntity
  8
Ｓ_１_１
  6
CONTINUOUS
 62
     3
100
AcDbVertex
100
AcDb2dVertex
 10
342.2979050351115
 20
560.3576840972243
 30
0.0
  0
VERTEX
  5
401
330
3FF
100
AcDbEntity
  8
Ｓ_１_１
  6
CONTINUOUS
 62
     3
100
AcDbVertex
100
AcDb2dVertex
 10
341.1934008216555
 20
561.0069539886198
 30
0.0
  0
VERTEX
  5
402
330
3FF
100
AcDbEntity
  8
Ｓ_１_１
  6
CONTINUOUS
 62
     3
100
AcDbVertex
100
AcDb2dVertex
 10
340.4272188606993
 20
561.513319920143
 30
0.0
  0
VERTEX
  5
403
330
3FF
100
AcDbEntity
  8
Ｓ_１_１
  6
CONTINUOUS
 62
     3
100
AcDbVertex
100
AcDb2dVertex
 10
339.6860817085745
 20
562.059584568537
 30
0.0
  0
VERTEX
  5
404
330
3FF
100
AcDbEntity
  8
Ｓ_１_１
  6
CONTINUOUS
 62
     3
100
AcDbVertex
100
AcDb2dVertex
 10
338.9708743152499
 20
562.6526638659066
 30
0.0
  0
VERTEX
  5
405
330
3FF
100
AcDbEntity
  8
Ｓ_１_１
  6
CONTINUOUS
 62
     3
100
AcDbVertex
100
AcDb2dVertex
 10
338.2909666083877
 20
563.290966608386
 30
0.0
  0
SEQEND
  5
406
330
3FF
100
AcDbEntity
  8
Ｓ_１_１
  6
CONTINUOUS
 62
     3
  0
POLYLINE
  5
407
330
1F
100
AcDbEntity
  8
Ｓ_１_１
  6
CONTINUOUS
 62
     3
100
AcDb2dPolyline
 66
     1
 10
0.0
 20
0.0
 30
0.0
 70
   128
  0
VERTEX
  5
408
330
407
100
AcDbEntity
  8
Ｓ_１_１
  6
CONTINUOUS
 62
     3
100
AcDbVertex
100
AcDb2dVertex
 10
345.4668898066689
 20
563.5266688687817
 30
0.0
  0
VERTEX
  5
409
330
407
100
AcDbEntity
  8
Ｓ_１_１
  6
CONTINUOUS
 62
     3
100
AcDbVertex
100
AcDb2dVertex
 10
344.8176199152732
 20
564.6311730822375
 30
0.0
  0
VERTEX
  5
40A
330
407
100
AcDbEntity
  8
Ｓ_１_１
  6
CONTINUOUS
 62
     3
100
AcDbVertex
100
AcDb2dVertex
 10
344.3112539837502
 20
565.3973550431939
 30
0.0
  0
VERTEX
  5
40B
330
407
100
AcDbEntity
  8
Ｓ_１_１
  6
CONTINUOUS
 62
     3
100
AcDbVertex
100
AcDb2dVertex
 10
343.7649893353562
 20
566.1384921953187
 30
0.0
  0
VERTEX
  5
40C
330
407
100
AcDbEntity
  8
Ｓ_１_１
  6
CONTINUOUS
 62
     3
100
AcDbVertex
100
AcDb2dVertex
 10
343.1719100379865
 20
566.853699588643
 30
0.0
  0
VERTEX
  5
40D
330
407
100
AcDbEntity
  8
Ｓ_１_１
  6
CONTINUOUS
 62
     3
100
AcDbVertex
100
AcDb2dVertex
 10
342.533607295507
 20
567.5336072955054
 30
0.0
  0
SEQEND
  5
40E
330
407
100
AcDbEntity
  8
Ｓ_１_１
  6
CONTINUOUS
 62
     3
  0
POLYLINE
  5
40F
330
1F
100
AcDbEntity
  8
Ｓ_１_１
  6
CONTINUOUS
 62
     3
100
AcDb2dPolyline
 66
     1
 10
0.0
 20
0.0
 30
0.0
 70
   128
  0
VERTEX
  5
410
330
40F
100
AcDbEntity
  8
Ｓ_１_１
  6
CONTINUOUS
 62
     3
100
AcDbVertex
100
AcDb2dVertex
 10
317.2086100467712
 20
551.1900724369744
 30
0.0
  0
VERTEX
  5
411
330
40F
100
AcDbEntity
  8
Ｓ_１_１
  6
CONTINUOUS
 62
     3
100
AcDbVertex
100
AcDb2dVertex
 10
318.9347270490031
 20
549.037647233547
 30
0.0
  0
VERTEX
  5
412
330
40F
100
AcDbEntity
  8
Ｓ_１_１
  6
CONTINUOUS
 62
     3
100
AcDbVertex
100
AcDb2dVertex
 10
319.8435212382604
 20
547.9949959389517
 30
0.0
  0
VERTEX
  5
413
330
40F
100
AcDbEntity
  8
Ｓ_１_１
  6
CONTINUOUS
 62
     3
100
AcDbVertex
100
AcDb2dVertex
 10
320.7856122439159
 20
546.9805084896275
 30
0.0
  0
VERTEX
  5
414
330
40F
100
AcDbEntity
  8
Ｓ_１_１
  6
CONTINUOUS
 62
     3
100
AcDbVertex
100
AcDb2dVertex
 10
321.7710665750354
 20
545.9880528202342
 30
0.0
  0
VERTEX
  5
415
330
40F
100
AcDbEntity
  8
Ｓ_１_１
  6
CONTINUOUS
 62
     3
100
AcDbVertex
100
AcDb2dVertex
 10
322.7906716737817
 20
545.0283744897587
 30
0.0
  0
VERTEX
  5
416
330
40F
100
AcDbEntity
  8
Ｓ_１_１
  6
CONTINUOUS
 62
     3
100
AcDbVertex
100
AcDb2dVertex
 10
323.8441553437335
 20
544.0992706043884
 30
0.0
  0
VERTEX
  5
417
330
40F
100
AcDbEntity
  8
Ｓ_１_１
  6
CONTINUOUS
 62
     3
100
AcDbVertex
100
AcDb2dVertex
 10
324.9256743948811
 20
543.2009579001542
 30
0.0
  0
VERTEX
  5
418
330
40F
100
AcDbEntity
  8
Ｓ_１_１
  6
CONTINUOUS
 62
     3
100
AcDbVertex
100
AcDb2dVertex
 10
326.1900724369761
 20
542.2086100467695
 30
0.0
  0
SEQEND
  5
419
330
40F
100
AcDbEntity
  8
Ｓ_１_１
  6
CONTINUOUS
 62
     3
  0
POLYLINE
  5
41A
330
1F
100
AcDbEntity
  8
Ｓ_１_１
  6
CONTINUOUS
 62
     3
100
AcDb2dPolyline
 66
     1
 10
0.0
 20
0.0
 30
0.0
 70
   128
  0
VERTEX
  5
41B
330
41A
100
AcDbEntity
  8
Ｓ_１_１
  6
CONTINUOUS
 62
     3
100
AcDbVertex
100
AcDb2dVertex
 10
312.7178788516687
 20
555.6808036320768
 30
0.0
  0
VERTEX
  5
41C
330
41A
100
AcDbEntity
  8
Ｓ_１_１
  6
CONTINUOUS
 62
     3
100
AcDbVertex
100
AcDb2dVertex
 10
313.1367657621146
 20
554.9948948195065
 30
0.0
  0
VERTEX
  5
41D
330
41A
100
AcDbEntity
  8
Ｓ_１_１
  6
CONTINUOUS
 62
     3
100
AcDbVertex
100
AcDb2dVertex
 10
313.5903253812631
 20
554.3382654981116
 30
0.0
  0
VERTEX
  5
41E
330
41A
100
AcDbEntity
  8
Ｓ_１_１
  6
CONTINUOUS
 62
     3
100
AcDbVertex
100
AcDb2dVertex
 10
314.0831506442655
 20
553.716915605367
 30
0.0
  0
VERTEX
  5
41F
330
41A
100
AcDbEntity
  8
Ｓ_１_１
  6
CONTINUOUS
 62
     3
100
AcDbVertex
100
AcDb2dVertex
 10
314.6225746666494
 20
553.1313138390201
 30
0.0
  0
VERTEX
  5
420
330
41A
100
AcDbEntity
  8
Ｓ_１_１
  6
CONTINUOUS
 62
     3
100
AcDbVertex
100
AcDb2dVertex
 10
315.2062963665785
 20
552.5882906459582
 30
0.0
  0
VERTEX
  5
421
330
41A
100
AcDbEntity
  8
Ｓ_１_１
  6
CONTINUOUS
 62
     3
100
AcDbVertex
100
AcDb2dVertex
 10
315.8369479458638
 20
552.084092185537
 30
0.0
  0
VERTEX
  5
422
330
41A
100
AcDbEntity
  8
Ｓ_１_１
  6
CONTINUOUS
 62
     3
100
AcDbVertex
100
AcDb2dVertex
 10
316.5060248887683
 20
551.619775306799
 30
0.0
  0
VERTEX
  5
423
330
41A
100
AcDbEntity
  8
Ｓ_１_１
  6
CONTINUOUS
 62
     3
100
AcDbVertex
100
AcDb2dVertex
 10
317.2086100467712
 20
551.1900724369744
 30
0.0
  0
SEQEND
  5
424
330
41A
100
AcDbEntity
  8
Ｓ_１_１
  6
CONTINUOUS
 62
     3
  0
POLYLINE
  5
425
330
1F
100
AcDbEntity
  8
Ｓ_１_１
  6
CONTINUOUS
 62
     3
100
AcDb2dPolyline
 66
     1
 10
0.0
 20
0.0
 30
0.0
 70
   128
  0
VERTEX
  5
426
330
425
100
AcDbEntity
  8
Ｓ_１_１
  6
CONTINUOUS
 62
     3
100
AcDbVertex
100
AcDb2dVertex
 10
326.1900724369761
 20
542.2086100467695
 30
0.0
  0
VERTEX
  5
427
330
425
100
AcDbEntity
  8
Ｓ_１_１
  6
CONTINUOUS
 62
     3
100
AcDbVertex
100
AcDb2dVertex
 10
326.6089593474223
 20
541.5227012341987
 30
0.0
  0
VERTEX
  5
428
330
425
100
AcDbEntity
  8
Ｓ_１_１
  6
CONTINUOUS
 62
     3
100
AcDbVertex
100
AcDb2dVertex
 10
327.0625189665705
 20
540.8660719128043
 30
0.0
  0
VERTEX
  5
429
330
425
100
AcDbEntity
  8
Ｓ_１_１
  6
CONTINUOUS
 62
     3
100
AcDbVertex
100
AcDb2dVertex
 10
327.5553442295729
 20
540.2447220200597
 30
0.0
  0
VERTEX
  5
42A
330
425
100
AcDbEntity
  8
Ｓ_１_１
  6
CONTINUOUS
 62
     3
100
AcDbVertex
100
AcDb2dVertex
 10
328.0947682519567
 20
539.6591202537128
 30
0.0
  0
VERTEX
  5
42B
330
425
100
AcDbEntity
  8
Ｓ_１_１
  6
CONTINUOUS
 62
     3
100
AcDbVertex
100
AcDb2dVertex
 10
328.6784899518861
 20
539.1160970606505
 30
0.0
  0
VERTEX
  5
42C
330
425
100
AcDbEntity
  8
Ｓ_１_１
  6
CONTINUOUS
 62
     3
100
AcDbVertex
100
AcDb2dVertex
 10
329.3091415311715
 20
538.6118986002293
 30
0.0
  0
VERTEX
  5
42D
330
425
100
AcDbEntity
  8
Ｓ_１_１
  6
CONTINUOUS
 62
     3
100
AcDbVertex
100
AcDb2dVertex
 10
329.9782184740757
 20
538.1475817214917
 30
0.0
  0
VERTEX
  5
42E
330
425
100
AcDbEntity
  8
Ｓ_１_１
  6
CONTINUOUS
 62
     3
100
AcDbVertex
100
AcDb2dVertex
 10
330.6808036320785
 20
537.7178788516671
 30
0.0
  0
SEQEND
  5
42F
330
425
100
AcDbEntity
  8
Ｓ_１_１
  6
CONTINUOUS
 62
     3
  0
LINE
  5
430
330
1F
100
AcDbEntity
  8
Ｓ_１_１
  6
CONTINUOUS
 62
     3
100
AcDbLine
 10
321.3204038599106
 20
546.3204038599089
 30
0.0
 11
313.7531550320788
 21
553.8876526877407
 31
0.0
  0
LINE
  5
431
330
1F
100
AcDbEntity
  8
Ｓ_１_１
  6
CONTINUOUS
 62
     3
100
AcDbLine
 10
321.3204038599106
 20
546.3204038599089
 30
0.0
 11
328.8876526877424
 21
538.7531550320771
 31
0.0
  0
LINE
  5
432
330
1F
100
AcDbEntity
  8
Ｓ_１_１
  6
CONTINUOUS
 62
     3
100
AcDbLine
 10
342.4027604215273
 20
558.4212980313207
 30
0.0
 11
326.1900724369761
 21
542.2086100467695
 31
0.0
  0
POLYLINE
  5
433
330
1F
100
AcDbEntity
  8
Ｓ_１_１
  6
CONTINUOUS
 62
     3
100
AcDb2dPolyline
 66
     1
 10
0.0
 20
0.0
 30
0.0
 70
   128
  0
VERTEX
  5
434
330
433
100
AcDbEntity
  8
Ｓ_１_１
  6
CONTINUOUS
 62
     3
100
AcDbVertex
100
AcDb2dVertex
 10
342.4027604215273
 20
558.4212980313207
 30
0.0
  0
VERTEX
  5
435
330
433
100
AcDbEntity
  8
Ｓ_１_１
  6
CONTINUOUS
 62
     3
100
AcDbVertex
100
AcDb2dVertex
 10
341.4104125681424
 20
559.6856960734156
 30
0.0
  0
VERTEX
  5
436
330
433
100
AcDbEntity
  8
Ｓ_１_１
  6
CONTINUOUS
 62
     3
100
AcDbVertex
100
AcDb2dVertex
 10
340.5302197051101
 20
560.7460094649553
 30
0.0
  0
VERTEX
  5
437
330
433
100
AcDbEntity
  8
Ｓ_１_１
  6
CONTINUOUS
 62
     3
100
AcDbVertex
100
AcDb2dVertex
 10
339.6189197811986
 20
561.7811947559175
 30
0.0
  0
VERTEX
  5
438
330
433
100
AcDbEntity
  8
Ｓ_１_１
  6
CONTINUOUS
 62
     3
100
AcDbVertex
100
AcDb2dVertex
 10
338.6724794965159
 20
562.7897130411483
 30
0.0
  0
VERTEX
  5
439
330
433
100
AcDbEntity
  8
Ｓ_１_１
  6
CONTINUOUS
 62
     3
100
AcDbVertex
100
AcDb2dVertex
 10
337.6918093493314
 20
563.7671423035487
 30
0.0
  0
VERTEX
  5
43A
330
433
100
AcDbEntity
  8
Ｓ_１_１
  6
CONTINUOUS
 62
     3
100
AcDbVertex
100
AcDb2dVertex
 10
336.6679226906795
 20
564.7214349254909
 30
0.0
  0
VERTEX
  5
43B
330
433
100
AcDbEntity
  8
Ｓ_１_１
  6
CONTINUOUS
 62
     3
100
AcDbVertex
100
AcDb2dVertex
 10
335.6129271191164
 20
565.6434473366445
 30
0.0
  0
VERTEX
  5
43C
330
433
100
AcDbEntity
  8
Ｓ_１_１
  6
CONTINUOUS
 62
     3
100
AcDbVertex
100
AcDb2dVertex
 10
333.4212980313224
 20
567.4027604215256
 30
0.0
  0
SEQEND
  5
43D
330
433
100
AcDbEntity
  8
Ｓ_１_１
  6
CONTINUOUS
 62
     3
  0
LINE
  5
43E
330
1F
100
AcDbEntity
  8
Ｓ_１_１
  6
CONTINUOUS
 62
     3
100
AcDbLine
 10
333.4212980313224
 20
567.4027604215256
 30
0.0
 11
317.2086100467712
 21
551.1900724369744
 31
0.0
  0
LINE
  5
43F
330
1F
100
AcDbEntity
  8
Ｓ_１_１
  6
CONTINUOUS
 62
     3
100
AcDbLine
 10
346.8934916166297
 20
553.9305668362182
 30
0.0
 11
330.6808036320785
 21
537.7178788516671
 31
0.0
  0
POLYLINE
  5
440
330
1F
100
AcDbEntity
  8
Ｓ_１_１
  6
CONTINUOUS
 62
     3
100
AcDb2dPolyline
 66
     1
 10
0.0
 20
0.0
 30
0.0
 70
   128
  0
VERTEX
  5
441
330
440
100
AcDbEntity
  8
Ｓ_１_１
  6
CONTINUOUS
 62
     3
100
AcDbVertex
100
AcDb2dVertex
 10
346.8934916166297
 20
553.9305668362182
 30
0.0
  0
VERTEX
  5
442
330
440
100
AcDbEntity
  8
Ｓ_１_１
  6
CONTINUOUS
 62
     3
100
AcDbVertex
100
AcDb2dVertex
 10
346.4744054043225
 20
554.6167445865611
 30
0.0
  0
VERTEX
  5
443
330
440
100
AcDbEntity
  8
Ｓ_１_１
  6
CONTINUOUS
 62
     3
100
AcDbVertex
100
AcDb2dVertex
 10
346.0215115203666
 20
555.272473243614
 30
0.0
  0
VERTEX
  5
444
330
440
100
AcDbEntity
  8
Ｓ_１_１
  6
CONTINUOUS
 62
     3
100
AcDbVertex
100
AcDb2dVertex
 10
345.5277631858714
 20
555.8947633584846
 30
0.0
  0
VERTEX
  5
445
330
440
100
AcDbEntity
  8
Ｓ_１_１
  6
CONTINUOUS
 62
     3
100
AcDbVertex
100
AcDb2dVertex
 10
344.9921097719042
 20
556.4767244030835
 30
0.0
  0
VERTEX
  5
446
330
440
100
AcDbEntity
  8
Ｓ_１_１
  6
CONTINUOUS
 62
     3
100
AcDbVertex
100
AcDb2dVertex
 10
344.4045327900303
 20
557.02333597275
 30
0.0
  0
VERTEX
  5
447
330
440
100
AcDbEntity
  8
Ｓ_１_１
  6
CONTINUOUS
 62
     3
100
AcDbVertex
100
AcDb2dVertex
 10
343.7752229644987
 20
557.5266834316651
 30
0.0
  0
VERTEX
  5
448
330
440
100
AcDbEntity
  8
Ｓ_１_１
  6
CONTINUOUS
 62
     3
100
AcDbVertex
100
AcDb2dVertex
 10
343.1050227295041
 20
557.9917754493993
 30
0.0
  0
VERTEX
  5
449
330
440
100
AcDbEntity
  8
Ｓ_１_１
  6
CONTINUOUS
 62
     3
100
AcDbVertex
100
AcDb2dVertex
 10
342.4027604215273
 20
558.4212980313207
 30
0.0
  0
SEQEND
  5
44A
330
440
100
AcDbEntity
  8
Ｓ_１_１
  6
CONTINUOUS
 62
     3
  0
POLYLINE
  5
44B
330
1F
100
AcDbEntity
  8
Ｓ_１_１
  6
CONTINUOUS
 62
     3
100
AcDb2dPolyline
 66
     1
 10
0.0
 20
0.0
 30
0.0
 70
   128
  0
VERTEX
  5
44C
330
44B
100
AcDbEntity
  8
Ｓ_１_１
  6
CONTINUOUS
 62
     3
100
AcDbVertex
100
AcDb2dVertex
 10
333.4212980313224
 20
567.4027604215256
 30
0.0
  0
VERTEX
  5
44D
330
44B
100
AcDbEntity
  8
Ｓ_１_１
  6
CONTINUOUS
 62
     3
100
AcDbVertex
100
AcDb2dVertex
 10
333.0022118190148
 20
568.0889381718688
 30
0.0
  0
VERTEX
  5
44E
330
44B
100
AcDbEntity
  8
Ｓ_１_１
  6
CONTINUOUS
 62
     3
100
AcDbVertex
100
AcDb2dVertex
 10
332.5493179350592
 20
568.7446668289213
 30
0.0
  0
VERTEX
  5
44F
330
44B
100
AcDbEntity
  8
Ｓ_１_１
  6
CONTINUOUS
 62
     3
100
AcDbVertex
100
AcDb2dVertex
 10
332.0555696005637
 20
569.3669569437924
 30
0.0
  0
VERTEX
  5
450
330
44B
100
AcDbEntity
  8
Ｓ_１_１
  6
CONTINUOUS
 62
     3
100
AcDbVertex
100
AcDb2dVertex
 10
331.5199161865966
 20
569.9489179883911
 30
0.0
  0
VERTEX
  5
451
330
44B
100
AcDbEntity
  8
Ｓ_１_１
  6
CONTINUOUS
 62
     3
100
AcDbVertex
100
AcDb2dVertex
 10
330.9323392047226
 20
570.4955295580577
 30
0.0
  0
VERTEX
  5
452
330
44B
100
AcDbEntity
  8
Ｓ_１_１
  6
CONTINUOUS
 62
     3
100
AcDbVertex
100
AcDb2dVertex
 10
330.3030293791913
 20
570.9988770169724
 30
0.0
  0
VERTEX
  5
453
330
44B
100
AcDbEntity
  8
Ｓ_１_１
  6
CONTINUOUS
 62
     3
100
AcDbVertex
100
AcDb2dVertex
 10
329.6328291441964
 20
571.4639690347069
 30
0.0
  0
VERTEX
  5
454
330
44B
100
AcDbEntity
  8
Ｓ_１_１
  6
CONTINUOUS
 62
     3
100
AcDbVertex
100
AcDb2dVertex
 10
328.9305668362199
 20
571.893491616628
 30
0.0
  0
SEQEND
  5
455
330
44B
100
AcDbEntity
  8
Ｓ_１_１
  6
CONTINUOUS
 62
     3
  0
LINE
  5
456
330
1F
100
AcDbEntity
  8
Ｓ_１_１
  6
CONTINUOUS
 62
     3
100
AcDbLine
 10
328.9305668362199
 20
571.893491616628
 30
0.0
 11
312.7178788516687
 21
555.6808036320768
 31
0.0
  0
LINE
  5
457
330
1F
100
AcDbEntity
  8
Ｓ_１_１
  6
CONTINUOUS
 62
     3
100
AcDbLine
 10
325.7055343416132
 20
540.0096009957199
 30
0.0
 11
327.2250078194332
 21
540.4167431808318
 31
0.0
  0
LINE
  5
458
330
1F
100
AcDbEntity
  8
Ｓ_１_１
  6
CONTINUOUS
 62
     3
100
AcDbLine
 10
315.4162474989791
 20
552.2250933793528
 30
0.0
 11
315.0091017783334
 21
550.7056050522905
 31
0.0
  0
LINE
  5
459
330
1F
100
AcDbEntity
  8
Ｓ_１_１
  6
CONTINUOUS
 62
     3
100
AcDbLine
 10
314.5128931301688
 20
551.2013243825614
 30
0.0
 11
326.2010436611705
 21
539.5131738515598
 31
0.0
  0
LINE
  5
45A
330
1F
100
AcDbEntity
  8
Ｓ_１_１
  6
CONTINUOUS
 62
     3
100
AcDbLine
 10
310.1864772865634
 20
545.2399290028011
 30
0.0
 11
315.0090932930518
 21
550.7055612116694
 31
0.0
  0
LINE
  5
45B
330
1F
100
AcDbEntity
  8
Ｓ_１_１
  6
CONTINUOUS
 62
     3
100
AcDbLine
 10
309.6531570771893
 20
545.6932943316663
 30
0.0
 11
315.4163330588997
 21
552.2248932681335
 31
0.0
  0
LINE
  5
45C
330
1F
100
AcDbEntity
  8
Ｓ_１_１
  6
CONTINUOUS
 62
     3
100
AcDbLine
 10
320.2415581897732
 20
535.1877352779264
 30
0.0
 11
325.7058468828102
 21
540.0091654179424
 31
0.0
  0
LINE
  5
45D
330
1F
100
AcDbEntity
  8
Ｓ_１_１
  6
CONTINUOUS
 62
     3
100
AcDbLine
 10
320.6950747946896
 20
534.6545474937825
 30
0.0
 11
327.2251789392744
 21
540.4164051837904
 31
0.0
  0
LINE
  5
45E
330
1F
100
AcDbEntity
  8
Ｓ_１_１
  6
CONTINUOUS
 62
     3
100
AcDbLine
 10
342.7103839908012
 20
574.781451802669
 30
0.0
 11
338.9980733895719
 21
571.0691412014397
 31
0.0
  0
LINE
  5
45F
330
1F
100
AcDbEntity
  8
Ｓ_１_１
  6
CONTINUOUS
 62
     3
100
AcDbLine
 10
343.7710441625811
 20
574.781451802669
 30
0.0
 11
342.7103839908012
 21
574.781451802669
 31
0.0
  0
LINE
  5
460
330
1F
100
AcDbEntity
  8
Ｓ_１_１
  6
CONTINUOUS
 62
     3
100
AcDbLine
 10
349.7814518026678
 20
567.7103839907992
 30
0.0
 11
342.710383990797
 21
574.7814518026661
 31
0.0
  0
LINE
  5
461
330
1F
100
AcDbEntity
  8
Ｓ_１_１
  6
CONTINUOUS
 62
     3
100
AcDbLine
 10
343.7710441625773
 20
574.7814518026702
 30
0.0
 11
339.528403475458
 21
570.5388111155509
 31
0.0
  0
LINE
  5
462
330
1F
100
AcDbEntity
  8
Ｓ_１_１
  6
CONTINUOUS
 62
     3
100
AcDbLine
 10
343.7710441625811
 20
574.781451802669
 30
0.0
 11
349.7814518026668
 21
568.7710441625834
 31
0.0
  0
LINE
  5
463
330
1F
100
AcDbEntity
  8
Ｓ_１_１
  6
CONTINUOUS
 62
     3
100
AcDbLine
 10
349.7814518026668
 20
568.7710441625834
 30
0.0
 11
349.7814518026667
 21
567.7103839908035
 31
0.0
  0
LINE
  5
464
330
1F
100
AcDbEntity
  8
Ｓ_１_１
  6
CONTINUOUS
 62
     3
100
AcDbLine
 10
349.7814518026652
 20
568.7710441625838
 30
0.0
 11
345.5388111155459
 21
564.5284034754646
 31
0.0
  0
LINE
  5
465
330
1F
100
AcDbEntity
  8
Ｓ_１_１
  6
CONTINUOUS
 62
     3
100
AcDbLine
 10
349.7814518026667
 20
567.7103839908035
 30
0.0
 11
346.0691412014374
 21
563.9980733895743
 31
0.0
  0
LINE
  5
466
330
1F
100
AcDbEntity
  8
Ｓ_１_１
  6
CONTINUOUS
 62
     3
100
AcDbLine
 10
348.5440149355925
 20
561.5231996554198
 30
0.0
 11
336.5231996554213
 21
573.544014935591
 31
0.0
  0
ELLIPSE
  5
467
330
1F
100
AcDbEntity
  8
Ｓ_１_１
  6
CONTINUOUS
 62
     3
100
AcDbEllipse
 10
680.0
 20
571.77624798263
 30
0.0
 11
-4.25
 21
5.204748896376251E-16
 31
0.0
210
0.0
220
0.0
230
1.0
 40
0.7071067811858645
 41
0.0
 42
6.283185307179586
  0
ELLIPSE
  5
468
330
1F
100
AcDbEntity
  8
Ｓ_１_１
  6
CONTINUOUS
 62
     3
100
AcDbEllipse
 10
680.0
 20
571.24591789673
 30
0.0
 11
5.0
 21
-1.224646799147353E-15
 31
0.0
210
0.0
220
0.0
230
1.0
 40
0.7071067811860077
 41
0.0
 42
6.283185307179586
  0
ELLIPSE
  5
469
330
1F
100
AcDbEntity
  8
Ｓ_１_１
  6
CONTINUOUS
 62
     3
100
AcDbEllipse
 10
680.0
 20
567.5336072955
 30
0.0
 11
5.0
 21
-1.224646799147353E-15
 31
0.0
210
0.0
220
0.0
230
1.0
 40
0.7071067811860077
 41
3.091571796783035
 42
6.333206163986347
  0
LINE
  5
46A
330
1F
100
AcDbEntity
  8
Ｓ_１_１
  6
CONTINUOUS
 62
     3
100
AcDbLine
 10
675.0
 20
571.24591789673
 30
0.0
 11
675.0
 21
567.5336072955
 31
0.0
  0
LINE
  5
46B
330
1F
100
AcDbEntity
  8
Ｓ_１_１
  6
CONTINUOUS
 62
     3
100
AcDbLine
 10
685.0
 20
571.24591789673
 30
0.0
 11
685.0
 21
567.5336072955
 31
0.0
  0
ELLIPSE
  5
46C
330
1F
100
AcDbEntity
  8
Ｓ_１_１
  6
CONTINUOUS
 62
     3
100
AcDbEllipse
 10
679.9999999999998
 20
540.407377
 30
0.0
 11
-8.330999999999912
 21
1.020253248369649E-15
 31
0.0
210
0.0
220
0.0
230
1.0
 40
0.6742949999999999
 41
0.0
 42
3.141592653589793
  0
LINE
  5
46D
330
1F
100
AcDbEntity
  8
Ｓ_１_１
  6
CONTINUOUS
 62
     3
100
AcDbLine
 10
671.669
 20
540.407377
 30
0.0
 11
671.669
 21
540.6633321487013
 31
0.0
  0
LINE
  5
46E
330
1F
100
AcDbEntity
  8
Ｓ_１_１
  6
CONTINUOUS
 62
     3
100
AcDbLine
 10
688.331
 20
540.407377
 30
0.0
 11
688.331
 21
540.6633321487013
 31
0.0
  0
LINE
  5
46F
330
1F
100
AcDbEntity
  8
Ｓ_１_１
  6
EXLTYPE2
 62
     1
100
AcDbLine
 10
680.0
 20
529.2
 30
0.0
 11
680.0
 21
578.2
 31
0.0
  0
DIMENSION
  5
470
330
1F
100
AcDbEntity
  8
Ｓ_１_１
  6
CONTINUOUS
 62
     2
100
AcDbDimension
  2
*D25
 10
755.0
 20
650.0
 30
0.0
 11
864.9999999999999
 21
659.625
 31
0.0
 70
   160
  3
ISO-25
100
AcDbAlignedDimension
 13
975.0
 23
565.5
 33
0.0
 14
755.0
 24
495.0
 34
0.0
100
AcDbRotatedDimension
1001
ACAD
1000
DSTYLE
1002
{
1070
   270
1070
     2
1070
     6
1000
EX_NORM
1070
     7
1000
EX_NORM
1070
    41
1040
10.5
1070
    42
1040
5.25
1070
    44
1040
3.500000000000227
1070
    73
1070
     0
1070
    74
1070
     0
1070
    75
1070
     0
1070
    76
1070
     0
1070
    77
1070
     1
1070
    78
1070
     8
1070
   140
1040
12.12016381576852
1070
   147
1040
0.0
1070
   173
1070
     1
1070
   176
1070
     2
1070
   177
1070
     2
1070
   178
1070
     2
1070
   271
1070
     2
1070
   277
1070
     2
1070
   279
1070
     2
1070
   280
1070
     0
1070
   287
1070
     5
1070
   340
1005
11D
1002
}
  0
DIMENSION
  5
47D
330
1F
100
AcDbEntity
  8
Ｓ_１_１
  6
CONTINUOUS
 62
     2
100
AcDbDimension
  2
*D26
 10
680.0
 20
650.0
 30
0.0
 11
717.5
 21
659.625
 31
0.0
 70
   160
  3
ISO-25
100
AcDbAlignedDimension
 13
755.0
 23
495.0
 33
0.0
 14
680.0
 24
578.2
 34
0.0
100
AcDbRotatedDimension
1001
ACAD
1000
DSTYLE
1002
{
1070
   270
1070
     2
1070
     6
1000
EX_NORM
1070
     7
1000
EX_NORM
1070
    41
1040
10.5
1070
    42
1040
5.25
1070
    44
1040
3.500000000000227
1070
    73
1070
     0
1070
    74
1070
     0
1070
    75
1070
     0
1070
    76
1070
     0
1070
    77
1070
     1
1070
    78
1070
     8
1070
   140
1040
12.12016381576852
1070
   147
1040
0.0
1070
   173
1070
     1
1070
   176
1070
     2
1070
   177
1070
     2
1070
   178
1070
     2
1070
   271
1070
     2
1070
   277
1070
     2
1070
   279
1070
     2
1070
   280
1070
     0
1070
   287
1070
     5
1070
   340
1005
11D
1002
}
  0
DIMENSION
  5
48A
330
1F
100
AcDbEntity
  8
Ｓ_１_１
  6
CONTINUOUS
 62
     2
100
AcDbDimension
  2
*D27
 10
610.0
 20
650.0
 30
0.0
 11
645.0
 21
659.625
 31
0.0
 70
   160
  3
ISO-25
100
AcDbAlignedDimension
 13
680.0
 23
578.2
 33
0.0
 14
610.0
 24
565.5
 34
0.0
100
AcDbRotatedDimension
1001
ACAD
1000
DSTYLE
1002
{
1070
   270
1070
     2
1070
     6
1000
EX_NORM
1070
     7
1000
EX_NORM
1070
    41
1040
10.5
1070
    42
1040
5.25
1070
    44
1040
3.500000000000227
1070
    73
1070
     0
1070
    74
1070
     0
1070
    75
1070
     0
1070
    76
1070
     0
1070
    77
1070
     1
1070
    78
1070
     8
1070
   140
1040
12.12016381576852
1070
   147
1040
0.0
1070
   173
1070
     1
1070
   176
1070
     2
1070
   177
1070
     2
1070
   178
1070
     2
1070
   271
1070
     2
1070
   277
1070
     2
1070
   279
1070
     2
1070
   280
1070
     0
1070
   287
1070
     5
1070
   340
1005
11D
1002
}
  0
LINE
  5
497
330
1F
100
AcDbEntity
  8
Ｓ_１_１
  6
CONTINUOUS
 62
     3
100
AcDbLine
 10
674.7701381328964
 20
572.2716736126241
 30
0.0
 11
671.5
 21
570.46688980667
 31
0.0
  0
ELLIPSE
  5
498
330
1F
100
AcDbEntity
  8
Ｓ_１_１
  6
CONTINUOUS
 62
     3
100
AcDbEllipse
 10
680.0
 20
567.5336072955
 30
0.0
 11
8.5
 21
-2.081899558550500E-15
 31
0.0
210
0.0
220
0.0
230
1.0
 40
0.7071067811858913
 41
2.147553685773647
 42
7.277224274995731
  0
LINE
  5
499
330
1F
100
AcDbEntity
  8
Ｓ_１_１
  6
CONTINUOUS
 62
     3
100
AcDbLine
 10
685.2298618671036
 20
572.2716736126241
 30
0.0
 11
688.5
 21
570.46688980667
 31
0.0
  0
ARC
  5
49A
330
1F
100
AcDbEntity
  8
Ｓ_１_１
  6
CONTINUOUS
 62
     3
100
AcDbCircle
 10
667.8467869209153
 20
542.4327742620463
 30
0.0
 40
21.40790404222664
100
AcDbArc
 50
55.41018071689685
 51
80.17451068594296
  0
ARC
  5
49B
330
1F
100
AcDbEntity
  8
Ｓ_１_１
  6
CONTINUOUS
 62
     3
100
AcDbCircle
 10
692.1532130790847
 20
542.4327742620463
 30
0.0
 40
21.40790404222664
100
AcDbArc
 50
99.8254893140571
 51
124.5898192831031
  0
ARC
  5
49C
330
1F
100
AcDbEntity
  8
Ｓ_１_１
  6
CONTINUOUS
 62
     3
100
AcDbCircle
 10
683.6532130790847
 20
577.9814682350137
 30
0.0
 40
21.40790404222664
100
AcDbArc
 50
235.4101807168968
 51
260.174510685943
  0
ARC
  5
49D
330
1F
100
AcDbEntity
  8
Ｓ_１_１
  6
CONTINUOUS
 62
     3
100
AcDbCircle
 10
676.3467869209153
 20
577.9814682350137
 30
0.0
 40
21.40790404222664
100
AcDbArc
 50
279.825489314057
 51
304.5898192831031
  0
LINE
  5
49E
330
1F
100
AcDbEntity
  8
Ｓ_１_１
  6
CONTINUOUS
 62
     3
100
AcDbLine
 10
671.5
 20
560.35768409722
 30
0.0
 11
671.5
 21
570.4668898066701
 31
0.0
  0
LINE
  5
49F
330
1F
100
AcDbEntity
  8
Ｓ_１_１
  6
CONTINUOUS
 62
     3
100
AcDbLine
 10
688.5
 20
560.35768409722
 30
0.0
 11
688.5
 21
570.4668898066701
 31
0.0
  0
LINE
  5
4A0
330
1F
100
AcDbEntity
  8
Ｓ_１_１
  6
CONTINUOUS
 62
     3
100
AcDbLine
 10
680.0
 20
560.05655839984
 30
0.0
 11
680.0
 21
556.8875736282802
 31
0.0
  0
LINE
  5
4A1
330
1F
100
AcDbEntity
  8
Ｓ_１_１
  6
CONTINUOUS
 62
     3
100
AcDbLine
 10
345.8582154362219
 20
555.7237177805519
 30
0.0
 11
330.7237177805559
 21
570.8582154362178
 31
0.0
  0
LINE
  5
4A2
330
1F
100
AcDbEntity
  8
Ｓ_１_１
  6
CONTINUOUS
 62
     3
100
AcDbLine
 10
671.5
 20
568.4845772907996
 30
0.0
 11
669.0
 21
567.40276042153
 31
0.0
  0
ELLIPSE
  5
4A3
330
1F
100
AcDbEntity
  8
Ｓ_１_１
  6
CONTINUOUS
 62
     3
100
AcDbEllipse
 10
680.0
 20
563.29096660839
 30
0.0
 11
10.70170592218005
 21
-2.621161980602815E-15
 31
0.0
210
0.0
220
0.0
230
1.0
 40
0.7071067811867568
 41
2.488594681830269
 42
6.936183278939112
  0
LINE
  5
4A4
330
1F
100
AcDbEntity
  8
Ｓ_１_１
  6
CONTINUOUS
 62
     3
100
AcDbLine
 10
688.5
 20
568.4845772907996
 30
0.0
 11
691.0
 21
567.40276042153
 31
0.0
  0
ARC
  5
4A5
330
1F
100
AcDbEntity
  8
Ｓ_１_１
  6
CONTINUOUS
 62
     3
100
AcDbCircle
 10
660.0679954674055
 20
520.8248853633598
 30
0.0
 40
38.64286415976235
100
AcDbArc
 50
58.94903059234188
 51
76.63566081048734
  0
ARC
  5
4A6
330
1F
100
AcDbEntity
  8
Ｓ_１_１
  6
CONTINUOUS
 62
     3
100
AcDbCircle
 10
699.9320045325945
 20
520.8248853633598
 30
0.0
 40
38.64286415976235
100
AcDbArc
 50
103.3643391895127
 51
121.0509694076582
  0
ARC
  5
4A7
330
1F
100
AcDbEntity
  8
Ｓ_１_１
  6
CONTINUOUS
 62
     3
100
AcDbCircle
 10
688.9320045325945
 20
575.3142915196302
 30
0.0
 40
38.64286415976235
100
AcDbArc
 50
238.9490305923418
 51
256.6356608104873
  0
ARC
  5
4A8
330
1F
100
AcDbEntity
  8
Ｓ_１_１
  6
CONTINUOUS
 62
     3
100
AcDbCircle
 10
671.0679954674055
 20
575.3142915196302
 30
0.0
 40
38.64286415976235
100
AcDbArc
 50
283.3643391895127
 51
301.0509694076582
  0
LINE
  5
4A9
330
1F
100
AcDbEntity
  8
Ｓ_１_１
  6
CONTINUOUS
 62
     3
100
AcDbLine
 10
669.0
 20
542.20861004677
 30
0.0
 11
669.0
 21
567.40276042153
 31
0.0
  0
LINE
  5
4AA
330
1F
100
AcDbEntity
  8
Ｓ_１_１
  6
CONTINUOUS
 62
     3
100
AcDbLine
 10
691.0
 20
542.20861004677
 30
0.0
 11
691.0
 21
567.40276042153
 31
0.0
  0
LINE
  5
4AB
330
1F
100
AcDbEntity
  8
Ｓ_１_１
  6
CONTINUOUS
 62
     3
100
AcDbLine
 10
680.0
 20
553.93056683622
 30
0.0
 11
680.0
 21
537.71787885167
 31
0.0
  0
LINE
  5
4AC
330
1F
100
AcDbEntity
  8
Ｓ_１_１
  6
CONTINUOUS
 62
     3
100
AcDbLine
 10
611.9999999999998
 20
567.5
 30
0.0
 11
669.0
 21
567.5
 31
0.0
  0
LINE
  5
4AD
330
1F
100
AcDbEntity
  8
Ｓ_１_１
  6
CONTINUOUS
 62
     3
100
AcDbLine
 10
691.0
 20
567.5
 30
0.0
 11
972.9999999999999
 21
567.5
 31
0.0
  0
LINE
  5
4AE
330
1F
100
AcDbEntity
  8
Ｓ_１_１
  6
CONTINUOUS
 62
     3
100
AcDbLine
 10
682.8867513459401
 20
571.77624545664
 30
0.0
 11
681.44337567297
 21
570.0084785036701
 31
0.0
  0
LINE
  5
4AF
330
1F
100
AcDbEntity
  8
Ｓ_１_１
  6
CONTINUOUS
 62
     3
100
AcDbLine
 10
681.44337567297
 20
573.5440124096101
 30
0.0
 11
682.8867513459401
 21
571.77624545664
 31
0.0
  0
LINE
  5
4B0
330
1F
100
AcDbEntity
  8
Ｓ_１_１
  6
CONTINUOUS
 62
     3
100
AcDbLine
 10
678.5566243270315
 20
573.5440124096101
 30
0.0
 11
677.1132486540615
 21
571.77624545664
 31
0.0
  0
LINE
  5
4B1
330
1F
100
AcDbEntity
  8
Ｓ_１_１
  6
CONTINUOUS
 62
     3
100
AcDbLine
 10
677.1132486540615
 20
571.77624545664
 30
0.0
 11
678.5566243270315
 21
570.0084785036701
 31
0.0
  0
LINE
  5
4B2
330
1F
100
AcDbEntity
  8
Ｓ_１_１
  6
CONTINUOUS
 62
     3
100
AcDbLine
 10
678.5566243270315
 20
570.0084785036701
 30
0.0
 11
681.44337567297
 21
570.0084785036701
 31
0.0
  0
LINE
  5
4B3
330
1F
100
AcDbEntity
  8
Ｓ_１_１
  6
CONTINUOUS
 62
     3
100
AcDbLine
 10
678.5566243270316
 20
573.5440124096101
 30
0.0
 11
681.44337567297
 21
573.5440124096101
 31
0.0
  0
LINE
  5
4B4
330
1F
100
AcDbEntity
  8
Ｓ_１_１
  6
CONTINUOUS
 62
     3
100
AcDbLine
 10
678.5566243270316
 20
571.0440124096101
 30
0.0
 11
681.44337567297
 21
571.0440124096101
 31
0.0
  0
LINE
  5
4B5
330
1F
100
AcDbEntity
  8
Ｓ_１_１
  6
CONTINUOUS
 62
     3
100
AcDbLine
 10
681.44337567297
 20
573.5440124096101
 30
0.0
 11
681.44337567297
 21
571.0440124096101
 31
0.0
  0
LINE
  5
4B6
330
1F
100
AcDbEntity
  8
Ｓ_１_１
  6
CONTINUOUS
 62
     3
100
AcDbLine
 10
678.55662432703
 20
573.5440124096101
 30
0.0
 11
678.55662432703
 21
571.0440124096082
 31
0.0
  0
LINE
  5
4B7
330
1F
100
AcDbEntity
  8
Ｓ_１_１
  6
CONTINUOUS
 62
     3
100
AcDbLine
 10
678.5566243270315
 20
571.0440124096101
 30
0.0
 11
678.1338693802162
 21
570.52624545664
 31
0.0
  0
LINE
  5
4B8
330
1F
100
AcDbEntity
  8
Ｓ_１_１
  6
CONTINUOUS
 62
     3
100
AcDbLine
 10
681.44337567297
 20
571.0440124096101
 30
0.0
 11
681.8661306197854
 21
570.52624545664
 31
0.0
  0
ENDSEC
  0
SECTION
  2
OBJECTS
  0
DICTIONARY
  5
C
330
0
100
AcDbDictionary
  3
ACAD_GROUP
350
D
  3
ACAD_LAYOUT
350
1A
  3
ACAD_MATERIAL
350
43
  3
ACAD_MLEADERSTYLE
350
6B
  3
ACAD_MLINESTYLE
350
17
  3
ACAD_PLOTSETTINGS
350
19
  3
ACAD_SCALELIST
350
47
  3
ACAD_VISUALSTYLE
350
2A
  3
ACDBHEADERROUNDTRIPXREC
350
4B9
  3
ACDBVARIABLEDICTIONARY
350
4DA
  0
DICTIONARY
  5
4E5
330
8
100
AcDbDictionary
280
     1
  3
ACAD_XREC_ROUNDTRIP
360
4E6
  0
DICTIONARY
  5
D
102
{ACAD_REACTORS
330
C
102
}
330
C
100
AcDbDictionary
  0
DICTIONARY
  5
1A
102
{ACAD_REACTORS
330
C
102
}
330
C
100
AcDbDictionary
  0
DICTIONARY
  5
43
102
{ACAD_REACTORS
330
C
102
}
330
C
100
AcDbDictionary
  3
BYBLOCK
350
45
  3
BYLAYER
350
44
  3
GLOBAL
350
46
  0
DICTIONARY
  5
6B
102
{ACAD_REACTORS
330
C
102
}
330
C
100
AcDbDictionary
  3
STANDARD
350
6C
  0
DICTIONARY
  5
17
102
{ACAD_REACTORS
330
C
102
}
330
C
100
AcDbDictionary
  3
STANDARD
350
18
  0
DICTIONARY
  5
19
102
{ACAD_REACTORS
330
C
102
}
330
C
100
AcDbDictionary
  0
DICTIONARY
  5
47
102
{ACAD_REACTORS
330
C
102
}
330
C
100
AcDbDictionary
  3
A0
350
48
  3
A1
350
49
  3
A2
350
4A
  3
A3
350
4B
  3
A4
350
4C
  3
A5
350
4D
  3
A6
350
4E
  3
A7
350
4F
  3
A8
350
50
  3
A9
350
51
  3
B0
350
52
  3
B1
350
53
  3
B2
350
54
  3
B3
350
55
  3
B4
350
56
  3
B5
350
57
  3
B6
350
58
  3
B7
350
59
  3
B8
350
5A
  3
B9
350
5B
  3
C0
350
5C
  3
C1
350
5D
  3
C2
350
5E
  3
C3
350
5F
  3
C4
350
60
  3
C5
350
61
  3
C6
350
62
  3
C7
350
63
  3
C8
350
64
  3
C9
350
65
  3
D0
350
66
  3
D1
350
67
  3
D2
350
68
  0
DICTIONARY
  5
2A
102
{ACAD_REACTORS
330
C
102
}
330
C
100
AcDbDictionary
  3
2DWIREFRAME
350
2F
  3
BASIC
350
32
  3
BRIGHTEN
350
36
  3
COLORCHANGE
350
3A
  3
CONCEPTUAL
350
34
  3
DIM
350
35
  3
EDGECOLOROFF
350
3D
  3
FACEPATTERN
350
39
  3
FLAT
350
2B
  3
FLATWITHEDGES
350
2C
  3
GOURAUD
350
2D
  3
GOURAUDWITHEDGES
350
2E
  3
HIDDEN
350
31
  3
JITTEROFF
350
3B
  3
LINEPATTERN
350
38
  3
OVERHANGOFF
350
3C
  3
REALISTIC
350
33
  3
SHADED
350
42
  3
SHADED_WITH_EDGES
350
41
  3
SHADES_OF_GRAY
350
3E
  3
SKETCHY
350
3F
  3
THICKEN
350
37
  3
WIREFRAME
350
30
  3
X-RAY
350
40
  0
DICTIONARY
  5
4B9
102
{ACAD_REACTORS
330
C
102
}
330
C
100
AcDbDictionary
  3
CEPSNID
350
4C3
  3
CEPSNTYPE
350
4C2
  3
DIMSTYLEDATA
350
4D9
  3
FINGERPRINTGUID
350
4C4
  3
HYPERLINKBASE
350
4BC
  3
INSUNITS
350
4C1
  3
LAYOUTDICT
350
4BE
  3
LWETCUNION
350
4C0
  3
PLOTSETDICT
350
4BF
  3
PSVPSCALE
350
4C6
  3
PUCSBASE
350
4C9
  3
PUCSORGBACK
350
4CF
  3
PUCSORGBOTTOM
350
4CB
  3
PUCSORGFRONT
350
4CE
  3
PUCSORGLEFT
350
4CC
  3
PUCSORGRIGHT
350
4CD
  3
PUCSORGTOP
350
4CA
  3
PUCSORTHOREF
350
4C7
  3
PUCSORTHOVIEW
350
4C8
  3
STYLESHEET
350
4BD
  3
TSTACKALIGN
350
4BA
  3
TSTACKSIZE
350
4BB
  3
UCSBASE
350
4D2
  3
UCSORGBACK
350
4D8
  3
UCSORGBOTTOM
350
4D4
  3
UCSORGFRONT
350
4D7
  3
UCSORGLEFT
350
4D5
  3
UCSORGRIGHT
350
4D6
  3
UCSORGTOP
350
4D3
  3
UCSORTHOREF
350
4D0
  3
UCSORTHOVIEW
350
4D1
  3
VERSIONGUID
350
4C5
  0
DICTIONARY
  5
4DA
102
{ACAD_REACTORS
330
C
102
}
330
C
100
AcDbDictionary
  3
CANNOSCALE
350
4E7
  3
CENTEREXE
350
4E1
  3
CENTERLTYPEFILE
350
4E2
  3
CMLEADERSTYLE
350
4DC
  3
CTABLESTYLE
350
4DB
  3
DIMASSOC
350
4E3
  3
HIDETEXT
350
4E4
  3
MSLTSCALE
350
4E8
  3
PSOLHEIGHT
350
4DE
  3
PSOLWIDTH
350
4DD
  0
XRECORD
  5
4E6
102
{ACAD_REACTORS
330
4E5
102
}
330
4E5
100
AcDbXrecord
102
VTR_0.000_0.000_1.000_1.000_VISUALSTYLE
340
2F
102
VTR_0.000_0.000_1.000_1.000_GRIDDISPLAY
 70
     3
102
VTR_0.000_0.000_1.000_1.000_GRIDMAJOR
 70
     5
102
VTR_0.000_0.000_1.000_1.000_DEFAULTLIGHTING
280
     1
102
VTR_0.000_0.000_1.000_1.000_DEFAULTLIGHTINGTYPE
 70
     1
102
VTR_0.000_0.000_1.000_1.000_BRIGHTNESS
141
0.0
102
VTR_0.000_0.000_1.000_1.000_CONTRAST
142
0.0
  0
MATERIAL
  5
45
102
{ACAD_REACTORS
330
43
102
}
102
{ACAD_XDICTIONARY
360
4EB
102
}
330
43
100
AcDbMaterial
  1
BYBLOCK
  0
MATERIAL
  5
44
102
{ACAD_REACTORS
330
43
102
}
102
{ACAD_XDICTIONARY
360
4E9
102
}
330
43
100
AcDbMaterial
  1
BYLAYER
  0
MATERIAL
  5
46
102
{ACAD_REACTORS
330
43
102
}
102
{ACAD_XDICTIONARY
360
4ED
102
}
330
43
100
AcDbMaterial
  1
GLOBAL
  0
ACAD_PROXY_OBJECT
  5
6C
102
{ACAD_REACTORS
330
6B
102
}
330
6B
100
AcDbProxyObject
 90
      499
 91
      505
 93
      610
310
40901902A4063FBFFFFFE0000000000000020400000000000020404214DD185B99185C990000000000000104090141901A00000000000004100000000000000041025764000000000000039000
340
14
340
0
340
11
340
0
 94
        0
1001
ACAD_MLEADERVER
1070
     2
  0
MLINESTYLE
  5
18
102
{ACAD_REACTORS
330
17
102
}
330
17
100
AcDbMlineStyle
  2
Standard
 70
     0
  3

 62
   256
 51
90.0
 52
90.0
 71
     2
 49
0.5
 62
   256
  6
BYLAYER
 49
-0.5
 62
   256
  6
BYLAYER
  0
ACAD_PROXY_OBJECT
  5
48
102
{ACAD_REACTORS
330
47
102
}
330
47
100
AcDbProxyObject
 90
      499
 91
      503
 93
       41
310
903313A31580
  0
ACAD_PROXY_OBJECT
  5
49
102
{ACAD_REACTORS
330
47
102
}
330
47
100
AcDbProxyObject
 90
      499
 91
      503
 93
      105
310
903313A324000000000000004000
  0
ACAD_PROXY_OBJECT
  5
4A
102
{ACAD_REACTORS
330
47
102
}
330
47
100
AcDbProxyObject
 90
      499
 91
      503
 93
      105
310
903313A344000000000000104000
  0
ACAD_PROXY_OBJECT
  5
4B
102
{ACAD_REACTORS
330
47
102
}
330
47
100
AcDbProxyObject
 90
      499
 91
      503
 93
      105
310
903313A354000000000000144000
  0
ACAD_PROXY_OBJECT
  5
4C
102
{ACAD_REACTORS
330
47
102
}
330
47
100
AcDbProxyObject
 90
      499
 91
      503
 93
      105
310
903313A384000000000000204000
  0
ACAD_PROXY_OBJECT
  5
4D
102
{ACAD_REACTORS
330
47
102
}
330
47
100
AcDbProxyObject
 90
      499
 91
      503
 93
      113
310
904313A31304000000000000244000
  0
ACAD_PROXY_OBJECT
  5
4E
102
{ACAD_REACTORS
330
47
102
}
330
47
100
AcDbProxyObject
 90
      499
 91
      503
 93
      113
310
904313A31364000000000000304000
  0
ACAD_PROXY_OBJECT
  5
4F
102
{ACAD_REACTORS
330
47
102
}
330
47
100
AcDbProxyObject
 90
      499
 91
      503
 93
      113
310
904313A32304000000000000344000
  0
ACAD_PROXY_OBJECT
  5
50
102
{ACAD_REACTORS
330
47
102
}
330
47
100
AcDbProxyObject
 90
      499
 91
      503
 93
      113
310
904313A333040000000000003E4000
  0
ACAD_PROXY_OBJECT
  5
51
102
{ACAD_REACTORS
330
47
102
}
330
47
100
AcDbProxyObject
 90
      499
 91
      503
 93
      113
310
904313A34304000000000000444000
  0
ACAD_PROXY_OBJECT
  5
52
102
{ACAD_REACTORS
330
47
102
}
330
47
100
AcDbProxyObject
 90
      499
 91
      503
 93
      113
310
904313A35304000000000000494000
  0
ACAD_PROXY_OBJECT
  5
53
102
{ACAD_REACTORS
330
47
102
}
330
47
100
AcDbProxyObject
 90
      499
 91
      503
 93
      121
310
905313A3130304000000000000594000
  0
ACAD_PROXY_OBJECT
  5
54
102
{ACAD_REACTORS
330
47
102
}
330
47
100
AcDbProxyObject
 90
      499
 91
      503
 93
      105
310
903323A310000000000000010100
  0
ACAD_PROXY_OBJECT
  5
55
102
{ACAD_REACTORS
330
47
102
}
330
47
100
AcDbProxyObject
 90
      499
 91
      503
 93
      105
310
903343A310000000000000410100
  0
ACAD_PROXY_OBJECT
  5
56
102
{ACAD_REACTORS
330
47
102
}
330
47
100
AcDbProxyObject
 90
      499
 91
      503
 93
      105
310
903383A310000000000000810100
  0
ACAD_PROXY_OBJECT
  5
57
102
{ACAD_REACTORS
330
47
102
}
330
47
100
AcDbProxyObject
 90
      499
 91
      503
 93
      113
310
90431303A310000000000000910100
  0
ACAD_PROXY_OBJECT
  5
58
102
{ACAD_REACTORS
330
47
102
}
330
47
100
AcDbProxyObject
 90
      499
 91
      503
 93
      121
310
9053130303A310000000000001650100
  0
ACAD_PROXY_OBJECT
  5
59
102
{ACAD_REACTORS
330
47
102
}
330
47
100
AcDbProxyObject
 90
      499
 91
      503
 93
      257
310
90E312F31323822203D2031272D3022000000000000200FC000000000000284000
  0
ACAD_PROXY_OBJECT
  5
5A
102
{ACAD_REACTORS
330
47
102
}
330
47
100
AcDbProxyObject
 90
      499
 91
      503
 93
      249
310
90D312F363422203D2031272D3022000000000000240FC000000000000284000
  0
ACAD_PROXY_OBJECT
  5
5B
102
{ACAD_REACTORS
330
47
102
}
330
47
100
AcDbProxyObject
 90
      499
 91
      503
 93
      249
310
90D312F333222203D2031272D3022000000000000280FC000000000000284000
  0
ACAD_PROXY_OBJECT
  5
5C
102
{ACAD_REACTORS
330
47
102
}
330
47
100
AcDbProxyObject
 90
      499
 91
      503
 93
      249
310
90D312F313622203D2031272D30220000000000002C0FC000000000000284000
  0
ACAD_PROXY_OBJECT
  5
5D
102
{ACAD_REACTORS
330
47
102
}
330
47
100
AcDbProxyObject
 90
      499
 91
      503
 93
      249
310
90D332F333222203D2031272D30220000000000002E0FC000000000000284000
  0
ACAD_PROXY_OBJECT
  5
5E
102
{ACAD_REACTORS
330
47
102
}
330
47
100
AcDbProxyObject
 90
      499
 91
      503
 93
      241
310
90C312F3822203D2031272D3022000000000000300FC000000000000284000
  0
ACAD_PROXY_OBJECT
  5
5F
102
{ACAD_REACTORS
330
47
102
}
330
47
100
AcDbProxyObject
 90
      499
 91
      503
 93
      249
310
90D332F313622203D2031272D3022000000000000320FC000000000000284000
  0
ACAD_PROXY_OBJECT
  5
60
102
{ACAD_REACTORS
330
47
102
}
330
47
100
AcDbProxyObject
 90
      499
 91
      503
 93
      241
310
90C312F3422203D2031272D3022000000000000340FC000000000000284000
  0
ACAD_PROXY_OBJECT
  5
61
102
{ACAD_REACTORS
330
47
102
}
330
47
100
AcDbProxyObject
 90
      499
 91
      503
 93
      241
310
90C332F3822203D2031272D3022000000000000360FC000000000000284000
  0
ACAD_PROXY_OBJECT
  5
62
102
{ACAD_REACTORS
330
47
102
}
330
47
100
AcDbProxyObject
 90
      499
 91
      503
 93
      241
310
90C312F3222203D2031272D3022000000000000380FC000000000000284000
  0
ACAD_PROXY_OBJECT
  5
63
102
{ACAD_REACTORS
330
47
102
}
330
47
100
AcDbProxyObject
 90
      499
 91
      503
 93
      241
310
90C332F3422203D2031272D30220000000000003A0FC000000000000284000
  0
ACAD_PROXY_OBJECT
  5
64
102
{ACAD_REACTORS
330
47
102
}
330
47
100
AcDbProxyObject
 90
      499
 91
      503
 93
      161
310
90A3122203D2031272D30224000000000000284000
  0
ACAD_PROXY_OBJECT
  5
65
102
{ACAD_REACTORS
330
47
102
}
330
47
100
AcDbProxyObject
 90
      499
 91
      503
 93
      257
310
90E312D312F3222203D2031272D30220000000000003E0FC000000000000284000
  0
ACAD_PROXY_OBJECT
  5
66
102
{ACAD_REACTORS
330
47
102
}
330
47
100
AcDbProxyObject
 90
      499
 91
      503
 93
      225
310
90A3322203D2031272D302200000000000002100000000000000284000
  0
ACAD_PROXY_OBJECT
  5
67
102
{ACAD_REACTORS
330
47
102
}
330
47
100
AcDbProxyObject
 90
      499
 91
      503
 93
      225
310
90A3622203D2031272D302200000000000006100000000000000284000
  0
ACAD_PROXY_OBJECT
  5
68
102
{ACAD_REACTORS
330
47
102
}
330
47
100
AcDbProxyObject
 90
      499
 91
      503
 93
      249
310
90D31272D3022203D2031272D30220000000000000A100000000000000284000
  0
ACAD_PROXY_OBJECT
  5
2F
102
{ACAD_REACTORS
330
2A
102
}
330
2A
100
AcDbProxyObject
 90
      499
 91
      501
 93
      436
310
42CC9915DA5C99599C985B595049028333333333333E33F0000000000000F90107901411070040501600405405064090741402480A0340
1001
ACAD
1000
AcDbSavedByObjectVersion
1070
     0
  0
ACAD_PROXY_OBJECT
  5
32
102
{ACAD_REACTORS
330
2A
102
}
330
2A
100
AcDbProxyObject
 90
      499
 91
      501
 93
      388
310
4150985CDA58D07406404333333333333E33F0000000000000F90107A41107004050150841D405064090741402480A0350
1001
ACAD
1000
AcDbSavedByObjectVersion
1070
     0
  0
ACAD_PROXY_OBJECT
  5
36
102
{ACAD_REACTORS
330
2A
102
}
330
2A
100
AcDbProxyObject
 90
      499
 91
      501
 93
      428
310
42109C9A59DA1D195B90C409028333333333333E33F0000000000000F9010790141107004050150841D405064090741402480A029950
1001
ACAD
1000
AcDbSavedByObjectVersion
1070
     0
  0
ACAD_PROXY_OBJECT
  5
3A
102
{ACAD_REACTORS
330
2A
102
}
330
2A
100
AcDbProxyObject
 90
      499
 91
      501
 93
      452
310
42D0DBDB1BDC90DA185B99D95104090240C333333333333E33F0000000000000F90108901411070040501508421405064090741402480A0350
1001
ACAD
1000
AcDbSavedByObjectVersion
1070
     0
  0
ACAD_PROXY_OBJECT
  5
34
102
{ACAD_REACTORS
330
2A
102
}
330
2A
100
AcDbProxyObject
 90
      499
 91
      501
 93
      500
310
4290DBDB98D95C1D1D585B10940D028333333333333E33F0000000000000F90107902409070040501000000000018199010841D405064090740C02480A0340
1001
ACAD
1000
AcDbSavedByObjectVersion
1070
     0
  0
ACAD_PROXY_OBJECT
  5
35
102
{ACAD_REACTORS
330
2A
102
}
330
2A
100
AcDbProxyObject
 90
      499
 91
      501
 93
      412
310
40D11A5B50B409028333333333333E33F0000000000000F9010790141107004050150841D405064090741402480A02677FFFFFD0
1001
ACAD
1000
AcDbSavedByObjectVersion
1070
     0
  0
ACAD_PROXY_OBJECT
  5
3D
102
{ACAD_REACTORS
330
2A
102
}
330
2A
100
AcDbProxyObject
 90
      499
 91
      501
 93
      452
310
43115919D950DBDB1BDC93D999916409028333333333333E33F0000000000000F9010790141107004050150841D405064090741402480A0350
1001
ACAD
1000
AcDbSavedByObjectVersion
1070
     0
  0
ACAD_PROXY_OBJECT
  5
39
102
{ACAD_REACTORS
330
2A
102
}
330
2A
100
AcDbProxyObject
 90
      499
 91
      501
 93
      444
310
42D19858D95C185D1D195C9B90F409028333333333333E33F0000000000000F9010790141107004050150841D405064090741402480A0350
1001
ACAD
1000
AcDbSavedByObjectVersion
1070
     0
  0
ACAD_PROXY_OBJECT
  5
2B
102
{ACAD_REACTORS
330
2A
102
}
330
2A
100
AcDbProxyObject
 90
      499
 91
      501
 93
      380
310
41119B185D240901404333333333333E33F0000000000000F9010740A907004050150841D405064090741402480A1B50
1001
ACAD
1000
AcDbSavedByObjectVersion
1070
     0
  0
ACAD_PROXY_OBJECT
  5
2C
102
{ACAD_REACTORS
330
2A
102
}
330
2A
100
AcDbProxyObject
 90
      499
 91
      501
 93
      468
310
43519B185D15DA5D1A115919D95CD0140901404333333333333E33F0000000000000F90107409019070040501600405405064090741402480A1B50
1001
ACAD
1000
AcDbSavedByObjectVersion
1070
     0
  0
ACAD_PROXY_OBJECT
  5
2D
102
{ACAD_REACTORS
330
2A
102
}
330
2A
100
AcDbProxyObject
 90
      499
 91
      501
 93
      404
310
41D1DBDD5C985D5910240902404333333333333E33F0000000000000F9010740A9070040501641D405064090741402480A1B50
1001
ACAD
1000
AcDbSavedByObjectVersion
1070
     0
  0
ACAD_PROXY_OBJECT
  5
2E
102
{ACAD_REACTORS
330
2A
102
}
330
2A
100
AcDbProxyObject
 90
      499
 91
      501
 93
      492
310
4411DBDD5C985D5915DA5D1A115919D95CD0340902404333333333333E33F0000000000000F90107409019070040501600405405064090741402480A1B50
1001
ACAD
1000
AcDbSavedByObjectVersion
1070
     0
  0
ACAD_PROXY_OBJECT
  5
31
102
{ACAD_REACTORS
330
2A
102
}
330
2A
100
AcDbProxyObject
 90
      499
 91
      501
 93
      476
310
41921A5919195B90640502408333333333333E33F0000000000000F901079024090700405020000000000001110200405405064090740C02480A0340
1001
ACAD
1000
AcDbSavedByObjectVersion
1070
     0
  0
ACAD_PROXY_OBJECT
  5
3B
102
{ACAD_REACTORS
330
2A
102
}
330
2A
100
AcDbProxyObject
 90
      499
 91
      501
 93
      428
310
42529A5D1D195C93D999914409028333333333333E33F0000000000000F9010790141107004050150A41D405064090741402480A0350
1001
ACAD
1000
AcDbSavedByObjectVersion
1070
     0
  0
ACAD_PROXY_OBJECT
  5
38
102
{ACAD_REACTORS
330
2A
102
}
330
2A
100
AcDbProxyObject
 90
      499
 91
      501
 93
      444
310
42D31A5B995C185D1D195C9B90E409028333333333333E33F0000000000000F9010790141107004050750841D405064090741402483A0350
1001
ACAD
1000
AcDbSavedByObjectVersion
1070
     0
  0
ACAD_PROXY_OBJECT
  5
3C
102
{ACAD_REACTORS
330
2A
102
}
330
2A
100
AcDbProxyObject
 90
      499
 91
      501
 93
      444
310
42D3DD995C9A185B99D3D999915409028333333333333E33F0000000000000F9010790141107004050150941D405064090741402480A0350
1001
ACAD
1000
AcDbSavedByObjectVersion
1070
     0
  0
ACAD_PROXY_OBJECT
  5
33
102
{ACAD_REACTORS
330
2A
102
}
330
2A
100
AcDbProxyObject
 90
      499
 91
      501
 93
      428
310
425499585B1A5CDD1A58D08409038333333333333E33F0000000000000F9010740A907004050150800405405064090740C02480A1B40
1001
ACAD
1000
AcDbSavedByObjectVersion
1070
     0
  0
ACAD_PROXY_OBJECT
  5
42
102
{ACAD_REACTORS
330
2A
102
}
330
2A
100
AcDbProxyObject
 90
      499
 91
      501
 93
      420
310
4194DA1859195911B40902404333333333333E33F0000000000000F9010740A41107004050150800405405064090840C02480A0B40
1001
ACAD
1000
AcDbSavedByObjectVersion
1070
     0
  0
ACAD_PROXY_OBJECT
  5
41
102
{ACAD_REACTORS
330
2A
102
}
330
2A
100
AcDbProxyObject
 90
      499
 91
      501
 93
      516
310
4454DA18591959081DDA5D1A08195919D95CD1A40902404333333333333E33F0000000000000F901074090142907004050250800405405064090740C02480A0B40
1001
ACAD
1000
AcDbSavedByObjectVersion
1070
     0
  0
ACAD_PROXY_OBJECT
  5
3E
102
{ACAD_REACTORS
330
2A
102
}
330
2A
100
AcDbProxyObject
 90
      499
 91
      501
 93
      532
310
4394DA1859195CC81BD98811DC985E5174090240C333333333333E33F0000000000000F901079024090741D01000000000000111010841D405064090740C02480A0340
1001
ACAD
1000
AcDbSavedByObjectVersion
1070
     0
  0
ACAD_PROXY_OBJECT
  5
3F
102
{ACAD_REACTORS
330
2A
102
}
330
2A
100
AcDbProxyObject
 90
      499
 91
      501
 93
      476
310
41D4DAD95D18DA1E51840502408333333333333E33F0000000000000F901079024090741D01000000000000111010B41D405064090741802480A0340
1001
ACAD
1000
AcDbSavedByObjectVersion
1070
     0
  0
ACAD_PROXY_OBJECT
  5
37
102
{ACAD_REACTORS
330
2A
102
}
330
2A
100
AcDbProxyObject
 90
      499
 91
      501
 93
      412
310
41D51A1A58DAD95B90D409028333333333333E33F0000000000000F9010790141107004050150C41D405064090741402480A0350
1001
ACAD
1000
AcDbSavedByObjectVersion
1070
     0
  0
ACAD_PROXY_OBJECT
  5
30
102
{ACAD_REACTORS
330
2A
102
}
330
2A
100
AcDbProxyObject
 90
      499
 91
      501
 93
      420
310
4255DA5C99599C985B595059028333333333333E33F0000000000000F90107901411070040501600405405064090740C02480A0340
1001
ACAD
1000
AcDbSavedByObjectVersion
1070
     0
  0
ACAD_PROXY_OBJECT
  5
40
102
{ACAD_REACTORS
330
2A
102
}
330
2A
100
AcDbProxyObject
 90
      499
 91
      501
 93
      404
310
41560B54985E51940902404000000000000E03F0000000000000F9010740501907004050150841D405064090740C02480A1B40
1001
ACAD
1000
AcDbSavedByObjectVersion
1070
     0
  0
XRECORD
  5
4C3
102
{ACAD_REACTORS
330
4B9
102
}
330
4B9
100
AcDbXrecord
340
0
  0
XRECORD
  5
4C2
102
{ACAD_REACTORS
330
4B9
102
}
330
4B9
100
AcDbXrecord
 90
        0
  0
XRECORD
  5
4D9
102
{ACAD_REACTORS
330
4B9
102
}
330
4B9
100
AcDbXrecord
1000
DSTYLE
1002
{
1070
   340
340
11
1002
}
  0
XRECORD
  5
4C4
102
{ACAD_REACTORS
330
4B9
102
}
330
4B9
100
AcDbXrecord
  1
{cd5af3fa-70cf-4d0e-b8ef-d8e2ab1e505c}
  0
XRECORD
  5
4BC
102
{ACAD_REACTORS
330
4B9
102
}
330
4B9
100
AcDbXrecord
  1

  0
XRECORD
  5
4C1
102
{ACAD_REACTORS
330
4B9
102
}
330
4B9
100
AcDbXrecord
 90
        4
  0
XRECORD
  5
4BE
102
{ACAD_REACTORS
330
4B9
102
}
330
4B9
100
AcDbXrecord
340
1A
  0
XRECORD
  5
4C0
102
{ACAD_REACTORS
330
4B9
102
}
330
4B9
100
AcDbXrecord
 90
    10781
  0
XRECORD
  5
4BF
102
{ACAD_REACTORS
330
4B9
102
}
330
4B9
100
AcDbXrecord
340
19
  0
XRECORD
  5
4C6
102
{ACAD_REACTORS
330
4B9
102
}
330
4B9
100
AcDbXrecord
 40
0.0
  0
XRECORD
  5
4C9
102
{ACAD_REACTORS
330
4B9
102
}
330
4B9
100
AcDbXrecord
340
0
  0
XRECORD
  5
4CF
102
{ACAD_REACTORS
330
4B9
102
}
330
4B9
100
AcDbXrecord
 10
0.0
 20
0.0
 30
0.0
  0
XRECORD
  5
4CB
102
{ACAD_REACTORS
330
4B9
102
}
330
4B9
100
AcDbXrecord
 10
0.0
 20
0.0
 30
0.0
  0
XRECORD
  5
4CE
102
{ACAD_REACTORS
330
4B9
102
}
330
4B9
100
AcDbXrecord
 10
0.0
 20
0.0
 30
0.0
  0
XRECORD
  5
4CC
102
{ACAD_REACTORS
330
4B9
102
}
330
4B9
100
AcDbXrecord
 10
0.0
 20
0.0
 30
0.0
  0
XRECORD
  5
4CD
102
{ACAD_REACTORS
330
4B9
102
}
330
4B9
100
AcDbXrecord
 10
0.0
 20
0.0
 30
0.0
  0
XRECORD
  5
4CA
102
{ACAD_REACTORS
330
4B9
102
}
330
4B9
100
AcDbXrecord
 10
0.0
 20
0.0
 30
0.0
  0
XRECORD
  5
4C7
102
{ACAD_REACTORS
330
4B9
102
}
330
4B9
100
AcDbXrecord
340
0
  0
XRECORD
  5
4C8
102
{ACAD_REACTORS
330
4B9
102
}
330
4B9
100
AcDbXrecord
 70
     0
  0
XRECORD
  5
4BD
102
{ACAD_REACTORS
330
4B9
102
}
330
4B9
100
AcDbXrecord
  1

  0
XRECORD
  5
4BA
102
{ACAD_REACTORS
330
4B9
102
}
330
4B9
100
AcDbXrecord
 90
        1
  0
XRECORD
  5
4BB
102
{ACAD_REACTORS
330
4B9
102
}
330
4B9
100
AcDbXrecord
 90
       70
  0
XRECORD
  5
4D2
102
{ACAD_REACTORS
330
4B9
102
}
330
4B9
100
AcDbXrecord
340
0
  0
XRECORD
  5
4D8
102
{ACAD_REACTORS
330
4B9
102
}
330
4B9
100
AcDbXrecord
 10
0.0
 20
0.0
 30
0.0
  0
XRECORD
  5
4D4
102
{ACAD_REACTORS
330
4B9
102
}
330
4B9
100
AcDbXrecord
 10
0.0
 20
0.0
 30
0.0
  0
XRECORD
  5
4D7
102
{ACAD_REACTORS
330
4B9
102
}
330
4B9
100
AcDbXrecord
 10
0.0
 20
0.0
 30
0.0
  0
XRECORD
  5
4D5
102
{ACAD_REACTORS
330
4B9
102
}
330
4B9
100
AcDbXrecord
 10
0.0
 20
0.0
 30
0.0
  0
XRECORD
  5
4D6
102
{ACAD_REACTORS
330
4B9
102
}
330
4B9
100
AcDbXrecord
 10
0.0
 20
0.0
 30
0.0
  0
XRECORD
  5
4D3
102
{ACAD_REACTORS
330
4B9
102
}
330
4B9
100
AcDbXrecord
 10
0.0
 20
0.0
 30
0.0
  0
XRECORD
  5
4D0
102
{ACAD_REACTORS
330
4B9
102
}
330
4B9
100
AcDbXrecord
340
0
  0
XRECORD
  5
4D1
102
{ACAD_REACTORS
330
4B9
102
}
330
4B9
100
AcDbXrecord
 70
     0
  0
XRECORD
  5
4C5
102
{ACAD_REACTORS
330
4B9
102
}
330
4B9
100
AcDbXrecord
  1
{FAEB1C32-E019-11D5-929B-00C0DF256EC4}
  0
DICTIONARYVAR
  5
4E7
102
{ACAD_REACTORS
330
4DA
102
}
330
4DA
100
DictionaryVariables
280
     0
  1
1:1
  0
DICTIONARYVAR
  5
4E1
102
{ACAD_REACTORS
330
4DA
102
}
330
4DA
100
DictionaryVariables
280
     0
  1
3.500000
  0
DICTIONARYVAR
  5
4E2
102
{ACAD_REACTORS
330
4DA
102
}
330
4DA
100
DictionaryVariables
280
     0
  1
acadiso.lin
  0
DICTIONARYVAR
  5
4DC
102
{ACAD_REACTORS
330
4DA
102
}
330
4DA
100
DictionaryVariables
280
     0
  1
Standard
  0
DICTIONARYVAR
  5
4DB
102
{ACAD_REACTORS
330
4DA
102
}
330
4DA
100
DictionaryVariables
280
     0
  1
Standard
  0
DICTIONARYVAR
  5
4E3
102
{ACAD_REACTORS
330
4DA
102
}
330
4DA
100
DictionaryVariables
280
     0
  1
2
  0
DICTIONARYVAR
  5
4E4
102
{ACAD_REACTORS
330
4DA
102
}
330
4DA
100
DictionaryVariables
280
     0
  1
1
  0
DICTIONARYVAR
  5
4E8
102
{ACAD_REACTORS
330
4DA
102
}
330
4DA
100
DictionaryVariables
280
     0
  1
1
  0
DICTIONARYVAR
  5
4DE
102
{ACAD_REACTORS
330
4DA
102
}
330
4DA
100
DictionaryVariables
280
     0
  1
80.000000
  0
DICTIONARYVAR
  5
4DD
102
{ACAD_REACTORS
330
4DA
102
}
330
4DA
100
DictionaryVariables
280
     0
  1
5.000000
  0
DICTIONARY
  5
4EB
330
45
100
AcDbDictionary
280
     1
  3
ACAD_XREC_ROUNDTRIP
360
4EC
  0
DICTIONARY
  5
4E9
330
44
100
AcDbDictionary
280
     1
  3
ACAD_XREC_ROUNDTRIP
360
4EA
  0
DICTIONARY
  5
4ED
330
46
100
AcDbDictionary
280
     1
  3
ACAD_XREC_ROUNDTRIP
360
4EE
  0
XRECORD
  5
4EC
102
{ACAD_REACTORS
330
4EB
102
}
330
4EB
100
AcDbXrecord
102
MATERIAL
148
0.0
149
0.0
149
0.0
 93
        0
 94
      127
282
     0
 72
     1
 77
     1
171
     1
175
     1
179
     1
273
     0
  0
XRECORD
  5
4EA
102
{ACAD_REACTORS
330
4E9
102
}
330
4E9
100
AcDbXrecord
102
MATERIAL
148
0.0
149
0.0
149
0.0
 93
        0
 94
      127
282
     0
 72
     1
 77
     1
171
     1
175
     1
179
     1
273
     0
  0
XRECORD
  5
4EE
102
{ACAD_REACTORS
330
4ED
102
}
330
4ED
100
AcDbXrecord
102
MATERIAL
148
0.0
149
0.0
149
0.0
 93
        0
 94
      127
282
     0
 72
     1
 77
     1
171
     1
175
     1
179
     1
273
     0
  0
ENDSEC
  0
EOF
