  0
SECTION
  2
HEADER
  9
$ACADVER
  1
AC1014
  9
$ACADMAINTVER
 70
     9
  9
$DWGCODEPAGE
  3
ANSI_932
  9
$INSBASE
 10
0.0
 20
0.0
 30
0.0
  9
$EXTMIN
 10
40.0
 20
40.0
 30
0.0
  9
$EXTMAX
 10
1640.0
 20
1148.0
 30
0.0
  9
$LIMMIN
 10
0.0
 20
0.0
  9
$LIMMAX
 10
420.0
 20
297.0
  9
$ORTHOMODE
 70
     0
  9
$REGENMODE
 70
     1
  9
$FILLMODE
 70
     1
  9
$QTEXTMODE
 70
     0
  9
$MIRRTEXT
 70
     1
  9
$DRAGMODE
 70
     2
  9
$LTSCALE
 40
1.0
  9
$OSMODE
 70
    37
  9
$ATTMODE
 70
     1
  9
$TEXTSIZE
 40
2.5
  9
$TRACEWID
 40
1.0
  9
$TEXTSTYLE
  7
STANDARD
  9
$CLAYER
  8
Ｓ_１_１
  9
$CELTYPE
  6
BYLAYER
  9
$CECOLOR
 62
   256
  9
$CELTSCALE
 40
1.0
  9
$DELOBJ
 70
     1
  9
$DISPSILH
 70
     0
  9
$DIMSCALE
 40
1.0
  9
$DIMASZ
 40
2.5
  9
$DIMEXO
 40
0.625
  9
$DIMDLI
 40
3.75
  9
$DIMRND
 40
0.0
  9
$DIMDLE
 40
0.0
  9
$DIMEXE
 40
1.25
  9
$DIMTP
 40
0.0
  9
$DIMTM
 40
0.0
  9
$DIMTXT
 40
2.5
  9
$DIMCEN
 40
2.5
  9
$DIMTSZ
 40
0.0
  9
$DIMTOL
 70
     0
  9
$DIMLIM
 70
     0
  9
$DIMTIH
 70
     0
  9
$DIMTOH
 70
     0
  9
$DIMSE1
 70
     0
  9
$DIMSE2
 70
     0
  9
$DIMTAD
 70
     1
  9
$DIMZIN
 70
     8
  9
$DIMBLK
  1

  9
$DIMASO
 70
     1
  9
$DIMSHO
 70
     1
  9
$DIMPOST
  1

  9
$DIMAPOST
  1

  9
$DIMALT
 70
     0
  9
$DIMALTD
 70
     3
  9
$DIMALTF
 40
0.03937007874016
  9
$DIMLFAC
 40
1.0
  9
$DIMTOFL
 70
     1
  9
$DIMTVP
 40
0.0
  9
$DIMTIX
 70
     0
  9
$DIMSOXD
 70
     0
  9
$DIMSAH
 70
     0
  9
$DIMBLK1
  1

  9
$DIMBLK2
  1

  9
$DIMSTYLE
  2
ISO-25
  9
$DIMCLRD
 70
     0
  9
$DIMCLRE
 70
     0
  9
$DIMCLRT
 70
     0
  9
$DIMTFAC
 40
1.0
  9
$DIMGAP
 40
0.625
  9
$DIMJUST
 70
     0
  9
$DIMSD1
 70
     0
  9
$DIMSD2
 70
     0
  9
$DIMTOLJ
 70
     0
  9
$DIMTZIN
 70
     8
  9
$DIMALTZ
 70
     0
  9
$DIMALTTZ
 70
     0
  9
$DIMFIT
 70
     3
  9
$DIMUPT
 70
     0
  9
$DIMUNIT
 70
     2
  9
$DIMDEC
 70
     2
  9
$DIMTDEC
 70
     2
  9
$DIMALTU
 70
     2
  9
$DIMALTTD
 70
     3
  9
$DIMTXSTY
  7
STANDARD
  9
$DIMAUNIT
 70
     0
  9
$LUNITS
 70
     2
  9
$LUPREC
 70
     4
  9
$SKETCHINC
 40
1.0
  9
$FILLETRAD
 40
10.0
  9
$AUNITS
 70
     0
  9
$AUPREC
 70
     0
  9
$MENU
  1
.
  9
$ELEVATION
 40
0.0
  9
$PELEVATION
 40
0.0
  9
$THICKNESS
 40
0.0
  9
$LIMCHECK
 70
     0
  9
$CHAMFERA
 40
0.0
  9
$CHAMFERB
 40
0.0
  9
$CHAMFERC
 40
0.0
  9
$CHAMFERD
 40
0.0
  9
$SKPOLY
 70
     0
  9
$TDCREATE
 40
2459591.543245243
  9
$TDUPDATE
 40
2459591.543246296
  9
$TDINDWG
 40
0.0000000116
  9
$TDUSRTIMER
 40
0.0000000116
  9
$USRTIMER
 70
     1
  9
$ANGBASE
 50
0.0
  9
$ANGDIR
 70
     0
  9
$PDMODE
 70
     0
  9
$PDSIZE
 40
0.0
  9
$PLINEWID
 40
0.0
  9
$COORDS
 70
     1
  9
$SPLFRAME
 70
     0
  9
$SPLINETYPE
 70
     6
  9
$SPLINESEGS
 70
     8
  9
$ATTDIA
 70
     0
  9
$ATTREQ
 70
     1
  9
$HANDLING
 70
     1
  9
$HANDSEED
  5
3F5
  9
$SURFTAB1
 70
     6
  9
$SURFTAB2
 70
     6
  9
$SURFTYPE
 70
     6
  9
$SURFU
 70
     6
  9
$SURFV
 70
     6
  9
$UCSNAME
  2

  9
$UCSORG
 10
0.0
 20
0.0
 30
0.0
  9
$UCSXDIR
 10
1.0
 20
0.0
 30
0.0
  9
$UCSYDIR
 10
0.0
 20
1.0
 30
0.0
  9
$PUCSNAME
  2

  9
$PUCSORG
 10
0.0
 20
0.0
 30
0.0
  9
$PUCSXDIR
 10
1.0
 20
0.0
 30
0.0
  9
$PUCSYDIR
 10
0.0
 20
1.0
 30
0.0
  9
$USERI1
 70
     0
  9
$USERI2
 70
     0
  9
$USERI3
 70
     0
  9
$USERI4
 70
     0
  9
$USERI5
 70
     0
  9
$USERR1
 40
0.0
  9
$USERR2
 40
0.0
  9
$USERR3
 40
0.0
  9
$USERR4
 40
0.0
  9
$USERR5
 40
0.0
  9
$WORLDVIEW
 70
     1
  9
$SHADEDGE
 70
     3
  9
$SHADEDIF
 70
    70
  9
$TILEMODE
 70
     1
  9
$MAXACTVP
 70
    64
  9
$PINSBASE
 10
0.0
 20
0.0
 30
0.0
  9
$PLIMCHECK
 70
     0
  9
$PEXTMIN
 10
1.000000000000000E+20
 20
1.000000000000000E+20
 30
1.000000000000000E+20
  9
$PEXTMAX
 10
-1.000000000000000E+20
 20
-1.000000000000000E+20
 30
-1.000000000000000E+20
  9
$PLIMMIN
 10
0.0
 20
0.0
  9
$PLIMMAX
 10
420.0
 20
297.0
  9
$UNITMODE
 70
     0
  9
$VISRETAIN
 70
     1
  9
$PLINEGEN
 70
     0
  9
$PSLTSCALE
 70
     1
  9
$TREEDEPTH
 70
  3020
  9
$PICKSTYLE
 70
     1
  9
$CMLSTYLE
  2
STANDARD
  9
$CMLJUST
 70
     0
  9
$CMLSCALE
 40
20.0
  9
$PROXYGRAPHICS
 70
     1
  9
$MEASUREMENT
 70
     1
  0
ENDSEC
  0
SECTION
  2
CLASSES
  0
CLASS
  1
ACDBDICTIONARYWDFLT
  2
AcDbDictionaryWithDefault
  3
ObjectDBX Classes
 90
        0
280
     0
281
     0
  0
CLASS
  1
VISUALSTYLE
  2
AcDbVisualStyle
  3
ObjectDBX Classes
 90
     4095
280
     0
281
     0
  0
CLASS
  1
MATERIAL
  2
AcDbMaterial
  3
ObjectDBX Classes
 90
     1153
280
     0
281
     0
  0
CLASS
  1
SCALE
  2
AcDbScale
  3
ObjectDBX Classes
 90
     1153
280
     0
281
     0
  0
CLASS
  1
TABLESTYLE
  2
AcDbTableStyle
  3
ObjectDBX Classes
 90
     4095
280
     0
281
     0
  0
CLASS
  1
MLEADERSTYLE
  2
AcDbMLeaderStyle
  3
ACDB_MLEADERSTYLE_CLASS
 90
     4095
280
     0
281
     0
  0
CLASS
  1
SUN
  2
AcDbSun
  3
SCENEOE
 90
     1153
280
     0
281
     0
  0
CLASS
  1
DICTIONARYVAR
  2
AcDbDictionaryVar
  3
ObjectDBX Classes
 90
        0
280
     0
281
     0
  0
CLASS
  1
XRECORD
  2
AcDbXrecord
  3
ObjectDBX Classes
 90
        0
280
     0
281
     0
  0
CLASS
  1
LWPOLYLINE
  2
AcDbPolyline
  3
ObjectDBX Classes
 90
        0
280
     0
281
     1
  0
CLASS
  1
HATCH
  2
AcDbHatch
  3
ObjectDBX Classes
 90
        0
280
     0
281
     1
  0
CLASS
  1
ACDBPLACEHOLDER
  2
AcDbPlaceHolder
  3
ObjectDBX Classes
 90
        0
280
     0
281
     0
  0
CLASS
  1
LAYOUT
  2
AcDbLayout
  3
ObjectDBX Classes
 90
        0
280
     0
281
     0
  0
ENDSEC
  0
SECTION
  2
TABLES
  0
TABLE
  2
VPORT
  5
8
102
{ACAD_XDICTIONARY
360
3EA
102
}
330
0
100
AcDbSymbolTable
 70
     1
  0
VPORT
  5
29
330
8
100
AcDbSymbolTableRecord
100
AcDbViewportTableRecord
  2
*ACTIVE
 70
     0
 10
0.0
 20
0.0
 11
1.0
 21
1.0
 12
840.0
 22
594.0
 13
0.0
 23
0.0
 14
10.0
 24
10.0
 15
10.0
 25
10.0
 16
0.0
 26
0.0
 36
1.0
 17
0.0
 27
0.0
 37
0.0
 40
1108.0
 41
1.444043321299639
 42
50.0
 43
0.0
 44
0.0
 50
0.0
 51
0.0
 71
     0
 72
  1000
 73
     1
 74
     3
 75
     0
 76
     0
 77
     0
 78
     0
  0
ENDTAB
  0
TABLE
  2
LTYPE
  5
5
330
0
100
AcDbSymbolTable
 70
     8
  0
LTYPE
  5
14
330
5
100
AcDbSymbolTableRecord
100
AcDbLinetypeTableRecord
  2
BYBLOCK
 70
     0
  3

 72
    65
 73
     0
 40
0.0
  0
LTYPE
  5
15
330
5
100
AcDbSymbolTableRecord
100
AcDbLinetypeTableRecord
  2
BYLAYER
 70
     0
  3

 72
    65
 73
     0
 40
0.0
  0
LTYPE
  5
16
330
5
100
AcDbSymbolTableRecord
100
AcDbLinetypeTableRecord
  2
CONTINUOUS
 70
     0
  3
Solid line
 72
    65
 73
     0
 40
0.0
  0
LTYPE
  5
6E
330
5
100
AcDbSymbolTableRecord
100
AcDbLinetypeTableRecord
  2
EXLTYPE0
 70
     0
  3
破線
 72
    65
 73
     2
 40
4.0
 49
3.0
 74
     0
 49
-1.0
 74
     0
  0
LTYPE
  5
6F
330
5
100
AcDbSymbolTableRecord
100
AcDbLinetypeTableRecord
  2
EXLTYPE1
 70
     0
  3
点線
 72
    65
 73
     2
 40
2.0
 49
1.0
 74
     0
 49
-1.0
 74
     0
  0
LTYPE
  5
70
330
5
100
AcDbSymbolTableRecord
100
AcDbLinetypeTableRecord
  2
EXLTYPE2
 70
     0
  3
一点鎖線
 72
    65
 73
     4
 40
13.0
 49
10.0
 74
     0
 49
-1.0
 74
     0
 49
1.0
 74
     0
 49
-1.0
 74
     0
  0
LTYPE
  5
71
330
5
100
AcDbSymbolTableRecord
100
AcDbLinetypeTableRecord
  2
EXLTYPE3
 70
     0
  3
二点鎖線
 72
    65
 73
     6
 40
15.0
 49
10.0
 74
     0
 49
-1.0
 74
     0
 49
1.0
 74
     0
 49
-1.0
 74
     0
 49
1.0
 74
     0
 49
-1.0
 74
     0
  0
LTYPE
  5
72
330
5
100
AcDbSymbolTableRecord
100
AcDbLinetypeTableRecord
  2
EXLTYPE4
 70
     0
  3
一点鎖線2
 72
    65
 73
     4
 40
3.5
 49
2.0
 74
     0
 49
-0.5
 74
     0
 49
0.5
 74
     0
 49
-0.5
 74
     0
  0
LTYPE
  5
73
330
5
100
AcDbSymbolTableRecord
100
AcDbLinetypeTableRecord
  2
EXLTYPE5
 70
     0
  3
二点鎖線2
 72
    65
 73
     6
 40
4.5
 49
2.0
 74
     0
 49
-0.5
 74
     0
 49
0.5
 74
     0
 49
-0.5
 74
     0
 49
0.5
 74
     0
 49
-0.5
 74
     0
  0
LTYPE
  5
74
330
5
100
AcDbSymbolTableRecord
100
AcDbLinetypeTableRecord
  2
EXLTYPE6
 70
     0
  3
一点鎖線5
 72
    65
 73
     4
 40
13.0
 49
10.0
 74
     0
 49
-1.0
 74
     0
 49
1.0
 74
     0
 49
-1.0
 74
     0
  0
ENDTAB
  0
TABLE
  2
LAYER
  5
2
330
0
100
AcDbSymbolTable
 70
     4
  0
LAYER
  5
10
330
2
100
AcDbSymbolTableRecord
100
AcDbLayerTableRecord
  2
0
 70
     0
 62
     7
  6
CONTINUOUS
  0
LAYER
  5
77
330
2
100
AcDbSymbolTableRecord
100
AcDbLayerTableRecord
  2
図面枠
 70
     4
 62
     7
  6
CONTINUOUS
  0
LAYER
  5
78
330
2
100
AcDbSymbolTableRecord
100
AcDbLayerTableRecord
  2
Ｓ_１_１
 70
     0
 62
     7
  6
CONTINUOUS
  0
LAYER
  5
11E
330
2
100
AcDbSymbolTableRecord
100
AcDbLayerTableRecord
  2
DEFPOINTS
 70
     0
 62
     7
  6
CONTINUOUS
  0
ENDTAB
  0
TABLE
  2
STYLE
  5
3
330
0
100
AcDbSymbolTable
 70
     5
  0
STYLE
  5
11
330
3
100
AcDbSymbolTableRecord
100
AcDbTextStyleTableRecord
  2
STANDARD
 70
     0
 40
0.0
 41
1.0
 50
0.0
 71
     0
 42
2.5
  3
monotxt
  4
extfont
  0
STYLE
  5
75
330
3
100
AcDbSymbolTableRecord
100
AcDbTextStyleTableRecord
  2
EXCADSTD
 70
     0
 40
0.0
 41
1.0
 50
0.0
 71
     0
 42
2.5
  3
monotxt
  4
extfont
  0
STYLE
  5
76
330
3
100
AcDbSymbolTableRecord
100
AcDbTextStyleTableRecord
  2
EXCADVERT
 70
     4
 40
0.0
 41
1.0
 50
0.0
 71
     0
 42
2.5
  3
monotxt
  4
extfont
  0
STYLE
  5
DB
330
3
100
AcDbSymbolTableRecord
100
AcDbTextStyleTableRecord
  2
EXCADTTF1
 70
     0
 40
0.0
 41
1.0
 50
0.0
 71
     0
 42
2.5
  3
msgothic.ttc
  4

1001
ACAD
1000
MS Gothic
1071
    32817
  0
STYLE
  5
11C
330
3
100
AcDbSymbolTableRecord
100
AcDbTextStyleTableRecord
  2
EXCADDIM1
 70
     0
 40
0.0
 41
1.0
 50
0.0
 71
     0
 42
2.5
  3
msgothic.ttc
  4

1001
ACAD
1000
MS Gothic
1071
    32817
  0
ENDTAB
  0
TABLE
  2
VIEW
  5
6
330
0
100
AcDbSymbolTable
 70
     0
  0
ENDTAB
  0
TABLE
  2
UCS
  5
7
330
0
100
AcDbSymbolTable
 70
     0
  0
ENDTAB
  0
TABLE
  2
APPID
  5
9
330
0
100
AcDbSymbolTable
 70
     2
  0
APPID
  5
12
330
9
100
AcDbSymbolTableRecord
100
AcDbRegAppTableRecord
  2
ACAD
 70
     0
  0
APPID
  5
3F4
330
9
100
AcDbSymbolTableRecord
100
AcDbRegAppTableRecord
  2
ACAD_MLEADERVER
 70
     0
  0
ENDTAB
  0
TABLE
  2
DIMSTYLE
  5
A
330
0
100
AcDbSymbolTable
 70
     1
  0
DIMSTYLE
105
27
102
{ACAD_REACTORS
330
11D
330
129
330
135
330
143
330
14F
330
15B
330
168
330
175
330
181
330
18F
330
19E
330
2AB
330
2B8
330
2C5
102
}
330
A
100
AcDbSymbolTableRecord
100
AcDbDimStyleTableRecord
  2
ISO-25
 70
     0
  3

  4

  5

  6

  7

 40
1.0
 41
2.5
 42
0.625
 43
3.75
 44
1.25
 45
0.0
 46
0.0
 47
0.0
 48
0.0
140
2.5
141
2.5
142
0.0
143
0.03937007874016
144
1.0
145
0.0
146
1.0
147
0.625
 71
     0
 72
     0
 73
     0
 74
     0
 75
     0
 76
     0
 77
     1
 78
     8
170
     0
171
     3
172
     1
173
     0
174
     0
175
     0
176
     0
177
     0
178
     0
270
     2
271
     2
272
     2
273
     2
274
     3
340
11
275
     0
280
     0
281
     0
282
     0
283
     0
284
     8
285
     0
286
     0
287
     5
288
     0
  0
ENDTAB
  0
TABLE
  2
BLOCK_RECORD
  5
1
330
0
100
AcDbSymbolTable
 70
    28
  0
BLOCK_RECORD
  5
1F
330
1
100
AcDbSymbolTableRecord
100
AcDbBlockTableRecord
  2
*MODEL_SPACE
  0
BLOCK_RECORD
  5
1B
330
1
100
AcDbSymbolTableRecord
100
AcDbBlockTableRecord
  2
*PAPER_SPACE
  0
BLOCK_RECORD
  5
79
330
1
100
AcDbSymbolTableRecord
100
AcDbBlockTableRecord
  2
EX_NORM
  0
BLOCK_RECORD
  5
7C
330
1
100
AcDbSymbolTableRecord
100
AcDbBlockTableRecord
  2
EX_BNORM
  0
BLOCK_RECORD
  5
7F
330
1
100
AcDbSymbolTableRecord
100
AcDbBlockTableRecord
  2
EX_BCIR
  0
BLOCK_RECORD
  5
82
330
1
100
AcDbSymbolTableRecord
100
AcDbBlockTableRecord
  2
EX_RCIVIL
  0
BLOCK_RECORD
  5
85
330
1
100
AcDbSymbolTableRecord
100
AcDbBlockTableRecord
  2
EX_SLANT
  0
BLOCK_RECORD
  5
88
330
1
100
AcDbSymbolTableRecord
100
AcDbBlockTableRecord
  2
EX_NONE
  0
BLOCK_RECORD
  5
8B
330
1
100
AcDbSymbolTableRecord
100
AcDbBlockTableRecord
  2
EX_CIVIL
  0
BLOCK_RECORD
  5
8E
330
1
100
AcDbSymbolTableRecord
100
AcDbBlockTableRecord
  2
EX_WCIR
  0
BLOCK_RECORD
  5
91
330
1
100
AcDbSymbolTableRecord
100
AcDbBlockTableRecord
  2
EX_WCIR2
  0
BLOCK_RECORD
  5
94
330
1
100
AcDbSymbolTableRecord
100
AcDbBlockTableRecord
  2
EX_WNORM
  0
BLOCK_RECORD
  5
97
330
1
100
AcDbSymbolTableRecord
100
AcDbBlockTableRecord
  2
EX_NNORM
  0
BLOCK_RECORD
  5
9A
330
1
100
AcDbSymbolTableRecord
100
AcDbBlockTableRecord
  2
EX_BBOX
  0
BLOCK_RECORD
  5
9D
330
1
100
AcDbSymbolTableRecord
100
AcDbBlockTableRecord
  2
EX_WBOX
  0
BLOCK_RECORD
  5
A0
330
1
100
AcDbSymbolTableRecord
100
AcDbBlockTableRecord
  2
EX_INTEGRAL
  0
BLOCK_RECORD
  5
11F
330
1
100
AcDbSymbolTableRecord
100
AcDbBlockTableRecord
  2
*D15
  0
BLOCK_RECORD
  5
12A
330
1
100
AcDbSymbolTableRecord
100
AcDbBlockTableRecord
  2
*D16
  0
BLOCK_RECORD
  5
136
330
1
100
AcDbSymbolTableRecord
100
AcDbBlockTableRecord
  2
*D17
  0
BLOCK_RECORD
  5
144
330
1
100
AcDbSymbolTableRecord
100
AcDbBlockTableRecord
  2
*D18
  0
BLOCK_RECORD
  5
150
330
1
100
AcDbSymbolTableRecord
100
AcDbBlockTableRecord
  2
*D19
  0
BLOCK_RECORD
  5
15C
330
1
100
AcDbSymbolTableRecord
100
AcDbBlockTableRecord
  2
*D20
  0
BLOCK_RECORD
  5
169
330
1
100
AcDbSymbolTableRecord
100
AcDbBlockTableRecord
  2
*D21
  0
BLOCK_RECORD
  5
176
330
1
100
AcDbSymbolTableRecord
100
AcDbBlockTableRecord
  2
*D22
  0
BLOCK_RECORD
  5
182
330
1
100
AcDbSymbolTableRecord
100
AcDbBlockTableRecord
  2
*D23
  0
BLOCK_RECORD
  5
190
330
1
100
AcDbSymbolTableRecord
100
AcDbBlockTableRecord
  2
*D24
  0
BLOCK_RECORD
  5
19F
330
1
100
AcDbSymbolTableRecord
100
AcDbBlockTableRecord
  2
*D25
  0
BLOCK_RECORD
  5
2AC
330
1
100
AcDbSymbolTableRecord
100
AcDbBlockTableRecord
  2
*D26
  0
BLOCK_RECORD
  5
2B9
330
1
100
AcDbSymbolTableRecord
100
AcDbBlockTableRecord
  2
*D27
  0
BLOCK_RECORD
  5
2C6
330
1
100
AcDbSymbolTableRecord
100
AcDbBlockTableRecord
  2
*D28
  0
ENDTAB
  0
ENDSEC
  0
SECTION
  2
BLOCKS
  0
BLOCK
  5
20
330
1F
100
AcDbEntity
  8
0
100
AcDbBlockBegin
  2
*MODEL_SPACE
 70
     0
 10
0.0
 20
0.0
 30
0.0
  3
*MODEL_SPACE
  1

  0
ENDBLK
  5
21
330
1F
100
AcDbEntity
  8
0
100
AcDbBlockEnd
  0
BLOCK
  5
1C
330
1B
100
AcDbEntity
 67
     1
  8
0
100
AcDbBlockBegin
  2
*PAPER_SPACE
 70
     0
 10
0.0
 20
0.0
 30
0.0
  3
*PAPER_SPACE
  1

  0
ENDBLK
  5
1D
330
1B
100
AcDbEntity
 67
     1
  8
0
100
AcDbBlockEnd
  0
BLOCK
  5
7A
330
79
100
AcDbEntity
  8
0
100
AcDbBlockBegin
  2
EX_NORM
 70
     0
 10
0.0
 20
0.0
 30
0.0
  3
EX_NORM
  1

  0
LINE
  5
A3
330
79
100
AcDbEntity
  8
0
  6
CONTINUOUS
 62
     0
100
AcDbLine
 10
0.0
 20
0.0
 30
0.0
 11
-1.0
 21
0.0
 31
0.0
  0
LINE
  5
A4
330
79
100
AcDbEntity
  8
0
  6
CONTINUOUS
 62
     0
100
AcDbLine
 10
0.0
 20
0.0
 30
0.0
 11
-1.0
 21
0.166666667
 31
0.0
  0
LINE
  5
A5
330
79
100
AcDbEntity
  8
0
  6
CONTINUOUS
 62
     0
100
AcDbLine
 10
0.0
 20
0.0
 30
0.0
 11
-1.0
 21
-0.166666667
 31
0.0
  0
ENDBLK
  5
7B
330
79
100
AcDbEntity
  8
0
100
AcDbBlockEnd
  0
BLOCK
  5
7D
330
7C
100
AcDbEntity
  8
0
100
AcDbBlockBegin
  2
EX_BNORM
 70
     0
 10
0.0
 20
0.0
 30
0.0
  3
EX_BNORM
  1

  0
LINE
  5
A6
330
7C
100
AcDbEntity
  8
0
  6
CONTINUOUS
 62
     0
100
AcDbLine
 10
0.0
 20
0.0
 30
0.0
 11
-1.0
 21
0.0
 31
0.0
  0
LINE
  5
A7
330
7C
100
AcDbEntity
  8
0
  6
CONTINUOUS
 62
     0
100
AcDbLine
 10
0.0
 20
0.0
 30
0.0
 11
-1.0
 21
0.166666667
 31
0.0
  0
LINE
  5
A8
330
7C
100
AcDbEntity
  8
0
  6
CONTINUOUS
 62
     0
100
AcDbLine
 10
0.0
 20
0.0
 30
0.0
 11
-1.0
 21
-0.166666667
 31
0.0
  0
LINE
  5
A9
330
7C
100
AcDbEntity
  8
0
  6
CONTINUOUS
 62
     0
100
AcDbLine
 10
0.0
 20
0.0
 30
0.0
 11
-1.0
 21
0.083333333
 31
0.0
  0
LINE
  5
AA
330
7C
100
AcDbEntity
  8
0
  6
CONTINUOUS
 62
     0
100
AcDbLine
 10
0.0
 20
0.0
 30
0.0
 11
-1.0
 21
-0.083333333
 31
0.0
  0
LINE
  5
AB
330
7C
100
AcDbEntity
  8
0
  6
CONTINUOUS
 62
     0
100
AcDbLine
 10
-1.0
 20
0.166666667
 30
0.0
 11
-1.0
 21
-0.166666667
 31
0.0
  0
ENDBLK
  5
7E
330
7C
100
AcDbEntity
  8
0
100
AcDbBlockEnd
  0
BLOCK
  5
80
330
7F
100
AcDbEntity
  8
0
100
AcDbBlockBegin
  2
EX_BCIR
 70
     0
 10
0.0
 20
0.0
 30
0.0
  3
EX_BCIR
  1

  0
LINE
  5
AC
330
7F
100
AcDbEntity
  8
0
  6
CONTINUOUS
 62
     0
100
AcDbLine
 10
0.0
 20
0.0
 30
0.0
 11
-1.0
 21
0.0
 31
0.0
  0
CIRCLE
  5
AD
330
7F
100
AcDbEntity
  8
0
  6
CONTINUOUS
 62
     0
100
AcDbCircle
 10
0.0
 20
0.0
 30
0.0
 40
0.5
  0
CIRCLE
  5
AE
330
7F
100
AcDbEntity
  8
0
  6
CONTINUOUS
 62
     0
100
AcDbCircle
 10
0.0
 20
0.0
 30
0.0
 40
0.25
  0
ENDBLK
  5
81
330
7F
100
AcDbEntity
  8
0
100
AcDbBlockEnd
  0
BLOCK
  5
83
330
82
100
AcDbEntity
  8
0
100
AcDbBlockBegin
  2
EX_RCIVIL
 70
     0
 10
0.0
 20
0.0
 30
0.0
  3
EX_RCIVIL
  1

  0
LINE
  5
AF
330
82
100
AcDbEntity
  8
0
  6
CONTINUOUS
 62
     0
100
AcDbLine
 10
0.0
 20
0.0
 30
0.0
 11
-1.0
 21
0.0
 31
0.0
  0
LINE
  5
B0
330
82
100
AcDbEntity
  8
0
  6
CONTINUOUS
 62
     0
100
AcDbLine
 10
-1.0
 20
-0.25
 30
0.0
 11
0.0
 21
-0.25
 31
0.0
  0
LINE
  5
B1
330
82
100
AcDbEntity
  8
0
  6
CONTINUOUS
 62
     0
100
AcDbLine
 10
-1.0
 20
-0.125
 30
0.0
 11
0.0
 21
-0.125
 31
0.0
  0
ENDBLK
  5
84
330
82
100
AcDbEntity
  8
0
100
AcDbBlockEnd
  0
BLOCK
  5
86
330
85
100
AcDbEntity
  8
0
100
AcDbBlockBegin
  2
EX_SLANT
 70
     0
 10
0.0
 20
0.0
 30
0.0
  3
EX_SLANT
  1

  0
LINE
  5
B2
330
85
100
AcDbEntity
  8
0
  6
CONTINUOUS
 62
     0
100
AcDbLine
 10
0.0
 20
0.0
 30
0.0
 11
-1.0
 21
0.0
 31
0.0
  0
LINE
  5
B3
330
85
100
AcDbEntity
  8
0
  6
CONTINUOUS
 62
     0
100
AcDbLine
 10
0.707106781
 20
0.707106781
 30
0.0
 11
-0.707106781
 21
-0.707106781
 31
0.0
  0
ENDBLK
  5
87
330
85
100
AcDbEntity
  8
0
100
AcDbBlockEnd
  0
BLOCK
  5
89
330
88
100
AcDbEntity
  8
0
100
AcDbBlockBegin
  2
EX_NONE
 70
     0
 10
0.0
 20
0.0
 30
0.0
  3
EX_NONE
  1

  0
LINE
  5
B4
330
88
100
AcDbEntity
  8
0
  6
CONTINUOUS
 62
     0
100
AcDbLine
 10
0.0
 20
0.0
 30
0.0
 11
-1.0
 21
0.0
 31
0.0
  0
ENDBLK
  5
8A
330
88
100
AcDbEntity
  8
0
100
AcDbBlockEnd
  0
BLOCK
  5
8C
330
8B
100
AcDbEntity
  8
0
100
AcDbBlockBegin
  2
EX_CIVIL
 70
     0
 10
0.0
 20
0.0
 30
0.0
  3
EX_CIVIL
  1

  0
LINE
  5
B5
330
8B
100
AcDbEntity
  8
0
  6
CONTINUOUS
 62
     0
100
AcDbLine
 10
0.0
 20
0.0
 30
0.0
 11
-1.0
 21
0.0
 31
0.0
  0
LINE
  5
B6
330
8B
100
AcDbEntity
  8
0
  6
CONTINUOUS
 62
     0
100
AcDbLine
 10
-1.0
 20
0.25
 30
0.0
 11
0.0
 21
0.25
 31
0.0
  0
LINE
  5
B7
330
8B
100
AcDbEntity
  8
0
  6
CONTINUOUS
 62
     0
100
AcDbLine
 10
-1.0
 20
0.125
 30
0.0
 11
0.0
 21
0.125
 31
0.0
  0
ENDBLK
  5
8D
330
8B
100
AcDbEntity
  8
0
100
AcDbBlockEnd
  0
BLOCK
  5
8F
330
8E
100
AcDbEntity
  8
0
100
AcDbBlockBegin
  2
EX_WCIR
 70
     0
 10
0.0
 20
0.0
 30
0.0
  3
EX_WCIR
  1

  0
LINE
  5
B8
330
8E
100
AcDbEntity
  8
0
  6
CONTINUOUS
 62
     0
100
AcDbLine
 10
0.0
 20
0.0
 30
0.0
 11
-1.0
 21
0.0
 31
0.0
  0
CIRCLE
  5
B9
330
8E
100
AcDbEntity
  8
0
  6
CONTINUOUS
 62
     0
100
AcDbCircle
 10
0.0
 20
0.0
 30
0.0
 40
0.5
  0
ENDBLK
  5
90
330
8E
100
AcDbEntity
  8
0
100
AcDbBlockEnd
  0
BLOCK
  5
92
330
91
100
AcDbEntity
  8
0
100
AcDbBlockBegin
  2
EX_WCIR2
 70
     0
 10
0.0
 20
0.0
 30
0.0
  3
EX_WCIR2
  1

  0
LINE
  5
BA
330
91
100
AcDbEntity
  8
0
  6
CONTINUOUS
 62
     0
100
AcDbLine
 10
-0.5
 20
0.0
 30
0.0
 11
-1.0
 21
0.0
 31
0.0
  0
CIRCLE
  5
BB
330
91
100
AcDbEntity
  8
0
  6
CONTINUOUS
 62
     0
100
AcDbCircle
 10
0.0
 20
0.0
 30
0.0
 40
0.5
  0
ENDBLK
  5
93
330
91
100
AcDbEntity
  8
0
100
AcDbBlockEnd
  0
BLOCK
  5
95
330
94
100
AcDbEntity
  8
0
100
AcDbBlockBegin
  2
EX_WNORM
 70
     0
 10
0.0
 20
0.0
 30
0.0
  3
EX_WNORM
  1

  0
LINE
  5
BC
330
94
100
AcDbEntity
  8
0
  6
CONTINUOUS
 62
     0
100
AcDbLine
 10
-1.0
 20
0.0
 30
0.0
 11
-1.0
 21
0.0
 31
0.0
  0
LINE
  5
BD
330
94
100
AcDbEntity
  8
0
  6
CONTINUOUS
 62
     0
100
AcDbLine
 10
0.0
 20
0.0
 30
0.0
 11
-1.0
 21
0.166666667
 31
0.0
  0
LINE
  5
BE
330
94
100
AcDbEntity
  8
0
  6
CONTINUOUS
 62
     0
100
AcDbLine
 10
0.0
 20
0.0
 30
0.0
 11
-1.0
 21
-0.166666667
 31
0.0
  0
LINE
  5
BF
330
94
100
AcDbEntity
  8
0
  6
CONTINUOUS
 62
     0
100
AcDbLine
 10
-1.0
 20
0.166666667
 30
0.0
 11
-1.0
 21
-0.166666667
 31
0.0
  0
ENDBLK
  5
96
330
94
100
AcDbEntity
  8
0
100
AcDbBlockEnd
  0
BLOCK
  5
98
330
97
100
AcDbEntity
  8
0
100
AcDbBlockBegin
  2
EX_NNORM
 70
     0
 10
0.0
 20
0.0
 30
0.0
  3
EX_NNORM
  1

  0
LINE
  5
C0
330
97
100
AcDbEntity
  8
0
  6
CONTINUOUS
 62
     0
100
AcDbLine
 10
0.0
 20
0.0
 30
0.0
 11
-1.0
 21
0.0
 31
0.0
  0
LINE
  5
C1
330
97
100
AcDbEntity
  8
0
  6
CONTINUOUS
 62
     0
100
AcDbLine
 10
0.0
 20
0.0
 30
0.0
 11
-1.0
 21
0.166666667
 31
0.0
  0
LINE
  5
C2
330
97
100
AcDbEntity
  8
0
  6
CONTINUOUS
 62
     0
100
AcDbLine
 10
0.0
 20
0.0
 30
0.0
 11
-1.0
 21
-0.166666667
 31
0.0
  0
LINE
  5
C3
330
97
100
AcDbEntity
  8
0
  6
CONTINUOUS
 62
     0
100
AcDbLine
 10
-1.0
 20
0.166666667
 30
0.0
 11
-1.0
 21
-0.166666667
 31
0.0
  0
ENDBLK
  5
99
330
97
100
AcDbEntity
  8
0
100
AcDbBlockEnd
  0
BLOCK
  5
9B
330
9A
100
AcDbEntity
  8
0
100
AcDbBlockBegin
  2
EX_BBOX
 70
     0
 10
0.0
 20
0.0
 30
0.0
  3
EX_BBOX
  1

  0
LINE
  5
C4
330
9A
100
AcDbEntity
  8
0
  6
CONTINUOUS
 62
     0
100
AcDbLine
 10
0.0
 20
0.0
 30
0.0
 11
-1.0
 21
0.0
 31
0.0
  0
LINE
  5
C5
330
9A
100
AcDbEntity
  8
0
  6
CONTINUOUS
 62
     0
100
AcDbLine
 10
-0.5
 20
0.5
 30
0.0
 11
0.5
 21
0.5
 31
0.0
  0
LINE
  5
C6
330
9A
100
AcDbEntity
  8
0
  6
CONTINUOUS
 62
     0
100
AcDbLine
 10
0.5
 20
0.5
 30
0.0
 11
0.5
 21
-0.5
 31
0.0
  0
LINE
  5
C7
330
9A
100
AcDbEntity
  8
0
  6
CONTINUOUS
 62
     0
100
AcDbLine
 10
0.5
 20
-0.5
 30
0.0
 11
-0.5
 21
-0.5
 31
0.0
  0
LINE
  5
C8
330
9A
100
AcDbEntity
  8
0
  6
CONTINUOUS
 62
     0
100
AcDbLine
 10
-0.5
 20
-0.5
 30
0.0
 11
-0.5
 21
0.5
 31
0.0
  0
LINE
  5
C9
330
9A
100
AcDbEntity
  8
0
  6
CONTINUOUS
 62
     0
100
AcDbLine
 10
-0.25
 20
0.25
 30
0.0
 11
0.25
 21
0.25
 31
0.0
  0
LINE
  5
CA
330
9A
100
AcDbEntity
  8
0
  6
CONTINUOUS
 62
     0
100
AcDbLine
 10
0.25
 20
0.25
 30
0.0
 11
0.25
 21
-0.25
 31
0.0
  0
LINE
  5
CB
330
9A
100
AcDbEntity
  8
0
  6
CONTINUOUS
 62
     0
100
AcDbLine
 10
0.25
 20
-0.25
 30
0.0
 11
-0.25
 21
-0.25
 31
0.0
  0
LINE
  5
CC
330
9A
100
AcDbEntity
  8
0
  6
CONTINUOUS
 62
     0
100
AcDbLine
 10
-0.25
 20
-0.25
 30
0.0
 11
-0.25
 21
0.25
 31
0.0
  0
ENDBLK
  5
9C
330
9A
100
AcDbEntity
  8
0
100
AcDbBlockEnd
  0
BLOCK
  5
9E
330
9D
100
AcDbEntity
  8
0
100
AcDbBlockBegin
  2
EX_WBOX
 70
     0
 10
0.0
 20
0.0
 30
0.0
  3
EX_WBOX
  1

  0
LINE
  5
CD
330
9D
100
AcDbEntity
  8
0
  6
CONTINUOUS
 62
     0
100
AcDbLine
 10
-0.5
 20
0.0
 30
0.0
 11
-1.0
 21
0.0
 31
0.0
  0
LINE
  5
CE
330
9D
100
AcDbEntity
  8
0
  6
CONTINUOUS
 62
     0
100
AcDbLine
 10
-0.5
 20
0.5
 30
0.0
 11
0.5
 21
0.5
 31
0.0
  0
LINE
  5
CF
330
9D
100
AcDbEntity
  8
0
  6
CONTINUOUS
 62
     0
100
AcDbLine
 10
0.5
 20
0.5
 30
0.0
 11
0.5
 21
-0.5
 31
0.0
  0
LINE
  5
D0
330
9D
100
AcDbEntity
  8
0
  6
CONTINUOUS
 62
     0
100
AcDbLine
 10
0.5
 20
-0.5
 30
0.0
 11
-0.5
 21
-0.5
 31
0.0
  0
LINE
  5
D1
330
9D
100
AcDbEntity
  8
0
  6
CONTINUOUS
 62
     0
100
AcDbLine
 10
-0.5
 20
-0.5
 30
0.0
 11
-0.5
 21
0.5
 31
0.0
  0
ENDBLK
  5
9F
330
9D
100
AcDbEntity
  8
0
100
AcDbBlockEnd
  0
BLOCK
  5
A1
330
A0
100
AcDbEntity
  8
0
100
AcDbBlockBegin
  2
EX_INTEGRAL
 70
     0
 10
0.0
 20
0.0
 30
0.0
  3
EX_INTEGRAL
  1

  0
LINE
  5
D2
330
A0
100
AcDbEntity
  8
0
  6
CONTINUOUS
 62
     0
100
AcDbLine
 10
0.0
 20
0.0
 30
0.0
 11
-1.0
 21
0.0
 31
0.0
  0
ARC
  5
D3
330
A0
100
AcDbEntity
  8
0
  6
CONTINUOUS
 62
     0
100
AcDbCircle
 10
0.542115
 20
0.164992
 30
0.0
 40
0.56667
100
AcDbArc
 50
73.07249033629006
 51
196.9275130221199
  0
ARC
  5
D4
330
A0
100
AcDbEntity
  8
0
  6
CONTINUOUS
 62
     0
100
AcDbCircle
 10
-0.542115
 20
-0.164992
 30
0.0
 40
0.56667
100
AcDbArc
 50
253.0724869220464
 51
16.9275130559125
  0
ENDBLK
  5
A2
330
A0
100
AcDbEntity
  8
0
100
AcDbBlockEnd
  0
BLOCK
  5
120
330
11F
100
AcDbEntity
  8
0
100
AcDbBlockBegin
  2
*D15
 70
     1
 10
0.0
 20
0.0
 30
0.0
  3
*D15
  1

  0
LINE
  5
122
330
11F
100
AcDbEntity
  8
Ｓ_１_１
  6
CONTINUOUS
 62
     2
100
AcDbLine
 10
1113.0
 20
325.0000000000002
 30
0.0
 11
727.0
 21
325.0000000000002
 31
0.0
  0
INSERT
  5
123
330
11F
100
AcDbEntity
  8
Ｓ_１_１
 62
     2
100
AcDbBlockReference
  2
EX_NORM
 10
1125.0
 20
325.0000000000002
 30
0.0
 41
12.0
 42
12.0
 43
12.0
  0
INSERT
  5
124
330
11F
100
AcDbEntity
  8
Ｓ_１_１
 62
     2
100
AcDbBlockReference
  2
EX_NORM
 10
715.0
 20
325.0000000000002
 30
0.0
 41
12.0
 42
12.0
 43
12.0
 50
180.0
  0
MTEXT
  5
125
330
11F
100
AcDbEntity
  8
Ｓ_１_１
 62
     2
100
AcDbMText
 10
920.0000000000001
 20
335.9999999999999
 30
0.0
 40
13.85161662817552
 41
0.0
 71
     5
 72
     1
  1
410
  7
EXCADDIM1
  0
POINT
  5
126
330
11F
100
AcDbEntity
  8
DEFPOINTS
 62
     0
100
AcDbPoint
 10
1125.0
 20
415.328
 30
0.0
  0
POINT
  5
127
330
11F
100
AcDbEntity
  8
DEFPOINTS
 62
     0
100
AcDbPoint
 10
715.0
 20
415.328
 30
0.0
  0
POINT
  5
128
330
11F
100
AcDbEntity
  8
DEFPOINTS
 62
     0
100
AcDbPoint
 10
715.0
 20
325.0000000000002
 30
0.0
  0
ENDBLK
  5
121
330
11F
100
AcDbEntity
  8
0
100
AcDbBlockEnd
  0
BLOCK
  5
12B
330
12A
100
AcDbEntity
  8
0
100
AcDbBlockBegin
  2
*D16
 70
     1
 10
0.0
 20
0.0
 30
0.0
  3
*D16
  1

  0
LINE
  5
12D
330
12A
100
AcDbEntity
  8
Ｓ_１_１
  6
CONTINUOUS
 62
     2
100
AcDbLine
 10
715.0
 20
409.328
 30
0.0
 11
715.0
 21
321.0000000000002
 31
0.0
  0
LINE
  5
12E
330
12A
100
AcDbEntity
  8
Ｓ_１_１
  6
CONTINUOUS
 62
     2
100
AcDbLine
 10
703.0
 20
325.0000000000002
 30
0.0
 11
660.0
 21
325.0000000000002
 31
0.0
  0
INSERT
  5
12F
330
12A
100
AcDbEntity
  8
Ｓ_１_１
 62
     2
100
AcDbBlockReference
  2
EX_NORM
 10
715.0
 20
325.0000000000002
 30
0.0
 41
12.0
 42
12.0
 43
12.0
  0
INSERT
  5
130
330
12A
100
AcDbEntity
  8
Ｓ_１_１
 62
     2
100
AcDbBlockReference
  2
EX_NORM
 10
648.0
 20
325.0000000000002
 30
0.0
 41
12.0
 42
12.0
 43
12.0
 50
180.0
  0
MTEXT
  5
131
330
12A
100
AcDbEntity
  8
Ｓ_１_１
 62
     2
100
AcDbMText
 10
681.5
 20
336.0
 30
0.0
 40
13.85161662817552
 41
0.0
 71
     5
 72
     1
  1
　67
  7
EXCADDIM1
  0
POINT
  5
132
330
12A
100
AcDbEntity
  8
DEFPOINTS
 62
     0
100
AcDbPoint
 10
715.0
 20
415.328
 30
0.0
  0
POINT
  5
133
330
12A
100
AcDbEntity
  8
DEFPOINTS
 62
     0
100
AcDbPoint
 10
648.0
 20
424.5
 30
0.0
  0
POINT
  5
134
330
12A
100
AcDbEntity
  8
DEFPOINTS
 62
     0
100
AcDbPoint
 10
648.0
 20
325.0000000000002
 30
0.0
  0
ENDBLK
  5
12C
330
12A
100
AcDbEntity
  8
0
100
AcDbBlockEnd
  0
BLOCK
  5
137
330
136
100
AcDbEntity
  8
0
100
AcDbBlockBegin
  2
*D17
 70
     1
 10
0.0
 20
0.0
 30
0.0
  3
*D17
  1

  0
LINE
  5
139
330
136
100
AcDbEntity
  8
Ｓ_１_１
  6
CONTINUOUS
 62
     2
100
AcDbLine
 10
648.0
 20
418.5
 30
0.0
 11
648.0
 21
321.0000000000011
 31
0.0
  0
LINE
  5
13A
330
136
100
AcDbEntity
  8
Ｓ_１_１
  6
CONTINUOUS
 62
     2
100
AcDbLine
 10
648.0
 20
325.0000000000011
 30
0.0
 11
645.0
 21
325.0000000000011
 31
0.0
  0
LINE
  5
13B
330
136
100
AcDbEntity
  8
Ｓ_１_１
  6
CONTINUOUS
 62
     2
100
AcDbLine
 10
660.0
 20
325.0000000000011
 30
0.0
 11
672.0
 21
325.0000000000011
 31
0.0
  0
LINE
  5
13C
330
136
100
AcDbEntity
  8
Ｓ_１_１
  6
CONTINUOUS
 62
     2
100
AcDbLine
 10
633.0
 20
325.0000000000011
 30
0.0
 11
621.0
 21
325.0000000000011
 31
0.0
  0
INSERT
  5
13D
330
136
100
AcDbEntity
  8
Ｓ_１_１
 62
     2
100
AcDbBlockReference
  2
EX_NORM
 10
648.0
 20
325.0000000000011
 30
0.0
 41
12.0
 42
12.0
 43
12.0
 50
180.0
  0
INSERT
  5
13E
330
136
100
AcDbEntity
  8
Ｓ_１_１
 62
     2
100
AcDbBlockReference
  2
EX_BCIR
 10
645.0
 20
325.0000000000011
 30
0.0
 41
12.0
 42
12.0
 43
12.0
  0
MTEXT
  5
13F
330
136
100
AcDbEntity
  8
Ｓ_１_１
 62
     2
100
AcDbMText
 10
664.5
 20
335.9999999999991
 30
0.0
 40
13.85161662817552
 41
0.0
 71
     5
 72
     1
  1
3
  7
EXCADDIM1
  0
POINT
  5
140
330
136
100
AcDbEntity
  8
DEFPOINTS
 62
     0
100
AcDbPoint
 10
648.0
 20
424.5
 30
0.0
  0
POINT
  5
141
330
136
100
AcDbEntity
  8
DEFPOINTS
 62
     0
100
AcDbPoint
 10
645.0
 20
474.0
 30
0.0
  0
POINT
  5
142
330
136
100
AcDbEntity
  8
DEFPOINTS
 62
     0
100
AcDbPoint
 10
645.0
 20
325.0000000000011
 30
0.0
  0
ENDBLK
  5
138
330
136
100
AcDbEntity
  8
0
100
AcDbBlockEnd
  0
BLOCK
  5
145
330
144
100
AcDbEntity
  8
0
100
AcDbBlockBegin
  2
*D18
 70
     1
 10
0.0
 20
0.0
 30
0.0
  3
*D18
  1

  0
LINE
  5
147
330
144
100
AcDbEntity
  8
Ｓ_１_１
  6
CONTINUOUS
 62
     2
100
AcDbLine
 10
645.0
 20
468.0
 30
0.0
 11
645.0
 21
321.0
 31
0.0
  0
LINE
  5
148
330
144
100
AcDbEntity
  8
Ｓ_１_１
  6
CONTINUOUS
 62
     2
100
AcDbLine
 10
638.99999999899
 20
325.0
 30
0.0
 11
641.0
 21
325.0
 31
0.0
  0
INSERT
  5
149
330
144
100
AcDbEntity
  8
Ｓ_１_１
 62
     2
100
AcDbBlockReference
  2
EX_BCIR
 10
634.99999999899
 20
325.0
 30
0.0
 41
4.0
 42
4.0
 43
4.0
 50
180.0
  0
INSERT
  5
14A
330
144
100
AcDbEntity
  8
Ｓ_１_１
 62
     2
100
AcDbBlockReference
  2
EX_BCIR
 10
645.0
 20
325.0
 30
0.0
 41
4.0
 42
4.0
 43
4.0
  0
MTEXT
  5
14B
330
144
100
AcDbEntity
  8
Ｓ_１_１
 62
     2
100
AcDbMText
 10
639.999999999495
 20
314.0
 30
0.0
 40
13.85161662817552
 41
0.0
 71
     5
 72
     1
  1
10
  7
EXCADDIM1
  0
POINT
  5
14C
330
144
100
AcDbEntity
  8
DEFPOINTS
 62
     0
100
AcDbPoint
 10
634.99999999899
 20
490.20869628464
 30
0.0
  0
POINT
  5
14D
330
144
100
AcDbEntity
  8
DEFPOINTS
 62
     0
100
AcDbPoint
 10
645.0
 20
474.0
 30
0.0
  0
POINT
  5
14E
330
144
100
AcDbEntity
  8
DEFPOINTS
 62
     0
100
AcDbPoint
 10
645.0
 20
325.0
 30
0.0
  0
ENDBLK
  5
146
330
144
100
AcDbEntity
  8
0
100
AcDbBlockEnd
  0
BLOCK
  5
151
330
150
100
AcDbEntity
  8
0
100
AcDbBlockBegin
  2
*D19
 70
     1
 10
0.0
 20
0.0
 30
0.0
  3
*D19
  1

  0
LINE
  5
153
330
150
100
AcDbEntity
  8
Ｓ_１_１
  6
CONTINUOUS
 62
     2
100
AcDbLine
 10
634.99999999899
 20
484.20869628464
 30
0.0
 11
634.99999999899
 21
321.0000000000001
 31
0.0
  0
LINE
  5
154
330
150
100
AcDbEntity
  8
Ｓ_１_１
  6
CONTINUOUS
 62
     2
100
AcDbLine
 10
630.99999999899
 20
325.0000000000001
 30
0.0
 11
604.0
 21
325.0000000000001
 31
0.0
  0
INSERT
  5
155
330
150
100
AcDbEntity
  8
Ｓ_１_１
 62
     2
100
AcDbBlockReference
  2
EX_BCIR
 10
634.99999999899
 20
325.0000000000001
 30
0.0
 41
4.0
 42
4.0
 43
4.0
  0
INSERT
  5
156
330
150
100
AcDbEntity
  8
Ｓ_１_１
 62
     2
100
AcDbBlockReference
  2
EX_NORM
 10
600.0
 20
325.0000000000001
 30
0.0
 41
4.0
 42
4.0
 43
4.0
 50
180.0
  0
MTEXT
  5
157
330
150
100
AcDbEntity
  8
Ｓ_１_１
 62
     2
100
AcDbMText
 10
617.499999999495
 20
336.0
 30
0.0
 40
13.85161662817552
 41
0.0
 71
     5
 72
     1
  1
35
  7
EXCADDIM1
  0
POINT
  5
158
330
150
100
AcDbEntity
  8
DEFPOINTS
 62
     0
100
AcDbPoint
 10
634.99999999899
 20
490.20869628464
 30
0.0
  0
POINT
  5
159
330
150
100
AcDbEntity
  8
DEFPOINTS
 62
     0
100
AcDbPoint
 10
600.0
 20
427.0
 30
0.0
  0
POINT
  5
15A
330
150
100
AcDbEntity
  8
DEFPOINTS
 62
     0
100
AcDbPoint
 10
600.0
 20
325.0000000000001
 30
0.0
  0
ENDBLK
  5
152
330
150
100
AcDbEntity
  8
0
100
AcDbBlockEnd
  0
BLOCK
  5
15D
330
15C
100
AcDbEntity
  8
0
100
AcDbBlockBegin
  2
*D20
 70
     1
 10
0.0
 20
0.0
 30
0.0
  3
*D20
  1

  0
LINE
  5
15F
330
15C
100
AcDbEntity
  8
Ｓ_１_１
  6
CONTINUOUS
 62
     2
100
AcDbLine
 10
600.0
 20
421.0
 30
0.0
 11
600.0
 21
296.0
 31
0.0
  0
LINE
  5
160
330
15C
100
AcDbEntity
  8
Ｓ_１_１
  6
CONTINUOUS
 62
     2
100
AcDbLine
 10
1125.0
 20
409.328
 30
0.0
 11
1125.0
 21
296.0
 31
0.0
  0
LINE
  5
161
330
15C
100
AcDbEntity
  8
Ｓ_１_１
  6
CONTINUOUS
 62
     2
100
AcDbLine
 10
612.0
 20
300.0
 30
0.0
 11
1113.0
 21
300.0
 31
0.0
  0
INSERT
  5
162
330
15C
100
AcDbEntity
  8
Ｓ_１_１
 62
     2
100
AcDbBlockReference
  2
EX_NORM
 10
600.0
 20
300.0
 30
0.0
 41
12.0
 42
12.0
 43
12.0
 50
180.0
  0
INSERT
  5
163
330
15C
100
AcDbEntity
  8
Ｓ_１_１
 62
     2
100
AcDbBlockReference
  2
EX_NORM
 10
1125.0
 20
300.0
 30
0.0
 41
12.0
 42
12.0
 43
12.0
  0
MTEXT
  5
164
330
15C
100
AcDbEntity
  8
Ｓ_１_１
 62
     2
100
AcDbMText
 10
862.5
 20
311.0
 30
0.0
 40
13.85161662817552
 41
0.0
 71
     5
 72
     1
  1
525
  7
EXCADDIM1
  0
POINT
  5
165
330
15C
100
AcDbEntity
  8
DEFPOINTS
 62
     0
100
AcDbPoint
 10
600.0
 20
427.0
 30
0.0
  0
POINT
  5
166
330
15C
100
AcDbEntity
  8
DEFPOINTS
 62
     0
100
AcDbPoint
 10
1125.0
 20
415.328
 30
0.0
  0
POINT
  5
167
330
15C
100
AcDbEntity
  8
DEFPOINTS
 62
     0
100
AcDbPoint
 10
1125.0
 20
300.0
 30
0.0
  0
ENDBLK
  5
15E
330
15C
100
AcDbEntity
  8
0
100
AcDbBlockEnd
  0
BLOCK
  5
16A
330
169
100
AcDbEntity
  8
0
100
AcDbBlockBegin
  2
*D21
 70
     1
 10
0.0
 20
0.0
 30
0.0
  3
*D21
  1

  0
LINE
  5
16C
330
169
100
AcDbEntity
  8
Ｓ_１_１
  6
CONTINUOUS
 62
     2
100
AcDbLine
 10
596.0
 20
675.0
 30
0.0
 11
521.0
 21
675.0
 31
0.0
  0
LINE
  5
16D
330
169
100
AcDbEntity
  8
Ｓ_１_１
  6
CONTINUOUS
 62
     2
100
AcDbLine
 10
596.0
 20
425.0000000000009
 30
0.0
 11
521.0
 21
425.0000000000009
 31
0.0
  0
LINE
  5
16E
330
169
100
AcDbEntity
  8
Ｓ_１_１
  6
CONTINUOUS
 62
     2
100
AcDbLine
 10
525.0
 20
663.0
 30
0.0
 11
525.0
 21
437.0000000000009
 31
0.0
  0
INSERT
  5
16F
330
169
100
AcDbEntity
  8
Ｓ_１_１
 62
     2
100
AcDbBlockReference
  2
EX_NORM
 10
525.0
 20
675.0
 30
0.0
 41
12.0
 42
12.0
 43
12.0
 50
90.0
  0
INSERT
  5
170
330
169
100
AcDbEntity
  8
Ｓ_１_１
 62
     2
100
AcDbBlockReference
  2
EX_NORM
 10
525.0
 20
425.0000000000009
 30
0.0
 41
12.0
 42
12.0
 43
12.0
 50
270.0
  0
MTEXT
  5
171
330
169
100
AcDbEntity
  8
Ｓ_１_１
 62
     2
100
AcDbMText
 10
514.0
 20
550.0000000000005
 30
0.0
 40
13.85161662817552
 41
0.0
 71
     5
 72
     1
  1
%%c250
  7
EXCADDIM1
 11
0.0
 21
1.0
 31
0.0
  0
POINT
  5
172
330
169
100
AcDbEntity
  8
DEFPOINTS
 62
     0
100
AcDbPoint
 10
602.0
 20
675.0
 30
0.0
  0
POINT
  5
173
330
169
100
AcDbEntity
  8
DEFPOINTS
 62
     0
100
AcDbPoint
 10
602.0
 20
425.0000000000009
 30
0.0
  0
POINT
  5
174
330
169
100
AcDbEntity
  8
DEFPOINTS
 62
     0
100
AcDbPoint
 10
525.0
 20
425.0000000000009
 30
0.0
  0
ENDBLK
  5
16B
330
169
100
AcDbEntity
  8
0
100
AcDbBlockEnd
  0
BLOCK
  5
177
330
176
100
AcDbEntity
  8
0
100
AcDbBlockBegin
  2
*D22
 70
     1
 10
0.0
 20
0.0
 30
0.0
  3
*D22
  1

  0
LINE
  5
179
330
176
100
AcDbEntity
  8
Ｓ_１_１
  6
CONTINUOUS
 62
     2
100
AcDbLine
 10
1129.00000000002
 20
413.328
 30
0.0
 11
1204.0
 21
413.328
 31
0.0
  0
LINE
  5
17A
330
176
100
AcDbEntity
  8
Ｓ_１_１
  6
CONTINUOUS
 62
     2
100
AcDbLine
 10
1200.0
 20
674.672
 30
0.0
 11
1200.0
 21
425.328
 31
0.0
  0
INSERT
  5
17B
330
176
100
AcDbEntity
  8
Ｓ_１_１
 62
     2
100
AcDbBlockReference
  2
EX_NORM
 10
1200.0
 20
686.672
 30
0.0
 41
12.0
 42
12.0
 43
12.0
 50
90.0
  0
INSERT
  5
17C
330
176
100
AcDbEntity
  8
Ｓ_１_１
 62
     2
100
AcDbBlockReference
  2
EX_NORM
 10
1200.0
 20
413.328
 30
0.0
 41
12.0
 42
12.0
 43
12.0
 50
270.0
  0
MTEXT
  5
17D
330
176
100
AcDbEntity
  8
Ｓ_１_１
 62
     2
100
AcDbMText
 10
1189.0
 20
550.0
 30
0.0
 40
13.85161662817552
 41
0.0
 71
     5
 72
     1
  1
%%c273.1
  7
EXCADDIM1
 11
0.0
 21
1.0
 31
0.0
  0
POINT
  5
17E
330
176
100
AcDbEntity
  8
DEFPOINTS
 62
     0
100
AcDbPoint
 10
1123.00000000002
 20
686.672
 30
0.0
  0
POINT
  5
17F
330
176
100
AcDbEntity
  8
DEFPOINTS
 62
     0
100
AcDbPoint
 10
1123.00000000002
 20
413.328
 30
0.0
  0
POINT
  5
180
330
176
100
AcDbEntity
  8
DEFPOINTS
 62
     0
100
AcDbPoint
 10
1200.0
 20
413.328
 30
0.0
  0
ENDBLK
  5
178
330
176
100
AcDbEntity
  8
0
100
AcDbBlockEnd
  0
BLOCK
  5
183
330
182
100
AcDbEntity
  8
0
100
AcDbBlockBegin
  2
*D23
 70
     1
 10
0.0
 20
0.0
 30
0.0
  3
*D23
  1

  0
LINE
  5
185
330
182
100
AcDbEntity
  8
Ｓ_１_１
  6
CONTINUOUS
 62
     2
100
AcDbLine
 10
388.3345911860123
 20
498.9999999999999
 30
0.0
 11
495.6733997247966
 21
437.0279099956393
 31
0.0
  0
LINE
  5
186
330
182
100
AcDbEntity
  8
Ｓ_１_１
  6
CONTINUOUS
 62
     2
100
AcDbLine
 10
211.6654088139868
 20
600.9999999999998
 30
0.0
 11
201.2731039685735
 21
606.9999999999998
 31
0.0
  0
MTEXT
  5
187
330
182
100
AcDbEntity
  8
Ｓ_１_１
 62
     2
100
AcDbMText
 10
464.0382315276264
 20
465.6021186238855
 30
0.0
 40
13.85161662817552
 41
0.0
 71
     5
 72
     1
  1
P.C.D 180
  7
EXCADDIM1
 11
0.8660254037844392
 21
-0.4999999999999991
 31
0.0
  0
LINE
  5
188
330
182
100
AcDbEntity
  8
Ｓ_１_１
  6
CONTINUOUS
 62
     2
100
AcDbLine
 10
222.0577136594
 20
594.9999999999998
 30
0.0
 11
377.9422863405991
 21
504.9999999999999
 31
0.0
  0
INSERT
  5
189
330
182
100
AcDbEntity
  8
Ｓ_１_１
 62
     2
100
AcDbBlockReference
  2
EX_NORM
 10
222.0577136594
 20
594.9999999999998
 30
0.0
 41
12.0
 42
12.0
 43
12.0
 50
330.0
  0
INSERT
  5
18A
330
182
100
AcDbEntity
  8
Ｓ_１_１
 62
     2
100
AcDbBlockReference
  2
EX_NORM
 10
377.9422863405991
 20
504.9999999999999
 30
0.0
 41
12.0
 42
12.0
 43
12.0
 50
150.0000000000001
  0
POINT
  5
18B
330
182
100
AcDbEntity
  8
DEFPOINTS
 62
     0
100
AcDbPoint
 10
377.9422863405991
 20
504.9999999999999
 30
0.0
  0
POINT
  5
18C
330
182
100
AcDbEntity
  8
DEFPOINTS
 62
     0
100
AcDbPoint
 10
222.0577136594
 20
594.9999999999998
 30
0.0
  0
ENDBLK
  5
184
330
182
100
AcDbEntity
  8
0
100
AcDbBlockEnd
  0
BLOCK
  5
191
330
190
100
AcDbEntity
  8
0
100
AcDbBlockBegin
  2
*D24
 70
     1
 10
0.0
 20
0.0
 30
0.0
  3
*D24
  1

  0
LINE
  5
193
330
190
100
AcDbEntity
  8
Ｓ_１_１
  6
CONTINUOUS
 62
     2
100
AcDbLine
 10
1496.994845223863
 20
605.9999999999902
 30
0.0
 11
1303.005154776137
 21
494.0000000000097
 31
0.0
  0
MTEXT
  5
194
330
190
100
AcDbEntity
  8
Ｓ_１_１
 62
     2
100
AcDbMText
 10
1394.500000000001
 20
559.5262794416294
 30
0.0
 40
13.85161662817552
 41
0.0
 71
     5
 72
     1
  1
　　　　　　　P.C.D 248
  7
EXCADDIM1
 11
0.866025403784489
 21
0.4999999999999129
 31
0.0
  0
INSERT
  5
195
330
190
100
AcDbEntity
  8
Ｓ_１_１
 62
     2
100
AcDbBlockReference
  2
EX_NORM
 10
1292.612849930723
 20
488.0000000000107
 30
0.0
 41
12.0
 42
12.0
 43
12.0
 50
209.9999999999943
  0
INSERT
  5
196
330
190
100
AcDbEntity
  8
Ｓ_１_１
 62
     2
100
AcDbBlockReference
  2
EX_NORM
 10
1507.387150069276
 20
611.9999999999892
 30
0.0
 41
12.0
 42
12.0
 43
12.0
 50
29.99999999999423
  0
POINT
  5
197
330
190
100
AcDbEntity
  8
DEFPOINTS
 62
     0
100
AcDbPoint
 10
1507.387150069276
 20
611.9999999999892
 30
0.0
  0
POINT
  5
198
330
190
100
AcDbEntity
  8
DEFPOINTS
 62
     0
100
AcDbPoint
 10
1292.612849930723
 20
488.0000000000107
 30
0.0
  0
ENDBLK
  5
192
330
190
100
AcDbEntity
  8
0
100
AcDbBlockEnd
  0
BLOCK
  5
1A0
330
19F
100
AcDbEntity
  8
0
100
AcDbBlockBegin
  2
*D25
 70
     1
 10
0.0
 20
0.0
 30
0.0
  3
*D25
  1

  0
LINE
  5
1A2
330
19F
100
AcDbEntity
  8
Ｓ_１_１
  6
CONTINUOUS
 62
     2
100
AcDbLine
 10
1129.0
 20
686.67199999998
 30
0.0
 11
1204.0
 21
686.67199999998
 31
0.0
  0
LINE
  5
1A3
330
19F
100
AcDbEntity
  8
Ｓ_１_１
  6
CONTINUOUS
 62
     2
100
AcDbLine
 10
1063.000007
 20
772.034262
 30
0.0
 11
1204.0
 21
772.034262
 31
0.0
  0
LINE
  5
1A4
330
19F
100
AcDbEntity
  8
Ｓ_１_１
  6
CONTINUOUS
 62
     2
100
AcDbLine
 10
1200.0
 20
698.67199999998
 30
0.0
 11
1200.0
 21
760.034262
 31
0.0
  0
INSERT
  5
1A5
330
19F
100
AcDbEntity
  8
Ｓ_１_１
 62
     2
100
AcDbBlockReference
  2
EX_NORM
 10
1200.0
 20
686.67199999998
 30
0.0
 41
12.0
 42
12.0
 43
12.0
 50
270.0
  0
INSERT
  5
1A6
330
19F
100
AcDbEntity
  8
Ｓ_１_１
 62
     2
100
AcDbBlockReference
  2
EX_NORM
 10
1200.0
 20
772.034262
 30
0.0
 41
12.0
 42
12.0
 43
12.0
 50
90.0
  0
MTEXT
  5
1A7
330
19F
100
AcDbEntity
  8
Ｓ_１_１
 62
     2
100
AcDbMText
 10
1189.0
 20
729.3531309999901
 30
0.0
 40
13.85161662817552
 41
0.0
 71
     5
 72
     1
  1
(85)
  7
EXCADDIM1
 11
0.0
 21
1.0
 31
0.0
  0
POINT
  5
1A8
330
19F
100
AcDbEntity
  8
DEFPOINTS
 62
     0
100
AcDbPoint
 10
1123.0
 20
686.67199999998
 30
0.0
  0
POINT
  5
1A9
330
19F
100
AcDbEntity
  8
DEFPOINTS
 62
     0
100
AcDbPoint
 10
1057.000007
 20
772.034262
 30
0.0
  0
POINT
  5
1AA
330
19F
100
AcDbEntity
  8
DEFPOINTS
 62
     0
100
AcDbPoint
 10
1200.0
 20
772.034262
 30
0.0
  0
ENDBLK
  5
1A1
330
19F
100
AcDbEntity
  8
0
100
AcDbBlockEnd
  0
BLOCK
  5
2AD
330
2AC
100
AcDbEntity
  8
0
100
AcDbBlockBegin
  2
*D26
 70
     1
 10
0.0
 20
0.0
 30
0.0
  3
*D26
  1

  0
LINE
  5
2AF
330
2AC
100
AcDbEntity
  8
Ｓ_１_１
  6
CONTINUOUS
 62
     2
100
AcDbLine
 10
1125.0
 20
690.672
 30
0.0
 11
1125.0
 21
829.0
 31
0.0
  0
LINE
  5
2B0
330
2AC
100
AcDbEntity
  8
Ｓ_１_１
  6
CONTINUOUS
 62
     2
100
AcDbLine
 10
1045.0
 20
781.8
 30
0.0
 11
1045.0
 21
829.0
 31
0.0
  0
LINE
  5
2B1
330
2AC
100
AcDbEntity
  8
Ｓ_１_１
  6
CONTINUOUS
 62
     2
100
AcDbLine
 10
1113.0
 20
825.0
 30
0.0
 11
1057.0
 21
825.0
 31
0.0
  0
INSERT
  5
2B2
330
2AC
100
AcDbEntity
  8
Ｓ_１_１
 62
     2
100
AcDbBlockReference
  2
EX_NORM
 10
1125.0
 20
825.0
 30
0.0
 41
12.0
 42
12.0
 43
12.0
  0
INSERT
  5
2B3
330
2AC
100
AcDbEntity
  8
Ｓ_１_１
 62
     2
100
AcDbBlockReference
  2
EX_NORM
 10
1045.0
 20
825.0
 30
0.0
 41
12.0
 42
12.0
 43
12.0
 50
180.0
  0
MTEXT
  5
2B4
330
2AC
100
AcDbEntity
  8
Ｓ_１_１
 62
     2
100
AcDbMText
 10
1085.0
 20
836.0
 30
0.0
 40
13.85161662817552
 41
0.0
 71
     5
 72
     1
  1
80
  7
EXCADDIM1
  0
POINT
  5
2B5
330
2AC
100
AcDbEntity
  8
DEFPOINTS
 62
     0
100
AcDbPoint
 10
1125.0
 20
684.672
 30
0.0
  0
POINT
  5
2B6
330
2AC
100
AcDbEntity
  8
DEFPOINTS
 62
     0
100
AcDbPoint
 10
1045.0
 20
775.8
 30
0.0
  0
POINT
  5
2B7
330
2AC
100
AcDbEntity
  8
DEFPOINTS
 62
     0
100
AcDbPoint
 10
1045.0
 20
825.0
 30
0.0
  0
ENDBLK
  5
2AE
330
2AC
100
AcDbEntity
  8
0
100
AcDbBlockEnd
  0
BLOCK
  5
2BA
330
2B9
100
AcDbEntity
  8
0
100
AcDbBlockBegin
  2
*D27
 70
     1
 10
0.0
 20
0.0
 30
0.0
  3
*D27
  1

  0
LINE
  5
2BC
330
2B9
100
AcDbEntity
  8
Ｓ_１_１
  6
CONTINUOUS
 62
     2
100
AcDbLine
 10
1045.0
 20
781.8
 30
0.0
 11
1045.0
 21
829.0
 31
0.0
  0
LINE
  5
2BD
330
2B9
100
AcDbEntity
  8
Ｓ_１_１
  6
CONTINUOUS
 62
     2
100
AcDbLine
 10
863.0
 20
793.6
 30
0.0
 11
863.0
 21
829.0
 31
0.0
  0
LINE
  5
2BE
330
2B9
100
AcDbEntity
  8
Ｓ_１_１
  6
CONTINUOUS
 62
     2
100
AcDbLine
 10
1033.0
 20
825.0
 30
0.0
 11
875.0
 21
825.0
 31
0.0
  0
INSERT
  5
2BF
330
2B9
100
AcDbEntity
  8
Ｓ_１_１
 62
     2
100
AcDbBlockReference
  2
EX_NORM
 10
1045.0
 20
825.0
 30
0.0
 41
12.0
 42
12.0
 43
12.0
  0
INSERT
  5
2C0
330
2B9
100
AcDbEntity
  8
Ｓ_１_１
 62
     2
100
AcDbBlockReference
  2
EX_NORM
 10
863.0
 20
825.0
 30
0.0
 41
12.0
 42
12.0
 43
12.0
 50
180.0
  0
MTEXT
  5
2C1
330
2B9
100
AcDbEntity
  8
Ｓ_１_１
 62
     2
100
AcDbMText
 10
954.0
 20
836.0
 30
0.0
 40
13.85161662817552
 41
0.0
 71
     5
 72
     1
  1
182
  7
EXCADDIM1
  0
POINT
  5
2C2
330
2B9
100
AcDbEntity
  8
DEFPOINTS
 62
     0
100
AcDbPoint
 10
1045.0
 20
775.8
 30
0.0
  0
POINT
  5
2C3
330
2B9
100
AcDbEntity
  8
DEFPOINTS
 62
     0
100
AcDbPoint
 10
863.0
 20
787.6
 30
0.0
  0
POINT
  5
2C4
330
2B9
100
AcDbEntity
  8
DEFPOINTS
 62
     0
100
AcDbPoint
 10
863.0
 20
825.0
 30
0.0
  0
ENDBLK
  5
2BB
330
2B9
100
AcDbEntity
  8
0
100
AcDbBlockEnd
  0
BLOCK
  5
2C7
330
2C6
100
AcDbEntity
  8
0
100
AcDbBlockBegin
  2
*D28
 70
     1
 10
0.0
 20
0.0
 30
0.0
  3
*D28
  1

  0
LINE
  5
2C9
330
2C6
100
AcDbEntity
  8
Ｓ_１_１
  6
CONTINUOUS
 62
     2
100
AcDbLine
 10
863.0
 20
799.6
 30
0.0
 11
863.0
 21
829.0
 31
0.0
  0
LINE
  5
2CA
330
2C6
100
AcDbEntity
  8
Ｓ_１_１
  6
CONTINUOUS
 62
     2
100
AcDbLine
 10
715.0
 20
690.672
 30
0.0
 11
715.0
 21
829.0
 31
0.0
  0
LINE
  5
2CB
330
2C6
100
AcDbEntity
  8
Ｓ_１_１
  6
CONTINUOUS
 62
     2
100
AcDbLine
 10
851.0
 20
825.0
 30
0.0
 11
727.0
 21
825.0
 31
0.0
  0
INSERT
  5
2CC
330
2C6
100
AcDbEntity
  8
Ｓ_１_１
 62
     2
100
AcDbBlockReference
  2
EX_NORM
 10
863.0
 20
825.0
 30
0.0
 41
12.0
 42
12.0
 43
12.0
  0
INSERT
  5
2CD
330
2C6
100
AcDbEntity
  8
Ｓ_１_１
 62
     2
100
AcDbBlockReference
  2
EX_NORM
 10
715.0
 20
825.0
 30
0.0
 41
12.0
 42
12.0
 43
12.0
 50
180.0
  0
MTEXT
  5
2CE
330
2C6
100
AcDbEntity
  8
Ｓ_１_１
 62
     2
100
AcDbMText
 10
789.0
 20
836.0
 30
0.0
 40
13.85161662817552
 41
0.0
 71
     5
 72
     1
  1
148
  7
EXCADDIM1
  0
POINT
  5
2CF
330
2C6
100
AcDbEntity
  8
DEFPOINTS
 62
     0
100
AcDbPoint
 10
863.0
 20
793.6
 30
0.0
  0
POINT
  5
2D0
330
2C6
100
AcDbEntity
  8
DEFPOINTS
 62
     0
100
AcDbPoint
 10
715.0
 20
684.672
 30
0.0
  0
POINT
  5
2D1
330
2C6
100
AcDbEntity
  8
DEFPOINTS
 62
     0
100
AcDbPoint
 10
715.0
 20
825.0
 30
0.0
  0
ENDBLK
  5
2C8
330
2C6
100
AcDbEntity
  8
0
100
AcDbBlockEnd
  0
ENDSEC
  0
SECTION
  2
ENTITIES
  0
LINE
  5
D5
330
1F
100
AcDbEntity
  8
図面枠
  6
CONTINUOUS
 62
     5
100
AcDbLine
 10
40.0
 20
40.0
 30
0.0
 11
1640.0
 21
40.0
 31
0.0
  0
LINE
  5
D6
330
1F
100
AcDbEntity
  8
図面枠
  6
CONTINUOUS
 62
     5
100
AcDbLine
 10
1640.0
 20
40.0
 30
0.0
 11
1640.0
 21
1148.0
 31
0.0
  0
LINE
  5
D7
330
1F
100
AcDbEntity
  8
図面枠
  6
CONTINUOUS
 62
     5
100
AcDbLine
 10
1640.0
 20
1148.0
 30
0.0
 11
40.00000000000021
 21
1148.0
 31
0.0
  0
LINE
  5
D8
330
1F
100
AcDbEntity
  8
図面枠
  6
CONTINUOUS
 62
     5
100
AcDbLine
 10
40.00000000000021
 20
1148.0
 30
0.0
 11
40.0
 21
40.0
 31
0.0
  0
LINE
  5
D9
330
1F
100
AcDbEntity
  8
図面枠
  6
CONTINUOUS
 62
     3
100
AcDbLine
 10
60.00000000000006
 20
1128.0
 30
0.0
 11
60.00000000000006
 21
1092.0
 31
0.0
  0
LINE
  5
DA
330
1F
100
AcDbEntity
  8
図面枠
  6
CONTINUOUS
 62
     3
100
AcDbLine
 10
1620.0
 20
96.0
 30
0.0
 11
1620.0
 21
60.0
 31
0.0
  0
TEXT
  5
DC
330
1F
100
AcDbEntity
  8
図面枠
  6
CONTINUOUS
 62
     4
100
AcDbText
 10
1548.0
 20
1085.53125
 30
0.0
 40
13.85161662817552
  1
kN
 41
0.9992307692307693
  7
EXCADTTF1
 72
     5
 11
1566.0
 21
1085.53125
 31
0.0
100
AcDbText
  0
TEXT
  5
DD
330
1F
100
AcDbEntity
  8
図面枠
  6
CONTINUOUS
 62
     4
100
AcDbText
 10
1308.0
 20
1085.53125
 30
0.0
 40
13.85161662817552
  1
能力
 41
0.9992307692307693
  7
EXCADTTF1
 72
     5
 11
1344.0
 21
1085.53125
 31
0.0
100
AcDbText
  0
TEXT
  5
DE
330
1F
100
AcDbEntity
  8
図面枠
  6
CONTINUOUS
 62
     4
100
AcDbText
 10
1415.0
 20
1109.53125
 30
0.0
 40
13.85161662817552
  1
仕　　　様
 41
0.9992307692307693
  7
EXCADTTF1
 72
     5
 11
1505.0
 21
1109.53125
 31
0.0
100
AcDbText
  0
LINE
  5
DF
330
1F
100
AcDbEntity
  8
図面枠
  6
CONTINUOUS
 62
     3
100
AcDbLine
 10
1300.0
 20
1128.0
 30
0.0
 11
1620.0
 21
1128.0
 31
0.0
  0
LINE
  5
E0
330
1F
100
AcDbEntity
  8
図面枠
  6
CONTINUOUS
 62
     3
100
AcDbLine
 10
1300.0
 20
1104.0
 30
0.0
 11
1620.0
 21
1104.0
 31
0.0
  0
TEXT
  5
E1
330
1F
100
AcDbEntity
  8
図面枠
  6
CONTINUOUS
 62
     4
100
AcDbText
 10
1496.0
 20
1085.53125
 30
0.0
 40
13.85161662817552
  1
2000
 41
0.9992307692307693
  7
EXCADTTF1
 72
     5
 11
1532.0
 21
1085.53125
 31
0.0
100
AcDbText
  0
TEXT
  5
E2
330
1F
100
AcDbEntity
  8
図面枠
  6
CONTINUOUS
 62
     4
100
AcDbText
 10
72.00000000000006
 20
1101.375
 30
0.0
 40
18.46882217090069
  1
2000kN125ストローク安全ナット付き油圧ジャッキ　ユニバーサル付き
 41
0.999230769230769
  7
EXCADTTF1
 72
     5
 11
828.0
 21
1101.375
 31
0.0
100
AcDbText
  0
LINE
  5
E3
330
1F
100
AcDbEntity
  8
図面枠
  6
CONTINUOUS
 62
     3
100
AcDbLine
 10
840.0000000000001
 20
1128.0
 30
0.0
 11
840.0000000000001
 21
1092.0
 31
0.0
  0
LINE
  5
E4
330
1F
100
AcDbEntity
  8
図面枠
  6
CONTINUOUS
 62
     3
100
AcDbLine
 10
60.00000000000006
 20
1128.0
 30
0.0
 11
840.0000000000001
 21
1128.0
 31
0.0
  0
LINE
  5
E5
330
1F
100
AcDbEntity
  8
図面枠
  6
CONTINUOUS
 62
     3
100
AcDbLine
 10
60.00000000000006
 20
1092.0
 30
0.0
 11
840.0000000000001
 21
1092.0
 31
0.0
  0
TEXT
  5
E6
330
1F
100
AcDbEntity
  8
図面枠
  6
CONTINUOUS
 62
     4
100
AcDbText
 10
1548.0
 20
941.53125
 30
0.0
 40
13.85161662817552
  1
cm
 41
0.9992307692307693
  7
EXCADTTF1
 72
     5
 11
1566.0
 21
941.53125
 31
0.0
100
AcDbText
  0
TEXT
  5
E7
330
1F
100
AcDbEntity
  8
図面枠
  6
CONTINUOUS
 62
     4
100
AcDbText
 10
1560.6
 20
950.0390626341105
 30
0.0
 40
6.23322704234795
  1
2
 41
0.9992308398189645
  7
EXCADTTF1
 72
     5
 11
1564.65
 21
950.0390626341105
 31
0.0
100
AcDbText
  0
TEXT
  5
E8
330
1F
100
AcDbEntity
  8
図面枠
  6
CONTINUOUS
 62
     4
100
AcDbText
 10
1548.0
 20
1061.53125
 30
0.0
 40
13.85161662817552
  1
mm
 41
0.9992307692307693
  7
EXCADTTF1
 72
     5
 11
1566.0
 21
1061.53125
 31
0.0
100
AcDbText
  0
TEXT
  5
E9
330
1F
100
AcDbEntity
  8
図面枠
  6
CONTINUOUS
 62
     4
100
AcDbText
 10
1548.0
 20
1037.53125
 30
0.0
 40
13.85161662817552
  1
mm
 41
0.9992307692307693
  7
EXCADTTF1
 72
     5
 11
1566.0
 21
1037.53125
 31
0.0
100
AcDbText
  0
TEXT
  5
EA
330
1F
100
AcDbEntity
  8
図面枠
  6
CONTINUOUS
 62
     4
100
AcDbText
 10
1548.0
 20
1013.53125
 30
0.0
 40
13.85161662817552
  1
mm
 41
0.9992307692307693
  7
EXCADTTF1
 72
     5
 11
1566.0
 21
1013.53125
 31
0.0
100
AcDbText
  0
TEXT
  5
EB
330
1F
100
AcDbEntity
  8
図面枠
  6
CONTINUOUS
 62
     4
100
AcDbText
 10
1548.0
 20
989.53125
 30
0.0
 40
13.85161662817552
  1
mm
 41
0.9992307692307693
  7
EXCADTTF1
 72
     5
 11
1566.0
 21
989.53125
 31
0.0
100
AcDbText
  0
TEXT
  5
EC
330
1F
100
AcDbEntity
  8
図面枠
  6
CONTINUOUS
 62
     4
100
AcDbText
 10
1548.0
 20
965.53125
 30
0.0
 40
13.85161662817552
  1
mm
 41
0.9992307692307693
  7
EXCADTTF1
 72
     5
 11
1566.0
 21
965.53125
 31
0.0
100
AcDbText
  0
TEXT
  5
ED
330
1F
100
AcDbEntity
  8
図面枠
  6
CONTINUOUS
 62
     4
100
AcDbText
 10
1548.0
 20
917.53125
 30
0.0
 40
13.85161662817552
  1
MPa
 41
0.9992307692307694
  7
EXCADTTF1
 72
     5
 11
1575.0
 21
917.53125
 31
0.0
100
AcDbText
  0
TEXT
  5
EE
330
1F
100
AcDbEntity
  8
図面枠
  6
CONTINUOUS
 62
     4
100
AcDbText
 10
1308.0
 20
1061.53125
 30
0.0
 40
13.85161662817552
  1
ストローク
 41
0.9992307692307693
  7
EXCADTTF1
 72
     5
 11
1398.0
 21
1061.53125
 31
0.0
100
AcDbText
  0
TEXT
  5
EF
330
1F
100
AcDbEntity
  8
図面枠
  6
CONTINUOUS
 62
     4
100
AcDbText
 10
1308.0
 20
1037.53125
 30
0.0
 40
13.85161662817552
  1
最低機械高
 41
0.9992307692307693
  7
EXCADTTF1
 72
     5
 11
1398.0
 21
1037.53125
 31
0.0
100
AcDbText
  0
TEXT
  5
F0
330
1F
100
AcDbEntity
  8
図面枠
  6
CONTINUOUS
 62
     4
100
AcDbText
 10
1308.0
 20
1013.53125
 30
0.0
 40
13.85161662817552
  1
シリンダー外径
 41
0.9992307692307691
  7
EXCADTTF1
 72
     5
 11
1434.0
 21
1013.53125
 31
0.0
100
AcDbText
  0
TEXT
  5
F1
330
1F
100
AcDbEntity
  8
図面枠
  6
CONTINUOUS
 62
     4
100
AcDbText
 10
1308.0
 20
965.53125
 30
0.0
 40
13.85161662817552
  1
ピストン径
 41
0.9992307692307693
  7
EXCADTTF1
 72
     5
 11
1398.0
 21
965.53125
 31
0.0
100
AcDbText
  0
TEXT
  5
F2
330
1F
100
AcDbEntity
  8
図面枠
  6
CONTINUOUS
 62
     4
100
AcDbText
 10
1308.0
 20
941.53125
 30
0.0
 40
13.85161662817552
  1
受圧面積
 41
0.9992307692307693
  7
EXCADTTF1
 72
     5
 11
1380.0
 21
941.53125
 31
0.0
100
AcDbText
  0
TEXT
  5
F3
330
1F
100
AcDbEntity
  8
図面枠
  6
CONTINUOUS
 62
     4
100
AcDbText
 10
1308.0
 20
917.53125
 30
0.0
 40
13.85161662817552
  1
最高使用圧力
 41
0.9992307692307693
  7
EXCADTTF1
 72
     5
 11
1416.0
 21
917.53125
 31
0.0
100
AcDbText
  0
LINE
  5
F4
330
1F
100
AcDbEntity
  8
図面枠
  6
CONTINUOUS
 62
     2
100
AcDbLine
 10
1300.0
 20
1080.0
 30
0.0
 11
1620.0
 21
1080.0
 31
0.0
  0
LINE
  5
F5
330
1F
100
AcDbEntity
  8
図面枠
  6
CONTINUOUS
 62
     2
100
AcDbLine
 10
1300.0
 20
1056.0
 30
0.0
 11
1620.0
 21
1056.0
 31
0.0
  0
LINE
  5
F6
330
1F
100
AcDbEntity
  8
図面枠
  6
CONTINUOUS
 62
     2
100
AcDbLine
 10
1300.0
 20
1032.0
 30
0.0
 11
1620.0
 21
1032.0
 31
0.0
  0
LINE
  5
F7
330
1F
100
AcDbEntity
  8
図面枠
  6
CONTINUOUS
 62
     2
100
AcDbLine
 10
1300.0
 20
1008.0
 30
0.0
 11
1620.0
 21
1008.0
 31
0.0
  0
LINE
  5
F8
330
1F
100
AcDbEntity
  8
図面枠
  6
CONTINUOUS
 62
     2
100
AcDbLine
 10
1300.0
 20
984.0
 30
0.0
 11
1620.0
 21
984.0
 31
0.0
  0
LINE
  5
F9
330
1F
100
AcDbEntity
  8
図面枠
  6
CONTINUOUS
 62
     2
100
AcDbLine
 10
1300.0
 20
960.0
 30
0.0
 11
1620.0
 21
960.0
 31
0.0
  0
LINE
  5
FA
330
1F
100
AcDbEntity
  8
図面枠
  6
CONTINUOUS
 62
     2
100
AcDbLine
 10
1300.0
 20
936.0
 30
0.0
 11
1620.0
 21
936.0
 31
0.0
  0
TEXT
  5
FB
330
1F
100
AcDbEntity
  8
図面枠
  6
CONTINUOUS
 62
     4
100
AcDbText
 10
1308.0
 20
989.53125
 30
0.0
 40
13.85161662817552
  1
ネジロッド径
 41
0.9992307692307693
  7
EXCADTTF1
 72
     5
 11
1416.0
 21
989.53125
 31
0.0
100
AcDbText
  0
TEXT
  5
FC
330
1F
100
AcDbEntity
  8
図面枠
  6
CONTINUOUS
 62
     4
100
AcDbText
 10
1505.0
 20
1061.53125
 30
0.0
 40
13.85161662817552
  1
125
 41
0.9992307692307694
  7
EXCADTTF1
 72
     5
 11
1532.0
 21
1061.53125
 31
0.0
100
AcDbText
  0
TEXT
  5
FD
330
1F
100
AcDbEntity
  8
図面枠
  6
CONTINUOUS
 62
     4
100
AcDbText
 10
1487.0
 20
1013.53125
 30
0.0
 40
13.85161662817552
  1
273.1
 41
0.9992307692307693
  7
EXCADTTF1
 72
     5
 11
1532.0
 21
1013.53125
 31
0.0
100
AcDbText
  0
TEXT
  5
FE
330
1F
100
AcDbEntity
  8
図面枠
  6
CONTINUOUS
 62
     4
100
AcDbText
 10
1505.0
 20
989.53125
 30
0.0
 40
13.85161662817552
  1
160
 41
0.9992307692307694
  7
EXCADTTF1
 72
     5
 11
1532.0
 21
989.53125
 31
0.0
100
AcDbText
  0
TEXT
  5
FF
330
1F
100
AcDbEntity
  8
図面枠
  6
CONTINUOUS
 62
     4
100
AcDbText
 10
1505.0
 20
965.53125
 30
0.0
 40
13.85161662817552
  1
200
 41
0.9992307692307694
  7
EXCADTTF1
 72
     5
 11
1532.0
 21
965.53125
 31
0.0
100
AcDbText
  0
TEXT
  5
100
330
1F
100
AcDbEntity
  8
図面枠
  6
CONTINUOUS
 62
     4
100
AcDbText
 10
1487.0
 20
941.53125
 30
0.0
 40
13.85161662817552
  1
314.2
 41
0.9992307692307693
  7
EXCADTTF1
 72
     5
 11
1532.0
 21
941.53125
 31
0.0
100
AcDbText
  0
TEXT
  5
101
330
1F
100
AcDbEntity
  8
図面枠
  6
CONTINUOUS
 62
     4
100
AcDbText
 10
1496.0
 20
917.53125
 30
0.0
 40
13.85161662817552
  1
63.7
 41
0.9992307692307693
  7
EXCADTTF1
 72
     5
 11
1532.0
 21
917.53125
 31
0.0
100
AcDbText
  0
TEXT
  5
102
330
1F
100
AcDbEntity
  8
図面枠
  6
CONTINUOUS
 62
     4
100
AcDbText
 10
1505.0
 20
1037.53125
 30
0.0
 40
13.85161662817552
  1
525
 41
0.9992307692307694
  7
EXCADTTF1
 72
     5
 11
1532.0
 21
1037.53125
 31
0.0
100
AcDbText
  0
TEXT
  5
103
330
1F
100
AcDbEntity
  8
図面枠
  6
CONTINUOUS
 62
     4
100
AcDbText
 10
1548.0
 20
869.53125
 30
0.0
 40
13.85161662817552
  1
kg
 41
0.9992307692307693
  7
EXCADTTF1
 72
     5
 11
1566.0
 21
869.53125
 31
0.0
100
AcDbText
  0
TEXT
  5
104
330
1F
100
AcDbEntity
  8
図面枠
  6
CONTINUOUS
 62
     4
100
AcDbText
 10
1308.0
 20
893.53125
 30
0.0
 40
13.85161662817552
  1
所要油量
 41
0.9992307692307693
  7
EXCADTTF1
 72
     5
 11
1380.0
 21
893.53125
 31
0.0
100
AcDbText
  0
LINE
  5
105
330
1F
100
AcDbEntity
  8
図面枠
  6
CONTINUOUS
 62
     2
100
AcDbLine
 10
1300.0
 20
912.0
 30
0.0
 11
1620.0
 21
912.0
 31
0.0
  0
LINE
  5
106
330
1F
100
AcDbEntity
  8
図面枠
  6
CONTINUOUS
 62
     2
100
AcDbLine
 10
1300.0
 20
888.0
 30
0.0
 11
1620.0
 21
888.0
 31
0.0
  0
TEXT
  5
107
330
1F
100
AcDbEntity
  8
図面枠
  6
CONTINUOUS
 62
     4
100
AcDbText
 10
1308.0
 20
845.53125
 30
0.0
 40
13.85161662817552
  1
ユニバーサル
 41
0.9992307692307693
  7
EXCADTTF1
 72
     5
 11
1416.0
 21
845.53125
 31
0.0
100
AcDbText
  0
TEXT
  5
108
330
1F
100
AcDbEntity
  8
図面枠
  6
CONTINUOUS
 62
     4
100
AcDbText
 10
1308.0
 20
827.53125
 30
0.0
 40
13.85161662817552
  1
振り角
 41
0.9992307692307694
  7
EXCADTTF1
 72
     5
 11
1362.0
 21
827.53125
 31
0.0
100
AcDbText
  0
TEXT
  5
109
330
1F
100
AcDbEntity
  8
図面枠
  6
CONTINUOUS
 62
     4
100
AcDbText
 10
1505.0
 20
845.53125
 30
0.0
 40
13.85161662817552
  1
±3
 41
0.9992307692307694
  7
EXCADTTF1
 72
     5
 11
1532.0
 21
845.53125
 31
0.0
100
AcDbText
  0
TEXT
  5
10A
330
1F
100
AcDbEntity
  8
図面枠
  6
CONTINUOUS
 62
     4
100
AcDbText
 10
1548.0
 20
845.53125
 30
0.0
 40
13.85161662817552
  1
°
 41
0.9992307692307693
  7
EXCADTTF1
 72
     5
 11
1566.0
 21
845.53125
 31
0.0
100
AcDbText
  0
TEXT
  5
10B
330
1F
100
AcDbEntity
  8
図面枠
  6
CONTINUOUS
 62
     4
100
AcDbText
 10
1548.0
 20
821.53125
 30
0.0
 40
13.85161662817552
  1
%%%
 41
0.9992307692307693
  7
EXCADTTF1
 72
     5
 11
1557.0
 21
821.53125
 31
0.0
100
AcDbText
  0
TEXT
  5
10C
330
1F
100
AcDbEntity
  8
図面枠
  6
CONTINUOUS
 62
     4
100
AcDbText
 10
1505.0
 20
821.53125
 30
0.0
 40
13.85161662817552
  1
±5
 41
0.9992307692307694
  7
EXCADTTF1
 72
     5
 11
1532.0
 21
821.53125
 31
0.0
100
AcDbText
  0
LINE
  5
10D
330
1F
100
AcDbEntity
  8
図面枠
  6
CONTINUOUS
 62
     2
100
AcDbLine
 10
1460.0
 20
840.0
 30
0.0
 11
1620.0
 21
840.0
 31
0.0
  0
LINE
  5
10E
330
1F
100
AcDbEntity
  8
図面枠
  6
CONTINUOUS
 62
     3
100
AcDbLine
 10
1300.0
 20
816.0
 30
0.0
 11
1620.0
 21
816.0
 31
0.0
  0
LINE
  5
10F
330
1F
100
AcDbEntity
  8
図面枠
  6
CONTINUOUS
 62
     2
100
AcDbLine
 10
1300.0
 20
864.0
 30
0.0
 11
1620.0
 21
864.0
 31
0.0
  0
TEXT
  5
110
330
1F
100
AcDbEntity
  8
図面枠
  6
CONTINUOUS
 62
     4
100
AcDbText
 10
1308.0
 20
869.53125
 30
0.0
 40
13.85161662817552
  1
重量
 41
0.9992307692307693
  7
EXCADTTF1
 72
     5
 11
1344.0
 21
869.53125
 31
0.0
100
AcDbText
  0
LINE
  5
111
330
1F
100
AcDbEntity
  8
図面枠
  6
CONTINUOUS
 62
     3
100
AcDbLine
 10
1300.0
 20
1128.0
 30
0.0
 11
1300.0
 21
816.0
 31
0.0
  0
LINE
  5
112
330
1F
100
AcDbEntity
  8
図面枠
  6
CONTINUOUS
 62
     2
100
AcDbLine
 10
1460.0
 20
1104.0
 30
0.0
 11
1460.0
 21
816.0
 31
0.0
  0
LINE
  5
113
330
1F
100
AcDbEntity
  8
図面枠
  6
CONTINUOUS
 62
     2
100
AcDbLine
 10
1540.0
 20
1104.0
 30
0.0
 11
1540.0
 21
816.0
 31
0.0
  0
LINE
  5
114
330
1F
100
AcDbEntity
  8
図面枠
  6
CONTINUOUS
 62
     3
100
AcDbLine
 10
1620.0
 20
1128.0
 30
0.0
 11
1620.0
 21
816.0
 31
0.0
  0
TEXT
  5
115
330
1F
100
AcDbEntity
  8
図面枠
  6
CONTINUOUS
 62
     4
100
AcDbText
 10
1548.0
 20
893.53125
 30
0.0
 40
13.85161662817552
  1
L
 41
0.9992307692307693
  7
EXCADTTF1
 72
     5
 11
1557.0
 21
893.53125
 31
0.0
100
AcDbText
  0
TEXT
  5
116
330
1F
100
AcDbEntity
  8
図面枠
  6
CONTINUOUS
 62
     4
100
AcDbText
 10
1505.0
 20
893.53125
 30
0.0
 40
13.85161662817552
  1
3.9
 41
0.9992307692307694
  7
EXCADTTF1
 72
     5
 11
1532.0
 21
893.53125
 31
0.0
100
AcDbText
  0
LINE
  5
117
330
1F
100
AcDbEntity
  8
図面枠
  6
CONTINUOUS
 62
     3
100
AcDbLine
 10
1428.0
 20
96.0
 30
0.0
 11
1428.0
 21
60.0
 31
0.0
  0
TEXT
  5
118
330
1F
100
AcDbEntity
  8
図面枠
  6
CONTINUOUS
 62
     4
100
AcDbText
 10
1440.0
 20
69.375
 30
0.0
 40
18.46882217090069
  1
OTV-20012.5-UA
 41
0.9992307692307695
  7
EXCADTTF1
 72
     5
 11
1608.0
 21
69.375
 31
0.0
100
AcDbText
  0
LINE
  5
119
330
1F
100
AcDbEntity
  8
図面枠
  6
CONTINUOUS
 62
     3
100
AcDbLine
 10
1428.0
 20
96.0
 30
0.0
 11
1620.0
 21
96.0
 31
0.0
  0
LINE
  5
11A
330
1F
100
AcDbEntity
  8
図面枠
  6
CONTINUOUS
 62
     3
100
AcDbLine
 10
1428.0
 20
60.0
 30
0.0
 11
1620.0
 21
60.0
 31
0.0
  0
TEXT
  5
11B
330
1F
100
AcDbEntity
  8
図面枠
  6
CONTINUOUS
 62
     4
100
AcDbText
 10
1487.0
 20
869.53125
 30
0.0
 40
13.85161662817552
  1
約235
 41
0.9992307692307693
  7
EXCADTTF1
 72
     5
 11
1532.0
 21
869.53125
 31
0.0
100
AcDbText
  0
DIMENSION
  5
11D
330
1F
100
AcDbEntity
  8
Ｓ_１_１
  6
CONTINUOUS
 62
     2
100
AcDbDimension
  2
*D15
 10
715.0
 20
325.0000000000002
 30
0.0
 11
920.0000000000001
 21
335.9999999999999
 31
0.0
 70
   160
  3
ISO-25
100
AcDbAlignedDimension
 13
1125.0
 23
415.328
 33
0.0
 14
715.0
 24
415.328
 34
0.0
100
AcDbRotatedDimension
1001
ACAD
1000
DSTYLE
1002
{
1070
   270
1070
     2
1070
     6
1000
EX_NORM
1070
     7
1000
EX_NORM
1070
    41
1040
12.0
1070
    42
1040
0.0
1070
    44
1040
0.0
1070
    73
1070
     0
1070
    74
1070
     0
1070
    75
1070
     1
1070
    76
1070
     1
1070
    77
1070
     1
1070
    78
1070
     8
1070
   140
1040
13.85161662817552
1070
   147
1040
0.0
1070
   173
1070
     1
1070
   176
1070
     2
1070
   177
1070
     2
1070
   178
1070
     2
1070
   271
1070
     2
1070
   277
1070
     2
1070
   279
1070
     2
1070
   280
1070
     0
1070
   287
1070
     5
1070
   340
1005
11C
1002
}
  0
DIMENSION
  5
129
330
1F
100
AcDbEntity
  8
Ｓ_１_１
  6
CONTINUOUS
 62
     2
100
AcDbDimension
  2
*D16
 10
648.0
 20
325.0000000000002
 30
0.0
 11
681.5
 21
336.0
 31
0.0
 70
   160
  1
　67
  3
ISO-25
100
AcDbAlignedDimension
 13
715.0
 23
415.328
 33
0.0
 14
648.0
 24
424.5
 34
0.0
100
AcDbRotatedDimension
1001
ACAD
1000
DSTYLE
1002
{
1070
   270
1070
     2
1070
     6
1000
EX_NORM
1070
     7
1000
EX_NORM
1070
    41
1040
12.0
1070
    42
1040
6.0
1070
    44
1040
4.0
1070
    73
1070
     0
1070
    74
1070
     0
1070
    75
1070
     0
1070
    76
1070
     1
1070
    77
1070
     1
1070
    78
1070
     8
1070
   140
1040
13.85161662817552
1070
   147
1040
0.0
1070
   173
1070
     1
1070
   176
1070
     2
1070
   177
1070
     2
1070
   178
1070
     2
1070
   271
1070
     2
1070
   277
1070
     2
1070
   279
1070
     2
1070
   280
1070
     0
1070
   287
1070
     5
1070
   340
1005
11C
1002
}
  0
DIMENSION
  5
135
330
1F
100
AcDbEntity
  8
Ｓ_１_１
  6
CONTINUOUS
 62
     2
100
AcDbDimension
  2
*D17
 10
645.0
 20
325.0000000000011
 30
0.0
 11
664.5
 21
335.9999999999991
 31
0.0
 70
   160
  3
ISO-25
100
AcDbAlignedDimension
 13
648.0
 23
424.5
 33
0.0
 14
645.0
 24
474.0
 34
0.0
100
AcDbRotatedDimension
1001
ACAD
1000
DSTYLE
1002
{
1070
   270
1070
     2
1070
     6
1000
EX_NORM
1070
     7
1000
EX_BCIR
1070
    41
1040
12.0
1070
    42
1040
6.0
1070
    44
1040
4.0
1070
    73
1070
     0
1070
    74
1070
     0
1070
    75
1070
     0
1070
    76
1070
     1
1070
    77
1070
     1
1070
    78
1070
     8
1070
   140
1040
13.85161662817552
1070
   147
1040
0.0
1070
   173
1070
     1
1070
   176
1070
     2
1070
   177
1070
     2
1070
   178
1070
     2
1070
   271
1070
     2
1070
   277
1070
     2
1070
   279
1070
     2
1070
   280
1070
     1
1070
   287
1070
     5
1070
   340
1005
11C
1002
}
  0
DIMENSION
  5
143
330
1F
100
AcDbEntity
  8
Ｓ_１_１
  6
CONTINUOUS
 62
     2
100
AcDbDimension
  2
*D18
 10
645.0
 20
325.0
 30
0.0
 11
639.999999999495
 21
314.0
 31
0.0
 70
   160
  3
ISO-25
100
AcDbAlignedDimension
 13
634.99999999899
 23
490.20869628464
 33
0.0
 14
645.0
 24
474.0
 34
0.0
100
AcDbRotatedDimension
1001
ACAD
1000
DSTYLE
1002
{
1070
   270
1070
     2
1070
     6
1000
EX_BCIR
1070
     7
1000
EX_BCIR
1070
    41
1040
4.0
1070
    42
1040
6.0
1070
    44
1040
4.0
1070
    73
1070
     0
1070
    74
1070
     0
1070
    75
1070
     1
1070
    76
1070
     0
1070
    77
1070
     1
1070
    78
1070
     8
1070
   140
1040
13.85161662817552
1070
   147
1040
0.0
1070
   173
1070
     1
1070
   176
1070
     2
1070
   177
1070
     2
1070
   178
1070
     2
1070
   271
1070
     2
1070
   277
1070
     2
1070
   279
1070
     2
1070
   280
1070
     0
1070
   287
1070
     5
1070
   340
1005
11C
1002
}
  0
DIMENSION
  5
14F
330
1F
100
AcDbEntity
  8
Ｓ_１_１
  6
CONTINUOUS
 62
     2
100
AcDbDimension
  2
*D19
 10
600.0
 20
325.0000000000001
 30
0.0
 11
617.499999999495
 21
336.0
 31
0.0
 70
   160
  3
ISO-25
100
AcDbAlignedDimension
 13
634.99999999899
 23
490.20869628464
 33
0.0
 14
600.0
 24
427.0
 34
0.0
100
AcDbRotatedDimension
1001
ACAD
1000
DSTYLE
1002
{
1070
   270
1070
     2
1070
     6
1000
EX_BCIR
1070
     7
1000
EX_NORM
1070
    41
1040
4.0
1070
    42
1040
6.0
1070
    44
1040
4.0
1070
    73
1070
     0
1070
    74
1070
     0
1070
    75
1070
     0
1070
    76
1070
     1
1070
    77
1070
     1
1070
    78
1070
     8
1070
   140
1040
13.85161662817552
1070
   147
1040
0.0
1070
   173
1070
     1
1070
   176
1070
     2
1070
   177
1070
     2
1070
   178
1070
     2
1070
   271
1070
     2
1070
   277
1070
     2
1070
   279
1070
     2
1070
   280
1070
     0
1070
   287
1070
     5
1070
   340
1005
11C
1002
}
  0
DIMENSION
  5
15B
330
1F
100
AcDbEntity
  8
Ｓ_１_１
  6
CONTINUOUS
 62
     2
100
AcDbDimension
  2
*D20
 10
1125.0
 20
300.0
 30
0.0
 11
862.5
 21
311.0
 31
0.0
 70
   160
  3
ISO-25
100
AcDbAlignedDimension
 13
600.0
 23
427.0
 33
0.0
 14
1125.0
 24
415.328
 34
0.0
100
AcDbRotatedDimension
1001
ACAD
1000
DSTYLE
1002
{
1070
   270
1070
     2
1070
     6
1000
EX_NORM
1070
     7
1000
EX_NORM
1070
    41
1040
12.0
1070
    42
1040
6.0
1070
    44
1040
4.0
1070
    73
1070
     0
1070
    74
1070
     0
1070
    75
1070
     0
1070
    76
1070
     0
1070
    77
1070
     1
1070
    78
1070
     8
1070
   140
1040
13.85161662817552
1070
   147
1040
0.0
1070
   173
1070
     1
1070
   176
1070
     2
1070
   177
1070
     2
1070
   178
1070
     2
1070
   271
1070
     2
1070
   277
1070
     2
1070
   279
1070
     2
1070
   280
1070
     0
1070
   287
1070
     5
1070
   340
1005
11C
1002
}
  0
DIMENSION
  5
168
330
1F
100
AcDbEntity
  8
Ｓ_１_１
  6
CONTINUOUS
 62
     2
100
AcDbDimension
  2
*D21
 10
525.0
 20
425.0000000000009
 30
0.0
 11
514.0
 21
550.0000000000005
 31
0.0
 70
   160
  1
%%c250
  3
ISO-25
100
AcDbAlignedDimension
 13
602.0
 23
675.0
 33
0.0
 14
602.0
 24
425.0000000000009
 34
0.0
 50
90.0
100
AcDbRotatedDimension
1001
ACAD
1000
DSTYLE
1002
{
1070
   270
1070
     2
1070
     6
1000
EX_NORM
1070
     7
1000
EX_NORM
1070
    41
1040
12.0
1070
    42
1040
6.0
1070
    44
1040
4.0
1070
    73
1070
     0
1070
    74
1070
     0
1070
    75
1070
     0
1070
    76
1070
     0
1070
    77
1070
     1
1070
    78
1070
     8
1070
   140
1040
13.85161662817552
1070
   147
1040
0.0
1070
   173
1070
     1
1070
   176
1070
     2
1070
   177
1070
     2
1070
   178
1070
     2
1070
   271
1070
     2
1070
   277
1070
     2
1070
   279
1070
     2
1070
   280
1070
     0
1070
   287
1070
     5
1070
   340
1005
11C
1002
}
  0
DIMENSION
  5
175
330
1F
100
AcDbEntity
  8
Ｓ_１_１
  6
CONTINUOUS
 62
     2
100
AcDbDimension
  2
*D22
 10
1200.0
 20
413.328
 30
0.0
 11
1189.0
 21
550.0
 31
0.0
 70
   160
  1
%%c273.1
  3
ISO-25
100
AcDbAlignedDimension
 13
1123.00000000002
 23
686.672
 33
0.0
 14
1123.00000000002
 24
413.328
 34
0.0
 50
90.0
100
AcDbRotatedDimension
1001
ACAD
1000
DSTYLE
1002
{
1070
   270
1070
     2
1070
     6
1000
EX_NORM
1070
     7
1000
EX_NORM
1070
    41
1040
12.0
1070
    42
1040
6.0
1070
    44
1040
4.0
1070
    73
1070
     0
1070
    74
1070
     0
1070
    75
1070
     1
1070
    76
1070
     0
1070
    77
1070
     1
1070
    78
1070
     8
1070
   140
1040
13.85161662817552
1070
   147
1040
0.0
1070
   173
1070
     1
1070
   176
1070
     2
1070
   177
1070
     2
1070
   178
1070
     2
1070
   271
1070
     2
1070
   277
1070
     2
1070
   279
1070
     2
1070
   280
1070
     0
1070
   287
1070
     5
1070
   340
1005
11C
1002
}
  0
DIMENSION
  5
181
330
1F
100
AcDbEntity
  8
Ｓ_１_１
  6
CONTINUOUS
 62
     2
100
AcDbDimension
  2
*D23
 10
222.0577136594
 20
594.9999999999998
 30
0.0
 11
459.5740282943701
 21
457.8698918085723
 31
0.0
 70
   163
  1
P.C.D 180
  3
ISO-25
100
AcDbDiametricDimension
 15
377.9422863405991
 25
504.9999999999999
 35
0.0
 40
0.0
1001
ACAD
1000
DSTYLE
1002
{
1070
   270
1070
     2
1070
     6
1000
EX_NORM
1070
     7
1000
EX_NORM
1070
    41
1040
12.0
1070
    73
1070
     0
1070
    74
1070
     0
1070
    77
1070
     1
1070
    78
1070
     8
1070
   140
1040
13.85161662817552
1070
   147
1040
2.0
1070
   173
1070
     1
1070
   176
1070
     2
1070
   177
1070
     2
1070
   178
1070
     2
1070
   271
1070
     2
1070
   277
1070
     2
1070
   279
1070
     0
1070
   280
1070
     0
1070
   287
1070
     3
1070
   340
1005
11C
1002
}
  0
TEXT
  5
18D
330
1F
100
AcDbEntity
  8
Ｓ_１_１
  6
CONTINUOUS
 62
     4
100
AcDbText
 10
383.4000000000003
 20
776.03539629792
 30
0.0
 40
13.85161662817552
  1
4-M20ネジ通シ
 41
0.9992307692307693
  7
EXCADTTF1
 72
     5
 11
500.4000000000003
 21
776.03539629792
 31
0.0
100
AcDbText
  0
LEADER
  5
18E
330
1F
100
AcDbEntity
  8
Ｓ_１_１
  6
CONTINUOUS
 62
     2
100
AcDbLeader
  3
ISO-25
 76
     3
 10
307.5000681596679
 20
646.6143009910592
 30
0.0
 10
379.6052539666404
 20
771.50414629792
 30
0.0
 10
500.4000000000001
 20
771.50414629792
 30
0.0
1001
ACAD
1000
DSTYLE
1002
{
1070
     5
1000
EX_NORM
1070
    41
1040
12.0
1070
   341
1005
79
1002
}
  0
DIMENSION
  5
18F
330
1F
100
AcDbEntity
  8
Ｓ_１_１
  6
CONTINUOUS
 62
     2
100
AcDbDimension
  2
*D24
 10
1292.612849930723
 20
488.0000000000107
 30
0.0
 11
1394.500000000001
 21
559.5262794416294
 31
0.0
 70
   163
  1
　　　　　　　P.C.D 248
  3
ISO-25
100
AcDbDiametricDimension
 15
1507.387150069276
 25
611.9999999999892
 35
0.0
 40
0.0
1001
ACAD
1000
DSTYLE
1002
{
1070
   270
1070
     2
1070
     6
1000
EX_NORM
1070
     7
1000
EX_NORM
1070
    41
1040
12.0
1070
    73
1070
     0
1070
    74
1070
     0
1070
    77
1070
     1
1070
    78
1070
     8
1070
   140
1040
13.85161662817552
1070
   147
1040
0.0
1070
   173
1070
     1
1070
   176
1070
     2
1070
   177
1070
     2
1070
   178
1070
     2
1070
   271
1070
     2
1070
   277
1070
     2
1070
   279
1070
     2
1070
   280
1070
     0
1070
   287
1070
     5
1070
   340
1005
11C
1002
}
  0
TEXT
  5
199
330
1F
100
AcDbEntity
  8
Ｓ_１_１
  6
CONTINUOUS
 62
     4
100
AcDbText
 10
1448.6
 20
744.66627758122
 30
0.0
 40
13.85161662817552
  1
4-M12ネジ深20
 41
0.9992307692307693
  7
EXCADTTF1
 72
     5
 11
1565.6
 21
744.66627758122
 31
0.0
100
AcDbText
  0
LEADER
  5
19A
330
1F
100
AcDbEntity
  8
Ｓ_１_１
  6
CONTINUOUS
 62
     2
100
AcDbLeader
  3
ISO-25
 76
     3
 10
1404.0217175478
 20
678.45261585651
 30
0.0
 10
1439.6340745613
 20
740.13502758122
 30
0.0
 10
1565.6
 20
740.13502758122
 30
0.0
1001
ACAD
1000
DSTYLE
1002
{
1070
     5
1000
EX_NORM
1070
    41
1040
12.0
1070
   341
1005
79
1002
}
  0
LEADER
  5
19B
330
1F
100
AcDbEntity
  8
Ｓ_１_１
  6
CONTINUOUS
 62
     2
100
AcDbLeader
  3
ISO-25
 76
     3
 10
308.9673581959601
 20
562.0244121264
 30
0.0
 10
397.2481998220401
 20
714.93131515772
 30
0.0
 10
579.2
 20
714.93131515772
 30
0.0
1001
ACAD
1000
DSTYLE
1002
{
1070
     5
1000
EX_NORM
1070
    41
1040
12.0
1070
   341
1005
79
1002
}
  0
TEXT
  5
19C
330
1F
100
AcDbEntity
  8
Ｓ_１_１
  6
CONTINUOUS
 62
     4
100
AcDbText
 10
408.2
 20
737.46256515772
 30
0.0
 40
13.85161662817552
  1
M20六角穴付きボルト
 41
0.9992307692307691
  7
EXCADTTF1
 72
     5
 11
579.2
 21
737.46256515772
 31
0.0
100
AcDbText
  0
TEXT
  5
19D
330
1F
100
AcDbEntity
  8
Ｓ_１_１
  6
CONTINUOUS
 62
     4
100
AcDbText
 10
408.2
 20
719.46256515772
 30
0.0
 40
13.85161662817552
  1
（センターボルト）
 41
0.9992307692307693
  7
EXCADTTF1
 72
     5
 11
570.2
 21
719.46256515772
 31
0.0
100
AcDbText
  0
DIMENSION
  5
19E
330
1F
100
AcDbEntity
  8
Ｓ_１_１
  6
CONTINUOUS
 62
     2
100
AcDbDimension
  2
*D25
 10
1200.0
 20
772.034262
 30
0.0
 11
1189.0
 21
729.3531309999901
 31
0.0
 70
   160
  1
(85)
  3
ISO-25
100
AcDbAlignedDimension
 13
1123.0
 23
686.67199999998
 33
0.0
 14
1057.000007
 24
772.034262
 34
0.0
 50
90.0
100
AcDbRotatedDimension
1001
ACAD
1000
DSTYLE
1002
{
1070
   270
1070
     2
1070
     6
1000
EX_NORM
1070
     7
1000
EX_NORM
1070
    41
1040
12.0
1070
    42
1040
6.0
1070
    44
1040
4.0
1070
    73
1070
     0
1070
    74
1070
     0
1070
    75
1070
     0
1070
    76
1070
     0
1070
    77
1070
     1
1070
    78
1070
     8
1070
   140
1040
13.85161662817552
1070
   147
1040
0.0
1070
   173
1070
     1
1070
   176
1070
     2
1070
   177
1070
     2
1070
   178
1070
     2
1070
   271
1070
     2
1070
   277
1070
     2
1070
   279
1070
     2
1070
   280
1070
     0
1070
   287
1070
     5
1070
   340
1005
11C
1002
}
  0
LINE
  5
1AB
330
1F
100
AcDbEntity
  8
Ｓ_１_１
  6
CONTINUOUS
 62
     3
100
AcDbLine
 10
716.9999999999998
 20
413.328
 30
0.0
 11
714.9999999999998
 21
415.328
 31
0.0
  0
LINE
  5
1AC
330
1F
100
AcDbEntity
  8
Ｓ_１_１
  6
CONTINUOUS
 62
     3
100
AcDbLine
 10
712.9999999999998
 20
422.5
 30
0.0
 11
714.9999999999998
 21
424.5
 31
0.0
  0
LINE
  5
1AD
330
1F
100
AcDbEntity
  8
Ｓ_１_１
  6
CONTINUOUS
 62
     3
100
AcDbLine
 10
716.9999999999998
 20
413.328
 30
0.0
 11
1064.5
 21
413.328
 31
0.0
  0
LINE
  5
1AE
330
1F
100
AcDbEntity
  8
Ｓ_１_１
  6
CONTINUOUS
 62
     3
100
AcDbLine
 10
649.9999999999998
 20
422.5
 30
0.0
 11
647.9999999999998
 21
424.5
 31
0.0
  0
LINE
  5
1AF
330
1F
100
AcDbEntity
  8
Ｓ_１_１
  6
CONTINUOUS
 62
     3
100
AcDbLine
 10
649.9999999999998
 20
422.5
 30
0.0
 11
712.9999999999998
 21
422.5
 31
0.0
  0
ARC
  5
1B0
330
1F
100
AcDbEntity
  8
Ｓ_１_１
  6
CONTINUOUS
 62
     3
100
AcDbCircle
 10
1070.0
 20
416.8699999999999
 30
0.0
 40
6.541670000000004
100
AcDbArc
 50
212.7790000000002
 51
327.2210000000002
  0
LINE
  5
1B1
330
1F
100
AcDbEntity
  8
Ｓ_１_１
  6
CONTINUOUS
 62
     3
100
AcDbLine
 10
716.9999999999998
 20
686.6719999999998
 30
0.0
 11
714.9999999999998
 21
684.6719999999998
 31
0.0
  0
LINE
  5
1B2
330
1F
100
AcDbEntity
  8
Ｓ_１_１
  6
CONTINUOUS
 62
     3
100
AcDbLine
 10
712.9999999999998
 20
677.4999999999998
 30
0.0
 11
714.9999999999998
 21
675.4999999999998
 31
0.0
  0
LINE
  5
1B3
330
1F
100
AcDbEntity
  8
Ｓ_１_１
  6
CONTINUOUS
 62
     3
100
AcDbLine
 10
716.9999999999998
 20
686.6719999999998
 30
0.0
 11
1064.5
 21
686.672
 31
0.0
  0
LINE
  5
1B4
330
1F
100
AcDbEntity
  8
Ｓ_１_１
  6
CONTINUOUS
 62
     3
100
AcDbLine
 10
649.9999999999998
 20
677.4999999999998
 30
0.0
 11
712.9999999999998
 21
677.4999999999998
 31
0.0
  0
LINE
  5
1B5
330
1F
100
AcDbEntity
  8
Ｓ_１_１
  6
CONTINUOUS
 62
     3
100
AcDbLine
 10
649.9999999999998
 20
677.4999999999998
 30
0.0
 11
647.9999999999998
 21
675.4999999999998
 31
0.0
  0
LINE
  5
1B6
330
1F
100
AcDbEntity
  8
Ｓ_１_１
  6
EXLTYPE2
 62
     1
100
AcDbLine
 10
647.9999999999998
 20
694.9999999999998
 30
0.0
 11
648.3189999999997
 21
694.9999999999998
 31
0.0
  0
LINE
  5
1B7
330
1F
100
AcDbEntity
  8
Ｓ_１_１
  6
EXLTYPE6
 62
     1
100
AcDbLine
 10
681.4999999999998
 20
680.4999999999998
 30
0.0
 11
681.4999999999998
 21
645.0
 31
0.0
  0
LINE
  5
1B8
330
1F
100
AcDbEntity
  8
Ｓ_１_１
  6
EXLTYPE6
 62
     1
100
AcDbLine
 10
681.4999999999998
 20
419.5
 30
0.0
 11
681.4999999999998
 21
454.9999999999998
 31
0.0
  0
ARC
  5
1B9
330
1F
100
AcDbEntity
  8
Ｓ_１_１
  6
CONTINUOUS
 62
     3
100
AcDbCircle
 10
1070.0
 20
683.1300000000001
 30
0.0
 40
6.541670000000004
100
AcDbArc
 50
32.77899999999993
 51
147.220999999999
  0
ARC
  5
1BA
330
1F
100
AcDbEntity
  8
Ｓ_１_１
  6
CONTINUOUS
 62
     3
100
AcDbCircle
 10
1045.0
 20
700.094832
 30
0.0
 40
21.939437
100
AcDbArc
 50
76.82652799999998
 51
103.173491
  0
ARC
  5
1BB
330
1F
100
AcDbEntity
  8
Ｓ_１_１
  6
CONTINUOUS
 62
     3
100
AcDbCircle
 10
1045.0
 20
731.473712
 30
0.0
 40
21.939437
100
AcDbArc
 50
256.8264750000001
 51
283.1734650000004
  0
ARC
  5
1BC
330
1F
100
AcDbEntity
  8
Ｓ_１_１
  6
CONTINUOUS
 62
     3
100
AcDbCircle
 10
1035.906715
 20
698.401507
 30
0.0
 40
5.367246000000002
100
AcDbArc
 50
235.615862
 51
304.3841460000003
  0
ARC
  5
1BD
330
1F
100
AcDbEntity
  8
Ｓ_１_１
  6
CONTINUOUS
 62
     3
100
AcDbCircle
 10
1045.000019
 20
713.0964650000001
 30
0.0
 40
20.062196
100
AcDbArc
 50
252.4119940000001
 51
287.5878780000001
  0
ARC
  5
1BE
330
1F
100
AcDbEntity
  8
Ｓ_１_１
  6
CONTINUOUS
 62
     3
100
AcDbCircle
 10
1035.906715
 20
696.6670220000001
 30
0.0
 40
5.367246000000002
100
AcDbArc
 50
55.61579900000001
 51
124.384083
  0
ARC
  5
1BF
330
1F
100
AcDbEntity
  8
Ｓ_１_１
  6
CONTINUOUS
 62
     3
100
AcDbCircle
 10
1054.093284
 20
696.6670220000001
 30
0.0
 40
5.367246000000002
100
AcDbArc
 50
55.61588100000003
 51
124.384165
  0
ARC
  5
1C0
330
1F
100
AcDbEntity
  8
Ｓ_１_１
  6
CONTINUOUS
 62
     3
100
AcDbCircle
 10
1045.000019
 20
681.972074
 30
0.0
 40
20.062196
100
AcDbArc
 50
72.41206700000001
 51
107.587951
  0
ARC
  5
1C1
330
1F
100
AcDbEntity
  8
Ｓ_１_１
  6
CONTINUOUS
 62
     3
100
AcDbCircle
 10
1054.093284
 20
698.401507
 30
0.0
 40
5.367246000000002
100
AcDbArc
 50
235.61578
 51
304.384065
  0
LINE
  5
1C2
330
1F
100
AcDbEntity
  8
Ｓ_１_１
  6
CONTINUOUS
 62
     3
100
AcDbLine
 10
1032.999992
 20
709.534263
 30
0.0
 11
1056.999988
 21
709.534263
 31
0.0
  0
LINE
  5
1C3
330
1F
100
AcDbEntity
  8
Ｓ_１_１
  6
CONTINUOUS
 62
     3
100
AcDbLine
 10
1050.0
 20
710.111617
 30
0.0
 11
1057.999992
 21
710.111617
 31
0.0
  0
LINE
  5
1C4
330
1F
100
AcDbEntity
  8
Ｓ_１_１
  6
CONTINUOUS
 62
     3
100
AcDbLine
 10
1050.0
 20
721.456927
 30
0.0
 11
1057.999992
 21
721.456927
 31
0.0
  0
LINE
  5
1C5
330
1F
100
AcDbEntity
  8
Ｓ_１_１
  6
CONTINUOUS
 62
     3
100
AcDbLine
 10
1032.000008
 20
710.111617
 30
0.0
 11
1040.0
 21
710.111617
 31
0.0
  0
LINE
  5
1C6
330
1F
100
AcDbEntity
  8
Ｓ_１_１
  6
CONTINUOUS
 62
     3
100
AcDbLine
 10
1032.000008
 20
721.456927
 30
0.0
 11
1040.0
 21
721.456927
 31
0.0
  0
LINE
  5
1C7
330
1F
100
AcDbEntity
  8
Ｓ_１_１
  6
CONTINUOUS
 62
     3
100
AcDbLine
 10
1032.000008
 20
737.611617
 30
0.0
 11
1057.999992
 21
737.611617
 31
0.0
  0
LINE
  5
1C8
330
1F
100
AcDbEntity
  8
Ｓ_１_１
  6
CONTINUOUS
 62
     3
100
AcDbLine
 10
1031.999998
 20
737.611631
 30
0.0
 11
1033.000005
 21
737.0342759999999
 31
0.0
  0
LINE
  5
1C9
330
1F
100
AcDbEntity
  8
Ｓ_１_１
  6
CONTINUOUS
 62
     3
100
AcDbLine
 10
1056.999993
 20
722.0342719999999
 30
0.0
 11
1058.0
 21
721.456917
 31
0.0
  0
LINE
  5
1CA
330
1F
100
AcDbEntity
  8
Ｓ_１_１
  6
CONTINUOUS
 62
     3
100
AcDbLine
 10
1031.999997
 20
710.111621
 30
0.0
 11
1032.999987
 21
709.5342759999999
 31
0.0
  0
LINE
  5
1CB
330
1F
100
AcDbEntity
  8
Ｓ_１_１
  6
CONTINUOUS
 62
     3
100
AcDbLine
 10
1057.0
 20
737.034269
 30
0.0
 11
1057.999991
 21
737.6116139999999
 31
0.0
  0
LINE
  5
1CC
330
1F
100
AcDbEntity
  8
Ｓ_１_１
  6
CONTINUOUS
 62
     3
100
AcDbLine
 10
1031.999994
 20
721.4569200000001
 30
0.0
 11
1032.999985
 21
722.034265
 31
0.0
  0
LINE
  5
1CD
330
1F
100
AcDbEntity
  8
Ｓ_１_１
  6
CONTINUOUS
 62
     3
100
AcDbLine
 10
1056.999982
 20
709.534263
 30
0.0
 11
1057.99999
 21
710.111617
 31
0.0
  0
LINE
  5
1CE
330
1F
100
AcDbEntity
  8
Ｓ_１_１
  6
CONTINUOUS
 62
     3
100
AcDbLine
 10
1050.0
 20
721.456927
 30
0.0
 11
1050.0
 21
710.111617
 31
0.0
  0
LINE
  5
1CF
330
1F
100
AcDbEntity
  8
Ｓ_１_１
  6
CONTINUOUS
 62
     3
100
AcDbLine
 10
1040.0
 20
721.456927
 30
0.0
 11
1040.0
 21
710.111617
 31
0.0
  0
LINE
  5
1D0
330
1F
100
AcDbEntity
  8
Ｓ_１_１
  6
CONTINUOUS
 62
     3
100
AcDbLine
 10
1046.749993
 20
745.215989
 30
0.0
 11
1046.854907
 21
745.034273
 31
0.0
  0
LINE
  5
1D1
330
1F
100
AcDbEntity
  8
Ｓ_１_１
  6
CONTINUOUS
 62
     3
100
AcDbLine
 10
1046.749992
 20
745.034273
 30
0.0
 11
1061.000003
 21
745.034273
 31
0.0
  0
LINE
  5
1D2
330
1F
100
AcDbEntity
  8
Ｓ_１_１
  6
CONTINUOUS
 62
     3
100
AcDbLine
 10
1046.749992
 20
744.5342620000001
 30
0.0
 11
1060.499992
 21
744.5342620000001
 31
0.0
  0
LINE
  5
1D3
330
1F
100
AcDbEntity
  8
Ｓ_１_１
  6
CONTINUOUS
 62
     3
100
AcDbLine
 10
1043.250007
 20
748.0342660000001
 30
0.0
 11
1046.749992
 21
748.0342660000001
 31
0.0
  0
LINE
  5
1D4
330
1F
100
AcDbEntity
  8
Ｓ_１_１
  6
CONTINUOUS
 62
     3
100
AcDbLine
 10
1043.250007
 20
748.0342660000001
 30
0.0
 11
1043.250007
 21
744.5342620000001
 31
0.0
  0
LINE
  5
1D5
330
1F
100
AcDbEntity
  8
Ｓ_１_１
  6
CONTINUOUS
 62
     3
100
AcDbLine
 10
1046.749992
 20
748.0342660000001
 30
0.0
 11
1046.749992
 21
744.5342620000001
 31
0.0
  0
LINE
  5
1D6
330
1F
100
AcDbEntity
  8
Ｓ_１_１
  6
CONTINUOUS
 62
     3
100
AcDbLine
 10
1029.5
 20
742.034269
 30
0.0
 11
1030.0
 21
741.5342700000001
 31
0.0
  0
LINE
  5
1D7
330
1F
100
AcDbEntity
  8
Ｓ_１_１
  6
CONTINUOUS
 62
     3
100
AcDbLine
 10
1029.500002
 20
743.0342740000001
 30
0.0
 11
1030.000005
 21
743.534277
 31
0.0
  0
LINE
  5
1D8
330
1F
100
AcDbEntity
  8
Ｓ_１_１
  6
CONTINUOUS
 62
     3
100
AcDbLine
 10
1060.000014
 20
741.534287
 30
0.0
 11
1060.500004
 21
742.034277
 31
0.0
  0
LINE
  5
1D9
330
1F
100
AcDbEntity
  8
Ｓ_１_１
  6
CONTINUOUS
 62
     3
100
AcDbLine
 10
1059.999994
 20
743.5342660000001
 30
0.0
 11
1060.499994
 21
743.0342660000001
 31
0.0
  0
LINE
  5
1DA
330
1F
100
AcDbEntity
  8
Ｓ_１_１
  6
CONTINUOUS
 62
     3
100
AcDbLine
 10
1057.999992
 20
741.5342700000001
 30
0.0
 11
1059.999999
 21
741.5342700000001
 31
0.0
  0
LINE
  5
1DB
330
1F
100
AcDbEntity
  8
Ｓ_１_１
  6
CONTINUOUS
 62
     3
100
AcDbLine
 10
1057.999992
 20
743.5342580000001
 30
0.0
 11
1059.999999
 21
743.5342580000001
 31
0.0
  0
LINE
  5
1DC
330
1F
100
AcDbEntity
  8
Ｓ_１_１
  6
CONTINUOUS
 62
     3
100
AcDbLine
 10
1030.0
 20
743.5342580000001
 30
0.0
 11
1032.000008
 21
743.5342580000001
 31
0.0
  0
LINE
  5
1DD
330
1F
100
AcDbEntity
  8
Ｓ_１_１
  6
CONTINUOUS
 62
     3
100
AcDbLine
 10
1030.0
 20
741.5342700000001
 30
0.0
 11
1032.000008
 21
741.5342700000001
 31
0.0
  0
LINE
  5
1DE
330
1F
100
AcDbEntity
  8
Ｓ_１_１
  6
CONTINUOUS
 62
     3
100
AcDbLine
 10
1029.500008
 20
743.0342660000001
 30
0.0
 11
1029.500008
 21
742.0342620000001
 31
0.0
  0
LINE
  5
1DF
330
1F
100
AcDbEntity
  8
Ｓ_１_１
  6
CONTINUOUS
 62
     3
100
AcDbLine
 10
1060.499992
 20
743.0342660000001
 30
0.0
 11
1060.499992
 21
742.0342620000001
 31
0.0
  0
LINE
  5
1E0
330
1F
100
AcDbEntity
  8
Ｓ_１_１
  6
CONTINUOUS
 62
     3
100
AcDbLine
 10
1043.145087
 20
745.034277
 30
0.0
 11
1043.250011
 21
745.216009
 31
0.0
  0
LINE
  5
1E1
330
1F
100
AcDbEntity
  8
Ｓ_１_１
  6
CONTINUOUS
 62
     3
100
AcDbLine
 10
1028.999996
 20
768.5342580000001
 30
0.0
 11
1061.000003
 21
768.5342580000001
 31
0.0
  0
LINE
  5
1E2
330
1F
100
AcDbEntity
  8
Ｓ_１_１
  6
CONTINUOUS
 62
     3
100
AcDbLine
 10
1028.999996
 20
761.0342580000001
 30
0.0
 11
1061.000003
 21
761.0342580000001
 31
0.0
  0
LINE
  5
1E3
330
1F
100
AcDbEntity
  8
Ｓ_１_１
  6
CONTINUOUS
 62
     3
100
AcDbLine
 10
1028.999996
 20
745.034273
 30
0.0
 11
1043.250007
 21
745.034273
 31
0.0
  0
LINE
  5
1E4
330
1F
100
AcDbEntity
  8
Ｓ_１_１
  6
CONTINUOUS
 62
     3
100
AcDbLine
 10
1061.000003
 20
752.0342620000001
 30
0.0
 11
1028.999996
 21
752.0342620000001
 31
0.0
  0
LINE
  5
1E5
330
1F
100
AcDbEntity
  8
Ｓ_１_１
  6
CONTINUOUS
 62
     3
100
AcDbLine
 10
1060.500011
 20
744.5342860000001
 30
0.0
 11
1061.000015
 21
745.03429
 31
0.0
  0
LINE
  5
1E6
330
1F
100
AcDbEntity
  8
Ｓ_１_１
  6
CONTINUOUS
 62
     3
100
AcDbLine
 10
1028.999995
 20
745.034265
 30
0.0
 11
1029.49999
 21
744.5342700000001
 31
0.0
  0
LINE
  5
1E7
330
1F
100
AcDbEntity
  8
Ｓ_１_１
  6
CONTINUOUS
 62
     3
100
AcDbLine
 10
1061.000003
 20
752.0342620000001
 30
0.0
 11
1061.000003
 21
745.034273
 31
0.0
  0
LINE
  5
1E8
330
1F
100
AcDbEntity
  8
Ｓ_１_１
  6
CONTINUOUS
 62
     3
100
AcDbLine
 10
1028.999996
 20
752.0342620000001
 30
0.0
 11
1028.999996
 21
745.034273
 31
0.0
  0
LINE
  5
1E9
330
1F
100
AcDbEntity
  8
Ｓ_１_１
  6
CONTINUOUS
 62
     3
100
AcDbLine
 10
1028.999989
 20
761.0342660000001
 30
0.0
 11
1029.499989
 21
760.5342660000001
 31
0.0
  0
LINE
  5
1EA
330
1F
100
AcDbEntity
  8
Ｓ_１_１
  6
CONTINUOUS
 62
     3
100
AcDbLine
 10
1060.499996
 20
752.534275
 30
0.0
 11
1060.999997
 21
752.0342740000001
 31
0.0
  0
LINE
  5
1EB
330
1F
100
AcDbEntity
  8
Ｓ_１_１
  6
CONTINUOUS
 62
     3
100
AcDbLine
 10
1060.500008
 20
760.534287
 30
0.0
 11
1060.999998
 21
761.0342759999999
 31
0.0
  0
LINE
  5
1EC
330
1F
100
AcDbEntity
  8
Ｓ_１_１
  6
CONTINUOUS
 62
     3
100
AcDbLine
 10
1029.000016
 20
752.03429
 30
0.0
 11
1029.500006
 21
752.534279
 31
0.0
  0
LINE
  5
1ED
330
1F
100
AcDbEntity
  8
Ｓ_１_１
  6
CONTINUOUS
 62
     3
100
AcDbLine
 10
1029.500008
 20
760.5342660000001
 30
0.0
 11
1060.499992
 21
760.5342660000001
 31
0.0
  0
LINE
  5
1EE
330
1F
100
AcDbEntity
  8
Ｓ_１_１
  6
CONTINUOUS
 62
     3
100
AcDbLine
 10
1029.500008
 20
752.534273
 30
0.0
 11
1060.499992
 21
752.534273
 31
0.0
  0
LINE
  5
1EF
330
1F
100
AcDbEntity
  8
Ｓ_１_１
  6
CONTINUOUS
 62
     3
100
AcDbLine
 10
1060.499992
 20
760.5342660000001
 30
0.0
 11
1060.499992
 21
752.534273
 31
0.0
  0
LINE
  5
1F0
330
1F
100
AcDbEntity
  8
Ｓ_１_１
  6
CONTINUOUS
 62
     3
100
AcDbLine
 10
1029.500008
 20
760.5342660000001
 30
0.0
 11
1029.500008
 21
752.534273
 31
0.0
  0
LINE
  5
1F1
330
1F
100
AcDbEntity
  8
Ｓ_１_１
  6
CONTINUOUS
 62
     3
100
AcDbLine
 10
1057.999992
 20
771.5342740000001
 30
0.0
 11
1060.999991
 21
768.534275
 31
0.0
  0
LINE
  5
1F2
330
1F
100
AcDbEntity
  8
Ｓ_１_１
  6
CONTINUOUS
 62
     3
100
AcDbLine
 10
1031.999995
 20
771.534292
 30
0.0
 11
1029.000002
 21
768.5343
 31
0.0
  0
LINE
  5
1F3
330
1F
100
AcDbEntity
  8
Ｓ_１_１
  6
CONTINUOUS
 62
     3
100
AcDbLine
 10
1032.999992
 20
737.0342620000001
 30
0.0
 11
1032.999992
 21
722.0342620000001
 31
0.0
  0
LINE
  5
1F4
330
1F
100
AcDbEntity
  8
Ｓ_１_１
  6
CONTINUOUS
 62
     3
100
AcDbLine
 10
1057.000007
 20
737.0342620000001
 30
0.0
 11
1057.000007
 21
722.0342620000001
 31
0.0
  0
LINE
  5
1F5
330
1F
100
AcDbEntity
  8
Ｓ_１_１
  6
CONTINUOUS
 62
     3
100
AcDbLine
 10
1032.000008
 20
771.534269
 30
0.0
 11
1057.999992
 21
771.534269
 31
0.0
  0
LINE
  5
1F6
330
1F
100
AcDbEntity
  8
Ｓ_１_１
  6
CONTINUOUS
 62
     3
100
AcDbLine
 10
1061.000003
 20
768.5342580000001
 30
0.0
 11
1061.000003
 21
761.0342580000001
 31
0.0
  0
LINE
  5
1F7
330
1F
100
AcDbEntity
  8
Ｓ_１_１
  6
CONTINUOUS
 62
     3
100
AcDbLine
 10
1028.999996
 20
768.5342580000001
 30
0.0
 11
1028.999996
 21
761.0342580000001
 31
0.0
  0
LINE
  5
1F8
330
1F
100
AcDbEntity
  8
Ｓ_１_１
  6
CONTINUOUS
 62
     3
100
AcDbLine
 10
1057.999992
 20
721.4569080000001
 30
0.0
 11
1057.999992
 21
710.111617
 31
0.0
  0
LINE
  5
1F9
330
1F
100
AcDbEntity
  8
Ｓ_１_１
  6
CONTINUOUS
 62
     3
100
AcDbLine
 10
1032.000008
 20
721.456927
 30
0.0
 11
1032.000008
 21
710.111617
 31
0.0
  0
LINE
  5
1FA
330
1F
100
AcDbEntity
  8
Ｓ_１_１
  6
CONTINUOUS
 62
     3
100
AcDbLine
 10
1057.000007
 20
772.0342620000001
 30
0.0
 11
1057.000007
 21
771.534269
 31
0.0
  0
LINE
  5
1FB
330
1F
100
AcDbEntity
  8
Ｓ_１_１
  6
CONTINUOUS
 62
     3
100
AcDbLine
 10
1032.999992
 20
772.0342620000001
 30
0.0
 11
1032.999992
 21
771.534269
 31
0.0
  0
LINE
  5
1FC
330
1F
100
AcDbEntity
  8
Ｓ_１_１
  6
CONTINUOUS
 62
     3
100
AcDbLine
 10
1032.000008
 20
744.5342620000001
 30
0.0
 11
1032.000008
 21
737.611617
 31
0.0
  0
LINE
  5
1FD
330
1F
100
AcDbEntity
  8
Ｓ_１_１
  6
CONTINUOUS
 62
     3
100
AcDbLine
 10
1057.999992
 20
744.5342620000001
 30
0.0
 11
1057.999992
 21
737.611617
 31
0.0
  0
LINE
  5
1FE
330
1F
100
AcDbEntity
  8
Ｓ_１_１
  6
CONTINUOUS
 62
     3
100
AcDbLine
 10
1029.500008
 20
744.5342620000001
 30
0.0
 11
1043.250007
 21
744.5342620000001
 31
0.0
  0
LINE
  5
1FF
330
1F
100
AcDbEntity
  8
Ｓ_１_１
  6
CONTINUOUS
 62
     3
100
AcDbLine
 10
1033.000011
 20
737.0342620000001
 30
0.0
 11
1056.999988
 21
737.0342620000001
 31
0.0
  0
LINE
  5
200
330
1F
100
AcDbEntity
  8
Ｓ_１_１
  6
CONTINUOUS
 62
     3
100
AcDbLine
 10
1032.999992
 20
722.0342620000001
 30
0.0
 11
1056.999988
 21
722.0342620000001
 31
0.0
  0
LINE
  5
201
330
1F
100
AcDbEntity
  8
Ｓ_１_１
  6
CONTINUOUS
 62
     3
100
AcDbLine
 10
1032.999992
 20
772.0342620000001
 30
0.0
 11
1057.000007
 21
772.0342620000001
 31
0.0
  0
LINE
  5
202
330
1F
100
AcDbEntity
  8
Ｓ_１_１
  6
CONTINUOUS
 62
     3
100
AcDbLine
 10
1037.820109
 20
709.534265
 30
0.0
 11
1037.4365
 21
703.3965290000001
 31
0.0
  0
LINE
  5
203
330
1F
100
AcDbEntity
  8
Ｓ_１_１
  6
CONTINUOUS
 62
     3
100
AcDbLine
 10
1036.650006
 20
702.0342679999999
 30
0.0
 11
1037.43652
 21
703.396551
 31
0.0
  0
LINE
  5
204
330
1F
100
AcDbEntity
  8
Ｓ_１_１
  6
CONTINUOUS
 62
     3
100
AcDbLine
 10
1037.118745
 20
709.5342599999999
 30
0.0
 11
1036.649995
 21
702.0342460000002
 31
0.0
  0
LINE
  5
205
330
1F
100
AcDbEntity
  8
Ｓ_１_１
  6
CONTINUOUS
 62
     3
100
AcDbLine
 10
1052.563484
 20
703.39654
 30
0.0
 11
1053.349993
 21
702.0342660000001
 31
0.0
  0
LINE
  5
206
330
1F
100
AcDbEntity
  8
Ｓ_１_１
  6
CONTINUOUS
 62
     3
100
AcDbLine
 10
1052.881246
 20
709.5342679999999
 30
0.0
 11
1053.349996
 21
702.034263
 31
0.0
  0
LINE
  5
207
330
1F
100
AcDbEntity
  8
Ｓ_１_１
  6
CONTINUOUS
 62
     3
100
AcDbLine
 10
1052.179864
 20
709.5342620000001
 30
0.0
 11
1052.563472
 21
703.396536
 31
0.0
  0
LINE
  5
208
330
1F
100
AcDbEntity
  8
Ｓ_１_１
  6
CONTINUOUS
 62
     3
100
AcDbLine
 10
1036.735134
 20
703.3965290000001
 30
0.0
 11
1053.264846
 21
703.3965290000001
 31
0.0
  0
LINE
  5
209
330
1F
100
AcDbEntity
  8
Ｓ_１_１
  6
CONTINUOUS
 62
     3
100
AcDbLine
 10
1052.563487
 20
691.672002
 30
0.0
 11
1053.350001
 21
693.0342850000002
 31
0.0
  0
LINE
  5
20A
330
1F
100
AcDbEntity
  8
Ｓ_１_１
  6
CONTINUOUS
 62
     3
100
AcDbLine
 10
1052.952342
 20
686.672002
 30
0.0
 11
1053.349984
 21
693.034271
 31
0.0
  0
LINE
  5
20B
330
1F
100
AcDbEntity
  8
Ｓ_１_１
  6
CONTINUOUS
 62
     3
100
AcDbLine
 10
1052.250979
 20
686.6719969999999
 30
0.0
 11
1052.563478
 21
691.671988
 31
0.0
  0
LINE
  5
20C
330
1F
100
AcDbEntity
  8
Ｓ_１_１
  6
CONTINUOUS
 62
     3
100
AcDbLine
 10
1036.65
 20
693.0342780000001
 30
0.0
 11
1037.436507
 21
691.6720070000001
 31
0.0
  0
LINE
  5
20D
330
1F
100
AcDbEntity
  8
Ｓ_１_１
  6
CONTINUOUS
 62
     3
100
AcDbLine
 10
1036.735134
 20
691.672
 30
0.0
 11
1053.264846
 21
691.672
 31
0.0
  0
LINE
  5
20E
330
1F
100
AcDbEntity
  8
Ｓ_１_１
  6
CONTINUOUS
 62
     3
100
AcDbLine
 10
1037.04763
 20
686.672
 30
0.0
 11
1036.649989
 21
693.034259
 31
0.0
  0
LINE
  5
20F
330
1F
100
AcDbEntity
  8
Ｓ_１_１
  6
CONTINUOUS
 62
     3
100
AcDbLine
 10
1037.748993
 20
686.6719950000002
 30
0.0
 11
1037.436493
 21
691.6719950000002
 31
0.0
  0
LINE
  5
210
330
1F
100
AcDbEntity
  8
Ｓ_１_１
  6
CONTINUOUS
 62
     3
100
AcDbLine
 10
1034.499997
 20
693.034277
 30
0.0
 11
1032.875628
 21
693.9721030000001
 31
0.0
  0
LINE
  5
211
330
1F
100
AcDbEntity
  8
Ｓ_１_１
  6
CONTINUOUS
 62
     3
100
AcDbLine
 10
1034.49999
 20
702.034275
 30
0.0
 11
1032.875629
 21
701.096454
 31
0.0
  0
LINE
  5
212
330
1F
100
AcDbEntity
  8
Ｓ_１_１
  6
CONTINUOUS
 62
     3
100
AcDbLine
 10
1055.500011
 20
693.0342700000001
 30
0.0
 11
1057.124372
 21
693.9720910000001
 31
0.0
  0
LINE
  5
213
330
1F
100
AcDbEntity
  8
Ｓ_１_１
  6
CONTINUOUS
 62
     3
100
AcDbLine
 10
1055.500009
 20
702.034265
 30
0.0
 11
1057.12437
 21
701.096444
 31
0.0
  0
LINE
  5
214
330
1F
100
AcDbEntity
  8
Ｓ_１_１
  6
CONTINUOUS
 62
     3
100
AcDbLine
 10
1057.124366
 20
701.096438
 30
0.0
 11
1057.124366
 21
693.9720910000001
 31
0.0
  0
LINE
  5
215
330
1F
100
AcDbEntity
  8
Ｓ_１_１
  6
CONTINUOUS
 62
     3
100
AcDbLine
 10
1032.875652
 20
701.0964570000001
 30
0.0
 11
1032.875652
 21
693.972072
 31
0.0
  0
LINE
  5
216
330
1F
100
AcDbEntity
  8
Ｓ_１_１
  6
CONTINUOUS
 62
     3
100
AcDbLine
 10
1038.937835
 20
701.096438
 30
0.0
 11
1038.937835
 21
693.9720910000001
 31
0.0
  0
LINE
  5
217
330
1F
100
AcDbEntity
  8
Ｓ_１_１
  6
CONTINUOUS
 62
     3
100
AcDbLine
 10
1051.062183
 20
701.096438
 30
0.0
 11
1051.062183
 21
693.9720910000001
 31
0.0
  0
LINE
  5
218
330
1F
100
AcDbEntity
  8
Ｓ_１_１
  6
CONTINUOUS
 62
     3
100
AcDbLine
 10
1034.499988
 20
702.034263
 30
0.0
 11
1055.500011
 21
702.034263
 31
0.0
  0
LINE
  5
219
330
1F
100
AcDbEntity
  8
Ｓ_１_１
  6
CONTINUOUS
 62
     3
100
AcDbLine
 10
1034.499988
 20
693.034267
 30
0.0
 11
1055.500011
 21
693.034267
 31
0.0
  0
LINE
  5
21A
330
1F
100
AcDbEntity
  8
Ｓ_１_１
  6
EXLTYPE6
 62
     1
100
AcDbLine
 10
1045.0
 20
775.8
 30
0.0
 11
1045.0
 21
675.0
 31
0.0
  0
LINE
  5
21B
330
1F
100
AcDbEntity
  8
Ｓ_１_１
  6
CONTINUOUS
 62
     3
100
AcDbLine
 10
1122.999999999999
 20
686.672
 30
0.0
 11
1075.5
 21
686.672
 31
0.0
  0
LINE
  5
21C
330
1F
100
AcDbEntity
  8
Ｓ_１_１
  6
CONTINUOUS
 62
     3
100
AcDbLine
 10
1125.0
 20
684.672
 30
0.0
 11
1123.0
 21
686.672
 31
0.0
  0
LINE
  5
21D
330
1F
100
AcDbEntity
  8
Ｓ_１_１
  6
CONTINUOUS
 62
     3
100
AcDbLine
 10
1123.0
 20
413.328
 30
0.0
 11
1075.5
 21
413.328
 31
0.0
  0
LINE
  5
21E
330
1F
100
AcDbEntity
  8
Ｓ_１_１
  6
CONTINUOUS
 62
     3
100
AcDbLine
 10
1123.0
 20
413.328
 30
0.0
 11
1125.0
 21
415.328
 31
0.0
  0
LINE
  5
21F
330
1F
100
AcDbEntity
  8
Ｓ_１_１
  6
CONTINUOUS
 62
     3
100
AcDbLine
 10
1123.00000000002
 20
686.672
 30
0.0
 11
1123.00000000002
 21
413.328
 31
0.0
  0
LINE
  5
220
330
1F
100
AcDbEntity
  8
Ｓ_１_１
  6
EXLTYPE6
 62
     1
100
AcDbLine
 10
1134.41753706342
 20
674.0
 30
0.0
 11
1102.41753706342
 21
674.0
 31
0.0
  0
LINE
  5
221
330
1F
100
AcDbEntity
  8
Ｓ_１_１
  6
EXLTYPE6
 62
     1
100
AcDbLine
 10
594.4175370634196
 20
550.0
 30
0.0
 11
1133.41753706342
 21
550.0
 31
0.0
  0
LINE
  5
222
330
1F
100
AcDbEntity
  8
Ｓ_１_１
  6
EXLTYPE6
 62
     1
100
AcDbLine
 10
1134.41753706342
 20
426.0
 30
0.0
 11
1102.41753706342
 21
426.0
 31
0.0
  0
ARC
  5
223
330
1F
100
AcDbEntity
  8
Ｓ_１_１
  6
EXLTYPE6
 62
     1
100
AcDbCircle
 10
848.9999999999998
 20
550.0009999999997
 30
0.0
 40
44.0
100
AcDbArc
 50
0.0
 51
359.9986978231928
  0
LINE
  5
224
330
1F
100
AcDbEntity
  8
Ｓ_１_１
  6
EXLTYPE6
 62
     1
100
AcDbLine
 10
848.9999999999916
 20
607.5
 30
0.0
 11
848.9999999999916
 21
491.0
 31
0.0
  0
CIRCLE
  5
225
330
1F
100
AcDbEntity
  8
Ｓ_１_１
  6
CONTINUOUS
 62
     3
100
AcDbCircle
 10
805.0000000113598
 20
550.0
 30
0.0
 40
16.0
  0
ARC
  5
226
330
1F
100
AcDbEntity
  8
Ｓ_１_１
  6
CONTINUOUS
 62
     3
100
AcDbCircle
 10
848.9999999999998
 20
550.0
 30
0.0
 40
50.50000000000004
100
AcDbArc
 50
197.8426751399564
 51
359.9980000000002
  0
ARC
  5
227
330
1F
100
AcDbEntity
  8
Ｓ_１_１
  6
CONTINUOUS
 62
     3
100
AcDbCircle
 10
848.9999999999998
 20
550.0
 30
0.0
 40
37.5
100
AcDbArc
 50
200.7351065089556
 51
359.9980000000002
  0
ARC
  5
228
330
1F
100
AcDbEntity
  8
Ｓ_１_１
  6
CONTINUOUS
 62
     3
100
AcDbCircle
 10
848.9999999999998
 20
550.0
 30
0.0
 40
37.5
100
AcDbArc
 50
0.0019999999998346
 51
159.2648934910443
  0
ARC
  5
229
330
1F
100
AcDbEntity
  8
Ｓ_１_１
  6
CONTINUOUS
 62
     3
100
AcDbCircle
 10
848.9999999999998
 20
550.0
 30
0.0
 40
50.50000000000004
100
AcDbArc
 50
0.0019999999998346
 51
162.1573248600436
  0
CIRCLE
  5
22A
330
1F
100
AcDbEntity
  8
Ｓ_１_１
  6
CONTINUOUS
 62
     3
100
AcDbCircle
 10
805.0000000113598
 20
550.0
 30
0.0
 40
14.44039744020373
  0
LINE
  5
22B
330
1F
100
AcDbEntity
  8
Ｓ_１_１
  6
CONTINUOUS
 62
     3
100
AcDbLine
 10
601.9999999999989
 20
425.0000000000009
 30
0.0
 11
599.9999999999989
 21
427.0000000000009
 31
0.0
  0
LINE
  5
22C
330
1F
100
AcDbEntity
  8
Ｓ_１_１
  6
CONTINUOUS
 62
     3
100
AcDbLine
 10
601.9999999999989
 20
675.0000000000009
 30
0.0
 11
599.9999999999989
 21
673.0000000000009
 31
0.0
  0
LINE
  5
22D
330
1F
100
AcDbEntity
  8
Ｓ_１_１
  6
CONTINUOUS
 62
     3
100
AcDbLine
 10
635.0000000000189
 20
490.2086962845506
 30
0.0
 11
640.0000000000193
 21
490.2086962845506
 31
0.0
  0
LINE
  5
22E
330
1F
100
AcDbEntity
  8
Ｓ_１_１
  6
CONTINUOUS
 62
     3
100
AcDbLine
 10
624.984826063758
 20
673.0246233188109
 30
0.0
 11
634.9999999990002
 21
609.7913037153894
 31
0.0
  0
LINE
  5
22F
330
1F
100
AcDbEntity
  8
Ｓ_１_１
  6
CONTINUOUS
 62
     3
100
AcDbLine
 10
622.6719571336778
 20
675.0000000000009
 30
0.0
 11
601.9999999999989
 21
675.0000000000009
 31
0.0
  0
LINE
  5
230
330
1F
100
AcDbEntity
  8
Ｓ_１_１
  6
CONTINUOUS
 62
     3
100
AcDbLine
 10
624.984826063758
 20
673.0246233188109
 30
0.0
 11
622.6719571336778
 21
675.0000000000009
 31
0.0
  0
LINE
  5
231
330
1F
100
AcDbEntity
  8
Ｓ_１_１
  6
CONTINUOUS
 62
     3
100
AcDbLine
 10
624.984826063758
 20
426.9753766812873
 30
0.0
 11
634.9999999990002
 21
490.2086962847088
 31
0.0
  0
LINE
  5
232
330
1F
100
AcDbEntity
  8
Ｓ_１_１
  6
CONTINUOUS
 62
     3
100
AcDbLine
 10
624.984826063758
 20
426.9753766812873
 30
0.0
 11
622.6719571336778
 21
425.0000000000973
 31
0.0
  0
LINE
  5
233
330
1F
100
AcDbEntity
  8
Ｓ_１_１
  6
CONTINUOUS
 62
     3
100
AcDbLine
 10
601.9999999999989
 20
425.0000000000009
 30
0.0
 11
622.6719571335645
 21
425.0000000000009
 31
0.0
  0
LINE
  5
234
330
1F
100
AcDbEntity
  8
Ｓ_１_１
  6
CONTINUOUS
 62
     3
100
AcDbLine
 10
635.0000000000189
 20
609.7913037154492
 30
0.0
 11
640.0000000000193
 21
609.7913037154492
 31
0.0
  0
LINE
  5
235
330
1F
100
AcDbEntity
  8
Ｓ_１_１
  6
CONTINUOUS
 62
     3
100
AcDbLine
 10
599.9999999999995
 20
673.0000000000018
 30
0.0
 11
599.9999999999995
 21
427.0
 31
0.0
  0
LINE
  5
236
330
1F
100
AcDbEntity
  8
Ｓ_１_１
  6
EXLTYPE6
 62
     1
100
AcDbLine
 10
593.9175370634196
 20
640.0
 30
0.0
 11
635.4175370634196
 21
640.0
 31
0.0
  0
LINE
  5
237
330
1F
100
AcDbEntity
  8
Ｓ_１_１
  6
EXLTYPE6
 62
     1
100
AcDbLine
 10
593.9175370634196
 20
459.9999999999998
 30
0.0
 11
635.4175370634196
 21
459.9999999999998
 31
0.0
  0
LINE
  5
238
330
1F
100
AcDbEntity
  8
Ｓ_１_１
  6
CONTINUOUS
 62
     3
100
AcDbLine
 10
644.9999999999993
 20
473.9999999999998
 30
0.0
 11
647.9999999999998
 21
470.9999999999995
 31
0.0
  0
LINE
  5
239
330
1F
100
AcDbEntity
  8
Ｓ_１_１
  6
CONTINUOUS
 62
     3
100
AcDbLine
 10
644.9999999999998
 20
473.9999999999998
 30
0.0
 11
647.9999999999998
 21
473.9999999999998
 31
0.0
  0
ARC
  5
23A
330
1F
100
AcDbEntity
  8
Ｓ_１_１
  6
CONTINUOUS
 62
     3
100
AcDbCircle
 10
635.0000000000193
 20
549.9999999999509
 30
0.0
 40
60.00000000000004
100
AcDbArc
 50
274.7801918472077
 51
279.5940682268414
  0
ARC
  5
23B
330
1F
100
AcDbEntity
  8
Ｓ_１_１
  6
CONTINUOUS
 62
     3
100
AcDbCircle
 10
635.0000000000193
 20
549.9999999999509
 30
0.0
 40
60.00000000000004
100
AcDbArc
 50
80.40593177315895
 51
85.21980815280116
  0
LINE
  5
23C
330
1F
100
AcDbEntity
  8
Ｓ_１_１
  6
CONTINUOUS
 62
     3
100
AcDbLine
 10
644.9999999999998
 20
626.0
 30
0.0
 11
647.9999999999998
 21
626.0
 31
0.0
  0
LINE
  5
23D
330
1F
100
AcDbEntity
  8
Ｓ_１_１
  6
CONTINUOUS
 62
     3
100
AcDbLine
 10
644.9999999999993
 20
626.0
 30
0.0
 11
647.9999999999998
 21
629.0000000000002
 31
0.0
  0
ARC
  5
23E
330
1F
100
AcDbEntity
  8
Ｓ_１_１
  6
CONTINUOUS
 62
     3
100
AcDbCircle
 10
681.4999999989498
 20
550.0
 30
0.0
 40
14.00000000000001
100
AcDbArc
 50
180.0
 51
0.0
  0
LINE
  5
23F
330
1F
100
AcDbEntity
  8
Ｓ_１_１
  6
EXLTYPE6
 62
     1
100
AcDbLine
 10
681.4999999989495
 20
575.0
 30
0.0
 11
681.4999999989495
 21
525.0
 31
0.0
  0
ARC
  5
240
330
1F
100
AcDbEntity
  8
Ｓ_１_１
  6
CONTINUOUS
 62
     3
100
AcDbCircle
 10
681.4999999989498
 20
549.9999999999998
 30
0.0
 40
14.00000000000001
100
AcDbArc
 50
0.0000000000004584
 51
180.0
  0
LINE
  5
241
330
1F
100
AcDbEntity
  8
Ｓ_１_１
  6
CONTINUOUS
 62
     3
100
AcDbLine
 10
602.0
 20
675.0
 30
0.0
 11
602.0
 21
425.0000000000009
 31
0.0
  0
LINE
  5
242
330
1F
100
AcDbEntity
  8
Ｓ_１_１
  6
CONTINUOUS
 62
     3
100
AcDbLine
 10
622.6719571336799
 20
675.0
 30
0.0
 11
622.6719571336799
 21
425.0000000000009
 31
0.0
  0
LINE
  5
243
330
1F
100
AcDbEntity
  8
Ｓ_１_１
  6
CONTINUOUS
 62
     3
100
AcDbLine
 10
624.9848260637599
 20
426.9753766812901
 30
0.0
 11
624.9848260637599
 21
673.0246233187987
 31
0.0
  0
LINE
  5
244
330
1F
100
AcDbEntity
  8
Ｓ_１_１
  6
CONTINUOUS
 62
     3
100
AcDbLine
 10
634.99999999899
 20
609.79130371545
 30
0.0
 11
634.99999999899
 21
490.2086962845501
 31
0.0
  0
CIRCLE
  5
245
330
1F
100
AcDbEntity
  8
Ｓ_１_１
  6
CONTINUOUS
 62
     3
100
AcDbCircle
 10
1399.999999999999
 20
550.0
 30
0.0
 40
136.55
  0
CIRCLE
  5
246
330
1F
100
AcDbEntity
  8
Ｓ_１_１
  6
EXLTYPE6
 62
     1
100
AcDbCircle
 10
1400.0
 20
550.0
 30
0.0
 40
124.0000000000001
  0
LINE
  5
247
330
1F
100
AcDbEntity
  8
Ｓ_１_１
  6
EXLTYPE6
 62
     1
100
AcDbLine
 10
1400.0
 20
696.5
 30
0.0
 11
1400.0
 21
404.0
 31
0.0
  0
CIRCLE
  5
248
330
1F
100
AcDbEntity
  8
Ｓ_１_１
  6
CONTINUOUS
 62
     3
100
AcDbCircle
 10
1400.00000000002
 20
674.0
 30
0.0
 40
6.000000000000004
  0
CIRCLE
  5
249
330
1F
100
AcDbEntity
  8
Ｓ_１_１
  6
CONTINUOUS
 62
     3
100
AcDbCircle
 10
1400.00000000002
 20
674.0
 30
0.0
 40
5.0
  0
CIRCLE
  5
24A
330
1F
100
AcDbEntity
  8
Ｓ_１_１
  6
CONTINUOUS
 62
     3
100
AcDbCircle
 10
1400.00000000002
 20
550.0
 30
0.0
 40
135.5363912822839
  0
CIRCLE
  5
24B
330
1F
100
AcDbEntity
  8
Ｓ_１_１
  6
CONTINUOUS
 62
     3
100
AcDbCircle
 10
1276.00000000002
 20
550.0
 30
0.0
 40
6.000000000000004
  0
CIRCLE
  5
24C
330
1F
100
AcDbEntity
  8
Ｓ_１_１
  6
CONTINUOUS
 62
     3
100
AcDbCircle
 10
1276.00000000002
 20
550.0
 30
0.0
 40
5.0
  0
CIRCLE
  5
24D
330
1F
100
AcDbEntity
  8
Ｓ_１_１
  6
CONTINUOUS
 62
     3
100
AcDbCircle
 10
1400.00000000002
 20
426.0
 30
0.0
 40
6.000000000000004
  0
CIRCLE
  5
24E
330
1F
100
AcDbEntity
  8
Ｓ_１_１
  6
CONTINUOUS
 62
     3
100
AcDbCircle
 10
1400.00000000002
 20
426.0
 30
0.0
 40
5.0
  0
CIRCLE
  5
24F
330
1F
100
AcDbEntity
  8
Ｓ_１_１
  6
CONTINUOUS
 62
     3
100
AcDbCircle
 10
1524.00000000002
 20
550.0
 30
0.0
 40
6.000000000000004
  0
CIRCLE
  5
250
330
1F
100
AcDbEntity
  8
Ｓ_１_１
  6
CONTINUOUS
 62
     3
100
AcDbCircle
 10
1524.00000000002
 20
550.0
 30
0.0
 40
5.0
  0
LINE
  5
251
330
1F
100
AcDbEntity
  8
Ｓ_１_１
  6
EXLTYPE6
 62
     1
100
AcDbLine
 10
1571.91753706342
 20
550.0
 30
0.0
 11
1226.91753706342
 21
550.0
 31
0.0
  0
LINE
  5
252
330
1F
100
AcDbEntity
  8
Ｓ_１_１
  6
EXLTYPE6
 62
     1
100
AcDbLine
 10
1551.549999999999
 20
494.9999999999998
 30
0.0
 11
1551.549999999999
 21
605.0
 31
0.0
  0
ARC
  5
253
330
1F
100
AcDbEntity
  8
Ｓ_１_１
  6
CONTINUOUS
 62
     3
100
AcDbCircle
 10
1551.549999999999
 20
594.0
 30
0.0
 40
6.500000000000004
100
AcDbArc
 50
0.0
 51
180.0
  0
LINE
  5
254
330
1F
100
AcDbEntity
  8
Ｓ_１_１
  6
CONTINUOUS
 62
     3
100
AcDbLine
 10
1565.549999999999
 20
566.0
 30
0.0
 11
1566.549999999999
 21
565.0
 31
0.0
  0
LINE
  5
255
330
1F
100
AcDbEntity
  8
Ｓ_１_１
  6
CONTINUOUS
 62
     3
100
AcDbLine
 10
1566.549999999999
 20
535.0
 30
0.0
 11
1565.549999999999
 21
534.0
 31
0.0
  0
ARC
  5
256
330
1F
100
AcDbEntity
  8
Ｓ_１_１
  6
CONTINUOUS
 62
     3
100
AcDbCircle
 10
1400.00000000002
 20
550.0
 30
0.0
 40
140.058916174587
100
AcDbArc
 50
353.4403447621689
 51
6.559655237831191
  0
LINE
  5
257
330
1F
100
AcDbEntity
  8
Ｓ_１_１
  6
CONTINUOUS
 62
     3
100
AcDbLine
 10
1539.1420137845
 20
534.0
 30
0.0
 11
1535.066138335899
 21
529.924124551399
 31
0.0
  0
LINE
  5
258
330
1F
100
AcDbEntity
  8
Ｓ_１_１
  6
CONTINUOUS
 62
     3
100
AcDbLine
 10
1539.1420137845
 20
566.0
 30
0.0
 11
1535.066138335899
 21
570.075875448601
 31
0.0
  0
LINE
  5
259
330
1F
100
AcDbEntity
  8
Ｓ_１_１
  6
CONTINUOUS
 62
     3
100
AcDbLine
 10
1565.549999999999
 20
534.0
 30
0.0
 11
1565.549999999999
 21
566.0
 31
0.0
  0
LINE
  5
25A
330
1F
100
AcDbEntity
  8
Ｓ_１_１
  6
CONTINUOUS
 62
     3
100
AcDbLine
 10
1566.549999999999
 20
565.0
 30
0.0
 11
1566.549999999999
 21
535.0
 31
0.0
  0
LINE
  5
25B
330
1F
100
AcDbEntity
  8
Ｓ_１_１
  6
CONTINUOUS
 62
     3
100
AcDbLine
 10
1545.05
 20
550.0
 30
0.0
 11
1545.049999999999
 21
594.0
 31
0.0
  0
LINE
  5
25C
330
1F
100
AcDbEntity
  8
Ｓ_１_１
  6
CONTINUOUS
 62
     3
100
AcDbLine
 10
1545.05
 20
505.9999999999998
 30
0.0
 11
1545.05
 21
550.0
 31
0.0
  0
LINE
  5
25D
330
1F
100
AcDbEntity
  8
Ｓ_１_１
  6
CONTINUOUS
 62
     3
100
AcDbLine
 10
1558.049999999999
 20
505.9999999999998
 30
0.0
 11
1558.049999999999
 21
550.0
 31
0.0
  0
LINE
  5
25E
330
1F
100
AcDbEntity
  8
Ｓ_１_１
  6
CONTINUOUS
 62
     3
100
AcDbLine
 10
1558.049999999999
 20
550.0
 30
0.0
 11
1558.049999999999
 21
594.0
 31
0.0
  0
LINE
  5
25F
330
1F
100
AcDbEntity
  8
Ｓ_１_１
  6
CONTINUOUS
 62
     3
100
AcDbLine
 10
1545.05
 20
534.0
 30
0.0
 11
1539.142013784498
 21
534.0
 31
0.0
  0
LINE
  5
260
330
1F
100
AcDbEntity
  8
Ｓ_１_１
  6
CONTINUOUS
 62
     3
100
AcDbLine
 10
1565.549999999999
 20
534.0
 30
0.0
 11
1558.049999999999
 21
534.0
 31
0.0
  0
LINE
  5
261
330
1F
100
AcDbEntity
  8
Ｓ_１_１
  6
CONTINUOUS
 62
     3
100
AcDbLine
 10
1558.049999999999
 20
566.0
 30
0.0
 11
1565.549999999999
 21
566.0
 31
0.0
  0
LINE
  5
262
330
1F
100
AcDbEntity
  8
Ｓ_１_１
  6
CONTINUOUS
 62
     3
100
AcDbLine
 10
1539.142013784498
 20
566.0
 30
0.0
 11
1545.05
 21
566.0
 31
0.0
  0
LINE
  5
263
330
1F
100
AcDbEntity
  8
Ｓ_１_１
  6
EXLTYPE6
 62
     1
100
AcDbLine
 10
1248.45
 20
494.9999999999998
 30
0.0
 11
1248.450000000001
 21
605.0
 31
0.0
  0
ARC
  5
264
330
1F
100
AcDbEntity
  8
Ｓ_１_１
  6
CONTINUOUS
 62
     3
100
AcDbCircle
 10
1248.450000000001
 20
594.0
 30
0.0
 40
6.500000000000004
100
AcDbArc
 50
0.0
 51
180.0
  0
LINE
  5
265
330
1F
100
AcDbEntity
  8
Ｓ_１_１
  6
CONTINUOUS
 62
     3
100
AcDbLine
 10
1234.45
 20
566.0
 30
0.0
 11
1233.45
 21
565.0
 31
0.0
  0
LINE
  5
266
330
1F
100
AcDbEntity
  8
Ｓ_１_１
  6
CONTINUOUS
 62
     3
100
AcDbLine
 10
1233.45
 20
535.0
 30
0.0
 11
1234.45
 21
534.0
 31
0.0
  0
ARC
  5
267
330
1F
100
AcDbEntity
  8
Ｓ_１_１
  6
CONTINUOUS
 62
     3
100
AcDbCircle
 10
1399.99999999998
 20
550.0
 30
0.0
 40
140.058916174587
100
AcDbArc
 50
173.4403447621689
 51
186.5596552378312
  0
LINE
  5
268
330
1F
100
AcDbEntity
  8
Ｓ_１_１
  6
CONTINUOUS
 62
     3
100
AcDbLine
 10
1260.8579862155
 20
534.0
 30
0.0
 11
1264.933861664101
 21
529.924124551399
 31
0.0
  0
LINE
  5
269
330
1F
100
AcDbEntity
  8
Ｓ_１_１
  6
CONTINUOUS
 62
     3
100
AcDbLine
 10
1260.8579862155
 20
566.0
 30
0.0
 11
1264.933861664101
 21
570.075875448601
 31
0.0
  0
LINE
  5
26A
330
1F
100
AcDbEntity
  8
Ｓ_１_１
  6
CONTINUOUS
 62
     3
100
AcDbLine
 10
1234.45
 20
534.0
 30
0.0
 11
1234.45
 21
566.0
 31
0.0
  0
LINE
  5
26B
330
1F
100
AcDbEntity
  8
Ｓ_１_１
  6
CONTINUOUS
 62
     3
100
AcDbLine
 10
1233.45
 20
565.0
 30
0.0
 11
1233.45
 21
535.0
 31
0.0
  0
LINE
  5
26C
330
1F
100
AcDbEntity
  8
Ｓ_１_１
  6
CONTINUOUS
 62
     3
100
AcDbLine
 10
1254.95
 20
550.0
 30
0.0
 11
1254.950000000001
 21
594.0
 31
0.0
  0
LINE
  5
26D
330
1F
100
AcDbEntity
  8
Ｓ_１_１
  6
CONTINUOUS
 62
     3
100
AcDbLine
 10
1254.95
 20
505.9999999999998
 30
0.0
 11
1254.95
 21
550.0
 31
0.0
  0
LINE
  5
26E
330
1F
100
AcDbEntity
  8
Ｓ_１_１
  6
CONTINUOUS
 62
     3
100
AcDbLine
 10
1241.95
 20
505.9999999999998
 30
0.0
 11
1241.95
 21
550.0
 31
0.0
  0
LINE
  5
26F
330
1F
100
AcDbEntity
  8
Ｓ_１_１
  6
CONTINUOUS
 62
     3
100
AcDbLine
 10
1241.95
 20
550.0
 30
0.0
 11
1241.950000000001
 21
594.0
 31
0.0
  0
LINE
  5
270
330
1F
100
AcDbEntity
  8
Ｓ_１_１
  6
CONTINUOUS
 62
     3
100
AcDbLine
 10
1254.95
 20
534.0
 30
0.0
 11
1260.857986215502
 21
534.0
 31
0.0
  0
LINE
  5
271
330
1F
100
AcDbEntity
  8
Ｓ_１_１
  6
CONTINUOUS
 62
     3
100
AcDbLine
 10
1234.45
 20
534.0
 30
0.0
 11
1241.95
 21
534.0
 31
0.0
  0
LINE
  5
272
330
1F
100
AcDbEntity
  8
Ｓ_１_１
  6
CONTINUOUS
 62
     3
100
AcDbLine
 10
1241.95
 20
566.0
 30
0.0
 11
1234.45
 21
566.0
 31
0.0
  0
LINE
  5
273
330
1F
100
AcDbEntity
  8
Ｓ_１_１
  6
CONTINUOUS
 62
     3
100
AcDbLine
 10
1260.857986215502
 20
566.0
 30
0.0
 11
1254.95
 21
566.0
 31
0.0
  0
CIRCLE
  5
274
330
1F
100
AcDbEntity
  8
Ｓ_１_１
  6
CONTINUOUS
 62
     3
100
AcDbCircle
 10
299.9999999999995
 20
550.0
 30
0.0
 40
125.0000000000001
  0
CIRCLE
  5
275
330
1F
100
AcDbEntity
  8
Ｓ_１_１
  6
CONTINUOUS
 62
     3
100
AcDbCircle
 10
299.9999999999995
 20
550.0
 30
0.0
 40
123.0000000000001
  0
CIRCLE
  5
276
330
1F
100
AcDbEntity
  8
Ｓ_１_１
  6
EXLTYPE6
 62
     1
100
AcDbCircle
 10
299.9999999999995
 20
550.0
 30
0.0
 40
90.0
  0
CIRCLE
  5
277
330
1F
100
AcDbEntity
  8
Ｓ_１_１
  6
CONTINUOUS
 62
     3
100
AcDbCircle
 10
299.9999999999995
 20
550.0
 30
0.0
 40
38.0
  0
CIRCLE
  5
278
330
1F
100
AcDbEntity
  8
Ｓ_１_１
  6
CONTINUOUS
 62
     3
100
AcDbCircle
 10
299.9999999999995
 20
550.0
 30
0.0
 40
42.0
  0
CIRCLE
  5
279
330
1F
100
AcDbEntity
  8
Ｓ_１_１
  6
CONTINUOUS
 62
     3
100
AcDbCircle
 10
299.9999999999995
 20
550.0
 30
0.0
 40
68.0
  0
CIRCLE
  5
27A
330
1F
100
AcDbEntity
  8
Ｓ_１_１
  6
CONTINUOUS
 62
     3
100
AcDbCircle
 10
299.9999999999995
 20
550.0
 30
0.0
 40
72.0
  0
LINE
  5
27B
330
1F
100
AcDbEntity
  8
Ｓ_１_１
  6
EXLTYPE6
 62
     1
100
AcDbLine
 10
451.5499999999795
 20
494.9999999999998
 30
0.0
 11
451.5499999999795
 21
605.0
 31
0.0
  0
CIRCLE
  5
27C
330
1F
100
AcDbEntity
  8
Ｓ_１_１
  6
CONTINUOUS
 62
     3
100
AcDbCircle
 10
299.9999999999793
 20
550.0
 30
0.0
 40
136.55
  0
ARC
  5
27D
330
1F
100
AcDbEntity
  8
Ｓ_１_１
  6
CONTINUOUS
 62
     3
100
AcDbCircle
 10
451.5499999999795
 20
594.0
 30
0.0
 40
6.500000000000004
100
AcDbArc
 50
0.0
 51
180.0
  0
CIRCLE
  5
27E
330
1F
100
AcDbEntity
  8
Ｓ_１_１
  6
CONTINUOUS
 62
     3
100
AcDbCircle
 10
299.9999999999995
 20
550.0
 30
0.0
 40
133.7880786916383
  0
LINE
  5
27F
330
1F
100
AcDbEntity
  8
Ｓ_１_１
  6
EXLTYPE6
 62
     1
100
AcDbLine
 10
474.4999999999995
 20
550.0
 30
0.0
 11
127.4999999999998
 21
550.0
 31
0.0
  0
LINE
  5
280
330
1F
100
AcDbEntity
  8
Ｓ_１_１
  6
CONTINUOUS
 62
     3
100
AcDbLine
 10
465.5499999999795
 20
566.0
 30
0.0
 11
466.5499999999795
 21
565.0
 31
0.0
  0
LINE
  5
281
330
1F
100
AcDbEntity
  8
Ｓ_１_１
  6
CONTINUOUS
 62
     3
100
AcDbLine
 10
466.5499999999795
 20
535.0
 30
0.0
 11
465.5499999999795
 21
534.0
 31
0.0
  0
LINE
  5
282
330
1F
100
AcDbEntity
  8
Ｓ_１_１
  6
CONTINUOUS
 62
     3
100
AcDbLine
 10
439.1420137844782
 20
566.0
 30
0.0
 11
465.5499999999795
 21
566.0
 31
0.0
  0
ARC
  5
283
330
1F
100
AcDbEntity
  8
Ｓ_１_１
  6
CONTINUOUS
 62
     3
100
AcDbCircle
 10
299.9999999999995
 20
550.0
 30
0.0
 40
140.058916174587
100
AcDbArc
 50
353.4403447621689
 51
6.559655237831191
  0
LINE
  5
284
330
1F
100
AcDbEntity
  8
Ｓ_１_１
  6
CONTINUOUS
 62
     3
100
AcDbLine
 10
465.5499999999795
 20
534.0
 30
0.0
 11
439.1420137844782
 21
534.0
 31
0.0
  0
LINE
  5
285
330
1F
100
AcDbEntity
  8
Ｓ_１_１
  6
CONTINUOUS
 62
     3
100
AcDbLine
 10
439.1420137844796
 20
534.0
 30
0.0
 11
435.0661383358786
 21
529.924124551399
 31
0.0
  0
LINE
  5
286
330
1F
100
AcDbEntity
  8
Ｓ_１_１
  6
CONTINUOUS
 62
     3
100
AcDbLine
 10
439.1420137844796
 20
566.0
 30
0.0
 11
435.0661383358786
 21
570.075875448601
 31
0.0
  0
LINE
  5
287
330
1F
100
AcDbEntity
  8
Ｓ_１_１
  6
CONTINUOUS
 62
     3
100
AcDbLine
 10
465.5499999999795
 20
534.0
 30
0.0
 11
465.5499999999795
 21
566.0
 31
0.0
  0
LINE
  5
288
330
1F
100
AcDbEntity
  8
Ｓ_１_１
  6
CONTINUOUS
 62
     3
100
AcDbLine
 10
466.5499999999795
 20
565.0
 30
0.0
 11
466.5499999999795
 21
535.0
 31
0.0
  0
LINE
  5
289
330
1F
100
AcDbEntity
  8
Ｓ_１_１
  6
CONTINUOUS
 62
     3
100
AcDbLine
 10
458.0499999999795
 20
566.0
 30
0.0
 11
458.0499999999795
 21
594.0
 31
0.0
  0
LINE
  5
28A
330
1F
100
AcDbEntity
  8
Ｓ_１_１
  6
CONTINUOUS
 62
     3
100
AcDbLine
 10
445.0499999999795
 20
566.0
 30
0.0
 11
445.0499999999795
 21
594.0
 31
0.0
  0
LINE
  5
28B
330
1F
100
AcDbEntity
  8
Ｓ_１_１
  6
CONTINUOUS
 62
     3
100
AcDbLine
 10
445.0499999999795
 20
505.9999999999998
 30
0.0
 11
445.0499999999795
 21
534.0
 31
0.0
  0
LINE
  5
28C
330
1F
100
AcDbEntity
  8
Ｓ_１_１
  6
CONTINUOUS
 62
     3
100
AcDbLine
 10
458.0499999999795
 20
505.9999999999998
 30
0.0
 11
458.0499999999795
 21
534.0
 31
0.0
  0
LINE
  5
28D
330
1F
100
AcDbEntity
  8
Ｓ_１_１
  6
EXLTYPE6
 62
     1
100
AcDbLine
 10
148.4500000000201
 20
494.9999999999998
 30
0.0
 11
148.4500000000201
 21
605.0
 31
0.0
  0
ARC
  5
28E
330
1F
100
AcDbEntity
  8
Ｓ_１_１
  6
CONTINUOUS
 62
     3
100
AcDbCircle
 10
148.4500000000201
 20
594.0
 30
0.0
 40
6.500000000000004
100
AcDbArc
 50
0.0
 51
180.0
  0
LINE
  5
28F
330
1F
100
AcDbEntity
  8
Ｓ_１_１
  6
CONTINUOUS
 62
     3
100
AcDbLine
 10
134.4500000000201
 20
566.0
 30
0.0
 11
133.4500000000201
 21
565.0
 31
0.0
  0
LINE
  5
290
330
1F
100
AcDbEntity
  8
Ｓ_１_１
  6
CONTINUOUS
 62
     3
100
AcDbLine
 10
133.4500000000201
 20
535.0
 30
0.0
 11
134.4500000000201
 21
534.0
 31
0.0
  0
LINE
  5
291
330
1F
100
AcDbEntity
  8
Ｓ_１_１
  6
CONTINUOUS
 62
     3
100
AcDbLine
 10
160.8579862155214
 20
566.0
 30
0.0
 11
134.4500000000201
 21
566.0
 31
0.0
  0
ARC
  5
292
330
1F
100
AcDbEntity
  8
Ｓ_１_１
  6
CONTINUOUS
 62
     3
100
AcDbCircle
 10
299.9999999999998
 20
550.0
 30
0.0
 40
140.058916174587
100
AcDbArc
 50
173.4403447621689
 51
186.5596552378312
  0
LINE
  5
293
330
1F
100
AcDbEntity
  8
Ｓ_１_１
  6
CONTINUOUS
 62
     3
100
AcDbLine
 10
134.4500000000201
 20
534.0
 30
0.0
 11
160.8579862155214
 21
534.0
 31
0.0
  0
LINE
  5
294
330
1F
100
AcDbEntity
  8
Ｓ_１_１
  6
CONTINUOUS
 62
     3
100
AcDbLine
 10
160.85798621552
 20
534.0
 30
0.0
 11
164.933861664121
 21
529.924124551399
 31
0.0
  0
LINE
  5
295
330
1F
100
AcDbEntity
  8
Ｓ_１_１
  6
CONTINUOUS
 62
     3
100
AcDbLine
 10
160.85798621552
 20
566.0
 30
0.0
 11
164.933861664121
 21
570.075875448601
 31
0.0
  0
LINE
  5
296
330
1F
100
AcDbEntity
  8
Ｓ_１_１
  6
CONTINUOUS
 62
     3
100
AcDbLine
 10
134.4500000000201
 20
534.0
 30
0.0
 11
134.4500000000201
 21
566.0
 31
0.0
  0
LINE
  5
297
330
1F
100
AcDbEntity
  8
Ｓ_１_１
  6
CONTINUOUS
 62
     3
100
AcDbLine
 10
133.4500000000201
 20
565.0
 30
0.0
 11
133.4500000000201
 21
535.0
 31
0.0
  0
LINE
  5
298
330
1F
100
AcDbEntity
  8
Ｓ_１_１
  6
CONTINUOUS
 62
     3
100
AcDbLine
 10
141.9500000000201
 20
566.0
 30
0.0
 11
141.9500000000201
 21
594.0
 31
0.0
  0
LINE
  5
299
330
1F
100
AcDbEntity
  8
Ｓ_１_１
  6
CONTINUOUS
 62
     3
100
AcDbLine
 10
154.9500000000201
 20
566.0
 30
0.0
 11
154.9500000000201
 21
594.0
 31
0.0
  0
LINE
  5
29A
330
1F
100
AcDbEntity
  8
Ｓ_１_１
  6
CONTINUOUS
 62
     3
100
AcDbLine
 10
154.9500000000201
 20
505.9999999999998
 30
0.0
 11
154.9500000000201
 21
534.0
 31
0.0
  0
LINE
  5
29B
330
1F
100
AcDbEntity
  8
Ｓ_１_１
  6
CONTINUOUS
 62
     3
100
AcDbLine
 10
141.9500000000201
 20
505.9999999999998
 30
0.0
 11
141.9500000000201
 21
534.0
 31
0.0
  0
CIRCLE
  5
29C
330
1F
100
AcDbEntity
  8
Ｓ_１_１
  6
CONTINUOUS
 62
     3
100
AcDbCircle
 10
299.9999999999995
 20
550.0
 30
0.0
 40
15.00000000000001
  0
CIRCLE
  5
29D
330
1F
100
AcDbEntity
  8
Ｓ_１_１
  6
CONTINUOUS
 62
     3
100
AcDbCircle
 10
299.9999999999995
 20
550.0
 30
0.0
 40
13.69999999999997
  0
POLYLINE
  5
29E
330
1F
100
AcDbEntity
  8
Ｓ_１_１
  6
CONTINUOUS
 62
     3
100
AcDb2dPolyline
 66
     1
 10
0.0
 20
0.0
 30
0.0
 70
   128
  0
VERTEX
  5
29F
330
29E
100
AcDbEntity
  8
Ｓ_１_１
  6
CONTINUOUS
 62
     3
100
AcDbVertex
100
AcDb2dVertex
 10
299.9999999999995
 20
559.8149545762235
 30
0.0
  0
VERTEX
  5
2A0
330
29E
100
AcDbEntity
  8
Ｓ_１_１
  6
CONTINUOUS
 62
     3
100
AcDbVertex
100
AcDb2dVertex
 10
291.4999999999995
 20
554.9074772881117
 30
0.0
  0
VERTEX
  5
2A1
330
29E
100
AcDbEntity
  8
Ｓ_１_１
  6
CONTINUOUS
 62
     3
100
AcDbVertex
100
AcDb2dVertex
 10
291.4999999999995
 20
545.0925227118883
 30
0.0
  0
VERTEX
  5
2A2
330
29E
100
AcDbEntity
  8
Ｓ_１_１
  6
CONTINUOUS
 62
     3
100
AcDbVertex
100
AcDb2dVertex
 10
299.9999999999995
 20
540.1850454237765
 30
0.0
  0
VERTEX
  5
2A3
330
29E
100
AcDbEntity
  8
Ｓ_１_１
  6
CONTINUOUS
 62
     3
100
AcDbVertex
100
AcDb2dVertex
 10
308.4999999999995
 20
545.0925227118883
 30
0.0
  0
VERTEX
  5
2A4
330
29E
100
AcDbEntity
  8
Ｓ_１_１
  6
CONTINUOUS
 62
     3
100
AcDbVertex
100
AcDb2dVertex
 10
308.4999999999995
 20
554.9074772881117
 30
0.0
  0
VERTEX
  5
2A5
330
29E
100
AcDbEntity
  8
Ｓ_１_１
  6
CONTINUOUS
 62
     3
100
AcDbVertex
100
AcDb2dVertex
 10
299.9999999999995
 20
559.8149545762235
 30
0.0
  0
SEQEND
  5
2A6
330
29E
100
AcDbEntity
  8
Ｓ_１_１
  6
CONTINUOUS
 62
     3
  0
CIRCLE
  5
2A7
330
1F
100
AcDbEntity
  8
Ｓ_１_１
  6
CONTINUOUS
 62
     3
100
AcDbCircle
 10
299.9999999999995
 20
550.0
 30
0.0
 40
22.5
  0
CIRCLE
  5
2A8
330
1F
100
AcDbEntity
  8
Ｓ_１_１
  6
CONTINUOUS
 62
     3
100
AcDbCircle
 10
299.9999999999995
 20
550.0
 30
0.0
 40
23.50000000000002
  0
LINE
  5
2A9
330
1F
100
AcDbEntity
  8
Ｓ_１_１
  6
EXLTYPE6
 62
     1
100
AcDbLine
 10
299.9999999999995
 20
787.6
 30
0.0
 11
299.9999999999995
 21
405.5
 31
0.0
  0
LINE
  5
2AA
330
1F
100
AcDbEntity
  8
Ｓ_１_１
  6
EXLTYPE6
 62
     1
100
AcDbLine
 10
862.9999999999998
 20
787.6
 30
0.0
 11
862.9999999999998
 21
673.4000000000001
 31
0.0
  0
DIMENSION
  5
2AB
330
1F
100
AcDbEntity
  8
Ｓ_１_１
  6
CONTINUOUS
 62
     2
100
AcDbDimension
  2
*D26
 10
1045.0
 20
825.0
 30
0.0
 11
1085.0
 21
836.0
 31
0.0
 70
   160
  3
ISO-25
100
AcDbAlignedDimension
 13
1125.0
 23
684.672
 33
0.0
 14
1045.0
 24
775.8
 34
0.0
100
AcDbRotatedDimension
1001
ACAD
1000
DSTYLE
1002
{
1070
   270
1070
     2
1070
     6
1000
EX_NORM
1070
     7
1000
EX_NORM
1070
    41
1040
12.0
1070
    42
1040
6.0
1070
    44
1040
4.0
1070
    73
1070
     0
1070
    74
1070
     0
1070
    75
1070
     0
1070
    76
1070
     0
1070
    77
1070
     1
1070
    78
1070
     8
1070
   140
1040
13.85161662817552
1070
   147
1040
0.0
1070
   173
1070
     1
1070
   176
1070
     2
1070
   177
1070
     2
1070
   178
1070
     2
1070
   271
1070
     2
1070
   277
1070
     2
1070
   279
1070
     2
1070
   280
1070
     0
1070
   287
1070
     5
1070
   340
1005
11C
1002
}
  0
DIMENSION
  5
2B8
330
1F
100
AcDbEntity
  8
Ｓ_１_１
  6
CONTINUOUS
 62
     2
100
AcDbDimension
  2
*D27
 10
863.0
 20
825.0
 30
0.0
 11
954.0
 21
836.0
 31
0.0
 70
   160
  3
ISO-25
100
AcDbAlignedDimension
 13
1045.0
 23
775.8
 33
0.0
 14
863.0
 24
787.6
 34
0.0
100
AcDbRotatedDimension
1001
ACAD
1000
DSTYLE
1002
{
1070
   270
1070
     2
1070
     6
1000
EX_NORM
1070
     7
1000
EX_NORM
1070
    41
1040
12.0
1070
    42
1040
6.0
1070
    44
1040
4.0
1070
    73
1070
     0
1070
    74
1070
     0
1070
    75
1070
     0
1070
    76
1070
     0
1070
    77
1070
     1
1070
    78
1070
     8
1070
   140
1040
13.85161662817552
1070
   147
1040
0.0
1070
   173
1070
     1
1070
   176
1070
     2
1070
   177
1070
     2
1070
   178
1070
     2
1070
   271
1070
     2
1070
   277
1070
     2
1070
   279
1070
     2
1070
   280
1070
     0
1070
   287
1070
     5
1070
   340
1005
11C
1002
}
  0
DIMENSION
  5
2C5
330
1F
100
AcDbEntity
  8
Ｓ_１_１
  6
CONTINUOUS
 62
     2
100
AcDbDimension
  2
*D28
 10
715.0
 20
825.0
 30
0.0
 11
789.0
 21
836.0
 31
0.0
 70
   160
  3
ISO-25
100
AcDbAlignedDimension
 13
863.0
 23
793.6
 33
0.0
 14
715.0
 24
684.672
 34
0.0
100
AcDbRotatedDimension
1001
ACAD
1000
DSTYLE
1002
{
1070
   270
1070
     2
1070
     6
1000
EX_NORM
1070
     7
1000
EX_NORM
1070
    41
1040
12.0
1070
    42
1040
6.0
1070
    44
1040
4.0
1070
    73
1070
     0
1070
    74
1070
     0
1070
    75
1070
     0
1070
    76
1070
     0
1070
    77
1070
     1
1070
    78
1070
     8
1070
   140
1040
13.85161662817552
1070
   147
1040
0.0
1070
   173
1070
     1
1070
   176
1070
     2
1070
   177
1070
     2
1070
   178
1070
     2
1070
   271
1070
     2
1070
   277
1070
     2
1070
   279
1070
     2
1070
   280
1070
     0
1070
   287
1070
     5
1070
   340
1005
11C
1002
}
  0
LINE
  5
2D2
330
1F
100
AcDbEntity
  8
Ｓ_１_１
  6
CONTINUOUS
 62
     3
100
AcDbLine
 10
851.5
 20
693.0342760000092
 30
0.0
 11
863.0
 21
693.0342760000091
 31
0.0
  0
LINE
  5
2D3
330
1F
100
AcDbEntity
  8
Ｓ_１_１
  6
CONTINUOUS
 62
     3
100
AcDbLine
 10
863.0
 20
693.0342760000091
 30
0.0
 11
874.5
 21
693.0342760000091
 31
0.0
  0
LINE
  5
2D4
330
1F
100
AcDbEntity
  8
Ｓ_１_１
  6
CONTINUOUS
 62
     3
100
AcDbLine
 10
875.5
 20
694.0342760000091
 30
0.0
 11
875.5
 21
709.5342760000091
 31
0.0
  0
LINE
  5
2D5
330
1F
100
AcDbEntity
  8
Ｓ_１_１
  6
CONTINUOUS
 62
     3
100
AcDbLine
 10
875.5
 20
725.0342760000091
 30
0.0
 11
875.5
 21
709.5342760000091
 31
0.0
  0
LINE
  5
2D6
330
1F
100
AcDbEntity
  8
Ｓ_１_１
  6
CONTINUOUS
 62
     3
100
AcDbLine
 10
851.5
 20
726.0342760000091
 30
0.0
 11
863.0
 21
726.0342760000091
 31
0.0
  0
LINE
  5
2D7
330
1F
100
AcDbEntity
  8
Ｓ_１_１
  6
CONTINUOUS
 62
     3
100
AcDbLine
 10
863.0
 20
726.0342760000091
 30
0.0
 11
874.5
 21
726.0342760000091
 31
0.0
  0
LINE
  5
2D8
330
1F
100
AcDbEntity
  8
Ｓ_１_１
  6
CONTINUOUS
 62
     3
100
AcDbLine
 10
874.5000013689
 20
726.0342775587088
 30
0.0
 11
875.5000014189
 21
725.0342774243087
 31
0.0
  0
LINE
  5
2D9
330
1F
100
AcDbEntity
  8
Ｓ_１_１
  6
CONTINUOUS
 62
     3
100
AcDbLine
 10
875.5000007866997
 20
694.0342749029088
 30
0.0
 11
874.5000009895998
 21
693.034275190009
 31
0.0
  0
LINE
  5
2DA
330
1F
100
AcDbEntity
  8
Ｓ_１_１
  6
CONTINUOUS
 62
     3
100
AcDbLine
 10
850.5000000481
 20
694.0342760758091
 30
0.0
 11
851.5000001752001
 21
693.0342760330088
 31
0.0
  0
LINE
  5
2DB
330
1F
100
AcDbEntity
  8
Ｓ_１_１
  6
CONTINUOUS
 62
     3
100
AcDbLine
 10
850.5
 20
694.0342760000092
 30
0.0
 11
850.5
 21
709.5342760000091
 31
0.0
  0
LINE
  5
2DC
330
1F
100
AcDbEntity
  8
Ｓ_１_１
  6
CONTINUOUS
 62
     3
100
AcDbLine
 10
851.4999997116001
 20
726.0342764628091
 30
0.0
 11
850.4999999986999
 21
725.0342766657087
 31
0.0
  0
LINE
  5
2DD
330
1F
100
AcDbEntity
  8
Ｓ_１_１
  6
CONTINUOUS
 62
     3
100
AcDbLine
 10
850.5
 20
725.0342760000091
 30
0.0
 11
850.5
 21
709.5342760000091
 31
0.0
  0
LINE
  5
2DE
330
1F
100
AcDbEntity
  8
Ｓ_１_１
  6
CONTINUOUS
 62
     3
100
AcDbLine
 10
850.5
 20
725.0342760000091
 30
0.0
 11
875.5
 21
725.0342760000091
 31
0.0
  0
LINE
  5
2DF
330
1F
100
AcDbEntity
  8
Ｓ_１_１
  6
CONTINUOUS
 62
     3
100
AcDbLine
 10
850.5
 20
694.0342760000092
 30
0.0
 11
875.5
 21
694.0342760000091
 31
0.0
  0
LINE
  5
2E0
330
1F
100
AcDbEntity
  8
Ｓ_１_１
  6
CONTINUOUS
 62
     3
100
AcDbLine
 10
871.264862
 20
727.3965480000201
 30
0.0
 11
854.7351450000001
 21
727.3965480000201
 31
0.0
  0
LINE
  5
2E1
330
1F
100
AcDbEntity
  8
Ｓ_１_１
  6
CONTINUOUS
 62
     3
100
AcDbLine
 10
855.820119
 20
733.5342490000199
 30
0.0
 11
855.4365109999999
 21
727.3965360000201
 31
0.0
  0
LINE
  5
2E2
330
1F
100
AcDbEntity
  8
Ｓ_１_１
  6
CONTINUOUS
 62
     3
100
AcDbLine
 10
855.1187490000002
 20
733.53426700002
 30
0.0
 11
854.6499979999999
 21
726.0342530000199
 31
0.0
  0
LINE
  5
2E3
330
1F
100
AcDbEntity
  8
Ｓ_１_１
  6
CONTINUOUS
 62
     3
100
AcDbLine
 10
855.436526
 20
727.39655600002
 30
0.0
 11
854.6500110000002
 21
726.03427300002
 31
0.0
  0
LINE
  5
2E4
330
1F
100
AcDbEntity
  8
Ｓ_１_１
  6
CONTINUOUS
 62
     3
100
AcDbLine
 10
870.8812499999999
 20
733.5342790000201
 30
0.0
 11
871.350003
 21
726.0342340000201
 31
0.0
  0
LINE
  5
2E5
330
1F
100
AcDbEntity
  8
Ｓ_１_１
  6
CONTINUOUS
 62
     3
100
AcDbLine
 10
871.3499890000003
 20
726.03425700002
 30
0.0
 11
870.5634829999999
 21
727.39652700002
 31
0.0
  0
LINE
  5
2E6
330
1F
100
AcDbEntity
  8
Ｓ_１_１
  6
CONTINUOUS
 62
     3
100
AcDbLine
 10
870.1798880000001
 20
733.53426100002
 30
0.0
 11
870.5634970000001
 21
727.39651800002
 31
0.0
  0
LINE
  5
2E7
330
1F
100
AcDbEntity
  8
Ｓ_１_１
  6
CONTINUOUS
 62
     3
100
AcDbLine
 10
870.2509890000001
 20
686.6719850000001
 30
0.0
 11
870.56349
 21
691.671995
 31
0.0
  0
LINE
  5
2E8
330
1F
100
AcDbEntity
  8
Ｓ_１_１
  6
CONTINUOUS
 62
     3
100
AcDbLine
 10
870.9523530000001
 20
686.671997
 30
0.0
 11
871.3499929999998
 21
693.034248
 31
0.0
  0
LINE
  5
2E9
330
1F
100
AcDbEntity
  8
Ｓ_１_１
  6
CONTINUOUS
 62
     3
100
AcDbLine
 10
871.264862
 20
691.672004
 30
0.0
 11
854.7351450000001
 21
691.672004
 31
0.0
  0
LINE
  5
2EA
330
1F
100
AcDbEntity
  8
Ｓ_１_１
  6
CONTINUOUS
 62
     3
100
AcDbLine
 10
871.3500119999999
 20
693.034295
 30
0.0
 11
870.563498
 21
691.672012
 31
0.0
  0
LINE
  5
2EB
330
1F
100
AcDbEntity
  8
Ｓ_１_１
  6
CONTINUOUS
 62
     3
100
AcDbLine
 10
855.749014
 20
686.671997
 30
0.0
 11
855.4365130000001
 21
691.672007
 31
0.0
  0
LINE
  5
2EC
330
1F
100
AcDbEntity
  8
Ｓ_１_１
  6
CONTINUOUS
 62
     3
100
AcDbLine
 10
855.04765
 20
686.67201
 30
0.0
 11
854.6500100000003
 21
693.03426
 31
0.0
  0
LINE
  5
2ED
330
1F
100
AcDbEntity
  8
Ｓ_１_１
  6
CONTINUOUS
 62
     3
100
AcDbLine
 10
855.4365029999999
 20
691.6719959999999
 30
0.0
 11
854.6499960000001
 21
693.034266
 31
0.0
  0
ARC
  5
2EE
330
1F
100
AcDbEntity
  8
Ｓ_１_１
  6
CONTINUOUS
 62
     3
100
AcDbCircle
 10
873.3922884999897
 20
734.4004420000184
 30
0.0
 40
6.133925000000002
100
AcDbArc
 50
55.61543800000034
 51
124.3845830000003
  0
ARC
  5
2EF
330
1F
100
AcDbEntity
  8
Ｓ_１_１
  6
CONTINUOUS
 62
     3
100
AcDbCircle
 10
862.9999844999898
 20
717.6061300000184
 30
0.0
 40
22.927938
100
AcDbArc
 50
72.411858
 51
107.5881660000001
  0
ARC
  5
2F0
330
1F
100
AcDbEntity
  8
Ｓ_１_１
  6
CONTINUOUS
 62
     3
100
AcDbCircle
 10
852.6076504999901
 20
739.6681420000183
 30
0.0
 40
6.133925000000002
100
AcDbArc
 50
235.6154019999991
 51
304.3845609999998
  0
ARC
  5
2F1
330
1F
100
AcDbEntity
  8
Ｓ_１_１
  6
CONTINUOUS
 62
     3
100
AcDbCircle
 10
858.4999844999902
 20
777.5341090000185
 30
0.0
 40
1.0
100
AcDbArc
 50
89.99997799999524
 51
179.9999749999976
  0
ARC
  5
2F2
330
1F
100
AcDbEntity
  8
Ｓ_１_１
  6
CONTINUOUS
 62
     3
100
AcDbCircle
 10
852.6076504999901
 20
734.4004420000184
 30
0.0
 40
6.133925000000002
100
AcDbArc
 50
55.6153689999997
 51
124.384513999999
  0
ARC
  5
2F3
330
1F
100
AcDbEntity
  8
Ｓ_１_１
  6
CONTINUOUS
 62
     3
100
AcDbCircle
 10
862.9999844999898
 20
756.4622090000186
 30
0.0
 40
22.927942
100
AcDbArc
 50
252.4118210000002
 51
287.5881150000001
  0
ARC
  5
2F4
330
1F
100
AcDbEntity
  8
Ｓ_１_１
  6
CONTINUOUS
 62
     3
100
AcDbCircle
 10
873.3922884999897
 20
739.6681420000183
 30
0.0
 40
6.133925000000002
100
AcDbArc
 50
235.6154159999998
 51
304.3845739999999
  0
ARC
  5
2F5
330
1F
100
AcDbEntity
  8
Ｓ_１_１
  6
CONTINUOUS
 62
     3
100
AcDbCircle
 10
867.4999544999896
 20
777.5341090000185
 30
0.0
 40
1.0
100
AcDbArc
 50
359.9999970000023
 51
89.9999780000017
  0
LINE
  5
2F6
330
1F
100
AcDbEntity
  8
Ｓ_１_１
  6
CONTINUOUS
 62
     3
100
AcDbLine
 10
861.5000154999898
 20
780.5342310000184
 30
0.0
 11
864.4999844999898
 21
780.5342310000184
 31
0.0
  0
LINE
  5
2F7
330
1F
100
AcDbEntity
  8
Ｓ_１_１
  6
CONTINUOUS
 62
     3
100
AcDbLine
 10
850.9999844999902
 20
733.5343530000183
 30
0.0
 11
874.9999544999896
 21
733.5343530000183
 31
0.0
  0
LINE
  5
2F8
330
1F
100
AcDbEntity
  8
Ｓ_１_１
  6
CONTINUOUS
 62
     3
100
AcDbLine
 10
857.49995449999
 20
777.5341090000185
 30
0.0
 11
857.49995449999
 21
768.5343530000183
 31
0.0
  0
LINE
  5
2F9
330
1F
100
AcDbEntity
  8
Ｓ_１_１
  6
CONTINUOUS
 62
     3
100
AcDbLine
 10
857.49995449999
 20
768.5343530000183
 30
0.0
 11
868.4999844999898
 21
768.5343530000183
 31
0.0
  0
LINE
  5
2FA
330
1F
100
AcDbEntity
  8
Ｓ_１_１
  6
CONTINUOUS
 62
     3
100
AcDbLine
 10
854.0000154999902
 20
765.0341090000185
 30
0.0
 11
854.0000154999902
 21
763.0342310000184
 31
0.0
  0
LINE
  5
2FB
330
1F
100
AcDbEntity
  8
Ｓ_１_１
  6
CONTINUOUS
 62
     3
100
AcDbLine
 10
871.9999844999898
 20
765.0341090000185
 30
0.0
 11
871.9999844999898
 21
763.0342310000184
 31
0.0
  0
LINE
  5
2FC
330
1F
100
AcDbEntity
  8
Ｓ_１_１
  6
CONTINUOUS
 62
     3
100
AcDbLine
 10
851.7499844999902
 20
749.5342310000184
 30
0.0
 11
874.2499844999898
 21
749.5342310000184
 31
0.0
  0
LINE
  5
2FD
330
1F
100
AcDbEntity
  8
Ｓ_１_１
  6
CONTINUOUS
 62
     3
100
AcDbLine
 10
874.7499844999898
 20
749.0342310000184
 30
0.0
 11
874.7499844999898
 21
740.5342310000184
 31
0.0
  0
LINE
  5
2FE
330
1F
100
AcDbEntity
  8
Ｓ_１_１
  6
CONTINUOUS
 62
     3
100
AcDbLine
 10
851.24995449999
 20
749.0342310000184
 30
0.0
 11
851.24995449999
 21
740.5342310000184
 31
0.0
  0
LINE
  5
2FF
330
1F
100
AcDbEntity
  8
Ｓ_１_１
  6
CONTINUOUS
 62
     3
100
AcDbLine
 10
849.14361649999
 20
734.6062050000183
 30
0.0
 11
850.9999884999902
 21
733.5344280000187
 31
0.0
  0
LINE
  5
300
330
1F
100
AcDbEntity
  8
Ｓ_１_１
  6
CONTINUOUS
 62
     3
100
AcDbLine
 10
874.9999114999896
 20
740.5344220000185
 30
0.0
 11
876.8563894999897
 21
739.4625830000183
 31
0.0
  0
LINE
  5
301
330
1F
100
AcDbEntity
  8
Ｓ_１_１
  6
CONTINUOUS
 62
     3
100
AcDbLine
 10
874.9999534999897
 20
733.5343860000186
 30
0.0
 11
876.8563264999898
 21
734.6061630000187
 31
0.0
  0
LINE
  5
302
330
1F
100
AcDbEntity
  8
Ｓ_１_１
  6
CONTINUOUS
 62
     3
100
AcDbLine
 10
849.1436234999901
 20
739.4627230000184
 30
0.0
 11
850.9999964999902
 21
740.5345000000185
 31
0.0
  0
LINE
  5
303
330
1F
100
AcDbEntity
  8
Ｓ_１_１
  6
CONTINUOUS
 62
     3
100
AcDbLine
 10
876.8563994999895
 20
739.4624530000184
 30
0.0
 11
876.8563994999895
 21
734.6061300000184
 31
0.0
  0
LINE
  5
304
330
1F
100
AcDbEntity
  8
Ｓ_１_１
  6
CONTINUOUS
 62
     3
100
AcDbLine
 10
869.9282074999896
 20
739.4624530000184
 30
0.0
 11
869.9282074999896
 21
734.6061300000184
 31
0.0
  0
LINE
  5
305
330
1F
100
AcDbEntity
  8
Ｓ_１_１
  6
CONTINUOUS
 62
     3
100
AcDbLine
 10
856.0718534999901
 20
739.4624530000184
 30
0.0
 11
856.0718534999901
 21
734.6061300000184
 31
0.0
  0
LINE
  5
306
330
1F
100
AcDbEntity
  8
Ｓ_１_１
  6
CONTINUOUS
 62
     3
100
AcDbLine
 10
849.14358549999
 20
739.4624530000184
 30
0.0
 11
849.14358549999
 21
734.6061300000184
 31
0.0
  0
LINE
  5
307
330
1F
100
AcDbEntity
  8
Ｓ_１_１
  6
CONTINUOUS
 62
     3
100
AcDbLine
 10
850.9999844999902
 20
740.5342310000184
 30
0.0
 11
874.9999544999896
 21
740.5342310000184
 31
0.0
  0
LINE
  5
308
330
1F
100
AcDbEntity
  8
Ｓ_１_１
  6
CONTINUOUS
 62
     3
100
AcDbLine
 10
858.4999844999902
 20
778.5343530000188
 30
0.0
 11
867.4999544999896
 21
778.5343530000188
 31
0.0
  0
LINE
  5
309
330
1F
100
AcDbEntity
  8
Ｓ_１_１
  6
CONTINUOUS
 62
     3
100
AcDbLine
 10
864.4998434999898
 20
780.5344180000185
 30
0.0
 11
866.4998884999895
 21
778.5343730000187
 31
0.0
  0
LINE
  5
30A
330
1F
100
AcDbEntity
  8
Ｓ_１_１
  6
CONTINUOUS
 62
     3
100
AcDbLine
 10
859.4998164999902
 20
778.5344160000183
 30
0.0
 11
861.4997754999895
 21
780.5343750000185
 31
0.0
  0
LINE
  5
30B
330
1F
100
AcDbEntity
  8
Ｓ_１_１
  6
CONTINUOUS
 62
     3
100
AcDbLine
 10
855.4999844999902
 20
760.0341090000185
 30
0.0
 11
870.4999844999898
 21
760.0341090000185
 31
0.0
  0
LINE
  5
30C
330
1F
100
AcDbEntity
  8
Ｓ_１_１
  6
CONTINUOUS
 62
     3
100
AcDbLine
 10
855.4999844999902
 20
761.5342310000184
 30
0.0
 11
870.4999844999898
 21
761.5342310000184
 31
0.0
  0
LINE
  5
30D
330
1F
100
AcDbEntity
  8
Ｓ_１_１
  6
CONTINUOUS
 62
     3
100
AcDbLine
 10
854.0000154999902
 20
765.0341090000185
 30
0.0
 11
871.9999844999898
 21
765.0341090000185
 31
0.0
  0
LINE
  5
30E
330
1F
100
AcDbEntity
  8
Ｓ_１_１
  6
CONTINUOUS
 62
     3
100
AcDbLine
 10
871.9999844999898
 20
758.5343530000183
 30
0.0
 11
871.9999844999898
 21
749.5342310000184
 31
0.0
  0
LINE
  5
30F
330
1F
100
AcDbEntity
  8
Ｓ_１_１
  6
CONTINUOUS
 62
     3
100
AcDbLine
 10
854.0000154999902
 20
758.5343530000183
 30
0.0
 11
854.0000154999902
 21
749.5342310000184
 31
0.0
  0
LINE
  5
310
330
1F
100
AcDbEntity
  8
Ｓ_１_１
  6
CONTINUOUS
 62
     3
100
AcDbLine
 10
853.99987249999
 20
763.0342520000187
 30
0.0
 11
855.49988449999
 21
761.5342390000184
 31
0.0
  0
LINE
  5
311
330
1F
100
AcDbEntity
  8
Ｓ_１_１
  6
CONTINUOUS
 62
     3
100
AcDbLine
 10
870.4999504999896
 20
761.5342380000185
 30
0.0
 11
871.9998334999896
 21
763.0341210000184
 31
0.0
  0
LINE
  5
312
330
1F
100
AcDbEntity
  8
Ｓ_１_１
  6
CONTINUOUS
 62
     3
100
AcDbLine
 10
854.0000154999902
 20
763.0342310000184
 30
0.0
 11
871.9999844999898
 21
763.0342310000184
 31
0.0
  0
LINE
  5
313
330
1F
100
AcDbEntity
  8
Ｓ_１_１
  6
CONTINUOUS
 62
     3
100
AcDbLine
 10
853.99998649999
 20
758.5343860000186
 30
0.0
 11
855.4998694999899
 21
760.0342690000185
 31
0.0
  0
LINE
  5
314
330
1F
100
AcDbEntity
  8
Ｓ_１_１
  6
CONTINUOUS
 62
     3
100
AcDbLine
 10
870.4998364999897
 20
760.0342270000184
 30
0.0
 11
871.9998494999895
 21
758.5342150000184
 31
0.0
  0
LINE
  5
315
330
1F
100
AcDbEntity
  8
Ｓ_１_１
  6
CONTINUOUS
 62
     3
100
AcDbLine
 10
851.24995449999
 20
749.0342310000184
 30
0.0
 11
874.7499844999898
 21
749.0342310000184
 31
0.0
  0
LINE
  5
316
330
1F
100
AcDbEntity
  8
Ｓ_１_１
  6
CONTINUOUS
 62
     3
100
AcDbLine
 10
854.0000154999902
 20
758.5343530000183
 30
0.0
 11
871.9999844999898
 21
758.5343530000183
 31
0.0
  0
LINE
  5
317
330
1F
100
AcDbEntity
  8
Ｓ_１_１
  6
CONTINUOUS
 62
     3
100
AcDbLine
 10
855.4999844999902
 20
761.5342310000184
 30
0.0
 11
855.4999844999902
 21
760.0341090000185
 31
0.0
  0
LINE
  5
318
330
1F
100
AcDbEntity
  8
Ｓ_１_１
  6
CONTINUOUS
 62
     3
100
AcDbLine
 10
870.4999844999898
 20
761.5342310000184
 30
0.0
 11
870.4999844999898
 21
760.0341090000185
 31
0.0
  0
LINE
  5
319
330
1F
100
AcDbEntity
  8
Ｓ_１_１
  6
CONTINUOUS
 62
     3
100
AcDbLine
 10
874.2498804999896
 20
749.5343200000185
 30
0.0
 11
874.7498274999898
 21
749.0343740000186
 31
0.0
  0
LINE
  5
31A
330
1F
100
AcDbEntity
  8
Ｓ_１_１
  6
CONTINUOUS
 62
     3
100
AcDbLine
 10
851.2499094999903
 20
749.0343220000183
 30
0.0
 11
851.7498074999903
 21
749.5342310000184
 31
0.0
  0
LINE
  5
31B
330
1F
100
AcDbEntity
  8
Ｓ_１_１
  6
CONTINUOUS
 62
     3
100
AcDbLine
 10
853.99994349999
 20
765.0343400000185
 30
0.0
 11
857.4999574999902
 21
768.5343540000187
 31
0.0
  0
LINE
  5
31C
330
1F
100
AcDbEntity
  8
Ｓ_１_１
  6
CONTINUOUS
 62
     3
100
AcDbLine
 10
868.4998344999899
 20
768.5341400000185
 30
0.0
 11
871.9998054999896
 21
765.0341680000184
 31
0.0
  0
LINE
  5
31D
330
1F
100
AcDbEntity
  8
Ｓ_１_１
  6
CONTINUOUS
 62
     3
100
AcDbLine
 10
868.4999844999898
 20
777.5341090000185
 30
0.0
 11
868.4999844999898
 21
768.5343530000183
 31
0.0
  0
CIRCLE
  5
31E
330
1F
100
AcDbEntity
  8
Ｓ_１_１
  6
CONTINUOUS
 62
     3
100
AcDbCircle
 10
863.0
 20
709.53427600001
 30
0.0
 40
10.0
  0
POLYLINE
  5
31F
330
1F
100
AcDbEntity
  8
Ｓ_１_１
  6
CONTINUOUS
 62
     3
100
AcDb2dPolyline
 66
     1
 10
0.0
 20
0.0
 30
0.0
 70
   128
  0
VERTEX
  5
320
330
31F
100
AcDbEntity
  8
Ｓ_１_１
  6
CONTINUOUS
 62
     3
100
AcDbVertex
100
AcDb2dVertex
 10
863.0
 20
719.03427600001
 30
0.0
  0
VERTEX
  5
321
330
31F
100
AcDbEntity
  8
Ｓ_１_１
  6
CONTINUOUS
 62
     3
100
AcDbVertex
100
AcDb2dVertex
 10
854.7727586640476
 20
714.28427600001
 30
0.0
  0
VERTEX
  5
322
330
31F
100
AcDbEntity
  8
Ｓ_１_１
  6
CONTINUOUS
 62
     3
100
AcDbVertex
100
AcDb2dVertex
 10
854.7727586640476
 20
704.78427600001
 30
0.0
  0
VERTEX
  5
323
330
31F
100
AcDbEntity
  8
Ｓ_１_１
  6
CONTINUOUS
 62
     3
100
AcDbVertex
100
AcDb2dVertex
 10
863.0
 20
700.03427600001
 30
0.0
  0
VERTEX
  5
324
330
31F
100
AcDbEntity
  8
Ｓ_１_１
  6
CONTINUOUS
 62
     3
100
AcDbVertex
100
AcDb2dVertex
 10
871.2272413359524
 20
704.78427600001
 30
0.0
  0
VERTEX
  5
325
330
31F
100
AcDbEntity
  8
Ｓ_１_１
  6
CONTINUOUS
 62
     3
100
AcDbVertex
100
AcDb2dVertex
 10
871.2272413359524
 20
714.28427600001
 30
0.0
  0
VERTEX
  5
326
330
31F
100
AcDbEntity
  8
Ｓ_１_１
  6
CONTINUOUS
 62
     3
100
AcDbVertex
100
AcDb2dVertex
 10
863.0
 20
719.03427600001
 30
0.0
  0
SEQEND
  5
327
330
31F
100
AcDbEntity
  8
Ｓ_１_１
  6
CONTINUOUS
 62
     3
  0
CIRCLE
  5
328
330
1F
100
AcDbEntity
  8
Ｓ_１_１
  6
CONTINUOUS
 62
     3
100
AcDbCircle
 10
863.0
 20
709.53427600001
 30
0.0
 40
8.227241335951572
  0
ARC
  5
329
330
1F
100
AcDbEntity
  8
Ｓ_１_１
  6
CONTINUOUS
 62
     3
100
AcDbCircle
 10
863.0
 20
709.53427600001
 30
0.0
 40
8.999999915700016
100
AcDbArc
 50
96.08359749728285
 51
143.9164025027172
  0
ARC
  5
32A
330
1F
100
AcDbEntity
  8
Ｓ_１_１
  6
CONTINUOUS
 62
     3
100
AcDbCircle
 10
863.0
 20
709.53427600001
 30
0.0
 40
8.999999915700016
100
AcDbArc
 50
156.0835974972827
 51
203.9164025027173
  0
ARC
  5
32B
330
1F
100
AcDbEntity
  8
Ｓ_１_１
  6
CONTINUOUS
 62
     3
100
AcDbCircle
 10
863.0
 20
709.53427600001
 30
0.0
 40
8.999999915700016
100
AcDbArc
 50
216.0835974972828
 51
263.9164025027172
  0
ARC
  5
32C
330
1F
100
AcDbEntity
  8
Ｓ_１_１
  6
CONTINUOUS
 62
     3
100
AcDbCircle
 10
863.0
 20
709.53427600001
 30
0.0
 40
8.999999915700016
100
AcDbArc
 50
276.0835974972829
 51
323.9164025027172
  0
ARC
  5
32D
330
1F
100
AcDbEntity
  8
Ｓ_１_１
  6
CONTINUOUS
 62
     3
100
AcDbCircle
 10
863.0
 20
709.53427600001
 30
0.0
 40
8.999999915700016
100
AcDbArc
 50
336.0835974972827
 51
23.91640250271736
  0
ARC
  5
32E
330
1F
100
AcDbEntity
  8
Ｓ_１_１
  6
CONTINUOUS
 62
     3
100
AcDbCircle
 10
863.0
 20
709.53427600001
 30
0.0
 40
8.999999915700016
100
AcDbArc
 50
36.08359749728283
 51
83.91640250271715
  0
CIRCLE
  5
32F
330
1F
100
AcDbEntity
  8
Ｓ_１_１
  6
CONTINUOUS
 62
     3
100
AcDbCircle
 10
863.0
 20
709.53427600001
 30
0.0
 40
5.0
  0
CIRCLE
  5
330
330
1F
100
AcDbEntity
  8
Ｓ_１_１
  6
CONTINUOUS
 62
     3
100
AcDbCircle
 10
863.0
 20
709.53427600001
 30
0.0
 40
4.25
  0
LINE
  5
331
330
1F
100
AcDbEntity
  8
Ｓ_１_１
  6
EXLTYPE2
 62
     1
100
AcDbLine
 10
876.0
 20
709.5342760000091
 30
0.0
 11
850.0
 21
709.5342760000091
 31
0.0
  0
LINE
  5
332
330
1F
100
AcDbEntity
  8
Ｓ_１_１
  6
CONTINUOUS
 62
     3
100
AcDbLine
 10
312.4999999999998
 20
693.9122790000091
 30
0.0
 11
312.4999999999998
 21
724.912279000009
 31
0.0
  0
LINE
  5
333
330
1F
100
AcDbEntity
  8
Ｓ_１_１
  6
CONTINUOUS
 62
     3
100
AcDbLine
 10
287.4999999999998
 20
693.9122790000091
 30
0.0
 11
287.4999999999998
 21
724.912279000009
 31
0.0
  0
LINE
  5
334
330
1F
100
AcDbEntity
  8
Ｓ_１_１
  6
EXLTYPE2
 62
     1
100
AcDbLine
 10
286.1188507080004
 20
709.412279000009
 30
0.0
 11
355.0114479065008
 21
709.4122790000091
 31
0.0
  0
LINE
  5
335
330
1F
100
AcDbEntity
  8
Ｓ_１_１
  6
CONTINUOUS
 62
     3
100
AcDbLine
 10
312.5000000000003
 20
699.412279000009
 30
0.0
 11
342.0000000000007
 21
699.4122790000091
 31
0.0
  0
ARC
  5
336
330
1F
100
AcDbEntity
  8
Ｓ_１_１
  6
CONTINUOUS
 62
     3
100
AcDbCircle
 10
343.0000000000007
 20
716.904692353189
 30
0.0
 40
6.000000000001596
100
AcDbArc
 50
331.0978559733464
 51
0.0
  0
ARC
  5
337
330
1F
100
AcDbEntity
  8
Ｓ_１_１
  6
CONTINUOUS
 62
     3
100
AcDbCircle
 10
349.0000000000007
 20
716.904692353189
 30
0.0
 40
6.000000000000006
100
AcDbArc
 50
179.9999920172612
 51
208.9021440266621
  0
ARC
  5
338
330
1F
100
AcDbEntity
  8
Ｓ_１_１
  6
CONTINUOUS
 62
     3
100
AcDbCircle
 10
349.0000000000007
 20
701.919866218689
 30
0.0
 40
6.000000000001596
100
AcDbArc
 50
151.0978636188124
 51
180.0000417558857
  0
ARC
  5
339
330
1F
100
AcDbEntity
  8
Ｓ_１_１
  6
CONTINUOUS
 62
     3
100
AcDbCircle
 10
343.0000000000007
 20
701.919861846019
 30
0.0
 40
6.000000000001596
100
AcDbArc
 50
0.0000417559226242
 51
28.90218407791362
  0
LINE
  5
33A
330
1F
100
AcDbEntity
  8
Ｓ_１_１
  6
CONTINUOUS
 62
     3
100
AcDbLine
 10
348.3059640779464
 20
704.8197563762791
 30
0.0
 11
343.6940359220551
 21
704.8197563762791
 31
0.0
  0
LINE
  5
33B
330
1F
100
AcDbEntity
  8
Ｓ_１_１
  6
CONTINUOUS
 62
     3
100
AcDbLine
 10
348.3059641178627
 20
714.0048014946891
 30
0.0
 11
343.6940358821387
 21
714.0048014946891
 31
0.0
  0
ARC
  5
33C
330
1F
100
AcDbEntity
  8
Ｓ_１_１
  6
CONTINUOUS
 62
     3
100
AcDbCircle
 10
333.4583333333006
 20
709.4122790000091
 30
0.0
 40
15.5416666667
100
AcDbArc
 50
342.8126319048212
 51
17.18736759718547
  0
ARC
  5
33D
330
1F
100
AcDbEntity
  8
Ｓ_１_１
  6
CONTINUOUS
 62
     3
100
AcDbCircle
 10
358.5416666667009
 20
709.4122790000091
 30
0.0
 40
15.5416666667
100
AcDbArc
 50
200.6654786560356
 51
200.6654800033002
  0
ARC
  5
33E
330
1F
100
AcDbEntity
  8
Ｓ_１_１
  6
CONTINUOUS
 62
     3
100
AcDbCircle
 10
358.5416666667009
 20
709.4122790000091
 30
0.0
 40
15.5416666667
100
AcDbArc
 50
162.8126324028145
 51
197.1873680951787
  0
ARC
  5
33F
330
1F
100
AcDbEntity
  8
Ｓ_１_１
  6
CONTINUOUS
 62
     3
100
AcDbCircle
 10
333.4583333333006
 20
709.4122790000091
 30
0.0
 40
15.5416666667
100
AcDbArc
 50
20.66547610955293
 51
20.66547840939962
  0
ARC
  5
340
330
1F
100
AcDbEntity
  8
Ｓ_１_１
  6
CONTINUOUS
 62
     3
100
AcDbCircle
 10
358.5416666667009
 20
709.4122790000091
 30
0.0
 40
15.5416666667
100
AcDbArc
 50
159.3345163543002
 51
159.3345238904477
  0
LINE
  5
341
330
1F
100
AcDbEntity
  8
Ｓ_１_１
  6
CONTINUOUS
 62
     3
100
AcDbLine
 10
349.0000000000007
 20
701.9198651613091
 30
0.0
 11
349.0000000000007
 21
709.4122790000091
 31
0.0
  0
LINE
  5
342
330
1F
100
AcDbEntity
  8
Ｓ_１_１
  6
CONTINUOUS
 62
     3
100
AcDbLine
 10
349.0000000000007
 20
709.4122790000091
 30
0.0
 11
349.0000000000007
 21
716.9046928387091
 31
0.0
  0
LINE
  5
343
330
1F
100
AcDbEntity
  8
Ｓ_１_１
  6
CONTINUOUS
 62
     3
100
AcDbLine
 10
344.0000000000007
 20
718.912279000009
 30
0.0
 11
348.0000000000007
 21
718.912279000009
 31
0.0
  0
LINE
  5
344
330
1F
100
AcDbEntity
  8
Ｓ_１_１
  6
CONTINUOUS
 62
     3
100
AcDbLine
 10
344.0000000000007
 20
699.9122790000091
 30
0.0
 11
348.0000000000007
 21
699.9122790000091
 31
0.0
  0
LINE
  5
345
330
1F
100
AcDbEntity
  8
Ｓ_１_１
  6
CONTINUOUS
 62
     3
100
AcDbLine
 10
342.9999984859008
 20
701.919864885709
 30
0.0
 11
343.9999985375005
 21
699.9122785805088
 31
0.0
  0
LINE
  5
346
330
1F
100
AcDbEntity
  8
Ｓ_１_１
  6
CONTINUOUS
 62
     3
100
AcDbLine
 10
342.9999999766008
 20
716.9046923062091
 30
0.0
 11
344.0000001698007
 21
718.9122788959087
 31
0.0
  0
LINE
  5
347
330
1F
100
AcDbEntity
  8
Ｓ_１_１
  6
CONTINUOUS
 62
     3
100
AcDbLine
 10
348.9999995145006
 20
701.919865244009
 30
0.0
 11
347.9999993213008
 21
699.9122786543088
 31
0.0
  0
LINE
  5
348
330
1F
100
AcDbEntity
  8
Ｓ_１_１
  6
CONTINUOUS
 62
     3
100
AcDbLine
 10
348.9999981656009
 20
716.9046916632091
 30
0.0
 11
347.9999979724005
 21
718.9122782529087
 31
0.0
  0
LINE
  5
349
330
1F
100
AcDbEntity
  8
Ｓ_１_１
  6
CONTINUOUS
 62
     3
100
AcDbLine
 10
312.5000000000003
 20
719.412279000009
 30
0.0
 11
342.0000000000007
 21
719.412279000009
 31
0.0
  0
LINE
  5
34A
330
1F
100
AcDbEntity
  8
Ｓ_１_１
  6
CONTINUOUS
 62
     3
100
AcDbLine
 10
343.0000000000007
 20
709.4122790000091
 30
0.0
 11
343.0000000000007
 21
718.4122783357086
 31
0.0
  0
LINE
  5
34B
330
1F
100
AcDbEntity
  8
Ｓ_１_１
  6
CONTINUOUS
 62
     3
100
AcDbLine
 10
343.0000000000007
 20
700.4122792006091
 30
0.0
 11
343.0000000000007
 21
709.4122790000091
 31
0.0
  0
LINE
  5
34C
330
1F
100
AcDbEntity
  8
Ｓ_１_１
  6
CONTINUOUS
 62
     3
100
AcDbLine
 10
343.0000002849009
 20
700.4122792006091
 30
0.0
 11
342.0000004877009
 21
699.4122794877088
 31
0.0
  0
LINE
  5
34D
330
1F
100
AcDbEntity
  8
Ｓ_１_１
  6
CONTINUOUS
 62
     3
100
AcDbLine
 10
342.0000005510008
 20
719.4122784490089
 30
0.0
 11
343.0000005800005
 21
718.4122783357086
 31
0.0
  0
LINE
  5
34E
330
1F
100
AcDbEntity
  8
Ｓ_１_１
  6
CONTINUOUS
 62
     3
100
AcDbLine
 10
342.0000000000007
 20
699.4122790000091
 30
0.0
 11
342.0000000000007
 21
709.4122790000091
 31
0.0
  0
LINE
  5
34F
330
1F
100
AcDbEntity
  8
Ｓ_１_１
  6
CONTINUOUS
 62
     3
100
AcDbLine
 10
342.0000000000007
 20
709.4122790000091
 30
0.0
 11
342.0000000000007
 21
719.412279000009
 31
0.0
  0
LINE
  5
350
330
1F
100
AcDbEntity
  8
Ｓ_１_１
  6
CONTINUOUS
 62
     3
100
AcDbLine
 10
354.0000016470006
 20
713.6622809253089
 30
0.0
 11
353.2500014619007
 21
714.4122810471089
 31
0.0
  0
LINE
  5
351
330
1F
100
AcDbEntity
  8
Ｓ_１_１
  6
CONTINUOUS
 62
     3
100
AcDbLine
 10
353.2500025577008
 20
704.412280125009
 30
0.0
 11
354.0000006565008
 21
705.1622782870089
 31
0.0
  0
LINE
  5
352
330
1F
100
AcDbEntity
  8
Ｓ_１_１
  6
CONTINUOUS
 62
     3
100
AcDbLine
 10
353.2500000000007
 20
704.4122790000091
 30
0.0
 11
353.2500000000007
 21
714.4122790000091
 31
0.0
  0
LINE
  5
353
330
1F
100
AcDbEntity
  8
Ｓ_１_１
  6
CONTINUOUS
 62
     3
100
AcDbLine
 10
354.0000000000007
 20
705.1622790000091
 30
0.0
 11
354.0000000000007
 21
713.6622790000091
 31
0.0
  0
LINE
  5
354
330
1F
100
AcDbEntity
  8
Ｓ_１_１
  6
CONTINUOUS
 62
     3
100
AcDbLine
 10
349.0000000000007
 20
714.4122790000091
 30
0.0
 11
353.2500000000007
 21
714.4122790000091
 31
0.0
  0
LINE
  5
355
330
1F
100
AcDbEntity
  8
Ｓ_１_１
  6
CONTINUOUS
 62
     3
100
AcDbLine
 10
349.0000000000007
 20
704.4122790000091
 30
0.0
 11
353.2500000000007
 21
704.4122790000091
 31
0.0
  0
LINE
  5
356
330
1F
100
AcDbEntity
  8
Ｓ_１_１
  6
CONTINUOUS
 62
     3
100
AcDbLine
 10
349.0000000000007
 20
705.1622790000091
 30
0.0
 11
354.0000000000007
 21
705.1622790000091
 31
0.0
  0
LINE
  5
357
330
1F
100
AcDbEntity
  8
Ｓ_１_１
  6
CONTINUOUS
 62
     3
100
AcDbLine
 10
349.0000000000007
 20
713.6622790000091
 30
0.0
 11
354.0000000000007
 21
713.6622790000091
 31
0.0
  0
LINE
  5
358
330
1F
100
AcDbEntity
  8
Ｓ_１_１
  6
CONTINUOUS
 62
     3
100
AcDbLine
 10
305.4999844999896
 20
777.4121120000184
 30
0.0
 11
305.4999844999896
 21
768.4123560000182
 31
0.0
  0
LINE
  5
359
330
1F
100
AcDbEntity
  8
Ｓ_１_１
  6
CONTINUOUS
 62
     3
100
AcDbLine
 10
305.4998344999897
 20
768.4121430000184
 30
0.0
 11
308.9998054999895
 21
764.9121710000184
 31
0.0
  0
LINE
  5
35A
330
1F
100
AcDbEntity
  8
Ｓ_１_１
  6
CONTINUOUS
 62
     3
100
AcDbLine
 10
290.9999434999898
 20
764.9123430000184
 30
0.0
 11
294.49995749999
 21
768.4123570000186
 31
0.0
  0
LINE
  5
35B
330
1F
100
AcDbEntity
  8
Ｓ_１_１
  6
CONTINUOUS
 62
     3
100
AcDbLine
 10
288.2499094999901
 20
748.9123250000182
 30
0.0
 11
288.7498074999901
 21
749.4122340000183
 31
0.0
  0
LINE
  5
35C
330
1F
100
AcDbEntity
  8
Ｓ_１_１
  6
CONTINUOUS
 62
     3
100
AcDbLine
 10
311.2498804999894
 20
749.4123230000184
 30
0.0
 11
311.7498274999896
 21
748.9123770000185
 31
0.0
  0
LINE
  5
35D
330
1F
100
AcDbEntity
  8
Ｓ_１_１
  6
CONTINUOUS
 62
     3
100
AcDbLine
 10
307.4999844999896
 20
761.4122340000183
 30
0.0
 11
307.4999844999896
 21
759.9121120000184
 31
0.0
  0
LINE
  5
35E
330
1F
100
AcDbEntity
  8
Ｓ_１_１
  6
CONTINUOUS
 62
     3
100
AcDbLine
 10
292.49998449999
 20
761.4122340000183
 30
0.0
 11
292.49998449999
 21
759.9121120000184
 31
0.0
  0
LINE
  5
35F
330
1F
100
AcDbEntity
  8
Ｓ_１_１
  6
CONTINUOUS
 62
     3
100
AcDbLine
 10
291.0000154999901
 20
758.4123560000182
 30
0.0
 11
308.9999844999896
 21
758.4123560000182
 31
0.0
  0
LINE
  5
360
330
1F
100
AcDbEntity
  8
Ｓ_１_１
  6
CONTINUOUS
 62
     3
100
AcDbLine
 10
288.2499544999899
 20
748.9122340000183
 30
0.0
 11
311.7499844999896
 21
748.9122340000183
 31
0.0
  0
LINE
  5
361
330
1F
100
AcDbEntity
  8
Ｓ_１_１
  6
CONTINUOUS
 62
     3
100
AcDbLine
 10
307.4998364999895
 20
759.9122300000183
 30
0.0
 11
308.9998494999894
 21
758.4122180000184
 31
0.0
  0
LINE
  5
362
330
1F
100
AcDbEntity
  8
Ｓ_１_１
  6
CONTINUOUS
 62
     3
100
AcDbLine
 10
290.9999864999898
 20
758.4123890000185
 30
0.0
 11
292.4998694999898
 21
759.9122720000184
 31
0.0
  0
LINE
  5
363
330
1F
100
AcDbEntity
  8
Ｓ_１_１
  6
CONTINUOUS
 62
     3
100
AcDbLine
 10
291.0000154999901
 20
762.9122340000183
 30
0.0
 11
308.9999844999896
 21
762.9122340000183
 31
0.0
  0
LINE
  5
364
330
1F
100
AcDbEntity
  8
Ｓ_１_１
  6
CONTINUOUS
 62
     3
100
AcDbLine
 10
307.4999504999894
 20
761.4122410000184
 30
0.0
 11
308.9998334999894
 21
762.9121240000184
 31
0.0
  0
LINE
  5
365
330
1F
100
AcDbEntity
  8
Ｓ_１_１
  6
CONTINUOUS
 62
     3
100
AcDbLine
 10
290.9998724999899
 20
762.9122550000186
 30
0.0
 11
292.4998844999898
 21
761.4122420000183
 31
0.0
  0
LINE
  5
366
330
1F
100
AcDbEntity
  8
Ｓ_１_１
  6
CONTINUOUS
 62
     3
100
AcDbLine
 10
291.0000154999901
 20
758.4123560000182
 30
0.0
 11
291.0000154999901
 21
749.4122340000183
 31
0.0
  0
LINE
  5
367
330
1F
100
AcDbEntity
  8
Ｓ_１_１
  6
CONTINUOUS
 62
     3
100
AcDbLine
 10
308.9999844999896
 20
758.4123560000182
 30
0.0
 11
308.9999844999896
 21
749.4122340000183
 31
0.0
  0
LINE
  5
368
330
1F
100
AcDbEntity
  8
Ｓ_１_１
  6
CONTINUOUS
 62
     3
100
AcDbLine
 10
291.0000154999901
 20
764.9121120000184
 30
0.0
 11
308.9999844999896
 21
764.9121120000184
 31
0.0
  0
LINE
  5
369
330
1F
100
AcDbEntity
  8
Ｓ_１_１
  6
CONTINUOUS
 62
     3
100
AcDbLine
 10
292.49998449999
 20
761.4122340000183
 30
0.0
 11
307.4999844999896
 21
761.4122340000183
 31
0.0
  0
LINE
  5
36A
330
1F
100
AcDbEntity
  8
Ｓ_１_１
  6
CONTINUOUS
 62
     3
100
AcDbLine
 10
292.49998449999
 20
759.9121120000184
 30
0.0
 11
307.4999844999896
 21
759.9121120000184
 31
0.0
  0
LINE
  5
36B
330
1F
100
AcDbEntity
  8
Ｓ_１_１
  6
CONTINUOUS
 62
     3
100
AcDbLine
 10
296.49981649999
 20
778.4124190000182
 30
0.0
 11
298.4997754999893
 21
780.4123780000184
 31
0.0
  0
LINE
  5
36C
330
1F
100
AcDbEntity
  8
Ｓ_１_１
  6
CONTINUOUS
 62
     3
100
AcDbLine
 10
301.4998434999896
 20
780.4124210000184
 30
0.0
 11
303.4998884999894
 21
778.4123760000186
 31
0.0
  0
LINE
  5
36D
330
1F
100
AcDbEntity
  8
Ｓ_１_１
  6
CONTINUOUS
 62
     3
100
AcDbLine
 10
295.49998449999
 20
778.4123560000187
 30
0.0
 11
304.4999544999894
 21
778.4123560000187
 31
0.0
  0
LINE
  5
36E
330
1F
100
AcDbEntity
  8
Ｓ_１_１
  6
CONTINUOUS
 62
     3
100
AcDbLine
 10
287.99998449999
 20
740.4122340000183
 30
0.0
 11
311.9999544999894
 21
740.4122340000183
 31
0.0
  0
LINE
  5
36F
330
1F
100
AcDbEntity
  8
Ｓ_１_１
  6
CONTINUOUS
 62
     3
100
AcDbLine
 10
286.1435854999898
 20
739.3404560000183
 30
0.0
 11
286.1435854999898
 21
734.4841330000183
 31
0.0
  0
LINE
  5
370
330
1F
100
AcDbEntity
  8
Ｓ_１_１
  6
CONTINUOUS
 62
     3
100
AcDbLine
 10
293.0718534999899
 20
739.3404560000183
 30
0.0
 11
293.0718534999899
 21
734.4841330000183
 31
0.0
  0
LINE
  5
371
330
1F
100
AcDbEntity
  8
Ｓ_１_１
  6
CONTINUOUS
 62
     3
100
AcDbLine
 10
306.9282074999895
 20
739.3404560000183
 30
0.0
 11
306.9282074999895
 21
734.4841330000183
 31
0.0
  0
LINE
  5
372
330
1F
100
AcDbEntity
  8
Ｓ_１_１
  6
CONTINUOUS
 62
     3
100
AcDbLine
 10
313.8563994999893
 20
739.3404560000183
 30
0.0
 11
313.8563994999893
 21
734.4841330000183
 31
0.0
  0
LINE
  5
373
330
1F
100
AcDbEntity
  8
Ｓ_１_１
  6
CONTINUOUS
 62
     3
100
AcDbLine
 10
286.1436234999899
 20
739.3407260000183
 30
0.0
 11
287.99999649999
 21
740.4125030000184
 31
0.0
  0
LINE
  5
374
330
1F
100
AcDbEntity
  8
Ｓ_１_１
  6
CONTINUOUS
 62
     3
100
AcDbLine
 10
311.9999534999895
 20
733.4123890000185
 30
0.0
 11
313.8563264999896
 21
734.4841660000186
 31
0.0
  0
LINE
  5
375
330
1F
100
AcDbEntity
  8
Ｓ_１_１
  6
CONTINUOUS
 62
     3
100
AcDbLine
 10
311.9999114999894
 20
740.4124250000184
 30
0.0
 11
313.8563894999896
 21
739.3405860000182
 31
0.0
  0
LINE
  5
376
330
1F
100
AcDbEntity
  8
Ｓ_１_１
  6
CONTINUOUS
 62
     3
100
AcDbLine
 10
286.1436164999898
 20
734.4842080000183
 30
0.0
 11
287.99998849999
 21
733.4124310000186
 31
0.0
  0
LINE
  5
377
330
1F
100
AcDbEntity
  8
Ｓ_１_１
  6
CONTINUOUS
 62
     3
100
AcDbLine
 10
288.2499544999899
 20
748.9122340000183
 30
0.0
 11
288.2499544999899
 21
740.4122340000183
 31
0.0
  0
LINE
  5
378
330
1F
100
AcDbEntity
  8
Ｓ_１_１
  6
CONTINUOUS
 62
     3
100
AcDbLine
 10
311.7499844999896
 20
748.9122340000183
 30
0.0
 11
311.7499844999896
 21
740.4122340000183
 31
0.0
  0
LINE
  5
379
330
1F
100
AcDbEntity
  8
Ｓ_１_１
  6
CONTINUOUS
 62
     3
100
AcDbLine
 10
288.74998449999
 20
749.4122340000183
 30
0.0
 11
311.2499844999896
 21
749.4122340000183
 31
0.0
  0
LINE
  5
37A
330
1F
100
AcDbEntity
  8
Ｓ_１_１
  6
CONTINUOUS
 62
     3
100
AcDbLine
 10
308.9999844999896
 20
764.9121120000184
 30
0.0
 11
308.9999844999896
 21
762.9122340000183
 31
0.0
  0
LINE
  5
37B
330
1F
100
AcDbEntity
  8
Ｓ_１_１
  6
CONTINUOUS
 62
     3
100
AcDbLine
 10
291.0000154999901
 20
764.9121120000184
 30
0.0
 11
291.0000154999901
 21
762.9122340000183
 31
0.0
  0
LINE
  5
37C
330
1F
100
AcDbEntity
  8
Ｓ_１_１
  6
CONTINUOUS
 62
     3
100
AcDbLine
 10
294.4999544999899
 20
768.4123560000182
 30
0.0
 11
305.4999844999896
 21
768.4123560000182
 31
0.0
  0
LINE
  5
37D
330
1F
100
AcDbEntity
  8
Ｓ_１_１
  6
CONTINUOUS
 62
     3
100
AcDbLine
 10
294.4999544999899
 20
777.4121120000184
 30
0.0
 11
294.4999544999899
 21
768.4123560000182
 31
0.0
  0
LINE
  5
37E
330
1F
100
AcDbEntity
  8
Ｓ_１_１
  6
CONTINUOUS
 62
     3
100
AcDbLine
 10
287.99998449999
 20
733.4123560000182
 30
0.0
 11
311.9999544999894
 21
733.4123560000182
 31
0.0
  0
LINE
  5
37F
330
1F
100
AcDbEntity
  8
Ｓ_１_１
  6
CONTINUOUS
 62
     3
100
AcDbLine
 10
298.5000154999896
 20
780.4122340000183
 30
0.0
 11
301.4999844999896
 21
780.4122340000183
 31
0.0
  0
ARC
  5
380
330
1F
100
AcDbEntity
  8
Ｓ_１_１
  6
CONTINUOUS
 62
     3
100
AcDbCircle
 10
304.4999544999894
 20
777.4121120000184
 30
0.0
 40
1.0
100
AcDbArc
 50
359.9999970000023
 51
89.9999780000017
  0
ARC
  5
381
330
1F
100
AcDbEntity
  8
Ｓ_１_１
  6
CONTINUOUS
 62
     3
100
AcDbCircle
 10
310.3922884999895
 20
739.5461450000182
 30
0.0
 40
6.133925000000002
100
AcDbArc
 50
235.6154159999998
 51
304.3845739999999
  0
ARC
  5
382
330
1F
100
AcDbEntity
  8
Ｓ_１_１
  6
CONTINUOUS
 62
     3
100
AcDbCircle
 10
299.9999844999896
 20
756.3402120000185
 30
0.0
 40
22.927942
100
AcDbArc
 50
252.4118210000002
 51
287.5881150000001
  0
ARC
  5
383
330
1F
100
AcDbEntity
  8
Ｓ_１_１
  6
CONTINUOUS
 62
     3
100
AcDbCircle
 10
289.6076504999899
 20
734.2784450000183
 30
0.0
 40
6.133925000000002
100
AcDbArc
 50
55.6153689999997
 51
124.384513999999
  0
ARC
  5
384
330
1F
100
AcDbEntity
  8
Ｓ_１_１
  6
CONTINUOUS
 62
     3
100
AcDbCircle
 10
295.49998449999
 20
777.4121120000184
 30
0.0
 40
1.0
100
AcDbArc
 50
89.99997799999524
 51
179.9999749999976
  0
ARC
  5
385
330
1F
100
AcDbEntity
  8
Ｓ_１_１
  6
CONTINUOUS
 62
     3
100
AcDbCircle
 10
289.6076504999899
 20
739.5461450000182
 30
0.0
 40
6.133925000000002
100
AcDbArc
 50
235.6154019999991
 51
304.3845609999998
  0
ARC
  5
386
330
1F
100
AcDbEntity
  8
Ｓ_１_１
  6
CONTINUOUS
 62
     3
100
AcDbCircle
 10
299.9999844999896
 20
717.4841330000183
 30
0.0
 40
22.927938
100
AcDbArc
 50
72.411858
 51
107.5881660000001
  0
ARC
  5
387
330
1F
100
AcDbEntity
  8
Ｓ_１_１
  6
CONTINUOUS
 62
     3
100
AcDbCircle
 10
310.3922884999895
 20
734.2784450000183
 30
0.0
 40
6.133925000000002
100
AcDbArc
 50
55.61543800000034
 51
124.3845830000003
  0
LINE
  5
388
330
1F
100
AcDbEntity
  8
Ｓ_１_１
  6
CONTINUOUS
 62
     3
100
AcDbLine
 10
292.4365030000002
 20
691.5499989999998
 30
0.0
 11
291.6499959999999
 21
692.9122689999999
 31
0.0
  0
LINE
  5
389
330
1F
100
AcDbEntity
  8
Ｓ_１_１
  6
CONTINUOUS
 62
     3
100
AcDbLine
 10
308.3500120000002
 20
692.912298
 30
0.0
 11
307.5634979999998
 21
691.5500149999999
 31
0.0
  0
LINE
  5
38A
330
1F
100
AcDbEntity
  8
Ｓ_１_１
  6
CONTINUOUS
 62
     3
100
AcDbLine
 10
308.2648619999998
 20
691.5500069999999
 30
0.0
 11
291.7351449999999
 21
691.5500069999999
 31
0.0
  0
LINE
  5
38B
330
1F
100
AcDbEntity
  8
Ｓ_１_１
  6
CONTINUOUS
 62
     3
100
AcDbLine
 10
307.1798879999999
 20
733.41226400002
 30
0.0
 11
307.5634969999999
 21
727.27452100002
 31
0.0
  0
LINE
  5
38C
330
1F
100
AcDbEntity
  8
Ｓ_１_１
  6
CONTINUOUS
 62
     3
100
AcDbLine
 10
308.3499890000001
 20
725.91226000002
 30
0.0
 11
307.5634829999997
 21
727.2745300000199
 31
0.0
  0
LINE
  5
38D
330
1F
100
AcDbEntity
  8
Ｓ_１_１
  6
CONTINUOUS
 62
     3
100
AcDbLine
 10
307.8812499999997
 20
733.41228200002
 30
0.0
 11
308.3500029999998
 21
725.91223700002
 31
0.0
  0
LINE
  5
38E
330
1F
100
AcDbEntity
  8
Ｓ_１_１
  6
CONTINUOUS
 62
     3
100
AcDbLine
 10
292.436526
 20
727.27455900002
 30
0.0
 11
291.650011
 21
725.9122760000199
 31
0.0
  0
LINE
  5
38F
330
1F
100
AcDbEntity
  8
Ｓ_１_１
  6
CONTINUOUS
 62
     3
100
AcDbLine
 10
292.118749
 20
733.4122700000199
 30
0.0
 11
291.6499980000002
 21
725.9122560000199
 31
0.0
  0
LINE
  5
390
330
1F
100
AcDbEntity
  8
Ｓ_１_１
  6
CONTINUOUS
 62
     3
100
AcDbLine
 10
292.8201189999998
 20
733.4122520000199
 30
0.0
 11
292.4365110000002
 21
727.27453900002
 31
0.0
  0
LINE
  5
391
330
1F
100
AcDbEntity
  8
Ｓ_１_１
  6
CONTINUOUS
 62
     3
100
AcDbLine
 10
308.2648619999998
 20
727.27455100002
 30
0.0
 11
291.7351449999999
 21
727.27455100002
 31
0.0
  0
LINE
  5
392
330
1F
100
AcDbEntity
  8
Ｓ_１_１
  6
CONTINUOUS
 62
     3
100
AcDbLine
 10
287.4999999999998
 20
693.9122790000091
 30
0.0
 11
312.4999999999998
 21
693.912279000009
 31
0.0
  0
LINE
  5
393
330
1F
100
AcDbEntity
  8
Ｓ_１_１
  6
CONTINUOUS
 62
     3
100
AcDbLine
 10
287.4999999999998
 20
724.912279000009
 30
0.0
 11
312.4999999999998
 21
724.912279000009
 31
0.0
  0
LINE
  5
394
330
1F
100
AcDbEntity
  8
Ｓ_１_１
  6
CONTINUOUS
 62
     3
100
AcDbLine
 10
288.4999997116
 20
725.912279462809
 30
0.0
 11
287.4999999986997
 21
724.9122796657086
 31
0.0
  0
LINE
  5
395
330
1F
100
AcDbEntity
  8
Ｓ_１_１
  6
CONTINUOUS
 62
     3
100
AcDbLine
 10
287.5000000480998
 20
693.912279075809
 30
0.0
 11
288.5000001751999
 21
692.9122790330088
 31
0.0
  0
LINE
  5
396
330
1F
100
AcDbEntity
  8
Ｓ_１_１
  6
CONTINUOUS
 62
     3
100
AcDbLine
 10
312.5000007866996
 20
693.9122779029087
 30
0.0
 11
311.5000009895996
 21
692.9122781900089
 31
0.0
  0
LINE
  5
397
330
1F
100
AcDbEntity
  8
Ｓ_１_１
  6
CONTINUOUS
 62
     3
100
AcDbLine
 10
311.5000013688999
 20
725.9122805587087
 30
0.0
 11
312.5000014188998
 21
724.9122804243086
 31
0.0
  0
LINE
  5
398
330
1F
100
AcDbEntity
  8
Ｓ_１_１
  6
CONTINUOUS
 62
     3
100
AcDbLine
 10
299.9999999999998
 20
725.912279000009
 30
0.0
 11
311.4999999999998
 21
725.912279000009
 31
0.0
  0
LINE
  5
399
330
1F
100
AcDbEntity
  8
Ｓ_１_１
  6
CONTINUOUS
 62
     3
100
AcDbLine
 10
288.4999999999998
 20
725.912279000009
 30
0.0
 11
299.9999999999998
 21
725.912279000009
 31
0.0
  0
LINE
  5
39A
330
1F
100
AcDbEntity
  8
Ｓ_１_１
  6
CONTINUOUS
 62
     3
100
AcDbLine
 10
299.9999999999998
 20
692.912279000009
 30
0.0
 11
311.4999999999998
 21
692.912279000009
 31
0.0
  0
LINE
  5
39B
330
1F
100
AcDbEntity
  8
Ｓ_１_１
  6
CONTINUOUS
 62
     3
100
AcDbLine
 10
288.4999999999998
 20
692.9122790000091
 30
0.0
 11
299.9999999999998
 21
692.912279000009
 31
0.0
  0
LINE
  5
39C
330
1F
100
AcDbEntity
  8
Ｓ_１_１
  6
CONTINUOUS
 62
     3
100
AcDbLine
 10
292.0620831970213
 20
686.3190814846891
 30
0.0
 11
291.6500100000001
 21
692.9122629999999
 31
0.0
  0
LINE
  5
39D
330
1F
100
AcDbEntity
  8
Ｓ_１_１
  6
CONTINUOUS
 62
     3
100
AcDbLine
 10
292.7610150610362
 20
686.3579832538373
 30
0.0
 11
292.4365129999999
 21
691.5500099999999
 31
0.0
  0
LINE
  5
39E
330
1F
100
AcDbEntity
  8
Ｓ_１_１
  6
CONTINUOUS
 62
     3
100
AcDbLine
 10
307.2389886765632
 20
686.357983055413
 30
0.0
 11
307.5634899999998
 21
691.549998
 31
0.0
  0
LINE
  5
39F
330
1F
100
AcDbEntity
  8
Ｓ_１_１
  6
CONTINUOUS
 62
     3
100
AcDbLine
 10
307.937920603913
 20
686.3190812633568
 30
0.0
 11
308.3499930000001
 21
692.912251
 31
0.0
  0
LINE
  5
3A0
330
1F
100
AcDbEntity
  8
Ｓ_１_１
  6
CONTINUOUS
 62
     3
100
AcDbLine
 10
644.9999999999993
 20
473.9999999999998
 30
0.0
 11
644.9999999999993
 21
626.0
 31
0.0
  0
LINE
  5
3A1
330
1F
100
AcDbEntity
  8
Ｓ_１_１
  6
CONTINUOUS
 62
     3
100
AcDbLine
 10
647.9999999999998
 20
675.5
 30
0.0
 11
647.9999999999998
 21
424.5
 31
0.0
  0
LINE
  5
3A2
330
1F
100
AcDbEntity
  8
Ｓ_１_１
  6
CONTINUOUS
 62
     3
100
AcDbLine
 10
649.9999999999998
 20
677.4999999999998
 30
0.0
 11
649.9999999999998
 21
422.5
 31
0.0
  0
LINE
  5
3A3
330
1F
100
AcDbEntity
  8
Ｓ_１_１
  6
CONTINUOUS
 62
     3
100
AcDbLine
 10
712.9999999999998
 20
422.5
 30
0.0
 11
712.9999999999998
 21
677.4999999999998
 31
0.0
  0
LINE
  5
3A4
330
1F
100
AcDbEntity
  8
Ｓ_１_１
  6
CONTINUOUS
 62
     3
100
AcDbLine
 10
716.9999999999998
 20
413.328
 30
0.0
 11
716.9999999999998
 21
686.6719999999998
 31
0.0
  0
LINE
  5
3A5
330
1F
100
AcDbEntity
  8
Ｓ_１_１
  6
CONTINUOUS
 62
     3
100
AcDbLine
 10
714.9999999999998
 20
415.328
 30
0.0
 11
714.9999999999998
 21
684.672
 31
0.0
  0
LINE
  5
3A6
330
1F
100
AcDbEntity
  8
Ｓ_１_１
  6
CONTINUOUS
 62
     3
100
AcDbLine
 10
1064.5
 20
413.328
 30
0.0
 11
1064.5
 21
686.672
 31
0.0
  0
LINE
  5
3A7
330
1F
100
AcDbEntity
  8
Ｓ_１_１
  6
CONTINUOUS
 62
     3
100
AcDbLine
 10
1075.5
 20
413.328
 30
0.0
 11
1075.5
 21
686.672
 31
0.0
  0
LINE
  5
3A8
330
1F
100
AcDbEntity
  8
Ｓ_１_１
  6
CONTINUOUS
 62
     3
100
AcDbLine
 10
1125.0
 20
415.328
 30
0.0
 11
1125.0
 21
684.672
 31
0.0
  0
POLYLINE
  5
3A9
330
1F
100
AcDbEntity
  8
Ｓ_１_１
  6
CONTINUOUS
 62
     3
100
AcDb2dPolyline
 66
     1
 10
0.0
 20
0.0
 30
0.0
 70
   128
  0
VERTEX
  5
3AA
330
3A9
100
AcDbEntity
  8
Ｓ_１_１
  6
CONTINUOUS
 62
     3
100
AcDbVertex
100
AcDb2dVertex
 10
863.0
 20
712.4210273459581
 30
0.0
  0
VERTEX
  5
3AB
330
3A9
100
AcDbEntity
  8
Ｓ_１_１
  6
CONTINUOUS
 62
     3
100
AcDbVertex
100
AcDb2dVertex
 10
860.5
 20
710.977651672984
 30
0.0
  0
VERTEX
  5
3AC
330
3A9
100
AcDbEntity
  8
Ｓ_１_１
  6
CONTINUOUS
 62
     3
100
AcDbVertex
100
AcDb2dVertex
 10
860.5
 20
708.0909003270359
 30
0.0
  0
VERTEX
  5
3AD
330
3A9
100
AcDbEntity
  8
Ｓ_１_１
  6
CONTINUOUS
 62
     3
100
AcDbVertex
100
AcDb2dVertex
 10
863.0
 20
706.6475246540618
 30
0.0
  0
VERTEX
  5
3AE
330
3A9
100
AcDbEntity
  8
Ｓ_１_１
  6
CONTINUOUS
 62
     3
100
AcDbVertex
100
AcDb2dVertex
 10
865.5
 20
708.0909003270359
 30
0.0
  0
VERTEX
  5
3AF
330
3A9
100
AcDbEntity
  8
Ｓ_１_１
  6
CONTINUOUS
 62
     3
100
AcDbVertex
100
AcDb2dVertex
 10
865.5
 20
710.977651672984
 30
0.0
  0
VERTEX
  5
3B0
330
3A9
100
AcDbEntity
  8
Ｓ_１_１
  6
CONTINUOUS
 62
     3
100
AcDbVertex
100
AcDb2dVertex
 10
863.0
 20
712.4210273459581
 30
0.0
  0
SEQEND
  5
3B1
330
3A9
100
AcDbEntity
  8
Ｓ_１_１
  6
CONTINUOUS
 62
     3
  0
ARC
  5
3B2
330
1F
100
AcDbEntity
  8
Ｓ_１_１
  6
CONTINUOUS
 62
     3
100
AcDbCircle
 10
148.4500000000199
 20
505.9999999999998
 30
0.0
 40
6.500000000000004
100
AcDbArc
 50
180.0
 51
0.0
  0
ARC
  5
3B3
330
1F
100
AcDbEntity
  8
Ｓ_１_１
  6
CONTINUOUS
 62
     3
100
AcDbCircle
 10
451.5499999999797
 20
505.9999999999998
 30
0.0
 40
6.500000000000004
100
AcDbArc
 50
180.0
 51
0.0
  0
ARC
  5
3B4
330
1F
100
AcDbEntity
  8
Ｓ_１_１
  6
CONTINUOUS
 62
     3
100
AcDbCircle
 10
1248.45
 20
505.9999999999998
 30
0.0
 40
6.500000000000004
100
AcDbArc
 50
180.0
 51
0.0
  0
ARC
  5
3B5
330
1F
100
AcDbEntity
  8
Ｓ_１_１
  6
CONTINUOUS
 62
     3
100
AcDbCircle
 10
1551.55
 20
505.9999999999998
 30
0.0
 40
6.500000000000004
100
AcDbArc
 50
180.0
 51
0.0
  0
CIRCLE
  5
3B6
330
1F
100
AcDbEntity
  8
Ｓ_１_１
  6
CONTINUOUS
 62
     3
100
AcDbCircle
 10
299.9999999999993
 20
640.0
 30
0.0
 40
10.0
  0
CIRCLE
  5
3B7
330
1F
100
AcDbEntity
  8
Ｓ_１_１
  6
CONTINUOUS
 62
     3
100
AcDbCircle
 10
299.9999999999993
 20
640.0
 30
0.0
 40
8.75
  0
CIRCLE
  5
3B8
330
1F
100
AcDbEntity
  8
Ｓ_１_１
  6
CONTINUOUS
 62
     3
100
AcDbCircle
 10
209.9999999999992
 20
550.0
 30
0.0
 40
10.0
  0
CIRCLE
  5
3B9
330
1F
100
AcDbEntity
  8
Ｓ_１_１
  6
CONTINUOUS
 62
     3
100
AcDbCircle
 10
209.9999999999992
 20
550.0
 30
0.0
 40
8.75
  0
CIRCLE
  5
3BA
330
1F
100
AcDbEntity
  8
Ｓ_１_１
  6
CONTINUOUS
 62
     3
100
AcDbCircle
 10
299.9999999999992
 20
460.0
 30
0.0
 40
10.0
  0
CIRCLE
  5
3BB
330
1F
100
AcDbEntity
  8
Ｓ_１_１
  6
CONTINUOUS
 62
     3
100
AcDbCircle
 10
299.9999999999992
 20
460.0
 30
0.0
 40
8.75
  0
CIRCLE
  5
3BC
330
1F
100
AcDbEntity
  8
Ｓ_１_１
  6
CONTINUOUS
 62
     3
100
AcDbCircle
 10
389.9999999999993
 20
550.0
 30
0.0
 40
10.0
  0
CIRCLE
  5
3BD
330
1F
100
AcDbEntity
  8
Ｓ_１_１
  6
CONTINUOUS
 62
     3
100
AcDbCircle
 10
389.9999999999993
 20
550.0
 30
0.0
 40
8.75
  0
ENDSEC
  0
SECTION
  2
OBJECTS
  0
DICTIONARY
  5
C
330
0
100
AcDbDictionary
  3
ACAD_GROUP
350
D
  3
ACAD_LAYOUT
350
1A
  3
ACAD_MATERIAL
350
43
  3
ACAD_MLEADERSTYLE
350
6B
  3
ACAD_MLINESTYLE
350
17
  3
ACAD_PLOTSETTINGS
350
19
  3
ACAD_SCALELIST
350
47
  3
ACAD_VISUALSTYLE
350
2A
  3
ACDBHEADERROUNDTRIPXREC
350
3BE
  3
ACDBVARIABLEDICTIONARY
350
3DF
  0
DICTIONARY
  5
3EA
330
8
100
AcDbDictionary
280
     1
  3
ACAD_XREC_ROUNDTRIP
360
3EB
  0
DICTIONARY
  5
D
102
{ACAD_REACTORS
330
C
102
}
330
C
100
AcDbDictionary
  0
DICTIONARY
  5
1A
102
{ACAD_REACTORS
330
C
102
}
330
C
100
AcDbDictionary
  0
DICTIONARY
  5
43
102
{ACAD_REACTORS
330
C
102
}
330
C
100
AcDbDictionary
  3
BYBLOCK
350
45
  3
BYLAYER
350
44
  3
GLOBAL
350
46
  0
DICTIONARY
  5
6B
102
{ACAD_REACTORS
330
C
102
}
330
C
100
AcDbDictionary
  3
STANDARD
350
6C
  0
DICTIONARY
  5
17
102
{ACAD_REACTORS
330
C
102
}
330
C
100
AcDbDictionary
  3
STANDARD
350
18
  0
DICTIONARY
  5
19
102
{ACAD_REACTORS
330
C
102
}
330
C
100
AcDbDictionary
  0
DICTIONARY
  5
47
102
{ACAD_REACTORS
330
C
102
}
330
C
100
AcDbDictionary
  3
A0
350
48
  3
A1
350
49
  3
A2
350
4A
  3
A3
350
4B
  3
A4
350
4C
  3
A5
350
4D
  3
A6
350
4E
  3
A7
350
4F
  3
A8
350
50
  3
A9
350
51
  3
B0
350
52
  3
B1
350
53
  3
B2
350
54
  3
B3
350
55
  3
B4
350
56
  3
B5
350
57
  3
B6
350
58
  3
B7
350
59
  3
B8
350
5A
  3
B9
350
5B
  3
C0
350
5C
  3
C1
350
5D
  3
C2
350
5E
  3
C3
350
5F
  3
C4
350
60
  3
C5
350
61
  3
C6
350
62
  3
C7
350
63
  3
C8
350
64
  3
C9
350
65
  3
D0
350
66
  3
D1
350
67
  3
D2
350
68
  0
DICTIONARY
  5
2A
102
{ACAD_REACTORS
330
C
102
}
330
C
100
AcDbDictionary
  3
2DWIREFRAME
350
2F
  3
BASIC
350
32
  3
BRIGHTEN
350
36
  3
COLORCHANGE
350
3A
  3
CONCEPTUAL
350
34
  3
DIM
350
35
  3
EDGECOLOROFF
350
3D
  3
FACEPATTERN
350
39
  3
FLAT
350
2B
  3
FLATWITHEDGES
350
2C
  3
GOURAUD
350
2D
  3
GOURAUDWITHEDGES
350
2E
  3
HIDDEN
350
31
  3
JITTEROFF
350
3B
  3
LINEPATTERN
350
38
  3
OVERHANGOFF
350
3C
  3
REALISTIC
350
33
  3
SHADED
350
42
  3
SHADED_WITH_EDGES
350
41
  3
SHADES_OF_GRAY
350
3E
  3
SKETCHY
350
3F
  3
THICKEN
350
37
  3
WIREFRAME
350
30
  3
X-RAY
350
40
  0
DICTIONARY
  5
3BE
102
{ACAD_REACTORS
330
C
102
}
330
C
100
AcDbDictionary
  3
CEPSNID
350
3C8
  3
CEPSNTYPE
350
3C7
  3
DIMSTYLEDATA
350
3DE
  3
FINGERPRINTGUID
350
3C9
  3
HYPERLINKBASE
350
3C1
  3
INSUNITS
350
3C6
  3
LAYOUTDICT
350
3C3
  3
LWETCUNION
350
3C5
  3
PLOTSETDICT
350
3C4
  3
PSVPSCALE
350
3CB
  3
PUCSBASE
350
3CE
  3
PUCSORGBACK
350
3D4
  3
PUCSORGBOTTOM
350
3D0
  3
PUCSORGFRONT
350
3D3
  3
PUCSORGLEFT
350
3D1
  3
PUCSORGRIGHT
350
3D2
  3
PUCSORGTOP
350
3CF
  3
PUCSORTHOREF
350
3CC
  3
PUCSORTHOVIEW
350
3CD
  3
STYLESHEET
350
3C2
  3
TSTACKALIGN
350
3BF
  3
TSTACKSIZE
350
3C0
  3
UCSBASE
350
3D7
  3
UCSORGBACK
350
3DD
  3
UCSORGBOTTOM
350
3D9
  3
UCSORGFRONT
350
3DC
  3
UCSORGLEFT
350
3DA
  3
UCSORGRIGHT
350
3DB
  3
UCSORGTOP
350
3D8
  3
UCSORTHOREF
350
3D5
  3
UCSORTHOVIEW
350
3D6
  3
VERSIONGUID
350
3CA
  0
DICTIONARY
  5
3DF
102
{ACAD_REACTORS
330
C
102
}
330
C
100
AcDbDictionary
  3
CANNOSCALE
350
3EC
  3
CENTEREXE
350
3E6
  3
CENTERLTYPEFILE
350
3E7
  3
CMLEADERSTYLE
350
3E1
  3
CTABLESTYLE
350
3E0
  3
DIMASSOC
350
3E8
  3
HIDETEXT
350
3E9
  3
MSLTSCALE
350
3ED
  3
PSOLHEIGHT
350
3E3
  3
PSOLWIDTH
350
3E2
  0
XRECORD
  5
3EB
102
{ACAD_REACTORS
330
3EA
102
}
330
3EA
100
AcDbXrecord
102
VTR_0.000_0.000_1.000_1.000_VISUALSTYLE
340
2F
102
VTR_0.000_0.000_1.000_1.000_GRIDDISPLAY
 70
     3
102
VTR_0.000_0.000_1.000_1.000_GRIDMAJOR
 70
     5
102
VTR_0.000_0.000_1.000_1.000_DEFAULTLIGHTING
280
     1
102
VTR_0.000_0.000_1.000_1.000_DEFAULTLIGHTINGTYPE
 70
     1
102
VTR_0.000_0.000_1.000_1.000_BRIGHTNESS
141
0.0
102
VTR_0.000_0.000_1.000_1.000_CONTRAST
142
0.0
  0
MATERIAL
  5
45
102
{ACAD_REACTORS
330
43
102
}
102
{ACAD_XDICTIONARY
360
3F0
102
}
330
43
100
AcDbMaterial
  1
BYBLOCK
  0
MATERIAL
  5
44
102
{ACAD_REACTORS
330
43
102
}
102
{ACAD_XDICTIONARY
360
3EE
102
}
330
43
100
AcDbMaterial
  1
BYLAYER
  0
MATERIAL
  5
46
102
{ACAD_REACTORS
330
43
102
}
102
{ACAD_XDICTIONARY
360
3F2
102
}
330
43
100
AcDbMaterial
  1
GLOBAL
  0
ACAD_PROXY_OBJECT
  5
6C
102
{ACAD_REACTORS
330
6B
102
}
330
6B
100
AcDbProxyObject
 90
      499
 91
      505
 93
      610
310
40901902A4063FBFFFFFE0000000000000020400000000000020404214DD185B99185C990000000000000104090141901A00000000000004100000000000000041025764000000000000039000
340
14
340
0
340
11
340
0
 94
        0
1001
ACAD_MLEADERVER
1070
     2
  0
MLINESTYLE
  5
18
102
{ACAD_REACTORS
330
17
102
}
330
17
100
AcDbMlineStyle
  2
Standard
 70
     0
  3

 62
   256
 51
90.0
 52
90.0
 71
     2
 49
0.5
 62
   256
  6
BYLAYER
 49
-0.5
 62
   256
  6
BYLAYER
  0
ACAD_PROXY_OBJECT
  5
48
102
{ACAD_REACTORS
330
47
102
}
330
47
100
AcDbProxyObject
 90
      499
 91
      503
 93
       41
310
903313A31580
  0
ACAD_PROXY_OBJECT
  5
49
102
{ACAD_REACTORS
330
47
102
}
330
47
100
AcDbProxyObject
 90
      499
 91
      503
 93
      105
310
903313A324000000000000004000
  0
ACAD_PROXY_OBJECT
  5
4A
102
{ACAD_REACTORS
330
47
102
}
330
47
100
AcDbProxyObject
 90
      499
 91
      503
 93
      105
310
903313A344000000000000104000
  0
ACAD_PROXY_OBJECT
  5
4B
102
{ACAD_REACTORS
330
47
102
}
330
47
100
AcDbProxyObject
 90
      499
 91
      503
 93
      105
310
903313A354000000000000144000
  0
ACAD_PROXY_OBJECT
  5
4C
102
{ACAD_REACTORS
330
47
102
}
330
47
100
AcDbProxyObject
 90
      499
 91
      503
 93
      105
310
903313A384000000000000204000
  0
ACAD_PROXY_OBJECT
  5
4D
102
{ACAD_REACTORS
330
47
102
}
330
47
100
AcDbProxyObject
 90
      499
 91
      503
 93
      113
310
904313A31304000000000000244000
  0
ACAD_PROXY_OBJECT
  5
4E
102
{ACAD_REACTORS
330
47
102
}
330
47
100
AcDbProxyObject
 90
      499
 91
      503
 93
      113
310
904313A31364000000000000304000
  0
ACAD_PROXY_OBJECT
  5
4F
102
{ACAD_REACTORS
330
47
102
}
330
47
100
AcDbProxyObject
 90
      499
 91
      503
 93
      113
310
904313A32304000000000000344000
  0
ACAD_PROXY_OBJECT
  5
50
102
{ACAD_REACTORS
330
47
102
}
330
47
100
AcDbProxyObject
 90
      499
 91
      503
 93
      113
310
904313A333040000000000003E4000
  0
ACAD_PROXY_OBJECT
  5
51
102
{ACAD_REACTORS
330
47
102
}
330
47
100
AcDbProxyObject
 90
      499
 91
      503
 93
      113
310
904313A34304000000000000444000
  0
ACAD_PROXY_OBJECT
  5
52
102
{ACAD_REACTORS
330
47
102
}
330
47
100
AcDbProxyObject
 90
      499
 91
      503
 93
      113
310
904313A35304000000000000494000
  0
ACAD_PROXY_OBJECT
  5
53
102
{ACAD_REACTORS
330
47
102
}
330
47
100
AcDbProxyObject
 90
      499
 91
      503
 93
      121
310
905313A3130304000000000000594000
  0
ACAD_PROXY_OBJECT
  5
54
102
{ACAD_REACTORS
330
47
102
}
330
47
100
AcDbProxyObject
 90
      499
 91
      503
 93
      105
310
903323A310000000000000010100
  0
ACAD_PROXY_OBJECT
  5
55
102
{ACAD_REACTORS
330
47
102
}
330
47
100
AcDbProxyObject
 90
      499
 91
      503
 93
      105
310
903343A310000000000000410100
  0
ACAD_PROXY_OBJECT
  5
56
102
{ACAD_REACTORS
330
47
102
}
330
47
100
AcDbProxyObject
 90
      499
 91
      503
 93
      105
310
903383A310000000000000810100
  0
ACAD_PROXY_OBJECT
  5
57
102
{ACAD_REACTORS
330
47
102
}
330
47
100
AcDbProxyObject
 90
      499
 91
      503
 93
      113
310
90431303A310000000000000910100
  0
ACAD_PROXY_OBJECT
  5
58
102
{ACAD_REACTORS
330
47
102
}
330
47
100
AcDbProxyObject
 90
      499
 91
      503
 93
      121
310
9053130303A310000000000001650100
  0
ACAD_PROXY_OBJECT
  5
59
102
{ACAD_REACTORS
330
47
102
}
330
47
100
AcDbProxyObject
 90
      499
 91
      503
 93
      257
310
90E312F31323822203D2031272D3022000000000000200FC000000000000284000
  0
ACAD_PROXY_OBJECT
  5
5A
102
{ACAD_REACTORS
330
47
102
}
330
47
100
AcDbProxyObject
 90
      499
 91
      503
 93
      249
310
90D312F363422203D2031272D3022000000000000240FC000000000000284000
  0
ACAD_PROXY_OBJECT
  5
5B
102
{ACAD_REACTORS
330
47
102
}
330
47
100
AcDbProxyObject
 90
      499
 91
      503
 93
      249
310
90D312F333222203D2031272D3022000000000000280FC000000000000284000
  0
ACAD_PROXY_OBJECT
  5
5C
102
{ACAD_REACTORS
330
47
102
}
330
47
100
AcDbProxyObject
 90
      499
 91
      503
 93
      249
310
90D312F313622203D2031272D30220000000000002C0FC000000000000284000
  0
ACAD_PROXY_OBJECT
  5
5D
102
{ACAD_REACTORS
330
47
102
}
330
47
100
AcDbProxyObject
 90
      499
 91
      503
 93
      249
310
90D332F333222203D2031272D30220000000000002E0FC000000000000284000
  0
ACAD_PROXY_OBJECT
  5
5E
102
{ACAD_REACTORS
330
47
102
}
330
47
100
AcDbProxyObject
 90
      499
 91
      503
 93
      241
310
90C312F3822203D2031272D3022000000000000300FC000000000000284000
  0
ACAD_PROXY_OBJECT
  5
5F
102
{ACAD_REACTORS
330
47
102
}
330
47
100
AcDbProxyObject
 90
      499
 91
      503
 93
      249
310
90D332F313622203D2031272D3022000000000000320FC000000000000284000
  0
ACAD_PROXY_OBJECT
  5
60
102
{ACAD_REACTORS
330
47
102
}
330
47
100
AcDbProxyObject
 90
      499
 91
      503
 93
      241
310
90C312F3422203D2031272D3022000000000000340FC000000000000284000
  0
ACAD_PROXY_OBJECT
  5
61
102
{ACAD_REACTORS
330
47
102
}
330
47
100
AcDbProxyObject
 90
      499
 91
      503
 93
      241
310
90C332F3822203D2031272D3022000000000000360FC000000000000284000
  0
ACAD_PROXY_OBJECT
  5
62
102
{ACAD_REACTORS
330
47
102
}
330
47
100
AcDbProxyObject
 90
      499
 91
      503
 93
      241
310
90C312F3222203D2031272D3022000000000000380FC000000000000284000
  0
ACAD_PROXY_OBJECT
  5
63
102
{ACAD_REACTORS
330
47
102
}
330
47
100
AcDbProxyObject
 90
      499
 91
      503
 93
      241
310
90C332F3422203D2031272D30220000000000003A0FC000000000000284000
  0
ACAD_PROXY_OBJECT
  5
64
102
{ACAD_REACTORS
330
47
102
}
330
47
100
AcDbProxyObject
 90
      499
 91
      503
 93
      161
310
90A3122203D2031272D30224000000000000284000
  0
ACAD_PROXY_OBJECT
  5
65
102
{ACAD_REACTORS
330
47
102
}
330
47
100
AcDbProxyObject
 90
      499
 91
      503
 93
      257
310
90E312D312F3222203D2031272D30220000000000003E0FC000000000000284000
  0
ACAD_PROXY_OBJECT
  5
66
102
{ACAD_REACTORS
330
47
102
}
330
47
100
AcDbProxyObject
 90
      499
 91
      503
 93
      225
310
90A3322203D2031272D302200000000000002100000000000000284000
  0
ACAD_PROXY_OBJECT
  5
67
102
{ACAD_REACTORS
330
47
102
}
330
47
100
AcDbProxyObject
 90
      499
 91
      503
 93
      225
310
90A3622203D2031272D302200000000000006100000000000000284000
  0
ACAD_PROXY_OBJECT
  5
68
102
{ACAD_REACTORS
330
47
102
}
330
47
100
AcDbProxyObject
 90
      499
 91
      503
 93
      249
310
90D31272D3022203D2031272D30220000000000000A100000000000000284000
  0
ACAD_PROXY_OBJECT
  5
2F
102
{ACAD_REACTORS
330
2A
102
}
330
2A
100
AcDbProxyObject
 90
      499
 91
      501
 93
      436
310
42CC9915DA5C99599C985B595049028333333333333E33F0000000000000F90107901411070040501600405405064090741402480A0340
1001
ACAD
1000
AcDbSavedByObjectVersion
1070
     0
  0
ACAD_PROXY_OBJECT
  5
32
102
{ACAD_REACTORS
330
2A
102
}
330
2A
100
AcDbProxyObject
 90
      499
 91
      501
 93
      388
310
4150985CDA58D07406404333333333333E33F0000000000000F90107A41107004050150841D405064090741402480A0350
1001
ACAD
1000
AcDbSavedByObjectVersion
1070
     0
  0
ACAD_PROXY_OBJECT
  5
36
102
{ACAD_REACTORS
330
2A
102
}
330
2A
100
AcDbProxyObject
 90
      499
 91
      501
 93
      428
310
42109C9A59DA1D195B90C409028333333333333E33F0000000000000F9010790141107004050150841D405064090741402480A029950
1001
ACAD
1000
AcDbSavedByObjectVersion
1070
     0
  0
ACAD_PROXY_OBJECT
  5
3A
102
{ACAD_REACTORS
330
2A
102
}
330
2A
100
AcDbProxyObject
 90
      499
 91
      501
 93
      452
310
42D0DBDB1BDC90DA185B99D95104090240C333333333333E33F0000000000000F90108901411070040501508421405064090741402480A0350
1001
ACAD
1000
AcDbSavedByObjectVersion
1070
     0
  0
ACAD_PROXY_OBJECT
  5
34
102
{ACAD_REACTORS
330
2A
102
}
330
2A
100
AcDbProxyObject
 90
      499
 91
      501
 93
      500
310
4290DBDB98D95C1D1D585B10940D028333333333333E33F0000000000000F90107902409070040501000000000018199010841D405064090740C02480A0340
1001
ACAD
1000
AcDbSavedByObjectVersion
1070
     0
  0
ACAD_PROXY_OBJECT
  5
35
102
{ACAD_REACTORS
330
2A
102
}
330
2A
100
AcDbProxyObject
 90
      499
 91
      501
 93
      412
310
40D11A5B50B409028333333333333E33F0000000000000F9010790141107004050150841D405064090741402480A02677FFFFFD0
1001
ACAD
1000
AcDbSavedByObjectVersion
1070
     0
  0
ACAD_PROXY_OBJECT
  5
3D
102
{ACAD_REACTORS
330
2A
102
}
330
2A
100
AcDbProxyObject
 90
      499
 91
      501
 93
      452
310
43115919D950DBDB1BDC93D999916409028333333333333E33F0000000000000F9010790141107004050150841D405064090741402480A0350
1001
ACAD
1000
AcDbSavedByObjectVersion
1070
     0
  0
ACAD_PROXY_OBJECT
  5
39
102
{ACAD_REACTORS
330
2A
102
}
330
2A
100
AcDbProxyObject
 90
      499
 91
      501
 93
      444
310
42D19858D95C185D1D195C9B90F409028333333333333E33F0000000000000F9010790141107004050150841D405064090741402480A0350
1001
ACAD
1000
AcDbSavedByObjectVersion
1070
     0
  0
ACAD_PROXY_OBJECT
  5
2B
102
{ACAD_REACTORS
330
2A
102
}
330
2A
100
AcDbProxyObject
 90
      499
 91
      501
 93
      380
310
41119B185D240901404333333333333E33F0000000000000F9010740A907004050150841D405064090741402480A1B50
1001
ACAD
1000
AcDbSavedByObjectVersion
1070
     0
  0
ACAD_PROXY_OBJECT
  5
2C
102
{ACAD_REACTORS
330
2A
102
}
330
2A
100
AcDbProxyObject
 90
      499
 91
      501
 93
      468
310
43519B185D15DA5D1A115919D95CD0140901404333333333333E33F0000000000000F90107409019070040501600405405064090741402480A1B50
1001
ACAD
1000
AcDbSavedByObjectVersion
1070
     0
  0
ACAD_PROXY_OBJECT
  5
2D
102
{ACAD_REACTORS
330
2A
102
}
330
2A
100
AcDbProxyObject
 90
      499
 91
      501
 93
      404
310
41D1DBDD5C985D5910240902404333333333333E33F0000000000000F9010740A9070040501641D405064090741402480A1B50
1001
ACAD
1000
AcDbSavedByObjectVersion
1070
     0
  0
ACAD_PROXY_OBJECT
  5
2E
102
{ACAD_REACTORS
330
2A
102
}
330
2A
100
AcDbProxyObject
 90
      499
 91
      501
 93
      492
310
4411DBDD5C985D5915DA5D1A115919D95CD0340902404333333333333E33F0000000000000F90107409019070040501600405405064090741402480A1B50
1001
ACAD
1000
AcDbSavedByObjectVersion
1070
     0
  0
ACAD_PROXY_OBJECT
  5
31
102
{ACAD_REACTORS
330
2A
102
}
330
2A
100
AcDbProxyObject
 90
      499
 91
      501
 93
      476
310
41921A5919195B90640502408333333333333E33F0000000000000F901079024090700405020000000000001110200405405064090740C02480A0340
1001
ACAD
1000
AcDbSavedByObjectVersion
1070
     0
  0
ACAD_PROXY_OBJECT
  5
3B
102
{ACAD_REACTORS
330
2A
102
}
330
2A
100
AcDbProxyObject
 90
      499
 91
      501
 93
      428
310
42529A5D1D195C93D999914409028333333333333E33F0000000000000F9010790141107004050150A41D405064090741402480A0350
1001
ACAD
1000
AcDbSavedByObjectVersion
1070
     0
  0
ACAD_PROXY_OBJECT
  5
38
102
{ACAD_REACTORS
330
2A
102
}
330
2A
100
AcDbProxyObject
 90
      499
 91
      501
 93
      444
310
42D31A5B995C185D1D195C9B90E409028333333333333E33F0000000000000F9010790141107004050750841D405064090741402483A0350
1001
ACAD
1000
AcDbSavedByObjectVersion
1070
     0
  0
ACAD_PROXY_OBJECT
  5
3C
102
{ACAD_REACTORS
330
2A
102
}
330
2A
100
AcDbProxyObject
 90
      499
 91
      501
 93
      444
310
42D3DD995C9A185B99D3D999915409028333333333333E33F0000000000000F9010790141107004050150941D405064090741402480A0350
1001
ACAD
1000
AcDbSavedByObjectVersion
1070
     0
  0
ACAD_PROXY_OBJECT
  5
33
102
{ACAD_REACTORS
330
2A
102
}
330
2A
100
AcDbProxyObject
 90
      499
 91
      501
 93
      428
310
425499585B1A5CDD1A58D08409038333333333333E33F0000000000000F9010740A907004050150800405405064090740C02480A1B40
1001
ACAD
1000
AcDbSavedByObjectVersion
1070
     0
  0
ACAD_PROXY_OBJECT
  5
42
102
{ACAD_REACTORS
330
2A
102
}
330
2A
100
AcDbProxyObject
 90
      499
 91
      501
 93
      420
310
4194DA1859195911B40902404333333333333E33F0000000000000F9010740A41107004050150800405405064090840C02480A0B40
1001
ACAD
1000
AcDbSavedByObjectVersion
1070
     0
  0
ACAD_PROXY_OBJECT
  5
41
102
{ACAD_REACTORS
330
2A
102
}
330
2A
100
AcDbProxyObject
 90
      499
 91
      501
 93
      516
310
4454DA18591959081DDA5D1A08195919D95CD1A40902404333333333333E33F0000000000000F901074090142907004050250800405405064090740C02480A0B40
1001
ACAD
1000
AcDbSavedByObjectVersion
1070
     0
  0
ACAD_PROXY_OBJECT
  5
3E
102
{ACAD_REACTORS
330
2A
102
}
330
2A
100
AcDbProxyObject
 90
      499
 91
      501
 93
      532
310
4394DA1859195CC81BD98811DC985E5174090240C333333333333E33F0000000000000F901079024090741D01000000000000111010841D405064090740C02480A0340
1001
ACAD
1000
AcDbSavedByObjectVersion
1070
     0
  0
ACAD_PROXY_OBJECT
  5
3F
102
{ACAD_REACTORS
330
2A
102
}
330
2A
100
AcDbProxyObject
 90
      499
 91
      501
 93
      476
310
41D4DAD95D18DA1E51840502408333333333333E33F0000000000000F901079024090741D01000000000000111010B41D405064090741802480A0340
1001
ACAD
1000
AcDbSavedByObjectVersion
1070
     0
  0
ACAD_PROXY_OBJECT
  5
37
102
{ACAD_REACTORS
330
2A
102
}
330
2A
100
AcDbProxyObject
 90
      499
 91
      501
 93
      412
310
41D51A1A58DAD95B90D409028333333333333E33F0000000000000F9010790141107004050150C41D405064090741402480A0350
1001
ACAD
1000
AcDbSavedByObjectVersion
1070
     0
  0
ACAD_PROXY_OBJECT
  5
30
102
{ACAD_REACTORS
330
2A
102
}
330
2A
100
AcDbProxyObject
 90
      499
 91
      501
 93
      420
310
4255DA5C99599C985B595059028333333333333E33F0000000000000F90107901411070040501600405405064090740C02480A0340
1001
ACAD
1000
AcDbSavedByObjectVersion
1070
     0
  0
ACAD_PROXY_OBJECT
  5
40
102
{ACAD_REACTORS
330
2A
102
}
330
2A
100
AcDbProxyObject
 90
      499
 91
      501
 93
      404
310
41560B54985E51940902404000000000000E03F0000000000000F9010740501907004050150841D405064090740C02480A1B40
1001
ACAD
1000
AcDbSavedByObjectVersion
1070
     0
  0
XRECORD
  5
3C8
102
{ACAD_REACTORS
330
3BE
102
}
330
3BE
100
AcDbXrecord
340
0
  0
XRECORD
  5
3C7
102
{ACAD_REACTORS
330
3BE
102
}
330
3BE
100
AcDbXrecord
 90
        0
  0
XRECORD
  5
3DE
102
{ACAD_REACTORS
330
3BE
102
}
330
3BE
100
AcDbXrecord
1000
DSTYLE
1002
{
1070
   340
340
11
1002
}
  0
XRECORD
  5
3C9
102
{ACAD_REACTORS
330
3BE
102
}
330
3BE
100
AcDbXrecord
  1
{290ed9c8-3a9d-4af8-8ce1-95e4ce552474}
  0
XRECORD
  5
3C1
102
{ACAD_REACTORS
330
3BE
102
}
330
3BE
100
AcDbXrecord
  1

  0
XRECORD
  5
3C6
102
{ACAD_REACTORS
330
3BE
102
}
330
3BE
100
AcDbXrecord
 90
        4
  0
XRECORD
  5
3C3
102
{ACAD_REACTORS
330
3BE
102
}
330
3BE
100
AcDbXrecord
340
1A
  0
XRECORD
  5
3C5
102
{ACAD_REACTORS
330
3BE
102
}
330
3BE
100
AcDbXrecord
 90
    10781
  0
XRECORD
  5
3C4
102
{ACAD_REACTORS
330
3BE
102
}
330
3BE
100
AcDbXrecord
340
19
  0
XRECORD
  5
3CB
102
{ACAD_REACTORS
330
3BE
102
}
330
3BE
100
AcDbXrecord
 40
0.0
  0
XRECORD
  5
3CE
102
{ACAD_REACTORS
330
3BE
102
}
330
3BE
100
AcDbXrecord
340
0
  0
XRECORD
  5
3D4
102
{ACAD_REACTORS
330
3BE
102
}
330
3BE
100
AcDbXrecord
 10
0.0
 20
0.0
 30
0.0
  0
XRECORD
  5
3D0
102
{ACAD_REACTORS
330
3BE
102
}
330
3BE
100
AcDbXrecord
 10
0.0
 20
0.0
 30
0.0
  0
XRECORD
  5
3D3
102
{ACAD_REACTORS
330
3BE
102
}
330
3BE
100
AcDbXrecord
 10
0.0
 20
0.0
 30
0.0
  0
XRECORD
  5
3D1
102
{ACAD_REACTORS
330
3BE
102
}
330
3BE
100
AcDbXrecord
 10
0.0
 20
0.0
 30
0.0
  0
XRECORD
  5
3D2
102
{ACAD_REACTORS
330
3BE
102
}
330
3BE
100
AcDbXrecord
 10
0.0
 20
0.0
 30
0.0
  0
XRECORD
  5
3CF
102
{ACAD_REACTORS
330
3BE
102
}
330
3BE
100
AcDbXrecord
 10
0.0
 20
0.0
 30
0.0
  0
XRECORD
  5
3CC
102
{ACAD_REACTORS
330
3BE
102
}
330
3BE
100
AcDbXrecord
340
0
  0
XRECORD
  5
3CD
102
{ACAD_REACTORS
330
3BE
102
}
330
3BE
100
AcDbXrecord
 70
     0
  0
XRECORD
  5
3C2
102
{ACAD_REACTORS
330
3BE
102
}
330
3BE
100
AcDbXrecord
  1

  0
XRECORD
  5
3BF
102
{ACAD_REACTORS
330
3BE
102
}
330
3BE
100
AcDbXrecord
 90
        1
  0
XRECORD
  5
3C0
102
{ACAD_REACTORS
330
3BE
102
}
330
3BE
100
AcDbXrecord
 90
       70
  0
XRECORD
  5
3D7
102
{ACAD_REACTORS
330
3BE
102
}
330
3BE
100
AcDbXrecord
340
0
  0
XRECORD
  5
3DD
102
{ACAD_REACTORS
330
3BE
102
}
330
3BE
100
AcDbXrecord
 10
0.0
 20
0.0
 30
0.0
  0
XRECORD
  5
3D9
102
{ACAD_REACTORS
330
3BE
102
}
330
3BE
100
AcDbXrecord
 10
0.0
 20
0.0
 30
0.0
  0
XRECORD
  5
3DC
102
{ACAD_REACTORS
330
3BE
102
}
330
3BE
100
AcDbXrecord
 10
0.0
 20
0.0
 30
0.0
  0
XRECORD
  5
3DA
102
{ACAD_REACTORS
330
3BE
102
}
330
3BE
100
AcDbXrecord
 10
0.0
 20
0.0
 30
0.0
  0
XRECORD
  5
3DB
102
{ACAD_REACTORS
330
3BE
102
}
330
3BE
100
AcDbXrecord
 10
0.0
 20
0.0
 30
0.0
  0
XRECORD
  5
3D8
102
{ACAD_REACTORS
330
3BE
102
}
330
3BE
100
AcDbXrecord
 10
0.0
 20
0.0
 30
0.0
  0
XRECORD
  5
3D5
102
{ACAD_REACTORS
330
3BE
102
}
330
3BE
100
AcDbXrecord
340
0
  0
XRECORD
  5
3D6
102
{ACAD_REACTORS
330
3BE
102
}
330
3BE
100
AcDbXrecord
 70
     0
  0
XRECORD
  5
3CA
102
{ACAD_REACTORS
330
3BE
102
}
330
3BE
100
AcDbXrecord
  1
{FAEB1C32-E019-11D5-929B-00C0DF256EC4}
  0
DICTIONARYVAR
  5
3EC
102
{ACAD_REACTORS
330
3DF
102
}
330
3DF
100
DictionaryVariables
280
     0
  1
1:1
  0
DICTIONARYVAR
  5
3E6
102
{ACAD_REACTORS
330
3DF
102
}
330
3DF
100
DictionaryVariables
280
     0
  1
3.500000
  0
DICTIONARYVAR
  5
3E7
102
{ACAD_REACTORS
330
3DF
102
}
330
3DF
100
DictionaryVariables
280
     0
  1
acadiso.lin
  0
DICTIONARYVAR
  5
3E1
102
{ACAD_REACTORS
330
3DF
102
}
330
3DF
100
DictionaryVariables
280
     0
  1
Standard
  0
DICTIONARYVAR
  5
3E0
102
{ACAD_REACTORS
330
3DF
102
}
330
3DF
100
DictionaryVariables
280
     0
  1
Standard
  0
DICTIONARYVAR
  5
3E8
102
{ACAD_REACTORS
330
3DF
102
}
330
3DF
100
DictionaryVariables
280
     0
  1
2
  0
DICTIONARYVAR
  5
3E9
102
{ACAD_REACTORS
330
3DF
102
}
330
3DF
100
DictionaryVariables
280
     0
  1
1
  0
DICTIONARYVAR
  5
3ED
102
{ACAD_REACTORS
330
3DF
102
}
330
3DF
100
DictionaryVariables
280
     0
  1
1
  0
DICTIONARYVAR
  5
3E3
102
{ACAD_REACTORS
330
3DF
102
}
330
3DF
100
DictionaryVariables
280
     0
  1
80.000000
  0
DICTIONARYVAR
  5
3E2
102
{ACAD_REACTORS
330
3DF
102
}
330
3DF
100
DictionaryVariables
280
     0
  1
5.000000
  0
DICTIONARY
  5
3F0
330
45
100
AcDbDictionary
280
     1
  3
ACAD_XREC_ROUNDTRIP
360
3F1
  0
DICTIONARY
  5
3EE
330
44
100
AcDbDictionary
280
     1
  3
ACAD_XREC_ROUNDTRIP
360
3EF
  0
DICTIONARY
  5
3F2
330
46
100
AcDbDictionary
280
     1
  3
ACAD_XREC_ROUNDTRIP
360
3F3
  0
XRECORD
  5
3F1
102
{ACAD_REACTORS
330
3F0
102
}
330
3F0
100
AcDbXrecord
102
MATERIAL
148
0.0
149
0.0
149
0.0
 93
        0
 94
      127
282
     0
 72
     1
 77
     1
171
     1
175
     1
179
     1
273
     0
  0
XRECORD
  5
3EF
102
{ACAD_REACTORS
330
3EE
102
}
330
3EE
100
AcDbXrecord
102
MATERIAL
148
0.0
149
0.0
149
0.0
 93
        0
 94
      127
282
     0
 72
     1
 77
     1
171
     1
175
     1
179
     1
273
     0
  0
XRECORD
  5
3F3
102
{ACAD_REACTORS
330
3F2
102
}
330
3F2
100
AcDbXrecord
102
MATERIAL
148
0.0
149
0.0
149
0.0
 93
        0
 94
      127
282
     0
 72
     1
 77
     1
171
     1
175
     1
179
     1
273
     0
  0
ENDSEC
  0
EOF
