  0
SECTION
  2
HEADER
  9
$ACADVER
  1
AC1014
  9
$ACADMAINTVER
 70
     9
  9
$DWGCODEPAGE
  3
ANSI_932
  9
$INSBASE
 10
0.0
 20
0.0
 30
0.0
  9
$EXTMIN
 10
40.0
 20
40.0
 30
0.0
  9
$EXTMAX
 10
1640.0
 20
1148.0
 30
0.0
  9
$LIMMIN
 10
0.0
 20
0.0
  9
$LIMMAX
 10
420.0
 20
297.0
  9
$ORTHOMODE
 70
     0
  9
$REGENMODE
 70
     1
  9
$FILLMODE
 70
     1
  9
$QTEXTMODE
 70
     0
  9
$MIRRTEXT
 70
     1
  9
$DRAGMODE
 70
     2
  9
$LTSCALE
 40
1.0
  9
$OSMODE
 70
    37
  9
$ATTMODE
 70
     1
  9
$TEXTSIZE
 40
2.5
  9
$TRACEWID
 40
1.0
  9
$TEXTSTYLE
  7
STANDARD
  9
$CLAYER
  8
Ｓ_１_１
  9
$CELTYPE
  6
BYLAYER
  9
$CECOLOR
 62
   256
  9
$CELTSCALE
 40
1.0
  9
$DELOBJ
 70
     1
  9
$DISPSILH
 70
     0
  9
$DIMSCALE
 40
1.0
  9
$DIMASZ
 40
2.5
  9
$DIMEXO
 40
0.625
  9
$DIMDLI
 40
3.75
  9
$DIMRND
 40
0.0
  9
$DIMDLE
 40
0.0
  9
$DIMEXE
 40
1.25
  9
$DIMTP
 40
0.0
  9
$DIMTM
 40
0.0
  9
$DIMTXT
 40
2.5
  9
$DIMCEN
 40
2.5
  9
$DIMTSZ
 40
0.0
  9
$DIMTOL
 70
     0
  9
$DIMLIM
 70
     0
  9
$DIMTIH
 70
     0
  9
$DIMTOH
 70
     0
  9
$DIMSE1
 70
     0
  9
$DIMSE2
 70
     0
  9
$DIMTAD
 70
     1
  9
$DIMZIN
 70
     8
  9
$DIMBLK
  1

  9
$DIMASO
 70
     1
  9
$DIMSHO
 70
     1
  9
$DIMPOST
  1

  9
$DIMAPOST
  1

  9
$DIMALT
 70
     0
  9
$DIMALTD
 70
     3
  9
$DIMALTF
 40
0.03937007874016
  9
$DIMLFAC
 40
1.0
  9
$DIMTOFL
 70
     1
  9
$DIMTVP
 40
0.0
  9
$DIMTIX
 70
     0
  9
$DIMSOXD
 70
     0
  9
$DIMSAH
 70
     0
  9
$DIMBLK1
  1

  9
$DIMBLK2
  1

  9
$DIMSTYLE
  2
ISO-25
  9
$DIMCLRD
 70
     0
  9
$DIMCLRE
 70
     0
  9
$DIMCLRT
 70
     0
  9
$DIMTFAC
 40
1.0
  9
$DIMGAP
 40
0.625
  9
$DIMJUST
 70
     0
  9
$DIMSD1
 70
     0
  9
$DIMSD2
 70
     0
  9
$DIMTOLJ
 70
     0
  9
$DIMTZIN
 70
     8
  9
$DIMALTZ
 70
     0
  9
$DIMALTTZ
 70
     0
  9
$DIMFIT
 70
     3
  9
$DIMUPT
 70
     0
  9
$DIMUNIT
 70
     2
  9
$DIMDEC
 70
     2
  9
$DIMTDEC
 70
     2
  9
$DIMALTU
 70
     2
  9
$DIMALTTD
 70
     3
  9
$DIMTXSTY
  7
STANDARD
  9
$DIMAUNIT
 70
     0
  9
$LUNITS
 70
     2
  9
$LUPREC
 70
     4
  9
$SKETCHINC
 40
1.0
  9
$FILLETRAD
 40
10.0
  9
$AUNITS
 70
     0
  9
$AUPREC
 70
     0
  9
$MENU
  1
.
  9
$ELEVATION
 40
0.0
  9
$PELEVATION
 40
0.0
  9
$THICKNESS
 40
0.0
  9
$LIMCHECK
 70
     0
  9
$CHAMFERA
 40
0.0
  9
$CHAMFERB
 40
0.0
  9
$CHAMFERC
 40
0.0
  9
$CHAMFERD
 40
0.0
  9
$SKPOLY
 70
     0
  9
$TDCREATE
 40
2459591.543255116
  9
$TDUPDATE
 40
2459591.543256204
  9
$TDINDWG
 40
0.0000000116
  9
$TDUSRTIMER
 40
0.0000000116
  9
$USRTIMER
 70
     1
  9
$ANGBASE
 50
0.0
  9
$ANGDIR
 70
     0
  9
$PDMODE
 70
     0
  9
$PDSIZE
 40
0.0
  9
$PLINEWID
 40
0.0
  9
$COORDS
 70
     1
  9
$SPLFRAME
 70
     0
  9
$SPLINETYPE
 70
     6
  9
$SPLINESEGS
 70
     8
  9
$ATTDIA
 70
     0
  9
$ATTREQ
 70
     1
  9
$HANDLING
 70
     1
  9
$HANDSEED
  5
3E0
  9
$SURFTAB1
 70
     6
  9
$SURFTAB2
 70
     6
  9
$SURFTYPE
 70
     6
  9
$SURFU
 70
     6
  9
$SURFV
 70
     6
  9
$UCSNAME
  2

  9
$UCSORG
 10
0.0
 20
0.0
 30
0.0
  9
$UCSXDIR
 10
1.0
 20
0.0
 30
0.0
  9
$UCSYDIR
 10
0.0
 20
1.0
 30
0.0
  9
$PUCSNAME
  2

  9
$PUCSORG
 10
0.0
 20
0.0
 30
0.0
  9
$PUCSXDIR
 10
1.0
 20
0.0
 30
0.0
  9
$PUCSYDIR
 10
0.0
 20
1.0
 30
0.0
  9
$USERI1
 70
     0
  9
$USERI2
 70
     0
  9
$USERI3
 70
     0
  9
$USERI4
 70
     0
  9
$USERI5
 70
     0
  9
$USERR1
 40
0.0
  9
$USERR2
 40
0.0
  9
$USERR3
 40
0.0
  9
$USERR4
 40
0.0
  9
$USERR5
 40
0.0
  9
$WORLDVIEW
 70
     1
  9
$SHADEDGE
 70
     3
  9
$SHADEDIF
 70
    70
  9
$TILEMODE
 70
     1
  9
$MAXACTVP
 70
    64
  9
$PINSBASE
 10
0.0
 20
0.0
 30
0.0
  9
$PLIMCHECK
 70
     0
  9
$PEXTMIN
 10
1.000000000000000E+20
 20
1.000000000000000E+20
 30
1.000000000000000E+20
  9
$PEXTMAX
 10
-1.000000000000000E+20
 20
-1.000000000000000E+20
 30
-1.000000000000000E+20
  9
$PLIMMIN
 10
0.0
 20
0.0
  9
$PLIMMAX
 10
420.0
 20
297.0
  9
$UNITMODE
 70
     0
  9
$VISRETAIN
 70
     1
  9
$PLINEGEN
 70
     0
  9
$PSLTSCALE
 70
     1
  9
$TREEDEPTH
 70
  3020
  9
$PICKSTYLE
 70
     1
  9
$CMLSTYLE
  2
STANDARD
  9
$CMLJUST
 70
     0
  9
$CMLSCALE
 40
20.0
  9
$PROXYGRAPHICS
 70
     1
  9
$MEASUREMENT
 70
     1
  0
ENDSEC
  0
SECTION
  2
CLASSES
  0
CLASS
  1
ACDBDICTIONARYWDFLT
  2
AcDbDictionaryWithDefault
  3
ObjectDBX Classes
 90
        0
280
     0
281
     0
  0
CLASS
  1
VISUALSTYLE
  2
AcDbVisualStyle
  3
ObjectDBX Classes
 90
     4095
280
     0
281
     0
  0
CLASS
  1
MATERIAL
  2
AcDbMaterial
  3
ObjectDBX Classes
 90
     1153
280
     0
281
     0
  0
CLASS
  1
SCALE
  2
AcDbScale
  3
ObjectDBX Classes
 90
     1153
280
     0
281
     0
  0
CLASS
  1
TABLESTYLE
  2
AcDbTableStyle
  3
ObjectDBX Classes
 90
     4095
280
     0
281
     0
  0
CLASS
  1
MLEADERSTYLE
  2
AcDbMLeaderStyle
  3
ACDB_MLEADERSTYLE_CLASS
 90
     4095
280
     0
281
     0
  0
CLASS
  1
SUN
  2
AcDbSun
  3
SCENEOE
 90
     1153
280
     0
281
     0
  0
CLASS
  1
DICTIONARYVAR
  2
AcDbDictionaryVar
  3
ObjectDBX Classes
 90
        0
280
     0
281
     0
  0
CLASS
  1
XRECORD
  2
AcDbXrecord
  3
ObjectDBX Classes
 90
        0
280
     0
281
     0
  0
CLASS
  1
LWPOLYLINE
  2
AcDbPolyline
  3
ObjectDBX Classes
 90
        0
280
     0
281
     1
  0
CLASS
  1
HATCH
  2
AcDbHatch
  3
ObjectDBX Classes
 90
        0
280
     0
281
     1
  0
CLASS
  1
ACDBPLACEHOLDER
  2
AcDbPlaceHolder
  3
ObjectDBX Classes
 90
        0
280
     0
281
     0
  0
CLASS
  1
LAYOUT
  2
AcDbLayout
  3
ObjectDBX Classes
 90
        0
280
     0
281
     0
  0
ENDSEC
  0
SECTION
  2
TABLES
  0
TABLE
  2
VPORT
  5
8
102
{ACAD_XDICTIONARY
360
3D5
102
}
330
0
100
AcDbSymbolTable
 70
     1
  0
VPORT
  5
29
330
8
100
AcDbSymbolTableRecord
100
AcDbViewportTableRecord
  2
*ACTIVE
 70
     0
 10
0.0
 20
0.0
 11
1.0
 21
1.0
 12
840.0
 22
594.0
 13
0.0
 23
0.0
 14
10.0
 24
10.0
 15
10.0
 25
10.0
 16
0.0
 26
0.0
 36
1.0
 17
0.0
 27
0.0
 37
0.0
 40
1108.0
 41
1.444043321299639
 42
50.0
 43
0.0
 44
0.0
 50
0.0
 51
0.0
 71
     0
 72
  1000
 73
     1
 74
     3
 75
     0
 76
     0
 77
     0
 78
     0
  0
ENDTAB
  0
TABLE
  2
LTYPE
  5
5
330
0
100
AcDbSymbolTable
 70
     7
  0
LTYPE
  5
14
330
5
100
AcDbSymbolTableRecord
100
AcDbLinetypeTableRecord
  2
BYBLOCK
 70
     0
  3

 72
    65
 73
     0
 40
0.0
  0
LTYPE
  5
15
330
5
100
AcDbSymbolTableRecord
100
AcDbLinetypeTableRecord
  2
BYLAYER
 70
     0
  3

 72
    65
 73
     0
 40
0.0
  0
LTYPE
  5
16
330
5
100
AcDbSymbolTableRecord
100
AcDbLinetypeTableRecord
  2
CONTINUOUS
 70
     0
  3
Solid line
 72
    65
 73
     0
 40
0.0
  0
LTYPE
  5
6E
330
5
100
AcDbSymbolTableRecord
100
AcDbLinetypeTableRecord
  2
EXLTYPE0
 70
     0
  3
破線
 72
    65
 73
     2
 40
4.0
 49
3.0
 74
     0
 49
-1.0
 74
     0
  0
LTYPE
  5
6F
330
5
100
AcDbSymbolTableRecord
100
AcDbLinetypeTableRecord
  2
EXLTYPE1
 70
     0
  3
点線
 72
    65
 73
     2
 40
2.0
 49
1.0
 74
     0
 49
-1.0
 74
     0
  0
LTYPE
  5
70
330
5
100
AcDbSymbolTableRecord
100
AcDbLinetypeTableRecord
  2
EXLTYPE2
 70
     0
  3
一点鎖線
 72
    65
 73
     4
 40
13.0
 49
10.0
 74
     0
 49
-1.0
 74
     0
 49
1.0
 74
     0
 49
-1.0
 74
     0
  0
LTYPE
  5
71
330
5
100
AcDbSymbolTableRecord
100
AcDbLinetypeTableRecord
  2
EXLTYPE3
 70
     0
  3
二点鎖線
 72
    65
 73
     6
 40
15.0
 49
10.0
 74
     0
 49
-1.0
 74
     0
 49
1.0
 74
     0
 49
-1.0
 74
     0
 49
1.0
 74
     0
 49
-1.0
 74
     0
  0
LTYPE
  5
72
330
5
100
AcDbSymbolTableRecord
100
AcDbLinetypeTableRecord
  2
EXLTYPE4
 70
     0
  3
一点鎖線2
 72
    65
 73
     4
 40
3.5
 49
2.0
 74
     0
 49
-0.5
 74
     0
 49
0.5
 74
     0
 49
-0.5
 74
     0
  0
LTYPE
  5
73
330
5
100
AcDbSymbolTableRecord
100
AcDbLinetypeTableRecord
  2
EXLTYPE5
 70
     0
  3
二点鎖線2
 72
    65
 73
     6
 40
4.5
 49
2.0
 74
     0
 49
-0.5
 74
     0
 49
0.5
 74
     0
 49
-0.5
 74
     0
 49
0.5
 74
     0
 49
-0.5
 74
     0
  0
ENDTAB
  0
TABLE
  2
LAYER
  5
2
330
0
100
AcDbSymbolTable
 70
     4
  0
LAYER
  5
10
330
2
100
AcDbSymbolTableRecord
100
AcDbLayerTableRecord
  2
0
 70
     0
 62
     7
  6
CONTINUOUS
  0
LAYER
  5
76
330
2
100
AcDbSymbolTableRecord
100
AcDbLayerTableRecord
  2
図面枠
 70
     0
 62
     7
  6
CONTINUOUS
  0
LAYER
  5
77
330
2
100
AcDbSymbolTableRecord
100
AcDbLayerTableRecord
  2
Ｓ_１_１
 70
     0
 62
     7
  6
CONTINUOUS
  0
LAYER
  5
115
330
2
100
AcDbSymbolTableRecord
100
AcDbLayerTableRecord
  2
DEFPOINTS
 70
     0
 62
     7
  6
CONTINUOUS
  0
ENDTAB
  0
TABLE
  2
STYLE
  5
3
330
0
100
AcDbSymbolTable
 70
     5
  0
STYLE
  5
11
330
3
100
AcDbSymbolTableRecord
100
AcDbTextStyleTableRecord
  2
STANDARD
 70
     0
 40
0.0
 41
1.0
 50
0.0
 71
     0
 42
2.5
  3
monotxt
  4
extfont
  0
STYLE
  5
74
330
3
100
AcDbSymbolTableRecord
100
AcDbTextStyleTableRecord
  2
EXCADSTD
 70
     0
 40
0.0
 41
1.0
 50
0.0
 71
     0
 42
2.5
  3
monotxt
  4
extfont
  0
STYLE
  5
75
330
3
100
AcDbSymbolTableRecord
100
AcDbTextStyleTableRecord
  2
EXCADVERT
 70
     4
 40
0.0
 41
1.0
 50
0.0
 71
     0
 42
2.5
  3
monotxt
  4
extfont
  0
STYLE
  5
E0
330
3
100
AcDbSymbolTableRecord
100
AcDbTextStyleTableRecord
  2
EXCADTTF1
 70
     0
 40
0.0
 41
1.0
 50
0.0
 71
     0
 42
2.5
  3
msgothic.ttc
  4

1001
ACAD
1000
MS Gothic
1071
    32817
  0
STYLE
  5
113
330
3
100
AcDbSymbolTableRecord
100
AcDbTextStyleTableRecord
  2
EXCADDIM1
 70
     0
 40
0.0
 41
1.0
 50
0.0
 71
     0
 42
2.5
  3
msgothic.ttc
  4

1001
ACAD
1000
MS Gothic
1071
    32817
  0
ENDTAB
  0
TABLE
  2
VIEW
  5
6
330
0
100
AcDbSymbolTable
 70
     0
  0
ENDTAB
  0
TABLE
  2
UCS
  5
7
330
0
100
AcDbSymbolTable
 70
     0
  0
ENDTAB
  0
TABLE
  2
APPID
  5
9
330
0
100
AcDbSymbolTable
 70
     2
  0
APPID
  5
12
330
9
100
AcDbSymbolTableRecord
100
AcDbRegAppTableRecord
  2
ACAD
 70
     0
  0
APPID
  5
3DF
330
9
100
AcDbSymbolTableRecord
100
AcDbRegAppTableRecord
  2
ACAD_MLEADERVER
 70
     0
  0
ENDTAB
  0
TABLE
  2
DIMSTYLE
  5
A
330
0
100
AcDbSymbolTable
 70
     1
  0
DIMSTYLE
105
27
102
{ACAD_REACTORS
330
114
330
120
330
12E
330
13B
330
148
330
155
330
162
330
2AB
330
2B8
330
2C5
102
}
330
A
100
AcDbSymbolTableRecord
100
AcDbDimStyleTableRecord
  2
ISO-25
 70
     0
  3

  4

  5

  6

  7

 40
1.0
 41
2.5
 42
0.625
 43
3.75
 44
1.25
 45
0.0
 46
0.0
 47
0.0
 48
0.0
140
2.5
141
2.5
142
0.0
143
0.03937007874016
144
1.0
145
0.0
146
1.0
147
0.625
 71
     0
 72
     0
 73
     0
 74
     0
 75
     0
 76
     0
 77
     1
 78
     8
170
     0
171
     3
172
     1
173
     0
174
     0
175
     0
176
     0
177
     0
178
     0
270
     2
271
     2
272
     2
273
     2
274
     3
340
11
275
     0
280
     0
281
     0
282
     0
283
     0
284
     8
285
     0
286
     0
287
     5
288
     0
  0
ENDTAB
  0
TABLE
  2
BLOCK_RECORD
  5
1
330
0
100
AcDbSymbolTable
 70
    24
  0
BLOCK_RECORD
  5
1F
330
1
100
AcDbSymbolTableRecord
100
AcDbBlockTableRecord
  2
*MODEL_SPACE
  0
BLOCK_RECORD
  5
1B
330
1
100
AcDbSymbolTableRecord
100
AcDbBlockTableRecord
  2
*PAPER_SPACE
  0
BLOCK_RECORD
  5
78
330
1
100
AcDbSymbolTableRecord
100
AcDbBlockTableRecord
  2
EX_NORM
  0
BLOCK_RECORD
  5
7B
330
1
100
AcDbSymbolTableRecord
100
AcDbBlockTableRecord
  2
EX_BNORM
  0
BLOCK_RECORD
  5
7E
330
1
100
AcDbSymbolTableRecord
100
AcDbBlockTableRecord
  2
EX_BCIR
  0
BLOCK_RECORD
  5
81
330
1
100
AcDbSymbolTableRecord
100
AcDbBlockTableRecord
  2
EX_RCIVIL
  0
BLOCK_RECORD
  5
84
330
1
100
AcDbSymbolTableRecord
100
AcDbBlockTableRecord
  2
EX_SLANT
  0
BLOCK_RECORD
  5
87
330
1
100
AcDbSymbolTableRecord
100
AcDbBlockTableRecord
  2
EX_NONE
  0
BLOCK_RECORD
  5
8A
330
1
100
AcDbSymbolTableRecord
100
AcDbBlockTableRecord
  2
EX_CIVIL
  0
BLOCK_RECORD
  5
8D
330
1
100
AcDbSymbolTableRecord
100
AcDbBlockTableRecord
  2
EX_WCIR
  0
BLOCK_RECORD
  5
90
330
1
100
AcDbSymbolTableRecord
100
AcDbBlockTableRecord
  2
EX_WCIR2
  0
BLOCK_RECORD
  5
93
330
1
100
AcDbSymbolTableRecord
100
AcDbBlockTableRecord
  2
EX_WNORM
  0
BLOCK_RECORD
  5
96
330
1
100
AcDbSymbolTableRecord
100
AcDbBlockTableRecord
  2
EX_NNORM
  0
BLOCK_RECORD
  5
99
330
1
100
AcDbSymbolTableRecord
100
AcDbBlockTableRecord
  2
EX_BBOX
  0
BLOCK_RECORD
  5
9C
330
1
100
AcDbSymbolTableRecord
100
AcDbBlockTableRecord
  2
EX_WBOX
  0
BLOCK_RECORD
  5
9F
330
1
100
AcDbSymbolTableRecord
100
AcDbBlockTableRecord
  2
EX_INTEGRAL
  0
BLOCK_RECORD
  5
116
330
1
100
AcDbSymbolTableRecord
100
AcDbBlockTableRecord
  2
*D15
  0
BLOCK_RECORD
  5
121
330
1
100
AcDbSymbolTableRecord
100
AcDbBlockTableRecord
  2
*D16
  0
BLOCK_RECORD
  5
12F
330
1
100
AcDbSymbolTableRecord
100
AcDbBlockTableRecord
  2
*D17
  0
BLOCK_RECORD
  5
13C
330
1
100
AcDbSymbolTableRecord
100
AcDbBlockTableRecord
  2
*D18
  0
BLOCK_RECORD
  5
149
330
1
100
AcDbSymbolTableRecord
100
AcDbBlockTableRecord
  2
*D19
  0
BLOCK_RECORD
  5
156
330
1
100
AcDbSymbolTableRecord
100
AcDbBlockTableRecord
  2
*D20
  0
BLOCK_RECORD
  5
163
330
1
100
AcDbSymbolTableRecord
100
AcDbBlockTableRecord
  2
*D21
  0
BLOCK_RECORD
  5
2AC
330
1
100
AcDbSymbolTableRecord
100
AcDbBlockTableRecord
  2
*D22
  0
BLOCK_RECORD
  5
2B9
330
1
100
AcDbSymbolTableRecord
100
AcDbBlockTableRecord
  2
*D23
  0
BLOCK_RECORD
  5
2C6
330
1
100
AcDbSymbolTableRecord
100
AcDbBlockTableRecord
  2
*D24
  0
ENDTAB
  0
ENDSEC
  0
SECTION
  2
BLOCKS
  0
BLOCK
  5
20
330
1F
100
AcDbEntity
  8
0
100
AcDbBlockBegin
  2
*MODEL_SPACE
 70
     0
 10
0.0
 20
0.0
 30
0.0
  3
*MODEL_SPACE
  1

  0
ENDBLK
  5
21
330
1F
100
AcDbEntity
  8
0
100
AcDbBlockEnd
  0
BLOCK
  5
1C
330
1B
100
AcDbEntity
 67
     1
  8
0
100
AcDbBlockBegin
  2
*PAPER_SPACE
 70
     0
 10
0.0
 20
0.0
 30
0.0
  3
*PAPER_SPACE
  1

  0
ENDBLK
  5
1D
330
1B
100
AcDbEntity
 67
     1
  8
0
100
AcDbBlockEnd
  0
BLOCK
  5
79
330
78
100
AcDbEntity
  8
0
100
AcDbBlockBegin
  2
EX_NORM
 70
     0
 10
0.0
 20
0.0
 30
0.0
  3
EX_NORM
  1

  0
LINE
  5
A2
330
78
100
AcDbEntity
  8
0
  6
CONTINUOUS
 62
     0
100
AcDbLine
 10
0.0
 20
0.0
 30
0.0
 11
-1.0
 21
0.0
 31
0.0
  0
LINE
  5
A3
330
78
100
AcDbEntity
  8
0
  6
CONTINUOUS
 62
     0
100
AcDbLine
 10
0.0
 20
0.0
 30
0.0
 11
-1.0
 21
0.166666667
 31
0.0
  0
LINE
  5
A4
330
78
100
AcDbEntity
  8
0
  6
CONTINUOUS
 62
     0
100
AcDbLine
 10
0.0
 20
0.0
 30
0.0
 11
-1.0
 21
-0.166666667
 31
0.0
  0
ENDBLK
  5
7A
330
78
100
AcDbEntity
  8
0
100
AcDbBlockEnd
  0
BLOCK
  5
7C
330
7B
100
AcDbEntity
  8
0
100
AcDbBlockBegin
  2
EX_BNORM
 70
     0
 10
0.0
 20
0.0
 30
0.0
  3
EX_BNORM
  1

  0
LINE
  5
A5
330
7B
100
AcDbEntity
  8
0
  6
CONTINUOUS
 62
     0
100
AcDbLine
 10
0.0
 20
0.0
 30
0.0
 11
-1.0
 21
0.0
 31
0.0
  0
LINE
  5
A6
330
7B
100
AcDbEntity
  8
0
  6
CONTINUOUS
 62
     0
100
AcDbLine
 10
0.0
 20
0.0
 30
0.0
 11
-1.0
 21
0.166666667
 31
0.0
  0
LINE
  5
A7
330
7B
100
AcDbEntity
  8
0
  6
CONTINUOUS
 62
     0
100
AcDbLine
 10
0.0
 20
0.0
 30
0.0
 11
-1.0
 21
-0.166666667
 31
0.0
  0
LINE
  5
A8
330
7B
100
AcDbEntity
  8
0
  6
CONTINUOUS
 62
     0
100
AcDbLine
 10
0.0
 20
0.0
 30
0.0
 11
-1.0
 21
0.083333333
 31
0.0
  0
LINE
  5
A9
330
7B
100
AcDbEntity
  8
0
  6
CONTINUOUS
 62
     0
100
AcDbLine
 10
0.0
 20
0.0
 30
0.0
 11
-1.0
 21
-0.083333333
 31
0.0
  0
LINE
  5
AA
330
7B
100
AcDbEntity
  8
0
  6
CONTINUOUS
 62
     0
100
AcDbLine
 10
-1.0
 20
0.166666667
 30
0.0
 11
-1.0
 21
-0.166666667
 31
0.0
  0
ENDBLK
  5
7D
330
7B
100
AcDbEntity
  8
0
100
AcDbBlockEnd
  0
BLOCK
  5
7F
330
7E
100
AcDbEntity
  8
0
100
AcDbBlockBegin
  2
EX_BCIR
 70
     0
 10
0.0
 20
0.0
 30
0.0
  3
EX_BCIR
  1

  0
LINE
  5
AB
330
7E
100
AcDbEntity
  8
0
  6
CONTINUOUS
 62
     0
100
AcDbLine
 10
0.0
 20
0.0
 30
0.0
 11
-1.0
 21
0.0
 31
0.0
  0
CIRCLE
  5
AC
330
7E
100
AcDbEntity
  8
0
  6
CONTINUOUS
 62
     0
100
AcDbCircle
 10
0.0
 20
0.0
 30
0.0
 40
0.5
  0
CIRCLE
  5
AD
330
7E
100
AcDbEntity
  8
0
  6
CONTINUOUS
 62
     0
100
AcDbCircle
 10
0.0
 20
0.0
 30
0.0
 40
0.25
  0
ENDBLK
  5
80
330
7E
100
AcDbEntity
  8
0
100
AcDbBlockEnd
  0
BLOCK
  5
82
330
81
100
AcDbEntity
  8
0
100
AcDbBlockBegin
  2
EX_RCIVIL
 70
     0
 10
0.0
 20
0.0
 30
0.0
  3
EX_RCIVIL
  1

  0
LINE
  5
AE
330
81
100
AcDbEntity
  8
0
  6
CONTINUOUS
 62
     0
100
AcDbLine
 10
0.0
 20
0.0
 30
0.0
 11
-1.0
 21
0.0
 31
0.0
  0
LINE
  5
AF
330
81
100
AcDbEntity
  8
0
  6
CONTINUOUS
 62
     0
100
AcDbLine
 10
-1.0
 20
-0.25
 30
0.0
 11
0.0
 21
-0.25
 31
0.0
  0
LINE
  5
B0
330
81
100
AcDbEntity
  8
0
  6
CONTINUOUS
 62
     0
100
AcDbLine
 10
-1.0
 20
-0.125
 30
0.0
 11
0.0
 21
-0.125
 31
0.0
  0
ENDBLK
  5
83
330
81
100
AcDbEntity
  8
0
100
AcDbBlockEnd
  0
BLOCK
  5
85
330
84
100
AcDbEntity
  8
0
100
AcDbBlockBegin
  2
EX_SLANT
 70
     0
 10
0.0
 20
0.0
 30
0.0
  3
EX_SLANT
  1

  0
LINE
  5
B1
330
84
100
AcDbEntity
  8
0
  6
CONTINUOUS
 62
     0
100
AcDbLine
 10
0.0
 20
0.0
 30
0.0
 11
-1.0
 21
0.0
 31
0.0
  0
LINE
  5
B2
330
84
100
AcDbEntity
  8
0
  6
CONTINUOUS
 62
     0
100
AcDbLine
 10
0.707106781
 20
0.707106781
 30
0.0
 11
-0.707106781
 21
-0.707106781
 31
0.0
  0
ENDBLK
  5
86
330
84
100
AcDbEntity
  8
0
100
AcDbBlockEnd
  0
BLOCK
  5
88
330
87
100
AcDbEntity
  8
0
100
AcDbBlockBegin
  2
EX_NONE
 70
     0
 10
0.0
 20
0.0
 30
0.0
  3
EX_NONE
  1

  0
LINE
  5
B3
330
87
100
AcDbEntity
  8
0
  6
CONTINUOUS
 62
     0
100
AcDbLine
 10
0.0
 20
0.0
 30
0.0
 11
-1.0
 21
0.0
 31
0.0
  0
ENDBLK
  5
89
330
87
100
AcDbEntity
  8
0
100
AcDbBlockEnd
  0
BLOCK
  5
8B
330
8A
100
AcDbEntity
  8
0
100
AcDbBlockBegin
  2
EX_CIVIL
 70
     0
 10
0.0
 20
0.0
 30
0.0
  3
EX_CIVIL
  1

  0
LINE
  5
B4
330
8A
100
AcDbEntity
  8
0
  6
CONTINUOUS
 62
     0
100
AcDbLine
 10
0.0
 20
0.0
 30
0.0
 11
-1.0
 21
0.0
 31
0.0
  0
LINE
  5
B5
330
8A
100
AcDbEntity
  8
0
  6
CONTINUOUS
 62
     0
100
AcDbLine
 10
-1.0
 20
0.25
 30
0.0
 11
0.0
 21
0.25
 31
0.0
  0
LINE
  5
B6
330
8A
100
AcDbEntity
  8
0
  6
CONTINUOUS
 62
     0
100
AcDbLine
 10
-1.0
 20
0.125
 30
0.0
 11
0.0
 21
0.125
 31
0.0
  0
ENDBLK
  5
8C
330
8A
100
AcDbEntity
  8
0
100
AcDbBlockEnd
  0
BLOCK
  5
8E
330
8D
100
AcDbEntity
  8
0
100
AcDbBlockBegin
  2
EX_WCIR
 70
     0
 10
0.0
 20
0.0
 30
0.0
  3
EX_WCIR
  1

  0
LINE
  5
B7
330
8D
100
AcDbEntity
  8
0
  6
CONTINUOUS
 62
     0
100
AcDbLine
 10
0.0
 20
0.0
 30
0.0
 11
-1.0
 21
0.0
 31
0.0
  0
CIRCLE
  5
B8
330
8D
100
AcDbEntity
  8
0
  6
CONTINUOUS
 62
     0
100
AcDbCircle
 10
0.0
 20
0.0
 30
0.0
 40
0.5
  0
ENDBLK
  5
8F
330
8D
100
AcDbEntity
  8
0
100
AcDbBlockEnd
  0
BLOCK
  5
91
330
90
100
AcDbEntity
  8
0
100
AcDbBlockBegin
  2
EX_WCIR2
 70
     0
 10
0.0
 20
0.0
 30
0.0
  3
EX_WCIR2
  1

  0
LINE
  5
B9
330
90
100
AcDbEntity
  8
0
  6
CONTINUOUS
 62
     0
100
AcDbLine
 10
-0.5
 20
0.0
 30
0.0
 11
-1.0
 21
0.0
 31
0.0
  0
CIRCLE
  5
BA
330
90
100
AcDbEntity
  8
0
  6
CONTINUOUS
 62
     0
100
AcDbCircle
 10
0.0
 20
0.0
 30
0.0
 40
0.5
  0
ENDBLK
  5
92
330
90
100
AcDbEntity
  8
0
100
AcDbBlockEnd
  0
BLOCK
  5
94
330
93
100
AcDbEntity
  8
0
100
AcDbBlockBegin
  2
EX_WNORM
 70
     0
 10
0.0
 20
0.0
 30
0.0
  3
EX_WNORM
  1

  0
LINE
  5
BB
330
93
100
AcDbEntity
  8
0
  6
CONTINUOUS
 62
     0
100
AcDbLine
 10
-1.0
 20
0.0
 30
0.0
 11
-1.0
 21
0.0
 31
0.0
  0
LINE
  5
BC
330
93
100
AcDbEntity
  8
0
  6
CONTINUOUS
 62
     0
100
AcDbLine
 10
0.0
 20
0.0
 30
0.0
 11
-1.0
 21
0.166666667
 31
0.0
  0
LINE
  5
BD
330
93
100
AcDbEntity
  8
0
  6
CONTINUOUS
 62
     0
100
AcDbLine
 10
0.0
 20
0.0
 30
0.0
 11
-1.0
 21
-0.166666667
 31
0.0
  0
LINE
  5
BE
330
93
100
AcDbEntity
  8
0
  6
CONTINUOUS
 62
     0
100
AcDbLine
 10
-1.0
 20
0.166666667
 30
0.0
 11
-1.0
 21
-0.166666667
 31
0.0
  0
ENDBLK
  5
95
330
93
100
AcDbEntity
  8
0
100
AcDbBlockEnd
  0
BLOCK
  5
97
330
96
100
AcDbEntity
  8
0
100
AcDbBlockBegin
  2
EX_NNORM
 70
     0
 10
0.0
 20
0.0
 30
0.0
  3
EX_NNORM
  1

  0
LINE
  5
BF
330
96
100
AcDbEntity
  8
0
  6
CONTINUOUS
 62
     0
100
AcDbLine
 10
0.0
 20
0.0
 30
0.0
 11
-1.0
 21
0.0
 31
0.0
  0
LINE
  5
C0
330
96
100
AcDbEntity
  8
0
  6
CONTINUOUS
 62
     0
100
AcDbLine
 10
0.0
 20
0.0
 30
0.0
 11
-1.0
 21
0.166666667
 31
0.0
  0
LINE
  5
C1
330
96
100
AcDbEntity
  8
0
  6
CONTINUOUS
 62
     0
100
AcDbLine
 10
0.0
 20
0.0
 30
0.0
 11
-1.0
 21
-0.166666667
 31
0.0
  0
LINE
  5
C2
330
96
100
AcDbEntity
  8
0
  6
CONTINUOUS
 62
     0
100
AcDbLine
 10
-1.0
 20
0.166666667
 30
0.0
 11
-1.0
 21
-0.166666667
 31
0.0
  0
ENDBLK
  5
98
330
96
100
AcDbEntity
  8
0
100
AcDbBlockEnd
  0
BLOCK
  5
9A
330
99
100
AcDbEntity
  8
0
100
AcDbBlockBegin
  2
EX_BBOX
 70
     0
 10
0.0
 20
0.0
 30
0.0
  3
EX_BBOX
  1

  0
LINE
  5
C3
330
99
100
AcDbEntity
  8
0
  6
CONTINUOUS
 62
     0
100
AcDbLine
 10
0.0
 20
0.0
 30
0.0
 11
-1.0
 21
0.0
 31
0.0
  0
LINE
  5
C4
330
99
100
AcDbEntity
  8
0
  6
CONTINUOUS
 62
     0
100
AcDbLine
 10
-0.5
 20
0.5
 30
0.0
 11
0.5
 21
0.5
 31
0.0
  0
LINE
  5
C5
330
99
100
AcDbEntity
  8
0
  6
CONTINUOUS
 62
     0
100
AcDbLine
 10
0.5
 20
0.5
 30
0.0
 11
0.5
 21
-0.5
 31
0.0
  0
LINE
  5
C6
330
99
100
AcDbEntity
  8
0
  6
CONTINUOUS
 62
     0
100
AcDbLine
 10
0.5
 20
-0.5
 30
0.0
 11
-0.5
 21
-0.5
 31
0.0
  0
LINE
  5
C7
330
99
100
AcDbEntity
  8
0
  6
CONTINUOUS
 62
     0
100
AcDbLine
 10
-0.5
 20
-0.5
 30
0.0
 11
-0.5
 21
0.5
 31
0.0
  0
LINE
  5
C8
330
99
100
AcDbEntity
  8
0
  6
CONTINUOUS
 62
     0
100
AcDbLine
 10
-0.25
 20
0.25
 30
0.0
 11
0.25
 21
0.25
 31
0.0
  0
LINE
  5
C9
330
99
100
AcDbEntity
  8
0
  6
CONTINUOUS
 62
     0
100
AcDbLine
 10
0.25
 20
0.25
 30
0.0
 11
0.25
 21
-0.25
 31
0.0
  0
LINE
  5
CA
330
99
100
AcDbEntity
  8
0
  6
CONTINUOUS
 62
     0
100
AcDbLine
 10
0.25
 20
-0.25
 30
0.0
 11
-0.25
 21
-0.25
 31
0.0
  0
LINE
  5
CB
330
99
100
AcDbEntity
  8
0
  6
CONTINUOUS
 62
     0
100
AcDbLine
 10
-0.25
 20
-0.25
 30
0.0
 11
-0.25
 21
0.25
 31
0.0
  0
ENDBLK
  5
9B
330
99
100
AcDbEntity
  8
0
100
AcDbBlockEnd
  0
BLOCK
  5
9D
330
9C
100
AcDbEntity
  8
0
100
AcDbBlockBegin
  2
EX_WBOX
 70
     0
 10
0.0
 20
0.0
 30
0.0
  3
EX_WBOX
  1

  0
LINE
  5
CC
330
9C
100
AcDbEntity
  8
0
  6
CONTINUOUS
 62
     0
100
AcDbLine
 10
-0.5
 20
0.0
 30
0.0
 11
-1.0
 21
0.0
 31
0.0
  0
LINE
  5
CD
330
9C
100
AcDbEntity
  8
0
  6
CONTINUOUS
 62
     0
100
AcDbLine
 10
-0.5
 20
0.5
 30
0.0
 11
0.5
 21
0.5
 31
0.0
  0
LINE
  5
CE
330
9C
100
AcDbEntity
  8
0
  6
CONTINUOUS
 62
     0
100
AcDbLine
 10
0.5
 20
0.5
 30
0.0
 11
0.5
 21
-0.5
 31
0.0
  0
LINE
  5
CF
330
9C
100
AcDbEntity
  8
0
  6
CONTINUOUS
 62
     0
100
AcDbLine
 10
0.5
 20
-0.5
 30
0.0
 11
-0.5
 21
-0.5
 31
0.0
  0
LINE
  5
D0
330
9C
100
AcDbEntity
  8
0
  6
CONTINUOUS
 62
     0
100
AcDbLine
 10
-0.5
 20
-0.5
 30
0.0
 11
-0.5
 21
0.5
 31
0.0
  0
ENDBLK
  5
9E
330
9C
100
AcDbEntity
  8
0
100
AcDbBlockEnd
  0
BLOCK
  5
A0
330
9F
100
AcDbEntity
  8
0
100
AcDbBlockBegin
  2
EX_INTEGRAL
 70
     0
 10
0.0
 20
0.0
 30
0.0
  3
EX_INTEGRAL
  1

  0
LINE
  5
D1
330
9F
100
AcDbEntity
  8
0
  6
CONTINUOUS
 62
     0
100
AcDbLine
 10
0.0
 20
0.0
 30
0.0
 11
-1.0
 21
0.0
 31
0.0
  0
ARC
  5
D2
330
9F
100
AcDbEntity
  8
0
  6
CONTINUOUS
 62
     0
100
AcDbCircle
 10
0.542115
 20
0.164992
 30
0.0
 40
0.56667
100
AcDbArc
 50
73.07249033629006
 51
196.9275130221199
  0
ARC
  5
D3
330
9F
100
AcDbEntity
  8
0
  6
CONTINUOUS
 62
     0
100
AcDbCircle
 10
-0.542115
 20
-0.164992
 30
0.0
 40
0.56667
100
AcDbArc
 50
253.0724869220464
 51
16.9275130559125
  0
ENDBLK
  5
A1
330
9F
100
AcDbEntity
  8
0
100
AcDbBlockEnd
  0
BLOCK
  5
117
330
116
100
AcDbEntity
  8
0
100
AcDbBlockBegin
  2
*D15
 70
     1
 10
0.0
 20
0.0
 30
0.0
  3
*D15
  1

  0
LINE
  5
119
330
116
100
AcDbEntity
  8
Ｓ_１_１
  6
CONTINUOUS
 62
     2
100
AcDbLine
 10
1313.0
 20
300.0
 30
0.0
 11
917.0
 21
300.0
 31
0.0
  0
INSERT
  5
11A
330
116
100
AcDbEntity
  8
Ｓ_１_１
 62
     2
100
AcDbBlockReference
  2
EX_NORM
 10
1325.0
 20
300.0
 30
0.0
 41
12.0
 42
12.0
 43
12.0
  0
INSERT
  5
11B
330
116
100
AcDbEntity
  8
Ｓ_１_１
 62
     2
100
AcDbBlockReference
  2
EX_NORM
 10
905.0
 20
300.0
 30
0.0
 41
12.0
 42
12.0
 43
12.0
 50
180.0
  0
MTEXT
  5
11C
330
116
100
AcDbEntity
  8
Ｓ_１_１
 62
     2
100
AcDbMText
 10
1115.0
 20
311.0
 30
0.0
 40
13.85161662817552
 41
0.0
 71
     5
 72
     1
  1
420
  7
EXCADDIM1
  0
POINT
  5
11D
330
116
100
AcDbEntity
  8
DEFPOINTS
 62
     0
100
AcDbPoint
 10
1325.0
 20
369.500011
 30
0.0
  0
POINT
  5
11E
330
116
100
AcDbEntity
  8
DEFPOINTS
 62
     0
100
AcDbPoint
 10
905.0
 20
372.50003100009
 30
0.0
  0
POINT
  5
11F
330
116
100
AcDbEntity
  8
DEFPOINTS
 62
     0
100
AcDbPoint
 10
905.0
 20
300.0
 30
0.0
  0
ENDBLK
  5
118
330
116
100
AcDbEntity
  8
0
100
AcDbBlockEnd
  0
BLOCK
  5
122
330
121
100
AcDbEntity
  8
0
100
AcDbBlockBegin
  2
*D16
 70
     1
 10
0.0
 20
0.0
 30
0.0
  3
*D16
  1

  0
LINE
  5
124
330
121
100
AcDbEntity
  8
Ｓ_１_１
  6
CONTINUOUS
 62
     2
100
AcDbLine
 10
905.0
 20
366.50003100009
 30
0.0
 11
905.0
 21
296.0
 31
0.0
  0
LINE
  5
125
330
121
100
AcDbEntity
  8
Ｓ_１_１
  6
CONTINUOUS
 62
     2
100
AcDbLine
 10
905.0
 20
300.0
 30
0.0
 11
895.0
 21
300.0
 31
0.0
  0
LINE
  5
126
330
121
100
AcDbEntity
  8
Ｓ_１_１
  6
CONTINUOUS
 62
     2
100
AcDbLine
 10
917.0
 20
300.0
 30
0.0
 11
929.0
 21
300.0
 31
0.0
  0
LINE
  5
127
330
121
100
AcDbEntity
  8
Ｓ_１_１
  6
CONTINUOUS
 62
     2
100
AcDbLine
 10
883.0
 20
300.0
 30
0.0
 11
871.0
 21
300.0
 31
0.0
  0
INSERT
  5
128
330
121
100
AcDbEntity
  8
Ｓ_１_１
 62
     2
100
AcDbBlockReference
  2
EX_NORM
 10
905.0
 20
300.0
 30
0.0
 41
12.0
 42
12.0
 43
12.0
 50
180.0
  0
INSERT
  5
129
330
121
100
AcDbEntity
  8
Ｓ_１_１
 62
     2
100
AcDbBlockReference
  2
EX_NORM
 10
895.0
 20
300.0
 30
0.0
 41
12.0
 42
12.0
 43
12.0
  0
MTEXT
  5
12A
330
121
100
AcDbEntity
  8
Ｓ_１_１
 62
     2
100
AcDbMText
 10
874.0
 20
310.9999999999998
 30
0.0
 40
13.85161662817552
 41
0.0
 71
     5
 72
     1
  1
10
  7
EXCADDIM1
  0
POINT
  5
12B
330
121
100
AcDbEntity
  8
DEFPOINTS
 62
     0
100
AcDbPoint
 10
905.0
 20
372.50003100009
 30
0.0
  0
POINT
  5
12C
330
121
100
AcDbEntity
  8
DEFPOINTS
 62
     0
100
AcDbPoint
 10
895.0
 20
421.7320503094
 30
0.0
  0
POINT
  5
12D
330
121
100
AcDbEntity
  8
DEFPOINTS
 62
     0
100
AcDbPoint
 10
895.0
 20
300.0
 30
0.0
  0
ENDBLK
  5
123
330
121
100
AcDbEntity
  8
0
100
AcDbBlockEnd
  0
BLOCK
  5
130
330
12F
100
AcDbEntity
  8
0
100
AcDbBlockBegin
  2
*D17
 70
     1
 10
0.0
 20
0.0
 30
0.0
  3
*D17
  1

  0
LINE
  5
132
330
12F
100
AcDbEntity
  8
Ｓ_１_１
  6
CONTINUOUS
 62
     2
100
AcDbLine
 10
895.0
 20
415.7320503094
 30
0.0
 11
895.0
 21
271.0
 31
0.0
  0
LINE
  5
133
330
12F
100
AcDbEntity
  8
Ｓ_１_１
  6
CONTINUOUS
 62
     2
100
AcDbLine
 10
1325.0
 20
363.500011
 30
0.0
 11
1325.0
 21
271.0
 31
0.0
  0
LINE
  5
134
330
12F
100
AcDbEntity
  8
Ｓ_１_１
  6
CONTINUOUS
 62
     2
100
AcDbLine
 10
907.0
 20
275.0
 30
0.0
 11
1313.0
 21
275.0
 31
0.0
  0
INSERT
  5
135
330
12F
100
AcDbEntity
  8
Ｓ_１_１
 62
     2
100
AcDbBlockReference
  2
EX_NORM
 10
895.0
 20
275.0
 30
0.0
 41
12.0
 42
12.0
 43
12.0
 50
180.0
  0
INSERT
  5
136
330
12F
100
AcDbEntity
  8
Ｓ_１_１
 62
     2
100
AcDbBlockReference
  2
EX_NORM
 10
1325.0
 20
275.0
 30
0.0
 41
12.0
 42
12.0
 43
12.0
  0
MTEXT
  5
137
330
12F
100
AcDbEntity
  8
Ｓ_１_１
 62
     2
100
AcDbMText
 10
1110.0
 20
286.0
 30
0.0
 40
13.85161662817552
 41
0.0
 71
     5
 72
     1
  1
430
  7
EXCADDIM1
  0
POINT
  5
138
330
12F
100
AcDbEntity
  8
DEFPOINTS
 62
     0
100
AcDbPoint
 10
895.0
 20
421.7320503094
 30
0.0
  0
POINT
  5
139
330
12F
100
AcDbEntity
  8
DEFPOINTS
 62
     0
100
AcDbPoint
 10
1325.0
 20
369.500011
 30
0.0
  0
POINT
  5
13A
330
12F
100
AcDbEntity
  8
DEFPOINTS
 62
     0
100
AcDbPoint
 10
1325.0
 20
275.0
 30
0.0
  0
ENDBLK
  5
131
330
12F
100
AcDbEntity
  8
0
100
AcDbBlockEnd
  0
BLOCK
  5
13D
330
13C
100
AcDbEntity
  8
0
100
AcDbBlockBegin
  2
*D18
 70
     1
 10
0.0
 20
0.0
 30
0.0
  3
*D18
  1

  0
LINE
  5
13F
330
13C
100
AcDbEntity
  8
Ｓ_１_１
  6
CONTINUOUS
 62
     2
100
AcDbLine
 10
892.0
 20
420.0000080000001
 30
0.0
 11
821.0
 21
420.0000080000002
 31
0.0
  0
LINE
  5
140
330
13C
100
AcDbEntity
  8
Ｓ_１_１
  6
CONTINUOUS
 62
     2
100
AcDbLine
 10
892.0
 20
580.0000040000001
 30
0.0
 11
821.0
 21
580.0000040000001
 31
0.0
  0
LINE
  5
141
330
13C
100
AcDbEntity
  8
Ｓ_１_１
  6
CONTINUOUS
 62
     2
100
AcDbLine
 10
825.0
 20
432.0000080000002
 30
0.0
 11
825.0
 21
568.0000040000001
 31
0.0
  0
INSERT
  5
142
330
13C
100
AcDbEntity
  8
Ｓ_１_１
 62
     2
100
AcDbBlockReference
  2
EX_NORM
 10
825.0
 20
420.0000080000002
 30
0.0
 41
12.0
 42
12.0
 43
12.0
 50
270.0
  0
INSERT
  5
143
330
13C
100
AcDbEntity
  8
Ｓ_１_１
 62
     2
100
AcDbBlockReference
  2
EX_NORM
 10
825.0
 20
580.0000040000001
 30
0.0
 41
12.0
 42
12.0
 43
12.0
 50
90.0
  0
MTEXT
  5
144
330
13C
100
AcDbEntity
  8
Ｓ_１_１
 62
     2
100
AcDbMText
 10
814.0
 20
500.0000060000001
 30
0.0
 40
13.85161662817552
 41
0.0
 71
     5
 72
     1
  1
%%c160
  7
EXCADDIM1
 11
0.0
 21
1.0
 31
0.0
  0
POINT
  5
145
330
13C
100
AcDbEntity
  8
DEFPOINTS
 62
     0
100
AcDbPoint
 10
898.0
 20
420.0000080000001
 30
0.0
  0
POINT
  5
146
330
13C
100
AcDbEntity
  8
DEFPOINTS
 62
     0
100
AcDbPoint
 10
898.0
 20
580.0000040000001
 30
0.0
  0
POINT
  5
147
330
13C
100
AcDbEntity
  8
DEFPOINTS
 62
     0
100
AcDbPoint
 10
825.0
 20
580.0000040000001
 30
0.0
  0
ENDBLK
  5
13E
330
13C
100
AcDbEntity
  8
0
100
AcDbBlockEnd
  0
BLOCK
  5
14A
330
149
100
AcDbEntity
  8
0
100
AcDbBlockBegin
  2
*D19
 70
     1
 10
0.0
 20
0.0
 30
0.0
  3
*D19
  1

  0
LINE
  5
14C
330
149
100
AcDbEntity
  8
Ｓ_１_１
  6
CONTINUOUS
 62
     2
100
AcDbLine
 10
1329.000004
 20
367.5000040000001
 30
0.0
 11
1404.0
 21
367.500004
 31
0.0
  0
LINE
  5
14D
330
149
100
AcDbEntity
  8
Ｓ_１_１
  6
CONTINUOUS
 62
     2
100
AcDbLine
 10
1329.000004
 20
632.5000040000001
 30
0.0
 11
1404.0
 21
632.5000040000001
 31
0.0
  0
LINE
  5
14E
330
149
100
AcDbEntity
  8
Ｓ_１_１
  6
CONTINUOUS
 62
     2
100
AcDbLine
 10
1400.0
 20
379.500004
 30
0.0
 11
1400.0
 21
620.5000040000001
 31
0.0
  0
INSERT
  5
14F
330
149
100
AcDbEntity
  8
Ｓ_１_１
 62
     2
100
AcDbBlockReference
  2
EX_NORM
 10
1400.0
 20
367.500004
 30
0.0
 41
12.0
 42
12.0
 43
12.0
 50
270.0
  0
INSERT
  5
150
330
149
100
AcDbEntity
  8
Ｓ_１_１
 62
     2
100
AcDbBlockReference
  2
EX_NORM
 10
1400.0
 20
632.5000040000001
 30
0.0
 41
12.0
 42
12.0
 43
12.0
 50
90.0
  0
MTEXT
  5
151
330
149
100
AcDbEntity
  8
Ｓ_１_１
 62
     2
100
AcDbMText
 10
1389.0
 20
500.0000040000001
 30
0.0
 40
13.85161662817552
 41
0.0
 71
     5
 72
     1
  1
%%c265
  7
EXCADDIM1
 11
0.0
 21
1.0
 31
0.0
  0
POINT
  5
152
330
149
100
AcDbEntity
  8
DEFPOINTS
 62
     0
100
AcDbPoint
 10
1323.000004
 20
367.5000040000001
 30
0.0
  0
POINT
  5
153
330
149
100
AcDbEntity
  8
DEFPOINTS
 62
     0
100
AcDbPoint
 10
1323.000004
 20
632.5000040000001
 30
0.0
  0
POINT
  5
154
330
149
100
AcDbEntity
  8
DEFPOINTS
 62
     0
100
AcDbPoint
 10
1400.0
 20
632.5000040000001
 30
0.0
  0
ENDBLK
  5
14B
330
149
100
AcDbEntity
  8
0
100
AcDbBlockEnd
  0
BLOCK
  5
157
330
156
100
AcDbEntity
  8
0
100
AcDbBlockBegin
  2
*D20
 70
     1
 10
0.0
 20
0.0
 30
0.0
  3
*D20
  1

  0
LINE
  5
159
330
156
100
AcDbEntity
  8
Ｓ_１_１
  6
CONTINUOUS
 62
     2
100
AcDbLine
 10
285.500061
 20
532.499996
 30
0.0
 11
285.500061
 21
779.0
 31
0.0
  0
LINE
  5
15A
330
156
100
AcDbEntity
  8
Ｓ_１_１
  6
CONTINUOUS
 62
     2
100
AcDbLine
 10
664.500061
 20
532.499996
 30
0.0
 11
664.500061
 21
779.0
 31
0.0
  0
LINE
  5
15B
330
156
100
AcDbEntity
  8
Ｓ_１_１
  6
CONTINUOUS
 62
     2
100
AcDbLine
 10
297.500061
 20
775.0
 30
0.0
 11
652.500061
 21
775.0
 31
0.0
  0
INSERT
  5
15C
330
156
100
AcDbEntity
  8
Ｓ_１_１
 62
     2
100
AcDbBlockReference
  2
EX_NORM
 10
285.500061
 20
775.0
 30
0.0
 41
12.0
 42
12.0
 43
12.0
 50
180.0
  0
INSERT
  5
15D
330
156
100
AcDbEntity
  8
Ｓ_１_１
 62
     2
100
AcDbBlockReference
  2
EX_NORM
 10
664.500061
 20
775.0
 30
0.0
 41
12.0
 42
12.0
 43
12.0
  0
MTEXT
  5
15E
330
156
100
AcDbEntity
  8
Ｓ_１_１
 62
     2
100
AcDbMText
 10
475.000061
 20
786.0
 30
0.0
 40
13.85161662817552
 41
0.0
 71
     5
 72
     1
  1
379
  7
EXCADDIM1
  0
POINT
  5
15F
330
156
100
AcDbEntity
  8
DEFPOINTS
 62
     0
100
AcDbPoint
 10
285.500061
 20
526.499996
 30
0.0
  0
POINT
  5
160
330
156
100
AcDbEntity
  8
DEFPOINTS
 62
     0
100
AcDbPoint
 10
664.500061
 20
526.499996
 30
0.0
  0
POINT
  5
161
330
156
100
AcDbEntity
  8
DEFPOINTS
 62
     0
100
AcDbPoint
 10
664.500061
 20
775.0
 30
0.0
  0
ENDBLK
  5
158
330
156
100
AcDbEntity
  8
0
100
AcDbBlockEnd
  0
BLOCK
  5
164
330
163
100
AcDbEntity
  8
0
100
AcDbBlockBegin
  2
*D21
 70
     1
 10
0.0
 20
0.0
 30
0.0
  3
*D21
  1

  0
LINE
  5
166
330
163
100
AcDbEntity
  8
Ｓ_１_１
  6
CONTINUOUS
 62
     2
100
AcDbLine
 10
1329.000004
 20
632.49999600001
 30
0.0
 11
1404.0
 21
632.49999600001
 31
0.0
  0
LINE
  5
167
330
163
100
AcDbEntity
  8
Ｓ_１_１
  6
CONTINUOUS
 62
     2
100
AcDbLine
 10
1173.000008
 20
717.862278
 30
0.0
 11
1404.0
 21
717.862278
 31
0.0
  0
LINE
  5
168
330
163
100
AcDbEntity
  8
Ｓ_１_１
  6
CONTINUOUS
 62
     2
100
AcDbLine
 10
1400.0
 20
644.49999600001
 30
0.0
 11
1400.0
 21
705.862278
 31
0.0
  0
INSERT
  5
169
330
163
100
AcDbEntity
  8
Ｓ_１_１
 62
     2
100
AcDbBlockReference
  2
EX_NORM
 10
1400.0
 20
632.49999600001
 30
0.0
 41
12.0
 42
12.0
 43
12.0
 50
270.0
  0
INSERT
  5
16A
330
163
100
AcDbEntity
  8
Ｓ_１_１
 62
     2
100
AcDbBlockReference
  2
EX_NORM
 10
1400.0
 20
717.862278
 30
0.0
 41
12.0
 42
12.0
 43
12.0
 50
90.0
  0
MTEXT
  5
16B
330
163
100
AcDbEntity
  8
Ｓ_１_１
 62
     2
100
AcDbMText
 10
1389.0
 20
675.181137000005
 30
0.0
 40
13.85161662817552
 41
0.0
 71
     5
 72
     1
  1
(85)
  7
EXCADDIM1
 11
0.0
 21
1.0
 31
0.0
  0
POINT
  5
16C
330
163
100
AcDbEntity
  8
DEFPOINTS
 62
     0
100
AcDbPoint
 10
1323.000004
 20
632.49999600001
 30
0.0
  0
POINT
  5
16D
330
163
100
AcDbEntity
  8
DEFPOINTS
 62
     0
100
AcDbPoint
 10
1167.000008
 20
717.862278
 30
0.0
  0
POINT
  5
16E
330
163
100
AcDbEntity
  8
DEFPOINTS
 62
     0
100
AcDbPoint
 10
1400.0
 20
717.862278
 30
0.0
  0
ENDBLK
  5
165
330
163
100
AcDbEntity
  8
0
100
AcDbBlockEnd
  0
BLOCK
  5
2AD
330
2AC
100
AcDbEntity
  8
0
100
AcDbBlockBegin
  2
*D22
 70
     1
 10
0.0
 20
0.0
 30
0.0
  3
*D22
  1

  0
LINE
  5
2AF
330
2AC
100
AcDbEntity
  8
Ｓ_１_１
  6
CONTINUOUS
 62
     2
100
AcDbLine
 10
905.0
 20
633.49995999994
 30
0.0
 11
905.0
 21
779.0
 31
0.0
  0
LINE
  5
2B0
330
2AC
100
AcDbEntity
  8
Ｓ_１_１
  6
CONTINUOUS
 62
     2
100
AcDbLine
 10
998.000031
 20
738.8
 30
0.0
 11
998.000031
 21
779.0
 31
0.0
  0
LINE
  5
2B1
330
2AC
100
AcDbEntity
  8
Ｓ_１_１
  6
CONTINUOUS
 62
     2
100
AcDbLine
 10
917.0
 20
775.0
 30
0.0
 11
986.000031
 21
775.0
 31
0.0
  0
INSERT
  5
2B2
330
2AC
100
AcDbEntity
  8
Ｓ_１_１
 62
     2
100
AcDbBlockReference
  2
EX_NORM
 10
905.0
 20
775.0
 30
0.0
 41
12.0
 42
12.0
 43
12.0
 50
180.0
  0
INSERT
  5
2B3
330
2AC
100
AcDbEntity
  8
Ｓ_１_１
 62
     2
100
AcDbBlockReference
  2
EX_NORM
 10
998.000031
 20
775.0
 30
0.0
 41
12.0
 42
12.0
 43
12.0
  0
MTEXT
  5
2B4
330
2AC
100
AcDbEntity
  8
Ｓ_１_１
 62
     2
100
AcDbMText
 10
951.5000155
 20
786.0
 30
0.0
 40
13.85161662817552
 41
0.0
 71
     5
 72
     1
  1
93
  7
EXCADDIM1
  0
POINT
  5
2B5
330
2AC
100
AcDbEntity
  8
DEFPOINTS
 62
     0
100
AcDbPoint
 10
905.0
 20
627.49995999994
 30
0.0
  0
POINT
  5
2B6
330
2AC
100
AcDbEntity
  8
DEFPOINTS
 62
     0
100
AcDbPoint
 10
998.000031
 20
732.8
 30
0.0
  0
POINT
  5
2B7
330
2AC
100
AcDbEntity
  8
DEFPOINTS
 62
     0
100
AcDbPoint
 10
998.000031
 20
775.0
 30
0.0
  0
ENDBLK
  5
2AE
330
2AC
100
AcDbEntity
  8
0
100
AcDbBlockEnd
  0
BLOCK
  5
2BA
330
2B9
100
AcDbEntity
  8
0
100
AcDbBlockBegin
  2
*D23
 70
     1
 10
0.0
 20
0.0
 30
0.0
  3
*D23
  1

  0
LINE
  5
2BC
330
2B9
100
AcDbEntity
  8
Ｓ_１_１
  6
CONTINUOUS
 62
     2
100
AcDbLine
 10
998.000031
 20
744.8
 30
0.0
 11
998.000031
 21
779.0
 31
0.0
  0
LINE
  5
2BD
330
2B9
100
AcDbEntity
  8
Ｓ_１_１
  6
CONTINUOUS
 62
     2
100
AcDbLine
 10
1155.000015
 20
727.434208
 30
0.0
 11
1155.000015
 21
779.0
 31
0.0
  0
LINE
  5
2BE
330
2B9
100
AcDbEntity
  8
Ｓ_１_１
  6
CONTINUOUS
 62
     2
100
AcDbLine
 10
1010.000031
 20
775.0
 30
0.0
 11
1143.000015
 21
775.0
 31
0.0
  0
INSERT
  5
2BF
330
2B9
100
AcDbEntity
  8
Ｓ_１_１
 62
     2
100
AcDbBlockReference
  2
EX_NORM
 10
998.000031
 20
775.0
 30
0.0
 41
12.0
 42
12.0
 43
12.0
 50
180.0
  0
INSERT
  5
2C0
330
2B9
100
AcDbEntity
  8
Ｓ_１_１
 62
     2
100
AcDbBlockReference
  2
EX_NORM
 10
1155.000015
 20
775.0
 30
0.0
 41
12.0
 42
12.0
 43
12.0
  0
MTEXT
  5
2C1
330
2B9
100
AcDbEntity
  8
Ｓ_１_１
 62
     2
100
AcDbMText
 10
1076.500023
 20
786.0
 30
0.0
 40
13.85161662817552
 41
0.0
 71
     5
 72
     1
  1
157
  7
EXCADDIM1
  0
POINT
  5
2C2
330
2B9
100
AcDbEntity
  8
DEFPOINTS
 62
     0
100
AcDbPoint
 10
998.000031
 20
738.8
 30
0.0
  0
POINT
  5
2C3
330
2B9
100
AcDbEntity
  8
DEFPOINTS
 62
     0
100
AcDbPoint
 10
1155.000015
 20
721.434208
 30
0.0
  0
POINT
  5
2C4
330
2B9
100
AcDbEntity
  8
DEFPOINTS
 62
     0
100
AcDbPoint
 10
1155.000015
 20
775.0
 30
0.0
  0
ENDBLK
  5
2BB
330
2B9
100
AcDbEntity
  8
0
100
AcDbBlockEnd
  0
BLOCK
  5
2C7
330
2C6
100
AcDbEntity
  8
0
100
AcDbBlockBegin
  2
*D24
 70
     1
 10
0.0
 20
0.0
 30
0.0
  3
*D24
  1

  0
LINE
  5
2C9
330
2C6
100
AcDbEntity
  8
Ｓ_１_１
  6
CONTINUOUS
 62
     2
100
AcDbLine
 10
1155.000015
 20
727.434208
 30
0.0
 11
1155.000015
 21
779.0
 31
0.0
  0
LINE
  5
2CA
330
2C6
100
AcDbEntity
  8
Ｓ_１_１
  6
CONTINUOUS
 62
     2
100
AcDbLine
 10
1325.0
 20
636.49999599999
 30
0.0
 11
1325.0
 21
779.0
 31
0.0
  0
LINE
  5
2CB
330
2C6
100
AcDbEntity
  8
Ｓ_１_１
  6
CONTINUOUS
 62
     2
100
AcDbLine
 10
1167.000015
 20
775.0
 30
0.0
 11
1313.0
 21
775.0
 31
0.0
  0
INSERT
  5
2CC
330
2C6
100
AcDbEntity
  8
Ｓ_１_１
 62
     2
100
AcDbBlockReference
  2
EX_NORM
 10
1155.000015
 20
775.0
 30
0.0
 41
12.0
 42
12.0
 43
12.0
 50
180.0
  0
INSERT
  5
2CD
330
2C6
100
AcDbEntity
  8
Ｓ_１_１
 62
     2
100
AcDbBlockReference
  2
EX_NORM
 10
1325.0
 20
775.0
 30
0.0
 41
12.0
 42
12.0
 43
12.0
  0
MTEXT
  5
2CE
330
2C6
100
AcDbEntity
  8
Ｓ_１_１
 62
     2
100
AcDbMText
 10
1240.0000075
 20
786.0
 30
0.0
 40
13.85161662817552
 41
0.0
 71
     5
 72
     1
  1
170
  7
EXCADDIM1
  0
POINT
  5
2CF
330
2C6
100
AcDbEntity
  8
DEFPOINTS
 62
     0
100
AcDbPoint
 10
1155.000015
 20
721.434208
 30
0.0
  0
POINT
  5
2D0
330
2C6
100
AcDbEntity
  8
DEFPOINTS
 62
     0
100
AcDbPoint
 10
1325.0
 20
630.49999599999
 30
0.0
  0
POINT
  5
2D1
330
2C6
100
AcDbEntity
  8
DEFPOINTS
 62
     0
100
AcDbPoint
 10
1325.0
 20
775.0
 30
0.0
  0
ENDBLK
  5
2C8
330
2C6
100
AcDbEntity
  8
0
100
AcDbBlockEnd
  0
ENDSEC
  0
SECTION
  2
ENTITIES
  0
LINE
  5
D4
330
1F
100
AcDbEntity
  8
図面枠
  6
CONTINUOUS
 62
     5
100
AcDbLine
 10
40.0
 20
40.0
 30
0.0
 11
1640.0
 21
40.0
 31
0.0
  0
LINE
  5
D5
330
1F
100
AcDbEntity
  8
図面枠
  6
CONTINUOUS
 62
     5
100
AcDbLine
 10
1640.0
 20
40.0
 30
0.0
 11
1640.0
 21
1148.0
 31
0.0
  0
LINE
  5
D6
330
1F
100
AcDbEntity
  8
図面枠
  6
CONTINUOUS
 62
     5
100
AcDbLine
 10
1640.0
 20
1148.0
 30
0.0
 11
40.00000000000021
 21
1148.0
 31
0.0
  0
LINE
  5
D7
330
1F
100
AcDbEntity
  8
図面枠
  6
CONTINUOUS
 62
     5
100
AcDbLine
 10
40.00000000000021
 20
1148.0
 30
0.0
 11
40.0
 21
40.0
 31
0.0
  0
LINE
  5
D8
330
1F
100
AcDbEntity
  8
図面枠
  6
CONTINUOUS
 62
     3
100
AcDbLine
 10
60.00000000000007
 20
1128.0
 30
0.0
 11
456.0000000000001
 21
1128.0
 31
0.0
  0
LINE
  5
D9
330
1F
100
AcDbEntity
  8
図面枠
  6
CONTINUOUS
 62
     3
100
AcDbLine
 10
60.00000000000007
 20
1092.0
 30
0.0
 11
456.0000000000001
 21
1092.0
 31
0.0
  0
LINE
  5
DA
330
1F
100
AcDbEntity
  8
図面枠
  6
CONTINUOUS
 62
     3
100
AcDbLine
 10
60.00000000000007
 20
1128.0
 30
0.0
 11
60.00000000000007
 21
1092.0
 31
0.0
  0
LINE
  5
DB
330
1F
100
AcDbEntity
  8
図面枠
  6
CONTINUOUS
 62
     3
100
AcDbLine
 10
456.0000000000001
 20
1128.0
 30
0.0
 11
456.0000000000001
 21
1092.0
 31
0.0
  0
LINE
  5
DC
330
1F
100
AcDbEntity
  8
図面枠
  6
CONTINUOUS
 62
     3
100
AcDbLine
 10
1488.0
 20
96.0
 30
0.0
 11
1620.0
 21
96.0
 31
0.0
  0
LINE
  5
DD
330
1F
100
AcDbEntity
  8
図面枠
  6
CONTINUOUS
 62
     3
100
AcDbLine
 10
1488.0
 20
60.0
 30
0.0
 11
1620.0
 21
60.0
 31
0.0
  0
LINE
  5
DE
330
1F
100
AcDbEntity
  8
図面枠
  6
CONTINUOUS
 62
     3
100
AcDbLine
 10
1488.0
 20
96.0
 30
0.0
 11
1488.0
 21
60.0
 31
0.0
  0
LINE
  5
DF
330
1F
100
AcDbEntity
  8
図面枠
  6
CONTINUOUS
 62
     3
100
AcDbLine
 10
1620.0
 20
96.0
 30
0.0
 11
1620.0
 21
60.0
 31
0.0
  0
TEXT
  5
E1
330
1F
100
AcDbEntity
  8
図面枠
  6
CONTINUOUS
 62
     4
100
AcDbText
 10
1500.0
 20
69.375
 30
0.0
 40
18.46882217090069
  1
OTV-20022
 41
0.9992307692307694
  7
EXCADTTF1
 72
     5
 11
1608.0
 21
69.375
 31
0.0
100
AcDbText
  0
TEXT
  5
E2
330
1F
100
AcDbEntity
  8
図面枠
  6
CONTINUOUS
 62
     4
100
AcDbText
 10
1548.0
 20
1085.53125
 30
0.0
 40
13.85161662817552
  1
kN
 41
0.9992307692307693
  7
EXCADTTF1
 72
     5
 11
1566.0
 21
1085.53125
 31
0.0
100
AcDbText
  0
TEXT
  5
E3
330
1F
100
AcDbEntity
  8
図面枠
  6
CONTINUOUS
 62
     4
100
AcDbText
 10
1308.0
 20
1085.53125
 30
0.0
 40
13.85161662817552
  1
能力
 41
0.9992307692307693
  7
EXCADTTF1
 72
     5
 11
1344.0
 21
1085.53125
 31
0.0
100
AcDbText
  0
TEXT
  5
E4
330
1F
100
AcDbEntity
  8
図面枠
  6
CONTINUOUS
 62
     4
100
AcDbText
 10
1415.0
 20
1109.53125
 30
0.0
 40
13.85161662817552
  1
仕　　　様
 41
0.9992307692307693
  7
EXCADTTF1
 72
     5
 11
1505.0
 21
1109.53125
 31
0.0
100
AcDbText
  0
LINE
  5
E5
330
1F
100
AcDbEntity
  8
図面枠
  6
CONTINUOUS
 62
     3
100
AcDbLine
 10
1300.0
 20
1128.0
 30
0.0
 11
1620.0
 21
1128.0
 31
0.0
  0
LINE
  5
E6
330
1F
100
AcDbEntity
  8
図面枠
  6
CONTINUOUS
 62
     3
100
AcDbLine
 10
1300.0
 20
1104.0
 30
0.0
 11
1620.0
 21
1104.0
 31
0.0
  0
TEXT
  5
E7
330
1F
100
AcDbEntity
  8
図面枠
  6
CONTINUOUS
 62
     4
100
AcDbText
 10
1496.0
 20
1085.53125
 30
0.0
 40
13.85161662817552
  1
2000
 41
0.9992307692307693
  7
EXCADTTF1
 72
     5
 11
1532.0
 21
1085.53125
 31
0.0
100
AcDbText
  0
TEXT
  5
E8
330
1F
100
AcDbEntity
  8
図面枠
  6
CONTINUOUS
 62
     4
100
AcDbText
 10
72.00000000000007
 20
1101.375
 30
0.0
 40
18.46882217090069
  1
2000kN220ストローク油圧ジャッキ
 41
0.9992307692307696
  7
EXCADTTF1
 72
     5
 11
444.0000000000001
 21
1101.375
 31
0.0
100
AcDbText
  0
TEXT
  5
E9
330
1F
100
AcDbEntity
  8
図面枠
  6
CONTINUOUS
 62
     4
100
AcDbText
 10
1548.0
 20
941.53125
 30
0.0
 40
13.85161662817552
  1
cm
 41
0.9992307692307693
  7
EXCADTTF1
 72
     5
 11
1566.0
 21
941.53125
 31
0.0
100
AcDbText
  0
TEXT
  5
EA
330
1F
100
AcDbEntity
  8
図面枠
  6
CONTINUOUS
 62
     4
100
AcDbText
 10
1560.6
 20
950.0390626341105
 30
0.0
 40
6.23322704234795
  1
2
 41
0.9992308398189645
  7
EXCADTTF1
 72
     5
 11
1564.65
 21
950.0390626341105
 31
0.0
100
AcDbText
  0
TEXT
  5
EB
330
1F
100
AcDbEntity
  8
図面枠
  6
CONTINUOUS
 62
     4
100
AcDbText
 10
1548.0
 20
1061.53125
 30
0.0
 40
13.85161662817552
  1
mm
 41
0.9992307692307693
  7
EXCADTTF1
 72
     5
 11
1566.0
 21
1061.53125
 31
0.0
100
AcDbText
  0
TEXT
  5
EC
330
1F
100
AcDbEntity
  8
図面枠
  6
CONTINUOUS
 62
     4
100
AcDbText
 10
1548.0
 20
1037.53125
 30
0.0
 40
13.85161662817552
  1
mm
 41
0.9992307692307693
  7
EXCADTTF1
 72
     5
 11
1566.0
 21
1037.53125
 31
0.0
100
AcDbText
  0
TEXT
  5
ED
330
1F
100
AcDbEntity
  8
図面枠
  6
CONTINUOUS
 62
     4
100
AcDbText
 10
1548.0
 20
1013.53125
 30
0.0
 40
13.85161662817552
  1
mm
 41
0.9992307692307693
  7
EXCADTTF1
 72
     5
 11
1566.0
 21
1013.53125
 31
0.0
100
AcDbText
  0
TEXT
  5
EE
330
1F
100
AcDbEntity
  8
図面枠
  6
CONTINUOUS
 62
     4
100
AcDbText
 10
1548.0
 20
989.53125
 30
0.0
 40
13.85161662817552
  1
mm
 41
0.9992307692307693
  7
EXCADTTF1
 72
     5
 11
1566.0
 21
989.53125
 31
0.0
100
AcDbText
  0
TEXT
  5
EF
330
1F
100
AcDbEntity
  8
図面枠
  6
CONTINUOUS
 62
     4
100
AcDbText
 10
1548.0
 20
965.53125
 30
0.0
 40
13.85161662817552
  1
mm
 41
0.9992307692307693
  7
EXCADTTF1
 72
     5
 11
1566.0
 21
965.53125
 31
0.0
100
AcDbText
  0
TEXT
  5
F0
330
1F
100
AcDbEntity
  8
図面枠
  6
CONTINUOUS
 62
     4
100
AcDbText
 10
1548.0
 20
917.53125
 30
0.0
 40
13.85161662817552
  1
MPa
 41
0.9992307692307694
  7
EXCADTTF1
 72
     5
 11
1575.0
 21
917.53125
 31
0.0
100
AcDbText
  0
TEXT
  5
F1
330
1F
100
AcDbEntity
  8
図面枠
  6
CONTINUOUS
 62
     4
100
AcDbText
 10
1308.0
 20
1061.53125
 30
0.0
 40
13.85161662817552
  1
ストローク
 41
0.9992307692307693
  7
EXCADTTF1
 72
     5
 11
1398.0
 21
1061.53125
 31
0.0
100
AcDbText
  0
TEXT
  5
F2
330
1F
100
AcDbEntity
  8
図面枠
  6
CONTINUOUS
 62
     4
100
AcDbText
 10
1308.0
 20
1037.53125
 30
0.0
 40
13.85161662817552
  1
最低機械高
 41
0.9992307692307693
  7
EXCADTTF1
 72
     5
 11
1398.0
 21
1037.53125
 31
0.0
100
AcDbText
  0
TEXT
  5
F3
330
1F
100
AcDbEntity
  8
図面枠
  6
CONTINUOUS
 62
     4
100
AcDbText
 10
1308.0
 20
1013.53125
 30
0.0
 40
13.85161662817552
  1
シリンダー外径
 41
0.9992307692307691
  7
EXCADTTF1
 72
     5
 11
1434.0
 21
1013.53125
 31
0.0
100
AcDbText
  0
TEXT
  5
F4
330
1F
100
AcDbEntity
  8
図面枠
  6
CONTINUOUS
 62
     4
100
AcDbText
 10
1308.0
 20
989.53125
 30
0.0
 40
13.85161662817552
  1
ヘッド径
 41
0.9992307692307693
  7
EXCADTTF1
 72
     5
 11
1380.0
 21
989.53125
 31
0.0
100
AcDbText
  0
TEXT
  5
F5
330
1F
100
AcDbEntity
  8
図面枠
  6
CONTINUOUS
 62
     4
100
AcDbText
 10
1308.0
 20
965.53125
 30
0.0
 40
13.85161662817552
  1
ピストン径
 41
0.9992307692307693
  7
EXCADTTF1
 72
     5
 11
1398.0
 21
965.53125
 31
0.0
100
AcDbText
  0
TEXT
  5
F6
330
1F
100
AcDbEntity
  8
図面枠
  6
CONTINUOUS
 62
     4
100
AcDbText
 10
1308.0
 20
941.53125
 30
0.0
 40
13.85161662817552
  1
受圧面積
 41
0.9992307692307693
  7
EXCADTTF1
 72
     5
 11
1380.0
 21
941.53125
 31
0.0
100
AcDbText
  0
TEXT
  5
F7
330
1F
100
AcDbEntity
  8
図面枠
  6
CONTINUOUS
 62
     4
100
AcDbText
 10
1308.0
 20
917.53125
 30
0.0
 40
13.85161662817552
  1
最高使用圧力
 41
0.9992307692307693
  7
EXCADTTF1
 72
     5
 11
1416.0
 21
917.53125
 31
0.0
100
AcDbText
  0
LINE
  5
F8
330
1F
100
AcDbEntity
  8
図面枠
  6
CONTINUOUS
 62
     2
100
AcDbLine
 10
1300.0
 20
1080.0
 30
0.0
 11
1620.0
 21
1080.0
 31
0.0
  0
LINE
  5
F9
330
1F
100
AcDbEntity
  8
図面枠
  6
CONTINUOUS
 62
     2
100
AcDbLine
 10
1300.0
 20
1056.0
 30
0.0
 11
1620.0
 21
1056.0
 31
0.0
  0
LINE
  5
FA
330
1F
100
AcDbEntity
  8
図面枠
  6
CONTINUOUS
 62
     2
100
AcDbLine
 10
1300.0
 20
1032.0
 30
0.0
 11
1620.0
 21
1032.0
 31
0.0
  0
LINE
  5
FB
330
1F
100
AcDbEntity
  8
図面枠
  6
CONTINUOUS
 62
     2
100
AcDbLine
 10
1300.0
 20
1008.0
 30
0.0
 11
1620.0
 21
1008.0
 31
0.0
  0
LINE
  5
FC
330
1F
100
AcDbEntity
  8
図面枠
  6
CONTINUOUS
 62
     2
100
AcDbLine
 10
1300.0
 20
984.0
 30
0.0
 11
1620.0
 21
984.0
 31
0.0
  0
LINE
  5
FD
330
1F
100
AcDbEntity
  8
図面枠
  6
CONTINUOUS
 62
     2
100
AcDbLine
 10
1300.0
 20
960.0
 30
0.0
 11
1620.0
 21
960.0
 31
0.0
  0
LINE
  5
FE
330
1F
100
AcDbEntity
  8
図面枠
  6
CONTINUOUS
 62
     2
100
AcDbLine
 10
1300.0
 20
936.0
 30
0.0
 11
1620.0
 21
936.0
 31
0.0
  0
TEXT
  5
FF
330
1F
100
AcDbEntity
  8
図面枠
  6
CONTINUOUS
 62
     4
100
AcDbText
 10
1505.0
 20
965.53125
 30
0.0
 40
13.85161662817552
  1
205
 41
0.9992307692307694
  7
EXCADTTF1
 72
     5
 11
1532.0
 21
965.53125
 31
0.0
100
AcDbText
  0
TEXT
  5
100
330
1F
100
AcDbEntity
  8
図面枠
  6
CONTINUOUS
 62
     4
100
AcDbText
 10
1487.0
 20
941.53125
 30
0.0
 40
13.85161662817552
  1
330.1
 41
0.9992307692307693
  7
EXCADTTF1
 72
     5
 11
1532.0
 21
941.53125
 31
0.0
100
AcDbText
  0
TEXT
  5
101
330
1F
100
AcDbEntity
  8
図面枠
  6
CONTINUOUS
 62
     4
100
AcDbText
 10
1496.0
 20
917.53125
 30
0.0
 40
13.85161662817552
  1
60.6
 41
0.9992307692307693
  7
EXCADTTF1
 72
     5
 11
1532.0
 21
917.53125
 31
0.0
100
AcDbText
  0
TEXT
  5
102
330
1F
100
AcDbEntity
  8
図面枠
  6
CONTINUOUS
 62
     4
100
AcDbText
 10
1505.0
 20
1061.53125
 30
0.0
 40
13.85161662817552
  1
220
 41
0.9992307692307694
  7
EXCADTTF1
 72
     5
 11
1532.0
 21
1061.53125
 31
0.0
100
AcDbText
  0
TEXT
  5
103
330
1F
100
AcDbEntity
  8
図面枠
  6
CONTINUOUS
 62
     4
100
AcDbText
 10
1505.0
 20
1037.53125
 30
0.0
 40
13.85161662817552
  1
430
 41
0.9992307692307694
  7
EXCADTTF1
 72
     5
 11
1532.0
 21
1037.53125
 31
0.0
100
AcDbText
  0
TEXT
  5
104
330
1F
100
AcDbEntity
  8
図面枠
  6
CONTINUOUS
 62
     4
100
AcDbText
 10
1505.0
 20
1013.53125
 30
0.0
 40
13.85161662817552
  1
265
 41
0.9992307692307694
  7
EXCADTTF1
 72
     5
 11
1532.0
 21
1013.53125
 31
0.0
100
AcDbText
  0
TEXT
  5
105
330
1F
100
AcDbEntity
  8
図面枠
  6
CONTINUOUS
 62
     4
100
AcDbText
 10
1505.0
 20
989.53125
 30
0.0
 40
13.85161662817552
  1
160
 41
0.9992307692307694
  7
EXCADTTF1
 72
     5
 11
1532.0
 21
989.53125
 31
0.0
100
AcDbText
  0
TEXT
  5
106
330
1F
100
AcDbEntity
  8
図面枠
  6
CONTINUOUS
 62
     4
100
AcDbText
 10
1548.0
 20
869.53125
 30
0.0
 40
13.85161662817552
  1
kg
 41
0.9992307692307693
  7
EXCADTTF1
 72
     5
 11
1566.0
 21
869.53125
 31
0.0
100
AcDbText
  0
TEXT
  5
107
330
1F
100
AcDbEntity
  8
図面枠
  6
CONTINUOUS
 62
     4
100
AcDbText
 10
1308.0
 20
893.53125
 30
0.0
 40
13.85161662817552
  1
所要油量
 41
0.9992307692307693
  7
EXCADTTF1
 72
     5
 11
1380.0
 21
893.53125
 31
0.0
100
AcDbText
  0
LINE
  5
108
330
1F
100
AcDbEntity
  8
図面枠
  6
CONTINUOUS
 62
     2
100
AcDbLine
 10
1300.0
 20
912.0
 30
0.0
 11
1620.0
 21
912.0
 31
0.0
  0
LINE
  5
109
330
1F
100
AcDbEntity
  8
図面枠
  6
CONTINUOUS
 62
     2
100
AcDbLine
 10
1300.0
 20
888.0
 30
0.0
 11
1620.0
 21
888.0
 31
0.0
  0
LINE
  5
10A
330
1F
100
AcDbEntity
  8
図面枠
  6
CONTINUOUS
 62
     3
100
AcDbLine
 10
1300.0
 20
864.0
 30
0.0
 11
1620.0
 21
864.0
 31
0.0
  0
TEXT
  5
10B
330
1F
100
AcDbEntity
  8
図面枠
  6
CONTINUOUS
 62
     4
100
AcDbText
 10
1308.0
 20
869.53125
 30
0.0
 40
13.85161662817552
  1
重量
 41
0.9992307692307693
  7
EXCADTTF1
 72
     5
 11
1344.0
 21
869.53125
 31
0.0
100
AcDbText
  0
LINE
  5
10C
330
1F
100
AcDbEntity
  8
図面枠
  6
CONTINUOUS
 62
     3
100
AcDbLine
 10
1300.0
 20
1128.0
 30
0.0
 11
1300.0
 21
864.0
 31
0.0
  0
LINE
  5
10D
330
1F
100
AcDbEntity
  8
図面枠
  6
CONTINUOUS
 62
     2
100
AcDbLine
 10
1460.0
 20
1104.0
 30
0.0
 11
1460.0
 21
864.0
 31
0.0
  0
LINE
  5
10E
330
1F
100
AcDbEntity
  8
図面枠
  6
CONTINUOUS
 62
     2
100
AcDbLine
 10
1540.0
 20
1104.0
 30
0.0
 11
1540.0
 21
864.0
 31
0.0
  0
LINE
  5
10F
330
1F
100
AcDbEntity
  8
図面枠
  6
CONTINUOUS
 62
     3
100
AcDbLine
 10
1620.0
 20
1128.0
 30
0.0
 11
1620.0
 21
864.0
 31
0.0
  0
TEXT
  5
110
330
1F
100
AcDbEntity
  8
図面枠
  6
CONTINUOUS
 62
     4
100
AcDbText
 10
1548.0
 20
893.53125
 30
0.0
 40
13.85161662817552
  1
L
 41
0.9992307692307693
  7
EXCADTTF1
 72
     5
 11
1557.0
 21
893.53125
 31
0.0
100
AcDbText
  0
TEXT
  5
111
330
1F
100
AcDbEntity
  8
図面枠
  6
CONTINUOUS
 62
     4
100
AcDbText
 10
1505.0
 20
893.53125
 30
0.0
 40
13.85161662817552
  1
7.3
 41
0.9992307692307694
  7
EXCADTTF1
 72
     5
 11
1532.0
 21
893.53125
 31
0.0
100
AcDbText
  0
TEXT
  5
112
330
1F
100
AcDbEntity
  8
図面枠
  6
CONTINUOUS
 62
     4
100
AcDbText
 10
1487.0
 20
869.53125
 30
0.0
 40
13.85161662817552
  1
約165
 41
0.9992307692307693
  7
EXCADTTF1
 72
     5
 11
1532.0
 21
869.53125
 31
0.0
100
AcDbText
  0
DIMENSION
  5
114
330
1F
100
AcDbEntity
  8
Ｓ_１_１
  6
CONTINUOUS
 62
     2
100
AcDbDimension
  2
*D15
 10
905.0
 20
300.0
 30
0.0
 11
1115.0
 21
311.0
 31
0.0
 70
   160
  3
ISO-25
100
AcDbAlignedDimension
 13
1325.0
 23
369.500011
 33
0.0
 14
905.0
 24
372.50003100009
 34
0.0
100
AcDbRotatedDimension
1001
ACAD
1000
DSTYLE
1002
{
1070
   270
1070
     2
1070
     6
1000
EX_NORM
1070
     7
1000
EX_NORM
1070
    41
1040
12.0
1070
    42
1040
0.0
1070
    44
1040
0.0
1070
    73
1070
     0
1070
    74
1070
     0
1070
    75
1070
     1
1070
    76
1070
     1
1070
    77
1070
     1
1070
    78
1070
     8
1070
   140
1040
13.85161662817552
1070
   147
1040
0.0
1070
   173
1070
     1
1070
   176
1070
     2
1070
   177
1070
     2
1070
   178
1070
     2
1070
   271
1070
     2
1070
   277
1070
     2
1070
   279
1070
     2
1070
   280
1070
     0
1070
   287
1070
     5
1070
   340
1005
113
1002
}
  0
DIMENSION
  5
120
330
1F
100
AcDbEntity
  8
Ｓ_１_１
  6
CONTINUOUS
 62
     2
100
AcDbDimension
  2
*D16
 10
895.0
 20
300.0
 30
0.0
 11
874.0
 21
310.9999999999998
 31
0.0
 70
   160
  3
ISO-25
100
AcDbAlignedDimension
 13
905.0
 23
372.50003100009
 33
0.0
 14
895.0
 24
421.7320503094
 34
0.0
100
AcDbRotatedDimension
1001
ACAD
1000
DSTYLE
1002
{
1070
   270
1070
     2
1070
     6
1000
EX_NORM
1070
     7
1000
EX_NORM
1070
    41
1040
12.0
1070
    42
1040
6.0
1070
    44
1040
4.0
1070
    73
1070
     0
1070
    74
1070
     0
1070
    75
1070
     0
1070
    76
1070
     1
1070
    77
1070
     1
1070
    78
1070
     8
1070
   140
1040
13.85161662817552
1070
   147
1040
0.0
1070
   173
1070
     1
1070
   176
1070
     2
1070
   177
1070
     2
1070
   178
1070
     2
1070
   271
1070
     2
1070
   277
1070
     2
1070
   279
1070
     2
1070
   280
1070
     2
1070
   287
1070
     5
1070
   340
1005
113
1002
}
  0
DIMENSION
  5
12E
330
1F
100
AcDbEntity
  8
Ｓ_１_１
  6
CONTINUOUS
 62
     2
100
AcDbDimension
  2
*D17
 10
1325.0
 20
275.0
 30
0.0
 11
1110.0
 21
286.0
 31
0.0
 70
   160
  3
ISO-25
100
AcDbAlignedDimension
 13
895.0
 23
421.7320503094
 33
0.0
 14
1325.0
 24
369.500011
 34
0.0
100
AcDbRotatedDimension
1001
ACAD
1000
DSTYLE
1002
{
1070
   270
1070
     2
1070
     6
1000
EX_NORM
1070
     7
1000
EX_NORM
1070
    41
1040
12.0
1070
    42
1040
6.0
1070
    44
1040
4.0
1070
    73
1070
     0
1070
    74
1070
     0
1070
    75
1070
     0
1070
    76
1070
     0
1070
    77
1070
     1
1070
    78
1070
     8
1070
   140
1040
13.85161662817552
1070
   147
1040
0.0
1070
   173
1070
     1
1070
   176
1070
     2
1070
   177
1070
     2
1070
   178
1070
     2
1070
   271
1070
     2
1070
   277
1070
     2
1070
   279
1070
     2
1070
   280
1070
     0
1070
   287
1070
     5
1070
   340
1005
113
1002
}
  0
DIMENSION
  5
13B
330
1F
100
AcDbEntity
  8
Ｓ_１_１
  6
CONTINUOUS
 62
     2
100
AcDbDimension
  2
*D18
 10
825.0
 20
580.0000040000001
 30
0.0
 11
814.0
 21
500.0000060000001
 31
0.0
 70
   160
  1
%%c160
  3
ISO-25
100
AcDbAlignedDimension
 13
898.0
 23
420.0000080000001
 33
0.0
 14
898.0
 24
580.0000040000001
 34
0.0
 50
90.0
100
AcDbRotatedDimension
1001
ACAD
1000
DSTYLE
1002
{
1070
   270
1070
     2
1070
     6
1000
EX_NORM
1070
     7
1000
EX_NORM
1070
    41
1040
12.0
1070
    42
1040
6.0
1070
    44
1040
4.0
1070
    73
1070
     0
1070
    74
1070
     0
1070
    75
1070
     0
1070
    76
1070
     0
1070
    77
1070
     1
1070
    78
1070
     8
1070
   140
1040
13.85161662817552
1070
   147
1040
0.0
1070
   173
1070
     1
1070
   176
1070
     2
1070
   177
1070
     2
1070
   178
1070
     2
1070
   271
1070
     2
1070
   277
1070
     2
1070
   279
1070
     2
1070
   280
1070
     0
1070
   287
1070
     5
1070
   340
1005
113
1002
}
  0
DIMENSION
  5
148
330
1F
100
AcDbEntity
  8
Ｓ_１_１
  6
CONTINUOUS
 62
     2
100
AcDbDimension
  2
*D19
 10
1400.0
 20
632.5000040000001
 30
0.0
 11
1389.0
 21
500.0000040000001
 31
0.0
 70
   160
  1
%%c265
  3
ISO-25
100
AcDbAlignedDimension
 13
1323.000004
 23
367.5000040000001
 33
0.0
 14
1323.000004
 24
632.5000040000001
 34
0.0
 50
90.0
100
AcDbRotatedDimension
1001
ACAD
1000
DSTYLE
1002
{
1070
   270
1070
     2
1070
     6
1000
EX_NORM
1070
     7
1000
EX_NORM
1070
    41
1040
12.0
1070
    42
1040
6.0
1070
    44
1040
4.0
1070
    73
1070
     0
1070
    74
1070
     0
1070
    75
1070
     0
1070
    76
1070
     0
1070
    77
1070
     1
1070
    78
1070
     8
1070
   140
1040
13.85161662817552
1070
   147
1040
0.0
1070
   173
1070
     1
1070
   176
1070
     2
1070
   177
1070
     2
1070
   178
1070
     2
1070
   271
1070
     2
1070
   277
1070
     2
1070
   279
1070
     2
1070
   280
1070
     0
1070
   287
1070
     5
1070
   340
1005
113
1002
}
  0
DIMENSION
  5
155
330
1F
100
AcDbEntity
  8
Ｓ_１_１
  6
CONTINUOUS
 62
     2
100
AcDbDimension
  2
*D20
 10
664.500061
 20
775.0
 30
0.0
 11
475.000061
 21
786.0
 31
0.0
 70
   160
  3
ISO-25
100
AcDbAlignedDimension
 13
285.500061
 23
526.499996
 33
0.0
 14
664.500061
 24
526.499996
 34
0.0
100
AcDbRotatedDimension
1001
ACAD
1000
DSTYLE
1002
{
1070
   270
1070
     2
1070
     6
1000
EX_NORM
1070
     7
1000
EX_NORM
1070
    41
1040
12.0
1070
    42
1040
6.0
1070
    44
1040
4.0
1070
    73
1070
     0
1070
    74
1070
     0
1070
    75
1070
     0
1070
    76
1070
     0
1070
    77
1070
     1
1070
    78
1070
     8
1070
   140
1040
13.85161662817552
1070
   147
1040
0.0
1070
   173
1070
     1
1070
   176
1070
     2
1070
   177
1070
     2
1070
   178
1070
     2
1070
   271
1070
     2
1070
   277
1070
     2
1070
   279
1070
     2
1070
   280
1070
     0
1070
   287
1070
     5
1070
   340
1005
113
1002
}
  0
DIMENSION
  5
162
330
1F
100
AcDbEntity
  8
Ｓ_１_１
  6
CONTINUOUS
 62
     2
100
AcDbDimension
  2
*D21
 10
1400.0
 20
717.862278
 30
0.0
 11
1389.0
 21
675.181137000005
 31
0.0
 70
   160
  1
(85)
  3
ISO-25
100
AcDbAlignedDimension
 13
1323.000004
 23
632.49999600001
 33
0.0
 14
1167.000008
 24
717.862278
 34
0.0
 50
90.0
100
AcDbRotatedDimension
1001
ACAD
1000
DSTYLE
1002
{
1070
   270
1070
     2
1070
     6
1000
EX_NORM
1070
     7
1000
EX_NORM
1070
    41
1040
12.0
1070
    42
1040
6.0
1070
    44
1040
4.0
1070
    73
1070
     0
1070
    74
1070
     0
1070
    75
1070
     0
1070
    76
1070
     0
1070
    77
1070
     1
1070
    78
1070
     8
1070
   140
1040
13.85161662817552
1070
   147
1040
0.0
1070
   173
1070
     1
1070
   176
1070
     2
1070
   177
1070
     2
1070
   178
1070
     2
1070
   271
1070
     2
1070
   277
1070
     2
1070
   279
1070
     2
1070
   280
1070
     0
1070
   287
1070
     5
1070
   340
1005
113
1002
}
  0
ARC
  5
16F
330
1F
100
AcDbEntity
  8
Ｓ_１_１
  6
EXLTYPE2
 62
     1
100
AcDbCircle
 10
475.0
 20
500.0000000000001
 30
0.0
 40
19.999998
100
AcDbArc
 50
179.999991
 51
281.4745
  0
ARC
  5
170
330
1F
100
AcDbEntity
  8
Ｓ_１_１
  6
EXLTYPE2
 62
     1
100
AcDbCircle
 10
475.0
 20
500.0000000000001
 30
0.0
 40
39.999996
100
AcDbArc
 50
179.999991
 51
278.9783390000001
  0
ARC
  5
171
330
1F
100
AcDbEntity
  8
Ｓ_１_１
  6
EXLTYPE2
 62
     1
100
AcDbCircle
 10
475.0
 20
500.0000000000001
 30
0.0
 40
60.00000000000004
100
AcDbArc
 50
179.999991
 51
279.5810350000002
  0
ARC
  5
172
330
1F
100
AcDbEntity
  8
Ｓ_１_１
  6
EXLTYPE2
 62
     1
100
AcDbCircle
 10
475.0
 20
500.0000000000001
 30
0.0
 40
99.999992
100
AcDbArc
 50
179.999991
 51
277.221669
  0
ARC
  5
173
330
1F
100
AcDbEntity
  8
Ｓ_１_１
  6
EXLTYPE2
 62
     1
100
AcDbCircle
 10
475.0
 20
500.0000000000001
 30
0.0
 40
99.999992
100
AcDbArc
 50
83.92491800000003
 51
180.000005
  0
ARC
  5
174
330
1F
100
AcDbEntity
  8
Ｓ_１_１
  6
EXLTYPE2
 62
     1
100
AcDbCircle
 10
475.0
 20
500.0000000000001
 30
0.0
 40
60.00000000000004
100
AcDbArc
 50
80.07526000000003
 51
180.000005
  0
ARC
  5
175
330
1F
100
AcDbEntity
  8
Ｓ_１_１
  6
EXLTYPE2
 62
     1
100
AcDbCircle
 10
475.0
 20
500.0000000000001
 30
0.0
 40
39.999996
100
AcDbArc
 50
82.85702500000002
 51
180.000005
  0
ARC
  5
176
330
1F
100
AcDbEntity
  8
Ｓ_１_１
  6
EXLTYPE2
 62
     1
100
AcDbCircle
 10
475.0
 20
500.0000000000001
 30
0.0
 40
19.999998
100
AcDbArc
 50
72.26593500000004
 51
180.000005
  0
ARC
  5
177
330
1F
100
AcDbEntity
  8
Ｓ_１_１
  6
EXLTYPE2
 62
     1
100
AcDbCircle
 10
475.0
 20
500.0000000000001
 30
0.0
 40
19.999998
100
AcDbArc
 50
258.5254910000001
 51
0.0
  0
ARC
  5
178
330
1F
100
AcDbEntity
  8
Ｓ_１_１
  6
EXLTYPE2
 62
     1
100
AcDbCircle
 10
475.0
 20
500.0000000000001
 30
0.0
 40
39.999996
100
AcDbArc
 50
261.0216590000001
 51
0.0
  0
ARC
  5
179
330
1F
100
AcDbEntity
  8
Ｓ_１_１
  6
EXLTYPE2
 62
     1
100
AcDbCircle
 10
475.0
 20
500.0000000000001
 30
0.0
 40
60.00000000000004
100
AcDbArc
 50
260.4189770000002
 51
0.0
  0
ARC
  5
17A
330
1F
100
AcDbEntity
  8
Ｓ_１_１
  6
EXLTYPE2
 62
     1
100
AcDbCircle
 10
475.0
 20
500.0000000000001
 30
0.0
 40
99.999992
100
AcDbArc
 50
262.778336
 51
0.0
  0
ARC
  5
17B
330
1F
100
AcDbEntity
  8
Ｓ_１_１
  6
EXLTYPE2
 62
     1
100
AcDbCircle
 10
475.0
 20
500.0000000000001
 30
0.0
 40
99.999992
100
AcDbArc
 50
0.0
 51
96.07508000000001
  0
ARC
  5
17C
330
1F
100
AcDbEntity
  8
Ｓ_１_１
  6
EXLTYPE2
 62
     1
100
AcDbCircle
 10
475.0
 20
500.0000000000001
 30
0.0
 40
60.00000000000004
100
AcDbArc
 50
0.0
 51
99.924739
  0
ARC
  5
17D
330
1F
100
AcDbEntity
  8
Ｓ_１_１
  6
EXLTYPE2
 62
     1
100
AcDbCircle
 10
475.0
 20
500.0000000000001
 30
0.0
 40
39.999996
100
AcDbArc
 50
0.0
 51
97.14297300000001
  0
ARC
  5
17E
330
1F
100
AcDbEntity
  8
Ｓ_１_１
  6
EXLTYPE2
 62
     1
100
AcDbCircle
 10
475.0
 20
500.0000000000001
 30
0.0
 40
19.999998
100
AcDbArc
 50
0.0
 51
107.734063
  0
LINE
  5
17F
330
1F
100
AcDbEntity
  8
Ｓ_１_１
  6
EXLTYPE2
 62
     1
100
AcDbLine
 10
1155.000015
 20
721.4342080000001
 30
0.0
 11
1155.000015
 21
617.917759
 31
0.0
  0
LINE
  5
180
330
1F
100
AcDbEntity
  8
Ｓ_１_１
  6
EXLTYPE2
 62
     1
100
AcDbLine
 10
310.5
 20
535.98003
 30
0.0
 11
310.5
 21
463.8800360000001
 31
0.0
  0
LINE
  5
181
330
1F
100
AcDbEntity
  8
Ｓ_１_１
  6
EXLTYPE2
 62
     1
100
AcDbLine
 10
890.440186
 20
500.0000000000001
 30
0.0
 11
1335.290131
 21
500.0000000000001
 31
0.0
  0
LINE
  5
182
330
1F
100
AcDbEntity
  8
Ｓ_１_１
  6
EXLTYPE2
 62
     1
100
AcDbLine
 10
639.5
 20
535.98003
 30
0.0
 11
639.5
 21
463.8800360000001
 31
0.0
  0
LINE
  5
183
330
1F
100
AcDbEntity
  8
Ｓ_１_１
  6
EXLTYPE2
 62
     1
100
AcDbLine
 10
985.0
 20
538.1748010000001
 30
0.0
 11
985.0
 21
464.3044760000001
 31
0.0
  0
LINE
  5
184
330
1F
100
AcDbEntity
  8
Ｓ_１_１
  6
EXLTYPE0
 62
     2
100
AcDbLine
 10
285.500061
 20
498.0000040000001
 30
0.0
 11
303.500061
 21
498.0000040000001
 31
0.0
  0
LINE
  5
185
330
1F
100
AcDbEntity
  8
Ｓ_１_１
  6
EXLTYPE0
 62
     2
100
AcDbLine
 10
285.500061
 20
502.0000040000001
 30
0.0
 11
303.500061
 21
502.0000040000001
 31
0.0
  0
LINE
  5
186
330
1F
100
AcDbEntity
  8
Ｓ_１_１
  6
EXLTYPE0
 62
     2
100
AcDbLine
 10
285.500061
 20
497.0000000000001
 30
0.0
 11
303.500061
 21
497.0000000000001
 31
0.0
  0
LINE
  5
187
330
1F
100
AcDbEntity
  8
Ｓ_１_１
  6
EXLTYPE0
 62
     2
100
AcDbLine
 10
285.500061
 20
503.0000000000001
 30
0.0
 11
303.500061
 21
503.0000000000001
 31
0.0
  0
LINE
  5
188
330
1F
100
AcDbEntity
  8
Ｓ_１_１
  6
EXLTYPE0
 62
     2
100
AcDbLine
 10
317.5
 20
507.5000000000001
 30
0.0
 11
317.5
 21
492.5000000000001
 31
0.0
  0
LINE
  5
189
330
1F
100
AcDbEntity
  8
Ｓ_１_１
  6
EXLTYPE0
 62
     2
100
AcDbLine
 10
303.500061
 20
507.5000000000001
 30
0.0
 11
303.500061
 21
492.5000000000001
 31
0.0
  0
LINE
  5
18A
330
1F
100
AcDbEntity
  8
Ｓ_１_１
  6
EXLTYPE0
 62
     2
100
AcDbLine
 10
318.500061
 20
507.5000000000001
 30
0.0
 11
302.5
 21
507.5000000000001
 31
0.0
  0
LINE
  5
18B
330
1F
100
AcDbEntity
  8
Ｓ_１_１
  6
EXLTYPE0
 62
     2
100
AcDbLine
 10
318.500061
 20
512.5000040000001
 30
0.0
 11
318.500061
 21
507.5000000000001
 31
0.0
  0
LINE
  5
18C
330
1F
100
AcDbEntity
  8
Ｓ_１_１
  6
EXLTYPE0
 62
     2
100
AcDbLine
 10
318.500061
 20
526.4999960000001
 30
0.0
 11
318.500061
 21
514.5000000000001
 31
0.0
  0
LINE
  5
18D
330
1F
100
AcDbEntity
  8
Ｓ_１_１
  6
EXLTYPE0
 62
     2
100
AcDbLine
 10
318.500061
 20
487.5000040000001
 30
0.0
 11
318.500061
 21
492.5000000000001
 31
0.0
  0
LINE
  5
18E
330
1F
100
AcDbEntity
  8
Ｓ_１_１
  6
EXLTYPE0
 62
     2
100
AcDbLine
 10
318.500061
 20
473.5000040000001
 30
0.0
 11
318.500061
 21
485.5000040000001
 31
0.0
  0
LINE
  5
18F
330
1F
100
AcDbEntity
  8
Ｓ_１_１
  6
EXLTYPE0
 62
     2
100
AcDbLine
 10
302.5
 20
507.5000000000001
 30
0.0
 11
302.5
 21
512.5000040000001
 31
0.0
  0
LINE
  5
190
330
1F
100
AcDbEntity
  8
Ｓ_１_１
  6
EXLTYPE0
 62
     2
100
AcDbLine
 10
302.5
 20
487.5000040000001
 30
0.0
 11
302.5
 21
492.5000000000001
 31
0.0
  0
LINE
  5
191
330
1F
100
AcDbEntity
  8
Ｓ_１_１
  6
EXLTYPE0
 62
     2
100
AcDbLine
 10
302.5
 20
473.5000040000001
 30
0.0
 11
302.5
 21
485.5000040000001
 31
0.0
  0
LINE
  5
192
330
1F
100
AcDbEntity
  8
Ｓ_１_１
  6
EXLTYPE0
 62
     2
100
AcDbLine
 10
302.5
 20
526.4999960000001
 30
0.0
 11
302.5
 21
514.5000000000001
 31
0.0
  0
LINE
  5
193
330
1F
100
AcDbEntity
  8
Ｓ_１_１
  6
EXLTYPE0
 62
     2
100
AcDbLine
 10
318.500061
 20
492.5000000000001
 30
0.0
 11
302.5
 21
492.5000000000001
 31
0.0
  0
LINE
  5
194
330
1F
100
AcDbEntity
  8
Ｓ_１_１
  6
EXLTYPE0
 62
     2
100
AcDbLine
 10
978.0
 20
507.5000000000001
 30
0.0
 11
978.0
 21
500.0000000000001
 31
0.0
  0
LINE
  5
195
330
1F
100
AcDbEntity
  8
Ｓ_１_１
  6
EXLTYPE0
 62
     2
100
AcDbLine
 10
992.0000309999999
 20
507.5000000000001
 30
0.0
 11
992.0000309999999
 21
500.0000000000001
 31
0.0
  0
LINE
  5
196
330
1F
100
AcDbEntity
  8
Ｓ_１_１
  6
EXLTYPE0
 62
     2
100
AcDbLine
 10
977.000031
 20
507.5000000000001
 30
0.0
 11
993.0
 21
507.5000000000001
 31
0.0
  0
LINE
  5
197
330
1F
100
AcDbEntity
  8
Ｓ_１_１
  6
EXLTYPE0
 62
     2
100
AcDbLine
 10
977.000031
 20
512.5000040000001
 30
0.0
 11
977.000031
 21
507.5000000000001
 31
0.0
  0
LINE
  5
198
330
1F
100
AcDbEntity
  8
Ｓ_１_１
  6
EXLTYPE0
 62
     2
100
AcDbLine
 10
977.000031
 20
526.4999960000001
 30
0.0
 11
977.000031
 21
514.5000000000001
 31
0.0
  0
LINE
  5
199
330
1F
100
AcDbEntity
  8
Ｓ_１_１
  6
EXLTYPE0
 62
     2
100
AcDbLine
 10
993.0
 20
512.5000040000001
 30
0.0
 11
993.0
 21
507.5000000000001
 31
0.0
  0
LINE
  5
19A
330
1F
100
AcDbEntity
  8
Ｓ_１_１
  6
EXLTYPE0
 62
     2
100
AcDbLine
 10
993.0
 20
526.4999960000001
 30
0.0
 11
993.0
 21
514.5000000000001
 31
0.0
  0
LINE
  5
19B
330
1F
100
AcDbEntity
  8
Ｓ_１_１
  6
EXLTYPE0
 62
     2
100
AcDbLine
 10
664.500061
 20
498.0000040000001
 30
0.0
 11
646.500061
 21
498.0000040000001
 31
0.0
  0
LINE
  5
19C
330
1F
100
AcDbEntity
  8
Ｓ_１_１
  6
EXLTYPE0
 62
     2
100
AcDbLine
 10
664.500061
 20
502.0000040000001
 30
0.0
 11
646.500061
 21
502.0000040000001
 31
0.0
  0
LINE
  5
19D
330
1F
100
AcDbEntity
  8
Ｓ_１_１
  6
EXLTYPE0
 62
     2
100
AcDbLine
 10
664.500061
 20
497.0000000000001
 30
0.0
 11
646.500061
 21
497.0000000000001
 31
0.0
  0
LINE
  5
19E
330
1F
100
AcDbEntity
  8
Ｓ_１_１
  6
EXLTYPE0
 62
     2
100
AcDbLine
 10
664.500061
 20
503.0000000000001
 30
0.0
 11
646.500061
 21
503.0000000000001
 31
0.0
  0
LINE
  5
19F
330
1F
100
AcDbEntity
  8
Ｓ_１_１
  6
EXLTYPE0
 62
     2
100
AcDbLine
 10
632.5
 20
507.5000000000001
 30
0.0
 11
632.5
 21
492.5000000000001
 31
0.0
  0
LINE
  5
1A0
330
1F
100
AcDbEntity
  8
Ｓ_１_１
  6
EXLTYPE0
 62
     2
100
AcDbLine
 10
646.500061
 20
507.5000000000001
 30
0.0
 11
646.500061
 21
492.5000000000001
 31
0.0
  0
LINE
  5
1A1
330
1F
100
AcDbEntity
  8
Ｓ_１_１
  6
EXLTYPE0
 62
     2
100
AcDbLine
 10
631.500061
 20
507.5000000000001
 30
0.0
 11
647.5
 21
507.5000000000001
 31
0.0
  0
LINE
  5
1A2
330
1F
100
AcDbEntity
  8
Ｓ_１_１
  6
EXLTYPE0
 62
     2
100
AcDbLine
 10
631.500061
 20
512.5000040000001
 30
0.0
 11
631.500061
 21
507.5000000000001
 31
0.0
  0
LINE
  5
1A3
330
1F
100
AcDbEntity
  8
Ｓ_１_１
  6
EXLTYPE0
 62
     2
100
AcDbLine
 10
631.500061
 20
526.4999960000001
 30
0.0
 11
631.500061
 21
514.5000000000001
 31
0.0
  0
LINE
  5
1A4
330
1F
100
AcDbEntity
  8
Ｓ_１_１
  6
EXLTYPE0
 62
     2
100
AcDbLine
 10
631.500061
 20
487.5000040000001
 30
0.0
 11
631.500061
 21
492.5000000000001
 31
0.0
  0
LINE
  5
1A5
330
1F
100
AcDbEntity
  8
Ｓ_１_１
  6
EXLTYPE0
 62
     2
100
AcDbLine
 10
631.500061
 20
473.5000040000001
 30
0.0
 11
631.500061
 21
485.5000040000001
 31
0.0
  0
LINE
  5
1A6
330
1F
100
AcDbEntity
  8
Ｓ_１_１
  6
EXLTYPE0
 62
     2
100
AcDbLine
 10
647.5
 20
507.5000000000001
 30
0.0
 11
647.5
 21
512.5000040000001
 31
0.0
  0
LINE
  5
1A7
330
1F
100
AcDbEntity
  8
Ｓ_１_１
  6
EXLTYPE0
 62
     2
100
AcDbLine
 10
647.5
 20
487.5000040000001
 30
0.0
 11
647.5
 21
492.5000000000001
 31
0.0
  0
LINE
  5
1A8
330
1F
100
AcDbEntity
  8
Ｓ_１_１
  6
EXLTYPE0
 62
     2
100
AcDbLine
 10
647.5
 20
473.5000040000001
 30
0.0
 11
647.5
 21
485.5000040000001
 31
0.0
  0
LINE
  5
1A9
330
1F
100
AcDbEntity
  8
Ｓ_１_１
  6
EXLTYPE0
 62
     2
100
AcDbLine
 10
647.5
 20
526.4999960000001
 30
0.0
 11
647.5
 21
514.5000000000001
 31
0.0
  0
LINE
  5
1AA
330
1F
100
AcDbEntity
  8
Ｓ_１_１
  6
EXLTYPE0
 62
     2
100
AcDbLine
 10
631.500061
 20
492.5000000000001
 30
0.0
 11
647.5
 21
492.5000000000001
 31
0.0
  0
LINE
  5
1AB
330
1F
100
AcDbEntity
  8
Ｓ_１_１
  6
EXLTYPE0
 62
     2
100
AcDbLine
 10
978.0
 20
492.5000000000001
 30
0.0
 11
978.0
 21
500.0000000000001
 31
0.0
  0
LINE
  5
1AC
330
1F
100
AcDbEntity
  8
Ｓ_１_１
  6
EXLTYPE0
 62
     2
100
AcDbLine
 10
992.0000309999999
 20
492.5000000000001
 30
0.0
 11
992.0000309999999
 21
500.0000000000001
 31
0.0
  0
LINE
  5
1AD
330
1F
100
AcDbEntity
  8
Ｓ_１_１
  6
EXLTYPE0
 62
     2
100
AcDbLine
 10
977.000031
 20
492.5000000000001
 30
0.0
 11
993.0
 21
492.5000000000001
 31
0.0
  0
LINE
  5
1AE
330
1F
100
AcDbEntity
  8
Ｓ_１_１
  6
EXLTYPE0
 62
     2
100
AcDbLine
 10
977.000031
 20
487.5000040000001
 30
0.0
 11
977.000031
 21
492.5000000000001
 31
0.0
  0
LINE
  5
1AF
330
1F
100
AcDbEntity
  8
Ｓ_１_１
  6
EXLTYPE0
 62
     2
100
AcDbLine
 10
977.000031
 20
473.5000040000001
 30
0.0
 11
977.000031
 21
485.5000040000001
 31
0.0
  0
LINE
  5
1B0
330
1F
100
AcDbEntity
  8
Ｓ_１_１
  6
EXLTYPE0
 62
     2
100
AcDbLine
 10
993.0
 20
487.5000040000001
 30
0.0
 11
993.0
 21
492.5000000000001
 31
0.0
  0
LINE
  5
1B1
330
1F
100
AcDbEntity
  8
Ｓ_１_１
  6
EXLTYPE0
 62
     2
100
AcDbLine
 10
993.0
 20
473.5000040000001
 30
0.0
 11
993.0
 21
485.5000040000001
 31
0.0
  0
ARC
  5
1B2
330
1F
100
AcDbEntity
  8
Ｓ_１_１
  6
CONTINUOUS
 62
     3
100
AcDbCircle
 10
1155.000015
 20
645.9228250000001
 30
0.0
 40
21.93943800000001
100
AcDbArc
 50
76.82652799999998
 51
103.173491
  0
ARC
  5
1B3
330
1F
100
AcDbEntity
  8
Ｓ_１_１
  6
CONTINUOUS
 62
     3
100
AcDbCircle
 10
1155.000015
 20
677.3017010000001
 30
0.0
 40
21.93943800000001
100
AcDbArc
 50
256.8264750000001
 51
283.1734650000004
  0
ARC
  5
1B4
330
1F
100
AcDbEntity
  8
Ｓ_１_１
  6
CONTINUOUS
 62
     3
100
AcDbCircle
 10
1145.906723
 20
644.2295110000001
 30
0.0
 40
5.367246000000002
100
AcDbArc
 50
235.615862
 51
304.3841460000003
  0
ARC
  5
1B5
330
1F
100
AcDbEntity
  8
Ｓ_１_１
  6
CONTINUOUS
 62
     3
100
AcDbCircle
 10
1155.000015
 20
658.9244580000001
 30
0.0
 40
20.062197
100
AcDbArc
 50
252.4119940000001
 51
287.5878780000001
  0
ARC
  5
1B6
330
1F
100
AcDbEntity
  8
Ｓ_１_１
  6
CONTINUOUS
 62
     3
100
AcDbCircle
 10
1145.906723
 20
642.4950140000001
 30
0.0
 40
5.367246000000002
100
AcDbArc
 50
55.61579900000001
 51
124.384083
  0
ARC
  5
1B7
330
1F
100
AcDbEntity
  8
Ｓ_１_１
  6
CONTINUOUS
 62
     3
100
AcDbCircle
 10
1164.093292
 20
642.4950140000001
 30
0.0
 40
5.367246000000002
100
AcDbArc
 50
55.61588100000003
 51
124.384165
  0
ARC
  5
1B8
330
1F
100
AcDbEntity
  8
Ｓ_１_１
  6
CONTINUOUS
 62
     3
100
AcDbCircle
 10
1155.000015
 20
627.8000680000001
 30
0.0
 40
20.062197
100
AcDbArc
 50
72.41206700000001
 51
107.587951
  0
ARC
  5
1B9
330
1F
100
AcDbEntity
  8
Ｓ_１_１
  6
CONTINUOUS
 62
     3
100
AcDbCircle
 10
1164.093292
 20
644.2295110000001
 30
0.0
 40
5.367246000000002
100
AcDbArc
 50
235.61578
 51
304.384065
  0
ARC
  5
1BA
330
1F
100
AcDbEntity
  8
Ｓ_１_１
  6
CONTINUOUS
 62
     3
100
AcDbCircle
 10
475.0
 20
500.0000000000001
 30
0.0
 40
8.499999000000004
100
AcDbArc
 50
90.000016
 51
269.999973
  0
ARC
  5
1BB
330
1F
100
AcDbEntity
  8
Ｓ_１_１
  6
CONTINUOUS
 62
     3
100
AcDbCircle
 10
475.0
 20
500.0000000000001
 30
0.0
 40
9.999999
100
AcDbArc
 50
90.000016
 51
269.999973
  0
ARC
  5
1BC
330
1F
100
AcDbEntity
  8
Ｓ_１_１
  6
CONTINUOUS
 62
     3
100
AcDbCircle
 10
475.0
 20
500.0000000000001
 30
0.0
 40
142.5
100
AcDbArc
 50
169.2826050000001
 51
174.159797
  0
ARC
  5
1BD
330
1F
100
AcDbEntity
  8
Ｓ_１_１
  6
CONTINUOUS
 62
     3
100
AcDbCircle
 10
475.0
 20
500.0000000000001
 30
0.0
 40
142.5
100
AcDbArc
 50
185.840203
 51
190.7173810000001
  0
CIRCLE
  5
1BE
330
1F
100
AcDbEntity
  8
Ｓ_１_１
  6
CONTINUOUS
 62
     3
100
AcDbCircle
 10
375.0
 20
499.9999730000001
 30
0.0
 40
4.0
  0
CIRCLE
  5
1BF
330
1F
100
AcDbEntity
  8
Ｓ_１_１
  6
CONTINUOUS
 62
     3
100
AcDbCircle
 10
375.0
 20
499.9999730000001
 30
0.0
 40
3.000000000000002
  0
ARC
  5
1C0
330
1F
100
AcDbEntity
  8
Ｓ_１_１
  6
CONTINUOUS
 62
     3
100
AcDbCircle
 10
475.0
 20
500.0000000000001
 30
0.0
 40
61.999996
100
AcDbArc
 50
90.000016
 51
269.999973
  0
ARC
  5
1C1
330
1F
100
AcDbEntity
  8
Ｓ_１_１
  6
CONTINUOUS
 62
     3
100
AcDbCircle
 10
475.0
 20
500.0000000000001
 30
0.0
 40
58.00000000000004
100
AcDbArc
 50
90.000016
 51
269.999973
  0
ARC
  5
1C2
330
1F
100
AcDbEntity
  8
Ｓ_１_１
  6
CONTINUOUS
 62
     3
100
AcDbCircle
 10
475.0
 20
500.0000000000001
 30
0.0
 40
42.0
100
AcDbArc
 50
90.000016
 51
269.999973
  0
ARC
  5
1C3
330
1F
100
AcDbEntity
  8
Ｓ_１_１
  6
CONTINUOUS
 62
     3
100
AcDbCircle
 10
475.0
 20
500.0000000000001
 30
0.0
 40
38.0
100
AcDbArc
 50
90.000016
 51
269.999973
  0
ARC
  5
1C4
330
1F
100
AcDbEntity
  8
Ｓ_１_１
  6
CONTINUOUS
 62
     3
100
AcDbCircle
 10
475.0
 20
500.0000000000001
 30
0.0
 40
22.0
100
AcDbArc
 50
90.000016
 51
269.999973
  0
ARC
  5
1C5
330
1F
100
AcDbEntity
  8
Ｓ_１_１
  6
CONTINUOUS
 62
     3
100
AcDbCircle
 10
475.0
 20
500.0000000000001
 30
0.0
 40
18.0
100
AcDbArc
 50
90.000016
 51
269.999973
  0
ARC
  5
1C6
330
1F
100
AcDbEntity
  8
Ｓ_１_１
  6
CONTINUOUS
 62
     3
100
AcDbCircle
 10
475.0
 20
500.0000000000001
 30
0.0
 40
78.0
100
AcDbArc
 50
90.000016
 51
269.999973
  0
ARC
  5
1C7
330
1F
100
AcDbEntity
  8
Ｓ_１_１
  6
CONTINUOUS
 62
     3
100
AcDbCircle
 10
475.0
 20
500.0000000000001
 30
0.0
 40
79.999992
100
AcDbArc
 50
90.000016
 51
269.999973
  0
ARC
  5
1C8
330
1F
100
AcDbEntity
  8
Ｓ_１_１
  6
CONTINUOUS
 62
     3
100
AcDbCircle
 10
475.0
 20
500.0000000000001
 30
0.0
 40
107.499992
100
AcDbArc
 50
90.000016
 51
269.999973
  0
ARC
  5
1C9
330
1F
100
AcDbEntity
  8
Ｓ_１_１
  6
CONTINUOUS
 62
     3
100
AcDbCircle
 10
475.0
 20
500.0000000000001
 30
0.0
 40
110.0000000000001
100
AcDbArc
 50
90.000016
 51
269.999973
  0
ARC
  5
1CA
330
1F
100
AcDbEntity
  8
Ｓ_１_１
  6
CONTINUOUS
 62
     3
100
AcDbCircle
 10
475.0
 20
500.0000000000001
 30
0.0
 40
127.5000000000001
100
AcDbArc
 50
90.000016
 51
269.999973
  0
ARC
  5
1CB
330
1F
100
AcDbEntity
  8
Ｓ_１_１
  6
CONTINUOUS
 62
     3
100
AcDbCircle
 10
475.0
 20
500.0000000000001
 30
0.0
 40
132.5
100
AcDbArc
 50
90.000016
 51
269.999973
  0
ARC
  5
1CC
330
1F
100
AcDbEntity
  8
Ｓ_１_１
  6
CONTINUOUS
 62
     3
100
AcDbCircle
 10
985.0
 20
500.0000000000001
 30
0.0
 40
2.0
100
AcDbArc
 50
0.0
 51
180.0000190000001
  0
ARC
  5
1CD
330
1F
100
AcDbEntity
  8
Ｓ_１_１
  6
CONTINUOUS
 62
     3
100
AcDbCircle
 10
985.0
 20
500.0000000000001
 30
0.0
 40
3.000000000000002
100
AcDbArc
 50
0.0
 51
180.0000190000001
  0
ARC
  5
1CE
330
1F
100
AcDbEntity
  8
Ｓ_１_１
  6
CONTINUOUS
 62
     3
100
AcDbCircle
 10
475.0
 20
500.0000000000001
 30
0.0
 40
8.499999000000004
100
AcDbArc
 50
270.0000180000001
 51
89.99998199999999
  0
ARC
  5
1CF
330
1F
100
AcDbEntity
  8
Ｓ_１_１
  6
CONTINUOUS
 62
     3
100
AcDbCircle
 10
475.0
 20
500.0000000000001
 30
0.0
 40
9.999999
100
AcDbArc
 50
270.0000180000001
 51
89.99998199999999
  0
ARC
  5
1D0
330
1F
100
AcDbEntity
  8
Ｓ_１_１
  6
CONTINUOUS
 62
     3
100
AcDbCircle
 10
475.0
 20
500.0000000000001
 30
0.0
 40
142.5
100
AcDbArc
 50
5.840204000000004
 51
10.71739399999999
  0
ARC
  5
1D1
330
1F
100
AcDbEntity
  8
Ｓ_１_１
  6
CONTINUOUS
 62
     3
100
AcDbCircle
 10
475.0
 20
500.0000000000001
 30
0.0
 40
142.5
100
AcDbArc
 50
349.282614
 51
354.159796
  0
CIRCLE
  5
1D2
330
1F
100
AcDbEntity
  8
Ｓ_１_１
  6
CONTINUOUS
 62
     3
100
AcDbCircle
 10
475.000061
 20
600.0000040000001
 30
0.0
 40
4.0
  0
CIRCLE
  5
1D3
330
1F
100
AcDbEntity
  8
Ｓ_１_１
  6
CONTINUOUS
 62
     3
100
AcDbCircle
 10
575.0
 20
499.9999730000001
 30
0.0
 40
4.0
  0
CIRCLE
  5
1D4
330
1F
100
AcDbEntity
  8
Ｓ_１_１
  6
CONTINUOUS
 62
     3
100
AcDbCircle
 10
475.0
 20
400.0000040000001
 30
0.0
 40
4.0
  0
CIRCLE
  5
1D5
330
1F
100
AcDbEntity
  8
Ｓ_１_１
  6
CONTINUOUS
 62
     3
100
AcDbCircle
 10
475.0
 20
400.0000040000001
 30
0.0
 40
3.000000000000002
  0
CIRCLE
  5
1D6
330
1F
100
AcDbEntity
  8
Ｓ_１_１
  6
CONTINUOUS
 62
     3
100
AcDbCircle
 10
575.0
 20
499.9999730000001
 30
0.0
 40
3.000000000000002
  0
CIRCLE
  5
1D7
330
1F
100
AcDbEntity
  8
Ｓ_１_１
  6
CONTINUOUS
 62
     3
100
AcDbCircle
 10
475.000061
 20
600.0000040000001
 30
0.0
 40
3.000000000000002
  0
ARC
  5
1D8
330
1F
100
AcDbEntity
  8
Ｓ_１_１
  6
CONTINUOUS
 62
     3
100
AcDbCircle
 10
475.0
 20
500.0000000000001
 30
0.0
 40
61.999996
100
AcDbArc
 50
270.0000180000001
 51
89.99998199999999
  0
ARC
  5
1D9
330
1F
100
AcDbEntity
  8
Ｓ_１_１
  6
CONTINUOUS
 62
     3
100
AcDbCircle
 10
475.0
 20
500.0000000000001
 30
0.0
 40
58.00000000000004
100
AcDbArc
 50
270.0000180000001
 51
89.99998199999999
  0
ARC
  5
1DA
330
1F
100
AcDbEntity
  8
Ｓ_１_１
  6
CONTINUOUS
 62
     3
100
AcDbCircle
 10
475.0
 20
500.0000000000001
 30
0.0
 40
42.0
100
AcDbArc
 50
270.0000180000001
 51
89.99998199999999
  0
ARC
  5
1DB
330
1F
100
AcDbEntity
  8
Ｓ_１_１
  6
CONTINUOUS
 62
     3
100
AcDbCircle
 10
475.0
 20
500.0000000000001
 30
0.0
 40
38.0
100
AcDbArc
 50
270.0000180000001
 51
89.99998199999999
  0
ARC
  5
1DC
330
1F
100
AcDbEntity
  8
Ｓ_１_１
  6
CONTINUOUS
 62
     3
100
AcDbCircle
 10
475.0
 20
500.0000000000001
 30
0.0
 40
22.0
100
AcDbArc
 50
270.0000180000001
 51
89.99998199999999
  0
ARC
  5
1DD
330
1F
100
AcDbEntity
  8
Ｓ_１_１
  6
CONTINUOUS
 62
     3
100
AcDbCircle
 10
475.0
 20
500.0000000000001
 30
0.0
 40
18.0
100
AcDbArc
 50
270.0000180000001
 51
89.99998199999999
  0
ARC
  5
1DE
330
1F
100
AcDbEntity
  8
Ｓ_１_１
  6
CONTINUOUS
 62
     3
100
AcDbCircle
 10
475.0
 20
500.0000000000001
 30
0.0
 40
78.0
100
AcDbArc
 50
270.0000180000001
 51
89.99998199999999
  0
ARC
  5
1DF
330
1F
100
AcDbEntity
  8
Ｓ_１_１
  6
CONTINUOUS
 62
     3
100
AcDbCircle
 10
475.0
 20
500.0000000000001
 30
0.0
 40
79.999992
100
AcDbArc
 50
270.0000180000001
 51
89.99998199999999
  0
ARC
  5
1E0
330
1F
100
AcDbEntity
  8
Ｓ_１_１
  6
CONTINUOUS
 62
     3
100
AcDbCircle
 10
475.0
 20
500.0000000000001
 30
0.0
 40
107.499992
100
AcDbArc
 50
270.0000180000001
 51
89.99998199999999
  0
ARC
  5
1E1
330
1F
100
AcDbEntity
  8
Ｓ_１_１
  6
CONTINUOUS
 62
     3
100
AcDbCircle
 10
475.0
 20
500.0000000000001
 30
0.0
 40
110.0000000000001
100
AcDbArc
 50
270.0000180000001
 51
89.99998199999999
  0
ARC
  5
1E2
330
1F
100
AcDbEntity
  8
Ｓ_１_１
  6
CONTINUOUS
 62
     3
100
AcDbCircle
 10
475.0
 20
500.0000000000001
 30
0.0
 40
127.5000000000001
100
AcDbArc
 50
270.0000180000001
 51
89.99998199999999
  0
ARC
  5
1E3
330
1F
100
AcDbEntity
  8
Ｓ_１_１
  6
CONTINUOUS
 62
     3
100
AcDbCircle
 10
475.0
 20
500.0000000000001
 30
0.0
 40
132.5
100
AcDbArc
 50
270.0000180000001
 51
89.99998199999999
  0
ARC
  5
1E4
330
1F
100
AcDbEntity
  8
Ｓ_１_１
  6
CONTINUOUS
 62
     3
100
AcDbCircle
 10
985.0
 20
500.0000000000001
 30
0.0
 40
2.0
100
AcDbArc
 50
179.9999780000001
 51
0.0
  0
ARC
  5
1E5
330
1F
100
AcDbEntity
  8
Ｓ_１_１
  6
CONTINUOUS
 62
     3
100
AcDbCircle
 10
985.0
 20
500.0000000000001
 30
0.0
 40
3.000000000000002
100
AcDbArc
 50
179.9999780000001
 51
0.0
  0
LINE
  5
1E6
330
1F
100
AcDbEntity
  8
Ｓ_１_１
  6
CONTINUOUS
 62
     3
100
AcDbLine
 10
1143.0
 20
655.3622630000001
 30
0.0
 11
1167.000008
 21
655.3622630000001
 31
0.0
  0
LINE
  5
1E7
330
1F
100
AcDbEntity
  8
Ｓ_１_１
  6
CONTINUOUS
 62
     3
100
AcDbLine
 10
1160.000008
 20
655.9396100000001
 30
0.0
 11
1168.000008
 21
655.9396100000001
 31
0.0
  0
LINE
  5
1E8
330
1F
100
AcDbEntity
  8
Ｓ_１_１
  6
CONTINUOUS
 62
     3
100
AcDbLine
 10
1160.000008
 20
667.2849160000001
 30
0.0
 11
1168.000008
 21
667.2849160000001
 31
0.0
  0
LINE
  5
1E9
330
1F
100
AcDbEntity
  8
Ｓ_１_１
  6
CONTINUOUS
 62
     3
100
AcDbLine
 10
1142.000015
 20
655.9396100000001
 30
0.0
 11
1150.000015
 21
655.9396100000001
 31
0.0
  0
LINE
  5
1EA
330
1F
100
AcDbEntity
  8
Ｓ_１_１
  6
CONTINUOUS
 62
     3
100
AcDbLine
 10
1142.000015
 20
667.2849160000001
 30
0.0
 11
1150.000015
 21
667.2849160000001
 31
0.0
  0
LINE
  5
1EB
330
1F
100
AcDbEntity
  8
Ｓ_１_１
  6
CONTINUOUS
 62
     3
100
AcDbLine
 10
1142.000015
 20
683.4396100000001
 30
0.0
 11
1168.000008
 21
683.4396100000001
 31
0.0
  0
LINE
  5
1EC
330
1F
100
AcDbEntity
  8
Ｓ_１_１
  6
CONTINUOUS
 62
     3
100
AcDbLine
 10
1142.000007
 20
683.4396130000001
 30
0.0
 11
1143.000014
 21
682.8622580000001
 31
0.0
  0
LINE
  5
1ED
330
1F
100
AcDbEntity
  8
Ｓ_１_１
  6
CONTINUOUS
 62
     3
100
AcDbLine
 10
1167.000009
 20
667.8622550000001
 30
0.0
 11
1168.000016
 21
667.2849000000001
 31
0.0
  0
LINE
  5
1EE
330
1F
100
AcDbEntity
  8
Ｓ_１_１
  6
CONTINUOUS
 62
     3
100
AcDbLine
 10
1142.000004
 20
655.9396080000001
 30
0.0
 11
1142.999998
 21
655.3622610000001
 31
0.0
  0
LINE
  5
1EF
330
1F
100
AcDbEntity
  8
Ｓ_１_１
  6
CONTINUOUS
 62
     3
100
AcDbLine
 10
1167.000006
 20
682.8622680000001
 30
0.0
 11
1168.0
 21
683.4396150000001
 31
0.0
  0
LINE
  5
1F0
330
1F
100
AcDbEntity
  8
Ｓ_１_１
  6
CONTINUOUS
 62
     3
100
AcDbLine
 10
1142.00001
 20
667.2849130000001
 30
0.0
 11
1143.000004
 21
667.8622600000001
 31
0.0
  0
LINE
  5
1F1
330
1F
100
AcDbEntity
  8
Ｓ_１_１
  6
CONTINUOUS
 62
     3
100
AcDbLine
 10
1167.000007
 20
655.3622620000001
 30
0.0
 11
1168.000008
 21
655.9396130000001
 31
0.0
  0
LINE
  5
1F2
330
1F
100
AcDbEntity
  8
Ｓ_１_１
  6
CONTINUOUS
 62
     3
100
AcDbLine
 10
1160.000008
 20
667.2849160000001
 30
0.0
 11
1160.000008
 21
655.9396100000001
 31
0.0
  0
LINE
  5
1F3
330
1F
100
AcDbEntity
  8
Ｓ_１_１
  6
CONTINUOUS
 62
     3
100
AcDbLine
 10
1150.000015
 20
667.2849160000001
 30
0.0
 11
1150.000015
 21
655.9396100000001
 31
0.0
  0
LINE
  5
1F4
330
1F
100
AcDbEntity
  8
Ｓ_１_１
  6
CONTINUOUS
 62
     3
100
AcDbLine
 10
1156.750002
 20
691.0439960000001
 30
0.0
 11
1156.854922
 21
690.8622710000001
 31
0.0
  0
LINE
  5
1F5
330
1F
100
AcDbEntity
  8
Ｓ_１_１
  6
CONTINUOUS
 62
     3
100
AcDbLine
 10
1156.750015
 20
690.8622630000001
 30
0.0
 11
1171.000008
 21
690.8622630000001
 31
0.0
  0
LINE
  5
1F6
330
1F
100
AcDbEntity
  8
Ｓ_１_１
  6
CONTINUOUS
 62
     3
100
AcDbLine
 10
1156.750015
 20
690.3622630000001
 30
0.0
 11
1170.500008
 21
690.3622630000001
 31
0.0
  0
LINE
  5
1F7
330
1F
100
AcDbEntity
  8
Ｓ_１_１
  6
CONTINUOUS
 62
     3
100
AcDbLine
 10
1153.250015
 20
693.8622630000001
 30
0.0
 11
1156.750015
 21
693.8622630000001
 31
0.0
  0
LINE
  5
1F8
330
1F
100
AcDbEntity
  8
Ｓ_１_１
  6
CONTINUOUS
 62
     3
100
AcDbLine
 10
1153.250015
 20
693.8622630000001
 30
0.0
 11
1153.250015
 21
690.3622630000001
 31
0.0
  0
LINE
  5
1F9
330
1F
100
AcDbEntity
  8
Ｓ_１_１
  6
CONTINUOUS
 62
     3
100
AcDbLine
 10
1156.750015
 20
693.8622630000001
 30
0.0
 11
1156.750015
 21
690.3622630000001
 31
0.0
  0
LINE
  5
1FA
330
1F
100
AcDbEntity
  8
Ｓ_１_１
  6
CONTINUOUS
 62
     3
100
AcDbLine
 10
1139.500002
 20
687.8622700000001
 30
0.0
 11
1140.000014
 21
687.3622590000001
 31
0.0
  0
LINE
  5
1FB
330
1F
100
AcDbEntity
  8
Ｓ_１_１
  6
CONTINUOUS
 62
     3
100
AcDbLine
 10
1139.500013
 20
688.8622600000001
 30
0.0
 11
1140.000014
 21
689.3622610000001
 31
0.0
  0
LINE
  5
1FC
330
1F
100
AcDbEntity
  8
Ｓ_１_１
  6
CONTINUOUS
 62
     3
100
AcDbLine
 10
1170.000016
 20
687.3622720000001
 30
0.0
 11
1170.500006
 21
687.8622620000001
 31
0.0
  0
LINE
  5
1FD
330
1F
100
AcDbEntity
  8
Ｓ_１_１
  6
CONTINUOUS
 62
     3
100
AcDbLine
 10
1170.000005
 20
689.3622630000001
 30
0.0
 11
1170.500006
 21
688.8622630000001
 31
0.0
  0
LINE
  5
1FE
330
1F
100
AcDbEntity
  8
Ｓ_１_１
  6
CONTINUOUS
 62
     3
100
AcDbLine
 10
1168.000008
 20
687.3622630000001
 30
0.0
 11
1170.000008
 21
687.3622630000001
 31
0.0
  0
LINE
  5
1FF
330
1F
100
AcDbEntity
  8
Ｓ_１_１
  6
CONTINUOUS
 62
     3
100
AcDbLine
 10
1168.000008
 20
689.3622630000001
 30
0.0
 11
1170.000008
 21
689.3622630000001
 31
0.0
  0
LINE
  5
200
330
1F
100
AcDbEntity
  8
Ｓ_１_１
  6
CONTINUOUS
 62
     3
100
AcDbLine
 10
1140.000015
 20
689.3622630000001
 30
0.0
 11
1142.000015
 21
689.3622630000001
 31
0.0
  0
LINE
  5
201
330
1F
100
AcDbEntity
  8
Ｓ_１_１
  6
CONTINUOUS
 62
     3
100
AcDbLine
 10
1140.000015
 20
687.3622630000001
 30
0.0
 11
1142.000015
 21
687.3622630000001
 31
0.0
  0
LINE
  5
202
330
1F
100
AcDbEntity
  8
Ｓ_１_１
  6
CONTINUOUS
 62
     3
100
AcDbLine
 10
1139.500015
 20
688.8622630000001
 30
0.0
 11
1139.500015
 21
687.8622630000001
 31
0.0
  0
LINE
  5
203
330
1F
100
AcDbEntity
  8
Ｓ_１_１
  6
CONTINUOUS
 62
     3
100
AcDbLine
 10
1170.500008
 20
688.8622630000001
 30
0.0
 11
1170.500008
 21
687.8622630000001
 31
0.0
  0
LINE
  5
204
330
1F
100
AcDbEntity
  8
Ｓ_１_１
  6
CONTINUOUS
 62
     3
100
AcDbLine
 10
1153.145097
 20
690.8622650000001
 30
0.0
 11
1153.250025
 21
691.0440040000001
 31
0.0
  0
LINE
  5
205
330
1F
100
AcDbEntity
  8
Ｓ_１_１
  6
CONTINUOUS
 62
     3
100
AcDbLine
 10
1139.000015
 20
714.3622630000001
 30
0.0
 11
1171.000008
 21
714.3622630000001
 31
0.0
  0
LINE
  5
206
330
1F
100
AcDbEntity
  8
Ｓ_１_１
  6
CONTINUOUS
 62
     3
100
AcDbLine
 10
1139.000015
 20
706.8622630000001
 30
0.0
 11
1171.000008
 21
706.8622630000001
 31
0.0
  0
LINE
  5
207
330
1F
100
AcDbEntity
  8
Ｓ_１_１
  6
CONTINUOUS
 62
     3
100
AcDbLine
 10
1139.000015
 20
690.8622630000001
 30
0.0
 11
1153.250015
 21
690.8622630000001
 31
0.0
  0
LINE
  5
208
330
1F
100
AcDbEntity
  8
Ｓ_１_１
  6
CONTINUOUS
 62
     3
100
AcDbLine
 10
1171.000008
 20
697.8622630000001
 30
0.0
 11
1139.000015
 21
697.8622630000001
 31
0.0
  0
LINE
  5
209
330
1F
100
AcDbEntity
  8
Ｓ_１_１
  6
CONTINUOUS
 62
     3
100
AcDbLine
 10
1170.500005
 20
690.3622690000001
 30
0.0
 11
1171.000005
 21
690.8622700000001
 31
0.0
  0
LINE
  5
20A
330
1F
100
AcDbEntity
  8
Ｓ_１_１
  6
CONTINUOUS
 62
     3
100
AcDbLine
 10
1139.000016
 20
690.8622590000001
 30
0.0
 11
1139.500006
 21
690.3622690000001
 31
0.0
  0
LINE
  5
20B
330
1F
100
AcDbEntity
  8
Ｓ_１_１
  6
CONTINUOUS
 62
     3
100
AcDbLine
 10
1171.000008
 20
697.8622630000001
 30
0.0
 11
1171.000008
 21
690.8622630000001
 31
0.0
  0
LINE
  5
20C
330
1F
100
AcDbEntity
  8
Ｓ_１_１
  6
CONTINUOUS
 62
     3
100
AcDbLine
 10
1139.000015
 20
697.8622630000001
 30
0.0
 11
1139.000015
 21
690.8622630000001
 31
0.0
  0
LINE
  5
20D
330
1F
100
AcDbEntity
  8
Ｓ_１_１
  6
CONTINUOUS
 62
     3
100
AcDbLine
 10
1139.000005
 20
706.8622650000001
 30
0.0
 11
1139.500016
 21
706.3622540000001
 31
0.0
  0
LINE
  5
20E
330
1F
100
AcDbEntity
  8
Ｓ_１_１
  6
CONTINUOUS
 62
     3
100
AcDbLine
 10
1170.500007
 20
698.3622680000001
 30
0.0
 11
1171.000007
 21
697.8622680000001
 31
0.0
  0
LINE
  5
20F
330
1F
100
AcDbEntity
  8
Ｓ_１_１
  6
CONTINUOUS
 62
     3
100
AcDbLine
 10
1170.500006
 20
706.3622650000001
 30
0.0
 11
1171.000006
 21
706.8622660000001
 31
0.0
  0
LINE
  5
210
330
1F
100
AcDbEntity
  8
Ｓ_１_１
  6
CONTINUOUS
 62
     3
100
AcDbLine
 10
1139.000004
 20
697.8622680000001
 30
0.0
 11
1139.500004
 21
698.3622690000001
 31
0.0
  0
LINE
  5
211
330
1F
100
AcDbEntity
  8
Ｓ_１_１
  6
CONTINUOUS
 62
     3
100
AcDbLine
 10
1139.500015
 20
706.3622630000001
 30
0.0
 11
1170.500008
 21
706.3622630000001
 31
0.0
  0
LINE
  5
212
330
1F
100
AcDbEntity
  8
Ｓ_１_１
  6
CONTINUOUS
 62
     3
100
AcDbLine
 10
1139.500015
 20
698.3622630000001
 30
0.0
 11
1170.500008
 21
698.3622630000001
 31
0.0
  0
LINE
  5
213
330
1F
100
AcDbEntity
  8
Ｓ_１_１
  6
CONTINUOUS
 62
     3
100
AcDbLine
 10
1170.500008
 20
706.3622630000001
 30
0.0
 11
1170.500008
 21
698.3622630000001
 31
0.0
  0
LINE
  5
214
330
1F
100
AcDbEntity
  8
Ｓ_１_１
  6
CONTINUOUS
 62
     3
100
AcDbLine
 10
1139.500015
 20
706.3622630000001
 30
0.0
 11
1139.500015
 21
698.3622630000001
 31
0.0
  0
LINE
  5
215
330
1F
100
AcDbEntity
  8
Ｓ_１_１
  6
CONTINUOUS
 62
     3
100
AcDbLine
 10
1168.000019
 20
717.3622670000001
 30
0.0
 11
1171.000001
 21
714.362285
 31
0.0
  0
LINE
  5
216
330
1F
100
AcDbEntity
  8
Ｓ_１_１
  6
CONTINUOUS
 62
     3
100
AcDbLine
 10
1142.000008
 20
717.362283
 30
0.0
 11
1139.000015
 21
714.3622900000001
 31
0.0
  0
LINE
  5
217
330
1F
100
AcDbEntity
  8
Ｓ_１_１
  6
CONTINUOUS
 62
     3
100
AcDbLine
 10
1143.000015
 20
682.8622630000001
 30
0.0
 11
1143.000015
 21
667.8622630000001
 31
0.0
  0
LINE
  5
218
330
1F
100
AcDbEntity
  8
Ｓ_１_１
  6
CONTINUOUS
 62
     3
100
AcDbLine
 10
1167.000008
 20
682.8622630000001
 30
0.0
 11
1167.000008
 21
667.8622630000001
 31
0.0
  0
LINE
  5
219
330
1F
100
AcDbEntity
  8
Ｓ_１_１
  6
CONTINUOUS
 62
     3
100
AcDbLine
 10
1142.000015
 20
717.3622780000002
 30
0.0
 11
1168.000008
 21
717.3622780000002
 31
0.0
  0
LINE
  5
21A
330
1F
100
AcDbEntity
  8
Ｓ_１_１
  6
CONTINUOUS
 62
     3
100
AcDbLine
 10
1171.000008
 20
714.3622630000001
 30
0.0
 11
1171.000008
 21
706.8622630000001
 31
0.0
  0
LINE
  5
21B
330
1F
100
AcDbEntity
  8
Ｓ_１_１
  6
CONTINUOUS
 62
     3
100
AcDbLine
 10
1139.000015
 20
714.3622630000001
 30
0.0
 11
1139.000015
 21
706.8622630000001
 31
0.0
  0
LINE
  5
21C
330
1F
100
AcDbEntity
  8
Ｓ_１_１
  6
CONTINUOUS
 62
     3
100
AcDbLine
 10
1168.000008
 20
667.2849010000001
 30
0.0
 11
1168.000008
 21
655.9396100000001
 31
0.0
  0
LINE
  5
21D
330
1F
100
AcDbEntity
  8
Ｓ_１_１
  6
CONTINUOUS
 62
     3
100
AcDbLine
 10
1142.000015
 20
667.2849160000001
 30
0.0
 11
1142.000015
 21
655.9396100000001
 31
0.0
  0
LINE
  5
21E
330
1F
100
AcDbEntity
  8
Ｓ_１_１
  6
CONTINUOUS
 62
     3
100
AcDbLine
 10
1167.000008
 20
717.8622780000002
 30
0.0
 11
1167.000008
 21
717.3622780000002
 31
0.0
  0
LINE
  5
21F
330
1F
100
AcDbEntity
  8
Ｓ_１_１
  6
CONTINUOUS
 62
     3
100
AcDbLine
 10
1143.000015
 20
717.8622780000002
 30
0.0
 11
1143.000015
 21
717.3622780000002
 31
0.0
  0
LINE
  5
220
330
1F
100
AcDbEntity
  8
Ｓ_１_１
  6
CONTINUOUS
 62
     3
100
AcDbLine
 10
1142.000015
 20
690.3622630000001
 30
0.0
 11
1142.000015
 21
683.4396100000001
 31
0.0
  0
LINE
  5
221
330
1F
100
AcDbEntity
  8
Ｓ_１_１
  6
CONTINUOUS
 62
     3
100
AcDbLine
 10
1168.000008
 20
690.3622630000001
 30
0.0
 11
1168.000008
 21
683.4396100000001
 31
0.0
  0
LINE
  5
222
330
1F
100
AcDbEntity
  8
Ｓ_１_１
  6
CONTINUOUS
 62
     3
100
AcDbLine
 10
1139.500015
 20
690.3622630000001
 30
0.0
 11
1153.250015
 21
690.3622630000001
 31
0.0
  0
LINE
  5
223
330
1F
100
AcDbEntity
  8
Ｓ_１_１
  6
CONTINUOUS
 62
     3
100
AcDbLine
 10
1143.000015
 20
682.8622630000001
 30
0.0
 11
1167.000008
 21
682.8622630000001
 31
0.0
  0
LINE
  5
224
330
1F
100
AcDbEntity
  8
Ｓ_１_１
  6
CONTINUOUS
 62
     3
100
AcDbLine
 10
1143.0
 20
667.8622630000001
 30
0.0
 11
1167.0
 21
667.8622630000001
 31
0.0
  0
LINE
  5
225
330
1F
100
AcDbEntity
  8
Ｓ_１_１
  6
CONTINUOUS
 62
     3
100
AcDbLine
 10
1143.000015
 20
717.8622780000002
 30
0.0
 11
1167.000008
 21
717.8622780000002
 31
0.0
  0
LINE
  5
226
330
1F
100
AcDbEntity
  8
Ｓ_１_１
  6
CONTINUOUS
 62
     3
100
AcDbLine
 10
1147.820126
 20
655.3622760000001
 30
0.0
 11
1147.436517
 21
649.2245330000001
 31
0.0
  0
LINE
  5
227
330
1F
100
AcDbEntity
  8
Ｓ_１_１
  6
CONTINUOUS
 62
     3
100
AcDbLine
 10
1146.650015
 20
647.8622660000001
 30
0.0
 11
1147.436522
 21
649.2245350000002
 31
0.0
  0
LINE
  5
228
330
1F
100
AcDbEntity
  8
Ｓ_１_１
  6
CONTINUOUS
 62
     3
100
AcDbLine
 10
1147.118763
 20
655.3622790000001
 30
0.0
 11
1146.650012
 21
647.8622500000001
 31
0.0
  0
LINE
  5
229
330
1F
100
AcDbEntity
  8
Ｓ_１_１
  6
CONTINUOUS
 62
     3
100
AcDbLine
 10
1162.563498
 20
649.2245410000002
 30
0.0
 11
1163.350012
 21
647.8622590000001
 31
0.0
  0
LINE
  5
22A
330
1F
100
AcDbEntity
  8
Ｓ_１_１
  6
CONTINUOUS
 62
     3
100
AcDbLine
 10
1162.881263
 20
655.3622640000001
 30
0.0
 11
1163.350013
 21
647.8622650000001
 31
0.0
  0
LINE
  5
22B
330
1F
100
AcDbEntity
  8
Ｓ_１_１
  6
CONTINUOUS
 62
     3
100
AcDbLine
 10
1162.179893
 20
655.3622610000001
 30
0.0
 11
1162.563501
 21
649.2245330000001
 31
0.0
  0
LINE
  5
22C
330
1F
100
AcDbEntity
  8
Ｓ_１_１
  6
CONTINUOUS
 62
     3
100
AcDbLine
 10
1146.735153
 20
649.2245370000002
 30
0.0
 11
1163.264862
 21
649.2245370000002
 31
0.0
  0
LINE
  5
22D
330
1F
100
AcDbEntity
  8
Ｓ_１_１
  6
CONTINUOUS
 62
     3
100
AcDbLine
 10
1162.563498
 20
637.4999940000001
 30
0.0
 11
1163.350008
 21
638.8622700000001
 31
0.0
  0
LINE
  5
22E
330
1F
100
AcDbEntity
  8
Ｓ_１_１
  6
CONTINUOUS
 62
     3
100
AcDbLine
 10
1162.952371
 20
632.5000050000001
 30
0.0
 11
1163.350012
 21
638.8622710000001
 31
0.0
  0
LINE
  5
22F
330
1F
100
AcDbEntity
  8
Ｓ_１_１
  6
CONTINUOUS
 62
     3
100
AcDbLine
 10
1162.250992
 20
632.4999940000001
 30
0.0
 11
1162.563491
 21
637.4999880000001
 31
0.0
  0
LINE
  5
230
330
1F
100
AcDbEntity
  8
Ｓ_１_１
  6
CONTINUOUS
 62
     3
100
AcDbLine
 10
1146.650011
 20
638.8622760000001
 30
0.0
 11
1147.436517
 21
637.5000060000001
 31
0.0
  0
LINE
  5
231
330
1F
100
AcDbEntity
  8
Ｓ_１_１
  6
CONTINUOUS
 62
     3
100
AcDbLine
 10
1146.735153
 20
637.5000040000001
 30
0.0
 11
1163.264862
 21
637.5000040000001
 31
0.0
  0
LINE
  5
232
330
1F
100
AcDbEntity
  8
Ｓ_１_１
  6
CONTINUOUS
 62
     3
100
AcDbLine
 10
1147.047655
 20
632.5000060000001
 30
0.0
 11
1146.650014
 21
638.8622710000001
 31
0.0
  0
LINE
  5
233
330
1F
100
AcDbEntity
  8
Ｓ_１_１
  6
CONTINUOUS
 62
     3
100
AcDbLine
 10
1147.749019
 20
632.4999930000001
 30
0.0
 11
1147.436518
 21
637.5000030000001
 31
0.0
  0
LINE
  5
234
330
1F
100
AcDbEntity
  8
Ｓ_１_１
  6
CONTINUOUS
 62
     3
100
AcDbLine
 10
1144.499995
 20
638.8622690000001
 30
0.0
 11
1142.875641
 21
639.8000860000001
 31
0.0
  0
LINE
  5
235
330
1F
100
AcDbEntity
  8
Ｓ_１_１
  6
CONTINUOUS
 62
     3
100
AcDbLine
 10
1144.499995
 20
647.8622720000001
 30
0.0
 11
1142.875635
 21
646.9244510000001
 31
0.0
  0
LINE
  5
236
330
1F
100
AcDbEntity
  8
Ｓ_１_１
  6
CONTINUOUS
 62
     3
100
AcDbLine
 10
1165.500021
 20
638.8622690000001
 30
0.0
 11
1167.124381
 21
639.8000910000001
 31
0.0
  0
LINE
  5
237
330
1F
100
AcDbEntity
  8
Ｓ_１_１
  6
CONTINUOUS
 62
     3
100
AcDbLine
 10
1165.500016
 20
647.8622650000001
 30
0.0
 11
1167.124383
 21
646.9244400000001
 31
0.0
  0
LINE
  5
238
330
1F
100
AcDbEntity
  8
Ｓ_１_１
  6
CONTINUOUS
 62
     3
100
AcDbLine
 10
1167.124382
 20
646.9244420000001
 30
0.0
 11
1167.124382
 21
639.8000830000001
 31
0.0
  0
LINE
  5
239
330
1F
100
AcDbEntity
  8
Ｓ_１_１
  6
CONTINUOUS
 62
     3
100
AcDbLine
 10
1142.875671
 20
646.9244580000001
 30
0.0
 11
1142.875671
 21
639.8000680000001
 31
0.0
  0
LINE
  5
23A
330
1F
100
AcDbEntity
  8
Ｓ_１_１
  6
CONTINUOUS
 62
     3
100
AcDbLine
 10
1148.937851
 20
646.9244420000001
 30
0.0
 11
1148.937851
 21
639.8000830000001
 31
0.0
  0
LINE
  5
23B
330
1F
100
AcDbEntity
  8
Ｓ_１_１
  6
CONTINUOUS
 62
     3
100
AcDbLine
 10
1161.062195
 20
646.9244420000001
 30
0.0
 11
1161.062195
 21
639.8000830000001
 31
0.0
  0
LINE
  5
23C
330
1F
100
AcDbEntity
  8
Ｓ_１_１
  6
CONTINUOUS
 62
     3
100
AcDbLine
 10
1144.5
 20
647.8622630000001
 30
0.0
 11
1165.500015
 21
647.8622630000001
 31
0.0
  0
LINE
  5
23D
330
1F
100
AcDbEntity
  8
Ｓ_１_１
  6
CONTINUOUS
 62
     3
100
AcDbLine
 10
1144.5
 20
638.8622630000001
 30
0.0
 11
1165.500023
 21
638.8622630000001
 31
0.0
  0
LINE
  5
23E
330
1F
100
AcDbEntity
  8
Ｓ_１_１
  6
CONTINUOUS
 62
     3
100
AcDbLine
 10
318.500061
 20
471.5000030000001
 30
0.0
 11
302.5
 21
471.5000030000001
 31
0.0
  0
LINE
  5
23F
330
1F
100
AcDbEntity
  8
Ｓ_１_１
  6
CONTINUOUS
 62
     3
100
AcDbLine
 10
318.500061
 20
528.5000040000001
 30
0.0
 11
302.5
 21
528.5000040000001
 31
0.0
  0
LINE
  5
240
330
1F
100
AcDbEntity
  8
Ｓ_１_１
  6
CONTINUOUS
 62
     3
100
AcDbLine
 10
318.500061
 20
528.5000040000001
 30
0.0
 11
318.500061
 21
526.4999960000001
 31
0.0
  0
LINE
  5
241
330
1F
100
AcDbEntity
  8
Ｓ_１_１
  6
CONTINUOUS
 62
     3
100
AcDbLine
 10
302.5
 20
528.5000040000001
 30
0.0
 11
302.5
 21
526.4999960000001
 31
0.0
  0
LINE
  5
242
330
1F
100
AcDbEntity
  8
Ｓ_１_１
  6
CONTINUOUS
 62
     3
100
AcDbLine
 10
318.500061
 20
473.5000040000001
 30
0.0
 11
318.500061
 21
471.5000030000001
 31
0.0
  0
LINE
  5
243
330
1F
100
AcDbEntity
  8
Ｓ_１_１
  6
CONTINUOUS
 62
     3
100
AcDbLine
 10
302.5
 20
473.5000040000001
 30
0.0
 11
302.5
 21
471.5000030000001
 31
0.0
  0
LINE
  5
244
330
1F
100
AcDbEntity
  8
Ｓ_１_１
  6
CONTINUOUS
 62
     3
100
AcDbLine
 10
318.500061
 20
514.5000000000001
 30
0.0
 11
318.500061
 21
512.5000040000001
 31
0.0
  0
LINE
  5
245
330
1F
100
AcDbEntity
  8
Ｓ_１_１
  6
CONTINUOUS
 62
     3
100
AcDbLine
 10
318.500061
 20
485.5000040000001
 30
0.0
 11
318.500061
 21
487.5000040000001
 31
0.0
  0
LINE
  5
246
330
1F
100
AcDbEntity
  8
Ｓ_１_１
  6
CONTINUOUS
 62
     3
100
AcDbLine
 10
302.5
 20
485.5000040000001
 30
0.0
 11
302.5
 21
487.5000040000001
 31
0.0
  0
LINE
  5
247
330
1F
100
AcDbEntity
  8
Ｓ_１_１
  6
CONTINUOUS
 62
     3
100
AcDbLine
 10
302.5
 20
514.5000000000001
 30
0.0
 11
302.5
 21
512.5000040000001
 31
0.0
  0
LINE
  5
248
330
1F
100
AcDbEntity
  8
Ｓ_１_１
  6
CONTINUOUS
 62
     3
100
AcDbLine
 10
335.5
 20
512.5000040000001
 30
0.0
 11
335.5
 21
487.5000040000001
 31
0.0
  0
LINE
  5
249
330
1F
100
AcDbEntity
  8
Ｓ_１_１
  6
CONTINUOUS
 62
     3
100
AcDbLine
 10
285.500061
 20
512.5000040000001
 30
0.0
 11
285.500061
 21
487.5000040000001
 31
0.0
  0
LINE
  5
24A
330
1F
100
AcDbEntity
  8
Ｓ_１_１
  6
CONTINUOUS
 62
     3
100
AcDbLine
 10
335.5
 20
487.5000040000001
 30
0.0
 11
310.5
 21
487.5000040000001
 31
0.0
  0
LINE
  5
24B
330
1F
100
AcDbEntity
  8
Ｓ_１_１
  6
CONTINUOUS
 62
     3
100
AcDbLine
 10
310.5
 20
487.5000040000001
 30
0.0
 11
285.500061
 21
487.5000040000001
 31
0.0
  0
LINE
  5
24C
330
1F
100
AcDbEntity
  8
Ｓ_１_１
  6
CONTINUOUS
 62
     3
100
AcDbLine
 10
335.5
 20
512.5000040000001
 30
0.0
 11
310.5
 21
512.5000040000001
 31
0.0
  0
LINE
  5
24D
330
1F
100
AcDbEntity
  8
Ｓ_１_１
  6
CONTINUOUS
 62
     3
100
AcDbLine
 10
310.5
 20
512.5000040000001
 30
0.0
 11
285.500061
 21
512.5000040000001
 31
0.0
  0
LINE
  5
24E
330
1F
100
AcDbEntity
  8
Ｓ_１_１
  6
CONTINUOUS
 62
     3
100
AcDbLine
 10
334.985774
 20
473.5000410000001
 30
0.0
 11
348.773488
 21
459.7123160000001
 31
0.0
  0
LINE
  5
24F
330
1F
100
AcDbEntity
  8
Ｓ_１_１
  6
CONTINUOUS
 62
     3
100
AcDbLine
 10
334.985784
 20
526.5000100000001
 30
0.0
 11
348.7734540000001
 21
540.2876920000001
 31
0.0
  0
LINE
  5
250
330
1F
100
AcDbEntity
  8
Ｓ_１_１
  6
CONTINUOUS
 62
     3
100
AcDbLine
 10
285.500061
 20
473.5000040000001
 30
0.0
 11
334.9857790000001
 21
473.5000040000001
 31
0.0
  0
LINE
  5
251
330
1F
100
AcDbEntity
  8
Ｓ_１_１
  6
CONTINUOUS
 62
     3
100
AcDbLine
 10
285.500061
 20
526.4999960000001
 30
0.0
 11
334.9857790000001
 21
526.4999960000001
 31
0.0
  0
LINE
  5
252
330
1F
100
AcDbEntity
  8
Ｓ_１_１
  6
CONTINUOUS
 62
     3
100
AcDbLine
 10
285.500061
 20
485.5000040000001
 30
0.0
 11
285.500061
 21
473.5000040000001
 31
0.0
  0
LINE
  5
253
330
1F
100
AcDbEntity
  8
Ｓ_１_１
  6
CONTINUOUS
 62
     3
100
AcDbLine
 10
285.500061
 20
526.4999960000001
 30
0.0
 11
285.500061
 21
514.5000000000001
 31
0.0
  0
LINE
  5
254
330
1F
100
AcDbEntity
  8
Ｓ_１_１
  6
CONTINUOUS
 62
     3
100
AcDbLine
 10
285.500061
 20
485.5000040000001
 30
0.0
 11
310.5
 21
485.5000040000001
 31
0.0
  0
LINE
  5
255
330
1F
100
AcDbEntity
  8
Ｓ_１_１
  6
CONTINUOUS
 62
     3
100
AcDbLine
 10
285.500061
 20
514.5000000000001
 30
0.0
 11
310.5
 21
514.5000000000001
 31
0.0
  0
LINE
  5
256
330
1F
100
AcDbEntity
  8
Ｓ_１_１
  6
CONTINUOUS
 62
     3
100
AcDbLine
 10
310.5
 20
485.5000040000001
 30
0.0
 11
343.2958370000001
 21
485.5000040000001
 31
0.0
  0
LINE
  5
257
330
1F
100
AcDbEntity
  8
Ｓ_１_１
  6
CONTINUOUS
 62
     3
100
AcDbLine
 10
310.5
 20
514.5000000000001
 30
0.0
 11
343.2958370000001
 21
514.5000000000001
 31
0.0
  0
LINE
  5
258
330
1F
100
AcDbEntity
  8
Ｓ_１_１
  6
CONTINUOUS
 62
     3
100
AcDbLine
 10
1210.000012
 20
510.0000000000001
 30
0.0
 11
1208.00001
 21
512.0000020000001
 31
0.0
  0
LINE
  5
259
330
1F
100
AcDbEntity
  8
Ｓ_１_１
  6
CONTINUOUS
 62
     3
100
AcDbLine
 10
1208.0
 20
512.0000040000001
 30
0.0
 11
1208.0
 21
500.0000000000001
 31
0.0
  0
LINE
  5
25A
330
1F
100
AcDbEntity
  8
Ｓ_１_１
  6
CONTINUOUS
 62
     3
100
AcDbLine
 10
1210.000008
 20
510.0000000000001
 30
0.0
 11
1210.000008
 21
500.0000000000001
 31
0.0
  0
LINE
  5
25B
330
1F
100
AcDbEntity
  8
Ｓ_１_１
  6
CONTINUOUS
 62
     3
100
AcDbLine
 10
1010.000031
 20
512.0000040000001
 30
0.0
 11
1208.0
 21
512.0000040000001
 31
0.0
  0
LINE
  5
25C
330
1F
100
AcDbEntity
  8
Ｓ_１_１
  6
CONTINUOUS
 62
     3
100
AcDbLine
 10
977.000031
 20
514.5000000000001
 30
0.0
 11
977.000031
 21
512.5000040000001
 31
0.0
  0
LINE
  5
25D
330
1F
100
AcDbEntity
  8
Ｓ_１_１
  6
CONTINUOUS
 62
     3
100
AcDbLine
 10
993.0
 20
514.5000000000001
 30
0.0
 11
993.0
 21
512.5000040000001
 31
0.0
  0
LINE
  5
25E
330
1F
100
AcDbEntity
  8
Ｓ_１_１
  6
CONTINUOUS
 62
     3
100
AcDbLine
 10
977.000031
 20
528.5000040000001
 30
0.0
 11
993.0
 21
528.5000040000001
 31
0.0
  0
LINE
  5
25F
330
1F
100
AcDbEntity
  8
Ｓ_１_１
  6
CONTINUOUS
 62
     3
100
AcDbLine
 10
977.000031
 20
526.4999960000001
 30
0.0
 11
977.000031
 21
528.5000040000001
 31
0.0
  0
LINE
  5
260
330
1F
100
AcDbEntity
  8
Ｓ_１_１
  6
CONTINUOUS
 62
     3
100
AcDbLine
 10
993.0
 20
526.4999960000001
 30
0.0
 11
993.0
 21
528.5000040000001
 31
0.0
  0
LINE
  5
261
330
1F
100
AcDbEntity
  8
Ｓ_１_１
  6
CONTINUOUS
 62
     3
100
AcDbLine
 10
960.000031
 20
526.4999960000001
 30
0.0
 11
1010.000031
 21
526.4999960000001
 31
0.0
  0
LINE
  5
262
330
1F
100
AcDbEntity
  8
Ｓ_１_１
  6
CONTINUOUS
 62
     3
100
AcDbLine
 10
960.000031
 20
514.5000000000001
 30
0.0
 11
960.000031
 21
526.4999960000001
 31
0.0
  0
LINE
  5
263
330
1F
100
AcDbEntity
  8
Ｓ_１_１
  6
CONTINUOUS
 62
     3
100
AcDbLine
 10
1010.000031
 20
514.5000000000001
 30
0.0
 11
1010.000031
 21
526.4999960000001
 31
0.0
  0
LINE
  5
264
330
1F
100
AcDbEntity
  8
Ｓ_１_１
  6
CONTINUOUS
 62
     3
100
AcDbLine
 10
960.000031
 20
514.5000000000001
 30
0.0
 11
985.0
 21
514.5000000000001
 31
0.0
  0
LINE
  5
265
330
1F
100
AcDbEntity
  8
Ｓ_１_１
  6
CONTINUOUS
 62
     3
100
AcDbLine
 10
985.0
 20
514.5000000000001
 30
0.0
 11
1010.000031
 21
514.5000000000001
 31
0.0
  0
LINE
  5
266
330
1F
100
AcDbEntity
  8
Ｓ_１_１
  6
CONTINUOUS
 62
     3
100
AcDbLine
 10
955.0
 20
512.5000040000001
 30
0.0
 11
955.0
 21
500.0000000000001
 31
0.0
  0
LINE
  5
267
330
1F
100
AcDbEntity
  8
Ｓ_１_１
  6
CONTINUOUS
 62
     3
100
AcDbLine
 10
1010.000031
 20
512.5000040000001
 30
0.0
 11
1010.000031
 21
500.0000000000001
 31
0.0
  0
LINE
  5
268
330
1F
100
AcDbEntity
  8
Ｓ_１_１
  6
CONTINUOUS
 62
     3
100
AcDbLine
 10
955.0
 20
512.5000040000001
 30
0.0
 11
985.0
 21
512.5000040000001
 31
0.0
  0
LINE
  5
269
330
1F
100
AcDbEntity
  8
Ｓ_１_１
  6
CONTINUOUS
 62
     3
100
AcDbLine
 10
985.0
 20
512.5000040000001
 30
0.0
 11
1010.000031
 21
512.5000040000001
 31
0.0
  0
LINE
  5
26A
330
1F
100
AcDbEntity
  8
Ｓ_１_１
  6
CONTINUOUS
 62
     3
100
AcDbLine
 10
905.00001
 20
627.4999700000001
 30
0.0
 11
909.999989
 21
632.4999800000002
 31
0.0
  0
LINE
  5
26B
330
1F
100
AcDbEntity
  8
Ｓ_１_１
  6
CONTINUOUS
 62
     3
100
AcDbLine
 10
898.000004
 20
580.0000060000001
 30
0.0
 11
894.999995
 21
578.267952
 31
0.0
  0
LINE
  5
26C
330
1F
100
AcDbEntity
  8
Ｓ_１_１
  6
CONTINUOUS
 62
     3
100
AcDbLine
 10
1324.999996
 20
630.5000000000001
 30
0.0
 11
1323.000007
 21
632.4999930000001
 31
0.0
  0
LINE
  5
26D
330
1F
100
AcDbEntity
  8
Ｓ_１_１
  6
CONTINUOUS
 62
     3
100
AcDbLine
 10
898.0
 20
580.0000040000001
 30
0.0
 11
905.0
 21
580.0000040000001
 31
0.0
  0
LINE
  5
26E
330
1F
100
AcDbEntity
  8
Ｓ_１_１
  6
CONTINUOUS
 62
     3
100
AcDbLine
 10
909.999969
 20
632.5000040000001
 30
0.0
 11
1323.000004
 21
632.5000040000001
 31
0.0
  0
LINE
  5
26F
330
1F
100
AcDbEntity
  8
Ｓ_１_１
  6
CONTINUOUS
 62
     3
100
AcDbLine
 10
631.500061
 20
471.5000030000001
 30
0.0
 11
647.5
 21
471.5000030000001
 31
0.0
  0
LINE
  5
270
330
1F
100
AcDbEntity
  8
Ｓ_１_１
  6
CONTINUOUS
 62
     3
100
AcDbLine
 10
631.500061
 20
528.5000040000001
 30
0.0
 11
647.5
 21
528.5000040000001
 31
0.0
  0
LINE
  5
271
330
1F
100
AcDbEntity
  8
Ｓ_１_１
  6
CONTINUOUS
 62
     3
100
AcDbLine
 10
631.500061
 20
528.5000040000001
 30
0.0
 11
631.500061
 21
526.4999960000001
 31
0.0
  0
LINE
  5
272
330
1F
100
AcDbEntity
  8
Ｓ_１_１
  6
CONTINUOUS
 62
     3
100
AcDbLine
 10
647.5
 20
528.5000040000001
 30
0.0
 11
647.5
 21
526.4999960000001
 31
0.0
  0
LINE
  5
273
330
1F
100
AcDbEntity
  8
Ｓ_１_１
  6
CONTINUOUS
 62
     3
100
AcDbLine
 10
631.500061
 20
473.5000040000001
 30
0.0
 11
631.500061
 21
471.5000030000001
 31
0.0
  0
LINE
  5
274
330
1F
100
AcDbEntity
  8
Ｓ_１_１
  6
CONTINUOUS
 62
     3
100
AcDbLine
 10
647.5
 20
473.5000040000001
 30
0.0
 11
647.5
 21
471.5000030000001
 31
0.0
  0
LINE
  5
275
330
1F
100
AcDbEntity
  8
Ｓ_１_１
  6
CONTINUOUS
 62
     3
100
AcDbLine
 10
631.500061
 20
514.5000000000001
 30
0.0
 11
631.500061
 21
512.5000040000001
 31
0.0
  0
LINE
  5
276
330
1F
100
AcDbEntity
  8
Ｓ_１_１
  6
CONTINUOUS
 62
     3
100
AcDbLine
 10
631.500061
 20
485.5000040000001
 30
0.0
 11
631.500061
 21
487.5000040000001
 31
0.0
  0
LINE
  5
277
330
1F
100
AcDbEntity
  8
Ｓ_１_１
  6
CONTINUOUS
 62
     3
100
AcDbLine
 10
647.5
 20
485.5000040000001
 30
0.0
 11
647.5
 21
487.5000040000001
 31
0.0
  0
LINE
  5
278
330
1F
100
AcDbEntity
  8
Ｓ_１_１
  6
CONTINUOUS
 62
     3
100
AcDbLine
 10
647.5
 20
514.5000000000001
 30
0.0
 11
647.5
 21
512.5000040000001
 31
0.0
  0
LINE
  5
279
330
1F
100
AcDbEntity
  8
Ｓ_１_１
  6
CONTINUOUS
 62
     3
100
AcDbLine
 10
614.5
 20
512.5000040000001
 30
0.0
 11
614.5
 21
487.5000040000001
 31
0.0
  0
LINE
  5
27A
330
1F
100
AcDbEntity
  8
Ｓ_１_１
  6
CONTINUOUS
 62
     3
100
AcDbLine
 10
664.500061
 20
512.5000040000001
 30
0.0
 11
664.500061
 21
487.5000040000001
 31
0.0
  0
LINE
  5
27B
330
1F
100
AcDbEntity
  8
Ｓ_１_１
  6
CONTINUOUS
 62
     3
100
AcDbLine
 10
614.5
 20
487.5000040000001
 30
0.0
 11
639.5
 21
487.5000040000001
 31
0.0
  0
LINE
  5
27C
330
1F
100
AcDbEntity
  8
Ｓ_１_１
  6
CONTINUOUS
 62
     3
100
AcDbLine
 10
639.5
 20
487.5000040000001
 30
0.0
 11
664.500061
 21
487.5000040000001
 31
0.0
  0
LINE
  5
27D
330
1F
100
AcDbEntity
  8
Ｓ_１_１
  6
CONTINUOUS
 62
     3
100
AcDbLine
 10
614.5
 20
512.5000040000001
 30
0.0
 11
639.5
 21
512.5000040000001
 31
0.0
  0
LINE
  5
27E
330
1F
100
AcDbEntity
  8
Ｓ_１_１
  6
CONTINUOUS
 62
     3
100
AcDbLine
 10
639.5
 20
512.5000040000001
 30
0.0
 11
664.500061
 21
512.5000040000001
 31
0.0
  0
LINE
  5
27F
330
1F
100
AcDbEntity
  8
Ｓ_１_１
  6
CONTINUOUS
 62
     3
100
AcDbLine
 10
615.014269
 20
473.500028
 30
0.0
 11
601.2265769999999
 21
459.7123240000001
 31
0.0
  0
LINE
  5
280
330
1F
100
AcDbEntity
  8
Ｓ_１_１
  6
CONTINUOUS
 62
     3
100
AcDbLine
 10
615.0143029999999
 20
526.500024
 30
0.0
 11
601.226633
 21
540.2877050000001
 31
0.0
  0
LINE
  5
281
330
1F
100
AcDbEntity
  8
Ｓ_１_１
  6
CONTINUOUS
 62
     3
100
AcDbLine
 10
664.500061
 20
473.5000040000001
 30
0.0
 11
615.014343
 21
473.5000040000001
 31
0.0
  0
LINE
  5
282
330
1F
100
AcDbEntity
  8
Ｓ_１_１
  6
CONTINUOUS
 62
     3
100
AcDbLine
 10
664.500061
 20
526.4999960000001
 30
0.0
 11
615.014343
 21
526.4999960000001
 31
0.0
  0
LINE
  5
283
330
1F
100
AcDbEntity
  8
Ｓ_１_１
  6
CONTINUOUS
 62
     3
100
AcDbLine
 10
664.500061
 20
485.5000040000001
 30
0.0
 11
664.500061
 21
473.5000040000001
 31
0.0
  0
LINE
  5
284
330
1F
100
AcDbEntity
  8
Ｓ_１_１
  6
CONTINUOUS
 62
     3
100
AcDbLine
 10
664.500061
 20
526.4999960000001
 30
0.0
 11
664.500061
 21
514.5000000000001
 31
0.0
  0
LINE
  5
285
330
1F
100
AcDbEntity
  8
Ｓ_１_１
  6
CONTINUOUS
 62
     3
100
AcDbLine
 10
664.500061
 20
485.5000040000001
 30
0.0
 11
639.5
 21
485.5000040000001
 31
0.0
  0
LINE
  5
286
330
1F
100
AcDbEntity
  8
Ｓ_１_１
  6
CONTINUOUS
 62
     3
100
AcDbLine
 10
664.500061
 20
514.5000000000001
 30
0.0
 11
639.5
 21
514.5000000000001
 31
0.0
  0
LINE
  5
287
330
1F
100
AcDbEntity
  8
Ｓ_１_１
  6
CONTINUOUS
 62
     3
100
AcDbLine
 10
639.5
 20
485.5000040000001
 30
0.0
 11
606.704285
 21
485.5000040000001
 31
0.0
  0
LINE
  5
288
330
1F
100
AcDbEntity
  8
Ｓ_１_１
  6
CONTINUOUS
 62
     3
100
AcDbLine
 10
639.5
 20
514.5000000000001
 30
0.0
 11
606.704285
 21
514.5000000000001
 31
0.0
  0
LINE
  5
289
330
1F
100
AcDbEntity
  8
Ｓ_１_１
  6
CONTINUOUS
 62
     3
100
AcDbLine
 10
1208.0
 20
488.0000020000001
 30
0.0
 11
1208.0
 21
500.0000000000001
 31
0.0
  0
LINE
  5
28A
330
1F
100
AcDbEntity
  8
Ｓ_１_１
  6
CONTINUOUS
 62
     3
100
AcDbLine
 10
1210.000008
 20
490.0000070000001
 30
0.0
 11
1208.000006
 21
488.0000050000001
 31
0.0
  0
LINE
  5
28B
330
1F
100
AcDbEntity
  8
Ｓ_１_１
  6
CONTINUOUS
 62
     3
100
AcDbLine
 10
1210.000008
 20
490.0000040000001
 30
0.0
 11
1210.000008
 21
500.0000000000001
 31
0.0
  0
LINE
  5
28C
330
1F
100
AcDbEntity
  8
Ｓ_１_１
  6
CONTINUOUS
 62
     3
100
AcDbLine
 10
1010.000031
 20
488.0000020000001
 30
0.0
 11
1208.0
 21
488.0000020000001
 31
0.0
  0
LINE
  5
28D
330
1F
100
AcDbEntity
  8
Ｓ_１_１
  6
CONTINUOUS
 62
     3
100
AcDbLine
 10
977.000031
 20
485.5000040000001
 30
0.0
 11
977.000031
 21
487.5000040000001
 31
0.0
  0
LINE
  5
28E
330
1F
100
AcDbEntity
  8
Ｓ_１_１
  6
CONTINUOUS
 62
     3
100
AcDbLine
 10
993.0
 20
485.5000040000001
 30
0.0
 11
993.0
 21
487.5000040000001
 31
0.0
  0
LINE
  5
28F
330
1F
100
AcDbEntity
  8
Ｓ_１_１
  6
CONTINUOUS
 62
     3
100
AcDbLine
 10
977.000031
 20
471.5000030000001
 30
0.0
 11
993.0
 21
471.5000030000001
 31
0.0
  0
LINE
  5
290
330
1F
100
AcDbEntity
  8
Ｓ_１_１
  6
CONTINUOUS
 62
     3
100
AcDbLine
 10
977.000031
 20
473.5000040000001
 30
0.0
 11
977.000031
 21
471.5000030000001
 31
0.0
  0
LINE
  5
291
330
1F
100
AcDbEntity
  8
Ｓ_１_１
  6
CONTINUOUS
 62
     3
100
AcDbLine
 10
993.0
 20
473.5000040000001
 30
0.0
 11
993.0
 21
471.5000030000001
 31
0.0
  0
LINE
  5
292
330
1F
100
AcDbEntity
  8
Ｓ_１_１
  6
CONTINUOUS
 62
     3
100
AcDbLine
 10
960.000031
 20
473.5000040000001
 30
0.0
 11
1010.000031
 21
473.5000040000001
 31
0.0
  0
LINE
  5
293
330
1F
100
AcDbEntity
  8
Ｓ_１_１
  6
CONTINUOUS
 62
     3
100
AcDbLine
 10
960.000031
 20
485.5000040000001
 30
0.0
 11
960.000031
 21
473.5000040000001
 31
0.0
  0
LINE
  5
294
330
1F
100
AcDbEntity
  8
Ｓ_１_１
  6
CONTINUOUS
 62
     3
100
AcDbLine
 10
1010.000031
 20
485.5000040000001
 30
0.0
 11
1010.000031
 21
473.5000040000001
 31
0.0
  0
LINE
  5
295
330
1F
100
AcDbEntity
  8
Ｓ_１_１
  6
CONTINUOUS
 62
     3
100
AcDbLine
 10
960.000031
 20
485.5000040000001
 30
0.0
 11
985.0
 21
485.5000040000001
 31
0.0
  0
LINE
  5
296
330
1F
100
AcDbEntity
  8
Ｓ_１_１
  6
CONTINUOUS
 62
     3
100
AcDbLine
 10
985.0
 20
485.5000040000001
 30
0.0
 11
1010.000031
 21
485.5000040000001
 31
0.0
  0
LINE
  5
297
330
1F
100
AcDbEntity
  8
Ｓ_１_１
  6
CONTINUOUS
 62
     3
100
AcDbLine
 10
955.0
 20
487.5000040000001
 30
0.0
 11
955.0
 21
500.0000000000001
 31
0.0
  0
LINE
  5
298
330
1F
100
AcDbEntity
  8
Ｓ_１_１
  6
CONTINUOUS
 62
     3
100
AcDbLine
 10
1010.000031
 20
487.5000040000001
 30
0.0
 11
1010.000031
 21
500.0000000000001
 31
0.0
  0
LINE
  5
299
330
1F
100
AcDbEntity
  8
Ｓ_１_１
  6
CONTINUOUS
 62
     3
100
AcDbLine
 10
955.0
 20
487.5000040000001
 30
0.0
 11
985.0
 21
487.5000040000001
 31
0.0
  0
LINE
  5
29A
330
1F
100
AcDbEntity
  8
Ｓ_１_１
  6
CONTINUOUS
 62
     3
100
AcDbLine
 10
985.0
 20
487.5000040000001
 30
0.0
 11
1010.000031
 21
487.5000040000001
 31
0.0
  0
LINE
  5
29B
330
1F
100
AcDbEntity
  8
Ｓ_１_１
  6
CONTINUOUS
 62
     3
100
AcDbLine
 10
898.0
 20
420.0000080000001
 30
0.0
 11
898.0
 21
580.0000040000001
 31
0.0
  0
LINE
  5
29C
330
1F
100
AcDbEntity
  8
Ｓ_１_１
  6
CONTINUOUS
 62
     3
100
AcDbLine
 10
909.999969
 20
367.5000040000001
 30
0.0
 11
909.999969
 21
632.5000040000001
 31
0.0
  0
LINE
  5
29D
330
1F
100
AcDbEntity
  8
Ｓ_１_１
  6
CONTINUOUS
 62
     3
100
AcDbLine
 10
1323.000004
 20
367.5000040000001
 30
0.0
 11
1323.000004
 21
632.5000040000001
 31
0.0
  0
LINE
  5
29E
330
1F
100
AcDbEntity
  8
Ｓ_１_１
  6
CONTINUOUS
 62
     3
100
AcDbLine
 10
1325.0
 20
369.5000110000001
 30
0.0
 11
1323.000003
 21
367.5000100000001
 31
0.0
  0
LINE
  5
29F
330
1F
100
AcDbEntity
  8
Ｓ_１_１
  6
CONTINUOUS
 62
     3
100
AcDbLine
 10
905.0000150000001
 20
372.5000160000001
 30
0.0
 11
909.999995
 21
367.5000060000001
 31
0.0
  0
LINE
  5
2A0
330
1F
100
AcDbEntity
  8
Ｓ_１_１
  6
CONTINUOUS
 62
     3
100
AcDbLine
 10
897.9999869999999
 20
420.0000100000001
 30
0.0
 11
895.000004
 21
421.7320480000001
 31
0.0
  0
LINE
  5
2A1
330
1F
100
AcDbEntity
  8
Ｓ_１_１
  6
CONTINUOUS
 62
     3
100
AcDbLine
 10
898.0
 20
420.0000080000001
 30
0.0
 11
905.0
 21
420.0000080000001
 31
0.0
  0
LINE
  5
2A2
330
1F
100
AcDbEntity
  8
Ｓ_１_１
  6
CONTINUOUS
 62
     3
100
AcDbLine
 10
895.0
 20
578.2679640000001
 30
0.0
 11
895.0
 21
421.7320520000002
 31
0.0
  0
LINE
  5
2A3
330
1F
100
AcDbEntity
  8
Ｓ_１_１
  6
CONTINUOUS
 62
     3
100
AcDbLine
 10
905.0
 20
372.5000120000001
 30
0.0
 11
905.0
 21
627.4999730000001
 31
0.0
  0
LINE
  5
2A4
330
1F
100
AcDbEntity
  8
Ｓ_１_１
  6
CONTINUOUS
 62
     3
100
AcDbLine
 10
909.999969
 20
367.5000040000001
 30
0.0
 11
1323.000004
 21
367.5000040000001
 31
0.0
  0
LINE
  5
2A5
330
1F
100
AcDbEntity
  8
Ｓ_１_１
  6
CONTINUOUS
 62
     3
100
AcDbLine
 10
1325.0
 20
630.5000040000001
 30
0.0
 11
1325.0
 21
369.5000120000001
 31
0.0
  0
LINE
  5
2A6
330
1F
100
AcDbEntity
  8
Ｓ_１_１
  6
EXLTYPE2
 62
     1
100
AcDbLine
 10
276.4
 20
500.0000000000001
 30
0.0
 11
674.0
 21
500.0000000000002
 31
0.0
  0
TEXT
  5
2A7
330
1F
100
AcDbEntity
  8
Ｓ_１_１
  6
CONTINUOUS
 62
     4
100
AcDbText
 10
584.2
 20
350.39940735735
 30
0.0
 40
13.85161662817552
  1
M20ネジ深30
 41
0.9992307692307693
  7
EXCADTTF1
 72
     5
 11
683.2
 21
350.39940735735
 31
0.0
100
AcDbText
  0
LEADER
  5
2A8
330
1F
100
AcDbEntity
  8
Ｓ_１_１
  6
CONTINUOUS
 62
     2
100
AcDbLeader
  3
ISO-25
 76
     3
 10
481.4668518696701
 20
492.37243112809
 30
0.0
 10
566.05113376864
 20
345.86815735735
 30
0.0
 10
683.2
 20
345.86815735735
 30
0.0
1001
ACAD
1000
DSTYLE
1002
{
1070
     5
1000
EX_NORM
1070
    41
1040
12.0
1070
   341
1005
78
1002
}
  0
LINE
  5
2A9
330
1F
100
AcDbEntity
  8
Ｓ_１_１
  6
EXLTYPE2
 62
     1
100
AcDbLine
 10
998.0000309999999
 20
732.8
 30
0.0
 11
998.0000309999999
 21
617.917759
 31
0.0
  0
LINE
  5
2AA
330
1F
100
AcDbEntity
  8
Ｓ_１_１
  6
EXLTYPE2
 62
     1
100
AcDbLine
 10
475.0
 20
732.8
 30
0.0
 11
475.0
 21
355.2
 31
0.0
  0
DIMENSION
  5
2AB
330
1F
100
AcDbEntity
  8
Ｓ_１_１
  6
CONTINUOUS
 62
     2
100
AcDbDimension
  2
*D22
 10
998.000031
 20
775.0
 30
0.0
 11
951.5000155
 21
786.0
 31
0.0
 70
   160
  3
ISO-25
100
AcDbAlignedDimension
 13
905.0
 23
627.49995999994
 33
0.0
 14
998.000031
 24
732.8
 34
0.0
100
AcDbRotatedDimension
1001
ACAD
1000
DSTYLE
1002
{
1070
   270
1070
     2
1070
     6
1000
EX_NORM
1070
     7
1000
EX_NORM
1070
    41
1040
12.0
1070
    42
1040
6.0
1070
    44
1040
4.0
1070
    73
1070
     0
1070
    74
1070
     0
1070
    75
1070
     0
1070
    76
1070
     0
1070
    77
1070
     1
1070
    78
1070
     8
1070
   140
1040
13.85161662817552
1070
   147
1040
0.0
1070
   173
1070
     1
1070
   176
1070
     2
1070
   177
1070
     2
1070
   178
1070
     2
1070
   271
1070
     2
1070
   277
1070
     2
1070
   279
1070
     2
1070
   280
1070
     0
1070
   287
1070
     5
1070
   340
1005
113
1002
}
  0
DIMENSION
  5
2B8
330
1F
100
AcDbEntity
  8
Ｓ_１_１
  6
CONTINUOUS
 62
     2
100
AcDbDimension
  2
*D23
 10
1155.000015
 20
775.0
 30
0.0
 11
1076.500023
 21
786.0
 31
0.0
 70
   160
  3
ISO-25
100
AcDbAlignedDimension
 13
998.000031
 23
738.8
 33
0.0
 14
1155.000015
 24
721.434208
 34
0.0
100
AcDbRotatedDimension
1001
ACAD
1000
DSTYLE
1002
{
1070
   270
1070
     2
1070
     6
1000
EX_NORM
1070
     7
1000
EX_NORM
1070
    41
1040
12.0
1070
    42
1040
6.0
1070
    44
1040
4.0
1070
    73
1070
     0
1070
    74
1070
     0
1070
    75
1070
     0
1070
    76
1070
     0
1070
    77
1070
     1
1070
    78
1070
     8
1070
   140
1040
13.85161662817552
1070
   147
1040
0.0
1070
   173
1070
     1
1070
   176
1070
     2
1070
   177
1070
     2
1070
   178
1070
     2
1070
   271
1070
     2
1070
   277
1070
     2
1070
   279
1070
     2
1070
   280
1070
     0
1070
   287
1070
     5
1070
   340
1005
113
1002
}
  0
DIMENSION
  5
2C5
330
1F
100
AcDbEntity
  8
Ｓ_１_１
  6
CONTINUOUS
 62
     2
100
AcDbDimension
  2
*D24
 10
1325.0
 20
775.0
 30
0.0
 11
1240.0000075
 21
786.0
 31
0.0
 70
   160
  3
ISO-25
100
AcDbAlignedDimension
 13
1155.000015
 23
721.434208
 33
0.0
 14
1325.0
 24
630.49999599999
 34
0.0
100
AcDbRotatedDimension
1001
ACAD
1000
DSTYLE
1002
{
1070
   270
1070
     2
1070
     6
1000
EX_NORM
1070
     7
1000
EX_NORM
1070
    41
1040
12.0
1070
    42
1040
6.0
1070
    44
1040
4.0
1070
    73
1070
     0
1070
    74
1070
     0
1070
    75
1070
     0
1070
    76
1070
     0
1070
    77
1070
     1
1070
    78
1070
     8
1070
   140
1040
13.85161662817552
1070
   147
1040
0.0
1070
   173
1070
     1
1070
   176
1070
     2
1070
   177
1070
     2
1070
   178
1070
     2
1070
   271
1070
     2
1070
   277
1070
     2
1070
   279
1070
     2
1070
   280
1070
     0
1070
   287
1070
     5
1070
   340
1005
113
1002
}
  0
LINE
  5
2D2
330
1F
100
AcDbEntity
  8
Ｓ_１_１
  6
CONTINUOUS
 62
     3
100
AcDbLine
 10
463.5000000000003
 20
638.8622790000092
 30
0.0
 11
475.0000000000003
 21
638.8622790000092
 31
0.0
  0
LINE
  5
2D3
330
1F
100
AcDbEntity
  8
Ｓ_１_１
  6
CONTINUOUS
 62
     3
100
AcDbLine
 10
475.0000000000003
 20
638.8622790000092
 30
0.0
 11
486.5000000000003
 21
638.8622790000092
 31
0.0
  0
LINE
  5
2D4
330
1F
100
AcDbEntity
  8
Ｓ_１_１
  6
CONTINUOUS
 62
     3
100
AcDbLine
 10
463.5000000000003
 20
671.8622790000092
 30
0.0
 11
475.0000000000003
 21
671.8622790000092
 31
0.0
  0
LINE
  5
2D5
330
1F
100
AcDbEntity
  8
Ｓ_１_１
  6
CONTINUOUS
 62
     3
100
AcDbLine
 10
475.0000000000003
 20
671.8622790000092
 30
0.0
 11
486.5000000000003
 21
671.8622790000092
 31
0.0
  0
LINE
  5
2D6
330
1F
100
AcDbEntity
  8
Ｓ_１_１
  6
CONTINUOUS
 62
     3
100
AcDbLine
 10
486.5000013689003
 20
671.8622805587089
 30
0.0
 11
487.5000014189002
 21
670.8622804243088
 31
0.0
  0
LINE
  5
2D7
330
1F
100
AcDbEntity
  8
Ｓ_１_１
  6
CONTINUOUS
 62
     3
100
AcDbLine
 10
487.5000007867
 20
639.8622779029089
 30
0.0
 11
486.5000009896001
 21
638.8622781900091
 31
0.0
  0
LINE
  5
2D8
330
1F
100
AcDbEntity
  8
Ｓ_１_１
  6
CONTINUOUS
 62
     3
100
AcDbLine
 10
462.5000000481003
 20
639.8622790758092
 30
0.0
 11
463.5000001752003
 21
638.8622790330088
 31
0.0
  0
LINE
  5
2D9
330
1F
100
AcDbEntity
  8
Ｓ_１_１
  6
CONTINUOUS
 62
     3
100
AcDbLine
 10
463.4999997116004
 20
671.8622794628092
 30
0.0
 11
462.4999999987002
 21
670.8622796657088
 31
0.0
  0
LINE
  5
2DA
330
1F
100
AcDbEntity
  8
Ｓ_１_１
  6
CONTINUOUS
 62
     3
100
AcDbLine
 10
462.5000000000003
 20
670.8622790000092
 30
0.0
 11
487.5000000000003
 21
670.8622790000092
 31
0.0
  0
LINE
  5
2DB
330
1F
100
AcDbEntity
  8
Ｓ_１_１
  6
CONTINUOUS
 62
     3
100
AcDbLine
 10
462.5000000000003
 20
639.8622790000092
 30
0.0
 11
487.5000000000003
 21
639.8622790000092
 31
0.0
  0
LINE
  5
2DC
330
1F
100
AcDbEntity
  8
Ｓ_１_１
  6
CONTINUOUS
 62
     3
100
AcDbLine
 10
483.2648620000003
 20
673.22455100002
 30
0.0
 11
466.7351450000004
 21
673.22455100002
 31
0.0
  0
LINE
  5
2DD
330
1F
100
AcDbEntity
  8
Ｓ_１_１
  6
CONTINUOUS
 62
     3
100
AcDbLine
 10
467.8201190000003
 20
679.36225200002
 30
0.0
 11
467.4365110000004
 21
673.2245390000201
 31
0.0
  0
LINE
  5
2DE
330
1F
100
AcDbEntity
  8
Ｓ_１_１
  6
CONTINUOUS
 62
     3
100
AcDbLine
 10
467.1187490000003
 20
679.36227000002
 30
0.0
 11
466.6499980000004
 21
671.86225600002
 31
0.0
  0
LINE
  5
2DF
330
1F
100
AcDbEntity
  8
Ｓ_１_１
  6
CONTINUOUS
 62
     3
100
AcDbLine
 10
467.4365260000005
 20
673.2245590000201
 30
0.0
 11
466.6500110000002
 21
671.86227600002
 31
0.0
  0
LINE
  5
2E0
330
1F
100
AcDbEntity
  8
Ｓ_１_１
  6
CONTINUOUS
 62
     3
100
AcDbLine
 10
482.8812500000002
 20
679.3622820000201
 30
0.0
 11
483.3500030000003
 21
671.8622370000201
 31
0.0
  0
LINE
  5
2E1
330
1F
100
AcDbEntity
  8
Ｓ_１_１
  6
CONTINUOUS
 62
     3
100
AcDbLine
 10
483.3499890000003
 20
671.86226000002
 30
0.0
 11
482.5634830000002
 21
673.2245300000201
 31
0.0
  0
LINE
  5
2E2
330
1F
100
AcDbEntity
  8
Ｓ_１_１
  6
CONTINUOUS
 62
     3
100
AcDbLine
 10
482.1798880000004
 20
679.36226400002
 30
0.0
 11
482.5634970000004
 21
673.22452100002
 31
0.0
  0
LINE
  5
2E3
330
1F
100
AcDbEntity
  8
Ｓ_１_１
  6
CONTINUOUS
 62
     3
100
AcDbLine
 10
483.2648620000003
 20
637.500007
 30
0.0
 11
466.7351450000004
 21
637.500007
 31
0.0
  0
LINE
  5
2E4
330
1F
100
AcDbEntity
  8
Ｓ_１_１
  6
CONTINUOUS
 62
     3
100
AcDbLine
 10
483.3500120000004
 20
638.862298
 30
0.0
 11
482.5634980000003
 21
637.500015
 31
0.0
  0
LINE
  5
2E5
330
1F
100
AcDbEntity
  8
Ｓ_１_１
  6
CONTINUOUS
 62
     3
100
AcDbLine
 10
467.4365030000004
 20
637.499999
 30
0.0
 11
466.6499960000004
 21
638.8622690000001
 31
0.0
  0
ARC
  5
2E6
330
1F
100
AcDbEntity
  8
Ｓ_１_１
  6
CONTINUOUS
 62
     3
100
AcDbCircle
 10
485.39228849999
 20
680.2284450000185
 30
0.0
 40
6.133925000000002
100
AcDbArc
 50
55.61543800000034
 51
124.3845830000003
  0
ARC
  5
2E7
330
1F
100
AcDbEntity
  8
Ｓ_１_１
  6
CONTINUOUS
 62
     3
100
AcDbCircle
 10
474.99998449999
 20
663.4341330000185
 30
0.0
 40
22.927938
100
AcDbArc
 50
72.411858
 51
107.5881660000001
  0
ARC
  5
2E8
330
1F
100
AcDbEntity
  8
Ｓ_１_１
  6
CONTINUOUS
 62
     3
100
AcDbCircle
 10
464.6076504999904
 20
685.4961450000184
 30
0.0
 40
6.133925000000002
100
AcDbArc
 50
235.6154019999991
 51
304.3845609999998
  0
ARC
  5
2E9
330
1F
100
AcDbEntity
  8
Ｓ_１_１
  6
CONTINUOUS
 62
     3
100
AcDbCircle
 10
470.4999844999905
 20
723.3621120000186
 30
0.0
 40
1.0
100
AcDbArc
 50
89.99997799999524
 51
179.9999749999976
  0
ARC
  5
2EA
330
1F
100
AcDbEntity
  8
Ｓ_１_１
  6
CONTINUOUS
 62
     3
100
AcDbCircle
 10
464.6076504999904
 20
680.2284450000185
 30
0.0
 40
6.133925000000002
100
AcDbArc
 50
55.6153689999997
 51
124.384513999999
  0
ARC
  5
2EB
330
1F
100
AcDbEntity
  8
Ｓ_１_１
  6
CONTINUOUS
 62
     3
100
AcDbCircle
 10
474.99998449999
 20
702.2902120000186
 30
0.0
 40
22.927942
100
AcDbArc
 50
252.4118210000002
 51
287.5881150000001
  0
ARC
  5
2EC
330
1F
100
AcDbEntity
  8
Ｓ_１_１
  6
CONTINUOUS
 62
     3
100
AcDbCircle
 10
485.39228849999
 20
685.4961450000184
 30
0.0
 40
6.133925000000002
100
AcDbArc
 50
235.6154159999998
 51
304.3845739999999
  0
ARC
  5
2ED
330
1F
100
AcDbEntity
  8
Ｓ_１_１
  6
CONTINUOUS
 62
     3
100
AcDbCircle
 10
479.4999544999899
 20
723.3621120000186
 30
0.0
 40
1.0
100
AcDbArc
 50
359.9999970000023
 51
89.9999780000017
  0
LINE
  5
2EE
330
1F
100
AcDbEntity
  8
Ｓ_１_１
  6
CONTINUOUS
 62
     3
100
AcDbLine
 10
473.5000154999901
 20
726.3622340000185
 30
0.0
 11
476.49998449999
 21
726.3622340000185
 31
0.0
  0
LINE
  5
2EF
330
1F
100
AcDbEntity
  8
Ｓ_１_１
  6
CONTINUOUS
 62
     3
100
AcDbLine
 10
462.9999844999905
 20
679.3623560000184
 30
0.0
 11
486.9999544999899
 21
679.3623560000184
 31
0.0
  0
LINE
  5
2F0
330
1F
100
AcDbEntity
  8
Ｓ_１_１
  6
CONTINUOUS
 62
     3
100
AcDbLine
 10
469.4999544999903
 20
723.3621120000186
 30
0.0
 11
469.4999544999903
 21
714.3623560000184
 31
0.0
  0
LINE
  5
2F1
330
1F
100
AcDbEntity
  8
Ｓ_１_１
  6
CONTINUOUS
 62
     3
100
AcDbLine
 10
469.4999544999903
 20
714.3623560000184
 30
0.0
 11
480.49998449999
 21
714.3623560000184
 31
0.0
  0
LINE
  5
2F2
330
1F
100
AcDbEntity
  8
Ｓ_１_１
  6
CONTINUOUS
 62
     3
100
AcDbLine
 10
466.0000154999905
 20
710.8621120000186
 30
0.0
 11
466.0000154999905
 21
708.8622340000185
 31
0.0
  0
LINE
  5
2F3
330
1F
100
AcDbEntity
  8
Ｓ_１_１
  6
CONTINUOUS
 62
     3
100
AcDbLine
 10
483.99998449999
 20
710.8621120000186
 30
0.0
 11
483.99998449999
 21
708.8622340000185
 31
0.0
  0
LINE
  5
2F4
330
1F
100
AcDbEntity
  8
Ｓ_１_１
  6
CONTINUOUS
 62
     3
100
AcDbLine
 10
463.7499844999905
 20
695.3622340000185
 30
0.0
 11
486.24998449999
 21
695.3622340000185
 31
0.0
  0
LINE
  5
2F5
330
1F
100
AcDbEntity
  8
Ｓ_１_１
  6
CONTINUOUS
 62
     3
100
AcDbLine
 10
486.74998449999
 20
694.8622340000185
 30
0.0
 11
486.74998449999
 21
686.3622340000185
 31
0.0
  0
LINE
  5
2F6
330
1F
100
AcDbEntity
  8
Ｓ_１_１
  6
CONTINUOUS
 62
     3
100
AcDbLine
 10
463.2499544999903
 20
694.8622340000185
 30
0.0
 11
463.2499544999903
 21
686.3622340000185
 31
0.0
  0
LINE
  5
2F7
330
1F
100
AcDbEntity
  8
Ｓ_１_１
  6
CONTINUOUS
 62
     3
100
AcDbLine
 10
461.1436164999903
 20
680.4342080000184
 30
0.0
 11
462.9999884999905
 21
679.3624310000188
 31
0.0
  0
LINE
  5
2F8
330
1F
100
AcDbEntity
  8
Ｓ_１_１
  6
CONTINUOUS
 62
     3
100
AcDbLine
 10
486.9999114999899
 20
686.3624250000186
 30
0.0
 11
488.85638949999
 21
685.2905860000184
 31
0.0
  0
LINE
  5
2F9
330
1F
100
AcDbEntity
  8
Ｓ_１_１
  6
CONTINUOUS
 62
     3
100
AcDbLine
 10
486.99995349999
 20
679.3623890000187
 30
0.0
 11
488.8563264999901
 21
680.4341660000188
 31
0.0
  0
LINE
  5
2FA
330
1F
100
AcDbEntity
  8
Ｓ_１_１
  6
CONTINUOUS
 62
     3
100
AcDbLine
 10
461.1436234999904
 20
685.2907260000185
 30
0.0
 11
462.9999964999905
 21
686.3625030000186
 31
0.0
  0
LINE
  5
2FB
330
1F
100
AcDbEntity
  8
Ｓ_１_１
  6
CONTINUOUS
 62
     3
100
AcDbLine
 10
488.8563994999898
 20
685.2904560000185
 30
0.0
 11
488.8563994999898
 21
680.4341330000185
 31
0.0
  0
LINE
  5
2FC
330
1F
100
AcDbEntity
  8
Ｓ_１_１
  6
CONTINUOUS
 62
     3
100
AcDbLine
 10
481.9282074999899
 20
685.2904560000185
 30
0.0
 11
481.9282074999899
 21
680.4341330000185
 31
0.0
  0
LINE
  5
2FD
330
1F
100
AcDbEntity
  8
Ｓ_１_１
  6
CONTINUOUS
 62
     3
100
AcDbLine
 10
468.0718534999904
 20
685.2904560000185
 30
0.0
 11
468.0718534999904
 21
680.4341330000185
 31
0.0
  0
LINE
  5
2FE
330
1F
100
AcDbEntity
  8
Ｓ_１_１
  6
CONTINUOUS
 62
     3
100
AcDbLine
 10
461.1435854999903
 20
685.2904560000185
 30
0.0
 11
461.1435854999903
 21
680.4341330000185
 31
0.0
  0
LINE
  5
2FF
330
1F
100
AcDbEntity
  8
Ｓ_１_１
  6
CONTINUOUS
 62
     3
100
AcDbLine
 10
462.9999844999905
 20
686.3622340000185
 30
0.0
 11
486.9999544999899
 21
686.3622340000185
 31
0.0
  0
LINE
  5
300
330
1F
100
AcDbEntity
  8
Ｓ_１_１
  6
CONTINUOUS
 62
     3
100
AcDbLine
 10
470.4999844999905
 20
724.3623560000188
 30
0.0
 11
479.4999544999899
 21
724.3623560000188
 31
0.0
  0
LINE
  5
301
330
1F
100
AcDbEntity
  8
Ｓ_１_１
  6
CONTINUOUS
 62
     3
100
AcDbLine
 10
476.49984349999
 20
726.3624210000186
 30
0.0
 11
478.4998884999898
 21
724.3623760000188
 31
0.0
  0
LINE
  5
302
330
1F
100
AcDbEntity
  8
Ｓ_１_１
  6
CONTINUOUS
 62
     3
100
AcDbLine
 10
471.4998164999905
 20
724.3624190000183
 30
0.0
 11
473.4997754999898
 21
726.3623780000186
 31
0.0
  0
LINE
  5
303
330
1F
100
AcDbEntity
  8
Ｓ_１_１
  6
CONTINUOUS
 62
     3
100
AcDbLine
 10
467.4999844999905
 20
705.8621120000186
 30
0.0
 11
482.49998449999
 21
705.8621120000186
 31
0.0
  0
LINE
  5
304
330
1F
100
AcDbEntity
  8
Ｓ_１_１
  6
CONTINUOUS
 62
     3
100
AcDbLine
 10
467.4999844999905
 20
707.3622340000185
 30
0.0
 11
482.49998449999
 21
707.3622340000185
 31
0.0
  0
LINE
  5
305
330
1F
100
AcDbEntity
  8
Ｓ_１_１
  6
CONTINUOUS
 62
     3
100
AcDbLine
 10
466.0000154999905
 20
710.8621120000186
 30
0.0
 11
483.99998449999
 21
710.8621120000186
 31
0.0
  0
LINE
  5
306
330
1F
100
AcDbEntity
  8
Ｓ_１_１
  6
CONTINUOUS
 62
     3
100
AcDbLine
 10
483.99998449999
 20
704.3623560000184
 30
0.0
 11
483.99998449999
 21
695.3622340000185
 31
0.0
  0
LINE
  5
307
330
1F
100
AcDbEntity
  8
Ｓ_１_１
  6
CONTINUOUS
 62
     3
100
AcDbLine
 10
466.0000154999905
 20
704.3623560000184
 30
0.0
 11
466.0000154999905
 21
695.3622340000185
 31
0.0
  0
LINE
  5
308
330
1F
100
AcDbEntity
  8
Ｓ_１_１
  6
CONTINUOUS
 62
     3
100
AcDbLine
 10
465.9998724999903
 20
708.8622550000188
 30
0.0
 11
467.4998844999903
 21
707.3622420000185
 31
0.0
  0
LINE
  5
309
330
1F
100
AcDbEntity
  8
Ｓ_１_１
  6
CONTINUOUS
 62
     3
100
AcDbLine
 10
482.4999504999899
 20
707.3622410000186
 30
0.0
 11
483.9998334999898
 21
708.8621240000185
 31
0.0
  0
LINE
  5
30A
330
1F
100
AcDbEntity
  8
Ｓ_１_１
  6
CONTINUOUS
 62
     3
100
AcDbLine
 10
466.0000154999905
 20
708.8622340000185
 30
0.0
 11
483.99998449999
 21
708.8622340000185
 31
0.0
  0
LINE
  5
30B
330
1F
100
AcDbEntity
  8
Ｓ_１_１
  6
CONTINUOUS
 62
     3
100
AcDbLine
 10
465.9999864999903
 20
704.3623890000187
 30
0.0
 11
467.4998694999902
 21
705.8622720000186
 31
0.0
  0
LINE
  5
30C
330
1F
100
AcDbEntity
  8
Ｓ_１_１
  6
CONTINUOUS
 62
     3
100
AcDbLine
 10
482.49983649999
 20
705.8622300000185
 30
0.0
 11
483.9998494999898
 21
704.3622180000185
 31
0.0
  0
LINE
  5
30D
330
1F
100
AcDbEntity
  8
Ｓ_１_１
  6
CONTINUOUS
 62
     3
100
AcDbLine
 10
463.2499544999903
 20
694.8622340000185
 30
0.0
 11
486.74998449999
 21
694.8622340000185
 31
0.0
  0
LINE
  5
30E
330
1F
100
AcDbEntity
  8
Ｓ_１_１
  6
CONTINUOUS
 62
     3
100
AcDbLine
 10
466.0000154999905
 20
704.3623560000184
 30
0.0
 11
483.99998449999
 21
704.3623560000184
 31
0.0
  0
LINE
  5
30F
330
1F
100
AcDbEntity
  8
Ｓ_１_１
  6
CONTINUOUS
 62
     3
100
AcDbLine
 10
467.4999844999905
 20
707.3622340000185
 30
0.0
 11
467.4999844999905
 21
705.8621120000186
 31
0.0
  0
LINE
  5
310
330
1F
100
AcDbEntity
  8
Ｓ_１_１
  6
CONTINUOUS
 62
     3
100
AcDbLine
 10
482.49998449999
 20
707.3622340000185
 30
0.0
 11
482.49998449999
 21
705.8621120000186
 31
0.0
  0
LINE
  5
311
330
1F
100
AcDbEntity
  8
Ｓ_１_１
  6
CONTINUOUS
 62
     3
100
AcDbLine
 10
486.2498804999898
 20
695.3623230000186
 30
0.0
 11
486.7498274999901
 21
694.8623770000187
 31
0.0
  0
LINE
  5
312
330
1F
100
AcDbEntity
  8
Ｓ_１_１
  6
CONTINUOUS
 62
     3
100
AcDbLine
 10
463.2499094999906
 20
694.8623250000184
 30
0.0
 11
463.7498074999906
 21
695.3622340000185
 31
0.0
  0
LINE
  5
313
330
1F
100
AcDbEntity
  8
Ｓ_１_１
  6
CONTINUOUS
 62
     3
100
AcDbLine
 10
465.9999434999903
 20
710.8623430000185
 30
0.0
 11
469.4999574999904
 21
714.3623570000187
 31
0.0
  0
LINE
  5
314
330
1F
100
AcDbEntity
  8
Ｓ_１_１
  6
CONTINUOUS
 62
     3
100
AcDbLine
 10
480.4998344999902
 20
714.3621430000186
 30
0.0
 11
483.9998054999899
 21
710.8621710000185
 31
0.0
  0
LINE
  5
315
330
1F
100
AcDbEntity
  8
Ｓ_１_１
  6
CONTINUOUS
 62
     3
100
AcDbLine
 10
480.49998449999
 20
723.3621120000186
 30
0.0
 11
480.49998449999
 21
714.3623560000184
 31
0.0
  0
LINE
  5
316
330
1F
100
AcDbEntity
  8
Ｓ_１_１
  6
CONTINUOUS
 62
     3
100
AcDbLine
 10
524.0000000000009
 20
659.6122790000092
 30
0.0
 11
529.0000000000009
 21
659.6122790000092
 31
0.0
  0
LINE
  5
317
330
1F
100
AcDbEntity
  8
Ｓ_１_１
  6
CONTINUOUS
 62
     3
100
AcDbLine
 10
524.0000000000009
 20
651.1122790000092
 30
0.0
 11
529.0000000000009
 21
651.1122790000092
 31
0.0
  0
LINE
  5
318
330
1F
100
AcDbEntity
  8
Ｓ_１_１
  6
CONTINUOUS
 62
     3
100
AcDbLine
 10
524.0000000000009
 20
650.3622790000092
 30
0.0
 11
528.2500000000009
 21
650.3622790000092
 31
0.0
  0
LINE
  5
319
330
1F
100
AcDbEntity
  8
Ｓ_１_１
  6
CONTINUOUS
 62
     3
100
AcDbLine
 10
524.0000000000009
 20
660.3622790000092
 30
0.0
 11
528.2500000000009
 21
660.3622790000092
 31
0.0
  0
LINE
  5
31A
330
1F
100
AcDbEntity
  8
Ｓ_１_１
  6
CONTINUOUS
 62
     3
100
AcDbLine
 10
529.0000000000009
 20
651.1122790000092
 30
0.0
 11
529.0000000000009
 21
659.6122790000092
 31
0.0
  0
LINE
  5
31B
330
1F
100
AcDbEntity
  8
Ｓ_１_１
  6
CONTINUOUS
 62
     3
100
AcDbLine
 10
528.2500000000009
 20
650.3622790000092
 30
0.0
 11
528.2500000000009
 21
660.3622790000092
 31
0.0
  0
LINE
  5
31C
330
1F
100
AcDbEntity
  8
Ｓ_１_１
  6
CONTINUOUS
 62
     3
100
AcDbLine
 10
528.250002557701
 20
650.3622801250091
 30
0.0
 11
529.000000656501
 21
651.112278287009
 31
0.0
  0
LINE
  5
31D
330
1F
100
AcDbEntity
  8
Ｓ_１_１
  6
CONTINUOUS
 62
     3
100
AcDbLine
 10
529.0000016470008
 20
659.6122809253089
 30
0.0
 11
528.2500014619009
 21
660.3622810471089
 31
0.0
  0
LINE
  5
31E
330
1F
100
AcDbEntity
  8
Ｓ_１_１
  6
CONTINUOUS
 62
     3
100
AcDbLine
 10
517.0000000000009
 20
655.3622790000092
 30
0.0
 11
517.0000000000009
 21
665.3622790000092
 31
0.0
  0
LINE
  5
31F
330
1F
100
AcDbEntity
  8
Ｓ_１_１
  6
CONTINUOUS
 62
     3
100
AcDbLine
 10
517.0000000000009
 20
645.3622790000092
 30
0.0
 11
517.0000000000009
 21
655.3622790000092
 31
0.0
  0
LINE
  5
320
330
1F
100
AcDbEntity
  8
Ｓ_１_１
  6
CONTINUOUS
 62
     3
100
AcDbLine
 10
517.000000551001
 20
665.3622784490091
 30
0.0
 11
518.0000005800007
 21
664.3622783357088
 31
0.0
  0
LINE
  5
321
330
1F
100
AcDbEntity
  8
Ｓ_１_１
  6
CONTINUOUS
 62
     3
100
AcDbLine
 10
518.000000284901
 20
646.3622792006091
 30
0.0
 11
517.0000004877011
 21
645.3622794877089
 31
0.0
  0
LINE
  5
322
330
1F
100
AcDbEntity
  8
Ｓ_１_１
  6
CONTINUOUS
 62
     3
100
AcDbLine
 10
518.0000000000009
 20
646.3622792006091
 30
0.0
 11
518.0000000000009
 21
655.3622790000092
 31
0.0
  0
LINE
  5
323
330
1F
100
AcDbEntity
  8
Ｓ_１_１
  6
CONTINUOUS
 62
     3
100
AcDbLine
 10
518.0000000000009
 20
655.3622790000092
 30
0.0
 11
518.0000000000009
 21
664.3622783357088
 31
0.0
  0
LINE
  5
324
330
1F
100
AcDbEntity
  8
Ｓ_１_１
  6
CONTINUOUS
 62
     3
100
AcDbLine
 10
487.5000000000005
 20
665.3622790000092
 30
0.0
 11
517.0000000000009
 21
665.3622790000092
 31
0.0
  0
LINE
  5
325
330
1F
100
AcDbEntity
  8
Ｓ_１_１
  6
CONTINUOUS
 62
     3
100
AcDbLine
 10
523.999998165601
 20
662.8546916632091
 30
0.0
 11
522.9999979724007
 21
664.8622782529088
 31
0.0
  0
LINE
  5
326
330
1F
100
AcDbEntity
  8
Ｓ_１_１
  6
CONTINUOUS
 62
     3
100
AcDbLine
 10
523.9999995145008
 20
647.869865244009
 30
0.0
 11
522.999999321301
 21
645.8622786543089
 31
0.0
  0
LINE
  5
327
330
1F
100
AcDbEntity
  8
Ｓ_１_１
  6
CONTINUOUS
 62
     3
100
AcDbLine
 10
517.999999976601
 20
662.8546923062091
 30
0.0
 11
519.0000001698008
 21
664.8622788959088
 31
0.0
  0
LINE
  5
328
330
1F
100
AcDbEntity
  8
Ｓ_１_１
  6
CONTINUOUS
 62
     3
100
AcDbLine
 10
517.999998485901
 20
647.869864885709
 30
0.0
 11
518.9999985375007
 21
645.8622785805088
 31
0.0
  0
LINE
  5
329
330
1F
100
AcDbEntity
  8
Ｓ_１_１
  6
CONTINUOUS
 62
     3
100
AcDbLine
 10
519.0000000000009
 20
645.8622790000092
 30
0.0
 11
523.0000000000009
 21
645.8622790000092
 31
0.0
  0
LINE
  5
32A
330
1F
100
AcDbEntity
  8
Ｓ_１_１
  6
CONTINUOUS
 62
     3
100
AcDbLine
 10
519.0000000000009
 20
664.8622790000092
 30
0.0
 11
523.0000000000009
 21
664.8622790000092
 31
0.0
  0
LINE
  5
32B
330
1F
100
AcDbEntity
  8
Ｓ_１_１
  6
CONTINUOUS
 62
     3
100
AcDbLine
 10
524.0000000000009
 20
655.3622790000092
 30
0.0
 11
524.0000000000009
 21
662.8546928387092
 31
0.0
  0
LINE
  5
32C
330
1F
100
AcDbEntity
  8
Ｓ_１_１
  6
CONTINUOUS
 62
     3
100
AcDbLine
 10
524.0000000000009
 20
647.8698651613091
 30
0.0
 11
524.0000000000009
 21
655.3622790000092
 31
0.0
  0
ARC
  5
32D
330
1F
100
AcDbEntity
  8
Ｓ_１_１
  6
CONTINUOUS
 62
     3
100
AcDbCircle
 10
533.5416666667011
 20
655.3622790000092
 30
0.0
 40
15.5416666667
100
AcDbArc
 50
159.3345163543002
 51
159.3345238904477
  0
ARC
  5
32E
330
1F
100
AcDbEntity
  8
Ｓ_１_１
  6
CONTINUOUS
 62
     3
100
AcDbCircle
 10
508.4583333333008
 20
655.3622790000092
 30
0.0
 40
15.5416666667
100
AcDbArc
 50
20.66547610955293
 51
20.66547840939962
  0
ARC
  5
32F
330
1F
100
AcDbEntity
  8
Ｓ_１_１
  6
CONTINUOUS
 62
     3
100
AcDbCircle
 10
533.5416666667011
 20
655.3622790000092
 30
0.0
 40
15.5416666667
100
AcDbArc
 50
162.8126324028145
 51
197.1873680951787
  0
ARC
  5
330
330
1F
100
AcDbEntity
  8
Ｓ_１_１
  6
CONTINUOUS
 62
     3
100
AcDbCircle
 10
533.5416666667011
 20
655.3622790000092
 30
0.0
 40
15.5416666667
100
AcDbArc
 50
200.6654786560356
 51
200.6654800033002
  0
ARC
  5
331
330
1F
100
AcDbEntity
  8
Ｓ_１_１
  6
CONTINUOUS
 62
     3
100
AcDbCircle
 10
508.4583333333008
 20
655.3622790000092
 30
0.0
 40
15.5416666667
100
AcDbArc
 50
342.8126319048212
 51
17.18736759718547
  0
LINE
  5
332
330
1F
100
AcDbEntity
  8
Ｓ_１_１
  6
CONTINUOUS
 62
     3
100
AcDbLine
 10
523.3059641178629
 20
659.9548014946891
 30
0.0
 11
518.6940358821389
 21
659.9548014946891
 31
0.0
  0
LINE
  5
333
330
1F
100
AcDbEntity
  8
Ｓ_１_１
  6
CONTINUOUS
 62
     3
100
AcDbLine
 10
523.3059640779466
 20
650.7697563762791
 30
0.0
 11
518.6940359220553
 21
650.7697563762791
 31
0.0
  0
ARC
  5
334
330
1F
100
AcDbEntity
  8
Ｓ_１_１
  6
CONTINUOUS
 62
     3
100
AcDbCircle
 10
518.0000000000009
 20
647.869861846019
 30
0.0
 40
6.000000000001596
100
AcDbArc
 50
0.0000417559226242
 51
28.90218407791362
  0
ARC
  5
335
330
1F
100
AcDbEntity
  8
Ｓ_１_１
  6
CONTINUOUS
 62
     3
100
AcDbCircle
 10
524.0000000000009
 20
647.869866218689
 30
0.0
 40
6.000000000001596
100
AcDbArc
 50
151.0978636188124
 51
180.0000417558857
  0
ARC
  5
336
330
1F
100
AcDbEntity
  8
Ｓ_１_１
  6
CONTINUOUS
 62
     3
100
AcDbCircle
 10
524.0000000000009
 20
662.8546923531891
 30
0.0
 40
6.000000000000006
100
AcDbArc
 50
179.9999920172612
 51
208.9021440266621
  0
ARC
  5
337
330
1F
100
AcDbEntity
  8
Ｓ_１_１
  6
CONTINUOUS
 62
     3
100
AcDbCircle
 10
518.0000000000009
 20
662.8546923531891
 30
0.0
 40
6.000000000001596
100
AcDbArc
 50
331.0978559733464
 51
0.0
  0
LINE
  5
338
330
1F
100
AcDbEntity
  8
Ｓ_１_１
  6
CONTINUOUS
 62
     3
100
AcDbLine
 10
487.5000000000005
 20
645.3622790000092
 30
0.0
 11
517.0000000000009
 21
645.3622790000092
 31
0.0
  0
LINE
  5
339
330
1F
100
AcDbEntity
  8
Ｓ_１_１
  6
EXLTYPE2
 62
     1
100
AcDbLine
 10
461.1188507080006
 20
655.3622790000092
 30
0.0
 11
530.011447906501
 21
655.3622790000092
 31
0.0
  0
LINE
  5
33A
330
1F
100
AcDbEntity
  8
Ｓ_１_１
  6
CONTINUOUS
 62
     3
100
AcDbLine
 10
462.5000000000003
 20
639.8622790000092
 30
0.0
 11
462.5000000000003
 21
670.8622790000092
 31
0.0
  0
LINE
  5
33B
330
1F
100
AcDbEntity
  8
Ｓ_１_１
  6
CONTINUOUS
 62
     3
100
AcDbLine
 10
487.5000000000003
 20
639.8622790000092
 30
0.0
 11
487.5000000000003
 21
670.8622790000092
 31
0.0
  0
LINE
  5
33C
330
1F
100
AcDbEntity
  8
Ｓ_１_１
  6
CONTINUOUS
 62
     3
100
AcDbLine
 10
467.0625234683718
 20
632.2620371320127
 30
0.0
 11
466.6500100000003
 21
638.8622630000001
 31
0.0
  0
LINE
  5
33D
330
1F
100
AcDbEntity
  8
Ｓ_１_１
  6
CONTINUOUS
 62
     3
100
AcDbLine
 10
467.761381174473
 20
632.3021254458853
 30
0.0
 11
467.4365130000004
 21
637.5000100000001
 31
0.0
  0
LINE
  5
33E
330
1F
100
AcDbEntity
  8
Ｓ_１_１
  6
CONTINUOUS
 62
     3
100
AcDbLine
 10
482.238622562749
 20
632.3021252414113
 30
0.0
 11
482.5634900000003
 21
637.499998
 31
0.0
  0
LINE
  5
33F
330
1F
100
AcDbEntity
  8
Ｓ_１_１
  6
CONTINUOUS
 62
     3
100
AcDbLine
 10
482.93748033221
 20
632.2620369039273
 30
0.0
 11
483.3499930000003
 21
638.862251
 31
0.0
  0
LINE
  5
340
330
1F
100
AcDbEntity
  8
Ｓ_１_１
  6
CONTINUOUS
 62
     3
100
AcDbLine
 10
986.500031
 20
638.8622800000092
 30
0.0
 11
998.000031
 21
638.8622800000092
 31
0.0
  0
LINE
  5
341
330
1F
100
AcDbEntity
  8
Ｓ_１_１
  6
CONTINUOUS
 62
     3
100
AcDbLine
 10
998.000031
 20
638.8622800000092
 30
0.0
 11
1009.500031
 21
638.8622800000092
 31
0.0
  0
LINE
  5
342
330
1F
100
AcDbEntity
  8
Ｓ_１_１
  6
CONTINUOUS
 62
     3
100
AcDbLine
 10
1010.500031
 20
639.8622800000092
 30
0.0
 11
1010.500031
 21
655.3622800000092
 31
0.0
  0
LINE
  5
343
330
1F
100
AcDbEntity
  8
Ｓ_１_１
  6
CONTINUOUS
 62
     3
100
AcDbLine
 10
1010.500031
 20
670.8622800000092
 30
0.0
 11
1010.500031
 21
655.3622800000092
 31
0.0
  0
LINE
  5
344
330
1F
100
AcDbEntity
  8
Ｓ_１_１
  6
CONTINUOUS
 62
     3
100
AcDbLine
 10
986.500031
 20
671.8622800000092
 30
0.0
 11
998.000031
 21
671.8622800000092
 31
0.0
  0
LINE
  5
345
330
1F
100
AcDbEntity
  8
Ｓ_１_１
  6
CONTINUOUS
 62
     3
100
AcDbLine
 10
998.000031
 20
671.8622800000092
 30
0.0
 11
1009.500031
 21
671.8622800000092
 31
0.0
  0
LINE
  5
346
330
1F
100
AcDbEntity
  8
Ｓ_１_１
  6
CONTINUOUS
 62
     3
100
AcDbLine
 10
1009.5000323689
 20
671.8622815587089
 30
0.0
 11
1010.5000324189
 21
670.8622814243088
 31
0.0
  0
LINE
  5
347
330
1F
100
AcDbEntity
  8
Ｓ_１_１
  6
CONTINUOUS
 62
     3
100
AcDbLine
 10
1010.5000317867
 20
639.8622789029089
 30
0.0
 11
1009.5000319896
 21
638.8622791900091
 31
0.0
  0
LINE
  5
348
330
1F
100
AcDbEntity
  8
Ｓ_１_１
  6
CONTINUOUS
 62
     3
100
AcDbLine
 10
985.5000310481
 20
639.8622800758092
 30
0.0
 11
986.5000311752001
 21
638.8622800330088
 31
0.0
  0
LINE
  5
349
330
1F
100
AcDbEntity
  8
Ｓ_１_１
  6
CONTINUOUS
 62
     3
100
AcDbLine
 10
985.500031
 20
639.8622800000092
 30
0.0
 11
985.500031
 21
655.3622800000092
 31
0.0
  0
LINE
  5
34A
330
1F
100
AcDbEntity
  8
Ｓ_１_１
  6
CONTINUOUS
 62
     3
100
AcDbLine
 10
986.5000307116002
 20
671.8622804628092
 30
0.0
 11
985.5000309986999
 21
670.8622806657088
 31
0.0
  0
LINE
  5
34B
330
1F
100
AcDbEntity
  8
Ｓ_１_１
  6
CONTINUOUS
 62
     3
100
AcDbLine
 10
985.500031
 20
670.8622800000092
 30
0.0
 11
985.500031
 21
655.3622800000092
 31
0.0
  0
LINE
  5
34C
330
1F
100
AcDbEntity
  8
Ｓ_１_１
  6
CONTINUOUS
 62
     3
100
AcDbLine
 10
985.500031
 20
670.8622800000092
 30
0.0
 11
1010.500031
 21
670.8622800000092
 31
0.0
  0
LINE
  5
34D
330
1F
100
AcDbEntity
  8
Ｓ_１_１
  6
CONTINUOUS
 62
     3
100
AcDbLine
 10
985.500031
 20
639.8622800000092
 30
0.0
 11
1010.500031
 21
639.8622800000092
 31
0.0
  0
LINE
  5
34E
330
1F
100
AcDbEntity
  8
Ｓ_１_１
  6
CONTINUOUS
 62
     3
100
AcDbLine
 10
1006.264893
 20
673.22455200002
 30
0.0
 11
989.7351760000001
 21
673.22455200002
 31
0.0
  0
LINE
  5
34F
330
1F
100
AcDbEntity
  8
Ｓ_１_１
  6
CONTINUOUS
 62
     3
100
AcDbLine
 10
990.82015
 20
679.36225300002
 30
0.0
 11
990.4365420000004
 21
673.22454000002
 31
0.0
  0
LINE
  5
350
330
1F
100
AcDbEntity
  8
Ｓ_１_１
  6
CONTINUOUS
 62
     3
100
AcDbLine
 10
990.1187800000002
 20
679.36227100002
 30
0.0
 11
989.6500290000004
 21
671.86225700002
 31
0.0
  0
LINE
  5
351
330
1F
100
AcDbEntity
  8
Ｓ_１_１
  6
CONTINUOUS
 62
     3
100
AcDbLine
 10
990.436557
 20
673.2245600000201
 30
0.0
 11
989.6500420000002
 21
671.86227700002
 31
0.0
  0
LINE
  5
352
330
1F
100
AcDbEntity
  8
Ｓ_１_１
  6
CONTINUOUS
 62
     3
100
AcDbLine
 10
1005.881281
 20
679.36228300002
 30
0.0
 11
1006.350034
 21
671.86223800002
 31
0.0
  0
LINE
  5
353
330
1F
100
AcDbEntity
  8
Ｓ_１_１
  6
CONTINUOUS
 62
     3
100
AcDbLine
 10
1006.35002
 20
671.86226100002
 30
0.0
 11
1005.563514
 21
673.2245310000201
 31
0.0
  0
LINE
  5
354
330
1F
100
AcDbEntity
  8
Ｓ_１_１
  6
CONTINUOUS
 62
     3
100
AcDbLine
 10
1005.179919
 20
679.36226500002
 30
0.0
 11
1005.563528
 21
673.22452200002
 31
0.0
  0
LINE
  5
355
330
1F
100
AcDbEntity
  8
Ｓ_１_１
  6
CONTINUOUS
 62
     3
100
AcDbLine
 10
1005.25102
 20
632.499989
 30
0.0
 11
1005.563521
 21
637.499999
 31
0.0
  0
LINE
  5
356
330
1F
100
AcDbEntity
  8
Ｓ_１_１
  6
CONTINUOUS
 62
     3
100
AcDbLine
 10
1005.952384
 20
632.500001
 30
0.0
 11
1006.350024
 21
638.862252
 31
0.0
  0
LINE
  5
357
330
1F
100
AcDbEntity
  8
Ｓ_１_１
  6
CONTINUOUS
 62
     3
100
AcDbLine
 10
1006.264893
 20
637.500008
 30
0.0
 11
989.7351760000001
 21
637.500008
 31
0.0
  0
LINE
  5
358
330
1F
100
AcDbEntity
  8
Ｓ_１_１
  6
CONTINUOUS
 62
     3
100
AcDbLine
 10
1006.350043
 20
638.862299
 30
0.0
 11
1005.563529
 21
637.500016
 31
0.0
  0
LINE
  5
359
330
1F
100
AcDbEntity
  8
Ｓ_１_１
  6
CONTINUOUS
 62
     3
100
AcDbLine
 10
990.749045
 20
632.500001
 30
0.0
 11
990.4365440000001
 21
637.5000110000001
 31
0.0
  0
LINE
  5
35A
330
1F
100
AcDbEntity
  8
Ｓ_１_１
  6
CONTINUOUS
 62
     3
100
AcDbLine
 10
990.0476810000002
 20
632.500014
 30
0.0
 11
989.6500410000003
 21
638.8622640000001
 31
0.0
  0
LINE
  5
35B
330
1F
100
AcDbEntity
  8
Ｓ_１_１
  6
CONTINUOUS
 62
     3
100
AcDbLine
 10
990.4365340000004
 20
637.5
 30
0.0
 11
989.6500270000001
 21
638.8622700000001
 31
0.0
  0
ARC
  5
35C
330
1F
100
AcDbEntity
  8
Ｓ_１_１
  6
CONTINUOUS
 62
     3
100
AcDbCircle
 10
1008.39231949999
 20
680.2284460000185
 30
0.0
 40
6.133925000000002
100
AcDbArc
 50
55.61543800000034
 51
124.3845830000003
  0
ARC
  5
35D
330
1F
100
AcDbEntity
  8
Ｓ_１_１
  6
CONTINUOUS
 62
     3
100
AcDbCircle
 10
998.0000154999898
 20
663.4341340000185
 30
0.0
 40
22.927938
100
AcDbArc
 50
72.411858
 51
107.5881660000001
  0
ARC
  5
35E
330
1F
100
AcDbEntity
  8
Ｓ_１_１
  6
CONTINUOUS
 62
     3
100
AcDbCircle
 10
987.6076814999901
 20
685.4961460000184
 30
0.0
 40
6.133925000000002
100
AcDbArc
 50
235.6154019999991
 51
304.3845609999998
  0
ARC
  5
35F
330
1F
100
AcDbEntity
  8
Ｓ_１_１
  6
CONTINUOUS
 62
     3
100
AcDbCircle
 10
993.5000154999902
 20
723.3621130000186
 30
0.0
 40
1.0
100
AcDbArc
 50
89.99997799999524
 51
179.9999749999976
  0
ARC
  5
360
330
1F
100
AcDbEntity
  8
Ｓ_１_１
  6
CONTINUOUS
 62
     3
100
AcDbCircle
 10
987.6076814999901
 20
680.2284460000185
 30
0.0
 40
6.133925000000002
100
AcDbArc
 50
55.6153689999997
 51
124.384513999999
  0
ARC
  5
361
330
1F
100
AcDbEntity
  8
Ｓ_１_１
  6
CONTINUOUS
 62
     3
100
AcDbCircle
 10
998.0000154999898
 20
702.2902130000186
 30
0.0
 40
22.927942
100
AcDbArc
 50
252.4118210000002
 51
287.5881150000001
  0
ARC
  5
362
330
1F
100
AcDbEntity
  8
Ｓ_１_１
  6
CONTINUOUS
 62
     3
100
AcDbCircle
 10
1008.39231949999
 20
685.4961460000184
 30
0.0
 40
6.133925000000002
100
AcDbArc
 50
235.6154159999998
 51
304.3845739999999
  0
ARC
  5
363
330
1F
100
AcDbEntity
  8
Ｓ_１_１
  6
CONTINUOUS
 62
     3
100
AcDbCircle
 10
1002.49998549999
 20
723.3621130000186
 30
0.0
 40
1.0
100
AcDbArc
 50
359.9999970000023
 51
89.9999780000017
  0
LINE
  5
364
330
1F
100
AcDbEntity
  8
Ｓ_１_１
  6
CONTINUOUS
 62
     3
100
AcDbLine
 10
996.5000464999898
 20
726.3622350000185
 30
0.0
 11
999.5000154999898
 21
726.3622350000185
 31
0.0
  0
LINE
  5
365
330
1F
100
AcDbEntity
  8
Ｓ_１_１
  6
CONTINUOUS
 62
     3
100
AcDbLine
 10
986.0000154999902
 20
679.3623570000184
 30
0.0
 11
1009.99998549999
 21
679.3623570000184
 31
0.0
  0
LINE
  5
366
330
1F
100
AcDbEntity
  8
Ｓ_１_１
  6
CONTINUOUS
 62
     3
100
AcDbLine
 10
992.4999854999901
 20
723.3621130000186
 30
0.0
 11
992.4999854999901
 21
714.3623570000184
 31
0.0
  0
LINE
  5
367
330
1F
100
AcDbEntity
  8
Ｓ_１_１
  6
CONTINUOUS
 62
     3
100
AcDbLine
 10
992.4999854999901
 20
714.3623570000184
 30
0.0
 11
1003.50001549999
 21
714.3623570000184
 31
0.0
  0
LINE
  5
368
330
1F
100
AcDbEntity
  8
Ｓ_１_１
  6
CONTINUOUS
 62
     3
100
AcDbLine
 10
989.0000464999903
 20
710.8621130000186
 30
0.0
 11
989.0000464999903
 21
708.8622350000185
 31
0.0
  0
LINE
  5
369
330
1F
100
AcDbEntity
  8
Ｓ_１_１
  6
CONTINUOUS
 62
     3
100
AcDbLine
 10
1007.00001549999
 20
710.8621130000186
 30
0.0
 11
1007.00001549999
 21
708.8622350000185
 31
0.0
  0
LINE
  5
36A
330
1F
100
AcDbEntity
  8
Ｓ_１_１
  6
CONTINUOUS
 62
     3
100
AcDbLine
 10
986.7500154999902
 20
695.3622350000185
 30
0.0
 11
1009.25001549999
 21
695.3622350000185
 31
0.0
  0
LINE
  5
36B
330
1F
100
AcDbEntity
  8
Ｓ_１_１
  6
CONTINUOUS
 62
     3
100
AcDbLine
 10
1009.75001549999
 20
694.8622350000185
 30
0.0
 11
1009.75001549999
 21
686.3622350000185
 31
0.0
  0
LINE
  5
36C
330
1F
100
AcDbEntity
  8
Ｓ_１_１
  6
CONTINUOUS
 62
     3
100
AcDbLine
 10
986.2499854999901
 20
694.8622350000185
 30
0.0
 11
986.2499854999901
 21
686.3622350000185
 31
0.0
  0
LINE
  5
36D
330
1F
100
AcDbEntity
  8
Ｓ_１_１
  6
CONTINUOUS
 62
     3
100
AcDbLine
 10
984.14364749999
 20
680.4342090000184
 30
0.0
 11
986.0000194999902
 21
679.3624320000188
 31
0.0
  0
LINE
  5
36E
330
1F
100
AcDbEntity
  8
Ｓ_１_１
  6
CONTINUOUS
 62
     3
100
AcDbLine
 10
1009.99994249999
 20
686.3624260000186
 30
0.0
 11
1011.85642049999
 21
685.2905870000184
 31
0.0
  0
LINE
  5
36F
330
1F
100
AcDbEntity
  8
Ｓ_１_１
  6
CONTINUOUS
 62
     3
100
AcDbLine
 10
1009.99998449999
 20
679.3623900000186
 30
0.0
 11
1011.85635749999
 21
680.4341670000188
 31
0.0
  0
LINE
  5
370
330
1F
100
AcDbEntity
  8
Ｓ_１_１
  6
CONTINUOUS
 62
     3
100
AcDbLine
 10
984.1436544999901
 20
685.2907270000185
 30
0.0
 11
986.0000274999902
 21
686.3625040000186
 31
0.0
  0
LINE
  5
371
330
1F
100
AcDbEntity
  8
Ｓ_１_１
  6
CONTINUOUS
 62
     3
100
AcDbLine
 10
1011.85643049999
 20
685.2904570000185
 30
0.0
 11
1011.85643049999
 21
680.4341340000185
 31
0.0
  0
LINE
  5
372
330
1F
100
AcDbEntity
  8
Ｓ_１_１
  6
CONTINUOUS
 62
     3
100
AcDbLine
 10
1004.92823849999
 20
685.2904570000185
 30
0.0
 11
1004.92823849999
 21
680.4341340000185
 31
0.0
  0
LINE
  5
373
330
1F
100
AcDbEntity
  8
Ｓ_１_１
  6
CONTINUOUS
 62
     3
100
AcDbLine
 10
991.0718844999901
 20
685.2904570000185
 30
0.0
 11
991.0718844999901
 21
680.4341340000185
 31
0.0
  0
LINE
  5
374
330
1F
100
AcDbEntity
  8
Ｓ_１_１
  6
CONTINUOUS
 62
     3
100
AcDbLine
 10
984.14361649999
 20
685.2904570000185
 30
0.0
 11
984.14361649999
 21
680.4341340000185
 31
0.0
  0
LINE
  5
375
330
1F
100
AcDbEntity
  8
Ｓ_１_１
  6
CONTINUOUS
 62
     3
100
AcDbLine
 10
986.0000154999902
 20
686.3622350000185
 30
0.0
 11
1009.99998549999
 21
686.3622350000185
 31
0.0
  0
LINE
  5
376
330
1F
100
AcDbEntity
  8
Ｓ_１_１
  6
CONTINUOUS
 62
     3
100
AcDbLine
 10
993.5000154999902
 20
724.3623570000188
 30
0.0
 11
1002.49998549999
 21
724.3623570000188
 31
0.0
  0
LINE
  5
377
330
1F
100
AcDbEntity
  8
Ｓ_１_１
  6
CONTINUOUS
 62
     3
100
AcDbLine
 10
999.4998744999898
 20
726.3624220000186
 30
0.0
 11
1001.49991949999
 21
724.3623770000188
 31
0.0
  0
LINE
  5
378
330
1F
100
AcDbEntity
  8
Ｓ_１_１
  6
CONTINUOUS
 62
     3
100
AcDbLine
 10
994.4998474999902
 20
724.3624200000183
 30
0.0
 11
996.4998064999895
 21
726.3623790000186
 31
0.0
  0
LINE
  5
379
330
1F
100
AcDbEntity
  8
Ｓ_１_１
  6
CONTINUOUS
 62
     3
100
AcDbLine
 10
990.5000154999902
 20
705.8621130000186
 30
0.0
 11
1005.50001549999
 21
705.8621130000186
 31
0.0
  0
LINE
  5
37A
330
1F
100
AcDbEntity
  8
Ｓ_１_１
  6
CONTINUOUS
 62
     3
100
AcDbLine
 10
990.5000154999902
 20
707.3622350000185
 30
0.0
 11
1005.50001549999
 21
707.3622350000185
 31
0.0
  0
LINE
  5
37B
330
1F
100
AcDbEntity
  8
Ｓ_１_１
  6
CONTINUOUS
 62
     3
100
AcDbLine
 10
989.0000464999903
 20
710.8621130000186
 30
0.0
 11
1007.00001549999
 21
710.8621130000186
 31
0.0
  0
LINE
  5
37C
330
1F
100
AcDbEntity
  8
Ｓ_１_１
  6
CONTINUOUS
 62
     3
100
AcDbLine
 10
1007.00001549999
 20
704.3623570000184
 30
0.0
 11
1007.00001549999
 21
695.3622350000185
 31
0.0
  0
LINE
  5
37D
330
1F
100
AcDbEntity
  8
Ｓ_１_１
  6
CONTINUOUS
 62
     3
100
AcDbLine
 10
989.0000464999903
 20
704.3623570000184
 30
0.0
 11
989.0000464999903
 21
695.3622350000185
 31
0.0
  0
LINE
  5
37E
330
1F
100
AcDbEntity
  8
Ｓ_１_１
  6
CONTINUOUS
 62
     3
100
AcDbLine
 10
988.9999034999901
 20
708.8622560000188
 30
0.0
 11
990.49991549999
 21
707.3622430000185
 31
0.0
  0
LINE
  5
37F
330
1F
100
AcDbEntity
  8
Ｓ_１_１
  6
CONTINUOUS
 62
     3
100
AcDbLine
 10
1005.49998149999
 20
707.3622420000186
 30
0.0
 11
1006.99986449999
 21
708.8621250000185
 31
0.0
  0
LINE
  5
380
330
1F
100
AcDbEntity
  8
Ｓ_１_１
  6
CONTINUOUS
 62
     3
100
AcDbLine
 10
989.0000464999903
 20
708.8622350000185
 30
0.0
 11
1007.00001549999
 21
708.8622350000185
 31
0.0
  0
LINE
  5
381
330
1F
100
AcDbEntity
  8
Ｓ_１_１
  6
CONTINUOUS
 62
     3
100
AcDbLine
 10
989.00001749999
 20
704.3623900000186
 30
0.0
 11
990.49990049999
 21
705.8622730000186
 31
0.0
  0
LINE
  5
382
330
1F
100
AcDbEntity
  8
Ｓ_１_１
  6
CONTINUOUS
 62
     3
100
AcDbLine
 10
1005.49986749999
 20
705.8622310000185
 30
0.0
 11
1006.99988049999
 21
704.3622190000185
 31
0.0
  0
LINE
  5
383
330
1F
100
AcDbEntity
  8
Ｓ_１_１
  6
CONTINUOUS
 62
     3
100
AcDbLine
 10
986.2499854999901
 20
694.8622350000185
 30
0.0
 11
1009.75001549999
 21
694.8622350000185
 31
0.0
  0
LINE
  5
384
330
1F
100
AcDbEntity
  8
Ｓ_１_１
  6
CONTINUOUS
 62
     3
100
AcDbLine
 10
989.0000464999903
 20
704.3623570000184
 30
0.0
 11
1007.00001549999
 21
704.3623570000184
 31
0.0
  0
LINE
  5
385
330
1F
100
AcDbEntity
  8
Ｓ_１_１
  6
CONTINUOUS
 62
     3
100
AcDbLine
 10
990.5000154999902
 20
707.3622350000185
 30
0.0
 11
990.5000154999902
 21
705.8621130000186
 31
0.0
  0
LINE
  5
386
330
1F
100
AcDbEntity
  8
Ｓ_１_１
  6
CONTINUOUS
 62
     3
100
AcDbLine
 10
1005.50001549999
 20
707.3622350000185
 30
0.0
 11
1005.50001549999
 21
705.8621130000186
 31
0.0
  0
LINE
  5
387
330
1F
100
AcDbEntity
  8
Ｓ_１_１
  6
CONTINUOUS
 62
     3
100
AcDbLine
 10
1009.24991149999
 20
695.3623240000186
 30
0.0
 11
1009.74985849999
 21
694.8623780000187
 31
0.0
  0
LINE
  5
388
330
1F
100
AcDbEntity
  8
Ｓ_１_１
  6
CONTINUOUS
 62
     3
100
AcDbLine
 10
986.2499404999903
 20
694.8623260000184
 30
0.0
 11
986.7498384999903
 21
695.3622350000185
 31
0.0
  0
LINE
  5
389
330
1F
100
AcDbEntity
  8
Ｓ_１_１
  6
CONTINUOUS
 62
     3
100
AcDbLine
 10
988.99997449999
 20
710.8623440000185
 30
0.0
 11
992.4999884999902
 21
714.3623580000187
 31
0.0
  0
LINE
  5
38A
330
1F
100
AcDbEntity
  8
Ｓ_１_１
  6
CONTINUOUS
 62
     3
100
AcDbLine
 10
1003.49986549999
 20
714.3621440000186
 30
0.0
 11
1006.99983649999
 21
710.8621720000185
 31
0.0
  0
LINE
  5
38B
330
1F
100
AcDbEntity
  8
Ｓ_１_１
  6
CONTINUOUS
 62
     3
100
AcDbLine
 10
1003.50001549999
 20
723.3621130000186
 30
0.0
 11
1003.50001549999
 21
714.3623570000184
 31
0.0
  0
CIRCLE
  5
38C
330
1F
100
AcDbEntity
  8
Ｓ_１_１
  6
CONTINUOUS
 62
     3
100
AcDbCircle
 10
998.000031
 20
655.3622800000101
 30
0.0
 40
10.0
  0
POLYLINE
  5
38D
330
1F
100
AcDbEntity
  8
Ｓ_１_１
  6
CONTINUOUS
 62
     3
100
AcDb2dPolyline
 66
     1
 10
0.0
 20
0.0
 30
0.0
 70
   128
  0
VERTEX
  5
38E
330
38D
100
AcDbEntity
  8
Ｓ_１_１
  6
CONTINUOUS
 62
     3
100
AcDbVertex
100
AcDb2dVertex
 10
998.000031
 20
664.8622800000101
 30
0.0
  0
VERTEX
  5
38F
330
38D
100
AcDbEntity
  8
Ｓ_１_１
  6
CONTINUOUS
 62
     3
100
AcDbVertex
100
AcDb2dVertex
 10
989.7727896640481
 20
660.1122800000101
 30
0.0
  0
VERTEX
  5
390
330
38D
100
AcDbEntity
  8
Ｓ_１_１
  6
CONTINUOUS
 62
     3
100
AcDbVertex
100
AcDb2dVertex
 10
989.7727896640481
 20
650.6122800000101
 30
0.0
  0
VERTEX
  5
391
330
38D
100
AcDbEntity
  8
Ｓ_１_１
  6
CONTINUOUS
 62
     3
100
AcDbVertex
100
AcDb2dVertex
 10
998.000031
 20
645.8622800000101
 30
0.0
  0
VERTEX
  5
392
330
38D
100
AcDbEntity
  8
Ｓ_１_１
  6
CONTINUOUS
 62
     3
100
AcDbVertex
100
AcDb2dVertex
 10
1006.227272335952
 20
650.6122800000101
 30
0.0
  0
VERTEX
  5
393
330
38D
100
AcDbEntity
  8
Ｓ_１_１
  6
CONTINUOUS
 62
     3
100
AcDbVertex
100
AcDb2dVertex
 10
1006.227272335952
 20
660.1122800000101
 30
0.0
  0
VERTEX
  5
394
330
38D
100
AcDbEntity
  8
Ｓ_１_１
  6
CONTINUOUS
 62
     3
100
AcDbVertex
100
AcDb2dVertex
 10
998.000031
 20
664.8622800000101
 30
0.0
  0
SEQEND
  5
395
330
38D
100
AcDbEntity
  8
Ｓ_１_１
  6
CONTINUOUS
 62
     3
  0
CIRCLE
  5
396
330
1F
100
AcDbEntity
  8
Ｓ_１_１
  6
CONTINUOUS
 62
     3
100
AcDbCircle
 10
998.000031
 20
655.3622800000101
 30
0.0
 40
8.227241335951572
  0
ARC
  5
397
330
1F
100
AcDbEntity
  8
Ｓ_１_１
  6
CONTINUOUS
 62
     3
100
AcDbCircle
 10
998.000031
 20
655.3622800000101
 30
0.0
 40
8.999999915700016
100
AcDbArc
 50
96.08359749728285
 51
143.9164025027172
  0
ARC
  5
398
330
1F
100
AcDbEntity
  8
Ｓ_１_１
  6
CONTINUOUS
 62
     3
100
AcDbCircle
 10
998.000031
 20
655.3622800000101
 30
0.0
 40
8.999999915700016
100
AcDbArc
 50
156.0835974972827
 51
203.9164025027173
  0
ARC
  5
399
330
1F
100
AcDbEntity
  8
Ｓ_１_１
  6
CONTINUOUS
 62
     3
100
AcDbCircle
 10
998.000031
 20
655.3622800000101
 30
0.0
 40
8.999999915700016
100
AcDbArc
 50
216.0835974972828
 51
263.9164025027172
  0
ARC
  5
39A
330
1F
100
AcDbEntity
  8
Ｓ_１_１
  6
CONTINUOUS
 62
     3
100
AcDbCircle
 10
998.000031
 20
655.3622800000101
 30
0.0
 40
8.999999915700016
100
AcDbArc
 50
276.0835974972829
 51
323.9164025027172
  0
ARC
  5
39B
330
1F
100
AcDbEntity
  8
Ｓ_１_１
  6
CONTINUOUS
 62
     3
100
AcDbCircle
 10
998.000031
 20
655.3622800000101
 30
0.0
 40
8.999999915700016
100
AcDbArc
 50
336.0835974972827
 51
23.91640250271736
  0
ARC
  5
39C
330
1F
100
AcDbEntity
  8
Ｓ_１_１
  6
CONTINUOUS
 62
     3
100
AcDbCircle
 10
998.000031
 20
655.3622800000101
 30
0.0
 40
8.999999915700016
100
AcDbArc
 50
36.08359749728283
 51
83.91640250271715
  0
CIRCLE
  5
39D
330
1F
100
AcDbEntity
  8
Ｓ_１_１
  6
CONTINUOUS
 62
     3
100
AcDbCircle
 10
998.000031
 20
655.3622800000101
 30
0.0
 40
5.0
  0
CIRCLE
  5
39E
330
1F
100
AcDbEntity
  8
Ｓ_１_１
  6
CONTINUOUS
 62
     3
100
AcDbCircle
 10
998.000031
 20
655.3622800000101
 30
0.0
 40
4.25
  0
LINE
  5
39F
330
1F
100
AcDbEntity
  8
Ｓ_１_１
  6
EXLTYPE2
 62
     1
100
AcDbLine
 10
1011.000031
 20
655.3622800000092
 30
0.0
 11
985.000031
 21
655.3622800000092
 31
0.0
  0
POLYLINE
  5
3A0
330
1F
100
AcDbEntity
  8
Ｓ_１_１
  6
CONTINUOUS
 62
     3
100
AcDb2dPolyline
 66
     1
 10
0.0
 20
0.0
 30
0.0
 70
   128
  0
VERTEX
  5
3A1
330
3A0
100
AcDbEntity
  8
Ｓ_１_１
  6
CONTINUOUS
 62
     3
100
AcDbVertex
100
AcDb2dVertex
 10
998.000031
 20
658.2490313459581
 30
0.0
  0
VERTEX
  5
3A2
330
3A0
100
AcDbEntity
  8
Ｓ_１_１
  6
CONTINUOUS
 62
     3
100
AcDbVertex
100
AcDb2dVertex
 10
995.500031
 20
656.805655672984
 30
0.0
  0
VERTEX
  5
3A3
330
3A0
100
AcDbEntity
  8
Ｓ_１_１
  6
CONTINUOUS
 62
     3
100
AcDbVertex
100
AcDb2dVertex
 10
995.500031
 20
653.9189043270359
 30
0.0
  0
VERTEX
  5
3A4
330
3A0
100
AcDbEntity
  8
Ｓ_１_１
  6
CONTINUOUS
 62
     3
100
AcDbVertex
100
AcDb2dVertex
 10
998.000031
 20
652.4755286540618
 30
0.0
  0
VERTEX
  5
3A5
330
3A0
100
AcDbEntity
  8
Ｓ_１_１
  6
CONTINUOUS
 62
     3
100
AcDbVertex
100
AcDb2dVertex
 10
1000.500031
 20
653.9189043270359
 30
0.0
  0
VERTEX
  5
3A6
330
3A0
100
AcDbEntity
  8
Ｓ_１_１
  6
CONTINUOUS
 62
     3
100
AcDbVertex
100
AcDb2dVertex
 10
1000.500031
 20
656.805655672984
 30
0.0
  0
VERTEX
  5
3A7
330
3A0
100
AcDbEntity
  8
Ｓ_１_１
  6
CONTINUOUS
 62
     3
100
AcDbVertex
100
AcDb2dVertex
 10
998.000031
 20
658.2490313459581
 30
0.0
  0
SEQEND
  5
3A8
330
3A0
100
AcDbEntity
  8
Ｓ_１_１
  6
CONTINUOUS
 62
     3
  0
ENDSEC
  0
SECTION
  2
OBJECTS
  0
DICTIONARY
  5
C
330
0
100
AcDbDictionary
  3
ACAD_GROUP
350
D
  3
ACAD_LAYOUT
350
1A
  3
ACAD_MATERIAL
350
43
  3
ACAD_MLEADERSTYLE
350
6B
  3
ACAD_MLINESTYLE
350
17
  3
ACAD_PLOTSETTINGS
350
19
  3
ACAD_SCALELIST
350
47
  3
ACAD_VISUALSTYLE
350
2A
  3
ACDBHEADERROUNDTRIPXREC
350
3A9
  3
ACDBVARIABLEDICTIONARY
350
3CA
  0
DICTIONARY
  5
3D5
330
8
100
AcDbDictionary
280
     1
  3
ACAD_XREC_ROUNDTRIP
360
3D6
  0
DICTIONARY
  5
D
102
{ACAD_REACTORS
330
C
102
}
330
C
100
AcDbDictionary
  0
DICTIONARY
  5
1A
102
{ACAD_REACTORS
330
C
102
}
330
C
100
AcDbDictionary
  0
DICTIONARY
  5
43
102
{ACAD_REACTORS
330
C
102
}
330
C
100
AcDbDictionary
  3
BYBLOCK
350
45
  3
BYLAYER
350
44
  3
GLOBAL
350
46
  0
DICTIONARY
  5
6B
102
{ACAD_REACTORS
330
C
102
}
330
C
100
AcDbDictionary
  3
STANDARD
350
6C
  0
DICTIONARY
  5
17
102
{ACAD_REACTORS
330
C
102
}
330
C
100
AcDbDictionary
  3
STANDARD
350
18
  0
DICTIONARY
  5
19
102
{ACAD_REACTORS
330
C
102
}
330
C
100
AcDbDictionary
  0
DICTIONARY
  5
47
102
{ACAD_REACTORS
330
C
102
}
330
C
100
AcDbDictionary
  3
A0
350
48
  3
A1
350
49
  3
A2
350
4A
  3
A3
350
4B
  3
A4
350
4C
  3
A5
350
4D
  3
A6
350
4E
  3
A7
350
4F
  3
A8
350
50
  3
A9
350
51
  3
B0
350
52
  3
B1
350
53
  3
B2
350
54
  3
B3
350
55
  3
B4
350
56
  3
B5
350
57
  3
B6
350
58
  3
B7
350
59
  3
B8
350
5A
  3
B9
350
5B
  3
C0
350
5C
  3
C1
350
5D
  3
C2
350
5E
  3
C3
350
5F
  3
C4
350
60
  3
C5
350
61
  3
C6
350
62
  3
C7
350
63
  3
C8
350
64
  3
C9
350
65
  3
D0
350
66
  3
D1
350
67
  3
D2
350
68
  0
DICTIONARY
  5
2A
102
{ACAD_REACTORS
330
C
102
}
330
C
100
AcDbDictionary
  3
2DWIREFRAME
350
2F
  3
BASIC
350
32
  3
BRIGHTEN
350
36
  3
COLORCHANGE
350
3A
  3
CONCEPTUAL
350
34
  3
DIM
350
35
  3
EDGECOLOROFF
350
3D
  3
FACEPATTERN
350
39
  3
FLAT
350
2B
  3
FLATWITHEDGES
350
2C
  3
GOURAUD
350
2D
  3
GOURAUDWITHEDGES
350
2E
  3
HIDDEN
350
31
  3
JITTEROFF
350
3B
  3
LINEPATTERN
350
38
  3
OVERHANGOFF
350
3C
  3
REALISTIC
350
33
  3
SHADED
350
42
  3
SHADED_WITH_EDGES
350
41
  3
SHADES_OF_GRAY
350
3E
  3
SKETCHY
350
3F
  3
THICKEN
350
37
  3
WIREFRAME
350
30
  3
X-RAY
350
40
  0
DICTIONARY
  5
3A9
102
{ACAD_REACTORS
330
C
102
}
330
C
100
AcDbDictionary
  3
CEPSNID
350
3B3
  3
CEPSNTYPE
350
3B2
  3
DIMSTYLEDATA
350
3C9
  3
FINGERPRINTGUID
350
3B4
  3
HYPERLINKBASE
350
3AC
  3
INSUNITS
350
3B1
  3
LAYOUTDICT
350
3AE
  3
LWETCUNION
350
3B0
  3
PLOTSETDICT
350
3AF
  3
PSVPSCALE
350
3B6
  3
PUCSBASE
350
3B9
  3
PUCSORGBACK
350
3BF
  3
PUCSORGBOTTOM
350
3BB
  3
PUCSORGFRONT
350
3BE
  3
PUCSORGLEFT
350
3BC
  3
PUCSORGRIGHT
350
3BD
  3
PUCSORGTOP
350
3BA
  3
PUCSORTHOREF
350
3B7
  3
PUCSORTHOVIEW
350
3B8
  3
STYLESHEET
350
3AD
  3
TSTACKALIGN
350
3AA
  3
TSTACKSIZE
350
3AB
  3
UCSBASE
350
3C2
  3
UCSORGBACK
350
3C8
  3
UCSORGBOTTOM
350
3C4
  3
UCSORGFRONT
350
3C7
  3
UCSORGLEFT
350
3C5
  3
UCSORGRIGHT
350
3C6
  3
UCSORGTOP
350
3C3
  3
UCSORTHOREF
350
3C0
  3
UCSORTHOVIEW
350
3C1
  3
VERSIONGUID
350
3B5
  0
DICTIONARY
  5
3CA
102
{ACAD_REACTORS
330
C
102
}
330
C
100
AcDbDictionary
  3
CANNOSCALE
350
3D7
  3
CENTEREXE
350
3D1
  3
CENTERLTYPEFILE
350
3D2
  3
CMLEADERSTYLE
350
3CC
  3
CTABLESTYLE
350
3CB
  3
DIMASSOC
350
3D3
  3
HIDETEXT
350
3D4
  3
MSLTSCALE
350
3D8
  3
PSOLHEIGHT
350
3CE
  3
PSOLWIDTH
350
3CD
  0
XRECORD
  5
3D6
102
{ACAD_REACTORS
330
3D5
102
}
330
3D5
100
AcDbXrecord
102
VTR_0.000_0.000_1.000_1.000_VISUALSTYLE
340
2F
102
VTR_0.000_0.000_1.000_1.000_GRIDDISPLAY
 70
     3
102
VTR_0.000_0.000_1.000_1.000_GRIDMAJOR
 70
     5
102
VTR_0.000_0.000_1.000_1.000_DEFAULTLIGHTING
280
     1
102
VTR_0.000_0.000_1.000_1.000_DEFAULTLIGHTINGTYPE
 70
     1
102
VTR_0.000_0.000_1.000_1.000_BRIGHTNESS
141
0.0
102
VTR_0.000_0.000_1.000_1.000_CONTRAST
142
0.0
  0
MATERIAL
  5
45
102
{ACAD_REACTORS
330
43
102
}
102
{ACAD_XDICTIONARY
360
3DB
102
}
330
43
100
AcDbMaterial
  1
BYBLOCK
  0
MATERIAL
  5
44
102
{ACAD_REACTORS
330
43
102
}
102
{ACAD_XDICTIONARY
360
3D9
102
}
330
43
100
AcDbMaterial
  1
BYLAYER
  0
MATERIAL
  5
46
102
{ACAD_REACTORS
330
43
102
}
102
{ACAD_XDICTIONARY
360
3DD
102
}
330
43
100
AcDbMaterial
  1
GLOBAL
  0
ACAD_PROXY_OBJECT
  5
6C
102
{ACAD_REACTORS
330
6B
102
}
330
6B
100
AcDbProxyObject
 90
      499
 91
      505
 93
      610
310
40901902A4063FBFFFFFE0000000000000020400000000000020404214DD185B99185C990000000000000104090141901A00000000000004100000000000000041025764000000000000039000
340
14
340
0
340
11
340
0
 94
        0
1001
ACAD_MLEADERVER
1070
     2
  0
MLINESTYLE
  5
18
102
{ACAD_REACTORS
330
17
102
}
330
17
100
AcDbMlineStyle
  2
Standard
 70
     0
  3

 62
   256
 51
90.0
 52
90.0
 71
     2
 49
0.5
 62
   256
  6
BYLAYER
 49
-0.5
 62
   256
  6
BYLAYER
  0
ACAD_PROXY_OBJECT
  5
48
102
{ACAD_REACTORS
330
47
102
}
330
47
100
AcDbProxyObject
 90
      499
 91
      503
 93
       41
310
903313A31580
  0
ACAD_PROXY_OBJECT
  5
49
102
{ACAD_REACTORS
330
47
102
}
330
47
100
AcDbProxyObject
 90
      499
 91
      503
 93
      105
310
903313A324000000000000004000
  0
ACAD_PROXY_OBJECT
  5
4A
102
{ACAD_REACTORS
330
47
102
}
330
47
100
AcDbProxyObject
 90
      499
 91
      503
 93
      105
310
903313A344000000000000104000
  0
ACAD_PROXY_OBJECT
  5
4B
102
{ACAD_REACTORS
330
47
102
}
330
47
100
AcDbProxyObject
 90
      499
 91
      503
 93
      105
310
903313A354000000000000144000
  0
ACAD_PROXY_OBJECT
  5
4C
102
{ACAD_REACTORS
330
47
102
}
330
47
100
AcDbProxyObject
 90
      499
 91
      503
 93
      105
310
903313A384000000000000204000
  0
ACAD_PROXY_OBJECT
  5
4D
102
{ACAD_REACTORS
330
47
102
}
330
47
100
AcDbProxyObject
 90
      499
 91
      503
 93
      113
310
904313A31304000000000000244000
  0
ACAD_PROXY_OBJECT
  5
4E
102
{ACAD_REACTORS
330
47
102
}
330
47
100
AcDbProxyObject
 90
      499
 91
      503
 93
      113
310
904313A31364000000000000304000
  0
ACAD_PROXY_OBJECT
  5
4F
102
{ACAD_REACTORS
330
47
102
}
330
47
100
AcDbProxyObject
 90
      499
 91
      503
 93
      113
310
904313A32304000000000000344000
  0
ACAD_PROXY_OBJECT
  5
50
102
{ACAD_REACTORS
330
47
102
}
330
47
100
AcDbProxyObject
 90
      499
 91
      503
 93
      113
310
904313A333040000000000003E4000
  0
ACAD_PROXY_OBJECT
  5
51
102
{ACAD_REACTORS
330
47
102
}
330
47
100
AcDbProxyObject
 90
      499
 91
      503
 93
      113
310
904313A34304000000000000444000
  0
ACAD_PROXY_OBJECT
  5
52
102
{ACAD_REACTORS
330
47
102
}
330
47
100
AcDbProxyObject
 90
      499
 91
      503
 93
      113
310
904313A35304000000000000494000
  0
ACAD_PROXY_OBJECT
  5
53
102
{ACAD_REACTORS
330
47
102
}
330
47
100
AcDbProxyObject
 90
      499
 91
      503
 93
      121
310
905313A3130304000000000000594000
  0
ACAD_PROXY_OBJECT
  5
54
102
{ACAD_REACTORS
330
47
102
}
330
47
100
AcDbProxyObject
 90
      499
 91
      503
 93
      105
310
903323A310000000000000010100
  0
ACAD_PROXY_OBJECT
  5
55
102
{ACAD_REACTORS
330
47
102
}
330
47
100
AcDbProxyObject
 90
      499
 91
      503
 93
      105
310
903343A310000000000000410100
  0
ACAD_PROXY_OBJECT
  5
56
102
{ACAD_REACTORS
330
47
102
}
330
47
100
AcDbProxyObject
 90
      499
 91
      503
 93
      105
310
903383A310000000000000810100
  0
ACAD_PROXY_OBJECT
  5
57
102
{ACAD_REACTORS
330
47
102
}
330
47
100
AcDbProxyObject
 90
      499
 91
      503
 93
      113
310
90431303A310000000000000910100
  0
ACAD_PROXY_OBJECT
  5
58
102
{ACAD_REACTORS
330
47
102
}
330
47
100
AcDbProxyObject
 90
      499
 91
      503
 93
      121
310
9053130303A310000000000001650100
  0
ACAD_PROXY_OBJECT
  5
59
102
{ACAD_REACTORS
330
47
102
}
330
47
100
AcDbProxyObject
 90
      499
 91
      503
 93
      257
310
90E312F31323822203D2031272D3022000000000000200FC000000000000284000
  0
ACAD_PROXY_OBJECT
  5
5A
102
{ACAD_REACTORS
330
47
102
}
330
47
100
AcDbProxyObject
 90
      499
 91
      503
 93
      249
310
90D312F363422203D2031272D3022000000000000240FC000000000000284000
  0
ACAD_PROXY_OBJECT
  5
5B
102
{ACAD_REACTORS
330
47
102
}
330
47
100
AcDbProxyObject
 90
      499
 91
      503
 93
      249
310
90D312F333222203D2031272D3022000000000000280FC000000000000284000
  0
ACAD_PROXY_OBJECT
  5
5C
102
{ACAD_REACTORS
330
47
102
}
330
47
100
AcDbProxyObject
 90
      499
 91
      503
 93
      249
310
90D312F313622203D2031272D30220000000000002C0FC000000000000284000
  0
ACAD_PROXY_OBJECT
  5
5D
102
{ACAD_REACTORS
330
47
102
}
330
47
100
AcDbProxyObject
 90
      499
 91
      503
 93
      249
310
90D332F333222203D2031272D30220000000000002E0FC000000000000284000
  0
ACAD_PROXY_OBJECT
  5
5E
102
{ACAD_REACTORS
330
47
102
}
330
47
100
AcDbProxyObject
 90
      499
 91
      503
 93
      241
310
90C312F3822203D2031272D3022000000000000300FC000000000000284000
  0
ACAD_PROXY_OBJECT
  5
5F
102
{ACAD_REACTORS
330
47
102
}
330
47
100
AcDbProxyObject
 90
      499
 91
      503
 93
      249
310
90D332F313622203D2031272D3022000000000000320FC000000000000284000
  0
ACAD_PROXY_OBJECT
  5
60
102
{ACAD_REACTORS
330
47
102
}
330
47
100
AcDbProxyObject
 90
      499
 91
      503
 93
      241
310
90C312F3422203D2031272D3022000000000000340FC000000000000284000
  0
ACAD_PROXY_OBJECT
  5
61
102
{ACAD_REACTORS
330
47
102
}
330
47
100
AcDbProxyObject
 90
      499
 91
      503
 93
      241
310
90C332F3822203D2031272D3022000000000000360FC000000000000284000
  0
ACAD_PROXY_OBJECT
  5
62
102
{ACAD_REACTORS
330
47
102
}
330
47
100
AcDbProxyObject
 90
      499
 91
      503
 93
      241
310
90C312F3222203D2031272D3022000000000000380FC000000000000284000
  0
ACAD_PROXY_OBJECT
  5
63
102
{ACAD_REACTORS
330
47
102
}
330
47
100
AcDbProxyObject
 90
      499
 91
      503
 93
      241
310
90C332F3422203D2031272D30220000000000003A0FC000000000000284000
  0
ACAD_PROXY_OBJECT
  5
64
102
{ACAD_REACTORS
330
47
102
}
330
47
100
AcDbProxyObject
 90
      499
 91
      503
 93
      161
310
90A3122203D2031272D30224000000000000284000
  0
ACAD_PROXY_OBJECT
  5
65
102
{ACAD_REACTORS
330
47
102
}
330
47
100
AcDbProxyObject
 90
      499
 91
      503
 93
      257
310
90E312D312F3222203D2031272D30220000000000003E0FC000000000000284000
  0
ACAD_PROXY_OBJECT
  5
66
102
{ACAD_REACTORS
330
47
102
}
330
47
100
AcDbProxyObject
 90
      499
 91
      503
 93
      225
310
90A3322203D2031272D302200000000000002100000000000000284000
  0
ACAD_PROXY_OBJECT
  5
67
102
{ACAD_REACTORS
330
47
102
}
330
47
100
AcDbProxyObject
 90
      499
 91
      503
 93
      225
310
90A3622203D2031272D302200000000000006100000000000000284000
  0
ACAD_PROXY_OBJECT
  5
68
102
{ACAD_REACTORS
330
47
102
}
330
47
100
AcDbProxyObject
 90
      499
 91
      503
 93
      249
310
90D31272D3022203D2031272D30220000000000000A100000000000000284000
  0
ACAD_PROXY_OBJECT
  5
2F
102
{ACAD_REACTORS
330
2A
102
}
330
2A
100
AcDbProxyObject
 90
      499
 91
      501
 93
      436
310
42CC9915DA5C99599C985B595049028333333333333E33F0000000000000F90107901411070040501600405405064090741402480A0340
1001
ACAD
1000
AcDbSavedByObjectVersion
1070
     0
  0
ACAD_PROXY_OBJECT
  5
32
102
{ACAD_REACTORS
330
2A
102
}
330
2A
100
AcDbProxyObject
 90
      499
 91
      501
 93
      388
310
4150985CDA58D07406404333333333333E33F0000000000000F90107A41107004050150841D405064090741402480A0350
1001
ACAD
1000
AcDbSavedByObjectVersion
1070
     0
  0
ACAD_PROXY_OBJECT
  5
36
102
{ACAD_REACTORS
330
2A
102
}
330
2A
100
AcDbProxyObject
 90
      499
 91
      501
 93
      428
310
42109C9A59DA1D195B90C409028333333333333E33F0000000000000F9010790141107004050150841D405064090741402480A029950
1001
ACAD
1000
AcDbSavedByObjectVersion
1070
     0
  0
ACAD_PROXY_OBJECT
  5
3A
102
{ACAD_REACTORS
330
2A
102
}
330
2A
100
AcDbProxyObject
 90
      499
 91
      501
 93
      452
310
42D0DBDB1BDC90DA185B99D95104090240C333333333333E33F0000000000000F90108901411070040501508421405064090741402480A0350
1001
ACAD
1000
AcDbSavedByObjectVersion
1070
     0
  0
ACAD_PROXY_OBJECT
  5
34
102
{ACAD_REACTORS
330
2A
102
}
330
2A
100
AcDbProxyObject
 90
      499
 91
      501
 93
      500
310
4290DBDB98D95C1D1D585B10940D028333333333333E33F0000000000000F90107902409070040501000000000018199010841D405064090740C02480A0340
1001
ACAD
1000
AcDbSavedByObjectVersion
1070
     0
  0
ACAD_PROXY_OBJECT
  5
35
102
{ACAD_REACTORS
330
2A
102
}
330
2A
100
AcDbProxyObject
 90
      499
 91
      501
 93
      412
310
40D11A5B50B409028333333333333E33F0000000000000F9010790141107004050150841D405064090741402480A02677FFFFFD0
1001
ACAD
1000
AcDbSavedByObjectVersion
1070
     0
  0
ACAD_PROXY_OBJECT
  5
3D
102
{ACAD_REACTORS
330
2A
102
}
330
2A
100
AcDbProxyObject
 90
      499
 91
      501
 93
      452
310
43115919D950DBDB1BDC93D999916409028333333333333E33F0000000000000F9010790141107004050150841D405064090741402480A0350
1001
ACAD
1000
AcDbSavedByObjectVersion
1070
     0
  0
ACAD_PROXY_OBJECT
  5
39
102
{ACAD_REACTORS
330
2A
102
}
330
2A
100
AcDbProxyObject
 90
      499
 91
      501
 93
      444
310
42D19858D95C185D1D195C9B90F409028333333333333E33F0000000000000F9010790141107004050150841D405064090741402480A0350
1001
ACAD
1000
AcDbSavedByObjectVersion
1070
     0
  0
ACAD_PROXY_OBJECT
  5
2B
102
{ACAD_REACTORS
330
2A
102
}
330
2A
100
AcDbProxyObject
 90
      499
 91
      501
 93
      380
310
41119B185D240901404333333333333E33F0000000000000F9010740A907004050150841D405064090741402480A1B50
1001
ACAD
1000
AcDbSavedByObjectVersion
1070
     0
  0
ACAD_PROXY_OBJECT
  5
2C
102
{ACAD_REACTORS
330
2A
102
}
330
2A
100
AcDbProxyObject
 90
      499
 91
      501
 93
      468
310
43519B185D15DA5D1A115919D95CD0140901404333333333333E33F0000000000000F90107409019070040501600405405064090741402480A1B50
1001
ACAD
1000
AcDbSavedByObjectVersion
1070
     0
  0
ACAD_PROXY_OBJECT
  5
2D
102
{ACAD_REACTORS
330
2A
102
}
330
2A
100
AcDbProxyObject
 90
      499
 91
      501
 93
      404
310
41D1DBDD5C985D5910240902404333333333333E33F0000000000000F9010740A9070040501641D405064090741402480A1B50
1001
ACAD
1000
AcDbSavedByObjectVersion
1070
     0
  0
ACAD_PROXY_OBJECT
  5
2E
102
{ACAD_REACTORS
330
2A
102
}
330
2A
100
AcDbProxyObject
 90
      499
 91
      501
 93
      492
310
4411DBDD5C985D5915DA5D1A115919D95CD0340902404333333333333E33F0000000000000F90107409019070040501600405405064090741402480A1B50
1001
ACAD
1000
AcDbSavedByObjectVersion
1070
     0
  0
ACAD_PROXY_OBJECT
  5
31
102
{ACAD_REACTORS
330
2A
102
}
330
2A
100
AcDbProxyObject
 90
      499
 91
      501
 93
      476
310
41921A5919195B90640502408333333333333E33F0000000000000F901079024090700405020000000000001110200405405064090740C02480A0340
1001
ACAD
1000
AcDbSavedByObjectVersion
1070
     0
  0
ACAD_PROXY_OBJECT
  5
3B
102
{ACAD_REACTORS
330
2A
102
}
330
2A
100
AcDbProxyObject
 90
      499
 91
      501
 93
      428
310
42529A5D1D195C93D999914409028333333333333E33F0000000000000F9010790141107004050150A41D405064090741402480A0350
1001
ACAD
1000
AcDbSavedByObjectVersion
1070
     0
  0
ACAD_PROXY_OBJECT
  5
38
102
{ACAD_REACTORS
330
2A
102
}
330
2A
100
AcDbProxyObject
 90
      499
 91
      501
 93
      444
310
42D31A5B995C185D1D195C9B90E409028333333333333E33F0000000000000F9010790141107004050750841D405064090741402483A0350
1001
ACAD
1000
AcDbSavedByObjectVersion
1070
     0
  0
ACAD_PROXY_OBJECT
  5
3C
102
{ACAD_REACTORS
330
2A
102
}
330
2A
100
AcDbProxyObject
 90
      499
 91
      501
 93
      444
310
42D3DD995C9A185B99D3D999915409028333333333333E33F0000000000000F9010790141107004050150941D405064090741402480A0350
1001
ACAD
1000
AcDbSavedByObjectVersion
1070
     0
  0
ACAD_PROXY_OBJECT
  5
33
102
{ACAD_REACTORS
330
2A
102
}
330
2A
100
AcDbProxyObject
 90
      499
 91
      501
 93
      428
310
425499585B1A5CDD1A58D08409038333333333333E33F0000000000000F9010740A907004050150800405405064090740C02480A1B40
1001
ACAD
1000
AcDbSavedByObjectVersion
1070
     0
  0
ACAD_PROXY_OBJECT
  5
42
102
{ACAD_REACTORS
330
2A
102
}
330
2A
100
AcDbProxyObject
 90
      499
 91
      501
 93
      420
310
4194DA1859195911B40902404333333333333E33F0000000000000F9010740A41107004050150800405405064090840C02480A0B40
1001
ACAD
1000
AcDbSavedByObjectVersion
1070
     0
  0
ACAD_PROXY_OBJECT
  5
41
102
{ACAD_REACTORS
330
2A
102
}
330
2A
100
AcDbProxyObject
 90
      499
 91
      501
 93
      516
310
4454DA18591959081DDA5D1A08195919D95CD1A40902404333333333333E33F0000000000000F901074090142907004050250800405405064090740C02480A0B40
1001
ACAD
1000
AcDbSavedByObjectVersion
1070
     0
  0
ACAD_PROXY_OBJECT
  5
3E
102
{ACAD_REACTORS
330
2A
102
}
330
2A
100
AcDbProxyObject
 90
      499
 91
      501
 93
      532
310
4394DA1859195CC81BD98811DC985E5174090240C333333333333E33F0000000000000F901079024090741D01000000000000111010841D405064090740C02480A0340
1001
ACAD
1000
AcDbSavedByObjectVersion
1070
     0
  0
ACAD_PROXY_OBJECT
  5
3F
102
{ACAD_REACTORS
330
2A
102
}
330
2A
100
AcDbProxyObject
 90
      499
 91
      501
 93
      476
310
41D4DAD95D18DA1E51840502408333333333333E33F0000000000000F901079024090741D01000000000000111010B41D405064090741802480A0340
1001
ACAD
1000
AcDbSavedByObjectVersion
1070
     0
  0
ACAD_PROXY_OBJECT
  5
37
102
{ACAD_REACTORS
330
2A
102
}
330
2A
100
AcDbProxyObject
 90
      499
 91
      501
 93
      412
310
41D51A1A58DAD95B90D409028333333333333E33F0000000000000F9010790141107004050150C41D405064090741402480A0350
1001
ACAD
1000
AcDbSavedByObjectVersion
1070
     0
  0
ACAD_PROXY_OBJECT
  5
30
102
{ACAD_REACTORS
330
2A
102
}
330
2A
100
AcDbProxyObject
 90
      499
 91
      501
 93
      420
310
4255DA5C99599C985B595059028333333333333E33F0000000000000F90107901411070040501600405405064090740C02480A0340
1001
ACAD
1000
AcDbSavedByObjectVersion
1070
     0
  0
ACAD_PROXY_OBJECT
  5
40
102
{ACAD_REACTORS
330
2A
102
}
330
2A
100
AcDbProxyObject
 90
      499
 91
      501
 93
      404
310
41560B54985E51940902404000000000000E03F0000000000000F9010740501907004050150841D405064090740C02480A1B40
1001
ACAD
1000
AcDbSavedByObjectVersion
1070
     0
  0
XRECORD
  5
3B3
102
{ACAD_REACTORS
330
3A9
102
}
330
3A9
100
AcDbXrecord
340
0
  0
XRECORD
  5
3B2
102
{ACAD_REACTORS
330
3A9
102
}
330
3A9
100
AcDbXrecord
 90
        0
  0
XRECORD
  5
3C9
102
{ACAD_REACTORS
330
3A9
102
}
330
3A9
100
AcDbXrecord
1000
DSTYLE
1002
{
1070
   340
340
11
1002
}
  0
XRECORD
  5
3B4
102
{ACAD_REACTORS
330
3A9
102
}
330
3A9
100
AcDbXrecord
  1
{aceb5009-1f6a-403a-a24c-181a04c6d5d3}
  0
XRECORD
  5
3AC
102
{ACAD_REACTORS
330
3A9
102
}
330
3A9
100
AcDbXrecord
  1

  0
XRECORD
  5
3B1
102
{ACAD_REACTORS
330
3A9
102
}
330
3A9
100
AcDbXrecord
 90
        4
  0
XRECORD
  5
3AE
102
{ACAD_REACTORS
330
3A9
102
}
330
3A9
100
AcDbXrecord
340
1A
  0
XRECORD
  5
3B0
102
{ACAD_REACTORS
330
3A9
102
}
330
3A9
100
AcDbXrecord
 90
    10781
  0
XRECORD
  5
3AF
102
{ACAD_REACTORS
330
3A9
102
}
330
3A9
100
AcDbXrecord
340
19
  0
XRECORD
  5
3B6
102
{ACAD_REACTORS
330
3A9
102
}
330
3A9
100
AcDbXrecord
 40
0.0
  0
XRECORD
  5
3B9
102
{ACAD_REACTORS
330
3A9
102
}
330
3A9
100
AcDbXrecord
340
0
  0
XRECORD
  5
3BF
102
{ACAD_REACTORS
330
3A9
102
}
330
3A9
100
AcDbXrecord
 10
0.0
 20
0.0
 30
0.0
  0
XRECORD
  5
3BB
102
{ACAD_REACTORS
330
3A9
102
}
330
3A9
100
AcDbXrecord
 10
0.0
 20
0.0
 30
0.0
  0
XRECORD
  5
3BE
102
{ACAD_REACTORS
330
3A9
102
}
330
3A9
100
AcDbXrecord
 10
0.0
 20
0.0
 30
0.0
  0
XRECORD
  5
3BC
102
{ACAD_REACTORS
330
3A9
102
}
330
3A9
100
AcDbXrecord
 10
0.0
 20
0.0
 30
0.0
  0
XRECORD
  5
3BD
102
{ACAD_REACTORS
330
3A9
102
}
330
3A9
100
AcDbXrecord
 10
0.0
 20
0.0
 30
0.0
  0
XRECORD
  5
3BA
102
{ACAD_REACTORS
330
3A9
102
}
330
3A9
100
AcDbXrecord
 10
0.0
 20
0.0
 30
0.0
  0
XRECORD
  5
3B7
102
{ACAD_REACTORS
330
3A9
102
}
330
3A9
100
AcDbXrecord
340
0
  0
XRECORD
  5
3B8
102
{ACAD_REACTORS
330
3A9
102
}
330
3A9
100
AcDbXrecord
 70
     0
  0
XRECORD
  5
3AD
102
{ACAD_REACTORS
330
3A9
102
}
330
3A9
100
AcDbXrecord
  1

  0
XRECORD
  5
3AA
102
{ACAD_REACTORS
330
3A9
102
}
330
3A9
100
AcDbXrecord
 90
        1
  0
XRECORD
  5
3AB
102
{ACAD_REACTORS
330
3A9
102
}
330
3A9
100
AcDbXrecord
 90
       70
  0
XRECORD
  5
3C2
102
{ACAD_REACTORS
330
3A9
102
}
330
3A9
100
AcDbXrecord
340
0
  0
XRECORD
  5
3C8
102
{ACAD_REACTORS
330
3A9
102
}
330
3A9
100
AcDbXrecord
 10
0.0
 20
0.0
 30
0.0
  0
XRECORD
  5
3C4
102
{ACAD_REACTORS
330
3A9
102
}
330
3A9
100
AcDbXrecord
 10
0.0
 20
0.0
 30
0.0
  0
XRECORD
  5
3C7
102
{ACAD_REACTORS
330
3A9
102
}
330
3A9
100
AcDbXrecord
 10
0.0
 20
0.0
 30
0.0
  0
XRECORD
  5
3C5
102
{ACAD_REACTORS
330
3A9
102
}
330
3A9
100
AcDbXrecord
 10
0.0
 20
0.0
 30
0.0
  0
XRECORD
  5
3C6
102
{ACAD_REACTORS
330
3A9
102
}
330
3A9
100
AcDbXrecord
 10
0.0
 20
0.0
 30
0.0
  0
XRECORD
  5
3C3
102
{ACAD_REACTORS
330
3A9
102
}
330
3A9
100
AcDbXrecord
 10
0.0
 20
0.0
 30
0.0
  0
XRECORD
  5
3C0
102
{ACAD_REACTORS
330
3A9
102
}
330
3A9
100
AcDbXrecord
340
0
  0
XRECORD
  5
3C1
102
{ACAD_REACTORS
330
3A9
102
}
330
3A9
100
AcDbXrecord
 70
     0
  0
XRECORD
  5
3B5
102
{ACAD_REACTORS
330
3A9
102
}
330
3A9
100
AcDbXrecord
  1
{FAEB1C32-E019-11D5-929B-00C0DF256EC4}
  0
DICTIONARYVAR
  5
3D7
102
{ACAD_REACTORS
330
3CA
102
}
330
3CA
100
DictionaryVariables
280
     0
  1
1:1
  0
DICTIONARYVAR
  5
3D1
102
{ACAD_REACTORS
330
3CA
102
}
330
3CA
100
DictionaryVariables
280
     0
  1
3.500000
  0
DICTIONARYVAR
  5
3D2
102
{ACAD_REACTORS
330
3CA
102
}
330
3CA
100
DictionaryVariables
280
     0
  1
acadiso.lin
  0
DICTIONARYVAR
  5
3CC
102
{ACAD_REACTORS
330
3CA
102
}
330
3CA
100
DictionaryVariables
280
     0
  1
Standard
  0
DICTIONARYVAR
  5
3CB
102
{ACAD_REACTORS
330
3CA
102
}
330
3CA
100
DictionaryVariables
280
     0
  1
Standard
  0
DICTIONARYVAR
  5
3D3
102
{ACAD_REACTORS
330
3CA
102
}
330
3CA
100
DictionaryVariables
280
     0
  1
2
  0
DICTIONARYVAR
  5
3D4
102
{ACAD_REACTORS
330
3CA
102
}
330
3CA
100
DictionaryVariables
280
     0
  1
1
  0
DICTIONARYVAR
  5
3D8
102
{ACAD_REACTORS
330
3CA
102
}
330
3CA
100
DictionaryVariables
280
     0
  1
1
  0
DICTIONARYVAR
  5
3CE
102
{ACAD_REACTORS
330
3CA
102
}
330
3CA
100
DictionaryVariables
280
     0
  1
80.000000
  0
DICTIONARYVAR
  5
3CD
102
{ACAD_REACTORS
330
3CA
102
}
330
3CA
100
DictionaryVariables
280
     0
  1
5.000000
  0
DICTIONARY
  5
3DB
330
45
100
AcDbDictionary
280
     1
  3
ACAD_XREC_ROUNDTRIP
360
3DC
  0
DICTIONARY
  5
3D9
330
44
100
AcDbDictionary
280
     1
  3
ACAD_XREC_ROUNDTRIP
360
3DA
  0
DICTIONARY
  5
3DD
330
46
100
AcDbDictionary
280
     1
  3
ACAD_XREC_ROUNDTRIP
360
3DE
  0
XRECORD
  5
3DC
102
{ACAD_REACTORS
330
3DB
102
}
330
3DB
100
AcDbXrecord
102
MATERIAL
148
0.0
149
0.0
149
0.0
 93
        0
 94
      127
282
     0
 72
     1
 77
     1
171
     1
175
     1
179
     1
273
     0
  0
XRECORD
  5
3DA
102
{ACAD_REACTORS
330
3D9
102
}
330
3D9
100
AcDbXrecord
102
MATERIAL
148
0.0
149
0.0
149
0.0
 93
        0
 94
      127
282
     0
 72
     1
 77
     1
171
     1
175
     1
179
     1
273
     0
  0
XRECORD
  5
3DE
102
{ACAD_REACTORS
330
3DD
102
}
330
3DD
100
AcDbXrecord
102
MATERIAL
148
0.0
149
0.0
149
0.0
 93
        0
 94
      127
282
     0
 72
     1
 77
     1
171
     1
175
     1
179
     1
273
     0
  0
ENDSEC
  0
EOF
