  0
SECTION
  2
HEADER
  9
$ACADVER
  1
AC1014
  9
$ACADMAINTVER
 70
     9
  9
$DWGCODEPAGE
  3
ANSI_932
  9
$INSBASE
 10
0.0
 20
0.0
 30
0.0
  9
$EXTMIN
 10
33.33333333333334
 20
33.33333333333334
 30
0.0
  9
$EXTMAX
 10
1366.666666666667
 20
956.6666666666667
 30
0.0
  9
$LIMMIN
 10
0.0
 20
0.0
  9
$LIMMAX
 10
420.0
 20
297.0
  9
$ORTHOMODE
 70
     0
  9
$REGENMODE
 70
     1
  9
$FILLMODE
 70
     1
  9
$QTEXTMODE
 70
     0
  9
$MIRRTEXT
 70
     1
  9
$DRAGMODE
 70
     2
  9
$LTSCALE
 40
1.0
  9
$OSMODE
 70
    37
  9
$ATTMODE
 70
     1
  9
$TEXTSIZE
 40
2.5
  9
$TRACEWID
 40
1.0
  9
$TEXTSTYLE
  7
STANDARD
  9
$CLAYER
  8
Ｓ_１_１
  9
$CELTYPE
  6
BYLAYER
  9
$CECOLOR
 62
   256
  9
$CELTSCALE
 40
1.0
  9
$DELOBJ
 70
     1
  9
$DISPSILH
 70
     0
  9
$DIMSCALE
 40
1.0
  9
$DIMASZ
 40
2.5
  9
$DIMEXO
 40
0.625
  9
$DIMDLI
 40
3.75
  9
$DIMRND
 40
0.0
  9
$DIMDLE
 40
0.0
  9
$DIMEXE
 40
1.25
  9
$DIMTP
 40
0.0
  9
$DIMTM
 40
0.0
  9
$DIMTXT
 40
2.5
  9
$DIMCEN
 40
2.5
  9
$DIMTSZ
 40
0.0
  9
$DIMTOL
 70
     0
  9
$DIMLIM
 70
     0
  9
$DIMTIH
 70
     0
  9
$DIMTOH
 70
     0
  9
$DIMSE1
 70
     0
  9
$DIMSE2
 70
     0
  9
$DIMTAD
 70
     1
  9
$DIMZIN
 70
     8
  9
$DIMBLK
  1

  9
$DIMASO
 70
     1
  9
$DIMSHO
 70
     1
  9
$DIMPOST
  1

  9
$DIMAPOST
  1

  9
$DIMALT
 70
     0
  9
$DIMALTD
 70
     3
  9
$DIMALTF
 40
0.03937007874016
  9
$DIMLFAC
 40
1.0
  9
$DIMTOFL
 70
     1
  9
$DIMTVP
 40
0.0
  9
$DIMTIX
 70
     0
  9
$DIMSOXD
 70
     0
  9
$DIMSAH
 70
     0
  9
$DIMBLK1
  1

  9
$DIMBLK2
  1

  9
$DIMSTYLE
  2
ISO-25
  9
$DIMCLRD
 70
     0
  9
$DIMCLRE
 70
     0
  9
$DIMCLRT
 70
     0
  9
$DIMTFAC
 40
1.0
  9
$DIMGAP
 40
0.625
  9
$DIMJUST
 70
     0
  9
$DIMSD1
 70
     0
  9
$DIMSD2
 70
     0
  9
$DIMTOLJ
 70
     0
  9
$DIMTZIN
 70
     8
  9
$DIMALTZ
 70
     0
  9
$DIMALTTZ
 70
     0
  9
$DIMFIT
 70
     3
  9
$DIMUPT
 70
     0
  9
$DIMUNIT
 70
     2
  9
$DIMDEC
 70
     2
  9
$DIMTDEC
 70
     2
  9
$DIMALTU
 70
     2
  9
$DIMALTTD
 70
     3
  9
$DIMTXSTY
  7
STANDARD
  9
$DIMAUNIT
 70
     0
  9
$LUNITS
 70
     2
  9
$LUPREC
 70
     4
  9
$SKETCHINC
 40
1.0
  9
$FILLETRAD
 40
10.0
  9
$AUNITS
 70
     0
  9
$AUPREC
 70
     0
  9
$MENU
  1
.
  9
$ELEVATION
 40
0.0
  9
$PELEVATION
 40
0.0
  9
$THICKNESS
 40
0.0
  9
$LIMCHECK
 70
     0
  9
$CHAMFERA
 40
0.0
  9
$CHAMFERB
 40
0.0
  9
$CHAMFERC
 40
0.0
  9
$CHAMFERD
 40
0.0
  9
$SKPOLY
 70
     0
  9
$TDCREATE
 40
2459591.543270879
  9
$TDUPDATE
 40
2459591.543271771
  9
$TDINDWG
 40
0.0000000116
  9
$TDUSRTIMER
 40
0.0000000116
  9
$USRTIMER
 70
     1
  9
$ANGBASE
 50
0.0
  9
$ANGDIR
 70
     0
  9
$PDMODE
 70
     0
  9
$PDSIZE
 40
0.0
  9
$PLINEWID
 40
0.0
  9
$COORDS
 70
     1
  9
$SPLFRAME
 70
     0
  9
$SPLINETYPE
 70
     6
  9
$SPLINESEGS
 70
     8
  9
$ATTDIA
 70
     0
  9
$ATTREQ
 70
     1
  9
$HANDLING
 70
     1
  9
$HANDSEED
  5
342
  9
$SURFTAB1
 70
     6
  9
$SURFTAB2
 70
     6
  9
$SURFTYPE
 70
     6
  9
$SURFU
 70
     6
  9
$SURFV
 70
     6
  9
$UCSNAME
  2

  9
$UCSORG
 10
0.0
 20
0.0
 30
0.0
  9
$UCSXDIR
 10
1.0
 20
0.0
 30
0.0
  9
$UCSYDIR
 10
0.0
 20
1.0
 30
0.0
  9
$PUCSNAME
  2

  9
$PUCSORG
 10
0.0
 20
0.0
 30
0.0
  9
$PUCSXDIR
 10
1.0
 20
0.0
 30
0.0
  9
$PUCSYDIR
 10
0.0
 20
1.0
 30
0.0
  9
$USERI1
 70
     0
  9
$USERI2
 70
     0
  9
$USERI3
 70
     0
  9
$USERI4
 70
     0
  9
$USERI5
 70
     0
  9
$USERR1
 40
0.0
  9
$USERR2
 40
0.0
  9
$USERR3
 40
0.0
  9
$USERR4
 40
0.0
  9
$USERR5
 40
0.0
  9
$WORLDVIEW
 70
     1
  9
$SHADEDGE
 70
     3
  9
$SHADEDIF
 70
    70
  9
$TILEMODE
 70
     1
  9
$MAXACTVP
 70
    64
  9
$PINSBASE
 10
0.0
 20
0.0
 30
0.0
  9
$PLIMCHECK
 70
     0
  9
$PEXTMIN
 10
1.000000000000000E+20
 20
1.000000000000000E+20
 30
1.000000000000000E+20
  9
$PEXTMAX
 10
-1.000000000000000E+20
 20
-1.000000000000000E+20
 30
-1.000000000000000E+20
  9
$PLIMMIN
 10
0.0
 20
0.0
  9
$PLIMMAX
 10
420.0
 20
297.0
  9
$UNITMODE
 70
     0
  9
$VISRETAIN
 70
     1
  9
$PLINEGEN
 70
     0
  9
$PSLTSCALE
 70
     1
  9
$TREEDEPTH
 70
  3020
  9
$PICKSTYLE
 70
     1
  9
$CMLSTYLE
  2
STANDARD
  9
$CMLJUST
 70
     0
  9
$CMLSCALE
 40
20.0
  9
$PROXYGRAPHICS
 70
     1
  9
$MEASUREMENT
 70
     1
  0
ENDSEC
  0
SECTION
  2
CLASSES
  0
CLASS
  1
ACDBDICTIONARYWDFLT
  2
AcDbDictionaryWithDefault
  3
ObjectDBX Classes
 90
        0
280
     0
281
     0
  0
CLASS
  1
VISUALSTYLE
  2
AcDbVisualStyle
  3
ObjectDBX Classes
 90
     4095
280
     0
281
     0
  0
CLASS
  1
MATERIAL
  2
AcDbMaterial
  3
ObjectDBX Classes
 90
     1153
280
     0
281
     0
  0
CLASS
  1
SCALE
  2
AcDbScale
  3
ObjectDBX Classes
 90
     1153
280
     0
281
     0
  0
CLASS
  1
TABLESTYLE
  2
AcDbTableStyle
  3
ObjectDBX Classes
 90
     4095
280
     0
281
     0
  0
CLASS
  1
MLEADERSTYLE
  2
AcDbMLeaderStyle
  3
ACDB_MLEADERSTYLE_CLASS
 90
     4095
280
     0
281
     0
  0
CLASS
  1
SUN
  2
AcDbSun
  3
SCENEOE
 90
     1153
280
     0
281
     0
  0
CLASS
  1
DICTIONARYVAR
  2
AcDbDictionaryVar
  3
ObjectDBX Classes
 90
        0
280
     0
281
     0
  0
CLASS
  1
XRECORD
  2
AcDbXrecord
  3
ObjectDBX Classes
 90
        0
280
     0
281
     0
  0
CLASS
  1
LWPOLYLINE
  2
AcDbPolyline
  3
ObjectDBX Classes
 90
        0
280
     0
281
     1
  0
CLASS
  1
HATCH
  2
AcDbHatch
  3
ObjectDBX Classes
 90
        0
280
     0
281
     1
  0
CLASS
  1
ACDBPLACEHOLDER
  2
AcDbPlaceHolder
  3
ObjectDBX Classes
 90
        0
280
     0
281
     0
  0
CLASS
  1
LAYOUT
  2
AcDbLayout
  3
ObjectDBX Classes
 90
        0
280
     0
281
     0
  0
ENDSEC
  0
SECTION
  2
TABLES
  0
TABLE
  2
VPORT
  5
8
102
{ACAD_XDICTIONARY
360
337
102
}
330
0
100
AcDbSymbolTable
 70
     1
  0
VPORT
  5
29
330
8
100
AcDbSymbolTableRecord
100
AcDbViewportTableRecord
  2
*ACTIVE
 70
     0
 10
0.0
 20
0.0
 11
1.0
 21
1.0
 12
700.0
 22
495.0
 13
0.0
 23
0.0
 14
10.0
 24
10.0
 15
10.0
 25
10.0
 16
0.0
 26
0.0
 36
1.0
 17
0.0
 27
0.0
 37
0.0
 40
923.3333333333334
 41
1.444043321299639
 42
50.0
 43
0.0
 44
0.0
 50
0.0
 51
0.0
 71
     0
 72
  1000
 73
     1
 74
     3
 75
     0
 76
     0
 77
     0
 78
     0
  0
ENDTAB
  0
TABLE
  2
LTYPE
  5
5
330
0
100
AcDbSymbolTable
 70
     7
  0
LTYPE
  5
14
330
5
100
AcDbSymbolTableRecord
100
AcDbLinetypeTableRecord
  2
BYBLOCK
 70
     0
  3

 72
    65
 73
     0
 40
0.0
  0
LTYPE
  5
15
330
5
100
AcDbSymbolTableRecord
100
AcDbLinetypeTableRecord
  2
BYLAYER
 70
     0
  3

 72
    65
 73
     0
 40
0.0
  0
LTYPE
  5
16
330
5
100
AcDbSymbolTableRecord
100
AcDbLinetypeTableRecord
  2
CONTINUOUS
 70
     0
  3
Solid line
 72
    65
 73
     0
 40
0.0
  0
LTYPE
  5
6E
330
5
100
AcDbSymbolTableRecord
100
AcDbLinetypeTableRecord
  2
EXLTYPE0
 70
     0
  3
破線
 72
    65
 73
     2
 40
4.0
 49
3.0
 74
     0
 49
-1.0
 74
     0
  0
LTYPE
  5
6F
330
5
100
AcDbSymbolTableRecord
100
AcDbLinetypeTableRecord
  2
EXLTYPE1
 70
     0
  3
点線
 72
    65
 73
     2
 40
2.0
 49
1.0
 74
     0
 49
-1.0
 74
     0
  0
LTYPE
  5
70
330
5
100
AcDbSymbolTableRecord
100
AcDbLinetypeTableRecord
  2
EXLTYPE2
 70
     0
  3
一点鎖線
 72
    65
 73
     4
 40
13.0
 49
10.0
 74
     0
 49
-1.0
 74
     0
 49
1.0
 74
     0
 49
-1.0
 74
     0
  0
LTYPE
  5
71
330
5
100
AcDbSymbolTableRecord
100
AcDbLinetypeTableRecord
  2
EXLTYPE3
 70
     0
  3
二点鎖線
 72
    65
 73
     6
 40
15.0
 49
10.0
 74
     0
 49
-1.0
 74
     0
 49
1.0
 74
     0
 49
-1.0
 74
     0
 49
1.0
 74
     0
 49
-1.0
 74
     0
  0
LTYPE
  5
72
330
5
100
AcDbSymbolTableRecord
100
AcDbLinetypeTableRecord
  2
EXLTYPE4
 70
     0
  3
一点鎖線2
 72
    65
 73
     4
 40
3.5
 49
2.0
 74
     0
 49
-0.5
 74
     0
 49
0.5
 74
     0
 49
-0.5
 74
     0
  0
LTYPE
  5
73
330
5
100
AcDbSymbolTableRecord
100
AcDbLinetypeTableRecord
  2
EXLTYPE5
 70
     0
  3
二点鎖線2
 72
    65
 73
     6
 40
4.5
 49
2.0
 74
     0
 49
-0.5
 74
     0
 49
0.5
 74
     0
 49
-0.5
 74
     0
 49
0.5
 74
     0
 49
-0.5
 74
     0
  0
ENDTAB
  0
TABLE
  2
LAYER
  5
2
330
0
100
AcDbSymbolTable
 70
     4
  0
LAYER
  5
10
330
2
100
AcDbSymbolTableRecord
100
AcDbLayerTableRecord
  2
0
 70
     0
 62
     7
  6
CONTINUOUS
  0
LAYER
  5
76
330
2
100
AcDbSymbolTableRecord
100
AcDbLayerTableRecord
  2
図面枠
 70
     4
 62
     7
  6
CONTINUOUS
  0
LAYER
  5
77
330
2
100
AcDbSymbolTableRecord
100
AcDbLayerTableRecord
  2
Ｓ_１_１
 70
     0
 62
     7
  6
CONTINUOUS
  0
LAYER
  5
11D
330
2
100
AcDbSymbolTableRecord
100
AcDbLayerTableRecord
  2
DEFPOINTS
 70
     0
 62
     7
  6
CONTINUOUS
  0
ENDTAB
  0
TABLE
  2
STYLE
  5
3
330
0
100
AcDbSymbolTable
 70
     5
  0
STYLE
  5
11
330
3
100
AcDbSymbolTableRecord
100
AcDbTextStyleTableRecord
  2
STANDARD
 70
     0
 40
0.0
 41
1.0
 50
0.0
 71
     0
 42
2.5
  3
monotxt
  4
extfont
  0
STYLE
  5
74
330
3
100
AcDbSymbolTableRecord
100
AcDbTextStyleTableRecord
  2
EXCADSTD
 70
     0
 40
0.0
 41
1.0
 50
0.0
 71
     0
 42
2.5
  3
monotxt
  4
extfont
  0
STYLE
  5
75
330
3
100
AcDbSymbolTableRecord
100
AcDbTextStyleTableRecord
  2
EXCADVERT
 70
     4
 40
0.0
 41
1.0
 50
0.0
 71
     0
 42
2.5
  3
monotxt
  4
extfont
  0
STYLE
  5
DC
330
3
100
AcDbSymbolTableRecord
100
AcDbTextStyleTableRecord
  2
EXCADTTF1
 70
     0
 40
0.0
 41
1.0
 50
0.0
 71
     0
 42
2.5
  3
msgothic.ttc
  4

1001
ACAD
1000
MS Gothic
1071
    32817
  0
STYLE
  5
11B
330
3
100
AcDbSymbolTableRecord
100
AcDbTextStyleTableRecord
  2
EXCADDIM1
 70
     0
 40
0.0
 41
1.0
 50
0.0
 71
     0
 42
2.5
  3
msgothic.ttc
  4

1001
ACAD
1000
MS Gothic
1071
    32817
  0
ENDTAB
  0
TABLE
  2
VIEW
  5
6
330
0
100
AcDbSymbolTable
 70
     0
  0
ENDTAB
  0
TABLE
  2
UCS
  5
7
330
0
100
AcDbSymbolTable
 70
     0
  0
ENDTAB
  0
TABLE
  2
APPID
  5
9
330
0
100
AcDbSymbolTable
 70
     2
  0
APPID
  5
12
330
9
100
AcDbSymbolTableRecord
100
AcDbRegAppTableRecord
  2
ACAD
 70
     0
  0
APPID
  5
341
330
9
100
AcDbSymbolTableRecord
100
AcDbRegAppTableRecord
  2
ACAD_MLEADERVER
 70
     0
  0
ENDTAB
  0
TABLE
  2
DIMSTYLE
  5
A
330
0
100
AcDbSymbolTable
 70
     1
  0
DIMSTYLE
105
27
102
{ACAD_REACTORS
330
11C
330
12A
330
135
330
143
330
14F
330
15C
330
169
330
20D
330
21A
330
227
102
}
330
A
100
AcDbSymbolTableRecord
100
AcDbDimStyleTableRecord
  2
ISO-25
 70
     0
  3

  4

  5

  6

  7

 40
1.0
 41
2.5
 42
0.625
 43
3.75
 44
1.25
 45
0.0
 46
0.0
 47
0.0
 48
0.0
140
2.5
141
2.5
142
0.0
143
0.03937007874016
144
1.0
145
0.0
146
1.0
147
0.625
 71
     0
 72
     0
 73
     0
 74
     0
 75
     0
 76
     0
 77
     1
 78
     8
170
     0
171
     3
172
     1
173
     0
174
     0
175
     0
176
     0
177
     0
178
     0
270
     2
271
     2
272
     2
273
     2
274
     3
340
11
275
     0
280
     0
281
     0
282
     0
283
     0
284
     8
285
     0
286
     0
287
     5
288
     0
  0
ENDTAB
  0
TABLE
  2
BLOCK_RECORD
  5
1
330
0
100
AcDbSymbolTable
 70
    24
  0
BLOCK_RECORD
  5
1F
330
1
100
AcDbSymbolTableRecord
100
AcDbBlockTableRecord
  2
*MODEL_SPACE
  0
BLOCK_RECORD
  5
1B
330
1
100
AcDbSymbolTableRecord
100
AcDbBlockTableRecord
  2
*PAPER_SPACE
  0
BLOCK_RECORD
  5
78
330
1
100
AcDbSymbolTableRecord
100
AcDbBlockTableRecord
  2
EX_NORM
  0
BLOCK_RECORD
  5
7B
330
1
100
AcDbSymbolTableRecord
100
AcDbBlockTableRecord
  2
EX_BNORM
  0
BLOCK_RECORD
  5
7E
330
1
100
AcDbSymbolTableRecord
100
AcDbBlockTableRecord
  2
EX_BCIR
  0
BLOCK_RECORD
  5
81
330
1
100
AcDbSymbolTableRecord
100
AcDbBlockTableRecord
  2
EX_RCIVIL
  0
BLOCK_RECORD
  5
84
330
1
100
AcDbSymbolTableRecord
100
AcDbBlockTableRecord
  2
EX_SLANT
  0
BLOCK_RECORD
  5
87
330
1
100
AcDbSymbolTableRecord
100
AcDbBlockTableRecord
  2
EX_NONE
  0
BLOCK_RECORD
  5
8A
330
1
100
AcDbSymbolTableRecord
100
AcDbBlockTableRecord
  2
EX_CIVIL
  0
BLOCK_RECORD
  5
8D
330
1
100
AcDbSymbolTableRecord
100
AcDbBlockTableRecord
  2
EX_WCIR
  0
BLOCK_RECORD
  5
90
330
1
100
AcDbSymbolTableRecord
100
AcDbBlockTableRecord
  2
EX_WCIR2
  0
BLOCK_RECORD
  5
93
330
1
100
AcDbSymbolTableRecord
100
AcDbBlockTableRecord
  2
EX_WNORM
  0
BLOCK_RECORD
  5
96
330
1
100
AcDbSymbolTableRecord
100
AcDbBlockTableRecord
  2
EX_NNORM
  0
BLOCK_RECORD
  5
99
330
1
100
AcDbSymbolTableRecord
100
AcDbBlockTableRecord
  2
EX_BBOX
  0
BLOCK_RECORD
  5
9C
330
1
100
AcDbSymbolTableRecord
100
AcDbBlockTableRecord
  2
EX_WBOX
  0
BLOCK_RECORD
  5
9F
330
1
100
AcDbSymbolTableRecord
100
AcDbBlockTableRecord
  2
EX_INTEGRAL
  0
BLOCK_RECORD
  5
11E
330
1
100
AcDbSymbolTableRecord
100
AcDbBlockTableRecord
  2
*D15
  0
BLOCK_RECORD
  5
12B
330
1
100
AcDbSymbolTableRecord
100
AcDbBlockTableRecord
  2
*D16
  0
BLOCK_RECORD
  5
136
330
1
100
AcDbSymbolTableRecord
100
AcDbBlockTableRecord
  2
*D17
  0
BLOCK_RECORD
  5
144
330
1
100
AcDbSymbolTableRecord
100
AcDbBlockTableRecord
  2
*D18
  0
BLOCK_RECORD
  5
150
330
1
100
AcDbSymbolTableRecord
100
AcDbBlockTableRecord
  2
*D19
  0
BLOCK_RECORD
  5
15D
330
1
100
AcDbSymbolTableRecord
100
AcDbBlockTableRecord
  2
*D20
  0
BLOCK_RECORD
  5
16A
330
1
100
AcDbSymbolTableRecord
100
AcDbBlockTableRecord
  2
*D21
  0
BLOCK_RECORD
  5
20E
330
1
100
AcDbSymbolTableRecord
100
AcDbBlockTableRecord
  2
*D22
  0
BLOCK_RECORD
  5
21B
330
1
100
AcDbSymbolTableRecord
100
AcDbBlockTableRecord
  2
*D23
  0
BLOCK_RECORD
  5
228
330
1
100
AcDbSymbolTableRecord
100
AcDbBlockTableRecord
  2
*D24
  0
ENDTAB
  0
ENDSEC
  0
SECTION
  2
BLOCKS
  0
BLOCK
  5
20
330
1F
100
AcDbEntity
  8
0
100
AcDbBlockBegin
  2
*MODEL_SPACE
 70
     0
 10
0.0
 20
0.0
 30
0.0
  3
*MODEL_SPACE
  1

  0
ENDBLK
  5
21
330
1F
100
AcDbEntity
  8
0
100
AcDbBlockEnd
  0
BLOCK
  5
1C
330
1B
100
AcDbEntity
 67
     1
  8
0
100
AcDbBlockBegin
  2
*PAPER_SPACE
 70
     0
 10
0.0
 20
0.0
 30
0.0
  3
*PAPER_SPACE
  1

  0
ENDBLK
  5
1D
330
1B
100
AcDbEntity
 67
     1
  8
0
100
AcDbBlockEnd
  0
BLOCK
  5
79
330
78
100
AcDbEntity
  8
0
100
AcDbBlockBegin
  2
EX_NORM
 70
     0
 10
0.0
 20
0.0
 30
0.0
  3
EX_NORM
  1

  0
LINE
  5
A2
330
78
100
AcDbEntity
  8
0
  6
CONTINUOUS
 62
     0
100
AcDbLine
 10
0.0
 20
0.0
 30
0.0
 11
-1.0
 21
0.0
 31
0.0
  0
LINE
  5
A3
330
78
100
AcDbEntity
  8
0
  6
CONTINUOUS
 62
     0
100
AcDbLine
 10
0.0
 20
0.0
 30
0.0
 11
-1.0
 21
0.166666667
 31
0.0
  0
LINE
  5
A4
330
78
100
AcDbEntity
  8
0
  6
CONTINUOUS
 62
     0
100
AcDbLine
 10
0.0
 20
0.0
 30
0.0
 11
-1.0
 21
-0.166666667
 31
0.0
  0
ENDBLK
  5
7A
330
78
100
AcDbEntity
  8
0
100
AcDbBlockEnd
  0
BLOCK
  5
7C
330
7B
100
AcDbEntity
  8
0
100
AcDbBlockBegin
  2
EX_BNORM
 70
     0
 10
0.0
 20
0.0
 30
0.0
  3
EX_BNORM
  1

  0
LINE
  5
A5
330
7B
100
AcDbEntity
  8
0
  6
CONTINUOUS
 62
     0
100
AcDbLine
 10
0.0
 20
0.0
 30
0.0
 11
-1.0
 21
0.0
 31
0.0
  0
LINE
  5
A6
330
7B
100
AcDbEntity
  8
0
  6
CONTINUOUS
 62
     0
100
AcDbLine
 10
0.0
 20
0.0
 30
0.0
 11
-1.0
 21
0.166666667
 31
0.0
  0
LINE
  5
A7
330
7B
100
AcDbEntity
  8
0
  6
CONTINUOUS
 62
     0
100
AcDbLine
 10
0.0
 20
0.0
 30
0.0
 11
-1.0
 21
-0.166666667
 31
0.0
  0
LINE
  5
A8
330
7B
100
AcDbEntity
  8
0
  6
CONTINUOUS
 62
     0
100
AcDbLine
 10
0.0
 20
0.0
 30
0.0
 11
-1.0
 21
0.083333333
 31
0.0
  0
LINE
  5
A9
330
7B
100
AcDbEntity
  8
0
  6
CONTINUOUS
 62
     0
100
AcDbLine
 10
0.0
 20
0.0
 30
0.0
 11
-1.0
 21
-0.083333333
 31
0.0
  0
LINE
  5
AA
330
7B
100
AcDbEntity
  8
0
  6
CONTINUOUS
 62
     0
100
AcDbLine
 10
-1.0
 20
0.166666667
 30
0.0
 11
-1.0
 21
-0.166666667
 31
0.0
  0
ENDBLK
  5
7D
330
7B
100
AcDbEntity
  8
0
100
AcDbBlockEnd
  0
BLOCK
  5
7F
330
7E
100
AcDbEntity
  8
0
100
AcDbBlockBegin
  2
EX_BCIR
 70
     0
 10
0.0
 20
0.0
 30
0.0
  3
EX_BCIR
  1

  0
LINE
  5
AB
330
7E
100
AcDbEntity
  8
0
  6
CONTINUOUS
 62
     0
100
AcDbLine
 10
0.0
 20
0.0
 30
0.0
 11
-1.0
 21
0.0
 31
0.0
  0
CIRCLE
  5
AC
330
7E
100
AcDbEntity
  8
0
  6
CONTINUOUS
 62
     0
100
AcDbCircle
 10
0.0
 20
0.0
 30
0.0
 40
0.5
  0
CIRCLE
  5
AD
330
7E
100
AcDbEntity
  8
0
  6
CONTINUOUS
 62
     0
100
AcDbCircle
 10
0.0
 20
0.0
 30
0.0
 40
0.25
  0
ENDBLK
  5
80
330
7E
100
AcDbEntity
  8
0
100
AcDbBlockEnd
  0
BLOCK
  5
82
330
81
100
AcDbEntity
  8
0
100
AcDbBlockBegin
  2
EX_RCIVIL
 70
     0
 10
0.0
 20
0.0
 30
0.0
  3
EX_RCIVIL
  1

  0
LINE
  5
AE
330
81
100
AcDbEntity
  8
0
  6
CONTINUOUS
 62
     0
100
AcDbLine
 10
0.0
 20
0.0
 30
0.0
 11
-1.0
 21
0.0
 31
0.0
  0
LINE
  5
AF
330
81
100
AcDbEntity
  8
0
  6
CONTINUOUS
 62
     0
100
AcDbLine
 10
-1.0
 20
-0.25
 30
0.0
 11
0.0
 21
-0.25
 31
0.0
  0
LINE
  5
B0
330
81
100
AcDbEntity
  8
0
  6
CONTINUOUS
 62
     0
100
AcDbLine
 10
-1.0
 20
-0.125
 30
0.0
 11
0.0
 21
-0.125
 31
0.0
  0
ENDBLK
  5
83
330
81
100
AcDbEntity
  8
0
100
AcDbBlockEnd
  0
BLOCK
  5
85
330
84
100
AcDbEntity
  8
0
100
AcDbBlockBegin
  2
EX_SLANT
 70
     0
 10
0.0
 20
0.0
 30
0.0
  3
EX_SLANT
  1

  0
LINE
  5
B1
330
84
100
AcDbEntity
  8
0
  6
CONTINUOUS
 62
     0
100
AcDbLine
 10
0.0
 20
0.0
 30
0.0
 11
-1.0
 21
0.0
 31
0.0
  0
LINE
  5
B2
330
84
100
AcDbEntity
  8
0
  6
CONTINUOUS
 62
     0
100
AcDbLine
 10
0.707106781
 20
0.707106781
 30
0.0
 11
-0.707106781
 21
-0.707106781
 31
0.0
  0
ENDBLK
  5
86
330
84
100
AcDbEntity
  8
0
100
AcDbBlockEnd
  0
BLOCK
  5
88
330
87
100
AcDbEntity
  8
0
100
AcDbBlockBegin
  2
EX_NONE
 70
     0
 10
0.0
 20
0.0
 30
0.0
  3
EX_NONE
  1

  0
LINE
  5
B3
330
87
100
AcDbEntity
  8
0
  6
CONTINUOUS
 62
     0
100
AcDbLine
 10
0.0
 20
0.0
 30
0.0
 11
-1.0
 21
0.0
 31
0.0
  0
ENDBLK
  5
89
330
87
100
AcDbEntity
  8
0
100
AcDbBlockEnd
  0
BLOCK
  5
8B
330
8A
100
AcDbEntity
  8
0
100
AcDbBlockBegin
  2
EX_CIVIL
 70
     0
 10
0.0
 20
0.0
 30
0.0
  3
EX_CIVIL
  1

  0
LINE
  5
B4
330
8A
100
AcDbEntity
  8
0
  6
CONTINUOUS
 62
     0
100
AcDbLine
 10
0.0
 20
0.0
 30
0.0
 11
-1.0
 21
0.0
 31
0.0
  0
LINE
  5
B5
330
8A
100
AcDbEntity
  8
0
  6
CONTINUOUS
 62
     0
100
AcDbLine
 10
-1.0
 20
0.25
 30
0.0
 11
0.0
 21
0.25
 31
0.0
  0
LINE
  5
B6
330
8A
100
AcDbEntity
  8
0
  6
CONTINUOUS
 62
     0
100
AcDbLine
 10
-1.0
 20
0.125
 30
0.0
 11
0.0
 21
0.125
 31
0.0
  0
ENDBLK
  5
8C
330
8A
100
AcDbEntity
  8
0
100
AcDbBlockEnd
  0
BLOCK
  5
8E
330
8D
100
AcDbEntity
  8
0
100
AcDbBlockBegin
  2
EX_WCIR
 70
     0
 10
0.0
 20
0.0
 30
0.0
  3
EX_WCIR
  1

  0
LINE
  5
B7
330
8D
100
AcDbEntity
  8
0
  6
CONTINUOUS
 62
     0
100
AcDbLine
 10
0.0
 20
0.0
 30
0.0
 11
-1.0
 21
0.0
 31
0.0
  0
CIRCLE
  5
B8
330
8D
100
AcDbEntity
  8
0
  6
CONTINUOUS
 62
     0
100
AcDbCircle
 10
0.0
 20
0.0
 30
0.0
 40
0.5
  0
ENDBLK
  5
8F
330
8D
100
AcDbEntity
  8
0
100
AcDbBlockEnd
  0
BLOCK
  5
91
330
90
100
AcDbEntity
  8
0
100
AcDbBlockBegin
  2
EX_WCIR2
 70
     0
 10
0.0
 20
0.0
 30
0.0
  3
EX_WCIR2
  1

  0
LINE
  5
B9
330
90
100
AcDbEntity
  8
0
  6
CONTINUOUS
 62
     0
100
AcDbLine
 10
-0.5
 20
0.0
 30
0.0
 11
-1.0
 21
0.0
 31
0.0
  0
CIRCLE
  5
BA
330
90
100
AcDbEntity
  8
0
  6
CONTINUOUS
 62
     0
100
AcDbCircle
 10
0.0
 20
0.0
 30
0.0
 40
0.5
  0
ENDBLK
  5
92
330
90
100
AcDbEntity
  8
0
100
AcDbBlockEnd
  0
BLOCK
  5
94
330
93
100
AcDbEntity
  8
0
100
AcDbBlockBegin
  2
EX_WNORM
 70
     0
 10
0.0
 20
0.0
 30
0.0
  3
EX_WNORM
  1

  0
LINE
  5
BB
330
93
100
AcDbEntity
  8
0
  6
CONTINUOUS
 62
     0
100
AcDbLine
 10
-1.0
 20
0.0
 30
0.0
 11
-1.0
 21
0.0
 31
0.0
  0
LINE
  5
BC
330
93
100
AcDbEntity
  8
0
  6
CONTINUOUS
 62
     0
100
AcDbLine
 10
0.0
 20
0.0
 30
0.0
 11
-1.0
 21
0.166666667
 31
0.0
  0
LINE
  5
BD
330
93
100
AcDbEntity
  8
0
  6
CONTINUOUS
 62
     0
100
AcDbLine
 10
0.0
 20
0.0
 30
0.0
 11
-1.0
 21
-0.166666667
 31
0.0
  0
LINE
  5
BE
330
93
100
AcDbEntity
  8
0
  6
CONTINUOUS
 62
     0
100
AcDbLine
 10
-1.0
 20
0.166666667
 30
0.0
 11
-1.0
 21
-0.166666667
 31
0.0
  0
ENDBLK
  5
95
330
93
100
AcDbEntity
  8
0
100
AcDbBlockEnd
  0
BLOCK
  5
97
330
96
100
AcDbEntity
  8
0
100
AcDbBlockBegin
  2
EX_NNORM
 70
     0
 10
0.0
 20
0.0
 30
0.0
  3
EX_NNORM
  1

  0
LINE
  5
BF
330
96
100
AcDbEntity
  8
0
  6
CONTINUOUS
 62
     0
100
AcDbLine
 10
0.0
 20
0.0
 30
0.0
 11
-1.0
 21
0.0
 31
0.0
  0
LINE
  5
C0
330
96
100
AcDbEntity
  8
0
  6
CONTINUOUS
 62
     0
100
AcDbLine
 10
0.0
 20
0.0
 30
0.0
 11
-1.0
 21
0.166666667
 31
0.0
  0
LINE
  5
C1
330
96
100
AcDbEntity
  8
0
  6
CONTINUOUS
 62
     0
100
AcDbLine
 10
0.0
 20
0.0
 30
0.0
 11
-1.0
 21
-0.166666667
 31
0.0
  0
LINE
  5
C2
330
96
100
AcDbEntity
  8
0
  6
CONTINUOUS
 62
     0
100
AcDbLine
 10
-1.0
 20
0.166666667
 30
0.0
 11
-1.0
 21
-0.166666667
 31
0.0
  0
ENDBLK
  5
98
330
96
100
AcDbEntity
  8
0
100
AcDbBlockEnd
  0
BLOCK
  5
9A
330
99
100
AcDbEntity
  8
0
100
AcDbBlockBegin
  2
EX_BBOX
 70
     0
 10
0.0
 20
0.0
 30
0.0
  3
EX_BBOX
  1

  0
LINE
  5
C3
330
99
100
AcDbEntity
  8
0
  6
CONTINUOUS
 62
     0
100
AcDbLine
 10
0.0
 20
0.0
 30
0.0
 11
-1.0
 21
0.0
 31
0.0
  0
LINE
  5
C4
330
99
100
AcDbEntity
  8
0
  6
CONTINUOUS
 62
     0
100
AcDbLine
 10
-0.5
 20
0.5
 30
0.0
 11
0.5
 21
0.5
 31
0.0
  0
LINE
  5
C5
330
99
100
AcDbEntity
  8
0
  6
CONTINUOUS
 62
     0
100
AcDbLine
 10
0.5
 20
0.5
 30
0.0
 11
0.5
 21
-0.5
 31
0.0
  0
LINE
  5
C6
330
99
100
AcDbEntity
  8
0
  6
CONTINUOUS
 62
     0
100
AcDbLine
 10
0.5
 20
-0.5
 30
0.0
 11
-0.5
 21
-0.5
 31
0.0
  0
LINE
  5
C7
330
99
100
AcDbEntity
  8
0
  6
CONTINUOUS
 62
     0
100
AcDbLine
 10
-0.5
 20
-0.5
 30
0.0
 11
-0.5
 21
0.5
 31
0.0
  0
LINE
  5
C8
330
99
100
AcDbEntity
  8
0
  6
CONTINUOUS
 62
     0
100
AcDbLine
 10
-0.25
 20
0.25
 30
0.0
 11
0.25
 21
0.25
 31
0.0
  0
LINE
  5
C9
330
99
100
AcDbEntity
  8
0
  6
CONTINUOUS
 62
     0
100
AcDbLine
 10
0.25
 20
0.25
 30
0.0
 11
0.25
 21
-0.25
 31
0.0
  0
LINE
  5
CA
330
99
100
AcDbEntity
  8
0
  6
CONTINUOUS
 62
     0
100
AcDbLine
 10
0.25
 20
-0.25
 30
0.0
 11
-0.25
 21
-0.25
 31
0.0
  0
LINE
  5
CB
330
99
100
AcDbEntity
  8
0
  6
CONTINUOUS
 62
     0
100
AcDbLine
 10
-0.25
 20
-0.25
 30
0.0
 11
-0.25
 21
0.25
 31
0.0
  0
ENDBLK
  5
9B
330
99
100
AcDbEntity
  8
0
100
AcDbBlockEnd
  0
BLOCK
  5
9D
330
9C
100
AcDbEntity
  8
0
100
AcDbBlockBegin
  2
EX_WBOX
 70
     0
 10
0.0
 20
0.0
 30
0.0
  3
EX_WBOX
  1

  0
LINE
  5
CC
330
9C
100
AcDbEntity
  8
0
  6
CONTINUOUS
 62
     0
100
AcDbLine
 10
-0.5
 20
0.0
 30
0.0
 11
-1.0
 21
0.0
 31
0.0
  0
LINE
  5
CD
330
9C
100
AcDbEntity
  8
0
  6
CONTINUOUS
 62
     0
100
AcDbLine
 10
-0.5
 20
0.5
 30
0.0
 11
0.5
 21
0.5
 31
0.0
  0
LINE
  5
CE
330
9C
100
AcDbEntity
  8
0
  6
CONTINUOUS
 62
     0
100
AcDbLine
 10
0.5
 20
0.5
 30
0.0
 11
0.5
 21
-0.5
 31
0.0
  0
LINE
  5
CF
330
9C
100
AcDbEntity
  8
0
  6
CONTINUOUS
 62
     0
100
AcDbLine
 10
0.5
 20
-0.5
 30
0.0
 11
-0.5
 21
-0.5
 31
0.0
  0
LINE
  5
D0
330
9C
100
AcDbEntity
  8
0
  6
CONTINUOUS
 62
     0
100
AcDbLine
 10
-0.5
 20
-0.5
 30
0.0
 11
-0.5
 21
0.5
 31
0.0
  0
ENDBLK
  5
9E
330
9C
100
AcDbEntity
  8
0
100
AcDbBlockEnd
  0
BLOCK
  5
A0
330
9F
100
AcDbEntity
  8
0
100
AcDbBlockBegin
  2
EX_INTEGRAL
 70
     0
 10
0.0
 20
0.0
 30
0.0
  3
EX_INTEGRAL
  1

  0
LINE
  5
D1
330
9F
100
AcDbEntity
  8
0
  6
CONTINUOUS
 62
     0
100
AcDbLine
 10
0.0
 20
0.0
 30
0.0
 11
-1.0
 21
0.0
 31
0.0
  0
ARC
  5
D2
330
9F
100
AcDbEntity
  8
0
  6
CONTINUOUS
 62
     0
100
AcDbCircle
 10
0.542115
 20
0.164992
 30
0.0
 40
0.56667
100
AcDbArc
 50
73.07249033629006
 51
196.9275130221199
  0
ARC
  5
D3
330
9F
100
AcDbEntity
  8
0
  6
CONTINUOUS
 62
     0
100
AcDbCircle
 10
-0.542115
 20
-0.164992
 30
0.0
 40
0.56667
100
AcDbArc
 50
253.0724869220464
 51
16.9275130559125
  0
ENDBLK
  5
A1
330
9F
100
AcDbEntity
  8
0
100
AcDbBlockEnd
  0
BLOCK
  5
11F
330
11E
100
AcDbEntity
  8
0
100
AcDbBlockBegin
  2
*D15
 70
     1
 10
0.0
 20
0.0
 30
0.0
  3
*D15
  1

  0
LINE
  5
121
330
11E
100
AcDbEntity
  8
Ｓ_１_１
  6
CONTINUOUS
 62
     2
100
AcDbLine
 10
1062.99998
 20
559.9999930000001
 30
0.0
 11
1123.333333333333
 21
559.9999930000001
 31
0.0
  0
LINE
  5
122
330
11E
100
AcDbEntity
  8
Ｓ_１_１
  6
CONTINUOUS
 62
     2
100
AcDbLine
 10
1062.99998
 20
240.000006
 30
0.0
 11
1123.333333333333
 21
240.000006
 31
0.0
  0
LINE
  5
123
330
11E
100
AcDbEntity
  8
Ｓ_１_１
  6
CONTINUOUS
 62
     2
100
AcDbLine
 10
1120.0
 20
549.9999930000001
 30
0.0
 11
1120.0
 21
250.000006
 31
0.0
  0
INSERT
  5
124
330
11E
100
AcDbEntity
  8
Ｓ_１_１
 62
     2
100
AcDbBlockReference
  2
EX_NORM
 10
1120.0
 20
559.9999930000001
 30
0.0
 41
10.0
 42
10.0
 43
10.0
 50
90.0
  0
INSERT
  5
125
330
11E
100
AcDbEntity
  8
Ｓ_１_１
 62
     2
100
AcDbBlockReference
  2
EX_NORM
 10
1120.0
 20
240.000006
 30
0.0
 41
10.0
 42
10.0
 43
10.0
 50
270.0
  0
MTEXT
  5
126
330
11E
100
AcDbEntity
  8
Ｓ_１_１
 62
     2
100
AcDbMText
 10
1110.833333333333
 20
399.9999995000001
 30
0.0
 40
11.54301312292788
 41
0.0
 71
     5
 72
     1
  1
%%c320
  7
EXCADDIM1
 11
0.0
 21
1.0
 31
0.0
  0
POINT
  5
127
330
11E
100
AcDbEntity
  8
DEFPOINTS
 62
     0
100
AcDbPoint
 10
1057.99998
 20
559.9999930000001
 30
0.0
  0
POINT
  5
128
330
11E
100
AcDbEntity
  8
DEFPOINTS
 62
     0
100
AcDbPoint
 10
1057.99998
 20
240.000006
 30
0.0
  0
POINT
  5
129
330
11E
100
AcDbEntity
  8
DEFPOINTS
 62
     0
100
AcDbPoint
 10
1120.0
 20
240.000006
 30
0.0
  0
ENDBLK
  5
120
330
11E
100
AcDbEntity
  8
0
100
AcDbBlockEnd
  0
BLOCK
  5
12C
330
12B
100
AcDbEntity
  8
0
100
AcDbBlockBegin
  2
*D16
 70
     1
 10
0.0
 20
0.0
 30
0.0
  3
*D16
  1

  0
LINE
  5
12E
330
12B
100
AcDbEntity
  8
Ｓ_１_１
  6
CONTINUOUS
 62
     2
100
AcDbLine
 10
1050.0
 20
180.0
 30
0.0
 11
725.000039
 21
180.0
 31
0.0
  0
INSERT
  5
12F
330
12B
100
AcDbEntity
  8
Ｓ_１_１
 62
     2
100
AcDbBlockReference
  2
EX_NORM
 10
1060.0
 20
180.0
 30
0.0
 41
10.0
 42
10.0
 43
10.0
  0
INSERT
  5
130
330
12B
100
AcDbEntity
  8
Ｓ_１_１
 62
     2
100
AcDbBlockReference
  2
EX_NORM
 10
715.000039
 20
180.0
 30
0.0
 41
10.0
 42
10.0
 43
10.0
 50
180.0
  0
MTEXT
  5
131
330
12B
100
AcDbEntity
  8
Ｓ_１_１
 62
     2
100
AcDbMText
 10
887.5000195
 20
189.1666666666667
 30
0.0
 40
11.54301312292788
 41
0.0
 71
     5
 72
     1
  1
345
  7
EXCADDIM1
  0
POINT
  5
132
330
12B
100
AcDbEntity
  8
DEFPOINTS
 62
     0
100
AcDbPoint
 10
1060.0
 20
241.999945
 30
0.0
  0
POINT
  5
133
330
12B
100
AcDbEntity
  8
DEFPOINTS
 62
     0
100
AcDbPoint
 10
715.000039
 20
242.000014
 30
0.0
  0
POINT
  5
134
330
12B
100
AcDbEntity
  8
DEFPOINTS
 62
     0
100
AcDbPoint
 10
715.000039
 20
180.0
 30
0.0
  0
ENDBLK
  5
12D
330
12B
100
AcDbEntity
  8
0
100
AcDbBlockEnd
  0
BLOCK
  5
137
330
136
100
AcDbEntity
  8
0
100
AcDbBlockBegin
  2
*D17
 70
     1
 10
0.0
 20
0.0
 30
0.0
  3
*D17
  1

  0
LINE
  5
139
330
136
100
AcDbEntity
  8
Ｓ_１_１
  6
CONTINUOUS
 62
     2
100
AcDbLine
 10
715.000039
 20
237.000014
 30
0.0
 11
715.000039
 21
176.6666666666667
 31
0.0
  0
LINE
  5
13A
330
136
100
AcDbEntity
  8
Ｓ_１_１
  6
CONTINUOUS
 62
     2
100
AcDbLine
 10
715.000039
 20
180.0
 30
0.0
 11
700.000027
 21
180.0
 31
0.0
  0
LINE
  5
13B
330
136
100
AcDbEntity
  8
Ｓ_１_１
  6
CONTINUOUS
 62
     2
100
AcDbLine
 10
725.000039
 20
180.0
 30
0.0
 11
735.000039
 21
180.0
 31
0.0
  0
LINE
  5
13C
330
136
100
AcDbEntity
  8
Ｓ_１_１
  6
CONTINUOUS
 62
     2
100
AcDbLine
 10
690.000027
 20
180.0
 30
0.0
 11
680.000027
 21
180.0
 31
0.0
  0
INSERT
  5
13D
330
136
100
AcDbEntity
  8
Ｓ_１_１
 62
     2
100
AcDbBlockReference
  2
EX_NORM
 10
715.000039
 20
180.0
 30
0.0
 41
10.0
 42
10.0
 43
10.0
 50
180.0
  0
INSERT
  5
13E
330
136
100
AcDbEntity
  8
Ｓ_１_１
 62
     2
100
AcDbBlockReference
  2
EX_NORM
 10
700.000027
 20
180.0
 30
0.0
 41
10.0
 42
10.0
 43
10.0
  0
MTEXT
  5
13F
330
136
100
AcDbEntity
  8
Ｓ_１_１
 62
     2
100
AcDbMText
 10
707.500033
 20
189.1666666666667
 30
0.0
 40
11.54301312292788
 41
0.0
 71
     5
 72
     1
  1
15
  7
EXCADDIM1
  0
POINT
  5
140
330
136
100
AcDbEntity
  8
DEFPOINTS
 62
     0
100
AcDbPoint
 10
715.000039
 20
242.000014
 30
0.0
  0
POINT
  5
141
330
136
100
AcDbEntity
  8
DEFPOINTS
 62
     0
100
AcDbPoint
 10
700.000027
 20
314.500023
 30
0.0
  0
POINT
  5
142
330
136
100
AcDbEntity
  8
DEFPOINTS
 62
     0
100
AcDbPoint
 10
700.000027
 20
180.0
 30
0.0
  0
ENDBLK
  5
138
330
136
100
AcDbEntity
  8
0
100
AcDbBlockEnd
  0
BLOCK
  5
145
330
144
100
AcDbEntity
  8
0
100
AcDbBlockBegin
  2
*D18
 70
     1
 10
0.0
 20
0.0
 30
0.0
  3
*D18
  1

  0
LINE
  5
147
330
144
100
AcDbEntity
  8
Ｓ_１_１
  6
CONTINUOUS
 62
     2
100
AcDbLine
 10
700.000027
 20
309.500023
 30
0.0
 11
700.000027
 21
176.6666666666667
 31
0.0
  0
LINE
  5
148
330
144
100
AcDbEntity
  8
Ｓ_１_１
  6
CONTINUOUS
 62
     2
100
AcDbLine
 10
690.000027
 20
180.0
 30
0.0
 11
660.000016
 21
180.0
 31
0.0
  0
INSERT
  5
149
330
144
100
AcDbEntity
  8
Ｓ_１_１
 62
     2
100
AcDbBlockReference
  2
EX_NORM
 10
700.000027
 20
180.0
 30
0.0
 41
10.0
 42
10.0
 43
10.0
  0
INSERT
  5
14A
330
144
100
AcDbEntity
  8
Ｓ_１_１
 62
     2
100
AcDbBlockReference
  2
EX_NORM
 10
650.000016
 20
180.0
 30
0.0
 41
10.0
 42
10.0
 43
10.0
 50
180.0
  0
MTEXT
  5
14B
330
144
100
AcDbEntity
  8
Ｓ_１_１
 62
     2
100
AcDbMText
 10
675.0000215
 20
189.1666666666667
 30
0.0
 40
11.54301312292788
 41
0.0
 71
     5
 72
     1
  1
50
  7
EXCADDIM1
  0
POINT
  5
14C
330
144
100
AcDbEntity
  8
DEFPOINTS
 62
     0
100
AcDbPoint
 10
700.000027
 20
314.500023
 30
0.0
  0
POINT
  5
14D
330
144
100
AcDbEntity
  8
DEFPOINTS
 62
     0
100
AcDbPoint
 10
650.000016
 20
245.500033
 30
0.0
  0
POINT
  5
14E
330
144
100
AcDbEntity
  8
DEFPOINTS
 62
     0
100
AcDbPoint
 10
650.000016
 20
180.0
 30
0.0
  0
ENDBLK
  5
146
330
144
100
AcDbEntity
  8
0
100
AcDbBlockEnd
  0
BLOCK
  5
151
330
150
100
AcDbEntity
  8
0
100
AcDbBlockBegin
  2
*D19
 70
     1
 10
0.0
 20
0.0
 30
0.0
  3
*D19
  1

  0
LINE
  5
153
330
150
100
AcDbEntity
  8
Ｓ_１_１
  6
CONTINUOUS
 62
     2
100
AcDbLine
 10
1060.0
 20
236.999945
 30
0.0
 11
1060.0
 21
156.6666666666667
 31
0.0
  0
LINE
  5
154
330
150
100
AcDbEntity
  8
Ｓ_１_１
  6
CONTINUOUS
 62
     2
100
AcDbLine
 10
650.000016
 20
240.500033
 30
0.0
 11
650.000016
 21
156.6666666666667
 31
0.0
  0
LINE
  5
155
330
150
100
AcDbEntity
  8
Ｓ_１_１
  6
CONTINUOUS
 62
     2
100
AcDbLine
 10
1050.0
 20
160.0
 30
0.0
 11
660.000016
 21
160.0
 31
0.0
  0
INSERT
  5
156
330
150
100
AcDbEntity
  8
Ｓ_１_１
 62
     2
100
AcDbBlockReference
  2
EX_NORM
 10
1060.0
 20
160.0
 30
0.0
 41
10.0
 42
10.0
 43
10.0
  0
INSERT
  5
157
330
150
100
AcDbEntity
  8
Ｓ_１_１
 62
     2
100
AcDbBlockReference
  2
EX_NORM
 10
650.000016
 20
160.0
 30
0.0
 41
10.0
 42
10.0
 43
10.0
 50
180.0
  0
MTEXT
  5
158
330
150
100
AcDbEntity
  8
Ｓ_１_１
 62
     2
100
AcDbMText
 10
855.000008
 20
169.1666666666667
 30
0.0
 40
11.54301312292788
 41
0.0
 71
     5
 72
     1
  1
410
  7
EXCADDIM1
  0
POINT
  5
159
330
150
100
AcDbEntity
  8
DEFPOINTS
 62
     0
100
AcDbPoint
 10
1060.0
 20
241.999945
 30
0.0
  0
POINT
  5
15A
330
150
100
AcDbEntity
  8
DEFPOINTS
 62
     0
100
AcDbPoint
 10
650.000016
 20
245.500033
 30
0.0
  0
POINT
  5
15B
330
150
100
AcDbEntity
  8
DEFPOINTS
 62
     0
100
AcDbPoint
 10
650.000016
 20
160.0
 30
0.0
  0
ENDBLK
  5
152
330
150
100
AcDbEntity
  8
0
100
AcDbBlockEnd
  0
BLOCK
  5
15E
330
15D
100
AcDbEntity
  8
0
100
AcDbBlockBegin
  2
*D20
 70
     1
 10
0.0
 20
0.0
 30
0.0
  3
*D20
  1

  0
LINE
  5
160
330
15D
100
AcDbEntity
  8
Ｓ_１_１
  6
CONTINUOUS
 62
     2
100
AcDbLine
 10
647.000037
 20
556.4999829999999
 30
0.0
 11
576.6666666666667
 21
556.4999829999999
 31
0.0
  0
LINE
  5
161
330
15D
100
AcDbEntity
  8
Ｓ_１_１
  6
CONTINUOUS
 62
     2
100
AcDbLine
 10
647.000037
 20
243.500016
 30
0.0
 11
576.6666666666667
 21
243.500016
 31
0.0
  0
LINE
  5
162
330
15D
100
AcDbEntity
  8
Ｓ_１_１
  6
CONTINUOUS
 62
     2
100
AcDbLine
 10
580.0
 20
546.4999829999999
 30
0.0
 11
580.0
 21
253.500016
 31
0.0
  0
INSERT
  5
163
330
15D
100
AcDbEntity
  8
Ｓ_１_１
 62
     2
100
AcDbBlockReference
  2
EX_NORM
 10
580.0
 20
556.4999829999999
 30
0.0
 41
10.0
 42
10.0
 43
10.0
 50
90.0
  0
INSERT
  5
164
330
15D
100
AcDbEntity
  8
Ｓ_１_１
 62
     2
100
AcDbBlockReference
  2
EX_NORM
 10
580.0
 20
243.500016
 30
0.0
 41
10.0
 42
10.0
 43
10.0
 50
270.0
  0
MTEXT
  5
165
330
15D
100
AcDbEntity
  8
Ｓ_１_１
 62
     2
100
AcDbMText
 10
570.8333333333334
 20
399.9999995
 30
0.0
 40
11.54301312292788
 41
0.0
 71
     5
 72
     1
  1
%%c313
  7
EXCADDIM1
 11
0.0
 21
1.0
 31
0.0
  0
POINT
  5
166
330
15D
100
AcDbEntity
  8
DEFPOINTS
 62
     0
100
AcDbPoint
 10
652.000037
 20
556.4999829999999
 30
0.0
  0
POINT
  5
167
330
15D
100
AcDbEntity
  8
DEFPOINTS
 62
     0
100
AcDbPoint
 10
652.000037
 20
243.500016
 30
0.0
  0
POINT
  5
168
330
15D
100
AcDbEntity
  8
DEFPOINTS
 62
     0
100
AcDbPoint
 10
580.0
 20
243.500016
 30
0.0
  0
ENDBLK
  5
15F
330
15D
100
AcDbEntity
  8
0
100
AcDbBlockEnd
  0
BLOCK
  5
16B
330
16A
100
AcDbEntity
  8
0
100
AcDbBlockBegin
  2
*D21
 70
     1
 10
0.0
 20
0.0
 30
0.0
  3
*D21
  1

  0
LINE
  5
16D
330
16A
100
AcDbEntity
  8
Ｓ_１_１
  6
CONTINUOUS
 62
     2
100
AcDbLine
 10
977.000024
 20
645.362246
 30
0.0
 11
1123.333333333333
 21
645.362246
 31
0.0
  0
LINE
  5
16E
330
16A
100
AcDbEntity
  8
Ｓ_１_１
  6
CONTINUOUS
 62
     2
100
AcDbLine
 10
1120.0
 20
569.9999930000001
 30
0.0
 11
1120.0
 21
635.362246
 31
0.0
  0
INSERT
  5
16F
330
16A
100
AcDbEntity
  8
Ｓ_１_１
 62
     2
100
AcDbBlockReference
  2
EX_NORM
 10
1120.0
 20
559.9999930000001
 30
0.0
 41
10.0
 42
10.0
 43
10.0
 50
270.0
  0
INSERT
  5
170
330
16A
100
AcDbEntity
  8
Ｓ_１_１
 62
     2
100
AcDbBlockReference
  2
EX_NORM
 10
1120.0
 20
645.362246
 30
0.0
 41
10.0
 42
10.0
 43
10.0
 50
90.0
  0
MTEXT
  5
171
330
16A
100
AcDbEntity
  8
Ｓ_１_１
 62
     2
100
AcDbMText
 10
1110.833333333333
 20
602.6811195000001
 30
0.0
 40
11.54301312292788
 41
0.0
 71
     5
 72
     1
  1
(85)
  7
EXCADDIM1
 11
0.0
 21
1.0
 31
0.0
  0
POINT
  5
172
330
16A
100
AcDbEntity
  8
DEFPOINTS
 62
     0
100
AcDbPoint
 10
1058.000048
 20
559.9999930000001
 30
0.0
  0
POINT
  5
173
330
16A
100
AcDbEntity
  8
DEFPOINTS
 62
     0
100
AcDbPoint
 10
972.000024
 20
645.362246
 30
0.0
  0
POINT
  5
174
330
16A
100
AcDbEntity
  8
DEFPOINTS
 62
     0
100
AcDbPoint
 10
1120.0
 20
645.362246
 30
0.0
  0
ENDBLK
  5
16C
330
16A
100
AcDbEntity
  8
0
100
AcDbBlockEnd
  0
BLOCK
  5
20F
330
20E
100
AcDbEntity
  8
0
100
AcDbBlockBegin
  2
*D22
 70
     1
 10
0.0
 20
0.0
 30
0.0
  3
*D22
  1

  0
LINE
  5
211
330
20E
100
AcDbEntity
  8
Ｓ_１_１
  6
CONTINUOUS
 62
     2
100
AcDbLine
 10
715.000039
 20
562.999986
 30
0.0
 11
715.000039
 21
703.3333333333334
 31
0.0
  0
LINE
  5
212
330
20E
100
AcDbEntity
  8
Ｓ_１_１
  6
CONTINUOUS
 62
     2
100
AcDbLine
 10
830.000009
 20
665.0
 30
0.0
 11
830.000009
 21
703.3333333333334
 31
0.0
  0
LINE
  5
213
330
20E
100
AcDbEntity
  8
Ｓ_１_１
  6
CONTINUOUS
 62
     2
100
AcDbLine
 10
725.000039
 20
700.0
 30
0.0
 11
820.000009
 21
700.0
 31
0.0
  0
INSERT
  5
214
330
20E
100
AcDbEntity
  8
Ｓ_１_１
 62
     2
100
AcDbBlockReference
  2
EX_NORM
 10
715.000039
 20
700.0
 30
0.0
 41
10.0
 42
10.0
 43
10.0
 50
180.0
  0
INSERT
  5
215
330
20E
100
AcDbEntity
  8
Ｓ_１_１
 62
     2
100
AcDbBlockReference
  2
EX_NORM
 10
830.000009
 20
700.0
 30
0.0
 41
10.0
 42
10.0
 43
10.0
  0
MTEXT
  5
216
330
20E
100
AcDbEntity
  8
Ｓ_１_１
 62
     2
100
AcDbMText
 10
772.5000239999999
 20
709.1666666666667
 30
0.0
 40
11.54301312292788
 41
0.0
 71
     5
 72
     1
  1
115
  7
EXCADDIM1
  0
POINT
  5
217
330
20E
100
AcDbEntity
  8
DEFPOINTS
 62
     0
100
AcDbPoint
 10
715.000039
 20
557.999986
 30
0.0
  0
POINT
  5
218
330
20E
100
AcDbEntity
  8
DEFPOINTS
 62
     0
100
AcDbPoint
 10
830.000009
 20
660.0
 30
0.0
  0
POINT
  5
219
330
20E
100
AcDbEntity
  8
DEFPOINTS
 62
     0
100
AcDbPoint
 10
830.000009
 20
700.0
 30
0.0
  0
ENDBLK
  5
210
330
20E
100
AcDbEntity
  8
0
100
AcDbBlockEnd
  0
BLOCK
  5
21C
330
21B
100
AcDbEntity
  8
0
100
AcDbBlockBegin
  2
*D23
 70
     1
 10
0.0
 20
0.0
 30
0.0
  3
*D23
  1

  0
LINE
  5
21E
330
21B
100
AcDbEntity
  8
Ｓ_１_１
  6
CONTINUOUS
 62
     2
100
AcDbLine
 10
830.000009
 20
665.0
 30
0.0
 11
830.000009
 21
703.3333333333334
 31
0.0
  0
LINE
  5
21F
330
21B
100
AcDbEntity
  8
Ｓ_１_１
  6
CONTINUOUS
 62
     2
100
AcDbLine
 10
960.0000299999999
 20
653.934176
 30
0.0
 11
960.0000299999999
 21
703.3333333333334
 31
0.0
  0
LINE
  5
220
330
21B
100
AcDbEntity
  8
Ｓ_１_１
  6
CONTINUOUS
 62
     2
100
AcDbLine
 10
840.000009
 20
700.0
 30
0.0
 11
950.0000299999999
 21
700.0
 31
0.0
  0
INSERT
  5
221
330
21B
100
AcDbEntity
  8
Ｓ_１_１
 62
     2
100
AcDbBlockReference
  2
EX_NORM
 10
830.000009
 20
700.0
 30
0.0
 41
10.0
 42
10.0
 43
10.0
 50
180.0
  0
INSERT
  5
222
330
21B
100
AcDbEntity
  8
Ｓ_１_１
 62
     2
100
AcDbBlockReference
  2
EX_NORM
 10
960.0000299999999
 20
700.0
 30
0.0
 41
10.0
 42
10.0
 43
10.0
  0
MTEXT
  5
223
330
21B
100
AcDbEntity
  8
Ｓ_１_１
 62
     2
100
AcDbMText
 10
895.0000195
 20
709.1666666666667
 30
0.0
 40
11.54301312292788
 41
0.0
 71
     5
 72
     1
  1
130
  7
EXCADDIM1
  0
POINT
  5
224
330
21B
100
AcDbEntity
  8
DEFPOINTS
 62
     0
100
AcDbPoint
 10
830.000009
 20
660.0
 30
0.0
  0
POINT
  5
225
330
21B
100
AcDbEntity
  8
DEFPOINTS
 62
     0
100
AcDbPoint
 10
960.0000299999999
 20
648.934176
 30
0.0
  0
POINT
  5
226
330
21B
100
AcDbEntity
  8
DEFPOINTS
 62
     0
100
AcDbPoint
 10
960.0000299999999
 20
700.0
 30
0.0
  0
ENDBLK
  5
21D
330
21B
100
AcDbEntity
  8
0
100
AcDbBlockEnd
  0
BLOCK
  5
229
330
228
100
AcDbEntity
  8
0
100
AcDbBlockBegin
  2
*D24
 70
     1
 10
0.0
 20
0.0
 30
0.0
  3
*D24
  1

  0
LINE
  5
22B
330
228
100
AcDbEntity
  8
Ｓ_１_１
  6
CONTINUOUS
 62
     2
100
AcDbLine
 10
960.0000299999999
 20
653.934176
 30
0.0
 11
960.0000299999999
 21
703.3333333333334
 31
0.0
  0
LINE
  5
22C
330
228
100
AcDbEntity
  8
Ｓ_１_１
  6
CONTINUOUS
 62
     2
100
AcDbLine
 10
1060.0
 20
563.000041
 30
0.0
 11
1060.0
 21
703.3333333333334
 31
0.0
  0
LINE
  5
22D
330
228
100
AcDbEntity
  8
Ｓ_１_１
  6
CONTINUOUS
 62
     2
100
AcDbLine
 10
970.0000299999999
 20
700.0
 30
0.0
 11
1050.0
 21
700.0
 31
0.0
  0
INSERT
  5
22E
330
228
100
AcDbEntity
  8
Ｓ_１_１
 62
     2
100
AcDbBlockReference
  2
EX_NORM
 10
960.0000299999999
 20
700.0
 30
0.0
 41
10.0
 42
10.0
 43
10.0
 50
180.0
  0
INSERT
  5
22F
330
228
100
AcDbEntity
  8
Ｓ_１_１
 62
     2
100
AcDbBlockReference
  2
EX_NORM
 10
1060.0
 20
700.0
 30
0.0
 41
10.0
 42
10.0
 43
10.0
  0
MTEXT
  5
230
330
228
100
AcDbEntity
  8
Ｓ_１_１
 62
     2
100
AcDbMText
 10
1010.000015
 20
709.1666666666667
 30
0.0
 40
11.54301312292788
 41
0.0
 71
     5
 72
     1
  1
100
  7
EXCADDIM1
  0
POINT
  5
231
330
228
100
AcDbEntity
  8
DEFPOINTS
 62
     0
100
AcDbPoint
 10
960.0000299999999
 20
648.934176
 30
0.0
  0
POINT
  5
232
330
228
100
AcDbEntity
  8
DEFPOINTS
 62
     0
100
AcDbPoint
 10
1060.0
 20
558.000041
 30
0.0
  0
POINT
  5
233
330
228
100
AcDbEntity
  8
DEFPOINTS
 62
     0
100
AcDbPoint
 10
1060.0
 20
700.0
 30
0.0
  0
ENDBLK
  5
22A
330
228
100
AcDbEntity
  8
0
100
AcDbBlockEnd
  0
ENDSEC
  0
SECTION
  2
ENTITIES
  0
LINE
  5
D4
330
1F
100
AcDbEntity
  8
図面枠
  6
CONTINUOUS
 62
     5
100
AcDbLine
 10
33.33333333333334
 20
33.33333333333334
 30
0.0
 11
1366.666666666667
 21
33.33333333333334
 31
0.0
  0
LINE
  5
D5
330
1F
100
AcDbEntity
  8
図面枠
  6
CONTINUOUS
 62
     5
100
AcDbLine
 10
1366.666666666667
 20
33.33333333333334
 30
0.0
 11
1366.666666666667
 21
956.6666666666667
 31
0.0
  0
LINE
  5
D6
330
1F
100
AcDbEntity
  8
図面枠
  6
CONTINUOUS
 62
     5
100
AcDbLine
 10
1366.666666666667
 20
956.6666666666667
 30
0.0
 11
33.33333333333351
 21
956.6666666666667
 31
0.0
  0
LINE
  5
D7
330
1F
100
AcDbEntity
  8
図面枠
  6
CONTINUOUS
 62
     5
100
AcDbLine
 10
33.33333333333351
 20
956.6666666666667
 30
0.0
 11
33.33333333333334
 21
33.33333333333334
 31
0.0
  0
LINE
  5
D8
330
1F
100
AcDbEntity
  8
図面枠
  6
CONTINUOUS
 62
     3
100
AcDbLine
 10
1220.0
 20
80.0
 30
0.0
 11
1350.0
 21
80.0
 31
0.0
  0
LINE
  5
D9
330
1F
100
AcDbEntity
  8
図面枠
  6
CONTINUOUS
 62
     3
100
AcDbLine
 10
1220.0
 20
50.0
 30
0.0
 11
1350.0
 21
50.0
 31
0.0
  0
LINE
  5
DA
330
1F
100
AcDbEntity
  8
図面枠
  6
CONTINUOUS
 62
     3
100
AcDbLine
 10
1220.0
 20
80.0
 30
0.0
 11
1220.0
 21
50.0
 31
0.0
  0
LINE
  5
DB
330
1F
100
AcDbEntity
  8
図面枠
  6
CONTINUOUS
 62
     3
100
AcDbLine
 10
1350.0
 20
80.0
 30
0.0
 11
1350.0
 21
50.0
 31
0.0
  0
TEXT
  5
DD
330
1F
100
AcDbEntity
  8
図面枠
  6
CONTINUOUS
 62
     4
100
AcDbText
 10
1230.0
 20
57.8125
 30
0.0
 40
15.39068514241724
  1
OTV-31110-U
 41
0.999230769230769
  7
EXCADTTF1
 72
     5
 11
1340.0
 21
57.8125
 31
0.0
100
AcDbText
  0
TEXT
  5
DE
330
1F
100
AcDbEntity
  8
図面枠
  6
CONTINUOUS
 62
     4
100
AcDbText
 10
1290.0
 20
904.6093753427267
 30
0.0
 40
11.54301312292788
  1
kN
 41
0.9992308327601548
  7
EXCADTTF1
 72
     5
 11
1305.0
 21
904.6093753427267
 31
0.0
100
AcDbText
  0
TEXT
  5
DF
330
1F
100
AcDbEntity
  8
図面枠
  6
CONTINUOUS
 62
     4
100
AcDbText
 10
1090.0
 20
904.6093753427267
 30
0.0
 40
11.54301312292788
  1
能力
 41
0.9992308327601548
  7
EXCADTTF1
 72
     5
 11
1120.0
 21
904.6093753427267
 31
0.0
100
AcDbText
  0
TEXT
  5
E0
330
1F
100
AcDbEntity
  8
図面枠
  6
CONTINUOUS
 62
     4
100
AcDbText
 10
1179.166666666667
 20
924.6093753427267
 30
0.0
 40
11.54301312292788
  1
仕　　　様
 41
0.9992308327601547
  7
EXCADTTF1
 72
     5
 11
1254.166666666667
 21
924.6093753427267
 31
0.0
100
AcDbText
  0
LINE
  5
E1
330
1F
100
AcDbEntity
  8
図面枠
  6
CONTINUOUS
 62
     3
100
AcDbLine
 10
1083.333333333333
 20
940.0
 30
0.0
 11
1350.0
 21
940.0
 31
0.0
  0
LINE
  5
E2
330
1F
100
AcDbEntity
  8
図面枠
  6
CONTINUOUS
 62
     3
100
AcDbLine
 10
1083.333333333333
 20
920.0
 30
0.0
 11
1350.0
 21
920.0
 31
0.0
  0
TEXT
  5
E3
330
1F
100
AcDbEntity
  8
図面枠
  6
CONTINUOUS
 62
     4
100
AcDbText
 10
1246.666666666667
 20
904.6093753427267
 30
0.0
 40
11.54301312292788
  1
3110
 41
0.9992308327601548
  7
EXCADTTF1
 72
     5
 11
1276.666666666667
 21
904.6093753427267
 31
0.0
100
AcDbText
  0
TEXT
  5
E4
330
1F
100
AcDbEntity
  8
図面枠
  6
CONTINUOUS
 62
     4
100
AcDbText
 10
1290.0
 20
784.6093748658895
 30
0.0
 40
11.54301312292788
  1
cm
 41
0.9992308327601548
  7
EXCADTTF1
 72
     5
 11
1305.0
 21
784.6093748658895
 31
0.0
100
AcDbText
  0
TEXT
  5
E5
330
1F
100
AcDbEntity
  8
図面枠
  6
CONTINUOUS
 62
     4
100
AcDbText
 10
1300.5
 20
791.6992187947035
 30
0.0
 40
5.194355501680763
  1
2
 41
0.9992309104071923
  7
EXCADTTF1
 72
     5
 11
1303.875
 21
791.6992187947035
 31
0.0
100
AcDbText
  0
TEXT
  5
E6
330
1F
100
AcDbEntity
  8
図面枠
  6
CONTINUOUS
 62
     4
100
AcDbText
 10
1290.0
 20
884.6093753427267
 30
0.0
 40
11.54301312292788
  1
mm
 41
0.9992308327601548
  7
EXCADTTF1
 72
     5
 11
1305.0
 21
884.6093753427267
 31
0.0
100
AcDbText
  0
TEXT
  5
E7
330
1F
100
AcDbEntity
  8
図面枠
  6
CONTINUOUS
 62
     4
100
AcDbText
 10
1290.0
 20
864.6093753427267
 30
0.0
 40
11.54301312292788
  1
mm
 41
0.9992308327601548
  7
EXCADTTF1
 72
     5
 11
1305.0
 21
864.6093753427267
 31
0.0
100
AcDbText
  0
TEXT
  5
E8
330
1F
100
AcDbEntity
  8
図面枠
  6
CONTINUOUS
 62
     4
100
AcDbText
 10
1290.0
 20
844.6093753427267
 30
0.0
 40
11.54301312292788
  1
mm
 41
0.9992308327601548
  7
EXCADTTF1
 72
     5
 11
1305.0
 21
844.6093753427267
 31
0.0
100
AcDbText
  0
TEXT
  5
E9
330
1F
100
AcDbEntity
  8
図面枠
  6
CONTINUOUS
 62
     4
100
AcDbText
 10
1290.0
 20
824.6093753427267
 30
0.0
 40
11.54301312292788
  1
mm
 41
0.9992308327601548
  7
EXCADTTF1
 72
     5
 11
1305.0
 21
824.6093753427267
 31
0.0
100
AcDbText
  0
TEXT
  5
EA
330
1F
100
AcDbEntity
  8
図面枠
  6
CONTINUOUS
 62
     4
100
AcDbText
 10
1290.0
 20
804.6093753427267
 30
0.0
 40
11.54301312292788
  1
mm
 41
0.9992308327601548
  7
EXCADTTF1
 72
     5
 11
1305.0
 21
804.6093753427267
 31
0.0
100
AcDbText
  0
TEXT
  5
EB
330
1F
100
AcDbEntity
  8
図面枠
  6
CONTINUOUS
 62
     4
100
AcDbText
 10
1290.0
 20
764.6093753427267
 30
0.0
 40
11.54301312292788
  1
MPa
 41
0.9992308327601547
  7
EXCADTTF1
 72
     5
 11
1312.5
 21
764.6093753427267
 31
0.0
100
AcDbText
  0
TEXT
  5
EC
330
1F
100
AcDbEntity
  8
図面枠
  6
CONTINUOUS
 62
     4
100
AcDbText
 10
1090.0
 20
884.6093753427267
 30
0.0
 40
11.54301312292788
  1
ストローク
 41
0.9992308327601547
  7
EXCADTTF1
 72
     5
 11
1165.0
 21
884.6093753427267
 31
0.0
100
AcDbText
  0
TEXT
  5
ED
330
1F
100
AcDbEntity
  8
図面枠
  6
CONTINUOUS
 62
     4
100
AcDbText
 10
1090.0
 20
864.6093753427267
 30
0.0
 40
11.54301312292788
  1
最低機械高
 41
0.9992308327601547
  7
EXCADTTF1
 72
     5
 11
1165.0
 21
864.6093753427267
 31
0.0
100
AcDbText
  0
TEXT
  5
EE
330
1F
100
AcDbEntity
  8
図面枠
  6
CONTINUOUS
 62
     4
100
AcDbText
 10
1090.0
 20
844.6093753427267
 30
0.0
 40
11.54301312292788
  1
シリンダー外径
 41
0.9992308327601548
  7
EXCADTTF1
 72
     5
 11
1195.0
 21
844.6093753427267
 31
0.0
100
AcDbText
  0
TEXT
  5
EF
330
1F
100
AcDbEntity
  8
図面枠
  6
CONTINUOUS
 62
     4
100
AcDbText
 10
1090.0
 20
824.6093753427267
 30
0.0
 40
11.54301312292788
  1
ヘッド径
 41
0.9992308327601548
  7
EXCADTTF1
 72
     5
 11
1150.0
 21
824.6093753427267
 31
0.0
100
AcDbText
  0
TEXT
  5
F0
330
1F
100
AcDbEntity
  8
図面枠
  6
CONTINUOUS
 62
     4
100
AcDbText
 10
1090.0
 20
804.6093753427267
 30
0.0
 40
11.54301312292788
  1
ピストン径
 41
0.9992308327601547
  7
EXCADTTF1
 72
     5
 11
1165.0
 21
804.6093753427267
 31
0.0
100
AcDbText
  0
TEXT
  5
F1
330
1F
100
AcDbEntity
  8
図面枠
  6
CONTINUOUS
 62
     4
100
AcDbText
 10
1090.0
 20
784.6093753427267
 30
0.0
 40
11.54301312292788
  1
受圧面積
 41
0.9992308327601548
  7
EXCADTTF1
 72
     5
 11
1150.0
 21
784.6093753427267
 31
0.0
100
AcDbText
  0
TEXT
  5
F2
330
1F
100
AcDbEntity
  8
図面枠
  6
CONTINUOUS
 62
     4
100
AcDbText
 10
1090.0
 20
764.6093753427267
 30
0.0
 40
11.54301312292788
  1
最高使用圧力
 41
0.9992308327601547
  7
EXCADTTF1
 72
     5
 11
1180.0
 21
764.6093753427267
 31
0.0
100
AcDbText
  0
LINE
  5
F3
330
1F
100
AcDbEntity
  8
図面枠
  6
CONTINUOUS
 62
     2
100
AcDbLine
 10
1083.333333333333
 20
900.0
 30
0.0
 11
1350.0
 21
900.0
 31
0.0
  0
LINE
  5
F4
330
1F
100
AcDbEntity
  8
図面枠
  6
CONTINUOUS
 62
     2
100
AcDbLine
 10
1083.333333333333
 20
880.0
 30
0.0
 11
1350.0
 21
880.0
 31
0.0
  0
LINE
  5
F5
330
1F
100
AcDbEntity
  8
図面枠
  6
CONTINUOUS
 62
     2
100
AcDbLine
 10
1083.333333333333
 20
860.0
 30
0.0
 11
1350.0
 21
860.0
 31
0.0
  0
LINE
  5
F6
330
1F
100
AcDbEntity
  8
図面枠
  6
CONTINUOUS
 62
     2
100
AcDbLine
 10
1083.333333333333
 20
840.0
 30
0.0
 11
1350.0
 21
840.0
 31
0.0
  0
LINE
  5
F7
330
1F
100
AcDbEntity
  8
図面枠
  6
CONTINUOUS
 62
     2
100
AcDbLine
 10
1083.333333333333
 20
820.0
 30
0.0
 11
1350.0
 21
820.0
 31
0.0
  0
LINE
  5
F8
330
1F
100
AcDbEntity
  8
図面枠
  6
CONTINUOUS
 62
     2
100
AcDbLine
 10
1083.333333333333
 20
800.0
 30
0.0
 11
1350.0
 21
800.0
 31
0.0
  0
LINE
  5
F9
330
1F
100
AcDbEntity
  8
図面枠
  6
CONTINUOUS
 62
     2
100
AcDbLine
 10
1083.333333333333
 20
780.0
 30
0.0
 11
1350.0
 21
780.0
 31
0.0
  0
TEXT
  5
FA
330
1F
100
AcDbEntity
  8
図面枠
  6
CONTINUOUS
 62
     4
100
AcDbText
 10
1254.166666666667
 20
884.6093753427267
 30
0.0
 40
11.54301312292788
  1
100
 41
0.9992308327601547
  7
EXCADTTF1
 72
     5
 11
1276.666666666667
 21
884.6093753427267
 31
0.0
100
AcDbText
  0
TEXT
  5
FB
330
1F
100
AcDbEntity
  8
図面枠
  6
CONTINUOUS
 62
     4
100
AcDbText
 10
1254.166666666667
 20
864.6093753427267
 30
0.0
 40
11.54301312292788
  1
410
 41
0.9992308327601547
  7
EXCADTTF1
 72
     5
 11
1276.666666666667
 21
864.6093753427267
 31
0.0
100
AcDbText
  0
TEXT
  5
FC
330
1F
100
AcDbEntity
  8
図面枠
  6
CONTINUOUS
 62
     4
100
AcDbText
 10
1254.166666666667
 20
844.6093753427267
 30
0.0
 40
11.54301312292788
  1
320
 41
0.9992308327601547
  7
EXCADTTF1
 72
     5
 11
1276.666666666667
 21
844.6093753427267
 31
0.0
100
AcDbText
  0
TEXT
  5
FD
330
1F
100
AcDbEntity
  8
図面枠
  6
CONTINUOUS
 62
     4
100
AcDbText
 10
1254.166666666667
 20
824.6093753427267
 30
0.0
 40
11.54301312292788
  1
313
 41
0.9992308327601547
  7
EXCADTTF1
 72
     5
 11
1276.666666666667
 21
824.6093753427267
 31
0.0
100
AcDbText
  0
TEXT
  5
FE
330
1F
100
AcDbEntity
  8
図面枠
  6
CONTINUOUS
 62
     4
100
AcDbText
 10
1254.166666666667
 20
804.6093753427267
 30
0.0
 40
11.54301312292788
  1
230
 41
0.9992308327601547
  7
EXCADTTF1
 72
     5
 11
1276.666666666667
 21
804.6093753427267
 31
0.0
100
AcDbText
  0
TEXT
  5
FF
330
1F
100
AcDbEntity
  8
図面枠
  6
CONTINUOUS
 62
     4
100
AcDbText
 10
1239.166666666667
 20
784.6093753427267
 30
0.0
 40
11.54301312292788
  1
415.5
 41
0.9992308327601547
  7
EXCADTTF1
 72
     5
 11
1276.666666666667
 21
784.6093753427267
 31
0.0
100
AcDbText
  0
TEXT
  5
100
330
1F
100
AcDbEntity
  8
図面枠
  6
CONTINUOUS
 62
     4
100
AcDbText
 10
1246.666666666667
 20
764.6093753427267
 30
0.0
 40
11.54301312292788
  1
74.9
 41
0.9992308327601548
  7
EXCADTTF1
 72
     5
 11
1276.666666666667
 21
764.6093753427267
 31
0.0
100
AcDbText
  0
TEXT
  5
101
330
1F
100
AcDbEntity
  8
図面枠
  6
CONTINUOUS
 62
     4
100
AcDbText
 10
1290.0
 20
724.6093753427267
 30
0.0
 40
11.54301312292788
  1
kg
 41
0.9992308327601548
  7
EXCADTTF1
 72
     5
 11
1305.0
 21
724.6093753427267
 31
0.0
100
AcDbText
  0
TEXT
  5
102
330
1F
100
AcDbEntity
  8
図面枠
  6
CONTINUOUS
 62
     4
100
AcDbText
 10
1090.0
 20
744.6093753427267
 30
0.0
 40
11.54301312292788
  1
所要油量
 41
0.9992308327601548
  7
EXCADTTF1
 72
     5
 11
1150.0
 21
744.6093753427267
 31
0.0
100
AcDbText
  0
TEXT
  5
103
330
1F
100
AcDbEntity
  8
図面枠
  6
CONTINUOUS
 62
     4
100
AcDbText
 10
1090.0
 20
724.6093753427267
 30
0.0
 40
11.54301312292788
  1
重量
 41
0.9992308327601548
  7
EXCADTTF1
 72
     5
 11
1120.0
 21
724.6093753427267
 31
0.0
100
AcDbText
  0
LINE
  5
104
330
1F
100
AcDbEntity
  8
図面枠
  6
CONTINUOUS
 62
     2
100
AcDbLine
 10
1083.333333333333
 20
760.0
 30
0.0
 11
1350.0
 21
760.0
 31
0.0
  0
LINE
  5
105
330
1F
100
AcDbEntity
  8
図面枠
  6
CONTINUOUS
 62
     2
100
AcDbLine
 10
1083.333333333333
 20
740.0
 30
0.0
 11
1350.0
 21
740.0
 31
0.0
  0
LINE
  5
106
330
1F
100
AcDbEntity
  8
図面枠
  6
CONTINUOUS
 62
     2
100
AcDbLine
 10
1083.333333333333
 20
720.0
 30
0.0
 11
1350.0
 21
720.0
 31
0.0
  0
LINE
  5
107
330
1F
100
AcDbEntity
  8
図面枠
  6
CONTINUOUS
 62
     2
100
AcDbLine
 10
1216.666666666667
 20
700.0
 30
0.0
 11
1350.0
 21
700.0
 31
0.0
  0
TEXT
  5
108
330
1F
100
AcDbEntity
  8
図面枠
  6
CONTINUOUS
 62
     4
100
AcDbText
 10
1090.0
 20
704.6093748658895
 30
0.0
 40
11.54301312292788
  1
ユニバーサル
 41
0.9992308327601547
  7
EXCADTTF1
 72
     5
 11
1180.0
 21
704.6093748658895
 31
0.0
100
AcDbText
  0
TEXT
  5
109
330
1F
100
AcDbEntity
  8
図面枠
  6
CONTINUOUS
 62
     4
100
AcDbText
 10
1090.0
 20
689.6093758195639
 30
0.0
 40
11.54301312292788
  1
振り角
 41
0.9992308327601547
  7
EXCADTTF1
 72
     5
 11
1135.0
 21
689.6093758195639
 31
0.0
100
AcDbText
  0
TEXT
  5
10A
330
1F
100
AcDbEntity
  8
図面枠
  6
CONTINUOUS
 62
     4
100
AcDbText
 10
1290.0
 20
704.6093753427267
 30
0.0
 40
11.54301312292788
  1
°
 41
0.9992308327601548
  7
EXCADTTF1
 72
     5
 11
1305.0
 21
704.6093753427267
 31
0.0
100
AcDbText
  0
TEXT
  5
10B
330
1F
100
AcDbEntity
  8
図面枠
  6
CONTINUOUS
 62
     4
100
AcDbText
 10
1290.0
 20
684.6093753427267
 30
0.0
 40
11.54301312292788
  1
%%%
 41
0.9992308327601548
  7
EXCADTTF1
 72
     5
 11
1297.5
 21
684.6093753427267
 31
0.0
100
AcDbText
  0
TEXT
  5
10C
330
1F
100
AcDbEntity
  8
図面枠
  6
CONTINUOUS
 62
     4
100
AcDbText
 10
1254.166666666667
 20
704.6093753427267
 30
0.0
 40
11.54301312292788
  1
±3
 41
0.9992308327601547
  7
EXCADTTF1
 72
     5
 11
1276.666666666667
 21
704.6093753427267
 31
0.0
100
AcDbText
  0
TEXT
  5
10D
330
1F
100
AcDbEntity
  8
図面枠
  6
CONTINUOUS
 62
     4
100
AcDbText
 10
1254.166666666667
 20
684.6093753427267
 30
0.0
 40
11.54301312292788
  1
±5
 41
0.9992308327601547
  7
EXCADTTF1
 72
     5
 11
1276.666666666667
 21
684.6093753427267
 31
0.0
100
AcDbText
  0
LINE
  5
10E
330
1F
100
AcDbEntity
  8
図面枠
  6
CONTINUOUS
 62
     3
100
AcDbLine
 10
1083.333333333333
 20
680.0
 30
0.0
 11
1350.0
 21
680.0
 31
0.0
  0
LINE
  5
10F
330
1F
100
AcDbEntity
  8
図面枠
  6
CONTINUOUS
 62
     3
100
AcDbLine
 10
1083.333333333333
 20
940.0
 30
0.0
 11
1083.333333333333
 21
680.0
 31
0.0
  0
LINE
  5
110
330
1F
100
AcDbEntity
  8
図面枠
  6
CONTINUOUS
 62
     2
100
AcDbLine
 10
1216.666666666667
 20
920.0
 30
0.0
 11
1216.666666666667
 21
680.0
 31
0.0
  0
LINE
  5
111
330
1F
100
AcDbEntity
  8
図面枠
  6
CONTINUOUS
 62
     2
100
AcDbLine
 10
1283.333333333333
 20
920.0
 30
0.0
 11
1283.333333333333
 21
680.0
 31
0.0
  0
LINE
  5
112
330
1F
100
AcDbEntity
  8
図面枠
  6
CONTINUOUS
 62
     3
100
AcDbLine
 10
1350.0
 20
940.0
 30
0.0
 11
1350.0
 21
680.0
 31
0.0
  0
LINE
  5
113
330
1F
100
AcDbEntity
  8
図面枠
  6
CONTINUOUS
 62
     3
100
AcDbLine
 10
50.00000000000005
 20
940.0
 30
0.0
 11
50.00000000000005
 21
910.0
 31
0.0
  0
LINE
  5
114
330
1F
100
AcDbEntity
  8
図面枠
  6
CONTINUOUS
 62
     3
100
AcDbLine
 10
610.0000000000001
 20
939.9999999999999
 30
0.0
 11
610.0000000000001
 21
909.9999999999999
 31
0.0
  0
LINE
  5
115
330
1F
100
AcDbEntity
  8
図面枠
  6
CONTINUOUS
 62
     3
100
AcDbLine
 10
50.00000000000005
 20
940.0
 30
0.0
 11
610.0
 21
940.0
 31
0.0
  0
LINE
  5
116
330
1F
100
AcDbEntity
  8
図面枠
  6
CONTINUOUS
 62
     3
100
AcDbLine
 10
50.00000000000005
 20
910.0
 30
0.0
 11
610.0
 21
910.0
 31
0.0
  0
TEXT
  5
117
330
1F
100
AcDbEntity
  8
図面枠
  6
CONTINUOUS
 62
     4
100
AcDbText
 10
55.0
 20
917.8125
 30
0.0
 40
15.39068514241724
  1
3110kN100ストローク油圧ジャッキ　ユニバーサルヘッド付き
 41
0.9992307692307695
  7
EXCADTTF1
 72
     5
 11
605.0
 21
917.8125
 31
0.0
100
AcDbText
  0
TEXT
  5
118
330
1F
100
AcDbEntity
  8
図面枠
  6
CONTINUOUS
 62
     4
100
AcDbText
 10
1290.0
 20
744.6093753427267
 30
0.0
 40
11.54301312292788
  1
L
 41
0.9992308327601548
  7
EXCADTTF1
 72
     5
 11
1297.5
 21
744.6093753427267
 31
0.0
100
AcDbText
  0
TEXT
  5
119
330
1F
100
AcDbEntity
  8
図面枠
  6
CONTINUOUS
 62
     4
100
AcDbText
 10
1254.166666666667
 20
744.6093753427267
 30
0.0
 40
11.54301312292788
  1
4.2
 41
0.9992308327601547
  7
EXCADTTF1
 72
     5
 11
1276.666666666667
 21
744.6093753427267
 31
0.0
100
AcDbText
  0
TEXT
  5
11A
330
1F
100
AcDbEntity
  8
図面枠
  6
CONTINUOUS
 62
     4
100
AcDbText
 10
1239.166666666667
 20
724.6093753427267
 30
0.0
 40
11.54301312292788
  1
約200
 41
0.9992308327601547
  7
EXCADTTF1
 72
     5
 11
1276.666666666667
 21
724.6093753427267
 31
0.0
100
AcDbText
  0
DIMENSION
  5
11C
330
1F
100
AcDbEntity
  8
Ｓ_１_１
  6
CONTINUOUS
 62
     2
100
AcDbDimension
  2
*D15
 10
1120.0
 20
240.000006
 30
0.0
 11
1110.833333333333
 21
399.9999995000001
 31
0.0
 70
   160
  1
%%c320
  3
ISO-25
100
AcDbAlignedDimension
 13
1057.99998
 23
559.9999930000001
 33
0.0
 14
1057.99998
 24
240.000006
 34
0.0
 50
90.0
100
AcDbRotatedDimension
1001
ACAD
1000
DSTYLE
1002
{
1070
   270
1070
     2
1070
     6
1000
EX_NORM
1070
     7
1000
EX_NORM
1070
    41
1040
10.0
1070
    42
1040
5.0
1070
    44
1040
3.333333333333485
1070
    73
1070
     0
1070
    74
1070
     0
1070
    75
1070
     0
1070
    76
1070
     0
1070
    77
1070
     1
1070
    78
1070
     8
1070
   140
1040
11.54301312292788
1070
   147
1040
0.0
1070
   173
1070
     1
1070
   176
1070
     2
1070
   177
1070
     2
1070
   178
1070
     2
1070
   271
1070
     2
1070
   277
1070
     2
1070
   279
1070
     2
1070
   280
1070
     0
1070
   287
1070
     5
1070
   340
1005
11B
1002
}
  0
DIMENSION
  5
12A
330
1F
100
AcDbEntity
  8
Ｓ_１_１
  6
CONTINUOUS
 62
     2
100
AcDbDimension
  2
*D16
 10
715.000039
 20
180.0
 30
0.0
 11
887.5000195
 21
189.1666666666667
 31
0.0
 70
   160
  3
ISO-25
100
AcDbAlignedDimension
 13
1060.0
 23
241.999945
 33
0.0
 14
715.000039
 24
242.000014
 34
0.0
100
AcDbRotatedDimension
1001
ACAD
1000
DSTYLE
1002
{
1070
   270
1070
     2
1070
     6
1000
EX_NORM
1070
     7
1000
EX_NORM
1070
    41
1040
10.0
1070
    42
1040
0.0
1070
    44
1040
0.0
1070
    73
1070
     0
1070
    74
1070
     0
1070
    75
1070
     1
1070
    76
1070
     1
1070
    77
1070
     1
1070
    78
1070
     8
1070
   140
1040
11.54301312292788
1070
   147
1040
0.0
1070
   173
1070
     1
1070
   176
1070
     2
1070
   177
1070
     2
1070
   178
1070
     2
1070
   271
1070
     2
1070
   277
1070
     2
1070
   279
1070
     2
1070
   280
1070
     0
1070
   287
1070
     5
1070
   340
1005
11B
1002
}
  0
DIMENSION
  5
135
330
1F
100
AcDbEntity
  8
Ｓ_１_１
  6
CONTINUOUS
 62
     2
100
AcDbDimension
  2
*D17
 10
700.000027
 20
180.0
 30
0.0
 11
707.500033
 21
189.1666666666667
 31
0.0
 70
   160
  3
ISO-25
100
AcDbAlignedDimension
 13
715.000039
 23
242.000014
 33
0.0
 14
700.000027
 24
314.500023
 34
0.0
100
AcDbRotatedDimension
1001
ACAD
1000
DSTYLE
1002
{
1070
   270
1070
     2
1070
     6
1000
EX_NORM
1070
     7
1000
EX_NORM
1070
    41
1040
10.0
1070
    42
1040
5.0
1070
    44
1040
3.333333333333314
1070
    73
1070
     0
1070
    74
1070
     0
1070
    75
1070
     0
1070
    76
1070
     1
1070
    77
1070
     1
1070
    78
1070
     8
1070
   140
1040
11.54301312292788
1070
   147
1040
0.0
1070
   173
1070
     1
1070
   176
1070
     2
1070
   177
1070
     2
1070
   178
1070
     2
1070
   271
1070
     2
1070
   277
1070
     2
1070
   279
1070
     2
1070
   280
1070
     0
1070
   287
1070
     5
1070
   340
1005
11B
1002
}
  0
DIMENSION
  5
143
330
1F
100
AcDbEntity
  8
Ｓ_１_１
  6
CONTINUOUS
 62
     2
100
AcDbDimension
  2
*D18
 10
650.000016
 20
180.0
 30
0.0
 11
675.0000215
 21
189.1666666666667
 31
0.0
 70
   160
  3
ISO-25
100
AcDbAlignedDimension
 13
700.000027
 23
314.500023
 33
0.0
 14
650.000016
 24
245.500033
 34
0.0
100
AcDbRotatedDimension
1001
ACAD
1000
DSTYLE
1002
{
1070
   270
1070
     2
1070
     6
1000
EX_NORM
1070
     7
1000
EX_NORM
1070
    41
1040
10.0
1070
    42
1040
5.0
1070
    44
1040
3.333333333333314
1070
    73
1070
     0
1070
    74
1070
     0
1070
    75
1070
     0
1070
    76
1070
     1
1070
    77
1070
     1
1070
    78
1070
     8
1070
   140
1040
11.54301312292788
1070
   147
1040
0.0
1070
   173
1070
     1
1070
   176
1070
     2
1070
   177
1070
     2
1070
   178
1070
     2
1070
   271
1070
     2
1070
   277
1070
     2
1070
   279
1070
     2
1070
   280
1070
     0
1070
   287
1070
     5
1070
   340
1005
11B
1002
}
  0
DIMENSION
  5
14F
330
1F
100
AcDbEntity
  8
Ｓ_１_１
  6
CONTINUOUS
 62
     2
100
AcDbDimension
  2
*D19
 10
650.000016
 20
160.0
 30
0.0
 11
855.000008
 21
169.1666666666667
 31
0.0
 70
   160
  3
ISO-25
100
AcDbAlignedDimension
 13
1060.0
 23
241.999945
 33
0.0
 14
650.000016
 24
245.500033
 34
0.0
100
AcDbRotatedDimension
1001
ACAD
1000
DSTYLE
1002
{
1070
   270
1070
     2
1070
     6
1000
EX_NORM
1070
     7
1000
EX_NORM
1070
    41
1040
10.0
1070
    42
1040
5.0
1070
    44
1040
3.333333333333314
1070
    73
1070
     0
1070
    74
1070
     0
1070
    75
1070
     0
1070
    76
1070
     0
1070
    77
1070
     1
1070
    78
1070
     8
1070
   140
1040
11.54301312292788
1070
   147
1040
0.0
1070
   173
1070
     1
1070
   176
1070
     2
1070
   177
1070
     2
1070
   178
1070
     2
1070
   271
1070
     2
1070
   277
1070
     2
1070
   279
1070
     2
1070
   280
1070
     0
1070
   287
1070
     5
1070
   340
1005
11B
1002
}
  0
DIMENSION
  5
15C
330
1F
100
AcDbEntity
  8
Ｓ_１_１
  6
CONTINUOUS
 62
     2
100
AcDbDimension
  2
*D20
 10
580.0
 20
243.500016
 30
0.0
 11
570.8333333333334
 21
399.9999995
 31
0.0
 70
   160
  1
%%c313
  3
ISO-25
100
AcDbAlignedDimension
 13
652.000037
 23
556.4999829999999
 33
0.0
 14
652.000037
 24
243.500016
 34
0.0
 50
90.0
100
AcDbRotatedDimension
1001
ACAD
1000
DSTYLE
1002
{
1070
   270
1070
     2
1070
     6
1000
EX_NORM
1070
     7
1000
EX_NORM
1070
    41
1040
10.0
1070
    42
1040
5.0
1070
    44
1040
3.333333333333258
1070
    73
1070
     0
1070
    74
1070
     0
1070
    75
1070
     0
1070
    76
1070
     0
1070
    77
1070
     1
1070
    78
1070
     8
1070
   140
1040
11.54301312292788
1070
   147
1040
0.0
1070
   173
1070
     1
1070
   176
1070
     2
1070
   177
1070
     2
1070
   178
1070
     2
1070
   271
1070
     2
1070
   277
1070
     2
1070
   279
1070
     2
1070
   280
1070
     0
1070
   287
1070
     5
1070
   340
1005
11B
1002
}
  0
DIMENSION
  5
169
330
1F
100
AcDbEntity
  8
Ｓ_１_１
  6
CONTINUOUS
 62
     2
100
AcDbDimension
  2
*D21
 10
1120.0
 20
645.362246
 30
0.0
 11
1110.833333333333
 21
602.6811195000001
 31
0.0
 70
   160
  1
(85)
  3
ISO-25
100
AcDbAlignedDimension
 13
1058.000048
 23
559.9999930000001
 33
0.0
 14
972.000024
 24
645.362246
 34
0.0
 50
90.0
100
AcDbRotatedDimension
1001
ACAD
1000
DSTYLE
1002
{
1070
   270
1070
     2
1070
     6
1000
EX_NORM
1070
     7
1000
EX_NORM
1070
    41
1040
10.0
1070
    42
1040
5.0
1070
    44
1040
3.333333333333485
1070
    73
1070
     0
1070
    74
1070
     0
1070
    75
1070
     1
1070
    76
1070
     0
1070
    77
1070
     1
1070
    78
1070
     8
1070
   140
1040
11.54301312292788
1070
   147
1040
0.0
1070
   173
1070
     1
1070
   176
1070
     2
1070
   177
1070
     2
1070
   178
1070
     2
1070
   271
1070
     2
1070
   277
1070
     2
1070
   279
1070
     2
1070
   280
1070
     0
1070
   287
1070
     5
1070
   340
1005
11B
1002
}
  0
LINE
  5
175
330
1F
100
AcDbEntity
  8
Ｓ_１_１
  6
EXLTYPE2
 62
     1
100
AcDbLine
 10
960.0000299999999
 20
648.934176
 30
0.0
 11
960.0000299999999
 21
545.4177540000001
 31
0.0
  0
LINE
  5
176
330
1F
100
AcDbEntity
  8
Ｓ_１_１
  6
EXLTYPE2
 62
     1
100
AcDbLine
 10
960.0000299999999
 20
574.999992
 30
0.0
 11
960.0000299999999
 21
544.999994
 31
0.0
  0
LINE
  5
177
330
1F
100
AcDbEntity
  8
Ｓ_１_１
  6
EXLTYPE2
 62
     1
100
AcDbLine
 10
830.0000090000001
 20
574.999992
 30
0.0
 11
830.0000090000001
 21
544.999994
 31
0.0
  0
LINE
  5
178
330
1F
100
AcDbEntity
  8
Ｓ_１_１
  6
EXLTYPE2
 62
     1
100
AcDbLine
 10
630.643894
 20
400.0
 30
0.0
 11
1076.664276
 21
400.0
 31
0.0
  0
ARC
  5
179
330
1F
100
AcDbEntity
  8
Ｓ_１_１
  6
CONTINUOUS
 62
     3
100
AcDbCircle
 10
960.0000299999999
 20
573.4228189999999
 30
0.0
 40
21.939437
100
AcDbArc
 50
76.82650699999999
 51
103.17347
  0
ARC
  5
17A
330
1F
100
AcDbEntity
  8
Ｓ_１_１
  6
CONTINUOUS
 62
     3
100
AcDbCircle
 10
960.0000299999999
 20
604.8016909999999
 30
0.0
 40
21.939437
100
AcDbArc
 50
256.8265370000001
 51
283.173527
  0
ARC
  5
17B
330
1F
100
AcDbEntity
  8
Ｓ_１_１
  6
CONTINUOUS
 62
     3
100
AcDbCircle
 10
969.0933010000002
 20
571.7294999999999
 30
0.0
 40
5.367245
100
AcDbArc
 50
235.6158480000003
 51
304.3841360000004
  0
ARC
  5
17C
330
1F
100
AcDbEntity
  8
Ｓ_１_１
  6
CONTINUOUS
 62
     3
100
AcDbCircle
 10
960.000004
 20
586.4244510000001
 30
0.0
 40
20.062196
100
AcDbArc
 50
252.412124
 51
287.588008
  0
ARC
  5
17D
330
1F
100
AcDbEntity
  8
Ｓ_１_１
  6
CONTINUOUS
 62
     3
100
AcDbCircle
 10
969.0933010000002
 20
569.9950080000001
 30
0.0
 40
5.367245
100
AcDbArc
 50
55.61591800000001
 51
124.384206
  0
ARC
  5
17E
330
1F
100
AcDbEntity
  8
Ｓ_１_１
  6
CONTINUOUS
 62
     3
100
AcDbCircle
 10
950.9067329999999
 20
569.9950080000001
 30
0.0
 40
5.367245
100
AcDbArc
 50
55.615836
 51
124.384124
  0
ARC
  5
17F
330
1F
100
AcDbEntity
  8
Ｓ_１_１
  6
CONTINUOUS
 62
     3
100
AcDbCircle
 10
960.000004
 20
555.3000569999999
 30
0.0
 40
20.062196
100
AcDbArc
 50
72.41204699999997
 51
107.587931
  0
ARC
  5
180
330
1F
100
AcDbEntity
  8
Ｓ_１_１
  6
CONTINUOUS
 62
     3
100
AcDbCircle
 10
950.9067329999999
 20
571.7294999999999
 30
0.0
 40
5.367245
100
AcDbArc
 50
235.6159300000003
 51
304.3842180000003
  0
LINE
  5
181
330
1F
100
AcDbEntity
  8
Ｓ_１_１
  6
CONTINUOUS
 62
     3
100
AcDbLine
 10
972.000024
 20
582.862261
 30
0.0
 11
948.00001
 21
582.862261
 31
0.0
  0
LINE
  5
182
330
1F
100
AcDbEntity
  8
Ｓ_１_１
  6
CONTINUOUS
 62
     3
100
AcDbLine
 10
955.0000299999999
 20
583.439603
 30
0.0
 11
947.000025
 21
583.439603
 31
0.0
  0
LINE
  5
183
330
1F
100
AcDbEntity
  8
Ｓ_１_１
  6
CONTINUOUS
 62
     3
100
AcDbLine
 10
955.0000299999999
 20
594.7849060000001
 30
0.0
 11
947.000025
 21
594.7849060000001
 31
0.0
  0
LINE
  5
184
330
1F
100
AcDbEntity
  8
Ｓ_１_１
  6
CONTINUOUS
 62
     3
100
AcDbLine
 10
973.0000339999998
 20
583.439603
 30
0.0
 11
965.0000290000002
 21
583.439603
 31
0.0
  0
LINE
  5
185
330
1F
100
AcDbEntity
  8
Ｓ_１_１
  6
CONTINUOUS
 62
     3
100
AcDbLine
 10
973.0000339999998
 20
594.7849060000001
 30
0.0
 11
965.0000290000002
 21
594.7849060000001
 31
0.0
  0
LINE
  5
186
330
1F
100
AcDbEntity
  8
Ｓ_１_１
  6
CONTINUOUS
 62
     3
100
AcDbLine
 10
973.0000339999998
 20
610.9396019999999
 30
0.0
 11
947.000025
 21
610.9396019999999
 31
0.0
  0
LINE
  5
187
330
1F
100
AcDbEntity
  8
Ｓ_１_１
  6
CONTINUOUS
 62
     3
100
AcDbLine
 10
972.9999929999999
 20
610.93959
 30
0.0
 11
972.000008
 21
610.362249
 31
0.0
  0
LINE
  5
188
330
1F
100
AcDbEntity
  8
Ｓ_１_１
  6
CONTINUOUS
 62
     3
100
AcDbLine
 10
948.0000150000001
 20
595.362245
 30
0.0
 11
947.0000299999998
 21
594.784903
 31
0.0
  0
LINE
  5
189
330
1F
100
AcDbEntity
  8
Ｓ_１_１
  6
CONTINUOUS
 62
     3
100
AcDbLine
 10
972.9999980000001
 20
583.439584
 30
0.0
 11
972.000013
 21
582.8622419999999
 31
0.0
  0
LINE
  5
18A
330
1F
100
AcDbEntity
  8
Ｓ_１_１
  6
CONTINUOUS
 62
     3
100
AcDbLine
 10
948.000016
 20
610.3622419999999
 30
0.0
 11
947.0000090000001
 21
610.9395959999999
 31
0.0
  0
LINE
  5
18B
330
1F
100
AcDbEntity
  8
Ｓ_１_１
  6
CONTINUOUS
 62
     3
100
AcDbLine
 10
973.0000239999998
 20
594.784897
 30
0.0
 11
972.0000170000002
 21
595.3622519999999
 31
0.0
  0
LINE
  5
18C
330
1F
100
AcDbEntity
  8
Ｓ_１_１
  6
CONTINUOUS
 62
     3
100
AcDbLine
 10
948.00002
 20
582.862251
 30
0.0
 11
947.000013
 21
583.4396059999999
 31
0.0
  0
LINE
  5
18D
330
1F
100
AcDbEntity
  8
Ｓ_１_１
  6
CONTINUOUS
 62
     3
100
AcDbLine
 10
955.0000299999999
 20
594.7849060000001
 30
0.0
 11
955.0000299999999
 21
583.439603
 31
0.0
  0
LINE
  5
18E
330
1F
100
AcDbEntity
  8
Ｓ_１_１
  6
CONTINUOUS
 62
     3
100
AcDbLine
 10
965.0000290000002
 20
594.7849060000001
 30
0.0
 11
965.0000290000002
 21
583.439603
 31
0.0
  0
LINE
  5
18F
330
1F
100
AcDbEntity
  8
Ｓ_１_１
  6
CONTINUOUS
 62
     3
100
AcDbLine
 10
967.2510090000002
 20
559.999995
 30
0.0
 11
967.5635090000002
 21
564.9999909999999
 31
0.0
  0
LINE
  5
190
330
1F
100
AcDbEntity
  8
Ｓ_１_１
  6
CONTINUOUS
 62
     3
100
AcDbLine
 10
967.952372
 20
559.999999
 30
0.0
 11
968.3500129999999
 21
566.3622620000001
 31
0.0
  0
LINE
  5
191
330
1F
100
AcDbEntity
  8
Ｓ_１_１
  6
CONTINUOUS
 62
     3
100
AcDbLine
 10
968.264876
 20
564.9999929999999
 30
0.0
 11
951.7351580000001
 21
564.9999929999999
 31
0.0
  0
LINE
  5
192
330
1F
100
AcDbEntity
  8
Ｓ_１_１
  6
CONTINUOUS
 62
     3
100
AcDbLine
 10
968.350019
 20
566.3622720000001
 30
0.0
 11
967.5635179999999
 21
565.0000110000001
 31
0.0
  0
LINE
  5
193
330
1F
100
AcDbEntity
  8
Ｓ_１_１
  6
CONTINUOUS
 62
     3
100
AcDbLine
 10
952.7490479999999
 20
559.999993
 30
0.0
 11
952.4365479999999
 21
564.99999
 31
0.0
  0
LINE
  5
194
330
1F
100
AcDbEntity
  8
Ｓ_１_１
  6
CONTINUOUS
 62
     3
100
AcDbLine
 10
952.0476840000002
 20
559.999998
 30
0.0
 11
951.6500430000001
 21
566.362261
 31
0.0
  0
LINE
  5
195
330
1F
100
AcDbEntity
  8
Ｓ_１_１
  6
CONTINUOUS
 62
     3
100
AcDbLine
 10
952.43653
 20
564.9999829999999
 30
0.0
 11
951.650022
 21
566.362255
 31
0.0
  0
LINE
  5
196
330
1F
100
AcDbEntity
  8
Ｓ_１_１
  6
CONTINUOUS
 62
     3
100
AcDbLine
 10
968.264876
 20
576.724528
 30
0.0
 11
951.7351580000001
 21
576.724528
 31
0.0
  0
LINE
  5
197
330
1F
100
AcDbEntity
  8
Ｓ_１_１
  6
CONTINUOUS
 62
     3
100
AcDbLine
 10
952.820158
 20
582.862261
 30
0.0
 11
952.4365490000001
 21
576.7245250000001
 31
0.0
  0
LINE
  5
198
330
1F
100
AcDbEntity
  8
Ｓ_１_１
  6
CONTINUOUS
 62
     3
100
AcDbLine
 10
952.1187689999999
 20
582.862257
 30
0.0
 11
951.6500189999999
 21
575.3622559999999
 31
0.0
  0
LINE
  5
199
330
1F
100
AcDbEntity
  8
Ｓ_１_１
  6
CONTINUOUS
 62
     3
100
AcDbLine
 10
952.436547
 20
576.724541
 30
0.0
 11
951.6500330000001
 21
575.3622580000001
 31
0.0
  0
LINE
  5
19A
330
1F
100
AcDbEntity
  8
Ｓ_１_１
  6
CONTINUOUS
 62
     3
100
AcDbLine
 10
967.8812859999999
 20
582.8622680000001
 30
0.0
 11
968.350038
 21
575.3622419999999
 31
0.0
  0
LINE
  5
19B
330
1F
100
AcDbEntity
  8
Ｓ_１_１
  6
CONTINUOUS
 62
     3
100
AcDbLine
 10
968.350005
 20
575.3622459999999
 30
0.0
 11
967.563498
 21
576.724518
 31
0.0
  0
LINE
  5
19C
330
1F
100
AcDbEntity
  8
Ｓ_１_１
  6
CONTINUOUS
 62
     3
100
AcDbLine
 10
967.1798990000001
 20
582.862259
 30
0.0
 11
967.5635070000001
 21
576.724524
 31
0.0
  0
LINE
  5
19D
330
1F
100
AcDbEntity
  8
Ｓ_１_１
  6
CONTINUOUS
 62
     3
100
AcDbLine
 10
972.000024
 20
645.3622459999999
 30
0.0
 11
948.00001
 21
645.3622459999999
 31
0.0
  0
LINE
  5
19E
330
1F
100
AcDbEntity
  8
Ｓ_１_１
  6
CONTINUOUS
 62
     3
100
AcDbLine
 10
972.000024
 20
595.362261
 30
0.0
 11
948.000035
 21
595.362261
 31
0.0
  0
LINE
  5
19F
330
1F
100
AcDbEntity
  8
Ｓ_１_１
  6
CONTINUOUS
 62
     3
100
AcDbLine
 10
972.000024
 20
610.3622600000001
 30
0.0
 11
948.00001
 21
610.3622600000001
 31
0.0
  0
LINE
  5
1A0
330
1F
100
AcDbEntity
  8
Ｓ_１_１
  6
CONTINUOUS
 62
     3
100
AcDbLine
 10
975.5000339999998
 20
617.862247
 30
0.0
 11
961.7500090000001
 21
617.862247
 31
0.0
  0
LINE
  5
1A1
330
1F
100
AcDbEntity
  8
Ｓ_１_１
  6
CONTINUOUS
 62
     3
100
AcDbLine
 10
947.000025
 20
617.862247
 30
0.0
 11
947.000025
 21
610.9396019999999
 31
0.0
  0
LINE
  5
1A2
330
1F
100
AcDbEntity
  8
Ｓ_１_１
  6
CONTINUOUS
 62
     3
100
AcDbLine
 10
973.0000339999998
 20
617.862247
 30
0.0
 11
973.0000339999998
 21
610.9396019999999
 31
0.0
  0
LINE
  5
1A3
330
1F
100
AcDbEntity
  8
Ｓ_１_１
  6
CONTINUOUS
 62
     3
100
AcDbLine
 10
972.000024
 20
645.3622459999999
 30
0.0
 11
972.000024
 21
644.862241
 31
0.0
  0
LINE
  5
1A4
330
1F
100
AcDbEntity
  8
Ｓ_１_１
  6
CONTINUOUS
 62
     3
100
AcDbLine
 10
948.00001
 20
645.3622459999999
 30
0.0
 11
948.00001
 21
644.862241
 31
0.0
  0
LINE
  5
1A5
330
1F
100
AcDbEntity
  8
Ｓ_１_１
  6
CONTINUOUS
 62
     3
100
AcDbLine
 10
973.0000339999998
 20
594.7849060000001
 30
0.0
 11
973.0000339999998
 21
583.439603
 31
0.0
  0
LINE
  5
1A6
330
1F
100
AcDbEntity
  8
Ｓ_１_１
  6
CONTINUOUS
 62
     3
100
AcDbLine
 10
947.000025
 20
594.7848939999999
 30
0.0
 11
947.000025
 21
583.439603
 31
0.0
  0
LINE
  5
1A7
330
1F
100
AcDbEntity
  8
Ｓ_１_１
  6
CONTINUOUS
 62
     3
100
AcDbLine
 10
976.000014
 20
641.862261
 30
0.0
 11
976.000014
 21
634.3622620000001
 31
0.0
  0
LINE
  5
1A8
330
1F
100
AcDbEntity
  8
Ｓ_１_１
  6
CONTINUOUS
 62
     3
100
AcDbLine
 10
944.00002
 20
641.862261
 30
0.0
 11
944.00002
 21
634.3622620000001
 31
0.0
  0
LINE
  5
1A9
330
1F
100
AcDbEntity
  8
Ｓ_１_１
  6
CONTINUOUS
 62
     3
100
AcDbLine
 10
973.0000339999998
 20
644.862241
 30
0.0
 11
947.000025
 21
644.862241
 31
0.0
  0
LINE
  5
1AA
330
1F
100
AcDbEntity
  8
Ｓ_１_１
  6
CONTINUOUS
 62
     3
100
AcDbLine
 10
948.00001
 20
610.3622600000001
 30
0.0
 11
948.00001
 21
595.362261
 31
0.0
  0
LINE
  5
1AB
330
1F
100
AcDbEntity
  8
Ｓ_１_１
  6
CONTINUOUS
 62
     3
100
AcDbLine
 10
972.000024
 20
610.3622600000001
 30
0.0
 11
972.000024
 21
595.362261
 31
0.0
  0
LINE
  5
1AC
330
1F
100
AcDbEntity
  8
Ｓ_１_１
  6
CONTINUOUS
 62
     3
100
AcDbLine
 10
973.0000180000001
 20
644.8622620000001
 30
0.0
 11
976.0000100000001
 21
641.8622700000001
 31
0.0
  0
LINE
  5
1AD
330
1F
100
AcDbEntity
  8
Ｓ_１_１
  6
CONTINUOUS
 62
     3
100
AcDbLine
 10
946.9999950000001
 20
644.8622439999999
 30
0.0
 11
944.00002
 21
641.8622700000001
 31
0.0
  0
LINE
  5
1AE
330
1F
100
AcDbEntity
  8
Ｓ_１_１
  6
CONTINUOUS
 62
     3
100
AcDbLine
 10
975.5000339999998
 20
633.862257
 30
0.0
 11
975.5000339999998
 21
625.8622519999999
 31
0.0
  0
LINE
  5
1AF
330
1F
100
AcDbEntity
  8
Ｓ_１_１
  6
CONTINUOUS
 62
     3
100
AcDbLine
 10
944.500025
 20
633.862257
 30
0.0
 11
944.500025
 21
625.8622519999999
 31
0.0
  0
LINE
  5
1B0
330
1F
100
AcDbEntity
  8
Ｓ_１_１
  6
CONTINUOUS
 62
     3
100
AcDbLine
 10
975.5000339999998
 20
625.8622519999999
 30
0.0
 11
944.500025
 21
625.8622519999999
 31
0.0
  0
LINE
  5
1B1
330
1F
100
AcDbEntity
  8
Ｓ_１_１
  6
CONTINUOUS
 62
     3
100
AcDbLine
 10
975.5000339999998
 20
633.862257
 30
0.0
 11
944.500025
 21
633.862257
 31
0.0
  0
LINE
  5
1B2
330
1F
100
AcDbEntity
  8
Ｓ_１_１
  6
CONTINUOUS
 62
     3
100
AcDbLine
 10
958.250029
 20
618.543973
 30
0.0
 11
958.1451119999999
 21
618.3622519999999
 31
0.0
  0
LINE
  5
1B3
330
1F
100
AcDbEntity
  8
Ｓ_１_１
  6
CONTINUOUS
 62
     3
100
AcDbLine
 10
976.000037
 20
625.362259
 30
0.0
 11
975.500029
 21
625.862267
 31
0.0
  0
LINE
  5
1B4
330
1F
100
AcDbEntity
  8
Ｓ_１_１
  6
CONTINUOUS
 62
     3
100
AcDbLine
 10
944.5000170000002
 20
633.862245
 30
0.0
 11
944.0000179999998
 21
634.3622439999999
 31
0.0
  0
LINE
  5
1B5
330
1F
100
AcDbEntity
  8
Ｓ_１_１
  6
CONTINUOUS
 62
     3
100
AcDbLine
 10
944.5000190000001
 20
625.8622499999999
 30
0.0
 11
944.000029
 21
625.3622600000001
 31
0.0
  0
LINE
  5
1B6
330
1F
100
AcDbEntity
  8
Ｓ_１_１
  6
CONTINUOUS
 62
     3
100
AcDbLine
 10
976.0000379999999
 20
634.3622720000001
 30
0.0
 11
975.500012
 21
633.8622459999999
 31
0.0
  0
LINE
  5
1B7
330
1F
100
AcDbEntity
  8
Ｓ_１_１
  6
CONTINUOUS
 62
     3
100
AcDbLine
 10
976.000014
 20
625.362247
 30
0.0
 11
976.000014
 21
618.3622519999999
 31
0.0
  0
LINE
  5
1B8
330
1F
100
AcDbEntity
  8
Ｓ_１_１
  6
CONTINUOUS
 62
     3
100
AcDbLine
 10
944.00002
 20
625.362247
 30
0.0
 11
944.00002
 21
618.3622519999999
 31
0.0
  0
LINE
  5
1B9
330
1F
100
AcDbEntity
  8
Ｓ_１_１
  6
CONTINUOUS
 62
     3
100
AcDbLine
 10
976.0000279999999
 20
618.3622499999999
 30
0.0
 11
975.500039
 21
617.8622600000001
 31
0.0
  0
LINE
  5
1BA
330
1F
100
AcDbEntity
  8
Ｓ_１_１
  6
CONTINUOUS
 62
     3
100
AcDbLine
 10
944.5000359999999
 20
617.8622680000001
 30
0.0
 11
944.000037
 21
618.362267
 31
0.0
  0
LINE
  5
1BB
330
1F
100
AcDbEntity
  8
Ｓ_１_１
  6
CONTINUOUS
 62
     3
100
AcDbLine
 10
944.00002
 20
625.362247
 30
0.0
 11
976.000014
 21
625.362247
 31
0.0
  0
LINE
  5
1BC
330
1F
100
AcDbEntity
  8
Ｓ_１_１
  6
CONTINUOUS
 62
     3
100
AcDbLine
 10
976.000014
 20
618.3622519999999
 30
0.0
 11
961.7500090000001
 21
618.3622519999999
 31
0.0
  0
LINE
  5
1BD
330
1F
100
AcDbEntity
  8
Ｓ_１_１
  6
CONTINUOUS
 62
     3
100
AcDbLine
 10
976.000014
 20
634.3622620000001
 30
0.0
 11
944.00002
 21
634.3622620000001
 31
0.0
  0
LINE
  5
1BE
330
1F
100
AcDbEntity
  8
Ｓ_１_１
  6
CONTINUOUS
 62
     3
100
AcDbLine
 10
976.000014
 20
641.862261
 30
0.0
 11
944.00002
 21
641.862261
 31
0.0
  0
LINE
  5
1BF
330
1F
100
AcDbEntity
  8
Ｓ_１_１
  6
CONTINUOUS
 62
     3
100
AcDbLine
 10
961.8549669999999
 20
618.362271
 30
0.0
 11
961.75004
 21
618.5440100000001
 31
0.0
  0
LINE
  5
1C0
330
1F
100
AcDbEntity
  8
Ｓ_１_１
  6
CONTINUOUS
 62
     3
100
AcDbLine
 10
944.500025
 20
616.362257
 30
0.0
 11
944.500025
 21
615.362247
 31
0.0
  0
LINE
  5
1C1
330
1F
100
AcDbEntity
  8
Ｓ_１_１
  6
CONTINUOUS
 62
     3
100
AcDbLine
 10
975.5000339999998
 20
616.362257
 30
0.0
 11
975.5000339999998
 21
615.362247
 31
0.0
  0
LINE
  5
1C2
330
1F
100
AcDbEntity
  8
Ｓ_１_１
  6
CONTINUOUS
 62
     3
100
AcDbLine
 10
975.000004
 20
614.8622419999999
 30
0.0
 11
973.0000339999998
 21
614.8622419999999
 31
0.0
  0
LINE
  5
1C3
330
1F
100
AcDbEntity
  8
Ｓ_１_１
  6
CONTINUOUS
 62
     3
100
AcDbLine
 10
975.000004
 20
616.8622620000001
 30
0.0
 11
973.0000339999998
 21
616.8622620000001
 31
0.0
  0
LINE
  5
1C4
330
1F
100
AcDbEntity
  8
Ｓ_１_１
  6
CONTINUOUS
 62
     3
100
AcDbLine
 10
947.000025
 20
616.8622620000001
 30
0.0
 11
945.0000299999999
 21
616.8622620000001
 31
0.0
  0
LINE
  5
1C5
330
1F
100
AcDbEntity
  8
Ｓ_１_１
  6
CONTINUOUS
 62
     3
100
AcDbLine
 10
947.000025
 20
614.8622419999999
 30
0.0
 11
945.0000299999999
 21
614.8622419999999
 31
0.0
  0
LINE
  5
1C6
330
1F
100
AcDbEntity
  8
Ｓ_１_１
  6
CONTINUOUS
 62
     3
100
AcDbLine
 10
945.000027
 20
616.862253
 30
0.0
 11
944.5000010000001
 21
616.362228
 31
0.0
  0
LINE
  5
1C7
330
1F
100
AcDbEntity
  8
Ｓ_１_１
  6
CONTINUOUS
 62
     3
100
AcDbLine
 10
945.0
 20
614.8622499999999
 30
0.0
 11
944.5000099999999
 21
615.362239
 31
0.0
  0
LINE
  5
1C8
330
1F
100
AcDbEntity
  8
Ｓ_１_１
  6
CONTINUOUS
 62
     3
100
AcDbLine
 10
975.500002
 20
616.362237
 30
0.0
 11
975.0000030000001
 21
616.862235
 31
0.0
  0
LINE
  5
1C9
330
1F
100
AcDbEntity
  8
Ｓ_１_１
  6
CONTINUOUS
 62
     3
100
AcDbLine
 10
975.5000110000002
 20
615.3622479999999
 30
0.0
 11
975.0000210000001
 21
614.862259
 31
0.0
  0
LINE
  5
1CA
330
1F
100
AcDbEntity
  8
Ｓ_１_１
  6
CONTINUOUS
 62
     3
100
AcDbLine
 10
958.250025
 20
621.362257
 30
0.0
 11
958.250025
 21
617.862247
 31
0.0
  0
LINE
  5
1CB
330
1F
100
AcDbEntity
  8
Ｓ_１_１
  6
CONTINUOUS
 62
     3
100
AcDbLine
 10
961.7500090000001
 20
621.362257
 30
0.0
 11
961.7500090000001
 21
617.862247
 31
0.0
  0
LINE
  5
1CC
330
1F
100
AcDbEntity
  8
Ｓ_１_１
  6
CONTINUOUS
 62
     3
100
AcDbLine
 10
961.7500090000001
 20
621.362257
 30
0.0
 11
958.250025
 21
621.362257
 31
0.0
  0
LINE
  5
1CD
330
1F
100
AcDbEntity
  8
Ｓ_１_１
  6
CONTINUOUS
 62
     3
100
AcDbLine
 10
958.250025
 20
617.862247
 30
0.0
 11
944.500025
 21
617.862247
 31
0.0
  0
LINE
  5
1CE
330
1F
100
AcDbEntity
  8
Ｓ_１_１
  6
CONTINUOUS
 62
     3
100
AcDbLine
 10
958.250025
 20
618.3622519999999
 30
0.0
 11
944.00002
 21
618.3622519999999
 31
0.0
  0
LINE
  5
1CF
330
1F
100
AcDbEntity
  8
Ｓ_１_１
  6
CONTINUOUS
 62
     3
100
AcDbLine
 10
970.5000339999998
 20
575.3622620000001
 30
0.0
 11
949.500025
 21
575.3622620000001
 31
0.0
  0
LINE
  5
1D0
330
1F
100
AcDbEntity
  8
Ｓ_１_１
  6
CONTINUOUS
 62
     3
100
AcDbLine
 10
953.93784
 20
574.4244309999999
 30
0.0
 11
953.93784
 21
567.3000770000001
 31
0.0
  0
LINE
  5
1D1
330
1F
100
AcDbEntity
  8
Ｓ_１_１
  6
CONTINUOUS
 62
     3
100
AcDbLine
 10
970.5000339999998
 20
566.362259
 30
0.0
 11
949.4999990000001
 21
566.362259
 31
0.0
  0
LINE
  5
1D2
330
1F
100
AcDbEntity
  8
Ｓ_１_１
  6
CONTINUOUS
 62
     3
100
AcDbLine
 10
966.0621940000001
 20
574.4244309999999
 30
0.0
 11
966.0621940000001
 21
567.3000770000001
 31
0.0
  0
LINE
  5
1D3
330
1F
100
AcDbEntity
  8
Ｓ_１_１
  6
CONTINUOUS
 62
     3
100
AcDbLine
 10
972.1243830000002
 20
574.424456
 30
0.0
 11
972.1243830000002
 21
567.300064
 31
0.0
  0
LINE
  5
1D4
330
1F
100
AcDbEntity
  8
Ｓ_１_１
  6
CONTINUOUS
 62
     3
100
AcDbLine
 10
949.500025
 20
566.3622600000001
 30
0.0
 11
947.875653
 21
567.300088
 31
0.0
  0
LINE
  5
1D5
330
1F
100
AcDbEntity
  8
Ｓ_１_１
  6
CONTINUOUS
 62
     3
100
AcDbLine
 10
949.5000279999999
 20
575.362265
 30
0.0
 11
947.8756559999999
 21
574.4244369999999
 31
0.0
  0
LINE
  5
1D6
330
1F
100
AcDbEntity
  8
Ｓ_１_１
  6
CONTINUOUS
 62
     3
100
AcDbLine
 10
970.500038
 20
566.362265
 30
0.0
 11
972.1244100000001
 21
567.300092
 31
0.0
  0
LINE
  5
1D7
330
1F
100
AcDbEntity
  8
Ｓ_１_１
  6
CONTINUOUS
 62
     3
100
AcDbLine
 10
947.875651
 20
574.4244309999999
 30
0.0
 11
947.875651
 21
567.3000770000001
 31
0.0
  0
LINE
  5
1D8
330
1F
100
AcDbEntity
  8
Ｓ_１_１
  6
CONTINUOUS
 62
     3
100
AcDbLine
 10
970.50004
 20
575.3622680000001
 30
0.0
 11
972.124412
 21
574.42444
 31
0.0
  0
LINE
  5
1D9
330
1F
100
AcDbEntity
  8
Ｓ_１_１
  6
CONTINUOUS
 62
     3
100
AcDbLine
 10
690.000025
 20
554.499986
 30
0.0
 11
695.000039
 21
464.9999980000001
 31
0.0
  0
LINE
  5
1DA
330
1F
100
AcDbEntity
  8
Ｓ_１_１
  6
CONTINUOUS
 62
     3
100
AcDbLine
 10
690.000023
 20
245.499996
 30
0.0
 11
695.0000380000001
 21
335.000003
 31
0.0
  0
LINE
  5
1DB
330
1F
100
AcDbEntity
  8
Ｓ_１_１
  6
CONTINUOUS
 62
     3
100
AcDbLine
 10
695.0000400000001
 20
335.000002
 30
0.0
 11
700.000027
 21
335.000002
 31
0.0
  0
LINE
  5
1DC
330
1F
100
AcDbEntity
  8
Ｓ_１_１
  6
CONTINUOUS
 62
     3
100
AcDbLine
 10
695.0000400000001
 20
464.999997
 30
0.0
 11
700.000027
 21
464.999997
 31
0.0
  0
LINE
  5
1DD
330
1F
100
AcDbEntity
  8
Ｓ_１_１
  6
CONTINUOUS
 62
     3
100
AcDbLine
 10
702.0000420000001
 20
312.500008
 30
0.0
 11
700.0000380000001
 21
314.500012
 31
0.0
  0
LINE
  5
1DE
330
1F
100
AcDbEntity
  8
Ｓ_１_１
  6
CONTINUOUS
 62
     3
100
AcDbLine
 10
702.0000420000001
 20
487.499996
 30
0.0
 11
700.0000380000001
 21
485.499992
 31
0.0
  0
LINE
  5
1DF
330
1F
100
AcDbEntity
  8
Ｓ_１_１
  6
CONTINUOUS
 62
     3
100
AcDbLine
 10
702.000022
 20
487.49999
 30
0.0
 11
702.000022
 21
312.500003
 31
0.0
  0
LINE
  5
1E0
330
1F
100
AcDbEntity
  8
Ｓ_１_１
  6
CONTINUOUS
 62
     3
100
AcDbLine
 10
702.000022
 20
312.500003
 30
0.0
 11
715.000039
 21
312.500003
 31
0.0
  0
LINE
  5
1E1
330
1F
100
AcDbEntity
  8
Ｓ_１_１
  6
CONTINUOUS
 62
     3
100
AcDbLine
 10
702.000022
 20
487.49999
 30
0.0
 11
715.000039
 21
487.49999
 31
0.0
  0
LINE
  5
1E2
330
1F
100
AcDbEntity
  8
Ｓ_１_１
  6
CONTINUOUS
 62
     3
100
AcDbLine
 10
695.0000400000001
 20
464.999997
 30
0.0
 11
695.0000400000001
 21
335.000002
 31
0.0
  0
LINE
  5
1E3
330
1F
100
AcDbEntity
  8
Ｓ_１_１
  6
CONTINUOUS
 62
     3
100
AcDbLine
 10
700.000027
 20
485.4999950000001
 30
0.0
 11
700.000027
 21
314.500004
 31
0.0
  0
LINE
  5
1E4
330
1F
100
AcDbEntity
  8
Ｓ_１_１
  6
CONTINUOUS
 62
     3
100
AcDbLine
 10
688.0000210000001
 20
556.500001
 30
0.0
 11
690.000023
 21
554.499999
 31
0.0
  0
LINE
  5
1E5
330
1F
100
AcDbEntity
  8
Ｓ_１_１
  6
CONTINUOUS
 62
     3
100
AcDbLine
 10
650.0000400000001
 20
554.499995
 30
0.0
 11
652.000035
 21
556.49999
 31
0.0
  0
LINE
  5
1E6
330
1F
100
AcDbEntity
  8
Ｓ_１_１
  6
CONTINUOUS
 62
     3
100
AcDbLine
 10
688.000028
 20
243.499992
 30
0.0
 11
690.00003
 21
245.499994
 31
0.0
  0
LINE
  5
1E7
330
1F
100
AcDbEntity
  8
Ｓ_１_１
  6
CONTINUOUS
 62
     3
100
AcDbLine
 10
652.0000420000001
 20
243.500007
 30
0.0
 11
650.0000380000001
 21
245.500011
 31
0.0
  0
LINE
  5
1E8
330
1F
100
AcDbEntity
  8
Ｓ_１_１
  6
CONTINUOUS
 62
     3
100
AcDbLine
 10
688.000033
 20
556.4999829999999
 30
0.0
 11
688.000033
 21
243.500016
 31
0.0
  0
LINE
  5
1E9
330
1F
100
AcDbEntity
  8
Ｓ_１_１
  6
CONTINUOUS
 62
     3
100
AcDbLine
 10
652.000037
 20
556.4999829999999
 30
0.0
 11
652.000037
 21
243.500016
 31
0.0
  0
LINE
  5
1EA
330
1F
100
AcDbEntity
  8
Ｓ_１_１
  6
CONTINUOUS
 62
     3
100
AcDbLine
 10
652.000037
 20
556.4999829999999
 30
0.0
 11
688.000033
 21
556.4999829999999
 31
0.0
  0
LINE
  5
1EB
330
1F
100
AcDbEntity
  8
Ｓ_１_１
  6
CONTINUOUS
 62
     3
100
AcDbLine
 10
652.000037
 20
243.500016
 30
0.0
 11
688.000033
 21
243.500016
 31
0.0
  0
LINE
  5
1EC
330
1F
100
AcDbEntity
  8
Ｓ_１_１
  6
CONTINUOUS
 62
     3
100
AcDbLine
 10
690.000028
 20
554.499988
 30
0.0
 11
690.000028
 21
245.499998
 31
0.0
  0
LINE
  5
1ED
330
1F
100
AcDbEntity
  8
Ｓ_１_１
  6
CONTINUOUS
 62
     3
100
AcDbLine
 10
717.0000210000001
 20
559.999993
 30
0.0
 11
717.0000210000001
 21
240.000006
 31
0.0
  0
LINE
  5
1EE
330
1F
100
AcDbEntity
  8
Ｓ_１_１
  6
CONTINUOUS
 62
     3
100
AcDbLine
 10
717.0000460000001
 20
559.999993
 30
0.0
 11
715.000033
 21
557.99998
 31
0.0
  0
LINE
  5
1EF
330
1F
100
AcDbEntity
  8
Ｓ_１_１
  6
CONTINUOUS
 62
     3
100
AcDbLine
 10
717.000035
 20
240.000018
 30
0.0
 11
715.0000400000001
 21
242.000013
 31
0.0
  0
LINE
  5
1F0
330
1F
100
AcDbEntity
  8
Ｓ_１_１
  6
CONTINUOUS
 62
     3
100
AcDbLine
 10
717.0000210000001
 20
559.999993
 30
0.0
 11
1057.99998
 21
559.999993
 31
0.0
  0
LINE
  5
1F1
330
1F
100
AcDbEntity
  8
Ｓ_１_１
  6
CONTINUOUS
 62
     3
100
AcDbLine
 10
717.0000210000001
 20
240.000006
 30
0.0
 11
1057.99998
 21
240.000006
 31
0.0
  0
LINE
  5
1F2
330
1F
100
AcDbEntity
  8
Ｓ_１_１
  6
CONTINUOUS
 62
     3
100
AcDbLine
 10
715.000039
 20
557.999986
 30
0.0
 11
715.000039
 21
242.000013
 31
0.0
  0
LINE
  5
1F3
330
1F
100
AcDbEntity
  8
Ｓ_１_１
  6
CONTINUOUS
 62
     3
100
AcDbLine
 10
1057.99998
 20
559.999993
 30
0.0
 11
1057.99998
 21
240.000006
 31
0.0
  0
LINE
  5
1F4
330
1F
100
AcDbEntity
  8
Ｓ_１_１
  6
CONTINUOUS
 62
     3
100
AcDbLine
 10
1058.000025
 20
560.000016
 30
0.0
 11
1060.000038
 21
558.0000030000001
 31
0.0
  0
LINE
  5
1F5
330
1F
100
AcDbEntity
  8
Ｓ_１_１
  6
CONTINUOUS
 62
     3
100
AcDbLine
 10
1058.000043
 20
239.999988
 30
0.0
 11
1060.000038
 21
241.999983
 31
0.0
  0
LINE
  5
1F6
330
1F
100
AcDbEntity
  8
Ｓ_１_１
  6
CONTINUOUS
 62
     3
100
AcDbLine
 10
1060.0
 20
557.999986
 30
0.0
 11
1060.0
 21
242.000013
 31
0.0
  0
LINE
  5
1F7
330
1F
100
AcDbEntity
  8
Ｓ_１_１
  6
CONTINUOUS
 62
     3
100
AcDbLine
 10
650.000016
 20
554.499988
 30
0.0
 11
650.000016
 21
245.499998
 31
0.0
  0
CIRCLE
  5
1F8
330
1F
100
AcDbEntity
  8
Ｓ_１_１
  6
EXLTYPE2
 62
     1
100
AcDbCircle
 10
340.0
 20
400.0
 30
0.0
 40
124.999995
  0
CIRCLE
  5
1F9
330
1F
100
AcDbEntity
  8
Ｓ_１_１
  6
EXLTYPE2
 62
     1
100
AcDbCircle
 10
340.0
 20
400.0
 30
0.0
 40
100.000002
  0
CIRCLE
  5
1FA
330
1F
100
AcDbEntity
  8
Ｓ_１_１
  6
EXLTYPE2
 62
     1
100
AcDbCircle
 10
340.0
 20
400.0
 30
0.0
 40
74.999997
  0
CIRCLE
  5
1FB
330
1F
100
AcDbEntity
  8
Ｓ_１_１
  6
EXLTYPE2
 62
     1
100
AcDbCircle
 10
340.0
 20
400.0
 30
0.0
 40
50.000001
  0
CIRCLE
  5
1FC
330
1F
100
AcDbEntity
  8
Ｓ_１_１
  6
EXLTYPE2
 62
     1
100
AcDbCircle
 10
340.0
 20
400.0
 30
0.0
 40
25.000001
  0
CIRCLE
  5
1FD
330
1F
100
AcDbEntity
  8
Ｓ_１_１
  6
CONTINUOUS
 62
     3
100
AcDbCircle
 10
340.0
 20
400.0
 30
0.0
 40
26.50000000000002
  0
CIRCLE
  5
1FE
330
1F
100
AcDbEntity
  8
Ｓ_１_１
  6
CONTINUOUS
 62
     3
100
AcDbCircle
 10
340.0
 20
400.0
 30
0.0
 40
23.499998
  0
CIRCLE
  5
1FF
330
1F
100
AcDbEntity
  8
Ｓ_１_１
  6
CONTINUOUS
 62
     3
100
AcDbCircle
 10
340.0
 20
400.0
 30
0.0
 40
48.500002
  0
CIRCLE
  5
200
330
1F
100
AcDbEntity
  8
Ｓ_１_１
  6
CONTINUOUS
 62
     3
100
AcDbCircle
 10
340.0
 20
400.0
 30
0.0
 40
51.50000000000004
  0
CIRCLE
  5
201
330
1F
100
AcDbEntity
  8
Ｓ_１_１
  6
CONTINUOUS
 62
     3
100
AcDbCircle
 10
340.0
 20
400.0
 30
0.0
 40
73.49999500000004
  0
CIRCLE
  5
202
330
1F
100
AcDbEntity
  8
Ｓ_１_１
  6
CONTINUOUS
 62
     3
100
AcDbCircle
 10
340.0
 20
400.0
 30
0.0
 40
76.499993
  0
CIRCLE
  5
203
330
1F
100
AcDbEntity
  8
Ｓ_１_１
  6
CONTINUOUS
 62
     3
100
AcDbCircle
 10
340.0
 20
400.0
 30
0.0
 40
101.499999
  0
CIRCLE
  5
204
330
1F
100
AcDbEntity
  8
Ｓ_１_１
  6
CONTINUOUS
 62
     3
100
AcDbCircle
 10
340.0
 20
400.0
 30
0.0
 40
98.50000000000007
  0
CIRCLE
  5
205
330
1F
100
AcDbEntity
  8
Ｓ_１_１
  6
CONTINUOUS
 62
     3
100
AcDbCircle
 10
340.0
 20
400.0
 30
0.0
 40
126.499998
  0
CIRCLE
  5
206
330
1F
100
AcDbEntity
  8
Ｓ_１_１
  6
CONTINUOUS
 62
     3
100
AcDbCircle
 10
340.0
 20
400.0
 30
0.0
 40
123.499993
  0
CIRCLE
  5
207
330
1F
100
AcDbEntity
  8
Ｓ_１_１
  6
CONTINUOUS
 62
     3
100
AcDbCircle
 10
340.0
 20
400.0
 30
0.0
 40
159.999994
  0
CIRCLE
  5
208
330
1F
100
AcDbEntity
  8
Ｓ_１_１
  6
CONTINUOUS
 62
     3
100
AcDbCircle
 10
340.0
 20
400.0
 30
0.0
 40
153.4999910000001
  0
CIRCLE
  5
209
330
1F
100
AcDbEntity
  8
Ｓ_１_１
  6
CONTINUOUS
 62
     3
100
AcDbCircle
 10
340.0
 20
400.0
 30
0.0
 40
156.499996
  0
LINE
  5
20A
330
1F
100
AcDbEntity
  8
Ｓ_１_１
  6
EXLTYPE2
 62
     1
100
AcDbLine
 10
168.5936817250825
 20
400.0
 30
0.0
 11
511.4063182749175
 21
400.0
 31
0.0
  0
LINE
  5
20B
330
1F
100
AcDbEntity
  8
Ｓ_１_１
  6
EXLTYPE2
 62
     1
100
AcDbLine
 10
830.0000090000001
 20
660.0
 30
0.0
 11
830.0000090000001
 21
545.4177540000001
 31
0.0
  0
LINE
  5
20C
330
1F
100
AcDbEntity
  8
Ｓ_１_１
  6
EXLTYPE2
 62
     1
100
AcDbLine
 10
340.0
 20
660.0
 30
0.0
 11
340.0
 21
228.5936817250926
 31
0.0
  0
DIMENSION
  5
20D
330
1F
100
AcDbEntity
  8
Ｓ_１_１
  6
CONTINUOUS
 62
     2
100
AcDbDimension
  2
*D22
 10
830.000009
 20
700.0
 30
0.0
 11
772.5000239999999
 21
709.1666666666667
 31
0.0
 70
   160
  3
ISO-25
100
AcDbAlignedDimension
 13
715.000039
 23
557.999986
 33
0.0
 14
830.000009
 24
660.0
 34
0.0
100
AcDbRotatedDimension
1001
ACAD
1000
DSTYLE
1002
{
1070
   270
1070
     2
1070
     6
1000
EX_NORM
1070
     7
1000
EX_NORM
1070
    41
1040
10.0
1070
    42
1040
5.0
1070
    44
1040
3.333333333333371
1070
    73
1070
     0
1070
    74
1070
     0
1070
    75
1070
     0
1070
    76
1070
     0
1070
    77
1070
     1
1070
    78
1070
     8
1070
   140
1040
11.54301312292788
1070
   147
1040
0.0
1070
   173
1070
     1
1070
   176
1070
     2
1070
   177
1070
     2
1070
   178
1070
     2
1070
   271
1070
     2
1070
   277
1070
     2
1070
   279
1070
     2
1070
   280
1070
     0
1070
   287
1070
     5
1070
   340
1005
11B
1002
}
  0
DIMENSION
  5
21A
330
1F
100
AcDbEntity
  8
Ｓ_１_１
  6
CONTINUOUS
 62
     2
100
AcDbDimension
  2
*D23
 10
960.0000299999999
 20
700.0
 30
0.0
 11
895.0000195
 21
709.1666666666667
 31
0.0
 70
   160
  3
ISO-25
100
AcDbAlignedDimension
 13
830.000009
 23
660.0
 33
0.0
 14
960.0000299999999
 24
648.934176
 34
0.0
100
AcDbRotatedDimension
1001
ACAD
1000
DSTYLE
1002
{
1070
   270
1070
     2
1070
     6
1000
EX_NORM
1070
     7
1000
EX_NORM
1070
    41
1040
10.0
1070
    42
1040
5.0
1070
    44
1040
3.333333333333371
1070
    73
1070
     0
1070
    74
1070
     0
1070
    75
1070
     0
1070
    76
1070
     0
1070
    77
1070
     1
1070
    78
1070
     8
1070
   140
1040
11.54301312292788
1070
   147
1040
0.0
1070
   173
1070
     1
1070
   176
1070
     2
1070
   177
1070
     2
1070
   178
1070
     2
1070
   271
1070
     2
1070
   277
1070
     2
1070
   279
1070
     2
1070
   280
1070
     0
1070
   287
1070
     5
1070
   340
1005
11B
1002
}
  0
DIMENSION
  5
227
330
1F
100
AcDbEntity
  8
Ｓ_１_１
  6
CONTINUOUS
 62
     2
100
AcDbDimension
  2
*D24
 10
1060.0
 20
700.0
 30
0.0
 11
1010.000015
 21
709.1666666666667
 31
0.0
 70
   160
  3
ISO-25
100
AcDbAlignedDimension
 13
960.0000299999999
 23
648.934176
 33
0.0
 14
1060.0
 24
558.000041
 34
0.0
100
AcDbRotatedDimension
1001
ACAD
1000
DSTYLE
1002
{
1070
   270
1070
     2
1070
     6
1000
EX_NORM
1070
     7
1000
EX_NORM
1070
    41
1040
10.0
1070
    42
1040
5.0
1070
    44
1040
3.333333333333371
1070
    73
1070
     0
1070
    74
1070
     0
1070
    75
1070
     0
1070
    76
1070
     0
1070
    77
1070
     1
1070
    78
1070
     8
1070
   140
1040
11.54301312292788
1070
   147
1040
0.0
1070
   173
1070
     1
1070
   176
1070
     2
1070
   177
1070
     2
1070
   178
1070
     2
1070
   271
1070
     2
1070
   277
1070
     2
1070
   279
1070
     2
1070
   280
1070
     0
1070
   287
1070
     5
1070
   340
1005
11B
1002
}
  0
LINE
  5
234
330
1F
100
AcDbEntity
  8
Ｓ_１_１
  6
CONTINUOUS
 62
     3
100
AcDbLine
 10
328.5000000000001
 20
566.3622730000092
 30
0.0
 11
340.0000000000001
 21
566.362273000009
 31
0.0
  0
LINE
  5
235
330
1F
100
AcDbEntity
  8
Ｓ_１_１
  6
CONTINUOUS
 62
     3
100
AcDbLine
 10
340.0000000000001
 20
566.362273000009
 30
0.0
 11
351.5000000000001
 21
566.362273000009
 31
0.0
  0
LINE
  5
236
330
1F
100
AcDbEntity
  8
Ｓ_１_１
  6
CONTINUOUS
 62
     3
100
AcDbLine
 10
328.5000000000001
 20
599.362273000009
 30
0.0
 11
340.0000000000001
 21
599.362273000009
 31
0.0
  0
LINE
  5
237
330
1F
100
AcDbEntity
  8
Ｓ_１_１
  6
CONTINUOUS
 62
     3
100
AcDbLine
 10
340.0000000000001
 20
599.362273000009
 30
0.0
 11
351.5000000000001
 21
599.362273000009
 31
0.0
  0
LINE
  5
238
330
1F
100
AcDbEntity
  8
Ｓ_１_１
  6
CONTINUOUS
 62
     3
100
AcDbLine
 10
351.5000013689001
 20
599.3622745587088
 30
0.0
 11
352.5000014189
 21
598.3622744243087
 31
0.0
  0
LINE
  5
239
330
1F
100
AcDbEntity
  8
Ｓ_１_１
  6
CONTINUOUS
 62
     3
100
AcDbLine
 10
352.5000007866998
 20
567.3622719029088
 30
0.0
 11
351.5000009895999
 21
566.362272190009
 31
0.0
  0
LINE
  5
23A
330
1F
100
AcDbEntity
  8
Ｓ_１_１
  6
CONTINUOUS
 62
     3
100
AcDbLine
 10
327.5000000481
 20
567.3622730758091
 30
0.0
 11
328.5000001752001
 21
566.3622730330088
 31
0.0
  0
LINE
  5
23B
330
1F
100
AcDbEntity
  8
Ｓ_１_１
  6
CONTINUOUS
 62
     3
100
AcDbLine
 10
328.4999997116002
 20
599.3622734628091
 30
0.0
 11
327.4999999986999
 21
598.3622736657087
 31
0.0
  0
LINE
  5
23C
330
1F
100
AcDbEntity
  8
Ｓ_１_１
  6
CONTINUOUS
 62
     3
100
AcDbLine
 10
327.5000000000001
 20
598.362273000009
 30
0.0
 11
352.5000000000001
 21
598.362273000009
 31
0.0
  0
LINE
  5
23D
330
1F
100
AcDbEntity
  8
Ｓ_１_１
  6
CONTINUOUS
 62
     3
100
AcDbLine
 10
327.5000000000001
 20
567.3622730000092
 30
0.0
 11
352.5000000000001
 21
567.362273000009
 31
0.0
  0
LINE
  5
23E
330
1F
100
AcDbEntity
  8
Ｓ_１_１
  6
CONTINUOUS
 62
     3
100
AcDbLine
 10
348.2648620000001
 20
600.72454500002
 30
0.0
 11
331.7351450000002
 21
600.72454500002
 31
0.0
  0
LINE
  5
23F
330
1F
100
AcDbEntity
  8
Ｓ_１_１
  6
CONTINUOUS
 62
     3
100
AcDbLine
 10
332.820119
 20
606.8622460000199
 30
0.0
 11
332.4365110000002
 21
600.7245330000201
 31
0.0
  0
LINE
  5
240
330
1F
100
AcDbEntity
  8
Ｓ_１_１
  6
CONTINUOUS
 62
     3
100
AcDbLine
 10
332.118749
 20
606.86226400002
 30
0.0
 11
331.6499980000002
 21
599.3622500000199
 31
0.0
  0
LINE
  5
241
330
1F
100
AcDbEntity
  8
Ｓ_１_１
  6
CONTINUOUS
 62
     3
100
AcDbLine
 10
332.436526
 20
600.72455300002
 30
0.0
 11
331.6500110000002
 21
599.36227000002
 31
0.0
  0
LINE
  5
242
330
1F
100
AcDbEntity
  8
Ｓ_１_１
  6
CONTINUOUS
 62
     3
100
AcDbLine
 10
347.88125
 20
606.8622760000201
 30
0.0
 11
348.3500030000001
 21
599.3622310000201
 31
0.0
  0
LINE
  5
243
330
1F
100
AcDbEntity
  8
Ｓ_１_１
  6
CONTINUOUS
 62
     3
100
AcDbLine
 10
348.3499890000001
 20
599.36225400002
 30
0.0
 11
347.563483
 21
600.72452400002
 31
0.0
  0
LINE
  5
244
330
1F
100
AcDbEntity
  8
Ｓ_１_１
  6
CONTINUOUS
 62
     3
100
AcDbLine
 10
347.1798880000002
 20
606.86225800002
 30
0.0
 11
347.5634970000002
 21
600.72451500002
 31
0.0
  0
LINE
  5
245
330
1F
100
AcDbEntity
  8
Ｓ_１_１
  6
CONTINUOUS
 62
     3
100
AcDbLine
 10
348.2648620000001
 20
565.000001
 30
0.0
 11
331.7351450000002
 21
565.000001
 31
0.0
  0
LINE
  5
246
330
1F
100
AcDbEntity
  8
Ｓ_１_１
  6
CONTINUOUS
 62
     3
100
AcDbLine
 10
348.3500120000002
 20
566.362292
 30
0.0
 11
347.563498
 21
565.000009
 31
0.0
  0
LINE
  5
247
330
1F
100
AcDbEntity
  8
Ｓ_１_１
  6
CONTINUOUS
 62
     3
100
AcDbLine
 10
332.4365030000002
 20
564.9999929999999
 30
0.0
 11
331.6499960000002
 21
566.362263
 31
0.0
  0
ARC
  5
248
330
1F
100
AcDbEntity
  8
Ｓ_１_１
  6
CONTINUOUS
 62
     3
100
AcDbCircle
 10
350.3922884999898
 20
607.7284390000184
 30
0.0
 40
6.133925000000002
100
AcDbArc
 50
55.61543800000034
 51
124.3845830000003
  0
ARC
  5
249
330
1F
100
AcDbEntity
  8
Ｓ_１_１
  6
CONTINUOUS
 62
     3
100
AcDbCircle
 10
339.9999844999898
 20
590.9341270000184
 30
0.0
 40
22.927938
100
AcDbArc
 50
72.411858
 51
107.5881660000001
  0
ARC
  5
24A
330
1F
100
AcDbEntity
  8
Ｓ_１_１
  6
CONTINUOUS
 62
     3
100
AcDbCircle
 10
329.6076504999901
 20
612.9961390000183
 30
0.0
 40
6.133925000000002
100
AcDbArc
 50
235.6154019999991
 51
304.3845609999998
  0
ARC
  5
24B
330
1F
100
AcDbEntity
  8
Ｓ_１_１
  6
CONTINUOUS
 62
     3
100
AcDbCircle
 10
335.4999844999903
 20
650.8621060000186
 30
0.0
 40
1.0
100
AcDbArc
 50
89.99997799999524
 51
179.9999749999976
  0
ARC
  5
24C
330
1F
100
AcDbEntity
  8
Ｓ_１_１
  6
CONTINUOUS
 62
     3
100
AcDbCircle
 10
329.6076504999901
 20
607.7284390000184
 30
0.0
 40
6.133925000000002
100
AcDbArc
 50
55.6153689999997
 51
124.384513999999
  0
ARC
  5
24D
330
1F
100
AcDbEntity
  8
Ｓ_１_１
  6
CONTINUOUS
 62
     3
100
AcDbCircle
 10
339.9999844999898
 20
629.7902060000185
 30
0.0
 40
22.927942
100
AcDbArc
 50
252.4118210000002
 51
287.5881150000001
  0
ARC
  5
24E
330
1F
100
AcDbEntity
  8
Ｓ_１_１
  6
CONTINUOUS
 62
     3
100
AcDbCircle
 10
350.3922884999898
 20
612.9961390000183
 30
0.0
 40
6.133925000000002
100
AcDbArc
 50
235.6154159999998
 51
304.3845739999999
  0
ARC
  5
24F
330
1F
100
AcDbEntity
  8
Ｓ_１_１
  6
CONTINUOUS
 62
     3
100
AcDbCircle
 10
344.4999544999897
 20
650.8621060000186
 30
0.0
 40
1.0
100
AcDbArc
 50
359.9999970000023
 51
89.9999780000017
  0
LINE
  5
250
330
1F
100
AcDbEntity
  8
Ｓ_１_１
  6
CONTINUOUS
 62
     3
100
AcDbLine
 10
338.5000154999898
 20
653.8622280000185
 30
0.0
 11
341.4999844999898
 21
653.8622280000185
 31
0.0
  0
LINE
  5
251
330
1F
100
AcDbEntity
  8
Ｓ_１_１
  6
CONTINUOUS
 62
     3
100
AcDbLine
 10
327.9999844999903
 20
606.8623500000183
 30
0.0
 11
351.9999544999897
 21
606.8623500000183
 31
0.0
  0
LINE
  5
252
330
1F
100
AcDbEntity
  8
Ｓ_１_１
  6
CONTINUOUS
 62
     3
100
AcDbLine
 10
334.4999544999901
 20
650.8621060000186
 30
0.0
 11
334.4999544999901
 21
641.8623500000184
 31
0.0
  0
LINE
  5
253
330
1F
100
AcDbEntity
  8
Ｓ_１_１
  6
CONTINUOUS
 62
     3
100
AcDbLine
 10
334.4999544999901
 20
641.8623500000184
 30
0.0
 11
345.4999844999898
 21
641.8623500000184
 31
0.0
  0
LINE
  5
254
330
1F
100
AcDbEntity
  8
Ｓ_１_１
  6
CONTINUOUS
 62
     3
100
AcDbLine
 10
331.0000154999903
 20
638.3621060000186
 30
0.0
 11
331.0000154999903
 21
636.3622280000185
 31
0.0
  0
LINE
  5
255
330
1F
100
AcDbEntity
  8
Ｓ_１_１
  6
CONTINUOUS
 62
     3
100
AcDbLine
 10
348.9999844999898
 20
638.3621060000186
 30
0.0
 11
348.9999844999898
 21
636.3622280000185
 31
0.0
  0
LINE
  5
256
330
1F
100
AcDbEntity
  8
Ｓ_１_１
  6
CONTINUOUS
 62
     3
100
AcDbLine
 10
328.7499844999903
 20
622.8622280000184
 30
0.0
 11
351.2499844999898
 21
622.8622280000184
 31
0.0
  0
LINE
  5
257
330
1F
100
AcDbEntity
  8
Ｓ_１_１
  6
CONTINUOUS
 62
     3
100
AcDbLine
 10
351.7499844999898
 20
622.3622280000184
 30
0.0
 11
351.7499844999898
 21
613.8622280000184
 31
0.0
  0
LINE
  5
258
330
1F
100
AcDbEntity
  8
Ｓ_１_１
  6
CONTINUOUS
 62
     3
100
AcDbLine
 10
328.2499544999901
 20
622.3622280000184
 30
0.0
 11
328.2499544999901
 21
613.8622280000184
 31
0.0
  0
LINE
  5
259
330
1F
100
AcDbEntity
  8
Ｓ_１_１
  6
CONTINUOUS
 62
     3
100
AcDbLine
 10
326.1436164999901
 20
607.9342020000183
 30
0.0
 11
327.9999884999903
 21
606.8624250000187
 31
0.0
  0
LINE
  5
25A
330
1F
100
AcDbEntity
  8
Ｓ_１_１
  6
CONTINUOUS
 62
     3
100
AcDbLine
 10
351.9999114999897
 20
613.8624190000185
 30
0.0
 11
353.8563894999898
 21
612.7905800000183
 31
0.0
  0
LINE
  5
25B
330
1F
100
AcDbEntity
  8
Ｓ_１_１
  6
CONTINUOUS
 62
     3
100
AcDbLine
 10
351.9999534999898
 20
606.8623830000186
 30
0.0
 11
353.8563264999898
 21
607.9341600000187
 31
0.0
  0
LINE
  5
25C
330
1F
100
AcDbEntity
  8
Ｓ_１_１
  6
CONTINUOUS
 62
     3
100
AcDbLine
 10
326.1436234999902
 20
612.7907200000184
 30
0.0
 11
327.9999964999902
 21
613.8624970000185
 31
0.0
  0
LINE
  5
25D
330
1F
100
AcDbEntity
  8
Ｓ_１_１
  6
CONTINUOUS
 62
     3
100
AcDbLine
 10
353.8563994999895
 20
612.7904500000184
 30
0.0
 11
353.8563994999895
 21
607.9341270000184
 31
0.0
  0
LINE
  5
25E
330
1F
100
AcDbEntity
  8
Ｓ_１_１
  6
CONTINUOUS
 62
     3
100
AcDbLine
 10
346.9282074999897
 20
612.7904500000184
 30
0.0
 11
346.9282074999897
 21
607.9341270000184
 31
0.0
  0
LINE
  5
25F
330
1F
100
AcDbEntity
  8
Ｓ_１_１
  6
CONTINUOUS
 62
     3
100
AcDbLine
 10
333.0718534999901
 20
612.7904500000184
 30
0.0
 11
333.0718534999901
 21
607.9341270000184
 31
0.0
  0
LINE
  5
260
330
1F
100
AcDbEntity
  8
Ｓ_１_１
  6
CONTINUOUS
 62
     3
100
AcDbLine
 10
326.14358549999
 20
612.7904500000184
 30
0.0
 11
326.14358549999
 21
607.9341270000184
 31
0.0
  0
LINE
  5
261
330
1F
100
AcDbEntity
  8
Ｓ_１_１
  6
CONTINUOUS
 62
     3
100
AcDbLine
 10
327.9999844999903
 20
613.8622280000184
 30
0.0
 11
351.9999544999897
 21
613.8622280000184
 31
0.0
  0
LINE
  5
262
330
1F
100
AcDbEntity
  8
Ｓ_１_１
  6
CONTINUOUS
 62
     3
100
AcDbLine
 10
335.4999844999903
 20
651.8623500000189
 30
0.0
 11
344.4999544999897
 21
651.8623500000189
 31
0.0
  0
LINE
  5
263
330
1F
100
AcDbEntity
  8
Ｓ_１_１
  6
CONTINUOUS
 62
     3
100
AcDbLine
 10
341.4998434999898
 20
653.8624150000186
 30
0.0
 11
343.4998884999896
 21
651.8623700000188
 31
0.0
  0
LINE
  5
264
330
1F
100
AcDbEntity
  8
Ｓ_１_１
  6
CONTINUOUS
 62
     3
100
AcDbLine
 10
336.4998164999902
 20
651.8624130000184
 30
0.0
 11
338.4997754999895
 21
653.8623720000186
 31
0.0
  0
LINE
  5
265
330
1F
100
AcDbEntity
  8
Ｓ_１_１
  6
CONTINUOUS
 62
     3
100
AcDbLine
 10
332.4999844999903
 20
633.3621060000185
 30
0.0
 11
347.4999844999898
 21
633.3621060000185
 31
0.0
  0
LINE
  5
266
330
1F
100
AcDbEntity
  8
Ｓ_１_１
  6
CONTINUOUS
 62
     3
100
AcDbLine
 10
332.4999844999903
 20
634.8622280000185
 30
0.0
 11
347.4999844999898
 21
634.8622280000185
 31
0.0
  0
LINE
  5
267
330
1F
100
AcDbEntity
  8
Ｓ_１_１
  6
CONTINUOUS
 62
     3
100
AcDbLine
 10
331.0000154999903
 20
638.3621060000186
 30
0.0
 11
348.9999844999898
 21
638.3621060000186
 31
0.0
  0
LINE
  5
268
330
1F
100
AcDbEntity
  8
Ｓ_１_１
  6
CONTINUOUS
 62
     3
100
AcDbLine
 10
348.9999844999898
 20
631.8623500000183
 30
0.0
 11
348.9999844999898
 21
622.8622280000184
 31
0.0
  0
LINE
  5
269
330
1F
100
AcDbEntity
  8
Ｓ_１_１
  6
CONTINUOUS
 62
     3
100
AcDbLine
 10
331.0000154999903
 20
631.8623500000183
 30
0.0
 11
331.0000154999903
 21
622.8622280000184
 31
0.0
  0
LINE
  5
26A
330
1F
100
AcDbEntity
  8
Ｓ_１_１
  6
CONTINUOUS
 62
     3
100
AcDbLine
 10
330.9998724999901
 20
636.3622490000188
 30
0.0
 11
332.4998844999901
 21
634.8622360000185
 31
0.0
  0
LINE
  5
26B
330
1F
100
AcDbEntity
  8
Ｓ_１_１
  6
CONTINUOUS
 62
     3
100
AcDbLine
 10
347.4999504999897
 20
634.8622350000186
 30
0.0
 11
348.9998334999896
 21
636.3621180000185
 31
0.0
  0
LINE
  5
26C
330
1F
100
AcDbEntity
  8
Ｓ_１_１
  6
CONTINUOUS
 62
     3
100
AcDbLine
 10
331.0000154999903
 20
636.3622280000185
 30
0.0
 11
348.9999844999898
 21
636.3622280000185
 31
0.0
  0
LINE
  5
26D
330
1F
100
AcDbEntity
  8
Ｓ_１_１
  6
CONTINUOUS
 62
     3
100
AcDbLine
 10
330.99998649999
 20
631.8623830000186
 30
0.0
 11
332.49986949999
 21
633.3622660000185
 31
0.0
  0
LINE
  5
26E
330
1F
100
AcDbEntity
  8
Ｓ_１_１
  6
CONTINUOUS
 62
     3
100
AcDbLine
 10
347.4998364999897
 20
633.3622240000184
 30
0.0
 11
348.9998494999896
 21
631.8622120000184
 31
0.0
  0
LINE
  5
26F
330
1F
100
AcDbEntity
  8
Ｓ_１_１
  6
CONTINUOUS
 62
     3
100
AcDbLine
 10
328.2499544999901
 20
622.3622280000184
 30
0.0
 11
351.7499844999898
 21
622.3622280000184
 31
0.0
  0
LINE
  5
270
330
1F
100
AcDbEntity
  8
Ｓ_１_１
  6
CONTINUOUS
 62
     3
100
AcDbLine
 10
331.0000154999903
 20
631.8623500000183
 30
0.0
 11
348.9999844999898
 21
631.8623500000183
 31
0.0
  0
LINE
  5
271
330
1F
100
AcDbEntity
  8
Ｓ_１_１
  6
CONTINUOUS
 62
     3
100
AcDbLine
 10
332.4999844999903
 20
634.8622280000185
 30
0.0
 11
332.4999844999903
 21
633.3621060000185
 31
0.0
  0
LINE
  5
272
330
1F
100
AcDbEntity
  8
Ｓ_１_１
  6
CONTINUOUS
 62
     3
100
AcDbLine
 10
347.4999844999898
 20
634.8622280000185
 30
0.0
 11
347.4999844999898
 21
633.3621060000185
 31
0.0
  0
LINE
  5
273
330
1F
100
AcDbEntity
  8
Ｓ_１_１
  6
CONTINUOUS
 62
     3
100
AcDbLine
 10
351.2498804999896
 20
622.8623170000185
 30
0.0
 11
351.7498274999899
 21
622.3623710000186
 31
0.0
  0
LINE
  5
274
330
1F
100
AcDbEntity
  8
Ｓ_１_１
  6
CONTINUOUS
 62
     3
100
AcDbLine
 10
328.2499094999903
 20
622.3623190000183
 30
0.0
 11
328.7498074999904
 21
622.8622280000184
 31
0.0
  0
LINE
  5
275
330
1F
100
AcDbEntity
  8
Ｓ_１_１
  6
CONTINUOUS
 62
     3
100
AcDbLine
 10
330.99994349999
 20
638.3623370000186
 30
0.0
 11
334.4999574999902
 21
641.8623510000187
 31
0.0
  0
LINE
  5
276
330
1F
100
AcDbEntity
  8
Ｓ_１_１
  6
CONTINUOUS
 62
     3
100
AcDbLine
 10
345.49983449999
 20
641.8621370000186
 30
0.0
 11
348.9998054999897
 21
638.3621650000185
 31
0.0
  0
LINE
  5
277
330
1F
100
AcDbEntity
  8
Ｓ_１_１
  6
CONTINUOUS
 62
     3
100
AcDbLine
 10
345.4999844999898
 20
650.8621060000186
 30
0.0
 11
345.4999844999898
 21
641.8623500000184
 31
0.0
  0
LINE
  5
278
330
1F
100
AcDbEntity
  8
Ｓ_１_１
  6
CONTINUOUS
 62
     3
100
AcDbLine
 10
389.0000000000007
 20
587.1122730000092
 30
0.0
 11
394.0000000000007
 21
587.1122730000092
 31
0.0
  0
LINE
  5
279
330
1F
100
AcDbEntity
  8
Ｓ_１_１
  6
CONTINUOUS
 62
     3
100
AcDbLine
 10
389.0000000000007
 20
578.6122730000092
 30
0.0
 11
394.0000000000007
 21
578.6122730000092
 31
0.0
  0
LINE
  5
27A
330
1F
100
AcDbEntity
  8
Ｓ_１_１
  6
CONTINUOUS
 62
     3
100
AcDbLine
 10
389.0000000000007
 20
577.8622730000092
 30
0.0
 11
393.2500000000007
 21
577.8622730000092
 31
0.0
  0
LINE
  5
27B
330
1F
100
AcDbEntity
  8
Ｓ_１_１
  6
CONTINUOUS
 62
     3
100
AcDbLine
 10
389.0000000000007
 20
587.8622730000092
 30
0.0
 11
393.2500000000007
 21
587.8622730000092
 31
0.0
  0
LINE
  5
27C
330
1F
100
AcDbEntity
  8
Ｓ_１_１
  6
CONTINUOUS
 62
     3
100
AcDbLine
 10
394.0000000000007
 20
578.6122730000092
 30
0.0
 11
394.0000000000007
 21
587.1122730000092
 31
0.0
  0
LINE
  5
27D
330
1F
100
AcDbEntity
  8
Ｓ_１_１
  6
CONTINUOUS
 62
     3
100
AcDbLine
 10
393.2500000000007
 20
577.8622730000092
 30
0.0
 11
393.2500000000007
 21
587.8622730000092
 31
0.0
  0
LINE
  5
27E
330
1F
100
AcDbEntity
  8
Ｓ_１_１
  6
CONTINUOUS
 62
     3
100
AcDbLine
 10
393.2500025577008
 20
577.8622741250091
 30
0.0
 11
394.0000006565008
 21
578.612272287009
 31
0.0
  0
LINE
  5
27F
330
1F
100
AcDbEntity
  8
Ｓ_１_１
  6
CONTINUOUS
 62
     3
100
AcDbLine
 10
394.0000016470006
 20
587.112274925309
 30
0.0
 11
393.2500014619007
 21
587.8622750471089
 31
0.0
  0
LINE
  5
280
330
1F
100
AcDbEntity
  8
Ｓ_１_１
  6
CONTINUOUS
 62
     3
100
AcDbLine
 10
382.0000000000007
 20
582.8622730000092
 30
0.0
 11
382.0000000000007
 21
592.862273000009
 31
0.0
  0
LINE
  5
281
330
1F
100
AcDbEntity
  8
Ｓ_１_１
  6
CONTINUOUS
 62
     3
100
AcDbLine
 10
382.0000000000007
 20
572.8622730000092
 30
0.0
 11
382.0000000000007
 21
582.8622730000092
 31
0.0
  0
LINE
  5
282
330
1F
100
AcDbEntity
  8
Ｓ_１_１
  6
CONTINUOUS
 62
     3
100
AcDbLine
 10
382.0000005510008
 20
592.862272449009
 30
0.0
 11
383.0000005800005
 21
591.8622723357087
 31
0.0
  0
LINE
  5
283
330
1F
100
AcDbEntity
  8
Ｓ_１_１
  6
CONTINUOUS
 62
     3
100
AcDbLine
 10
383.0000002849009
 20
573.8622732006091
 30
0.0
 11
382.0000004877009
 21
572.8622734877089
 31
0.0
  0
LINE
  5
284
330
1F
100
AcDbEntity
  8
Ｓ_１_１
  6
CONTINUOUS
 62
     3
100
AcDbLine
 10
383.0000000000007
 20
573.8622732006091
 30
0.0
 11
383.0000000000007
 21
582.8622730000092
 31
0.0
  0
LINE
  5
285
330
1F
100
AcDbEntity
  8
Ｓ_１_１
  6
CONTINUOUS
 62
     3
100
AcDbLine
 10
383.0000000000007
 20
582.8622730000092
 30
0.0
 11
383.0000000000007
 21
591.8622723357087
 31
0.0
  0
LINE
  5
286
330
1F
100
AcDbEntity
  8
Ｓ_１_１
  6
CONTINUOUS
 62
     3
100
AcDbLine
 10
352.5000000000003
 20
592.862273000009
 30
0.0
 11
382.0000000000007
 21
592.862273000009
 31
0.0
  0
LINE
  5
287
330
1F
100
AcDbEntity
  8
Ｓ_１_１
  6
CONTINUOUS
 62
     3
100
AcDbLine
 10
388.9999981656009
 20
590.3546856632091
 30
0.0
 11
387.9999979724005
 21
592.3622722529087
 31
0.0
  0
LINE
  5
288
330
1F
100
AcDbEntity
  8
Ｓ_１_１
  6
CONTINUOUS
 62
     3
100
AcDbLine
 10
388.9999995145006
 20
575.369859244009
 30
0.0
 11
387.9999993213008
 21
573.3622726543089
 31
0.0
  0
LINE
  5
289
330
1F
100
AcDbEntity
  8
Ｓ_１_１
  6
CONTINUOUS
 62
     3
100
AcDbLine
 10
382.9999999766008
 20
590.3546863062091
 30
0.0
 11
384.0000001698007
 21
592.3622728959087
 31
0.0
  0
LINE
  5
28A
330
1F
100
AcDbEntity
  8
Ｓ_１_１
  6
CONTINUOUS
 62
     3
100
AcDbLine
 10
382.9999984859008
 20
575.369858885709
 30
0.0
 11
383.9999985375005
 21
573.3622725805088
 31
0.0
  0
LINE
  5
28B
330
1F
100
AcDbEntity
  8
Ｓ_１_１
  6
CONTINUOUS
 62
     3
100
AcDbLine
 10
384.0000000000007
 20
573.3622730000092
 30
0.0
 11
388.0000000000007
 21
573.3622730000092
 31
0.0
  0
LINE
  5
28C
330
1F
100
AcDbEntity
  8
Ｓ_１_１
  6
CONTINUOUS
 62
     3
100
AcDbLine
 10
384.0000000000007
 20
592.362273000009
 30
0.0
 11
388.0000000000007
 21
592.362273000009
 31
0.0
  0
LINE
  5
28D
330
1F
100
AcDbEntity
  8
Ｓ_１_１
  6
CONTINUOUS
 62
     3
100
AcDbLine
 10
389.0000000000007
 20
582.8622730000092
 30
0.0
 11
389.0000000000007
 21
590.3546868387092
 31
0.0
  0
LINE
  5
28E
330
1F
100
AcDbEntity
  8
Ｓ_１_１
  6
CONTINUOUS
 62
     3
100
AcDbLine
 10
389.0000000000007
 20
575.3698591613091
 30
0.0
 11
389.0000000000007
 21
582.8622730000092
 31
0.0
  0
ARC
  5
28F
330
1F
100
AcDbEntity
  8
Ｓ_１_１
  6
CONTINUOUS
 62
     3
100
AcDbCircle
 10
398.5416666667009
 20
582.8622730000092
 30
0.0
 40
15.5416666667
100
AcDbArc
 50
159.3345163543002
 51
159.3345238904477
  0
ARC
  5
290
330
1F
100
AcDbEntity
  8
Ｓ_１_１
  6
CONTINUOUS
 62
     3
100
AcDbCircle
 10
373.4583333333006
 20
582.8622730000092
 30
0.0
 40
15.5416666667
100
AcDbArc
 50
20.66547610955293
 51
20.66547840939962
  0
ARC
  5
291
330
1F
100
AcDbEntity
  8
Ｓ_１_１
  6
CONTINUOUS
 62
     3
100
AcDbCircle
 10
398.5416666667009
 20
582.8622730000092
 30
0.0
 40
15.5416666667
100
AcDbArc
 50
162.8126324028145
 51
197.1873680951787
  0
ARC
  5
292
330
1F
100
AcDbEntity
  8
Ｓ_１_１
  6
CONTINUOUS
 62
     3
100
AcDbCircle
 10
398.5416666667009
 20
582.8622730000092
 30
0.0
 40
15.5416666667
100
AcDbArc
 50
200.6654786560356
 51
200.6654800033002
  0
ARC
  5
293
330
1F
100
AcDbEntity
  8
Ｓ_１_１
  6
CONTINUOUS
 62
     3
100
AcDbCircle
 10
373.4583333333006
 20
582.8622730000092
 30
0.0
 40
15.5416666667
100
AcDbArc
 50
342.8126319048212
 51
17.18736759718547
  0
LINE
  5
294
330
1F
100
AcDbEntity
  8
Ｓ_１_１
  6
CONTINUOUS
 62
     3
100
AcDbLine
 10
388.3059641178627
 20
587.4547954946892
 30
0.0
 11
383.6940358821387
 21
587.4547954946892
 31
0.0
  0
LINE
  5
295
330
1F
100
AcDbEntity
  8
Ｓ_１_１
  6
CONTINUOUS
 62
     3
100
AcDbLine
 10
388.3059640779464
 20
578.2697503762791
 30
0.0
 11
383.6940359220551
 21
578.2697503762791
 31
0.0
  0
ARC
  5
296
330
1F
100
AcDbEntity
  8
Ｓ_１_１
  6
CONTINUOUS
 62
     3
100
AcDbCircle
 10
383.0000000000007
 20
575.369855846019
 30
0.0
 40
6.000000000001596
100
AcDbArc
 50
0.0000417559226242
 51
28.90218407791362
  0
ARC
  5
297
330
1F
100
AcDbEntity
  8
Ｓ_１_１
  6
CONTINUOUS
 62
     3
100
AcDbCircle
 10
389.0000000000007
 20
575.369860218689
 30
0.0
 40
6.000000000001596
100
AcDbArc
 50
151.0978636188124
 51
180.0000417558857
  0
ARC
  5
298
330
1F
100
AcDbEntity
  8
Ｓ_１_１
  6
CONTINUOUS
 62
     3
100
AcDbCircle
 10
389.0000000000007
 20
590.3546863531891
 30
0.0
 40
6.000000000000006
100
AcDbArc
 50
179.9999920172612
 51
208.9021440266621
  0
ARC
  5
299
330
1F
100
AcDbEntity
  8
Ｓ_１_１
  6
CONTINUOUS
 62
     3
100
AcDbCircle
 10
383.0000000000007
 20
590.3546863531891
 30
0.0
 40
6.000000000001596
100
AcDbArc
 50
331.0978559733464
 51
0.0
  0
LINE
  5
29A
330
1F
100
AcDbEntity
  8
Ｓ_１_１
  6
CONTINUOUS
 62
     3
100
AcDbLine
 10
352.5000000000003
 20
572.862273000009
 30
0.0
 11
382.0000000000007
 21
572.8622730000092
 31
0.0
  0
LINE
  5
29B
330
1F
100
AcDbEntity
  8
Ｓ_１_１
  6
EXLTYPE2
 62
     1
100
AcDbLine
 10
326.1188507080004
 20
582.862273000009
 30
0.0
 11
395.0114479065008
 21
582.8622730000092
 31
0.0
  0
LINE
  5
29C
330
1F
100
AcDbEntity
  8
Ｓ_１_１
  6
CONTINUOUS
 62
     3
100
AcDbLine
 10
327.5000000000001
 20
567.3622730000092
 30
0.0
 11
327.5000000000001
 21
598.362273000009
 31
0.0
  0
LINE
  5
29D
330
1F
100
AcDbEntity
  8
Ｓ_１_１
  6
CONTINUOUS
 62
     3
100
AcDbLine
 10
352.5000000000001
 20
567.3622730000092
 30
0.0
 11
352.5000000000001
 21
598.362273000009
 31
0.0
  0
LINE
  5
29E
330
1F
100
AcDbEntity
  8
Ｓ_１_１
  6
CONTINUOUS
 62
     3
100
AcDbLine
 10
332.0599716747793
 20
559.8028598936662
 30
0.0
 11
331.6500100000001
 21
566.362257
 31
0.0
  0
LINE
  5
29F
330
1F
100
AcDbEntity
  8
Ｓ_１_１
  6
CONTINUOUS
 62
     3
100
AcDbLine
 10
332.7592591686108
 20
559.8360714989351
 30
0.0
 11
332.4365130000002
 21
565.000004
 31
0.0
  0
LINE
  5
2A0
330
1F
100
AcDbEntity
  8
Ｓ_１_１
  6
CONTINUOUS
 62
     3
100
AcDbLine
 10
347.240744570803
 20
559.8360713295357
 30
0.0
 11
347.5634900000001
 21
564.999992
 31
0.0
  0
LINE
  5
2A1
330
1F
100
AcDbEntity
  8
Ｓ_１_１
  6
CONTINUOUS
 62
     3
100
AcDbLine
 10
347.9400321278479
 20
559.8028597047273
 30
0.0
 11
348.3499930000001
 21
566.362245
 31
0.0
  0
LINE
  5
2A2
330
1F
100
AcDbEntity
  8
Ｓ_１_１
  6
CONTINUOUS
 62
     3
100
AcDbLine
 10
818.500009
 20
566.3622690000092
 30
0.0
 11
830.000009
 21
566.3622690000091
 31
0.0
  0
LINE
  5
2A3
330
1F
100
AcDbEntity
  8
Ｓ_１_１
  6
CONTINUOUS
 62
     3
100
AcDbLine
 10
830.000009
 20
566.3622690000091
 30
0.0
 11
841.500009
 21
566.3622690000091
 31
0.0
  0
LINE
  5
2A4
330
1F
100
AcDbEntity
  8
Ｓ_１_１
  6
CONTINUOUS
 62
     3
100
AcDbLine
 10
842.500009
 20
567.3622690000091
 30
0.0
 11
842.500009
 21
582.8622690000091
 31
0.0
  0
LINE
  5
2A5
330
1F
100
AcDbEntity
  8
Ｓ_１_１
  6
CONTINUOUS
 62
     3
100
AcDbLine
 10
842.500009
 20
598.3622690000091
 30
0.0
 11
842.500009
 21
582.8622690000091
 31
0.0
  0
LINE
  5
2A6
330
1F
100
AcDbEntity
  8
Ｓ_１_１
  6
CONTINUOUS
 62
     3
100
AcDbLine
 10
818.500009
 20
599.3622690000091
 30
0.0
 11
830.000009
 21
599.3622690000091
 31
0.0
  0
LINE
  5
2A7
330
1F
100
AcDbEntity
  8
Ｓ_１_１
  6
CONTINUOUS
 62
     3
100
AcDbLine
 10
830.000009
 20
599.3622690000091
 30
0.0
 11
841.500009
 21
599.3622690000091
 31
0.0
  0
LINE
  5
2A8
330
1F
100
AcDbEntity
  8
Ｓ_１_１
  6
CONTINUOUS
 62
     3
100
AcDbLine
 10
841.5000103689
 20
599.3622705587088
 30
0.0
 11
842.5000104188999
 21
598.3622704243087
 31
0.0
  0
LINE
  5
2A9
330
1F
100
AcDbEntity
  8
Ｓ_１_１
  6
CONTINUOUS
 62
     3
100
AcDbLine
 10
842.5000097866997
 20
567.3622679029088
 30
0.0
 11
841.5000099895998
 21
566.362268190009
 31
0.0
  0
LINE
  5
2AA
330
1F
100
AcDbEntity
  8
Ｓ_１_１
  6
CONTINUOUS
 62
     3
100
AcDbLine
 10
817.5000090481
 20
567.3622690758091
 30
0.0
 11
818.5000091752
 21
566.3622690330088
 31
0.0
  0
LINE
  5
2AB
330
1F
100
AcDbEntity
  8
Ｓ_１_１
  6
CONTINUOUS
 62
     3
100
AcDbLine
 10
817.500009
 20
567.3622690000092
 30
0.0
 11
817.500009
 21
582.8622690000091
 31
0.0
  0
LINE
  5
2AC
330
1F
100
AcDbEntity
  8
Ｓ_１_１
  6
CONTINUOUS
 62
     3
100
AcDbLine
 10
818.5000087116001
 20
599.3622694628091
 30
0.0
 11
817.5000089986999
 21
598.3622696657087
 31
0.0
  0
LINE
  5
2AD
330
1F
100
AcDbEntity
  8
Ｓ_１_１
  6
CONTINUOUS
 62
     3
100
AcDbLine
 10
817.500009
 20
598.3622690000091
 30
0.0
 11
817.500009
 21
582.8622690000091
 31
0.0
  0
LINE
  5
2AE
330
1F
100
AcDbEntity
  8
Ｓ_１_１
  6
CONTINUOUS
 62
     3
100
AcDbLine
 10
817.500009
 20
598.3622690000091
 30
0.0
 11
842.500009
 21
598.3622690000091
 31
0.0
  0
LINE
  5
2AF
330
1F
100
AcDbEntity
  8
Ｓ_１_１
  6
CONTINUOUS
 62
     3
100
AcDbLine
 10
817.500009
 20
567.3622690000092
 30
0.0
 11
842.500009
 21
567.3622690000091
 31
0.0
  0
LINE
  5
2B0
330
1F
100
AcDbEntity
  8
Ｓ_１_１
  6
CONTINUOUS
 62
     3
100
AcDbLine
 10
838.264871
 20
600.72454100002
 30
0.0
 11
821.7351540000001
 21
600.72454100002
 31
0.0
  0
LINE
  5
2B1
330
1F
100
AcDbEntity
  8
Ｓ_１_１
  6
CONTINUOUS
 62
     3
100
AcDbLine
 10
822.820128
 20
606.8622420000199
 30
0.0
 11
822.4365199999999
 21
600.7245290000201
 31
0.0
  0
LINE
  5
2B2
330
1F
100
AcDbEntity
  8
Ｓ_１_１
  6
CONTINUOUS
 62
     3
100
AcDbLine
 10
822.1187579999997
 20
606.86226000002
 30
0.0
 11
821.6500069999998
 21
599.3622460000199
 31
0.0
  0
LINE
  5
2B3
330
1F
100
AcDbEntity
  8
Ｓ_１_１
  6
CONTINUOUS
 62
     3
100
AcDbLine
 10
822.4365349999999
 20
600.72454900002
 30
0.0
 11
821.6500199999999
 21
599.36226600002
 31
0.0
  0
LINE
  5
2B4
330
1F
100
AcDbEntity
  8
Ｓ_１_１
  6
CONTINUOUS
 62
     3
100
AcDbLine
 10
837.8812589999999
 20
606.8622720000201
 30
0.0
 11
838.350012
 21
599.3622270000201
 31
0.0
  0
LINE
  5
2B5
330
1F
100
AcDbEntity
  8
Ｓ_１_１
  6
CONTINUOUS
 62
     3
100
AcDbLine
 10
838.3499979999998
 20
599.36225000002
 30
0.0
 11
837.5634919999999
 21
600.72452000002
 31
0.0
  0
LINE
  5
2B6
330
1F
100
AcDbEntity
  8
Ｓ_１_１
  6
CONTINUOUS
 62
     3
100
AcDbLine
 10
837.1798970000001
 20
606.86225400002
 30
0.0
 11
837.5635060000001
 21
600.72451100002
 31
0.0
  0
LINE
  5
2B7
330
1F
100
AcDbEntity
  8
Ｓ_１_１
  6
CONTINUOUS
 62
     3
100
AcDbLine
 10
837.2509980000001
 20
559.999978
 30
0.0
 11
837.563499
 21
564.999988
 31
0.0
  0
LINE
  5
2B8
330
1F
100
AcDbEntity
  8
Ｓ_１_１
  6
CONTINUOUS
 62
     3
100
AcDbLine
 10
837.9523620000001
 20
559.99999
 30
0.0
 11
838.3500019999998
 21
566.362241
 31
0.0
  0
LINE
  5
2B9
330
1F
100
AcDbEntity
  8
Ｓ_１_１
  6
CONTINUOUS
 62
     3
100
AcDbLine
 10
838.264871
 20
564.999997
 30
0.0
 11
821.7351540000001
 21
564.999997
 31
0.0
  0
LINE
  5
2BA
330
1F
100
AcDbEntity
  8
Ｓ_１_１
  6
CONTINUOUS
 62
     3
100
AcDbLine
 10
838.3500209999999
 20
566.362288
 30
0.0
 11
837.563507
 21
565.000005
 31
0.0
  0
LINE
  5
2BB
330
1F
100
AcDbEntity
  8
Ｓ_１_１
  6
CONTINUOUS
 62
     3
100
AcDbLine
 10
822.749023
 20
559.99999
 30
0.0
 11
822.4365220000001
 21
565.0
 31
0.0
  0
LINE
  5
2BC
330
1F
100
AcDbEntity
  8
Ｓ_１_１
  6
CONTINUOUS
 62
     3
100
AcDbLine
 10
822.047659
 20
560.000003
 30
0.0
 11
821.6500189999998
 21
566.362253
 31
0.0
  0
LINE
  5
2BD
330
1F
100
AcDbEntity
  8
Ｓ_１_１
  6
CONTINUOUS
 62
     3
100
AcDbLine
 10
822.4365119999999
 20
564.9999889999999
 30
0.0
 11
821.6500050000001
 21
566.362259
 31
0.0
  0
ARC
  5
2BE
330
1F
100
AcDbEntity
  8
Ｓ_１_１
  6
CONTINUOUS
 62
     3
100
AcDbCircle
 10
840.3922974999897
 20
607.7284350000184
 30
0.0
 40
6.133925000000002
100
AcDbArc
 50
55.61543800000034
 51
124.3845830000003
  0
ARC
  5
2BF
330
1F
100
AcDbEntity
  8
Ｓ_１_１
  6
CONTINUOUS
 62
     3
100
AcDbCircle
 10
829.9999934999897
 20
590.9341230000184
 30
0.0
 40
22.927938
100
AcDbArc
 50
72.411858
 51
107.5881660000001
  0
ARC
  5
2C0
330
1F
100
AcDbEntity
  8
Ｓ_１_１
  6
CONTINUOUS
 62
     3
100
AcDbCircle
 10
819.6076594999901
 20
612.9961350000183
 30
0.0
 40
6.133925000000002
100
AcDbArc
 50
235.6154019999991
 51
304.3845609999998
  0
ARC
  5
2C1
330
1F
100
AcDbEntity
  8
Ｓ_１_１
  6
CONTINUOUS
 62
     3
100
AcDbCircle
 10
825.4999934999902
 20
650.8621020000186
 30
0.0
 40
1.0
100
AcDbArc
 50
89.99997799999524
 51
179.9999749999976
  0
ARC
  5
2C2
330
1F
100
AcDbEntity
  8
Ｓ_１_１
  6
CONTINUOUS
 62
     3
100
AcDbCircle
 10
819.6076594999901
 20
607.7284350000184
 30
0.0
 40
6.133925000000002
100
AcDbArc
 50
55.6153689999997
 51
124.384513999999
  0
ARC
  5
2C3
330
1F
100
AcDbEntity
  8
Ｓ_１_１
  6
CONTINUOUS
 62
     3
100
AcDbCircle
 10
829.9999934999897
 20
629.7902020000186
 30
0.0
 40
22.927942
100
AcDbArc
 50
252.4118210000002
 51
287.5881150000001
  0
ARC
  5
2C4
330
1F
100
AcDbEntity
  8
Ｓ_１_１
  6
CONTINUOUS
 62
     3
100
AcDbCircle
 10
840.3922974999897
 20
612.9961350000183
 30
0.0
 40
6.133925000000002
100
AcDbArc
 50
235.6154159999998
 51
304.3845739999999
  0
ARC
  5
2C5
330
1F
100
AcDbEntity
  8
Ｓ_１_１
  6
CONTINUOUS
 62
     3
100
AcDbCircle
 10
834.4999634999896
 20
650.8621020000186
 30
0.0
 40
1.0
100
AcDbArc
 50
359.9999970000023
 51
89.9999780000017
  0
LINE
  5
2C6
330
1F
100
AcDbEntity
  8
Ｓ_１_１
  6
CONTINUOUS
 62
     3
100
AcDbLine
 10
828.5000244999898
 20
653.8622240000185
 30
0.0
 11
831.4999934999897
 21
653.8622240000185
 31
0.0
  0
LINE
  5
2C7
330
1F
100
AcDbEntity
  8
Ｓ_１_１
  6
CONTINUOUS
 62
     3
100
AcDbLine
 10
817.9999934999902
 20
606.8623460000183
 30
0.0
 11
841.9999634999896
 21
606.8623460000183
 31
0.0
  0
LINE
  5
2C8
330
1F
100
AcDbEntity
  8
Ｓ_１_１
  6
CONTINUOUS
 62
     3
100
AcDbLine
 10
824.49996349999
 20
650.8621020000186
 30
0.0
 11
824.49996349999
 21
641.8623460000184
 31
0.0
  0
LINE
  5
2C9
330
1F
100
AcDbEntity
  8
Ｓ_１_１
  6
CONTINUOUS
 62
     3
100
AcDbLine
 10
824.49996349999
 20
641.8623460000184
 30
0.0
 11
835.4999934999897
 21
641.8623460000184
 31
0.0
  0
LINE
  5
2CA
330
1F
100
AcDbEntity
  8
Ｓ_１_１
  6
CONTINUOUS
 62
     3
100
AcDbLine
 10
821.0000244999902
 20
638.3621020000186
 30
0.0
 11
821.0000244999902
 21
636.3622240000185
 31
0.0
  0
LINE
  5
2CB
330
1F
100
AcDbEntity
  8
Ｓ_１_１
  6
CONTINUOUS
 62
     3
100
AcDbLine
 10
838.9999934999897
 20
638.3621020000186
 30
0.0
 11
838.9999934999897
 21
636.3622240000185
 31
0.0
  0
LINE
  5
2CC
330
1F
100
AcDbEntity
  8
Ｓ_１_１
  6
CONTINUOUS
 62
     3
100
AcDbLine
 10
818.7499934999902
 20
622.8622240000184
 30
0.0
 11
841.2499934999897
 21
622.8622240000184
 31
0.0
  0
LINE
  5
2CD
330
1F
100
AcDbEntity
  8
Ｓ_１_１
  6
CONTINUOUS
 62
     3
100
AcDbLine
 10
841.7499934999897
 20
622.3622240000184
 30
0.0
 11
841.7499934999897
 21
613.8622240000184
 31
0.0
  0
LINE
  5
2CE
330
1F
100
AcDbEntity
  8
Ｓ_１_１
  6
CONTINUOUS
 62
     3
100
AcDbLine
 10
818.24996349999
 20
622.3622240000184
 30
0.0
 11
818.24996349999
 21
613.8622240000184
 31
0.0
  0
LINE
  5
2CF
330
1F
100
AcDbEntity
  8
Ｓ_１_１
  6
CONTINUOUS
 62
     3
100
AcDbLine
 10
816.14362549999
 20
607.9341980000183
 30
0.0
 11
817.9999974999902
 21
606.8624210000187
 31
0.0
  0
LINE
  5
2D0
330
1F
100
AcDbEntity
  8
Ｓ_１_１
  6
CONTINUOUS
 62
     3
100
AcDbLine
 10
841.9999204999896
 20
613.8624150000185
 30
0.0
 11
843.8563984999897
 21
612.7905760000183
 31
0.0
  0
LINE
  5
2D1
330
1F
100
AcDbEntity
  8
Ｓ_１_１
  6
CONTINUOUS
 62
     3
100
AcDbLine
 10
841.9999624999897
 20
606.8623790000186
 30
0.0
 11
843.8563354999898
 21
607.9341560000187
 31
0.0
  0
LINE
  5
2D2
330
1F
100
AcDbEntity
  8
Ｓ_１_１
  6
CONTINUOUS
 62
     3
100
AcDbLine
 10
816.1436324999901
 20
612.7907160000184
 30
0.0
 11
818.0000054999902
 21
613.8624930000185
 31
0.0
  0
LINE
  5
2D3
330
1F
100
AcDbEntity
  8
Ｓ_１_１
  6
CONTINUOUS
 62
     3
100
AcDbLine
 10
843.8564084999895
 20
612.7904460000184
 30
0.0
 11
843.8564084999895
 21
607.9341230000184
 31
0.0
  0
LINE
  5
2D4
330
1F
100
AcDbEntity
  8
Ｓ_１_１
  6
CONTINUOUS
 62
     3
100
AcDbLine
 10
836.9282164999896
 20
612.7904460000184
 30
0.0
 11
836.9282164999896
 21
607.9341230000184
 31
0.0
  0
LINE
  5
2D5
330
1F
100
AcDbEntity
  8
Ｓ_１_１
  6
CONTINUOUS
 62
     3
100
AcDbLine
 10
823.0718624999901
 20
612.7904460000184
 30
0.0
 11
823.0718624999901
 21
607.9341230000184
 31
0.0
  0
LINE
  5
2D6
330
1F
100
AcDbEntity
  8
Ｓ_１_１
  6
CONTINUOUS
 62
     3
100
AcDbLine
 10
816.14359449999
 20
612.7904460000184
 30
0.0
 11
816.14359449999
 21
607.9341230000184
 31
0.0
  0
LINE
  5
2D7
330
1F
100
AcDbEntity
  8
Ｓ_１_１
  6
CONTINUOUS
 62
     3
100
AcDbLine
 10
817.9999934999902
 20
613.8622240000184
 30
0.0
 11
841.9999634999896
 21
613.8622240000184
 31
0.0
  0
LINE
  5
2D8
330
1F
100
AcDbEntity
  8
Ｓ_１_１
  6
CONTINUOUS
 62
     3
100
AcDbLine
 10
825.4999934999902
 20
651.8623460000189
 30
0.0
 11
834.4999634999896
 21
651.8623460000189
 31
0.0
  0
LINE
  5
2D9
330
1F
100
AcDbEntity
  8
Ｓ_１_１
  6
CONTINUOUS
 62
     3
100
AcDbLine
 10
831.4998524999897
 20
653.8624110000186
 30
0.0
 11
833.4998974999895
 21
651.8623660000188
 31
0.0
  0
LINE
  5
2DA
330
1F
100
AcDbEntity
  8
Ｓ_１_１
  6
CONTINUOUS
 62
     3
100
AcDbLine
 10
826.4998254999902
 20
651.8624090000184
 30
0.0
 11
828.4997844999895
 21
653.8623680000186
 31
0.0
  0
LINE
  5
2DB
330
1F
100
AcDbEntity
  8
Ｓ_１_１
  6
CONTINUOUS
 62
     3
100
AcDbLine
 10
822.4999934999902
 20
633.3621020000185
 30
0.0
 11
837.4999934999897
 21
633.3621020000185
 31
0.0
  0
LINE
  5
2DC
330
1F
100
AcDbEntity
  8
Ｓ_１_１
  6
CONTINUOUS
 62
     3
100
AcDbLine
 10
822.4999934999902
 20
634.8622240000185
 30
0.0
 11
837.4999934999897
 21
634.8622240000185
 31
0.0
  0
LINE
  5
2DD
330
1F
100
AcDbEntity
  8
Ｓ_１_１
  6
CONTINUOUS
 62
     3
100
AcDbLine
 10
821.0000244999902
 20
638.3621020000186
 30
0.0
 11
838.9999934999897
 21
638.3621020000186
 31
0.0
  0
LINE
  5
2DE
330
1F
100
AcDbEntity
  8
Ｓ_１_１
  6
CONTINUOUS
 62
     3
100
AcDbLine
 10
838.9999934999897
 20
631.8623460000183
 30
0.0
 11
838.9999934999897
 21
622.8622240000184
 31
0.0
  0
LINE
  5
2DF
330
1F
100
AcDbEntity
  8
Ｓ_１_１
  6
CONTINUOUS
 62
     3
100
AcDbLine
 10
821.0000244999902
 20
631.8623460000183
 30
0.0
 11
821.0000244999902
 21
622.8622240000184
 31
0.0
  0
LINE
  5
2E0
330
1F
100
AcDbEntity
  8
Ｓ_１_１
  6
CONTINUOUS
 62
     3
100
AcDbLine
 10
820.99988149999
 20
636.3622450000188
 30
0.0
 11
822.49989349999
 21
634.8622320000185
 31
0.0
  0
LINE
  5
2E1
330
1F
100
AcDbEntity
  8
Ｓ_１_１
  6
CONTINUOUS
 62
     3
100
AcDbLine
 10
837.4999594999896
 20
634.8622310000186
 30
0.0
 11
838.9998424999895
 21
636.3621140000186
 31
0.0
  0
LINE
  5
2E2
330
1F
100
AcDbEntity
  8
Ｓ_１_１
  6
CONTINUOUS
 62
     3
100
AcDbLine
 10
821.0000244999902
 20
636.3622240000185
 30
0.0
 11
838.9999934999897
 21
636.3622240000185
 31
0.0
  0
LINE
  5
2E3
330
1F
100
AcDbEntity
  8
Ｓ_１_１
  6
CONTINUOUS
 62
     3
100
AcDbLine
 10
820.99999549999
 20
631.8623790000186
 30
0.0
 11
822.4998784999899
 21
633.3622620000185
 31
0.0
  0
LINE
  5
2E4
330
1F
100
AcDbEntity
  8
Ｓ_１_１
  6
CONTINUOUS
 62
     3
100
AcDbLine
 10
837.4998454999896
 20
633.3622200000184
 30
0.0
 11
838.9998584999895
 21
631.8622080000184
 31
0.0
  0
LINE
  5
2E5
330
1F
100
AcDbEntity
  8
Ｓ_１_１
  6
CONTINUOUS
 62
     3
100
AcDbLine
 10
818.24996349999
 20
622.3622240000184
 30
0.0
 11
841.7499934999897
 21
622.3622240000184
 31
0.0
  0
LINE
  5
2E6
330
1F
100
AcDbEntity
  8
Ｓ_１_１
  6
CONTINUOUS
 62
     3
100
AcDbLine
 10
821.0000244999902
 20
631.8623460000183
 30
0.0
 11
838.9999934999897
 21
631.8623460000183
 31
0.0
  0
LINE
  5
2E7
330
1F
100
AcDbEntity
  8
Ｓ_１_１
  6
CONTINUOUS
 62
     3
100
AcDbLine
 10
822.4999934999902
 20
634.8622240000185
 30
0.0
 11
822.4999934999902
 21
633.3621020000185
 31
0.0
  0
LINE
  5
2E8
330
1F
100
AcDbEntity
  8
Ｓ_１_１
  6
CONTINUOUS
 62
     3
100
AcDbLine
 10
837.4999934999897
 20
634.8622240000185
 30
0.0
 11
837.4999934999897
 21
633.3621020000185
 31
0.0
  0
LINE
  5
2E9
330
1F
100
AcDbEntity
  8
Ｓ_１_１
  6
CONTINUOUS
 62
     3
100
AcDbLine
 10
841.2498894999895
 20
622.8623130000185
 30
0.0
 11
841.7498364999898
 21
622.3623670000186
 31
0.0
  0
LINE
  5
2EA
330
1F
100
AcDbEntity
  8
Ｓ_１_１
  6
CONTINUOUS
 62
     3
100
AcDbLine
 10
818.2499184999903
 20
622.3623150000183
 30
0.0
 11
818.7498164999903
 21
622.8622240000184
 31
0.0
  0
LINE
  5
2EB
330
1F
100
AcDbEntity
  8
Ｓ_１_１
  6
CONTINUOUS
 62
     3
100
AcDbLine
 10
820.99995249999
 20
638.3623330000186
 30
0.0
 11
824.4999664999901
 21
641.8623470000188
 31
0.0
  0
LINE
  5
2EC
330
1F
100
AcDbEntity
  8
Ｓ_１_１
  6
CONTINUOUS
 62
     3
100
AcDbLine
 10
835.4998434999899
 20
641.8621330000186
 30
0.0
 11
838.9998144999896
 21
638.3621610000185
 31
0.0
  0
LINE
  5
2ED
330
1F
100
AcDbEntity
  8
Ｓ_１_１
  6
CONTINUOUS
 62
     3
100
AcDbLine
 10
835.4999934999897
 20
650.8621020000186
 30
0.0
 11
835.4999934999897
 21
641.8623460000184
 31
0.0
  0
CIRCLE
  5
2EE
330
1F
100
AcDbEntity
  8
Ｓ_１_１
  6
CONTINUOUS
 62
     3
100
AcDbCircle
 10
830.000009
 20
582.86226900001
 30
0.0
 40
10.0
  0
POLYLINE
  5
2EF
330
1F
100
AcDbEntity
  8
Ｓ_１_１
  6
CONTINUOUS
 62
     3
100
AcDb2dPolyline
 66
     1
 10
0.0
 20
0.0
 30
0.0
 70
   128
  0
VERTEX
  5
2F0
330
2EF
100
AcDbEntity
  8
Ｓ_１_１
  6
CONTINUOUS
 62
     3
100
AcDbVertex
100
AcDb2dVertex
 10
830.000009
 20
592.36226900001
 30
0.0
  0
VERTEX
  5
2F1
330
2EF
100
AcDbEntity
  8
Ｓ_１_１
  6
CONTINUOUS
 62
     3
100
AcDbVertex
100
AcDb2dVertex
 10
821.7727676640476
 20
587.61226900001
 30
0.0
  0
VERTEX
  5
2F2
330
2EF
100
AcDbEntity
  8
Ｓ_１_１
  6
CONTINUOUS
 62
     3
100
AcDbVertex
100
AcDb2dVertex
 10
821.7727676640476
 20
578.11226900001
 30
0.0
  0
VERTEX
  5
2F3
330
2EF
100
AcDbEntity
  8
Ｓ_１_１
  6
CONTINUOUS
 62
     3
100
AcDbVertex
100
AcDb2dVertex
 10
830.000009
 20
573.36226900001
 30
0.0
  0
VERTEX
  5
2F4
330
2EF
100
AcDbEntity
  8
Ｓ_１_１
  6
CONTINUOUS
 62
     3
100
AcDbVertex
100
AcDb2dVertex
 10
838.2272503359519
 20
578.11226900001
 30
0.0
  0
VERTEX
  5
2F5
330
2EF
100
AcDbEntity
  8
Ｓ_１_１
  6
CONTINUOUS
 62
     3
100
AcDbVertex
100
AcDb2dVertex
 10
838.2272503359519
 20
587.61226900001
 30
0.0
  0
VERTEX
  5
2F6
330
2EF
100
AcDbEntity
  8
Ｓ_１_１
  6
CONTINUOUS
 62
     3
100
AcDbVertex
100
AcDb2dVertex
 10
830.000009
 20
592.36226900001
 30
0.0
  0
SEQEND
  5
2F7
330
2EF
100
AcDbEntity
  8
Ｓ_１_１
  6
CONTINUOUS
 62
     3
  0
CIRCLE
  5
2F8
330
1F
100
AcDbEntity
  8
Ｓ_１_１
  6
CONTINUOUS
 62
     3
100
AcDbCircle
 10
830.000009
 20
582.86226900001
 30
0.0
 40
8.227241335951572
  0
ARC
  5
2F9
330
1F
100
AcDbEntity
  8
Ｓ_１_１
  6
CONTINUOUS
 62
     3
100
AcDbCircle
 10
830.000009
 20
582.86226900001
 30
0.0
 40
8.999999915700016
100
AcDbArc
 50
96.08359749728285
 51
143.9164025027172
  0
ARC
  5
2FA
330
1F
100
AcDbEntity
  8
Ｓ_１_１
  6
CONTINUOUS
 62
     3
100
AcDbCircle
 10
830.000009
 20
582.86226900001
 30
0.0
 40
8.999999915700016
100
AcDbArc
 50
156.0835974972827
 51
203.9164025027173
  0
ARC
  5
2FB
330
1F
100
AcDbEntity
  8
Ｓ_１_１
  6
CONTINUOUS
 62
     3
100
AcDbCircle
 10
830.000009
 20
582.86226900001
 30
0.0
 40
8.999999915700016
100
AcDbArc
 50
216.0835974972828
 51
263.9164025027172
  0
ARC
  5
2FC
330
1F
100
AcDbEntity
  8
Ｓ_１_１
  6
CONTINUOUS
 62
     3
100
AcDbCircle
 10
830.000009
 20
582.86226900001
 30
0.0
 40
8.999999915700016
100
AcDbArc
 50
276.0835974972829
 51
323.9164025027172
  0
ARC
  5
2FD
330
1F
100
AcDbEntity
  8
Ｓ_１_１
  6
CONTINUOUS
 62
     3
100
AcDbCircle
 10
830.000009
 20
582.86226900001
 30
0.0
 40
8.999999915700016
100
AcDbArc
 50
336.0835974972827
 51
23.91640250271736
  0
ARC
  5
2FE
330
1F
100
AcDbEntity
  8
Ｓ_１_１
  6
CONTINUOUS
 62
     3
100
AcDbCircle
 10
830.000009
 20
582.86226900001
 30
0.0
 40
8.999999915700016
100
AcDbArc
 50
36.08359749728283
 51
83.91640250271715
  0
CIRCLE
  5
2FF
330
1F
100
AcDbEntity
  8
Ｓ_１_１
  6
CONTINUOUS
 62
     3
100
AcDbCircle
 10
830.000009
 20
582.86226900001
 30
0.0
 40
5.0
  0
CIRCLE
  5
300
330
1F
100
AcDbEntity
  8
Ｓ_１_１
  6
CONTINUOUS
 62
     3
100
AcDbCircle
 10
830.000009
 20
582.86226900001
 30
0.0
 40
4.25
  0
LINE
  5
301
330
1F
100
AcDbEntity
  8
Ｓ_１_１
  6
EXLTYPE2
 62
     1
100
AcDbLine
 10
843.000009
 20
582.8622690000091
 30
0.0
 11
817.000009
 21
582.8622690000091
 31
0.0
  0
POLYLINE
  5
302
330
1F
100
AcDbEntity
  8
Ｓ_１_１
  6
CONTINUOUS
 62
     3
100
AcDb2dPolyline
 66
     1
 10
0.0
 20
0.0
 30
0.0
 70
   128
  0
VERTEX
  5
303
330
302
100
AcDbEntity
  8
Ｓ_１_１
  6
CONTINUOUS
 62
     3
100
AcDbVertex
100
AcDb2dVertex
 10
830.000009
 20
585.7490203459581
 30
0.0
  0
VERTEX
  5
304
330
302
100
AcDbEntity
  8
Ｓ_１_１
  6
CONTINUOUS
 62
     3
100
AcDbVertex
100
AcDb2dVertex
 10
827.500009
 20
584.305644672984
 30
0.0
  0
VERTEX
  5
305
330
302
100
AcDbEntity
  8
Ｓ_１_１
  6
CONTINUOUS
 62
     3
100
AcDbVertex
100
AcDb2dVertex
 10
827.500009
 20
581.4188933270359
 30
0.0
  0
VERTEX
  5
306
330
302
100
AcDbEntity
  8
Ｓ_１_１
  6
CONTINUOUS
 62
     3
100
AcDbVertex
100
AcDb2dVertex
 10
830.000009
 20
579.9755176540618
 30
0.0
  0
VERTEX
  5
307
330
302
100
AcDbEntity
  8
Ｓ_１_１
  6
CONTINUOUS
 62
     3
100
AcDbVertex
100
AcDb2dVertex
 10
832.500009
 20
581.4188933270359
 30
0.0
  0
VERTEX
  5
308
330
302
100
AcDbEntity
  8
Ｓ_１_１
  6
CONTINUOUS
 62
     3
100
AcDbVertex
100
AcDb2dVertex
 10
832.500009
 20
584.305644672984
 30
0.0
  0
VERTEX
  5
309
330
302
100
AcDbEntity
  8
Ｓ_１_１
  6
CONTINUOUS
 62
     3
100
AcDbVertex
100
AcDb2dVertex
 10
830.000009
 20
585.7490203459581
 30
0.0
  0
SEQEND
  5
30A
330
302
100
AcDbEntity
  8
Ｓ_１_１
  6
CONTINUOUS
 62
     3
  0
ENDSEC
  0
SECTION
  2
OBJECTS
  0
DICTIONARY
  5
C
330
0
100
AcDbDictionary
  3
ACAD_GROUP
350
D
  3
ACAD_LAYOUT
350
1A
  3
ACAD_MATERIAL
350
43
  3
ACAD_MLEADERSTYLE
350
6B
  3
ACAD_MLINESTYLE
350
17
  3
ACAD_PLOTSETTINGS
350
19
  3
ACAD_SCALELIST
350
47
  3
ACAD_VISUALSTYLE
350
2A
  3
ACDBHEADERROUNDTRIPXREC
350
30B
  3
ACDBVARIABLEDICTIONARY
350
32C
  0
DICTIONARY
  5
337
330
8
100
AcDbDictionary
280
     1
  3
ACAD_XREC_ROUNDTRIP
360
338
  0
DICTIONARY
  5
D
102
{ACAD_REACTORS
330
C
102
}
330
C
100
AcDbDictionary
  0
DICTIONARY
  5
1A
102
{ACAD_REACTORS
330
C
102
}
330
C
100
AcDbDictionary
  0
DICTIONARY
  5
43
102
{ACAD_REACTORS
330
C
102
}
330
C
100
AcDbDictionary
  3
BYBLOCK
350
45
  3
BYLAYER
350
44
  3
GLOBAL
350
46
  0
DICTIONARY
  5
6B
102
{ACAD_REACTORS
330
C
102
}
330
C
100
AcDbDictionary
  3
STANDARD
350
6C
  0
DICTIONARY
  5
17
102
{ACAD_REACTORS
330
C
102
}
330
C
100
AcDbDictionary
  3
STANDARD
350
18
  0
DICTIONARY
  5
19
102
{ACAD_REACTORS
330
C
102
}
330
C
100
AcDbDictionary
  0
DICTIONARY
  5
47
102
{ACAD_REACTORS
330
C
102
}
330
C
100
AcDbDictionary
  3
A0
350
48
  3
A1
350
49
  3
A2
350
4A
  3
A3
350
4B
  3
A4
350
4C
  3
A5
350
4D
  3
A6
350
4E
  3
A7
350
4F
  3
A8
350
50
  3
A9
350
51
  3
B0
350
52
  3
B1
350
53
  3
B2
350
54
  3
B3
350
55
  3
B4
350
56
  3
B5
350
57
  3
B6
350
58
  3
B7
350
59
  3
B8
350
5A
  3
B9
350
5B
  3
C0
350
5C
  3
C1
350
5D
  3
C2
350
5E
  3
C3
350
5F
  3
C4
350
60
  3
C5
350
61
  3
C6
350
62
  3
C7
350
63
  3
C8
350
64
  3
C9
350
65
  3
D0
350
66
  3
D1
350
67
  3
D2
350
68
  0
DICTIONARY
  5
2A
102
{ACAD_REACTORS
330
C
102
}
330
C
100
AcDbDictionary
  3
2DWIREFRAME
350
2F
  3
BASIC
350
32
  3
BRIGHTEN
350
36
  3
COLORCHANGE
350
3A
  3
CONCEPTUAL
350
34
  3
DIM
350
35
  3
EDGECOLOROFF
350
3D
  3
FACEPATTERN
350
39
  3
FLAT
350
2B
  3
FLATWITHEDGES
350
2C
  3
GOURAUD
350
2D
  3
GOURAUDWITHEDGES
350
2E
  3
HIDDEN
350
31
  3
JITTEROFF
350
3B
  3
LINEPATTERN
350
38
  3
OVERHANGOFF
350
3C
  3
REALISTIC
350
33
  3
SHADED
350
42
  3
SHADED_WITH_EDGES
350
41
  3
SHADES_OF_GRAY
350
3E
  3
SKETCHY
350
3F
  3
THICKEN
350
37
  3
WIREFRAME
350
30
  3
X-RAY
350
40
  0
DICTIONARY
  5
30B
102
{ACAD_REACTORS
330
C
102
}
330
C
100
AcDbDictionary
  3
CEPSNID
350
315
  3
CEPSNTYPE
350
314
  3
DIMSTYLEDATA
350
32B
  3
FINGERPRINTGUID
350
316
  3
HYPERLINKBASE
350
30E
  3
INSUNITS
350
313
  3
LAYOUTDICT
350
310
  3
LWETCUNION
350
312
  3
PLOTSETDICT
350
311
  3
PSVPSCALE
350
318
  3
PUCSBASE
350
31B
  3
PUCSORGBACK
350
321
  3
PUCSORGBOTTOM
350
31D
  3
PUCSORGFRONT
350
320
  3
PUCSORGLEFT
350
31E
  3
PUCSORGRIGHT
350
31F
  3
PUCSORGTOP
350
31C
  3
PUCSORTHOREF
350
319
  3
PUCSORTHOVIEW
350
31A
  3
STYLESHEET
350
30F
  3
TSTACKALIGN
350
30C
  3
TSTACKSIZE
350
30D
  3
UCSBASE
350
324
  3
UCSORGBACK
350
32A
  3
UCSORGBOTTOM
350
326
  3
UCSORGFRONT
350
329
  3
UCSORGLEFT
350
327
  3
UCSORGRIGHT
350
328
  3
UCSORGTOP
350
325
  3
UCSORTHOREF
350
322
  3
UCSORTHOVIEW
350
323
  3
VERSIONGUID
350
317
  0
DICTIONARY
  5
32C
102
{ACAD_REACTORS
330
C
102
}
330
C
100
AcDbDictionary
  3
CANNOSCALE
350
339
  3
CENTEREXE
350
333
  3
CENTERLTYPEFILE
350
334
  3
CMLEADERSTYLE
350
32E
  3
CTABLESTYLE
350
32D
  3
DIMASSOC
350
335
  3
HIDETEXT
350
336
  3
MSLTSCALE
350
33A
  3
PSOLHEIGHT
350
330
  3
PSOLWIDTH
350
32F
  0
XRECORD
  5
338
102
{ACAD_REACTORS
330
337
102
}
330
337
100
AcDbXrecord
102
VTR_0.000_0.000_1.000_1.000_VISUALSTYLE
340
2F
102
VTR_0.000_0.000_1.000_1.000_GRIDDISPLAY
 70
     3
102
VTR_0.000_0.000_1.000_1.000_GRIDMAJOR
 70
     5
102
VTR_0.000_0.000_1.000_1.000_DEFAULTLIGHTING
280
     1
102
VTR_0.000_0.000_1.000_1.000_DEFAULTLIGHTINGTYPE
 70
     1
102
VTR_0.000_0.000_1.000_1.000_BRIGHTNESS
141
0.0
102
VTR_0.000_0.000_1.000_1.000_CONTRAST
142
0.0
  0
MATERIAL
  5
45
102
{ACAD_REACTORS
330
43
102
}
102
{ACAD_XDICTIONARY
360
33D
102
}
330
43
100
AcDbMaterial
  1
BYBLOCK
  0
MATERIAL
  5
44
102
{ACAD_REACTORS
330
43
102
}
102
{ACAD_XDICTIONARY
360
33B
102
}
330
43
100
AcDbMaterial
  1
BYLAYER
  0
MATERIAL
  5
46
102
{ACAD_REACTORS
330
43
102
}
102
{ACAD_XDICTIONARY
360
33F
102
}
330
43
100
AcDbMaterial
  1
GLOBAL
  0
ACAD_PROXY_OBJECT
  5
6C
102
{ACAD_REACTORS
330
6B
102
}
330
6B
100
AcDbProxyObject
 90
      499
 91
      505
 93
      610
310
40901902A4063FBFFFFFE0000000000000020400000000000020404214DD185B99185C990000000000000104090141901A00000000000004100000000000000041025764000000000000039000
340
14
340
0
340
11
340
0
 94
        0
1001
ACAD_MLEADERVER
1070
     2
  0
MLINESTYLE
  5
18
102
{ACAD_REACTORS
330
17
102
}
330
17
100
AcDbMlineStyle
  2
Standard
 70
     0
  3

 62
   256
 51
90.0
 52
90.0
 71
     2
 49
0.5
 62
   256
  6
BYLAYER
 49
-0.5
 62
   256
  6
BYLAYER
  0
ACAD_PROXY_OBJECT
  5
48
102
{ACAD_REACTORS
330
47
102
}
330
47
100
AcDbProxyObject
 90
      499
 91
      503
 93
       41
310
903313A31580
  0
ACAD_PROXY_OBJECT
  5
49
102
{ACAD_REACTORS
330
47
102
}
330
47
100
AcDbProxyObject
 90
      499
 91
      503
 93
      105
310
903313A324000000000000004000
  0
ACAD_PROXY_OBJECT
  5
4A
102
{ACAD_REACTORS
330
47
102
}
330
47
100
AcDbProxyObject
 90
      499
 91
      503
 93
      105
310
903313A344000000000000104000
  0
ACAD_PROXY_OBJECT
  5
4B
102
{ACAD_REACTORS
330
47
102
}
330
47
100
AcDbProxyObject
 90
      499
 91
      503
 93
      105
310
903313A354000000000000144000
  0
ACAD_PROXY_OBJECT
  5
4C
102
{ACAD_REACTORS
330
47
102
}
330
47
100
AcDbProxyObject
 90
      499
 91
      503
 93
      105
310
903313A384000000000000204000
  0
ACAD_PROXY_OBJECT
  5
4D
102
{ACAD_REACTORS
330
47
102
}
330
47
100
AcDbProxyObject
 90
      499
 91
      503
 93
      113
310
904313A31304000000000000244000
  0
ACAD_PROXY_OBJECT
  5
4E
102
{ACAD_REACTORS
330
47
102
}
330
47
100
AcDbProxyObject
 90
      499
 91
      503
 93
      113
310
904313A31364000000000000304000
  0
ACAD_PROXY_OBJECT
  5
4F
102
{ACAD_REACTORS
330
47
102
}
330
47
100
AcDbProxyObject
 90
      499
 91
      503
 93
      113
310
904313A32304000000000000344000
  0
ACAD_PROXY_OBJECT
  5
50
102
{ACAD_REACTORS
330
47
102
}
330
47
100
AcDbProxyObject
 90
      499
 91
      503
 93
      113
310
904313A333040000000000003E4000
  0
ACAD_PROXY_OBJECT
  5
51
102
{ACAD_REACTORS
330
47
102
}
330
47
100
AcDbProxyObject
 90
      499
 91
      503
 93
      113
310
904313A34304000000000000444000
  0
ACAD_PROXY_OBJECT
  5
52
102
{ACAD_REACTORS
330
47
102
}
330
47
100
AcDbProxyObject
 90
      499
 91
      503
 93
      113
310
904313A35304000000000000494000
  0
ACAD_PROXY_OBJECT
  5
53
102
{ACAD_REACTORS
330
47
102
}
330
47
100
AcDbProxyObject
 90
      499
 91
      503
 93
      121
310
905313A3130304000000000000594000
  0
ACAD_PROXY_OBJECT
  5
54
102
{ACAD_REACTORS
330
47
102
}
330
47
100
AcDbProxyObject
 90
      499
 91
      503
 93
      105
310
903323A310000000000000010100
  0
ACAD_PROXY_OBJECT
  5
55
102
{ACAD_REACTORS
330
47
102
}
330
47
100
AcDbProxyObject
 90
      499
 91
      503
 93
      105
310
903343A310000000000000410100
  0
ACAD_PROXY_OBJECT
  5
56
102
{ACAD_REACTORS
330
47
102
}
330
47
100
AcDbProxyObject
 90
      499
 91
      503
 93
      105
310
903383A310000000000000810100
  0
ACAD_PROXY_OBJECT
  5
57
102
{ACAD_REACTORS
330
47
102
}
330
47
100
AcDbProxyObject
 90
      499
 91
      503
 93
      113
310
90431303A310000000000000910100
  0
ACAD_PROXY_OBJECT
  5
58
102
{ACAD_REACTORS
330
47
102
}
330
47
100
AcDbProxyObject
 90
      499
 91
      503
 93
      121
310
9053130303A310000000000001650100
  0
ACAD_PROXY_OBJECT
  5
59
102
{ACAD_REACTORS
330
47
102
}
330
47
100
AcDbProxyObject
 90
      499
 91
      503
 93
      257
310
90E312F31323822203D2031272D3022000000000000200FC000000000000284000
  0
ACAD_PROXY_OBJECT
  5
5A
102
{ACAD_REACTORS
330
47
102
}
330
47
100
AcDbProxyObject
 90
      499
 91
      503
 93
      249
310
90D312F363422203D2031272D3022000000000000240FC000000000000284000
  0
ACAD_PROXY_OBJECT
  5
5B
102
{ACAD_REACTORS
330
47
102
}
330
47
100
AcDbProxyObject
 90
      499
 91
      503
 93
      249
310
90D312F333222203D2031272D3022000000000000280FC000000000000284000
  0
ACAD_PROXY_OBJECT
  5
5C
102
{ACAD_REACTORS
330
47
102
}
330
47
100
AcDbProxyObject
 90
      499
 91
      503
 93
      249
310
90D312F313622203D2031272D30220000000000002C0FC000000000000284000
  0
ACAD_PROXY_OBJECT
  5
5D
102
{ACAD_REACTORS
330
47
102
}
330
47
100
AcDbProxyObject
 90
      499
 91
      503
 93
      249
310
90D332F333222203D2031272D30220000000000002E0FC000000000000284000
  0
ACAD_PROXY_OBJECT
  5
5E
102
{ACAD_REACTORS
330
47
102
}
330
47
100
AcDbProxyObject
 90
      499
 91
      503
 93
      241
310
90C312F3822203D2031272D3022000000000000300FC000000000000284000
  0
ACAD_PROXY_OBJECT
  5
5F
102
{ACAD_REACTORS
330
47
102
}
330
47
100
AcDbProxyObject
 90
      499
 91
      503
 93
      249
310
90D332F313622203D2031272D3022000000000000320FC000000000000284000
  0
ACAD_PROXY_OBJECT
  5
60
102
{ACAD_REACTORS
330
47
102
}
330
47
100
AcDbProxyObject
 90
      499
 91
      503
 93
      241
310
90C312F3422203D2031272D3022000000000000340FC000000000000284000
  0
ACAD_PROXY_OBJECT
  5
61
102
{ACAD_REACTORS
330
47
102
}
330
47
100
AcDbProxyObject
 90
      499
 91
      503
 93
      241
310
90C332F3822203D2031272D3022000000000000360FC000000000000284000
  0
ACAD_PROXY_OBJECT
  5
62
102
{ACAD_REACTORS
330
47
102
}
330
47
100
AcDbProxyObject
 90
      499
 91
      503
 93
      241
310
90C312F3222203D2031272D3022000000000000380FC000000000000284000
  0
ACAD_PROXY_OBJECT
  5
63
102
{ACAD_REACTORS
330
47
102
}
330
47
100
AcDbProxyObject
 90
      499
 91
      503
 93
      241
310
90C332F3422203D2031272D30220000000000003A0FC000000000000284000
  0
ACAD_PROXY_OBJECT
  5
64
102
{ACAD_REACTORS
330
47
102
}
330
47
100
AcDbProxyObject
 90
      499
 91
      503
 93
      161
310
90A3122203D2031272D30224000000000000284000
  0
ACAD_PROXY_OBJECT
  5
65
102
{ACAD_REACTORS
330
47
102
}
330
47
100
AcDbProxyObject
 90
      499
 91
      503
 93
      257
310
90E312D312F3222203D2031272D30220000000000003E0FC000000000000284000
  0
ACAD_PROXY_OBJECT
  5
66
102
{ACAD_REACTORS
330
47
102
}
330
47
100
AcDbProxyObject
 90
      499
 91
      503
 93
      225
310
90A3322203D2031272D302200000000000002100000000000000284000
  0
ACAD_PROXY_OBJECT
  5
67
102
{ACAD_REACTORS
330
47
102
}
330
47
100
AcDbProxyObject
 90
      499
 91
      503
 93
      225
310
90A3622203D2031272D302200000000000006100000000000000284000
  0
ACAD_PROXY_OBJECT
  5
68
102
{ACAD_REACTORS
330
47
102
}
330
47
100
AcDbProxyObject
 90
      499
 91
      503
 93
      249
310
90D31272D3022203D2031272D30220000000000000A100000000000000284000
  0
ACAD_PROXY_OBJECT
  5
2F
102
{ACAD_REACTORS
330
2A
102
}
330
2A
100
AcDbProxyObject
 90
      499
 91
      501
 93
      436
310
42CC9915DA5C99599C985B595049028333333333333E33F0000000000000F90107901411070040501600405405064090741402480A0340
1001
ACAD
1000
AcDbSavedByObjectVersion
1070
     0
  0
ACAD_PROXY_OBJECT
  5
32
102
{ACAD_REACTORS
330
2A
102
}
330
2A
100
AcDbProxyObject
 90
      499
 91
      501
 93
      388
310
4150985CDA58D07406404333333333333E33F0000000000000F90107A41107004050150841D405064090741402480A0350
1001
ACAD
1000
AcDbSavedByObjectVersion
1070
     0
  0
ACAD_PROXY_OBJECT
  5
36
102
{ACAD_REACTORS
330
2A
102
}
330
2A
100
AcDbProxyObject
 90
      499
 91
      501
 93
      428
310
42109C9A59DA1D195B90C409028333333333333E33F0000000000000F9010790141107004050150841D405064090741402480A029950
1001
ACAD
1000
AcDbSavedByObjectVersion
1070
     0
  0
ACAD_PROXY_OBJECT
  5
3A
102
{ACAD_REACTORS
330
2A
102
}
330
2A
100
AcDbProxyObject
 90
      499
 91
      501
 93
      452
310
42D0DBDB1BDC90DA185B99D95104090240C333333333333E33F0000000000000F90108901411070040501508421405064090741402480A0350
1001
ACAD
1000
AcDbSavedByObjectVersion
1070
     0
  0
ACAD_PROXY_OBJECT
  5
34
102
{ACAD_REACTORS
330
2A
102
}
330
2A
100
AcDbProxyObject
 90
      499
 91
      501
 93
      500
310
4290DBDB98D95C1D1D585B10940D028333333333333E33F0000000000000F90107902409070040501000000000018199010841D405064090740C02480A0340
1001
ACAD
1000
AcDbSavedByObjectVersion
1070
     0
  0
ACAD_PROXY_OBJECT
  5
35
102
{ACAD_REACTORS
330
2A
102
}
330
2A
100
AcDbProxyObject
 90
      499
 91
      501
 93
      412
310
40D11A5B50B409028333333333333E33F0000000000000F9010790141107004050150841D405064090741402480A02677FFFFFD0
1001
ACAD
1000
AcDbSavedByObjectVersion
1070
     0
  0
ACAD_PROXY_OBJECT
  5
3D
102
{ACAD_REACTORS
330
2A
102
}
330
2A
100
AcDbProxyObject
 90
      499
 91
      501
 93
      452
310
43115919D950DBDB1BDC93D999916409028333333333333E33F0000000000000F9010790141107004050150841D405064090741402480A0350
1001
ACAD
1000
AcDbSavedByObjectVersion
1070
     0
  0
ACAD_PROXY_OBJECT
  5
39
102
{ACAD_REACTORS
330
2A
102
}
330
2A
100
AcDbProxyObject
 90
      499
 91
      501
 93
      444
310
42D19858D95C185D1D195C9B90F409028333333333333E33F0000000000000F9010790141107004050150841D405064090741402480A0350
1001
ACAD
1000
AcDbSavedByObjectVersion
1070
     0
  0
ACAD_PROXY_OBJECT
  5
2B
102
{ACAD_REACTORS
330
2A
102
}
330
2A
100
AcDbProxyObject
 90
      499
 91
      501
 93
      380
310
41119B185D240901404333333333333E33F0000000000000F9010740A907004050150841D405064090741402480A1B50
1001
ACAD
1000
AcDbSavedByObjectVersion
1070
     0
  0
ACAD_PROXY_OBJECT
  5
2C
102
{ACAD_REACTORS
330
2A
102
}
330
2A
100
AcDbProxyObject
 90
      499
 91
      501
 93
      468
310
43519B185D15DA5D1A115919D95CD0140901404333333333333E33F0000000000000F90107409019070040501600405405064090741402480A1B50
1001
ACAD
1000
AcDbSavedByObjectVersion
1070
     0
  0
ACAD_PROXY_OBJECT
  5
2D
102
{ACAD_REACTORS
330
2A
102
}
330
2A
100
AcDbProxyObject
 90
      499
 91
      501
 93
      404
310
41D1DBDD5C985D5910240902404333333333333E33F0000000000000F9010740A9070040501641D405064090741402480A1B50
1001
ACAD
1000
AcDbSavedByObjectVersion
1070
     0
  0
ACAD_PROXY_OBJECT
  5
2E
102
{ACAD_REACTORS
330
2A
102
}
330
2A
100
AcDbProxyObject
 90
      499
 91
      501
 93
      492
310
4411DBDD5C985D5915DA5D1A115919D95CD0340902404333333333333E33F0000000000000F90107409019070040501600405405064090741402480A1B50
1001
ACAD
1000
AcDbSavedByObjectVersion
1070
     0
  0
ACAD_PROXY_OBJECT
  5
31
102
{ACAD_REACTORS
330
2A
102
}
330
2A
100
AcDbProxyObject
 90
      499
 91
      501
 93
      476
310
41921A5919195B90640502408333333333333E33F0000000000000F901079024090700405020000000000001110200405405064090740C02480A0340
1001
ACAD
1000
AcDbSavedByObjectVersion
1070
     0
  0
ACAD_PROXY_OBJECT
  5
3B
102
{ACAD_REACTORS
330
2A
102
}
330
2A
100
AcDbProxyObject
 90
      499
 91
      501
 93
      428
310
42529A5D1D195C93D999914409028333333333333E33F0000000000000F9010790141107004050150A41D405064090741402480A0350
1001
ACAD
1000
AcDbSavedByObjectVersion
1070
     0
  0
ACAD_PROXY_OBJECT
  5
38
102
{ACAD_REACTORS
330
2A
102
}
330
2A
100
AcDbProxyObject
 90
      499
 91
      501
 93
      444
310
42D31A5B995C185D1D195C9B90E409028333333333333E33F0000000000000F9010790141107004050750841D405064090741402483A0350
1001
ACAD
1000
AcDbSavedByObjectVersion
1070
     0
  0
ACAD_PROXY_OBJECT
  5
3C
102
{ACAD_REACTORS
330
2A
102
}
330
2A
100
AcDbProxyObject
 90
      499
 91
      501
 93
      444
310
42D3DD995C9A185B99D3D999915409028333333333333E33F0000000000000F9010790141107004050150941D405064090741402480A0350
1001
ACAD
1000
AcDbSavedByObjectVersion
1070
     0
  0
ACAD_PROXY_OBJECT
  5
33
102
{ACAD_REACTORS
330
2A
102
}
330
2A
100
AcDbProxyObject
 90
      499
 91
      501
 93
      428
310
425499585B1A5CDD1A58D08409038333333333333E33F0000000000000F9010740A907004050150800405405064090740C02480A1B40
1001
ACAD
1000
AcDbSavedByObjectVersion
1070
     0
  0
ACAD_PROXY_OBJECT
  5
42
102
{ACAD_REACTORS
330
2A
102
}
330
2A
100
AcDbProxyObject
 90
      499
 91
      501
 93
      420
310
4194DA1859195911B40902404333333333333E33F0000000000000F9010740A41107004050150800405405064090840C02480A0B40
1001
ACAD
1000
AcDbSavedByObjectVersion
1070
     0
  0
ACAD_PROXY_OBJECT
  5
41
102
{ACAD_REACTORS
330
2A
102
}
330
2A
100
AcDbProxyObject
 90
      499
 91
      501
 93
      516
310
4454DA18591959081DDA5D1A08195919D95CD1A40902404333333333333E33F0000000000000F901074090142907004050250800405405064090740C02480A0B40
1001
ACAD
1000
AcDbSavedByObjectVersion
1070
     0
  0
ACAD_PROXY_OBJECT
  5
3E
102
{ACAD_REACTORS
330
2A
102
}
330
2A
100
AcDbProxyObject
 90
      499
 91
      501
 93
      532
310
4394DA1859195CC81BD98811DC985E5174090240C333333333333E33F0000000000000F901079024090741D01000000000000111010841D405064090740C02480A0340
1001
ACAD
1000
AcDbSavedByObjectVersion
1070
     0
  0
ACAD_PROXY_OBJECT
  5
3F
102
{ACAD_REACTORS
330
2A
102
}
330
2A
100
AcDbProxyObject
 90
      499
 91
      501
 93
      476
310
41D4DAD95D18DA1E51840502408333333333333E33F0000000000000F901079024090741D01000000000000111010B41D405064090741802480A0340
1001
ACAD
1000
AcDbSavedByObjectVersion
1070
     0
  0
ACAD_PROXY_OBJECT
  5
37
102
{ACAD_REACTORS
330
2A
102
}
330
2A
100
AcDbProxyObject
 90
      499
 91
      501
 93
      412
310
41D51A1A58DAD95B90D409028333333333333E33F0000000000000F9010790141107004050150C41D405064090741402480A0350
1001
ACAD
1000
AcDbSavedByObjectVersion
1070
     0
  0
ACAD_PROXY_OBJECT
  5
30
102
{ACAD_REACTORS
330
2A
102
}
330
2A
100
AcDbProxyObject
 90
      499
 91
      501
 93
      420
310
4255DA5C99599C985B595059028333333333333E33F0000000000000F90107901411070040501600405405064090740C02480A0340
1001
ACAD
1000
AcDbSavedByObjectVersion
1070
     0
  0
ACAD_PROXY_OBJECT
  5
40
102
{ACAD_REACTORS
330
2A
102
}
330
2A
100
AcDbProxyObject
 90
      499
 91
      501
 93
      404
310
41560B54985E51940902404000000000000E03F0000000000000F9010740501907004050150841D405064090740C02480A1B40
1001
ACAD
1000
AcDbSavedByObjectVersion
1070
     0
  0
XRECORD
  5
315
102
{ACAD_REACTORS
330
30B
102
}
330
30B
100
AcDbXrecord
340
0
  0
XRECORD
  5
314
102
{ACAD_REACTORS
330
30B
102
}
330
30B
100
AcDbXrecord
 90
        0
  0
XRECORD
  5
32B
102
{ACAD_REACTORS
330
30B
102
}
330
30B
100
AcDbXrecord
1000
DSTYLE
1002
{
1070
   340
340
11
1002
}
  0
XRECORD
  5
316
102
{ACAD_REACTORS
330
30B
102
}
330
30B
100
AcDbXrecord
  1
{c5eb37de-839f-4768-8e09-a2487c4d7bd4}
  0
XRECORD
  5
30E
102
{ACAD_REACTORS
330
30B
102
}
330
30B
100
AcDbXrecord
  1

  0
XRECORD
  5
313
102
{ACAD_REACTORS
330
30B
102
}
330
30B
100
AcDbXrecord
 90
        4
  0
XRECORD
  5
310
102
{ACAD_REACTORS
330
30B
102
}
330
30B
100
AcDbXrecord
340
1A
  0
XRECORD
  5
312
102
{ACAD_REACTORS
330
30B
102
}
330
30B
100
AcDbXrecord
 90
    10781
  0
XRECORD
  5
311
102
{ACAD_REACTORS
330
30B
102
}
330
30B
100
AcDbXrecord
340
19
  0
XRECORD
  5
318
102
{ACAD_REACTORS
330
30B
102
}
330
30B
100
AcDbXrecord
 40
0.0
  0
XRECORD
  5
31B
102
{ACAD_REACTORS
330
30B
102
}
330
30B
100
AcDbXrecord
340
0
  0
XRECORD
  5
321
102
{ACAD_REACTORS
330
30B
102
}
330
30B
100
AcDbXrecord
 10
0.0
 20
0.0
 30
0.0
  0
XRECORD
  5
31D
102
{ACAD_REACTORS
330
30B
102
}
330
30B
100
AcDbXrecord
 10
0.0
 20
0.0
 30
0.0
  0
XRECORD
  5
320
102
{ACAD_REACTORS
330
30B
102
}
330
30B
100
AcDbXrecord
 10
0.0
 20
0.0
 30
0.0
  0
XRECORD
  5
31E
102
{ACAD_REACTORS
330
30B
102
}
330
30B
100
AcDbXrecord
 10
0.0
 20
0.0
 30
0.0
  0
XRECORD
  5
31F
102
{ACAD_REACTORS
330
30B
102
}
330
30B
100
AcDbXrecord
 10
0.0
 20
0.0
 30
0.0
  0
XRECORD
  5
31C
102
{ACAD_REACTORS
330
30B
102
}
330
30B
100
AcDbXrecord
 10
0.0
 20
0.0
 30
0.0
  0
XRECORD
  5
319
102
{ACAD_REACTORS
330
30B
102
}
330
30B
100
AcDbXrecord
340
0
  0
XRECORD
  5
31A
102
{ACAD_REACTORS
330
30B
102
}
330
30B
100
AcDbXrecord
 70
     0
  0
XRECORD
  5
30F
102
{ACAD_REACTORS
330
30B
102
}
330
30B
100
AcDbXrecord
  1

  0
XRECORD
  5
30C
102
{ACAD_REACTORS
330
30B
102
}
330
30B
100
AcDbXrecord
 90
        1
  0
XRECORD
  5
30D
102
{ACAD_REACTORS
330
30B
102
}
330
30B
100
AcDbXrecord
 90
       70
  0
XRECORD
  5
324
102
{ACAD_REACTORS
330
30B
102
}
330
30B
100
AcDbXrecord
340
0
  0
XRECORD
  5
32A
102
{ACAD_REACTORS
330
30B
102
}
330
30B
100
AcDbXrecord
 10
0.0
 20
0.0
 30
0.0
  0
XRECORD
  5
326
102
{ACAD_REACTORS
330
30B
102
}
330
30B
100
AcDbXrecord
 10
0.0
 20
0.0
 30
0.0
  0
XRECORD
  5
329
102
{ACAD_REACTORS
330
30B
102
}
330
30B
100
AcDbXrecord
 10
0.0
 20
0.0
 30
0.0
  0
XRECORD
  5
327
102
{ACAD_REACTORS
330
30B
102
}
330
30B
100
AcDbXrecord
 10
0.0
 20
0.0
 30
0.0
  0
XRECORD
  5
328
102
{ACAD_REACTORS
330
30B
102
}
330
30B
100
AcDbXrecord
 10
0.0
 20
0.0
 30
0.0
  0
XRECORD
  5
325
102
{ACAD_REACTORS
330
30B
102
}
330
30B
100
AcDbXrecord
 10
0.0
 20
0.0
 30
0.0
  0
XRECORD
  5
322
102
{ACAD_REACTORS
330
30B
102
}
330
30B
100
AcDbXrecord
340
0
  0
XRECORD
  5
323
102
{ACAD_REACTORS
330
30B
102
}
330
30B
100
AcDbXrecord
 70
     0
  0
XRECORD
  5
317
102
{ACAD_REACTORS
330
30B
102
}
330
30B
100
AcDbXrecord
  1
{FAEB1C32-E019-11D5-929B-00C0DF256EC4}
  0
DICTIONARYVAR
  5
339
102
{ACAD_REACTORS
330
32C
102
}
330
32C
100
DictionaryVariables
280
     0
  1
1:1
  0
DICTIONARYVAR
  5
333
102
{ACAD_REACTORS
330
32C
102
}
330
32C
100
DictionaryVariables
280
     0
  1
3.500000
  0
DICTIONARYVAR
  5
334
102
{ACAD_REACTORS
330
32C
102
}
330
32C
100
DictionaryVariables
280
     0
  1
acadiso.lin
  0
DICTIONARYVAR
  5
32E
102
{ACAD_REACTORS
330
32C
102
}
330
32C
100
DictionaryVariables
280
     0
  1
Standard
  0
DICTIONARYVAR
  5
32D
102
{ACAD_REACTORS
330
32C
102
}
330
32C
100
DictionaryVariables
280
     0
  1
Standard
  0
DICTIONARYVAR
  5
335
102
{ACAD_REACTORS
330
32C
102
}
330
32C
100
DictionaryVariables
280
     0
  1
2
  0
DICTIONARYVAR
  5
336
102
{ACAD_REACTORS
330
32C
102
}
330
32C
100
DictionaryVariables
280
     0
  1
1
  0
DICTIONARYVAR
  5
33A
102
{ACAD_REACTORS
330
32C
102
}
330
32C
100
DictionaryVariables
280
     0
  1
1
  0
DICTIONARYVAR
  5
330
102
{ACAD_REACTORS
330
32C
102
}
330
32C
100
DictionaryVariables
280
     0
  1
80.000000
  0
DICTIONARYVAR
  5
32F
102
{ACAD_REACTORS
330
32C
102
}
330
32C
100
DictionaryVariables
280
     0
  1
5.000000
  0
DICTIONARY
  5
33D
330
45
100
AcDbDictionary
280
     1
  3
ACAD_XREC_ROUNDTRIP
360
33E
  0
DICTIONARY
  5
33B
330
44
100
AcDbDictionary
280
     1
  3
ACAD_XREC_ROUNDTRIP
360
33C
  0
DICTIONARY
  5
33F
330
46
100
AcDbDictionary
280
     1
  3
ACAD_XREC_ROUNDTRIP
360
340
  0
XRECORD
  5
33E
102
{ACAD_REACTORS
330
33D
102
}
330
33D
100
AcDbXrecord
102
MATERIAL
148
0.0
149
0.0
149
0.0
 93
        0
 94
      127
282
     0
 72
     1
 77
     1
171
     1
175
     1
179
     1
273
     0
  0
XRECORD
  5
33C
102
{ACAD_REACTORS
330
33B
102
}
330
33B
100
AcDbXrecord
102
MATERIAL
148
0.0
149
0.0
149
0.0
 93
        0
 94
      127
282
     0
 72
     1
 77
     1
171
     1
175
     1
179
     1
273
     0
  0
XRECORD
  5
340
102
{ACAD_REACTORS
330
33F
102
}
330
33F
100
AcDbXrecord
102
MATERIAL
148
0.0
149
0.0
149
0.0
 93
        0
 94
      127
282
     0
 72
     1
 77
     1
171
     1
175
     1
179
     1
273
     0
  0
ENDSEC
  0
EOF
