  0
SECTION
  2
HEADER
  9
$ACADVER
  1
AC1014
  9
$ACADMAINTVER
 70
     9
  9
$DWGCODEPAGE
  3
ANSI_932
  9
$INSBASE
 10
0.0
 20
0.0
 30
0.0
  9
$EXTMIN
 10
75.0
 20
75.0
 30
0.0
  9
$EXTMAX
 10
3075.0
 20
2152.5
 30
0.0
  9
$LIMMIN
 10
0.0
 20
0.0
  9
$LIMMAX
 10
420.0
 20
297.0
  9
$ORTHOMODE
 70
     0
  9
$REGENMODE
 70
     1
  9
$FILLMODE
 70
     1
  9
$QTEXTMODE
 70
     0
  9
$MIRRTEXT
 70
     1
  9
$DRAGMODE
 70
     2
  9
$LTSCALE
 40
1.0
  9
$OSMODE
 70
    37
  9
$ATTMODE
 70
     1
  9
$TEXTSIZE
 40
2.5
  9
$TRACEWID
 40
1.0
  9
$TEXTSTYLE
  7
STANDARD
  9
$CLAYER
  8
Ｓ_１_１
  9
$CELTYPE
  6
BYLAYER
  9
$CECOLOR
 62
   256
  9
$CELTSCALE
 40
1.0
  9
$DELOBJ
 70
     1
  9
$DISPSILH
 70
     0
  9
$DIMSCALE
 40
1.0
  9
$DIMASZ
 40
2.5
  9
$DIMEXO
 40
0.625
  9
$DIMDLI
 40
3.75
  9
$DIMRND
 40
0.0
  9
$DIMDLE
 40
0.0
  9
$DIMEXE
 40
1.25
  9
$DIMTP
 40
0.0
  9
$DIMTM
 40
0.0
  9
$DIMTXT
 40
2.5
  9
$DIMCEN
 40
2.5
  9
$DIMTSZ
 40
0.0
  9
$DIMTOL
 70
     0
  9
$DIMLIM
 70
     0
  9
$DIMTIH
 70
     0
  9
$DIMTOH
 70
     0
  9
$DIMSE1
 70
     0
  9
$DIMSE2
 70
     0
  9
$DIMTAD
 70
     1
  9
$DIMZIN
 70
     8
  9
$DIMBLK
  1

  9
$DIMASO
 70
     1
  9
$DIMSHO
 70
     1
  9
$DIMPOST
  1

  9
$DIMAPOST
  1

  9
$DIMALT
 70
     0
  9
$DIMALTD
 70
     3
  9
$DIMALTF
 40
0.03937007874016
  9
$DIMLFAC
 40
1.0
  9
$DIMTOFL
 70
     1
  9
$DIMTVP
 40
0.0
  9
$DIMTIX
 70
     0
  9
$DIMSOXD
 70
     0
  9
$DIMSAH
 70
     0
  9
$DIMBLK1
  1

  9
$DIMBLK2
  1

  9
$DIMSTYLE
  2
ISO-25
  9
$DIMCLRD
 70
     0
  9
$DIMCLRE
 70
     0
  9
$DIMCLRT
 70
     0
  9
$DIMTFAC
 40
1.0
  9
$DIMGAP
 40
0.625
  9
$DIMJUST
 70
     0
  9
$DIMSD1
 70
     0
  9
$DIMSD2
 70
     0
  9
$DIMTOLJ
 70
     0
  9
$DIMTZIN
 70
     8
  9
$DIMALTZ
 70
     0
  9
$DIMALTTZ
 70
     0
  9
$DIMFIT
 70
     3
  9
$DIMUPT
 70
     0
  9
$DIMUNIT
 70
     2
  9
$DIMDEC
 70
     2
  9
$DIMTDEC
 70
     2
  9
$DIMALTU
 70
     2
  9
$DIMALTTD
 70
     3
  9
$DIMTXSTY
  7
STANDARD
  9
$DIMAUNIT
 70
     0
  9
$LUNITS
 70
     2
  9
$LUPREC
 70
     4
  9
$SKETCHINC
 40
1.0
  9
$FILLETRAD
 40
10.0
  9
$AUNITS
 70
     0
  9
$AUPREC
 70
     0
  9
$MENU
  1
.
  9
$ELEVATION
 40
0.0
  9
$PELEVATION
 40
0.0
  9
$THICKNESS
 40
0.0
  9
$LIMCHECK
 70
     0
  9
$CHAMFERA
 40
0.0
  9
$CHAMFERB
 40
0.0
  9
$CHAMFERC
 40
0.0
  9
$CHAMFERD
 40
0.0
  9
$SKPOLY
 70
     0
  9
$TDCREATE
 40
2459591.543285799
  9
$TDUPDATE
 40
2459591.5432864
  9
$TDINDWG
 40
0.0000000116
  9
$TDUSRTIMER
 40
0.0000000116
  9
$USRTIMER
 70
     1
  9
$ANGBASE
 50
0.0
  9
$ANGDIR
 70
     0
  9
$PDMODE
 70
     0
  9
$PDSIZE
 40
0.0
  9
$PLINEWID
 40
0.0
  9
$COORDS
 70
     1
  9
$SPLFRAME
 70
     0
  9
$SPLINETYPE
 70
     6
  9
$SPLINESEGS
 70
     8
  9
$ATTDIA
 70
     0
  9
$ATTREQ
 70
     1
  9
$HANDLING
 70
     1
  9
$HANDSEED
  5
4F7
  9
$SURFTAB1
 70
     6
  9
$SURFTAB2
 70
     6
  9
$SURFTYPE
 70
     6
  9
$SURFU
 70
     6
  9
$SURFV
 70
     6
  9
$UCSNAME
  2

  9
$UCSORG
 10
0.0
 20
0.0
 30
0.0
  9
$UCSXDIR
 10
1.0
 20
0.0
 30
0.0
  9
$UCSYDIR
 10
0.0
 20
1.0
 30
0.0
  9
$PUCSNAME
  2

  9
$PUCSORG
 10
0.0
 20
0.0
 30
0.0
  9
$PUCSXDIR
 10
1.0
 20
0.0
 30
0.0
  9
$PUCSYDIR
 10
0.0
 20
1.0
 30
0.0
  9
$USERI1
 70
     0
  9
$USERI2
 70
     0
  9
$USERI3
 70
     0
  9
$USERI4
 70
     0
  9
$USERI5
 70
     0
  9
$USERR1
 40
0.0
  9
$USERR2
 40
0.0
  9
$USERR3
 40
0.0
  9
$USERR4
 40
0.0
  9
$USERR5
 40
0.0
  9
$WORLDVIEW
 70
     1
  9
$SHADEDGE
 70
     3
  9
$SHADEDIF
 70
    70
  9
$TILEMODE
 70
     1
  9
$MAXACTVP
 70
    64
  9
$PINSBASE
 10
0.0
 20
0.0
 30
0.0
  9
$PLIMCHECK
 70
     0
  9
$PEXTMIN
 10
1.000000000000000E+20
 20
1.000000000000000E+20
 30
1.000000000000000E+20
  9
$PEXTMAX
 10
-1.000000000000000E+20
 20
-1.000000000000000E+20
 30
-1.000000000000000E+20
  9
$PLIMMIN
 10
0.0
 20
0.0
  9
$PLIMMAX
 10
420.0
 20
297.0
  9
$UNITMODE
 70
     0
  9
$VISRETAIN
 70
     1
  9
$PLINEGEN
 70
     0
  9
$PSLTSCALE
 70
     1
  9
$TREEDEPTH
 70
  3020
  9
$PICKSTYLE
 70
     1
  9
$CMLSTYLE
  2
STANDARD
  9
$CMLJUST
 70
     0
  9
$CMLSCALE
 40
20.0
  9
$PROXYGRAPHICS
 70
     1
  9
$MEASUREMENT
 70
     1
  0
ENDSEC
  0
SECTION
  2
CLASSES
  0
CLASS
  1
ACDBDICTIONARYWDFLT
  2
AcDbDictionaryWithDefault
  3
ObjectDBX Classes
 90
        0
280
     0
281
     0
  0
CLASS
  1
VISUALSTYLE
  2
AcDbVisualStyle
  3
ObjectDBX Classes
 90
     4095
280
     0
281
     0
  0
CLASS
  1
MATERIAL
  2
AcDbMaterial
  3
ObjectDBX Classes
 90
     1153
280
     0
281
     0
  0
CLASS
  1
SCALE
  2
AcDbScale
  3
ObjectDBX Classes
 90
     1153
280
     0
281
     0
  0
CLASS
  1
TABLESTYLE
  2
AcDbTableStyle
  3
ObjectDBX Classes
 90
     4095
280
     0
281
     0
  0
CLASS
  1
MLEADERSTYLE
  2
AcDbMLeaderStyle
  3
ACDB_MLEADERSTYLE_CLASS
 90
     4095
280
     0
281
     0
  0
CLASS
  1
SUN
  2
AcDbSun
  3
SCENEOE
 90
     1153
280
     0
281
     0
  0
CLASS
  1
DICTIONARYVAR
  2
AcDbDictionaryVar
  3
ObjectDBX Classes
 90
        0
280
     0
281
     0
  0
CLASS
  1
XRECORD
  2
AcDbXrecord
  3
ObjectDBX Classes
 90
        0
280
     0
281
     0
  0
CLASS
  1
LWPOLYLINE
  2
AcDbPolyline
  3
ObjectDBX Classes
 90
        0
280
     0
281
     1
  0
CLASS
  1
HATCH
  2
AcDbHatch
  3
ObjectDBX Classes
 90
        0
280
     0
281
     1
  0
CLASS
  1
ACDBPLACEHOLDER
  2
AcDbPlaceHolder
  3
ObjectDBX Classes
 90
        0
280
     0
281
     0
  0
CLASS
  1
LAYOUT
  2
AcDbLayout
  3
ObjectDBX Classes
 90
        0
280
     0
281
     0
  0
ENDSEC
  0
SECTION
  2
TABLES
  0
TABLE
  2
VPORT
  5
8
102
{ACAD_XDICTIONARY
360
4EC
102
}
330
0
100
AcDbSymbolTable
 70
     1
  0
VPORT
  5
29
330
8
100
AcDbSymbolTableRecord
100
AcDbViewportTableRecord
  2
*ACTIVE
 70
     0
 10
0.0
 20
0.0
 11
1.0
 21
1.0
 12
1575.0
 22
1113.75
 13
0.0
 23
0.0
 14
10.0
 24
10.0
 15
10.0
 25
10.0
 16
0.0
 26
0.0
 36
1.0
 17
0.0
 27
0.0
 37
0.0
 40
2077.5
 41
1.444043321299639
 42
50.0
 43
0.0
 44
0.0
 50
0.0
 51
0.0
 71
     0
 72
  1000
 73
     1
 74
     3
 75
     0
 76
     0
 77
     0
 78
     0
  0
ENDTAB
  0
TABLE
  2
LTYPE
  5
5
330
0
100
AcDbSymbolTable
 70
     7
  0
LTYPE
  5
14
330
5
100
AcDbSymbolTableRecord
100
AcDbLinetypeTableRecord
  2
BYBLOCK
 70
     0
  3

 72
    65
 73
     0
 40
0.0
  0
LTYPE
  5
15
330
5
100
AcDbSymbolTableRecord
100
AcDbLinetypeTableRecord
  2
BYLAYER
 70
     0
  3

 72
    65
 73
     0
 40
0.0
  0
LTYPE
  5
16
330
5
100
AcDbSymbolTableRecord
100
AcDbLinetypeTableRecord
  2
CONTINUOUS
 70
     0
  3
Solid line
 72
    65
 73
     0
 40
0.0
  0
LTYPE
  5
6E
330
5
100
AcDbSymbolTableRecord
100
AcDbLinetypeTableRecord
  2
EXLTYPE0
 70
     0
  3
破線
 72
    65
 73
     2
 40
4.0
 49
3.0
 74
     0
 49
-1.0
 74
     0
  0
LTYPE
  5
6F
330
5
100
AcDbSymbolTableRecord
100
AcDbLinetypeTableRecord
  2
EXLTYPE1
 70
     0
  3
点線
 72
    65
 73
     2
 40
2.0
 49
1.0
 74
     0
 49
-1.0
 74
     0
  0
LTYPE
  5
70
330
5
100
AcDbSymbolTableRecord
100
AcDbLinetypeTableRecord
  2
EXLTYPE2
 70
     0
  3
一点鎖線
 72
    65
 73
     4
 40
13.0
 49
10.0
 74
     0
 49
-1.0
 74
     0
 49
1.0
 74
     0
 49
-1.0
 74
     0
  0
LTYPE
  5
71
330
5
100
AcDbSymbolTableRecord
100
AcDbLinetypeTableRecord
  2
EXLTYPE3
 70
     0
  3
二点鎖線
 72
    65
 73
     6
 40
15.0
 49
10.0
 74
     0
 49
-1.0
 74
     0
 49
1.0
 74
     0
 49
-1.0
 74
     0
 49
1.0
 74
     0
 49
-1.0
 74
     0
  0
LTYPE
  5
72
330
5
100
AcDbSymbolTableRecord
100
AcDbLinetypeTableRecord
  2
EXLTYPE4
 70
     0
  3
一点鎖線2
 72
    65
 73
     4
 40
3.5
 49
2.0
 74
     0
 49
-0.5
 74
     0
 49
0.5
 74
     0
 49
-0.5
 74
     0
  0
LTYPE
  5
73
330
5
100
AcDbSymbolTableRecord
100
AcDbLinetypeTableRecord
  2
EXLTYPE5
 70
     0
  3
二点鎖線2
 72
    65
 73
     6
 40
4.5
 49
2.0
 74
     0
 49
-0.5
 74
     0
 49
0.5
 74
     0
 49
-0.5
 74
     0
 49
0.5
 74
     0
 49
-0.5
 74
     0
  0
ENDTAB
  0
TABLE
  2
LAYER
  5
2
330
0
100
AcDbSymbolTable
 70
     4
  0
LAYER
  5
10
330
2
100
AcDbSymbolTableRecord
100
AcDbLayerTableRecord
  2
0
 70
     0
 62
     7
  6
CONTINUOUS
  0
LAYER
  5
76
330
2
100
AcDbSymbolTableRecord
100
AcDbLayerTableRecord
  2
図面枠
 70
     4
 62
     7
  6
CONTINUOUS
  0
LAYER
  5
77
330
2
100
AcDbSymbolTableRecord
100
AcDbLayerTableRecord
  2
Ｓ_１_１
 70
     0
 62
     7
  6
CONTINUOUS
  0
LAYER
  5
11D
330
2
100
AcDbSymbolTableRecord
100
AcDbLayerTableRecord
  2
DEFPOINTS
 70
     0
 62
     7
  6
CONTINUOUS
  0
ENDTAB
  0
TABLE
  2
STYLE
  5
3
330
0
100
AcDbSymbolTable
 70
     5
  0
STYLE
  5
11
330
3
100
AcDbSymbolTableRecord
100
AcDbTextStyleTableRecord
  2
STANDARD
 70
     0
 40
0.0
 41
1.0
 50
0.0
 71
     0
 42
2.5
  3
monotxt
  4
extfont
  0
STYLE
  5
74
330
3
100
AcDbSymbolTableRecord
100
AcDbTextStyleTableRecord
  2
EXCADSTD
 70
     0
 40
0.0
 41
1.0
 50
0.0
 71
     0
 42
2.5
  3
monotxt
  4
extfont
  0
STYLE
  5
75
330
3
100
AcDbSymbolTableRecord
100
AcDbTextStyleTableRecord
  2
EXCADVERT
 70
     4
 40
0.0
 41
1.0
 50
0.0
 71
     0
 42
2.5
  3
monotxt
  4
extfont
  0
STYLE
  5
D8
330
3
100
AcDbSymbolTableRecord
100
AcDbTextStyleTableRecord
  2
EXCADTTF1
 70
     0
 40
0.0
 41
1.0
 50
0.0
 71
     0
 42
2.5
  3
msgothic.ttc
  4

1001
ACAD
1000
MS Gothic
1071
    32817
  0
STYLE
  5
11B
330
3
100
AcDbSymbolTableRecord
100
AcDbTextStyleTableRecord
  2
EXCADDIM1
 70
     0
 40
0.0
 41
1.0
 50
0.0
 71
     0
 42
2.5
  3
msgothic.ttc
  4

1001
ACAD
1000
MS Gothic
1071
    32817
  0
ENDTAB
  0
TABLE
  2
VIEW
  5
6
330
0
100
AcDbSymbolTable
 70
     0
  0
ENDTAB
  0
TABLE
  2
UCS
  5
7
330
0
100
AcDbSymbolTable
 70
     0
  0
ENDTAB
  0
TABLE
  2
APPID
  5
9
330
0
100
AcDbSymbolTable
 70
     2
  0
APPID
  5
12
330
9
100
AcDbSymbolTableRecord
100
AcDbRegAppTableRecord
  2
ACAD
 70
     0
  0
APPID
  5
4F6
330
9
100
AcDbSymbolTableRecord
100
AcDbRegAppTableRecord
  2
ACAD_MLEADERVER
 70
     0
  0
ENDTAB
  0
TABLE
  2
DIMSTYLE
  5
A
330
0
100
AcDbSymbolTable
 70
     1
  0
DIMSTYLE
105
27
102
{ACAD_REACTORS
330
11C
330
129
330
135
330
142
330
14D
330
15B
330
167
330
174
330
181
330
18E
330
19B
330
1A8
330
1B7
330
4A5
330
4B0
102
}
330
A
100
AcDbSymbolTableRecord
100
AcDbDimStyleTableRecord
  2
ISO-25
 70
     0
  3

  4

  5

  6

  7

 40
1.0
 41
2.5
 42
0.625
 43
3.75
 44
1.25
 45
0.0
 46
0.0
 47
0.0
 48
0.0
140
2.5
141
2.5
142
0.0
143
0.03937007874016
144
1.0
145
0.0
146
1.0
147
0.625
 71
     0
 72
     0
 73
     0
 74
     0
 75
     0
 76
     0
 77
     1
 78
     8
170
     0
171
     3
172
     1
173
     0
174
     0
175
     0
176
     0
177
     0
178
     0
270
     2
271
     2
272
     2
273
     2
274
     3
340
11
275
     0
280
     0
281
     0
282
     0
283
     0
284
     8
285
     0
286
     0
287
     5
288
     0
  0
ENDTAB
  0
TABLE
  2
BLOCK_RECORD
  5
1
330
0
100
AcDbSymbolTable
 70
    29
  0
BLOCK_RECORD
  5
1F
330
1
100
AcDbSymbolTableRecord
100
AcDbBlockTableRecord
  2
*MODEL_SPACE
  0
BLOCK_RECORD
  5
1B
330
1
100
AcDbSymbolTableRecord
100
AcDbBlockTableRecord
  2
*PAPER_SPACE
  0
BLOCK_RECORD
  5
78
330
1
100
AcDbSymbolTableRecord
100
AcDbBlockTableRecord
  2
EX_NORM
  0
BLOCK_RECORD
  5
7B
330
1
100
AcDbSymbolTableRecord
100
AcDbBlockTableRecord
  2
EX_BNORM
  0
BLOCK_RECORD
  5
7E
330
1
100
AcDbSymbolTableRecord
100
AcDbBlockTableRecord
  2
EX_BCIR
  0
BLOCK_RECORD
  5
81
330
1
100
AcDbSymbolTableRecord
100
AcDbBlockTableRecord
  2
EX_RCIVIL
  0
BLOCK_RECORD
  5
84
330
1
100
AcDbSymbolTableRecord
100
AcDbBlockTableRecord
  2
EX_SLANT
  0
BLOCK_RECORD
  5
87
330
1
100
AcDbSymbolTableRecord
100
AcDbBlockTableRecord
  2
EX_NONE
  0
BLOCK_RECORD
  5
8A
330
1
100
AcDbSymbolTableRecord
100
AcDbBlockTableRecord
  2
EX_CIVIL
  0
BLOCK_RECORD
  5
8D
330
1
100
AcDbSymbolTableRecord
100
AcDbBlockTableRecord
  2
EX_WCIR
  0
BLOCK_RECORD
  5
90
330
1
100
AcDbSymbolTableRecord
100
AcDbBlockTableRecord
  2
EX_WCIR2
  0
BLOCK_RECORD
  5
93
330
1
100
AcDbSymbolTableRecord
100
AcDbBlockTableRecord
  2
EX_WNORM
  0
BLOCK_RECORD
  5
96
330
1
100
AcDbSymbolTableRecord
100
AcDbBlockTableRecord
  2
EX_NNORM
  0
BLOCK_RECORD
  5
99
330
1
100
AcDbSymbolTableRecord
100
AcDbBlockTableRecord
  2
EX_BBOX
  0
BLOCK_RECORD
  5
9C
330
1
100
AcDbSymbolTableRecord
100
AcDbBlockTableRecord
  2
EX_WBOX
  0
BLOCK_RECORD
  5
9F
330
1
100
AcDbSymbolTableRecord
100
AcDbBlockTableRecord
  2
EX_INTEGRAL
  0
BLOCK_RECORD
  5
11E
330
1
100
AcDbSymbolTableRecord
100
AcDbBlockTableRecord
  2
*D15
  0
BLOCK_RECORD
  5
12A
330
1
100
AcDbSymbolTableRecord
100
AcDbBlockTableRecord
  2
*D16
  0
BLOCK_RECORD
  5
136
330
1
100
AcDbSymbolTableRecord
100
AcDbBlockTableRecord
  2
*D17
  0
BLOCK_RECORD
  5
143
330
1
100
AcDbSymbolTableRecord
100
AcDbBlockTableRecord
  2
*D18
  0
BLOCK_RECORD
  5
14E
330
1
100
AcDbSymbolTableRecord
100
AcDbBlockTableRecord
  2
*D19
  0
BLOCK_RECORD
  5
15C
330
1
100
AcDbSymbolTableRecord
100
AcDbBlockTableRecord
  2
*D20
  0
BLOCK_RECORD
  5
168
330
1
100
AcDbSymbolTableRecord
100
AcDbBlockTableRecord
  2
*D21
  0
BLOCK_RECORD
  5
175
330
1
100
AcDbSymbolTableRecord
100
AcDbBlockTableRecord
  2
*D22
  0
BLOCK_RECORD
  5
182
330
1
100
AcDbSymbolTableRecord
100
AcDbBlockTableRecord
  2
*D23
  0
BLOCK_RECORD
  5
18F
330
1
100
AcDbSymbolTableRecord
100
AcDbBlockTableRecord
  2
*D24
  0
BLOCK_RECORD
  5
19C
330
1
100
AcDbSymbolTableRecord
100
AcDbBlockTableRecord
  2
*D25
  0
BLOCK_RECORD
  5
1A9
330
1
100
AcDbSymbolTableRecord
100
AcDbBlockTableRecord
  2
*D26
  0
BLOCK_RECORD
  5
1B8
330
1
100
AcDbSymbolTableRecord
100
AcDbBlockTableRecord
  2
*D27
  0
BLOCK_RECORD
  5
4A6
330
1
100
AcDbSymbolTableRecord
100
AcDbBlockTableRecord
  2
*D28
  0
BLOCK_RECORD
  5
4B1
330
1
100
AcDbSymbolTableRecord
100
AcDbBlockTableRecord
  2
*D29
  0
ENDTAB
  0
ENDSEC
  0
SECTION
  2
BLOCKS
  0
BLOCK
  5
20
330
1F
100
AcDbEntity
  8
0
100
AcDbBlockBegin
  2
*MODEL_SPACE
 70
     0
 10
0.0
 20
0.0
 30
0.0
  3
*MODEL_SPACE
  1

  0
ENDBLK
  5
21
330
1F
100
AcDbEntity
  8
0
100
AcDbBlockEnd
  0
BLOCK
  5
1C
330
1B
100
AcDbEntity
 67
     1
  8
0
100
AcDbBlockBegin
  2
*PAPER_SPACE
 70
     0
 10
0.0
 20
0.0
 30
0.0
  3
*PAPER_SPACE
  1

  0
ENDBLK
  5
1D
330
1B
100
AcDbEntity
 67
     1
  8
0
100
AcDbBlockEnd
  0
BLOCK
  5
79
330
78
100
AcDbEntity
  8
0
100
AcDbBlockBegin
  2
EX_NORM
 70
     0
 10
0.0
 20
0.0
 30
0.0
  3
EX_NORM
  1

  0
LINE
  5
A2
330
78
100
AcDbEntity
  8
0
  6
CONTINUOUS
 62
     0
100
AcDbLine
 10
0.0
 20
0.0
 30
0.0
 11
-1.0
 21
0.0
 31
0.0
  0
LINE
  5
A3
330
78
100
AcDbEntity
  8
0
  6
CONTINUOUS
 62
     0
100
AcDbLine
 10
0.0
 20
0.0
 30
0.0
 11
-1.0
 21
0.166666667
 31
0.0
  0
LINE
  5
A4
330
78
100
AcDbEntity
  8
0
  6
CONTINUOUS
 62
     0
100
AcDbLine
 10
0.0
 20
0.0
 30
0.0
 11
-1.0
 21
-0.166666667
 31
0.0
  0
ENDBLK
  5
7A
330
78
100
AcDbEntity
  8
0
100
AcDbBlockEnd
  0
BLOCK
  5
7C
330
7B
100
AcDbEntity
  8
0
100
AcDbBlockBegin
  2
EX_BNORM
 70
     0
 10
0.0
 20
0.0
 30
0.0
  3
EX_BNORM
  1

  0
LINE
  5
A5
330
7B
100
AcDbEntity
  8
0
  6
CONTINUOUS
 62
     0
100
AcDbLine
 10
0.0
 20
0.0
 30
0.0
 11
-1.0
 21
0.0
 31
0.0
  0
LINE
  5
A6
330
7B
100
AcDbEntity
  8
0
  6
CONTINUOUS
 62
     0
100
AcDbLine
 10
0.0
 20
0.0
 30
0.0
 11
-1.0
 21
0.166666667
 31
0.0
  0
LINE
  5
A7
330
7B
100
AcDbEntity
  8
0
  6
CONTINUOUS
 62
     0
100
AcDbLine
 10
0.0
 20
0.0
 30
0.0
 11
-1.0
 21
-0.166666667
 31
0.0
  0
LINE
  5
A8
330
7B
100
AcDbEntity
  8
0
  6
CONTINUOUS
 62
     0
100
AcDbLine
 10
0.0
 20
0.0
 30
0.0
 11
-1.0
 21
0.083333333
 31
0.0
  0
LINE
  5
A9
330
7B
100
AcDbEntity
  8
0
  6
CONTINUOUS
 62
     0
100
AcDbLine
 10
0.0
 20
0.0
 30
0.0
 11
-1.0
 21
-0.083333333
 31
0.0
  0
LINE
  5
AA
330
7B
100
AcDbEntity
  8
0
  6
CONTINUOUS
 62
     0
100
AcDbLine
 10
-1.0
 20
0.166666667
 30
0.0
 11
-1.0
 21
-0.166666667
 31
0.0
  0
ENDBLK
  5
7D
330
7B
100
AcDbEntity
  8
0
100
AcDbBlockEnd
  0
BLOCK
  5
7F
330
7E
100
AcDbEntity
  8
0
100
AcDbBlockBegin
  2
EX_BCIR
 70
     0
 10
0.0
 20
0.0
 30
0.0
  3
EX_BCIR
  1

  0
LINE
  5
AB
330
7E
100
AcDbEntity
  8
0
  6
CONTINUOUS
 62
     0
100
AcDbLine
 10
0.0
 20
0.0
 30
0.0
 11
-1.0
 21
0.0
 31
0.0
  0
CIRCLE
  5
AC
330
7E
100
AcDbEntity
  8
0
  6
CONTINUOUS
 62
     0
100
AcDbCircle
 10
0.0
 20
0.0
 30
0.0
 40
0.5
  0
CIRCLE
  5
AD
330
7E
100
AcDbEntity
  8
0
  6
CONTINUOUS
 62
     0
100
AcDbCircle
 10
0.0
 20
0.0
 30
0.0
 40
0.25
  0
ENDBLK
  5
80
330
7E
100
AcDbEntity
  8
0
100
AcDbBlockEnd
  0
BLOCK
  5
82
330
81
100
AcDbEntity
  8
0
100
AcDbBlockBegin
  2
EX_RCIVIL
 70
     0
 10
0.0
 20
0.0
 30
0.0
  3
EX_RCIVIL
  1

  0
LINE
  5
AE
330
81
100
AcDbEntity
  8
0
  6
CONTINUOUS
 62
     0
100
AcDbLine
 10
0.0
 20
0.0
 30
0.0
 11
-1.0
 21
0.0
 31
0.0
  0
LINE
  5
AF
330
81
100
AcDbEntity
  8
0
  6
CONTINUOUS
 62
     0
100
AcDbLine
 10
-1.0
 20
-0.25
 30
0.0
 11
0.0
 21
-0.25
 31
0.0
  0
LINE
  5
B0
330
81
100
AcDbEntity
  8
0
  6
CONTINUOUS
 62
     0
100
AcDbLine
 10
-1.0
 20
-0.125
 30
0.0
 11
0.0
 21
-0.125
 31
0.0
  0
ENDBLK
  5
83
330
81
100
AcDbEntity
  8
0
100
AcDbBlockEnd
  0
BLOCK
  5
85
330
84
100
AcDbEntity
  8
0
100
AcDbBlockBegin
  2
EX_SLANT
 70
     0
 10
0.0
 20
0.0
 30
0.0
  3
EX_SLANT
  1

  0
LINE
  5
B1
330
84
100
AcDbEntity
  8
0
  6
CONTINUOUS
 62
     0
100
AcDbLine
 10
0.0
 20
0.0
 30
0.0
 11
-1.0
 21
0.0
 31
0.0
  0
LINE
  5
B2
330
84
100
AcDbEntity
  8
0
  6
CONTINUOUS
 62
     0
100
AcDbLine
 10
0.707106781
 20
0.707106781
 30
0.0
 11
-0.707106781
 21
-0.707106781
 31
0.0
  0
ENDBLK
  5
86
330
84
100
AcDbEntity
  8
0
100
AcDbBlockEnd
  0
BLOCK
  5
88
330
87
100
AcDbEntity
  8
0
100
AcDbBlockBegin
  2
EX_NONE
 70
     0
 10
0.0
 20
0.0
 30
0.0
  3
EX_NONE
  1

  0
LINE
  5
B3
330
87
100
AcDbEntity
  8
0
  6
CONTINUOUS
 62
     0
100
AcDbLine
 10
0.0
 20
0.0
 30
0.0
 11
-1.0
 21
0.0
 31
0.0
  0
ENDBLK
  5
89
330
87
100
AcDbEntity
  8
0
100
AcDbBlockEnd
  0
BLOCK
  5
8B
330
8A
100
AcDbEntity
  8
0
100
AcDbBlockBegin
  2
EX_CIVIL
 70
     0
 10
0.0
 20
0.0
 30
0.0
  3
EX_CIVIL
  1

  0
LINE
  5
B4
330
8A
100
AcDbEntity
  8
0
  6
CONTINUOUS
 62
     0
100
AcDbLine
 10
0.0
 20
0.0
 30
0.0
 11
-1.0
 21
0.0
 31
0.0
  0
LINE
  5
B5
330
8A
100
AcDbEntity
  8
0
  6
CONTINUOUS
 62
     0
100
AcDbLine
 10
-1.0
 20
0.25
 30
0.0
 11
0.0
 21
0.25
 31
0.0
  0
LINE
  5
B6
330
8A
100
AcDbEntity
  8
0
  6
CONTINUOUS
 62
     0
100
AcDbLine
 10
-1.0
 20
0.125
 30
0.0
 11
0.0
 21
0.125
 31
0.0
  0
ENDBLK
  5
8C
330
8A
100
AcDbEntity
  8
0
100
AcDbBlockEnd
  0
BLOCK
  5
8E
330
8D
100
AcDbEntity
  8
0
100
AcDbBlockBegin
  2
EX_WCIR
 70
     0
 10
0.0
 20
0.0
 30
0.0
  3
EX_WCIR
  1

  0
LINE
  5
B7
330
8D
100
AcDbEntity
  8
0
  6
CONTINUOUS
 62
     0
100
AcDbLine
 10
0.0
 20
0.0
 30
0.0
 11
-1.0
 21
0.0
 31
0.0
  0
CIRCLE
  5
B8
330
8D
100
AcDbEntity
  8
0
  6
CONTINUOUS
 62
     0
100
AcDbCircle
 10
0.0
 20
0.0
 30
0.0
 40
0.5
  0
ENDBLK
  5
8F
330
8D
100
AcDbEntity
  8
0
100
AcDbBlockEnd
  0
BLOCK
  5
91
330
90
100
AcDbEntity
  8
0
100
AcDbBlockBegin
  2
EX_WCIR2
 70
     0
 10
0.0
 20
0.0
 30
0.0
  3
EX_WCIR2
  1

  0
LINE
  5
B9
330
90
100
AcDbEntity
  8
0
  6
CONTINUOUS
 62
     0
100
AcDbLine
 10
-0.5
 20
0.0
 30
0.0
 11
-1.0
 21
0.0
 31
0.0
  0
CIRCLE
  5
BA
330
90
100
AcDbEntity
  8
0
  6
CONTINUOUS
 62
     0
100
AcDbCircle
 10
0.0
 20
0.0
 30
0.0
 40
0.5
  0
ENDBLK
  5
92
330
90
100
AcDbEntity
  8
0
100
AcDbBlockEnd
  0
BLOCK
  5
94
330
93
100
AcDbEntity
  8
0
100
AcDbBlockBegin
  2
EX_WNORM
 70
     0
 10
0.0
 20
0.0
 30
0.0
  3
EX_WNORM
  1

  0
LINE
  5
BB
330
93
100
AcDbEntity
  8
0
  6
CONTINUOUS
 62
     0
100
AcDbLine
 10
-1.0
 20
0.0
 30
0.0
 11
-1.0
 21
0.0
 31
0.0
  0
LINE
  5
BC
330
93
100
AcDbEntity
  8
0
  6
CONTINUOUS
 62
     0
100
AcDbLine
 10
0.0
 20
0.0
 30
0.0
 11
-1.0
 21
0.166666667
 31
0.0
  0
LINE
  5
BD
330
93
100
AcDbEntity
  8
0
  6
CONTINUOUS
 62
     0
100
AcDbLine
 10
0.0
 20
0.0
 30
0.0
 11
-1.0
 21
-0.166666667
 31
0.0
  0
LINE
  5
BE
330
93
100
AcDbEntity
  8
0
  6
CONTINUOUS
 62
     0
100
AcDbLine
 10
-1.0
 20
0.166666667
 30
0.0
 11
-1.0
 21
-0.166666667
 31
0.0
  0
ENDBLK
  5
95
330
93
100
AcDbEntity
  8
0
100
AcDbBlockEnd
  0
BLOCK
  5
97
330
96
100
AcDbEntity
  8
0
100
AcDbBlockBegin
  2
EX_NNORM
 70
     0
 10
0.0
 20
0.0
 30
0.0
  3
EX_NNORM
  1

  0
LINE
  5
BF
330
96
100
AcDbEntity
  8
0
  6
CONTINUOUS
 62
     0
100
AcDbLine
 10
0.0
 20
0.0
 30
0.0
 11
-1.0
 21
0.0
 31
0.0
  0
LINE
  5
C0
330
96
100
AcDbEntity
  8
0
  6
CONTINUOUS
 62
     0
100
AcDbLine
 10
0.0
 20
0.0
 30
0.0
 11
-1.0
 21
0.166666667
 31
0.0
  0
LINE
  5
C1
330
96
100
AcDbEntity
  8
0
  6
CONTINUOUS
 62
     0
100
AcDbLine
 10
0.0
 20
0.0
 30
0.0
 11
-1.0
 21
-0.166666667
 31
0.0
  0
LINE
  5
C2
330
96
100
AcDbEntity
  8
0
  6
CONTINUOUS
 62
     0
100
AcDbLine
 10
-1.0
 20
0.166666667
 30
0.0
 11
-1.0
 21
-0.166666667
 31
0.0
  0
ENDBLK
  5
98
330
96
100
AcDbEntity
  8
0
100
AcDbBlockEnd
  0
BLOCK
  5
9A
330
99
100
AcDbEntity
  8
0
100
AcDbBlockBegin
  2
EX_BBOX
 70
     0
 10
0.0
 20
0.0
 30
0.0
  3
EX_BBOX
  1

  0
LINE
  5
C3
330
99
100
AcDbEntity
  8
0
  6
CONTINUOUS
 62
     0
100
AcDbLine
 10
0.0
 20
0.0
 30
0.0
 11
-1.0
 21
0.0
 31
0.0
  0
LINE
  5
C4
330
99
100
AcDbEntity
  8
0
  6
CONTINUOUS
 62
     0
100
AcDbLine
 10
-0.5
 20
0.5
 30
0.0
 11
0.5
 21
0.5
 31
0.0
  0
LINE
  5
C5
330
99
100
AcDbEntity
  8
0
  6
CONTINUOUS
 62
     0
100
AcDbLine
 10
0.5
 20
0.5
 30
0.0
 11
0.5
 21
-0.5
 31
0.0
  0
LINE
  5
C6
330
99
100
AcDbEntity
  8
0
  6
CONTINUOUS
 62
     0
100
AcDbLine
 10
0.5
 20
-0.5
 30
0.0
 11
-0.5
 21
-0.5
 31
0.0
  0
LINE
  5
C7
330
99
100
AcDbEntity
  8
0
  6
CONTINUOUS
 62
     0
100
AcDbLine
 10
-0.5
 20
-0.5
 30
0.0
 11
-0.5
 21
0.5
 31
0.0
  0
LINE
  5
C8
330
99
100
AcDbEntity
  8
0
  6
CONTINUOUS
 62
     0
100
AcDbLine
 10
-0.25
 20
0.25
 30
0.0
 11
0.25
 21
0.25
 31
0.0
  0
LINE
  5
C9
330
99
100
AcDbEntity
  8
0
  6
CONTINUOUS
 62
     0
100
AcDbLine
 10
0.25
 20
0.25
 30
0.0
 11
0.25
 21
-0.25
 31
0.0
  0
LINE
  5
CA
330
99
100
AcDbEntity
  8
0
  6
CONTINUOUS
 62
     0
100
AcDbLine
 10
0.25
 20
-0.25
 30
0.0
 11
-0.25
 21
-0.25
 31
0.0
  0
LINE
  5
CB
330
99
100
AcDbEntity
  8
0
  6
CONTINUOUS
 62
     0
100
AcDbLine
 10
-0.25
 20
-0.25
 30
0.0
 11
-0.25
 21
0.25
 31
0.0
  0
ENDBLK
  5
9B
330
99
100
AcDbEntity
  8
0
100
AcDbBlockEnd
  0
BLOCK
  5
9D
330
9C
100
AcDbEntity
  8
0
100
AcDbBlockBegin
  2
EX_WBOX
 70
     0
 10
0.0
 20
0.0
 30
0.0
  3
EX_WBOX
  1

  0
LINE
  5
CC
330
9C
100
AcDbEntity
  8
0
  6
CONTINUOUS
 62
     0
100
AcDbLine
 10
-0.5
 20
0.0
 30
0.0
 11
-1.0
 21
0.0
 31
0.0
  0
LINE
  5
CD
330
9C
100
AcDbEntity
  8
0
  6
CONTINUOUS
 62
     0
100
AcDbLine
 10
-0.5
 20
0.5
 30
0.0
 11
0.5
 21
0.5
 31
0.0
  0
LINE
  5
CE
330
9C
100
AcDbEntity
  8
0
  6
CONTINUOUS
 62
     0
100
AcDbLine
 10
0.5
 20
0.5
 30
0.0
 11
0.5
 21
-0.5
 31
0.0
  0
LINE
  5
CF
330
9C
100
AcDbEntity
  8
0
  6
CONTINUOUS
 62
     0
100
AcDbLine
 10
0.5
 20
-0.5
 30
0.0
 11
-0.5
 21
-0.5
 31
0.0
  0
LINE
  5
D0
330
9C
100
AcDbEntity
  8
0
  6
CONTINUOUS
 62
     0
100
AcDbLine
 10
-0.5
 20
-0.5
 30
0.0
 11
-0.5
 21
0.5
 31
0.0
  0
ENDBLK
  5
9E
330
9C
100
AcDbEntity
  8
0
100
AcDbBlockEnd
  0
BLOCK
  5
A0
330
9F
100
AcDbEntity
  8
0
100
AcDbBlockBegin
  2
EX_INTEGRAL
 70
     0
 10
0.0
 20
0.0
 30
0.0
  3
EX_INTEGRAL
  1

  0
LINE
  5
D1
330
9F
100
AcDbEntity
  8
0
  6
CONTINUOUS
 62
     0
100
AcDbLine
 10
0.0
 20
0.0
 30
0.0
 11
-1.0
 21
0.0
 31
0.0
  0
ARC
  5
D2
330
9F
100
AcDbEntity
  8
0
  6
CONTINUOUS
 62
     0
100
AcDbCircle
 10
0.542115
 20
0.164992
 30
0.0
 40
0.56667
100
AcDbArc
 50
73.07249033629006
 51
196.9275130221199
  0
ARC
  5
D3
330
9F
100
AcDbEntity
  8
0
  6
CONTINUOUS
 62
     0
100
AcDbCircle
 10
-0.542115
 20
-0.164992
 30
0.0
 40
0.56667
100
AcDbArc
 50
253.0724869220464
 51
16.9275130559125
  0
ENDBLK
  5
A1
330
9F
100
AcDbEntity
  8
0
100
AcDbBlockEnd
  0
BLOCK
  5
11F
330
11E
100
AcDbEntity
  8
0
100
AcDbBlockBegin
  2
*D15
 70
     1
 10
0.0
 20
0.0
 30
0.0
  3
*D15
  1

  0
LINE
  5
121
330
11E
100
AcDbEntity
  8
Ｓ_１_１
  6
CONTINUOUS
 62
     2
100
AcDbLine
 10
2070.0
 20
1281.250005
 30
0.0
 11
2070.0
 21
1492.5
 31
0.0
  0
LINE
  5
122
330
11E
100
AcDbEntity
  8
Ｓ_１_１
  6
CONTINUOUS
 62
     2
100
AcDbLine
 10
2047.500001907349
 20
1485.0
 30
0.0
 11
1892.500000092651
 21
1485.0
 31
0.0
  0
INSERT
  5
123
330
11E
100
AcDbEntity
  8
Ｓ_１_１
 62
     2
100
AcDbBlockReference
  2
EX_NORM
 10
2070.0
 20
1485.0
 30
0.0
 41
22.49999809265137
 42
22.49999809265137
 43
22.49999809265137
  0
INSERT
  5
124
330
11E
100
AcDbEntity
  8
Ｓ_１_１
 62
     2
100
AcDbBlockReference
  2
EX_NORM
 10
1870.000002
 20
1485.0
 30
0.0
 41
22.49999809265137
 42
22.49999809265137
 43
22.49999809265137
 50
180.0
  0
MTEXT
  5
125
330
11E
100
AcDbEntity
  8
Ｓ_１_１
 62
     2
100
AcDbMText
 10
1970.000001
 20
1505.625
 30
0.0
 40
25.9717811778291
 41
0.0
 71
     5
 72
     1
  1
200
  7
EXCADDIM1
  0
POINT
  5
126
330
11E
100
AcDbEntity
  8
DEFPOINTS
 62
     0
100
AcDbPoint
 10
2070.0
 20
1270.000005
 30
0.0
  0
POINT
  5
127
330
11E
100
AcDbEntity
  8
DEFPOINTS
 62
     0
100
AcDbPoint
 10
1870.000002
 20
1051.872665
 30
0.0
  0
POINT
  5
128
330
11E
100
AcDbEntity
  8
DEFPOINTS
 62
     0
100
AcDbPoint
 10
1870.000002
 20
1485.0
 30
0.0
  0
ENDBLK
  5
120
330
11E
100
AcDbEntity
  8
0
100
AcDbBlockEnd
  0
BLOCK
  5
12B
330
12A
100
AcDbEntity
  8
0
100
AcDbBlockBegin
  2
*D16
 70
     1
 10
0.0
 20
0.0
 30
0.0
  3
*D16
  1

  0
LINE
  5
12D
330
12A
100
AcDbEntity
  8
Ｓ_１_１
  6
CONTINUOUS
 62
     2
100
AcDbLine
 10
1870.000002
 20
1063.122665
 30
0.0
 11
1870.000002
 21
1492.5
 31
0.0
  0
LINE
  5
12E
330
12A
100
AcDbEntity
  8
Ｓ_１_１
  6
CONTINUOUS
 62
     2
100
AcDbLine
 10
1847.500003907349
 20
1485.0
 30
0.0
 11
1622.499998092651
 21
1485.0
 31
0.0
  0
INSERT
  5
12F
330
12A
100
AcDbEntity
  8
Ｓ_１_１
 62
     2
100
AcDbBlockReference
  2
EX_NORM
 10
1870.000002
 20
1485.0
 30
0.0
 41
22.49999809265137
 42
22.49999809265137
 43
22.49999809265137
  0
INSERT
  5
130
330
12A
100
AcDbEntity
  8
Ｓ_１_１
 62
     2
100
AcDbBlockReference
  2
EX_NORM
 10
1600.0
 20
1485.0
 30
0.0
 41
22.49999809265137
 42
22.49999809265137
 43
22.49999809265137
 50
180.0
  0
MTEXT
  5
131
330
12A
100
AcDbEntity
  8
Ｓ_１_１
 62
     2
100
AcDbMText
 10
1735.000001
 20
1505.625
 30
0.0
 40
25.9717811778291
 41
0.0
 71
     5
 72
     1
  1
270
  7
EXCADDIM1
  0
POINT
  5
132
330
12A
100
AcDbEntity
  8
DEFPOINTS
 62
     0
100
AcDbPoint
 10
1870.000002
 20
1051.872665
 30
0.0
  0
POINT
  5
133
330
12A
100
AcDbEntity
  8
DEFPOINTS
 62
     0
100
AcDbPoint
 10
1600.0
 20
1054.252762
 30
0.0
  0
POINT
  5
134
330
12A
100
AcDbEntity
  8
DEFPOINTS
 62
     0
100
AcDbPoint
 10
1600.0
 20
1485.0
 30
0.0
  0
ENDBLK
  5
12C
330
12A
100
AcDbEntity
  8
0
100
AcDbBlockEnd
  0
BLOCK
  5
137
330
136
100
AcDbEntity
  8
0
100
AcDbBlockBegin
  2
*D17
 70
     1
 10
0.0
 20
0.0
 30
0.0
  3
*D17
  1

  0
LINE
  5
139
330
136
100
AcDbEntity
  8
Ｓ_１_１
  6
CONTINUOUS
 62
     2
100
AcDbLine
 10
1600.0
 20
1065.502762
 30
0.0
 11
1600.0
 21
1492.5
 31
0.0
  0
LINE
  5
13A
330
136
100
AcDbEntity
  8
Ｓ_１_１
  6
CONTINUOUS
 62
     2
100
AcDbLine
 10
1430.0
 20
1281.24998
 30
0.0
 11
1430.0
 21
1492.5
 31
0.0
  0
LINE
  5
13B
330
136
100
AcDbEntity
  8
Ｓ_１_１
  6
CONTINUOUS
 62
     2
100
AcDbLine
 10
1577.500001907349
 20
1485.0
 30
0.0
 11
1452.499998092651
 21
1485.0
 31
0.0
  0
INSERT
  5
13C
330
136
100
AcDbEntity
  8
Ｓ_１_１
 62
     2
100
AcDbBlockReference
  2
EX_NORM
 10
1600.0
 20
1485.0
 30
0.0
 41
22.49999809265137
 42
22.49999809265137
 43
22.49999809265137
  0
INSERT
  5
13D
330
136
100
AcDbEntity
  8
Ｓ_１_１
 62
     2
100
AcDbBlockReference
  2
EX_NORM
 10
1430.0
 20
1485.0
 30
0.0
 41
22.49999809265137
 42
22.49999809265137
 43
22.49999809265137
 50
180.0
  0
MTEXT
  5
13E
330
136
100
AcDbEntity
  8
Ｓ_１_１
 62
     2
100
AcDbMText
 10
1515.0
 20
1505.625
 30
0.0
 40
25.9717811778291
 41
0.0
 71
     5
 72
     1
  1
170
  7
EXCADDIM1
  0
POINT
  5
13F
330
136
100
AcDbEntity
  8
DEFPOINTS
 62
     0
100
AcDbPoint
 10
1600.0
 20
1054.252762
 30
0.0
  0
POINT
  5
140
330
136
100
AcDbEntity
  8
DEFPOINTS
 62
     0
100
AcDbPoint
 10
1430.0
 20
1269.99998
 30
0.0
  0
POINT
  5
141
330
136
100
AcDbEntity
  8
DEFPOINTS
 62
     0
100
AcDbPoint
 10
1430.0
 20
1485.0
 30
0.0
  0
ENDBLK
  5
138
330
136
100
AcDbEntity
  8
0
100
AcDbBlockEnd
  0
BLOCK
  5
144
330
143
100
AcDbEntity
  8
0
100
AcDbBlockBegin
  2
*D18
 70
     1
 10
0.0
 20
0.0
 30
0.0
  3
*D18
  1

  0
LINE
  5
146
330
143
100
AcDbEntity
  8
Ｓ_１_１
  6
CONTINUOUS
 62
     2
100
AcDbLine
 10
2047.500001907349
 20
495.0
 30
0.0
 11
1452.499998092651
 21
495.0
 31
0.0
  0
INSERT
  5
147
330
143
100
AcDbEntity
  8
Ｓ_１_１
 62
     2
100
AcDbBlockReference
  2
EX_NORM
 10
2070.0
 20
495.0
 30
0.0
 41
22.49999809265137
 42
22.49999809265137
 43
22.49999809265137
  0
INSERT
  5
148
330
143
100
AcDbEntity
  8
Ｓ_１_１
 62
     2
100
AcDbBlockReference
  2
EX_NORM
 10
1430.0
 20
495.0
 30
0.0
 41
22.49999809265137
 42
22.49999809265137
 43
22.49999809265137
 50
180.0
  0
MTEXT
  5
149
330
143
100
AcDbEntity
  8
Ｓ_１_１
 62
     2
100
AcDbMText
 10
1750.0
 20
515.625
 30
0.0
 40
25.9717811778291
 41
0.0
 71
     5
 72
     1
  1
640
  7
EXCADDIM1
  0
POINT
  5
14A
330
143
100
AcDbEntity
  8
DEFPOINTS
 62
     0
100
AcDbPoint
 10
2070.0
 20
710.000001
 30
0.0
  0
POINT
  5
14B
330
143
100
AcDbEntity
  8
DEFPOINTS
 62
     0
100
AcDbPoint
 10
1430.0
 20
709.999979
 30
0.0
  0
POINT
  5
14C
330
143
100
AcDbEntity
  8
DEFPOINTS
 62
     0
100
AcDbPoint
 10
1430.0
 20
495.0
 30
0.0
  0
ENDBLK
  5
145
330
143
100
AcDbEntity
  8
0
100
AcDbBlockEnd
  0
BLOCK
  5
14F
330
14E
100
AcDbEntity
  8
0
100
AcDbBlockBegin
  2
*D19
 70
     1
 10
0.0
 20
0.0
 30
0.0
  3
*D19
  1

  0
LINE
  5
151
330
14E
100
AcDbEntity
  8
Ｓ_１_１
  6
CONTINUOUS
 62
     2
100
AcDbLine
 10
1430.0
 20
698.749979
 30
0.0
 11
1430.0
 21
487.5
 31
0.0
  0
LINE
  5
152
330
14E
100
AcDbEntity
  8
Ｓ_１_１
  6
CONTINUOUS
 62
     2
100
AcDbLine
 10
1430.0
 20
495.0
 30
0.0
 11
1420.0
 21
495.0
 31
0.0
  0
LINE
  5
153
330
14E
100
AcDbEntity
  8
Ｓ_１_１
  6
CONTINUOUS
 62
     2
100
AcDbLine
 10
1452.499998092651
 20
495.0
 30
0.0
 11
1474.999996185303
 21
495.0
 31
0.0
  0
LINE
  5
154
330
14E
100
AcDbEntity
  8
Ｓ_１_１
  6
CONTINUOUS
 62
     2
100
AcDbLine
 10
1397.500001907349
 20
495.0
 30
0.0
 11
1375.000003814697
 21
495.0
 31
0.0
  0
INSERT
  5
155
330
14E
100
AcDbEntity
  8
Ｓ_１_１
 62
     2
100
AcDbBlockReference
  2
EX_NORM
 10
1430.0
 20
495.0
 30
0.0
 41
22.49999809265137
 42
22.49999809265137
 43
22.49999809265137
 50
180.0
  0
INSERT
  5
156
330
14E
100
AcDbEntity
  8
Ｓ_１_１
 62
     2
100
AcDbBlockReference
  2
EX_NORM
 10
1420.0
 20
495.0
 30
0.0
 41
22.49999809265137
 42
22.49999809265137
 43
22.49999809265137
  0
MTEXT
  5
157
330
14E
100
AcDbEntity
  8
Ｓ_１_１
 62
     2
100
AcDbMText
 10
1469.375
 20
515.6249999999995
 30
0.0
 40
25.9717811778291
 41
0.0
 71
     5
 72
     1
  1
10
  7
EXCADDIM1
  0
POINT
  5
158
330
14E
100
AcDbEntity
  8
DEFPOINTS
 62
     0
100
AcDbPoint
 10
1430.0
 20
709.999979
 30
0.0
  0
POINT
  5
159
330
14E
100
AcDbEntity
  8
DEFPOINTS
 62
     0
100
AcDbPoint
 10
1420.0
 20
814.999982
 30
0.0
  0
POINT
  5
15A
330
14E
100
AcDbEntity
  8
DEFPOINTS
 62
     0
100
AcDbPoint
 10
1420.0
 20
495.0
 30
0.0
  0
ENDBLK
  5
150
330
14E
100
AcDbEntity
  8
0
100
AcDbBlockEnd
  0
BLOCK
  5
15D
330
15C
100
AcDbEntity
  8
0
100
AcDbBlockBegin
  2
*D20
 70
     1
 10
0.0
 20
0.0
 30
0.0
  3
*D20
  1

  0
LINE
  5
15F
330
15C
100
AcDbEntity
  8
Ｓ_１_１
  6
CONTINUOUS
 62
     2
100
AcDbLine
 10
1420.0
 20
803.749982
 30
0.0
 11
1420.0
 21
487.5
 31
0.0
  0
LINE
  5
160
330
15C
100
AcDbEntity
  8
Ｓ_１_１
  6
CONTINUOUS
 62
     2
100
AcDbLine
 10
1397.500001907349
 20
495.0
 30
0.0
 11
1347.499998092651
 21
495.0
 31
0.0
  0
INSERT
  5
161
330
15C
100
AcDbEntity
  8
Ｓ_１_１
 62
     2
100
AcDbBlockReference
  2
EX_NORM
 10
1420.0
 20
495.0
 30
0.0
 41
22.49999809265137
 42
22.49999809265137
 43
22.49999809265137
  0
INSERT
  5
162
330
15C
100
AcDbEntity
  8
Ｓ_１_１
 62
     2
100
AcDbBlockReference
  2
EX_NORM
 10
1325.0
 20
495.0
 30
0.0
 41
22.49999809265137
 42
22.49999809265137
 43
22.49999809265137
 50
180.0
  0
MTEXT
  5
163
330
15C
100
AcDbEntity
  8
Ｓ_１_１
 62
     2
100
AcDbMText
 10
1372.5
 20
515.625
 30
0.0
 40
25.9717811778291
 41
0.0
 71
     5
 72
     1
  1
95
  7
EXCADDIM1
  0
POINT
  5
164
330
15C
100
AcDbEntity
  8
DEFPOINTS
 62
     0
100
AcDbPoint
 10
1420.0
 20
814.999982
 30
0.0
  0
POINT
  5
165
330
15C
100
AcDbEntity
  8
DEFPOINTS
 62
     0
100
AcDbPoint
 10
1325.0
 20
709.999976
 30
0.0
  0
POINT
  5
166
330
15C
100
AcDbEntity
  8
DEFPOINTS
 62
     0
100
AcDbPoint
 10
1325.0
 20
495.0
 30
0.0
  0
ENDBLK
  5
15E
330
15C
100
AcDbEntity
  8
0
100
AcDbBlockEnd
  0
BLOCK
  5
169
330
168
100
AcDbEntity
  8
0
100
AcDbBlockBegin
  2
*D21
 70
     1
 10
0.0
 20
0.0
 30
0.0
  3
*D21
  1

  0
LINE
  5
16B
330
168
100
AcDbEntity
  8
Ｓ_１_１
  6
CONTINUOUS
 62
     2
100
AcDbLine
 10
1325.0
 20
698.749976
 30
0.0
 11
1325.0
 21
442.5
 31
0.0
  0
LINE
  5
16C
330
168
100
AcDbEntity
  8
Ｓ_１_１
  6
CONTINUOUS
 62
     2
100
AcDbLine
 10
2070.0
 20
698.750001
 30
0.0
 11
2070.0
 21
442.5
 31
0.0
  0
LINE
  5
16D
330
168
100
AcDbEntity
  8
Ｓ_１_１
  6
CONTINUOUS
 62
     2
100
AcDbLine
 10
1347.499998092651
 20
450.0
 30
0.0
 11
2047.500001907349
 21
450.0
 31
0.0
  0
INSERT
  5
16E
330
168
100
AcDbEntity
  8
Ｓ_１_１
 62
     2
100
AcDbBlockReference
  2
EX_NORM
 10
1325.0
 20
450.0
 30
0.0
 41
22.49999809265137
 42
22.49999809265137
 43
22.49999809265137
 50
180.0
  0
INSERT
  5
16F
330
168
100
AcDbEntity
  8
Ｓ_１_１
 62
     2
100
AcDbBlockReference
  2
EX_NORM
 10
2070.0
 20
450.0
 30
0.0
 41
22.49999809265137
 42
22.49999809265137
 43
22.49999809265137
  0
MTEXT
  5
170
330
168
100
AcDbEntity
  8
Ｓ_１_１
 62
     2
100
AcDbMText
 10
1697.5
 20
470.625
 30
0.0
 40
25.9717811778291
 41
0.0
 71
     5
 72
     1
  1
745
  7
EXCADDIM1
  0
POINT
  5
171
330
168
100
AcDbEntity
  8
DEFPOINTS
 62
     0
100
AcDbPoint
 10
1325.0
 20
709.999976
 30
0.0
  0
POINT
  5
172
330
168
100
AcDbEntity
  8
DEFPOINTS
 62
     0
100
AcDbPoint
 10
2070.0
 20
710.000001
 30
0.0
  0
POINT
  5
173
330
168
100
AcDbEntity
  8
DEFPOINTS
 62
     0
100
AcDbPoint
 10
2070.0
 20
450.0
 30
0.0
  0
ENDBLK
  5
16A
330
168
100
AcDbEntity
  8
0
100
AcDbBlockEnd
  0
BLOCK
  5
176
330
175
100
AcDbEntity
  8
0
100
AcDbBlockBegin
  2
*D22
 70
     1
 10
0.0
 20
0.0
 30
0.0
  3
*D22
  1

  0
LINE
  5
178
330
175
100
AcDbEntity
  8
Ｓ_１_１
  6
CONTINUOUS
 62
     2
100
AcDbLine
 10
1318.75
 20
1275.0
 30
0.0
 11
1207.5
 21
1275.0
 31
0.0
  0
LINE
  5
179
330
175
100
AcDbEntity
  8
Ｓ_１_１
  6
CONTINUOUS
 62
     2
100
AcDbLine
 10
1318.75
 20
705.0
 30
0.0
 11
1207.5
 21
705.0
 31
0.0
  0
LINE
  5
17A
330
175
100
AcDbEntity
  8
Ｓ_１_１
  6
CONTINUOUS
 62
     2
100
AcDbLine
 10
1215.0
 20
1252.500001907349
 30
0.0
 11
1215.0
 21
727.4999980926514
 31
0.0
  0
INSERT
  5
17B
330
175
100
AcDbEntity
  8
Ｓ_１_１
 62
     2
100
AcDbBlockReference
  2
EX_NORM
 10
1215.0
 20
1275.0
 30
0.0
 41
22.49999809265137
 42
22.49999809265137
 43
22.49999809265137
 50
90.0
  0
INSERT
  5
17C
330
175
100
AcDbEntity
  8
Ｓ_１_１
 62
     2
100
AcDbBlockReference
  2
EX_NORM
 10
1215.0
 20
705.0
 30
0.0
 41
22.49999809265137
 42
22.49999809265137
 43
22.49999809265137
 50
270.0
  0
MTEXT
  5
17D
330
175
100
AcDbEntity
  8
Ｓ_１_１
 62
     2
100
AcDbMText
 10
1194.375
 20
990.0
 30
0.0
 40
25.9717811778291
 41
0.0
 71
     5
 72
     1
  1
%%c570
  7
EXCADDIM1
 11
0.0
 21
1.0
 31
0.0
  0
POINT
  5
17E
330
175
100
AcDbEntity
  8
DEFPOINTS
 62
     0
100
AcDbPoint
 10
1330.0
 20
1275.0
 30
0.0
  0
POINT
  5
17F
330
175
100
AcDbEntity
  8
DEFPOINTS
 62
     0
100
AcDbPoint
 10
1330.0
 20
705.0
 30
0.0
  0
POINT
  5
180
330
175
100
AcDbEntity
  8
DEFPOINTS
 62
     0
100
AcDbPoint
 10
1215.0
 20
705.0
 30
0.0
  0
ENDBLK
  5
177
330
175
100
AcDbEntity
  8
0
100
AcDbBlockEnd
  0
BLOCK
  5
183
330
182
100
AcDbEntity
  8
0
100
AcDbBlockBegin
  2
*D23
 70
     1
 10
0.0
 20
0.0
 30
0.0
  3
*D23
  1

  0
LINE
  5
185
330
182
100
AcDbEntity
  8
Ｓ_１_１
  6
CONTINUOUS
 62
     2
100
AcDbLine
 10
2076.25
 20
1275.0
 30
0.0
 11
2212.5
 21
1275.0
 31
0.0
  0
LINE
  5
186
330
182
100
AcDbEntity
  8
Ｓ_１_１
  6
CONTINUOUS
 62
     2
100
AcDbLine
 10
2076.25
 20
705.0
 30
0.0
 11
2212.5
 21
705.0
 31
0.0
  0
LINE
  5
187
330
182
100
AcDbEntity
  8
Ｓ_１_１
  6
CONTINUOUS
 62
     2
100
AcDbLine
 10
2205.0
 20
1252.500001907349
 30
0.0
 11
2205.0
 21
727.4999980926514
 31
0.0
  0
INSERT
  5
188
330
182
100
AcDbEntity
  8
Ｓ_１_１
 62
     2
100
AcDbBlockReference
  2
EX_NORM
 10
2205.0
 20
1275.0
 30
0.0
 41
22.49999809265137
 42
22.49999809265137
 43
22.49999809265137
 50
90.0
  0
INSERT
  5
189
330
182
100
AcDbEntity
  8
Ｓ_１_１
 62
     2
100
AcDbBlockReference
  2
EX_NORM
 10
2205.0
 20
705.0
 30
0.0
 41
22.49999809265137
 42
22.49999809265137
 43
22.49999809265137
 50
270.0
  0
MTEXT
  5
18A
330
182
100
AcDbEntity
  8
Ｓ_１_１
 62
     2
100
AcDbMText
 10
2184.375
 20
990.0
 30
0.0
 40
25.9717811778291
 41
0.0
 71
     5
 72
     1
  1
%%c570
  7
EXCADDIM1
 11
0.0
 21
1.0
 31
0.0
  0
POINT
  5
18B
330
182
100
AcDbEntity
  8
DEFPOINTS
 62
     0
100
AcDbPoint
 10
2065.0
 20
1275.0
 30
0.0
  0
POINT
  5
18C
330
182
100
AcDbEntity
  8
DEFPOINTS
 62
     0
100
AcDbPoint
 10
2065.0
 20
705.0
 30
0.0
  0
POINT
  5
18D
330
182
100
AcDbEntity
  8
DEFPOINTS
 62
     0
100
AcDbPoint
 10
2205.0
 20
705.0
 30
0.0
  0
ENDBLK
  5
184
330
182
100
AcDbEntity
  8
0
100
AcDbBlockEnd
  0
BLOCK
  5
190
330
18F
100
AcDbEntity
  8
0
100
AcDbBlockBegin
  2
*D24
 70
     1
 10
0.0
 20
0.0
 30
0.0
  3
*D24
  1

  0
LINE
  5
192
330
18F
100
AcDbEntity
  8
Ｓ_１_１
  6
CONTINUOUS
 62
     2
100
AcDbLine
 10
1011.250061
 20
1047.149994
 30
0.0
 11
1132.5
 21
1047.149994
 31
0.0
  0
LINE
  5
193
330
18F
100
AcDbEntity
  8
Ｓ_１_１
  6
CONTINUOUS
 62
     2
100
AcDbLine
 10
1011.250061
 20
932.8499979999999
 30
0.0
 11
1132.5
 21
932.8499979999999
 31
0.0
  0
LINE
  5
194
330
18F
100
AcDbEntity
  8
Ｓ_１_１
  6
CONTINUOUS
 62
     2
100
AcDbLine
 10
1125.0
 20
1024.649995907349
 30
0.0
 11
1125.0
 21
955.3499960926513
 31
0.0
  0
INSERT
  5
195
330
18F
100
AcDbEntity
  8
Ｓ_１_１
 62
     2
100
AcDbBlockReference
  2
EX_NORM
 10
1125.0
 20
1047.149994
 30
0.0
 41
22.49999809265137
 42
22.49999809265137
 43
22.49999809265137
 50
90.0
  0
INSERT
  5
196
330
18F
100
AcDbEntity
  8
Ｓ_１_１
 62
     2
100
AcDbBlockReference
  2
EX_NORM
 10
1125.0
 20
932.8499979999999
 30
0.0
 41
22.49999809265137
 42
22.49999809265137
 43
22.49999809265137
 50
270.0
  0
MTEXT
  5
197
330
18F
100
AcDbEntity
  8
Ｓ_１_１
 62
     2
100
AcDbMText
 10
1104.375
 20
989.999996
 30
0.0
 40
25.9717811778291
 41
0.0
 71
     5
 72
     1
  1
%%c114
  7
EXCADDIM1
 11
0.0
 21
1.0
 31
0.0
  0
POINT
  5
198
330
18F
100
AcDbEntity
  8
DEFPOINTS
 62
     0
100
AcDbPoint
 10
1000.000061
 20
1047.149994
 30
0.0
  0
POINT
  5
199
330
18F
100
AcDbEntity
  8
DEFPOINTS
 62
     0
100
AcDbPoint
 10
1000.000061
 20
932.8499979999999
 30
0.0
  0
POINT
  5
19A
330
18F
100
AcDbEntity
  8
DEFPOINTS
 62
     0
100
AcDbPoint
 10
1125.0
 20
932.8499979999999
 30
0.0
  0
ENDBLK
  5
191
330
18F
100
AcDbEntity
  8
0
100
AcDbBlockEnd
  0
BLOCK
  5
19D
330
19C
100
AcDbEntity
  8
0
100
AcDbBlockBegin
  2
*D25
 70
     1
 10
0.0
 20
0.0
 30
0.0
  3
*D25
  1

  0
LINE
  5
19F
330
19C
100
AcDbEntity
  8
Ｓ_１_１
  6
CONTINUOUS
 62
     2
100
AcDbLine
 10
573.75
 20
585.0
 30
0.0
 11
217.4999999999999
 21
585.0
 31
0.0
  0
LINE
  5
1A0
330
19C
100
AcDbEntity
  8
Ｓ_１_１
  6
CONTINUOUS
 62
     2
100
AcDbLine
 10
598.75
 20
1395.0
 30
0.0
 11
217.5
 21
1395.0
 31
0.0
  0
LINE
  5
1A1
330
19C
100
AcDbEntity
  8
Ｓ_１_１
  6
CONTINUOUS
 62
     2
100
AcDbLine
 10
224.9999999999999
 20
607.4999980926514
 30
0.0
 11
225.0
 21
1372.500001907349
 31
0.0
  0
INSERT
  5
1A2
330
19C
100
AcDbEntity
  8
Ｓ_１_１
 62
     2
100
AcDbBlockReference
  2
EX_NORM
 10
224.9999999999999
 20
585.0
 30
0.0
 41
22.49999809265137
 42
22.49999809265137
 43
22.49999809265137
 50
270.0
  0
INSERT
  5
1A3
330
19C
100
AcDbEntity
  8
Ｓ_１_１
 62
     2
100
AcDbBlockReference
  2
EX_NORM
 10
225.0
 20
1395.0
 30
0.0
 41
22.49999809265137
 42
22.49999809265137
 43
22.49999809265137
 50
90.0
  0
MTEXT
  5
1A4
330
19C
100
AcDbEntity
  8
Ｓ_１_１
 62
     2
100
AcDbMText
 10
204.3750000000001
 20
990.0
 30
0.0
 40
25.9717811778291
 41
0.0
 71
     5
 72
     1
  1
810
  7
EXCADDIM1
 11
7.017706032198520E-17
 21
1.0
 31
0.0
  0
POINT
  5
1A5
330
19C
100
AcDbEntity
  8
DEFPOINTS
 62
     0
100
AcDbPoint
 10
585.0
 20
585.0
 30
0.0
  0
POINT
  5
1A6
330
19C
100
AcDbEntity
  8
DEFPOINTS
 62
     0
100
AcDbPoint
 10
610.0
 20
1395.0
 30
0.0
  0
POINT
  5
1A7
330
19C
100
AcDbEntity
  8
DEFPOINTS
 62
     0
100
AcDbPoint
 10
225.0
 20
1395.0
 30
0.0
  0
ENDBLK
  5
19E
330
19C
100
AcDbEntity
  8
0
100
AcDbBlockEnd
  0
BLOCK
  5
1AA
330
1A9
100
AcDbEntity
  8
0
100
AcDbBlockBegin
  2
*D26
 70
     1
 10
0.0
 20
0.0
 30
0.0
  3
*D26
  1

  0
LINE
  5
1AC
330
1A9
100
AcDbEntity
  8
Ｓ_１_１
  6
CONTINUOUS
 62
     2
100
AcDbLine
 10
610.0
 20
1406.25
 30
0.0
 11
610.0
 21
1492.5
 31
0.0
  0
LINE
  5
1AD
330
1A9
100
AcDbEntity
  8
Ｓ_１_１
  6
CONTINUOUS
 62
     2
100
AcDbLine
 10
650.0
 20
1406.25
 30
0.0
 11
650.0
 21
1492.5
 31
0.0
  0
LINE
  5
1AE
330
1A9
100
AcDbEntity
  8
Ｓ_１_１
  6
CONTINUOUS
 62
     2
100
AcDbLine
 10
610.0
 20
1485.0
 30
0.0
 11
650.0
 21
1485.0
 31
0.0
  0
LINE
  5
1AF
330
1A9
100
AcDbEntity
  8
Ｓ_１_１
  6
CONTINUOUS
 62
     2
100
AcDbLine
 10
587.5000019073486
 20
1485.0
 30
0.0
 11
565.0000038146973
 21
1485.0
 31
0.0
  0
LINE
  5
1B0
330
1A9
100
AcDbEntity
  8
Ｓ_１_１
  6
CONTINUOUS
 62
     2
100
AcDbLine
 10
672.4999980926514
 20
1485.0
 30
0.0
 11
694.9999961853027
 21
1485.0
 31
0.0
  0
INSERT
  5
1B1
330
1A9
100
AcDbEntity
  8
Ｓ_１_１
 62
     2
100
AcDbBlockReference
  2
EX_NORM
 10
610.0
 20
1485.0
 30
0.0
 41
22.49999809265137
 42
22.49999809265137
 43
22.49999809265137
  0
INSERT
  5
1B2
330
1A9
100
AcDbEntity
  8
Ｓ_１_１
 62
     2
100
AcDbBlockReference
  2
EX_NORM
 10
650.0
 20
1485.0
 30
0.0
 41
22.49999809265137
 42
22.49999809265137
 43
22.49999809265137
 50
180.0
  0
MTEXT
  5
1B3
330
1A9
100
AcDbEntity
  8
Ｓ_１_１
 62
     2
100
AcDbMText
 10
630.0000000000001
 20
1505.625
 30
0.0
 40
25.9717811778291
 41
0.0
 71
     5
 72
     1
  1
40
  7
EXCADDIM1
  0
POINT
  5
1B4
330
1A9
100
AcDbEntity
  8
DEFPOINTS
 62
     0
100
AcDbPoint
 10
610.0
 20
1395.0
 30
0.0
  0
POINT
  5
1B5
330
1A9
100
AcDbEntity
  8
DEFPOINTS
 62
     0
100
AcDbPoint
 10
650.0
 20
1395.0
 30
0.0
  0
POINT
  5
1B6
330
1A9
100
AcDbEntity
  8
DEFPOINTS
 62
     0
100
AcDbPoint
 10
650.0
 20
1485.0
 30
0.0
  0
ENDBLK
  5
1AB
330
1A9
100
AcDbEntity
  8
0
100
AcDbBlockEnd
  0
BLOCK
  5
1B9
330
1B8
100
AcDbEntity
  8
0
100
AcDbBlockBegin
  2
*D27
 70
     1
 10
0.0
 20
0.0
 30
0.0
  3
*D27
  1

  0
LINE
  5
1BB
330
1B8
100
AcDbEntity
  8
Ｓ_１_１
  6
CONTINUOUS
 62
     2
100
AcDbLine
 10
345.0
 20
1001.25
 30
0.0
 11
345.0
 21
1537.5
 31
0.0
  0
LINE
  5
1BC
330
1B8
100
AcDbEntity
  8
Ｓ_１_１
  6
CONTINUOUS
 62
     2
100
AcDbLine
 10
1000.000061
 20
1058.399994
 30
0.0
 11
1000.000061
 21
1537.5
 31
0.0
  0
LINE
  5
1BD
330
1B8
100
AcDbEntity
  8
Ｓ_１_１
  6
CONTINUOUS
 62
     2
100
AcDbLine
 10
367.4999980926514
 20
1530.0
 30
0.0
 11
977.5000629073486
 21
1530.0
 31
0.0
  0
INSERT
  5
1BE
330
1B8
100
AcDbEntity
  8
Ｓ_１_１
 62
     2
100
AcDbBlockReference
  2
EX_NORM
 10
345.0
 20
1530.0
 30
0.0
 41
22.49999809265137
 42
22.49999809265137
 43
22.49999809265137
 50
180.0
  0
INSERT
  5
1BF
330
1B8
100
AcDbEntity
  8
Ｓ_１_１
 62
     2
100
AcDbBlockReference
  2
EX_NORM
 10
1000.000061
 20
1530.0
 30
0.0
 41
22.49999809265137
 42
22.49999809265137
 43
22.49999809265137
  0
MTEXT
  5
1C0
330
1B8
100
AcDbEntity
  8
Ｓ_１_１
 62
     2
100
AcDbMText
 10
672.5000305000001
 20
1550.625
 30
0.0
 40
25.9717811778291
 41
0.0
 71
     5
 72
     1
  1
655
  7
EXCADDIM1
  0
POINT
  5
1C1
330
1B8
100
AcDbEntity
  8
DEFPOINTS
 62
     0
100
AcDbPoint
 10
345.0
 20
990.0
 30
0.0
  0
POINT
  5
1C2
330
1B8
100
AcDbEntity
  8
DEFPOINTS
 62
     0
100
AcDbPoint
 10
1000.000061
 20
1047.149994
 30
0.0
  0
POINT
  5
1C3
330
1B8
100
AcDbEntity
  8
DEFPOINTS
 62
     0
100
AcDbPoint
 10
1000.000061
 20
1530.0
 30
0.0
  0
ENDBLK
  5
1BA
330
1B8
100
AcDbEntity
  8
0
100
AcDbBlockEnd
  0
BLOCK
  5
4A7
330
4A6
100
AcDbEntity
  8
0
100
AcDbBlockBegin
  2
*D28
 70
     1
 10
0.0
 20
0.0
 30
0.0
  3
*D28
  1

  0
LINE
  5
4A9
330
4A6
100
AcDbEntity
  8
Ｓ_１_１
  6
CONTINUOUS
 62
     2
100
AcDbLine
 10
2557.77281623815
 20
892.7728162381505
 30
0.0
 11
2752.22718376185
 21
1087.227183761849
 31
0.0
  0
MTEXT
  5
4AA
330
4A6
100
AcDbEntity
  8
Ｓ_１_１
 62
     2
100
AcDbMText
 10
2376.806266022377
 20
740.974420746322
 30
0.0
 40
25.9717811778291
 41
0.0
 71
     5
 72
     1
  1
P.C.D 320
  7
EXCADDIM1
 11
0.7071067811865475
 21
0.7071067811865475
 31
0.0
  0
LINE
  5
4AB
330
4A6
100
AcDbEntity
  8
Ｓ_１_１
  6
CONTINUOUS
 62
     2
100
AcDbLine
 10
2768.137084989848
 20
1103.137084989848
 30
0.0
 11
2541.862915010152
 21
876.8629150101524
 31
0.0
  0
INSERT
  5
4AC
330
4A6
100
AcDbEntity
  8
Ｓ_１_１
 62
     2
100
AcDbBlockReference
  2
EX_NORM
 10
2768.137084989848
 20
1103.137084989848
 30
0.0
 41
22.49999809265137
 42
22.49999809265137
 43
22.49999809265137
 50
45.0
  0
INSERT
  5
4AD
330
4A6
100
AcDbEntity
  8
Ｓ_１_１
 62
     2
100
AcDbBlockReference
  2
EX_NORM
 10
2541.862915010152
 20
876.8629150101524
 30
0.0
 41
22.49999809265137
 42
22.49999809265137
 43
22.49999809265137
 50
225.0
  0
POINT
  5
4AE
330
4A6
100
AcDbEntity
  8
DEFPOINTS
 62
     0
100
AcDbPoint
 10
2541.862915010152
 20
876.8629150101524
 30
0.0
  0
POINT
  5
4AF
330
4A6
100
AcDbEntity
  8
DEFPOINTS
 62
     0
100
AcDbPoint
 10
2768.137084989848
 20
1103.137084989848
 30
0.0
  0
ENDBLK
  5
4A8
330
4A6
100
AcDbEntity
  8
0
100
AcDbBlockEnd
  0
BLOCK
  5
4B2
330
4B1
100
AcDbEntity
  8
0
100
AcDbBlockBegin
  2
*D29
 70
     1
 10
0.0
 20
0.0
 30
0.0
  3
*D29
  1

  0
LINE
  5
4B4
330
4B1
100
AcDbEntity
  8
Ｓ_１_１
  6
CONTINUOUS
 62
     2
100
AcDbLine
 10
2812.331257465308
 20
832.6687425346922
 30
0.0
 11
2977.034577719369
 21
667.9654222806305
 31
0.0
  0
LINE
  5
4B5
330
4B1
100
AcDbEntity
  8
Ｓ_１_１
  6
CONTINUOUS
 62
     2
100
AcDbLine
 10
2497.668742534693
 20
1147.331257465308
 30
0.0
 11
2481.758841306695
 21
1163.241158693306
 31
0.0
  0
MTEXT
  5
4B6
330
4B1
100
AcDbEntity
  8
Ｓ_１_１
 62
     2
100
AcDbMText
 10
2933.60643411514
 20
735.0685783889135
 30
0.0
 40
25.9717811778291
 41
0.0
 71
     5
 72
     1
  1
P.C.D 400
  7
EXCADDIM1
 11
0.707106781186547
 21
-0.7071067811865479
 31
0.0
  0
LINE
  5
4B7
330
4B1
100
AcDbEntity
  8
Ｓ_１_１
  6
CONTINUOUS
 62
     2
100
AcDbLine
 10
2513.578643762691
 20
1131.42135623731
 30
0.0
 11
2796.42135623731
 21
848.5786437626904
 31
0.0
  0
INSERT
  5
4B8
330
4B1
100
AcDbEntity
  8
Ｓ_１_１
 62
     2
100
AcDbBlockReference
  2
EX_NORM
 10
2513.578643762691
 20
1131.42135623731
 30
0.0
 41
22.49999809265137
 42
22.49999809265137
 43
22.49999809265137
 50
314.9999999999999
  0
INSERT
  5
4B9
330
4B1
100
AcDbEntity
  8
Ｓ_１_１
 62
     2
100
AcDbBlockReference
  2
EX_NORM
 10
2796.42135623731
 20
848.5786437626904
 30
0.0
 41
22.49999809265137
 42
22.49999809265137
 43
22.49999809265137
 50
135.0
  0
POINT
  5
4BA
330
4B1
100
AcDbEntity
  8
DEFPOINTS
 62
     0
100
AcDbPoint
 10
2796.42135623731
 20
848.5786437626904
 30
0.0
  0
POINT
  5
4BB
330
4B1
100
AcDbEntity
  8
DEFPOINTS
 62
     0
100
AcDbPoint
 10
2513.578643762691
 20
1131.42135623731
 30
0.0
  0
ENDBLK
  5
4B3
330
4B1
100
AcDbEntity
  8
0
100
AcDbBlockEnd
  0
ENDSEC
  0
SECTION
  2
ENTITIES
  0
LINE
  5
D4
330
1F
100
AcDbEntity
  8
図面枠
  6
CONTINUOUS
 62
     5
100
AcDbLine
 10
75.0
 20
75.0
 30
0.0
 11
3075.0
 21
75.0
 31
0.0
  0
LINE
  5
D5
330
1F
100
AcDbEntity
  8
図面枠
  6
CONTINUOUS
 62
     5
100
AcDbLine
 10
3075.0
 20
75.0
 30
0.0
 11
3075.0
 21
2152.5
 31
0.0
  0
LINE
  5
D6
330
1F
100
AcDbEntity
  8
図面枠
  6
CONTINUOUS
 62
     5
100
AcDbLine
 10
3075.0
 20
2152.5
 30
0.0
 11
75.00000000000038
 21
2152.5
 31
0.0
  0
LINE
  5
D7
330
1F
100
AcDbEntity
  8
図面枠
  6
CONTINUOUS
 62
     5
100
AcDbLine
 10
75.00000000000038
 20
2152.5
 30
0.0
 11
75.0
 21
75.0
 31
0.0
  0
TEXT
  5
D9
330
1F
100
AcDbEntity
  8
図面枠
  6
CONTINUOUS
 62
     4
100
AcDbText
 10
2902.5
 20
2035.37109375
 30
0.0
 40
25.9717811778291
  1
kN
 41
0.9992307692307691
  7
EXCADTTF1
 72
     5
 11
2936.25
 21
2035.37109375
 31
0.0
100
AcDbText
  0
TEXT
  5
DA
330
1F
100
AcDbEntity
  8
図面枠
  6
CONTINUOUS
 62
     4
100
AcDbText
 10
2452.5
 20
2035.37109375
 30
0.0
 40
25.9717811778291
  1
能力
 41
0.9992307692307691
  7
EXCADTTF1
 72
     5
 11
2520.0
 21
2035.37109375
 31
0.0
100
AcDbText
  0
TEXT
  5
DB
330
1F
100
AcDbEntity
  8
図面枠
  6
CONTINUOUS
 62
     4
100
AcDbText
 10
2653.125
 20
2080.37109375
 30
0.0
 40
25.9717811778291
  1
仕　　　様
 41
0.9992307692307691
  7
EXCADTTF1
 72
     5
 11
2821.875
 21
2080.37109375
 31
0.0
100
AcDbText
  0
LINE
  5
DC
330
1F
100
AcDbEntity
  8
図面枠
  6
CONTINUOUS
 62
     3
100
AcDbLine
 10
2437.5
 20
2115.0
 30
0.0
 11
3037.5
 21
2115.0
 31
0.0
  0
LINE
  5
DD
330
1F
100
AcDbEntity
  8
図面枠
  6
CONTINUOUS
 62
     3
100
AcDbLine
 10
2437.5
 20
2070.0
 30
0.0
 11
3037.5
 21
2070.0
 31
0.0
  0
LINE
  5
DE
330
1F
100
AcDbEntity
  8
図面枠
  6
CONTINUOUS
 62
     3
100
AcDbLine
 10
2437.5
 20
2115.0
 30
0.0
 11
2437.5
 21
1530.0
 31
0.0
  0
LINE
  5
DF
330
1F
100
AcDbEntity
  8
図面枠
  6
CONTINUOUS
 62
     2
100
AcDbLine
 10
2737.5
 20
2070.0
 30
0.0
 11
2737.5
 21
1530.0
 31
0.0
  0
LINE
  5
E0
330
1F
100
AcDbEntity
  8
図面枠
  6
CONTINUOUS
 62
     2
100
AcDbLine
 10
2887.5
 20
2070.0
 30
0.0
 11
2887.5
 21
1530.0
 31
0.0
  0
LINE
  5
E1
330
1F
100
AcDbEntity
  8
図面枠
  6
CONTINUOUS
 62
     3
100
AcDbLine
 10
3037.5
 20
2115.0
 30
0.0
 11
3037.5
 21
1530.0
 31
0.0
  0
LINE
  5
E2
330
1F
100
AcDbEntity
  8
図面枠
  6
CONTINUOUS
 62
     3
100
AcDbLine
 10
2722.5
 20
180.0
 30
0.0
 11
3037.5
 21
180.0
 31
0.0
  0
LINE
  5
E3
330
1F
100
AcDbEntity
  8
図面枠
  6
CONTINUOUS
 62
     3
100
AcDbLine
 10
2722.5
 20
112.5
 30
0.0
 11
3037.5
 21
112.5
 31
0.0
  0
LINE
  5
E4
330
1F
100
AcDbEntity
  8
図面枠
  6
CONTINUOUS
 62
     3
100
AcDbLine
 10
2722.5
 20
180.0
 30
0.0
 11
2722.5
 21
112.5
 31
0.0
  0
LINE
  5
E5
330
1F
100
AcDbEntity
  8
図面枠
  6
CONTINUOUS
 62
     3
100
AcDbLine
 10
3037.5
 20
180.0
 30
0.0
 11
3037.5
 21
112.5
 31
0.0
  0
TEXT
  5
E6
330
1F
100
AcDbEntity
  8
図面枠
  6
CONTINUOUS
 62
     4
100
AcDbText
 10
2745.0
 20
130.0781244635582
 30
0.0
 40
34.62903863489857
  1
OTV-100025-U
 41
0.9992308539366183
  7
EXCADTTF1
 72
     5
 11
3015.0
 21
130.0781244635582
 31
0.0
100
AcDbText
  0
TEXT
  5
E7
330
1F
100
AcDbEntity
  8
図面枠
  6
CONTINUOUS
 62
     4
100
AcDbText
 10
2788.125
 20
2035.37109375
 30
0.0
 40
25.9717811778291
  1
10000
 41
0.9992307692307691
  7
EXCADTTF1
 72
     5
 11
2872.5
 21
2035.37109375
 31
0.0
100
AcDbText
  0
TEXT
  5
E8
330
1F
100
AcDbEntity
  8
図面枠
  6
CONTINUOUS
 62
     4
100
AcDbText
 10
2902.5
 20
1990.37109375
 30
0.0
 40
25.9717811778291
  1
mm
 41
0.9992307692307691
  7
EXCADTTF1
 72
     5
 11
2936.25
 21
1990.37109375
 31
0.0
100
AcDbText
  0
TEXT
  5
E9
330
1F
100
AcDbEntity
  8
図面枠
  6
CONTINUOUS
 62
     4
100
AcDbText
 10
2902.5
 20
1945.37109375
 30
0.0
 40
25.9717811778291
  1
mm
 41
0.9992307692307691
  7
EXCADTTF1
 72
     5
 11
2936.25
 21
1945.37109375
 31
0.0
100
AcDbText
  0
TEXT
  5
EA
330
1F
100
AcDbEntity
  8
図面枠
  6
CONTINUOUS
 62
     4
100
AcDbText
 10
2902.5
 20
1900.37109375
 30
0.0
 40
25.9717811778291
  1
mm
 41
0.9992307692307691
  7
EXCADTTF1
 72
     5
 11
2936.25
 21
1900.37109375
 31
0.0
100
AcDbText
  0
TEXT
  5
EB
330
1F
100
AcDbEntity
  8
図面枠
  6
CONTINUOUS
 62
     4
100
AcDbText
 10
2902.5
 20
1855.37109375
 30
0.0
 40
25.9717811778291
  1
mm
 41
0.9992307692307691
  7
EXCADTTF1
 72
     5
 11
2936.25
 21
1855.37109375
 31
0.0
100
AcDbText
  0
TEXT
  5
EC
330
1F
100
AcDbEntity
  8
図面枠
  6
CONTINUOUS
 62
     4
100
AcDbText
 10
2902.5
 20
1810.37109375
 30
0.0
 40
25.9717811778291
  1
mm
 41
0.9992307692307691
  7
EXCADTTF1
 72
     5
 11
2936.25
 21
1810.37109375
 31
0.0
100
AcDbText
  0
TEXT
  5
ED
330
1F
100
AcDbEntity
  8
図面枠
  6
CONTINUOUS
 62
     4
100
AcDbText
 10
2452.5
 20
1990.37109375
 30
0.0
 40
25.9717811778291
  1
ストローク
 41
0.9992307692307691
  7
EXCADTTF1
 72
     5
 11
2621.25
 21
1990.37109375
 31
0.0
100
AcDbText
  0
TEXT
  5
EE
330
1F
100
AcDbEntity
  8
図面枠
  6
CONTINUOUS
 62
     4
100
AcDbText
 10
2452.5
 20
1945.37109375
 30
0.0
 40
25.9717811778291
  1
最低機械高
 41
0.9992307692307691
  7
EXCADTTF1
 72
     5
 11
2621.25
 21
1945.37109375
 31
0.0
100
AcDbText
  0
TEXT
  5
EF
330
1F
100
AcDbEntity
  8
図面枠
  6
CONTINUOUS
 62
     4
100
AcDbText
 10
2452.5
 20
1900.37109375
 30
0.0
 40
25.9717811778291
  1
シリンダー外径
 41
0.9992307692307691
  7
EXCADTTF1
 72
     5
 11
2688.75
 21
1900.37109375
 31
0.0
100
AcDbText
  0
TEXT
  5
F0
330
1F
100
AcDbEntity
  8
図面枠
  6
CONTINUOUS
 62
     4
100
AcDbText
 10
2452.5
 20
1855.37109375
 30
0.0
 40
25.9717811778291
  1
ヘッド径
 41
0.9992307692307691
  7
EXCADTTF1
 72
     5
 11
2587.5
 21
1855.37109375
 31
0.0
100
AcDbText
  0
TEXT
  5
F1
330
1F
100
AcDbEntity
  8
図面枠
  6
CONTINUOUS
 62
     4
100
AcDbText
 10
2452.5
 20
1810.37109375
 30
0.0
 40
25.9717811778291
  1
ピストン径
 41
0.9992307692307691
  7
EXCADTTF1
 72
     5
 11
2621.25
 21
1810.37109375
 31
0.0
100
AcDbText
  0
LINE
  5
F2
330
1F
100
AcDbEntity
  8
図面枠
  6
CONTINUOUS
 62
     2
100
AcDbLine
 10
2437.5
 20
2025.0
 30
0.0
 11
3037.5
 21
2025.0
 31
0.0
  0
LINE
  5
F3
330
1F
100
AcDbEntity
  8
図面枠
  6
CONTINUOUS
 62
     2
100
AcDbLine
 10
2437.5
 20
1980.0
 30
0.0
 11
3037.5
 21
1980.0
 31
0.0
  0
LINE
  5
F4
330
1F
100
AcDbEntity
  8
図面枠
  6
CONTINUOUS
 62
     2
100
AcDbLine
 10
2437.5
 20
1935.0
 30
0.0
 11
3037.5
 21
1935.0
 31
0.0
  0
LINE
  5
F5
330
1F
100
AcDbEntity
  8
図面枠
  6
CONTINUOUS
 62
     2
100
AcDbLine
 10
2437.5
 20
1890.0
 30
0.0
 11
3037.5
 21
1890.0
 31
0.0
  0
LINE
  5
F6
330
1F
100
AcDbEntity
  8
図面枠
  6
CONTINUOUS
 62
     2
100
AcDbLine
 10
2437.5
 20
1845.0
 30
0.0
 11
3037.5
 21
1845.0
 31
0.0
  0
LINE
  5
F7
330
1F
100
AcDbEntity
  8
図面枠
  6
CONTINUOUS
 62
     2
100
AcDbLine
 10
2437.5
 20
1800.0
 30
0.0
 11
3037.5
 21
1800.0
 31
0.0
  0
TEXT
  5
F8
330
1F
100
AcDbEntity
  8
図面枠
  6
CONTINUOUS
 62
     4
100
AcDbText
 10
2902.5
 20
1720.37109375
 30
0.0
 40
25.9717811778291
  1
MPa
 41
0.9992307692307693
  7
EXCADTTF1
 72
     5
 11
2953.125
 21
1720.37109375
 31
0.0
100
AcDbText
  0
TEXT
  5
F9
330
1F
100
AcDbEntity
  8
図面枠
  6
CONTINUOUS
 62
     4
100
AcDbText
 10
2452.5
 20
1765.37109375
 30
0.0
 40
25.9717811778291
  1
受圧面積
 41
0.9992307692307691
  7
EXCADTTF1
 72
     5
 11
2587.5
 21
1765.37109375
 31
0.0
100
AcDbText
  0
TEXT
  5
FA
330
1F
100
AcDbEntity
  8
図面枠
  6
CONTINUOUS
 62
     4
100
AcDbText
 10
2452.5
 20
1720.37109375
 30
0.0
 40
25.9717811778291
  1
最高使用圧力
 41
0.9992307692307691
  7
EXCADTTF1
 72
     5
 11
2655.0
 21
1720.37109375
 31
0.0
100
AcDbText
  0
LINE
  5
FB
330
1F
100
AcDbEntity
  8
図面枠
  6
CONTINUOUS
 62
     2
100
AcDbLine
 10
2437.5
 20
1755.0
 30
0.0
 11
3037.5
 21
1755.0
 31
0.0
  0
TEXT
  5
FC
330
1F
100
AcDbEntity
  8
図面枠
  6
CONTINUOUS
 62
     4
100
AcDbText
 10
2821.875
 20
1990.37109375
 30
0.0
 40
25.9717811778291
  1
250
 41
0.9992307692307693
  7
EXCADTTF1
 72
     5
 11
2872.5
 21
1990.37109375
 31
0.0
100
AcDbText
  0
TEXT
  5
FD
330
1F
100
AcDbEntity
  8
図面枠
  6
CONTINUOUS
 62
     4
100
AcDbText
 10
2821.875
 20
1945.37109375
 30
0.0
 40
25.9717811778291
  1
745
 41
0.9992307692307693
  7
EXCADTTF1
 72
     5
 11
2872.5
 21
1945.37109375
 31
0.0
100
AcDbText
  0
TEXT
  5
FE
330
1F
100
AcDbEntity
  8
図面枠
  6
CONTINUOUS
 62
     4
100
AcDbText
 10
2821.875
 20
1900.37109375
 30
0.0
 40
25.9717811778291
  1
570
 41
0.9992307692307693
  7
EXCADTTF1
 72
     5
 11
2872.5
 21
1900.37109375
 31
0.0
100
AcDbText
  0
TEXT
  5
FF
330
1F
100
AcDbEntity
  8
図面枠
  6
CONTINUOUS
 62
     4
100
AcDbText
 10
2821.875
 20
1855.37109375
 30
0.0
 40
25.9717811778291
  1
570
 41
0.9992307692307693
  7
EXCADTTF1
 72
     5
 11
2872.5
 21
1855.37109375
 31
0.0
100
AcDbText
  0
TEXT
  5
100
330
1F
100
AcDbEntity
  8
図面枠
  6
CONTINUOUS
 62
     4
100
AcDbText
 10
2821.875
 20
1810.37109375
 30
0.0
 40
25.9717811778291
  1
435
 41
0.9992307692307693
  7
EXCADTTF1
 72
     5
 11
2872.5
 21
1810.37109375
 31
0.0
100
AcDbText
  0
TEXT
  5
101
330
1F
100
AcDbEntity
  8
図面枠
  6
CONTINUOUS
 62
     4
100
AcDbText
 10
2805.0
 20
1765.37109375
 30
0.0
 40
25.9717811778291
  1
1486
 41
0.9992307692307691
  7
EXCADTTF1
 72
     5
 11
2872.5
 21
1765.37109375
 31
0.0
100
AcDbText
  0
TEXT
  5
102
330
1F
100
AcDbEntity
  8
図面枠
  6
CONTINUOUS
 62
     4
100
AcDbText
 10
2805.0
 20
1720.37109375
 30
0.0
 40
25.9717811778291
  1
67.3
 41
0.9992307692307691
  7
EXCADTTF1
 72
     5
 11
2872.5
 21
1720.37109375
 31
0.0
100
AcDbText
  0
TEXT
  5
103
330
1F
100
AcDbEntity
  8
図面枠
  6
CONTINUOUS
 62
     4
100
AcDbText
 10
2902.5
 20
1630.37109375
 30
0.0
 40
25.9717811778291
  1
kg
 41
0.9992307692307691
  7
EXCADTTF1
 72
     5
 11
2936.25
 21
1630.37109375
 31
0.0
100
AcDbText
  0
TEXT
  5
104
330
1F
100
AcDbEntity
  8
図面枠
  6
CONTINUOUS
 62
     4
100
AcDbText
 10
2452.5
 20
1675.37109375
 30
0.0
 40
25.9717811778291
  1
所要油量
 41
0.9992307692307691
  7
EXCADTTF1
 72
     5
 11
2587.5
 21
1675.37109375
 31
0.0
100
AcDbText
  0
TEXT
  5
105
330
1F
100
AcDbEntity
  8
図面枠
  6
CONTINUOUS
 62
     4
100
AcDbText
 10
2452.5
 20
1630.37109375
 30
0.0
 40
25.9717811778291
  1
重量
 41
0.9992307692307691
  7
EXCADTTF1
 72
     5
 11
2520.0
 21
1630.37109375
 31
0.0
100
AcDbText
  0
LINE
  5
106
330
1F
100
AcDbEntity
  8
図面枠
  6
CONTINUOUS
 62
     2
100
AcDbLine
 10
2437.5
 20
1710.0
 30
0.0
 11
3037.5
 21
1710.0
 31
0.0
  0
LINE
  5
107
330
1F
100
AcDbEntity
  8
図面枠
  6
CONTINUOUS
 62
     2
100
AcDbLine
 10
2437.5
 20
1665.0
 30
0.0
 11
3037.5
 21
1665.0
 31
0.0
  0
TEXT
  5
108
330
1F
100
AcDbEntity
  8
図面枠
  6
CONTINUOUS
 62
     4
100
AcDbText
 10
2902.5
 20
1675.37109375
 30
0.0
 40
25.9717811778291
  1
L
 41
0.9992307692307691
  7
EXCADTTF1
 72
     5
 11
2919.375
 21
1675.37109375
 31
0.0
100
AcDbText
  0
TEXT
  5
109
330
1F
100
AcDbEntity
  8
図面枠
  6
CONTINUOUS
 62
     4
100
AcDbText
 10
2771.25
 20
1630.37109375
 30
0.0
 40
25.9717811778291
  1
約1400
 41
0.9992307692307691
  7
EXCADTTF1
 72
     5
 11
2872.5
 21
1630.37109375
 31
0.0
100
AcDbText
  0
TEXT
  5
10A
330
1F
100
AcDbEntity
  8
図面枠
  6
CONTINUOUS
 62
     4
100
AcDbText
 10
2902.5
 20
1765.37109375
 30
0.0
 40
25.9717811778291
  1
cm
 41
0.9992307692307691
  7
EXCADTTF1
 72
     5
 11
2936.25
 21
1765.37109375
 31
0.0
100
AcDbText
  0
TEXT
  5
10B
330
1F
100
AcDbEntity
  8
図面枠
  6
CONTINUOUS
 62
     4
100
AcDbText
 10
2926.125
 20
1781.32324232161
 30
0.0
 40
11.68730006225298
  1
2
 41
0.999230894720921
  7
EXCADTTF1
 72
     5
 11
2933.71875
 21
1781.32324232161
 31
0.0
100
AcDbText
  0
TEXT
  5
10C
330
1F
100
AcDbEntity
  8
図面枠
  6
CONTINUOUS
 62
     4
100
AcDbText
 10
2452.5
 20
1585.37109375
 30
0.0
 40
25.9717811778291
  1
ユニバーサル
 41
0.9992307692307691
  7
EXCADTTF1
 72
     5
 11
2655.0
 21
1585.37109375
 31
0.0
100
AcDbText
  0
TEXT
  5
10D
330
1F
100
AcDbEntity
  8
図面枠
  6
CONTINUOUS
 62
     4
100
AcDbText
 10
2452.5
 20
1551.62109375
 30
0.0
 40
25.9717811778291
  1
振り角
 41
0.9992307692307693
  7
EXCADTTF1
 72
     5
 11
2553.75
 21
1551.62109375
 31
0.0
100
AcDbText
  0
LINE
  5
10E
330
1F
100
AcDbEntity
  8
図面枠
  6
CONTINUOUS
 62
     2
100
AcDbLine
 10
2737.5
 20
1575.0
 30
0.0
 11
3037.5
 21
1575.0
 31
0.0
  0
TEXT
  5
10F
330
1F
100
AcDbEntity
  8
図面枠
  6
CONTINUOUS
 62
     4
100
AcDbText
 10
2821.875
 20
1585.37109375
 30
0.0
 40
25.9717811778291
  1
±3
 41
0.9992307692307693
  7
EXCADTTF1
 72
     5
 11
2872.5
 21
1585.37109375
 31
0.0
100
AcDbText
  0
TEXT
  5
110
330
1F
100
AcDbEntity
  8
図面枠
  6
CONTINUOUS
 62
     4
100
AcDbText
 10
2902.5
 20
1585.37109375
 30
0.0
 40
25.9717811778291
  1
°
 41
0.9992307692307691
  7
EXCADTTF1
 72
     5
 11
2936.25
 21
1585.37109375
 31
0.0
100
AcDbText
  0
TEXT
  5
111
330
1F
100
AcDbEntity
  8
図面枠
  6
CONTINUOUS
 62
     4
100
AcDbText
 10
2821.875
 20
1540.37109375
 30
0.0
 40
25.9717811778291
  1
±5
 41
0.9992307692307693
  7
EXCADTTF1
 72
     5
 11
2872.5
 21
1540.37109375
 31
0.0
100
AcDbText
  0
TEXT
  5
112
330
1F
100
AcDbEntity
  8
図面枠
  6
CONTINUOUS
 62
     4
100
AcDbText
 10
2902.5
 20
1540.37109375
 30
0.0
 40
25.9717811778291
  1
%%%
 41
0.9992307692307691
  7
EXCADTTF1
 72
     5
 11
2919.375
 21
1540.37109375
 31
0.0
100
AcDbText
  0
LINE
  5
113
330
1F
100
AcDbEntity
  8
図面枠
  6
CONTINUOUS
 62
     3
100
AcDbLine
 10
2437.5
 20
1530.0
 30
0.0
 11
3037.5
 21
1530.0
 31
0.0
  0
LINE
  5
114
330
1F
100
AcDbEntity
  8
図面枠
  6
CONTINUOUS
 62
     2
100
AcDbLine
 10
2437.5
 20
1620.0
 30
0.0
 11
3037.5
 21
1620.0
 31
0.0
  0
LINE
  5
115
330
1F
100
AcDbEntity
  8
図面枠
  6
CONTINUOUS
 62
     3
100
AcDbLine
 10
112.5000000000001
 20
2115.0
 30
0.0
 11
112.5000000000001
 21
2047.5
 31
0.0
  0
LINE
  5
116
330
1F
100
AcDbEntity
  8
図面枠
  6
CONTINUOUS
 62
     3
100
AcDbLine
 10
112.5000000000001
 20
2115.0
 30
0.0
 11
1432.5
 21
2115.0
 31
0.0
  0
LINE
  5
117
330
1F
100
AcDbEntity
  8
図面枠
  6
CONTINUOUS
 62
     3
100
AcDbLine
 10
112.5000000000001
 20
2047.5
 30
0.0
 11
1432.5
 21
2047.5
 31
0.0
  0
TEXT
  5
118
330
1F
100
AcDbEntity
  8
図面枠
  6
CONTINUOUS
 62
     4
100
AcDbText
 10
142.5
 20
2065.078126370907
 30
0.0
 40
34.62903863489857
  1
10000kN250ストローク油圧ジャッキ　ユニバーサルヘッド付き
 41
0.9992308539366181
  7
EXCADTTF1
 72
     5
 11
1402.5
 21
2065.078126370907
 31
0.0
100
AcDbText
  0
LINE
  5
119
330
1F
100
AcDbEntity
  8
図面枠
  6
CONTINUOUS
 62
     3
100
AcDbLine
 10
1432.5
 20
2115.0
 30
0.0
 11
1432.5
 21
2047.5
 31
0.0
  0
TEXT
  5
11A
330
1F
100
AcDbEntity
  8
図面枠
  6
CONTINUOUS
 62
     4
100
AcDbText
 10
2805.0
 20
1675.37109375
 30
0.0
 40
25.9717811778291
  1
37.2
 41
0.9992307692307691
  7
EXCADTTF1
 72
     5
 11
2872.5
 21
1675.37109375
 31
0.0
100
AcDbText
  0
DIMENSION
  5
11C
330
1F
100
AcDbEntity
  8
Ｓ_１_１
  6
CONTINUOUS
 62
     2
100
AcDbDimension
  2
*D15
 10
1870.000002
 20
1485.0
 30
0.0
 11
1970.000001
 21
1505.625
 31
0.0
 70
   160
  3
ISO-25
100
AcDbAlignedDimension
 13
2070.0
 23
1270.000005
 33
0.0
 14
1870.000002
 24
1051.872665
 34
0.0
100
AcDbRotatedDimension
1001
ACAD
1000
DSTYLE
1002
{
1070
   270
1070
     2
1070
     6
1000
EX_NORM
1070
     7
1000
EX_NORM
1070
    41
1040
22.49999809265137
1070
    42
1040
11.25
1070
    44
1040
7.5
1070
    73
1070
     0
1070
    74
1070
     0
1070
    75
1070
     0
1070
    76
1070
     1
1070
    77
1070
     1
1070
    78
1070
     8
1070
   140
1040
25.9717811778291
1070
   147
1040
0.0
1070
   173
1070
     1
1070
   176
1070
     2
1070
   177
1070
     2
1070
   178
1070
     2
1070
   271
1070
     2
1070
   277
1070
     2
1070
   279
1070
     2
1070
   280
1070
     0
1070
   287
1070
     5
1070
   340
1005
11B
1002
}
  0
DIMENSION
  5
129
330
1F
100
AcDbEntity
  8
Ｓ_１_１
  6
CONTINUOUS
 62
     2
100
AcDbDimension
  2
*D16
 10
1600.0
 20
1485.0
 30
0.0
 11
1735.000001
 21
1505.625
 31
0.0
 70
   160
  3
ISO-25
100
AcDbAlignedDimension
 13
1870.000002
 23
1051.872665
 33
0.0
 14
1600.0
 24
1054.252762
 34
0.0
100
AcDbRotatedDimension
1001
ACAD
1000
DSTYLE
1002
{
1070
   270
1070
     2
1070
     6
1000
EX_NORM
1070
     7
1000
EX_NORM
1070
    41
1040
22.49999809265137
1070
    42
1040
11.25
1070
    44
1040
7.5
1070
    73
1070
     0
1070
    74
1070
     0
1070
    75
1070
     0
1070
    76
1070
     1
1070
    77
1070
     1
1070
    78
1070
     8
1070
   140
1040
25.9717811778291
1070
   147
1040
0.0
1070
   173
1070
     1
1070
   176
1070
     2
1070
   177
1070
     2
1070
   178
1070
     2
1070
   271
1070
     2
1070
   277
1070
     2
1070
   279
1070
     2
1070
   280
1070
     0
1070
   287
1070
     5
1070
   340
1005
11B
1002
}
  0
DIMENSION
  5
135
330
1F
100
AcDbEntity
  8
Ｓ_１_１
  6
CONTINUOUS
 62
     2
100
AcDbDimension
  2
*D17
 10
1430.0
 20
1485.0
 30
0.0
 11
1515.0
 21
1505.625
 31
0.0
 70
   160
  3
ISO-25
100
AcDbAlignedDimension
 13
1600.0
 23
1054.252762
 33
0.0
 14
1430.0
 24
1269.99998
 34
0.0
100
AcDbRotatedDimension
1001
ACAD
1000
DSTYLE
1002
{
1070
   270
1070
     2
1070
     6
1000
EX_NORM
1070
     7
1000
EX_NORM
1070
    41
1040
22.49999809265137
1070
    42
1040
11.25
1070
    44
1040
7.5
1070
    73
1070
     0
1070
    74
1070
     0
1070
    75
1070
     0
1070
    76
1070
     0
1070
    77
1070
     1
1070
    78
1070
     8
1070
   140
1040
25.9717811778291
1070
   147
1040
0.0
1070
   173
1070
     1
1070
   176
1070
     2
1070
   177
1070
     2
1070
   178
1070
     2
1070
   271
1070
     2
1070
   277
1070
     2
1070
   279
1070
     2
1070
   280
1070
     0
1070
   287
1070
     5
1070
   340
1005
11B
1002
}
  0
DIMENSION
  5
142
330
1F
100
AcDbEntity
  8
Ｓ_１_１
  6
CONTINUOUS
 62
     2
100
AcDbDimension
  2
*D18
 10
1430.0
 20
495.0
 30
0.0
 11
1750.0
 21
515.625
 31
0.0
 70
   160
  3
ISO-25
100
AcDbAlignedDimension
 13
2070.0
 23
710.000001
 33
0.0
 14
1430.0
 24
709.999979
 34
0.0
100
AcDbRotatedDimension
1001
ACAD
1000
DSTYLE
1002
{
1070
   270
1070
     2
1070
     6
1000
EX_NORM
1070
     7
1000
EX_NORM
1070
    41
1040
22.49999809265137
1070
    42
1040
0.0
1070
    44
1040
0.0
1070
    73
1070
     0
1070
    74
1070
     0
1070
    75
1070
     1
1070
    76
1070
     1
1070
    77
1070
     1
1070
    78
1070
     8
1070
   140
1040
25.9717811778291
1070
   147
1040
0.0
1070
   173
1070
     1
1070
   176
1070
     2
1070
   177
1070
     2
1070
   178
1070
     2
1070
   271
1070
     2
1070
   277
1070
     2
1070
   279
1070
     2
1070
   280
1070
     0
1070
   287
1070
     5
1070
   340
1005
11B
1002
}
  0
DIMENSION
  5
14D
330
1F
100
AcDbEntity
  8
Ｓ_１_１
  6
CONTINUOUS
 62
     2
100
AcDbDimension
  2
*D19
 10
1420.0
 20
495.0
 30
0.0
 11
1469.375
 21
515.6249999999995
 31
0.0
 70
   160
  3
ISO-25
100
AcDbAlignedDimension
 13
1430.0
 23
709.999979
 33
0.0
 14
1420.0
 24
814.999982
 34
0.0
100
AcDbRotatedDimension
1001
ACAD
1000
DSTYLE
1002
{
1070
   270
1070
     2
1070
     6
1000
EX_NORM
1070
     7
1000
EX_NORM
1070
    41
1040
22.49999809265137
1070
    42
1040
11.25
1070
    44
1040
7.5
1070
    73
1070
     0
1070
    74
1070
     0
1070
    75
1070
     0
1070
    76
1070
     1
1070
    77
1070
     1
1070
    78
1070
     8
1070
   140
1040
25.9717811778291
1070
   147
1040
0.0
1070
   173
1070
     1
1070
   176
1070
     2
1070
   177
1070
     2
1070
   178
1070
     2
1070
   271
1070
     2
1070
   277
1070
     2
1070
   279
1070
     2
1070
   280
1070
     1
1070
   287
1070
     5
1070
   340
1005
11B
1002
}
  0
DIMENSION
  5
15B
330
1F
100
AcDbEntity
  8
Ｓ_１_１
  6
CONTINUOUS
 62
     2
100
AcDbDimension
  2
*D20
 10
1325.0
 20
495.0
 30
0.0
 11
1372.5
 21
515.625
 31
0.0
 70
   160
  3
ISO-25
100
AcDbAlignedDimension
 13
1420.0
 23
814.999982
 33
0.0
 14
1325.0
 24
709.999976
 34
0.0
100
AcDbRotatedDimension
1001
ACAD
1000
DSTYLE
1002
{
1070
   270
1070
     2
1070
     6
1000
EX_NORM
1070
     7
1000
EX_NORM
1070
    41
1040
22.49999809265137
1070
    42
1040
11.25
1070
    44
1040
7.5
1070
    73
1070
     0
1070
    74
1070
     0
1070
    75
1070
     0
1070
    76
1070
     1
1070
    77
1070
     1
1070
    78
1070
     8
1070
   140
1040
25.9717811778291
1070
   147
1040
0.0
1070
   173
1070
     1
1070
   176
1070
     2
1070
   177
1070
     2
1070
   178
1070
     2
1070
   271
1070
     2
1070
   277
1070
     2
1070
   279
1070
     2
1070
   280
1070
     0
1070
   287
1070
     5
1070
   340
1005
11B
1002
}
  0
DIMENSION
  5
167
330
1F
100
AcDbEntity
  8
Ｓ_１_１
  6
CONTINUOUS
 62
     2
100
AcDbDimension
  2
*D21
 10
2070.0
 20
450.0
 30
0.0
 11
1697.5
 21
470.625
 31
0.0
 70
   160
  3
ISO-25
100
AcDbAlignedDimension
 13
1325.0
 23
709.999976
 33
0.0
 14
2070.0
 24
710.000001
 34
0.0
100
AcDbRotatedDimension
1001
ACAD
1000
DSTYLE
1002
{
1070
   270
1070
     2
1070
     6
1000
EX_NORM
1070
     7
1000
EX_NORM
1070
    41
1040
22.49999809265137
1070
    42
1040
11.25
1070
    44
1040
7.5
1070
    73
1070
     0
1070
    74
1070
     0
1070
    75
1070
     0
1070
    76
1070
     0
1070
    77
1070
     1
1070
    78
1070
     8
1070
   140
1040
25.9717811778291
1070
   147
1040
0.0
1070
   173
1070
     1
1070
   176
1070
     2
1070
   177
1070
     2
1070
   178
1070
     2
1070
   271
1070
     2
1070
   277
1070
     2
1070
   279
1070
     2
1070
   280
1070
     0
1070
   287
1070
     5
1070
   340
1005
11B
1002
}
  0
DIMENSION
  5
174
330
1F
100
AcDbEntity
  8
Ｓ_１_１
  6
CONTINUOUS
 62
     2
100
AcDbDimension
  2
*D22
 10
1215.0
 20
705.0
 30
0.0
 11
1194.375
 21
990.0
 31
0.0
 70
   160
  1
%%c570
  3
ISO-25
100
AcDbAlignedDimension
 13
1330.0
 23
1275.0
 33
0.0
 14
1330.0
 24
705.0
 34
0.0
 50
90.0
100
AcDbRotatedDimension
1001
ACAD
1000
DSTYLE
1002
{
1070
   270
1070
     2
1070
     6
1000
EX_NORM
1070
     7
1000
EX_NORM
1070
    41
1040
22.49999809265137
1070
    42
1040
11.25
1070
    44
1040
7.5
1070
    73
1070
     0
1070
    74
1070
     0
1070
    75
1070
     0
1070
    76
1070
     0
1070
    77
1070
     1
1070
    78
1070
     8
1070
   140
1040
25.9717811778291
1070
   147
1040
0.0
1070
   173
1070
     1
1070
   176
1070
     2
1070
   177
1070
     2
1070
   178
1070
     2
1070
   271
1070
     2
1070
   277
1070
     2
1070
   279
1070
     2
1070
   280
1070
     0
1070
   287
1070
     5
1070
   340
1005
11B
1002
}
  0
DIMENSION
  5
181
330
1F
100
AcDbEntity
  8
Ｓ_１_１
  6
CONTINUOUS
 62
     2
100
AcDbDimension
  2
*D23
 10
2205.0
 20
705.0
 30
0.0
 11
2184.375
 21
990.0
 31
0.0
 70
   160
  1
%%c570
  3
ISO-25
100
AcDbAlignedDimension
 13
2065.0
 23
1275.0
 33
0.0
 14
2065.0
 24
705.0
 34
0.0
 50
90.0
100
AcDbRotatedDimension
1001
ACAD
1000
DSTYLE
1002
{
1070
   270
1070
     2
1070
     6
1000
EX_NORM
1070
     7
1000
EX_NORM
1070
    41
1040
22.49999809265137
1070
    42
1040
11.25
1070
    44
1040
7.5
1070
    73
1070
     0
1070
    74
1070
     0
1070
    75
1070
     0
1070
    76
1070
     0
1070
    77
1070
     1
1070
    78
1070
     8
1070
   140
1040
25.9717811778291
1070
   147
1040
0.0
1070
   173
1070
     1
1070
   176
1070
     2
1070
   177
1070
     2
1070
   178
1070
     2
1070
   271
1070
     2
1070
   277
1070
     2
1070
   279
1070
     2
1070
   280
1070
     0
1070
   287
1070
     5
1070
   340
1005
11B
1002
}
  0
DIMENSION
  5
18E
330
1F
100
AcDbEntity
  8
Ｓ_１_１
  6
CONTINUOUS
 62
     2
100
AcDbDimension
  2
*D24
 10
1125.0
 20
932.8499979999999
 30
0.0
 11
1104.375
 21
989.999996
 31
0.0
 70
   160
  1
%%c114
  3
ISO-25
100
AcDbAlignedDimension
 13
1000.000061
 23
1047.149994
 33
0.0
 14
1000.000061
 24
932.8499979999999
 34
0.0
 50
90.0
100
AcDbRotatedDimension
1001
ACAD
1000
DSTYLE
1002
{
1070
   270
1070
     2
1070
     6
1000
EX_NORM
1070
     7
1000
EX_NORM
1070
    41
1040
22.49999809265137
1070
    42
1040
11.25
1070
    44
1040
7.5
1070
    73
1070
     0
1070
    74
1070
     0
1070
    75
1070
     0
1070
    76
1070
     0
1070
    77
1070
     1
1070
    78
1070
     8
1070
   140
1040
25.9717811778291
1070
   147
1040
0.0
1070
   173
1070
     1
1070
   176
1070
     2
1070
   177
1070
     2
1070
   178
1070
     2
1070
   271
1070
     2
1070
   277
1070
     2
1070
   279
1070
     2
1070
   280
1070
     0
1070
   287
1070
     5
1070
   340
1005
11B
1002
}
  0
DIMENSION
  5
19B
330
1F
100
AcDbEntity
  8
Ｓ_１_１
  6
CONTINUOUS
 62
     2
100
AcDbDimension
  2
*D25
 10
225.0
 20
1395.0
 30
0.0
 11
204.3750000000001
 21
990.0
 31
0.0
 70
   160
  3
ISO-25
100
AcDbAlignedDimension
 13
585.0
 23
585.0
 33
0.0
 14
610.0
 24
1395.0
 34
0.0
 50
90.0
100
AcDbRotatedDimension
1001
ACAD
1000
DSTYLE
1002
{
1070
   270
1070
     2
1070
     6
1000
EX_NORM
1070
     7
1000
EX_NORM
1070
    41
1040
22.49999809265137
1070
    42
1040
11.25
1070
    44
1040
7.5
1070
    73
1070
     0
1070
    74
1070
     0
1070
    75
1070
     0
1070
    76
1070
     0
1070
    77
1070
     1
1070
    78
1070
     8
1070
   140
1040
25.9717811778291
1070
   147
1040
0.0
1070
   173
1070
     1
1070
   176
1070
     2
1070
   177
1070
     2
1070
   178
1070
     2
1070
   271
1070
     2
1070
   277
1070
     2
1070
   279
1070
     2
1070
   280
1070
     0
1070
   287
1070
     5
1070
   340
1005
11B
1002
}
  0
DIMENSION
  5
1A8
330
1F
100
AcDbEntity
  8
Ｓ_１_１
  6
CONTINUOUS
 62
     2
100
AcDbDimension
  2
*D26
 10
650.0
 20
1485.0
 30
0.0
 11
630.0000000000001
 21
1505.625
 31
0.0
 70
   160
  3
ISO-25
100
AcDbAlignedDimension
 13
610.0
 23
1395.0
 33
0.0
 14
650.0
 24
1395.0
 34
0.0
100
AcDbRotatedDimension
1001
ACAD
1000
DSTYLE
1002
{
1070
   270
1070
     2
1070
     6
1000
EX_NORM
1070
     7
1000
EX_NORM
1070
    41
1040
22.49999809265137
1070
    42
1040
11.25
1070
    44
1040
7.5
1070
    73
1070
     0
1070
    74
1070
     0
1070
    75
1070
     0
1070
    76
1070
     0
1070
    77
1070
     1
1070
    78
1070
     8
1070
   140
1040
25.9717811778291
1070
   147
1040
0.0
1070
   173
1070
     1
1070
   176
1070
     2
1070
   177
1070
     2
1070
   178
1070
     2
1070
   271
1070
     2
1070
   277
1070
     2
1070
   279
1070
     2
1070
   280
1070
     0
1070
   287
1070
     5
1070
   340
1005
11B
1002
}
  0
DIMENSION
  5
1B7
330
1F
100
AcDbEntity
  8
Ｓ_１_１
  6
CONTINUOUS
 62
     2
100
AcDbDimension
  2
*D27
 10
1000.000061
 20
1530.0
 30
0.0
 11
672.5000305000001
 21
1550.625
 31
0.0
 70
   160
  3
ISO-25
100
AcDbAlignedDimension
 13
345.0
 23
990.0
 33
0.0
 14
1000.000061
 24
1047.149994
 34
0.0
100
AcDbRotatedDimension
1001
ACAD
1000
DSTYLE
1002
{
1070
   270
1070
     2
1070
     6
1000
EX_NORM
1070
     7
1000
EX_NORM
1070
    41
1040
22.49999809265137
1070
    42
1040
11.25
1070
    44
1040
7.5
1070
    73
1070
     0
1070
    74
1070
     0
1070
    75
1070
     0
1070
    76
1070
     0
1070
    77
1070
     1
1070
    78
1070
     8
1070
   140
1040
25.9717811778291
1070
   147
1040
0.0
1070
   173
1070
     1
1070
   176
1070
     2
1070
   177
1070
     2
1070
   178
1070
     2
1070
   271
1070
     2
1070
   277
1070
     2
1070
   279
1070
     2
1070
   280
1070
     0
1070
   287
1070
     5
1070
   340
1005
11B
1002
}
  0
LINE
  5
1C4
330
1F
100
AcDbEntity
  8
Ｓ_１_１
  6
EXLTYPE2
 62
     1
100
AcDbLine
 10
1895.0
 20
922.8500180000001
 30
0.0
 11
1895.0
 21
892.850021
 31
0.0
  0
LINE
  5
1C5
330
1F
100
AcDbEntity
  8
Ｓ_１_１
  6
EXLTYPE2
 62
     1
100
AcDbLine
 10
1895.0
 20
1087.149979
 30
0.0
 11
1895.0
 21
1057.149979
 31
0.0
  0
LINE
  5
1C6
330
1F
100
AcDbEntity
  8
Ｓ_１_１
  6
EXLTYPE2
 62
     1
100
AcDbLine
 10
1845.000002
 20
1087.149979
 30
0.0
 11
1845.000002
 21
1057.149979
 31
0.0
  0
LINE
  5
1C7
330
1F
100
AcDbEntity
  8
Ｓ_１_１
  6
EXLTYPE2
 62
     1
100
AcDbLine
 10
1845.000002
 20
922.8500180000001
 30
0.0
 11
1845.000002
 21
892.850021
 31
0.0
  0
LINE
  5
1C8
330
1F
100
AcDbEntity
  8
Ｓ_１_１
  6
EXLTYPE2
 62
     1
100
AcDbLine
 10
1575.0
 20
922.8500180000001
 30
0.0
 11
1575.0
 21
892.850021
 31
0.0
  0
LINE
  5
1C9
330
1F
100
AcDbEntity
  8
Ｓ_１_１
  6
EXLTYPE2
 62
     1
100
AcDbLine
 10
1575.0
 20
1087.149979
 30
0.0
 11
1575.0
 21
1057.149979
 31
0.0
  0
LINE
  5
1CA
330
1F
100
AcDbEntity
  8
Ｓ_１_１
  6
EXLTYPE2
 62
     1
100
AcDbLine
 10
1625.0
 20
1087.149979
 30
0.0
 11
1625.0
 21
1057.149979
 31
0.0
  0
LINE
  5
1CB
330
1F
100
AcDbEntity
  8
Ｓ_１_１
  6
EXLTYPE2
 62
     1
100
AcDbLine
 10
1625.0
 20
922.8500180000001
 30
0.0
 11
1625.0
 21
892.850021
 31
0.0
  0
LINE
  5
1CC
330
1F
100
AcDbEntity
  8
Ｓ_１_１
  6
EXLTYPE2
 62
     1
100
AcDbLine
 10
1870.000002
 20
1051.872665
 30
0.0
 11
1870.000002
 21
926.7418789999999
 31
0.0
  0
LINE
  5
1CD
330
1F
100
AcDbEntity
  8
Ｓ_１_１
  6
EXLTYPE2
 62
     1
100
AcDbLine
 10
1830.000002
 20
1072.149979
 30
0.0
 11
1860.000002
 21
1072.149979
 31
0.0
  0
LINE
  5
1CE
330
1F
100
AcDbEntity
  8
Ｓ_１_１
  6
EXLTYPE2
 62
     1
100
AcDbLine
 10
1830.000002
 20
907.850021
 30
0.0
 11
1860.000002
 21
907.850021
 31
0.0
  0
LINE
  5
1CF
330
1F
100
AcDbEntity
  8
Ｓ_１_１
  6
EXLTYPE2
 62
     1
100
AcDbLine
 10
1600.0
 20
1054.252762
 30
0.0
 11
1600.0
 21
924.559467
 31
0.0
  0
LINE
  5
1D0
330
1F
100
AcDbEntity
  8
Ｓ_１_１
  6
EXLTYPE2
 62
     1
100
AcDbLine
 10
1560.0
 20
1072.149979
 30
0.0
 11
1590.0
 21
1072.149979
 31
0.0
  0
LINE
  5
1D1
330
1F
100
AcDbEntity
  8
Ｓ_１_１
  6
EXLTYPE2
 62
     1
100
AcDbLine
 10
1560.0
 20
907.850021
 30
0.0
 11
1590.0
 21
907.850021
 31
0.0
  0
LINE
  5
1D2
330
1F
100
AcDbEntity
  8
Ｓ_１_１
  6
EXLTYPE2
 62
     1
100
AcDbLine
 10
1610.0
 20
1072.149979
 30
0.0
 11
1640.0
 21
1072.149979
 31
0.0
  0
LINE
  5
1D3
330
1F
100
AcDbEntity
  8
Ｓ_１_１
  6
EXLTYPE2
 62
     1
100
AcDbLine
 10
1610.0
 20
907.850021
 30
0.0
 11
1640.0
 21
907.850021
 31
0.0
  0
LINE
  5
1D4
330
1F
100
AcDbEntity
  8
Ｓ_１_１
  6
EXLTYPE2
 62
     1
100
AcDbLine
 10
1880.000002
 20
907.850021
 30
0.0
 11
1910.0
 21
907.850021
 31
0.0
  0
LINE
  5
1D5
330
1F
100
AcDbEntity
  8
Ｓ_１_１
  6
EXLTYPE2
 62
     1
100
AcDbLine
 10
1880.000002
 20
1072.149979
 30
0.0
 11
1910.0
 21
1072.149979
 31
0.0
  0
LINE
  5
1D6
330
1F
100
AcDbEntity
  8
Ｓ_１_１
  6
EXLTYPE2
 62
     1
100
AcDbLine
 10
1479.702576
 20
645.0
 30
0.0
 11
1617.14241
 21
645.0
 31
0.0
  0
LINE
  5
1D7
330
1F
100
AcDbEntity
  8
Ｓ_１_１
  6
EXLTYPE2
 62
     1
100
AcDbLine
 10
1550.0
 20
572.2684939999999
 30
0.0
 11
1550.0
 21
715.0981140000001
 31
0.0
  0
LINE
  5
1D8
330
1F
100
AcDbEntity
  8
Ｓ_１_１
  6
EXLTYPE2
 62
     1
100
AcDbLine
 10
1476.802948
 20
1335.0
 30
0.0
 11
1630.547989
 21
1335.0
 31
0.0
  0
LINE
  5
1D9
330
1F
100
AcDbEntity
  8
Ｓ_１_１
  6
EXLTYPE2
 62
     1
100
AcDbLine
 10
1550.0
 20
1412.039917
 30
0.0
 11
1550.0
 21
1262.884277
 31
0.0
  0
LINE
  5
1DA
330
1F
100
AcDbEntity
  8
Ｓ_１_１
  6
EXLTYPE2
 62
     1
100
AcDbLine
 10
1307.091614
 20
990.0
 30
0.0
 11
2088.765244
 21
990.0
 31
0.0
  0
POLYLINE
  5
1DB
330
1F
100
AcDbEntity
  8
Ｓ_１_１
  6
CONTINUOUS
 62
     3
100
AcDb2dPolyline
 66
     1
 10
0.0
 20
0.0
 30
0.0
 70
   128
  0
VERTEX
  5
1DC
330
1DB
100
AcDbEntity
  8
Ｓ_１_１
  6
CONTINUOUS
 62
     3
100
AcDbVertex
100
AcDb2dVertex
 10
1835.000002
 20
1072.101128
 30
0.0
  0
VERTEX
  5
1DD
330
1DB
100
AcDbEntity
  8
Ｓ_１_１
  6
CONTINUOUS
 62
     3
100
AcDbVertex
100
AcDb2dVertex
 10
1835.038055
 20
1071.26527
 30
0.0
  0
VERTEX
  5
1DE
330
1DB
100
AcDbEntity
  8
Ｓ_１_１
  6
CONTINUOUS
 62
     3
100
AcDbVertex
100
AcDb2dVertex
 10
1835.151924
 20
1070.435775
 30
0.0
  0
VERTEX
  5
1DF
330
1DB
100
AcDbEntity
  8
Ｓ_１_１
  6
CONTINUOUS
 62
     3
100
AcDbVertex
100
AcDb2dVertex
 10
1835.340744
 20
1069.618953
 30
0.0
  0
VERTEX
  5
1E0
330
1DB
100
AcDbEntity
  8
Ｓ_１_１
  6
CONTINUOUS
 62
     3
100
AcDbVertex
100
AcDb2dVertex
 10
1835.603076
 20
1068.821023
 30
0.0
  0
VERTEX
  5
1E1
330
1DB
100
AcDbEntity
  8
Ｓ_１_１
  6
CONTINUOUS
 62
     3
100
AcDbVertex
100
AcDb2dVertex
 10
1835.936924
 20
1068.048056
 30
0.0
  0
VERTEX
  5
1E2
330
1DB
100
AcDbEntity
  8
Ｓ_１_１
  6
CONTINUOUS
 62
     3
100
AcDbVertex
100
AcDb2dVertex
 10
1836.339748
 20
1067.305935
 30
0.0
  0
VERTEX
  5
1E3
330
1DB
100
AcDbEntity
  8
Ｓ_１_１
  6
CONTINUOUS
 62
     3
100
AcDbVertex
100
AcDb2dVertex
 10
1836.808481
 20
1066.600309
 30
0.0
  0
VERTEX
  5
1E4
330
1DB
100
AcDbEntity
  8
Ｓ_１_１
  6
CONTINUOUS
 62
     3
100
AcDbVertex
100
AcDb2dVertex
 10
1837.339557
 20
1065.936547
 30
0.0
  0
VERTEX
  5
1E5
330
1DB
100
AcDbEntity
  8
Ｓ_１_１
  6
CONTINUOUS
 62
     3
100
AcDbVertex
100
AcDb2dVertex
 10
1837.928934
 20
1065.319701
 30
0.0
  0
VERTEX
  5
1E6
330
1DB
100
AcDbEntity
  8
Ｓ_１_１
  6
CONTINUOUS
 62
     3
100
AcDbVertex
100
AcDb2dVertex
 10
1838.572126
 20
1064.754466
 30
0.0
  0
VERTEX
  5
1E7
330
1DB
100
AcDbEntity
  8
Ｓ_１_１
  6
CONTINUOUS
 62
     3
100
AcDbVertex
100
AcDb2dVertex
 10
1839.264238
 20
1064.245144
 30
0.0
  0
VERTEX
  5
1E8
330
1DB
100
AcDbEntity
  8
Ｓ_１_１
  6
CONTINUOUS
 62
     3
100
AcDbVertex
100
AcDb2dVertex
 10
1840.000002
 20
1063.79561
 30
0.0
  0
VERTEX
  5
1E9
330
1DB
100
AcDbEntity
  8
Ｓ_１_１
  6
CONTINUOUS
 62
     3
100
AcDbVertex
100
AcDb2dVertex
 10
1840.773819
 20
1063.409287
 30
0.0
  0
VERTEX
  5
1EA
330
1DB
100
AcDbEntity
  8
Ｓ_１_１
  6
CONTINUOUS
 62
     3
100
AcDbVertex
100
AcDb2dVertex
 10
1841.5798
 20
1063.089113
 30
0.0
  0
VERTEX
  5
1EB
330
1DB
100
AcDbEntity
  8
Ｓ_１_１
  6
CONTINUOUS
 62
     3
100
AcDbVertex
100
AcDb2dVertex
 10
1842.411811
 20
1062.837527
 30
0.0
  0
VERTEX
  5
1EC
330
1DB
100
AcDbEntity
  8
Ｓ_１_１
  6
CONTINUOUS
 62
     3
100
AcDbVertex
100
AcDb2dVertex
 10
1843.26352
 20
1062.656442
 30
0.0
  0
VERTEX
  5
1ED
330
1DB
100
AcDbEntity
  8
Ｓ_１_１
  6
CONTINUOUS
 62
     3
100
AcDbVertex
100
AcDb2dVertex
 10
1844.128444
 20
1062.547236
 30
0.0
  0
VERTEX
  5
1EE
330
1DB
100
AcDbEntity
  8
Ｓ_１_１
  6
CONTINUOUS
 62
     3
100
AcDbVertex
100
AcDb2dVertex
 10
1845.000002
 20
1062.510742
 30
0.0
  0
VERTEX
  5
1EF
330
1DB
100
AcDbEntity
  8
Ｓ_１_１
  6
CONTINUOUS
 62
     3
100
AcDbVertex
100
AcDb2dVertex
 10
1845.871559
 20
1062.547236
 30
0.0
  0
VERTEX
  5
1F0
330
1DB
100
AcDbEntity
  8
Ｓ_１_１
  6
CONTINUOUS
 62
     3
100
AcDbVertex
100
AcDb2dVertex
 10
1846.736484
 20
1062.656442
 30
0.0
  0
VERTEX
  5
1F1
330
1DB
100
AcDbEntity
  8
Ｓ_１_１
  6
CONTINUOUS
 62
     3
100
AcDbVertex
100
AcDb2dVertex
 10
1847.588192
 20
1062.837527
 30
0.0
  0
VERTEX
  5
1F2
330
1DB
100
AcDbEntity
  8
Ｓ_１_１
  6
CONTINUOUS
 62
     3
100
AcDbVertex
100
AcDb2dVertex
 10
1848.420203
 20
1063.089113
 30
0.0
  0
VERTEX
  5
1F3
330
1DB
100
AcDbEntity
  8
Ｓ_１_１
  6
CONTINUOUS
 62
     3
100
AcDbVertex
100
AcDb2dVertex
 10
1849.226185
 20
1063.409287
 30
0.0
  0
VERTEX
  5
1F4
330
1DB
100
AcDbEntity
  8
Ｓ_１_１
  6
CONTINUOUS
 62
     3
100
AcDbVertex
100
AcDb2dVertex
 10
1850.000002
 20
1063.79561
 30
0.0
  0
VERTEX
  5
1F5
330
1DB
100
AcDbEntity
  8
Ｓ_１_１
  6
CONTINUOUS
 62
     3
100
AcDbVertex
100
AcDb2dVertex
 10
1850.735766
 20
1064.245144
 30
0.0
  0
VERTEX
  5
1F6
330
1DB
100
AcDbEntity
  8
Ｓ_１_１
  6
CONTINUOUS
 62
     3
100
AcDbVertex
100
AcDb2dVertex
 10
1851.427878
 20
1064.754466
 30
0.0
  0
VERTEX
  5
1F7
330
1DB
100
AcDbEntity
  8
Ｓ_１_１
  6
CONTINUOUS
 62
     3
100
AcDbVertex
100
AcDb2dVertex
 10
1852.07107
 20
1065.319701
 30
0.0
  0
VERTEX
  5
1F8
330
1DB
100
AcDbEntity
  8
Ｓ_１_１
  6
CONTINUOUS
 62
     3
100
AcDbVertex
100
AcDb2dVertex
 10
1852.660446
 20
1065.936547
 30
0.0
  0
VERTEX
  5
1F9
330
1DB
100
AcDbEntity
  8
Ｓ_１_１
  6
CONTINUOUS
 62
     3
100
AcDbVertex
100
AcDb2dVertex
 10
1853.191522
 20
1066.600309
 30
0.0
  0
VERTEX
  5
1FA
330
1DB
100
AcDbEntity
  8
Ｓ_１_１
  6
CONTINUOUS
 62
     3
100
AcDbVertex
100
AcDb2dVertex
 10
1853.660256
 20
1067.305935
 30
0.0
  0
VERTEX
  5
1FB
330
1DB
100
AcDbEntity
  8
Ｓ_１_１
  6
CONTINUOUS
 62
     3
100
AcDbVertex
100
AcDb2dVertex
 10
1854.06308
 20
1068.048056
 30
0.0
  0
VERTEX
  5
1FC
330
1DB
100
AcDbEntity
  8
Ｓ_１_１
  6
CONTINUOUS
 62
     3
100
AcDbVertex
100
AcDb2dVertex
 10
1854.396928
 20
1068.821023
 30
0.0
  0
VERTEX
  5
1FD
330
1DB
100
AcDbEntity
  8
Ｓ_１_１
  6
CONTINUOUS
 62
     3
100
AcDbVertex
100
AcDb2dVertex
 10
1854.65926
 20
1069.618953
 30
0.0
  0
VERTEX
  5
1FE
330
1DB
100
AcDbEntity
  8
Ｓ_１_１
  6
CONTINUOUS
 62
     3
100
AcDbVertex
100
AcDb2dVertex
 10
1854.848079
 20
1070.435775
 30
0.0
  0
VERTEX
  5
1FF
330
1DB
100
AcDbEntity
  8
Ｓ_１_１
  6
CONTINUOUS
 62
     3
100
AcDbVertex
100
AcDb2dVertex
 10
1854.961949
 20
1071.26527
 30
0.0
  0
VERTEX
  5
200
330
1DB
100
AcDbEntity
  8
Ｓ_１_１
  6
CONTINUOUS
 62
     3
100
AcDbVertex
100
AcDb2dVertex
 10
1855.000002
 20
1072.101128
 30
0.0
  0
VERTEX
  5
201
330
1DB
100
AcDbEntity
  8
Ｓ_１_１
  6
CONTINUOUS
 62
     3
100
AcDbVertex
100
AcDb2dVertex
 10
1854.961949
 20
1072.936985
 30
0.0
  0
VERTEX
  5
202
330
1DB
100
AcDbEntity
  8
Ｓ_１_１
  6
CONTINUOUS
 62
     3
100
AcDbVertex
100
AcDb2dVertex
 10
1854.848079
 20
1073.766481
 30
0.0
  0
VERTEX
  5
203
330
1DB
100
AcDbEntity
  8
Ｓ_１_１
  6
CONTINUOUS
 62
     3
100
AcDbVertex
100
AcDb2dVertex
 10
1854.65926
 20
1074.583302
 30
0.0
  0
VERTEX
  5
204
330
1DB
100
AcDbEntity
  8
Ｓ_１_１
  6
CONTINUOUS
 62
     3
100
AcDbVertex
100
AcDb2dVertex
 10
1854.396928
 20
1075.381233
 30
0.0
  0
VERTEX
  5
205
330
1DB
100
AcDbEntity
  8
Ｓ_１_１
  6
CONTINUOUS
 62
     3
100
AcDbVertex
100
AcDb2dVertex
 10
1854.06308
 20
1076.1542
 30
0.0
  0
VERTEX
  5
206
330
1DB
100
AcDbEntity
  8
Ｓ_１_１
  6
CONTINUOUS
 62
     3
100
AcDbVertex
100
AcDb2dVertex
 10
1853.660256
 20
1076.89632
 30
0.0
  0
VERTEX
  5
207
330
1DB
100
AcDbEntity
  8
Ｓ_１_１
  6
CONTINUOUS
 62
     3
100
AcDbVertex
100
AcDb2dVertex
 10
1853.191522
 20
1077.601947
 30
0.0
  0
VERTEX
  5
208
330
1DB
100
AcDbEntity
  8
Ｓ_１_１
  6
CONTINUOUS
 62
     3
100
AcDbVertex
100
AcDb2dVertex
 10
1852.660446
 20
1078.265709
 30
0.0
  0
VERTEX
  5
209
330
1DB
100
AcDbEntity
  8
Ｓ_１_１
  6
CONTINUOUS
 62
     3
100
AcDbVertex
100
AcDb2dVertex
 10
1852.07107
 20
1078.882554
 30
0.0
  0
VERTEX
  5
20A
330
1DB
100
AcDbEntity
  8
Ｓ_１_１
  6
CONTINUOUS
 62
     3
100
AcDbVertex
100
AcDb2dVertex
 10
1851.427878
 20
1079.447789
 30
0.0
  0
VERTEX
  5
20B
330
1DB
100
AcDbEntity
  8
Ｓ_１_１
  6
CONTINUOUS
 62
     3
100
AcDbVertex
100
AcDb2dVertex
 10
1850.735766
 20
1079.957111
 30
0.0
  0
VERTEX
  5
20C
330
1DB
100
AcDbEntity
  8
Ｓ_１_１
  6
CONTINUOUS
 62
     3
100
AcDbVertex
100
AcDb2dVertex
 10
1850.000002
 20
1080.406645
 30
0.0
  0
VERTEX
  5
20D
330
1DB
100
AcDbEntity
  8
Ｓ_１_１
  6
CONTINUOUS
 62
     3
100
AcDbVertex
100
AcDb2dVertex
 10
1849.226185
 20
1080.792969
 30
0.0
  0
VERTEX
  5
20E
330
1DB
100
AcDbEntity
  8
Ｓ_１_１
  6
CONTINUOUS
 62
     3
100
AcDbVertex
100
AcDb2dVertex
 10
1848.420203
 20
1081.113142
 30
0.0
  0
VERTEX
  5
20F
330
1DB
100
AcDbEntity
  8
Ｓ_１_１
  6
CONTINUOUS
 62
     3
100
AcDbVertex
100
AcDb2dVertex
 10
1847.588192
 20
1081.364729
 30
0.0
  0
VERTEX
  5
210
330
1DB
100
AcDbEntity
  8
Ｓ_１_１
  6
CONTINUOUS
 62
     3
100
AcDbVertex
100
AcDb2dVertex
 10
1846.736484
 20
1081.545814
 30
0.0
  0
VERTEX
  5
211
330
1DB
100
AcDbEntity
  8
Ｓ_１_１
  6
CONTINUOUS
 62
     3
100
AcDbVertex
100
AcDb2dVertex
 10
1845.871559
 20
1081.655019
 30
0.0
  0
VERTEX
  5
212
330
1DB
100
AcDbEntity
  8
Ｓ_１_１
  6
CONTINUOUS
 62
     3
100
AcDbVertex
100
AcDb2dVertex
 10
1845.000002
 20
1081.691513
 30
0.0
  0
VERTEX
  5
213
330
1DB
100
AcDbEntity
  8
Ｓ_１_１
  6
CONTINUOUS
 62
     3
100
AcDbVertex
100
AcDb2dVertex
 10
1844.128444
 20
1081.655019
 30
0.0
  0
VERTEX
  5
214
330
1DB
100
AcDbEntity
  8
Ｓ_１_１
  6
CONTINUOUS
 62
     3
100
AcDbVertex
100
AcDb2dVertex
 10
1843.26352
 20
1081.545814
 30
0.0
  0
VERTEX
  5
215
330
1DB
100
AcDbEntity
  8
Ｓ_１_１
  6
CONTINUOUS
 62
     3
100
AcDbVertex
100
AcDb2dVertex
 10
1842.411811
 20
1081.364729
 30
0.0
  0
VERTEX
  5
216
330
1DB
100
AcDbEntity
  8
Ｓ_１_１
  6
CONTINUOUS
 62
     3
100
AcDbVertex
100
AcDb2dVertex
 10
1841.5798
 20
1081.113142
 30
0.0
  0
VERTEX
  5
217
330
1DB
100
AcDbEntity
  8
Ｓ_１_１
  6
CONTINUOUS
 62
     3
100
AcDbVertex
100
AcDb2dVertex
 10
1840.773819
 20
1080.792969
 30
0.0
  0
VERTEX
  5
218
330
1DB
100
AcDbEntity
  8
Ｓ_１_１
  6
CONTINUOUS
 62
     3
100
AcDbVertex
100
AcDb2dVertex
 10
1840.000002
 20
1080.406645
 30
0.0
  0
VERTEX
  5
219
330
1DB
100
AcDbEntity
  8
Ｓ_１_１
  6
CONTINUOUS
 62
     3
100
AcDbVertex
100
AcDb2dVertex
 10
1839.264238
 20
1079.957111
 30
0.0
  0
VERTEX
  5
21A
330
1DB
100
AcDbEntity
  8
Ｓ_１_１
  6
CONTINUOUS
 62
     3
100
AcDbVertex
100
AcDb2dVertex
 10
1838.572126
 20
1079.447789
 30
0.0
  0
VERTEX
  5
21B
330
1DB
100
AcDbEntity
  8
Ｓ_１_１
  6
CONTINUOUS
 62
     3
100
AcDbVertex
100
AcDb2dVertex
 10
1837.928934
 20
1078.882554
 30
0.0
  0
VERTEX
  5
21C
330
1DB
100
AcDbEntity
  8
Ｓ_１_１
  6
CONTINUOUS
 62
     3
100
AcDbVertex
100
AcDb2dVertex
 10
1837.339557
 20
1078.265709
 30
0.0
  0
VERTEX
  5
21D
330
1DB
100
AcDbEntity
  8
Ｓ_１_１
  6
CONTINUOUS
 62
     3
100
AcDbVertex
100
AcDb2dVertex
 10
1836.808481
 20
1077.601947
 30
0.0
  0
VERTEX
  5
21E
330
1DB
100
AcDbEntity
  8
Ｓ_１_１
  6
CONTINUOUS
 62
     3
100
AcDbVertex
100
AcDb2dVertex
 10
1836.339748
 20
1076.89632
 30
0.0
  0
VERTEX
  5
21F
330
1DB
100
AcDbEntity
  8
Ｓ_１_１
  6
CONTINUOUS
 62
     3
100
AcDbVertex
100
AcDb2dVertex
 10
1835.936924
 20
1076.1542
 30
0.0
  0
VERTEX
  5
220
330
1DB
100
AcDbEntity
  8
Ｓ_１_１
  6
CONTINUOUS
 62
     3
100
AcDbVertex
100
AcDb2dVertex
 10
1835.603076
 20
1075.381233
 30
0.0
  0
VERTEX
  5
221
330
1DB
100
AcDbEntity
  8
Ｓ_１_１
  6
CONTINUOUS
 62
     3
100
AcDbVertex
100
AcDb2dVertex
 10
1835.340744
 20
1074.583302
 30
0.0
  0
VERTEX
  5
222
330
1DB
100
AcDbEntity
  8
Ｓ_１_１
  6
CONTINUOUS
 62
     3
100
AcDbVertex
100
AcDb2dVertex
 10
1835.151924
 20
1073.766481
 30
0.0
  0
VERTEX
  5
223
330
1DB
100
AcDbEntity
  8
Ｓ_１_１
  6
CONTINUOUS
 62
     3
100
AcDbVertex
100
AcDb2dVertex
 10
1835.038055
 20
1072.936985
 30
0.0
  0
VERTEX
  5
224
330
1DB
100
AcDbEntity
  8
Ｓ_１_１
  6
CONTINUOUS
 62
     3
100
AcDbVertex
100
AcDb2dVertex
 10
1835.000002
 20
1072.101128
 30
0.0
  0
SEQEND
  5
225
330
1DB
100
AcDbEntity
  8
Ｓ_１_１
  6
CONTINUOUS
 62
     3
  0
POLYLINE
  5
226
330
1F
100
AcDbEntity
  8
Ｓ_１_１
  6
CONTINUOUS
 62
     3
100
AcDb2dPolyline
 66
     1
 10
0.0
 20
0.0
 30
0.0
 70
   128
  0
VERTEX
  5
227
330
226
100
AcDbEntity
  8
Ｓ_１_１
  6
CONTINUOUS
 62
     3
100
AcDbVertex
100
AcDb2dVertex
 10
1835.000002
 20
907.898872
 30
0.0
  0
VERTEX
  5
228
330
226
100
AcDbEntity
  8
Ｓ_１_１
  6
CONTINUOUS
 62
     3
100
AcDbVertex
100
AcDb2dVertex
 10
1835.038055
 20
907.063015
 30
0.0
  0
VERTEX
  5
229
330
226
100
AcDbEntity
  8
Ｓ_１_１
  6
CONTINUOUS
 62
     3
100
AcDbVertex
100
AcDb2dVertex
 10
1835.151924
 20
906.2335190000001
 30
0.0
  0
VERTEX
  5
22A
330
226
100
AcDbEntity
  8
Ｓ_１_１
  6
CONTINUOUS
 62
     3
100
AcDbVertex
100
AcDb2dVertex
 10
1835.340744
 20
905.416698
 30
0.0
  0
VERTEX
  5
22B
330
226
100
AcDbEntity
  8
Ｓ_１_１
  6
CONTINUOUS
 62
     3
100
AcDbVertex
100
AcDb2dVertex
 10
1835.603076
 20
904.6187669999999
 30
0.0
  0
VERTEX
  5
22C
330
226
100
AcDbEntity
  8
Ｓ_１_１
  6
CONTINUOUS
 62
     3
100
AcDbVertex
100
AcDb2dVertex
 10
1835.936924
 20
903.8458
 30
0.0
  0
VERTEX
  5
22D
330
226
100
AcDbEntity
  8
Ｓ_１_１
  6
CONTINUOUS
 62
     3
100
AcDbVertex
100
AcDb2dVertex
 10
1836.339748
 20
903.1036799999999
 30
0.0
  0
VERTEX
  5
22E
330
226
100
AcDbEntity
  8
Ｓ_１_１
  6
CONTINUOUS
 62
     3
100
AcDbVertex
100
AcDb2dVertex
 10
1836.808481
 20
902.3980530000001
 30
0.0
  0
VERTEX
  5
22F
330
226
100
AcDbEntity
  8
Ｓ_１_１
  6
CONTINUOUS
 62
     3
100
AcDbVertex
100
AcDb2dVertex
 10
1837.339557
 20
901.734291
 30
0.0
  0
VERTEX
  5
230
330
226
100
AcDbEntity
  8
Ｓ_１_１
  6
CONTINUOUS
 62
     3
100
AcDbVertex
100
AcDb2dVertex
 10
1837.928934
 20
901.117446
 30
0.0
  0
VERTEX
  5
231
330
226
100
AcDbEntity
  8
Ｓ_１_１
  6
CONTINUOUS
 62
     3
100
AcDbVertex
100
AcDb2dVertex
 10
1838.572126
 20
900.5522109999999
 30
0.0
  0
VERTEX
  5
232
330
226
100
AcDbEntity
  8
Ｓ_１_１
  6
CONTINUOUS
 62
     3
100
AcDbVertex
100
AcDb2dVertex
 10
1839.264238
 20
900.0428890000001
 30
0.0
  0
VERTEX
  5
233
330
226
100
AcDbEntity
  8
Ｓ_１_１
  6
CONTINUOUS
 62
     3
100
AcDbVertex
100
AcDb2dVertex
 10
1840.000002
 20
899.593355
 30
0.0
  0
VERTEX
  5
234
330
226
100
AcDbEntity
  8
Ｓ_１_１
  6
CONTINUOUS
 62
     3
100
AcDbVertex
100
AcDb2dVertex
 10
1840.773819
 20
899.2070309999999
 30
0.0
  0
VERTEX
  5
235
330
226
100
AcDbEntity
  8
Ｓ_１_１
  6
CONTINUOUS
 62
     3
100
AcDbVertex
100
AcDb2dVertex
 10
1841.5798
 20
898.8868580000001
 30
0.0
  0
VERTEX
  5
236
330
226
100
AcDbEntity
  8
Ｓ_１_１
  6
CONTINUOUS
 62
     3
100
AcDbVertex
100
AcDb2dVertex
 10
1842.411811
 20
898.6352710000001
 30
0.0
  0
VERTEX
  5
237
330
226
100
AcDbEntity
  8
Ｓ_１_１
  6
CONTINUOUS
 62
     3
100
AcDbVertex
100
AcDb2dVertex
 10
1843.26352
 20
898.4541859999999
 30
0.0
  0
VERTEX
  5
238
330
226
100
AcDbEntity
  8
Ｓ_１_１
  6
CONTINUOUS
 62
     3
100
AcDbVertex
100
AcDb2dVertex
 10
1844.128444
 20
898.344981
 30
0.0
  0
VERTEX
  5
239
330
226
100
AcDbEntity
  8
Ｓ_１_１
  6
CONTINUOUS
 62
     3
100
AcDbVertex
100
AcDb2dVertex
 10
1845.000002
 20
898.308487
 30
0.0
  0
VERTEX
  5
23A
330
226
100
AcDbEntity
  8
Ｓ_１_１
  6
CONTINUOUS
 62
     3
100
AcDbVertex
100
AcDb2dVertex
 10
1845.871559
 20
898.344981
 30
0.0
  0
VERTEX
  5
23B
330
226
100
AcDbEntity
  8
Ｓ_１_１
  6
CONTINUOUS
 62
     3
100
AcDbVertex
100
AcDb2dVertex
 10
1846.736484
 20
898.4541859999999
 30
0.0
  0
VERTEX
  5
23C
330
226
100
AcDbEntity
  8
Ｓ_１_１
  6
CONTINUOUS
 62
     3
100
AcDbVertex
100
AcDb2dVertex
 10
1847.588192
 20
898.6352710000001
 30
0.0
  0
VERTEX
  5
23D
330
226
100
AcDbEntity
  8
Ｓ_１_１
  6
CONTINUOUS
 62
     3
100
AcDbVertex
100
AcDb2dVertex
 10
1848.420203
 20
898.8868580000001
 30
0.0
  0
VERTEX
  5
23E
330
226
100
AcDbEntity
  8
Ｓ_１_１
  6
CONTINUOUS
 62
     3
100
AcDbVertex
100
AcDb2dVertex
 10
1849.226185
 20
899.2070309999999
 30
0.0
  0
VERTEX
  5
23F
330
226
100
AcDbEntity
  8
Ｓ_１_１
  6
CONTINUOUS
 62
     3
100
AcDbVertex
100
AcDb2dVertex
 10
1850.000002
 20
899.593355
 30
0.0
  0
VERTEX
  5
240
330
226
100
AcDbEntity
  8
Ｓ_１_１
  6
CONTINUOUS
 62
     3
100
AcDbVertex
100
AcDb2dVertex
 10
1850.735766
 20
900.0428890000001
 30
0.0
  0
VERTEX
  5
241
330
226
100
AcDbEntity
  8
Ｓ_１_１
  6
CONTINUOUS
 62
     3
100
AcDbVertex
100
AcDb2dVertex
 10
1851.427878
 20
900.5522109999999
 30
0.0
  0
VERTEX
  5
242
330
226
100
AcDbEntity
  8
Ｓ_１_１
  6
CONTINUOUS
 62
     3
100
AcDbVertex
100
AcDb2dVertex
 10
1852.07107
 20
901.117446
 30
0.0
  0
VERTEX
  5
243
330
226
100
AcDbEntity
  8
Ｓ_１_１
  6
CONTINUOUS
 62
     3
100
AcDbVertex
100
AcDb2dVertex
 10
1852.660446
 20
901.734291
 30
0.0
  0
VERTEX
  5
244
330
226
100
AcDbEntity
  8
Ｓ_１_１
  6
CONTINUOUS
 62
     3
100
AcDbVertex
100
AcDb2dVertex
 10
1853.191522
 20
902.3980530000001
 30
0.0
  0
VERTEX
  5
245
330
226
100
AcDbEntity
  8
Ｓ_１_１
  6
CONTINUOUS
 62
     3
100
AcDbVertex
100
AcDb2dVertex
 10
1853.660256
 20
903.1036799999999
 30
0.0
  0
VERTEX
  5
246
330
226
100
AcDbEntity
  8
Ｓ_１_１
  6
CONTINUOUS
 62
     3
100
AcDbVertex
100
AcDb2dVertex
 10
1854.06308
 20
903.8458
 30
0.0
  0
VERTEX
  5
247
330
226
100
AcDbEntity
  8
Ｓ_１_１
  6
CONTINUOUS
 62
     3
100
AcDbVertex
100
AcDb2dVertex
 10
1854.396928
 20
904.6187669999999
 30
0.0
  0
VERTEX
  5
248
330
226
100
AcDbEntity
  8
Ｓ_１_１
  6
CONTINUOUS
 62
     3
100
AcDbVertex
100
AcDb2dVertex
 10
1854.65926
 20
905.416698
 30
0.0
  0
VERTEX
  5
249
330
226
100
AcDbEntity
  8
Ｓ_１_１
  6
CONTINUOUS
 62
     3
100
AcDbVertex
100
AcDb2dVertex
 10
1854.848079
 20
906.2335190000001
 30
0.0
  0
VERTEX
  5
24A
330
226
100
AcDbEntity
  8
Ｓ_１_１
  6
CONTINUOUS
 62
     3
100
AcDbVertex
100
AcDb2dVertex
 10
1854.961949
 20
907.063015
 30
0.0
  0
VERTEX
  5
24B
330
226
100
AcDbEntity
  8
Ｓ_１_１
  6
CONTINUOUS
 62
     3
100
AcDbVertex
100
AcDb2dVertex
 10
1855.000002
 20
907.898872
 30
0.0
  0
VERTEX
  5
24C
330
226
100
AcDbEntity
  8
Ｓ_１_１
  6
CONTINUOUS
 62
     3
100
AcDbVertex
100
AcDb2dVertex
 10
1854.961949
 20
908.7347299999999
 30
0.0
  0
VERTEX
  5
24D
330
226
100
AcDbEntity
  8
Ｓ_１_１
  6
CONTINUOUS
 62
     3
100
AcDbVertex
100
AcDb2dVertex
 10
1854.848079
 20
909.5642250000001
 30
0.0
  0
VERTEX
  5
24E
330
226
100
AcDbEntity
  8
Ｓ_１_１
  6
CONTINUOUS
 62
     3
100
AcDbVertex
100
AcDb2dVertex
 10
1854.65926
 20
910.3810470000001
 30
0.0
  0
VERTEX
  5
24F
330
226
100
AcDbEntity
  8
Ｓ_１_１
  6
CONTINUOUS
 62
     3
100
AcDbVertex
100
AcDb2dVertex
 10
1854.396928
 20
911.178977
 30
0.0
  0
VERTEX
  5
250
330
226
100
AcDbEntity
  8
Ｓ_１_１
  6
CONTINUOUS
 62
     3
100
AcDbVertex
100
AcDb2dVertex
 10
1854.06308
 20
911.9519439999999
 30
0.0
  0
VERTEX
  5
251
330
226
100
AcDbEntity
  8
Ｓ_１_１
  6
CONTINUOUS
 62
     3
100
AcDbVertex
100
AcDb2dVertex
 10
1853.660256
 20
912.6940649999999
 30
0.0
  0
VERTEX
  5
252
330
226
100
AcDbEntity
  8
Ｓ_１_１
  6
CONTINUOUS
 62
     3
100
AcDbVertex
100
AcDb2dVertex
 10
1853.191522
 20
913.3996910000001
 30
0.0
  0
VERTEX
  5
253
330
226
100
AcDbEntity
  8
Ｓ_１_１
  6
CONTINUOUS
 62
     3
100
AcDbVertex
100
AcDb2dVertex
 10
1852.660446
 20
914.063453
 30
0.0
  0
VERTEX
  5
254
330
226
100
AcDbEntity
  8
Ｓ_１_１
  6
CONTINUOUS
 62
     3
100
AcDbVertex
100
AcDb2dVertex
 10
1852.07107
 20
914.6802989999999
 30
0.0
  0
VERTEX
  5
255
330
226
100
AcDbEntity
  8
Ｓ_１_１
  6
CONTINUOUS
 62
     3
100
AcDbVertex
100
AcDb2dVertex
 10
1851.427878
 20
915.2455339999999
 30
0.0
  0
VERTEX
  5
256
330
226
100
AcDbEntity
  8
Ｓ_１_１
  6
CONTINUOUS
 62
     3
100
AcDbVertex
100
AcDb2dVertex
 10
1850.735766
 20
915.754856
 30
0.0
  0
VERTEX
  5
257
330
226
100
AcDbEntity
  8
Ｓ_１_１
  6
CONTINUOUS
 62
     3
100
AcDbVertex
100
AcDb2dVertex
 10
1850.000002
 20
916.2043900000001
 30
0.0
  0
VERTEX
  5
258
330
226
100
AcDbEntity
  8
Ｓ_１_１
  6
CONTINUOUS
 62
     3
100
AcDbVertex
100
AcDb2dVertex
 10
1849.226185
 20
916.590713
 30
0.0
  0
VERTEX
  5
259
330
226
100
AcDbEntity
  8
Ｓ_１_１
  6
CONTINUOUS
 62
     3
100
AcDbVertex
100
AcDb2dVertex
 10
1848.420203
 20
916.910887
 30
0.0
  0
VERTEX
  5
25A
330
226
100
AcDbEntity
  8
Ｓ_１_１
  6
CONTINUOUS
 62
     3
100
AcDbVertex
100
AcDb2dVertex
 10
1847.588192
 20
917.1624730000001
 30
0.0
  0
VERTEX
  5
25B
330
226
100
AcDbEntity
  8
Ｓ_１_１
  6
CONTINUOUS
 62
     3
100
AcDbVertex
100
AcDb2dVertex
 10
1846.736484
 20
917.343558
 30
0.0
  0
VERTEX
  5
25C
330
226
100
AcDbEntity
  8
Ｓ_１_１
  6
CONTINUOUS
 62
     3
100
AcDbVertex
100
AcDb2dVertex
 10
1845.871559
 20
917.4527639999999
 30
0.0
  0
VERTEX
  5
25D
330
226
100
AcDbEntity
  8
Ｓ_１_１
  6
CONTINUOUS
 62
     3
100
AcDbVertex
100
AcDb2dVertex
 10
1845.000002
 20
917.4892580000001
 30
0.0
  0
VERTEX
  5
25E
330
226
100
AcDbEntity
  8
Ｓ_１_１
  6
CONTINUOUS
 62
     3
100
AcDbVertex
100
AcDb2dVertex
 10
1844.128444
 20
917.4527639999999
 30
0.0
  0
VERTEX
  5
25F
330
226
100
AcDbEntity
  8
Ｓ_１_１
  6
CONTINUOUS
 62
     3
100
AcDbVertex
100
AcDb2dVertex
 10
1843.26352
 20
917.343558
 30
0.0
  0
VERTEX
  5
260
330
226
100
AcDbEntity
  8
Ｓ_１_１
  6
CONTINUOUS
 62
     3
100
AcDbVertex
100
AcDb2dVertex
 10
1842.411811
 20
917.1624730000001
 30
0.0
  0
VERTEX
  5
261
330
226
100
AcDbEntity
  8
Ｓ_１_１
  6
CONTINUOUS
 62
     3
100
AcDbVertex
100
AcDb2dVertex
 10
1841.5798
 20
916.910887
 30
0.0
  0
VERTEX
  5
262
330
226
100
AcDbEntity
  8
Ｓ_１_１
  6
CONTINUOUS
 62
     3
100
AcDbVertex
100
AcDb2dVertex
 10
1840.773819
 20
916.590713
 30
0.0
  0
VERTEX
  5
263
330
226
100
AcDbEntity
  8
Ｓ_１_１
  6
CONTINUOUS
 62
     3
100
AcDbVertex
100
AcDb2dVertex
 10
1840.000002
 20
916.2043900000001
 30
0.0
  0
VERTEX
  5
264
330
226
100
AcDbEntity
  8
Ｓ_１_１
  6
CONTINUOUS
 62
     3
100
AcDbVertex
100
AcDb2dVertex
 10
1839.264238
 20
915.754856
 30
0.0
  0
VERTEX
  5
265
330
226
100
AcDbEntity
  8
Ｓ_１_１
  6
CONTINUOUS
 62
     3
100
AcDbVertex
100
AcDb2dVertex
 10
1838.572126
 20
915.2455339999999
 30
0.0
  0
VERTEX
  5
266
330
226
100
AcDbEntity
  8
Ｓ_１_１
  6
CONTINUOUS
 62
     3
100
AcDbVertex
100
AcDb2dVertex
 10
1837.928934
 20
914.6802989999999
 30
0.0
  0
VERTEX
  5
267
330
226
100
AcDbEntity
  8
Ｓ_１_１
  6
CONTINUOUS
 62
     3
100
AcDbVertex
100
AcDb2dVertex
 10
1837.339557
 20
914.063453
 30
0.0
  0
VERTEX
  5
268
330
226
100
AcDbEntity
  8
Ｓ_１_１
  6
CONTINUOUS
 62
     3
100
AcDbVertex
100
AcDb2dVertex
 10
1836.808481
 20
913.3996910000001
 30
0.0
  0
VERTEX
  5
269
330
226
100
AcDbEntity
  8
Ｓ_１_１
  6
CONTINUOUS
 62
     3
100
AcDbVertex
100
AcDb2dVertex
 10
1836.339748
 20
912.6940649999999
 30
0.0
  0
VERTEX
  5
26A
330
226
100
AcDbEntity
  8
Ｓ_１_１
  6
CONTINUOUS
 62
     3
100
AcDbVertex
100
AcDb2dVertex
 10
1835.936924
 20
911.9519439999999
 30
0.0
  0
VERTEX
  5
26B
330
226
100
AcDbEntity
  8
Ｓ_１_１
  6
CONTINUOUS
 62
     3
100
AcDbVertex
100
AcDb2dVertex
 10
1835.603076
 20
911.178977
 30
0.0
  0
VERTEX
  5
26C
330
226
100
AcDbEntity
  8
Ｓ_１_１
  6
CONTINUOUS
 62
     3
100
AcDbVertex
100
AcDb2dVertex
 10
1835.340744
 20
910.3810470000001
 30
0.0
  0
VERTEX
  5
26D
330
226
100
AcDbEntity
  8
Ｓ_１_１
  6
CONTINUOUS
 62
     3
100
AcDbVertex
100
AcDb2dVertex
 10
1835.151924
 20
909.5642250000001
 30
0.0
  0
VERTEX
  5
26E
330
226
100
AcDbEntity
  8
Ｓ_１_１
  6
CONTINUOUS
 62
     3
100
AcDbVertex
100
AcDb2dVertex
 10
1835.038055
 20
908.7347299999999
 30
0.0
  0
VERTEX
  5
26F
330
226
100
AcDbEntity
  8
Ｓ_１_１
  6
CONTINUOUS
 62
     3
100
AcDbVertex
100
AcDb2dVertex
 10
1835.000002
 20
907.898872
 30
0.0
  0
SEQEND
  5
270
330
226
100
AcDbEntity
  8
Ｓ_１_１
  6
CONTINUOUS
 62
     3
  0
POLYLINE
  5
271
330
1F
100
AcDbEntity
  8
Ｓ_１_１
  6
CONTINUOUS
 62
     3
100
AcDb2dPolyline
 66
     1
 10
0.0
 20
0.0
 30
0.0
 70
   128
  0
VERTEX
  5
272
330
271
100
AcDbEntity
  8
Ｓ_１_１
  6
CONTINUOUS
 62
     3
100
AcDbVertex
100
AcDb2dVertex
 10
1565.0
 20
1072.101128
 30
0.0
  0
VERTEX
  5
273
330
271
100
AcDbEntity
  8
Ｓ_１_１
  6
CONTINUOUS
 62
     3
100
AcDbVertex
100
AcDb2dVertex
 10
1565.038053
 20
1071.26527
 30
0.0
  0
VERTEX
  5
274
330
271
100
AcDbEntity
  8
Ｓ_１_１
  6
CONTINUOUS
 62
     3
100
AcDbVertex
100
AcDb2dVertex
 10
1565.151922
 20
1070.435775
 30
0.0
  0
VERTEX
  5
275
330
271
100
AcDbEntity
  8
Ｓ_１_１
  6
CONTINUOUS
 62
     3
100
AcDbVertex
100
AcDb2dVertex
 10
1565.340742
 20
1069.618953
 30
0.0
  0
VERTEX
  5
276
330
271
100
AcDbEntity
  8
Ｓ_１_１
  6
CONTINUOUS
 62
     3
100
AcDbVertex
100
AcDb2dVertex
 10
1565.603074
 20
1068.821023
 30
0.0
  0
VERTEX
  5
277
330
271
100
AcDbEntity
  8
Ｓ_１_１
  6
CONTINUOUS
 62
     3
100
AcDbVertex
100
AcDb2dVertex
 10
1565.936922
 20
1068.048056
 30
0.0
  0
VERTEX
  5
278
330
271
100
AcDbEntity
  8
Ｓ_１_１
  6
CONTINUOUS
 62
     3
100
AcDbVertex
100
AcDb2dVertex
 10
1566.339746
 20
1067.305935
 30
0.0
  0
VERTEX
  5
279
330
271
100
AcDbEntity
  8
Ｓ_１_１
  6
CONTINUOUS
 62
     3
100
AcDbVertex
100
AcDb2dVertex
 10
1566.80848
 20
1066.600309
 30
0.0
  0
VERTEX
  5
27A
330
271
100
AcDbEntity
  8
Ｓ_１_１
  6
CONTINUOUS
 62
     3
100
AcDbVertex
100
AcDb2dVertex
 10
1567.339556
 20
1065.936547
 30
0.0
  0
VERTEX
  5
27B
330
271
100
AcDbEntity
  8
Ｓ_１_１
  6
CONTINUOUS
 62
     3
100
AcDbVertex
100
AcDb2dVertex
 10
1567.928932
 20
1065.319701
 30
0.0
  0
VERTEX
  5
27C
330
271
100
AcDbEntity
  8
Ｓ_１_１
  6
CONTINUOUS
 62
     3
100
AcDbVertex
100
AcDb2dVertex
 10
1568.572124
 20
1064.754466
 30
0.0
  0
VERTEX
  5
27D
330
271
100
AcDbEntity
  8
Ｓ_１_１
  6
CONTINUOUS
 62
     3
100
AcDbVertex
100
AcDb2dVertex
 10
1569.264236
 20
1064.245144
 30
0.0
  0
VERTEX
  5
27E
330
271
100
AcDbEntity
  8
Ｓ_１_１
  6
CONTINUOUS
 62
     3
100
AcDbVertex
100
AcDb2dVertex
 10
1570.0
 20
1063.79561
 30
0.0
  0
VERTEX
  5
27F
330
271
100
AcDbEntity
  8
Ｓ_１_１
  6
CONTINUOUS
 62
     3
100
AcDbVertex
100
AcDb2dVertex
 10
1570.773817
 20
1063.409287
 30
0.0
  0
VERTEX
  5
280
330
271
100
AcDbEntity
  8
Ｓ_１_１
  6
CONTINUOUS
 62
     3
100
AcDbVertex
100
AcDb2dVertex
 10
1571.579799
 20
1063.089113
 30
0.0
  0
VERTEX
  5
281
330
271
100
AcDbEntity
  8
Ｓ_１_１
  6
CONTINUOUS
 62
     3
100
AcDbVertex
100
AcDb2dVertex
 10
1572.41181
 20
1062.837527
 30
0.0
  0
VERTEX
  5
282
330
271
100
AcDbEntity
  8
Ｓ_１_１
  6
CONTINUOUS
 62
     3
100
AcDbVertex
100
AcDb2dVertex
 10
1573.263518
 20
1062.656442
 30
0.0
  0
VERTEX
  5
283
330
271
100
AcDbEntity
  8
Ｓ_１_１
  6
CONTINUOUS
 62
     3
100
AcDbVertex
100
AcDb2dVertex
 10
1574.128443
 20
1062.547236
 30
0.0
  0
VERTEX
  5
284
330
271
100
AcDbEntity
  8
Ｓ_１_１
  6
CONTINUOUS
 62
     3
100
AcDbVertex
100
AcDb2dVertex
 10
1575.0
 20
1062.510742
 30
0.0
  0
VERTEX
  5
285
330
271
100
AcDbEntity
  8
Ｓ_１_１
  6
CONTINUOUS
 62
     3
100
AcDbVertex
100
AcDb2dVertex
 10
1575.871557
 20
1062.547236
 30
0.0
  0
VERTEX
  5
286
330
271
100
AcDbEntity
  8
Ｓ_１_１
  6
CONTINUOUS
 62
     3
100
AcDbVertex
100
AcDb2dVertex
 10
1576.736482
 20
1062.656442
 30
0.0
  0
VERTEX
  5
287
330
271
100
AcDbEntity
  8
Ｓ_１_１
  6
CONTINUOUS
 62
     3
100
AcDbVertex
100
AcDb2dVertex
 10
1577.58819
 20
1062.837527
 30
0.0
  0
VERTEX
  5
288
330
271
100
AcDbEntity
  8
Ｓ_１_１
  6
CONTINUOUS
 62
     3
100
AcDbVertex
100
AcDb2dVertex
 10
1578.420201
 20
1063.089113
 30
0.0
  0
VERTEX
  5
289
330
271
100
AcDbEntity
  8
Ｓ_１_１
  6
CONTINUOUS
 62
     3
100
AcDbVertex
100
AcDb2dVertex
 10
1579.226183
 20
1063.409287
 30
0.0
  0
VERTEX
  5
28A
330
271
100
AcDbEntity
  8
Ｓ_１_１
  6
CONTINUOUS
 62
     3
100
AcDbVertex
100
AcDb2dVertex
 10
1580.0
 20
1063.79561
 30
0.0
  0
VERTEX
  5
28B
330
271
100
AcDbEntity
  8
Ｓ_１_１
  6
CONTINUOUS
 62
     3
100
AcDbVertex
100
AcDb2dVertex
 10
1580.735764
 20
1064.245144
 30
0.0
  0
VERTEX
  5
28C
330
271
100
AcDbEntity
  8
Ｓ_１_１
  6
CONTINUOUS
 62
     3
100
AcDbVertex
100
AcDb2dVertex
 10
1581.427876
 20
1064.754466
 30
0.0
  0
VERTEX
  5
28D
330
271
100
AcDbEntity
  8
Ｓ_１_１
  6
CONTINUOUS
 62
     3
100
AcDbVertex
100
AcDb2dVertex
 10
1582.071068
 20
1065.319701
 30
0.0
  0
VERTEX
  5
28E
330
271
100
AcDbEntity
  8
Ｓ_１_１
  6
CONTINUOUS
 62
     3
100
AcDbVertex
100
AcDb2dVertex
 10
1582.660444
 20
1065.936547
 30
0.0
  0
VERTEX
  5
28F
330
271
100
AcDbEntity
  8
Ｓ_１_１
  6
CONTINUOUS
 62
     3
100
AcDbVertex
100
AcDb2dVertex
 10
1583.19152
 20
1066.600309
 30
0.0
  0
VERTEX
  5
290
330
271
100
AcDbEntity
  8
Ｓ_１_１
  6
CONTINUOUS
 62
     3
100
AcDbVertex
100
AcDb2dVertex
 10
1583.660254
 20
1067.305935
 30
0.0
  0
VERTEX
  5
291
330
271
100
AcDbEntity
  8
Ｓ_１_１
  6
CONTINUOUS
 62
     3
100
AcDbVertex
100
AcDb2dVertex
 10
1584.063078
 20
1068.048056
 30
0.0
  0
VERTEX
  5
292
330
271
100
AcDbEntity
  8
Ｓ_１_１
  6
CONTINUOUS
 62
     3
100
AcDbVertex
100
AcDb2dVertex
 10
1584.396926
 20
1068.821023
 30
0.0
  0
VERTEX
  5
293
330
271
100
AcDbEntity
  8
Ｓ_１_１
  6
CONTINUOUS
 62
     3
100
AcDbVertex
100
AcDb2dVertex
 10
1584.659258
 20
1069.618953
 30
0.0
  0
VERTEX
  5
294
330
271
100
AcDbEntity
  8
Ｓ_１_１
  6
CONTINUOUS
 62
     3
100
AcDbVertex
100
AcDb2dVertex
 10
1584.848078
 20
1070.435775
 30
0.0
  0
VERTEX
  5
295
330
271
100
AcDbEntity
  8
Ｓ_１_１
  6
CONTINUOUS
 62
     3
100
AcDbVertex
100
AcDb2dVertex
 10
1584.961947
 20
1071.26527
 30
0.0
  0
VERTEX
  5
296
330
271
100
AcDbEntity
  8
Ｓ_１_１
  6
CONTINUOUS
 62
     3
100
AcDbVertex
100
AcDb2dVertex
 10
1585.0
 20
1072.101128
 30
0.0
  0
VERTEX
  5
297
330
271
100
AcDbEntity
  8
Ｓ_１_１
  6
CONTINUOUS
 62
     3
100
AcDbVertex
100
AcDb2dVertex
 10
1584.961947
 20
1072.936985
 30
0.0
  0
VERTEX
  5
298
330
271
100
AcDbEntity
  8
Ｓ_１_１
  6
CONTINUOUS
 62
     3
100
AcDbVertex
100
AcDb2dVertex
 10
1584.848078
 20
1073.766481
 30
0.0
  0
VERTEX
  5
299
330
271
100
AcDbEntity
  8
Ｓ_１_１
  6
CONTINUOUS
 62
     3
100
AcDbVertex
100
AcDb2dVertex
 10
1584.659258
 20
1074.583302
 30
0.0
  0
VERTEX
  5
29A
330
271
100
AcDbEntity
  8
Ｓ_１_１
  6
CONTINUOUS
 62
     3
100
AcDbVertex
100
AcDb2dVertex
 10
1584.396926
 20
1075.381233
 30
0.0
  0
VERTEX
  5
29B
330
271
100
AcDbEntity
  8
Ｓ_１_１
  6
CONTINUOUS
 62
     3
100
AcDbVertex
100
AcDb2dVertex
 10
1584.063078
 20
1076.1542
 30
0.0
  0
VERTEX
  5
29C
330
271
100
AcDbEntity
  8
Ｓ_１_１
  6
CONTINUOUS
 62
     3
100
AcDbVertex
100
AcDb2dVertex
 10
1583.660254
 20
1076.89632
 30
0.0
  0
VERTEX
  5
29D
330
271
100
AcDbEntity
  8
Ｓ_１_１
  6
CONTINUOUS
 62
     3
100
AcDbVertex
100
AcDb2dVertex
 10
1583.19152
 20
1077.601947
 30
0.0
  0
VERTEX
  5
29E
330
271
100
AcDbEntity
  8
Ｓ_１_１
  6
CONTINUOUS
 62
     3
100
AcDbVertex
100
AcDb2dVertex
 10
1582.660444
 20
1078.265709
 30
0.0
  0
VERTEX
  5
29F
330
271
100
AcDbEntity
  8
Ｓ_１_１
  6
CONTINUOUS
 62
     3
100
AcDbVertex
100
AcDb2dVertex
 10
1582.071068
 20
1078.882554
 30
0.0
  0
VERTEX
  5
2A0
330
271
100
AcDbEntity
  8
Ｓ_１_１
  6
CONTINUOUS
 62
     3
100
AcDbVertex
100
AcDb2dVertex
 10
1581.427876
 20
1079.447789
 30
0.0
  0
VERTEX
  5
2A1
330
271
100
AcDbEntity
  8
Ｓ_１_１
  6
CONTINUOUS
 62
     3
100
AcDbVertex
100
AcDb2dVertex
 10
1580.735764
 20
1079.957111
 30
0.0
  0
VERTEX
  5
2A2
330
271
100
AcDbEntity
  8
Ｓ_１_１
  6
CONTINUOUS
 62
     3
100
AcDbVertex
100
AcDb2dVertex
 10
1580.0
 20
1080.406645
 30
0.0
  0
VERTEX
  5
2A3
330
271
100
AcDbEntity
  8
Ｓ_１_１
  6
CONTINUOUS
 62
     3
100
AcDbVertex
100
AcDb2dVertex
 10
1579.226183
 20
1080.792969
 30
0.0
  0
VERTEX
  5
2A4
330
271
100
AcDbEntity
  8
Ｓ_１_１
  6
CONTINUOUS
 62
     3
100
AcDbVertex
100
AcDb2dVertex
 10
1578.420201
 20
1081.113142
 30
0.0
  0
VERTEX
  5
2A5
330
271
100
AcDbEntity
  8
Ｓ_１_１
  6
CONTINUOUS
 62
     3
100
AcDbVertex
100
AcDb2dVertex
 10
1577.58819
 20
1081.364729
 30
0.0
  0
VERTEX
  5
2A6
330
271
100
AcDbEntity
  8
Ｓ_１_１
  6
CONTINUOUS
 62
     3
100
AcDbVertex
100
AcDb2dVertex
 10
1576.736482
 20
1081.545814
 30
0.0
  0
VERTEX
  5
2A7
330
271
100
AcDbEntity
  8
Ｓ_１_１
  6
CONTINUOUS
 62
     3
100
AcDbVertex
100
AcDb2dVertex
 10
1575.871557
 20
1081.655019
 30
0.0
  0
VERTEX
  5
2A8
330
271
100
AcDbEntity
  8
Ｓ_１_１
  6
CONTINUOUS
 62
     3
100
AcDbVertex
100
AcDb2dVertex
 10
1575.0
 20
1081.691513
 30
0.0
  0
VERTEX
  5
2A9
330
271
100
AcDbEntity
  8
Ｓ_１_１
  6
CONTINUOUS
 62
     3
100
AcDbVertex
100
AcDb2dVertex
 10
1574.128443
 20
1081.655019
 30
0.0
  0
VERTEX
  5
2AA
330
271
100
AcDbEntity
  8
Ｓ_１_１
  6
CONTINUOUS
 62
     3
100
AcDbVertex
100
AcDb2dVertex
 10
1573.263518
 20
1081.545814
 30
0.0
  0
VERTEX
  5
2AB
330
271
100
AcDbEntity
  8
Ｓ_１_１
  6
CONTINUOUS
 62
     3
100
AcDbVertex
100
AcDb2dVertex
 10
1572.41181
 20
1081.364729
 30
0.0
  0
VERTEX
  5
2AC
330
271
100
AcDbEntity
  8
Ｓ_１_１
  6
CONTINUOUS
 62
     3
100
AcDbVertex
100
AcDb2dVertex
 10
1571.579799
 20
1081.113142
 30
0.0
  0
VERTEX
  5
2AD
330
271
100
AcDbEntity
  8
Ｓ_１_１
  6
CONTINUOUS
 62
     3
100
AcDbVertex
100
AcDb2dVertex
 10
1570.773817
 20
1080.792969
 30
0.0
  0
VERTEX
  5
2AE
330
271
100
AcDbEntity
  8
Ｓ_１_１
  6
CONTINUOUS
 62
     3
100
AcDbVertex
100
AcDb2dVertex
 10
1570.0
 20
1080.406645
 30
0.0
  0
VERTEX
  5
2AF
330
271
100
AcDbEntity
  8
Ｓ_１_１
  6
CONTINUOUS
 62
     3
100
AcDbVertex
100
AcDb2dVertex
 10
1569.264236
 20
1079.957111
 30
0.0
  0
VERTEX
  5
2B0
330
271
100
AcDbEntity
  8
Ｓ_１_１
  6
CONTINUOUS
 62
     3
100
AcDbVertex
100
AcDb2dVertex
 10
1568.572124
 20
1079.447789
 30
0.0
  0
VERTEX
  5
2B1
330
271
100
AcDbEntity
  8
Ｓ_１_１
  6
CONTINUOUS
 62
     3
100
AcDbVertex
100
AcDb2dVertex
 10
1567.928932
 20
1078.882554
 30
0.0
  0
VERTEX
  5
2B2
330
271
100
AcDbEntity
  8
Ｓ_１_１
  6
CONTINUOUS
 62
     3
100
AcDbVertex
100
AcDb2dVertex
 10
1567.339556
 20
1078.265709
 30
0.0
  0
VERTEX
  5
2B3
330
271
100
AcDbEntity
  8
Ｓ_１_１
  6
CONTINUOUS
 62
     3
100
AcDbVertex
100
AcDb2dVertex
 10
1566.80848
 20
1077.601947
 30
0.0
  0
VERTEX
  5
2B4
330
271
100
AcDbEntity
  8
Ｓ_１_１
  6
CONTINUOUS
 62
     3
100
AcDbVertex
100
AcDb2dVertex
 10
1566.339746
 20
1076.89632
 30
0.0
  0
VERTEX
  5
2B5
330
271
100
AcDbEntity
  8
Ｓ_１_１
  6
CONTINUOUS
 62
     3
100
AcDbVertex
100
AcDb2dVertex
 10
1565.936922
 20
1076.1542
 30
0.0
  0
VERTEX
  5
2B6
330
271
100
AcDbEntity
  8
Ｓ_１_１
  6
CONTINUOUS
 62
     3
100
AcDbVertex
100
AcDb2dVertex
 10
1565.603074
 20
1075.381233
 30
0.0
  0
VERTEX
  5
2B7
330
271
100
AcDbEntity
  8
Ｓ_１_１
  6
CONTINUOUS
 62
     3
100
AcDbVertex
100
AcDb2dVertex
 10
1565.340742
 20
1074.583302
 30
0.0
  0
VERTEX
  5
2B8
330
271
100
AcDbEntity
  8
Ｓ_１_１
  6
CONTINUOUS
 62
     3
100
AcDbVertex
100
AcDb2dVertex
 10
1565.151922
 20
1073.766481
 30
0.0
  0
VERTEX
  5
2B9
330
271
100
AcDbEntity
  8
Ｓ_１_１
  6
CONTINUOUS
 62
     3
100
AcDbVertex
100
AcDb2dVertex
 10
1565.038053
 20
1072.936985
 30
0.0
  0
VERTEX
  5
2BA
330
271
100
AcDbEntity
  8
Ｓ_１_１
  6
CONTINUOUS
 62
     3
100
AcDbVertex
100
AcDb2dVertex
 10
1565.0
 20
1072.101128
 30
0.0
  0
SEQEND
  5
2BB
330
271
100
AcDbEntity
  8
Ｓ_１_１
  6
CONTINUOUS
 62
     3
  0
POLYLINE
  5
2BC
330
1F
100
AcDbEntity
  8
Ｓ_１_１
  6
CONTINUOUS
 62
     3
100
AcDb2dPolyline
 66
     1
 10
0.0
 20
0.0
 30
0.0
 70
   128
  0
VERTEX
  5
2BD
330
2BC
100
AcDbEntity
  8
Ｓ_１_１
  6
CONTINUOUS
 62
     3
100
AcDbVertex
100
AcDb2dVertex
 10
1565.0
 20
907.898872
 30
0.0
  0
VERTEX
  5
2BE
330
2BC
100
AcDbEntity
  8
Ｓ_１_１
  6
CONTINUOUS
 62
     3
100
AcDbVertex
100
AcDb2dVertex
 10
1565.038053
 20
907.063015
 30
0.0
  0
VERTEX
  5
2BF
330
2BC
100
AcDbEntity
  8
Ｓ_１_１
  6
CONTINUOUS
 62
     3
100
AcDbVertex
100
AcDb2dVertex
 10
1565.151922
 20
906.2335190000001
 30
0.0
  0
VERTEX
  5
2C0
330
2BC
100
AcDbEntity
  8
Ｓ_１_１
  6
CONTINUOUS
 62
     3
100
AcDbVertex
100
AcDb2dVertex
 10
1565.340742
 20
905.416698
 30
0.0
  0
VERTEX
  5
2C1
330
2BC
100
AcDbEntity
  8
Ｓ_１_１
  6
CONTINUOUS
 62
     3
100
AcDbVertex
100
AcDb2dVertex
 10
1565.603074
 20
904.6187669999999
 30
0.0
  0
VERTEX
  5
2C2
330
2BC
100
AcDbEntity
  8
Ｓ_１_１
  6
CONTINUOUS
 62
     3
100
AcDbVertex
100
AcDb2dVertex
 10
1565.936922
 20
903.8458
 30
0.0
  0
VERTEX
  5
2C3
330
2BC
100
AcDbEntity
  8
Ｓ_１_１
  6
CONTINUOUS
 62
     3
100
AcDbVertex
100
AcDb2dVertex
 10
1566.339746
 20
903.1036799999999
 30
0.0
  0
VERTEX
  5
2C4
330
2BC
100
AcDbEntity
  8
Ｓ_１_１
  6
CONTINUOUS
 62
     3
100
AcDbVertex
100
AcDb2dVertex
 10
1566.80848
 20
902.3980530000001
 30
0.0
  0
VERTEX
  5
2C5
330
2BC
100
AcDbEntity
  8
Ｓ_１_１
  6
CONTINUOUS
 62
     3
100
AcDbVertex
100
AcDb2dVertex
 10
1567.339556
 20
901.734291
 30
0.0
  0
VERTEX
  5
2C6
330
2BC
100
AcDbEntity
  8
Ｓ_１_１
  6
CONTINUOUS
 62
     3
100
AcDbVertex
100
AcDb2dVertex
 10
1567.928932
 20
901.117446
 30
0.0
  0
VERTEX
  5
2C7
330
2BC
100
AcDbEntity
  8
Ｓ_１_１
  6
CONTINUOUS
 62
     3
100
AcDbVertex
100
AcDb2dVertex
 10
1568.572124
 20
900.5522109999999
 30
0.0
  0
VERTEX
  5
2C8
330
2BC
100
AcDbEntity
  8
Ｓ_１_１
  6
CONTINUOUS
 62
     3
100
AcDbVertex
100
AcDb2dVertex
 10
1569.264236
 20
900.0428890000001
 30
0.0
  0
VERTEX
  5
2C9
330
2BC
100
AcDbEntity
  8
Ｓ_１_１
  6
CONTINUOUS
 62
     3
100
AcDbVertex
100
AcDb2dVertex
 10
1570.0
 20
899.593355
 30
0.0
  0
VERTEX
  5
2CA
330
2BC
100
AcDbEntity
  8
Ｓ_１_１
  6
CONTINUOUS
 62
     3
100
AcDbVertex
100
AcDb2dVertex
 10
1570.773817
 20
899.2070309999999
 30
0.0
  0
VERTEX
  5
2CB
330
2BC
100
AcDbEntity
  8
Ｓ_１_１
  6
CONTINUOUS
 62
     3
100
AcDbVertex
100
AcDb2dVertex
 10
1571.579799
 20
898.8868580000001
 30
0.0
  0
VERTEX
  5
2CC
330
2BC
100
AcDbEntity
  8
Ｓ_１_１
  6
CONTINUOUS
 62
     3
100
AcDbVertex
100
AcDb2dVertex
 10
1572.41181
 20
898.6352710000001
 30
0.0
  0
VERTEX
  5
2CD
330
2BC
100
AcDbEntity
  8
Ｓ_１_１
  6
CONTINUOUS
 62
     3
100
AcDbVertex
100
AcDb2dVertex
 10
1573.263518
 20
898.4541859999999
 30
0.0
  0
VERTEX
  5
2CE
330
2BC
100
AcDbEntity
  8
Ｓ_１_１
  6
CONTINUOUS
 62
     3
100
AcDbVertex
100
AcDb2dVertex
 10
1574.128443
 20
898.344981
 30
0.0
  0
VERTEX
  5
2CF
330
2BC
100
AcDbEntity
  8
Ｓ_１_１
  6
CONTINUOUS
 62
     3
100
AcDbVertex
100
AcDb2dVertex
 10
1575.0
 20
898.308487
 30
0.0
  0
VERTEX
  5
2D0
330
2BC
100
AcDbEntity
  8
Ｓ_１_１
  6
CONTINUOUS
 62
     3
100
AcDbVertex
100
AcDb2dVertex
 10
1575.871557
 20
898.344981
 30
0.0
  0
VERTEX
  5
2D1
330
2BC
100
AcDbEntity
  8
Ｓ_１_１
  6
CONTINUOUS
 62
     3
100
AcDbVertex
100
AcDb2dVertex
 10
1576.736482
 20
898.4541859999999
 30
0.0
  0
VERTEX
  5
2D2
330
2BC
100
AcDbEntity
  8
Ｓ_１_１
  6
CONTINUOUS
 62
     3
100
AcDbVertex
100
AcDb2dVertex
 10
1577.58819
 20
898.6352710000001
 30
0.0
  0
VERTEX
  5
2D3
330
2BC
100
AcDbEntity
  8
Ｓ_１_１
  6
CONTINUOUS
 62
     3
100
AcDbVertex
100
AcDb2dVertex
 10
1578.420201
 20
898.8868580000001
 30
0.0
  0
VERTEX
  5
2D4
330
2BC
100
AcDbEntity
  8
Ｓ_１_１
  6
CONTINUOUS
 62
     3
100
AcDbVertex
100
AcDb2dVertex
 10
1579.226183
 20
899.2070309999999
 30
0.0
  0
VERTEX
  5
2D5
330
2BC
100
AcDbEntity
  8
Ｓ_１_１
  6
CONTINUOUS
 62
     3
100
AcDbVertex
100
AcDb2dVertex
 10
1580.0
 20
899.593355
 30
0.0
  0
VERTEX
  5
2D6
330
2BC
100
AcDbEntity
  8
Ｓ_１_１
  6
CONTINUOUS
 62
     3
100
AcDbVertex
100
AcDb2dVertex
 10
1580.735764
 20
900.0428890000001
 30
0.0
  0
VERTEX
  5
2D7
330
2BC
100
AcDbEntity
  8
Ｓ_１_１
  6
CONTINUOUS
 62
     3
100
AcDbVertex
100
AcDb2dVertex
 10
1581.427876
 20
900.5522109999999
 30
0.0
  0
VERTEX
  5
2D8
330
2BC
100
AcDbEntity
  8
Ｓ_１_１
  6
CONTINUOUS
 62
     3
100
AcDbVertex
100
AcDb2dVertex
 10
1582.071068
 20
901.117446
 30
0.0
  0
VERTEX
  5
2D9
330
2BC
100
AcDbEntity
  8
Ｓ_１_１
  6
CONTINUOUS
 62
     3
100
AcDbVertex
100
AcDb2dVertex
 10
1582.660444
 20
901.734291
 30
0.0
  0
VERTEX
  5
2DA
330
2BC
100
AcDbEntity
  8
Ｓ_１_１
  6
CONTINUOUS
 62
     3
100
AcDbVertex
100
AcDb2dVertex
 10
1583.19152
 20
902.3980530000001
 30
0.0
  0
VERTEX
  5
2DB
330
2BC
100
AcDbEntity
  8
Ｓ_１_１
  6
CONTINUOUS
 62
     3
100
AcDbVertex
100
AcDb2dVertex
 10
1583.660254
 20
903.1036799999999
 30
0.0
  0
VERTEX
  5
2DC
330
2BC
100
AcDbEntity
  8
Ｓ_１_１
  6
CONTINUOUS
 62
     3
100
AcDbVertex
100
AcDb2dVertex
 10
1584.063078
 20
903.8458
 30
0.0
  0
VERTEX
  5
2DD
330
2BC
100
AcDbEntity
  8
Ｓ_１_１
  6
CONTINUOUS
 62
     3
100
AcDbVertex
100
AcDb2dVertex
 10
1584.396926
 20
904.6187669999999
 30
0.0
  0
VERTEX
  5
2DE
330
2BC
100
AcDbEntity
  8
Ｓ_１_１
  6
CONTINUOUS
 62
     3
100
AcDbVertex
100
AcDb2dVertex
 10
1584.659258
 20
905.416698
 30
0.0
  0
VERTEX
  5
2DF
330
2BC
100
AcDbEntity
  8
Ｓ_１_１
  6
CONTINUOUS
 62
     3
100
AcDbVertex
100
AcDb2dVertex
 10
1584.848078
 20
906.2335190000001
 30
0.0
  0
VERTEX
  5
2E0
330
2BC
100
AcDbEntity
  8
Ｓ_１_１
  6
CONTINUOUS
 62
     3
100
AcDbVertex
100
AcDb2dVertex
 10
1584.961947
 20
907.063015
 30
0.0
  0
VERTEX
  5
2E1
330
2BC
100
AcDbEntity
  8
Ｓ_１_１
  6
CONTINUOUS
 62
     3
100
AcDbVertex
100
AcDb2dVertex
 10
1585.0
 20
907.898872
 30
0.0
  0
VERTEX
  5
2E2
330
2BC
100
AcDbEntity
  8
Ｓ_１_１
  6
CONTINUOUS
 62
     3
100
AcDbVertex
100
AcDb2dVertex
 10
1584.961947
 20
908.7347299999999
 30
0.0
  0
VERTEX
  5
2E3
330
2BC
100
AcDbEntity
  8
Ｓ_１_１
  6
CONTINUOUS
 62
     3
100
AcDbVertex
100
AcDb2dVertex
 10
1584.848078
 20
909.5642250000001
 30
0.0
  0
VERTEX
  5
2E4
330
2BC
100
AcDbEntity
  8
Ｓ_１_１
  6
CONTINUOUS
 62
     3
100
AcDbVertex
100
AcDb2dVertex
 10
1584.659258
 20
910.3810470000001
 30
0.0
  0
VERTEX
  5
2E5
330
2BC
100
AcDbEntity
  8
Ｓ_１_１
  6
CONTINUOUS
 62
     3
100
AcDbVertex
100
AcDb2dVertex
 10
1584.396926
 20
911.178977
 30
0.0
  0
VERTEX
  5
2E6
330
2BC
100
AcDbEntity
  8
Ｓ_１_１
  6
CONTINUOUS
 62
     3
100
AcDbVertex
100
AcDb2dVertex
 10
1584.063078
 20
911.9519439999999
 30
0.0
  0
VERTEX
  5
2E7
330
2BC
100
AcDbEntity
  8
Ｓ_１_１
  6
CONTINUOUS
 62
     3
100
AcDbVertex
100
AcDb2dVertex
 10
1583.660254
 20
912.6940649999999
 30
0.0
  0
VERTEX
  5
2E8
330
2BC
100
AcDbEntity
  8
Ｓ_１_１
  6
CONTINUOUS
 62
     3
100
AcDbVertex
100
AcDb2dVertex
 10
1583.19152
 20
913.3996910000001
 30
0.0
  0
VERTEX
  5
2E9
330
2BC
100
AcDbEntity
  8
Ｓ_１_１
  6
CONTINUOUS
 62
     3
100
AcDbVertex
100
AcDb2dVertex
 10
1582.660444
 20
914.063453
 30
0.0
  0
VERTEX
  5
2EA
330
2BC
100
AcDbEntity
  8
Ｓ_１_１
  6
CONTINUOUS
 62
     3
100
AcDbVertex
100
AcDb2dVertex
 10
1582.071068
 20
914.6802989999999
 30
0.0
  0
VERTEX
  5
2EB
330
2BC
100
AcDbEntity
  8
Ｓ_１_１
  6
CONTINUOUS
 62
     3
100
AcDbVertex
100
AcDb2dVertex
 10
1581.427876
 20
915.2455339999999
 30
0.0
  0
VERTEX
  5
2EC
330
2BC
100
AcDbEntity
  8
Ｓ_１_１
  6
CONTINUOUS
 62
     3
100
AcDbVertex
100
AcDb2dVertex
 10
1580.735764
 20
915.754856
 30
0.0
  0
VERTEX
  5
2ED
330
2BC
100
AcDbEntity
  8
Ｓ_１_１
  6
CONTINUOUS
 62
     3
100
AcDbVertex
100
AcDb2dVertex
 10
1580.0
 20
916.2043900000001
 30
0.0
  0
VERTEX
  5
2EE
330
2BC
100
AcDbEntity
  8
Ｓ_１_１
  6
CONTINUOUS
 62
     3
100
AcDbVertex
100
AcDb2dVertex
 10
1579.226183
 20
916.590713
 30
0.0
  0
VERTEX
  5
2EF
330
2BC
100
AcDbEntity
  8
Ｓ_１_１
  6
CONTINUOUS
 62
     3
100
AcDbVertex
100
AcDb2dVertex
 10
1578.420201
 20
916.910887
 30
0.0
  0
VERTEX
  5
2F0
330
2BC
100
AcDbEntity
  8
Ｓ_１_１
  6
CONTINUOUS
 62
     3
100
AcDbVertex
100
AcDb2dVertex
 10
1577.58819
 20
917.1624730000001
 30
0.0
  0
VERTEX
  5
2F1
330
2BC
100
AcDbEntity
  8
Ｓ_１_１
  6
CONTINUOUS
 62
     3
100
AcDbVertex
100
AcDb2dVertex
 10
1576.736482
 20
917.343558
 30
0.0
  0
VERTEX
  5
2F2
330
2BC
100
AcDbEntity
  8
Ｓ_１_１
  6
CONTINUOUS
 62
     3
100
AcDbVertex
100
AcDb2dVertex
 10
1575.871557
 20
917.4527639999999
 30
0.0
  0
VERTEX
  5
2F3
330
2BC
100
AcDbEntity
  8
Ｓ_１_１
  6
CONTINUOUS
 62
     3
100
AcDbVertex
100
AcDb2dVertex
 10
1575.0
 20
917.4892580000001
 30
0.0
  0
VERTEX
  5
2F4
330
2BC
100
AcDbEntity
  8
Ｓ_１_１
  6
CONTINUOUS
 62
     3
100
AcDbVertex
100
AcDb2dVertex
 10
1574.128443
 20
917.4527639999999
 30
0.0
  0
VERTEX
  5
2F5
330
2BC
100
AcDbEntity
  8
Ｓ_１_１
  6
CONTINUOUS
 62
     3
100
AcDbVertex
100
AcDb2dVertex
 10
1573.263518
 20
917.343558
 30
0.0
  0
VERTEX
  5
2F6
330
2BC
100
AcDbEntity
  8
Ｓ_１_１
  6
CONTINUOUS
 62
     3
100
AcDbVertex
100
AcDb2dVertex
 10
1572.41181
 20
917.1624730000001
 30
0.0
  0
VERTEX
  5
2F7
330
2BC
100
AcDbEntity
  8
Ｓ_１_１
  6
CONTINUOUS
 62
     3
100
AcDbVertex
100
AcDb2dVertex
 10
1571.579799
 20
916.910887
 30
0.0
  0
VERTEX
  5
2F8
330
2BC
100
AcDbEntity
  8
Ｓ_１_１
  6
CONTINUOUS
 62
     3
100
AcDbVertex
100
AcDb2dVertex
 10
1570.773817
 20
916.590713
 30
0.0
  0
VERTEX
  5
2F9
330
2BC
100
AcDbEntity
  8
Ｓ_１_１
  6
CONTINUOUS
 62
     3
100
AcDbVertex
100
AcDb2dVertex
 10
1570.0
 20
916.2043900000001
 30
0.0
  0
VERTEX
  5
2FA
330
2BC
100
AcDbEntity
  8
Ｓ_１_１
  6
CONTINUOUS
 62
     3
100
AcDbVertex
100
AcDb2dVertex
 10
1569.264236
 20
915.754856
 30
0.0
  0
VERTEX
  5
2FB
330
2BC
100
AcDbEntity
  8
Ｓ_１_１
  6
CONTINUOUS
 62
     3
100
AcDbVertex
100
AcDb2dVertex
 10
1568.572124
 20
915.2455339999999
 30
0.0
  0
VERTEX
  5
2FC
330
2BC
100
AcDbEntity
  8
Ｓ_１_１
  6
CONTINUOUS
 62
     3
100
AcDbVertex
100
AcDb2dVertex
 10
1567.928932
 20
914.6802989999999
 30
0.0
  0
VERTEX
  5
2FD
330
2BC
100
AcDbEntity
  8
Ｓ_１_１
  6
CONTINUOUS
 62
     3
100
AcDbVertex
100
AcDb2dVertex
 10
1567.339556
 20
914.063453
 30
0.0
  0
VERTEX
  5
2FE
330
2BC
100
AcDbEntity
  8
Ｓ_１_１
  6
CONTINUOUS
 62
     3
100
AcDbVertex
100
AcDb2dVertex
 10
1566.80848
 20
913.3996910000001
 30
0.0
  0
VERTEX
  5
2FF
330
2BC
100
AcDbEntity
  8
Ｓ_１_１
  6
CONTINUOUS
 62
     3
100
AcDbVertex
100
AcDb2dVertex
 10
1566.339746
 20
912.6940649999999
 30
0.0
  0
VERTEX
  5
300
330
2BC
100
AcDbEntity
  8
Ｓ_１_１
  6
CONTINUOUS
 62
     3
100
AcDbVertex
100
AcDb2dVertex
 10
1565.936922
 20
911.9519439999999
 30
0.0
  0
VERTEX
  5
301
330
2BC
100
AcDbEntity
  8
Ｓ_１_１
  6
CONTINUOUS
 62
     3
100
AcDbVertex
100
AcDb2dVertex
 10
1565.603074
 20
911.178977
 30
0.0
  0
VERTEX
  5
302
330
2BC
100
AcDbEntity
  8
Ｓ_１_１
  6
CONTINUOUS
 62
     3
100
AcDbVertex
100
AcDb2dVertex
 10
1565.340742
 20
910.3810470000001
 30
0.0
  0
VERTEX
  5
303
330
2BC
100
AcDbEntity
  8
Ｓ_１_１
  6
CONTINUOUS
 62
     3
100
AcDbVertex
100
AcDb2dVertex
 10
1565.151922
 20
909.5642250000001
 30
0.0
  0
VERTEX
  5
304
330
2BC
100
AcDbEntity
  8
Ｓ_１_１
  6
CONTINUOUS
 62
     3
100
AcDbVertex
100
AcDb2dVertex
 10
1565.038053
 20
908.7347299999999
 30
0.0
  0
VERTEX
  5
305
330
2BC
100
AcDbEntity
  8
Ｓ_１_１
  6
CONTINUOUS
 62
     3
100
AcDbVertex
100
AcDb2dVertex
 10
1565.0
 20
907.898872
 30
0.0
  0
SEQEND
  5
306
330
2BC
100
AcDbEntity
  8
Ｓ_１_１
  6
CONTINUOUS
 62
     3
  0
POLYLINE
  5
307
330
1F
100
AcDbEntity
  8
Ｓ_１_１
  6
CONTINUOUS
 62
     3
100
AcDb2dPolyline
 66
     1
 10
0.0
 20
0.0
 30
0.0
 70
   128
  0
VERTEX
  5
308
330
307
100
AcDbEntity
  8
Ｓ_１_１
  6
CONTINUOUS
 62
     3
100
AcDbVertex
100
AcDb2dVertex
 10
1615.0
 20
907.898872
 30
0.0
  0
VERTEX
  5
309
330
307
100
AcDbEntity
  8
Ｓ_１_１
  6
CONTINUOUS
 62
     3
100
AcDbVertex
100
AcDb2dVertex
 10
1615.038053
 20
907.063015
 30
0.0
  0
VERTEX
  5
30A
330
307
100
AcDbEntity
  8
Ｓ_１_１
  6
CONTINUOUS
 62
     3
100
AcDbVertex
100
AcDb2dVertex
 10
1615.151922
 20
906.2335190000001
 30
0.0
  0
VERTEX
  5
30B
330
307
100
AcDbEntity
  8
Ｓ_１_１
  6
CONTINUOUS
 62
     3
100
AcDbVertex
100
AcDb2dVertex
 10
1615.340742
 20
905.416698
 30
0.0
  0
VERTEX
  5
30C
330
307
100
AcDbEntity
  8
Ｓ_１_１
  6
CONTINUOUS
 62
     3
100
AcDbVertex
100
AcDb2dVertex
 10
1615.603074
 20
904.6187669999999
 30
0.0
  0
VERTEX
  5
30D
330
307
100
AcDbEntity
  8
Ｓ_１_１
  6
CONTINUOUS
 62
     3
100
AcDbVertex
100
AcDb2dVertex
 10
1615.936922
 20
903.8458
 30
0.0
  0
VERTEX
  5
30E
330
307
100
AcDbEntity
  8
Ｓ_１_１
  6
CONTINUOUS
 62
     3
100
AcDbVertex
100
AcDb2dVertex
 10
1616.339746
 20
903.1036799999999
 30
0.0
  0
VERTEX
  5
30F
330
307
100
AcDbEntity
  8
Ｓ_１_１
  6
CONTINUOUS
 62
     3
100
AcDbVertex
100
AcDb2dVertex
 10
1616.80848
 20
902.3980530000001
 30
0.0
  0
VERTEX
  5
310
330
307
100
AcDbEntity
  8
Ｓ_１_１
  6
CONTINUOUS
 62
     3
100
AcDbVertex
100
AcDb2dVertex
 10
1617.339556
 20
901.734291
 30
0.0
  0
VERTEX
  5
311
330
307
100
AcDbEntity
  8
Ｓ_１_１
  6
CONTINUOUS
 62
     3
100
AcDbVertex
100
AcDb2dVertex
 10
1617.928932
 20
901.117446
 30
0.0
  0
VERTEX
  5
312
330
307
100
AcDbEntity
  8
Ｓ_１_１
  6
CONTINUOUS
 62
     3
100
AcDbVertex
100
AcDb2dVertex
 10
1618.572124
 20
900.5522109999999
 30
0.0
  0
VERTEX
  5
313
330
307
100
AcDbEntity
  8
Ｓ_１_１
  6
CONTINUOUS
 62
     3
100
AcDbVertex
100
AcDb2dVertex
 10
1619.264236
 20
900.0428890000001
 30
0.0
  0
VERTEX
  5
314
330
307
100
AcDbEntity
  8
Ｓ_１_１
  6
CONTINUOUS
 62
     3
100
AcDbVertex
100
AcDb2dVertex
 10
1620.0
 20
899.593355
 30
0.0
  0
VERTEX
  5
315
330
307
100
AcDbEntity
  8
Ｓ_１_１
  6
CONTINUOUS
 62
     3
100
AcDbVertex
100
AcDb2dVertex
 10
1620.773817
 20
899.2070309999999
 30
0.0
  0
VERTEX
  5
316
330
307
100
AcDbEntity
  8
Ｓ_１_１
  6
CONTINUOUS
 62
     3
100
AcDbVertex
100
AcDb2dVertex
 10
1621.579799
 20
898.8868580000001
 30
0.0
  0
VERTEX
  5
317
330
307
100
AcDbEntity
  8
Ｓ_１_１
  6
CONTINUOUS
 62
     3
100
AcDbVertex
100
AcDb2dVertex
 10
1622.41181
 20
898.6352710000001
 30
0.0
  0
VERTEX
  5
318
330
307
100
AcDbEntity
  8
Ｓ_１_１
  6
CONTINUOUS
 62
     3
100
AcDbVertex
100
AcDb2dVertex
 10
1623.263518
 20
898.4541859999999
 30
0.0
  0
VERTEX
  5
319
330
307
100
AcDbEntity
  8
Ｓ_１_１
  6
CONTINUOUS
 62
     3
100
AcDbVertex
100
AcDb2dVertex
 10
1624.128443
 20
898.344981
 30
0.0
  0
VERTEX
  5
31A
330
307
100
AcDbEntity
  8
Ｓ_１_１
  6
CONTINUOUS
 62
     3
100
AcDbVertex
100
AcDb2dVertex
 10
1625.0
 20
898.308487
 30
0.0
  0
VERTEX
  5
31B
330
307
100
AcDbEntity
  8
Ｓ_１_１
  6
CONTINUOUS
 62
     3
100
AcDbVertex
100
AcDb2dVertex
 10
1625.871557
 20
898.344981
 30
0.0
  0
VERTEX
  5
31C
330
307
100
AcDbEntity
  8
Ｓ_１_１
  6
CONTINUOUS
 62
     3
100
AcDbVertex
100
AcDb2dVertex
 10
1626.736482
 20
898.4541859999999
 30
0.0
  0
VERTEX
  5
31D
330
307
100
AcDbEntity
  8
Ｓ_１_１
  6
CONTINUOUS
 62
     3
100
AcDbVertex
100
AcDb2dVertex
 10
1627.58819
 20
898.6352710000001
 30
0.0
  0
VERTEX
  5
31E
330
307
100
AcDbEntity
  8
Ｓ_１_１
  6
CONTINUOUS
 62
     3
100
AcDbVertex
100
AcDb2dVertex
 10
1628.420201
 20
898.8868580000001
 30
0.0
  0
VERTEX
  5
31F
330
307
100
AcDbEntity
  8
Ｓ_１_１
  6
CONTINUOUS
 62
     3
100
AcDbVertex
100
AcDb2dVertex
 10
1629.226183
 20
899.2070309999999
 30
0.0
  0
VERTEX
  5
320
330
307
100
AcDbEntity
  8
Ｓ_１_１
  6
CONTINUOUS
 62
     3
100
AcDbVertex
100
AcDb2dVertex
 10
1630.0
 20
899.593355
 30
0.0
  0
VERTEX
  5
321
330
307
100
AcDbEntity
  8
Ｓ_１_１
  6
CONTINUOUS
 62
     3
100
AcDbVertex
100
AcDb2dVertex
 10
1630.735764
 20
900.0428890000001
 30
0.0
  0
VERTEX
  5
322
330
307
100
AcDbEntity
  8
Ｓ_１_１
  6
CONTINUOUS
 62
     3
100
AcDbVertex
100
AcDb2dVertex
 10
1631.427876
 20
900.5522109999999
 30
0.0
  0
VERTEX
  5
323
330
307
100
AcDbEntity
  8
Ｓ_１_１
  6
CONTINUOUS
 62
     3
100
AcDbVertex
100
AcDb2dVertex
 10
1632.071068
 20
901.117446
 30
0.0
  0
VERTEX
  5
324
330
307
100
AcDbEntity
  8
Ｓ_１_１
  6
CONTINUOUS
 62
     3
100
AcDbVertex
100
AcDb2dVertex
 10
1632.660444
 20
901.734291
 30
0.0
  0
VERTEX
  5
325
330
307
100
AcDbEntity
  8
Ｓ_１_１
  6
CONTINUOUS
 62
     3
100
AcDbVertex
100
AcDb2dVertex
 10
1633.19152
 20
902.3980530000001
 30
0.0
  0
VERTEX
  5
326
330
307
100
AcDbEntity
  8
Ｓ_１_１
  6
CONTINUOUS
 62
     3
100
AcDbVertex
100
AcDb2dVertex
 10
1633.660254
 20
903.1036799999999
 30
0.0
  0
VERTEX
  5
327
330
307
100
AcDbEntity
  8
Ｓ_１_１
  6
CONTINUOUS
 62
     3
100
AcDbVertex
100
AcDb2dVertex
 10
1634.063078
 20
903.8458
 30
0.0
  0
VERTEX
  5
328
330
307
100
AcDbEntity
  8
Ｓ_１_１
  6
CONTINUOUS
 62
     3
100
AcDbVertex
100
AcDb2dVertex
 10
1634.396926
 20
904.6187669999999
 30
0.0
  0
VERTEX
  5
329
330
307
100
AcDbEntity
  8
Ｓ_１_１
  6
CONTINUOUS
 62
     3
100
AcDbVertex
100
AcDb2dVertex
 10
1634.659258
 20
905.416698
 30
0.0
  0
VERTEX
  5
32A
330
307
100
AcDbEntity
  8
Ｓ_１_１
  6
CONTINUOUS
 62
     3
100
AcDbVertex
100
AcDb2dVertex
 10
1634.848078
 20
906.2335190000001
 30
0.0
  0
VERTEX
  5
32B
330
307
100
AcDbEntity
  8
Ｓ_１_１
  6
CONTINUOUS
 62
     3
100
AcDbVertex
100
AcDb2dVertex
 10
1634.961947
 20
907.063015
 30
0.0
  0
VERTEX
  5
32C
330
307
100
AcDbEntity
  8
Ｓ_１_１
  6
CONTINUOUS
 62
     3
100
AcDbVertex
100
AcDb2dVertex
 10
1635.0
 20
907.898872
 30
0.0
  0
VERTEX
  5
32D
330
307
100
AcDbEntity
  8
Ｓ_１_１
  6
CONTINUOUS
 62
     3
100
AcDbVertex
100
AcDb2dVertex
 10
1634.961947
 20
908.7347299999999
 30
0.0
  0
VERTEX
  5
32E
330
307
100
AcDbEntity
  8
Ｓ_１_１
  6
CONTINUOUS
 62
     3
100
AcDbVertex
100
AcDb2dVertex
 10
1634.848078
 20
909.5642250000001
 30
0.0
  0
VERTEX
  5
32F
330
307
100
AcDbEntity
  8
Ｓ_１_１
  6
CONTINUOUS
 62
     3
100
AcDbVertex
100
AcDb2dVertex
 10
1634.659258
 20
910.3810470000001
 30
0.0
  0
VERTEX
  5
330
330
307
100
AcDbEntity
  8
Ｓ_１_１
  6
CONTINUOUS
 62
     3
100
AcDbVertex
100
AcDb2dVertex
 10
1634.396926
 20
911.178977
 30
0.0
  0
VERTEX
  5
331
330
307
100
AcDbEntity
  8
Ｓ_１_１
  6
CONTINUOUS
 62
     3
100
AcDbVertex
100
AcDb2dVertex
 10
1634.063078
 20
911.9519439999999
 30
0.0
  0
VERTEX
  5
332
330
307
100
AcDbEntity
  8
Ｓ_１_１
  6
CONTINUOUS
 62
     3
100
AcDbVertex
100
AcDb2dVertex
 10
1633.660254
 20
912.6940649999999
 30
0.0
  0
VERTEX
  5
333
330
307
100
AcDbEntity
  8
Ｓ_１_１
  6
CONTINUOUS
 62
     3
100
AcDbVertex
100
AcDb2dVertex
 10
1633.19152
 20
913.3996910000001
 30
0.0
  0
VERTEX
  5
334
330
307
100
AcDbEntity
  8
Ｓ_１_１
  6
CONTINUOUS
 62
     3
100
AcDbVertex
100
AcDb2dVertex
 10
1632.660444
 20
914.063453
 30
0.0
  0
VERTEX
  5
335
330
307
100
AcDbEntity
  8
Ｓ_１_１
  6
CONTINUOUS
 62
     3
100
AcDbVertex
100
AcDb2dVertex
 10
1632.071068
 20
914.6802989999999
 30
0.0
  0
VERTEX
  5
336
330
307
100
AcDbEntity
  8
Ｓ_１_１
  6
CONTINUOUS
 62
     3
100
AcDbVertex
100
AcDb2dVertex
 10
1631.427876
 20
915.2455339999999
 30
0.0
  0
VERTEX
  5
337
330
307
100
AcDbEntity
  8
Ｓ_１_１
  6
CONTINUOUS
 62
     3
100
AcDbVertex
100
AcDb2dVertex
 10
1630.735764
 20
915.754856
 30
0.0
  0
VERTEX
  5
338
330
307
100
AcDbEntity
  8
Ｓ_１_１
  6
CONTINUOUS
 62
     3
100
AcDbVertex
100
AcDb2dVertex
 10
1630.0
 20
916.2043900000001
 30
0.0
  0
VERTEX
  5
339
330
307
100
AcDbEntity
  8
Ｓ_１_１
  6
CONTINUOUS
 62
     3
100
AcDbVertex
100
AcDb2dVertex
 10
1629.226183
 20
916.590713
 30
0.0
  0
VERTEX
  5
33A
330
307
100
AcDbEntity
  8
Ｓ_１_１
  6
CONTINUOUS
 62
     3
100
AcDbVertex
100
AcDb2dVertex
 10
1628.420201
 20
916.910887
 30
0.0
  0
VERTEX
  5
33B
330
307
100
AcDbEntity
  8
Ｓ_１_１
  6
CONTINUOUS
 62
     3
100
AcDbVertex
100
AcDb2dVertex
 10
1627.58819
 20
917.1624730000001
 30
0.0
  0
VERTEX
  5
33C
330
307
100
AcDbEntity
  8
Ｓ_１_１
  6
CONTINUOUS
 62
     3
100
AcDbVertex
100
AcDb2dVertex
 10
1626.736482
 20
917.343558
 30
0.0
  0
VERTEX
  5
33D
330
307
100
AcDbEntity
  8
Ｓ_１_１
  6
CONTINUOUS
 62
     3
100
AcDbVertex
100
AcDb2dVertex
 10
1625.871557
 20
917.4527639999999
 30
0.0
  0
VERTEX
  5
33E
330
307
100
AcDbEntity
  8
Ｓ_１_１
  6
CONTINUOUS
 62
     3
100
AcDbVertex
100
AcDb2dVertex
 10
1625.0
 20
917.4892580000001
 30
0.0
  0
VERTEX
  5
33F
330
307
100
AcDbEntity
  8
Ｓ_１_１
  6
CONTINUOUS
 62
     3
100
AcDbVertex
100
AcDb2dVertex
 10
1624.128443
 20
917.4527639999999
 30
0.0
  0
VERTEX
  5
340
330
307
100
AcDbEntity
  8
Ｓ_１_１
  6
CONTINUOUS
 62
     3
100
AcDbVertex
100
AcDb2dVertex
 10
1623.263518
 20
917.343558
 30
0.0
  0
VERTEX
  5
341
330
307
100
AcDbEntity
  8
Ｓ_１_１
  6
CONTINUOUS
 62
     3
100
AcDbVertex
100
AcDb2dVertex
 10
1622.41181
 20
917.1624730000001
 30
0.0
  0
VERTEX
  5
342
330
307
100
AcDbEntity
  8
Ｓ_１_１
  6
CONTINUOUS
 62
     3
100
AcDbVertex
100
AcDb2dVertex
 10
1621.579799
 20
916.910887
 30
0.0
  0
VERTEX
  5
343
330
307
100
AcDbEntity
  8
Ｓ_１_１
  6
CONTINUOUS
 62
     3
100
AcDbVertex
100
AcDb2dVertex
 10
1620.773817
 20
916.590713
 30
0.0
  0
VERTEX
  5
344
330
307
100
AcDbEntity
  8
Ｓ_１_１
  6
CONTINUOUS
 62
     3
100
AcDbVertex
100
AcDb2dVertex
 10
1620.0
 20
916.2043900000001
 30
0.0
  0
VERTEX
  5
345
330
307
100
AcDbEntity
  8
Ｓ_１_１
  6
CONTINUOUS
 62
     3
100
AcDbVertex
100
AcDb2dVertex
 10
1619.264236
 20
915.754856
 30
0.0
  0
VERTEX
  5
346
330
307
100
AcDbEntity
  8
Ｓ_１_１
  6
CONTINUOUS
 62
     3
100
AcDbVertex
100
AcDb2dVertex
 10
1618.572124
 20
915.2455339999999
 30
0.0
  0
VERTEX
  5
347
330
307
100
AcDbEntity
  8
Ｓ_１_１
  6
CONTINUOUS
 62
     3
100
AcDbVertex
100
AcDb2dVertex
 10
1617.928932
 20
914.6802989999999
 30
0.0
  0
VERTEX
  5
348
330
307
100
AcDbEntity
  8
Ｓ_１_１
  6
CONTINUOUS
 62
     3
100
AcDbVertex
100
AcDb2dVertex
 10
1617.339556
 20
914.063453
 30
0.0
  0
VERTEX
  5
349
330
307
100
AcDbEntity
  8
Ｓ_１_１
  6
CONTINUOUS
 62
     3
100
AcDbVertex
100
AcDb2dVertex
 10
1616.80848
 20
913.3996910000001
 30
0.0
  0
VERTEX
  5
34A
330
307
100
AcDbEntity
  8
Ｓ_１_１
  6
CONTINUOUS
 62
     3
100
AcDbVertex
100
AcDb2dVertex
 10
1616.339746
 20
912.6940649999999
 30
0.0
  0
VERTEX
  5
34B
330
307
100
AcDbEntity
  8
Ｓ_１_１
  6
CONTINUOUS
 62
     3
100
AcDbVertex
100
AcDb2dVertex
 10
1615.936922
 20
911.9519439999999
 30
0.0
  0
VERTEX
  5
34C
330
307
100
AcDbEntity
  8
Ｓ_１_１
  6
CONTINUOUS
 62
     3
100
AcDbVertex
100
AcDb2dVertex
 10
1615.603074
 20
911.178977
 30
0.0
  0
VERTEX
  5
34D
330
307
100
AcDbEntity
  8
Ｓ_１_１
  6
CONTINUOUS
 62
     3
100
AcDbVertex
100
AcDb2dVertex
 10
1615.340742
 20
910.3810470000001
 30
0.0
  0
VERTEX
  5
34E
330
307
100
AcDbEntity
  8
Ｓ_１_１
  6
CONTINUOUS
 62
     3
100
AcDbVertex
100
AcDb2dVertex
 10
1615.151922
 20
909.5642250000001
 30
0.0
  0
VERTEX
  5
34F
330
307
100
AcDbEntity
  8
Ｓ_１_１
  6
CONTINUOUS
 62
     3
100
AcDbVertex
100
AcDb2dVertex
 10
1615.038053
 20
908.7347299999999
 30
0.0
  0
VERTEX
  5
350
330
307
100
AcDbEntity
  8
Ｓ_１_１
  6
CONTINUOUS
 62
     3
100
AcDbVertex
100
AcDb2dVertex
 10
1615.0
 20
907.898872
 30
0.0
  0
SEQEND
  5
351
330
307
100
AcDbEntity
  8
Ｓ_１_１
  6
CONTINUOUS
 62
     3
  0
POLYLINE
  5
352
330
1F
100
AcDbEntity
  8
Ｓ_１_１
  6
CONTINUOUS
 62
     3
100
AcDb2dPolyline
 66
     1
 10
0.0
 20
0.0
 30
0.0
 70
   128
  0
VERTEX
  5
353
330
352
100
AcDbEntity
  8
Ｓ_１_１
  6
CONTINUOUS
 62
     3
100
AcDbVertex
100
AcDb2dVertex
 10
1615.0
 20
1072.101128
 30
0.0
  0
VERTEX
  5
354
330
352
100
AcDbEntity
  8
Ｓ_１_１
  6
CONTINUOUS
 62
     3
100
AcDbVertex
100
AcDb2dVertex
 10
1615.038053
 20
1071.26527
 30
0.0
  0
VERTEX
  5
355
330
352
100
AcDbEntity
  8
Ｓ_１_１
  6
CONTINUOUS
 62
     3
100
AcDbVertex
100
AcDb2dVertex
 10
1615.151922
 20
1070.435775
 30
0.0
  0
VERTEX
  5
356
330
352
100
AcDbEntity
  8
Ｓ_１_１
  6
CONTINUOUS
 62
     3
100
AcDbVertex
100
AcDb2dVertex
 10
1615.340742
 20
1069.618953
 30
0.0
  0
VERTEX
  5
357
330
352
100
AcDbEntity
  8
Ｓ_１_１
  6
CONTINUOUS
 62
     3
100
AcDbVertex
100
AcDb2dVertex
 10
1615.603074
 20
1068.821023
 30
0.0
  0
VERTEX
  5
358
330
352
100
AcDbEntity
  8
Ｓ_１_１
  6
CONTINUOUS
 62
     3
100
AcDbVertex
100
AcDb2dVertex
 10
1615.936922
 20
1068.048056
 30
0.0
  0
VERTEX
  5
359
330
352
100
AcDbEntity
  8
Ｓ_１_１
  6
CONTINUOUS
 62
     3
100
AcDbVertex
100
AcDb2dVertex
 10
1616.339746
 20
1067.305935
 30
0.0
  0
VERTEX
  5
35A
330
352
100
AcDbEntity
  8
Ｓ_１_１
  6
CONTINUOUS
 62
     3
100
AcDbVertex
100
AcDb2dVertex
 10
1616.80848
 20
1066.600309
 30
0.0
  0
VERTEX
  5
35B
330
352
100
AcDbEntity
  8
Ｓ_１_１
  6
CONTINUOUS
 62
     3
100
AcDbVertex
100
AcDb2dVertex
 10
1617.339556
 20
1065.936547
 30
0.0
  0
VERTEX
  5
35C
330
352
100
AcDbEntity
  8
Ｓ_１_１
  6
CONTINUOUS
 62
     3
100
AcDbVertex
100
AcDb2dVertex
 10
1617.928932
 20
1065.319701
 30
0.0
  0
VERTEX
  5
35D
330
352
100
AcDbEntity
  8
Ｓ_１_１
  6
CONTINUOUS
 62
     3
100
AcDbVertex
100
AcDb2dVertex
 10
1618.572124
 20
1064.754466
 30
0.0
  0
VERTEX
  5
35E
330
352
100
AcDbEntity
  8
Ｓ_１_１
  6
CONTINUOUS
 62
     3
100
AcDbVertex
100
AcDb2dVertex
 10
1619.264236
 20
1064.245144
 30
0.0
  0
VERTEX
  5
35F
330
352
100
AcDbEntity
  8
Ｓ_１_１
  6
CONTINUOUS
 62
     3
100
AcDbVertex
100
AcDb2dVertex
 10
1620.0
 20
1063.79561
 30
0.0
  0
VERTEX
  5
360
330
352
100
AcDbEntity
  8
Ｓ_１_１
  6
CONTINUOUS
 62
     3
100
AcDbVertex
100
AcDb2dVertex
 10
1620.773817
 20
1063.409287
 30
0.0
  0
VERTEX
  5
361
330
352
100
AcDbEntity
  8
Ｓ_１_１
  6
CONTINUOUS
 62
     3
100
AcDbVertex
100
AcDb2dVertex
 10
1621.579799
 20
1063.089113
 30
0.0
  0
VERTEX
  5
362
330
352
100
AcDbEntity
  8
Ｓ_１_１
  6
CONTINUOUS
 62
     3
100
AcDbVertex
100
AcDb2dVertex
 10
1622.41181
 20
1062.837527
 30
0.0
  0
VERTEX
  5
363
330
352
100
AcDbEntity
  8
Ｓ_１_１
  6
CONTINUOUS
 62
     3
100
AcDbVertex
100
AcDb2dVertex
 10
1623.263518
 20
1062.656442
 30
0.0
  0
VERTEX
  5
364
330
352
100
AcDbEntity
  8
Ｓ_１_１
  6
CONTINUOUS
 62
     3
100
AcDbVertex
100
AcDb2dVertex
 10
1624.128443
 20
1062.547236
 30
0.0
  0
VERTEX
  5
365
330
352
100
AcDbEntity
  8
Ｓ_１_１
  6
CONTINUOUS
 62
     3
100
AcDbVertex
100
AcDb2dVertex
 10
1625.0
 20
1062.510742
 30
0.0
  0
VERTEX
  5
366
330
352
100
AcDbEntity
  8
Ｓ_１_１
  6
CONTINUOUS
 62
     3
100
AcDbVertex
100
AcDb2dVertex
 10
1625.871557
 20
1062.547236
 30
0.0
  0
VERTEX
  5
367
330
352
100
AcDbEntity
  8
Ｓ_１_１
  6
CONTINUOUS
 62
     3
100
AcDbVertex
100
AcDb2dVertex
 10
1626.736482
 20
1062.656442
 30
0.0
  0
VERTEX
  5
368
330
352
100
AcDbEntity
  8
Ｓ_１_１
  6
CONTINUOUS
 62
     3
100
AcDbVertex
100
AcDb2dVertex
 10
1627.58819
 20
1062.837527
 30
0.0
  0
VERTEX
  5
369
330
352
100
AcDbEntity
  8
Ｓ_１_１
  6
CONTINUOUS
 62
     3
100
AcDbVertex
100
AcDb2dVertex
 10
1628.420201
 20
1063.089113
 30
0.0
  0
VERTEX
  5
36A
330
352
100
AcDbEntity
  8
Ｓ_１_１
  6
CONTINUOUS
 62
     3
100
AcDbVertex
100
AcDb2dVertex
 10
1629.226183
 20
1063.409287
 30
0.0
  0
VERTEX
  5
36B
330
352
100
AcDbEntity
  8
Ｓ_１_１
  6
CONTINUOUS
 62
     3
100
AcDbVertex
100
AcDb2dVertex
 10
1630.0
 20
1063.79561
 30
0.0
  0
VERTEX
  5
36C
330
352
100
AcDbEntity
  8
Ｓ_１_１
  6
CONTINUOUS
 62
     3
100
AcDbVertex
100
AcDb2dVertex
 10
1630.735764
 20
1064.245144
 30
0.0
  0
VERTEX
  5
36D
330
352
100
AcDbEntity
  8
Ｓ_１_１
  6
CONTINUOUS
 62
     3
100
AcDbVertex
100
AcDb2dVertex
 10
1631.427876
 20
1064.754466
 30
0.0
  0
VERTEX
  5
36E
330
352
100
AcDbEntity
  8
Ｓ_１_１
  6
CONTINUOUS
 62
     3
100
AcDbVertex
100
AcDb2dVertex
 10
1632.071068
 20
1065.319701
 30
0.0
  0
VERTEX
  5
36F
330
352
100
AcDbEntity
  8
Ｓ_１_１
  6
CONTINUOUS
 62
     3
100
AcDbVertex
100
AcDb2dVertex
 10
1632.660444
 20
1065.936547
 30
0.0
  0
VERTEX
  5
370
330
352
100
AcDbEntity
  8
Ｓ_１_１
  6
CONTINUOUS
 62
     3
100
AcDbVertex
100
AcDb2dVertex
 10
1633.19152
 20
1066.600309
 30
0.0
  0
VERTEX
  5
371
330
352
100
AcDbEntity
  8
Ｓ_１_１
  6
CONTINUOUS
 62
     3
100
AcDbVertex
100
AcDb2dVertex
 10
1633.660254
 20
1067.305935
 30
0.0
  0
VERTEX
  5
372
330
352
100
AcDbEntity
  8
Ｓ_１_１
  6
CONTINUOUS
 62
     3
100
AcDbVertex
100
AcDb2dVertex
 10
1634.063078
 20
1068.048056
 30
0.0
  0
VERTEX
  5
373
330
352
100
AcDbEntity
  8
Ｓ_１_１
  6
CONTINUOUS
 62
     3
100
AcDbVertex
100
AcDb2dVertex
 10
1634.396926
 20
1068.821023
 30
0.0
  0
VERTEX
  5
374
330
352
100
AcDbEntity
  8
Ｓ_１_１
  6
CONTINUOUS
 62
     3
100
AcDbVertex
100
AcDb2dVertex
 10
1634.659258
 20
1069.618953
 30
0.0
  0
VERTEX
  5
375
330
352
100
AcDbEntity
  8
Ｓ_１_１
  6
CONTINUOUS
 62
     3
100
AcDbVertex
100
AcDb2dVertex
 10
1634.848078
 20
1070.435775
 30
0.0
  0
VERTEX
  5
376
330
352
100
AcDbEntity
  8
Ｓ_１_１
  6
CONTINUOUS
 62
     3
100
AcDbVertex
100
AcDb2dVertex
 10
1634.961947
 20
1071.26527
 30
0.0
  0
VERTEX
  5
377
330
352
100
AcDbEntity
  8
Ｓ_１_１
  6
CONTINUOUS
 62
     3
100
AcDbVertex
100
AcDb2dVertex
 10
1635.0
 20
1072.101128
 30
0.0
  0
VERTEX
  5
378
330
352
100
AcDbEntity
  8
Ｓ_１_１
  6
CONTINUOUS
 62
     3
100
AcDbVertex
100
AcDb2dVertex
 10
1634.961947
 20
1072.936985
 30
0.0
  0
VERTEX
  5
379
330
352
100
AcDbEntity
  8
Ｓ_１_１
  6
CONTINUOUS
 62
     3
100
AcDbVertex
100
AcDb2dVertex
 10
1634.848078
 20
1073.766481
 30
0.0
  0
VERTEX
  5
37A
330
352
100
AcDbEntity
  8
Ｓ_１_１
  6
CONTINUOUS
 62
     3
100
AcDbVertex
100
AcDb2dVertex
 10
1634.659258
 20
1074.583302
 30
0.0
  0
VERTEX
  5
37B
330
352
100
AcDbEntity
  8
Ｓ_１_１
  6
CONTINUOUS
 62
     3
100
AcDbVertex
100
AcDb2dVertex
 10
1634.396926
 20
1075.381233
 30
0.0
  0
VERTEX
  5
37C
330
352
100
AcDbEntity
  8
Ｓ_１_１
  6
CONTINUOUS
 62
     3
100
AcDbVertex
100
AcDb2dVertex
 10
1634.063078
 20
1076.1542
 30
0.0
  0
VERTEX
  5
37D
330
352
100
AcDbEntity
  8
Ｓ_１_１
  6
CONTINUOUS
 62
     3
100
AcDbVertex
100
AcDb2dVertex
 10
1633.660254
 20
1076.89632
 30
0.0
  0
VERTEX
  5
37E
330
352
100
AcDbEntity
  8
Ｓ_１_１
  6
CONTINUOUS
 62
     3
100
AcDbVertex
100
AcDb2dVertex
 10
1633.19152
 20
1077.601947
 30
0.0
  0
VERTEX
  5
37F
330
352
100
AcDbEntity
  8
Ｓ_１_１
  6
CONTINUOUS
 62
     3
100
AcDbVertex
100
AcDb2dVertex
 10
1632.660444
 20
1078.265709
 30
0.0
  0
VERTEX
  5
380
330
352
100
AcDbEntity
  8
Ｓ_１_１
  6
CONTINUOUS
 62
     3
100
AcDbVertex
100
AcDb2dVertex
 10
1632.071068
 20
1078.882554
 30
0.0
  0
VERTEX
  5
381
330
352
100
AcDbEntity
  8
Ｓ_１_１
  6
CONTINUOUS
 62
     3
100
AcDbVertex
100
AcDb2dVertex
 10
1631.427876
 20
1079.447789
 30
0.0
  0
VERTEX
  5
382
330
352
100
AcDbEntity
  8
Ｓ_１_１
  6
CONTINUOUS
 62
     3
100
AcDbVertex
100
AcDb2dVertex
 10
1630.735764
 20
1079.957111
 30
0.0
  0
VERTEX
  5
383
330
352
100
AcDbEntity
  8
Ｓ_１_１
  6
CONTINUOUS
 62
     3
100
AcDbVertex
100
AcDb2dVertex
 10
1630.0
 20
1080.406645
 30
0.0
  0
VERTEX
  5
384
330
352
100
AcDbEntity
  8
Ｓ_１_１
  6
CONTINUOUS
 62
     3
100
AcDbVertex
100
AcDb2dVertex
 10
1629.226183
 20
1080.792969
 30
0.0
  0
VERTEX
  5
385
330
352
100
AcDbEntity
  8
Ｓ_１_１
  6
CONTINUOUS
 62
     3
100
AcDbVertex
100
AcDb2dVertex
 10
1628.420201
 20
1081.113142
 30
0.0
  0
VERTEX
  5
386
330
352
100
AcDbEntity
  8
Ｓ_１_１
  6
CONTINUOUS
 62
     3
100
AcDbVertex
100
AcDb2dVertex
 10
1627.58819
 20
1081.364729
 30
0.0
  0
VERTEX
  5
387
330
352
100
AcDbEntity
  8
Ｓ_１_１
  6
CONTINUOUS
 62
     3
100
AcDbVertex
100
AcDb2dVertex
 10
1626.736482
 20
1081.545814
 30
0.0
  0
VERTEX
  5
388
330
352
100
AcDbEntity
  8
Ｓ_１_１
  6
CONTINUOUS
 62
     3
100
AcDbVertex
100
AcDb2dVertex
 10
1625.871557
 20
1081.655019
 30
0.0
  0
VERTEX
  5
389
330
352
100
AcDbEntity
  8
Ｓ_１_１
  6
CONTINUOUS
 62
     3
100
AcDbVertex
100
AcDb2dVertex
 10
1625.0
 20
1081.691513
 30
0.0
  0
VERTEX
  5
38A
330
352
100
AcDbEntity
  8
Ｓ_１_１
  6
CONTINUOUS
 62
     3
100
AcDbVertex
100
AcDb2dVertex
 10
1624.128443
 20
1081.655019
 30
0.0
  0
VERTEX
  5
38B
330
352
100
AcDbEntity
  8
Ｓ_１_１
  6
CONTINUOUS
 62
     3
100
AcDbVertex
100
AcDb2dVertex
 10
1623.263518
 20
1081.545814
 30
0.0
  0
VERTEX
  5
38C
330
352
100
AcDbEntity
  8
Ｓ_１_１
  6
CONTINUOUS
 62
     3
100
AcDbVertex
100
AcDb2dVertex
 10
1622.41181
 20
1081.364729
 30
0.0
  0
VERTEX
  5
38D
330
352
100
AcDbEntity
  8
Ｓ_１_１
  6
CONTINUOUS
 62
     3
100
AcDbVertex
100
AcDb2dVertex
 10
1621.579799
 20
1081.113142
 30
0.0
  0
VERTEX
  5
38E
330
352
100
AcDbEntity
  8
Ｓ_１_１
  6
CONTINUOUS
 62
     3
100
AcDbVertex
100
AcDb2dVertex
 10
1620.773817
 20
1080.792969
 30
0.0
  0
VERTEX
  5
38F
330
352
100
AcDbEntity
  8
Ｓ_１_１
  6
CONTINUOUS
 62
     3
100
AcDbVertex
100
AcDb2dVertex
 10
1620.0
 20
1080.406645
 30
0.0
  0
VERTEX
  5
390
330
352
100
AcDbEntity
  8
Ｓ_１_１
  6
CONTINUOUS
 62
     3
100
AcDbVertex
100
AcDb2dVertex
 10
1619.264236
 20
1079.957111
 30
0.0
  0
VERTEX
  5
391
330
352
100
AcDbEntity
  8
Ｓ_１_１
  6
CONTINUOUS
 62
     3
100
AcDbVertex
100
AcDb2dVertex
 10
1618.572124
 20
1079.447789
 30
0.0
  0
VERTEX
  5
392
330
352
100
AcDbEntity
  8
Ｓ_１_１
  6
CONTINUOUS
 62
     3
100
AcDbVertex
100
AcDb2dVertex
 10
1617.928932
 20
1078.882554
 30
0.0
  0
VERTEX
  5
393
330
352
100
AcDbEntity
  8
Ｓ_１_１
  6
CONTINUOUS
 62
     3
100
AcDbVertex
100
AcDb2dVertex
 10
1617.339556
 20
1078.265709
 30
0.0
  0
VERTEX
  5
394
330
352
100
AcDbEntity
  8
Ｓ_１_１
  6
CONTINUOUS
 62
     3
100
AcDbVertex
100
AcDb2dVertex
 10
1616.80848
 20
1077.601947
 30
0.0
  0
VERTEX
  5
395
330
352
100
AcDbEntity
  8
Ｓ_１_１
  6
CONTINUOUS
 62
     3
100
AcDbVertex
100
AcDb2dVertex
 10
1616.339746
 20
1076.89632
 30
0.0
  0
VERTEX
  5
396
330
352
100
AcDbEntity
  8
Ｓ_１_１
  6
CONTINUOUS
 62
     3
100
AcDbVertex
100
AcDb2dVertex
 10
1615.936922
 20
1076.1542
 30
0.0
  0
VERTEX
  5
397
330
352
100
AcDbEntity
  8
Ｓ_１_１
  6
CONTINUOUS
 62
     3
100
AcDbVertex
100
AcDb2dVertex
 10
1615.603074
 20
1075.381233
 30
0.0
  0
VERTEX
  5
398
330
352
100
AcDbEntity
  8
Ｓ_１_１
  6
CONTINUOUS
 62
     3
100
AcDbVertex
100
AcDb2dVertex
 10
1615.340742
 20
1074.583302
 30
0.0
  0
VERTEX
  5
399
330
352
100
AcDbEntity
  8
Ｓ_１_１
  6
CONTINUOUS
 62
     3
100
AcDbVertex
100
AcDb2dVertex
 10
1615.151922
 20
1073.766481
 30
0.0
  0
VERTEX
  5
39A
330
352
100
AcDbEntity
  8
Ｓ_１_１
  6
CONTINUOUS
 62
     3
100
AcDbVertex
100
AcDb2dVertex
 10
1615.038053
 20
1072.936985
 30
0.0
  0
VERTEX
  5
39B
330
352
100
AcDbEntity
  8
Ｓ_１_１
  6
CONTINUOUS
 62
     3
100
AcDbVertex
100
AcDb2dVertex
 10
1615.0
 20
1072.101128
 30
0.0
  0
SEQEND
  5
39C
330
352
100
AcDbEntity
  8
Ｓ_１_１
  6
CONTINUOUS
 62
     3
  0
POLYLINE
  5
39D
330
1F
100
AcDbEntity
  8
Ｓ_１_１
  6
CONTINUOUS
 62
     3
100
AcDb2dPolyline
 66
     1
 10
0.0
 20
0.0
 30
0.0
 70
   128
  0
VERTEX
  5
39E
330
39D
100
AcDbEntity
  8
Ｓ_１_１
  6
CONTINUOUS
 62
     3
100
AcDbVertex
100
AcDb2dVertex
 10
1885.000001
 20
1072.101128
 30
0.0
  0
VERTEX
  5
39F
330
39D
100
AcDbEntity
  8
Ｓ_１_１
  6
CONTINUOUS
 62
     3
100
AcDbVertex
100
AcDb2dVertex
 10
1885.038054
 20
1071.26527
 30
0.0
  0
VERTEX
  5
3A0
330
39D
100
AcDbEntity
  8
Ｓ_１_１
  6
CONTINUOUS
 62
     3
100
AcDbVertex
100
AcDb2dVertex
 10
1885.151923
 20
1070.435775
 30
0.0
  0
VERTEX
  5
3A1
330
39D
100
AcDbEntity
  8
Ｓ_１_１
  6
CONTINUOUS
 62
     3
100
AcDbVertex
100
AcDb2dVertex
 10
1885.340743
 20
1069.618953
 30
0.0
  0
VERTEX
  5
3A2
330
39D
100
AcDbEntity
  8
Ｓ_１_１
  6
CONTINUOUS
 62
     3
100
AcDbVertex
100
AcDb2dVertex
 10
1885.603075
 20
1068.821023
 30
0.0
  0
VERTEX
  5
3A3
330
39D
100
AcDbEntity
  8
Ｓ_１_１
  6
CONTINUOUS
 62
     3
100
AcDbVertex
100
AcDb2dVertex
 10
1885.936923
 20
1068.048056
 30
0.0
  0
VERTEX
  5
3A4
330
39D
100
AcDbEntity
  8
Ｓ_１_１
  6
CONTINUOUS
 62
     3
100
AcDbVertex
100
AcDb2dVertex
 10
1886.339747
 20
1067.305935
 30
0.0
  0
VERTEX
  5
3A5
330
39D
100
AcDbEntity
  8
Ｓ_１_１
  6
CONTINUOUS
 62
     3
100
AcDbVertex
100
AcDb2dVertex
 10
1886.80848
 20
1066.600309
 30
0.0
  0
VERTEX
  5
3A6
330
39D
100
AcDbEntity
  8
Ｓ_１_１
  6
CONTINUOUS
 62
     3
100
AcDbVertex
100
AcDb2dVertex
 10
1887.339556
 20
1065.936547
 30
0.0
  0
VERTEX
  5
3A7
330
39D
100
AcDbEntity
  8
Ｓ_１_１
  6
CONTINUOUS
 62
     3
100
AcDbVertex
100
AcDb2dVertex
 10
1887.928933
 20
1065.319701
 30
0.0
  0
VERTEX
  5
3A8
330
39D
100
AcDbEntity
  8
Ｓ_１_１
  6
CONTINUOUS
 62
     3
100
AcDbVertex
100
AcDb2dVertex
 10
1888.572125
 20
1064.754466
 30
0.0
  0
VERTEX
  5
3A9
330
39D
100
AcDbEntity
  8
Ｓ_１_１
  6
CONTINUOUS
 62
     3
100
AcDbVertex
100
AcDb2dVertex
 10
1889.264236
 20
1064.245144
 30
0.0
  0
VERTEX
  5
3AA
330
39D
100
AcDbEntity
  8
Ｓ_１_１
  6
CONTINUOUS
 62
     3
100
AcDbVertex
100
AcDb2dVertex
 10
1890.0
 20
1063.79561
 30
0.0
  0
VERTEX
  5
3AB
330
39D
100
AcDbEntity
  8
Ｓ_１_１
  6
CONTINUOUS
 62
     3
100
AcDbVertex
100
AcDb2dVertex
 10
1890.773818
 20
1063.409287
 30
0.0
  0
VERTEX
  5
3AC
330
39D
100
AcDbEntity
  8
Ｓ_１_１
  6
CONTINUOUS
 62
     3
100
AcDbVertex
100
AcDb2dVertex
 10
1891.579799
 20
1063.089113
 30
0.0
  0
VERTEX
  5
3AD
330
39D
100
AcDbEntity
  8
Ｓ_１_１
  6
CONTINUOUS
 62
     3
100
AcDbVertex
100
AcDb2dVertex
 10
1892.41181
 20
1062.837527
 30
0.0
  0
VERTEX
  5
3AE
330
39D
100
AcDbEntity
  8
Ｓ_１_１
  6
CONTINUOUS
 62
     3
100
AcDbVertex
100
AcDb2dVertex
 10
1893.263518
 20
1062.656442
 30
0.0
  0
VERTEX
  5
3AF
330
39D
100
AcDbEntity
  8
Ｓ_１_１
  6
CONTINUOUS
 62
     3
100
AcDbVertex
100
AcDb2dVertex
 10
1894.128443
 20
1062.547236
 30
0.0
  0
VERTEX
  5
3B0
330
39D
100
AcDbEntity
  8
Ｓ_１_１
  6
CONTINUOUS
 62
     3
100
AcDbVertex
100
AcDb2dVertex
 10
1895.0
 20
1062.510742
 30
0.0
  0
VERTEX
  5
3B1
330
39D
100
AcDbEntity
  8
Ｓ_１_１
  6
CONTINUOUS
 62
     3
100
AcDbVertex
100
AcDb2dVertex
 10
1895.871557
 20
1062.547236
 30
0.0
  0
VERTEX
  5
3B2
330
39D
100
AcDbEntity
  8
Ｓ_１_１
  6
CONTINUOUS
 62
     3
100
AcDbVertex
100
AcDb2dVertex
 10
1896.736482
 20
1062.656442
 30
0.0
  0
VERTEX
  5
3B3
330
39D
100
AcDbEntity
  8
Ｓ_１_１
  6
CONTINUOUS
 62
     3
100
AcDbVertex
100
AcDb2dVertex
 10
1897.58819
 20
1062.837527
 30
0.0
  0
VERTEX
  5
3B4
330
39D
100
AcDbEntity
  8
Ｓ_１_１
  6
CONTINUOUS
 62
     3
100
AcDbVertex
100
AcDb2dVertex
 10
1898.420201
 20
1063.089113
 30
0.0
  0
VERTEX
  5
3B5
330
39D
100
AcDbEntity
  8
Ｓ_１_１
  6
CONTINUOUS
 62
     3
100
AcDbVertex
100
AcDb2dVertex
 10
1899.226182
 20
1063.409287
 30
0.0
  0
VERTEX
  5
3B6
330
39D
100
AcDbEntity
  8
Ｓ_１_１
  6
CONTINUOUS
 62
     3
100
AcDbVertex
100
AcDb2dVertex
 10
1900.0
 20
1063.79561
 30
0.0
  0
VERTEX
  5
3B7
330
39D
100
AcDbEntity
  8
Ｓ_１_１
  6
CONTINUOUS
 62
     3
100
AcDbVertex
100
AcDb2dVertex
 10
1900.735764
 20
1064.245144
 30
0.0
  0
VERTEX
  5
3B8
330
39D
100
AcDbEntity
  8
Ｓ_１_１
  6
CONTINUOUS
 62
     3
100
AcDbVertex
100
AcDb2dVertex
 10
1901.427875
 20
1064.754466
 30
0.0
  0
VERTEX
  5
3B9
330
39D
100
AcDbEntity
  8
Ｓ_１_１
  6
CONTINUOUS
 62
     3
100
AcDbVertex
100
AcDb2dVertex
 10
1902.071067
 20
1065.319701
 30
0.0
  0
VERTEX
  5
3BA
330
39D
100
AcDbEntity
  8
Ｓ_１_１
  6
CONTINUOUS
 62
     3
100
AcDbVertex
100
AcDb2dVertex
 10
1902.660444
 20
1065.936547
 30
0.0
  0
VERTEX
  5
3BB
330
39D
100
AcDbEntity
  8
Ｓ_１_１
  6
CONTINUOUS
 62
     3
100
AcDbVertex
100
AcDb2dVertex
 10
1903.19152
 20
1066.600309
 30
0.0
  0
VERTEX
  5
3BC
330
39D
100
AcDbEntity
  8
Ｓ_１_１
  6
CONTINUOUS
 62
     3
100
AcDbVertex
100
AcDb2dVertex
 10
1903.660253
 20
1067.305935
 30
0.0
  0
VERTEX
  5
3BD
330
39D
100
AcDbEntity
  8
Ｓ_１_１
  6
CONTINUOUS
 62
     3
100
AcDbVertex
100
AcDb2dVertex
 10
1904.063077
 20
1068.048056
 30
0.0
  0
VERTEX
  5
3BE
330
39D
100
AcDbEntity
  8
Ｓ_１_１
  6
CONTINUOUS
 62
     3
100
AcDbVertex
100
AcDb2dVertex
 10
1904.396925
 20
1068.821023
 30
0.0
  0
VERTEX
  5
3BF
330
39D
100
AcDbEntity
  8
Ｓ_１_１
  6
CONTINUOUS
 62
     3
100
AcDbVertex
100
AcDb2dVertex
 10
1904.659257
 20
1069.618953
 30
0.0
  0
VERTEX
  5
3C0
330
39D
100
AcDbEntity
  8
Ｓ_１_１
  6
CONTINUOUS
 62
     3
100
AcDbVertex
100
AcDb2dVertex
 10
1904.848077
 20
1070.435775
 30
0.0
  0
VERTEX
  5
3C1
330
39D
100
AcDbEntity
  8
Ｓ_１_１
  6
CONTINUOUS
 62
     3
100
AcDbVertex
100
AcDb2dVertex
 10
1904.961946
 20
1071.26527
 30
0.0
  0
VERTEX
  5
3C2
330
39D
100
AcDbEntity
  8
Ｓ_１_１
  6
CONTINUOUS
 62
     3
100
AcDbVertex
100
AcDb2dVertex
 10
1904.999999
 20
1072.101128
 30
0.0
  0
VERTEX
  5
3C3
330
39D
100
AcDbEntity
  8
Ｓ_１_１
  6
CONTINUOUS
 62
     3
100
AcDbVertex
100
AcDb2dVertex
 10
1904.961946
 20
1072.936985
 30
0.0
  0
VERTEX
  5
3C4
330
39D
100
AcDbEntity
  8
Ｓ_１_１
  6
CONTINUOUS
 62
     3
100
AcDbVertex
100
AcDb2dVertex
 10
1904.848077
 20
1073.766481
 30
0.0
  0
VERTEX
  5
3C5
330
39D
100
AcDbEntity
  8
Ｓ_１_１
  6
CONTINUOUS
 62
     3
100
AcDbVertex
100
AcDb2dVertex
 10
1904.659257
 20
1074.583302
 30
0.0
  0
VERTEX
  5
3C6
330
39D
100
AcDbEntity
  8
Ｓ_１_１
  6
CONTINUOUS
 62
     3
100
AcDbVertex
100
AcDb2dVertex
 10
1904.396925
 20
1075.381233
 30
0.0
  0
VERTEX
  5
3C7
330
39D
100
AcDbEntity
  8
Ｓ_１_１
  6
CONTINUOUS
 62
     3
100
AcDbVertex
100
AcDb2dVertex
 10
1904.063077
 20
1076.1542
 30
0.0
  0
VERTEX
  5
3C8
330
39D
100
AcDbEntity
  8
Ｓ_１_１
  6
CONTINUOUS
 62
     3
100
AcDbVertex
100
AcDb2dVertex
 10
1903.660253
 20
1076.89632
 30
0.0
  0
VERTEX
  5
3C9
330
39D
100
AcDbEntity
  8
Ｓ_１_１
  6
CONTINUOUS
 62
     3
100
AcDbVertex
100
AcDb2dVertex
 10
1903.19152
 20
1077.601947
 30
0.0
  0
VERTEX
  5
3CA
330
39D
100
AcDbEntity
  8
Ｓ_１_１
  6
CONTINUOUS
 62
     3
100
AcDbVertex
100
AcDb2dVertex
 10
1902.660444
 20
1078.265709
 30
0.0
  0
VERTEX
  5
3CB
330
39D
100
AcDbEntity
  8
Ｓ_１_１
  6
CONTINUOUS
 62
     3
100
AcDbVertex
100
AcDb2dVertex
 10
1902.071067
 20
1078.882554
 30
0.0
  0
VERTEX
  5
3CC
330
39D
100
AcDbEntity
  8
Ｓ_１_１
  6
CONTINUOUS
 62
     3
100
AcDbVertex
100
AcDb2dVertex
 10
1901.427875
 20
1079.447789
 30
0.0
  0
VERTEX
  5
3CD
330
39D
100
AcDbEntity
  8
Ｓ_１_１
  6
CONTINUOUS
 62
     3
100
AcDbVertex
100
AcDb2dVertex
 10
1900.735764
 20
1079.957111
 30
0.0
  0
VERTEX
  5
3CE
330
39D
100
AcDbEntity
  8
Ｓ_１_１
  6
CONTINUOUS
 62
     3
100
AcDbVertex
100
AcDb2dVertex
 10
1900.0
 20
1080.406645
 30
0.0
  0
VERTEX
  5
3CF
330
39D
100
AcDbEntity
  8
Ｓ_１_１
  6
CONTINUOUS
 62
     3
100
AcDbVertex
100
AcDb2dVertex
 10
1899.226182
 20
1080.792969
 30
0.0
  0
VERTEX
  5
3D0
330
39D
100
AcDbEntity
  8
Ｓ_１_１
  6
CONTINUOUS
 62
     3
100
AcDbVertex
100
AcDb2dVertex
 10
1898.420201
 20
1081.113142
 30
0.0
  0
VERTEX
  5
3D1
330
39D
100
AcDbEntity
  8
Ｓ_１_１
  6
CONTINUOUS
 62
     3
100
AcDbVertex
100
AcDb2dVertex
 10
1897.58819
 20
1081.364729
 30
0.0
  0
VERTEX
  5
3D2
330
39D
100
AcDbEntity
  8
Ｓ_１_１
  6
CONTINUOUS
 62
     3
100
AcDbVertex
100
AcDb2dVertex
 10
1896.736482
 20
1081.545814
 30
0.0
  0
VERTEX
  5
3D3
330
39D
100
AcDbEntity
  8
Ｓ_１_１
  6
CONTINUOUS
 62
     3
100
AcDbVertex
100
AcDb2dVertex
 10
1895.871557
 20
1081.655019
 30
0.0
  0
VERTEX
  5
3D4
330
39D
100
AcDbEntity
  8
Ｓ_１_１
  6
CONTINUOUS
 62
     3
100
AcDbVertex
100
AcDb2dVertex
 10
1895.0
 20
1081.691513
 30
0.0
  0
VERTEX
  5
3D5
330
39D
100
AcDbEntity
  8
Ｓ_１_１
  6
CONTINUOUS
 62
     3
100
AcDbVertex
100
AcDb2dVertex
 10
1894.128443
 20
1081.655019
 30
0.0
  0
VERTEX
  5
3D6
330
39D
100
AcDbEntity
  8
Ｓ_１_１
  6
CONTINUOUS
 62
     3
100
AcDbVertex
100
AcDb2dVertex
 10
1893.263518
 20
1081.545814
 30
0.0
  0
VERTEX
  5
3D7
330
39D
100
AcDbEntity
  8
Ｓ_１_１
  6
CONTINUOUS
 62
     3
100
AcDbVertex
100
AcDb2dVertex
 10
1892.41181
 20
1081.364729
 30
0.0
  0
VERTEX
  5
3D8
330
39D
100
AcDbEntity
  8
Ｓ_１_１
  6
CONTINUOUS
 62
     3
100
AcDbVertex
100
AcDb2dVertex
 10
1891.579799
 20
1081.113142
 30
0.0
  0
VERTEX
  5
3D9
330
39D
100
AcDbEntity
  8
Ｓ_１_１
  6
CONTINUOUS
 62
     3
100
AcDbVertex
100
AcDb2dVertex
 10
1890.773818
 20
1080.792969
 30
0.0
  0
VERTEX
  5
3DA
330
39D
100
AcDbEntity
  8
Ｓ_１_１
  6
CONTINUOUS
 62
     3
100
AcDbVertex
100
AcDb2dVertex
 10
1890.0
 20
1080.406645
 30
0.0
  0
VERTEX
  5
3DB
330
39D
100
AcDbEntity
  8
Ｓ_１_１
  6
CONTINUOUS
 62
     3
100
AcDbVertex
100
AcDb2dVertex
 10
1889.264236
 20
1079.957111
 30
0.0
  0
VERTEX
  5
3DC
330
39D
100
AcDbEntity
  8
Ｓ_１_１
  6
CONTINUOUS
 62
     3
100
AcDbVertex
100
AcDb2dVertex
 10
1888.572125
 20
1079.447789
 30
0.0
  0
VERTEX
  5
3DD
330
39D
100
AcDbEntity
  8
Ｓ_１_１
  6
CONTINUOUS
 62
     3
100
AcDbVertex
100
AcDb2dVertex
 10
1887.928933
 20
1078.882554
 30
0.0
  0
VERTEX
  5
3DE
330
39D
100
AcDbEntity
  8
Ｓ_１_１
  6
CONTINUOUS
 62
     3
100
AcDbVertex
100
AcDb2dVertex
 10
1887.339556
 20
1078.265709
 30
0.0
  0
VERTEX
  5
3DF
330
39D
100
AcDbEntity
  8
Ｓ_１_１
  6
CONTINUOUS
 62
     3
100
AcDbVertex
100
AcDb2dVertex
 10
1886.80848
 20
1077.601947
 30
0.0
  0
VERTEX
  5
3E0
330
39D
100
AcDbEntity
  8
Ｓ_１_１
  6
CONTINUOUS
 62
     3
100
AcDbVertex
100
AcDb2dVertex
 10
1886.339747
 20
1076.89632
 30
0.0
  0
VERTEX
  5
3E1
330
39D
100
AcDbEntity
  8
Ｓ_１_１
  6
CONTINUOUS
 62
     3
100
AcDbVertex
100
AcDb2dVertex
 10
1885.936923
 20
1076.1542
 30
0.0
  0
VERTEX
  5
3E2
330
39D
100
AcDbEntity
  8
Ｓ_１_１
  6
CONTINUOUS
 62
     3
100
AcDbVertex
100
AcDb2dVertex
 10
1885.603075
 20
1075.381233
 30
0.0
  0
VERTEX
  5
3E3
330
39D
100
AcDbEntity
  8
Ｓ_１_１
  6
CONTINUOUS
 62
     3
100
AcDbVertex
100
AcDb2dVertex
 10
1885.340743
 20
1074.583302
 30
0.0
  0
VERTEX
  5
3E4
330
39D
100
AcDbEntity
  8
Ｓ_１_１
  6
CONTINUOUS
 62
     3
100
AcDbVertex
100
AcDb2dVertex
 10
1885.151923
 20
1073.766481
 30
0.0
  0
VERTEX
  5
3E5
330
39D
100
AcDbEntity
  8
Ｓ_１_１
  6
CONTINUOUS
 62
     3
100
AcDbVertex
100
AcDb2dVertex
 10
1885.038054
 20
1072.936985
 30
0.0
  0
VERTEX
  5
3E6
330
39D
100
AcDbEntity
  8
Ｓ_１_１
  6
CONTINUOUS
 62
     3
100
AcDbVertex
100
AcDb2dVertex
 10
1885.000001
 20
1072.101128
 30
0.0
  0
SEQEND
  5
3E7
330
39D
100
AcDbEntity
  8
Ｓ_１_１
  6
CONTINUOUS
 62
     3
  0
POLYLINE
  5
3E8
330
1F
100
AcDbEntity
  8
Ｓ_１_１
  6
CONTINUOUS
 62
     3
100
AcDb2dPolyline
 66
     1
 10
0.0
 20
0.0
 30
0.0
 70
   128
  0
VERTEX
  5
3E9
330
3E8
100
AcDbEntity
  8
Ｓ_１_１
  6
CONTINUOUS
 62
     3
100
AcDbVertex
100
AcDb2dVertex
 10
1885.000001
 20
907.898872
 30
0.0
  0
VERTEX
  5
3EA
330
3E8
100
AcDbEntity
  8
Ｓ_１_１
  6
CONTINUOUS
 62
     3
100
AcDbVertex
100
AcDb2dVertex
 10
1885.038054
 20
907.063015
 30
0.0
  0
VERTEX
  5
3EB
330
3E8
100
AcDbEntity
  8
Ｓ_１_１
  6
CONTINUOUS
 62
     3
100
AcDbVertex
100
AcDb2dVertex
 10
1885.151923
 20
906.2335190000001
 30
0.0
  0
VERTEX
  5
3EC
330
3E8
100
AcDbEntity
  8
Ｓ_１_１
  6
CONTINUOUS
 62
     3
100
AcDbVertex
100
AcDb2dVertex
 10
1885.340743
 20
905.416698
 30
0.0
  0
VERTEX
  5
3ED
330
3E8
100
AcDbEntity
  8
Ｓ_１_１
  6
CONTINUOUS
 62
     3
100
AcDbVertex
100
AcDb2dVertex
 10
1885.603075
 20
904.6187669999999
 30
0.0
  0
VERTEX
  5
3EE
330
3E8
100
AcDbEntity
  8
Ｓ_１_１
  6
CONTINUOUS
 62
     3
100
AcDbVertex
100
AcDb2dVertex
 10
1885.936923
 20
903.8458
 30
0.0
  0
VERTEX
  5
3EF
330
3E8
100
AcDbEntity
  8
Ｓ_１_１
  6
CONTINUOUS
 62
     3
100
AcDbVertex
100
AcDb2dVertex
 10
1886.339747
 20
903.1036799999999
 30
0.0
  0
VERTEX
  5
3F0
330
3E8
100
AcDbEntity
  8
Ｓ_１_１
  6
CONTINUOUS
 62
     3
100
AcDbVertex
100
AcDb2dVertex
 10
1886.80848
 20
902.3980530000001
 30
0.0
  0
VERTEX
  5
3F1
330
3E8
100
AcDbEntity
  8
Ｓ_１_１
  6
CONTINUOUS
 62
     3
100
AcDbVertex
100
AcDb2dVertex
 10
1887.339556
 20
901.734291
 30
0.0
  0
VERTEX
  5
3F2
330
3E8
100
AcDbEntity
  8
Ｓ_１_１
  6
CONTINUOUS
 62
     3
100
AcDbVertex
100
AcDb2dVertex
 10
1887.928933
 20
901.117446
 30
0.0
  0
VERTEX
  5
3F3
330
3E8
100
AcDbEntity
  8
Ｓ_１_１
  6
CONTINUOUS
 62
     3
100
AcDbVertex
100
AcDb2dVertex
 10
1888.572125
 20
900.5522109999999
 30
0.0
  0
VERTEX
  5
3F4
330
3E8
100
AcDbEntity
  8
Ｓ_１_１
  6
CONTINUOUS
 62
     3
100
AcDbVertex
100
AcDb2dVertex
 10
1889.264236
 20
900.0428890000001
 30
0.0
  0
VERTEX
  5
3F5
330
3E8
100
AcDbEntity
  8
Ｓ_１_１
  6
CONTINUOUS
 62
     3
100
AcDbVertex
100
AcDb2dVertex
 10
1890.0
 20
899.593355
 30
0.0
  0
VERTEX
  5
3F6
330
3E8
100
AcDbEntity
  8
Ｓ_１_１
  6
CONTINUOUS
 62
     3
100
AcDbVertex
100
AcDb2dVertex
 10
1890.773818
 20
899.2070309999999
 30
0.0
  0
VERTEX
  5
3F7
330
3E8
100
AcDbEntity
  8
Ｓ_１_１
  6
CONTINUOUS
 62
     3
100
AcDbVertex
100
AcDb2dVertex
 10
1891.579799
 20
898.8868580000001
 30
0.0
  0
VERTEX
  5
3F8
330
3E8
100
AcDbEntity
  8
Ｓ_１_１
  6
CONTINUOUS
 62
     3
100
AcDbVertex
100
AcDb2dVertex
 10
1892.41181
 20
898.6352710000001
 30
0.0
  0
VERTEX
  5
3F9
330
3E8
100
AcDbEntity
  8
Ｓ_１_１
  6
CONTINUOUS
 62
     3
100
AcDbVertex
100
AcDb2dVertex
 10
1893.263518
 20
898.4541859999999
 30
0.0
  0
VERTEX
  5
3FA
330
3E8
100
AcDbEntity
  8
Ｓ_１_１
  6
CONTINUOUS
 62
     3
100
AcDbVertex
100
AcDb2dVertex
 10
1894.128443
 20
898.344981
 30
0.0
  0
VERTEX
  5
3FB
330
3E8
100
AcDbEntity
  8
Ｓ_１_１
  6
CONTINUOUS
 62
     3
100
AcDbVertex
100
AcDb2dVertex
 10
1895.0
 20
898.308487
 30
0.0
  0
VERTEX
  5
3FC
330
3E8
100
AcDbEntity
  8
Ｓ_１_１
  6
CONTINUOUS
 62
     3
100
AcDbVertex
100
AcDb2dVertex
 10
1895.871557
 20
898.344981
 30
0.0
  0
VERTEX
  5
3FD
330
3E8
100
AcDbEntity
  8
Ｓ_１_１
  6
CONTINUOUS
 62
     3
100
AcDbVertex
100
AcDb2dVertex
 10
1896.736482
 20
898.4541859999999
 30
0.0
  0
VERTEX
  5
3FE
330
3E8
100
AcDbEntity
  8
Ｓ_１_１
  6
CONTINUOUS
 62
     3
100
AcDbVertex
100
AcDb2dVertex
 10
1897.58819
 20
898.6352710000001
 30
0.0
  0
VERTEX
  5
3FF
330
3E8
100
AcDbEntity
  8
Ｓ_１_１
  6
CONTINUOUS
 62
     3
100
AcDbVertex
100
AcDb2dVertex
 10
1898.420201
 20
898.8868580000001
 30
0.0
  0
VERTEX
  5
400
330
3E8
100
AcDbEntity
  8
Ｓ_１_１
  6
CONTINUOUS
 62
     3
100
AcDbVertex
100
AcDb2dVertex
 10
1899.226182
 20
899.2070309999999
 30
0.0
  0
VERTEX
  5
401
330
3E8
100
AcDbEntity
  8
Ｓ_１_１
  6
CONTINUOUS
 62
     3
100
AcDbVertex
100
AcDb2dVertex
 10
1900.0
 20
899.593355
 30
0.0
  0
VERTEX
  5
402
330
3E8
100
AcDbEntity
  8
Ｓ_１_１
  6
CONTINUOUS
 62
     3
100
AcDbVertex
100
AcDb2dVertex
 10
1900.735764
 20
900.0428890000001
 30
0.0
  0
VERTEX
  5
403
330
3E8
100
AcDbEntity
  8
Ｓ_１_１
  6
CONTINUOUS
 62
     3
100
AcDbVertex
100
AcDb2dVertex
 10
1901.427875
 20
900.5522109999999
 30
0.0
  0
VERTEX
  5
404
330
3E8
100
AcDbEntity
  8
Ｓ_１_１
  6
CONTINUOUS
 62
     3
100
AcDbVertex
100
AcDb2dVertex
 10
1902.071067
 20
901.117446
 30
0.0
  0
VERTEX
  5
405
330
3E8
100
AcDbEntity
  8
Ｓ_１_１
  6
CONTINUOUS
 62
     3
100
AcDbVertex
100
AcDb2dVertex
 10
1902.660444
 20
901.734291
 30
0.0
  0
VERTEX
  5
406
330
3E8
100
AcDbEntity
  8
Ｓ_１_１
  6
CONTINUOUS
 62
     3
100
AcDbVertex
100
AcDb2dVertex
 10
1903.19152
 20
902.3980530000001
 30
0.0
  0
VERTEX
  5
407
330
3E8
100
AcDbEntity
  8
Ｓ_１_１
  6
CONTINUOUS
 62
     3
100
AcDbVertex
100
AcDb2dVertex
 10
1903.660253
 20
903.1036799999999
 30
0.0
  0
VERTEX
  5
408
330
3E8
100
AcDbEntity
  8
Ｓ_１_１
  6
CONTINUOUS
 62
     3
100
AcDbVertex
100
AcDb2dVertex
 10
1904.063077
 20
903.8458
 30
0.0
  0
VERTEX
  5
409
330
3E8
100
AcDbEntity
  8
Ｓ_１_１
  6
CONTINUOUS
 62
     3
100
AcDbVertex
100
AcDb2dVertex
 10
1904.396925
 20
904.6187669999999
 30
0.0
  0
VERTEX
  5
40A
330
3E8
100
AcDbEntity
  8
Ｓ_１_１
  6
CONTINUOUS
 62
     3
100
AcDbVertex
100
AcDb2dVertex
 10
1904.659257
 20
905.416698
 30
0.0
  0
VERTEX
  5
40B
330
3E8
100
AcDbEntity
  8
Ｓ_１_１
  6
CONTINUOUS
 62
     3
100
AcDbVertex
100
AcDb2dVertex
 10
1904.848077
 20
906.2335190000001
 30
0.0
  0
VERTEX
  5
40C
330
3E8
100
AcDbEntity
  8
Ｓ_１_１
  6
CONTINUOUS
 62
     3
100
AcDbVertex
100
AcDb2dVertex
 10
1904.961946
 20
907.063015
 30
0.0
  0
VERTEX
  5
40D
330
3E8
100
AcDbEntity
  8
Ｓ_１_１
  6
CONTINUOUS
 62
     3
100
AcDbVertex
100
AcDb2dVertex
 10
1904.999999
 20
907.898872
 30
0.0
  0
VERTEX
  5
40E
330
3E8
100
AcDbEntity
  8
Ｓ_１_１
  6
CONTINUOUS
 62
     3
100
AcDbVertex
100
AcDb2dVertex
 10
1904.961946
 20
908.7347299999999
 30
0.0
  0
VERTEX
  5
40F
330
3E8
100
AcDbEntity
  8
Ｓ_１_１
  6
CONTINUOUS
 62
     3
100
AcDbVertex
100
AcDb2dVertex
 10
1904.848077
 20
909.5642250000001
 30
0.0
  0
VERTEX
  5
410
330
3E8
100
AcDbEntity
  8
Ｓ_１_１
  6
CONTINUOUS
 62
     3
100
AcDbVertex
100
AcDb2dVertex
 10
1904.659257
 20
910.3810470000001
 30
0.0
  0
VERTEX
  5
411
330
3E8
100
AcDbEntity
  8
Ｓ_１_１
  6
CONTINUOUS
 62
     3
100
AcDbVertex
100
AcDb2dVertex
 10
1904.396925
 20
911.178977
 30
0.0
  0
VERTEX
  5
412
330
3E8
100
AcDbEntity
  8
Ｓ_１_１
  6
CONTINUOUS
 62
     3
100
AcDbVertex
100
AcDb2dVertex
 10
1904.063077
 20
911.9519439999999
 30
0.0
  0
VERTEX
  5
413
330
3E8
100
AcDbEntity
  8
Ｓ_１_１
  6
CONTINUOUS
 62
     3
100
AcDbVertex
100
AcDb2dVertex
 10
1903.660253
 20
912.6940649999999
 30
0.0
  0
VERTEX
  5
414
330
3E8
100
AcDbEntity
  8
Ｓ_１_１
  6
CONTINUOUS
 62
     3
100
AcDbVertex
100
AcDb2dVertex
 10
1903.19152
 20
913.3996910000001
 30
0.0
  0
VERTEX
  5
415
330
3E8
100
AcDbEntity
  8
Ｓ_１_１
  6
CONTINUOUS
 62
     3
100
AcDbVertex
100
AcDb2dVertex
 10
1902.660444
 20
914.063453
 30
0.0
  0
VERTEX
  5
416
330
3E8
100
AcDbEntity
  8
Ｓ_１_１
  6
CONTINUOUS
 62
     3
100
AcDbVertex
100
AcDb2dVertex
 10
1902.071067
 20
914.6802989999999
 30
0.0
  0
VERTEX
  5
417
330
3E8
100
AcDbEntity
  8
Ｓ_１_１
  6
CONTINUOUS
 62
     3
100
AcDbVertex
100
AcDb2dVertex
 10
1901.427875
 20
915.2455339999999
 30
0.0
  0
VERTEX
  5
418
330
3E8
100
AcDbEntity
  8
Ｓ_１_１
  6
CONTINUOUS
 62
     3
100
AcDbVertex
100
AcDb2dVertex
 10
1900.735764
 20
915.754856
 30
0.0
  0
VERTEX
  5
419
330
3E8
100
AcDbEntity
  8
Ｓ_１_１
  6
CONTINUOUS
 62
     3
100
AcDbVertex
100
AcDb2dVertex
 10
1900.0
 20
916.2043900000001
 30
0.0
  0
VERTEX
  5
41A
330
3E8
100
AcDbEntity
  8
Ｓ_１_１
  6
CONTINUOUS
 62
     3
100
AcDbVertex
100
AcDb2dVertex
 10
1899.226182
 20
916.590713
 30
0.0
  0
VERTEX
  5
41B
330
3E8
100
AcDbEntity
  8
Ｓ_１_１
  6
CONTINUOUS
 62
     3
100
AcDbVertex
100
AcDb2dVertex
 10
1898.420201
 20
916.910887
 30
0.0
  0
VERTEX
  5
41C
330
3E8
100
AcDbEntity
  8
Ｓ_１_１
  6
CONTINUOUS
 62
     3
100
AcDbVertex
100
AcDb2dVertex
 10
1897.58819
 20
917.1624730000001
 30
0.0
  0
VERTEX
  5
41D
330
3E8
100
AcDbEntity
  8
Ｓ_１_１
  6
CONTINUOUS
 62
     3
100
AcDbVertex
100
AcDb2dVertex
 10
1896.736482
 20
917.343558
 30
0.0
  0
VERTEX
  5
41E
330
3E8
100
AcDbEntity
  8
Ｓ_１_１
  6
CONTINUOUS
 62
     3
100
AcDbVertex
100
AcDb2dVertex
 10
1895.871557
 20
917.4527639999999
 30
0.0
  0
VERTEX
  5
41F
330
3E8
100
AcDbEntity
  8
Ｓ_１_１
  6
CONTINUOUS
 62
     3
100
AcDbVertex
100
AcDb2dVertex
 10
1895.0
 20
917.4892580000001
 30
0.0
  0
VERTEX
  5
420
330
3E8
100
AcDbEntity
  8
Ｓ_１_１
  6
CONTINUOUS
 62
     3
100
AcDbVertex
100
AcDb2dVertex
 10
1894.128443
 20
917.4527639999999
 30
0.0
  0
VERTEX
  5
421
330
3E8
100
AcDbEntity
  8
Ｓ_１_１
  6
CONTINUOUS
 62
     3
100
AcDbVertex
100
AcDb2dVertex
 10
1893.263518
 20
917.343558
 30
0.0
  0
VERTEX
  5
422
330
3E8
100
AcDbEntity
  8
Ｓ_１_１
  6
CONTINUOUS
 62
     3
100
AcDbVertex
100
AcDb2dVertex
 10
1892.41181
 20
917.1624730000001
 30
0.0
  0
VERTEX
  5
423
330
3E8
100
AcDbEntity
  8
Ｓ_１_１
  6
CONTINUOUS
 62
     3
100
AcDbVertex
100
AcDb2dVertex
 10
1891.579799
 20
916.910887
 30
0.0
  0
VERTEX
  5
424
330
3E8
100
AcDbEntity
  8
Ｓ_１_１
  6
CONTINUOUS
 62
     3
100
AcDbVertex
100
AcDb2dVertex
 10
1890.773818
 20
916.590713
 30
0.0
  0
VERTEX
  5
425
330
3E8
100
AcDbEntity
  8
Ｓ_１_１
  6
CONTINUOUS
 62
     3
100
AcDbVertex
100
AcDb2dVertex
 10
1890.0
 20
916.2043900000001
 30
0.0
  0
VERTEX
  5
426
330
3E8
100
AcDbEntity
  8
Ｓ_１_１
  6
CONTINUOUS
 62
     3
100
AcDbVertex
100
AcDb2dVertex
 10
1889.264236
 20
915.754856
 30
0.0
  0
VERTEX
  5
427
330
3E8
100
AcDbEntity
  8
Ｓ_１_１
  6
CONTINUOUS
 62
     3
100
AcDbVertex
100
AcDb2dVertex
 10
1888.572125
 20
915.2455339999999
 30
0.0
  0
VERTEX
  5
428
330
3E8
100
AcDbEntity
  8
Ｓ_１_１
  6
CONTINUOUS
 62
     3
100
AcDbVertex
100
AcDb2dVertex
 10
1887.928933
 20
914.6802989999999
 30
0.0
  0
VERTEX
  5
429
330
3E8
100
AcDbEntity
  8
Ｓ_１_１
  6
CONTINUOUS
 62
     3
100
AcDbVertex
100
AcDb2dVertex
 10
1887.339556
 20
914.063453
 30
0.0
  0
VERTEX
  5
42A
330
3E8
100
AcDbEntity
  8
Ｓ_１_１
  6
CONTINUOUS
 62
     3
100
AcDbVertex
100
AcDb2dVertex
 10
1886.80848
 20
913.3996910000001
 30
0.0
  0
VERTEX
  5
42B
330
3E8
100
AcDbEntity
  8
Ｓ_１_１
  6
CONTINUOUS
 62
     3
100
AcDbVertex
100
AcDb2dVertex
 10
1886.339747
 20
912.6940649999999
 30
0.0
  0
VERTEX
  5
42C
330
3E8
100
AcDbEntity
  8
Ｓ_１_１
  6
CONTINUOUS
 62
     3
100
AcDbVertex
100
AcDb2dVertex
 10
1885.936923
 20
911.9519439999999
 30
0.0
  0
VERTEX
  5
42D
330
3E8
100
AcDbEntity
  8
Ｓ_１_１
  6
CONTINUOUS
 62
     3
100
AcDbVertex
100
AcDb2dVertex
 10
1885.603075
 20
911.178977
 30
0.0
  0
VERTEX
  5
42E
330
3E8
100
AcDbEntity
  8
Ｓ_１_１
  6
CONTINUOUS
 62
     3
100
AcDbVertex
100
AcDb2dVertex
 10
1885.340743
 20
910.3810470000001
 30
0.0
  0
VERTEX
  5
42F
330
3E8
100
AcDbEntity
  8
Ｓ_１_１
  6
CONTINUOUS
 62
     3
100
AcDbVertex
100
AcDb2dVertex
 10
1885.151923
 20
909.5642250000001
 30
0.0
  0
VERTEX
  5
430
330
3E8
100
AcDbEntity
  8
Ｓ_１_１
  6
CONTINUOUS
 62
     3
100
AcDbVertex
100
AcDb2dVertex
 10
1885.038054
 20
908.7347299999999
 30
0.0
  0
VERTEX
  5
431
330
3E8
100
AcDbEntity
  8
Ｓ_１_１
  6
CONTINUOUS
 62
     3
100
AcDbVertex
100
AcDb2dVertex
 10
1885.000001
 20
907.898872
 30
0.0
  0
SEQEND
  5
432
330
3E8
100
AcDbEntity
  8
Ｓ_１_１
  6
CONTINUOUS
 62
     3
  0
CIRCLE
  5
433
330
1F
100
AcDbEntity
  8
Ｓ_１_１
  6
CONTINUOUS
 62
     3
100
AcDbCircle
 10
1870.000002
 20
990.0
 30
0.0
 40
10.0
  0
CIRCLE
  5
434
330
1F
100
AcDbEntity
  8
Ｓ_１_１
  6
CONTINUOUS
 62
     3
100
AcDbCircle
 10
1600.0
 20
990.0
 30
0.0
 40
10.0
  0
ARC
  5
435
330
1F
100
AcDbEntity
  8
Ｓ_１_１
  6
CONTINUOUS
 62
     3
100
AcDbCircle
 10
1550.0
 20
645.0
 30
0.0
 40
60.00000000000004
100
AcDbArc
 50
179.999991
 51
0.0000099999999886
  0
CIRCLE
  5
436
330
1F
100
AcDbEntity
  8
Ｓ_１_１
  6
CONTINUOUS
 62
     3
100
AcDbCircle
 10
1550.0
 20
645.0
 30
0.0
 40
30.00000000000002
  0
CIRCLE
  5
437
330
1F
100
AcDbEntity
  8
Ｓ_１_１
  6
CONTINUOUS
 62
     3
100
AcDbCircle
 10
1870.000002
 20
990.0
 30
0.0
 40
52.649998
  0
CIRCLE
  5
438
330
1F
100
AcDbEntity
  8
Ｓ_１_１
  6
CONTINUOUS
 62
     3
100
AcDbCircle
 10
1600.0
 20
990.0
 30
0.0
 40
52.649998
  0
ARC
  5
439
330
1F
100
AcDbEntity
  8
Ｓ_１_１
  6
CONTINUOUS
 62
     3
100
AcDbCircle
 10
1550.0
 20
1335.0
 30
0.0
 40
60.00000000000004
100
AcDbArc
 50
0.0
 51
180.000005
  0
CIRCLE
  5
43A
330
1F
100
AcDbEntity
  8
Ｓ_１_１
  6
CONTINUOUS
 62
     3
100
AcDbCircle
 10
1550.0
 20
1335.0
 30
0.0
 40
30.00000000000002
  0
CIRCLE
  5
43B
330
1F
100
AcDbEntity
  8
Ｓ_１_１
  6
CONTINUOUS
 62
     3
100
AcDbCircle
 10
1600.0
 20
990.0
 30
0.0
 40
57.15000200000004
  0
CIRCLE
  5
43C
330
1F
100
AcDbEntity
  8
Ｓ_１_１
  6
CONTINUOUS
 62
     3
100
AcDbCircle
 10
1870.000002
 20
990.0
 30
0.0
 40
57.15000200000004
  0
ARC
  5
43D
330
1F
100
AcDbEntity
  8
Ｓ_１_１
  6
CONTINUOUS
 62
     3
100
AcDbCircle
 10
1325.0
 20
990.0
 30
0.0
 40
170.0
100
AcDbArc
 50
300.9215820000003
 51
303.9744750000003
  0
ARC
  5
43E
330
1F
100
AcDbEntity
  8
Ｓ_１_１
  6
CONTINUOUS
 62
     3
100
AcDbCircle
 10
1325.0
 20
990.0
 30
0.0
 40
170.0
100
AcDbArc
 50
56.025525
 51
59.07841799999998
  0
LINE
  5
43F
330
1F
100
AcDbEntity
  8
Ｓ_１_１
  6
CONTINUOUS
 62
     3
100
AcDbLine
 10
1610.000012
 20
695.0000130000001
 30
0.0
 11
1620.000023
 21
705.000023
 31
0.0
  0
LINE
  5
440
330
1F
100
AcDbEntity
  8
Ｓ_１_１
  6
CONTINUOUS
 62
     3
100
AcDbLine
 10
1489.999996
 20
694.9999890000001
 30
0.0
 11
1479.999996
 21
704.999988
 31
0.0
  0
LINE
  5
441
330
1F
100
AcDbEntity
  8
Ｓ_１_１
  6
CONTINUOUS
 62
     3
100
AcDbLine
 10
1490.0
 20
695.0
 30
0.0
 11
1610.0
 21
695.0
 31
0.0
  0
LINE
  5
442
330
1F
100
AcDbEntity
  8
Ｓ_１_１
  6
CONTINUOUS
 62
     3
100
AcDbLine
 10
1610.00001
 20
1284.999984
 30
0.0
 11
1620.00002
 21
1274.999973
 31
0.0
  0
LINE
  5
443
330
1F
100
AcDbEntity
  8
Ｓ_１_１
  6
CONTINUOUS
 62
     3
100
AcDbLine
 10
1489.999996
 20
1285.000011
 30
0.0
 11
1479.999993
 21
1275.000008
 31
0.0
  0
LINE
  5
444
330
1F
100
AcDbEntity
  8
Ｓ_１_１
  6
CONTINUOUS
 62
     3
100
AcDbLine
 10
1490.0
 20
1285.0
 30
0.0
 11
1610.0
 21
1285.0
 31
0.0
  0
LINE
  5
445
330
1F
100
AcDbEntity
  8
Ｓ_１_１
  6
CONTINUOUS
 62
     3
100
AcDbLine
 10
1920.0
 20
962.3210829999999
 30
0.0
 11
1920.0
 21
892.8499979999999
 31
0.0
  0
LINE
  5
446
330
1F
100
AcDbEntity
  8
Ｓ_１_１
  6
CONTINUOUS
 62
     3
100
AcDbLine
 10
1820.000004
 20
962.3210829999999
 30
0.0
 11
1820.000004
 21
892.8499979999999
 31
0.0
  0
LINE
  5
447
330
1F
100
AcDbEntity
  8
Ｓ_１_１
  6
CONTINUOUS
 62
     3
100
AcDbLine
 10
1550.0
 20
962.3210829999999
 30
0.0
 11
1550.0
 21
892.8499979999999
 31
0.0
  0
LINE
  5
448
330
1F
100
AcDbEntity
  8
Ｓ_１_１
  6
CONTINUOUS
 62
     3
100
AcDbLine
 10
1650.0
 20
962.3210829999999
 30
0.0
 11
1650.0
 21
892.8499979999999
 31
0.0
  0
LINE
  5
449
330
1F
100
AcDbEntity
  8
Ｓ_１_１
  6
CONTINUOUS
 62
     3
100
AcDbLine
 10
1820.000004
 20
1087.149994
 30
0.0
 11
1920.0
 21
1087.149994
 31
0.0
  0
LINE
  5
44A
330
1F
100
AcDbEntity
  8
Ｓ_１_１
  6
CONTINUOUS
 62
     3
100
AcDbLine
 10
1920.0
 20
1087.149994
 30
0.0
 11
1920.0
 21
1017.678917
 31
0.0
  0
LINE
  5
44B
330
1F
100
AcDbEntity
  8
Ｓ_１_１
  6
CONTINUOUS
 62
     3
100
AcDbLine
 10
1820.000004
 20
892.8499979999999
 30
0.0
 11
1920.0
 21
892.8499979999999
 31
0.0
  0
LINE
  5
44C
330
1F
100
AcDbEntity
  8
Ｓ_１_１
  6
CONTINUOUS
 62
     3
100
AcDbLine
 10
1820.000004
 20
1087.149994
 30
0.0
 11
1820.000004
 21
1017.678917
 31
0.0
  0
LINE
  5
44D
330
1F
100
AcDbEntity
  8
Ｓ_１_１
  6
CONTINUOUS
 62
     3
100
AcDbLine
 10
1550.0
 20
892.8499979999999
 30
0.0
 11
1650.0
 21
892.8499979999999
 31
0.0
  0
LINE
  5
44E
330
1F
100
AcDbEntity
  8
Ｓ_１_１
  6
CONTINUOUS
 62
     3
100
AcDbLine
 10
1550.0
 20
1087.149994
 30
0.0
 11
1550.0
 21
1017.678917
 31
0.0
  0
LINE
  5
44F
330
1F
100
AcDbEntity
  8
Ｓ_１_１
  6
CONTINUOUS
 62
     3
100
AcDbLine
 10
1550.0
 20
1087.149994
 30
0.0
 11
1650.0
 21
1087.149994
 31
0.0
  0
LINE
  5
450
330
1F
100
AcDbEntity
  8
Ｓ_１_１
  6
CONTINUOUS
 62
     3
100
AcDbLine
 10
1650.0
 20
1087.149994
 30
0.0
 11
1650.0
 21
1017.678917
 31
0.0
  0
LINE
  5
451
330
1F
100
AcDbEntity
  8
Ｓ_１_１
  6
CONTINUOUS
 62
     3
100
AcDbLine
 10
1610.0
 20
645.0
 30
0.0
 11
1610.0
 21
695.0
 31
0.0
  0
LINE
  5
452
330
1F
100
AcDbEntity
  8
Ｓ_１_１
  6
CONTINUOUS
 62
     3
100
AcDbLine
 10
1490.0
 20
645.0
 30
0.0
 11
1490.0
 21
695.0
 31
0.0
  0
LINE
  5
453
330
1F
100
AcDbEntity
  8
Ｓ_１_１
  6
CONTINUOUS
 62
     3
100
AcDbLine
 10
1610.0
 20
1335.0
 30
0.0
 11
1610.0
 21
1285.0
 31
0.0
  0
LINE
  5
454
330
1F
100
AcDbEntity
  8
Ｓ_１_１
  6
CONTINUOUS
 62
     3
100
AcDbLine
 10
1490.0
 20
1335.0
 30
0.0
 11
1490.0
 21
1285.0
 31
0.0
  0
LINE
  5
455
330
1F
100
AcDbEntity
  8
Ｓ_１_１
  6
CONTINUOUS
 62
     3
100
AcDbLine
 10
1434.999984
 20
704.9999949999999
 30
0.0
 11
1429.999978
 21
710.0000010000001
 31
0.0
  0
LINE
  5
456
330
1F
100
AcDbEntity
  8
Ｓ_１_１
  6
CONTINUOUS
 62
     3
100
AcDbLine
 10
2069.999997
 20
709.999998
 30
0.0
 11
2064.999997
 21
704.999998
 31
0.0
  0
LINE
  5
457
330
1F
100
AcDbEntity
  8
Ｓ_１_１
  6
CONTINUOUS
 62
     3
100
AcDbLine
 10
2065.000002
 20
1275.000004
 30
0.0
 11
2070.000004
 21
1270.000001
 31
0.0
  0
LINE
  5
458
330
1F
100
AcDbEntity
  8
Ｓ_１_１
  6
CONTINUOUS
 62
     3
100
AcDbLine
 10
1435.000004
 20
1274.999984
 30
0.0
 11
1430.000004
 21
1269.999984
 31
0.0
  0
LINE
  5
459
330
1F
100
AcDbEntity
  8
Ｓ_１_１
  6
CONTINUOUS
 62
     3
100
AcDbLine
 10
2065.0
 20
1275.0
 30
0.0
 11
2065.0
 21
705.0
 31
0.0
  0
LINE
  5
45A
330
1F
100
AcDbEntity
  8
Ｓ_１_１
  6
CONTINUOUS
 62
     3
100
AcDbLine
 10
1435.0
 20
1275.0
 30
0.0
 11
1435.0
 21
705.0
 31
0.0
  0
LINE
  5
45B
330
1F
100
AcDbEntity
  8
Ｓ_１_１
  6
CONTINUOUS
 62
     3
100
AcDbLine
 10
1329.999976
 20
705.0
 30
0.0
 11
1324.999981
 21
709.9999949999999
 31
0.0
  0
LINE
  5
45C
330
1F
100
AcDbEntity
  8
Ｓ_１_１
  6
CONTINUOUS
 62
     3
100
AcDbLine
 10
1329.999996
 20
1274.99998
 30
0.0
 11
1325.000001
 21
1269.999985
 31
0.0
  0
LINE
  5
45D
330
1F
100
AcDbEntity
  8
Ｓ_１_１
  6
CONTINUOUS
 62
     3
100
AcDbLine
 10
1330.0
 20
1275.0
 30
0.0
 11
1330.0
 21
705.0
 31
0.0
  0
LINE
  5
45E
330
1F
100
AcDbEntity
  8
Ｓ_１_１
  6
CONTINUOUS
 62
     3
100
AcDbLine
 10
1405.063782
 20
1275.0
 30
0.0
 11
1405.063782
 21
705.0
 31
0.0
  0
LINE
  5
45F
330
1F
100
AcDbEntity
  8
Ｓ_１_１
  6
CONTINUOUS
 62
     3
100
AcDbLine
 10
1412.356964
 20
844.1618579999999
 30
0.0
 11
1412.356964
 21
1135.83815
 31
0.0
  0
LINE
  5
460
330
1F
100
AcDbEntity
  8
Ｓ_１_１
  6
CONTINUOUS
 62
     3
100
AcDbLine
 10
1412.356977
 20
844.161867
 30
0.0
 11
1405.063813
 21
705.000004
 31
0.0
  0
LINE
  5
461
330
1F
100
AcDbEntity
  8
Ｓ_１_１
  6
CONTINUOUS
 62
     3
100
AcDbLine
 10
1412.356954
 20
1135.838125
 30
0.0
 11
1405.063789
 21
1275.000003
 31
0.0
  0
LINE
  5
462
330
1F
100
AcDbEntity
  8
Ｓ_１_１
  6
CONTINUOUS
 62
     3
100
AcDbLine
 10
1330.0
 20
1275.0
 30
0.0
 11
1405.063782
 21
1275.0
 31
0.0
  0
LINE
  5
463
330
1F
100
AcDbEntity
  8
Ｓ_１_１
  6
CONTINUOUS
 62
     3
100
AcDbLine
 10
1330.0
 20
705.0
 30
0.0
 11
1405.063782
 21
705.0
 31
0.0
  0
LINE
  5
464
330
1F
100
AcDbEntity
  8
Ｓ_１_１
  6
CONTINUOUS
 62
     3
100
AcDbLine
 10
1424.999986
 20
1170.000008
 30
0.0
 11
1419.999981
 21
1165.000002
 31
0.0
  0
LINE
  5
465
330
1F
100
AcDbEntity
  8
Ｓ_１_１
  6
CONTINUOUS
 62
     3
100
AcDbLine
 10
1424.999988
 20
809.9999929999999
 30
0.0
 11
1419.999983
 21
814.9999989999999
 31
0.0
  0
LINE
  5
466
330
1F
100
AcDbEntity
  8
Ｓ_１_１
  6
CONTINUOUS
 62
     3
100
AcDbLine
 10
1425.0
 20
1170.0
 30
0.0
 11
1425.0
 21
810.0
 31
0.0
  0
LINE
  5
467
330
1F
100
AcDbEntity
  8
Ｓ_１_１
  6
CONTINUOUS
 62
     3
100
AcDbLine
 10
1425.0
 20
1170.0
 30
0.0
 11
1430.0
 21
1170.0
 31
0.0
  0
LINE
  5
468
330
1F
100
AcDbEntity
  8
Ｓ_１_１
  6
CONTINUOUS
 62
     3
100
AcDbLine
 10
1425.0
 20
810.0
 30
0.0
 11
1430.0
 21
810.0
 31
0.0
  0
LINE
  5
469
330
1F
100
AcDbEntity
  8
Ｓ_１_１
  6
CONTINUOUS
 62
     3
100
AcDbLine
 10
1435.0
 20
705.0
 30
0.0
 11
2065.0
 21
705.0
 31
0.0
  0
LINE
  5
46A
330
1F
100
AcDbEntity
  8
Ｓ_１_１
  6
CONTINUOUS
 62
     3
100
AcDbLine
 10
1435.0
 20
1275.0
 30
0.0
 11
2065.0
 21
1275.0
 31
0.0
  0
LINE
  5
46B
330
1F
100
AcDbEntity
  8
Ｓ_１_１
  6
CONTINUOUS
 62
     3
100
AcDbLine
 10
1325.0
 20
1270.0
 30
0.0
 11
1325.0
 21
710.0
 31
0.0
  0
LINE
  5
46C
330
1F
100
AcDbEntity
  8
Ｓ_１_１
  6
CONTINUOUS
 62
     3
100
AcDbLine
 10
1420.0
 20
1165.0
 30
0.0
 11
1420.0
 21
815.0
 31
0.0
  0
LINE
  5
46D
330
1F
100
AcDbEntity
  8
Ｓ_１_１
  6
CONTINUOUS
 62
     3
100
AcDbLine
 10
1430.0
 20
1270.0
 30
0.0
 11
1430.0
 21
710.0
 31
0.0
  0
LINE
  5
46E
330
1F
100
AcDbEntity
  8
Ｓ_１_１
  6
CONTINUOUS
 62
     3
100
AcDbLine
 10
2070.0
 20
1270.0
 30
0.0
 11
2070.0
 21
710.0
 31
0.0
  0
CIRCLE
  5
46F
330
1F
100
AcDbEntity
  8
Ｓ_１_１
  6
EXLTYPE2
 62
     1
100
AcDbCircle
 10
2655.0
 20
990.0
 30
0.0
 40
160.0
  0
CIRCLE
  5
470
330
1F
100
AcDbEntity
  8
Ｓ_１_１
  6
EXLTYPE2
 62
     1
100
AcDbCircle
 10
2655.0
 20
990.0
 30
0.0
 40
200.0000000000001
  0
CIRCLE
  5
471
330
1F
100
AcDbEntity
  8
Ｓ_１_１
  6
CONTINUOUS
 62
     3
100
AcDbCircle
 10
2494.999939
 20
990.0
 30
0.0
 40
7.000000000000004
  0
CIRCLE
  5
472
330
1F
100
AcDbEntity
  8
Ｓ_１_１
  6
CONTINUOUS
 62
     3
100
AcDbCircle
 10
2655.0
 20
1150.0
 30
0.0
 40
7.000000000000004
  0
CIRCLE
  5
473
330
1F
100
AcDbEntity
  8
Ｓ_１_１
  6
CONTINUOUS
 62
     3
100
AcDbCircle
 10
2815.0
 20
990.0
 30
0.0
 40
7.000000000000004
  0
CIRCLE
  5
474
330
1F
100
AcDbEntity
  8
Ｓ_１_１
  6
CONTINUOUS
 62
     3
100
AcDbCircle
 10
2655.0
 20
830.0
 30
0.0
 40
7.000000000000004
  0
CIRCLE
  5
475
330
1F
100
AcDbEntity
  8
Ｓ_１_１
  6
CONTINUOUS
 62
     3
100
AcDbCircle
 10
2655.0
 20
790.0
 30
0.0
 40
10.0
  0
CIRCLE
  5
476
330
1F
100
AcDbEntity
  8
Ｓ_１_１
  6
CONTINUOUS
 62
     3
100
AcDbCircle
 10
2454.999939
 20
990.0
 30
0.0
 40
10.0
  0
CIRCLE
  5
477
330
1F
100
AcDbEntity
  8
Ｓ_１_１
  6
CONTINUOUS
 62
     3
100
AcDbCircle
 10
2655.0
 20
1190.0
 30
0.0
 40
10.0
  0
CIRCLE
  5
478
330
1F
100
AcDbEntity
  8
Ｓ_１_１
  6
CONTINUOUS
 62
     3
100
AcDbCircle
 10
2855.0
 20
990.0
 30
0.0
 40
10.0
  0
CIRCLE
  5
479
330
1F
100
AcDbEntity
  8
Ｓ_１_１
  6
CONTINUOUS
 62
     3
100
AcDbCircle
 10
2655.0
 20
1150.0
 30
0.0
 40
8.0
  0
CIRCLE
  5
47A
330
1F
100
AcDbEntity
  8
Ｓ_１_１
  6
CONTINUOUS
 62
     3
100
AcDbCircle
 10
2815.0
 20
990.0
 30
0.0
 40
8.0
  0
CIRCLE
  5
47B
330
1F
100
AcDbEntity
  8
Ｓ_１_１
  6
CONTINUOUS
 62
     3
100
AcDbCircle
 10
2655.0
 20
830.0
 30
0.0
 40
8.0
  0
CIRCLE
  5
47C
330
1F
100
AcDbEntity
  8
Ｓ_１_１
  6
CONTINUOUS
 62
     3
100
AcDbCircle
 10
2494.999939
 20
990.0
 30
0.0
 40
8.0
  0
CIRCLE
  5
47D
330
1F
100
AcDbEntity
  8
Ｓ_１_１
  6
CONTINUOUS
 62
     3
100
AcDbCircle
 10
2454.999939
 20
990.0
 30
0.0
 40
12.00000000000001
  0
CIRCLE
  5
47E
330
1F
100
AcDbEntity
  8
Ｓ_１_１
  6
CONTINUOUS
 62
     3
100
AcDbCircle
 10
2655.0
 20
790.0
 30
0.0
 40
12.00000000000001
  0
CIRCLE
  5
47F
330
1F
100
AcDbEntity
  8
Ｓ_１_１
  6
CONTINUOUS
 62
     3
100
AcDbCircle
 10
2855.0
 20
990.0
 30
0.0
 40
12.00000000000001
  0
CIRCLE
  5
480
330
1F
100
AcDbEntity
  8
Ｓ_１_１
  6
CONTINUOUS
 62
     3
100
AcDbCircle
 10
2655.0
 20
1190.0
 30
0.0
 40
12.00000000000001
  0
CIRCLE
  5
481
330
1F
100
AcDbEntity
  8
Ｓ_１_１
  6
CONTINUOUS
 62
     3
100
AcDbCircle
 10
2655.0
 20
990.0
 30
0.0
 40
280.0
  0
CIRCLE
  5
482
330
1F
100
AcDbEntity
  8
Ｓ_１_１
  6
CONTINUOUS
 62
     3
100
AcDbCircle
 10
2655.0
 20
990.0
 30
0.0
 40
285.0
  0
LINE
  5
483
330
1F
100
AcDbEntity
  8
Ｓ_１_１
  6
EXLTYPE2
 62
     1
100
AcDbLine
 10
2349.0
 20
990.0
 30
0.0
 11
2959.5
 21
990.0
 31
0.0
  0
LINE
  5
484
330
1F
100
AcDbEntity
  8
Ｓ_１_１
  6
EXLTYPE2
 62
     1
100
AcDbLine
 10
2655.0
 20
1298.25
 30
0.0
 11
2655.0
 21
678.3535770000001
 31
0.0
  0
LINE
  5
485
330
1F
100
AcDbEntity
  8
Ｓ_１_１
  6
EXLTYPE2
 62
     1
100
AcDbLine
 10
622.5
 20
964.9999999999999
 30
0.0
 11
637.5
 21
964.9999999999999
 31
0.0
  0
LINE
  5
486
330
1F
100
AcDbEntity
  8
Ｓ_１_１
  6
EXLTYPE2
 62
     1
100
AcDbLine
 10
622.5
 20
1015.0
 30
0.0
 11
637.5
 21
1015.0
 31
0.0
  0
LINE
  5
487
330
1F
100
AcDbEntity
  8
Ｓ_１_１
  6
EXLTYPE2
 62
     1
100
AcDbLine
 10
590.0
 20
1335.0
 30
0.0
 11
670.0
 21
1335.0
 31
0.0
  0
LINE
  5
488
330
1F
100
AcDbEntity
  8
Ｓ_１_１
  6
EXLTYPE2
 62
     1
100
AcDbLine
 10
590.0
 20
645.0
 30
0.0
 11
670.0
 21
645.0
 31
0.0
  0
LINE
  5
489
330
1F
100
AcDbEntity
  8
Ｓ_１_１
  6
EXLTYPE2
 62
     1
100
AcDbLine
 10
889.9889830000002
 20
1066.794187
 30
0.0
 11
927.0168600000002
 21
1077.731292
 31
0.0
  0
LINE
  5
48A
330
1F
100
AcDbEntity
  8
Ｓ_１_１
  6
EXLTYPE2
 62
     1
100
AcDbLine
 10
917.8838409999998
 20
904.966345
 30
0.0
 11
886.3039980000003
 21
914.2942370000001
 31
0.0
  0
LINE
  5
48B
330
1F
100
AcDbEntity
  8
Ｓ_１_１
  6
EXLTYPE2
 62
     1
100
AcDbLine
 10
630.0
 20
1416.153564
 30
0.0
 11
630.0
 21
567.2658079999999
 31
0.0
  0
LINE
  5
48C
330
1F
100
AcDbEntity
  8
Ｓ_１_１
  6
EXLTYPE2
 62
     1
100
AcDbLine
 10
1011.970581
 20
990.0
 30
0.0
 11
330.0
 21
990.0
 31
0.0
  0
CIRCLE
  5
48D
330
1F
100
AcDbEntity
  8
Ｓ_１_１
  6
CONTINUOUS
 62
     3
100
AcDbCircle
 10
630.0
 20
990.0
 30
0.0
 40
46.999996
  0
CIRCLE
  5
48E
330
1F
100
AcDbEntity
  8
Ｓ_１_１
  6
CONTINUOUS
 62
     3
100
AcDbCircle
 10
630.0
 20
964.9999999999999
 30
0.0
 40
5.0
  0
CIRCLE
  5
48F
330
1F
100
AcDbEntity
  8
Ｓ_１_１
  6
CONTINUOUS
 62
     3
100
AcDbCircle
 10
630.0
 20
1015.0
 30
0.0
 40
5.0
  0
CIRCLE
  5
490
330
1F
100
AcDbEntity
  8
Ｓ_１_１
  6
CONTINUOUS
 62
     3
100
AcDbCircle
 10
630.0
 20
990.0
 30
0.0
 40
45.0
  0
CIRCLE
  5
491
330
1F
100
AcDbEntity
  8
Ｓ_１_１
  6
CONTINUOUS
 62
     3
100
AcDbCircle
 10
630.0
 20
990.0
 30
0.0
 40
85.0
  0
CIRCLE
  5
492
330
1F
100
AcDbEntity
  8
Ｓ_１_１
  6
CONTINUOUS
 62
     3
100
AcDbCircle
 10
630.0
 20
990.0
 30
0.0
 40
125.0000000000001
  0
CIRCLE
  5
493
330
1F
100
AcDbEntity
  8
Ｓ_１_１
  6
CONTINUOUS
 62
     3
100
AcDbCircle
 10
630.0
 20
990.0
 30
0.0
 40
165.0
  0
CIRCLE
  5
494
330
1F
100
AcDbEntity
  8
Ｓ_１_１
  6
CONTINUOUS
 62
     3
100
AcDbCircle
 10
630.0
 20
990.0
 30
0.0
 40
205.0000000000001
  0
CIRCLE
  5
495
330
1F
100
AcDbEntity
  8
Ｓ_１_１
  6
CONTINUOUS
 62
     3
100
AcDbCircle
 10
630.0
 20
990.0
 30
0.0
 40
245.0000000000001
  0
ARC
  5
496
330
1F
100
AcDbEntity
  8
Ｓ_１_１
  6
CONTINUOUS
 62
     3
100
AcDbCircle
 10
630.0
 20
990.0
 30
0.0
 40
290.0
100
AcDbArc
 50
340.4274630000003
 51
0.0
  0
ARC
  5
497
330
1F
100
AcDbEntity
  8
Ｓ_１_１
  6
CONTINUOUS
 62
     3
100
AcDbCircle
 10
630.0
 20
990.0
 30
0.0
 40
290.0
100
AcDbArc
 50
0.0
 51
19.57253699999998
  0
CIRCLE
  5
498
330
1F
100
AcDbEntity
  8
Ｓ_１_１
  6
CONTINUOUS
 62
     3
100
AcDbCircle
 10
630.0
 20
990.0
 30
0.0
 40
280.0
  0
CIRCLE
  5
499
330
1F
100
AcDbEntity
  8
Ｓ_１_１
  6
CONTINUOUS
 62
     3
100
AcDbCircle
 10
630.0
 20
990.0
 30
0.0
 40
285.0
  0
LINE
  5
49A
330
1F
100
AcDbEntity
  8
Ｓ_１_１
  6
CONTINUOUS
 62
     3
100
AcDbLine
 10
610.0
 20
585.0
 30
0.0
 11
650.0
 21
585.0
 31
0.0
  0
LINE
  5
49B
330
1F
100
AcDbEntity
  8
Ｓ_１_１
  6
CONTINUOUS
 62
     3
100
AcDbLine
 10
610.0
 20
705.7026370000001
 30
0.0
 11
610.0
 21
585.0
 31
0.0
  0
LINE
  5
49C
330
1F
100
AcDbEntity
  8
Ｓ_１_１
  6
CONTINUOUS
 62
     3
100
AcDbLine
 10
650.0
 20
705.7026370000001
 30
0.0
 11
650.0
 21
585.0
 31
0.0
  0
LINE
  5
49D
330
1F
100
AcDbEntity
  8
Ｓ_１_１
  6
CONTINUOUS
 62
     3
100
AcDbLine
 10
610.0
 20
1395.0
 30
0.0
 11
650.0
 21
1395.0
 31
0.0
  0
LINE
  5
49E
330
1F
100
AcDbEntity
  8
Ｓ_１_１
  6
CONTINUOUS
 62
     3
100
AcDbLine
 10
898.5322780000001
 20
894.525026
 30
0.0
 11
903.2433689999998
 21
892.8500260000001
 31
0.0
  0
LINE
  5
49F
330
1F
100
AcDbEntity
  8
Ｓ_１_１
  6
CONTINUOUS
 62
     3
100
AcDbLine
 10
898.5322820000001
 20
1085.475035
 30
0.0
 11
903.2433730000002
 21
1087.150035
 31
0.0
  0
LINE
  5
4A0
330
1F
100
AcDbEntity
  8
Ｓ_１_１
  6
CONTINUOUS
 62
     3
100
AcDbLine
 10
1000.000061
 20
932.8499979999999
 30
0.0
 11
914.31311
 21
932.8499979999999
 31
0.0
  0
LINE
  5
4A1
330
1F
100
AcDbEntity
  8
Ｓ_１_１
  6
CONTINUOUS
 62
     3
100
AcDbLine
 10
1000.000061
 20
1047.149994
 30
0.0
 11
914.31311
 21
1047.149994
 31
0.0
  0
LINE
  5
4A2
330
1F
100
AcDbEntity
  8
Ｓ_１_１
  6
CONTINUOUS
 62
     3
100
AcDbLine
 10
1000.000061
 20
1047.149994
 30
0.0
 11
1000.000061
 21
932.8499979999999
 31
0.0
  0
LINE
  5
4A3
330
1F
100
AcDbEntity
  8
Ｓ_１_１
  6
CONTINUOUS
 62
     3
100
AcDbLine
 10
650.0
 20
1395.0
 30
0.0
 11
650.0
 21
1274.297363
 31
0.0
  0
LINE
  5
4A4
330
1F
100
AcDbEntity
  8
Ｓ_１_１
  6
CONTINUOUS
 62
     3
100
AcDbLine
 10
610.0
 20
1395.0
 30
0.0
 11
610.0
 21
1274.297363
 31
0.0
  0
DIMENSION
  5
4A5
330
1F
100
AcDbEntity
  8
Ｓ_１_１
  6
CONTINUOUS
 62
     2
100
AcDbDimension
  2
*D28
 10
2768.137084989848
 20
1103.137084989848
 30
0.0
 11
2376.806266022377
 21
740.974420746322
 31
0.0
 70
   163
  1
P.C.D 320
  3
ISO-25
100
AcDbDiametricDimension
 15
2541.862915010152
 25
876.8629150101524
 35
0.0
 40
0.0
1001
ACAD
1000
DSTYLE
1002
{
1070
   270
1070
     2
1070
     6
1000
EX_NORM
1070
     7
1000
EX_NORM
1070
    41
1040
22.49999809265137
1070
    73
1070
     0
1070
    74
1070
     0
1070
    77
1070
     1
1070
    78
1070
     8
1070
   140
1040
25.9717811778291
1070
   147
1040
0.0
1070
   173
1070
     1
1070
   176
1070
     2
1070
   177
1070
     2
1070
   178
1070
     2
1070
   271
1070
     2
1070
   277
1070
     2
1070
   279
1070
     2
1070
   280
1070
     0
1070
   287
1070
     5
1070
   340
1005
11B
1002
}
  0
DIMENSION
  5
4B0
330
1F
100
AcDbEntity
  8
Ｓ_１_１
  6
CONTINUOUS
 62
     2
100
AcDbDimension
  2
*D29
 10
2513.578643762691
 20
1131.42135623731
 30
0.0
 11
2921.768927863113
 21
723.2310721368866
 31
0.0
 70
   163
  1
P.C.D 400
  3
ISO-25
100
AcDbDiametricDimension
 15
2796.42135623731
 25
848.5786437626904
 35
0.0
 40
0.0
1001
ACAD
1000
DSTYLE
1002
{
1070
   270
1070
     2
1070
     6
1000
EX_NORM
1070
     7
1000
EX_NORM
1070
    41
1040
22.49999809265137
1070
    73
1070
     0
1070
    74
1070
     0
1070
    77
1070
     1
1070
    78
1070
     8
1070
   140
1040
25.9717811778291
1070
   147
1040
3.749999761581421
1070
   173
1070
     1
1070
   176
1070
     2
1070
   177
1070
     2
1070
   178
1070
     2
1070
   271
1070
     2
1070
   277
1070
     2
1070
   279
1070
     0
1070
   280
1070
     0
1070
   287
1070
     3
1070
   340
1005
11B
1002
}
  0
TEXT
  5
4BC
330
1F
100
AcDbEntity
  8
Ｓ_１_１
  6
CONTINUOUS
 62
     4
100
AcDbText
 10
2325.0
 20
1351.4420806067
 30
0.0
 40
25.9717811778291
  1
4-M24ネジ深40
 41
0.9992307692307691
  7
EXCADTTF1
 72
     5
 11
2544.375
 21
1351.4420806067
 31
0.0
100
AcDbText
  0
LEADER
  5
4BD
330
1F
100
AcDbEntity
  8
Ｓ_１_１
  6
CONTINUOUS
 62
     2
100
AcDbLeader
  3
ISO-25
 76
     3
 10
2648.0051054946
 20
1199.7504590076
 30
0.0
 10
2565.3311289442
 20
1342.9459868567
 30
0.0
 10
2325.0
 20
1342.9459868567
 30
0.0
1001
ACAD
1000
DSTYLE
1002
{
1070
     5
1000
EX_NORM
1070
    41
1040
22.5
1070
   341
1005
78
1002
}
  0
TEXT
  5
4BE
330
1F
100
AcDbEntity
  8
Ｓ_１_１
  6
CONTINUOUS
 62
     4
100
AcDbText
 10
2767.125
 20
1329.8748299998
 30
0.0
 40
25.9717811778291
  1
4-M16ネジ深25
 41
0.9992307692307691
  7
EXCADTTF1
 72
     5
 11
2986.5
 21
1329.8748299998
 31
0.0
100
AcDbText
  0
LEADER
  5
4BF
330
1F
100
AcDbEntity
  8
Ｓ_１_１
  6
CONTINUOUS
 62
     2
100
AcDbLeader
  3
ISO-25
 76
     3
 10
2661.7415700785
 20
1154.3071142168
 30
0.0
 10
2758.2004160332
 20
1321.3787362498
 30
0.0
 10
2986.5
 20
1321.3787362498
 30
0.0
1001
ACAD
1000
DSTYLE
1002
{
1070
     5
1000
EX_NORM
1070
    41
1040
22.5
1070
   341
1005
78
1002
}
  0
ENDSEC
  0
SECTION
  2
OBJECTS
  0
DICTIONARY
  5
C
330
0
100
AcDbDictionary
  3
ACAD_GROUP
350
D
  3
ACAD_LAYOUT
350
1A
  3
ACAD_MATERIAL
350
43
  3
ACAD_MLEADERSTYLE
350
6B
  3
ACAD_MLINESTYLE
350
17
  3
ACAD_PLOTSETTINGS
350
19
  3
ACAD_SCALELIST
350
47
  3
ACAD_VISUALSTYLE
350
2A
  3
ACDBHEADERROUNDTRIPXREC
350
4C0
  3
ACDBVARIABLEDICTIONARY
350
4E1
  0
DICTIONARY
  5
4EC
330
8
100
AcDbDictionary
280
     1
  3
ACAD_XREC_ROUNDTRIP
360
4ED
  0
DICTIONARY
  5
D
102
{ACAD_REACTORS
330
C
102
}
330
C
100
AcDbDictionary
  0
DICTIONARY
  5
1A
102
{ACAD_REACTORS
330
C
102
}
330
C
100
AcDbDictionary
  0
DICTIONARY
  5
43
102
{ACAD_REACTORS
330
C
102
}
330
C
100
AcDbDictionary
  3
BYBLOCK
350
45
  3
BYLAYER
350
44
  3
GLOBAL
350
46
  0
DICTIONARY
  5
6B
102
{ACAD_REACTORS
330
C
102
}
330
C
100
AcDbDictionary
  3
STANDARD
350
6C
  0
DICTIONARY
  5
17
102
{ACAD_REACTORS
330
C
102
}
330
C
100
AcDbDictionary
  3
STANDARD
350
18
  0
DICTIONARY
  5
19
102
{ACAD_REACTORS
330
C
102
}
330
C
100
AcDbDictionary
  0
DICTIONARY
  5
47
102
{ACAD_REACTORS
330
C
102
}
330
C
100
AcDbDictionary
  3
A0
350
48
  3
A1
350
49
  3
A2
350
4A
  3
A3
350
4B
  3
A4
350
4C
  3
A5
350
4D
  3
A6
350
4E
  3
A7
350
4F
  3
A8
350
50
  3
A9
350
51
  3
B0
350
52
  3
B1
350
53
  3
B2
350
54
  3
B3
350
55
  3
B4
350
56
  3
B5
350
57
  3
B6
350
58
  3
B7
350
59
  3
B8
350
5A
  3
B9
350
5B
  3
C0
350
5C
  3
C1
350
5D
  3
C2
350
5E
  3
C3
350
5F
  3
C4
350
60
  3
C5
350
61
  3
C6
350
62
  3
C7
350
63
  3
C8
350
64
  3
C9
350
65
  3
D0
350
66
  3
D1
350
67
  3
D2
350
68
  0
DICTIONARY
  5
2A
102
{ACAD_REACTORS
330
C
102
}
330
C
100
AcDbDictionary
  3
2DWIREFRAME
350
2F
  3
BASIC
350
32
  3
BRIGHTEN
350
36
  3
COLORCHANGE
350
3A
  3
CONCEPTUAL
350
34
  3
DIM
350
35
  3
EDGECOLOROFF
350
3D
  3
FACEPATTERN
350
39
  3
FLAT
350
2B
  3
FLATWITHEDGES
350
2C
  3
GOURAUD
350
2D
  3
GOURAUDWITHEDGES
350
2E
  3
HIDDEN
350
31
  3
JITTEROFF
350
3B
  3
LINEPATTERN
350
38
  3
OVERHANGOFF
350
3C
  3
REALISTIC
350
33
  3
SHADED
350
42
  3
SHADED_WITH_EDGES
350
41
  3
SHADES_OF_GRAY
350
3E
  3
SKETCHY
350
3F
  3
THICKEN
350
37
  3
WIREFRAME
350
30
  3
X-RAY
350
40
  0
DICTIONARY
  5
4C0
102
{ACAD_REACTORS
330
C
102
}
330
C
100
AcDbDictionary
  3
CEPSNID
350
4CA
  3
CEPSNTYPE
350
4C9
  3
DIMSTYLEDATA
350
4E0
  3
FINGERPRINTGUID
350
4CB
  3
HYPERLINKBASE
350
4C3
  3
INSUNITS
350
4C8
  3
LAYOUTDICT
350
4C5
  3
LWETCUNION
350
4C7
  3
PLOTSETDICT
350
4C6
  3
PSVPSCALE
350
4CD
  3
PUCSBASE
350
4D0
  3
PUCSORGBACK
350
4D6
  3
PUCSORGBOTTOM
350
4D2
  3
PUCSORGFRONT
350
4D5
  3
PUCSORGLEFT
350
4D3
  3
PUCSORGRIGHT
350
4D4
  3
PUCSORGTOP
350
4D1
  3
PUCSORTHOREF
350
4CE
  3
PUCSORTHOVIEW
350
4CF
  3
STYLESHEET
350
4C4
  3
TSTACKALIGN
350
4C1
  3
TSTACKSIZE
350
4C2
  3
UCSBASE
350
4D9
  3
UCSORGBACK
350
4DF
  3
UCSORGBOTTOM
350
4DB
  3
UCSORGFRONT
350
4DE
  3
UCSORGLEFT
350
4DC
  3
UCSORGRIGHT
350
4DD
  3
UCSORGTOP
350
4DA
  3
UCSORTHOREF
350
4D7
  3
UCSORTHOVIEW
350
4D8
  3
VERSIONGUID
350
4CC
  0
DICTIONARY
  5
4E1
102
{ACAD_REACTORS
330
C
102
}
330
C
100
AcDbDictionary
  3
CANNOSCALE
350
4EE
  3
CENTEREXE
350
4E8
  3
CENTERLTYPEFILE
350
4E9
  3
CMLEADERSTYLE
350
4E3
  3
CTABLESTYLE
350
4E2
  3
DIMASSOC
350
4EA
  3
HIDETEXT
350
4EB
  3
MSLTSCALE
350
4EF
  3
PSOLHEIGHT
350
4E5
  3
PSOLWIDTH
350
4E4
  0
XRECORD
  5
4ED
102
{ACAD_REACTORS
330
4EC
102
}
330
4EC
100
AcDbXrecord
102
VTR_0.000_0.000_1.000_1.000_VISUALSTYLE
340
2F
102
VTR_0.000_0.000_1.000_1.000_GRIDDISPLAY
 70
     3
102
VTR_0.000_0.000_1.000_1.000_GRIDMAJOR
 70
     5
102
VTR_0.000_0.000_1.000_1.000_DEFAULTLIGHTING
280
     1
102
VTR_0.000_0.000_1.000_1.000_DEFAULTLIGHTINGTYPE
 70
     1
102
VTR_0.000_0.000_1.000_1.000_BRIGHTNESS
141
0.0
102
VTR_0.000_0.000_1.000_1.000_CONTRAST
142
0.0
  0
MATERIAL
  5
45
102
{ACAD_REACTORS
330
43
102
}
102
{ACAD_XDICTIONARY
360
4F2
102
}
330
43
100
AcDbMaterial
  1
BYBLOCK
  0
MATERIAL
  5
44
102
{ACAD_REACTORS
330
43
102
}
102
{ACAD_XDICTIONARY
360
4F0
102
}
330
43
100
AcDbMaterial
  1
BYLAYER
  0
MATERIAL
  5
46
102
{ACAD_REACTORS
330
43
102
}
102
{ACAD_XDICTIONARY
360
4F4
102
}
330
43
100
AcDbMaterial
  1
GLOBAL
  0
ACAD_PROXY_OBJECT
  5
6C
102
{ACAD_REACTORS
330
6B
102
}
330
6B
100
AcDbProxyObject
 90
      499
 91
      505
 93
      610
310
40901902A4063FBFFFFFE0000000000000020400000000000020404214DD185B99185C990000000000000104090141901A00000000000004100000000000000041025764000000000000039000
340
14
340
0
340
11
340
0
 94
        0
1001
ACAD_MLEADERVER
1070
     2
  0
MLINESTYLE
  5
18
102
{ACAD_REACTORS
330
17
102
}
330
17
100
AcDbMlineStyle
  2
Standard
 70
     0
  3

 62
   256
 51
90.0
 52
90.0
 71
     2
 49
0.5
 62
   256
  6
BYLAYER
 49
-0.5
 62
   256
  6
BYLAYER
  0
ACAD_PROXY_OBJECT
  5
48
102
{ACAD_REACTORS
330
47
102
}
330
47
100
AcDbProxyObject
 90
      499
 91
      503
 93
       41
310
903313A31580
  0
ACAD_PROXY_OBJECT
  5
49
102
{ACAD_REACTORS
330
47
102
}
330
47
100
AcDbProxyObject
 90
      499
 91
      503
 93
      105
310
903313A324000000000000004000
  0
ACAD_PROXY_OBJECT
  5
4A
102
{ACAD_REACTORS
330
47
102
}
330
47
100
AcDbProxyObject
 90
      499
 91
      503
 93
      105
310
903313A344000000000000104000
  0
ACAD_PROXY_OBJECT
  5
4B
102
{ACAD_REACTORS
330
47
102
}
330
47
100
AcDbProxyObject
 90
      499
 91
      503
 93
      105
310
903313A354000000000000144000
  0
ACAD_PROXY_OBJECT
  5
4C
102
{ACAD_REACTORS
330
47
102
}
330
47
100
AcDbProxyObject
 90
      499
 91
      503
 93
      105
310
903313A384000000000000204000
  0
ACAD_PROXY_OBJECT
  5
4D
102
{ACAD_REACTORS
330
47
102
}
330
47
100
AcDbProxyObject
 90
      499
 91
      503
 93
      113
310
904313A31304000000000000244000
  0
ACAD_PROXY_OBJECT
  5
4E
102
{ACAD_REACTORS
330
47
102
}
330
47
100
AcDbProxyObject
 90
      499
 91
      503
 93
      113
310
904313A31364000000000000304000
  0
ACAD_PROXY_OBJECT
  5
4F
102
{ACAD_REACTORS
330
47
102
}
330
47
100
AcDbProxyObject
 90
      499
 91
      503
 93
      113
310
904313A32304000000000000344000
  0
ACAD_PROXY_OBJECT
  5
50
102
{ACAD_REACTORS
330
47
102
}
330
47
100
AcDbProxyObject
 90
      499
 91
      503
 93
      113
310
904313A333040000000000003E4000
  0
ACAD_PROXY_OBJECT
  5
51
102
{ACAD_REACTORS
330
47
102
}
330
47
100
AcDbProxyObject
 90
      499
 91
      503
 93
      113
310
904313A34304000000000000444000
  0
ACAD_PROXY_OBJECT
  5
52
102
{ACAD_REACTORS
330
47
102
}
330
47
100
AcDbProxyObject
 90
      499
 91
      503
 93
      113
310
904313A35304000000000000494000
  0
ACAD_PROXY_OBJECT
  5
53
102
{ACAD_REACTORS
330
47
102
}
330
47
100
AcDbProxyObject
 90
      499
 91
      503
 93
      121
310
905313A3130304000000000000594000
  0
ACAD_PROXY_OBJECT
  5
54
102
{ACAD_REACTORS
330
47
102
}
330
47
100
AcDbProxyObject
 90
      499
 91
      503
 93
      105
310
903323A310000000000000010100
  0
ACAD_PROXY_OBJECT
  5
55
102
{ACAD_REACTORS
330
47
102
}
330
47
100
AcDbProxyObject
 90
      499
 91
      503
 93
      105
310
903343A310000000000000410100
  0
ACAD_PROXY_OBJECT
  5
56
102
{ACAD_REACTORS
330
47
102
}
330
47
100
AcDbProxyObject
 90
      499
 91
      503
 93
      105
310
903383A310000000000000810100
  0
ACAD_PROXY_OBJECT
  5
57
102
{ACAD_REACTORS
330
47
102
}
330
47
100
AcDbProxyObject
 90
      499
 91
      503
 93
      113
310
90431303A310000000000000910100
  0
ACAD_PROXY_OBJECT
  5
58
102
{ACAD_REACTORS
330
47
102
}
330
47
100
AcDbProxyObject
 90
      499
 91
      503
 93
      121
310
9053130303A310000000000001650100
  0
ACAD_PROXY_OBJECT
  5
59
102
{ACAD_REACTORS
330
47
102
}
330
47
100
AcDbProxyObject
 90
      499
 91
      503
 93
      257
310
90E312F31323822203D2031272D3022000000000000200FC000000000000284000
  0
ACAD_PROXY_OBJECT
  5
5A
102
{ACAD_REACTORS
330
47
102
}
330
47
100
AcDbProxyObject
 90
      499
 91
      503
 93
      249
310
90D312F363422203D2031272D3022000000000000240FC000000000000284000
  0
ACAD_PROXY_OBJECT
  5
5B
102
{ACAD_REACTORS
330
47
102
}
330
47
100
AcDbProxyObject
 90
      499
 91
      503
 93
      249
310
90D312F333222203D2031272D3022000000000000280FC000000000000284000
  0
ACAD_PROXY_OBJECT
  5
5C
102
{ACAD_REACTORS
330
47
102
}
330
47
100
AcDbProxyObject
 90
      499
 91
      503
 93
      249
310
90D312F313622203D2031272D30220000000000002C0FC000000000000284000
  0
ACAD_PROXY_OBJECT
  5
5D
102
{ACAD_REACTORS
330
47
102
}
330
47
100
AcDbProxyObject
 90
      499
 91
      503
 93
      249
310
90D332F333222203D2031272D30220000000000002E0FC000000000000284000
  0
ACAD_PROXY_OBJECT
  5
5E
102
{ACAD_REACTORS
330
47
102
}
330
47
100
AcDbProxyObject
 90
      499
 91
      503
 93
      241
310
90C312F3822203D2031272D3022000000000000300FC000000000000284000
  0
ACAD_PROXY_OBJECT
  5
5F
102
{ACAD_REACTORS
330
47
102
}
330
47
100
AcDbProxyObject
 90
      499
 91
      503
 93
      249
310
90D332F313622203D2031272D3022000000000000320FC000000000000284000
  0
ACAD_PROXY_OBJECT
  5
60
102
{ACAD_REACTORS
330
47
102
}
330
47
100
AcDbProxyObject
 90
      499
 91
      503
 93
      241
310
90C312F3422203D2031272D3022000000000000340FC000000000000284000
  0
ACAD_PROXY_OBJECT
  5
61
102
{ACAD_REACTORS
330
47
102
}
330
47
100
AcDbProxyObject
 90
      499
 91
      503
 93
      241
310
90C332F3822203D2031272D3022000000000000360FC000000000000284000
  0
ACAD_PROXY_OBJECT
  5
62
102
{ACAD_REACTORS
330
47
102
}
330
47
100
AcDbProxyObject
 90
      499
 91
      503
 93
      241
310
90C312F3222203D2031272D3022000000000000380FC000000000000284000
  0
ACAD_PROXY_OBJECT
  5
63
102
{ACAD_REACTORS
330
47
102
}
330
47
100
AcDbProxyObject
 90
      499
 91
      503
 93
      241
310
90C332F3422203D2031272D30220000000000003A0FC000000000000284000
  0
ACAD_PROXY_OBJECT
  5
64
102
{ACAD_REACTORS
330
47
102
}
330
47
100
AcDbProxyObject
 90
      499
 91
      503
 93
      161
310
90A3122203D2031272D30224000000000000284000
  0
ACAD_PROXY_OBJECT
  5
65
102
{ACAD_REACTORS
330
47
102
}
330
47
100
AcDbProxyObject
 90
      499
 91
      503
 93
      257
310
90E312D312F3222203D2031272D30220000000000003E0FC000000000000284000
  0
ACAD_PROXY_OBJECT
  5
66
102
{ACAD_REACTORS
330
47
102
}
330
47
100
AcDbProxyObject
 90
      499
 91
      503
 93
      225
310
90A3322203D2031272D302200000000000002100000000000000284000
  0
ACAD_PROXY_OBJECT
  5
67
102
{ACAD_REACTORS
330
47
102
}
330
47
100
AcDbProxyObject
 90
      499
 91
      503
 93
      225
310
90A3622203D2031272D302200000000000006100000000000000284000
  0
ACAD_PROXY_OBJECT
  5
68
102
{ACAD_REACTORS
330
47
102
}
330
47
100
AcDbProxyObject
 90
      499
 91
      503
 93
      249
310
90D31272D3022203D2031272D30220000000000000A100000000000000284000
  0
ACAD_PROXY_OBJECT
  5
2F
102
{ACAD_REACTORS
330
2A
102
}
330
2A
100
AcDbProxyObject
 90
      499
 91
      501
 93
      436
310
42CC9915DA5C99599C985B595049028333333333333E33F0000000000000F90107901411070040501600405405064090741402480A0340
1001
ACAD
1000
AcDbSavedByObjectVersion
1070
     0
  0
ACAD_PROXY_OBJECT
  5
32
102
{ACAD_REACTORS
330
2A
102
}
330
2A
100
AcDbProxyObject
 90
      499
 91
      501
 93
      388
310
4150985CDA58D07406404333333333333E33F0000000000000F90107A41107004050150841D405064090741402480A0350
1001
ACAD
1000
AcDbSavedByObjectVersion
1070
     0
  0
ACAD_PROXY_OBJECT
  5
36
102
{ACAD_REACTORS
330
2A
102
}
330
2A
100
AcDbProxyObject
 90
      499
 91
      501
 93
      428
310
42109C9A59DA1D195B90C409028333333333333E33F0000000000000F9010790141107004050150841D405064090741402480A029950
1001
ACAD
1000
AcDbSavedByObjectVersion
1070
     0
  0
ACAD_PROXY_OBJECT
  5
3A
102
{ACAD_REACTORS
330
2A
102
}
330
2A
100
AcDbProxyObject
 90
      499
 91
      501
 93
      452
310
42D0DBDB1BDC90DA185B99D95104090240C333333333333E33F0000000000000F90108901411070040501508421405064090741402480A0350
1001
ACAD
1000
AcDbSavedByObjectVersion
1070
     0
  0
ACAD_PROXY_OBJECT
  5
34
102
{ACAD_REACTORS
330
2A
102
}
330
2A
100
AcDbProxyObject
 90
      499
 91
      501
 93
      500
310
4290DBDB98D95C1D1D585B10940D028333333333333E33F0000000000000F90107902409070040501000000000018199010841D405064090740C02480A0340
1001
ACAD
1000
AcDbSavedByObjectVersion
1070
     0
  0
ACAD_PROXY_OBJECT
  5
35
102
{ACAD_REACTORS
330
2A
102
}
330
2A
100
AcDbProxyObject
 90
      499
 91
      501
 93
      412
310
40D11A5B50B409028333333333333E33F0000000000000F9010790141107004050150841D405064090741402480A02677FFFFFD0
1001
ACAD
1000
AcDbSavedByObjectVersion
1070
     0
  0
ACAD_PROXY_OBJECT
  5
3D
102
{ACAD_REACTORS
330
2A
102
}
330
2A
100
AcDbProxyObject
 90
      499
 91
      501
 93
      452
310
43115919D950DBDB1BDC93D999916409028333333333333E33F0000000000000F9010790141107004050150841D405064090741402480A0350
1001
ACAD
1000
AcDbSavedByObjectVersion
1070
     0
  0
ACAD_PROXY_OBJECT
  5
39
102
{ACAD_REACTORS
330
2A
102
}
330
2A
100
AcDbProxyObject
 90
      499
 91
      501
 93
      444
310
42D19858D95C185D1D195C9B90F409028333333333333E33F0000000000000F9010790141107004050150841D405064090741402480A0350
1001
ACAD
1000
AcDbSavedByObjectVersion
1070
     0
  0
ACAD_PROXY_OBJECT
  5
2B
102
{ACAD_REACTORS
330
2A
102
}
330
2A
100
AcDbProxyObject
 90
      499
 91
      501
 93
      380
310
41119B185D240901404333333333333E33F0000000000000F9010740A907004050150841D405064090741402480A1B50
1001
ACAD
1000
AcDbSavedByObjectVersion
1070
     0
  0
ACAD_PROXY_OBJECT
  5
2C
102
{ACAD_REACTORS
330
2A
102
}
330
2A
100
AcDbProxyObject
 90
      499
 91
      501
 93
      468
310
43519B185D15DA5D1A115919D95CD0140901404333333333333E33F0000000000000F90107409019070040501600405405064090741402480A1B50
1001
ACAD
1000
AcDbSavedByObjectVersion
1070
     0
  0
ACAD_PROXY_OBJECT
  5
2D
102
{ACAD_REACTORS
330
2A
102
}
330
2A
100
AcDbProxyObject
 90
      499
 91
      501
 93
      404
310
41D1DBDD5C985D5910240902404333333333333E33F0000000000000F9010740A9070040501641D405064090741402480A1B50
1001
ACAD
1000
AcDbSavedByObjectVersion
1070
     0
  0
ACAD_PROXY_OBJECT
  5
2E
102
{ACAD_REACTORS
330
2A
102
}
330
2A
100
AcDbProxyObject
 90
      499
 91
      501
 93
      492
310
4411DBDD5C985D5915DA5D1A115919D95CD0340902404333333333333E33F0000000000000F90107409019070040501600405405064090741402480A1B50
1001
ACAD
1000
AcDbSavedByObjectVersion
1070
     0
  0
ACAD_PROXY_OBJECT
  5
31
102
{ACAD_REACTORS
330
2A
102
}
330
2A
100
AcDbProxyObject
 90
      499
 91
      501
 93
      476
310
41921A5919195B90640502408333333333333E33F0000000000000F901079024090700405020000000000001110200405405064090740C02480A0340
1001
ACAD
1000
AcDbSavedByObjectVersion
1070
     0
  0
ACAD_PROXY_OBJECT
  5
3B
102
{ACAD_REACTORS
330
2A
102
}
330
2A
100
AcDbProxyObject
 90
      499
 91
      501
 93
      428
310
42529A5D1D195C93D999914409028333333333333E33F0000000000000F9010790141107004050150A41D405064090741402480A0350
1001
ACAD
1000
AcDbSavedByObjectVersion
1070
     0
  0
ACAD_PROXY_OBJECT
  5
38
102
{ACAD_REACTORS
330
2A
102
}
330
2A
100
AcDbProxyObject
 90
      499
 91
      501
 93
      444
310
42D31A5B995C185D1D195C9B90E409028333333333333E33F0000000000000F9010790141107004050750841D405064090741402483A0350
1001
ACAD
1000
AcDbSavedByObjectVersion
1070
     0
  0
ACAD_PROXY_OBJECT
  5
3C
102
{ACAD_REACTORS
330
2A
102
}
330
2A
100
AcDbProxyObject
 90
      499
 91
      501
 93
      444
310
42D3DD995C9A185B99D3D999915409028333333333333E33F0000000000000F9010790141107004050150941D405064090741402480A0350
1001
ACAD
1000
AcDbSavedByObjectVersion
1070
     0
  0
ACAD_PROXY_OBJECT
  5
33
102
{ACAD_REACTORS
330
2A
102
}
330
2A
100
AcDbProxyObject
 90
      499
 91
      501
 93
      428
310
425499585B1A5CDD1A58D08409038333333333333E33F0000000000000F9010740A907004050150800405405064090740C02480A1B40
1001
ACAD
1000
AcDbSavedByObjectVersion
1070
     0
  0
ACAD_PROXY_OBJECT
  5
42
102
{ACAD_REACTORS
330
2A
102
}
330
2A
100
AcDbProxyObject
 90
      499
 91
      501
 93
      420
310
4194DA1859195911B40902404333333333333E33F0000000000000F9010740A41107004050150800405405064090840C02480A0B40
1001
ACAD
1000
AcDbSavedByObjectVersion
1070
     0
  0
ACAD_PROXY_OBJECT
  5
41
102
{ACAD_REACTORS
330
2A
102
}
330
2A
100
AcDbProxyObject
 90
      499
 91
      501
 93
      516
310
4454DA18591959081DDA5D1A08195919D95CD1A40902404333333333333E33F0000000000000F901074090142907004050250800405405064090740C02480A0B40
1001
ACAD
1000
AcDbSavedByObjectVersion
1070
     0
  0
ACAD_PROXY_OBJECT
  5
3E
102
{ACAD_REACTORS
330
2A
102
}
330
2A
100
AcDbProxyObject
 90
      499
 91
      501
 93
      532
310
4394DA1859195CC81BD98811DC985E5174090240C333333333333E33F0000000000000F901079024090741D01000000000000111010841D405064090740C02480A0340
1001
ACAD
1000
AcDbSavedByObjectVersion
1070
     0
  0
ACAD_PROXY_OBJECT
  5
3F
102
{ACAD_REACTORS
330
2A
102
}
330
2A
100
AcDbProxyObject
 90
      499
 91
      501
 93
      476
310
41D4DAD95D18DA1E51840502408333333333333E33F0000000000000F901079024090741D01000000000000111010B41D405064090741802480A0340
1001
ACAD
1000
AcDbSavedByObjectVersion
1070
     0
  0
ACAD_PROXY_OBJECT
  5
37
102
{ACAD_REACTORS
330
2A
102
}
330
2A
100
AcDbProxyObject
 90
      499
 91
      501
 93
      412
310
41D51A1A58DAD95B90D409028333333333333E33F0000000000000F9010790141107004050150C41D405064090741402480A0350
1001
ACAD
1000
AcDbSavedByObjectVersion
1070
     0
  0
ACAD_PROXY_OBJECT
  5
30
102
{ACAD_REACTORS
330
2A
102
}
330
2A
100
AcDbProxyObject
 90
      499
 91
      501
 93
      420
310
4255DA5C99599C985B595059028333333333333E33F0000000000000F90107901411070040501600405405064090740C02480A0340
1001
ACAD
1000
AcDbSavedByObjectVersion
1070
     0
  0
ACAD_PROXY_OBJECT
  5
40
102
{ACAD_REACTORS
330
2A
102
}
330
2A
100
AcDbProxyObject
 90
      499
 91
      501
 93
      404
310
41560B54985E51940902404000000000000E03F0000000000000F9010740501907004050150841D405064090740C02480A1B40
1001
ACAD
1000
AcDbSavedByObjectVersion
1070
     0
  0
XRECORD
  5
4CA
102
{ACAD_REACTORS
330
4C0
102
}
330
4C0
100
AcDbXrecord
340
0
  0
XRECORD
  5
4C9
102
{ACAD_REACTORS
330
4C0
102
}
330
4C0
100
AcDbXrecord
 90
        0
  0
XRECORD
  5
4E0
102
{ACAD_REACTORS
330
4C0
102
}
330
4C0
100
AcDbXrecord
1000
DSTYLE
1002
{
1070
   340
340
11
1002
}
  0
XRECORD
  5
4CB
102
{ACAD_REACTORS
330
4C0
102
}
330
4C0
100
AcDbXrecord
  1
{5ee9c135-85d7-4b01-96f1-5d786acefc83}
  0
XRECORD
  5
4C3
102
{ACAD_REACTORS
330
4C0
102
}
330
4C0
100
AcDbXrecord
  1

  0
XRECORD
  5
4C8
102
{ACAD_REACTORS
330
4C0
102
}
330
4C0
100
AcDbXrecord
 90
        4
  0
XRECORD
  5
4C5
102
{ACAD_REACTORS
330
4C0
102
}
330
4C0
100
AcDbXrecord
340
1A
  0
XRECORD
  5
4C7
102
{ACAD_REACTORS
330
4C0
102
}
330
4C0
100
AcDbXrecord
 90
    10781
  0
XRECORD
  5
4C6
102
{ACAD_REACTORS
330
4C0
102
}
330
4C0
100
AcDbXrecord
340
19
  0
XRECORD
  5
4CD
102
{ACAD_REACTORS
330
4C0
102
}
330
4C0
100
AcDbXrecord
 40
0.0
  0
XRECORD
  5
4D0
102
{ACAD_REACTORS
330
4C0
102
}
330
4C0
100
AcDbXrecord
340
0
  0
XRECORD
  5
4D6
102
{ACAD_REACTORS
330
4C0
102
}
330
4C0
100
AcDbXrecord
 10
0.0
 20
0.0
 30
0.0
  0
XRECORD
  5
4D2
102
{ACAD_REACTORS
330
4C0
102
}
330
4C0
100
AcDbXrecord
 10
0.0
 20
0.0
 30
0.0
  0
XRECORD
  5
4D5
102
{ACAD_REACTORS
330
4C0
102
}
330
4C0
100
AcDbXrecord
 10
0.0
 20
0.0
 30
0.0
  0
XRECORD
  5
4D3
102
{ACAD_REACTORS
330
4C0
102
}
330
4C0
100
AcDbXrecord
 10
0.0
 20
0.0
 30
0.0
  0
XRECORD
  5
4D4
102
{ACAD_REACTORS
330
4C0
102
}
330
4C0
100
AcDbXrecord
 10
0.0
 20
0.0
 30
0.0
  0
XRECORD
  5
4D1
102
{ACAD_REACTORS
330
4C0
102
}
330
4C0
100
AcDbXrecord
 10
0.0
 20
0.0
 30
0.0
  0
XRECORD
  5
4CE
102
{ACAD_REACTORS
330
4C0
102
}
330
4C0
100
AcDbXrecord
340
0
  0
XRECORD
  5
4CF
102
{ACAD_REACTORS
330
4C0
102
}
330
4C0
100
AcDbXrecord
 70
     0
  0
XRECORD
  5
4C4
102
{ACAD_REACTORS
330
4C0
102
}
330
4C0
100
AcDbXrecord
  1

  0
XRECORD
  5
4C1
102
{ACAD_REACTORS
330
4C0
102
}
330
4C0
100
AcDbXrecord
 90
        1
  0
XRECORD
  5
4C2
102
{ACAD_REACTORS
330
4C0
102
}
330
4C0
100
AcDbXrecord
 90
       70
  0
XRECORD
  5
4D9
102
{ACAD_REACTORS
330
4C0
102
}
330
4C0
100
AcDbXrecord
340
0
  0
XRECORD
  5
4DF
102
{ACAD_REACTORS
330
4C0
102
}
330
4C0
100
AcDbXrecord
 10
0.0
 20
0.0
 30
0.0
  0
XRECORD
  5
4DB
102
{ACAD_REACTORS
330
4C0
102
}
330
4C0
100
AcDbXrecord
 10
0.0
 20
0.0
 30
0.0
  0
XRECORD
  5
4DE
102
{ACAD_REACTORS
330
4C0
102
}
330
4C0
100
AcDbXrecord
 10
0.0
 20
0.0
 30
0.0
  0
XRECORD
  5
4DC
102
{ACAD_REACTORS
330
4C0
102
}
330
4C0
100
AcDbXrecord
 10
0.0
 20
0.0
 30
0.0
  0
XRECORD
  5
4DD
102
{ACAD_REACTORS
330
4C0
102
}
330
4C0
100
AcDbXrecord
 10
0.0
 20
0.0
 30
0.0
  0
XRECORD
  5
4DA
102
{ACAD_REACTORS
330
4C0
102
}
330
4C0
100
AcDbXrecord
 10
0.0
 20
0.0
 30
0.0
  0
XRECORD
  5
4D7
102
{ACAD_REACTORS
330
4C0
102
}
330
4C0
100
AcDbXrecord
340
0
  0
XRECORD
  5
4D8
102
{ACAD_REACTORS
330
4C0
102
}
330
4C0
100
AcDbXrecord
 70
     0
  0
XRECORD
  5
4CC
102
{ACAD_REACTORS
330
4C0
102
}
330
4C0
100
AcDbXrecord
  1
{FAEB1C32-E019-11D5-929B-00C0DF256EC4}
  0
DICTIONARYVAR
  5
4EE
102
{ACAD_REACTORS
330
4E1
102
}
330
4E1
100
DictionaryVariables
280
     0
  1
1:1
  0
DICTIONARYVAR
  5
4E8
102
{ACAD_REACTORS
330
4E1
102
}
330
4E1
100
DictionaryVariables
280
     0
  1
3.500000
  0
DICTIONARYVAR
  5
4E9
102
{ACAD_REACTORS
330
4E1
102
}
330
4E1
100
DictionaryVariables
280
     0
  1
acadiso.lin
  0
DICTIONARYVAR
  5
4E3
102
{ACAD_REACTORS
330
4E1
102
}
330
4E1
100
DictionaryVariables
280
     0
  1
Standard
  0
DICTIONARYVAR
  5
4E2
102
{ACAD_REACTORS
330
4E1
102
}
330
4E1
100
DictionaryVariables
280
     0
  1
Standard
  0
DICTIONARYVAR
  5
4EA
102
{ACAD_REACTORS
330
4E1
102
}
330
4E1
100
DictionaryVariables
280
     0
  1
2
  0
DICTIONARYVAR
  5
4EB
102
{ACAD_REACTORS
330
4E1
102
}
330
4E1
100
DictionaryVariables
280
     0
  1
1
  0
DICTIONARYVAR
  5
4EF
102
{ACAD_REACTORS
330
4E1
102
}
330
4E1
100
DictionaryVariables
280
     0
  1
1
  0
DICTIONARYVAR
  5
4E5
102
{ACAD_REACTORS
330
4E1
102
}
330
4E1
100
DictionaryVariables
280
     0
  1
80.000000
  0
DICTIONARYVAR
  5
4E4
102
{ACAD_REACTORS
330
4E1
102
}
330
4E1
100
DictionaryVariables
280
     0
  1
5.000000
  0
DICTIONARY
  5
4F2
330
45
100
AcDbDictionary
280
     1
  3
ACAD_XREC_ROUNDTRIP
360
4F3
  0
DICTIONARY
  5
4F0
330
44
100
AcDbDictionary
280
     1
  3
ACAD_XREC_ROUNDTRIP
360
4F1
  0
DICTIONARY
  5
4F4
330
46
100
AcDbDictionary
280
     1
  3
ACAD_XREC_ROUNDTRIP
360
4F5
  0
XRECORD
  5
4F3
102
{ACAD_REACTORS
330
4F2
102
}
330
4F2
100
AcDbXrecord
102
MATERIAL
148
0.0
149
0.0
149
0.0
 93
        0
 94
      127
282
     0
 72
     1
 77
     1
171
     1
175
     1
179
     1
273
     0
  0
XRECORD
  5
4F1
102
{ACAD_REACTORS
330
4F0
102
}
330
4F0
100
AcDbXrecord
102
MATERIAL
148
0.0
149
0.0
149
0.0
 93
        0
 94
      127
282
     0
 72
     1
 77
     1
171
     1
175
     1
179
     1
273
     0
  0
XRECORD
  5
4F5
102
{ACAD_REACTORS
330
4F4
102
}
330
4F4
100
AcDbXrecord
102
MATERIAL
148
0.0
149
0.0
149
0.0
 93
        0
 94
      127
282
     0
 72
     1
 77
     1
171
     1
175
     1
179
     1
273
     0
  0
ENDSEC
  0
EOF
