  0
SECTION
  2
HEADER
  9
$ACADVER
  1
AC1014
  9
$ACADMAINTVER
 70
     9
  9
$DWGCODEPAGE
  3
ANSI_932
  9
$INSBASE
 10
0.0
 20
0.0
 30
0.0
  9
$EXTMIN
 10
35.0
 20
35.0
 30
0.0
  9
$EXTMAX
 10
1435.0
 20
1004.5
 30
0.0
  9
$LIMMIN
 10
0.0
 20
0.0
  9
$LIMMAX
 10
420.0
 20
297.0
  9
$ORTHOMODE
 70
     0
  9
$REGENMODE
 70
     1
  9
$FILLMODE
 70
     1
  9
$QTEXTMODE
 70
     0
  9
$MIRRTEXT
 70
     1
  9
$DRAGMODE
 70
     2
  9
$LTSCALE
 40
1.0
  9
$OSMODE
 70
    37
  9
$ATTMODE
 70
     1
  9
$TEXTSIZE
 40
2.5
  9
$TRACEWID
 40
1.0
  9
$TEXTSTYLE
  7
STANDARD
  9
$CLAYER
  8
Ｓ_１_１
  9
$CELTYPE
  6
BYLAYER
  9
$CECOLOR
 62
   256
  9
$CELTSCALE
 40
1.0
  9
$DELOBJ
 70
     1
  9
$DISPSILH
 70
     0
  9
$DIMSCALE
 40
1.0
  9
$DIMASZ
 40
2.5
  9
$DIMEXO
 40
0.625
  9
$DIMDLI
 40
3.75
  9
$DIMRND
 40
0.0
  9
$DIMDLE
 40
0.0
  9
$DIMEXE
 40
1.25
  9
$DIMTP
 40
0.0
  9
$DIMTM
 40
0.0
  9
$DIMTXT
 40
2.5
  9
$DIMCEN
 40
2.5
  9
$DIMTSZ
 40
0.0
  9
$DIMTOL
 70
     0
  9
$DIMLIM
 70
     0
  9
$DIMTIH
 70
     0
  9
$DIMTOH
 70
     0
  9
$DIMSE1
 70
     0
  9
$DIMSE2
 70
     0
  9
$DIMTAD
 70
     1
  9
$DIMZIN
 70
     8
  9
$DIMBLK
  1

  9
$DIMASO
 70
     1
  9
$DIMSHO
 70
     1
  9
$DIMPOST
  1

  9
$DIMAPOST
  1

  9
$DIMALT
 70
     0
  9
$DIMALTD
 70
     3
  9
$DIMALTF
 40
0.03937007874016
  9
$DIMLFAC
 40
1.0
  9
$DIMTOFL
 70
     1
  9
$DIMTVP
 40
0.0
  9
$DIMTIX
 70
     0
  9
$DIMSOXD
 70
     0
  9
$DIMSAH
 70
     0
  9
$DIMBLK1
  1

  9
$DIMBLK2
  1

  9
$DIMSTYLE
  2
ISO-25
  9
$DIMCLRD
 70
     0
  9
$DIMCLRE
 70
     0
  9
$DIMCLRT
 70
     0
  9
$DIMTFAC
 40
1.0
  9
$DIMGAP
 40
0.625
  9
$DIMJUST
 70
     0
  9
$DIMSD1
 70
     0
  9
$DIMSD2
 70
     0
  9
$DIMTOLJ
 70
     0
  9
$DIMTZIN
 70
     8
  9
$DIMALTZ
 70
     0
  9
$DIMALTTZ
 70
     0
  9
$DIMFIT
 70
     3
  9
$DIMUPT
 70
     0
  9
$DIMUNIT
 70
     2
  9
$DIMDEC
 70
     2
  9
$DIMTDEC
 70
     2
  9
$DIMALTU
 70
     2
  9
$DIMALTTD
 70
     3
  9
$DIMTXSTY
  7
STANDARD
  9
$DIMAUNIT
 70
     0
  9
$LUNITS
 70
     2
  9
$LUPREC
 70
     4
  9
$SKETCHINC
 40
1.0
  9
$FILLETRAD
 40
10.0
  9
$AUNITS
 70
     0
  9
$AUPREC
 70
     0
  9
$MENU
  1
.
  9
$ELEVATION
 40
0.0
  9
$PELEVATION
 40
0.0
  9
$THICKNESS
 40
0.0
  9
$LIMCHECK
 70
     0
  9
$CHAMFERA
 40
0.0
  9
$CHAMFERB
 40
0.0
  9
$CHAMFERC
 40
0.0
  9
$CHAMFERD
 40
0.0
  9
$SKPOLY
 70
     0
  9
$TDCREATE
 40
2459585.495478044
  9
$TDUPDATE
 40
2459585.49547941
  9
$TDINDWG
 40
0.0000000116
  9
$TDUSRTIMER
 40
0.0000000116
  9
$USRTIMER
 70
     1
  9
$ANGBASE
 50
0.0
  9
$ANGDIR
 70
     0
  9
$PDMODE
 70
     0
  9
$PDSIZE
 40
0.0
  9
$PLINEWID
 40
0.0
  9
$COORDS
 70
     1
  9
$SPLFRAME
 70
     0
  9
$SPLINETYPE
 70
     6
  9
$SPLINESEGS
 70
     8
  9
$ATTDIA
 70
     0
  9
$ATTREQ
 70
     1
  9
$HANDLING
 70
     1
  9
$HANDSEED
  5
66A
  9
$SURFTAB1
 70
     6
  9
$SURFTAB2
 70
     6
  9
$SURFTYPE
 70
     6
  9
$SURFU
 70
     6
  9
$SURFV
 70
     6
  9
$UCSNAME
  2

  9
$UCSORG
 10
0.0
 20
0.0
 30
0.0
  9
$UCSXDIR
 10
1.0
 20
0.0
 30
0.0
  9
$UCSYDIR
 10
0.0
 20
1.0
 30
0.0
  9
$PUCSNAME
  2

  9
$PUCSORG
 10
0.0
 20
0.0
 30
0.0
  9
$PUCSXDIR
 10
1.0
 20
0.0
 30
0.0
  9
$PUCSYDIR
 10
0.0
 20
1.0
 30
0.0
  9
$USERI1
 70
     0
  9
$USERI2
 70
     0
  9
$USERI3
 70
     0
  9
$USERI4
 70
     0
  9
$USERI5
 70
     0
  9
$USERR1
 40
0.0
  9
$USERR2
 40
0.0
  9
$USERR3
 40
0.0
  9
$USERR4
 40
0.0
  9
$USERR5
 40
0.0
  9
$WORLDVIEW
 70
     1
  9
$SHADEDGE
 70
     3
  9
$SHADEDIF
 70
    70
  9
$TILEMODE
 70
     1
  9
$MAXACTVP
 70
    64
  9
$PINSBASE
 10
0.0
 20
0.0
 30
0.0
  9
$PLIMCHECK
 70
     0
  9
$PEXTMIN
 10
1.000000000000000E+20
 20
1.000000000000000E+20
 30
1.000000000000000E+20
  9
$PEXTMAX
 10
-1.000000000000000E+20
 20
-1.000000000000000E+20
 30
-1.000000000000000E+20
  9
$PLIMMIN
 10
0.0
 20
0.0
  9
$PLIMMAX
 10
420.0
 20
297.0
  9
$UNITMODE
 70
     0
  9
$VISRETAIN
 70
     1
  9
$PLINEGEN
 70
     0
  9
$PSLTSCALE
 70
     1
  9
$TREEDEPTH
 70
  3020
  9
$PICKSTYLE
 70
     1
  9
$CMLSTYLE
  2
STANDARD
  9
$CMLJUST
 70
     0
  9
$CMLSCALE
 40
20.0
  9
$PROXYGRAPHICS
 70
     1
  9
$MEASUREMENT
 70
     1
  0
ENDSEC
  0
SECTION
  2
CLASSES
  0
CLASS
  1
ACDBDICTIONARYWDFLT
  2
AcDbDictionaryWithDefault
  3
ObjectDBX Classes
 90
        0
280
     0
281
     0
  0
CLASS
  1
VISUALSTYLE
  2
AcDbVisualStyle
  3
ObjectDBX Classes
 90
     4095
280
     0
281
     0
  0
CLASS
  1
MATERIAL
  2
AcDbMaterial
  3
ObjectDBX Classes
 90
     1153
280
     0
281
     0
  0
CLASS
  1
SCALE
  2
AcDbScale
  3
ObjectDBX Classes
 90
     1153
280
     0
281
     0
  0
CLASS
  1
TABLESTYLE
  2
AcDbTableStyle
  3
ObjectDBX Classes
 90
     4095
280
     0
281
     0
  0
CLASS
  1
MLEADERSTYLE
  2
AcDbMLeaderStyle
  3
ACDB_MLEADERSTYLE_CLASS
 90
     4095
280
     0
281
     0
  0
CLASS
  1
SUN
  2
AcDbSun
  3
SCENEOE
 90
     1153
280
     0
281
     0
  0
CLASS
  1
DICTIONARYVAR
  2
AcDbDictionaryVar
  3
ObjectDBX Classes
 90
        0
280
     0
281
     0
  0
CLASS
  1
XRECORD
  2
AcDbXrecord
  3
ObjectDBX Classes
 90
        0
280
     0
281
     0
  0
CLASS
  1
LWPOLYLINE
  2
AcDbPolyline
  3
ObjectDBX Classes
 90
        0
280
     0
281
     1
  0
CLASS
  1
HATCH
  2
AcDbHatch
  3
ObjectDBX Classes
 90
        0
280
     0
281
     1
  0
CLASS
  1
ACDBPLACEHOLDER
  2
AcDbPlaceHolder
  3
ObjectDBX Classes
 90
        0
280
     0
281
     0
  0
CLASS
  1
LAYOUT
  2
AcDbLayout
  3
ObjectDBX Classes
 90
        0
280
     0
281
     0
  0
ENDSEC
  0
SECTION
  2
TABLES
  0
TABLE
  2
VPORT
  5
8
102
{ACAD_XDICTIONARY
360
65F
102
}
330
0
100
AcDbSymbolTable
 70
     1
  0
VPORT
  5
29
330
8
100
AcDbSymbolTableRecord
100
AcDbViewportTableRecord
  2
*ACTIVE
 70
     0
 10
0.0
 20
0.0
 11
1.0
 21
1.0
 12
735.0
 22
519.75
 13
0.0
 23
0.0
 14
10.0
 24
10.0
 15
10.0
 25
10.0
 16
0.0
 26
0.0
 36
1.0
 17
0.0
 27
0.0
 37
0.0
 40
969.5
 41
1.444043321299639
 42
50.0
 43
0.0
 44
0.0
 50
0.0
 51
0.0
 71
     0
 72
  1000
 73
     1
 74
     3
 75
     0
 76
     0
 77
     0
 78
     0
  0
ENDTAB
  0
TABLE
  2
LTYPE
  5
5
330
0
100
AcDbSymbolTable
 70
     7
  0
LTYPE
  5
14
330
5
100
AcDbSymbolTableRecord
100
AcDbLinetypeTableRecord
  2
BYBLOCK
 70
     0
  3

 72
    65
 73
     0
 40
0.0
  0
LTYPE
  5
15
330
5
100
AcDbSymbolTableRecord
100
AcDbLinetypeTableRecord
  2
BYLAYER
 70
     0
  3

 72
    65
 73
     0
 40
0.0
  0
LTYPE
  5
16
330
5
100
AcDbSymbolTableRecord
100
AcDbLinetypeTableRecord
  2
CONTINUOUS
 70
     0
  3
Solid line
 72
    65
 73
     0
 40
0.0
  0
LTYPE
  5
6E
330
5
100
AcDbSymbolTableRecord
100
AcDbLinetypeTableRecord
  2
EXLTYPE0
 70
     0
  3
破線
 72
    65
 73
     2
 40
4.0
 49
3.0
 74
     0
 49
-1.0
 74
     0
  0
LTYPE
  5
6F
330
5
100
AcDbSymbolTableRecord
100
AcDbLinetypeTableRecord
  2
EXLTYPE1
 70
     0
  3
点線
 72
    65
 73
     2
 40
2.0
 49
1.0
 74
     0
 49
-1.0
 74
     0
  0
LTYPE
  5
70
330
5
100
AcDbSymbolTableRecord
100
AcDbLinetypeTableRecord
  2
EXLTYPE2
 70
     0
  3
一点鎖線
 72
    65
 73
     4
 40
13.0
 49
10.0
 74
     0
 49
-1.0
 74
     0
 49
1.0
 74
     0
 49
-1.0
 74
     0
  0
LTYPE
  5
71
330
5
100
AcDbSymbolTableRecord
100
AcDbLinetypeTableRecord
  2
EXLTYPE3
 70
     0
  3
二点鎖線
 72
    65
 73
     6
 40
15.0
 49
10.0
 74
     0
 49
-1.0
 74
     0
 49
1.0
 74
     0
 49
-1.0
 74
     0
 49
1.0
 74
     0
 49
-1.0
 74
     0
  0
LTYPE
  5
72
330
5
100
AcDbSymbolTableRecord
100
AcDbLinetypeTableRecord
  2
EXLTYPE4
 70
     0
  3
一点鎖線2
 72
    65
 73
     4
 40
3.5
 49
2.0
 74
     0
 49
-0.5
 74
     0
 49
0.5
 74
     0
 49
-0.5
 74
     0
  0
LTYPE
  5
73
330
5
100
AcDbSymbolTableRecord
100
AcDbLinetypeTableRecord
  2
EXLTYPE5
 70
     0
  3
二点鎖線2
 72
    65
 73
     6
 40
4.5
 49
2.0
 74
     0
 49
-0.5
 74
     0
 49
0.5
 74
     0
 49
-0.5
 74
     0
 49
0.5
 74
     0
 49
-0.5
 74
     0
  0
ENDTAB
  0
TABLE
  2
LAYER
  5
2
330
0
100
AcDbSymbolTable
 70
     4
  0
LAYER
  5
10
330
2
100
AcDbSymbolTableRecord
100
AcDbLayerTableRecord
  2
0
 70
     0
 62
     7
  6
CONTINUOUS
  0
LAYER
  5
76
330
2
100
AcDbSymbolTableRecord
100
AcDbLayerTableRecord
  2
図面枠
 70
     4
 62
     7
  6
CONTINUOUS
  0
LAYER
  5
77
330
2
100
AcDbSymbolTableRecord
100
AcDbLayerTableRecord
  2
Ｓ_１_１
 70
     0
 62
     7
  6
CONTINUOUS
  0
LAYER
  5
115
330
2
100
AcDbSymbolTableRecord
100
AcDbLayerTableRecord
  2
DEFPOINTS
 70
     0
 62
     7
  6
CONTINUOUS
  0
ENDTAB
  0
TABLE
  2
STYLE
  5
3
330
0
100
AcDbSymbolTable
 70
     5
  0
STYLE
  5
11
330
3
100
AcDbSymbolTableRecord
100
AcDbTextStyleTableRecord
  2
STANDARD
 70
     0
 40
0.0
 41
1.0
 50
0.0
 71
     0
 42
2.5
  3
monotxt
  4
extfont
  0
STYLE
  5
74
330
3
100
AcDbSymbolTableRecord
100
AcDbTextStyleTableRecord
  2
EXCADSTD
 70
     0
 40
0.0
 41
1.0
 50
0.0
 71
     0
 42
2.5
  3
monotxt
  4
extfont
  0
STYLE
  5
75
330
3
100
AcDbSymbolTableRecord
100
AcDbTextStyleTableRecord
  2
EXCADVERT
 70
     4
 40
0.0
 41
1.0
 50
0.0
 71
     0
 42
2.5
  3
monotxt
  4
extfont
  0
STYLE
  5
DC
330
3
100
AcDbSymbolTableRecord
100
AcDbTextStyleTableRecord
  2
EXCADTTF1
 70
     0
 40
0.0
 41
1.0
 50
0.0
 71
     0
 42
2.5
  3
msgothic.ttc
  4

1001
ACAD
1000
MS Gothic
1071
    32817
  0
STYLE
  5
113
330
3
100
AcDbSymbolTableRecord
100
AcDbTextStyleTableRecord
  2
EXCADDIM1
 70
     0
 40
0.0
 41
1.0
 50
0.0
 71
     0
 42
2.5
  3
msgothic.ttc
  4

1001
ACAD
1000
MS Gothic
1071
    32817
  0
ENDTAB
  0
TABLE
  2
VIEW
  5
6
330
0
100
AcDbSymbolTable
 70
     0
  0
ENDTAB
  0
TABLE
  2
UCS
  5
7
330
0
100
AcDbSymbolTable
 70
     0
  0
ENDTAB
  0
TABLE
  2
APPID
  5
9
330
0
100
AcDbSymbolTable
 70
     2
  0
APPID
  5
12
330
9
100
AcDbSymbolTableRecord
100
AcDbRegAppTableRecord
  2
ACAD
 70
     0
  0
APPID
  5
669
330
9
100
AcDbSymbolTableRecord
100
AcDbRegAppTableRecord
  2
ACAD_MLEADERVER
 70
     0
  0
ENDTAB
  0
TABLE
  2
DIMSTYLE
  5
A
330
0
100
AcDbSymbolTable
 70
     1
  0
DIMSTYLE
105
27
102
{ACAD_REACTORS
330
114
330
123
330
130
330
13D
330
14A
330
157
330
164
330
171
330
47D
330
48A
330
535
330
542
330
54F
102
}
330
A
100
AcDbSymbolTableRecord
100
AcDbDimStyleTableRecord
  2
ISO-25
 70
     0
  3

  4

  5

  6

  7

 40
1.0
 41
2.5
 42
0.625
 43
3.75
 44
1.25
 45
0.0
 46
0.0
 47
0.0
 48
0.0
140
2.5
141
2.5
142
0.0
143
0.03937007874016
144
1.0
145
0.0
146
1.0
147
0.625
 71
     0
 72
     0
 73
     0
 74
     0
 75
     0
 76
     0
 77
     1
 78
     8
170
     0
171
     3
172
     1
173
     0
174
     0
175
     0
176
     0
177
     0
178
     0
270
     2
271
     2
272
     2
273
     2
274
     3
340
11
275
     0
280
     0
281
     0
282
     0
283
     0
284
     8
285
     0
286
     0
287
     5
288
     0
  0
ENDTAB
  0
TABLE
  2
BLOCK_RECORD
  5
1
330
0
100
AcDbSymbolTable
 70
    27
  0
BLOCK_RECORD
  5
1F
330
1
100
AcDbSymbolTableRecord
100
AcDbBlockTableRecord
  2
*MODEL_SPACE
  0
BLOCK_RECORD
  5
1B
330
1
100
AcDbSymbolTableRecord
100
AcDbBlockTableRecord
  2
*PAPER_SPACE
  0
BLOCK_RECORD
  5
78
330
1
100
AcDbSymbolTableRecord
100
AcDbBlockTableRecord
  2
EX_NORM
  0
BLOCK_RECORD
  5
7B
330
1
100
AcDbSymbolTableRecord
100
AcDbBlockTableRecord
  2
EX_BNORM
  0
BLOCK_RECORD
  5
7E
330
1
100
AcDbSymbolTableRecord
100
AcDbBlockTableRecord
  2
EX_BCIR
  0
BLOCK_RECORD
  5
81
330
1
100
AcDbSymbolTableRecord
100
AcDbBlockTableRecord
  2
EX_RCIVIL
  0
BLOCK_RECORD
  5
84
330
1
100
AcDbSymbolTableRecord
100
AcDbBlockTableRecord
  2
EX_SLANT
  0
BLOCK_RECORD
  5
87
330
1
100
AcDbSymbolTableRecord
100
AcDbBlockTableRecord
  2
EX_NONE
  0
BLOCK_RECORD
  5
8A
330
1
100
AcDbSymbolTableRecord
100
AcDbBlockTableRecord
  2
EX_CIVIL
  0
BLOCK_RECORD
  5
8D
330
1
100
AcDbSymbolTableRecord
100
AcDbBlockTableRecord
  2
EX_WCIR
  0
BLOCK_RECORD
  5
90
330
1
100
AcDbSymbolTableRecord
100
AcDbBlockTableRecord
  2
EX_WCIR2
  0
BLOCK_RECORD
  5
93
330
1
100
AcDbSymbolTableRecord
100
AcDbBlockTableRecord
  2
EX_WNORM
  0
BLOCK_RECORD
  5
96
330
1
100
AcDbSymbolTableRecord
100
AcDbBlockTableRecord
  2
EX_NNORM
  0
BLOCK_RECORD
  5
99
330
1
100
AcDbSymbolTableRecord
100
AcDbBlockTableRecord
  2
EX_BBOX
  0
BLOCK_RECORD
  5
9C
330
1
100
AcDbSymbolTableRecord
100
AcDbBlockTableRecord
  2
EX_WBOX
  0
BLOCK_RECORD
  5
9F
330
1
100
AcDbSymbolTableRecord
100
AcDbBlockTableRecord
  2
EX_INTEGRAL
  0
BLOCK_RECORD
  5
116
330
1
100
AcDbSymbolTableRecord
100
AcDbBlockTableRecord
  2
*D15
  0
BLOCK_RECORD
  5
124
330
1
100
AcDbSymbolTableRecord
100
AcDbBlockTableRecord
  2
*D16
  0
BLOCK_RECORD
  5
131
330
1
100
AcDbSymbolTableRecord
100
AcDbBlockTableRecord
  2
*D17
  0
BLOCK_RECORD
  5
13E
330
1
100
AcDbSymbolTableRecord
100
AcDbBlockTableRecord
  2
*D18
  0
BLOCK_RECORD
  5
14B
330
1
100
AcDbSymbolTableRecord
100
AcDbBlockTableRecord
  2
*D19
  0
BLOCK_RECORD
  5
158
330
1
100
AcDbSymbolTableRecord
100
AcDbBlockTableRecord
  2
*D20
  0
BLOCK_RECORD
  5
165
330
1
100
AcDbSymbolTableRecord
100
AcDbBlockTableRecord
  2
*D21
  0
BLOCK_RECORD
  5
172
330
1
100
AcDbSymbolTableRecord
100
AcDbBlockTableRecord
  2
*D22
  0
BLOCK_RECORD
  5
47E
330
1
100
AcDbSymbolTableRecord
100
AcDbBlockTableRecord
  2
*D23
  0
BLOCK_RECORD
  5
48B
330
1
100
AcDbSymbolTableRecord
100
AcDbBlockTableRecord
  2
*D24
  0
BLOCK_RECORD
  5
536
330
1
100
AcDbSymbolTableRecord
100
AcDbBlockTableRecord
  2
*D25
  0
BLOCK_RECORD
  5
543
330
1
100
AcDbSymbolTableRecord
100
AcDbBlockTableRecord
  2
*D26
  0
BLOCK_RECORD
  5
550
330
1
100
AcDbSymbolTableRecord
100
AcDbBlockTableRecord
  2
*D27
  0
ENDTAB
  0
ENDSEC
  0
SECTION
  2
BLOCKS
  0
BLOCK
  5
20
330
1F
100
AcDbEntity
  8
0
100
AcDbBlockBegin
  2
*MODEL_SPACE
 70
     0
 10
0.0
 20
0.0
 30
0.0
  3
*MODEL_SPACE
  1

  0
ENDBLK
  5
21
330
1F
100
AcDbEntity
  8
0
100
AcDbBlockEnd
  0
BLOCK
  5
1C
330
1B
100
AcDbEntity
 67
     1
  8
0
100
AcDbBlockBegin
  2
*PAPER_SPACE
 70
     0
 10
0.0
 20
0.0
 30
0.0
  3
*PAPER_SPACE
  1

  0
ENDBLK
  5
1D
330
1B
100
AcDbEntity
 67
     1
  8
0
100
AcDbBlockEnd
  0
BLOCK
  5
79
330
78
100
AcDbEntity
  8
0
100
AcDbBlockBegin
  2
EX_NORM
 70
     0
 10
0.0
 20
0.0
 30
0.0
  3
EX_NORM
  1

  0
LINE
  5
A2
330
78
100
AcDbEntity
  8
0
  6
CONTINUOUS
 62
     0
100
AcDbLine
 10
0.0
 20
0.0
 30
0.0
 11
-1.0
 21
0.0
 31
0.0
  0
LINE
  5
A3
330
78
100
AcDbEntity
  8
0
  6
CONTINUOUS
 62
     0
100
AcDbLine
 10
0.0
 20
0.0
 30
0.0
 11
-1.0
 21
0.166666667
 31
0.0
  0
LINE
  5
A4
330
78
100
AcDbEntity
  8
0
  6
CONTINUOUS
 62
     0
100
AcDbLine
 10
0.0
 20
0.0
 30
0.0
 11
-1.0
 21
-0.166666667
 31
0.0
  0
ENDBLK
  5
7A
330
78
100
AcDbEntity
  8
0
100
AcDbBlockEnd
  0
BLOCK
  5
7C
330
7B
100
AcDbEntity
  8
0
100
AcDbBlockBegin
  2
EX_BNORM
 70
     0
 10
0.0
 20
0.0
 30
0.0
  3
EX_BNORM
  1

  0
LINE
  5
A5
330
7B
100
AcDbEntity
  8
0
  6
CONTINUOUS
 62
     0
100
AcDbLine
 10
0.0
 20
0.0
 30
0.0
 11
-1.0
 21
0.0
 31
0.0
  0
LINE
  5
A6
330
7B
100
AcDbEntity
  8
0
  6
CONTINUOUS
 62
     0
100
AcDbLine
 10
0.0
 20
0.0
 30
0.0
 11
-1.0
 21
0.166666667
 31
0.0
  0
LINE
  5
A7
330
7B
100
AcDbEntity
  8
0
  6
CONTINUOUS
 62
     0
100
AcDbLine
 10
0.0
 20
0.0
 30
0.0
 11
-1.0
 21
-0.166666667
 31
0.0
  0
LINE
  5
A8
330
7B
100
AcDbEntity
  8
0
  6
CONTINUOUS
 62
     0
100
AcDbLine
 10
0.0
 20
0.0
 30
0.0
 11
-1.0
 21
0.083333333
 31
0.0
  0
LINE
  5
A9
330
7B
100
AcDbEntity
  8
0
  6
CONTINUOUS
 62
     0
100
AcDbLine
 10
0.0
 20
0.0
 30
0.0
 11
-1.0
 21
-0.083333333
 31
0.0
  0
LINE
  5
AA
330
7B
100
AcDbEntity
  8
0
  6
CONTINUOUS
 62
     0
100
AcDbLine
 10
-1.0
 20
0.166666667
 30
0.0
 11
-1.0
 21
-0.166666667
 31
0.0
  0
ENDBLK
  5
7D
330
7B
100
AcDbEntity
  8
0
100
AcDbBlockEnd
  0
BLOCK
  5
7F
330
7E
100
AcDbEntity
  8
0
100
AcDbBlockBegin
  2
EX_BCIR
 70
     0
 10
0.0
 20
0.0
 30
0.0
  3
EX_BCIR
  1

  0
LINE
  5
AB
330
7E
100
AcDbEntity
  8
0
  6
CONTINUOUS
 62
     0
100
AcDbLine
 10
0.0
 20
0.0
 30
0.0
 11
-1.0
 21
0.0
 31
0.0
  0
CIRCLE
  5
AC
330
7E
100
AcDbEntity
  8
0
  6
CONTINUOUS
 62
     0
100
AcDbCircle
 10
0.0
 20
0.0
 30
0.0
 40
0.5
  0
CIRCLE
  5
AD
330
7E
100
AcDbEntity
  8
0
  6
CONTINUOUS
 62
     0
100
AcDbCircle
 10
0.0
 20
0.0
 30
0.0
 40
0.25
  0
ENDBLK
  5
80
330
7E
100
AcDbEntity
  8
0
100
AcDbBlockEnd
  0
BLOCK
  5
82
330
81
100
AcDbEntity
  8
0
100
AcDbBlockBegin
  2
EX_RCIVIL
 70
     0
 10
0.0
 20
0.0
 30
0.0
  3
EX_RCIVIL
  1

  0
LINE
  5
AE
330
81
100
AcDbEntity
  8
0
  6
CONTINUOUS
 62
     0
100
AcDbLine
 10
0.0
 20
0.0
 30
0.0
 11
-1.0
 21
0.0
 31
0.0
  0
LINE
  5
AF
330
81
100
AcDbEntity
  8
0
  6
CONTINUOUS
 62
     0
100
AcDbLine
 10
-1.0
 20
-0.25
 30
0.0
 11
0.0
 21
-0.25
 31
0.0
  0
LINE
  5
B0
330
81
100
AcDbEntity
  8
0
  6
CONTINUOUS
 62
     0
100
AcDbLine
 10
-1.0
 20
-0.125
 30
0.0
 11
0.0
 21
-0.125
 31
0.0
  0
ENDBLK
  5
83
330
81
100
AcDbEntity
  8
0
100
AcDbBlockEnd
  0
BLOCK
  5
85
330
84
100
AcDbEntity
  8
0
100
AcDbBlockBegin
  2
EX_SLANT
 70
     0
 10
0.0
 20
0.0
 30
0.0
  3
EX_SLANT
  1

  0
LINE
  5
B1
330
84
100
AcDbEntity
  8
0
  6
CONTINUOUS
 62
     0
100
AcDbLine
 10
0.0
 20
0.0
 30
0.0
 11
-1.0
 21
0.0
 31
0.0
  0
LINE
  5
B2
330
84
100
AcDbEntity
  8
0
  6
CONTINUOUS
 62
     0
100
AcDbLine
 10
0.707106781
 20
0.707106781
 30
0.0
 11
-0.707106781
 21
-0.707106781
 31
0.0
  0
ENDBLK
  5
86
330
84
100
AcDbEntity
  8
0
100
AcDbBlockEnd
  0
BLOCK
  5
88
330
87
100
AcDbEntity
  8
0
100
AcDbBlockBegin
  2
EX_NONE
 70
     0
 10
0.0
 20
0.0
 30
0.0
  3
EX_NONE
  1

  0
LINE
  5
B3
330
87
100
AcDbEntity
  8
0
  6
CONTINUOUS
 62
     0
100
AcDbLine
 10
0.0
 20
0.0
 30
0.0
 11
-1.0
 21
0.0
 31
0.0
  0
ENDBLK
  5
89
330
87
100
AcDbEntity
  8
0
100
AcDbBlockEnd
  0
BLOCK
  5
8B
330
8A
100
AcDbEntity
  8
0
100
AcDbBlockBegin
  2
EX_CIVIL
 70
     0
 10
0.0
 20
0.0
 30
0.0
  3
EX_CIVIL
  1

  0
LINE
  5
B4
330
8A
100
AcDbEntity
  8
0
  6
CONTINUOUS
 62
     0
100
AcDbLine
 10
0.0
 20
0.0
 30
0.0
 11
-1.0
 21
0.0
 31
0.0
  0
LINE
  5
B5
330
8A
100
AcDbEntity
  8
0
  6
CONTINUOUS
 62
     0
100
AcDbLine
 10
-1.0
 20
0.25
 30
0.0
 11
0.0
 21
0.25
 31
0.0
  0
LINE
  5
B6
330
8A
100
AcDbEntity
  8
0
  6
CONTINUOUS
 62
     0
100
AcDbLine
 10
-1.0
 20
0.125
 30
0.0
 11
0.0
 21
0.125
 31
0.0
  0
ENDBLK
  5
8C
330
8A
100
AcDbEntity
  8
0
100
AcDbBlockEnd
  0
BLOCK
  5
8E
330
8D
100
AcDbEntity
  8
0
100
AcDbBlockBegin
  2
EX_WCIR
 70
     0
 10
0.0
 20
0.0
 30
0.0
  3
EX_WCIR
  1

  0
LINE
  5
B7
330
8D
100
AcDbEntity
  8
0
  6
CONTINUOUS
 62
     0
100
AcDbLine
 10
0.0
 20
0.0
 30
0.0
 11
-1.0
 21
0.0
 31
0.0
  0
CIRCLE
  5
B8
330
8D
100
AcDbEntity
  8
0
  6
CONTINUOUS
 62
     0
100
AcDbCircle
 10
0.0
 20
0.0
 30
0.0
 40
0.5
  0
ENDBLK
  5
8F
330
8D
100
AcDbEntity
  8
0
100
AcDbBlockEnd
  0
BLOCK
  5
91
330
90
100
AcDbEntity
  8
0
100
AcDbBlockBegin
  2
EX_WCIR2
 70
     0
 10
0.0
 20
0.0
 30
0.0
  3
EX_WCIR2
  1

  0
LINE
  5
B9
330
90
100
AcDbEntity
  8
0
  6
CONTINUOUS
 62
     0
100
AcDbLine
 10
-0.5
 20
0.0
 30
0.0
 11
-1.0
 21
0.0
 31
0.0
  0
CIRCLE
  5
BA
330
90
100
AcDbEntity
  8
0
  6
CONTINUOUS
 62
     0
100
AcDbCircle
 10
0.0
 20
0.0
 30
0.0
 40
0.5
  0
ENDBLK
  5
92
330
90
100
AcDbEntity
  8
0
100
AcDbBlockEnd
  0
BLOCK
  5
94
330
93
100
AcDbEntity
  8
0
100
AcDbBlockBegin
  2
EX_WNORM
 70
     0
 10
0.0
 20
0.0
 30
0.0
  3
EX_WNORM
  1

  0
LINE
  5
BB
330
93
100
AcDbEntity
  8
0
  6
CONTINUOUS
 62
     0
100
AcDbLine
 10
-1.0
 20
0.0
 30
0.0
 11
-1.0
 21
0.0
 31
0.0
  0
LINE
  5
BC
330
93
100
AcDbEntity
  8
0
  6
CONTINUOUS
 62
     0
100
AcDbLine
 10
0.0
 20
0.0
 30
0.0
 11
-1.0
 21
0.166666667
 31
0.0
  0
LINE
  5
BD
330
93
100
AcDbEntity
  8
0
  6
CONTINUOUS
 62
     0
100
AcDbLine
 10
0.0
 20
0.0
 30
0.0
 11
-1.0
 21
-0.166666667
 31
0.0
  0
LINE
  5
BE
330
93
100
AcDbEntity
  8
0
  6
CONTINUOUS
 62
     0
100
AcDbLine
 10
-1.0
 20
0.166666667
 30
0.0
 11
-1.0
 21
-0.166666667
 31
0.0
  0
ENDBLK
  5
95
330
93
100
AcDbEntity
  8
0
100
AcDbBlockEnd
  0
BLOCK
  5
97
330
96
100
AcDbEntity
  8
0
100
AcDbBlockBegin
  2
EX_NNORM
 70
     0
 10
0.0
 20
0.0
 30
0.0
  3
EX_NNORM
  1

  0
LINE
  5
BF
330
96
100
AcDbEntity
  8
0
  6
CONTINUOUS
 62
     0
100
AcDbLine
 10
0.0
 20
0.0
 30
0.0
 11
-1.0
 21
0.0
 31
0.0
  0
LINE
  5
C0
330
96
100
AcDbEntity
  8
0
  6
CONTINUOUS
 62
     0
100
AcDbLine
 10
0.0
 20
0.0
 30
0.0
 11
-1.0
 21
0.166666667
 31
0.0
  0
LINE
  5
C1
330
96
100
AcDbEntity
  8
0
  6
CONTINUOUS
 62
     0
100
AcDbLine
 10
0.0
 20
0.0
 30
0.0
 11
-1.0
 21
-0.166666667
 31
0.0
  0
LINE
  5
C2
330
96
100
AcDbEntity
  8
0
  6
CONTINUOUS
 62
     0
100
AcDbLine
 10
-1.0
 20
0.166666667
 30
0.0
 11
-1.0
 21
-0.166666667
 31
0.0
  0
ENDBLK
  5
98
330
96
100
AcDbEntity
  8
0
100
AcDbBlockEnd
  0
BLOCK
  5
9A
330
99
100
AcDbEntity
  8
0
100
AcDbBlockBegin
  2
EX_BBOX
 70
     0
 10
0.0
 20
0.0
 30
0.0
  3
EX_BBOX
  1

  0
LINE
  5
C3
330
99
100
AcDbEntity
  8
0
  6
CONTINUOUS
 62
     0
100
AcDbLine
 10
0.0
 20
0.0
 30
0.0
 11
-1.0
 21
0.0
 31
0.0
  0
LINE
  5
C4
330
99
100
AcDbEntity
  8
0
  6
CONTINUOUS
 62
     0
100
AcDbLine
 10
-0.5
 20
0.5
 30
0.0
 11
0.5
 21
0.5
 31
0.0
  0
LINE
  5
C5
330
99
100
AcDbEntity
  8
0
  6
CONTINUOUS
 62
     0
100
AcDbLine
 10
0.5
 20
0.5
 30
0.0
 11
0.5
 21
-0.5
 31
0.0
  0
LINE
  5
C6
330
99
100
AcDbEntity
  8
0
  6
CONTINUOUS
 62
     0
100
AcDbLine
 10
0.5
 20
-0.5
 30
0.0
 11
-0.5
 21
-0.5
 31
0.0
  0
LINE
  5
C7
330
99
100
AcDbEntity
  8
0
  6
CONTINUOUS
 62
     0
100
AcDbLine
 10
-0.5
 20
-0.5
 30
0.0
 11
-0.5
 21
0.5
 31
0.0
  0
LINE
  5
C8
330
99
100
AcDbEntity
  8
0
  6
CONTINUOUS
 62
     0
100
AcDbLine
 10
-0.25
 20
0.25
 30
0.0
 11
0.25
 21
0.25
 31
0.0
  0
LINE
  5
C9
330
99
100
AcDbEntity
  8
0
  6
CONTINUOUS
 62
     0
100
AcDbLine
 10
0.25
 20
0.25
 30
0.0
 11
0.25
 21
-0.25
 31
0.0
  0
LINE
  5
CA
330
99
100
AcDbEntity
  8
0
  6
CONTINUOUS
 62
     0
100
AcDbLine
 10
0.25
 20
-0.25
 30
0.0
 11
-0.25
 21
-0.25
 31
0.0
  0
LINE
  5
CB
330
99
100
AcDbEntity
  8
0
  6
CONTINUOUS
 62
     0
100
AcDbLine
 10
-0.25
 20
-0.25
 30
0.0
 11
-0.25
 21
0.25
 31
0.0
  0
ENDBLK
  5
9B
330
99
100
AcDbEntity
  8
0
100
AcDbBlockEnd
  0
BLOCK
  5
9D
330
9C
100
AcDbEntity
  8
0
100
AcDbBlockBegin
  2
EX_WBOX
 70
     0
 10
0.0
 20
0.0
 30
0.0
  3
EX_WBOX
  1

  0
LINE
  5
CC
330
9C
100
AcDbEntity
  8
0
  6
CONTINUOUS
 62
     0
100
AcDbLine
 10
-0.5
 20
0.0
 30
0.0
 11
-1.0
 21
0.0
 31
0.0
  0
LINE
  5
CD
330
9C
100
AcDbEntity
  8
0
  6
CONTINUOUS
 62
     0
100
AcDbLine
 10
-0.5
 20
0.5
 30
0.0
 11
0.5
 21
0.5
 31
0.0
  0
LINE
  5
CE
330
9C
100
AcDbEntity
  8
0
  6
CONTINUOUS
 62
     0
100
AcDbLine
 10
0.5
 20
0.5
 30
0.0
 11
0.5
 21
-0.5
 31
0.0
  0
LINE
  5
CF
330
9C
100
AcDbEntity
  8
0
  6
CONTINUOUS
 62
     0
100
AcDbLine
 10
0.5
 20
-0.5
 30
0.0
 11
-0.5
 21
-0.5
 31
0.0
  0
LINE
  5
D0
330
9C
100
AcDbEntity
  8
0
  6
CONTINUOUS
 62
     0
100
AcDbLine
 10
-0.5
 20
-0.5
 30
0.0
 11
-0.5
 21
0.5
 31
0.0
  0
ENDBLK
  5
9E
330
9C
100
AcDbEntity
  8
0
100
AcDbBlockEnd
  0
BLOCK
  5
A0
330
9F
100
AcDbEntity
  8
0
100
AcDbBlockBegin
  2
EX_INTEGRAL
 70
     0
 10
0.0
 20
0.0
 30
0.0
  3
EX_INTEGRAL
  1

  0
LINE
  5
D1
330
9F
100
AcDbEntity
  8
0
  6
CONTINUOUS
 62
     0
100
AcDbLine
 10
0.0
 20
0.0
 30
0.0
 11
-1.0
 21
0.0
 31
0.0
  0
ARC
  5
D2
330
9F
100
AcDbEntity
  8
0
  6
CONTINUOUS
 62
     0
100
AcDbCircle
 10
0.542115
 20
0.164992
 30
0.0
 40
0.56667
100
AcDbArc
 50
73.07249033629006
 51
196.9275130221199
  0
ARC
  5
D3
330
9F
100
AcDbEntity
  8
0
  6
CONTINUOUS
 62
     0
100
AcDbCircle
 10
-0.542115
 20
-0.164992
 30
0.0
 40
0.56667
100
AcDbArc
 50
253.0724869220464
 51
16.9275130559125
  0
ENDBLK
  5
A1
330
9F
100
AcDbEntity
  8
0
100
AcDbBlockEnd
  0
BLOCK
  5
117
330
116
100
AcDbEntity
  8
0
100
AcDbBlockBegin
  2
*D15
 70
     1
 10
0.0
 20
0.0
 30
0.0
  3
*D15
  1

  0
LINE
  5
119
330
116
100
AcDbEntity
  8
Ｓ_１_１
  6
CONTINUOUS
 62
     2
100
AcDbLine
 10
575.000006
 20
369.2499920000001
 30
0.0
 11
575.000006
 21
296.5
 31
0.0
  0
LINE
  5
11A
330
116
100
AcDbEntity
  8
Ｓ_１_１
  6
CONTINUOUS
 62
     2
100
AcDbLine
 10
575.000006
 20
300.0
 30
0.0
 11
565.000006
 21
300.0
 31
0.0
  0
LINE
  5
11B
330
116
100
AcDbEntity
  8
Ｓ_１_１
  6
CONTINUOUS
 62
     2
100
AcDbLine
 10
585.500006
 20
300.0
 30
0.0
 11
596.000006
 21
300.0
 31
0.0
  0
LINE
  5
11C
330
116
100
AcDbEntity
  8
Ｓ_１_１
  6
CONTINUOUS
 62
     2
100
AcDbLine
 10
554.500006
 20
300.0
 30
0.0
 11
544.000006
 21
300.0
 31
0.0
  0
INSERT
  5
11D
330
116
100
AcDbEntity
  8
Ｓ_１_１
 62
     2
100
AcDbBlockReference
  2
EX_NORM
 10
575.000006
 20
300.0
 30
0.0
 41
10.5
 42
10.5
 43
10.5
 50
180.0
  0
INSERT
  5
11E
330
116
100
AcDbEntity
  8
Ｓ_１_１
 62
     2
100
AcDbBlockReference
  2
EX_NORM
 10
565.000006
 20
300.0
 30
0.0
 41
10.5
 42
10.5
 43
10.5
  0
MTEXT
  5
11F
330
116
100
AcDbEntity
  8
Ｓ_１_１
 62
     2
100
AcDbMText
 10
546.6250060000001
 20
309.6250000000001
 30
0.0
 40
12.12016381576852
 41
0.0
 71
     5
 72
     1
  1
10
  7
EXCADDIM1
  0
POINT
  5
120
330
116
100
AcDbEntity
  8
DEFPOINTS
 62
     0
100
AcDbPoint
 10
575.000006
 20
374.4999920000001
 30
0.0
  0
POINT
  5
121
330
116
100
AcDbEntity
  8
DEFPOINTS
 62
     0
100
AcDbPoint
 10
565.000006
 20
411.7320481132501
 30
0.0
  0
POINT
  5
122
330
116
100
AcDbEntity
  8
DEFPOINTS
 62
     0
100
AcDbPoint
 10
565.000006
 20
300.0
 30
0.0
  0
ENDBLK
  5
118
330
116
100
AcDbEntity
  8
0
100
AcDbBlockEnd
  0
BLOCK
  5
125
330
124
100
AcDbEntity
  8
0
100
AcDbBlockBegin
  2
*D16
 70
     1
 10
0.0
 20
0.0
 30
0.0
  3
*D16
  1

  0
LINE
  5
127
330
124
100
AcDbEntity
  8
Ｓ_１_１
  6
CONTINUOUS
 62
     2
100
AcDbLine
 10
565.000006
 20
406.4820481132501
 30
0.0
 11
565.000006
 21
271.5
 31
0.0
  0
LINE
  5
128
330
124
100
AcDbEntity
  8
Ｓ_１_１
  6
CONTINUOUS
 62
     2
100
AcDbLine
 10
949.9999999999997
 20
369.2499560000001
 30
0.0
 11
949.9999999999997
 21
271.5
 31
0.0
  0
LINE
  5
129
330
124
100
AcDbEntity
  8
Ｓ_１_１
  6
CONTINUOUS
 62
     2
100
AcDbLine
 10
575.500006
 20
275.0
 30
0.0
 11
939.4999999999997
 21
275.0
 31
0.0
  0
INSERT
  5
12A
330
124
100
AcDbEntity
  8
Ｓ_１_１
 62
     2
100
AcDbBlockReference
  2
EX_NORM
 10
565.000006
 20
275.0
 30
0.0
 41
10.5
 42
10.5
 43
10.5
 50
180.0
  0
INSERT
  5
12B
330
124
100
AcDbEntity
  8
Ｓ_１_１
 62
     2
100
AcDbBlockReference
  2
EX_NORM
 10
949.9999999999997
 20
275.0
 30
0.0
 41
10.5
 42
10.5
 43
10.5
  0
MTEXT
  5
12C
330
124
100
AcDbEntity
  8
Ｓ_１_１
 62
     2
100
AcDbMText
 10
757.5000029999998
 20
284.625
 30
0.0
 40
12.12016381576852
 41
0.0
 71
     5
 72
     1
  1
385
  7
EXCADDIM1
  0
POINT
  5
12D
330
124
100
AcDbEntity
  8
DEFPOINTS
 62
     0
100
AcDbPoint
 10
565.000006
 20
411.7320481132501
 30
0.0
  0
POINT
  5
12E
330
124
100
AcDbEntity
  8
DEFPOINTS
 62
     0
100
AcDbPoint
 10
949.9999999999997
 20
374.4999560000001
 30
0.0
  0
POINT
  5
12F
330
124
100
AcDbEntity
  8
DEFPOINTS
 62
     0
100
AcDbPoint
 10
949.9999999999997
 20
275.0
 30
0.0
  0
ENDBLK
  5
126
330
124
100
AcDbEntity
  8
0
100
AcDbBlockEnd
  0
BLOCK
  5
132
330
131
100
AcDbEntity
  8
0
100
AcDbBlockBegin
  2
*D17
 70
     1
 10
0.0
 20
0.0
 30
0.0
  3
*D17
  1

  0
LINE
  5
134
330
131
100
AcDbEntity
  8
Ｓ_１_１
  6
CONTINUOUS
 62
     2
100
AcDbLine
 10
562.7500029999999
 20
410.0000020000001
 30
0.0
 11
496.4999999999999
 21
410.0000020000001
 31
0.0
  0
LINE
  5
135
330
131
100
AcDbEntity
  8
Ｓ_１_１
  6
CONTINUOUS
 62
     2
100
AcDbLine
 10
562.7500029999999
 20
539.9999989999999
 30
0.0
 11
496.4999999999999
 21
539.9999989999999
 31
0.0
  0
LINE
  5
136
330
131
100
AcDbEntity
  8
Ｓ_１_１
  6
CONTINUOUS
 62
     2
100
AcDbLine
 10
499.9999999999999
 20
420.5000020000001
 30
0.0
 11
499.9999999999999
 21
529.4999989999999
 31
0.0
  0
INSERT
  5
137
330
131
100
AcDbEntity
  8
Ｓ_１_１
 62
     2
100
AcDbBlockReference
  2
EX_NORM
 10
499.9999999999999
 20
410.0000020000001
 30
0.0
 41
10.5
 42
10.5
 43
10.5
 50
270.0
  0
INSERT
  5
138
330
131
100
AcDbEntity
  8
Ｓ_１_１
 62
     2
100
AcDbBlockReference
  2
EX_NORM
 10
499.9999999999999
 20
539.9999989999999
 30
0.0
 41
10.5
 42
10.5
 43
10.5
 50
90.0
  0
MTEXT
  5
139
330
131
100
AcDbEntity
  8
Ｓ_１_１
 62
     2
100
AcDbMText
 10
490.3749999999999
 20
475.0000004999999
 30
0.0
 40
12.12016381576852
 41
0.0
 71
     5
 72
     1
  1
%%c130
  7
EXCADDIM1
 11
0.0
 21
1.0
 31
0.0
  0
POINT
  5
13A
330
131
100
AcDbEntity
  8
DEFPOINTS
 62
     0
100
AcDbPoint
 10
568.0000029999999
 20
410.0000020000001
 30
0.0
  0
POINT
  5
13B
330
131
100
AcDbEntity
  8
DEFPOINTS
 62
     0
100
AcDbPoint
 10
568.0000029999999
 20
539.9999989999999
 30
0.0
  0
POINT
  5
13C
330
131
100
AcDbEntity
  8
DEFPOINTS
 62
     0
100
AcDbPoint
 10
499.9999999999999
 20
539.9999989999999
 30
0.0
  0
ENDBLK
  5
133
330
131
100
AcDbEntity
  8
0
100
AcDbBlockEnd
  0
BLOCK
  5
13F
330
13E
100
AcDbEntity
  8
0
100
AcDbBlockBegin
  2
*D18
 70
     1
 10
0.0
 20
0.0
 30
0.0
  3
*D18
  1

  0
LINE
  5
141
330
13E
100
AcDbEntity
  8
Ｓ_１_１
  6
CONTINUOUS
 62
     2
100
AcDbLine
 10
955.2499999999997
 20
506.999998
 30
0.0
 11
1003.5
 21
506.999998
 31
0.0
  0
LINE
  5
142
330
13E
100
AcDbEntity
  8
Ｓ_１_１
  6
CONTINUOUS
 62
     2
100
AcDbLine
 10
955.2499999999997
 20
443.0000000000001
 30
0.0
 11
1003.5
 21
443.0000000000001
 31
0.0
  0
LINE
  5
143
330
13E
100
AcDbEntity
  8
Ｓ_１_１
  6
CONTINUOUS
 62
     2
100
AcDbLine
 10
1000.0
 20
496.499998
 30
0.0
 11
1000.0
 21
453.5000000000001
 31
0.0
  0
INSERT
  5
144
330
13E
100
AcDbEntity
  8
Ｓ_１_１
 62
     2
100
AcDbBlockReference
  2
EX_NORM
 10
1000.0
 20
506.999998
 30
0.0
 41
10.5
 42
10.5
 43
10.5
 50
90.0
  0
INSERT
  5
145
330
13E
100
AcDbEntity
  8
Ｓ_１_１
 62
     2
100
AcDbBlockReference
  2
EX_NORM
 10
1000.0
 20
443.0000000000001
 30
0.0
 41
10.5
 42
10.5
 43
10.5
 50
270.0
  0
MTEXT
  5
146
330
13E
100
AcDbEntity
  8
Ｓ_１_１
 62
     2
100
AcDbMText
 10
990.3750000000001
 20
474.9999989999998
 30
0.0
 40
12.12016381576852
 41
0.0
 71
     5
 72
     1
  1
%%c64
  7
EXCADDIM1
 11
0.0
 21
1.0
 31
0.0
  0
POINT
  5
147
330
13E
100
AcDbEntity
  8
DEFPOINTS
 62
     0
100
AcDbPoint
 10
949.9999999999997
 20
506.999998
 30
0.0
  0
POINT
  5
148
330
13E
100
AcDbEntity
  8
DEFPOINTS
 62
     0
100
AcDbPoint
 10
949.9999999999997
 20
443.0000000000001
 30
0.0
  0
POINT
  5
149
330
13E
100
AcDbEntity
  8
DEFPOINTS
 62
     0
100
AcDbPoint
 10
1000.0
 20
443.0000000000001
 30
0.0
  0
ENDBLK
  5
140
330
13E
100
AcDbEntity
  8
0
100
AcDbBlockEnd
  0
BLOCK
  5
14C
330
14B
100
AcDbEntity
  8
0
100
AcDbBlockBegin
  2
*D19
 70
     1
 10
0.0
 20
0.0
 30
0.0
  3
*D19
  1

  0
LINE
  5
14E
330
14B
100
AcDbEntity
  8
Ｓ_１_１
  6
CONTINUOUS
 62
     2
100
AcDbLine
 10
953.2499919999999
 20
372.5000020000001
 30
0.0
 11
1028.5
 21
372.500002
 31
0.0
  0
LINE
  5
14F
330
14B
100
AcDbEntity
  8
Ｓ_１_１
  6
CONTINUOUS
 62
     2
100
AcDbLine
 10
953.2499919999999
 20
577.4999989999999
 30
0.0
 11
1028.5
 21
577.4999989999999
 31
0.0
  0
LINE
  5
150
330
14B
100
AcDbEntity
  8
Ｓ_１_１
  6
CONTINUOUS
 62
     2
100
AcDbLine
 10
1025.0
 20
383.000002
 30
0.0
 11
1025.0
 21
566.9999989999999
 31
0.0
  0
INSERT
  5
151
330
14B
100
AcDbEntity
  8
Ｓ_１_１
 62
     2
100
AcDbBlockReference
  2
EX_NORM
 10
1025.0
 20
372.500002
 30
0.0
 41
10.5
 42
10.5
 43
10.5
 50
270.0
  0
INSERT
  5
152
330
14B
100
AcDbEntity
  8
Ｓ_１_１
 62
     2
100
AcDbBlockReference
  2
EX_NORM
 10
1025.0
 20
577.4999989999999
 30
0.0
 41
10.5
 42
10.5
 43
10.5
 50
90.0
  0
MTEXT
  5
153
330
14B
100
AcDbEntity
  8
Ｓ_１_１
 62
     2
100
AcDbMText
 10
1015.375
 20
475.0000004999999
 30
0.0
 40
12.12016381576852
 41
0.0
 71
     5
 72
     1
  1
%%c205
  7
EXCADDIM1
 11
0.0
 21
1.0
 31
0.0
  0
POINT
  5
154
330
14B
100
AcDbEntity
  8
DEFPOINTS
 62
     0
100
AcDbPoint
 10
947.9999919999999
 20
372.5000020000001
 30
0.0
  0
POINT
  5
155
330
14B
100
AcDbEntity
  8
DEFPOINTS
 62
     0
100
AcDbPoint
 10
947.9999919999999
 20
577.4999989999999
 30
0.0
  0
POINT
  5
156
330
14B
100
AcDbEntity
  8
DEFPOINTS
 62
     0
100
AcDbPoint
 10
1025.0
 20
577.4999989999999
 30
0.0
  0
ENDBLK
  5
14D
330
14B
100
AcDbEntity
  8
0
100
AcDbBlockEnd
  0
BLOCK
  5
159
330
158
100
AcDbEntity
  8
0
100
AcDbBlockBegin
  2
*D20
 70
     1
 10
0.0
 20
0.0
 30
0.0
  3
*D20
  1

  0
LINE
  5
15B
330
158
100
AcDbEntity
  8
Ｓ_１_１
  6
CONTINUOUS
 62
     2
100
AcDbLine
 10
953.2499919999999
 20
577.50003
 30
0.0
 11
1028.5
 21
577.50003
 31
0.0
  0
LINE
  5
15C
330
158
100
AcDbEntity
  8
Ｓ_１_１
  6
CONTINUOUS
 62
     2
100
AcDbLine
 10
917.2500079999998
 20
662.8622600000001
 30
0.0
 11
1028.5
 21
662.86226
 31
0.0
  0
LINE
  5
15D
330
158
100
AcDbEntity
  8
Ｓ_１_１
  6
CONTINUOUS
 62
     2
100
AcDbLine
 10
1025.0
 20
588.00003
 30
0.0
 11
1025.0
 21
652.36226
 31
0.0
  0
INSERT
  5
15E
330
158
100
AcDbEntity
  8
Ｓ_１_１
 62
     2
100
AcDbBlockReference
  2
EX_NORM
 10
1025.0
 20
577.50003
 30
0.0
 41
10.5
 42
10.5
 43
10.5
 50
270.0
  0
INSERT
  5
15F
330
158
100
AcDbEntity
  8
Ｓ_１_１
 62
     2
100
AcDbBlockReference
  2
EX_NORM
 10
1025.0
 20
662.86226
 30
0.0
 41
10.5
 42
10.5
 43
10.5
 50
90.0
  0
MTEXT
  5
160
330
158
100
AcDbEntity
  8
Ｓ_１_１
 62
     2
100
AcDbMText
 10
1015.375
 20
620.1811449999999
 30
0.0
 40
12.12016381576852
 41
0.0
 71
     5
 72
     1
  1
(85)
  7
EXCADDIM1
 11
0.0
 21
1.0
 31
0.0
  0
POINT
  5
161
330
158
100
AcDbEntity
  8
DEFPOINTS
 62
     0
100
AcDbPoint
 10
947.9999919999999
 20
577.50003
 30
0.0
  0
POINT
  5
162
330
158
100
AcDbEntity
  8
DEFPOINTS
 62
     0
100
AcDbPoint
 10
912.0000079999998
 20
662.8622600000001
 30
0.0
  0
POINT
  5
163
330
158
100
AcDbEntity
  8
DEFPOINTS
 62
     0
100
AcDbPoint
 10
1025.0
 20
662.86226
 30
0.0
  0
ENDBLK
  5
15A
330
158
100
AcDbEntity
  8
0
100
AcDbBlockEnd
  0
BLOCK
  5
166
330
165
100
AcDbEntity
  8
0
100
AcDbBlockBegin
  2
*D21
 70
     1
 10
0.0
 20
0.0
 30
0.0
  3
*D21
  1

  0
LINE
  5
168
330
165
100
AcDbEntity
  8
Ｓ_１_１
  6
CONTINUOUS
 62
     2
100
AcDbLine
 10
1242.072852773493
 20
517.0728527734929
 30
0.0
 11
1157.927147226507
 21
432.9271472265072
 31
0.0
  0
MTEXT
  5
169
330
165
100
AcDbEntity
  8
Ｓ_１_１
 62
     2
100
AcDbMText
 10
1305.132376552649
 20
593.3906286998964
 30
0.0
 40
12.12016381576852
 41
0.0
 71
     5
 72
     1
  1
P.C.D 140
  7
EXCADDIM1
 11
0.7071067811865469
 21
0.7071067811865481
 31
0.0
  0
LINE
  5
16A
330
165
100
AcDbEntity
  8
Ｓ_１_１
  6
CONTINUOUS
 62
     2
100
AcDbLine
 10
1150.502526024049
 20
425.5025260240484
 30
0.0
 11
1249.497473975952
 21
524.4974739759516
 31
0.0
  0
INSERT
  5
16B
330
165
100
AcDbEntity
  8
Ｓ_１_１
 62
     2
100
AcDbBlockReference
  2
EX_NORM
 10
1150.502526024049
 20
425.5025260240484
 30
0.0
 41
10.5
 42
10.5
 43
10.5
 50
225.0
  0
INSERT
  5
16C
330
165
100
AcDbEntity
  8
Ｓ_１_１
 62
     2
100
AcDbBlockReference
  2
EX_NORM
 10
1249.497473975952
 20
524.4974739759516
 30
0.0
 41
10.5
 42
10.5
 43
10.5
 50
45.00000000000005
  0
POINT
  5
16D
330
165
100
AcDbEntity
  8
DEFPOINTS
 62
     0
100
AcDbPoint
 10
1249.497473975952
 20
524.4974739759516
 30
0.0
  0
POINT
  5
16E
330
165
100
AcDbEntity
  8
DEFPOINTS
 62
     0
100
AcDbPoint
 10
1150.502526024049
 20
425.5025260240484
 30
0.0
  0
ENDBLK
  5
167
330
165
100
AcDbEntity
  8
0
100
AcDbBlockEnd
  0
BLOCK
  5
173
330
172
100
AcDbEntity
  8
0
100
AcDbBlockBegin
  2
*D22
 70
     1
 10
0.0
 20
0.0
 30
0.0
  3
*D22
  1

  0
LINE
  5
175
330
172
100
AcDbEntity
  8
Ｓ_１_１
  6
CONTINUOUS
 62
     2
100
AcDbLine
 10
939.4999999999997
 20
300.0
 30
0.0
 11
585.500006
 21
300.0
 31
0.0
  0
INSERT
  5
176
330
172
100
AcDbEntity
  8
Ｓ_１_１
 62
     2
100
AcDbBlockReference
  2
EX_NORM
 10
949.9999999999997
 20
300.0
 30
0.0
 41
10.5
 42
10.5
 43
10.5
  0
INSERT
  5
177
330
172
100
AcDbEntity
  8
Ｓ_１_１
 62
     2
100
AcDbBlockReference
  2
EX_NORM
 10
575.000006
 20
300.0
 30
0.0
 41
10.5
 42
10.5
 43
10.5
 50
180.0
  0
MTEXT
  5
178
330
172
100
AcDbEntity
  8
Ｓ_１_１
 62
     2
100
AcDbMText
 10
762.5000029999999
 20
309.6249999999999
 30
0.0
 40
12.12016381576852
 41
0.0
 71
     5
 72
     1
  1
375
  7
EXCADDIM1
  0
POINT
  5
179
330
172
100
AcDbEntity
  8
DEFPOINTS
 62
     0
100
AcDbPoint
 10
949.9999999999997
 20
374.4999560000001
 30
0.0
  0
POINT
  5
17A
330
172
100
AcDbEntity
  8
DEFPOINTS
 62
     0
100
AcDbPoint
 10
575.000006
 20
374.4999920000001
 30
0.0
  0
POINT
  5
17B
330
172
100
AcDbEntity
  8
DEFPOINTS
 62
     0
100
AcDbPoint
 10
575.000006
 20
300.0
 30
0.0
  0
ENDBLK
  5
174
330
172
100
AcDbEntity
  8
0
100
AcDbBlockEnd
  0
BLOCK
  5
47F
330
47E
100
AcDbEntity
  8
0
100
AcDbBlockBegin
  2
*D23
 70
     1
 10
0.0
 20
0.0
 30
0.0
  3
*D23
  1

  0
LINE
  5
481
330
47E
100
AcDbEntity
  8
Ｓ_１_１
  6
CONTINUOUS
 62
     2
100
AcDbLine
 10
131.4999961853
 20
489.75
 30
0.0
 11
131.4999961853
 21
728.5
 31
0.0
  0
LINE
  5
482
330
47E
100
AcDbEntity
  8
Ｓ_１_１
  6
CONTINUOUS
 62
     2
100
AcDbLine
 10
418.49999237061
 20
489.75
 30
0.0
 11
418.49999237061
 21
728.5
 31
0.0
  0
LINE
  5
483
330
47E
100
AcDbEntity
  8
Ｓ_１_１
  6
CONTINUOUS
 62
     2
100
AcDbLine
 10
141.9999961853
 20
725.0
 30
0.0
 11
407.99999237061
 21
725.0
 31
0.0
  0
INSERT
  5
484
330
47E
100
AcDbEntity
  8
Ｓ_１_１
 62
     2
100
AcDbBlockReference
  2
EX_NORM
 10
131.4999961853
 20
725.0
 30
0.0
 41
10.5
 42
10.5
 43
10.5
 50
180.0
  0
INSERT
  5
485
330
47E
100
AcDbEntity
  8
Ｓ_１_１
 62
     2
100
AcDbBlockReference
  2
EX_NORM
 10
418.49999237061
 20
725.0
 30
0.0
 41
10.5
 42
10.5
 43
10.5
  0
MTEXT
  5
486
330
47E
100
AcDbEntity
  8
Ｓ_１_１
 62
     2
100
AcDbMText
 10
274.9999942779551
 20
734.625
 30
0.0
 40
12.12016381576852
 41
0.0
 71
     5
 72
     1
  1
287
  7
EXCADDIM1
  0
POINT
  5
487
330
47E
100
AcDbEntity
  8
DEFPOINTS
 62
     0
100
AcDbPoint
 10
131.4999961853
 20
484.5
 30
0.0
  0
POINT
  5
488
330
47E
100
AcDbEntity
  8
DEFPOINTS
 62
     0
100
AcDbPoint
 10
418.49999237061
 20
484.5
 30
0.0
  0
POINT
  5
489
330
47E
100
AcDbEntity
  8
DEFPOINTS
 62
     0
100
AcDbPoint
 10
418.49999237061
 20
725.0
 30
0.0
  0
ENDBLK
  5
480
330
47E
100
AcDbEntity
  8
0
100
AcDbBlockEnd
  0
BLOCK
  5
48C
330
48B
100
AcDbEntity
  8
0
100
AcDbBlockBegin
  2
*D24
 70
     1
 10
0.0
 20
0.0
 30
0.0
  3
*D24
  1

  0
LINE
  5
48E
330
48B
100
AcDbEntity
  8
Ｓ_１_１
  6
CONTINUOUS
 62
     2
100
AcDbLine
 10
326.0954988232822
 20
445.5000000000007
 30
0.0
 11
424.3850600097603
 21
388.7524953904594
 31
0.0
  0
LINE
  5
48F
330
48B
100
AcDbEntity
  8
Ｓ_１_１
  6
CONTINUOUS
 62
     2
100
AcDbLine
 10
223.9045011767176
 20
504.4999999999992
 30
0.0
 11
214.8112344369809
 21
509.7499999999991
 31
0.0
  0
MTEXT
  5
490
330
48B
100
AcDbEntity
  8
Ｓ_１_１
 62
     2
100
AcDbMText
 10
400.3046644439735
 20
411.6762489755719
 30
0.0
 40
12.12016381576852
 41
0.0
 71
     5
 72
     1
  1
P.C.D 97
  7
EXCADDIM1
 11
0.8660254037844461
 21
-0.499999999999987
 31
0.0
  0
LINE
  5
491
330
48B
100
AcDbEntity
  8
Ｓ_１_１
  6
CONTINUOUS
 62
     2
100
AcDbLine
 10
232.9977679164543
 20
499.2499999999993
 30
0.0
 11
317.0022320835456
 21
450.7500000000006
 31
0.0
  0
INSERT
  5
492
330
48B
100
AcDbEntity
  8
Ｓ_１_１
 62
     2
100
AcDbBlockReference
  2
EX_NORM
 10
232.9977679164543
 20
499.2499999999993
 30
0.0
 41
10.5
 42
10.5
 43
10.5
 50
330.0000000000009
  0
INSERT
  5
493
330
48B
100
AcDbEntity
  8
Ｓ_１_１
 62
     2
100
AcDbBlockReference
  2
EX_NORM
 10
317.0022320835456
 20
450.7500000000006
 30
0.0
 41
10.5
 42
10.5
 43
10.5
 50
150.0000000000009
  0
POINT
  5
494
330
48B
100
AcDbEntity
  8
DEFPOINTS
 62
     0
100
AcDbPoint
 10
317.0022320835456
 20
450.7500000000006
 30
0.0
  0
POINT
  5
495
330
48B
100
AcDbEntity
  8
DEFPOINTS
 62
     0
100
AcDbPoint
 10
232.9977679164543
 20
499.2499999999993
 30
0.0
  0
ENDBLK
  5
48D
330
48B
100
AcDbEntity
  8
0
100
AcDbBlockEnd
  0
BLOCK
  5
537
330
536
100
AcDbEntity
  8
0
100
AcDbBlockBegin
  2
*D25
 70
     1
 10
0.0
 20
0.0
 30
0.0
  3
*D25
  1

  0
LINE
  5
539
330
536
100
AcDbEntity
  8
Ｓ_１_１
  6
CONTINUOUS
 62
     2
100
AcDbLine
 10
949.9999999999999
 20
580.750022
 30
0.0
 11
949.9999999999999
 21
728.5
 31
0.0
  0
LINE
  5
53A
330
536
100
AcDbEntity
  8
Ｓ_１_１
  6
CONTINUOUS
 62
     2
100
AcDbLine
 10
900.000001
 20
671.68419
 30
0.0
 11
900.000001
 21
728.5
 31
0.0
  0
LINE
  5
53B
330
536
100
AcDbEntity
  8
Ｓ_１_１
  6
CONTINUOUS
 62
     2
100
AcDbLine
 10
939.4999999999999
 20
725.0
 30
0.0
 11
910.500001
 21
725.0
 31
0.0
  0
INSERT
  5
53C
330
536
100
AcDbEntity
  8
Ｓ_１_１
 62
     2
100
AcDbBlockReference
  2
EX_NORM
 10
949.9999999999999
 20
725.0
 30
0.0
 41
10.5
 42
10.5
 43
10.5
  0
INSERT
  5
53D
330
536
100
AcDbEntity
  8
Ｓ_１_１
 62
     2
100
AcDbBlockReference
  2
EX_NORM
 10
900.000001
 20
725.0
 30
0.0
 41
10.5
 42
10.5
 43
10.5
 50
180.0
  0
MTEXT
  5
53E
330
536
100
AcDbEntity
  8
Ｓ_１_１
 62
     2
100
AcDbMText
 10
925.0000004999999
 20
734.625
 30
0.0
 40
12.12016381576852
 41
0.0
 71
     5
 72
     1
  1
50
  7
EXCADDIM1
  0
POINT
  5
53F
330
536
100
AcDbEntity
  8
DEFPOINTS
 62
     0
100
AcDbPoint
 10
949.9999999999999
 20
575.500022
 30
0.0
  0
POINT
  5
540
330
536
100
AcDbEntity
  8
DEFPOINTS
 62
     0
100
AcDbPoint
 10
900.000001
 20
666.43419
 30
0.0
  0
POINT
  5
541
330
536
100
AcDbEntity
  8
DEFPOINTS
 62
     0
100
AcDbPoint
 10
900.000001
 20
725.0
 30
0.0
  0
ENDBLK
  5
538
330
536
100
AcDbEntity
  8
0
100
AcDbBlockEnd
  0
BLOCK
  5
544
330
543
100
AcDbEntity
  8
0
100
AcDbBlockBegin
  2
*D26
 70
     1
 10
0.0
 20
0.0
 30
0.0
  3
*D26
  1

  0
LINE
  5
546
330
543
100
AcDbEntity
  8
Ｓ_１_１
  6
CONTINUOUS
 62
     2
100
AcDbLine
 10
900.000001
 20
671.68419
 30
0.0
 11
900.000001
 21
728.5
 31
0.0
  0
LINE
  5
547
330
543
100
AcDbEntity
  8
Ｓ_１_１
  6
CONTINUOUS
 62
     2
100
AcDbLine
 10
655.000004
 20
683.55
 30
0.0
 11
655.000004
 21
728.5
 31
0.0
  0
LINE
  5
548
330
543
100
AcDbEntity
  8
Ｓ_１_１
  6
CONTINUOUS
 62
     2
100
AcDbLine
 10
889.500001
 20
725.0
 30
0.0
 11
665.500004
 21
725.0
 31
0.0
  0
INSERT
  5
549
330
543
100
AcDbEntity
  8
Ｓ_１_１
 62
     2
100
AcDbBlockReference
  2
EX_NORM
 10
900.000001
 20
725.0
 30
0.0
 41
10.5
 42
10.5
 43
10.5
  0
INSERT
  5
54A
330
543
100
AcDbEntity
  8
Ｓ_１_１
 62
     2
100
AcDbBlockReference
  2
EX_NORM
 10
655.000004
 20
725.0
 30
0.0
 41
10.5
 42
10.5
 43
10.5
 50
180.0
  0
MTEXT
  5
54B
330
543
100
AcDbEntity
  8
Ｓ_１_１
 62
     2
100
AcDbMText
 10
777.5000025
 20
734.625
 30
0.0
 40
12.12016381576852
 41
0.0
 71
     5
 72
     1
  1
245
  7
EXCADDIM1
  0
POINT
  5
54C
330
543
100
AcDbEntity
  8
DEFPOINTS
 62
     0
100
AcDbPoint
 10
900.000001
 20
666.43419
 30
0.0
  0
POINT
  5
54D
330
543
100
AcDbEntity
  8
DEFPOINTS
 62
     0
100
AcDbPoint
 10
655.000004
 20
678.3
 30
0.0
  0
POINT
  5
54E
330
543
100
AcDbEntity
  8
DEFPOINTS
 62
     0
100
AcDbPoint
 10
655.000004
 20
725.0
 30
0.0
  0
ENDBLK
  5
545
330
543
100
AcDbEntity
  8
0
100
AcDbBlockEnd
  0
BLOCK
  5
551
330
550
100
AcDbEntity
  8
0
100
AcDbBlockBegin
  2
*D27
 70
     1
 10
0.0
 20
0.0
 30
0.0
  3
*D27
  1

  0
LINE
  5
553
330
550
100
AcDbEntity
  8
Ｓ_１_１
  6
CONTINUOUS
 62
     2
100
AcDbLine
 10
655.000004
 20
683.55
 30
0.0
 11
655.000004
 21
728.5
 31
0.0
  0
LINE
  5
554
330
550
100
AcDbEntity
  8
Ｓ_１_１
  6
CONTINUOUS
 62
     2
100
AcDbLine
 10
575.000006
 20
580.750007
 30
0.0
 11
575.000006
 21
728.5
 31
0.0
  0
LINE
  5
555
330
550
100
AcDbEntity
  8
Ｓ_１_１
  6
CONTINUOUS
 62
     2
100
AcDbLine
 10
644.500004
 20
725.0
 30
0.0
 11
585.500006
 21
725.0
 31
0.0
  0
INSERT
  5
556
330
550
100
AcDbEntity
  8
Ｓ_１_１
 62
     2
100
AcDbBlockReference
  2
EX_NORM
 10
655.000004
 20
725.0
 30
0.0
 41
10.5
 42
10.5
 43
10.5
  0
INSERT
  5
557
330
550
100
AcDbEntity
  8
Ｓ_１_１
 62
     2
100
AcDbBlockReference
  2
EX_NORM
 10
575.000006
 20
725.0
 30
0.0
 41
10.5
 42
10.5
 43
10.5
 50
180.0
  0
MTEXT
  5
558
330
550
100
AcDbEntity
  8
Ｓ_１_１
 62
     2
100
AcDbMText
 10
615.000005
 20
734.625
 30
0.0
 40
12.12016381576852
 41
0.0
 71
     5
 72
     1
  1
80
  7
EXCADDIM1
  0
POINT
  5
559
330
550
100
AcDbEntity
  8
DEFPOINTS
 62
     0
100
AcDbPoint
 10
655.000004
 20
678.3
 30
0.0
  0
POINT
  5
55A
330
550
100
AcDbEntity
  8
DEFPOINTS
 62
     0
100
AcDbPoint
 10
575.000006
 20
575.500007
 30
0.0
  0
POINT
  5
55B
330
550
100
AcDbEntity
  8
DEFPOINTS
 62
     0
100
AcDbPoint
 10
575.000006
 20
725.0
 30
0.0
  0
ENDBLK
  5
552
330
550
100
AcDbEntity
  8
0
100
AcDbBlockEnd
  0
ENDSEC
  0
SECTION
  2
ENTITIES
  0
LINE
  5
D4
330
1F
100
AcDbEntity
  8
図面枠
  6
CONTINUOUS
 62
     5
100
AcDbLine
 10
35.0
 20
35.0
 30
0.0
 11
1435.0
 21
35.0
 31
0.0
  0
LINE
  5
D5
330
1F
100
AcDbEntity
  8
図面枠
  6
CONTINUOUS
 62
     5
100
AcDbLine
 10
1435.0
 20
35.0
 30
0.0
 11
1435.0
 21
1004.5
 31
0.0
  0
LINE
  5
D6
330
1F
100
AcDbEntity
  8
図面枠
  6
CONTINUOUS
 62
     5
100
AcDbLine
 10
1435.0
 20
1004.5
 30
0.0
 11
35.00000000000018
 21
1004.5
 31
0.0
  0
LINE
  5
D7
330
1F
100
AcDbEntity
  8
図面枠
  6
CONTINUOUS
 62
     5
100
AcDbLine
 10
35.00000000000018
 20
1004.5
 30
0.0
 11
35.0
 21
35.0
 31
0.0
  0
LINE
  5
D8
330
1F
100
AcDbEntity
  8
図面枠
  6
CONTINUOUS
 62
     3
100
AcDbLine
 10
52.50000000000006
 20
987.0
 30
0.0
 11
441.0000000000001
 21
987.0
 31
0.0
  0
LINE
  5
D9
330
1F
100
AcDbEntity
  8
図面枠
  6
CONTINUOUS
 62
     3
100
AcDbLine
 10
52.50000000000006
 20
955.5
 30
0.0
 11
441.0000000000001
 21
955.5
 31
0.0
  0
LINE
  5
DA
330
1F
100
AcDbEntity
  8
図面枠
  6
CONTINUOUS
 62
     3
100
AcDbLine
 10
52.50000000000006
 20
987.0
 30
0.0
 11
52.50000000000006
 21
955.5
 31
0.0
  0
LINE
  5
DB
330
1F
100
AcDbEntity
  8
図面枠
  6
CONTINUOUS
 62
     3
100
AcDbLine
 10
441.0000000000001
 20
987.0
 30
0.0
 11
441.0000000000001
 21
955.5
 31
0.0
  0
TEXT
  5
DD
330
1F
100
AcDbEntity
  8
図面枠
  6
CONTINUOUS
 62
     4
100
AcDbText
 10
63.00000000000006
 20
963.703125
 30
0.0
 40
16.16021939953811
  1
1000kN200ストロークCH型油圧ジャッキ
 41
0.999230769230769
  7
EXCADTTF1
 72
     5
 11
430.5000000000001
 21
963.703125
 31
0.0
100
AcDbText
  0
LINE
  5
DE
330
1F
100
AcDbEntity
  8
図面枠
  6
CONTINUOUS
 62
     3
100
AcDbLine
 10
1260.0
 20
84.0
 30
0.0
 11
1417.5
 21
84.0
 31
0.0
  0
LINE
  5
DF
330
1F
100
AcDbEntity
  8
図面枠
  6
CONTINUOUS
 62
     3
100
AcDbLine
 10
1260.0
 20
52.5
 30
0.0
 11
1417.5
 21
52.5
 31
0.0
  0
LINE
  5
E0
330
1F
100
AcDbEntity
  8
図面枠
  6
CONTINUOUS
 62
     3
100
AcDbLine
 10
1260.0
 20
84.0
 30
0.0
 11
1260.0
 21
52.5
 31
0.0
  0
LINE
  5
E1
330
1F
100
AcDbEntity
  8
図面枠
  6
CONTINUOUS
 62
     3
100
AcDbLine
 10
1417.5
 20
84.0
 30
0.0
 11
1417.5
 21
52.5
 31
0.0
  0
TEXT
  5
E2
330
1F
100
AcDbEntity
  8
図面枠
  6
CONTINUOUS
 62
     4
100
AcDbText
 10
1270.5
 20
60.703125
 30
0.0
 40
16.16021939953811
  1
CHV-10020-64D
 41
0.999230769230769
  7
EXCADTTF1
 72
     5
 11
1407.0
 21
60.703125
 31
0.0
100
AcDbText
  0
TEXT
  5
E3
330
1F
100
AcDbEntity
  8
図面枠
  6
CONTINUOUS
 62
     4
100
AcDbText
 10
1354.5
 20
949.8398440927267
 30
0.0
 40
12.12016381576852
  1
kN
 41
0.9992308297349457
  7
EXCADTTF1
 72
     5
 11
1370.25
 21
949.8398440927267
 31
0.0
100
AcDbText
  0
TEXT
  5
E4
330
1F
100
AcDbEntity
  8
図面枠
  6
CONTINUOUS
 62
     4
100
AcDbText
 10
1144.5
 20
949.8398440927267
 30
0.0
 40
12.12016381576852
  1
能力
 41
0.9992308297349457
  7
EXCADTTF1
 72
     5
 11
1176.0
 21
949.8398440927267
 31
0.0
100
AcDbText
  0
TEXT
  5
E5
330
1F
100
AcDbEntity
  8
図面枠
  6
CONTINUOUS
 62
     4
100
AcDbText
 10
1238.125
 20
970.8398440927267
 30
0.0
 40
12.12016381576852
  1
仕　　　様
 41
0.9992308297349457
  7
EXCADTTF1
 72
     5
 11
1316.875
 21
970.8398440927267
 31
0.0
100
AcDbText
  0
LINE
  5
E6
330
1F
100
AcDbEntity
  8
図面枠
  6
CONTINUOUS
 62
     3
100
AcDbLine
 10
1137.5
 20
987.0
 30
0.0
 11
1417.5
 21
987.0
 31
0.0
  0
LINE
  5
E7
330
1F
100
AcDbEntity
  8
図面枠
  6
CONTINUOUS
 62
     3
100
AcDbLine
 10
1137.5
 20
966.0
 30
0.0
 11
1417.5
 21
966.0
 31
0.0
  0
TEXT
  5
E8
330
1F
100
AcDbEntity
  8
図面枠
  6
CONTINUOUS
 62
     4
100
AcDbText
 10
1309.0
 20
949.8398440927267
 30
0.0
 40
12.12016381576852
  1
1000
 41
0.9992308297349457
  7
EXCADTTF1
 72
     5
 11
1340.5
 21
949.8398440927267
 31
0.0
100
AcDbText
  0
TEXT
  5
E9
330
1F
100
AcDbEntity
  8
図面枠
  6
CONTINUOUS
 62
     4
100
AcDbText
 10
1354.5
 20
928.8398440927267
 30
0.0
 40
12.12016381576852
  1
mm
 41
0.9992308297349457
  7
EXCADTTF1
 72
     5
 11
1370.25
 21
928.8398440927267
 31
0.0
100
AcDbText
  0
TEXT
  5
EA
330
1F
100
AcDbEntity
  8
図面枠
  6
CONTINUOUS
 62
     4
100
AcDbText
 10
1354.5
 20
907.8398440927267
 30
0.0
 40
12.12016381576852
  1
mm
 41
0.9992308297349457
  7
EXCADTTF1
 72
     5
 11
1370.25
 21
907.8398440927267
 31
0.0
100
AcDbText
  0
TEXT
  5
EB
330
1F
100
AcDbEntity
  8
図面枠
  6
CONTINUOUS
 62
     4
100
AcDbText
 10
1354.5
 20
886.8398440927267
 30
0.0
 40
12.12016381576852
  1
mm
 41
0.9992308297349457
  7
EXCADTTF1
 72
     5
 11
1370.25
 21
886.8398440927267
 31
0.0
100
AcDbText
  0
TEXT
  5
EC
330
1F
100
AcDbEntity
  8
図面枠
  6
CONTINUOUS
 62
     4
100
AcDbText
 10
1354.5
 20
865.8398440927267
 30
0.0
 40
12.12016381576852
  1
mm
 41
0.9992308297349457
  7
EXCADTTF1
 72
     5
 11
1370.25
 21
865.8398440927267
 31
0.0
100
AcDbText
  0
TEXT
  5
ED
330
1F
100
AcDbEntity
  8
図面枠
  6
CONTINUOUS
 62
     4
100
AcDbText
 10
1354.5
 20
844.8398440927267
 30
0.0
 40
12.12016381576852
  1
mm
 41
0.9992308297349457
  7
EXCADTTF1
 72
     5
 11
1370.25
 21
844.8398440927267
 31
0.0
100
AcDbText
  0
TEXT
  5
EE
330
1F
100
AcDbEntity
  8
図面枠
  6
CONTINUOUS
 62
     4
100
AcDbText
 10
1354.5
 20
802.8398440927267
 30
0.0
 40
12.12016381576852
  1
MPa
 41
0.9992308297349456
  7
EXCADTTF1
 72
     5
 11
1378.125
 21
802.8398440927267
 31
0.0
100
AcDbText
  0
TEXT
  5
EF
330
1F
100
AcDbEntity
  8
図面枠
  6
CONTINUOUS
 62
     4
100
AcDbText
 10
1144.5
 20
928.8398440927267
 30
0.0
 40
12.12016381576852
  1
ストローク
 41
0.9992308297349457
  7
EXCADTTF1
 72
     5
 11
1223.25
 21
928.8398440927267
 31
0.0
100
AcDbText
  0
TEXT
  5
F0
330
1F
100
AcDbEntity
  8
図面枠
  6
CONTINUOUS
 62
     4
100
AcDbText
 10
1144.5
 20
907.8398440927267
 30
0.0
 40
12.12016381576852
  1
最低機械高
 41
0.9992308297349457
  7
EXCADTTF1
 72
     5
 11
1223.25
 21
907.8398440927267
 31
0.0
100
AcDbText
  0
TEXT
  5
F1
330
1F
100
AcDbEntity
  8
図面枠
  6
CONTINUOUS
 62
     4
100
AcDbText
 10
1144.5
 20
886.8398440927267
 30
0.0
 40
12.12016381576852
  1
シリンダー外径
 41
0.9992308297349456
  7
EXCADTTF1
 72
     5
 11
1254.75
 21
886.8398440927267
 31
0.0
100
AcDbText
  0
TEXT
  5
F2
330
1F
100
AcDbEntity
  8
図面枠
  6
CONTINUOUS
 62
     4
100
AcDbText
 10
1144.5
 20
823.8398440927267
 30
0.0
 40
12.12016381576852
  1
受圧面積
 41
0.9992308297349457
  7
EXCADTTF1
 72
     5
 11
1207.5
 21
823.8398440927267
 31
0.0
100
AcDbText
  0
TEXT
  5
F3
330
1F
100
AcDbEntity
  8
図面枠
  6
CONTINUOUS
 62
     4
100
AcDbText
 10
1144.5
 20
802.8398440927267
 30
0.0
 40
12.12016381576852
  1
最高使用圧力
 41
0.9992308297349456
  7
EXCADTTF1
 72
     5
 11
1239.0
 21
802.8398440927267
 31
0.0
100
AcDbText
  0
LINE
  5
F4
330
1F
100
AcDbEntity
  8
図面枠
  6
CONTINUOUS
 62
     2
100
AcDbLine
 10
1137.5
 20
945.0
 30
0.0
 11
1417.5
 21
945.0
 31
0.0
  0
LINE
  5
F5
330
1F
100
AcDbEntity
  8
図面枠
  6
CONTINUOUS
 62
     2
100
AcDbLine
 10
1137.5
 20
924.0
 30
0.0
 11
1417.5
 21
924.0
 31
0.0
  0
LINE
  5
F6
330
1F
100
AcDbEntity
  8
図面枠
  6
CONTINUOUS
 62
     2
100
AcDbLine
 10
1137.5
 20
903.0
 30
0.0
 11
1417.5
 21
903.0
 31
0.0
  0
LINE
  5
F7
330
1F
100
AcDbEntity
  8
図面枠
  6
CONTINUOUS
 62
     2
100
AcDbLine
 10
1137.5
 20
882.0
 30
0.0
 11
1417.5
 21
882.0
 31
0.0
  0
LINE
  5
F8
330
1F
100
AcDbEntity
  8
図面枠
  6
CONTINUOUS
 62
     2
100
AcDbLine
 10
1137.5
 20
861.0
 30
0.0
 11
1417.5
 21
861.0
 31
0.0
  0
LINE
  5
F9
330
1F
100
AcDbEntity
  8
図面枠
  6
CONTINUOUS
 62
     2
100
AcDbLine
 10
1137.5
 20
840.0
 30
0.0
 11
1417.5
 21
840.0
 31
0.0
  0
LINE
  5
FA
330
1F
100
AcDbEntity
  8
図面枠
  6
CONTINUOUS
 62
     2
100
AcDbLine
 10
1137.5
 20
819.0
 30
0.0
 11
1417.5
 21
819.0
 31
0.0
  0
TEXT
  5
FB
330
1F
100
AcDbEntity
  8
図面枠
  6
CONTINUOUS
 62
     4
100
AcDbText
 10
1144.5
 20
865.8398440927267
 30
0.0
 40
12.12016381576852
  1
ホール径
 41
0.9992308297349457
  7
EXCADTTF1
 72
     5
 11
1207.5
 21
865.8398440927267
 31
0.0
100
AcDbText
  0
TEXT
  5
FC
330
1F
100
AcDbEntity
  8
図面枠
  6
CONTINUOUS
 62
     4
100
AcDbText
 10
1144.5
 20
844.8398440927267
 30
0.0
 40
12.12016381576852
  1
ヘッド径
 41
0.9992308297349457
  7
EXCADTTF1
 72
     5
 11
1207.5
 21
844.8398440927267
 31
0.0
100
AcDbText
  0
TEXT
  5
FD
330
1F
100
AcDbEntity
  8
図面枠
  6
CONTINUOUS
 62
     4
100
AcDbText
 10
1316.875
 20
928.8398440927267
 30
0.0
 40
12.12016381576852
  1
200
 41
0.9992308297349456
  7
EXCADTTF1
 72
     5
 11
1340.5
 21
928.8398440927267
 31
0.0
100
AcDbText
  0
TEXT
  5
FE
330
1F
100
AcDbEntity
  8
図面枠
  6
CONTINUOUS
 62
     4
100
AcDbText
 10
1316.875
 20
907.8398440927267
 30
0.0
 40
12.12016381576852
  1
385
 41
0.9992308297349456
  7
EXCADTTF1
 72
     5
 11
1340.5
 21
907.8398440927267
 31
0.0
100
AcDbText
  0
TEXT
  5
FF
330
1F
100
AcDbEntity
  8
図面枠
  6
CONTINUOUS
 62
     4
100
AcDbText
 10
1316.875
 20
886.8398440927267
 30
0.0
 40
12.12016381576852
  1
205
 41
0.9992308297349456
  7
EXCADTTF1
 72
     5
 11
1340.5
 21
886.8398440927267
 31
0.0
100
AcDbText
  0
TEXT
  5
100
330
1F
100
AcDbEntity
  8
図面枠
  6
CONTINUOUS
 62
     4
100
AcDbText
 10
1324.75
 20
865.8398440927267
 30
0.0
 40
12.12016381576852
  1
64
 41
0.9992308297349457
  7
EXCADTTF1
 72
     5
 11
1340.5
 21
865.8398440927267
 31
0.0
100
AcDbText
  0
TEXT
  5
101
330
1F
100
AcDbEntity
  8
図面枠
  6
CONTINUOUS
 62
     4
100
AcDbText
 10
1316.875
 20
844.8398440927267
 30
0.0
 40
12.12016381576852
  1
130
 41
0.9992308297349456
  7
EXCADTTF1
 72
     5
 11
1340.5
 21
844.8398440927267
 31
0.0
100
AcDbText
  0
TEXT
  5
102
330
1F
100
AcDbEntity
  8
図面枠
  6
CONTINUOUS
 62
     4
100
AcDbText
 10
1301.125
 20
823.8398440927267
 30
0.0
 40
12.12016381576852
  1
150.2
 41
0.9992308297349457
  7
EXCADTTF1
 72
     5
 11
1340.5
 21
823.8398440927267
 31
0.0
100
AcDbText
  0
TEXT
  5
103
330
1F
100
AcDbEntity
  8
図面枠
  6
CONTINUOUS
 62
     4
100
AcDbText
 10
1309.0
 20
802.8398440927267
 30
0.0
 40
12.12016381576852
  1
66.6
 41
0.9992308297349457
  7
EXCADTTF1
 72
     5
 11
1340.5
 21
802.8398440927267
 31
0.0
100
AcDbText
  0
TEXT
  5
104
330
1F
100
AcDbEntity
  8
図面枠
  6
CONTINUOUS
 62
     4
100
AcDbText
 10
1354.5
 20
760.8398440927267
 30
0.0
 40
12.12016381576852
  1
kg
 41
0.9992308297349457
  7
EXCADTTF1
 72
     5
 11
1370.25
 21
760.8398440927267
 31
0.0
100
AcDbText
  0
TEXT
  5
105
330
1F
100
AcDbEntity
  8
図面枠
  6
CONTINUOUS
 62
     4
100
AcDbText
 10
1144.5
 20
781.8398440927267
 30
0.0
 40
12.12016381576852
  1
所要油量
 41
0.9992308297349457
  7
EXCADTTF1
 72
     5
 11
1207.5
 21
781.8398440927267
 31
0.0
100
AcDbText
  0
TEXT
  5
106
330
1F
100
AcDbEntity
  8
図面枠
  6
CONTINUOUS
 62
     4
100
AcDbText
 10
1144.5
 20
760.8398440927267
 30
0.0
 40
12.12016381576852
  1
重量
 41
0.9992308297349457
  7
EXCADTTF1
 72
     5
 11
1176.0
 21
760.8398440927267
 31
0.0
100
AcDbText
  0
LINE
  5
107
330
1F
100
AcDbEntity
  8
図面枠
  6
CONTINUOUS
 62
     2
100
AcDbLine
 10
1137.5
 20
798.0
 30
0.0
 11
1417.5
 21
798.0
 31
0.0
  0
LINE
  5
108
330
1F
100
AcDbEntity
  8
図面枠
  6
CONTINUOUS
 62
     2
100
AcDbLine
 10
1137.5
 20
777.0
 30
0.0
 11
1417.5
 21
777.0
 31
0.0
  0
LINE
  5
109
330
1F
100
AcDbEntity
  8
図面枠
  6
CONTINUOUS
 62
     3
100
AcDbLine
 10
1137.5
 20
756.0
 30
0.0
 11
1417.5
 21
756.0
 31
0.0
  0
TEXT
  5
10A
330
1F
100
AcDbEntity
  8
図面枠
  6
CONTINUOUS
 62
     4
100
AcDbText
 10
1309.0
 20
760.8398440927267
 30
0.0
 40
12.12016381576852
  1
約75
 41
0.9992308297349457
  7
EXCADTTF1
 72
     5
 11
1340.5
 21
760.8398440927267
 31
0.0
100
AcDbText
  0
TEXT
  5
10B
330
1F
100
AcDbEntity
  8
図面枠
  6
CONTINUOUS
 62
     4
100
AcDbText
 10
1354.5
 20
823.8398436158895
 30
0.0
 40
12.12016381576852
  1
cm
 41
0.9992308297349457
  7
EXCADTTF1
 72
     5
 11
1370.25
 21
823.8398436158895
 31
0.0
100
AcDbText
  0
TEXT
  5
10C
330
1F
100
AcDbEntity
  8
図面枠
  6
CONTINUOUS
 62
     4
100
AcDbText
 10
1365.525
 20
831.2841797545552
 30
0.0
 40
5.45407338684756
  1
2
 41
0.9992308902391421
  7
EXCADTTF1
 72
     5
 11
1369.06875
 21
831.2841797545552
 31
0.0
100
AcDbText
  0
LINE
  5
10D
330
1F
100
AcDbEntity
  8
図面枠
  6
CONTINUOUS
 62
     3
100
AcDbLine
 10
1137.5
 20
987.0
 30
0.0
 11
1137.5
 21
756.0
 31
0.0
  0
LINE
  5
10E
330
1F
100
AcDbEntity
  8
図面枠
  6
CONTINUOUS
 62
     2
100
AcDbLine
 10
1277.5
 20
966.0
 30
0.0
 11
1277.5
 21
756.0
 31
0.0
  0
LINE
  5
10F
330
1F
100
AcDbEntity
  8
図面枠
  6
CONTINUOUS
 62
     2
100
AcDbLine
 10
1347.5
 20
966.0
 30
0.0
 11
1347.5
 21
756.0
 31
0.0
  0
LINE
  5
110
330
1F
100
AcDbEntity
  8
図面枠
  6
CONTINUOUS
 62
     3
100
AcDbLine
 10
1417.5
 20
987.0
 30
0.0
 11
1417.5
 21
756.0
 31
0.0
  0
TEXT
  5
111
330
1F
100
AcDbEntity
  8
図面枠
  6
CONTINUOUS
 62
     4
100
AcDbText
 10
1354.5
 20
781.8398440927267
 30
0.0
 40
12.12016381576852
  1
L
 41
0.9992308297349457
  7
EXCADTTF1
 72
     5
 11
1362.375
 21
781.8398440927267
 31
0.0
100
AcDbText
  0
TEXT
  5
112
330
1F
100
AcDbEntity
  8
図面枠
  6
CONTINUOUS
 62
     4
100
AcDbText
 10
1316.875
 20
781.8398440927267
 30
0.0
 40
12.12016381576852
  1
3.0
 41
0.9992308297349456
  7
EXCADTTF1
 72
     5
 11
1340.5
 21
781.8398440927267
 31
0.0
100
AcDbText
  0
DIMENSION
  5
114
330
1F
100
AcDbEntity
  8
Ｓ_１_１
  6
CONTINUOUS
 62
     2
100
AcDbDimension
  2
*D15
 10
565.000006
 20
300.0
 30
0.0
 11
546.6250060000001
 21
309.6250000000001
 31
0.0
 70
   160
  3
ISO-25
100
AcDbAlignedDimension
 13
575.000006
 23
374.4999920000001
 33
0.0
 14
565.000006
 24
411.7320481132501
 34
0.0
100
AcDbRotatedDimension
1001
ACAD
1000
DSTYLE
1002
{
1070
   270
1070
     2
1070
     6
1000
EX_NORM
1070
     7
1000
EX_NORM
1070
    41
1040
10.5
1070
    42
1040
5.25
1070
    44
1040
3.5
1070
    73
1070
     0
1070
    74
1070
     0
1070
    75
1070
     0
1070
    76
1070
     1
1070
    77
1070
     1
1070
    78
1070
     8
1070
   140
1040
12.12016381576852
1070
   147
1040
0.0
1070
   173
1070
     1
1070
   176
1070
     2
1070
   177
1070
     2
1070
   178
1070
     2
1070
   271
1070
     2
1070
   277
1070
     2
1070
   279
1070
     2
1070
   280
1070
     2
1070
   287
1070
     5
1070
   340
1005
113
1002
}
  0
DIMENSION
  5
123
330
1F
100
AcDbEntity
  8
Ｓ_１_１
  6
CONTINUOUS
 62
     2
100
AcDbDimension
  2
*D16
 10
949.9999999999997
 20
275.0
 30
0.0
 11
757.5000029999998
 21
284.625
 31
0.0
 70
   160
  3
ISO-25
100
AcDbAlignedDimension
 13
565.000006
 23
411.7320481132501
 33
0.0
 14
949.9999999999997
 24
374.4999560000001
 34
0.0
100
AcDbRotatedDimension
1001
ACAD
1000
DSTYLE
1002
{
1070
   270
1070
     2
1070
     6
1000
EX_NORM
1070
     7
1000
EX_NORM
1070
    41
1040
10.5
1070
    42
1040
5.25
1070
    44
1040
3.5
1070
    73
1070
     0
1070
    74
1070
     0
1070
    75
1070
     0
1070
    76
1070
     0
1070
    77
1070
     1
1070
    78
1070
     8
1070
   140
1040
12.12016381576852
1070
   147
1040
0.0
1070
   173
1070
     1
1070
   176
1070
     2
1070
   177
1070
     2
1070
   178
1070
     2
1070
   271
1070
     2
1070
   277
1070
     2
1070
   279
1070
     2
1070
   280
1070
     0
1070
   287
1070
     5
1070
   340
1005
113
1002
}
  0
DIMENSION
  5
130
330
1F
100
AcDbEntity
  8
Ｓ_１_１
  6
CONTINUOUS
 62
     2
100
AcDbDimension
  2
*D17
 10
499.9999999999999
 20
539.9999989999999
 30
0.0
 11
490.3749999999999
 21
475.0000004999999
 31
0.0
 70
   160
  1
%%c130
  3
ISO-25
100
AcDbAlignedDimension
 13
568.0000029999999
 23
410.0000020000001
 33
0.0
 14
568.0000029999999
 24
539.9999989999999
 34
0.0
 50
90.0
100
AcDbRotatedDimension
1001
ACAD
1000
DSTYLE
1002
{
1070
   270
1070
     2
1070
     6
1000
EX_NORM
1070
     7
1000
EX_NORM
1070
    41
1040
10.5
1070
    42
1040
5.25
1070
    44
1040
3.5
1070
    73
1070
     0
1070
    74
1070
     0
1070
    75
1070
     0
1070
    76
1070
     0
1070
    77
1070
     1
1070
    78
1070
     8
1070
   140
1040
12.12016381576852
1070
   147
1040
0.0
1070
   173
1070
     1
1070
   176
1070
     2
1070
   177
1070
     2
1070
   178
1070
     2
1070
   271
1070
     2
1070
   277
1070
     2
1070
   279
1070
     2
1070
   280
1070
     0
1070
   287
1070
     5
1070
   340
1005
113
1002
}
  0
DIMENSION
  5
13D
330
1F
100
AcDbEntity
  8
Ｓ_１_１
  6
CONTINUOUS
 62
     2
100
AcDbDimension
  2
*D18
 10
1000.0
 20
443.0000000000001
 30
0.0
 11
990.3750000000001
 21
474.9999989999998
 31
0.0
 70
   160
  1
%%c64
  3
ISO-25
100
AcDbAlignedDimension
 13
949.9999999999997
 23
506.999998
 33
0.0
 14
949.9999999999997
 24
443.0000000000001
 34
0.0
 50
90.0
100
AcDbRotatedDimension
1001
ACAD
1000
DSTYLE
1002
{
1070
   270
1070
     2
1070
     6
1000
EX_NORM
1070
     7
1000
EX_NORM
1070
    41
1040
10.5
1070
    42
1040
5.25
1070
    44
1040
3.5
1070
    73
1070
     0
1070
    74
1070
     0
1070
    75
1070
     0
1070
    76
1070
     0
1070
    77
1070
     1
1070
    78
1070
     8
1070
   140
1040
12.12016381576852
1070
   147
1040
0.0
1070
   173
1070
     1
1070
   176
1070
     2
1070
   177
1070
     2
1070
   178
1070
     2
1070
   271
1070
     2
1070
   277
1070
     2
1070
   279
1070
     2
1070
   280
1070
     0
1070
   287
1070
     5
1070
   340
1005
113
1002
}
  0
DIMENSION
  5
14A
330
1F
100
AcDbEntity
  8
Ｓ_１_１
  6
CONTINUOUS
 62
     2
100
AcDbDimension
  2
*D19
 10
1025.0
 20
577.4999989999999
 30
0.0
 11
1015.375
 21
475.0000004999999
 31
0.0
 70
   160
  1
%%c205
  3
ISO-25
100
AcDbAlignedDimension
 13
947.9999919999999
 23
372.5000020000001
 33
0.0
 14
947.9999919999999
 24
577.4999989999999
 34
0.0
 50
90.0
100
AcDbRotatedDimension
1001
ACAD
1000
DSTYLE
1002
{
1070
   270
1070
     2
1070
     6
1000
EX_NORM
1070
     7
1000
EX_NORM
1070
    41
1040
10.5
1070
    42
1040
5.25
1070
    44
1040
3.5
1070
    73
1070
     0
1070
    74
1070
     0
1070
    75
1070
     0
1070
    76
1070
     0
1070
    77
1070
     1
1070
    78
1070
     8
1070
   140
1040
12.12016381576852
1070
   147
1040
0.0
1070
   173
1070
     1
1070
   176
1070
     2
1070
   177
1070
     2
1070
   178
1070
     2
1070
   271
1070
     2
1070
   277
1070
     2
1070
   279
1070
     2
1070
   280
1070
     0
1070
   287
1070
     5
1070
   340
1005
113
1002
}
  0
DIMENSION
  5
157
330
1F
100
AcDbEntity
  8
Ｓ_１_１
  6
CONTINUOUS
 62
     2
100
AcDbDimension
  2
*D20
 10
1025.0
 20
662.86226
 30
0.0
 11
1015.375
 21
620.1811449999999
 31
0.0
 70
   160
  1
(85)
  3
ISO-25
100
AcDbAlignedDimension
 13
947.9999919999999
 23
577.50003
 33
0.0
 14
912.0000079999998
 24
662.8622600000001
 34
0.0
 50
90.0
100
AcDbRotatedDimension
1001
ACAD
1000
DSTYLE
1002
{
1070
   270
1070
     2
1070
     6
1000
EX_NORM
1070
     7
1000
EX_NORM
1070
    41
1040
10.5
1070
    42
1040
5.25
1070
    44
1040
3.5
1070
    73
1070
     0
1070
    74
1070
     0
1070
    75
1070
     0
1070
    76
1070
     0
1070
    77
1070
     1
1070
    78
1070
     8
1070
   140
1040
12.12016381576852
1070
   147
1040
0.0
1070
   173
1070
     1
1070
   176
1070
     2
1070
   177
1070
     2
1070
   178
1070
     2
1070
   271
1070
     2
1070
   277
1070
     2
1070
   279
1070
     2
1070
   280
1070
     0
1070
   287
1070
     5
1070
   340
1005
113
1002
}
  0
DIMENSION
  5
164
330
1F
100
AcDbEntity
  8
Ｓ_１_１
  6
CONTINUOUS
 62
     2
100
AcDbDimension
  2
*D21
 10
1150.502526024049
 20
425.5025260240484
 30
0.0
 11
1305.132376552649
 21
593.3906286998964
 31
0.0
 70
   163
  1
P.C.D 140
  3
ISO-25
100
AcDbDiametricDimension
 15
1249.497473975952
 25
524.4974739759516
 35
0.0
 40
0.0
1001
ACAD
1000
DSTYLE
1002
{
1070
   270
1070
     2
1070
     6
1000
EX_NORM
1070
     7
1000
EX_NORM
1070
    41
1040
10.5
1070
    73
1070
     0
1070
    74
1070
     0
1070
    77
1070
     1
1070
    78
1070
     8
1070
   140
1040
12.12016381576852
1070
   147
1040
0.0
1070
   173
1070
     1
1070
   176
1070
     2
1070
   177
1070
     2
1070
   178
1070
     2
1070
   271
1070
     2
1070
   277
1070
     2
1070
   279
1070
     2
1070
   280
1070
     0
1070
   287
1070
     5
1070
   340
1005
113
1002
}
  0
TEXT
  5
16F
330
1F
100
AcDbEntity
  8
Ｓ_１_１
  6
CONTINUOUS
 62
     4
100
AcDbText
 10
1246.575
 20
339.9537274461896
 30
0.0
 40
12.12016381576852
  1
4-M12ネジ深20
 41
0.9992308297349456
  7
EXCADTTF1
 72
     5
 11
1348.95
 21
339.9537274461896
 31
0.0
100
AcDbText
  0
LEADER
  5
170
330
1F
100
AcDbEntity
  8
Ｓ_１_１
  6
CONTINUOUS
 62
     2
100
AcDbLeader
  3
ISO-25
 76
     3
 10
1204.89761305854
 20
401.53400677326
 30
0.0
 10
1242.74010743372
 20
335.9888838303001
 30
0.0
 10
1349.25
 20
335.9888838303001
 30
0.0
1001
ACAD
1000
DSTYLE
1002
{
1070
     5
1000
EX_NORM
1070
    41
1040
10.5
1070
   341
1005
78
1002
}
  0
DIMENSION
  5
171
330
1F
100
AcDbEntity
  8
Ｓ_１_１
  6
CONTINUOUS
 62
     2
100
AcDbDimension
  2
*D22
 10
575.000006
 20
300.0
 30
0.0
 11
762.5000029999999
 21
309.6249999999999
 31
0.0
 70
   160
  3
ISO-25
100
AcDbAlignedDimension
 13
949.9999999999997
 23
374.4999560000001
 33
0.0
 14
575.000006
 24
374.4999920000001
 34
0.0
100
AcDbRotatedDimension
1001
ACAD
1000
DSTYLE
1002
{
1070
   270
1070
     2
1070
     6
1000
EX_NORM
1070
     7
1000
EX_NORM
1070
    41
1040
10.5
1070
    42
1040
0.0
1070
    44
1040
0.0
1070
    73
1070
     0
1070
    74
1070
     0
1070
    75
1070
     1
1070
    76
1070
     1
1070
    77
1070
     1
1070
    78
1070
     8
1070
   140
1040
12.12016381576852
1070
   147
1040
0.0
1070
   173
1070
     1
1070
   176
1070
     2
1070
   177
1070
     2
1070
   178
1070
     2
1070
   271
1070
     2
1070
   277
1070
     2
1070
   279
1070
     2
1070
   280
1070
     0
1070
   287
1070
     5
1070
   340
1005
113
1002
}
  0
LINE
  5
17C
330
1F
100
AcDbEntity
  8
Ｓ_１_１
  6
CONTINUOUS
 62
     3
100
AcDbLine
 10
1057.500003
 20
494.0000150000001
 30
0.0
 11
1057.500003
 21
485.0000000000001
 31
0.0
  0
LINE
  5
17D
330
1F
100
AcDbEntity
  8
Ｓ_１_１
  6
CONTINUOUS
 62
     3
100
AcDbLine
 10
1097.98897
 20
485.0000000000001
 30
0.0
 11
1057.500003
 21
485.0000000000001
 31
0.0
  0
LINE
  5
17E
330
1F
100
AcDbEntity
  8
Ｓ_１_１
  6
CONTINUOUS
 62
     3
100
AcDbLine
 10
1097.98897
 20
465.0000000000001
 30
0.0
 11
1057.500003
 21
465.0000000000001
 31
0.0
  0
LINE
  5
17F
330
1F
100
AcDbEntity
  8
Ｓ_１_１
  6
CONTINUOUS
 62
     3
100
AcDbLine
 10
1099.276354
 20
494.0000150000001
 30
0.0
 11
1057.500003
 21
494.0000150000001
 31
0.0
  0
LINE
  5
180
330
1F
100
AcDbEntity
  8
Ｓ_１_１
  6
CONTINUOUS
 62
     3
100
AcDbLine
 10
1099.276354
 20
456.0000230000001
 30
0.0
 11
1057.500003
 21
456.0000230000001
 31
0.0
  0
LINE
  5
181
330
1F
100
AcDbEntity
  8
Ｓ_１_１
  6
CONTINUOUS
 62
     3
100
AcDbLine
 10
1057.500003
 20
465.0000000000001
 30
0.0
 11
1057.500003
 21
456.0000230000001
 31
0.0
  0
LINE
  5
182
330
1F
100
AcDbEntity
  8
Ｓ_１_１
  6
CONTINUOUS
 62
     3
100
AcDbLine
 10
1056.49998
 20
484.500008
 30
0.0
 11
1056.49998
 21
465.5000310000001
 31
0.0
  0
LINE
  5
183
330
1F
100
AcDbEntity
  8
Ｓ_１_１
  6
CONTINUOUS
 62
     3
100
AcDbLine
 10
1094.50001
 20
484.500008
 30
0.0
 11
1094.50001
 21
465.5000310000001
 31
0.0
  0
LINE
  5
184
330
1F
100
AcDbEntity
  8
Ｓ_１_１
  6
CONTINUOUS
 62
     3
100
AcDbLine
 10
1056.49998
 20
465.5000310000001
 30
0.0
 11
1094.50001
 21
465.5000310000001
 31
0.0
  0
LINE
  5
185
330
1F
100
AcDbEntity
  8
Ｓ_１_１
  6
CONTINUOUS
 62
     3
100
AcDbLine
 10
1056.49998
 20
484.500008
 30
0.0
 11
1094.50001
 21
484.500008
 31
0.0
  0
LINE
  5
186
330
1F
100
AcDbEntity
  8
Ｓ_１_１
  6
CONTINUOUS
 62
     3
100
AcDbLine
 10
1062.500002
 20
465.0000000000001
 30
0.0
 11
1062.500002
 21
456.0000230000001
 31
0.0
  0
LINE
  5
187
330
1F
100
AcDbEntity
  8
Ｓ_１_１
  6
CONTINUOUS
 62
     3
100
AcDbLine
 10
1062.500002
 20
494.0000150000001
 30
0.0
 11
1062.500002
 21
485.0000000000001
 31
0.0
  0
LINE
  5
188
330
1F
100
AcDbEntity
  8
Ｓ_１_１
  6
CONTINUOUS
 62
     3
100
AcDbLine
 10
1081.499979
 20
494.5000070000001
 30
0.0
 11
1081.499979
 21
494.0000150000001
 31
0.0
  0
LINE
  5
189
330
1F
100
AcDbEntity
  8
Ｓ_１_１
  6
CONTINUOUS
 62
     3
100
AcDbLine
 10
1069.50001
 20
494.5000070000001
 30
0.0
 11
1069.50001
 21
494.0000150000001
 31
0.0
  0
LINE
  5
18A
330
1F
100
AcDbEntity
  8
Ｓ_１_１
  6
CONTINUOUS
 62
     3
100
AcDbLine
 10
1070.000002
 20
495.0
 30
0.0
 11
1080.999987
 21
495.0
 31
0.0
  0
LINE
  5
18B
330
1F
100
AcDbEntity
  8
Ｓ_１_１
  6
CONTINUOUS
 62
     3
100
AcDbLine
 10
1070.000002
 20
455.000039
 30
0.0
 11
1080.999987
 21
455.000039
 31
0.0
  0
LINE
  5
18C
330
1F
100
AcDbEntity
  8
Ｓ_１_１
  6
CONTINUOUS
 62
     3
100
AcDbLine
 10
1069.50001
 20
456.0000230000001
 30
0.0
 11
1069.50001
 21
455.499993
 31
0.0
  0
LINE
  5
18D
330
1F
100
AcDbEntity
  8
Ｓ_１_１
  6
CONTINUOUS
 62
     3
100
AcDbLine
 10
1081.499979
 20
456.0000230000001
 30
0.0
 11
1081.499979
 21
455.499993
 31
0.0
  0
LINE
  5
18E
330
1F
100
AcDbEntity
  8
Ｓ_１_１
  6
CONTINUOUS
 62
     3
100
AcDbLine
 10
1081.499979
 20
485.0000000000001
 30
0.0
 11
1081.499979
 21
484.500008
 31
0.0
  0
LINE
  5
18F
330
1F
100
AcDbEntity
  8
Ｓ_１_１
  6
CONTINUOUS
 62
     3
100
AcDbLine
 10
1069.50001
 20
485.0000000000001
 30
0.0
 11
1069.50001
 21
484.500008
 31
0.0
  0
LINE
  5
190
330
1F
100
AcDbEntity
  8
Ｓ_１_１
  6
CONTINUOUS
 62
     3
100
AcDbLine
 10
1069.50001
 20
465.5000310000001
 30
0.0
 11
1069.50001
 21
465.0000000000001
 31
0.0
  0
LINE
  5
191
330
1F
100
AcDbEntity
  8
Ｓ_１_１
  6
CONTINUOUS
 62
     3
100
AcDbLine
 10
1081.499979
 20
465.5000310000001
 30
0.0
 11
1081.499979
 21
465.0000000000001
 31
0.0
  0
LINE
  5
192
330
1F
100
AcDbEntity
  8
Ｓ_１_１
  6
CONTINUOUS
 62
     3
100
AcDbLine
 10
1069.50001
 20
455.499993
 30
0.0
 11
1081.499979
 21
455.499993
 31
0.0
  0
LINE
  5
193
330
1F
100
AcDbEntity
  8
Ｓ_１_１
  6
CONTINUOUS
 62
     3
100
AcDbLine
 10
1069.50001
 20
494.5000070000001
 30
0.0
 11
1081.499979
 21
494.5000070000001
 31
0.0
  0
LINE
  5
194
330
1F
100
AcDbEntity
  8
Ｓ_１_１
  6
CONTINUOUS
 62
     3
100
AcDbLine
 10
1069.999995
 20
455.000023
 30
0.0
 11
1069.500005
 21
455.500012
 31
0.0
  0
LINE
  5
195
330
1F
100
AcDbEntity
  8
Ｓ_１_１
  6
CONTINUOUS
 62
     3
100
AcDbLine
 10
1080.999981
 20
455.000011
 30
0.0
 11
1081.499998
 21
455.500028
 31
0.0
  0
LINE
  5
196
330
1F
100
AcDbEntity
  8
Ｓ_１_１
  6
CONTINUOUS
 62
     3
100
AcDbLine
 10
1069.500007
 20
494.5000220000001
 30
0.0
 11
1069.999996
 21
495.0000110000001
 31
0.0
  0
LINE
  5
197
330
1F
100
AcDbEntity
  8
Ｓ_１_１
  6
CONTINUOUS
 62
     3
100
AcDbLine
 10
1081.499969
 20
494.50001
 30
0.0
 11
1080.99998
 21
495.0
 31
0.0
  0
LINE
  5
198
330
1F
100
AcDbEntity
  8
Ｓ_１_１
  6
CONTINUOUS
 62
     3
100
AcDbLine
 10
1342.49996
 20
494.0000150000001
 30
0.0
 11
1342.49996
 21
485.0000000000001
 31
0.0
  0
LINE
  5
199
330
1F
100
AcDbEntity
  8
Ｓ_１_１
  6
CONTINUOUS
 62
     3
100
AcDbLine
 10
1302.010993
 20
485.0000000000001
 30
0.0
 11
1342.49996
 21
485.0000000000001
 31
0.0
  0
LINE
  5
19A
330
1F
100
AcDbEntity
  8
Ｓ_１_１
  6
CONTINUOUS
 62
     3
100
AcDbLine
 10
1302.010993
 20
465.0000000000001
 30
0.0
 11
1342.49996
 21
465.0000000000001
 31
0.0
  0
LINE
  5
19B
330
1F
100
AcDbEntity
  8
Ｓ_１_１
  6
CONTINUOUS
 62
     3
100
AcDbLine
 10
1300.723609
 20
494.0000150000001
 30
0.0
 11
1342.49996
 21
494.0000150000001
 31
0.0
  0
LINE
  5
19C
330
1F
100
AcDbEntity
  8
Ｓ_１_１
  6
CONTINUOUS
 62
     3
100
AcDbLine
 10
1300.723609
 20
456.0000230000001
 30
0.0
 11
1342.49996
 21
456.0000230000001
 31
0.0
  0
LINE
  5
19D
330
1F
100
AcDbEntity
  8
Ｓ_１_１
  6
CONTINUOUS
 62
     3
100
AcDbLine
 10
1342.49996
 20
465.0000000000001
 30
0.0
 11
1342.49996
 21
456.0000230000001
 31
0.0
  0
LINE
  5
19E
330
1F
100
AcDbEntity
  8
Ｓ_１_１
  6
CONTINUOUS
 62
     3
100
AcDbLine
 10
1343.500021
 20
484.500008
 30
0.0
 11
1343.500021
 21
465.5000310000001
 31
0.0
  0
LINE
  5
19F
330
1F
100
AcDbEntity
  8
Ｓ_１_１
  6
CONTINUOUS
 62
     3
100
AcDbLine
 10
1305.499991
 20
484.500008
 30
0.0
 11
1305.499991
 21
465.5000310000001
 31
0.0
  0
LINE
  5
1A0
330
1F
100
AcDbEntity
  8
Ｓ_１_１
  6
CONTINUOUS
 62
     3
100
AcDbLine
 10
1343.500021
 20
465.5000310000001
 30
0.0
 11
1305.499991
 21
465.5000310000001
 31
0.0
  0
LINE
  5
1A1
330
1F
100
AcDbEntity
  8
Ｓ_１_１
  6
CONTINUOUS
 62
     3
100
AcDbLine
 10
1343.500021
 20
484.500008
 30
0.0
 11
1305.499991
 21
484.500008
 31
0.0
  0
LINE
  5
1A2
330
1F
100
AcDbEntity
  8
Ｓ_１_１
  6
CONTINUOUS
 62
     3
100
AcDbLine
 10
1337.49996
 20
465.0000000000001
 30
0.0
 11
1337.49996
 21
456.0000230000001
 31
0.0
  0
LINE
  5
1A3
330
1F
100
AcDbEntity
  8
Ｓ_１_１
  6
CONTINUOUS
 62
     3
100
AcDbLine
 10
1337.49996
 20
494.0000150000001
 30
0.0
 11
1337.49996
 21
485.0000000000001
 31
0.0
  0
LINE
  5
1A4
330
1F
100
AcDbEntity
  8
Ｓ_１_１
  6
CONTINUOUS
 62
     3
100
AcDbLine
 10
1318.500022
 20
494.5000070000001
 30
0.0
 11
1318.500022
 21
494.0000150000001
 31
0.0
  0
LINE
  5
1A5
330
1F
100
AcDbEntity
  8
Ｓ_１_１
  6
CONTINUOUS
 62
     3
100
AcDbLine
 10
1330.499991
 20
494.5000070000001
 30
0.0
 11
1330.499991
 21
494.0000150000001
 31
0.0
  0
LINE
  5
1A6
330
1F
100
AcDbEntity
  8
Ｓ_１_１
  6
CONTINUOUS
 62
     3
100
AcDbLine
 10
1329.99996
 20
495.0
 30
0.0
 11
1318.999976
 21
495.0
 31
0.0
  0
LINE
  5
1A7
330
1F
100
AcDbEntity
  8
Ｓ_１_１
  6
CONTINUOUS
 62
     3
100
AcDbLine
 10
1329.99996
 20
455.000039
 30
0.0
 11
1318.999976
 21
455.000039
 31
0.0
  0
LINE
  5
1A8
330
1F
100
AcDbEntity
  8
Ｓ_１_１
  6
CONTINUOUS
 62
     3
100
AcDbLine
 10
1330.499991
 20
456.0000230000001
 30
0.0
 11
1330.499991
 21
455.499993
 31
0.0
  0
LINE
  5
1A9
330
1F
100
AcDbEntity
  8
Ｓ_１_１
  6
CONTINUOUS
 62
     3
100
AcDbLine
 10
1318.500022
 20
456.0000230000001
 30
0.0
 11
1318.500022
 21
455.499993
 31
0.0
  0
LINE
  5
1AA
330
1F
100
AcDbEntity
  8
Ｓ_１_１
  6
CONTINUOUS
 62
     3
100
AcDbLine
 10
1318.500022
 20
485.0000000000001
 30
0.0
 11
1318.500022
 21
484.500008
 31
0.0
  0
LINE
  5
1AB
330
1F
100
AcDbEntity
  8
Ｓ_１_１
  6
CONTINUOUS
 62
     3
100
AcDbLine
 10
1330.499991
 20
485.0000000000001
 30
0.0
 11
1330.499991
 21
484.500008
 31
0.0
  0
LINE
  5
1AC
330
1F
100
AcDbEntity
  8
Ｓ_１_１
  6
CONTINUOUS
 62
     3
100
AcDbLine
 10
1330.499991
 20
465.5000310000001
 30
0.0
 11
1330.499991
 21
465.0000000000001
 31
0.0
  0
LINE
  5
1AD
330
1F
100
AcDbEntity
  8
Ｓ_１_１
  6
CONTINUOUS
 62
     3
100
AcDbLine
 10
1318.500022
 20
465.5000310000001
 30
0.0
 11
1318.500022
 21
465.0000000000001
 31
0.0
  0
LINE
  5
1AE
330
1F
100
AcDbEntity
  8
Ｓ_１_１
  6
CONTINUOUS
 62
     3
100
AcDbLine
 10
1330.499991
 20
455.499993
 30
0.0
 11
1318.500022
 21
455.499993
 31
0.0
  0
LINE
  5
1AF
330
1F
100
AcDbEntity
  8
Ｓ_１_１
  6
CONTINUOUS
 62
     3
100
AcDbLine
 10
1330.499991
 20
494.5000070000001
 30
0.0
 11
1318.500022
 21
494.5000070000001
 31
0.0
  0
LINE
  5
1B0
330
1F
100
AcDbEntity
  8
Ｓ_１_１
  6
CONTINUOUS
 62
     3
100
AcDbLine
 10
1329.999998
 20
455.0000210000001
 30
0.0
 11
1330.499988
 21
455.500011
 31
0.0
  0
LINE
  5
1B1
330
1F
100
AcDbEntity
  8
Ｓ_１_１
  6
CONTINUOUS
 62
     3
100
AcDbLine
 10
1318.999984
 20
455.000039
 30
0.0
 11
1318.499995
 21
455.500029
 31
0.0
  0
LINE
  5
1B2
330
1F
100
AcDbEntity
  8
Ｓ_１_１
  6
CONTINUOUS
 62
     3
100
AcDbLine
 10
1330.499959
 20
494.500047
 30
0.0
 11
1329.999969
 21
495.000037
 31
0.0
  0
LINE
  5
1B3
330
1F
100
AcDbEntity
  8
Ｓ_１_１
  6
CONTINUOUS
 62
     3
100
AcDbLine
 10
1318.499969
 20
494.5000110000001
 30
0.0
 11
1318.999986
 21
495.0000280000001
 31
0.0
  0
LINE
  5
1B4
330
1F
100
AcDbEntity
  8
Ｓ_１_１
  6
CONTINUOUS
 62
     3
100
AcDbLine
 10
1207.563481
 20
594.224537
 30
0.0
 11
1208.349986
 21
592.862271
 31
0.0
  0
LINE
  5
1B5
330
1F
100
AcDbEntity
  8
Ｓ_１_１
  6
CONTINUOUS
 62
     3
100
AcDbLine
 10
1207.881243
 20
600.362269
 30
0.0
 11
1208.349993
 21
592.8622640000001
 31
0.0
  0
LINE
  5
1B6
330
1F
100
AcDbEntity
  8
Ｓ_１_１
  6
CONTINUOUS
 62
     3
100
AcDbLine
 10
1207.17988
 20
600.3622640000001
 30
0.0
 11
1207.563488
 21
594.2245380000002
 31
0.0
  0
LINE
  5
1B7
330
1F
100
AcDbEntity
  8
Ｓ_１_１
  6
CONTINUOUS
 62
     3
100
AcDbLine
 10
1191.735154
 20
594.224528
 30
0.0
 11
1208.264847
 21
594.224528
 31
0.0
  0
LINE
  5
1B8
330
1F
100
AcDbEntity
  8
Ｓ_１_１
  6
CONTINUOUS
 62
     3
100
AcDbLine
 10
1207.563492
 20
582.4999790000002
 30
0.0
 11
1208.350006
 21
583.862261
 31
0.0
  0
LINE
  5
1B9
330
1F
100
AcDbEntity
  8
Ｓ_１_１
  6
CONTINUOUS
 62
     3
100
AcDbLine
 10
1207.952359
 20
577.5
 30
0.0
 11
1208.350001
 21
583.862269
 31
0.0
  0
LINE
  5
1BA
330
1F
100
AcDbEntity
  8
Ｓ_１_１
  6
CONTINUOUS
 62
     3
100
AcDbLine
 10
1207.250996
 20
577.499996
 30
0.0
 11
1207.563495
 21
582.499986
 31
0.0
  0
LINE
  5
1BB
330
1F
100
AcDbEntity
  8
Ｓ_１_１
  6
CONTINUOUS
 62
     3
100
AcDbLine
 10
1191.650017
 20
583.86228
 30
0.0
 11
1192.436522
 21
582.500014
 31
0.0
  0
LINE
  5
1BC
330
1F
100
AcDbEntity
  8
Ｓ_１_１
  6
CONTINUOUS
 62
     3
100
AcDbLine
 10
1191.735154
 20
582.4999990000001
 30
0.0
 11
1208.264847
 21
582.4999990000001
 31
0.0
  0
LINE
  5
1BD
330
1F
100
AcDbEntity
  8
Ｓ_１_１
  6
CONTINUOUS
 62
     3
100
AcDbLine
 10
1192.047628
 20
577.5
 30
0.0
 11
1191.649986
 21
583.862269
 31
0.0
  0
LINE
  5
1BE
330
1F
100
AcDbEntity
  8
Ｓ_１_１
  6
CONTINUOUS
 62
     3
100
AcDbLine
 10
1192.748991
 20
577.499996
 30
0.0
 11
1192.436491
 21
582.499996
 31
0.0
  0
LINE
  5
1BF
330
1F
100
AcDbEntity
  8
Ｓ_１_１
  6
CONTINUOUS
 62
     3
100
AcDbLine
 10
1189.500017
 20
583.862273
 30
0.0
 11
1187.875623
 21
584.8001140000001
 31
0.0
  0
LINE
  5
1C0
330
1F
100
AcDbEntity
  8
Ｓ_１_１
  6
CONTINUOUS
 62
     3
100
AcDbLine
 10
1189.499998
 20
592.8622750000002
 30
0.0
 11
1187.875637
 21
591.924454
 31
0.0
  0
LINE
  5
1C1
330
1F
100
AcDbEntity
  8
Ｓ_１_１
  6
CONTINUOUS
 62
     3
100
AcDbLine
 10
1210.500002
 20
583.8622600000001
 30
0.0
 11
1212.124363
 21
584.800082
 31
0.0
  0
LINE
  5
1C2
330
1F
100
AcDbEntity
  8
Ｓ_１_１
  6
CONTINUOUS
 62
     3
100
AcDbLine
 10
1210.500002
 20
592.862255
 30
0.0
 11
1212.124362
 21
591.924434
 31
0.0
  0
LINE
  5
1C3
330
1F
100
AcDbEntity
  8
Ｓ_１_１
  6
CONTINUOUS
 62
     3
100
AcDbLine
 10
1212.124367
 20
591.924456
 30
0.0
 11
1212.124367
 21
584.8000890000001
 31
0.0
  0
LINE
  5
1C4
330
1F
100
AcDbEntity
  8
Ｓ_１_１
  6
CONTINUOUS
 62
     3
100
AcDbLine
 10
1187.875672
 20
591.924456
 30
0.0
 11
1187.875672
 21
584.80007
 31
0.0
  0
LINE
  5
1C5
330
1F
100
AcDbEntity
  8
Ｓ_１_１
  6
CONTINUOUS
 62
     3
100
AcDbLine
 10
1193.937836
 20
591.924456
 30
0.0
 11
1193.937836
 21
584.8000890000001
 31
0.0
  0
LINE
  5
1C6
330
1F
100
AcDbEntity
  8
Ｓ_１_１
  6
CONTINUOUS
 62
     3
100
AcDbLine
 10
1206.062203
 20
591.924456
 30
0.0
 11
1206.062203
 21
584.8000890000001
 31
0.0
  0
LINE
  5
1C7
330
1F
100
AcDbEntity
  8
Ｓ_１_１
  6
CONTINUOUS
 62
     3
100
AcDbLine
 10
1189.49997
 20
592.862261
 30
0.0
 11
1210.499993
 21
592.862261
 31
0.0
  0
LINE
  5
1C8
330
1F
100
AcDbEntity
  8
Ｓ_１_１
  6
CONTINUOUS
 62
     3
100
AcDbLine
 10
1189.500008
 20
583.862265
 30
0.0
 11
1210.500031
 21
583.862265
 31
0.0
  0
LINE
  5
1C9
330
1F
100
AcDbEntity
  8
Ｓ_１_１
  6
CONTINUOUS
 62
     3
100
AcDbLine
 10
1192.118783
 20
600.3622760000001
 30
0.0
 11
1191.650031
 21
592.862243
 31
0.0
  0
LINE
  5
1CA
330
1F
100
AcDbEntity
  8
Ｓ_１_１
  6
CONTINUOUS
 62
     3
100
AcDbLine
 10
1191.650004
 20
592.862271
 30
0.0
 11
1192.436518
 21
594.2245540000001
 31
0.0
  0
LINE
  5
1CB
330
1F
100
AcDbEntity
  8
Ｓ_１_１
  6
CONTINUOUS
 62
     3
100
AcDbLine
 10
1192.820145
 20
600.3622620000001
 30
0.0
 11
1192.436536
 21
594.224526
 31
0.0
  0
LINE
  5
1CC
330
1F
100
AcDbEntity
  8
Ｓ_１_１
  6
CONTINUOUS
 62
     3
100
AcDbLine
 10
1187.999993
 20
662.8622600000001
 30
0.0
 11
1212.000008
 21
662.8622600000001
 31
0.0
  0
LINE
  5
1CD
330
1F
100
AcDbEntity
  8
Ｓ_１_１
  6
CONTINUOUS
 62
     3
100
AcDbLine
 10
1187.999993
 20
612.862261
 30
0.0
 11
1212.000008
 21
612.862261
 31
0.0
  0
LINE
  5
1CE
330
1F
100
AcDbEntity
  8
Ｓ_１_１
  6
CONTINUOUS
 62
     3
100
AcDbLine
 10
1187.999993
 20
627.862261
 30
0.0
 11
1212.000008
 21
627.862261
 31
0.0
  0
LINE
  5
1CF
330
1F
100
AcDbEntity
  8
Ｓ_１_１
  6
CONTINUOUS
 62
     3
100
AcDbLine
 10
1184.500008
 20
635.3622600000001
 30
0.0
 11
1198.250008
 21
635.3622600000001
 31
0.0
  0
LINE
  5
1D0
330
1F
100
AcDbEntity
  8
Ｓ_１_１
  6
CONTINUOUS
 62
     3
100
AcDbLine
 10
1212.999993
 20
635.3622600000001
 30
0.0
 11
1212.999993
 21
628.439615
 31
0.0
  0
LINE
  5
1D1
330
1F
100
AcDbEntity
  8
Ｓ_１_１
  6
CONTINUOUS
 62
     3
100
AcDbLine
 10
1187.000008
 20
635.3622600000001
 30
0.0
 11
1187.000008
 21
628.439615
 31
0.0
  0
LINE
  5
1D2
330
1F
100
AcDbEntity
  8
Ｓ_１_１
  6
CONTINUOUS
 62
     3
100
AcDbLine
 10
1187.999993
 20
662.8622600000001
 30
0.0
 11
1187.999993
 21
662.3622680000001
 31
0.0
  0
LINE
  5
1D3
330
1F
100
AcDbEntity
  8
Ｓ_１_１
  6
CONTINUOUS
 62
     3
100
AcDbLine
 10
1212.000008
 20
662.8622600000001
 30
0.0
 11
1212.000008
 21
662.3622680000001
 31
0.0
  0
LINE
  5
1D4
330
1F
100
AcDbEntity
  8
Ｓ_１_１
  6
CONTINUOUS
 62
     3
100
AcDbLine
 10
1187.000008
 20
612.2849250000002
 30
0.0
 11
1187.000008
 21
600.939615
 31
0.0
  0
LINE
  5
1D5
330
1F
100
AcDbEntity
  8
Ｓ_１_１
  6
CONTINUOUS
 62
     3
100
AcDbLine
 10
1212.999993
 20
612.2849060000001
 30
0.0
 11
1212.999993
 21
600.939615
 31
0.0
  0
LINE
  5
1D6
330
1F
100
AcDbEntity
  8
Ｓ_１_１
  6
CONTINUOUS
 62
     3
100
AcDbLine
 10
1184.000016
 20
659.3622560000001
 30
0.0
 11
1184.000016
 21
651.8622560000001
 31
0.0
  0
LINE
  5
1D7
330
1F
100
AcDbEntity
  8
Ｓ_１_１
  6
CONTINUOUS
 62
     3
100
AcDbLine
 10
1216.000023
 20
659.3622560000001
 30
0.0
 11
1216.000023
 21
651.8622560000001
 31
0.0
  0
LINE
  5
1D8
330
1F
100
AcDbEntity
  8
Ｓ_１_１
  6
CONTINUOUS
 62
     3
100
AcDbLine
 10
1187.000008
 20
662.3622680000001
 30
0.0
 11
1212.999993
 21
662.3622680000001
 31
0.0
  0
LINE
  5
1D9
330
1F
100
AcDbEntity
  8
Ｓ_１_１
  6
CONTINUOUS
 62
     3
100
AcDbLine
 10
1212.000008
 20
627.862261
 30
0.0
 11
1212.000008
 21
612.862261
 31
0.0
  0
LINE
  5
1DA
330
1F
100
AcDbEntity
  8
Ｓ_１_１
  6
CONTINUOUS
 62
     3
100
AcDbLine
 10
1187.999993
 20
627.862261
 30
0.0
 11
1187.999993
 21
612.862261
 31
0.0
  0
LINE
  5
1DB
330
1F
100
AcDbEntity
  8
Ｓ_１_１
  6
CONTINUOUS
 62
     3
100
AcDbLine
 10
1186.999993
 20
662.362292
 30
0.0
 11
1184.000001
 21
659.3623
 31
0.0
  0
LINE
  5
1DC
330
1F
100
AcDbEntity
  8
Ｓ_１_１
  6
CONTINUOUS
 62
     3
100
AcDbLine
 10
1213.000013
 20
662.3622790000002
 30
0.0
 11
1216.000005
 21
659.362286
 31
0.0
  0
LINE
  5
1DD
330
1F
100
AcDbEntity
  8
Ｓ_１_１
  6
CONTINUOUS
 62
     3
100
AcDbLine
 10
1184.500008
 20
651.3622640000001
 30
0.0
 11
1184.500008
 21
643.3622720000001
 31
0.0
  0
LINE
  5
1DE
330
1F
100
AcDbEntity
  8
Ｓ_１_１
  6
CONTINUOUS
 62
     3
100
AcDbLine
 10
1215.499993
 20
651.3622640000001
 30
0.0
 11
1215.499993
 21
643.3622720000001
 31
0.0
  0
LINE
  5
1DF
330
1F
100
AcDbEntity
  8
Ｓ_１_１
  6
CONTINUOUS
 62
     3
100
AcDbLine
 10
1184.500008
 20
643.3622720000001
 30
0.0
 11
1215.499993
 21
643.3622720000001
 31
0.0
  0
LINE
  5
1E0
330
1F
100
AcDbEntity
  8
Ｓ_１_１
  6
CONTINUOUS
 62
     3
100
AcDbLine
 10
1184.500008
 20
651.3622640000001
 30
0.0
 11
1215.499993
 21
651.3622640000001
 31
0.0
  0
LINE
  5
1E1
330
1F
100
AcDbEntity
  8
Ｓ_１_１
  6
CONTINUOUS
 62
     3
100
AcDbLine
 10
1183.999997
 20
642.862249
 30
0.0
 11
1184.500014
 21
643.362265
 31
0.0
  0
LINE
  5
1E2
330
1F
100
AcDbEntity
  8
Ｓ_１_１
  6
CONTINUOUS
 62
     3
100
AcDbLine
 10
1215.500012
 20
651.3622750000002
 30
0.0
 11
1216.000002
 21
651.862265
 31
0.0
  0
LINE
  5
1E3
330
1F
100
AcDbEntity
  8
Ｓ_１_１
  6
CONTINUOUS
 62
     3
100
AcDbLine
 10
1215.499992
 20
643.3622780000001
 30
0.0
 11
1216.000009
 21
642.862261
 31
0.0
  0
LINE
  5
1E4
330
1F
100
AcDbEntity
  8
Ｓ_１_１
  6
CONTINUOUS
 62
     3
100
AcDbLine
 10
1183.999991
 20
651.8622640000001
 30
0.0
 11
1184.499994
 21
651.3622600000001
 31
0.0
  0
LINE
  5
1E5
330
1F
100
AcDbEntity
  8
Ｓ_１_１
  6
CONTINUOUS
 62
     3
100
AcDbLine
 10
1184.000016
 20
642.8622600000001
 30
0.0
 11
1184.000016
 21
635.8622720000001
 31
0.0
  0
LINE
  5
1E6
330
1F
100
AcDbEntity
  8
Ｓ_１_１
  6
CONTINUOUS
 62
     3
100
AcDbLine
 10
1216.000023
 20
642.8622600000001
 30
0.0
 11
1216.000023
 21
635.8622720000001
 31
0.0
  0
LINE
  5
1E7
330
1F
100
AcDbEntity
  8
Ｓ_１_１
  6
CONTINUOUS
 62
     3
100
AcDbLine
 10
1184.000005
 20
635.862255
 30
0.0
 11
1184.499995
 21
635.362265
 31
0.0
  0
LINE
  5
1E8
330
1F
100
AcDbEntity
  8
Ｓ_１_１
  6
CONTINUOUS
 62
     3
100
AcDbLine
 10
1215.500011
 20
635.36228
 30
0.0
 11
1216.000001
 21
635.8622700000001
 31
0.0
  0
LINE
  5
1E9
330
1F
100
AcDbEntity
  8
Ｓ_１_１
  6
CONTINUOUS
 62
     3
100
AcDbLine
 10
1216.000023
 20
642.8622600000001
 30
0.0
 11
1184.000016
 21
642.8622600000001
 31
0.0
  0
LINE
  5
1EA
330
1F
100
AcDbEntity
  8
Ｓ_１_１
  6
CONTINUOUS
 62
     3
100
AcDbLine
 10
1184.000016
 20
635.8622720000001
 30
0.0
 11
1198.250008
 21
635.8622720000001
 31
0.0
  0
LINE
  5
1EB
330
1F
100
AcDbEntity
  8
Ｓ_１_１
  6
CONTINUOUS
 62
     3
100
AcDbLine
 10
1184.000016
 20
651.8622560000001
 30
0.0
 11
1216.000023
 21
651.8622560000001
 31
0.0
  0
LINE
  5
1EC
330
1F
100
AcDbEntity
  8
Ｓ_１_１
  6
CONTINUOUS
 62
     3
100
AcDbLine
 10
1184.000016
 20
659.3622560000001
 30
0.0
 11
1216.000023
 21
659.3622560000001
 31
0.0
  0
LINE
  5
1ED
330
1F
100
AcDbEntity
  8
Ｓ_１_１
  6
CONTINUOUS
 62
     3
100
AcDbLine
 10
1198.14509
 20
635.8622760000001
 30
0.0
 11
1198.250013
 21
636.0440080000001
 31
0.0
  0
LINE
  5
1EE
330
1F
100
AcDbEntity
  8
Ｓ_１_１
  6
CONTINUOUS
 62
     3
100
AcDbLine
 10
1215.499993
 20
633.8622640000001
 30
0.0
 11
1215.499993
 21
632.8622600000001
 31
0.0
  0
LINE
  5
1EF
330
1F
100
AcDbEntity
  8
Ｓ_１_１
  6
CONTINUOUS
 62
     3
100
AcDbLine
 10
1184.500008
 20
633.8622640000001
 30
0.0
 11
1184.500008
 21
632.8622600000001
 31
0.0
  0
LINE
  5
1F0
330
1F
100
AcDbEntity
  8
Ｓ_１_１
  6
CONTINUOUS
 62
     3
100
AcDbLine
 10
1185.000001
 20
632.3622680000001
 30
0.0
 11
1187.000008
 21
632.3622680000001
 31
0.0
  0
LINE
  5
1F1
330
1F
100
AcDbEntity
  8
Ｓ_１_１
  6
CONTINUOUS
 62
     3
100
AcDbLine
 10
1185.000001
 20
634.362257
 30
0.0
 11
1187.000008
 21
634.362257
 31
0.0
  0
LINE
  5
1F2
330
1F
100
AcDbEntity
  8
Ｓ_１_１
  6
CONTINUOUS
 62
     3
100
AcDbLine
 10
1212.999993
 20
634.362257
 30
0.0
 11
1215.0
 21
634.362257
 31
0.0
  0
LINE
  5
1F3
330
1F
100
AcDbEntity
  8
Ｓ_１_１
  6
CONTINUOUS
 62
     3
100
AcDbLine
 10
1212.999993
 20
632.3622680000001
 30
0.0
 11
1215.0
 21
632.3622680000001
 31
0.0
  0
LINE
  5
1F4
330
1F
100
AcDbEntity
  8
Ｓ_１_１
  6
CONTINUOUS
 62
     3
100
AcDbLine
 10
1214.999985
 20
634.3622460000001
 30
0.0
 11
1215.499975
 21
633.862257
 31
0.0
  0
LINE
  5
1F5
330
1F
100
AcDbEntity
  8
Ｓ_１_１
  6
CONTINUOUS
 62
     3
100
AcDbLine
 10
1215.000012
 20
632.3622600000001
 30
0.0
 11
1215.500002
 21
632.8622500000001
 31
0.0
  0
LINE
  5
1F6
330
1F
100
AcDbEntity
  8
Ｓ_１_１
  6
CONTINUOUS
 62
     3
100
AcDbLine
 10
1184.500004
 20
633.8622700000001
 30
0.0
 11
1184.999994
 21
634.3622600000001
 31
0.0
  0
LINE
  5
1F7
330
1F
100
AcDbEntity
  8
Ｓ_１_１
  6
CONTINUOUS
 62
     3
100
AcDbLine
 10
1184.499991
 20
632.8622500000001
 30
0.0
 11
1184.999994
 21
632.362247
 31
0.0
  0
LINE
  5
1F8
330
1F
100
AcDbEntity
  8
Ｓ_１_１
  6
CONTINUOUS
 62
     3
100
AcDbLine
 10
1201.749993
 20
638.8622640000001
 30
0.0
 11
1201.749993
 21
635.3622600000001
 31
0.0
  0
LINE
  5
1F9
330
1F
100
AcDbEntity
  8
Ｓ_１_１
  6
CONTINUOUS
 62
     3
100
AcDbLine
 10
1198.250008
 20
638.8622640000001
 30
0.0
 11
1198.250008
 21
635.3622600000001
 31
0.0
  0
LINE
  5
1FA
330
1F
100
AcDbEntity
  8
Ｓ_１_１
  6
CONTINUOUS
 62
     3
100
AcDbLine
 10
1198.250008
 20
638.8622640000001
 30
0.0
 11
1201.749993
 21
638.8622640000001
 31
0.0
  0
LINE
  5
1FB
330
1F
100
AcDbEntity
  8
Ｓ_１_１
  6
CONTINUOUS
 62
     3
100
AcDbLine
 10
1201.749993
 20
635.3622600000001
 30
0.0
 11
1215.499993
 21
635.3622600000001
 31
0.0
  0
LINE
  5
1FC
330
1F
100
AcDbEntity
  8
Ｓ_１_１
  6
CONTINUOUS
 62
     3
100
AcDbLine
 10
1201.749993
 20
635.8622720000001
 30
0.0
 11
1216.000023
 21
635.8622720000001
 31
0.0
  0
LINE
  5
1FD
330
1F
100
AcDbEntity
  8
Ｓ_１_１
  6
CONTINUOUS
 62
     3
100
AcDbLine
 10
1201.749991
 20
636.043983
 30
0.0
 11
1201.854915
 21
635.862251
 31
0.0
  0
LINE
  5
1FE
330
1F
100
AcDbEntity
  8
Ｓ_１_１
  6
CONTINUOUS
 62
     3
100
AcDbLine
 10
1195.000001
 20
612.2849250000002
 30
0.0
 11
1195.000001
 21
600.939615
 31
0.0
  0
LINE
  5
1FF
330
1F
100
AcDbEntity
  8
Ｓ_１_１
  6
CONTINUOUS
 62
     3
100
AcDbLine
 10
1205.0
 20
612.2849250000002
 30
0.0
 11
1205.0
 21
600.939615
 31
0.0
  0
LINE
  5
200
330
1F
100
AcDbEntity
  8
Ｓ_１_１
  6
CONTINUOUS
 62
     3
100
AcDbLine
 10
1212.00002
 20
600.3622660000001
 30
0.0
 11
1213.000027
 21
600.9396200000001
 31
0.0
  0
LINE
  5
201
330
1F
100
AcDbEntity
  8
Ｓ_１_１
  6
CONTINUOUS
 62
     3
100
AcDbLine
 10
1187.000016
 20
612.2849120000001
 30
0.0
 11
1187.99999
 21
612.862247
 31
0.0
  0
LINE
  5
202
330
1F
100
AcDbEntity
  8
Ｓ_１_１
  6
CONTINUOUS
 62
     3
100
AcDbLine
 10
1212.000015
 20
627.8622740000001
 30
0.0
 11
1213.000022
 21
628.4396280000001
 31
0.0
  0
LINE
  5
203
330
1F
100
AcDbEntity
  8
Ｓ_１_１
  6
CONTINUOUS
 62
     3
100
AcDbLine
 10
1187.000005
 20
600.939625
 30
0.0
 11
1188.000013
 21
600.362271
 31
0.0
  0
LINE
  5
204
330
1F
100
AcDbEntity
  8
Ｓ_１_１
  6
CONTINUOUS
 62
     3
100
AcDbLine
 10
1212.00001
 20
612.862271
 30
0.0
 11
1213.000017
 21
612.2849170000002
 31
0.0
  0
LINE
  5
205
330
1F
100
AcDbEntity
  8
Ｓ_１_１
  6
CONTINUOUS
 62
     3
100
AcDbLine
 10
1187.000001
 20
628.4396160000001
 30
0.0
 11
1188.000008
 21
627.8622620000001
 31
0.0
  0
LINE
  5
206
330
1F
100
AcDbEntity
  8
Ｓ_１_１
  6
CONTINUOUS
 62
     3
100
AcDbLine
 10
1187.000008
 20
628.439615
 30
0.0
 11
1212.999993
 21
628.439615
 31
0.0
  0
LINE
  5
207
330
1F
100
AcDbEntity
  8
Ｓ_１_１
  6
CONTINUOUS
 62
     3
100
AcDbLine
 10
1187.000008
 20
612.2849250000002
 30
0.0
 11
1195.000001
 21
612.2849250000002
 31
0.0
  0
LINE
  5
208
330
1F
100
AcDbEntity
  8
Ｓ_１_１
  6
CONTINUOUS
 62
     3
100
AcDbLine
 10
1187.000008
 20
600.939615
 30
0.0
 11
1195.000001
 21
600.939615
 31
0.0
  0
LINE
  5
209
330
1F
100
AcDbEntity
  8
Ｓ_１_１
  6
CONTINUOUS
 62
     3
100
AcDbLine
 10
1205.0
 20
612.2849250000002
 30
0.0
 11
1212.999993
 21
612.2849250000002
 31
0.0
  0
LINE
  5
20A
330
1F
100
AcDbEntity
  8
Ｓ_１_１
  6
CONTINUOUS
 62
     3
100
AcDbLine
 10
1205.0
 20
600.939615
 30
0.0
 11
1212.999993
 21
600.939615
 31
0.0
  0
LINE
  5
20B
330
1F
100
AcDbEntity
  8
Ｓ_１_１
  6
CONTINUOUS
 62
     3
100
AcDbLine
 10
1187.999993
 20
600.362261
 30
0.0
 11
1212.000008
 21
600.362261
 31
0.0
  0
CIRCLE
  5
20C
330
1F
100
AcDbEntity
  8
Ｓ_１_１
  6
CONTINUOUS
 62
     3
100
AcDbCircle
 10
1200.0
 20
475.0000000000001
 30
0.0
 40
102.499998
  0
CIRCLE
  5
20D
330
1F
100
AcDbEntity
  8
Ｓ_１_１
  6
CONTINUOUS
 62
     3
100
AcDbCircle
 10
1200.0
 20
475.0000000000001
 30
0.0
 40
100.499991
  0
CIRCLE
  5
20E
330
1F
100
AcDbEntity
  8
Ｓ_１_１
  6
CONTINUOUS
 62
     3
100
AcDbCircle
 10
1075.499995
 20
475.0000000000001
 30
0.0
 40
9.0
  0
CIRCLE
  5
20F
330
1F
100
AcDbEntity
  8
Ｓ_１_１
  6
CONTINUOUS
 62
     3
100
AcDbCircle
 10
1075.499995
 20
475.0000000000001
 30
0.0
 40
8.0
  0
CIRCLE
  5
210
330
1F
100
AcDbEntity
  8
Ｓ_１_１
  6
CONTINUOUS
 62
     3
100
AcDbCircle
 10
1324.500006
 20
475.0000000000001
 30
0.0
 40
8.0
  0
CIRCLE
  5
211
330
1F
100
AcDbEntity
  8
Ｓ_１_１
  6
CONTINUOUS
 62
     3
100
AcDbCircle
 10
1324.500006
 20
475.0000000000001
 30
0.0
 40
9.0
  0
CIRCLE
  5
212
330
1F
100
AcDbEntity
  8
Ｓ_１_１
  6
CONTINUOUS
 62
     3
100
AcDbCircle
 10
1200.0
 20
475.0000000000001
 30
0.0
 40
32.0
  0
CIRCLE
  5
213
330
1F
100
AcDbEntity
  8
Ｓ_１_１
  6
CONTINUOUS
 62
     3
100
AcDbCircle
 10
1200.0
 20
475.0000000000001
 30
0.0
 40
34.99999900000001
  0
CIRCLE
  5
214
330
1F
100
AcDbEntity
  8
Ｓ_１_１
  6
CONTINUOUS
 62
     3
100
AcDbCircle
 10
1269.999961
 20
475.0000000000001
 30
0.0
 40
6.000000000000004
  0
CIRCLE
  5
215
330
1F
100
AcDbEntity
  8
Ｓ_１_１
  6
CONTINUOUS
 62
     3
100
AcDbCircle
 10
1200.0
 20
405.0000400000001
 30
0.0
 40
6.000000000000004
  0
CIRCLE
  5
216
330
1F
100
AcDbEntity
  8
Ｓ_１_１
  6
CONTINUOUS
 62
     3
100
AcDbCircle
 10
1130.000001
 20
475.0000000000001
 30
0.0
 40
6.000000000000004
  0
CIRCLE
  5
217
330
1F
100
AcDbEntity
  8
Ｓ_１_１
  6
CONTINUOUS
 62
     3
100
AcDbCircle
 10
1200.0
 20
544.9999990000001
 30
0.0
 40
6.000000000000004
  0
CIRCLE
  5
218
330
1F
100
AcDbEntity
  8
Ｓ_１_１
  6
CONTINUOUS
 62
     3
100
AcDbCircle
 10
1130.000001
 20
475.0000000000001
 30
0.0
 40
5.125
  0
CIRCLE
  5
219
330
1F
100
AcDbEntity
  8
Ｓ_１_１
  6
CONTINUOUS
 62
     3
100
AcDbCircle
 10
1200.0
 20
405.0000400000001
 30
0.0
 40
5.125
  0
CIRCLE
  5
21A
330
1F
100
AcDbEntity
  8
Ｓ_１_１
  6
CONTINUOUS
 62
     3
100
AcDbCircle
 10
1269.999961
 20
475.0000000000001
 30
0.0
 40
5.125
  0
CIRCLE
  5
21B
330
1F
100
AcDbEntity
  8
Ｓ_１_１
  6
CONTINUOUS
 62
     3
100
AcDbCircle
 10
1200.0
 20
544.9999990000001
 30
0.0
 40
5.125
  0
CIRCLE
  5
21C
330
1F
100
AcDbEntity
  8
Ｓ_１_１
  6
CONTINUOUS
 62
     3
100
AcDbCircle
 10
1200.0
 20
475.0000000000001
 30
0.0
 40
49.999999
  0
CIRCLE
  5
21D
330
1F
100
AcDbEntity
  8
Ｓ_１_１
  6
CONTINUOUS
 62
     3
100
AcDbCircle
 10
1200.0
 20
475.0000000000001
 30
0.0
 40
48.49999800000002
  0
CIRCLE
  5
21E
330
1F
100
AcDbEntity
  8
Ｓ_１_１
  6
CONTINUOUS
 62
     3
100
AcDbCircle
 10
1239.999962
 20
475.0000000000001
 30
0.0
 40
3.000000000000002
  0
CIRCLE
  5
21F
330
1F
100
AcDbEntity
  8
Ｓ_１_１
  6
CONTINUOUS
 62
     3
100
AcDbCircle
 10
1200.0
 20
434.999964
 30
0.0
 40
3.000000000000002
  0
CIRCLE
  5
220
330
1F
100
AcDbEntity
  8
Ｓ_１_１
  6
CONTINUOUS
 62
     3
100
AcDbCircle
 10
1200.0
 20
515.0
 30
0.0
 40
3.000000000000002
  0
CIRCLE
  5
221
330
1F
100
AcDbEntity
  8
Ｓ_１_１
  6
CONTINUOUS
 62
     3
100
AcDbCircle
 10
1160.000001
 20
475.0000000000001
 30
0.0
 40
3.000000000000002
  0
CIRCLE
  5
222
330
1F
100
AcDbEntity
  8
Ｓ_１_１
  6
CONTINUOUS
 62
     3
100
AcDbCircle
 10
1160.000001
 20
475.0000000000001
 30
0.0
 40
2.5
  0
CIRCLE
  5
223
330
1F
100
AcDbEntity
  8
Ｓ_１_１
  6
CONTINUOUS
 62
     3
100
AcDbCircle
 10
1200.0
 20
434.999964
 30
0.0
 40
2.5
  0
CIRCLE
  5
224
330
1F
100
AcDbEntity
  8
Ｓ_１_１
  6
CONTINUOUS
 62
     3
100
AcDbCircle
 10
1239.999962
 20
475.0000000000001
 30
0.0
 40
2.5
  0
CIRCLE
  5
225
330
1F
100
AcDbEntity
  8
Ｓ_１_１
  6
CONTINUOUS
 62
     3
100
AcDbCircle
 10
1200.0
 20
515.0
 30
0.0
 40
2.5
  0
ARC
  5
226
330
1F
100
AcDbEntity
  8
Ｓ_１_１
  6
CONTINUOUS
 62
     3
100
AcDbCircle
 10
1209.093285
 20
589.229525
 30
0.0
 40
5.367246000000002
100
AcDbArc
 50
235.61578
 51
304.384065
  0
ARC
  5
227
330
1F
100
AcDbEntity
  8
Ｓ_１_１
  6
CONTINUOUS
 62
     3
100
AcDbCircle
 10
1200.0
 20
572.800072
 30
0.0
 40
20.062196
100
AcDbArc
 50
72.41206700000001
 51
107.587951
  0
ARC
  5
228
330
1F
100
AcDbEntity
  8
Ｓ_１_１
  6
CONTINUOUS
 62
     3
100
AcDbCircle
 10
1209.093285
 20
587.4950200000001
 30
0.0
 40
5.367246000000002
100
AcDbArc
 50
55.61588100000003
 51
124.384165
  0
ARC
  5
229
330
1F
100
AcDbEntity
  8
Ｓ_１_１
  6
CONTINUOUS
 62
     3
100
AcDbCircle
 10
1190.906716
 20
587.4950200000001
 30
0.0
 40
5.367246000000002
100
AcDbArc
 50
55.61579900000001
 51
124.384083
  0
ARC
  5
22A
330
1F
100
AcDbEntity
  8
Ｓ_１_１
  6
CONTINUOUS
 62
     3
100
AcDbCircle
 10
1200.0
 20
603.9244630000001
 30
0.0
 40
20.062196
100
AcDbArc
 50
252.4119940000001
 51
287.5878780000001
  0
ARC
  5
22B
330
1F
100
AcDbEntity
  8
Ｓ_１_１
  6
CONTINUOUS
 62
     3
100
AcDbCircle
 10
1190.906716
 20
589.229525
 30
0.0
 40
5.367246000000002
100
AcDbArc
 50
235.615862
 51
304.3841460000003
  0
ARC
  5
22C
330
1F
100
AcDbEntity
  8
Ｓ_１_１
  6
CONTINUOUS
 62
     3
100
AcDbCircle
 10
1200.0
 20
622.30171
 30
0.0
 40
21.939437
100
AcDbArc
 50
256.8264750000001
 51
283.1734650000004
  0
ARC
  5
22D
330
1F
100
AcDbEntity
  8
Ｓ_１_１
  6
CONTINUOUS
 62
     3
100
AcDbCircle
 10
1200.0
 20
590.9228310000001
 30
0.0
 40
21.939437
100
AcDbArc
 50
76.82652799999998
 51
103.173491
  0
POLYLINE
  5
22E
330
1F
100
AcDbEntity
  8
Ｓ_１_１
  6
CONTINUOUS
 62
     3
100
AcDb2dPolyline
 66
     1
 10
0.0
 20
0.0
 30
0.0
 70
   128
  0
VERTEX
  5
22F
330
22E
100
AcDbEntity
  8
Ｓ_１_１
  6
CONTINUOUS
 62
     3
100
AcDbVertex
100
AcDb2dVertex
 10
1095.083353
 20
494.0000150000001
 30
0.0
  0
VERTEX
  5
230
330
22E
100
AcDbEntity
  8
Ｓ_１_１
  6
CONTINUOUS
 62
     3
100
AcDbVertex
100
AcDb2dVertex
 10
1095.105414
 20
494.1548440000001
 30
0.0
  0
VERTEX
  5
231
330
22E
100
AcDbEntity
  8
Ｓ_１_１
  6
CONTINUOUS
 62
     3
100
AcDbVertex
100
AcDb2dVertex
 10
1095.131908
 20
494.310095
 30
0.0
  0
VERTEX
  5
232
330
22E
100
AcDbEntity
  8
Ｓ_１_１
  6
CONTINUOUS
 62
     3
100
AcDbVertex
100
AcDb2dVertex
 10
1095.162915
 20
494.465383
 30
0.0
  0
VERTEX
  5
233
330
22E
100
AcDbEntity
  8
Ｓ_１_１
  6
CONTINUOUS
 62
     3
100
AcDbVertex
100
AcDb2dVertex
 10
1095.198513
 20
494.6203239999999
 30
0.0
  0
VERTEX
  5
234
330
22E
100
AcDbEntity
  8
Ｓ_１_１
  6
CONTINUOUS
 62
     3
100
AcDbVertex
100
AcDb2dVertex
 10
1095.238782
 20
494.774533
 30
0.0
  0
VERTEX
  5
235
330
22E
100
AcDbEntity
  8
Ｓ_１_１
  6
CONTINUOUS
 62
     3
100
AcDbVertex
100
AcDb2dVertex
 10
1095.2838
 20
494.9276260000001
 30
0.0
  0
VERTEX
  5
236
330
22E
100
AcDbEntity
  8
Ｓ_１_１
  6
CONTINUOUS
 62
     3
100
AcDbVertex
100
AcDb2dVertex
 10
1095.333646
 20
495.079217
 30
0.0
  0
VERTEX
  5
237
330
22E
100
AcDbEntity
  8
Ｓ_１_１
  6
CONTINUOUS
 62
     3
100
AcDbVertex
100
AcDb2dVertex
 10
1095.388399
 20
495.2289230000001
 30
0.0
  0
VERTEX
  5
238
330
22E
100
AcDbEntity
  8
Ｓ_１_１
  6
CONTINUOUS
 62
     3
100
AcDbVertex
100
AcDb2dVertex
 10
1095.448137
 20
495.3763579999999
 30
0.0
  0
VERTEX
  5
239
330
22E
100
AcDbEntity
  8
Ｓ_１_１
  6
CONTINUOUS
 62
     3
100
AcDbVertex
100
AcDb2dVertex
 10
1095.512941
 20
495.5211380000001
 30
0.0
  0
VERTEX
  5
23A
330
22E
100
AcDbEntity
  8
Ｓ_１_１
  6
CONTINUOUS
 62
     3
100
AcDbVertex
100
AcDb2dVertex
 10
1095.582888
 20
495.6628780000001
 30
0.0
  0
VERTEX
  5
23B
330
22E
100
AcDbEntity
  8
Ｓ_１_１
  6
CONTINUOUS
 62
     3
100
AcDbVertex
100
AcDb2dVertex
 10
1095.658057
 20
495.8011940000002
 30
0.0
  0
VERTEX
  5
23C
330
22E
100
AcDbEntity
  8
Ｓ_１_１
  6
CONTINUOUS
 62
     3
100
AcDbVertex
100
AcDb2dVertex
 10
1095.738528
 20
495.9357010000001
 30
0.0
  0
VERTEX
  5
23D
330
22E
100
AcDbEntity
  8
Ｓ_１_１
  6
CONTINUOUS
 62
     3
100
AcDbVertex
100
AcDb2dVertex
 10
1095.824379
 20
496.0660150000002
 30
0.0
  0
VERTEX
  5
23E
330
22E
100
AcDbEntity
  8
Ｓ_１_１
  6
CONTINUOUS
 62
     3
100
AcDbVertex
100
AcDb2dVertex
 10
1095.915689
 20
496.1917500000001
 30
0.0
  0
VERTEX
  5
23F
330
22E
100
AcDbEntity
  8
Ｓ_１_１
  6
CONTINUOUS
 62
     3
100
AcDbVertex
100
AcDb2dVertex
 10
1096.012537
 20
496.3125230000001
 30
0.0
  0
VERTEX
  5
240
330
22E
100
AcDbEntity
  8
Ｓ_１_１
  6
CONTINUOUS
 62
     3
100
AcDbVertex
100
AcDb2dVertex
 10
1096.103592
 20
496.4158220000002
 30
0.0
  0
VERTEX
  5
241
330
22E
100
AcDbEntity
  8
Ｓ_１_１
  6
CONTINUOUS
 62
     3
100
AcDbVertex
100
AcDb2dVertex
 10
1096.198827
 20
496.5151110000001
 30
0.0
  0
VERTEX
  5
242
330
22E
100
AcDbEntity
  8
Ｓ_１_１
  6
CONTINUOUS
 62
     3
100
AcDbVertex
100
AcDb2dVertex
 10
1096.297955
 20
496.610631
 30
0.0
  0
VERTEX
  5
243
330
22E
100
AcDbEntity
  8
Ｓ_１_１
  6
CONTINUOUS
 62
     3
100
AcDbVertex
100
AcDb2dVertex
 10
1096.400689
 20
496.7026250000001
 30
0.0
  0
VERTEX
  5
244
330
22E
100
AcDbEntity
  8
Ｓ_１_１
  6
CONTINUOUS
 62
     3
100
AcDbVertex
100
AcDb2dVertex
 10
1096.506741
 20
496.791336
 30
0.0
  0
VERTEX
  5
245
330
22E
100
AcDbEntity
  8
Ｓ_１_１
  6
CONTINUOUS
 62
     3
100
AcDbVertex
100
AcDb2dVertex
 10
1096.615824
 20
496.8770060000002
 30
0.0
  0
VERTEX
  5
246
330
22E
100
AcDbEntity
  8
Ｓ_１_１
  6
CONTINUOUS
 62
     3
100
AcDbVertex
100
AcDb2dVertex
 10
1096.72765
 20
496.9598790000001
 30
0.0
  0
VERTEX
  5
247
330
22E
100
AcDbEntity
  8
Ｓ_１_１
  6
CONTINUOUS
 62
     3
100
AcDbVertex
100
AcDb2dVertex
 10
1096.841933
 20
497.0401960000002
 30
0.0
  0
VERTEX
  5
248
330
22E
100
AcDbEntity
  8
Ｓ_１_１
  6
CONTINUOUS
 62
     3
100
AcDbVertex
100
AcDb2dVertex
 10
1096.958384
 20
497.118201
 30
0.0
  0
VERTEX
  5
249
330
22E
100
AcDbEntity
  8
Ｓ_１_１
  6
CONTINUOUS
 62
     3
100
AcDbVertex
100
AcDb2dVertex
 10
1097.076717
 20
497.1941350000002
 30
0.0
  0
VERTEX
  5
24A
330
22E
100
AcDbEntity
  8
Ｓ_１_１
  6
CONTINUOUS
 62
     3
100
AcDbVertex
100
AcDb2dVertex
 10
1097.196645
 20
497.268242
 30
0.0
  0
VERTEX
  5
24B
330
22E
100
AcDbEntity
  8
Ｓ_１_１
  6
CONTINUOUS
 62
     3
100
AcDbVertex
100
AcDb2dVertex
 10
1097.317879
 20
497.3407650000002
 30
0.0
  0
VERTEX
  5
24C
330
22E
100
AcDbEntity
  8
Ｓ_１_１
  6
CONTINUOUS
 62
     3
100
AcDbVertex
100
AcDb2dVertex
 10
1097.440132
 20
497.4119450000001
 30
0.0
  0
VERTEX
  5
24D
330
22E
100
AcDbEntity
  8
Ｓ_１_１
  6
CONTINUOUS
 62
     3
100
AcDbVertex
100
AcDb2dVertex
 10
1097.563118
 20
497.4820250000001
 30
0.0
  0
VERTEX
  5
24E
330
22E
100
AcDbEntity
  8
Ｓ_１_１
  6
CONTINUOUS
 62
     3
100
AcDbVertex
100
AcDb2dVertex
 10
1097.686549
 20
497.551248
 30
0.0
  0
VERTEX
  5
24F
330
22E
100
AcDbEntity
  8
Ｓ_１_１
  6
CONTINUOUS
 62
     3
100
AcDbVertex
100
AcDb2dVertex
 10
1097.810137
 20
497.619858
 30
0.0
  0
VERTEX
  5
250
330
22E
100
AcDbEntity
  8
Ｓ_１_１
  6
CONTINUOUS
 62
     3
100
AcDbVertex
100
AcDb2dVertex
 10
1097.964669
 20
497.7051140000001
 30
0.0
  0
VERTEX
  5
251
330
22E
100
AcDbEntity
  8
Ｓ_１_１
  6
CONTINUOUS
 62
     3
100
AcDbVertex
100
AcDb2dVertex
 10
1098.119078
 20
497.7896820000001
 30
0.0
  0
VERTEX
  5
252
330
22E
100
AcDbEntity
  8
Ｓ_１_１
  6
CONTINUOUS
 62
     3
100
AcDbVertex
100
AcDb2dVertex
 10
1098.273441
 20
497.8734540000001
 30
0.0
  0
VERTEX
  5
253
330
22E
100
AcDbEntity
  8
Ｓ_１_１
  6
CONTINUOUS
 62
     3
100
AcDbVertex
100
AcDb2dVertex
 10
1098.427839
 20
497.9563230000001
 30
0.0
  0
VERTEX
  5
254
330
22E
100
AcDbEntity
  8
Ｓ_１_１
  6
CONTINUOUS
 62
     3
100
AcDbVertex
100
AcDb2dVertex
 10
1098.582349
 20
498.0381830000001
 30
0.0
  0
VERTEX
  5
255
330
22E
100
AcDbEntity
  8
Ｓ_１_１
  6
CONTINUOUS
 62
     3
100
AcDbVertex
100
AcDb2dVertex
 10
1098.737052
 20
498.118927
 30
0.0
  0
VERTEX
  5
256
330
22E
100
AcDbEntity
  8
Ｓ_１_１
  6
CONTINUOUS
 62
     3
100
AcDbVertex
100
AcDb2dVertex
 10
1098.892025
 20
498.1984469999999
 30
0.0
  0
VERTEX
  5
257
330
22E
100
AcDbEntity
  8
Ｓ_１_１
  6
CONTINUOUS
 62
     3
100
AcDbVertex
100
AcDb2dVertex
 10
1099.047349
 20
498.2766360000001
 30
0.0
  0
VERTEX
  5
258
330
22E
100
AcDbEntity
  8
Ｓ_１_１
  6
CONTINUOUS
 62
     3
100
AcDbVertex
100
AcDb2dVertex
 10
1099.203101
 20
498.3533890000001
 30
0.0
  0
VERTEX
  5
259
330
22E
100
AcDbEntity
  8
Ｓ_１_１
  6
CONTINUOUS
 62
     3
100
AcDbVertex
100
AcDb2dVertex
 10
1099.359362
 20
498.4285970000001
 30
0.0
  0
VERTEX
  5
25A
330
22E
100
AcDbEntity
  8
Ｓ_１_１
  6
CONTINUOUS
 62
     3
100
AcDbVertex
100
AcDb2dVertex
 10
1099.516209
 20
498.5021540000001
 30
0.0
  0
VERTEX
  5
25B
330
22E
100
AcDbEntity
  8
Ｓ_１_１
  6
CONTINUOUS
 62
     3
100
AcDbVertex
100
AcDb2dVertex
 10
1099.673723
 20
498.573953
 30
0.0
  0
VERTEX
  5
25C
330
22E
100
AcDbEntity
  8
Ｓ_１_１
  6
CONTINUOUS
 62
     3
100
AcDbVertex
100
AcDb2dVertex
 10
1099.831981
 20
498.6438870000001
 30
0.0
  0
VERTEX
  5
25D
330
22E
100
AcDbEntity
  8
Ｓ_１_１
  6
CONTINUOUS
 62
     3
100
AcDbVertex
100
AcDb2dVertex
 10
1099.991063
 20
498.7118500000001
 30
0.0
  0
VERTEX
  5
25E
330
22E
100
AcDbEntity
  8
Ｓ_１_１
  6
CONTINUOUS
 62
     3
100
AcDbVertex
100
AcDb2dVertex
 10
1100.151049
 20
498.7777330000001
 30
0.0
  0
VERTEX
  5
25F
330
22E
100
AcDbEntity
  8
Ｓ_１_１
  6
CONTINUOUS
 62
     3
100
AcDbVertex
100
AcDb2dVertex
 10
1100.312016
 20
498.8414310000001
 30
0.0
  0
SEQEND
  5
260
330
22E
100
AcDbEntity
  8
Ｓ_１_１
  6
CONTINUOUS
 62
     3
  0
POLYLINE
  5
261
330
1F
100
AcDbEntity
  8
Ｓ_１_１
  6
CONTINUOUS
 62
     3
100
AcDb2dPolyline
 66
     1
 10
0.0
 20
0.0
 30
0.0
 70
   128
  0
VERTEX
  5
262
330
261
100
AcDbEntity
  8
Ｓ_１_１
  6
CONTINUOUS
 62
     3
100
AcDbVertex
100
AcDb2dVertex
 10
1095.083353
 20
456.0000230000001
 30
0.0
  0
VERTEX
  5
263
330
261
100
AcDbEntity
  8
Ｓ_１_１
  6
CONTINUOUS
 62
     3
100
AcDbVertex
100
AcDb2dVertex
 10
1095.105414
 20
455.845194
 30
0.0
  0
VERTEX
  5
264
330
261
100
AcDbEntity
  8
Ｓ_１_１
  6
CONTINUOUS
 62
     3
100
AcDbVertex
100
AcDb2dVertex
 10
1095.131908
 20
455.689942
 30
0.0
  0
VERTEX
  5
265
330
261
100
AcDbEntity
  8
Ｓ_１_１
  6
CONTINUOUS
 62
     3
100
AcDbVertex
100
AcDb2dVertex
 10
1095.162914
 20
455.534653
 30
0.0
  0
VERTEX
  5
266
330
261
100
AcDbEntity
  8
Ｓ_１_１
  6
CONTINUOUS
 62
     3
100
AcDbVertex
100
AcDb2dVertex
 10
1095.198511
 20
455.37971
 30
0.0
  0
VERTEX
  5
267
330
261
100
AcDbEntity
  8
Ｓ_１_１
  6
CONTINUOUS
 62
     3
100
AcDbVertex
100
AcDb2dVertex
 10
1095.238779
 20
455.225499
 30
0.0
  0
VERTEX
  5
268
330
261
100
AcDbEntity
  8
Ｓ_１_１
  6
CONTINUOUS
 62
     3
100
AcDbVertex
100
AcDb2dVertex
 10
1095.283796
 20
455.0724050000001
 30
0.0
  0
VERTEX
  5
269
330
261
100
AcDbEntity
  8
Ｓ_１_１
  6
CONTINUOUS
 62
     3
100
AcDbVertex
100
AcDb2dVertex
 10
1095.333641
 20
454.9208110000001
 30
0.0
  0
VERTEX
  5
26A
330
261
100
AcDbEntity
  8
Ｓ_１_１
  6
CONTINUOUS
 62
     3
100
AcDbVertex
100
AcDb2dVertex
 10
1095.388394
 20
454.771102
 30
0.0
  0
VERTEX
  5
26B
330
261
100
AcDbEntity
  8
Ｓ_１_１
  6
CONTINUOUS
 62
     3
100
AcDbVertex
100
AcDb2dVertex
 10
1095.448132
 20
454.623664
 30
0.0
  0
VERTEX
  5
26C
330
261
100
AcDbEntity
  8
Ｓ_１_１
  6
CONTINUOUS
 62
     3
100
AcDbVertex
100
AcDb2dVertex
 10
1095.512935
 20
454.4788810000001
 30
0.0
  0
VERTEX
  5
26D
330
261
100
AcDbEntity
  8
Ｓ_１_１
  6
CONTINUOUS
 62
     3
100
AcDbVertex
100
AcDb2dVertex
 10
1095.582882
 20
454.337138
 30
0.0
  0
VERTEX
  5
26E
330
261
100
AcDbEntity
  8
Ｓ_１_１
  6
CONTINUOUS
 62
     3
100
AcDbVertex
100
AcDb2dVertex
 10
1095.658052
 20
454.1988180000001
 30
0.0
  0
VERTEX
  5
26F
330
261
100
AcDbEntity
  8
Ｓ_１_１
  6
CONTINUOUS
 62
     3
100
AcDbVertex
100
AcDb2dVertex
 10
1095.738523
 20
454.064308
 30
0.0
  0
VERTEX
  5
270
330
261
100
AcDbEntity
  8
Ｓ_１_１
  6
CONTINUOUS
 62
     3
100
AcDbVertex
100
AcDb2dVertex
 10
1095.824375
 20
453.933991
 30
0.0
  0
VERTEX
  5
271
330
261
100
AcDbEntity
  8
Ｓ_１_１
  6
CONTINUOUS
 62
     3
100
AcDbVertex
100
AcDb2dVertex
 10
1095.915687
 20
453.8082530000001
 30
0.0
  0
VERTEX
  5
272
330
261
100
AcDbEntity
  8
Ｓ_１_１
  6
CONTINUOUS
 62
     3
100
AcDbVertex
100
AcDb2dVertex
 10
1096.012537
 20
453.6874780000001
 30
0.0
  0
VERTEX
  5
273
330
261
100
AcDbEntity
  8
Ｓ_１_１
  6
CONTINUOUS
 62
     3
100
AcDbVertex
100
AcDb2dVertex
 10
1096.103592
 20
453.5841780000001
 30
0.0
  0
VERTEX
  5
274
330
261
100
AcDbEntity
  8
Ｓ_１_１
  6
CONTINUOUS
 62
     3
100
AcDbVertex
100
AcDb2dVertex
 10
1096.198827
 20
453.484891
 30
0.0
  0
VERTEX
  5
275
330
261
100
AcDbEntity
  8
Ｓ_１_１
  6
CONTINUOUS
 62
     3
100
AcDbVertex
100
AcDb2dVertex
 10
1096.297956
 20
453.3893730000001
 30
0.0
  0
VERTEX
  5
276
330
261
100
AcDbEntity
  8
Ｓ_１_１
  6
CONTINUOUS
 62
     3
100
AcDbVertex
100
AcDb2dVertex
 10
1096.40069
 20
453.29738
 30
0.0
  0
VERTEX
  5
277
330
261
100
AcDbEntity
  8
Ｓ_１_１
  6
CONTINUOUS
 62
     3
100
AcDbVertex
100
AcDb2dVertex
 10
1096.506743
 20
453.208672
 30
0.0
  0
VERTEX
  5
278
330
261
100
AcDbEntity
  8
Ｓ_１_１
  6
CONTINUOUS
 62
     3
100
AcDbVertex
100
AcDb2dVertex
 10
1096.615826
 20
453.123004
 30
0.0
  0
VERTEX
  5
279
330
261
100
AcDbEntity
  8
Ｓ_１_１
  6
CONTINUOUS
 62
     3
100
AcDbVertex
100
AcDb2dVertex
 10
1096.727653
 20
453.040135
 30
0.0
  0
VERTEX
  5
27A
330
261
100
AcDbEntity
  8
Ｓ_１_１
  6
CONTINUOUS
 62
     3
100
AcDbVertex
100
AcDb2dVertex
 10
1096.841937
 20
452.9598210000001
 30
0.0
  0
VERTEX
  5
27B
330
261
100
AcDbEntity
  8
Ｓ_１_１
  6
CONTINUOUS
 62
     3
100
AcDbVertex
100
AcDb2dVertex
 10
1096.958389
 20
452.8818200000001
 30
0.0
  0
VERTEX
  5
27C
330
261
100
AcDbEntity
  8
Ｓ_１_１
  6
CONTINUOUS
 62
     3
100
AcDbVertex
100
AcDb2dVertex
 10
1097.076722
 20
452.805889
 30
0.0
  0
VERTEX
  5
27D
330
261
100
AcDbEntity
  8
Ｓ_１_１
  6
CONTINUOUS
 62
     3
100
AcDbVertex
100
AcDb2dVertex
 10
1097.196649
 20
452.7317850000001
 30
0.0
  0
VERTEX
  5
27E
330
261
100
AcDbEntity
  8
Ｓ_１_１
  6
CONTINUOUS
 62
     3
100
AcDbVertex
100
AcDb2dVertex
 10
1097.317883
 20
452.659266
 30
0.0
  0
VERTEX
  5
27F
330
261
100
AcDbEntity
  8
Ｓ_１_１
  6
CONTINUOUS
 62
     3
100
AcDbVertex
100
AcDb2dVertex
 10
1097.440136
 20
452.588088
 30
0.0
  0
VERTEX
  5
280
330
261
100
AcDbEntity
  8
Ｓ_１_１
  6
CONTINUOUS
 62
     3
100
AcDbVertex
100
AcDb2dVertex
 10
1097.563121
 20
452.5180100000001
 30
0.0
  0
VERTEX
  5
281
330
261
100
AcDbEntity
  8
Ｓ_１_１
  6
CONTINUOUS
 62
     3
100
AcDbVertex
100
AcDb2dVertex
 10
1097.68655
 20
452.4487890000001
 30
0.0
  0
VERTEX
  5
282
330
261
100
AcDbEntity
  8
Ｓ_１_１
  6
CONTINUOUS
 62
     3
100
AcDbVertex
100
AcDb2dVertex
 10
1097.810137
 20
452.380181
 30
0.0
  0
VERTEX
  5
283
330
261
100
AcDbEntity
  8
Ｓ_１_１
  6
CONTINUOUS
 62
     3
100
AcDbVertex
100
AcDb2dVertex
 10
1097.964669
 20
452.2949240000001
 30
0.0
  0
VERTEX
  5
284
330
261
100
AcDbEntity
  8
Ｓ_１_１
  6
CONTINUOUS
 62
     3
100
AcDbVertex
100
AcDb2dVertex
 10
1098.119077
 20
452.210355
 30
0.0
  0
VERTEX
  5
285
330
261
100
AcDbEntity
  8
Ｓ_１_１
  6
CONTINUOUS
 62
     3
100
AcDbVertex
100
AcDb2dVertex
 10
1098.27344
 20
452.126582
 30
0.0
  0
VERTEX
  5
286
330
261
100
AcDbEntity
  8
Ｓ_１_１
  6
CONTINUOUS
 62
     3
100
AcDbVertex
100
AcDb2dVertex
 10
1098.427838
 20
452.043711
 30
0.0
  0
VERTEX
  5
287
330
261
100
AcDbEntity
  8
Ｓ_１_１
  6
CONTINUOUS
 62
     3
100
AcDbVertex
100
AcDb2dVertex
 10
1098.582348
 20
451.9618490000001
 30
0.0
  0
VERTEX
  5
288
330
261
100
AcDbEntity
  8
Ｓ_１_１
  6
CONTINUOUS
 62
     3
100
AcDbVertex
100
AcDb2dVertex
 10
1098.73705
 20
451.881103
 30
0.0
  0
VERTEX
  5
289
330
261
100
AcDbEntity
  8
Ｓ_１_１
  6
CONTINUOUS
 62
     3
100
AcDbVertex
100
AcDb2dVertex
 10
1098.892023
 20
451.8015800000001
 30
0.0
  0
VERTEX
  5
28A
330
261
100
AcDbEntity
  8
Ｓ_１_１
  6
CONTINUOUS
 62
     3
100
AcDbVertex
100
AcDb2dVertex
 10
1099.047347
 20
451.7233880000001
 30
0.0
  0
VERTEX
  5
28B
330
261
100
AcDbEntity
  8
Ｓ_１_１
  6
CONTINUOUS
 62
     3
100
AcDbVertex
100
AcDb2dVertex
 10
1099.203099
 20
451.6466330000001
 30
0.0
  0
VERTEX
  5
28C
330
261
100
AcDbEntity
  8
Ｓ_１_１
  6
CONTINUOUS
 62
     3
100
AcDbVertex
100
AcDb2dVertex
 10
1099.359359
 20
451.571421
 30
0.0
  0
VERTEX
  5
28D
330
261
100
AcDbEntity
  8
Ｓ_１_１
  6
CONTINUOUS
 62
     3
100
AcDbVertex
100
AcDb2dVertex
 10
1099.516206
 20
451.4978610000001
 30
0.0
  0
VERTEX
  5
28E
330
261
100
AcDbEntity
  8
Ｓ_１_１
  6
CONTINUOUS
 62
     3
100
AcDbVertex
100
AcDb2dVertex
 10
1099.673719
 20
451.4260590000001
 30
0.0
  0
VERTEX
  5
28F
330
261
100
AcDbEntity
  8
Ｓ_１_１
  6
CONTINUOUS
 62
     3
100
AcDbVertex
100
AcDb2dVertex
 10
1099.831978
 20
451.3561230000001
 30
0.0
  0
VERTEX
  5
290
330
261
100
AcDbEntity
  8
Ｓ_１_１
  6
CONTINUOUS
 62
     3
100
AcDbVertex
100
AcDb2dVertex
 10
1099.99106
 20
451.2881580000001
 30
0.0
  0
VERTEX
  5
291
330
261
100
AcDbEntity
  8
Ｓ_１_１
  6
CONTINUOUS
 62
     3
100
AcDbVertex
100
AcDb2dVertex
 10
1100.151045
 20
451.222272
 30
0.0
  0
VERTEX
  5
292
330
261
100
AcDbEntity
  8
Ｓ_１_１
  6
CONTINUOUS
 62
     3
100
AcDbVertex
100
AcDb2dVertex
 10
1100.312012
 20
451.158572
 30
0.0
  0
SEQEND
  5
293
330
261
100
AcDbEntity
  8
Ｓ_１_１
  6
CONTINUOUS
 62
     3
  0
POLYLINE
  5
294
330
1F
100
AcDbEntity
  8
Ｓ_１_１
  6
CONTINUOUS
 62
     3
100
AcDb2dPolyline
 66
     1
 10
0.0
 20
0.0
 30
0.0
 70
   128
  0
VERTEX
  5
295
330
294
100
AcDbEntity
  8
Ｓ_１_１
  6
CONTINUOUS
 62
     3
100
AcDbVertex
100
AcDb2dVertex
 10
1304.916648
 20
456.0000230000001
 30
0.0
  0
VERTEX
  5
296
330
294
100
AcDbEntity
  8
Ｓ_１_１
  6
CONTINUOUS
 62
     3
100
AcDbVertex
100
AcDb2dVertex
 10
1304.894587
 20
455.845195
 30
0.0
  0
VERTEX
  5
297
330
294
100
AcDbEntity
  8
Ｓ_１_１
  6
CONTINUOUS
 62
     3
100
AcDbVertex
100
AcDb2dVertex
 10
1304.868092
 20
455.689944
 30
0.0
  0
VERTEX
  5
298
330
294
100
AcDbEntity
  8
Ｓ_１_１
  6
CONTINUOUS
 62
     3
100
AcDbVertex
100
AcDb2dVertex
 10
1304.837084
 20
455.534657
 30
0.0
  0
VERTEX
  5
299
330
294
100
AcDbEntity
  8
Ｓ_１_１
  6
CONTINUOUS
 62
     3
100
AcDbVertex
100
AcDb2dVertex
 10
1304.801485
 20
455.379717
 30
0.0
  0
VERTEX
  5
29A
330
294
100
AcDbEntity
  8
Ｓ_１_１
  6
CONTINUOUS
 62
     3
100
AcDbVertex
100
AcDb2dVertex
 10
1304.761215
 20
455.2255090000001
 30
0.0
  0
VERTEX
  5
29B
330
294
100
AcDbEntity
  8
Ｓ_１_１
  6
CONTINUOUS
 62
     3
100
AcDbVertex
100
AcDb2dVertex
 10
1304.716196
 20
455.072418
 30
0.0
  0
VERTEX
  5
29C
330
294
100
AcDbEntity
  8
Ｓ_１_１
  6
CONTINUOUS
 62
     3
100
AcDbVertex
100
AcDb2dVertex
 10
1304.666349
 20
454.920829
 30
0.0
  0
VERTEX
  5
29D
330
294
100
AcDbEntity
  8
Ｓ_１_１
  6
CONTINUOUS
 62
     3
100
AcDbVertex
100
AcDb2dVertex
 10
1304.611595
 20
454.771126
 30
0.0
  0
VERTEX
  5
29E
330
294
100
AcDbEntity
  8
Ｓ_１_１
  6
CONTINUOUS
 62
     3
100
AcDbVertex
100
AcDb2dVertex
 10
1304.551855
 20
454.6236930000001
 30
0.0
  0
VERTEX
  5
29F
330
294
100
AcDbEntity
  8
Ｓ_１_１
  6
CONTINUOUS
 62
     3
100
AcDbVertex
100
AcDb2dVertex
 10
1304.487051
 20
454.478916
 30
0.0
  0
VERTEX
  5
2A0
330
294
100
AcDbEntity
  8
Ｓ_１_１
  6
CONTINUOUS
 62
     3
100
AcDbVertex
100
AcDb2dVertex
 10
1304.417104
 20
454.337179
 30
0.0
  0
VERTEX
  5
2A1
330
294
100
AcDbEntity
  8
Ｓ_１_１
  6
CONTINUOUS
 62
     3
100
AcDbVertex
100
AcDb2dVertex
 10
1304.341935
 20
454.1988660000001
 30
0.0
  0
VERTEX
  5
2A2
330
294
100
AcDbEntity
  8
Ｓ_１_１
  6
CONTINUOUS
 62
     3
100
AcDbVertex
100
AcDb2dVertex
 10
1304.261465
 20
454.064363
 30
0.0
  0
VERTEX
  5
2A3
330
294
100
AcDbEntity
  8
Ｓ_１_１
  6
CONTINUOUS
 62
     3
100
AcDbVertex
100
AcDb2dVertex
 10
1304.175616
 20
453.934053
 30
0.0
  0
VERTEX
  5
2A4
330
294
100
AcDbEntity
  8
Ｓ_１_１
  6
CONTINUOUS
 62
     3
100
AcDbVertex
100
AcDb2dVertex
 10
1304.084309
 20
453.808322
 30
0.0
  0
VERTEX
  5
2A5
330
294
100
AcDbEntity
  8
Ｓ_１_１
  6
CONTINUOUS
 62
     3
100
AcDbVertex
100
AcDb2dVertex
 10
1303.987464
 20
453.687554
 30
0.0
  0
VERTEX
  5
2A6
330
294
100
AcDbEntity
  8
Ｓ_１_１
  6
CONTINUOUS
 62
     3
100
AcDbVertex
100
AcDb2dVertex
 10
1303.896409
 20
453.5842540000001
 30
0.0
  0
VERTEX
  5
2A7
330
294
100
AcDbEntity
  8
Ｓ_１_１
  6
CONTINUOUS
 62
     3
100
AcDbVertex
100
AcDb2dVertex
 10
1303.801173
 20
453.484965
 30
0.0
  0
VERTEX
  5
2A8
330
294
100
AcDbEntity
  8
Ｓ_１_１
  6
CONTINUOUS
 62
     3
100
AcDbVertex
100
AcDb2dVertex
 10
1303.702044
 20
453.3894430000001
 30
0.0
  0
VERTEX
  5
2A9
330
294
100
AcDbEntity
  8
Ｓ_１_１
  6
CONTINUOUS
 62
     3
100
AcDbVertex
100
AcDb2dVertex
 10
1303.599309
 20
453.2974470000001
 30
0.0
  0
VERTEX
  5
2AA
330
294
100
AcDbEntity
  8
Ｓ_１_１
  6
CONTINUOUS
 62
     3
100
AcDbVertex
100
AcDb2dVertex
 10
1303.493255
 20
453.208734
 30
0.0
  0
VERTEX
  5
2AB
330
294
100
AcDbEntity
  8
Ｓ_１_１
  6
CONTINUOUS
 62
     3
100
AcDbVertex
100
AcDb2dVertex
 10
1303.38417
 20
453.1230610000001
 30
0.0
  0
VERTEX
  5
2AC
330
294
100
AcDbEntity
  8
Ｓ_１_１
  6
CONTINUOUS
 62
     3
100
AcDbVertex
100
AcDb2dVertex
 10
1303.272341
 20
453.040185
 30
0.0
  0
VERTEX
  5
2AD
330
294
100
AcDbEntity
  8
Ｓ_１_１
  6
CONTINUOUS
 62
     3
100
AcDbVertex
100
AcDb2dVertex
 10
1303.158056
 20
452.9598650000001
 30
0.0
  0
VERTEX
  5
2AE
330
294
100
AcDbEntity
  8
Ｓ_１_１
  6
CONTINUOUS
 62
     3
100
AcDbVertex
100
AcDb2dVertex
 10
1303.041602
 20
452.881857
 30
0.0
  0
VERTEX
  5
2AF
330
294
100
AcDbEntity
  8
Ｓ_１_１
  6
CONTINUOUS
 62
     3
100
AcDbVertex
100
AcDb2dVertex
 10
1302.923266
 20
452.80592
 30
0.0
  0
VERTEX
  5
2B0
330
294
100
AcDbEntity
  8
Ｓ_１_１
  6
CONTINUOUS
 62
     3
100
AcDbVertex
100
AcDb2dVertex
 10
1302.803335
 20
452.7318100000001
 30
0.0
  0
VERTEX
  5
2B1
330
294
100
AcDbEntity
  8
Ｓ_１_１
  6
CONTINUOUS
 62
     3
100
AcDbVertex
100
AcDb2dVertex
 10
1302.682098
 20
452.6592840000001
 30
0.0
  0
VERTEX
  5
2B2
330
294
100
AcDbEntity
  8
Ｓ_１_１
  6
CONTINUOUS
 62
     3
100
AcDbVertex
100
AcDb2dVertex
 10
1302.559841
 20
452.5881010000001
 30
0.0
  0
VERTEX
  5
2B3
330
294
100
AcDbEntity
  8
Ｓ_１_１
  6
CONTINUOUS
 62
     3
100
AcDbVertex
100
AcDb2dVertex
 10
1302.436852
 20
452.518018
 30
0.0
  0
VERTEX
  5
2B4
330
294
100
AcDbEntity
  8
Ｓ_１_１
  6
CONTINUOUS
 62
     3
100
AcDbVertex
100
AcDb2dVertex
 10
1302.313417
 20
452.4487920000001
 30
0.0
  0
VERTEX
  5
2B5
330
294
100
AcDbEntity
  8
Ｓ_１_１
  6
CONTINUOUS
 62
     3
100
AcDbVertex
100
AcDb2dVertex
 10
1302.189826
 20
452.380181
 30
0.0
  0
VERTEX
  5
2B6
330
294
100
AcDbEntity
  8
Ｓ_１_１
  6
CONTINUOUS
 62
     3
100
AcDbVertex
100
AcDb2dVertex
 10
1302.035294
 20
452.2949250000001
 30
0.0
  0
VERTEX
  5
2B7
330
294
100
AcDbEntity
  8
Ｓ_１_１
  6
CONTINUOUS
 62
     3
100
AcDbVertex
100
AcDb2dVertex
 10
1301.880886
 20
452.210358
 30
0.0
  0
VERTEX
  5
2B8
330
294
100
AcDbEntity
  8
Ｓ_１_１
  6
CONTINUOUS
 62
     3
100
AcDbVertex
100
AcDb2dVertex
 10
1301.726522
 20
452.126587
 30
0.0
  0
VERTEX
  5
2B9
330
294
100
AcDbEntity
  8
Ｓ_１_１
  6
CONTINUOUS
 62
     3
100
AcDbVertex
100
AcDb2dVertex
 10
1301.572125
 20
452.0437200000001
 30
0.0
  0
VERTEX
  5
2BA
330
294
100
AcDbEntity
  8
Ｓ_１_１
  6
CONTINUOUS
 62
     3
100
AcDbVertex
100
AcDb2dVertex
 10
1301.417615
 20
451.9618630000001
 30
0.0
  0
VERTEX
  5
2BB
330
294
100
AcDbEntity
  8
Ｓ_１_１
  6
CONTINUOUS
 62
     3
100
AcDbVertex
100
AcDb2dVertex
 10
1301.262913
 20
451.881122
 30
0.0
  0
VERTEX
  5
2BC
330
294
100
AcDbEntity
  8
Ｓ_１_１
  6
CONTINUOUS
 62
     3
100
AcDbVertex
100
AcDb2dVertex
 10
1301.107939
 20
451.801605
 30
0.0
  0
VERTEX
  5
2BD
330
294
100
AcDbEntity
  8
Ｓ_１_１
  6
CONTINUOUS
 62
     3
100
AcDbVertex
100
AcDb2dVertex
 10
1300.952616
 20
451.723418
 30
0.0
  0
VERTEX
  5
2BE
330
294
100
AcDbEntity
  8
Ｓ_１_１
  6
CONTINUOUS
 62
     3
100
AcDbVertex
100
AcDb2dVertex
 10
1300.796864
 20
451.646669
 30
0.0
  0
VERTEX
  5
2BF
330
294
100
AcDbEntity
  8
Ｓ_１_１
  6
CONTINUOUS
 62
     3
100
AcDbVertex
100
AcDb2dVertex
 10
1300.640604
 20
451.571464
 30
0.0
  0
VERTEX
  5
2C0
330
294
100
AcDbEntity
  8
Ｓ_１_１
  6
CONTINUOUS
 62
     3
100
AcDbVertex
100
AcDb2dVertex
 10
1300.483756
 20
451.49791
 30
0.0
  0
VERTEX
  5
2C1
330
294
100
AcDbEntity
  8
Ｓ_１_１
  6
CONTINUOUS
 62
     3
100
AcDbVertex
100
AcDb2dVertex
 10
1300.326243
 20
451.426114
 30
0.0
  0
VERTEX
  5
2C2
330
294
100
AcDbEntity
  8
Ｓ_１_１
  6
CONTINUOUS
 62
     3
100
AcDbVertex
100
AcDb2dVertex
 10
1300.167985
 20
451.3561830000001
 30
0.0
  0
VERTEX
  5
2C3
330
294
100
AcDbEntity
  8
Ｓ_１_１
  6
CONTINUOUS
 62
     3
100
AcDbVertex
100
AcDb2dVertex
 10
1300.008903
 20
451.2882230000001
 30
0.0
  0
VERTEX
  5
2C4
330
294
100
AcDbEntity
  8
Ｓ_１_１
  6
CONTINUOUS
 62
     3
100
AcDbVertex
100
AcDb2dVertex
 10
1299.848918
 20
451.2223410000001
 30
0.0
  0
VERTEX
  5
2C5
330
294
100
AcDbEntity
  8
Ｓ_１_１
  6
CONTINUOUS
 62
     3
100
AcDbVertex
100
AcDb2dVertex
 10
1299.687951
 20
451.158645
 30
0.0
  0
SEQEND
  5
2C6
330
294
100
AcDbEntity
  8
Ｓ_１_１
  6
CONTINUOUS
 62
     3
  0
POLYLINE
  5
2C7
330
1F
100
AcDbEntity
  8
Ｓ_１_１
  6
CONTINUOUS
 62
     3
100
AcDb2dPolyline
 66
     1
 10
0.0
 20
0.0
 30
0.0
 70
   128
  0
VERTEX
  5
2C8
330
2C7
100
AcDbEntity
  8
Ｓ_１_１
  6
CONTINUOUS
 62
     3
100
AcDbVertex
100
AcDb2dVertex
 10
1304.916648
 20
494.0000150000001
 30
0.0
  0
VERTEX
  5
2C9
330
2C7
100
AcDbEntity
  8
Ｓ_１_１
  6
CONTINUOUS
 62
     3
100
AcDbVertex
100
AcDb2dVertex
 10
1304.894587
 20
494.1548440000001
 30
0.0
  0
VERTEX
  5
2CA
330
2C7
100
AcDbEntity
  8
Ｓ_１_１
  6
CONTINUOUS
 62
     3
100
AcDbVertex
100
AcDb2dVertex
 10
1304.868093
 20
494.310095
 30
0.0
  0
VERTEX
  5
2CB
330
2C7
100
AcDbEntity
  8
Ｓ_１_１
  6
CONTINUOUS
 62
     3
100
AcDbVertex
100
AcDb2dVertex
 10
1304.837085
 20
494.4653840000001
 30
0.0
  0
VERTEX
  5
2CC
330
2C7
100
AcDbEntity
  8
Ｓ_１_１
  6
CONTINUOUS
 62
     3
100
AcDbVertex
100
AcDb2dVertex
 10
1304.801487
 20
494.620325
 30
0.0
  0
VERTEX
  5
2CD
330
2C7
100
AcDbEntity
  8
Ｓ_１_１
  6
CONTINUOUS
 62
     3
100
AcDbVertex
100
AcDb2dVertex
 10
1304.761217
 20
494.774535
 30
0.0
  0
VERTEX
  5
2CE
330
2C7
100
AcDbEntity
  8
Ｓ_１_１
  6
CONTINUOUS
 62
     3
100
AcDbVertex
100
AcDb2dVertex
 10
1304.716199
 20
494.9276280000001
 30
0.0
  0
VERTEX
  5
2CF
330
2C7
100
AcDbEntity
  8
Ｓ_１_１
  6
CONTINUOUS
 62
     3
100
AcDbVertex
100
AcDb2dVertex
 10
1304.666353
 20
495.07922
 30
0.0
  0
VERTEX
  5
2D0
330
2C7
100
AcDbEntity
  8
Ｓ_１_１
  6
CONTINUOUS
 62
     3
100
AcDbVertex
100
AcDb2dVertex
 10
1304.6116
 20
495.228926
 30
0.0
  0
VERTEX
  5
2D1
330
2C7
100
AcDbEntity
  8
Ｓ_１_１
  6
CONTINUOUS
 62
     3
100
AcDbVertex
100
AcDb2dVertex
 10
1304.551861
 20
495.3763610000001
 30
0.0
  0
VERTEX
  5
2D2
330
2C7
100
AcDbEntity
  8
Ｓ_１_１
  6
CONTINUOUS
 62
     3
100
AcDbVertex
100
AcDb2dVertex
 10
1304.487057
 20
495.5211420000001
 30
0.0
  0
VERTEX
  5
2D3
330
2C7
100
AcDbEntity
  8
Ｓ_１_１
  6
CONTINUOUS
 62
     3
100
AcDbVertex
100
AcDb2dVertex
 10
1304.41711
 20
495.662882
 30
0.0
  0
VERTEX
  5
2D4
330
2C7
100
AcDbEntity
  8
Ｓ_１_１
  6
CONTINUOUS
 62
     3
100
AcDbVertex
100
AcDb2dVertex
 10
1304.341941
 20
495.8011980000001
 30
0.0
  0
VERTEX
  5
2D5
330
2C7
100
AcDbEntity
  8
Ｓ_１_１
  6
CONTINUOUS
 62
     3
100
AcDbVertex
100
AcDb2dVertex
 10
1304.26147
 20
495.9357050000002
 30
0.0
  0
VERTEX
  5
2D6
330
2C7
100
AcDbEntity
  8
Ｓ_１_１
  6
CONTINUOUS
 62
     3
100
AcDbVertex
100
AcDb2dVertex
 10
1304.17562
 20
496.0660170000001
 30
0.0
  0
VERTEX
  5
2D7
330
2C7
100
AcDbEntity
  8
Ｓ_１_１
  6
CONTINUOUS
 62
     3
100
AcDbVertex
100
AcDb2dVertex
 10
1304.084311
 20
496.1917520000002
 30
0.0
  0
VERTEX
  5
2D8
330
2C7
100
AcDbEntity
  8
Ｓ_１_１
  6
CONTINUOUS
 62
     3
100
AcDbVertex
100
AcDb2dVertex
 10
1303.987464
 20
496.3125230000001
 30
0.0
  0
VERTEX
  5
2D9
330
2C7
100
AcDbEntity
  8
Ｓ_１_１
  6
CONTINUOUS
 62
     3
100
AcDbVertex
100
AcDb2dVertex
 10
1303.896409
 20
496.4158220000002
 30
0.0
  0
VERTEX
  5
2DA
330
2C7
100
AcDbEntity
  8
Ｓ_１_１
  6
CONTINUOUS
 62
     3
100
AcDbVertex
100
AcDb2dVertex
 10
1303.801173
 20
496.51511
 30
0.0
  0
VERTEX
  5
2DB
330
2C7
100
AcDbEntity
  8
Ｓ_１_１
  6
CONTINUOUS
 62
     3
100
AcDbVertex
100
AcDb2dVertex
 10
1303.702043
 20
496.6106300000001
 30
0.0
  0
VERTEX
  5
2DC
330
2C7
100
AcDbEntity
  8
Ｓ_１_１
  6
CONTINUOUS
 62
     3
100
AcDbVertex
100
AcDb2dVertex
 10
1303.599307
 20
496.702624
 30
0.0
  0
VERTEX
  5
2DD
330
2C7
100
AcDbEntity
  8
Ｓ_１_１
  6
CONTINUOUS
 62
     3
100
AcDbVertex
100
AcDb2dVertex
 10
1303.493253
 20
496.7913350000001
 30
0.0
  0
VERTEX
  5
2DE
330
2C7
100
AcDbEntity
  8
Ｓ_１_１
  6
CONTINUOUS
 62
     3
100
AcDbVertex
100
AcDb2dVertex
 10
1303.384167
 20
496.8770050000001
 30
0.0
  0
VERTEX
  5
2DF
330
2C7
100
AcDbEntity
  8
Ｓ_１_１
  6
CONTINUOUS
 62
     3
100
AcDbVertex
100
AcDb2dVertex
 10
1303.272338
 20
496.959877
 30
0.0
  0
VERTEX
  5
2E0
330
2C7
100
AcDbEntity
  8
Ｓ_１_１
  6
CONTINUOUS
 62
     3
100
AcDbVertex
100
AcDb2dVertex
 10
1303.158052
 20
497.0401940000001
 30
0.0
  0
VERTEX
  5
2E1
330
2C7
100
AcDbEntity
  8
Ｓ_１_１
  6
CONTINUOUS
 62
     3
100
AcDbVertex
100
AcDb2dVertex
 10
1303.041598
 20
497.1181990000001
 30
0.0
  0
VERTEX
  5
2E2
330
2C7
100
AcDbEntity
  8
Ｓ_１_１
  6
CONTINUOUS
 62
     3
100
AcDbVertex
100
AcDb2dVertex
 10
1302.923261
 20
497.194133
 30
0.0
  0
VERTEX
  5
2E3
330
2C7
100
AcDbEntity
  8
Ｓ_１_１
  6
CONTINUOUS
 62
     3
100
AcDbVertex
100
AcDb2dVertex
 10
1302.803331
 20
497.2682400000001
 30
0.0
  0
VERTEX
  5
2E4
330
2C7
100
AcDbEntity
  8
Ｓ_１_１
  6
CONTINUOUS
 62
     3
100
AcDbVertex
100
AcDb2dVertex
 10
1302.682094
 20
497.340762
 30
0.0
  0
VERTEX
  5
2E5
330
2C7
100
AcDbEntity
  8
Ｓ_１_１
  6
CONTINUOUS
 62
     3
100
AcDbVertex
100
AcDb2dVertex
 10
1302.559837
 20
497.4119430000001
 30
0.0
  0
VERTEX
  5
2E6
330
2C7
100
AcDbEntity
  8
Ｓ_１_１
  6
CONTINUOUS
 62
     3
100
AcDbVertex
100
AcDb2dVertex
 10
1302.436849
 20
497.482023
 30
0.0
  0
VERTEX
  5
2E7
330
2C7
100
AcDbEntity
  8
Ｓ_１_１
  6
CONTINUOUS
 62
     3
100
AcDbVertex
100
AcDb2dVertex
 10
1302.313416
 20
497.551248
 30
0.0
  0
VERTEX
  5
2E8
330
2C7
100
AcDbEntity
  8
Ｓ_１_１
  6
CONTINUOUS
 62
     3
100
AcDbVertex
100
AcDb2dVertex
 10
1302.189826
 20
497.619858
 30
0.0
  0
VERTEX
  5
2E9
330
2C7
100
AcDbEntity
  8
Ｓ_１_１
  6
CONTINUOUS
 62
     3
100
AcDbVertex
100
AcDb2dVertex
 10
1302.035293
 20
497.7051140000001
 30
0.0
  0
VERTEX
  5
2EA
330
2C7
100
AcDbEntity
  8
Ｓ_１_１
  6
CONTINUOUS
 62
     3
100
AcDbVertex
100
AcDb2dVertex
 10
1301.880885
 20
497.7896820000001
 30
0.0
  0
VERTEX
  5
2EB
330
2C7
100
AcDbEntity
  8
Ｓ_１_１
  6
CONTINUOUS
 62
     3
100
AcDbVertex
100
AcDb2dVertex
 10
1301.726522
 20
497.8734540000001
 30
0.0
  0
VERTEX
  5
2EC
330
2C7
100
AcDbEntity
  8
Ｓ_１_１
  6
CONTINUOUS
 62
     3
100
AcDbVertex
100
AcDb2dVertex
 10
1301.572124
 20
497.9563230000001
 30
0.0
  0
VERTEX
  5
2ED
330
2C7
100
AcDbEntity
  8
Ｓ_１_１
  6
CONTINUOUS
 62
     3
100
AcDbVertex
100
AcDb2dVertex
 10
1301.417614
 20
498.0381830000001
 30
0.0
  0
VERTEX
  5
2EE
330
2C7
100
AcDbEntity
  8
Ｓ_１_１
  6
CONTINUOUS
 62
     3
100
AcDbVertex
100
AcDb2dVertex
 10
1301.262911
 20
498.118927
 30
0.0
  0
VERTEX
  5
2EF
330
2C7
100
AcDbEntity
  8
Ｓ_１_１
  6
CONTINUOUS
 62
     3
100
AcDbVertex
100
AcDb2dVertex
 10
1301.107938
 20
498.1984469999999
 30
0.0
  0
VERTEX
  5
2F0
330
2C7
100
AcDbEntity
  8
Ｓ_１_１
  6
CONTINUOUS
 62
     3
100
AcDbVertex
100
AcDb2dVertex
 10
1300.952614
 20
498.2766360000001
 30
0.0
  0
VERTEX
  5
2F1
330
2C7
100
AcDbEntity
  8
Ｓ_１_１
  6
CONTINUOUS
 62
     3
100
AcDbVertex
100
AcDb2dVertex
 10
1300.796862
 20
498.3533890000001
 30
0.0
  0
VERTEX
  5
2F2
330
2C7
100
AcDbEntity
  8
Ｓ_１_１
  6
CONTINUOUS
 62
     3
100
AcDbVertex
100
AcDb2dVertex
 10
1300.640601
 20
498.4285970000001
 30
0.0
  0
VERTEX
  5
2F3
330
2C7
100
AcDbEntity
  8
Ｓ_１_１
  6
CONTINUOUS
 62
     3
100
AcDbVertex
100
AcDb2dVertex
 10
1300.483754
 20
498.5021540000001
 30
0.0
  0
VERTEX
  5
2F4
330
2C7
100
AcDbEntity
  8
Ｓ_１_１
  6
CONTINUOUS
 62
     3
100
AcDbVertex
100
AcDb2dVertex
 10
1300.32624
 20
498.573953
 30
0.0
  0
VERTEX
  5
2F5
330
2C7
100
AcDbEntity
  8
Ｓ_１_１
  6
CONTINUOUS
 62
     3
100
AcDbVertex
100
AcDb2dVertex
 10
1300.167982
 20
498.6438870000001
 30
0.0
  0
VERTEX
  5
2F6
330
2C7
100
AcDbEntity
  8
Ｓ_１_１
  6
CONTINUOUS
 62
     3
100
AcDbVertex
100
AcDb2dVertex
 10
1300.008899
 20
498.7118500000001
 30
0.0
  0
VERTEX
  5
2F7
330
2C7
100
AcDbEntity
  8
Ｓ_１_１
  6
CONTINUOUS
 62
     3
100
AcDbVertex
100
AcDb2dVertex
 10
1299.848914
 20
498.7777330000001
 30
0.0
  0
VERTEX
  5
2F8
330
2C7
100
AcDbEntity
  8
Ｓ_１_１
  6
CONTINUOUS
 62
     3
100
AcDbVertex
100
AcDb2dVertex
 10
1299.687947
 20
498.8414310000001
 30
0.0
  0
SEQEND
  5
2F9
330
2C7
100
AcDbEntity
  8
Ｓ_１_１
  6
CONTINUOUS
 62
     3
  0
LINE
  5
2FA
330
1F
100
AcDbEntity
  8
Ｓ_１_１
  6
EXLTYPE2
 62
     1
100
AcDbLine
 10
1053.708766
 20
475.0000000000001
 30
0.0
 11
1345.643271
 21
475.0000000000001
 31
0.0
  0
LINE
  5
2FB
330
1F
100
AcDbEntity
  8
Ｓ_１_１
  6
EXLTYPE2
 62
     1
100
AcDbLine
 10
1075.499995
 20
495.5416110000002
 30
0.0
 11
1075.499995
 21
453.862038
 31
0.0
  0
LINE
  5
2FC
330
1F
100
AcDbEntity
  8
Ｓ_１_１
  6
EXLTYPE2
 62
     1
100
AcDbLine
 10
1324.500006
 20
495.5416110000002
 30
0.0
 11
1324.500006
 21
453.862038
 31
0.0
  0
LINE
  5
2FD
330
1F
100
AcDbEntity
  8
Ｓ_１_１
  6
EXLTYPE2
 62
     1
100
AcDbLine
 10
1200.0
 20
666.4341900000002
 30
0.0
 11
1200.0
 21
368.2082000000001
 31
0.0
  0
CIRCLE
  5
2FE
330
1F
100
AcDbEntity
  8
Ｓ_１_１
  6
EXLTYPE2
 62
     1
100
AcDbCircle
 10
1200.0
 20
475.0000000000001
 30
0.0
 40
69.999999
  0
CIRCLE
  5
2FF
330
1F
100
AcDbEntity
  8
Ｓ_１_１
  6
EXLTYPE2
 62
     1
100
AcDbCircle
 10
1200.0
 20
475.0000000000001
 30
0.0
 40
39.999999
  0
LINE
  5
300
330
1F
100
AcDbEntity
  8
Ｓ_１_１
  6
EXLTYPE2
 62
     1
100
AcDbLine
 10
128.7087783813475
 20
474.9999999999999
 30
0.0
 11
420.6432418823241
 21
474.9999999999999
 31
0.0
  0
CIRCLE
  5
301
330
1F
100
AcDbEntity
  8
Ｓ_１_１
  6
EXLTYPE2
 62
     1
100
AcDbCircle
 10
274.9999999999999
 20
474.9999999999999
 30
0.0
 40
48.5
  0
CIRCLE
  5
302
330
1F
100
AcDbEntity
  8
Ｓ_１_１
  6
EXLTYPE2
 62
     1
100
AcDbCircle
 10
274.9999999999999
 20
474.9999999999999
 30
0.0
 40
82.0
  0
LINE
  5
303
330
1F
100
AcDbEntity
  8
Ｓ_１_１
  6
EXLTYPE2
 62
     1
100
AcDbLine
 10
302.2236149572145
 20
447.7763946011709
 30
0.0
 11
316.3657503389131
 21
433.6342592194723
 31
0.0
  0
LINE
  5
304
330
1F
100
AcDbEntity
  8
Ｓ_１_１
  6
EXLTYPE2
 62
     1
100
AcDbLine
 10
302.223609562418
 20
502.2236104259141
 30
0.0
 11
316.3657449441166
 21
516.3657458076127
 31
0.0
  0
LINE
  5
305
330
1F
100
AcDbEntity
  8
Ｓ_１_１
  6
EXLTYPE2
 62
     1
100
AcDbLine
 10
233.6342583559762
 20
516.3657512024092
 30
0.0
 11
247.7763937376748
 21
502.2236158207105
 31
0.0
  0
LINE
  5
306
330
1F
100
AcDbEntity
  8
Ｓ_１_１
  6
EXLTYPE2
 62
     1
100
AcDbLine
 10
233.6342583559762
 20
433.6342592194723
 30
0.0
 11
247.7763937376748
 21
447.7763946011709
 31
0.0
  0
LINE
  5
307
330
1F
100
AcDbEntity
  8
Ｓ_１_１
  6
EXLTYPE2
 62
     1
100
AcDbLine
 10
399.4999923706054
 20
495.5415954589843
 30
0.0
 11
399.4999923706054
 21
453.8619995117187
 31
0.0
  0
LINE
  5
308
330
1F
100
AcDbEntity
  8
Ｓ_１_１
  6
EXLTYPE2
 62
     1
100
AcDbLine
 10
150.4999961853026
 20
495.5415954589843
 30
0.0
 11
150.4999961853026
 21
453.8619995117187
 31
0.0
  0
POLYLINE
  5
309
330
1F
100
AcDbEntity
  8
Ｓ_１_１
  6
CONTINUOUS
 62
     3
100
AcDb2dPolyline
 66
     1
 10
0.0
 20
0.0
 30
0.0
 70
   128
  0
VERTEX
  5
30A
330
309
100
AcDbEntity
  8
Ｓ_１_１
  6
CONTINUOUS
 62
     3
100
AcDbVertex
100
AcDb2dVertex
 10
379.916648864746
 20
493.9999999999999
 30
0.0
  0
VERTEX
  5
30B
330
309
100
AcDbEntity
  8
Ｓ_１_１
  6
CONTINUOUS
 62
     3
100
AcDbVertex
100
AcDb2dVertex
 10
379.9133221622442
 20
494.0171840252228
 30
0.0
  0
VERTEX
  5
30C
330
309
100
AcDbEntity
  8
Ｓ_１_１
  6
CONTINUOUS
 62
     3
100
AcDbVertex
100
AcDb2dVertex
 10
379.9036642923813
 20
494.0659249866025
 30
0.0
  0
VERTEX
  5
30D
330
309
100
AcDbEntity
  8
Ｓ_１_１
  6
CONTINUOUS
 62
     3
100
AcDbVertex
100
AcDb2dVertex
 10
379.8881586116211
 20
494.1420062127042
 30
0.0
  0
VERTEX
  5
30E
330
309
100
AcDbEntity
  8
Ｓ_１_１
  6
CONTINUOUS
 62
     3
100
AcDbVertex
100
AcDb2dVertex
 10
379.8672884764273
 20
494.2412110320939
 30
0.0
  0
VERTEX
  5
30F
330
309
100
AcDbEntity
  8
Ｓ_１_１
  6
CONTINUOUS
 62
     3
100
AcDbVertex
100
AcDb2dVertex
 10
379.8415372432638
 20
494.3593227733371
 30
0.0
  0
VERTEX
  5
310
330
309
100
AcDbEntity
  8
Ｓ_１_１
  6
CONTINUOUS
 62
     3
100
AcDbVertex
100
AcDb2dVertex
 10
379.8113882685941
 20
494.4921247649994
 30
0.0
  0
VERTEX
  5
311
330
309
100
AcDbEntity
  8
Ｓ_１_１
  6
CONTINUOUS
 62
     3
100
AcDbVertex
100
AcDb2dVertex
 10
379.7773249088822
 20
494.6354003356469
 30
0.0
  0
VERTEX
  5
312
330
309
100
AcDbEntity
  8
Ｓ_１_１
  6
CONTINUOUS
 62
     3
100
AcDbVertex
100
AcDb2dVertex
 10
379.7398305205916
 20
494.7849328138448
 30
0.0
  0
VERTEX
  5
313
330
309
100
AcDbEntity
  8
Ｓ_１_１
  6
CONTINUOUS
 62
     3
100
AcDbVertex
100
AcDb2dVertex
 10
379.6993884601863
 20
494.936505528159
 30
0.0
  0
VERTEX
  5
314
330
309
100
AcDbEntity
  8
Ｓ_１_１
  6
CONTINUOUS
 62
     3
100
AcDbVertex
100
AcDb2dVertex
 10
379.6564820841298
 20
495.0859018071553
 30
0.0
  0
VERTEX
  5
315
330
309
100
AcDbEntity
  8
Ｓ_１_１
  6
CONTINUOUS
 62
     3
100
AcDbVertex
100
AcDb2dVertex
 10
379.611594748886
 20
495.228904979399
 30
0.0
  0
VERTEX
  5
316
330
309
100
AcDbEntity
  8
Ｓ_１_１
  6
CONTINUOUS
 62
     3
100
AcDbVertex
100
AcDb2dVertex
 10
379.5656854299688
 20
495.3605699609088
 30
0.0
  0
VERTEX
  5
317
330
309
100
AcDbEntity
  8
Ｓ_１_１
  6
CONTINUOUS
 62
     3
100
AcDbVertex
100
AcDb2dVertex
 10
379.518139045479
 20
495.4828159879837
 30
0.0
  0
VERTEX
  5
318
330
309
100
AcDbEntity
  8
Ｓ_１_１
  6
CONTINUOUS
 62
     3
100
AcDbVertex
100
AcDb2dVertex
 10
379.4687792076083
 20
495.596572289217
 30
0.0
  0
VERTEX
  5
319
330
309
100
AcDbEntity
  8
Ｓ_１_１
  6
CONTINUOUS
 62
     3
100
AcDbVertex
100
AcDb2dVertex
 10
379.4174295285493
 20
495.7027680932024
 30
0.0
  0
VERTEX
  5
31A
330
309
100
AcDbEntity
  8
Ｓ_１_１
  6
CONTINUOUS
 62
     3
100
AcDbVertex
100
AcDb2dVertex
 10
379.3639136204939
 20
495.802332628533
 30
0.0
  0
VERTEX
  5
31B
330
309
100
AcDbEntity
  8
Ｓ_１_１
  6
CONTINUOUS
 62
     3
100
AcDbVertex
100
AcDb2dVertex
 10
379.3080550956342
 20
495.8961951238024
 30
0.0
  0
VERTEX
  5
31C
330
309
100
AcDbEntity
  8
Ｓ_１_１
  6
CONTINUOUS
 62
     3
100
AcDbVertex
100
AcDb2dVertex
 10
379.2496775661625
 20
495.985284807604
 30
0.0
  0
VERTEX
  5
31D
330
309
100
AcDbEntity
  8
Ｓ_１_１
  6
CONTINUOUS
 62
     3
100
AcDbVertex
100
AcDb2dVertex
 10
379.1886046442706
 20
496.0705309085311
 30
0.0
  0
VERTEX
  5
31E
330
309
100
AcDbEntity
  8
Ｓ_１_１
  6
CONTINUOUS
 62
     3
100
AcDbVertex
100
AcDb2dVertex
 10
379.1246599421509
 20
496.1528626551771
 30
0.0
  0
VERTEX
  5
31F
330
309
100
AcDbEntity
  8
Ｓ_１_１
  6
CONTINUOUS
 62
     3
100
AcDbVertex
100
AcDb2dVertex
 10
379.0576670719952
 20
496.2332092761357
 30
0.0
  0
VERTEX
  5
320
330
309
100
AcDbEntity
  8
Ｓ_１_１
  6
CONTINUOUS
 62
     3
100
AcDbVertex
100
AcDb2dVertex
 10
378.987449645996
 20
496.3125
 30
0.0
  0
VERTEX
  5
321
330
309
100
AcDbEntity
  8
Ｓ_１_１
  6
CONTINUOUS
 62
     3
100
AcDbVertex
100
AcDb2dVertex
 10
378.9227169382501
 20
496.382194322057
 30
0.0
  0
VERTEX
  5
322
330
309
100
AcDbEntity
  8
Ｓ_１_１
  6
CONTINUOUS
 62
     3
100
AcDbVertex
100
AcDb2dVertex
 10
378.8554650814388
 20
496.4516375851235
 30
0.0
  0
VERTEX
  5
323
330
309
100
AcDbEntity
  8
Ｓ_１_１
  6
CONTINUOUS
 62
     3
100
AcDbVertex
100
AcDb2dVertex
 10
378.7858226568405
 20
496.5206773452019
 30
0.0
  0
VERTEX
  5
324
330
309
100
AcDbEntity
  8
Ｓ_１_１
  6
CONTINUOUS
 62
     3
100
AcDbVertex
100
AcDb2dVertex
 10
378.713918245734
 20
496.5891611582942
 30
0.0
  0
VERTEX
  5
325
330
309
100
AcDbEntity
  8
Ｓ_１_１
  6
CONTINUOUS
 62
     3
100
AcDbVertex
100
AcDb2dVertex
 10
378.6398804293975
 20
496.6569365804027
 30
0.0
  0
VERTEX
  5
326
330
309
100
AcDbEntity
  8
Ｓ_１_１
  6
CONTINUOUS
 62
     3
100
AcDbVertex
100
AcDb2dVertex
 10
378.5638377891096
 20
496.7238511675296
 30
0.0
  0
VERTEX
  5
327
330
309
100
AcDbEntity
  8
Ｓ_１_１
  6
CONTINUOUS
 62
     3
100
AcDbVertex
100
AcDb2dVertex
 10
378.4859189061489
 20
496.7897524756772
 30
0.0
  0
VERTEX
  5
328
330
309
100
AcDbEntity
  8
Ｓ_１_１
  6
CONTINUOUS
 62
     3
100
AcDbVertex
100
AcDb2dVertex
 10
378.4062523617938
 20
496.8544880608475
 30
0.0
  0
VERTEX
  5
329
330
309
100
AcDbEntity
  8
Ｓ_１_１
  6
CONTINUOUS
 62
     3
100
AcDbVertex
100
AcDb2dVertex
 10
378.3249667373226
 20
496.917905479043
 30
0.0
  0
VERTEX
  5
32A
330
309
100
AcDbEntity
  8
Ｓ_１_１
  6
CONTINUOUS
 62
     3
100
AcDbVertex
100
AcDb2dVertex
 10
378.2421906140141
 20
496.9798522862657
 30
0.0
  0
VERTEX
  5
32B
330
309
100
AcDbEntity
  8
Ｓ_１_１
  6
CONTINUOUS
 62
     3
100
AcDbVertex
100
AcDb2dVertex
 10
378.1580525731467
 20
497.0401760385179
 30
0.0
  0
VERTEX
  5
32C
330
309
100
AcDbEntity
  8
Ｓ_１_１
  6
CONTINUOUS
 62
     3
100
AcDbVertex
100
AcDb2dVertex
 10
378.0707501579103
 20
497.1000791645316
 30
0.0
  0
VERTEX
  5
32D
330
309
100
AcDbEntity
  8
Ｓ_１_１
  6
CONTINUOUS
 62
     3
100
AcDbVertex
100
AcDb2dVertex
 10
377.9824443309434
 20
497.1582290683692
 30
0.0
  0
VERTEX
  5
32E
330
309
100
AcDbEntity
  8
Ｓ_１_１
  6
CONTINUOUS
 62
     3
100
AcDbVertex
100
AcDb2dVertex
 10
377.8934217823294
 20
497.2147297459359
 30
0.0
  0
VERTEX
  5
32F
330
309
100
AcDbEntity
  8
Ｓ_１_１
  6
CONTINUOUS
 62
     3
100
AcDbVertex
100
AcDb2dVertex
 10
377.8039692021514
 20
497.2696851931364
 30
0.0
  0
VERTEX
  5
330
330
309
100
AcDbEntity
  8
Ｓ_１_１
  6
CONTINUOUS
 62
     3
100
AcDbVertex
100
AcDb2dVertex
 10
377.7143732804929
 20
497.3231994058757
 30
0.0
  0
VERTEX
  5
331
330
309
100
AcDbEntity
  8
Ｓ_１_１
  6
CONTINUOUS
 62
     3
100
AcDbVertex
100
AcDb2dVertex
 10
377.6249207074374
 20
497.3753763800585
 30
0.0
  0
VERTEX
  5
332
330
309
100
AcDbEntity
  8
Ｓ_１_１
  6
CONTINUOUS
 62
     3
100
AcDbVertex
100
AcDb2dVertex
 10
377.5358981730681
 20
497.4263201115897
 30
0.0
  0
VERTEX
  5
333
330
309
100
AcDbEntity
  8
Ｓ_１_１
  6
CONTINUOUS
 62
     3
100
AcDbVertex
100
AcDb2dVertex
 10
377.4475923674685
 20
497.4761345963742
 30
0.0
  0
VERTEX
  5
334
330
309
100
AcDbEntity
  8
Ｓ_１_１
  6
CONTINUOUS
 62
     3
100
AcDbVertex
100
AcDb2dVertex
 10
377.3602899807217
 20
497.5249238303171
 30
0.0
  0
VERTEX
  5
335
330
309
100
AcDbEntity
  8
Ｓ_１_１
  6
CONTINUOUS
 62
     3
100
AcDbVertex
100
AcDb2dVertex
 10
377.2742777029115
 20
497.5727918093228
 30
0.0
  0
VERTEX
  5
336
330
309
100
AcDbEntity
  8
Ｓ_１_１
  6
CONTINUOUS
 62
     3
100
AcDbVertex
100
AcDb2dVertex
 10
377.1898422241209
 20
497.6198425292966
 30
0.0
  0
VERTEX
  5
337
330
309
100
AcDbEntity
  8
Ｓ_１_１
  6
CONTINUOUS
 62
     3
100
AcDbVertex
100
AcDb2dVertex
 10
377.0873656302997
 20
497.6772956556803
 30
0.0
  0
VERTEX
  5
338
330
309
100
AcDbEntity
  8
Ｓ_１_１
  6
CONTINUOUS
 62
     3
100
AcDbVertex
100
AcDb2dVertex
 10
376.9865425518175
 20
497.7340372608326
 30
0.0
  0
VERTEX
  5
339
330
309
100
AcDbEntity
  8
Ｓ_１_１
  6
CONTINUOUS
 62
     3
100
AcDbVertex
100
AcDb2dVertex
 10
376.8861553733805
 20
497.7904547682971
 30
0.0
  0
VERTEX
  5
33A
330
309
100
AcDbEntity
  8
Ｓ_１_１
  6
CONTINUOUS
 62
     3
100
AcDbVertex
100
AcDb2dVertex
 10
376.7849864796949
 20
497.8469356016176
 30
0.0
  0
VERTEX
  5
33B
330
309
100
AcDbEntity
  8
Ｓ_１_１
  6
CONTINUOUS
 62
     3
100
AcDbVertex
100
AcDb2dVertex
 10
376.681818255467
 20
497.903867184338
 30
0.0
  0
VERTEX
  5
33C
330
309
100
AcDbEntity
  8
Ｓ_１_１
  6
CONTINUOUS
 62
     3
100
AcDbVertex
100
AcDb2dVertex
 10
376.575433085403
 20
497.9616369400018
 30
0.0
  0
VERTEX
  5
33D
330
309
100
AcDbEntity
  8
Ｓ_１_１
  6
CONTINUOUS
 62
     3
100
AcDbVertex
100
AcDb2dVertex
 10
376.4646133542092
 20
498.020632292153
 30
0.0
  0
VERTEX
  5
33E
330
309
100
AcDbEntity
  8
Ｓ_１_１
  6
CONTINUOUS
 62
     3
100
AcDbVertex
100
AcDb2dVertex
 10
376.3481414465917
 20
498.0812406643353
 30
0.0
  0
VERTEX
  5
33F
330
309
100
AcDbEntity
  8
Ｓ_１_１
  6
CONTINUOUS
 62
     3
100
AcDbVertex
100
AcDb2dVertex
 10
376.2247997472568
 20
498.1438494800924
 30
0.0
  0
VERTEX
  5
340
330
309
100
AcDbEntity
  8
Ｓ_１_１
  6
CONTINUOUS
 62
     3
100
AcDbVertex
100
AcDb2dVertex
 10
376.0933706409109
 20
498.2088461629681
 30
0.0
  0
VERTEX
  5
341
330
309
100
AcDbEntity
  8
Ｓ_１_１
  6
CONTINUOUS
 62
     3
100
AcDbVertex
100
AcDb2dVertex
 10
375.95263651226
 20
498.2766181365064
 30
0.0
  0
VERTEX
  5
342
330
309
100
AcDbEntity
  8
Ｓ_１_１
  6
CONTINUOUS
 62
     3
100
AcDbVertex
100
AcDb2dVertex
 10
375.804040766279
 20
498.346394960796
 30
0.0
  0
VERTEX
  5
343
330
309
100
AcDbEntity
  8
Ｓ_１_１
  6
CONTINUOUS
 62
     3
100
AcDbVertex
100
AcDb2dVertex
 10
375.6494100813952
 20
498.4175694019078
 30
0.0
  0
VERTEX
  5
344
330
309
100
AcDbEntity
  8
Ｓ_１_１
  6
CONTINUOUS
 62
     3
100
AcDbVertex
100
AcDb2dVertex
 10
375.4929978877985
 20
498.4884467748734
 30
0.0
  0
VERTEX
  5
345
330
309
100
AcDbEntity
  8
Ｓ_１_１
  6
CONTINUOUS
 62
     3
100
AcDbVertex
100
AcDb2dVertex
 10
375.3390576156789
 20
498.5573323947244
 30
0.0
  0
VERTEX
  5
346
330
309
100
AcDbEntity
  8
Ｓ_１_１
  6
CONTINUOUS
 62
     3
100
AcDbVertex
100
AcDb2dVertex
 10
375.1918426952259
 20
498.6225315764925
 30
0.0
  0
VERTEX
  5
347
330
309
100
AcDbEntity
  8
Ｓ_１_１
  6
CONTINUOUS
 62
     3
100
AcDbVertex
100
AcDb2dVertex
 10
375.0556065566296
 20
498.6823496352095
 30
0.0
  0
VERTEX
  5
348
330
309
100
AcDbEntity
  8
Ｓ_１_１
  6
CONTINUOUS
 62
     3
100
AcDbVertex
100
AcDb2dVertex
 10
374.9346026300797
 20
498.735091885907
 30
0.0
  0
VERTEX
  5
349
330
309
100
AcDbEntity
  8
Ｓ_１_１
  6
CONTINUOUS
 62
     3
100
AcDbVertex
100
AcDb2dVertex
 10
374.833084345766
 20
498.7790636436165
 30
0.0
  0
VERTEX
  5
34A
330
309
100
AcDbEntity
  8
Ｓ_１_１
  6
CONTINUOUS
 62
     3
100
AcDbVertex
100
AcDb2dVertex
 10
374.7553051338782
 20
498.8125702233699
 30
0.0
  0
VERTEX
  5
34B
330
309
100
AcDbEntity
  8
Ｓ_１_１
  6
CONTINUOUS
 62
     3
100
AcDbVertex
100
AcDb2dVertex
 10
374.7055184246065
 20
498.8339169401986
 30
0.0
  0
VERTEX
  5
34C
330
309
100
AcDbEntity
  8
Ｓ_１_１
  6
CONTINUOUS
 62
     3
100
AcDbVertex
100
AcDb2dVertex
 10
374.6879776481403
 20
498.8414091091345
 30
0.0
  0
SEQEND
  5
34D
330
309
100
AcDbEntity
  8
Ｓ_１_１
  6
CONTINUOUS
 62
     3
  0
POLYLINE
  5
34E
330
1F
100
AcDbEntity
  8
Ｓ_１_１
  6
CONTINUOUS
 62
     3
100
AcDb2dPolyline
 66
     1
 10
0.0
 20
0.0
 30
0.0
 70
   128
  0
VERTEX
  5
34F
330
34E
100
AcDbEntity
  8
Ｓ_１_１
  6
CONTINUOUS
 62
     3
100
AcDbVertex
100
AcDb2dVertex
 10
379.916648864746
 20
455.9999999999999
 30
0.0
  0
VERTEX
  5
350
330
34E
100
AcDbEntity
  8
Ｓ_１_１
  6
CONTINUOUS
 62
     3
100
AcDbVertex
100
AcDb2dVertex
 10
379.9133221622523
 20
455.9828159747841
 30
0.0
  0
VERTEX
  5
351
330
34E
100
AcDbEntity
  8
Ｓ_１_１
  6
CONTINUOUS
 62
     3
100
AcDbVertex
100
AcDb2dVertex
 10
379.9036642924105
 20
455.9340750134233
 30
0.0
  0
VERTEX
  5
352
330
34E
100
AcDbEntity
  8
Ｓ_１_１
  6
CONTINUOUS
 62
     3
100
AcDbVertex
100
AcDb2dVertex
 10
379.8881586116796
 20
455.8579937873477
 30
0.0
  0
VERTEX
  5
353
330
34E
100
AcDbEntity
  8
Ｓ_１_１
  6
CONTINUOUS
 62
     3
100
AcDbVertex
100
AcDb2dVertex
 10
379.8672884765183
 20
455.7587889679869
 30
0.0
  0
VERTEX
  5
354
330
34E
100
AcDbEntity
  8
Ｓ_１_１
  6
CONTINUOUS
 62
     3
100
AcDbVertex
100
AcDb2dVertex
 10
379.8415372433855
 20
455.6406772267711
 30
0.0
  0
VERTEX
  5
355
330
34E
100
AcDbEntity
  8
Ｓ_１_１
  6
CONTINUOUS
 62
     3
100
AcDbVertex
100
AcDb2dVertex
 10
379.8113882687402
 20
455.5078752351304
 30
0.0
  0
VERTEX
  5
356
330
34E
100
AcDbEntity
  8
Ｓ_１_１
  6
CONTINUOUS
 62
     3
100
AcDbVertex
100
AcDb2dVertex
 10
379.7773249090412
 20
455.3645996644947
 30
0.0
  0
VERTEX
  5
357
330
34E
100
AcDbEntity
  8
Ｓ_１_１
  6
CONTINUOUS
 62
     3
100
AcDbVertex
100
AcDb2dVertex
 10
379.7398305207474
 20
455.2150671862937
 30
0.0
  0
VERTEX
  5
358
330
34E
100
AcDbEntity
  8
Ｓ_１_１
  6
CONTINUOUS
 62
     3
100
AcDbVertex
100
AcDb2dVertex
 10
379.6993884603177
 20
455.0634944719579
 30
0.0
  0
VERTEX
  5
359
330
34E
100
AcDbEntity
  8
Ｓ_１_１
  6
CONTINUOUS
 62
     3
100
AcDbVertex
100
AcDb2dVertex
 10
379.6564820842109
 20
454.914098192917
 30
0.0
  0
VERTEX
  5
35A
330
34E
100
AcDbEntity
  8
Ｓ_１_１
  6
CONTINUOUS
 62
     3
100
AcDbVertex
100
AcDb2dVertex
 10
379.611594748886
 20
454.7710950206009
 30
0.0
  0
VERTEX
  5
35B
330
34E
100
AcDbEntity
  8
Ｓ_１_１
  6
CONTINUOUS
 62
     3
100
AcDbVertex
100
AcDb2dVertex
 10
379.5656854298569
 20
454.6394300389915
 30
0.0
  0
VERTEX
  5
35C
330
34E
100
AcDbEntity
  8
Ｓ_１_１
  6
CONTINUOUS
 62
     3
100
AcDbVertex
100
AcDb2dVertex
 10
379.5181390452345
 20
454.5171840117986
 30
0.0
  0
VERTEX
  5
35D
330
34E
100
AcDbEntity
  8
Ｓ_１_１
  6
CONTINUOUS
 62
     3
100
AcDbVertex
100
AcDb2dVertex
 10
379.4687792072253
 20
454.4034277104417
 30
0.0
  0
VERTEX
  5
35E
330
34E
100
AcDbEntity
  8
Ｓ_１_１
  6
CONTINUOUS
 62
     3
100
AcDbVertex
100
AcDb2dVertex
 10
379.4174295280357
 20
454.2972319063401
 30
0.0
  0
VERTEX
  5
35F
330
34E
100
AcDbEntity
  8
Ｓ_１_１
  6
CONTINUOUS
 62
     3
100
AcDbVertex
100
AcDb2dVertex
 10
379.3639136198721
 20
454.1976673709131
 30
0.0
  0
VERTEX
  5
360
330
34E
100
AcDbEntity
  8
Ｓ_１_１
  6
CONTINUOUS
 62
     3
100
AcDbVertex
100
AcDb2dVertex
 10
379.3080550949409
 20
454.10380487558
 30
0.0
  0
VERTEX
  5
361
330
34E
100
AcDbEntity
  8
Ｓ_１_１
  6
CONTINUOUS
 62
     3
100
AcDbVertex
100
AcDb2dVertex
 10
379.2496775654486
 20
454.0147151917602
 30
0.0
  0
VERTEX
  5
362
330
34E
100
AcDbEntity
  8
Ｓ_１_１
  6
CONTINUOUS
 62
     3
100
AcDbVertex
100
AcDb2dVertex
 10
379.1886046436014
 20
453.9294690908729
 30
0.0
  0
VERTEX
  5
363
330
34E
100
AcDbEntity
  8
Ｓ_１_１
  6
CONTINUOUS
 62
     3
100
AcDbVertex
100
AcDb2dVertex
 10
379.1246599416061
 20
453.8471373443376
 30
0.0
  0
VERTEX
  5
364
330
34E
100
AcDbEntity
  8
Ｓ_１_１
  6
CONTINUOUS
 62
     3
100
AcDbVertex
100
AcDb2dVertex
 10
379.0576670716688
 20
453.7667907235735
 30
0.0
  0
VERTEX
  5
365
330
34E
100
AcDbEntity
  8
Ｓ_１_１
  6
CONTINUOUS
 62
     3
100
AcDbVertex
100
AcDb2dVertex
 10
378.9874496459961
 20
453.6875
 30
0.0
  0
VERTEX
  5
366
330
34E
100
AcDbEntity
  8
Ｓ_１_１
  6
CONTINUOUS
 62
     3
100
AcDbVertex
100
AcDb2dVertex
 10
378.9227169386307
 20
453.6178056782819
 30
0.0
  0
VERTEX
  5
367
330
34E
100
AcDbEntity
  8
Ｓ_１_１
  6
CONTINUOUS
 62
     3
100
AcDbVertex
100
AcDb2dVertex
 10
378.8554650822524
 20
453.5483624156009
 30
0.0
  0
VERTEX
  5
368
330
34E
100
AcDbEntity
  8
Ｓ_１_１
  6
CONTINUOUS
 62
     3
100
AcDbVertex
100
AcDb2dVertex
 10
378.7858226580968
 20
453.4793226559168
 30
0.0
  0
VERTEX
  5
369
330
34E
100
AcDbEntity
  8
Ｓ_１_１
  6
CONTINUOUS
 62
     3
100
AcDbVertex
100
AcDb2dVertex
 10
378.7139182473996
 20
453.4108388431891
 30
0.0
  0
VERTEX
  5
36A
330
34E
100
AcDbEntity
  8
Ｓ_１_１
  6
CONTINUOUS
 62
     3
100
AcDbVertex
100
AcDb2dVertex
 10
378.6398804313965
 20
453.3430634213775
 30
0.0
  0
VERTEX
  5
36B
330
34E
100
AcDbEntity
  8
Ｓ_１_１
  6
CONTINUOUS
 62
     3
100
AcDbVertex
100
AcDb2dVertex
 10
378.563837791323
 20
453.2761488344414
 30
0.0
  0
VERTEX
  5
36C
330
34E
100
AcDbEntity
  8
Ｓ_１_１
  6
CONTINUOUS
 62
     3
100
AcDbVertex
100
AcDb2dVertex
 10
378.4859189084146
 20
453.2102475263406
 30
0.0
  0
VERTEX
  5
36D
330
34E
100
AcDbEntity
  8
Ｓ_１_１
  6
CONTINUOUS
 62
     3
100
AcDbVertex
100
AcDb2dVertex
 10
378.4062523639073
 20
453.1455119410347
 30
0.0
  0
VERTEX
  5
36E
330
34E
100
AcDbEntity
  8
Ｓ_１_１
  6
CONTINUOUS
 62
     3
100
AcDbVertex
100
AcDb2dVertex
 10
378.3249667390364
 20
453.0820945224832
 30
0.0
  0
VERTEX
  5
36F
330
34E
100
AcDbEntity
  8
Ｓ_１_１
  6
CONTINUOUS
 62
     3
100
AcDbVertex
100
AcDb2dVertex
 10
378.2421906150377
 20
453.0201477146458
 30
0.0
  0
VERTEX
  5
370
330
34E
100
AcDbEntity
  8
Ｓ_１_１
  6
CONTINUOUS
 62
     3
100
AcDbVertex
100
AcDb2dVertex
 10
378.1580525731467
 20
452.9598239614821
 30
0.0
  0
VERTEX
  5
371
330
34E
100
AcDbEntity
  8
Ｓ_１_１
  6
CONTINUOUS
 62
     3
100
AcDbVertex
100
AcDb2dVertex
 10
378.0707501565097
 20
452.899920834221
 30
0.0
  0
VERTEX
  5
372
330
34E
100
AcDbEntity
  8
Ｓ_１_１
  6
CONTINUOUS
 62
     3
100
AcDbVertex
100
AcDb2dVertex
 10
377.9824443279172
 20
452.8417709289354
 30
0.0
  0
VERTEX
  5
373
330
34E
100
AcDbEntity
  8
Ｓ_１_１
  6
CONTINUOUS
 62
     3
100
AcDbVertex
100
AcDb2dVertex
 10
377.8934217776206
 20
452.7852702498705
 30
0.0
  0
VERTEX
  5
374
330
34E
100
AcDbEntity
  8
Ｓ_１_１
  6
CONTINUOUS
 62
     3
100
AcDbVertex
100
AcDb2dVertex
 10
377.803969195872
 20
452.7303148012711
 30
0.0
  0
VERTEX
  5
375
330
34E
100
AcDbEntity
  8
Ｓ_１_１
  6
CONTINUOUS
 62
     3
100
AcDbVertex
100
AcDb2dVertex
 10
377.714373272923
 20
452.6768005873825
 30
0.0
  0
VERTEX
  5
376
330
34E
100
AcDbEntity
  8
Ｓ_１_１
  6
CONTINUOUS
 62
     3
100
AcDbVertex
100
AcDb2dVertex
 10
377.6249206990254
 20
452.6246236124499
 30
0.0
  0
VERTEX
  5
377
330
34E
100
AcDbEntity
  8
Ｓ_１_１
  6
CONTINUOUS
 62
     3
100
AcDbVertex
100
AcDb2dVertex
 10
377.535898164431
 20
452.5736798807181
 30
0.0
  0
VERTEX
  5
378
330
34E
100
AcDbEntity
  8
Ｓ_１_１
  6
CONTINUOUS
 62
     3
100
AcDbVertex
100
AcDb2dVertex
 10
377.4475923593917
 20
452.5238653964324
 30
0.0
  0
VERTEX
  5
379
330
34E
100
AcDbEntity
  8
Ｓ_１_１
  6
CONTINUOUS
 62
     3
100
AcDbVertex
100
AcDb2dVertex
 10
377.360289974159
 20
452.4750761638379
 30
0.0
  0
VERTEX
  5
37A
330
34E
100
AcDbEntity
  8
Ｓ_１_１
  6
CONTINUOUS
 62
     3
100
AcDbVertex
100
AcDb2dVertex
 10
377.2742776989849
 20
452.4272081871798
 30
0.0
  0
VERTEX
  5
37B
330
34E
100
AcDbEntity
  8
Ｓ_１_１
  6
CONTINUOUS
 62
     3
100
AcDbVertex
100
AcDb2dVertex
 10
377.189842224121
 20
452.380157470703
 30
0.0
  0
VERTEX
  5
37C
330
34E
100
AcDbEntity
  8
Ｓ_１_１
  6
CONTINUOUS
 62
     3
100
AcDbVertex
100
AcDb2dVertex
 10
377.0873658031046
 20
452.3227044437485
 30
0.0
  0
VERTEX
  5
37D
330
34E
100
AcDbEntity
  8
Ｓ_１_１
  6
CONTINUOUS
 62
     3
100
AcDbVertex
100
AcDb2dVertex
 10
376.986542892761
 20
452.2659629365119
 30
0.0
  0
VERTEX
  5
37E
330
34E
100
AcDbEntity
  8
Ｓ_１_１
  6
CONTINUOUS
 62
     3
100
AcDbVertex
100
AcDb2dVertex
 10
376.8861558803076
 20
452.2095455255416
 30
0.0
  0
VERTEX
  5
37F
330
34E
100
AcDbEntity
  8
Ｓ_１_１
  6
CONTINUOUS
 62
     3
100
AcDbVertex
100
AcDb2dVertex
 10
376.7849871529621
 20
452.1530647873856
 30
0.0
  0
VERTEX
  5
380
330
34E
100
AcDbEntity
  8
Ｓ_１_１
  6
CONTINUOUS
 62
     3
100
AcDbVertex
100
AcDb2dVertex
 10
376.681819097942
 20
452.0961332985926
 30
0.0
  0
VERTEX
  5
381
330
34E
100
AcDbEntity
  8
Ｓ_１_１
  6
CONTINUOUS
 62
     3
100
AcDbVertex
100
AcDb2dVertex
 10
376.5754341024649
 20
452.0383636357109
 30
0.0
  0
VERTEX
  5
382
330
34E
100
AcDbEntity
  8
Ｓ_１_１
  6
CONTINUOUS
 62
     3
100
AcDbVertex
100
AcDb2dVertex
 10
376.4646145537484
 20
451.9793683752886
 30
0.0
  0
VERTEX
  5
383
330
34E
100
AcDbEntity
  8
Ｓ_１_１
  6
CONTINUOUS
 62
     3
100
AcDbVertex
100
AcDb2dVertex
 10
376.3481428390101
 20
451.9187600938742
 30
0.0
  0
VERTEX
  5
384
330
34E
100
AcDbEntity
  8
Ｓ_１_１
  6
CONTINUOUS
 62
     3
100
AcDbVertex
100
AcDb2dVertex
 10
376.2248013454675
 20
451.856151368016
 30
0.0
  0
VERTEX
  5
385
330
34E
100
AcDbEntity
  8
Ｓ_１_１
  6
CONTINUOUS
 62
     3
100
AcDbVertex
100
AcDb2dVertex
 10
376.0933724603383
 20
451.7911547742625
 30
0.0
  0
VERTEX
  5
386
330
34E
100
AcDbEntity
  8
Ｓ_１_１
  6
CONTINUOUS
 62
     3
100
AcDbVertex
100
AcDb2dVertex
 10
375.9526385708399
 20
451.7233828891617
 30
0.0
  0
VERTEX
  5
387
330
34E
100
AcDbEntity
  8
Ｓ_１_１
  6
CONTINUOUS
 62
     3
100
AcDbVertex
100
AcDb2dVertex
 10
375.8040430805696
 20
451.6536061518836
 30
0.0
  0
VERTEX
  5
388
330
34E
100
AcDbEntity
  8
Ｓ_１_１
  6
CONTINUOUS
 62
     3
100
AcDbVertex
100
AcDb2dVertex
 10
375.6494126637626
 20
451.5824317958902
 30
0.0
  0
VERTEX
  5
389
330
34E
100
AcDbEntity
  8
Ｓ_１_１
  6
CONTINUOUS
 62
     3
100
AcDbVertex
100
AcDb2dVertex
 10
375.493000742872
 20
451.5115545048027
 30
0.0
  0
VERTEX
  5
38A
330
34E
100
AcDbEntity
  8
Ｓ_１_１
  6
CONTINUOUS
 62
     3
100
AcDbVertex
100
AcDb2dVertex
 10
375.3390607403506
 20
451.4426689622422
 30
0.0
  0
VERTEX
  5
38B
330
34E
100
AcDbEntity
  8
Ｓ_１_１
  6
CONTINUOUS
 62
     3
100
AcDbVertex
100
AcDb2dVertex
 10
375.1918460786515
 20
451.3774698518299
 30
0.0
  0
VERTEX
  5
38C
330
34E
100
AcDbEntity
  8
Ｓ_１_１
  6
CONTINUOUS
 62
     3
100
AcDbVertex
100
AcDb2dVertex
 10
375.0556101802275
 20
451.3176518571869
 30
0.0
  0
VERTEX
  5
38D
330
34E
100
AcDbEntity
  8
Ｓ_１_１
  6
CONTINUOUS
 62
     3
100
AcDbVertex
100
AcDb2dVertex
 10
374.9346064675316
 20
451.2649096619347
 30
0.0
  0
VERTEX
  5
38E
330
34E
100
AcDbEntity
  8
Ｓ_１_１
  6
CONTINUOUS
 62
     3
100
AcDbVertex
100
AcDb2dVertex
 10
374.8330883630167
 20
451.2209379496941
 30
0.0
  0
VERTEX
  5
38F
330
34E
100
AcDbEntity
  8
Ｓ_１_１
  6
CONTINUOUS
 62
     3
100
AcDbVertex
100
AcDb2dVertex
 10
374.7553092891357
 20
451.1874314040866
 30
0.0
  0
VERTEX
  5
390
330
34E
100
AcDbEntity
  8
Ｓ_１_１
  6
CONTINUOUS
 62
     3
100
AcDbVertex
100
AcDb2dVertex
 10
374.7055226683418
 20
451.1660847087333
 30
0.0
  0
VERTEX
  5
391
330
34E
100
AcDbEntity
  8
Ｓ_１_１
  6
CONTINUOUS
 62
     3
100
AcDbVertex
100
AcDb2dVertex
 10
374.6879819230875
 20
451.1585925472551
 30
0.0
  0
SEQEND
  5
392
330
34E
100
AcDbEntity
  8
Ｓ_１_１
  6
CONTINUOUS
 62
     3
  0
POLYLINE
  5
393
330
1F
100
AcDbEntity
  8
Ｓ_１_１
  6
CONTINUOUS
 62
     3
100
AcDb2dPolyline
 66
     1
 10
0.0
 20
0.0
 30
0.0
 70
   128
  0
VERTEX
  5
394
330
393
100
AcDbEntity
  8
Ｓ_１_１
  6
CONTINUOUS
 62
     3
100
AcDbVertex
100
AcDb2dVertex
 10
170.083339691162
 20
455.9999999999999
 30
0.0
  0
VERTEX
  5
395
330
393
100
AcDbEntity
  8
Ｓ_１_１
  6
CONTINUOUS
 62
     3
100
AcDbVertex
100
AcDb2dVertex
 10
170.0866663943029
 20
455.9828159742714
 30
0.0
  0
VERTEX
  5
396
330
393
100
AcDbEntity
  8
Ｓ_１_１
  6
CONTINUOUS
 62
     3
100
AcDbVertex
100
AcDb2dVertex
 10
170.0963242659418
 20
455.9340750114421
 30
0.0
  0
VERTEX
  5
397
330
393
100
AcDbEntity
  8
Ｓ_１_１
  6
CONTINUOUS
 62
     3
100
AcDbVertex
100
AcDb2dVertex
 10
170.111829949403
 20
455.8579937830464
 30
0.0
  0
VERTEX
  5
398
330
393
100
AcDbEntity
  8
Ｓ_１_１
  6
CONTINUOUS
 62
     3
100
AcDbVertex
100
AcDb2dVertex
 10
170.1327000880106
 20
455.7587889606184
 30
0.0
  0
VERTEX
  5
399
330
393
100
AcDbEntity
  8
Ｓ_１_１
  6
CONTINUOUS
 62
     3
100
AcDbVertex
100
AcDb2dVertex
 10
170.1584513250887
 20
455.6406772156924
 30
0.0
  0
VERTEX
  5
39A
330
393
100
AcDbEntity
  8
Ｓ_１_１
  6
CONTINUOUS
 62
     3
100
AcDbVertex
100
AcDb2dVertex
 10
170.1886003039618
 20
455.5078752198028
 30
0.0
  0
VERTEX
  5
39B
330
393
100
AcDbEntity
  8
Ｓ_１_１
  6
CONTINUOUS
 62
     3
100
AcDbVertex
100
AcDb2dVertex
 10
170.222663667954
 20
455.3645996444839
 30
0.0
  0
VERTEX
  5
39C
330
393
100
AcDbEntity
  8
Ｓ_１_１
  6
CONTINUOUS
 62
     3
100
AcDbVertex
100
AcDb2dVertex
 10
170.2601580603894
 20
455.2150671612696
 30
0.0
  0
VERTEX
  5
39D
330
393
100
AcDbEntity
  8
Ｓ_１_１
  6
CONTINUOUS
 62
     3
100
AcDbVertex
100
AcDb2dVertex
 10
170.3006001245923
 20
455.0634944416947
 30
0.0
  0
VERTEX
  5
39E
330
393
100
AcDbEntity
  8
Ｓ_１_１
  6
CONTINUOUS
 62
     3
100
AcDbVertex
100
AcDb2dVertex
 10
170.3435065038869
 20
454.9140981572932
 30
0.0
  0
VERTEX
  5
39F
330
393
100
AcDbEntity
  8
Ｓ_１_１
  6
CONTINUOUS
 62
     3
100
AcDbVertex
100
AcDb2dVertex
 10
170.3883938415975
 20
454.7710949795993
 30
0.0
  0
VERTEX
  5
3A0
330
393
100
AcDbEntity
  8
Ｓ_１_１
  6
CONTINUOUS
 62
     3
100
AcDbVertex
100
AcDb2dVertex
 10
170.4343031583232
 20
454.6394300029372
 30
0.0
  0
VERTEX
  5
3A1
330
393
100
AcDbEntity
  8
Ｓ_１_１
  6
CONTINUOUS
 62
     3
100
AcDbVertex
100
AcDb2dVertex
 10
170.481849539679
 20
454.5171839794492
 30
0.0
  0
VERTEX
  5
3A2
330
393
100
AcDbEntity
  8
Ｓ_１_１
  6
CONTINUOUS
 62
     3
100
AcDbVertex
100
AcDb2dVertex
 10
170.5312093737235
 20
454.4034276808875
 30
0.0
  0
VERTEX
  5
3A3
330
393
100
AcDbEntity
  8
Ｓ_１_１
  6
CONTINUOUS
 62
     3
100
AcDbVertex
100
AcDb2dVertex
 10
170.5825590485153
 20
454.2972318790044
 30
0.0
  0
VERTEX
  5
3A4
330
393
100
AcDbEntity
  8
Ｓ_１_１
  6
CONTINUOUS
 62
     3
100
AcDbVertex
100
AcDb2dVertex
 10
170.636074952113
 20
454.1976673455517
 30
0.0
  0
VERTEX
  5
3A5
330
393
100
AcDbEntity
  8
Ｓ_１_１
  6
CONTINUOUS
 62
     3
100
AcDbVertex
100
AcDb2dVertex
 10
170.6919334725755
 20
454.1038048522819
 30
0.0
  0
VERTEX
  5
3A6
330
393
100
AcDbEntity
  8
Ｓ_１_１
  6
CONTINUOUS
 62
     3
100
AcDbVertex
100
AcDb2dVertex
 10
170.7503109979614
 20
454.0147151709471
 30
0.0
  0
VERTEX
  5
3A7
330
393
100
AcDbEntity
  8
Ｓ_１_１
  6
CONTINUOUS
 62
     3
100
AcDbVertex
100
AcDb2dVertex
 10
170.8113839163293
 20
453.9294690732993
 30
0.0
  0
VERTEX
  5
3A8
330
393
100
AcDbEntity
  8
Ｓ_１_１
  6
CONTINUOUS
 62
     3
100
AcDbVertex
100
AcDb2dVertex
 10
170.8753286157379
 20
453.8471373310906
 30
0.0
  0
VERTEX
  5
3A9
330
393
100
AcDbEntity
  8
Ｓ_１_１
  6
CONTINUOUS
 62
     3
100
AcDbVertex
100
AcDb2dVertex
 10
170.9423214842459
 20
453.7667907160735
 30
0.0
  0
VERTEX
  5
3AA
330
393
100
AcDbEntity
  8
Ｓ_１_１
  6
CONTINUOUS
 62
     3
100
AcDbVertex
100
AcDb2dVertex
 10
171.012538909912
 20
453.6874999999998
 30
0.0
  0
VERTEX
  5
3AB
330
393
100
AcDbEntity
  8
Ｓ_１_１
  6
CONTINUOUS
 62
     3
100
AcDbVertex
100
AcDb2dVertex
 10
171.077271629247
 20
453.617805675322
 30
0.0
  0
VERTEX
  5
3AC
330
393
100
AcDbEntity
  8
Ｓ_１_１
  6
CONTINUOUS
 62
     3
100
AcDbVertex
100
AcDb2dVertex
 10
171.144523499511
 20
453.5483624111789
 30
0.0
  0
VERTEX
  5
3AD
330
393
100
AcDbEntity
  8
Ｓ_１_１
  6
CONTINUOUS
 62
     3
100
AcDbVertex
100
AcDb2dVertex
 10
171.2141659392168
 20
453.4793226513721
 30
0.0
  0
VERTEX
  5
3AE
330
393
100
AcDbEntity
  8
Ｓ_１_１
  6
CONTINUOUS
 62
     3
100
AcDbVertex
100
AcDb2dVertex
 10
171.2860703668773
 20
453.4108388397033
 30
0.0
  0
VERTEX
  5
3AF
330
393
100
AcDbEntity
  8
Ｓ_１_１
  6
CONTINUOUS
 62
     3
100
AcDbVertex
100
AcDb2dVertex
 10
171.360108201005
 20
453.3430634199738
 30
0.0
  0
VERTEX
  5
3B0
330
393
100
AcDbEntity
  8
Ｓ_１_１
  6
CONTINUOUS
 62
     3
100
AcDbVertex
100
AcDb2dVertex
 10
171.4361508601129
 20
453.2761488359853
 30
0.0
  0
VERTEX
  5
3B1
330
393
100
AcDbEntity
  8
Ｓ_１_１
  6
CONTINUOUS
 62
     3
100
AcDbVertex
100
AcDb2dVertex
 10
171.5140697627137
 20
453.2102475315393
 30
0.0
  0
VERTEX
  5
3B2
330
393
100
AcDbEntity
  8
Ｓ_１_１
  6
CONTINUOUS
 62
     3
100
AcDbVertex
100
AcDb2dVertex
 10
171.5937363273202
 20
453.1455119504372
 30
0.0
  0
VERTEX
  5
3B3
330
393
100
AcDbEntity
  8
Ｓ_１_１
  6
CONTINUOUS
 62
     3
100
AcDbVertex
100
AcDb2dVertex
 10
171.6750219724451
 20
453.0820945364807
 30
0.0
  0
VERTEX
  5
3B4
330
393
100
AcDbEntity
  8
Ｓ_１_１
  6
CONTINUOUS
 62
     3
100
AcDbVertex
100
AcDb2dVertex
 10
171.7577981166011
 20
453.0201477334714
 30
0.0
  0
VERTEX
  5
3B5
330
393
100
AcDbEntity
  8
Ｓ_１_１
  6
CONTINUOUS
 62
     3
100
AcDbVertex
100
AcDb2dVertex
 10
171.8419361783011
 20
452.9598239852107
 30
0.0
  0
VERTEX
  5
3B6
330
393
100
AcDbEntity
  8
Ｓ_１_１
  6
CONTINUOUS
 62
     3
100
AcDbVertex
100
AcDb2dVertex
 10
171.9292386239026
 20
452.899920856657
 30
0.0
  0
VERTEX
  5
3B7
330
393
100
AcDbEntity
  8
Ｓ_１_１
  6
CONTINUOUS
 62
     3
100
AcDbVertex
100
AcDb2dVertex
 10
172.0175444810238
 20
452.8417709502648
 30
0.0
  0
VERTEX
  5
3B8
330
393
100
AcDbEntity
  8
Ｓ_１_１
  6
CONTINUOUS
 62
     3
100
AcDbVertex
100
AcDb2dVertex
 10
172.1065670593323
 20
452.7852702701593
 30
0.0
  0
VERTEX
  5
3B9
330
393
100
AcDbEntity
  8
Ｓ_１_１
  6
CONTINUOUS
 62
     3
100
AcDbVertex
100
AcDb2dVertex
 10
172.1960196684954
 20
452.7303148204661
 30
0.0
  0
VERTEX
  5
3BA
330
393
100
AcDbEntity
  8
Ｓ_１_１
  6
CONTINUOUS
 62
     3
100
AcDbVertex
100
AcDb2dVertex
 10
172.2856156181805
 20
452.6768006053109
 30
0.0
  0
VERTEX
  5
3BB
330
393
100
AcDbEntity
  8
Ｓ_１_１
  6
CONTINUOUS
 62
     3
100
AcDbVertex
100
AcDb2dVertex
 10
172.3750682180549
 20
452.624623628819
 30
0.0
  0
VERTEX
  5
3BC
330
393
100
AcDbEntity
  8
Ｓ_１_１
  6
CONTINUOUS
 62
     3
100
AcDbVertex
100
AcDb2dVertex
 10
172.464090777786
 20
452.573679895116
 30
0.0
  0
VERTEX
  5
3BD
330
393
100
AcDbEntity
  8
Ｓ_１_１
  6
CONTINUOUS
 62
     3
100
AcDbVertex
100
AcDb2dVertex
 10
172.5523966070411
 20
452.5238654083273
 30
0.0
  0
VERTEX
  5
3BE
330
393
100
AcDbEntity
  8
Ｓ_１_１
  6
CONTINUOUS
 62
     3
100
AcDbVertex
100
AcDb2dVertex
 10
172.6396990154876
 20
452.4750761725787
 30
0.0
  0
VERTEX
  5
3BF
330
393
100
AcDbEntity
  8
Ｓ_１_１
  6
CONTINUOUS
 62
     3
100
AcDbVertex
100
AcDb2dVertex
 10
172.7257113127928
 20
452.4272081919954
 30
0.0
  0
VERTEX
  5
3C0
330
393
100
AcDbEntity
  8
Ｓ_１_１
  6
CONTINUOUS
 62
     3
100
AcDbVertex
100
AcDb2dVertex
 10
172.8101468086242
 20
452.380157470703
 30
0.0
  0
VERTEX
  5
3C1
330
393
100
AcDbEntity
  8
Ｓ_１_１
  6
CONTINUOUS
 62
     3
100
AcDbVertex
100
AcDb2dVertex
 10
172.9126232313089
 20
452.3227044492013
 30
0.0
  0
VERTEX
  5
3C2
330
393
100
AcDbEntity
  8
Ｓ_１_１
  6
CONTINUOUS
 62
     3
100
AcDbVertex
100
AcDb2dVertex
 10
173.0134461427671
 20
452.2659629456072
 30
0.0
  0
VERTEX
  5
3C3
330
393
100
AcDbEntity
  8
Ｓ_１_１
  6
CONTINUOUS
 62
     3
100
AcDbVertex
100
AcDb2dVertex
 10
173.1138331558545
 20
452.2095455367091
 30
0.0
  0
VERTEX
  5
3C4
330
393
100
AcDbEntity
  8
Ｓ_１_１
  6
CONTINUOUS
 62
     3
100
AcDbVertex
100
AcDb2dVertex
 10
173.215001883427
 20
452.1530647992951
 30
0.0
  0
VERTEX
  5
3C5
330
393
100
AcDbEntity
  8
Ｓ_１_１
  6
CONTINUOUS
 62
     3
100
AcDbVertex
100
AcDb2dVertex
 10
173.3181699383405
 20
452.0961333101534
 30
0.0
  0
VERTEX
  5
3C6
330
393
100
AcDbEntity
  8
Ｓ_１_１
  6
CONTINUOUS
 62
     3
100
AcDbVertex
100
AcDb2dVertex
 10
173.4245549334506
 20
452.0383636460722
 30
0.0
  0
VERTEX
  5
3C7
330
393
100
AcDbEntity
  8
Ｓ_１_１
  6
CONTINUOUS
 62
     3
100
AcDbVertex
100
AcDb2dVertex
 10
173.5353744816132
 20
451.9793683838399
 30
0.0
  0
VERTEX
  5
3C8
330
393
100
AcDbEntity
  8
Ｓ_１_１
  6
CONTINUOUS
 62
     3
100
AcDbVertex
100
AcDb2dVertex
 10
173.6518461956842
 20
451.9187601002445
 30
0.0
  0
VERTEX
  5
3C9
330
393
100
AcDbEntity
  8
Ｓ_１_１
  6
CONTINUOUS
 62
     3
100
AcDbVertex
100
AcDb2dVertex
 10
173.7751876885194
 20
451.8561513720742
 30
0.0
  0
VERTEX
  5
3CA
330
393
100
AcDbEntity
  8
Ｓ_１_１
  6
CONTINUOUS
 62
     3
100
AcDbVertex
100
AcDb2dVertex
 10
173.9066165729745
 20
451.7911547761173
 30
0.0
  0
VERTEX
  5
3CB
330
393
100
AcDbEntity
  8
Ｓ_１_１
  6
CONTINUOUS
 62
     3
100
AcDbVertex
100
AcDb2dVertex
 10
174.0473504619054
 20
451.7233828891618
 30
0.0
  0
VERTEX
  5
3CC
330
393
100
AcDbEntity
  8
Ｓ_１_１
  6
CONTINUOUS
 62
     3
100
AcDbVertex
100
AcDb2dVertex
 10
174.1959459517756
 20
451.6536061505761
 30
0.0
  0
VERTEX
  5
3CD
330
393
100
AcDbEntity
  8
Ｓ_１_１
  6
CONTINUOUS
 62
     3
100
AcDbVertex
100
AcDb2dVertex
 10
174.3505763683344
 20
451.5824317937718
 30
0.0
  0
VERTEX
  5
3CE
330
393
100
AcDbEntity
  8
Ｓ_１_１
  6
CONTINUOUS
 62
     3
100
AcDbVertex
100
AcDb2dVertex
 10
174.506988289105
 20
451.5115545022918
 30
0.0
  0
VERTEX
  5
3CF
330
393
100
AcDbEntity
  8
Ｓ_１_１
  6
CONTINUOUS
 62
     3
100
AcDbVertex
100
AcDb2dVertex
 10
174.6609282916103
 20
451.4426689596791
 30
0.0
  0
VERTEX
  5
3D0
330
393
100
AcDbEntity
  8
Ｓ_１_１
  6
CONTINUOUS
 62
     3
100
AcDbVertex
100
AcDb2dVertex
 10
174.8081429533735
 20
451.3774698494759
 30
0.0
  0
VERTEX
  5
3D1
330
393
100
AcDbEntity
  8
Ｓ_１_１
  6
CONTINUOUS
 62
     3
100
AcDbVertex
100
AcDb2dVertex
 10
174.9443788519175
 20
451.3176518552253
 30
0.0
  0
VERTEX
  5
3D2
330
393
100
AcDbEntity
  8
Ｓ_１_１
  6
CONTINUOUS
 62
     3
100
AcDbVertex
100
AcDb2dVertex
 10
175.0653825647655
 20
451.26490966047
 30
0.0
  0
VERTEX
  5
3D3
330
393
100
AcDbEntity
  8
Ｓ_１_１
  6
CONTINUOUS
 62
     3
100
AcDbVertex
100
AcDb2dVertex
 10
175.1669006694405
 20
451.2209379487526
 30
0.0
  0
VERTEX
  5
3D4
330
393
100
AcDbEntity
  8
Ｓ_１_１
  6
CONTINUOUS
 62
     3
100
AcDbVertex
100
AcDb2dVertex
 10
175.2446797434654
 20
451.1874314036158
 30
0.0
  0
VERTEX
  5
3D5
330
393
100
AcDbEntity
  8
Ｓ_１_１
  6
CONTINUOUS
 62
     3
100
AcDbVertex
100
AcDb2dVertex
 10
175.2944663643635
 20
451.1660847086024
 30
0.0
  0
VERTEX
  5
3D6
330
393
100
AcDbEntity
  8
Ｓ_１_１
  6
CONTINUOUS
 62
     3
100
AcDbVertex
100
AcDb2dVertex
 10
175.3120071096578
 20
451.1585925472551
 30
0.0
  0
SEQEND
  5
3D7
330
393
100
AcDbEntity
  8
Ｓ_１_１
  6
CONTINUOUS
 62
     3
  0
POLYLINE
  5
3D8
330
1F
100
AcDbEntity
  8
Ｓ_１_１
  6
CONTINUOUS
 62
     3
100
AcDb2dPolyline
 66
     1
 10
0.0
 20
0.0
 30
0.0
 70
   128
  0
VERTEX
  5
3D9
330
3D8
100
AcDbEntity
  8
Ｓ_１_１
  6
CONTINUOUS
 62
     3
100
AcDbVertex
100
AcDb2dVertex
 10
170.083339691162
 20
493.9999999999999
 30
0.0
  0
VERTEX
  5
3DA
330
3D8
100
AcDbEntity
  8
Ｓ_１_１
  6
CONTINUOUS
 62
     3
100
AcDbVertex
100
AcDb2dVertex
 10
170.086666394311
 20
494.0171840257355
 30
0.0
  0
VERTEX
  5
3DB
330
3D8
100
AcDbEntity
  8
Ｓ_１_１
  6
CONTINUOUS
 62
     3
100
AcDbVertex
100
AcDb2dVertex
 10
170.096324265971
 20
494.0659249885836
 30
0.0
  0
VERTEX
  5
3DC
330
3D8
100
AcDbEntity
  8
Ｓ_１_１
  6
CONTINUOUS
 62
     3
100
AcDbVertex
100
AcDb2dVertex
 10
170.1118299494614
 20
494.1420062170054
 30
0.0
  0
VERTEX
  5
3DD
330
3D8
100
AcDbEntity
  8
Ｓ_１_１
  6
CONTINUOUS
 62
     3
100
AcDbVertex
100
AcDb2dVertex
 10
170.1327000881014
 20
494.2412110394623
 30
0.0
  0
VERTEX
  5
3DE
330
3D8
100
AcDbEntity
  8
Ｓ_１_１
  6
CONTINUOUS
 62
     3
100
AcDbVertex
100
AcDb2dVertex
 10
170.1584513252104
 20
494.3593227844157
 30
0.0
  0
VERTEX
  5
3DF
330
3D8
100
AcDbEntity
  8
Ｓ_１_１
  6
CONTINUOUS
 62
     3
100
AcDbVertex
100
AcDb2dVertex
 10
170.1886003041078
 20
494.492124780327
 30
0.0
  0
VERTEX
  5
3E0
330
3D8
100
AcDbEntity
  8
Ｓ_１_１
  6
CONTINUOUS
 62
     3
100
AcDbVertex
100
AcDb2dVertex
 10
170.222663668113
 20
494.6354003556577
 30
0.0
  0
VERTEX
  5
3E1
330
3D8
100
AcDbEntity
  8
Ｓ_１_１
  6
CONTINUOUS
 62
     3
100
AcDbVertex
100
AcDb2dVertex
 10
170.2601580605451
 20
494.7849328388689
 30
0.0
  0
VERTEX
  5
3E2
330
3D8
100
AcDbEntity
  8
Ｓ_１_１
  6
CONTINUOUS
 62
     3
100
AcDbVertex
100
AcDb2dVertex
 10
170.3006001247237
 20
494.9365055584222
 30
0.0
  0
VERTEX
  5
3E3
330
3D8
100
AcDbEntity
  8
Ｓ_１_１
  6
CONTINUOUS
 62
     3
100
AcDbVertex
100
AcDb2dVertex
 10
170.3435065039681
 20
495.085901842779
 30
0.0
  0
VERTEX
  5
3E4
330
3D8
100
AcDbEntity
  8
Ｓ_１_１
  6
CONTINUOUS
 62
     3
100
AcDbVertex
100
AcDb2dVertex
 10
170.3883938415975
 20
495.2289050204006
 30
0.0
  0
VERTEX
  5
3E5
330
3D8
100
AcDbEntity
  8
Ｓ_１_１
  6
CONTINUOUS
 62
     3
100
AcDbVertex
100
AcDb2dVertex
 10
170.4343031582113
 20
495.3605699969631
 30
0.0
  0
VERTEX
  5
3E6
330
3D8
100
AcDbEntity
  8
Ｓ_１_１
  6
CONTINUOUS
 62
     3
100
AcDbVertex
100
AcDb2dVertex
 10
170.4818495394346
 20
495.4828160203331
 30
0.0
  0
VERTEX
  5
3E7
330
3D8
100
AcDbEntity
  8
Ｓ_１_１
  6
CONTINUOUS
 62
     3
100
AcDbVertex
100
AcDb2dVertex
 10
170.5312093733404
 20
495.5965723187712
 30
0.0
  0
VERTEX
  5
3E8
330
3D8
100
AcDbEntity
  8
Ｓ_１_１
  6
CONTINUOUS
 62
     3
100
AcDbVertex
100
AcDb2dVertex
 10
170.5825590480016
 20
495.7027681205382
 30
0.0
  0
VERTEX
  5
3E9
330
3D8
100
AcDbEntity
  8
Ｓ_１_１
  6
CONTINUOUS
 62
     3
100
AcDbVertex
100
AcDb2dVertex
 10
170.6360749514912
 20
495.8023326538944
 30
0.0
  0
VERTEX
  5
3EA
330
3D8
100
AcDbEntity
  8
Ｓ_１_１
  6
CONTINUOUS
 62
     3
100
AcDbVertex
100
AcDb2dVertex
 10
170.6919334718821
 20
495.8961951471006
 30
0.0
  0
VERTEX
  5
3EB
330
3D8
100
AcDbEntity
  8
Ｓ_１_１
  6
CONTINUOUS
 62
     3
100
AcDbVertex
100
AcDb2dVertex
 10
170.7503109972475
 20
495.9852848284171
 30
0.0
  0
VERTEX
  5
3EC
330
3D8
100
AcDbEntity
  8
Ｓ_１_１
  6
CONTINUOUS
 62
     3
100
AcDbVertex
100
AcDb2dVertex
 10
170.8113839156602
 20
496.0705309261048
 30
0.0
  0
VERTEX
  5
3ED
330
3D8
100
AcDbEntity
  8
Ｓ_１_１
  6
CONTINUOUS
 62
     3
100
AcDbVertex
100
AcDb2dVertex
 10
170.8753286151932
 20
496.1528626684242
 30
0.0
  0
VERTEX
  5
3EE
330
3D8
100
AcDbEntity
  8
Ｓ_１_１
  6
CONTINUOUS
 62
     3
100
AcDbVertex
100
AcDb2dVertex
 10
170.9423214839194
 20
496.2332092836356
 30
0.0
  0
VERTEX
  5
3EF
330
3D8
100
AcDbEntity
  8
Ｓ_１_１
  6
CONTINUOUS
 62
     3
100
AcDbVertex
100
AcDb2dVertex
 10
171.012538909912
 20
496.3125
 30
0.0
  0
VERTEX
  5
3F0
330
3D8
100
AcDbEntity
  8
Ｓ_１_１
  6
CONTINUOUS
 62
     3
100
AcDbVertex
100
AcDb2dVertex
 10
171.0772716296275
 20
496.3821943250168
 30
0.0
  0
VERTEX
  5
3F1
330
3D8
100
AcDbEntity
  8
Ｓ_１_１
  6
CONTINUOUS
 62
     3
100
AcDbVertex
100
AcDb2dVertex
 10
171.1445235003245
 20
496.4516375895455
 30
0.0
  0
VERTEX
  5
3F2
330
3D8
100
AcDbEntity
  8
Ｓ_１_１
  6
CONTINUOUS
 62
     3
100
AcDbVertex
100
AcDb2dVertex
 10
171.214165940473
 20
496.5206773497465
 30
0.0
  0
VERTEX
  5
3F3
330
3D8
100
AcDbEntity
  8
Ｓ_１_１
  6
CONTINUOUS
 62
     3
100
AcDbVertex
100
AcDb2dVertex
 10
171.2860703685428
 20
496.5891611617799
 30
0.0
  0
VERTEX
  5
3F4
330
3D8
100
AcDbEntity
  8
Ｓ_１_１
  6
CONTINUOUS
 62
     3
100
AcDbVertex
100
AcDb2dVertex
 10
171.360108203004
 20
496.6569365818062
 30
0.0
  0
VERTEX
  5
3F5
330
3D8
100
AcDbEntity
  8
Ｓ_１_１
  6
CONTINUOUS
 62
     3
100
AcDbVertex
100
AcDb2dVertex
 10
171.4361508623262
 20
496.7238511659857
 30
0.0
  0
VERTEX
  5
3F6
330
3D8
100
AcDbEntity
  8
Ｓ_１_１
  6
CONTINUOUS
 62
     3
100
AcDbVertex
100
AcDb2dVertex
 10
171.5140697649795
 20
496.7897524704784
 30
0.0
  0
VERTEX
  5
3F7
330
3D8
100
AcDbEntity
  8
Ｓ_１_１
  6
CONTINUOUS
 62
     3
100
AcDbVertex
100
AcDb2dVertex
 10
171.5937363294338
 20
496.8544880514451
 30
0.0
  0
VERTEX
  5
3F8
330
3D8
100
AcDbEntity
  8
Ｓ_１_１
  6
CONTINUOUS
 62
     3
100
AcDbVertex
100
AcDb2dVertex
 10
171.6750219741589
 20
496.9179054650454
 30
0.0
  0
VERTEX
  5
3F9
330
3D8
100
AcDbEntity
  8
Ｓ_１_１
  6
CONTINUOUS
 62
     3
100
AcDbVertex
100
AcDb2dVertex
 10
171.7577981176247
 20
496.97985226744
 30
0.0
  0
VERTEX
  5
3FA
330
3D8
100
AcDbEntity
  8
Ｓ_１_１
  6
CONTINUOUS
 62
     3
100
AcDbVertex
100
AcDb2dVertex
 10
171.8419361783011
 20
497.0401760147892
 30
0.0
  0
VERTEX
  5
3FB
330
3D8
100
AcDbEntity
  8
Ｓ_１_１
  6
CONTINUOUS
 62
     3
100
AcDbVertex
100
AcDb2dVertex
 10
171.9292386225019
 20
497.1000791420954
 30
0.0
  0
VERTEX
  5
3FC
330
3D8
100
AcDbEntity
  8
Ｓ_１_１
  6
CONTINUOUS
 62
     3
100
AcDbVertex
100
AcDb2dVertex
 10
172.0175444779975
 20
497.1582290470399
 30
0.0
  0
VERTEX
  5
3FD
330
3D8
100
AcDbEntity
  8
Ｓ_１_１
  6
CONTINUOUS
 62
     3
100
AcDbVertex
100
AcDb2dVertex
 10
172.1065670546237
 20
497.2147297256471
 30
0.0
  0
VERTEX
  5
3FE
330
3D8
100
AcDbEntity
  8
Ｓ_１_１
  6
CONTINUOUS
 62
     3
100
AcDbVertex
100
AcDb2dVertex
 10
172.1960196622161
 20
497.2696851739413
 30
0.0
  0
VERTEX
  5
3FF
330
3D8
100
AcDbEntity
  8
Ｓ_１_１
  6
CONTINUOUS
 62
     3
100
AcDbVertex
100
AcDb2dVertex
 10
172.2856156106106
 20
497.3231993879473
 30
0.0
  0
VERTEX
  5
400
330
3D8
100
AcDbEntity
  8
Ｓ_１_１
  6
CONTINUOUS
 62
     3
100
AcDbVertex
100
AcDb2dVertex
 10
172.375068209643
 20
497.3753763636892
 30
0.0
  0
VERTEX
  5
401
330
3D8
100
AcDbEntity
  8
Ｓ_１_１
  6
CONTINUOUS
 62
     3
100
AcDbVertex
100
AcDb2dVertex
 10
172.464090769149
 20
497.4263200971918
 30
0.0
  0
VERTEX
  5
402
330
3D8
100
AcDbEntity
  8
Ｓ_１_１
  6
CONTINUOUS
 62
     3
100
AcDbVertex
100
AcDb2dVertex
 10
172.5523965989643
 20
497.4761345844794
 30
0.0
  0
VERTEX
  5
403
330
3D8
100
AcDbEntity
  8
Ｓ_１_１
  6
CONTINUOUS
 62
     3
100
AcDbVertex
100
AcDb2dVertex
 10
172.6396990089248
 20
497.5249238215764
 30
0.0
  0
VERTEX
  5
404
330
3D8
100
AcDbEntity
  8
Ｓ_１_１
  6
CONTINUOUS
 62
     3
100
AcDbVertex
100
AcDb2dVertex
 10
172.7257113088662
 20
497.5727918045075
 30
0.0
  0
VERTEX
  5
405
330
3D8
100
AcDbEntity
  8
Ｓ_１_１
  6
CONTINUOUS
 62
     3
100
AcDbVertex
100
AcDb2dVertex
 10
172.8101468086242
 20
497.6198425292968
 30
0.0
  0
VERTEX
  5
406
330
3D8
100
AcDbEntity
  8
Ｓ_１_１
  6
CONTINUOUS
 62
     3
100
AcDbVertex
100
AcDb2dVertex
 10
172.9126234041138
 20
497.6772956502277
 30
0.0
  0
VERTEX
  5
407
330
3D8
100
AcDbEntity
  8
Ｓ_１_１
  6
CONTINUOUS
 62
     3
100
AcDbVertex
100
AcDb2dVertex
 10
173.0134464837105
 20
497.7340372517375
 30
0.0
  0
VERTEX
  5
408
330
3D8
100
AcDbEntity
  8
Ｓ_１_１
  6
CONTINUOUS
 62
     3
100
AcDbVertex
100
AcDb2dVertex
 10
173.1138336627816
 20
497.7904547571297
 30
0.0
  0
VERTEX
  5
409
330
3D8
100
AcDbEntity
  8
Ｓ_１_１
  6
CONTINUOUS
 62
     3
100
AcDbVertex
100
AcDb2dVertex
 10
173.2150025566942
 20
497.8469355897082
 30
0.0
  0
VERTEX
  5
40A
330
3D8
100
AcDbEntity
  8
Ｓ_１_１
  6
CONTINUOUS
 62
     3
100
AcDbVertex
100
AcDb2dVertex
 10
173.3181707808154
 20
497.9038671727773
 30
0.0
  0
VERTEX
  5
40B
330
3D8
100
AcDbEntity
  8
Ｓ_１_１
  6
CONTINUOUS
 62
     3
100
AcDbVertex
100
AcDb2dVertex
 10
173.4245559505124
 20
497.9616369296405
 30
0.0
  0
VERTEX
  5
40C
330
3D8
100
AcDbEntity
  8
Ｓ_１_１
  6
CONTINUOUS
 62
     3
100
AcDbVertex
100
AcDb2dVertex
 10
173.5353756811524
 20
498.0206322836019
 30
0.0
  0
VERTEX
  5
40D
330
3D8
100
AcDbEntity
  8
Ｓ_１_１
  6
CONTINUOUS
 62
     3
100
AcDbVertex
100
AcDb2dVertex
 10
173.6518475881026
 20
498.0812406579653
 30
0.0
  0
VERTEX
  5
40E
330
3D8
100
AcDbEntity
  8
Ｓ_１_１
  6
CONTINUOUS
 62
     3
100
AcDbVertex
100
AcDb2dVertex
 10
173.7751892867299
 20
498.1438494760345
 30
0.0
  0
VERTEX
  5
40F
330
3D8
100
AcDbEntity
  8
Ｓ_１_１
  6
CONTINUOUS
 62
     3
100
AcDbVertex
100
AcDb2dVertex
 10
173.9066183924018
 20
498.2088461611136
 30
0.0
  0
VERTEX
  5
410
330
3D8
100
AcDbEntity
  8
Ｓ_１_１
  6
CONTINUOUS
 62
     3
100
AcDbVertex
100
AcDb2dVertex
 10
174.0473525204852
 20
498.2766181365064
 30
0.0
  0
VERTEX
  5
411
330
3D8
100
AcDbEntity
  8
Ｓ_１_１
  6
CONTINUOUS
 62
     3
100
AcDbVertex
100
AcDb2dVertex
 10
174.1959482660661
 20
498.3463949621038
 30
0.0
  0
VERTEX
  5
412
330
3D8
100
AcDbEntity
  8
Ｓ_１_１
  6
CONTINUOUS
 62
     3
100
AcDbVertex
100
AcDb2dVertex
 10
174.3505789507018
 20
498.4175694040265
 30
0.0
  0
VERTEX
  5
413
330
3D8
100
AcDbEntity
  8
Ｓ_１_１
  6
CONTINUOUS
 62
     3
100
AcDbVertex
100
AcDb2dVertex
 10
174.5069911441783
 20
498.4884467773844
 30
0.0
  0
VERTEX
  5
414
330
3D8
100
AcDbEntity
  8
Ｓ_１_１
  6
CONTINUOUS
 62
     3
100
AcDbVertex
100
AcDb2dVertex
 10
174.660931416282
 20
498.5573323972877
 30
0.0
  0
VERTEX
  5
415
330
3D8
100
AcDbEntity
  8
Ｓ_１_１
  6
CONTINUOUS
 62
     3
100
AcDbVertex
100
AcDb2dVertex
 10
174.808146336799
 20
498.6225315788465
 30
0.0
  0
VERTEX
  5
416
330
3D8
100
AcDbEntity
  8
Ｓ_１_１
  6
CONTINUOUS
 62
     3
100
AcDbVertex
100
AcDb2dVertex
 10
174.9443824755154
 20
498.6823496371712
 30
0.0
  0
VERTEX
  5
417
330
3D8
100
AcDbEntity
  8
Ｓ_１_１
  6
CONTINUOUS
 62
     3
100
AcDbVertex
100
AcDb2dVertex
 10
175.0653864022174
 20
498.7350918873716
 30
0.0
  0
VERTEX
  5
418
330
3D8
100
AcDbEntity
  8
Ｓ_１_１
  6
CONTINUOUS
 62
     3
100
AcDbVertex
100
AcDb2dVertex
 10
175.1669046866912
 20
498.7790636445581
 30
0.0
  0
VERTEX
  5
419
330
3D8
100
AcDbEntity
  8
Ｓ_１_１
  6
CONTINUOUS
 62
     3
100
AcDbVertex
100
AcDb2dVertex
 10
175.244683898723
 20
498.8125702238407
 30
0.0
  0
VERTEX
  5
41A
330
3D8
100
AcDbEntity
  8
Ｓ_１_１
  6
CONTINUOUS
 62
     3
100
AcDbVertex
100
AcDb2dVertex
 10
175.2944706080988
 20
498.8339169403294
 30
0.0
  0
VERTEX
  5
41B
330
3D8
100
AcDbEntity
  8
Ｓ_１_１
  6
CONTINUOUS
 62
     3
100
AcDbVertex
100
AcDb2dVertex
 10
175.3120113846049
 20
498.8414091091345
 30
0.0
  0
SEQEND
  5
41C
330
3D8
100
AcDbEntity
  8
Ｓ_１_１
  6
CONTINUOUS
 62
     3
  0
CIRCLE
  5
41D
330
1F
100
AcDbEntity
  8
Ｓ_１_１
  6
CONTINUOUS
 62
     3
100
AcDbCircle
 10
210.2997245788573
 20
410.2997131347656
 30
0.0
 40
1.799999952316284
  0
CIRCLE
  5
41E
330
1F
100
AcDbEntity
  8
Ｓ_１_１
  6
CONTINUOUS
 62
     3
100
AcDbCircle
 10
210.2997245788573
 20
410.2997131347656
 30
0.0
 40
2.71132493019104
  0
CIRCLE
  5
41F
330
1F
100
AcDbEntity
  8
Ｓ_１_１
  6
CONTINUOUS
 62
     3
100
AcDbCircle
 10
210.2997245788573
 20
410.2997131347656
 30
0.0
 40
3.0
  0
CIRCLE
  5
420
330
1F
100
AcDbEntity
  8
Ｓ_１_１
  6
CONTINUOUS
 62
     3
100
AcDbCircle
 10
274.9999999999999
 20
523.5
 30
0.0
 40
4.25
  0
CIRCLE
  5
421
330
1F
100
AcDbEntity
  8
Ｓ_１_１
  6
CONTINUOUS
 62
     3
100
AcDbCircle
 10
274.9999999999999
 20
426.4999999999999
 30
0.0
 40
4.25
  0
CIRCLE
  5
422
330
1F
100
AcDbEntity
  8
Ｓ_１_１
  6
CONTINUOUS
 62
     3
100
AcDbCircle
 10
309.2946701049805
 20
440.7053222656249
 30
0.0
 40
5.125
  0
CIRCLE
  5
423
330
1F
100
AcDbEntity
  8
Ｓ_１_１
  6
CONTINUOUS
 62
     3
100
AcDbCircle
 10
240.7053184509276
 20
440.7053222656249
 30
0.0
 40
5.125
  0
CIRCLE
  5
424
330
1F
100
AcDbEntity
  8
Ｓ_１_１
  6
CONTINUOUS
 62
     3
100
AcDbCircle
 10
240.7053184509276
 20
509.2946777343749
 30
0.0
 40
5.125
  0
CIRCLE
  5
425
330
1F
100
AcDbEntity
  8
Ｓ_１_１
  6
CONTINUOUS
 62
     3
100
AcDbCircle
 10
309.2946701049805
 20
509.2946777343749
 30
0.0
 40
5.125
  0
CIRCLE
  5
426
330
1F
100
AcDbEntity
  8
Ｓ_１_１
  6
CONTINUOUS
 62
     3
100
AcDbCircle
 10
240.7053184509276
 20
440.7053222656249
 30
0.0
 40
6.0
  0
CIRCLE
  5
427
330
1F
100
AcDbEntity
  8
Ｓ_１_１
  6
CONTINUOUS
 62
     3
100
AcDbCircle
 10
240.7053184509276
 20
509.2946777343749
 30
0.0
 40
6.0
  0
CIRCLE
  5
428
330
1F
100
AcDbEntity
  8
Ｓ_１_１
  6
CONTINUOUS
 62
     3
100
AcDbCircle
 10
309.2946701049805
 20
509.2946777343749
 30
0.0
 40
6.0
  0
CIRCLE
  5
429
330
1F
100
AcDbEntity
  8
Ｓ_１_１
  6
CONTINUOUS
 62
     3
100
AcDbCircle
 10
309.2946701049805
 20
440.7053222656249
 30
0.0
 40
6.0
  0
CIRCLE
  5
42A
330
1F
100
AcDbEntity
  8
Ｓ_１_１
  6
CONTINUOUS
 62
     3
100
AcDbCircle
 10
274.9999999999999
 20
426.4999999999999
 30
0.0
 40
5.0
  0
CIRCLE
  5
42B
330
1F
100
AcDbEntity
  8
Ｓ_１_１
  6
CONTINUOUS
 62
     3
100
AcDbCircle
 10
274.9999999999999
 20
523.5
 30
0.0
 40
5.0
  0
CIRCLE
  5
42C
330
1F
100
AcDbEntity
  8
Ｓ_１_１
  6
CONTINUOUS
 62
     3
100
AcDbCircle
 10
274.9999999999999
 20
392.9999999999999
 30
0.0
 40
3.375
  0
CIRCLE
  5
42D
330
1F
100
AcDbEntity
  8
Ｓ_１_１
  6
CONTINUOUS
 62
     3
100
AcDbCircle
 10
356.9999923706054
 20
474.9999999999999
 30
0.0
 40
3.375
  0
CIRCLE
  5
42E
330
1F
100
AcDbEntity
  8
Ｓ_１_１
  6
CONTINUOUS
 62
     3
100
AcDbCircle
 10
274.9999999999999
 20
557.0
 30
0.0
 40
3.375
  0
CIRCLE
  5
42F
330
1F
100
AcDbEntity
  8
Ｓ_１_１
  6
CONTINUOUS
 62
     3
100
AcDbCircle
 10
192.9999961853026
 20
474.9999999999999
 30
0.0
 40
3.375
  0
CIRCLE
  5
430
330
1F
100
AcDbEntity
  8
Ｓ_１_１
  6
CONTINUOUS
 62
     3
100
AcDbCircle
 10
192.9999961853026
 20
474.9999999999999
 30
0.0
 40
4.0
  0
CIRCLE
  5
431
330
1F
100
AcDbEntity
  8
Ｓ_１_１
  6
CONTINUOUS
 62
     3
100
AcDbCircle
 10
274.9999999999999
 20
392.9999999999999
 30
0.0
 40
4.0
  0
CIRCLE
  5
432
330
1F
100
AcDbEntity
  8
Ｓ_１_１
  6
CONTINUOUS
 62
     3
100
AcDbCircle
 10
356.9999923706054
 20
474.9999999999999
 30
0.0
 40
4.0
  0
CIRCLE
  5
433
330
1F
100
AcDbEntity
  8
Ｓ_１_１
  6
CONTINUOUS
 62
     3
100
AcDbCircle
 10
274.9999999999999
 20
557.0
 30
0.0
 40
4.0
  0
CIRCLE
  5
434
330
1F
100
AcDbEntity
  8
Ｓ_１_１
  6
CONTINUOUS
 62
     3
100
AcDbCircle
 10
274.9999999999999
 20
474.9999999999999
 30
0.0
 40
68.5
  0
CIRCLE
  5
435
330
1F
100
AcDbEntity
  8
Ｓ_１_１
  6
CONTINUOUS
 62
     3
100
AcDbCircle
 10
274.9999999999999
 20
474.9999999999999
 30
0.0
 40
33.99996566772461
  0
CIRCLE
  5
436
330
1F
100
AcDbEntity
  8
Ｓ_１_１
  6
CONTINUOUS
 62
     3
100
AcDbCircle
 10
274.9999999999999
 20
474.9999999999999
 30
0.0
 40
31.99996757507325
  0
CIRCLE
  5
437
330
1F
100
AcDbEntity
  8
Ｓ_１_１
  6
CONTINUOUS
 62
     3
100
AcDbCircle
 10
274.9999999999999
 20
474.9999999999999
 30
0.0
 40
63.26794815063477
  0
ARC
  5
438
330
1F
100
AcDbEntity
  8
Ｓ_１_１
  6
CONTINUOUS
 62
     3
100
AcDbCircle
 10
274.9999999999999
 20
474.9999999999999
 30
0.0
 40
90.5
100
AcDbArc
 50
226.7809441637015
 51
223.2190515105875
  0
ARC
  5
439
330
1F
100
AcDbEntity
  8
Ｓ_１_１
  6
CONTINUOUS
 62
     3
100
AcDbCircle
 10
274.9999999999999
 20
474.9999999999999
 30
0.0
 40
92.5
100
AcDbArc
 50
226.7615874075937
 51
223.2384219270737
  0
CIRCLE
  5
43A
330
1F
100
AcDbEntity
  8
Ｓ_１_１
  6
CONTINUOUS
 62
     3
100
AcDbCircle
 10
274.9999999999999
 20
474.9999999999999
 30
0.0
 40
100.4999923706055
  0
CIRCLE
  5
43B
330
1F
100
AcDbEntity
  8
Ｓ_１_１
  6
CONTINUOUS
 62
     3
100
AcDbCircle
 10
274.9999999999999
 20
474.9999999999999
 30
0.0
 40
65.0
  0
CIRCLE
  5
43C
330
1F
100
AcDbEntity
  8
Ｓ_１_１
  6
CONTINUOUS
 62
     3
100
AcDbCircle
 10
274.9999999999999
 20
474.9999999999999
 30
0.0
 40
102.5
  0
LINE
  5
43D
330
1F
100
AcDbEntity
  8
Ｓ_１_１
  6
CONTINUOUS
 62
     3
100
AcDbLine
 10
211.1996844717268
 20
411.8585600309379
 30
0.0
 11
212.0996783682111
 21
410.2997249037034
 31
0.0
  0
LINE
  5
43E
330
1F
100
AcDbEntity
  8
Ｓ_１_１
  6
CONTINUOUS
 62
     3
100
AcDbLine
 10
209.3997001647948
 20
411.8585510253906
 30
0.0
 11
211.1997489929198
 21
411.8585510253906
 31
0.0
  0
LINE
  5
43F
330
1F
100
AcDbEntity
  8
Ｓ_１_１
  6
CONTINUOUS
 62
     3
100
AcDbLine
 10
208.4997012402536
 20
410.2997597354151
 30
0.0
 11
209.3996951367379
 21
411.8585948626496
 31
0.0
  0
LINE
  5
440
330
1F
100
AcDbEntity
  8
Ｓ_１_１
  6
CONTINUOUS
 62
     3
100
AcDbLine
 10
211.1996876191196
 20
408.7409218447901
 30
0.0
 11
212.0996815156039
 21
410.2997569720246
 31
0.0
  0
LINE
  5
441
330
1F
100
AcDbEntity
  8
Ｓ_１_１
  6
CONTINUOUS
 62
     3
100
AcDbLine
 10
209.3997001647948
 20
408.7408752441406
 30
0.0
 11
211.1997489929198
 21
408.7408752441406
 31
0.0
  0
LINE
  5
442
330
1F
100
AcDbEntity
  8
Ｓ_１_１
  6
CONTINUOUS
 62
     3
100
AcDbLine
 10
208.4996980928607
 20
410.2997221403129
 30
0.0
 11
209.3996919893451
 21
408.7408870130784
 31
0.0
  0
LINE
  5
443
330
1F
100
AcDbEntity
  8
Ｓ_１_１
  6
CONTINUOUS
 62
     3
100
AcDbLine
 10
393.5000032088318
 20
494.4999889398135
 30
0.0
 11
394.0000037817734
 21
494.9999894706083
 31
0.0
  0
LINE
  5
444
330
1F
100
AcDbEntity
  8
Ｓ_１_１
  6
CONTINUOUS
 62
     3
100
AcDbLine
 10
405.4999942422779
 20
494.5000046792601
 30
0.0
 11
405.0000044589302
 21
494.9999944204618
 31
0.0
  0
LINE
  5
445
330
1F
100
AcDbEntity
  8
Ｓ_１_１
  6
CONTINUOUS
 62
     3
100
AcDbLine
 10
394.0000020958995
 20
454.9999884795265
 30
0.0
 11
393.4999907755117
 21
455.4999998420621
 31
0.0
  0
LINE
  5
446
330
1F
100
AcDbEntity
  8
Ｓ_１_１
  6
CONTINUOUS
 62
     3
100
AcDbLine
 10
405.0000034474059
 20
454.9999907319815
 30
0.0
 11
405.5000039782007
 21
455.4999913049232
 31
0.0
  0
LINE
  5
447
330
1F
100
AcDbEntity
  8
Ｓ_１_１
  6
CONTINUOUS
 62
     3
100
AcDbLine
 10
405.4999923706054
 20
494.4999999999999
 30
0.0
 11
393.4999923706054
 21
494.4999999999999
 31
0.0
  0
LINE
  5
448
330
1F
100
AcDbEntity
  8
Ｓ_１_１
  6
CONTINUOUS
 62
     3
100
AcDbLine
 10
405.4999923706054
 20
455.4999999999999
 30
0.0
 11
393.4999923706054
 21
455.4999999999999
 31
0.0
  0
LINE
  5
449
330
1F
100
AcDbEntity
  8
Ｓ_１_１
  6
CONTINUOUS
 62
     3
100
AcDbLine
 10
393.4999923706054
 20
465.4999999999999
 30
0.0
 11
393.4999923706054
 21
464.9999999999999
 31
0.0
  0
LINE
  5
44A
330
1F
100
AcDbEntity
  8
Ｓ_１_１
  6
CONTINUOUS
 62
     3
100
AcDbLine
 10
405.4999923706054
 20
465.4999999999999
 30
0.0
 11
405.4999923706054
 21
464.9999999999999
 31
0.0
  0
LINE
  5
44B
330
1F
100
AcDbEntity
  8
Ｓ_１_１
  6
CONTINUOUS
 62
     3
100
AcDbLine
 10
405.4999923706054
 20
484.9999999999999
 30
0.0
 11
405.4999923706054
 21
484.5
 31
0.0
  0
LINE
  5
44C
330
1F
100
AcDbEntity
  8
Ｓ_１_１
  6
CONTINUOUS
 62
     3
100
AcDbLine
 10
393.4999923706054
 20
484.9999999999999
 30
0.0
 11
393.4999923706054
 21
484.5
 31
0.0
  0
LINE
  5
44D
330
1F
100
AcDbEntity
  8
Ｓ_１_１
  6
CONTINUOUS
 62
     3
100
AcDbLine
 10
393.4999923706054
 20
455.9999999999999
 30
0.0
 11
393.4999923706054
 21
455.4999999999999
 31
0.0
  0
LINE
  5
44E
330
1F
100
AcDbEntity
  8
Ｓ_１_１
  6
CONTINUOUS
 62
     3
100
AcDbLine
 10
405.4999923706054
 20
455.9999999999999
 30
0.0
 11
405.4999923706054
 21
455.4999999999999
 31
0.0
  0
LINE
  5
44F
330
1F
100
AcDbEntity
  8
Ｓ_１_１
  6
CONTINUOUS
 62
     3
100
AcDbLine
 10
404.9999923706054
 20
454.9999999999999
 30
0.0
 11
393.9999923706054
 21
454.9999999999999
 31
0.0
  0
LINE
  5
450
330
1F
100
AcDbEntity
  8
Ｓ_１_１
  6
CONTINUOUS
 62
     3
100
AcDbLine
 10
404.9999923706054
 20
495.0
 30
0.0
 11
393.9999923706054
 21
495.0
 31
0.0
  0
LINE
  5
451
330
1F
100
AcDbEntity
  8
Ｓ_１_１
  6
CONTINUOUS
 62
     3
100
AcDbLine
 10
405.4999923706054
 20
494.4999999999999
 30
0.0
 11
405.4999923706054
 21
493.9999999999999
 31
0.0
  0
LINE
  5
452
330
1F
100
AcDbEntity
  8
Ｓ_１_１
  6
CONTINUOUS
 62
     3
100
AcDbLine
 10
393.4999923706054
 20
494.4999999999999
 30
0.0
 11
393.4999923706054
 21
493.9999999999999
 31
0.0
  0
LINE
  5
453
330
1F
100
AcDbEntity
  8
Ｓ_１_１
  6
CONTINUOUS
 62
     3
100
AcDbLine
 10
412.4999923706054
 20
493.9999999999999
 30
0.0
 11
412.4999923706054
 21
484.9999999999999
 31
0.0
  0
LINE
  5
454
330
1F
100
AcDbEntity
  8
Ｓ_１_１
  6
CONTINUOUS
 62
     3
100
AcDbLine
 10
412.4999923706054
 20
464.9999999999999
 30
0.0
 11
412.4999923706054
 21
455.9999999999999
 31
0.0
  0
LINE
  5
455
330
1F
100
AcDbEntity
  8
Ｓ_１_１
  6
CONTINUOUS
 62
     3
100
AcDbLine
 10
401.4999923706054
 20
484.5
 30
0.0
 11
401.4999923706054
 21
465.4999999999999
 31
0.0
  0
LINE
  5
456
330
1F
100
AcDbEntity
  8
Ｓ_１_１
  6
CONTINUOUS
 62
     3
100
AcDbLine
 10
418.4999923706054
 20
484.5
 30
0.0
 11
380.4999923706054
 21
484.5
 31
0.0
  0
LINE
  5
457
330
1F
100
AcDbEntity
  8
Ｓ_１_１
  6
CONTINUOUS
 62
     3
100
AcDbLine
 10
418.4999923706054
 20
465.4999999999999
 30
0.0
 11
380.4999923706054
 21
465.4999999999999
 31
0.0
  0
LINE
  5
458
330
1F
100
AcDbEntity
  8
Ｓ_１_１
  6
CONTINUOUS
 62
     3
100
AcDbLine
 10
380.4999923706054
 20
484.5
 30
0.0
 11
380.4999923706054
 21
465.4999999999999
 31
0.0
  0
LINE
  5
459
330
1F
100
AcDbEntity
  8
Ｓ_１_１
  6
CONTINUOUS
 62
     3
100
AcDbLine
 10
418.4999923706054
 20
484.5
 30
0.0
 11
418.4999923706054
 21
465.4999999999999
 31
0.0
  0
LINE
  5
45A
330
1F
100
AcDbEntity
  8
Ｓ_１_１
  6
CONTINUOUS
 62
     3
100
AcDbLine
 10
417.4999923706054
 20
464.9999999999999
 30
0.0
 11
417.4999923706054
 21
455.9999999999999
 31
0.0
  0
LINE
  5
45B
330
1F
100
AcDbEntity
  8
Ｓ_１_１
  6
CONTINUOUS
 62
     3
100
AcDbLine
 10
375.7236251831054
 20
455.9999999999999
 30
0.0
 11
417.4999923706054
 21
455.9999999999999
 31
0.0
  0
LINE
  5
45C
330
1F
100
AcDbEntity
  8
Ｓ_１_１
  6
CONTINUOUS
 62
     3
100
AcDbLine
 10
375.7236251831054
 20
493.9999999999999
 30
0.0
 11
417.4999923706054
 21
493.9999999999999
 31
0.0
  0
LINE
  5
45D
330
1F
100
AcDbEntity
  8
Ｓ_１_１
  6
CONTINUOUS
 62
     3
100
AcDbLine
 10
377.0110244750975
 20
464.9999999999999
 30
0.0
 11
417.4999923706054
 21
464.9999999999999
 31
0.0
  0
LINE
  5
45E
330
1F
100
AcDbEntity
  8
Ｓ_１_１
  6
CONTINUOUS
 62
     3
100
AcDbLine
 10
377.0110244750975
 20
484.9999999999999
 30
0.0
 11
417.4999923706054
 21
484.9999999999999
 31
0.0
  0
LINE
  5
45F
330
1F
100
AcDbEntity
  8
Ｓ_１_１
  6
CONTINUOUS
 62
     3
100
AcDbLine
 10
417.4999923706054
 20
493.9999999999999
 30
0.0
 11
417.4999923706054
 21
484.9999999999999
 31
0.0
  0
LINE
  5
460
330
1F
100
AcDbEntity
  8
Ｓ_１_１
  6
CONTINUOUS
 62
     3
100
AcDbLine
 10
156.4999972439481
 20
494.4999914872969
 30
0.0
 11
155.9999966710064
 21
494.9999920180917
 31
0.0
  0
LINE
  5
461
330
1F
100
AcDbEntity
  8
Ｓ_１_１
  6
CONTINUOUS
 62
     3
100
AcDbLine
 10
144.5000035131033
 20
494.4999940395818
 30
0.0
 11
144.999993296451
 21
494.9999837807836
 31
0.0
  0
LINE
  5
462
330
1F
100
AcDbEntity
  8
Ｓ_１_１
  6
CONTINUOUS
 62
     3
100
AcDbLine
 10
155.9999983568804
 20
454.9999910270098
 30
0.0
 11
156.4999988876751
 21
455.4999915999514
 31
0.0
  0
LINE
  5
463
330
1F
100
AcDbEntity
  8
Ｓ_１_１
  6
CONTINUOUS
 62
     3
100
AcDbLine
 10
145.000002400171
 20
454.9999935792948
 30
0.0
 11
144.5000018693762
 21
455.4999941522364
 31
0.0
  0
LINE
  5
464
330
1F
100
AcDbEntity
  8
Ｓ_１_１
  6
CONTINUOUS
 62
     3
100
AcDbLine
 10
144.4999961853026
 20
494.4999999999999
 30
0.0
 11
156.4999961853026
 21
494.4999999999999
 31
0.0
  0
LINE
  5
465
330
1F
100
AcDbEntity
  8
Ｓ_１_１
  6
CONTINUOUS
 62
     3
100
AcDbLine
 10
144.4999961853026
 20
455.4999999999999
 30
0.0
 11
156.4999961853026
 21
455.4999999999999
 31
0.0
  0
LINE
  5
466
330
1F
100
AcDbEntity
  8
Ｓ_１_１
  6
CONTINUOUS
 62
     3
100
AcDbLine
 10
156.4999961853026
 20
465.4999999999999
 30
0.0
 11
156.4999961853026
 21
464.9999999999999
 31
0.0
  0
LINE
  5
467
330
1F
100
AcDbEntity
  8
Ｓ_１_１
  6
CONTINUOUS
 62
     3
100
AcDbLine
 10
144.4999961853026
 20
465.4999999999999
 30
0.0
 11
144.4999961853026
 21
464.9999999999999
 31
0.0
  0
LINE
  5
468
330
1F
100
AcDbEntity
  8
Ｓ_１_１
  6
CONTINUOUS
 62
     3
100
AcDbLine
 10
144.4999961853026
 20
484.9999999999999
 30
0.0
 11
144.4999961853026
 21
484.5
 31
0.0
  0
LINE
  5
469
330
1F
100
AcDbEntity
  8
Ｓ_１_１
  6
CONTINUOUS
 62
     3
100
AcDbLine
 10
156.4999961853026
 20
484.9999999999999
 30
0.0
 11
156.4999961853026
 21
484.5
 31
0.0
  0
LINE
  5
46A
330
1F
100
AcDbEntity
  8
Ｓ_１_１
  6
CONTINUOUS
 62
     3
100
AcDbLine
 10
156.4999961853026
 20
455.9999999999999
 30
0.0
 11
156.4999961853026
 21
455.4999999999999
 31
0.0
  0
LINE
  5
46B
330
1F
100
AcDbEntity
  8
Ｓ_１_１
  6
CONTINUOUS
 62
     3
100
AcDbLine
 10
144.4999961853026
 20
455.9999999999999
 30
0.0
 11
144.4999961853026
 21
455.4999999999999
 31
0.0
  0
LINE
  5
46C
330
1F
100
AcDbEntity
  8
Ｓ_１_１
  6
CONTINUOUS
 62
     3
100
AcDbLine
 10
144.9999961853026
 20
454.9999999999999
 30
0.0
 11
155.9999961853026
 21
454.9999999999999
 31
0.0
  0
LINE
  5
46D
330
1F
100
AcDbEntity
  8
Ｓ_１_１
  6
CONTINUOUS
 62
     3
100
AcDbLine
 10
144.9999961853026
 20
495.0
 30
0.0
 11
155.9999961853026
 21
495.0
 31
0.0
  0
LINE
  5
46E
330
1F
100
AcDbEntity
  8
Ｓ_１_１
  6
CONTINUOUS
 62
     3
100
AcDbLine
 10
144.4999961853026
 20
494.4999999999999
 30
0.0
 11
144.4999961853026
 21
493.9999999999999
 31
0.0
  0
LINE
  5
46F
330
1F
100
AcDbEntity
  8
Ｓ_１_１
  6
CONTINUOUS
 62
     3
100
AcDbLine
 10
156.4999961853026
 20
494.4999999999999
 30
0.0
 11
156.4999961853026
 21
493.9999999999999
 31
0.0
  0
LINE
  5
470
330
1F
100
AcDbEntity
  8
Ｓ_１_１
  6
CONTINUOUS
 62
     3
100
AcDbLine
 10
137.4999961853026
 20
493.9999999999999
 30
0.0
 11
137.4999961853026
 21
484.9999999999999
 31
0.0
  0
LINE
  5
471
330
1F
100
AcDbEntity
  8
Ｓ_１_１
  6
CONTINUOUS
 62
     3
100
AcDbLine
 10
137.4999961853026
 20
464.9999999999999
 30
0.0
 11
137.4999961853026
 21
455.9999999999999
 31
0.0
  0
LINE
  5
472
330
1F
100
AcDbEntity
  8
Ｓ_１_１
  6
CONTINUOUS
 62
     3
100
AcDbLine
 10
148.4999961853026
 20
484.5
 30
0.0
 11
148.4999961853026
 21
465.4999999999999
 31
0.0
  0
LINE
  5
473
330
1F
100
AcDbEntity
  8
Ｓ_１_１
  6
CONTINUOUS
 62
     3
100
AcDbLine
 10
131.4999961853026
 20
484.5
 30
0.0
 11
169.4999961853026
 21
484.5
 31
0.0
  0
LINE
  5
474
330
1F
100
AcDbEntity
  8
Ｓ_１_１
  6
CONTINUOUS
 62
     3
100
AcDbLine
 10
131.4999961853026
 20
465.4999999999999
 30
0.0
 11
169.4999961853026
 21
465.4999999999999
 31
0.0
  0
LINE
  5
475
330
1F
100
AcDbEntity
  8
Ｓ_１_１
  6
CONTINUOUS
 62
     3
100
AcDbLine
 10
169.4999961853026
 20
484.5
 30
0.0
 11
169.4999961853026
 21
465.4999999999999
 31
0.0
  0
LINE
  5
476
330
1F
100
AcDbEntity
  8
Ｓ_１_１
  6
CONTINUOUS
 62
     3
100
AcDbLine
 10
131.4999961853026
 20
484.5
 30
0.0
 11
131.4999961853026
 21
465.4999999999999
 31
0.0
  0
LINE
  5
477
330
1F
100
AcDbEntity
  8
Ｓ_１_１
  6
CONTINUOUS
 62
     3
100
AcDbLine
 10
132.4999961853026
 20
464.9999999999999
 30
0.0
 11
132.4999961853026
 21
455.9999999999999
 31
0.0
  0
LINE
  5
478
330
1F
100
AcDbEntity
  8
Ｓ_１_１
  6
CONTINUOUS
 62
     3
100
AcDbLine
 10
174.2763648033141
 20
455.9999999999999
 30
0.0
 11
132.4999961853026
 21
455.9999999999999
 31
0.0
  0
LINE
  5
479
330
1F
100
AcDbEntity
  8
Ｓ_１_１
  6
CONTINUOUS
 62
     3
100
AcDbLine
 10
174.2763648033141
 20
493.9999999999999
 30
0.0
 11
132.4999961853026
 21
493.9999999999999
 31
0.0
  0
LINE
  5
47A
330
1F
100
AcDbEntity
  8
Ｓ_１_１
  6
CONTINUOUS
 62
     3
100
AcDbLine
 10
172.9889678955077
 20
464.9999999999999
 30
0.0
 11
132.4999961853026
 21
464.9999999999999
 31
0.0
  0
LINE
  5
47B
330
1F
100
AcDbEntity
  8
Ｓ_１_１
  6
CONTINUOUS
 62
     3
100
AcDbLine
 10
172.9889678955077
 20
484.9999999999999
 30
0.0
 11
132.4999961853026
 21
484.9999999999999
 31
0.0
  0
LINE
  5
47C
330
1F
100
AcDbEntity
  8
Ｓ_１_１
  6
CONTINUOUS
 62
     3
100
AcDbLine
 10
132.4999961853026
 20
493.9999999999999
 30
0.0
 11
132.4999961853026
 21
484.9999999999999
 31
0.0
  0
DIMENSION
  5
47D
330
1F
100
AcDbEntity
  8
Ｓ_１_１
  6
CONTINUOUS
 62
     2
100
AcDbDimension
  2
*D23
 10
418.49999237061
 20
725.0
 30
0.0
 11
274.9999942779551
 21
734.625
 31
0.0
 70
   160
  3
ISO-25
100
AcDbAlignedDimension
 13
131.4999961853
 23
484.5
 33
0.0
 14
418.49999237061
 24
484.5
 34
0.0
100
AcDbRotatedDimension
1001
ACAD
1000
DSTYLE
1002
{
1070
   270
1070
     2
1070
     6
1000
EX_NORM
1070
     7
1000
EX_NORM
1070
    41
1040
10.5
1070
    42
1040
5.25
1070
    44
1040
3.5
1070
    73
1070
     0
1070
    74
1070
     0
1070
    75
1070
     0
1070
    76
1070
     0
1070
    77
1070
     1
1070
    78
1070
     8
1070
   140
1040
12.12016381576852
1070
   147
1040
0.0
1070
   173
1070
     1
1070
   176
1070
     2
1070
   177
1070
     2
1070
   178
1070
     2
1070
   271
1070
     2
1070
   277
1070
     2
1070
   279
1070
     2
1070
   280
1070
     0
1070
   287
1070
     5
1070
   340
1005
113
1002
}
  0
DIMENSION
  5
48A
330
1F
100
AcDbEntity
  8
Ｓ_１_１
  6
CONTINUOUS
 62
     2
100
AcDbDimension
  2
*D24
 10
232.9977679164543
 20
499.2499999999993
 30
0.0
 11
396.3984868580191
 21
404.9105509333118
 31
0.0
 70
   163
  1
P.C.D 97
  3
ISO-25
100
AcDbDiametricDimension
 15
317.0022320835456
 25
450.7500000000006
 35
0.0
 40
0.0
1001
ACAD
1000
DSTYLE
1002
{
1070
   270
1070
     2
1070
     6
1000
EX_NORM
1070
     7
1000
EX_NORM
1070
    41
1040
10.5
1070
    73
1070
     0
1070
    74
1070
     0
1070
    77
1070
     1
1070
    78
1070
     8
1070
   140
1040
12.12016381576852
1070
   147
1040
1.74999988079071
1070
   173
1070
     1
1070
   176
1070
     2
1070
   177
1070
     2
1070
   178
1070
     2
1070
   271
1070
     2
1070
   277
1070
     2
1070
   279
1070
     0
1070
   280
1070
     0
1070
   287
1070
     3
1070
   340
1005
113
1002
}
  0
LEADER
  5
496
330
1F
100
AcDbEntity
  8
Ｓ_１_１
  6
CONTINUOUS
 62
     2
100
AcDbLeader
  3
ISO-25
 76
     3
 10
310.97608509744
 20
434.94573516036
 30
0.0
 10
364.67371505425
 20
341.93871182912
 30
0.0
 10
477.05
 20
341.93871182912
 30
0.0
1001
ACAD
1000
DSTYLE
1002
{
1070
     5
1000
EX_NORM
1070
    41
1040
10.5
1070
   341
1005
78
1002
}
  0
TEXT
  5
497
330
1F
100
AcDbEntity
  8
Ｓ_１_１
  6
CONTINUOUS
 62
     4
100
AcDbText
 10
374.675
 20
345.9035554450095
 30
0.0
 40
12.12016381576852
  1
4-M12ネジ深20
 41
0.9992308297349456
  7
EXCADTTF1
 72
     5
 11
477.05
 21
345.9035554450095
 31
0.0
100
AcDbText
  0
LINE
  5
498
330
1F
100
AcDbEntity
  8
Ｓ_１_１
  6
CONTINUOUS
 62
     3
100
AcDbLine
 10
565.000006
 20
411.7320550000001
 30
0.0
 11
565.000006
 21
538.267955
 31
0.0
  0
LINE
  5
499
330
1F
100
AcDbEntity
  8
Ｓ_１_１
  6
CONTINUOUS
 62
     3
100
AcDbLine
 10
568.0000010000001
 20
409.9999990000001
 30
0.0
 11
565.0000010000001
 21
411.7320510000001
 31
0.0
  0
LINE
  5
49A
330
1F
100
AcDbEntity
  8
Ｓ_１_１
  6
CONTINUOUS
 62
     3
100
AcDbLine
 10
575.000006
 20
575.50001
 30
0.0
 11
575.000006
 21
374.4999900000001
 31
0.0
  0
LINE
  5
49B
330
1F
100
AcDbEntity
  8
Ｓ_１_１
  6
CONTINUOUS
 62
     3
100
AcDbLine
 10
577.000006
 20
372.5000020000001
 30
0.0
 11
947.9999919999999
 21
372.5000020000001
 31
0.0
  0
LINE
  5
49C
330
1F
100
AcDbEntity
  8
Ｓ_１_１
  6
CONTINUOUS
 62
     3
100
AcDbLine
 10
949.9999869999999
 20
374.4999430000001
 30
0.0
 11
948.000028
 21
372.499984
 31
0.0
  0
LINE
  5
49D
330
1F
100
AcDbEntity
  8
Ｓ_１_１
  6
CONTINUOUS
 62
     3
100
AcDbLine
 10
576.9999959999998
 20
372.5000020000001
 30
0.0
 11
574.9999999999998
 21
374.4999980000001
 31
0.0
  0
LINE
  5
49E
330
1F
100
AcDbEntity
  8
Ｓ_１_１
  6
CONTINUOUS
 62
     3
100
AcDbLine
 10
949.9999999999999
 20
374.499962
 30
0.0
 11
949.9999999999999
 21
575.5000480000001
 31
0.0
  0
LINE
  5
49F
330
1F
100
AcDbEntity
  8
Ｓ_１_１
  6
CONTINUOUS
 62
     3
100
AcDbLine
 10
568.0000029999999
 20
410.0000020000001
 30
0.0
 11
575.000006
 21
410.0000020000001
 31
0.0
  0
LINE
  5
4A0
330
1F
100
AcDbEntity
  8
Ｓ_１_１
  6
CONTINUOUS
 62
     3
100
AcDbLine
 10
568.0000029999999
 20
410.0000020000001
 30
0.0
 11
568.0000029999999
 21
539.9999990000001
 31
0.0
  0
LINE
  5
4A1
330
1F
100
AcDbEntity
  8
Ｓ_１_１
  6
CONTINUOUS
 62
     3
100
AcDbLine
 10
577.0000010000001
 20
372.5000020000001
 30
0.0
 11
577.0000010000001
 21
577.4999990000001
 31
0.0
  0
LINE
  5
4A2
330
1F
100
AcDbEntity
  8
Ｓ_１_１
  6
CONTINUOUS
 62
     3
100
AcDbLine
 10
947.9999919999999
 20
372.5000020000001
 30
0.0
 11
947.9999919999999
 21
577.4999990000001
 31
0.0
  0
LINE
  5
4A3
330
1F
100
AcDbEntity
  8
Ｓ_１_１
  6
CONTINUOUS
 62
     3
100
AcDbLine
 10
568.0000040000002
 20
540.0000010000001
 30
0.0
 11
565.0000050000001
 21
538.2679500000002
 31
0.0
  0
LINE
  5
4A4
330
1F
100
AcDbEntity
  8
Ｓ_１_１
  6
CONTINUOUS
 62
     3
100
AcDbLine
 10
577.0000010000001
 20
577.4999990000001
 30
0.0
 11
947.9999919999999
 21
577.4999990000001
 31
0.0
  0
LINE
  5
4A5
330
1F
100
AcDbEntity
  8
Ｓ_１_１
  6
CONTINUOUS
 62
     3
100
AcDbLine
 10
949.999997
 20
575.500025
 30
0.0
 11
948.0000110000001
 21
577.5000110000001
 31
0.0
  0
LINE
  5
4A6
330
1F
100
AcDbEntity
  8
Ｓ_１_１
  6
CONTINUOUS
 62
     3
100
AcDbLine
 10
576.9999949999999
 20
577.4999970000001
 30
0.0
 11
575.0000029999999
 21
575.500004
 31
0.0
  0
LINE
  5
4A7
330
1F
100
AcDbEntity
  8
Ｓ_１_１
  6
CONTINUOUS
 62
     3
100
AcDbLine
 10
568.0000029999999
 20
539.9999990000001
 30
0.0
 11
575.000006
 21
539.9999990000001
 31
0.0
  0
LINE
  5
4A8
330
1F
100
AcDbEntity
  8
Ｓ_１_１
  6
CONTINUOUS
 62
     3
100
AcDbLine
 10
767.9999760000001
 20
483.0000020000001
 30
0.0
 11
767.9999760000001
 21
467.000008
 31
0.0
  0
LINE
  5
4A9
330
1F
100
AcDbEntity
  8
Ｓ_１_１
  6
CONTINUOUS
 62
     3
100
AcDbLine
 10
766.999991
 20
484.000006
 30
0.0
 11
766.999991
 21
466.000004
 31
0.0
  0
LINE
  5
4AA
330
1F
100
AcDbEntity
  8
Ｓ_１_１
  6
CONTINUOUS
 62
     3
100
AcDbLine
 10
668.0000060000001
 20
484.000006
 30
0.0
 11
766.999991
 21
484.000006
 31
0.0
  0
LINE
  5
4AB
330
1F
100
AcDbEntity
  8
Ｓ_１_１
  6
CONTINUOUS
 62
     3
100
AcDbLine
 10
668.0000060000001
 20
466.000004
 30
0.0
 11
766.999991
 21
466.000004
 31
0.0
  0
LINE
  5
4AC
330
1F
100
AcDbEntity
  8
Ｓ_１_１
  6
CONTINUOUS
 62
     3
100
AcDbLine
 10
766.999985
 20
484.0000020000001
 30
0.0
 11
767.999991
 21
482.9999950000001
 31
0.0
  0
LINE
  5
4AD
330
1F
100
AcDbEntity
  8
Ｓ_１_１
  6
CONTINUOUS
 62
     3
100
AcDbLine
 10
767.999991
 20
467.0000000000001
 30
0.0
 11
766.999991
 21
466.0
 31
0.0
  0
LINE
  5
4AE
330
1F
100
AcDbEntity
  8
Ｓ_１_１
  6
CONTINUOUS
 62
     3
100
AcDbLine
 10
889.500009
 20
583.862265
 30
0.0
 11
910.5000309999999
 21
583.862265
 31
0.0
  0
LINE
  5
4AF
330
1F
100
AcDbEntity
  8
Ｓ_１_１
  6
CONTINUOUS
 62
     3
100
AcDbLine
 10
889.49997
 20
592.862261
 30
0.0
 11
910.4999929999999
 21
592.862261
 31
0.0
  0
LINE
  5
4B0
330
1F
100
AcDbEntity
  8
Ｓ_１_１
  6
CONTINUOUS
 62
     3
100
AcDbLine
 10
906.0622030000001
 20
591.924456
 30
0.0
 11
906.0622030000001
 21
584.8000890000001
 31
0.0
  0
LINE
  5
4B1
330
1F
100
AcDbEntity
  8
Ｓ_１_１
  6
CONTINUOUS
 62
     3
100
AcDbLine
 10
893.9378370000001
 20
591.924456
 30
0.0
 11
893.9378370000001
 21
584.8000890000001
 31
0.0
  0
LINE
  5
4B2
330
1F
100
AcDbEntity
  8
Ｓ_１_１
  6
CONTINUOUS
 62
     3
100
AcDbLine
 10
887.875672
 20
591.924456
 30
0.0
 11
887.875672
 21
584.80007
 31
0.0
  0
LINE
  5
4B3
330
1F
100
AcDbEntity
  8
Ｓ_１_１
  6
CONTINUOUS
 62
     3
100
AcDbLine
 10
912.1243670000001
 20
591.924456
 30
0.0
 11
912.1243670000001
 21
584.8000890000001
 31
0.0
  0
LINE
  5
4B4
330
1F
100
AcDbEntity
  8
Ｓ_１_１
  6
CONTINUOUS
 62
     3
100
AcDbLine
 10
910.500008
 20
592.8622600000001
 30
0.0
 11
912.1243679999999
 21
591.924438
 31
0.0
  0
LINE
  5
4B5
330
1F
100
AcDbEntity
  8
Ｓ_１_１
  6
CONTINUOUS
 62
     3
100
AcDbLine
 10
910.5000050000001
 20
583.8622600000001
 30
0.0
 11
912.124366
 21
584.800082
 31
0.0
  0
LINE
  5
4B6
330
1F
100
AcDbEntity
  8
Ｓ_１_１
  6
CONTINUOUS
 62
     3
100
AcDbLine
 10
889.500001
 20
592.8622750000002
 30
0.0
 11
887.87564
 21
591.9244530000001
 31
0.0
  0
LINE
  5
4B7
330
1F
100
AcDbEntity
  8
Ｓ_１_１
  6
CONTINUOUS
 62
     3
100
AcDbLine
 10
889.499996
 20
583.862271
 30
0.0
 11
887.875636
 21
584.8000930000001
 31
0.0
  0
LINE
  5
4B8
330
1F
100
AcDbEntity
  8
Ｓ_１_１
  6
CONTINUOUS
 62
     3
100
AcDbLine
 10
892.749013
 20
577.499998
 30
0.0
 11
892.436513
 21
582.499998
 31
0.0
  0
LINE
  5
4B9
330
1F
100
AcDbEntity
  8
Ｓ_１_１
  6
CONTINUOUS
 62
     3
100
AcDbLine
 10
892.04765
 20
577.5000030000001
 30
0.0
 11
891.6500080000001
 21
583.8622720000001
 31
0.0
  0
LINE
  5
4BA
330
1F
100
AcDbEntity
  8
Ｓ_１_１
  6
CONTINUOUS
 62
     3
100
AcDbLine
 10
891.735154
 20
582.4999990000001
 30
0.0
 11
908.2648469999999
 21
582.4999990000001
 31
0.0
  0
LINE
  5
4BB
330
1F
100
AcDbEntity
  8
Ｓ_１_１
  6
CONTINUOUS
 62
     3
100
AcDbLine
 10
891.650002
 20
583.8622750000002
 30
0.0
 11
892.436509
 21
582.5000050000001
 31
0.0
  0
LINE
  5
4BC
330
1F
100
AcDbEntity
  8
Ｓ_１_１
  6
CONTINUOUS
 62
     3
100
AcDbLine
 10
907.25098
 20
577.5000050000001
 30
0.0
 11
907.56348
 21
582.499996
 31
0.0
  0
LINE
  5
4BD
330
1F
100
AcDbEntity
  8
Ｓ_１_１
  6
CONTINUOUS
 62
     3
100
AcDbLine
 10
907.952343
 20
577.50001
 30
0.0
 11
908.349985
 21
583.8622790000002
 31
0.0
  0
LINE
  5
4BE
330
1F
100
AcDbEntity
  8
Ｓ_１_１
  6
CONTINUOUS
 62
     3
100
AcDbLine
 10
907.563481
 20
582.4999910000001
 30
0.0
 11
908.349995
 21
583.8622740000001
 31
0.0
  0
LINE
  5
4BF
330
1F
100
AcDbEntity
  8
Ｓ_１_１
  6
CONTINUOUS
 62
     3
100
AcDbLine
 10
891.735154
 20
594.224528
 30
0.0
 11
908.2648469999999
 21
594.224528
 31
0.0
  0
LINE
  5
4C0
330
1F
100
AcDbEntity
  8
Ｓ_１_１
  6
CONTINUOUS
 62
     3
100
AcDbLine
 10
907.179864
 20
600.3622640000001
 30
0.0
 11
907.563473
 21
594.224528
 31
0.0
  0
LINE
  5
4C1
330
1F
100
AcDbEntity
  8
Ｓ_１_１
  6
CONTINUOUS
 62
     3
100
AcDbLine
 10
907.881265
 20
600.3622620000001
 30
0.0
 11
908.350015
 21
592.8622660000001
 31
0.0
  0
LINE
  5
4C2
330
1F
100
AcDbEntity
  8
Ｓ_１_１
  6
CONTINUOUS
 62
     3
100
AcDbLine
 10
907.563502
 20
594.224547
 30
0.0
 11
908.3500119999999
 21
592.8622720000001
 31
0.0
  0
LINE
  5
4C3
330
1F
100
AcDbEntity
  8
Ｓ_１_１
  6
CONTINUOUS
 62
     3
100
AcDbLine
 10
892.118747
 20
600.362267
 30
0.0
 11
891.649996
 21
592.862253
 31
0.0
  0
LINE
  5
4C4
330
1F
100
AcDbEntity
  8
Ｓ_１_１
  6
CONTINUOUS
 62
     3
100
AcDbLine
 10
891.650018
 20
592.862269
 30
0.0
 11
892.436522
 21
594.2245350000001
 31
0.0
  0
LINE
  5
4C5
330
1F
100
AcDbEntity
  8
Ｓ_１_１
  6
CONTINUOUS
 62
     3
100
AcDbLine
 10
892.82011
 20
600.3622720000001
 30
0.0
 11
892.436502
 21
594.224537
 31
0.0
  0
LINE
  5
4C6
330
1F
100
AcDbEntity
  8
Ｓ_１_１
  6
CONTINUOUS
 62
     3
100
AcDbLine
 10
887.999993
 20
662.8622600000001
 30
0.0
 11
912.000008
 21
662.8622600000001
 31
0.0
  0
LINE
  5
4C7
330
1F
100
AcDbEntity
  8
Ｓ_１_１
  6
CONTINUOUS
 62
     3
100
AcDbLine
 10
887.999993
 20
612.862261
 30
0.0
 11
912.000008
 21
612.862261
 31
0.0
  0
LINE
  5
4C8
330
1F
100
AcDbEntity
  8
Ｓ_１_１
  6
CONTINUOUS
 62
     3
100
AcDbLine
 10
887.999993
 20
627.862261
 30
0.0
 11
912.000008
 21
627.862261
 31
0.0
  0
LINE
  5
4C9
330
1F
100
AcDbEntity
  8
Ｓ_１_１
  6
CONTINUOUS
 62
     3
100
AcDbLine
 10
884.500009
 20
635.3622600000001
 30
0.0
 11
898.250008
 21
635.3622600000001
 31
0.0
  0
LINE
  5
4CA
330
1F
100
AcDbEntity
  8
Ｓ_１_１
  6
CONTINUOUS
 62
     3
100
AcDbLine
 10
912.999993
 20
635.3622600000001
 30
0.0
 11
912.999993
 21
628.439615
 31
0.0
  0
LINE
  5
4CB
330
1F
100
AcDbEntity
  8
Ｓ_１_１
  6
CONTINUOUS
 62
     3
100
AcDbLine
 10
887.000009
 20
635.3622600000001
 30
0.0
 11
887.000009
 21
628.439615
 31
0.0
  0
LINE
  5
4CC
330
1F
100
AcDbEntity
  8
Ｓ_１_１
  6
CONTINUOUS
 62
     3
100
AcDbLine
 10
887.999993
 20
662.8622600000001
 30
0.0
 11
887.999993
 21
662.3622680000001
 31
0.0
  0
LINE
  5
4CD
330
1F
100
AcDbEntity
  8
Ｓ_１_１
  6
CONTINUOUS
 62
     3
100
AcDbLine
 10
912.000008
 20
662.8622600000001
 30
0.0
 11
912.000008
 21
662.3622680000001
 31
0.0
  0
LINE
  5
4CE
330
1F
100
AcDbEntity
  8
Ｓ_１_１
  6
CONTINUOUS
 62
     3
100
AcDbLine
 10
887.000009
 20
612.2849250000002
 30
0.0
 11
887.000009
 21
600.939615
 31
0.0
  0
LINE
  5
4CF
330
1F
100
AcDbEntity
  8
Ｓ_１_１
  6
CONTINUOUS
 62
     3
100
AcDbLine
 10
912.999993
 20
612.2849060000001
 30
0.0
 11
912.999993
 21
600.939615
 31
0.0
  0
LINE
  5
4D0
330
1F
100
AcDbEntity
  8
Ｓ_１_１
  6
CONTINUOUS
 62
     3
100
AcDbLine
 10
883.999997
 20
659.3622560000001
 30
0.0
 11
883.999997
 21
651.8622560000001
 31
0.0
  0
LINE
  5
4D1
330
1F
100
AcDbEntity
  8
Ｓ_１_１
  6
CONTINUOUS
 62
     3
100
AcDbLine
 10
915.999985
 20
659.3622560000001
 30
0.0
 11
915.999985
 21
651.8622560000001
 31
0.0
  0
LINE
  5
4D2
330
1F
100
AcDbEntity
  8
Ｓ_１_１
  6
CONTINUOUS
 62
     3
100
AcDbLine
 10
887.000009
 20
662.3622680000001
 30
0.0
 11
912.999993
 21
662.3622680000001
 31
0.0
  0
LINE
  5
4D3
330
1F
100
AcDbEntity
  8
Ｓ_１_１
  6
CONTINUOUS
 62
     3
100
AcDbLine
 10
912.000008
 20
627.862261
 30
0.0
 11
912.000008
 21
612.862261
 31
0.0
  0
LINE
  5
4D4
330
1F
100
AcDbEntity
  8
Ｓ_１_１
  6
CONTINUOUS
 62
     3
100
AcDbLine
 10
887.999993
 20
627.862261
 30
0.0
 11
887.999993
 21
612.862261
 31
0.0
  0
LINE
  5
4D5
330
1F
100
AcDbEntity
  8
Ｓ_１_１
  6
CONTINUOUS
 62
     3
100
AcDbLine
 10
887.000008
 20
662.3622930000001
 30
0.0
 11
884.000015
 21
659.3623010000001
 31
0.0
  0
LINE
  5
4D6
330
1F
100
AcDbEntity
  8
Ｓ_１_１
  6
CONTINUOUS
 62
     3
100
AcDbLine
 10
912.999994
 20
662.362259
 30
0.0
 11
915.9999869999999
 21
659.3622660000001
 31
0.0
  0
LINE
  5
4D7
330
1F
100
AcDbEntity
  8
Ｓ_１_１
  6
CONTINUOUS
 62
     3
100
AcDbLine
 10
884.500009
 20
651.3622640000001
 30
0.0
 11
884.500009
 21
643.3622720000001
 31
0.0
  0
LINE
  5
4D8
330
1F
100
AcDbEntity
  8
Ｓ_１_１
  6
CONTINUOUS
 62
     3
100
AcDbLine
 10
915.499993
 20
651.3622640000001
 30
0.0
 11
915.499993
 21
643.3622720000001
 31
0.0
  0
LINE
  5
4D9
330
1F
100
AcDbEntity
  8
Ｓ_１_１
  6
CONTINUOUS
 62
     3
100
AcDbLine
 10
884.500009
 20
643.3622720000001
 30
0.0
 11
915.499993
 21
643.3622720000001
 31
0.0
  0
LINE
  5
4DA
330
1F
100
AcDbEntity
  8
Ｓ_１_１
  6
CONTINUOUS
 62
     3
100
AcDbLine
 10
884.500009
 20
651.3622640000001
 30
0.0
 11
915.499993
 21
651.3622640000001
 31
0.0
  0
LINE
  5
4DB
330
1F
100
AcDbEntity
  8
Ｓ_１_１
  6
CONTINUOUS
 62
     3
100
AcDbLine
 10
884.000005
 20
642.8622700000001
 30
0.0
 11
884.499995
 21
643.362259
 31
0.0
  0
LINE
  5
4DC
330
1F
100
AcDbEntity
  8
Ｓ_１_１
  6
CONTINUOUS
 62
     3
100
AcDbLine
 10
915.5
 20
651.362263
 30
0.0
 11
916.0000170000001
 21
651.8622790000002
 31
0.0
  0
LINE
  5
4DD
330
1F
100
AcDbEntity
  8
Ｓ_１_１
  6
CONTINUOUS
 62
     3
100
AcDbLine
 10
915.500001
 20
643.3622700000001
 30
0.0
 11
916.000004
 21
642.862267
 31
0.0
  0
LINE
  5
4DE
330
1F
100
AcDbEntity
  8
Ｓ_１_１
  6
CONTINUOUS
 62
     3
100
AcDbLine
 10
883.999993
 20
651.862263
 30
0.0
 11
884.499996
 21
651.3622600000001
 31
0.0
  0
LINE
  5
4DF
330
1F
100
AcDbEntity
  8
Ｓ_１_１
  6
CONTINUOUS
 62
     3
100
AcDbLine
 10
883.999997
 20
642.8622600000001
 30
0.0
 11
883.999997
 21
635.8622720000001
 31
0.0
  0
LINE
  5
4E0
330
1F
100
AcDbEntity
  8
Ｓ_１_１
  6
CONTINUOUS
 62
     3
100
AcDbLine
 10
915.999985
 20
642.8622600000001
 30
0.0
 11
915.999985
 21
635.8622720000001
 31
0.0
  0
LINE
  5
4E1
330
1F
100
AcDbEntity
  8
Ｓ_１_１
  6
CONTINUOUS
 62
     3
100
AcDbLine
 10
884.0
 20
635.862261
 30
0.0
 11
884.499996
 21
635.3622640000001
 31
0.0
  0
LINE
  5
4E2
330
1F
100
AcDbEntity
  8
Ｓ_１_１
  6
CONTINUOUS
 62
     3
100
AcDbLine
 10
915.499999
 20
635.362267
 30
0.0
 11
916.0000159999998
 21
635.862284
 31
0.0
  0
LINE
  5
4E3
330
1F
100
AcDbEntity
  8
Ｓ_１_１
  6
CONTINUOUS
 62
     3
100
AcDbLine
 10
915.999985
 20
642.8622600000001
 30
0.0
 11
883.999997
 21
642.8622600000001
 31
0.0
  0
LINE
  5
4E4
330
1F
100
AcDbEntity
  8
Ｓ_１_１
  6
CONTINUOUS
 62
     3
100
AcDbLine
 10
883.999997
 20
635.8622720000001
 30
0.0
 11
898.250008
 21
635.8622720000001
 31
0.0
  0
LINE
  5
4E5
330
1F
100
AcDbEntity
  8
Ｓ_１_１
  6
CONTINUOUS
 62
     3
100
AcDbLine
 10
883.999997
 20
651.8622560000001
 30
0.0
 11
915.999985
 21
651.8622560000001
 31
0.0
  0
LINE
  5
4E6
330
1F
100
AcDbEntity
  8
Ｓ_１_１
  6
CONTINUOUS
 62
     3
100
AcDbLine
 10
883.999997
 20
659.3622560000001
 30
0.0
 11
915.999985
 21
659.3622560000001
 31
0.0
  0
LINE
  5
4E7
330
1F
100
AcDbEntity
  8
Ｓ_１_１
  6
CONTINUOUS
 62
     3
100
AcDbLine
 10
898.145068
 20
635.8622500000001
 30
0.0
 11
898.25001
 21
636.044016
 31
0.0
  0
LINE
  5
4E8
330
1F
100
AcDbEntity
  8
Ｓ_１_１
  6
CONTINUOUS
 62
     3
100
AcDbLine
 10
915.499993
 20
633.8622640000001
 30
0.0
 11
915.499993
 21
632.8622600000001
 31
0.0
  0
LINE
  5
4E9
330
1F
100
AcDbEntity
  8
Ｓ_１_１
  6
CONTINUOUS
 62
     3
100
AcDbLine
 10
884.500009
 20
633.8622640000001
 30
0.0
 11
884.500009
 21
632.8622600000001
 31
0.0
  0
LINE
  5
4EA
330
1F
100
AcDbEntity
  8
Ｓ_１_１
  6
CONTINUOUS
 62
     3
100
AcDbLine
 10
885.000001
 20
632.3622680000001
 30
0.0
 11
887.000009
 21
632.3622680000001
 31
0.0
  0
LINE
  5
4EB
330
1F
100
AcDbEntity
  8
Ｓ_１_１
  6
CONTINUOUS
 62
     3
100
AcDbLine
 10
885.000001
 20
634.362257
 30
0.0
 11
887.000009
 21
634.362257
 31
0.0
  0
LINE
  5
4EC
330
1F
100
AcDbEntity
  8
Ｓ_１_１
  6
CONTINUOUS
 62
     3
100
AcDbLine
 10
912.999993
 20
634.362257
 30
0.0
 11
915.0000009999999
 21
634.362257
 31
0.0
  0
LINE
  5
4ED
330
1F
100
AcDbEntity
  8
Ｓ_１_１
  6
CONTINUOUS
 62
     3
100
AcDbLine
 10
912.999993
 20
632.3622680000001
 30
0.0
 11
915.0000009999999
 21
632.3622680000001
 31
0.0
  0
LINE
  5
4EE
330
1F
100
AcDbEntity
  8
Ｓ_１_１
  6
CONTINUOUS
 62
     3
100
AcDbLine
 10
914.9999939999999
 20
634.362253
 30
0.0
 11
915.4999899999999
 21
633.862257
 31
0.0
  0
LINE
  5
4EF
330
1F
100
AcDbEntity
  8
Ｓ_１_１
  6
CONTINUOUS
 62
     3
100
AcDbLine
 10
915.0000139999999
 20
632.3622740000001
 30
0.0
 11
915.5000039999999
 21
632.8622640000001
 31
0.0
  0
LINE
  5
4F0
330
1F
100
AcDbEntity
  8
Ｓ_１_１
  6
CONTINUOUS
 62
     3
100
AcDbLine
 10
884.500013
 20
633.8622770000002
 30
0.0
 11
885.000002
 21
634.362267
 31
0.0
  0
LINE
  5
4F1
330
1F
100
AcDbEntity
  8
Ｓ_１_１
  6
CONTINUOUS
 62
     3
100
AcDbLine
 10
884.499999
 20
632.862257
 30
0.0
 11
885.000002
 21
632.3622540000001
 31
0.0
  0
LINE
  5
4F2
330
1F
100
AcDbEntity
  8
Ｓ_１_１
  6
CONTINUOUS
 62
     3
100
AcDbLine
 10
901.7499929999999
 20
638.8622640000001
 30
0.0
 11
901.7499929999999
 21
635.3622600000001
 31
0.0
  0
LINE
  5
4F3
330
1F
100
AcDbEntity
  8
Ｓ_１_１
  6
CONTINUOUS
 62
     3
100
AcDbLine
 10
898.250008
 20
638.8622640000001
 30
0.0
 11
898.250008
 21
635.3622600000001
 31
0.0
  0
LINE
  5
4F4
330
1F
100
AcDbEntity
  8
Ｓ_１_１
  6
CONTINUOUS
 62
     3
100
AcDbLine
 10
898.250008
 20
638.8622640000001
 30
0.0
 11
901.7499929999999
 21
638.8622640000001
 31
0.0
  0
LINE
  5
4F5
330
1F
100
AcDbEntity
  8
Ｓ_１_１
  6
CONTINUOUS
 62
     3
100
AcDbLine
 10
901.7499929999999
 20
635.3622600000001
 30
0.0
 11
915.499993
 21
635.3622600000001
 31
0.0
  0
LINE
  5
4F6
330
1F
100
AcDbEntity
  8
Ｓ_１_１
  6
CONTINUOUS
 62
     3
100
AcDbLine
 10
901.7499929999999
 20
635.8622720000001
 30
0.0
 11
915.999985
 21
635.8622720000001
 31
0.0
  0
LINE
  5
4F7
330
1F
100
AcDbEntity
  8
Ｓ_１_１
  6
CONTINUOUS
 62
     3
100
AcDbLine
 10
901.750011
 20
636.043995
 30
0.0
 11
901.854927
 21
635.8622750000002
 31
0.0
  0
LINE
  5
4F8
330
1F
100
AcDbEntity
  8
Ｓ_１_１
  6
CONTINUOUS
 62
     3
100
AcDbLine
 10
895.000001
 20
612.2849250000002
 30
0.0
 11
895.000001
 21
600.939615
 31
0.0
  0
LINE
  5
4F9
330
1F
100
AcDbEntity
  8
Ｓ_１_１
  6
CONTINUOUS
 62
     3
100
AcDbLine
 10
905.000001
 20
612.2849250000002
 30
0.0
 11
905.000001
 21
600.939615
 31
0.0
  0
LINE
  5
4FA
330
1F
100
AcDbEntity
  8
Ｓ_１_１
  6
CONTINUOUS
 62
     3
100
AcDbLine
 10
911.999993
 20
600.3622620000001
 30
0.0
 11
913.0
 21
600.939617
 31
0.0
  0
LINE
  5
4FB
330
1F
100
AcDbEntity
  8
Ｓ_１_１
  6
CONTINUOUS
 62
     3
100
AcDbLine
 10
886.999987
 20
612.2849120000001
 30
0.0
 11
887.999994
 21
612.8622660000001
 31
0.0
  0
LINE
  5
4FC
330
1F
100
AcDbEntity
  8
Ｓ_１_１
  6
CONTINUOUS
 62
     3
100
AcDbLine
 10
911.999992
 20
627.862263
 30
0.0
 11
913.0
 21
628.4396180000001
 31
0.0
  0
LINE
  5
4FD
330
1F
100
AcDbEntity
  8
Ｓ_１_１
  6
CONTINUOUS
 62
     3
100
AcDbLine
 10
887.0
 20
600.939609
 30
0.0
 11
887.999991
 21
600.3622640000001
 31
0.0
  0
LINE
  5
4FE
330
1F
100
AcDbEntity
  8
Ｓ_１_１
  6
CONTINUOUS
 62
     3
100
AcDbLine
 10
912.0000049999999
 20
612.862255
 30
0.0
 11
913.0000119999999
 21
612.284901
 31
0.0
  0
LINE
  5
4FF
330
1F
100
AcDbEntity
  8
Ｓ_１_１
  6
CONTINUOUS
 62
     3
100
AcDbLine
 10
886.999996
 20
628.4396000000002
 30
0.0
 11
888.000003
 21
627.8622460000001
 31
0.0
  0
LINE
  5
500
330
1F
100
AcDbEntity
  8
Ｓ_１_１
  6
CONTINUOUS
 62
     3
100
AcDbLine
 10
887.000009
 20
628.439615
 30
0.0
 11
912.999993
 21
628.439615
 31
0.0
  0
LINE
  5
501
330
1F
100
AcDbEntity
  8
Ｓ_１_１
  6
CONTINUOUS
 62
     3
100
AcDbLine
 10
887.000009
 20
612.2849250000002
 30
0.0
 11
895.000001
 21
612.2849250000002
 31
0.0
  0
LINE
  5
502
330
1F
100
AcDbEntity
  8
Ｓ_１_１
  6
CONTINUOUS
 62
     3
100
AcDbLine
 10
887.000009
 20
600.939615
 30
0.0
 11
895.000001
 21
600.939615
 31
0.0
  0
LINE
  5
503
330
1F
100
AcDbEntity
  8
Ｓ_１_１
  6
CONTINUOUS
 62
     3
100
AcDbLine
 10
905.000001
 20
612.2849250000002
 30
0.0
 11
912.999993
 21
612.2849250000002
 31
0.0
  0
LINE
  5
504
330
1F
100
AcDbEntity
  8
Ｓ_１_１
  6
CONTINUOUS
 62
     3
100
AcDbLine
 10
905.000001
 20
600.939615
 30
0.0
 11
912.999993
 21
600.939615
 31
0.0
  0
LINE
  5
505
330
1F
100
AcDbEntity
  8
Ｓ_１_１
  6
CONTINUOUS
 62
     3
100
AcDbLine
 10
887.999993
 20
600.362261
 30
0.0
 11
912.000008
 21
600.362261
 31
0.0
  0
LINE
  5
506
330
1F
100
AcDbEntity
  8
Ｓ_１_１
  6
CONTINUOUS
 62
     3
100
AcDbLine
 10
655.999997
 20
494.500004
 30
0.0
 11
655.500007
 21
494.9999930000001
 31
0.0
  0
LINE
  5
507
330
1F
100
AcDbEntity
  8
Ｓ_１_１
  6
CONTINUOUS
 62
     3
100
AcDbLine
 10
644.0000290000002
 20
494.500013
 30
0.0
 11
644.500019
 21
495.0000020000001
 31
0.0
  0
LINE
  5
508
330
1F
100
AcDbEntity
  8
Ｓ_１_１
  6
CONTINUOUS
 62
     3
100
AcDbLine
 10
655.5000079999999
 20
455.0000060000001
 30
0.0
 11
656.0000250000002
 21
455.5000220000001
 31
0.0
  0
LINE
  5
509
330
1F
100
AcDbEntity
  8
Ｓ_１_１
  6
CONTINUOUS
 62
     3
100
AcDbLine
 10
644.5000140000001
 20
455.000016
 30
0.0
 11
644.0000250000002
 21
455.500006
 31
0.0
  0
LINE
  5
50A
330
1F
100
AcDbEntity
  8
Ｓ_１_１
  6
CONTINUOUS
 62
     3
100
AcDbLine
 10
644.0000100000001
 20
494.5000070000001
 30
0.0
 11
656.0000079999999
 21
494.5000070000001
 31
0.0
  0
LINE
  5
50B
330
1F
100
AcDbEntity
  8
Ｓ_１_１
  6
CONTINUOUS
 62
     3
100
AcDbLine
 10
644.0000100000001
 20
455.499993
 30
0.0
 11
656.0000079999999
 21
455.499993
 31
0.0
  0
LINE
  5
50C
330
1F
100
AcDbEntity
  8
Ｓ_１_１
  6
CONTINUOUS
 62
     3
100
AcDbLine
 10
656.0000079999999
 20
465.5000310000001
 30
0.0
 11
656.0000079999999
 21
465.0000000000001
 31
0.0
  0
LINE
  5
50D
330
1F
100
AcDbEntity
  8
Ｓ_１_１
  6
CONTINUOUS
 62
     3
100
AcDbLine
 10
644.0000100000001
 20
465.5000310000001
 30
0.0
 11
644.0000100000001
 21
465.0000000000001
 31
0.0
  0
LINE
  5
50E
330
1F
100
AcDbEntity
  8
Ｓ_１_１
  6
CONTINUOUS
 62
     3
100
AcDbLine
 10
644.0000100000001
 20
485.0000000000001
 30
0.0
 11
644.0000100000001
 21
484.500008
 31
0.0
  0
LINE
  5
50F
330
1F
100
AcDbEntity
  8
Ｓ_１_１
  6
CONTINUOUS
 62
     3
100
AcDbLine
 10
656.0000079999999
 20
485.0000000000001
 30
0.0
 11
656.0000079999999
 21
484.500008
 31
0.0
  0
LINE
  5
510
330
1F
100
AcDbEntity
  8
Ｓ_１_１
  6
CONTINUOUS
 62
     3
100
AcDbLine
 10
637.0000119999999
 20
494.0000150000001
 30
0.0
 11
637.0000119999999
 21
485.0000000000001
 31
0.0
  0
LINE
  5
511
330
1F
100
AcDbEntity
  8
Ｓ_１_１
  6
CONTINUOUS
 62
     3
100
AcDbLine
 10
637.0000119999999
 20
465.0000000000001
 30
0.0
 11
637.0000119999999
 21
456.0000230000001
 31
0.0
  0
LINE
  5
512
330
1F
100
AcDbEntity
  8
Ｓ_１_１
  6
CONTINUOUS
 62
     3
100
AcDbLine
 10
631.0000069999999
 20
484.500008
 30
0.0
 11
667.999997
 21
484.500008
 31
0.0
  0
LINE
  5
513
330
1F
100
AcDbEntity
  8
Ｓ_１_１
  6
CONTINUOUS
 62
     3
100
AcDbLine
 10
631.0000069999999
 20
465.5000310000001
 30
0.0
 11
667.999997
 21
465.5000310000001
 31
0.0
  0
LINE
  5
514
330
1F
100
AcDbEntity
  8
Ｓ_１_１
  6
CONTINUOUS
 62
     3
100
AcDbLine
 10
631.0000069999999
 20
484.500008
 30
0.0
 11
631.0000069999999
 21
465.5000310000001
 31
0.0
  0
LINE
  5
515
330
1F
100
AcDbEntity
  8
Ｓ_１_１
  6
CONTINUOUS
 62
     3
100
AcDbLine
 10
632.0000109999999
 20
494.0000150000001
 30
0.0
 11
632.0000109999999
 21
485.0000000000001
 31
0.0
  0
LINE
  5
516
330
1F
100
AcDbEntity
  8
Ｓ_１_１
  6
CONTINUOUS
 62
     3
100
AcDbLine
 10
667.999997
 20
485.0000000000001
 30
0.0
 11
632.0000109999999
 21
485.0000000000001
 31
0.0
  0
LINE
  5
517
330
1F
100
AcDbEntity
  8
Ｓ_１_１
  6
CONTINUOUS
 62
     3
100
AcDbLine
 10
667.999997
 20
465.0000000000001
 30
0.0
 11
632.0000109999999
 21
465.0000000000001
 31
0.0
  0
LINE
  5
518
330
1F
100
AcDbEntity
  8
Ｓ_１_１
  6
CONTINUOUS
 62
     3
100
AcDbLine
 10
667.999997
 20
494.0000150000001
 30
0.0
 11
632.0000109999999
 21
494.0000150000001
 31
0.0
  0
LINE
  5
519
330
1F
100
AcDbEntity
  8
Ｓ_１_１
  6
CONTINUOUS
 62
     3
100
AcDbLine
 10
667.999997
 20
456.0000230000001
 30
0.0
 11
632.0000109999999
 21
456.0000230000001
 31
0.0
  0
LINE
  5
51A
330
1F
100
AcDbEntity
  8
Ｓ_１_１
  6
CONTINUOUS
 62
     3
100
AcDbLine
 10
632.0000109999999
 20
465.0000000000001
 30
0.0
 11
632.0000109999999
 21
456.0000230000001
 31
0.0
  0
LINE
  5
51B
330
1F
100
AcDbEntity
  8
Ｓ_１_１
  6
CONTINUOUS
 62
     3
100
AcDbLine
 10
644.5000119999999
 20
495.0
 30
0.0
 11
655.5000060000001
 21
495.0
 31
0.0
  0
LINE
  5
51C
330
1F
100
AcDbEntity
  8
Ｓ_１_１
  6
CONTINUOUS
 62
     3
100
AcDbLine
 10
644.5000119999999
 20
455.000039
 30
0.0
 11
655.5000060000001
 21
455.000039
 31
0.0
  0
LINE
  5
51D
330
1F
100
AcDbEntity
  8
Ｓ_１_１
  6
CONTINUOUS
 62
     3
100
AcDbLine
 10
644.0000100000001
 20
494.5000070000001
 30
0.0
 11
644.0000100000001
 21
494.0000150000001
 31
0.0
  0
LINE
  5
51E
330
1F
100
AcDbEntity
  8
Ｓ_１_１
  6
CONTINUOUS
 62
     3
100
AcDbLine
 10
656.0000079999999
 20
456.0000230000001
 30
0.0
 11
656.0000079999999
 21
455.499993
 31
0.0
  0
LINE
  5
51F
330
1F
100
AcDbEntity
  8
Ｓ_１_１
  6
CONTINUOUS
 62
     3
100
AcDbLine
 10
644.0000100000001
 20
456.0000230000001
 30
0.0
 11
644.0000100000001
 21
455.499993
 31
0.0
  0
LINE
  5
520
330
1F
100
AcDbEntity
  8
Ｓ_１_１
  6
CONTINUOUS
 62
     3
100
AcDbLine
 10
656.0000079999999
 20
494.5000070000001
 30
0.0
 11
656.0000079999999
 21
494.0000150000001
 31
0.0
  0
LINE
  5
521
330
1F
100
AcDbEntity
  8
Ｓ_１_１
  6
CONTINUOUS
 62
     3
100
AcDbLine
 10
667.999997
 20
465.0000000000001
 30
0.0
 11
667.999997
 21
456.0000230000001
 31
0.0
  0
LINE
  5
522
330
1F
100
AcDbEntity
  8
Ｓ_１_１
  6
CONTINUOUS
 62
     3
100
AcDbLine
 10
667.999997
 20
494.0000150000001
 30
0.0
 11
667.999997
 21
485.0000000000001
 31
0.0
  0
LINE
  5
523
330
1F
100
AcDbEntity
  8
Ｓ_１_１
  6
CONTINUOUS
 62
     3
100
AcDbLine
 10
662.999997
 20
465.0000000000001
 30
0.0
 11
662.999997
 21
456.0000230000001
 31
0.0
  0
LINE
  5
524
330
1F
100
AcDbEntity
  8
Ｓ_１_１
  6
CONTINUOUS
 62
     3
100
AcDbLine
 10
662.999997
 20
494.0000150000001
 30
0.0
 11
662.999997
 21
485.0000000000001
 31
0.0
  0
LINE
  5
525
330
1F
100
AcDbEntity
  8
Ｓ_１_１
  6
CONTINUOUS
 62
     3
100
AcDbLine
 10
667.999997
 20
465.5000310000001
 30
0.0
 11
667.999997
 21
484.500008
 31
0.0
  0
ARC
  5
526
330
1F
100
AcDbEntity
  8
Ｓ_１_１
  6
CONTINUOUS
 62
     3
100
AcDbCircle
 10
909.093285
 20
589.229525
 30
0.0
 40
5.367246000000002
100
AcDbArc
 50
235.61578
 51
304.384065
  0
ARC
  5
527
330
1F
100
AcDbEntity
  8
Ｓ_１_１
  6
CONTINUOUS
 62
     3
100
AcDbCircle
 10
900.000001
 20
572.800072
 30
0.0
 40
20.062196
100
AcDbArc
 50
72.41206700000001
 51
107.587951
  0
ARC
  5
528
330
1F
100
AcDbEntity
  8
Ｓ_１_１
  6
CONTINUOUS
 62
     3
100
AcDbCircle
 10
909.093285
 20
587.4950200000001
 30
0.0
 40
5.367246000000002
100
AcDbArc
 50
55.61588100000003
 51
124.384165
  0
ARC
  5
529
330
1F
100
AcDbEntity
  8
Ｓ_１_１
  6
CONTINUOUS
 62
     3
100
AcDbCircle
 10
890.906716
 20
587.4950200000001
 30
0.0
 40
5.367246000000002
100
AcDbArc
 50
55.61579900000001
 51
124.384083
  0
ARC
  5
52A
330
1F
100
AcDbEntity
  8
Ｓ_１_１
  6
CONTINUOUS
 62
     3
100
AcDbCircle
 10
900.000001
 20
603.9244630000001
 30
0.0
 40
20.062196
100
AcDbArc
 50
252.4119940000001
 51
287.5878780000001
  0
ARC
  5
52B
330
1F
100
AcDbEntity
  8
Ｓ_１_１
  6
CONTINUOUS
 62
     3
100
AcDbCircle
 10
890.906716
 20
589.229525
 30
0.0
 40
5.367246000000002
100
AcDbArc
 50
235.615862
 51
304.3841460000003
  0
ARC
  5
52C
330
1F
100
AcDbEntity
  8
Ｓ_１_１
  6
CONTINUOUS
 62
     3
100
AcDbCircle
 10
900.000001
 20
622.30171
 30
0.0
 40
21.939437
100
AcDbArc
 50
256.8264750000001
 51
283.1734650000004
  0
ARC
  5
52D
330
1F
100
AcDbEntity
  8
Ｓ_１_１
  6
CONTINUOUS
 62
     3
100
AcDbCircle
 10
900.000001
 20
590.9228310000001
 30
0.0
 40
21.939437
100
AcDbArc
 50
76.82652799999998
 51
103.173491
  0
LINE
  5
52E
330
1F
100
AcDbEntity
  8
Ｓ_１_１
  6
EXLTYPE2
 62
     1
100
AcDbLine
 10
559.2215210000002
 20
475.0000000000001
 30
0.0
 11
954.107399
 21
475.0000000000001
 31
0.0
  0
LINE
  5
52F
330
1F
100
AcDbEntity
  8
Ｓ_１_１
  6
EXLTYPE2
 62
     1
100
AcDbLine
 10
900.000001
 20
666.4341900000002
 30
0.0
 11
900.000001
 21
562.9177650000001
 31
0.0
  0
LINE
  5
530
330
1F
100
AcDbEntity
  8
Ｓ_１_１
  6
EXLTYPE2
 62
     1
100
AcDbLine
 10
650.0000039999999
 20
495.5416110000002
 30
0.0
 11
650.0000039999999
 21
453.862038
 31
0.0
  0
LINE
  5
531
330
1F
100
AcDbEntity
  8
Ｓ_１_１
  6
EXLTYPE0
 62
     2
100
AcDbLine
 10
565.000006
 20
443.0
 30
0.0
 11
949.9999999999999
 21
443.0000000000001
 31
0.0
  0
LINE
  5
532
330
1F
100
AcDbEntity
  8
Ｓ_１_１
  6
EXLTYPE0
 62
     2
100
AcDbLine
 10
565.000006
 20
506.999998
 30
0.0
 11
949.9999999999999
 21
506.999998
 31
0.0
  0
LINE
  5
533
330
1F
100
AcDbEntity
  8
Ｓ_１_１
  6
EXLTYPE2
 62
     1
100
AcDbLine
 10
274.9999999999999
 20
678.3
 30
0.0
 11
274.9999999999999
 21
368.2082214355469
 31
0.0
  0
LINE
  5
534
330
1F
100
AcDbEntity
  8
Ｓ_１_１
  6
EXLTYPE2
 62
     1
100
AcDbLine
 10
655.0000039999999
 20
678.3
 30
0.0
 11
655.0000039999999
 21
562.9177650000001
 31
0.0
  0
DIMENSION
  5
535
330
1F
100
AcDbEntity
  8
Ｓ_１_１
  6
CONTINUOUS
 62
     2
100
AcDbDimension
  2
*D25
 10
900.000001
 20
725.0
 30
0.0
 11
925.0000004999999
 21
734.625
 31
0.0
 70
   160
  3
ISO-25
100
AcDbAlignedDimension
 13
949.9999999999999
 23
575.500022
 33
0.0
 14
900.000001
 24
666.43419
 34
0.0
100
AcDbRotatedDimension
1001
ACAD
1000
DSTYLE
1002
{
1070
   270
1070
     2
1070
     6
1000
EX_NORM
1070
     7
1000
EX_NORM
1070
    41
1040
10.5
1070
    42
1040
5.25
1070
    44
1040
3.5
1070
    73
1070
     0
1070
    74
1070
     0
1070
    75
1070
     0
1070
    76
1070
     0
1070
    77
1070
     1
1070
    78
1070
     8
1070
   140
1040
12.12016381576852
1070
   147
1040
0.0
1070
   173
1070
     1
1070
   176
1070
     2
1070
   177
1070
     2
1070
   178
1070
     2
1070
   271
1070
     2
1070
   277
1070
     2
1070
   279
1070
     2
1070
   280
1070
     0
1070
   287
1070
     5
1070
   340
1005
113
1002
}
  0
DIMENSION
  5
542
330
1F
100
AcDbEntity
  8
Ｓ_１_１
  6
CONTINUOUS
 62
     2
100
AcDbDimension
  2
*D26
 10
655.000004
 20
725.0
 30
0.0
 11
777.5000025
 21
734.625
 31
0.0
 70
   160
  3
ISO-25
100
AcDbAlignedDimension
 13
900.000001
 23
666.43419
 33
0.0
 14
655.000004
 24
678.3
 34
0.0
100
AcDbRotatedDimension
1001
ACAD
1000
DSTYLE
1002
{
1070
   270
1070
     2
1070
     6
1000
EX_NORM
1070
     7
1000
EX_NORM
1070
    41
1040
10.5
1070
    42
1040
5.25
1070
    44
1040
3.5
1070
    73
1070
     0
1070
    74
1070
     0
1070
    75
1070
     0
1070
    76
1070
     0
1070
    77
1070
     1
1070
    78
1070
     8
1070
   140
1040
12.12016381576852
1070
   147
1040
0.0
1070
   173
1070
     1
1070
   176
1070
     2
1070
   177
1070
     2
1070
   178
1070
     2
1070
   271
1070
     2
1070
   277
1070
     2
1070
   279
1070
     2
1070
   280
1070
     0
1070
   287
1070
     5
1070
   340
1005
113
1002
}
  0
DIMENSION
  5
54F
330
1F
100
AcDbEntity
  8
Ｓ_１_１
  6
CONTINUOUS
 62
     2
100
AcDbDimension
  2
*D27
 10
575.000006
 20
725.0
 30
0.0
 11
615.000005
 21
734.625
 31
0.0
 70
   160
  3
ISO-25
100
AcDbAlignedDimension
 13
655.000004
 23
678.3
 33
0.0
 14
575.000006
 24
575.500007
 34
0.0
100
AcDbRotatedDimension
1001
ACAD
1000
DSTYLE
1002
{
1070
   270
1070
     2
1070
     6
1000
EX_NORM
1070
     7
1000
EX_NORM
1070
    41
1040
10.5
1070
    42
1040
5.25
1070
    44
1040
3.5
1070
    73
1070
     0
1070
    74
1070
     0
1070
    75
1070
     0
1070
    76
1070
     0
1070
    77
1070
     1
1070
    78
1070
     8
1070
   140
1040
12.12016381576852
1070
   147
1040
0.0
1070
   173
1070
     1
1070
   176
1070
     2
1070
   177
1070
     2
1070
   178
1070
     2
1070
   271
1070
     2
1070
   277
1070
     2
1070
   279
1070
     2
1070
   280
1070
     0
1070
   287
1070
     5
1070
   340
1005
113
1002
}
  0
LINE
  5
55C
330
1F
100
AcDbEntity
  8
Ｓ_１_１
  6
CONTINUOUS
 62
     3
100
AcDbLine
 10
263.5000000000002
 20
583.8622790000093
 30
0.0
 11
275.0000000000002
 21
583.8622790000092
 31
0.0
  0
LINE
  5
55D
330
1F
100
AcDbEntity
  8
Ｓ_１_１
  6
CONTINUOUS
 62
     3
100
AcDbLine
 10
275.0000000000002
 20
583.8622790000092
 30
0.0
 11
286.5000000000002
 21
583.8622790000092
 31
0.0
  0
LINE
  5
55E
330
1F
100
AcDbEntity
  8
Ｓ_１_１
  6
CONTINUOUS
 62
     3
100
AcDbLine
 10
263.5000000000002
 20
616.8622790000092
 30
0.0
 11
275.0000000000002
 21
616.8622790000092
 31
0.0
  0
LINE
  5
55F
330
1F
100
AcDbEntity
  8
Ｓ_１_１
  6
CONTINUOUS
 62
     3
100
AcDbLine
 10
275.0000000000002
 20
616.8622790000092
 30
0.0
 11
286.5000000000002
 21
616.8622790000092
 31
0.0
  0
LINE
  5
560
330
1F
100
AcDbEntity
  8
Ｓ_１_１
  6
CONTINUOUS
 62
     3
100
AcDbLine
 10
286.5000013689002
 20
616.8622805587089
 30
0.0
 11
287.5000014189001
 21
615.8622804243088
 31
0.0
  0
LINE
  5
561
330
1F
100
AcDbEntity
  8
Ｓ_１_１
  6
CONTINUOUS
 62
     3
100
AcDbLine
 10
287.5000007866999
 20
584.8622779029089
 30
0.0
 11
286.5000009896
 21
583.8622781900091
 31
0.0
  0
LINE
  5
562
330
1F
100
AcDbEntity
  8
Ｓ_１_１
  6
CONTINUOUS
 62
     3
100
AcDbLine
 10
262.5000000481002
 20
584.8622790758092
 30
0.0
 11
263.5000001752002
 21
583.8622790330089
 31
0.0
  0
LINE
  5
563
330
1F
100
AcDbEntity
  8
Ｓ_１_１
  6
CONTINUOUS
 62
     3
100
AcDbLine
 10
263.4999997116003
 20
616.8622794628092
 30
0.0
 11
262.4999999987
 21
615.8622796657088
 31
0.0
  0
LINE
  5
564
330
1F
100
AcDbEntity
  8
Ｓ_１_１
  6
CONTINUOUS
 62
     3
100
AcDbLine
 10
262.5000000000002
 20
615.8622790000092
 30
0.0
 11
287.5000000000002
 21
615.8622790000092
 31
0.0
  0
LINE
  5
565
330
1F
100
AcDbEntity
  8
Ｓ_１_１
  6
CONTINUOUS
 62
     3
100
AcDbLine
 10
262.5000000000002
 20
584.8622790000093
 30
0.0
 11
287.5000000000002
 21
584.8622790000092
 31
0.0
  0
LINE
  5
566
330
1F
100
AcDbEntity
  8
Ｓ_１_１
  6
CONTINUOUS
 62
     3
100
AcDbLine
 10
283.2648620000002
 20
618.22455100002
 30
0.0
 11
266.7351450000003
 21
618.22455100002
 31
0.0
  0
LINE
  5
567
330
1F
100
AcDbEntity
  8
Ｓ_１_１
  6
CONTINUOUS
 62
     3
100
AcDbLine
 10
267.8201190000001
 20
624.36225200002
 30
0.0
 11
267.4365110000003
 21
618.2245390000201
 31
0.0
  0
LINE
  5
568
330
1F
100
AcDbEntity
  8
Ｓ_１_１
  6
CONTINUOUS
 62
     3
100
AcDbLine
 10
267.1187490000002
 20
624.3622700000201
 30
0.0
 11
266.6499980000003
 21
616.86225600002
 31
0.0
  0
LINE
  5
569
330
1F
100
AcDbEntity
  8
Ｓ_１_１
  6
CONTINUOUS
 62
     3
100
AcDbLine
 10
267.4365260000002
 20
618.22455900002
 30
0.0
 11
266.6500110000002
 21
616.8622760000201
 31
0.0
  0
LINE
  5
56A
330
1F
100
AcDbEntity
  8
Ｓ_１_１
  6
CONTINUOUS
 62
     3
100
AcDbLine
 10
282.8812500000001
 20
624.3622820000201
 30
0.0
 11
283.3500030000002
 21
616.8622370000201
 31
0.0
  0
LINE
  5
56B
330
1F
100
AcDbEntity
  8
Ｓ_１_１
  6
CONTINUOUS
 62
     3
100
AcDbLine
 10
283.3499890000002
 20
616.8622600000201
 30
0.0
 11
282.5634830000001
 21
618.22453000002
 31
0.0
  0
LINE
  5
56C
330
1F
100
AcDbEntity
  8
Ｓ_１_１
  6
CONTINUOUS
 62
     3
100
AcDbLine
 10
282.1798880000003
 20
624.3622640000201
 30
0.0
 11
282.5634970000003
 21
618.2245210000201
 31
0.0
  0
LINE
  5
56D
330
1F
100
AcDbEntity
  8
Ｓ_１_１
  6
CONTINUOUS
 62
     3
100
AcDbLine
 10
283.2648620000002
 20
582.5000070000001
 30
0.0
 11
266.7351450000003
 21
582.5000070000001
 31
0.0
  0
LINE
  5
56E
330
1F
100
AcDbEntity
  8
Ｓ_１_１
  6
CONTINUOUS
 62
     3
100
AcDbLine
 10
283.3500120000003
 20
583.862298
 30
0.0
 11
282.5634980000002
 21
582.5000150000001
 31
0.0
  0
LINE
  5
56F
330
1F
100
AcDbEntity
  8
Ｓ_１_１
  6
CONTINUOUS
 62
     3
100
AcDbLine
 10
267.4365030000003
 20
582.499999
 30
0.0
 11
266.6499960000003
 21
583.862269
 31
0.0
  0
ARC
  5
570
330
1F
100
AcDbEntity
  8
Ｓ_１_１
  6
CONTINUOUS
 62
     3
100
AcDbCircle
 10
285.3922884999899
 20
625.2284450000185
 30
0.0
 40
6.133925000000002
100
AcDbArc
 50
55.61543800000034
 51
124.3845830000003
  0
ARC
  5
571
330
1F
100
AcDbEntity
  8
Ｓ_１_１
  6
CONTINUOUS
 62
     3
100
AcDbCircle
 10
274.9999844999899
 20
608.4341330000185
 30
0.0
 40
22.927938
100
AcDbArc
 50
72.411858
 51
107.5881660000001
  0
ARC
  5
572
330
1F
100
AcDbEntity
  8
Ｓ_１_１
  6
CONTINUOUS
 62
     3
100
AcDbCircle
 10
264.6076504999903
 20
630.4961450000184
 30
0.0
 40
6.133925000000002
100
AcDbArc
 50
235.6154019999991
 51
304.3845609999998
  0
ARC
  5
573
330
1F
100
AcDbEntity
  8
Ｓ_１_１
  6
CONTINUOUS
 62
     3
100
AcDbCircle
 10
270.4999844999904
 20
668.3621120000186
 30
0.0
 40
1.0
100
AcDbArc
 50
89.99997799999524
 51
179.9999749999976
  0
ARC
  5
574
330
1F
100
AcDbEntity
  8
Ｓ_１_１
  6
CONTINUOUS
 62
     3
100
AcDbCircle
 10
264.6076504999903
 20
625.2284450000185
 30
0.0
 40
6.133925000000002
100
AcDbArc
 50
55.6153689999997
 51
124.384513999999
  0
ARC
  5
575
330
1F
100
AcDbEntity
  8
Ｓ_１_１
  6
CONTINUOUS
 62
     3
100
AcDbCircle
 10
274.9999844999899
 20
647.2902120000186
 30
0.0
 40
22.927942
100
AcDbArc
 50
252.4118210000002
 51
287.5881150000001
  0
ARC
  5
576
330
1F
100
AcDbEntity
  8
Ｓ_１_１
  6
CONTINUOUS
 62
     3
100
AcDbCircle
 10
285.3922884999899
 20
630.4961450000184
 30
0.0
 40
6.133925000000002
100
AcDbArc
 50
235.6154159999998
 51
304.3845739999999
  0
ARC
  5
577
330
1F
100
AcDbEntity
  8
Ｓ_１_１
  6
CONTINUOUS
 62
     3
100
AcDbCircle
 10
279.4999544999898
 20
668.3621120000186
 30
0.0
 40
1.0
100
AcDbArc
 50
359.9999970000023
 51
89.9999780000017
  0
LINE
  5
578
330
1F
100
AcDbEntity
  8
Ｓ_１_１
  6
CONTINUOUS
 62
     3
100
AcDbLine
 10
273.50001549999
 20
671.3622340000185
 30
0.0
 11
276.4999844999899
 21
671.3622340000185
 31
0.0
  0
LINE
  5
579
330
1F
100
AcDbEntity
  8
Ｓ_１_１
  6
CONTINUOUS
 62
     3
100
AcDbLine
 10
262.9999844999904
 20
624.3623560000184
 30
0.0
 11
286.9999544999898
 21
624.3623560000184
 31
0.0
  0
LINE
  5
57A
330
1F
100
AcDbEntity
  8
Ｓ_１_１
  6
CONTINUOUS
 62
     3
100
AcDbLine
 10
269.4999544999902
 20
668.3621120000186
 30
0.0
 11
269.4999544999902
 21
659.3623560000184
 31
0.0
  0
LINE
  5
57B
330
1F
100
AcDbEntity
  8
Ｓ_１_１
  6
CONTINUOUS
 62
     3
100
AcDbLine
 10
269.4999544999902
 20
659.3623560000184
 30
0.0
 11
280.4999844999899
 21
659.3623560000184
 31
0.0
  0
LINE
  5
57C
330
1F
100
AcDbEntity
  8
Ｓ_１_１
  6
CONTINUOUS
 62
     3
100
AcDbLine
 10
266.0000154999904
 20
655.8621120000186
 30
0.0
 11
266.0000154999904
 21
653.8622340000185
 31
0.0
  0
LINE
  5
57D
330
1F
100
AcDbEntity
  8
Ｓ_１_１
  6
CONTINUOUS
 62
     3
100
AcDbLine
 10
283.9999844999899
 20
655.8621120000186
 30
0.0
 11
283.9999844999899
 21
653.8622340000185
 31
0.0
  0
LINE
  5
57E
330
1F
100
AcDbEntity
  8
Ｓ_１_１
  6
CONTINUOUS
 62
     3
100
AcDbLine
 10
263.7499844999904
 20
640.3622340000185
 30
0.0
 11
286.2499844999899
 21
640.3622340000185
 31
0.0
  0
LINE
  5
57F
330
1F
100
AcDbEntity
  8
Ｓ_１_１
  6
CONTINUOUS
 62
     3
100
AcDbLine
 10
286.7499844999899
 20
639.8622340000185
 30
0.0
 11
286.7499844999899
 21
631.3622340000185
 31
0.0
  0
LINE
  5
580
330
1F
100
AcDbEntity
  8
Ｓ_１_１
  6
CONTINUOUS
 62
     3
100
AcDbLine
 10
263.2499544999902
 20
639.8622340000185
 30
0.0
 11
263.2499544999902
 21
631.3622340000185
 31
0.0
  0
LINE
  5
581
330
1F
100
AcDbEntity
  8
Ｓ_１_１
  6
CONTINUOUS
 62
     3
100
AcDbLine
 10
261.1436164999902
 20
625.4342080000184
 30
0.0
 11
262.9999884999904
 21
624.3624310000188
 31
0.0
  0
LINE
  5
582
330
1F
100
AcDbEntity
  8
Ｓ_１_１
  6
CONTINUOUS
 62
     3
100
AcDbLine
 10
286.9999114999898
 20
631.3624250000186
 30
0.0
 11
288.8563894999899
 21
630.2905860000184
 31
0.0
  0
LINE
  5
583
330
1F
100
AcDbEntity
  8
Ｓ_１_１
  6
CONTINUOUS
 62
     3
100
AcDbLine
 10
286.9999534999899
 20
624.3623890000187
 30
0.0
 11
288.85632649999
 21
625.4341660000188
 31
0.0
  0
LINE
  5
584
330
1F
100
AcDbEntity
  8
Ｓ_１_１
  6
CONTINUOUS
 62
     3
100
AcDbLine
 10
261.1436234999903
 20
630.2907260000185
 30
0.0
 11
262.9999964999903
 21
631.3625030000186
 31
0.0
  0
LINE
  5
585
330
1F
100
AcDbEntity
  8
Ｓ_１_１
  6
CONTINUOUS
 62
     3
100
AcDbLine
 10
288.8563994999897
 20
630.2904560000185
 30
0.0
 11
288.8563994999897
 21
625.4341330000185
 31
0.0
  0
LINE
  5
586
330
1F
100
AcDbEntity
  8
Ｓ_１_１
  6
CONTINUOUS
 62
     3
100
AcDbLine
 10
281.9282074999898
 20
630.2904560000185
 30
0.0
 11
281.9282074999898
 21
625.4341330000185
 31
0.0
  0
LINE
  5
587
330
1F
100
AcDbEntity
  8
Ｓ_１_１
  6
CONTINUOUS
 62
     3
100
AcDbLine
 10
268.0718534999903
 20
630.2904560000185
 30
0.0
 11
268.0718534999903
 21
625.4341330000185
 31
0.0
  0
LINE
  5
588
330
1F
100
AcDbEntity
  8
Ｓ_１_１
  6
CONTINUOUS
 62
     3
100
AcDbLine
 10
261.1435854999901
 20
630.2904560000185
 30
0.0
 11
261.1435854999901
 21
625.4341330000185
 31
0.0
  0
LINE
  5
589
330
1F
100
AcDbEntity
  8
Ｓ_１_１
  6
CONTINUOUS
 62
     3
100
AcDbLine
 10
262.9999844999904
 20
631.3622340000185
 30
0.0
 11
286.9999544999898
 21
631.3622340000185
 31
0.0
  0
LINE
  5
58A
330
1F
100
AcDbEntity
  8
Ｓ_１_１
  6
CONTINUOUS
 62
     3
100
AcDbLine
 10
270.4999844999904
 20
669.3623560000188
 30
0.0
 11
279.4999544999898
 21
669.3623560000188
 31
0.0
  0
LINE
  5
58B
330
1F
100
AcDbEntity
  8
Ｓ_１_１
  6
CONTINUOUS
 62
     3
100
AcDbLine
 10
276.4998434999899
 20
671.3624210000186
 30
0.0
 11
278.4998884999897
 21
669.3623760000188
 31
0.0
  0
LINE
  5
58C
330
1F
100
AcDbEntity
  8
Ｓ_１_１
  6
CONTINUOUS
 62
     3
100
AcDbLine
 10
271.4998164999903
 20
669.3624190000183
 30
0.0
 11
273.4997754999897
 21
671.3623780000186
 31
0.0
  0
LINE
  5
58D
330
1F
100
AcDbEntity
  8
Ｓ_１_１
  6
CONTINUOUS
 62
     3
100
AcDbLine
 10
267.4999844999904
 20
650.8621120000186
 30
0.0
 11
282.4999844999899
 21
650.8621120000186
 31
0.0
  0
LINE
  5
58E
330
1F
100
AcDbEntity
  8
Ｓ_１_１
  6
CONTINUOUS
 62
     3
100
AcDbLine
 10
267.4999844999904
 20
652.3622340000185
 30
0.0
 11
282.4999844999899
 21
652.3622340000185
 31
0.0
  0
LINE
  5
58F
330
1F
100
AcDbEntity
  8
Ｓ_１_１
  6
CONTINUOUS
 62
     3
100
AcDbLine
 10
266.0000154999904
 20
655.8621120000186
 30
0.0
 11
283.9999844999899
 21
655.8621120000186
 31
0.0
  0
LINE
  5
590
330
1F
100
AcDbEntity
  8
Ｓ_１_１
  6
CONTINUOUS
 62
     3
100
AcDbLine
 10
283.9999844999899
 20
649.3623560000184
 30
0.0
 11
283.9999844999899
 21
640.3622340000185
 31
0.0
  0
LINE
  5
591
330
1F
100
AcDbEntity
  8
Ｓ_１_１
  6
CONTINUOUS
 62
     3
100
AcDbLine
 10
266.0000154999904
 20
649.3623560000184
 30
0.0
 11
266.0000154999904
 21
640.3622340000185
 31
0.0
  0
LINE
  5
592
330
1F
100
AcDbEntity
  8
Ｓ_１_１
  6
CONTINUOUS
 62
     3
100
AcDbLine
 10
265.9998724999902
 20
653.8622550000188
 30
0.0
 11
267.4998844999902
 21
652.3622420000185
 31
0.0
  0
LINE
  5
593
330
1F
100
AcDbEntity
  8
Ｓ_１_１
  6
CONTINUOUS
 62
     3
100
AcDbLine
 10
282.4999504999898
 20
652.3622410000186
 30
0.0
 11
283.9998334999897
 21
653.8621240000185
 31
0.0
  0
LINE
  5
594
330
1F
100
AcDbEntity
  8
Ｓ_１_１
  6
CONTINUOUS
 62
     3
100
AcDbLine
 10
266.0000154999904
 20
653.8622340000185
 30
0.0
 11
283.9999844999899
 21
653.8622340000185
 31
0.0
  0
LINE
  5
595
330
1F
100
AcDbEntity
  8
Ｓ_１_１
  6
CONTINUOUS
 62
     3
100
AcDbLine
 10
265.9999864999901
 20
649.3623890000187
 30
0.0
 11
267.4998694999901
 21
650.8622720000186
 31
0.0
  0
LINE
  5
596
330
1F
100
AcDbEntity
  8
Ｓ_１_１
  6
CONTINUOUS
 62
     3
100
AcDbLine
 10
282.4998364999898
 20
650.8622300000185
 30
0.0
 11
283.9998494999897
 21
649.3622180000185
 31
0.0
  0
LINE
  5
597
330
1F
100
AcDbEntity
  8
Ｓ_１_１
  6
CONTINUOUS
 62
     3
100
AcDbLine
 10
263.2499544999902
 20
639.8622340000185
 30
0.0
 11
286.7499844999899
 21
639.8622340000185
 31
0.0
  0
LINE
  5
598
330
1F
100
AcDbEntity
  8
Ｓ_１_１
  6
CONTINUOUS
 62
     3
100
AcDbLine
 10
266.0000154999904
 20
649.3623560000184
 30
0.0
 11
283.9999844999899
 21
649.3623560000184
 31
0.0
  0
LINE
  5
599
330
1F
100
AcDbEntity
  8
Ｓ_１_１
  6
CONTINUOUS
 62
     3
100
AcDbLine
 10
267.4999844999904
 20
652.3622340000185
 30
0.0
 11
267.4999844999904
 21
650.8621120000186
 31
0.0
  0
LINE
  5
59A
330
1F
100
AcDbEntity
  8
Ｓ_１_１
  6
CONTINUOUS
 62
     3
100
AcDbLine
 10
282.4999844999899
 20
652.3622340000185
 30
0.0
 11
282.4999844999899
 21
650.8621120000186
 31
0.0
  0
LINE
  5
59B
330
1F
100
AcDbEntity
  8
Ｓ_１_１
  6
CONTINUOUS
 62
     3
100
AcDbLine
 10
286.2498804999897
 20
640.3623230000186
 30
0.0
 11
286.74982749999
 21
639.8623770000187
 31
0.0
  0
LINE
  5
59C
330
1F
100
AcDbEntity
  8
Ｓ_１_１
  6
CONTINUOUS
 62
     3
100
AcDbLine
 10
263.2499094999905
 20
639.8623250000184
 30
0.0
 11
263.7498074999905
 21
640.3622340000185
 31
0.0
  0
LINE
  5
59D
330
1F
100
AcDbEntity
  8
Ｓ_１_１
  6
CONTINUOUS
 62
     3
100
AcDbLine
 10
265.9999434999901
 20
655.8623430000185
 30
0.0
 11
269.4999574999903
 21
659.3623570000187
 31
0.0
  0
LINE
  5
59E
330
1F
100
AcDbEntity
  8
Ｓ_１_１
  6
CONTINUOUS
 62
     3
100
AcDbLine
 10
280.4998344999901
 20
659.3621430000186
 30
0.0
 11
283.9998054999898
 21
655.8621710000185
 31
0.0
  0
LINE
  5
59F
330
1F
100
AcDbEntity
  8
Ｓ_１_１
  6
CONTINUOUS
 62
     3
100
AcDbLine
 10
280.4999844999899
 20
668.3621120000186
 30
0.0
 11
280.4999844999899
 21
659.3623560000184
 31
0.0
  0
LINE
  5
5A0
330
1F
100
AcDbEntity
  8
Ｓ_１_１
  6
CONTINUOUS
 62
     3
100
AcDbLine
 10
324.0000000000009
 20
604.6122790000093
 30
0.0
 11
329.0000000000009
 21
604.6122790000093
 31
0.0
  0
LINE
  5
5A1
330
1F
100
AcDbEntity
  8
Ｓ_１_１
  6
CONTINUOUS
 62
     3
100
AcDbLine
 10
324.0000000000009
 20
596.1122790000093
 30
0.0
 11
329.0000000000009
 21
596.1122790000093
 31
0.0
  0
LINE
  5
5A2
330
1F
100
AcDbEntity
  8
Ｓ_１_１
  6
CONTINUOUS
 62
     3
100
AcDbLine
 10
324.0000000000009
 20
595.3622790000093
 30
0.0
 11
328.2500000000009
 21
595.3622790000093
 31
0.0
  0
LINE
  5
5A3
330
1F
100
AcDbEntity
  8
Ｓ_１_１
  6
CONTINUOUS
 62
     3
100
AcDbLine
 10
324.0000000000009
 20
605.3622790000093
 30
0.0
 11
328.2500000000009
 21
605.3622790000093
 31
0.0
  0
LINE
  5
5A4
330
1F
100
AcDbEntity
  8
Ｓ_１_１
  6
CONTINUOUS
 62
     3
100
AcDbLine
 10
329.0000000000009
 20
596.1122790000093
 30
0.0
 11
329.0000000000009
 21
604.6122790000093
 31
0.0
  0
LINE
  5
5A5
330
1F
100
AcDbEntity
  8
Ｓ_１_１
  6
CONTINUOUS
 62
     3
100
AcDbLine
 10
328.2500000000009
 20
595.3622790000093
 30
0.0
 11
328.2500000000009
 21
605.3622790000093
 31
0.0
  0
LINE
  5
5A6
330
1F
100
AcDbEntity
  8
Ｓ_１_１
  6
CONTINUOUS
 62
     3
100
AcDbLine
 10
328.250002557701
 20
595.3622801250092
 30
0.0
 11
329.000000656501
 21
596.1122782870091
 31
0.0
  0
LINE
  5
5A7
330
1F
100
AcDbEntity
  8
Ｓ_１_１
  6
CONTINUOUS
 62
     3
100
AcDbLine
 10
329.0000016470007
 20
604.612280925309
 30
0.0
 11
328.2500014619008
 21
605.362281047109
 31
0.0
  0
LINE
  5
5A8
330
1F
100
AcDbEntity
  8
Ｓ_１_１
  6
CONTINUOUS
 62
     3
100
AcDbLine
 10
317.0000000000009
 20
600.3622790000093
 30
0.0
 11
317.0000000000009
 21
610.3622790000092
 31
0.0
  0
LINE
  5
5A9
330
1F
100
AcDbEntity
  8
Ｓ_１_１
  6
CONTINUOUS
 62
     3
100
AcDbLine
 10
317.0000000000009
 20
590.3622790000093
 30
0.0
 11
317.0000000000009
 21
600.3622790000093
 31
0.0
  0
LINE
  5
5AA
330
1F
100
AcDbEntity
  8
Ｓ_１_１
  6
CONTINUOUS
 62
     3
100
AcDbLine
 10
317.0000005510009
 20
610.3622784490091
 30
0.0
 11
318.0000005800006
 21
609.3622783357088
 31
0.0
  0
LINE
  5
5AB
330
1F
100
AcDbEntity
  8
Ｓ_１_１
  6
CONTINUOUS
 62
     3
100
AcDbLine
 10
318.000000284901
 20
591.3622792006092
 30
0.0
 11
317.000000487701
 21
590.362279487709
 31
0.0
  0
LINE
  5
5AC
330
1F
100
AcDbEntity
  8
Ｓ_１_１
  6
CONTINUOUS
 62
     3
100
AcDbLine
 10
318.0000000000009
 20
591.3622792006092
 30
0.0
 11
318.0000000000009
 21
600.3622790000093
 31
0.0
  0
LINE
  5
5AD
330
1F
100
AcDbEntity
  8
Ｓ_１_１
  6
CONTINUOUS
 62
     3
100
AcDbLine
 10
318.0000000000009
 20
600.3622790000093
 30
0.0
 11
318.0000000000009
 21
609.3622783357088
 31
0.0
  0
LINE
  5
5AE
330
1F
100
AcDbEntity
  8
Ｓ_１_１
  6
CONTINUOUS
 62
     3
100
AcDbLine
 10
287.5000000000004
 20
610.3622790000092
 30
0.0
 11
317.0000000000009
 21
610.3622790000092
 31
0.0
  0
LINE
  5
5AF
330
1F
100
AcDbEntity
  8
Ｓ_１_１
  6
CONTINUOUS
 62
     3
100
AcDbLine
 10
323.999998165601
 20
607.8546916632092
 30
0.0
 11
322.9999979724006
 21
609.8622782529088
 31
0.0
  0
LINE
  5
5B0
330
1F
100
AcDbEntity
  8
Ｓ_１_１
  6
CONTINUOUS
 62
     3
100
AcDbLine
 10
323.9999995145008
 20
592.8698652440091
 30
0.0
 11
322.9999993213009
 21
590.862278654309
 31
0.0
  0
LINE
  5
5B1
330
1F
100
AcDbEntity
  8
Ｓ_１_１
  6
CONTINUOUS
 62
     3
100
AcDbLine
 10
317.9999999766009
 20
607.8546923062092
 30
0.0
 11
319.0000001698008
 21
609.8622788959088
 31
0.0
  0
LINE
  5
5B2
330
1F
100
AcDbEntity
  8
Ｓ_１_１
  6
CONTINUOUS
 62
     3
100
AcDbLine
 10
317.9999984859009
 20
592.8698648857091
 30
0.0
 11
318.9999985375006
 21
590.8622785805089
 31
0.0
  0
LINE
  5
5B3
330
1F
100
AcDbEntity
  8
Ｓ_１_１
  6
CONTINUOUS
 62
     3
100
AcDbLine
 10
319.0000000000009
 20
590.8622790000093
 30
0.0
 11
323.0000000000009
 21
590.8622790000093
 31
0.0
  0
LINE
  5
5B4
330
1F
100
AcDbEntity
  8
Ｓ_１_１
  6
CONTINUOUS
 62
     3
100
AcDbLine
 10
319.0000000000009
 20
609.8622790000092
 30
0.0
 11
323.0000000000009
 21
609.8622790000092
 31
0.0
  0
LINE
  5
5B5
330
1F
100
AcDbEntity
  8
Ｓ_１_１
  6
CONTINUOUS
 62
     3
100
AcDbLine
 10
324.0000000000009
 20
600.3622790000093
 30
0.0
 11
324.0000000000009
 21
607.8546928387093
 31
0.0
  0
LINE
  5
5B6
330
1F
100
AcDbEntity
  8
Ｓ_１_１
  6
CONTINUOUS
 62
     3
100
AcDbLine
 10
324.0000000000009
 20
592.8698651613092
 30
0.0
 11
324.0000000000009
 21
600.3622790000093
 31
0.0
  0
ARC
  5
5B7
330
1F
100
AcDbEntity
  8
Ｓ_１_１
  6
CONTINUOUS
 62
     3
100
AcDbCircle
 10
333.541666666701
 20
600.3622790000093
 30
0.0
 40
15.5416666667
100
AcDbArc
 50
159.3345163543002
 51
159.3345238904477
  0
ARC
  5
5B8
330
1F
100
AcDbEntity
  8
Ｓ_１_１
  6
CONTINUOUS
 62
     3
100
AcDbCircle
 10
308.4583333333007
 20
600.3622790000093
 30
0.0
 40
15.5416666667
100
AcDbArc
 50
20.66547610955293
 51
20.66547840939962
  0
ARC
  5
5B9
330
1F
100
AcDbEntity
  8
Ｓ_１_１
  6
CONTINUOUS
 62
     3
100
AcDbCircle
 10
333.541666666701
 20
600.3622790000093
 30
0.0
 40
15.5416666667
100
AcDbArc
 50
162.8126324028145
 51
197.1873680951787
  0
ARC
  5
5BA
330
1F
100
AcDbEntity
  8
Ｓ_１_１
  6
CONTINUOUS
 62
     3
100
AcDbCircle
 10
333.541666666701
 20
600.3622790000093
 30
0.0
 40
15.5416666667
100
AcDbArc
 50
200.6654786560356
 51
200.6654800033002
  0
ARC
  5
5BB
330
1F
100
AcDbEntity
  8
Ｓ_１_１
  6
CONTINUOUS
 62
     3
100
AcDbCircle
 10
308.4583333333007
 20
600.3622790000093
 30
0.0
 40
15.5416666667
100
AcDbArc
 50
342.8126319048212
 51
17.18736759718547
  0
LINE
  5
5BC
330
1F
100
AcDbEntity
  8
Ｓ_１_１
  6
CONTINUOUS
 62
     3
100
AcDbLine
 10
323.3059641178629
 20
604.9548014946893
 30
0.0
 11
318.6940358821388
 21
604.9548014946893
 31
0.0
  0
LINE
  5
5BD
330
1F
100
AcDbEntity
  8
Ｓ_１_１
  6
CONTINUOUS
 62
     3
100
AcDbLine
 10
323.3059640779465
 20
595.7697563762792
 30
0.0
 11
318.6940359220552
 21
595.7697563762792
 31
0.0
  0
ARC
  5
5BE
330
1F
100
AcDbEntity
  8
Ｓ_１_１
  6
CONTINUOUS
 62
     3
100
AcDbCircle
 10
318.0000000000009
 20
592.8698618460191
 30
0.0
 40
6.000000000001596
100
AcDbArc
 50
0.0000417559226242
 51
28.90218407791362
  0
ARC
  5
5BF
330
1F
100
AcDbEntity
  8
Ｓ_１_１
  6
CONTINUOUS
 62
     3
100
AcDbCircle
 10
324.0000000000009
 20
592.8698662186891
 30
0.0
 40
6.000000000001596
100
AcDbArc
 50
151.0978636188124
 51
180.0000417558857
  0
ARC
  5
5C0
330
1F
100
AcDbEntity
  8
Ｓ_１_１
  6
CONTINUOUS
 62
     3
100
AcDbCircle
 10
324.0000000000009
 20
607.8546923531892
 30
0.0
 40
6.000000000000006
100
AcDbArc
 50
179.9999920172612
 51
208.9021440266621
  0
ARC
  5
5C1
330
1F
100
AcDbEntity
  8
Ｓ_１_１
  6
CONTINUOUS
 62
     3
100
AcDbCircle
 10
318.0000000000009
 20
607.8546923531892
 30
0.0
 40
6.000000000001596
100
AcDbArc
 50
331.0978559733464
 51
0.0
  0
LINE
  5
5C2
330
1F
100
AcDbEntity
  8
Ｓ_１_１
  6
CONTINUOUS
 62
     3
100
AcDbLine
 10
287.5000000000004
 20
590.3622790000092
 30
0.0
 11
317.0000000000009
 21
590.3622790000093
 31
0.0
  0
LINE
  5
5C3
330
1F
100
AcDbEntity
  8
Ｓ_１_１
  6
EXLTYPE2
 62
     1
100
AcDbLine
 10
261.1188507080005
 20
600.3622790000092
 30
0.0
 11
330.0114479065009
 21
600.3622790000093
 31
0.0
  0
LINE
  5
5C4
330
1F
100
AcDbEntity
  8
Ｓ_１_１
  6
CONTINUOUS
 62
     3
100
AcDbLine
 10
262.5000000000002
 20
584.8622790000093
 30
0.0
 11
262.5000000000002
 21
615.8622790000092
 31
0.0
  0
LINE
  5
5C5
330
1F
100
AcDbEntity
  8
Ｓ_１_１
  6
CONTINUOUS
 62
     3
100
AcDbLine
 10
287.5000000000002
 20
584.8622790000093
 30
0.0
 11
287.5000000000002
 21
615.8622790000092
 31
0.0
  0
LINE
  5
5C6
330
1F
100
AcDbEntity
  8
Ｓ_１_１
  6
CONTINUOUS
 62
     3
100
AcDbLine
 10
267.0668669806632
 20
577.1925408261166
 30
0.0
 11
266.6500100000002
 21
583.862263
 31
0.0
  0
LINE
  5
5C7
330
1F
100
AcDbEntity
  8
Ｓ_１_１
  6
CONTINUOUS
 62
     3
100
AcDbLine
 10
267.7649928883565
 20
577.2443380930918
 30
0.0
 11
267.4365130000003
 21
582.50001
 31
0.0
  0
LINE
  5
5C8
330
1F
100
AcDbEntity
  8
Ｓ_１_１
  6
CONTINUOUS
 62
     3
100
AcDbLine
 10
282.235010845133
 20
577.2443378289028
 30
0.0
 11
282.5634900000002
 21
582.499998
 31
0.0
  0
LINE
  5
5C9
330
1F
100
AcDbEntity
  8
Ｓ_１_１
  6
CONTINUOUS
 62
     3
100
AcDbLine
 10
282.9331368164336
 20
577.1925405313506
 30
0.0
 11
283.3499930000002
 21
583.862251
 31
0.0
  0
LINE
  5
5CA
330
1F
100
AcDbEntity
  8
Ｓ_１_１
  6
CONTINUOUS
 62
     3
100
AcDbLine
 10
643.5000040000001
 20
583.8622750000093
 30
0.0
 11
655.0000040000001
 21
583.8622750000092
 31
0.0
  0
LINE
  5
5CB
330
1F
100
AcDbEntity
  8
Ｓ_１_１
  6
CONTINUOUS
 62
     3
100
AcDbLine
 10
655.0000040000001
 20
583.8622750000092
 30
0.0
 11
666.5000040000001
 21
583.8622750000092
 31
0.0
  0
LINE
  5
5CC
330
1F
100
AcDbEntity
  8
Ｓ_１_１
  6
CONTINUOUS
 62
     3
100
AcDbLine
 10
667.5000040000001
 20
584.8622750000092
 30
0.0
 11
667.5000040000001
 21
600.3622750000092
 31
0.0
  0
LINE
  5
5CD
330
1F
100
AcDbEntity
  8
Ｓ_１_１
  6
CONTINUOUS
 62
     3
100
AcDbLine
 10
667.5000040000001
 20
615.8622750000092
 30
0.0
 11
667.5000040000001
 21
600.3622750000092
 31
0.0
  0
LINE
  5
5CE
330
1F
100
AcDbEntity
  8
Ｓ_１_１
  6
CONTINUOUS
 62
     3
100
AcDbLine
 10
643.5000040000001
 20
616.8622750000092
 30
0.0
 11
655.0000040000001
 21
616.8622750000092
 31
0.0
  0
LINE
  5
5CF
330
1F
100
AcDbEntity
  8
Ｓ_１_１
  6
CONTINUOUS
 62
     3
100
AcDbLine
 10
655.0000040000001
 20
616.8622750000092
 30
0.0
 11
666.5000040000001
 21
616.8622750000092
 31
0.0
  0
LINE
  5
5D0
330
1F
100
AcDbEntity
  8
Ｓ_１_１
  6
CONTINUOUS
 62
     3
100
AcDbLine
 10
666.5000053689001
 20
616.8622765587089
 30
0.0
 11
667.5000054189001
 21
615.8622764243088
 31
0.0
  0
LINE
  5
5D1
330
1F
100
AcDbEntity
  8
Ｓ_１_１
  6
CONTINUOUS
 62
     3
100
AcDbLine
 10
667.5000047866998
 20
584.8622739029089
 30
0.0
 11
666.5000049895999
 21
583.8622741900091
 31
0.0
  0
LINE
  5
5D2
330
1F
100
AcDbEntity
  8
Ｓ_１_１
  6
CONTINUOUS
 62
     3
100
AcDbLine
 10
642.5000040481001
 20
584.8622750758092
 30
0.0
 11
643.5000041752002
 21
583.8622750330089
 31
0.0
  0
LINE
  5
5D3
330
1F
100
AcDbEntity
  8
Ｓ_１_１
  6
CONTINUOUS
 62
     3
100
AcDbLine
 10
642.5000040000001
 20
584.8622750000093
 30
0.0
 11
642.5000040000001
 21
600.3622750000092
 31
0.0
  0
LINE
  5
5D4
330
1F
100
AcDbEntity
  8
Ｓ_１_１
  6
CONTINUOUS
 62
     3
100
AcDbLine
 10
643.5000037116002
 20
616.8622754628092
 30
0.0
 11
642.5000039987
 21
615.8622756657088
 31
0.0
  0
LINE
  5
5D5
330
1F
100
AcDbEntity
  8
Ｓ_１_１
  6
CONTINUOUS
 62
     3
100
AcDbLine
 10
642.5000040000001
 20
615.8622750000092
 30
0.0
 11
642.5000040000001
 21
600.3622750000092
 31
0.0
  0
LINE
  5
5D6
330
1F
100
AcDbEntity
  8
Ｓ_１_１
  6
CONTINUOUS
 62
     3
100
AcDbLine
 10
642.5000040000001
 20
615.8622750000092
 30
0.0
 11
667.5000040000001
 21
615.8622750000092
 31
0.0
  0
LINE
  5
5D7
330
1F
100
AcDbEntity
  8
Ｓ_１_１
  6
CONTINUOUS
 62
     3
100
AcDbLine
 10
642.5000040000001
 20
584.8622750000093
 30
0.0
 11
667.5000040000001
 21
584.8622750000092
 31
0.0
  0
LINE
  5
5D8
330
1F
100
AcDbEntity
  8
Ｓ_１_１
  6
CONTINUOUS
 62
     3
100
AcDbLine
 10
663.2648660000001
 20
618.22454700002
 30
0.0
 11
646.7351490000002
 21
618.22454700002
 31
0.0
  0
LINE
  5
5D9
330
1F
100
AcDbEntity
  8
Ｓ_１_１
  6
CONTINUOUS
 62
     3
100
AcDbLine
 10
647.8201230000001
 20
624.36224800002
 30
0.0
 11
647.4365150000002
 21
618.2245350000201
 31
0.0
  0
LINE
  5
5DA
330
1F
100
AcDbEntity
  8
Ｓ_１_１
  6
CONTINUOUS
 62
     3
100
AcDbLine
 10
647.1187530000001
 20
624.3622660000201
 30
0.0
 11
646.6500020000002
 21
616.86225200002
 31
0.0
  0
LINE
  5
5DB
330
1F
100
AcDbEntity
  8
Ｓ_１_１
  6
CONTINUOUS
 62
     3
100
AcDbLine
 10
647.4365300000002
 20
618.22455500002
 30
0.0
 11
646.6500150000002
 21
616.8622720000201
 31
0.0
  0
LINE
  5
5DC
330
1F
100
AcDbEntity
  8
Ｓ_１_１
  6
CONTINUOUS
 62
     3
100
AcDbLine
 10
662.881254
 20
624.3622780000201
 30
0.0
 11
663.3500070000001
 21
616.8622330000201
 31
0.0
  0
LINE
  5
5DD
330
1F
100
AcDbEntity
  8
Ｓ_１_１
  6
CONTINUOUS
 62
     3
100
AcDbLine
 10
663.3499930000002
 20
616.8622560000201
 30
0.0
 11
662.563487
 21
618.22452600002
 31
0.0
  0
LINE
  5
5DE
330
1F
100
AcDbEntity
  8
Ｓ_１_１
  6
CONTINUOUS
 62
     3
100
AcDbLine
 10
662.1798920000002
 20
624.3622600000201
 30
0.0
 11
662.5635010000002
 21
618.2245170000201
 31
0.0
  0
LINE
  5
5DF
330
1F
100
AcDbEntity
  8
Ｓ_１_１
  6
CONTINUOUS
 62
     3
100
AcDbLine
 10
662.2509930000002
 20
577.499984
 30
0.0
 11
662.5634940000001
 21
582.499994
 31
0.0
  0
LINE
  5
5E0
330
1F
100
AcDbEntity
  8
Ｓ_１_１
  6
CONTINUOUS
 62
     3
100
AcDbLine
 10
662.9523570000002
 20
577.499996
 30
0.0
 11
663.3499970000001
 21
583.862247
 31
0.0
  0
LINE
  5
5E1
330
1F
100
AcDbEntity
  8
Ｓ_１_１
  6
CONTINUOUS
 62
     3
100
AcDbLine
 10
663.2648660000001
 20
582.5000030000001
 30
0.0
 11
646.7351490000002
 21
582.5000030000001
 31
0.0
  0
LINE
  5
5E2
330
1F
100
AcDbEntity
  8
Ｓ_１_１
  6
CONTINUOUS
 62
     3
100
AcDbLine
 10
663.3500160000002
 20
583.862294
 30
0.0
 11
662.5635020000001
 21
582.5000110000001
 31
0.0
  0
LINE
  5
5E3
330
1F
100
AcDbEntity
  8
Ｓ_１_１
  6
CONTINUOUS
 62
     3
100
AcDbLine
 10
647.7490180000001
 20
577.499996
 30
0.0
 11
647.4365170000002
 21
582.500006
 31
0.0
  0
LINE
  5
5E4
330
1F
100
AcDbEntity
  8
Ｓ_１_１
  6
CONTINUOUS
 62
     3
100
AcDbLine
 10
647.0476540000002
 20
577.5000090000001
 30
0.0
 11
646.6500140000002
 21
583.862259
 31
0.0
  0
LINE
  5
5E5
330
1F
100
AcDbEntity
  8
Ｓ_１_１
  6
CONTINUOUS
 62
     3
100
AcDbLine
 10
647.4365070000002
 20
582.499995
 30
0.0
 11
646.6500000000002
 21
583.862265
 31
0.0
  0
ARC
  5
5E6
330
1F
100
AcDbEntity
  8
Ｓ_１_１
  6
CONTINUOUS
 62
     3
100
AcDbCircle
 10
665.3922924999898
 20
625.2284410000185
 30
0.0
 40
6.133925000000002
100
AcDbArc
 50
55.61543800000034
 51
124.3845830000003
  0
ARC
  5
5E7
330
1F
100
AcDbEntity
  8
Ｓ_１_１
  6
CONTINUOUS
 62
     3
100
AcDbCircle
 10
654.9999884999899
 20
608.4341290000185
 30
0.0
 40
22.927938
100
AcDbArc
 50
72.411858
 51
107.5881660000001
  0
ARC
  5
5E8
330
1F
100
AcDbEntity
  8
Ｓ_１_１
  6
CONTINUOUS
 62
     3
100
AcDbCircle
 10
644.6076544999902
 20
630.4961410000184
 30
0.0
 40
6.133925000000002
100
AcDbArc
 50
235.6154019999991
 51
304.3845609999998
  0
ARC
  5
5E9
330
1F
100
AcDbEntity
  8
Ｓ_１_１
  6
CONTINUOUS
 62
     3
100
AcDbCircle
 10
650.4999884999903
 20
668.3621080000186
 30
0.0
 40
1.0
100
AcDbArc
 50
89.99997799999524
 51
179.9999749999976
  0
ARC
  5
5EA
330
1F
100
AcDbEntity
  8
Ｓ_１_１
  6
CONTINUOUS
 62
     3
100
AcDbCircle
 10
644.6076544999902
 20
625.2284410000185
 30
0.0
 40
6.133925000000002
100
AcDbArc
 50
55.6153689999997
 51
124.384513999999
  0
ARC
  5
5EB
330
1F
100
AcDbEntity
  8
Ｓ_１_１
  6
CONTINUOUS
 62
     3
100
AcDbCircle
 10
654.9999884999899
 20
647.2902080000187
 30
0.0
 40
22.927942
100
AcDbArc
 50
252.4118210000002
 51
287.5881150000001
  0
ARC
  5
5EC
330
1F
100
AcDbEntity
  8
Ｓ_１_１
  6
CONTINUOUS
 62
     3
100
AcDbCircle
 10
665.3922924999898
 20
630.4961410000184
 30
0.0
 40
6.133925000000002
100
AcDbArc
 50
235.6154159999998
 51
304.3845739999999
  0
ARC
  5
5ED
330
1F
100
AcDbEntity
  8
Ｓ_１_１
  6
CONTINUOUS
 62
     3
100
AcDbCircle
 10
659.4999584999897
 20
668.3621080000186
 30
0.0
 40
1.0
100
AcDbArc
 50
359.9999970000023
 51
89.9999780000017
  0
LINE
  5
5EE
330
1F
100
AcDbEntity
  8
Ｓ_１_１
  6
CONTINUOUS
 62
     3
100
AcDbLine
 10
653.5000194999899
 20
671.3622300000185
 30
0.0
 11
656.4999884999899
 21
671.3622300000185
 31
0.0
  0
LINE
  5
5EF
330
1F
100
AcDbEntity
  8
Ｓ_１_１
  6
CONTINUOUS
 62
     3
100
AcDbLine
 10
642.9999884999903
 20
624.3623520000184
 30
0.0
 11
666.9999584999897
 21
624.3623520000184
 31
0.0
  0
LINE
  5
5F0
330
1F
100
AcDbEntity
  8
Ｓ_１_１
  6
CONTINUOUS
 62
     3
100
AcDbLine
 10
649.4999584999902
 20
668.3621080000186
 30
0.0
 11
649.4999584999902
 21
659.3623520000184
 31
0.0
  0
LINE
  5
5F1
330
1F
100
AcDbEntity
  8
Ｓ_１_１
  6
CONTINUOUS
 62
     3
100
AcDbLine
 10
649.4999584999902
 20
659.3623520000184
 30
0.0
 11
660.4999884999899
 21
659.3623520000184
 31
0.0
  0
LINE
  5
5F2
330
1F
100
AcDbEntity
  8
Ｓ_１_１
  6
CONTINUOUS
 62
     3
100
AcDbLine
 10
646.0000194999903
 20
655.8621080000186
 30
0.0
 11
646.0000194999903
 21
653.8622300000185
 31
0.0
  0
LINE
  5
5F3
330
1F
100
AcDbEntity
  8
Ｓ_１_１
  6
CONTINUOUS
 62
     3
100
AcDbLine
 10
663.9999884999899
 20
655.8621080000186
 30
0.0
 11
663.9999884999899
 21
653.8622300000185
 31
0.0
  0
LINE
  5
5F4
330
1F
100
AcDbEntity
  8
Ｓ_１_１
  6
CONTINUOUS
 62
     3
100
AcDbLine
 10
643.7499884999903
 20
640.3622300000185
 30
0.0
 11
666.2499884999899
 21
640.3622300000185
 31
0.0
  0
LINE
  5
5F5
330
1F
100
AcDbEntity
  8
Ｓ_１_１
  6
CONTINUOUS
 62
     3
100
AcDbLine
 10
666.7499884999899
 20
639.8622300000185
 30
0.0
 11
666.7499884999899
 21
631.3622300000185
 31
0.0
  0
LINE
  5
5F6
330
1F
100
AcDbEntity
  8
Ｓ_１_１
  6
CONTINUOUS
 62
     3
100
AcDbLine
 10
643.2499584999902
 20
639.8622300000185
 30
0.0
 11
643.2499584999902
 21
631.3622300000185
 31
0.0
  0
LINE
  5
5F7
330
1F
100
AcDbEntity
  8
Ｓ_１_１
  6
CONTINUOUS
 62
     3
100
AcDbLine
 10
641.1436204999901
 20
625.4342040000184
 30
0.0
 11
642.9999924999903
 21
624.3624270000188
 31
0.0
  0
LINE
  5
5F8
330
1F
100
AcDbEntity
  8
Ｓ_１_１
  6
CONTINUOUS
 62
     3
100
AcDbLine
 10
666.9999154999897
 20
631.3624210000186
 30
0.0
 11
668.8563934999898
 21
630.2905820000184
 31
0.0
  0
LINE
  5
5F9
330
1F
100
AcDbEntity
  8
Ｓ_１_１
  6
CONTINUOUS
 62
     3
100
AcDbLine
 10
666.9999574999898
 20
624.3623850000187
 30
0.0
 11
668.8563304999899
 21
625.4341620000188
 31
0.0
  0
LINE
  5
5FA
330
1F
100
AcDbEntity
  8
Ｓ_１_１
  6
CONTINUOUS
 62
     3
100
AcDbLine
 10
641.1436274999902
 20
630.2907220000185
 30
0.0
 11
643.0000004999903
 21
631.3624990000186
 31
0.0
  0
LINE
  5
5FB
330
1F
100
AcDbEntity
  8
Ｓ_１_１
  6
CONTINUOUS
 62
     3
100
AcDbLine
 10
668.8564034999896
 20
630.2904520000185
 30
0.0
 11
668.8564034999896
 21
625.4341290000185
 31
0.0
  0
LINE
  5
5FC
330
1F
100
AcDbEntity
  8
Ｓ_１_１
  6
CONTINUOUS
 62
     3
100
AcDbLine
 10
661.9282114999897
 20
630.2904520000185
 30
0.0
 11
661.9282114999897
 21
625.4341290000185
 31
0.0
  0
LINE
  5
5FD
330
1F
100
AcDbEntity
  8
Ｓ_１_１
  6
CONTINUOUS
 62
     3
100
AcDbLine
 10
648.0718574999902
 20
630.2904520000185
 30
0.0
 11
648.0718574999902
 21
625.4341290000185
 31
0.0
  0
LINE
  5
5FE
330
1F
100
AcDbEntity
  8
Ｓ_１_１
  6
CONTINUOUS
 62
     3
100
AcDbLine
 10
641.1435894999901
 20
630.2904520000185
 30
0.0
 11
641.1435894999901
 21
625.4341290000185
 31
0.0
  0
LINE
  5
5FF
330
1F
100
AcDbEntity
  8
Ｓ_１_１
  6
CONTINUOUS
 62
     3
100
AcDbLine
 10
642.9999884999903
 20
631.3622300000185
 30
0.0
 11
666.9999584999897
 21
631.3622300000185
 31
0.0
  0
LINE
  5
600
330
1F
100
AcDbEntity
  8
Ｓ_１_１
  6
CONTINUOUS
 62
     3
100
AcDbLine
 10
650.4999884999903
 20
669.3623520000189
 30
0.0
 11
659.4999584999897
 21
669.3623520000189
 31
0.0
  0
LINE
  5
601
330
1F
100
AcDbEntity
  8
Ｓ_１_１
  6
CONTINUOUS
 62
     3
100
AcDbLine
 10
656.4998474999899
 20
671.3624170000186
 30
0.0
 11
658.4998924999896
 21
669.3623720000188
 31
0.0
  0
LINE
  5
602
330
1F
100
AcDbEntity
  8
Ｓ_１_１
  6
CONTINUOUS
 62
     3
100
AcDbLine
 10
651.4998204999903
 20
669.3624150000184
 30
0.0
 11
653.4997794999896
 21
671.3623740000186
 31
0.0
  0
LINE
  5
603
330
1F
100
AcDbEntity
  8
Ｓ_１_１
  6
CONTINUOUS
 62
     3
100
AcDbLine
 10
647.4999884999903
 20
650.8621080000186
 30
0.0
 11
662.4999884999899
 21
650.8621080000186
 31
0.0
  0
LINE
  5
604
330
1F
100
AcDbEntity
  8
Ｓ_１_１
  6
CONTINUOUS
 62
     3
100
AcDbLine
 10
647.4999884999903
 20
652.3622300000185
 30
0.0
 11
662.4999884999899
 21
652.3622300000185
 31
0.0
  0
LINE
  5
605
330
1F
100
AcDbEntity
  8
Ｓ_１_１
  6
CONTINUOUS
 62
     3
100
AcDbLine
 10
646.0000194999903
 20
655.8621080000186
 30
0.0
 11
663.9999884999899
 21
655.8621080000186
 31
0.0
  0
LINE
  5
606
330
1F
100
AcDbEntity
  8
Ｓ_１_１
  6
CONTINUOUS
 62
     3
100
AcDbLine
 10
663.9999884999899
 20
649.3623520000184
 30
0.0
 11
663.9999884999899
 21
640.3622300000185
 31
0.0
  0
LINE
  5
607
330
1F
100
AcDbEntity
  8
Ｓ_１_１
  6
CONTINUOUS
 62
     3
100
AcDbLine
 10
646.0000194999903
 20
649.3623520000184
 30
0.0
 11
646.0000194999903
 21
640.3622300000185
 31
0.0
  0
LINE
  5
608
330
1F
100
AcDbEntity
  8
Ｓ_１_１
  6
CONTINUOUS
 62
     3
100
AcDbLine
 10
645.9998764999901
 20
653.8622510000188
 30
0.0
 11
647.4998884999901
 21
652.3622380000185
 31
0.0
  0
LINE
  5
609
330
1F
100
AcDbEntity
  8
Ｓ_１_１
  6
CONTINUOUS
 62
     3
100
AcDbLine
 10
662.4999544999897
 20
652.3622370000186
 30
0.0
 11
663.9998374999897
 21
653.8621200000185
 31
0.0
  0
LINE
  5
60A
330
1F
100
AcDbEntity
  8
Ｓ_１_１
  6
CONTINUOUS
 62
     3
100
AcDbLine
 10
646.0000194999903
 20
653.8622300000185
 30
0.0
 11
663.9999884999899
 21
653.8622300000185
 31
0.0
  0
LINE
  5
60B
330
1F
100
AcDbEntity
  8
Ｓ_１_１
  6
CONTINUOUS
 62
     3
100
AcDbLine
 10
645.9999904999901
 20
649.3623850000187
 30
0.0
 11
647.49987349999
 21
650.8622680000186
 31
0.0
  0
LINE
  5
60C
330
1F
100
AcDbEntity
  8
Ｓ_１_１
  6
CONTINUOUS
 62
     3
100
AcDbLine
 10
662.4998404999898
 20
650.8622260000185
 30
0.0
 11
663.9998534999896
 21
649.3622140000185
 31
0.0
  0
LINE
  5
60D
330
1F
100
AcDbEntity
  8
Ｓ_１_１
  6
CONTINUOUS
 62
     3
100
AcDbLine
 10
643.2499584999902
 20
639.8622300000185
 30
0.0
 11
666.7499884999899
 21
639.8622300000185
 31
0.0
  0
LINE
  5
60E
330
1F
100
AcDbEntity
  8
Ｓ_１_１
  6
CONTINUOUS
 62
     3
100
AcDbLine
 10
646.0000194999903
 20
649.3623520000184
 30
0.0
 11
663.9999884999899
 21
649.3623520000184
 31
0.0
  0
LINE
  5
60F
330
1F
100
AcDbEntity
  8
Ｓ_１_１
  6
CONTINUOUS
 62
     3
100
AcDbLine
 10
647.4999884999903
 20
652.3622300000185
 30
0.0
 11
647.4999884999903
 21
650.8621080000186
 31
0.0
  0
LINE
  5
610
330
1F
100
AcDbEntity
  8
Ｓ_１_１
  6
CONTINUOUS
 62
     3
100
AcDbLine
 10
662.4999884999899
 20
652.3622300000185
 30
0.0
 11
662.4999884999899
 21
650.8621080000186
 31
0.0
  0
LINE
  5
611
330
1F
100
AcDbEntity
  8
Ｓ_１_１
  6
CONTINUOUS
 62
     3
100
AcDbLine
 10
666.2498844999897
 20
640.3623190000186
 30
0.0
 11
666.7498314999899
 21
639.8623730000187
 31
0.0
  0
LINE
  5
612
330
1F
100
AcDbEntity
  8
Ｓ_１_１
  6
CONTINUOUS
 62
     3
100
AcDbLine
 10
643.2499134999904
 20
639.8623210000184
 30
0.0
 11
643.7498114999904
 21
640.3622300000185
 31
0.0
  0
LINE
  5
613
330
1F
100
AcDbEntity
  8
Ｓ_１_１
  6
CONTINUOUS
 62
     3
100
AcDbLine
 10
645.9999474999901
 20
655.8623390000186
 30
0.0
 11
649.4999614999903
 21
659.3623530000187
 31
0.0
  0
LINE
  5
614
330
1F
100
AcDbEntity
  8
Ｓ_１_１
  6
CONTINUOUS
 62
     3
100
AcDbLine
 10
660.49983849999
 20
659.3621390000186
 30
0.0
 11
663.9998094999897
 21
655.8621670000185
 31
0.0
  0
LINE
  5
615
330
1F
100
AcDbEntity
  8
Ｓ_１_１
  6
CONTINUOUS
 62
     3
100
AcDbLine
 10
660.4999884999899
 20
668.3621080000186
 30
0.0
 11
660.4999884999899
 21
659.3623520000184
 31
0.0
  0
CIRCLE
  5
616
330
1F
100
AcDbEntity
  8
Ｓ_１_１
  6
CONTINUOUS
 62
     3
100
AcDbCircle
 10
655.0000040000001
 20
600.3622750000101
 30
0.0
 40
10.0
  0
POLYLINE
  5
617
330
1F
100
AcDbEntity
  8
Ｓ_１_１
  6
CONTINUOUS
 62
     3
100
AcDb2dPolyline
 66
     1
 10
0.0
 20
0.0
 30
0.0
 70
   128
  0
VERTEX
  5
618
330
617
100
AcDbEntity
  8
Ｓ_１_１
  6
CONTINUOUS
 62
     3
100
AcDbVertex
100
AcDb2dVertex
 10
655.0000040000001
 20
609.8622750000101
 30
0.0
  0
VERTEX
  5
619
330
617
100
AcDbEntity
  8
Ｓ_１_１
  6
CONTINUOUS
 62
     3
100
AcDbVertex
100
AcDb2dVertex
 10
646.772762664048
 20
605.1122750000101
 30
0.0
  0
VERTEX
  5
61A
330
617
100
AcDbEntity
  8
Ｓ_１_１
  6
CONTINUOUS
 62
     3
100
AcDbVertex
100
AcDb2dVertex
 10
646.772762664048
 20
595.6122750000101
 30
0.0
  0
VERTEX
  5
61B
330
617
100
AcDbEntity
  8
Ｓ_１_１
  6
CONTINUOUS
 62
     3
100
AcDbVertex
100
AcDb2dVertex
 10
655.0000040000001
 20
590.8622750000101
 30
0.0
  0
VERTEX
  5
61C
330
617
100
AcDbEntity
  8
Ｓ_１_１
  6
CONTINUOUS
 62
     3
100
AcDbVertex
100
AcDb2dVertex
 10
663.2272453359523
 20
595.6122750000101
 30
0.0
  0
VERTEX
  5
61D
330
617
100
AcDbEntity
  8
Ｓ_１_１
  6
CONTINUOUS
 62
     3
100
AcDbVertex
100
AcDb2dVertex
 10
663.2272453359523
 20
605.1122750000101
 30
0.0
  0
VERTEX
  5
61E
330
617
100
AcDbEntity
  8
Ｓ_１_１
  6
CONTINUOUS
 62
     3
100
AcDbVertex
100
AcDb2dVertex
 10
655.0000040000001
 20
609.8622750000101
 30
0.0
  0
SEQEND
  5
61F
330
617
100
AcDbEntity
  8
Ｓ_１_１
  6
CONTINUOUS
 62
     3
  0
CIRCLE
  5
620
330
1F
100
AcDbEntity
  8
Ｓ_１_１
  6
CONTINUOUS
 62
     3
100
AcDbCircle
 10
655.0000040000001
 20
600.3622750000101
 30
0.0
 40
8.227241335951572
  0
ARC
  5
621
330
1F
100
AcDbEntity
  8
Ｓ_１_１
  6
CONTINUOUS
 62
     3
100
AcDbCircle
 10
655.0000040000001
 20
600.3622750000101
 30
0.0
 40
8.999999915700016
100
AcDbArc
 50
96.08359749728285
 51
143.9164025027172
  0
ARC
  5
622
330
1F
100
AcDbEntity
  8
Ｓ_１_１
  6
CONTINUOUS
 62
     3
100
AcDbCircle
 10
655.0000040000001
 20
600.3622750000101
 30
0.0
 40
8.999999915700016
100
AcDbArc
 50
156.0835974972827
 51
203.9164025027173
  0
ARC
  5
623
330
1F
100
AcDbEntity
  8
Ｓ_１_１
  6
CONTINUOUS
 62
     3
100
AcDbCircle
 10
655.0000040000001
 20
600.3622750000101
 30
0.0
 40
8.999999915700016
100
AcDbArc
 50
216.0835974972828
 51
263.9164025027172
  0
ARC
  5
624
330
1F
100
AcDbEntity
  8
Ｓ_１_１
  6
CONTINUOUS
 62
     3
100
AcDbCircle
 10
655.0000040000001
 20
600.3622750000101
 30
0.0
 40
8.999999915700016
100
AcDbArc
 50
276.0835974972829
 51
323.9164025027172
  0
ARC
  5
625
330
1F
100
AcDbEntity
  8
Ｓ_１_１
  6
CONTINUOUS
 62
     3
100
AcDbCircle
 10
655.0000040000001
 20
600.3622750000101
 30
0.0
 40
8.999999915700016
100
AcDbArc
 50
336.0835974972827
 51
23.91640250271736
  0
ARC
  5
626
330
1F
100
AcDbEntity
  8
Ｓ_１_１
  6
CONTINUOUS
 62
     3
100
AcDbCircle
 10
655.0000040000001
 20
600.3622750000101
 30
0.0
 40
8.999999915700016
100
AcDbArc
 50
36.08359749728283
 51
83.91640250271715
  0
CIRCLE
  5
627
330
1F
100
AcDbEntity
  8
Ｓ_１_１
  6
CONTINUOUS
 62
     3
100
AcDbCircle
 10
655.0000040000001
 20
600.3622750000101
 30
0.0
 40
5.0
  0
CIRCLE
  5
628
330
1F
100
AcDbEntity
  8
Ｓ_１_１
  6
CONTINUOUS
 62
     3
100
AcDbCircle
 10
655.0000040000001
 20
600.3622750000101
 30
0.0
 40
4.25
  0
LINE
  5
629
330
1F
100
AcDbEntity
  8
Ｓ_１_１
  6
EXLTYPE2
 62
     1
100
AcDbLine
 10
668.0000040000001
 20
600.3622750000092
 30
0.0
 11
642.0000040000001
 21
600.3622750000092
 31
0.0
  0
POLYLINE
  5
62A
330
1F
100
AcDbEntity
  8
Ｓ_１_１
  6
CONTINUOUS
 62
     3
100
AcDb2dPolyline
 66
     1
 10
0.0
 20
0.0
 30
0.0
 70
   128
  0
VERTEX
  5
62B
330
62A
100
AcDbEntity
  8
Ｓ_１_１
  6
CONTINUOUS
 62
     3
100
AcDbVertex
100
AcDb2dVertex
 10
655.000004
 20
603.2490263459581
 30
0.0
  0
VERTEX
  5
62C
330
62A
100
AcDbEntity
  8
Ｓ_１_１
  6
CONTINUOUS
 62
     3
100
AcDbVertex
100
AcDb2dVertex
 10
652.500004
 20
601.805650672984
 30
0.0
  0
VERTEX
  5
62D
330
62A
100
AcDbEntity
  8
Ｓ_１_１
  6
CONTINUOUS
 62
     3
100
AcDbVertex
100
AcDb2dVertex
 10
652.500004
 20
598.9188993270359
 30
0.0
  0
VERTEX
  5
62E
330
62A
100
AcDbEntity
  8
Ｓ_１_１
  6
CONTINUOUS
 62
     3
100
AcDbVertex
100
AcDb2dVertex
 10
655.000004
 20
597.4755236540618
 30
0.0
  0
VERTEX
  5
62F
330
62A
100
AcDbEntity
  8
Ｓ_１_１
  6
CONTINUOUS
 62
     3
100
AcDbVertex
100
AcDb2dVertex
 10
657.500004
 20
598.9188993270359
 30
0.0
  0
VERTEX
  5
630
330
62A
100
AcDbEntity
  8
Ｓ_１_１
  6
CONTINUOUS
 62
     3
100
AcDbVertex
100
AcDb2dVertex
 10
657.500004
 20
601.805650672984
 30
0.0
  0
VERTEX
  5
631
330
62A
100
AcDbEntity
  8
Ｓ_１_１
  6
CONTINUOUS
 62
     3
100
AcDbVertex
100
AcDb2dVertex
 10
655.000004
 20
603.2490263459581
 30
0.0
  0
SEQEND
  5
632
330
62A
100
AcDbEntity
  8
Ｓ_１_１
  6
CONTINUOUS
 62
     3
  0
ENDSEC
  0
SECTION
  2
OBJECTS
  0
DICTIONARY
  5
C
330
0
100
AcDbDictionary
  3
ACAD_GROUP
350
D
  3
ACAD_LAYOUT
350
1A
  3
ACAD_MATERIAL
350
43
  3
ACAD_MLEADERSTYLE
350
6B
  3
ACAD_MLINESTYLE
350
17
  3
ACAD_PLOTSETTINGS
350
19
  3
ACAD_SCALELIST
350
47
  3
ACAD_VISUALSTYLE
350
2A
  3
ACDBHEADERROUNDTRIPXREC
350
633
  3
ACDBVARIABLEDICTIONARY
350
654
  0
DICTIONARY
  5
65F
330
8
100
AcDbDictionary
280
     1
  3
ACAD_XREC_ROUNDTRIP
360
660
  0
DICTIONARY
  5
D
102
{ACAD_REACTORS
330
C
102
}
330
C
100
AcDbDictionary
  0
DICTIONARY
  5
1A
102
{ACAD_REACTORS
330
C
102
}
330
C
100
AcDbDictionary
  0
DICTIONARY
  5
43
102
{ACAD_REACTORS
330
C
102
}
330
C
100
AcDbDictionary
  3
BYBLOCK
350
45
  3
BYLAYER
350
44
  3
GLOBAL
350
46
  0
DICTIONARY
  5
6B
102
{ACAD_REACTORS
330
C
102
}
330
C
100
AcDbDictionary
  3
STANDARD
350
6C
  0
DICTIONARY
  5
17
102
{ACAD_REACTORS
330
C
102
}
330
C
100
AcDbDictionary
  3
STANDARD
350
18
  0
DICTIONARY
  5
19
102
{ACAD_REACTORS
330
C
102
}
330
C
100
AcDbDictionary
  0
DICTIONARY
  5
47
102
{ACAD_REACTORS
330
C
102
}
330
C
100
AcDbDictionary
  3
A0
350
48
  3
A1
350
49
  3
A2
350
4A
  3
A3
350
4B
  3
A4
350
4C
  3
A5
350
4D
  3
A6
350
4E
  3
A7
350
4F
  3
A8
350
50
  3
A9
350
51
  3
B0
350
52
  3
B1
350
53
  3
B2
350
54
  3
B3
350
55
  3
B4
350
56
  3
B5
350
57
  3
B6
350
58
  3
B7
350
59
  3
B8
350
5A
  3
B9
350
5B
  3
C0
350
5C
  3
C1
350
5D
  3
C2
350
5E
  3
C3
350
5F
  3
C4
350
60
  3
C5
350
61
  3
C6
350
62
  3
C7
350
63
  3
C8
350
64
  3
C9
350
65
  3
D0
350
66
  3
D1
350
67
  3
D2
350
68
  0
DICTIONARY
  5
2A
102
{ACAD_REACTORS
330
C
102
}
330
C
100
AcDbDictionary
  3
2DWIREFRAME
350
2F
  3
BASIC
350
32
  3
BRIGHTEN
350
36
  3
COLORCHANGE
350
3A
  3
CONCEPTUAL
350
34
  3
DIM
350
35
  3
EDGECOLOROFF
350
3D
  3
FACEPATTERN
350
39
  3
FLAT
350
2B
  3
FLATWITHEDGES
350
2C
  3
GOURAUD
350
2D
  3
GOURAUDWITHEDGES
350
2E
  3
HIDDEN
350
31
  3
JITTEROFF
350
3B
  3
LINEPATTERN
350
38
  3
OVERHANGOFF
350
3C
  3
REALISTIC
350
33
  3
SHADED
350
42
  3
SHADED_WITH_EDGES
350
41
  3
SHADES_OF_GRAY
350
3E
  3
SKETCHY
350
3F
  3
THICKEN
350
37
  3
WIREFRAME
350
30
  3
X-RAY
350
40
  0
DICTIONARY
  5
633
102
{ACAD_REACTORS
330
C
102
}
330
C
100
AcDbDictionary
  3
CEPSNID
350
63D
  3
CEPSNTYPE
350
63C
  3
DIMSTYLEDATA
350
653
  3
FINGERPRINTGUID
350
63E
  3
HYPERLINKBASE
350
636
  3
INSUNITS
350
63B
  3
LAYOUTDICT
350
638
  3
LWETCUNION
350
63A
  3
PLOTSETDICT
350
639
  3
PSVPSCALE
350
640
  3
PUCSBASE
350
643
  3
PUCSORGBACK
350
649
  3
PUCSORGBOTTOM
350
645
  3
PUCSORGFRONT
350
648
  3
PUCSORGLEFT
350
646
  3
PUCSORGRIGHT
350
647
  3
PUCSORGTOP
350
644
  3
PUCSORTHOREF
350
641
  3
PUCSORTHOVIEW
350
642
  3
STYLESHEET
350
637
  3
TSTACKALIGN
350
634
  3
TSTACKSIZE
350
635
  3
UCSBASE
350
64C
  3
UCSORGBACK
350
652
  3
UCSORGBOTTOM
350
64E
  3
UCSORGFRONT
350
651
  3
UCSORGLEFT
350
64F
  3
UCSORGRIGHT
350
650
  3
UCSORGTOP
350
64D
  3
UCSORTHOREF
350
64A
  3
UCSORTHOVIEW
350
64B
  3
VERSIONGUID
350
63F
  0
DICTIONARY
  5
654
102
{ACAD_REACTORS
330
C
102
}
330
C
100
AcDbDictionary
  3
CANNOSCALE
350
661
  3
CENTEREXE
350
65B
  3
CENTERLTYPEFILE
350
65C
  3
CMLEADERSTYLE
350
656
  3
CTABLESTYLE
350
655
  3
DIMASSOC
350
65D
  3
HIDETEXT
350
65E
  3
MSLTSCALE
350
662
  3
PSOLHEIGHT
350
658
  3
PSOLWIDTH
350
657
  0
XRECORD
  5
660
102
{ACAD_REACTORS
330
65F
102
}
330
65F
100
AcDbXrecord
102
VTR_0.000_0.000_1.000_1.000_VISUALSTYLE
340
2F
102
VTR_0.000_0.000_1.000_1.000_GRIDDISPLAY
 70
     3
102
VTR_0.000_0.000_1.000_1.000_GRIDMAJOR
 70
     5
102
VTR_0.000_0.000_1.000_1.000_DEFAULTLIGHTING
280
     1
102
VTR_0.000_0.000_1.000_1.000_DEFAULTLIGHTINGTYPE
 70
     1
102
VTR_0.000_0.000_1.000_1.000_BRIGHTNESS
141
0.0
102
VTR_0.000_0.000_1.000_1.000_CONTRAST
142
0.0
  0
MATERIAL
  5
45
102
{ACAD_REACTORS
330
43
102
}
102
{ACAD_XDICTIONARY
360
665
102
}
330
43
100
AcDbMaterial
  1
BYBLOCK
  0
MATERIAL
  5
44
102
{ACAD_REACTORS
330
43
102
}
102
{ACAD_XDICTIONARY
360
663
102
}
330
43
100
AcDbMaterial
  1
BYLAYER
  0
MATERIAL
  5
46
102
{ACAD_REACTORS
330
43
102
}
102
{ACAD_XDICTIONARY
360
667
102
}
330
43
100
AcDbMaterial
  1
GLOBAL
  0
ACAD_PROXY_OBJECT
  5
6C
102
{ACAD_REACTORS
330
6B
102
}
330
6B
100
AcDbProxyObject
 90
      499
 91
      505
 93
      610
310
40901902A4063FBFFFFFE0000000000000020400000000000020404214DD185B99185C990000000000000104090141901A00000000000004100000000000000041025764000000000000039000
340
14
340
0
340
11
340
0
 94
        0
1001
ACAD_MLEADERVER
1070
     2
  0
MLINESTYLE
  5
18
102
{ACAD_REACTORS
330
17
102
}
330
17
100
AcDbMlineStyle
  2
Standard
 70
     0
  3

 62
   256
 51
90.0
 52
90.0
 71
     2
 49
0.5
 62
   256
  6
BYLAYER
 49
-0.5
 62
   256
  6
BYLAYER
  0
ACAD_PROXY_OBJECT
  5
48
102
{ACAD_REACTORS
330
47
102
}
330
47
100
AcDbProxyObject
 90
      499
 91
      503
 93
       41
310
903313A31580
  0
ACAD_PROXY_OBJECT
  5
49
102
{ACAD_REACTORS
330
47
102
}
330
47
100
AcDbProxyObject
 90
      499
 91
      503
 93
      105
310
903313A324000000000000004000
  0
ACAD_PROXY_OBJECT
  5
4A
102
{ACAD_REACTORS
330
47
102
}
330
47
100
AcDbProxyObject
 90
      499
 91
      503
 93
      105
310
903313A344000000000000104000
  0
ACAD_PROXY_OBJECT
  5
4B
102
{ACAD_REACTORS
330
47
102
}
330
47
100
AcDbProxyObject
 90
      499
 91
      503
 93
      105
310
903313A354000000000000144000
  0
ACAD_PROXY_OBJECT
  5
4C
102
{ACAD_REACTORS
330
47
102
}
330
47
100
AcDbProxyObject
 90
      499
 91
      503
 93
      105
310
903313A384000000000000204000
  0
ACAD_PROXY_OBJECT
  5
4D
102
{ACAD_REACTORS
330
47
102
}
330
47
100
AcDbProxyObject
 90
      499
 91
      503
 93
      113
310
904313A31304000000000000244000
  0
ACAD_PROXY_OBJECT
  5
4E
102
{ACAD_REACTORS
330
47
102
}
330
47
100
AcDbProxyObject
 90
      499
 91
      503
 93
      113
310
904313A31364000000000000304000
  0
ACAD_PROXY_OBJECT
  5
4F
102
{ACAD_REACTORS
330
47
102
}
330
47
100
AcDbProxyObject
 90
      499
 91
      503
 93
      113
310
904313A32304000000000000344000
  0
ACAD_PROXY_OBJECT
  5
50
102
{ACAD_REACTORS
330
47
102
}
330
47
100
AcDbProxyObject
 90
      499
 91
      503
 93
      113
310
904313A333040000000000003E4000
  0
ACAD_PROXY_OBJECT
  5
51
102
{ACAD_REACTORS
330
47
102
}
330
47
100
AcDbProxyObject
 90
      499
 91
      503
 93
      113
310
904313A34304000000000000444000
  0
ACAD_PROXY_OBJECT
  5
52
102
{ACAD_REACTORS
330
47
102
}
330
47
100
AcDbProxyObject
 90
      499
 91
      503
 93
      113
310
904313A35304000000000000494000
  0
ACAD_PROXY_OBJECT
  5
53
102
{ACAD_REACTORS
330
47
102
}
330
47
100
AcDbProxyObject
 90
      499
 91
      503
 93
      121
310
905313A3130304000000000000594000
  0
ACAD_PROXY_OBJECT
  5
54
102
{ACAD_REACTORS
330
47
102
}
330
47
100
AcDbProxyObject
 90
      499
 91
      503
 93
      105
310
903323A310000000000000010100
  0
ACAD_PROXY_OBJECT
  5
55
102
{ACAD_REACTORS
330
47
102
}
330
47
100
AcDbProxyObject
 90
      499
 91
      503
 93
      105
310
903343A310000000000000410100
  0
ACAD_PROXY_OBJECT
  5
56
102
{ACAD_REACTORS
330
47
102
}
330
47
100
AcDbProxyObject
 90
      499
 91
      503
 93
      105
310
903383A310000000000000810100
  0
ACAD_PROXY_OBJECT
  5
57
102
{ACAD_REACTORS
330
47
102
}
330
47
100
AcDbProxyObject
 90
      499
 91
      503
 93
      113
310
90431303A310000000000000910100
  0
ACAD_PROXY_OBJECT
  5
58
102
{ACAD_REACTORS
330
47
102
}
330
47
100
AcDbProxyObject
 90
      499
 91
      503
 93
      121
310
9053130303A310000000000001650100
  0
ACAD_PROXY_OBJECT
  5
59
102
{ACAD_REACTORS
330
47
102
}
330
47
100
AcDbProxyObject
 90
      499
 91
      503
 93
      257
310
90E312F31323822203D2031272D3022000000000000200FC000000000000284000
  0
ACAD_PROXY_OBJECT
  5
5A
102
{ACAD_REACTORS
330
47
102
}
330
47
100
AcDbProxyObject
 90
      499
 91
      503
 93
      249
310
90D312F363422203D2031272D3022000000000000240FC000000000000284000
  0
ACAD_PROXY_OBJECT
  5
5B
102
{ACAD_REACTORS
330
47
102
}
330
47
100
AcDbProxyObject
 90
      499
 91
      503
 93
      249
310
90D312F333222203D2031272D3022000000000000280FC000000000000284000
  0
ACAD_PROXY_OBJECT
  5
5C
102
{ACAD_REACTORS
330
47
102
}
330
47
100
AcDbProxyObject
 90
      499
 91
      503
 93
      249
310
90D312F313622203D2031272D30220000000000002C0FC000000000000284000
  0
ACAD_PROXY_OBJECT
  5
5D
102
{ACAD_REACTORS
330
47
102
}
330
47
100
AcDbProxyObject
 90
      499
 91
      503
 93
      249
310
90D332F333222203D2031272D30220000000000002E0FC000000000000284000
  0
ACAD_PROXY_OBJECT
  5
5E
102
{ACAD_REACTORS
330
47
102
}
330
47
100
AcDbProxyObject
 90
      499
 91
      503
 93
      241
310
90C312F3822203D2031272D3022000000000000300FC000000000000284000
  0
ACAD_PROXY_OBJECT
  5
5F
102
{ACAD_REACTORS
330
47
102
}
330
47
100
AcDbProxyObject
 90
      499
 91
      503
 93
      249
310
90D332F313622203D2031272D3022000000000000320FC000000000000284000
  0
ACAD_PROXY_OBJECT
  5
60
102
{ACAD_REACTORS
330
47
102
}
330
47
100
AcDbProxyObject
 90
      499
 91
      503
 93
      241
310
90C312F3422203D2031272D3022000000000000340FC000000000000284000
  0
ACAD_PROXY_OBJECT
  5
61
102
{ACAD_REACTORS
330
47
102
}
330
47
100
AcDbProxyObject
 90
      499
 91
      503
 93
      241
310
90C332F3822203D2031272D3022000000000000360FC000000000000284000
  0
ACAD_PROXY_OBJECT
  5
62
102
{ACAD_REACTORS
330
47
102
}
330
47
100
AcDbProxyObject
 90
      499
 91
      503
 93
      241
310
90C312F3222203D2031272D3022000000000000380FC000000000000284000
  0
ACAD_PROXY_OBJECT
  5
63
102
{ACAD_REACTORS
330
47
102
}
330
47
100
AcDbProxyObject
 90
      499
 91
      503
 93
      241
310
90C332F3422203D2031272D30220000000000003A0FC000000000000284000
  0
ACAD_PROXY_OBJECT
  5
64
102
{ACAD_REACTORS
330
47
102
}
330
47
100
AcDbProxyObject
 90
      499
 91
      503
 93
      161
310
90A3122203D2031272D30224000000000000284000
  0
ACAD_PROXY_OBJECT
  5
65
102
{ACAD_REACTORS
330
47
102
}
330
47
100
AcDbProxyObject
 90
      499
 91
      503
 93
      257
310
90E312D312F3222203D2031272D30220000000000003E0FC000000000000284000
  0
ACAD_PROXY_OBJECT
  5
66
102
{ACAD_REACTORS
330
47
102
}
330
47
100
AcDbProxyObject
 90
      499
 91
      503
 93
      225
310
90A3322203D2031272D302200000000000002100000000000000284000
  0
ACAD_PROXY_OBJECT
  5
67
102
{ACAD_REACTORS
330
47
102
}
330
47
100
AcDbProxyObject
 90
      499
 91
      503
 93
      225
310
90A3622203D2031272D302200000000000006100000000000000284000
  0
ACAD_PROXY_OBJECT
  5
68
102
{ACAD_REACTORS
330
47
102
}
330
47
100
AcDbProxyObject
 90
      499
 91
      503
 93
      249
310
90D31272D3022203D2031272D30220000000000000A100000000000000284000
  0
ACAD_PROXY_OBJECT
  5
2F
102
{ACAD_REACTORS
330
2A
102
}
330
2A
100
AcDbProxyObject
 90
      499
 91
      501
 93
      436
310
42CC9915DA5C99599C985B595049028333333333333E33F0000000000000F90107901411070040501600405405064090741402480A0340
1001
ACAD
1000
AcDbSavedByObjectVersion
1070
     0
  0
ACAD_PROXY_OBJECT
  5
32
102
{ACAD_REACTORS
330
2A
102
}
330
2A
100
AcDbProxyObject
 90
      499
 91
      501
 93
      388
310
4150985CDA58D07406404333333333333E33F0000000000000F90107A41107004050150841D405064090741402480A0350
1001
ACAD
1000
AcDbSavedByObjectVersion
1070
     0
  0
ACAD_PROXY_OBJECT
  5
36
102
{ACAD_REACTORS
330
2A
102
}
330
2A
100
AcDbProxyObject
 90
      499
 91
      501
 93
      428
310
42109C9A59DA1D195B90C409028333333333333E33F0000000000000F9010790141107004050150841D405064090741402480A029950
1001
ACAD
1000
AcDbSavedByObjectVersion
1070
     0
  0
ACAD_PROXY_OBJECT
  5
3A
102
{ACAD_REACTORS
330
2A
102
}
330
2A
100
AcDbProxyObject
 90
      499
 91
      501
 93
      452
310
42D0DBDB1BDC90DA185B99D95104090240C333333333333E33F0000000000000F90108901411070040501508421405064090741402480A0350
1001
ACAD
1000
AcDbSavedByObjectVersion
1070
     0
  0
ACAD_PROXY_OBJECT
  5
34
102
{ACAD_REACTORS
330
2A
102
}
330
2A
100
AcDbProxyObject
 90
      499
 91
      501
 93
      500
310
4290DBDB98D95C1D1D585B10940D028333333333333E33F0000000000000F90107902409070040501000000000018199010841D405064090740C02480A0340
1001
ACAD
1000
AcDbSavedByObjectVersion
1070
     0
  0
ACAD_PROXY_OBJECT
  5
35
102
{ACAD_REACTORS
330
2A
102
}
330
2A
100
AcDbProxyObject
 90
      499
 91
      501
 93
      412
310
40D11A5B50B409028333333333333E33F0000000000000F9010790141107004050150841D405064090741402480A02677FFFFFD0
1001
ACAD
1000
AcDbSavedByObjectVersion
1070
     0
  0
ACAD_PROXY_OBJECT
  5
3D
102
{ACAD_REACTORS
330
2A
102
}
330
2A
100
AcDbProxyObject
 90
      499
 91
      501
 93
      452
310
43115919D950DBDB1BDC93D999916409028333333333333E33F0000000000000F9010790141107004050150841D405064090741402480A0350
1001
ACAD
1000
AcDbSavedByObjectVersion
1070
     0
  0
ACAD_PROXY_OBJECT
  5
39
102
{ACAD_REACTORS
330
2A
102
}
330
2A
100
AcDbProxyObject
 90
      499
 91
      501
 93
      444
310
42D19858D95C185D1D195C9B90F409028333333333333E33F0000000000000F9010790141107004050150841D405064090741402480A0350
1001
ACAD
1000
AcDbSavedByObjectVersion
1070
     0
  0
ACAD_PROXY_OBJECT
  5
2B
102
{ACAD_REACTORS
330
2A
102
}
330
2A
100
AcDbProxyObject
 90
      499
 91
      501
 93
      380
310
41119B185D240901404333333333333E33F0000000000000F9010740A907004050150841D405064090741402480A1B50
1001
ACAD
1000
AcDbSavedByObjectVersion
1070
     0
  0
ACAD_PROXY_OBJECT
  5
2C
102
{ACAD_REACTORS
330
2A
102
}
330
2A
100
AcDbProxyObject
 90
      499
 91
      501
 93
      468
310
43519B185D15DA5D1A115919D95CD0140901404333333333333E33F0000000000000F90107409019070040501600405405064090741402480A1B50
1001
ACAD
1000
AcDbSavedByObjectVersion
1070
     0
  0
ACAD_PROXY_OBJECT
  5
2D
102
{ACAD_REACTORS
330
2A
102
}
330
2A
100
AcDbProxyObject
 90
      499
 91
      501
 93
      404
310
41D1DBDD5C985D5910240902404333333333333E33F0000000000000F9010740A9070040501641D405064090741402480A1B50
1001
ACAD
1000
AcDbSavedByObjectVersion
1070
     0
  0
ACAD_PROXY_OBJECT
  5
2E
102
{ACAD_REACTORS
330
2A
102
}
330
2A
100
AcDbProxyObject
 90
      499
 91
      501
 93
      492
310
4411DBDD5C985D5915DA5D1A115919D95CD0340902404333333333333E33F0000000000000F90107409019070040501600405405064090741402480A1B50
1001
ACAD
1000
AcDbSavedByObjectVersion
1070
     0
  0
ACAD_PROXY_OBJECT
  5
31
102
{ACAD_REACTORS
330
2A
102
}
330
2A
100
AcDbProxyObject
 90
      499
 91
      501
 93
      476
310
41921A5919195B90640502408333333333333E33F0000000000000F901079024090700405020000000000001110200405405064090740C02480A0340
1001
ACAD
1000
AcDbSavedByObjectVersion
1070
     0
  0
ACAD_PROXY_OBJECT
  5
3B
102
{ACAD_REACTORS
330
2A
102
}
330
2A
100
AcDbProxyObject
 90
      499
 91
      501
 93
      428
310
42529A5D1D195C93D999914409028333333333333E33F0000000000000F9010790141107004050150A41D405064090741402480A0350
1001
ACAD
1000
AcDbSavedByObjectVersion
1070
     0
  0
ACAD_PROXY_OBJECT
  5
38
102
{ACAD_REACTORS
330
2A
102
}
330
2A
100
AcDbProxyObject
 90
      499
 91
      501
 93
      444
310
42D31A5B995C185D1D195C9B90E409028333333333333E33F0000000000000F9010790141107004050750841D405064090741402483A0350
1001
ACAD
1000
AcDbSavedByObjectVersion
1070
     0
  0
ACAD_PROXY_OBJECT
  5
3C
102
{ACAD_REACTORS
330
2A
102
}
330
2A
100
AcDbProxyObject
 90
      499
 91
      501
 93
      444
310
42D3DD995C9A185B99D3D999915409028333333333333E33F0000000000000F9010790141107004050150941D405064090741402480A0350
1001
ACAD
1000
AcDbSavedByObjectVersion
1070
     0
  0
ACAD_PROXY_OBJECT
  5
33
102
{ACAD_REACTORS
330
2A
102
}
330
2A
100
AcDbProxyObject
 90
      499
 91
      501
 93
      428
310
425499585B1A5CDD1A58D08409038333333333333E33F0000000000000F9010740A907004050150800405405064090740C02480A1B40
1001
ACAD
1000
AcDbSavedByObjectVersion
1070
     0
  0
ACAD_PROXY_OBJECT
  5
42
102
{ACAD_REACTORS
330
2A
102
}
330
2A
100
AcDbProxyObject
 90
      499
 91
      501
 93
      420
310
4194DA1859195911B40902404333333333333E33F0000000000000F9010740A41107004050150800405405064090840C02480A0B40
1001
ACAD
1000
AcDbSavedByObjectVersion
1070
     0
  0
ACAD_PROXY_OBJECT
  5
41
102
{ACAD_REACTORS
330
2A
102
}
330
2A
100
AcDbProxyObject
 90
      499
 91
      501
 93
      516
310
4454DA18591959081DDA5D1A08195919D95CD1A40902404333333333333E33F0000000000000F901074090142907004050250800405405064090740C02480A0B40
1001
ACAD
1000
AcDbSavedByObjectVersion
1070
     0
  0
ACAD_PROXY_OBJECT
  5
3E
102
{ACAD_REACTORS
330
2A
102
}
330
2A
100
AcDbProxyObject
 90
      499
 91
      501
 93
      532
310
4394DA1859195CC81BD98811DC985E5174090240C333333333333E33F0000000000000F901079024090741D01000000000000111010841D405064090740C02480A0340
1001
ACAD
1000
AcDbSavedByObjectVersion
1070
     0
  0
ACAD_PROXY_OBJECT
  5
3F
102
{ACAD_REACTORS
330
2A
102
}
330
2A
100
AcDbProxyObject
 90
      499
 91
      501
 93
      476
310
41D4DAD95D18DA1E51840502408333333333333E33F0000000000000F901079024090741D01000000000000111010B41D405064090741802480A0340
1001
ACAD
1000
AcDbSavedByObjectVersion
1070
     0
  0
ACAD_PROXY_OBJECT
  5
37
102
{ACAD_REACTORS
330
2A
102
}
330
2A
100
AcDbProxyObject
 90
      499
 91
      501
 93
      412
310
41D51A1A58DAD95B90D409028333333333333E33F0000000000000F9010790141107004050150C41D405064090741402480A0350
1001
ACAD
1000
AcDbSavedByObjectVersion
1070
     0
  0
ACAD_PROXY_OBJECT
  5
30
102
{ACAD_REACTORS
330
2A
102
}
330
2A
100
AcDbProxyObject
 90
      499
 91
      501
 93
      420
310
4255DA5C99599C985B595059028333333333333E33F0000000000000F90107901411070040501600405405064090740C02480A0340
1001
ACAD
1000
AcDbSavedByObjectVersion
1070
     0
  0
ACAD_PROXY_OBJECT
  5
40
102
{ACAD_REACTORS
330
2A
102
}
330
2A
100
AcDbProxyObject
 90
      499
 91
      501
 93
      404
310
41560B54985E51940902404000000000000E03F0000000000000F9010740501907004050150841D405064090740C02480A1B40
1001
ACAD
1000
AcDbSavedByObjectVersion
1070
     0
  0
XRECORD
  5
63D
102
{ACAD_REACTORS
330
633
102
}
330
633
100
AcDbXrecord
340
0
  0
XRECORD
  5
63C
102
{ACAD_REACTORS
330
633
102
}
330
633
100
AcDbXrecord
 90
        0
  0
XRECORD
  5
653
102
{ACAD_REACTORS
330
633
102
}
330
633
100
AcDbXrecord
1000
DSTYLE
1002
{
1070
   340
340
11
1002
}
  0
XRECORD
  5
63E
102
{ACAD_REACTORS
330
633
102
}
330
633
100
AcDbXrecord
  1
{973c4d32-7ac2-4108-b8ad-88833aa08bd3}
  0
XRECORD
  5
636
102
{ACAD_REACTORS
330
633
102
}
330
633
100
AcDbXrecord
  1

  0
XRECORD
  5
63B
102
{ACAD_REACTORS
330
633
102
}
330
633
100
AcDbXrecord
 90
        4
  0
XRECORD
  5
638
102
{ACAD_REACTORS
330
633
102
}
330
633
100
AcDbXrecord
340
1A
  0
XRECORD
  5
63A
102
{ACAD_REACTORS
330
633
102
}
330
633
100
AcDbXrecord
 90
    10781
  0
XRECORD
  5
639
102
{ACAD_REACTORS
330
633
102
}
330
633
100
AcDbXrecord
340
19
  0
XRECORD
  5
640
102
{ACAD_REACTORS
330
633
102
}
330
633
100
AcDbXrecord
 40
0.0
  0
XRECORD
  5
643
102
{ACAD_REACTORS
330
633
102
}
330
633
100
AcDbXrecord
340
0
  0
XRECORD
  5
649
102
{ACAD_REACTORS
330
633
102
}
330
633
100
AcDbXrecord
 10
0.0
 20
0.0
 30
0.0
  0
XRECORD
  5
645
102
{ACAD_REACTORS
330
633
102
}
330
633
100
AcDbXrecord
 10
0.0
 20
0.0
 30
0.0
  0
XRECORD
  5
648
102
{ACAD_REACTORS
330
633
102
}
330
633
100
AcDbXrecord
 10
0.0
 20
0.0
 30
0.0
  0
XRECORD
  5
646
102
{ACAD_REACTORS
330
633
102
}
330
633
100
AcDbXrecord
 10
0.0
 20
0.0
 30
0.0
  0
XRECORD
  5
647
102
{ACAD_REACTORS
330
633
102
}
330
633
100
AcDbXrecord
 10
0.0
 20
0.0
 30
0.0
  0
XRECORD
  5
644
102
{ACAD_REACTORS
330
633
102
}
330
633
100
AcDbXrecord
 10
0.0
 20
0.0
 30
0.0
  0
XRECORD
  5
641
102
{ACAD_REACTORS
330
633
102
}
330
633
100
AcDbXrecord
340
0
  0
XRECORD
  5
642
102
{ACAD_REACTORS
330
633
102
}
330
633
100
AcDbXrecord
 70
     0
  0
XRECORD
  5
637
102
{ACAD_REACTORS
330
633
102
}
330
633
100
AcDbXrecord
  1

  0
XRECORD
  5
634
102
{ACAD_REACTORS
330
633
102
}
330
633
100
AcDbXrecord
 90
        1
  0
XRECORD
  5
635
102
{ACAD_REACTORS
330
633
102
}
330
633
100
AcDbXrecord
 90
       70
  0
XRECORD
  5
64C
102
{ACAD_REACTORS
330
633
102
}
330
633
100
AcDbXrecord
340
0
  0
XRECORD
  5
652
102
{ACAD_REACTORS
330
633
102
}
330
633
100
AcDbXrecord
 10
0.0
 20
0.0
 30
0.0
  0
XRECORD
  5
64E
102
{ACAD_REACTORS
330
633
102
}
330
633
100
AcDbXrecord
 10
0.0
 20
0.0
 30
0.0
  0
XRECORD
  5
651
102
{ACAD_REACTORS
330
633
102
}
330
633
100
AcDbXrecord
 10
0.0
 20
0.0
 30
0.0
  0
XRECORD
  5
64F
102
{ACAD_REACTORS
330
633
102
}
330
633
100
AcDbXrecord
 10
0.0
 20
0.0
 30
0.0
  0
XRECORD
  5
650
102
{ACAD_REACTORS
330
633
102
}
330
633
100
AcDbXrecord
 10
0.0
 20
0.0
 30
0.0
  0
XRECORD
  5
64D
102
{ACAD_REACTORS
330
633
102
}
330
633
100
AcDbXrecord
 10
0.0
 20
0.0
 30
0.0
  0
XRECORD
  5
64A
102
{ACAD_REACTORS
330
633
102
}
330
633
100
AcDbXrecord
340
0
  0
XRECORD
  5
64B
102
{ACAD_REACTORS
330
633
102
}
330
633
100
AcDbXrecord
 70
     0
  0
XRECORD
  5
63F
102
{ACAD_REACTORS
330
633
102
}
330
633
100
AcDbXrecord
  1
{FAEB1C32-E019-11D5-929B-00C0DF256EC4}
  0
DICTIONARYVAR
  5
661
102
{ACAD_REACTORS
330
654
102
}
330
654
100
DictionaryVariables
280
     0
  1
1:1
  0
DICTIONARYVAR
  5
65B
102
{ACAD_REACTORS
330
654
102
}
330
654
100
DictionaryVariables
280
     0
  1
3.500000
  0
DICTIONARYVAR
  5
65C
102
{ACAD_REACTORS
330
654
102
}
330
654
100
DictionaryVariables
280
     0
  1
acadiso.lin
  0
DICTIONARYVAR
  5
656
102
{ACAD_REACTORS
330
654
102
}
330
654
100
DictionaryVariables
280
     0
  1
Standard
  0
DICTIONARYVAR
  5
655
102
{ACAD_REACTORS
330
654
102
}
330
654
100
DictionaryVariables
280
     0
  1
Standard
  0
DICTIONARYVAR
  5
65D
102
{ACAD_REACTORS
330
654
102
}
330
654
100
DictionaryVariables
280
     0
  1
2
  0
DICTIONARYVAR
  5
65E
102
{ACAD_REACTORS
330
654
102
}
330
654
100
DictionaryVariables
280
     0
  1
1
  0
DICTIONARYVAR
  5
662
102
{ACAD_REACTORS
330
654
102
}
330
654
100
DictionaryVariables
280
     0
  1
1
  0
DICTIONARYVAR
  5
658
102
{ACAD_REACTORS
330
654
102
}
330
654
100
DictionaryVariables
280
     0
  1
80.000000
  0
DICTIONARYVAR
  5
657
102
{ACAD_REACTORS
330
654
102
}
330
654
100
DictionaryVariables
280
     0
  1
5.000000
  0
DICTIONARY
  5
665
330
45
100
AcDbDictionary
280
     1
  3
ACAD_XREC_ROUNDTRIP
360
666
  0
DICTIONARY
  5
663
330
44
100
AcDbDictionary
280
     1
  3
ACAD_XREC_ROUNDTRIP
360
664
  0
DICTIONARY
  5
667
330
46
100
AcDbDictionary
280
     1
  3
ACAD_XREC_ROUNDTRIP
360
668
  0
XRECORD
  5
666
102
{ACAD_REACTORS
330
665
102
}
330
665
100
AcDbXrecord
102
MATERIAL
148
0.0
149
0.0
149
0.0
 93
        0
 94
      127
282
     0
 72
     1
 77
     1
171
     1
175
     1
179
     1
273
     0
  0
XRECORD
  5
664
102
{ACAD_REACTORS
330
663
102
}
330
663
100
AcDbXrecord
102
MATERIAL
148
0.0
149
0.0
149
0.0
 93
        0
 94
      127
282
     0
 72
     1
 77
     1
171
     1
175
     1
179
     1
273
     0
  0
XRECORD
  5
668
102
{ACAD_REACTORS
330
667
102
}
330
667
100
AcDbXrecord
102
MATERIAL
148
0.0
149
0.0
149
0.0
 93
        0
 94
      127
282
     0
 72
     1
 77
     1
171
     1
175
     1
179
     1
273
     0
  0
ENDSEC
  0
EOF
