  0
SECTION
  2
HEADER
  9
$ACADVER
  1
AC1014
  9
$ACADMAINTVER
 70
     9
  9
$DWGCODEPAGE
  3
ANSI_932
  9
$INSBASE
 10
0.0
 20
0.0
 30
0.0
  9
$EXTMIN
 10
60.0
 20
60.0
 30
0.0
  9
$EXTMAX
 10
2460.0
 20
1722.0
 30
0.0
  9
$LIMMIN
 10
0.0
 20
0.0
  9
$LIMMAX
 10
420.0
 20
297.0
  9
$ORTHOMODE
 70
     0
  9
$REGENMODE
 70
     1
  9
$FILLMODE
 70
     1
  9
$QTEXTMODE
 70
     0
  9
$MIRRTEXT
 70
     1
  9
$DRAGMODE
 70
     2
  9
$LTSCALE
 40
1.0
  9
$OSMODE
 70
    37
  9
$ATTMODE
 70
     1
  9
$TEXTSIZE
 40
2.5
  9
$TRACEWID
 40
1.0
  9
$TEXTSTYLE
  7
STANDARD
  9
$CLAYER
  8
Ｓ_１_１
  9
$CELTYPE
  6
BYLAYER
  9
$CECOLOR
 62
   256
  9
$CELTSCALE
 40
1.0
  9
$DELOBJ
 70
     1
  9
$DISPSILH
 70
     0
  9
$DIMSCALE
 40
1.0
  9
$DIMASZ
 40
2.5
  9
$DIMEXO
 40
0.625
  9
$DIMDLI
 40
3.75
  9
$DIMRND
 40
0.0
  9
$DIMDLE
 40
0.0
  9
$DIMEXE
 40
1.25
  9
$DIMTP
 40
0.0
  9
$DIMTM
 40
0.0
  9
$DIMTXT
 40
2.5
  9
$DIMCEN
 40
2.5
  9
$DIMTSZ
 40
0.0
  9
$DIMTOL
 70
     0
  9
$DIMLIM
 70
     0
  9
$DIMTIH
 70
     0
  9
$DIMTOH
 70
     0
  9
$DIMSE1
 70
     0
  9
$DIMSE2
 70
     0
  9
$DIMTAD
 70
     1
  9
$DIMZIN
 70
     8
  9
$DIMBLK
  1

  9
$DIMASO
 70
     1
  9
$DIMSHO
 70
     1
  9
$DIMPOST
  1

  9
$DIMAPOST
  1

  9
$DIMALT
 70
     0
  9
$DIMALTD
 70
     3
  9
$DIMALTF
 40
0.03937007874016
  9
$DIMLFAC
 40
1.0
  9
$DIMTOFL
 70
     1
  9
$DIMTVP
 40
0.0
  9
$DIMTIX
 70
     0
  9
$DIMSOXD
 70
     0
  9
$DIMSAH
 70
     0
  9
$DIMBLK1
  1

  9
$DIMBLK2
  1

  9
$DIMSTYLE
  2
ISO-25
  9
$DIMCLRD
 70
     0
  9
$DIMCLRE
 70
     0
  9
$DIMCLRT
 70
     0
  9
$DIMTFAC
 40
1.0
  9
$DIMGAP
 40
0.625
  9
$DIMJUST
 70
     0
  9
$DIMSD1
 70
     0
  9
$DIMSD2
 70
     0
  9
$DIMTOLJ
 70
     0
  9
$DIMTZIN
 70
     8
  9
$DIMALTZ
 70
     0
  9
$DIMALTTZ
 70
     0
  9
$DIMFIT
 70
     3
  9
$DIMUPT
 70
     0
  9
$DIMUNIT
 70
     2
  9
$DIMDEC
 70
     2
  9
$DIMTDEC
 70
     2
  9
$DIMALTU
 70
     2
  9
$DIMALTTD
 70
     3
  9
$DIMTXSTY
  7
STANDARD
  9
$DIMAUNIT
 70
     0
  9
$LUNITS
 70
     2
  9
$LUPREC
 70
     4
  9
$SKETCHINC
 40
1.0
  9
$FILLETRAD
 40
10.0
  9
$AUNITS
 70
     0
  9
$AUPREC
 70
     0
  9
$MENU
  1
.
  9
$ELEVATION
 40
0.0
  9
$PELEVATION
 40
0.0
  9
$THICKNESS
 40
0.0
  9
$LIMCHECK
 70
     0
  9
$CHAMFERA
 40
0.0
  9
$CHAMFERB
 40
0.0
  9
$CHAMFERC
 40
0.0
  9
$CHAMFERD
 40
0.0
  9
$SKPOLY
 70
     0
  9
$TDCREATE
 40
2459585.495520231
  9
$TDUPDATE
 40
2459585.495521701
  9
$TDINDWG
 40
0.0000000116
  9
$TDUSRTIMER
 40
0.0000000116
  9
$USRTIMER
 70
     1
  9
$ANGBASE
 50
0.0
  9
$ANGDIR
 70
     0
  9
$PDMODE
 70
     0
  9
$PDSIZE
 40
0.0
  9
$PLINEWID
 40
0.0
  9
$COORDS
 70
     1
  9
$SPLFRAME
 70
     0
  9
$SPLINETYPE
 70
     6
  9
$SPLINESEGS
 70
     8
  9
$ATTDIA
 70
     0
  9
$ATTREQ
 70
     1
  9
$HANDLING
 70
     1
  9
$HANDSEED
  5
61F
  9
$SURFTAB1
 70
     6
  9
$SURFTAB2
 70
     6
  9
$SURFTYPE
 70
     6
  9
$SURFU
 70
     6
  9
$SURFV
 70
     6
  9
$UCSNAME
  2

  9
$UCSORG
 10
0.0
 20
0.0
 30
0.0
  9
$UCSXDIR
 10
1.0
 20
0.0
 30
0.0
  9
$UCSYDIR
 10
0.0
 20
1.0
 30
0.0
  9
$PUCSNAME
  2

  9
$PUCSORG
 10
0.0
 20
0.0
 30
0.0
  9
$PUCSXDIR
 10
1.0
 20
0.0
 30
0.0
  9
$PUCSYDIR
 10
0.0
 20
1.0
 30
0.0
  9
$USERI1
 70
     0
  9
$USERI2
 70
     0
  9
$USERI3
 70
     0
  9
$USERI4
 70
     0
  9
$USERI5
 70
     0
  9
$USERR1
 40
0.0
  9
$USERR2
 40
0.0
  9
$USERR3
 40
0.0
  9
$USERR4
 40
0.0
  9
$USERR5
 40
0.0
  9
$WORLDVIEW
 70
     1
  9
$SHADEDGE
 70
     3
  9
$SHADEDIF
 70
    70
  9
$TILEMODE
 70
     1
  9
$MAXACTVP
 70
    64
  9
$PINSBASE
 10
0.0
 20
0.0
 30
0.0
  9
$PLIMCHECK
 70
     0
  9
$PEXTMIN
 10
1.000000000000000E+20
 20
1.000000000000000E+20
 30
1.000000000000000E+20
  9
$PEXTMAX
 10
-1.000000000000000E+20
 20
-1.000000000000000E+20
 30
-1.000000000000000E+20
  9
$PLIMMIN
 10
0.0
 20
0.0
  9
$PLIMMAX
 10
420.0
 20
297.0
  9
$UNITMODE
 70
     0
  9
$VISRETAIN
 70
     1
  9
$PLINEGEN
 70
     0
  9
$PSLTSCALE
 70
     1
  9
$TREEDEPTH
 70
  3020
  9
$PICKSTYLE
 70
     1
  9
$CMLSTYLE
  2
STANDARD
  9
$CMLJUST
 70
     0
  9
$CMLSCALE
 40
20.0
  9
$PROXYGRAPHICS
 70
     1
  9
$MEASUREMENT
 70
     1
  0
ENDSEC
  0
SECTION
  2
CLASSES
  0
CLASS
  1
ACDBDICTIONARYWDFLT
  2
AcDbDictionaryWithDefault
  3
ObjectDBX Classes
 90
        0
280
     0
281
     0
  0
CLASS
  1
VISUALSTYLE
  2
AcDbVisualStyle
  3
ObjectDBX Classes
 90
     4095
280
     0
281
     0
  0
CLASS
  1
MATERIAL
  2
AcDbMaterial
  3
ObjectDBX Classes
 90
     1153
280
     0
281
     0
  0
CLASS
  1
SCALE
  2
AcDbScale
  3
ObjectDBX Classes
 90
     1153
280
     0
281
     0
  0
CLASS
  1
TABLESTYLE
  2
AcDbTableStyle
  3
ObjectDBX Classes
 90
     4095
280
     0
281
     0
  0
CLASS
  1
MLEADERSTYLE
  2
AcDbMLeaderStyle
  3
ACDB_MLEADERSTYLE_CLASS
 90
     4095
280
     0
281
     0
  0
CLASS
  1
SUN
  2
AcDbSun
  3
SCENEOE
 90
     1153
280
     0
281
     0
  0
CLASS
  1
DICTIONARYVAR
  2
AcDbDictionaryVar
  3
ObjectDBX Classes
 90
        0
280
     0
281
     0
  0
CLASS
  1
XRECORD
  2
AcDbXrecord
  3
ObjectDBX Classes
 90
        0
280
     0
281
     0
  0
CLASS
  1
LWPOLYLINE
  2
AcDbPolyline
  3
ObjectDBX Classes
 90
        0
280
     0
281
     1
  0
CLASS
  1
HATCH
  2
AcDbHatch
  3
ObjectDBX Classes
 90
        0
280
     0
281
     1
  0
CLASS
  1
ACDBPLACEHOLDER
  2
AcDbPlaceHolder
  3
ObjectDBX Classes
 90
        0
280
     0
281
     0
  0
CLASS
  1
LAYOUT
  2
AcDbLayout
  3
ObjectDBX Classes
 90
        0
280
     0
281
     0
  0
ENDSEC
  0
SECTION
  2
TABLES
  0
TABLE
  2
VPORT
  5
8
102
{ACAD_XDICTIONARY
360
614
102
}
330
0
100
AcDbSymbolTable
 70
     1
  0
VPORT
  5
29
330
8
100
AcDbSymbolTableRecord
100
AcDbViewportTableRecord
  2
*ACTIVE
 70
     0
 10
0.0
 20
0.0
 11
1.0
 21
1.0
 12
1260.0
 22
891.0
 13
0.0
 23
0.0
 14
10.0
 24
10.0
 15
10.0
 25
10.0
 16
0.0
 26
0.0
 36
1.0
 17
0.0
 27
0.0
 37
0.0
 40
1662.0
 41
1.444043321299639
 42
50.0
 43
0.0
 44
0.0
 50
0.0
 51
0.0
 71
     0
 72
  1000
 73
     1
 74
     3
 75
     0
 76
     0
 77
     0
 78
     0
  0
ENDTAB
  0
TABLE
  2
LTYPE
  5
5
330
0
100
AcDbSymbolTable
 70
     7
  0
LTYPE
  5
14
330
5
100
AcDbSymbolTableRecord
100
AcDbLinetypeTableRecord
  2
BYBLOCK
 70
     0
  3

 72
    65
 73
     0
 40
0.0
  0
LTYPE
  5
15
330
5
100
AcDbSymbolTableRecord
100
AcDbLinetypeTableRecord
  2
BYLAYER
 70
     0
  3

 72
    65
 73
     0
 40
0.0
  0
LTYPE
  5
16
330
5
100
AcDbSymbolTableRecord
100
AcDbLinetypeTableRecord
  2
CONTINUOUS
 70
     0
  3
Solid line
 72
    65
 73
     0
 40
0.0
  0
LTYPE
  5
6E
330
5
100
AcDbSymbolTableRecord
100
AcDbLinetypeTableRecord
  2
EXLTYPE0
 70
     0
  3
破線
 72
    65
 73
     2
 40
4.0
 49
3.0
 74
     0
 49
-1.0
 74
     0
  0
LTYPE
  5
6F
330
5
100
AcDbSymbolTableRecord
100
AcDbLinetypeTableRecord
  2
EXLTYPE1
 70
     0
  3
点線
 72
    65
 73
     2
 40
2.0
 49
1.0
 74
     0
 49
-1.0
 74
     0
  0
LTYPE
  5
70
330
5
100
AcDbSymbolTableRecord
100
AcDbLinetypeTableRecord
  2
EXLTYPE2
 70
     0
  3
一点鎖線
 72
    65
 73
     4
 40
13.0
 49
10.0
 74
     0
 49
-1.0
 74
     0
 49
1.0
 74
     0
 49
-1.0
 74
     0
  0
LTYPE
  5
71
330
5
100
AcDbSymbolTableRecord
100
AcDbLinetypeTableRecord
  2
EXLTYPE3
 70
     0
  3
二点鎖線
 72
    65
 73
     6
 40
15.0
 49
10.0
 74
     0
 49
-1.0
 74
     0
 49
1.0
 74
     0
 49
-1.0
 74
     0
 49
1.0
 74
     0
 49
-1.0
 74
     0
  0
LTYPE
  5
72
330
5
100
AcDbSymbolTableRecord
100
AcDbLinetypeTableRecord
  2
EXLTYPE4
 70
     0
  3
一点鎖線2
 72
    65
 73
     4
 40
3.5
 49
2.0
 74
     0
 49
-0.5
 74
     0
 49
0.5
 74
     0
 49
-0.5
 74
     0
  0
LTYPE
  5
73
330
5
100
AcDbSymbolTableRecord
100
AcDbLinetypeTableRecord
  2
EXLTYPE5
 70
     0
  3
二点鎖線2
 72
    65
 73
     6
 40
4.5
 49
2.0
 74
     0
 49
-0.5
 74
     0
 49
0.5
 74
     0
 49
-0.5
 74
     0
 49
0.5
 74
     0
 49
-0.5
 74
     0
  0
ENDTAB
  0
TABLE
  2
LAYER
  5
2
330
0
100
AcDbSymbolTable
 70
     4
  0
LAYER
  5
10
330
2
100
AcDbSymbolTableRecord
100
AcDbLayerTableRecord
  2
0
 70
     0
 62
     7
  6
CONTINUOUS
  0
LAYER
  5
76
330
2
100
AcDbSymbolTableRecord
100
AcDbLayerTableRecord
  2
図面枠
 70
     4
 62
     7
  6
CONTINUOUS
  0
LAYER
  5
77
330
2
100
AcDbSymbolTableRecord
100
AcDbLayerTableRecord
  2
Ｓ_１_１
 70
     0
 62
     7
  6
CONTINUOUS
  0
LAYER
  5
115
330
2
100
AcDbSymbolTableRecord
100
AcDbLayerTableRecord
  2
DEFPOINTS
 70
     0
 62
     7
  6
CONTINUOUS
  0
ENDTAB
  0
TABLE
  2
STYLE
  5
3
330
0
100
AcDbSymbolTable
 70
     5
  0
STYLE
  5
11
330
3
100
AcDbSymbolTableRecord
100
AcDbTextStyleTableRecord
  2
STANDARD
 70
     0
 40
0.0
 41
1.0
 50
0.0
 71
     0
 42
2.5
  3
monotxt
  4
extfont
  0
STYLE
  5
74
330
3
100
AcDbSymbolTableRecord
100
AcDbTextStyleTableRecord
  2
EXCADSTD
 70
     0
 40
0.0
 41
1.0
 50
0.0
 71
     0
 42
2.5
  3
monotxt
  4
extfont
  0
STYLE
  5
75
330
3
100
AcDbSymbolTableRecord
100
AcDbTextStyleTableRecord
  2
EXCADVERT
 70
     4
 40
0.0
 41
1.0
 50
0.0
 71
     0
 42
2.5
  3
monotxt
  4
extfont
  0
STYLE
  5
DC
330
3
100
AcDbSymbolTableRecord
100
AcDbTextStyleTableRecord
  2
EXCADTTF1
 70
     0
 40
0.0
 41
1.0
 50
0.0
 71
     0
 42
2.5
  3
msgothic.ttc
  4

1001
ACAD
1000
MS Gothic
1071
    32817
  0
STYLE
  5
113
330
3
100
AcDbSymbolTableRecord
100
AcDbTextStyleTableRecord
  2
EXCADDIM1
 70
     0
 40
0.0
 41
1.0
 50
0.0
 71
     0
 42
2.5
  3
msgothic.ttc
  4

1001
ACAD
1000
MS Gothic
1071
    32817
  0
ENDTAB
  0
TABLE
  2
VIEW
  5
6
330
0
100
AcDbSymbolTable
 70
     0
  0
ENDTAB
  0
TABLE
  2
UCS
  5
7
330
0
100
AcDbSymbolTable
 70
     0
  0
ENDTAB
  0
TABLE
  2
APPID
  5
9
330
0
100
AcDbSymbolTable
 70
     2
  0
APPID
  5
12
330
9
100
AcDbSymbolTableRecord
100
AcDbRegAppTableRecord
  2
ACAD
 70
     0
  0
APPID
  5
61E
330
9
100
AcDbSymbolTableRecord
100
AcDbRegAppTableRecord
  2
ACAD_MLEADERVER
 70
     0
  0
ENDTAB
  0
TABLE
  2
DIMSTYLE
  5
A
330
0
100
AcDbSymbolTable
 70
     1
  0
DIMSTYLE
105
27
102
{ACAD_REACTORS
330
114
330
120
330
12E
330
13B
330
148
330
155
330
161
330
16E
330
179
330
189
330
196
330
1A5
330
4CE
330
4DB
330
4E8
330
4F5
330
503
102
}
330
A
100
AcDbSymbolTableRecord
100
AcDbDimStyleTableRecord
  2
ISO-25
 70
     0
  3

  4

  5

  6

  7

 40
1.0
 41
2.5
 42
0.625
 43
3.75
 44
1.25
 45
0.0
 46
0.0
 47
0.0
 48
0.0
140
2.5
141
2.5
142
0.0
143
0.03937007874016
144
1.0
145
0.0
146
1.0
147
0.625
 71
     0
 72
     0
 73
     0
 74
     0
 75
     0
 76
     0
 77
     1
 78
     8
170
     0
171
     3
172
     1
173
     0
174
     0
175
     0
176
     0
177
     0
178
     0
270
     2
271
     2
272
     2
273
     2
274
     3
340
11
275
     0
280
     0
281
     0
282
     0
283
     0
284
     8
285
     0
286
     0
287
     5
288
     0
  0
ENDTAB
  0
TABLE
  2
BLOCK_RECORD
  5
1
330
0
100
AcDbSymbolTable
 70
    31
  0
BLOCK_RECORD
  5
1F
330
1
100
AcDbSymbolTableRecord
100
AcDbBlockTableRecord
  2
*MODEL_SPACE
  0
BLOCK_RECORD
  5
1B
330
1
100
AcDbSymbolTableRecord
100
AcDbBlockTableRecord
  2
*PAPER_SPACE
  0
BLOCK_RECORD
  5
78
330
1
100
AcDbSymbolTableRecord
100
AcDbBlockTableRecord
  2
EX_NORM
  0
BLOCK_RECORD
  5
7B
330
1
100
AcDbSymbolTableRecord
100
AcDbBlockTableRecord
  2
EX_BNORM
  0
BLOCK_RECORD
  5
7E
330
1
100
AcDbSymbolTableRecord
100
AcDbBlockTableRecord
  2
EX_BCIR
  0
BLOCK_RECORD
  5
81
330
1
100
AcDbSymbolTableRecord
100
AcDbBlockTableRecord
  2
EX_RCIVIL
  0
BLOCK_RECORD
  5
84
330
1
100
AcDbSymbolTableRecord
100
AcDbBlockTableRecord
  2
EX_SLANT
  0
BLOCK_RECORD
  5
87
330
1
100
AcDbSymbolTableRecord
100
AcDbBlockTableRecord
  2
EX_NONE
  0
BLOCK_RECORD
  5
8A
330
1
100
AcDbSymbolTableRecord
100
AcDbBlockTableRecord
  2
EX_CIVIL
  0
BLOCK_RECORD
  5
8D
330
1
100
AcDbSymbolTableRecord
100
AcDbBlockTableRecord
  2
EX_WCIR
  0
BLOCK_RECORD
  5
90
330
1
100
AcDbSymbolTableRecord
100
AcDbBlockTableRecord
  2
EX_WCIR2
  0
BLOCK_RECORD
  5
93
330
1
100
AcDbSymbolTableRecord
100
AcDbBlockTableRecord
  2
EX_WNORM
  0
BLOCK_RECORD
  5
96
330
1
100
AcDbSymbolTableRecord
100
AcDbBlockTableRecord
  2
EX_NNORM
  0
BLOCK_RECORD
  5
99
330
1
100
AcDbSymbolTableRecord
100
AcDbBlockTableRecord
  2
EX_BBOX
  0
BLOCK_RECORD
  5
9C
330
1
100
AcDbSymbolTableRecord
100
AcDbBlockTableRecord
  2
EX_WBOX
  0
BLOCK_RECORD
  5
9F
330
1
100
AcDbSymbolTableRecord
100
AcDbBlockTableRecord
  2
EX_INTEGRAL
  0
BLOCK_RECORD
  5
116
330
1
100
AcDbSymbolTableRecord
100
AcDbBlockTableRecord
  2
*D15
  0
BLOCK_RECORD
  5
121
330
1
100
AcDbSymbolTableRecord
100
AcDbBlockTableRecord
  2
*D16
  0
BLOCK_RECORD
  5
12F
330
1
100
AcDbSymbolTableRecord
100
AcDbBlockTableRecord
  2
*D17
  0
BLOCK_RECORD
  5
13C
330
1
100
AcDbSymbolTableRecord
100
AcDbBlockTableRecord
  2
*D18
  0
BLOCK_RECORD
  5
149
330
1
100
AcDbSymbolTableRecord
100
AcDbBlockTableRecord
  2
*D19
  0
BLOCK_RECORD
  5
156
330
1
100
AcDbSymbolTableRecord
100
AcDbBlockTableRecord
  2
*D20
  0
BLOCK_RECORD
  5
162
330
1
100
AcDbSymbolTableRecord
100
AcDbBlockTableRecord
  2
*D21
  0
BLOCK_RECORD
  5
16F
330
1
100
AcDbSymbolTableRecord
100
AcDbBlockTableRecord
  2
*D22
  0
BLOCK_RECORD
  5
17A
330
1
100
AcDbSymbolTableRecord
100
AcDbBlockTableRecord
  2
*D23
  0
BLOCK_RECORD
  5
18A
330
1
100
AcDbSymbolTableRecord
100
AcDbBlockTableRecord
  2
*D24
  0
BLOCK_RECORD
  5
197
330
1
100
AcDbSymbolTableRecord
100
AcDbBlockTableRecord
  2
*D25
  0
BLOCK_RECORD
  5
1A6
330
1
100
AcDbSymbolTableRecord
100
AcDbBlockTableRecord
  2
*D26
  0
BLOCK_RECORD
  5
4CF
330
1
100
AcDbSymbolTableRecord
100
AcDbBlockTableRecord
  2
*D27
  0
BLOCK_RECORD
  5
4DC
330
1
100
AcDbSymbolTableRecord
100
AcDbBlockTableRecord
  2
*D28
  0
BLOCK_RECORD
  5
4E9
330
1
100
AcDbSymbolTableRecord
100
AcDbBlockTableRecord
  2
*D29
  0
BLOCK_RECORD
  5
4F6
330
1
100
AcDbSymbolTableRecord
100
AcDbBlockTableRecord
  2
*D30
  0
BLOCK_RECORD
  5
504
330
1
100
AcDbSymbolTableRecord
100
AcDbBlockTableRecord
  2
*D31
  0
ENDTAB
  0
ENDSEC
  0
SECTION
  2
BLOCKS
  0
BLOCK
  5
20
330
1F
100
AcDbEntity
  8
0
100
AcDbBlockBegin
  2
*MODEL_SPACE
 70
     0
 10
0.0
 20
0.0
 30
0.0
  3
*MODEL_SPACE
  1

  0
ENDBLK
  5
21
330
1F
100
AcDbEntity
  8
0
100
AcDbBlockEnd
  0
BLOCK
  5
1C
330
1B
100
AcDbEntity
 67
     1
  8
0
100
AcDbBlockBegin
  2
*PAPER_SPACE
 70
     0
 10
0.0
 20
0.0
 30
0.0
  3
*PAPER_SPACE
  1

  0
ENDBLK
  5
1D
330
1B
100
AcDbEntity
 67
     1
  8
0
100
AcDbBlockEnd
  0
BLOCK
  5
79
330
78
100
AcDbEntity
  8
0
100
AcDbBlockBegin
  2
EX_NORM
 70
     0
 10
0.0
 20
0.0
 30
0.0
  3
EX_NORM
  1

  0
LINE
  5
A2
330
78
100
AcDbEntity
  8
0
  6
CONTINUOUS
 62
     0
100
AcDbLine
 10
0.0
 20
0.0
 30
0.0
 11
-1.0
 21
0.0
 31
0.0
  0
LINE
  5
A3
330
78
100
AcDbEntity
  8
0
  6
CONTINUOUS
 62
     0
100
AcDbLine
 10
0.0
 20
0.0
 30
0.0
 11
-1.0
 21
0.166666667
 31
0.0
  0
LINE
  5
A4
330
78
100
AcDbEntity
  8
0
  6
CONTINUOUS
 62
     0
100
AcDbLine
 10
0.0
 20
0.0
 30
0.0
 11
-1.0
 21
-0.166666667
 31
0.0
  0
ENDBLK
  5
7A
330
78
100
AcDbEntity
  8
0
100
AcDbBlockEnd
  0
BLOCK
  5
7C
330
7B
100
AcDbEntity
  8
0
100
AcDbBlockBegin
  2
EX_BNORM
 70
     0
 10
0.0
 20
0.0
 30
0.0
  3
EX_BNORM
  1

  0
LINE
  5
A5
330
7B
100
AcDbEntity
  8
0
  6
CONTINUOUS
 62
     0
100
AcDbLine
 10
0.0
 20
0.0
 30
0.0
 11
-1.0
 21
0.0
 31
0.0
  0
LINE
  5
A6
330
7B
100
AcDbEntity
  8
0
  6
CONTINUOUS
 62
     0
100
AcDbLine
 10
0.0
 20
0.0
 30
0.0
 11
-1.0
 21
0.166666667
 31
0.0
  0
LINE
  5
A7
330
7B
100
AcDbEntity
  8
0
  6
CONTINUOUS
 62
     0
100
AcDbLine
 10
0.0
 20
0.0
 30
0.0
 11
-1.0
 21
-0.166666667
 31
0.0
  0
LINE
  5
A8
330
7B
100
AcDbEntity
  8
0
  6
CONTINUOUS
 62
     0
100
AcDbLine
 10
0.0
 20
0.0
 30
0.0
 11
-1.0
 21
0.083333333
 31
0.0
  0
LINE
  5
A9
330
7B
100
AcDbEntity
  8
0
  6
CONTINUOUS
 62
     0
100
AcDbLine
 10
0.0
 20
0.0
 30
0.0
 11
-1.0
 21
-0.083333333
 31
0.0
  0
LINE
  5
AA
330
7B
100
AcDbEntity
  8
0
  6
CONTINUOUS
 62
     0
100
AcDbLine
 10
-1.0
 20
0.166666667
 30
0.0
 11
-1.0
 21
-0.166666667
 31
0.0
  0
ENDBLK
  5
7D
330
7B
100
AcDbEntity
  8
0
100
AcDbBlockEnd
  0
BLOCK
  5
7F
330
7E
100
AcDbEntity
  8
0
100
AcDbBlockBegin
  2
EX_BCIR
 70
     0
 10
0.0
 20
0.0
 30
0.0
  3
EX_BCIR
  1

  0
LINE
  5
AB
330
7E
100
AcDbEntity
  8
0
  6
CONTINUOUS
 62
     0
100
AcDbLine
 10
0.0
 20
0.0
 30
0.0
 11
-1.0
 21
0.0
 31
0.0
  0
CIRCLE
  5
AC
330
7E
100
AcDbEntity
  8
0
  6
CONTINUOUS
 62
     0
100
AcDbCircle
 10
0.0
 20
0.0
 30
0.0
 40
0.5
  0
CIRCLE
  5
AD
330
7E
100
AcDbEntity
  8
0
  6
CONTINUOUS
 62
     0
100
AcDbCircle
 10
0.0
 20
0.0
 30
0.0
 40
0.25
  0
ENDBLK
  5
80
330
7E
100
AcDbEntity
  8
0
100
AcDbBlockEnd
  0
BLOCK
  5
82
330
81
100
AcDbEntity
  8
0
100
AcDbBlockBegin
  2
EX_RCIVIL
 70
     0
 10
0.0
 20
0.0
 30
0.0
  3
EX_RCIVIL
  1

  0
LINE
  5
AE
330
81
100
AcDbEntity
  8
0
  6
CONTINUOUS
 62
     0
100
AcDbLine
 10
0.0
 20
0.0
 30
0.0
 11
-1.0
 21
0.0
 31
0.0
  0
LINE
  5
AF
330
81
100
AcDbEntity
  8
0
  6
CONTINUOUS
 62
     0
100
AcDbLine
 10
-1.0
 20
-0.25
 30
0.0
 11
0.0
 21
-0.25
 31
0.0
  0
LINE
  5
B0
330
81
100
AcDbEntity
  8
0
  6
CONTINUOUS
 62
     0
100
AcDbLine
 10
-1.0
 20
-0.125
 30
0.0
 11
0.0
 21
-0.125
 31
0.0
  0
ENDBLK
  5
83
330
81
100
AcDbEntity
  8
0
100
AcDbBlockEnd
  0
BLOCK
  5
85
330
84
100
AcDbEntity
  8
0
100
AcDbBlockBegin
  2
EX_SLANT
 70
     0
 10
0.0
 20
0.0
 30
0.0
  3
EX_SLANT
  1

  0
LINE
  5
B1
330
84
100
AcDbEntity
  8
0
  6
CONTINUOUS
 62
     0
100
AcDbLine
 10
0.0
 20
0.0
 30
0.0
 11
-1.0
 21
0.0
 31
0.0
  0
LINE
  5
B2
330
84
100
AcDbEntity
  8
0
  6
CONTINUOUS
 62
     0
100
AcDbLine
 10
0.707106781
 20
0.707106781
 30
0.0
 11
-0.707106781
 21
-0.707106781
 31
0.0
  0
ENDBLK
  5
86
330
84
100
AcDbEntity
  8
0
100
AcDbBlockEnd
  0
BLOCK
  5
88
330
87
100
AcDbEntity
  8
0
100
AcDbBlockBegin
  2
EX_NONE
 70
     0
 10
0.0
 20
0.0
 30
0.0
  3
EX_NONE
  1

  0
LINE
  5
B3
330
87
100
AcDbEntity
  8
0
  6
CONTINUOUS
 62
     0
100
AcDbLine
 10
0.0
 20
0.0
 30
0.0
 11
-1.0
 21
0.0
 31
0.0
  0
ENDBLK
  5
89
330
87
100
AcDbEntity
  8
0
100
AcDbBlockEnd
  0
BLOCK
  5
8B
330
8A
100
AcDbEntity
  8
0
100
AcDbBlockBegin
  2
EX_CIVIL
 70
     0
 10
0.0
 20
0.0
 30
0.0
  3
EX_CIVIL
  1

  0
LINE
  5
B4
330
8A
100
AcDbEntity
  8
0
  6
CONTINUOUS
 62
     0
100
AcDbLine
 10
0.0
 20
0.0
 30
0.0
 11
-1.0
 21
0.0
 31
0.0
  0
LINE
  5
B5
330
8A
100
AcDbEntity
  8
0
  6
CONTINUOUS
 62
     0
100
AcDbLine
 10
-1.0
 20
0.25
 30
0.0
 11
0.0
 21
0.25
 31
0.0
  0
LINE
  5
B6
330
8A
100
AcDbEntity
  8
0
  6
CONTINUOUS
 62
     0
100
AcDbLine
 10
-1.0
 20
0.125
 30
0.0
 11
0.0
 21
0.125
 31
0.0
  0
ENDBLK
  5
8C
330
8A
100
AcDbEntity
  8
0
100
AcDbBlockEnd
  0
BLOCK
  5
8E
330
8D
100
AcDbEntity
  8
0
100
AcDbBlockBegin
  2
EX_WCIR
 70
     0
 10
0.0
 20
0.0
 30
0.0
  3
EX_WCIR
  1

  0
LINE
  5
B7
330
8D
100
AcDbEntity
  8
0
  6
CONTINUOUS
 62
     0
100
AcDbLine
 10
0.0
 20
0.0
 30
0.0
 11
-1.0
 21
0.0
 31
0.0
  0
CIRCLE
  5
B8
330
8D
100
AcDbEntity
  8
0
  6
CONTINUOUS
 62
     0
100
AcDbCircle
 10
0.0
 20
0.0
 30
0.0
 40
0.5
  0
ENDBLK
  5
8F
330
8D
100
AcDbEntity
  8
0
100
AcDbBlockEnd
  0
BLOCK
  5
91
330
90
100
AcDbEntity
  8
0
100
AcDbBlockBegin
  2
EX_WCIR2
 70
     0
 10
0.0
 20
0.0
 30
0.0
  3
EX_WCIR2
  1

  0
LINE
  5
B9
330
90
100
AcDbEntity
  8
0
  6
CONTINUOUS
 62
     0
100
AcDbLine
 10
-0.5
 20
0.0
 30
0.0
 11
-1.0
 21
0.0
 31
0.0
  0
CIRCLE
  5
BA
330
90
100
AcDbEntity
  8
0
  6
CONTINUOUS
 62
     0
100
AcDbCircle
 10
0.0
 20
0.0
 30
0.0
 40
0.5
  0
ENDBLK
  5
92
330
90
100
AcDbEntity
  8
0
100
AcDbBlockEnd
  0
BLOCK
  5
94
330
93
100
AcDbEntity
  8
0
100
AcDbBlockBegin
  2
EX_WNORM
 70
     0
 10
0.0
 20
0.0
 30
0.0
  3
EX_WNORM
  1

  0
LINE
  5
BB
330
93
100
AcDbEntity
  8
0
  6
CONTINUOUS
 62
     0
100
AcDbLine
 10
-1.0
 20
0.0
 30
0.0
 11
-1.0
 21
0.0
 31
0.0
  0
LINE
  5
BC
330
93
100
AcDbEntity
  8
0
  6
CONTINUOUS
 62
     0
100
AcDbLine
 10
0.0
 20
0.0
 30
0.0
 11
-1.0
 21
0.166666667
 31
0.0
  0
LINE
  5
BD
330
93
100
AcDbEntity
  8
0
  6
CONTINUOUS
 62
     0
100
AcDbLine
 10
0.0
 20
0.0
 30
0.0
 11
-1.0
 21
-0.166666667
 31
0.0
  0
LINE
  5
BE
330
93
100
AcDbEntity
  8
0
  6
CONTINUOUS
 62
     0
100
AcDbLine
 10
-1.0
 20
0.166666667
 30
0.0
 11
-1.0
 21
-0.166666667
 31
0.0
  0
ENDBLK
  5
95
330
93
100
AcDbEntity
  8
0
100
AcDbBlockEnd
  0
BLOCK
  5
97
330
96
100
AcDbEntity
  8
0
100
AcDbBlockBegin
  2
EX_NNORM
 70
     0
 10
0.0
 20
0.0
 30
0.0
  3
EX_NNORM
  1

  0
LINE
  5
BF
330
96
100
AcDbEntity
  8
0
  6
CONTINUOUS
 62
     0
100
AcDbLine
 10
0.0
 20
0.0
 30
0.0
 11
-1.0
 21
0.0
 31
0.0
  0
LINE
  5
C0
330
96
100
AcDbEntity
  8
0
  6
CONTINUOUS
 62
     0
100
AcDbLine
 10
0.0
 20
0.0
 30
0.0
 11
-1.0
 21
0.166666667
 31
0.0
  0
LINE
  5
C1
330
96
100
AcDbEntity
  8
0
  6
CONTINUOUS
 62
     0
100
AcDbLine
 10
0.0
 20
0.0
 30
0.0
 11
-1.0
 21
-0.166666667
 31
0.0
  0
LINE
  5
C2
330
96
100
AcDbEntity
  8
0
  6
CONTINUOUS
 62
     0
100
AcDbLine
 10
-1.0
 20
0.166666667
 30
0.0
 11
-1.0
 21
-0.166666667
 31
0.0
  0
ENDBLK
  5
98
330
96
100
AcDbEntity
  8
0
100
AcDbBlockEnd
  0
BLOCK
  5
9A
330
99
100
AcDbEntity
  8
0
100
AcDbBlockBegin
  2
EX_BBOX
 70
     0
 10
0.0
 20
0.0
 30
0.0
  3
EX_BBOX
  1

  0
LINE
  5
C3
330
99
100
AcDbEntity
  8
0
  6
CONTINUOUS
 62
     0
100
AcDbLine
 10
0.0
 20
0.0
 30
0.0
 11
-1.0
 21
0.0
 31
0.0
  0
LINE
  5
C4
330
99
100
AcDbEntity
  8
0
  6
CONTINUOUS
 62
     0
100
AcDbLine
 10
-0.5
 20
0.5
 30
0.0
 11
0.5
 21
0.5
 31
0.0
  0
LINE
  5
C5
330
99
100
AcDbEntity
  8
0
  6
CONTINUOUS
 62
     0
100
AcDbLine
 10
0.5
 20
0.5
 30
0.0
 11
0.5
 21
-0.5
 31
0.0
  0
LINE
  5
C6
330
99
100
AcDbEntity
  8
0
  6
CONTINUOUS
 62
     0
100
AcDbLine
 10
0.5
 20
-0.5
 30
0.0
 11
-0.5
 21
-0.5
 31
0.0
  0
LINE
  5
C7
330
99
100
AcDbEntity
  8
0
  6
CONTINUOUS
 62
     0
100
AcDbLine
 10
-0.5
 20
-0.5
 30
0.0
 11
-0.5
 21
0.5
 31
0.0
  0
LINE
  5
C8
330
99
100
AcDbEntity
  8
0
  6
CONTINUOUS
 62
     0
100
AcDbLine
 10
-0.25
 20
0.25
 30
0.0
 11
0.25
 21
0.25
 31
0.0
  0
LINE
  5
C9
330
99
100
AcDbEntity
  8
0
  6
CONTINUOUS
 62
     0
100
AcDbLine
 10
0.25
 20
0.25
 30
0.0
 11
0.25
 21
-0.25
 31
0.0
  0
LINE
  5
CA
330
99
100
AcDbEntity
  8
0
  6
CONTINUOUS
 62
     0
100
AcDbLine
 10
0.25
 20
-0.25
 30
0.0
 11
-0.25
 21
-0.25
 31
0.0
  0
LINE
  5
CB
330
99
100
AcDbEntity
  8
0
  6
CONTINUOUS
 62
     0
100
AcDbLine
 10
-0.25
 20
-0.25
 30
0.0
 11
-0.25
 21
0.25
 31
0.0
  0
ENDBLK
  5
9B
330
99
100
AcDbEntity
  8
0
100
AcDbBlockEnd
  0
BLOCK
  5
9D
330
9C
100
AcDbEntity
  8
0
100
AcDbBlockBegin
  2
EX_WBOX
 70
     0
 10
0.0
 20
0.0
 30
0.0
  3
EX_WBOX
  1

  0
LINE
  5
CC
330
9C
100
AcDbEntity
  8
0
  6
CONTINUOUS
 62
     0
100
AcDbLine
 10
-0.5
 20
0.0
 30
0.0
 11
-1.0
 21
0.0
 31
0.0
  0
LINE
  5
CD
330
9C
100
AcDbEntity
  8
0
  6
CONTINUOUS
 62
     0
100
AcDbLine
 10
-0.5
 20
0.5
 30
0.0
 11
0.5
 21
0.5
 31
0.0
  0
LINE
  5
CE
330
9C
100
AcDbEntity
  8
0
  6
CONTINUOUS
 62
     0
100
AcDbLine
 10
0.5
 20
0.5
 30
0.0
 11
0.5
 21
-0.5
 31
0.0
  0
LINE
  5
CF
330
9C
100
AcDbEntity
  8
0
  6
CONTINUOUS
 62
     0
100
AcDbLine
 10
0.5
 20
-0.5
 30
0.0
 11
-0.5
 21
-0.5
 31
0.0
  0
LINE
  5
D0
330
9C
100
AcDbEntity
  8
0
  6
CONTINUOUS
 62
     0
100
AcDbLine
 10
-0.5
 20
-0.5
 30
0.0
 11
-0.5
 21
0.5
 31
0.0
  0
ENDBLK
  5
9E
330
9C
100
AcDbEntity
  8
0
100
AcDbBlockEnd
  0
BLOCK
  5
A0
330
9F
100
AcDbEntity
  8
0
100
AcDbBlockBegin
  2
EX_INTEGRAL
 70
     0
 10
0.0
 20
0.0
 30
0.0
  3
EX_INTEGRAL
  1

  0
LINE
  5
D1
330
9F
100
AcDbEntity
  8
0
  6
CONTINUOUS
 62
     0
100
AcDbLine
 10
0.0
 20
0.0
 30
0.0
 11
-1.0
 21
0.0
 31
0.0
  0
ARC
  5
D2
330
9F
100
AcDbEntity
  8
0
  6
CONTINUOUS
 62
     0
100
AcDbCircle
 10
0.542115
 20
0.164992
 30
0.0
 40
0.56667
100
AcDbArc
 50
73.07249033629006
 51
196.9275130221199
  0
ARC
  5
D3
330
9F
100
AcDbEntity
  8
0
  6
CONTINUOUS
 62
     0
100
AcDbCircle
 10
-0.542115
 20
-0.164992
 30
0.0
 40
0.56667
100
AcDbArc
 50
253.0724869220464
 51
16.9275130559125
  0
ENDBLK
  5
A1
330
9F
100
AcDbEntity
  8
0
100
AcDbBlockEnd
  0
BLOCK
  5
117
330
116
100
AcDbEntity
  8
0
100
AcDbBlockBegin
  2
*D15
 70
     1
 10
0.0
 20
0.0
 30
0.0
  3
*D15
  1

  0
LINE
  5
119
330
116
100
AcDbEntity
  8
Ｓ_１_１
  6
CONTINUOUS
 62
     2
100
AcDbLine
 10
1622.0
 20
479.9999999999999
 30
0.0
 11
1068.000008
 21
479.9999999999999
 31
0.0
  0
INSERT
  5
11A
330
116
100
AcDbEntity
  8
Ｓ_１_１
 62
     2
100
AcDbBlockReference
  2
EX_NORM
 10
1640.0
 20
479.9999999999999
 30
0.0
 41
18.0
 42
18.0
 43
18.0
  0
INSERT
  5
11B
330
116
100
AcDbEntity
  8
Ｓ_１_１
 62
     2
100
AcDbBlockReference
  2
EX_NORM
 10
1050.000008
 20
479.9999999999999
 30
0.0
 41
18.0
 42
18.0
 43
18.0
 50
180.0
  0
MTEXT
  5
11C
330
116
100
AcDbEntity
  8
Ｓ_１_１
 62
     2
100
AcDbMText
 10
1345.000004
 20
496.4999999999999
 30
0.0
 40
20.77742494226328
 41
0.0
 71
     5
 72
     1
  1
590
  7
EXCADDIM1
  0
POINT
  5
11D
330
116
100
AcDbEntity
  8
DEFPOINTS
 62
     0
100
AcDbPoint
 10
1640.0
 20
625.00008300004
 30
0.0
  0
POINT
  5
11E
330
116
100
AcDbEntity
  8
DEFPOINTS
 62
     0
100
AcDbPoint
 10
1050.000008
 20
625.00006200001
 30
0.0
  0
POINT
  5
11F
330
116
100
AcDbEntity
  8
DEFPOINTS
 62
     0
100
AcDbPoint
 10
1050.000008
 20
479.9999999999999
 30
0.0
  0
ENDBLK
  5
118
330
116
100
AcDbEntity
  8
0
100
AcDbBlockEnd
  0
BLOCK
  5
122
330
121
100
AcDbEntity
  8
0
100
AcDbBlockBegin
  2
*D16
 70
     1
 10
0.0
 20
0.0
 30
0.0
  3
*D16
  1

  0
LINE
  5
124
330
121
100
AcDbEntity
  8
Ｓ_１_１
  6
CONTINUOUS
 62
     2
100
AcDbLine
 10
1050.000008
 20
616.00006200001
 30
0.0
 11
1050.000008
 21
473.9999999999999
 31
0.0
  0
LINE
  5
125
330
121
100
AcDbEntity
  8
Ｓ_１_１
  6
CONTINUOUS
 62
     2
100
AcDbLine
 10
1050.000008
 20
479.9999999999999
 30
0.0
 11
1035.000008
 21
479.9999999999999
 31
0.0
  0
LINE
  5
126
330
121
100
AcDbEntity
  8
Ｓ_１_１
  6
CONTINUOUS
 62
     2
100
AcDbLine
 10
1068.000008
 20
479.9999999999999
 30
0.0
 11
1086.000008
 21
479.9999999999999
 31
0.0
  0
LINE
  5
127
330
121
100
AcDbEntity
  8
Ｓ_１_１
  6
CONTINUOUS
 62
     2
100
AcDbLine
 10
1017.000008
 20
479.9999999999999
 30
0.0
 11
999.000008
 21
479.9999999999999
 31
0.0
  0
INSERT
  5
128
330
121
100
AcDbEntity
  8
Ｓ_１_１
 62
     2
100
AcDbBlockReference
  2
EX_NORM
 10
1050.000008
 20
479.9999999999999
 30
0.0
 41
18.0
 42
18.0
 43
18.0
 50
180.0
  0
INSERT
  5
129
330
121
100
AcDbEntity
  8
Ｓ_１_１
 62
     2
100
AcDbBlockReference
  2
EX_NORM
 10
1035.000008
 20
479.9999999999999
 30
0.0
 41
18.0
 42
18.0
 43
18.0
  0
MTEXT
  5
12A
330
121
100
AcDbEntity
  8
Ｓ_１_１
 62
     2
100
AcDbMText
 10
1003.500008
 20
496.4999999999998
 30
0.0
 40
20.77742494226328
 41
0.0
 71
     5
 72
     1
  1
15
  7
EXCADDIM1
  0
POINT
  5
12B
330
121
100
AcDbEntity
  8
DEFPOINTS
 62
     0
100
AcDbPoint
 10
1050.000008
 20
625.00006200001
 30
0.0
  0
POINT
  5
12C
330
121
100
AcDbEntity
  8
DEFPOINTS
 62
     0
100
AcDbPoint
 10
1035.000008
 20
682.88676881496
 30
0.0
  0
POINT
  5
12D
330
121
100
AcDbEntity
  8
DEFPOINTS
 62
     0
100
AcDbPoint
 10
1035.000008
 20
479.9999999999999
 30
0.0
  0
ENDBLK
  5
123
330
121
100
AcDbEntity
  8
0
100
AcDbBlockEnd
  0
BLOCK
  5
130
330
12F
100
AcDbEntity
  8
0
100
AcDbBlockBegin
  2
*D17
 70
     1
 10
0.0
 20
0.0
 30
0.0
  3
*D17
  1

  0
LINE
  5
132
330
12F
100
AcDbEntity
  8
Ｓ_１_１
  6
CONTINUOUS
 62
     2
100
AcDbLine
 10
1035.000008
 20
673.88676881496
 30
0.0
 11
1035.000008
 21
434.0
 31
0.0
  0
LINE
  5
133
330
12F
100
AcDbEntity
  8
Ｓ_１_１
  6
CONTINUOUS
 62
     2
100
AcDbLine
 10
1640.0
 20
616.00008300004
 30
0.0
 11
1640.0
 21
434.0
 31
0.0
  0
LINE
  5
134
330
12F
100
AcDbEntity
  8
Ｓ_１_１
  6
CONTINUOUS
 62
     2
100
AcDbLine
 10
1053.000008
 20
440.0
 30
0.0
 11
1622.0
 21
440.0
 31
0.0
  0
INSERT
  5
135
330
12F
100
AcDbEntity
  8
Ｓ_１_１
 62
     2
100
AcDbBlockReference
  2
EX_NORM
 10
1035.000008
 20
440.0
 30
0.0
 41
18.0
 42
18.0
 43
18.0
 50
180.0
  0
INSERT
  5
136
330
12F
100
AcDbEntity
  8
Ｓ_１_１
 62
     2
100
AcDbBlockReference
  2
EX_NORM
 10
1640.0
 20
440.0
 30
0.0
 41
18.0
 42
18.0
 43
18.0
  0
MTEXT
  5
137
330
12F
100
AcDbEntity
  8
Ｓ_１_１
 62
     2
100
AcDbMText
 10
1337.500004
 20
456.5
 30
0.0
 40
20.77742494226328
 41
0.0
 71
     5
 72
     1
  1
605
  7
EXCADDIM1
  0
POINT
  5
138
330
12F
100
AcDbEntity
  8
DEFPOINTS
 62
     0
100
AcDbPoint
 10
1035.000008
 20
682.88676881496
 30
0.0
  0
POINT
  5
139
330
12F
100
AcDbEntity
  8
DEFPOINTS
 62
     0
100
AcDbPoint
 10
1640.0
 20
625.00008300004
 30
0.0
  0
POINT
  5
13A
330
12F
100
AcDbEntity
  8
DEFPOINTS
 62
     0
100
AcDbPoint
 10
1640.0
 20
440.0
 30
0.0
  0
ENDBLK
  5
131
330
12F
100
AcDbEntity
  8
0
100
AcDbBlockEnd
  0
BLOCK
  5
13D
330
13C
100
AcDbEntity
  8
0
100
AcDbBlockBegin
  2
*D18
 70
     1
 10
0.0
 20
0.0
 30
0.0
  3
*D18
  1

  0
LINE
  5
13F
330
13C
100
AcDbEntity
  8
Ｓ_１_１
  6
CONTINUOUS
 62
     2
100
AcDbLine
 10
1031.000008
 20
680.0000149999997
 30
0.0
 11
913.9999999999999
 21
680.0000149999998
 31
0.0
  0
LINE
  5
140
330
13C
100
AcDbEntity
  8
Ｓ_１_１
  6
CONTINUOUS
 62
     2
100
AcDbLine
 10
1031.000008
 20
919.9999999999999
 30
0.0
 11
913.9999999999999
 21
920.0
 31
0.0
  0
LINE
  5
141
330
13C
100
AcDbEntity
  8
Ｓ_１_１
  6
CONTINUOUS
 62
     2
100
AcDbLine
 10
919.9999999999999
 20
698.0000149999998
 30
0.0
 11
919.9999999999999
 21
902.0
 31
0.0
  0
INSERT
  5
142
330
13C
100
AcDbEntity
  8
Ｓ_１_１
 62
     2
100
AcDbBlockReference
  2
EX_NORM
 10
919.9999999999999
 20
680.0000149999998
 30
0.0
 41
18.0
 42
18.0
 43
18.0
 50
270.0
  0
INSERT
  5
143
330
13C
100
AcDbEntity
  8
Ｓ_１_１
 62
     2
100
AcDbBlockReference
  2
EX_NORM
 10
919.9999999999999
 20
920.0
 30
0.0
 41
18.0
 42
18.0
 43
18.0
 50
90.0
  0
MTEXT
  5
144
330
13C
100
AcDbEntity
  8
Ｓ_１_１
 62
     2
100
AcDbMText
 10
903.4999999999999
 20
800.0000074999997
 30
0.0
 40
20.77742494226328
 41
0.0
 71
     5
 72
     1
  1
%%c240
  7
EXCADDIM1
 11
0.0
 21
1.0
 31
0.0
  0
POINT
  5
145
330
13C
100
AcDbEntity
  8
DEFPOINTS
 62
     0
100
AcDbPoint
 10
1040.000008
 20
680.0000149999997
 30
0.0
  0
POINT
  5
146
330
13C
100
AcDbEntity
  8
DEFPOINTS
 62
     0
100
AcDbPoint
 10
1040.000008
 20
919.9999999999999
 30
0.0
  0
POINT
  5
147
330
13C
100
AcDbEntity
  8
DEFPOINTS
 62
     0
100
AcDbPoint
 10
919.9999999999999
 20
920.0
 30
0.0
  0
ENDBLK
  5
13E
330
13C
100
AcDbEntity
  8
0
100
AcDbBlockEnd
  0
BLOCK
  5
14A
330
149
100
AcDbEntity
  8
0
100
AcDbBlockBegin
  2
*D19
 70
     1
 10
0.0
 20
0.0
 30
0.0
  3
*D19
  1

  0
LINE
  5
14C
330
149
100
AcDbEntity
  8
Ｓ_１_１
  6
CONTINUOUS
 62
     2
100
AcDbLine
 10
1649.0
 20
859.9999999999999
 30
0.0
 11
1726.0
 21
859.9999999999999
 31
0.0
  0
LINE
  5
14D
330
149
100
AcDbEntity
  8
Ｓ_１_１
  6
CONTINUOUS
 62
     2
100
AcDbLine
 10
1649.0
 20
740.0
 30
0.0
 11
1726.0
 21
740.0
 31
0.0
  0
LINE
  5
14E
330
149
100
AcDbEntity
  8
Ｓ_１_１
  6
CONTINUOUS
 62
     2
100
AcDbLine
 10
1720.0
 20
841.9999999999999
 30
0.0
 11
1720.0
 21
758.0
 31
0.0
  0
INSERT
  5
14F
330
149
100
AcDbEntity
  8
Ｓ_１_１
 62
     2
100
AcDbBlockReference
  2
EX_NORM
 10
1720.0
 20
859.9999999999999
 30
0.0
 41
18.0
 42
18.0
 43
18.0
 50
90.0
  0
INSERT
  5
150
330
149
100
AcDbEntity
  8
Ｓ_１_１
 62
     2
100
AcDbBlockReference
  2
EX_NORM
 10
1720.0
 20
740.0
 30
0.0
 41
18.0
 42
18.0
 43
18.0
 50
270.0
  0
MTEXT
  5
151
330
149
100
AcDbEntity
  8
Ｓ_１_１
 62
     2
100
AcDbMText
 10
1703.5
 20
799.9999999999999
 30
0.0
 40
20.77742494226328
 41
0.0
 71
     5
 72
     1
  1
%%c120
  7
EXCADDIM1
 11
0.0
 21
1.0
 31
0.0
  0
POINT
  5
152
330
149
100
AcDbEntity
  8
DEFPOINTS
 62
     0
100
AcDbPoint
 10
1640.0
 20
859.9999999999999
 30
0.0
  0
POINT
  5
153
330
149
100
AcDbEntity
  8
DEFPOINTS
 62
     0
100
AcDbPoint
 10
1640.0
 20
740.0
 30
0.0
  0
POINT
  5
154
330
149
100
AcDbEntity
  8
DEFPOINTS
 62
     0
100
AcDbPoint
 10
1720.0
 20
740.0
 30
0.0
  0
ENDBLK
  5
14B
330
149
100
AcDbEntity
  8
0
100
AcDbBlockEnd
  0
BLOCK
  5
157
330
156
100
AcDbEntity
  8
0
100
AcDbBlockBegin
  2
*D20
 70
     1
 10
0.0
 20
0.0
 30
0.0
  3
*D20
  1

  0
LINE
  5
159
330
156
100
AcDbEntity
  8
Ｓ_１_１
  6
CONTINUOUS
 62
     2
100
AcDbLine
 10
1644.0
 20
620.0000149999997
 30
0.0
 11
1766.0
 21
620.0000149999997
 31
0.0
  0
LINE
  5
15A
330
156
100
AcDbEntity
  8
Ｓ_１_１
  6
CONTINUOUS
 62
     2
100
AcDbLine
 10
1760.0
 20
961.9999999999999
 30
0.0
 11
1760.0
 21
638.0000149999997
 31
0.0
  0
INSERT
  5
15B
330
156
100
AcDbEntity
  8
Ｓ_１_１
 62
     2
100
AcDbBlockReference
  2
EX_NORM
 10
1760.0
 20
979.9999999999999
 30
0.0
 41
18.0
 42
18.0
 43
18.0
 50
90.0
  0
INSERT
  5
15C
330
156
100
AcDbEntity
  8
Ｓ_１_１
 62
     2
100
AcDbBlockReference
  2
EX_NORM
 10
1760.0
 20
620.0000149999997
 30
0.0
 41
18.0
 42
18.0
 43
18.0
 50
270.0
  0
MTEXT
  5
15D
330
156
100
AcDbEntity
  8
Ｓ_１_１
 62
     2
100
AcDbMText
 10
1743.5
 20
800.0000074999997
 30
0.0
 40
20.77742494226328
 41
0.0
 71
     5
 72
     1
  1
%%c360
  7
EXCADDIM1
 11
0.0
 21
1.0
 31
0.0
  0
POINT
  5
15E
330
156
100
AcDbEntity
  8
DEFPOINTS
 62
     0
100
AcDbPoint
 10
1635.0
 20
979.9999999999999
 30
0.0
  0
POINT
  5
15F
330
156
100
AcDbEntity
  8
DEFPOINTS
 62
     0
100
AcDbPoint
 10
1635.0
 20
620.0000149999997
 30
0.0
  0
POINT
  5
160
330
156
100
AcDbEntity
  8
DEFPOINTS
 62
     0
100
AcDbPoint
 10
1760.0
 20
620.0000149999997
 30
0.0
  0
ENDBLK
  5
158
330
156
100
AcDbEntity
  8
0
100
AcDbBlockEnd
  0
BLOCK
  5
163
330
162
100
AcDbEntity
  8
0
100
AcDbBlockBegin
  2
*D21
 70
     1
 10
0.0
 20
0.0
 30
0.0
  3
*D21
  1

  0
LINE
  5
165
330
162
100
AcDbEntity
  8
Ｓ_１_１
  6
CONTINUOUS
 62
     2
100
AcDbLine
 10
1644.0
 20
979.9999999999999
 30
0.0
 11
1766.0
 21
980.0
 31
0.0
  0
LINE
  5
166
330
162
100
AcDbEntity
  8
Ｓ_１_１
  6
CONTINUOUS
 62
     2
100
AcDbLine
 10
1581.0
 20
1068.0
 30
0.0
 11
1766.0
 21
1068.0
 31
0.0
  0
LINE
  5
167
330
162
100
AcDbEntity
  8
Ｓ_１_１
  6
CONTINUOUS
 62
     2
100
AcDbLine
 10
1760.0
 20
998.0
 30
0.0
 11
1760.0
 21
1050.0
 31
0.0
  0
INSERT
  5
168
330
162
100
AcDbEntity
  8
Ｓ_１_１
 62
     2
100
AcDbBlockReference
  2
EX_NORM
 10
1760.0
 20
980.0
 30
0.0
 41
18.0
 42
18.0
 43
18.0
 50
270.0
  0
INSERT
  5
169
330
162
100
AcDbEntity
  8
Ｓ_１_１
 62
     2
100
AcDbBlockReference
  2
EX_NORM
 10
1760.0
 20
1068.0
 30
0.0
 41
18.0
 42
18.0
 43
18.0
 50
90.0
  0
MTEXT
  5
16A
330
162
100
AcDbEntity
  8
Ｓ_１_１
 62
     2
100
AcDbMText
 10
1743.5
 20
1024.0
 30
0.0
 40
20.77742494226328
 41
0.0
 71
     5
 72
     1
  1
(88)
  7
EXCADDIM1
 11
0.0
 21
1.0
 31
0.0
  0
POINT
  5
16B
330
162
100
AcDbEntity
  8
DEFPOINTS
 62
     0
100
AcDbPoint
 10
1635.0
 20
979.9999999999999
 30
0.0
  0
POINT
  5
16C
330
162
100
AcDbEntity
  8
DEFPOINTS
 62
     0
100
AcDbPoint
 10
1572.0
 20
1068.0
 30
0.0
  0
POINT
  5
16D
330
162
100
AcDbEntity
  8
DEFPOINTS
 62
     0
100
AcDbPoint
 10
1760.0
 20
1068.0
 30
0.0
  0
ENDBLK
  5
164
330
162
100
AcDbEntity
  8
0
100
AcDbBlockEnd
  0
BLOCK
  5
170
330
16F
100
AcDbEntity
  8
0
100
AcDbBlockBegin
  2
*D22
 70
     1
 10
0.0
 20
0.0
 30
0.0
  3
*D22
  1

  0
LINE
  5
172
330
16F
100
AcDbEntity
  8
Ｓ_１_１
  6
CONTINUOUS
 62
     2
100
AcDbLine
 10
553.5001829999989
 20
927.3056123563128
 30
0.0
 11
406.5001830000009
 21
672.694143643687
 31
0.0
  0
MTEXT
  5
173
330
16F
100
AcDbEntity
  8
Ｓ_１_１
 62
     2
100
AcDbMText
 10
592.9584534406956
 20
1028.649341538401
 30
0.0
 40
20.77742494226328
 41
0.0
 71
     5
 72
     1
  1
P.C.D 330
  7
EXCADDIM1
 11
0.4999999999999934
 21
0.8660254037844426
 31
0.0
  0
LINE
  5
174
330
16F
100
AcDbEntity
  8
Ｓ_１_１
  6
CONTINUOUS
 62
     2
100
AcDbLine
 10
397.500183000001
 20
657.105686375567
 30
0.0
 11
562.5001829999987
 21
942.8940696244329
 31
0.0
  0
INSERT
  5
175
330
16F
100
AcDbEntity
  8
Ｓ_１_１
 62
     2
100
AcDbBlockReference
  2
EX_NORM
 10
397.500183000001
 20
657.105686375567
 30
0.0
 41
18.0
 42
18.0
 43
18.0
 50
240.0000000000004
  0
INSERT
  5
176
330
16F
100
AcDbEntity
  8
Ｓ_１_１
 62
     2
100
AcDbBlockReference
  2
EX_NORM
 10
562.5001829999987
 20
942.8940696244329
 30
0.0
 41
18.0
 42
18.0
 43
18.0
 50
60.00000000000043
  0
POINT
  5
177
330
16F
100
AcDbEntity
  8
DEFPOINTS
 62
     0
100
AcDbPoint
 10
562.5001829999987
 20
942.8940696244329
 30
0.0
  0
POINT
  5
178
330
16F
100
AcDbEntity
  8
DEFPOINTS
 62
     0
100
AcDbPoint
 10
397.500183000001
 20
657.105686375567
 30
0.0
  0
ENDBLK
  5
171
330
16F
100
AcDbEntity
  8
0
100
AcDbBlockEnd
  0
BLOCK
  5
17B
330
17A
100
AcDbEntity
  8
0
100
AcDbBlockBegin
  2
*D23
 70
     1
 10
0.0
 20
0.0
 30
0.0
  3
*D23
  1

  0
LINE
  5
17D
330
17A
100
AcDbEntity
  8
Ｓ_１_１
  6
CONTINUOUS
 62
     2
100
AcDbLine
 10
584.320172239219
 20
772.0474211289257
 30
0.0
 11
788.2847694128898
 21
717.3952720316975
 31
0.0
  0
LINE
  5
17E
330
17A
100
AcDbEntity
  8
Ｓ_１_１
  6
CONTINUOUS
 62
     2
100
AcDbLine
 10
375.6801937607812
 20
827.9523348710742
 30
0.0
 11
358.293528887578
 21
832.6110776829199
 31
0.0
  0
MTEXT
  5
17F
330
17A
100
AcDbEntity
  8
Ｓ_１_１
 62
     2
100
AcDbMText
 10
731.3556063543381
 20
746.5144451147172
 30
0.0
 40
20.77742494226328
 41
0.0
 71
     5
 72
     1
  1
P.C.D 180
  7
EXCADDIM1
 11
0.9659258262890636
 21
-0.2588190451025384
 31
0.0
  0
LINE
  5
180
330
17A
100
AcDbEntity
  8
Ｓ_１_１
  6
CONTINUOUS
 62
     2
100
AcDbLine
 10
393.0668586339843
 20
823.2935920592284
 30
0.0
 11
566.9335073660159
 21
776.7061639407715
 31
0.0
  0
INSERT
  5
181
330
17A
100
AcDbEntity
  8
Ｓ_１_１
 62
     2
100
AcDbBlockReference
  2
EX_NORM
 10
393.0668586339843
 20
823.2935920592284
 30
0.0
 41
18.0
 42
18.0
 43
18.0
 50
344.9999999999989
  0
INSERT
  5
182
330
17A
100
AcDbEntity
  8
Ｓ_１_１
 62
     2
100
AcDbBlockReference
  2
EX_NORM
 10
566.9335073660159
 20
776.7061639407715
 30
0.0
 41
18.0
 42
18.0
 43
18.0
 50
164.9999999999989
  0
POINT
  5
183
330
17A
100
AcDbEntity
  8
DEFPOINTS
 62
     0
100
AcDbPoint
 10
566.9335073660159
 20
776.7061639407715
 30
0.0
  0
POINT
  5
184
330
17A
100
AcDbEntity
  8
DEFPOINTS
 62
     0
100
AcDbPoint
 10
393.0668586339843
 20
823.2935920592284
 30
0.0
  0
ENDBLK
  5
17C
330
17A
100
AcDbEntity
  8
0
100
AcDbBlockEnd
  0
BLOCK
  5
18B
330
18A
100
AcDbEntity
  8
0
100
AcDbBlockBegin
  2
*D24
 70
     1
 10
0.0
 20
0.0
 30
0.0
  3
*D24
  1

  0
LINE
  5
18D
330
18A
100
AcDbEntity
  8
Ｓ_１_１
  6
CONTINUOUS
 62
     2
100
AcDbLine
 10
673.7474490521079
 20
563.8262639907501
 30
0.0
 11
723.029497647957
 21
514.54421572679
 31
0.0
  0
LINE
  5
18E
330
18A
100
AcDbEntity
  8
Ｓ_１_１
  6
CONTINUOUS
 62
     2
100
AcDbLine
 10
716.173855909248
 20
606.2526711336101
 30
0.0
 11
765.4559045050971
 21
556.9706228696499
 31
0.0
  0
LINE
  5
18F
330
18A
100
AcDbEntity
  8
Ｓ_１_１
  6
CONTINUOUS
 62
     2
100
AcDbLine
 10
731.5147789650516
 20
531.5147785038391
 30
0.0
 11
748.4853417851921
 21
548.4853414382674
 31
0.0
  0
INSERT
  5
190
330
18A
100
AcDbEntity
  8
Ｓ_１_１
 62
     2
100
AcDbBlockReference
  2
EX_NORM
 10
718.7868569465518
 20
518.7868563996233
 30
0.0
 41
18.0
 42
18.0
 43
18.0
 50
225.0000001929287
  0
INSERT
  5
191
330
18A
100
AcDbEntity
  8
Ｓ_１_１
 62
     2
100
AcDbBlockReference
  2
EX_NORM
 10
761.2132638036919
 20
561.2132635424832
 30
0.0
 41
18.0
 42
18.0
 43
18.0
 50
45.00000019292865
  0
MTEXT
  5
192
330
18A
100
AcDbEntity
  8
Ｓ_１_１
 62
     2
100
AcDbMText
 10
771.8198654072023
 20
595.1543890751524
 30
0.0
 40
20.77742494226328
 41
0.0
 71
     5
 72
     1
  1
60
  7
EXCADDIM1
 11
0.7071067788055492
 21
0.7071067835675459
 31
0.0
  0
POINT
  5
193
330
18A
100
AcDbEntity
  8
DEFPOINTS
 62
     0
100
AcDbPoint
 10
667.3834879999999
 20
570.190225
 30
0.0
  0
POINT
  5
194
330
18A
100
AcDbEntity
  8
DEFPOINTS
 62
     0
100
AcDbPoint
 10
709.8098948571401
 20
612.61663214286
 30
0.0
  0
POINT
  5
195
330
18A
100
AcDbEntity
  8
DEFPOINTS
 62
     0
100
AcDbPoint
 10
761.2132638036919
 20
561.2132635424832
 30
0.0
  0
ENDBLK
  5
18C
330
18A
100
AcDbEntity
  8
0
100
AcDbBlockEnd
  0
BLOCK
  5
198
330
197
100
AcDbEntity
  8
0
100
AcDbBlockBegin
  2
*D25
 70
     1
 10
0.0
 20
0.0
 30
0.0
  3
*D25
  1

  0
LINE
  5
19A
330
197
100
AcDbEntity
  8
Ｓ_１_１
  6
CONTINUOUS
 62
     2
100
AcDbLine
 10
272.4643499693213
 20
612.9701419693207
 30
0.0
 11
225.5044633128818
 21
566.010255312881
 31
0.0
  0
LINE
  5
19B
330
197
100
AcDbEntity
  8
Ｓ_１_１
  6
CONTINUOUS
 62
     2
100
AcDbLine
 10
292.9704469693208
 20
592.4640449693208
 30
0.0
 11
246.0105603128816
 21
545.5041583128814
 31
0.0
  0
LINE
  5
19C
330
197
100
AcDbEntity
  8
Ｓ_１_１
  6
CONTINUOUS
 62
     2
100
AcDbLine
 10
229.7471040000011
 20
570.2528960000003
 30
0.0
 11
250.2532010000008
 21
549.7467990000007
 31
0.0
  0
LINE
  5
19D
330
197
100
AcDbEntity
  8
Ｓ_１_１
  6
CONTINUOUS
 62
     2
100
AcDbLine
 10
217.0191819386432
 20
582.9808180613581
 30
0.0
 11
204.2912598772853
 21
595.708740122716
 31
0.0
  0
LINE
  5
19E
330
197
100
AcDbEntity
  8
Ｓ_１_１
  6
CONTINUOUS
 62
     2
100
AcDbLine
 10
262.9811230613587
 20
537.0188769386428
 30
0.0
 11
275.7090451227166
 21
524.290954877285
 31
0.0
  0
INSERT
  5
19F
330
197
100
AcDbEntity
  8
Ｓ_１_１
 62
     2
100
AcDbBlockReference
  2
EX_NORM
 10
229.7471040000011
 20
570.2528960000003
 30
0.0
 41
18.0
 42
18.0
 43
18.0
 50
315.0000000000002
  0
INSERT
  5
1A0
330
197
100
AcDbEntity
  8
Ｓ_１_１
 62
     2
100
AcDbBlockReference
  2
EX_NORM
 10
250.2532010000008
 20
549.7467990000007
 30
0.0
 41
18.0
 42
18.0
 43
18.0
 50
135.0000000000002
  0
MTEXT
  5
1A1
330
197
100
AcDbEntity
  8
Ｓ_１_１
 62
     2
100
AcDbMText
 10
284.194326496955
 20
539.140197282203
 30
0.0
 40
20.77742494226328
 41
0.0
 71
     5
 72
     1
  1
29
  7
EXCADDIM1
 11
0.7071067811865499
 21
-0.707106781186545
 31
0.0
  0
POINT
  5
1A2
330
197
100
AcDbEntity
  8
DEFPOINTS
 62
     0
100
AcDbPoint
 10
278.8283110000002
 20
619.3341029999997
 30
0.0
  0
POINT
  5
1A3
330
197
100
AcDbEntity
  8
DEFPOINTS
 62
     0
100
AcDbPoint
 10
299.3344079999997
 20
598.8280059999997
 30
0.0
  0
POINT
  5
1A4
330
197
100
AcDbEntity
  8
DEFPOINTS
 62
     0
100
AcDbPoint
 10
250.2532010000008
 20
549.7467990000007
 30
0.0
  0
ENDBLK
  5
199
330
197
100
AcDbEntity
  8
0
100
AcDbBlockEnd
  0
BLOCK
  5
1A7
330
1A6
100
AcDbEntity
  8
0
100
AcDbBlockBegin
  2
*D26
 70
     1
 10
0.0
 20
0.0
 30
0.0
  3
*D26
  1

  0
LINE
  5
1A9
330
1A6
100
AcDbEntity
  8
Ｓ_１_１
  6
CONTINUOUS
 62
     2
100
AcDbLine
 10
2198.809120633554
 20
831.834620547614
 30
0.0
 11
2389.817757763451
 21
883.015230613946
 31
0.0
  0
LINE
  5
1AA
330
1A6
100
AcDbEntity
  8
Ｓ_１_１
  6
CONTINUOUS
 62
     2
100
AcDbLine
 10
1961.191367366445
 20
768.165135452386
 30
0.0
 11
1943.804702493242
 21
763.5063926405401
 31
0.0
  0
MTEXT
  5
1AB
330
1A6
100
AcDbEntity
  8
Ｓ_１_１
 62
     2
100
AcDbMText
 10
2325.956069797048
 20
879.7685927117581
 30
0.0
 40
20.77742494226328
 41
0.0
 71
     5
 72
     1
  1
P.C.D 210
  7
EXCADDIM1
 11
0.9659258262890599
 21
0.2588190451025525
 31
0.0
  0
LINE
  5
1AC
330
1A6
100
AcDbEntity
  8
Ｓ_１_１
  6
CONTINUOUS
 62
     2
100
AcDbLine
 10
1978.578032239648
 20
772.823878264232
 30
0.0
 11
2181.422455760351
 21
827.175877735768
 31
0.0
  0
INSERT
  5
1AD
330
1A6
100
AcDbEntity
  8
Ｓ_１_１
 62
     2
100
AcDbBlockReference
  2
EX_NORM
 10
1978.578032239648
 20
772.823878264232
 30
0.0
 41
18.0
 42
18.0
 43
18.0
 50
15.00000000000188
  0
INSERT
  5
1AE
330
1A6
100
AcDbEntity
  8
Ｓ_１_１
 62
     2
100
AcDbBlockReference
  2
EX_NORM
 10
2181.422455760351
 20
827.175877735768
 30
0.0
 41
18.0
 42
18.0
 43
18.0
 50
195.0000000000019
  0
POINT
  5
1AF
330
1A6
100
AcDbEntity
  8
DEFPOINTS
 62
     0
100
AcDbPoint
 10
2181.422455760351
 20
827.175877735768
 30
0.0
  0
POINT
  5
1B0
330
1A6
100
AcDbEntity
  8
DEFPOINTS
 62
     0
100
AcDbPoint
 10
1978.578032239648
 20
772.823878264232
 30
0.0
  0
ENDBLK
  5
1A8
330
1A6
100
AcDbEntity
  8
0
100
AcDbBlockEnd
  0
BLOCK
  5
4D0
330
4CF
100
AcDbEntity
  8
0
100
AcDbBlockBegin
  2
*D27
 70
     1
 10
0.0
 20
0.0
 30
0.0
  3
*D27
  1

  0
LINE
  5
4D2
330
4CF
100
AcDbEntity
  8
Ｓ_１_１
  6
CONTINUOUS
 62
     2
100
AcDbLine
 10
1640.0
 20
984.0000579999999
 30
0.0
 11
1640.0
 21
1166.0
 31
0.0
  0
LINE
  5
4D3
330
4CF
100
AcDbEntity
  8
Ｓ_１_１
  6
CONTINUOUS
 62
     2
100
AcDbLine
 10
1560.0
 20
1080.57196
 30
0.0
 11
1560.0
 21
1166.0
 31
0.0
  0
LINE
  5
4D4
330
4CF
100
AcDbEntity
  8
Ｓ_１_１
  6
CONTINUOUS
 62
     2
100
AcDbLine
 10
1622.0
 20
1160.0
 30
0.0
 11
1578.0
 21
1160.0
 31
0.0
  0
INSERT
  5
4D5
330
4CF
100
AcDbEntity
  8
Ｓ_１_１
 62
     2
100
AcDbBlockReference
  2
EX_NORM
 10
1640.0
 20
1160.0
 30
0.0
 41
18.0
 42
18.0
 43
18.0
  0
INSERT
  5
4D6
330
4CF
100
AcDbEntity
  8
Ｓ_１_１
 62
     2
100
AcDbBlockReference
  2
EX_NORM
 10
1560.0
 20
1160.0
 30
0.0
 41
18.0
 42
18.0
 43
18.0
 50
180.0
  0
MTEXT
  5
4D7
330
4CF
100
AcDbEntity
  8
Ｓ_１_１
 62
     2
100
AcDbMText
 10
1600.0
 20
1176.5
 30
0.0
 40
20.77742494226328
 41
0.0
 71
     5
 72
     1
  1
80
  7
EXCADDIM1
  0
POINT
  5
4D8
330
4CF
100
AcDbEntity
  8
DEFPOINTS
 62
     0
100
AcDbPoint
 10
1640.0
 20
975.0000579999999
 30
0.0
  0
POINT
  5
4D9
330
4CF
100
AcDbEntity
  8
DEFPOINTS
 62
     0
100
AcDbPoint
 10
1560.0
 20
1071.57196
 30
0.0
  0
POINT
  5
4DA
330
4CF
100
AcDbEntity
  8
DEFPOINTS
 62
     0
100
AcDbPoint
 10
1560.0
 20
1160.0
 30
0.0
  0
ENDBLK
  5
4D1
330
4CF
100
AcDbEntity
  8
0
100
AcDbBlockEnd
  0
BLOCK
  5
4DD
330
4DC
100
AcDbEntity
  8
0
100
AcDbBlockBegin
  2
*D28
 70
     1
 10
0.0
 20
0.0
 30
0.0
  3
*D28
  1

  0
LINE
  5
4DF
330
4DC
100
AcDbEntity
  8
Ｓ_１_１
  6
CONTINUOUS
 62
     2
100
AcDbLine
 10
1560.0
 20
1080.57196
 30
0.0
 11
1560.0
 21
1166.0
 31
0.0
  0
LINE
  5
4E0
330
4DC
100
AcDbEntity
  8
Ｓ_１_１
  6
CONTINUOUS
 62
     2
100
AcDbLine
 10
1180.000008
 20
1107.24
 30
0.0
 11
1180.000008
 21
1166.0
 31
0.0
  0
LINE
  5
4E1
330
4DC
100
AcDbEntity
  8
Ｓ_１_１
  6
CONTINUOUS
 62
     2
100
AcDbLine
 10
1542.0
 20
1160.0
 30
0.0
 11
1198.000008
 21
1160.0
 31
0.0
  0
INSERT
  5
4E2
330
4DC
100
AcDbEntity
  8
Ｓ_１_１
 62
     2
100
AcDbBlockReference
  2
EX_NORM
 10
1560.0
 20
1160.0
 30
0.0
 41
18.0
 42
18.0
 43
18.0
  0
INSERT
  5
4E3
330
4DC
100
AcDbEntity
  8
Ｓ_１_１
 62
     2
100
AcDbBlockReference
  2
EX_NORM
 10
1180.000008
 20
1160.0
 30
0.0
 41
18.0
 42
18.0
 43
18.0
 50
180.0
  0
MTEXT
  5
4E4
330
4DC
100
AcDbEntity
  8
Ｓ_１_１
 62
     2
100
AcDbMText
 10
1370.000004
 20
1176.5
 30
0.0
 40
20.77742494226328
 41
0.0
 71
     5
 72
     1
  1
380
  7
EXCADDIM1
  0
POINT
  5
4E5
330
4DC
100
AcDbEntity
  8
DEFPOINTS
 62
     0
100
AcDbPoint
 10
1560.0
 20
1071.57196
 30
0.0
  0
POINT
  5
4E6
330
4DC
100
AcDbEntity
  8
DEFPOINTS
 62
     0
100
AcDbPoint
 10
1180.000008
 20
1098.24
 30
0.0
  0
POINT
  5
4E7
330
4DC
100
AcDbEntity
  8
DEFPOINTS
 62
     0
100
AcDbPoint
 10
1180.000008
 20
1160.0
 30
0.0
  0
ENDBLK
  5
4DE
330
4DC
100
AcDbEntity
  8
0
100
AcDbBlockEnd
  0
BLOCK
  5
4EA
330
4E9
100
AcDbEntity
  8
0
100
AcDbBlockBegin
  2
*D29
 70
     1
 10
0.0
 20
0.0
 30
0.0
  3
*D29
  1

  0
LINE
  5
4EC
330
4E9
100
AcDbEntity
  8
Ｓ_１_１
  6
CONTINUOUS
 62
     2
100
AcDbLine
 10
1180.000008
 20
1107.24
 30
0.0
 11
1180.000008
 21
1166.0
 31
0.0
  0
LINE
  5
4ED
330
4E9
100
AcDbEntity
  8
Ｓ_１_１
  6
CONTINUOUS
 62
     2
100
AcDbLine
 10
1050.000008
 20
983.9999870001099
 30
0.0
 11
1050.000008
 21
1166.0
 31
0.0
  0
LINE
  5
4EE
330
4E9
100
AcDbEntity
  8
Ｓ_１_１
  6
CONTINUOUS
 62
     2
100
AcDbLine
 10
1162.000008
 20
1160.0
 30
0.0
 11
1068.000008
 21
1160.0
 31
0.0
  0
INSERT
  5
4EF
330
4E9
100
AcDbEntity
  8
Ｓ_１_１
 62
     2
100
AcDbBlockReference
  2
EX_NORM
 10
1180.000008
 20
1160.0
 30
0.0
 41
18.0
 42
18.0
 43
18.0
  0
INSERT
  5
4F0
330
4E9
100
AcDbEntity
  8
Ｓ_１_１
 62
     2
100
AcDbBlockReference
  2
EX_NORM
 10
1050.000008
 20
1160.0
 30
0.0
 41
18.0
 42
18.0
 43
18.0
 50
180.0
  0
MTEXT
  5
4F1
330
4E9
100
AcDbEntity
  8
Ｓ_１_１
 62
     2
100
AcDbMText
 10
1115.000008
 20
1176.5
 30
0.0
 40
20.77742494226328
 41
0.0
 71
     5
 72
     1
  1
130
  7
EXCADDIM1
  0
POINT
  5
4F2
330
4E9
100
AcDbEntity
  8
DEFPOINTS
 62
     0
100
AcDbPoint
 10
1180.000008
 20
1098.24
 30
0.0
  0
POINT
  5
4F3
330
4E9
100
AcDbEntity
  8
DEFPOINTS
 62
     0
100
AcDbPoint
 10
1050.000008
 20
974.9999870001099
 30
0.0
  0
POINT
  5
4F4
330
4E9
100
AcDbEntity
  8
DEFPOINTS
 62
     0
100
AcDbPoint
 10
1050.000008
 20
1160.0
 30
0.0
  0
ENDBLK
  5
4EB
330
4E9
100
AcDbEntity
  8
0
100
AcDbBlockEnd
  0
BLOCK
  5
4F7
330
4F6
100
AcDbEntity
  8
0
100
AcDbBlockBegin
  2
*D30
 70
     1
 10
0.0
 20
0.0
 30
0.0
  3
*D30
  1

  0
LINE
  5
4F9
330
4F6
100
AcDbEntity
  8
Ｓ_１_１
  6
CONTINUOUS
 62
     2
100
AcDbLine
 10
479.9999999999997
 20
1107.24
 30
0.0
 11
479.9999999999997
 21
1128.49032574275
 31
0.0
  0
LINE
  5
4FA
330
4F6
100
AcDbEntity
  8
Ｓ_１_１
  6
CONTINUOUS
 62
     2
100
AcDbLine
 10
276.0175579693206
 20
1003.982562030679
 30
0.0
 11
247.7223479659369
 21
1032.277772034062
 31
0.0
  0
ARC
  5
4FB
330
4F6
100
AcDbEntity
  8
Ｓ_１_１
  6
CONTINUOUS
 62
     2
100
AcDbCircle
 10
479.9999999999999
 20
800.0001199999998
 30
0.0
 40
322.4902057427501
100
AcDbArc
 50
93.19841636641624
 51
131.8015836335839
  0
INSERT
  5
4FC
330
4F6
100
AcDbEntity
  8
Ｓ_１_１
 62
     2
100
AcDbBlockReference
  2
EX_NORM
 10
479.9999999999997
 20
1122.49032574275
 30
0.0
 41
18.0
 42
18.0
 43
18.0
 50
1.599208183208139
  0
INSERT
  5
4FD
330
4F6
100
AcDbEntity
  8
Ｓ_１_１
 62
     2
100
AcDbBlockReference
  2
EX_NORM
 10
251.9649886530562
 20
1028.035131346943
 30
0.0
 41
18.0
 42
18.0
 43
18.0
 50
223.400791816792
  0
MTEXT
  5
4FE
330
4F6
100
AcDbEntity
  8
Ｓ_１_１
 62
     2
100
AcDbMText
 10
350.2740645282162
 20
1113.186232807516
 30
0.0
 40
20.77742494226328
 41
0.0
 71
     5
 72
     1
  1
45%%d
  7
EXCADDIM1
 11
0.9238795325112865
 21
0.3826834323650903
 31
0.0
  0
POINT
  5
4FF
330
4F6
100
AcDbEntity
  8
DEFPOINTS
 62
     0
100
AcDbPoint
 10
479.9999999999999
 20
800.0001199999998
 30
0.0
  0
POINT
  5
500
330
4F6
100
AcDbEntity
  8
DEFPOINTS
 62
     0
100
AcDbPoint
 10
479.9999999999997
 20
1098.24
 30
0.0
  0
POINT
  5
501
330
4F6
100
AcDbEntity
  8
DEFPOINTS
 62
     0
100
AcDbPoint
 10
282.3815189999996
 20
997.6186009999998
 30
0.0
  0
POINT
  5
502
330
4F6
100
AcDbEntity
  8
DEFPOINTS
 62
     0
100
AcDbPoint
 10
396.5333928947455
 20
1111.501738452198
 30
0.0
  0
ENDBLK
  5
4F8
330
4F6
100
AcDbEntity
  8
0
100
AcDbBlockEnd
  0
BLOCK
  5
505
330
504
100
AcDbEntity
  8
0
100
AcDbBlockBegin
  2
*D31
 70
     1
 10
0.0
 20
0.0
 30
0.0
  3
*D31
  1

  0
LINE
  5
507
330
504
100
AcDbEntity
  8
Ｓ_１_１
  6
CONTINUOUS
 62
     2
100
AcDbLine
 10
276.0175579693208
 20
1003.982562030679
 30
0.0
 11
247.7223479659604
 21
1032.277772034039
 31
0.0
  0
LINE
  5
508
330
504
100
AcDbEntity
  8
Ｓ_１_１
  6
CONTINUOUS
 62
     2
100
AcDbLine
 10
261.0002439999998
 20
799.9999999999999
 30
0.0
 11
151.5097445516554
 21
799.9999999999999
 31
0.0
  0
ARC
  5
509
330
504
100
AcDbEntity
  8
Ｓ_１_１
  6
CONTINUOUS
 62
     2
100
AcDbCircle
 10
480.0001199999997
 20
799.9999999999999
 30
0.0
 40
322.4903754483443
100
AcDbArc
 50
138.1984146828616
 51
176.8015853171384
  0
INSERT
  5
50A
330
504
100
AcDbEntity
  8
Ｓ_１_１
 62
     2
100
AcDbBlockReference
  2
EX_NORM
 10
251.9649886530797
 20
1028.03513134692
 30
0.0
 41
18.0
 42
18.0
 43
18.0
 50
46.59920734143081
  0
INSERT
  5
50B
330
504
100
AcDbEntity
  8
Ｓ_１_１
 62
     2
100
AcDbBlockReference
  2
EX_NORM
 10
157.5097445516554
 20
799.9999999999999
 30
0.0
 41
18.0
 42
18.0
 43
18.0
 50
268.4007926585692
  0
MTEXT
  5
50C
330
504
100
AcDbEntity
  8
Ｓ_１_１
 62
     2
100
AcDbMText
 10
166.8138504049579
 20
929.7260004153025
 30
0.0
 40
20.77742494226328
 41
0.0
 71
     5
 72
     1
  1
45%%d
  7
EXCADDIM1
 11
0.3826834323650892
 21
0.9238795325112871
 31
0.0
  0
POINT
  5
50D
330
504
100
AcDbEntity
  8
DEFPOINTS
 62
     0
100
AcDbPoint
 10
480.0001199999997
 20
799.9999999999999
 30
0.0
  0
POINT
  5
50E
330
504
100
AcDbEntity
  8
DEFPOINTS
 62
     0
100
AcDbPoint
 10
282.3815189999997
 20
997.6186009999998
 30
0.0
  0
POINT
  5
50F
330
504
100
AcDbEntity
  8
DEFPOINTS
 62
     0
100
AcDbPoint
 10
270.0002439999998
 20
799.9999999999999
 30
0.0
  0
POINT
  5
510
330
504
100
AcDbEntity
  8
DEFPOINTS
 62
     0
100
AcDbPoint
 10
200.7152623857522
 20
961.2451877241722
 30
0.0
  0
ENDBLK
  5
506
330
504
100
AcDbEntity
  8
0
100
AcDbBlockEnd
  0
ENDSEC
  0
SECTION
  2
ENTITIES
  0
LINE
  5
D4
330
1F
100
AcDbEntity
  8
図面枠
  6
CONTINUOUS
 62
     5
100
AcDbLine
 10
60.0
 20
60.0
 30
0.0
 11
2460.0
 21
60.0
 31
0.0
  0
LINE
  5
D5
330
1F
100
AcDbEntity
  8
図面枠
  6
CONTINUOUS
 62
     5
100
AcDbLine
 10
2460.0
 20
60.0
 30
0.0
 11
2460.0
 21
1722.0
 31
0.0
  0
LINE
  5
D6
330
1F
100
AcDbEntity
  8
図面枠
  6
CONTINUOUS
 62
     5
100
AcDbLine
 10
2460.0
 20
1722.0
 30
0.0
 11
60.00000000000031
 21
1722.0
 31
0.0
  0
LINE
  5
D7
330
1F
100
AcDbEntity
  8
図面枠
  6
CONTINUOUS
 62
     5
100
AcDbLine
 10
60.00000000000031
 20
1722.0
 30
0.0
 11
60.0
 21
60.0
 31
0.0
  0
LINE
  5
D8
330
1F
100
AcDbEntity
  8
図面枠
  6
CONTINUOUS
 62
     3
100
AcDbLine
 10
90.00000000000011
 20
1690.38
 30
0.0
 11
756.0000000000001
 21
1690.38
 31
0.0
  0
LINE
  5
D9
330
1F
100
AcDbEntity
  8
図面枠
  6
CONTINUOUS
 62
     3
100
AcDbLine
 10
90.00000000000011
 20
1636.38
 30
0.0
 11
756.0000000000001
 21
1636.38
 31
0.0
  0
LINE
  5
DA
330
1F
100
AcDbEntity
  8
図面枠
  6
CONTINUOUS
 62
     3
100
AcDbLine
 10
90.00000000000011
 20
1690.38
 30
0.0
 11
90.00000000000011
 21
1636.38
 31
0.0
  0
LINE
  5
DB
330
1F
100
AcDbEntity
  8
図面枠
  6
CONTINUOUS
 62
     3
100
AcDbLine
 10
756.0000000000001
 20
1690.38
 30
0.0
 11
756.0000000000001
 21
1636.38
 31
0.0
  0
TEXT
  5
DD
330
1F
100
AcDbEntity
  8
図面枠
  6
CONTINUOUS
 62
     4
100
AcDbText
 10
108.0000000000001
 20
1650.4425
 30
0.0
 40
27.70323325635104
  1
3000kN300ストロークCH型油圧ジャッキ
 41
0.9992307692307696
  7
EXCADTTF1
 72
     5
 11
738.0000000000001
 21
1650.4425
 31
0.0
100
AcDbText
  0
LINE
  5
DE
330
1F
100
AcDbEntity
  8
図面枠
  6
CONTINUOUS
 62
     3
100
AcDbLine
 10
2142.0
 20
144.0
 30
0.0
 11
2430.0
 21
144.0
 31
0.0
  0
LINE
  5
DF
330
1F
100
AcDbEntity
  8
図面枠
  6
CONTINUOUS
 62
     3
100
AcDbLine
 10
2142.0
 20
90.0
 30
0.0
 11
2430.0
 21
90.0
 31
0.0
  0
LINE
  5
E0
330
1F
100
AcDbEntity
  8
図面枠
  6
CONTINUOUS
 62
     3
100
AcDbLine
 10
2142.0
 20
144.0
 30
0.0
 11
2142.0
 21
90.0
 31
0.0
  0
LINE
  5
E1
330
1F
100
AcDbEntity
  8
図面枠
  6
CONTINUOUS
 62
     3
100
AcDbLine
 10
2430.0
 20
144.0
 30
0.0
 11
2430.0
 21
90.0
 31
0.0
  0
TEXT
  5
E2
330
1F
100
AcDbEntity
  8
図面枠
  6
CONTINUOUS
 62
     4
100
AcDbText
 10
2160.0
 20
104.0625
 30
0.0
 40
27.70323325635104
  1
CHV-30030-120D
 41
0.9992307692307691
  7
EXCADTTF1
 72
     5
 11
2412.0
 21
104.0625
 31
0.0
100
AcDbText
  0
TEXT
  5
E3
330
1F
100
AcDbEntity
  8
図面枠
  6
CONTINUOUS
 62
     4
100
AcDbText
 10
2322.0
 20
1628.296875
 30
0.0
 40
20.77742494226328
  1
kN
 41
0.999230769230769
  7
EXCADTTF1
 72
     5
 11
2349.0
 21
1628.296875
 31
0.0
100
AcDbText
  0
TEXT
  5
E4
330
1F
100
AcDbEntity
  8
図面枠
  6
CONTINUOUS
 62
     4
100
AcDbText
 10
1962.0
 20
1628.296875
 30
0.0
 40
20.77742494226328
  1
能力
 41
0.999230769230769
  7
EXCADTTF1
 72
     5
 11
2016.0
 21
1628.296875
 31
0.0
100
AcDbText
  0
TEXT
  5
E5
330
1F
100
AcDbEntity
  8
図面枠
  6
CONTINUOUS
 62
     4
100
AcDbText
 10
2122.5
 20
1664.296875
 30
0.0
 40
20.77742494226328
  1
仕　　　様
 41
0.9992307692307689
  7
EXCADTTF1
 72
     5
 11
2257.5
 21
1664.296875
 31
0.0
100
AcDbText
  0
LINE
  5
E6
330
1F
100
AcDbEntity
  8
図面枠
  6
CONTINUOUS
 62
     3
100
AcDbLine
 10
1950.0
 20
1692.0
 30
0.0
 11
2430.0
 21
1692.0
 31
0.0
  0
LINE
  5
E7
330
1F
100
AcDbEntity
  8
図面枠
  6
CONTINUOUS
 62
     3
100
AcDbLine
 10
1950.0
 20
1656.0
 30
0.0
 11
2430.0
 21
1656.0
 31
0.0
  0
TEXT
  5
E8
330
1F
100
AcDbEntity
  8
図面枠
  6
CONTINUOUS
 62
     4
100
AcDbText
 10
2244.0
 20
1628.296875
 30
0.0
 40
20.77742494226328
  1
3000
 41
0.999230769230769
  7
EXCADTTF1
 72
     5
 11
2298.0
 21
1628.296875
 31
0.0
100
AcDbText
  0
TEXT
  5
E9
330
1F
100
AcDbEntity
  8
図面枠
  6
CONTINUOUS
 62
     4
100
AcDbText
 10
2322.0
 20
1592.296875
 30
0.0
 40
20.77742494226328
  1
mm
 41
0.999230769230769
  7
EXCADTTF1
 72
     5
 11
2349.0
 21
1592.296875
 31
0.0
100
AcDbText
  0
TEXT
  5
EA
330
1F
100
AcDbEntity
  8
図面枠
  6
CONTINUOUS
 62
     4
100
AcDbText
 10
2322.0
 20
1556.296875
 30
0.0
 40
20.77742494226328
  1
mm
 41
0.999230769230769
  7
EXCADTTF1
 72
     5
 11
2349.0
 21
1556.296875
 31
0.0
100
AcDbText
  0
TEXT
  5
EB
330
1F
100
AcDbEntity
  8
図面枠
  6
CONTINUOUS
 62
     4
100
AcDbText
 10
2322.0
 20
1520.296875
 30
0.0
 40
20.77742494226328
  1
mm
 41
0.999230769230769
  7
EXCADTTF1
 72
     5
 11
2349.0
 21
1520.296875
 31
0.0
100
AcDbText
  0
TEXT
  5
EC
330
1F
100
AcDbEntity
  8
図面枠
  6
CONTINUOUS
 62
     4
100
AcDbText
 10
2322.0
 20
1484.296875
 30
0.0
 40
20.77742494226328
  1
mm
 41
0.999230769230769
  7
EXCADTTF1
 72
     5
 11
2349.0
 21
1484.296875
 31
0.0
100
AcDbText
  0
TEXT
  5
ED
330
1F
100
AcDbEntity
  8
図面枠
  6
CONTINUOUS
 62
     4
100
AcDbText
 10
2322.0
 20
1448.296875
 30
0.0
 40
20.77742494226328
  1
mm
 41
0.999230769230769
  7
EXCADTTF1
 72
     5
 11
2349.0
 21
1448.296875
 31
0.0
100
AcDbText
  0
TEXT
  5
EE
330
1F
100
AcDbEntity
  8
図面枠
  6
CONTINUOUS
 62
     4
100
AcDbText
 10
2322.0
 20
1376.296875
 30
0.0
 40
20.77742494226328
  1
MPa
 41
0.999230769230769
  7
EXCADTTF1
 72
     5
 11
2362.5
 21
1376.296875
 31
0.0
100
AcDbText
  0
TEXT
  5
EF
330
1F
100
AcDbEntity
  8
図面枠
  6
CONTINUOUS
 62
     4
100
AcDbText
 10
1962.0
 20
1592.296875
 30
0.0
 40
20.77742494226328
  1
ストローク
 41
0.9992307692307689
  7
EXCADTTF1
 72
     5
 11
2097.0
 21
1592.296875
 31
0.0
100
AcDbText
  0
TEXT
  5
F0
330
1F
100
AcDbEntity
  8
図面枠
  6
CONTINUOUS
 62
     4
100
AcDbText
 10
1962.0
 20
1556.296875
 30
0.0
 40
20.77742494226328
  1
最低機械高
 41
0.9992307692307689
  7
EXCADTTF1
 72
     5
 11
2097.0
 21
1556.296875
 31
0.0
100
AcDbText
  0
TEXT
  5
F1
330
1F
100
AcDbEntity
  8
図面枠
  6
CONTINUOUS
 62
     4
100
AcDbText
 10
1962.0
 20
1520.296875
 30
0.0
 40
20.77742494226328
  1
シリンダー外径
 41
0.9992307692307688
  7
EXCADTTF1
 72
     5
 11
2151.0
 21
1520.296875
 31
0.0
100
AcDbText
  0
TEXT
  5
F2
330
1F
100
AcDbEntity
  8
図面枠
  6
CONTINUOUS
 62
     4
100
AcDbText
 10
1962.0
 20
1412.296875
 30
0.0
 40
20.77742494226328
  1
受圧面積
 41
0.999230769230769
  7
EXCADTTF1
 72
     5
 11
2070.0
 21
1412.296875
 31
0.0
100
AcDbText
  0
TEXT
  5
F3
330
1F
100
AcDbEntity
  8
図面枠
  6
CONTINUOUS
 62
     4
100
AcDbText
 10
1962.0
 20
1376.296875
 30
0.0
 40
20.77742494226328
  1
最高使用圧力
 41
0.9992307692307689
  7
EXCADTTF1
 72
     5
 11
2124.0
 21
1376.296875
 31
0.0
100
AcDbText
  0
LINE
  5
F4
330
1F
100
AcDbEntity
  8
図面枠
  6
CONTINUOUS
 62
     2
100
AcDbLine
 10
1950.0
 20
1620.0
 30
0.0
 11
2430.0
 21
1620.0
 31
0.0
  0
LINE
  5
F5
330
1F
100
AcDbEntity
  8
図面枠
  6
CONTINUOUS
 62
     2
100
AcDbLine
 10
1950.0
 20
1584.0
 30
0.0
 11
2430.0
 21
1584.0
 31
0.0
  0
LINE
  5
F6
330
1F
100
AcDbEntity
  8
図面枠
  6
CONTINUOUS
 62
     2
100
AcDbLine
 10
1950.0
 20
1548.0
 30
0.0
 11
2430.0
 21
1548.0
 31
0.0
  0
LINE
  5
F7
330
1F
100
AcDbEntity
  8
図面枠
  6
CONTINUOUS
 62
     2
100
AcDbLine
 10
1950.0
 20
1512.0
 30
0.0
 11
2430.0
 21
1512.0
 31
0.0
  0
LINE
  5
F8
330
1F
100
AcDbEntity
  8
図面枠
  6
CONTINUOUS
 62
     2
100
AcDbLine
 10
1950.0
 20
1476.0
 30
0.0
 11
2430.0
 21
1476.0
 31
0.0
  0
LINE
  5
F9
330
1F
100
AcDbEntity
  8
図面枠
  6
CONTINUOUS
 62
     2
100
AcDbLine
 10
1950.0
 20
1440.0
 30
0.0
 11
2430.0
 21
1440.0
 31
0.0
  0
LINE
  5
FA
330
1F
100
AcDbEntity
  8
図面枠
  6
CONTINUOUS
 62
     2
100
AcDbLine
 10
1950.0
 20
1404.0
 30
0.0
 11
2430.0
 21
1404.0
 31
0.0
  0
TEXT
  5
FB
330
1F
100
AcDbEntity
  8
図面枠
  6
CONTINUOUS
 62
     4
100
AcDbText
 10
1962.0
 20
1484.296875
 30
0.0
 40
20.77742494226328
  1
ホール径
 41
0.999230769230769
  7
EXCADTTF1
 72
     5
 11
2070.0
 21
1484.296875
 31
0.0
100
AcDbText
  0
TEXT
  5
FC
330
1F
100
AcDbEntity
  8
図面枠
  6
CONTINUOUS
 62
     4
100
AcDbText
 10
1962.0
 20
1448.296875
 30
0.0
 40
20.77742494226328
  1
ヘッド径
 41
0.999230769230769
  7
EXCADTTF1
 72
     5
 11
2070.0
 21
1448.296875
 31
0.0
100
AcDbText
  0
TEXT
  5
FD
330
1F
100
AcDbEntity
  8
図面枠
  6
CONTINUOUS
 62
     4
100
AcDbText
 10
2257.5
 20
1592.296875
 30
0.0
 40
20.77742494226328
  1
300
 41
0.999230769230769
  7
EXCADTTF1
 72
     5
 11
2298.0
 21
1592.296875
 31
0.0
100
AcDbText
  0
TEXT
  5
FE
330
1F
100
AcDbEntity
  8
図面枠
  6
CONTINUOUS
 62
     4
100
AcDbText
 10
2257.5
 20
1556.296875
 30
0.0
 40
20.77742494226328
  1
605
 41
0.999230769230769
  7
EXCADTTF1
 72
     5
 11
2298.0
 21
1556.296875
 31
0.0
100
AcDbText
  0
TEXT
  5
FF
330
1F
100
AcDbEntity
  8
図面枠
  6
CONTINUOUS
 62
     4
100
AcDbText
 10
2257.5
 20
1520.296875
 30
0.0
 40
20.77742494226328
  1
360
 41
0.999230769230769
  7
EXCADTTF1
 72
     5
 11
2298.0
 21
1520.296875
 31
0.0
100
AcDbText
  0
TEXT
  5
100
330
1F
100
AcDbEntity
  8
図面枠
  6
CONTINUOUS
 62
     4
100
AcDbText
 10
2257.5
 20
1484.296875
 30
0.0
 40
20.77742494226328
  1
120
 41
0.999230769230769
  7
EXCADTTF1
 72
     5
 11
2298.0
 21
1484.296875
 31
0.0
100
AcDbText
  0
TEXT
  5
101
330
1F
100
AcDbEntity
  8
図面枠
  6
CONTINUOUS
 62
     4
100
AcDbText
 10
2257.5
 20
1448.296875
 30
0.0
 40
20.77742494226328
  1
240
 41
0.999230769230769
  7
EXCADTTF1
 72
     5
 11
2298.0
 21
1448.296875
 31
0.0
100
AcDbText
  0
TEXT
  5
102
330
1F
100
AcDbEntity
  8
図面枠
  6
CONTINUOUS
 62
     4
100
AcDbText
 10
2230.5
 20
1412.296875
 30
0.0
 40
20.77742494226328
  1
461.2
 41
0.9992307692307689
  7
EXCADTTF1
 72
     5
 11
2298.0
 21
1412.296875
 31
0.0
100
AcDbText
  0
TEXT
  5
103
330
1F
100
AcDbEntity
  8
図面枠
  6
CONTINUOUS
 62
     4
100
AcDbText
 10
2271.0
 20
1376.296875
 30
0.0
 40
20.77742494226328
  1
65
 41
0.999230769230769
  7
EXCADTTF1
 72
     5
 11
2298.0
 21
1376.296875
 31
0.0
100
AcDbText
  0
TEXT
  5
104
330
1F
100
AcDbEntity
  8
図面枠
  6
CONTINUOUS
 62
     4
100
AcDbText
 10
2322.0
 20
1304.296875
 30
0.0
 40
20.77742494226328
  1
kg
 41
0.999230769230769
  7
EXCADTTF1
 72
     5
 11
2349.0
 21
1304.296875
 31
0.0
100
AcDbText
  0
TEXT
  5
105
330
1F
100
AcDbEntity
  8
図面枠
  6
CONTINUOUS
 62
     4
100
AcDbText
 10
1962.0
 20
1340.296875
 30
0.0
 40
20.77742494226328
  1
所要油量
 41
0.999230769230769
  7
EXCADTTF1
 72
     5
 11
2070.0
 21
1340.296875
 31
0.0
100
AcDbText
  0
TEXT
  5
106
330
1F
100
AcDbEntity
  8
図面枠
  6
CONTINUOUS
 62
     4
100
AcDbText
 10
1962.0
 20
1304.296875
 30
0.0
 40
20.77742494226328
  1
重量
 41
0.999230769230769
  7
EXCADTTF1
 72
     5
 11
2016.0
 21
1304.296875
 31
0.0
100
AcDbText
  0
LINE
  5
107
330
1F
100
AcDbEntity
  8
図面枠
  6
CONTINUOUS
 62
     2
100
AcDbLine
 10
1950.0
 20
1368.0
 30
0.0
 11
2430.0
 21
1368.0
 31
0.0
  0
LINE
  5
108
330
1F
100
AcDbEntity
  8
図面枠
  6
CONTINUOUS
 62
     2
100
AcDbLine
 10
1950.0
 20
1332.0
 30
0.0
 11
2430.0
 21
1332.0
 31
0.0
  0
LINE
  5
109
330
1F
100
AcDbEntity
  8
図面枠
  6
CONTINUOUS
 62
     3
100
AcDbLine
 10
1950.0
 20
1296.0
 30
0.0
 11
2430.0
 21
1296.0
 31
0.0
  0
TEXT
  5
10A
330
1F
100
AcDbEntity
  8
図面枠
  6
CONTINUOUS
 62
     4
100
AcDbText
 10
2244.0
 20
1340.296875
 30
0.0
 40
20.77742494226328
  1
13.8
 41
0.999230769230769
  7
EXCADTTF1
 72
     5
 11
2298.0
 21
1340.296875
 31
0.0
100
AcDbText
  0
TEXT
  5
10B
330
1F
100
AcDbEntity
  8
図面枠
  6
CONTINUOUS
 62
     4
100
AcDbText
 10
2322.0
 20
1340.296875
 30
0.0
 40
20.77742494226328
  1
L
 41
0.999230769230769
  7
EXCADTTF1
 72
     5
 11
2335.5
 21
1340.296875
 31
0.0
100
AcDbText
  0
TEXT
  5
10C
330
1F
100
AcDbEntity
  8
図面枠
  6
CONTINUOUS
 62
     4
100
AcDbText
 10
2230.5
 20
1304.296875
 30
0.0
 40
20.77742494226328
  1
約380
 41
0.9992307692307689
  7
EXCADTTF1
 72
     5
 11
2298.0
 21
1304.296875
 31
0.0
100
AcDbText
  0
TEXT
  5
10D
330
1F
100
AcDbEntity
  8
図面枠
  6
CONTINUOUS
 62
     4
100
AcDbText
 10
2322.0
 20
1412.296875
 30
0.0
 40
20.77742494226328
  1
cm
 41
0.999230769230769
  7
EXCADTTF1
 72
     5
 11
2349.0
 21
1412.296875
 31
0.0
100
AcDbText
  0
TEXT
  5
10E
330
1F
100
AcDbEntity
  8
図面枠
  6
CONTINUOUS
 62
     4
100
AcDbText
 10
2340.900000000001
 20
1425.05859388411
 30
0.0
 40
9.349840196579397
  1
2
 41
0.9992308790346205
  7
EXCADTTF1
 72
     5
 11
2346.975
 21
1425.05859388411
 31
0.0
100
AcDbText
  0
LINE
  5
10F
330
1F
100
AcDbEntity
  8
図面枠
  6
CONTINUOUS
 62
     3
100
AcDbLine
 10
1950.0
 20
1692.0
 30
0.0
 11
1950.0
 21
1296.0
 31
0.0
  0
LINE
  5
110
330
1F
100
AcDbEntity
  8
図面枠
  6
CONTINUOUS
 62
     2
100
AcDbLine
 10
2190.0
 20
1656.0
 30
0.0
 11
2190.0
 21
1296.0
 31
0.0
  0
LINE
  5
111
330
1F
100
AcDbEntity
  8
図面枠
  6
CONTINUOUS
 62
     2
100
AcDbLine
 10
2310.0
 20
1656.0
 30
0.0
 11
2310.0
 21
1296.0
 31
0.0
  0
LINE
  5
112
330
1F
100
AcDbEntity
  8
図面枠
  6
CONTINUOUS
 62
     3
100
AcDbLine
 10
2430.0
 20
1692.0
 30
0.0
 11
2430.0
 21
1296.0
 31
0.0
  0
DIMENSION
  5
114
330
1F
100
AcDbEntity
  8
Ｓ_１_１
  6
CONTINUOUS
 62
     2
100
AcDbDimension
  2
*D15
 10
1050.000008
 20
479.9999999999999
 30
0.0
 11
1345.000004
 21
496.4999999999999
 31
0.0
 70
   160
  3
ISO-25
100
AcDbAlignedDimension
 13
1640.0
 23
625.00008300004
 33
0.0
 14
1050.000008
 24
625.00006200001
 34
0.0
100
AcDbRotatedDimension
1001
ACAD
1000
DSTYLE
1002
{
1070
   270
1070
     2
1070
     6
1000
EX_NORM
1070
     7
1000
EX_NORM
1070
    41
1040
18.0
1070
    42
1040
0.0
1070
    44
1040
0.0
1070
    73
1070
     0
1070
    74
1070
     0
1070
    75
1070
     1
1070
    76
1070
     1
1070
    77
1070
     1
1070
    78
1070
     8
1070
   140
1040
20.77742494226328
1070
   147
1040
0.0
1070
   173
1070
     1
1070
   176
1070
     2
1070
   177
1070
     2
1070
   178
1070
     2
1070
   271
1070
     2
1070
   277
1070
     2
1070
   279
1070
     2
1070
   280
1070
     0
1070
   287
1070
     5
1070
   340
1005
113
1002
}
  0
DIMENSION
  5
120
330
1F
100
AcDbEntity
  8
Ｓ_１_１
  6
CONTINUOUS
 62
     2
100
AcDbDimension
  2
*D16
 10
1035.000008
 20
479.9999999999999
 30
0.0
 11
1003.500008
 21
496.4999999999998
 31
0.0
 70
   160
  3
ISO-25
100
AcDbAlignedDimension
 13
1050.000008
 23
625.00006200001
 33
0.0
 14
1035.000008
 24
682.88676881496
 34
0.0
100
AcDbRotatedDimension
1001
ACAD
1000
DSTYLE
1002
{
1070
   270
1070
     2
1070
     6
1000
EX_NORM
1070
     7
1000
EX_NORM
1070
    41
1040
18.0
1070
    42
1040
9.0
1070
    44
1040
6.0
1070
    73
1070
     0
1070
    74
1070
     0
1070
    75
1070
     0
1070
    76
1070
     1
1070
    77
1070
     1
1070
    78
1070
     8
1070
   140
1040
20.77742494226328
1070
   147
1040
0.0
1070
   173
1070
     1
1070
   176
1070
     2
1070
   177
1070
     2
1070
   178
1070
     2
1070
   271
1070
     2
1070
   277
1070
     2
1070
   279
1070
     2
1070
   280
1070
     2
1070
   287
1070
     5
1070
   340
1005
113
1002
}
  0
DIMENSION
  5
12E
330
1F
100
AcDbEntity
  8
Ｓ_１_１
  6
CONTINUOUS
 62
     2
100
AcDbDimension
  2
*D17
 10
1640.0
 20
440.0
 30
0.0
 11
1337.500004
 21
456.5
 31
0.0
 70
   160
  3
ISO-25
100
AcDbAlignedDimension
 13
1035.000008
 23
682.88676881496
 33
0.0
 14
1640.0
 24
625.00008300004
 34
0.0
100
AcDbRotatedDimension
1001
ACAD
1000
DSTYLE
1002
{
1070
   270
1070
     2
1070
     6
1000
EX_NORM
1070
     7
1000
EX_NORM
1070
    41
1040
18.0
1070
    42
1040
9.0
1070
    44
1040
6.0
1070
    73
1070
     0
1070
    74
1070
     0
1070
    75
1070
     0
1070
    76
1070
     0
1070
    77
1070
     1
1070
    78
1070
     8
1070
   140
1040
20.77742494226328
1070
   147
1040
0.0
1070
   173
1070
     1
1070
   176
1070
     2
1070
   177
1070
     2
1070
   178
1070
     2
1070
   271
1070
     2
1070
   277
1070
     2
1070
   279
1070
     2
1070
   280
1070
     0
1070
   287
1070
     5
1070
   340
1005
113
1002
}
  0
DIMENSION
  5
13B
330
1F
100
AcDbEntity
  8
Ｓ_１_１
  6
CONTINUOUS
 62
     2
100
AcDbDimension
  2
*D18
 10
919.9999999999999
 20
920.0
 30
0.0
 11
903.4999999999999
 21
800.0000074999997
 31
0.0
 70
   160
  1
%%c240
  3
ISO-25
100
AcDbAlignedDimension
 13
1040.000008
 23
680.0000149999997
 33
0.0
 14
1040.000008
 24
919.9999999999999
 34
0.0
 50
90.0
100
AcDbRotatedDimension
1001
ACAD
1000
DSTYLE
1002
{
1070
   270
1070
     2
1070
     6
1000
EX_NORM
1070
     7
1000
EX_NORM
1070
    41
1040
18.0
1070
    42
1040
9.0
1070
    44
1040
6.0
1070
    73
1070
     0
1070
    74
1070
     0
1070
    75
1070
     0
1070
    76
1070
     0
1070
    77
1070
     1
1070
    78
1070
     8
1070
   140
1040
20.77742494226328
1070
   147
1040
0.0
1070
   173
1070
     1
1070
   176
1070
     2
1070
   177
1070
     2
1070
   178
1070
     2
1070
   271
1070
     2
1070
   277
1070
     2
1070
   279
1070
     2
1070
   280
1070
     0
1070
   287
1070
     5
1070
   340
1005
113
1002
}
  0
DIMENSION
  5
148
330
1F
100
AcDbEntity
  8
Ｓ_１_１
  6
CONTINUOUS
 62
     2
100
AcDbDimension
  2
*D19
 10
1720.0
 20
740.0
 30
0.0
 11
1703.5
 21
799.9999999999999
 31
0.0
 70
   160
  1
%%c120
  3
ISO-25
100
AcDbAlignedDimension
 13
1640.0
 23
859.9999999999999
 33
0.0
 14
1640.0
 24
740.0
 34
0.0
 50
90.0
100
AcDbRotatedDimension
1001
ACAD
1000
DSTYLE
1002
{
1070
   270
1070
     2
1070
     6
1000
EX_NORM
1070
     7
1000
EX_NORM
1070
    41
1040
18.0
1070
    42
1040
9.0
1070
    44
1040
6.0
1070
    73
1070
     0
1070
    74
1070
     0
1070
    75
1070
     0
1070
    76
1070
     0
1070
    77
1070
     1
1070
    78
1070
     8
1070
   140
1040
20.77742494226328
1070
   147
1040
0.0
1070
   173
1070
     1
1070
   176
1070
     2
1070
   177
1070
     2
1070
   178
1070
     2
1070
   271
1070
     2
1070
   277
1070
     2
1070
   279
1070
     2
1070
   280
1070
     0
1070
   287
1070
     5
1070
   340
1005
113
1002
}
  0
DIMENSION
  5
155
330
1F
100
AcDbEntity
  8
Ｓ_１_１
  6
CONTINUOUS
 62
     2
100
AcDbDimension
  2
*D20
 10
1760.0
 20
620.0000149999997
 30
0.0
 11
1743.5
 21
800.0000074999997
 31
0.0
 70
   160
  1
%%c360
  3
ISO-25
100
AcDbAlignedDimension
 13
1635.0
 23
979.9999999999999
 33
0.0
 14
1635.0
 24
620.0000149999997
 34
0.0
 50
90.0
100
AcDbRotatedDimension
1001
ACAD
1000
DSTYLE
1002
{
1070
   270
1070
     2
1070
     6
1000
EX_NORM
1070
     7
1000
EX_NORM
1070
    41
1040
18.0
1070
    42
1040
9.0
1070
    44
1040
6.0
1070
    73
1070
     0
1070
    74
1070
     0
1070
    75
1070
     1
1070
    76
1070
     0
1070
    77
1070
     1
1070
    78
1070
     8
1070
   140
1040
20.77742494226328
1070
   147
1040
0.0
1070
   173
1070
     1
1070
   176
1070
     2
1070
   177
1070
     2
1070
   178
1070
     2
1070
   271
1070
     2
1070
   277
1070
     2
1070
   279
1070
     2
1070
   280
1070
     0
1070
   287
1070
     5
1070
   340
1005
113
1002
}
  0
DIMENSION
  5
161
330
1F
100
AcDbEntity
  8
Ｓ_１_１
  6
CONTINUOUS
 62
     2
100
AcDbDimension
  2
*D21
 10
1760.0
 20
1068.0
 30
0.0
 11
1743.5
 21
1024.0
 31
0.0
 70
   160
  1
(88)
  3
ISO-25
100
AcDbAlignedDimension
 13
1635.0
 23
979.9999999999999
 33
0.0
 14
1572.0
 24
1068.0
 34
0.0
 50
90.0
100
AcDbRotatedDimension
1001
ACAD
1000
DSTYLE
1002
{
1070
   270
1070
     2
1070
     6
1000
EX_NORM
1070
     7
1000
EX_NORM
1070
    41
1040
18.0
1070
    42
1040
9.0
1070
    44
1040
6.0
1070
    73
1070
     0
1070
    74
1070
     0
1070
    75
1070
     0
1070
    76
1070
     0
1070
    77
1070
     1
1070
    78
1070
     8
1070
   140
1040
20.77742494226328
1070
   147
1040
0.0
1070
   173
1070
     1
1070
   176
1070
     2
1070
   177
1070
     2
1070
   178
1070
     2
1070
   271
1070
     2
1070
   277
1070
     2
1070
   279
1070
     2
1070
   280
1070
     0
1070
   287
1070
     5
1070
   340
1005
113
1002
}
  0
DIMENSION
  5
16E
330
1F
100
AcDbEntity
  8
Ｓ_１_１
  6
CONTINUOUS
 62
     2
100
AcDbDimension
  2
*D22
 10
397.500183000001
 20
657.105686375567
 30
0.0
 11
592.9584534406956
 21
1028.649341538401
 31
0.0
 70
   163
  1
P.C.D 330
  3
ISO-25
100
AcDbDiametricDimension
 15
562.5001829999987
 25
942.8940696244329
 35
0.0
 40
0.0
1001
ACAD
1000
DSTYLE
1002
{
1070
   270
1070
     2
1070
     6
1000
EX_NORM
1070
     7
1000
EX_NORM
1070
    41
1040
18.0
1070
    73
1070
     0
1070
    74
1070
     0
1070
    77
1070
     1
1070
    78
1070
     8
1070
   140
1040
20.77742494226328
1070
   147
1040
0.0
1070
   173
1070
     1
1070
   176
1070
     2
1070
   177
1070
     2
1070
   178
1070
     2
1070
   271
1070
     2
1070
   277
1070
     2
1070
   279
1070
     2
1070
   280
1070
     0
1070
   287
1070
     5
1070
   340
1005
113
1002
}
  0
DIMENSION
  5
179
330
1F
100
AcDbEntity
  8
Ｓ_１_１
  6
CONTINUOUS
 62
     2
100
AcDbDimension
  2
*D23
 10
393.0668586339843
 20
823.2935920592284
 30
0.0
 11
727.8893439004129
 21
733.5781775243008
 31
0.0
 70
   163
  1
P.C.D 180
  3
ISO-25
100
AcDbDiametricDimension
 15
566.9335073660159
 25
776.7061639407715
 35
0.0
 40
0.0
1001
ACAD
1000
DSTYLE
1002
{
1070
   270
1070
     2
1070
     6
1000
EX_NORM
1070
     7
1000
EX_NORM
1070
    41
1040
18.0
1070
    73
1070
     0
1070
    74
1070
     0
1070
    77
1070
     1
1070
    78
1070
     8
1070
   140
1040
20.77742494226328
1070
   147
1040
3.0
1070
   173
1070
     1
1070
   176
1070
     2
1070
   177
1070
     2
1070
   178
1070
     2
1070
   271
1070
     2
1070
   277
1070
     2
1070
   279
1070
     0
1070
   280
1070
     0
1070
   287
1070
     3
1070
   340
1005
113
1002
}
  0
TEXT
  5
185
330
1F
100
AcDbEntity
  8
Ｓ_１_１
  6
CONTINUOUS
 62
     4
100
AcDbText
 10
547.5000000000001
 20
1133.3910096017
 30
0.0
 40
20.77742494226328
  1
8-M12ネジ深20
 41
0.999230769230769
  7
EXCADTTF1
 72
     5
 11
723.0000000000001
 21
1133.3910096017
 31
0.0
100
AcDbText
  0
LEADER
  5
186
330
1F
100
AcDbEntity
  8
Ｓ_１_１
  6
CONTINUOUS
 62
     2
100
AcDbLeader
  3
ISO-25
 76
     3
 10
484.6095666675401
 20
968.8412399988098
 30
0.0
 10
526.8793273800702
 20
1126.5941346017
 30
0.0
 10
723.0
 20
1126.5941346017
 30
0.0
1001
ACAD
1000
DSTYLE
1002
{
1070
     5
1000
EX_NORM
1070
    41
1040
18.0
1070
   341
1005
78
1002
}
  0
TEXT
  5
187
330
1F
100
AcDbEntity
  8
Ｓ_１_１
  6
CONTINUOUS
 62
     4
100
AcDbText
 10
702.8999999999995
 20
926.9283096554398
 30
0.0
 40
20.77742494226328
  1
8-M12ネジ深20
 41
0.999230769230769
  7
EXCADTTF1
 72
     5
 11
878.3999999999995
 21
926.9283096554398
 31
0.0
100
AcDbText
  0
LEADER
  5
188
330
1F
100
AcDbEntity
  8
Ｓ_１_１
  6
CONTINUOUS
 62
     2
100
AcDbLeader
  3
ISO-25
 76
     3
 10
574.6852585728102
 20
803.7481278836999
 30
0.0
 10
691.0685653445603
 20
920.1314346554398
 30
0.0
 10
878.3999999999995
 20
920.1314346554398
 30
0.0
1001
ACAD
1000
DSTYLE
1002
{
1070
     5
1000
EX_NORM
1070
    41
1040
18.0
1070
   341
1005
78
1002
}
  0
DIMENSION
  5
189
330
1F
100
AcDbEntity
  8
Ｓ_１_１
  6
CONTINUOUS
 62
     2
100
AcDbDimension
  2
*D24
 10
761.2132638036919
 20
561.2132635424832
 30
0.0
 11
771.8198654072023
 21
595.1543890751524
 31
0.0
 70
   160
  3
ISO-25
100
AcDbAlignedDimension
 13
667.3834879999999
 23
570.190225
 33
0.0
 14
709.8098948571401
 24
612.61663214286
 34
0.0
 50
225.0000001929287
100
AcDbRotatedDimension
1001
ACAD
1000
DSTYLE
1002
{
1070
   270
1070
     2
1070
     6
1000
EX_NORM
1070
     7
1000
EX_NORM
1070
    41
1040
18.0
1070
    42
1040
8.999999999999993
1070
    44
1040
5.999999999999968
1070
    73
1070
     0
1070
    74
1070
     0
1070
    75
1070
     0
1070
    76
1070
     0
1070
    77
1070
     1
1070
    78
1070
     8
1070
   140
1040
20.77742494226328
1070
   147
1040
0.0
1070
   173
1070
     1
1070
   176
1070
     2
1070
   177
1070
     2
1070
   178
1070
     2
1070
   271
1070
     2
1070
   277
1070
     2
1070
   279
1070
     2
1070
   280
1070
     2
1070
   287
1070
     5
1070
   340
1005
113
1002
}
  0
DIMENSION
  5
196
330
1F
100
AcDbEntity
  8
Ｓ_１_１
  6
CONTINUOUS
 62
     2
100
AcDbDimension
  2
*D25
 10
250.2532010000008
 20
549.7467990000007
 30
0.0
 11
284.194326496955
 21
539.140197282203
 31
0.0
 70
   160
  3
ISO-25
100
AcDbAlignedDimension
 13
278.8283110000002
 23
619.3341029999997
 33
0.0
 14
299.3344079999997
 24
598.8280059999997
 34
0.0
 50
135.0000000000001
100
AcDbRotatedDimension
1001
ACAD
1000
DSTYLE
1002
{
1070
   270
1070
     2
1070
     6
1000
EX_NORM
1070
     7
1000
EX_NORM
1070
    41
1040
18.0
1070
    42
1040
8.999999999999993
1070
    44
1040
5.999999999999968
1070
    73
1070
     0
1070
    74
1070
     0
1070
    75
1070
     0
1070
    76
1070
     0
1070
    77
1070
     1
1070
    78
1070
     8
1070
   140
1040
20.77742494226328
1070
   147
1040
0.0
1070
   173
1070
     1
1070
   176
1070
     2
1070
   177
1070
     2
1070
   178
1070
     2
1070
   271
1070
     2
1070
   277
1070
     2
1070
   279
1070
     2
1070
   280
1070
     2
1070
   287
1070
     5
1070
   340
1005
113
1002
}
  0
DIMENSION
  5
1A5
330
1F
100
AcDbEntity
  8
Ｓ_１_１
  6
CONTINUOUS
 62
     2
100
AcDbDimension
  2
*D26
 10
1978.578032239648
 20
772.823878264232
 30
0.0
 11
2329.422332250974
 21
866.8323251213417
 31
0.0
 70
   163
  1
P.C.D 210
  3
ISO-25
100
AcDbDiametricDimension
 15
2181.422455760351
 25
827.175877735768
 35
0.0
 40
0.0
1001
ACAD
1000
DSTYLE
1002
{
1070
   270
1070
     2
1070
     6
1000
EX_NORM
1070
     7
1000
EX_NORM
1070
    41
1040
18.0
1070
    73
1070
     0
1070
    74
1070
     0
1070
    77
1070
     1
1070
    78
1070
     8
1070
   140
1040
20.77742494226328
1070
   147
1040
3.0
1070
   173
1070
     1
1070
   176
1070
     2
1070
   177
1070
     2
1070
   178
1070
     2
1070
   271
1070
     2
1070
   277
1070
     2
1070
   279
1070
     0
1070
   280
1070
     0
1070
   287
1070
     3
1070
   340
1005
113
1002
}
  0
TEXT
  5
1B1
330
1F
100
AcDbEntity
  8
Ｓ_１_１
  6
CONTINUOUS
 62
     4
100
AcDbText
 10
2208.9
 20
1054.89190808391
 30
0.0
 40
20.77742494226328
  1
4-M20ネジ深30
 41
0.999230769230769
  7
EXCADTTF1
 72
     5
 11
2384.4
 21
1054.89190808391
 31
0.0
100
AcDbText
  0
LEADER
  5
1B2
330
1F
100
AcDbEntity
  8
Ｓ_１_１
  6
CONTINUOUS
 62
     2
100
AcDbLeader
  3
ISO-25
 76
     3
 10
2155.0689603259
 20
884.21221125868
 30
0.0
 10
2198.9812300873
 20
1048.09503308391
 30
0.0
 10
2384.4
 20
1048.09503308391
 30
0.0
1001
ACAD
1000
DSTYLE
1002
{
1070
     5
1000
EX_NORM
1070
    41
1040
18.0
1070
   341
1005
78
1002
}
  0
LINE
  5
1B3
330
1F
100
AcDbEntity
  8
Ｓ_１_１
  6
EXLTYPE2
 62
     1
100
AcDbLine
 10
1560.0
 20
1071.57196
 30
0.0
 11
1560.0
 21
968.0555110000001
 31
0.0
  0
LINE
  5
1B4
330
1F
100
AcDbEntity
  8
Ｓ_１_１
  6
EXLTYPE2
 62
     1
100
AcDbLine
 10
1022.600105
 20
799.9999999999999
 30
0.0
 11
1658.725098
 21
799.9999999999999
 31
0.0
  0
LINE
  5
1B5
330
1F
100
AcDbEntity
  8
Ｓ_１_１
  6
EXLTYPE2
 62
     1
100
AcDbLine
 10
1026.10009
 20
890.0000000000001
 30
0.0
 11
1085.000008
 21
890.0000000000001
 31
0.0
  0
LINE
  5
1B6
330
1F
100
AcDbEntity
  8
Ｓ_１_１
  6
EXLTYPE2
 62
     1
100
AcDbLine
 10
1027.850121
 20
710.0000149999997
 30
0.0
 11
1085.000008
 21
710.0000149999997
 31
0.0
  0
LINE
  5
1B7
330
1F
100
AcDbEntity
  8
Ｓ_１_１
  6
EXLTYPE2
 62
     1
100
AcDbLine
 10
1618.002990999999
 20
695.0000149999997
 30
0.0
 11
1656.950073
 21
695.0000149999997
 31
0.0
  0
LINE
  5
1B8
330
1F
100
AcDbEntity
  8
Ｓ_１_１
  6
EXLTYPE2
 62
     1
100
AcDbLine
 10
1618.002990999999
 20
905.0000000000001
 30
0.0
 11
1656.950073
 21
905.0000000000001
 31
0.0
  0
POLYLINE
  5
1B9
330
1F
100
AcDbEntity
  8
Ｓ_１_１
  6
CONTINUOUS
 62
     3
100
AcDb2dPolyline
 66
     1
 10
0.0
 20
0.0
 30
0.0
 70
   128
  0
VERTEX
  5
1BA
330
1B9
100
AcDbEntity
  8
Ｓ_１_１
  6
CONTINUOUS
 62
     3
100
AcDbVertex
100
AcDb2dVertex
 10
1130.000008
 20
640.9009859999998
 30
0.0
  0
VERTEX
  5
1BB
330
1B9
100
AcDbEntity
  8
Ｓ_１_１
  6
CONTINUOUS
 62
     3
100
AcDbVertex
100
AcDb2dVertex
 10
1130.076114
 20
639.668417
 30
0.0
  0
VERTEX
  5
1BC
330
1B9
100
AcDbEntity
  8
Ｓ_１_１
  6
CONTINUOUS
 62
     3
100
AcDbVertex
100
AcDb2dVertex
 10
1130.303853
 20
638.4452299999999
 30
0.0
  0
VERTEX
  5
1BD
330
1B9
100
AcDbEntity
  8
Ｓ_１_１
  6
CONTINUOUS
 62
     3
100
AcDbVertex
100
AcDb2dVertex
 10
1130.681491
 20
637.2407319999999
 30
0.0
  0
VERTEX
  5
1BE
330
1B9
100
AcDbEntity
  8
Ｓ_１_１
  6
CONTINUOUS
 62
     3
100
AcDbVertex
100
AcDb2dVertex
 10
1131.206155
 20
636.06409
 30
0.0
  0
VERTEX
  5
1BF
330
1B9
100
AcDbEntity
  8
Ｓ_１_１
  6
CONTINUOUS
 62
     3
100
AcDbVertex
100
AcDb2dVertex
 10
1131.873852
 20
634.9242609999998
 30
0.0
  0
VERTEX
  5
1C0
330
1B9
100
AcDbEntity
  8
Ｓ_１_１
  6
CONTINUOUS
 62
     3
100
AcDbVertex
100
AcDb2dVertex
 10
1132.6795
 20
633.8299179999998
 30
0.0
  0
VERTEX
  5
1C1
330
1B9
100
AcDbEntity
  8
Ｓ_１_１
  6
CONTINUOUS
 62
     3
100
AcDbVertex
100
AcDb2dVertex
 10
1133.616967
 20
632.7893899999998
 30
0.0
  0
VERTEX
  5
1C2
330
1B9
100
AcDbEntity
  8
Ｓ_１_１
  6
CONTINUOUS
 62
     3
100
AcDbVertex
100
AcDb2dVertex
 10
1134.679119
 20
631.8105959999999
 30
0.0
  0
VERTEX
  5
1C3
330
1B9
100
AcDbEntity
  8
Ｓ_１_１
  6
CONTINUOUS
 62
     3
100
AcDbVertex
100
AcDb2dVertex
 10
1135.857872
 20
630.9009859999998
 30
0.0
  0
VERTEX
  5
1C4
330
1B9
100
AcDbEntity
  8
Ｓ_１_１
  6
CONTINUOUS
 62
     3
100
AcDbVertex
100
AcDb2dVertex
 10
1137.144255
 20
630.0674809999997
 30
0.0
  0
VERTEX
  5
1C5
330
1B9
100
AcDbEntity
  8
Ｓ_１_１
  6
CONTINUOUS
 62
     3
100
AcDbVertex
100
AcDb2dVertex
 10
1138.528479
 20
629.316426
 30
0.0
  0
VERTEX
  5
1C6
330
1B9
100
AcDbEntity
  8
Ｓ_１_１
  6
CONTINUOUS
 62
     3
100
AcDbVertex
100
AcDb2dVertex
 10
1140.000008
 20
628.6535369999998
 30
0.0
  0
VERTEX
  5
1C7
330
1B9
100
AcDbEntity
  8
Ｓ_１_１
  6
CONTINUOUS
 62
     3
100
AcDbVertex
100
AcDb2dVertex
 10
1141.547642
 20
628.0838579999999
 30
0.0
  0
VERTEX
  5
1C8
330
1B9
100
AcDbEntity
  8
Ｓ_１_１
  6
CONTINUOUS
 62
     3
100
AcDbVertex
100
AcDb2dVertex
 10
1143.159605
 20
627.6117249999999
 30
0.0
  0
VERTEX
  5
1C9
330
1B9
100
AcDbEntity
  8
Ｓ_１_１
  6
CONTINUOUS
 62
     3
100
AcDbVertex
100
AcDb2dVertex
 10
1144.823627
 20
627.2407319999999
 30
0.0
  0
VERTEX
  5
1CA
330
1B9
100
AcDbEntity
  8
Ｓ_１_１
  6
CONTINUOUS
 62
     3
100
AcDbVertex
100
AcDb2dVertex
 10
1146.527044
 20
626.9737009999998
 30
0.0
  0
VERTEX
  5
1CB
330
1B9
100
AcDbEntity
  8
Ｓ_１_１
  6
CONTINUOUS
 62
     3
100
AcDbVertex
100
AcDb2dVertex
 10
1148.256893
 20
626.8126649999998
 30
0.0
  0
VERTEX
  5
1CC
330
1B9
100
AcDbEntity
  8
Ｓ_１_１
  6
CONTINUOUS
 62
     3
100
AcDbVertex
100
AcDb2dVertex
 10
1150.000008
 20
626.7588499999998
 30
0.0
  0
VERTEX
  5
1CD
330
1B9
100
AcDbEntity
  8
Ｓ_１_１
  6
CONTINUOUS
 62
     3
100
AcDbVertex
100
AcDb2dVertex
 10
1151.743122
 20
626.8126649999998
 30
0.0
  0
VERTEX
  5
1CE
330
1B9
100
AcDbEntity
  8
Ｓ_１_１
  6
CONTINUOUS
 62
     3
100
AcDbVertex
100
AcDb2dVertex
 10
1153.472971
 20
626.9737009999998
 30
0.0
  0
VERTEX
  5
1CF
330
1B9
100
AcDbEntity
  8
Ｓ_１_１
  6
CONTINUOUS
 62
     3
100
AcDbVertex
100
AcDb2dVertex
 10
1155.176389
 20
627.2407319999999
 30
0.0
  0
VERTEX
  5
1D0
330
1B9
100
AcDbEntity
  8
Ｓ_１_１
  6
CONTINUOUS
 62
     3
100
AcDbVertex
100
AcDb2dVertex
 10
1156.84041
 20
627.6117249999999
 30
0.0
  0
VERTEX
  5
1D1
330
1B9
100
AcDbEntity
  8
Ｓ_１_１
  6
CONTINUOUS
 62
     3
100
AcDbVertex
100
AcDb2dVertex
 10
1158.452373
 20
628.0838579999999
 30
0.0
  0
VERTEX
  5
1D2
330
1B9
100
AcDbEntity
  8
Ｓ_１_１
  6
CONTINUOUS
 62
     3
100
AcDbVertex
100
AcDb2dVertex
 10
1160.000008
 20
628.6535369999998
 30
0.0
  0
VERTEX
  5
1D3
330
1B9
100
AcDbEntity
  8
Ｓ_１_１
  6
CONTINUOUS
 62
     3
100
AcDbVertex
100
AcDb2dVertex
 10
1161.471536
 20
629.316426
 30
0.0
  0
VERTEX
  5
1D4
330
1B9
100
AcDbEntity
  8
Ｓ_１_１
  6
CONTINUOUS
 62
     3
100
AcDbVertex
100
AcDb2dVertex
 10
1162.85576
 20
630.0674809999997
 30
0.0
  0
VERTEX
  5
1D5
330
1B9
100
AcDbEntity
  8
Ｓ_１_１
  6
CONTINUOUS
 62
     3
100
AcDbVertex
100
AcDb2dVertex
 10
1164.142143
 20
630.9009859999998
 30
0.0
  0
VERTEX
  5
1D6
330
1B9
100
AcDbEntity
  8
Ｓ_１_１
  6
CONTINUOUS
 62
     3
100
AcDbVertex
100
AcDb2dVertex
 10
1165.320896
 20
631.8105959999999
 30
0.0
  0
VERTEX
  5
1D7
330
1B9
100
AcDbEntity
  8
Ｓ_１_１
  6
CONTINUOUS
 62
     3
100
AcDbVertex
100
AcDb2dVertex
 10
1166.383049
 20
632.7893899999998
 30
0.0
  0
VERTEX
  5
1D8
330
1B9
100
AcDbEntity
  8
Ｓ_１_１
  6
CONTINUOUS
 62
     3
100
AcDbVertex
100
AcDb2dVertex
 10
1167.320516
 20
633.8299179999998
 30
0.0
  0
VERTEX
  5
1D9
330
1B9
100
AcDbEntity
  8
Ｓ_１_１
  6
CONTINUOUS
 62
     3
100
AcDbVertex
100
AcDb2dVertex
 10
1168.126163
 20
634.9242609999998
 30
0.0
  0
VERTEX
  5
1DA
330
1B9
100
AcDbEntity
  8
Ｓ_１_１
  6
CONTINUOUS
 62
     3
100
AcDbVertex
100
AcDb2dVertex
 10
1168.79386
 20
636.06409
 30
0.0
  0
VERTEX
  5
1DB
330
1B9
100
AcDbEntity
  8
Ｓ_１_１
  6
CONTINUOUS
 62
     3
100
AcDbVertex
100
AcDb2dVertex
 10
1169.318524
 20
637.2407319999999
 30
0.0
  0
VERTEX
  5
1DC
330
1B9
100
AcDbEntity
  8
Ｓ_１_１
  6
CONTINUOUS
 62
     3
100
AcDbVertex
100
AcDb2dVertex
 10
1169.696163
 20
638.4452299999999
 30
0.0
  0
VERTEX
  5
1DD
330
1B9
100
AcDbEntity
  8
Ｓ_１_１
  6
CONTINUOUS
 62
     3
100
AcDbVertex
100
AcDb2dVertex
 10
1169.923902
 20
639.668417
 30
0.0
  0
VERTEX
  5
1DE
330
1B9
100
AcDbEntity
  8
Ｓ_１_１
  6
CONTINUOUS
 62
     3
100
AcDbVertex
100
AcDb2dVertex
 10
1170.000008
 20
640.9009859999998
 30
0.0
  0
VERTEX
  5
1DF
330
1B9
100
AcDbEntity
  8
Ｓ_１_１
  6
CONTINUOUS
 62
     3
100
AcDbVertex
100
AcDb2dVertex
 10
1169.923902
 20
642.1335539999999
 30
0.0
  0
VERTEX
  5
1E0
330
1B9
100
AcDbEntity
  8
Ｓ_１_１
  6
CONTINUOUS
 62
     3
100
AcDbVertex
100
AcDb2dVertex
 10
1169.696163
 20
643.3567419999998
 30
0.0
  0
VERTEX
  5
1E1
330
1B9
100
AcDbEntity
  8
Ｓ_１_１
  6
CONTINUOUS
 62
     3
100
AcDbVertex
100
AcDb2dVertex
 10
1169.318524
 20
644.5612399999999
 30
0.0
  0
VERTEX
  5
1E2
330
1B9
100
AcDbEntity
  8
Ｓ_１_１
  6
CONTINUOUS
 62
     3
100
AcDbVertex
100
AcDb2dVertex
 10
1168.79386
 20
645.7378809999999
 30
0.0
  0
VERTEX
  5
1E3
330
1B9
100
AcDbEntity
  8
Ｓ_１_１
  6
CONTINUOUS
 62
     3
100
AcDbVertex
100
AcDb2dVertex
 10
1168.126163
 20
646.8777099999999
 30
0.0
  0
VERTEX
  5
1E4
330
1B9
100
AcDbEntity
  8
Ｓ_１_１
  6
CONTINUOUS
 62
     3
100
AcDbVertex
100
AcDb2dVertex
 10
1167.320516
 20
647.9720529999998
 30
0.0
  0
VERTEX
  5
1E5
330
1B9
100
AcDbEntity
  8
Ｓ_１_１
  6
CONTINUOUS
 62
     3
100
AcDbVertex
100
AcDb2dVertex
 10
1166.383049
 20
649.0125809999998
 30
0.0
  0
VERTEX
  5
1E6
330
1B9
100
AcDbEntity
  8
Ｓ_１_１
  6
CONTINUOUS
 62
     3
100
AcDbVertex
100
AcDb2dVertex
 10
1165.320896
 20
649.9913749999997
 30
0.0
  0
VERTEX
  5
1E7
330
1B9
100
AcDbEntity
  8
Ｓ_１_１
  6
CONTINUOUS
 62
     3
100
AcDbVertex
100
AcDb2dVertex
 10
1164.142143
 20
650.9009859999998
 30
0.0
  0
VERTEX
  5
1E8
330
1B9
100
AcDbEntity
  8
Ｓ_１_１
  6
CONTINUOUS
 62
     3
100
AcDbVertex
100
AcDb2dVertex
 10
1162.85576
 20
651.7344899999999
 30
0.0
  0
VERTEX
  5
1E9
330
1B9
100
AcDbEntity
  8
Ｓ_１_１
  6
CONTINUOUS
 62
     3
100
AcDbVertex
100
AcDb2dVertex
 10
1161.471536
 20
652.4855449999999
 30
0.0
  0
VERTEX
  5
1EA
330
1B9
100
AcDbEntity
  8
Ｓ_１_１
  6
CONTINUOUS
 62
     3
100
AcDbVertex
100
AcDb2dVertex
 10
1160.000008
 20
653.1484339999998
 30
0.0
  0
VERTEX
  5
1EB
330
1B9
100
AcDbEntity
  8
Ｓ_１_１
  6
CONTINUOUS
 62
     3
100
AcDbVertex
100
AcDb2dVertex
 10
1158.452373
 20
653.7181129999998
 30
0.0
  0
VERTEX
  5
1EC
330
1B9
100
AcDbEntity
  8
Ｓ_１_１
  6
CONTINUOUS
 62
     3
100
AcDbVertex
100
AcDb2dVertex
 10
1156.84041
 20
654.1902459999998
 30
0.0
  0
VERTEX
  5
1ED
330
1B9
100
AcDbEntity
  8
Ｓ_１_１
  6
CONTINUOUS
 62
     3
100
AcDbVertex
100
AcDb2dVertex
 10
1155.176389
 20
654.5612399999999
 30
0.0
  0
VERTEX
  5
1EE
330
1B9
100
AcDbEntity
  8
Ｓ_１_１
  6
CONTINUOUS
 62
     3
100
AcDbVertex
100
AcDb2dVertex
 10
1153.472971
 20
654.8282699999999
 30
0.0
  0
VERTEX
  5
1EF
330
1B9
100
AcDbEntity
  8
Ｓ_１_１
  6
CONTINUOUS
 62
     3
100
AcDbVertex
100
AcDb2dVertex
 10
1151.743122
 20
654.9893059999998
 30
0.0
  0
VERTEX
  5
1F0
330
1B9
100
AcDbEntity
  8
Ｓ_１_１
  6
CONTINUOUS
 62
     3
100
AcDbVertex
100
AcDb2dVertex
 10
1150.000008
 20
655.0431209999998
 30
0.0
  0
VERTEX
  5
1F1
330
1B9
100
AcDbEntity
  8
Ｓ_１_１
  6
CONTINUOUS
 62
     3
100
AcDbVertex
100
AcDb2dVertex
 10
1148.256893
 20
654.9893059999998
 30
0.0
  0
VERTEX
  5
1F2
330
1B9
100
AcDbEntity
  8
Ｓ_１_１
  6
CONTINUOUS
 62
     3
100
AcDbVertex
100
AcDb2dVertex
 10
1146.527044
 20
654.8282699999999
 30
0.0
  0
VERTEX
  5
1F3
330
1B9
100
AcDbEntity
  8
Ｓ_１_１
  6
CONTINUOUS
 62
     3
100
AcDbVertex
100
AcDb2dVertex
 10
1144.823627
 20
654.5612399999999
 30
0.0
  0
VERTEX
  5
1F4
330
1B9
100
AcDbEntity
  8
Ｓ_１_１
  6
CONTINUOUS
 62
     3
100
AcDbVertex
100
AcDb2dVertex
 10
1143.159605
 20
654.1902459999998
 30
0.0
  0
VERTEX
  5
1F5
330
1B9
100
AcDbEntity
  8
Ｓ_１_１
  6
CONTINUOUS
 62
     3
100
AcDbVertex
100
AcDb2dVertex
 10
1141.547642
 20
653.7181129999998
 30
0.0
  0
VERTEX
  5
1F6
330
1B9
100
AcDbEntity
  8
Ｓ_１_１
  6
CONTINUOUS
 62
     3
100
AcDbVertex
100
AcDb2dVertex
 10
1140.000008
 20
653.1484339999998
 30
0.0
  0
VERTEX
  5
1F7
330
1B9
100
AcDbEntity
  8
Ｓ_１_１
  6
CONTINUOUS
 62
     3
100
AcDbVertex
100
AcDb2dVertex
 10
1138.528479
 20
652.4855449999999
 30
0.0
  0
VERTEX
  5
1F8
330
1B9
100
AcDbEntity
  8
Ｓ_１_１
  6
CONTINUOUS
 62
     3
100
AcDbVertex
100
AcDb2dVertex
 10
1137.144255
 20
651.7344899999999
 30
0.0
  0
VERTEX
  5
1F9
330
1B9
100
AcDbEntity
  8
Ｓ_１_１
  6
CONTINUOUS
 62
     3
100
AcDbVertex
100
AcDb2dVertex
 10
1135.857872
 20
650.9009859999998
 30
0.0
  0
VERTEX
  5
1FA
330
1B9
100
AcDbEntity
  8
Ｓ_１_１
  6
CONTINUOUS
 62
     3
100
AcDbVertex
100
AcDb2dVertex
 10
1134.679119
 20
649.9913749999997
 30
0.0
  0
VERTEX
  5
1FB
330
1B9
100
AcDbEntity
  8
Ｓ_１_１
  6
CONTINUOUS
 62
     3
100
AcDbVertex
100
AcDb2dVertex
 10
1133.616967
 20
649.0125809999998
 30
0.0
  0
VERTEX
  5
1FC
330
1B9
100
AcDbEntity
  8
Ｓ_１_１
  6
CONTINUOUS
 62
     3
100
AcDbVertex
100
AcDb2dVertex
 10
1132.6795
 20
647.9720529999998
 30
0.0
  0
VERTEX
  5
1FD
330
1B9
100
AcDbEntity
  8
Ｓ_１_１
  6
CONTINUOUS
 62
     3
100
AcDbVertex
100
AcDb2dVertex
 10
1131.873852
 20
646.8777099999999
 30
0.0
  0
VERTEX
  5
1FE
330
1B9
100
AcDbEntity
  8
Ｓ_１_１
  6
CONTINUOUS
 62
     3
100
AcDbVertex
100
AcDb2dVertex
 10
1131.206155
 20
645.7378809999999
 30
0.0
  0
VERTEX
  5
1FF
330
1B9
100
AcDbEntity
  8
Ｓ_１_１
  6
CONTINUOUS
 62
     3
100
AcDbVertex
100
AcDb2dVertex
 10
1130.681491
 20
644.5612399999999
 30
0.0
  0
VERTEX
  5
200
330
1B9
100
AcDbEntity
  8
Ｓ_１_１
  6
CONTINUOUS
 62
     3
100
AcDbVertex
100
AcDb2dVertex
 10
1130.303853
 20
643.3567419999998
 30
0.0
  0
VERTEX
  5
201
330
1B9
100
AcDbEntity
  8
Ｓ_１_１
  6
CONTINUOUS
 62
     3
100
AcDbVertex
100
AcDb2dVertex
 10
1130.076114
 20
642.1335539999999
 30
0.0
  0
VERTEX
  5
202
330
1B9
100
AcDbEntity
  8
Ｓ_１_１
  6
CONTINUOUS
 62
     3
100
AcDbVertex
100
AcDb2dVertex
 10
1130.000008
 20
640.9009859999998
 30
0.0
  0
SEQEND
  5
203
330
1B9
100
AcDbEntity
  8
Ｓ_１_１
  6
CONTINUOUS
 62
     3
  0
POLYLINE
  5
204
330
1F
100
AcDbEntity
  8
Ｓ_１_１
  6
CONTINUOUS
 62
     3
100
AcDb2dPolyline
 66
     1
 10
0.0
 20
0.0
 30
0.0
 70
   128
  0
VERTEX
  5
205
330
204
100
AcDbEntity
  8
Ｓ_１_１
  6
CONTINUOUS
 62
     3
100
AcDbVertex
100
AcDb2dVertex
 10
1578.376043
 20
980.8650509999999
 30
0.0
  0
VERTEX
  5
206
330
204
100
AcDbEntity
  8
Ｓ_１_１
  6
CONTINUOUS
 62
     3
100
AcDbVertex
100
AcDb2dVertex
 10
1576.380464
 20
984.644769
 30
0.0
  0
VERTEX
  5
207
330
204
100
AcDbEntity
  8
Ｓ_１_１
  6
CONTINUOUS
 62
     3
100
AcDbVertex
100
AcDb2dVertex
 10
1573.644659
 20
988.185266
 30
0.0
  0
VERTEX
  5
208
330
204
100
AcDbEntity
  8
Ｓ_１_１
  6
CONTINUOUS
 62
     3
100
AcDbVertex
100
AcDb2dVertex
 10
1570.224292
 20
991.4145049999998
 30
0.0
  0
VERTEX
  5
209
330
204
100
AcDbEntity
  8
Ｓ_１_１
  6
CONTINUOUS
 62
     3
100
AcDbVertex
100
AcDb2dVertex
 10
1566.188959
 20
994.2667809999998
 30
0.0
  0
VERTEX
  5
20A
330
204
100
AcDbEntity
  8
Ｓ_１_１
  6
CONTINUOUS
 62
     3
100
AcDbVertex
100
AcDb2dVertex
 10
1561.620764
 20
996.6840589999997
 30
0.0
  0
VERTEX
  5
20B
330
204
100
AcDbEntity
  8
Ｓ_１_１
  6
CONTINUOUS
 62
     3
100
AcDbVertex
100
AcDb2dVertex
 10
1556.612655
 20
998.6171559999999
 30
0.0
  0
VERTEX
  5
20C
330
204
100
AcDbEntity
  8
Ｓ_１_１
  6
CONTINUOUS
 62
     3
100
AcDbVertex
100
AcDb2dVertex
 10
1551.266533
 20
1000.026738
 30
0.0
  0
VERTEX
  5
20D
330
204
100
AcDbEntity
  8
Ｓ_１_１
  6
CONTINUOUS
 62
     3
100
AcDbVertex
100
AcDb2dVertex
 10
1545.691172
 20
1000.884126
 30
0.0
  0
VERTEX
  5
20E
330
204
100
AcDbEntity
  8
Ｓ_１_１
  6
CONTINUOUS
 62
     3
100
AcDbVertex
100
AcDb2dVertex
 10
1540.000015
 20
1001.171875
 30
0.0
  0
VERTEX
  5
20F
330
204
100
AcDbEntity
  8
Ｓ_１_１
  6
CONTINUOUS
 62
     3
100
AcDbVertex
100
AcDb2dVertex
 10
1534.308857
 20
1000.884129
 30
0.0
  0
VERTEX
  5
210
330
204
100
AcDbEntity
  8
Ｓ_１_１
  6
CONTINUOUS
 62
     3
100
AcDbVertex
100
AcDb2dVertex
 10
1528.733496
 20
1000.026744
 30
0.0
  0
VERTEX
  5
211
330
204
100
AcDbEntity
  8
Ｓ_１_１
  6
CONTINUOUS
 62
     3
100
AcDbVertex
100
AcDb2dVertex
 10
1523.387372
 20
998.6171639999999
 30
0.0
  0
VERTEX
  5
212
330
204
100
AcDbEntity
  8
Ｓ_１_１
  6
CONTINUOUS
 62
     3
100
AcDbVertex
100
AcDb2dVertex
 10
1518.379261
 20
996.6840699999999
 30
0.0
  0
VERTEX
  5
213
330
204
100
AcDbEntity
  8
Ｓ_１_１
  6
CONTINUOUS
 62
     3
100
AcDbVertex
100
AcDb2dVertex
 10
1513.811064
 20
994.2667950000001
 30
0.0
  0
VERTEX
  5
214
330
204
100
AcDbEntity
  8
Ｓ_１_１
  6
CONTINUOUS
 62
     3
100
AcDbVertex
100
AcDb2dVertex
 10
1509.775727
 20
991.4145209999998
 30
0.0
  0
VERTEX
  5
215
330
204
100
AcDbEntity
  8
Ｓ_１_１
  6
CONTINUOUS
 62
     3
100
AcDbVertex
100
AcDb2dVertex
 10
1506.355357
 20
988.1852839999998
 30
0.0
  0
VERTEX
  5
216
330
204
100
AcDbEntity
  8
Ｓ_１_１
  6
CONTINUOUS
 62
     3
100
AcDbVertex
100
AcDb2dVertex
 10
1503.619549
 20
984.6447879999996
 30
0.0
  0
VERTEX
  5
217
330
204
100
AcDbEntity
  8
Ｓ_１_１
  6
CONTINUOUS
 62
     3
100
AcDbVertex
100
AcDb2dVertex
 10
1501.623965
 20
980.8650709999998
 30
0.0
  0
SEQEND
  5
218
330
204
100
AcDbEntity
  8
Ｓ_１_１
  6
CONTINUOUS
 62
     3
  0
POLYLINE
  5
219
330
1F
100
AcDbEntity
  8
Ｓ_１_１
  6
CONTINUOUS
 62
     3
100
AcDb2dPolyline
 66
     1
 10
0.0
 20
0.0
 30
0.0
 70
   128
  0
VERTEX
  5
21A
330
219
100
AcDbEntity
  8
Ｓ_１_１
  6
CONTINUOUS
 62
     3
100
AcDbVertex
100
AcDb2dVertex
 10
1526.225032
 20
962.6345640000001
 30
0.0
  0
VERTEX
  5
21B
330
219
100
AcDbEntity
  8
Ｓ_１_１
  6
CONTINUOUS
 62
     3
100
AcDbVertex
100
AcDb2dVertex
 10
1528.578596
 20
961.278323
 30
0.0
  0
VERTEX
  5
21C
330
219
100
AcDbEntity
  8
Ｓ_１_１
  6
CONTINUOUS
 62
     3
100
AcDbVertex
100
AcDb2dVertex
 10
1531.195367
 20
960.189618
 30
0.0
  0
VERTEX
  5
21D
330
219
100
AcDbEntity
  8
Ｓ_１_１
  6
CONTINUOUS
 62
     3
100
AcDbVertex
100
AcDb2dVertex
 10
1534.015043
 20
959.393541
 30
0.0
  0
VERTEX
  5
21E
330
219
100
AcDbEntity
  8
Ｓ_１_１
  6
CONTINUOUS
 62
     3
100
AcDbVertex
100
AcDb2dVertex
 10
1536.972642
 20
958.9084359999998
 30
0.0
  0
VERTEX
  5
21F
330
219
100
AcDbEntity
  8
Ｓ_１_１
  6
CONTINUOUS
 62
     3
100
AcDbVertex
100
AcDb2dVertex
 10
1540.000008
 20
958.7454829999998
 30
0.0
  0
VERTEX
  5
220
330
219
100
AcDbEntity
  8
Ｓ_１_１
  6
CONTINUOUS
 62
     3
100
AcDbVertex
100
AcDb2dVertex
 10
1543.027373
 20
958.908438
 30
0.0
  0
VERTEX
  5
221
330
219
100
AcDbEntity
  8
Ｓ_１_１
  6
CONTINUOUS
 62
     3
100
AcDbVertex
100
AcDb2dVertex
 10
1545.984972
 20
959.3935440000001
 30
0.0
  0
VERTEX
  5
222
330
219
100
AcDbEntity
  8
Ｓ_１_１
  6
CONTINUOUS
 62
     3
100
AcDbVertex
100
AcDb2dVertex
 10
1548.804646
 20
960.1896229999998
 30
0.0
  0
VERTEX
  5
223
330
219
100
AcDbEntity
  8
Ｓ_１_１
  6
CONTINUOUS
 62
     3
100
AcDbVertex
100
AcDb2dVertex
 10
1551.421417
 20
961.2783289999999
 30
0.0
  0
VERTEX
  5
224
330
219
100
AcDbEntity
  8
Ｓ_１_１
  6
CONTINUOUS
 62
     3
100
AcDbVertex
100
AcDb2dVertex
 10
1553.774979
 20
962.634572
 30
0.0
  0
SEQEND
  5
225
330
219
100
AcDbEntity
  8
Ｓ_１_１
  6
CONTINUOUS
 62
     3
  0
POLYLINE
  5
226
330
1F
100
AcDbEntity
  8
Ｓ_１_１
  6
CONTINUOUS
 62
     3
100
AcDb2dPolyline
 66
     1
 10
0.0
 20
0.0
 30
0.0
 70
   128
  0
VERTEX
  5
227
330
226
100
AcDbEntity
  8
Ｓ_１_１
  6
CONTINUOUS
 62
     3
100
AcDbVertex
100
AcDb2dVertex
 10
1578.376043
 20
960.3589779999999
 30
0.0
  0
VERTEX
  5
228
330
226
100
AcDbEntity
  8
Ｓ_１_１
  6
CONTINUOUS
 62
     3
100
AcDbVertex
100
AcDb2dVertex
 10
1576.380464
 20
964.1386960000001
 30
0.0
  0
VERTEX
  5
229
330
226
100
AcDbEntity
  8
Ｓ_１_１
  6
CONTINUOUS
 62
     3
100
AcDbVertex
100
AcDb2dVertex
 10
1573.644659
 20
967.679193
 30
0.0
  0
VERTEX
  5
22A
330
226
100
AcDbEntity
  8
Ｓ_１_１
  6
CONTINUOUS
 62
     3
100
AcDbVertex
100
AcDb2dVertex
 10
1570.224292
 20
970.9084319999998
 30
0.0
  0
VERTEX
  5
22B
330
226
100
AcDbEntity
  8
Ｓ_１_１
  6
CONTINUOUS
 62
     3
100
AcDbVertex
100
AcDb2dVertex
 10
1566.188959
 20
973.7607079999999
 30
0.0
  0
VERTEX
  5
22C
330
226
100
AcDbEntity
  8
Ｓ_１_１
  6
CONTINUOUS
 62
     3
100
AcDbVertex
100
AcDb2dVertex
 10
1561.620764
 20
976.1779859999998
 30
0.0
  0
VERTEX
  5
22D
330
226
100
AcDbEntity
  8
Ｓ_１_１
  6
CONTINUOUS
 62
     3
100
AcDbVertex
100
AcDb2dVertex
 10
1556.612655
 20
978.1110829999999
 30
0.0
  0
VERTEX
  5
22E
330
226
100
AcDbEntity
  8
Ｓ_１_１
  6
CONTINUOUS
 62
     3
100
AcDbVertex
100
AcDb2dVertex
 10
1551.266533
 20
979.520665
 30
0.0
  0
VERTEX
  5
22F
330
226
100
AcDbEntity
  8
Ｓ_１_１
  6
CONTINUOUS
 62
     3
100
AcDbVertex
100
AcDb2dVertex
 10
1545.691172
 20
980.378053
 30
0.0
  0
VERTEX
  5
230
330
226
100
AcDbEntity
  8
Ｓ_１_１
  6
CONTINUOUS
 62
     3
100
AcDbVertex
100
AcDb2dVertex
 10
1540.000015
 20
980.665802
 30
0.0
  0
VERTEX
  5
231
330
226
100
AcDbEntity
  8
Ｓ_１_１
  6
CONTINUOUS
 62
     3
100
AcDbVertex
100
AcDb2dVertex
 10
1534.308857
 20
980.378056
 30
0.0
  0
VERTEX
  5
232
330
226
100
AcDbEntity
  8
Ｓ_１_１
  6
CONTINUOUS
 62
     3
100
AcDbVertex
100
AcDb2dVertex
 10
1528.733496
 20
979.5206709999999
 30
0.0
  0
VERTEX
  5
233
330
226
100
AcDbEntity
  8
Ｓ_１_１
  6
CONTINUOUS
 62
     3
100
AcDbVertex
100
AcDb2dVertex
 10
1523.387372
 20
978.1110909999999
 30
0.0
  0
VERTEX
  5
234
330
226
100
AcDbEntity
  8
Ｓ_１_１
  6
CONTINUOUS
 62
     3
100
AcDbVertex
100
AcDb2dVertex
 10
1518.379261
 20
976.1779969999999
 30
0.0
  0
VERTEX
  5
235
330
226
100
AcDbEntity
  8
Ｓ_１_１
  6
CONTINUOUS
 62
     3
100
AcDbVertex
100
AcDb2dVertex
 10
1513.811064
 20
973.760722
 30
0.0
  0
VERTEX
  5
236
330
226
100
AcDbEntity
  8
Ｓ_１_１
  6
CONTINUOUS
 62
     3
100
AcDbVertex
100
AcDb2dVertex
 10
1509.775727
 20
970.9084479999998
 30
0.0
  0
VERTEX
  5
237
330
226
100
AcDbEntity
  8
Ｓ_１_１
  6
CONTINUOUS
 62
     3
100
AcDbVertex
100
AcDb2dVertex
 10
1506.355357
 20
967.6792109999998
 30
0.0
  0
VERTEX
  5
238
330
226
100
AcDbEntity
  8
Ｓ_１_１
  6
CONTINUOUS
 62
     3
100
AcDbVertex
100
AcDb2dVertex
 10
1503.619549
 20
964.1387149999997
 30
0.0
  0
VERTEX
  5
239
330
226
100
AcDbEntity
  8
Ｓ_１_１
  6
CONTINUOUS
 62
     3
100
AcDbVertex
100
AcDb2dVertex
 10
1501.623965
 20
960.3589979999998
 30
0.0
  0
SEQEND
  5
23A
330
226
100
AcDbEntity
  8
Ｓ_１_１
  6
CONTINUOUS
 62
     3
  0
POLYLINE
  5
23B
330
1F
100
AcDbEntity
  8
Ｓ_１_１
  6
CONTINUOUS
 62
     3
100
AcDb2dPolyline
 66
     1
 10
0.0
 20
0.0
 30
0.0
 70
   128
  0
VERTEX
  5
23C
330
23B
100
AcDbEntity
  8
Ｓ_１_１
  6
CONTINUOUS
 62
     3
100
AcDbVertex
100
AcDb2dVertex
 10
1560.0
 20
952.381515
 30
0.0
  0
VERTEX
  5
23D
330
23B
100
AcDbEntity
  8
Ｓ_１_１
  6
CONTINUOUS
 62
     3
100
AcDbVertex
100
AcDb2dVertex
 10
1559.923894
 20
953.6140839999999
 30
0.0
  0
VERTEX
  5
23E
330
23B
100
AcDbEntity
  8
Ｓ_１_１
  6
CONTINUOUS
 62
     3
100
AcDbVertex
100
AcDb2dVertex
 10
1559.696155
 20
954.8372719999999
 30
0.0
  0
VERTEX
  5
23F
330
23B
100
AcDbEntity
  8
Ｓ_１_１
  6
CONTINUOUS
 62
     3
100
AcDbVertex
100
AcDb2dVertex
 10
1559.318517
 20
956.0417699999998
 30
0.0
  0
VERTEX
  5
240
330
23B
100
AcDbEntity
  8
Ｓ_１_１
  6
CONTINUOUS
 62
     3
100
AcDbVertex
100
AcDb2dVertex
 10
1558.793852
 20
957.218411
 30
0.0
  0
VERTEX
  5
241
330
23B
100
AcDbEntity
  8
Ｓ_１_１
  6
CONTINUOUS
 62
     3
100
AcDbVertex
100
AcDb2dVertex
 10
1558.126156
 20
958.3582400000001
 30
0.0
  0
VERTEX
  5
242
330
23B
100
AcDbEntity
  8
Ｓ_１_１
  6
CONTINUOUS
 62
     3
100
AcDbVertex
100
AcDb2dVertex
 10
1557.320508
 20
959.4525829999998
 30
0.0
  0
VERTEX
  5
243
330
23B
100
AcDbEntity
  8
Ｓ_１_１
  6
CONTINUOUS
 62
     3
100
AcDbVertex
100
AcDb2dVertex
 10
1556.383041
 20
960.4931109999999
 30
0.0
  0
VERTEX
  5
244
330
23B
100
AcDbEntity
  8
Ｓ_１_１
  6
CONTINUOUS
 62
     3
100
AcDbVertex
100
AcDb2dVertex
 10
1555.320889
 20
961.471905
 30
0.0
  0
VERTEX
  5
245
330
23B
100
AcDbEntity
  8
Ｓ_１_１
  6
CONTINUOUS
 62
     3
100
AcDbVertex
100
AcDb2dVertex
 10
1554.142136
 20
962.3815150000001
 30
0.0
  0
VERTEX
  5
246
330
23B
100
AcDbEntity
  8
Ｓ_１_１
  6
CONTINUOUS
 62
     3
100
AcDbVertex
100
AcDb2dVertex
 10
1552.855751999999
 20
963.2150199999998
 30
0.0
  0
VERTEX
  5
247
330
23B
100
AcDbEntity
  8
Ｓ_１_１
  6
CONTINUOUS
 62
     3
100
AcDbVertex
100
AcDb2dVertex
 10
1551.471528999999
 20
963.9660749999998
 30
0.0
  0
VERTEX
  5
248
330
23B
100
AcDbEntity
  8
Ｓ_１_１
  6
CONTINUOUS
 62
     3
100
AcDbVertex
100
AcDb2dVertex
 10
1550.0
 20
964.6289640000001
 30
0.0
  0
VERTEX
  5
249
330
23B
100
AcDbEntity
  8
Ｓ_１_１
  6
CONTINUOUS
 62
     3
100
AcDbVertex
100
AcDb2dVertex
 10
1548.452365
 20
965.1986429999997
 30
0.0
  0
VERTEX
  5
24A
330
23B
100
AcDbEntity
  8
Ｓ_１_１
  6
CONTINUOUS
 62
     3
100
AcDbVertex
100
AcDb2dVertex
 10
1546.840403
 20
965.670776
 30
0.0
  0
VERTEX
  5
24B
330
23B
100
AcDbEntity
  8
Ｓ_１_１
  6
CONTINUOUS
 62
     3
100
AcDbVertex
100
AcDb2dVertex
 10
1545.176381
 20
966.0417699999999
 30
0.0
  0
VERTEX
  5
24C
330
23B
100
AcDbEntity
  8
Ｓ_１_１
  6
CONTINUOUS
 62
     3
100
AcDbVertex
100
AcDb2dVertex
 10
1543.472964
 20
966.3087999999999
 30
0.0
  0
VERTEX
  5
24D
330
23B
100
AcDbEntity
  8
Ｓ_１_１
  6
CONTINUOUS
 62
     3
100
AcDbVertex
100
AcDb2dVertex
 10
1541.743115
 20
966.4698359999999
 30
0.0
  0
VERTEX
  5
24E
330
23B
100
AcDbEntity
  8
Ｓ_１_１
  6
CONTINUOUS
 62
     3
100
AcDbVertex
100
AcDb2dVertex
 10
1540.0
 20
966.5236510000001
 30
0.0
  0
VERTEX
  5
24F
330
23B
100
AcDbEntity
  8
Ｓ_１_１
  6
CONTINUOUS
 62
     3
100
AcDbVertex
100
AcDb2dVertex
 10
1538.256885
 20
966.4698359999999
 30
0.0
  0
VERTEX
  5
250
330
23B
100
AcDbEntity
  8
Ｓ_１_１
  6
CONTINUOUS
 62
     3
100
AcDbVertex
100
AcDb2dVertex
 10
1536.527035999999
 20
966.3087999999999
 30
0.0
  0
VERTEX
  5
251
330
23B
100
AcDbEntity
  8
Ｓ_１_１
  6
CONTINUOUS
 62
     3
100
AcDbVertex
100
AcDb2dVertex
 10
1534.823619
 20
966.0417699999999
 30
0.0
  0
VERTEX
  5
252
330
23B
100
AcDbEntity
  8
Ｓ_１_１
  6
CONTINUOUS
 62
     3
100
AcDbVertex
100
AcDb2dVertex
 10
1533.159597
 20
965.670776
 30
0.0
  0
VERTEX
  5
253
330
23B
100
AcDbEntity
  8
Ｓ_１_１
  6
CONTINUOUS
 62
     3
100
AcDbVertex
100
AcDb2dVertex
 10
1531.547635
 20
965.1986429999997
 30
0.0
  0
VERTEX
  5
254
330
23B
100
AcDbEntity
  8
Ｓ_１_１
  6
CONTINUOUS
 62
     3
100
AcDbVertex
100
AcDb2dVertex
 10
1530.0
 20
964.6289640000001
 30
0.0
  0
VERTEX
  5
255
330
23B
100
AcDbEntity
  8
Ｓ_１_１
  6
CONTINUOUS
 62
     3
100
AcDbVertex
100
AcDb2dVertex
 10
1528.528471
 20
963.9660749999998
 30
0.0
  0
VERTEX
  5
256
330
23B
100
AcDbEntity
  8
Ｓ_１_１
  6
CONTINUOUS
 62
     3
100
AcDbVertex
100
AcDb2dVertex
 10
1527.144248
 20
963.2150199999998
 30
0.0
  0
VERTEX
  5
257
330
23B
100
AcDbEntity
  8
Ｓ_１_１
  6
CONTINUOUS
 62
     3
100
AcDbVertex
100
AcDb2dVertex
 10
1525.857864
 20
962.3815150000001
 30
0.0
  0
VERTEX
  5
258
330
23B
100
AcDbEntity
  8
Ｓ_１_１
  6
CONTINUOUS
 62
     3
100
AcDbVertex
100
AcDb2dVertex
 10
1524.679111
 20
961.471905
 30
0.0
  0
VERTEX
  5
259
330
23B
100
AcDbEntity
  8
Ｓ_１_１
  6
CONTINUOUS
 62
     3
100
AcDbVertex
100
AcDb2dVertex
 10
1523.616959
 20
960.4931109999999
 30
0.0
  0
VERTEX
  5
25A
330
23B
100
AcDbEntity
  8
Ｓ_１_１
  6
CONTINUOUS
 62
     3
100
AcDbVertex
100
AcDb2dVertex
 10
1522.679492
 20
959.4525829999998
 30
0.0
  0
VERTEX
  5
25B
330
23B
100
AcDbEntity
  8
Ｓ_１_１
  6
CONTINUOUS
 62
     3
100
AcDbVertex
100
AcDb2dVertex
 10
1521.873844
 20
958.3582400000001
 30
0.0
  0
VERTEX
  5
25C
330
23B
100
AcDbEntity
  8
Ｓ_１_１
  6
CONTINUOUS
 62
     3
100
AcDbVertex
100
AcDb2dVertex
 10
1521.206148
 20
957.218411
 30
0.0
  0
VERTEX
  5
25D
330
23B
100
AcDbEntity
  8
Ｓ_１_１
  6
CONTINUOUS
 62
     3
100
AcDbVertex
100
AcDb2dVertex
 10
1520.681483
 20
956.0417699999998
 30
0.0
  0
VERTEX
  5
25E
330
23B
100
AcDbEntity
  8
Ｓ_１_１
  6
CONTINUOUS
 62
     3
100
AcDbVertex
100
AcDb2dVertex
 10
1520.303845
 20
954.8372719999999
 30
0.0
  0
VERTEX
  5
25F
330
23B
100
AcDbEntity
  8
Ｓ_１_１
  6
CONTINUOUS
 62
     3
100
AcDbVertex
100
AcDb2dVertex
 10
1520.076106
 20
953.6140839999999
 30
0.0
  0
VERTEX
  5
260
330
23B
100
AcDbEntity
  8
Ｓ_１_１
  6
CONTINUOUS
 62
     3
100
AcDbVertex
100
AcDb2dVertex
 10
1520.0
 20
952.381515
 30
0.0
  0
VERTEX
  5
261
330
23B
100
AcDbEntity
  8
Ｓ_１_１
  6
CONTINUOUS
 62
     3
100
AcDbVertex
100
AcDb2dVertex
 10
1520.076106
 20
951.1489469999998
 30
0.0
  0
VERTEX
  5
262
330
23B
100
AcDbEntity
  8
Ｓ_１_１
  6
CONTINUOUS
 62
     3
100
AcDbVertex
100
AcDb2dVertex
 10
1520.303845
 20
949.9257589999997
 30
0.0
  0
VERTEX
  5
263
330
23B
100
AcDbEntity
  8
Ｓ_１_１
  6
CONTINUOUS
 62
     3
100
AcDbVertex
100
AcDb2dVertex
 10
1520.681483
 20
948.7212609999998
 30
0.0
  0
VERTEX
  5
264
330
23B
100
AcDbEntity
  8
Ｓ_１_１
  6
CONTINUOUS
 62
     3
100
AcDbVertex
100
AcDb2dVertex
 10
1521.206148
 20
947.5446199999997
 30
0.0
  0
VERTEX
  5
265
330
23B
100
AcDbEntity
  8
Ｓ_１_１
  6
CONTINUOUS
 62
     3
100
AcDbVertex
100
AcDb2dVertex
 10
1521.873844
 20
946.4047909999999
 30
0.0
  0
VERTEX
  5
266
330
23B
100
AcDbEntity
  8
Ｓ_１_１
  6
CONTINUOUS
 62
     3
100
AcDbVertex
100
AcDb2dVertex
 10
1522.679492
 20
945.3104479999998
 30
0.0
  0
VERTEX
  5
267
330
23B
100
AcDbEntity
  8
Ｓ_１_１
  6
CONTINUOUS
 62
     3
100
AcDbVertex
100
AcDb2dVertex
 10
1523.616959
 20
944.2699199999998
 30
0.0
  0
VERTEX
  5
268
330
23B
100
AcDbEntity
  8
Ｓ_１_１
  6
CONTINUOUS
 62
     3
100
AcDbVertex
100
AcDb2dVertex
 10
1524.679111
 20
943.2911259999997
 30
0.0
  0
VERTEX
  5
269
330
23B
100
AcDbEntity
  8
Ｓ_１_１
  6
CONTINUOUS
 62
     3
100
AcDbVertex
100
AcDb2dVertex
 10
1525.857864
 20
942.3815150000001
 30
0.0
  0
VERTEX
  5
26A
330
23B
100
AcDbEntity
  8
Ｓ_１_１
  6
CONTINUOUS
 62
     3
100
AcDbVertex
100
AcDb2dVertex
 10
1527.144248
 20
941.548011
 30
0.0
  0
VERTEX
  5
26B
330
23B
100
AcDbEntity
  8
Ｓ_１_１
  6
CONTINUOUS
 62
     3
100
AcDbVertex
100
AcDb2dVertex
 10
1528.528471
 20
940.7969559999998
 30
0.0
  0
VERTEX
  5
26C
330
23B
100
AcDbEntity
  8
Ｓ_１_１
  6
CONTINUOUS
 62
     3
100
AcDbVertex
100
AcDb2dVertex
 10
1530.0
 20
940.134067
 30
0.0
  0
VERTEX
  5
26D
330
23B
100
AcDbEntity
  8
Ｓ_１_１
  6
CONTINUOUS
 62
     3
100
AcDbVertex
100
AcDb2dVertex
 10
1531.547635
 20
939.5643879999999
 30
0.0
  0
VERTEX
  5
26E
330
23B
100
AcDbEntity
  8
Ｓ_１_１
  6
CONTINUOUS
 62
     3
100
AcDbVertex
100
AcDb2dVertex
 10
1533.159597
 20
939.092255
 30
0.0
  0
VERTEX
  5
26F
330
23B
100
AcDbEntity
  8
Ｓ_１_１
  6
CONTINUOUS
 62
     3
100
AcDbVertex
100
AcDb2dVertex
 10
1534.823619
 20
938.7212609999998
 30
0.0
  0
VERTEX
  5
270
330
23B
100
AcDbEntity
  8
Ｓ_１_１
  6
CONTINUOUS
 62
     3
100
AcDbVertex
100
AcDb2dVertex
 10
1536.527035999999
 20
938.4542309999997
 30
0.0
  0
VERTEX
  5
271
330
23B
100
AcDbEntity
  8
Ｓ_１_１
  6
CONTINUOUS
 62
     3
100
AcDbVertex
100
AcDb2dVertex
 10
1538.256885
 20
938.2931949999997
 30
0.0
  0
VERTEX
  5
272
330
23B
100
AcDbEntity
  8
Ｓ_１_１
  6
CONTINUOUS
 62
     3
100
AcDbVertex
100
AcDb2dVertex
 10
1540.0
 20
938.2393800000001
 30
0.0
  0
VERTEX
  5
273
330
23B
100
AcDbEntity
  8
Ｓ_１_１
  6
CONTINUOUS
 62
     3
100
AcDbVertex
100
AcDb2dVertex
 10
1541.743115
 20
938.2931949999997
 30
0.0
  0
VERTEX
  5
274
330
23B
100
AcDbEntity
  8
Ｓ_１_１
  6
CONTINUOUS
 62
     3
100
AcDbVertex
100
AcDb2dVertex
 10
1543.472964
 20
938.4542309999997
 30
0.0
  0
VERTEX
  5
275
330
23B
100
AcDbEntity
  8
Ｓ_１_１
  6
CONTINUOUS
 62
     3
100
AcDbVertex
100
AcDb2dVertex
 10
1545.176381
 20
938.7212609999998
 30
0.0
  0
VERTEX
  5
276
330
23B
100
AcDbEntity
  8
Ｓ_１_１
  6
CONTINUOUS
 62
     3
100
AcDbVertex
100
AcDb2dVertex
 10
1546.840403
 20
939.092255
 30
0.0
  0
VERTEX
  5
277
330
23B
100
AcDbEntity
  8
Ｓ_１_１
  6
CONTINUOUS
 62
     3
100
AcDbVertex
100
AcDb2dVertex
 10
1548.452365
 20
939.5643879999999
 30
0.0
  0
VERTEX
  5
278
330
23B
100
AcDbEntity
  8
Ｓ_１_１
  6
CONTINUOUS
 62
     3
100
AcDbVertex
100
AcDb2dVertex
 10
1550.0
 20
940.134067
 30
0.0
  0
VERTEX
  5
279
330
23B
100
AcDbEntity
  8
Ｓ_１_１
  6
CONTINUOUS
 62
     3
100
AcDbVertex
100
AcDb2dVertex
 10
1551.471528999999
 20
940.7969559999998
 30
0.0
  0
VERTEX
  5
27A
330
23B
100
AcDbEntity
  8
Ｓ_１_１
  6
CONTINUOUS
 62
     3
100
AcDbVertex
100
AcDb2dVertex
 10
1552.855751999999
 20
941.548011
 30
0.0
  0
VERTEX
  5
27B
330
23B
100
AcDbEntity
  8
Ｓ_１_１
  6
CONTINUOUS
 62
     3
100
AcDbVertex
100
AcDb2dVertex
 10
1554.142136
 20
942.3815150000001
 30
0.0
  0
VERTEX
  5
27C
330
23B
100
AcDbEntity
  8
Ｓ_１_１
  6
CONTINUOUS
 62
     3
100
AcDbVertex
100
AcDb2dVertex
 10
1555.320889
 20
943.2911259999997
 30
0.0
  0
VERTEX
  5
27D
330
23B
100
AcDbEntity
  8
Ｓ_１_１
  6
CONTINUOUS
 62
     3
100
AcDbVertex
100
AcDb2dVertex
 10
1556.383041
 20
944.2699199999998
 30
0.0
  0
VERTEX
  5
27E
330
23B
100
AcDbEntity
  8
Ｓ_１_１
  6
CONTINUOUS
 62
     3
100
AcDbVertex
100
AcDb2dVertex
 10
1557.320508
 20
945.3104479999998
 30
0.0
  0
VERTEX
  5
27F
330
23B
100
AcDbEntity
  8
Ｓ_１_１
  6
CONTINUOUS
 62
     3
100
AcDbVertex
100
AcDb2dVertex
 10
1558.126156
 20
946.4047909999999
 30
0.0
  0
VERTEX
  5
280
330
23B
100
AcDbEntity
  8
Ｓ_１_１
  6
CONTINUOUS
 62
     3
100
AcDbVertex
100
AcDb2dVertex
 10
1558.793852
 20
947.5446199999997
 30
0.0
  0
VERTEX
  5
281
330
23B
100
AcDbEntity
  8
Ｓ_１_１
  6
CONTINUOUS
 62
     3
100
AcDbVertex
100
AcDb2dVertex
 10
1559.318517
 20
948.7212609999998
 30
0.0
  0
VERTEX
  5
282
330
23B
100
AcDbEntity
  8
Ｓ_１_１
  6
CONTINUOUS
 62
     3
100
AcDbVertex
100
AcDb2dVertex
 10
1559.696155
 20
949.9257589999997
 30
0.0
  0
VERTEX
  5
283
330
23B
100
AcDbEntity
  8
Ｓ_１_１
  6
CONTINUOUS
 62
     3
100
AcDbVertex
100
AcDb2dVertex
 10
1559.923894
 20
951.1489469999998
 30
0.0
  0
VERTEX
  5
284
330
23B
100
AcDbEntity
  8
Ｓ_１_１
  6
CONTINUOUS
 62
     3
100
AcDbVertex
100
AcDb2dVertex
 10
1560.0
 20
952.381515
 30
0.0
  0
SEQEND
  5
285
330
23B
100
AcDbEntity
  8
Ｓ_１_１
  6
CONTINUOUS
 62
     3
  0
POLYLINE
  5
286
330
1F
100
AcDbEntity
  8
Ｓ_１_１
  6
CONTINUOUS
 62
     3
100
AcDb2dPolyline
 66
     1
 10
0.0
 20
0.0
 30
0.0
 70
   128
  0
VERTEX
  5
287
330
286
100
AcDbEntity
  8
Ｓ_１_１
  6
CONTINUOUS
 62
     3
100
AcDbVertex
100
AcDb2dVertex
 10
1136.22504
 20
962.6345640000001
 30
0.0
  0
VERTEX
  5
288
330
286
100
AcDbEntity
  8
Ｓ_１_１
  6
CONTINUOUS
 62
     3
100
AcDbVertex
100
AcDb2dVertex
 10
1138.578604
 20
961.278323
 30
0.0
  0
VERTEX
  5
289
330
286
100
AcDbEntity
  8
Ｓ_１_１
  6
CONTINUOUS
 62
     3
100
AcDbVertex
100
AcDb2dVertex
 10
1141.195375
 20
960.189618
 30
0.0
  0
VERTEX
  5
28A
330
286
100
AcDbEntity
  8
Ｓ_１_１
  6
CONTINUOUS
 62
     3
100
AcDbVertex
100
AcDb2dVertex
 10
1144.015051
 20
959.393541
 30
0.0
  0
VERTEX
  5
28B
330
286
100
AcDbEntity
  8
Ｓ_１_１
  6
CONTINUOUS
 62
     3
100
AcDbVertex
100
AcDb2dVertex
 10
1146.97265
 20
958.9084359999998
 30
0.0
  0
VERTEX
  5
28C
330
286
100
AcDbEntity
  8
Ｓ_１_１
  6
CONTINUOUS
 62
     3
100
AcDbVertex
100
AcDb2dVertex
 10
1150.000015
 20
958.7454829999998
 30
0.0
  0
VERTEX
  5
28D
330
286
100
AcDbEntity
  8
Ｓ_１_１
  6
CONTINUOUS
 62
     3
100
AcDbVertex
100
AcDb2dVertex
 10
1153.02738
 20
958.908438
 30
0.0
  0
VERTEX
  5
28E
330
286
100
AcDbEntity
  8
Ｓ_１_１
  6
CONTINUOUS
 62
     3
100
AcDbVertex
100
AcDb2dVertex
 10
1155.984979
 20
959.3935440000001
 30
0.0
  0
VERTEX
  5
28F
330
286
100
AcDbEntity
  8
Ｓ_１_１
  6
CONTINUOUS
 62
     3
100
AcDbVertex
100
AcDb2dVertex
 10
1158.804654
 20
960.1896229999998
 30
0.0
  0
VERTEX
  5
290
330
286
100
AcDbEntity
  8
Ｓ_１_１
  6
CONTINUOUS
 62
     3
100
AcDbVertex
100
AcDb2dVertex
 10
1161.421424
 20
961.2783289999999
 30
0.0
  0
VERTEX
  5
291
330
286
100
AcDbEntity
  8
Ｓ_１_１
  6
CONTINUOUS
 62
     3
100
AcDbVertex
100
AcDb2dVertex
 10
1163.774987
 20
962.634572
 30
0.0
  0
SEQEND
  5
292
330
286
100
AcDbEntity
  8
Ｓ_１_１
  6
CONTINUOUS
 62
     3
  0
POLYLINE
  5
293
330
1F
100
AcDbEntity
  8
Ｓ_１_１
  6
CONTINUOUS
 62
     3
100
AcDb2dPolyline
 66
     1
 10
0.0
 20
0.0
 30
0.0
 70
   128
  0
VERTEX
  5
294
330
293
100
AcDbEntity
  8
Ｓ_１_１
  6
CONTINUOUS
 62
     3
100
AcDbVertex
100
AcDb2dVertex
 10
1188.376051
 20
980.8650509999999
 30
0.0
  0
VERTEX
  5
295
330
293
100
AcDbEntity
  8
Ｓ_１_１
  6
CONTINUOUS
 62
     3
100
AcDbVertex
100
AcDb2dVertex
 10
1186.380471
 20
984.644769
 30
0.0
  0
VERTEX
  5
296
330
293
100
AcDbEntity
  8
Ｓ_１_１
  6
CONTINUOUS
 62
     3
100
AcDbVertex
100
AcDb2dVertex
 10
1183.644666
 20
988.185266
 30
0.0
  0
VERTEX
  5
297
330
293
100
AcDbEntity
  8
Ｓ_１_１
  6
CONTINUOUS
 62
     3
100
AcDbVertex
100
AcDb2dVertex
 10
1180.2243
 20
991.4145049999998
 30
0.0
  0
VERTEX
  5
298
330
293
100
AcDbEntity
  8
Ｓ_１_１
  6
CONTINUOUS
 62
     3
100
AcDbVertex
100
AcDb2dVertex
 10
1176.188966
 20
994.2667809999998
 30
0.0
  0
VERTEX
  5
299
330
293
100
AcDbEntity
  8
Ｓ_１_１
  6
CONTINUOUS
 62
     3
100
AcDbVertex
100
AcDb2dVertex
 10
1171.620771
 20
996.6840589999997
 30
0.0
  0
VERTEX
  5
29A
330
293
100
AcDbEntity
  8
Ｓ_１_１
  6
CONTINUOUS
 62
     3
100
AcDbVertex
100
AcDb2dVertex
 10
1166.612663
 20
998.6171559999999
 30
0.0
  0
VERTEX
  5
29B
330
293
100
AcDbEntity
  8
Ｓ_１_１
  6
CONTINUOUS
 62
     3
100
AcDbVertex
100
AcDb2dVertex
 10
1161.26654
 20
1000.026738
 30
0.0
  0
VERTEX
  5
29C
330
293
100
AcDbEntity
  8
Ｓ_１_１
  6
CONTINUOUS
 62
     3
100
AcDbVertex
100
AcDb2dVertex
 10
1155.69118
 20
1000.884126
 30
0.0
  0
VERTEX
  5
29D
330
293
100
AcDbEntity
  8
Ｓ_１_１
  6
CONTINUOUS
 62
     3
100
AcDbVertex
100
AcDb2dVertex
 10
1150.000022
 20
1001.171875
 30
0.0
  0
VERTEX
  5
29E
330
293
100
AcDbEntity
  8
Ｓ_１_１
  6
CONTINUOUS
 62
     3
100
AcDbVertex
100
AcDb2dVertex
 10
1144.308865
 20
1000.884129
 30
0.0
  0
VERTEX
  5
29F
330
293
100
AcDbEntity
  8
Ｓ_１_１
  6
CONTINUOUS
 62
     3
100
AcDbVertex
100
AcDb2dVertex
 10
1138.733503
 20
1000.026744
 30
0.0
  0
VERTEX
  5
2A0
330
293
100
AcDbEntity
  8
Ｓ_１_１
  6
CONTINUOUS
 62
     3
100
AcDbVertex
100
AcDb2dVertex
 10
1133.387379
 20
998.6171639999999
 30
0.0
  0
VERTEX
  5
2A1
330
293
100
AcDbEntity
  8
Ｓ_１_１
  6
CONTINUOUS
 62
     3
100
AcDbVertex
100
AcDb2dVertex
 10
1128.379269
 20
996.6840699999999
 30
0.0
  0
VERTEX
  5
2A2
330
293
100
AcDbEntity
  8
Ｓ_１_１
  6
CONTINUOUS
 62
     3
100
AcDbVertex
100
AcDb2dVertex
 10
1123.811071
 20
994.2667950000001
 30
0.0
  0
VERTEX
  5
2A3
330
293
100
AcDbEntity
  8
Ｓ_１_１
  6
CONTINUOUS
 62
     3
100
AcDbVertex
100
AcDb2dVertex
 10
1119.775735
 20
991.4145209999998
 30
0.0
  0
VERTEX
  5
2A4
330
293
100
AcDbEntity
  8
Ｓ_１_１
  6
CONTINUOUS
 62
     3
100
AcDbVertex
100
AcDb2dVertex
 10
1116.355365
 20
988.1852839999998
 30
0.0
  0
VERTEX
  5
2A5
330
293
100
AcDbEntity
  8
Ｓ_１_１
  6
CONTINUOUS
 62
     3
100
AcDbVertex
100
AcDb2dVertex
 10
1113.619556
 20
984.6447879999996
 30
0.0
  0
VERTEX
  5
2A6
330
293
100
AcDbEntity
  8
Ｓ_１_１
  6
CONTINUOUS
 62
     3
100
AcDbVertex
100
AcDb2dVertex
 10
1111.623973
 20
980.8650709999998
 30
0.0
  0
SEQEND
  5
2A7
330
293
100
AcDbEntity
  8
Ｓ_１_１
  6
CONTINUOUS
 62
     3
  0
POLYLINE
  5
2A8
330
1F
100
AcDbEntity
  8
Ｓ_１_１
  6
CONTINUOUS
 62
     3
100
AcDb2dPolyline
 66
     1
 10
0.0
 20
0.0
 30
0.0
 70
   128
  0
VERTEX
  5
2A9
330
2A8
100
AcDbEntity
  8
Ｓ_１_１
  6
CONTINUOUS
 62
     3
100
AcDbVertex
100
AcDb2dVertex
 10
1188.376051
 20
960.3589779999999
 30
0.0
  0
VERTEX
  5
2AA
330
2A8
100
AcDbEntity
  8
Ｓ_１_１
  6
CONTINUOUS
 62
     3
100
AcDbVertex
100
AcDb2dVertex
 10
1186.380471
 20
964.1386960000001
 30
0.0
  0
VERTEX
  5
2AB
330
2A8
100
AcDbEntity
  8
Ｓ_１_１
  6
CONTINUOUS
 62
     3
100
AcDbVertex
100
AcDb2dVertex
 10
1183.644666
 20
967.679193
 30
0.0
  0
VERTEX
  5
2AC
330
2A8
100
AcDbEntity
  8
Ｓ_１_１
  6
CONTINUOUS
 62
     3
100
AcDbVertex
100
AcDb2dVertex
 10
1180.2243
 20
970.9084319999998
 30
0.0
  0
VERTEX
  5
2AD
330
2A8
100
AcDbEntity
  8
Ｓ_１_１
  6
CONTINUOUS
 62
     3
100
AcDbVertex
100
AcDb2dVertex
 10
1176.188966
 20
973.7607079999999
 30
0.0
  0
VERTEX
  5
2AE
330
2A8
100
AcDbEntity
  8
Ｓ_１_１
  6
CONTINUOUS
 62
     3
100
AcDbVertex
100
AcDb2dVertex
 10
1171.620771
 20
976.1779859999998
 30
0.0
  0
VERTEX
  5
2AF
330
2A8
100
AcDbEntity
  8
Ｓ_１_１
  6
CONTINUOUS
 62
     3
100
AcDbVertex
100
AcDb2dVertex
 10
1166.612663
 20
978.1110829999999
 30
0.0
  0
VERTEX
  5
2B0
330
2A8
100
AcDbEntity
  8
Ｓ_１_１
  6
CONTINUOUS
 62
     3
100
AcDbVertex
100
AcDb2dVertex
 10
1161.26654
 20
979.520665
 30
0.0
  0
VERTEX
  5
2B1
330
2A8
100
AcDbEntity
  8
Ｓ_１_１
  6
CONTINUOUS
 62
     3
100
AcDbVertex
100
AcDb2dVertex
 10
1155.69118
 20
980.378053
 30
0.0
  0
VERTEX
  5
2B2
330
2A8
100
AcDbEntity
  8
Ｓ_１_１
  6
CONTINUOUS
 62
     3
100
AcDbVertex
100
AcDb2dVertex
 10
1150.000022
 20
980.665802
 30
0.0
  0
VERTEX
  5
2B3
330
2A8
100
AcDbEntity
  8
Ｓ_１_１
  6
CONTINUOUS
 62
     3
100
AcDbVertex
100
AcDb2dVertex
 10
1144.308865
 20
980.378056
 30
0.0
  0
VERTEX
  5
2B4
330
2A8
100
AcDbEntity
  8
Ｓ_１_１
  6
CONTINUOUS
 62
     3
100
AcDbVertex
100
AcDb2dVertex
 10
1138.733503
 20
979.5206709999999
 30
0.0
  0
VERTEX
  5
2B5
330
2A8
100
AcDbEntity
  8
Ｓ_１_１
  6
CONTINUOUS
 62
     3
100
AcDbVertex
100
AcDb2dVertex
 10
1133.387379
 20
978.1110909999999
 30
0.0
  0
VERTEX
  5
2B6
330
2A8
100
AcDbEntity
  8
Ｓ_１_１
  6
CONTINUOUS
 62
     3
100
AcDbVertex
100
AcDb2dVertex
 10
1128.379269
 20
976.1779969999999
 30
0.0
  0
VERTEX
  5
2B7
330
2A8
100
AcDbEntity
  8
Ｓ_１_１
  6
CONTINUOUS
 62
     3
100
AcDbVertex
100
AcDb2dVertex
 10
1123.811071
 20
973.760722
 30
0.0
  0
VERTEX
  5
2B8
330
2A8
100
AcDbEntity
  8
Ｓ_１_１
  6
CONTINUOUS
 62
     3
100
AcDbVertex
100
AcDb2dVertex
 10
1119.775735
 20
970.9084479999998
 30
0.0
  0
VERTEX
  5
2B9
330
2A8
100
AcDbEntity
  8
Ｓ_１_１
  6
CONTINUOUS
 62
     3
100
AcDbVertex
100
AcDb2dVertex
 10
1116.355365
 20
967.6792109999998
 30
0.0
  0
VERTEX
  5
2BA
330
2A8
100
AcDbEntity
  8
Ｓ_１_１
  6
CONTINUOUS
 62
     3
100
AcDbVertex
100
AcDb2dVertex
 10
1113.619556
 20
964.1387149999997
 30
0.0
  0
VERTEX
  5
2BB
330
2A8
100
AcDbEntity
  8
Ｓ_１_１
  6
CONTINUOUS
 62
     3
100
AcDbVertex
100
AcDb2dVertex
 10
1111.623973
 20
960.3589979999998
 30
0.0
  0
SEQEND
  5
2BC
330
2A8
100
AcDbEntity
  8
Ｓ_１_１
  6
CONTINUOUS
 62
     3
  0
POLYLINE
  5
2BD
330
1F
100
AcDbEntity
  8
Ｓ_１_１
  6
CONTINUOUS
 62
     3
100
AcDb2dPolyline
 66
     1
 10
0.0
 20
0.0
 30
0.0
 70
   128
  0
VERTEX
  5
2BE
330
2BD
100
AcDbEntity
  8
Ｓ_１_１
  6
CONTINUOUS
 62
     3
100
AcDbVertex
100
AcDb2dVertex
 10
1170.000008
 20
952.381515
 30
0.0
  0
VERTEX
  5
2BF
330
2BD
100
AcDbEntity
  8
Ｓ_１_１
  6
CONTINUOUS
 62
     3
100
AcDbVertex
100
AcDb2dVertex
 10
1169.923902
 20
953.6140839999999
 30
0.0
  0
VERTEX
  5
2C0
330
2BD
100
AcDbEntity
  8
Ｓ_１_１
  6
CONTINUOUS
 62
     3
100
AcDbVertex
100
AcDb2dVertex
 10
1169.696163
 20
954.8372719999999
 30
0.0
  0
VERTEX
  5
2C1
330
2BD
100
AcDbEntity
  8
Ｓ_１_１
  6
CONTINUOUS
 62
     3
100
AcDbVertex
100
AcDb2dVertex
 10
1169.318524
 20
956.0417699999998
 30
0.0
  0
VERTEX
  5
2C2
330
2BD
100
AcDbEntity
  8
Ｓ_１_１
  6
CONTINUOUS
 62
     3
100
AcDbVertex
100
AcDb2dVertex
 10
1168.79386
 20
957.218411
 30
0.0
  0
VERTEX
  5
2C3
330
2BD
100
AcDbEntity
  8
Ｓ_１_１
  6
CONTINUOUS
 62
     3
100
AcDbVertex
100
AcDb2dVertex
 10
1168.126163
 20
958.3582400000001
 30
0.0
  0
VERTEX
  5
2C4
330
2BD
100
AcDbEntity
  8
Ｓ_１_１
  6
CONTINUOUS
 62
     3
100
AcDbVertex
100
AcDb2dVertex
 10
1167.320516
 20
959.4525829999998
 30
0.0
  0
VERTEX
  5
2C5
330
2BD
100
AcDbEntity
  8
Ｓ_１_１
  6
CONTINUOUS
 62
     3
100
AcDbVertex
100
AcDb2dVertex
 10
1166.383049
 20
960.4931109999999
 30
0.0
  0
VERTEX
  5
2C6
330
2BD
100
AcDbEntity
  8
Ｓ_１_１
  6
CONTINUOUS
 62
     3
100
AcDbVertex
100
AcDb2dVertex
 10
1165.320896
 20
961.471905
 30
0.0
  0
VERTEX
  5
2C7
330
2BD
100
AcDbEntity
  8
Ｓ_１_１
  6
CONTINUOUS
 62
     3
100
AcDbVertex
100
AcDb2dVertex
 10
1164.142143
 20
962.3815150000001
 30
0.0
  0
VERTEX
  5
2C8
330
2BD
100
AcDbEntity
  8
Ｓ_１_１
  6
CONTINUOUS
 62
     3
100
AcDbVertex
100
AcDb2dVertex
 10
1162.85576
 20
963.2150199999998
 30
0.0
  0
VERTEX
  5
2C9
330
2BD
100
AcDbEntity
  8
Ｓ_１_１
  6
CONTINUOUS
 62
     3
100
AcDbVertex
100
AcDb2dVertex
 10
1161.471536
 20
963.9660749999998
 30
0.0
  0
VERTEX
  5
2CA
330
2BD
100
AcDbEntity
  8
Ｓ_１_１
  6
CONTINUOUS
 62
     3
100
AcDbVertex
100
AcDb2dVertex
 10
1160.000008
 20
964.6289640000001
 30
0.0
  0
VERTEX
  5
2CB
330
2BD
100
AcDbEntity
  8
Ｓ_１_１
  6
CONTINUOUS
 62
     3
100
AcDbVertex
100
AcDb2dVertex
 10
1158.452373
 20
965.1986429999997
 30
0.0
  0
VERTEX
  5
2CC
330
2BD
100
AcDbEntity
  8
Ｓ_１_１
  6
CONTINUOUS
 62
     3
100
AcDbVertex
100
AcDb2dVertex
 10
1156.84041
 20
965.670776
 30
0.0
  0
VERTEX
  5
2CD
330
2BD
100
AcDbEntity
  8
Ｓ_１_１
  6
CONTINUOUS
 62
     3
100
AcDbVertex
100
AcDb2dVertex
 10
1155.176389
 20
966.0417699999999
 30
0.0
  0
VERTEX
  5
2CE
330
2BD
100
AcDbEntity
  8
Ｓ_１_１
  6
CONTINUOUS
 62
     3
100
AcDbVertex
100
AcDb2dVertex
 10
1153.472971
 20
966.3087999999999
 30
0.0
  0
VERTEX
  5
2CF
330
2BD
100
AcDbEntity
  8
Ｓ_１_１
  6
CONTINUOUS
 62
     3
100
AcDbVertex
100
AcDb2dVertex
 10
1151.743122
 20
966.4698359999999
 30
0.0
  0
VERTEX
  5
2D0
330
2BD
100
AcDbEntity
  8
Ｓ_１_１
  6
CONTINUOUS
 62
     3
100
AcDbVertex
100
AcDb2dVertex
 10
1150.000008
 20
966.5236510000001
 30
0.0
  0
VERTEX
  5
2D1
330
2BD
100
AcDbEntity
  8
Ｓ_１_１
  6
CONTINUOUS
 62
     3
100
AcDbVertex
100
AcDb2dVertex
 10
1148.256893
 20
966.4698359999999
 30
0.0
  0
VERTEX
  5
2D2
330
2BD
100
AcDbEntity
  8
Ｓ_１_１
  6
CONTINUOUS
 62
     3
100
AcDbVertex
100
AcDb2dVertex
 10
1146.527044
 20
966.3087999999999
 30
0.0
  0
VERTEX
  5
2D3
330
2BD
100
AcDbEntity
  8
Ｓ_１_１
  6
CONTINUOUS
 62
     3
100
AcDbVertex
100
AcDb2dVertex
 10
1144.823627
 20
966.0417699999999
 30
0.0
  0
VERTEX
  5
2D4
330
2BD
100
AcDbEntity
  8
Ｓ_１_１
  6
CONTINUOUS
 62
     3
100
AcDbVertex
100
AcDb2dVertex
 10
1143.159605
 20
965.670776
 30
0.0
  0
VERTEX
  5
2D5
330
2BD
100
AcDbEntity
  8
Ｓ_１_１
  6
CONTINUOUS
 62
     3
100
AcDbVertex
100
AcDb2dVertex
 10
1141.547642
 20
965.1986429999997
 30
0.0
  0
VERTEX
  5
2D6
330
2BD
100
AcDbEntity
  8
Ｓ_１_１
  6
CONTINUOUS
 62
     3
100
AcDbVertex
100
AcDb2dVertex
 10
1140.000008
 20
964.6289640000001
 30
0.0
  0
VERTEX
  5
2D7
330
2BD
100
AcDbEntity
  8
Ｓ_１_１
  6
CONTINUOUS
 62
     3
100
AcDbVertex
100
AcDb2dVertex
 10
1138.528479
 20
963.9660749999998
 30
0.0
  0
VERTEX
  5
2D8
330
2BD
100
AcDbEntity
  8
Ｓ_１_１
  6
CONTINUOUS
 62
     3
100
AcDbVertex
100
AcDb2dVertex
 10
1137.144255
 20
963.2150199999998
 30
0.0
  0
VERTEX
  5
2D9
330
2BD
100
AcDbEntity
  8
Ｓ_１_１
  6
CONTINUOUS
 62
     3
100
AcDbVertex
100
AcDb2dVertex
 10
1135.857872
 20
962.3815150000001
 30
0.0
  0
VERTEX
  5
2DA
330
2BD
100
AcDbEntity
  8
Ｓ_１_１
  6
CONTINUOUS
 62
     3
100
AcDbVertex
100
AcDb2dVertex
 10
1134.679119
 20
961.471905
 30
0.0
  0
VERTEX
  5
2DB
330
2BD
100
AcDbEntity
  8
Ｓ_１_１
  6
CONTINUOUS
 62
     3
100
AcDbVertex
100
AcDb2dVertex
 10
1133.616967
 20
960.4931109999999
 30
0.0
  0
VERTEX
  5
2DC
330
2BD
100
AcDbEntity
  8
Ｓ_１_１
  6
CONTINUOUS
 62
     3
100
AcDbVertex
100
AcDb2dVertex
 10
1132.6795
 20
959.4525829999998
 30
0.0
  0
VERTEX
  5
2DD
330
2BD
100
AcDbEntity
  8
Ｓ_１_１
  6
CONTINUOUS
 62
     3
100
AcDbVertex
100
AcDb2dVertex
 10
1131.873852
 20
958.3582400000001
 30
0.0
  0
VERTEX
  5
2DE
330
2BD
100
AcDbEntity
  8
Ｓ_１_１
  6
CONTINUOUS
 62
     3
100
AcDbVertex
100
AcDb2dVertex
 10
1131.206155
 20
957.218411
 30
0.0
  0
VERTEX
  5
2DF
330
2BD
100
AcDbEntity
  8
Ｓ_１_１
  6
CONTINUOUS
 62
     3
100
AcDbVertex
100
AcDb2dVertex
 10
1130.681491
 20
956.0417699999998
 30
0.0
  0
VERTEX
  5
2E0
330
2BD
100
AcDbEntity
  8
Ｓ_１_１
  6
CONTINUOUS
 62
     3
100
AcDbVertex
100
AcDb2dVertex
 10
1130.303853
 20
954.8372719999999
 30
0.0
  0
VERTEX
  5
2E1
330
2BD
100
AcDbEntity
  8
Ｓ_１_１
  6
CONTINUOUS
 62
     3
100
AcDbVertex
100
AcDb2dVertex
 10
1130.076114
 20
953.6140839999999
 30
0.0
  0
VERTEX
  5
2E2
330
2BD
100
AcDbEntity
  8
Ｓ_１_１
  6
CONTINUOUS
 62
     3
100
AcDbVertex
100
AcDb2dVertex
 10
1130.000008
 20
952.381515
 30
0.0
  0
VERTEX
  5
2E3
330
2BD
100
AcDbEntity
  8
Ｓ_１_１
  6
CONTINUOUS
 62
     3
100
AcDbVertex
100
AcDb2dVertex
 10
1130.076114
 20
951.1489469999998
 30
0.0
  0
VERTEX
  5
2E4
330
2BD
100
AcDbEntity
  8
Ｓ_１_１
  6
CONTINUOUS
 62
     3
100
AcDbVertex
100
AcDb2dVertex
 10
1130.303853
 20
949.9257589999997
 30
0.0
  0
VERTEX
  5
2E5
330
2BD
100
AcDbEntity
  8
Ｓ_１_１
  6
CONTINUOUS
 62
     3
100
AcDbVertex
100
AcDb2dVertex
 10
1130.681491
 20
948.7212609999998
 30
0.0
  0
VERTEX
  5
2E6
330
2BD
100
AcDbEntity
  8
Ｓ_１_１
  6
CONTINUOUS
 62
     3
100
AcDbVertex
100
AcDb2dVertex
 10
1131.206155
 20
947.5446199999997
 30
0.0
  0
VERTEX
  5
2E7
330
2BD
100
AcDbEntity
  8
Ｓ_１_１
  6
CONTINUOUS
 62
     3
100
AcDbVertex
100
AcDb2dVertex
 10
1131.873852
 20
946.4047909999999
 30
0.0
  0
VERTEX
  5
2E8
330
2BD
100
AcDbEntity
  8
Ｓ_１_１
  6
CONTINUOUS
 62
     3
100
AcDbVertex
100
AcDb2dVertex
 10
1132.6795
 20
945.3104479999998
 30
0.0
  0
VERTEX
  5
2E9
330
2BD
100
AcDbEntity
  8
Ｓ_１_１
  6
CONTINUOUS
 62
     3
100
AcDbVertex
100
AcDb2dVertex
 10
1133.616967
 20
944.2699199999998
 30
0.0
  0
VERTEX
  5
2EA
330
2BD
100
AcDbEntity
  8
Ｓ_１_１
  6
CONTINUOUS
 62
     3
100
AcDbVertex
100
AcDb2dVertex
 10
1134.679119
 20
943.2911259999997
 30
0.0
  0
VERTEX
  5
2EB
330
2BD
100
AcDbEntity
  8
Ｓ_１_１
  6
CONTINUOUS
 62
     3
100
AcDbVertex
100
AcDb2dVertex
 10
1135.857872
 20
942.3815150000001
 30
0.0
  0
VERTEX
  5
2EC
330
2BD
100
AcDbEntity
  8
Ｓ_１_１
  6
CONTINUOUS
 62
     3
100
AcDbVertex
100
AcDb2dVertex
 10
1137.144255
 20
941.548011
 30
0.0
  0
VERTEX
  5
2ED
330
2BD
100
AcDbEntity
  8
Ｓ_１_１
  6
CONTINUOUS
 62
     3
100
AcDbVertex
100
AcDb2dVertex
 10
1138.528479
 20
940.7969559999998
 30
0.0
  0
VERTEX
  5
2EE
330
2BD
100
AcDbEntity
  8
Ｓ_１_１
  6
CONTINUOUS
 62
     3
100
AcDbVertex
100
AcDb2dVertex
 10
1140.000008
 20
940.134067
 30
0.0
  0
VERTEX
  5
2EF
330
2BD
100
AcDbEntity
  8
Ｓ_１_１
  6
CONTINUOUS
 62
     3
100
AcDbVertex
100
AcDb2dVertex
 10
1141.547642
 20
939.5643879999999
 30
0.0
  0
VERTEX
  5
2F0
330
2BD
100
AcDbEntity
  8
Ｓ_１_１
  6
CONTINUOUS
 62
     3
100
AcDbVertex
100
AcDb2dVertex
 10
1143.159605
 20
939.092255
 30
0.0
  0
VERTEX
  5
2F1
330
2BD
100
AcDbEntity
  8
Ｓ_１_１
  6
CONTINUOUS
 62
     3
100
AcDbVertex
100
AcDb2dVertex
 10
1144.823627
 20
938.7212609999998
 30
0.0
  0
VERTEX
  5
2F2
330
2BD
100
AcDbEntity
  8
Ｓ_１_１
  6
CONTINUOUS
 62
     3
100
AcDbVertex
100
AcDb2dVertex
 10
1146.527044
 20
938.4542309999997
 30
0.0
  0
VERTEX
  5
2F3
330
2BD
100
AcDbEntity
  8
Ｓ_１_１
  6
CONTINUOUS
 62
     3
100
AcDbVertex
100
AcDb2dVertex
 10
1148.256893
 20
938.2931949999997
 30
0.0
  0
VERTEX
  5
2F4
330
2BD
100
AcDbEntity
  8
Ｓ_１_１
  6
CONTINUOUS
 62
     3
100
AcDbVertex
100
AcDb2dVertex
 10
1150.000008
 20
938.2393800000001
 30
0.0
  0
VERTEX
  5
2F5
330
2BD
100
AcDbEntity
  8
Ｓ_１_１
  6
CONTINUOUS
 62
     3
100
AcDbVertex
100
AcDb2dVertex
 10
1151.743122
 20
938.2931949999997
 30
0.0
  0
VERTEX
  5
2F6
330
2BD
100
AcDbEntity
  8
Ｓ_１_１
  6
CONTINUOUS
 62
     3
100
AcDbVertex
100
AcDb2dVertex
 10
1153.472971
 20
938.4542309999997
 30
0.0
  0
VERTEX
  5
2F7
330
2BD
100
AcDbEntity
  8
Ｓ_１_１
  6
CONTINUOUS
 62
     3
100
AcDbVertex
100
AcDb2dVertex
 10
1155.176389
 20
938.7212609999998
 30
0.0
  0
VERTEX
  5
2F8
330
2BD
100
AcDbEntity
  8
Ｓ_１_１
  6
CONTINUOUS
 62
     3
100
AcDbVertex
100
AcDb2dVertex
 10
1156.84041
 20
939.092255
 30
0.0
  0
VERTEX
  5
2F9
330
2BD
100
AcDbEntity
  8
Ｓ_１_１
  6
CONTINUOUS
 62
     3
100
AcDbVertex
100
AcDb2dVertex
 10
1158.452373
 20
939.5643879999999
 30
0.0
  0
VERTEX
  5
2FA
330
2BD
100
AcDbEntity
  8
Ｓ_１_１
  6
CONTINUOUS
 62
     3
100
AcDbVertex
100
AcDb2dVertex
 10
1160.000008
 20
940.134067
 30
0.0
  0
VERTEX
  5
2FB
330
2BD
100
AcDbEntity
  8
Ｓ_１_１
  6
CONTINUOUS
 62
     3
100
AcDbVertex
100
AcDb2dVertex
 10
1161.471536
 20
940.7969559999998
 30
0.0
  0
VERTEX
  5
2FC
330
2BD
100
AcDbEntity
  8
Ｓ_１_１
  6
CONTINUOUS
 62
     3
100
AcDbVertex
100
AcDb2dVertex
 10
1162.85576
 20
941.548011
 30
0.0
  0
VERTEX
  5
2FD
330
2BD
100
AcDbEntity
  8
Ｓ_１_１
  6
CONTINUOUS
 62
     3
100
AcDbVertex
100
AcDb2dVertex
 10
1164.142143
 20
942.3815150000001
 30
0.0
  0
VERTEX
  5
2FE
330
2BD
100
AcDbEntity
  8
Ｓ_１_１
  6
CONTINUOUS
 62
     3
100
AcDbVertex
100
AcDb2dVertex
 10
1165.320896
 20
943.2911259999997
 30
0.0
  0
VERTEX
  5
2FF
330
2BD
100
AcDbEntity
  8
Ｓ_１_１
  6
CONTINUOUS
 62
     3
100
AcDbVertex
100
AcDb2dVertex
 10
1166.383049
 20
944.2699199999998
 30
0.0
  0
VERTEX
  5
300
330
2BD
100
AcDbEntity
  8
Ｓ_１_１
  6
CONTINUOUS
 62
     3
100
AcDbVertex
100
AcDb2dVertex
 10
1167.320516
 20
945.3104479999998
 30
0.0
  0
VERTEX
  5
301
330
2BD
100
AcDbEntity
  8
Ｓ_１_１
  6
CONTINUOUS
 62
     3
100
AcDbVertex
100
AcDb2dVertex
 10
1168.126163
 20
946.4047909999999
 30
0.0
  0
VERTEX
  5
302
330
2BD
100
AcDbEntity
  8
Ｓ_１_１
  6
CONTINUOUS
 62
     3
100
AcDbVertex
100
AcDb2dVertex
 10
1168.79386
 20
947.5446199999997
 30
0.0
  0
VERTEX
  5
303
330
2BD
100
AcDbEntity
  8
Ｓ_１_１
  6
CONTINUOUS
 62
     3
100
AcDbVertex
100
AcDb2dVertex
 10
1169.318524
 20
948.7212609999998
 30
0.0
  0
VERTEX
  5
304
330
2BD
100
AcDbEntity
  8
Ｓ_１_１
  6
CONTINUOUS
 62
     3
100
AcDbVertex
100
AcDb2dVertex
 10
1169.696163
 20
949.9257589999997
 30
0.0
  0
VERTEX
  5
305
330
2BD
100
AcDbEntity
  8
Ｓ_１_１
  6
CONTINUOUS
 62
     3
100
AcDbVertex
100
AcDb2dVertex
 10
1169.923902
 20
951.1489469999998
 30
0.0
  0
VERTEX
  5
306
330
2BD
100
AcDbEntity
  8
Ｓ_１_１
  6
CONTINUOUS
 62
     3
100
AcDbVertex
100
AcDb2dVertex
 10
1170.000008
 20
952.381515
 30
0.0
  0
SEQEND
  5
307
330
2BD
100
AcDbEntity
  8
Ｓ_１_１
  6
CONTINUOUS
 62
     3
  0
ARC
  5
308
330
1F
100
AcDbEntity
  8
Ｓ_１_１
  6
CONTINUOUS
 62
     3
100
AcDbCircle
 10
1560.0
 20
996.0606079999998
 30
0.0
 40
21.93943800000001
100
AcDbArc
 50
76.82652799999998
 51
103.173491
  0
ARC
  5
309
330
1F
100
AcDbEntity
  8
Ｓ_１_１
  6
CONTINUOUS
 62
     3
100
AcDbCircle
 10
1560.0
 20
1027.439453
 30
0.0
 40
21.93943800000001
100
AcDbArc
 50
256.8264750000001
 51
283.1734650000004
  0
ARC
  5
30A
330
1F
100
AcDbEntity
  8
Ｓ_１_１
  6
CONTINUOUS
 62
     3
100
AcDbCircle
 10
1168.308662
 20
991.099304
 30
0.0
 40
6.900722000000004
100
AcDbArc
 50
55.615751
 51
89.186233
  0
ARC
  5
30B
330
1F
100
AcDbEntity
  8
Ｓ_１_１
  6
CONTINUOUS
 62
     3
100
AcDbCircle
 10
1180.000008
 20
972.2057799999999
 30
0.0
 40
25.79423
100
AcDbArc
 50
72.41204699999997
 51
107.587951
  0
ARC
  5
30C
330
1F
100
AcDbEntity
  8
Ｓ_１_１
  6
CONTINUOUS
 62
     3
100
AcDbCircle
 10
1191.691345
 20
991.099304
 30
0.0
 40
6.900722000000004
100
AcDbArc
 50
55.615751
 51
124.384247
  0
ARC
  5
30D
330
1F
100
AcDbEntity
  8
Ｓ_１_１
  6
CONTINUOUS
 62
     3
100
AcDbCircle
 10
1571.691345
 20
994.9006959999998
 30
0.0
 40
6.900722000000004
100
AcDbArc
 50
285.8378950000001
 51
304.3842490000003
  0
ARC
  5
30E
330
1F
100
AcDbEntity
  8
Ｓ_１_１
  6
CONTINUOUS
 62
     3
100
AcDbCircle
 10
1560.0
 20
972.2057799999999
 30
0.0
 40
25.79423
100
AcDbArc
 50
72.41204699999997
 51
93.28876599999998
  0
ARC
  5
30F
330
1F
100
AcDbEntity
  8
Ｓ_１_１
  6
CONTINUOUS
 62
     3
100
AcDbCircle
 10
1191.691345
 20
994.9006959999998
 30
0.0
 40
6.900722000000004
100
AcDbArc
 50
235.6157530000001
 51
304.3842490000003
  0
ARC
  5
310
330
1F
100
AcDbEntity
  8
Ｓ_１_１
  6
CONTINUOUS
 62
     3
100
AcDbCircle
 10
1180.000008
 20
1013.79425
 30
0.0
 40
25.79423
100
AcDbArc
 50
277.9896930000002
 51
287.5879530000003
  0
ARC
  5
311
330
1F
100
AcDbEntity
  8
Ｓ_１_１
  6
CONTINUOUS
 62
     3
100
AcDbCircle
 10
1571.691345
 20
991.099304
 30
0.0
 40
6.900722000000004
100
AcDbArc
 50
55.615751
 51
124.384247
  0
LINE
  5
312
330
1F
100
AcDbEntity
  8
Ｓ_１_１
  6
CONTINUOUS
 62
     3
100
AcDbLine
 10
1100.000007
 20
686.8629359999999
 30
0.0
 11
1090.000073
 21
709.4461479999999
 31
0.0
  0
LINE
  5
313
330
1F
100
AcDbEntity
  8
Ｓ_１_１
  6
CONTINUOUS
 62
     3
100
AcDbLine
 10
1200.000008
 20
686.8629319999999
 30
0.0
 11
1210.000002
 21
709.4461509999998
 31
0.0
  0
LINE
  5
314
330
1F
100
AcDbEntity
  8
Ｓ_１_１
  6
CONTINUOUS
 62
     3
100
AcDbLine
 10
1175.000008
 20
612.6167139999999
 30
0.0
 11
1175.000008
 21
570.1903149999999
 31
0.0
  0
LINE
  5
315
330
1F
100
AcDbEntity
  8
Ｓ_１_１
  6
CONTINUOUS
 62
     3
100
AcDbLine
 10
1125.000008
 20
570.1903149999999
 30
0.0
 11
1125.000008
 21
612.6167139999999
 31
0.0
  0
LINE
  5
316
330
1F
100
AcDbEntity
  8
Ｓ_１_１
  6
CONTINUOUS
 62
     3
100
AcDbLine
 10
1100.000008
 20
644.436523
 30
0.0
 11
1090.000071
 21
644.436523
 31
0.0
  0
LINE
  5
317
330
1F
100
AcDbEntity
  8
Ｓ_１_１
  6
CONTINUOUS
 62
     3
100
AcDbLine
 10
1210.0
 20
644.436523
 30
0.0
 11
1200.0
 21
644.436523
 31
0.0
  0
LINE
  5
318
330
1F
100
AcDbEntity
  8
Ｓ_１_１
  6
CONTINUOUS
 62
     3
100
AcDbLine
 10
1125.000008
 20
570.1903149999999
 30
0.0
 11
1175.000008
 21
570.1903149999999
 31
0.0
  0
LINE
  5
319
330
1F
100
AcDbEntity
  8
Ｓ_１_１
  6
CONTINUOUS
 62
     3
100
AcDbLine
 10
1175.000002
 20
570.1903089999997
 30
0.0
 11
1200.000002
 21
587.8679779999999
 31
0.0
  0
LINE
  5
31A
330
1F
100
AcDbEntity
  8
Ｓ_１_１
  6
CONTINUOUS
 62
     3
100
AcDbLine
 10
1125.000009
 20
570.1903149999999
 30
0.0
 11
1100.000007
 21
587.8679839999999
 31
0.0
  0
LINE
  5
31B
330
1F
100
AcDbEntity
  8
Ｓ_１_１
  6
CONTINUOUS
 62
     3
100
AcDbLine
 10
1090.000071
 20
709.4461519999999
 30
0.0
 11
1090.000071
 21
644.436523
 31
0.0
  0
LINE
  5
31C
330
1F
100
AcDbEntity
  8
Ｓ_１_１
  6
CONTINUOUS
 62
     3
100
AcDbLine
 10
1210.0
 20
709.4461519999999
 30
0.0
 11
1210.0
 21
644.436523
 31
0.0
  0
LINE
  5
31D
330
1F
100
AcDbEntity
  8
Ｓ_１_１
  6
CONTINUOUS
 62
     3
100
AcDbLine
 10
1210.0
 20
709.4461519999999
 30
0.0
 11
1090.000071
 21
709.4461519999999
 31
0.0
  0
LINE
  5
31E
330
1F
100
AcDbEntity
  8
Ｓ_１_１
  6
CONTINUOUS
 62
     3
100
AcDbLine
 10
1175.000009
 20
612.616717
 30
0.0
 11
1200.000009
 21
630.2943859999997
 31
0.0
  0
LINE
  5
31F
330
1F
100
AcDbEntity
  8
Ｓ_１_１
  6
CONTINUOUS
 62
     3
100
AcDbLine
 10
1125.000008
 20
612.6167189999998
 30
0.0
 11
1100.000006
 21
630.2943889999998
 31
0.0
  0
LINE
  5
320
330
1F
100
AcDbEntity
  8
Ｓ_１_１
  6
CONTINUOUS
 62
     3
100
AcDbLine
 10
1200.0
 20
686.8629299999999
 30
0.0
 11
1100.000008
 21
686.8629299999999
 31
0.0
  0
LINE
  5
321
330
1F
100
AcDbEntity
  8
Ｓ_１_１
  6
CONTINUOUS
 62
     3
100
AcDbLine
 10
1125.000008
 20
612.6167139999999
 30
0.0
 11
1175.000008
 21
612.6167139999999
 31
0.0
  0
LINE
  5
322
330
1F
100
AcDbEntity
  8
Ｓ_１_１
  6
CONTINUOUS
 62
     3
100
AcDbLine
 10
1200.0
 20
620.0000149999997
 30
0.0
 11
1635.0
 21
620.0000149999997
 31
0.0
  0
LINE
  5
323
330
1F
100
AcDbEntity
  8
Ｓ_１_１
  6
CONTINUOUS
 62
     3
100
AcDbLine
 10
1552.820126
 20
1005.499991
 30
0.0
 11
1552.461641
 21
999.7642339999999
 31
0.0
  0
LINE
  5
324
330
1F
100
AcDbEntity
  8
Ｓ_１_１
  6
CONTINUOUS
 62
     3
100
AcDbLine
 10
1567.179874
 20
1005.500036
 30
0.0
 11
1567.563483
 21
999.3622929999997
 31
0.0
  0
LINE
  5
325
330
1F
100
AcDbEntity
  8
Ｓ_１_１
  6
CONTINUOUS
 62
     3
100
AcDbLine
 10
1568.264862
 20
999.362244
 30
0.0
 11
1554.07782
 21
999.362244
 31
0.0
  0
LINE
  5
326
330
1F
100
AcDbEntity
  8
Ｓ_１_１
  6
CONTINUOUS
 62
     3
100
AcDbLine
 10
1568.350017
 20
998.0000209999998
 30
0.0
 11
1567.563511
 21
999.3622899999997
 31
0.0
  0
LINE
  5
327
330
1F
100
AcDbEntity
  8
Ｓ_１_１
  6
CONTINUOUS
 62
     3
100
AcDbLine
 10
1552.118747
 20
1005.499979
 30
0.0
 11
1551.769978
 21
999.919681
 31
0.0
  0
LINE
  5
328
330
1F
100
AcDbEntity
  8
Ｓ_１_１
  6
CONTINUOUS
 62
     3
100
AcDbLine
 10
1567.881253
 20
1005.500025
 30
0.0
 11
1568.350004
 21
998.0000109999997
 31
0.0
  0
LINE
  5
329
330
1F
100
AcDbEntity
  8
Ｓ_１_１
  6
CONTINUOUS
 62
     3
100
AcDbLine
 10
1184.769249
 20
986.871521
 30
0.0
 11
1190.440979
 21
986.871521
 31
0.0
  0
LINE
  5
32A
330
1F
100
AcDbEntity
  8
Ｓ_１_１
  6
CONTINUOUS
 62
     3
100
AcDbLine
 10
1190.511513
 20
988.000021
 30
0.0
 11
1189.859978
 21
986.871529
 31
0.0
  0
LINE
  5
32B
330
1F
100
AcDbEntity
  8
Ｓ_１_１
  6
CONTINUOUS
 62
     3
100
AcDbLine
 10
1567.79422
 20
996.79425
 30
0.0
 11
1567.79422
 21
993.2282099999999
 31
0.0
  0
LINE
  5
32C
330
1F
100
AcDbEntity
  8
Ｓ_１_１
  6
CONTINUOUS
 62
     3
100
AcDbLine
 10
1189.430508
 20
980.0000329999998
 30
0.0
 11
1189.859976
 21
986.8715129999997
 31
0.0
  0
LINE
  5
32D
330
1F
100
AcDbEntity
  8
Ｓ_１_１
  6
CONTINUOUS
 62
     3
100
AcDbLine
 10
1573.5
 20
998.0000000000001
 30
0.0
 11
1558.404755
 21
998.0000000000001
 31
0.0
  0
LINE
  5
32E
330
1F
100
AcDbEntity
  8
Ｓ_１_１
  6
CONTINUOUS
 62
     3
100
AcDbLine
 10
1573.50001
 20
997.9999919999996
 30
0.0
 11
1575.588456
 21
996.7942279999999
 31
0.0
  0
LINE
  5
32F
330
1F
100
AcDbEntity
  8
Ｓ_１_１
  6
CONTINUOUS
 62
     3
100
AcDbLine
 10
1190.011511
 20
980.0000149999997
 30
0.0
 11
1190.51151
 21
988.0000000000001
 31
0.0
  0
LINE
  5
330
330
1F
100
AcDbEntity
  8
Ｓ_１_１
  6
CONTINUOUS
 62
     3
100
AcDbLine
 10
1183.811707
 20
988.0000000000001
 30
0.0
 11
1193.500008
 21
988.0000000000001
 31
0.0
  0
LINE
  5
331
330
1F
100
AcDbEntity
  8
Ｓ_１_１
  6
CONTINUOUS
 62
     3
100
AcDbLine
 10
1195.588463
 20
996.79425
 30
0.0
 11
1195.588463
 21
989.2057799999998
 31
0.0
  0
LINE
  5
332
330
1F
100
AcDbEntity
  8
Ｓ_１_１
  6
CONTINUOUS
 62
     3
100
AcDbLine
 10
1172.20578
 20
996.79425
 30
0.0
 11
1172.20578
 21
996.4131469999999
 31
0.0
  0
LINE
  5
333
330
1F
100
AcDbEntity
  8
Ｓ_１_１
  6
CONTINUOUS
 62
     3
100
AcDbLine
 10
1187.794235
 20
996.79425
 30
0.0
 11
1187.794235
 21
989.2057799999998
 31
0.0
  0
LINE
  5
334
330
1F
100
AcDbEntity
  8
Ｓ_１_１
  6
CONTINUOUS
 62
     3
100
AcDbLine
 10
1193.500019
 20
998.0000249999998
 30
0.0
 11
1195.588478
 21
996.7942529999997
 31
0.0
  0
LINE
  5
335
330
1F
100
AcDbEntity
  8
Ｓ_１_１
  6
CONTINUOUS
 62
     3
100
AcDbLine
 10
1168.40477
 20
998.0000000000001
 30
0.0
 11
1193.500008
 21
998.0000000000001
 31
0.0
  0
LINE
  5
336
330
1F
100
AcDbEntity
  8
Ｓ_１_１
  6
CONTINUOUS
 62
     3
100
AcDbLine
 10
1548.0
 20
1005.5
 30
0.0
 11
1572.0
 21
1005.5
 31
0.0
  0
LINE
  5
337
330
1F
100
AcDbEntity
  8
Ｓ_１_１
  6
CONTINUOUS
 62
     3
100
AcDbLine
 10
1565.0
 20
1006.077332
 30
0.0
 11
1573.0
 21
1006.077332
 31
0.0
  0
LINE
  5
338
330
1F
100
AcDbEntity
  8
Ｓ_１_１
  6
CONTINUOUS
 62
     3
100
AcDbLine
 10
1565.0
 20
1017.422668
 30
0.0
 11
1573.0
 21
1017.422668
 31
0.0
  0
LINE
  5
339
330
1F
100
AcDbEntity
  8
Ｓ_１_１
  6
CONTINUOUS
 62
     3
100
AcDbLine
 10
1547.0
 20
1006.077332
 30
0.0
 11
1555.0
 21
1006.077332
 31
0.0
  0
LINE
  5
33A
330
1F
100
AcDbEntity
  8
Ｓ_１_１
  6
CONTINUOUS
 62
     3
100
AcDbLine
 10
1547.0
 20
1017.422668
 30
0.0
 11
1555.0
 21
1017.422668
 31
0.0
  0
LINE
  5
33B
330
1F
100
AcDbEntity
  8
Ｓ_１_１
  6
CONTINUOUS
 62
     3
100
AcDbLine
 10
1547.0
 20
1033.577332
 30
0.0
 11
1573.0
 21
1033.577332
 31
0.0
  0
LINE
  5
33C
330
1F
100
AcDbEntity
  8
Ｓ_１_１
  6
CONTINUOUS
 62
     3
100
AcDbLine
 10
1547.000014
 20
1033.577368
 30
0.0
 11
1548.000008
 21
1033.000021
 31
0.0
  0
LINE
  5
33D
330
1F
100
AcDbEntity
  8
Ｓ_１_１
  6
CONTINUOUS
 62
     3
100
AcDbLine
 10
1572.0
 20
1017.999983
 30
0.0
 11
1572.999994
 21
1017.422637
 31
0.0
  0
LINE
  5
33E
330
1F
100
AcDbEntity
  8
Ｓ_１_１
  6
CONTINUOUS
 62
     3
100
AcDbLine
 10
1546.999996
 20
1006.077337
 30
0.0
 11
1547.999976
 21
1005.499998
 31
0.0
  0
LINE
  5
33F
330
1F
100
AcDbEntity
  8
Ｓ_１_１
  6
CONTINUOUS
 62
     3
100
AcDbLine
 10
1572.000021
 20
1033.000028
 30
0.0
 11
1572.999988
 21
1033.577359
 31
0.0
  0
LINE
  5
340
330
1F
100
AcDbEntity
  8
Ｓ_１_１
  6
CONTINUOUS
 62
     3
100
AcDbLine
 10
1547.000006
 20
1017.422662
 30
0.0
 11
1547.999973
 21
1017.999993
 31
0.0
  0
LINE
  5
341
330
1F
100
AcDbEntity
  8
Ｓ_１_１
  6
CONTINUOUS
 62
     3
100
AcDbLine
 10
1571.999971
 20
1005.499992
 30
0.0
 11
1572.999991
 21
1006.077355
 31
0.0
  0
LINE
  5
342
330
1F
100
AcDbEntity
  8
Ｓ_１_１
  6
CONTINUOUS
 62
     3
100
AcDbLine
 10
1565.0
 20
1017.422668
 30
0.0
 11
1565.0
 21
1006.077332
 31
0.0
  0
LINE
  5
343
330
1F
100
AcDbEntity
  8
Ｓ_１_１
  6
CONTINUOUS
 62
     3
100
AcDbLine
 10
1555.0
 20
1017.422668
 30
0.0
 11
1555.0
 21
1006.077332
 31
0.0
  0
LINE
  5
344
330
1F
100
AcDbEntity
  8
Ｓ_１_１
  6
CONTINUOUS
 62
     3
100
AcDbLine
 10
1561.749989
 20
1041.18173
 30
0.0
 11
1561.854909
 21
1041.000004
 31
0.0
  0
LINE
  5
345
330
1F
100
AcDbEntity
  8
Ｓ_１_１
  6
CONTINUOUS
 62
     3
100
AcDbLine
 10
1561.75
 20
1041.0
 30
0.0
 11
1576.0
 21
1041.0
 31
0.0
  0
LINE
  5
346
330
1F
100
AcDbEntity
  8
Ｓ_１_１
  6
CONTINUOUS
 62
     3
100
AcDbLine
 10
1561.75
 20
1040.5
 30
0.0
 11
1575.5
 21
1040.5
 31
0.0
  0
LINE
  5
347
330
1F
100
AcDbEntity
  8
Ｓ_１_１
  6
CONTINUOUS
 62
     3
100
AcDbLine
 10
1558.25
 20
1044.0
 30
0.0
 11
1561.75
 21
1044.0
 31
0.0
  0
LINE
  5
348
330
1F
100
AcDbEntity
  8
Ｓ_１_１
  6
CONTINUOUS
 62
     3
100
AcDbLine
 10
1558.25
 20
1044.0
 30
0.0
 11
1558.25
 21
1040.5
 31
0.0
  0
LINE
  5
349
330
1F
100
AcDbEntity
  8
Ｓ_１_１
  6
CONTINUOUS
 62
     3
100
AcDbLine
 10
1561.75
 20
1044.0
 30
0.0
 11
1561.75
 21
1040.5
 31
0.0
  0
LINE
  5
34A
330
1F
100
AcDbEntity
  8
Ｓ_１_１
  6
CONTINUOUS
 62
     3
100
AcDbLine
 10
1544.499991
 20
1038.0
 30
0.0
 11
1544.999991
 21
1037.499999
 31
0.0
  0
LINE
  5
34B
330
1F
100
AcDbEntity
  8
Ｓ_１_１
  6
CONTINUOUS
 62
     3
100
AcDbLine
 10
1544.500023
 20
1039.000033
 30
0.0
 11
1545.000013
 21
1039.500023
 31
0.0
  0
LINE
  5
34C
330
1F
100
AcDbEntity
  8
Ｓ_１_１
  6
CONTINUOUS
 62
     3
100
AcDbLine
 10
1575.000029
 20
1037.500037
 30
0.0
 11
1575.500019
 21
1038.000027
 31
0.0
  0
LINE
  5
34D
330
1F
100
AcDbEntity
  8
Ｓ_１_１
  6
CONTINUOUS
 62
     3
100
AcDbLine
 10
1575.000007
 20
1039.500018
 30
0.0
 11
1575.500008
 21
1039.000017
 31
0.0
  0
LINE
  5
34E
330
1F
100
AcDbEntity
  8
Ｓ_１_１
  6
CONTINUOUS
 62
     3
100
AcDbLine
 10
1573.0
 20
1037.5
 30
0.0
 11
1575.0
 21
1037.5
 31
0.0
  0
LINE
  5
34F
330
1F
100
AcDbEntity
  8
Ｓ_１_１
  6
CONTINUOUS
 62
     3
100
AcDbLine
 10
1573.0
 20
1039.5
 30
0.0
 11
1575.0
 21
1039.5
 31
0.0
  0
LINE
  5
350
330
1F
100
AcDbEntity
  8
Ｓ_１_１
  6
CONTINUOUS
 62
     3
100
AcDbLine
 10
1545.0
 20
1039.5
 30
0.0
 11
1547.0
 21
1039.5
 31
0.0
  0
LINE
  5
351
330
1F
100
AcDbEntity
  8
Ｓ_１_１
  6
CONTINUOUS
 62
     3
100
AcDbLine
 10
1545.0
 20
1037.5
 30
0.0
 11
1547.0
 21
1037.5
 31
0.0
  0
LINE
  5
352
330
1F
100
AcDbEntity
  8
Ｓ_１_１
  6
CONTINUOUS
 62
     3
100
AcDbLine
 10
1544.5
 20
1039.0
 30
0.0
 11
1544.5
 21
1038.0
 31
0.0
  0
LINE
  5
353
330
1F
100
AcDbEntity
  8
Ｓ_１_１
  6
CONTINUOUS
 62
     3
100
AcDbLine
 10
1575.5
 20
1039.0
 30
0.0
 11
1575.5
 21
1038.0
 31
0.0
  0
LINE
  5
354
330
1F
100
AcDbEntity
  8
Ｓ_１_１
  6
CONTINUOUS
 62
     3
100
AcDbLine
 10
1558.145084
 20
1041.00002
 30
0.0
 11
1558.250003
 21
1041.181746
 31
0.0
  0
LINE
  5
355
330
1F
100
AcDbEntity
  8
Ｓ_１_１
  6
CONTINUOUS
 62
     3
100
AcDbLine
 10
1544.0
 20
1064.5
 30
0.0
 11
1576.0
 21
1064.5
 31
0.0
  0
LINE
  5
356
330
1F
100
AcDbEntity
  8
Ｓ_１_１
  6
CONTINUOUS
 62
     3
100
AcDbLine
 10
1544.0
 20
1057.0
 30
0.0
 11
1576.0
 21
1057.0
 31
0.0
  0
LINE
  5
357
330
1F
100
AcDbEntity
  8
Ｓ_１_１
  6
CONTINUOUS
 62
     3
100
AcDbLine
 10
1544.0
 20
1041.0
 30
0.0
 11
1558.25
 21
1041.0
 31
0.0
  0
LINE
  5
358
330
1F
100
AcDbEntity
  8
Ｓ_１_１
  6
CONTINUOUS
 62
     3
100
AcDbLine
 10
1576.0
 20
1048.0
 30
0.0
 11
1544.0
 21
1048.0
 31
0.0
  0
LINE
  5
359
330
1F
100
AcDbEntity
  8
Ｓ_１_１
  6
CONTINUOUS
 62
     3
100
AcDbLine
 10
1575.500013
 20
1040.500027
 30
0.0
 11
1576.000002
 21
1041.000017
 31
0.0
  0
LINE
  5
35A
330
1F
100
AcDbEntity
  8
Ｓ_１_１
  6
CONTINUOUS
 62
     3
100
AcDbLine
 10
1544.000029
 20
1041.000037
 30
0.0
 11
1544.500024
 21
1040.500042
 31
0.0
  0
LINE
  5
35B
330
1F
100
AcDbEntity
  8
Ｓ_１_１
  6
CONTINUOUS
 62
     3
100
AcDbLine
 10
1576.0
 20
1048.0
 30
0.0
 11
1576.0
 21
1041.0
 31
0.0
  0
LINE
  5
35C
330
1F
100
AcDbEntity
  8
Ｓ_１_１
  6
CONTINUOUS
 62
     3
100
AcDbLine
 10
1544.0
 20
1048.0
 30
0.0
 11
1544.0
 21
1041.0
 31
0.0
  0
LINE
  5
35D
330
1F
100
AcDbEntity
  8
Ｓ_１_１
  6
CONTINUOUS
 62
     3
100
AcDbLine
 10
1543.999993
 20
1057.000003
 30
0.0
 11
1544.499992999999
 21
1056.500002
 31
0.0
  0
LINE
  5
35E
330
1F
100
AcDbEntity
  8
Ｓ_１_１
  6
CONTINUOUS
 62
     3
100
AcDbLine
 10
1575.500014
 20
1048.50003
 30
0.0
 11
1576.000014
 21
1048.000029
 31
0.0
  0
LINE
  5
35F
330
1F
100
AcDbEntity
  8
Ｓ_１_１
  6
CONTINUOUS
 62
     3
100
AcDbLine
 10
1575.500024
 20
1056.500034
 30
0.0
 11
1576.000014
 21
1057.000023
 31
0.0
  0
LINE
  5
360
330
1F
100
AcDbEntity
  8
Ｓ_１_１
  6
CONTINUOUS
 62
     3
100
AcDbLine
 10
1544.000003
 20
1048.000012
 30
0.0
 11
1544.500036
 21
1048.500045
 31
0.0
  0
LINE
  5
361
330
1F
100
AcDbEntity
  8
Ｓ_１_１
  6
CONTINUOUS
 62
     3
100
AcDbLine
 10
1544.5
 20
1056.5
 30
0.0
 11
1575.5
 21
1056.5
 31
0.0
  0
LINE
  5
362
330
1F
100
AcDbEntity
  8
Ｓ_１_１
  6
CONTINUOUS
 62
     3
100
AcDbLine
 10
1544.5
 20
1048.5
 30
0.0
 11
1575.5
 21
1048.5
 31
0.0
  0
LINE
  5
363
330
1F
100
AcDbEntity
  8
Ｓ_１_１
  6
CONTINUOUS
 62
     3
100
AcDbLine
 10
1575.5
 20
1056.5
 30
0.0
 11
1575.5
 21
1048.5
 31
0.0
  0
LINE
  5
364
330
1F
100
AcDbEntity
  8
Ｓ_１_１
  6
CONTINUOUS
 62
     3
100
AcDbLine
 10
1544.5
 20
1056.5
 30
0.0
 11
1544.5
 21
1048.5
 31
0.0
  0
LINE
  5
365
330
1F
100
AcDbEntity
  8
Ｓ_１_１
  6
CONTINUOUS
 62
     3
100
AcDbLine
 10
1572.999994
 20
1067.500016
 30
0.0
 11
1575.999992
 21
1064.500018
 31
0.0
  0
LINE
  5
366
330
1F
100
AcDbEntity
  8
Ｓ_１_１
  6
CONTINUOUS
 62
     3
100
AcDbLine
 10
1546.999993
 20
1067.500032
 30
0.0
 11
1544.000012
 21
1064.50005
 31
0.0
  0
LINE
  5
367
330
1F
100
AcDbEntity
  8
Ｓ_１_１
  6
CONTINUOUS
 62
     3
100
AcDbLine
 10
1548.0
 20
1033.0
 30
0.0
 11
1548.0
 21
1018.0
 31
0.0
  0
LINE
  5
368
330
1F
100
AcDbEntity
  8
Ｓ_１_１
  6
CONTINUOUS
 62
     3
100
AcDbLine
 10
1572.0
 20
1033.0
 30
0.0
 11
1572.0
 21
1018.0
 31
0.0
  0
LINE
  5
369
330
1F
100
AcDbEntity
  8
Ｓ_１_１
  6
CONTINUOUS
 62
     3
100
AcDbLine
 10
1547.0
 20
1067.5
 30
0.0
 11
1573.0
 21
1067.5
 31
0.0
  0
LINE
  5
36A
330
1F
100
AcDbEntity
  8
Ｓ_１_１
  6
CONTINUOUS
 62
     3
100
AcDbLine
 10
1576.0
 20
1064.5
 30
0.0
 11
1576.0
 21
1057.0
 31
0.0
  0
LINE
  5
36B
330
1F
100
AcDbEntity
  8
Ｓ_１_１
  6
CONTINUOUS
 62
     3
100
AcDbLine
 10
1544.0
 20
1064.5
 30
0.0
 11
1544.0
 21
1057.0
 31
0.0
  0
LINE
  5
36C
330
1F
100
AcDbEntity
  8
Ｓ_１_１
  6
CONTINUOUS
 62
     3
100
AcDbLine
 10
1573.0
 20
1017.422668
 30
0.0
 11
1573.0
 21
1006.077332
 31
0.0
  0
LINE
  5
36D
330
1F
100
AcDbEntity
  8
Ｓ_１_１
  6
CONTINUOUS
 62
     3
100
AcDbLine
 10
1547.0
 20
1017.422668
 30
0.0
 11
1547.0
 21
1006.077332
 31
0.0
  0
LINE
  5
36E
330
1F
100
AcDbEntity
  8
Ｓ_１_１
  6
CONTINUOUS
 62
     3
100
AcDbLine
 10
1572.0
 20
1068.0
 30
0.0
 11
1572.0
 21
1067.5
 31
0.0
  0
LINE
  5
36F
330
1F
100
AcDbEntity
  8
Ｓ_１_１
  6
CONTINUOUS
 62
     3
100
AcDbLine
 10
1548.0
 20
1068.0
 30
0.0
 11
1548.0
 21
1067.5
 31
0.0
  0
LINE
  5
370
330
1F
100
AcDbEntity
  8
Ｓ_１_１
  6
CONTINUOUS
 62
     3
100
AcDbLine
 10
1547.0
 20
1040.5
 30
0.0
 11
1547.0
 21
1033.577332
 31
0.0
  0
LINE
  5
371
330
1F
100
AcDbEntity
  8
Ｓ_１_１
  6
CONTINUOUS
 62
     3
100
AcDbLine
 10
1573.0
 20
1040.5
 30
0.0
 11
1573.0
 21
1033.577332
 31
0.0
  0
LINE
  5
372
330
1F
100
AcDbEntity
  8
Ｓ_１_１
  6
CONTINUOUS
 62
     3
100
AcDbLine
 10
1544.5
 20
1040.5
 30
0.0
 11
1558.25
 21
1040.5
 31
0.0
  0
LINE
  5
373
330
1F
100
AcDbEntity
  8
Ｓ_１_１
  6
CONTINUOUS
 62
     3
100
AcDbLine
 10
1548.0
 20
1033.0
 30
0.0
 11
1572.0
 21
1033.0
 31
0.0
  0
LINE
  5
374
330
1F
100
AcDbEntity
  8
Ｓ_１_１
  6
CONTINUOUS
 62
     3
100
AcDbLine
 10
1548.0
 20
1018.0
 30
0.0
 11
1572.0
 21
1018.0
 31
0.0
  0
LINE
  5
375
330
1F
100
AcDbEntity
  8
Ｓ_１_１
  6
CONTINUOUS
 62
     3
100
AcDbLine
 10
1548.0
 20
1068.0
 30
0.0
 11
1572.0
 21
1068.0
 31
0.0
  0
LINE
  5
376
330
1F
100
AcDbEntity
  8
Ｓ_１_１
  6
CONTINUOUS
 62
     3
100
AcDbLine
 10
1573.705194
 20
988.118482
 30
0.0
 11
1575.588471
 21
989.2057919999997
 31
0.0
  0
LINE
  5
377
330
1F
100
AcDbEntity
  8
Ｓ_１_１
  6
CONTINUOUS
 62
     3
100
AcDbLine
 10
1193.499993
 20
988.0000059999998
 30
0.0
 11
1195.588465
 21
989.2057860000001
 31
0.0
  0
LINE
  5
378
330
1F
100
AcDbEntity
  8
Ｓ_１_１
  6
CONTINUOUS
 62
     3
100
AcDbLine
 10
1575.58847
 20
996.79425
 30
0.0
 11
1575.58847
 21
989.2057799999998
 31
0.0
  0
LINE
  5
379
330
1F
100
AcDbEntity
  8
Ｓ_１_１
  6
CONTINUOUS
 62
     3
100
AcDbLine
 10
1578.714691
 20
980.0000000000001
 30
0.0
 11
1635.0
 21
980.0000000000001
 31
0.0
  0
LINE
  5
37A
330
1F
100
AcDbEntity
  8
Ｓ_１_１
  6
CONTINUOUS
 62
     3
100
AcDbLine
 10
1477.870992
 20
944.6037440000001
 30
0.0
 11
1487.870959
 21
947.7853339999997
 31
0.0
  0
LINE
  5
37B
330
1F
100
AcDbEntity
  8
Ｓ_１_１
  6
CONTINUOUS
 62
     3
100
AcDbLine
 10
1487.87096
 20
927.2792259999997
 30
0.0
 11
1477.871004
 21
907.1908309999999
 31
0.0
  0
LINE
  5
37C
330
1F
100
AcDbEntity
  8
Ｓ_１_１
  6
CONTINUOUS
 62
     3
100
AcDbLine
 10
1477.871002
 20
907.190796
 30
0.0
 11
1477.871002
 21
944.603729
 31
0.0
  0
LINE
  5
37D
330
1F
100
AcDbEntity
  8
Ｓ_１_１
  6
CONTINUOUS
 62
     3
100
AcDbLine
 10
1487.870972
 20
927.279236
 30
0.0
 11
1592.129028
 21
927.279236
 31
0.0
  0
LINE
  5
37E
330
1F
100
AcDbEntity
  8
Ｓ_１_１
  6
CONTINUOUS
 62
     3
100
AcDbLine
 10
1592.128973
 20
927.2792259999997
 30
0.0
 11
1602.129011
 21
907.190804
 31
0.0
  0
LINE
  5
37F
330
1F
100
AcDbEntity
  8
Ｓ_１_１
  6
CONTINUOUS
 62
     3
100
AcDbLine
 10
1477.871002
 20
907.190796
 30
0.0
 11
1602.129028
 21
907.190796
 31
0.0
  0
LINE
  5
380
330
1F
100
AcDbEntity
  8
Ｓ_１_１
  6
CONTINUOUS
 62
     3
100
AcDbLine
 10
1592.129049
 20
947.785352
 30
0.0
 11
1578.376072
 21
980.8650979999999
 31
0.0
  0
LINE
  5
381
330
1F
100
AcDbEntity
  8
Ｓ_１_１
  6
CONTINUOUS
 62
     3
100
AcDbLine
 10
1487.870979
 20
947.785348
 30
0.0
 11
1501.623972
 21
980.8650880000001
 31
0.0
  0
LINE
  5
382
330
1F
100
AcDbEntity
  8
Ｓ_１_１
  6
CONTINUOUS
 62
     3
100
AcDbLine
 10
1592.129028
 20
927.279236
 30
0.0
 11
1592.129028
 21
947.785339
 31
0.0
  0
LINE
  5
383
330
1F
100
AcDbEntity
  8
Ｓ_１_１
  6
CONTINUOUS
 62
     3
100
AcDbLine
 10
1592.129026
 20
947.7853139999997
 30
0.0
 11
1602.129058
 21
944.6037239999997
 31
0.0
  0
LINE
  5
384
330
1F
100
AcDbEntity
  8
Ｓ_１_１
  6
CONTINUOUS
 62
     3
100
AcDbLine
 10
1487.870947
 20
927.2792289999999
 30
0.0
 11
1501.623963
 21
960.3590249999997
 31
0.0
  0
LINE
  5
385
330
1F
100
AcDbEntity
  8
Ｓ_１_１
  6
CONTINUOUS
 62
     3
100
AcDbLine
 10
1487.870972
 20
927.279236
 30
0.0
 11
1487.870972
 21
947.785339
 31
0.0
  0
LINE
  5
386
330
1F
100
AcDbEntity
  8
Ｓ_１_１
  6
CONTINUOUS
 62
     3
100
AcDbLine
 10
1592.129058
 20
927.2792609999998
 30
0.0
 11
1578.376076
 21
960.3590219999998
 31
0.0
  0
LINE
  5
387
330
1F
100
AcDbEntity
  8
Ｓ_１_１
  6
CONTINUOUS
 62
     3
100
AcDbLine
 10
1602.129028
 20
907.190796
 30
0.0
 11
1602.129028
 21
944.603729
 31
0.0
  0
LINE
  5
388
330
1F
100
AcDbEntity
  8
Ｓ_１_１
  6
CONTINUOUS
 62
     3
100
AcDbLine
 10
1097.870974
 20
927.27924
 30
0.0
 11
1087.871004
 21
907.1908169999998
 31
0.0
  0
LINE
  5
389
330
1F
100
AcDbEntity
  8
Ｓ_１_１
  6
CONTINUOUS
 62
     3
100
AcDbLine
 10
1202.129036
 20
927.2792299999996
 30
0.0
 11
1212.129061
 21
907.1908349999999
 31
0.0
  0
LINE
  5
38A
330
1F
100
AcDbEntity
  8
Ｓ_１_１
  6
CONTINUOUS
 62
     3
100
AcDbLine
 10
1202.129024
 20
947.785328
 30
0.0
 11
1212.129059
 21
944.603737
 31
0.0
  0
LINE
  5
38B
330
1F
100
AcDbEntity
  8
Ｓ_１_１
  6
CONTINUOUS
 62
     3
100
AcDbLine
 10
1087.871006
 20
944.6037349999998
 30
0.0
 11
1097.870973
 21
947.7853259999997
 31
0.0
  0
LINE
  5
38C
330
1F
100
AcDbEntity
  8
Ｓ_１_１
  6
CONTINUOUS
 62
     3
100
AcDbLine
 10
1212.129059
 20
907.190796
 30
0.0
 11
1212.129059
 21
944.603729
 31
0.0
  0
LINE
  5
38D
330
1F
100
AcDbEntity
  8
Ｓ_１_１
  6
CONTINUOUS
 62
     3
100
AcDbLine
 10
1087.871004
 20
907.190796
 30
0.0
 11
1087.871004
 21
944.603729
 31
0.0
  0
LINE
  5
38E
330
1F
100
AcDbEntity
  8
Ｓ_１_１
  6
CONTINUOUS
 62
     3
100
AcDbLine
 10
1087.871004
 20
907.190796
 30
0.0
 11
1212.129059
 21
907.190796
 31
0.0
  0
LINE
  5
38F
330
1F
100
AcDbEntity
  8
Ｓ_１_１
  6
CONTINUOUS
 62
     3
100
AcDbLine
 10
1202.129028
 20
927.279236
 30
0.0
 11
1202.129028
 21
947.785339
 31
0.0
  0
LINE
  5
390
330
1F
100
AcDbEntity
  8
Ｓ_１_１
  6
CONTINUOUS
 62
     3
100
AcDbLine
 10
1097.870972
 20
927.279236
 30
0.0
 11
1097.870972
 21
947.785339
 31
0.0
  0
LINE
  5
391
330
1F
100
AcDbEntity
  8
Ｓ_１_１
  6
CONTINUOUS
 62
     3
100
AcDbLine
 10
1097.870964
 20
947.7853369999999
 30
0.0
 11
1111.623969
 21
980.8651049999999
 31
0.0
  0
LINE
  5
392
330
1F
100
AcDbEntity
  8
Ｓ_１_１
  6
CONTINUOUS
 62
     3
100
AcDbLine
 10
1202.129017
 20
947.7853229999997
 30
0.0
 11
1188.376029
 21
980.8650979999999
 31
0.0
  0
LINE
  5
393
330
1F
100
AcDbEntity
  8
Ｓ_１_１
  6
CONTINUOUS
 62
     3
100
AcDbLine
 10
1202.129027
 20
927.279232
 30
0.0
 11
1188.376039
 21
960.3590070000001
 31
0.0
  0
LINE
  5
394
330
1F
100
AcDbEntity
  8
Ｓ_１_１
  6
CONTINUOUS
 62
     3
100
AcDbLine
 10
1097.870972
 20
927.2792339999996
 30
0.0
 11
1111.623977
 21
960.3590019999998
 31
0.0
  0
LINE
  5
395
330
1F
100
AcDbEntity
  8
Ｓ_１_１
  6
CONTINUOUS
 62
     3
100
AcDbLine
 10
1097.870972
 20
927.279236
 30
0.0
 11
1202.129028
 21
927.279236
 31
0.0
  0
LINE
  5
396
330
1F
100
AcDbEntity
  8
Ｓ_１_１
  6
CONTINUOUS
 62
     3
100
AcDbLine
 10
1055.000008
 20
980.0000000000001
 30
0.0
 11
1111.285309
 21
980.0000000000001
 31
0.0
  0
LINE
  5
397
330
1F
100
AcDbEntity
  8
Ｓ_１_１
  6
CONTINUOUS
 62
     3
100
AcDbLine
 10
1200.0
 20
686.8629299999999
 30
0.0
 11
1200.0
 21
587.867981
 31
0.0
  0
LINE
  5
398
330
1F
100
AcDbEntity
  8
Ｓ_１_１
  6
CONTINUOUS
 62
     3
100
AcDbLine
 10
1100.000008
 20
686.8629299999999
 30
0.0
 11
1100.000008
 21
587.867981
 31
0.0
  0
LINE
  5
399
330
1F
100
AcDbEntity
  8
Ｓ_１_１
  6
CONTINUOUS
 62
     3
100
AcDbLine
 10
1635.0
 20
980.0000000000001
 30
0.0
 11
1635.0
 21
620.0000149999997
 31
0.0
  0
LINE
  5
39A
330
1F
100
AcDbEntity
  8
Ｓ_１_１
  6
CONTINUOUS
 62
     3
100
AcDbLine
 10
1055.000008
 20
980.0000000000001
 30
0.0
 11
1055.000008
 21
620.0000149999997
 31
0.0
  0
LINE
  5
39B
330
1F
100
AcDbEntity
  8
Ｓ_１_１
  6
CONTINUOUS
 62
     3
100
AcDbLine
 10
1639.999973
 20
625.000056
 30
0.0
 11
1634.999971
 21
620.0000469999999
 31
0.0
  0
LINE
  5
39C
330
1F
100
AcDbEntity
  8
Ｓ_１_１
  6
CONTINUOUS
 62
     3
100
AcDbLine
 10
1635.000018
 20
980.00004
 30
0.0
 11
1640.000024
 21
975.0000339999998
 31
0.0
  0
LINE
  5
39D
330
1F
100
AcDbEntity
  8
Ｓ_１_１
  6
CONTINUOUS
 62
     3
100
AcDbLine
 10
1050.000035
 20
625.0000349999999
 30
0.0
 11
1055.000029
 21
620.0000399999998
 31
0.0
  0
LINE
  5
39E
330
1F
100
AcDbEntity
  8
Ｓ_１_１
  6
CONTINUOUS
 62
     3
100
AcDbLine
 10
1055.000029
 20
979.9999889999999
 30
0.0
 11
1050.000036
 21
975.0000149999996
 31
0.0
  0
LINE
  5
39F
330
1F
100
AcDbEntity
  8
Ｓ_１_１
  6
CONTINUOUS
 62
     3
100
AcDbLine
 10
1040.000008
 20
680.0000149999997
 30
0.0
 11
1040.000008
 21
920.0000000000001
 31
0.0
  0
LINE
  5
3A0
330
1F
100
AcDbEntity
  8
Ｓ_１_１
  6
CONTINUOUS
 62
     3
100
AcDbLine
 10
1040.000021
 20
680.000009
 30
0.0
 11
1035.000025
 21
682.8867589999999
 31
0.0
  0
LINE
  5
3A1
330
1F
100
AcDbEntity
  8
Ｓ_１_１
  6
CONTINUOUS
 62
     3
100
AcDbLine
 10
1040.000027
 20
919.9999969999999
 30
0.0
 11
1035.000022
 21
917.1132319999998
 31
0.0
  0
LINE
  5
3A2
330
1F
100
AcDbEntity
  8
Ｓ_１_１
  6
CONTINUOUS
 62
     3
100
AcDbLine
 10
1040.000008
 20
680.0000149999997
 30
0.0
 11
1050.000008
 21
680.0000149999997
 31
0.0
  0
LINE
  5
3A3
330
1F
100
AcDbEntity
  8
Ｓ_１_１
  6
CONTINUOUS
 62
     3
100
AcDbLine
 10
1040.000008
 20
920.0000000000001
 30
0.0
 11
1050.000008
 21
920.0000000000001
 31
0.0
  0
LINE
  5
3A4
330
1F
100
AcDbEntity
  8
Ｓ_１_１
  6
CONTINUOUS
 62
     3
100
AcDbLine
 10
1035.000008
 20
917.1132509999998
 30
0.0
 11
1035.000008
 21
682.886764
 31
0.0
  0
LINE
  5
3A5
330
1F
100
AcDbEntity
  8
Ｓ_１_１
  6
CONTINUOUS
 62
     3
100
AcDbLine
 10
1050.000008
 20
975.0000299999998
 30
0.0
 11
1050.000008
 21
625.0000149999997
 31
0.0
  0
LINE
  5
3A6
330
1F
100
AcDbEntity
  8
Ｓ_１_１
  6
CONTINUOUS
 62
     3
100
AcDbLine
 10
1055.000008
 20
620.0000149999997
 30
0.0
 11
1100.000008
 21
620.0000149999997
 31
0.0
  0
LINE
  5
3A7
330
1F
100
AcDbEntity
  8
Ｓ_１_１
  6
CONTINUOUS
 62
     3
100
AcDbLine
 10
1640.0
 20
975.0
 30
0.0
 11
1640.0
 21
625.0000149999997
 31
0.0
  0
LINE
  5
3A8
330
1F
100
AcDbEntity
  8
Ｓ_１_１
  6
EXLTYPE0
 62
     2
100
AcDbLine
 10
1035.000008
 20
860.0000000000001
 30
0.0
 11
1640.0
 21
860.0000000000001
 31
0.0
  0
LINE
  5
3A9
330
1F
100
AcDbEntity
  8
Ｓ_１_１
  6
EXLTYPE0
 62
     2
100
AcDbLine
 10
1035.000008
 20
739.9999999999999
 30
0.0
 11
1640.0
 21
739.9999999999999
 31
0.0
  0
CIRCLE
  5
3AA
330
1F
100
AcDbEntity
  8
Ｓ_１_１
  6
EXLTYPE2
 62
     1
100
AcDbCircle
 10
480.000183
 20
799.9998779999999
 30
0.0
 40
135.0
  0
CIRCLE
  5
3AB
330
1F
100
AcDbEntity
  8
Ｓ_１_１
  6
EXLTYPE2
 62
     1
100
AcDbCircle
 10
480.000183
 20
799.9998779999999
 30
0.0
 40
90.0
  0
CIRCLE
  5
3AC
330
1F
100
AcDbEntity
  8
Ｓ_１_１
  6
EXLTYPE2
 62
     1
100
AcDbCircle
 10
480.000183
 20
799.9998779999999
 30
0.0
 40
165.0
  0
LINE
  5
3AD
330
1F
100
AcDbEntity
  8
Ｓ_１_１
  6
EXLTYPE2
 62
     1
100
AcDbLine
 10
531.5143050000001
 20
748.4858139999999
 30
0.0
 11
696.3041720000001
 21
583.6959469999997
 31
0.0
  0
LINE
  5
3AE
330
1F
100
AcDbEntity
  8
Ｓ_１_１
  6
EXLTYPE2
 62
     1
100
AcDbLine
 10
534.7688459999999
 20
854.76854
 30
0.0
 11
678.1492360000002
 21
998.1489309999997
 31
0.0
  0
LINE
  5
3AF
330
1F
100
AcDbEntity
  8
Ｓ_１_１
  6
EXLTYPE2
 62
     1
100
AcDbLine
 10
270.0002439999998
 20
799.9999999999999
 30
0.0
 11
660.0001830000001
 21
799.9999999999999
 31
0.0
  0
LINE
  5
3B0
330
1F
100
AcDbEntity
  8
Ｓ_１_１
  6
EXLTYPE2
 62
     1
100
AcDbLine
 10
624.957081
 20
584.3323599999999
 30
0.0
 11
695.6677479999998
 21
655.0430279999998
 31
0.0
  0
LINE
  5
3B1
330
1F
100
AcDbEntity
  8
Ｓ_１_１
  6
EXLTYPE2
 62
     1
100
AcDbLine
 10
299.687962
 20
655.0429949999998
 30
0.0
 11
335.0433009999997
 21
619.6876559999998
 31
0.0
  0
LINE
  5
3B2
330
1F
100
AcDbEntity
  8
Ｓ_１_１
  6
EXLTYPE2
 62
     1
100
AcDbLine
 10
299.6879829999998
 20
944.9567969999998
 30
0.0
 11
335.0433219999995
 21
980.312136
 31
0.0
  0
LINE
  5
3B3
330
1F
100
AcDbEntity
  8
Ｓ_１_１
  6
EXLTYPE2
 62
     1
100
AcDbLine
 10
624.957081
 20
980.3121149999997
 30
0.0
 11
660.3124199999997
 21
944.956776
 31
0.0
  0
LINE
  5
3B4
330
1F
100
AcDbEntity
  8
Ｓ_１_１
  6
EXLTYPE2
 62
     1
100
AcDbLine
 10
282.3815189999996
 20
997.6186009999997
 30
0.0
 11
428.7834379999999
 21
851.2166819999998
 31
0.0
  0
LINE
  5
3B5
330
1F
100
AcDbEntity
  8
Ｓ_１_１
  6
EXLTYPE2
 62
     1
100
AcDbLine
 10
282.7882220000001
 20
602.7879159999998
 30
0.0
 11
425.2587579999999
 21
745.2584529999999
 31
0.0
  0
LINE
  5
3B6
330
1F
100
AcDbEntity
  8
Ｓ_１_１
  6
EXLTYPE0
 62
     2
100
AcDbLine
 10
653.241352
 20
584.3323599999999
 30
0.0
 11
695.6677589999999
 21
626.7587669999998
 31
0.0
  0
LINE
  5
3B7
330
1F
100
AcDbEntity
  8
Ｓ_１_１
  6
EXLTYPE0
 62
     2
100
AcDbLine
 10
624.957081
 20
612.6166319999998
 30
0.0
 11
667.3834879999999
 21
655.0430389999997
 31
0.0
  0
LINE
  5
3B8
330
1F
100
AcDbEntity
  8
Ｓ_１_１
  6
EXLTYPE0
 62
     2
100
AcDbLine
 10
292.9704469999997
 20
633.4762389999999
 30
0.0
 11
313.4765440000001
 21
612.9701419999997
 31
0.0
  0
LINE
  5
3B9
330
1F
100
AcDbEntity
  8
Ｓ_１_１
  6
EXLTYPE0
 62
     2
100
AcDbLine
 10
321.2547180000001
 20
661.7605099999998
 30
0.0
 11
341.7608149999996
 21
641.2544129999997
 31
0.0
  0
LINE
  5
3BA
330
1F
100
AcDbEntity
  8
Ｓ_１_１
  6
EXLTYPE0
 62
     2
100
AcDbLine
 10
321.2546969999999
 20
938.2392399999999
 30
0.0
 11
341.7608149999996
 21
958.7453580000001
 31
0.0
  0
LINE
  5
3BB
330
1F
100
AcDbEntity
  8
Ｓ_１_１
  6
EXLTYPE0
 62
     2
100
AcDbLine
 10
292.9704259999999
 20
966.5235109999999
 30
0.0
 11
313.4765440000001
 21
987.0296290000001
 31
0.0
  0
LINE
  5
3BC
330
1F
100
AcDbEntity
  8
Ｓ_１_１
  6
EXLTYPE0
 62
     2
100
AcDbLine
 10
618.2395659999997
 20
958.7453580000001
 30
0.0
 11
638.7456630000001
 21
938.2392609999997
 31
0.0
  0
LINE
  5
3BD
330
1F
100
AcDbEntity
  8
Ｓ_１_１
  6
EXLTYPE0
 62
     2
100
AcDbLine
 10
646.5238380000001
 20
987.0296290000001
 30
0.0
 11
667.0299340000001
 21
966.5235319999997
 31
0.0
  0
ARC
  5
3BE
330
1F
100
AcDbEntity
  8
Ｓ_１_１
  6
CONTINUOUS
 62
     3
100
AcDbCircle
 10
468.3091429999999
 20
991.0991819999999
 30
0.0
 40
6.900722000000004
100
AcDbArc
 50
55.615751
 51
124.384247
  0
ARC
  5
3BF
330
1F
100
AcDbEntity
  8
Ｓ_１_１
  6
CONTINUOUS
 62
     3
100
AcDbCircle
 10
480.0004880000001
 20
972.2056579999999
 30
0.0
 40
25.79423
100
AcDbArc
 50
72.41204699999997
 51
107.587951
  0
ARC
  5
3C0
330
1F
100
AcDbEntity
  8
Ｓ_１_１
  6
CONTINUOUS
 62
     3
100
AcDbCircle
 10
491.6918329999999
 20
991.0991819999999
 30
0.0
 40
6.900722000000004
100
AcDbArc
 50
55.615751
 51
124.384247
  0
ARC
  5
3C1
330
1F
100
AcDbEntity
  8
Ｓ_１_１
  6
CONTINUOUS
 62
     3
100
AcDbCircle
 10
491.6918329999999
 20
994.9005739999998
 30
0.0
 40
6.900722000000004
100
AcDbArc
 50
235.6157530000001
 51
304.3842490000003
  0
ARC
  5
3C2
330
1F
100
AcDbEntity
  8
Ｓ_１_１
  6
CONTINUOUS
 62
     3
100
AcDbCircle
 10
480.0004880000001
 20
1013.794128
 30
0.0
 40
25.79423
100
AcDbArc
 50
252.4120490000002
 51
287.5879530000003
  0
ARC
  5
3C3
330
1F
100
AcDbEntity
  8
Ｓ_１_１
  6
CONTINUOUS
 62
     3
100
AcDbCircle
 10
468.3091429999999
 20
994.9005739999998
 30
0.0
 40
6.900722000000004
100
AcDbArc
 50
235.6157530000001
 51
304.3842490000003
  0
CIRCLE
  5
3C4
330
1F
100
AcDbEntity
  8
Ｓ_１_１
  6
CONTINUOUS
 62
     3
100
AcDbCircle
 10
645.0001830000001
 20
799.9997249999998
 30
0.0
 40
6.000000000000004
  0
CIRCLE
  5
3C5
330
1F
100
AcDbEntity
  8
Ｓ_１_１
  6
CONTINUOUS
 62
     3
100
AcDbCircle
 10
480.0000609999997
 20
634.9998929999997
 30
0.0
 40
6.000000000000004
  0
CIRCLE
  5
3C6
330
1F
100
AcDbEntity
  8
Ｓ_１_１
  6
CONTINUOUS
 62
     3
100
AcDbCircle
 10
315.0001830000001
 20
799.9999999999999
 30
0.0
 40
6.000000000000004
  0
CIRCLE
  5
3C7
330
1F
100
AcDbEntity
  8
Ｓ_１_１
  6
CONTINUOUS
 62
     3
100
AcDbCircle
 10
480.0004269999999
 20
964.9999079999998
 30
0.0
 40
6.000000000000004
  0
CIRCLE
  5
3C8
330
1F
100
AcDbEntity
  8
Ｓ_１_１
  6
CONTINUOUS
 62
     3
100
AcDbCircle
 10
480.0004269999999
 20
964.9999079999998
 30
0.0
 40
5.0
  0
CIRCLE
  5
3C9
330
1F
100
AcDbEntity
  8
Ｓ_１_１
  6
CONTINUOUS
 62
     3
100
AcDbCircle
 10
645.0001830000001
 20
799.9997249999998
 30
0.0
 40
5.0
  0
CIRCLE
  5
3CA
330
1F
100
AcDbEntity
  8
Ｓ_１_１
  6
CONTINUOUS
 62
     3
100
AcDbCircle
 10
480.0000609999997
 20
634.9998929999997
 30
0.0
 40
5.0
  0
CIRCLE
  5
3CB
330
1F
100
AcDbEntity
  8
Ｓ_１_１
  6
CONTINUOUS
 62
     3
100
AcDbCircle
 10
315.0001830000001
 20
799.9999999999999
 30
0.0
 40
5.0
  0
CIRCLE
  5
3CC
330
1F
100
AcDbEntity
  8
Ｓ_１_１
  6
CONTINUOUS
 62
     3
100
AcDbCircle
 10
416.3605350000003
 20
736.3603209999999
 30
0.0
 40
6.000000000000004
  0
CIRCLE
  5
3CD
330
1F
100
AcDbEntity
  8
Ｓ_１_１
  6
CONTINUOUS
 62
     3
100
AcDbCircle
 10
416.3605350000003
 20
736.3603209999999
 30
0.0
 40
5.0
  0
CIRCLE
  5
3CE
330
1F
100
AcDbEntity
  8
Ｓ_１_１
  6
CONTINUOUS
 62
     3
100
AcDbCircle
 10
570.0001830000001
 20
799.999786
 30
0.0
 40
6.000000000000004
  0
CIRCLE
  5
3CF
330
1F
100
AcDbEntity
  8
Ｓ_１_１
  6
CONTINUOUS
 62
     3
100
AcDbCircle
 10
543.6398920000001
 20
863.639404
 30
0.0
 40
6.000000000000004
  0
CIRCLE
  5
3D0
330
1F
100
AcDbEntity
  8
Ｓ_１_１
  6
CONTINUOUS
 62
     3
100
AcDbCircle
 10
480.0002439999998
 20
889.9998169999999
 30
0.0
 40
6.000000000000004
  0
CIRCLE
  5
3D1
330
1F
100
AcDbEntity
  8
Ｓ_１_１
  6
CONTINUOUS
 62
     3
100
AcDbCircle
 10
416.3606570000001
 20
863.639557
 30
0.0
 40
6.000000000000004
  0
CIRCLE
  5
3D2
330
1F
100
AcDbEntity
  8
Ｓ_１_１
  6
CONTINUOUS
 62
     3
100
AcDbCircle
 10
390.0002439999998
 20
799.99997
 30
0.0
 40
6.000000000000004
  0
CIRCLE
  5
3D3
330
1F
100
AcDbEntity
  8
Ｓ_１_１
  6
CONTINUOUS
 62
     3
100
AcDbCircle
 10
480.0001219999999
 20
709.9998779999999
 30
0.0
 40
6.000000000000004
  0
CIRCLE
  5
3D4
330
1F
100
AcDbEntity
  8
Ｓ_１_１
  6
CONTINUOUS
 62
     3
100
AcDbCircle
 10
543.639831
 20
736.3602909999997
 30
0.0
 40
6.000000000000004
  0
CIRCLE
  5
3D5
330
1F
100
AcDbEntity
  8
Ｓ_１_１
  6
CONTINUOUS
 62
     3
100
AcDbCircle
 10
596.6727900000001
 20
683.3272709999999
 30
0.0
 40
6.000000000000004
  0
CIRCLE
  5
3D6
330
1F
100
AcDbEntity
  8
Ｓ_１_１
  6
CONTINUOUS
 62
     3
100
AcDbCircle
 10
575.4595949999998
 20
704.5404819999999
 30
0.0
 40
6.000000000000004
  0
CIRCLE
  5
3D7
330
1F
100
AcDbEntity
  8
Ｓ_１_１
  6
CONTINUOUS
 62
     3
100
AcDbCircle
 10
575.4595949999998
 20
895.4592899999998
 30
0.0
 40
6.000000000000004
  0
CIRCLE
  5
3D8
330
1F
100
AcDbEntity
  8
Ｓ_１_１
  6
CONTINUOUS
 62
     3
100
AcDbCircle
 10
596.6727900000001
 20
916.672516
 30
0.0
 40
6.000000000000004
  0
CIRCLE
  5
3D9
330
1F
100
AcDbEntity
  8
Ｓ_１_１
  6
CONTINUOUS
 62
     3
100
AcDbCircle
 10
384.5407709999999
 20
895.4592899999998
 30
0.0
 40
6.000000000000004
  0
CIRCLE
  5
3DA
330
1F
100
AcDbEntity
  8
Ｓ_１_１
  6
CONTINUOUS
 62
     3
100
AcDbCircle
 10
363.3275759999997
 20
916.672516
 30
0.0
 40
6.000000000000004
  0
CIRCLE
  5
3DB
330
1F
100
AcDbEntity
  8
Ｓ_１_１
  6
CONTINUOUS
 62
     3
100
AcDbCircle
 10
384.5407709999999
 20
704.5404509999998
 30
0.0
 40
6.000000000000004
  0
CIRCLE
  5
3DC
330
1F
100
AcDbEntity
  8
Ｓ_１_１
  6
CONTINUOUS
 62
     3
100
AcDbCircle
 10
363.3275759999997
 20
683.3272399999998
 30
0.0
 40
6.000000000000004
  0
CIRCLE
  5
3DD
330
1F
100
AcDbEntity
  8
Ｓ_１_１
  6
CONTINUOUS
 62
     3
100
AcDbCircle
 10
363.3275759999997
 20
683.3272399999998
 30
0.0
 40
5.0
  0
CIRCLE
  5
3DE
330
1F
100
AcDbEntity
  8
Ｓ_１_１
  6
CONTINUOUS
 62
     3
100
AcDbCircle
 10
384.5407709999999
 20
704.5404509999998
 30
0.0
 40
5.0
  0
CIRCLE
  5
3DF
330
1F
100
AcDbEntity
  8
Ｓ_１_１
  6
CONTINUOUS
 62
     3
100
AcDbCircle
 10
384.5407709999999
 20
895.4592899999998
 30
0.0
 40
5.0
  0
CIRCLE
  5
3E0
330
1F
100
AcDbEntity
  8
Ｓ_１_１
  6
CONTINUOUS
 62
     3
100
AcDbCircle
 10
363.3275759999997
 20
916.672516
 30
0.0
 40
5.0
  0
CIRCLE
  5
3E1
330
1F
100
AcDbEntity
  8
Ｓ_１_１
  6
CONTINUOUS
 62
     3
100
AcDbCircle
 10
596.6727900000001
 20
916.672516
 30
0.0
 40
5.0
  0
CIRCLE
  5
3E2
330
1F
100
AcDbEntity
  8
Ｓ_１_１
  6
CONTINUOUS
 62
     3
100
AcDbCircle
 10
575.4595949999998
 20
895.4592899999998
 30
0.0
 40
5.0
  0
CIRCLE
  5
3E3
330
1F
100
AcDbEntity
  8
Ｓ_１_１
  6
CONTINUOUS
 62
     3
100
AcDbCircle
 10
596.6727900000001
 20
683.3272709999999
 30
0.0
 40
5.0
  0
CIRCLE
  5
3E4
330
1F
100
AcDbEntity
  8
Ｓ_１_１
  6
CONTINUOUS
 62
     3
100
AcDbCircle
 10
575.4595949999998
 20
704.5404819999999
 30
0.0
 40
5.0
  0
CIRCLE
  5
3E5
330
1F
100
AcDbEntity
  8
Ｓ_１_１
  6
CONTINUOUS
 62
     3
100
AcDbCircle
 10
570.0001830000001
 20
799.999786
 30
0.0
 40
5.0
  0
CIRCLE
  5
3E6
330
1F
100
AcDbEntity
  8
Ｓ_１_１
  6
CONTINUOUS
 62
     3
100
AcDbCircle
 10
543.6398920000001
 20
863.639404
 30
0.0
 40
5.0
  0
CIRCLE
  5
3E7
330
1F
100
AcDbEntity
  8
Ｓ_１_１
  6
CONTINUOUS
 62
     3
100
AcDbCircle
 10
480.0002439999998
 20
889.9998169999999
 30
0.0
 40
5.0
  0
CIRCLE
  5
3E8
330
1F
100
AcDbEntity
  8
Ｓ_１_１
  6
CONTINUOUS
 62
     3
100
AcDbCircle
 10
416.3606570000001
 20
863.639557
 30
0.0
 40
5.0
  0
CIRCLE
  5
3E9
330
1F
100
AcDbEntity
  8
Ｓ_１_１
  6
CONTINUOUS
 62
     3
100
AcDbCircle
 10
390.0002439999998
 20
799.99997
 30
0.0
 40
5.0
  0
CIRCLE
  5
3EA
330
1F
100
AcDbEntity
  8
Ｓ_１_１
  6
CONTINUOUS
 62
     3
100
AcDbCircle
 10
480.0001219999999
 20
709.9998779999999
 30
0.0
 40
5.0
  0
CIRCLE
  5
3EB
330
1F
100
AcDbEntity
  8
Ｓ_１_１
  6
CONTINUOUS
 62
     3
100
AcDbCircle
 10
543.639831
 20
736.3602909999997
 30
0.0
 40
5.0
  0
CIRCLE
  5
3EC
330
1F
100
AcDbEntity
  8
Ｓ_１_１
  6
CONTINUOUS
 62
     3
100
AcDbCircle
 10
480.000183
 20
799.9998779999999
 30
0.0
 40
63.00000000000004
  0
CIRCLE
  5
3ED
330
1F
100
AcDbEntity
  8
Ｓ_１_１
  6
CONTINUOUS
 62
     3
100
AcDbCircle
 10
480.000183
 20
799.9998779999999
 30
0.0
 40
60.00000000000004
  0
CIRCLE
  5
3EE
330
1F
100
AcDbEntity
  8
Ｓ_１_１
  6
CONTINUOUS
 62
     3
100
AcDbCircle
 10
480.000183
 20
799.9998779999999
 30
0.0
 40
117.0000000000001
  0
CIRCLE
  5
3EF
330
1F
100
AcDbEntity
  8
Ｓ_１_１
  6
CONTINUOUS
 62
     3
100
AcDbCircle
 10
480.000183
 20
799.9998779999999
 30
0.0
 40
120.0000000000001
  0
CIRCLE
  5
3F0
330
1F
100
AcDbEntity
  8
Ｓ_１_１
  6
CONTINUOUS
 62
     3
100
AcDbCircle
 10
480.000183
 20
799.9998779999999
 30
0.0
 40
148.0
  0
CIRCLE
  5
3F1
330
1F
100
AcDbEntity
  8
Ｓ_１_１
  6
CONTINUOUS
 62
     3
100
AcDbCircle
 10
480.000183
 20
799.9998779999999
 30
0.0
 40
150.0
  0
CIRCLE
  5
3F2
330
1F
100
AcDbEntity
  8
Ｓ_１_１
  6
CONTINUOUS
 62
     3
100
AcDbCircle
 10
480.000183
 20
799.9998779999999
 30
0.0
 40
175.0
  0
CIRCLE
  5
3F3
330
1F
100
AcDbEntity
  8
Ｓ_１_１
  6
CONTINUOUS
 62
     3
100
AcDbCircle
 10
480.000183
 20
799.9998779999999
 30
0.0
 40
180.0
  0
LINE
  5
3F4
330
1F
100
AcDbEntity
  8
Ｓ_１_１
  6
CONTINUOUS
 62
     3
100
AcDbLine
 10
469.5595090000002
 20
986.871399
 30
0.0
 11
490.4414059999999
 21
986.871399
 31
0.0
  0
LINE
  5
3F5
330
1F
100
AcDbEntity
  8
Ｓ_１_１
  6
CONTINUOUS
 62
     3
100
AcDbLine
 10
490.5119789999999
 20
987.9998919999997
 30
0.0
 11
489.8604479999999
 21
986.871407
 31
0.0
  0
LINE
  5
3F6
330
1F
100
AcDbEntity
  8
Ｓ_１_１
  6
CONTINUOUS
 62
     3
100
AcDbLine
 10
469.9889640000001
 20
979.9999039999998
 30
0.0
 11
469.4889669999997
 21
987.9998579999997
 31
0.0
  0
LINE
  5
3F7
330
1F
100
AcDbEntity
  8
Ｓ_１_１
  6
CONTINUOUS
 62
     3
100
AcDbLine
 10
470.5699300000001
 20
979.9998889999997
 30
0.0
 11
470.1404629999997
 21
986.871369
 31
0.0
  0
LINE
  5
3F8
330
1F
100
AcDbEntity
  8
Ｓ_１_１
  6
CONTINUOUS
 62
     3
100
AcDbLine
 10
469.4889450000001
 20
987.9999119999997
 30
0.0
 11
470.140495
 21
986.8713939999997
 31
0.0
  0
LINE
  5
3F9
330
1F
100
AcDbEntity
  8
Ｓ_１_１
  6
CONTINUOUS
 62
     3
100
AcDbLine
 10
489.4309859999998
 20
979.9998889999997
 30
0.0
 11
489.8604569999998
 21
986.8714289999998
 31
0.0
  0
LINE
  5
3FA
330
1F
100
AcDbEntity
  8
Ｓ_１_１
  6
CONTINUOUS
 62
     3
100
AcDbLine
 10
490.0119519999998
 20
979.9999039999998
 30
0.0
 11
490.511951
 21
987.9998889999997
 31
0.0
  0
LINE
  5
3FB
330
1F
100
AcDbEntity
  8
Ｓ_１_１
  6
CONTINUOUS
 62
     3
100
AcDbLine
 10
466.5004880000001
 20
987.9998780000001
 30
0.0
 11
493.5004880000001
 21
987.9998780000001
 31
0.0
  0
LINE
  5
3FC
330
1F
100
AcDbEntity
  8
Ｓ_１_１
  6
CONTINUOUS
 62
     3
100
AcDbLine
 10
495.5889280000001
 20
996.794128
 30
0.0
 11
495.5889280000001
 21
989.2056579999997
 31
0.0
  0
LINE
  5
3FD
330
1F
100
AcDbEntity
  8
Ｓ_１_１
  6
CONTINUOUS
 62
     3
100
AcDbLine
 10
464.411987
 20
996.794128
 30
0.0
 11
464.411987
 21
989.2056579999997
 31
0.0
  0
LINE
  5
3FE
330
1F
100
AcDbEntity
  8
Ｓ_１_１
  6
CONTINUOUS
 62
     3
100
AcDbLine
 10
472.2062379999997
 20
996.794128
 30
0.0
 11
472.2062379999997
 21
989.2056579999997
 31
0.0
  0
LINE
  5
3FF
330
1F
100
AcDbEntity
  8
Ｓ_１_１
  6
CONTINUOUS
 62
     3
100
AcDbLine
 10
487.7946779999997
 20
996.794128
 30
0.0
 11
487.7946779999997
 21
989.2056579999997
 31
0.0
  0
LINE
  5
400
330
1F
100
AcDbEntity
  8
Ｓ_１_１
  6
CONTINUOUS
 62
     3
100
AcDbLine
 10
466.5004680000002
 20
997.9998969999997
 30
0.0
 11
464.4119949999999
 21
996.7941169999998
 31
0.0
  0
LINE
  5
401
330
1F
100
AcDbEntity
  8
Ｓ_１_１
  6
CONTINUOUS
 62
     3
100
AcDbLine
 10
493.5004939999999
 20
997.9998820000001
 30
0.0
 11
495.5889139999999
 21
996.794132
 31
0.0
  0
LINE
  5
402
330
1F
100
AcDbEntity
  8
Ｓ_１_１
  6
CONTINUOUS
 62
     3
100
AcDbLine
 10
466.5004880000001
 20
997.9998780000001
 30
0.0
 11
493.5004880000001
 21
997.9998780000001
 31
0.0
  0
LINE
  5
403
330
1F
100
AcDbEntity
  8
Ｓ_１_１
  6
CONTINUOUS
 62
     3
100
AcDbLine
 10
493.500457
 20
987.9998639999998
 30
0.0
 11
495.588929
 21
989.2056440000001
 31
0.0
  0
LINE
  5
404
330
1F
100
AcDbEntity
  8
Ｓ_１_１
  6
CONTINUOUS
 62
     3
100
AcDbLine
 10
466.5004899999999
 20
987.999883
 30
0.0
 11
464.412017
 21
989.2056629999997
 31
0.0
  0
LINE
  5
405
330
1F
100
AcDbEntity
  8
Ｓ_１_１
  6
CONTINUOUS
 62
     3
100
AcDbLine
 10
649.7058179999999
 20
587.8678939999998
 30
0.0
 11
692.1322249999998
 21
630.2943009999999
 31
0.0
  0
LINE
  5
406
330
1F
100
AcDbEntity
  8
Ｓ_１_１
  6
CONTINUOUS
 62
     3
100
AcDbLine
 10
635.5641479999999
 20
686.8627929999998
 30
0.0
 11
635.5641479999999
 21
709.4460299999998
 31
0.0
  0
LINE
  5
407
330
1F
100
AcDbEntity
  8
Ｓ_１_１
  6
CONTINUOUS
 62
     3
100
AcDbLine
 10
593.1373290000001
 20
644.4372559999997
 30
0.0
 11
570.554016
 21
644.4372559999997
 31
0.0
  0
LINE
  5
408
330
1F
100
AcDbEntity
  8
Ｓ_１_１
  6
CONTINUOUS
 62
     3
100
AcDbLine
 10
614.3505009999999
 20
665.6496189999998
 30
0.0
 11
593.1372969999998
 21
644.4364149999997
 31
0.0
  0
LINE
  5
409
330
1F
100
AcDbEntity
  8
Ｓ_１_１
  6
CONTINUOUS
 62
     3
100
AcDbLine
 10
614.3505009999999
 20
665.6496189999998
 30
0.0
 11
635.5637040000001
 21
686.8628219999998
 31
0.0
  0
LINE
  5
40A
330
1F
100
AcDbEntity
  8
Ｓ_１_１
  6
CONTINUOUS
 62
     3
100
AcDbLine
 10
667.3834879999999
 20
570.1902249999998
 30
0.0
 11
593.1372969999998
 21
644.4364149999997
 31
0.0
  0
LINE
  5
40B
330
1F
100
AcDbEntity
  8
Ｓ_１_１
  6
CONTINUOUS
 62
     3
100
AcDbLine
 10
709.8098949999999
 20
612.6166319999998
 30
0.0
 11
635.5637040000001
 21
686.8628219999998
 31
0.0
  0
LINE
  5
40C
330
1F
100
AcDbEntity
  8
Ｓ_１_１
  6
CONTINUOUS
 62
     3
100
AcDbLine
 10
667.3834879999999
 20
570.1902249999998
 30
0.0
 11
688.5966910000002
 21
591.4034279999998
 31
0.0
  0
LINE
  5
40D
330
1F
100
AcDbEntity
  8
Ｓ_１_１
  6
CONTINUOUS
 62
     3
100
AcDbLine
 10
688.5966910000002
 20
591.4034279999998
 30
0.0
 11
709.8098949999999
 21
612.6166319999998
 31
0.0
  0
LINE
  5
40E
330
1F
100
AcDbEntity
  8
Ｓ_１_１
  6
CONTINUOUS
 62
     3
100
AcDbLine
 10
355.9029540000001
 20
655.3965449999998
 30
0.0
 11
372.809448
 21
655.3965449999998
 31
0.0
  0
LINE
  5
40F
330
1F
100
AcDbEntity
  8
Ｓ_１_１
  6
CONTINUOUS
 62
     3
100
AcDbLine
 10
335.3961179999997
 20
675.9026179999998
 30
0.0
 11
335.3961179999997
 21
692.8091279999999
 31
0.0
  0
LINE
  5
410
330
1F
100
AcDbEntity
  8
Ｓ_１_１
  6
CONTINUOUS
 62
     3
100
AcDbLine
 10
335.3968539999996
 20
675.9026449999997
 30
0.0
 11
355.902951
 21
655.3965489999998
 31
0.0
  0
LINE
  5
411
330
1F
100
AcDbEntity
  8
Ｓ_１_１
  6
CONTINUOUS
 62
     3
100
AcDbLine
 10
299.3344079999997
 20
598.8280059999997
 30
0.0
 11
355.902951
 21
655.3965489999998
 31
0.0
  0
LINE
  5
412
330
1F
100
AcDbEntity
  8
Ｓ_１_１
  6
CONTINUOUS
 62
     3
100
AcDbLine
 10
278.8283110000002
 20
619.3341029999997
 30
0.0
 11
335.3968539999996
 21
675.9026449999997
 31
0.0
  0
LINE
  5
413
330
1F
100
AcDbEntity
  8
Ｓ_１_１
  6
CONTINUOUS
 62
     3
100
AcDbLine
 10
278.8283110000002
 20
619.3341029999997
 30
0.0
 11
299.3344079999997
 21
598.8280059999997
 31
0.0
  0
LINE
  5
414
330
1F
100
AcDbEntity
  8
Ｓ_１_１
  6
CONTINUOUS
 62
     3
100
AcDbLine
 10
335.3969729999999
 20
924.0971679999998
 30
0.0
 11
335.3969729999999
 21
907.1907349999997
 31
0.0
  0
LINE
  5
415
330
1F
100
AcDbEntity
  8
Ｓ_１_１
  6
CONTINUOUS
 62
     3
100
AcDbLine
 10
355.9029540000001
 20
944.6037289999998
 30
0.0
 11
372.8093870000002
 21
944.6037289999998
 31
0.0
  0
LINE
  5
416
330
1F
100
AcDbEntity
  8
Ｓ_１_１
  6
CONTINUOUS
 62
     3
100
AcDbLine
 10
335.3968319999999
 20
924.097104
 30
0.0
 11
355.902951
 21
944.6032219999997
 31
0.0
  0
LINE
  5
417
330
1F
100
AcDbEntity
  8
Ｓ_１_１
  6
CONTINUOUS
 62
     3
100
AcDbLine
 10
278.8283549999996
 20
980.6657110000001
 30
0.0
 11
335.3968969999996
 21
924.0971690000001
 31
0.0
  0
LINE
  5
418
330
1F
100
AcDbEntity
  8
Ｓ_１_１
  6
CONTINUOUS
 62
     3
100
AcDbLine
 10
299.3344079999997
 20
1001.171765
 30
0.0
 11
355.902951
 21
944.6032219999997
 31
0.0
  0
LINE
  5
419
330
1F
100
AcDbEntity
  8
Ｓ_１_１
  6
CONTINUOUS
 62
     3
100
AcDbLine
 10
278.8283549999996
 20
980.6657110000001
 30
0.0
 11
289.081381
 21
990.9187379999998
 31
0.0
  0
LINE
  5
41A
330
1F
100
AcDbEntity
  8
Ｓ_１_１
  6
CONTINUOUS
 62
     3
100
AcDbLine
 10
289.081381
 20
990.9187379999998
 30
0.0
 11
299.3344079999997
 21
1001.171765
 31
0.0
  0
LINE
  5
41B
330
1F
100
AcDbEntity
  8
Ｓ_１_１
  6
CONTINUOUS
 62
     3
100
AcDbLine
 10
604.0974120000001
 20
944.603607
 30
0.0
 11
587.190979
 21
944.603607
 31
0.0
  0
LINE
  5
41C
330
1F
100
AcDbEntity
  8
Ｓ_１_１
  6
CONTINUOUS
 62
     3
100
AcDbLine
 10
624.60376
 20
924.0971369999996
 30
0.0
 11
624.60376
 21
907.190674
 31
0.0
  0
LINE
  5
41D
330
1F
100
AcDbEntity
  8
Ｓ_１_１
  6
CONTINUOUS
 62
     3
100
AcDbLine
 10
604.0974310000001
 20
944.6032219999997
 30
0.0
 11
624.6035269999998
 21
924.097126
 31
0.0
  0
LINE
  5
41E
330
1F
100
AcDbEntity
  8
Ｓ_１_１
  6
CONTINUOUS
 62
     3
100
AcDbLine
 10
681.1720700000001
 20
980.665668
 30
0.0
 11
624.6035269999998
 21
924.097126
 31
0.0
  0
LINE
  5
41F
330
1F
100
AcDbEntity
  8
Ｓ_１_１
  6
CONTINUOUS
 62
     3
100
AcDbLine
 10
660.6659730000001
 20
1001.171765
 30
0.0
 11
604.0974310000001
 21
944.6032219999997
 31
0.0
  0
LINE
  5
420
330
1F
100
AcDbEntity
  8
Ｓ_１_１
  6
CONTINUOUS
 62
     3
100
AcDbLine
 10
670.919022
 20
990.9187159999997
 30
0.0
 11
681.1720700000001
 21
980.665668
 31
0.0
  0
LINE
  5
421
330
1F
100
AcDbEntity
  8
Ｓ_１_１
  6
CONTINUOUS
 62
     3
100
AcDbLine
 10
660.6659730000001
 20
1001.171765
 30
0.0
 11
670.919022
 21
990.9187159999997
 31
0.0
  0
CIRCLE
  5
422
330
1F
100
AcDbEntity
  8
Ｓ_１_１
  6
EXLTYPE2
 62
     1
100
AcDbCircle
 10
2080.000243999999
 20
799.9998779999999
 30
0.0
 40
70.0
  0
CIRCLE
  5
423
330
1F
100
AcDbEntity
  8
Ｓ_１_１
  6
EXLTYPE2
 62
     1
100
AcDbCircle
 10
2080.000243999999
 20
799.9998779999999
 30
0.0
 40
105.0000000000001
  0
LINE
  5
424
330
1F
100
AcDbEntity
  8
Ｓ_１_１
  6
EXLTYPE2
 62
     1
100
AcDbLine
 10
2080.0
 20
1071.571838
 30
0.0
 11
2080.0
 21
611.8725279999999
 31
0.0
  0
LINE
  5
425
330
1F
100
AcDbEntity
  8
Ｓ_１_１
  6
EXLTYPE2
 62
     1
100
AcDbLine
 10
2016.130530999999
 20
863.869616
 30
0.0
 11
1881.851206
 21
998.1489419999997
 31
0.0
  0
LINE
  5
426
330
1F
100
AcDbEntity
  8
Ｓ_１_１
  6
EXLTYPE2
 62
     1
100
AcDbLine
 10
2016.256250999999
 20
736.2558749999998
 30
0.0
 11
1863.696323
 21
583.6959469999997
 31
0.0
  0
LINE
  5
427
330
1F
100
AcDbEntity
  8
Ｓ_１_１
  6
EXLTYPE2
 62
     1
100
AcDbLine
 10
2281.438232
 20
799.9999999999999
 30
0.0
 11
1890.33081
 21
799.9999999999999
 31
0.0
  0
LINE
  5
428
330
1F
100
AcDbEntity
  8
Ｓ_１_１
  6
EXLTYPE2
 62
     1
100
AcDbLine
 10
1935.043372
 20
584.3323169999999
 30
0.0
 11
1864.332693
 21
655.0429949999998
 31
0.0
  0
LINE
  5
429
330
1F
100
AcDbEntity
  8
Ｓ_１_１
  6
EXLTYPE2
 62
     1
100
AcDbLine
 10
2260.312490999999
 20
655.0429949999998
 30
0.0
 11
2224.957151999999
 21
619.6876559999998
 31
0.0
  0
LINE
  5
42A
330
1F
100
AcDbEntity
  8
Ｓ_１_１
  6
EXLTYPE2
 62
     1
100
AcDbLine
 10
2260.312490999999
 20
944.956776
 30
0.0
 11
2224.957151999999
 21
980.3121149999997
 31
0.0
  0
LINE
  5
42B
330
1F
100
AcDbEntity
  8
Ｓ_１_１
  6
EXLTYPE2
 62
     1
100
AcDbLine
 10
1935.043349999999
 20
980.312136
 30
0.0
 11
1899.688011
 21
944.9567969999998
 31
0.0
  0
LINE
  5
42C
330
1F
100
AcDbEntity
  8
Ｓ_１_１
  6
EXLTYPE2
 62
     1
100
AcDbLine
 10
2277.618911999999
 20
997.6185359999998
 30
0.0
 11
2145.060905
 21
865.060528
 31
0.0
  0
LINE
  5
42D
330
1F
100
AcDbEntity
  8
Ｓ_１_１
  6
EXLTYPE2
 62
     1
100
AcDbLine
 10
2277.212231
 20
602.7879159999998
 30
0.0
 11
2145.456753
 21
734.5433939999998
 31
0.0
  0
LINE
  5
42E
330
1F
100
AcDbEntity
  8
Ｓ_１_１
  6
EXLTYPE0
 62
     2
100
AcDbLine
 10
1906.7591
 20
584.3323169999999
 30
0.0
 11
1864.332693
 21
626.7587239999998
 31
0.0
  0
LINE
  5
42F
330
1F
100
AcDbEntity
  8
Ｓ_１_１
  6
EXLTYPE0
 62
     2
100
AcDbLine
 10
1935.043372
 20
612.6165879999999
 30
0.0
 11
1892.616965
 21
655.0429949999998
 31
0.0
  0
LINE
  5
430
330
1F
100
AcDbEntity
  8
Ｓ_１_１
  6
EXLTYPE0
 62
     2
100
AcDbLine
 10
2267.030004999999
 20
633.4762389999999
 30
0.0
 11
2246.523909
 21
612.9701419999997
 31
0.0
  0
LINE
  5
431
330
1F
100
AcDbEntity
  8
Ｓ_１_１
  6
EXLTYPE0
 62
     2
100
AcDbLine
 10
2238.745734
 20
661.7605099999998
 30
0.0
 11
2218.239636999999
 21
641.2544129999997
 31
0.0
  0
LINE
  5
432
330
1F
100
AcDbEntity
  8
Ｓ_１_１
  6
EXLTYPE0
 62
     2
100
AcDbLine
 10
2238.745734
 20
938.2392609999997
 30
0.0
 11
2218.239636999999
 21
958.7453580000001
 31
0.0
  0
LINE
  5
433
330
1F
100
AcDbEntity
  8
Ｓ_１_１
  6
EXLTYPE0
 62
     2
100
AcDbLine
 10
2267.030004999999
 20
966.5235319999997
 30
0.0
 11
2246.523909
 21
987.0296290000001
 31
0.0
  0
LINE
  5
434
330
1F
100
AcDbEntity
  8
Ｓ_１_１
  6
EXLTYPE0
 62
     2
100
AcDbLine
 10
1941.760863999999
 20
958.7453789999998
 30
0.0
 11
1921.254768
 21
938.2392829999998
 31
0.0
  0
LINE
  5
435
330
1F
100
AcDbEntity
  8
Ｓ_１_１
  6
EXLTYPE0
 62
     2
100
AcDbLine
 10
1913.476593
 20
987.0296509999998
 30
0.0
 11
1892.970495999999
 21
966.5235539999998
 31
0.0
  0
CIRCLE
  5
436
330
1F
100
AcDbEntity
  8
Ｓ_１_１
  6
CONTINUOUS
 62
     3
100
AcDbCircle
 10
2150.000243999999
 20
799.9999999999999
 30
0.0
 40
3.000000000000002
  0
CIRCLE
  5
437
330
1F
100
AcDbEntity
  8
Ｓ_１_１
  6
CONTINUOUS
 62
     3
100
AcDbCircle
 10
2080.0
 20
869.999878
 30
0.0
 40
3.000000000000002
  0
CIRCLE
  5
438
330
1F
100
AcDbEntity
  8
Ｓ_１_１
  6
CONTINUOUS
 62
     3
100
AcDbCircle
 10
2010.000243999999
 20
799.9999999999999
 30
0.0
 40
3.000000000000002
  0
CIRCLE
  5
439
330
1F
100
AcDbEntity
  8
Ｓ_１_１
  6
CONTINUOUS
 62
     3
100
AcDbCircle
 10
2080.0
 20
729.9998929999997
 30
0.0
 40
3.000000000000002
  0
CIRCLE
  5
43A
330
1F
100
AcDbEntity
  8
Ｓ_１_１
  6
CONTINUOUS
 62
     3
100
AcDbCircle
 10
2080.0
 20
729.9998929999997
 30
0.0
 40
4.0
  0
CIRCLE
  5
43B
330
1F
100
AcDbEntity
  8
Ｓ_１_１
  6
CONTINUOUS
 62
     3
100
AcDbCircle
 10
2150.000243999999
 20
799.9999999999999
 30
0.0
 40
4.0
  0
CIRCLE
  5
43C
330
1F
100
AcDbEntity
  8
Ｓ_１_１
  6
CONTINUOUS
 62
     3
100
AcDbCircle
 10
2080.0
 20
869.999878
 30
0.0
 40
4.0
  0
CIRCLE
  5
43D
330
1F
100
AcDbEntity
  8
Ｓ_１_１
  6
CONTINUOUS
 62
     3
100
AcDbCircle
 10
2010.000243999999
 20
799.9999999999999
 30
0.0
 40
4.0
  0
CIRCLE
  5
43E
330
1F
100
AcDbEntity
  8
Ｓ_１_１
  6
CONTINUOUS
 62
     3
100
AcDbCircle
 10
2080.000243999999
 20
799.9998779999999
 30
0.0
 40
78.5
  0
CIRCLE
  5
43F
330
1F
100
AcDbEntity
  8
Ｓ_１_１
  6
CONTINUOUS
 62
     3
100
AcDbCircle
 10
2080.000243999999
 20
799.9998779999999
 30
0.0
 40
80.0
  0
CIRCLE
  5
440
330
1F
100
AcDbEntity
  8
Ｓ_１_１
  6
CONTINUOUS
 62
     3
100
AcDbCircle
 10
2154.24646
 20
874.2460940000001
 30
0.0
 40
8.75
  0
CIRCLE
  5
441
330
1F
100
AcDbEntity
  8
Ｓ_１_１
  6
CONTINUOUS
 62
     3
100
AcDbCircle
 10
2154.24646
 20
725.7536769999997
 30
0.0
 40
8.75
  0
CIRCLE
  5
442
330
1F
100
AcDbEntity
  8
Ｓ_１_１
  6
CONTINUOUS
 62
     3
100
AcDbCircle
 10
2005.754028
 20
874.2460940000001
 30
0.0
 40
8.75
  0
CIRCLE
  5
443
330
1F
100
AcDbEntity
  8
Ｓ_１_１
  6
CONTINUOUS
 62
     3
100
AcDbCircle
 10
2005.754028
 20
725.7536769999997
 30
0.0
 40
8.75
  0
CIRCLE
  5
444
330
1F
100
AcDbEntity
  8
Ｓ_１_１
  6
CONTINUOUS
 62
     3
100
AcDbCircle
 10
2005.754028
 20
725.7536769999997
 30
0.0
 40
10.0
  0
CIRCLE
  5
445
330
1F
100
AcDbEntity
  8
Ｓ_１_１
  6
CONTINUOUS
 62
     3
100
AcDbCircle
 10
2154.24646
 20
725.7536769999997
 30
0.0
 40
10.0
  0
CIRCLE
  5
446
330
1F
100
AcDbEntity
  8
Ｓ_１_１
  6
CONTINUOUS
 62
     3
100
AcDbCircle
 10
2154.24646
 20
874.2460940000001
 30
0.0
 40
10.0
  0
CIRCLE
  5
447
330
1F
100
AcDbEntity
  8
Ｓ_１_１
  6
CONTINUOUS
 62
     3
100
AcDbCircle
 10
2005.754028
 20
874.2460940000001
 30
0.0
 40
10.0
  0
ARC
  5
448
330
1F
100
AcDbEntity
  8
Ｓ_１_１
  6
CONTINUOUS
 62
     3
100
AcDbCircle
 10
2080.0
 20
996.0604859999997
 30
0.0
 40
21.93943800000001
100
AcDbArc
 50
76.82652799999998
 51
103.173491
  0
ARC
  5
449
330
1F
100
AcDbEntity
  8
Ｓ_１_１
  6
CONTINUOUS
 62
     3
100
AcDbCircle
 10
2080.0
 20
1027.439331
 30
0.0
 40
21.93943800000001
100
AcDbArc
 50
256.8264750000001
 51
283.1734650000004
  0
ARC
  5
44A
330
1F
100
AcDbEntity
  8
Ｓ_１_１
  6
CONTINUOUS
 62
     3
100
AcDbCircle
 10
2091.691284
 20
994.9005739999998
 30
0.0
 40
6.900722000000004
100
AcDbArc
 50
235.6157530000001
 51
304.3842490000003
  0
ARC
  5
44B
330
1F
100
AcDbEntity
  8
Ｓ_１_１
  6
CONTINUOUS
 62
     3
100
AcDbCircle
 10
2080.0
 20
1013.794128
 30
0.0
 40
25.79423
100
AcDbArc
 50
252.4120490000002
 51
287.5879530000003
  0
ARC
  5
44C
330
1F
100
AcDbEntity
  8
Ｓ_１_１
  6
CONTINUOUS
 62
     3
100
AcDbCircle
 10
2068.308592999999
 20
994.9005739999998
 30
0.0
 40
6.900722000000004
100
AcDbArc
 50
235.6157530000001
 51
304.3842490000003
  0
ARC
  5
44D
330
1F
100
AcDbEntity
  8
Ｓ_１_１
  6
CONTINUOUS
 62
     3
100
AcDbCircle
 10
2068.308592999999
 20
991.0991819999999
 30
0.0
 40
6.900722000000004
100
AcDbArc
 50
55.615751
 51
124.384247
  0
ARC
  5
44E
330
1F
100
AcDbEntity
  8
Ｓ_１_１
  6
CONTINUOUS
 62
     3
100
AcDbCircle
 10
2080.0
 20
972.2056579999999
 30
0.0
 40
25.79423
100
AcDbArc
 50
72.41204699999997
 51
107.587951
  0
ARC
  5
44F
330
1F
100
AcDbEntity
  8
Ｓ_１_１
  6
CONTINUOUS
 62
     3
100
AcDbCircle
 10
2091.691284
 20
991.0991819999999
 30
0.0
 40
6.900722000000004
100
AcDbArc
 50
55.615751
 51
124.384247
  0
CIRCLE
  5
450
330
1F
100
AcDbEntity
  8
Ｓ_１_１
  6
CONTINUOUS
 62
     3
100
AcDbCircle
 10
2080.000243999999
 20
799.9998779999999
 30
0.0
 40
63.00000000000004
  0
CIRCLE
  5
451
330
1F
100
AcDbEntity
  8
Ｓ_１_１
  6
CONTINUOUS
 62
     3
100
AcDbCircle
 10
2080.000243999999
 20
799.9998779999999
 30
0.0
 40
60.00000000000004
  0
CIRCLE
  5
452
330
1F
100
AcDbEntity
  8
Ｓ_１_１
  6
CONTINUOUS
 62
     3
100
AcDbCircle
 10
2080.000243999999
 20
799.9998779999999
 30
0.0
 40
175.0
  0
CIRCLE
  5
453
330
1F
100
AcDbEntity
  8
Ｓ_１_１
  6
CONTINUOUS
 62
     3
100
AcDbCircle
 10
2080.000243999999
 20
799.9998779999999
 30
0.0
 40
180.0
  0
LINE
  5
454
330
1F
100
AcDbEntity
  8
Ｓ_１_１
  6
CONTINUOUS
 62
     3
100
AcDbLine
 10
2090.440918
 20
986.871399
 30
0.0
 11
2069.559081999999
 21
986.871399
 31
0.0
  0
LINE
  5
455
330
1F
100
AcDbEntity
  8
Ｓ_１_１
  6
CONTINUOUS
 62
     3
100
AcDbLine
 10
2069.488518
 20
987.999918
 30
0.0
 11
2070.140046
 21
986.8714389999999
 31
0.0
  0
LINE
  5
456
330
1F
100
AcDbEntity
  8
Ｓ_１_１
  6
CONTINUOUS
 62
     3
100
AcDbLine
 10
2090.011443999999
 20
979.9998919999998
 30
0.0
 11
2090.511445
 21
987.9999079999997
 31
0.0
  0
LINE
  5
457
330
1F
100
AcDbEntity
  8
Ｓ_１_１
  6
CONTINUOUS
 62
     3
100
AcDbLine
 10
2089.430478
 20
979.9998769999997
 30
0.0
 11
2089.859948999999
 21
986.8714179999996
 31
0.0
  0
LINE
  5
458
330
1F
100
AcDbEntity
  8
Ｓ_１_１
  6
CONTINUOUS
 62
     3
100
AcDbLine
 10
2090.511518999999
 20
987.9998879999997
 30
0.0
 11
2089.859999
 21
986.8714229999999
 31
0.0
  0
LINE
  5
459
330
1F
100
AcDbEntity
  8
Ｓ_１_１
  6
CONTINUOUS
 62
     3
100
AcDbLine
 10
2070.569543999999
 20
979.9999079999998
 30
0.0
 11
2070.140075
 21
986.8714179999996
 31
0.0
  0
LINE
  5
45A
330
1F
100
AcDbEntity
  8
Ｓ_１_１
  6
CONTINUOUS
 62
     3
100
AcDbLine
 10
2069.98858
 20
979.9998919999998
 30
0.0
 11
2069.488578999999
 21
987.9999079999997
 31
0.0
  0
LINE
  5
45B
330
1F
100
AcDbEntity
  8
Ｓ_１_１
  6
CONTINUOUS
 62
     3
100
AcDbLine
 10
2093.5
 20
987.9998780000001
 30
0.0
 11
2066.5
 21
987.9998780000001
 31
0.0
  0
LINE
  5
45C
330
1F
100
AcDbEntity
  8
Ｓ_１_１
  6
CONTINUOUS
 62
     3
100
AcDbLine
 10
2072.436486999999
 20
999.3621909999996
 30
0.0
 11
2071.649958
 21
997.9998820000001
 31
0.0
  0
LINE
  5
45D
330
1F
100
AcDbEntity
  8
Ｓ_１_１
  6
CONTINUOUS
 62
     3
100
AcDbLine
 10
2072.820077999999
 20
1005.49991
 30
0.0
 11
2072.436469
 21
999.3621669999997
 31
0.0
  0
LINE
  5
45E
330
1F
100
AcDbEntity
  8
Ｓ_１_１
  6
CONTINUOUS
 62
     3
100
AcDbLine
 10
2087.179946999999
 20
1005.49991
 30
0.0
 11
2087.563556
 21
999.3621669999997
 31
0.0
  0
LINE
  5
45F
330
1F
100
AcDbEntity
  8
Ｓ_１_１
  6
CONTINUOUS
 62
     3
100
AcDbLine
 10
2088.264892
 20
999.362122
 30
0.0
 11
2071.735107
 21
999.362122
 31
0.0
  0
LINE
  5
460
330
1F
100
AcDbEntity
  8
Ｓ_１_１
  6
CONTINUOUS
 62
     3
100
AcDbLine
 10
2088.349965999999
 20
997.9998669999999
 30
0.0
 11
2087.563459
 21
999.3621370000001
 31
0.0
  0
LINE
  5
461
330
1F
100
AcDbEntity
  8
Ｓ_１_１
  6
CONTINUOUS
 62
     3
100
AcDbLine
 10
2072.118637999999
 20
1005.499903
 30
0.0
 11
2071.649887
 21
997.9998889999997
 31
0.0
  0
LINE
  5
462
330
1F
100
AcDbEntity
  8
Ｓ_１_１
  6
CONTINUOUS
 62
     3
100
AcDbLine
 10
2064.411498999999
 20
996.794128
 30
0.0
 11
2064.411498999999
 21
989.2056579999997
 31
0.0
  0
LINE
  5
463
330
1F
100
AcDbEntity
  8
Ｓ_１_１
  6
CONTINUOUS
 62
     3
100
AcDbLine
 10
2087.881263999999
 20
1005.499895
 30
0.0
 11
2088.350015
 21
997.9998809999997
 31
0.0
  0
LINE
  5
464
330
1F
100
AcDbEntity
  8
Ｓ_１_１
  6
CONTINUOUS
 62
     3
100
AcDbLine
 10
2066.500006999999
 20
997.9999009999997
 30
0.0
 11
2064.411587999999
 21
996.7941519999999
 31
0.0
  0
LINE
  5
465
330
1F
100
AcDbEntity
  8
Ｓ_１_１
  6
CONTINUOUS
 62
     3
100
AcDbLine
 10
2087.794189
 20
996.794128
 30
0.0
 11
2087.794189
 21
989.2056579999997
 31
0.0
  0
LINE
  5
466
330
1F
100
AcDbEntity
  8
Ｓ_１_１
  6
CONTINUOUS
 62
     3
100
AcDbLine
 10
2093.5
 20
997.9998780000001
 30
0.0
 11
2066.5
 21
997.9998780000001
 31
0.0
  0
LINE
  5
467
330
1F
100
AcDbEntity
  8
Ｓ_１_１
  6
CONTINUOUS
 62
     3
100
AcDbLine
 10
2072.20581
 20
996.794128
 30
0.0
 11
2072.20581
 21
989.2056579999997
 31
0.0
  0
LINE
  5
468
330
1F
100
AcDbEntity
  8
Ｓ_１_１
  6
CONTINUOUS
 62
     3
100
AcDbLine
 10
2093.499969999999
 20
997.9998889999997
 30
0.0
 11
2095.588442
 21
996.7941089999998
 31
0.0
  0
LINE
  5
469
330
1F
100
AcDbEntity
  8
Ｓ_１_１
  6
CONTINUOUS
 62
     3
100
AcDbLine
 10
2068.0
 20
1005.499878
 30
0.0
 11
2092.0
 21
1005.499878
 31
0.0
  0
LINE
  5
46A
330
1F
100
AcDbEntity
  8
Ｓ_１_１
  6
CONTINUOUS
 62
     3
100
AcDbLine
 10
2085.0
 20
1006.07721
 30
0.0
 11
2093.0
 21
1006.07721
 31
0.0
  0
LINE
  5
46B
330
1F
100
AcDbEntity
  8
Ｓ_１_１
  6
CONTINUOUS
 62
     3
100
AcDbLine
 10
2085.0
 20
1017.422546
 30
0.0
 11
2093.0
 21
1017.422546
 31
0.0
  0
LINE
  5
46C
330
1F
100
AcDbEntity
  8
Ｓ_１_１
  6
CONTINUOUS
 62
     3
100
AcDbLine
 10
2067.0
 20
1006.07721
 30
0.0
 11
2075.0
 21
1006.07721
 31
0.0
  0
LINE
  5
46D
330
1F
100
AcDbEntity
  8
Ｓ_１_１
  6
CONTINUOUS
 62
     3
100
AcDbLine
 10
2067.0
 20
1017.422546
 30
0.0
 11
2075.0
 21
1017.422546
 31
0.0
  0
LINE
  5
46E
330
1F
100
AcDbEntity
  8
Ｓ_１_１
  6
CONTINUOUS
 62
     3
100
AcDbLine
 10
2067.0
 20
1033.57721
 30
0.0
 11
2093.0
 21
1033.57721
 31
0.0
  0
LINE
  5
46F
330
1F
100
AcDbEntity
  8
Ｓ_１_１
  6
CONTINUOUS
 62
     3
100
AcDbLine
 10
2066.999987
 20
1033.577257
 30
0.0
 11
2068.000008
 21
1032.999895
 31
0.0
  0
LINE
  5
470
330
1F
100
AcDbEntity
  8
Ｓ_１_１
  6
CONTINUOUS
 62
     3
100
AcDbLine
 10
2091.999987
 20
1017.999865
 30
0.0
 11
2093.000006999999
 21
1017.422502
 31
0.0
  0
LINE
  5
471
330
1F
100
AcDbEntity
  8
Ｓ_１_１
  6
CONTINUOUS
 62
     3
100
AcDbLine
 10
2066.999969
 20
1006.077226
 30
0.0
 11
2067.999988999999
 21
1005.499863
 31
0.0
  0
LINE
  5
472
330
1F
100
AcDbEntity
  8
Ｓ_１_１
  6
CONTINUOUS
 62
     3
100
AcDbLine
 10
2091.999984
 20
1032.999881
 30
0.0
 11
2092.999952
 21
1033.577212
 31
0.0
  0
LINE
  5
473
330
1F
100
AcDbEntity
  8
Ｓ_１_１
  6
CONTINUOUS
 62
     3
100
AcDbLine
 10
2066.999961999999
 20
1017.422528
 30
0.0
 11
2068.000035
 21
1017.999921
 31
0.0
  0
LINE
  5
474
330
1F
100
AcDbEntity
  8
Ｓ_１_１
  6
CONTINUOUS
 62
     3
100
AcDbLine
 10
2091.99998
 20
1005.499889
 30
0.0
 11
2092.999947
 21
1006.077221
 31
0.0
  0
LINE
  5
475
330
1F
100
AcDbEntity
  8
Ｓ_１_１
  6
CONTINUOUS
 62
     3
100
AcDbLine
 10
2085.0
 20
1017.422546
 30
0.0
 11
2085.0
 21
1006.07721
 31
0.0
  0
LINE
  5
476
330
1F
100
AcDbEntity
  8
Ｓ_１_１
  6
CONTINUOUS
 62
     3
100
AcDbLine
 10
2075.0
 20
1017.422546
 30
0.0
 11
2075.0
 21
1006.07721
 31
0.0
  0
LINE
  5
477
330
1F
100
AcDbEntity
  8
Ｓ_１_１
  6
CONTINUOUS
 62
     3
100
AcDbLine
 10
2081.749988999999
 20
1041.181611
 30
0.0
 11
2081.854908
 21
1040.999885
 31
0.0
  0
LINE
  5
478
330
1F
100
AcDbEntity
  8
Ｓ_１_１
  6
CONTINUOUS
 62
     3
100
AcDbLine
 10
2081.75
 20
1040.999878
 30
0.0
 11
2096.0
 21
1040.999878
 31
0.0
  0
LINE
  5
479
330
1F
100
AcDbEntity
  8
Ｓ_１_１
  6
CONTINUOUS
 62
     3
100
AcDbLine
 10
2081.75
 20
1040.499878
 30
0.0
 11
2095.5
 21
1040.499878
 31
0.0
  0
LINE
  5
47A
330
1F
100
AcDbEntity
  8
Ｓ_１_１
  6
CONTINUOUS
 62
     3
100
AcDbLine
 10
2078.25
 20
1043.999878
 30
0.0
 11
2081.75
 21
1043.999878
 31
0.0
  0
LINE
  5
47B
330
1F
100
AcDbEntity
  8
Ｓ_１_１
  6
CONTINUOUS
 62
     3
100
AcDbLine
 10
2078.25
 20
1043.999878
 30
0.0
 11
2078.25
 21
1040.499878
 31
0.0
  0
LINE
  5
47C
330
1F
100
AcDbEntity
  8
Ｓ_１_１
  6
CONTINUOUS
 62
     3
100
AcDbLine
 10
2081.75
 20
1043.999878
 30
0.0
 11
2081.75
 21
1040.499878
 31
0.0
  0
LINE
  5
47D
330
1F
100
AcDbEntity
  8
Ｓ_１_１
  6
CONTINUOUS
 62
     3
100
AcDbLine
 10
2064.499974999999
 20
1037.999883
 30
0.0
 11
2064.999965
 21
1037.499894
 31
0.0
  0
LINE
  5
47E
330
1F
100
AcDbEntity
  8
Ｓ_１_１
  6
CONTINUOUS
 62
     3
100
AcDbLine
 10
2064.499996999999
 20
1038.999928
 30
0.0
 11
2064.999942999999
 21
1039.499874
 31
0.0
  0
LINE
  5
47F
330
1F
100
AcDbEntity
  8
Ｓ_１_１
  6
CONTINUOUS
 62
     3
100
AcDbLine
 10
2094.999933
 20
1037.499829
 30
0.0
 11
2095.499965
 21
1037.999862
 31
0.0
  0
LINE
  5
480
330
1F
100
AcDbEntity
  8
Ｓ_１_１
  6
CONTINUOUS
 62
     3
100
AcDbLine
 10
2094.999996999999
 20
1039.499896
 30
0.0
 11
2095.499987
 21
1038.999906
 31
0.0
  0
LINE
  5
481
330
1F
100
AcDbEntity
  8
Ｓ_１_１
  6
CONTINUOUS
 62
     3
100
AcDbLine
 10
2093.0
 20
1037.499878
 30
0.0
 11
2095.0
 21
1037.499878
 31
0.0
  0
LINE
  5
482
330
1F
100
AcDbEntity
  8
Ｓ_１_１
  6
CONTINUOUS
 62
     3
100
AcDbLine
 10
2093.0
 20
1039.499878
 30
0.0
 11
2095.0
 21
1039.499878
 31
0.0
  0
LINE
  5
483
330
1F
100
AcDbEntity
  8
Ｓ_１_１
  6
CONTINUOUS
 62
     3
100
AcDbLine
 10
2065.0
 20
1039.499878
 30
0.0
 11
2067.0
 21
1039.499878
 31
0.0
  0
LINE
  5
484
330
1F
100
AcDbEntity
  8
Ｓ_１_１
  6
CONTINUOUS
 62
     3
100
AcDbLine
 10
2065.0
 20
1037.499878
 30
0.0
 11
2067.0
 21
1037.499878
 31
0.0
  0
LINE
  5
485
330
1F
100
AcDbEntity
  8
Ｓ_１_１
  6
CONTINUOUS
 62
     3
100
AcDbLine
 10
2064.5
 20
1038.999878
 30
0.0
 11
2064.5
 21
1037.999878
 31
0.0
  0
LINE
  5
486
330
1F
100
AcDbEntity
  8
Ｓ_１_１
  6
CONTINUOUS
 62
     3
100
AcDbLine
 10
2095.5
 20
1038.999878
 30
0.0
 11
2095.5
 21
1037.999878
 31
0.0
  0
LINE
  5
487
330
1F
100
AcDbEntity
  8
Ｓ_１_１
  6
CONTINUOUS
 62
     3
100
AcDbLine
 10
2078.145096999999
 20
1040.999919
 30
0.0
 11
2078.250016
 21
1041.181645
 31
0.0
  0
LINE
  5
488
330
1F
100
AcDbEntity
  8
Ｓ_１_１
  6
CONTINUOUS
 62
     3
100
AcDbLine
 10
2064.0
 20
1064.499878
 30
0.0
 11
2096.0
 21
1064.499878
 31
0.0
  0
LINE
  5
489
330
1F
100
AcDbEntity
  8
Ｓ_１_１
  6
CONTINUOUS
 62
     3
100
AcDbLine
 10
2064.0
 20
1056.999878
 30
0.0
 11
2096.0
 21
1056.999878
 31
0.0
  0
LINE
  5
48A
330
1F
100
AcDbEntity
  8
Ｓ_１_１
  6
CONTINUOUS
 62
     3
100
AcDbLine
 10
2064.0
 20
1040.999878
 30
0.0
 11
2078.25
 21
1040.999878
 31
0.0
  0
LINE
  5
48B
330
1F
100
AcDbEntity
  8
Ｓ_１_１
  6
CONTINUOUS
 62
     3
100
AcDbLine
 10
2096.0
 20
1047.999878
 30
0.0
 11
2064.0
 21
1047.999878
 31
0.0
  0
LINE
  5
48C
330
1F
100
AcDbEntity
  8
Ｓ_１_１
  6
CONTINUOUS
 62
     3
100
AcDbLine
 10
2095.499988999999
 20
1040.499894
 30
0.0
 11
2095.999936
 21
1040.99984
 31
0.0
  0
LINE
  5
48D
330
1F
100
AcDbEntity
  8
Ｓ_１_１
  6
CONTINUOUS
 62
     3
100
AcDbLine
 10
2063.999961999999
 20
1040.999823
 30
0.0
 11
2064.499952
 21
1040.499834
 31
0.0
  0
LINE
  5
48E
330
1F
100
AcDbEntity
  8
Ｓ_１_１
  6
CONTINUOUS
 62
     3
100
AcDbLine
 10
2096.0
 20
1047.999878
 30
0.0
 11
2096.0
 21
1040.999878
 31
0.0
  0
LINE
  5
48F
330
1F
100
AcDbEntity
  8
Ｓ_１_１
  6
CONTINUOUS
 62
     3
100
AcDbLine
 10
2064.0
 20
1047.999878
 30
0.0
 11
2064.0
 21
1040.999878
 31
0.0
  0
LINE
  5
490
330
1F
100
AcDbEntity
  8
Ｓ_１_１
  6
CONTINUOUS
 62
     3
100
AcDbLine
 10
2063.999961
 20
1056.999841
 30
0.0
 11
2064.499950999999
 21
1056.499851
 31
0.0
  0
LINE
  5
491
330
1F
100
AcDbEntity
  8
Ｓ_１_１
  6
CONTINUOUS
 62
     3
100
AcDbLine
 10
2095.499941
 20
1048.499822
 30
0.0
 11
2095.999931
 21
1047.999832
 31
0.0
  0
LINE
  5
492
330
1F
100
AcDbEntity
  8
Ｓ_１_１
  6
CONTINUOUS
 62
     3
100
AcDbLine
 10
2095.49999
 20
1056.499911
 30
0.0
 11
2095.999936
 21
1056.999858
 31
0.0
  0
LINE
  5
493
330
1F
100
AcDbEntity
  8
Ｓ_１_１
  6
CONTINUOUS
 62
     3
100
AcDbLine
 10
2063.999966
 20
1047.999892
 30
0.0
 11
2064.499912999999
 21
1048.499839
 31
0.0
  0
LINE
  5
494
330
1F
100
AcDbEntity
  8
Ｓ_１_１
  6
CONTINUOUS
 62
     3
100
AcDbLine
 10
2064.5
 20
1056.499878
 30
0.0
 11
2095.5
 21
1056.499878
 31
0.0
  0
LINE
  5
495
330
1F
100
AcDbEntity
  8
Ｓ_１_１
  6
CONTINUOUS
 62
     3
100
AcDbLine
 10
2064.5
 20
1048.499878
 30
0.0
 11
2095.5
 21
1048.499878
 31
0.0
  0
LINE
  5
496
330
1F
100
AcDbEntity
  8
Ｓ_１_１
  6
CONTINUOUS
 62
     3
100
AcDbLine
 10
2095.5
 20
1056.499878
 30
0.0
 11
2095.5
 21
1048.499878
 31
0.0
  0
LINE
  5
497
330
1F
100
AcDbEntity
  8
Ｓ_１_１
  6
CONTINUOUS
 62
     3
100
AcDbLine
 10
2064.5
 20
1056.499878
 30
0.0
 11
2064.5
 21
1048.499878
 31
0.0
  0
LINE
  5
498
330
1F
100
AcDbEntity
  8
Ｓ_１_１
  6
CONTINUOUS
 62
     3
100
AcDbLine
 10
2092.999974
 20
1067.499904
 30
0.0
 11
2095.999977
 21
1064.499901
 31
0.0
  0
LINE
  5
499
330
1F
100
AcDbEntity
  8
Ｓ_１_１
  6
CONTINUOUS
 62
     3
100
AcDbLine
 10
2066.999966999999
 20
1067.499926
 30
0.0
 11
2063.999942
 21
1064.499901
 31
0.0
  0
LINE
  5
49A
330
1F
100
AcDbEntity
  8
Ｓ_１_１
  6
CONTINUOUS
 62
     3
100
AcDbLine
 10
2068.0
 20
1032.999878
 30
0.0
 11
2068.0
 21
1017.999878
 31
0.0
  0
LINE
  5
49B
330
1F
100
AcDbEntity
  8
Ｓ_１_１
  6
CONTINUOUS
 62
     3
100
AcDbLine
 10
2092.0
 20
1032.999878
 30
0.0
 11
2092.0
 21
1017.999878
 31
0.0
  0
LINE
  5
49C
330
1F
100
AcDbEntity
  8
Ｓ_１_１
  6
CONTINUOUS
 62
     3
100
AcDbLine
 10
2067.0
 20
1067.499878
 30
0.0
 11
2093.0
 21
1067.499878
 31
0.0
  0
LINE
  5
49D
330
1F
100
AcDbEntity
  8
Ｓ_１_１
  6
CONTINUOUS
 62
     3
100
AcDbLine
 10
2096.0
 20
1064.499878
 30
0.0
 11
2096.0
 21
1056.999878
 31
0.0
  0
LINE
  5
49E
330
1F
100
AcDbEntity
  8
Ｓ_１_１
  6
CONTINUOUS
 62
     3
100
AcDbLine
 10
2064.0
 20
1064.499878
 30
0.0
 11
2064.0
 21
1056.999878
 31
0.0
  0
LINE
  5
49F
330
1F
100
AcDbEntity
  8
Ｓ_１_１
  6
CONTINUOUS
 62
     3
100
AcDbLine
 10
2093.0
 20
1017.422546
 30
0.0
 11
2093.0
 21
1006.07721
 31
0.0
  0
LINE
  5
4A0
330
1F
100
AcDbEntity
  8
Ｓ_１_１
  6
CONTINUOUS
 62
     3
100
AcDbLine
 10
2067.0
 20
1017.422546
 30
0.0
 11
2067.0
 21
1006.07721
 31
0.0
  0
LINE
  5
4A1
330
1F
100
AcDbEntity
  8
Ｓ_１_１
  6
CONTINUOUS
 62
     3
100
AcDbLine
 10
2092.0
 20
1067.999878
 30
0.0
 11
2092.0
 21
1067.499878
 31
0.0
  0
LINE
  5
4A2
330
1F
100
AcDbEntity
  8
Ｓ_１_１
  6
CONTINUOUS
 62
     3
100
AcDbLine
 10
2068.0
 20
1067.999878
 30
0.0
 11
2068.0
 21
1067.499878
 31
0.0
  0
LINE
  5
4A3
330
1F
100
AcDbEntity
  8
Ｓ_１_１
  6
CONTINUOUS
 62
     3
100
AcDbLine
 10
2067.0
 20
1040.499878
 30
0.0
 11
2067.0
 21
1033.57721
 31
0.0
  0
LINE
  5
4A4
330
1F
100
AcDbEntity
  8
Ｓ_１_１
  6
CONTINUOUS
 62
     3
100
AcDbLine
 10
2093.0
 20
1040.499878
 30
0.0
 11
2093.0
 21
1033.57721
 31
0.0
  0
LINE
  5
4A5
330
1F
100
AcDbEntity
  8
Ｓ_１_１
  6
CONTINUOUS
 62
     3
100
AcDbLine
 10
2064.5
 20
1040.499878
 30
0.0
 11
2078.25
 21
1040.499878
 31
0.0
  0
LINE
  5
4A6
330
1F
100
AcDbEntity
  8
Ｓ_１_１
  6
CONTINUOUS
 62
     3
100
AcDbLine
 10
2068.0
 20
1032.999878
 30
0.0
 11
2092.0
 21
1032.999878
 31
0.0
  0
LINE
  5
4A7
330
1F
100
AcDbEntity
  8
Ｓ_１_１
  6
CONTINUOUS
 62
     3
100
AcDbLine
 10
2068.0
 20
1017.999878
 30
0.0
 11
2092.0
 21
1017.999878
 31
0.0
  0
LINE
  5
4A8
330
1F
100
AcDbEntity
  8
Ｓ_１_１
  6
CONTINUOUS
 62
     3
100
AcDbLine
 10
2068.0
 20
1067.999878
 30
0.0
 11
2092.0
 21
1067.999878
 31
0.0
  0
LINE
  5
4A9
330
1F
100
AcDbEntity
  8
Ｓ_１_１
  6
CONTINUOUS
 62
     3
100
AcDbLine
 10
2093.5
 20
987.999922
 30
0.0
 11
2095.58842
 21
989.205672
 31
0.0
  0
LINE
  5
4AA
330
1F
100
AcDbEntity
  8
Ｓ_１_１
  6
CONTINUOUS
 62
     3
100
AcDbLine
 10
2066.500036999999
 20
987.9998929999997
 30
0.0
 11
2064.411565
 21
989.2056729999999
 31
0.0
  0
LINE
  5
4AB
330
1F
100
AcDbEntity
  8
Ｓ_１_１
  6
CONTINUOUS
 62
     3
100
AcDbLine
 10
2095.588501
 20
996.794128
 30
0.0
 11
2095.588501
 21
989.2056579999997
 31
0.0
  0
LINE
  5
4AC
330
1F
100
AcDbEntity
  8
Ｓ_１_１
  6
CONTINUOUS
 62
     3
100
AcDbLine
 10
1910.294634
 20
587.8678509999997
 30
0.0
 11
1867.868227
 21
630.2942579999999
 31
0.0
  0
LINE
  5
4AD
330
1F
100
AcDbEntity
  8
Ｓ_１_１
  6
CONTINUOUS
 62
     3
100
AcDbLine
 10
1924.436278999999
 20
686.8627929999998
 30
0.0
 11
1924.436278999999
 21
709.4460299999998
 31
0.0
  0
LINE
  5
4AE
330
1F
100
AcDbEntity
  8
Ｓ_１_１
  6
CONTINUOUS
 62
     3
100
AcDbLine
 10
1966.863159
 20
644.4372559999997
 30
0.0
 11
1989.446471999999
 21
644.4372559999997
 31
0.0
  0
LINE
  5
4AF
330
1F
100
AcDbEntity
  8
Ｓ_１_１
  6
CONTINUOUS
 62
     3
100
AcDbLine
 10
1945.649972999999
 20
665.6495969999999
 30
0.0
 11
1966.863176999999
 21
644.4363939999998
 31
0.0
  0
LINE
  5
4B0
330
1F
100
AcDbEntity
  8
Ｓ_１_１
  6
CONTINUOUS
 62
     3
100
AcDbLine
 10
1945.649972999999
 20
665.6495969999999
 30
0.0
 11
1924.43677
 21
686.8628009999998
 31
0.0
  0
LINE
  5
4B1
330
1F
100
AcDbEntity
  8
Ｓ_１_１
  6
CONTINUOUS
 62
     3
100
AcDbLine
 10
1892.616965
 20
570.1901819999998
 30
0.0
 11
1966.863176999999
 21
644.4363939999998
 31
0.0
  0
LINE
  5
4B2
330
1F
100
AcDbEntity
  8
Ｓ_１_１
  6
CONTINUOUS
 62
     3
100
AcDbLine
 10
1850.190558
 20
612.6165879999999
 30
0.0
 11
1924.43677
 21
686.8628009999998
 31
0.0
  0
LINE
  5
4B3
330
1F
100
AcDbEntity
  8
Ｓ_１_１
  6
CONTINUOUS
 62
     3
100
AcDbLine
 10
1892.616965
 20
570.1901819999998
 30
0.0
 11
1871.403760999999
 21
591.4033849999998
 31
0.0
  0
LINE
  5
4B4
330
1F
100
AcDbEntity
  8
Ｓ_１_１
  6
CONTINUOUS
 62
     3
100
AcDbLine
 10
1871.403760999999
 20
591.4033849999998
 30
0.0
 11
1850.190558
 21
612.6165879999999
 31
0.0
  0
LINE
  5
4B5
330
1F
100
AcDbEntity
  8
Ｓ_１_１
  6
CONTINUOUS
 62
     3
100
AcDbLine
 10
2204.097534
 20
655.3965449999998
 30
0.0
 11
2187.191039999999
 21
655.3965449999998
 31
0.0
  0
LINE
  5
4B6
330
1F
100
AcDbEntity
  8
Ｓ_１_１
  6
CONTINUOUS
 62
     3
100
AcDbLine
 10
2224.60437
 20
675.9026179999998
 30
0.0
 11
2224.60437
 21
692.8091279999999
 31
0.0
  0
LINE
  5
4B7
330
1F
100
AcDbEntity
  8
Ｓ_１_１
  6
CONTINUOUS
 62
     3
100
AcDbLine
 10
2214.35055
 20
665.6495969999999
 30
0.0
 11
2204.097501999999
 21
655.3965489999998
 31
0.0
  0
LINE
  5
4B8
330
1F
100
AcDbEntity
  8
Ｓ_１_１
  6
CONTINUOUS
 62
     3
100
AcDbLine
 10
2214.35055
 20
665.6495969999999
 30
0.0
 11
2224.603597999999
 21
675.9026449999997
 31
0.0
  0
LINE
  5
4B9
330
1F
100
AcDbEntity
  8
Ｓ_１_１
  6
CONTINUOUS
 62
     3
100
AcDbLine
 10
2260.666044
 20
598.8280059999997
 30
0.0
 11
2204.097501999999
 21
655.3965489999998
 31
0.0
  0
LINE
  5
4BA
330
1F
100
AcDbEntity
  8
Ｓ_１_１
  6
CONTINUOUS
 62
     3
100
AcDbLine
 10
2281.172141
 20
619.3341029999997
 30
0.0
 11
2224.603597999999
 21
675.9026449999997
 31
0.0
  0
LINE
  5
4BB
330
1F
100
AcDbEntity
  8
Ｓ_１_１
  6
CONTINUOUS
 62
     3
100
AcDbLine
 10
2270.919093
 20
609.0810549999999
 30
0.0
 11
2260.666044
 21
598.8280059999997
 31
0.0
  0
LINE
  5
4BC
330
1F
100
AcDbEntity
  8
Ｓ_１_１
  6
CONTINUOUS
 62
     3
100
AcDbLine
 10
2281.172141
 20
619.3341029999997
 30
0.0
 11
2270.919093
 21
609.0810549999999
 31
0.0
  0
LINE
  5
4BD
330
1F
100
AcDbEntity
  8
Ｓ_１_１
  6
CONTINUOUS
 62
     3
100
AcDbLine
 10
2224.603514999999
 20
924.0971679999998
 30
0.0
 11
2224.603514999999
 21
907.1907349999997
 31
0.0
  0
LINE
  5
4BE
330
1F
100
AcDbEntity
  8
Ｓ_１_１
  6
CONTINUOUS
 62
     3
100
AcDbLine
 10
2204.097534
 20
944.6037289999998
 30
0.0
 11
2187.191039999999
 21
944.6037289999998
 31
0.0
  0
LINE
  5
4BF
330
1F
100
AcDbEntity
  8
Ｓ_１_１
  6
CONTINUOUS
 62
     3
100
AcDbLine
 10
2224.603597999999
 20
924.097126
 30
0.0
 11
2204.097501999999
 21
944.6032219999997
 31
0.0
  0
LINE
  5
4C0
330
1F
100
AcDbEntity
  8
Ｓ_１_１
  6
CONTINUOUS
 62
     3
100
AcDbLine
 10
2281.172098
 20
980.6657110000001
 30
0.0
 11
2224.603554999999
 21
924.0971690000001
 31
0.0
  0
LINE
  5
4C1
330
1F
100
AcDbEntity
  8
Ｓ_１_１
  6
CONTINUOUS
 62
     3
100
AcDbLine
 10
2260.666044
 20
1001.171765
 30
0.0
 11
2204.097501999999
 21
944.6032219999997
 31
0.0
  0
LINE
  5
4C2
330
1F
100
AcDbEntity
  8
Ｓ_１_１
  6
CONTINUOUS
 62
     3
100
AcDbLine
 10
2281.172098
 20
980.6657110000001
 30
0.0
 11
2270.919093
 21
990.9187159999997
 31
0.0
  0
LINE
  5
4C3
330
1F
100
AcDbEntity
  8
Ｓ_１_１
  6
CONTINUOUS
 62
     3
100
AcDbLine
 10
2270.919093
 20
990.9187159999997
 30
0.0
 11
2260.666044
 21
1001.171765
 31
0.0
  0
LINE
  5
4C4
330
1F
100
AcDbEntity
  8
Ｓ_１_１
  6
CONTINUOUS
 62
     3
100
AcDbLine
 10
1955.903014999999
 20
944.603607
 30
0.0
 11
1972.809448
 21
944.603607
 31
0.0
  0
LINE
  5
4C5
330
1F
100
AcDbEntity
  8
Ｓ_１_１
  6
CONTINUOUS
 62
     3
100
AcDbLine
 10
1935.396727999999
 20
924.0971369999996
 30
0.0
 11
1935.396727999999
 21
907.190674
 31
0.0
  0
LINE
  5
4C6
330
1F
100
AcDbEntity
  8
Ｓ_１_１
  6
CONTINUOUS
 62
     3
100
AcDbLine
 10
1955.903
 20
944.6032439999999
 30
0.0
 11
1935.396902999999
 21
924.097147
 31
0.0
  0
LINE
  5
4C7
330
1F
100
AcDbEntity
  8
Ｓ_１_１
  6
CONTINUOUS
 62
     3
100
AcDbLine
 10
1878.828361
 20
980.6656899999998
 30
0.0
 11
1935.396902999999
 21
924.097147
 31
0.0
  0
LINE
  5
4C8
330
1F
100
AcDbEntity
  8
Ｓ_１_１
  6
CONTINUOUS
 62
     3
100
AcDbLine
 10
1899.334457
 20
1001.171786
 30
0.0
 11
1955.903
 21
944.6032439999999
 31
0.0
  0
LINE
  5
4C9
330
1F
100
AcDbEntity
  8
Ｓ_１_１
  6
CONTINUOUS
 62
     3
100
AcDbLine
 10
1889.081409
 20
990.9187379999998
 30
0.0
 11
1878.828361
 21
980.6656899999998
 31
0.0
  0
LINE
  5
4CA
330
1F
100
AcDbEntity
  8
Ｓ_１_１
  6
CONTINUOUS
 62
     3
100
AcDbLine
 10
1899.334457
 20
1001.171786
 30
0.0
 11
1889.081409
 21
990.9187379999998
 31
0.0
  0
LINE
  5
4CB
330
1F
100
AcDbEntity
  8
Ｓ_１_１
  6
CONTINUOUS
 62
     3
100
AcDbLine
 10
1188.735695364503
 20
980.0000000000001
 30
0.0
 11
1501.285309
 21
980.0000000000001
 31
0.0
  0
LINE
  5
4CC
330
1F
100
AcDbEntity
  8
Ｓ_１_１
  6
EXLTYPE2
 62
     1
100
AcDbLine
 10
1180.000008
 20
1098.24
 30
0.0
 11
1180.000008
 21
968.0555110000001
 31
0.0
  0
LINE
  5
4CD
330
1F
100
AcDbEntity
  8
Ｓ_１_１
  6
EXLTYPE2
 62
     1
100
AcDbLine
 10
480.0
 20
619.9998319999997
 30
0.0
 11
479.9999999999998
 21
1098.24
 31
0.0
  0
DIMENSION
  5
4CE
330
1F
100
AcDbEntity
  8
Ｓ_１_１
  6
CONTINUOUS
 62
     2
100
AcDbDimension
  2
*D27
 10
1560.0
 20
1160.0
 30
0.0
 11
1600.0
 21
1176.5
 31
0.0
 70
   160
  3
ISO-25
100
AcDbAlignedDimension
 13
1640.0
 23
975.0000579999999
 33
0.0
 14
1560.0
 24
1071.57196
 34
0.0
100
AcDbRotatedDimension
1001
ACAD
1000
DSTYLE
1002
{
1070
   270
1070
     2
1070
     6
1000
EX_NORM
1070
     7
1000
EX_NORM
1070
    41
1040
18.0
1070
    42
1040
9.0
1070
    44
1040
6.0
1070
    73
1070
     0
1070
    74
1070
     0
1070
    75
1070
     0
1070
    76
1070
     0
1070
    77
1070
     1
1070
    78
1070
     8
1070
   140
1040
20.77742494226328
1070
   147
1040
0.0
1070
   173
1070
     1
1070
   176
1070
     2
1070
   177
1070
     2
1070
   178
1070
     2
1070
   271
1070
     2
1070
   277
1070
     2
1070
   279
1070
     2
1070
   280
1070
     0
1070
   287
1070
     5
1070
   340
1005
113
1002
}
  0
DIMENSION
  5
4DB
330
1F
100
AcDbEntity
  8
Ｓ_１_１
  6
CONTINUOUS
 62
     2
100
AcDbDimension
  2
*D28
 10
1180.000008
 20
1160.0
 30
0.0
 11
1370.000004
 21
1176.5
 31
0.0
 70
   160
  3
ISO-25
100
AcDbAlignedDimension
 13
1560.0
 23
1071.57196
 33
0.0
 14
1180.000008
 24
1098.24
 34
0.0
100
AcDbRotatedDimension
1001
ACAD
1000
DSTYLE
1002
{
1070
   270
1070
     2
1070
     6
1000
EX_NORM
1070
     7
1000
EX_NORM
1070
    41
1040
18.0
1070
    42
1040
9.0
1070
    44
1040
6.0
1070
    73
1070
     0
1070
    74
1070
     0
1070
    75
1070
     0
1070
    76
1070
     0
1070
    77
1070
     1
1070
    78
1070
     8
1070
   140
1040
20.77742494226328
1070
   147
1040
0.0
1070
   173
1070
     1
1070
   176
1070
     2
1070
   177
1070
     2
1070
   178
1070
     2
1070
   271
1070
     2
1070
   277
1070
     2
1070
   279
1070
     2
1070
   280
1070
     0
1070
   287
1070
     5
1070
   340
1005
113
1002
}
  0
DIMENSION
  5
4E8
330
1F
100
AcDbEntity
  8
Ｓ_１_１
  6
CONTINUOUS
 62
     2
100
AcDbDimension
  2
*D29
 10
1050.000008
 20
1160.0
 30
0.0
 11
1115.000008
 21
1176.5
 31
0.0
 70
   160
  3
ISO-25
100
AcDbAlignedDimension
 13
1180.000008
 23
1098.24
 33
0.0
 14
1050.000008
 24
974.9999870001099
 34
0.0
100
AcDbRotatedDimension
1001
ACAD
1000
DSTYLE
1002
{
1070
   270
1070
     2
1070
     6
1000
EX_NORM
1070
     7
1000
EX_NORM
1070
    41
1040
18.0
1070
    42
1040
9.0
1070
    44
1040
6.0
1070
    73
1070
     0
1070
    74
1070
     0
1070
    75
1070
     0
1070
    76
1070
     0
1070
    77
1070
     1
1070
    78
1070
     8
1070
   140
1040
20.77742494226328
1070
   147
1040
0.0
1070
   173
1070
     1
1070
   176
1070
     2
1070
   177
1070
     2
1070
   178
1070
     2
1070
   271
1070
     2
1070
   277
1070
     2
1070
   279
1070
     2
1070
   280
1070
     0
1070
   287
1070
     5
1070
   340
1005
113
1002
}
  0
DIMENSION
  5
4F5
330
1F
100
AcDbEntity
  8
Ｓ_１_１
  6
CONTINUOUS
 62
     2
100
AcDbDimension
  2
*D30
 10
396.5333928947455
 20
1111.501738452198
 30
0.0
 11
350.2740645282162
 21
1113.186232807516
 31
0.0
 70
   165
  3
ISO-25
100
AcDb3PointAngularDimension
 13
479.9999999999997
 23
1098.24
 33
0.0
 14
282.3815189999996
 24
997.6186009999998
 34
0.0
 15
479.9999999999999
 25
800.0001199999998
 35
0.0
1001
ACAD
1000
DSTYLE
1002
{
1070
   270
1070
     2
1070
     6
1000
EX_NORM
1070
     7
1000
EX_NORM
1070
    41
1040
18.0
1070
    42
1040
9.0
1070
    44
1040
6.0
1070
    73
1070
     0
1070
    74
1070
     0
1070
    75
1070
     0
1070
    76
1070
     0
1070
    77
1070
     1
1070
    78
1070
     8
1070
    79
1070
     2
1070
   140
1040
20.77742494226328
1070
   147
1040
0.0
1070
   173
1070
     1
1070
   176
1070
     2
1070
   177
1070
     2
1070
   178
1070
     2
1070
   179
1070
     2
1070
   271
1070
     2
1070
   277
1070
     2
1070
   279
1070
     2
1070
   280
1070
     0
1070
   287
1070
     5
1070
   340
1005
113
1002
}
  0
DIMENSION
  5
503
330
1F
100
AcDbEntity
  8
Ｓ_１_１
  6
CONTINUOUS
 62
     2
100
AcDbDimension
  2
*D31
 10
200.7152623857522
 20
961.2451877241722
 30
0.0
 11
166.8138504049579
 21
929.7260004153025
 31
0.0
 70
   165
  3
ISO-25
100
AcDb3PointAngularDimension
 13
282.3815189999997
 23
997.6186009999998
 33
0.0
 14
270.0002439999998
 24
799.9999999999999
 34
0.0
 15
480.0001199999997
 25
799.9999999999999
 35
0.0
1001
ACAD
1000
DSTYLE
1002
{
1070
   270
1070
     2
1070
     6
1000
EX_NORM
1070
     7
1000
EX_NORM
1070
    41
1040
18.0
1070
    42
1040
9.0
1070
    44
1040
6.000000000000008
1070
    73
1070
     0
1070
    74
1070
     0
1070
    75
1070
     0
1070
    76
1070
     0
1070
    77
1070
     1
1070
    78
1070
     8
1070
    79
1070
     2
1070
   140
1040
20.77742494226328
1070
   147
1040
0.0
1070
   173
1070
     1
1070
   176
1070
     2
1070
   177
1070
     2
1070
   178
1070
     2
1070
   179
1070
     2
1070
   271
1070
     2
1070
   277
1070
     2
1070
   279
1070
     2
1070
   280
1070
     0
1070
   287
1070
     5
1070
   340
1005
113
1002
}
  0
LINE
  5
511
330
1F
100
AcDbEntity
  8
Ｓ_１_１
  6
CONTINUOUS
 62
     3
100
AcDbLine
 10
468.5000000000003
 20
1004.362166995389
 30
0.0
 11
480.0000000000003
 21
1004.362166995389
 31
0.0
  0
LINE
  5
512
330
1F
100
AcDbEntity
  8
Ｓ_１_１
  6
CONTINUOUS
 62
     3
100
AcDbLine
 10
480.0000000000003
 20
1004.362166995389
 30
0.0
 11
491.5000000000003
 21
1004.362166995389
 31
0.0
  0
LINE
  5
513
330
1F
100
AcDbEntity
  8
Ｓ_１_１
  6
CONTINUOUS
 62
     3
100
AcDbLine
 10
468.5000000000003
 20
1037.362166995389
 30
0.0
 11
480.0000000000003
 21
1037.362166995389
 31
0.0
  0
LINE
  5
514
330
1F
100
AcDbEntity
  8
Ｓ_１_１
  6
CONTINUOUS
 62
     3
100
AcDbLine
 10
480.0000000000003
 20
1037.362166995389
 30
0.0
 11
491.5000000000003
 21
1037.362166995389
 31
0.0
  0
LINE
  5
515
330
1F
100
AcDbEntity
  8
Ｓ_１_１
  6
CONTINUOUS
 62
     3
100
AcDbLine
 10
491.5000013689004
 20
1037.362168554089
 30
0.0
 11
492.5000014189003
 21
1036.362168419689
 31
0.0
  0
LINE
  5
516
330
1F
100
AcDbEntity
  8
Ｓ_１_１
  6
CONTINUOUS
 62
     3
100
AcDbLine
 10
492.5000007867001
 20
1005.362165898289
 30
0.0
 11
491.5000009896002
 21
1004.362166185389
 31
0.0
  0
LINE
  5
517
330
1F
100
AcDbEntity
  8
Ｓ_１_１
  6
CONTINUOUS
 62
     3
100
AcDbLine
 10
467.5000000481003
 20
1005.362167071189
 30
0.0
 11
468.5000001752004
 21
1004.362167028389
 31
0.0
  0
LINE
  5
518
330
1F
100
AcDbEntity
  8
Ｓ_１_１
  6
CONTINUOUS
 62
     3
100
AcDbLine
 10
468.4999997116005
 20
1037.362167458189
 30
0.0
 11
467.4999999987002
 21
1036.362167661089
 31
0.0
  0
LINE
  5
519
330
1F
100
AcDbEntity
  8
Ｓ_１_１
  6
CONTINUOUS
 62
     3
100
AcDbLine
 10
467.5000000000003
 20
1036.362166995389
 30
0.0
 11
492.5000000000003
 21
1036.362166995389
 31
0.0
  0
LINE
  5
51A
330
1F
100
AcDbEntity
  8
Ｓ_１_１
  6
CONTINUOUS
 62
     3
100
AcDbLine
 10
467.5000000000003
 20
1005.362166995389
 30
0.0
 11
492.5000000000003
 21
1005.362166995389
 31
0.0
  0
LINE
  5
51B
330
1F
100
AcDbEntity
  8
Ｓ_１_１
  6
CONTINUOUS
 62
     3
100
AcDbLine
 10
488.2648620000003
 20
1038.7244389954
 30
0.0
 11
471.7351450000004
 21
1038.7244389954
 31
0.0
  0
LINE
  5
51C
330
1F
100
AcDbEntity
  8
Ｓ_１_１
  6
CONTINUOUS
 62
     3
100
AcDbLine
 10
472.8201190000003
 20
1044.8621399954
 30
0.0
 11
472.4365110000005
 21
1038.7244269954
 31
0.0
  0
LINE
  5
51D
330
1F
100
AcDbEntity
  8
Ｓ_１_１
  6
CONTINUOUS
 62
     3
100
AcDbLine
 10
472.1187490000003
 20
1044.8621579954
 30
0.0
 11
471.6499980000004
 21
1037.3621439954
 31
0.0
  0
LINE
  5
51E
330
1F
100
AcDbEntity
  8
Ｓ_１_１
  6
CONTINUOUS
 62
     3
100
AcDbLine
 10
472.4365260000004
 20
1038.7244469954
 30
0.0
 11
471.6500110000004
 21
1037.3621639954
 31
0.0
  0
LINE
  5
51F
330
1F
100
AcDbEntity
  8
Ｓ_１_１
  6
CONTINUOUS
 62
     3
100
AcDbLine
 10
487.8812500000003
 20
1044.8621699954
 30
0.0
 11
488.3500030000004
 21
1037.3621249954
 31
0.0
  0
LINE
  5
520
330
1F
100
AcDbEntity
  8
Ｓ_１_１
  6
CONTINUOUS
 62
     3
100
AcDbLine
 10
488.3499890000004
 20
1037.3621479954
 30
0.0
 11
487.5634830000002
 21
1038.7244179954
 31
0.0
  0
LINE
  5
521
330
1F
100
AcDbEntity
  8
Ｓ_１_１
  6
CONTINUOUS
 62
     3
100
AcDbLine
 10
487.1798880000004
 20
1044.8621519954
 30
0.0
 11
487.5634970000004
 21
1038.7244089954
 31
0.0
  0
LINE
  5
522
330
1F
100
AcDbEntity
  8
Ｓ_１_１
  6
CONTINUOUS
 62
     3
100
AcDbLine
 10
488.2648620000003
 20
1002.99989499538
 30
0.0
 11
471.7351450000004
 21
1002.99989499538
 31
0.0
  0
LINE
  5
523
330
1F
100
AcDbEntity
  8
Ｓ_１_１
  6
CONTINUOUS
 62
     3
100
AcDbLine
 10
488.3500120000004
 20
1004.36218599538
 30
0.0
 11
487.5634980000003
 21
1002.99990299538
 31
0.0
  0
LINE
  5
524
330
1F
100
AcDbEntity
  8
Ｓ_１_１
  6
CONTINUOUS
 62
     3
100
AcDbLine
 10
472.4365030000005
 20
1002.99988699538
 30
0.0
 11
471.6499960000004
 21
1004.36215699538
 31
0.0
  0
ARC
  5
525
330
1F
100
AcDbEntity
  8
Ｓ_１_１
  6
CONTINUOUS
 62
     3
100
AcDbCircle
 10
490.3922884999901
 20
1045.728332995398
 30
0.0
 40
6.133925000000001
100
AcDbArc
 50
55.61543800000034
 51
124.3845830000003
  0
ARC
  5
526
330
1F
100
AcDbEntity
  8
Ｓ_１_１
  6
CONTINUOUS
 62
     3
100
AcDbCircle
 10
479.9999844999901
 20
1028.934020995398
 30
0.0
 40
22.927938
100
AcDbArc
 50
72.411858
 51
107.5881660000001
  0
ARC
  5
527
330
1F
100
AcDbEntity
  8
Ｓ_１_１
  6
CONTINUOUS
 62
     3
100
AcDbCircle
 10
469.6076504999904
 20
1050.996032995398
 30
0.0
 40
6.133925000000001
100
AcDbArc
 50
235.6154019999991
 51
304.3845609999998
  0
ARC
  5
528
330
1F
100
AcDbEntity
  8
Ｓ_１_１
  6
CONTINUOUS
 62
     3
100
AcDbCircle
 10
475.4999844999905
 20
1088.861999995398
 30
0.0
 40
1.0
100
AcDbArc
 50
89.99997799999524
 51
179.9999749999976
  0
ARC
  5
529
330
1F
100
AcDbEntity
  8
Ｓ_１_１
  6
CONTINUOUS
 62
     3
100
AcDbCircle
 10
469.6076504999904
 20
1045.728332995398
 30
0.0
 40
6.133925000000001
100
AcDbArc
 50
55.6153689999997
 51
124.384513999999
  0
ARC
  5
52A
330
1F
100
AcDbEntity
  8
Ｓ_１_１
  6
CONTINUOUS
 62
     3
100
AcDbCircle
 10
479.9999844999901
 20
1067.790099995399
 30
0.0
 40
22.927942
100
AcDbArc
 50
252.4118210000002
 51
287.5881150000001
  0
ARC
  5
52B
330
1F
100
AcDbEntity
  8
Ｓ_１_１
  6
CONTINUOUS
 62
     3
100
AcDbCircle
 10
490.3922884999901
 20
1050.996032995398
 30
0.0
 40
6.133925000000001
100
AcDbArc
 50
235.6154159999998
 51
304.3845739999999
  0
ARC
  5
52C
330
1F
100
AcDbEntity
  8
Ｓ_１_１
  6
CONTINUOUS
 62
     3
100
AcDbCircle
 10
484.4999544999899
 20
1088.861999995398
 30
0.0
 40
1.0
100
AcDbArc
 50
359.9999970000023
 51
89.9999780000017
  0
LINE
  5
52D
330
1F
100
AcDbEntity
  8
Ｓ_１_１
  6
CONTINUOUS
 62
     3
100
AcDbLine
 10
478.5000154999901
 20
1091.862121995398
 30
0.0
 11
481.4999844999901
 21
1091.862121995398
 31
0.0
  0
LINE
  5
52E
330
1F
100
AcDbEntity
  8
Ｓ_１_１
  6
CONTINUOUS
 62
     3
100
AcDbLine
 10
467.9999844999905
 20
1044.862243995398
 30
0.0
 11
491.9999544999899
 21
1044.862243995398
 31
0.0
  0
LINE
  5
52F
330
1F
100
AcDbEntity
  8
Ｓ_１_１
  6
CONTINUOUS
 62
     3
100
AcDbLine
 10
474.4999544999904
 20
1088.861999995398
 30
0.0
 11
474.4999544999904
 21
1079.862243995398
 31
0.0
  0
LINE
  5
530
330
1F
100
AcDbEntity
  8
Ｓ_１_１
  6
CONTINUOUS
 62
     3
100
AcDbLine
 10
474.4999544999904
 20
1079.862243995398
 30
0.0
 11
485.4999844999901
 21
1079.862243995398
 31
0.0
  0
LINE
  5
531
330
1F
100
AcDbEntity
  8
Ｓ_１_１
  6
CONTINUOUS
 62
     3
100
AcDbLine
 10
471.0000154999906
 20
1076.361999995398
 30
0.0
 11
471.0000154999906
 21
1074.362121995398
 31
0.0
  0
LINE
  5
532
330
1F
100
AcDbEntity
  8
Ｓ_１_１
  6
CONTINUOUS
 62
     3
100
AcDbLine
 10
488.9999844999901
 20
1076.361999995398
 30
0.0
 11
488.9999844999901
 21
1074.362121995398
 31
0.0
  0
LINE
  5
533
330
1F
100
AcDbEntity
  8
Ｓ_１_１
  6
CONTINUOUS
 62
     3
100
AcDbLine
 10
468.7499844999905
 20
1060.862121995398
 30
0.0
 11
491.2499844999901
 21
1060.862121995398
 31
0.0
  0
LINE
  5
534
330
1F
100
AcDbEntity
  8
Ｓ_１_１
  6
CONTINUOUS
 62
     3
100
AcDbLine
 10
491.74998449999
 20
1060.362121995398
 30
0.0
 11
491.74998449999
 21
1051.862121995398
 31
0.0
  0
LINE
  5
535
330
1F
100
AcDbEntity
  8
Ｓ_１_１
  6
CONTINUOUS
 62
     3
100
AcDbLine
 10
468.2499544999903
 20
1060.362121995398
 30
0.0
 11
468.2499544999903
 21
1051.862121995398
 31
0.0
  0
LINE
  5
536
330
1F
100
AcDbEntity
  8
Ｓ_１_１
  6
CONTINUOUS
 62
     3
100
AcDbLine
 10
466.1436164999903
 20
1045.934095995398
 30
0.0
 11
467.9999884999905
 21
1044.862318995399
 31
0.0
  0
LINE
  5
537
330
1F
100
AcDbEntity
  8
Ｓ_１_１
  6
CONTINUOUS
 62
     3
100
AcDbLine
 10
491.9999114999899
 20
1051.862312995398
 30
0.0
 11
493.85638949999
 21
1050.790473995398
 31
0.0
  0
LINE
  5
538
330
1F
100
AcDbEntity
  8
Ｓ_１_１
  6
CONTINUOUS
 62
     3
100
AcDbLine
 10
491.9999534999901
 20
1044.862276995399
 30
0.0
 11
493.8563264999901
 21
1045.934053995399
 31
0.0
  0
LINE
  5
539
330
1F
100
AcDbEntity
  8
Ｓ_１_１
  6
CONTINUOUS
 62
     3
100
AcDbLine
 10
466.1436234999904
 20
1050.790613995398
 30
0.0
 11
467.9999964999905
 21
1051.862390995399
 31
0.0
  0
LINE
  5
53A
330
1F
100
AcDbEntity
  8
Ｓ_１_１
  6
CONTINUOUS
 62
     3
100
AcDbLine
 10
493.8563994999898
 20
1050.790343995398
 30
0.0
 11
493.8563994999898
 21
1045.934020995398
 31
0.0
  0
LINE
  5
53B
330
1F
100
AcDbEntity
  8
Ｓ_１_１
  6
CONTINUOUS
 62
     3
100
AcDbLine
 10
486.92820749999
 20
1050.790343995398
 30
0.0
 11
486.92820749999
 21
1045.934020995398
 31
0.0
  0
LINE
  5
53C
330
1F
100
AcDbEntity
  8
Ｓ_１_１
  6
CONTINUOUS
 62
     3
100
AcDbLine
 10
473.0718534999904
 20
1050.790343995398
 30
0.0
 11
473.0718534999904
 21
1045.934020995398
 31
0.0
  0
LINE
  5
53D
330
1F
100
AcDbEntity
  8
Ｓ_１_１
  6
CONTINUOUS
 62
     3
100
AcDbLine
 10
466.1435854999903
 20
1050.790343995398
 30
0.0
 11
466.1435854999903
 21
1045.934020995398
 31
0.0
  0
LINE
  5
53E
330
1F
100
AcDbEntity
  8
Ｓ_１_１
  6
CONTINUOUS
 62
     3
100
AcDbLine
 10
467.9999844999905
 20
1051.862121995398
 30
0.0
 11
491.9999544999899
 21
1051.862121995398
 31
0.0
  0
LINE
  5
53F
330
1F
100
AcDbEntity
  8
Ｓ_１_１
  6
CONTINUOUS
 62
     3
100
AcDbLine
 10
475.4999844999905
 20
1089.862243995399
 30
0.0
 11
484.4999544999899
 21
1089.862243995399
 31
0.0
  0
LINE
  5
540
330
1F
100
AcDbEntity
  8
Ｓ_１_１
  6
CONTINUOUS
 62
     3
100
AcDbLine
 10
481.4998434999901
 20
1091.862308995399
 30
0.0
 11
483.4998884999899
 21
1089.862263995399
 31
0.0
  0
LINE
  5
541
330
1F
100
AcDbEntity
  8
Ｓ_１_１
  6
CONTINUOUS
 62
     3
100
AcDbLine
 10
476.4998164999905
 20
1089.862306995398
 30
0.0
 11
478.4997754999898
 21
1091.862265995399
 31
0.0
  0
LINE
  5
542
330
1F
100
AcDbEntity
  8
Ｓ_１_１
  6
CONTINUOUS
 62
     3
100
AcDbLine
 10
472.4999844999905
 20
1071.361999995398
 30
0.0
 11
487.4999844999901
 21
1071.361999995398
 31
0.0
  0
LINE
  5
543
330
1F
100
AcDbEntity
  8
Ｓ_１_１
  6
CONTINUOUS
 62
     3
100
AcDbLine
 10
472.4999844999905
 20
1072.862121995398
 30
0.0
 11
487.4999844999901
 21
1072.862121995398
 31
0.0
  0
LINE
  5
544
330
1F
100
AcDbEntity
  8
Ｓ_１_１
  6
CONTINUOUS
 62
     3
100
AcDbLine
 10
471.0000154999906
 20
1076.361999995398
 30
0.0
 11
488.9999844999901
 21
1076.361999995398
 31
0.0
  0
LINE
  5
545
330
1F
100
AcDbEntity
  8
Ｓ_１_１
  6
CONTINUOUS
 62
     3
100
AcDbLine
 10
488.9999844999901
 20
1069.862243995398
 30
0.0
 11
488.9999844999901
 21
1060.862121995398
 31
0.0
  0
LINE
  5
546
330
1F
100
AcDbEntity
  8
Ｓ_１_１
  6
CONTINUOUS
 62
     3
100
AcDbLine
 10
471.0000154999906
 20
1069.862243995398
 30
0.0
 11
471.0000154999906
 21
1060.862121995398
 31
0.0
  0
LINE
  5
547
330
1F
100
AcDbEntity
  8
Ｓ_１_１
  6
CONTINUOUS
 62
     3
100
AcDbLine
 10
470.9998724999904
 20
1074.362142995399
 30
0.0
 11
472.4998844999903
 21
1072.862129995398
 31
0.0
  0
LINE
  5
548
330
1F
100
AcDbEntity
  8
Ｓ_１_１
  6
CONTINUOUS
 62
     3
100
AcDbLine
 10
487.4999504999899
 20
1072.862128995399
 30
0.0
 11
488.9998334999898
 21
1074.362011995398
 31
0.0
  0
LINE
  5
549
330
1F
100
AcDbEntity
  8
Ｓ_１_１
  6
CONTINUOUS
 62
     3
100
AcDbLine
 10
471.0000154999906
 20
1074.362121995398
 30
0.0
 11
488.9999844999901
 21
1074.362121995398
 31
0.0
  0
LINE
  5
54A
330
1F
100
AcDbEntity
  8
Ｓ_１_１
  6
CONTINUOUS
 62
     3
100
AcDbLine
 10
470.9999864999903
 20
1069.862276995399
 30
0.0
 11
472.4998694999903
 21
1071.362159995399
 31
0.0
  0
LINE
  5
54B
330
1F
100
AcDbEntity
  8
Ｓ_１_１
  6
CONTINUOUS
 62
     3
100
AcDbLine
 10
487.49983649999
 20
1071.362117995398
 30
0.0
 11
488.9998494999898
 21
1069.862105995398
 31
0.0
  0
LINE
  5
54C
330
1F
100
AcDbEntity
  8
Ｓ_１_１
  6
CONTINUOUS
 62
     3
100
AcDbLine
 10
468.2499544999903
 20
1060.362121995398
 30
0.0
 11
491.74998449999
 21
1060.362121995398
 31
0.0
  0
LINE
  5
54D
330
1F
100
AcDbEntity
  8
Ｓ_１_１
  6
CONTINUOUS
 62
     3
100
AcDbLine
 10
471.0000154999906
 20
1069.862243995398
 30
0.0
 11
488.9999844999901
 21
1069.862243995398
 31
0.0
  0
LINE
  5
54E
330
1F
100
AcDbEntity
  8
Ｓ_１_１
  6
CONTINUOUS
 62
     3
100
AcDbLine
 10
472.4999844999905
 20
1072.862121995398
 30
0.0
 11
472.4999844999905
 21
1071.361999995398
 31
0.0
  0
LINE
  5
54F
330
1F
100
AcDbEntity
  8
Ｓ_１_１
  6
CONTINUOUS
 62
     3
100
AcDbLine
 10
487.4999844999901
 20
1072.862121995398
 30
0.0
 11
487.4999844999901
 21
1071.361999995398
 31
0.0
  0
LINE
  5
550
330
1F
100
AcDbEntity
  8
Ｓ_１_１
  6
CONTINUOUS
 62
     3
100
AcDbLine
 10
491.2498804999899
 20
1060.862210995399
 30
0.0
 11
491.7498274999901
 21
1060.362264995399
 31
0.0
  0
LINE
  5
551
330
1F
100
AcDbEntity
  8
Ｓ_１_１
  6
CONTINUOUS
 62
     3
100
AcDbLine
 10
468.2499094999906
 20
1060.362212995398
 30
0.0
 11
468.7498074999906
 21
1060.862121995398
 31
0.0
  0
LINE
  5
552
330
1F
100
AcDbEntity
  8
Ｓ_１_１
  6
CONTINUOUS
 62
     3
100
AcDbLine
 10
470.9999434999903
 20
1076.362230995398
 30
0.0
 11
474.4999574999904
 21
1079.862244995399
 31
0.0
  0
LINE
  5
553
330
1F
100
AcDbEntity
  8
Ｓ_１_１
  6
CONTINUOUS
 62
     3
100
AcDbLine
 10
485.4998344999902
 20
1079.862030995399
 30
0.0
 11
488.9998054999899
 21
1076.362058995398
 31
0.0
  0
LINE
  5
554
330
1F
100
AcDbEntity
  8
Ｓ_１_１
  6
CONTINUOUS
 62
     3
100
AcDbLine
 10
485.4999844999901
 20
1088.861999995398
 30
0.0
 11
485.4999844999901
 21
1079.862243995398
 31
0.0
  0
LINE
  5
555
330
1F
100
AcDbEntity
  8
Ｓ_１_１
  6
CONTINUOUS
 62
     3
100
AcDbLine
 10
529.000000000001
 20
1025.112166995389
 30
0.0
 11
534.000000000001
 21
1025.112166995389
 31
0.0
  0
LINE
  5
556
330
1F
100
AcDbEntity
  8
Ｓ_１_１
  6
CONTINUOUS
 62
     3
100
AcDbLine
 10
529.000000000001
 20
1016.612166995389
 30
0.0
 11
534.000000000001
 21
1016.612166995389
 31
0.0
  0
LINE
  5
557
330
1F
100
AcDbEntity
  8
Ｓ_１_１
  6
CONTINUOUS
 62
     3
100
AcDbLine
 10
529.000000000001
 20
1015.862166995389
 30
0.0
 11
533.250000000001
 21
1015.862166995389
 31
0.0
  0
LINE
  5
558
330
1F
100
AcDbEntity
  8
Ｓ_１_１
  6
CONTINUOUS
 62
     3
100
AcDbLine
 10
529.000000000001
 20
1025.862166995389
 30
0.0
 11
533.250000000001
 21
1025.862166995389
 31
0.0
  0
LINE
  5
559
330
1F
100
AcDbEntity
  8
Ｓ_１_１
  6
CONTINUOUS
 62
     3
100
AcDbLine
 10
534.000000000001
 20
1016.612166995389
 30
0.0
 11
534.000000000001
 21
1025.112166995389
 31
0.0
  0
LINE
  5
55A
330
1F
100
AcDbEntity
  8
Ｓ_１_１
  6
CONTINUOUS
 62
     3
100
AcDbLine
 10
533.250000000001
 20
1015.862166995389
 30
0.0
 11
533.250000000001
 21
1025.862166995389
 31
0.0
  0
LINE
  5
55B
330
1F
100
AcDbEntity
  8
Ｓ_１_１
  6
CONTINUOUS
 62
     3
100
AcDbLine
 10
533.2500025577011
 20
1015.862168120389
 30
0.0
 11
534.0000006565011
 21
1016.612166282389
 31
0.0
  0
LINE
  5
55C
330
1F
100
AcDbEntity
  8
Ｓ_１_１
  6
CONTINUOUS
 62
     3
100
AcDbLine
 10
534.0000016470009
 20
1025.112168920689
 30
0.0
 11
533.250001461901
 21
1025.862169042489
 31
0.0
  0
LINE
  5
55D
330
1F
100
AcDbEntity
  8
Ｓ_１_１
  6
CONTINUOUS
 62
     3
100
AcDbLine
 10
522.000000000001
 20
1020.862166995389
 30
0.0
 11
522.000000000001
 21
1030.862166995389
 31
0.0
  0
LINE
  5
55E
330
1F
100
AcDbEntity
  8
Ｓ_１_１
  6
CONTINUOUS
 62
     3
100
AcDbLine
 10
522.000000000001
 20
1010.862166995389
 30
0.0
 11
522.000000000001
 21
1020.862166995389
 31
0.0
  0
LINE
  5
55F
330
1F
100
AcDbEntity
  8
Ｓ_１_１
  6
CONTINUOUS
 62
     3
100
AcDbLine
 10
522.0000005510011
 20
1030.862166444389
 30
0.0
 11
523.0000005800008
 21
1029.862166331089
 31
0.0
  0
LINE
  5
560
330
1F
100
AcDbEntity
  8
Ｓ_１_１
  6
CONTINUOUS
 62
     3
100
AcDbLine
 10
523.0000002849011
 20
1011.862167195989
 30
0.0
 11
522.0000004877012
 21
1010.862167483089
 31
0.0
  0
LINE
  5
561
330
1F
100
AcDbEntity
  8
Ｓ_１_１
  6
CONTINUOUS
 62
     3
100
AcDbLine
 10
523.000000000001
 20
1011.862167195989
 30
0.0
 11
523.000000000001
 21
1020.862166995389
 31
0.0
  0
LINE
  5
562
330
1F
100
AcDbEntity
  8
Ｓ_１_１
  6
CONTINUOUS
 62
     3
100
AcDbLine
 10
523.000000000001
 20
1020.862166995389
 30
0.0
 11
523.000000000001
 21
1029.862166331089
 31
0.0
  0
LINE
  5
563
330
1F
100
AcDbEntity
  8
Ｓ_１_１
  6
CONTINUOUS
 62
     3
100
AcDbLine
 10
492.5000000000006
 20
1030.862166995389
 30
0.0
 11
522.000000000001
 21
1030.862166995389
 31
0.0
  0
LINE
  5
564
330
1F
100
AcDbEntity
  8
Ｓ_１_１
  6
CONTINUOUS
 62
     3
100
AcDbLine
 10
528.9999981656011
 20
1028.354579658589
 30
0.0
 11
527.9999979724008
 21
1030.362166248289
 31
0.0
  0
LINE
  5
565
330
1F
100
AcDbEntity
  8
Ｓ_１_１
  6
CONTINUOUS
 62
     3
100
AcDbLine
 10
528.9999995145009
 20
1013.369753239389
 30
0.0
 11
527.9999993213011
 21
1011.362166649689
 31
0.0
  0
LINE
  5
566
330
1F
100
AcDbEntity
  8
Ｓ_１_１
  6
CONTINUOUS
 62
     3
100
AcDbLine
 10
522.9999999766011
 20
1028.354580301589
 30
0.0
 11
524.000000169801
 21
1030.362166891289
 31
0.0
  0
LINE
  5
567
330
1F
100
AcDbEntity
  8
Ｓ_１_１
  6
CONTINUOUS
 62
     3
100
AcDbLine
 10
522.9999984859011
 20
1013.369752881089
 30
0.0
 11
523.9999985375008
 21
1011.362166575889
 31
0.0
  0
LINE
  5
568
330
1F
100
AcDbEntity
  8
Ｓ_１_１
  6
CONTINUOUS
 62
     3
100
AcDbLine
 10
524.000000000001
 20
1011.362166995389
 30
0.0
 11
528.000000000001
 21
1011.362166995389
 31
0.0
  0
LINE
  5
569
330
1F
100
AcDbEntity
  8
Ｓ_１_１
  6
CONTINUOUS
 62
     3
100
AcDbLine
 10
524.000000000001
 20
1030.362166995389
 30
0.0
 11
528.000000000001
 21
1030.362166995389
 31
0.0
  0
LINE
  5
56A
330
1F
100
AcDbEntity
  8
Ｓ_１_１
  6
CONTINUOUS
 62
     3
100
AcDbLine
 10
529.000000000001
 20
1020.862166995389
 30
0.0
 11
529.000000000001
 21
1028.354580834089
 31
0.0
  0
LINE
  5
56B
330
1F
100
AcDbEntity
  8
Ｓ_１_１
  6
CONTINUOUS
 62
     3
100
AcDbLine
 10
529.000000000001
 20
1013.369753156689
 30
0.0
 11
529.000000000001
 21
1020.862166995389
 31
0.0
  0
ARC
  5
56C
330
1F
100
AcDbEntity
  8
Ｓ_１_１
  6
CONTINUOUS
 62
     3
100
AcDbCircle
 10
538.5416666667012
 20
1020.862166995389
 30
0.0
 40
15.5416666667
100
AcDbArc
 50
159.3345163543002
 51
159.3345238904477
  0
ARC
  5
56D
330
1F
100
AcDbEntity
  8
Ｓ_１_１
  6
CONTINUOUS
 62
     3
100
AcDbCircle
 10
513.4583333333009
 20
1020.862166995389
 30
0.0
 40
15.5416666667
100
AcDbArc
 50
20.66547610955293
 51
20.66547840939962
  0
ARC
  5
56E
330
1F
100
AcDbEntity
  8
Ｓ_１_１
  6
CONTINUOUS
 62
     3
100
AcDbCircle
 10
538.5416666667012
 20
1020.862166995389
 30
0.0
 40
15.5416666667
100
AcDbArc
 50
162.8126324028145
 51
197.1873680951787
  0
ARC
  5
56F
330
1F
100
AcDbEntity
  8
Ｓ_１_１
  6
CONTINUOUS
 62
     3
100
AcDbCircle
 10
538.5416666667012
 20
1020.862166995389
 30
0.0
 40
15.5416666667
100
AcDbArc
 50
200.6654786560356
 51
200.6654800033002
  0
ARC
  5
570
330
1F
100
AcDbEntity
  8
Ｓ_１_１
  6
CONTINUOUS
 62
     3
100
AcDbCircle
 10
513.4583333333009
 20
1020.862166995389
 30
0.0
 40
15.5416666667
100
AcDbArc
 50
342.8126319048212
 51
17.18736759718547
  0
LINE
  5
571
330
1F
100
AcDbEntity
  8
Ｓ_１_１
  6
CONTINUOUS
 62
     3
100
AcDbLine
 10
528.305964117863
 20
1025.454689490069
 30
0.0
 11
523.694035882139
 21
1025.454689490069
 31
0.0
  0
LINE
  5
572
330
1F
100
AcDbEntity
  8
Ｓ_１_１
  6
CONTINUOUS
 62
     3
100
AcDbLine
 10
528.3059640779467
 20
1016.269644371659
 30
0.0
 11
523.6940359220554
 21
1016.269644371659
 31
0.0
  0
ARC
  5
573
330
1F
100
AcDbEntity
  8
Ｓ_１_１
  6
CONTINUOUS
 62
     3
100
AcDbCircle
 10
523.000000000001
 20
1013.369749841399
 30
0.0
 40
6.000000000001596
100
AcDbArc
 50
0.0000417559226242
 51
28.90218407791362
  0
ARC
  5
574
330
1F
100
AcDbEntity
  8
Ｓ_１_１
  6
CONTINUOUS
 62
     3
100
AcDbCircle
 10
529.000000000001
 20
1013.369754214069
 30
0.0
 40
6.000000000001596
100
AcDbArc
 50
151.0978636188124
 51
180.0000417558857
  0
ARC
  5
575
330
1F
100
AcDbEntity
  8
Ｓ_１_１
  6
CONTINUOUS
 62
     3
100
AcDbCircle
 10
529.000000000001
 20
1028.354580348569
 30
0.0
 40
6.000000000000005
100
AcDbArc
 50
179.9999920172612
 51
208.9021440266621
  0
ARC
  5
576
330
1F
100
AcDbEntity
  8
Ｓ_１_１
  6
CONTINUOUS
 62
     3
100
AcDbCircle
 10
523.000000000001
 20
1028.354580348569
 30
0.0
 40
6.000000000001596
100
AcDbArc
 50
331.0978559733464
 51
0.0
  0
LINE
  5
577
330
1F
100
AcDbEntity
  8
Ｓ_１_１
  6
CONTINUOUS
 62
     3
100
AcDbLine
 10
492.5000000000006
 20
1010.862166995389
 30
0.0
 11
522.000000000001
 21
1010.862166995389
 31
0.0
  0
LINE
  5
578
330
1F
100
AcDbEntity
  8
Ｓ_１_１
  6
EXLTYPE2
 62
     1
100
AcDbLine
 10
466.1188507080007
 20
1020.862166995389
 30
0.0
 11
535.0114479065011
 21
1020.862166995389
 31
0.0
  0
LINE
  5
579
330
1F
100
AcDbEntity
  8
Ｓ_１_１
  6
CONTINUOUS
 62
     3
100
AcDbLine
 10
472.0476508124991
 20
997.99988799538
 30
0.0
 11
471.6500100000004
 21
1004.36215099538
 31
0.0
  0
LINE
  5
57A
330
1F
100
AcDbEntity
  8
Ｓ_１_１
  6
CONTINUOUS
 62
     3
100
AcDbLine
 10
472.7490140000003
 20
997.99988799538
 30
0.0
 11
472.4365130000004
 21
1002.99989799538
 31
0.0
  0
LINE
  5
57B
330
1F
100
AcDbEntity
  8
Ｓ_１_１
  6
CONTINUOUS
 62
     3
100
AcDbLine
 10
487.2509897500014
 20
997.99988799538
 30
0.0
 11
487.5634900000003
 21
1002.99988599538
 31
0.0
  0
LINE
  5
57C
330
1F
100
AcDbEntity
  8
Ｓ_１_１
  6
CONTINUOUS
 62
     3
100
AcDbLine
 10
487.9523530000005
 20
997.99988799538
 30
0.0
 11
488.3499930000004
 21
1004.36213899538
 31
0.0
  0
LINE
  5
57D
330
1F
100
AcDbEntity
  8
Ｓ_１_１
  6
CONTINUOUS
 62
     3
100
AcDbLine
 10
467.5000000000003
 20
1005.362166995389
 30
0.0
 11
467.5000000000003
 21
1036.362166995389
 31
0.0
  0
LINE
  5
57E
330
1F
100
AcDbEntity
  8
Ｓ_１_１
  6
CONTINUOUS
 62
     3
100
AcDbLine
 10
492.5000000000003
 20
1005.362166995389
 30
0.0
 11
492.5000000000003
 21
1036.362166995389
 31
0.0
  0
LINE
  5
57F
330
1F
100
AcDbEntity
  8
Ｓ_１_１
  6
CONTINUOUS
 62
     3
100
AcDbLine
 10
1168.500008
 20
1004.362286000009
 30
0.0
 11
1180.000008
 21
1004.362286000009
 31
0.0
  0
LINE
  5
580
330
1F
100
AcDbEntity
  8
Ｓ_１_１
  6
CONTINUOUS
 62
     3
100
AcDbLine
 10
1180.000008
 20
1004.362286000009
 30
0.0
 11
1191.500008
 21
1004.362286000009
 31
0.0
  0
LINE
  5
581
330
1F
100
AcDbEntity
  8
Ｓ_１_１
  6
CONTINUOUS
 62
     3
100
AcDbLine
 10
1192.500008
 20
1005.362286000009
 30
0.0
 11
1192.500008
 21
1020.862286000009
 31
0.0
  0
LINE
  5
582
330
1F
100
AcDbEntity
  8
Ｓ_１_１
  6
CONTINUOUS
 62
     3
100
AcDbLine
 10
1192.500008
 20
1036.362286000009
 30
0.0
 11
1192.500008
 21
1020.862286000009
 31
0.0
  0
LINE
  5
583
330
1F
100
AcDbEntity
  8
Ｓ_１_１
  6
CONTINUOUS
 62
     3
100
AcDbLine
 10
1168.500008
 20
1037.362286000009
 30
0.0
 11
1180.000008
 21
1037.362286000009
 31
0.0
  0
LINE
  5
584
330
1F
100
AcDbEntity
  8
Ｓ_１_１
  6
CONTINUOUS
 62
     3
100
AcDbLine
 10
1180.000008
 20
1037.362286000009
 30
0.0
 11
1191.500008
 21
1037.362286000009
 31
0.0
  0
LINE
  5
585
330
1F
100
AcDbEntity
  8
Ｓ_１_１
  6
CONTINUOUS
 62
     3
100
AcDbLine
 10
1191.5000093689
 20
1037.362287558709
 30
0.0
 11
1192.5000094189
 21
1036.362287424309
 31
0.0
  0
LINE
  5
586
330
1F
100
AcDbEntity
  8
Ｓ_１_１
  6
CONTINUOUS
 62
     3
100
AcDbLine
 10
1192.5000087867
 20
1005.362284902909
 30
0.0
 11
1191.5000089896
 21
1004.362285190009
 31
0.0
  0
LINE
  5
587
330
1F
100
AcDbEntity
  8
Ｓ_１_１
  6
CONTINUOUS
 62
     3
100
AcDbLine
 10
1167.5000080481
 20
1005.362286075809
 30
0.0
 11
1168.5000081752
 21
1004.362286033009
 31
0.0
  0
LINE
  5
588
330
1F
100
AcDbEntity
  8
Ｓ_１_１
  6
CONTINUOUS
 62
     3
100
AcDbLine
 10
1167.500008
 20
1005.362286000009
 30
0.0
 11
1167.500008
 21
1020.862286000009
 31
0.0
  0
LINE
  5
589
330
1F
100
AcDbEntity
  8
Ｓ_１_１
  6
CONTINUOUS
 62
     3
100
AcDbLine
 10
1168.5000077116
 20
1037.362286462809
 30
0.0
 11
1167.5000079987
 21
1036.362286665709
 31
0.0
  0
LINE
  5
58A
330
1F
100
AcDbEntity
  8
Ｓ_１_１
  6
CONTINUOUS
 62
     3
100
AcDbLine
 10
1167.500008
 20
1036.362286000009
 30
0.0
 11
1167.500008
 21
1020.862286000009
 31
0.0
  0
LINE
  5
58B
330
1F
100
AcDbEntity
  8
Ｓ_１_１
  6
CONTINUOUS
 62
     3
100
AcDbLine
 10
1167.500008
 20
1036.362286000009
 30
0.0
 11
1192.500008
 21
1036.362286000009
 31
0.0
  0
LINE
  5
58C
330
1F
100
AcDbEntity
  8
Ｓ_１_１
  6
CONTINUOUS
 62
     3
100
AcDbLine
 10
1167.500008
 20
1005.362286000009
 30
0.0
 11
1192.500008
 21
1005.362286000009
 31
0.0
  0
LINE
  5
58D
330
1F
100
AcDbEntity
  8
Ｓ_１_１
  6
CONTINUOUS
 62
     3
100
AcDbLine
 10
1188.26487
 20
1038.72455800002
 30
0.0
 11
1171.735153
 21
1038.72455800002
 31
0.0
  0
LINE
  5
58E
330
1F
100
AcDbEntity
  8
Ｓ_１_１
  6
CONTINUOUS
 62
     3
100
AcDbLine
 10
1172.820127
 20
1044.86225900002
 30
0.0
 11
1172.436519
 21
1038.72454600002
 31
0.0
  0
LINE
  5
58F
330
1F
100
AcDbEntity
  8
Ｓ_１_１
  6
CONTINUOUS
 62
     3
100
AcDbLine
 10
1172.118757
 20
1044.86227700002
 30
0.0
 11
1171.650006
 21
1037.36226300002
 31
0.0
  0
LINE
  5
590
330
1F
100
AcDbEntity
  8
Ｓ_１_１
  6
CONTINUOUS
 62
     3
100
AcDbLine
 10
1172.436534
 20
1038.72456600002
 30
0.0
 11
1171.650019
 21
1037.36228300002
 31
0.0
  0
LINE
  5
591
330
1F
100
AcDbEntity
  8
Ｓ_１_１
  6
CONTINUOUS
 62
     3
100
AcDbLine
 10
1187.881258
 20
1044.86228900002
 30
0.0
 11
1188.350011
 21
1037.36224400002
 31
0.0
  0
LINE
  5
592
330
1F
100
AcDbEntity
  8
Ｓ_１_１
  6
CONTINUOUS
 62
     3
100
AcDbLine
 10
1188.349997
 20
1037.36226700002
 30
0.0
 11
1187.563491
 21
1038.72453700002
 31
0.0
  0
LINE
  5
593
330
1F
100
AcDbEntity
  8
Ｓ_１_１
  6
CONTINUOUS
 62
     3
100
AcDbLine
 10
1187.179896
 20
1044.86227100002
 30
0.0
 11
1187.563505
 21
1038.72452800002
 31
0.0
  0
LINE
  5
594
330
1F
100
AcDbEntity
  8
Ｓ_１_１
  6
CONTINUOUS
 62
     3
100
AcDbLine
 10
1187.250997
 20
997.9999949999999
 30
0.0
 11
1187.563498
 21
1003.000005
 31
0.0
  0
LINE
  5
595
330
1F
100
AcDbEntity
  8
Ｓ_１_１
  6
CONTINUOUS
 62
     3
100
AcDbLine
 10
1187.952361
 20
998.0000069999999
 30
0.0
 11
1188.350001
 21
1004.362258
 31
0.0
  0
LINE
  5
596
330
1F
100
AcDbEntity
  8
Ｓ_１_１
  6
CONTINUOUS
 62
     3
100
AcDbLine
 10
1188.26487
 20
1003.000014
 30
0.0
 11
1171.735153
 21
1003.000014
 31
0.0
  0
LINE
  5
597
330
1F
100
AcDbEntity
  8
Ｓ_１_１
  6
CONTINUOUS
 62
     3
100
AcDbLine
 10
1188.35002
 20
1004.362305
 30
0.0
 11
1187.563506
 21
1003.000022
 31
0.0
  0
LINE
  5
598
330
1F
100
AcDbEntity
  8
Ｓ_１_１
  6
CONTINUOUS
 62
     3
100
AcDbLine
 10
1172.749022
 20
998.0000069999999
 30
0.0
 11
1172.436521
 21
1003.000017
 31
0.0
  0
LINE
  5
599
330
1F
100
AcDbEntity
  8
Ｓ_１_１
  6
CONTINUOUS
 62
     3
100
AcDbLine
 10
1172.047658
 20
998.0000200000001
 30
0.0
 11
1171.650018
 21
1004.36227
 31
0.0
  0
LINE
  5
59A
330
1F
100
AcDbEntity
  8
Ｓ_１_１
  6
CONTINUOUS
 62
     3
100
AcDbLine
 10
1172.436511
 20
1003.000006
 30
0.0
 11
1171.650004
 21
1004.362276
 31
0.0
  0
ARC
  5
59B
330
1F
100
AcDbEntity
  8
Ｓ_１_１
  6
CONTINUOUS
 62
     3
100
AcDbCircle
 10
1190.39229649999
 20
1045.728452000018
 30
0.0
 40
6.133925000000001
100
AcDbArc
 50
55.61543800000034
 51
124.3845830000003
  0
ARC
  5
59C
330
1F
100
AcDbEntity
  8
Ｓ_１_１
  6
CONTINUOUS
 62
     3
100
AcDbCircle
 10
1179.99999249999
 20
1028.934140000018
 30
0.0
 40
22.927938
100
AcDbArc
 50
72.411858
 51
107.5881660000001
  0
ARC
  5
59D
330
1F
100
AcDbEntity
  8
Ｓ_１_１
  6
CONTINUOUS
 62
     3
100
AcDbCircle
 10
1169.60765849999
 20
1050.996152000018
 30
0.0
 40
6.133925000000001
100
AcDbArc
 50
235.6154019999991
 51
304.3845609999998
  0
ARC
  5
59E
330
1F
100
AcDbEntity
  8
Ｓ_１_１
  6
CONTINUOUS
 62
     3
100
AcDbCircle
 10
1175.49999249999
 20
1088.862119000019
 30
0.0
 40
1.0
100
AcDbArc
 50
89.99997799999524
 51
179.9999749999976
  0
ARC
  5
59F
330
1F
100
AcDbEntity
  8
Ｓ_１_１
  6
CONTINUOUS
 62
     3
100
AcDbCircle
 10
1169.60765849999
 20
1045.728452000018
 30
0.0
 40
6.133925000000001
100
AcDbArc
 50
55.6153689999997
 51
124.384513999999
  0
ARC
  5
5A0
330
1F
100
AcDbEntity
  8
Ｓ_１_１
  6
CONTINUOUS
 62
     3
100
AcDbCircle
 10
1179.99999249999
 20
1067.790219000019
 30
0.0
 40
22.927942
100
AcDbArc
 50
252.4118210000002
 51
287.5881150000001
  0
ARC
  5
5A1
330
1F
100
AcDbEntity
  8
Ｓ_１_１
  6
CONTINUOUS
 62
     3
100
AcDbCircle
 10
1190.39229649999
 20
1050.996152000018
 30
0.0
 40
6.133925000000001
100
AcDbArc
 50
235.6154159999998
 51
304.3845739999999
  0
ARC
  5
5A2
330
1F
100
AcDbEntity
  8
Ｓ_１_１
  6
CONTINUOUS
 62
     3
100
AcDbCircle
 10
1184.49996249999
 20
1088.862119000019
 30
0.0
 40
1.0
100
AcDbArc
 50
359.9999970000023
 51
89.9999780000017
  0
LINE
  5
5A3
330
1F
100
AcDbEntity
  8
Ｓ_１_１
  6
CONTINUOUS
 62
     3
100
AcDbLine
 10
1178.50002349999
 20
1091.862241000018
 30
0.0
 11
1181.49999249999
 21
1091.862241000018
 31
0.0
  0
LINE
  5
5A4
330
1F
100
AcDbEntity
  8
Ｓ_１_１
  6
CONTINUOUS
 62
     3
100
AcDbLine
 10
1167.99999249999
 20
1044.862363000018
 30
0.0
 11
1191.99996249999
 21
1044.862363000018
 31
0.0
  0
LINE
  5
5A5
330
1F
100
AcDbEntity
  8
Ｓ_１_１
  6
CONTINUOUS
 62
     3
100
AcDbLine
 10
1174.49996249999
 20
1088.862119000019
 30
0.0
 11
1174.49996249999
 21
1079.862363000018
 31
0.0
  0
LINE
  5
5A6
330
1F
100
AcDbEntity
  8
Ｓ_１_１
  6
CONTINUOUS
 62
     3
100
AcDbLine
 10
1174.49996249999
 20
1079.862363000018
 30
0.0
 11
1185.49999249999
 21
1079.862363000018
 31
0.0
  0
LINE
  5
5A7
330
1F
100
AcDbEntity
  8
Ｓ_１_１
  6
CONTINUOUS
 62
     3
100
AcDbLine
 10
1171.00002349999
 20
1076.362119000019
 30
0.0
 11
1171.00002349999
 21
1074.362241000018
 31
0.0
  0
LINE
  5
5A8
330
1F
100
AcDbEntity
  8
Ｓ_１_１
  6
CONTINUOUS
 62
     3
100
AcDbLine
 10
1188.99999249999
 20
1076.362119000019
 30
0.0
 11
1188.99999249999
 21
1074.362241000018
 31
0.0
  0
LINE
  5
5A9
330
1F
100
AcDbEntity
  8
Ｓ_１_１
  6
CONTINUOUS
 62
     3
100
AcDbLine
 10
1168.74999249999
 20
1060.862241000018
 30
0.0
 11
1191.24999249999
 21
1060.862241000018
 31
0.0
  0
LINE
  5
5AA
330
1F
100
AcDbEntity
  8
Ｓ_１_１
  6
CONTINUOUS
 62
     3
100
AcDbLine
 10
1191.74999249999
 20
1060.362241000018
 30
0.0
 11
1191.74999249999
 21
1051.862241000018
 31
0.0
  0
LINE
  5
5AB
330
1F
100
AcDbEntity
  8
Ｓ_１_１
  6
CONTINUOUS
 62
     3
100
AcDbLine
 10
1168.24996249999
 20
1060.362241000018
 30
0.0
 11
1168.24996249999
 21
1051.862241000018
 31
0.0
  0
LINE
  5
5AC
330
1F
100
AcDbEntity
  8
Ｓ_１_１
  6
CONTINUOUS
 62
     3
100
AcDbLine
 10
1166.14362449999
 20
1045.934215000018
 30
0.0
 11
1167.99999649999
 21
1044.862438000019
 31
0.0
  0
LINE
  5
5AD
330
1F
100
AcDbEntity
  8
Ｓ_１_１
  6
CONTINUOUS
 62
     3
100
AcDbLine
 10
1191.99991949999
 20
1051.862432000019
 30
0.0
 11
1193.85639749999
 21
1050.790593000018
 31
0.0
  0
LINE
  5
5AE
330
1F
100
AcDbEntity
  8
Ｓ_１_１
  6
CONTINUOUS
 62
     3
100
AcDbLine
 10
1191.99996149999
 20
1044.862396000019
 30
0.0
 11
1193.85633449999
 21
1045.934173000019
 31
0.0
  0
LINE
  5
5AF
330
1F
100
AcDbEntity
  8
Ｓ_１_１
  6
CONTINUOUS
 62
     3
100
AcDbLine
 10
1166.14363149999
 20
1050.790733000018
 30
0.0
 11
1168.00000449999
 21
1051.862510000019
 31
0.0
  0
LINE
  5
5B0
330
1F
100
AcDbEntity
  8
Ｓ_１_１
  6
CONTINUOUS
 62
     3
100
AcDbLine
 10
1193.856407499989
 20
1050.790463000018
 30
0.0
 11
1193.856407499989
 21
1045.934140000018
 31
0.0
  0
LINE
  5
5B1
330
1F
100
AcDbEntity
  8
Ｓ_１_１
  6
CONTINUOUS
 62
     3
100
AcDbLine
 10
1186.92821549999
 20
1050.790463000018
 30
0.0
 11
1186.92821549999
 21
1045.934140000018
 31
0.0
  0
LINE
  5
5B2
330
1F
100
AcDbEntity
  8
Ｓ_１_１
  6
CONTINUOUS
 62
     3
100
AcDbLine
 10
1173.07186149999
 20
1050.790463000018
 30
0.0
 11
1173.07186149999
 21
1045.934140000018
 31
0.0
  0
LINE
  5
5B3
330
1F
100
AcDbEntity
  8
Ｓ_１_１
  6
CONTINUOUS
 62
     3
100
AcDbLine
 10
1166.14359349999
 20
1050.790463000018
 30
0.0
 11
1166.14359349999
 21
1045.934140000018
 31
0.0
  0
LINE
  5
5B4
330
1F
100
AcDbEntity
  8
Ｓ_１_１
  6
CONTINUOUS
 62
     3
100
AcDbLine
 10
1167.99999249999
 20
1051.862241000018
 30
0.0
 11
1191.99996249999
 21
1051.862241000018
 31
0.0
  0
LINE
  5
5B5
330
1F
100
AcDbEntity
  8
Ｓ_１_１
  6
CONTINUOUS
 62
     3
100
AcDbLine
 10
1175.49999249999
 20
1089.862363000019
 30
0.0
 11
1184.49996249999
 21
1089.862363000019
 31
0.0
  0
LINE
  5
5B6
330
1F
100
AcDbEntity
  8
Ｓ_１_１
  6
CONTINUOUS
 62
     3
100
AcDbLine
 10
1181.49985149999
 20
1091.862428000019
 30
0.0
 11
1183.49989649999
 21
1089.862383000019
 31
0.0
  0
LINE
  5
5B7
330
1F
100
AcDbEntity
  8
Ｓ_１_１
  6
CONTINUOUS
 62
     3
100
AcDbLine
 10
1176.49982449999
 20
1089.862426000018
 30
0.0
 11
1178.499783499989
 21
1091.862385000019
 31
0.0
  0
LINE
  5
5B8
330
1F
100
AcDbEntity
  8
Ｓ_１_１
  6
CONTINUOUS
 62
     3
100
AcDbLine
 10
1172.49999249999
 20
1071.362119000019
 30
0.0
 11
1187.49999249999
 21
1071.362119000019
 31
0.0
  0
LINE
  5
5B9
330
1F
100
AcDbEntity
  8
Ｓ_１_１
  6
CONTINUOUS
 62
     3
100
AcDbLine
 10
1172.49999249999
 20
1072.862241000018
 30
0.0
 11
1187.49999249999
 21
1072.862241000018
 31
0.0
  0
LINE
  5
5BA
330
1F
100
AcDbEntity
  8
Ｓ_１_１
  6
CONTINUOUS
 62
     3
100
AcDbLine
 10
1171.00002349999
 20
1076.362119000019
 30
0.0
 11
1188.99999249999
 21
1076.362119000019
 31
0.0
  0
LINE
  5
5BB
330
1F
100
AcDbEntity
  8
Ｓ_１_１
  6
CONTINUOUS
 62
     3
100
AcDbLine
 10
1188.99999249999
 20
1069.862363000018
 30
0.0
 11
1188.99999249999
 21
1060.862241000018
 31
0.0
  0
LINE
  5
5BC
330
1F
100
AcDbEntity
  8
Ｓ_１_１
  6
CONTINUOUS
 62
     3
100
AcDbLine
 10
1171.00002349999
 20
1069.862363000018
 30
0.0
 11
1171.00002349999
 21
1060.862241000018
 31
0.0
  0
LINE
  5
5BD
330
1F
100
AcDbEntity
  8
Ｓ_１_１
  6
CONTINUOUS
 62
     3
100
AcDbLine
 10
1170.99988049999
 20
1074.362262000019
 30
0.0
 11
1172.49989249999
 21
1072.862249000018
 31
0.0
  0
LINE
  5
5BE
330
1F
100
AcDbEntity
  8
Ｓ_１_１
  6
CONTINUOUS
 62
     3
100
AcDbLine
 10
1187.49995849999
 20
1072.862248000019
 30
0.0
 11
1188.99984149999
 21
1074.362131000019
 31
0.0
  0
LINE
  5
5BF
330
1F
100
AcDbEntity
  8
Ｓ_１_１
  6
CONTINUOUS
 62
     3
100
AcDbLine
 10
1171.00002349999
 20
1074.362241000018
 30
0.0
 11
1188.99999249999
 21
1074.362241000018
 31
0.0
  0
LINE
  5
5C0
330
1F
100
AcDbEntity
  8
Ｓ_１_１
  6
CONTINUOUS
 62
     3
100
AcDbLine
 10
1170.99999449999
 20
1069.862396000019
 30
0.0
 11
1172.49987749999
 21
1071.362279000019
 31
0.0
  0
LINE
  5
5C1
330
1F
100
AcDbEntity
  8
Ｓ_１_１
  6
CONTINUOUS
 62
     3
100
AcDbLine
 10
1187.49984449999
 20
1071.362237000018
 30
0.0
 11
1188.99985749999
 21
1069.862225000018
 31
0.0
  0
LINE
  5
5C2
330
1F
100
AcDbEntity
  8
Ｓ_１_１
  6
CONTINUOUS
 62
     3
100
AcDbLine
 10
1168.24996249999
 20
1060.362241000018
 30
0.0
 11
1191.74999249999
 21
1060.362241000018
 31
0.0
  0
LINE
  5
5C3
330
1F
100
AcDbEntity
  8
Ｓ_１_１
  6
CONTINUOUS
 62
     3
100
AcDbLine
 10
1171.00002349999
 20
1069.862363000018
 30
0.0
 11
1188.99999249999
 21
1069.862363000018
 31
0.0
  0
LINE
  5
5C4
330
1F
100
AcDbEntity
  8
Ｓ_１_１
  6
CONTINUOUS
 62
     3
100
AcDbLine
 10
1172.49999249999
 20
1072.862241000018
 30
0.0
 11
1172.49999249999
 21
1071.362119000019
 31
0.0
  0
LINE
  5
5C5
330
1F
100
AcDbEntity
  8
Ｓ_１_１
  6
CONTINUOUS
 62
     3
100
AcDbLine
 10
1187.49999249999
 20
1072.862241000018
 30
0.0
 11
1187.49999249999
 21
1071.362119000019
 31
0.0
  0
LINE
  5
5C6
330
1F
100
AcDbEntity
  8
Ｓ_１_１
  6
CONTINUOUS
 62
     3
100
AcDbLine
 10
1191.24988849999
 20
1060.862330000019
 30
0.0
 11
1191.74983549999
 21
1060.362384000019
 31
0.0
  0
LINE
  5
5C7
330
1F
100
AcDbEntity
  8
Ｓ_１_１
  6
CONTINUOUS
 62
     3
100
AcDbLine
 10
1168.24991749999
 20
1060.362332000018
 30
0.0
 11
1168.74981549999
 21
1060.862241000018
 31
0.0
  0
LINE
  5
5C8
330
1F
100
AcDbEntity
  8
Ｓ_１_１
  6
CONTINUOUS
 62
     3
100
AcDbLine
 10
1170.99995149999
 20
1076.362350000019
 30
0.0
 11
1174.49996549999
 21
1079.862364000019
 31
0.0
  0
LINE
  5
5C9
330
1F
100
AcDbEntity
  8
Ｓ_１_１
  6
CONTINUOUS
 62
     3
100
AcDbLine
 10
1185.49984249999
 20
1079.862150000019
 30
0.0
 11
1188.99981349999
 21
1076.362178000019
 31
0.0
  0
LINE
  5
5CA
330
1F
100
AcDbEntity
  8
Ｓ_１_１
  6
CONTINUOUS
 62
     3
100
AcDbLine
 10
1185.49999249999
 20
1088.862119000019
 30
0.0
 11
1185.49999249999
 21
1079.862363000018
 31
0.0
  0
CIRCLE
  5
5CB
330
1F
100
AcDbEntity
  8
Ｓ_１_１
  6
CONTINUOUS
 62
     3
100
AcDbCircle
 10
1180.000008
 20
1020.86228600001
 30
0.0
 40
10.0
  0
POLYLINE
  5
5CC
330
1F
100
AcDbEntity
  8
Ｓ_１_１
  6
CONTINUOUS
 62
     3
100
AcDb2dPolyline
 66
     1
 10
0.0
 20
0.0
 30
0.0
 70
   128
  0
VERTEX
  5
5CD
330
5CC
100
AcDbEntity
  8
Ｓ_１_１
  6
CONTINUOUS
 62
     3
100
AcDbVertex
100
AcDb2dVertex
 10
1180.000008
 20
1030.36228600001
 30
0.0
  0
VERTEX
  5
5CE
330
5CC
100
AcDbEntity
  8
Ｓ_１_１
  6
CONTINUOUS
 62
     3
100
AcDbVertex
100
AcDb2dVertex
 10
1171.772766664048
 20
1025.61228600001
 30
0.0
  0
VERTEX
  5
5CF
330
5CC
100
AcDbEntity
  8
Ｓ_１_１
  6
CONTINUOUS
 62
     3
100
AcDbVertex
100
AcDb2dVertex
 10
1171.772766664048
 20
1016.11228600001
 30
0.0
  0
VERTEX
  5
5D0
330
5CC
100
AcDbEntity
  8
Ｓ_１_１
  6
CONTINUOUS
 62
     3
100
AcDbVertex
100
AcDb2dVertex
 10
1180.000008
 20
1011.36228600001
 30
0.0
  0
VERTEX
  5
5D1
330
5CC
100
AcDbEntity
  8
Ｓ_１_１
  6
CONTINUOUS
 62
     3
100
AcDbVertex
100
AcDb2dVertex
 10
1188.227249335952
 20
1016.11228600001
 30
0.0
  0
VERTEX
  5
5D2
330
5CC
100
AcDbEntity
  8
Ｓ_１_１
  6
CONTINUOUS
 62
     3
100
AcDbVertex
100
AcDb2dVertex
 10
1188.227249335952
 20
1025.61228600001
 30
0.0
  0
VERTEX
  5
5D3
330
5CC
100
AcDbEntity
  8
Ｓ_１_１
  6
CONTINUOUS
 62
     3
100
AcDbVertex
100
AcDb2dVertex
 10
1180.000008
 20
1030.36228600001
 30
0.0
  0
SEQEND
  5
5D4
330
5CC
100
AcDbEntity
  8
Ｓ_１_１
  6
CONTINUOUS
 62
     3
  0
CIRCLE
  5
5D5
330
1F
100
AcDbEntity
  8
Ｓ_１_１
  6
CONTINUOUS
 62
     3
100
AcDbCircle
 10
1180.000008
 20
1020.86228600001
 30
0.0
 40
8.227241335951572
  0
ARC
  5
5D6
330
1F
100
AcDbEntity
  8
Ｓ_１_１
  6
CONTINUOUS
 62
     3
100
AcDbCircle
 10
1180.000008
 20
1020.86228600001
 30
0.0
 40
8.999999915700016
100
AcDbArc
 50
96.08359749728285
 51
143.9164025027172
  0
ARC
  5
5D7
330
1F
100
AcDbEntity
  8
Ｓ_１_１
  6
CONTINUOUS
 62
     3
100
AcDbCircle
 10
1180.000008
 20
1020.86228600001
 30
0.0
 40
8.999999915700016
100
AcDbArc
 50
156.0835974972827
 51
203.9164025027173
  0
ARC
  5
5D8
330
1F
100
AcDbEntity
  8
Ｓ_１_１
  6
CONTINUOUS
 62
     3
100
AcDbCircle
 10
1180.000008
 20
1020.86228600001
 30
0.0
 40
8.999999915700016
100
AcDbArc
 50
216.0835974972828
 51
263.9164025027172
  0
ARC
  5
5D9
330
1F
100
AcDbEntity
  8
Ｓ_１_１
  6
CONTINUOUS
 62
     3
100
AcDbCircle
 10
1180.000008
 20
1020.86228600001
 30
0.0
 40
8.999999915700016
100
AcDbArc
 50
276.0835974972829
 51
323.9164025027172
  0
ARC
  5
5DA
330
1F
100
AcDbEntity
  8
Ｓ_１_１
  6
CONTINUOUS
 62
     3
100
AcDbCircle
 10
1180.000008
 20
1020.86228600001
 30
0.0
 40
8.999999915700016
100
AcDbArc
 50
336.0835974972827
 51
23.91640250271736
  0
ARC
  5
5DB
330
1F
100
AcDbEntity
  8
Ｓ_１_１
  6
CONTINUOUS
 62
     3
100
AcDbCircle
 10
1180.000008
 20
1020.86228600001
 30
0.0
 40
8.999999915700016
100
AcDbArc
 50
36.08359749728283
 51
83.91640250271715
  0
CIRCLE
  5
5DC
330
1F
100
AcDbEntity
  8
Ｓ_１_１
  6
CONTINUOUS
 62
     3
100
AcDbCircle
 10
1180.000008
 20
1020.86228600001
 30
0.0
 40
5.0
  0
CIRCLE
  5
5DD
330
1F
100
AcDbEntity
  8
Ｓ_１_１
  6
CONTINUOUS
 62
     3
100
AcDbCircle
 10
1180.000008
 20
1020.86228600001
 30
0.0
 40
4.25
  0
LINE
  5
5DE
330
1F
100
AcDbEntity
  8
Ｓ_１_１
  6
EXLTYPE2
 62
     1
100
AcDbLine
 10
1193.000008
 20
1020.862286000009
 30
0.0
 11
1167.000008
 21
1020.862286000009
 31
0.0
  0
POLYLINE
  5
5DF
330
1F
100
AcDbEntity
  8
Ｓ_１_１
  6
CONTINUOUS
 62
     3
100
AcDb2dPolyline
 66
     1
 10
0.0
 20
0.0
 30
0.0
 70
   128
  0
VERTEX
  5
5E0
330
5DF
100
AcDbEntity
  8
Ｓ_１_１
  6
CONTINUOUS
 62
     3
100
AcDbVertex
100
AcDb2dVertex
 10
1180.000008
 20
1023.749037345948
 30
0.0
  0
VERTEX
  5
5E1
330
5DF
100
AcDbEntity
  8
Ｓ_１_１
  6
CONTINUOUS
 62
     3
100
AcDbVertex
100
AcDb2dVertex
 10
1177.500008
 20
1022.305661672974
 30
0.0
  0
VERTEX
  5
5E2
330
5DF
100
AcDbEntity
  8
Ｓ_１_１
  6
CONTINUOUS
 62
     3
100
AcDbVertex
100
AcDb2dVertex
 10
1177.500008
 20
1019.418910327026
 30
0.0
  0
VERTEX
  5
5E3
330
5DF
100
AcDbEntity
  8
Ｓ_１_１
  6
CONTINUOUS
 62
     3
100
AcDbVertex
100
AcDb2dVertex
 10
1180.000008
 20
1017.975534654052
 30
0.0
  0
VERTEX
  5
5E4
330
5DF
100
AcDbEntity
  8
Ｓ_１_１
  6
CONTINUOUS
 62
     3
100
AcDbVertex
100
AcDb2dVertex
 10
1182.500008
 20
1019.418910327026
 30
0.0
  0
VERTEX
  5
5E5
330
5DF
100
AcDbEntity
  8
Ｓ_１_１
  6
CONTINUOUS
 62
     3
100
AcDbVertex
100
AcDb2dVertex
 10
1182.500008
 20
1022.305661672974
 30
0.0
  0
VERTEX
  5
5E6
330
5DF
100
AcDbEntity
  8
Ｓ_１_１
  6
CONTINUOUS
 62
     3
100
AcDbVertex
100
AcDb2dVertex
 10
1180.000008
 20
1023.749037345948
 30
0.0
  0
SEQEND
  5
5E7
330
5DF
100
AcDbEntity
  8
Ｓ_１_１
  6
CONTINUOUS
 62
     3
  0
ENDSEC
  0
SECTION
  2
OBJECTS
  0
DICTIONARY
  5
C
330
0
100
AcDbDictionary
  3
ACAD_GROUP
350
D
  3
ACAD_LAYOUT
350
1A
  3
ACAD_MATERIAL
350
43
  3
ACAD_MLEADERSTYLE
350
6B
  3
ACAD_MLINESTYLE
350
17
  3
ACAD_PLOTSETTINGS
350
19
  3
ACAD_SCALELIST
350
47
  3
ACAD_VISUALSTYLE
350
2A
  3
ACDBHEADERROUNDTRIPXREC
350
5E8
  3
ACDBVARIABLEDICTIONARY
350
609
  0
DICTIONARY
  5
614
330
8
100
AcDbDictionary
280
     1
  3
ACAD_XREC_ROUNDTRIP
360
615
  0
DICTIONARY
  5
D
102
{ACAD_REACTORS
330
C
102
}
330
C
100
AcDbDictionary
  0
DICTIONARY
  5
1A
102
{ACAD_REACTORS
330
C
102
}
330
C
100
AcDbDictionary
  0
DICTIONARY
  5
43
102
{ACAD_REACTORS
330
C
102
}
330
C
100
AcDbDictionary
  3
BYBLOCK
350
45
  3
BYLAYER
350
44
  3
GLOBAL
350
46
  0
DICTIONARY
  5
6B
102
{ACAD_REACTORS
330
C
102
}
330
C
100
AcDbDictionary
  3
STANDARD
350
6C
  0
DICTIONARY
  5
17
102
{ACAD_REACTORS
330
C
102
}
330
C
100
AcDbDictionary
  3
STANDARD
350
18
  0
DICTIONARY
  5
19
102
{ACAD_REACTORS
330
C
102
}
330
C
100
AcDbDictionary
  0
DICTIONARY
  5
47
102
{ACAD_REACTORS
330
C
102
}
330
C
100
AcDbDictionary
  3
A0
350
48
  3
A1
350
49
  3
A2
350
4A
  3
A3
350
4B
  3
A4
350
4C
  3
A5
350
4D
  3
A6
350
4E
  3
A7
350
4F
  3
A8
350
50
  3
A9
350
51
  3
B0
350
52
  3
B1
350
53
  3
B2
350
54
  3
B3
350
55
  3
B4
350
56
  3
B5
350
57
  3
B6
350
58
  3
B7
350
59
  3
B8
350
5A
  3
B9
350
5B
  3
C0
350
5C
  3
C1
350
5D
  3
C2
350
5E
  3
C3
350
5F
  3
C4
350
60
  3
C5
350
61
  3
C6
350
62
  3
C7
350
63
  3
C8
350
64
  3
C9
350
65
  3
D0
350
66
  3
D1
350
67
  3
D2
350
68
  0
DICTIONARY
  5
2A
102
{ACAD_REACTORS
330
C
102
}
330
C
100
AcDbDictionary
  3
2DWIREFRAME
350
2F
  3
BASIC
350
32
  3
BRIGHTEN
350
36
  3
COLORCHANGE
350
3A
  3
CONCEPTUAL
350
34
  3
DIM
350
35
  3
EDGECOLOROFF
350
3D
  3
FACEPATTERN
350
39
  3
FLAT
350
2B
  3
FLATWITHEDGES
350
2C
  3
GOURAUD
350
2D
  3
GOURAUDWITHEDGES
350
2E
  3
HIDDEN
350
31
  3
JITTEROFF
350
3B
  3
LINEPATTERN
350
38
  3
OVERHANGOFF
350
3C
  3
REALISTIC
350
33
  3
SHADED
350
42
  3
SHADED_WITH_EDGES
350
41
  3
SHADES_OF_GRAY
350
3E
  3
SKETCHY
350
3F
  3
THICKEN
350
37
  3
WIREFRAME
350
30
  3
X-RAY
350
40
  0
DICTIONARY
  5
5E8
102
{ACAD_REACTORS
330
C
102
}
330
C
100
AcDbDictionary
  3
CEPSNID
350
5F2
  3
CEPSNTYPE
350
5F1
  3
DIMSTYLEDATA
350
608
  3
FINGERPRINTGUID
350
5F3
  3
HYPERLINKBASE
350
5EB
  3
INSUNITS
350
5F0
  3
LAYOUTDICT
350
5ED
  3
LWETCUNION
350
5EF
  3
PLOTSETDICT
350
5EE
  3
PSVPSCALE
350
5F5
  3
PUCSBASE
350
5F8
  3
PUCSORGBACK
350
5FE
  3
PUCSORGBOTTOM
350
5FA
  3
PUCSORGFRONT
350
5FD
  3
PUCSORGLEFT
350
5FB
  3
PUCSORGRIGHT
350
5FC
  3
PUCSORGTOP
350
5F9
  3
PUCSORTHOREF
350
5F6
  3
PUCSORTHOVIEW
350
5F7
  3
STYLESHEET
350
5EC
  3
TSTACKALIGN
350
5E9
  3
TSTACKSIZE
350
5EA
  3
UCSBASE
350
601
  3
UCSORGBACK
350
607
  3
UCSORGBOTTOM
350
603
  3
UCSORGFRONT
350
606
  3
UCSORGLEFT
350
604
  3
UCSORGRIGHT
350
605
  3
UCSORGTOP
350
602
  3
UCSORTHOREF
350
5FF
  3
UCSORTHOVIEW
350
600
  3
VERSIONGUID
350
5F4
  0
DICTIONARY
  5
609
102
{ACAD_REACTORS
330
C
102
}
330
C
100
AcDbDictionary
  3
CANNOSCALE
350
616
  3
CENTEREXE
350
610
  3
CENTERLTYPEFILE
350
611
  3
CMLEADERSTYLE
350
60B
  3
CTABLESTYLE
350
60A
  3
DIMASSOC
350
612
  3
HIDETEXT
350
613
  3
MSLTSCALE
350
617
  3
PSOLHEIGHT
350
60D
  3
PSOLWIDTH
350
60C
  0
XRECORD
  5
615
102
{ACAD_REACTORS
330
614
102
}
330
614
100
AcDbXrecord
102
VTR_0.000_0.000_1.000_1.000_VISUALSTYLE
340
2F
102
VTR_0.000_0.000_1.000_1.000_GRIDDISPLAY
 70
     3
102
VTR_0.000_0.000_1.000_1.000_GRIDMAJOR
 70
     5
102
VTR_0.000_0.000_1.000_1.000_DEFAULTLIGHTING
280
     1
102
VTR_0.000_0.000_1.000_1.000_DEFAULTLIGHTINGTYPE
 70
     1
102
VTR_0.000_0.000_1.000_1.000_BRIGHTNESS
141
0.0
102
VTR_0.000_0.000_1.000_1.000_CONTRAST
142
0.0
  0
MATERIAL
  5
45
102
{ACAD_REACTORS
330
43
102
}
102
{ACAD_XDICTIONARY
360
61A
102
}
330
43
100
AcDbMaterial
  1
BYBLOCK
  0
MATERIAL
  5
44
102
{ACAD_REACTORS
330
43
102
}
102
{ACAD_XDICTIONARY
360
618
102
}
330
43
100
AcDbMaterial
  1
BYLAYER
  0
MATERIAL
  5
46
102
{ACAD_REACTORS
330
43
102
}
102
{ACAD_XDICTIONARY
360
61C
102
}
330
43
100
AcDbMaterial
  1
GLOBAL
  0
ACAD_PROXY_OBJECT
  5
6C
102
{ACAD_REACTORS
330
6B
102
}
330
6B
100
AcDbProxyObject
 90
      499
 91
      505
 93
      610
310
40901902A4063FBFFFFFE0000000000000020400000000000020404214DD185B99185C990000000000000104090141901A00000000000004100000000000000041025764000000000000039000
340
14
340
0
340
11
340
0
 94
        0
1001
ACAD_MLEADERVER
1070
     2
  0
MLINESTYLE
  5
18
102
{ACAD_REACTORS
330
17
102
}
330
17
100
AcDbMlineStyle
  2
Standard
 70
     0
  3

 62
   256
 51
90.0
 52
90.0
 71
     2
 49
0.5
 62
   256
  6
BYLAYER
 49
-0.5
 62
   256
  6
BYLAYER
  0
ACAD_PROXY_OBJECT
  5
48
102
{ACAD_REACTORS
330
47
102
}
330
47
100
AcDbProxyObject
 90
      499
 91
      503
 93
       41
310
903313A31580
  0
ACAD_PROXY_OBJECT
  5
49
102
{ACAD_REACTORS
330
47
102
}
330
47
100
AcDbProxyObject
 90
      499
 91
      503
 93
      105
310
903313A324000000000000004000
  0
ACAD_PROXY_OBJECT
  5
4A
102
{ACAD_REACTORS
330
47
102
}
330
47
100
AcDbProxyObject
 90
      499
 91
      503
 93
      105
310
903313A344000000000000104000
  0
ACAD_PROXY_OBJECT
  5
4B
102
{ACAD_REACTORS
330
47
102
}
330
47
100
AcDbProxyObject
 90
      499
 91
      503
 93
      105
310
903313A354000000000000144000
  0
ACAD_PROXY_OBJECT
  5
4C
102
{ACAD_REACTORS
330
47
102
}
330
47
100
AcDbProxyObject
 90
      499
 91
      503
 93
      105
310
903313A384000000000000204000
  0
ACAD_PROXY_OBJECT
  5
4D
102
{ACAD_REACTORS
330
47
102
}
330
47
100
AcDbProxyObject
 90
      499
 91
      503
 93
      113
310
904313A31304000000000000244000
  0
ACAD_PROXY_OBJECT
  5
4E
102
{ACAD_REACTORS
330
47
102
}
330
47
100
AcDbProxyObject
 90
      499
 91
      503
 93
      113
310
904313A31364000000000000304000
  0
ACAD_PROXY_OBJECT
  5
4F
102
{ACAD_REACTORS
330
47
102
}
330
47
100
AcDbProxyObject
 90
      499
 91
      503
 93
      113
310
904313A32304000000000000344000
  0
ACAD_PROXY_OBJECT
  5
50
102
{ACAD_REACTORS
330
47
102
}
330
47
100
AcDbProxyObject
 90
      499
 91
      503
 93
      113
310
904313A333040000000000003E4000
  0
ACAD_PROXY_OBJECT
  5
51
102
{ACAD_REACTORS
330
47
102
}
330
47
100
AcDbProxyObject
 90
      499
 91
      503
 93
      113
310
904313A34304000000000000444000
  0
ACAD_PROXY_OBJECT
  5
52
102
{ACAD_REACTORS
330
47
102
}
330
47
100
AcDbProxyObject
 90
      499
 91
      503
 93
      113
310
904313A35304000000000000494000
  0
ACAD_PROXY_OBJECT
  5
53
102
{ACAD_REACTORS
330
47
102
}
330
47
100
AcDbProxyObject
 90
      499
 91
      503
 93
      121
310
905313A3130304000000000000594000
  0
ACAD_PROXY_OBJECT
  5
54
102
{ACAD_REACTORS
330
47
102
}
330
47
100
AcDbProxyObject
 90
      499
 91
      503
 93
      105
310
903323A310000000000000010100
  0
ACAD_PROXY_OBJECT
  5
55
102
{ACAD_REACTORS
330
47
102
}
330
47
100
AcDbProxyObject
 90
      499
 91
      503
 93
      105
310
903343A310000000000000410100
  0
ACAD_PROXY_OBJECT
  5
56
102
{ACAD_REACTORS
330
47
102
}
330
47
100
AcDbProxyObject
 90
      499
 91
      503
 93
      105
310
903383A310000000000000810100
  0
ACAD_PROXY_OBJECT
  5
57
102
{ACAD_REACTORS
330
47
102
}
330
47
100
AcDbProxyObject
 90
      499
 91
      503
 93
      113
310
90431303A310000000000000910100
  0
ACAD_PROXY_OBJECT
  5
58
102
{ACAD_REACTORS
330
47
102
}
330
47
100
AcDbProxyObject
 90
      499
 91
      503
 93
      121
310
9053130303A310000000000001650100
  0
ACAD_PROXY_OBJECT
  5
59
102
{ACAD_REACTORS
330
47
102
}
330
47
100
AcDbProxyObject
 90
      499
 91
      503
 93
      257
310
90E312F31323822203D2031272D3022000000000000200FC000000000000284000
  0
ACAD_PROXY_OBJECT
  5
5A
102
{ACAD_REACTORS
330
47
102
}
330
47
100
AcDbProxyObject
 90
      499
 91
      503
 93
      249
310
90D312F363422203D2031272D3022000000000000240FC000000000000284000
  0
ACAD_PROXY_OBJECT
  5
5B
102
{ACAD_REACTORS
330
47
102
}
330
47
100
AcDbProxyObject
 90
      499
 91
      503
 93
      249
310
90D312F333222203D2031272D3022000000000000280FC000000000000284000
  0
ACAD_PROXY_OBJECT
  5
5C
102
{ACAD_REACTORS
330
47
102
}
330
47
100
AcDbProxyObject
 90
      499
 91
      503
 93
      249
310
90D312F313622203D2031272D30220000000000002C0FC000000000000284000
  0
ACAD_PROXY_OBJECT
  5
5D
102
{ACAD_REACTORS
330
47
102
}
330
47
100
AcDbProxyObject
 90
      499
 91
      503
 93
      249
310
90D332F333222203D2031272D30220000000000002E0FC000000000000284000
  0
ACAD_PROXY_OBJECT
  5
5E
102
{ACAD_REACTORS
330
47
102
}
330
47
100
AcDbProxyObject
 90
      499
 91
      503
 93
      241
310
90C312F3822203D2031272D3022000000000000300FC000000000000284000
  0
ACAD_PROXY_OBJECT
  5
5F
102
{ACAD_REACTORS
330
47
102
}
330
47
100
AcDbProxyObject
 90
      499
 91
      503
 93
      249
310
90D332F313622203D2031272D3022000000000000320FC000000000000284000
  0
ACAD_PROXY_OBJECT
  5
60
102
{ACAD_REACTORS
330
47
102
}
330
47
100
AcDbProxyObject
 90
      499
 91
      503
 93
      241
310
90C312F3422203D2031272D3022000000000000340FC000000000000284000
  0
ACAD_PROXY_OBJECT
  5
61
102
{ACAD_REACTORS
330
47
102
}
330
47
100
AcDbProxyObject
 90
      499
 91
      503
 93
      241
310
90C332F3822203D2031272D3022000000000000360FC000000000000284000
  0
ACAD_PROXY_OBJECT
  5
62
102
{ACAD_REACTORS
330
47
102
}
330
47
100
AcDbProxyObject
 90
      499
 91
      503
 93
      241
310
90C312F3222203D2031272D3022000000000000380FC000000000000284000
  0
ACAD_PROXY_OBJECT
  5
63
102
{ACAD_REACTORS
330
47
102
}
330
47
100
AcDbProxyObject
 90
      499
 91
      503
 93
      241
310
90C332F3422203D2031272D30220000000000003A0FC000000000000284000
  0
ACAD_PROXY_OBJECT
  5
64
102
{ACAD_REACTORS
330
47
102
}
330
47
100
AcDbProxyObject
 90
      499
 91
      503
 93
      161
310
90A3122203D2031272D30224000000000000284000
  0
ACAD_PROXY_OBJECT
  5
65
102
{ACAD_REACTORS
330
47
102
}
330
47
100
AcDbProxyObject
 90
      499
 91
      503
 93
      257
310
90E312D312F3222203D2031272D30220000000000003E0FC000000000000284000
  0
ACAD_PROXY_OBJECT
  5
66
102
{ACAD_REACTORS
330
47
102
}
330
47
100
AcDbProxyObject
 90
      499
 91
      503
 93
      225
310
90A3322203D2031272D302200000000000002100000000000000284000
  0
ACAD_PROXY_OBJECT
  5
67
102
{ACAD_REACTORS
330
47
102
}
330
47
100
AcDbProxyObject
 90
      499
 91
      503
 93
      225
310
90A3622203D2031272D302200000000000006100000000000000284000
  0
ACAD_PROXY_OBJECT
  5
68
102
{ACAD_REACTORS
330
47
102
}
330
47
100
AcDbProxyObject
 90
      499
 91
      503
 93
      249
310
90D31272D3022203D2031272D30220000000000000A100000000000000284000
  0
ACAD_PROXY_OBJECT
  5
2F
102
{ACAD_REACTORS
330
2A
102
}
330
2A
100
AcDbProxyObject
 90
      499
 91
      501
 93
      436
310
42CC9915DA5C99599C985B595049028333333333333E33F0000000000000F90107901411070040501600405405064090741402480A0340
1001
ACAD
1000
AcDbSavedByObjectVersion
1070
     0
  0
ACAD_PROXY_OBJECT
  5
32
102
{ACAD_REACTORS
330
2A
102
}
330
2A
100
AcDbProxyObject
 90
      499
 91
      501
 93
      388
310
4150985CDA58D07406404333333333333E33F0000000000000F90107A41107004050150841D405064090741402480A0350
1001
ACAD
1000
AcDbSavedByObjectVersion
1070
     0
  0
ACAD_PROXY_OBJECT
  5
36
102
{ACAD_REACTORS
330
2A
102
}
330
2A
100
AcDbProxyObject
 90
      499
 91
      501
 93
      428
310
42109C9A59DA1D195B90C409028333333333333E33F0000000000000F9010790141107004050150841D405064090741402480A029950
1001
ACAD
1000
AcDbSavedByObjectVersion
1070
     0
  0
ACAD_PROXY_OBJECT
  5
3A
102
{ACAD_REACTORS
330
2A
102
}
330
2A
100
AcDbProxyObject
 90
      499
 91
      501
 93
      452
310
42D0DBDB1BDC90DA185B99D95104090240C333333333333E33F0000000000000F90108901411070040501508421405064090741402480A0350
1001
ACAD
1000
AcDbSavedByObjectVersion
1070
     0
  0
ACAD_PROXY_OBJECT
  5
34
102
{ACAD_REACTORS
330
2A
102
}
330
2A
100
AcDbProxyObject
 90
      499
 91
      501
 93
      500
310
4290DBDB98D95C1D1D585B10940D028333333333333E33F0000000000000F90107902409070040501000000000018199010841D405064090740C02480A0340
1001
ACAD
1000
AcDbSavedByObjectVersion
1070
     0
  0
ACAD_PROXY_OBJECT
  5
35
102
{ACAD_REACTORS
330
2A
102
}
330
2A
100
AcDbProxyObject
 90
      499
 91
      501
 93
      412
310
40D11A5B50B409028333333333333E33F0000000000000F9010790141107004050150841D405064090741402480A02677FFFFFD0
1001
ACAD
1000
AcDbSavedByObjectVersion
1070
     0
  0
ACAD_PROXY_OBJECT
  5
3D
102
{ACAD_REACTORS
330
2A
102
}
330
2A
100
AcDbProxyObject
 90
      499
 91
      501
 93
      452
310
43115919D950DBDB1BDC93D999916409028333333333333E33F0000000000000F9010790141107004050150841D405064090741402480A0350
1001
ACAD
1000
AcDbSavedByObjectVersion
1070
     0
  0
ACAD_PROXY_OBJECT
  5
39
102
{ACAD_REACTORS
330
2A
102
}
330
2A
100
AcDbProxyObject
 90
      499
 91
      501
 93
      444
310
42D19858D95C185D1D195C9B90F409028333333333333E33F0000000000000F9010790141107004050150841D405064090741402480A0350
1001
ACAD
1000
AcDbSavedByObjectVersion
1070
     0
  0
ACAD_PROXY_OBJECT
  5
2B
102
{ACAD_REACTORS
330
2A
102
}
330
2A
100
AcDbProxyObject
 90
      499
 91
      501
 93
      380
310
41119B185D240901404333333333333E33F0000000000000F9010740A907004050150841D405064090741402480A1B50
1001
ACAD
1000
AcDbSavedByObjectVersion
1070
     0
  0
ACAD_PROXY_OBJECT
  5
2C
102
{ACAD_REACTORS
330
2A
102
}
330
2A
100
AcDbProxyObject
 90
      499
 91
      501
 93
      468
310
43519B185D15DA5D1A115919D95CD0140901404333333333333E33F0000000000000F90107409019070040501600405405064090741402480A1B50
1001
ACAD
1000
AcDbSavedByObjectVersion
1070
     0
  0
ACAD_PROXY_OBJECT
  5
2D
102
{ACAD_REACTORS
330
2A
102
}
330
2A
100
AcDbProxyObject
 90
      499
 91
      501
 93
      404
310
41D1DBDD5C985D5910240902404333333333333E33F0000000000000F9010740A9070040501641D405064090741402480A1B50
1001
ACAD
1000
AcDbSavedByObjectVersion
1070
     0
  0
ACAD_PROXY_OBJECT
  5
2E
102
{ACAD_REACTORS
330
2A
102
}
330
2A
100
AcDbProxyObject
 90
      499
 91
      501
 93
      492
310
4411DBDD5C985D5915DA5D1A115919D95CD0340902404333333333333E33F0000000000000F90107409019070040501600405405064090741402480A1B50
1001
ACAD
1000
AcDbSavedByObjectVersion
1070
     0
  0
ACAD_PROXY_OBJECT
  5
31
102
{ACAD_REACTORS
330
2A
102
}
330
2A
100
AcDbProxyObject
 90
      499
 91
      501
 93
      476
310
41921A5919195B90640502408333333333333E33F0000000000000F901079024090700405020000000000001110200405405064090740C02480A0340
1001
ACAD
1000
AcDbSavedByObjectVersion
1070
     0
  0
ACAD_PROXY_OBJECT
  5
3B
102
{ACAD_REACTORS
330
2A
102
}
330
2A
100
AcDbProxyObject
 90
      499
 91
      501
 93
      428
310
42529A5D1D195C93D999914409028333333333333E33F0000000000000F9010790141107004050150A41D405064090741402480A0350
1001
ACAD
1000
AcDbSavedByObjectVersion
1070
     0
  0
ACAD_PROXY_OBJECT
  5
38
102
{ACAD_REACTORS
330
2A
102
}
330
2A
100
AcDbProxyObject
 90
      499
 91
      501
 93
      444
310
42D31A5B995C185D1D195C9B90E409028333333333333E33F0000000000000F9010790141107004050750841D405064090741402483A0350
1001
ACAD
1000
AcDbSavedByObjectVersion
1070
     0
  0
ACAD_PROXY_OBJECT
  5
3C
102
{ACAD_REACTORS
330
2A
102
}
330
2A
100
AcDbProxyObject
 90
      499
 91
      501
 93
      444
310
42D3DD995C9A185B99D3D999915409028333333333333E33F0000000000000F9010790141107004050150941D405064090741402480A0350
1001
ACAD
1000
AcDbSavedByObjectVersion
1070
     0
  0
ACAD_PROXY_OBJECT
  5
33
102
{ACAD_REACTORS
330
2A
102
}
330
2A
100
AcDbProxyObject
 90
      499
 91
      501
 93
      428
310
425499585B1A5CDD1A58D08409038333333333333E33F0000000000000F9010740A907004050150800405405064090740C02480A1B40
1001
ACAD
1000
AcDbSavedByObjectVersion
1070
     0
  0
ACAD_PROXY_OBJECT
  5
42
102
{ACAD_REACTORS
330
2A
102
}
330
2A
100
AcDbProxyObject
 90
      499
 91
      501
 93
      420
310
4194DA1859195911B40902404333333333333E33F0000000000000F9010740A41107004050150800405405064090840C02480A0B40
1001
ACAD
1000
AcDbSavedByObjectVersion
1070
     0
  0
ACAD_PROXY_OBJECT
  5
41
102
{ACAD_REACTORS
330
2A
102
}
330
2A
100
AcDbProxyObject
 90
      499
 91
      501
 93
      516
310
4454DA18591959081DDA5D1A08195919D95CD1A40902404333333333333E33F0000000000000F901074090142907004050250800405405064090740C02480A0B40
1001
ACAD
1000
AcDbSavedByObjectVersion
1070
     0
  0
ACAD_PROXY_OBJECT
  5
3E
102
{ACAD_REACTORS
330
2A
102
}
330
2A
100
AcDbProxyObject
 90
      499
 91
      501
 93
      532
310
4394DA1859195CC81BD98811DC985E5174090240C333333333333E33F0000000000000F901079024090741D01000000000000111010841D405064090740C02480A0340
1001
ACAD
1000
AcDbSavedByObjectVersion
1070
     0
  0
ACAD_PROXY_OBJECT
  5
3F
102
{ACAD_REACTORS
330
2A
102
}
330
2A
100
AcDbProxyObject
 90
      499
 91
      501
 93
      476
310
41D4DAD95D18DA1E51840502408333333333333E33F0000000000000F901079024090741D01000000000000111010B41D405064090741802480A0340
1001
ACAD
1000
AcDbSavedByObjectVersion
1070
     0
  0
ACAD_PROXY_OBJECT
  5
37
102
{ACAD_REACTORS
330
2A
102
}
330
2A
100
AcDbProxyObject
 90
      499
 91
      501
 93
      412
310
41D51A1A58DAD95B90D409028333333333333E33F0000000000000F9010790141107004050150C41D405064090741402480A0350
1001
ACAD
1000
AcDbSavedByObjectVersion
1070
     0
  0
ACAD_PROXY_OBJECT
  5
30
102
{ACAD_REACTORS
330
2A
102
}
330
2A
100
AcDbProxyObject
 90
      499
 91
      501
 93
      420
310
4255DA5C99599C985B595059028333333333333E33F0000000000000F90107901411070040501600405405064090740C02480A0340
1001
ACAD
1000
AcDbSavedByObjectVersion
1070
     0
  0
ACAD_PROXY_OBJECT
  5
40
102
{ACAD_REACTORS
330
2A
102
}
330
2A
100
AcDbProxyObject
 90
      499
 91
      501
 93
      404
310
41560B54985E51940902404000000000000E03F0000000000000F9010740501907004050150841D405064090740C02480A1B40
1001
ACAD
1000
AcDbSavedByObjectVersion
1070
     0
  0
XRECORD
  5
5F2
102
{ACAD_REACTORS
330
5E8
102
}
330
5E8
100
AcDbXrecord
340
0
  0
XRECORD
  5
5F1
102
{ACAD_REACTORS
330
5E8
102
}
330
5E8
100
AcDbXrecord
 90
        0
  0
XRECORD
  5
608
102
{ACAD_REACTORS
330
5E8
102
}
330
5E8
100
AcDbXrecord
1000
DSTYLE
1002
{
1070
   340
340
11
1002
}
  0
XRECORD
  5
5F3
102
{ACAD_REACTORS
330
5E8
102
}
330
5E8
100
AcDbXrecord
  1
{79611328-b478-4d15-b11d-b71e7f0aeba7}
  0
XRECORD
  5
5EB
102
{ACAD_REACTORS
330
5E8
102
}
330
5E8
100
AcDbXrecord
  1

  0
XRECORD
  5
5F0
102
{ACAD_REACTORS
330
5E8
102
}
330
5E8
100
AcDbXrecord
 90
        4
  0
XRECORD
  5
5ED
102
{ACAD_REACTORS
330
5E8
102
}
330
5E8
100
AcDbXrecord
340
1A
  0
XRECORD
  5
5EF
102
{ACAD_REACTORS
330
5E8
102
}
330
5E8
100
AcDbXrecord
 90
    10781
  0
XRECORD
  5
5EE
102
{ACAD_REACTORS
330
5E8
102
}
330
5E8
100
AcDbXrecord
340
19
  0
XRECORD
  5
5F5
102
{ACAD_REACTORS
330
5E8
102
}
330
5E8
100
AcDbXrecord
 40
0.0
  0
XRECORD
  5
5F8
102
{ACAD_REACTORS
330
5E8
102
}
330
5E8
100
AcDbXrecord
340
0
  0
XRECORD
  5
5FE
102
{ACAD_REACTORS
330
5E8
102
}
330
5E8
100
AcDbXrecord
 10
0.0
 20
0.0
 30
0.0
  0
XRECORD
  5
5FA
102
{ACAD_REACTORS
330
5E8
102
}
330
5E8
100
AcDbXrecord
 10
0.0
 20
0.0
 30
0.0
  0
XRECORD
  5
5FD
102
{ACAD_REACTORS
330
5E8
102
}
330
5E8
100
AcDbXrecord
 10
0.0
 20
0.0
 30
0.0
  0
XRECORD
  5
5FB
102
{ACAD_REACTORS
330
5E8
102
}
330
5E8
100
AcDbXrecord
 10
0.0
 20
0.0
 30
0.0
  0
XRECORD
  5
5FC
102
{ACAD_REACTORS
330
5E8
102
}
330
5E8
100
AcDbXrecord
 10
0.0
 20
0.0
 30
0.0
  0
XRECORD
  5
5F9
102
{ACAD_REACTORS
330
5E8
102
}
330
5E8
100
AcDbXrecord
 10
0.0
 20
0.0
 30
0.0
  0
XRECORD
  5
5F6
102
{ACAD_REACTORS
330
5E8
102
}
330
5E8
100
AcDbXrecord
340
0
  0
XRECORD
  5
5F7
102
{ACAD_REACTORS
330
5E8
102
}
330
5E8
100
AcDbXrecord
 70
     0
  0
XRECORD
  5
5EC
102
{ACAD_REACTORS
330
5E8
102
}
330
5E8
100
AcDbXrecord
  1

  0
XRECORD
  5
5E9
102
{ACAD_REACTORS
330
5E8
102
}
330
5E8
100
AcDbXrecord
 90
        1
  0
XRECORD
  5
5EA
102
{ACAD_REACTORS
330
5E8
102
}
330
5E8
100
AcDbXrecord
 90
       70
  0
XRECORD
  5
601
102
{ACAD_REACTORS
330
5E8
102
}
330
5E8
100
AcDbXrecord
340
0
  0
XRECORD
  5
607
102
{ACAD_REACTORS
330
5E8
102
}
330
5E8
100
AcDbXrecord
 10
0.0
 20
0.0
 30
0.0
  0
XRECORD
  5
603
102
{ACAD_REACTORS
330
5E8
102
}
330
5E8
100
AcDbXrecord
 10
0.0
 20
0.0
 30
0.0
  0
XRECORD
  5
606
102
{ACAD_REACTORS
330
5E8
102
}
330
5E8
100
AcDbXrecord
 10
0.0
 20
0.0
 30
0.0
  0
XRECORD
  5
604
102
{ACAD_REACTORS
330
5E8
102
}
330
5E8
100
AcDbXrecord
 10
0.0
 20
0.0
 30
0.0
  0
XRECORD
  5
605
102
{ACAD_REACTORS
330
5E8
102
}
330
5E8
100
AcDbXrecord
 10
0.0
 20
0.0
 30
0.0
  0
XRECORD
  5
602
102
{ACAD_REACTORS
330
5E8
102
}
330
5E8
100
AcDbXrecord
 10
0.0
 20
0.0
 30
0.0
  0
XRECORD
  5
5FF
102
{ACAD_REACTORS
330
5E8
102
}
330
5E8
100
AcDbXrecord
340
0
  0
XRECORD
  5
600
102
{ACAD_REACTORS
330
5E8
102
}
330
5E8
100
AcDbXrecord
 70
     0
  0
XRECORD
  5
5F4
102
{ACAD_REACTORS
330
5E8
102
}
330
5E8
100
AcDbXrecord
  1
{FAEB1C32-E019-11D5-929B-00C0DF256EC4}
  0
DICTIONARYVAR
  5
616
102
{ACAD_REACTORS
330
609
102
}
330
609
100
DictionaryVariables
280
     0
  1
1:1
  0
DICTIONARYVAR
  5
610
102
{ACAD_REACTORS
330
609
102
}
330
609
100
DictionaryVariables
280
     0
  1
3.500000
  0
DICTIONARYVAR
  5
611
102
{ACAD_REACTORS
330
609
102
}
330
609
100
DictionaryVariables
280
     0
  1
acadiso.lin
  0
DICTIONARYVAR
  5
60B
102
{ACAD_REACTORS
330
609
102
}
330
609
100
DictionaryVariables
280
     0
  1
Standard
  0
DICTIONARYVAR
  5
60A
102
{ACAD_REACTORS
330
609
102
}
330
609
100
DictionaryVariables
280
     0
  1
Standard
  0
DICTIONARYVAR
  5
612
102
{ACAD_REACTORS
330
609
102
}
330
609
100
DictionaryVariables
280
     0
  1
2
  0
DICTIONARYVAR
  5
613
102
{ACAD_REACTORS
330
609
102
}
330
609
100
DictionaryVariables
280
     0
  1
1
  0
DICTIONARYVAR
  5
617
102
{ACAD_REACTORS
330
609
102
}
330
609
100
DictionaryVariables
280
     0
  1
1
  0
DICTIONARYVAR
  5
60D
102
{ACAD_REACTORS
330
609
102
}
330
609
100
DictionaryVariables
280
     0
  1
80.000000
  0
DICTIONARYVAR
  5
60C
102
{ACAD_REACTORS
330
609
102
}
330
609
100
DictionaryVariables
280
     0
  1
5.000000
  0
DICTIONARY
  5
61A
330
45
100
AcDbDictionary
280
     1
  3
ACAD_XREC_ROUNDTRIP
360
61B
  0
DICTIONARY
  5
618
330
44
100
AcDbDictionary
280
     1
  3
ACAD_XREC_ROUNDTRIP
360
619
  0
DICTIONARY
  5
61C
330
46
100
AcDbDictionary
280
     1
  3
ACAD_XREC_ROUNDTRIP
360
61D
  0
XRECORD
  5
61B
102
{ACAD_REACTORS
330
61A
102
}
330
61A
100
AcDbXrecord
102
MATERIAL
148
0.0
149
0.0
149
0.0
 93
        0
 94
      127
282
     0
 72
     1
 77
     1
171
     1
175
     1
179
     1
273
     0
  0
XRECORD
  5
619
102
{ACAD_REACTORS
330
618
102
}
330
618
100
AcDbXrecord
102
MATERIAL
148
0.0
149
0.0
149
0.0
 93
        0
 94
      127
282
     0
 72
     1
 77
     1
171
     1
175
     1
179
     1
273
     0
  0
XRECORD
  5
61D
102
{ACAD_REACTORS
330
61C
102
}
330
61C
100
AcDbXrecord
102
MATERIAL
148
0.0
149
0.0
149
0.0
 93
        0
 94
      127
282
     0
 72
     1
 77
     1
171
     1
175
     1
179
     1
273
     0
  0
ENDSEC
  0
EOF
