  0
SECTION
  2
HEADER
  9
$ACADVER
  1
AC1014
  9
$ACADMAINTVER
 70
     9
  9
$DWGCODEPAGE
  3
ANSI_932
  9
$INSBASE
 10
0.0
 20
0.0
 30
0.0
  9
$EXTMIN
 10
60.0
 20
60.0
 30
0.0
  9
$EXTMAX
 10
2460.0
 20
1722.0
 30
0.0
  9
$LIMMIN
 10
0.0
 20
0.0
  9
$LIMMAX
 10
420.0
 20
297.0
  9
$ORTHOMODE
 70
     0
  9
$REGENMODE
 70
     1
  9
$FILLMODE
 70
     1
  9
$QTEXTMODE
 70
     0
  9
$MIRRTEXT
 70
     1
  9
$DRAGMODE
 70
     2
  9
$LTSCALE
 40
1.0
  9
$OSMODE
 70
    37
  9
$ATTMODE
 70
     1
  9
$TEXTSIZE
 40
2.5
  9
$TRACEWID
 40
1.0
  9
$TEXTSTYLE
  7
STANDARD
  9
$CLAYER
  8
Ｓ_１_１
  9
$CELTYPE
  6
BYLAYER
  9
$CECOLOR
 62
   256
  9
$CELTSCALE
 40
1.0
  9
$DELOBJ
 70
     1
  9
$DISPSILH
 70
     0
  9
$DIMSCALE
 40
1.0
  9
$DIMASZ
 40
2.5
  9
$DIMEXO
 40
0.625
  9
$DIMDLI
 40
3.75
  9
$DIMRND
 40
0.0
  9
$DIMDLE
 40
0.0
  9
$DIMEXE
 40
1.25
  9
$DIMTP
 40
0.0
  9
$DIMTM
 40
0.0
  9
$DIMTXT
 40
2.5
  9
$DIMCEN
 40
2.5
  9
$DIMTSZ
 40
0.0
  9
$DIMTOL
 70
     0
  9
$DIMLIM
 70
     0
  9
$DIMTIH
 70
     0
  9
$DIMTOH
 70
     0
  9
$DIMSE1
 70
     0
  9
$DIMSE2
 70
     0
  9
$DIMTAD
 70
     1
  9
$DIMZIN
 70
     8
  9
$DIMBLK
  1

  9
$DIMASO
 70
     1
  9
$DIMSHO
 70
     1
  9
$DIMPOST
  1

  9
$DIMAPOST
  1

  9
$DIMALT
 70
     0
  9
$DIMALTD
 70
     3
  9
$DIMALTF
 40
0.03937007874016
  9
$DIMLFAC
 40
1.0
  9
$DIMTOFL
 70
     1
  9
$DIMTVP
 40
0.0
  9
$DIMTIX
 70
     0
  9
$DIMSOXD
 70
     0
  9
$DIMSAH
 70
     0
  9
$DIMBLK1
  1

  9
$DIMBLK2
  1

  9
$DIMSTYLE
  2
ISO-25
  9
$DIMCLRD
 70
     0
  9
$DIMCLRE
 70
     0
  9
$DIMCLRT
 70
     0
  9
$DIMTFAC
 40
1.0
  9
$DIMGAP
 40
0.625
  9
$DIMJUST
 70
     0
  9
$DIMSD1
 70
     0
  9
$DIMSD2
 70
     0
  9
$DIMTOLJ
 70
     0
  9
$DIMTZIN
 70
     8
  9
$DIMALTZ
 70
     0
  9
$DIMALTTZ
 70
     0
  9
$DIMFIT
 70
     3
  9
$DIMUPT
 70
     0
  9
$DIMUNIT
 70
     2
  9
$DIMDEC
 70
     2
  9
$DIMTDEC
 70
     2
  9
$DIMALTU
 70
     2
  9
$DIMALTTD
 70
     3
  9
$DIMTXSTY
  7
STANDARD
  9
$DIMAUNIT
 70
     0
  9
$LUNITS
 70
     2
  9
$LUPREC
 70
     4
  9
$SKETCHINC
 40
1.0
  9
$FILLETRAD
 40
10.0
  9
$AUNITS
 70
     0
  9
$AUPREC
 70
     0
  9
$MENU
  1
.
  9
$ELEVATION
 40
0.0
  9
$PELEVATION
 40
0.0
  9
$THICKNESS
 40
0.0
  9
$LIMCHECK
 70
     0
  9
$CHAMFERA
 40
0.0
  9
$CHAMFERB
 40
0.0
  9
$CHAMFERC
 40
0.0
  9
$CHAMFERD
 40
0.0
  9
$SKPOLY
 70
     0
  9
$TDCREATE
 40
2459585.495523657
  9
$TDUPDATE
 40
2459585.495525451
  9
$TDINDWG
 40
0.0000000116
  9
$TDUSRTIMER
 40
0.0000000116
  9
$USRTIMER
 70
     1
  9
$ANGBASE
 50
0.0
  9
$ANGDIR
 70
     0
  9
$PDMODE
 70
     0
  9
$PDSIZE
 40
0.0
  9
$PLINEWID
 40
0.0
  9
$COORDS
 70
     1
  9
$SPLFRAME
 70
     0
  9
$SPLINETYPE
 70
     6
  9
$SPLINESEGS
 70
     8
  9
$ATTDIA
 70
     0
  9
$ATTREQ
 70
     1
  9
$HANDLING
 70
     1
  9
$HANDSEED
  5
545
  9
$SURFTAB1
 70
     6
  9
$SURFTAB2
 70
     6
  9
$SURFTYPE
 70
     6
  9
$SURFU
 70
     6
  9
$SURFV
 70
     6
  9
$UCSNAME
  2

  9
$UCSORG
 10
0.0
 20
0.0
 30
0.0
  9
$UCSXDIR
 10
1.0
 20
0.0
 30
0.0
  9
$UCSYDIR
 10
0.0
 20
1.0
 30
0.0
  9
$PUCSNAME
  2

  9
$PUCSORG
 10
0.0
 20
0.0
 30
0.0
  9
$PUCSXDIR
 10
1.0
 20
0.0
 30
0.0
  9
$PUCSYDIR
 10
0.0
 20
1.0
 30
0.0
  9
$USERI1
 70
     0
  9
$USERI2
 70
     0
  9
$USERI3
 70
     0
  9
$USERI4
 70
     0
  9
$USERI5
 70
     0
  9
$USERR1
 40
0.0
  9
$USERR2
 40
0.0
  9
$USERR3
 40
0.0
  9
$USERR4
 40
0.0
  9
$USERR5
 40
0.0
  9
$WORLDVIEW
 70
     1
  9
$SHADEDGE
 70
     3
  9
$SHADEDIF
 70
    70
  9
$TILEMODE
 70
     1
  9
$MAXACTVP
 70
    64
  9
$PINSBASE
 10
0.0
 20
0.0
 30
0.0
  9
$PLIMCHECK
 70
     0
  9
$PEXTMIN
 10
1.000000000000000E+20
 20
1.000000000000000E+20
 30
1.000000000000000E+20
  9
$PEXTMAX
 10
-1.000000000000000E+20
 20
-1.000000000000000E+20
 30
-1.000000000000000E+20
  9
$PLIMMIN
 10
0.0
 20
0.0
  9
$PLIMMAX
 10
420.0
 20
297.0
  9
$UNITMODE
 70
     0
  9
$VISRETAIN
 70
     1
  9
$PLINEGEN
 70
     0
  9
$PSLTSCALE
 70
     1
  9
$TREEDEPTH
 70
  3020
  9
$PICKSTYLE
 70
     1
  9
$CMLSTYLE
  2
STANDARD
  9
$CMLJUST
 70
     0
  9
$CMLSCALE
 40
20.0
  9
$PROXYGRAPHICS
 70
     1
  9
$MEASUREMENT
 70
     1
  0
ENDSEC
  0
SECTION
  2
CLASSES
  0
CLASS
  1
ACDBDICTIONARYWDFLT
  2
AcDbDictionaryWithDefault
  3
ObjectDBX Classes
 90
        0
280
     0
281
     0
  0
CLASS
  1
VISUALSTYLE
  2
AcDbVisualStyle
  3
ObjectDBX Classes
 90
     4095
280
     0
281
     0
  0
CLASS
  1
MATERIAL
  2
AcDbMaterial
  3
ObjectDBX Classes
 90
     1153
280
     0
281
     0
  0
CLASS
  1
SCALE
  2
AcDbScale
  3
ObjectDBX Classes
 90
     1153
280
     0
281
     0
  0
CLASS
  1
TABLESTYLE
  2
AcDbTableStyle
  3
ObjectDBX Classes
 90
     4095
280
     0
281
     0
  0
CLASS
  1
MLEADERSTYLE
  2
AcDbMLeaderStyle
  3
ACDB_MLEADERSTYLE_CLASS
 90
     4095
280
     0
281
     0
  0
CLASS
  1
SUN
  2
AcDbSun
  3
SCENEOE
 90
     1153
280
     0
281
     0
  0
CLASS
  1
DICTIONARYVAR
  2
AcDbDictionaryVar
  3
ObjectDBX Classes
 90
        0
280
     0
281
     0
  0
CLASS
  1
XRECORD
  2
AcDbXrecord
  3
ObjectDBX Classes
 90
        0
280
     0
281
     0
  0
CLASS
  1
LWPOLYLINE
  2
AcDbPolyline
  3
ObjectDBX Classes
 90
        0
280
     0
281
     1
  0
CLASS
  1
HATCH
  2
AcDbHatch
  3
ObjectDBX Classes
 90
        0
280
     0
281
     1
  0
CLASS
  1
ACDBPLACEHOLDER
  2
AcDbPlaceHolder
  3
ObjectDBX Classes
 90
        0
280
     0
281
     0
  0
CLASS
  1
LAYOUT
  2
AcDbLayout
  3
ObjectDBX Classes
 90
        0
280
     0
281
     0
  0
ENDSEC
  0
SECTION
  2
TABLES
  0
TABLE
  2
VPORT
  5
8
102
{ACAD_XDICTIONARY
360
53A
102
}
330
0
100
AcDbSymbolTable
 70
     1
  0
VPORT
  5
29
330
8
100
AcDbSymbolTableRecord
100
AcDbViewportTableRecord
  2
*ACTIVE
 70
     0
 10
0.0
 20
0.0
 11
1.0
 21
1.0
 12
1260.0
 22
891.0
 13
0.0
 23
0.0
 14
10.0
 24
10.0
 15
10.0
 25
10.0
 16
0.0
 26
0.0
 36
1.0
 17
0.0
 27
0.0
 37
0.0
 40
1662.0
 41
1.444043321299639
 42
50.0
 43
0.0
 44
0.0
 50
0.0
 51
0.0
 71
     0
 72
  1000
 73
     1
 74
     3
 75
     0
 76
     0
 77
     0
 78
     0
  0
ENDTAB
  0
TABLE
  2
LTYPE
  5
5
330
0
100
AcDbSymbolTable
 70
     7
  0
LTYPE
  5
14
330
5
100
AcDbSymbolTableRecord
100
AcDbLinetypeTableRecord
  2
BYBLOCK
 70
     0
  3

 72
    65
 73
     0
 40
0.0
  0
LTYPE
  5
15
330
5
100
AcDbSymbolTableRecord
100
AcDbLinetypeTableRecord
  2
BYLAYER
 70
     0
  3

 72
    65
 73
     0
 40
0.0
  0
LTYPE
  5
16
330
5
100
AcDbSymbolTableRecord
100
AcDbLinetypeTableRecord
  2
CONTINUOUS
 70
     0
  3
Solid line
 72
    65
 73
     0
 40
0.0
  0
LTYPE
  5
6E
330
5
100
AcDbSymbolTableRecord
100
AcDbLinetypeTableRecord
  2
EXLTYPE0
 70
     0
  3
破線
 72
    65
 73
     2
 40
4.0
 49
3.0
 74
     0
 49
-1.0
 74
     0
  0
LTYPE
  5
6F
330
5
100
AcDbSymbolTableRecord
100
AcDbLinetypeTableRecord
  2
EXLTYPE1
 70
     0
  3
点線
 72
    65
 73
     2
 40
2.0
 49
1.0
 74
     0
 49
-1.0
 74
     0
  0
LTYPE
  5
70
330
5
100
AcDbSymbolTableRecord
100
AcDbLinetypeTableRecord
  2
EXLTYPE2
 70
     0
  3
一点鎖線
 72
    65
 73
     4
 40
13.0
 49
10.0
 74
     0
 49
-1.0
 74
     0
 49
1.0
 74
     0
 49
-1.0
 74
     0
  0
LTYPE
  5
71
330
5
100
AcDbSymbolTableRecord
100
AcDbLinetypeTableRecord
  2
EXLTYPE3
 70
     0
  3
二点鎖線
 72
    65
 73
     6
 40
15.0
 49
10.0
 74
     0
 49
-1.0
 74
     0
 49
1.0
 74
     0
 49
-1.0
 74
     0
 49
1.0
 74
     0
 49
-1.0
 74
     0
  0
LTYPE
  5
72
330
5
100
AcDbSymbolTableRecord
100
AcDbLinetypeTableRecord
  2
EXLTYPE4
 70
     0
  3
一点鎖線2
 72
    65
 73
     4
 40
3.5
 49
2.0
 74
     0
 49
-0.5
 74
     0
 49
0.5
 74
     0
 49
-0.5
 74
     0
  0
LTYPE
  5
73
330
5
100
AcDbSymbolTableRecord
100
AcDbLinetypeTableRecord
  2
EXLTYPE5
 70
     0
  3
二点鎖線2
 72
    65
 73
     6
 40
4.5
 49
2.0
 74
     0
 49
-0.5
 74
     0
 49
0.5
 74
     0
 49
-0.5
 74
     0
 49
0.5
 74
     0
 49
-0.5
 74
     0
  0
ENDTAB
  0
TABLE
  2
LAYER
  5
2
330
0
100
AcDbSymbolTable
 70
     4
  0
LAYER
  5
10
330
2
100
AcDbSymbolTableRecord
100
AcDbLayerTableRecord
  2
0
 70
     0
 62
     7
  6
CONTINUOUS
  0
LAYER
  5
76
330
2
100
AcDbSymbolTableRecord
100
AcDbLayerTableRecord
  2
図面枠
 70
     4
 62
     7
  6
CONTINUOUS
  0
LAYER
  5
77
330
2
100
AcDbSymbolTableRecord
100
AcDbLayerTableRecord
  2
Ｓ_１_１
 70
     0
 62
     7
  6
CONTINUOUS
  0
LAYER
  5
115
330
2
100
AcDbSymbolTableRecord
100
AcDbLayerTableRecord
  2
DEFPOINTS
 70
     0
 62
     7
  6
CONTINUOUS
  0
ENDTAB
  0
TABLE
  2
STYLE
  5
3
330
0
100
AcDbSymbolTable
 70
     5
  0
STYLE
  5
11
330
3
100
AcDbSymbolTableRecord
100
AcDbTextStyleTableRecord
  2
STANDARD
 70
     0
 40
0.0
 41
1.0
 50
0.0
 71
     0
 42
2.5
  3
monotxt
  4
extfont
  0
STYLE
  5
74
330
3
100
AcDbSymbolTableRecord
100
AcDbTextStyleTableRecord
  2
EXCADSTD
 70
     0
 40
0.0
 41
1.0
 50
0.0
 71
     0
 42
2.5
  3
monotxt
  4
extfont
  0
STYLE
  5
75
330
3
100
AcDbSymbolTableRecord
100
AcDbTextStyleTableRecord
  2
EXCADVERT
 70
     4
 40
0.0
 41
1.0
 50
0.0
 71
     0
 42
2.5
  3
monotxt
  4
extfont
  0
STYLE
  5
DC
330
3
100
AcDbSymbolTableRecord
100
AcDbTextStyleTableRecord
  2
EXCADTTF1
 70
     0
 40
0.0
 41
1.0
 50
0.0
 71
     0
 42
2.5
  3
msgothic.ttc
  4

1001
ACAD
1000
MS Gothic
1071
    32817
  0
STYLE
  5
113
330
3
100
AcDbSymbolTableRecord
100
AcDbTextStyleTableRecord
  2
EXCADDIM1
 70
     0
 40
0.0
 41
1.0
 50
0.0
 71
     0
 42
2.5
  3
msgothic.ttc
  4

1001
ACAD
1000
MS Gothic
1071
    32817
  0
ENDTAB
  0
TABLE
  2
VIEW
  5
6
330
0
100
AcDbSymbolTable
 70
     0
  0
ENDTAB
  0
TABLE
  2
UCS
  5
7
330
0
100
AcDbSymbolTable
 70
     0
  0
ENDTAB
  0
TABLE
  2
APPID
  5
9
330
0
100
AcDbSymbolTable
 70
     2
  0
APPID
  5
12
330
9
100
AcDbSymbolTableRecord
100
AcDbRegAppTableRecord
  2
ACAD
 70
     0
  0
APPID
  5
544
330
9
100
AcDbSymbolTableRecord
100
AcDbRegAppTableRecord
  2
ACAD_MLEADERVER
 70
     0
  0
ENDTAB
  0
TABLE
  2
DIMSTYLE
  5
A
330
0
100
AcDbSymbolTable
 70
     1
  0
DIMSTYLE
105
27
102
{ACAD_REACTORS
330
114
330
122
330
12D
330
13B
330
148
330
155
330
162
330
16F
330
17A
330
186
330
196
330
402
330
40F
330
41C
330
4F8
102
}
330
A
100
AcDbSymbolTableRecord
100
AcDbDimStyleTableRecord
  2
ISO-25
 70
     0
  3

  4

  5

  6

  7

 40
1.0
 41
2.5
 42
0.625
 43
3.75
 44
1.25
 45
0.0
 46
0.0
 47
0.0
 48
0.0
140
2.5
141
2.5
142
0.0
143
0.03937007874016
144
1.0
145
0.0
146
1.0
147
0.625
 71
     0
 72
     0
 73
     0
 74
     0
 75
     0
 76
     0
 77
     1
 78
     8
170
     0
171
     3
172
     1
173
     0
174
     0
175
     0
176
     0
177
     0
178
     0
270
     2
271
     2
272
     2
273
     2
274
     3
340
11
275
     0
280
     0
281
     0
282
     0
283
     0
284
     8
285
     0
286
     0
287
     5
288
     0
  0
ENDTAB
  0
TABLE
  2
BLOCK_RECORD
  5
1
330
0
100
AcDbSymbolTable
 70
    29
  0
BLOCK_RECORD
  5
1F
330
1
100
AcDbSymbolTableRecord
100
AcDbBlockTableRecord
  2
*MODEL_SPACE
  0
BLOCK_RECORD
  5
1B
330
1
100
AcDbSymbolTableRecord
100
AcDbBlockTableRecord
  2
*PAPER_SPACE
  0
BLOCK_RECORD
  5
78
330
1
100
AcDbSymbolTableRecord
100
AcDbBlockTableRecord
  2
EX_NORM
  0
BLOCK_RECORD
  5
7B
330
1
100
AcDbSymbolTableRecord
100
AcDbBlockTableRecord
  2
EX_BNORM
  0
BLOCK_RECORD
  5
7E
330
1
100
AcDbSymbolTableRecord
100
AcDbBlockTableRecord
  2
EX_BCIR
  0
BLOCK_RECORD
  5
81
330
1
100
AcDbSymbolTableRecord
100
AcDbBlockTableRecord
  2
EX_RCIVIL
  0
BLOCK_RECORD
  5
84
330
1
100
AcDbSymbolTableRecord
100
AcDbBlockTableRecord
  2
EX_SLANT
  0
BLOCK_RECORD
  5
87
330
1
100
AcDbSymbolTableRecord
100
AcDbBlockTableRecord
  2
EX_NONE
  0
BLOCK_RECORD
  5
8A
330
1
100
AcDbSymbolTableRecord
100
AcDbBlockTableRecord
  2
EX_CIVIL
  0
BLOCK_RECORD
  5
8D
330
1
100
AcDbSymbolTableRecord
100
AcDbBlockTableRecord
  2
EX_WCIR
  0
BLOCK_RECORD
  5
90
330
1
100
AcDbSymbolTableRecord
100
AcDbBlockTableRecord
  2
EX_WCIR2
  0
BLOCK_RECORD
  5
93
330
1
100
AcDbSymbolTableRecord
100
AcDbBlockTableRecord
  2
EX_WNORM
  0
BLOCK_RECORD
  5
96
330
1
100
AcDbSymbolTableRecord
100
AcDbBlockTableRecord
  2
EX_NNORM
  0
BLOCK_RECORD
  5
99
330
1
100
AcDbSymbolTableRecord
100
AcDbBlockTableRecord
  2
EX_BBOX
  0
BLOCK_RECORD
  5
9C
330
1
100
AcDbSymbolTableRecord
100
AcDbBlockTableRecord
  2
EX_WBOX
  0
BLOCK_RECORD
  5
9F
330
1
100
AcDbSymbolTableRecord
100
AcDbBlockTableRecord
  2
EX_INTEGRAL
  0
BLOCK_RECORD
  5
116
330
1
100
AcDbSymbolTableRecord
100
AcDbBlockTableRecord
  2
*D15
  0
BLOCK_RECORD
  5
123
330
1
100
AcDbSymbolTableRecord
100
AcDbBlockTableRecord
  2
*D16
  0
BLOCK_RECORD
  5
12E
330
1
100
AcDbSymbolTableRecord
100
AcDbBlockTableRecord
  2
*D17
  0
BLOCK_RECORD
  5
13C
330
1
100
AcDbSymbolTableRecord
100
AcDbBlockTableRecord
  2
*D18
  0
BLOCK_RECORD
  5
149
330
1
100
AcDbSymbolTableRecord
100
AcDbBlockTableRecord
  2
*D19
  0
BLOCK_RECORD
  5
156
330
1
100
AcDbSymbolTableRecord
100
AcDbBlockTableRecord
  2
*D20
  0
BLOCK_RECORD
  5
163
330
1
100
AcDbSymbolTableRecord
100
AcDbBlockTableRecord
  2
*D21
  0
BLOCK_RECORD
  5
170
330
1
100
AcDbSymbolTableRecord
100
AcDbBlockTableRecord
  2
*D22
  0
BLOCK_RECORD
  5
17B
330
1
100
AcDbSymbolTableRecord
100
AcDbBlockTableRecord
  2
*D23
  0
BLOCK_RECORD
  5
187
330
1
100
AcDbSymbolTableRecord
100
AcDbBlockTableRecord
  2
*D24
  0
BLOCK_RECORD
  5
197
330
1
100
AcDbSymbolTableRecord
100
AcDbBlockTableRecord
  2
*D25
  0
BLOCK_RECORD
  5
403
330
1
100
AcDbSymbolTableRecord
100
AcDbBlockTableRecord
  2
*D26
  0
BLOCK_RECORD
  5
410
330
1
100
AcDbSymbolTableRecord
100
AcDbBlockTableRecord
  2
*D27
  0
BLOCK_RECORD
  5
41D
330
1
100
AcDbSymbolTableRecord
100
AcDbBlockTableRecord
  2
*D28
  0
BLOCK_RECORD
  5
4F9
330
1
100
AcDbSymbolTableRecord
100
AcDbBlockTableRecord
  2
*D29
  0
ENDTAB
  0
ENDSEC
  0
SECTION
  2
BLOCKS
  0
BLOCK
  5
20
330
1F
100
AcDbEntity
  8
0
100
AcDbBlockBegin
  2
*MODEL_SPACE
 70
     0
 10
0.0
 20
0.0
 30
0.0
  3
*MODEL_SPACE
  1

  0
ENDBLK
  5
21
330
1F
100
AcDbEntity
  8
0
100
AcDbBlockEnd
  0
BLOCK
  5
1C
330
1B
100
AcDbEntity
 67
     1
  8
0
100
AcDbBlockBegin
  2
*PAPER_SPACE
 70
     0
 10
0.0
 20
0.0
 30
0.0
  3
*PAPER_SPACE
  1

  0
ENDBLK
  5
1D
330
1B
100
AcDbEntity
 67
     1
  8
0
100
AcDbBlockEnd
  0
BLOCK
  5
79
330
78
100
AcDbEntity
  8
0
100
AcDbBlockBegin
  2
EX_NORM
 70
     0
 10
0.0
 20
0.0
 30
0.0
  3
EX_NORM
  1

  0
LINE
  5
A2
330
78
100
AcDbEntity
  8
0
  6
CONTINUOUS
 62
     0
100
AcDbLine
 10
0.0
 20
0.0
 30
0.0
 11
-1.0
 21
0.0
 31
0.0
  0
LINE
  5
A3
330
78
100
AcDbEntity
  8
0
  6
CONTINUOUS
 62
     0
100
AcDbLine
 10
0.0
 20
0.0
 30
0.0
 11
-1.0
 21
0.166666667
 31
0.0
  0
LINE
  5
A4
330
78
100
AcDbEntity
  8
0
  6
CONTINUOUS
 62
     0
100
AcDbLine
 10
0.0
 20
0.0
 30
0.0
 11
-1.0
 21
-0.166666667
 31
0.0
  0
ENDBLK
  5
7A
330
78
100
AcDbEntity
  8
0
100
AcDbBlockEnd
  0
BLOCK
  5
7C
330
7B
100
AcDbEntity
  8
0
100
AcDbBlockBegin
  2
EX_BNORM
 70
     0
 10
0.0
 20
0.0
 30
0.0
  3
EX_BNORM
  1

  0
LINE
  5
A5
330
7B
100
AcDbEntity
  8
0
  6
CONTINUOUS
 62
     0
100
AcDbLine
 10
0.0
 20
0.0
 30
0.0
 11
-1.0
 21
0.0
 31
0.0
  0
LINE
  5
A6
330
7B
100
AcDbEntity
  8
0
  6
CONTINUOUS
 62
     0
100
AcDbLine
 10
0.0
 20
0.0
 30
0.0
 11
-1.0
 21
0.166666667
 31
0.0
  0
LINE
  5
A7
330
7B
100
AcDbEntity
  8
0
  6
CONTINUOUS
 62
     0
100
AcDbLine
 10
0.0
 20
0.0
 30
0.0
 11
-1.0
 21
-0.166666667
 31
0.0
  0
LINE
  5
A8
330
7B
100
AcDbEntity
  8
0
  6
CONTINUOUS
 62
     0
100
AcDbLine
 10
0.0
 20
0.0
 30
0.0
 11
-1.0
 21
0.083333333
 31
0.0
  0
LINE
  5
A9
330
7B
100
AcDbEntity
  8
0
  6
CONTINUOUS
 62
     0
100
AcDbLine
 10
0.0
 20
0.0
 30
0.0
 11
-1.0
 21
-0.083333333
 31
0.0
  0
LINE
  5
AA
330
7B
100
AcDbEntity
  8
0
  6
CONTINUOUS
 62
     0
100
AcDbLine
 10
-1.0
 20
0.166666667
 30
0.0
 11
-1.0
 21
-0.166666667
 31
0.0
  0
ENDBLK
  5
7D
330
7B
100
AcDbEntity
  8
0
100
AcDbBlockEnd
  0
BLOCK
  5
7F
330
7E
100
AcDbEntity
  8
0
100
AcDbBlockBegin
  2
EX_BCIR
 70
     0
 10
0.0
 20
0.0
 30
0.0
  3
EX_BCIR
  1

  0
LINE
  5
AB
330
7E
100
AcDbEntity
  8
0
  6
CONTINUOUS
 62
     0
100
AcDbLine
 10
0.0
 20
0.0
 30
0.0
 11
-1.0
 21
0.0
 31
0.0
  0
CIRCLE
  5
AC
330
7E
100
AcDbEntity
  8
0
  6
CONTINUOUS
 62
     0
100
AcDbCircle
 10
0.0
 20
0.0
 30
0.0
 40
0.5
  0
CIRCLE
  5
AD
330
7E
100
AcDbEntity
  8
0
  6
CONTINUOUS
 62
     0
100
AcDbCircle
 10
0.0
 20
0.0
 30
0.0
 40
0.25
  0
ENDBLK
  5
80
330
7E
100
AcDbEntity
  8
0
100
AcDbBlockEnd
  0
BLOCK
  5
82
330
81
100
AcDbEntity
  8
0
100
AcDbBlockBegin
  2
EX_RCIVIL
 70
     0
 10
0.0
 20
0.0
 30
0.0
  3
EX_RCIVIL
  1

  0
LINE
  5
AE
330
81
100
AcDbEntity
  8
0
  6
CONTINUOUS
 62
     0
100
AcDbLine
 10
0.0
 20
0.0
 30
0.0
 11
-1.0
 21
0.0
 31
0.0
  0
LINE
  5
AF
330
81
100
AcDbEntity
  8
0
  6
CONTINUOUS
 62
     0
100
AcDbLine
 10
-1.0
 20
-0.25
 30
0.0
 11
0.0
 21
-0.25
 31
0.0
  0
LINE
  5
B0
330
81
100
AcDbEntity
  8
0
  6
CONTINUOUS
 62
     0
100
AcDbLine
 10
-1.0
 20
-0.125
 30
0.0
 11
0.0
 21
-0.125
 31
0.0
  0
ENDBLK
  5
83
330
81
100
AcDbEntity
  8
0
100
AcDbBlockEnd
  0
BLOCK
  5
85
330
84
100
AcDbEntity
  8
0
100
AcDbBlockBegin
  2
EX_SLANT
 70
     0
 10
0.0
 20
0.0
 30
0.0
  3
EX_SLANT
  1

  0
LINE
  5
B1
330
84
100
AcDbEntity
  8
0
  6
CONTINUOUS
 62
     0
100
AcDbLine
 10
0.0
 20
0.0
 30
0.0
 11
-1.0
 21
0.0
 31
0.0
  0
LINE
  5
B2
330
84
100
AcDbEntity
  8
0
  6
CONTINUOUS
 62
     0
100
AcDbLine
 10
0.707106781
 20
0.707106781
 30
0.0
 11
-0.707106781
 21
-0.707106781
 31
0.0
  0
ENDBLK
  5
86
330
84
100
AcDbEntity
  8
0
100
AcDbBlockEnd
  0
BLOCK
  5
88
330
87
100
AcDbEntity
  8
0
100
AcDbBlockBegin
  2
EX_NONE
 70
     0
 10
0.0
 20
0.0
 30
0.0
  3
EX_NONE
  1

  0
LINE
  5
B3
330
87
100
AcDbEntity
  8
0
  6
CONTINUOUS
 62
     0
100
AcDbLine
 10
0.0
 20
0.0
 30
0.0
 11
-1.0
 21
0.0
 31
0.0
  0
ENDBLK
  5
89
330
87
100
AcDbEntity
  8
0
100
AcDbBlockEnd
  0
BLOCK
  5
8B
330
8A
100
AcDbEntity
  8
0
100
AcDbBlockBegin
  2
EX_CIVIL
 70
     0
 10
0.0
 20
0.0
 30
0.0
  3
EX_CIVIL
  1

  0
LINE
  5
B4
330
8A
100
AcDbEntity
  8
0
  6
CONTINUOUS
 62
     0
100
AcDbLine
 10
0.0
 20
0.0
 30
0.0
 11
-1.0
 21
0.0
 31
0.0
  0
LINE
  5
B5
330
8A
100
AcDbEntity
  8
0
  6
CONTINUOUS
 62
     0
100
AcDbLine
 10
-1.0
 20
0.25
 30
0.0
 11
0.0
 21
0.25
 31
0.0
  0
LINE
  5
B6
330
8A
100
AcDbEntity
  8
0
  6
CONTINUOUS
 62
     0
100
AcDbLine
 10
-1.0
 20
0.125
 30
0.0
 11
0.0
 21
0.125
 31
0.0
  0
ENDBLK
  5
8C
330
8A
100
AcDbEntity
  8
0
100
AcDbBlockEnd
  0
BLOCK
  5
8E
330
8D
100
AcDbEntity
  8
0
100
AcDbBlockBegin
  2
EX_WCIR
 70
     0
 10
0.0
 20
0.0
 30
0.0
  3
EX_WCIR
  1

  0
LINE
  5
B7
330
8D
100
AcDbEntity
  8
0
  6
CONTINUOUS
 62
     0
100
AcDbLine
 10
0.0
 20
0.0
 30
0.0
 11
-1.0
 21
0.0
 31
0.0
  0
CIRCLE
  5
B8
330
8D
100
AcDbEntity
  8
0
  6
CONTINUOUS
 62
     0
100
AcDbCircle
 10
0.0
 20
0.0
 30
0.0
 40
0.5
  0
ENDBLK
  5
8F
330
8D
100
AcDbEntity
  8
0
100
AcDbBlockEnd
  0
BLOCK
  5
91
330
90
100
AcDbEntity
  8
0
100
AcDbBlockBegin
  2
EX_WCIR2
 70
     0
 10
0.0
 20
0.0
 30
0.0
  3
EX_WCIR2
  1

  0
LINE
  5
B9
330
90
100
AcDbEntity
  8
0
  6
CONTINUOUS
 62
     0
100
AcDbLine
 10
-0.5
 20
0.0
 30
0.0
 11
-1.0
 21
0.0
 31
0.0
  0
CIRCLE
  5
BA
330
90
100
AcDbEntity
  8
0
  6
CONTINUOUS
 62
     0
100
AcDbCircle
 10
0.0
 20
0.0
 30
0.0
 40
0.5
  0
ENDBLK
  5
92
330
90
100
AcDbEntity
  8
0
100
AcDbBlockEnd
  0
BLOCK
  5
94
330
93
100
AcDbEntity
  8
0
100
AcDbBlockBegin
  2
EX_WNORM
 70
     0
 10
0.0
 20
0.0
 30
0.0
  3
EX_WNORM
  1

  0
LINE
  5
BB
330
93
100
AcDbEntity
  8
0
  6
CONTINUOUS
 62
     0
100
AcDbLine
 10
-1.0
 20
0.0
 30
0.0
 11
-1.0
 21
0.0
 31
0.0
  0
LINE
  5
BC
330
93
100
AcDbEntity
  8
0
  6
CONTINUOUS
 62
     0
100
AcDbLine
 10
0.0
 20
0.0
 30
0.0
 11
-1.0
 21
0.166666667
 31
0.0
  0
LINE
  5
BD
330
93
100
AcDbEntity
  8
0
  6
CONTINUOUS
 62
     0
100
AcDbLine
 10
0.0
 20
0.0
 30
0.0
 11
-1.0
 21
-0.166666667
 31
0.0
  0
LINE
  5
BE
330
93
100
AcDbEntity
  8
0
  6
CONTINUOUS
 62
     0
100
AcDbLine
 10
-1.0
 20
0.166666667
 30
0.0
 11
-1.0
 21
-0.166666667
 31
0.0
  0
ENDBLK
  5
95
330
93
100
AcDbEntity
  8
0
100
AcDbBlockEnd
  0
BLOCK
  5
97
330
96
100
AcDbEntity
  8
0
100
AcDbBlockBegin
  2
EX_NNORM
 70
     0
 10
0.0
 20
0.0
 30
0.0
  3
EX_NNORM
  1

  0
LINE
  5
BF
330
96
100
AcDbEntity
  8
0
  6
CONTINUOUS
 62
     0
100
AcDbLine
 10
0.0
 20
0.0
 30
0.0
 11
-1.0
 21
0.0
 31
0.0
  0
LINE
  5
C0
330
96
100
AcDbEntity
  8
0
  6
CONTINUOUS
 62
     0
100
AcDbLine
 10
0.0
 20
0.0
 30
0.0
 11
-1.0
 21
0.166666667
 31
0.0
  0
LINE
  5
C1
330
96
100
AcDbEntity
  8
0
  6
CONTINUOUS
 62
     0
100
AcDbLine
 10
0.0
 20
0.0
 30
0.0
 11
-1.0
 21
-0.166666667
 31
0.0
  0
LINE
  5
C2
330
96
100
AcDbEntity
  8
0
  6
CONTINUOUS
 62
     0
100
AcDbLine
 10
-1.0
 20
0.166666667
 30
0.0
 11
-1.0
 21
-0.166666667
 31
0.0
  0
ENDBLK
  5
98
330
96
100
AcDbEntity
  8
0
100
AcDbBlockEnd
  0
BLOCK
  5
9A
330
99
100
AcDbEntity
  8
0
100
AcDbBlockBegin
  2
EX_BBOX
 70
     0
 10
0.0
 20
0.0
 30
0.0
  3
EX_BBOX
  1

  0
LINE
  5
C3
330
99
100
AcDbEntity
  8
0
  6
CONTINUOUS
 62
     0
100
AcDbLine
 10
0.0
 20
0.0
 30
0.0
 11
-1.0
 21
0.0
 31
0.0
  0
LINE
  5
C4
330
99
100
AcDbEntity
  8
0
  6
CONTINUOUS
 62
     0
100
AcDbLine
 10
-0.5
 20
0.5
 30
0.0
 11
0.5
 21
0.5
 31
0.0
  0
LINE
  5
C5
330
99
100
AcDbEntity
  8
0
  6
CONTINUOUS
 62
     0
100
AcDbLine
 10
0.5
 20
0.5
 30
0.0
 11
0.5
 21
-0.5
 31
0.0
  0
LINE
  5
C6
330
99
100
AcDbEntity
  8
0
  6
CONTINUOUS
 62
     0
100
AcDbLine
 10
0.5
 20
-0.5
 30
0.0
 11
-0.5
 21
-0.5
 31
0.0
  0
LINE
  5
C7
330
99
100
AcDbEntity
  8
0
  6
CONTINUOUS
 62
     0
100
AcDbLine
 10
-0.5
 20
-0.5
 30
0.0
 11
-0.5
 21
0.5
 31
0.0
  0
LINE
  5
C8
330
99
100
AcDbEntity
  8
0
  6
CONTINUOUS
 62
     0
100
AcDbLine
 10
-0.25
 20
0.25
 30
0.0
 11
0.25
 21
0.25
 31
0.0
  0
LINE
  5
C9
330
99
100
AcDbEntity
  8
0
  6
CONTINUOUS
 62
     0
100
AcDbLine
 10
0.25
 20
0.25
 30
0.0
 11
0.25
 21
-0.25
 31
0.0
  0
LINE
  5
CA
330
99
100
AcDbEntity
  8
0
  6
CONTINUOUS
 62
     0
100
AcDbLine
 10
0.25
 20
-0.25
 30
0.0
 11
-0.25
 21
-0.25
 31
0.0
  0
LINE
  5
CB
330
99
100
AcDbEntity
  8
0
  6
CONTINUOUS
 62
     0
100
AcDbLine
 10
-0.25
 20
-0.25
 30
0.0
 11
-0.25
 21
0.25
 31
0.0
  0
ENDBLK
  5
9B
330
99
100
AcDbEntity
  8
0
100
AcDbBlockEnd
  0
BLOCK
  5
9D
330
9C
100
AcDbEntity
  8
0
100
AcDbBlockBegin
  2
EX_WBOX
 70
     0
 10
0.0
 20
0.0
 30
0.0
  3
EX_WBOX
  1

  0
LINE
  5
CC
330
9C
100
AcDbEntity
  8
0
  6
CONTINUOUS
 62
     0
100
AcDbLine
 10
-0.5
 20
0.0
 30
0.0
 11
-1.0
 21
0.0
 31
0.0
  0
LINE
  5
CD
330
9C
100
AcDbEntity
  8
0
  6
CONTINUOUS
 62
     0
100
AcDbLine
 10
-0.5
 20
0.5
 30
0.0
 11
0.5
 21
0.5
 31
0.0
  0
LINE
  5
CE
330
9C
100
AcDbEntity
  8
0
  6
CONTINUOUS
 62
     0
100
AcDbLine
 10
0.5
 20
0.5
 30
0.0
 11
0.5
 21
-0.5
 31
0.0
  0
LINE
  5
CF
330
9C
100
AcDbEntity
  8
0
  6
CONTINUOUS
 62
     0
100
AcDbLine
 10
0.5
 20
-0.5
 30
0.0
 11
-0.5
 21
-0.5
 31
0.0
  0
LINE
  5
D0
330
9C
100
AcDbEntity
  8
0
  6
CONTINUOUS
 62
     0
100
AcDbLine
 10
-0.5
 20
-0.5
 30
0.0
 11
-0.5
 21
0.5
 31
0.0
  0
ENDBLK
  5
9E
330
9C
100
AcDbEntity
  8
0
100
AcDbBlockEnd
  0
BLOCK
  5
A0
330
9F
100
AcDbEntity
  8
0
100
AcDbBlockBegin
  2
EX_INTEGRAL
 70
     0
 10
0.0
 20
0.0
 30
0.0
  3
EX_INTEGRAL
  1

  0
LINE
  5
D1
330
9F
100
AcDbEntity
  8
0
  6
CONTINUOUS
 62
     0
100
AcDbLine
 10
0.0
 20
0.0
 30
0.0
 11
-1.0
 21
0.0
 31
0.0
  0
ARC
  5
D2
330
9F
100
AcDbEntity
  8
0
  6
CONTINUOUS
 62
     0
100
AcDbCircle
 10
0.542115
 20
0.164992
 30
0.0
 40
0.56667
100
AcDbArc
 50
73.07249033629006
 51
196.9275130221199
  0
ARC
  5
D3
330
9F
100
AcDbEntity
  8
0
  6
CONTINUOUS
 62
     0
100
AcDbCircle
 10
-0.542115
 20
-0.164992
 30
0.0
 40
0.56667
100
AcDbArc
 50
253.0724869220464
 51
16.9275130559125
  0
ENDBLK
  5
A1
330
9F
100
AcDbEntity
  8
0
100
AcDbBlockEnd
  0
BLOCK
  5
117
330
116
100
AcDbEntity
  8
0
100
AcDbBlockBegin
  2
*D15
 70
     1
 10
0.0
 20
0.0
 30
0.0
  3
*D15
  1

  0
LINE
  5
119
330
116
100
AcDbEntity
  8
Ｓ_１_１
  6
CONTINUOUS
 62
     2
100
AcDbLine
 10
964.999939
 20
655.0000149999998
 30
0.0
 11
874.0
 21
655.000015
 31
0.0
  0
LINE
  5
11A
330
116
100
AcDbEntity
  8
Ｓ_１_１
  6
CONTINUOUS
 62
     2
100
AcDbLine
 10
964.999939
 20
944.9999849999994
 30
0.0
 11
874.0
 21
944.9999849999995
 31
0.0
  0
LINE
  5
11B
330
116
100
AcDbEntity
  8
Ｓ_１_１
  6
CONTINUOUS
 62
     2
100
AcDbLine
 10
880.0
 20
673.000015
 30
0.0
 11
880.0
 21
926.9999849999995
 31
0.0
  0
INSERT
  5
11C
330
116
100
AcDbEntity
  8
Ｓ_１_１
 62
     2
100
AcDbBlockReference
  2
EX_NORM
 10
880.0
 20
655.000015
 30
0.0
 41
18.0
 42
18.0
 43
18.0
 50
270.0
  0
INSERT
  5
11D
330
116
100
AcDbEntity
  8
Ｓ_１_１
 62
     2
100
AcDbBlockReference
  2
EX_NORM
 10
880.0
 20
944.9999849999995
 30
0.0
 41
18.0
 42
18.0
 43
18.0
 50
90.0
  0
MTEXT
  5
11E
330
116
100
AcDbEntity
  8
Ｓ_１_１
 62
     2
100
AcDbMText
 10
863.5
 20
799.9999999999995
 30
0.0
 40
20.77742494226328
 41
0.0
 71
     5
 72
     1
  1
%%c290
  7
EXCADDIM1
 11
0.0
 21
1.0
 31
0.0
  0
POINT
  5
11F
330
116
100
AcDbEntity
  8
DEFPOINTS
 62
     0
100
AcDbPoint
 10
973.999939
 20
655.0000149999998
 30
0.0
  0
POINT
  5
120
330
116
100
AcDbEntity
  8
DEFPOINTS
 62
     0
100
AcDbPoint
 10
973.999939
 20
944.9999849999994
 30
0.0
  0
POINT
  5
121
330
116
100
AcDbEntity
  8
DEFPOINTS
 62
     0
100
AcDbPoint
 10
880.0
 20
944.9999849999995
 30
0.0
  0
ENDBLK
  5
118
330
116
100
AcDbEntity
  8
0
100
AcDbBlockEnd
  0
BLOCK
  5
124
330
123
100
AcDbEntity
  8
0
100
AcDbBlockBegin
  2
*D16
 70
     1
 10
0.0
 20
0.0
 30
0.0
  3
*D16
  1

  0
LINE
  5
126
330
123
100
AcDbEntity
  8
Ｓ_１_１
  6
CONTINUOUS
 62
     2
100
AcDbLine
 10
1582.0
 20
479.9999999999999
 30
0.0
 11
997.9999999999999
 21
479.9999999999999
 31
0.0
  0
INSERT
  5
127
330
123
100
AcDbEntity
  8
Ｓ_１_１
 62
     2
100
AcDbBlockReference
  2
EX_NORM
 10
1600.0
 20
479.9999999999999
 30
0.0
 41
18.0
 42
18.0
 43
18.0
  0
INSERT
  5
128
330
123
100
AcDbEntity
  8
Ｓ_１_１
 62
     2
100
AcDbBlockReference
  2
EX_NORM
 10
979.9999999999999
 20
479.9999999999999
 30
0.0
 41
18.0
 42
18.0
 43
18.0
 50
180.0
  0
MTEXT
  5
129
330
123
100
AcDbEntity
  8
Ｓ_１_１
 62
     2
100
AcDbMText
 10
1290.0
 20
496.4999999999999
 30
0.0
 40
20.77742494226328
 41
0.0
 71
     5
 72
     1
  1
620
  7
EXCADDIM1
  0
POINT
  5
12A
330
123
100
AcDbEntity
  8
DEFPOINTS
 62
     0
100
AcDbPoint
 10
1600.0
 20
592.4998689997199
 30
0.0
  0
POINT
  5
12B
330
123
100
AcDbEntity
  8
DEFPOINTS
 62
     0
100
AcDbPoint
 10
979.9999999999999
 20
592.5000889999999
 30
0.0
  0
POINT
  5
12C
330
123
100
AcDbEntity
  8
DEFPOINTS
 62
     0
100
AcDbPoint
 10
979.9999999999999
 20
479.9999999999999
 30
0.0
  0
ENDBLK
  5
125
330
123
100
AcDbEntity
  8
0
100
AcDbBlockEnd
  0
BLOCK
  5
12F
330
12E
100
AcDbEntity
  8
0
100
AcDbBlockBegin
  2
*D17
 70
     1
 10
0.0
 20
0.0
 30
0.0
  3
*D17
  1

  0
LINE
  5
131
330
12E
100
AcDbEntity
  8
Ｓ_１_１
  6
CONTINUOUS
 62
     2
100
AcDbLine
 10
979.9999999999999
 20
583.5000889999999
 30
0.0
 11
979.9999999999999
 21
473.9999999999999
 31
0.0
  0
LINE
  5
132
330
12E
100
AcDbEntity
  8
Ｓ_１_１
  6
CONTINUOUS
 62
     2
100
AcDbLine
 10
979.9999999999999
 20
479.9999999999999
 30
0.0
 11
970.0
 21
479.9999999999999
 31
0.0
  0
LINE
  5
133
330
12E
100
AcDbEntity
  8
Ｓ_１_１
  6
CONTINUOUS
 62
     2
100
AcDbLine
 10
997.9999999999999
 20
479.9999999999999
 30
0.0
 11
1016.0
 21
479.9999999999999
 31
0.0
  0
LINE
  5
134
330
12E
100
AcDbEntity
  8
Ｓ_１_１
  6
CONTINUOUS
 62
     2
100
AcDbLine
 10
952.0
 20
479.9999999999999
 30
0.0
 11
934.0
 21
479.9999999999999
 31
0.0
  0
INSERT
  5
135
330
12E
100
AcDbEntity
  8
Ｓ_１_１
 62
     2
100
AcDbBlockReference
  2
EX_NORM
 10
979.9999999999999
 20
479.9999999999999
 30
0.0
 41
18.0
 42
18.0
 43
18.0
 50
180.0
  0
INSERT
  5
136
330
12E
100
AcDbEntity
  8
Ｓ_１_１
 62
     2
100
AcDbBlockReference
  2
EX_NORM
 10
970.0
 20
479.9999999999999
 30
0.0
 41
18.0
 42
18.0
 43
18.0
  0
MTEXT
  5
137
330
12E
100
AcDbEntity
  8
Ｓ_１_１
 62
     2
100
AcDbMText
 10
938.5000000000001
 20
496.4999999999998
 30
0.0
 40
20.77742494226328
 41
0.0
 71
     5
 72
     1
  1
10
  7
EXCADDIM1
  0
POINT
  5
138
330
12E
100
AcDbEntity
  8
DEFPOINTS
 62
     0
100
AcDbPoint
 10
979.9999999999999
 20
592.5000889999999
 30
0.0
  0
POINT
  5
139
330
12E
100
AcDbEntity
  8
DEFPOINTS
 62
     0
100
AcDbPoint
 10
970.0
 20
657.30943018773
 30
0.0
  0
POINT
  5
13A
330
12E
100
AcDbEntity
  8
DEFPOINTS
 62
     0
100
AcDbPoint
 10
970.0
 20
479.9999999999999
 30
0.0
  0
ENDBLK
  5
130
330
12E
100
AcDbEntity
  8
0
100
AcDbBlockEnd
  0
BLOCK
  5
13D
330
13C
100
AcDbEntity
  8
0
100
AcDbBlockBegin
  2
*D18
 70
     1
 10
0.0
 20
0.0
 30
0.0
  3
*D18
  1

  0
LINE
  5
13F
330
13C
100
AcDbEntity
  8
Ｓ_１_１
  6
CONTINUOUS
 62
     2
100
AcDbLine
 10
970.0
 20
648.30943018773
 30
0.0
 11
970.0
 21
433.9999999999999
 31
0.0
  0
LINE
  5
140
330
13C
100
AcDbEntity
  8
Ｓ_１_１
  6
CONTINUOUS
 62
     2
100
AcDbLine
 10
1600.0
 20
583.4998689997199
 30
0.0
 11
1600.0
 21
433.9999999999999
 31
0.0
  0
LINE
  5
141
330
13C
100
AcDbEntity
  8
Ｓ_１_１
  6
CONTINUOUS
 62
     2
100
AcDbLine
 10
988.0
 20
439.9999999999999
 30
0.0
 11
1582.0
 21
439.9999999999999
 31
0.0
  0
INSERT
  5
142
330
13C
100
AcDbEntity
  8
Ｓ_１_１
 62
     2
100
AcDbBlockReference
  2
EX_NORM
 10
970.0
 20
439.9999999999999
 30
0.0
 41
18.0
 42
18.0
 43
18.0
 50
180.0
  0
INSERT
  5
143
330
13C
100
AcDbEntity
  8
Ｓ_１_１
 62
     2
100
AcDbBlockReference
  2
EX_NORM
 10
1600.0
 20
439.9999999999999
 30
0.0
 41
18.0
 42
18.0
 43
18.0
  0
MTEXT
  5
144
330
13C
100
AcDbEntity
  8
Ｓ_１_１
 62
     2
100
AcDbMText
 10
1285.0
 20
456.4999999999999
 30
0.0
 40
20.77742494226328
 41
0.0
 71
     5
 72
     1
  1
630
  7
EXCADDIM1
  0
POINT
  5
145
330
13C
100
AcDbEntity
  8
DEFPOINTS
 62
     0
100
AcDbPoint
 10
970.0
 20
657.30943018773
 30
0.0
  0
POINT
  5
146
330
13C
100
AcDbEntity
  8
DEFPOINTS
 62
     0
100
AcDbPoint
 10
1600.0
 20
592.4998689997199
 30
0.0
  0
POINT
  5
147
330
13C
100
AcDbEntity
  8
DEFPOINTS
 62
     0
100
AcDbPoint
 10
1600.0
 20
439.9999999999999
 30
0.0
  0
ENDBLK
  5
13E
330
13C
100
AcDbEntity
  8
0
100
AcDbBlockEnd
  0
BLOCK
  5
14A
330
149
100
AcDbEntity
  8
0
100
AcDbBlockBegin
  2
*D19
 70
     1
 10
0.0
 20
0.0
 30
0.0
  3
*D19
  1

  0
LINE
  5
14C
330
149
100
AcDbEntity
  8
Ｓ_１_１
  6
CONTINUOUS
 62
     2
100
AcDbLine
 10
1609.0
 20
872.499992
 30
0.0
 11
1686.0
 21
872.499992
 31
0.0
  0
LINE
  5
14D
330
149
100
AcDbEntity
  8
Ｓ_１_１
  6
CONTINUOUS
 62
     2
100
AcDbLine
 10
1609.0
 20
727.500008
 30
0.0
 11
1686.0
 21
727.500008
 31
0.0
  0
LINE
  5
14E
330
149
100
AcDbEntity
  8
Ｓ_１_１
  6
CONTINUOUS
 62
     2
100
AcDbLine
 10
1680.0
 20
854.499992
 30
0.0
 11
1680.0
 21
745.500008
 31
0.0
  0
INSERT
  5
14F
330
149
100
AcDbEntity
  8
Ｓ_１_１
 62
     2
100
AcDbBlockReference
  2
EX_NORM
 10
1680.0
 20
872.499992
 30
0.0
 41
18.0
 42
18.0
 43
18.0
 50
90.0
  0
INSERT
  5
150
330
149
100
AcDbEntity
  8
Ｓ_１_１
 62
     2
100
AcDbBlockReference
  2
EX_NORM
 10
1680.0
 20
727.500008
 30
0.0
 41
18.0
 42
18.0
 43
18.0
 50
270.0
  0
MTEXT
  5
151
330
149
100
AcDbEntity
  8
Ｓ_１_１
 62
     2
100
AcDbMText
 10
1663.5
 20
799.9999999999999
 30
0.0
 40
20.77742494226328
 41
0.0
 71
     5
 72
     1
  1
%%c145
  7
EXCADDIM1
 11
0.0
 21
1.0
 31
0.0
  0
POINT
  5
152
330
149
100
AcDbEntity
  8
DEFPOINTS
 62
     0
100
AcDbPoint
 10
1600.0
 20
872.499992
 30
0.0
  0
POINT
  5
153
330
149
100
AcDbEntity
  8
DEFPOINTS
 62
     0
100
AcDbPoint
 10
1600.0
 20
727.500008
 30
0.0
  0
POINT
  5
154
330
149
100
AcDbEntity
  8
DEFPOINTS
 62
     0
100
AcDbPoint
 10
1680.0
 20
727.500008
 30
0.0
  0
ENDBLK
  5
14B
330
149
100
AcDbEntity
  8
0
100
AcDbBlockEnd
  0
BLOCK
  5
157
330
156
100
AcDbEntity
  8
0
100
AcDbBlockBegin
  2
*D20
 70
     1
 10
0.0
 20
0.0
 30
0.0
  3
*D20
  1

  0
LINE
  5
159
330
156
100
AcDbEntity
  8
Ｓ_１_１
  6
CONTINUOUS
 62
     2
100
AcDbLine
 10
1604.000015
 20
587.4999999999998
 30
0.0
 11
1726.0
 21
587.4999999999998
 31
0.0
  0
LINE
  5
15A
330
156
100
AcDbEntity
  8
Ｓ_１_１
  6
CONTINUOUS
 62
     2
100
AcDbLine
 10
1604.000015
 20
1012.5
 30
0.0
 11
1726.0
 21
1012.5
 31
0.0
  0
LINE
  5
15B
330
156
100
AcDbEntity
  8
Ｓ_１_１
  6
CONTINUOUS
 62
     2
100
AcDbLine
 10
1720.0
 20
605.4999999999998
 30
0.0
 11
1720.0
 21
994.4999999999997
 31
0.0
  0
INSERT
  5
15C
330
156
100
AcDbEntity
  8
Ｓ_１_１
 62
     2
100
AcDbBlockReference
  2
EX_NORM
 10
1720.0
 20
587.4999999999998
 30
0.0
 41
18.0
 42
18.0
 43
18.0
 50
270.0
  0
INSERT
  5
15D
330
156
100
AcDbEntity
  8
Ｓ_１_１
 62
     2
100
AcDbBlockReference
  2
EX_NORM
 10
1720.0
 20
1012.5
 30
0.0
 41
18.0
 42
18.0
 43
18.0
 50
90.0
  0
MTEXT
  5
15E
330
156
100
AcDbEntity
  8
Ｓ_１_１
 62
     2
100
AcDbMText
 10
1703.5
 20
799.9999999999998
 30
0.0
 40
20.77742494226328
 41
0.0
 71
     5
 72
     1
  1
%%c425
  7
EXCADDIM1
 11
0.0
 21
1.0
 31
0.0
  0
POINT
  5
15F
330
156
100
AcDbEntity
  8
DEFPOINTS
 62
     0
100
AcDbPoint
 10
1595.000015
 20
587.4999999999998
 30
0.0
  0
POINT
  5
160
330
156
100
AcDbEntity
  8
DEFPOINTS
 62
     0
100
AcDbPoint
 10
1595.000015
 20
1012.5
 30
0.0
  0
POINT
  5
161
330
156
100
AcDbEntity
  8
DEFPOINTS
 62
     0
100
AcDbPoint
 10
1720.0
 20
1012.5
 30
0.0
  0
ENDBLK
  5
158
330
156
100
AcDbEntity
  8
0
100
AcDbBlockEnd
  0
BLOCK
  5
164
330
163
100
AcDbEntity
  8
0
100
AcDbBlockBegin
  2
*D21
 70
     1
 10
0.0
 20
0.0
 30
0.0
  3
*D21
  1

  0
LINE
  5
166
330
163
100
AcDbEntity
  8
Ｓ_１_１
  6
CONTINUOUS
 62
     2
100
AcDbLine
 10
151.5
 20
823.9999999999999
 30
0.0
 11
151.5
 21
1206.0
 31
0.0
  0
LINE
  5
167
330
163
100
AcDbEntity
  8
Ｓ_１_１
  6
CONTINUOUS
 62
     2
100
AcDbLine
 10
788.5
 20
823.9999999999999
 30
0.0
 11
788.5
 21
1206.0
 31
0.0
  0
LINE
  5
168
330
163
100
AcDbEntity
  8
Ｓ_１_１
  6
CONTINUOUS
 62
     2
100
AcDbLine
 10
169.5
 20
1200.0
 30
0.0
 11
770.5
 21
1200.0
 31
0.0
  0
INSERT
  5
169
330
163
100
AcDbEntity
  8
Ｓ_１_１
 62
     2
100
AcDbBlockReference
  2
EX_NORM
 10
151.5
 20
1200.0
 30
0.0
 41
18.0
 42
18.0
 43
18.0
 50
180.0
  0
INSERT
  5
16A
330
163
100
AcDbEntity
  8
Ｓ_１_１
 62
     2
100
AcDbBlockReference
  2
EX_NORM
 10
788.5
 20
1200.0
 30
0.0
 41
18.0
 42
18.0
 43
18.0
  0
MTEXT
  5
16B
330
163
100
AcDbEntity
  8
Ｓ_１_１
 62
     2
100
AcDbMText
 10
470.0000000000001
 20
1216.5
 30
0.0
 40
20.77742494226328
 41
0.0
 71
     5
 72
     1
  1
637
  7
EXCADDIM1
  0
POINT
  5
16C
330
163
100
AcDbEntity
  8
DEFPOINTS
 62
     0
100
AcDbPoint
 10
151.5
 20
814.9999999999999
 30
0.0
  0
POINT
  5
16D
330
163
100
AcDbEntity
  8
DEFPOINTS
 62
     0
100
AcDbPoint
 10
788.5
 20
814.9999999999999
 30
0.0
  0
POINT
  5
16E
330
163
100
AcDbEntity
  8
DEFPOINTS
 62
     0
100
AcDbPoint
 10
788.5
 20
1200.0
 30
0.0
  0
ENDBLK
  5
165
330
163
100
AcDbEntity
  8
0
100
AcDbBlockEnd
  0
BLOCK
  5
171
330
170
100
AcDbEntity
  8
0
100
AcDbBlockBegin
  2
*D22
 70
     1
 10
0.0
 20
0.0
 30
0.0
  3
*D22
  1

  0
LINE
  5
173
330
170
100
AcDbEntity
  8
Ｓ_１_１
  6
CONTINUOUS
 62
     2
100
AcDbLine
 10
558.4999999999992
 20
953.2864964698462
 30
0.0
 11
381.5000000000008
 21
646.7135035301534
 31
0.0
  0
MTEXT
  5
174
330
170
100
AcDbEntity
  8
Ｓ_１_１
 62
     2
100
AcDbMText
 10
601.2661542731855
 20
1060.359648515334
 30
0.0
 40
20.77742494226328
 41
0.0
 71
     5
 72
     1
  1
P.C.D 390
  7
EXCADDIM1
 11
0.4999999999999949
 21
0.8660254037844417
 31
0.0
  0
LINE
  5
175
330
170
100
AcDbEntity
  8
Ｓ_１_１
  6
CONTINUOUS
 62
     2
100
AcDbLine
 10
372.5000000000009
 20
631.1250462620335
 30
0.0
 11
567.4999999999991
 21
968.874953737966
 31
0.0
  0
INSERT
  5
176
330
170
100
AcDbEntity
  8
Ｓ_１_１
 62
     2
100
AcDbBlockReference
  2
EX_NORM
 10
372.5000000000009
 20
631.1250462620335
 30
0.0
 41
18.0
 42
18.0
 43
18.0
 50
240.0000000000003
  0
INSERT
  5
177
330
170
100
AcDbEntity
  8
Ｓ_１_１
 62
     2
100
AcDbBlockReference
  2
EX_NORM
 10
567.4999999999991
 20
968.874953737966
 30
0.0
 41
18.0
 42
18.0
 43
18.0
 50
60.00000000000033
  0
POINT
  5
178
330
170
100
AcDbEntity
  8
DEFPOINTS
 62
     0
100
AcDbPoint
 10
567.4999999999991
 20
968.874953737966
 30
0.0
  0
POINT
  5
179
330
170
100
AcDbEntity
  8
DEFPOINTS
 62
     0
100
AcDbPoint
 10
372.5000000000009
 20
631.1250462620335
 30
0.0
  0
ENDBLK
  5
172
330
170
100
AcDbEntity
  8
0
100
AcDbBlockEnd
  0
BLOCK
  5
17C
330
17B
100
AcDbEntity
  8
0
100
AcDbBlockBegin
  2
*D23
 70
     1
 10
0.0
 20
0.0
 30
0.0
  3
*D23
  1

  0
LINE
  5
17E
330
17B
100
AcDbEntity
  8
Ｓ_１_１
  6
CONTINUOUS
 62
     2
100
AcDbLine
 10
593.8416258129711
 20
728.5000039999992
 30
0.0
 11
779.7421072952781
 21
621.170310973707
 31
0.0
  0
LINE
  5
17F
330
17B
100
AcDbEntity
  8
Ｓ_１_１
  6
CONTINUOUS
 62
     2
100
AcDbLine
 10
346.158374187029
 20
871.4999960000004
 30
0.0
 11
330.5699169189091
 21
880.4999960000005
 31
0.0
  0
MTEXT
  5
180
330
17B
100
AcDbEntity
  8
Ｓ_１_１
 62
     2
100
AcDbMText
 10
732.2893549995231
 20
664.0316239160768
 30
0.0
 40
20.77742494226328
 41
0.0
 71
     5
 72
     1
  1
P.C.D 250
  7
EXCADDIM1
 11
0.8660254037844362
 21
-0.5000000000000042
 31
0.0
  0
LINE
  5
181
330
17B
100
AcDbEntity
  8
Ｓ_１_１
  6
CONTINUOUS
 62
     2
100
AcDbLine
 10
361.7468314551488
 20
862.4999960000002
 30
0.0
 11
578.2531685448512
 21
737.5000039999993
 31
0.0
  0
INSERT
  5
182
330
17B
100
AcDbEntity
  8
Ｓ_１_１
 62
     2
100
AcDbBlockReference
  2
EX_NORM
 10
361.7468314551488
 20
862.4999960000002
 30
0.0
 41
18.0
 42
18.0
 43
18.0
 50
329.9999999999998
  0
INSERT
  5
183
330
17B
100
AcDbEntity
  8
Ｓ_１_１
 62
     2
100
AcDbBlockReference
  2
EX_NORM
 10
578.2531685448512
 20
737.5000039999993
 30
0.0
 41
18.0
 42
18.0
 43
18.0
 50
149.9999999999997
  0
POINT
  5
184
330
17B
100
AcDbEntity
  8
DEFPOINTS
 62
     0
100
AcDbPoint
 10
578.2531685448512
 20
737.5000039999993
 30
0.0
  0
POINT
  5
185
330
17B
100
AcDbEntity
  8
DEFPOINTS
 62
     0
100
AcDbPoint
 10
361.7468314551488
 20
862.4999960000002
 30
0.0
  0
ENDBLK
  5
17D
330
17B
100
AcDbEntity
  8
0
100
AcDbBlockEnd
  0
BLOCK
  5
188
330
187
100
AcDbEntity
  8
0
100
AcDbBlockBegin
  2
*D24
 70
     1
 10
0.0
 20
0.0
 30
0.0
  3
*D24
  1

  0
LINE
  5
18A
330
187
100
AcDbEntity
  8
Ｓ_１_１
  6
CONTINUOUS
 62
     2
100
AcDbLine
 10
528.9999999999989
 20
697.8090023534351
 30
0.0
 11
646.4112283562429
 21
494.4467894613436
 31
0.0
  0
LINE
  5
18B
330
187
100
AcDbEntity
  8
Ｓ_１_１
  6
CONTINUOUS
 62
     2
100
AcDbLine
 10
411.000000000001
 20
902.1909976465641
 30
0.0
 11
402.0000000000012
 21
917.7794549146842
 31
0.0
  0
MTEXT
  5
18C
330
187
100
AcDbEntity
  8
Ｓ_１_１
 62
     2
100
AcDbMText
 10
626.746595859814
 20
555.2921514568682
 30
0.0
 40
20.77742494226328
 41
0.0
 71
     5
 72
     1
  1
P.C.D 200
  7
EXCADDIM1
 11
0.4999999999999905
 21
-0.866025403784444
 31
0.0
  0
LINE
  5
18D
330
187
100
AcDbEntity
  8
Ｓ_１_１
  6
CONTINUOUS
 62
     2
100
AcDbLine
 10
420.0000000000009
 20
886.6025403784441
 30
0.0
 11
519.9999999999991
 21
713.3974596215551
 31
0.0
  0
INSERT
  5
18E
330
187
100
AcDbEntity
  8
Ｓ_１_１
 62
     2
100
AcDbBlockReference
  2
EX_NORM
 10
420.0000000000009
 20
886.6025403784441
 30
0.0
 41
18.0
 42
18.0
 43
18.0
 50
299.9999999999994
  0
INSERT
  5
18F
330
187
100
AcDbEntity
  8
Ｓ_１_１
 62
     2
100
AcDbBlockReference
  2
EX_NORM
 10
519.9999999999991
 20
713.3974596215551
 30
0.0
 41
18.0
 42
18.0
 43
18.0
 50
119.9999999999994
  0
POINT
  5
190
330
187
100
AcDbEntity
  8
DEFPOINTS
 62
     0
100
AcDbPoint
 10
519.9999999999991
 20
713.3974596215551
 30
0.0
  0
POINT
  5
191
330
187
100
AcDbEntity
  8
DEFPOINTS
 62
     0
100
AcDbPoint
 10
420.0000000000009
 20
886.6025403784441
 30
0.0
  0
ENDBLK
  5
189
330
187
100
AcDbEntity
  8
0
100
AcDbBlockEnd
  0
BLOCK
  5
198
330
197
100
AcDbEntity
  8
0
100
AcDbBlockBegin
  2
*D25
 70
     1
 10
0.0
 20
0.0
 30
0.0
  3
*D25
  1

  0
LINE
  5
19A
330
197
100
AcDbEntity
  8
Ｓ_１_１
  6
CONTINUOUS
 62
     2
100
AcDbLine
 10
2208.171746769719
 20
873.9999924999956
 30
0.0
 11
2386.695691071607
 21
977.0708397994769
 31
0.0
  0
LINE
  5
19B
330
197
100
AcDbEntity
  8
Ｓ_１_１
  6
CONTINUOUS
 62
     2
100
AcDbLine
 10
1951.828253230281
 20
726.0000075000037
 30
0.0
 11
1936.239795962161
 21
717.0000075000041
 31
0.0
  0
MTEXT
  5
19C
330
197
100
AcDbEntity
  8
Ｓ_１_１
 62
     2
100
AcDbMText
 10
2325.850329076082
 20
957.4062073030492
 30
0.0
 40
20.77742494226328
 41
0.0
 71
     5
 72
     1
  1
P.C.D 260
  7
EXCADDIM1
 11
0.866025403784455
 21
0.4999999999999717
 31
0.0
  0
LINE
  5
19D
330
197
100
AcDbEntity
  8
Ｓ_１_１
  6
CONTINUOUS
 62
     2
100
AcDbLine
 10
1967.416710498402
 20
735.0000075000032
 30
0.0
 11
2192.583289501598
 21
864.9999924999961
 31
0.0
  0
INSERT
  5
19E
330
197
100
AcDbEntity
  8
Ｓ_１_１
 62
     2
100
AcDbBlockReference
  2
EX_NORM
 10
1967.416710498402
 20
735.0000075000032
 30
0.0
 41
18.0
 42
18.0
 43
18.0
 50
29.99999999999813
  0
INSERT
  5
19F
330
197
100
AcDbEntity
  8
Ｓ_１_１
 62
     2
100
AcDbBlockReference
  2
EX_NORM
 10
2192.583289501598
 20
864.9999924999961
 30
0.0
 41
18.0
 42
18.0
 43
18.0
 50
209.9999999999981
  0
POINT
  5
1A0
330
197
100
AcDbEntity
  8
DEFPOINTS
 62
     0
100
AcDbPoint
 10
2192.583289501598
 20
864.9999924999961
 30
0.0
  0
POINT
  5
1A1
330
197
100
AcDbEntity
  8
DEFPOINTS
 62
     0
100
AcDbPoint
 10
1967.416710498402
 20
735.0000075000032
 30
0.0
  0
ENDBLK
  5
199
330
197
100
AcDbEntity
  8
0
100
AcDbBlockEnd
  0
BLOCK
  5
404
330
403
100
AcDbEntity
  8
0
100
AcDbBlockBegin
  2
*D26
 70
     1
 10
0.0
 20
0.0
 30
0.0
  3
*D26
  1

  0
LINE
  5
406
330
403
100
AcDbEntity
  8
Ｓ_１_１
  6
CONTINUOUS
 62
     2
100
AcDbLine
 10
1600.0
 20
1016.5001310003
 30
0.0
 11
1600.0
 21
1206.0
 31
0.0
  0
LINE
  5
407
330
403
100
AcDbEntity
  8
Ｓ_１_１
  6
CONTINUOUS
 62
     2
100
AcDbLine
 10
1510.0
 20
1113.07196
 30
0.0
 11
1510.0
 21
1206.0
 31
0.0
  0
LINE
  5
408
330
403
100
AcDbEntity
  8
Ｓ_１_１
  6
CONTINUOUS
 62
     2
100
AcDbLine
 10
1582.0
 20
1200.0
 30
0.0
 11
1528.0
 21
1200.0
 31
0.0
  0
INSERT
  5
409
330
403
100
AcDbEntity
  8
Ｓ_１_１
 62
     2
100
AcDbBlockReference
  2
EX_NORM
 10
1600.0
 20
1200.0
 30
0.0
 41
18.0
 42
18.0
 43
18.0
  0
INSERT
  5
40A
330
403
100
AcDbEntity
  8
Ｓ_１_１
 62
     2
100
AcDbBlockReference
  2
EX_NORM
 10
1510.0
 20
1200.0
 30
0.0
 41
18.0
 42
18.0
 43
18.0
 50
180.0
  0
MTEXT
  5
40B
330
403
100
AcDbEntity
  8
Ｓ_１_１
 62
     2
100
AcDbMText
 10
1555.0
 20
1216.5
 30
0.0
 40
20.77742494226328
 41
0.0
 71
     5
 72
     1
  1
90
  7
EXCADDIM1
  0
POINT
  5
40C
330
403
100
AcDbEntity
  8
DEFPOINTS
 62
     0
100
AcDbPoint
 10
1600.0
 20
1007.5001310003
 30
0.0
  0
POINT
  5
40D
330
403
100
AcDbEntity
  8
DEFPOINTS
 62
     0
100
AcDbPoint
 10
1510.0
 20
1104.07196
 30
0.0
  0
POINT
  5
40E
330
403
100
AcDbEntity
  8
DEFPOINTS
 62
     0
100
AcDbPoint
 10
1510.0
 20
1200.0
 30
0.0
  0
ENDBLK
  5
405
330
403
100
AcDbEntity
  8
0
100
AcDbBlockEnd
  0
BLOCK
  5
411
330
410
100
AcDbEntity
  8
0
100
AcDbBlockBegin
  2
*D27
 70
     1
 10
0.0
 20
0.0
 30
0.0
  3
*D27
  1

  0
LINE
  5
413
330
410
100
AcDbEntity
  8
Ｓ_１_１
  6
CONTINUOUS
 62
     2
100
AcDbLine
 10
1510.0
 20
1113.07196
 30
0.0
 11
1510.0
 21
1206.0
 31
0.0
  0
LINE
  5
414
330
410
100
AcDbEntity
  8
Ｓ_１_１
  6
CONTINUOUS
 62
     2
100
AcDbLine
 10
1125.000031
 20
1140.0
 30
0.0
 11
1125.000031
 21
1206.0
 31
0.0
  0
LINE
  5
415
330
410
100
AcDbEntity
  8
Ｓ_１_１
  6
CONTINUOUS
 62
     2
100
AcDbLine
 10
1492.0
 20
1200.0
 30
0.0
 11
1143.000031
 21
1200.0
 31
0.0
  0
INSERT
  5
416
330
410
100
AcDbEntity
  8
Ｓ_１_１
 62
     2
100
AcDbBlockReference
  2
EX_NORM
 10
1510.0
 20
1200.0
 30
0.0
 41
18.0
 42
18.0
 43
18.0
  0
INSERT
  5
417
330
410
100
AcDbEntity
  8
Ｓ_１_１
 62
     2
100
AcDbBlockReference
  2
EX_NORM
 10
1125.000031
 20
1200.0
 30
0.0
 41
18.0
 42
18.0
 43
18.0
 50
180.0
  0
MTEXT
  5
418
330
410
100
AcDbEntity
  8
Ｓ_１_１
 62
     2
100
AcDbMText
 10
1317.5000155
 20
1216.5
 30
0.0
 40
20.77742494226328
 41
0.0
 71
     5
 72
     1
  1
385
  7
EXCADDIM1
  0
POINT
  5
419
330
410
100
AcDbEntity
  8
DEFPOINTS
 62
     0
100
AcDbPoint
 10
1510.0
 20
1104.07196
 30
0.0
  0
POINT
  5
41A
330
410
100
AcDbEntity
  8
DEFPOINTS
 62
     0
100
AcDbPoint
 10
1125.000031
 20
1131.0
 30
0.0
  0
POINT
  5
41B
330
410
100
AcDbEntity
  8
DEFPOINTS
 62
     0
100
AcDbPoint
 10
1125.000031
 20
1200.0
 30
0.0
  0
ENDBLK
  5
412
330
410
100
AcDbEntity
  8
0
100
AcDbBlockEnd
  0
BLOCK
  5
41E
330
41D
100
AcDbEntity
  8
0
100
AcDbBlockBegin
  2
*D28
 70
     1
 10
0.0
 20
0.0
 30
0.0
  3
*D28
  1

  0
LINE
  5
420
330
41D
100
AcDbEntity
  8
Ｓ_１_１
  6
CONTINUOUS
 62
     2
100
AcDbLine
 10
1125.000031
 20
1140.0
 30
0.0
 11
1125.000031
 21
1206.0
 31
0.0
  0
LINE
  5
421
330
41D
100
AcDbEntity
  8
Ｓ_１_１
  6
CONTINUOUS
 62
     2
100
AcDbLine
 10
979.9999999999999
 20
1016.499911
 30
0.0
 11
979.9999999999999
 21
1206.0
 31
0.0
  0
LINE
  5
422
330
41D
100
AcDbEntity
  8
Ｓ_１_１
  6
CONTINUOUS
 62
     2
100
AcDbLine
 10
1107.000031
 20
1200.0
 30
0.0
 11
997.9999999999999
 21
1200.0
 31
0.0
  0
INSERT
  5
423
330
41D
100
AcDbEntity
  8
Ｓ_１_１
 62
     2
100
AcDbBlockReference
  2
EX_NORM
 10
1125.000031
 20
1200.0
 30
0.0
 41
18.0
 42
18.0
 43
18.0
  0
INSERT
  5
424
330
41D
100
AcDbEntity
  8
Ｓ_１_１
 62
     2
100
AcDbBlockReference
  2
EX_NORM
 10
979.9999999999999
 20
1200.0
 30
0.0
 41
18.0
 42
18.0
 43
18.0
 50
180.0
  0
MTEXT
  5
425
330
41D
100
AcDbEntity
  8
Ｓ_１_１
 62
     2
100
AcDbMText
 10
1052.5000155
 20
1216.5
 30
0.0
 40
20.77742494226328
 41
0.0
 71
     5
 72
     1
  1
145
  7
EXCADDIM1
  0
POINT
  5
426
330
41D
100
AcDbEntity
  8
DEFPOINTS
 62
     0
100
AcDbPoint
 10
1125.000031
 20
1131.0
 30
0.0
  0
POINT
  5
427
330
41D
100
AcDbEntity
  8
DEFPOINTS
 62
     0
100
AcDbPoint
 10
979.9999999999999
 20
1007.499911
 30
0.0
  0
POINT
  5
428
330
41D
100
AcDbEntity
  8
DEFPOINTS
 62
     0
100
AcDbPoint
 10
979.9999999999999
 20
1200.0
 30
0.0
  0
ENDBLK
  5
41F
330
41D
100
AcDbEntity
  8
0
100
AcDbBlockEnd
  0
BLOCK
  5
4FA
330
4F9
100
AcDbEntity
  8
0
100
AcDbBlockBegin
  2
*D29
 70
     1
 10
0.0
 20
0.0
 30
0.0
  3
*D29
  1

  0
LINE
  5
4FC
330
4F9
100
AcDbEntity
  8
Ｓ_１_１
  6
CONTINUOUS
 62
     2
100
AcDbLine
 10
1531.0
 20
1100.500031
 30
0.0
 11
1726.0
 21
1100.500031
 31
0.0
  0
LINE
  5
4FD
330
4F9
100
AcDbEntity
  8
Ｓ_１_１
  6
CONTINUOUS
 62
     2
100
AcDbLine
 10
1604.000015
 20
1012.500015
 30
0.0
 11
1726.0
 21
1012.500015
 31
0.0
  0
LINE
  5
4FE
330
4F9
100
AcDbEntity
  8
Ｓ_１_１
  6
CONTINUOUS
 62
     2
100
AcDbLine
 10
1720.0
 20
1082.500031
 30
0.0
 11
1720.0
 21
1030.500015
 31
0.0
  0
INSERT
  5
4FF
330
4F9
100
AcDbEntity
  8
Ｓ_１_１
 62
     2
100
AcDbBlockReference
  2
EX_NORM
 10
1720.0
 20
1100.500031
 30
0.0
 41
18.0
 42
18.0
 43
18.0
 50
90.0
  0
INSERT
  5
500
330
4F9
100
AcDbEntity
  8
Ｓ_１_１
 62
     2
100
AcDbBlockReference
  2
EX_NORM
 10
1720.0
 20
1012.500015
 30
0.0
 41
18.0
 42
18.0
 43
18.0
 50
270.0
  0
MTEXT
  5
501
330
4F9
100
AcDbEntity
  8
Ｓ_１_１
 62
     2
100
AcDbMText
 10
1703.5
 20
1056.500023
 30
0.0
 40
20.77742494226328
 41
0.0
 71
     5
 72
     1
  1
(88)
  7
EXCADDIM1
 11
0.0
 21
1.0
 31
0.0
  0
POINT
  5
502
330
4F9
100
AcDbEntity
  8
DEFPOINTS
 62
     0
100
AcDbPoint
 10
1522.0
 20
1100.500031
 30
0.0
  0
POINT
  5
503
330
4F9
100
AcDbEntity
  8
DEFPOINTS
 62
     0
100
AcDbPoint
 10
1595.000015
 20
1012.500015
 30
0.0
  0
POINT
  5
504
330
4F9
100
AcDbEntity
  8
DEFPOINTS
 62
     0
100
AcDbPoint
 10
1720.0
 20
1012.500015
 30
0.0
  0
ENDBLK
  5
4FB
330
4F9
100
AcDbEntity
  8
0
100
AcDbBlockEnd
  0
ENDSEC
  0
SECTION
  2
ENTITIES
  0
LINE
  5
D4
330
1F
100
AcDbEntity
  8
図面枠
  6
CONTINUOUS
 62
     5
100
AcDbLine
 10
60.0
 20
60.0
 30
0.0
 11
2460.0
 21
60.0
 31
0.0
  0
LINE
  5
D5
330
1F
100
AcDbEntity
  8
図面枠
  6
CONTINUOUS
 62
     5
100
AcDbLine
 10
2460.0
 20
60.0
 30
0.0
 11
2460.0
 21
1722.0
 31
0.0
  0
LINE
  5
D6
330
1F
100
AcDbEntity
  8
図面枠
  6
CONTINUOUS
 62
     5
100
AcDbLine
 10
2460.0
 20
1722.0
 30
0.0
 11
60.00000000000031
 21
1722.0
 31
0.0
  0
LINE
  5
D7
330
1F
100
AcDbEntity
  8
図面枠
  6
CONTINUOUS
 62
     5
100
AcDbLine
 10
60.00000000000031
 20
1722.0
 30
0.0
 11
60.0
 21
60.0
 31
0.0
  0
LINE
  5
D8
330
1F
100
AcDbEntity
  8
図面枠
  6
CONTINUOUS
 62
     3
100
AcDbLine
 10
90.00000000000009
 20
1692.0
 30
0.0
 11
774.0
 21
1692.0
 31
0.0
  0
LINE
  5
D9
330
1F
100
AcDbEntity
  8
図面枠
  6
CONTINUOUS
 62
     3
100
AcDbLine
 10
90.00000000000009
 20
1638.0
 30
0.0
 11
774.0
 21
1638.0
 31
0.0
  0
LINE
  5
DA
330
1F
100
AcDbEntity
  8
図面枠
  6
CONTINUOUS
 62
     3
100
AcDbLine
 10
90.00000000000009
 20
1692.0
 30
0.0
 11
90.00000000000009
 21
1638.0
 31
0.0
  0
LINE
  5
DB
330
1F
100
AcDbEntity
  8
図面枠
  6
CONTINUOUS
 62
     3
100
AcDbLine
 10
774.0
 20
1692.0
 30
0.0
 11
774.0
 21
1638.0
 31
0.0
  0
TEXT
  5
DD
330
1F
100
AcDbEntity
  8
図面枠
  6
CONTINUOUS
 62
     4
100
AcDbText
 10
108.0000000000001
 20
1652.0625
 30
0.0
 40
27.70323325635104
  1
4000kN300ストロークCH型 油圧ジャッキ
 41
0.9992307692307696
  7
EXCADTTF1
 72
     5
 11
756.0000000000001
 21
1652.0625
 31
0.0
100
AcDbText
  0
LINE
  5
DE
330
1F
100
AcDbEntity
  8
図面枠
  6
CONTINUOUS
 62
     3
100
AcDbLine
 10
2142.0
 20
144.0
 30
0.0
 11
2430.0
 21
144.0
 31
0.0
  0
LINE
  5
DF
330
1F
100
AcDbEntity
  8
図面枠
  6
CONTINUOUS
 62
     3
100
AcDbLine
 10
2142.0
 20
90.0
 30
0.0
 11
2430.0
 21
90.0
 31
0.0
  0
LINE
  5
E0
330
1F
100
AcDbEntity
  8
図面枠
  6
CONTINUOUS
 62
     3
100
AcDbLine
 10
2142.0
 20
144.0
 30
0.0
 11
2142.0
 21
90.0
 31
0.0
  0
LINE
  5
E1
330
1F
100
AcDbEntity
  8
図面枠
  6
CONTINUOUS
 62
     3
100
AcDbLine
 10
2430.0
 20
144.0
 30
0.0
 11
2430.0
 21
90.0
 31
0.0
  0
TEXT
  5
E2
330
1F
100
AcDbEntity
  8
図面枠
  6
CONTINUOUS
 62
     4
100
AcDbText
 10
2160.0
 20
104.0625
 30
0.0
 40
27.70323325635104
  1
CHV-40030-145D
 41
0.9992307692307691
  7
EXCADTTF1
 72
     5
 11
2412.0
 21
104.0625
 31
0.0
100
AcDbText
  0
TEXT
  5
E3
330
1F
100
AcDbEntity
  8
図面枠
  6
CONTINUOUS
 62
     4
100
AcDbText
 10
2322.0
 20
1628.296875
 30
0.0
 40
20.77742494226328
  1
kN
 41
0.999230769230769
  7
EXCADTTF1
 72
     5
 11
2349.0
 21
1628.296875
 31
0.0
100
AcDbText
  0
TEXT
  5
E4
330
1F
100
AcDbEntity
  8
図面枠
  6
CONTINUOUS
 62
     4
100
AcDbText
 10
1962.0
 20
1628.296875
 30
0.0
 40
20.77742494226328
  1
能力
 41
0.999230769230769
  7
EXCADTTF1
 72
     5
 11
2016.0
 21
1628.296875
 31
0.0
100
AcDbText
  0
TEXT
  5
E5
330
1F
100
AcDbEntity
  8
図面枠
  6
CONTINUOUS
 62
     4
100
AcDbText
 10
2122.5
 20
1664.296875
 30
0.0
 40
20.77742494226328
  1
仕　　　様
 41
0.9992307692307689
  7
EXCADTTF1
 72
     5
 11
2257.5
 21
1664.296875
 31
0.0
100
AcDbText
  0
LINE
  5
E6
330
1F
100
AcDbEntity
  8
図面枠
  6
CONTINUOUS
 62
     3
100
AcDbLine
 10
1950.0
 20
1692.0
 30
0.0
 11
2430.0
 21
1692.0
 31
0.0
  0
LINE
  5
E7
330
1F
100
AcDbEntity
  8
図面枠
  6
CONTINUOUS
 62
     3
100
AcDbLine
 10
1950.0
 20
1656.0
 30
0.0
 11
2430.0
 21
1656.0
 31
0.0
  0
TEXT
  5
E8
330
1F
100
AcDbEntity
  8
図面枠
  6
CONTINUOUS
 62
     4
100
AcDbText
 10
2244.0
 20
1628.296875
 30
0.0
 40
20.77742494226328
  1
4000
 41
0.999230769230769
  7
EXCADTTF1
 72
     5
 11
2298.0
 21
1628.296875
 31
0.0
100
AcDbText
  0
TEXT
  5
E9
330
1F
100
AcDbEntity
  8
図面枠
  6
CONTINUOUS
 62
     4
100
AcDbText
 10
2322.0
 20
1592.296875
 30
0.0
 40
20.77742494226328
  1
mm
 41
0.999230769230769
  7
EXCADTTF1
 72
     5
 11
2349.0
 21
1592.296875
 31
0.0
100
AcDbText
  0
TEXT
  5
EA
330
1F
100
AcDbEntity
  8
図面枠
  6
CONTINUOUS
 62
     4
100
AcDbText
 10
2322.0
 20
1556.296875
 30
0.0
 40
20.77742494226328
  1
mm
 41
0.999230769230769
  7
EXCADTTF1
 72
     5
 11
2349.0
 21
1556.296875
 31
0.0
100
AcDbText
  0
TEXT
  5
EB
330
1F
100
AcDbEntity
  8
図面枠
  6
CONTINUOUS
 62
     4
100
AcDbText
 10
2322.0
 20
1520.296875
 30
0.0
 40
20.77742494226328
  1
mm
 41
0.999230769230769
  7
EXCADTTF1
 72
     5
 11
2349.0
 21
1520.296875
 31
0.0
100
AcDbText
  0
TEXT
  5
EC
330
1F
100
AcDbEntity
  8
図面枠
  6
CONTINUOUS
 62
     4
100
AcDbText
 10
2322.0
 20
1484.296875
 30
0.0
 40
20.77742494226328
  1
mm
 41
0.999230769230769
  7
EXCADTTF1
 72
     5
 11
2349.0
 21
1484.296875
 31
0.0
100
AcDbText
  0
TEXT
  5
ED
330
1F
100
AcDbEntity
  8
図面枠
  6
CONTINUOUS
 62
     4
100
AcDbText
 10
2322.0
 20
1448.296875
 30
0.0
 40
20.77742494226328
  1
mm
 41
0.999230769230769
  7
EXCADTTF1
 72
     5
 11
2349.0
 21
1448.296875
 31
0.0
100
AcDbText
  0
TEXT
  5
EE
330
1F
100
AcDbEntity
  8
図面枠
  6
CONTINUOUS
 62
     4
100
AcDbText
 10
2322.0
 20
1376.296875
 30
0.0
 40
20.77742494226328
  1
MPa
 41
0.999230769230769
  7
EXCADTTF1
 72
     5
 11
2362.5
 21
1376.296875
 31
0.0
100
AcDbText
  0
TEXT
  5
EF
330
1F
100
AcDbEntity
  8
図面枠
  6
CONTINUOUS
 62
     4
100
AcDbText
 10
1962.0
 20
1592.296875
 30
0.0
 40
20.77742494226328
  1
ストローク
 41
0.9992307692307689
  7
EXCADTTF1
 72
     5
 11
2097.0
 21
1592.296875
 31
0.0
100
AcDbText
  0
TEXT
  5
F0
330
1F
100
AcDbEntity
  8
図面枠
  6
CONTINUOUS
 62
     4
100
AcDbText
 10
1962.0
 20
1556.296875
 30
0.0
 40
20.77742494226328
  1
最低機械高
 41
0.9992307692307689
  7
EXCADTTF1
 72
     5
 11
2097.0
 21
1556.296875
 31
0.0
100
AcDbText
  0
TEXT
  5
F1
330
1F
100
AcDbEntity
  8
図面枠
  6
CONTINUOUS
 62
     4
100
AcDbText
 10
1962.0
 20
1520.296875
 30
0.0
 40
20.77742494226328
  1
シリンダー外径
 41
0.9992307692307688
  7
EXCADTTF1
 72
     5
 11
2151.0
 21
1520.296875
 31
0.0
100
AcDbText
  0
TEXT
  5
F2
330
1F
100
AcDbEntity
  8
図面枠
  6
CONTINUOUS
 62
     4
100
AcDbText
 10
1962.0
 20
1412.296875
 30
0.0
 40
20.77742494226328
  1
受圧面積
 41
0.999230769230769
  7
EXCADTTF1
 72
     5
 11
2070.0
 21
1412.296875
 31
0.0
100
AcDbText
  0
TEXT
  5
F3
330
1F
100
AcDbEntity
  8
図面枠
  6
CONTINUOUS
 62
     4
100
AcDbText
 10
1962.0
 20
1376.296875
 30
0.0
 40
20.77742494226328
  1
最高使用圧力
 41
0.9992307692307689
  7
EXCADTTF1
 72
     5
 11
2124.0
 21
1376.296875
 31
0.0
100
AcDbText
  0
LINE
  5
F4
330
1F
100
AcDbEntity
  8
図面枠
  6
CONTINUOUS
 62
     2
100
AcDbLine
 10
1950.0
 20
1620.0
 30
0.0
 11
2430.0
 21
1620.0
 31
0.0
  0
LINE
  5
F5
330
1F
100
AcDbEntity
  8
図面枠
  6
CONTINUOUS
 62
     2
100
AcDbLine
 10
1950.0
 20
1584.0
 30
0.0
 11
2430.0
 21
1584.0
 31
0.0
  0
LINE
  5
F6
330
1F
100
AcDbEntity
  8
図面枠
  6
CONTINUOUS
 62
     2
100
AcDbLine
 10
1950.0
 20
1548.0
 30
0.0
 11
2430.0
 21
1548.0
 31
0.0
  0
LINE
  5
F7
330
1F
100
AcDbEntity
  8
図面枠
  6
CONTINUOUS
 62
     2
100
AcDbLine
 10
1950.0
 20
1512.0
 30
0.0
 11
2430.0
 21
1512.0
 31
0.0
  0
LINE
  5
F8
330
1F
100
AcDbEntity
  8
図面枠
  6
CONTINUOUS
 62
     2
100
AcDbLine
 10
1950.0
 20
1476.0
 30
0.0
 11
2430.0
 21
1476.0
 31
0.0
  0
LINE
  5
F9
330
1F
100
AcDbEntity
  8
図面枠
  6
CONTINUOUS
 62
     2
100
AcDbLine
 10
1950.0
 20
1440.0
 30
0.0
 11
2430.0
 21
1440.0
 31
0.0
  0
LINE
  5
FA
330
1F
100
AcDbEntity
  8
図面枠
  6
CONTINUOUS
 62
     2
100
AcDbLine
 10
1950.0
 20
1404.0
 30
0.0
 11
2430.0
 21
1404.0
 31
0.0
  0
TEXT
  5
FB
330
1F
100
AcDbEntity
  8
図面枠
  6
CONTINUOUS
 62
     4
100
AcDbText
 10
1962.0
 20
1484.296875
 30
0.0
 40
20.77742494226328
  1
ホール径
 41
0.999230769230769
  7
EXCADTTF1
 72
     5
 11
2070.0
 21
1484.296875
 31
0.0
100
AcDbText
  0
TEXT
  5
FC
330
1F
100
AcDbEntity
  8
図面枠
  6
CONTINUOUS
 62
     4
100
AcDbText
 10
1962.0
 20
1448.296875
 30
0.0
 40
20.77742494226328
  1
ヘッド径
 41
0.999230769230769
  7
EXCADTTF1
 72
     5
 11
2070.0
 21
1448.296875
 31
0.0
100
AcDbText
  0
TEXT
  5
FD
330
1F
100
AcDbEntity
  8
図面枠
  6
CONTINUOUS
 62
     4
100
AcDbText
 10
2257.5
 20
1592.296875
 30
0.0
 40
20.77742494226328
  1
300
 41
0.999230769230769
  7
EXCADTTF1
 72
     5
 11
2298.0
 21
1592.296875
 31
0.0
100
AcDbText
  0
TEXT
  5
FE
330
1F
100
AcDbEntity
  8
図面枠
  6
CONTINUOUS
 62
     4
100
AcDbText
 10
2257.5
 20
1556.296875
 30
0.0
 40
20.77742494226328
  1
630
 41
0.999230769230769
  7
EXCADTTF1
 72
     5
 11
2298.0
 21
1556.296875
 31
0.0
100
AcDbText
  0
TEXT
  5
FF
330
1F
100
AcDbEntity
  8
図面枠
  6
CONTINUOUS
 62
     4
100
AcDbText
 10
2257.5
 20
1520.296875
 30
0.0
 40
20.77742494226328
  1
425
 41
0.999230769230769
  7
EXCADTTF1
 72
     5
 11
2298.0
 21
1520.296875
 31
0.0
100
AcDbText
  0
TEXT
  5
100
330
1F
100
AcDbEntity
  8
図面枠
  6
CONTINUOUS
 62
     4
100
AcDbText
 10
2257.5
 20
1484.296875
 30
0.0
 40
20.77742494226328
  1
145
 41
0.999230769230769
  7
EXCADTTF1
 72
     5
 11
2298.0
 21
1484.296875
 31
0.0
100
AcDbText
  0
TEXT
  5
101
330
1F
100
AcDbEntity
  8
図面枠
  6
CONTINUOUS
 62
     4
100
AcDbText
 10
2257.5
 20
1448.296875
 30
0.0
 40
20.77742494226328
  1
290
 41
0.999230769230769
  7
EXCADTTF1
 72
     5
 11
2298.0
 21
1448.296875
 31
0.0
100
AcDbText
  0
TEXT
  5
102
330
1F
100
AcDbEntity
  8
図面枠
  6
CONTINUOUS
 62
     4
100
AcDbText
 10
2230.5
 20
1412.296875
 30
0.0
 40
20.77742494226328
  1
597.9
 41
0.9992307692307689
  7
EXCADTTF1
 72
     5
 11
2298.0
 21
1412.296875
 31
0.0
100
AcDbText
  0
TEXT
  5
103
330
1F
100
AcDbEntity
  8
図面枠
  6
CONTINUOUS
 62
     4
100
AcDbText
 10
2244.0
 20
1376.296875
 30
0.0
 40
20.77742494226328
  1
66.9
 41
0.999230769230769
  7
EXCADTTF1
 72
     5
 11
2298.0
 21
1376.296875
 31
0.0
100
AcDbText
  0
TEXT
  5
104
330
1F
100
AcDbEntity
  8
図面枠
  6
CONTINUOUS
 62
     4
100
AcDbText
 10
2322.0
 20
1304.296875
 30
0.0
 40
20.77742494226328
  1
kg
 41
0.999230769230769
  7
EXCADTTF1
 72
     5
 11
2349.0
 21
1304.296875
 31
0.0
100
AcDbText
  0
TEXT
  5
105
330
1F
100
AcDbEntity
  8
図面枠
  6
CONTINUOUS
 62
     4
100
AcDbText
 10
1962.0
 20
1340.296875
 30
0.0
 40
20.77742494226328
  1
所要油量
 41
0.999230769230769
  7
EXCADTTF1
 72
     5
 11
2070.0
 21
1340.296875
 31
0.0
100
AcDbText
  0
TEXT
  5
106
330
1F
100
AcDbEntity
  8
図面枠
  6
CONTINUOUS
 62
     4
100
AcDbText
 10
1962.0
 20
1304.296875
 30
0.0
 40
20.77742494226328
  1
重量
 41
0.999230769230769
  7
EXCADTTF1
 72
     5
 11
2016.0
 21
1304.296875
 31
0.0
100
AcDbText
  0
LINE
  5
107
330
1F
100
AcDbEntity
  8
図面枠
  6
CONTINUOUS
 62
     2
100
AcDbLine
 10
1950.0
 20
1368.0
 30
0.0
 11
2430.0
 21
1368.0
 31
0.0
  0
LINE
  5
108
330
1F
100
AcDbEntity
  8
図面枠
  6
CONTINUOUS
 62
     2
100
AcDbLine
 10
1950.0
 20
1332.0
 30
0.0
 11
2430.0
 21
1332.0
 31
0.0
  0
LINE
  5
109
330
1F
100
AcDbEntity
  8
図面枠
  6
CONTINUOUS
 62
     3
100
AcDbLine
 10
1950.0
 20
1296.0
 30
0.0
 11
2430.0
 21
1296.0
 31
0.0
  0
TEXT
  5
10A
330
1F
100
AcDbEntity
  8
図面枠
  6
CONTINUOUS
 62
     4
100
AcDbText
 10
2322.0
 20
1340.296875
 30
0.0
 40
20.77742494226328
  1
L
 41
0.999230769230769
  7
EXCADTTF1
 72
     5
 11
2335.5
 21
1340.296875
 31
0.0
100
AcDbText
  0
TEXT
  5
10B
330
1F
100
AcDbEntity
  8
図面枠
  6
CONTINUOUS
 62
     4
100
AcDbText
 10
2244.0
 20
1340.296875
 30
0.0
 40
20.77742494226328
  1
17.9
 41
0.999230769230769
  7
EXCADTTF1
 72
     5
 11
2298.0
 21
1340.296875
 31
0.0
100
AcDbText
  0
TEXT
  5
10C
330
1F
100
AcDbEntity
  8
図面枠
  6
CONTINUOUS
 62
     4
100
AcDbText
 10
2230.5
 20
1304.296875
 30
0.0
 40
20.77742494226328
  1
約550
 41
0.9992307692307689
  7
EXCADTTF1
 72
     5
 11
2298.0
 21
1304.296875
 31
0.0
100
AcDbText
  0
LINE
  5
10D
330
1F
100
AcDbEntity
  8
図面枠
  6
CONTINUOUS
 62
     3
100
AcDbLine
 10
1950.0
 20
1692.0
 30
0.0
 11
1950.0
 21
1296.0
 31
0.0
  0
LINE
  5
10E
330
1F
100
AcDbEntity
  8
図面枠
  6
CONTINUOUS
 62
     2
100
AcDbLine
 10
2190.0
 20
1656.0
 30
0.0
 11
2190.0
 21
1296.0
 31
0.0
  0
LINE
  5
10F
330
1F
100
AcDbEntity
  8
図面枠
  6
CONTINUOUS
 62
     2
100
AcDbLine
 10
2310.0
 20
1656.0
 30
0.0
 11
2310.0
 21
1296.0
 31
0.0
  0
LINE
  5
110
330
1F
100
AcDbEntity
  8
図面枠
  6
CONTINUOUS
 62
     3
100
AcDbLine
 10
2430.0
 20
1692.0
 30
0.0
 11
2430.0
 21
1296.0
 31
0.0
  0
TEXT
  5
111
330
1F
100
AcDbEntity
  8
図面枠
  6
CONTINUOUS
 62
     4
100
AcDbText
 10
2322.0
 20
1412.296875
 30
0.0
 40
20.77742494226328
  1
cm
 41
0.999230769230769
  7
EXCADTTF1
 72
     5
 11
2349.0
 21
1412.296875
 31
0.0
100
AcDbText
  0
TEXT
  5
112
330
1F
100
AcDbEntity
  8
図面枠
  6
CONTINUOUS
 62
     4
100
AcDbText
 10
2340.900000000001
 20
1425.05859388411
 30
0.0
 40
9.349840196579397
  1
2
 41
0.9992308790346205
  7
EXCADTTF1
 72
     5
 11
2346.975
 21
1425.05859388411
 31
0.0
100
AcDbText
  0
DIMENSION
  5
114
330
1F
100
AcDbEntity
  8
Ｓ_１_１
  6
CONTINUOUS
 62
     2
100
AcDbDimension
  2
*D15
 10
880.0
 20
944.9999849999995
 30
0.0
 11
863.5
 21
799.9999999999995
 31
0.0
 70
   160
  1
%%c290
  3
ISO-25
100
AcDbAlignedDimension
 13
973.999939
 23
655.0000149999998
 33
0.0
 14
973.999939
 24
944.9999849999994
 34
0.0
 50
90.0
100
AcDbRotatedDimension
1001
ACAD
1000
DSTYLE
1002
{
1070
   270
1070
     2
1070
     6
1000
EX_NORM
1070
     7
1000
EX_NORM
1070
    41
1040
18.0
1070
    42
1040
9.0
1070
    44
1040
6.0
1070
    73
1070
     0
1070
    74
1070
     0
1070
    75
1070
     0
1070
    76
1070
     0
1070
    77
1070
     1
1070
    78
1070
     8
1070
   140
1040
20.77742494226328
1070
   147
1040
0.0
1070
   173
1070
     1
1070
   176
1070
     2
1070
   177
1070
     2
1070
   178
1070
     2
1070
   271
1070
     2
1070
   277
1070
     2
1070
   279
1070
     2
1070
   280
1070
     0
1070
   287
1070
     5
1070
   340
1005
113
1002
}
  0
DIMENSION
  5
122
330
1F
100
AcDbEntity
  8
Ｓ_１_１
  6
CONTINUOUS
 62
     2
100
AcDbDimension
  2
*D16
 10
979.9999999999999
 20
479.9999999999999
 30
0.0
 11
1290.0
 21
496.4999999999999
 31
0.0
 70
   160
  3
ISO-25
100
AcDbAlignedDimension
 13
1600.0
 23
592.4998689997199
 33
0.0
 14
979.9999999999999
 24
592.5000889999999
 34
0.0
100
AcDbRotatedDimension
1001
ACAD
1000
DSTYLE
1002
{
1070
   270
1070
     2
1070
     6
1000
EX_NORM
1070
     7
1000
EX_NORM
1070
    41
1040
18.0
1070
    42
1040
0.0
1070
    44
1040
0.0
1070
    73
1070
     0
1070
    74
1070
     0
1070
    75
1070
     1
1070
    76
1070
     1
1070
    77
1070
     1
1070
    78
1070
     8
1070
   140
1040
20.77742494226328
1070
   147
1040
0.0
1070
   173
1070
     1
1070
   176
1070
     2
1070
   177
1070
     2
1070
   178
1070
     2
1070
   271
1070
     2
1070
   277
1070
     2
1070
   279
1070
     2
1070
   280
1070
     0
1070
   287
1070
     5
1070
   340
1005
113
1002
}
  0
DIMENSION
  5
12D
330
1F
100
AcDbEntity
  8
Ｓ_１_１
  6
CONTINUOUS
 62
     2
100
AcDbDimension
  2
*D17
 10
970.0
 20
479.9999999999999
 30
0.0
 11
938.5000000000001
 21
496.4999999999998
 31
0.0
 70
   160
  3
ISO-25
100
AcDbAlignedDimension
 13
979.9999999999999
 23
592.5000889999999
 33
0.0
 14
970.0
 24
657.30943018773
 34
0.0
100
AcDbRotatedDimension
1001
ACAD
1000
DSTYLE
1002
{
1070
   270
1070
     2
1070
     6
1000
EX_NORM
1070
     7
1000
EX_NORM
1070
    41
1040
18.0
1070
    42
1040
9.0
1070
    44
1040
6.0
1070
    73
1070
     0
1070
    74
1070
     0
1070
    75
1070
     0
1070
    76
1070
     1
1070
    77
1070
     1
1070
    78
1070
     8
1070
   140
1040
20.77742494226328
1070
   147
1040
0.0
1070
   173
1070
     1
1070
   176
1070
     2
1070
   177
1070
     2
1070
   178
1070
     2
1070
   271
1070
     2
1070
   277
1070
     2
1070
   279
1070
     2
1070
   280
1070
     2
1070
   287
1070
     5
1070
   340
1005
113
1002
}
  0
DIMENSION
  5
13B
330
1F
100
AcDbEntity
  8
Ｓ_１_１
  6
CONTINUOUS
 62
     2
100
AcDbDimension
  2
*D18
 10
1600.0
 20
439.9999999999999
 30
0.0
 11
1285.0
 21
456.4999999999999
 31
0.0
 70
   160
  3
ISO-25
100
AcDbAlignedDimension
 13
970.0
 23
657.30943018773
 33
0.0
 14
1600.0
 24
592.4998689997199
 34
0.0
100
AcDbRotatedDimension
1001
ACAD
1000
DSTYLE
1002
{
1070
   270
1070
     2
1070
     6
1000
EX_NORM
1070
     7
1000
EX_NORM
1070
    41
1040
18.0
1070
    42
1040
9.0
1070
    44
1040
6.0
1070
    73
1070
     0
1070
    74
1070
     0
1070
    75
1070
     0
1070
    76
1070
     0
1070
    77
1070
     1
1070
    78
1070
     8
1070
   140
1040
20.77742494226328
1070
   147
1040
0.0
1070
   173
1070
     1
1070
   176
1070
     2
1070
   177
1070
     2
1070
   178
1070
     2
1070
   271
1070
     2
1070
   277
1070
     2
1070
   279
1070
     2
1070
   280
1070
     0
1070
   287
1070
     5
1070
   340
1005
113
1002
}
  0
DIMENSION
  5
148
330
1F
100
AcDbEntity
  8
Ｓ_１_１
  6
CONTINUOUS
 62
     2
100
AcDbDimension
  2
*D19
 10
1680.0
 20
727.500008
 30
0.0
 11
1663.5
 21
799.9999999999999
 31
0.0
 70
   160
  1
%%c145
  3
ISO-25
100
AcDbAlignedDimension
 13
1600.0
 23
872.499992
 33
0.0
 14
1600.0
 24
727.500008
 34
0.0
 50
90.0
100
AcDbRotatedDimension
1001
ACAD
1000
DSTYLE
1002
{
1070
   270
1070
     2
1070
     6
1000
EX_NORM
1070
     7
1000
EX_NORM
1070
    41
1040
18.0
1070
    42
1040
9.0
1070
    44
1040
6.0
1070
    73
1070
     0
1070
    74
1070
     0
1070
    75
1070
     0
1070
    76
1070
     0
1070
    77
1070
     1
1070
    78
1070
     8
1070
   140
1040
20.77742494226328
1070
   147
1040
0.0
1070
   173
1070
     1
1070
   176
1070
     2
1070
   177
1070
     2
1070
   178
1070
     2
1070
   271
1070
     2
1070
   277
1070
     2
1070
   279
1070
     2
1070
   280
1070
     0
1070
   287
1070
     5
1070
   340
1005
113
1002
}
  0
DIMENSION
  5
155
330
1F
100
AcDbEntity
  8
Ｓ_１_１
  6
CONTINUOUS
 62
     2
100
AcDbDimension
  2
*D20
 10
1720.0
 20
1012.5
 30
0.0
 11
1703.5
 21
799.9999999999998
 31
0.0
 70
   160
  1
%%c425
  3
ISO-25
100
AcDbAlignedDimension
 13
1595.000015
 23
587.4999999999998
 33
0.0
 14
1595.000015
 24
1012.5
 34
0.0
 50
90.0
100
AcDbRotatedDimension
1001
ACAD
1000
DSTYLE
1002
{
1070
   270
1070
     2
1070
     6
1000
EX_NORM
1070
     7
1000
EX_NORM
1070
    41
1040
18.0
1070
    42
1040
9.0
1070
    44
1040
6.0
1070
    73
1070
     0
1070
    74
1070
     0
1070
    75
1070
     0
1070
    76
1070
     0
1070
    77
1070
     1
1070
    78
1070
     8
1070
   140
1040
20.77742494226328
1070
   147
1040
0.0
1070
   173
1070
     1
1070
   176
1070
     2
1070
   177
1070
     2
1070
   178
1070
     2
1070
   271
1070
     2
1070
   277
1070
     2
1070
   279
1070
     2
1070
   280
1070
     0
1070
   287
1070
     5
1070
   340
1005
113
1002
}
  0
DIMENSION
  5
162
330
1F
100
AcDbEntity
  8
Ｓ_１_１
  6
CONTINUOUS
 62
     2
100
AcDbDimension
  2
*D21
 10
788.5
 20
1200.0
 30
0.0
 11
470.0000000000001
 21
1216.5
 31
0.0
 70
   160
  3
ISO-25
100
AcDbAlignedDimension
 13
151.5
 23
814.9999999999999
 33
0.0
 14
788.5
 24
814.9999999999999
 34
0.0
100
AcDbRotatedDimension
1001
ACAD
1000
DSTYLE
1002
{
1070
   270
1070
     2
1070
     6
1000
EX_NORM
1070
     7
1000
EX_NORM
1070
    41
1040
18.0
1070
    42
1040
9.0
1070
    44
1040
6.0
1070
    73
1070
     0
1070
    74
1070
     0
1070
    75
1070
     0
1070
    76
1070
     0
1070
    77
1070
     1
1070
    78
1070
     8
1070
   140
1040
20.77742494226328
1070
   147
1040
0.0
1070
   173
1070
     1
1070
   176
1070
     2
1070
   177
1070
     2
1070
   178
1070
     2
1070
   271
1070
     2
1070
   277
1070
     2
1070
   279
1070
     2
1070
   280
1070
     0
1070
   287
1070
     5
1070
   340
1005
113
1002
}
  0
DIMENSION
  5
16F
330
1F
100
AcDbEntity
  8
Ｓ_１_１
  6
CONTINUOUS
 62
     2
100
AcDbDimension
  2
*D22
 10
372.5000000000009
 20
631.1250462620335
 30
0.0
 11
601.2661542731855
 21
1060.359648515334
 31
0.0
 70
   163
  1
P.C.D 390
  3
ISO-25
100
AcDbDiametricDimension
 15
567.4999999999991
 25
968.874953737966
 35
0.0
 40
0.0
1001
ACAD
1000
DSTYLE
1002
{
1070
   270
1070
     2
1070
     6
1000
EX_NORM
1070
     7
1000
EX_NORM
1070
    41
1040
18.0
1070
    73
1070
     0
1070
    74
1070
     0
1070
    77
1070
     1
1070
    78
1070
     8
1070
   140
1040
20.77742494226328
1070
   147
1040
0.0
1070
   173
1070
     1
1070
   176
1070
     2
1070
   177
1070
     2
1070
   178
1070
     2
1070
   271
1070
     2
1070
   277
1070
     2
1070
   279
1070
     2
1070
   280
1070
     0
1070
   287
1070
     5
1070
   340
1005
113
1002
}
  0
DIMENSION
  5
17A
330
1F
100
AcDbEntity
  8
Ｓ_１_１
  6
CONTINUOUS
 62
     2
100
AcDbDimension
  2
*D23
 10
361.7468314551488
 20
862.4999960000002
 30
0.0
 11
725.5930501496384
 21
652.4332836931069
 31
0.0
 70
   163
  1
P.C.D 250
  3
ISO-25
100
AcDbDiametricDimension
 15
578.2531685448512
 25
737.5000039999993
 35
0.0
 40
0.0
1001
ACAD
1000
DSTYLE
1002
{
1070
   270
1070
     2
1070
     6
1000
EX_NORM
1070
     7
1000
EX_NORM
1070
    41
1040
18.0
1070
    73
1070
     0
1070
    74
1070
     0
1070
    77
1070
     1
1070
    78
1070
     8
1070
   140
1040
20.77742494226328
1070
   147
1040
3.0
1070
   173
1070
     1
1070
   176
1070
     2
1070
   177
1070
     2
1070
   178
1070
     2
1070
   271
1070
     2
1070
   277
1070
     2
1070
   279
1070
     0
1070
   280
1070
     0
1070
   287
1070
     3
1070
   340
1005
113
1002
}
  0
DIMENSION
  5
186
330
1F
100
AcDbEntity
  8
Ｓ_１_１
  6
CONTINUOUS
 62
     2
100
AcDbDimension
  2
*D24
 10
420.0000000000009
 20
886.6025403784441
 30
0.0
 11
615.1482556368439
 21
548.5958466069837
 31
0.0
 70
   163
  1
P.C.D 200
  3
ISO-25
100
AcDbDiametricDimension
 15
519.9999999999991
 25
713.3974596215551
 35
0.0
 40
0.0
1001
ACAD
1000
DSTYLE
1002
{
1070
   270
1070
     2
1070
     6
1000
EX_NORM
1070
     7
1000
EX_NORM
1070
    41
1040
18.0
1070
    73
1070
     0
1070
    74
1070
     0
1070
    77
1070
     1
1070
    78
1070
     8
1070
   140
1040
20.77742494226328
1070
   147
1040
3.0
1070
   173
1070
     1
1070
   176
1070
     2
1070
   177
1070
     2
1070
   178
1070
     2
1070
   271
1070
     2
1070
   277
1070
     2
1070
   279
1070
     0
1070
   280
1070
     0
1070
   287
1070
     3
1070
   340
1005
113
1002
}
  0
TEXT
  5
192
330
1F
100
AcDbEntity
  8
Ｓ_１_１
  6
CONTINUOUS
 62
     4
100
AcDbText
 10
555.5999999999998
 20
440.89870877546
 30
0.0
 40
20.77742494226328
  1
2×8-M12ネジ深20
 41
0.9992307692307688
  7
EXCADTTF1
 72
     5
 11
771.5999999999998
 21
440.89870877546
 31
0.0
100
AcDbText
  0
LEADER
  5
193
330
1F
100
AcDbEntity
  8
Ｓ_１_１
  6
CONTINUOUS
 62
     2
100
AcDbLeader
  3
ISO-25
 76
     3
 10
473.1098075397099
 20
669.86881933986
 30
0.0
 10
536.2833809236099
 20
434.10183377546
 30
0.0
 10
771.5999999999998
 20
434.10183377546
 30
0.0
1001
ACAD
1000
DSTYLE
1002
{
1070
     5
1000
EX_NORM
1070
    41
1040
18.0
1070
   341
1005
78
1002
}
  0
TEXT
  5
194
330
1F
100
AcDbEntity
  8
Ｓ_１_１
  6
CONTINUOUS
 62
     4
100
AcDbText
 10
638.7365334794599
 20
1253.836643738
 30
0.0
 40
20.77742494226328
  1
8-M16ネジ深24
 41
0.999230769230769
  7
EXCADTTF1
 72
     5
 11
814.2365334794599
 21
1253.836643738
 31
0.0
100
AcDbText
  0
LEADER
  5
195
330
1F
100
AcDbEntity
  8
Ｓ_１_１
  6
CONTINUOUS
 62
     2
100
AcDbLeader
  3
ISO-25
 76
     3
 10
475.6570840334795
 20
1000.656990462225
 30
0.0
 10
617.9062473946603
 20
1247.039768738
 30
0.0
 10
814.2365334794599
 20
1247.039768738
 30
0.0
1001
ACAD
1000
DSTYLE
1002
{
1070
     5
1000
EX_NORM
1070
    41
1040
18.0
1070
   341
1005
78
1002
}
  0
DIMENSION
  5
196
330
1F
100
AcDbEntity
  8
Ｓ_１_１
  6
CONTINUOUS
 62
     2
100
AcDbDimension
  2
*D25
 10
1967.416710498402
 20
735.0000075000032
 30
0.0
 11
2332.546633925966
 21
945.8078670800791
 31
0.0
 70
   163
  1
P.C.D 260
  3
ISO-25
100
AcDbDiametricDimension
 15
2192.583289501598
 25
864.9999924999961
 35
0.0
 40
0.0
1001
ACAD
1000
DSTYLE
1002
{
1070
   270
1070
     2
1070
     6
1000
EX_NORM
1070
     7
1000
EX_NORM
1070
    41
1040
18.0
1070
    73
1070
     0
1070
    74
1070
     0
1070
    77
1070
     1
1070
    78
1070
     8
1070
   140
1040
20.77742494226328
1070
   147
1040
3.0
1070
   173
1070
     1
1070
   176
1070
     2
1070
   177
1070
     2
1070
   178
1070
     2
1070
   271
1070
     2
1070
   277
1070
     2
1070
   279
1070
     0
1070
   280
1070
     0
1070
   287
1070
     3
1070
   340
1005
113
1002
}
  0
TEXT
  5
1A2
330
1F
100
AcDbEntity
  8
Ｓ_１_１
  6
CONTINUOUS
 62
     4
100
AcDbText
 10
2193.3
 20
1092.8754810574
 30
0.0
 40
20.77742494226328
  1
8-M20ネジ深30
 41
0.999230769230769
  7
EXCADTTF1
 72
     5
 11
2368.8
 21
1092.8754810574
 31
0.0
100
AcDbText
  0
LEADER
  5
1A3
330
1F
100
AcDbEntity
  8
Ｓ_１_１
  6
CONTINUOUS
 62
     2
100
AcDbLeader
  3
ISO-25
 76
     3
 10
2087.7795774788
 20
936.2834514497799
 30
0.0
 10
2174.2638503148
 20
1086.0786060574
 30
0.0
 10
2368.8
 20
1086.0786060574
 30
0.0
1001
ACAD
1000
DSTYLE
1002
{
1070
     5
1000
EX_NORM
1070
    41
1040
18.0
1070
   341
1005
78
1002
}
  0
CIRCLE
  5
1A4
330
1F
100
AcDbEntity
  8
Ｓ_１_１
  6
EXLTYPE2
 62
     1
100
AcDbCircle
 10
470.0
 20
799.9999999999998
 30
0.0
 40
195.0000000000001
  0
CIRCLE
  5
1A5
330
1F
100
AcDbEntity
  8
Ｓ_１_１
  6
EXLTYPE2
 62
     1
100
AcDbCircle
 10
470.0
 20
799.9999999999998
 30
0.0
 40
124.999992
  0
CIRCLE
  5
1A6
330
1F
100
AcDbEntity
  8
Ｓ_１_１
  6
EXLTYPE2
 62
     1
100
AcDbCircle
 10
470.0
 20
799.9999999999998
 30
0.0
 40
100.0000000000001
  0
CIRCLE
  5
1A7
330
1F
100
AcDbEntity
  8
Ｓ_１_１
  6
EXLTYPE2
 62
     1
100
AcDbCircle
 10
470.0
 20
799.9999999999998
 30
0.0
 40
165.0
  0
LINE
  5
1A8
330
1F
100
AcDbEntity
  8
Ｓ_１_１
  6
EXLTYPE2
 62
     1
100
AcDbLine
 10
314.4364089999999
 20
955.5634779999997
 30
0.0
 11
349.791706
 21
920.2081829999997
 31
0.0
  0
LINE
  5
1A9
330
1F
100
AcDbEntity
  8
Ｓ_１_１
  6
EXLTYPE2
 62
     1
100
AcDbLine
 10
590.2078929999998
 20
679.7914989999997
 30
0.0
 11
625.5632329999999
 21
644.4361619999997
 31
0.0
  0
LINE
  5
1AA
330
1F
100
AcDbEntity
  8
Ｓ_１_１
  6
EXLTYPE2
 62
     1
100
AcDbLine
 10
314.43615
 20
644.4367809999997
 30
0.0
 11
349.791534
 21
679.7921619999997
 31
0.0
  0
LINE
  5
1AB
330
1F
100
AcDbEntity
  8
Ｓ_１_１
  6
EXLTYPE2
 62
     1
100
AcDbLine
 10
590.2082380000002
 20
920.2081549999998
 30
0.0
 11
625.5635789999997
 21
955.5634929999999
 31
0.0
  0
LINE
  5
1AC
330
1F
100
AcDbEntity
  8
Ｓ_１_１
  6
EXLTYPE2
 62
     1
100
AcDbLine
 10
355.6788150000002
 20
998.0096939999996
 30
0.0
 11
380.5153609999998
 21
954.9915299999997
 31
0.0
  0
LINE
  5
1AD
330
1F
100
AcDbEntity
  8
Ｓ_１_１
  6
EXLTYPE2
 62
     1
100
AcDbLine
 10
738.5
 20
819.9999979999998
 30
0.0
 11
738.5
 21
780.0000019999997
 31
0.0
  0
LINE
  5
1AE
330
1F
100
AcDbEntity
  8
Ｓ_１_１
  6
EXLTYPE2
 62
     1
100
AcDbLine
 10
201.5
 20
819.9999979999998
 30
0.0
 11
201.5
 21
780.0000019999997
 31
0.0
  0
LINE
  5
1AF
330
1F
100
AcDbEntity
  8
Ｓ_１_１
  6
EXLTYPE2
 62
     1
100
AcDbLine
 10
229.6701659999999
 20
754.9999999999998
 30
0.0
 11
301.5
 21
754.9999999999998
 31
0.0
  0
LINE
  5
1B0
330
1F
100
AcDbEntity
  8
Ｓ_１_１
  6
EXLTYPE2
 62
     1
100
AcDbLine
 10
226.1701659999999
 20
844.9999999999998
 30
0.0
 11
301.5
 21
844.9999999999998
 31
0.0
  0
LINE
  5
1B1
330
1F
100
AcDbEntity
  8
Ｓ_１_１
  6
EXLTYPE2
 62
     1
100
AcDbLine
 10
638.5
 20
754.9999999999998
 30
0.0
 11
710.2604369999999
 21
754.9999999999998
 31
0.0
  0
LINE
  5
1B2
330
1F
100
AcDbEntity
  8
Ｓ_１_１
  6
EXLTYPE2
 62
     1
100
AcDbLine
 10
638.5
 20
844.9999999999998
 30
0.0
 11
709.7004390000002
 21
844.9999999999998
 31
0.0
  0
LINE
  5
1B3
330
1F
100
AcDbEntity
  8
Ｓ_１_１
  6
EXLTYPE2
 62
     1
100
AcDbLine
 10
549.5493809999998
 20
720.4502669999997
 30
0.0
 11
567.2270509999998
 21
702.7725979999998
 31
0.0
  0
LINE
  5
1B4
330
1F
100
AcDbEntity
  8
Ｓ_１_１
  6
EXLTYPE2
 62
     1
100
AcDbLine
 10
531.8716669999999
 20
738.1279789999999
 30
0.0
 11
549.5493369999999
 21
720.4503099999997
 31
0.0
  0
LINE
  5
1B5
330
1F
100
AcDbEntity
  8
Ｓ_１_１
  6
EXLTYPE2
 62
     1
100
AcDbLine
 10
390.4504340000003
 20
879.5494589999998
 30
0.0
 11
408.1281049999997
 21
861.8717899999997
 31
0.0
  0
LINE
  5
1B6
330
1F
100
AcDbEntity
  8
Ｓ_１_１
  6
EXLTYPE2
 62
     1
100
AcDbLine
 10
372.7727640000003
 20
897.2271269999999
 30
0.0
 11
390.4504340000003
 21
879.5494589999998
 31
0.0
  0
LINE
  5
1B7
330
1F
100
AcDbEntity
  8
Ｓ_１_１
  6
EXLTYPE2
 62
     1
100
AcDbLine
 10
372.7726350000003
 20
702.7730019999997
 30
0.0
 11
390.4503050000003
 21
720.4506709999998
 31
0.0
  0
LINE
  5
1B8
330
1F
100
AcDbEntity
  8
Ｓ_１_１
  6
EXLTYPE2
 62
     1
100
AcDbLine
 10
390.4503050000003
 20
720.4506709999998
 30
0.0
 11
408.1279750000003
 21
738.1283399999998
 31
0.0
  0
LINE
  5
1B9
330
1F
100
AcDbEntity
  8
Ｓ_１_１
  6
EXLTYPE2
 62
     1
100
AcDbLine
 10
531.8717099999999
 20
861.8718049999998
 30
0.0
 11
549.5493809999998
 21
879.5494739999997
 31
0.0
  0
LINE
  5
1BA
330
1F
100
AcDbEntity
  8
Ｓ_１_１
  6
EXLTYPE2
 62
     1
100
AcDbLine
 10
549.5494669999998
 20
879.5495599999996
 30
0.0
 11
567.2271369999999
 21
897.2272289999999
 31
0.0
  0
LINE
  5
1BB
330
1F
100
AcDbEntity
  8
Ｓ_１_１
  6
EXLTYPE2
 62
     1
100
AcDbLine
 10
137.8701169999999
 20
799.9999999999998
 30
0.0
 11
803.7803960000001
 21
799.9999999999998
 31
0.0
  0
LINE
  5
1BC
330
1F
100
AcDbEntity
  8
Ｓ_１_１
  6
EXLTYPE0
 62
     2
100
AcDbLine
 10
713.5
 20
814.9999999999998
 30
0.0
 11
713.5
 21
784.9999999999998
 31
0.0
  0
LINE
  5
1BD
330
1F
100
AcDbEntity
  8
Ｓ_１_１
  6
EXLTYPE0
 62
     2
100
AcDbLine
 10
763.5
 20
814.9999999999998
 30
0.0
 11
763.5
 21
784.9999999999998
 31
0.0
  0
LINE
  5
1BE
330
1F
100
AcDbEntity
  8
Ｓ_１_１
  6
EXLTYPE0
 62
     2
100
AcDbLine
 10
405.5795900000003
 20
597.4999999999998
 30
0.0
 11
534.4205320000001
 21
597.4999999999998
 31
0.0
  0
LINE
  5
1BF
330
1F
100
AcDbEntity
  8
Ｓ_１_１
  6
EXLTYPE0
 62
     2
100
AcDbLine
 10
672.5
 20
859.9999999999998
 30
0.0
 11
672.5
 21
739.9999999999998
 31
0.0
  0
LINE
  5
1C0
330
1F
100
AcDbEntity
  8
Ｓ_１_１
  6
EXLTYPE0
 62
     2
100
AcDbLine
 10
267.5
 20
859.9999999999998
 30
0.0
 11
267.5
 21
739.9999999999998
 31
0.0
  0
LINE
  5
1C1
330
1F
100
AcDbEntity
  8
Ｓ_１_１
  6
EXLTYPE0
 62
     2
100
AcDbLine
 10
176.5
 20
814.9999999999998
 30
0.0
 11
176.5
 21
784.9999999999998
 31
0.0
  0
LINE
  5
1C2
330
1F
100
AcDbEntity
  8
Ｓ_１_１
  6
EXLTYPE0
 62
     2
100
AcDbLine
 10
226.5
 20
814.9999999999998
 30
0.0
 11
226.5
 21
784.9999999999998
 31
0.0
  0
ARC
  5
1C3
330
1F
100
AcDbEntity
  8
Ｓ_１_１
  6
CONTINUOUS
 62
     3
100
AcDbCircle
 10
458.3087159999999
 20
1027.400711
 30
0.0
 40
6.900722000000004
100
AcDbArc
 50
235.6157530000001
 51
304.3842490000003
  0
ARC
  5
1C4
330
1F
100
AcDbEntity
  8
Ｓ_１_１
  6
CONTINUOUS
 62
     3
100
AcDbCircle
 10
470.0
 20
1046.29422
 30
0.0
 40
25.79423
100
AcDbArc
 50
252.4120490000002
 51
287.5879530000003
  0
ARC
  5
1C5
330
1F
100
AcDbEntity
  8
Ｓ_１_１
  6
CONTINUOUS
 62
     3
100
AcDbCircle
 10
481.6914059999999
 20
1027.400711
 30
0.0
 40
6.900722000000004
100
AcDbArc
 50
235.6157530000001
 51
304.3842490000003
  0
ARC
  5
1C6
330
1F
100
AcDbEntity
  8
Ｓ_１_１
  6
CONTINUOUS
 62
     3
100
AcDbCircle
 10
481.6914059999999
 20
1023.599274
 30
0.0
 40
6.900722000000004
100
AcDbArc
 50
55.615751
 51
124.384247
  0
ARC
  5
1C7
330
1F
100
AcDbEntity
  8
Ｓ_１_１
  6
CONTINUOUS
 62
     3
100
AcDbCircle
 10
470.0
 20
1004.705765
 30
0.0
 40
25.79423
100
AcDbArc
 50
72.41204699999997
 51
107.587951
  0
ARC
  5
1C8
330
1F
100
AcDbEntity
  8
Ｓ_１_１
  6
CONTINUOUS
 62
     3
100
AcDbCircle
 10
458.3087159999999
 20
1023.599274
 30
0.0
 40
6.900722000000004
100
AcDbArc
 50
55.615751
 51
124.384247
  0
CIRCLE
  5
1C9
330
1F
100
AcDbEntity
  8
Ｓ_１_１
  6
CONTINUOUS
 62
     3
100
AcDbCircle
 10
470.0003660000002
 20
994.9999999999998
 30
0.0
 40
6.500000000000004
  0
CIRCLE
  5
1CA
330
1F
100
AcDbEntity
  8
Ｓ_１_１
  6
CONTINUOUS
 62
     3
100
AcDbCircle
 10
332.1140139999998
 20
662.1142879999998
 30
0.0
 40
8.0
  0
CIRCLE
  5
1CB
330
1F
100
AcDbEntity
  8
Ｓ_１_１
  6
CONTINUOUS
 62
     3
100
AcDbCircle
 10
469.9997560000002
 20
604.9999999999998
 30
0.0
 40
8.0
  0
CIRCLE
  5
1CC
330
1F
100
AcDbEntity
  8
Ｓ_１_１
  6
CONTINUOUS
 62
     3
100
AcDbCircle
 10
607.88562
 20
662.1140439999997
 30
0.0
 40
8.0
  0
CIRCLE
  5
1CD
330
1F
100
AcDbEntity
  8
Ｓ_１_１
  6
CONTINUOUS
 62
     3
100
AcDbCircle
 10
665.0
 20
799.9997549999998
 30
0.0
 40
8.0
  0
CIRCLE
  5
1CE
330
1F
100
AcDbEntity
  8
Ｓ_１_１
  6
CONTINUOUS
 62
     3
100
AcDbCircle
 10
607.8859860000002
 20
937.8856199999998
 30
0.0
 40
8.0
  0
CIRCLE
  5
1CF
330
1F
100
AcDbEntity
  8
Ｓ_１_１
  6
CONTINUOUS
 62
     3
100
AcDbCircle
 10
470.0003660000002
 20
994.9999999999998
 30
0.0
 40
8.0
  0
CIRCLE
  5
1D0
330
1F
100
AcDbEntity
  8
Ｓ_１_１
  6
CONTINUOUS
 62
     3
100
AcDbCircle
 10
332.1142580000001
 20
937.8858799999998
 30
0.0
 40
8.0
  0
CIRCLE
  5
1D1
330
1F
100
AcDbEntity
  8
Ｓ_１_１
  6
CONTINUOUS
 62
     3
100
AcDbCircle
 10
275.0
 20
800.0001219999996
 30
0.0
 40
8.0
  0
CIRCLE
  5
1D2
330
1F
100
AcDbEntity
  8
Ｓ_１_１
  6
CONTINUOUS
 62
     3
100
AcDbCircle
 10
275.0
 20
800.0001219999996
 30
0.0
 40
6.500000000000004
  0
CIRCLE
  5
1D3
330
1F
100
AcDbEntity
  8
Ｓ_１_１
  6
CONTINUOUS
 62
     3
100
AcDbCircle
 10
332.1140139999998
 20
662.1142879999998
 30
0.0
 40
6.500000000000004
  0
CIRCLE
  5
1D4
330
1F
100
AcDbEntity
  8
Ｓ_１_１
  6
CONTINUOUS
 62
     3
100
AcDbCircle
 10
469.9997560000002
 20
604.9999999999998
 30
0.0
 40
6.500000000000004
  0
CIRCLE
  5
1D5
330
1F
100
AcDbEntity
  8
Ｓ_１_１
  6
CONTINUOUS
 62
     3
100
AcDbCircle
 10
665.0
 20
799.9997549999998
 30
0.0
 40
6.500000000000004
  0
CIRCLE
  5
1D6
330
1F
100
AcDbEntity
  8
Ｓ_１_１
  6
CONTINUOUS
 62
     3
100
AcDbCircle
 10
607.88562
 20
662.1140439999997
 30
0.0
 40
6.500000000000004
  0
CIRCLE
  5
1D7
330
1F
100
AcDbEntity
  8
Ｓ_１_１
  6
CONTINUOUS
 62
     3
100
AcDbCircle
 10
607.8859860000002
 20
937.8856199999998
 30
0.0
 40
6.500000000000004
  0
CIRCLE
  5
1D8
330
1F
100
AcDbEntity
  8
Ｓ_１_１
  6
CONTINUOUS
 62
     3
100
AcDbCircle
 10
332.1142580000001
 20
937.8858799999998
 30
0.0
 40
6.500000000000004
  0
CIRCLE
  5
1D9
330
1F
100
AcDbEntity
  8
Ｓ_１_１
  6
CONTINUOUS
 62
     3
100
AcDbCircle
 10
399.289307
 20
870.7107089999996
 30
0.0
 40
6.000000000000004
  0
CIRCLE
  5
1DA
330
1F
100
AcDbEntity
  8
Ｓ_１_１
  6
CONTINUOUS
 62
     3
100
AcDbCircle
 10
381.6116940000002
 20
888.3883439999997
 30
0.0
 40
6.000000000000004
  0
CIRCLE
  5
1DB
330
1F
100
AcDbEntity
  8
Ｓ_１_１
  6
CONTINUOUS
 62
     3
100
AcDbCircle
 10
370.0
 20
800.0000629999997
 30
0.0
 40
6.000000000000004
  0
CIRCLE
  5
1DC
330
1F
100
AcDbEntity
  8
Ｓ_１_１
  6
CONTINUOUS
 62
     3
100
AcDbCircle
 10
345.0
 20
800.0000189999998
 30
0.0
 40
6.000000000000004
  0
CIRCLE
  5
1DD
330
1F
100
AcDbEntity
  8
Ｓ_１_１
  6
CONTINUOUS
 62
     3
100
AcDbCircle
 10
305.0
 20
800.0000249999998
 30
0.0
 40
6.000000000000004
  0
CIRCLE
  5
1DE
330
1F
100
AcDbEntity
  8
Ｓ_１_１
  6
CONTINUOUS
 62
     3
100
AcDbCircle
 10
381.6116940000002
 20
711.6116789999999
 30
0.0
 40
6.000000000000004
  0
CIRCLE
  5
1DF
330
1F
100
AcDbEntity
  8
Ｓ_１_１
  6
CONTINUOUS
 62
     3
100
AcDbCircle
 10
399.289307
 20
729.2893749999998
 30
0.0
 40
6.000000000000004
  0
CIRCLE
  5
1E0
330
1F
100
AcDbEntity
  8
Ｓ_１_１
  6
CONTINUOUS
 62
     3
100
AcDbCircle
 10
470.0
 20
634.9999999999998
 30
0.0
 40
6.000000000000004
  0
CIRCLE
  5
1E1
330
1F
100
AcDbEntity
  8
Ｓ_１_１
  6
CONTINUOUS
 62
     3
100
AcDbCircle
 10
470.0
 20
675.0000079999998
 30
0.0
 40
6.000000000000004
  0
CIRCLE
  5
1E2
330
1F
100
AcDbEntity
  8
Ｓ_１_１
  6
CONTINUOUS
 62
     3
100
AcDbCircle
 10
469.999878
 20
699.9999999999998
 30
0.0
 40
6.000000000000004
  0
CIRCLE
  5
1E3
330
1F
100
AcDbEntity
  8
Ｓ_１_１
  6
CONTINUOUS
 62
     3
100
AcDbCircle
 10
558.3883059999998
 20
711.6115949999999
 30
0.0
 40
6.000000000000004
  0
CIRCLE
  5
1E4
330
1F
100
AcDbEntity
  8
Ｓ_１_１
  6
CONTINUOUS
 62
     3
100
AcDbCircle
 10
540.7105710000001
 20
729.2892529999997
 30
0.0
 40
6.000000000000004
  0
CIRCLE
  5
1E5
330
1F
100
AcDbEntity
  8
Ｓ_１_１
  6
CONTINUOUS
 62
     3
100
AcDbCircle
 10
635.0
 20
800.0000289999998
 30
0.0
 40
6.000000000000004
  0
CIRCLE
  5
1E6
330
1F
100
AcDbEntity
  8
Ｓ_１_１
  6
CONTINUOUS
 62
     3
100
AcDbCircle
 10
570.0001219999999
 20
799.9998739999999
 30
0.0
 40
6.000000000000004
  0
CIRCLE
  5
1E7
330
1F
100
AcDbEntity
  8
Ｓ_１_１
  6
CONTINUOUS
 62
     3
100
AcDbCircle
 10
595.0001219999999
 20
799.9999029999997
 30
0.0
 40
6.000000000000004
  0
CIRCLE
  5
1E8
330
1F
100
AcDbEntity
  8
Ｓ_１_１
  6
CONTINUOUS
 62
     3
100
AcDbCircle
 10
540.710693
 20
870.7105789999998
 30
0.0
 40
6.000000000000004
  0
CIRCLE
  5
1E9
330
1F
100
AcDbEntity
  8
Ｓ_１_１
  6
CONTINUOUS
 62
     3
100
AcDbCircle
 10
558.3883059999998
 20
888.3883439999997
 30
0.0
 40
6.000000000000004
  0
CIRCLE
  5
1EA
330
1F
100
AcDbEntity
  8
Ｓ_１_１
  6
CONTINUOUS
 62
     3
100
AcDbCircle
 10
470.0001219999999
 20
899.9999999999997
 30
0.0
 40
6.000000000000004
  0
CIRCLE
  5
1EB
330
1F
100
AcDbEntity
  8
Ｓ_１_１
  6
CONTINUOUS
 62
     3
100
AcDbCircle
 10
470.0
 20
924.9999919999998
 30
0.0
 40
6.000000000000004
  0
CIRCLE
  5
1EC
330
1F
100
AcDbEntity
  8
Ｓ_１_１
  6
CONTINUOUS
 62
     3
100
AcDbCircle
 10
470.0
 20
964.9999999999998
 30
0.0
 40
6.000000000000004
  0
CIRCLE
  5
1ED
330
1F
100
AcDbEntity
  8
Ｓ_１_１
  6
CONTINUOUS
 62
     3
100
AcDbCircle
 10
470.0001219999999
 20
899.9999999999997
 30
0.0
 40
5.0
  0
CIRCLE
  5
1EE
330
1F
100
AcDbEntity
  8
Ｓ_１_１
  6
CONTINUOUS
 62
     3
100
AcDbCircle
 10
399.289307
 20
870.7107089999996
 30
0.0
 40
5.0
  0
CIRCLE
  5
1EF
330
1F
100
AcDbEntity
  8
Ｓ_１_１
  6
CONTINUOUS
 62
     3
100
AcDbCircle
 10
381.6116940000002
 20
888.3883439999997
 30
0.0
 40
5.0
  0
CIRCLE
  5
1F0
330
1F
100
AcDbEntity
  8
Ｓ_１_１
  6
CONTINUOUS
 62
     3
100
AcDbCircle
 10
370.0
 20
800.0000629999997
 30
0.0
 40
5.0
  0
CIRCLE
  5
1F1
330
1F
100
AcDbEntity
  8
Ｓ_１_１
  6
CONTINUOUS
 62
     3
100
AcDbCircle
 10
345.0
 20
800.0000189999998
 30
0.0
 40
5.0
  0
CIRCLE
  5
1F2
330
1F
100
AcDbEntity
  8
Ｓ_１_１
  6
CONTINUOUS
 62
     3
100
AcDbCircle
 10
381.6116940000002
 20
711.6116789999999
 30
0.0
 40
5.0
  0
CIRCLE
  5
1F3
330
1F
100
AcDbEntity
  8
Ｓ_１_１
  6
CONTINUOUS
 62
     3
100
AcDbCircle
 10
399.289307
 20
729.2893749999998
 30
0.0
 40
5.0
  0
CIRCLE
  5
1F4
330
1F
100
AcDbEntity
  8
Ｓ_１_１
  6
CONTINUOUS
 62
     3
100
AcDbCircle
 10
469.999878
 20
699.9999999999998
 30
0.0
 40
5.0
  0
CIRCLE
  5
1F5
330
1F
100
AcDbEntity
  8
Ｓ_１_１
  6
CONTINUOUS
 62
     3
100
AcDbCircle
 10
470.0
 20
675.0000079999998
 30
0.0
 40
5.0
  0
CIRCLE
  5
1F6
330
1F
100
AcDbEntity
  8
Ｓ_１_１
  6
CONTINUOUS
 62
     3
100
AcDbCircle
 10
558.3883059999998
 20
711.6115949999999
 30
0.0
 40
5.0
  0
CIRCLE
  5
1F7
330
1F
100
AcDbEntity
  8
Ｓ_１_１
  6
CONTINUOUS
 62
     3
100
AcDbCircle
 10
540.7105710000001
 20
729.2892529999997
 30
0.0
 40
5.0
  0
CIRCLE
  5
1F8
330
1F
100
AcDbEntity
  8
Ｓ_１_１
  6
CONTINUOUS
 62
     3
100
AcDbCircle
 10
570.0001219999999
 20
799.9998739999999
 30
0.0
 40
5.0
  0
CIRCLE
  5
1F9
330
1F
100
AcDbEntity
  8
Ｓ_１_１
  6
CONTINUOUS
 62
     3
100
AcDbCircle
 10
595.0001219999999
 20
799.9999029999997
 30
0.0
 40
5.0
  0
CIRCLE
  5
1FA
330
1F
100
AcDbEntity
  8
Ｓ_１_１
  6
CONTINUOUS
 62
     3
100
AcDbCircle
 10
540.710693
 20
870.7105789999998
 30
0.0
 40
5.0
  0
CIRCLE
  5
1FB
330
1F
100
AcDbEntity
  8
Ｓ_１_１
  6
CONTINUOUS
 62
     3
100
AcDbCircle
 10
558.3883059999998
 20
888.3883439999997
 30
0.0
 40
5.0
  0
CIRCLE
  5
1FC
330
1F
100
AcDbEntity
  8
Ｓ_１_１
  6
CONTINUOUS
 62
     3
100
AcDbCircle
 10
470.0
 20
924.9999919999998
 30
0.0
 40
5.0
  0
CIRCLE
  5
1FD
330
1F
100
AcDbEntity
  8
Ｓ_１_１
  6
CONTINUOUS
 62
     3
100
AcDbCircle
 10
305.0
 20
800.0000249999998
 30
0.0
 40
5.0
  0
CIRCLE
  5
1FE
330
1F
100
AcDbEntity
  8
Ｓ_１_１
  6
CONTINUOUS
 62
     3
100
AcDbCircle
 10
470.0
 20
634.9999999999998
 30
0.0
 40
5.0
  0
CIRCLE
  5
1FF
330
1F
100
AcDbEntity
  8
Ｓ_１_１
  6
CONTINUOUS
 62
     3
100
AcDbCircle
 10
635.0
 20
800.0000289999998
 30
0.0
 40
5.0
  0
CIRCLE
  5
200
330
1F
100
AcDbEntity
  8
Ｓ_１_１
  6
CONTINUOUS
 62
     3
100
AcDbCircle
 10
470.0
 20
964.9999999999998
 30
0.0
 40
5.0
  0
CIRCLE
  5
201
330
1F
100
AcDbEntity
  8
Ｓ_１_１
  6
CONTINUOUS
 62
     3
100
AcDbCircle
 10
470.0
 20
799.9999999999998
 30
0.0
 40
75.999992
  0
CIRCLE
  5
202
330
1F
100
AcDbEntity
  8
Ｓ_１_１
  6
CONTINUOUS
 62
     3
100
AcDbCircle
 10
470.0
 20
799.9999999999998
 30
0.0
 40
72.499992
  0
CIRCLE
  5
203
330
1F
100
AcDbEntity
  8
Ｓ_１_１
  6
CONTINUOUS
 62
     3
100
AcDbCircle
 10
470.0
 20
799.9999999999998
 30
0.0
 40
139.999985
  0
CIRCLE
  5
204
330
1F
100
AcDbEntity
  8
Ｓ_１_１
  6
CONTINUOUS
 62
     3
100
AcDbCircle
 10
470.0
 20
799.9999999999998
 30
0.0
 40
144.999985
  0
CIRCLE
  5
205
330
1F
100
AcDbEntity
  8
Ｓ_１_１
  6
CONTINUOUS
 62
     3
100
AcDbCircle
 10
470.0
 20
799.9999999999998
 30
0.0
 40
175.0
  0
CIRCLE
  5
206
330
1F
100
AcDbEntity
  8
Ｓ_１_１
  6
CONTINUOUS
 62
     3
100
AcDbCircle
 10
470.0
 20
799.9999999999998
 30
0.0
 40
177.5
  0
CIRCLE
  5
207
330
1F
100
AcDbEntity
  8
Ｓ_１_１
  6
CONTINUOUS
 62
     3
100
AcDbCircle
 10
470.0
 20
799.9999999999998
 30
0.0
 40
207.5000000000001
  0
CIRCLE
  5
208
330
1F
100
AcDbEntity
  8
Ｓ_１_１
  6
CONTINUOUS
 62
     3
100
AcDbCircle
 10
470.0
 20
799.9999999999998
 30
0.0
 40
212.5000000000001
  0
LINE
  5
209
330
1F
100
AcDbEntity
  8
Ｓ_１_１
  6
CONTINUOUS
 62
     3
100
AcDbLine
 10
456.5000620000001
 20
1020.499994
 30
0.0
 11
454.411537
 21
1021.705804
 31
0.0
  0
LINE
  5
20A
330
1F
100
AcDbEntity
  8
Ｓ_１_１
  6
CONTINUOUS
 62
     3
100
AcDbLine
 10
483.5000239999999
 20
1020.499954
 30
0.0
 11
485.5884960000002
 21
1021.705734
 31
0.0
  0
LINE
  5
20B
330
1F
100
AcDbEntity
  8
Ｓ_１_１
  6
CONTINUOUS
 62
     3
100
AcDbLine
 10
456.5
 20
1030.5
 30
0.0
 11
483.5
 21
1030.5
 31
0.0
  0
LINE
  5
20C
330
1F
100
AcDbEntity
  8
Ｓ_１_１
  6
CONTINUOUS
 62
     3
100
AcDbLine
 10
483.5000629999999
 20
1030.499986
 30
0.0
 11
485.5884820000001
 21
1029.294236
 31
0.0
  0
LINE
  5
20D
330
1F
100
AcDbEntity
  8
Ｓ_１_１
  6
CONTINUOUS
 62
     3
100
AcDbLine
 10
456.500007
 20
1030.499973
 30
0.0
 11
454.4115879999999
 21
1029.294223
 31
0.0
  0
LINE
  5
20E
330
1F
100
AcDbEntity
  8
Ｓ_１_１
  6
CONTINUOUS
 62
     3
100
AcDbLine
 10
477.794312
 20
1029.29422
 30
0.0
 11
477.794312
 21
1021.705765
 31
0.0
  0
LINE
  5
20F
330
1F
100
AcDbEntity
  8
Ｓ_１_１
  6
CONTINUOUS
 62
     3
100
AcDbLine
 10
462.2058109999998
 20
1029.29422
 30
0.0
 11
462.2058109999998
 21
1021.705765
 31
0.0
  0
LINE
  5
210
330
1F
100
AcDbEntity
  8
Ｓ_１_１
  6
CONTINUOUS
 62
     3
100
AcDbLine
 10
454.4116210000002
 20
1029.29422
 30
0.0
 11
454.4116210000002
 21
1021.705765
 31
0.0
  0
LINE
  5
211
330
1F
100
AcDbEntity
  8
Ｓ_１_１
  6
CONTINUOUS
 62
     3
100
AcDbLine
 10
485.5885010000002
 20
1029.29422
 30
0.0
 11
485.5885010000002
 21
1021.705765
 31
0.0
  0
LINE
  5
212
330
1F
100
AcDbEntity
  8
Ｓ_１_１
  6
CONTINUOUS
 62
     3
100
AcDbLine
 10
456.5
 20
1020.5
 30
0.0
 11
483.5
 21
1020.5
 31
0.0
  0
LINE
  5
213
330
1F
100
AcDbEntity
  8
Ｓ_１_１
  6
CONTINUOUS
 62
     3
100
AcDbLine
 10
480.011497
 20
1012.499993
 30
0.0
 11
480.511497
 21
1020.499993
 31
0.0
  0
LINE
  5
214
330
1F
100
AcDbEntity
  8
Ｓ_１_１
  6
CONTINUOUS
 62
     3
100
AcDbLine
 10
479.430531
 20
1012.499993
 30
0.0
 11
479.8600019999999
 21
1019.371518
 31
0.0
  0
LINE
  5
215
330
1F
100
AcDbEntity
  8
Ｓ_１_１
  6
CONTINUOUS
 62
     3
100
AcDbLine
 10
459.488511
 20
1020.500002
 30
0.0
 11
460.140061
 21
1019.371484
 31
0.0
  0
LINE
  5
216
330
1F
100
AcDbEntity
  8
Ｓ_１_１
  6
CONTINUOUS
 62
     3
100
AcDbLine
 10
460.5695530000002
 20
1012.500008
 30
0.0
 11
460.1400830000002
 21
1019.371518
 31
0.0
  0
LINE
  5
217
330
1F
100
AcDbEntity
  8
Ｓ_１_１
  6
CONTINUOUS
 62
     3
100
AcDbLine
 10
459.9885880000001
 20
1012.499993
 30
0.0
 11
459.4885869999998
 21
1020.500008
 31
0.0
  0
LINE
  5
218
330
1F
100
AcDbEntity
  8
Ｓ_１_１
  6
CONTINUOUS
 62
     3
100
AcDbLine
 10
480.5115439999999
 20
1020.499989
 30
0.0
 11
479.8600240000001
 21
1019.371524
 31
0.0
  0
LINE
  5
219
330
1F
100
AcDbEntity
  8
Ｓ_１_１
  6
CONTINUOUS
 62
     3
100
AcDbLine
 10
459.5590819999998
 20
1019.371521
 30
0.0
 11
480.4410399999997
 21
1019.371521
 31
0.0
  0
LINE
  5
21A
330
1F
100
AcDbEntity
  8
Ｓ_１_１
  6
CONTINUOUS
 62
     3
100
AcDbLine
 10
698.4998960000003
 20
785.0001289999998
 30
0.0
 11
688.4998930000002
 21
775.0001099999997
 31
0.0
  0
LINE
  5
21B
330
1F
100
AcDbEntity
  8
Ｓ_１_１
  6
CONTINUOUS
 62
     3
100
AcDbLine
 10
698.4998960000003
 20
814.9998709999998
 30
0.0
 11
688.4998930000002
 21
824.9998899999998
 31
0.0
  0
LINE
  5
21C
330
1F
100
AcDbEntity
  8
Ｓ_１_１
  6
CONTINUOUS
 62
     3
100
AcDbLine
 10
703.0
 20
767.0000039999998
 30
0.0
 11
703.0
 21
743.0000039999998
 31
0.0
  0
LINE
  5
21D
330
1F
100
AcDbEntity
  8
Ｓ_１_１
  6
CONTINUOUS
 62
     3
100
AcDbLine
 10
703.0
 20
856.9999959999998
 30
0.0
 11
703.0
 21
832.9999959999998
 31
0.0
  0
LINE
  5
21E
330
1F
100
AcDbEntity
  8
Ｓ_１_１
  6
CONTINUOUS
 62
     3
100
AcDbLine
 10
703.0000250000003
 20
743.0002639999998
 30
0.0
 11
704.4999699999998
 21
743.8662719999998
 31
0.0
  0
LINE
  5
21F
330
1F
100
AcDbEntity
  8
Ｓ_１_１
  6
CONTINUOUS
 62
     3
100
AcDbLine
 10
702.9999760000001
 20
767.0000149999998
 30
0.0
 11
704.4999349999998
 21
766.1340299999997
 31
0.0
  0
LINE
  5
220
330
1F
100
AcDbEntity
  8
Ｓ_１_１
  6
CONTINUOUS
 62
     3
100
AcDbLine
 10
703.0000099999997
 20
833.0001689999997
 30
0.0
 11
704.50002
 21
833.8661879999997
 31
0.0
  0
LINE
  5
221
330
1F
100
AcDbEntity
  8
Ｓ_１_１
  6
CONTINUOUS
 62
     3
100
AcDbLine
 10
702.9998420000002
 20
857.0000089999995
 30
0.0
 11
704.499843
 21
856.1339759999998
 31
0.0
  0
LINE
  5
222
330
1F
100
AcDbEntity
  8
Ｓ_１_１
  6
CONTINUOUS
 62
     3
100
AcDbLine
 10
704.5
 20
766.1339909999997
 30
0.0
 11
704.5
 21
743.8660389999998
 31
0.0
  0
LINE
  5
223
330
1F
100
AcDbEntity
  8
Ｓ_１_１
  6
CONTINUOUS
 62
     3
100
AcDbLine
 10
704.5
 20
856.1339649999998
 30
0.0
 11
704.5
 21
833.8660089999998
 31
0.0
  0
LINE
  5
224
330
1F
100
AcDbEntity
  8
Ｓ_１_１
  6
CONTINUOUS
 62
     3
100
AcDbLine
 10
688.5
 20
742.9999919999998
 30
0.0
 11
703.0
 21
742.9999919999998
 31
0.0
  0
LINE
  5
225
330
1F
100
AcDbEntity
  8
Ｓ_１_１
  6
CONTINUOUS
 62
     3
100
AcDbLine
 10
688.5
 20
766.9999999999998
 30
0.0
 11
703.0
 21
766.9999999999998
 31
0.0
  0
LINE
  5
226
330
1F
100
AcDbEntity
  8
Ｓ_１_１
  6
CONTINUOUS
 62
     3
100
AcDbLine
 10
688.5
 20
832.9999999999998
 30
0.0
 11
703.0
 21
832.9999999999998
 31
0.0
  0
LINE
  5
227
330
1F
100
AcDbEntity
  8
Ｓ_１_１
  6
CONTINUOUS
 62
     3
100
AcDbLine
 10
688.5
 20
857.0000079999998
 30
0.0
 11
703.0
 21
857.0000079999998
 31
0.0
  0
LINE
  5
228
330
1F
100
AcDbEntity
  8
Ｓ_１_１
  6
CONTINUOUS
 62
     3
100
AcDbLine
 10
241.500015
 20
784.9999709999996
 30
0.0
 11
251.5000250000003
 21
774.9999589999998
 31
0.0
  0
LINE
  5
229
330
1F
100
AcDbEntity
  8
Ｓ_１_１
  6
CONTINUOUS
 62
     3
100
AcDbLine
 10
241.500015
 20
815.0000289999998
 30
0.0
 11
251.5000250000003
 21
825.0000409999998
 31
0.0
  0
LINE
  5
22A
330
1F
100
AcDbEntity
  8
Ｓ_１_１
  6
CONTINUOUS
 62
     3
100
AcDbLine
 10
237.0
 20
767.0000039999998
 30
0.0
 11
237.0
 21
743.0000039999998
 31
0.0
  0
LINE
  5
22B
330
1F
100
AcDbEntity
  8
Ｓ_１_１
  6
CONTINUOUS
 62
     3
100
AcDbLine
 10
237.0
 20
856.9999959999998
 30
0.0
 11
237.0
 21
832.9999959999998
 31
0.0
  0
LINE
  5
22C
330
1F
100
AcDbEntity
  8
Ｓ_１_１
  6
CONTINUOUS
 62
     3
100
AcDbLine
 10
236.999871
 20
742.9997249999999
 30
0.0
 11
235.4999760000001
 21
743.8656989999997
 31
0.0
  0
LINE
  5
22D
330
1F
100
AcDbEntity
  8
Ｓ_１_１
  6
CONTINUOUS
 62
     3
100
AcDbLine
 10
236.9999779999998
 20
767.0002999999997
 30
0.0
 11
235.5000879999998
 21
766.1343169999998
 31
0.0
  0
LINE
  5
22E
330
1F
100
AcDbEntity
  8
Ｓ_１_１
  6
CONTINUOUS
 62
     3
100
AcDbLine
 10
236.9999150000003
 20
832.9997899999997
 30
0.0
 11
235.4999049999996
 21
833.8658079999998
 31
0.0
  0
LINE
  5
22F
330
1F
100
AcDbEntity
  8
Ｓ_１_１
  6
CONTINUOUS
 62
     3
100
AcDbLine
 10
236.9998249999998
 20
857.0001589999997
 30
0.0
 11
235.499812
 21
856.1341469999998
 31
0.0
  0
LINE
  5
230
330
1F
100
AcDbEntity
  8
Ｓ_１_１
  6
CONTINUOUS
 62
     3
100
AcDbLine
 10
235.5
 20
766.1339529999998
 30
0.0
 11
235.5
 21
743.8660349999998
 31
0.0
  0
LINE
  5
231
330
1F
100
AcDbEntity
  8
Ｓ_１_１
  6
CONTINUOUS
 62
     3
100
AcDbLine
 10
235.5
 20
856.1339949999998
 30
0.0
 11
235.5
 21
833.8660089999998
 31
0.0
  0
LINE
  5
232
330
1F
100
AcDbEntity
  8
Ｓ_１_１
  6
CONTINUOUS
 62
     3
100
AcDbLine
 10
237.0
 20
742.9999919999998
 30
0.0
 11
251.5
 21
742.9999919999998
 31
0.0
  0
LINE
  5
233
330
1F
100
AcDbEntity
  8
Ｓ_１_１
  6
CONTINUOUS
 62
     3
100
AcDbLine
 10
237.0
 20
766.9999999999998
 30
0.0
 11
251.5
 21
766.9999999999998
 31
0.0
  0
LINE
  5
234
330
1F
100
AcDbEntity
  8
Ｓ_１_１
  6
CONTINUOUS
 62
     3
100
AcDbLine
 10
237.0
 20
832.9999999999998
 30
0.0
 11
251.5
 21
832.9999999999998
 31
0.0
  0
LINE
  5
235
330
1F
100
AcDbEntity
  8
Ｓ_１_１
  6
CONTINUOUS
 62
     3
100
AcDbLine
 10
237.0
 20
857.0000079999998
 30
0.0
 11
251.5
 21
857.0000079999998
 31
0.0
  0
LINE
  5
236
330
1F
100
AcDbEntity
  8
Ｓ_１_１
  6
CONTINUOUS
 62
     3
100
AcDbLine
 10
151.5
 20
814.9999999999998
 30
0.0
 11
151.5
 21
784.9999999999998
 31
0.0
  0
LINE
  5
237
330
1F
100
AcDbEntity
  8
Ｓ_１_１
  6
CONTINUOUS
 62
     3
100
AcDbLine
 10
788.5
 20
814.9999999999998
 30
0.0
 11
788.5
 21
784.9999999999998
 31
0.0
  0
LINE
  5
238
330
1F
100
AcDbEntity
  8
Ｓ_１_１
  6
CONTINUOUS
 62
     3
100
AcDbLine
 10
151.5
 20
784.9999999999998
 30
0.0
 11
251.5
 21
784.9999999999998
 31
0.0
  0
LINE
  5
239
330
1F
100
AcDbEntity
  8
Ｓ_１_１
  6
CONTINUOUS
 62
     3
100
AcDbLine
 10
151.5
 20
814.9999999999998
 30
0.0
 11
251.5
 21
814.9999999999998
 31
0.0
  0
LINE
  5
23A
330
1F
100
AcDbEntity
  8
Ｓ_１_１
  6
CONTINUOUS
 62
     3
100
AcDbLine
 10
688.5
 20
784.9999999999998
 30
0.0
 11
788.5
 21
784.9999999999998
 31
0.0
  0
LINE
  5
23B
330
1F
100
AcDbEntity
  8
Ｓ_１_１
  6
CONTINUOUS
 62
     3
100
AcDbLine
 10
688.5
 20
814.9999999999998
 30
0.0
 11
788.5
 21
814.9999999999998
 31
0.0
  0
LINE
  5
23C
330
1F
100
AcDbEntity
  8
Ｓ_１_１
  6
CONTINUOUS
 62
     3
100
AcDbLine
 10
688.5
 20
739.9999999999998
 30
0.0
 11
673.8535769999999
 21
739.9999999999998
 31
0.0
  0
LINE
  5
23D
330
1F
100
AcDbEntity
  8
Ｓ_１_１
  6
CONTINUOUS
 62
     3
100
AcDbLine
 10
688.5
 20
859.9999999999998
 30
0.0
 11
673.8535769999999
 21
859.9999999999998
 31
0.0
  0
LINE
  5
23E
330
1F
100
AcDbEntity
  8
Ｓ_１_１
  6
CONTINUOUS
 62
     3
100
AcDbLine
 10
251.5
 20
739.9999999999998
 30
0.0
 11
266.1466060000002
 21
739.9999999999998
 31
0.0
  0
LINE
  5
23F
330
1F
100
AcDbEntity
  8
Ｓ_１_１
  6
CONTINUOUS
 62
     3
100
AcDbLine
 10
251.5
 20
859.9999999999998
 30
0.0
 11
266.1466060000002
 21
859.9999999999998
 31
0.0
  0
LINE
  5
240
330
1F
100
AcDbEntity
  8
Ｓ_１_１
  6
CONTINUOUS
 62
     3
100
AcDbLine
 10
251.5
 20
859.9999999999998
 30
0.0
 11
251.5
 21
739.9999999999998
 31
0.0
  0
LINE
  5
241
330
1F
100
AcDbEntity
  8
Ｓ_１_１
  6
CONTINUOUS
 62
     3
100
AcDbLine
 10
688.5
 20
859.9999999999998
 30
0.0
 11
688.5
 21
739.9999999999998
 31
0.0
  0
LINE
  5
242
330
1F
100
AcDbEntity
  8
Ｓ_１_１
  6
EXLTYPE2
 62
     1
100
AcDbLine
 10
1510.0
 20
1104.07196
 30
0.0
 11
1510.0
 21
1000.555511
 31
0.0
  0
LINE
  5
243
330
1F
100
AcDbEntity
  8
Ｓ_１_１
  6
EXLTYPE2
 62
     1
100
AcDbLine
 10
969.480347
 20
995.0000149999998
 30
0.0
 11
1030.0
 21
995.0000149999998
 31
0.0
  0
LINE
  5
244
330
1F
100
AcDbEntity
  8
Ｓ_１_１
  6
EXLTYPE2
 62
     1
100
AcDbLine
 10
1040.0
 20
845.0000039999998
 30
0.0
 11
1070.0
 21
845.0000039999998
 31
0.0
  0
LINE
  5
245
330
1F
100
AcDbEntity
  8
Ｓ_１_１
  6
EXLTYPE2
 62
     1
100
AcDbLine
 10
1055.0
 20
829.9999999999998
 30
0.0
 11
1055.0
 21
859.9999999999998
 31
0.0
  0
LINE
  5
246
330
1F
100
AcDbEntity
  8
Ｓ_１_１
  6
EXLTYPE2
 62
     1
100
AcDbLine
 10
1130.000031
 20
845.0000039999998
 30
0.0
 11
1160.0
 21
845.0000039999998
 31
0.0
  0
LINE
  5
247
330
1F
100
AcDbEntity
  8
Ｓ_１_１
  6
EXLTYPE2
 62
     1
100
AcDbLine
 10
1145.000031
 20
829.9999999999998
 30
0.0
 11
1145.000031
 21
859.9999999999998
 31
0.0
  0
LINE
  5
248
330
1F
100
AcDbEntity
  8
Ｓ_１_１
  6
EXLTYPE2
 62
     1
100
AcDbLine
 10
1420.0
 20
845.0000039999998
 30
0.0
 11
1450.0
 21
845.0000039999998
 31
0.0
  0
LINE
  5
249
330
1F
100
AcDbEntity
  8
Ｓ_１_１
  6
EXLTYPE2
 62
     1
100
AcDbLine
 10
1435.0
 20
829.9999999999998
 30
0.0
 11
1435.0
 21
859.9999999999998
 31
0.0
  0
LINE
  5
24A
330
1F
100
AcDbEntity
  8
Ｓ_１_１
  6
EXLTYPE2
 62
     1
100
AcDbLine
 10
1510.0
 20
845.0000039999998
 30
0.0
 11
1539.999985
 21
845.0000039999998
 31
0.0
  0
LINE
  5
24B
330
1F
100
AcDbEntity
  8
Ｓ_１_１
  6
EXLTYPE2
 62
     1
100
AcDbLine
 10
1524.999969
 20
829.9999999999998
 30
0.0
 11
1524.999969
 21
859.9999999999998
 31
0.0
  0
LINE
  5
24C
330
1F
100
AcDbEntity
  8
Ｓ_１_１
  6
EXLTYPE2
 62
     1
100
AcDbLine
 10
969.480347
 20
604.9999999999998
 30
0.0
 11
1030.0
 21
604.9999999999998
 31
0.0
  0
LINE
  5
24D
330
1F
100
AcDbEntity
  8
Ｓ_１_１
  6
EXLTYPE2
 62
     1
100
AcDbLine
 10
956.1803589999998
 20
799.9999999999998
 30
0.0
 11
1617.330338
 21
799.9999999999998
 31
0.0
  0
LINE
  5
24E
330
1F
100
AcDbEntity
  8
Ｓ_１_１
  6
EXLTYPE2
 62
     1
100
AcDbLine
 10
1055.0
 20
627.4999999999998
 30
0.0
 11
1055.0
 21
567.4999999999998
 31
0.0
  0
LINE
  5
24F
330
1F
100
AcDbEntity
  8
Ｓ_１_１
  6
EXLTYPE2
 62
     1
100
AcDbLine
 10
1145.000031
 20
627.4999999999998
 30
0.0
 11
1145.000031
 21
567.4999999999998
 31
0.0
  0
LINE
  5
250
330
1F
100
AcDbEntity
  8
Ｓ_１_１
  6
EXLTYPE2
 62
     1
100
AcDbLine
 10
1435.0
 20
627.4999999999998
 30
0.0
 11
1435.0
 21
567.4999999999998
 31
0.0
  0
LINE
  5
251
330
1F
100
AcDbEntity
  8
Ｓ_１_１
  6
EXLTYPE2
 62
     1
100
AcDbLine
 10
1524.999969
 20
627.4999999999998
 30
0.0
 11
1524.999969
 21
567.4999999999998
 31
0.0
  0
LINE
  5
252
330
1F
100
AcDbEntity
  8
Ｓ_１_１
  6
EXLTYPE2
 62
     1
100
AcDbLine
 10
1040.0
 20
754.9999999999998
 30
0.0
 11
1070.0
 21
754.9999999999998
 31
0.0
  0
LINE
  5
253
330
1F
100
AcDbEntity
  8
Ｓ_１_１
  6
EXLTYPE2
 62
     1
100
AcDbLine
 10
1055.0
 20
769.9999999999998
 30
0.0
 11
1055.0
 21
739.9999999999998
 31
0.0
  0
LINE
  5
254
330
1F
100
AcDbEntity
  8
Ｓ_１_１
  6
EXLTYPE2
 62
     1
100
AcDbLine
 10
1130.000031
 20
754.9999999999998
 30
0.0
 11
1160.0
 21
754.9999999999998
 31
0.0
  0
LINE
  5
255
330
1F
100
AcDbEntity
  8
Ｓ_１_１
  6
EXLTYPE2
 62
     1
100
AcDbLine
 10
1145.000031
 20
769.9999999999998
 30
0.0
 11
1145.000031
 21
739.9999999999998
 31
0.0
  0
LINE
  5
256
330
1F
100
AcDbEntity
  8
Ｓ_１_１
  6
EXLTYPE2
 62
     1
100
AcDbLine
 10
1420.0
 20
754.9999999999998
 30
0.0
 11
1450.0
 21
754.9999999999998
 31
0.0
  0
LINE
  5
257
330
1F
100
AcDbEntity
  8
Ｓ_１_１
  6
EXLTYPE2
 62
     1
100
AcDbLine
 10
1435.0
 20
769.9999999999998
 30
0.0
 11
1435.0
 21
739.9999999999998
 31
0.0
  0
LINE
  5
258
330
1F
100
AcDbEntity
  8
Ｓ_１_１
  6
EXLTYPE2
 62
     1
100
AcDbLine
 10
1510.0
 20
754.9999999999998
 30
0.0
 11
1539.999985
 21
754.9999999999998
 31
0.0
  0
LINE
  5
259
330
1F
100
AcDbEntity
  8
Ｓ_１_１
  6
EXLTYPE2
 62
     1
100
AcDbLine
 10
1524.999969
 20
769.9999999999998
 30
0.0
 11
1524.999969
 21
739.9999999999998
 31
0.0
  0
LINE
  5
25A
330
1F
100
AcDbEntity
  8
Ｓ_１_１
  6
EXLTYPE2
 62
     1
100
AcDbLine
 10
1099.999969
 20
875.5999979999999
 30
0.0
 11
1099.999969
 21
731.8200229999998
 31
0.0
  0
LINE
  5
25B
330
1F
100
AcDbEntity
  8
Ｓ_１_１
  6
EXLTYPE2
 62
     1
100
AcDbLine
 10
1479.999992
 20
874.1999889999996
 30
0.0
 11
1479.999992
 21
726.9200209999997
 31
0.0
  0
LINE
  5
25C
330
1F
100
AcDbEntity
  8
Ｓ_１_１
  6
EXLTYPE0
 62
     2
100
AcDbLine
 10
1074.999969
 20
784.9999999999998
 30
0.0
 11
1074.999969
 21
814.9999999999998
 31
0.0
  0
LINE
  5
25D
330
1F
100
AcDbEntity
  8
Ｓ_１_１
  6
EXLTYPE0
 62
     2
100
AcDbLine
 10
1125.0
 20
784.9999999999998
 30
0.0
 11
1125.0
 21
814.9999999999998
 31
0.0
  0
LINE
  5
25E
330
1F
100
AcDbEntity
  8
Ｓ_１_１
  6
EXLTYPE0
 62
     2
100
AcDbLine
 10
1455.0
 20
784.9999999999998
 30
0.0
 11
1455.0
 21
814.9999999999998
 31
0.0
  0
LINE
  5
25F
330
1F
100
AcDbEntity
  8
Ｓ_１_１
  6
EXLTYPE0
 62
     2
100
AcDbLine
 10
1505.0
 20
784.9999999999998
 30
0.0
 11
1505.0
 21
814.9999999999998
 31
0.0
  0
ARC
  5
260
330
1F
100
AcDbEntity
  8
Ｓ_１_１
  6
CONTINUOUS
 62
     3
100
AcDbCircle
 10
1113.308685
 20
1023.599289
 30
0.0
 40
6.900722000000004
100
AcDbArc
 50
55.615751
 51
124.384247
  0
ARC
  5
261
330
1F
100
AcDbEntity
  8
Ｓ_１_１
  6
CONTINUOUS
 62
     3
100
AcDbCircle
 10
1125.000031
 20
1004.70578
 30
0.0
 40
25.79423
100
AcDbArc
 50
72.41204699999997
 51
107.587951
  0
ARC
  5
262
330
1F
100
AcDbEntity
  8
Ｓ_１_１
  6
CONTINUOUS
 62
     3
100
AcDbCircle
 10
1136.691376
 20
1023.599289
 30
0.0
 40
6.900722000000004
100
AcDbArc
 50
55.615751
 51
124.384247
  0
ARC
  5
263
330
1F
100
AcDbEntity
  8
Ｓ_１_１
  6
CONTINUOUS
 62
     3
100
AcDbCircle
 10
1136.691376
 20
1027.400742
 30
0.0
 40
6.900722000000004
100
AcDbArc
 50
235.6157530000001
 51
304.3842490000003
  0
ARC
  5
264
330
1F
100
AcDbEntity
  8
Ｓ_１_１
  6
CONTINUOUS
 62
     3
100
AcDbCircle
 10
1125.000031
 20
1046.29425
 30
0.0
 40
25.79423
100
AcDbArc
 50
252.4120490000002
 51
287.5879530000003
  0
ARC
  5
265
330
1F
100
AcDbEntity
  8
Ｓ_１_１
  6
CONTINUOUS
 62
     3
100
AcDbCircle
 10
1113.308685
 20
1027.400742
 30
0.0
 40
6.900722000000004
100
AcDbArc
 50
235.6157530000001
 51
304.3842490000003
  0
ARC
  5
266
330
1F
100
AcDbEntity
  8
Ｓ_１_１
  6
CONTINUOUS
 62
     3
100
AcDbCircle
 10
1510.0
 20
1028.560577
 30
0.0
 40
21.93943800000001
100
AcDbArc
 50
76.82652799999998
 51
103.173491
  0
ARC
  5
267
330
1F
100
AcDbEntity
  8
Ｓ_１_１
  6
CONTINUOUS
 62
     3
100
AcDbCircle
 10
1510.0
 20
1059.939453
 30
0.0
 40
21.93943800000001
100
AcDbArc
 50
256.8264750000001
 51
283.1734650000004
  0
ARC
  5
268
330
1F
100
AcDbEntity
  8
Ｓ_１_１
  6
CONTINUOUS
 62
     3
100
AcDbCircle
 10
1521.691345
 20
1027.400742
 30
0.0
 40
6.900722000000004
100
AcDbArc
 50
235.6157530000001
 51
304.3842490000003
  0
ARC
  5
269
330
1F
100
AcDbEntity
  8
Ｓ_１_１
  6
CONTINUOUS
 62
     3
100
AcDbCircle
 10
1510.0
 20
1046.29425
 30
0.0
 40
25.79423
100
AcDbArc
 50
252.4120490000002
 51
287.5879530000003
  0
ARC
  5
26A
330
1F
100
AcDbEntity
  8
Ｓ_１_１
  6
CONTINUOUS
 62
     3
100
AcDbCircle
 10
1498.308655
 20
1027.400742
 30
0.0
 40
6.900722000000004
100
AcDbArc
 50
235.6157530000001
 51
304.3842490000003
  0
ARC
  5
26B
330
1F
100
AcDbEntity
  8
Ｓ_１_１
  6
CONTINUOUS
 62
     3
100
AcDbCircle
 10
1498.308655
 20
1023.599289
 30
0.0
 40
6.900722000000004
100
AcDbArc
 50
55.615751
 51
124.384247
  0
ARC
  5
26C
330
1F
100
AcDbEntity
  8
Ｓ_１_１
  6
CONTINUOUS
 62
     3
100
AcDbCircle
 10
1510.0
 20
1004.70578
 30
0.0
 40
25.79423
100
AcDbArc
 50
72.41204699999997
 51
107.587951
  0
ARC
  5
26D
330
1F
100
AcDbEntity
  8
Ｓ_１_１
  6
CONTINUOUS
 62
     3
100
AcDbCircle
 10
1521.691345
 20
1023.599289
 30
0.0
 40
6.900722000000004
100
AcDbArc
 50
55.615751
 51
124.384247
  0
CIRCLE
  5
26E
330
1F
100
AcDbEntity
  8
Ｓ_１_１
  6
CONTINUOUS
 62
     3
100
AcDbCircle
 10
1145.000031
 20
845.0000039999998
 30
0.0
 40
9.999999
  0
CIRCLE
  5
26F
330
1F
100
AcDbEntity
  8
Ｓ_１_１
  6
CONTINUOUS
 62
     3
100
AcDbCircle
 10
1435.0
 20
845.0000039999998
 30
0.0
 40
9.999999
  0
CIRCLE
  5
270
330
1F
100
AcDbEntity
  8
Ｓ_１_１
  6
CONTINUOUS
 62
     3
100
AcDbCircle
 10
1524.999969
 20
845.0000039999998
 30
0.0
 40
9.999999
  0
CIRCLE
  5
271
330
1F
100
AcDbEntity
  8
Ｓ_１_１
  6
CONTINUOUS
 62
     3
100
AcDbCircle
 10
1524.999969
 20
845.0000039999998
 30
0.0
 40
12.00000000000001
  0
CIRCLE
  5
272
330
1F
100
AcDbEntity
  8
Ｓ_１_１
  6
CONTINUOUS
 62
     3
100
AcDbCircle
 10
1435.0
 20
845.0000039999998
 30
0.0
 40
12.00000000000001
  0
CIRCLE
  5
273
330
1F
100
AcDbEntity
  8
Ｓ_１_１
  6
CONTINUOUS
 62
     3
100
AcDbCircle
 10
1145.000031
 20
845.0000039999998
 30
0.0
 40
12.00000000000001
  0
CIRCLE
  5
274
330
1F
100
AcDbEntity
  8
Ｓ_１_１
  6
CONTINUOUS
 62
     3
100
AcDbCircle
 10
1055.0
 20
845.0000039999998
 30
0.0
 40
12.00000000000001
  0
CIRCLE
  5
275
330
1F
100
AcDbEntity
  8
Ｓ_１_１
  6
CONTINUOUS
 62
     3
100
AcDbCircle
 10
1055.0
 20
845.0000039999998
 30
0.0
 40
9.999999
  0
CIRCLE
  5
276
330
1F
100
AcDbEntity
  8
Ｓ_１_１
  6
CONTINUOUS
 62
     3
100
AcDbCircle
 10
1055.0
 20
754.9999999999998
 30
0.0
 40
9.999999
  0
CIRCLE
  5
277
330
1F
100
AcDbEntity
  8
Ｓ_１_１
  6
CONTINUOUS
 62
     3
100
AcDbCircle
 10
1145.000031
 20
754.9999999999998
 30
0.0
 40
9.999999
  0
CIRCLE
  5
278
330
1F
100
AcDbEntity
  8
Ｓ_１_１
  6
CONTINUOUS
 62
     3
100
AcDbCircle
 10
1435.0
 20
754.9999999999998
 30
0.0
 40
9.999999
  0
CIRCLE
  5
279
330
1F
100
AcDbEntity
  8
Ｓ_１_１
  6
CONTINUOUS
 62
     3
100
AcDbCircle
 10
1524.999969
 20
754.9999999999998
 30
0.0
 40
9.999999
  0
CIRCLE
  5
27A
330
1F
100
AcDbEntity
  8
Ｓ_１_１
  6
CONTINUOUS
 62
     3
100
AcDbCircle
 10
1524.999969
 20
754.9999999999998
 30
0.0
 40
12.00000000000001
  0
CIRCLE
  5
27B
330
1F
100
AcDbEntity
  8
Ｓ_１_１
  6
CONTINUOUS
 62
     3
100
AcDbCircle
 10
1435.0
 20
754.9999999999998
 30
0.0
 40
12.00000000000001
  0
CIRCLE
  5
27C
330
1F
100
AcDbEntity
  8
Ｓ_１_１
  6
CONTINUOUS
 62
     3
100
AcDbCircle
 10
1145.000031
 20
754.9999999999998
 30
0.0
 40
12.00000000000001
  0
CIRCLE
  5
27D
330
1F
100
AcDbEntity
  8
Ｓ_１_１
  6
CONTINUOUS
 62
     3
100
AcDbCircle
 10
1055.0
 20
754.9999999999998
 30
0.0
 40
12.00000000000001
  0
LINE
  5
27E
330
1F
100
AcDbEntity
  8
Ｓ_１_１
  6
CONTINUOUS
 62
     3
100
AcDbLine
 10
1114.559082
 20
1019.371536
 30
0.0
 11
1135.44101
 21
1019.371536
 31
0.0
  0
LINE
  5
27F
330
1F
100
AcDbEntity
  8
Ｓ_１_１
  6
CONTINUOUS
 62
     3
100
AcDbLine
 10
1135.511547
 20
1020.500016
 30
0.0
 11
1134.860017
 21
1019.371534
 31
0.0
  0
LINE
  5
280
330
1F
100
AcDbEntity
  8
Ｓ_１_１
  6
CONTINUOUS
 62
     3
100
AcDbLine
 10
1114.988539
 20
1012.500019
 30
0.0
 11
1114.488539
 21
1020.500019
 31
0.0
  0
LINE
  5
281
330
1F
100
AcDbEntity
  8
Ｓ_１_１
  6
CONTINUOUS
 62
     3
100
AcDbLine
 10
1115.569535
 20
1012.500021
 30
0.0
 11
1115.140065
 21
1019.371531
 31
0.0
  0
LINE
  5
282
330
1F
100
AcDbEntity
  8
Ｓ_１_１
  6
CONTINUOUS
 62
     3
100
AcDbLine
 10
1114.488538
 20
1020.500024
 30
0.0
 11
1115.140073
 21
1019.371533
 31
0.0
  0
LINE
  5
283
330
1F
100
AcDbEntity
  8
Ｓ_１_１
  6
CONTINUOUS
 62
     3
100
AcDbLine
 10
1134.430515
 20
1012.50001
 30
0.0
 11
1134.859984
 21
1019.37152
 31
0.0
  0
LINE
  5
284
330
1F
100
AcDbEntity
  8
Ｓ_１_１
  6
CONTINUOUS
 62
     3
100
AcDbLine
 10
1135.011541
 20
1012.500006
 30
0.0
 11
1135.511541
 21
1020.500006
 31
0.0
  0
LINE
  5
285
330
1F
100
AcDbEntity
  8
Ｓ_１_１
  6
CONTINUOUS
 62
     3
100
AcDbLine
 10
1111.500031
 20
1020.500015
 30
0.0
 11
1138.500031
 21
1020.500015
 31
0.0
  0
LINE
  5
286
330
1F
100
AcDbEntity
  8
Ｓ_１_１
  6
CONTINUOUS
 62
     3
100
AcDbLine
 10
1140.588501
 20
1029.29425
 30
0.0
 11
1140.588501
 21
1021.70578
 31
0.0
  0
LINE
  5
287
330
1F
100
AcDbEntity
  8
Ｓ_１_１
  6
CONTINUOUS
 62
     3
100
AcDbLine
 10
1109.411591
 20
1029.29425
 30
0.0
 11
1109.411591
 21
1021.70578
 31
0.0
  0
LINE
  5
288
330
1F
100
AcDbEntity
  8
Ｓ_１_１
  6
CONTINUOUS
 62
     3
100
AcDbLine
 10
1117.205811
 20
1029.29425
 30
0.0
 11
1117.205811
 21
1021.70578
 31
0.0
  0
LINE
  5
289
330
1F
100
AcDbEntity
  8
Ｓ_１_１
  6
CONTINUOUS
 62
     3
100
AcDbLine
 10
1132.794281
 20
1029.29425
 30
0.0
 11
1132.794281
 21
1021.70578
 31
0.0
  0
LINE
  5
28A
330
1F
100
AcDbEntity
  8
Ｓ_１_１
  6
CONTINUOUS
 62
     3
100
AcDbLine
 10
1111.500048
 20
1030.500002
 30
0.0
 11
1109.411602
 21
1029.294237
 31
0.0
  0
LINE
  5
28B
330
1F
100
AcDbEntity
  8
Ｓ_１_１
  6
CONTINUOUS
 62
     3
100
AcDbLine
 10
1138.500061
 20
1030.500006
 30
0.0
 11
1140.588507
 21
1029.294241
 31
0.0
  0
LINE
  5
28C
330
1F
100
AcDbEntity
  8
Ｓ_１_１
  6
CONTINUOUS
 62
     3
100
AcDbLine
 10
1111.500031
 20
1030.500015
 30
0.0
 11
1138.500031
 21
1030.500015
 31
0.0
  0
LINE
  5
28D
330
1F
100
AcDbEntity
  8
Ｓ_１_１
  6
CONTINUOUS
 62
     3
100
AcDbLine
 10
1138.500049
 20
1020.50001
 30
0.0
 11
1140.588508
 21
1021.705783
 31
0.0
  0
LINE
  5
28E
330
1F
100
AcDbEntity
  8
Ｓ_１_１
  6
CONTINUOUS
 62
     3
100
AcDbLine
 10
1111.500059
 20
1020.50001
 30
0.0
 11
1109.411586
 21
1021.70579
 31
0.0
  0
LINE
  5
28F
330
1F
100
AcDbEntity
  8
Ｓ_１_１
  6
CONTINUOUS
 62
     3
100
AcDbLine
 10
1520.440971
 20
1019.371536
 30
0.0
 11
1499.559029
 21
1019.371536
 31
0.0
  0
LINE
  5
290
330
1F
100
AcDbEntity
  8
Ｓ_１_１
  6
CONTINUOUS
 62
     3
100
AcDbLine
 10
1499.488501
 20
1020.500024
 30
0.0
 11
1500.140036
 21
1019.371532
 31
0.0
  0
LINE
  5
291
330
1F
100
AcDbEntity
  8
Ｓ_１_１
  6
CONTINUOUS
 62
     3
100
AcDbLine
 10
1520.011495
 20
1012.500009
 30
0.0
 11
1520.511495
 21
1020.500009
 31
0.0
  0
LINE
  5
292
330
1F
100
AcDbEntity
  8
Ｓ_１_１
  6
CONTINUOUS
 62
     3
100
AcDbLine
 10
1519.430499
 20
1012.500011
 30
0.0
 11
1519.859969
 21
1019.371521
 31
0.0
  0
LINE
  5
293
330
1F
100
AcDbEntity
  8
Ｓ_１_１
  6
CONTINUOUS
 62
     3
100
AcDbLine
 10
1520.511503
 20
1020.500021
 30
0.0
 11
1519.859968
 21
1019.37153
 31
0.0
  0
LINE
  5
294
330
1F
100
AcDbEntity
  8
Ｓ_１_１
  6
CONTINUOUS
 62
     3
100
AcDbLine
 10
1500.569496
 20
1012.500019
 30
0.0
 11
1500.140026
 21
1019.371544
 31
0.0
  0
LINE
  5
295
330
1F
100
AcDbEntity
  8
Ｓ_１_１
  6
CONTINUOUS
 62
     3
100
AcDbLine
 10
1499.9885
 20
1012.500017
 30
0.0
 11
1499.4885
 21
1020.500017
 31
0.0
  0
LINE
  5
296
330
1F
100
AcDbEntity
  8
Ｓ_１_１
  6
CONTINUOUS
 62
     3
100
AcDbLine
 10
1523.5
 20
1020.500015
 30
0.0
 11
1496.5
 21
1020.500015
 31
0.0
  0
LINE
  5
297
330
1F
100
AcDbEntity
  8
Ｓ_１_１
  6
CONTINUOUS
 62
     3
100
AcDbLine
 10
1502.436503
 20
1031.862291
 30
0.0
 11
1501.649996
 21
1030.500021
 31
0.0
  0
LINE
  5
298
330
1F
100
AcDbEntity
  8
Ｓ_１_１
  6
CONTINUOUS
 62
     3
100
AcDbLine
 10
1502.82012
 20
1038.000012
 30
0.0
 11
1502.436512
 21
1031.862284
 31
0.0
  0
LINE
  5
299
330
1F
100
AcDbEntity
  8
Ｓ_１_１
  6
CONTINUOUS
 62
     3
100
AcDbLine
 10
1517.179883
 20
1038.00002
 30
0.0
 11
1517.563491
 21
1031.862293
 31
0.0
  0
LINE
  5
29A
330
1F
100
AcDbEntity
  8
Ｓ_１_１
  6
CONTINUOUS
 62
     3
100
AcDbLine
 10
1518.264854
 20
1031.862289
 30
0.0
 11
1501.735146
 21
1031.862289
 31
0.0
  0
LINE
  5
29B
330
1F
100
AcDbEntity
  8
Ｓ_１_１
  6
CONTINUOUS
 62
     3
100
AcDbLine
 10
1518.349995
 20
1030.500017
 30
0.0
 11
1517.563488
 21
1031.862286
 31
0.0
  0
LINE
  5
29C
330
1F
100
AcDbEntity
  8
Ｓ_１_１
  6
CONTINUOUS
 62
     3
100
AcDbLine
 10
1502.118743
 20
1038.000001
 30
0.0
 11
1501.649993
 21
1030.500002
 31
0.0
  0
LINE
  5
29D
330
1F
100
AcDbEntity
  8
Ｓ_１_１
  6
CONTINUOUS
 62
     3
100
AcDbLine
 10
1494.411545
 20
1029.29425
 30
0.0
 11
1494.411545
 21
1021.70578
 31
0.0
  0
LINE
  5
29E
330
1F
100
AcDbEntity
  8
Ｓ_１_１
  6
CONTINUOUS
 62
     3
100
AcDbLine
 10
1517.881246
 20
1038.000023
 30
0.0
 11
1518.349996
 21
1030.500009
 31
0.0
  0
LINE
  5
29F
330
1F
100
AcDbEntity
  8
Ｓ_１_１
  6
CONTINUOUS
 62
     3
100
AcDbLine
 10
1496.500003
 20
1030.500015
 30
0.0
 11
1494.411544
 21
1029.294242
 31
0.0
  0
LINE
  5
2A0
330
1F
100
AcDbEntity
  8
Ｓ_１_１
  6
CONTINUOUS
 62
     3
100
AcDbLine
 10
1517.794228
 20
1029.29425
 30
0.0
 11
1517.794228
 21
1021.70578
 31
0.0
  0
LINE
  5
2A1
330
1F
100
AcDbEntity
  8
Ｓ_１_１
  6
CONTINUOUS
 62
     3
100
AcDbLine
 10
1523.5
 20
1030.500015
 30
0.0
 11
1496.5
 21
1030.500015
 31
0.0
  0
LINE
  5
2A2
330
1F
100
AcDbEntity
  8
Ｓ_１_１
  6
CONTINUOUS
 62
     3
100
AcDbLine
 10
1502.205772
 20
1029.29425
 30
0.0
 11
1502.205772
 21
1021.70578
 31
0.0
  0
LINE
  5
2A3
330
1F
100
AcDbEntity
  8
Ｓ_１_１
  6
CONTINUOUS
 62
     3
100
AcDbLine
 10
1523.500001
 20
1030.500012
 30
0.0
 11
1525.588454
 21
1029.294244
 31
0.0
  0
LINE
  5
2A4
330
1F
100
AcDbEntity
  8
Ｓ_１_１
  6
CONTINUOUS
 62
     3
100
AcDbLine
 10
1497.999985
 20
1038.000015
 30
0.0
 11
1521.999992
 21
1038.000015
 31
0.0
  0
LINE
  5
2A5
330
1F
100
AcDbEntity
  8
Ｓ_１_１
  6
CONTINUOUS
 62
     3
100
AcDbLine
 10
1515.0
 20
1038.577362
 30
0.0
 11
1523.0
 21
1038.577362
 31
0.0
  0
LINE
  5
2A6
330
1F
100
AcDbEntity
  8
Ｓ_１_１
  6
CONTINUOUS
 62
     3
100
AcDbLine
 10
1515.0
 20
1049.922668
 30
0.0
 11
1523.0
 21
1049.922668
 31
0.0
  0
LINE
  5
2A7
330
1F
100
AcDbEntity
  8
Ｓ_１_１
  6
CONTINUOUS
 62
     3
100
AcDbLine
 10
1497.0
 20
1038.577362
 30
0.0
 11
1505.0
 21
1038.577362
 31
0.0
  0
LINE
  5
2A8
330
1F
100
AcDbEntity
  8
Ｓ_１_１
  6
CONTINUOUS
 62
     3
100
AcDbLine
 10
1497.0
 20
1049.922668
 30
0.0
 11
1505.0
 21
1049.922668
 31
0.0
  0
LINE
  5
2A9
330
1F
100
AcDbEntity
  8
Ｓ_１_１
  6
CONTINUOUS
 62
     3
100
AcDbLine
 10
1497.0
 20
1066.077362
 30
0.0
 11
1523.0
 21
1066.077362
 31
0.0
  0
LINE
  5
2AA
330
1F
100
AcDbEntity
  8
Ｓ_１_１
  6
CONTINUOUS
 62
     3
100
AcDbLine
 10
1496.99999
 20
1066.077362
 30
0.0
 11
1497.999997
 21
1065.500007
 31
0.0
  0
LINE
  5
2AB
330
1F
100
AcDbEntity
  8
Ｓ_１_１
  6
CONTINUOUS
 62
     3
100
AcDbLine
 10
1521.999992
 20
1050.500003
 30
0.0
 11
1522.999999
 21
1049.922649
 31
0.0
  0
LINE
  5
2AC
330
1F
100
AcDbEntity
  8
Ｓ_１_１
  6
CONTINUOUS
 62
     3
100
AcDbLine
 10
1496.999987
 20
1038.577357
 30
0.0
 11
1497.999981
 21
1038.00001
 31
0.0
  0
LINE
  5
2AD
330
1F
100
AcDbEntity
  8
Ｓ_１_１
  6
CONTINUOUS
 62
     3
100
AcDbLine
 10
1522.000006
 20
1065.500027
 30
0.0
 11
1523.0
 21
1066.077373
 31
0.0
  0
LINE
  5
2AE
330
1F
100
AcDbEntity
  8
Ｓ_１_１
  6
CONTINUOUS
 62
     3
100
AcDbLine
 10
1496.999997
 20
1049.922664
 30
0.0
 11
1497.999991
 21
1050.500011
 31
0.0
  0
LINE
  5
2AF
330
1F
100
AcDbEntity
  8
Ｓ_１_１
  6
CONTINUOUS
 62
     3
100
AcDbLine
 10
1521.999989
 20
1038.00001
 30
0.0
 11
1522.999996
 21
1038.577365
 31
0.0
  0
LINE
  5
2B0
330
1F
100
AcDbEntity
  8
Ｓ_１_１
  6
CONTINUOUS
 62
     3
100
AcDbLine
 10
1515.0
 20
1049.922668
 30
0.0
 11
1515.0
 21
1038.577362
 31
0.0
  0
LINE
  5
2B1
330
1F
100
AcDbEntity
  8
Ｓ_１_１
  6
CONTINUOUS
 62
     3
100
AcDbLine
 10
1505.0
 20
1049.922668
 30
0.0
 11
1505.0
 21
1038.577362
 31
0.0
  0
LINE
  5
2B2
330
1F
100
AcDbEntity
  8
Ｓ_１_１
  6
CONTINUOUS
 62
     3
100
AcDbLine
 10
1511.749987
 20
1073.681738
 30
0.0
 11
1511.854906
 21
1073.500012
 31
0.0
  0
LINE
  5
2B3
330
1F
100
AcDbEntity
  8
Ｓ_１_１
  6
CONTINUOUS
 62
     3
100
AcDbLine
 10
1511.75
 20
1073.500031
 30
0.0
 11
1526.0
 21
1073.500031
 31
0.0
  0
LINE
  5
2B4
330
1F
100
AcDbEntity
  8
Ｓ_１_１
  6
CONTINUOUS
 62
     3
100
AcDbLine
 10
1511.75
 20
1073.000031
 30
0.0
 11
1525.5
 21
1073.000031
 31
0.0
  0
LINE
  5
2B5
330
1F
100
AcDbEntity
  8
Ｓ_１_１
  6
CONTINUOUS
 62
     3
100
AcDbLine
 10
1508.25
 20
1076.500031
 30
0.0
 11
1511.75
 21
1076.500031
 31
0.0
  0
LINE
  5
2B6
330
1F
100
AcDbEntity
  8
Ｓ_１_１
  6
CONTINUOUS
 62
     3
100
AcDbLine
 10
1508.25
 20
1076.500031
 30
0.0
 11
1508.25
 21
1073.000031
 31
0.0
  0
LINE
  5
2B7
330
1F
100
AcDbEntity
  8
Ｓ_１_１
  6
CONTINUOUS
 62
     3
100
AcDbLine
 10
1511.75
 20
1076.500031
 30
0.0
 11
1511.75
 21
1073.000031
 31
0.0
  0
LINE
  5
2B8
330
1F
100
AcDbEntity
  8
Ｓ_１_１
  6
CONTINUOUS
 62
     3
100
AcDbLine
 10
1494.499994
 20
1070.500011
 30
0.0
 11
1494.999995
 21
1070.000011
 31
0.0
  0
LINE
  5
2B9
330
1F
100
AcDbEntity
  8
Ｓ_１_１
  6
CONTINUOUS
 62
     3
100
AcDbLine
 10
1494.499994
 20
1071.500012
 30
0.0
 11
1494.999995
 21
1072.000013
 31
0.0
  0
LINE
  5
2BA
330
1F
100
AcDbEntity
  8
Ｓ_１_１
  6
CONTINUOUS
 62
     3
100
AcDbLine
 10
1524.999984
 20
1070.000011
 30
0.0
 11
1525.499974
 21
1070.5
 31
0.0
  0
LINE
  5
2BB
330
1F
100
AcDbEntity
  8
Ｓ_１_１
  6
CONTINUOUS
 62
     3
100
AcDbLine
 10
1524.999984
 20
1072.000013
 30
0.0
 11
1525.499984
 21
1071.500012
 31
0.0
  0
LINE
  5
2BC
330
1F
100
AcDbEntity
  8
Ｓ_１_１
  6
CONTINUOUS
 62
     3
100
AcDbLine
 10
1523.0
 20
1070.000031
 30
0.0
 11
1525.0
 21
1070.000031
 31
0.0
  0
LINE
  5
2BD
330
1F
100
AcDbEntity
  8
Ｓ_１_１
  6
CONTINUOUS
 62
     3
100
AcDbLine
 10
1523.0
 20
1072.000031
 30
0.0
 11
1525.0
 21
1072.000031
 31
0.0
  0
LINE
  5
2BE
330
1F
100
AcDbEntity
  8
Ｓ_１_１
  6
CONTINUOUS
 62
     3
100
AcDbLine
 10
1495.0
 20
1072.000031
 30
0.0
 11
1497.0
 21
1072.000031
 31
0.0
  0
LINE
  5
2BF
330
1F
100
AcDbEntity
  8
Ｓ_１_１
  6
CONTINUOUS
 62
     3
100
AcDbLine
 10
1495.0
 20
1070.000031
 30
0.0
 11
1497.0
 21
1070.000031
 31
0.0
  0
LINE
  5
2C0
330
1F
100
AcDbEntity
  8
Ｓ_１_１
  6
CONTINUOUS
 62
     3
100
AcDbLine
 10
1494.5
 20
1071.500031
 30
0.0
 11
1494.5
 21
1070.500031
 31
0.0
  0
LINE
  5
2C1
330
1F
100
AcDbEntity
  8
Ｓ_１_１
  6
CONTINUOUS
 62
     3
100
AcDbLine
 10
1525.5
 20
1071.500031
 30
0.0
 11
1525.5
 21
1070.500031
 31
0.0
  0
LINE
  5
2C2
330
1F
100
AcDbEntity
  8
Ｓ_１_１
  6
CONTINUOUS
 62
     3
100
AcDbLine
 10
1508.145078
 20
1073.50002
 30
0.0
 11
1508.249997
 21
1073.681746
 31
0.0
  0
LINE
  5
2C3
330
1F
100
AcDbEntity
  8
Ｓ_１_１
  6
CONTINUOUS
 62
     3
100
AcDbLine
 10
1494.0
 20
1097.000031
 30
0.0
 11
1526.0
 21
1097.000031
 31
0.0
  0
LINE
  5
2C4
330
1F
100
AcDbEntity
  8
Ｓ_１_１
  6
CONTINUOUS
 62
     3
100
AcDbLine
 10
1494.0
 20
1089.500031
 30
0.0
 11
1526.0
 21
1089.500031
 31
0.0
  0
LINE
  5
2C5
330
1F
100
AcDbEntity
  8
Ｓ_１_１
  6
CONTINUOUS
 62
     3
100
AcDbLine
 10
1494.0
 20
1073.500031
 30
0.0
 11
1508.25
 21
1073.500031
 31
0.0
  0
LINE
  5
2C6
330
1F
100
AcDbEntity
  8
Ｓ_１_１
  6
CONTINUOUS
 62
     3
100
AcDbLine
 10
1526.0
 20
1080.500031
 30
0.0
 11
1494.0
 21
1080.500031
 31
0.0
  0
LINE
  5
2C7
330
1F
100
AcDbEntity
  8
Ｓ_１_１
  6
CONTINUOUS
 62
     3
100
AcDbLine
 10
1525.500007
 20
1073.000014
 30
0.0
 11
1525.999996
 21
1073.500003
 31
0.0
  0
LINE
  5
2C8
330
1F
100
AcDbEntity
  8
Ｓ_１_１
  6
CONTINUOUS
 62
     3
100
AcDbLine
 10
1494.000004
 20
1073.500024
 30
0.0
 11
1494.500004
 21
1073.000024
 31
0.0
  0
LINE
  5
2C9
330
1F
100
AcDbEntity
  8
Ｓ_１_１
  6
CONTINUOUS
 62
     3
100
AcDbLine
 10
1526.0
 20
1080.500031
 30
0.0
 11
1526.0
 21
1073.500031
 31
0.0
  0
LINE
  5
2CA
330
1F
100
AcDbEntity
  8
Ｓ_１_１
  6
CONTINUOUS
 62
     3
100
AcDbLine
 10
1494.0
 20
1080.500031
 30
0.0
 11
1494.0
 21
1073.500031
 31
0.0
  0
LINE
  5
2CB
330
1F
100
AcDbEntity
  8
Ｓ_１_１
  6
CONTINUOUS
 62
     3
100
AcDbLine
 10
1494.000003
 20
1089.50002
 30
0.0
 11
1494.500003
 21
1089.000019
 31
0.0
  0
LINE
  5
2CC
330
1F
100
AcDbEntity
  8
Ｓ_１_１
  6
CONTINUOUS
 62
     3
100
AcDbLine
 10
1525.500005
 20
1081.000023
 30
0.0
 11
1526.000005
 21
1080.500022
 31
0.0
  0
LINE
  5
2CD
330
1F
100
AcDbEntity
  8
Ｓ_１_１
  6
CONTINUOUS
 62
     3
100
AcDbLine
 10
1525.499986
 20
1089.000009
 30
0.0
 11
1525.999997
 21
1089.500021
 31
0.0
  0
LINE
  5
2CE
330
1F
100
AcDbEntity
  8
Ｓ_１_１
  6
CONTINUOUS
 62
     3
100
AcDbLine
 10
1493.999995
 20
1080.500002
 30
0.0
 11
1494.500006
 21
1081.000013
 31
0.0
  0
LINE
  5
2CF
330
1F
100
AcDbEntity
  8
Ｓ_１_１
  6
CONTINUOUS
 62
     3
100
AcDbLine
 10
1494.5
 20
1089.000031
 30
0.0
 11
1525.5
 21
1089.000031
 31
0.0
  0
LINE
  5
2D0
330
1F
100
AcDbEntity
  8
Ｓ_１_１
  6
CONTINUOUS
 62
     3
100
AcDbLine
 10
1494.5
 20
1081.000031
 30
0.0
 11
1525.5
 21
1081.000031
 31
0.0
  0
LINE
  5
2D1
330
1F
100
AcDbEntity
  8
Ｓ_１_１
  6
CONTINUOUS
 62
     3
100
AcDbLine
 10
1525.5
 20
1089.000031
 30
0.0
 11
1525.5
 21
1081.000031
 31
0.0
  0
LINE
  5
2D2
330
1F
100
AcDbEntity
  8
Ｓ_１_１
  6
CONTINUOUS
 62
     3
100
AcDbLine
 10
1494.5
 20
1089.000031
 30
0.0
 11
1494.5
 21
1081.000031
 31
0.0
  0
LINE
  5
2D3
330
1F
100
AcDbEntity
  8
Ｓ_１_１
  6
CONTINUOUS
 62
     3
100
AcDbLine
 10
1522.999992
 20
1100.000032
 30
0.0
 11
1525.999996
 21
1097.000029
 31
0.0
  0
LINE
  5
2D4
330
1F
100
AcDbEntity
  8
Ｓ_１_１
  6
CONTINUOUS
 62
     3
100
AcDbLine
 10
1496.999975
 20
1100.000022
 30
0.0
 11
1493.999994
 21
1097.00004
 31
0.0
  0
LINE
  5
2D5
330
1F
100
AcDbEntity
  8
Ｓ_１_１
  6
CONTINUOUS
 62
     3
100
AcDbLine
 10
1498.0
 20
1065.500031
 30
0.0
 11
1498.0
 21
1050.500015
 31
0.0
  0
LINE
  5
2D6
330
1F
100
AcDbEntity
  8
Ｓ_１_１
  6
CONTINUOUS
 62
     3
100
AcDbLine
 10
1522.0
 20
1065.500031
 30
0.0
 11
1522.0
 21
1050.500015
 31
0.0
  0
LINE
  5
2D7
330
1F
100
AcDbEntity
  8
Ｓ_１_１
  6
CONTINUOUS
 62
     3
100
AcDbLine
 10
1497.0
 20
1100.000031
 30
0.0
 11
1523.0
 21
1100.000031
 31
0.0
  0
LINE
  5
2D8
330
1F
100
AcDbEntity
  8
Ｓ_１_１
  6
CONTINUOUS
 62
     3
100
AcDbLine
 10
1526.0
 20
1097.000031
 30
0.0
 11
1526.0
 21
1089.500031
 31
0.0
  0
LINE
  5
2D9
330
1F
100
AcDbEntity
  8
Ｓ_１_１
  6
CONTINUOUS
 62
     3
100
AcDbLine
 10
1494.0
 20
1097.000031
 30
0.0
 11
1494.0
 21
1089.500031
 31
0.0
  0
LINE
  5
2DA
330
1F
100
AcDbEntity
  8
Ｓ_１_１
  6
CONTINUOUS
 62
     3
100
AcDbLine
 10
1523.0
 20
1049.922653
 30
0.0
 11
1523.0
 21
1038.577362
 31
0.0
  0
LINE
  5
2DB
330
1F
100
AcDbEntity
  8
Ｓ_１_１
  6
CONTINUOUS
 62
     3
100
AcDbLine
 10
1497.0
 20
1049.922668
 30
0.0
 11
1497.0
 21
1038.577362
 31
0.0
  0
LINE
  5
2DC
330
1F
100
AcDbEntity
  8
Ｓ_１_１
  6
CONTINUOUS
 62
     3
100
AcDbLine
 10
1522.0
 20
1100.500031
 30
0.0
 11
1522.0
 21
1100.000031
 31
0.0
  0
LINE
  5
2DD
330
1F
100
AcDbEntity
  8
Ｓ_１_１
  6
CONTINUOUS
 62
     3
100
AcDbLine
 10
1498.0
 20
1100.500031
 30
0.0
 11
1498.0
 21
1100.000031
 31
0.0
  0
LINE
  5
2DE
330
1F
100
AcDbEntity
  8
Ｓ_１_１
  6
CONTINUOUS
 62
     3
100
AcDbLine
 10
1497.0
 20
1073.000031
 30
0.0
 11
1497.0
 21
1066.077362
 31
0.0
  0
LINE
  5
2DF
330
1F
100
AcDbEntity
  8
Ｓ_１_１
  6
CONTINUOUS
 62
     3
100
AcDbLine
 10
1523.0
 20
1073.000031
 30
0.0
 11
1523.0
 21
1066.077362
 31
0.0
  0
LINE
  5
2E0
330
1F
100
AcDbEntity
  8
Ｓ_１_１
  6
CONTINUOUS
 62
     3
100
AcDbLine
 10
1494.5
 20
1073.000031
 30
0.0
 11
1508.25
 21
1073.000031
 31
0.0
  0
LINE
  5
2E1
330
1F
100
AcDbEntity
  8
Ｓ_１_１
  6
CONTINUOUS
 62
     3
100
AcDbLine
 10
1498.0
 20
1065.500031
 30
0.0
 11
1521.999992
 21
1065.500031
 31
0.0
  0
LINE
  5
2E2
330
1F
100
AcDbEntity
  8
Ｓ_１_１
  6
CONTINUOUS
 62
     3
100
AcDbLine
 10
1497.999992
 20
1050.500015
 30
0.0
 11
1521.999985
 21
1050.500015
 31
0.0
  0
LINE
  5
2E3
330
1F
100
AcDbEntity
  8
Ｓ_１_１
  6
CONTINUOUS
 62
     3
100
AcDbLine
 10
1498.0
 20
1100.500031
 30
0.0
 11
1522.0
 21
1100.500031
 31
0.0
  0
LINE
  5
2E4
330
1F
100
AcDbEntity
  8
Ｓ_１_１
  6
CONTINUOUS
 62
     3
100
AcDbLine
 10
1523.499991
 20
1020.500015
 30
0.0
 11
1525.58845
 21
1021.705787
 31
0.0
  0
LINE
  5
2E5
330
1F
100
AcDbEntity
  8
Ｓ_１_１
  6
CONTINUOUS
 62
     3
100
AcDbLine
 10
1496.5
 20
1020.50002
 30
0.0
 11
1494.411541
 21
1021.705793
 31
0.0
  0
LINE
  5
2E6
330
1F
100
AcDbEntity
  8
Ｓ_１_１
  6
CONTINUOUS
 62
     3
100
AcDbLine
 10
1525.588455
 20
1029.29425
 30
0.0
 11
1525.588455
 21
1021.70578
 31
0.0
  0
LINE
  5
2E7
330
1F
100
AcDbEntity
  8
Ｓ_１_１
  6
CONTINUOUS
 62
     3
100
AcDbLine
 10
1062.101369
 20
840.9000049999997
 30
0.0
 11
1054.999977
 21
836.8000139999997
 31
0.0
  0
LINE
  5
2E8
330
1F
100
AcDbEntity
  8
Ｓ_１_１
  6
CONTINUOUS
 62
     3
100
AcDbLine
 10
1062.101379
 20
849.1000019999999
 30
0.0
 11
1062.101379
 21
840.9000019999999
 31
0.0
  0
LINE
  5
2E9
330
1F
100
AcDbEntity
  8
Ｓ_１_１
  6
CONTINUOUS
 62
     3
100
AcDbLine
 10
1055.000075
 20
853.2000449999998
 30
0.0
 11
1062.101521
 21
849.1000249999997
 31
0.0
  0
LINE
  5
2EA
330
1F
100
AcDbEntity
  8
Ｓ_１_１
  6
CONTINUOUS
 62
     3
100
AcDbLine
 10
1047.898592
 20
849.1000309999997
 30
0.0
 11
1054.999958
 21
853.2000069999996
 31
0.0
  0
LINE
  5
2EB
330
1F
100
AcDbEntity
  8
Ｓ_１_１
  6
CONTINUOUS
 62
     3
100
AcDbLine
 10
1047.89856
 20
840.8999899999995
 30
0.0
 11
1047.89856
 21
849.0999979999999
 31
0.0
  0
LINE
  5
2EC
330
1F
100
AcDbEntity
  8
Ｓ_１_１
  6
CONTINUOUS
 62
     3
100
AcDbLine
 10
1055.000043
 20
836.8000799999996
 30
0.0
 11
1047.898649
 21
840.9000689999997
 31
0.0
  0
LINE
  5
2ED
330
1F
100
AcDbEntity
  8
Ｓ_１_１
  6
CONTINUOUS
 62
     3
100
AcDbLine
 10
1152.1014
 20
840.9000359999998
 30
0.0
 11
1144.999982
 21
836.8000289999998
 31
0.0
  0
LINE
  5
2EE
330
1F
100
AcDbEntity
  8
Ｓ_１_１
  6
CONTINUOUS
 62
     3
100
AcDbLine
 10
1152.101379
 20
849.1000019999999
 30
0.0
 11
1152.101379
 21
840.9000019999999
 31
0.0
  0
LINE
  5
2EF
330
1F
100
AcDbEntity
  8
Ｓ_１_１
  6
CONTINUOUS
 62
     3
100
AcDbLine
 10
1145.00003
 20
853.2000409999998
 30
0.0
 11
1152.101476
 21
849.1000219999999
 31
0.0
  0
LINE
  5
2F0
330
1F
100
AcDbEntity
  8
Ｓ_１_１
  6
CONTINUOUS
 62
     3
100
AcDbLine
 10
1137.898601
 20
849.0999779999996
 30
0.0
 11
1145.000045
 21
853.1999999999998
 31
0.0
  0
LINE
  5
2F1
330
1F
100
AcDbEntity
  8
Ｓ_１_１
  6
CONTINUOUS
 62
     3
100
AcDbLine
 10
1137.89856
 20
840.8999899999995
 30
0.0
 11
1137.89856
 21
849.0999979999999
 31
0.0
  0
LINE
  5
2F2
330
1F
100
AcDbEntity
  8
Ｓ_１_１
  6
CONTINUOUS
 62
     3
100
AcDbLine
 10
1145.000062
 20
836.8000039999997
 30
0.0
 11
1137.898615
 21
840.9000239999998
 31
0.0
  0
LINE
  5
2F3
330
1F
100
AcDbEntity
  8
Ｓ_１_１
  6
CONTINUOUS
 62
     3
100
AcDbLine
 10
1040.0
 20
859.9999889999996
 30
0.0
 11
1160.0
 21
859.9999889999996
 31
0.0
  0
LINE
  5
2F4
330
1F
100
AcDbEntity
  8
Ｓ_１_１
  6
CONTINUOUS
 62
     3
100
AcDbLine
 10
1420.0
 20
859.9999889999996
 30
0.0
 11
1539.999985
 21
859.9999889999996
 31
0.0
  0
LINE
  5
2F5
330
1F
100
AcDbEntity
  8
Ｓ_１_１
  6
CONTINUOUS
 62
     3
100
AcDbLine
 10
1532.101405
 20
840.8999989999998
 30
0.0
 11
1525.000001
 21
836.7999959999997
 31
0.0
  0
LINE
  5
2F6
330
1F
100
AcDbEntity
  8
Ｓ_１_１
  6
CONTINUOUS
 62
     3
100
AcDbLine
 10
1532.10141
 20
849.1000019999999
 30
0.0
 11
1532.10141
 21
840.9000019999999
 31
0.0
  0
LINE
  5
2F7
330
1F
100
AcDbEntity
  8
Ｓ_１_１
  6
CONTINUOUS
 62
     3
100
AcDbLine
 10
1524.99998
 20
853.1999739999999
 30
0.0
 11
1532.101392
 21
849.0999739999996
 31
0.0
  0
LINE
  5
2F8
330
1F
100
AcDbEntity
  8
Ｓ_１_１
  6
CONTINUOUS
 62
     3
100
AcDbLine
 10
1517.898583
 20
849.0999989999998
 30
0.0
 11
1524.999982
 21
853.1999949999996
 31
0.0
  0
LINE
  5
2F9
330
1F
100
AcDbEntity
  8
Ｓ_１_１
  6
CONTINUOUS
 62
     3
100
AcDbLine
 10
1517.898575
 20
840.8999899999995
 30
0.0
 11
1517.898575
 21
849.0999979999999
 31
0.0
  0
LINE
  5
2FA
330
1F
100
AcDbEntity
  8
Ｓ_１_１
  6
CONTINUOUS
 62
     3
100
AcDbLine
 10
1524.999979
 20
836.7999929999999
 30
0.0
 11
1517.898563
 21
840.8999909999998
 31
0.0
  0
LINE
  5
2FB
330
1F
100
AcDbEntity
  8
Ｓ_１_１
  6
CONTINUOUS
 62
     3
100
AcDbLine
 10
1442.101394
 20
840.9000099999998
 30
0.0
 11
1434.99999
 21
836.8000079999997
 31
0.0
  0
LINE
  5
2FC
330
1F
100
AcDbEntity
  8
Ｓ_１_１
  6
CONTINUOUS
 62
     3
100
AcDbLine
 10
1442.101425
 20
849.1000019999999
 30
0.0
 11
1442.101425
 21
840.9000019999999
 31
0.0
  0
LINE
  5
2FD
330
1F
100
AcDbEntity
  8
Ｓ_１_１
  6
CONTINUOUS
 62
     3
100
AcDbLine
 10
1434.999999
 20
853.2000129999999
 30
0.0
 11
1442.101412
 21
849.1000119999995
 31
0.0
  0
LINE
  5
2FE
330
1F
100
AcDbEntity
  8
Ｓ_１_１
  6
CONTINUOUS
 62
     3
100
AcDbLine
 10
1427.898591
 20
849.1000009999998
 30
0.0
 11
1435.000002
 21
853.2000039999998
 31
0.0
  0
LINE
  5
2FF
330
1F
100
AcDbEntity
  8
Ｓ_１_１
  6
CONTINUOUS
 62
     3
100
AcDbLine
 10
1427.898621
 20
840.8999899999995
 30
0.0
 11
1427.898621
 21
849.0999979999999
 31
0.0
  0
LINE
  5
300
330
1F
100
AcDbEntity
  8
Ｓ_１_１
  6
CONTINUOUS
 62
     3
100
AcDbLine
 10
1435.000003
 20
836.7999999999997
 30
0.0
 11
1427.898589
 21
840.8999999999999
 31
0.0
  0
LINE
  5
301
330
1F
100
AcDbEntity
  8
Ｓ_１_１
  6
CONTINUOUS
 62
     3
100
AcDbLine
 10
1050.0
 20
814.9999919999998
 30
0.0
 11
1150.000031
 21
814.9999919999998
 31
0.0
  0
LINE
  5
302
330
1F
100
AcDbEntity
  8
Ｓ_１_１
  6
CONTINUOUS
 62
     3
100
AcDbLine
 10
1430.0
 20
814.9999919999998
 30
0.0
 11
1530.0
 21
814.9999919999998
 31
0.0
  0
LINE
  5
303
330
1F
100
AcDbEntity
  8
Ｓ_１_１
  6
CONTINUOUS
 62
     3
100
AcDbLine
 10
1420.0
 20
864.4000019999996
 30
0.0
 11
1539.999985
 21
864.4000019999996
 31
0.0
  0
LINE
  5
304
330
1F
100
AcDbEntity
  8
Ｓ_１_１
  6
CONTINUOUS
 62
     3
100
AcDbLine
 10
1040.0
 20
864.4000019999996
 30
0.0
 11
1160.0
 21
864.4000019999996
 31
0.0
  0
LINE
  5
305
330
1F
100
AcDbEntity
  8
Ｓ_１_１
  6
CONTINUOUS
 62
     3
100
AcDbLine
 10
1600.000097
 20
1007.500034
 30
0.0
 11
1595.00011
 21
1012.500037
 31
0.0
  0
LINE
  5
306
330
1F
100
AcDbEntity
  8
Ｓ_１_１
  6
CONTINUOUS
 62
     3
100
AcDbLine
 10
980.0000219999998
 20
1007.499933
 30
0.0
 11
985.000049
 21
1012.499959
 31
0.0
  0
LINE
  5
307
330
1F
100
AcDbEntity
  8
Ｓ_１_１
  6
CONTINUOUS
 62
     3
100
AcDbLine
 10
985.0
 20
1012.500015
 30
0.0
 11
1595.000015
 21
1012.500015
 31
0.0
  0
LINE
  5
308
330
1F
100
AcDbEntity
  8
Ｓ_１_１
  6
CONTINUOUS
 62
     3
100
AcDbLine
 10
974.0000620000001
 20
944.9999919999997
 30
0.0
 11
970.0000799999999
 21
942.6906159999995
 31
0.0
  0
LINE
  5
309
330
1F
100
AcDbEntity
  8
Ｓ_１_１
  6
CONTINUOUS
 62
     3
100
AcDbLine
 10
973.9999999999999
 20
944.9999849999997
 30
0.0
 11
979.9999999999999
 21
944.9999849999997
 31
0.0
  0
LINE
  5
30A
330
1F
100
AcDbEntity
  8
Ｓ_１_１
  6
CONTINUOUS
 62
     3
100
AcDbLine
 10
1160.0
 20
587.4999999999998
 30
0.0
 11
1420.0
 21
587.4999999999998
 31
0.0
  0
LINE
  5
30B
330
1F
100
AcDbEntity
  8
Ｓ_１_１
  6
CONTINUOUS
 62
     3
100
AcDbLine
 10
1539.999985
 20
587.4999999999998
 30
0.0
 11
1595.000015
 21
587.4999999999998
 31
0.0
  0
LINE
  5
30C
330
1F
100
AcDbEntity
  8
Ｓ_１_１
  6
CONTINUOUS
 62
     3
100
AcDbLine
 10
1420.0
 20
597.4999999999998
 30
0.0
 11
1539.999985
 21
597.4999999999998
 31
0.0
  0
LINE
  5
30D
330
1F
100
AcDbEntity
  8
Ｓ_１_１
  6
CONTINUOUS
 62
     3
100
AcDbLine
 10
1040.0
 20
597.4999999999998
 30
0.0
 11
1160.0
 21
597.4999999999998
 31
0.0
  0
LINE
  5
30E
330
1F
100
AcDbEntity
  8
Ｓ_１_１
  6
CONTINUOUS
 62
     3
100
AcDbLine
 10
1420.0
 20
597.4999999999998
 30
0.0
 11
1420.0
 21
587.4999999999998
 31
0.0
  0
LINE
  5
30F
330
1F
100
AcDbEntity
  8
Ｓ_１_１
  6
CONTINUOUS
 62
     3
100
AcDbLine
 10
1539.999969
 20
597.4999999999998
 30
0.0
 11
1539.999969
 21
587.4999999999998
 31
0.0
  0
LINE
  5
310
330
1F
100
AcDbEntity
  8
Ｓ_１_１
  6
CONTINUOUS
 62
     3
100
AcDbLine
 10
1160.0
 20
597.4999999999998
 30
0.0
 11
1160.0
 21
587.4999999999998
 31
0.0
  0
LINE
  5
311
330
1F
100
AcDbEntity
  8
Ｓ_１_１
  6
CONTINUOUS
 62
     3
100
AcDbLine
 10
1040.0
 20
597.4999999999998
 30
0.0
 11
1040.0
 21
587.4999999999998
 31
0.0
  0
LINE
  5
312
330
1F
100
AcDbEntity
  8
Ｓ_１_１
  6
CONTINUOUS
 62
     3
100
AcDbLine
 10
1062.101369
 20
759.0999949999998
 30
0.0
 11
1054.999977
 21
763.1999859999999
 31
0.0
  0
LINE
  5
313
330
1F
100
AcDbEntity
  8
Ｓ_１_１
  6
CONTINUOUS
 62
     3
100
AcDbLine
 10
1062.101379
 20
750.8999979999996
 30
0.0
 11
1062.101379
 21
759.0999979999997
 31
0.0
  0
LINE
  5
314
330
1F
100
AcDbEntity
  8
Ｓ_１_１
  6
CONTINUOUS
 62
     3
100
AcDbLine
 10
1055.000048
 20
746.7999399999997
 30
0.0
 11
1062.101495
 21
750.8999589999999
 31
0.0
  0
LINE
  5
315
330
1F
100
AcDbEntity
  8
Ｓ_１_１
  6
CONTINUOUS
 62
     3
100
AcDbLine
 10
1047.898566
 20
750.8999849999998
 30
0.0
 11
1054.999958
 21
746.7999929999999
 31
0.0
  0
LINE
  5
316
330
1F
100
AcDbEntity
  8
Ｓ_１_１
  6
CONTINUOUS
 62
     3
100
AcDbLine
 10
1047.89856
 20
759.1000099999999
 30
0.0
 11
1047.89856
 21
750.9000019999999
 31
0.0
  0
LINE
  5
317
330
1F
100
AcDbEntity
  8
Ｓ_１_１
  6
CONTINUOUS
 62
     3
100
AcDbLine
 10
1055.00008
 20
763.1999769999998
 30
0.0
 11
1047.898607
 21
759.0999419999998
 31
0.0
  0
LINE
  5
318
330
1F
100
AcDbEntity
  8
Ｓ_１_１
  6
CONTINUOUS
 62
     3
100
AcDbLine
 10
1152.101389
 20
759.1000059999999
 30
0.0
 11
1144.999997
 21
763.1999979999998
 31
0.0
  0
LINE
  5
319
330
1F
100
AcDbEntity
  8
Ｓ_１_１
  6
CONTINUOUS
 62
     3
100
AcDbLine
 10
1152.101379
 20
750.8999979999996
 30
0.0
 11
1152.101379
 21
759.0999979999997
 31
0.0
  0
LINE
  5
31A
330
1F
100
AcDbEntity
  8
Ｓ_１_１
  6
CONTINUOUS
 62
     3
100
AcDbLine
 10
1145.00003
 20
746.7999589999997
 30
0.0
 11
1152.101476
 21
750.8999779999997
 31
0.0
  0
LINE
  5
31B
330
1F
100
AcDbEntity
  8
Ｓ_１_１
  6
CONTINUOUS
 62
     3
100
AcDbLine
 10
1137.898627
 20
750.9000069999997
 30
0.0
 11
1145.000045
 21
746.7999999999997
 31
0.0
  0
LINE
  5
31C
330
1F
100
AcDbEntity
  8
Ｓ_１_１
  6
CONTINUOUS
 62
     3
100
AcDbLine
 10
1137.89856
 20
759.1000099999999
 30
0.0
 11
1137.89856
 21
750.9000019999999
 31
0.0
  0
LINE
  5
31D
330
1F
100
AcDbEntity
  8
Ｓ_１_１
  6
CONTINUOUS
 62
     3
100
AcDbLine
 10
1145.00005
 20
763.1999539999997
 30
0.0
 11
1137.898604
 21
759.0999349999997
 31
0.0
  0
LINE
  5
31E
330
1F
100
AcDbEntity
  8
Ｓ_１_１
  6
CONTINUOUS
 62
     3
100
AcDbLine
 10
1040.0
 20
739.9999999999998
 30
0.0
 11
1160.0
 21
739.9999999999998
 31
0.0
  0
LINE
  5
31F
330
1F
100
AcDbEntity
  8
Ｓ_１_１
  6
CONTINUOUS
 62
     3
100
AcDbLine
 10
1420.0
 20
739.9999999999998
 30
0.0
 11
1539.999985
 21
739.9999999999998
 31
0.0
  0
LINE
  5
320
330
1F
100
AcDbEntity
  8
Ｓ_１_１
  6
CONTINUOUS
 62
     3
100
AcDbLine
 10
1532.101405
 20
759.1000009999998
 30
0.0
 11
1525.000001
 21
763.2000039999998
 31
0.0
  0
LINE
  5
321
330
1F
100
AcDbEntity
  8
Ｓ_１_１
  6
CONTINUOUS
 62
     3
100
AcDbLine
 10
1532.10141
 20
750.8999979999996
 30
0.0
 11
1532.10141
 21
759.0999979999997
 31
0.0
  0
LINE
  5
322
330
1F
100
AcDbEntity
  8
Ｓ_１_１
  6
CONTINUOUS
 62
     3
100
AcDbLine
 10
1524.999976
 20
746.8000319999999
 30
0.0
 11
1532.101389
 21
750.9000319999998
 31
0.0
  0
LINE
  5
323
330
1F
100
AcDbEntity
  8
Ｓ_１_１
  6
CONTINUOUS
 62
     3
100
AcDbLine
 10
1517.898585
 20
750.9000039999999
 30
0.0
 11
1524.999984
 21
746.8000089999998
 31
0.0
  0
LINE
  5
324
330
1F
100
AcDbEntity
  8
Ｓ_１_１
  6
CONTINUOUS
 62
     3
100
AcDbLine
 10
1517.898575
 20
759.1000099999999
 30
0.0
 11
1517.898575
 21
750.9000019999999
 31
0.0
  0
LINE
  5
325
330
1F
100
AcDbEntity
  8
Ｓ_１_１
  6
CONTINUOUS
 62
     3
100
AcDbLine
 10
1524.999985
 20
763.2000109999997
 30
0.0
 11
1517.898563
 21
759.1000089999998
 31
0.0
  0
LINE
  5
326
330
1F
100
AcDbEntity
  8
Ｓ_１_１
  6
CONTINUOUS
 62
     3
100
AcDbLine
 10
1442.101397
 20
759.0999879999997
 30
0.0
 11
1434.99999
 21
763.1999919999998
 31
0.0
  0
LINE
  5
327
330
1F
100
AcDbEntity
  8
Ｓ_１_１
  6
CONTINUOUS
 62
     3
100
AcDbLine
 10
1442.101425
 20
750.8999979999996
 30
0.0
 11
1442.101425
 21
759.0999979999997
 31
0.0
  0
LINE
  5
328
330
1F
100
AcDbEntity
  8
Ｓ_１_１
  6
CONTINUOUS
 62
     3
100
AcDbLine
 10
1435.000006
 20
746.7999909999999
 30
0.0
 11
1442.101412
 21
750.8999879999999
 31
0.0
  0
LINE
  5
329
330
1F
100
AcDbEntity
  8
Ｓ_１_１
  6
CONTINUOUS
 62
     3
100
AcDbLine
 10
1427.898587
 20
750.8999929999998
 30
0.0
 11
1434.999998
 21
746.7999889999999
 31
0.0
  0
LINE
  5
32A
330
1F
100
AcDbEntity
  8
Ｓ_１_１
  6
CONTINUOUS
 62
     3
100
AcDbLine
 10
1427.898621
 20
759.1000099999999
 30
0.0
 11
1427.898621
 21
750.9000019999999
 31
0.0
  0
LINE
  5
32B
330
1F
100
AcDbEntity
  8
Ｓ_１_１
  6
CONTINUOUS
 62
     3
100
AcDbLine
 10
1435.000003
 20
763.1999999999998
 30
0.0
 11
1427.898589
 21
759.0999999999997
 31
0.0
  0
LINE
  5
32C
330
1F
100
AcDbEntity
  8
Ｓ_１_１
  6
CONTINUOUS
 62
     3
100
AcDbLine
 10
1430.0
 20
784.9999999999998
 30
0.0
 11
1430.0
 21
814.9999999999998
 31
0.0
  0
LINE
  5
32D
330
1F
100
AcDbEntity
  8
Ｓ_１_１
  6
CONTINUOUS
 62
     3
100
AcDbLine
 10
1050.0
 20
784.9999999999998
 30
0.0
 11
1050.0
 21
814.9999999999998
 31
0.0
  0
LINE
  5
32E
330
1F
100
AcDbEntity
  8
Ｓ_１_１
  6
CONTINUOUS
 62
     3
100
AcDbLine
 10
1050.0
 20
784.9999999999998
 30
0.0
 11
1150.000031
 21
784.9999999999998
 31
0.0
  0
LINE
  5
32F
330
1F
100
AcDbEntity
  8
Ｓ_１_１
  6
CONTINUOUS
 62
     3
100
AcDbLine
 10
1430.0
 20
784.9999999999998
 30
0.0
 11
1530.0
 21
784.9999999999998
 31
0.0
  0
LINE
  5
330
330
1F
100
AcDbEntity
  8
Ｓ_１_１
  6
CONTINUOUS
 62
     3
100
AcDbLine
 10
1150.000031
 20
814.9999999999998
 30
0.0
 11
1150.000031
 21
784.9999999999998
 31
0.0
  0
LINE
  5
331
330
1F
100
AcDbEntity
  8
Ｓ_１_１
  6
CONTINUOUS
 62
     3
100
AcDbLine
 10
1529.999969
 20
814.9999999999998
 30
0.0
 11
1529.999969
 21
784.9999999999998
 31
0.0
  0
LINE
  5
332
330
1F
100
AcDbEntity
  8
Ｓ_１_１
  6
CONTINUOUS
 62
     3
100
AcDbLine
 10
1420.0
 20
735.5999979999997
 30
0.0
 11
1539.999985
 21
735.5999979999997
 31
0.0
  0
LINE
  5
333
330
1F
100
AcDbEntity
  8
Ｓ_１_１
  6
CONTINUOUS
 62
     3
100
AcDbLine
 10
1040.0
 20
735.5999979999997
 30
0.0
 11
1160.0
 21
735.5999979999997
 31
0.0
  0
LINE
  5
334
330
1F
100
AcDbEntity
  8
Ｓ_１_１
  6
CONTINUOUS
 62
     3
100
AcDbLine
 10
1040.0
 20
864.3999939999997
 30
0.0
 11
1040.0
 21
735.6000059999999
 31
0.0
  0
LINE
  5
335
330
1F
100
AcDbEntity
  8
Ｓ_１_１
  6
CONTINUOUS
 62
     3
100
AcDbLine
 10
1160.0
 20
864.3999939999997
 30
0.0
 11
1160.0
 21
735.6000059999999
 31
0.0
  0
LINE
  5
336
330
1F
100
AcDbEntity
  8
Ｓ_１_１
  6
CONTINUOUS
 62
     3
100
AcDbLine
 10
1420.0
 20
864.3999939999997
 30
0.0
 11
1420.0
 21
735.6000059999999
 31
0.0
  0
LINE
  5
337
330
1F
100
AcDbEntity
  8
Ｓ_１_１
  6
CONTINUOUS
 62
     3
100
AcDbLine
 10
1539.999969
 20
864.3999939999997
 30
0.0
 11
1539.999969
 21
735.6000059999999
 31
0.0
  0
LINE
  5
338
330
1F
100
AcDbEntity
  8
Ｓ_１_１
  6
CONTINUOUS
 62
     3
100
AcDbLine
 10
1595.000015
 20
587.4999999999998
 30
0.0
 11
1595.000015
 21
1012.5
 31
0.0
  0
LINE
  5
339
330
1F
100
AcDbEntity
  8
Ｓ_１_１
  6
CONTINUOUS
 62
     3
100
AcDbLine
 10
985.0
 20
587.4999999999998
 30
0.0
 11
985.0
 21
1012.5
 31
0.0
  0
LINE
  5
33A
330
1F
100
AcDbEntity
  8
Ｓ_１_１
  6
CONTINUOUS
 62
     3
100
AcDbLine
 10
1600.000086
 20
592.4999549999998
 30
0.0
 11
1595.000105
 21
587.4999579999997
 31
0.0
  0
LINE
  5
33B
330
1F
100
AcDbEntity
  8
Ｓ_１_１
  6
CONTINUOUS
 62
     3
100
AcDbLine
 10
980.0000110000001
 20
592.5000779999998
 30
0.0
 11
985.000016
 21
587.5000729999997
 31
0.0
  0
LINE
  5
33C
330
1F
100
AcDbEntity
  8
Ｓ_１_１
  6
CONTINUOUS
 62
     3
100
AcDbLine
 10
985.0
 20
587.4999999999998
 30
0.0
 11
1040.0
 21
587.4999999999998
 31
0.0
  0
LINE
  5
33D
330
1F
100
AcDbEntity
  8
Ｓ_１_１
  6
CONTINUOUS
 62
     3
100
AcDbLine
 10
973.999939
 20
655.0000149999998
 30
0.0
 11
973.999939
 21
944.9999849999997
 31
0.0
  0
LINE
  5
33E
330
1F
100
AcDbEntity
  8
Ｓ_１_１
  6
CONTINUOUS
 62
     3
100
AcDbLine
 10
974.0000620000001
 20
655.0000079999998
 30
0.0
 11
970.0000799999999
 21
657.3093839999997
 31
0.0
  0
LINE
  5
33F
330
1F
100
AcDbEntity
  8
Ｓ_１_１
  6
CONTINUOUS
 62
     3
100
AcDbLine
 10
973.9999999999999
 20
655.0000149999998
 30
0.0
 11
979.9999999999999
 21
655.0000149999998
 31
0.0
  0
LINE
  5
340
330
1F
100
AcDbEntity
  8
Ｓ_１_１
  6
CONTINUOUS
 62
     3
100
AcDbLine
 10
970.0
 20
942.6905979999999
 30
0.0
 11
970.0
 21
657.3094019999999
 31
0.0
  0
LINE
  5
341
330
1F
100
AcDbEntity
  8
Ｓ_１_１
  6
CONTINUOUS
 62
     3
100
AcDbLine
 10
979.9999999999999
 20
1007.5
 30
0.0
 11
979.9999999999999
 21
592.4999999999998
 31
0.0
  0
LINE
  5
342
330
1F
100
AcDbEntity
  8
Ｓ_１_１
  6
CONTINUOUS
 62
     3
100
AcDbLine
 10
1600.0
 20
1007.5
 30
0.0
 11
1600.0
 21
592.4999999999998
 31
0.0
  0
CIRCLE
  5
343
330
1F
100
AcDbEntity
  8
Ｓ_１_１
  6
EXLTYPE2
 62
     1
100
AcDbCircle
 10
2080.0
 20
799.9999999999998
 30
0.0
 40
90.0
  0
CIRCLE
  5
344
330
1F
100
AcDbEntity
  8
Ｓ_１_１
  6
EXLTYPE2
 62
     1
100
AcDbCircle
 10
2080.0
 20
799.9999999999998
 30
0.0
 40
129.999985
  0
LINE
  5
345
330
1F
100
AcDbEntity
  8
Ｓ_１_１
  6
EXLTYPE2
 62
     1
100
AcDbLine
 10
2080.0
 20
1104.07193
 30
0.0
 11
2080.0
 21
1000.555496
 31
0.0
  0
LINE
  5
346
330
1F
100
AcDbEntity
  8
Ｓ_１_１
  6
EXLTYPE2
 62
     1
100
AcDbLine
 10
2348.499878
 20
819.9999979999998
 30
0.0
 11
2348.499878
 21
780.0000019999997
 31
0.0
  0
LINE
  5
347
330
1F
100
AcDbEntity
  8
Ｓ_１_１
  6
EXLTYPE2
 62
     1
100
AcDbLine
 10
2248.499878
 20
754.9999999999998
 30
0.0
 11
2322.880371
 21
754.9999999999998
 31
0.0
  0
LINE
  5
348
330
1F
100
AcDbEntity
  8
Ｓ_１_１
  6
EXLTYPE2
 62
     1
100
AcDbLine
 10
2248.499878
 20
844.9999999999998
 30
0.0
 11
2323.580322
 21
844.9999999999998
 31
0.0
  0
LINE
  5
349
330
1F
100
AcDbEntity
  8
Ｓ_１_１
  6
EXLTYPE2
 62
     1
100
AcDbLine
 10
1753.430389
 20
799.9999999999998
 30
0.0
 11
2408.280151
 21
799.9999999999998
 31
0.0
  0
LINE
  5
34A
330
1F
100
AcDbEntity
  8
Ｓ_１_１
  6
EXLTYPE2
 62
     1
100
AcDbLine
 10
1812.500031
 20
819.9999979999998
 30
0.0
 11
1812.500031
 21
780.0000019999997
 31
0.0
  0
LINE
  5
34B
330
1F
100
AcDbEntity
  8
Ｓ_１_１
  6
EXLTYPE2
 62
     1
100
AcDbLine
 10
1836.730377
 20
754.9999999999998
 30
0.0
 11
1912.5
 21
754.9999999999998
 31
0.0
  0
LINE
  5
34C
330
1F
100
AcDbEntity
  8
Ｓ_１_１
  6
EXLTYPE2
 62
     1
100
AcDbLine
 10
1836.030334
 20
844.9999999999998
 30
0.0
 11
1912.5
 21
844.9999999999998
 31
0.0
  0
LINE
  5
34D
330
1F
100
AcDbEntity
  8
Ｓ_１_１
  6
EXLTYPE2
 62
     1
100
AcDbLine
 10
2161.317369
 20
718.6827089999997
 30
0.0
 11
2182.530574
 21
697.4695069999998
 31
0.0
  0
LINE
  5
34E
330
1F
100
AcDbEntity
  8
Ｓ_１_１
  6
EXLTYPE2
 62
     1
100
AcDbLine
 10
1977.46975
 20
902.5306159999998
 30
0.0
 11
1998.682954
 21
881.3174129999996
 31
0.0
  0
LINE
  5
34F
330
1F
100
AcDbEntity
  8
Ｓ_１_１
  6
EXLTYPE2
 62
     1
100
AcDbLine
 10
1976.585221
 20
698.4345099999998
 30
0.0
 11
1999.566555
 21
717.7181379999997
 31
0.0
  0
LINE
  5
350
330
1F
100
AcDbEntity
  8
Ｓ_１_１
  6
EXLTYPE2
 62
     1
100
AcDbLine
 10
2160.433188
 20
882.2820769999998
 30
0.0
 11
2183.414475
 21
901.5656649999999
 31
0.0
  0
LINE
  5
351
330
1F
100
AcDbEntity
  8
Ｓ_１_１
  6
EXLTYPE2
 62
     1
100
AcDbLine
 10
2080.0
 20
1025.959961
 30
0.0
 11
2080.0
 21
573.7600399999999
 31
0.0
  0
LINE
  5
352
330
1F
100
AcDbEntity
  8
Ｓ_１_１
  6
EXLTYPE0
 62
     2
100
AcDbLine
 10
2323.499878
 20
814.9999999999998
 30
0.0
 11
2323.499878
 21
784.9999999999998
 31
0.0
  0
LINE
  5
353
330
1F
100
AcDbEntity
  8
Ｓ_１_１
  6
EXLTYPE0
 62
     2
100
AcDbLine
 10
2373.499878
 20
814.9999999999998
 30
0.0
 11
2373.499878
 21
784.9999999999998
 31
0.0
  0
LINE
  5
354
330
1F
100
AcDbEntity
  8
Ｓ_１_１
  6
EXLTYPE0
 62
     2
100
AcDbLine
 10
1787.500031
 20
814.9999999999998
 30
0.0
 11
1787.500031
 21
784.9999999999998
 31
0.0
  0
LINE
  5
355
330
1F
100
AcDbEntity
  8
Ｓ_１_１
  6
EXLTYPE0
 62
     2
100
AcDbLine
 10
1837.500031
 20
814.9999999999998
 30
0.0
 11
1837.500031
 21
784.9999999999998
 31
0.0
  0
LINE
  5
356
330
1F
100
AcDbEntity
  8
Ｓ_１_１
  6
EXLTYPE0
 62
     2
100
AcDbLine
 10
2015.579529
 20
597.4999999999998
 30
0.0
 11
2144.420471
 21
597.4999999999998
 31
0.0
  0
ARC
  5
357
330
1F
100
AcDbEntity
  8
Ｓ_１_１
  6
CONTINUOUS
 62
     3
100
AcDbCircle
 10
2080.0
 20
1028.560562
 30
0.0
 40
21.93943800000001
100
AcDbArc
 50
76.82652799999998
 51
103.173491
  0
ARC
  5
358
330
1F
100
AcDbEntity
  8
Ｓ_１_１
  6
CONTINUOUS
 62
     3
100
AcDbCircle
 10
2080.0
 20
1059.939423
 30
0.0
 40
21.93943800000001
100
AcDbArc
 50
256.8264750000001
 51
283.1734650000004
  0
ARC
  5
359
330
1F
100
AcDbEntity
  8
Ｓ_１_１
  6
CONTINUOUS
 62
     3
100
AcDbCircle
 10
2091.691345
 20
1027.400711
 30
0.0
 40
6.900722000000004
100
AcDbArc
 50
235.6157530000001
 51
304.3842490000003
  0
ARC
  5
35A
330
1F
100
AcDbEntity
  8
Ｓ_１_１
  6
CONTINUOUS
 62
     3
100
AcDbCircle
 10
2080.0
 20
1046.29422
 30
0.0
 40
25.79423
100
AcDbArc
 50
252.4120490000002
 51
287.5879530000003
  0
ARC
  5
35B
330
1F
100
AcDbEntity
  8
Ｓ_１_１
  6
CONTINUOUS
 62
     3
100
AcDbCircle
 10
2068.308655
 20
1027.400711
 30
0.0
 40
6.900722000000004
100
AcDbArc
 50
235.6157530000001
 51
304.3842490000003
  0
ARC
  5
35C
330
1F
100
AcDbEntity
  8
Ｓ_１_１
  6
CONTINUOUS
 62
     3
100
AcDbCircle
 10
2068.308655
 20
1023.599274
 30
0.0
 40
6.900722000000004
100
AcDbArc
 50
55.615751
 51
124.384247
  0
ARC
  5
35D
330
1F
100
AcDbEntity
  8
Ｓ_１_１
  6
CONTINUOUS
 62
     3
100
AcDbCircle
 10
2080.0
 20
1004.705765
 30
0.0
 40
25.79423
100
AcDbArc
 50
72.41204699999997
 51
107.587951
  0
ARC
  5
35E
330
1F
100
AcDbEntity
  8
Ｓ_１_１
  6
CONTINUOUS
 62
     3
100
AcDbCircle
 10
2091.691345
 20
1023.599274
 30
0.0
 40
6.900722000000004
100
AcDbArc
 50
55.615751
 51
124.384247
  0
CIRCLE
  5
35F
330
1F
100
AcDbEntity
  8
Ｓ_１_１
  6
CONTINUOUS
 62
     3
100
AcDbCircle
 10
2080.0
 20
709.9999999999998
 30
0.0
 40
5.0
  0
CIRCLE
  5
360
330
1F
100
AcDbEntity
  8
Ｓ_１_１
  6
CONTINUOUS
 62
     3
100
AcDbCircle
 10
1990.0
 20
800.0000349999998
 30
0.0
 40
5.0
  0
CIRCLE
  5
361
330
1F
100
AcDbEntity
  8
Ｓ_１_１
  6
CONTINUOUS
 62
     3
100
AcDbCircle
 10
2080.000122
 20
889.9999999999998
 30
0.0
 40
5.0
  0
CIRCLE
  5
362
330
1F
100
AcDbEntity
  8
Ｓ_１_１
  6
CONTINUOUS
 62
     3
100
AcDbCircle
 10
2170.0
 20
799.9999729999996
 30
0.0
 40
5.0
  0
CIRCLE
  5
363
330
1F
100
AcDbEntity
  8
Ｓ_１_１
  6
CONTINUOUS
 62
     3
100
AcDbCircle
 10
2170.0
 20
799.9999729999996
 30
0.0
 40
4.0
  0
CIRCLE
  5
364
330
1F
100
AcDbEntity
  8
Ｓ_１_１
  6
CONTINUOUS
 62
     3
100
AcDbCircle
 10
2080.0
 20
709.9999999999998
 30
0.0
 40
4.0
  0
CIRCLE
  5
365
330
1F
100
AcDbEntity
  8
Ｓ_１_１
  6
CONTINUOUS
 62
     3
100
AcDbCircle
 10
1990.0
 20
800.0000349999998
 30
0.0
 40
4.0
  0
CIRCLE
  5
366
330
1F
100
AcDbEntity
  8
Ｓ_１_１
  6
CONTINUOUS
 62
     3
100
AcDbCircle
 10
2080.000122
 20
889.9999999999998
 30
0.0
 40
4.0
  0
CIRCLE
  5
367
330
1F
100
AcDbEntity
  8
Ｓ_１_１
  6
CONTINUOUS
 62
     3
100
AcDbCircle
 10
2080.0
 20
799.9999999999998
 30
0.0
 40
75.999992
  0
CIRCLE
  5
368
330
1F
100
AcDbEntity
  8
Ｓ_１_１
  6
CONTINUOUS
 62
     3
100
AcDbCircle
 10
2080.0
 20
799.9999999999998
 30
0.0
 40
72.499992
  0
CIRCLE
  5
369
330
1F
100
AcDbEntity
  8
Ｓ_１_１
  6
CONTINUOUS
 62
     3
100
AcDbCircle
 10
2080.0
 20
799.9999999999998
 30
0.0
 40
100.0000000000001
  0
CIRCLE
  5
36A
330
1F
100
AcDbEntity
  8
Ｓ_１_１
  6
CONTINUOUS
 62
     3
100
AcDbCircle
 10
2080.0
 20
799.9999999999998
 30
0.0
 40
102.5000000000001
  0
CIRCLE
  5
36B
330
1F
100
AcDbEntity
  8
Ｓ_１_１
  6
CONTINUOUS
 62
     3
100
AcDbCircle
 10
2210.000061
 20
799.9998369999998
 30
0.0
 40
8.0
  0
CIRCLE
  5
36C
330
1F
100
AcDbEntity
  8
Ｓ_１_１
  6
CONTINUOUS
 62
     3
100
AcDbCircle
 10
2171.923828
 20
708.0760189999999
 30
0.0
 40
8.0
  0
CIRCLE
  5
36D
330
1F
100
AcDbEntity
  8
Ｓ_１_１
  6
CONTINUOUS
 62
     3
100
AcDbCircle
 10
2079.999939
 20
670.0000149999998
 30
0.0
 40
8.0
  0
CIRCLE
  5
36E
330
1F
100
AcDbEntity
  8
Ｓ_１_１
  6
CONTINUOUS
 62
     3
100
AcDbCircle
 10
1988.076111
 20
708.0761799999998
 30
0.0
 40
8.0
  0
CIRCLE
  5
36F
330
1F
100
AcDbEntity
  8
Ｓ_１_１
  6
CONTINUOUS
 62
     3
100
AcDbCircle
 10
1950.0
 20
800.0000819999997
 30
0.0
 40
8.0
  0
CIRCLE
  5
370
330
1F
100
AcDbEntity
  8
Ｓ_１_１
  6
CONTINUOUS
 62
     3
100
AcDbCircle
 10
1988.076172
 20
891.9239349999998
 30
0.0
 40
8.0
  0
CIRCLE
  5
371
330
1F
100
AcDbEntity
  8
Ｓ_１_１
  6
CONTINUOUS
 62
     3
100
AcDbCircle
 10
2080.000244
 20
929.9999849999997
 30
0.0
 40
8.0
  0
CIRCLE
  5
372
330
1F
100
AcDbEntity
  8
Ｓ_１_１
  6
CONTINUOUS
 62
     3
100
AcDbCircle
 10
2171.924072
 20
891.9237519999996
 30
0.0
 40
8.0
  0
CIRCLE
  5
373
330
1F
100
AcDbEntity
  8
Ｓ_１_１
  6
CONTINUOUS
 62
     3
100
AcDbCircle
 10
2171.924072
 20
891.9237519999996
 30
0.0
 40
9.999999
  0
CIRCLE
  5
374
330
1F
100
AcDbEntity
  8
Ｓ_１_１
  6
CONTINUOUS
 62
     3
100
AcDbCircle
 10
2210.000061
 20
799.9998369999998
 30
0.0
 40
9.999999
  0
CIRCLE
  5
375
330
1F
100
AcDbEntity
  8
Ｓ_１_１
  6
CONTINUOUS
 62
     3
100
AcDbCircle
 10
2171.923828
 20
708.0760189999999
 30
0.0
 40
9.999999
  0
CIRCLE
  5
376
330
1F
100
AcDbEntity
  8
Ｓ_１_１
  6
CONTINUOUS
 62
     3
100
AcDbCircle
 10
2079.999939
 20
670.0000149999998
 30
0.0
 40
9.999999
  0
CIRCLE
  5
377
330
1F
100
AcDbEntity
  8
Ｓ_１_１
  6
CONTINUOUS
 62
     3
100
AcDbCircle
 10
1988.076111
 20
708.0761799999998
 30
0.0
 40
9.999999
  0
CIRCLE
  5
378
330
1F
100
AcDbEntity
  8
Ｓ_１_１
  6
CONTINUOUS
 62
     3
100
AcDbCircle
 10
1950.0
 20
800.0000819999997
 30
0.0
 40
9.999999
  0
CIRCLE
  5
379
330
1F
100
AcDbEntity
  8
Ｓ_１_１
  6
CONTINUOUS
 62
     3
100
AcDbCircle
 10
1988.076172
 20
891.9239349999998
 30
0.0
 40
9.999999
  0
CIRCLE
  5
37A
330
1F
100
AcDbEntity
  8
Ｓ_１_１
  6
CONTINUOUS
 62
     3
100
AcDbCircle
 10
2080.000244
 20
929.9999849999997
 30
0.0
 40
9.999999
  0
CIRCLE
  5
37B
330
1F
100
AcDbEntity
  8
Ｓ_１_１
  6
CONTINUOUS
 62
     3
100
AcDbCircle
 10
2080.0
 20
799.9999999999998
 30
0.0
 40
207.5000000000001
  0
CIRCLE
  5
37C
330
1F
100
AcDbEntity
  8
Ｓ_１_１
  6
CONTINUOUS
 62
     3
100
AcDbCircle
 10
2080.0
 20
799.9999999999998
 30
0.0
 40
212.5000000000001
  0
LINE
  5
37D
330
1F
100
AcDbEntity
  8
Ｓ_１_１
  6
CONTINUOUS
 62
     3
100
AcDbLine
 10
2090.440979
 20
1019.371521
 30
0.0
 11
2069.559021
 21
1019.371521
 31
0.0
  0
LINE
  5
37E
330
1F
100
AcDbEntity
  8
Ｓ_１_１
  6
CONTINUOUS
 62
     3
100
AcDbLine
 10
2069.488513
 20
1020.500018
 30
0.0
 11
2070.14004
 21
1019.371539
 31
0.0
  0
LINE
  5
37F
330
1F
100
AcDbEntity
  8
Ｓ_１_１
  6
CONTINUOUS
 62
     3
100
AcDbLine
 10
2090.011482
 20
1012.499993
 30
0.0
 11
2090.511483
 21
1020.500008
 31
0.0
  0
LINE
  5
380
330
1F
100
AcDbEntity
  8
Ｓ_１_１
  6
CONTINUOUS
 62
     3
100
AcDbLine
 10
2089.430517
 20
1012.499993
 30
0.0
 11
2089.859987
 21
1019.371518
 31
0.0
  0
LINE
  5
381
330
1F
100
AcDbEntity
  8
Ｓ_１_１
  6
CONTINUOUS
 62
     3
100
AcDbLine
 10
2090.511493
 20
1020.500004
 30
0.0
 11
2089.859943
 21
1019.371486
 31
0.0
  0
LINE
  5
382
330
1F
100
AcDbEntity
  8
Ｓ_１_１
  6
CONTINUOUS
 62
     3
100
AcDbLine
 10
2070.569478
 20
1012.499989
 30
0.0
 11
2070.140008
 21
1019.371514
 31
0.0
  0
LINE
  5
383
330
1F
100
AcDbEntity
  8
Ｓ_１_１
  6
CONTINUOUS
 62
     3
100
AcDbLine
 10
2069.988512
 20
1012.500004
 30
0.0
 11
2069.488512
 21
1020.500004
 31
0.0
  0
LINE
  5
384
330
1F
100
AcDbEntity
  8
Ｓ_１_１
  6
CONTINUOUS
 62
     3
100
AcDbLine
 10
2093.5
 20
1020.5
 30
0.0
 11
2066.5
 21
1020.5
 31
0.0
  0
LINE
  5
385
330
1F
100
AcDbEntity
  8
Ｓ_１_１
  6
CONTINUOUS
 62
     3
100
AcDbLine
 10
2072.436504
 20
1031.86227
 30
0.0
 11
2071.650005
 21
1030.500014
 31
0.0
  0
LINE
  5
386
330
1F
100
AcDbEntity
  8
Ｓ_１_１
  6
CONTINUOUS
 62
     3
100
AcDbLine
 10
2072.820115
 20
1038.000011
 30
0.0
 11
2072.436507
 21
1031.862267
 31
0.0
  0
LINE
  5
387
330
1F
100
AcDbEntity
  8
Ｓ_１_１
  6
CONTINUOUS
 62
     3
100
AcDbLine
 10
2087.179879
 20
1038.000007
 30
0.0
 11
2087.563488
 21
1031.862264
 31
0.0
  0
LINE
  5
388
330
1F
100
AcDbEntity
  8
Ｓ_１_１
  6
CONTINUOUS
 62
     3
100
AcDbLine
 10
2088.264832
 20
1031.862259
 30
0.0
 11
2071.735107
 21
1031.862259
 31
0.0
  0
LINE
  5
389
330
1F
100
AcDbEntity
  8
Ｓ_１_１
  6
CONTINUOUS
 62
     3
100
AcDbLine
 10
2088.350005
 20
1030.500007
 30
0.0
 11
2087.563498
 21
1031.862277
 31
0.0
  0
LINE
  5
38A
330
1F
100
AcDbEntity
  8
Ｓ_１_１
  6
CONTINUOUS
 62
     3
100
AcDbLine
 10
2072.118737
 20
1037.999999
 30
0.0
 11
2071.649986
 21
1030.499985
 31
0.0
  0
LINE
  5
38B
330
1F
100
AcDbEntity
  8
Ｓ_１_１
  6
CONTINUOUS
 62
     3
100
AcDbLine
 10
2064.41156
 20
1029.29422
 30
0.0
 11
2064.41156
 21
1021.705765
 31
0.0
  0
LINE
  5
38C
330
1F
100
AcDbEntity
  8
Ｓ_１_１
  6
CONTINUOUS
 62
     3
100
AcDbLine
 10
2087.881257
 20
1038.000011
 30
0.0
 11
2088.350009
 21
1030.499981
 31
0.0
  0
LINE
  5
38D
330
1F
100
AcDbEntity
  8
Ｓ_１_１
  6
CONTINUOUS
 62
     3
100
AcDbLine
 10
2066.500002
 20
1030.500001
 30
0.0
 11
2064.411529
 21
1029.294221
 31
0.0
  0
LINE
  5
38E
330
1F
100
AcDbEntity
  8
Ｓ_１_１
  6
CONTINUOUS
 62
     3
100
AcDbLine
 10
2087.794189
 20
1029.29422
 30
0.0
 11
2087.794189
 21
1021.705765
 31
0.0
  0
LINE
  5
38F
330
1F
100
AcDbEntity
  8
Ｓ_１_１
  6
CONTINUOUS
 62
     3
100
AcDbLine
 10
2093.5
 20
1030.5
 30
0.0
 11
2066.5
 21
1030.5
 31
0.0
  0
LINE
  5
390
330
1F
100
AcDbEntity
  8
Ｓ_１_１
  6
CONTINUOUS
 62
     3
100
AcDbLine
 10
2072.20575
 20
1029.29422
 30
0.0
 11
2072.20575
 21
1021.705765
 31
0.0
  0
LINE
  5
391
330
1F
100
AcDbEntity
  8
Ｓ_１_１
  6
CONTINUOUS
 62
     3
100
AcDbLine
 10
2093.499997
 20
1030.499974
 30
0.0
 11
2095.588442
 21
1029.29421
 31
0.0
  0
LINE
  5
392
330
1F
100
AcDbEntity
  8
Ｓ_１_１
  6
CONTINUOUS
 62
     3
100
AcDbLine
 10
2068.0
 20
1038.0
 30
0.0
 11
2092.0
 21
1038.0
 31
0.0
  0
LINE
  5
393
330
1F
100
AcDbEntity
  8
Ｓ_１_１
  6
CONTINUOUS
 62
     3
100
AcDbLine
 10
2085.0
 20
1038.577347
 30
0.0
 11
2093.0
 21
1038.577347
 31
0.0
  0
LINE
  5
394
330
1F
100
AcDbEntity
  8
Ｓ_１_１
  6
CONTINUOUS
 62
     3
100
AcDbLine
 10
2085.0
 20
1049.922653
 30
0.0
 11
2093.0
 21
1049.922653
 31
0.0
  0
LINE
  5
395
330
1F
100
AcDbEntity
  8
Ｓ_１_１
  6
CONTINUOUS
 62
     3
100
AcDbLine
 10
2067.0
 20
1038.577347
 30
0.0
 11
2075.0
 21
1038.577347
 31
0.0
  0
LINE
  5
396
330
1F
100
AcDbEntity
  8
Ｓ_１_１
  6
CONTINUOUS
 62
     3
100
AcDbLine
 10
2067.0
 20
1049.922653
 30
0.0
 11
2075.0
 21
1049.922653
 31
0.0
  0
LINE
  5
397
330
1F
100
AcDbEntity
  8
Ｓ_１_１
  6
CONTINUOUS
 62
     3
100
AcDbLine
 10
2067.0
 20
1066.077332
 30
0.0
 11
2093.0
 21
1066.077332
 31
0.0
  0
LINE
  5
398
330
1F
100
AcDbEntity
  8
Ｓ_１_１
  6
CONTINUOUS
 62
     3
100
AcDbLine
 10
2066.999988
 20
1066.077358
 30
0.0
 11
2068.000008
 21
1065.499996
 31
0.0
  0
LINE
  5
399
330
1F
100
AcDbEntity
  8
Ｓ_１_１
  6
CONTINUOUS
 62
     3
100
AcDbLine
 10
2091.999961
 20
1050.499981
 30
0.0
 11
2092.999981
 21
1049.922619
 31
0.0
  0
LINE
  5
39A
330
1F
100
AcDbEntity
  8
Ｓ_１_１
  6
CONTINUOUS
 62
     3
100
AcDbLine
 10
2066.999969
 20
1038.577326
 30
0.0
 11
2067.999963
 21
1037.99998
 31
0.0
  0
LINE
  5
39B
330
1F
100
AcDbEntity
  8
Ｓ_１_１
  6
CONTINUOUS
 62
     3
100
AcDbLine
 10
2091.999975
 20
1065.499988
 30
0.0
 11
2092.999995
 21
1066.07735
 31
0.0
  0
LINE
  5
39C
330
1F
100
AcDbEntity
  8
Ｓ_１_１
  6
CONTINUOUS
 62
     3
100
AcDbLine
 10
2067.000009
 20
1049.922659
 30
0.0
 11
2067.999977
 21
1050.49999
 31
0.0
  0
LINE
  5
39D
330
1F
100
AcDbEntity
  8
Ｓ_１_１
  6
CONTINUOUS
 62
     3
100
AcDbLine
 10
2091.999974
 20
1037.999989
 30
0.0
 11
2092.999995
 21
1038.577351
 31
0.0
  0
LINE
  5
39E
330
1F
100
AcDbEntity
  8
Ｓ_１_１
  6
CONTINUOUS
 62
     3
100
AcDbLine
 10
2085.0
 20
1049.922653
 30
0.0
 11
2085.0
 21
1038.577347
 31
0.0
  0
LINE
  5
39F
330
1F
100
AcDbEntity
  8
Ｓ_１_１
  6
CONTINUOUS
 62
     3
100
AcDbLine
 10
2075.0
 20
1049.922653
 30
0.0
 11
2075.0
 21
1038.577347
 31
0.0
  0
LINE
  5
3A0
330
1F
100
AcDbEntity
  8
Ｓ_１_１
  6
CONTINUOUS
 62
     3
100
AcDbLine
 10
2081.74998
 20
1073.68171
 30
0.0
 11
2081.854896
 21
1073.499991
 31
0.0
  0
LINE
  5
3A1
330
1F
100
AcDbEntity
  8
Ｓ_１_１
  6
CONTINUOUS
 62
     3
100
AcDbLine
 10
2081.75
 20
1073.5
 30
0.0
 11
2096.0
 21
1073.5
 31
0.0
  0
LINE
  5
3A2
330
1F
100
AcDbEntity
  8
Ｓ_１_１
  6
CONTINUOUS
 62
     3
100
AcDbLine
 10
2081.75
 20
1073.0
 30
0.0
 11
2095.5
 21
1073.0
 31
0.0
  0
LINE
  5
3A3
330
1F
100
AcDbEntity
  8
Ｓ_１_１
  6
CONTINUOUS
 62
     3
100
AcDbLine
 10
2078.25
 20
1076.5
 30
0.0
 11
2081.75
 21
1076.5
 31
0.0
  0
LINE
  5
3A4
330
1F
100
AcDbEntity
  8
Ｓ_１_１
  6
CONTINUOUS
 62
     3
100
AcDbLine
 10
2078.25
 20
1076.5
 30
0.0
 11
2078.25
 21
1073.0
 31
0.0
  0
LINE
  5
3A5
330
1F
100
AcDbEntity
  8
Ｓ_１_１
  6
CONTINUOUS
 62
     3
100
AcDbLine
 10
2081.75
 20
1076.5
 30
0.0
 11
2081.75
 21
1073.0
 31
0.0
  0
LINE
  5
3A6
330
1F
100
AcDbEntity
  8
Ｓ_１_１
  6
CONTINUOUS
 62
     3
100
AcDbLine
 10
2064.499994
 20
1070.5
 30
0.0
 11
2065.000005
 21
1069.999989
 31
0.0
  0
LINE
  5
3A7
330
1F
100
AcDbEntity
  8
Ｓ_１_１
  6
CONTINUOUS
 62
     3
100
AcDbLine
 10
2064.499994
 20
1071.49998
 30
0.0
 11
2064.999984
 21
1071.99997
 31
0.0
  0
LINE
  5
3A8
330
1F
100
AcDbEntity
  8
Ｓ_１_１
  6
CONTINUOUS
 62
     3
100
AcDbLine
 10
2094.999994
 20
1069.999989
 30
0.0
 11
2095.499984
 21
1070.499979
 31
0.0
  0
LINE
  5
3A9
330
1F
100
AcDbEntity
  8
Ｓ_１_１
  6
CONTINUOUS
 62
     3
100
AcDbLine
 10
2094.999973
 20
1071.99997
 30
0.0
 11
2095.499963
 21
1071.49998
 31
0.0
  0
LINE
  5
3AA
330
1F
100
AcDbEntity
  8
Ｓ_１_１
  6
CONTINUOUS
 62
     3
100
AcDbLine
 10
2093.0
 20
1070.0
 30
0.0
 11
2095.0
 21
1070.0
 31
0.0
  0
LINE
  5
3AB
330
1F
100
AcDbEntity
  8
Ｓ_１_１
  6
CONTINUOUS
 62
     3
100
AcDbLine
 10
2093.0
 20
1072.0
 30
0.0
 11
2095.0
 21
1072.0
 31
0.0
  0
LINE
  5
3AC
330
1F
100
AcDbEntity
  8
Ｓ_１_１
  6
CONTINUOUS
 62
     3
100
AcDbLine
 10
2065.0
 20
1072.0
 30
0.0
 11
2067.0
 21
1072.0
 31
0.0
  0
LINE
  5
3AD
330
1F
100
AcDbEntity
  8
Ｓ_１_１
  6
CONTINUOUS
 62
     3
100
AcDbLine
 10
2065.0
 20
1070.0
 30
0.0
 11
2067.0
 21
1070.0
 31
0.0
  0
LINE
  5
3AE
330
1F
100
AcDbEntity
  8
Ｓ_１_１
  6
CONTINUOUS
 62
     3
100
AcDbLine
 10
2064.5
 20
1071.5
 30
0.0
 11
2064.5
 21
1070.5
 31
0.0
  0
LINE
  5
3AF
330
1F
100
AcDbEntity
  8
Ｓ_１_１
  6
CONTINUOUS
 62
     3
100
AcDbLine
 10
2095.5
 20
1071.5
 30
0.0
 11
2095.5
 21
1070.5
 31
0.0
  0
LINE
  5
3B0
330
1F
100
AcDbEntity
  8
Ｓ_１_１
  6
CONTINUOUS
 62
     3
100
AcDbLine
 10
2078.145087
 20
1073.500013
 30
0.0
 11
2078.250006
 21
1073.681739
 31
0.0
  0
LINE
  5
3B1
330
1F
100
AcDbEntity
  8
Ｓ_１_１
  6
CONTINUOUS
 62
     3
100
AcDbLine
 10
2064.0
 20
1097.0
 30
0.0
 11
2096.0
 21
1097.0
 31
0.0
  0
LINE
  5
3B2
330
1F
100
AcDbEntity
  8
Ｓ_１_１
  6
CONTINUOUS
 62
     3
100
AcDbLine
 10
2064.0
 20
1089.5
 30
0.0
 11
2096.0
 21
1089.5
 31
0.0
  0
LINE
  5
3B3
330
1F
100
AcDbEntity
  8
Ｓ_１_１
  6
CONTINUOUS
 62
     3
100
AcDbLine
 10
2064.0
 20
1073.5
 30
0.0
 11
2078.25
 21
1073.5
 31
0.0
  0
LINE
  5
3B4
330
1F
100
AcDbEntity
  8
Ｓ_１_１
  6
CONTINUOUS
 62
     3
100
AcDbLine
 10
2096.0
 20
1080.5
 30
0.0
 11
2064.0
 21
1080.5
 31
0.0
  0
LINE
  5
3B5
330
1F
100
AcDbEntity
  8
Ｓ_１_１
  6
CONTINUOUS
 62
     3
100
AcDbLine
 10
2095.500017
 20
1073.000006
 30
0.0
 11
2096.000007
 21
1073.499996
 31
0.0
  0
LINE
  5
3B6
330
1F
100
AcDbEntity
  8
Ｓ_１_１
  6
CONTINUOUS
 62
     3
100
AcDbLine
 10
2063.999993
 20
1073.50001
 30
0.0
 11
2064.500004
 21
1072.999999
 31
0.0
  0
LINE
  5
3B7
330
1F
100
AcDbEntity
  8
Ｓ_１_１
  6
CONTINUOUS
 62
     3
100
AcDbLine
 10
2096.0
 20
1080.5
 30
0.0
 11
2096.0
 21
1073.5
 31
0.0
  0
LINE
  5
3B8
330
1F
100
AcDbEntity
  8
Ｓ_１_１
  6
CONTINUOUS
 62
     3
100
AcDbLine
 10
2064.0
 20
1080.5
 30
0.0
 11
2064.0
 21
1073.5
 31
0.0
  0
LINE
  5
3B9
330
1F
100
AcDbEntity
  8
Ｓ_１_１
  6
CONTINUOUS
 62
     3
100
AcDbLine
 10
2064.000014
 20
1089.500006
 30
0.0
 11
2064.500003
 21
1089.000016
 31
0.0
  0
LINE
  5
3BA
330
1F
100
AcDbEntity
  8
Ｓ_１_１
  6
CONTINUOUS
 62
     3
100
AcDbLine
 10
2095.499994
 20
1080.999987
 30
0.0
 11
2095.999984
 21
1080.499997
 31
0.0
  0
LINE
  5
3BB
330
1F
100
AcDbEntity
  8
Ｓ_１_１
  6
CONTINUOUS
 62
     3
100
AcDbLine
 10
2095.499975
 20
1088.99998
 30
0.0
 11
2096.000008
 21
1089.500013
 31
0.0
  0
LINE
  5
3BC
330
1F
100
AcDbEntity
  8
Ｓ_１_１
  6
CONTINUOUS
 62
     3
100
AcDbLine
 10
2063.999994
 20
1080.500005
 30
0.0
 11
2064.499984
 21
1080.999995
 31
0.0
  0
LINE
  5
3BD
330
1F
100
AcDbEntity
  8
Ｓ_１_１
  6
CONTINUOUS
 62
     3
100
AcDbLine
 10
2064.5
 20
1089.0
 30
0.0
 11
2095.5
 21
1089.0
 31
0.0
  0
LINE
  5
3BE
330
1F
100
AcDbEntity
  8
Ｓ_１_１
  6
CONTINUOUS
 62
     3
100
AcDbLine
 10
2064.5
 20
1081.0
 30
0.0
 11
2095.5
 21
1081.0
 31
0.0
  0
LINE
  5
3BF
330
1F
100
AcDbEntity
  8
Ｓ_１_１
  6
CONTINUOUS
 62
     3
100
AcDbLine
 10
2095.5
 20
1089.0
 30
0.0
 11
2095.5
 21
1081.0
 31
0.0
  0
LINE
  5
3C0
330
1F
100
AcDbEntity
  8
Ｓ_１_１
  6
CONTINUOUS
 62
     3
100
AcDbLine
 10
2064.5
 20
1089.0
 30
0.0
 11
2064.5
 21
1081.0
 31
0.0
  0
LINE
  5
3C1
330
1F
100
AcDbEntity
  8
Ｓ_１_１
  6
CONTINUOUS
 62
     3
100
AcDbLine
 10
2092.999992
 20
1100.000022
 30
0.0
 11
2095.999996
 21
1097.000018
 31
0.0
  0
LINE
  5
3C2
330
1F
100
AcDbEntity
  8
Ｓ_１_１
  6
CONTINUOUS
 62
     3
100
AcDbLine
 10
2067.000007
 20
1100.000022
 30
0.0
 11
2063.999983
 21
1096.999997
 31
0.0
  0
LINE
  5
3C3
330
1F
100
AcDbEntity
  8
Ｓ_１_１
  6
CONTINUOUS
 62
     3
100
AcDbLine
 10
2068.0
 20
1065.5
 30
0.0
 11
2068.0
 21
1050.5
 31
0.0
  0
LINE
  5
3C4
330
1F
100
AcDbEntity
  8
Ｓ_１_１
  6
CONTINUOUS
 62
     3
100
AcDbLine
 10
2092.0
 20
1065.5
 30
0.0
 11
2092.0
 21
1050.5
 31
0.0
  0
LINE
  5
3C5
330
1F
100
AcDbEntity
  8
Ｓ_１_１
  6
CONTINUOUS
 62
     3
100
AcDbLine
 10
2067.0
 20
1100.0
 30
0.0
 11
2093.0
 21
1100.0
 31
0.0
  0
LINE
  5
3C6
330
1F
100
AcDbEntity
  8
Ｓ_１_１
  6
CONTINUOUS
 62
     3
100
AcDbLine
 10
2096.0
 20
1097.0
 30
0.0
 11
2096.0
 21
1089.5
 31
0.0
  0
LINE
  5
3C7
330
1F
100
AcDbEntity
  8
Ｓ_１_１
  6
CONTINUOUS
 62
     3
100
AcDbLine
 10
2064.0
 20
1097.0
 30
0.0
 11
2064.0
 21
1089.5
 31
0.0
  0
LINE
  5
3C8
330
1F
100
AcDbEntity
  8
Ｓ_１_１
  6
CONTINUOUS
 62
     3
100
AcDbLine
 10
2093.0
 20
1049.922638
 30
0.0
 11
2093.0
 21
1038.577347
 31
0.0
  0
LINE
  5
3C9
330
1F
100
AcDbEntity
  8
Ｓ_１_１
  6
CONTINUOUS
 62
     3
100
AcDbLine
 10
2067.0
 20
1049.922653
 30
0.0
 11
2067.0
 21
1038.577347
 31
0.0
  0
LINE
  5
3CA
330
1F
100
AcDbEntity
  8
Ｓ_１_１
  6
CONTINUOUS
 62
     3
100
AcDbLine
 10
2092.0
 20
1100.5
 30
0.0
 11
2092.0
 21
1100.0
 31
0.0
  0
LINE
  5
3CB
330
1F
100
AcDbEntity
  8
Ｓ_１_１
  6
CONTINUOUS
 62
     3
100
AcDbLine
 10
2068.0
 20
1100.5
 30
0.0
 11
2068.0
 21
1100.0
 31
0.0
  0
LINE
  5
3CC
330
1F
100
AcDbEntity
  8
Ｓ_１_１
  6
CONTINUOUS
 62
     3
100
AcDbLine
 10
2067.0
 20
1073.0
 30
0.0
 11
2067.0
 21
1066.077332
 31
0.0
  0
LINE
  5
3CD
330
1F
100
AcDbEntity
  8
Ｓ_１_１
  6
CONTINUOUS
 62
     3
100
AcDbLine
 10
2093.0
 20
1073.0
 30
0.0
 11
2093.0
 21
1066.077332
 31
0.0
  0
LINE
  5
3CE
330
1F
100
AcDbEntity
  8
Ｓ_１_１
  6
CONTINUOUS
 62
     3
100
AcDbLine
 10
2064.5
 20
1073.0
 30
0.0
 11
2078.25
 21
1073.0
 31
0.0
  0
LINE
  5
3CF
330
1F
100
AcDbEntity
  8
Ｓ_１_１
  6
CONTINUOUS
 62
     3
100
AcDbLine
 10
2068.0
 20
1065.5
 30
0.0
 11
2092.0
 21
1065.5
 31
0.0
  0
LINE
  5
3D0
330
1F
100
AcDbEntity
  8
Ｓ_１_１
  6
CONTINUOUS
 62
     3
100
AcDbLine
 10
2068.0
 20
1050.5
 30
0.0
 11
2092.0
 21
1050.5
 31
0.0
  0
LINE
  5
3D1
330
1F
100
AcDbEntity
  8
Ｓ_１_１
  6
CONTINUOUS
 62
     3
100
AcDbLine
 10
2068.0
 20
1100.5
 30
0.0
 11
2092.0
 21
1100.5
 31
0.0
  0
LINE
  5
3D2
330
1F
100
AcDbEntity
  8
Ｓ_１_１
  6
CONTINUOUS
 62
     3
100
AcDbLine
 10
2093.500002
 20
1020.500009
 30
0.0
 11
2095.588422
 21
1021.705759
 31
0.0
  0
LINE
  5
3D3
330
1F
100
AcDbEntity
  8
Ｓ_１_１
  6
CONTINUOUS
 62
     3
100
AcDbLine
 10
2066.500011
 20
1020.500009
 30
0.0
 11
2064.411539
 21
1021.705789
 31
0.0
  0
LINE
  5
3D4
330
1F
100
AcDbEntity
  8
Ｓ_１_１
  6
CONTINUOUS
 62
     3
100
AcDbLine
 10
2095.58844
 20
1029.29422
 30
0.0
 11
2095.58844
 21
1021.705765
 31
0.0
  0
LINE
  5
3D5
330
1F
100
AcDbEntity
  8
Ｓ_１_１
  6
CONTINUOUS
 62
     3
100
AcDbLine
 10
2313.0
 20
767.0000039999998
 30
0.0
 11
2313.0
 21
743.0000039999998
 31
0.0
  0
LINE
  5
3D6
330
1F
100
AcDbEntity
  8
Ｓ_１_１
  6
CONTINUOUS
 62
     3
100
AcDbLine
 10
2313.0
 20
856.9999959999998
 30
0.0
 11
2313.0
 21
832.9999959999998
 31
0.0
  0
LINE
  5
3D7
330
1F
100
AcDbEntity
  8
Ｓ_１_１
  6
CONTINUOUS
 62
     3
100
AcDbLine
 10
2313.000262
 20
742.9996589999998
 30
0.0
 11
2314.500313
 21
743.8657279999998
 31
0.0
  0
LINE
  5
3D8
330
1F
100
AcDbEntity
  8
Ｓ_１_１
  6
CONTINUOUS
 62
     3
100
AcDbLine
 10
2313.000283
 20
767.0002489999997
 30
0.0
 11
2314.500234
 21
766.1342499999998
 31
0.0
  0
LINE
  5
3D9
330
1F
100
AcDbEntity
  8
Ｓ_１_１
  6
CONTINUOUS
 62
     3
100
AcDbLine
 10
2313.000233
 20
832.9996269999997
 30
0.0
 11
2314.500296
 21
833.8656759999997
 31
0.0
  0
LINE
  5
3DA
330
1F
100
AcDbEntity
  8
Ｓ_１_１
  6
CONTINUOUS
 62
     3
100
AcDbLine
 10
2313.00027
 20
857.0003399999997
 30
0.0
 11
2314.500174
 21
856.1343829999998
 31
0.0
  0
LINE
  5
3DB
330
1F
100
AcDbEntity
  8
Ｓ_１_１
  6
CONTINUOUS
 62
     3
100
AcDbLine
 10
2314.500122
 20
766.1339719999999
 30
0.0
 11
2314.500122
 21
743.8660389999998
 31
0.0
  0
LINE
  5
3DC
330
1F
100
AcDbEntity
  8
Ｓ_１_１
  6
CONTINUOUS
 62
     3
100
AcDbLine
 10
2314.500122
 20
856.1339839999998
 30
0.0
 11
2314.500122
 21
833.8660089999998
 31
0.0
  0
LINE
  5
3DD
330
1F
100
AcDbEntity
  8
Ｓ_１_１
  6
CONTINUOUS
 62
     3
100
AcDbLine
 10
2298.499878
 20
742.9999919999998
 30
0.0
 11
2313.0
 21
742.9999919999998
 31
0.0
  0
LINE
  5
3DE
330
1F
100
AcDbEntity
  8
Ｓ_１_１
  6
CONTINUOUS
 62
     3
100
AcDbLine
 10
2298.499878
 20
766.9999999999998
 30
0.0
 11
2313.0
 21
766.9999999999998
 31
0.0
  0
LINE
  5
3DF
330
1F
100
AcDbEntity
  8
Ｓ_１_１
  6
CONTINUOUS
 62
     3
100
AcDbLine
 10
2298.499878
 20
832.9999999999998
 30
0.0
 11
2313.0
 21
832.9999999999998
 31
0.0
  0
LINE
  5
3E0
330
1F
100
AcDbEntity
  8
Ｓ_１_１
  6
CONTINUOUS
 62
     3
100
AcDbLine
 10
2298.499878
 20
857.0000079999998
 30
0.0
 11
2313.0
 21
857.0000079999998
 31
0.0
  0
LINE
  5
3E1
330
1F
100
AcDbEntity
  8
Ｓ_１_１
  6
CONTINUOUS
 62
     3
100
AcDbLine
 10
2308.499869
 20
814.9999009999997
 30
0.0
 11
2298.499872
 21
824.9999259999997
 31
0.0
  0
LINE
  5
3E2
330
1F
100
AcDbEntity
  8
Ｓ_１_１
  6
CONTINUOUS
 62
     3
100
AcDbLine
 10
2308.499869
 20
785.0000989999999
 30
0.0
 11
2298.499872
 21
775.0000739999998
 31
0.0
  0
LINE
  5
3E3
330
1F
100
AcDbEntity
  8
Ｓ_１_１
  6
CONTINUOUS
 62
     3
100
AcDbLine
 10
2398.499878
 20
814.9999999999998
 30
0.0
 11
2398.499878
 21
784.9999999999998
 31
0.0
  0
LINE
  5
3E4
330
1F
100
AcDbEntity
  8
Ｓ_１_１
  6
CONTINUOUS
 62
     3
100
AcDbLine
 10
2298.499878
 20
784.9999999999998
 30
0.0
 11
2398.499878
 21
784.9999999999998
 31
0.0
  0
LINE
  5
3E5
330
1F
100
AcDbEntity
  8
Ｓ_１_１
  6
CONTINUOUS
 62
     3
100
AcDbLine
 10
2298.499878
 20
814.9999999999998
 30
0.0
 11
2398.499878
 21
814.9999999999998
 31
0.0
  0
LINE
  5
3E6
330
1F
100
AcDbEntity
  8
Ｓ_１_１
  6
CONTINUOUS
 62
     3
100
AcDbLine
 10
2298.499878
 20
739.9999999999998
 30
0.0
 11
2283.853516
 21
739.9999999999998
 31
0.0
  0
LINE
  5
3E7
330
1F
100
AcDbEntity
  8
Ｓ_１_１
  6
CONTINUOUS
 62
     3
100
AcDbLine
 10
2298.499878
 20
859.9999999999998
 30
0.0
 11
2283.853516
 21
859.9999999999998
 31
0.0
  0
LINE
  5
3E8
330
1F
100
AcDbEntity
  8
Ｓ_１_１
  6
CONTINUOUS
 62
     3
100
AcDbLine
 10
2298.500061
 20
859.9999999999998
 30
0.0
 11
2298.500061
 21
739.9999999999998
 31
0.0
  0
LINE
  5
3E9
330
1F
100
AcDbEntity
  8
Ｓ_１_１
  6
CONTINUOUS
 62
     3
100
AcDbLine
 10
1848.000061
 20
767.0000039999998
 30
0.0
 11
1848.000061
 21
743.0000039999998
 31
0.0
  0
LINE
  5
3EA
330
1F
100
AcDbEntity
  8
Ｓ_１_１
  6
CONTINUOUS
 62
     3
100
AcDbLine
 10
1848.000061
 20
856.9999959999998
 30
0.0
 11
1848.000061
 21
832.9999959999998
 31
0.0
  0
LINE
  5
3EB
330
1F
100
AcDbEntity
  8
Ｓ_１_１
  6
CONTINUOUS
 62
     3
100
AcDbLine
 10
1848.000134
 20
743.0000059999998
 30
0.0
 11
1846.500133
 21
743.8660389999998
 31
0.0
  0
LINE
  5
3EC
330
1F
100
AcDbEntity
  8
Ｓ_１_１
  6
CONTINUOUS
 62
     3
100
AcDbLine
 10
1848.000073
 20
766.9999819999998
 30
0.0
 11
1846.500045
 21
766.1339339999997
 31
0.0
  0
LINE
  5
3ED
330
1F
100
AcDbEntity
  8
Ｓ_１_１
  6
CONTINUOUS
 62
     3
100
AcDbLine
 10
1848.000139
 20
833.0001869999998
 30
0.0
 11
1846.500162
 21
833.8662019999997
 31
0.0
  0
LINE
  5
3EE
330
1F
100
AcDbEntity
  8
Ｓ_１_１
  6
CONTINUOUS
 62
     3
100
AcDbLine
 10
1848.000121
 20
856.9998869999997
 30
0.0
 11
1846.500116
 21
856.1338599999997
 31
0.0
  0
LINE
  5
3EF
330
1F
100
AcDbEntity
  8
Ｓ_１_１
  6
CONTINUOUS
 62
     3
100
AcDbLine
 10
1846.5
 20
766.1339719999999
 30
0.0
 11
1846.5
 21
743.8660349999998
 31
0.0
  0
LINE
  5
3F0
330
1F
100
AcDbEntity
  8
Ｓ_１_１
  6
CONTINUOUS
 62
     3
100
AcDbLine
 10
1846.5
 20
856.1339759999998
 30
0.0
 11
1846.5
 21
833.8660279999996
 31
0.0
  0
LINE
  5
3F1
330
1F
100
AcDbEntity
  8
Ｓ_１_１
  6
CONTINUOUS
 62
     3
100
AcDbLine
 10
1848.000061
 20
742.9999919999998
 30
0.0
 11
1862.500031
 21
742.9999919999998
 31
0.0
  0
LINE
  5
3F2
330
1F
100
AcDbEntity
  8
Ｓ_１_１
  6
CONTINUOUS
 62
     3
100
AcDbLine
 10
1848.000061
 20
766.9999999999998
 30
0.0
 11
1862.500031
 21
766.9999999999998
 31
0.0
  0
LINE
  5
3F3
330
1F
100
AcDbEntity
  8
Ｓ_１_１
  6
CONTINUOUS
 62
     3
100
AcDbLine
 10
1848.000061
 20
832.9999999999998
 30
0.0
 11
1862.500031
 21
832.9999999999998
 31
0.0
  0
LINE
  5
3F4
330
1F
100
AcDbEntity
  8
Ｓ_１_１
  6
CONTINUOUS
 62
     3
100
AcDbLine
 10
1848.000061
 20
857.0000079999998
 30
0.0
 11
1862.500031
 21
857.0000079999998
 31
0.0
  0
LINE
  5
3F5
330
1F
100
AcDbEntity
  8
Ｓ_１_１
  6
CONTINUOUS
 62
     3
100
AcDbLine
 10
1852.500081
 20
785.0000819999997
 30
0.0
 11
1862.500079
 21
775.0001019999997
 31
0.0
  0
LINE
  5
3F6
330
1F
100
AcDbEntity
  8
Ｓ_１_１
  6
CONTINUOUS
 62
     3
100
AcDbLine
 10
1852.500081
 20
814.9999179999998
 30
0.0
 11
1862.500079
 21
824.9998979999998
 31
0.0
  0
LINE
  5
3F7
330
1F
100
AcDbEntity
  8
Ｓ_１_１
  6
CONTINUOUS
 62
     3
100
AcDbLine
 10
1762.500031
 20
814.9999999999998
 30
0.0
 11
1762.500031
 21
784.9999999999998
 31
0.0
  0
LINE
  5
3F8
330
1F
100
AcDbEntity
  8
Ｓ_１_１
  6
CONTINUOUS
 62
     3
100
AcDbLine
 10
1762.500031
 20
784.9999999999998
 30
0.0
 11
1862.500031
 21
784.9999999999998
 31
0.0
  0
LINE
  5
3F9
330
1F
100
AcDbEntity
  8
Ｓ_１_１
  6
CONTINUOUS
 62
     3
100
AcDbLine
 10
1762.500031
 20
814.9999999999998
 30
0.0
 11
1862.500031
 21
814.9999999999998
 31
0.0
  0
LINE
  5
3FA
330
1F
100
AcDbEntity
  8
Ｓ_１_１
  6
CONTINUOUS
 62
     3
100
AcDbLine
 10
1862.500031
 20
739.9999999999998
 30
0.0
 11
1876.146545
 21
739.9999999999998
 31
0.0
  0
LINE
  5
3FB
330
1F
100
AcDbEntity
  8
Ｓ_１_１
  6
CONTINUOUS
 62
     3
100
AcDbLine
 10
1862.500031
 20
859.9999999999998
 30
0.0
 11
1876.146545
 21
859.9999999999998
 31
0.0
  0
LINE
  5
3FC
330
1F
100
AcDbEntity
  8
Ｓ_１_１
  6
CONTINUOUS
 62
     3
100
AcDbLine
 10
1862.500031
 20
859.9999999999998
 30
0.0
 11
1862.500031
 21
739.9999999999998
 31
0.0
  0
LINE
  5
3FD
330
1F
100
AcDbEntity
  8
Ｓ_１_１
  6
EXLTYPE0
 62
     2
100
AcDbLine
 10
975.000014
 20
872.4999879999998
 30
0.0
 11
970.0000169999997
 21
875.3867379999996
 31
0.0
  0
LINE
  5
3FE
330
1F
100
AcDbEntity
  8
Ｓ_１_１
  6
EXLTYPE0
 62
     2
100
AcDbLine
 10
975.000014
 20
727.5000119999997
 30
0.0
 11
970.0000169999997
 21
724.6132619999998
 31
0.0
  0
LINE
  5
3FF
330
1F
100
AcDbEntity
  8
Ｓ_１_１
  6
EXLTYPE0
 62
     2
100
AcDbLine
 10
1600.0
 20
727.5000079999998
 30
0.0
 11
975.000014
 21
727.5000079999998
 31
0.0
  0
LINE
  5
400
330
1F
100
AcDbEntity
  8
Ｓ_１_１
  6
EXLTYPE0
 62
     2
100
AcDbLine
 10
1600.0
 20
872.4999919999998
 30
0.0
 11
975.000014
 21
872.4999919999998
 31
0.0
  0
LINE
  5
401
330
1F
100
AcDbEntity
  8
Ｓ_１_１
  6
EXLTYPE2
 62
     1
100
AcDbLine
 10
1125.000031
 20
1131.0
 30
0.0
 11
1125.000031
 21
1000.555511
 31
0.0
  0
DIMENSION
  5
402
330
1F
100
AcDbEntity
  8
Ｓ_１_１
  6
CONTINUOUS
 62
     2
100
AcDbDimension
  2
*D26
 10
1510.0
 20
1200.0
 30
0.0
 11
1555.0
 21
1216.5
 31
0.0
 70
   160
  3
ISO-25
100
AcDbAlignedDimension
 13
1600.0
 23
1007.5001310003
 33
0.0
 14
1510.0
 24
1104.07196
 34
0.0
100
AcDbRotatedDimension
1001
ACAD
1000
DSTYLE
1002
{
1070
   270
1070
     2
1070
     6
1000
EX_NORM
1070
     7
1000
EX_NORM
1070
    41
1040
18.0
1070
    42
1040
9.0
1070
    44
1040
6.0
1070
    73
1070
     0
1070
    74
1070
     0
1070
    75
1070
     0
1070
    76
1070
     0
1070
    77
1070
     1
1070
    78
1070
     8
1070
   140
1040
20.77742494226328
1070
   147
1040
0.0
1070
   173
1070
     1
1070
   176
1070
     2
1070
   177
1070
     2
1070
   178
1070
     2
1070
   271
1070
     2
1070
   277
1070
     2
1070
   279
1070
     2
1070
   280
1070
     0
1070
   287
1070
     5
1070
   340
1005
113
1002
}
  0
DIMENSION
  5
40F
330
1F
100
AcDbEntity
  8
Ｓ_１_１
  6
CONTINUOUS
 62
     2
100
AcDbDimension
  2
*D27
 10
1125.000031
 20
1200.0
 30
0.0
 11
1317.5000155
 21
1216.5
 31
0.0
 70
   160
  3
ISO-25
100
AcDbAlignedDimension
 13
1510.0
 23
1104.07196
 33
0.0
 14
1125.000031
 24
1131.0
 34
0.0
100
AcDbRotatedDimension
1001
ACAD
1000
DSTYLE
1002
{
1070
   270
1070
     2
1070
     6
1000
EX_NORM
1070
     7
1000
EX_NORM
1070
    41
1040
18.0
1070
    42
1040
9.0
1070
    44
1040
6.0
1070
    73
1070
     0
1070
    74
1070
     0
1070
    75
1070
     0
1070
    76
1070
     0
1070
    77
1070
     1
1070
    78
1070
     8
1070
   140
1040
20.77742494226328
1070
   147
1040
0.0
1070
   173
1070
     1
1070
   176
1070
     2
1070
   177
1070
     2
1070
   178
1070
     2
1070
   271
1070
     2
1070
   277
1070
     2
1070
   279
1070
     2
1070
   280
1070
     0
1070
   287
1070
     5
1070
   340
1005
113
1002
}
  0
DIMENSION
  5
41C
330
1F
100
AcDbEntity
  8
Ｓ_１_１
  6
CONTINUOUS
 62
     2
100
AcDbDimension
  2
*D28
 10
979.9999999999999
 20
1200.0
 30
0.0
 11
1052.5000155
 21
1216.5
 31
0.0
 70
   160
  3
ISO-25
100
AcDbAlignedDimension
 13
1125.000031
 23
1131.0
 33
0.0
 14
979.9999999999999
 24
1007.499911
 34
0.0
100
AcDbRotatedDimension
1001
ACAD
1000
DSTYLE
1002
{
1070
   270
1070
     2
1070
     6
1000
EX_NORM
1070
     7
1000
EX_NORM
1070
    41
1040
18.0
1070
    42
1040
9.0
1070
    44
1040
6.0
1070
    73
1070
     0
1070
    74
1070
     0
1070
    75
1070
     0
1070
    76
1070
     0
1070
    77
1070
     1
1070
    78
1070
     8
1070
   140
1040
20.77742494226328
1070
   147
1040
0.0
1070
   173
1070
     1
1070
   176
1070
     2
1070
   177
1070
     2
1070
   178
1070
     2
1070
   271
1070
     2
1070
   277
1070
     2
1070
   279
1070
     2
1070
   280
1070
     0
1070
   287
1070
     5
1070
   340
1005
113
1002
}
  0
LINE
  5
429
330
1F
100
AcDbEntity
  8
Ｓ_１_１
  6
EXLTYPE2
 62
     1
100
AcDbLine
 10
470.0
 20
1131.0
 30
0.0
 11
470.0
 21
567.4600069999997
 31
0.0
  0
LINE
  5
42A
330
1F
100
AcDbEntity
  8
Ｓ_１_１
  6
CONTINUOUS
 62
     3
100
AcDbLine
 10
458.5000000000003
 20
1036.862279000009
 30
0.0
 11
470.0000000000002
 21
1036.862279000009
 31
0.0
  0
LINE
  5
42B
330
1F
100
AcDbEntity
  8
Ｓ_１_１
  6
CONTINUOUS
 62
     3
100
AcDbLine
 10
470.0000000000002
 20
1036.862279000009
 30
0.0
 11
481.5000000000003
 21
1036.862279000009
 31
0.0
  0
LINE
  5
42C
330
1F
100
AcDbEntity
  8
Ｓ_１_１
  6
CONTINUOUS
 62
     3
100
AcDbLine
 10
458.5000000000003
 20
1069.862279000009
 30
0.0
 11
470.0000000000002
 21
1069.862279000009
 31
0.0
  0
LINE
  5
42D
330
1F
100
AcDbEntity
  8
Ｓ_１_１
  6
CONTINUOUS
 62
     3
100
AcDbLine
 10
470.0000000000002
 20
1069.862279000009
 30
0.0
 11
481.5000000000003
 21
1069.862279000009
 31
0.0
  0
LINE
  5
42E
330
1F
100
AcDbEntity
  8
Ｓ_１_１
  6
CONTINUOUS
 62
     3
100
AcDbLine
 10
481.5000013689003
 20
1069.862280558709
 30
0.0
 11
482.5000014189002
 21
1068.862280424308
 31
0.0
  0
LINE
  5
42F
330
1F
100
AcDbEntity
  8
Ｓ_１_１
  6
CONTINUOUS
 62
     3
100
AcDbLine
 10
482.5000007867
 20
1037.862277902909
 30
0.0
 11
481.5000009896
 21
1036.862278190009
 31
0.0
  0
LINE
  5
430
330
1F
100
AcDbEntity
  8
Ｓ_１_１
  6
CONTINUOUS
 62
     3
100
AcDbLine
 10
457.5000000481003
 20
1037.862279075809
 30
0.0
 11
458.5000001752003
 21
1036.862279033009
 31
0.0
  0
LINE
  5
431
330
1F
100
AcDbEntity
  8
Ｓ_１_１
  6
CONTINUOUS
 62
     3
100
AcDbLine
 10
458.4999997116004
 20
1069.862279462809
 30
0.0
 11
457.4999999987002
 21
1068.862279665708
 31
0.0
  0
LINE
  5
432
330
1F
100
AcDbEntity
  8
Ｓ_１_１
  6
CONTINUOUS
 62
     3
100
AcDbLine
 10
457.5000000000003
 20
1068.862279000009
 30
0.0
 11
482.5000000000003
 21
1068.862279000009
 31
0.0
  0
LINE
  5
433
330
1F
100
AcDbEntity
  8
Ｓ_１_１
  6
CONTINUOUS
 62
     3
100
AcDbLine
 10
457.5000000000003
 20
1037.862279000009
 30
0.0
 11
482.5000000000003
 21
1037.862279000009
 31
0.0
  0
LINE
  5
434
330
1F
100
AcDbEntity
  8
Ｓ_１_１
  6
CONTINUOUS
 62
     3
100
AcDbLine
 10
478.2648620000002
 20
1071.22455100002
 30
0.0
 11
461.7351450000004
 21
1071.22455100002
 31
0.0
  0
LINE
  5
435
330
1F
100
AcDbEntity
  8
Ｓ_１_１
  6
CONTINUOUS
 62
     3
100
AcDbLine
 10
462.8201190000003
 20
1077.36225200002
 30
0.0
 11
462.4365110000004
 21
1071.22453900002
 31
0.0
  0
LINE
  5
436
330
1F
100
AcDbEntity
  8
Ｓ_１_１
  6
CONTINUOUS
 62
     3
100
AcDbLine
 10
462.1187490000003
 20
1077.36227000002
 30
0.0
 11
461.6499980000003
 21
1069.86225600002
 31
0.0
  0
LINE
  5
437
330
1F
100
AcDbEntity
  8
Ｓ_１_１
  6
CONTINUOUS
 62
     3
100
AcDbLine
 10
462.4365260000004
 20
1071.22455900002
 30
0.0
 11
461.6500110000003
 21
1069.86227600002
 31
0.0
  0
LINE
  5
438
330
1F
100
AcDbEntity
  8
Ｓ_１_１
  6
CONTINUOUS
 62
     3
100
AcDbLine
 10
477.8812500000001
 20
1077.36228200002
 30
0.0
 11
478.3500030000003
 21
1069.86223700002
 31
0.0
  0
LINE
  5
439
330
1F
100
AcDbEntity
  8
Ｓ_１_１
  6
CONTINUOUS
 62
     3
100
AcDbLine
 10
478.3499890000003
 20
1069.86226000002
 30
0.0
 11
477.5634830000002
 21
1071.22453000002
 31
0.0
  0
LINE
  5
43A
330
1F
100
AcDbEntity
  8
Ｓ_１_１
  6
CONTINUOUS
 62
     3
100
AcDbLine
 10
477.1798880000004
 20
1077.36226400002
 30
0.0
 11
477.5634970000004
 21
1071.22452100002
 31
0.0
  0
LINE
  5
43B
330
1F
100
AcDbEntity
  8
Ｓ_１_１
  6
CONTINUOUS
 62
     3
100
AcDbLine
 10
478.2648620000002
 20
1035.500007
 30
0.0
 11
461.7351450000004
 21
1035.500007
 31
0.0
  0
LINE
  5
43C
330
1F
100
AcDbEntity
  8
Ｓ_１_１
  6
CONTINUOUS
 62
     3
100
AcDbLine
 10
478.3500120000004
 20
1036.862298
 30
0.0
 11
477.5634980000002
 21
1035.500015
 31
0.0
  0
LINE
  5
43D
330
1F
100
AcDbEntity
  8
Ｓ_１_１
  6
CONTINUOUS
 62
     3
100
AcDbLine
 10
462.4365030000004
 20
1035.499999
 30
0.0
 11
461.6499960000003
 21
1036.862269
 31
0.0
  0
ARC
  5
43E
330
1F
100
AcDbEntity
  8
Ｓ_１_１
  6
CONTINUOUS
 62
     3
100
AcDbCircle
 10
480.3922884999899
 20
1078.228445000018
 30
0.0
 40
6.133925000000001
100
AcDbArc
 50
55.61543800000034
 51
124.3845830000003
  0
ARC
  5
43F
330
1F
100
AcDbEntity
  8
Ｓ_１_１
  6
CONTINUOUS
 62
     3
100
AcDbCircle
 10
469.99998449999
 20
1061.434133000018
 30
0.0
 40
22.927938
100
AcDbArc
 50
72.411858
 51
107.5881660000001
  0
ARC
  5
440
330
1F
100
AcDbEntity
  8
Ｓ_１_１
  6
CONTINUOUS
 62
     3
100
AcDbCircle
 10
459.6076504999904
 20
1083.496145000018
 30
0.0
 40
6.133925000000001
100
AcDbArc
 50
235.6154019999991
 51
304.3845609999998
  0
ARC
  5
441
330
1F
100
AcDbEntity
  8
Ｓ_１_１
  6
CONTINUOUS
 62
     3
100
AcDbCircle
 10
465.4999844999905
 20
1121.362112000018
 30
0.0
 40
1.0
100
AcDbArc
 50
89.99997799999524
 51
179.9999749999976
  0
ARC
  5
442
330
1F
100
AcDbEntity
  8
Ｓ_１_１
  6
CONTINUOUS
 62
     3
100
AcDbCircle
 10
459.6076504999904
 20
1078.228445000018
 30
0.0
 40
6.133925000000001
100
AcDbArc
 50
55.6153689999997
 51
124.384513999999
  0
ARC
  5
443
330
1F
100
AcDbEntity
  8
Ｓ_１_１
  6
CONTINUOUS
 62
     3
100
AcDbCircle
 10
469.99998449999
 20
1100.290212000018
 30
0.0
 40
22.927942
100
AcDbArc
 50
252.4118210000002
 51
287.5881150000001
  0
ARC
  5
444
330
1F
100
AcDbEntity
  8
Ｓ_１_１
  6
CONTINUOUS
 62
     3
100
AcDbCircle
 10
480.3922884999899
 20
1083.496145000018
 30
0.0
 40
6.133925000000001
100
AcDbArc
 50
235.6154159999998
 51
304.3845739999999
  0
ARC
  5
445
330
1F
100
AcDbEntity
  8
Ｓ_１_１
  6
CONTINUOUS
 62
     3
100
AcDbCircle
 10
474.4999544999899
 20
1121.362112000018
 30
0.0
 40
1.0
100
AcDbArc
 50
359.9999970000023
 51
89.9999780000017
  0
LINE
  5
446
330
1F
100
AcDbEntity
  8
Ｓ_１_１
  6
CONTINUOUS
 62
     3
100
AcDbLine
 10
468.5000154999901
 20
1124.362234000018
 30
0.0
 11
471.49998449999
 21
1124.362234000018
 31
0.0
  0
LINE
  5
447
330
1F
100
AcDbEntity
  8
Ｓ_１_１
  6
CONTINUOUS
 62
     3
100
AcDbLine
 10
457.9999844999905
 20
1077.362356000018
 30
0.0
 11
481.9999544999899
 21
1077.362356000018
 31
0.0
  0
LINE
  5
448
330
1F
100
AcDbEntity
  8
Ｓ_１_１
  6
CONTINUOUS
 62
     3
100
AcDbLine
 10
464.4999544999903
 20
1121.362112000018
 30
0.0
 11
464.4999544999903
 21
1112.362356000018
 31
0.0
  0
LINE
  5
449
330
1F
100
AcDbEntity
  8
Ｓ_１_１
  6
CONTINUOUS
 62
     3
100
AcDbLine
 10
464.4999544999903
 20
1112.362356000018
 30
0.0
 11
475.49998449999
 21
1112.362356000018
 31
0.0
  0
LINE
  5
44A
330
1F
100
AcDbEntity
  8
Ｓ_１_１
  6
CONTINUOUS
 62
     3
100
AcDbLine
 10
461.0000154999905
 20
1108.862112000018
 30
0.0
 11
461.0000154999905
 21
1106.862234000018
 31
0.0
  0
LINE
  5
44B
330
1F
100
AcDbEntity
  8
Ｓ_１_１
  6
CONTINUOUS
 62
     3
100
AcDbLine
 10
478.99998449999
 20
1108.862112000018
 30
0.0
 11
478.99998449999
 21
1106.862234000018
 31
0.0
  0
LINE
  5
44C
330
1F
100
AcDbEntity
  8
Ｓ_１_１
  6
CONTINUOUS
 62
     3
100
AcDbLine
 10
458.7499844999905
 20
1093.362234000018
 30
0.0
 11
481.24998449999
 21
1093.362234000018
 31
0.0
  0
LINE
  5
44D
330
1F
100
AcDbEntity
  8
Ｓ_１_１
  6
CONTINUOUS
 62
     3
100
AcDbLine
 10
481.74998449999
 20
1092.862234000018
 30
0.0
 11
481.74998449999
 21
1084.362234000018
 31
0.0
  0
LINE
  5
44E
330
1F
100
AcDbEntity
  8
Ｓ_１_１
  6
CONTINUOUS
 62
     3
100
AcDbLine
 10
458.2499544999903
 20
1092.862234000018
 30
0.0
 11
458.2499544999903
 21
1084.362234000018
 31
0.0
  0
LINE
  5
44F
330
1F
100
AcDbEntity
  8
Ｓ_１_１
  6
CONTINUOUS
 62
     3
100
AcDbLine
 10
456.1436164999902
 20
1078.434208000018
 30
0.0
 11
457.9999884999905
 21
1077.362431000018
 31
0.0
  0
LINE
  5
450
330
1F
100
AcDbEntity
  8
Ｓ_１_１
  6
CONTINUOUS
 62
     3
100
AcDbLine
 10
481.9999114999899
 20
1084.362425000018
 30
0.0
 11
483.85638949999
 21
1083.290586000018
 31
0.0
  0
LINE
  5
451
330
1F
100
AcDbEntity
  8
Ｓ_１_１
  6
CONTINUOUS
 62
     3
100
AcDbLine
 10
481.9999534999899
 20
1077.362389000018
 30
0.0
 11
483.8563264999901
 21
1078.434166000018
 31
0.0
  0
LINE
  5
452
330
1F
100
AcDbEntity
  8
Ｓ_１_１
  6
CONTINUOUS
 62
     3
100
AcDbLine
 10
456.1436234999904
 20
1083.290726000018
 30
0.0
 11
457.9999964999905
 21
1084.362503000018
 31
0.0
  0
LINE
  5
453
330
1F
100
AcDbEntity
  8
Ｓ_１_１
  6
CONTINUOUS
 62
     3
100
AcDbLine
 10
483.8563994999897
 20
1083.290456000018
 30
0.0
 11
483.8563994999897
 21
1078.434133000018
 31
0.0
  0
LINE
  5
454
330
1F
100
AcDbEntity
  8
Ｓ_１_１
  6
CONTINUOUS
 62
     3
100
AcDbLine
 10
476.9282074999899
 20
1083.290456000018
 30
0.0
 11
476.9282074999899
 21
1078.434133000018
 31
0.0
  0
LINE
  5
455
330
1F
100
AcDbEntity
  8
Ｓ_１_１
  6
CONTINUOUS
 62
     3
100
AcDbLine
 10
463.0718534999904
 20
1083.290456000018
 30
0.0
 11
463.0718534999904
 21
1078.434133000018
 31
0.0
  0
LINE
  5
456
330
1F
100
AcDbEntity
  8
Ｓ_１_１
  6
CONTINUOUS
 62
     3
100
AcDbLine
 10
456.1435854999903
 20
1083.290456000018
 30
0.0
 11
456.1435854999903
 21
1078.434133000018
 31
0.0
  0
LINE
  5
457
330
1F
100
AcDbEntity
  8
Ｓ_１_１
  6
CONTINUOUS
 62
     3
100
AcDbLine
 10
457.9999844999905
 20
1084.362234000018
 30
0.0
 11
481.9999544999899
 21
1084.362234000018
 31
0.0
  0
LINE
  5
458
330
1F
100
AcDbEntity
  8
Ｓ_１_１
  6
CONTINUOUS
 62
     3
100
AcDbLine
 10
465.4999844999905
 20
1122.362356000019
 30
0.0
 11
474.4999544999899
 21
1122.362356000019
 31
0.0
  0
LINE
  5
459
330
1F
100
AcDbEntity
  8
Ｓ_１_１
  6
CONTINUOUS
 62
     3
100
AcDbLine
 10
471.49984349999
 20
1124.362421000018
 30
0.0
 11
473.4998884999898
 21
1122.362376000018
 31
0.0
  0
LINE
  5
45A
330
1F
100
AcDbEntity
  8
Ｓ_１_１
  6
CONTINUOUS
 62
     3
100
AcDbLine
 10
466.4998164999904
 20
1122.362419000018
 30
0.0
 11
468.4997754999897
 21
1124.362378000018
 31
0.0
  0
LINE
  5
45B
330
1F
100
AcDbEntity
  8
Ｓ_１_１
  6
CONTINUOUS
 62
     3
100
AcDbLine
 10
462.4999844999905
 20
1103.862112000018
 30
0.0
 11
477.49998449999
 21
1103.862112000018
 31
0.0
  0
LINE
  5
45C
330
1F
100
AcDbEntity
  8
Ｓ_１_１
  6
CONTINUOUS
 62
     3
100
AcDbLine
 10
462.4999844999905
 20
1105.362234000018
 30
0.0
 11
477.49998449999
 21
1105.362234000018
 31
0.0
  0
LINE
  5
45D
330
1F
100
AcDbEntity
  8
Ｓ_１_１
  6
CONTINUOUS
 62
     3
100
AcDbLine
 10
461.0000154999905
 20
1108.862112000018
 30
0.0
 11
478.99998449999
 21
1108.862112000018
 31
0.0
  0
LINE
  5
45E
330
1F
100
AcDbEntity
  8
Ｓ_１_１
  6
CONTINUOUS
 62
     3
100
AcDbLine
 10
478.99998449999
 20
1102.362356000018
 30
0.0
 11
478.99998449999
 21
1093.362234000018
 31
0.0
  0
LINE
  5
45F
330
1F
100
AcDbEntity
  8
Ｓ_１_１
  6
CONTINUOUS
 62
     3
100
AcDbLine
 10
461.0000154999905
 20
1102.362356000018
 30
0.0
 11
461.0000154999905
 21
1093.362234000018
 31
0.0
  0
LINE
  5
460
330
1F
100
AcDbEntity
  8
Ｓ_１_１
  6
CONTINUOUS
 62
     3
100
AcDbLine
 10
460.9998724999903
 20
1106.862255000018
 30
0.0
 11
462.4998844999903
 21
1105.362242000018
 31
0.0
  0
LINE
  5
461
330
1F
100
AcDbEntity
  8
Ｓ_１_１
  6
CONTINUOUS
 62
     3
100
AcDbLine
 10
477.4999504999899
 20
1105.362241000018
 30
0.0
 11
478.9998334999898
 21
1106.862124000018
 31
0.0
  0
LINE
  5
462
330
1F
100
AcDbEntity
  8
Ｓ_１_１
  6
CONTINUOUS
 62
     3
100
AcDbLine
 10
461.0000154999905
 20
1106.862234000018
 30
0.0
 11
478.99998449999
 21
1106.862234000018
 31
0.0
  0
LINE
  5
463
330
1F
100
AcDbEntity
  8
Ｓ_１_１
  6
CONTINUOUS
 62
     3
100
AcDbLine
 10
460.9999864999902
 20
1102.362389000018
 30
0.0
 11
462.4998694999902
 21
1103.862272000018
 31
0.0
  0
LINE
  5
464
330
1F
100
AcDbEntity
  8
Ｓ_１_１
  6
CONTINUOUS
 62
     3
100
AcDbLine
 10
477.4998364999899
 20
1103.862230000018
 30
0.0
 11
478.9998494999898
 21
1102.362218000018
 31
0.0
  0
LINE
  5
465
330
1F
100
AcDbEntity
  8
Ｓ_１_１
  6
CONTINUOUS
 62
     3
100
AcDbLine
 10
458.2499544999903
 20
1092.862234000018
 30
0.0
 11
481.74998449999
 21
1092.862234000018
 31
0.0
  0
LINE
  5
466
330
1F
100
AcDbEntity
  8
Ｓ_１_１
  6
CONTINUOUS
 62
     3
100
AcDbLine
 10
461.0000154999905
 20
1102.362356000018
 30
0.0
 11
478.99998449999
 21
1102.362356000018
 31
0.0
  0
LINE
  5
467
330
1F
100
AcDbEntity
  8
Ｓ_１_１
  6
CONTINUOUS
 62
     3
100
AcDbLine
 10
462.4999844999905
 20
1105.362234000018
 30
0.0
 11
462.4999844999905
 21
1103.862112000018
 31
0.0
  0
LINE
  5
468
330
1F
100
AcDbEntity
  8
Ｓ_１_１
  6
CONTINUOUS
 62
     3
100
AcDbLine
 10
477.49998449999
 20
1105.362234000018
 30
0.0
 11
477.49998449999
 21
1103.862112000018
 31
0.0
  0
LINE
  5
469
330
1F
100
AcDbEntity
  8
Ｓ_１_１
  6
CONTINUOUS
 62
     3
100
AcDbLine
 10
481.2498804999898
 20
1093.362323000018
 30
0.0
 11
481.7498274999901
 21
1092.862377000018
 31
0.0
  0
LINE
  5
46A
330
1F
100
AcDbEntity
  8
Ｓ_１_１
  6
CONTINUOUS
 62
     3
100
AcDbLine
 10
458.2499094999905
 20
1092.862325000018
 30
0.0
 11
458.7498074999906
 21
1093.362234000018
 31
0.0
  0
LINE
  5
46B
330
1F
100
AcDbEntity
  8
Ｓ_１_１
  6
CONTINUOUS
 62
     3
100
AcDbLine
 10
460.9999434999903
 20
1108.862343000018
 30
0.0
 11
464.4999574999904
 21
1112.362357000018
 31
0.0
  0
LINE
  5
46C
330
1F
100
AcDbEntity
  8
Ｓ_１_１
  6
CONTINUOUS
 62
     3
100
AcDbLine
 10
475.4998344999902
 20
1112.362143000018
 30
0.0
 11
478.9998054999899
 21
1108.862171000018
 31
0.0
  0
LINE
  5
46D
330
1F
100
AcDbEntity
  8
Ｓ_１_１
  6
CONTINUOUS
 62
     3
100
AcDbLine
 10
475.49998449999
 20
1121.362112000018
 30
0.0
 11
475.49998449999
 21
1112.362356000018
 31
0.0
  0
LINE
  5
46E
330
1F
100
AcDbEntity
  8
Ｓ_１_１
  6
CONTINUOUS
 62
     3
100
AcDbLine
 10
519.0000000000009
 20
1057.612279000009
 30
0.0
 11
524.0000000000009
 21
1057.612279000009
 31
0.0
  0
LINE
  5
46F
330
1F
100
AcDbEntity
  8
Ｓ_１_１
  6
CONTINUOUS
 62
     3
100
AcDbLine
 10
519.0000000000009
 20
1049.112279000009
 30
0.0
 11
524.0000000000009
 21
1049.112279000009
 31
0.0
  0
LINE
  5
470
330
1F
100
AcDbEntity
  8
Ｓ_１_１
  6
CONTINUOUS
 62
     3
100
AcDbLine
 10
519.0000000000009
 20
1048.362279000009
 30
0.0
 11
523.2500000000009
 21
1048.362279000009
 31
0.0
  0
LINE
  5
471
330
1F
100
AcDbEntity
  8
Ｓ_１_１
  6
CONTINUOUS
 62
     3
100
AcDbLine
 10
519.0000000000009
 20
1058.362279000009
 30
0.0
 11
523.2500000000009
 21
1058.362279000009
 31
0.0
  0
LINE
  5
472
330
1F
100
AcDbEntity
  8
Ｓ_１_１
  6
CONTINUOUS
 62
     3
100
AcDbLine
 10
524.0000000000009
 20
1049.112279000009
 30
0.0
 11
524.0000000000009
 21
1057.612279000009
 31
0.0
  0
LINE
  5
473
330
1F
100
AcDbEntity
  8
Ｓ_１_１
  6
CONTINUOUS
 62
     3
100
AcDbLine
 10
523.2500000000009
 20
1048.362279000009
 30
0.0
 11
523.2500000000009
 21
1058.362279000009
 31
0.0
  0
LINE
  5
474
330
1F
100
AcDbEntity
  8
Ｓ_１_１
  6
CONTINUOUS
 62
     3
100
AcDbLine
 10
523.250002557701
 20
1048.362280125009
 30
0.0
 11
524.000000656501
 21
1049.112278287009
 31
0.0
  0
LINE
  5
475
330
1F
100
AcDbEntity
  8
Ｓ_１_１
  6
CONTINUOUS
 62
     3
100
AcDbLine
 10
524.0000016470008
 20
1057.612280925309
 30
0.0
 11
523.2500014619009
 21
1058.362281047109
 31
0.0
  0
LINE
  5
476
330
1F
100
AcDbEntity
  8
Ｓ_１_１
  6
CONTINUOUS
 62
     3
100
AcDbLine
 10
512.0000000000009
 20
1053.362279000009
 30
0.0
 11
512.0000000000009
 21
1063.362279000009
 31
0.0
  0
LINE
  5
477
330
1F
100
AcDbEntity
  8
Ｓ_１_１
  6
CONTINUOUS
 62
     3
100
AcDbLine
 10
512.0000000000009
 20
1043.362279000009
 30
0.0
 11
512.0000000000009
 21
1053.362279000009
 31
0.0
  0
LINE
  5
478
330
1F
100
AcDbEntity
  8
Ｓ_１_１
  6
CONTINUOUS
 62
     3
100
AcDbLine
 10
512.000000551001
 20
1063.362278449009
 30
0.0
 11
513.0000005800007
 21
1062.362278335708
 31
0.0
  0
LINE
  5
479
330
1F
100
AcDbEntity
  8
Ｓ_１_１
  6
CONTINUOUS
 62
     3
100
AcDbLine
 10
513.000000284901
 20
1044.362279200609
 30
0.0
 11
512.0000004877011
 21
1043.362279487709
 31
0.0
  0
LINE
  5
47A
330
1F
100
AcDbEntity
  8
Ｓ_１_１
  6
CONTINUOUS
 62
     3
100
AcDbLine
 10
513.0000000000009
 20
1044.362279200609
 30
0.0
 11
513.0000000000009
 21
1053.362279000009
 31
0.0
  0
LINE
  5
47B
330
1F
100
AcDbEntity
  8
Ｓ_１_１
  6
CONTINUOUS
 62
     3
100
AcDbLine
 10
513.0000000000009
 20
1053.362279000009
 30
0.0
 11
513.0000000000009
 21
1062.362278335708
 31
0.0
  0
LINE
  5
47C
330
1F
100
AcDbEntity
  8
Ｓ_１_１
  6
CONTINUOUS
 62
     3
100
AcDbLine
 10
482.5000000000005
 20
1063.362279000009
 30
0.0
 11
512.0000000000009
 21
1063.362279000009
 31
0.0
  0
LINE
  5
47D
330
1F
100
AcDbEntity
  8
Ｓ_１_１
  6
CONTINUOUS
 62
     3
100
AcDbLine
 10
518.999998165601
 20
1060.854691663209
 30
0.0
 11
517.9999979724007
 21
1062.862278252908
 31
0.0
  0
LINE
  5
47E
330
1F
100
AcDbEntity
  8
Ｓ_１_１
  6
CONTINUOUS
 62
     3
100
AcDbLine
 10
518.9999995145008
 20
1045.869865244009
 30
0.0
 11
517.999999321301
 21
1043.862278654309
 31
0.0
  0
LINE
  5
47F
330
1F
100
AcDbEntity
  8
Ｓ_１_１
  6
CONTINUOUS
 62
     3
100
AcDbLine
 10
512.999999976601
 20
1060.854692306209
 30
0.0
 11
514.0000001698008
 21
1062.862278895909
 31
0.0
  0
LINE
  5
480
330
1F
100
AcDbEntity
  8
Ｓ_１_１
  6
CONTINUOUS
 62
     3
100
AcDbLine
 10
512.999998485901
 20
1045.869864885709
 30
0.0
 11
513.9999985375007
 21
1043.862278580509
 31
0.0
  0
LINE
  5
481
330
1F
100
AcDbEntity
  8
Ｓ_１_１
  6
CONTINUOUS
 62
     3
100
AcDbLine
 10
514.0000000000009
 20
1043.862279000009
 30
0.0
 11
518.0000000000009
 21
1043.862279000009
 31
0.0
  0
LINE
  5
482
330
1F
100
AcDbEntity
  8
Ｓ_１_１
  6
CONTINUOUS
 62
     3
100
AcDbLine
 10
514.0000000000009
 20
1062.862279000009
 30
0.0
 11
518.0000000000009
 21
1062.862279000009
 31
0.0
  0
LINE
  5
483
330
1F
100
AcDbEntity
  8
Ｓ_１_１
  6
CONTINUOUS
 62
     3
100
AcDbLine
 10
519.0000000000009
 20
1053.362279000009
 30
0.0
 11
519.0000000000009
 21
1060.854692838709
 31
0.0
  0
LINE
  5
484
330
1F
100
AcDbEntity
  8
Ｓ_１_１
  6
CONTINUOUS
 62
     3
100
AcDbLine
 10
519.0000000000009
 20
1045.869865161309
 30
0.0
 11
519.0000000000009
 21
1053.362279000009
 31
0.0
  0
ARC
  5
485
330
1F
100
AcDbEntity
  8
Ｓ_１_１
  6
CONTINUOUS
 62
     3
100
AcDbCircle
 10
528.5416666667011
 20
1053.362279000009
 30
0.0
 40
15.5416666667
100
AcDbArc
 50
159.3345163543002
 51
159.3345238904477
  0
ARC
  5
486
330
1F
100
AcDbEntity
  8
Ｓ_１_１
  6
CONTINUOUS
 62
     3
100
AcDbCircle
 10
503.4583333333008
 20
1053.362279000009
 30
0.0
 40
15.5416666667
100
AcDbArc
 50
20.66547610955293
 51
20.66547840939962
  0
ARC
  5
487
330
1F
100
AcDbEntity
  8
Ｓ_１_１
  6
CONTINUOUS
 62
     3
100
AcDbCircle
 10
528.5416666667011
 20
1053.362279000009
 30
0.0
 40
15.5416666667
100
AcDbArc
 50
162.8126324028145
 51
197.1873680951787
  0
ARC
  5
488
330
1F
100
AcDbEntity
  8
Ｓ_１_１
  6
CONTINUOUS
 62
     3
100
AcDbCircle
 10
528.5416666667011
 20
1053.362279000009
 30
0.0
 40
15.5416666667
100
AcDbArc
 50
200.6654786560356
 51
200.6654800033002
  0
ARC
  5
489
330
1F
100
AcDbEntity
  8
Ｓ_１_１
  6
CONTINUOUS
 62
     3
100
AcDbCircle
 10
503.4583333333008
 20
1053.362279000009
 30
0.0
 40
15.5416666667
100
AcDbArc
 50
342.8126319048212
 51
17.18736759718547
  0
LINE
  5
48A
330
1F
100
AcDbEntity
  8
Ｓ_１_１
  6
CONTINUOUS
 62
     3
100
AcDbLine
 10
518.3059641178629
 20
1057.954801494689
 30
0.0
 11
513.6940358821389
 21
1057.954801494689
 31
0.0
  0
LINE
  5
48B
330
1F
100
AcDbEntity
  8
Ｓ_１_１
  6
CONTINUOUS
 62
     3
100
AcDbLine
 10
518.3059640779466
 20
1048.769756376279
 30
0.0
 11
513.6940359220553
 21
1048.769756376279
 31
0.0
  0
ARC
  5
48C
330
1F
100
AcDbEntity
  8
Ｓ_１_１
  6
CONTINUOUS
 62
     3
100
AcDbCircle
 10
513.0000000000009
 20
1045.869861846019
 30
0.0
 40
6.000000000001596
100
AcDbArc
 50
0.0000417559226242
 51
28.90218407791362
  0
ARC
  5
48D
330
1F
100
AcDbEntity
  8
Ｓ_１_１
  6
CONTINUOUS
 62
     3
100
AcDbCircle
 10
519.0000000000009
 20
1045.869866218689
 30
0.0
 40
6.000000000001596
100
AcDbArc
 50
151.0978636188124
 51
180.0000417558857
  0
ARC
  5
48E
330
1F
100
AcDbEntity
  8
Ｓ_１_１
  6
CONTINUOUS
 62
     3
100
AcDbCircle
 10
519.0000000000009
 20
1060.854692353189
 30
0.0
 40
6.000000000000005
100
AcDbArc
 50
179.9999920172612
 51
208.9021440266621
  0
ARC
  5
48F
330
1F
100
AcDbEntity
  8
Ｓ_１_１
  6
CONTINUOUS
 62
     3
100
AcDbCircle
 10
513.0000000000009
 20
1060.854692353189
 30
0.0
 40
6.000000000001596
100
AcDbArc
 50
331.0978559733464
 51
0.0
  0
LINE
  5
490
330
1F
100
AcDbEntity
  8
Ｓ_１_１
  6
CONTINUOUS
 62
     3
100
AcDbLine
 10
482.5000000000005
 20
1043.362279000009
 30
0.0
 11
512.0000000000009
 21
1043.362279000009
 31
0.0
  0
LINE
  5
491
330
1F
100
AcDbEntity
  8
Ｓ_１_１
  6
EXLTYPE2
 62
     1
100
AcDbLine
 10
456.1188507080006
 20
1053.362279000009
 30
0.0
 11
525.011447906501
 21
1053.362279000009
 31
0.0
  0
LINE
  5
492
330
1F
100
AcDbEntity
  8
Ｓ_１_１
  6
CONTINUOUS
 62
     3
100
AcDbLine
 10
462.047650812499
 20
1030.5
 30
0.0
 11
461.6500100000003
 21
1036.862263
 31
0.0
  0
LINE
  5
493
330
1F
100
AcDbEntity
  8
Ｓ_１_１
  6
CONTINUOUS
 62
     3
100
AcDbLine
 10
462.7490140000003
 20
1030.5
 30
0.0
 11
462.4365130000004
 21
1035.50001
 31
0.0
  0
LINE
  5
494
330
1F
100
AcDbEntity
  8
Ｓ_１_１
  6
CONTINUOUS
 62
     3
100
AcDbLine
 10
477.2509897500013
 20
1030.5
 30
0.0
 11
477.5634900000002
 21
1035.499998
 31
0.0
  0
LINE
  5
495
330
1F
100
AcDbEntity
  8
Ｓ_１_１
  6
CONTINUOUS
 62
     3
100
AcDbLine
 10
477.9523530000004
 20
1030.5
 30
0.0
 11
478.3499930000003
 21
1036.862251
 31
0.0
  0
LINE
  5
496
330
1F
100
AcDbEntity
  8
Ｓ_１_１
  6
CONTINUOUS
 62
     3
100
AcDbLine
 10
457.5000000000003
 20
1037.862279000009
 30
0.0
 11
457.5000000000003
 21
1068.862279000009
 31
0.0
  0
LINE
  5
497
330
1F
100
AcDbEntity
  8
Ｓ_１_１
  6
CONTINUOUS
 62
     3
100
AcDbLine
 10
482.5000000000003
 20
1037.862279000009
 30
0.0
 11
482.5000000000003
 21
1068.862279000009
 31
0.0
  0
LINE
  5
498
330
1F
100
AcDbEntity
  8
Ｓ_１_１
  6
CONTINUOUS
 62
     3
100
AcDbLine
 10
1113.500031
 20
1036.862291000009
 30
0.0
 11
1125.000031
 21
1036.862291000009
 31
0.0
  0
LINE
  5
499
330
1F
100
AcDbEntity
  8
Ｓ_１_１
  6
CONTINUOUS
 62
     3
100
AcDbLine
 10
1125.000031
 20
1036.862291000009
 30
0.0
 11
1136.500031
 21
1036.862291000009
 31
0.0
  0
LINE
  5
49A
330
1F
100
AcDbEntity
  8
Ｓ_１_１
  6
CONTINUOUS
 62
     3
100
AcDbLine
 10
1137.500031
 20
1037.862291000009
 30
0.0
 11
1137.500031
 21
1053.362291000009
 31
0.0
  0
LINE
  5
49B
330
1F
100
AcDbEntity
  8
Ｓ_１_１
  6
CONTINUOUS
 62
     3
100
AcDbLine
 10
1137.500031
 20
1068.862291000009
 30
0.0
 11
1137.500031
 21
1053.362291000009
 31
0.0
  0
LINE
  5
49C
330
1F
100
AcDbEntity
  8
Ｓ_１_１
  6
CONTINUOUS
 62
     3
100
AcDbLine
 10
1113.500031
 20
1069.862291000009
 30
0.0
 11
1125.000031
 21
1069.862291000009
 31
0.0
  0
LINE
  5
49D
330
1F
100
AcDbEntity
  8
Ｓ_１_１
  6
CONTINUOUS
 62
     3
100
AcDbLine
 10
1125.000031
 20
1069.862291000009
 30
0.0
 11
1136.500031
 21
1069.862291000009
 31
0.0
  0
LINE
  5
49E
330
1F
100
AcDbEntity
  8
Ｓ_１_１
  6
CONTINUOUS
 62
     3
100
AcDbLine
 10
1136.5000323689
 20
1069.862292558709
 30
0.0
 11
1137.5000324189
 21
1068.862292424309
 31
0.0
  0
LINE
  5
49F
330
1F
100
AcDbEntity
  8
Ｓ_１_１
  6
CONTINUOUS
 62
     3
100
AcDbLine
 10
1137.5000317867
 20
1037.862289902909
 30
0.0
 11
1136.5000319896
 21
1036.862290190009
 31
0.0
  0
LINE
  5
4A0
330
1F
100
AcDbEntity
  8
Ｓ_１_１
  6
CONTINUOUS
 62
     3
100
AcDbLine
 10
1112.5000310481
 20
1037.862291075809
 30
0.0
 11
1113.5000311752
 21
1036.862291033009
 31
0.0
  0
LINE
  5
4A1
330
1F
100
AcDbEntity
  8
Ｓ_１_１
  6
CONTINUOUS
 62
     3
100
AcDbLine
 10
1112.500031
 20
1037.862291000009
 30
0.0
 11
1112.500031
 21
1053.362291000009
 31
0.0
  0
LINE
  5
4A2
330
1F
100
AcDbEntity
  8
Ｓ_１_１
  6
CONTINUOUS
 62
     3
100
AcDbLine
 10
1113.5000307116
 20
1069.862291462809
 30
0.0
 11
1112.5000309987
 21
1068.862291665709
 31
0.0
  0
LINE
  5
4A3
330
1F
100
AcDbEntity
  8
Ｓ_１_１
  6
CONTINUOUS
 62
     3
100
AcDbLine
 10
1112.500031
 20
1068.862291000009
 30
0.0
 11
1112.500031
 21
1053.362291000009
 31
0.0
  0
LINE
  5
4A4
330
1F
100
AcDbEntity
  8
Ｓ_１_１
  6
CONTINUOUS
 62
     3
100
AcDbLine
 10
1112.500031
 20
1068.862291000009
 30
0.0
 11
1137.500031
 21
1068.862291000009
 31
0.0
  0
LINE
  5
4A5
330
1F
100
AcDbEntity
  8
Ｓ_１_１
  6
CONTINUOUS
 62
     3
100
AcDbLine
 10
1112.500031
 20
1037.862291000009
 30
0.0
 11
1137.500031
 21
1037.862291000009
 31
0.0
  0
LINE
  5
4A6
330
1F
100
AcDbEntity
  8
Ｓ_１_１
  6
CONTINUOUS
 62
     3
100
AcDbLine
 10
1133.264893
 20
1071.22456300002
 30
0.0
 11
1116.735176
 21
1071.22456300002
 31
0.0
  0
LINE
  5
4A7
330
1F
100
AcDbEntity
  8
Ｓ_１_１
  6
CONTINUOUS
 62
     3
100
AcDbLine
 10
1117.82015
 20
1077.36226400002
 30
0.0
 11
1117.436542
 21
1071.22455100002
 31
0.0
  0
LINE
  5
4A8
330
1F
100
AcDbEntity
  8
Ｓ_１_１
  6
CONTINUOUS
 62
     3
100
AcDbLine
 10
1117.11878
 20
1077.36228200002
 30
0.0
 11
1116.650029
 21
1069.86226800002
 31
0.0
  0
LINE
  5
4A9
330
1F
100
AcDbEntity
  8
Ｓ_１_１
  6
CONTINUOUS
 62
     3
100
AcDbLine
 10
1117.436557
 20
1071.22457100002
 30
0.0
 11
1116.650042
 21
1069.86228800002
 31
0.0
  0
LINE
  5
4AA
330
1F
100
AcDbEntity
  8
Ｓ_１_１
  6
CONTINUOUS
 62
     3
100
AcDbLine
 10
1132.881281
 20
1077.36229400002
 30
0.0
 11
1133.350034
 21
1069.86224900002
 31
0.0
  0
LINE
  5
4AB
330
1F
100
AcDbEntity
  8
Ｓ_１_１
  6
CONTINUOUS
 62
     3
100
AcDbLine
 10
1133.35002
 20
1069.86227200002
 30
0.0
 11
1132.563514
 21
1071.22454200002
 31
0.0
  0
LINE
  5
4AC
330
1F
100
AcDbEntity
  8
Ｓ_１_１
  6
CONTINUOUS
 62
     3
100
AcDbLine
 10
1132.179919
 20
1077.36227600002
 30
0.0
 11
1132.563528
 21
1071.22453300002
 31
0.0
  0
LINE
  5
4AD
330
1F
100
AcDbEntity
  8
Ｓ_１_１
  6
CONTINUOUS
 62
     3
100
AcDbLine
 10
1132.25102
 20
1030.5
 30
0.0
 11
1132.563521
 21
1035.50001
 31
0.0
  0
LINE
  5
4AE
330
1F
100
AcDbEntity
  8
Ｓ_１_１
  6
CONTINUOUS
 62
     3
100
AcDbLine
 10
1132.952384
 20
1030.500012
 30
0.0
 11
1133.350024
 21
1036.862263
 31
0.0
  0
LINE
  5
4AF
330
1F
100
AcDbEntity
  8
Ｓ_１_１
  6
CONTINUOUS
 62
     3
100
AcDbLine
 10
1133.264893
 20
1035.500019
 30
0.0
 11
1116.735176
 21
1035.500019
 31
0.0
  0
LINE
  5
4B0
330
1F
100
AcDbEntity
  8
Ｓ_１_１
  6
CONTINUOUS
 62
     3
100
AcDbLine
 10
1133.350043
 20
1036.86231
 30
0.0
 11
1132.563529
 21
1035.500027
 31
0.0
  0
LINE
  5
4B1
330
1F
100
AcDbEntity
  8
Ｓ_１_１
  6
CONTINUOUS
 62
     3
100
AcDbLine
 10
1117.749045
 20
1030.500012
 30
0.0
 11
1117.436544
 21
1035.500022
 31
0.0
  0
LINE
  5
4B2
330
1F
100
AcDbEntity
  8
Ｓ_１_１
  6
CONTINUOUS
 62
     3
100
AcDbLine
 10
1117.047681
 20
1030.500025
 30
0.0
 11
1116.650041
 21
1036.862275
 31
0.0
  0
LINE
  5
4B3
330
1F
100
AcDbEntity
  8
Ｓ_１_１
  6
CONTINUOUS
 62
     3
100
AcDbLine
 10
1117.436534
 20
1035.500011
 30
0.0
 11
1116.650027
 21
1036.862281
 31
0.0
  0
ARC
  5
4B4
330
1F
100
AcDbEntity
  8
Ｓ_１_１
  6
CONTINUOUS
 62
     3
100
AcDbCircle
 10
1135.39231949999
 20
1078.228457000018
 30
0.0
 40
6.133925000000001
100
AcDbArc
 50
55.61543800000034
 51
124.3845830000003
  0
ARC
  5
4B5
330
1F
100
AcDbEntity
  8
Ｓ_１_１
  6
CONTINUOUS
 62
     3
100
AcDbCircle
 10
1125.00001549999
 20
1061.434145000018
 30
0.0
 40
22.927938
100
AcDbArc
 50
72.411858
 51
107.5881660000001
  0
ARC
  5
4B6
330
1F
100
AcDbEntity
  8
Ｓ_１_１
  6
CONTINUOUS
 62
     3
100
AcDbCircle
 10
1114.60768149999
 20
1083.496157000018
 30
0.0
 40
6.133925000000001
100
AcDbArc
 50
235.6154019999991
 51
304.3845609999998
  0
ARC
  5
4B7
330
1F
100
AcDbEntity
  8
Ｓ_１_１
  6
CONTINUOUS
 62
     3
100
AcDbCircle
 10
1120.50001549999
 20
1121.362124000018
 30
0.0
 40
1.0
100
AcDbArc
 50
89.99997799999524
 51
179.9999749999976
  0
ARC
  5
4B8
330
1F
100
AcDbEntity
  8
Ｓ_１_１
  6
CONTINUOUS
 62
     3
100
AcDbCircle
 10
1114.60768149999
 20
1078.228457000018
 30
0.0
 40
6.133925000000001
100
AcDbArc
 50
55.6153689999997
 51
124.384513999999
  0
ARC
  5
4B9
330
1F
100
AcDbEntity
  8
Ｓ_１_１
  6
CONTINUOUS
 62
     3
100
AcDbCircle
 10
1125.00001549999
 20
1100.290224000018
 30
0.0
 40
22.927942
100
AcDbArc
 50
252.4118210000002
 51
287.5881150000001
  0
ARC
  5
4BA
330
1F
100
AcDbEntity
  8
Ｓ_１_１
  6
CONTINUOUS
 62
     3
100
AcDbCircle
 10
1135.39231949999
 20
1083.496157000018
 30
0.0
 40
6.133925000000001
100
AcDbArc
 50
235.6154159999998
 51
304.3845739999999
  0
ARC
  5
4BB
330
1F
100
AcDbEntity
  8
Ｓ_１_１
  6
CONTINUOUS
 62
     3
100
AcDbCircle
 10
1129.49998549999
 20
1121.362124000018
 30
0.0
 40
1.0
100
AcDbArc
 50
359.9999970000023
 51
89.9999780000017
  0
LINE
  5
4BC
330
1F
100
AcDbEntity
  8
Ｓ_１_１
  6
CONTINUOUS
 62
     3
100
AcDbLine
 10
1123.50004649999
 20
1124.362246000018
 30
0.0
 11
1126.50001549999
 21
1124.362246000018
 31
0.0
  0
LINE
  5
4BD
330
1F
100
AcDbEntity
  8
Ｓ_１_１
  6
CONTINUOUS
 62
     3
100
AcDbLine
 10
1113.00001549999
 20
1077.362368000018
 30
0.0
 11
1136.99998549999
 21
1077.362368000018
 31
0.0
  0
LINE
  5
4BE
330
1F
100
AcDbEntity
  8
Ｓ_１_１
  6
CONTINUOUS
 62
     3
100
AcDbLine
 10
1119.49998549999
 20
1121.362124000018
 30
0.0
 11
1119.49998549999
 21
1112.362368000018
 31
0.0
  0
LINE
  5
4BF
330
1F
100
AcDbEntity
  8
Ｓ_１_１
  6
CONTINUOUS
 62
     3
100
AcDbLine
 10
1119.49998549999
 20
1112.362368000018
 30
0.0
 11
1130.50001549999
 21
1112.362368000018
 31
0.0
  0
LINE
  5
4C0
330
1F
100
AcDbEntity
  8
Ｓ_１_１
  6
CONTINUOUS
 62
     3
100
AcDbLine
 10
1116.000046499991
 20
1108.862124000018
 30
0.0
 11
1116.000046499991
 21
1106.862246000018
 31
0.0
  0
LINE
  5
4C1
330
1F
100
AcDbEntity
  8
Ｓ_１_１
  6
CONTINUOUS
 62
     3
100
AcDbLine
 10
1134.00001549999
 20
1108.862124000018
 30
0.0
 11
1134.00001549999
 21
1106.862246000018
 31
0.0
  0
LINE
  5
4C2
330
1F
100
AcDbEntity
  8
Ｓ_１_１
  6
CONTINUOUS
 62
     3
100
AcDbLine
 10
1113.75001549999
 20
1093.362246000018
 30
0.0
 11
1136.25001549999
 21
1093.362246000018
 31
0.0
  0
LINE
  5
4C3
330
1F
100
AcDbEntity
  8
Ｓ_１_１
  6
CONTINUOUS
 62
     3
100
AcDbLine
 10
1136.75001549999
 20
1092.862246000018
 30
0.0
 11
1136.75001549999
 21
1084.362246000018
 31
0.0
  0
LINE
  5
4C4
330
1F
100
AcDbEntity
  8
Ｓ_１_１
  6
CONTINUOUS
 62
     3
100
AcDbLine
 10
1113.24998549999
 20
1092.862246000018
 30
0.0
 11
1113.24998549999
 21
1084.362246000018
 31
0.0
  0
LINE
  5
4C5
330
1F
100
AcDbEntity
  8
Ｓ_１_１
  6
CONTINUOUS
 62
     3
100
AcDbLine
 10
1111.14364749999
 20
1078.434220000018
 30
0.0
 11
1113.00001949999
 21
1077.362443000019
 31
0.0
  0
LINE
  5
4C6
330
1F
100
AcDbEntity
  8
Ｓ_１_１
  6
CONTINUOUS
 62
     3
100
AcDbLine
 10
1136.99994249999
 20
1084.362437000018
 30
0.0
 11
1138.85642049999
 21
1083.290598000018
 31
0.0
  0
LINE
  5
4C7
330
1F
100
AcDbEntity
  8
Ｓ_１_１
  6
CONTINUOUS
 62
     3
100
AcDbLine
 10
1136.99998449999
 20
1077.362401000019
 30
0.0
 11
1138.85635749999
 21
1078.434178000019
 31
0.0
  0
LINE
  5
4C8
330
1F
100
AcDbEntity
  8
Ｓ_１_１
  6
CONTINUOUS
 62
     3
100
AcDbLine
 10
1111.14365449999
 20
1083.290738000018
 30
0.0
 11
1113.00002749999
 21
1084.362515000018
 31
0.0
  0
LINE
  5
4C9
330
1F
100
AcDbEntity
  8
Ｓ_１_１
  6
CONTINUOUS
 62
     3
100
AcDbLine
 10
1138.85643049999
 20
1083.290468000018
 30
0.0
 11
1138.85643049999
 21
1078.434145000018
 31
0.0
  0
LINE
  5
4CA
330
1F
100
AcDbEntity
  8
Ｓ_１_１
  6
CONTINUOUS
 62
     3
100
AcDbLine
 10
1131.92823849999
 20
1083.290468000018
 30
0.0
 11
1131.92823849999
 21
1078.434145000018
 31
0.0
  0
LINE
  5
4CB
330
1F
100
AcDbEntity
  8
Ｓ_１_１
  6
CONTINUOUS
 62
     3
100
AcDbLine
 10
1118.07188449999
 20
1083.290468000018
 30
0.0
 11
1118.07188449999
 21
1078.434145000018
 31
0.0
  0
LINE
  5
4CC
330
1F
100
AcDbEntity
  8
Ｓ_１_１
  6
CONTINUOUS
 62
     3
100
AcDbLine
 10
1111.14361649999
 20
1083.290468000018
 30
0.0
 11
1111.14361649999
 21
1078.434145000018
 31
0.0
  0
LINE
  5
4CD
330
1F
100
AcDbEntity
  8
Ｓ_１_１
  6
CONTINUOUS
 62
     3
100
AcDbLine
 10
1113.00001549999
 20
1084.362246000018
 30
0.0
 11
1136.99998549999
 21
1084.362246000018
 31
0.0
  0
LINE
  5
4CE
330
1F
100
AcDbEntity
  8
Ｓ_１_１
  6
CONTINUOUS
 62
     3
100
AcDbLine
 10
1120.50001549999
 20
1122.362368000019
 30
0.0
 11
1129.49998549999
 21
1122.362368000019
 31
0.0
  0
LINE
  5
4CF
330
1F
100
AcDbEntity
  8
Ｓ_１_１
  6
CONTINUOUS
 62
     3
100
AcDbLine
 10
1126.49987449999
 20
1124.362433000018
 30
0.0
 11
1128.49991949999
 21
1122.362388000019
 31
0.0
  0
LINE
  5
4D0
330
1F
100
AcDbEntity
  8
Ｓ_１_１
  6
CONTINUOUS
 62
     3
100
AcDbLine
 10
1121.49984749999
 20
1122.362431000018
 30
0.0
 11
1123.49980649999
 21
1124.362390000018
 31
0.0
  0
LINE
  5
4D1
330
1F
100
AcDbEntity
  8
Ｓ_１_１
  6
CONTINUOUS
 62
     3
100
AcDbLine
 10
1117.50001549999
 20
1103.862124000018
 30
0.0
 11
1132.50001549999
 21
1103.862124000018
 31
0.0
  0
LINE
  5
4D2
330
1F
100
AcDbEntity
  8
Ｓ_１_１
  6
CONTINUOUS
 62
     3
100
AcDbLine
 10
1117.50001549999
 20
1105.362246000018
 30
0.0
 11
1132.50001549999
 21
1105.362246000018
 31
0.0
  0
LINE
  5
4D3
330
1F
100
AcDbEntity
  8
Ｓ_１_１
  6
CONTINUOUS
 62
     3
100
AcDbLine
 10
1116.000046499991
 20
1108.862124000018
 30
0.0
 11
1134.00001549999
 21
1108.862124000018
 31
0.0
  0
LINE
  5
4D4
330
1F
100
AcDbEntity
  8
Ｓ_１_１
  6
CONTINUOUS
 62
     3
100
AcDbLine
 10
1134.00001549999
 20
1102.362368000018
 30
0.0
 11
1134.00001549999
 21
1093.362246000018
 31
0.0
  0
LINE
  5
4D5
330
1F
100
AcDbEntity
  8
Ｓ_１_１
  6
CONTINUOUS
 62
     3
100
AcDbLine
 10
1116.000046499991
 20
1102.362368000018
 30
0.0
 11
1116.000046499991
 21
1093.362246000018
 31
0.0
  0
LINE
  5
4D6
330
1F
100
AcDbEntity
  8
Ｓ_１_１
  6
CONTINUOUS
 62
     3
100
AcDbLine
 10
1115.99990349999
 20
1106.862267000019
 30
0.0
 11
1117.49991549999
 21
1105.362254000018
 31
0.0
  0
LINE
  5
4D7
330
1F
100
AcDbEntity
  8
Ｓ_１_１
  6
CONTINUOUS
 62
     3
100
AcDbLine
 10
1132.49998149999
 20
1105.362253000018
 30
0.0
 11
1133.99986449999
 21
1106.862136000018
 31
0.0
  0
LINE
  5
4D8
330
1F
100
AcDbEntity
  8
Ｓ_１_１
  6
CONTINUOUS
 62
     3
100
AcDbLine
 10
1116.000046499991
 20
1106.862246000018
 30
0.0
 11
1134.00001549999
 21
1106.862246000018
 31
0.0
  0
LINE
  5
4D9
330
1F
100
AcDbEntity
  8
Ｓ_１_１
  6
CONTINUOUS
 62
     3
100
AcDbLine
 10
1116.00001749999
 20
1102.362401000019
 30
0.0
 11
1117.49990049999
 21
1103.862284000018
 31
0.0
  0
LINE
  5
4DA
330
1F
100
AcDbEntity
  8
Ｓ_１_１
  6
CONTINUOUS
 62
     3
100
AcDbLine
 10
1132.49986749999
 20
1103.862242000018
 30
0.0
 11
1133.99988049999
 21
1102.362230000018
 31
0.0
  0
LINE
  5
4DB
330
1F
100
AcDbEntity
  8
Ｓ_１_１
  6
CONTINUOUS
 62
     3
100
AcDbLine
 10
1113.24998549999
 20
1092.862246000018
 30
0.0
 11
1136.75001549999
 21
1092.862246000018
 31
0.0
  0
LINE
  5
4DC
330
1F
100
AcDbEntity
  8
Ｓ_１_１
  6
CONTINUOUS
 62
     3
100
AcDbLine
 10
1116.000046499991
 20
1102.362368000018
 30
0.0
 11
1134.00001549999
 21
1102.362368000018
 31
0.0
  0
LINE
  5
4DD
330
1F
100
AcDbEntity
  8
Ｓ_１_１
  6
CONTINUOUS
 62
     3
100
AcDbLine
 10
1117.50001549999
 20
1105.362246000018
 30
0.0
 11
1117.50001549999
 21
1103.862124000018
 31
0.0
  0
LINE
  5
4DE
330
1F
100
AcDbEntity
  8
Ｓ_１_１
  6
CONTINUOUS
 62
     3
100
AcDbLine
 10
1132.50001549999
 20
1105.362246000018
 30
0.0
 11
1132.50001549999
 21
1103.862124000018
 31
0.0
  0
LINE
  5
4DF
330
1F
100
AcDbEntity
  8
Ｓ_１_１
  6
CONTINUOUS
 62
     3
100
AcDbLine
 10
1136.24991149999
 20
1093.362335000018
 30
0.0
 11
1136.74985849999
 21
1092.862389000019
 31
0.0
  0
LINE
  5
4E0
330
1F
100
AcDbEntity
  8
Ｓ_１_１
  6
CONTINUOUS
 62
     3
100
AcDbLine
 10
1113.249940499991
 20
1092.862337000018
 30
0.0
 11
1113.749838499991
 21
1093.362246000018
 31
0.0
  0
LINE
  5
4E1
330
1F
100
AcDbEntity
  8
Ｓ_１_１
  6
CONTINUOUS
 62
     3
100
AcDbLine
 10
1115.99997449999
 20
1108.862355000018
 30
0.0
 11
1119.49998849999
 21
1112.362369000019
 31
0.0
  0
LINE
  5
4E2
330
1F
100
AcDbEntity
  8
Ｓ_１_１
  6
CONTINUOUS
 62
     3
100
AcDbLine
 10
1130.49986549999
 20
1112.362155000018
 30
0.0
 11
1133.99983649999
 21
1108.862183000018
 31
0.0
  0
LINE
  5
4E3
330
1F
100
AcDbEntity
  8
Ｓ_１_１
  6
CONTINUOUS
 62
     3
100
AcDbLine
 10
1130.50001549999
 20
1121.362124000018
 30
0.0
 11
1130.50001549999
 21
1112.362368000018
 31
0.0
  0
CIRCLE
  5
4E4
330
1F
100
AcDbEntity
  8
Ｓ_１_１
  6
CONTINUOUS
 62
     3
100
AcDbCircle
 10
1125.000031
 20
1053.36229100001
 30
0.0
 40
10.0
  0
POLYLINE
  5
4E5
330
1F
100
AcDbEntity
  8
Ｓ_１_１
  6
CONTINUOUS
 62
     3
100
AcDb2dPolyline
 66
     1
 10
0.0
 20
0.0
 30
0.0
 70
   128
  0
VERTEX
  5
4E6
330
4E5
100
AcDbEntity
  8
Ｓ_１_１
  6
CONTINUOUS
 62
     3
100
AcDbVertex
100
AcDb2dVertex
 10
1125.000031
 20
1062.86229100001
 30
0.0
  0
VERTEX
  5
4E7
330
4E5
100
AcDbEntity
  8
Ｓ_１_１
  6
CONTINUOUS
 62
     3
100
AcDbVertex
100
AcDb2dVertex
 10
1116.772789664048
 20
1058.11229100001
 30
0.0
  0
VERTEX
  5
4E8
330
4E5
100
AcDbEntity
  8
Ｓ_１_１
  6
CONTINUOUS
 62
     3
100
AcDbVertex
100
AcDb2dVertex
 10
1116.772789664048
 20
1048.61229100001
 30
0.0
  0
VERTEX
  5
4E9
330
4E5
100
AcDbEntity
  8
Ｓ_１_１
  6
CONTINUOUS
 62
     3
100
AcDbVertex
100
AcDb2dVertex
 10
1125.000031
 20
1043.86229100001
 30
0.0
  0
VERTEX
  5
4EA
330
4E5
100
AcDbEntity
  8
Ｓ_１_１
  6
CONTINUOUS
 62
     3
100
AcDbVertex
100
AcDb2dVertex
 10
1133.227272335952
 20
1048.61229100001
 30
0.0
  0
VERTEX
  5
4EB
330
4E5
100
AcDbEntity
  8
Ｓ_１_１
  6
CONTINUOUS
 62
     3
100
AcDbVertex
100
AcDb2dVertex
 10
1133.227272335952
 20
1058.11229100001
 30
0.0
  0
VERTEX
  5
4EC
330
4E5
100
AcDbEntity
  8
Ｓ_１_１
  6
CONTINUOUS
 62
     3
100
AcDbVertex
100
AcDb2dVertex
 10
1125.000031
 20
1062.86229100001
 30
0.0
  0
SEQEND
  5
4ED
330
4E5
100
AcDbEntity
  8
Ｓ_１_１
  6
CONTINUOUS
 62
     3
  0
CIRCLE
  5
4EE
330
1F
100
AcDbEntity
  8
Ｓ_１_１
  6
CONTINUOUS
 62
     3
100
AcDbCircle
 10
1125.000031
 20
1053.36229100001
 30
0.0
 40
8.227241335951572
  0
ARC
  5
4EF
330
1F
100
AcDbEntity
  8
Ｓ_１_１
  6
CONTINUOUS
 62
     3
100
AcDbCircle
 10
1125.000031
 20
1053.36229100001
 30
0.0
 40
8.999999915700016
100
AcDbArc
 50
96.08359749728285
 51
143.9164025027172
  0
ARC
  5
4F0
330
1F
100
AcDbEntity
  8
Ｓ_１_１
  6
CONTINUOUS
 62
     3
100
AcDbCircle
 10
1125.000031
 20
1053.36229100001
 30
0.0
 40
8.999999915700016
100
AcDbArc
 50
156.0835974972827
 51
203.9164025027173
  0
ARC
  5
4F1
330
1F
100
AcDbEntity
  8
Ｓ_１_１
  6
CONTINUOUS
 62
     3
100
AcDbCircle
 10
1125.000031
 20
1053.36229100001
 30
0.0
 40
8.999999915700016
100
AcDbArc
 50
216.0835974972828
 51
263.9164025027172
  0
ARC
  5
4F2
330
1F
100
AcDbEntity
  8
Ｓ_１_１
  6
CONTINUOUS
 62
     3
100
AcDbCircle
 10
1125.000031
 20
1053.36229100001
 30
0.0
 40
8.999999915700016
100
AcDbArc
 50
276.0835974972829
 51
323.9164025027172
  0
ARC
  5
4F3
330
1F
100
AcDbEntity
  8
Ｓ_１_１
  6
CONTINUOUS
 62
     3
100
AcDbCircle
 10
1125.000031
 20
1053.36229100001
 30
0.0
 40
8.999999915700016
100
AcDbArc
 50
336.0835974972827
 51
23.91640250271736
  0
ARC
  5
4F4
330
1F
100
AcDbEntity
  8
Ｓ_１_１
  6
CONTINUOUS
 62
     3
100
AcDbCircle
 10
1125.000031
 20
1053.36229100001
 30
0.0
 40
8.999999915700016
100
AcDbArc
 50
36.08359749728283
 51
83.91640250271715
  0
CIRCLE
  5
4F5
330
1F
100
AcDbEntity
  8
Ｓ_１_１
  6
CONTINUOUS
 62
     3
100
AcDbCircle
 10
1125.000031
 20
1053.36229100001
 30
0.0
 40
5.0
  0
CIRCLE
  5
4F6
330
1F
100
AcDbEntity
  8
Ｓ_１_１
  6
CONTINUOUS
 62
     3
100
AcDbCircle
 10
1125.000031
 20
1053.36229100001
 30
0.0
 40
4.25
  0
LINE
  5
4F7
330
1F
100
AcDbEntity
  8
Ｓ_１_１
  6
EXLTYPE2
 62
     1
100
AcDbLine
 10
1138.000031
 20
1053.362291000009
 30
0.0
 11
1112.000031
 21
1053.362291000009
 31
0.0
  0
DIMENSION
  5
4F8
330
1F
100
AcDbEntity
  8
Ｓ_１_１
  6
CONTINUOUS
 62
     2
100
AcDbDimension
  2
*D29
 10
1720.0
 20
1012.500015
 30
0.0
 11
1703.5
 21
1056.500023
 31
0.0
 70
   160
  1
(88)
  3
ISO-25
100
AcDbAlignedDimension
 13
1522.0
 23
1100.500031
 33
0.0
 14
1595.000015
 24
1012.500015
 34
0.0
 50
90.0
100
AcDbRotatedDimension
1001
ACAD
1000
DSTYLE
1002
{
1070
   270
1070
     2
1070
     6
1000
EX_NORM
1070
     7
1000
EX_NORM
1070
    41
1040
18.0
1070
    42
1040
9.0
1070
    44
1040
6.0
1070
    73
1070
     0
1070
    74
1070
     0
1070
    75
1070
     0
1070
    76
1070
     0
1070
    77
1070
     1
1070
    78
1070
     8
1070
   140
1040
20.77742494226328
1070
   147
1040
0.0
1070
   173
1070
     1
1070
   176
1070
     2
1070
   177
1070
     2
1070
   178
1070
     2
1070
   271
1070
     2
1070
   277
1070
     2
1070
   279
1070
     2
1070
   280
1070
     0
1070
   287
1070
     5
1070
   340
1005
113
1002
}
  0
POLYLINE
  5
505
330
1F
100
AcDbEntity
  8
Ｓ_１_１
  6
CONTINUOUS
 62
     3
100
AcDb2dPolyline
 66
     1
 10
0.0
 20
0.0
 30
0.0
 70
   128
  0
VERTEX
  5
506
330
505
100
AcDbEntity
  8
Ｓ_１_１
  6
CONTINUOUS
 62
     3
100
AcDbVertex
100
AcDb2dVertex
 10
1125.000031
 20
1056.249042345948
 30
0.0
  0
VERTEX
  5
507
330
505
100
AcDbEntity
  8
Ｓ_１_１
  6
CONTINUOUS
 62
     3
100
AcDbVertex
100
AcDb2dVertex
 10
1122.500031
 20
1054.805666672974
 30
0.0
  0
VERTEX
  5
508
330
505
100
AcDbEntity
  8
Ｓ_１_１
  6
CONTINUOUS
 62
     3
100
AcDbVertex
100
AcDb2dVertex
 10
1122.500031
 20
1051.918915327026
 30
0.0
  0
VERTEX
  5
509
330
505
100
AcDbEntity
  8
Ｓ_１_１
  6
CONTINUOUS
 62
     3
100
AcDbVertex
100
AcDb2dVertex
 10
1125.000031
 20
1050.475539654052
 30
0.0
  0
VERTEX
  5
50A
330
505
100
AcDbEntity
  8
Ｓ_１_１
  6
CONTINUOUS
 62
     3
100
AcDbVertex
100
AcDb2dVertex
 10
1127.500031
 20
1051.918915327026
 30
0.0
  0
VERTEX
  5
50B
330
505
100
AcDbEntity
  8
Ｓ_１_１
  6
CONTINUOUS
 62
     3
100
AcDbVertex
100
AcDb2dVertex
 10
1127.500031
 20
1054.805666672974
 30
0.0
  0
VERTEX
  5
50C
330
505
100
AcDbEntity
  8
Ｓ_１_１
  6
CONTINUOUS
 62
     3
100
AcDbVertex
100
AcDb2dVertex
 10
1125.000031
 20
1056.249042345948
 30
0.0
  0
SEQEND
  5
50D
330
505
100
AcDbEntity
  8
Ｓ_１_１
  6
CONTINUOUS
 62
     3
  0
ENDSEC
  0
SECTION
  2
OBJECTS
  0
DICTIONARY
  5
C
330
0
100
AcDbDictionary
  3
ACAD_GROUP
350
D
  3
ACAD_LAYOUT
350
1A
  3
ACAD_MATERIAL
350
43
  3
ACAD_MLEADERSTYLE
350
6B
  3
ACAD_MLINESTYLE
350
17
  3
ACAD_PLOTSETTINGS
350
19
  3
ACAD_SCALELIST
350
47
  3
ACAD_VISUALSTYLE
350
2A
  3
ACDBHEADERROUNDTRIPXREC
350
50E
  3
ACDBVARIABLEDICTIONARY
350
52F
  0
DICTIONARY
  5
53A
330
8
100
AcDbDictionary
280
     1
  3
ACAD_XREC_ROUNDTRIP
360
53B
  0
DICTIONARY
  5
D
102
{ACAD_REACTORS
330
C
102
}
330
C
100
AcDbDictionary
  0
DICTIONARY
  5
1A
102
{ACAD_REACTORS
330
C
102
}
330
C
100
AcDbDictionary
  0
DICTIONARY
  5
43
102
{ACAD_REACTORS
330
C
102
}
330
C
100
AcDbDictionary
  3
BYBLOCK
350
45
  3
BYLAYER
350
44
  3
GLOBAL
350
46
  0
DICTIONARY
  5
6B
102
{ACAD_REACTORS
330
C
102
}
330
C
100
AcDbDictionary
  3
STANDARD
350
6C
  0
DICTIONARY
  5
17
102
{ACAD_REACTORS
330
C
102
}
330
C
100
AcDbDictionary
  3
STANDARD
350
18
  0
DICTIONARY
  5
19
102
{ACAD_REACTORS
330
C
102
}
330
C
100
AcDbDictionary
  0
DICTIONARY
  5
47
102
{ACAD_REACTORS
330
C
102
}
330
C
100
AcDbDictionary
  3
A0
350
48
  3
A1
350
49
  3
A2
350
4A
  3
A3
350
4B
  3
A4
350
4C
  3
A5
350
4D
  3
A6
350
4E
  3
A7
350
4F
  3
A8
350
50
  3
A9
350
51
  3
B0
350
52
  3
B1
350
53
  3
B2
350
54
  3
B3
350
55
  3
B4
350
56
  3
B5
350
57
  3
B6
350
58
  3
B7
350
59
  3
B8
350
5A
  3
B9
350
5B
  3
C0
350
5C
  3
C1
350
5D
  3
C2
350
5E
  3
C3
350
5F
  3
C4
350
60
  3
C5
350
61
  3
C6
350
62
  3
C7
350
63
  3
C8
350
64
  3
C9
350
65
  3
D0
350
66
  3
D1
350
67
  3
D2
350
68
  0
DICTIONARY
  5
2A
102
{ACAD_REACTORS
330
C
102
}
330
C
100
AcDbDictionary
  3
2DWIREFRAME
350
2F
  3
BASIC
350
32
  3
BRIGHTEN
350
36
  3
COLORCHANGE
350
3A
  3
CONCEPTUAL
350
34
  3
DIM
350
35
  3
EDGECOLOROFF
350
3D
  3
FACEPATTERN
350
39
  3
FLAT
350
2B
  3
FLATWITHEDGES
350
2C
  3
GOURAUD
350
2D
  3
GOURAUDWITHEDGES
350
2E
  3
HIDDEN
350
31
  3
JITTEROFF
350
3B
  3
LINEPATTERN
350
38
  3
OVERHANGOFF
350
3C
  3
REALISTIC
350
33
  3
SHADED
350
42
  3
SHADED_WITH_EDGES
350
41
  3
SHADES_OF_GRAY
350
3E
  3
SKETCHY
350
3F
  3
THICKEN
350
37
  3
WIREFRAME
350
30
  3
X-RAY
350
40
  0
DICTIONARY
  5
50E
102
{ACAD_REACTORS
330
C
102
}
330
C
100
AcDbDictionary
  3
CEPSNID
350
518
  3
CEPSNTYPE
350
517
  3
DIMSTYLEDATA
350
52E
  3
FINGERPRINTGUID
350
519
  3
HYPERLINKBASE
350
511
  3
INSUNITS
350
516
  3
LAYOUTDICT
350
513
  3
LWETCUNION
350
515
  3
PLOTSETDICT
350
514
  3
PSVPSCALE
350
51B
  3
PUCSBASE
350
51E
  3
PUCSORGBACK
350
524
  3
PUCSORGBOTTOM
350
520
  3
PUCSORGFRONT
350
523
  3
PUCSORGLEFT
350
521
  3
PUCSORGRIGHT
350
522
  3
PUCSORGTOP
350
51F
  3
PUCSORTHOREF
350
51C
  3
PUCSORTHOVIEW
350
51D
  3
STYLESHEET
350
512
  3
TSTACKALIGN
350
50F
  3
TSTACKSIZE
350
510
  3
UCSBASE
350
527
  3
UCSORGBACK
350
52D
  3
UCSORGBOTTOM
350
529
  3
UCSORGFRONT
350
52C
  3
UCSORGLEFT
350
52A
  3
UCSORGRIGHT
350
52B
  3
UCSORGTOP
350
528
  3
UCSORTHOREF
350
525
  3
UCSORTHOVIEW
350
526
  3
VERSIONGUID
350
51A
  0
DICTIONARY
  5
52F
102
{ACAD_REACTORS
330
C
102
}
330
C
100
AcDbDictionary
  3
CANNOSCALE
350
53C
  3
CENTEREXE
350
536
  3
CENTERLTYPEFILE
350
537
  3
CMLEADERSTYLE
350
531
  3
CTABLESTYLE
350
530
  3
DIMASSOC
350
538
  3
HIDETEXT
350
539
  3
MSLTSCALE
350
53D
  3
PSOLHEIGHT
350
533
  3
PSOLWIDTH
350
532
  0
XRECORD
  5
53B
102
{ACAD_REACTORS
330
53A
102
}
330
53A
100
AcDbXrecord
102
VTR_0.000_0.000_1.000_1.000_VISUALSTYLE
340
2F
102
VTR_0.000_0.000_1.000_1.000_GRIDDISPLAY
 70
     3
102
VTR_0.000_0.000_1.000_1.000_GRIDMAJOR
 70
     5
102
VTR_0.000_0.000_1.000_1.000_DEFAULTLIGHTING
280
     1
102
VTR_0.000_0.000_1.000_1.000_DEFAULTLIGHTINGTYPE
 70
     1
102
VTR_0.000_0.000_1.000_1.000_BRIGHTNESS
141
0.0
102
VTR_0.000_0.000_1.000_1.000_CONTRAST
142
0.0
  0
MATERIAL
  5
45
102
{ACAD_REACTORS
330
43
102
}
102
{ACAD_XDICTIONARY
360
540
102
}
330
43
100
AcDbMaterial
  1
BYBLOCK
  0
MATERIAL
  5
44
102
{ACAD_REACTORS
330
43
102
}
102
{ACAD_XDICTIONARY
360
53E
102
}
330
43
100
AcDbMaterial
  1
BYLAYER
  0
MATERIAL
  5
46
102
{ACAD_REACTORS
330
43
102
}
102
{ACAD_XDICTIONARY
360
542
102
}
330
43
100
AcDbMaterial
  1
GLOBAL
  0
ACAD_PROXY_OBJECT
  5
6C
102
{ACAD_REACTORS
330
6B
102
}
330
6B
100
AcDbProxyObject
 90
      499
 91
      505
 93
      610
310
40901902A4063FBFFFFFE0000000000000020400000000000020404214DD185B99185C990000000000000104090141901A00000000000004100000000000000041025764000000000000039000
340
14
340
0
340
11
340
0
 94
        0
1001
ACAD_MLEADERVER
1070
     2
  0
MLINESTYLE
  5
18
102
{ACAD_REACTORS
330
17
102
}
330
17
100
AcDbMlineStyle
  2
Standard
 70
     0
  3

 62
   256
 51
90.0
 52
90.0
 71
     2
 49
0.5
 62
   256
  6
BYLAYER
 49
-0.5
 62
   256
  6
BYLAYER
  0
ACAD_PROXY_OBJECT
  5
48
102
{ACAD_REACTORS
330
47
102
}
330
47
100
AcDbProxyObject
 90
      499
 91
      503
 93
       41
310
903313A31580
  0
ACAD_PROXY_OBJECT
  5
49
102
{ACAD_REACTORS
330
47
102
}
330
47
100
AcDbProxyObject
 90
      499
 91
      503
 93
      105
310
903313A324000000000000004000
  0
ACAD_PROXY_OBJECT
  5
4A
102
{ACAD_REACTORS
330
47
102
}
330
47
100
AcDbProxyObject
 90
      499
 91
      503
 93
      105
310
903313A344000000000000104000
  0
ACAD_PROXY_OBJECT
  5
4B
102
{ACAD_REACTORS
330
47
102
}
330
47
100
AcDbProxyObject
 90
      499
 91
      503
 93
      105
310
903313A354000000000000144000
  0
ACAD_PROXY_OBJECT
  5
4C
102
{ACAD_REACTORS
330
47
102
}
330
47
100
AcDbProxyObject
 90
      499
 91
      503
 93
      105
310
903313A384000000000000204000
  0
ACAD_PROXY_OBJECT
  5
4D
102
{ACAD_REACTORS
330
47
102
}
330
47
100
AcDbProxyObject
 90
      499
 91
      503
 93
      113
310
904313A31304000000000000244000
  0
ACAD_PROXY_OBJECT
  5
4E
102
{ACAD_REACTORS
330
47
102
}
330
47
100
AcDbProxyObject
 90
      499
 91
      503
 93
      113
310
904313A31364000000000000304000
  0
ACAD_PROXY_OBJECT
  5
4F
102
{ACAD_REACTORS
330
47
102
}
330
47
100
AcDbProxyObject
 90
      499
 91
      503
 93
      113
310
904313A32304000000000000344000
  0
ACAD_PROXY_OBJECT
  5
50
102
{ACAD_REACTORS
330
47
102
}
330
47
100
AcDbProxyObject
 90
      499
 91
      503
 93
      113
310
904313A333040000000000003E4000
  0
ACAD_PROXY_OBJECT
  5
51
102
{ACAD_REACTORS
330
47
102
}
330
47
100
AcDbProxyObject
 90
      499
 91
      503
 93
      113
310
904313A34304000000000000444000
  0
ACAD_PROXY_OBJECT
  5
52
102
{ACAD_REACTORS
330
47
102
}
330
47
100
AcDbProxyObject
 90
      499
 91
      503
 93
      113
310
904313A35304000000000000494000
  0
ACAD_PROXY_OBJECT
  5
53
102
{ACAD_REACTORS
330
47
102
}
330
47
100
AcDbProxyObject
 90
      499
 91
      503
 93
      121
310
905313A3130304000000000000594000
  0
ACAD_PROXY_OBJECT
  5
54
102
{ACAD_REACTORS
330
47
102
}
330
47
100
AcDbProxyObject
 90
      499
 91
      503
 93
      105
310
903323A310000000000000010100
  0
ACAD_PROXY_OBJECT
  5
55
102
{ACAD_REACTORS
330
47
102
}
330
47
100
AcDbProxyObject
 90
      499
 91
      503
 93
      105
310
903343A310000000000000410100
  0
ACAD_PROXY_OBJECT
  5
56
102
{ACAD_REACTORS
330
47
102
}
330
47
100
AcDbProxyObject
 90
      499
 91
      503
 93
      105
310
903383A310000000000000810100
  0
ACAD_PROXY_OBJECT
  5
57
102
{ACAD_REACTORS
330
47
102
}
330
47
100
AcDbProxyObject
 90
      499
 91
      503
 93
      113
310
90431303A310000000000000910100
  0
ACAD_PROXY_OBJECT
  5
58
102
{ACAD_REACTORS
330
47
102
}
330
47
100
AcDbProxyObject
 90
      499
 91
      503
 93
      121
310
9053130303A310000000000001650100
  0
ACAD_PROXY_OBJECT
  5
59
102
{ACAD_REACTORS
330
47
102
}
330
47
100
AcDbProxyObject
 90
      499
 91
      503
 93
      257
310
90E312F31323822203D2031272D3022000000000000200FC000000000000284000
  0
ACAD_PROXY_OBJECT
  5
5A
102
{ACAD_REACTORS
330
47
102
}
330
47
100
AcDbProxyObject
 90
      499
 91
      503
 93
      249
310
90D312F363422203D2031272D3022000000000000240FC000000000000284000
  0
ACAD_PROXY_OBJECT
  5
5B
102
{ACAD_REACTORS
330
47
102
}
330
47
100
AcDbProxyObject
 90
      499
 91
      503
 93
      249
310
90D312F333222203D2031272D3022000000000000280FC000000000000284000
  0
ACAD_PROXY_OBJECT
  5
5C
102
{ACAD_REACTORS
330
47
102
}
330
47
100
AcDbProxyObject
 90
      499
 91
      503
 93
      249
310
90D312F313622203D2031272D30220000000000002C0FC000000000000284000
  0
ACAD_PROXY_OBJECT
  5
5D
102
{ACAD_REACTORS
330
47
102
}
330
47
100
AcDbProxyObject
 90
      499
 91
      503
 93
      249
310
90D332F333222203D2031272D30220000000000002E0FC000000000000284000
  0
ACAD_PROXY_OBJECT
  5
5E
102
{ACAD_REACTORS
330
47
102
}
330
47
100
AcDbProxyObject
 90
      499
 91
      503
 93
      241
310
90C312F3822203D2031272D3022000000000000300FC000000000000284000
  0
ACAD_PROXY_OBJECT
  5
5F
102
{ACAD_REACTORS
330
47
102
}
330
47
100
AcDbProxyObject
 90
      499
 91
      503
 93
      249
310
90D332F313622203D2031272D3022000000000000320FC000000000000284000
  0
ACAD_PROXY_OBJECT
  5
60
102
{ACAD_REACTORS
330
47
102
}
330
47
100
AcDbProxyObject
 90
      499
 91
      503
 93
      241
310
90C312F3422203D2031272D3022000000000000340FC000000000000284000
  0
ACAD_PROXY_OBJECT
  5
61
102
{ACAD_REACTORS
330
47
102
}
330
47
100
AcDbProxyObject
 90
      499
 91
      503
 93
      241
310
90C332F3822203D2031272D3022000000000000360FC000000000000284000
  0
ACAD_PROXY_OBJECT
  5
62
102
{ACAD_REACTORS
330
47
102
}
330
47
100
AcDbProxyObject
 90
      499
 91
      503
 93
      241
310
90C312F3222203D2031272D3022000000000000380FC000000000000284000
  0
ACAD_PROXY_OBJECT
  5
63
102
{ACAD_REACTORS
330
47
102
}
330
47
100
AcDbProxyObject
 90
      499
 91
      503
 93
      241
310
90C332F3422203D2031272D30220000000000003A0FC000000000000284000
  0
ACAD_PROXY_OBJECT
  5
64
102
{ACAD_REACTORS
330
47
102
}
330
47
100
AcDbProxyObject
 90
      499
 91
      503
 93
      161
310
90A3122203D2031272D30224000000000000284000
  0
ACAD_PROXY_OBJECT
  5
65
102
{ACAD_REACTORS
330
47
102
}
330
47
100
AcDbProxyObject
 90
      499
 91
      503
 93
      257
310
90E312D312F3222203D2031272D30220000000000003E0FC000000000000284000
  0
ACAD_PROXY_OBJECT
  5
66
102
{ACAD_REACTORS
330
47
102
}
330
47
100
AcDbProxyObject
 90
      499
 91
      503
 93
      225
310
90A3322203D2031272D302200000000000002100000000000000284000
  0
ACAD_PROXY_OBJECT
  5
67
102
{ACAD_REACTORS
330
47
102
}
330
47
100
AcDbProxyObject
 90
      499
 91
      503
 93
      225
310
90A3622203D2031272D302200000000000006100000000000000284000
  0
ACAD_PROXY_OBJECT
  5
68
102
{ACAD_REACTORS
330
47
102
}
330
47
100
AcDbProxyObject
 90
      499
 91
      503
 93
      249
310
90D31272D3022203D2031272D30220000000000000A100000000000000284000
  0
ACAD_PROXY_OBJECT
  5
2F
102
{ACAD_REACTORS
330
2A
102
}
330
2A
100
AcDbProxyObject
 90
      499
 91
      501
 93
      436
310
42CC9915DA5C99599C985B595049028333333333333E33F0000000000000F90107901411070040501600405405064090741402480A0340
1001
ACAD
1000
AcDbSavedByObjectVersion
1070
     0
  0
ACAD_PROXY_OBJECT
  5
32
102
{ACAD_REACTORS
330
2A
102
}
330
2A
100
AcDbProxyObject
 90
      499
 91
      501
 93
      388
310
4150985CDA58D07406404333333333333E33F0000000000000F90107A41107004050150841D405064090741402480A0350
1001
ACAD
1000
AcDbSavedByObjectVersion
1070
     0
  0
ACAD_PROXY_OBJECT
  5
36
102
{ACAD_REACTORS
330
2A
102
}
330
2A
100
AcDbProxyObject
 90
      499
 91
      501
 93
      428
310
42109C9A59DA1D195B90C409028333333333333E33F0000000000000F9010790141107004050150841D405064090741402480A029950
1001
ACAD
1000
AcDbSavedByObjectVersion
1070
     0
  0
ACAD_PROXY_OBJECT
  5
3A
102
{ACAD_REACTORS
330
2A
102
}
330
2A
100
AcDbProxyObject
 90
      499
 91
      501
 93
      452
310
42D0DBDB1BDC90DA185B99D95104090240C333333333333E33F0000000000000F90108901411070040501508421405064090741402480A0350
1001
ACAD
1000
AcDbSavedByObjectVersion
1070
     0
  0
ACAD_PROXY_OBJECT
  5
34
102
{ACAD_REACTORS
330
2A
102
}
330
2A
100
AcDbProxyObject
 90
      499
 91
      501
 93
      500
310
4290DBDB98D95C1D1D585B10940D028333333333333E33F0000000000000F90107902409070040501000000000018199010841D405064090740C02480A0340
1001
ACAD
1000
AcDbSavedByObjectVersion
1070
     0
  0
ACAD_PROXY_OBJECT
  5
35
102
{ACAD_REACTORS
330
2A
102
}
330
2A
100
AcDbProxyObject
 90
      499
 91
      501
 93
      412
310
40D11A5B50B409028333333333333E33F0000000000000F9010790141107004050150841D405064090741402480A02677FFFFFD0
1001
ACAD
1000
AcDbSavedByObjectVersion
1070
     0
  0
ACAD_PROXY_OBJECT
  5
3D
102
{ACAD_REACTORS
330
2A
102
}
330
2A
100
AcDbProxyObject
 90
      499
 91
      501
 93
      452
310
43115919D950DBDB1BDC93D999916409028333333333333E33F0000000000000F9010790141107004050150841D405064090741402480A0350
1001
ACAD
1000
AcDbSavedByObjectVersion
1070
     0
  0
ACAD_PROXY_OBJECT
  5
39
102
{ACAD_REACTORS
330
2A
102
}
330
2A
100
AcDbProxyObject
 90
      499
 91
      501
 93
      444
310
42D19858D95C185D1D195C9B90F409028333333333333E33F0000000000000F9010790141107004050150841D405064090741402480A0350
1001
ACAD
1000
AcDbSavedByObjectVersion
1070
     0
  0
ACAD_PROXY_OBJECT
  5
2B
102
{ACAD_REACTORS
330
2A
102
}
330
2A
100
AcDbProxyObject
 90
      499
 91
      501
 93
      380
310
41119B185D240901404333333333333E33F0000000000000F9010740A907004050150841D405064090741402480A1B50
1001
ACAD
1000
AcDbSavedByObjectVersion
1070
     0
  0
ACAD_PROXY_OBJECT
  5
2C
102
{ACAD_REACTORS
330
2A
102
}
330
2A
100
AcDbProxyObject
 90
      499
 91
      501
 93
      468
310
43519B185D15DA5D1A115919D95CD0140901404333333333333E33F0000000000000F90107409019070040501600405405064090741402480A1B50
1001
ACAD
1000
AcDbSavedByObjectVersion
1070
     0
  0
ACAD_PROXY_OBJECT
  5
2D
102
{ACAD_REACTORS
330
2A
102
}
330
2A
100
AcDbProxyObject
 90
      499
 91
      501
 93
      404
310
41D1DBDD5C985D5910240902404333333333333E33F0000000000000F9010740A9070040501641D405064090741402480A1B50
1001
ACAD
1000
AcDbSavedByObjectVersion
1070
     0
  0
ACAD_PROXY_OBJECT
  5
2E
102
{ACAD_REACTORS
330
2A
102
}
330
2A
100
AcDbProxyObject
 90
      499
 91
      501
 93
      492
310
4411DBDD5C985D5915DA5D1A115919D95CD0340902404333333333333E33F0000000000000F90107409019070040501600405405064090741402480A1B50
1001
ACAD
1000
AcDbSavedByObjectVersion
1070
     0
  0
ACAD_PROXY_OBJECT
  5
31
102
{ACAD_REACTORS
330
2A
102
}
330
2A
100
AcDbProxyObject
 90
      499
 91
      501
 93
      476
310
41921A5919195B90640502408333333333333E33F0000000000000F901079024090700405020000000000001110200405405064090740C02480A0340
1001
ACAD
1000
AcDbSavedByObjectVersion
1070
     0
  0
ACAD_PROXY_OBJECT
  5
3B
102
{ACAD_REACTORS
330
2A
102
}
330
2A
100
AcDbProxyObject
 90
      499
 91
      501
 93
      428
310
42529A5D1D195C93D999914409028333333333333E33F0000000000000F9010790141107004050150A41D405064090741402480A0350
1001
ACAD
1000
AcDbSavedByObjectVersion
1070
     0
  0
ACAD_PROXY_OBJECT
  5
38
102
{ACAD_REACTORS
330
2A
102
}
330
2A
100
AcDbProxyObject
 90
      499
 91
      501
 93
      444
310
42D31A5B995C185D1D195C9B90E409028333333333333E33F0000000000000F9010790141107004050750841D405064090741402483A0350
1001
ACAD
1000
AcDbSavedByObjectVersion
1070
     0
  0
ACAD_PROXY_OBJECT
  5
3C
102
{ACAD_REACTORS
330
2A
102
}
330
2A
100
AcDbProxyObject
 90
      499
 91
      501
 93
      444
310
42D3DD995C9A185B99D3D999915409028333333333333E33F0000000000000F9010790141107004050150941D405064090741402480A0350
1001
ACAD
1000
AcDbSavedByObjectVersion
1070
     0
  0
ACAD_PROXY_OBJECT
  5
33
102
{ACAD_REACTORS
330
2A
102
}
330
2A
100
AcDbProxyObject
 90
      499
 91
      501
 93
      428
310
425499585B1A5CDD1A58D08409038333333333333E33F0000000000000F9010740A907004050150800405405064090740C02480A1B40
1001
ACAD
1000
AcDbSavedByObjectVersion
1070
     0
  0
ACAD_PROXY_OBJECT
  5
42
102
{ACAD_REACTORS
330
2A
102
}
330
2A
100
AcDbProxyObject
 90
      499
 91
      501
 93
      420
310
4194DA1859195911B40902404333333333333E33F0000000000000F9010740A41107004050150800405405064090840C02480A0B40
1001
ACAD
1000
AcDbSavedByObjectVersion
1070
     0
  0
ACAD_PROXY_OBJECT
  5
41
102
{ACAD_REACTORS
330
2A
102
}
330
2A
100
AcDbProxyObject
 90
      499
 91
      501
 93
      516
310
4454DA18591959081DDA5D1A08195919D95CD1A40902404333333333333E33F0000000000000F901074090142907004050250800405405064090740C02480A0B40
1001
ACAD
1000
AcDbSavedByObjectVersion
1070
     0
  0
ACAD_PROXY_OBJECT
  5
3E
102
{ACAD_REACTORS
330
2A
102
}
330
2A
100
AcDbProxyObject
 90
      499
 91
      501
 93
      532
310
4394DA1859195CC81BD98811DC985E5174090240C333333333333E33F0000000000000F901079024090741D01000000000000111010841D405064090740C02480A0340
1001
ACAD
1000
AcDbSavedByObjectVersion
1070
     0
  0
ACAD_PROXY_OBJECT
  5
3F
102
{ACAD_REACTORS
330
2A
102
}
330
2A
100
AcDbProxyObject
 90
      499
 91
      501
 93
      476
310
41D4DAD95D18DA1E51840502408333333333333E33F0000000000000F901079024090741D01000000000000111010B41D405064090741802480A0340
1001
ACAD
1000
AcDbSavedByObjectVersion
1070
     0
  0
ACAD_PROXY_OBJECT
  5
37
102
{ACAD_REACTORS
330
2A
102
}
330
2A
100
AcDbProxyObject
 90
      499
 91
      501
 93
      412
310
41D51A1A58DAD95B90D409028333333333333E33F0000000000000F9010790141107004050150C41D405064090741402480A0350
1001
ACAD
1000
AcDbSavedByObjectVersion
1070
     0
  0
ACAD_PROXY_OBJECT
  5
30
102
{ACAD_REACTORS
330
2A
102
}
330
2A
100
AcDbProxyObject
 90
      499
 91
      501
 93
      420
310
4255DA5C99599C985B595059028333333333333E33F0000000000000F90107901411070040501600405405064090740C02480A0340
1001
ACAD
1000
AcDbSavedByObjectVersion
1070
     0
  0
ACAD_PROXY_OBJECT
  5
40
102
{ACAD_REACTORS
330
2A
102
}
330
2A
100
AcDbProxyObject
 90
      499
 91
      501
 93
      404
310
41560B54985E51940902404000000000000E03F0000000000000F9010740501907004050150841D405064090740C02480A1B40
1001
ACAD
1000
AcDbSavedByObjectVersion
1070
     0
  0
XRECORD
  5
518
102
{ACAD_REACTORS
330
50E
102
}
330
50E
100
AcDbXrecord
340
0
  0
XRECORD
  5
517
102
{ACAD_REACTORS
330
50E
102
}
330
50E
100
AcDbXrecord
 90
        0
  0
XRECORD
  5
52E
102
{ACAD_REACTORS
330
50E
102
}
330
50E
100
AcDbXrecord
1000
DSTYLE
1002
{
1070
   340
340
11
1002
}
  0
XRECORD
  5
519
102
{ACAD_REACTORS
330
50E
102
}
330
50E
100
AcDbXrecord
  1
{d91d2d3b-0d45-4bcf-b0e7-3d16db856815}
  0
XRECORD
  5
511
102
{ACAD_REACTORS
330
50E
102
}
330
50E
100
AcDbXrecord
  1

  0
XRECORD
  5
516
102
{ACAD_REACTORS
330
50E
102
}
330
50E
100
AcDbXrecord
 90
        4
  0
XRECORD
  5
513
102
{ACAD_REACTORS
330
50E
102
}
330
50E
100
AcDbXrecord
340
1A
  0
XRECORD
  5
515
102
{ACAD_REACTORS
330
50E
102
}
330
50E
100
AcDbXrecord
 90
    10781
  0
XRECORD
  5
514
102
{ACAD_REACTORS
330
50E
102
}
330
50E
100
AcDbXrecord
340
19
  0
XRECORD
  5
51B
102
{ACAD_REACTORS
330
50E
102
}
330
50E
100
AcDbXrecord
 40
0.0
  0
XRECORD
  5
51E
102
{ACAD_REACTORS
330
50E
102
}
330
50E
100
AcDbXrecord
340
0
  0
XRECORD
  5
524
102
{ACAD_REACTORS
330
50E
102
}
330
50E
100
AcDbXrecord
 10
0.0
 20
0.0
 30
0.0
  0
XRECORD
  5
520
102
{ACAD_REACTORS
330
50E
102
}
330
50E
100
AcDbXrecord
 10
0.0
 20
0.0
 30
0.0
  0
XRECORD
  5
523
102
{ACAD_REACTORS
330
50E
102
}
330
50E
100
AcDbXrecord
 10
0.0
 20
0.0
 30
0.0
  0
XRECORD
  5
521
102
{ACAD_REACTORS
330
50E
102
}
330
50E
100
AcDbXrecord
 10
0.0
 20
0.0
 30
0.0
  0
XRECORD
  5
522
102
{ACAD_REACTORS
330
50E
102
}
330
50E
100
AcDbXrecord
 10
0.0
 20
0.0
 30
0.0
  0
XRECORD
  5
51F
102
{ACAD_REACTORS
330
50E
102
}
330
50E
100
AcDbXrecord
 10
0.0
 20
0.0
 30
0.0
  0
XRECORD
  5
51C
102
{ACAD_REACTORS
330
50E
102
}
330
50E
100
AcDbXrecord
340
0
  0
XRECORD
  5
51D
102
{ACAD_REACTORS
330
50E
102
}
330
50E
100
AcDbXrecord
 70
     0
  0
XRECORD
  5
512
102
{ACAD_REACTORS
330
50E
102
}
330
50E
100
AcDbXrecord
  1

  0
XRECORD
  5
50F
102
{ACAD_REACTORS
330
50E
102
}
330
50E
100
AcDbXrecord
 90
        1
  0
XRECORD
  5
510
102
{ACAD_REACTORS
330
50E
102
}
330
50E
100
AcDbXrecord
 90
       70
  0
XRECORD
  5
527
102
{ACAD_REACTORS
330
50E
102
}
330
50E
100
AcDbXrecord
340
0
  0
XRECORD
  5
52D
102
{ACAD_REACTORS
330
50E
102
}
330
50E
100
AcDbXrecord
 10
0.0
 20
0.0
 30
0.0
  0
XRECORD
  5
529
102
{ACAD_REACTORS
330
50E
102
}
330
50E
100
AcDbXrecord
 10
0.0
 20
0.0
 30
0.0
  0
XRECORD
  5
52C
102
{ACAD_REACTORS
330
50E
102
}
330
50E
100
AcDbXrecord
 10
0.0
 20
0.0
 30
0.0
  0
XRECORD
  5
52A
102
{ACAD_REACTORS
330
50E
102
}
330
50E
100
AcDbXrecord
 10
0.0
 20
0.0
 30
0.0
  0
XRECORD
  5
52B
102
{ACAD_REACTORS
330
50E
102
}
330
50E
100
AcDbXrecord
 10
0.0
 20
0.0
 30
0.0
  0
XRECORD
  5
528
102
{ACAD_REACTORS
330
50E
102
}
330
50E
100
AcDbXrecord
 10
0.0
 20
0.0
 30
0.0
  0
XRECORD
  5
525
102
{ACAD_REACTORS
330
50E
102
}
330
50E
100
AcDbXrecord
340
0
  0
XRECORD
  5
526
102
{ACAD_REACTORS
330
50E
102
}
330
50E
100
AcDbXrecord
 70
     0
  0
XRECORD
  5
51A
102
{ACAD_REACTORS
330
50E
102
}
330
50E
100
AcDbXrecord
  1
{FAEB1C32-E019-11D5-929B-00C0DF256EC4}
  0
DICTIONARYVAR
  5
53C
102
{ACAD_REACTORS
330
52F
102
}
330
52F
100
DictionaryVariables
280
     0
  1
1:1
  0
DICTIONARYVAR
  5
536
102
{ACAD_REACTORS
330
52F
102
}
330
52F
100
DictionaryVariables
280
     0
  1
3.500000
  0
DICTIONARYVAR
  5
537
102
{ACAD_REACTORS
330
52F
102
}
330
52F
100
DictionaryVariables
280
     0
  1
acadiso.lin
  0
DICTIONARYVAR
  5
531
102
{ACAD_REACTORS
330
52F
102
}
330
52F
100
DictionaryVariables
280
     0
  1
Standard
  0
DICTIONARYVAR
  5
530
102
{ACAD_REACTORS
330
52F
102
}
330
52F
100
DictionaryVariables
280
     0
  1
Standard
  0
DICTIONARYVAR
  5
538
102
{ACAD_REACTORS
330
52F
102
}
330
52F
100
DictionaryVariables
280
     0
  1
2
  0
DICTIONARYVAR
  5
539
102
{ACAD_REACTORS
330
52F
102
}
330
52F
100
DictionaryVariables
280
     0
  1
1
  0
DICTIONARYVAR
  5
53D
102
{ACAD_REACTORS
330
52F
102
}
330
52F
100
DictionaryVariables
280
     0
  1
1
  0
DICTIONARYVAR
  5
533
102
{ACAD_REACTORS
330
52F
102
}
330
52F
100
DictionaryVariables
280
     0
  1
80.000000
  0
DICTIONARYVAR
  5
532
102
{ACAD_REACTORS
330
52F
102
}
330
52F
100
DictionaryVariables
280
     0
  1
5.000000
  0
DICTIONARY
  5
540
330
45
100
AcDbDictionary
280
     1
  3
ACAD_XREC_ROUNDTRIP
360
541
  0
DICTIONARY
  5
53E
330
44
100
AcDbDictionary
280
     1
  3
ACAD_XREC_ROUNDTRIP
360
53F
  0
DICTIONARY
  5
542
330
46
100
AcDbDictionary
280
     1
  3
ACAD_XREC_ROUNDTRIP
360
543
  0
XRECORD
  5
541
102
{ACAD_REACTORS
330
540
102
}
330
540
100
AcDbXrecord
102
MATERIAL
148
0.0
149
0.0
149
0.0
 93
        0
 94
      127
282
     0
 72
     1
 77
     1
171
     1
175
     1
179
     1
273
     0
  0
XRECORD
  5
53F
102
{ACAD_REACTORS
330
53E
102
}
330
53E
100
AcDbXrecord
102
MATERIAL
148
0.0
149
0.0
149
0.0
 93
        0
 94
      127
282
     0
 72
     1
 77
     1
171
     1
175
     1
179
     1
273
     0
  0
XRECORD
  5
543
102
{ACAD_REACTORS
330
542
102
}
330
542
100
AcDbXrecord
102
MATERIAL
148
0.0
149
0.0
149
0.0
 93
        0
 94
      127
282
     0
 72
     1
 77
     1
171
     1
175
     1
179
     1
273
     0
  0
ENDSEC
  0
EOF
