  0
SECTION
  2
HEADER
  9
$ACADVER
  1
AC1014
  9
$ACADMAINTVER
 70
     9
  9
$DWGCODEPAGE
  3
ANSI_932
  9
$INSBASE
 10
0.0
 20
0.0
 30
0.0
  9
$EXTMIN
 10
25.0
 20
25.0
 30
0.0
  9
$EXTMAX
 10
1025.0
 20
717.5
 30
0.0
  9
$LIMMIN
 10
0.0
 20
0.0
  9
$LIMMAX
 10
420.0
 20
297.0
  9
$ORTHOMODE
 70
     0
  9
$REGENMODE
 70
     1
  9
$FILLMODE
 70
     1
  9
$QTEXTMODE
 70
     0
  9
$MIRRTEXT
 70
     1
  9
$DRAGMODE
 70
     2
  9
$LTSCALE
 40
1.0
  9
$OSMODE
 70
    37
  9
$ATTMODE
 70
     1
  9
$TEXTSIZE
 40
2.5
  9
$TRACEWID
 40
1.0
  9
$TEXTSTYLE
  7
STANDARD
  9
$CLAYER
  8
Ｓ_１_１
  9
$CELTYPE
  6
BYLAYER
  9
$CECOLOR
 62
   256
  9
$CELTSCALE
 40
1.0
  9
$DELOBJ
 70
     1
  9
$DISPSILH
 70
     0
  9
$DIMSCALE
 40
1.0
  9
$DIMASZ
 40
2.5
  9
$DIMEXO
 40
0.625
  9
$DIMDLI
 40
3.75
  9
$DIMRND
 40
0.0
  9
$DIMDLE
 40
0.0
  9
$DIMEXE
 40
1.25
  9
$DIMTP
 40
0.0
  9
$DIMTM
 40
0.0
  9
$DIMTXT
 40
2.5
  9
$DIMCEN
 40
2.5
  9
$DIMTSZ
 40
0.0
  9
$DIMTOL
 70
     0
  9
$DIMLIM
 70
     0
  9
$DIMTIH
 70
     0
  9
$DIMTOH
 70
     0
  9
$DIMSE1
 70
     0
  9
$DIMSE2
 70
     0
  9
$DIMTAD
 70
     1
  9
$DIMZIN
 70
     8
  9
$DIMBLK
  1

  9
$DIMASO
 70
     1
  9
$DIMSHO
 70
     1
  9
$DIMPOST
  1

  9
$DIMAPOST
  1

  9
$DIMALT
 70
     0
  9
$DIMALTD
 70
     3
  9
$DIMALTF
 40
0.03937007874016
  9
$DIMLFAC
 40
1.0
  9
$DIMTOFL
 70
     1
  9
$DIMTVP
 40
0.0
  9
$DIMTIX
 70
     0
  9
$DIMSOXD
 70
     0
  9
$DIMSAH
 70
     0
  9
$DIMBLK1
  1

  9
$DIMBLK2
  1

  9
$DIMSTYLE
  2
ISO-25
  9
$DIMCLRD
 70
     0
  9
$DIMCLRE
 70
     0
  9
$DIMCLRT
 70
     0
  9
$DIMTFAC
 40
1.0
  9
$DIMGAP
 40
0.625
  9
$DIMJUST
 70
     0
  9
$DIMSD1
 70
     0
  9
$DIMSD2
 70
     0
  9
$DIMTOLJ
 70
     0
  9
$DIMTZIN
 70
     8
  9
$DIMALTZ
 70
     0
  9
$DIMALTTZ
 70
     0
  9
$DIMFIT
 70
     3
  9
$DIMUPT
 70
     0
  9
$DIMUNIT
 70
     2
  9
$DIMDEC
 70
     2
  9
$DIMTDEC
 70
     2
  9
$DIMALTU
 70
     2
  9
$DIMALTTD
 70
     3
  9
$DIMTXSTY
  7
STANDARD
  9
$DIMAUNIT
 70
     0
  9
$LUNITS
 70
     2
  9
$LUPREC
 70
     4
  9
$SKETCHINC
 40
1.0
  9
$FILLETRAD
 40
10.0
  9
$AUNITS
 70
     0
  9
$AUPREC
 70
     0
  9
$MENU
  1
.
  9
$ELEVATION
 40
0.0
  9
$PELEVATION
 40
0.0
  9
$THICKNESS
 40
0.0
  9
$LIMCHECK
 70
     0
  9
$CHAMFERA
 40
0.0
  9
$CHAMFERB
 40
0.0
  9
$CHAMFERC
 40
0.0
  9
$CHAMFERD
 40
0.0
  9
$SKPOLY
 70
     0
  9
$TDCREATE
 40
2459585.496263634
  9
$TDUPDATE
 40
2459585.496264827
  9
$TDINDWG
 40
0.0000000116
  9
$TDUSRTIMER
 40
0.0000000116
  9
$USRTIMER
 70
     1
  9
$ANGBASE
 50
0.0
  9
$ANGDIR
 70
     0
  9
$PDMODE
 70
     0
  9
$PDSIZE
 40
0.0
  9
$PLINEWID
 40
0.0
  9
$COORDS
 70
     1
  9
$SPLFRAME
 70
     0
  9
$SPLINETYPE
 70
     6
  9
$SPLINESEGS
 70
     8
  9
$ATTDIA
 70
     0
  9
$ATTREQ
 70
     1
  9
$HANDLING
 70
     1
  9
$HANDSEED
  5
495
  9
$SURFTAB1
 70
     6
  9
$SURFTAB2
 70
     6
  9
$SURFTYPE
 70
     6
  9
$SURFU
 70
     6
  9
$SURFV
 70
     6
  9
$UCSNAME
  2

  9
$UCSORG
 10
0.0
 20
0.0
 30
0.0
  9
$UCSXDIR
 10
1.0
 20
0.0
 30
0.0
  9
$UCSYDIR
 10
0.0
 20
1.0
 30
0.0
  9
$PUCSNAME
  2

  9
$PUCSORG
 10
0.0
 20
0.0
 30
0.0
  9
$PUCSXDIR
 10
1.0
 20
0.0
 30
0.0
  9
$PUCSYDIR
 10
0.0
 20
1.0
 30
0.0
  9
$USERI1
 70
     0
  9
$USERI2
 70
     0
  9
$USERI3
 70
     0
  9
$USERI4
 70
     0
  9
$USERI5
 70
     0
  9
$USERR1
 40
0.0
  9
$USERR2
 40
0.0
  9
$USERR3
 40
0.0
  9
$USERR4
 40
0.0
  9
$USERR5
 40
0.0
  9
$WORLDVIEW
 70
     1
  9
$SHADEDGE
 70
     3
  9
$SHADEDIF
 70
    70
  9
$TILEMODE
 70
     1
  9
$MAXACTVP
 70
    64
  9
$PINSBASE
 10
0.0
 20
0.0
 30
0.0
  9
$PLIMCHECK
 70
     0
  9
$PEXTMIN
 10
1.000000000000000E+20
 20
1.000000000000000E+20
 30
1.000000000000000E+20
  9
$PEXTMAX
 10
-1.000000000000000E+20
 20
-1.000000000000000E+20
 30
-1.000000000000000E+20
  9
$PLIMMIN
 10
0.0
 20
0.0
  9
$PLIMMAX
 10
420.0
 20
297.0
  9
$UNITMODE
 70
     0
  9
$VISRETAIN
 70
     1
  9
$PLINEGEN
 70
     0
  9
$PSLTSCALE
 70
     1
  9
$TREEDEPTH
 70
  3020
  9
$PICKSTYLE
 70
     1
  9
$CMLSTYLE
  2
STANDARD
  9
$CMLJUST
 70
     0
  9
$CMLSCALE
 40
20.0
  9
$PROXYGRAPHICS
 70
     1
  9
$MEASUREMENT
 70
     1
  0
ENDSEC
  0
SECTION
  2
CLASSES
  0
CLASS
  1
ACDBDICTIONARYWDFLT
  2
AcDbDictionaryWithDefault
  3
ObjectDBX Classes
 90
        0
280
     0
281
     0
  0
CLASS
  1
VISUALSTYLE
  2
AcDbVisualStyle
  3
ObjectDBX Classes
 90
     4095
280
     0
281
     0
  0
CLASS
  1
MATERIAL
  2
AcDbMaterial
  3
ObjectDBX Classes
 90
     1153
280
     0
281
     0
  0
CLASS
  1
SCALE
  2
AcDbScale
  3
ObjectDBX Classes
 90
     1153
280
     0
281
     0
  0
CLASS
  1
TABLESTYLE
  2
AcDbTableStyle
  3
ObjectDBX Classes
 90
     4095
280
     0
281
     0
  0
CLASS
  1
MLEADERSTYLE
  2
AcDbMLeaderStyle
  3
ACDB_MLEADERSTYLE_CLASS
 90
     4095
280
     0
281
     0
  0
CLASS
  1
SUN
  2
AcDbSun
  3
SCENEOE
 90
     1153
280
     0
281
     0
  0
CLASS
  1
DICTIONARYVAR
  2
AcDbDictionaryVar
  3
ObjectDBX Classes
 90
        0
280
     0
281
     0
  0
CLASS
  1
XRECORD
  2
AcDbXrecord
  3
ObjectDBX Classes
 90
        0
280
     0
281
     0
  0
CLASS
  1
LWPOLYLINE
  2
AcDbPolyline
  3
ObjectDBX Classes
 90
        0
280
     0
281
     1
  0
CLASS
  1
HATCH
  2
AcDbHatch
  3
ObjectDBX Classes
 90
        0
280
     0
281
     1
  0
CLASS
  1
ACDBPLACEHOLDER
  2
AcDbPlaceHolder
  3
ObjectDBX Classes
 90
        0
280
     0
281
     0
  0
CLASS
  1
LAYOUT
  2
AcDbLayout
  3
ObjectDBX Classes
 90
        0
280
     0
281
     0
  0
ENDSEC
  0
SECTION
  2
TABLES
  0
TABLE
  2
VPORT
  5
8
102
{ACAD_XDICTIONARY
360
48A
102
}
330
0
100
AcDbSymbolTable
 70
     1
  0
VPORT
  5
29
330
8
100
AcDbSymbolTableRecord
100
AcDbViewportTableRecord
  2
*ACTIVE
 70
     0
 10
0.0
 20
0.0
 11
1.0
 21
1.0
 12
525.0
 22
371.25
 13
0.0
 23
0.0
 14
10.0
 24
10.0
 15
10.0
 25
10.0
 16
0.0
 26
0.0
 36
1.0
 17
0.0
 27
0.0
 37
0.0
 40
692.5
 41
1.444043321299639
 42
50.0
 43
0.0
 44
0.0
 50
0.0
 51
0.0
 71
     0
 72
  1000
 73
     1
 74
     3
 75
     0
 76
     0
 77
     0
 78
     0
  0
ENDTAB
  0
TABLE
  2
LTYPE
  5
5
330
0
100
AcDbSymbolTable
 70
     7
  0
LTYPE
  5
14
330
5
100
AcDbSymbolTableRecord
100
AcDbLinetypeTableRecord
  2
BYBLOCK
 70
     0
  3

 72
    65
 73
     0
 40
0.0
  0
LTYPE
  5
15
330
5
100
AcDbSymbolTableRecord
100
AcDbLinetypeTableRecord
  2
BYLAYER
 70
     0
  3

 72
    65
 73
     0
 40
0.0
  0
LTYPE
  5
16
330
5
100
AcDbSymbolTableRecord
100
AcDbLinetypeTableRecord
  2
CONTINUOUS
 70
     0
  3
Solid line
 72
    65
 73
     0
 40
0.0
  0
LTYPE
  5
6E
330
5
100
AcDbSymbolTableRecord
100
AcDbLinetypeTableRecord
  2
EXLTYPE0
 70
     0
  3
破線
 72
    65
 73
     2
 40
4.0
 49
3.0
 74
     0
 49
-1.0
 74
     0
  0
LTYPE
  5
6F
330
5
100
AcDbSymbolTableRecord
100
AcDbLinetypeTableRecord
  2
EXLTYPE1
 70
     0
  3
点線
 72
    65
 73
     2
 40
2.0
 49
1.0
 74
     0
 49
-1.0
 74
     0
  0
LTYPE
  5
70
330
5
100
AcDbSymbolTableRecord
100
AcDbLinetypeTableRecord
  2
EXLTYPE2
 70
     0
  3
一点鎖線
 72
    65
 73
     4
 40
13.0
 49
10.0
 74
     0
 49
-1.0
 74
     0
 49
1.0
 74
     0
 49
-1.0
 74
     0
  0
LTYPE
  5
71
330
5
100
AcDbSymbolTableRecord
100
AcDbLinetypeTableRecord
  2
EXLTYPE3
 70
     0
  3
二点鎖線
 72
    65
 73
     6
 40
15.0
 49
10.0
 74
     0
 49
-1.0
 74
     0
 49
1.0
 74
     0
 49
-1.0
 74
     0
 49
1.0
 74
     0
 49
-1.0
 74
     0
  0
LTYPE
  5
72
330
5
100
AcDbSymbolTableRecord
100
AcDbLinetypeTableRecord
  2
EXLTYPE4
 70
     0
  3
一点鎖線2
 72
    65
 73
     4
 40
3.5
 49
2.0
 74
     0
 49
-0.5
 74
     0
 49
0.5
 74
     0
 49
-0.5
 74
     0
  0
LTYPE
  5
73
330
5
100
AcDbSymbolTableRecord
100
AcDbLinetypeTableRecord
  2
EXLTYPE5
 70
     0
  3
二点鎖線2
 72
    65
 73
     6
 40
4.5
 49
2.0
 74
     0
 49
-0.5
 74
     0
 49
0.5
 74
     0
 49
-0.5
 74
     0
 49
0.5
 74
     0
 49
-0.5
 74
     0
  0
ENDTAB
  0
TABLE
  2
LAYER
  5
2
330
0
100
AcDbSymbolTable
 70
     4
  0
LAYER
  5
10
330
2
100
AcDbSymbolTableRecord
100
AcDbLayerTableRecord
  2
0
 70
     0
 62
     7
  6
CONTINUOUS
  0
LAYER
  5
76
330
2
100
AcDbSymbolTableRecord
100
AcDbLayerTableRecord
  2
図面枠
 70
     4
 62
     7
  6
CONTINUOUS
  0
LAYER
  5
77
330
2
100
AcDbSymbolTableRecord
100
AcDbLayerTableRecord
  2
Ｓ_１_１
 70
     0
 62
     7
  6
CONTINUOUS
  0
LAYER
  5
115
330
2
100
AcDbSymbolTableRecord
100
AcDbLayerTableRecord
  2
DEFPOINTS
 70
     0
 62
     7
  6
CONTINUOUS
  0
ENDTAB
  0
TABLE
  2
STYLE
  5
3
330
0
100
AcDbSymbolTable
 70
     5
  0
STYLE
  5
11
330
3
100
AcDbSymbolTableRecord
100
AcDbTextStyleTableRecord
  2
STANDARD
 70
     0
 40
0.0
 41
1.0
 50
0.0
 71
     0
 42
2.5
  3
monotxt
  4
extfont
  0
STYLE
  5
74
330
3
100
AcDbSymbolTableRecord
100
AcDbTextStyleTableRecord
  2
EXCADSTD
 70
     0
 40
0.0
 41
1.0
 50
0.0
 71
     0
 42
2.5
  3
monotxt
  4
extfont
  0
STYLE
  5
75
330
3
100
AcDbSymbolTableRecord
100
AcDbTextStyleTableRecord
  2
EXCADVERT
 70
     4
 40
0.0
 41
1.0
 50
0.0
 71
     0
 42
2.5
  3
monotxt
  4
extfont
  0
STYLE
  5
D8
330
3
100
AcDbSymbolTableRecord
100
AcDbTextStyleTableRecord
  2
EXCADTTF1
 70
     0
 40
0.0
 41
1.0
 50
0.0
 71
     0
 42
2.5
  3
msgothic.ttc
  4

1001
ACAD
1000
MS Gothic
1071
    32817
  0
STYLE
  5
113
330
3
100
AcDbSymbolTableRecord
100
AcDbTextStyleTableRecord
  2
EXCADDIM1
 70
     0
 40
0.0
 41
1.0
 50
0.0
 71
     0
 42
2.5
  3
msgothic.ttc
  4

1001
ACAD
1000
MS Gothic
1071
    32817
  0
ENDTAB
  0
TABLE
  2
VIEW
  5
6
330
0
100
AcDbSymbolTable
 70
     0
  0
ENDTAB
  0
TABLE
  2
UCS
  5
7
330
0
100
AcDbSymbolTable
 70
     0
  0
ENDTAB
  0
TABLE
  2
APPID
  5
9
330
0
100
AcDbSymbolTable
 70
     2
  0
APPID
  5
12
330
9
100
AcDbSymbolTableRecord
100
AcDbRegAppTableRecord
  2
ACAD
 70
     0
  0
APPID
  5
494
330
9
100
AcDbSymbolTableRecord
100
AcDbRegAppTableRecord
  2
ACAD_MLEADERVER
 70
     0
  0
ENDTAB
  0
TABLE
  2
DIMSTYLE
  5
A
330
0
100
AcDbSymbolTable
 70
     1
  0
DIMSTYLE
105
27
102
{ACAD_REACTORS
330
114
330
121
330
12E
330
139
330
147
330
153
330
160
330
16D
330
17A
330
187
330
192
330
19E
330
444
330
451
102
}
330
A
100
AcDbSymbolTableRecord
100
AcDbDimStyleTableRecord
  2
ISO-25
 70
     0
  3

  4

  5

  6

  7

 40
1.0
 41
2.5
 42
0.625
 43
3.75
 44
1.25
 45
0.0
 46
0.0
 47
0.0
 48
0.0
140
2.5
141
2.5
142
0.0
143
0.03937007874016
144
1.0
145
0.0
146
1.0
147
0.625
 71
     0
 72
     0
 73
     0
 74
     0
 75
     0
 76
     0
 77
     1
 78
     8
170
     0
171
     3
172
     1
173
     0
174
     0
175
     0
176
     0
177
     0
178
     0
270
     2
271
     2
272
     2
273
     2
274
     3
340
11
275
     0
280
     0
281
     0
282
     0
283
     0
284
     8
285
     0
286
     0
287
     5
288
     0
  0
ENDTAB
  0
TABLE
  2
BLOCK_RECORD
  5
1
330
0
100
AcDbSymbolTable
 70
    28
  0
BLOCK_RECORD
  5
1F
330
1
100
AcDbSymbolTableRecord
100
AcDbBlockTableRecord
  2
*MODEL_SPACE
  0
BLOCK_RECORD
  5
1B
330
1
100
AcDbSymbolTableRecord
100
AcDbBlockTableRecord
  2
*PAPER_SPACE
  0
BLOCK_RECORD
  5
78
330
1
100
AcDbSymbolTableRecord
100
AcDbBlockTableRecord
  2
EX_NORM
  0
BLOCK_RECORD
  5
7B
330
1
100
AcDbSymbolTableRecord
100
AcDbBlockTableRecord
  2
EX_BNORM
  0
BLOCK_RECORD
  5
7E
330
1
100
AcDbSymbolTableRecord
100
AcDbBlockTableRecord
  2
EX_BCIR
  0
BLOCK_RECORD
  5
81
330
1
100
AcDbSymbolTableRecord
100
AcDbBlockTableRecord
  2
EX_RCIVIL
  0
BLOCK_RECORD
  5
84
330
1
100
AcDbSymbolTableRecord
100
AcDbBlockTableRecord
  2
EX_SLANT
  0
BLOCK_RECORD
  5
87
330
1
100
AcDbSymbolTableRecord
100
AcDbBlockTableRecord
  2
EX_NONE
  0
BLOCK_RECORD
  5
8A
330
1
100
AcDbSymbolTableRecord
100
AcDbBlockTableRecord
  2
EX_CIVIL
  0
BLOCK_RECORD
  5
8D
330
1
100
AcDbSymbolTableRecord
100
AcDbBlockTableRecord
  2
EX_WCIR
  0
BLOCK_RECORD
  5
90
330
1
100
AcDbSymbolTableRecord
100
AcDbBlockTableRecord
  2
EX_WCIR2
  0
BLOCK_RECORD
  5
93
330
1
100
AcDbSymbolTableRecord
100
AcDbBlockTableRecord
  2
EX_WNORM
  0
BLOCK_RECORD
  5
96
330
1
100
AcDbSymbolTableRecord
100
AcDbBlockTableRecord
  2
EX_NNORM
  0
BLOCK_RECORD
  5
99
330
1
100
AcDbSymbolTableRecord
100
AcDbBlockTableRecord
  2
EX_BBOX
  0
BLOCK_RECORD
  5
9C
330
1
100
AcDbSymbolTableRecord
100
AcDbBlockTableRecord
  2
EX_WBOX
  0
BLOCK_RECORD
  5
9F
330
1
100
AcDbSymbolTableRecord
100
AcDbBlockTableRecord
  2
EX_INTEGRAL
  0
BLOCK_RECORD
  5
116
330
1
100
AcDbSymbolTableRecord
100
AcDbBlockTableRecord
  2
*D15
  0
BLOCK_RECORD
  5
122
330
1
100
AcDbSymbolTableRecord
100
AcDbBlockTableRecord
  2
*D16
  0
BLOCK_RECORD
  5
12F
330
1
100
AcDbSymbolTableRecord
100
AcDbBlockTableRecord
  2
*D17
  0
BLOCK_RECORD
  5
13A
330
1
100
AcDbSymbolTableRecord
100
AcDbBlockTableRecord
  2
*D18
  0
BLOCK_RECORD
  5
148
330
1
100
AcDbSymbolTableRecord
100
AcDbBlockTableRecord
  2
*D19
  0
BLOCK_RECORD
  5
154
330
1
100
AcDbSymbolTableRecord
100
AcDbBlockTableRecord
  2
*D20
  0
BLOCK_RECORD
  5
161
330
1
100
AcDbSymbolTableRecord
100
AcDbBlockTableRecord
  2
*D21
  0
BLOCK_RECORD
  5
16E
330
1
100
AcDbSymbolTableRecord
100
AcDbBlockTableRecord
  2
*D22
  0
BLOCK_RECORD
  5
17B
330
1
100
AcDbSymbolTableRecord
100
AcDbBlockTableRecord
  2
*D23
  0
BLOCK_RECORD
  5
188
330
1
100
AcDbSymbolTableRecord
100
AcDbBlockTableRecord
  2
*D24
  0
BLOCK_RECORD
  5
193
330
1
100
AcDbSymbolTableRecord
100
AcDbBlockTableRecord
  2
*D25
  0
BLOCK_RECORD
  5
19F
330
1
100
AcDbSymbolTableRecord
100
AcDbBlockTableRecord
  2
*D26
  0
BLOCK_RECORD
  5
445
330
1
100
AcDbSymbolTableRecord
100
AcDbBlockTableRecord
  2
*D27
  0
BLOCK_RECORD
  5
452
330
1
100
AcDbSymbolTableRecord
100
AcDbBlockTableRecord
  2
*D28
  0
ENDTAB
  0
ENDSEC
  0
SECTION
  2
BLOCKS
  0
BLOCK
  5
20
330
1F
100
AcDbEntity
  8
0
100
AcDbBlockBegin
  2
*MODEL_SPACE
 70
     0
 10
0.0
 20
0.0
 30
0.0
  3
*MODEL_SPACE
  1

  0
ENDBLK
  5
21
330
1F
100
AcDbEntity
  8
0
100
AcDbBlockEnd
  0
BLOCK
  5
1C
330
1B
100
AcDbEntity
 67
     1
  8
0
100
AcDbBlockBegin
  2
*PAPER_SPACE
 70
     0
 10
0.0
 20
0.0
 30
0.0
  3
*PAPER_SPACE
  1

  0
ENDBLK
  5
1D
330
1B
100
AcDbEntity
 67
     1
  8
0
100
AcDbBlockEnd
  0
BLOCK
  5
79
330
78
100
AcDbEntity
  8
0
100
AcDbBlockBegin
  2
EX_NORM
 70
     0
 10
0.0
 20
0.0
 30
0.0
  3
EX_NORM
  1

  0
LINE
  5
A2
330
78
100
AcDbEntity
  8
0
  6
CONTINUOUS
 62
     0
100
AcDbLine
 10
0.0
 20
0.0
 30
0.0
 11
-1.0
 21
0.0
 31
0.0
  0
LINE
  5
A3
330
78
100
AcDbEntity
  8
0
  6
CONTINUOUS
 62
     0
100
AcDbLine
 10
0.0
 20
0.0
 30
0.0
 11
-1.0
 21
0.166666667
 31
0.0
  0
LINE
  5
A4
330
78
100
AcDbEntity
  8
0
  6
CONTINUOUS
 62
     0
100
AcDbLine
 10
0.0
 20
0.0
 30
0.0
 11
-1.0
 21
-0.166666667
 31
0.0
  0
ENDBLK
  5
7A
330
78
100
AcDbEntity
  8
0
100
AcDbBlockEnd
  0
BLOCK
  5
7C
330
7B
100
AcDbEntity
  8
0
100
AcDbBlockBegin
  2
EX_BNORM
 70
     0
 10
0.0
 20
0.0
 30
0.0
  3
EX_BNORM
  1

  0
LINE
  5
A5
330
7B
100
AcDbEntity
  8
0
  6
CONTINUOUS
 62
     0
100
AcDbLine
 10
0.0
 20
0.0
 30
0.0
 11
-1.0
 21
0.0
 31
0.0
  0
LINE
  5
A6
330
7B
100
AcDbEntity
  8
0
  6
CONTINUOUS
 62
     0
100
AcDbLine
 10
0.0
 20
0.0
 30
0.0
 11
-1.0
 21
0.166666667
 31
0.0
  0
LINE
  5
A7
330
7B
100
AcDbEntity
  8
0
  6
CONTINUOUS
 62
     0
100
AcDbLine
 10
0.0
 20
0.0
 30
0.0
 11
-1.0
 21
-0.166666667
 31
0.0
  0
LINE
  5
A8
330
7B
100
AcDbEntity
  8
0
  6
CONTINUOUS
 62
     0
100
AcDbLine
 10
0.0
 20
0.0
 30
0.0
 11
-1.0
 21
0.083333333
 31
0.0
  0
LINE
  5
A9
330
7B
100
AcDbEntity
  8
0
  6
CONTINUOUS
 62
     0
100
AcDbLine
 10
0.0
 20
0.0
 30
0.0
 11
-1.0
 21
-0.083333333
 31
0.0
  0
LINE
  5
AA
330
7B
100
AcDbEntity
  8
0
  6
CONTINUOUS
 62
     0
100
AcDbLine
 10
-1.0
 20
0.166666667
 30
0.0
 11
-1.0
 21
-0.166666667
 31
0.0
  0
ENDBLK
  5
7D
330
7B
100
AcDbEntity
  8
0
100
AcDbBlockEnd
  0
BLOCK
  5
7F
330
7E
100
AcDbEntity
  8
0
100
AcDbBlockBegin
  2
EX_BCIR
 70
     0
 10
0.0
 20
0.0
 30
0.0
  3
EX_BCIR
  1

  0
LINE
  5
AB
330
7E
100
AcDbEntity
  8
0
  6
CONTINUOUS
 62
     0
100
AcDbLine
 10
0.0
 20
0.0
 30
0.0
 11
-1.0
 21
0.0
 31
0.0
  0
CIRCLE
  5
AC
330
7E
100
AcDbEntity
  8
0
  6
CONTINUOUS
 62
     0
100
AcDbCircle
 10
0.0
 20
0.0
 30
0.0
 40
0.5
  0
CIRCLE
  5
AD
330
7E
100
AcDbEntity
  8
0
  6
CONTINUOUS
 62
     0
100
AcDbCircle
 10
0.0
 20
0.0
 30
0.0
 40
0.25
  0
ENDBLK
  5
80
330
7E
100
AcDbEntity
  8
0
100
AcDbBlockEnd
  0
BLOCK
  5
82
330
81
100
AcDbEntity
  8
0
100
AcDbBlockBegin
  2
EX_RCIVIL
 70
     0
 10
0.0
 20
0.0
 30
0.0
  3
EX_RCIVIL
  1

  0
LINE
  5
AE
330
81
100
AcDbEntity
  8
0
  6
CONTINUOUS
 62
     0
100
AcDbLine
 10
0.0
 20
0.0
 30
0.0
 11
-1.0
 21
0.0
 31
0.0
  0
LINE
  5
AF
330
81
100
AcDbEntity
  8
0
  6
CONTINUOUS
 62
     0
100
AcDbLine
 10
-1.0
 20
-0.25
 30
0.0
 11
0.0
 21
-0.25
 31
0.0
  0
LINE
  5
B0
330
81
100
AcDbEntity
  8
0
  6
CONTINUOUS
 62
     0
100
AcDbLine
 10
-1.0
 20
-0.125
 30
0.0
 11
0.0
 21
-0.125
 31
0.0
  0
ENDBLK
  5
83
330
81
100
AcDbEntity
  8
0
100
AcDbBlockEnd
  0
BLOCK
  5
85
330
84
100
AcDbEntity
  8
0
100
AcDbBlockBegin
  2
EX_SLANT
 70
     0
 10
0.0
 20
0.0
 30
0.0
  3
EX_SLANT
  1

  0
LINE
  5
B1
330
84
100
AcDbEntity
  8
0
  6
CONTINUOUS
 62
     0
100
AcDbLine
 10
0.0
 20
0.0
 30
0.0
 11
-1.0
 21
0.0
 31
0.0
  0
LINE
  5
B2
330
84
100
AcDbEntity
  8
0
  6
CONTINUOUS
 62
     0
100
AcDbLine
 10
0.707106781
 20
0.707106781
 30
0.0
 11
-0.707106781
 21
-0.707106781
 31
0.0
  0
ENDBLK
  5
86
330
84
100
AcDbEntity
  8
0
100
AcDbBlockEnd
  0
BLOCK
  5
88
330
87
100
AcDbEntity
  8
0
100
AcDbBlockBegin
  2
EX_NONE
 70
     0
 10
0.0
 20
0.0
 30
0.0
  3
EX_NONE
  1

  0
LINE
  5
B3
330
87
100
AcDbEntity
  8
0
  6
CONTINUOUS
 62
     0
100
AcDbLine
 10
0.0
 20
0.0
 30
0.0
 11
-1.0
 21
0.0
 31
0.0
  0
ENDBLK
  5
89
330
87
100
AcDbEntity
  8
0
100
AcDbBlockEnd
  0
BLOCK
  5
8B
330
8A
100
AcDbEntity
  8
0
100
AcDbBlockBegin
  2
EX_CIVIL
 70
     0
 10
0.0
 20
0.0
 30
0.0
  3
EX_CIVIL
  1

  0
LINE
  5
B4
330
8A
100
AcDbEntity
  8
0
  6
CONTINUOUS
 62
     0
100
AcDbLine
 10
0.0
 20
0.0
 30
0.0
 11
-1.0
 21
0.0
 31
0.0
  0
LINE
  5
B5
330
8A
100
AcDbEntity
  8
0
  6
CONTINUOUS
 62
     0
100
AcDbLine
 10
-1.0
 20
0.25
 30
0.0
 11
0.0
 21
0.25
 31
0.0
  0
LINE
  5
B6
330
8A
100
AcDbEntity
  8
0
  6
CONTINUOUS
 62
     0
100
AcDbLine
 10
-1.0
 20
0.125
 30
0.0
 11
0.0
 21
0.125
 31
0.0
  0
ENDBLK
  5
8C
330
8A
100
AcDbEntity
  8
0
100
AcDbBlockEnd
  0
BLOCK
  5
8E
330
8D
100
AcDbEntity
  8
0
100
AcDbBlockBegin
  2
EX_WCIR
 70
     0
 10
0.0
 20
0.0
 30
0.0
  3
EX_WCIR
  1

  0
LINE
  5
B7
330
8D
100
AcDbEntity
  8
0
  6
CONTINUOUS
 62
     0
100
AcDbLine
 10
0.0
 20
0.0
 30
0.0
 11
-1.0
 21
0.0
 31
0.0
  0
CIRCLE
  5
B8
330
8D
100
AcDbEntity
  8
0
  6
CONTINUOUS
 62
     0
100
AcDbCircle
 10
0.0
 20
0.0
 30
0.0
 40
0.5
  0
ENDBLK
  5
8F
330
8D
100
AcDbEntity
  8
0
100
AcDbBlockEnd
  0
BLOCK
  5
91
330
90
100
AcDbEntity
  8
0
100
AcDbBlockBegin
  2
EX_WCIR2
 70
     0
 10
0.0
 20
0.0
 30
0.0
  3
EX_WCIR2
  1

  0
LINE
  5
B9
330
90
100
AcDbEntity
  8
0
  6
CONTINUOUS
 62
     0
100
AcDbLine
 10
-0.5
 20
0.0
 30
0.0
 11
-1.0
 21
0.0
 31
0.0
  0
CIRCLE
  5
BA
330
90
100
AcDbEntity
  8
0
  6
CONTINUOUS
 62
     0
100
AcDbCircle
 10
0.0
 20
0.0
 30
0.0
 40
0.5
  0
ENDBLK
  5
92
330
90
100
AcDbEntity
  8
0
100
AcDbBlockEnd
  0
BLOCK
  5
94
330
93
100
AcDbEntity
  8
0
100
AcDbBlockBegin
  2
EX_WNORM
 70
     0
 10
0.0
 20
0.0
 30
0.0
  3
EX_WNORM
  1

  0
LINE
  5
BB
330
93
100
AcDbEntity
  8
0
  6
CONTINUOUS
 62
     0
100
AcDbLine
 10
-1.0
 20
0.0
 30
0.0
 11
-1.0
 21
0.0
 31
0.0
  0
LINE
  5
BC
330
93
100
AcDbEntity
  8
0
  6
CONTINUOUS
 62
     0
100
AcDbLine
 10
0.0
 20
0.0
 30
0.0
 11
-1.0
 21
0.166666667
 31
0.0
  0
LINE
  5
BD
330
93
100
AcDbEntity
  8
0
  6
CONTINUOUS
 62
     0
100
AcDbLine
 10
0.0
 20
0.0
 30
0.0
 11
-1.0
 21
-0.166666667
 31
0.0
  0
LINE
  5
BE
330
93
100
AcDbEntity
  8
0
  6
CONTINUOUS
 62
     0
100
AcDbLine
 10
-1.0
 20
0.166666667
 30
0.0
 11
-1.0
 21
-0.166666667
 31
0.0
  0
ENDBLK
  5
95
330
93
100
AcDbEntity
  8
0
100
AcDbBlockEnd
  0
BLOCK
  5
97
330
96
100
AcDbEntity
  8
0
100
AcDbBlockBegin
  2
EX_NNORM
 70
     0
 10
0.0
 20
0.0
 30
0.0
  3
EX_NNORM
  1

  0
LINE
  5
BF
330
96
100
AcDbEntity
  8
0
  6
CONTINUOUS
 62
     0
100
AcDbLine
 10
0.0
 20
0.0
 30
0.0
 11
-1.0
 21
0.0
 31
0.0
  0
LINE
  5
C0
330
96
100
AcDbEntity
  8
0
  6
CONTINUOUS
 62
     0
100
AcDbLine
 10
0.0
 20
0.0
 30
0.0
 11
-1.0
 21
0.166666667
 31
0.0
  0
LINE
  5
C1
330
96
100
AcDbEntity
  8
0
  6
CONTINUOUS
 62
     0
100
AcDbLine
 10
0.0
 20
0.0
 30
0.0
 11
-1.0
 21
-0.166666667
 31
0.0
  0
LINE
  5
C2
330
96
100
AcDbEntity
  8
0
  6
CONTINUOUS
 62
     0
100
AcDbLine
 10
-1.0
 20
0.166666667
 30
0.0
 11
-1.0
 21
-0.166666667
 31
0.0
  0
ENDBLK
  5
98
330
96
100
AcDbEntity
  8
0
100
AcDbBlockEnd
  0
BLOCK
  5
9A
330
99
100
AcDbEntity
  8
0
100
AcDbBlockBegin
  2
EX_BBOX
 70
     0
 10
0.0
 20
0.0
 30
0.0
  3
EX_BBOX
  1

  0
LINE
  5
C3
330
99
100
AcDbEntity
  8
0
  6
CONTINUOUS
 62
     0
100
AcDbLine
 10
0.0
 20
0.0
 30
0.0
 11
-1.0
 21
0.0
 31
0.0
  0
LINE
  5
C4
330
99
100
AcDbEntity
  8
0
  6
CONTINUOUS
 62
     0
100
AcDbLine
 10
-0.5
 20
0.5
 30
0.0
 11
0.5
 21
0.5
 31
0.0
  0
LINE
  5
C5
330
99
100
AcDbEntity
  8
0
  6
CONTINUOUS
 62
     0
100
AcDbLine
 10
0.5
 20
0.5
 30
0.0
 11
0.5
 21
-0.5
 31
0.0
  0
LINE
  5
C6
330
99
100
AcDbEntity
  8
0
  6
CONTINUOUS
 62
     0
100
AcDbLine
 10
0.5
 20
-0.5
 30
0.0
 11
-0.5
 21
-0.5
 31
0.0
  0
LINE
  5
C7
330
99
100
AcDbEntity
  8
0
  6
CONTINUOUS
 62
     0
100
AcDbLine
 10
-0.5
 20
-0.5
 30
0.0
 11
-0.5
 21
0.5
 31
0.0
  0
LINE
  5
C8
330
99
100
AcDbEntity
  8
0
  6
CONTINUOUS
 62
     0
100
AcDbLine
 10
-0.25
 20
0.25
 30
0.0
 11
0.25
 21
0.25
 31
0.0
  0
LINE
  5
C9
330
99
100
AcDbEntity
  8
0
  6
CONTINUOUS
 62
     0
100
AcDbLine
 10
0.25
 20
0.25
 30
0.0
 11
0.25
 21
-0.25
 31
0.0
  0
LINE
  5
CA
330
99
100
AcDbEntity
  8
0
  6
CONTINUOUS
 62
     0
100
AcDbLine
 10
0.25
 20
-0.25
 30
0.0
 11
-0.25
 21
-0.25
 31
0.0
  0
LINE
  5
CB
330
99
100
AcDbEntity
  8
0
  6
CONTINUOUS
 62
     0
100
AcDbLine
 10
-0.25
 20
-0.25
 30
0.0
 11
-0.25
 21
0.25
 31
0.0
  0
ENDBLK
  5
9B
330
99
100
AcDbEntity
  8
0
100
AcDbBlockEnd
  0
BLOCK
  5
9D
330
9C
100
AcDbEntity
  8
0
100
AcDbBlockBegin
  2
EX_WBOX
 70
     0
 10
0.0
 20
0.0
 30
0.0
  3
EX_WBOX
  1

  0
LINE
  5
CC
330
9C
100
AcDbEntity
  8
0
  6
CONTINUOUS
 62
     0
100
AcDbLine
 10
-0.5
 20
0.0
 30
0.0
 11
-1.0
 21
0.0
 31
0.0
  0
LINE
  5
CD
330
9C
100
AcDbEntity
  8
0
  6
CONTINUOUS
 62
     0
100
AcDbLine
 10
-0.5
 20
0.5
 30
0.0
 11
0.5
 21
0.5
 31
0.0
  0
LINE
  5
CE
330
9C
100
AcDbEntity
  8
0
  6
CONTINUOUS
 62
     0
100
AcDbLine
 10
0.5
 20
0.5
 30
0.0
 11
0.5
 21
-0.5
 31
0.0
  0
LINE
  5
CF
330
9C
100
AcDbEntity
  8
0
  6
CONTINUOUS
 62
     0
100
AcDbLine
 10
0.5
 20
-0.5
 30
0.0
 11
-0.5
 21
-0.5
 31
0.0
  0
LINE
  5
D0
330
9C
100
AcDbEntity
  8
0
  6
CONTINUOUS
 62
     0
100
AcDbLine
 10
-0.5
 20
-0.5
 30
0.0
 11
-0.5
 21
0.5
 31
0.0
  0
ENDBLK
  5
9E
330
9C
100
AcDbEntity
  8
0
100
AcDbBlockEnd
  0
BLOCK
  5
A0
330
9F
100
AcDbEntity
  8
0
100
AcDbBlockBegin
  2
EX_INTEGRAL
 70
     0
 10
0.0
 20
0.0
 30
0.0
  3
EX_INTEGRAL
  1

  0
LINE
  5
D1
330
9F
100
AcDbEntity
  8
0
  6
CONTINUOUS
 62
     0
100
AcDbLine
 10
0.0
 20
0.0
 30
0.0
 11
-1.0
 21
0.0
 31
0.0
  0
ARC
  5
D2
330
9F
100
AcDbEntity
  8
0
  6
CONTINUOUS
 62
     0
100
AcDbCircle
 10
0.542115
 20
0.164992
 30
0.0
 40
0.56667
100
AcDbArc
 50
73.07249033629006
 51
196.9275130221199
  0
ARC
  5
D3
330
9F
100
AcDbEntity
  8
0
  6
CONTINUOUS
 62
     0
100
AcDbCircle
 10
-0.542115
 20
-0.164992
 30
0.0
 40
0.56667
100
AcDbArc
 50
253.0724869220464
 51
16.9275130559125
  0
ENDBLK
  5
A1
330
9F
100
AcDbEntity
  8
0
100
AcDbBlockEnd
  0
BLOCK
  5
117
330
116
100
AcDbEntity
  8
0
100
AcDbBlockBegin
  2
*D15
 70
     1
 10
0.0
 20
0.0
 30
0.0
  3
*D15
  1

  0
LINE
  5
119
330
116
100
AcDbEntity
  8
Ｓ_１_１
  6
CONTINUOUS
 62
     2
100
AcDbLine
 10
902.7500089999996
 20
200.0000030000033
 30
0.0
 11
947.5
 21
200.0000030000033
 31
0.0
  0
LINE
  5
11A
330
116
100
AcDbEntity
  8
Ｓ_１_１
  6
CONTINUOUS
 62
     2
100
AcDbLine
 10
945.0
 20
332.4999980000034
 30
0.0
 11
945.0
 21
207.5000030000033
 31
0.0
  0
INSERT
  5
11B
330
116
100
AcDbEntity
  8
Ｓ_１_１
 62
     2
100
AcDbBlockReference
  2
EX_NORM
 10
945.0
 20
339.9999980000034
 30
0.0
 41
7.5
 42
7.5
 43
7.5
 50
90.0
  0
INSERT
  5
11C
330
116
100
AcDbEntity
  8
Ｓ_１_１
 62
     2
100
AcDbBlockReference
  2
EX_NORM
 10
945.0
 20
200.0000030000033
 30
0.0
 41
7.5
 42
7.5
 43
7.5
 50
270.0
  0
MTEXT
  5
11D
330
116
100
AcDbEntity
  8
Ｓ_１_１
 62
     2
100
AcDbMText
 10
938.125
 20
270.0000005000034
 30
0.0
 40
8.6572603926097
 41
0.0
 71
     5
 72
     1
  1
%%c140
  7
EXCADDIM1
 11
0.0
 21
1.0
 31
0.0
  0
POINT
  5
11E
330
116
100
AcDbEntity
  8
DEFPOINTS
 62
     0
100
AcDbPoint
 10
899.0000089999996
 20
339.9999980000034
 30
0.0
  0
POINT
  5
11F
330
116
100
AcDbEntity
  8
DEFPOINTS
 62
     0
100
AcDbPoint
 10
899.0000089999996
 20
200.0000030000033
 30
0.0
  0
POINT
  5
120
330
116
100
AcDbEntity
  8
DEFPOINTS
 62
     0
100
AcDbPoint
 10
945.0
 20
200.0000030000033
 30
0.0
  0
ENDBLK
  5
118
330
116
100
AcDbEntity
  8
0
100
AcDbBlockEnd
  0
BLOCK
  5
123
330
122
100
AcDbEntity
  8
0
100
AcDbBlockBegin
  2
*D16
 70
     1
 10
0.0
 20
0.0
 30
0.0
  3
*D16
  1

  0
LINE
  5
125
330
122
100
AcDbEntity
  8
Ｓ_１_１
  6
CONTINUOUS
 62
     2
100
AcDbLine
 10
902.7500040000001
 20
339.999998
 30
0.0
 11
947.5
 21
339.999998
 31
0.0
  0
LINE
  5
126
330
122
100
AcDbEntity
  8
Ｓ_１_１
  6
CONTINUOUS
 62
     2
100
AcDbLine
 10
783.2500160000001
 20
462.3622570000001
 30
0.0
 11
947.5
 21
462.3622570000001
 31
0.0
  0
LINE
  5
127
330
122
100
AcDbEntity
  8
Ｓ_１_１
  6
CONTINUOUS
 62
     2
100
AcDbLine
 10
945.0
 20
347.499998
 30
0.0
 11
945.0
 21
454.8622570000001
 31
0.0
  0
INSERT
  5
128
330
122
100
AcDbEntity
  8
Ｓ_１_１
 62
     2
100
AcDbBlockReference
  2
EX_NORM
 10
945.0
 20
339.999998
 30
0.0
 41
7.5
 42
7.5
 43
7.5
 50
270.0
  0
INSERT
  5
129
330
122
100
AcDbEntity
  8
Ｓ_１_１
 62
     2
100
AcDbBlockReference
  2
EX_NORM
 10
945.0
 20
462.3622570000001
 30
0.0
 41
7.5
 42
7.5
 43
7.5
 50
90.0
  0
MTEXT
  5
12A
330
122
100
AcDbEntity
  8
Ｓ_１_１
 62
     2
100
AcDbMText
 10
938.125
 20
401.1811275000001
 30
0.0
 40
8.6572603926097
 41
0.0
 71
     5
 72
     1
  1
(122)
  7
EXCADDIM1
 11
0.0
 21
1.0
 31
0.0
  0
POINT
  5
12B
330
122
100
AcDbEntity
  8
DEFPOINTS
 62
     0
100
AcDbPoint
 10
899.0000040000001
 20
339.999998
 30
0.0
  0
POINT
  5
12C
330
122
100
AcDbEntity
  8
DEFPOINTS
 62
     0
100
AcDbPoint
 10
779.5000160000001
 20
462.3622570000001
 30
0.0
  0
POINT
  5
12D
330
122
100
AcDbEntity
  8
DEFPOINTS
 62
     0
100
AcDbPoint
 10
945.0
 20
462.3622570000001
 30
0.0
  0
ENDBLK
  5
124
330
122
100
AcDbEntity
  8
0
100
AcDbBlockEnd
  0
BLOCK
  5
130
330
12F
100
AcDbEntity
  8
0
100
AcDbBlockBegin
  2
*D17
 70
     1
 10
0.0
 20
0.0
 30
0.0
  3
*D17
  1

  0
LINE
  5
132
330
12F
100
AcDbEntity
  8
Ｓ_１_１
  6
CONTINUOUS
 62
     2
100
AcDbLine
 10
892.5
 20
150.0
 30
0.0
 11
527.500022
 21
150.0
 31
0.0
  0
INSERT
  5
133
330
12F
100
AcDbEntity
  8
Ｓ_１_１
 62
     2
100
AcDbBlockReference
  2
EX_NORM
 10
900.0
 20
150.0
 30
0.0
 41
7.5
 42
7.5
 43
7.5
  0
INSERT
  5
134
330
12F
100
AcDbEntity
  8
Ｓ_１_１
 62
     2
100
AcDbBlockReference
  2
EX_NORM
 10
520.000022
 20
150.0
 30
0.0
 41
7.5
 42
7.5
 43
7.5
 50
180.0
  0
MTEXT
  5
135
330
12F
100
AcDbEntity
  8
Ｓ_１_１
 62
     2
100
AcDbMText
 10
710.0000109999999
 20
156.875
 30
0.0
 40
8.6572603926097
 41
0.0
 71
     5
 72
     1
  1
380
  7
EXCADDIM1
  0
POINT
  5
136
330
12F
100
AcDbEntity
  8
DEFPOINTS
 62
     0
100
AcDbPoint
 10
900.0
 20
200.999991
 30
0.0
  0
POINT
  5
137
330
12F
100
AcDbEntity
  8
DEFPOINTS
 62
     0
100
AcDbPoint
 10
520.000022
 20
201.00000300001
 30
0.0
  0
POINT
  5
138
330
12F
100
AcDbEntity
  8
DEFPOINTS
 62
     0
100
AcDbPoint
 10
520.000022
 20
150.0
 30
0.0
  0
ENDBLK
  5
131
330
12F
100
AcDbEntity
  8
0
100
AcDbBlockEnd
  0
BLOCK
  5
13B
330
13A
100
AcDbEntity
  8
0
100
AcDbBlockBegin
  2
*D18
 70
     1
 10
0.0
 20
0.0
 30
0.0
  3
*D18
  1

  0
LINE
  5
13D
330
13A
100
AcDbEntity
  8
Ｓ_１_１
  6
CONTINUOUS
 62
     2
100
AcDbLine
 10
520.000022
 20
197.250004
 30
0.0
 11
520.000022
 21
147.5
 31
0.0
  0
LINE
  5
13E
330
13A
100
AcDbEntity
  8
Ｓ_１_１
  6
CONTINUOUS
 62
     2
100
AcDbLine
 10
520.000022
 20
150.0
 30
0.0
 11
510.000022
 21
150.0
 31
0.0
  0
LINE
  5
13F
330
13A
100
AcDbEntity
  8
Ｓ_１_１
  6
CONTINUOUS
 62
     2
100
AcDbLine
 10
527.500022
 20
150.0
 30
0.0
 11
535.000022
 21
150.0
 31
0.0
  0
LINE
  5
140
330
13A
100
AcDbEntity
  8
Ｓ_１_１
  6
CONTINUOUS
 62
     2
100
AcDbLine
 10
502.500022
 20
150.0
 30
0.0
 11
495.000022
 21
150.0
 31
0.0
  0
INSERT
  5
141
330
13A
100
AcDbEntity
  8
Ｓ_１_１
 62
     2
100
AcDbBlockReference
  2
EX_NORM
 10
520.000022
 20
150.0
 30
0.0
 41
7.5
 42
7.5
 43
7.5
 50
180.0
  0
INSERT
  5
142
330
13A
100
AcDbEntity
  8
Ｓ_１_１
 62
     2
100
AcDbBlockReference
  2
EX_NORM
 10
510.000022
 20
150.0
 30
0.0
 41
7.5
 42
7.5
 43
7.5
  0
MTEXT
  5
143
330
13A
100
AcDbEntity
  8
Ｓ_１_１
 62
     2
100
AcDbMText
 10
533.125022
 20
156.8749999999999
 30
0.0
 40
8.6572603926097
 41
0.0
 71
     5
 72
     1
  1
10
  7
EXCADDIM1
  0
POINT
  5
144
330
13A
100
AcDbEntity
  8
DEFPOINTS
 62
     0
100
AcDbPoint
 10
520.000022
 20
201.000004
 30
0.0
  0
POINT
  5
145
330
13A
100
AcDbEntity
  8
DEFPOINTS
 62
     0
100
AcDbPoint
 10
510.000022
 20
201.000007
 30
0.0
  0
POINT
  5
146
330
13A
100
AcDbEntity
  8
DEFPOINTS
 62
     0
100
AcDbPoint
 10
510.000022
 20
150.0
 30
0.0
  0
ENDBLK
  5
13C
330
13A
100
AcDbEntity
  8
0
100
AcDbBlockEnd
  0
BLOCK
  5
149
330
148
100
AcDbEntity
  8
0
100
AcDbBlockBegin
  2
*D19
 70
     1
 10
0.0
 20
0.0
 30
0.0
  3
*D19
  1

  0
LINE
  5
14B
330
148
100
AcDbEntity
  8
Ｓ_１_１
  6
CONTINUOUS
 62
     2
100
AcDbLine
 10
510.000022
 20
197.250007
 30
0.0
 11
510.000022
 21
147.5
 31
0.0
  0
LINE
  5
14C
330
148
100
AcDbEntity
  8
Ｓ_１_１
  6
CONTINUOUS
 62
     2
100
AcDbLine
 10
487.500024
 20
150.0
 30
0.0
 11
502.500022
 21
150.0
 31
0.0
  0
INSERT
  5
14D
330
148
100
AcDbEntity
  8
Ｓ_１_１
 62
     2
100
AcDbBlockReference
  2
EX_NORM
 10
480.000024
 20
150.0
 30
0.0
 41
7.5
 42
7.5
 43
7.5
 50
180.0
  0
INSERT
  5
14E
330
148
100
AcDbEntity
  8
Ｓ_１_１
 62
     2
100
AcDbBlockReference
  2
EX_NORM
 10
510.000022
 20
150.0
 30
0.0
 41
7.5
 42
7.5
 43
7.5
  0
MTEXT
  5
14F
330
148
100
AcDbEntity
  8
Ｓ_１_１
 62
     2
100
AcDbMText
 10
495.0000230000001
 20
156.875
 30
0.0
 40
8.6572603926097
 41
0.0
 71
     5
 72
     1
  1
30
  7
EXCADDIM1
  0
POINT
  5
150
330
148
100
AcDbEntity
  8
DEFPOINTS
 62
     0
100
AcDbPoint
 10
480.000024
 20
200.999983
 30
0.0
  0
POINT
  5
151
330
148
100
AcDbEntity
  8
DEFPOINTS
 62
     0
100
AcDbPoint
 10
510.000022
 20
201.000007
 30
0.0
  0
POINT
  5
152
330
148
100
AcDbEntity
  8
DEFPOINTS
 62
     0
100
AcDbPoint
 10
510.000022
 20
150.0
 30
0.0
  0
ENDBLK
  5
14A
330
148
100
AcDbEntity
  8
0
100
AcDbBlockEnd
  0
BLOCK
  5
155
330
154
100
AcDbEntity
  8
0
100
AcDbBlockBegin
  2
*D20
 70
     1
 10
0.0
 20
0.0
 30
0.0
  3
*D20
  1

  0
LINE
  5
157
330
154
100
AcDbEntity
  8
Ｓ_１_１
  6
CONTINUOUS
 62
     2
100
AcDbLine
 10
480.000024
 20
197.249983
 30
0.0
 11
480.000024
 21
132.5
 31
0.0
  0
LINE
  5
158
330
154
100
AcDbEntity
  8
Ｓ_１_１
  6
CONTINUOUS
 62
     2
100
AcDbLine
 10
900.0
 20
197.249991
 30
0.0
 11
900.0
 21
132.5
 31
0.0
  0
LINE
  5
159
330
154
100
AcDbEntity
  8
Ｓ_１_１
  6
CONTINUOUS
 62
     2
100
AcDbLine
 10
487.500024
 20
135.0
 30
0.0
 11
892.5
 21
135.0
 31
0.0
  0
INSERT
  5
15A
330
154
100
AcDbEntity
  8
Ｓ_１_１
 62
     2
100
AcDbBlockReference
  2
EX_NORM
 10
480.000024
 20
135.0
 30
0.0
 41
7.5
 42
7.5
 43
7.5
 50
180.0
  0
INSERT
  5
15B
330
154
100
AcDbEntity
  8
Ｓ_１_１
 62
     2
100
AcDbBlockReference
  2
EX_NORM
 10
900.0
 20
135.0
 30
0.0
 41
7.5
 42
7.5
 43
7.5
  0
MTEXT
  5
15C
330
154
100
AcDbEntity
  8
Ｓ_１_１
 62
     2
100
AcDbMText
 10
690.000012
 20
141.875
 30
0.0
 40
8.6572603926097
 41
0.0
 71
     5
 72
     1
  1
420
  7
EXCADDIM1
  0
POINT
  5
15D
330
154
100
AcDbEntity
  8
DEFPOINTS
 62
     0
100
AcDbPoint
 10
480.000024
 20
200.999983
 30
0.0
  0
POINT
  5
15E
330
154
100
AcDbEntity
  8
DEFPOINTS
 62
     0
100
AcDbPoint
 10
900.0
 20
200.999991
 30
0.0
  0
POINT
  5
15F
330
154
100
AcDbEntity
  8
DEFPOINTS
 62
     0
100
AcDbPoint
 10
900.0
 20
135.0
 30
0.0
  0
ENDBLK
  5
156
330
154
100
AcDbEntity
  8
0
100
AcDbBlockEnd
  0
BLOCK
  5
162
330
161
100
AcDbEntity
  8
0
100
AcDbBlockBegin
  2
*D21
 70
     1
 10
0.0
 20
0.0
 30
0.0
  3
*D21
  1

  0
LINE
  5
164
330
161
100
AcDbEntity
  8
Ｓ_１_１
  6
CONTINUOUS
 62
     2
100
AcDbLine
 10
477.2500339999998
 20
200.0000030000033
 30
0.0
 11
432.5
 21
200.0000030000033
 31
0.0
  0
LINE
  5
165
330
161
100
AcDbEntity
  8
Ｓ_１_１
  6
CONTINUOUS
 62
     2
100
AcDbLine
 10
477.2500339999998
 20
339.9999980000034
 30
0.0
 11
432.5
 21
339.9999980000035
 31
0.0
  0
LINE
  5
166
330
161
100
AcDbEntity
  8
Ｓ_１_１
  6
CONTINUOUS
 62
     2
100
AcDbLine
 10
435.0
 20
207.5000030000033
 30
0.0
 11
435.0
 21
332.4999980000035
 31
0.0
  0
INSERT
  5
167
330
161
100
AcDbEntity
  8
Ｓ_１_１
 62
     2
100
AcDbBlockReference
  2
EX_NORM
 10
435.0
 20
200.0000030000033
 30
0.0
 41
7.5
 42
7.5
 43
7.5
 50
270.0
  0
INSERT
  5
168
330
161
100
AcDbEntity
  8
Ｓ_１_１
 62
     2
100
AcDbBlockReference
  2
EX_NORM
 10
435.0
 20
339.9999980000035
 30
0.0
 41
7.5
 42
7.5
 43
7.5
 50
90.0
  0
MTEXT
  5
169
330
161
100
AcDbEntity
  8
Ｓ_１_１
 62
     2
100
AcDbMText
 10
428.125
 20
270.0000005000034
 30
0.0
 40
8.6572603926097
 41
0.0
 71
     5
 72
     1
  1
%%c140
  7
EXCADDIM1
 11
0.0
 21
1.0
 31
0.0
  0
POINT
  5
16A
330
161
100
AcDbEntity
  8
DEFPOINTS
 62
     0
100
AcDbPoint
 10
481.0000339999998
 20
200.0000030000033
 30
0.0
  0
POINT
  5
16B
330
161
100
AcDbEntity
  8
DEFPOINTS
 62
     0
100
AcDbPoint
 10
481.0000339999998
 20
339.9999980000034
 30
0.0
  0
POINT
  5
16C
330
161
100
AcDbEntity
  8
DEFPOINTS
 62
     0
100
AcDbPoint
 10
435.0
 20
339.9999980000035
 30
0.0
  0
ENDBLK
  5
163
330
161
100
AcDbEntity
  8
0
100
AcDbBlockEnd
  0
BLOCK
  5
16F
330
16E
100
AcDbEntity
  8
0
100
AcDbBlockBegin
  2
*D22
 70
     1
 10
0.0
 20
0.0
 30
0.0
  3
*D22
  1

  0
LINE
  5
171
330
16E
100
AcDbEntity
  8
Ｓ_１_１
  6
CONTINUOUS
 62
     2
100
AcDbLine
 10
175.0000019999998
 20
433.7499720000034
 30
0.0
 11
175.0000019999998
 21
482.5
 31
0.0
  0
LINE
  5
172
330
16E
100
AcDbEntity
  8
Ｓ_１_１
  6
CONTINUOUS
 62
     2
100
AcDbLine
 10
274.9999979999998
 20
433.7499720000034
 30
0.0
 11
274.9999979999998
 21
482.5
 31
0.0
  0
LINE
  5
173
330
16E
100
AcDbEntity
  8
Ｓ_１_１
  6
CONTINUOUS
 62
     2
100
AcDbLine
 10
182.5000019999998
 20
480.0
 30
0.0
 11
267.4999979999998
 21
480.0
 31
0.0
  0
INSERT
  5
174
330
16E
100
AcDbEntity
  8
Ｓ_１_１
 62
     2
100
AcDbBlockReference
  2
EX_NORM
 10
175.0000019999998
 20
480.0
 30
0.0
 41
7.5
 42
7.5
 43
7.5
 50
180.0
  0
INSERT
  5
175
330
16E
100
AcDbEntity
  8
Ｓ_１_１
 62
     2
100
AcDbBlockReference
  2
EX_NORM
 10
274.9999979999998
 20
480.0
 30
0.0
 41
7.5
 42
7.5
 43
7.5
  0
MTEXT
  5
176
330
16E
100
AcDbEntity
  8
Ｓ_１_１
 62
     2
100
AcDbMText
 10
224.9999999999998
 20
486.875
 30
0.0
 40
8.6572603926097
 41
0.0
 71
     5
 72
     1
  1
100
  7
EXCADDIM1
  0
POINT
  5
177
330
16E
100
AcDbEntity
  8
DEFPOINTS
 62
     0
100
AcDbPoint
 10
175.0000019999998
 20
429.9999720000034
 30
0.0
  0
POINT
  5
178
330
16E
100
AcDbEntity
  8
DEFPOINTS
 62
     0
100
AcDbPoint
 10
274.9999979999998
 20
429.9999720000034
 30
0.0
  0
POINT
  5
179
330
16E
100
AcDbEntity
  8
DEFPOINTS
 62
     0
100
AcDbPoint
 10
274.9999979999998
 20
480.0
 30
0.0
  0
ENDBLK
  5
170
330
16E
100
AcDbEntity
  8
0
100
AcDbBlockEnd
  0
BLOCK
  5
17C
330
17B
100
AcDbEntity
  8
0
100
AcDbBlockBegin
  2
*D23
 70
     1
 10
0.0
 20
0.0
 30
0.0
  3
*D23
  1

  0
LINE
  5
17E
330
17B
100
AcDbEntity
  8
Ｓ_１_１
  6
CONTINUOUS
 62
     2
100
AcDbLine
 10
115.000004
 20
290.749972
 30
0.0
 11
115.000004
 21
497.5
 31
0.0
  0
LINE
  5
17F
330
17B
100
AcDbEntity
  8
Ｓ_１_１
  6
CONTINUOUS
 62
     2
100
AcDbLine
 10
334.999995
 20
290.749972
 30
0.0
 11
334.999995
 21
497.5
 31
0.0
  0
LINE
  5
180
330
17B
100
AcDbEntity
  8
Ｓ_１_１
  6
CONTINUOUS
 62
     2
100
AcDbLine
 10
122.500004
 20
495.0
 30
0.0
 11
327.499995
 21
495.0
 31
0.0
  0
INSERT
  5
181
330
17B
100
AcDbEntity
  8
Ｓ_１_１
 62
     2
100
AcDbBlockReference
  2
EX_NORM
 10
115.000004
 20
495.0
 30
0.0
 41
7.5
 42
7.5
 43
7.5
 50
180.0
  0
INSERT
  5
182
330
17B
100
AcDbEntity
  8
Ｓ_１_１
 62
     2
100
AcDbBlockReference
  2
EX_NORM
 10
334.999995
 20
495.0
 30
0.0
 41
7.5
 42
7.5
 43
7.5
  0
MTEXT
  5
183
330
17B
100
AcDbEntity
  8
Ｓ_１_１
 62
     2
100
AcDbMText
 10
224.9999995
 20
501.875
 30
0.0
 40
8.6572603926097
 41
0.0
 71
     5
 72
     1
  1
220
  7
EXCADDIM1
  0
POINT
  5
184
330
17B
100
AcDbEntity
  8
DEFPOINTS
 62
     0
100
AcDbPoint
 10
115.000004
 20
286.999972
 30
0.0
  0
POINT
  5
185
330
17B
100
AcDbEntity
  8
DEFPOINTS
 62
     0
100
AcDbPoint
 10
334.999995
 20
286.999972
 30
0.0
  0
POINT
  5
186
330
17B
100
AcDbEntity
  8
DEFPOINTS
 62
     0
100
AcDbPoint
 10
334.999995
 20
495.0
 30
0.0
  0
ENDBLK
  5
17D
330
17B
100
AcDbEntity
  8
0
100
AcDbBlockEnd
  0
BLOCK
  5
189
330
188
100
AcDbEntity
  8
0
100
AcDbBlockBegin
  2
*D24
 70
     1
 10
0.0
 20
0.0
 30
0.0
  3
*D24
  1

  0
LINE
  5
18B
330
188
100
AcDbEntity
  8
Ｓ_１_１
  6
CONTINUOUS
 62
     2
100
AcDbLine
 10
375.0
 20
207.500003
 30
0.0
 11
375.0
 21
342.499962
 31
0.0
  0
INSERT
  5
18C
330
188
100
AcDbEntity
  8
Ｓ_１_１
 62
     2
100
AcDbBlockReference
  2
EX_NORM
 10
375.0
 20
200.000003
 30
0.0
 41
7.5
 42
7.5
 43
7.5
 50
270.0
  0
INSERT
  5
18D
330
188
100
AcDbEntity
  8
Ｓ_１_１
 62
     2
100
AcDbBlockReference
  2
EX_NORM
 10
375.0
 20
349.999962
 30
0.0
 41
7.5
 42
7.5
 43
7.5
 50
90.0
  0
MTEXT
  5
18E
330
188
100
AcDbEntity
  8
Ｓ_１_１
 62
     2
100
AcDbMText
 10
368.125
 20
274.9999824999999
 30
0.0
 40
8.6572603926097
 41
0.0
 71
     5
 72
     1
  1
150
  7
EXCADDIM1
 11
0.0
 21
1.0
 31
0.0
  0
POINT
  5
18F
330
188
100
AcDbEntity
  8
DEFPOINTS
 62
     0
100
AcDbPoint
 10
225.0
 20
200.000003
 30
0.0
  0
POINT
  5
190
330
188
100
AcDbEntity
  8
DEFPOINTS
 62
     0
100
AcDbPoint
 10
279.999997
 20
349.999962
 30
0.0
  0
POINT
  5
191
330
188
100
AcDbEntity
  8
DEFPOINTS
 62
     0
100
AcDbPoint
 10
375.0
 20
349.999962
 30
0.0
  0
ENDBLK
  5
18A
330
188
100
AcDbEntity
  8
0
100
AcDbBlockEnd
  0
BLOCK
  5
194
330
193
100
AcDbEntity
  8
0
100
AcDbBlockBegin
  2
*D25
 70
     1
 10
0.0
 20
0.0
 30
0.0
  3
*D25
  1

  0
LINE
  5
196
330
193
100
AcDbEntity
  8
Ｓ_１_１
  6
CONTINUOUS
 62
     2
100
AcDbLine
 10
283.749997
 20
349.999962
 30
0.0
 11
377.5
 21
349.999962
 31
0.0
  0
LINE
  5
197
330
193
100
AcDbEntity
  8
Ｓ_１_１
  6
CONTINUOUS
 62
     2
100
AcDbLine
 10
375.0
 20
357.499962
 30
0.0
 11
375.0
 21
422.499972
 31
0.0
  0
INSERT
  5
198
330
193
100
AcDbEntity
  8
Ｓ_１_１
 62
     2
100
AcDbBlockReference
  2
EX_NORM
 10
375.0
 20
349.999962
 30
0.0
 41
7.5
 42
7.5
 43
7.5
 50
270.0
  0
INSERT
  5
199
330
193
100
AcDbEntity
  8
Ｓ_１_１
 62
     2
100
AcDbBlockReference
  2
EX_NORM
 10
375.0
 20
429.999972
 30
0.0
 41
7.5
 42
7.5
 43
7.5
 50
90.0
  0
MTEXT
  5
19A
330
193
100
AcDbEntity
  8
Ｓ_１_１
 62
     2
100
AcDbMText
 10
368.125
 20
389.999967
 30
0.0
 40
8.6572603926097
 41
0.0
 71
     5
 72
     1
  1
80
  7
EXCADDIM1
 11
0.0
 21
1.0
 31
0.0
  0
POINT
  5
19B
330
193
100
AcDbEntity
  8
DEFPOINTS
 62
     0
100
AcDbPoint
 10
279.999997
 20
349.999962
 30
0.0
  0
POINT
  5
19C
330
193
100
AcDbEntity
  8
DEFPOINTS
 62
     0
100
AcDbPoint
 10
274.999998
 20
429.999972
 30
0.0
  0
POINT
  5
19D
330
193
100
AcDbEntity
  8
DEFPOINTS
 62
     0
100
AcDbPoint
 10
375.0
 20
429.999972
 30
0.0
  0
ENDBLK
  5
195
330
193
100
AcDbEntity
  8
0
100
AcDbBlockEnd
  0
BLOCK
  5
1A0
330
19F
100
AcDbEntity
  8
0
100
AcDbBlockBegin
  2
*D26
 70
     1
 10
0.0
 20
0.0
 30
0.0
  3
*D26
  1

  0
LINE
  5
1A2
330
19F
100
AcDbEntity
  8
Ｓ_１_１
  6
CONTINUOUS
 62
     2
100
AcDbLine
 10
228.75
 20
200.000003
 30
0.0
 11
392.5
 21
200.000003
 31
0.0
  0
LINE
  5
1A3
330
19F
100
AcDbEntity
  8
Ｓ_１_１
  6
CONTINUOUS
 62
     2
100
AcDbLine
 10
278.749998
 20
429.999972
 30
0.0
 11
392.5
 21
429.999972
 31
0.0
  0
LINE
  5
1A4
330
19F
100
AcDbEntity
  8
Ｓ_１_１
  6
CONTINUOUS
 62
     2
100
AcDbLine
 10
390.0
 20
207.500003
 30
0.0
 11
390.0
 21
422.499972
 31
0.0
  0
INSERT
  5
1A5
330
19F
100
AcDbEntity
  8
Ｓ_１_１
 62
     2
100
AcDbBlockReference
  2
EX_NORM
 10
390.0
 20
200.000003
 30
0.0
 41
7.5
 42
7.5
 43
7.5
 50
270.0
  0
INSERT
  5
1A6
330
19F
100
AcDbEntity
  8
Ｓ_１_１
 62
     2
100
AcDbBlockReference
  2
EX_NORM
 10
390.0
 20
429.999972
 30
0.0
 41
7.5
 42
7.5
 43
7.5
 50
90.0
  0
MTEXT
  5
1A7
330
19F
100
AcDbEntity
  8
Ｓ_１_１
 62
     2
100
AcDbMText
 10
383.125
 20
314.9999875
 30
0.0
 40
8.6572603926097
 41
0.0
 71
     5
 72
     1
  1
230
  7
EXCADDIM1
 11
0.0
 21
1.0
 31
0.0
  0
POINT
  5
1A8
330
19F
100
AcDbEntity
  8
DEFPOINTS
 62
     0
100
AcDbPoint
 10
225.0
 20
200.000003
 30
0.0
  0
POINT
  5
1A9
330
19F
100
AcDbEntity
  8
DEFPOINTS
 62
     0
100
AcDbPoint
 10
274.999998
 20
429.999972
 30
0.0
  0
POINT
  5
1AA
330
19F
100
AcDbEntity
  8
DEFPOINTS
 62
     0
100
AcDbPoint
 10
390.0
 20
429.999972
 30
0.0
  0
ENDBLK
  5
1A1
330
19F
100
AcDbEntity
  8
0
100
AcDbBlockEnd
  0
BLOCK
  5
446
330
445
100
AcDbEntity
  8
0
100
AcDbBlockBegin
  2
*D27
 70
     1
 10
0.0
 20
0.0
 30
0.0
  3
*D27
  1

  0
LINE
  5
448
330
445
100
AcDbEntity
  8
Ｓ_１_１
  6
CONTINUOUS
 62
     2
100
AcDbLine
 10
900.0
 20
342.750002
 30
0.0
 11
900.0
 21
497.5
 31
0.0
  0
LINE
  5
449
330
445
100
AcDbEntity
  8
Ｓ_１_１
  6
CONTINUOUS
 62
     2
100
AcDbLine
 10
767.500015
 20
472.219994
 30
0.0
 11
767.500015
 21
497.5
 31
0.0
  0
LINE
  5
44A
330
445
100
AcDbEntity
  8
Ｓ_１_１
  6
CONTINUOUS
 62
     2
100
AcDbLine
 10
892.5
 20
495.0
 30
0.0
 11
775.000015
 21
495.0
 31
0.0
  0
INSERT
  5
44B
330
445
100
AcDbEntity
  8
Ｓ_１_１
 62
     2
100
AcDbBlockReference
  2
EX_NORM
 10
900.0
 20
495.0
 30
0.0
 41
7.5
 42
7.5
 43
7.5
  0
INSERT
  5
44C
330
445
100
AcDbEntity
  8
Ｓ_１_１
 62
     2
100
AcDbBlockReference
  2
EX_NORM
 10
767.500015
 20
495.0
 30
0.0
 41
7.5
 42
7.5
 43
7.5
 50
180.0
  0
MTEXT
  5
44D
330
445
100
AcDbEntity
  8
Ｓ_１_１
 62
     2
100
AcDbMText
 10
833.7500074999999
 20
501.875
 30
0.0
 40
8.6572603926097
 41
0.0
 71
     5
 72
     1
  1
132.5
  7
EXCADDIM1
  0
POINT
  5
44E
330
445
100
AcDbEntity
  8
DEFPOINTS
 62
     0
100
AcDbPoint
 10
900.0
 20
339.000002
 30
0.0
  0
POINT
  5
44F
330
445
100
AcDbEntity
  8
DEFPOINTS
 62
     0
100
AcDbPoint
 10
767.500015
 20
468.469994
 30
0.0
  0
POINT
  5
450
330
445
100
AcDbEntity
  8
DEFPOINTS
 62
     0
100
AcDbPoint
 10
767.500015
 20
495.0
 30
0.0
  0
ENDBLK
  5
447
330
445
100
AcDbEntity
  8
0
100
AcDbBlockEnd
  0
BLOCK
  5
453
330
452
100
AcDbEntity
  8
0
100
AcDbBlockBegin
  2
*D28
 70
     1
 10
0.0
 20
0.0
 30
0.0
  3
*D28
  1

  0
LINE
  5
455
330
452
100
AcDbEntity
  8
Ｓ_１_１
  6
CONTINUOUS
 62
     2
100
AcDbLine
 10
767.500015
 20
472.219994
 30
0.0
 11
767.500015
 21
497.5
 31
0.0
  0
LINE
  5
456
330
452
100
AcDbEntity
  8
Ｓ_１_１
  6
CONTINUOUS
 62
     2
100
AcDbLine
 10
677.500016
 20
479.25
 30
0.0
 11
677.500016
 21
497.5
 31
0.0
  0
LINE
  5
457
330
452
100
AcDbEntity
  8
Ｓ_１_１
  6
CONTINUOUS
 62
     2
100
AcDbLine
 10
760.000015
 20
495.0
 30
0.0
 11
685.000016
 21
495.0
 31
0.0
  0
INSERT
  5
458
330
452
100
AcDbEntity
  8
Ｓ_１_１
 62
     2
100
AcDbBlockReference
  2
EX_NORM
 10
767.500015
 20
495.0
 30
0.0
 41
7.5
 42
7.5
 43
7.5
  0
INSERT
  5
459
330
452
100
AcDbEntity
  8
Ｓ_１_１
 62
     2
100
AcDbBlockReference
  2
EX_NORM
 10
677.500016
 20
495.0
 30
0.0
 41
7.5
 42
7.5
 43
7.5
 50
180.0
  0
MTEXT
  5
45A
330
452
100
AcDbEntity
  8
Ｓ_１_１
 62
     2
100
AcDbMText
 10
722.5000155
 20
501.875
 30
0.0
 40
8.6572603926097
 41
0.0
 71
     5
 72
     1
  1
90
  7
EXCADDIM1
  0
POINT
  5
45B
330
452
100
AcDbEntity
  8
DEFPOINTS
 62
     0
100
AcDbPoint
 10
767.500015
 20
468.469994
 30
0.0
  0
POINT
  5
45C
330
452
100
AcDbEntity
  8
DEFPOINTS
 62
     0
100
AcDbPoint
 10
677.500016
 20
475.5
 30
0.0
  0
POINT
  5
45D
330
452
100
AcDbEntity
  8
DEFPOINTS
 62
     0
100
AcDbPoint
 10
677.500016
 20
495.0
 30
0.0
  0
ENDBLK
  5
454
330
452
100
AcDbEntity
  8
0
100
AcDbBlockEnd
  0
ENDSEC
  0
SECTION
  2
ENTITIES
  0
LINE
  5
D4
330
1F
100
AcDbEntity
  8
図面枠
  6
CONTINUOUS
 62
     5
100
AcDbLine
 10
25.0
 20
25.0
 30
0.0
 11
1025.0
 21
25.0
 31
0.0
  0
LINE
  5
D5
330
1F
100
AcDbEntity
  8
図面枠
  6
CONTINUOUS
 62
     5
100
AcDbLine
 10
1025.0
 20
25.0
 30
0.0
 11
1025.0
 21
717.5
 31
0.0
  0
LINE
  5
D6
330
1F
100
AcDbEntity
  8
図面枠
  6
CONTINUOUS
 62
     5
100
AcDbLine
 10
1025.0
 20
717.5
 30
0.0
 11
25.00000000000013
 21
717.5
 31
0.0
  0
LINE
  5
D7
330
1F
100
AcDbEntity
  8
図面枠
  6
CONTINUOUS
 62
     5
100
AcDbLine
 10
25.00000000000013
 20
717.5
 30
0.0
 11
25.0
 21
25.0
 31
0.0
  0
TEXT
  5
D9
330
1F
100
AcDbEntity
  8
図面枠
  6
CONTINUOUS
 62
     4
100
AcDbText
 10
967.5
 20
678.45703125
 30
0.0
 40
8.6572603926097
  1
kN
 41
0.999230769230769
  7
EXCADTTF1
 72
     5
 11
978.75
 21
678.45703125
 31
0.0
100
AcDbText
  0
TEXT
  5
DA
330
1F
100
AcDbEntity
  8
図面枠
  6
CONTINUOUS
 62
     4
100
AcDbText
 10
817.5
 20
678.45703125
 30
0.0
 40
8.6572603926097
  1
能力
 41
0.999230769230769
  7
EXCADTTF1
 72
     5
 11
840.0
 21
678.45703125
 31
0.0
100
AcDbText
  0
TEXT
  5
DB
330
1F
100
AcDbEntity
  8
図面枠
  6
CONTINUOUS
 62
     4
100
AcDbText
 10
884.375
 20
693.45703125
 30
0.0
 40
8.6572603926097
  1
仕　　　様
 41
0.9992307692307691
  7
EXCADTTF1
 72
     5
 11
940.625
 21
693.45703125
 31
0.0
100
AcDbText
  0
LINE
  5
DC
330
1F
100
AcDbEntity
  8
図面枠
  6
CONTINUOUS
 62
     3
100
AcDbLine
 10
812.5
 20
705.0
 30
0.0
 11
1012.5
 21
705.0
 31
0.0
  0
LINE
  5
DD
330
1F
100
AcDbEntity
  8
図面枠
  6
CONTINUOUS
 62
     3
100
AcDbLine
 10
812.5
 20
690.0
 30
0.0
 11
1012.5
 21
690.0
 31
0.0
  0
LINE
  5
DE
330
1F
100
AcDbEntity
  8
図面枠
  6
CONTINUOUS
 62
     3
100
AcDbLine
 10
915.0
 20
60.0
 30
0.0
 11
1012.5
 21
60.0
 31
0.0
  0
LINE
  5
DF
330
1F
100
AcDbEntity
  8
図面枠
  6
CONTINUOUS
 62
     3
100
AcDbLine
 10
915.0
 20
37.5
 30
0.0
 11
1012.5
 21
37.5
 31
0.0
  0
LINE
  5
E0
330
1F
100
AcDbEntity
  8
図面枠
  6
CONTINUOUS
 62
     3
100
AcDbLine
 10
915.0
 20
60.0
 30
0.0
 11
915.0
 21
37.5
 31
0.0
  0
LINE
  5
E1
330
1F
100
AcDbEntity
  8
図面枠
  6
CONTINUOUS
 62
     3
100
AcDbLine
 10
1012.5
 20
60.0
 30
0.0
 11
1012.5
 21
37.5
 31
0.0
  0
TEXT
  5
E2
330
1F
100
AcDbEntity
  8
図面枠
  6
CONTINUOUS
 62
     4
100
AcDbText
 10
922.5
 20
43.359375
 30
0.0
 40
11.54301385681293
  1
OTLJ-5020-C
 41
0.9992307692307693
  7
EXCADTTF1
 72
     5
 11
1005.0
 21
43.359375
 31
0.0
100
AcDbText
  0
LINE
  5
E3
330
1F
100
AcDbEntity
  8
図面枠
  6
CONTINUOUS
 62
     3
100
AcDbLine
 10
37.50000000000004
 20
705.0
 30
0.0
 11
322.5000000000001
 21
705.0
 31
0.0
  0
LINE
  5
E4
330
1F
100
AcDbEntity
  8
図面枠
  6
CONTINUOUS
 62
     3
100
AcDbLine
 10
37.50000000000004
 20
682.5
 30
0.0
 11
322.5000000000001
 21
682.5
 31
0.0
  0
LINE
  5
E5
330
1F
100
AcDbEntity
  8
図面枠
  6
CONTINUOUS
 62
     3
100
AcDbLine
 10
37.50000000000004
 20
705.0
 30
0.0
 11
37.50000000000004
 21
682.5
 31
0.0
  0
LINE
  5
E6
330
1F
100
AcDbEntity
  8
図面枠
  6
CONTINUOUS
 62
     3
100
AcDbLine
 10
322.5000000000001
 20
705.0
 30
0.0
 11
322.5000000000001
 21
682.5
 31
0.0
  0
TEXT
  5
E7
330
1F
100
AcDbEntity
  8
図面枠
  6
CONTINUOUS
 62
     4
100
AcDbText
 10
45.00000000000004
 20
688.359375
 30
0.0
 40
11.54301385681293
  1
500kN200ストローク試験用油圧ジャッキ
 41
0.9992307692307691
  7
EXCADTTF1
 72
     5
 11
315.0000000000001
 21
688.359375
 31
0.0
100
AcDbText
  0
TEXT
  5
E8
330
1F
100
AcDbEntity
  8
図面枠
  6
CONTINUOUS
 62
     4
100
AcDbText
 10
940.625
 20
678.45703125
 30
0.0
 40
8.6572603926097
  1
500
 41
0.9992307692307689
  7
EXCADTTF1
 72
     5
 11
957.5
 21
678.45703125
 31
0.0
100
AcDbText
  0
TEXT
  5
E9
330
1F
100
AcDbEntity
  8
図面枠
  6
CONTINUOUS
 62
     4
100
AcDbText
 10
967.5
 20
663.45703125
 30
0.0
 40
8.6572603926097
  1
mm
 41
0.999230769230769
  7
EXCADTTF1
 72
     5
 11
978.75
 21
663.45703125
 31
0.0
100
AcDbText
  0
TEXT
  5
EA
330
1F
100
AcDbEntity
  8
図面枠
  6
CONTINUOUS
 62
     4
100
AcDbText
 10
967.5
 20
648.45703125
 30
0.0
 40
8.6572603926097
  1
mm
 41
0.999230769230769
  7
EXCADTTF1
 72
     5
 11
978.75
 21
648.45703125
 31
0.0
100
AcDbText
  0
TEXT
  5
EB
330
1F
100
AcDbEntity
  8
図面枠
  6
CONTINUOUS
 62
     4
100
AcDbText
 10
967.5
 20
633.45703125
 30
0.0
 40
8.6572603926097
  1
mm
 41
0.999230769230769
  7
EXCADTTF1
 72
     5
 11
978.75
 21
633.45703125
 31
0.0
100
AcDbText
  0
TEXT
  5
EC
330
1F
100
AcDbEntity
  8
図面枠
  6
CONTINUOUS
 62
     4
100
AcDbText
 10
967.5
 20
618.45703125
 30
0.0
 40
8.6572603926097
  1
mm
 41
0.999230769230769
  7
EXCADTTF1
 72
     5
 11
978.75
 21
618.45703125
 31
0.0
100
AcDbText
  0
TEXT
  5
ED
330
1F
100
AcDbEntity
  8
図面枠
  6
CONTINUOUS
 62
     4
100
AcDbText
 10
967.5
 20
603.45703125
 30
0.0
 40
8.6572603926097
  1
mm
 41
0.999230769230769
  7
EXCADTTF1
 72
     5
 11
978.75
 21
603.45703125
 31
0.0
100
AcDbText
  0
TEXT
  5
EE
330
1F
100
AcDbEntity
  8
図面枠
  6
CONTINUOUS
 62
     4
100
AcDbText
 10
967.5
 20
573.45703125
 30
0.0
 40
8.6572603926097
  1
MPa
 41
0.9992307692307689
  7
EXCADTTF1
 72
     5
 11
984.375
 21
573.45703125
 31
0.0
100
AcDbText
  0
TEXT
  5
EF
330
1F
100
AcDbEntity
  8
図面枠
  6
CONTINUOUS
 62
     4
100
AcDbText
 10
817.5
 20
663.45703125
 30
0.0
 40
8.6572603926097
  1
ストローク
 41
0.9992307692307691
  7
EXCADTTF1
 72
     5
 11
873.75
 21
663.45703125
 31
0.0
100
AcDbText
  0
TEXT
  5
F0
330
1F
100
AcDbEntity
  8
図面枠
  6
CONTINUOUS
 62
     4
100
AcDbText
 10
817.5
 20
648.45703125
 30
0.0
 40
8.6572603926097
  1
最低機械高
 41
0.9992307692307691
  7
EXCADTTF1
 72
     5
 11
873.75
 21
648.45703125
 31
0.0
100
AcDbText
  0
TEXT
  5
F1
330
1F
100
AcDbEntity
  8
図面枠
  6
CONTINUOUS
 62
     4
100
AcDbText
 10
817.5
 20
633.45703125
 30
0.0
 40
8.6572603926097
  1
シリンダー外径
 41
0.9992307692307693
  7
EXCADTTF1
 72
     5
 11
896.25
 21
633.45703125
 31
0.0
100
AcDbText
  0
TEXT
  5
F2
330
1F
100
AcDbEntity
  8
図面枠
  6
CONTINUOUS
 62
     4
100
AcDbText
 10
817.5
 20
618.45703125
 30
0.0
 40
8.6572603926097
  1
ヘッド径
 41
0.999230769230769
  7
EXCADTTF1
 72
     5
 11
862.5
 21
618.45703125
 31
0.0
100
AcDbText
  0
TEXT
  5
F3
330
1F
100
AcDbEntity
  8
図面枠
  6
CONTINUOUS
 62
     4
100
AcDbText
 10
817.5
 20
603.45703125
 30
0.0
 40
8.6572603926097
  1
ピストン径
 41
0.9992307692307691
  7
EXCADTTF1
 72
     5
 11
873.75
 21
603.45703125
 31
0.0
100
AcDbText
  0
TEXT
  5
F4
330
1F
100
AcDbEntity
  8
図面枠
  6
CONTINUOUS
 62
     4
100
AcDbText
 10
817.5
 20
588.45703125
 30
0.0
 40
8.6572603926097
  1
受圧面積
 41
0.999230769230769
  7
EXCADTTF1
 72
     5
 11
862.5
 21
588.45703125
 31
0.0
100
AcDbText
  0
TEXT
  5
F5
330
1F
100
AcDbEntity
  8
図面枠
  6
CONTINUOUS
 62
     4
100
AcDbText
 10
817.5
 20
573.45703125
 30
0.0
 40
8.6572603926097
  1
最高使用圧力
 41
0.9992307692307691
  7
EXCADTTF1
 72
     5
 11
885.0
 21
573.45703125
 31
0.0
100
AcDbText
  0
LINE
  5
F6
330
1F
100
AcDbEntity
  8
図面枠
  6
CONTINUOUS
 62
     2
100
AcDbLine
 10
812.5
 20
675.0
 30
0.0
 11
1012.5
 21
675.0
 31
0.0
  0
LINE
  5
F7
330
1F
100
AcDbEntity
  8
図面枠
  6
CONTINUOUS
 62
     2
100
AcDbLine
 10
812.5
 20
660.0
 30
0.0
 11
1012.5
 21
660.0
 31
0.0
  0
LINE
  5
F8
330
1F
100
AcDbEntity
  8
図面枠
  6
CONTINUOUS
 62
     2
100
AcDbLine
 10
812.5
 20
645.0
 30
0.0
 11
1012.5
 21
645.0
 31
0.0
  0
LINE
  5
F9
330
1F
100
AcDbEntity
  8
図面枠
  6
CONTINUOUS
 62
     2
100
AcDbLine
 10
812.5
 20
630.0
 30
0.0
 11
1012.5
 21
630.0
 31
0.0
  0
LINE
  5
FA
330
1F
100
AcDbEntity
  8
図面枠
  6
CONTINUOUS
 62
     2
100
AcDbLine
 10
812.5
 20
615.0
 30
0.0
 11
1012.5
 21
615.0
 31
0.0
  0
LINE
  5
FB
330
1F
100
AcDbEntity
  8
図面枠
  6
CONTINUOUS
 62
     2
100
AcDbLine
 10
812.5
 20
600.0
 30
0.0
 11
1012.5
 21
600.0
 31
0.0
  0
LINE
  5
FC
330
1F
100
AcDbEntity
  8
図面枠
  6
CONTINUOUS
 62
     2
100
AcDbLine
 10
812.5
 20
585.0
 30
0.0
 11
1012.5
 21
585.0
 31
0.0
  0
TEXT
  5
FD
330
1F
100
AcDbEntity
  8
図面枠
  6
CONTINUOUS
 62
     4
100
AcDbText
 10
940.625
 20
663.45703125
 30
0.0
 40
8.6572603926097
  1
200
 41
0.9992307692307689
  7
EXCADTTF1
 72
     5
 11
957.5
 21
663.45703125
 31
0.0
100
AcDbText
  0
TEXT
  5
FE
330
1F
100
AcDbEntity
  8
図面枠
  6
CONTINUOUS
 62
     4
100
AcDbText
 10
940.625
 20
648.45703125
 30
0.0
 40
8.6572603926097
  1
420
 41
0.9992307692307689
  7
EXCADTTF1
 72
     5
 11
957.5
 21
648.45703125
 31
0.0
100
AcDbText
  0
TEXT
  5
FF
330
1F
100
AcDbEntity
  8
図面枠
  6
CONTINUOUS
 62
     4
100
AcDbText
 10
940.625
 20
633.45703125
 30
0.0
 40
8.6572603926097
  1
140
 41
0.9992307692307689
  7
EXCADTTF1
 72
     5
 11
957.5
 21
633.45703125
 31
0.0
100
AcDbText
  0
TEXT
  5
100
330
1F
100
AcDbEntity
  8
図面枠
  6
CONTINUOUS
 62
     4
100
AcDbText
 10
940.625
 20
618.45703125
 30
0.0
 40
8.6572603926097
  1
140
 41
0.9992307692307689
  7
EXCADTTF1
 72
     5
 11
957.5
 21
618.45703125
 31
0.0
100
AcDbText
  0
TEXT
  5
101
330
1F
100
AcDbEntity
  8
図面枠
  6
CONTINUOUS
 62
     4
100
AcDbText
 10
940.625
 20
603.45703125
 30
0.0
 40
8.6572603926097
  1
100
 41
0.9992307692307689
  7
EXCADTTF1
 72
     5
 11
957.5
 21
603.45703125
 31
0.0
100
AcDbText
  0
TEXT
  5
102
330
1F
100
AcDbEntity
  8
図面枠
  6
CONTINUOUS
 62
     4
100
AcDbText
 10
935.0
 20
588.45703125
 30
0.0
 40
8.6572603926097
  1
78.5
 41
0.999230769230769
  7
EXCADTTF1
 72
     5
 11
957.5
 21
588.45703125
 31
0.0
100
AcDbText
  0
TEXT
  5
103
330
1F
100
AcDbEntity
  8
図面枠
  6
CONTINUOUS
 62
     4
100
AcDbText
 10
935.0
 20
573.45703125
 30
0.0
 40
8.6572603926097
  1
63.7
 41
0.999230769230769
  7
EXCADTTF1
 72
     5
 11
957.5
 21
573.45703125
 31
0.0
100
AcDbText
  0
TEXT
  5
104
330
1F
100
AcDbEntity
  8
図面枠
  6
CONTINUOUS
 62
     4
100
AcDbText
 10
967.5
 20
543.45703125
 30
0.0
 40
8.6572603926097
  1
kg
 41
0.999230769230769
  7
EXCADTTF1
 72
     5
 11
978.75
 21
543.45703125
 31
0.0
100
AcDbText
  0
TEXT
  5
105
330
1F
100
AcDbEntity
  8
図面枠
  6
CONTINUOUS
 62
     4
100
AcDbText
 10
817.5
 20
558.45703125
 30
0.0
 40
8.6572603926097
  1
所要油量
 41
0.999230769230769
  7
EXCADTTF1
 72
     5
 11
862.5
 21
558.45703125
 31
0.0
100
AcDbText
  0
TEXT
  5
106
330
1F
100
AcDbEntity
  8
図面枠
  6
CONTINUOUS
 62
     4
100
AcDbText
 10
817.5
 20
543.45703125
 30
0.0
 40
8.6572603926097
  1
重量
 41
0.999230769230769
  7
EXCADTTF1
 72
     5
 11
840.0
 21
543.45703125
 31
0.0
100
AcDbText
  0
LINE
  5
107
330
1F
100
AcDbEntity
  8
図面枠
  6
CONTINUOUS
 62
     2
100
AcDbLine
 10
812.5
 20
570.0
 30
0.0
 11
1012.5
 21
570.0
 31
0.0
  0
LINE
  5
108
330
1F
100
AcDbEntity
  8
図面枠
  6
CONTINUOUS
 62
     2
100
AcDbLine
 10
812.5
 20
555.0
 30
0.0
 11
1012.5
 21
555.0
 31
0.0
  0
LINE
  5
109
330
1F
100
AcDbEntity
  8
図面枠
  6
CONTINUOUS
 62
     3
100
AcDbLine
 10
812.5
 20
540.0
 30
0.0
 11
1012.5
 21
540.0
 31
0.0
  0
TEXT
  5
10A
330
1F
100
AcDbEntity
  8
図面枠
  6
CONTINUOUS
 62
     4
100
AcDbText
 10
935.0
 20
543.45703125
 30
0.0
 40
8.6572603926097
  1
約46
 41
0.999230769230769
  7
EXCADTTF1
 72
     5
 11
957.5
 21
543.45703125
 31
0.0
100
AcDbText
  0
LINE
  5
10B
330
1F
100
AcDbEntity
  8
図面枠
  6
CONTINUOUS
 62
     3
100
AcDbLine
 10
812.5
 20
705.0
 30
0.0
 11
812.5
 21
540.0
 31
0.0
  0
LINE
  5
10C
330
1F
100
AcDbEntity
  8
図面枠
  6
CONTINUOUS
 62
     2
100
AcDbLine
 10
912.5
 20
690.0
 30
0.0
 11
912.5
 21
540.0
 31
0.0
  0
LINE
  5
10D
330
1F
100
AcDbEntity
  8
図面枠
  6
CONTINUOUS
 62
     2
100
AcDbLine
 10
962.5
 20
690.0
 30
0.0
 11
962.5
 21
540.0
 31
0.0
  0
LINE
  5
10E
330
1F
100
AcDbEntity
  8
図面枠
  6
CONTINUOUS
 62
     3
100
AcDbLine
 10
1012.5
 20
705.0
 30
0.0
 11
1012.5
 21
540.0
 31
0.0
  0
TEXT
  5
10F
330
1F
100
AcDbEntity
  8
図面枠
  6
CONTINUOUS
 62
     4
100
AcDbText
 10
967.5000000000001
 20
588.45703125
 30
0.0
 40
8.6572603926097
  1
cm
 41
0.999230769230769
  7
EXCADTTF1
 72
     5
 11
978.7500000000001
 21
588.45703125
 31
0.0
100
AcDbText
  0
TEXT
  5
110
330
1F
100
AcDbEntity
  8
図面枠
  6
CONTINUOUS
 62
     4
100
AcDbText
 10
975.3750000000001
 20
593.7744141295552
 30
0.0
 40
3.895766809731837
  1
2
 41
0.9992308633483801
  7
EXCADTTF1
 72
     5
 11
977.9062500000001
 21
593.7744141295552
 31
0.0
100
AcDbText
  0
TEXT
  5
111
330
1F
100
AcDbEntity
  8
図面枠
  6
CONTINUOUS
 62
     4
100
AcDbText
 10
967.5
 20
558.45703125
 30
0.0
 40
8.6572603926097
  1
L
 41
0.999230769230769
  7
EXCADTTF1
 72
     5
 11
973.125
 21
558.45703125
 31
0.0
100
AcDbText
  0
TEXT
  5
112
330
1F
100
AcDbEntity
  8
図面枠
  6
CONTINUOUS
 62
     4
100
AcDbText
 10
940.625
 20
558.45703125
 30
0.0
 40
8.6572603926097
  1
1.6
 41
0.9992307692307689
  7
EXCADTTF1
 72
     5
 11
957.5
 21
558.45703125
 31
0.0
100
AcDbText
  0
DIMENSION
  5
114
330
1F
100
AcDbEntity
  8
Ｓ_１_１
  6
CONTINUOUS
 62
     2
100
AcDbDimension
  2
*D15
 10
945.0
 20
200.0000030000033
 30
0.0
 11
938.125
 21
270.0000005000034
 31
0.0
 70
   160
  1
%%c140
  3
ISO-25
100
AcDbAlignedDimension
 13
899.0000089999996
 23
339.9999980000034
 33
0.0
 14
899.0000089999996
 24
200.0000030000033
 34
0.0
 50
90.0
100
AcDbRotatedDimension
1001
ACAD
1000
DSTYLE
1002
{
1070
   270
1070
     2
1070
     6
1000
EX_NORM
1070
     7
1000
EX_NORM
1070
    41
1040
7.5
1070
    42
1040
3.75
1070
    44
1040
2.5
1070
    73
1070
     0
1070
    74
1070
     0
1070
    75
1070
     1
1070
    76
1070
     0
1070
    77
1070
     1
1070
    78
1070
     8
1070
   140
1040
8.6572603926097
1070
   147
1040
0.0
1070
   173
1070
     1
1070
   176
1070
     2
1070
   177
1070
     2
1070
   178
1070
     2
1070
   271
1070
     2
1070
   277
1070
     2
1070
   279
1070
     2
1070
   280
1070
     0
1070
   287
1070
     5
1070
   340
1005
113
1002
}
  0
DIMENSION
  5
121
330
1F
100
AcDbEntity
  8
Ｓ_１_１
  6
CONTINUOUS
 62
     2
100
AcDbDimension
  2
*D16
 10
945.0
 20
462.3622570000001
 30
0.0
 11
938.125
 21
401.1811275000001
 31
0.0
 70
   160
  1
(122)
  3
ISO-25
100
AcDbAlignedDimension
 13
899.0000040000001
 23
339.999998
 33
0.0
 14
779.5000160000001
 24
462.3622570000001
 34
0.0
 50
90.0
100
AcDbRotatedDimension
1001
ACAD
1000
DSTYLE
1002
{
1070
   270
1070
     2
1070
     6
1000
EX_NORM
1070
     7
1000
EX_NORM
1070
    41
1040
7.5
1070
    42
1040
3.75
1070
    44
1040
2.5
1070
    73
1070
     0
1070
    74
1070
     0
1070
    75
1070
     0
1070
    76
1070
     0
1070
    77
1070
     1
1070
    78
1070
     8
1070
   140
1040
8.6572603926097
1070
   147
1040
0.0
1070
   173
1070
     1
1070
   176
1070
     2
1070
   177
1070
     2
1070
   178
1070
     2
1070
   271
1070
     2
1070
   277
1070
     2
1070
   279
1070
     2
1070
   280
1070
     0
1070
   287
1070
     5
1070
   340
1005
113
1002
}
  0
DIMENSION
  5
12E
330
1F
100
AcDbEntity
  8
Ｓ_１_１
  6
CONTINUOUS
 62
     2
100
AcDbDimension
  2
*D17
 10
520.000022
 20
150.0
 30
0.0
 11
710.0000109999999
 21
156.875
 31
0.0
 70
   160
  3
ISO-25
100
AcDbAlignedDimension
 13
900.0
 23
200.999991
 33
0.0
 14
520.000022
 24
201.00000300001
 34
0.0
100
AcDbRotatedDimension
1001
ACAD
1000
DSTYLE
1002
{
1070
   270
1070
     2
1070
     6
1000
EX_NORM
1070
     7
1000
EX_NORM
1070
    41
1040
7.5
1070
    42
1040
0.0
1070
    44
1040
0.0
1070
    73
1070
     0
1070
    74
1070
     0
1070
    75
1070
     1
1070
    76
1070
     1
1070
    77
1070
     1
1070
    78
1070
     8
1070
   140
1040
8.6572603926097
1070
   147
1040
0.0
1070
   173
1070
     1
1070
   176
1070
     2
1070
   177
1070
     2
1070
   178
1070
     2
1070
   271
1070
     2
1070
   277
1070
     2
1070
   279
1070
     2
1070
   280
1070
     0
1070
   287
1070
     5
1070
   340
1005
113
1002
}
  0
DIMENSION
  5
139
330
1F
100
AcDbEntity
  8
Ｓ_１_１
  6
CONTINUOUS
 62
     2
100
AcDbDimension
  2
*D18
 10
510.000022
 20
150.0
 30
0.0
 11
533.125022
 21
156.8749999999999
 31
0.0
 70
   160
  3
ISO-25
100
AcDbAlignedDimension
 13
520.000022
 23
201.000004
 33
0.0
 14
510.000022
 24
201.000007
 34
0.0
100
AcDbRotatedDimension
1001
ACAD
1000
DSTYLE
1002
{
1070
   270
1070
     2
1070
     6
1000
EX_NORM
1070
     7
1000
EX_NORM
1070
    41
1040
7.5
1070
    42
1040
3.75
1070
    44
1040
2.5
1070
    73
1070
     0
1070
    74
1070
     0
1070
    75
1070
     0
1070
    76
1070
     1
1070
    77
1070
     1
1070
    78
1070
     8
1070
   140
1040
8.6572603926097
1070
   147
1040
0.0
1070
   173
1070
     1
1070
   176
1070
     2
1070
   177
1070
     2
1070
   178
1070
     2
1070
   271
1070
     2
1070
   277
1070
     2
1070
   279
1070
     2
1070
   280
1070
     1
1070
   287
1070
     5
1070
   340
1005
113
1002
}
  0
DIMENSION
  5
147
330
1F
100
AcDbEntity
  8
Ｓ_１_１
  6
CONTINUOUS
 62
     2
100
AcDbDimension
  2
*D19
 10
510.000022
 20
150.0
 30
0.0
 11
495.0000230000001
 21
156.875
 31
0.0
 70
   160
  3
ISO-25
100
AcDbAlignedDimension
 13
480.000024
 23
200.999983
 33
0.0
 14
510.000022
 24
201.000007
 34
0.0
100
AcDbRotatedDimension
1001
ACAD
1000
DSTYLE
1002
{
1070
   270
1070
     2
1070
     6
1000
EX_NORM
1070
     7
1000
EX_NORM
1070
    41
1040
7.5
1070
    42
1040
3.75
1070
    44
1040
2.5
1070
    73
1070
     0
1070
    74
1070
     0
1070
    75
1070
     1
1070
    76
1070
     0
1070
    77
1070
     1
1070
    78
1070
     8
1070
   140
1040
8.6572603926097
1070
   147
1040
0.0
1070
   173
1070
     1
1070
   176
1070
     2
1070
   177
1070
     2
1070
   178
1070
     2
1070
   271
1070
     2
1070
   277
1070
     2
1070
   279
1070
     2
1070
   280
1070
     0
1070
   287
1070
     5
1070
   340
1005
113
1002
}
  0
DIMENSION
  5
153
330
1F
100
AcDbEntity
  8
Ｓ_１_１
  6
CONTINUOUS
 62
     2
100
AcDbDimension
  2
*D20
 10
900.0
 20
135.0
 30
0.0
 11
690.000012
 21
141.875
 31
0.0
 70
   160
  3
ISO-25
100
AcDbAlignedDimension
 13
480.000024
 23
200.999983
 33
0.0
 14
900.0
 24
200.999991
 34
0.0
100
AcDbRotatedDimension
1001
ACAD
1000
DSTYLE
1002
{
1070
   270
1070
     2
1070
     6
1000
EX_NORM
1070
     7
1000
EX_NORM
1070
    41
1040
7.5
1070
    42
1040
3.75
1070
    44
1040
2.5
1070
    73
1070
     0
1070
    74
1070
     0
1070
    75
1070
     0
1070
    76
1070
     0
1070
    77
1070
     1
1070
    78
1070
     8
1070
   140
1040
8.6572603926097
1070
   147
1040
0.0
1070
   173
1070
     1
1070
   176
1070
     2
1070
   177
1070
     2
1070
   178
1070
     2
1070
   271
1070
     2
1070
   277
1070
     2
1070
   279
1070
     2
1070
   280
1070
     0
1070
   287
1070
     5
1070
   340
1005
113
1002
}
  0
DIMENSION
  5
160
330
1F
100
AcDbEntity
  8
Ｓ_１_１
  6
CONTINUOUS
 62
     2
100
AcDbDimension
  2
*D21
 10
435.0
 20
339.9999980000035
 30
0.0
 11
428.125
 21
270.0000005000034
 31
0.0
 70
   160
  1
%%c140
  3
ISO-25
100
AcDbAlignedDimension
 13
481.0000339999998
 23
200.0000030000033
 33
0.0
 14
481.0000339999998
 24
339.9999980000034
 34
0.0
 50
90.0
100
AcDbRotatedDimension
1001
ACAD
1000
DSTYLE
1002
{
1070
   270
1070
     2
1070
     6
1000
EX_NORM
1070
     7
1000
EX_NORM
1070
    41
1040
7.5
1070
    42
1040
3.75
1070
    44
1040
2.5
1070
    73
1070
     0
1070
    74
1070
     0
1070
    75
1070
     0
1070
    76
1070
     0
1070
    77
1070
     1
1070
    78
1070
     8
1070
   140
1040
8.6572603926097
1070
   147
1040
0.0
1070
   173
1070
     1
1070
   176
1070
     2
1070
   177
1070
     2
1070
   178
1070
     2
1070
   271
1070
     2
1070
   277
1070
     2
1070
   279
1070
     2
1070
   280
1070
     0
1070
   287
1070
     5
1070
   340
1005
113
1002
}
  0
DIMENSION
  5
16D
330
1F
100
AcDbEntity
  8
Ｓ_１_１
  6
CONTINUOUS
 62
     2
100
AcDbDimension
  2
*D22
 10
274.9999979999998
 20
480.0
 30
0.0
 11
224.9999999999998
 21
486.875
 31
0.0
 70
   160
  3
ISO-25
100
AcDbAlignedDimension
 13
175.0000019999998
 23
429.9999720000034
 33
0.0
 14
274.9999979999998
 24
429.9999720000034
 34
0.0
100
AcDbRotatedDimension
1001
ACAD
1000
DSTYLE
1002
{
1070
   270
1070
     2
1070
     6
1000
EX_NORM
1070
     7
1000
EX_NORM
1070
    41
1040
7.5
1070
    42
1040
3.75
1070
    44
1040
2.5
1070
    73
1070
     0
1070
    74
1070
     0
1070
    75
1070
     0
1070
    76
1070
     0
1070
    77
1070
     1
1070
    78
1070
     8
1070
   140
1040
8.6572603926097
1070
   147
1040
0.0
1070
   173
1070
     1
1070
   176
1070
     2
1070
   177
1070
     2
1070
   178
1070
     2
1070
   271
1070
     2
1070
   277
1070
     2
1070
   279
1070
     2
1070
   280
1070
     0
1070
   287
1070
     5
1070
   340
1005
113
1002
}
  0
DIMENSION
  5
17A
330
1F
100
AcDbEntity
  8
Ｓ_１_１
  6
CONTINUOUS
 62
     2
100
AcDbDimension
  2
*D23
 10
334.999995
 20
495.0
 30
0.0
 11
224.9999995
 21
501.875
 31
0.0
 70
   160
  3
ISO-25
100
AcDbAlignedDimension
 13
115.000004
 23
286.999972
 33
0.0
 14
334.999995
 24
286.999972
 34
0.0
100
AcDbRotatedDimension
1001
ACAD
1000
DSTYLE
1002
{
1070
   270
1070
     2
1070
     6
1000
EX_NORM
1070
     7
1000
EX_NORM
1070
    41
1040
7.5
1070
    42
1040
3.75
1070
    44
1040
2.5
1070
    73
1070
     0
1070
    74
1070
     0
1070
    75
1070
     0
1070
    76
1070
     0
1070
    77
1070
     1
1070
    78
1070
     8
1070
   140
1040
8.6572603926097
1070
   147
1040
0.0
1070
   173
1070
     1
1070
   176
1070
     2
1070
   177
1070
     2
1070
   178
1070
     2
1070
   271
1070
     2
1070
   277
1070
     2
1070
   279
1070
     2
1070
   280
1070
     0
1070
   287
1070
     5
1070
   340
1005
113
1002
}
  0
DIMENSION
  5
187
330
1F
100
AcDbEntity
  8
Ｓ_１_１
  6
CONTINUOUS
 62
     2
100
AcDbDimension
  2
*D24
 10
375.0
 20
349.999962
 30
0.0
 11
368.125
 21
274.9999824999999
 31
0.0
 70
   160
  3
ISO-25
100
AcDbAlignedDimension
 13
225.0
 23
200.000003
 33
0.0
 14
279.999997
 24
349.999962
 34
0.0
 50
90.0
100
AcDbRotatedDimension
1001
ACAD
1000
DSTYLE
1002
{
1070
   270
1070
     2
1070
     6
1000
EX_NORM
1070
     7
1000
EX_NORM
1070
    41
1040
7.5
1070
    42
1040
0.0
1070
    44
1040
0.0
1070
    73
1070
     0
1070
    74
1070
     0
1070
    75
1070
     1
1070
    76
1070
     1
1070
    77
1070
     1
1070
    78
1070
     8
1070
   140
1040
8.6572603926097
1070
   147
1040
0.0
1070
   173
1070
     1
1070
   176
1070
     2
1070
   177
1070
     2
1070
   178
1070
     2
1070
   271
1070
     2
1070
   277
1070
     2
1070
   279
1070
     2
1070
   280
1070
     0
1070
   287
1070
     5
1070
   340
1005
113
1002
}
  0
DIMENSION
  5
192
330
1F
100
AcDbEntity
  8
Ｓ_１_１
  6
CONTINUOUS
 62
     2
100
AcDbDimension
  2
*D25
 10
375.0
 20
429.999972
 30
0.0
 11
368.125
 21
389.999967
 31
0.0
 70
   160
  3
ISO-25
100
AcDbAlignedDimension
 13
279.999997
 23
349.999962
 33
0.0
 14
274.999998
 24
429.999972
 34
0.0
 50
90.0
100
AcDbRotatedDimension
1001
ACAD
1000
DSTYLE
1002
{
1070
   270
1070
     2
1070
     6
1000
EX_NORM
1070
     7
1000
EX_NORM
1070
    41
1040
7.5
1070
    42
1040
3.75
1070
    44
1040
2.5
1070
    73
1070
     0
1070
    74
1070
     0
1070
    75
1070
     0
1070
    76
1070
     1
1070
    77
1070
     1
1070
    78
1070
     8
1070
   140
1040
8.6572603926097
1070
   147
1040
0.0
1070
   173
1070
     1
1070
   176
1070
     2
1070
   177
1070
     2
1070
   178
1070
     2
1070
   271
1070
     2
1070
   277
1070
     2
1070
   279
1070
     2
1070
   280
1070
     0
1070
   287
1070
     5
1070
   340
1005
113
1002
}
  0
DIMENSION
  5
19E
330
1F
100
AcDbEntity
  8
Ｓ_１_１
  6
CONTINUOUS
 62
     2
100
AcDbDimension
  2
*D26
 10
390.0
 20
429.999972
 30
0.0
 11
383.125
 21
314.9999875
 31
0.0
 70
   160
  3
ISO-25
100
AcDbAlignedDimension
 13
225.0
 23
200.000003
 33
0.0
 14
274.999998
 24
429.999972
 34
0.0
 50
90.0
100
AcDbRotatedDimension
1001
ACAD
1000
DSTYLE
1002
{
1070
   270
1070
     2
1070
     6
1000
EX_NORM
1070
     7
1000
EX_NORM
1070
    41
1040
7.5
1070
    42
1040
3.75
1070
    44
1040
2.5
1070
    73
1070
     0
1070
    74
1070
     0
1070
    75
1070
     0
1070
    76
1070
     0
1070
    77
1070
     1
1070
    78
1070
     8
1070
   140
1040
8.6572603926097
1070
   147
1040
0.0
1070
   173
1070
     1
1070
   176
1070
     2
1070
   177
1070
     2
1070
   178
1070
     2
1070
   271
1070
     2
1070
   277
1070
     2
1070
   279
1070
     2
1070
   280
1070
     0
1070
   287
1070
     5
1070
   340
1005
113
1002
}
  0
POINT
  5
1AB
330
1F
100
AcDbEntity
  8
Ｓ_１_１
  6
CONTINUOUS
 62
    80
100
AcDbPoint
 10
520.0000219999998
 20
201.0000040000033
 30
0.0
  0
POINT
  5
1AC
330
1F
100
AcDbEntity
  8
Ｓ_１_１
  6
CONTINUOUS
 62
    80
100
AcDbPoint
 10
510.0000219999998
 20
201.0000040000033
 30
0.0
  0
LINE
  5
1AD
330
1F
100
AcDbEntity
  8
Ｓ_１_１
  6
EXLTYPE2
 62
     1
100
AcDbLine
 10
620.0000309999999
 20
290.6484920000033
 30
0.0
 11
620.0000309999999
 21
247.6132070000033
 31
0.0
  0
LINE
  5
1AE
330
1F
100
AcDbEntity
  8
Ｓ_１_１
  6
EXLTYPE2
 62
     1
100
AcDbLine
 10
647.5000169999998
 20
361.1299990000034
 30
0.0
 11
647.5000169999998
 21
326.5000010000033
 31
0.0
  0
LINE
  5
1AF
330
1F
100
AcDbEntity
  8
Ｓ_１_１
  6
EXLTYPE2
 62
     1
100
AcDbLine
 10
767.5000149999997
 20
468.4699940000033
 30
0.0
 11
767.5000149999997
 21
362.4177650000033
 31
0.0
  0
LINE
  5
1B0
330
1F
100
AcDbEntity
  8
Ｓ_１_１
  6
EXLTYPE2
 62
     1
100
AcDbLine
 10
797.5000159999997
 20
361.1299990000034
 30
0.0
 11
797.5000159999997
 21
326.5000010000033
 31
0.0
  0
LINE
  5
1B1
330
1F
100
AcDbEntity
  8
Ｓ_１_１
  6
EXLTYPE2
 62
     1
100
AcDbLine
 10
781.9500119999998
 20
361.9999920000033
 30
0.0
 11
865.355007
 21
361.9999920000033
 31
0.0
  0
LINE
  5
1B2
330
1F
100
AcDbEntity
  8
Ｓ_１_１
  6
EXLTYPE2
 62
     1
100
AcDbLine
 10
855.0000119999999
 20
370.7199950000033
 30
0.0
 11
855.0000119999999
 21
323.8199980000034
 31
0.0
  0
LINE
  5
1B3
330
1F
100
AcDbEntity
  8
Ｓ_１_１
  6
EXLTYPE2
 62
     1
100
AcDbLine
 10
587.5750419999998
 20
361.9999920000033
 30
0.0
 11
696.3500239999998
 21
361.9999920000033
 31
0.0
  0
LINE
  5
1B4
330
1F
100
AcDbEntity
  8
Ｓ_１_１
  6
EXLTYPE2
 62
     1
100
AcDbLine
 10
590.0000189999998
 20
370.7199950000033
 30
0.0
 11
590.0000189999998
 21
323.8199980000034
 31
0.0
  0
LINE
  5
1B5
330
1F
100
AcDbEntity
  8
Ｓ_１_１
  6
EXLTYPE2
 62
     1
100
AcDbLine
 10
767.5000149999997
 20
399.4999900000033
 30
0.0
 11
767.5000149999997
 21
344.7499950000033
 31
0.0
  0
ARC
  5
1B6
330
1F
100
AcDbEntity
  8
Ｓ_１_１
  6
EXLTYPE0
 62
     2
100
AcDbCircle
 10
802.6515029999998
 20
361.9999920000033
 30
0.0
 40
18.15149400000001
100
AcDbArc
 50
162.412049
 51
197.5879610000001
  0
ARC
  5
1B7
330
1F
100
AcDbEntity
  8
Ｓ_１_１
  6
EXLTYPE0
 62
     2
100
AcDbCircle
 10
779.3485279999999
 20
361.9999920000033
 30
0.0
 40
18.15149400000001
100
AcDbArc
 50
352.083505
 51
17.58795099999999
  0
ARC
  5
1B8
330
1F
100
AcDbEntity
  8
Ｓ_１_１
  6
EXLTYPE0
 62
     2
100
AcDbCircle
 10
645.5378639999999
 20
351.4353660000033
 30
0.0
 40
14.999999
100
AcDbArc
 50
4.070036999999974
 51
19.79488900000001
  0
ARC
  5
1B9
330
1F
100
AcDbEntity
  8
Ｓ_１_１
  6
EXLTYPE0
 62
     2
100
AcDbCircle
 10
645.5378639999999
 20
372.5646300000033
 30
0.0
 40
14.999999
100
AcDbArc
 50
340.205111
 51
355.929963
  0
ARC
  5
1BA
330
1F
100
AcDbEntity
  8
Ｓ_１_１
  6
EXLTYPE0
 62
     2
100
AcDbCircle
 10
662.4621739999998
 20
372.5646300000033
 30
0.0
 40
14.999999
100
AcDbArc
 50
184.0700360000001
 51
199.7948940000002
  0
ARC
  5
1BB
330
1F
100
AcDbEntity
  8
Ｓ_１_１
  6
EXLTYPE0
 62
     2
100
AcDbCircle
 10
642.3485349999999
 20
361.9999920000033
 30
0.0
 40
18.15149400000001
100
AcDbArc
 50
342.4120460000003
 51
17.58795400000001
  0
ARC
  5
1BC
330
1F
100
AcDbEntity
  8
Ｓ_１_１
  6
EXLTYPE0
 62
     2
100
AcDbCircle
 10
665.6515159999999
 20
361.9999920000033
 30
0.0
 40
18.15149400000001
100
AcDbArc
 50
162.412049
 51
187.916495
  0
LINE
  5
1BD
330
1F
100
AcDbEntity
  8
Ｓ_１_１
  6
EXLTYPE0
 62
     2
100
AcDbLine
 10
800.0000159999997
 20
366.9999910000033
 30
0.0
 11
797.5000159999997
 21
366.9999910000033
 31
0.0
  0
LINE
  5
1BE
330
1F
100
AcDbEntity
  8
Ｓ_１_１
  6
EXLTYPE0
 62
     2
100
AcDbLine
 10
645.0000169999998
 20
366.9999910000033
 30
0.0
 11
647.5000169999998
 21
366.9999910000033
 31
0.0
  0
LINE
  5
1BF
330
1F
100
AcDbEntity
  8
Ｓ_１_１
  6
EXLTYPE0
 62
     2
100
AcDbLine
 10
627.0000249999998
 20
262.9999680000034
 30
0.0
 11
627.0000249999998
 21
252.9999840000033
 31
0.0
  0
LINE
  5
1C0
330
1F
100
AcDbEntity
  8
Ｓ_１_１
  6
EXLTYPE0
 62
     2
100
AcDbLine
 10
613.0000359999998
 20
262.9999680000034
 30
0.0
 11
613.0000359999998
 21
252.9999840000033
 31
0.0
  0
LINE
  5
1C1
330
1F
100
AcDbEntity
  8
Ｓ_１_１
  6
EXLTYPE0
 62
     2
100
AcDbLine
 10
627.0000249999998
 20
286.9999690000034
 30
0.0
 11
627.0000249999998
 21
276.9999820000033
 31
0.0
  0
LINE
  5
1C2
330
1F
100
AcDbEntity
  8
Ｓ_１_１
  6
EXLTYPE0
 62
     2
100
AcDbLine
 10
613.0000359999998
 20
286.9999690000034
 30
0.0
 11
613.0000359999998
 21
276.9999820000033
 31
0.0
  0
LINE
  5
1C3
330
1F
100
AcDbEntity
  8
Ｓ_１_１
  6
EXLTYPE0
 62
     2
100
AcDbLine
 10
647.5000189999998
 20
371.5000070000032
 30
0.0
 11
648.3485219999998
 21
372.9696580000034
 31
0.0
  0
LINE
  5
1C4
330
1F
100
AcDbEntity
  8
Ｓ_１_１
  6
EXLTYPE0
 62
     2
100
AcDbLine
 10
648.3485329999999
 20
372.9696490000033
 30
0.0
 11
659.6515059999997
 21
372.9696490000033
 31
0.0
  0
LINE
  5
1C5
330
1F
100
AcDbEntity
  8
Ｓ_１_１
  6
EXLTYPE0
 62
     2
100
AcDbLine
 10
784.5000159999997
 20
366.9999910000033
 30
0.0
 11
782.500015
 21
366.9999910000033
 31
0.0
  0
LINE
  5
1C6
330
1F
100
AcDbEntity
  8
Ｓ_１_１
  6
EXLTYPE0
 62
     2
100
AcDbLine
 10
791.5000169999998
 20
356.5151690000034
 30
0.0
 11
785.348525
 21
356.5151690000034
 31
0.0
  0
LINE
  5
1C7
330
1F
100
AcDbEntity
  8
Ｓ_１_１
  6
EXLTYPE0
 62
     2
100
AcDbLine
 10
796.6515049999998
 20
367.4848270000034
 30
0.0
 11
785.348525
 21
367.4848270000034
 31
0.0
  0
LINE
  5
1C8
330
1F
100
AcDbEntity
  8
Ｓ_１_１
  6
EXLTYPE0
 62
     2
100
AcDbLine
 10
784.5000159999997
 20
356.9999920000033
 30
0.0
 11
782.500015
 21
356.9999920000033
 31
0.0
  0
LINE
  5
1C9
330
1F
100
AcDbEntity
  8
Ｓ_１_１
  6
EXLTYPE0
 62
     2
100
AcDbLine
 10
660.5000209999998
 20
366.9999910000033
 30
0.0
 11
662.5000159999997
 21
366.9999910000033
 31
0.0
  0
LINE
  5
1CA
330
1F
100
AcDbEntity
  8
Ｓ_１_１
  6
EXLTYPE0
 62
     2
100
AcDbLine
 10
653.5000269999998
 20
356.5151690000034
 30
0.0
 11
659.6515059999997
 21
356.5151690000034
 31
0.0
  0
LINE
  5
1CB
330
1F
100
AcDbEntity
  8
Ｓ_１_１
  6
EXLTYPE0
 62
     2
100
AcDbLine
 10
648.3485329999999
 20
367.4848270000034
 30
0.0
 11
659.6515059999997
 21
367.4848270000034
 31
0.0
  0
LINE
  5
1CC
330
1F
100
AcDbEntity
  8
Ｓ_１_１
  6
EXLTYPE0
 62
     2
100
AcDbLine
 10
659.6515199999999
 20
372.9696470000033
 30
0.0
 11
660.5000299999997
 21
371.4999860000033
 31
0.0
  0
LINE
  5
1CD
330
1F
100
AcDbEntity
  8
Ｓ_１_１
  6
EXLTYPE0
 62
     2
100
AcDbLine
 10
659.9226809999997
 20
351.4999930000033
 30
0.0
 11
660.5000339999996
 21
352.4999970000033
 31
0.0
  0
LINE
  5
1CE
330
1F
100
AcDbEntity
  8
Ｓ_１_１
  6
EXLTYPE0
 62
     2
100
AcDbLine
 10
647.5000169999998
 20
371.4999990000033
 30
0.0
 11
647.5000169999998
 21
352.4999970000033
 31
0.0
  0
LINE
  5
1CF
330
1F
100
AcDbEntity
  8
Ｓ_１_１
  6
EXLTYPE0
 62
     2
100
AcDbLine
 10
772.500015
 20
411.7849040000033
 30
0.0
 11
772.500015
 21
400.4396010000033
 31
0.0
  0
LINE
  5
1D0
330
1F
100
AcDbEntity
  8
Ｓ_１_１
  6
EXLTYPE0
 62
     2
100
AcDbLine
 10
773.5621949999997
 20
391.4244290000033
 30
0.0
 11
773.5621949999997
 21
384.3000880000034
 31
0.0
  0
LINE
  5
1D1
330
1F
100
AcDbEntity
  8
Ｓ_１_１
  6
EXLTYPE0
 62
     2
100
AcDbLine
 10
660.5000209999998
 20
356.9999920000033
 30
0.0
 11
662.5000159999997
 21
356.9999920000033
 31
0.0
  0
LINE
  5
1D2
330
1F
100
AcDbEntity
  8
Ｓ_１_１
  6
EXLTYPE0
 62
     2
100
AcDbLine
 10
660.5000209999998
 20
368.0000020000034
 30
0.0
 11
662.5000159999997
 21
368.0000020000034
 31
0.0
  0
LINE
  5
1D3
330
1F
100
AcDbEntity
  8
Ｓ_１_１
  6
EXLTYPE0
 62
     2
100
AcDbLine
 10
660.5000209999998
 20
371.4999990000033
 30
0.0
 11
660.5000209999998
 21
352.4999970000033
 31
0.0
  0
LINE
  5
1D4
330
1F
100
AcDbEntity
  8
Ｓ_１_１
  6
EXLTYPE0
 62
     2
100
AcDbLine
 10
660.5000209999998
 20
355.9999940000034
 30
0.0
 11
662.5000159999997
 21
355.9999940000034
 31
0.0
  0
LINE
  5
1D5
330
1F
100
AcDbEntity
  8
Ｓ_１_１
  6
EXLTYPE0
 62
     2
100
AcDbLine
 10
784.5000159999997
 20
368.0000020000034
 30
0.0
 11
782.500015
 21
368.0000020000034
 31
0.0
  0
LINE
  5
1D6
330
1F
100
AcDbEntity
  8
Ｓ_１_１
  6
EXLTYPE0
 62
     2
100
AcDbLine
 10
784.5000159999997
 20
355.9999940000034
 30
0.0
 11
782.500015
 21
355.9999940000034
 31
0.0
  0
LINE
  5
1D7
330
1F
100
AcDbEntity
  8
Ｓ_１_１
  6
EXLTYPE0
 62
     2
100
AcDbLine
 10
752.5000189999998
 20
376.9999910000033
 30
0.0
 11
782.500015
 21
376.9999910000033
 31
0.0
  0
LINE
  5
1D8
330
1F
100
AcDbEntity
  8
Ｓ_１_１
  6
EXLTYPE0
 62
     2
100
AcDbLine
 10
662.5000159999997
 20
376.9999910000033
 30
0.0
 11
692.5000149999997
 21
376.9999910000033
 31
0.0
  0
LINE
  5
1D9
330
1F
100
AcDbEntity
  8
Ｓ_１_１
  6
EXLTYPE0
 62
     2
100
AcDbLine
 10
752.5000189999998
 20
376.9999910000033
 30
0.0
 11
752.5000189999998
 21
351.5000000000034
 31
0.0
  0
LINE
  5
1DA
330
1F
100
AcDbEntity
  8
Ｓ_１_１
  6
EXLTYPE0
 62
     2
100
AcDbLine
 10
692.5000149999997
 20
376.9999910000033
 30
0.0
 11
692.5000149999997
 21
351.5000000000034
 31
0.0
  0
LINE
  5
1DB
330
1F
100
AcDbEntity
  8
Ｓ_１_１
  6
EXLTYPE0
 62
     2
100
AcDbLine
 10
662.5000159999997
 20
376.9999910000033
 30
0.0
 11
662.5000159999997
 21
351.5000000000034
 31
0.0
  0
POLYLINE
  5
1DC
330
1F
100
AcDbEntity
  8
Ｓ_１_１
  6
CONTINUOUS
 62
     3
100
AcDb2dPolyline
 66
     1
 10
0.0
 20
0.0
 30
0.0
 70
   128
  0
VERTEX
  5
1DD
330
1DC
100
AcDbEntity
  8
Ｓ_１_１
  6
CONTINUOUS
 62
     3
100
AcDbVertex
100
AcDb2dVertex
 10
797.5000159999997
 20
332.2842640000033
 30
0.0
  0
VERTEX
  5
1DE
330
1DC
100
AcDbEntity
  8
Ｓ_１_１
  6
CONTINUOUS
 62
     3
100
AcDbVertex
100
AcDb2dVertex
 10
798.6732739999998
 20
332.3317610000033
 30
0.0
  0
VERTEX
  5
1DF
330
1DC
100
AcDbEntity
  8
Ｓ_１_１
  6
CONTINUOUS
 62
     3
100
AcDbVertex
100
AcDb2dVertex
 10
799.8176429999996
 20
332.4730830000033
 30
0.0
  0
VERTEX
  5
1E0
330
1DC
100
AcDbEntity
  8
Ｓ_１_１
  6
CONTINUOUS
 62
     3
100
AcDbVertex
100
AcDb2dVertex
 10
800.9049449999998
 20
332.7047500000033
 30
0.0
  0
VERTEX
  5
1E1
330
1DC
100
AcDbEntity
  8
Ｓ_１_１
  6
CONTINUOUS
 62
     3
100
AcDbVertex
100
AcDb2dVertex
 10
801.9084049999998
 20
333.0210570000033
 30
0.0
  0
VERTEX
  5
1E2
330
1DC
100
AcDbEntity
  8
Ｓ_１_１
  6
CONTINUOUS
 62
     3
100
AcDbVertex
100
AcDb2dVertex
 10
802.8033169999998
 20
333.4142160000033
 30
0.0
  0
VERTEX
  5
1E3
330
1DC
100
AcDbEntity
  8
Ｓ_１_１
  6
CONTINUOUS
 62
     3
100
AcDbVertex
100
AcDb2dVertex
 10
803.5676439999997
 20
333.8745470000033
 30
0.0
  0
VERTEX
  5
1E4
330
1DC
100
AcDbEntity
  8
Ｓ_１_１
  6
CONTINUOUS
 62
     3
100
AcDbVertex
100
AcDb2dVertex
 10
804.1825649999998
 20
334.3907130000034
 30
0.0
  0
VERTEX
  5
1E5
330
1DC
100
AcDbEntity
  8
Ｓ_１_１
  6
CONTINUOUS
 62
     3
100
AcDbVertex
100
AcDb2dVertex
 10
804.6329399999997
 20
334.9500060000033
 30
0.0
  0
VERTEX
  5
1E6
330
1DC
100
AcDbEntity
  8
Ｓ_１_１
  6
CONTINUOUS
 62
     3
100
AcDbVertex
100
AcDb2dVertex
 10
804.9076789999998
 20
335.5386540000034
 30
0.0
  0
VERTEX
  5
1E7
330
1DC
100
AcDbEntity
  8
Ｓ_１_１
  6
CONTINUOUS
 62
     3
100
AcDbVertex
100
AcDb2dVertex
 10
805.0000159999997
 20
336.1421630000034
 30
0.0
  0
SEQEND
  5
1E8
330
1DC
100
AcDbEntity
  8
Ｓ_１_１
  6
CONTINUOUS
 62
     3
  0
POLYLINE
  5
1E9
330
1F
100
AcDbEntity
  8
Ｓ_１_１
  6
CONTINUOUS
 62
     3
100
AcDb2dPolyline
 66
     1
 10
0.0
 20
0.0
 30
0.0
 70
   128
  0
VERTEX
  5
1EA
330
1E9
100
AcDbEntity
  8
Ｓ_１_１
  6
CONTINUOUS
 62
     3
100
AcDbVertex
100
AcDb2dVertex
 10
790.000015
 20
336.1421630000034
 30
0.0
  0
VERTEX
  5
1EB
330
1E9
100
AcDbEntity
  8
Ｓ_１_１
  6
CONTINUOUS
 62
     3
100
AcDbVertex
100
AcDb2dVertex
 10
790.0923529999998
 20
335.5386540000034
 30
0.0
  0
VERTEX
  5
1EC
330
1E9
100
AcDbEntity
  8
Ｓ_１_１
  6
CONTINUOUS
 62
     3
100
AcDbVertex
100
AcDb2dVertex
 10
790.367091
 20
334.9500060000033
 30
0.0
  0
VERTEX
  5
1ED
330
1E9
100
AcDbEntity
  8
Ｓ_１_１
  6
CONTINUOUS
 62
     3
100
AcDbVertex
100
AcDb2dVertex
 10
790.8174659999997
 20
334.3907130000034
 30
0.0
  0
VERTEX
  5
1EE
330
1E9
100
AcDbEntity
  8
Ｓ_１_１
  6
CONTINUOUS
 62
     3
100
AcDbVertex
100
AcDb2dVertex
 10
791.4323879999997
 20
333.8745470000033
 30
0.0
  0
VERTEX
  5
1EF
330
1E9
100
AcDbEntity
  8
Ｓ_１_１
  6
CONTINUOUS
 62
     3
100
AcDbVertex
100
AcDb2dVertex
 10
792.1967139999998
 20
333.4142160000033
 30
0.0
  0
VERTEX
  5
1F0
330
1E9
100
AcDbEntity
  8
Ｓ_１_１
  6
CONTINUOUS
 62
     3
100
AcDbVertex
100
AcDb2dVertex
 10
793.0916259999998
 20
333.0210570000033
 30
0.0
  0
VERTEX
  5
1F1
330
1E9
100
AcDbEntity
  8
Ｓ_１_１
  6
CONTINUOUS
 62
     3
100
AcDbVertex
100
AcDb2dVertex
 10
794.0950869999997
 20
332.7047500000033
 30
0.0
  0
VERTEX
  5
1F2
330
1E9
100
AcDbEntity
  8
Ｓ_１_１
  6
CONTINUOUS
 62
     3
100
AcDbVertex
100
AcDb2dVertex
 10
795.1823879999997
 20
332.4730830000033
 30
0.0
  0
VERTEX
  5
1F3
330
1E9
100
AcDbEntity
  8
Ｓ_１_１
  6
CONTINUOUS
 62
     3
100
AcDbVertex
100
AcDb2dVertex
 10
796.3267569999999
 20
332.3317610000033
 30
0.0
  0
VERTEX
  5
1F4
330
1E9
100
AcDbEntity
  8
Ｓ_１_１
  6
CONTINUOUS
 62
     3
100
AcDbVertex
100
AcDb2dVertex
 10
797.5000159999997
 20
332.2842640000033
 30
0.0
  0
SEQEND
  5
1F5
330
1E9
100
AcDbEntity
  8
Ｓ_１_１
  6
CONTINUOUS
 62
     3
  0
POLYLINE
  5
1F6
330
1F
100
AcDbEntity
  8
Ｓ_１_１
  6
CONTINUOUS
 62
     3
100
AcDb2dPolyline
 66
     1
 10
0.0
 20
0.0
 30
0.0
 70
   128
  0
VERTEX
  5
1F7
330
1F6
100
AcDbEntity
  8
Ｓ_１_１
  6
CONTINUOUS
 62
     3
100
AcDbVertex
100
AcDb2dVertex
 10
640.0000169999998
 20
336.1421630000034
 30
0.0
  0
VERTEX
  5
1F8
330
1F6
100
AcDbEntity
  8
Ｓ_１_１
  6
CONTINUOUS
 62
     3
100
AcDbVertex
100
AcDb2dVertex
 10
640.0923549999997
 20
335.5386540000034
 30
0.0
  0
VERTEX
  5
1F9
330
1F6
100
AcDbEntity
  8
Ｓ_１_１
  6
CONTINUOUS
 62
     3
100
AcDbVertex
100
AcDb2dVertex
 10
640.3670929999998
 20
334.9500060000033
 30
0.0
  0
VERTEX
  5
1FA
330
1F6
100
AcDbEntity
  8
Ｓ_１_１
  6
CONTINUOUS
 62
     3
100
AcDbVertex
100
AcDb2dVertex
 10
640.8174679999997
 20
334.3907130000034
 30
0.0
  0
VERTEX
  5
1FB
330
1F6
100
AcDbEntity
  8
Ｓ_１_１
  6
CONTINUOUS
 62
     3
100
AcDbVertex
100
AcDb2dVertex
 10
641.4323899999997
 20
333.8745470000033
 30
0.0
  0
VERTEX
  5
1FC
330
1F6
100
AcDbEntity
  8
Ｓ_１_１
  6
CONTINUOUS
 62
     3
100
AcDbVertex
100
AcDb2dVertex
 10
642.1967159999997
 20
333.4142160000033
 30
0.0
  0
VERTEX
  5
1FD
330
1F6
100
AcDbEntity
  8
Ｓ_１_１
  6
CONTINUOUS
 62
     3
100
AcDbVertex
100
AcDb2dVertex
 10
643.0916279999999
 20
333.0210570000033
 30
0.0
  0
VERTEX
  5
1FE
330
1F6
100
AcDbEntity
  8
Ｓ_１_１
  6
CONTINUOUS
 62
     3
100
AcDbVertex
100
AcDb2dVertex
 10
644.0950879999998
 20
332.7047500000033
 30
0.0
  0
VERTEX
  5
1FF
330
1F6
100
AcDbEntity
  8
Ｓ_１_１
  6
CONTINUOUS
 62
     3
100
AcDbVertex
100
AcDb2dVertex
 10
645.1823889999998
 20
332.4730830000033
 30
0.0
  0
VERTEX
  5
200
330
1F6
100
AcDbEntity
  8
Ｓ_１_１
  6
CONTINUOUS
 62
     3
100
AcDbVertex
100
AcDb2dVertex
 10
646.3267579999997
 20
332.3317610000033
 30
0.0
  0
VERTEX
  5
201
330
1F6
100
AcDbEntity
  8
Ｓ_１_１
  6
CONTINUOUS
 62
     3
100
AcDbVertex
100
AcDb2dVertex
 10
647.5000169999998
 20
332.2842640000033
 30
0.0
  0
SEQEND
  5
202
330
1F6
100
AcDbEntity
  8
Ｓ_１_１
  6
CONTINUOUS
 62
     3
  0
POLYLINE
  5
203
330
1F
100
AcDbEntity
  8
Ｓ_１_１
  6
CONTINUOUS
 62
     3
100
AcDb2dPolyline
 66
     1
 10
0.0
 20
0.0
 30
0.0
 70
   128
  0
VERTEX
  5
204
330
203
100
AcDbEntity
  8
Ｓ_１_１
  6
CONTINUOUS
 62
     3
100
AcDbVertex
100
AcDb2dVertex
 10
647.5000169999998
 20
332.2842640000033
 30
0.0
  0
VERTEX
  5
205
330
203
100
AcDbEntity
  8
Ｓ_１_１
  6
CONTINUOUS
 62
     3
100
AcDbVertex
100
AcDb2dVertex
 10
648.3815469999997
 20
332.3110050000033
 30
0.0
  0
VERTEX
  5
206
330
203
100
AcDbEntity
  8
Ｓ_１_１
  6
CONTINUOUS
 62
     3
100
AcDbVertex
100
AcDb2dVertex
 10
649.2508569999998
 20
332.3908580000034
 30
0.0
  0
VERTEX
  5
207
330
203
100
AcDbEntity
  8
Ｓ_１_１
  6
CONTINUOUS
 62
     3
100
AcDbVertex
100
AcDb2dVertex
 10
650.0958949999997
 20
332.5227160000033
 30
0.0
  0
VERTEX
  5
208
330
203
100
AcDbEntity
  8
Ｓ_１_１
  6
CONTINUOUS
 62
     3
100
AcDbVertex
100
AcDb2dVertex
 10
650.9049449999998
 20
332.7047500000033
 30
0.0
  0
VERTEX
  5
209
330
203
100
AcDbEntity
  8
Ｓ_１_１
  6
CONTINUOUS
 62
     3
100
AcDbVertex
100
AcDb2dVertex
 10
651.6667929999998
 20
332.9344370000033
 30
0.0
  0
VERTEX
  5
20A
330
203
100
AcDbEntity
  8
Ｓ_１_１
  6
CONTINUOUS
 62
     3
100
AcDbVertex
100
AcDb2dVertex
 10
652.3708769999998
 20
333.2085940000034
 30
0.0
  0
VERTEX
  5
20B
330
203
100
AcDbEntity
  8
Ｓ_１_１
  6
CONTINUOUS
 62
     3
100
AcDbVertex
100
AcDb2dVertex
 10
653.0074349999998
 20
333.5234180000033
 30
0.0
  0
VERTEX
  5
20C
330
203
100
AcDbEntity
  8
Ｓ_１_１
  6
CONTINUOUS
 62
     3
100
AcDbVertex
100
AcDb2dVertex
 10
653.5676439999997
 20
333.8745470000033
 30
0.0
  0
VERTEX
  5
20D
330
203
100
AcDbEntity
  8
Ｓ_１_１
  6
CONTINUOUS
 62
     3
100
AcDbVertex
100
AcDb2dVertex
 10
654.0437369999997
 20
334.2571110000033
 30
0.0
  0
VERTEX
  5
20E
330
203
100
AcDbEntity
  8
Ｓ_１_１
  6
CONTINUOUS
 62
     3
100
AcDbVertex
100
AcDb2dVertex
 10
654.4291129999997
 20
334.6658090000033
 30
0.0
  0
VERTEX
  5
20F
330
203
100
AcDbEntity
  8
Ｓ_１_１
  6
CONTINUOUS
 62
     3
100
AcDbVertex
100
AcDb2dVertex
 10
654.7184309999998
 20
335.0949730000034
 30
0.0
  0
VERTEX
  5
210
330
203
100
AcDbEntity
  8
Ｓ_１_１
  6
CONTINUOUS
 62
     3
100
AcDbVertex
100
AcDb2dVertex
 10
654.9076789999996
 20
335.5386540000034
 30
0.0
  0
VERTEX
  5
211
330
203
100
AcDbEntity
  8
Ｓ_１_１
  6
CONTINUOUS
 62
     3
100
AcDbVertex
100
AcDb2dVertex
 10
654.9768969999998
 20
335.8394750000034
 30
0.0
  0
VERTEX
  5
212
330
203
100
AcDbEntity
  8
Ｓ_１_１
  6
CONTINUOUS
 62
     3
100
AcDbVertex
100
AcDb2dVertex
 10
655.0000169999998
 20
336.1421630000034
 30
0.0
  0
SEQEND
  5
213
330
203
100
AcDbEntity
  8
Ｓ_１_１
  6
CONTINUOUS
 62
     3
  0
ARC
  5
214
330
1F
100
AcDbEntity
  8
Ｓ_１_１
  6
CONTINUOUS
 62
     3
100
AcDbCircle
 10
854.5000129999996
 20
361.4999990000033
 30
0.0
 40
10.0
100
AcDbArc
 50
0.0
 51
90.000003
  0
ARC
  5
215
330
1F
100
AcDbEntity
  8
Ｓ_１_１
  6
CONTINUOUS
 62
     3
100
AcDbCircle
 10
842.5000139999997
 20
349.4999920000033
 30
0.0
 40
3.000000000000003
100
AcDbArc
 50
0.0
 51
90.000003
  0
ARC
  5
216
330
1F
100
AcDbEntity
  8
Ｓ_１_１
  6
CONTINUOUS
 62
     3
100
AcDbCircle
 10
602.5000189999998
 20
349.4999920000033
 30
0.0
 40
3.000000000000003
100
AcDbArc
 50
90.000003
 51
180.000005
  0
ARC
  5
217
330
1F
100
AcDbEntity
  8
Ｓ_１_１
  6
CONTINUOUS
 62
     3
100
AcDbCircle
 10
810.8485249999997
 20
361.9999920000033
 30
0.0
 40
18.15149400000001
100
AcDbArc
 50
342.412053
 51
17.58795099999999
  0
ARC
  5
218
330
1F
100
AcDbEntity
  8
Ｓ_１_１
  6
CONTINUOUS
 62
     3
100
AcDbCircle
 10
834.1515029999999
 20
361.9999920000033
 30
0.0
 40
18.15149400000001
100
AcDbArc
 50
162.412049
 51
197.5879610000001
  0
ARC
  5
219
330
1F
100
AcDbEntity
  8
Ｓ_１_１
  6
CONTINUOUS
 62
     3
100
AcDbCircle
 10
814.0378559999997
 20
372.5646300000033
 30
0.0
 40
14.999999
100
AcDbArc
 50
340.2051060000002
 51
355.929964
  0
ARC
  5
21A
330
1F
100
AcDbEntity
  8
Ｓ_１_１
  6
CONTINUOUS
 62
     3
100
AcDbCircle
 10
830.9621719999998
 20
372.5646300000033
 30
0.0
 40
14.999999
100
AcDbArc
 50
184.0700360000001
 51
199.7948940000002
  0
ARC
  5
21B
330
1F
100
AcDbEntity
  8
Ｓ_１_１
  6
CONTINUOUS
 62
     3
100
AcDbCircle
 10
814.0378559999997
 20
351.4353660000033
 30
0.0
 40
14.999999
100
AcDbArc
 50
4.070036000000004
 51
19.79489399999997
  0
ARC
  5
21C
330
1F
100
AcDbEntity
  8
Ｓ_１_１
  6
CONTINUOUS
 62
     3
100
AcDbCircle
 10
830.9621719999998
 20
351.4353660000033
 30
0.0
 40
14.999999
100
AcDbArc
 50
160.205106
 51
175.929964
  0
ARC
  5
21D
330
1F
100
AcDbEntity
  8
Ｓ_１_１
  6
CONTINUOUS
 62
     3
100
AcDbCircle
 10
590.5000239999998
 20
361.4999990000033
 30
0.0
 40
10.0
100
AcDbArc
 50
90.000003
 51
180.000005
  0
ARC
  5
21E
330
1F
100
AcDbEntity
  8
Ｓ_１_１
  6
CONTINUOUS
 62
     3
100
AcDbCircle
 10
614.0378629999999
 20
351.4353660000033
 30
0.0
 40
14.999999
100
AcDbArc
 50
4.070036999999974
 51
19.79488900000001
  0
ARC
  5
21F
330
1F
100
AcDbEntity
  8
Ｓ_１_１
  6
CONTINUOUS
 62
     3
100
AcDbCircle
 10
630.9621859999997
 20
351.4353660000033
 30
0.0
 40
14.999999
100
AcDbArc
 50
160.205106
 51
175.929964
  0
ARC
  5
220
330
1F
100
AcDbEntity
  8
Ｓ_１_１
  6
CONTINUOUS
 62
     3
100
AcDbCircle
 10
614.0378629999999
 20
372.5646300000033
 30
0.0
 40
14.999999
100
AcDbArc
 50
340.205111
 51
355.929963
  0
ARC
  5
221
330
1F
100
AcDbEntity
  8
Ｓ_１_１
  6
CONTINUOUS
 62
     3
100
AcDbCircle
 10
630.9621859999997
 20
372.5646300000033
 30
0.0
 40
14.999999
100
AcDbArc
 50
184.0700360000001
 51
199.7948940000002
  0
ARC
  5
222
330
1F
100
AcDbEntity
  8
Ｓ_１_１
  6
CONTINUOUS
 62
     3
100
AcDbCircle
 10
610.8485339999999
 20
361.9999920000033
 30
0.0
 40
18.15149400000001
100
AcDbArc
 50
342.4120460000003
 51
17.58795400000001
  0
ARC
  5
223
330
1F
100
AcDbEntity
  8
Ｓ_１_１
  6
CONTINUOUS
 62
     3
100
AcDbCircle
 10
634.1515139999997
 20
361.9999920000033
 30
0.0
 40
18.15149400000001
100
AcDbArc
 50
162.412049
 51
197.587947
  0
ARC
  5
224
330
1F
100
AcDbEntity
  8
Ｓ_１_１
  6
CONTINUOUS
 62
     3
100
AcDbCircle
 10
490.0000229999999
 20
269.9999970000033
 30
0.0
 40
39.99999500000001
100
AcDbArc
 50
54.90036700000002
 51
60.00000200000001
  0
ARC
  5
225
330
1F
100
AcDbEntity
  8
Ｓ_１_１
  6
CONTINUOUS
 62
     3
100
AcDbCircle
 10
490.0000229999999
 20
269.9999970000033
 30
0.0
 40
39.99999500000001
100
AcDbArc
 50
299.9999980000002
 51
305.0996330000001
  0
LINE
  5
226
330
1F
100
AcDbEntity
  8
Ｓ_１_１
  6
CONTINUOUS
 62
     3
100
AcDbLine
 10
805.000015
 20
339.9999980000034
 30
0.0
 11
899.0000089999996
 21
339.9999980000034
 31
0.0
  0
LINE
  5
227
330
1F
100
AcDbEntity
  8
Ｓ_１_１
  6
CONTINUOUS
 62
     3
100
AcDbLine
 10
655.0000169999998
 20
339.9999980000034
 30
0.0
 11
790.0000139999997
 21
339.9999980000034
 31
0.0
  0
LINE
  5
228
330
1F
100
AcDbEntity
  8
Ｓ_１_１
  6
CONTINUOUS
 62
     3
100
AcDbLine
 10
800.0000159999997
 20
366.9999910000033
 30
0.0
 11
805.000015
 21
366.9999910000033
 31
0.0
  0
LINE
  5
229
330
1F
100
AcDbEntity
  8
Ｓ_１_１
  6
CONTINUOUS
 62
     3
100
AcDbLine
 10
640.0000169999998
 20
366.9999910000033
 30
0.0
 11
645.0000169999998
 21
366.9999910000033
 31
0.0
  0
LINE
  5
22A
330
1F
100
AcDbEntity
  8
Ｓ_１_１
  6
CONTINUOUS
 62
     3
100
AcDbLine
 10
800.0000159999997
 20
430.8643920000034
 30
0.0
 11
800.0000159999997
 21
359.4999920000033
 31
0.0
  0
LINE
  5
22B
330
1F
100
AcDbEntity
  8
Ｓ_１_１
  6
CONTINUOUS
 62
     3
100
AcDbLine
 10
645.0000169999998
 20
431.4999970000034
 30
0.0
 11
645.0000169999998
 21
366.9999910000033
 31
0.0
  0
LINE
  5
22C
330
1F
100
AcDbEntity
  8
Ｓ_１_１
  6
CONTINUOUS
 62
     3
100
AcDbLine
 10
605.0000439999999
 20
275.9999980000033
 30
0.0
 11
605.0000439999999
 21
264.0000000000033
 31
0.0
  0
LINE
  5
22D
330
1F
100
AcDbEntity
  8
Ｓ_１_１
  6
CONTINUOUS
 62
     3
100
AcDbLine
 10
755.0000159999997
 20
264.9999990000033
 30
0.0
 11
754.0000159999997
 21
263.9999980000033
 31
0.0
  0
LINE
  5
22E
330
1F
100
AcDbEntity
  8
Ｓ_１_１
  6
CONTINUOUS
 62
     3
100
AcDbLine
 10
755.0000149999997
 20
274.9999980000033
 30
0.0
 11
754.0000129999999
 21
276.0000000000033
 31
0.0
  0
LINE
  5
22F
330
1F
100
AcDbEntity
  8
Ｓ_１_１
  6
CONTINUOUS
 62
     3
100
AcDbLine
 10
605.0000439999999
 20
264.0000000000033
 30
0.0
 11
754.0000149999998
 21
264.0000000000033
 31
0.0
  0
LINE
  5
230
330
1F
100
AcDbEntity
  8
Ｓ_１_１
  6
CONTINUOUS
 62
     3
100
AcDbLine
 10
605.0000439999999
 20
275.9999980000033
 30
0.0
 11
754.0000149999998
 21
275.9999980000033
 31
0.0
  0
LINE
  5
231
330
1F
100
AcDbEntity
  8
Ｓ_１_１
  6
CONTINUOUS
 62
     3
100
AcDbLine
 10
635.0000169999998
 20
262.9999680000034
 30
0.0
 11
635.0000169999998
 21
252.9999840000033
 31
0.0
  0
LINE
  5
232
330
1F
100
AcDbEntity
  8
Ｓ_１_１
  6
CONTINUOUS
 62
     3
100
AcDbLine
 10
605.0000439999999
 20
262.9999680000034
 30
0.0
 11
605.0000439999999
 21
252.9999840000033
 31
0.0
  0
LINE
  5
233
330
1F
100
AcDbEntity
  8
Ｓ_１_１
  6
CONTINUOUS
 62
     3
100
AcDbLine
 10
635.0000169999998
 20
286.9999690000034
 30
0.0
 11
635.0000169999998
 21
276.9999820000033
 31
0.0
  0
LINE
  5
234
330
1F
100
AcDbEntity
  8
Ｓ_１_１
  6
CONTINUOUS
 62
     3
100
AcDbLine
 10
605.0000439999999
 20
286.9999690000034
 30
0.0
 11
605.0000439999999
 21
276.9999820000033
 31
0.0
  0
LINE
  5
235
330
1F
100
AcDbEntity
  8
Ｓ_１_１
  6
CONTINUOUS
 62
     3
100
AcDbLine
 10
605.0000439999999
 20
262.9999680000034
 30
0.0
 11
635.0000169999998
 21
262.9999680000034
 31
0.0
  0
LINE
  5
236
330
1F
100
AcDbEntity
  8
Ｓ_１_１
  6
CONTINUOUS
 62
     3
100
AcDbLine
 10
605.0000439999999
 20
276.9999820000033
 30
0.0
 11
635.0000169999998
 21
276.9999820000033
 31
0.0
  0
LINE
  5
237
330
1F
100
AcDbEntity
  8
Ｓ_１_１
  6
CONTINUOUS
 62
     3
100
AcDbLine
 10
605.0000439999999
 20
252.9999840000033
 30
0.0
 11
635.0000169999998
 21
252.9999840000033
 31
0.0
  0
LINE
  5
238
330
1F
100
AcDbEntity
  8
Ｓ_１_１
  6
CONTINUOUS
 62
     3
100
AcDbLine
 10
605.0000439999999
 20
286.9999690000034
 30
0.0
 11
635.0000169999998
 21
286.9999690000034
 31
0.0
  0
LINE
  5
239
330
1F
100
AcDbEntity
  8
Ｓ_１_１
  6
CONTINUOUS
 62
     3
100
AcDbLine
 10
754.0000149999998
 20
275.9999980000033
 30
0.0
 11
754.0000149999998
 21
264.0000000000033
 31
0.0
  0
LINE
  5
23A
330
1F
100
AcDbEntity
  8
Ｓ_１_１
  6
CONTINUOUS
 62
     3
100
AcDbLine
 10
755.0000189999998
 20
274.9999970000033
 30
0.0
 11
755.0000189999998
 21
264.9999970000033
 31
0.0
  0
LINE
  5
23B
330
1F
100
AcDbEntity
  8
Ｓ_１_１
  6
CONTINUOUS
 62
     3
100
AcDbLine
 10
864.5000129999996
 20
346.9999920000033
 30
0.0
 11
845.5000119999997
 21
346.9999920000033
 31
0.0
  0
LINE
  5
23C
330
1F
100
AcDbEntity
  8
Ｓ_１_１
  6
CONTINUOUS
 62
     3
100
AcDbLine
 10
861.5000139999997
 20
346.9999920000033
 30
0.0
 11
861.5000139999997
 21
339.9999980000034
 31
0.0
  0
LINE
  5
23D
330
1F
100
AcDbEntity
  8
Ｓ_１_１
  6
CONTINUOUS
 62
     3
100
AcDbLine
 10
862.5000109999999
 20
344.9999970000033
 30
0.0
 11
862.5000109999999
 21
339.9999980000034
 31
0.0
  0
LINE
  5
23E
330
1F
100
AcDbEntity
  8
Ｓ_１_１
  6
CONTINUOUS
 62
     3
100
AcDbLine
 10
848.5000129999997
 20
346.9999920000033
 30
0.0
 11
848.5000129999997
 21
339.9999980000034
 31
0.0
  0
LINE
  5
23F
330
1F
100
AcDbEntity
  8
Ｓ_１_１
  6
CONTINUOUS
 62
     3
100
AcDbLine
 10
847.5000119999999
 20
344.9999970000033
 30
0.0
 11
847.5000119999999
 21
339.9999980000034
 31
0.0
  0
LINE
  5
240
330
1F
100
AcDbEntity
  8
Ｓ_１_１
  6
CONTINUOUS
 62
     3
100
AcDbLine
 10
836.0000129999997
 20
371.4999990000033
 30
0.0
 11
836.0000129999997
 21
352.4999970000033
 31
0.0
  0
LINE
  5
241
330
1F
100
AcDbEntity
  8
Ｓ_１_１
  6
CONTINUOUS
 62
     3
100
AcDbLine
 10
842.5000139999997
 20
352.4999970000033
 30
0.0
 11
836.0000129999997
 21
352.4999970000033
 31
0.0
  0
LINE
  5
242
330
1F
100
AcDbEntity
  8
Ｓ_１_１
  6
CONTINUOUS
 62
     3
100
AcDbLine
 10
864.5000129999996
 20
361.4999990000033
 30
0.0
 11
864.5000129999996
 21
346.9999920000033
 31
0.0
  0
LINE
  5
243
330
1F
100
AcDbEntity
  8
Ｓ_１_１
  6
CONTINUOUS
 62
     3
100
AcDbLine
 10
845.5000119999997
 20
349.4999920000033
 30
0.0
 11
845.5000119999997
 21
346.9999920000033
 31
0.0
  0
LINE
  5
244
330
1F
100
AcDbEntity
  8
Ｓ_１_１
  6
CONTINUOUS
 62
     3
100
AcDbLine
 10
862.5000109999999
 20
344.9999970000033
 30
0.0
 11
847.5000119999999
 21
344.9999970000033
 31
0.0
  0
LINE
  5
245
330
1F
100
AcDbEntity
  8
Ｓ_１_１
  6
CONTINUOUS
 62
     3
100
AcDbLine
 10
854.5000129999996
 20
371.4999990000033
 30
0.0
 11
836.0000129999997
 21
371.4999990000033
 31
0.0
  0
LINE
  5
246
330
1F
100
AcDbEntity
  8
Ｓ_１_１
  6
CONTINUOUS
 62
     3
100
AcDbLine
 10
640.0000169999998
 20
346.9999920000033
 30
0.0
 11
805.000015
 21
346.9999920000033
 31
0.0
  0
LINE
  5
247
330
1F
100
AcDbEntity
  8
Ｓ_１_１
  6
CONTINUOUS
 62
     3
100
AcDbLine
 10
582.5000189999998
 20
344.9999970000033
 30
0.0
 11
597.5000189999998
 21
344.9999970000033
 31
0.0
  0
LINE
  5
248
330
1F
100
AcDbEntity
  8
Ｓ_１_１
  6
CONTINUOUS
 62
     3
100
AcDbLine
 10
583.5000299999998
 20
346.9999920000033
 30
0.0
 11
583.5000299999998
 21
339.9999980000034
 31
0.0
  0
LINE
  5
249
330
1F
100
AcDbEntity
  8
Ｓ_１_１
  6
CONTINUOUS
 62
     3
100
AcDbLine
 10
596.5000339999998
 20
346.9999920000033
 30
0.0
 11
596.5000339999998
 21
339.9999980000034
 31
0.0
  0
LINE
  5
24A
330
1F
100
AcDbEntity
  8
Ｓ_１_１
  6
CONTINUOUS
 62
     3
100
AcDbLine
 10
597.5000189999998
 20
344.9999970000033
 30
0.0
 11
597.5000189999998
 21
339.9999980000034
 31
0.0
  0
LINE
  5
24B
330
1F
100
AcDbEntity
  8
Ｓ_１_１
  6
CONTINUOUS
 62
     3
100
AcDbLine
 10
582.5000189999998
 20
344.9999970000033
 30
0.0
 11
582.5000189999998
 21
339.9999980000034
 31
0.0
  0
LINE
  5
24C
330
1F
100
AcDbEntity
  8
Ｓ_１_１
  6
CONTINUOUS
 62
     3
100
AcDbLine
 10
590.5000239999998
 20
371.4999990000033
 30
0.0
 11
609.0000209999998
 21
371.4999990000033
 31
0.0
  0
LINE
  5
24D
330
1F
100
AcDbEntity
  8
Ｓ_１_１
  6
CONTINUOUS
 62
     3
100
AcDbLine
 10
599.5000139999999
 20
349.4999920000033
 30
0.0
 11
599.5000139999999
 21
346.9999920000033
 31
0.0
  0
LINE
  5
24E
330
1F
100
AcDbEntity
  8
Ｓ_１_１
  6
CONTINUOUS
 62
     3
100
AcDbLine
 10
580.5000249999998
 20
361.4999990000033
 30
0.0
 11
580.5000249999998
 21
346.9999920000033
 31
0.0
  0
LINE
  5
24F
330
1F
100
AcDbEntity
  8
Ｓ_１_１
  6
CONTINUOUS
 62
     3
100
AcDbLine
 10
602.5000189999998
 20
352.4999970000033
 30
0.0
 11
609.0000209999998
 21
352.4999970000033
 31
0.0
  0
LINE
  5
250
330
1F
100
AcDbEntity
  8
Ｓ_１_１
  6
CONTINUOUS
 62
     3
100
AcDbLine
 10
611.0000279999998
 20
369.9999960000033
 30
0.0
 11
616.0000279999998
 21
369.9999960000033
 31
0.0
  0
LINE
  5
251
330
1F
100
AcDbEntity
  8
Ｓ_１_１
  6
CONTINUOUS
 62
     3
100
AcDbLine
 10
609.0000209999998
 20
371.4999990000033
 30
0.0
 11
609.0000209999998
 21
352.4999970000033
 31
0.0
  0
LINE
  5
252
330
1F
100
AcDbEntity
  8
Ｓ_１_１
  6
CONTINUOUS
 62
     3
100
AcDbLine
 10
611.0000279999998
 20
354.0000000000034
 30
0.0
 11
616.0000279999998
 21
354.0000000000034
 31
0.0
  0
LINE
  5
253
330
1F
100
AcDbEntity
  8
Ｓ_１_１
  6
CONTINUOUS
 62
     3
100
AcDbLine
 10
611.0000279999998
 20
369.9999960000033
 30
0.0
 11
611.0000279999998
 21
354.0000000000034
 31
0.0
  0
LINE
  5
254
330
1F
100
AcDbEntity
  8
Ｓ_１_１
  6
CONTINUOUS
 62
     3
100
AcDbLine
 10
769.2500209999998
 20
435.5439820000033
 30
0.0
 11
769.3549309999999
 21
435.3622720000033
 31
0.0
  0
LINE
  5
255
330
1F
100
AcDbEntity
  8
Ｓ_１_１
  6
CONTINUOUS
 62
     3
100
AcDbLine
 10
769.250017
 20
435.3622630000034
 30
0.0
 11
783.5000149999998
 21
435.3622630000034
 31
0.0
  0
LINE
  5
256
330
1F
100
AcDbEntity
  8
Ｓ_１_１
  6
CONTINUOUS
 62
     3
100
AcDbLine
 10
769.250017
 20
434.8622710000034
 30
0.0
 11
783.000017
 21
434.8622710000034
 31
0.0
  0
LINE
  5
257
330
1F
100
AcDbEntity
  8
Ｓ_１_１
  6
CONTINUOUS
 62
     3
100
AcDbLine
 10
765.7500129999997
 20
438.3622680000034
 30
0.0
 11
769.250017
 21
438.3622680000034
 31
0.0
  0
LINE
  5
258
330
1F
100
AcDbEntity
  8
Ｓ_１_１
  6
CONTINUOUS
 62
     3
100
AcDbLine
 10
765.7500129999997
 20
438.3622680000034
 30
0.0
 11
765.7500129999997
 21
434.8622710000034
 31
0.0
  0
LINE
  5
259
330
1F
100
AcDbEntity
  8
Ｓ_１_１
  6
CONTINUOUS
 62
     3
100
AcDbLine
 10
769.250017
 20
438.3622680000034
 30
0.0
 11
769.250017
 21
434.8622710000034
 31
0.0
  0
LINE
  5
25A
330
1F
100
AcDbEntity
  8
Ｓ_１_１
  6
CONTINUOUS
 62
     3
100
AcDbLine
 10
752.0000139999997
 20
432.3622550000034
 30
0.0
 11
752.5000309999998
 21
431.8622380000033
 31
0.0
  0
LINE
  5
25B
330
1F
100
AcDbEntity
  8
Ｓ_１_１
  6
CONTINUOUS
 62
     3
100
AcDbLine
 10
752.0000279999997
 20
433.3622480000034
 30
0.0
 11
752.5000259999997
 21
433.8622470000033
 31
0.0
  0
LINE
  5
25C
330
1F
100
AcDbEntity
  8
Ｓ_１_１
  6
CONTINUOUS
 62
     3
100
AcDbLine
 10
782.5000169999998
 20
431.8622650000034
 30
0.0
 11
783.0000059999998
 21
432.3622550000034
 31
0.0
  0
LINE
  5
25D
330
1F
100
AcDbEntity
  8
Ｓ_１_１
  6
CONTINUOUS
 62
     3
100
AcDbLine
 10
782.5000079999998
 20
433.8622510000033
 30
0.0
 11
783.0000059999998
 21
433.3622520000033
 31
0.0
  0
LINE
  5
25E
330
1F
100
AcDbEntity
  8
Ｓ_１_１
  6
CONTINUOUS
 62
     3
100
AcDbLine
 10
780.500017
 20
431.8622660000033
 30
0.0
 11
782.500015
 21
431.8622660000033
 31
0.0
  0
LINE
  5
25F
330
1F
100
AcDbEntity
  8
Ｓ_１_１
  6
CONTINUOUS
 62
     3
100
AcDbLine
 10
780.500017
 20
433.8622730000034
 30
0.0
 11
782.500015
 21
433.8622730000034
 31
0.0
  0
LINE
  5
260
330
1F
100
AcDbEntity
  8
Ｓ_１_１
  6
CONTINUOUS
 62
     3
100
AcDbLine
 10
752.5000189999998
 20
433.8622730000034
 30
0.0
 11
754.5000139999997
 21
433.8622730000034
 31
0.0
  0
LINE
  5
261
330
1F
100
AcDbEntity
  8
Ｓ_１_１
  6
CONTINUOUS
 62
     3
100
AcDbLine
 10
752.5000189999998
 20
431.8622660000033
 30
0.0
 11
754.5000139999997
 21
431.8622660000033
 31
0.0
  0
LINE
  5
262
330
1F
100
AcDbEntity
  8
Ｓ_１_１
  6
CONTINUOUS
 62
     3
100
AcDbLine
 10
752.0000139999997
 20
433.3622680000033
 30
0.0
 11
752.0000139999997
 21
432.3622710000034
 31
0.0
  0
LINE
  5
263
330
1F
100
AcDbEntity
  8
Ｓ_１_１
  6
CONTINUOUS
 62
     3
100
AcDbLine
 10
783.000017
 20
433.3622680000033
 30
0.0
 11
783.000017
 21
432.3622710000034
 31
0.0
  0
LINE
  5
264
330
1F
100
AcDbEntity
  8
Ｓ_１_１
  6
CONTINUOUS
 62
     3
100
AcDbLine
 10
782.9655969999999
 20
451.3622650000034
 30
0.0
 11
783.5000169999998
 21
452.2879070000033
 31
0.0
  0
LINE
  5
265
330
1F
100
AcDbEntity
  8
Ｓ_１_１
  6
CONTINUOUS
 62
     3
100
AcDbLine
 10
765.6450849999999
 20
435.3622710000034
 30
0.0
 11
765.7500139999997
 21
435.5440140000034
 31
0.0
  0
LINE
  5
266
330
1F
100
AcDbEntity
  8
Ｓ_１_１
  6
CONTINUOUS
 62
     3
100
AcDbLine
 10
641.5000199999997
 20
358.4999940000033
 30
0.0
 11
641.5000199999997
 21
351.5000000000034
 31
0.0
  0
LINE
  5
267
330
1F
100
AcDbEntity
  8
Ｓ_１_１
  6
CONTINUOUS
 62
     3
100
AcDbLine
 10
653.5000269999998
 20
358.4999940000033
 30
0.0
 11
653.5000269999998
 21
351.5000000000034
 31
0.0
  0
LINE
  5
268
330
1F
100
AcDbEntity
  8
Ｓ_１_１
  6
CONTINUOUS
 62
     3
100
AcDbLine
 10
653.5000269999998
 20
358.4999940000033
 30
0.0
 11
641.5000199999997
 21
358.4999940000033
 31
0.0
  0
LINE
  5
269
330
1F
100
AcDbEntity
  8
Ｓ_１_１
  6
CONTINUOUS
 62
     3
100
AcDbLine
 10
642.0773869999997
 20
359.4999920000033
 30
0.0
 11
652.9226849999998
 21
359.4999920000033
 31
0.0
  0
LINE
  5
26A
330
1F
100
AcDbEntity
  8
Ｓ_１_１
  6
CONTINUOUS
 62
     3
100
AcDbLine
 10
653.5000349999998
 20
358.4999880000033
 30
0.0
 11
652.9226799999999
 21
359.4999950000033
 31
0.0
  0
LINE
  5
26B
330
1F
100
AcDbEntity
  8
Ｓ_１_１
  6
CONTINUOUS
 62
     3
100
AcDbLine
 10
641.5000309999997
 20
358.4999970000033
 30
0.0
 11
642.0773819999997
 21
359.4999980000034
 31
0.0
  0
LINE
  5
26C
330
1F
100
AcDbEntity
  8
Ｓ_１_１
  6
CONTINUOUS
 62
     3
100
AcDbLine
 10
751.5000149999998
 20
458.8622720000034
 30
0.0
 11
783.5000149999998
 21
458.8622720000034
 31
0.0
  0
LINE
  5
26D
330
1F
100
AcDbEntity
  8
Ｓ_１_１
  6
CONTINUOUS
 62
     3
100
AcDbLine
 10
751.5000149999998
 20
451.3622720000034
 30
0.0
 11
783.5000149999998
 21
451.3622720000034
 31
0.0
  0
LINE
  5
26E
330
1F
100
AcDbEntity
  8
Ｓ_１_１
  6
CONTINUOUS
 62
     3
100
AcDbLine
 10
751.5000149999998
 20
435.3622630000034
 30
0.0
 11
765.7500129999997
 21
435.3622630000034
 31
0.0
  0
LINE
  5
26F
330
1F
100
AcDbEntity
  8
Ｓ_１_１
  6
CONTINUOUS
 62
     3
100
AcDbLine
 10
783.5000149999998
 20
442.3622700000034
 30
0.0
 11
751.5000149999998
 21
442.3622700000034
 31
0.0
  0
LINE
  5
270
330
1F
100
AcDbEntity
  8
Ｓ_１_１
  6
CONTINUOUS
 62
     3
100
AcDbLine
 10
783.0000039999999
 20
434.8622770000034
 30
0.0
 11
783.5000029999999
 21
435.3622750000034
 31
0.0
  0
LINE
  5
271
330
1F
100
AcDbEntity
  8
Ｓ_１_１
  6
CONTINUOUS
 62
     3
100
AcDbLine
 10
751.5000129999999
 20
435.3622710000034
 30
0.0
 11
752.0000029999998
 21
434.8622810000033
 31
0.0
  0
LINE
  5
272
330
1F
100
AcDbEntity
  8
Ｓ_１_１
  6
CONTINUOUS
 62
     3
100
AcDbLine
 10
783.5000149999998
 20
442.3622700000034
 30
0.0
 11
783.5000149999998
 21
435.3622630000034
 31
0.0
  0
LINE
  5
273
330
1F
100
AcDbEntity
  8
Ｓ_１_１
  6
CONTINUOUS
 62
     3
100
AcDbLine
 10
751.5000149999998
 20
442.3622700000034
 30
0.0
 11
751.5000149999998
 21
435.3622630000034
 31
0.0
  0
LINE
  5
274
330
1F
100
AcDbEntity
  8
Ｓ_１_１
  6
CONTINUOUS
 62
     3
100
AcDbLine
 10
751.5000029999999
 20
451.3622750000034
 30
0.0
 11
752.0000109999999
 21
450.8622680000034
 31
0.0
  0
LINE
  5
275
330
1F
100
AcDbEntity
  8
Ｓ_１_１
  6
CONTINUOUS
 62
     3
100
AcDbLine
 10
783.0000139999999
 20
442.8622800000034
 30
0.0
 11
783.5000219999997
 21
442.3622730000034
 31
0.0
  0
LINE
  5
276
330
1F
100
AcDbEntity
  8
Ｓ_１_１
  6
CONTINUOUS
 62
     3
100
AcDbLine
 10
783.0000049999999
 20
450.8622720000034
 30
0.0
 11
783.5000039999998
 21
451.3622710000034
 31
0.0
  0
LINE
  5
277
330
1F
100
AcDbEntity
  8
Ｓ_１_１
  6
CONTINUOUS
 62
     3
100
AcDbLine
 10
751.5000169999998
 20
442.3622640000033
 30
0.0
 11
752.0000199999996
 21
442.8622670000034
 31
0.0
  0
LINE
  5
278
330
1F
100
AcDbEntity
  8
Ｓ_１_１
  6
CONTINUOUS
 62
     3
100
AcDbLine
 10
752.0000139999997
 20
450.8622670000034
 30
0.0
 11
783.000017
 21
450.8622670000034
 31
0.0
  0
LINE
  5
279
330
1F
100
AcDbEntity
  8
Ｓ_１_１
  6
CONTINUOUS
 62
     3
100
AcDbLine
 10
752.0000139999997
 20
442.8622630000034
 30
0.0
 11
783.000017
 21
442.8622630000034
 31
0.0
  0
LINE
  5
27A
330
1F
100
AcDbEntity
  8
Ｓ_１_１
  6
CONTINUOUS
 62
     3
100
AcDbLine
 10
783.000017
 20
450.8622670000034
 30
0.0
 11
783.000017
 21
442.8622630000034
 31
0.0
  0
LINE
  5
27B
330
1F
100
AcDbEntity
  8
Ｓ_１_１
  6
CONTINUOUS
 62
     3
100
AcDbLine
 10
752.0000139999997
 20
450.8622670000034
 30
0.0
 11
752.0000139999997
 21
442.8622630000034
 31
0.0
  0
LINE
  5
27C
330
1F
100
AcDbEntity
  8
Ｓ_１_１
  6
CONTINUOUS
 62
     3
100
AcDbLine
 10
780.5000129999999
 20
461.8622690000034
 30
0.0
 11
783.5000139999997
 21
458.8622680000034
 31
0.0
  0
LINE
  5
27D
330
1F
100
AcDbEntity
  8
Ｓ_１_１
  6
CONTINUOUS
 62
     3
100
AcDbLine
 10
754.5000259999997
 20
461.8622690000034
 30
0.0
 11
751.5000339999997
 21
458.8622770000034
 31
0.0
  0
LINE
  5
27E
330
1F
100
AcDbEntity
  8
Ｓ_１_１
  6
CONTINUOUS
 62
     3
100
AcDbLine
 10
754.5000139999997
 20
461.8622770000034
 30
0.0
 11
780.500017
 21
461.8622770000034
 31
0.0
  0
LINE
  5
27F
330
1F
100
AcDbEntity
  8
Ｓ_１_１
  6
CONTINUOUS
 62
     3
100
AcDbLine
 10
783.5000149999998
 20
458.8622720000034
 30
0.0
 11
783.5000149999998
 21
451.3622720000034
 31
0.0
  0
LINE
  5
280
330
1F
100
AcDbEntity
  8
Ｓ_１_１
  6
CONTINUOUS
 62
     3
100
AcDbLine
 10
751.5000149999998
 20
458.8622720000034
 30
0.0
 11
751.5000149999998
 21
451.3622720000034
 31
0.0
  0
LINE
  5
281
330
1F
100
AcDbEntity
  8
Ｓ_１_１
  6
CONTINUOUS
 62
     3
100
AcDbLine
 10
779.5000159999997
 20
462.3622570000035
 30
0.0
 11
779.5000159999997
 21
461.8622770000034
 31
0.0
  0
LINE
  5
282
330
1F
100
AcDbEntity
  8
Ｓ_１_１
  6
CONTINUOUS
 62
     3
100
AcDbLine
 10
755.5000179999997
 20
462.3622570000035
 30
0.0
 11
755.5000179999997
 21
461.8622770000034
 31
0.0
  0
LINE
  5
283
330
1F
100
AcDbEntity
  8
Ｓ_１_１
  6
CONTINUOUS
 62
     3
100
AcDbLine
 10
752.0000139999997
 20
434.8622710000034
 30
0.0
 11
765.7500129999997
 21
434.8622710000034
 31
0.0
  0
LINE
  5
284
330
1F
100
AcDbEntity
  8
Ｓ_１_１
  6
CONTINUOUS
 62
     3
100
AcDbLine
 10
755.5000179999997
 20
462.3622570000035
 30
0.0
 11
779.5000159999997
 21
462.3622570000035
 31
0.0
  0
LINE
  5
285
330
1F
100
AcDbEntity
  8
Ｓ_１_１
  6
CONTINUOUS
 62
     3
100
AcDbLine
 10
816.0000139999997
 20
371.4999990000033
 30
0.0
 11
816.0000139999997
 21
352.4999970000033
 31
0.0
  0
LINE
  5
286
330
1F
100
AcDbEntity
  8
Ｓ_１_１
  6
CONTINUOUS
 62
     3
100
AcDbLine
 10
791.5000249999998
 20
358.4999950000033
 30
0.0
 11
792.0773759999997
 21
359.4999960000033
 31
0.0
  0
LINE
  5
287
330
1F
100
AcDbEntity
  8
Ｓ_１_１
  6
CONTINUOUS
 62
     3
100
AcDbLine
 10
803.5000249999996
 20
358.4999880000033
 30
0.0
 11
802.9226709999998
 21
359.4999960000033
 31
0.0
  0
LINE
  5
288
330
1F
100
AcDbEntity
  8
Ｓ_１_１
  6
CONTINUOUS
 62
     3
100
AcDbLine
 10
803.5000139999997
 20
358.4999940000033
 30
0.0
 11
791.5000169999998
 21
358.4999940000033
 31
0.0
  0
LINE
  5
289
330
1F
100
AcDbEntity
  8
Ｓ_１_１
  6
CONTINUOUS
 62
     3
100
AcDbLine
 10
792.0773779999997
 20
359.4999920000033
 30
0.0
 11
802.9226679999997
 21
359.4999920000033
 31
0.0
  0
LINE
  5
28A
330
1F
100
AcDbEntity
  8
Ｓ_１_１
  6
CONTINUOUS
 62
     3
100
AcDbLine
 10
791.5000169999998
 20
358.4999940000033
 30
0.0
 11
791.5000169999998
 21
351.5000000000034
 31
0.0
  0
LINE
  5
28B
330
1F
100
AcDbEntity
  8
Ｓ_１_１
  6
CONTINUOUS
 62
     3
100
AcDbLine
 10
803.5000139999997
 20
358.4999940000033
 30
0.0
 11
803.5000139999997
 21
351.5000000000034
 31
0.0
  0
LINE
  5
28C
330
1F
100
AcDbEntity
  8
Ｓ_１_１
  6
CONTINUOUS
 62
     3
100
AcDbLine
 10
790.0000139999997
 20
346.9999920000033
 30
0.0
 11
790.0000139999997
 21
336.1421310000033
 31
0.0
  0
LINE
  5
28D
330
1F
100
AcDbEntity
  8
Ｓ_１_１
  6
CONTINUOUS
 62
     3
100
AcDbLine
 10
805.000015
 20
346.9999920000033
 30
0.0
 11
805.000015
 21
313.3012310000033
 31
0.0
  0
LINE
  5
28E
330
1F
100
AcDbEntity
  8
Ｓ_１_１
  6
CONTINUOUS
 62
     3
100
AcDbLine
 10
655.0000169999998
 20
346.9999920000033
 30
0.0
 11
655.0000169999998
 21
336.1421310000033
 31
0.0
  0
LINE
  5
28F
330
1F
100
AcDbEntity
  8
Ｓ_１_１
  6
CONTINUOUS
 62
     3
100
AcDbLine
 10
640.0000169999998
 20
346.9999920000033
 30
0.0
 11
640.0000169999998
 21
313.3012310000033
 31
0.0
  0
LINE
  5
290
330
1F
100
AcDbEntity
  8
Ｓ_１_１
  6
CONTINUOUS
 62
     3
100
AcDbLine
 10
629.0000199999997
 20
366.9999910000033
 30
0.0
 11
640.0000169999998
 21
366.9999910000033
 31
0.0
  0
LINE
  5
291
330
1F
100
AcDbEntity
  8
Ｓ_１_１
  6
CONTINUOUS
 62
     3
100
AcDbLine
 10
629.0000199999997
 20
356.9999920000033
 30
0.0
 11
641.5000199999997
 21
356.9999920000033
 31
0.0
  0
LINE
  5
292
330
1F
100
AcDbEntity
  8
Ｓ_１_１
  6
CONTINUOUS
 62
     3
100
AcDbLine
 10
829.0000139999997
 20
371.4999990000033
 30
0.0
 11
829.0000139999997
 21
352.4999970000033
 31
0.0
  0
LINE
  5
293
330
1F
100
AcDbEntity
  8
Ｓ_１_１
  6
CONTINUOUS
 62
     3
100
AcDbLine
 10
640.0000169999998
 20
351.5000000000034
 30
0.0
 11
640.0000169999998
 21
346.9999920000033
 31
0.0
  0
LINE
  5
294
330
1F
100
AcDbEntity
  8
Ｓ_１_１
  6
CONTINUOUS
 62
     3
100
AcDbLine
 10
805.000015
 20
351.5000000000034
 30
0.0
 11
805.000015
 21
346.9999920000033
 31
0.0
  0
LINE
  5
295
330
1F
100
AcDbEntity
  8
Ｓ_１_１
  6
CONTINUOUS
 62
     3
100
AcDbLine
 10
640.0000169999998
 20
351.5000000000034
 30
0.0
 11
805.000015
 21
351.5000000000034
 31
0.0
  0
LINE
  5
296
330
1F
100
AcDbEntity
  8
Ｓ_１_１
  6
CONTINUOUS
 62
     3
100
AcDbLine
 10
828.1515039999997
 20
372.9696490000033
 30
0.0
 11
816.8485249999998
 21
372.9696490000033
 31
0.0
  0
LINE
  5
297
330
1F
100
AcDbEntity
  8
Ｓ_１_１
  6
CONTINUOUS
 62
     3
100
AcDbLine
 10
828.1515039999997
 20
351.0303340000033
 30
0.0
 11
816.8485249999998
 21
351.0303340000033
 31
0.0
  0
LINE
  5
298
330
1F
100
AcDbEntity
  8
Ｓ_１_１
  6
CONTINUOUS
 62
     3
100
AcDbLine
 10
829.0000049999998
 20
371.5000020000034
 30
0.0
 11
828.1515019999997
 21
372.9696520000034
 31
0.0
  0
LINE
  5
299
330
1F
100
AcDbEntity
  8
Ｓ_１_１
  6
CONTINUOUS
 62
     3
100
AcDbLine
 10
816.8485159999998
 20
351.0303400000033
 30
0.0
 11
816.0000099999997
 21
352.4999960000034
 31
0.0
  0
LINE
  5
29A
330
1F
100
AcDbEntity
  8
Ｓ_１_１
  6
CONTINUOUS
 62
     3
100
AcDbLine
 10
829.0000029999999
 20
352.4999850000033
 30
0.0
 11
828.1514999999997
 21
351.0303340000033
 31
0.0
  0
LINE
  5
29B
330
1F
100
AcDbEntity
  8
Ｓ_１_１
  6
CONTINUOUS
 62
     3
100
AcDbLine
 10
816.8485179999999
 20
372.9696520000034
 30
0.0
 11
816.0000079999998
 21
371.4999910000033
 31
0.0
  0
LINE
  5
29C
330
1F
100
AcDbEntity
  8
Ｓ_１_１
  6
CONTINUOUS
 62
     3
100
AcDbLine
 10
828.1515039999997
 20
367.4848270000034
 30
0.0
 11
816.8485249999998
 21
367.4848270000034
 31
0.0
  0
LINE
  5
29D
330
1F
100
AcDbEntity
  8
Ｓ_１_１
  6
CONTINUOUS
 62
     3
100
AcDbLine
 10
828.1515039999997
 20
356.5151690000034
 30
0.0
 11
816.8485249999998
 21
356.5151690000034
 31
0.0
  0
LINE
  5
29E
330
1F
100
AcDbEntity
  8
Ｓ_１_１
  6
CONTINUOUS
 62
     3
100
AcDbLine
 10
836.0000129999997
 20
368.9999990000033
 30
0.0
 11
829.0000139999997
 21
368.9999990000033
 31
0.0
  0
LINE
  5
29F
330
1F
100
AcDbEntity
  8
Ｓ_１_１
  6
CONTINUOUS
 62
     3
100
AcDbLine
 10
836.0000129999997
 20
354.9999970000033
 30
0.0
 11
829.0000139999997
 21
354.9999970000033
 31
0.0
  0
LINE
  5
2A0
330
1F
100
AcDbEntity
  8
Ｓ_１_１
  6
CONTINUOUS
 62
     3
100
AcDbLine
 10
816.0000139999997
 20
356.9999920000033
 30
0.0
 11
803.5000139999997
 21
356.9999920000033
 31
0.0
  0
LINE
  5
2A1
330
1F
100
AcDbEntity
  8
Ｓ_１_１
  6
CONTINUOUS
 62
     3
100
AcDbLine
 10
816.0000139999997
 20
366.9999910000033
 30
0.0
 11
805.000015
 21
366.9999910000033
 31
0.0
  0
LINE
  5
2A2
330
1F
100
AcDbEntity
  8
Ｓ_１_１
  6
CONTINUOUS
 62
     3
100
AcDbLine
 10
834.0000139999997
 20
369.9999960000033
 30
0.0
 11
834.0000139999997
 21
354.0000000000034
 31
0.0
  0
LINE
  5
2A3
330
1F
100
AcDbEntity
  8
Ｓ_１_１
  6
CONTINUOUS
 62
     3
100
AcDbLine
 10
834.0000139999997
 20
354.0000000000034
 30
0.0
 11
829.0000139999997
 21
354.0000000000034
 31
0.0
  0
LINE
  5
2A4
330
1F
100
AcDbEntity
  8
Ｓ_１_１
  6
CONTINUOUS
 62
     3
100
AcDbLine
 10
834.0000139999997
 20
369.9999960000033
 30
0.0
 11
829.0000139999997
 21
369.9999960000033
 31
0.0
  0
LINE
  5
2A5
330
1F
100
AcDbEntity
  8
Ｓ_１_１
  6
CONTINUOUS
 62
     3
100
AcDbLine
 10
609.0000209999998
 20
354.9999970000033
 30
0.0
 11
616.0000279999998
 21
354.9999970000033
 31
0.0
  0
LINE
  5
2A6
330
1F
100
AcDbEntity
  8
Ｓ_１_１
  6
CONTINUOUS
 62
     3
100
AcDbLine
 10
609.0000209999998
 20
368.9999990000033
 30
0.0
 11
616.0000279999998
 21
368.9999990000033
 31
0.0
  0
LINE
  5
2A7
330
1F
100
AcDbEntity
  8
Ｓ_１_１
  6
CONTINUOUS
 62
     3
100
AcDbLine
 10
616.8485309999999
 20
356.5151690000034
 30
0.0
 11
628.1515169999998
 21
356.5151690000034
 31
0.0
  0
LINE
  5
2A8
330
1F
100
AcDbEntity
  8
Ｓ_１_１
  6
CONTINUOUS
 62
     3
100
AcDbLine
 10
616.8485309999999
 20
367.4848270000034
 30
0.0
 11
628.1515169999998
 21
367.4848270000034
 31
0.0
  0
LINE
  5
2A9
330
1F
100
AcDbEntity
  8
Ｓ_１_１
  6
CONTINUOUS
 62
     3
100
AcDbLine
 10
628.1515159999999
 20
372.9696520000034
 30
0.0
 11
629.0000309999998
 21
371.4999800000033
 31
0.0
  0
LINE
  5
2AA
330
1F
100
AcDbEntity
  8
Ｓ_１_１
  6
CONTINUOUS
 62
     3
100
AcDbLine
 10
616.0000359999998
 20
352.4999880000033
 30
0.0
 11
616.8485389999998
 21
351.0303380000033
 31
0.0
  0
LINE
  5
2AB
330
1F
100
AcDbEntity
  8
Ｓ_１_１
  6
CONTINUOUS
 62
     3
100
AcDbLine
 10
628.1515259999999
 20
351.0303410000033
 30
0.0
 11
629.0000329999998
 21
352.4999980000034
 31
0.0
  0
LINE
  5
2AC
330
1F
100
AcDbEntity
  8
Ｓ_１_１
  6
CONTINUOUS
 62
     3
100
AcDbLine
 10
616.0000289999999
 20
371.5000010000033
 30
0.0
 11
616.8485319999999
 21
372.9696520000034
 31
0.0
  0
LINE
  5
2AD
330
1F
100
AcDbEntity
  8
Ｓ_１_１
  6
CONTINUOUS
 62
     3
100
AcDbLine
 10
616.8485309999999
 20
351.0303340000033
 30
0.0
 11
628.1515169999998
 21
351.0303340000033
 31
0.0
  0
LINE
  5
2AE
330
1F
100
AcDbEntity
  8
Ｓ_１_１
  6
CONTINUOUS
 62
     3
100
AcDbLine
 10
616.8485309999999
 20
372.9696490000033
 30
0.0
 11
628.1515169999998
 21
372.9696490000033
 31
0.0
  0
LINE
  5
2AF
330
1F
100
AcDbEntity
  8
Ｓ_１_１
  6
CONTINUOUS
 62
     3
100
AcDbLine
 10
616.0000279999998
 20
371.4999990000033
 30
0.0
 11
616.0000279999998
 21
352.4999970000033
 31
0.0
  0
LINE
  5
2B0
330
1F
100
AcDbEntity
  8
Ｓ_１_１
  6
CONTINUOUS
 62
     3
100
AcDbLine
 10
629.0000199999997
 20
371.4999990000033
 30
0.0
 11
629.0000199999997
 21
352.4999970000033
 31
0.0
  0
LINE
  5
2B1
330
1F
100
AcDbEntity
  8
Ｓ_１_１
  6
CONTINUOUS
 62
     3
100
AcDbLine
 10
580.5000249999998
 20
346.9999920000033
 30
0.0
 11
599.5000139999999
 21
346.9999920000033
 31
0.0
  0
LINE
  5
2B2
330
1F
100
AcDbEntity
  8
Ｓ_１_１
  6
CONTINUOUS
 62
     3
100
AcDbLine
 10
516.0000319999998
 20
230.0000020000033
 30
0.0
 11
516.0000319999998
 21
309.9999920000033
 31
0.0
  0
LINE
  5
2B3
330
1F
100
AcDbEntity
  8
Ｓ_１_１
  6
CONTINUOUS
 62
     3
100
AcDbLine
 10
516.0000369999999
 20
230.0000040000033
 30
0.0
 11
513.0000379999998
 21
231.7320550000034
 31
0.0
  0
LINE
  5
2B4
330
1F
100
AcDbEntity
  8
Ｓ_１_１
  6
CONTINUOUS
 62
     3
100
AcDbLine
 10
516.0000319999998
 20
230.0000020000033
 30
0.0
 11
520.0000219999998
 21
230.0000020000033
 31
0.0
  0
LINE
  5
2B5
330
1F
100
AcDbEntity
  8
Ｓ_１_１
  6
CONTINUOUS
 62
     3
100
AcDbLine
 10
516.0000279999998
 20
310.0000100000034
 30
0.0
 11
513.0000289999999
 21
308.2679590000033
 31
0.0
  0
LINE
  5
2B6
330
1F
100
AcDbEntity
  8
Ｓ_１_１
  6
CONTINUOUS
 62
     3
100
AcDbLine
 10
513.0000269999999
 20
308.2679420000034
 30
0.0
 11
513.0000269999999
 21
231.7320540000034
 31
0.0
  0
LINE
  5
2B7
330
1F
100
AcDbEntity
  8
Ｓ_１_１
  6
CONTINUOUS
 62
     3
100
AcDbLine
 10
509.0000379999998
 20
200.0000030000034
 30
0.0
 11
509.0000379999998
 21
339.9999980000034
 31
0.0
  0
LINE
  5
2B8
330
1F
100
AcDbEntity
  8
Ｓ_１_１
  6
CONTINUOUS
 62
     3
100
AcDbLine
 10
516.0000319999998
 20
309.9999920000033
 30
0.0
 11
520.0000219999998
 21
309.9999920000033
 31
0.0
  0
LINE
  5
2B9
330
1F
100
AcDbEntity
  8
Ｓ_１_１
  6
CONTINUOUS
 62
     3
100
AcDbLine
 10
899.0000089999996
 20
339.9999980000034
 30
0.0
 11
899.0000089999996
 21
200.0000030000034
 31
0.0
  0
LINE
  5
2BA
330
1F
100
AcDbEntity
  8
Ｓ_１_１
  6
CONTINUOUS
 62
     3
100
AcDbLine
 10
521.0000319999998
 20
200.0000030000034
 30
0.0
 11
521.0000319999998
 21
339.9999980000034
 31
0.0
  0
LINE
  5
2BB
330
1F
100
AcDbEntity
  8
Ｓ_１_１
  6
CONTINUOUS
 62
     3
100
AcDbLine
 10
481.0000339999998
 20
200.0000030000034
 30
0.0
 11
481.0000339999998
 21
339.9999980000034
 31
0.0
  0
LINE
  5
2BC
330
1F
100
AcDbEntity
  8
Ｓ_１_１
  6
CONTINUOUS
 62
     3
100
AcDbLine
 10
520.0000249999999
 20
201.0000000000034
 30
0.0
 11
521.0000309999999
 21
199.9999930000033
 31
0.0
  0
LINE
  5
2BD
330
1F
100
AcDbEntity
  8
Ｓ_１_１
  6
CONTINUOUS
 62
     3
100
AcDbLine
 10
520.0000369999999
 20
338.9999900000033
 30
0.0
 11
521.0000349999999
 21
339.9999880000033
 31
0.0
  0
LINE
  5
2BE
330
1F
100
AcDbEntity
  8
Ｓ_１_１
  6
CONTINUOUS
 62
     3
100
AcDbLine
 10
509.0000109999999
 20
340.0000060000034
 30
0.0
 11
510.0000259999999
 21
338.9999910000033
 31
0.0
  0
LINE
  5
2BF
330
1F
100
AcDbEntity
  8
Ｓ_１_１
  6
CONTINUOUS
 62
     3
100
AcDbLine
 10
509.0000169999999
 20
200.0000020000033
 30
0.0
 11
510.0000139999999
 21
200.9999990000034
 31
0.0
  0
LINE
  5
2C0
330
1F
100
AcDbEntity
  8
Ｓ_１_１
  6
CONTINUOUS
 62
     3
100
AcDbLine
 10
521.0000319999998
 20
339.9999980000034
 30
0.0
 11
640.0000169999998
 21
339.9999980000034
 31
0.0
  0
LINE
  5
2C1
330
1F
100
AcDbEntity
  8
Ｓ_１_１
  6
CONTINUOUS
 62
     3
100
AcDbLine
 10
521.0000319999998
 20
200.0000030000034
 30
0.0
 11
899.0000089999996
 21
200.0000030000034
 31
0.0
  0
LINE
  5
2C2
330
1F
100
AcDbEntity
  8
Ｓ_１_１
  6
CONTINUOUS
 62
     3
100
AcDbLine
 10
899.0000089999996
 20
200.0000000000034
 30
0.0
 11
900.0000089999997
 21
201.0000000000034
 31
0.0
  0
LINE
  5
2C3
330
1F
100
AcDbEntity
  8
Ｓ_１_１
  6
CONTINUOUS
 62
     3
100
AcDbLine
 10
899.0000069999999
 20
339.9999950000033
 30
0.0
 11
900.0000049999996
 21
338.9999970000032
 31
0.0
  0
LINE
  5
2C4
330
1F
100
AcDbEntity
  8
Ｓ_１_１
  6
CONTINUOUS
 62
     3
100
AcDbLine
 10
480.0000209999999
 20
339.0000190000034
 30
0.0
 11
481.0000189999998
 21
340.0000160000034
 31
0.0
  0
LINE
  5
2C5
330
1F
100
AcDbEntity
  8
Ｓ_１_１
  6
CONTINUOUS
 62
     3
100
AcDbLine
 10
481.0000219999998
 20
199.9999840000034
 30
0.0
 11
480.0000249999999
 21
200.9999820000033
 31
0.0
  0
LINE
  5
2C6
330
1F
100
AcDbEntity
  8
Ｓ_１_１
  6
CONTINUOUS
 62
     3
100
AcDbLine
 10
480.0000239999998
 20
338.9999870000033
 30
0.0
 11
480.0000239999998
 21
201.0000040000033
 31
0.0
  0
LINE
  5
2C7
330
1F
100
AcDbEntity
  8
Ｓ_１_１
  6
CONTINUOUS
 62
     3
100
AcDbLine
 10
510.0000219999998
 20
338.9999870000033
 30
0.0
 11
510.0000219999998
 21
201.0000040000033
 31
0.0
  0
LINE
  5
2C8
330
1F
100
AcDbEntity
  8
Ｓ_１_１
  6
CONTINUOUS
 62
     3
100
AcDbLine
 10
481.0000339999998
 20
200.0000030000034
 30
0.0
 11
509.0000379999998
 21
200.0000030000034
 31
0.0
  0
LINE
  5
2C9
330
1F
100
AcDbEntity
  8
Ｓ_１_１
  6
CONTINUOUS
 62
     3
100
AcDbLine
 10
481.0000339999998
 20
339.9999980000034
 30
0.0
 11
509.0000379999998
 21
339.9999980000034
 31
0.0
  0
LINE
  5
2CA
330
1F
100
AcDbEntity
  8
Ｓ_１_１
  6
CONTINUOUS
 62
     3
100
AcDbLine
 10
520.0000219999998
 20
338.9999870000033
 30
0.0
 11
520.0000219999998
 21
201.0000040000033
 31
0.0
  0
LINE
  5
2CB
330
1F
100
AcDbEntity
  8
Ｓ_１_１
  6
CONTINUOUS
 62
     3
100
AcDbLine
 10
899.9999999999998
 20
338.9999870000033
 30
0.0
 11
899.9999999999998
 21
201.0000040000033
 31
0.0
  0
LINE
  5
2CC
330
1F
100
AcDbEntity
  8
Ｓ_１_１
  6
EXLTYPE2
 62
     1
100
AcDbLine
 10
468.500184
 20
270.0000000000033
 30
0.0
 11
908.5001840000001
 21
270.0000000000034
 31
0.0
  0
CIRCLE
  5
2CD
330
1F
100
AcDbEntity
  8
Ｓ_１_１
  6
EXLTYPE2
 62
     1
100
AcDbCircle
 10
224.9999999999998
 20
270.0000000000033
 30
0.0
 40
30.99999600000001
  0
CIRCLE
  5
2CE
330
1F
100
AcDbEntity
  8
Ｓ_１_１
  6
EXLTYPE2
 62
     1
100
AcDbCircle
 10
224.9999999999998
 20
270.0000000000033
 30
0.0
 40
43.99999800000002
  0
CIRCLE
  5
2CF
330
1F
100
AcDbEntity
  8
Ｓ_１_１
  6
EXLTYPE2
 62
     1
100
AcDbCircle
 10
224.9999999999998
 20
270.0000000000033
 30
0.0
 40
55.99999500000001
  0
LINE
  5
2D0
330
1F
100
AcDbEntity
  8
Ｓ_１_１
  6
EXLTYPE2
 62
     1
100
AcDbLine
 10
267.4999979999998
 20
338.3145280000034
 30
0.0
 11
267.4999979999998
 21
359.6594240000034
 31
0.0
  0
LINE
  5
2D1
330
1F
100
AcDbEntity
  8
Ｓ_１_１
  6
EXLTYPE2
 62
     1
100
AcDbLine
 10
182.5000009999997
 20
339.5001990000033
 30
0.0
 11
182.5000009999997
 21
359.6594240000034
 31
0.0
  0
LINE
  5
2D2
330
1F
100
AcDbEntity
  8
Ｓ_１_１
  6
EXLTYPE2
 62
     1
100
AcDbLine
 10
233.4999589999998
 20
264.4003620000034
 30
0.0
 11
233.4999589999998
 21
275.2738030000033
 31
0.0
  0
LINE
  5
2D3
330
1F
100
AcDbEntity
  8
Ｓ_１_１
  6
EXLTYPE2
 62
     1
100
AcDbLine
 10
216.4999899999998
 20
264.4003620000034
 30
0.0
 11
216.4999899999998
 21
275.2738030000033
 31
0.0
  0
LINE
  5
2D4
330
1F
100
AcDbEntity
  8
Ｓ_１_１
  6
EXLTYPE2
 62
     1
100
AcDbLine
 10
320.9999549999998
 20
241.9749790000033
 30
0.0
 11
320.9999549999998
 21
295.1749890000033
 31
0.0
  0
LINE
  5
2D5
330
1F
100
AcDbEntity
  8
Ｓ_１_１
  6
EXLTYPE2
 62
     1
100
AcDbLine
 10
128.9999929999998
 20
241.9749790000033
 30
0.0
 11
128.9999929999998
 21
295.1749890000033
 31
0.0
  0
LINE
  5
2D6
330
1F
100
AcDbEntity
  8
Ｓ_１_１
  6
EXLTYPE2
 62
     1
100
AcDbLine
 10
105.1249739999997
 20
270.0000000000033
 30
0.0
 11
343.7418569999998
 21
270.0000000000033
 31
0.0
  0
LINE
  5
2D7
330
1F
100
AcDbEntity
  8
Ｓ_１_１
  6
EXLTYPE0
 62
     2
100
AcDbLine
 10
216.0000099999998
 20
376.9999940000033
 30
0.0
 11
233.9999379999997
 21
376.9999940000033
 31
0.0
  0
LINE
  5
2D8
330
1F
100
AcDbEntity
  8
Ｓ_１_１
  6
EXLTYPE0
 62
     2
100
AcDbLine
 10
233.9999379999997
 20
376.9999940000033
 30
0.0
 11
239.9999989999998
 21
376.9999940000033
 31
0.0
  0
LINE
  5
2D9
330
1F
100
AcDbEntity
  8
Ｓ_１_１
  6
EXLTYPE0
 62
     2
100
AcDbLine
 10
209.9999999999998
 20
376.9999940000033
 30
0.0
 11
216.0000099999998
 21
376.9999940000033
 31
0.0
  0
LINE
  5
2DA
330
1F
100
AcDbEntity
  8
Ｓ_１_１
  6
EXLTYPE0
 62
     2
100
AcDbLine
 10
209.9999999999998
 20
349.9999620000034
 30
0.0
 11
209.9999999999998
 21
376.9999940000033
 31
0.0
  0
LINE
  5
2DB
330
1F
100
AcDbEntity
  8
Ｓ_１_１
  6
EXLTYPE0
 62
     2
100
AcDbLine
 10
239.9999989999998
 20
349.9999620000034
 30
0.0
 11
239.9999989999998
 21
376.9999940000033
 31
0.0
  0
LINE
  5
2DC
330
1F
100
AcDbEntity
  8
Ｓ_１_１
  6
EXLTYPE0
 62
     2
100
AcDbLine
 10
313.9999859999997
 20
252.9999870000033
 30
0.0
 11
313.9999859999997
 21
286.9999720000034
 31
0.0
  0
LINE
  5
2DD
330
1F
100
AcDbEntity
  8
Ｓ_１_１
  6
EXLTYPE0
 62
     2
100
AcDbLine
 10
327.9999749999997
 20
252.9999870000033
 30
0.0
 11
327.9999749999997
 21
286.9999720000034
 31
0.0
  0
LINE
  5
2DE
330
1F
100
AcDbEntity
  8
Ｓ_１_１
  6
EXLTYPE0
 62
     2
100
AcDbLine
 10
121.9999729999997
 20
252.9999870000033
 30
0.0
 11
121.9999729999997
 21
286.9999720000034
 31
0.0
  0
LINE
  5
2DF
330
1F
100
AcDbEntity
  8
Ｓ_１_１
  6
EXLTYPE0
 62
     2
100
AcDbLine
 10
136.0000129999997
 20
252.9999870000033
 30
0.0
 11
136.0000129999997
 21
286.9999720000034
 31
0.0
  0
ARC
  5
2E0
330
1F
100
AcDbEntity
  8
Ｓ_１_１
  6
CONTINUOUS
 62
     3
100
AcDbCircle
 10
224.9999999999998
 20
361.0000740000033
 30
0.0
 40
10.5
100
AcDbArc
 50
334.7912250000001
 51
205.208772
  0
ARC
  5
2E1
330
1F
100
AcDbEntity
  8
Ｓ_１_１
  6
CONTINUOUS
 62
     3
100
AcDbCircle
 10
224.9999999999998
 20
361.0000740000033
 30
0.0
 40
9.499999
100
AcDbArc
 50
359.9999970000002
 51
179.999991
  0
CIRCLE
  5
2E2
330
1F
100
AcDbEntity
  8
Ｓ_１_１
  6
CONTINUOUS
 62
     3
100
AcDbCircle
 10
233.4999589999998
 20
270.0000000000033
 30
0.0
 40
2.0
  0
CIRCLE
  5
2E3
330
1F
100
AcDbEntity
  8
Ｓ_１_１
  6
CONTINUOUS
 62
     3
100
AcDbCircle
 10
216.4999899999998
 20
270.0000000000033
 30
0.0
 40
2.0
  0
CIRCLE
  5
2E4
330
1F
100
AcDbEntity
  8
Ｓ_１_１
  6
CONTINUOUS
 62
     3
100
AcDbCircle
 10
224.9999999999998
 20
270.0000000000033
 30
0.0
 40
29.99999900000001
  0
CIRCLE
  5
2E5
330
1F
100
AcDbEntity
  8
Ｓ_１_１
  6
CONTINUOUS
 62
     3
100
AcDbCircle
 10
224.9999999999998
 20
270.0000000000033
 30
0.0
 40
32.0
  0
CIRCLE
  5
2E6
330
1F
100
AcDbEntity
  8
Ｓ_１_１
  6
CONTINUOUS
 62
     3
100
AcDbCircle
 10
224.9999999999998
 20
270.0000000000033
 30
0.0
 40
42.99999699999999
  0
CIRCLE
  5
2E7
330
1F
100
AcDbEntity
  8
Ｓ_１_１
  6
CONTINUOUS
 62
     3
100
AcDbCircle
 10
224.9999999999998
 20
270.0000000000033
 30
0.0
 40
44.99999800000002
  0
CIRCLE
  5
2E8
330
1F
100
AcDbEntity
  8
Ｓ_１_１
  6
CONTINUOUS
 62
     3
100
AcDbCircle
 10
224.9999999999998
 20
270.0000000000033
 30
0.0
 40
56.999999
  0
CIRCLE
  5
2E9
330
1F
100
AcDbEntity
  8
Ｓ_１_１
  6
CONTINUOUS
 62
     3
100
AcDbCircle
 10
224.9999999999998
 20
270.0000000000033
 30
0.0
 40
54.99999800000002
  0
CIRCLE
  5
2EA
330
1F
100
AcDbEntity
  8
Ｓ_１_１
  6
CONTINUOUS
 62
     3
100
AcDbCircle
 10
224.9999999999998
 20
270.0000000000033
 30
0.0
 40
14.999999
  0
CIRCLE
  5
2EB
330
1F
100
AcDbEntity
  8
Ｓ_１_１
  6
CONTINUOUS
 62
     3
100
AcDbCircle
 10
224.9999999999998
 20
270.0000000000033
 30
0.0
 40
16.999999
  0
CIRCLE
  5
2EC
330
1F
100
AcDbEntity
  8
Ｓ_１_１
  6
CONTINUOUS
 62
     3
100
AcDbCircle
 10
224.9999999999998
 20
270.0000000000033
 30
0.0
 40
68.999993
  0
ARC
  5
2ED
330
1F
100
AcDbEntity
  8
Ｓ_１_１
  6
CONTINUOUS
 62
     3
100
AcDbCircle
 10
224.9999999999998
 20
270.0000000000033
 30
0.0
 40
74.999997
100
AcDbArc
 50
346.8990940000001
 51
13.10090100000002
  0
ARC
  5
2EE
330
1F
100
AcDbEntity
  8
Ｓ_１_１
  6
CONTINUOUS
 62
     3
100
AcDbCircle
 10
224.9999999999998
 20
270.0000000000033
 30
0.0
 40
74.999997
100
AcDbArc
 50
166.899101
 51
193.1009090000001
  0
CIRCLE
  5
2EF
330
1F
100
AcDbEntity
  8
Ｓ_１_１
  6
CONTINUOUS
 62
     3
100
AcDbCircle
 10
224.9999999999998
 20
270.0000000000033
 30
0.0
 40
69.999997
  0
LINE
  5
2F0
330
1F
100
AcDbEntity
  8
Ｓ_１_１
  6
CONTINUOUS
 62
     3
100
AcDbLine
 10
234.4999179999998
 20
349.9999620000034
 30
0.0
 11
239.9999989999998
 21
349.9999620000034
 31
0.0
  0
LINE
  5
2F1
330
1F
100
AcDbEntity
  8
Ｓ_１_１
  6
CONTINUOUS
 62
     3
100
AcDbLine
 10
209.9999999999998
 20
349.9999620000034
 30
0.0
 11
215.4998779999997
 21
349.9999620000034
 31
0.0
  0
LINE
  5
2F2
330
1F
100
AcDbEntity
  8
Ｓ_１_１
  6
CONTINUOUS
 62
     3
100
AcDbLine
 10
214.5000709999997
 20
367.0624280000033
 30
0.0
 11
214.5000709999997
 21
354.9381770000032
 31
0.0
  0
LINE
  5
2F3
330
1F
100
AcDbEntity
  8
Ｓ_１_１
  6
CONTINUOUS
 62
     3
100
AcDbLine
 10
214.5000369999998
 20
354.9380370000034
 30
0.0
 11
215.5000669999997
 21
354.3606700000033
 31
0.0
  0
LINE
  5
2F4
330
1F
100
AcDbEntity
  8
Ｓ_１_１
  6
CONTINUOUS
 62
     3
100
AcDbLine
 10
260.9999899999998
 20
357.4999830000033
 30
0.0
 11
261.8660249999997
 21
357.9999880000033
 31
0.0
  0
LINE
  5
2F5
330
1F
100
AcDbEntity
  8
Ｓ_１_１
  6
CONTINUOUS
 62
     3
100
AcDbLine
 10
273.9999749999997
 20
357.4999620000034
 30
0.0
 11
273.1339409999997
 21
357.9999670000033
 31
0.0
  0
LINE
  5
2F6
330
1F
100
AcDbEntity
  8
Ｓ_１_１
  6
CONTINUOUS
 62
     3
100
AcDbLine
 10
273.9999879999997
 20
349.9999620000034
 30
0.0
 11
273.9999879999997
 21
357.4999620000034
 31
0.0
  0
LINE
  5
2F7
330
1F
100
AcDbEntity
  8
Ｓ_１_１
  6
CONTINUOUS
 62
     3
100
AcDbLine
 10
260.9999579999998
 20
349.9999620000034
 30
0.0
 11
260.9999579999998
 21
357.4999620000034
 31
0.0
  0
LINE
  5
2F8
330
1F
100
AcDbEntity
  8
Ｓ_１_１
  6
CONTINUOUS
 62
     3
100
AcDbLine
 10
273.1339499999998
 20
357.9999800000033
 30
0.0
 11
261.8659959999998
 21
357.9999800000033
 31
0.0
  0
LINE
  5
2F9
330
1F
100
AcDbEntity
  8
Ｓ_１_１
  6
CONTINUOUS
 62
     3
100
AcDbLine
 10
273.9999879999997
 20
357.4999620000034
 30
0.0
 11
260.9999579999998
 21
357.4999620000034
 31
0.0
  0
LINE
  5
2FA
330
1F
100
AcDbEntity
  8
Ｓ_１_１
  6
CONTINUOUS
 62
     3
100
AcDbLine
 10
188.9999769999997
 20
357.4999640000034
 30
0.0
 11
188.1339429999997
 21
357.9999700000034
 31
0.0
  0
LINE
  5
2FB
330
1F
100
AcDbEntity
  8
Ｓ_１_１
  6
CONTINUOUS
 62
     3
100
AcDbLine
 10
176.0000179999997
 20
357.4999370000033
 30
0.0
 11
176.8660519999997
 21
357.9999420000033
 31
0.0
  0
LINE
  5
2FC
330
1F
100
AcDbEntity
  8
Ｓ_１_１
  6
CONTINUOUS
 62
     3
100
AcDbLine
 10
176.0000119999997
 20
357.4999620000034
 30
0.0
 11
188.9999909999998
 21
357.4999620000034
 31
0.0
  0
LINE
  5
2FD
330
1F
100
AcDbEntity
  8
Ｓ_１_１
  6
CONTINUOUS
 62
     3
100
AcDbLine
 10
176.8659989999998
 20
357.9999800000033
 30
0.0
 11
188.1339529999998
 21
357.9999800000033
 31
0.0
  0
LINE
  5
2FE
330
1F
100
AcDbEntity
  8
Ｓ_１_１
  6
CONTINUOUS
 62
     3
100
AcDbLine
 10
188.9999909999998
 20
349.9999620000034
 30
0.0
 11
188.9999909999998
 21
357.4999620000034
 31
0.0
  0
LINE
  5
2FF
330
1F
100
AcDbEntity
  8
Ｓ_１_１
  6
CONTINUOUS
 62
     3
100
AcDbLine
 10
176.0000119999997
 20
349.9999620000034
 30
0.0
 11
176.0000119999997
 21
357.4999620000034
 31
0.0
  0
LINE
  5
300
330
1F
100
AcDbEntity
  8
Ｓ_１_１
  6
CONTINUOUS
 62
     3
100
AcDbLine
 10
239.9999989999998
 20
349.9999620000034
 30
0.0
 11
279.9999969999998
 21
349.9999620000034
 31
0.0
  0
LINE
  5
301
330
1F
100
AcDbEntity
  8
Ｓ_１_１
  6
CONTINUOUS
 62
     3
100
AcDbLine
 10
234.4999179999998
 20
346.9999700000034
 30
0.0
 11
279.9999969999998
 21
346.9999700000034
 31
0.0
  0
LINE
  5
302
330
1F
100
AcDbEntity
  8
Ｓ_１_１
  6
CONTINUOUS
 62
     3
100
AcDbLine
 10
232.4998469999997
 20
344.9998990000033
 30
0.0
 11
217.4998979999997
 21
344.9998990000033
 31
0.0
  0
LINE
  5
303
330
1F
100
AcDbEntity
  8
Ｓ_１_１
  6
CONTINUOUS
 62
     3
100
AcDbLine
 10
217.4998979999997
 20
344.9998990000033
 30
0.0
 11
217.4998979999997
 21
339.9999750000034
 31
0.0
  0
LINE
  5
304
330
1F
100
AcDbEntity
  8
Ｓ_１_１
  6
CONTINUOUS
 62
     3
100
AcDbLine
 10
232.4998469999997
 20
344.9998990000033
 30
0.0
 11
232.4998469999997
 21
339.9999750000034
 31
0.0
  0
LINE
  5
305
330
1F
100
AcDbEntity
  8
Ｓ_１_１
  6
CONTINUOUS
 62
     3
100
AcDbLine
 10
234.4999179999998
 20
346.9999700000034
 30
0.0
 11
215.4998779999997
 21
346.9999700000034
 31
0.0
  0
LINE
  5
306
330
1F
100
AcDbEntity
  8
Ｓ_１_１
  6
CONTINUOUS
 62
     3
100
AcDbLine
 10
231.5000399999998
 20
346.9999700000034
 30
0.0
 11
231.5000399999998
 21
339.9999750000034
 31
0.0
  0
LINE
  5
307
330
1F
100
AcDbEntity
  8
Ｓ_１_１
  6
CONTINUOUS
 62
     3
100
AcDbLine
 10
218.4999079999998
 20
346.9999700000034
 30
0.0
 11
218.4999079999998
 21
339.7315990000033
 31
0.0
  0
LINE
  5
308
330
1F
100
AcDbEntity
  8
Ｓ_１_１
  6
CONTINUOUS
 62
     3
100
AcDbLine
 10
235.4999279999997
 20
367.0624280000033
 30
0.0
 11
235.4999279999997
 21
354.9381770000032
 31
0.0
  0
LINE
  5
309
330
1F
100
AcDbEntity
  8
Ｓ_１_１
  6
CONTINUOUS
 62
     3
100
AcDbLine
 10
234.4999179999998
 20
361.0000740000033
 30
0.0
 11
234.4999179999998
 21
346.9999700000034
 31
0.0
  0
LINE
  5
30A
330
1F
100
AcDbEntity
  8
Ｓ_１_１
  6
CONTINUOUS
 62
     3
100
AcDbLine
 10
224.9999889999998
 20
373.1244870000033
 30
0.0
 11
214.5001009999997
 21
367.0623740000034
 31
0.0
  0
LINE
  5
30B
330
1F
100
AcDbEntity
  8
Ｓ_１_１
  6
CONTINUOUS
 62
     3
100
AcDbLine
 10
215.4998779999997
 20
361.0000740000033
 30
0.0
 11
215.4998779999997
 21
346.9999700000034
 31
0.0
  0
LINE
  5
30C
330
1F
100
AcDbEntity
  8
Ｓ_１_１
  6
CONTINUOUS
 62
     3
100
AcDbLine
 10
235.5000109999997
 20
367.0623010000033
 30
0.0
 11
225.0000349999998
 21
373.1244650000034
 31
0.0
  0
LINE
  5
30D
330
1F
100
AcDbEntity
  8
Ｓ_１_１
  6
CONTINUOUS
 62
     3
100
AcDbLine
 10
235.4999429999997
 20
354.9380340000033
 30
0.0
 11
234.4999139999998
 21
354.3606670000033
 31
0.0
  0
LINE
  5
30E
330
1F
100
AcDbEntity
  8
Ｓ_１_１
  6
CONTINUOUS
 62
     3
100
AcDbLine
 10
306.4999859999997
 20
262.9999710000034
 30
0.0
 11
306.4999859999997
 21
276.9999850000033
 31
0.0
  0
LINE
  5
30F
330
1F
100
AcDbEntity
  8
Ｓ_１_１
  6
CONTINUOUS
 62
     3
100
AcDbLine
 10
334.9999949999998
 20
276.9999850000033
 30
0.0
 11
334.9999949999998
 21
286.9999720000034
 31
0.0
  0
LINE
  5
310
330
1F
100
AcDbEntity
  8
Ｓ_１_１
  6
CONTINUOUS
 62
     3
100
AcDbLine
 10
334.9999949999998
 20
276.9999850000033
 30
0.0
 11
306.4999859999997
 21
276.9999850000033
 31
0.0
  0
LINE
  5
311
330
1F
100
AcDbEntity
  8
Ｓ_１_１
  6
CONTINUOUS
 62
     3
100
AcDbLine
 10
334.9999949999998
 20
262.9999710000034
 30
0.0
 11
306.4999859999997
 21
262.9999710000034
 31
0.0
  0
LINE
  5
312
330
1F
100
AcDbEntity
  8
Ｓ_１_１
  6
CONTINUOUS
 62
     3
100
AcDbLine
 10
334.9999949999998
 20
276.0000010000033
 30
0.0
 11
306.9999659999997
 21
276.0000010000033
 31
0.0
  0
LINE
  5
313
330
1F
100
AcDbEntity
  8
Ｓ_１_１
  6
CONTINUOUS
 62
     3
100
AcDbLine
 10
334.9999949999998
 20
264.0000030000033
 30
0.0
 11
306.9999659999997
 21
264.0000030000033
 31
0.0
  0
LINE
  5
314
330
1F
100
AcDbEntity
  8
Ｓ_１_１
  6
CONTINUOUS
 62
     3
100
AcDbLine
 10
306.9999659999997
 20
264.0000030000033
 30
0.0
 11
306.9999659999997
 21
276.0000010000033
 31
0.0
  0
LINE
  5
315
330
1F
100
AcDbEntity
  8
Ｓ_１_１
  6
CONTINUOUS
 62
     3
100
AcDbLine
 10
334.9999949999998
 20
264.0000030000033
 30
0.0
 11
334.9999949999998
 21
276.0000010000033
 31
0.0
  0
LINE
  5
316
330
1F
100
AcDbEntity
  8
Ｓ_１_１
  6
CONTINUOUS
 62
     3
100
AcDbLine
 10
290.5870889999998
 20
245.5391400000034
 30
0.0
 11
298.0479489999998
 21
253.0000000000033
 31
0.0
  0
LINE
  5
317
330
1F
100
AcDbEntity
  8
Ｓ_１_１
  6
CONTINUOUS
 62
     3
100
AcDbLine
 10
334.9999949999998
 20
252.9999870000033
 30
0.0
 11
334.9999949999998
 21
262.9999710000034
 31
0.0
  0
LINE
  5
318
330
1F
100
AcDbEntity
  8
Ｓ_１_１
  6
CONTINUOUS
 62
     3
100
AcDbLine
 10
334.9999949999998
 20
252.9999870000033
 30
0.0
 11
298.0478889999997
 21
252.9999870000033
 31
0.0
  0
LINE
  5
319
330
1F
100
AcDbEntity
  8
Ｓ_１_１
  6
CONTINUOUS
 62
     3
100
AcDbLine
 10
334.9999949999998
 20
286.9999720000034
 30
0.0
 11
298.0478889999997
 21
286.9999720000034
 31
0.0
  0
LINE
  5
31A
330
1F
100
AcDbEntity
  8
Ｓ_１_１
  6
CONTINUOUS
 62
     3
100
AcDbLine
 10
298.0479489999998
 20
286.9999480000033
 30
0.0
 11
290.5870889999998
 21
294.4608080000033
 31
0.0
  0
LINE
  5
31B
330
1F
100
AcDbEntity
  8
Ｓ_１_１
  6
CONTINUOUS
 62
     3
100
AcDbLine
 10
143.5000129999997
 20
262.9999710000034
 30
0.0
 11
143.5000129999997
 21
276.9999850000033
 31
0.0
  0
LINE
  5
31C
330
1F
100
AcDbEntity
  8
Ｓ_１_１
  6
CONTINUOUS
 62
     3
100
AcDbLine
 10
115.0000039999998
 20
276.9999850000033
 30
0.0
 11
115.0000039999998
 21
286.9999720000034
 31
0.0
  0
LINE
  5
31D
330
1F
100
AcDbEntity
  8
Ｓ_１_１
  6
CONTINUOUS
 62
     3
100
AcDbLine
 10
115.0000039999998
 20
264.0000030000033
 30
0.0
 11
115.0000039999998
 21
276.0000010000033
 31
0.0
  0
LINE
  5
31E
330
1F
100
AcDbEntity
  8
Ｓ_１_１
  6
CONTINUOUS
 62
     3
100
AcDbLine
 10
142.9999829999997
 20
264.0000030000033
 30
0.0
 11
142.9999829999997
 21
276.0000010000033
 31
0.0
  0
LINE
  5
31F
330
1F
100
AcDbEntity
  8
Ｓ_１_１
  6
CONTINUOUS
 62
     3
100
AcDbLine
 10
115.0000039999998
 20
264.0000030000033
 30
0.0
 11
142.9999829999997
 21
264.0000030000033
 31
0.0
  0
LINE
  5
320
330
1F
100
AcDbEntity
  8
Ｓ_１_１
  6
CONTINUOUS
 62
     3
100
AcDbLine
 10
115.0000039999998
 20
276.0000010000033
 30
0.0
 11
142.9999829999997
 21
276.0000010000033
 31
0.0
  0
LINE
  5
321
330
1F
100
AcDbEntity
  8
Ｓ_１_１
  6
CONTINUOUS
 62
     3
100
AcDbLine
 10
115.0000039999998
 20
262.9999710000034
 30
0.0
 11
143.5000129999997
 21
262.9999710000034
 31
0.0
  0
LINE
  5
322
330
1F
100
AcDbEntity
  8
Ｓ_１_１
  6
CONTINUOUS
 62
     3
100
AcDbLine
 10
115.0000039999998
 20
276.9999850000033
 30
0.0
 11
143.5000129999997
 21
276.9999850000033
 31
0.0
  0
LINE
  5
323
330
1F
100
AcDbEntity
  8
Ｓ_１_１
  6
CONTINUOUS
 62
     3
100
AcDbLine
 10
151.9520809999998
 20
286.9999840000033
 30
0.0
 11
159.4129049999998
 21
294.4608080000033
 31
0.0
  0
LINE
  5
324
330
1F
100
AcDbEntity
  8
Ｓ_１_１
  6
CONTINUOUS
 62
     3
100
AcDbLine
 10
159.4129049999998
 20
245.5391400000034
 30
0.0
 11
151.9520449999998
 21
253.0000000000033
 31
0.0
  0
LINE
  5
325
330
1F
100
AcDbEntity
  8
Ｓ_１_１
  6
CONTINUOUS
 62
     3
100
AcDbLine
 10
115.0000039999998
 20
286.9999720000034
 30
0.0
 11
151.9520589999997
 21
286.9999720000034
 31
0.0
  0
LINE
  5
326
330
1F
100
AcDbEntity
  8
Ｓ_１_１
  6
CONTINUOUS
 62
     3
100
AcDbLine
 10
115.0000039999998
 20
252.9999870000033
 30
0.0
 11
151.9520589999997
 21
252.9999870000033
 31
0.0
  0
LINE
  5
327
330
1F
100
AcDbEntity
  8
Ｓ_１_１
  6
CONTINUOUS
 62
     3
100
AcDbLine
 10
115.0000039999998
 20
252.9999870000033
 30
0.0
 11
115.0000039999998
 21
262.9999710000034
 31
0.0
  0
LINE
  5
328
330
1F
100
AcDbEntity
  8
Ｓ_１_１
  6
CONTINUOUS
 62
     3
100
AcDbLine
 10
170.0000019999998
 20
346.9999700000034
 30
0.0
 11
215.4998779999997
 21
346.9999700000034
 31
0.0
  0
LINE
  5
329
330
1F
100
AcDbEntity
  8
Ｓ_１_１
  6
CONTINUOUS
 62
     3
100
AcDbLine
 10
279.9999969999998
 20
313.3012340000033
 30
0.0
 11
279.9999969999998
 21
349.9999620000034
 31
0.0
  0
LINE
  5
32A
330
1F
100
AcDbEntity
  8
Ｓ_１_１
  6
CONTINUOUS
 62
     3
100
AcDbLine
 10
170.0000019999998
 20
313.3012340000033
 30
0.0
 11
170.0000019999998
 21
349.9999620000034
 31
0.0
  0
LINE
  5
32B
330
1F
100
AcDbEntity
  8
Ｓ_１_１
  6
CONTINUOUS
 62
     3
100
AcDbLine
 10
175.0000019999998
 20
349.9999620000034
 30
0.0
 11
175.0000019999998
 21
429.9999720000034
 31
0.0
  0
LINE
  5
32C
330
1F
100
AcDbEntity
  8
Ｓ_１_１
  6
CONTINUOUS
 62
     3
100
AcDbLine
 10
274.9999979999998
 20
349.9999620000034
 30
0.0
 11
274.9999979999998
 21
429.9999720000034
 31
0.0
  0
LINE
  5
32D
330
1F
100
AcDbEntity
  8
Ｓ_１_１
  6
CONTINUOUS
 62
     3
100
AcDbLine
 10
170.0000019999998
 20
349.9999620000034
 30
0.0
 11
209.9999999999998
 21
349.9999620000034
 31
0.0
  0
LINE
  5
32E
330
1F
100
AcDbEntity
  8
Ｓ_１_１
  6
EXLTYPE0
 62
     2
100
AcDbLine
 10
754.5000139999997
 20
434.8622710000034
 30
0.0
 11
754.5000139999997
 21
427.9396000000034
 31
0.0
  0
LINE
  5
32F
330
1F
100
AcDbEntity
  8
Ｓ_１_１
  6
EXLTYPE0
 62
     2
100
AcDbLine
 10
754.5000239999997
 20
427.9396110000033
 30
0.0
 11
755.5000199999997
 21
427.3622630000034
 31
0.0
  0
ARC
  5
330
330
1F
100
AcDbEntity
  8
Ｓ_１_１
  6
EXLTYPE0
 62
     2
100
AcDbCircle
 10
767.5000149999997
 20
390.4228290000033
 30
0.0
 40
21.939437
100
AcDbArc
 50
76.82652799999998
 51
103.173491
  0
ARC
  5
331
330
1F
100
AcDbEntity
  8
Ｓ_１_１
  6
EXLTYPE0
 62
     2
100
AcDbCircle
 10
767.5000149999997
 20
421.8016890000033
 30
0.0
 40
21.939437
100
AcDbArc
 50
256.8264750000001
 51
283.1734650000004
  0
ARC
  5
332
330
1F
100
AcDbEntity
  8
Ｓ_１_１
  6
EXLTYPE0
 62
     2
100
AcDbCircle
 10
758.4067409999998
 20
388.7295110000034
 30
0.0
 40
5.367244999999999
100
AcDbArc
 50
235.615862
 51
304.3841460000003
  0
ARC
  5
333
330
1F
100
AcDbEntity
  8
Ｓ_１_１
  6
EXLTYPE0
 62
     2
100
AcDbCircle
 10
767.5000309999998
 20
403.4244620000034
 30
0.0
 40
20.062196
100
AcDbArc
 50
252.4119940000001
 51
287.5878780000001
  0
ARC
  5
334
330
1F
100
AcDbEntity
  8
Ｓ_１_１
  6
EXLTYPE0
 62
     2
100
AcDbCircle
 10
758.4067409999998
 20
386.9950190000034
 30
0.0
 40
5.367244999999999
100
AcDbArc
 50
55.61579900000001
 51
124.384083
  0
ARC
  5
335
330
1F
100
AcDbEntity
  8
Ｓ_１_１
  6
EXLTYPE0
 62
     2
100
AcDbCircle
 10
767.5000309999998
 20
372.3000680000033
 30
0.0
 40
20.062196
100
AcDbArc
 50
72.41206700000001
 51
107.587951
  0
LINE
  5
336
330
1F
100
AcDbEntity
  8
Ｓ_１_１
  6
EXLTYPE0
 62
     2
100
AcDbLine
 10
754.5000139999997
 20
400.4396010000033
 30
0.0
 11
762.5000189999998
 21
400.4396010000033
 31
0.0
  0
LINE
  5
337
330
1F
100
AcDbEntity
  8
Ｓ_１_１
  6
EXLTYPE0
 62
     2
100
AcDbLine
 10
754.5000139999997
 20
411.7849040000033
 30
0.0
 11
762.5000189999998
 21
411.7849040000033
 31
0.0
  0
LINE
  5
338
330
1F
100
AcDbEntity
  8
Ｓ_１_１
  6
EXLTYPE0
 62
     2
100
AcDbLine
 10
754.5000229999997
 20
411.7849040000033
 30
0.0
 11
755.5000159999997
 21
412.3622500000033
 31
0.0
  0
LINE
  5
339
330
1F
100
AcDbEntity
  8
Ｓ_１_１
  6
EXLTYPE0
 62
     2
100
AcDbLine
 10
762.5000189999998
 20
411.7849040000033
 30
0.0
 11
762.5000189999998
 21
400.4396010000033
 31
0.0
  0
LINE
  5
33A
330
1F
100
AcDbEntity
  8
Ｓ_１_１
  6
EXLTYPE0
 62
     2
100
AcDbLine
 10
754.5000139999997
 20
411.7849040000033
 30
0.0
 11
754.5000139999997
 21
400.4396010000033
 31
0.0
  0
LINE
  5
33B
330
1F
100
AcDbEntity
  8
Ｓ_１_１
  6
EXLTYPE0
 62
     2
100
AcDbLine
 10
760.3201409999997
 20
399.8622610000034
 30
0.0
 11
759.9365319999996
 21
393.7245260000034
 31
0.0
  0
LINE
  5
33C
330
1F
100
AcDbEntity
  8
Ｓ_１_１
  6
EXLTYPE0
 62
     2
100
AcDbLine
 10
759.6187789999997
 20
399.8622690000034
 30
0.0
 11
759.1500269999997
 21
392.3622420000033
 31
0.0
  0
LINE
  5
33D
330
1F
100
AcDbEntity
  8
Ｓ_１_１
  6
EXLTYPE0
 62
     2
100
AcDbLine
 10
759.1500189999997
 20
383.3622750000034
 30
0.0
 11
759.9365269999998
 21
382.0000030000033
 31
0.0
  0
LINE
  5
33E
330
1F
100
AcDbEntity
  8
Ｓ_１_１
  6
EXLTYPE0
 62
     2
100
AcDbLine
 10
759.5476559999997
 20
377.0000000000034
 30
0.0
 11
759.1500139999997
 21
383.3622630000034
 31
0.0
  0
LINE
  5
33F
330
1F
100
AcDbEntity
  8
Ｓ_１_１
  6
EXLTYPE0
 62
     2
100
AcDbLine
 10
760.2490189999999
 20
376.9999950000033
 30
0.0
 11
759.9365179999998
 21
382.0000050000033
 31
0.0
  0
LINE
  5
340
330
1F
100
AcDbEntity
  8
Ｓ_１_１
  6
EXLTYPE0
 62
     2
100
AcDbLine
 10
757.0000059999998
 20
392.3622650000034
 30
0.0
 11
755.3756449999998
 21
391.4244430000034
 31
0.0
  0
LINE
  5
341
330
1F
100
AcDbEntity
  8
Ｓ_１_１
  6
EXLTYPE0
 62
     2
100
AcDbLine
 10
755.3756709999997
 20
391.4244670000033
 30
0.0
 11
755.3756709999997
 21
384.3000620000033
 31
0.0
  0
LINE
  5
342
330
1F
100
AcDbEntity
  8
Ｓ_１_１
  6
EXLTYPE0
 62
     2
100
AcDbLine
 10
761.4378539999998
 20
391.4244290000033
 30
0.0
 11
761.4378539999998
 21
384.3000880000034
 31
0.0
  0
LINE
  5
343
330
1F
100
AcDbEntity
  8
Ｓ_１_１
  6
EXLTYPE0
 62
     2
100
AcDbLine
 10
754.5000159999997
 20
400.4395990000033
 30
0.0
 11
755.5000009999999
 21
399.8622570000035
 31
0.0
  0
LINE
  5
344
330
1F
100
AcDbEntity
  8
Ｓ_１_１
  6
EXLTYPE0
 62
     2
100
AcDbLine
 10
759.1500159999998
 20
392.3622700000033
 30
0.0
 11
759.9365239999997
 21
393.7245420000033
 31
0.0
  0
LINE
  5
345
330
1F
100
AcDbEntity
  8
Ｓ_１_１
  6
EXLTYPE0
 62
     2
100
AcDbLine
 10
757.0000069999999
 20
383.3622700000033
 30
0.0
 11
755.3756349999999
 21
384.3000980000033
 31
0.0
  0
LINE
  5
346
330
1F
100
AcDbEntity
  8
Ｓ_１_１
  6
EXLTYPE0
 62
     2
100
AcDbLine
 10
755.5000179999997
 20
427.3622710000034
 30
0.0
 11
755.5000179999997
 21
412.3622710000034
 31
0.0
  0
ARC
  5
347
330
1F
100
AcDbEntity
  8
Ｓ_１_１
  6
EXLTYPE0
 62
     2
100
AcDbCircle
 10
776.5932929999997
 20
386.9950190000034
 30
0.0
 40
5.367244999999999
100
AcDbArc
 50
55.61588100000003
 51
124.384165
  0
ARC
  5
348
330
1F
100
AcDbEntity
  8
Ｓ_１_１
  6
EXLTYPE0
 62
     2
100
AcDbCircle
 10
776.5932929999997
 20
388.7295110000034
 30
0.0
 40
5.367244999999999
100
AcDbArc
 50
235.61578
 51
304.384065
  0
LINE
  5
349
330
1F
100
AcDbEntity
  8
Ｓ_１_１
  6
EXLTYPE0
 62
     2
100
AcDbLine
 10
772.500015
 20
400.4396010000033
 30
0.0
 11
780.500017
 21
400.4396010000033
 31
0.0
  0
LINE
  5
34A
330
1F
100
AcDbEntity
  8
Ｓ_１_１
  6
EXLTYPE0
 62
     2
100
AcDbLine
 10
772.500015
 20
411.7849040000033
 30
0.0
 11
780.500017
 21
411.7849040000033
 31
0.0
  0
LINE
  5
34B
330
1F
100
AcDbEntity
  8
Ｓ_１_１
  6
EXLTYPE0
 62
     2
100
AcDbLine
 10
780.500017
 20
411.7849040000033
 30
0.0
 11
780.500017
 21
400.4396010000033
 31
0.0
  0
LINE
  5
34C
330
1F
100
AcDbEntity
  8
Ｓ_１_１
  6
EXLTYPE0
 62
     2
100
AcDbLine
 10
775.3812639999999
 20
399.8622710000034
 30
0.0
 11
775.8500149999998
 21
392.3622570000035
 31
0.0
  0
LINE
  5
34D
330
1F
100
AcDbEntity
  8
Ｓ_１_１
  6
EXLTYPE0
 62
     2
100
AcDbLine
 10
774.6798849999999
 20
399.8622750000034
 30
0.0
 11
775.0634929999999
 21
393.7245390000033
 31
0.0
  0
LINE
  5
34E
330
1F
100
AcDbEntity
  8
Ｓ_１_１
  6
EXLTYPE0
 62
     2
100
AcDbLine
 10
775.4523679999998
 20
376.9999990000032
 30
0.0
 11
775.8500099999999
 21
383.3622750000034
 31
0.0
  0
LINE
  5
34F
330
1F
100
AcDbEntity
  8
Ｓ_１_１
  6
EXLTYPE0
 62
     2
100
AcDbLine
 10
774.751005
 20
376.9999950000033
 30
0.0
 11
775.0635039999997
 21
381.9999910000033
 31
0.0
  0
LINE
  5
350
330
1F
100
AcDbEntity
  8
Ｓ_１_１
  6
EXLTYPE0
 62
     2
100
AcDbLine
 10
778.0000289999998
 20
383.3622610000033
 30
0.0
 11
779.6243899999997
 21
384.3000830000033
 31
0.0
  0
LINE
  5
351
330
1F
100
AcDbEntity
  8
Ｓ_１_１
  6
EXLTYPE0
 62
     2
100
AcDbLine
 10
778.0000299999997
 20
392.3622660000033
 30
0.0
 11
779.6243799999997
 21
391.4244510000033
 31
0.0
  0
LINE
  5
352
330
1F
100
AcDbEntity
  8
Ｓ_１_１
  6
EXLTYPE0
 62
     2
100
AcDbLine
 10
779.6243909999998
 20
391.4244290000033
 30
0.0
 11
779.6243909999998
 21
384.3000880000034
 31
0.0
  0
LINE
  5
353
330
1F
100
AcDbEntity
  8
Ｓ_１_１
  6
EXLTYPE0
 62
     2
100
AcDbLine
 10
779.5000089999999
 20
412.3622510000033
 30
0.0
 11
780.5000159999997
 21
411.7848970000034
 31
0.0
  0
LINE
  5
354
330
1F
100
AcDbEntity
  8
Ｓ_１_１
  6
EXLTYPE0
 62
     2
100
AcDbLine
 10
779.5000179999997
 20
399.8622530000033
 30
0.0
 11
780.5000199999997
 21
400.4396040000033
 31
0.0
  0
LINE
  5
355
330
1F
100
AcDbEntity
  8
Ｓ_１_１
  6
EXLTYPE0
 62
     2
100
AcDbLine
 10
775.0635059999997
 20
393.7245370000034
 30
0.0
 11
775.8500199999999
 21
392.3622540000034
 31
0.0
  0
LINE
  5
356
330
1F
100
AcDbEntity
  8
Ｓ_１_１
  6
EXLTYPE0
 62
     2
100
AcDbLine
 10
775.0634999999997
 20
381.9999950000033
 30
0.0
 11
775.8500069999998
 21
383.3622670000034
 31
0.0
  0
LINE
  5
357
330
1F
100
AcDbEntity
  8
Ｓ_１_１
  6
EXLTYPE0
 62
     2
100
AcDbLine
 10
779.5000159999997
 20
427.3622710000034
 30
0.0
 11
779.5000159999997
 21
412.3622710000034
 31
0.0
  0
LINE
  5
358
330
1F
100
AcDbEntity
  8
Ｓ_１_１
  6
EXLTYPE0
 62
     2
100
AcDbLine
 10
780.500017
 20
434.8622710000034
 30
0.0
 11
780.500017
 21
427.9396000000034
 31
0.0
  0
LINE
  5
359
330
1F
100
AcDbEntity
  8
Ｓ_１_１
  6
EXLTYPE0
 62
     2
100
AcDbLine
 10
779.5000169999998
 20
427.3622540000034
 30
0.0
 11
780.5000129999999
 21
427.9396020000033
 31
0.0
  0
LINE
  5
35A
330
1F
100
AcDbEntity
  8
Ｓ_１_１
  6
EXLTYPE0
 62
     2
100
AcDbLine
 10
754.5000139999997
 20
427.9396000000034
 30
0.0
 11
780.500017
 21
427.9396000000034
 31
0.0
  0
LINE
  5
35B
330
1F
100
AcDbEntity
  8
Ｓ_１_１
  6
EXLTYPE0
 62
     2
100
AcDbLine
 10
755.5000179999997
 20
427.3622710000034
 30
0.0
 11
779.5000159999997
 21
427.3622710000034
 31
0.0
  0
LINE
  5
35C
330
1F
100
AcDbEntity
  8
Ｓ_１_１
  6
EXLTYPE0
 62
     2
100
AcDbLine
 10
755.4999989999999
 20
399.8622720000033
 30
0.0
 11
779.5000159999997
 21
399.8622720000033
 31
0.0
  0
LINE
  5
35D
330
1F
100
AcDbEntity
  8
Ｓ_１_１
  6
EXLTYPE0
 62
     2
100
AcDbLine
 10
755.5000179999997
 20
412.3622710000034
 30
0.0
 11
779.4999999999999
 21
412.3622710000034
 31
0.0
  0
LINE
  5
35E
330
1F
100
AcDbEntity
  8
Ｓ_１_１
  6
EXLTYPE0
 62
     2
100
AcDbLine
 10
759.2351529999999
 20
393.7245260000034
 30
0.0
 11
775.7648619999998
 21
393.7245260000034
 31
0.0
  0
LINE
  5
35F
330
1F
100
AcDbEntity
  8
Ｓ_１_１
  6
EXLTYPE0
 62
     2
100
AcDbLine
 10
759.2351529999999
 20
381.9999910000033
 30
0.0
 11
775.7648619999998
 21
381.9999910000033
 31
0.0
  0
LINE
  5
360
330
1F
100
AcDbEntity
  8
Ｓ_１_１
  6
EXLTYPE0
 62
     2
100
AcDbLine
 10
757.0000009999999
 20
392.3622720000033
 30
0.0
 11
778.0000329999998
 21
392.3622720000033
 31
0.0
  0
LINE
  5
361
330
1F
100
AcDbEntity
  8
Ｓ_１_１
  6
EXLTYPE0
 62
     2
100
AcDbLine
 10
757.0000009999999
 20
383.3622570000034
 30
0.0
 11
778.0000329999998
 21
383.3622570000034
 31
0.0
  0
ARC
  5
362
330
1F
100
AcDbEntity
  8
Ｓ_１_１
  6
EXLTYPE0
 62
     2
100
AcDbCircle
 10
799.4621729999997
 20
372.5646300000033
 30
0.0
 40
14.999999
100
AcDbArc
 50
184.0700360000001
 51
199.7948940000002
  0
ARC
  5
363
330
1F
100
AcDbEntity
  8
Ｓ_１_１
  6
EXLTYPE0
 62
     2
100
AcDbCircle
 10
782.5378559999997
 20
372.5646300000033
 30
0.0
 40
14.999999
100
AcDbArc
 50
340.2051060000002
 51
355.929964
  0
LINE
  5
364
330
1F
100
AcDbEntity
  8
Ｓ_１_１
  6
EXLTYPE0
 62
     2
100
AcDbLine
 10
796.6515049999998
 20
372.9696490000033
 30
0.0
 11
785.348525
 21
372.9696490000033
 31
0.0
  0
LINE
  5
365
330
1F
100
AcDbEntity
  8
Ｓ_１_１
  6
EXLTYPE0
 62
     2
100
AcDbLine
 10
797.5000159999997
 20
371.4999990000033
 30
0.0
 11
797.5000159999997
 21
352.4999970000033
 31
0.0
  0
LINE
  5
366
330
1F
100
AcDbEntity
  8
Ｓ_１_１
  6
EXLTYPE0
 62
     2
100
AcDbLine
 10
797.5000119999999
 20
371.4999990000033
 30
0.0
 11
796.6515089999998
 21
372.9696490000033
 31
0.0
  0
LINE
  5
367
330
1F
100
AcDbEntity
  8
Ｓ_１_１
  6
EXLTYPE0
 62
     2
100
AcDbLine
 10
785.3485219999999
 20
372.9696500000034
 30
0.0
 11
784.5000089999999
 21
371.4999830000033
 31
0.0
  0
ARC
  5
368
330
1F
100
AcDbEntity
  8
Ｓ_１_１
  6
EXLTYPE0
 62
     2
100
AcDbCircle
 10
799.4621729999997
 20
351.4353660000033
 30
0.0
 40
14.999999
100
AcDbArc
 50
160.205106
 51
175.929964
  0
LINE
  5
369
330
1F
100
AcDbEntity
  8
Ｓ_１_１
  6
EXLTYPE0
 62
     2
100
AcDbLine
 10
782.500015
 20
376.9999910000033
 30
0.0
 11
782.500015
 21
351.5000000000034
 31
0.0
  0
LINE
  5
36A
330
1F
100
AcDbEntity
  8
Ｓ_１_１
  6
EXLTYPE0
 62
     2
100
AcDbLine
 10
785.0773619999998
 20
351.4999950000033
 30
0.0
 11
784.5000079999998
 21
352.5000020000034
 31
0.0
  0
LINE
  5
36B
330
1F
100
AcDbEntity
  8
Ｓ_１_１
  6
EXLTYPE0
 62
     2
100
AcDbLine
 10
784.5000159999997
 20
371.4999990000033
 30
0.0
 11
784.5000159999997
 21
352.4999970000033
 31
0.0
  0
ARC
  5
36C
330
1F
100
AcDbEntity
  8
Ｓ_１_１
  6
CONTINUOUS
 62
     3
100
AcDbCircle
 10
673.0000004999904
 20
467.8621030000186
 30
0.0
 40
1.0
100
AcDbArc
 50
89.99997799999524
 51
179.9999749999976
  0
ARC
  5
36D
330
1F
100
AcDbEntity
  8
Ｓ_１_１
  6
CONTINUOUS
 62
     3
100
AcDbCircle
 10
681.9999704999898
 20
467.8621030000186
 30
0.0
 40
1.0
100
AcDbArc
 50
359.9999970000023
 51
89.9999780000017
  0
LINE
  5
36E
330
1F
100
AcDbEntity
  8
Ｓ_１_１
  6
CONTINUOUS
 62
     3
100
AcDbLine
 10
676.00003149999
 20
470.8622250000185
 30
0.0
 11
679.0000004999899
 21
470.8622250000185
 31
0.0
  0
LINE
  5
36F
330
1F
100
AcDbEntity
  8
Ｓ_１_１
  6
CONTINUOUS
 62
     3
100
AcDbLine
 10
671.9999704999902
 20
467.8621030000186
 30
0.0
 11
671.9999704999902
 21
458.8623470000184
 31
0.0
  0
LINE
  5
370
330
1F
100
AcDbEntity
  8
Ｓ_１_１
  6
CONTINUOUS
 62
     3
100
AcDbLine
 10
671.9999704999902
 20
458.8623470000184
 30
0.0
 11
683.0000004999899
 21
458.8623470000184
 31
0.0
  0
LINE
  5
371
330
1F
100
AcDbEntity
  8
Ｓ_１_１
  6
CONTINUOUS
 62
     3
100
AcDbLine
 10
668.5000314999903
 20
455.3621030000186
 30
0.0
 11
668.5000314999903
 21
453.3622250000185
 31
0.0
  0
LINE
  5
372
330
1F
100
AcDbEntity
  8
Ｓ_１_１
  6
CONTINUOUS
 62
     3
100
AcDbLine
 10
686.5000004999899
 20
455.3621030000186
 30
0.0
 11
686.5000004999899
 21
453.3622250000185
 31
0.0
  0
LINE
  5
373
330
1F
100
AcDbEntity
  8
Ｓ_１_１
  6
CONTINUOUS
 62
     3
100
AcDbLine
 10
666.2500004999904
 20
439.8622250000185
 30
0.0
 11
688.7500004999899
 21
439.8622250000185
 31
0.0
  0
LINE
  5
374
330
1F
100
AcDbEntity
  8
Ｓ_１_１
  6
CONTINUOUS
 62
     3
100
AcDbLine
 10
673.0000004999904
 20
468.8623470000189
 30
0.0
 11
681.9999704999898
 21
468.8623470000189
 31
0.0
  0
LINE
  5
375
330
1F
100
AcDbEntity
  8
Ｓ_１_１
  6
CONTINUOUS
 62
     3
100
AcDbLine
 10
678.9998594999898
 20
470.8624120000187
 30
0.0
 11
680.9999044999896
 21
468.8623670000189
 31
0.0
  0
LINE
  5
376
330
1F
100
AcDbEntity
  8
Ｓ_１_１
  6
CONTINUOUS
 62
     3
100
AcDbLine
 10
673.9998324999904
 20
468.8624100000184
 30
0.0
 11
675.9997914999897
 21
470.8623690000186
 31
0.0
  0
LINE
  5
377
330
1F
100
AcDbEntity
  8
Ｓ_１_１
  6
CONTINUOUS
 62
     3
100
AcDbLine
 10
670.0000004999904
 20
450.3621030000186
 30
0.0
 11
685.0000004999899
 21
450.3621030000186
 31
0.0
  0
LINE
  5
378
330
1F
100
AcDbEntity
  8
Ｓ_１_１
  6
CONTINUOUS
 62
     3
100
AcDbLine
 10
670.0000004999904
 20
451.8622250000185
 30
0.0
 11
685.0000004999899
 21
451.8622250000185
 31
0.0
  0
LINE
  5
379
330
1F
100
AcDbEntity
  8
Ｓ_１_１
  6
CONTINUOUS
 62
     3
100
AcDbLine
 10
668.5000314999903
 20
455.3621030000186
 30
0.0
 11
686.5000004999899
 21
455.3621030000186
 31
0.0
  0
LINE
  5
37A
330
1F
100
AcDbEntity
  8
Ｓ_１_１
  6
CONTINUOUS
 62
     3
100
AcDbLine
 10
686.5000004999899
 20
448.8623470000184
 30
0.0
 11
686.5000004999899
 21
439.8622250000185
 31
0.0
  0
LINE
  5
37B
330
1F
100
AcDbEntity
  8
Ｓ_１_１
  6
CONTINUOUS
 62
     3
100
AcDbLine
 10
668.5000314999903
 20
448.8623470000184
 30
0.0
 11
668.5000314999903
 21
439.8622250000185
 31
0.0
  0
LINE
  5
37C
330
1F
100
AcDbEntity
  8
Ｓ_１_１
  6
CONTINUOUS
 62
     3
100
AcDbLine
 10
668.4998884999902
 20
453.3622460000188
 30
0.0
 11
669.9999004999902
 21
451.8622330000185
 31
0.0
  0
LINE
  5
37D
330
1F
100
AcDbEntity
  8
Ｓ_１_１
  6
CONTINUOUS
 62
     3
100
AcDbLine
 10
684.9999664999897
 20
451.8622320000186
 30
0.0
 11
686.4998494999898
 21
453.3621150000185
 31
0.0
  0
LINE
  5
37E
330
1F
100
AcDbEntity
  8
Ｓ_１_１
  6
CONTINUOUS
 62
     3
100
AcDbLine
 10
668.5000314999903
 20
453.3622250000185
 30
0.0
 11
686.5000004999899
 21
453.3622250000185
 31
0.0
  0
LINE
  5
37F
330
1F
100
AcDbEntity
  8
Ｓ_１_１
  6
CONTINUOUS
 62
     3
100
AcDbLine
 10
668.50000249999
 20
448.8623800000187
 30
0.0
 11
669.9998854999901
 21
450.3622630000186
 31
0.0
  0
LINE
  5
380
330
1F
100
AcDbEntity
  8
Ｓ_１_１
  6
CONTINUOUS
 62
     3
100
AcDbLine
 10
684.9998524999899
 20
450.3622210000185
 30
0.0
 11
686.4998654999897
 21
448.8622090000186
 31
0.0
  0
LINE
  5
381
330
1F
100
AcDbEntity
  8
Ｓ_１_１
  6
CONTINUOUS
 62
     3
100
AcDbLine
 10
665.7499704999902
 20
439.3622250000185
 30
0.0
 11
689.2500004999899
 21
439.3622250000185
 31
0.0
  0
LINE
  5
382
330
1F
100
AcDbEntity
  8
Ｓ_１_１
  6
CONTINUOUS
 62
     3
100
AcDbLine
 10
668.5000314999903
 20
448.8623470000184
 30
0.0
 11
686.5000004999899
 21
448.8623470000184
 31
0.0
  0
LINE
  5
383
330
1F
100
AcDbEntity
  8
Ｓ_１_１
  6
CONTINUOUS
 62
     3
100
AcDbLine
 10
670.0000004999904
 20
451.8622250000185
 30
0.0
 11
670.0000004999904
 21
450.3621030000186
 31
0.0
  0
LINE
  5
384
330
1F
100
AcDbEntity
  8
Ｓ_１_１
  6
CONTINUOUS
 62
     3
100
AcDbLine
 10
685.0000004999899
 20
451.8622250000185
 30
0.0
 11
685.0000004999899
 21
450.3621030000186
 31
0.0
  0
LINE
  5
385
330
1F
100
AcDbEntity
  8
Ｓ_１_１
  6
CONTINUOUS
 62
     3
100
AcDbLine
 10
688.7498964999897
 20
439.8623140000186
 30
0.0
 11
689.24984349999
 21
439.3623680000187
 31
0.0
  0
LINE
  5
386
330
1F
100
AcDbEntity
  8
Ｓ_１_１
  6
CONTINUOUS
 62
     3
100
AcDbLine
 10
665.7499254999905
 20
439.3623160000184
 30
0.0
 11
666.2498234999905
 21
439.8622250000185
 31
0.0
  0
LINE
  5
387
330
1F
100
AcDbEntity
  8
Ｓ_１_１
  6
CONTINUOUS
 62
     3
100
AcDbLine
 10
668.49995949999
 20
455.3623340000186
 30
0.0
 11
671.9999734999903
 21
458.8623480000188
 31
0.0
  0
LINE
  5
388
330
1F
100
AcDbEntity
  8
Ｓ_１_１
  6
CONTINUOUS
 62
     3
100
AcDbLine
 10
682.9998504999901
 20
458.8621340000186
 30
0.0
 11
686.4998214999898
 21
455.3621620000186
 31
0.0
  0
LINE
  5
389
330
1F
100
AcDbEntity
  8
Ｓ_１_１
  6
CONTINUOUS
 62
     3
100
AcDbLine
 10
683.0000004999899
 20
467.8621030000186
 30
0.0
 11
683.0000004999899
 21
458.8623470000184
 31
0.0
  0
LINE
  5
38A
330
1F
100
AcDbEntity
  8
Ｓ_１_１
  6
EXLTYPE2
 62
     1
100
AcDbLine
 10
663.6188667080003
 20
399.8622700000092
 30
0.0
 11
732.5114639065007
 21
399.8622700000092
 31
0.0
  0
ARC
  5
38B
330
1F
100
AcDbEntity
  8
Ｓ_１_１
  6
CONTINUOUS
 62
     3
100
AcDbCircle
 10
220.4999844999902
 20
467.8621030000185
 30
0.0
 40
1.0
100
AcDbArc
 50
89.99997799999524
 51
179.9999749999976
  0
ARC
  5
38C
330
1F
100
AcDbEntity
  8
Ｓ_１_１
  6
CONTINUOUS
 62
     3
100
AcDbCircle
 10
229.4999544999897
 20
467.8621030000185
 30
0.0
 40
1.0
100
AcDbArc
 50
359.9999970000023
 51
89.9999780000017
  0
LINE
  5
38D
330
1F
100
AcDbEntity
  8
Ｓ_１_１
  6
CONTINUOUS
 62
     3
100
AcDbLine
 10
223.5000154999898
 20
470.8622250000184
 30
0.0
 11
226.4999844999898
 21
470.8622250000184
 31
0.0
  0
LINE
  5
38E
330
1F
100
AcDbEntity
  8
Ｓ_１_１
  6
CONTINUOUS
 62
     3
100
AcDbLine
 10
219.4999544999901
 20
467.8621030000185
 30
0.0
 11
219.4999544999901
 21
458.8623470000184
 31
0.0
  0
LINE
  5
38F
330
1F
100
AcDbEntity
  8
Ｓ_１_１
  6
CONTINUOUS
 62
     3
100
AcDbLine
 10
219.4999544999901
 20
458.8623470000184
 30
0.0
 11
230.4999844999898
 21
458.8623470000184
 31
0.0
  0
LINE
  5
390
330
1F
100
AcDbEntity
  8
Ｓ_１_１
  6
CONTINUOUS
 62
     3
100
AcDbLine
 10
216.0000154999903
 20
455.3621030000185
 30
0.0
 11
216.0000154999903
 21
453.3622250000184
 31
0.0
  0
LINE
  5
391
330
1F
100
AcDbEntity
  8
Ｓ_１_１
  6
CONTINUOUS
 62
     3
100
AcDbLine
 10
233.9999844999898
 20
455.3621030000185
 30
0.0
 11
233.9999844999898
 21
453.3622250000184
 31
0.0
  0
LINE
  5
392
330
1F
100
AcDbEntity
  8
Ｓ_１_１
  6
CONTINUOUS
 62
     3
100
AcDbLine
 10
213.7499844999903
 20
439.8622250000184
 30
0.0
 11
236.2499844999898
 21
439.8622250000184
 31
0.0
  0
LINE
  5
393
330
1F
100
AcDbEntity
  8
Ｓ_１_１
  6
CONTINUOUS
 62
     3
100
AcDbLine
 10
236.7499844999898
 20
439.3622250000184
 30
0.0
 11
236.7499844999898
 21
430.8622250000184
 31
0.0
  0
LINE
  5
394
330
1F
100
AcDbEntity
  8
Ｓ_１_１
  6
CONTINUOUS
 62
     3
100
AcDbLine
 10
213.2499544999901
 20
439.3622250000184
 30
0.0
 11
213.2499544999901
 21
430.8622250000184
 31
0.0
  0
LINE
  5
395
330
1F
100
AcDbEntity
  8
Ｓ_１_１
  6
CONTINUOUS
 62
     3
100
AcDbLine
 10
212.9999844999902
 20
430.8622250000184
 30
0.0
 11
236.9999544999897
 21
430.8622250000184
 31
0.0
  0
LINE
  5
396
330
1F
100
AcDbEntity
  8
Ｓ_１_１
  6
CONTINUOUS
 62
     3
100
AcDbLine
 10
220.4999844999902
 20
468.8623470000188
 30
0.0
 11
229.4999544999897
 21
468.8623470000188
 31
0.0
  0
LINE
  5
397
330
1F
100
AcDbEntity
  8
Ｓ_１_１
  6
CONTINUOUS
 62
     3
100
AcDbLine
 10
226.4998434999898
 20
470.8624120000185
 30
0.0
 11
228.4998884999896
 21
468.8623670000188
 31
0.0
  0
LINE
  5
398
330
1F
100
AcDbEntity
  8
Ｓ_１_１
  6
CONTINUOUS
 62
     3
100
AcDbLine
 10
221.4998164999902
 20
468.8624100000183
 30
0.0
 11
223.4997754999895
 21
470.8623690000185
 31
0.0
  0
LINE
  5
399
330
1F
100
AcDbEntity
  8
Ｓ_１_１
  6
CONTINUOUS
 62
     3
100
AcDbLine
 10
217.4999844999903
 20
450.3621030000185
 30
0.0
 11
232.4999844999898
 21
450.3621030000185
 31
0.0
  0
LINE
  5
39A
330
1F
100
AcDbEntity
  8
Ｓ_１_１
  6
CONTINUOUS
 62
     3
100
AcDbLine
 10
217.4999844999903
 20
451.8622250000184
 30
0.0
 11
232.4999844999898
 21
451.8622250000184
 31
0.0
  0
LINE
  5
39B
330
1F
100
AcDbEntity
  8
Ｓ_１_１
  6
CONTINUOUS
 62
     3
100
AcDbLine
 10
216.0000154999903
 20
455.3621030000185
 30
0.0
 11
233.9999844999898
 21
455.3621030000185
 31
0.0
  0
LINE
  5
39C
330
1F
100
AcDbEntity
  8
Ｓ_１_１
  6
CONTINUOUS
 62
     3
100
AcDbLine
 10
233.9999844999898
 20
448.8623470000184
 30
0.0
 11
233.9999844999898
 21
439.8622250000184
 31
0.0
  0
LINE
  5
39D
330
1F
100
AcDbEntity
  8
Ｓ_１_１
  6
CONTINUOUS
 62
     3
100
AcDbLine
 10
216.0000154999903
 20
448.8623470000184
 30
0.0
 11
216.0000154999903
 21
439.8622250000184
 31
0.0
  0
LINE
  5
39E
330
1F
100
AcDbEntity
  8
Ｓ_１_１
  6
CONTINUOUS
 62
     3
100
AcDbLine
 10
215.9998724999901
 20
453.3622460000187
 30
0.0
 11
217.49988449999
 21
451.8622330000184
 31
0.0
  0
LINE
  5
39F
330
1F
100
AcDbEntity
  8
Ｓ_１_１
  6
CONTINUOUS
 62
     3
100
AcDbLine
 10
232.4999504999896
 20
451.8622320000185
 30
0.0
 11
233.9998334999896
 21
453.3621150000185
 31
0.0
  0
LINE
  5
3A0
330
1F
100
AcDbEntity
  8
Ｓ_１_１
  6
CONTINUOUS
 62
     3
100
AcDbLine
 10
216.0000154999903
 20
453.3622250000184
 30
0.0
 11
233.9999844999898
 21
453.3622250000184
 31
0.0
  0
LINE
  5
3A1
330
1F
100
AcDbEntity
  8
Ｓ_１_１
  6
CONTINUOUS
 62
     3
100
AcDbLine
 10
215.99998649999
 20
448.8623800000187
 30
0.0
 11
217.49986949999
 21
450.3622630000186
 31
0.0
  0
LINE
  5
3A2
330
1F
100
AcDbEntity
  8
Ｓ_１_１
  6
CONTINUOUS
 62
     3
100
AcDbLine
 10
232.4998364999897
 20
450.3622210000185
 30
0.0
 11
233.9998494999896
 21
448.8622090000185
 31
0.0
  0
LINE
  5
3A3
330
1F
100
AcDbEntity
  8
Ｓ_１_１
  6
CONTINUOUS
 62
     3
100
AcDbLine
 10
213.2499544999901
 20
439.3622250000184
 30
0.0
 11
236.7499844999898
 21
439.3622250000184
 31
0.0
  0
LINE
  5
3A4
330
1F
100
AcDbEntity
  8
Ｓ_１_１
  6
CONTINUOUS
 62
     3
100
AcDbLine
 10
216.0000154999903
 20
448.8623470000184
 30
0.0
 11
233.9999844999898
 21
448.8623470000184
 31
0.0
  0
LINE
  5
3A5
330
1F
100
AcDbEntity
  8
Ｓ_１_１
  6
CONTINUOUS
 62
     3
100
AcDbLine
 10
217.4999844999903
 20
451.8622250000184
 30
0.0
 11
217.4999844999903
 21
450.3621030000185
 31
0.0
  0
LINE
  5
3A6
330
1F
100
AcDbEntity
  8
Ｓ_１_１
  6
CONTINUOUS
 62
     3
100
AcDbLine
 10
232.4999844999898
 20
451.8622250000184
 30
0.0
 11
232.4999844999898
 21
450.3621030000185
 31
0.0
  0
LINE
  5
3A7
330
1F
100
AcDbEntity
  8
Ｓ_１_１
  6
CONTINUOUS
 62
     3
100
AcDbLine
 10
236.2498804999896
 20
439.8623140000186
 30
0.0
 11
236.7498274999898
 21
439.3623680000186
 31
0.0
  0
LINE
  5
3A8
330
1F
100
AcDbEntity
  8
Ｓ_１_１
  6
CONTINUOUS
 62
     3
100
AcDbLine
 10
213.2499094999903
 20
439.3623160000183
 30
0.0
 11
213.7498074999903
 21
439.8622250000184
 31
0.0
  0
LINE
  5
3A9
330
1F
100
AcDbEntity
  8
Ｓ_１_１
  6
CONTINUOUS
 62
     3
100
AcDbLine
 10
215.99994349999
 20
455.3623340000185
 30
0.0
 11
219.4999574999902
 21
458.8623480000187
 31
0.0
  0
LINE
  5
3AA
330
1F
100
AcDbEntity
  8
Ｓ_１_１
  6
CONTINUOUS
 62
     3
100
AcDbLine
 10
230.4998344999899
 20
458.8621340000186
 30
0.0
 11
233.9998054999897
 21
455.3621620000185
 31
0.0
  0
LINE
  5
3AB
330
1F
100
AcDbEntity
  8
Ｓ_１_１
  6
CONTINUOUS
 62
     3
100
AcDbLine
 10
230.4999844999898
 20
467.8621030000185
 30
0.0
 11
230.4999844999898
 21
458.8623470000184
 31
0.0
  0
ARC
  5
3AC
330
1F
100
AcDbEntity
  8
Ｓ_１_１
  6
CONTINUOUS
 62
     3
100
AcDbCircle
 10
214.6076504999901
 20
424.7284360000185
 30
0.0
 40
6.133925000000002
100
AcDbArc
 50
119.7677071818115
 51
120.7499720975513
  0
LINE
  5
3AD
330
1F
100
AcDbEntity
  8
Ｓ_１_１
  6
CONTINUOUS
 62
     3
100
AcDbLine
 10
211.5622500000001
 20
430.0324110207251
 30
0.0
 11
212.9999964999902
 21
430.8624940000186
 31
0.0
  0
LINE
  5
3AE
330
1F
100
AcDbEntity
  8
Ｓ_１_１
  6
CONTINUOUS
 62
     3
100
AcDbLine
 10
211.5060639442997
 20
429.999972
 30
0.0
 11
211.5622500000001
 21
430.0324110207251
 31
0.0
  0
ARC
  5
3AF
330
1F
100
AcDbEntity
  8
Ｓ_１_１
  6
CONTINUOUS
 62
     3
100
AcDbCircle
 10
235.3922884999898
 20
424.7284360000185
 30
0.0
 40
6.133925000000002
100
AcDbArc
 50
62.36287943880897
 51
117.637120561191
  0
ARC
  5
3B0
330
1F
100
AcDbEntity
  8
Ｓ_１_１
  6
CONTINUOUS
 62
     3
100
AcDbCircle
 10
235.3922884999898
 20
424.7284360000185
 30
0.0
 40
6.133925000000002
100
AcDbArc
 50
59.25002790244867
 51
62.36287943880897
  0
ARC
  5
3B1
330
1F
100
AcDbEntity
  8
Ｓ_１_１
  6
CONTINUOUS
 62
     3
100
AcDbCircle
 10
235.3922884999898
 20
424.7284360000185
 30
0.0
 40
6.133925000000002
100
AcDbArc
 50
117.637120561191
 51
120.7499720975513
  0
ARC
  5
3B2
330
1F
100
AcDbEntity
  8
Ｓ_１_１
  6
CONTINUOUS
 62
     3
100
AcDbCircle
 10
224.9999844999898
 20
407.9341240000185
 30
0.0
 40
22.927938
100
AcDbArc
 50
75.81012049479429
 51
104.1898795052058
  0
ARC
  5
3B3
330
1F
100
AcDbEntity
  8
Ｓ_１_１
  6
CONTINUOUS
 62
     3
100
AcDbCircle
 10
224.9999844999898
 20
407.9341240000185
 30
0.0
 40
22.927938
100
AcDbArc
 50
74.23834917884942
 51
75.81012049479429
  0
ARC
  5
3B4
330
1F
100
AcDbEntity
  8
Ｓ_１_１
  6
CONTINUOUS
 62
     3
100
AcDbCircle
 10
224.9999844999898
 20
407.9341240000185
 30
0.0
 40
22.927938
100
AcDbArc
 50
104.1898795052058
 51
105.7616508211505
  0
LINE
  5
3B5
330
1F
100
AcDbEntity
  8
Ｓ_１_１
  6
CONTINUOUS
 62
     3
100
AcDbLine
 10
236.9999114999897
 20
430.8624160000185
 30
0.0
 11
238.2122005246307
 21
430.1625
 31
0.0
  0
LINE
  5
3B6
330
1F
100
AcDbEntity
  8
Ｓ_１_１
  6
CONTINUOUS
 62
     3
100
AcDbLine
 10
238.2122005246307
 20
430.1625
 30
0.0
 11
238.4937070348286
 21
429.999972
 31
0.0
  0
LINE
  5
3B7
330
1F
100
AcDbEntity
  8
Ｓ_１_１
  6
EXLTYPE2
 62
     1
100
AcDbLine
 10
224.9999999999998
 20
186.6749800000033
 30
0.0
 11
224.9999999999997
 21
429.999972
 31
0.0
  0
LINE
  5
3B8
330
1F
100
AcDbEntity
  8
Ｓ_１_１
  6
EXLTYPE2
 62
     1
100
AcDbLine
 10
224.9999999999998
 20
430.1625
 30
0.0
 11
224.9999999999997
 21
475.5000000000001
 31
0.0
  0
LINE
  5
3B9
330
1F
100
AcDbEntity
  8
Ｓ_１_１
  6
EXLTYPE2
 62
     1
100
AcDbLine
 10
224.9999999999997
 20
429.999972
 30
0.0
 11
224.9999999999998
 21
430.1625
 31
0.0
  0
ARC
  5
3BA
330
1F
100
AcDbEntity
  8
Ｓ_１_１
  6
CONTINUOUS
 62
     3
100
AcDbCircle
 10
214.6076504999901
 20
424.7284360000185
 30
0.0
 40
6.133925000000002
100
AcDbArc
 50
62.36287943880897
 51
119.7677071818115
  0
ARC
  5
3BB
330
1F
100
AcDbEntity
  8
Ｓ_１_１
  6
CONTINUOUS
 62
     3
100
AcDbCircle
 10
214.6076504999901
 20
424.7284360000185
 30
0.0
 40
6.133925000000002
100
AcDbArc
 50
59.25002790244867
 51
62.36287943880897
  0
LINE
  5
3BC
330
1F
100
AcDbEntity
  8
Ｓ_１_１
  6
EXLTYPE0
 62
     2
100
AcDbLine
 10
213.5
 20
383.3622700000092
 30
0.0
 11
225.0
 21
383.3622700000091
 31
0.0
  0
LINE
  5
3BD
330
1F
100
AcDbEntity
  8
Ｓ_１_１
  6
EXLTYPE0
 62
     2
100
AcDbLine
 10
225.0
 20
383.3622700000091
 30
0.0
 11
236.5000000000001
 21
383.3622700000091
 31
0.0
  0
LINE
  5
3BE
330
1F
100
AcDbEntity
  8
Ｓ_１_１
  6
EXLTYPE0
 62
     2
100
AcDbLine
 10
237.5
 20
384.3622700000091
 30
0.0
 11
237.5
 21
399.8622700000091
 31
0.0
  0
LINE
  5
3BF
330
1F
100
AcDbEntity
  8
Ｓ_１_１
  6
EXLTYPE0
 62
     2
100
AcDbLine
 10
237.5
 20
415.3622700000091
 30
0.0
 11
237.5
 21
399.8622700000091
 31
0.0
  0
LINE
  5
3C0
330
1F
100
AcDbEntity
  8
Ｓ_１_１
  6
EXLTYPE0
 62
     2
100
AcDbLine
 10
213.5
 20
416.3622700000091
 30
0.0
 11
225.0
 21
416.3622700000091
 31
0.0
  0
LINE
  5
3C1
330
1F
100
AcDbEntity
  8
Ｓ_１_１
  6
EXLTYPE0
 62
     2
100
AcDbLine
 10
225.0
 20
416.3622700000091
 30
0.0
 11
236.5000000000001
 21
416.3622700000091
 31
0.0
  0
LINE
  5
3C2
330
1F
100
AcDbEntity
  8
Ｓ_１_１
  6
EXLTYPE0
 62
     2
100
AcDbLine
 10
236.5000013689001
 20
416.3622715587089
 30
0.0
 11
237.5000014189
 21
415.3622714243087
 31
0.0
  0
LINE
  5
3C3
330
1F
100
AcDbEntity
  8
Ｓ_１_１
  6
EXLTYPE0
 62
     2
100
AcDbLine
 10
237.5000007866998
 20
384.3622689029089
 30
0.0
 11
236.5000009895998
 21
383.362269190009
 31
0.0
  0
LINE
  5
3C4
330
1F
100
AcDbEntity
  8
Ｓ_１_１
  6
EXLTYPE0
 62
     2
100
AcDbLine
 10
212.5000000481
 20
384.3622700758091
 30
0.0
 11
213.5000001752001
 21
383.3622700330088
 31
0.0
  0
LINE
  5
3C5
330
1F
100
AcDbEntity
  8
Ｓ_１_１
  6
EXLTYPE0
 62
     2
100
AcDbLine
 10
212.5
 20
384.3622700000092
 30
0.0
 11
212.5
 21
399.8622700000091
 31
0.0
  0
LINE
  5
3C6
330
1F
100
AcDbEntity
  8
Ｓ_１_１
  6
EXLTYPE0
 62
     2
100
AcDbLine
 10
213.4999997116002
 20
416.3622704628091
 30
0.0
 11
212.4999999986999
 21
415.3622706657088
 31
0.0
  0
LINE
  5
3C7
330
1F
100
AcDbEntity
  8
Ｓ_１_１
  6
EXLTYPE0
 62
     2
100
AcDbLine
 10
212.5
 20
415.3622700000091
 30
0.0
 11
212.5
 21
399.8622700000091
 31
0.0
  0
LINE
  5
3C8
330
1F
100
AcDbEntity
  8
Ｓ_１_１
  6
EXLTYPE0
 62
     2
100
AcDbLine
 10
212.5
 20
415.3622700000091
 30
0.0
 11
237.5
 21
415.3622700000091
 31
0.0
  0
LINE
  5
3C9
330
1F
100
AcDbEntity
  8
Ｓ_１_１
  6
EXLTYPE0
 62
     2
100
AcDbLine
 10
212.5
 20
384.3622700000092
 30
0.0
 11
237.5
 21
384.3622700000091
 31
0.0
  0
LINE
  5
3CA
330
1F
100
AcDbEntity
  8
Ｓ_１_１
  6
EXLTYPE0
 62
     2
100
AcDbLine
 10
233.2648620000001
 20
417.72454200002
 30
0.0
 11
216.7351450000001
 21
417.72454200002
 31
0.0
  0
LINE
  5
3CB
330
1F
100
AcDbEntity
  8
Ｓ_１_１
  6
EXLTYPE0
 62
     2
100
AcDbLine
 10
217.820119
 20
423.86224300002
 30
0.0
 11
217.4365110000001
 21
417.72453000002
 31
0.0
  0
LINE
  5
3CC
330
1F
100
AcDbEntity
  8
Ｓ_１_１
  6
EXLTYPE0
 62
     2
100
AcDbLine
 10
217.118749
 20
423.8622610000201
 30
0.0
 11
216.6499980000001
 21
416.36224700002
 31
0.0
  0
LINE
  5
3CD
330
1F
100
AcDbEntity
  8
Ｓ_１_１
  6
EXLTYPE0
 62
     2
100
AcDbLine
 10
217.4365260000002
 20
417.72455000002
 30
0.0
 11
216.650011
 21
416.36226700002
 31
0.0
  0
LINE
  5
3CE
330
1F
100
AcDbEntity
  8
Ｓ_１_１
  6
EXLTYPE0
 62
     2
100
AcDbLine
 10
232.8812499999999
 20
423.86227300002
 30
0.0
 11
233.350003
 21
416.36222800002
 31
0.0
  0
LINE
  5
3CF
330
1F
100
AcDbEntity
  8
Ｓ_１_１
  6
EXLTYPE0
 62
     2
100
AcDbLine
 10
233.3499890000001
 20
416.3622510000201
 30
0.0
 11
232.5634829999999
 21
417.72452100002
 31
0.0
  0
LINE
  5
3D0
330
1F
100
AcDbEntity
  8
Ｓ_１_１
  6
EXLTYPE0
 62
     2
100
AcDbLine
 10
232.1798880000001
 20
423.86225500002
 30
0.0
 11
232.5634970000002
 21
417.72451200002
 31
0.0
  0
LINE
  5
3D1
330
1F
100
AcDbEntity
  8
Ｓ_１_１
  6
EXLTYPE0
 62
     2
100
AcDbLine
 10
232.2509890000001
 20
376.999979
 30
0.0
 11
232.56349
 21
381.999989
 31
0.0
  0
LINE
  5
3D2
330
1F
100
AcDbEntity
  8
Ｓ_１_１
  6
EXLTYPE0
 62
     2
100
AcDbLine
 10
232.9523530000002
 20
376.999991
 30
0.0
 11
233.3499930000001
 21
383.3622419999999
 31
0.0
  0
LINE
  5
3D3
330
1F
100
AcDbEntity
  8
Ｓ_１_１
  6
EXLTYPE0
 62
     2
100
AcDbLine
 10
233.2648620000001
 20
381.999998
 30
0.0
 11
216.7351450000001
 21
381.999998
 31
0.0
  0
LINE
  5
3D4
330
1F
100
AcDbEntity
  8
Ｓ_１_１
  6
EXLTYPE0
 62
     2
100
AcDbLine
 10
233.3500120000001
 20
383.362289
 30
0.0
 11
232.563498
 21
382.000006
 31
0.0
  0
LINE
  5
3D5
330
1F
100
AcDbEntity
  8
Ｓ_１_１
  6
EXLTYPE0
 62
     2
100
AcDbLine
 10
217.749014
 20
376.999991
 30
0.0
 11
217.4365130000001
 21
382.000001
 31
0.0
  0
LINE
  5
3D6
330
1F
100
AcDbEntity
  8
Ｓ_１_１
  6
EXLTYPE0
 62
     2
100
AcDbLine
 10
217.0476500000002
 20
377.000004
 30
0.0
 11
216.6500100000001
 21
383.362254
 31
0.0
  0
LINE
  5
3D7
330
1F
100
AcDbEntity
  8
Ｓ_１_１
  6
EXLTYPE0
 62
     2
100
AcDbLine
 10
217.4365030000002
 20
381.99999
 30
0.0
 11
216.6499960000002
 21
383.36226
 31
0.0
  0
ARC
  5
3D8
330
1F
100
AcDbEntity
  8
Ｓ_１_１
  6
EXLTYPE0
 62
     2
100
AcDbCircle
 10
214.6076504999901
 20
429.9961360000183
 30
0.0
 40
6.133925000000002
100
AcDbArc
 50
235.6154019999991
 51
304.3845609999998
  0
ARC
  5
3D9
330
1F
100
AcDbEntity
  8
Ｓ_１_１
  6
EXLTYPE0
 62
     2
100
AcDbCircle
 10
224.9999844999898
 20
446.7902030000187
 30
0.0
 40
22.927942
100
AcDbArc
 50
252.4118210000002
 51
287.5881150000001
  0
ARC
  5
3DA
330
1F
100
AcDbEntity
  8
Ｓ_１_１
  6
EXLTYPE0
 62
     2
100
AcDbCircle
 10
235.3922884999898
 20
429.9961360000183
 30
0.0
 40
6.133925000000002
100
AcDbArc
 50
235.6154159999998
 51
304.3845739999999
  0
LINE
  5
3DB
330
1F
100
AcDbEntity
  8
Ｓ_１_１
  6
EXLTYPE0
 62
     2
100
AcDbLine
 10
212.9999844999902
 20
423.8623470000184
 30
0.0
 11
236.9999544999897
 21
423.8623470000184
 31
0.0
  0
LINE
  5
3DC
330
1F
100
AcDbEntity
  8
Ｓ_１_１
  6
EXLTYPE0
 62
     2
100
AcDbLine
 10
211.14361649999
 20
424.9341990000184
 30
0.0
 11
212.9999884999902
 21
423.8624220000187
 31
0.0
  0
LINE
  5
3DD
330
1F
100
AcDbEntity
  8
Ｓ_１_１
  6
EXLTYPE0
 62
     2
100
AcDbLine
 10
236.9999534999897
 20
423.8623800000187
 30
0.0
 11
238.8563264999898
 21
424.9341570000187
 31
0.0
  0
LINE
  5
3DE
330
1F
100
AcDbEntity
  8
Ｓ_１_１
  6
EXLTYPE0
 62
     2
100
AcDbLine
 10
238.8563994999895
 20
429.7904470000185
 30
0.0
 11
238.8563994999895
 21
424.9341240000185
 31
0.0
  0
LINE
  5
3DF
330
1F
100
AcDbEntity
  8
Ｓ_１_１
  6
EXLTYPE0
 62
     2
100
AcDbLine
 10
231.9282074999897
 20
429.7904470000185
 30
0.0
 11
231.9282074999897
 21
424.9341240000185
 31
0.0
  0
LINE
  5
3E0
330
1F
100
AcDbEntity
  8
Ｓ_１_１
  6
EXLTYPE0
 62
     2
100
AcDbLine
 10
218.0718534999901
 20
429.7904470000185
 30
0.0
 11
218.0718534999901
 21
424.9341240000185
 31
0.0
  0
LINE
  5
3E1
330
1F
100
AcDbEntity
  8
Ｓ_１_１
  6
EXLTYPE0
 62
     2
100
AcDbLine
 10
211.14358549999
 20
429.7904470000185
 30
0.0
 11
211.14358549999
 21
424.9341240000185
 31
0.0
  0
ARC
  5
3E2
330
1F
100
AcDbEntity
  8
Ｓ_１_１
  6
EXLTYPE0
 62
     2
100
AcDbCircle
 10
214.6076504999901
 20
424.7284360000185
 30
0.0
 40
6.133925000000002
100
AcDbArc
 50
120.7499720975513
 51
124.384513999999
  0
LINE
  5
3E3
330
1F
100
AcDbEntity
  8
Ｓ_１_１
  6
EXLTYPE0
 62
     2
100
AcDbLine
 10
211.1436234999901
 20
429.7907170000184
 30
0.0
 11
211.5060639442997
 21
429.999972
 31
0.0
  0
ARC
  5
3E4
330
1F
100
AcDbEntity
  8
Ｓ_１_１
  6
EXLTYPE0
 62
     2
100
AcDbCircle
 10
235.3922884999898
 20
424.7284360000185
 30
0.0
 40
6.133925000000002
100
AcDbArc
 50
55.61543800000034
 51
59.25002790244867
  0
ARC
  5
3E5
330
1F
100
AcDbEntity
  8
Ｓ_１_１
  6
EXLTYPE0
 62
     2
100
AcDbCircle
 10
235.3922884999898
 20
424.7284360000185
 30
0.0
 40
6.133925000000002
100
AcDbArc
 50
120.7499720975513
 51
124.3845830000003
  0
ARC
  5
3E6
330
1F
100
AcDbEntity
  8
Ｓ_１_１
  6
EXLTYPE0
 62
     2
100
AcDbCircle
 10
224.9999844999898
 20
407.9341240000185
 30
0.0
 40
22.927938
100
AcDbArc
 50
72.411858
 51
74.23834917884942
  0
ARC
  5
3E7
330
1F
100
AcDbEntity
  8
Ｓ_１_１
  6
EXLTYPE0
 62
     2
100
AcDbCircle
 10
224.9999844999898
 20
407.9341240000185
 30
0.0
 40
22.927938
100
AcDbArc
 50
105.7616508211505
 51
107.5881660000001
  0
LINE
  5
3E8
330
1F
100
AcDbEntity
  8
Ｓ_１_１
  6
EXLTYPE0
 62
     2
100
AcDbLine
 10
238.4937070348286
 20
429.999972
 30
0.0
 11
238.8563894999898
 21
429.7905770000183
 31
0.0
  0
ARC
  5
3E9
330
1F
100
AcDbEntity
  8
Ｓ_１_１
  6
EXLTYPE0
 62
     2
100
AcDbCircle
 10
214.6076504999901
 20
424.7284360000185
 30
0.0
 40
6.133925000000002
100
AcDbArc
 50
55.6153689999997
 51
59.25002790244867
  0
POLYLINE
  5
3EA
330
1F
100
AcDbEntity
  8
Ｓ_１_１
  6
CONTINUOUS
 62
     3
100
AcDb2dPolyline
 66
     1
 10
0.0
 20
0.0
 30
0.0
 70
   128
  0
VERTEX
  5
3EB
330
3EA
100
AcDbEntity
  8
Ｓ_１_１
  6
CONTINUOUS
 62
     3
100
AcDbVertex
100
AcDb2dVertex
 10
175.0000019999998
 20
429.9999720000034
 30
0.0
  0
VERTEX
  5
3EC
330
3EA
100
AcDbEntity
  8
Ｓ_１_１
  6
CONTINUOUS
 62
     3
100
AcDbVertex
100
AcDb2dVertex
 10
211.5622500000001
 20
429.999972
 30
0.0
  0
VERTEX
  5
3ED
330
3EA
100
AcDbEntity
  8
Ｓ_１_１
  6
CONTINUOUS
 62
     3
100
AcDbVertex
100
AcDb2dVertex
 10
274.9999979999998
 20
429.9999720000034
 30
0.0
  0
SEQEND
  5
3EE
330
3EA
100
AcDbEntity
  8
Ｓ_１_１
  6
CONTINUOUS
 62
     3
  0
LINE
  5
3EF
330
1F
100
AcDbEntity
  8
Ｓ_１_１
  6
CONTINUOUS
 62
     3
100
AcDbLine
 10
645.0000169999998
 20
431.4999970000034
 30
0.0
 11
661.925
 21
431.499997
 31
0.0
  0
LINE
  5
3F0
330
1F
100
AcDbEntity
  8
Ｓ_１_１
  6
CONTINUOUS
 62
     3
100
AcDbLine
 10
694.95
 20
431.499997
 30
0.0
 11
800.0000159999997
 21
431.4999970000034
 31
0.0
  0
LINE
  5
3F1
330
1F
100
AcDbEntity
  8
Ｓ_１_１
  6
CONTINUOUS
 62
     3
100
AcDbLine
 10
661.925
 20
431.499997
 30
0.0
 11
694.95
 21
431.499997
 31
0.0
  0
LINE
  5
3F2
330
1F
100
AcDbEntity
  8
Ｓ_１_１
  6
CONTINUOUS
 62
     3
100
AcDbLine
 10
665.7499704999902
 20
439.3622250000185
 30
0.0
 11
665.7499704999902
 21
431.499997
 31
0.0
  0
LINE
  5
3F3
330
1F
100
AcDbEntity
  8
Ｓ_１_１
  6
CONTINUOUS
 62
     3
100
AcDbLine
 10
689.2500004999899
 20
439.3622250000185
 30
0.0
 11
689.2500004999899
 21
431.499997
 31
0.0
  0
LINE
  5
3F4
330
1F
100
AcDbEntity
  8
Ｓ_１_１
  6
EXLTYPE2
 62
     1
100
AcDbLine
 10
677.5000159999997
 20
475.5
 30
0.0
 11
677.5000159999997
 21
362.4177650000033
 31
0.0
  0
LINE
  5
3F5
330
1F
100
AcDbEntity
  8
Ｓ_１_１
  6
EXLTYPE0
 62
     2
100
AcDbLine
 10
666.0000160000002
 20
383.3622700000092
 30
0.0
 11
677.5000160000002
 21
383.3622700000092
 31
0.0
  0
LINE
  5
3F6
330
1F
100
AcDbEntity
  8
Ｓ_１_１
  6
EXLTYPE0
 62
     2
100
AcDbLine
 10
677.5000160000002
 20
383.3622700000092
 30
0.0
 11
689.0000160000002
 21
383.3622700000092
 31
0.0
  0
LINE
  5
3F7
330
1F
100
AcDbEntity
  8
Ｓ_１_１
  6
EXLTYPE0
 62
     2
100
AcDbLine
 10
666.0000160000002
 20
416.3622700000092
 30
0.0
 11
677.5000160000002
 21
416.3622700000092
 31
0.0
  0
LINE
  5
3F8
330
1F
100
AcDbEntity
  8
Ｓ_１_１
  6
EXLTYPE0
 62
     2
100
AcDbLine
 10
677.5000160000002
 20
416.3622700000092
 30
0.0
 11
689.0000160000002
 21
416.3622700000092
 31
0.0
  0
LINE
  5
3F9
330
1F
100
AcDbEntity
  8
Ｓ_１_１
  6
EXLTYPE0
 62
     2
100
AcDbLine
 10
689.0000173689001
 20
416.362271558709
 30
0.0
 11
690.0000174189001
 21
415.3622714243088
 31
0.0
  0
LINE
  5
3FA
330
1F
100
AcDbEntity
  8
Ｓ_１_１
  6
EXLTYPE0
 62
     2
100
AcDbLine
 10
690.0000167866998
 20
384.362268902909
 30
0.0
 11
689.0000169895999
 21
383.3622691900091
 31
0.0
  0
LINE
  5
3FB
330
1F
100
AcDbEntity
  8
Ｓ_１_１
  6
EXLTYPE0
 62
     2
100
AcDbLine
 10
665.0000160481002
 20
384.3622700758092
 30
0.0
 11
666.0000161752001
 21
383.3622700330089
 31
0.0
  0
LINE
  5
3FC
330
1F
100
AcDbEntity
  8
Ｓ_１_１
  6
EXLTYPE0
 62
     2
100
AcDbLine
 10
666.0000157116003
 20
416.3622704628092
 30
0.0
 11
665.0000159987
 21
415.3622706657089
 31
0.0
  0
LINE
  5
3FD
330
1F
100
AcDbEntity
  8
Ｓ_１_１
  6
EXLTYPE0
 62
     2
100
AcDbLine
 10
665.0000160000002
 20
415.3622700000092
 30
0.0
 11
690.0000160000002
 21
415.3622700000092
 31
0.0
  0
LINE
  5
3FE
330
1F
100
AcDbEntity
  8
Ｓ_１_１
  6
EXLTYPE0
 62
     2
100
AcDbLine
 10
665.0000160000002
 20
384.3622700000092
 30
0.0
 11
690.0000160000002
 21
384.3622700000092
 31
0.0
  0
LINE
  5
3FF
330
1F
100
AcDbEntity
  8
Ｓ_１_１
  6
EXLTYPE0
 62
     2
100
AcDbLine
 10
685.7648780000002
 20
417.7245420000201
 30
0.0
 11
669.2351610000003
 21
417.7245420000201
 31
0.0
  0
LINE
  5
400
330
1F
100
AcDbEntity
  8
Ｓ_１_１
  6
EXLTYPE0
 62
     2
100
AcDbLine
 10
670.3201350000002
 20
423.86224300002
 30
0.0
 11
669.9365270000001
 21
417.7245300000201
 31
0.0
  0
LINE
  5
401
330
1F
100
AcDbEntity
  8
Ｓ_１_１
  6
EXLTYPE0
 62
     2
100
AcDbLine
 10
669.6187649999999
 20
423.8622610000201
 30
0.0
 11
669.150014
 21
416.36224700002
 31
0.0
  0
LINE
  5
402
330
1F
100
AcDbEntity
  8
Ｓ_１_１
  6
EXLTYPE0
 62
     2
100
AcDbLine
 10
669.9365420000001
 20
417.7245500000201
 30
0.0
 11
669.1500270000001
 21
416.36226700002
 31
0.0
  0
LINE
  5
403
330
1F
100
AcDbEntity
  8
Ｓ_１_１
  6
EXLTYPE0
 62
     2
100
AcDbLine
 10
685.3812660000001
 20
423.8622730000201
 30
0.0
 11
685.8500190000002
 21
416.3622280000201
 31
0.0
  0
LINE
  5
404
330
1F
100
AcDbEntity
  8
Ｓ_１_１
  6
EXLTYPE0
 62
     2
100
AcDbLine
 10
685.850005
 20
416.3622510000201
 30
0.0
 11
685.0634990000001
 21
417.72452100002
 31
0.0
  0
LINE
  5
405
330
1F
100
AcDbEntity
  8
Ｓ_１_１
  6
EXLTYPE0
 62
     2
100
AcDbLine
 10
684.6799040000003
 20
423.8622550000201
 30
0.0
 11
685.0635130000003
 21
417.7245120000201
 31
0.0
  0
LINE
  5
406
330
1F
100
AcDbEntity
  8
Ｓ_１_１
  6
EXLTYPE0
 62
     2
100
AcDbLine
 10
685.7648780000002
 20
381.9999980000001
 30
0.0
 11
669.2351610000003
 21
381.9999980000001
 31
0.0
  0
LINE
  5
407
330
1F
100
AcDbEntity
  8
Ｓ_１_１
  6
EXLTYPE0
 62
     2
100
AcDbLine
 10
685.8500280000001
 20
383.362289
 30
0.0
 11
685.063514
 21
382.000006
 31
0.0
  0
LINE
  5
408
330
1F
100
AcDbEntity
  8
Ｓ_１_１
  6
EXLTYPE0
 62
     2
100
AcDbLine
 10
669.9365190000001
 20
381.99999
 30
0.0
 11
669.1500120000003
 21
383.36226
 31
0.0
  0
ARC
  5
409
330
1F
100
AcDbEntity
  8
Ｓ_１_１
  6
EXLTYPE0
 62
     2
100
AcDbCircle
 10
687.8923044999899
 20
424.7284360000185
 30
0.0
 40
6.133925000000002
100
AcDbArc
 50
55.61543800000034
 51
124.3845830000003
  0
ARC
  5
40A
330
1F
100
AcDbEntity
  8
Ｓ_１_１
  6
EXLTYPE0
 62
     2
100
AcDbCircle
 10
677.5000004999899
 20
407.9341240000185
 30
0.0
 40
22.927938
100
AcDbArc
 50
72.411858
 51
107.5881660000001
  0
ARC
  5
40B
330
1F
100
AcDbEntity
  8
Ｓ_１_１
  6
EXLTYPE0
 62
     2
100
AcDbCircle
 10
667.1076664999903
 20
429.9961360000184
 30
0.0
 40
6.133925000000002
100
AcDbArc
 50
235.6154019999991
 51
304.3845609999998
  0
ARC
  5
40C
330
1F
100
AcDbEntity
  8
Ｓ_１_１
  6
EXLTYPE0
 62
     2
100
AcDbCircle
 10
667.1076664999903
 20
424.7284360000185
 30
0.0
 40
6.133925000000002
100
AcDbArc
 50
55.6153689999997
 51
124.384513999999
  0
ARC
  5
40D
330
1F
100
AcDbEntity
  8
Ｓ_１_１
  6
EXLTYPE0
 62
     2
100
AcDbCircle
 10
677.5000004999899
 20
446.7902030000187
 30
0.0
 40
22.927942
100
AcDbArc
 50
252.4118210000002
 51
287.5881150000001
  0
ARC
  5
40E
330
1F
100
AcDbEntity
  8
Ｓ_１_１
  6
EXLTYPE0
 62
     2
100
AcDbCircle
 10
687.8923044999899
 20
429.9961360000184
 30
0.0
 40
6.133925000000002
100
AcDbArc
 50
235.6154159999998
 51
304.3845739999999
  0
LINE
  5
40F
330
1F
100
AcDbEntity
  8
Ｓ_１_１
  6
EXLTYPE0
 62
     2
100
AcDbLine
 10
665.5000004999904
 20
423.8623470000184
 30
0.0
 11
689.4999704999898
 21
423.8623470000184
 31
0.0
  0
LINE
  5
410
330
1F
100
AcDbEntity
  8
Ｓ_１_１
  6
EXLTYPE0
 62
     2
100
AcDbLine
 10
663.6436324999901
 20
424.9341990000185
 30
0.0
 11
665.5000044999904
 21
423.8624220000188
 31
0.0
  0
LINE
  5
411
330
1F
100
AcDbEntity
  8
Ｓ_１_１
  6
EXLTYPE0
 62
     2
100
AcDbLine
 10
689.4999274999898
 20
430.8624160000186
 30
0.0
 11
691.3564054999899
 21
429.7905770000185
 31
0.0
  0
LINE
  5
412
330
1F
100
AcDbEntity
  8
Ｓ_１_１
  6
EXLTYPE0
 62
     2
100
AcDbLine
 10
689.4999694999899
 20
423.8623800000187
 30
0.0
 11
691.35634249999
 21
424.9341570000188
 31
0.0
  0
LINE
  5
413
330
1F
100
AcDbEntity
  8
Ｓ_１_１
  6
EXLTYPE0
 62
     2
100
AcDbLine
 10
663.6436394999903
 20
429.7907170000185
 30
0.0
 11
665.5000124999904
 21
430.8624940000186
 31
0.0
  0
LINE
  5
414
330
1F
100
AcDbEntity
  8
Ｓ_１_１
  6
EXLTYPE0
 62
     2
100
AcDbLine
 10
691.3564154999896
 20
429.7904470000185
 30
0.0
 11
691.3564154999896
 21
424.9341240000186
 31
0.0
  0
LINE
  5
415
330
1F
100
AcDbEntity
  8
Ｓ_１_１
  6
EXLTYPE0
 62
     2
100
AcDbLine
 10
684.4282234999898
 20
429.7904470000185
 30
0.0
 11
684.4282234999898
 21
424.9341240000186
 31
0.0
  0
LINE
  5
416
330
1F
100
AcDbEntity
  8
Ｓ_１_１
  6
EXLTYPE0
 62
     2
100
AcDbLine
 10
670.5718694999903
 20
429.7904470000185
 30
0.0
 11
670.5718694999903
 21
424.9341240000186
 31
0.0
  0
LINE
  5
417
330
1F
100
AcDbEntity
  8
Ｓ_１_１
  6
EXLTYPE0
 62
     2
100
AcDbLine
 10
663.6436014999902
 20
429.7904470000185
 30
0.0
 11
663.6436014999902
 21
424.9341240000186
 31
0.0
  0
LINE
  5
418
330
1F
100
AcDbEntity
  8
Ｓ_１_１
  6
EXLTYPE0
 62
     2
100
AcDbLine
 10
665.5000004999904
 20
430.8622250000185
 30
0.0
 11
689.4999704999898
 21
430.8622250000185
 31
0.0
  0
LINE
  5
419
330
1F
100
AcDbEntity
  8
Ｓ_１_１
  6
EXLTYPE0
 62
     2
100
AcDbLine
 10
726.5000160000006
 20
404.1122700000092
 30
0.0
 11
731.5000160000006
 21
404.1122700000092
 31
0.0
  0
LINE
  5
41A
330
1F
100
AcDbEntity
  8
Ｓ_１_１
  6
EXLTYPE0
 62
     2
100
AcDbLine
 10
726.5000160000006
 20
395.6122700000092
 30
0.0
 11
731.5000160000006
 21
395.6122700000092
 31
0.0
  0
LINE
  5
41B
330
1F
100
AcDbEntity
  8
Ｓ_１_１
  6
EXLTYPE0
 62
     2
100
AcDbLine
 10
726.5000160000006
 20
394.8622700000092
 30
0.0
 11
730.7500160000006
 21
394.8622700000092
 31
0.0
  0
LINE
  5
41C
330
1F
100
AcDbEntity
  8
Ｓ_１_１
  6
EXLTYPE0
 62
     2
100
AcDbLine
 10
726.5000160000006
 20
404.8622700000092
 30
0.0
 11
730.7500160000006
 21
404.8622700000092
 31
0.0
  0
LINE
  5
41D
330
1F
100
AcDbEntity
  8
Ｓ_１_１
  6
EXLTYPE0
 62
     2
100
AcDbLine
 10
731.5000160000006
 20
395.6122700000092
 30
0.0
 11
731.5000160000006
 21
404.1122700000092
 31
0.0
  0
LINE
  5
41E
330
1F
100
AcDbEntity
  8
Ｓ_１_１
  6
EXLTYPE0
 62
     2
100
AcDbLine
 10
730.7500160000006
 20
394.8622700000092
 30
0.0
 11
730.7500160000006
 21
404.8622700000092
 31
0.0
  0
LINE
  5
41F
330
1F
100
AcDbEntity
  8
Ｓ_１_１
  6
EXLTYPE0
 62
     2
100
AcDbLine
 10
730.7500185577007
 20
394.8622711250092
 30
0.0
 11
731.5000166565007
 21
395.612269287009
 31
0.0
  0
LINE
  5
420
330
1F
100
AcDbEntity
  8
Ｓ_１_１
  6
EXLTYPE0
 62
     2
100
AcDbLine
 10
731.5000176470005
 20
404.112271925309
 30
0.0
 11
730.7500174619006
 21
404.862272047109
 31
0.0
  0
LINE
  5
421
330
1F
100
AcDbEntity
  8
Ｓ_１_１
  6
EXLTYPE0
 62
     2
100
AcDbLine
 10
719.5000160000006
 20
399.8622700000092
 30
0.0
 11
719.5000160000006
 21
409.8622700000092
 31
0.0
  0
LINE
  5
422
330
1F
100
AcDbEntity
  8
Ｓ_１_１
  6
EXLTYPE0
 62
     2
100
AcDbLine
 10
719.5000160000006
 20
389.8622700000092
 30
0.0
 11
719.5000160000006
 21
399.8622700000092
 31
0.0
  0
LINE
  5
423
330
1F
100
AcDbEntity
  8
Ｓ_１_１
  6
EXLTYPE0
 62
     2
100
AcDbLine
 10
719.5000165510007
 20
409.8622694490091
 30
0.0
 11
720.5000165800004
 21
408.8622693357088
 31
0.0
  0
LINE
  5
424
330
1F
100
AcDbEntity
  8
Ｓ_１_１
  6
EXLTYPE0
 62
     2
100
AcDbLine
 10
720.5000162849008
 20
390.8622702006092
 30
0.0
 11
719.5000164877008
 21
389.862270487709
 31
0.0
  0
LINE
  5
425
330
1F
100
AcDbEntity
  8
Ｓ_１_１
  6
EXLTYPE0
 62
     2
100
AcDbLine
 10
720.5000160000006
 20
390.8622702006092
 30
0.0
 11
720.5000160000006
 21
399.8622700000092
 31
0.0
  0
LINE
  5
426
330
1F
100
AcDbEntity
  8
Ｓ_１_１
  6
EXLTYPE0
 62
     2
100
AcDbLine
 10
720.5000160000006
 20
399.8622700000092
 30
0.0
 11
720.5000160000006
 21
408.8622693357088
 31
0.0
  0
LINE
  5
427
330
1F
100
AcDbEntity
  8
Ｓ_１_１
  6
EXLTYPE0
 62
     2
100
AcDbLine
 10
690.0000160000002
 20
409.8622700000092
 30
0.0
 11
719.5000160000006
 21
409.8622700000092
 31
0.0
  0
LINE
  5
428
330
1F
100
AcDbEntity
  8
Ｓ_１_１
  6
EXLTYPE0
 62
     2
100
AcDbLine
 10
726.5000141656006
 20
407.3546826632092
 30
0.0
 11
725.5000139724004
 21
409.3622692529088
 31
0.0
  0
LINE
  5
429
330
1F
100
AcDbEntity
  8
Ｓ_１_１
  6
EXLTYPE0
 62
     2
100
AcDbLine
 10
726.5000155145005
 20
392.3698562440092
 30
0.0
 11
725.5000153213007
 21
390.362269654309
 31
0.0
  0
LINE
  5
42A
330
1F
100
AcDbEntity
  8
Ｓ_１_１
  6
EXLTYPE0
 62
     2
100
AcDbLine
 10
720.5000159766007
 20
407.3546833062092
 30
0.0
 11
721.5000161698006
 21
409.3622698959089
 31
0.0
  0
LINE
  5
42B
330
1F
100
AcDbEntity
  8
Ｓ_１_１
  6
EXLTYPE0
 62
     2
100
AcDbLine
 10
720.5000144859006
 20
392.3698558857092
 30
0.0
 11
721.5000145375004
 21
390.3622695805089
 31
0.0
  0
LINE
  5
42C
330
1F
100
AcDbEntity
  8
Ｓ_１_１
  6
EXLTYPE0
 62
     2
100
AcDbLine
 10
721.5000160000006
 20
390.3622700000092
 30
0.0
 11
725.5000160000006
 21
390.3622700000092
 31
0.0
  0
LINE
  5
42D
330
1F
100
AcDbEntity
  8
Ｓ_１_１
  6
EXLTYPE0
 62
     2
100
AcDbLine
 10
721.5000160000006
 20
409.3622700000092
 30
0.0
 11
725.5000160000006
 21
409.3622700000092
 31
0.0
  0
LINE
  5
42E
330
1F
100
AcDbEntity
  8
Ｓ_１_１
  6
EXLTYPE0
 62
     2
100
AcDbLine
 10
726.5000160000006
 20
399.8622700000092
 30
0.0
 11
726.5000160000006
 21
407.3546838387093
 31
0.0
  0
LINE
  5
42F
330
1F
100
AcDbEntity
  8
Ｓ_１_１
  6
EXLTYPE0
 62
     2
100
AcDbLine
 10
726.5000160000006
 20
392.3698561613092
 30
0.0
 11
726.5000160000006
 21
399.8622700000092
 31
0.0
  0
ARC
  5
430
330
1F
100
AcDbEntity
  8
Ｓ_１_１
  6
EXLTYPE0
 62
     2
100
AcDbCircle
 10
736.0416826667008
 20
399.8622700000092
 30
0.0
 40
15.5416666667
100
AcDbArc
 50
159.3345163543002
 51
159.3345238904477
  0
ARC
  5
431
330
1F
100
AcDbEntity
  8
Ｓ_１_１
  6
EXLTYPE0
 62
     2
100
AcDbCircle
 10
710.9583493333005
 20
399.8622700000092
 30
0.0
 40
15.5416666667
100
AcDbArc
 50
20.66547610955293
 51
20.66547840939962
  0
ARC
  5
432
330
1F
100
AcDbEntity
  8
Ｓ_１_１
  6
EXLTYPE0
 62
     2
100
AcDbCircle
 10
736.0416826667008
 20
399.8622700000092
 30
0.0
 40
15.5416666667
100
AcDbArc
 50
162.8126324028145
 51
197.1873680951787
  0
ARC
  5
433
330
1F
100
AcDbEntity
  8
Ｓ_１_１
  6
EXLTYPE0
 62
     2
100
AcDbCircle
 10
736.0416826667008
 20
399.8622700000092
 30
0.0
 40
15.5416666667
100
AcDbArc
 50
200.6654786560356
 51
200.6654800033002
  0
ARC
  5
434
330
1F
100
AcDbEntity
  8
Ｓ_１_１
  6
EXLTYPE0
 62
     2
100
AcDbCircle
 10
710.9583493333005
 20
399.8622700000092
 30
0.0
 40
15.5416666667
100
AcDbArc
 50
342.8126319048212
 51
17.18736759718547
  0
LINE
  5
435
330
1F
100
AcDbEntity
  8
Ｓ_１_１
  6
EXLTYPE0
 62
     2
100
AcDbLine
 10
725.8059801178626
 20
404.4547924946892
 30
0.0
 11
721.1940518821385
 21
404.4547924946892
 31
0.0
  0
LINE
  5
436
330
1F
100
AcDbEntity
  8
Ｓ_１_１
  6
EXLTYPE0
 62
     2
100
AcDbLine
 10
725.8059800779463
 20
395.2697473762792
 30
0.0
 11
721.194051922055
 21
395.2697473762792
 31
0.0
  0
ARC
  5
437
330
1F
100
AcDbEntity
  8
Ｓ_１_１
  6
EXLTYPE0
 62
     2
100
AcDbCircle
 10
720.5000160000006
 20
392.3698528460191
 30
0.0
 40
6.000000000001596
100
AcDbArc
 50
0.0000417559226242
 51
28.90218407791362
  0
ARC
  5
438
330
1F
100
AcDbEntity
  8
Ｓ_１_１
  6
EXLTYPE0
 62
     2
100
AcDbCircle
 10
726.5000160000006
 20
392.3698572186891
 30
0.0
 40
6.000000000001596
100
AcDbArc
 50
151.0978636188124
 51
180.0000417558857
  0
ARC
  5
439
330
1F
100
AcDbEntity
  8
Ｓ_１_１
  6
EXLTYPE0
 62
     2
100
AcDbCircle
 10
726.5000160000006
 20
407.3546833531892
 30
0.0
 40
6.000000000000006
100
AcDbArc
 50
179.9999920172612
 51
208.9021440266621
  0
ARC
  5
43A
330
1F
100
AcDbEntity
  8
Ｓ_１_１
  6
EXLTYPE0
 62
     2
100
AcDbCircle
 10
720.5000160000006
 20
407.3546833531892
 30
0.0
 40
6.000000000001596
100
AcDbArc
 50
331.0978559733464
 51
0.0
  0
LINE
  5
43B
330
1F
100
AcDbEntity
  8
Ｓ_１_１
  6
EXLTYPE0
 62
     2
100
AcDbLine
 10
690.0000160000002
 20
389.8622700000092
 30
0.0
 11
719.5000160000006
 21
389.8622700000092
 31
0.0
  0
LINE
  5
43C
330
1F
100
AcDbEntity
  8
Ｓ_１_１
  6
EXLTYPE0
 62
     2
100
AcDbLine
 10
669.5476668124988
 20
376.999991
 30
0.0
 11
669.150026
 21
383.3622540000001
 31
0.0
  0
LINE
  5
43D
330
1F
100
AcDbEntity
  8
Ｓ_１_１
  6
EXLTYPE0
 62
     2
100
AcDbLine
 10
670.2490300000002
 20
376.999991
 30
0.0
 11
669.9365290000003
 21
382.000001
 31
0.0
  0
LINE
  5
43E
330
1F
100
AcDbEntity
  8
Ｓ_１_１
  6
EXLTYPE0
 62
     2
100
AcDbLine
 10
684.7510057500009
 20
376.999991
 30
0.0
 11
685.0635060000002
 21
381.999989
 31
0.0
  0
LINE
  5
43F
330
1F
100
AcDbEntity
  8
Ｓ_１_１
  6
EXLTYPE0
 62
     2
100
AcDbLine
 10
685.4523690000003
 20
376.999991
 30
0.0
 11
685.8500089999999
 21
383.362242
 31
0.0
  0
LINE
  5
440
330
1F
100
AcDbEntity
  8
Ｓ_１_１
  6
EXLTYPE0
 62
     2
100
AcDbLine
 10
665.0000160000002
 20
384.3622700000092
 30
0.0
 11
665.0000160000002
 21
415.3622700000092
 31
0.0
  0
LINE
  5
441
330
1F
100
AcDbEntity
  8
Ｓ_１_１
  6
EXLTYPE0
 62
     2
100
AcDbLine
 10
690.0000160000002
 20
384.3622700000092
 30
0.0
 11
690.0000160000002
 21
415.3622700000092
 31
0.0
  0
LINE
  5
442
330
1F
100
AcDbEntity
  8
Ｓ_１_１
  6
EXLTYPE0
 62
     2
100
AcDbLine
 10
689.2500004999899
 20
431.499997
 30
0.0
 11
689.2500004999899
 21
430.8622250000185
 31
0.0
  0
LINE
  5
443
330
1F
100
AcDbEntity
  8
Ｓ_１_１
  6
EXLTYPE0
 62
     2
100
AcDbLine
 10
665.7499704999902
 20
431.499997
 30
0.0
 11
665.7499704999902
 21
430.8622250000185
 31
0.0
  0
DIMENSION
  5
444
330
1F
100
AcDbEntity
  8
Ｓ_１_１
  6
CONTINUOUS
 62
     2
100
AcDbDimension
  2
*D27
 10
767.500015
 20
495.0
 30
0.0
 11
833.7500074999999
 21
501.875
 31
0.0
 70
   160
  3
ISO-25
100
AcDbAlignedDimension
 13
900.0
 23
339.000002
 33
0.0
 14
767.500015
 24
468.469994
 34
0.0
100
AcDbRotatedDimension
1001
ACAD
1000
DSTYLE
1002
{
1070
   270
1070
     2
1070
     6
1000
EX_NORM
1070
     7
1000
EX_NORM
1070
    41
1040
7.5
1070
    42
1040
3.75
1070
    44
1040
2.5
1070
    73
1070
     0
1070
    74
1070
     0
1070
    75
1070
     0
1070
    76
1070
     0
1070
    77
1070
     1
1070
    78
1070
     8
1070
   140
1040
8.6572603926097
1070
   147
1040
0.0
1070
   173
1070
     1
1070
   176
1070
     2
1070
   177
1070
     2
1070
   178
1070
     2
1070
   271
1070
     2
1070
   277
1070
     2
1070
   279
1070
     2
1070
   280
1070
     0
1070
   287
1070
     5
1070
   340
1005
113
1002
}
  0
DIMENSION
  5
451
330
1F
100
AcDbEntity
  8
Ｓ_１_１
  6
CONTINUOUS
 62
     2
100
AcDbDimension
  2
*D28
 10
677.500016
 20
495.0
 30
0.0
 11
722.5000155
 21
501.875
 31
0.0
 70
   160
  3
ISO-25
100
AcDbAlignedDimension
 13
767.500015
 23
468.469994
 33
0.0
 14
677.500016
 24
475.5
 34
0.0
100
AcDbRotatedDimension
1001
ACAD
1000
DSTYLE
1002
{
1070
   270
1070
     2
1070
     6
1000
EX_NORM
1070
     7
1000
EX_NORM
1070
    41
1040
7.5
1070
    42
1040
3.75
1070
    44
1040
2.5
1070
    73
1070
     0
1070
    74
1070
     0
1070
    75
1070
     0
1070
    76
1070
     0
1070
    77
1070
     1
1070
    78
1070
     8
1070
   140
1040
8.6572603926097
1070
   147
1040
0.0
1070
   173
1070
     1
1070
   176
1070
     2
1070
   177
1070
     2
1070
   178
1070
     2
1070
   271
1070
     2
1070
   277
1070
     2
1070
   279
1070
     2
1070
   280
1070
     0
1070
   287
1070
     5
1070
   340
1005
113
1002
}
  0
ENDSEC
  0
SECTION
  2
OBJECTS
  0
DICTIONARY
  5
C
330
0
100
AcDbDictionary
  3
ACAD_GROUP
350
D
  3
ACAD_LAYOUT
350
1A
  3
ACAD_MATERIAL
350
43
  3
ACAD_MLEADERSTYLE
350
6B
  3
ACAD_MLINESTYLE
350
17
  3
ACAD_PLOTSETTINGS
350
19
  3
ACAD_SCALELIST
350
47
  3
ACAD_VISUALSTYLE
350
2A
  3
ACDBHEADERROUNDTRIPXREC
350
45E
  3
ACDBVARIABLEDICTIONARY
350
47F
  0
DICTIONARY
  5
48A
330
8
100
AcDbDictionary
280
     1
  3
ACAD_XREC_ROUNDTRIP
360
48B
  0
DICTIONARY
  5
D
102
{ACAD_REACTORS
330
C
102
}
330
C
100
AcDbDictionary
  0
DICTIONARY
  5
1A
102
{ACAD_REACTORS
330
C
102
}
330
C
100
AcDbDictionary
  0
DICTIONARY
  5
43
102
{ACAD_REACTORS
330
C
102
}
330
C
100
AcDbDictionary
  3
BYBLOCK
350
45
  3
BYLAYER
350
44
  3
GLOBAL
350
46
  0
DICTIONARY
  5
6B
102
{ACAD_REACTORS
330
C
102
}
330
C
100
AcDbDictionary
  3
STANDARD
350
6C
  0
DICTIONARY
  5
17
102
{ACAD_REACTORS
330
C
102
}
330
C
100
AcDbDictionary
  3
STANDARD
350
18
  0
DICTIONARY
  5
19
102
{ACAD_REACTORS
330
C
102
}
330
C
100
AcDbDictionary
  0
DICTIONARY
  5
47
102
{ACAD_REACTORS
330
C
102
}
330
C
100
AcDbDictionary
  3
A0
350
48
  3
A1
350
49
  3
A2
350
4A
  3
A3
350
4B
  3
A4
350
4C
  3
A5
350
4D
  3
A6
350
4E
  3
A7
350
4F
  3
A8
350
50
  3
A9
350
51
  3
B0
350
52
  3
B1
350
53
  3
B2
350
54
  3
B3
350
55
  3
B4
350
56
  3
B5
350
57
  3
B6
350
58
  3
B7
350
59
  3
B8
350
5A
  3
B9
350
5B
  3
C0
350
5C
  3
C1
350
5D
  3
C2
350
5E
  3
C3
350
5F
  3
C4
350
60
  3
C5
350
61
  3
C6
350
62
  3
C7
350
63
  3
C8
350
64
  3
C9
350
65
  3
D0
350
66
  3
D1
350
67
  3
D2
350
68
  0
DICTIONARY
  5
2A
102
{ACAD_REACTORS
330
C
102
}
330
C
100
AcDbDictionary
  3
2DWIREFRAME
350
2F
  3
BASIC
350
32
  3
BRIGHTEN
350
36
  3
COLORCHANGE
350
3A
  3
CONCEPTUAL
350
34
  3
DIM
350
35
  3
EDGECOLOROFF
350
3D
  3
FACEPATTERN
350
39
  3
FLAT
350
2B
  3
FLATWITHEDGES
350
2C
  3
GOURAUD
350
2D
  3
GOURAUDWITHEDGES
350
2E
  3
HIDDEN
350
31
  3
JITTEROFF
350
3B
  3
LINEPATTERN
350
38
  3
OVERHANGOFF
350
3C
  3
REALISTIC
350
33
  3
SHADED
350
42
  3
SHADED_WITH_EDGES
350
41
  3
SHADES_OF_GRAY
350
3E
  3
SKETCHY
350
3F
  3
THICKEN
350
37
  3
WIREFRAME
350
30
  3
X-RAY
350
40
  0
DICTIONARY
  5
45E
102
{ACAD_REACTORS
330
C
102
}
330
C
100
AcDbDictionary
  3
CEPSNID
350
468
  3
CEPSNTYPE
350
467
  3
DIMSTYLEDATA
350
47E
  3
FINGERPRINTGUID
350
469
  3
HYPERLINKBASE
350
461
  3
INSUNITS
350
466
  3
LAYOUTDICT
350
463
  3
LWETCUNION
350
465
  3
PLOTSETDICT
350
464
  3
PSVPSCALE
350
46B
  3
PUCSBASE
350
46E
  3
PUCSORGBACK
350
474
  3
PUCSORGBOTTOM
350
470
  3
PUCSORGFRONT
350
473
  3
PUCSORGLEFT
350
471
  3
PUCSORGRIGHT
350
472
  3
PUCSORGTOP
350
46F
  3
PUCSORTHOREF
350
46C
  3
PUCSORTHOVIEW
350
46D
  3
STYLESHEET
350
462
  3
TSTACKALIGN
350
45F
  3
TSTACKSIZE
350
460
  3
UCSBASE
350
477
  3
UCSORGBACK
350
47D
  3
UCSORGBOTTOM
350
479
  3
UCSORGFRONT
350
47C
  3
UCSORGLEFT
350
47A
  3
UCSORGRIGHT
350
47B
  3
UCSORGTOP
350
478
  3
UCSORTHOREF
350
475
  3
UCSORTHOVIEW
350
476
  3
VERSIONGUID
350
46A
  0
DICTIONARY
  5
47F
102
{ACAD_REACTORS
330
C
102
}
330
C
100
AcDbDictionary
  3
CANNOSCALE
350
48C
  3
CENTEREXE
350
486
  3
CENTERLTYPEFILE
350
487
  3
CMLEADERSTYLE
350
481
  3
CTABLESTYLE
350
480
  3
DIMASSOC
350
488
  3
HIDETEXT
350
489
  3
MSLTSCALE
350
48D
  3
PSOLHEIGHT
350
483
  3
PSOLWIDTH
350
482
  0
XRECORD
  5
48B
102
{ACAD_REACTORS
330
48A
102
}
330
48A
100
AcDbXrecord
102
VTR_0.000_0.000_1.000_1.000_VISUALSTYLE
340
2F
102
VTR_0.000_0.000_1.000_1.000_GRIDDISPLAY
 70
     3
102
VTR_0.000_0.000_1.000_1.000_GRIDMAJOR
 70
     5
102
VTR_0.000_0.000_1.000_1.000_DEFAULTLIGHTING
280
     1
102
VTR_0.000_0.000_1.000_1.000_DEFAULTLIGHTINGTYPE
 70
     1
102
VTR_0.000_0.000_1.000_1.000_BRIGHTNESS
141
0.0
102
VTR_0.000_0.000_1.000_1.000_CONTRAST
142
0.0
  0
MATERIAL
  5
45
102
{ACAD_REACTORS
330
43
102
}
102
{ACAD_XDICTIONARY
360
490
102
}
330
43
100
AcDbMaterial
  1
BYBLOCK
  0
MATERIAL
  5
44
102
{ACAD_REACTORS
330
43
102
}
102
{ACAD_XDICTIONARY
360
48E
102
}
330
43
100
AcDbMaterial
  1
BYLAYER
  0
MATERIAL
  5
46
102
{ACAD_REACTORS
330
43
102
}
102
{ACAD_XDICTIONARY
360
492
102
}
330
43
100
AcDbMaterial
  1
GLOBAL
  0
ACAD_PROXY_OBJECT
  5
6C
102
{ACAD_REACTORS
330
6B
102
}
330
6B
100
AcDbProxyObject
 90
      499
 91
      505
 93
      610
310
40901902A4063FBFFFFFE0000000000000020400000000000020404214DD185B99185C990000000000000104090141901A00000000000004100000000000000041025764000000000000039000
340
14
340
0
340
11
340
0
 94
        0
1001
ACAD_MLEADERVER
1070
     2
  0
MLINESTYLE
  5
18
102
{ACAD_REACTORS
330
17
102
}
330
17
100
AcDbMlineStyle
  2
Standard
 70
     0
  3

 62
   256
 51
90.0
 52
90.0
 71
     2
 49
0.5
 62
   256
  6
BYLAYER
 49
-0.5
 62
   256
  6
BYLAYER
  0
ACAD_PROXY_OBJECT
  5
48
102
{ACAD_REACTORS
330
47
102
}
330
47
100
AcDbProxyObject
 90
      499
 91
      503
 93
       41
310
903313A31580
  0
ACAD_PROXY_OBJECT
  5
49
102
{ACAD_REACTORS
330
47
102
}
330
47
100
AcDbProxyObject
 90
      499
 91
      503
 93
      105
310
903313A324000000000000004000
  0
ACAD_PROXY_OBJECT
  5
4A
102
{ACAD_REACTORS
330
47
102
}
330
47
100
AcDbProxyObject
 90
      499
 91
      503
 93
      105
310
903313A344000000000000104000
  0
ACAD_PROXY_OBJECT
  5
4B
102
{ACAD_REACTORS
330
47
102
}
330
47
100
AcDbProxyObject
 90
      499
 91
      503
 93
      105
310
903313A354000000000000144000
  0
ACAD_PROXY_OBJECT
  5
4C
102
{ACAD_REACTORS
330
47
102
}
330
47
100
AcDbProxyObject
 90
      499
 91
      503
 93
      105
310
903313A384000000000000204000
  0
ACAD_PROXY_OBJECT
  5
4D
102
{ACAD_REACTORS
330
47
102
}
330
47
100
AcDbProxyObject
 90
      499
 91
      503
 93
      113
310
904313A31304000000000000244000
  0
ACAD_PROXY_OBJECT
  5
4E
102
{ACAD_REACTORS
330
47
102
}
330
47
100
AcDbProxyObject
 90
      499
 91
      503
 93
      113
310
904313A31364000000000000304000
  0
ACAD_PROXY_OBJECT
  5
4F
102
{ACAD_REACTORS
330
47
102
}
330
47
100
AcDbProxyObject
 90
      499
 91
      503
 93
      113
310
904313A32304000000000000344000
  0
ACAD_PROXY_OBJECT
  5
50
102
{ACAD_REACTORS
330
47
102
}
330
47
100
AcDbProxyObject
 90
      499
 91
      503
 93
      113
310
904313A333040000000000003E4000
  0
ACAD_PROXY_OBJECT
  5
51
102
{ACAD_REACTORS
330
47
102
}
330
47
100
AcDbProxyObject
 90
      499
 91
      503
 93
      113
310
904313A34304000000000000444000
  0
ACAD_PROXY_OBJECT
  5
52
102
{ACAD_REACTORS
330
47
102
}
330
47
100
AcDbProxyObject
 90
      499
 91
      503
 93
      113
310
904313A35304000000000000494000
  0
ACAD_PROXY_OBJECT
  5
53
102
{ACAD_REACTORS
330
47
102
}
330
47
100
AcDbProxyObject
 90
      499
 91
      503
 93
      121
310
905313A3130304000000000000594000
  0
ACAD_PROXY_OBJECT
  5
54
102
{ACAD_REACTORS
330
47
102
}
330
47
100
AcDbProxyObject
 90
      499
 91
      503
 93
      105
310
903323A310000000000000010100
  0
ACAD_PROXY_OBJECT
  5
55
102
{ACAD_REACTORS
330
47
102
}
330
47
100
AcDbProxyObject
 90
      499
 91
      503
 93
      105
310
903343A310000000000000410100
  0
ACAD_PROXY_OBJECT
  5
56
102
{ACAD_REACTORS
330
47
102
}
330
47
100
AcDbProxyObject
 90
      499
 91
      503
 93
      105
310
903383A310000000000000810100
  0
ACAD_PROXY_OBJECT
  5
57
102
{ACAD_REACTORS
330
47
102
}
330
47
100
AcDbProxyObject
 90
      499
 91
      503
 93
      113
310
90431303A310000000000000910100
  0
ACAD_PROXY_OBJECT
  5
58
102
{ACAD_REACTORS
330
47
102
}
330
47
100
AcDbProxyObject
 90
      499
 91
      503
 93
      121
310
9053130303A310000000000001650100
  0
ACAD_PROXY_OBJECT
  5
59
102
{ACAD_REACTORS
330
47
102
}
330
47
100
AcDbProxyObject
 90
      499
 91
      503
 93
      257
310
90E312F31323822203D2031272D3022000000000000200FC000000000000284000
  0
ACAD_PROXY_OBJECT
  5
5A
102
{ACAD_REACTORS
330
47
102
}
330
47
100
AcDbProxyObject
 90
      499
 91
      503
 93
      249
310
90D312F363422203D2031272D3022000000000000240FC000000000000284000
  0
ACAD_PROXY_OBJECT
  5
5B
102
{ACAD_REACTORS
330
47
102
}
330
47
100
AcDbProxyObject
 90
      499
 91
      503
 93
      249
310
90D312F333222203D2031272D3022000000000000280FC000000000000284000
  0
ACAD_PROXY_OBJECT
  5
5C
102
{ACAD_REACTORS
330
47
102
}
330
47
100
AcDbProxyObject
 90
      499
 91
      503
 93
      249
310
90D312F313622203D2031272D30220000000000002C0FC000000000000284000
  0
ACAD_PROXY_OBJECT
  5
5D
102
{ACAD_REACTORS
330
47
102
}
330
47
100
AcDbProxyObject
 90
      499
 91
      503
 93
      249
310
90D332F333222203D2031272D30220000000000002E0FC000000000000284000
  0
ACAD_PROXY_OBJECT
  5
5E
102
{ACAD_REACTORS
330
47
102
}
330
47
100
AcDbProxyObject
 90
      499
 91
      503
 93
      241
310
90C312F3822203D2031272D3022000000000000300FC000000000000284000
  0
ACAD_PROXY_OBJECT
  5
5F
102
{ACAD_REACTORS
330
47
102
}
330
47
100
AcDbProxyObject
 90
      499
 91
      503
 93
      249
310
90D332F313622203D2031272D3022000000000000320FC000000000000284000
  0
ACAD_PROXY_OBJECT
  5
60
102
{ACAD_REACTORS
330
47
102
}
330
47
100
AcDbProxyObject
 90
      499
 91
      503
 93
      241
310
90C312F3422203D2031272D3022000000000000340FC000000000000284000
  0
ACAD_PROXY_OBJECT
  5
61
102
{ACAD_REACTORS
330
47
102
}
330
47
100
AcDbProxyObject
 90
      499
 91
      503
 93
      241
310
90C332F3822203D2031272D3022000000000000360FC000000000000284000
  0
ACAD_PROXY_OBJECT
  5
62
102
{ACAD_REACTORS
330
47
102
}
330
47
100
AcDbProxyObject
 90
      499
 91
      503
 93
      241
310
90C312F3222203D2031272D3022000000000000380FC000000000000284000
  0
ACAD_PROXY_OBJECT
  5
63
102
{ACAD_REACTORS
330
47
102
}
330
47
100
AcDbProxyObject
 90
      499
 91
      503
 93
      241
310
90C332F3422203D2031272D30220000000000003A0FC000000000000284000
  0
ACAD_PROXY_OBJECT
  5
64
102
{ACAD_REACTORS
330
47
102
}
330
47
100
AcDbProxyObject
 90
      499
 91
      503
 93
      161
310
90A3122203D2031272D30224000000000000284000
  0
ACAD_PROXY_OBJECT
  5
65
102
{ACAD_REACTORS
330
47
102
}
330
47
100
AcDbProxyObject
 90
      499
 91
      503
 93
      257
310
90E312D312F3222203D2031272D30220000000000003E0FC000000000000284000
  0
ACAD_PROXY_OBJECT
  5
66
102
{ACAD_REACTORS
330
47
102
}
330
47
100
AcDbProxyObject
 90
      499
 91
      503
 93
      225
310
90A3322203D2031272D302200000000000002100000000000000284000
  0
ACAD_PROXY_OBJECT
  5
67
102
{ACAD_REACTORS
330
47
102
}
330
47
100
AcDbProxyObject
 90
      499
 91
      503
 93
      225
310
90A3622203D2031272D302200000000000006100000000000000284000
  0
ACAD_PROXY_OBJECT
  5
68
102
{ACAD_REACTORS
330
47
102
}
330
47
100
AcDbProxyObject
 90
      499
 91
      503
 93
      249
310
90D31272D3022203D2031272D30220000000000000A100000000000000284000
  0
ACAD_PROXY_OBJECT
  5
2F
102
{ACAD_REACTORS
330
2A
102
}
330
2A
100
AcDbProxyObject
 90
      499
 91
      501
 93
      436
310
42CC9915DA5C99599C985B595049028333333333333E33F0000000000000F90107901411070040501600405405064090741402480A0340
1001
ACAD
1000
AcDbSavedByObjectVersion
1070
     0
  0
ACAD_PROXY_OBJECT
  5
32
102
{ACAD_REACTORS
330
2A
102
}
330
2A
100
AcDbProxyObject
 90
      499
 91
      501
 93
      388
310
4150985CDA58D07406404333333333333E33F0000000000000F90107A41107004050150841D405064090741402480A0350
1001
ACAD
1000
AcDbSavedByObjectVersion
1070
     0
  0
ACAD_PROXY_OBJECT
  5
36
102
{ACAD_REACTORS
330
2A
102
}
330
2A
100
AcDbProxyObject
 90
      499
 91
      501
 93
      428
310
42109C9A59DA1D195B90C409028333333333333E33F0000000000000F9010790141107004050150841D405064090741402480A029950
1001
ACAD
1000
AcDbSavedByObjectVersion
1070
     0
  0
ACAD_PROXY_OBJECT
  5
3A
102
{ACAD_REACTORS
330
2A
102
}
330
2A
100
AcDbProxyObject
 90
      499
 91
      501
 93
      452
310
42D0DBDB1BDC90DA185B99D95104090240C333333333333E33F0000000000000F90108901411070040501508421405064090741402480A0350
1001
ACAD
1000
AcDbSavedByObjectVersion
1070
     0
  0
ACAD_PROXY_OBJECT
  5
34
102
{ACAD_REACTORS
330
2A
102
}
330
2A
100
AcDbProxyObject
 90
      499
 91
      501
 93
      500
310
4290DBDB98D95C1D1D585B10940D028333333333333E33F0000000000000F90107902409070040501000000000018199010841D405064090740C02480A0340
1001
ACAD
1000
AcDbSavedByObjectVersion
1070
     0
  0
ACAD_PROXY_OBJECT
  5
35
102
{ACAD_REACTORS
330
2A
102
}
330
2A
100
AcDbProxyObject
 90
      499
 91
      501
 93
      412
310
40D11A5B50B409028333333333333E33F0000000000000F9010790141107004050150841D405064090741402480A02677FFFFFD0
1001
ACAD
1000
AcDbSavedByObjectVersion
1070
     0
  0
ACAD_PROXY_OBJECT
  5
3D
102
{ACAD_REACTORS
330
2A
102
}
330
2A
100
AcDbProxyObject
 90
      499
 91
      501
 93
      452
310
43115919D950DBDB1BDC93D999916409028333333333333E33F0000000000000F9010790141107004050150841D405064090741402480A0350
1001
ACAD
1000
AcDbSavedByObjectVersion
1070
     0
  0
ACAD_PROXY_OBJECT
  5
39
102
{ACAD_REACTORS
330
2A
102
}
330
2A
100
AcDbProxyObject
 90
      499
 91
      501
 93
      444
310
42D19858D95C185D1D195C9B90F409028333333333333E33F0000000000000F9010790141107004050150841D405064090741402480A0350
1001
ACAD
1000
AcDbSavedByObjectVersion
1070
     0
  0
ACAD_PROXY_OBJECT
  5
2B
102
{ACAD_REACTORS
330
2A
102
}
330
2A
100
AcDbProxyObject
 90
      499
 91
      501
 93
      380
310
41119B185D240901404333333333333E33F0000000000000F9010740A907004050150841D405064090741402480A1B50
1001
ACAD
1000
AcDbSavedByObjectVersion
1070
     0
  0
ACAD_PROXY_OBJECT
  5
2C
102
{ACAD_REACTORS
330
2A
102
}
330
2A
100
AcDbProxyObject
 90
      499
 91
      501
 93
      468
310
43519B185D15DA5D1A115919D95CD0140901404333333333333E33F0000000000000F90107409019070040501600405405064090741402480A1B50
1001
ACAD
1000
AcDbSavedByObjectVersion
1070
     0
  0
ACAD_PROXY_OBJECT
  5
2D
102
{ACAD_REACTORS
330
2A
102
}
330
2A
100
AcDbProxyObject
 90
      499
 91
      501
 93
      404
310
41D1DBDD5C985D5910240902404333333333333E33F0000000000000F9010740A9070040501641D405064090741402480A1B50
1001
ACAD
1000
AcDbSavedByObjectVersion
1070
     0
  0
ACAD_PROXY_OBJECT
  5
2E
102
{ACAD_REACTORS
330
2A
102
}
330
2A
100
AcDbProxyObject
 90
      499
 91
      501
 93
      492
310
4411DBDD5C985D5915DA5D1A115919D95CD0340902404333333333333E33F0000000000000F90107409019070040501600405405064090741402480A1B50
1001
ACAD
1000
AcDbSavedByObjectVersion
1070
     0
  0
ACAD_PROXY_OBJECT
  5
31
102
{ACAD_REACTORS
330
2A
102
}
330
2A
100
AcDbProxyObject
 90
      499
 91
      501
 93
      476
310
41921A5919195B90640502408333333333333E33F0000000000000F901079024090700405020000000000001110200405405064090740C02480A0340
1001
ACAD
1000
AcDbSavedByObjectVersion
1070
     0
  0
ACAD_PROXY_OBJECT
  5
3B
102
{ACAD_REACTORS
330
2A
102
}
330
2A
100
AcDbProxyObject
 90
      499
 91
      501
 93
      428
310
42529A5D1D195C93D999914409028333333333333E33F0000000000000F9010790141107004050150A41D405064090741402480A0350
1001
ACAD
1000
AcDbSavedByObjectVersion
1070
     0
  0
ACAD_PROXY_OBJECT
  5
38
102
{ACAD_REACTORS
330
2A
102
}
330
2A
100
AcDbProxyObject
 90
      499
 91
      501
 93
      444
310
42D31A5B995C185D1D195C9B90E409028333333333333E33F0000000000000F9010790141107004050750841D405064090741402483A0350
1001
ACAD
1000
AcDbSavedByObjectVersion
1070
     0
  0
ACAD_PROXY_OBJECT
  5
3C
102
{ACAD_REACTORS
330
2A
102
}
330
2A
100
AcDbProxyObject
 90
      499
 91
      501
 93
      444
310
42D3DD995C9A185B99D3D999915409028333333333333E33F0000000000000F9010790141107004050150941D405064090741402480A0350
1001
ACAD
1000
AcDbSavedByObjectVersion
1070
     0
  0
ACAD_PROXY_OBJECT
  5
33
102
{ACAD_REACTORS
330
2A
102
}
330
2A
100
AcDbProxyObject
 90
      499
 91
      501
 93
      428
310
425499585B1A5CDD1A58D08409038333333333333E33F0000000000000F9010740A907004050150800405405064090740C02480A1B40
1001
ACAD
1000
AcDbSavedByObjectVersion
1070
     0
  0
ACAD_PROXY_OBJECT
  5
42
102
{ACAD_REACTORS
330
2A
102
}
330
2A
100
AcDbProxyObject
 90
      499
 91
      501
 93
      420
310
4194DA1859195911B40902404333333333333E33F0000000000000F9010740A41107004050150800405405064090840C02480A0B40
1001
ACAD
1000
AcDbSavedByObjectVersion
1070
     0
  0
ACAD_PROXY_OBJECT
  5
41
102
{ACAD_REACTORS
330
2A
102
}
330
2A
100
AcDbProxyObject
 90
      499
 91
      501
 93
      516
310
4454DA18591959081DDA5D1A08195919D95CD1A40902404333333333333E33F0000000000000F901074090142907004050250800405405064090740C02480A0B40
1001
ACAD
1000
AcDbSavedByObjectVersion
1070
     0
  0
ACAD_PROXY_OBJECT
  5
3E
102
{ACAD_REACTORS
330
2A
102
}
330
2A
100
AcDbProxyObject
 90
      499
 91
      501
 93
      532
310
4394DA1859195CC81BD98811DC985E5174090240C333333333333E33F0000000000000F901079024090741D01000000000000111010841D405064090740C02480A0340
1001
ACAD
1000
AcDbSavedByObjectVersion
1070
     0
  0
ACAD_PROXY_OBJECT
  5
3F
102
{ACAD_REACTORS
330
2A
102
}
330
2A
100
AcDbProxyObject
 90
      499
 91
      501
 93
      476
310
41D4DAD95D18DA1E51840502408333333333333E33F0000000000000F901079024090741D01000000000000111010B41D405064090741802480A0340
1001
ACAD
1000
AcDbSavedByObjectVersion
1070
     0
  0
ACAD_PROXY_OBJECT
  5
37
102
{ACAD_REACTORS
330
2A
102
}
330
2A
100
AcDbProxyObject
 90
      499
 91
      501
 93
      412
310
41D51A1A58DAD95B90D409028333333333333E33F0000000000000F9010790141107004050150C41D405064090741402480A0350
1001
ACAD
1000
AcDbSavedByObjectVersion
1070
     0
  0
ACAD_PROXY_OBJECT
  5
30
102
{ACAD_REACTORS
330
2A
102
}
330
2A
100
AcDbProxyObject
 90
      499
 91
      501
 93
      420
310
4255DA5C99599C985B595059028333333333333E33F0000000000000F90107901411070040501600405405064090740C02480A0340
1001
ACAD
1000
AcDbSavedByObjectVersion
1070
     0
  0
ACAD_PROXY_OBJECT
  5
40
102
{ACAD_REACTORS
330
2A
102
}
330
2A
100
AcDbProxyObject
 90
      499
 91
      501
 93
      404
310
41560B54985E51940902404000000000000E03F0000000000000F9010740501907004050150841D405064090740C02480A1B40
1001
ACAD
1000
AcDbSavedByObjectVersion
1070
     0
  0
XRECORD
  5
468
102
{ACAD_REACTORS
330
45E
102
}
330
45E
100
AcDbXrecord
340
0
  0
XRECORD
  5
467
102
{ACAD_REACTORS
330
45E
102
}
330
45E
100
AcDbXrecord
 90
        0
  0
XRECORD
  5
47E
102
{ACAD_REACTORS
330
45E
102
}
330
45E
100
AcDbXrecord
1000
DSTYLE
1002
{
1070
   340
340
11
1002
}
  0
XRECORD
  5
469
102
{ACAD_REACTORS
330
45E
102
}
330
45E
100
AcDbXrecord
  1
{c0afdca3-6a97-40f1-8e2c-e1db6c55f2b2}
  0
XRECORD
  5
461
102
{ACAD_REACTORS
330
45E
102
}
330
45E
100
AcDbXrecord
  1

  0
XRECORD
  5
466
102
{ACAD_REACTORS
330
45E
102
}
330
45E
100
AcDbXrecord
 90
        4
  0
XRECORD
  5
463
102
{ACAD_REACTORS
330
45E
102
}
330
45E
100
AcDbXrecord
340
1A
  0
XRECORD
  5
465
102
{ACAD_REACTORS
330
45E
102
}
330
45E
100
AcDbXrecord
 90
    10781
  0
XRECORD
  5
464
102
{ACAD_REACTORS
330
45E
102
}
330
45E
100
AcDbXrecord
340
19
  0
XRECORD
  5
46B
102
{ACAD_REACTORS
330
45E
102
}
330
45E
100
AcDbXrecord
 40
0.0
  0
XRECORD
  5
46E
102
{ACAD_REACTORS
330
45E
102
}
330
45E
100
AcDbXrecord
340
0
  0
XRECORD
  5
474
102
{ACAD_REACTORS
330
45E
102
}
330
45E
100
AcDbXrecord
 10
0.0
 20
0.0
 30
0.0
  0
XRECORD
  5
470
102
{ACAD_REACTORS
330
45E
102
}
330
45E
100
AcDbXrecord
 10
0.0
 20
0.0
 30
0.0
  0
XRECORD
  5
473
102
{ACAD_REACTORS
330
45E
102
}
330
45E
100
AcDbXrecord
 10
0.0
 20
0.0
 30
0.0
  0
XRECORD
  5
471
102
{ACAD_REACTORS
330
45E
102
}
330
45E
100
AcDbXrecord
 10
0.0
 20
0.0
 30
0.0
  0
XRECORD
  5
472
102
{ACAD_REACTORS
330
45E
102
}
330
45E
100
AcDbXrecord
 10
0.0
 20
0.0
 30
0.0
  0
XRECORD
  5
46F
102
{ACAD_REACTORS
330
45E
102
}
330
45E
100
AcDbXrecord
 10
0.0
 20
0.0
 30
0.0
  0
XRECORD
  5
46C
102
{ACAD_REACTORS
330
45E
102
}
330
45E
100
AcDbXrecord
340
0
  0
XRECORD
  5
46D
102
{ACAD_REACTORS
330
45E
102
}
330
45E
100
AcDbXrecord
 70
     0
  0
XRECORD
  5
462
102
{ACAD_REACTORS
330
45E
102
}
330
45E
100
AcDbXrecord
  1

  0
XRECORD
  5
45F
102
{ACAD_REACTORS
330
45E
102
}
330
45E
100
AcDbXrecord
 90
        1
  0
XRECORD
  5
460
102
{ACAD_REACTORS
330
45E
102
}
330
45E
100
AcDbXrecord
 90
       70
  0
XRECORD
  5
477
102
{ACAD_REACTORS
330
45E
102
}
330
45E
100
AcDbXrecord
340
0
  0
XRECORD
  5
47D
102
{ACAD_REACTORS
330
45E
102
}
330
45E
100
AcDbXrecord
 10
0.0
 20
0.0
 30
0.0
  0
XRECORD
  5
479
102
{ACAD_REACTORS
330
45E
102
}
330
45E
100
AcDbXrecord
 10
0.0
 20
0.0
 30
0.0
  0
XRECORD
  5
47C
102
{ACAD_REACTORS
330
45E
102
}
330
45E
100
AcDbXrecord
 10
0.0
 20
0.0
 30
0.0
  0
XRECORD
  5
47A
102
{ACAD_REACTORS
330
45E
102
}
330
45E
100
AcDbXrecord
 10
0.0
 20
0.0
 30
0.0
  0
XRECORD
  5
47B
102
{ACAD_REACTORS
330
45E
102
}
330
45E
100
AcDbXrecord
 10
0.0
 20
0.0
 30
0.0
  0
XRECORD
  5
478
102
{ACAD_REACTORS
330
45E
102
}
330
45E
100
AcDbXrecord
 10
0.0
 20
0.0
 30
0.0
  0
XRECORD
  5
475
102
{ACAD_REACTORS
330
45E
102
}
330
45E
100
AcDbXrecord
340
0
  0
XRECORD
  5
476
102
{ACAD_REACTORS
330
45E
102
}
330
45E
100
AcDbXrecord
 70
     0
  0
XRECORD
  5
46A
102
{ACAD_REACTORS
330
45E
102
}
330
45E
100
AcDbXrecord
  1
{FAEB1C32-E019-11D5-929B-00C0DF256EC4}
  0
DICTIONARYVAR
  5
48C
102
{ACAD_REACTORS
330
47F
102
}
330
47F
100
DictionaryVariables
280
     0
  1
1:1
  0
DICTIONARYVAR
  5
486
102
{ACAD_REACTORS
330
47F
102
}
330
47F
100
DictionaryVariables
280
     0
  1
3.500000
  0
DICTIONARYVAR
  5
487
102
{ACAD_REACTORS
330
47F
102
}
330
47F
100
DictionaryVariables
280
     0
  1
acadiso.lin
  0
DICTIONARYVAR
  5
481
102
{ACAD_REACTORS
330
47F
102
}
330
47F
100
DictionaryVariables
280
     0
  1
Standard
  0
DICTIONARYVAR
  5
480
102
{ACAD_REACTORS
330
47F
102
}
330
47F
100
DictionaryVariables
280
     0
  1
Standard
  0
DICTIONARYVAR
  5
488
102
{ACAD_REACTORS
330
47F
102
}
330
47F
100
DictionaryVariables
280
     0
  1
2
  0
DICTIONARYVAR
  5
489
102
{ACAD_REACTORS
330
47F
102
}
330
47F
100
DictionaryVariables
280
     0
  1
1
  0
DICTIONARYVAR
  5
48D
102
{ACAD_REACTORS
330
47F
102
}
330
47F
100
DictionaryVariables
280
     0
  1
1
  0
DICTIONARYVAR
  5
483
102
{ACAD_REACTORS
330
47F
102
}
330
47F
100
DictionaryVariables
280
     0
  1
80.000000
  0
DICTIONARYVAR
  5
482
102
{ACAD_REACTORS
330
47F
102
}
330
47F
100
DictionaryVariables
280
     0
  1
5.000000
  0
DICTIONARY
  5
490
330
45
100
AcDbDictionary
280
     1
  3
ACAD_XREC_ROUNDTRIP
360
491
  0
DICTIONARY
  5
48E
330
44
100
AcDbDictionary
280
     1
  3
ACAD_XREC_ROUNDTRIP
360
48F
  0
DICTIONARY
  5
492
330
46
100
AcDbDictionary
280
     1
  3
ACAD_XREC_ROUNDTRIP
360
493
  0
XRECORD
  5
491
102
{ACAD_REACTORS
330
490
102
}
330
490
100
AcDbXrecord
102
MATERIAL
148
0.0
149
0.0
149
0.0
 93
        0
 94
      127
282
     0
 72
     1
 77
     1
171
     1
175
     1
179
     1
273
     0
  0
XRECORD
  5
48F
102
{ACAD_REACTORS
330
48E
102
}
330
48E
100
AcDbXrecord
102
MATERIAL
148
0.0
149
0.0
149
0.0
 93
        0
 94
      127
282
     0
 72
     1
 77
     1
171
     1
175
     1
179
     1
273
     0
  0
XRECORD
  5
493
102
{ACAD_REACTORS
330
492
102
}
330
492
100
AcDbXrecord
102
MATERIAL
148
0.0
149
0.0
149
0.0
 93
        0
 94
      127
282
     0
 72
     1
 77
     1
171
     1
175
     1
179
     1
273
     0
  0
ENDSEC
  0
EOF
