  0
SECTION
  2
HEADER
  9
$ACADVER
  1
AC1014
  9
$ACADMAINTVER
 70
     9
  9
$DWGCODEPAGE
  3
ANSI_932
  9
$INSBASE
 10
0.0
 20
0.0
 30
0.0
  9
$EXTMIN
 10
30.0
 20
30.0
 30
0.0
  9
$EXTMAX
 10
1230.0
 20
861.0
 30
0.0
  9
$LIMMIN
 10
0.0
 20
0.0
  9
$LIMMAX
 10
420.0
 20
297.0
  9
$ORTHOMODE
 70
     0
  9
$REGENMODE
 70
     1
  9
$FILLMODE
 70
     1
  9
$QTEXTMODE
 70
     0
  9
$MIRRTEXT
 70
     1
  9
$DRAGMODE
 70
     2
  9
$LTSCALE
 40
1.0
  9
$OSMODE
 70
    37
  9
$ATTMODE
 70
     1
  9
$TEXTSIZE
 40
2.5
  9
$TRACEWID
 40
1.0
  9
$TEXTSTYLE
  7
STANDARD
  9
$CLAYER
  8
Ｓ_１_１
  9
$CELTYPE
  6
BYLAYER
  9
$CECOLOR
 62
   256
  9
$CELTSCALE
 40
1.0
  9
$DELOBJ
 70
     1
  9
$DISPSILH
 70
     0
  9
$DIMSCALE
 40
1.0
  9
$DIMASZ
 40
2.5
  9
$DIMEXO
 40
0.625
  9
$DIMDLI
 40
3.75
  9
$DIMRND
 40
0.0
  9
$DIMDLE
 40
0.0
  9
$DIMEXE
 40
1.25
  9
$DIMTP
 40
0.0
  9
$DIMTM
 40
0.0
  9
$DIMTXT
 40
2.5
  9
$DIMCEN
 40
2.5
  9
$DIMTSZ
 40
0.0
  9
$DIMTOL
 70
     0
  9
$DIMLIM
 70
     0
  9
$DIMTIH
 70
     0
  9
$DIMTOH
 70
     0
  9
$DIMSE1
 70
     0
  9
$DIMSE2
 70
     0
  9
$DIMTAD
 70
     1
  9
$DIMZIN
 70
     8
  9
$DIMBLK
  1

  9
$DIMASO
 70
     1
  9
$DIMSHO
 70
     1
  9
$DIMPOST
  1

  9
$DIMAPOST
  1

  9
$DIMALT
 70
     0
  9
$DIMALTD
 70
     3
  9
$DIMALTF
 40
0.03937007874016
  9
$DIMLFAC
 40
1.0
  9
$DIMTOFL
 70
     1
  9
$DIMTVP
 40
0.0
  9
$DIMTIX
 70
     0
  9
$DIMSOXD
 70
     0
  9
$DIMSAH
 70
     0
  9
$DIMBLK1
  1

  9
$DIMBLK2
  1

  9
$DIMSTYLE
  2
ISO-25
  9
$DIMCLRD
 70
     0
  9
$DIMCLRE
 70
     0
  9
$DIMCLRT
 70
     0
  9
$DIMTFAC
 40
1.0
  9
$DIMGAP
 40
0.625
  9
$DIMJUST
 70
     0
  9
$DIMSD1
 70
     0
  9
$DIMSD2
 70
     0
  9
$DIMTOLJ
 70
     0
  9
$DIMTZIN
 70
     8
  9
$DIMALTZ
 70
     0
  9
$DIMALTTZ
 70
     0
  9
$DIMFIT
 70
     3
  9
$DIMUPT
 70
     0
  9
$DIMUNIT
 70
     2
  9
$DIMDEC
 70
     2
  9
$DIMTDEC
 70
     2
  9
$DIMALTU
 70
     2
  9
$DIMALTTD
 70
     3
  9
$DIMTXSTY
  7
STANDARD
  9
$DIMAUNIT
 70
     0
  9
$LUNITS
 70
     2
  9
$LUPREC
 70
     4
  9
$SKETCHINC
 40
1.0
  9
$FILLETRAD
 40
10.0
  9
$AUNITS
 70
     0
  9
$AUPREC
 70
     0
  9
$MENU
  1
.
  9
$ELEVATION
 40
0.0
  9
$PELEVATION
 40
0.0
  9
$THICKNESS
 40
0.0
  9
$LIMCHECK
 70
     0
  9
$CHAMFERA
 40
0.0
  9
$CHAMFERB
 40
0.0
  9
$CHAMFERC
 40
0.0
  9
$CHAMFERD
 40
0.0
  9
$SKPOLY
 70
     0
  9
$TDCREATE
 40
2459585.496266505
  9
$TDUPDATE
 40
2459585.496267535
  9
$TDINDWG
 40
0.0000000116
  9
$TDUSRTIMER
 40
0.0000000116
  9
$USRTIMER
 70
     1
  9
$ANGBASE
 50
0.0
  9
$ANGDIR
 70
     0
  9
$PDMODE
 70
     0
  9
$PDSIZE
 40
0.0
  9
$PLINEWID
 40
0.0
  9
$COORDS
 70
     1
  9
$SPLFRAME
 70
     0
  9
$SPLINETYPE
 70
     6
  9
$SPLINESEGS
 70
     8
  9
$ATTDIA
 70
     0
  9
$ATTREQ
 70
     1
  9
$HANDLING
 70
     1
  9
$HANDSEED
  5
408
  9
$SURFTAB1
 70
     6
  9
$SURFTAB2
 70
     6
  9
$SURFTYPE
 70
     6
  9
$SURFU
 70
     6
  9
$SURFV
 70
     6
  9
$UCSNAME
  2

  9
$UCSORG
 10
0.0
 20
0.0
 30
0.0
  9
$UCSXDIR
 10
1.0
 20
0.0
 30
0.0
  9
$UCSYDIR
 10
0.0
 20
1.0
 30
0.0
  9
$PUCSNAME
  2

  9
$PUCSORG
 10
0.0
 20
0.0
 30
0.0
  9
$PUCSXDIR
 10
1.0
 20
0.0
 30
0.0
  9
$PUCSYDIR
 10
0.0
 20
1.0
 30
0.0
  9
$USERI1
 70
     0
  9
$USERI2
 70
     0
  9
$USERI3
 70
     0
  9
$USERI4
 70
     0
  9
$USERI5
 70
     0
  9
$USERR1
 40
0.0
  9
$USERR2
 40
0.0
  9
$USERR3
 40
0.0
  9
$USERR4
 40
0.0
  9
$USERR5
 40
0.0
  9
$WORLDVIEW
 70
     1
  9
$SHADEDGE
 70
     3
  9
$SHADEDIF
 70
    70
  9
$TILEMODE
 70
     1
  9
$MAXACTVP
 70
    64
  9
$PINSBASE
 10
0.0
 20
0.0
 30
0.0
  9
$PLIMCHECK
 70
     0
  9
$PEXTMIN
 10
1.000000000000000E+20
 20
1.000000000000000E+20
 30
1.000000000000000E+20
  9
$PEXTMAX
 10
-1.000000000000000E+20
 20
-1.000000000000000E+20
 30
-1.000000000000000E+20
  9
$PLIMMIN
 10
0.0
 20
0.0
  9
$PLIMMAX
 10
420.0
 20
297.0
  9
$UNITMODE
 70
     0
  9
$VISRETAIN
 70
     1
  9
$PLINEGEN
 70
     0
  9
$PSLTSCALE
 70
     1
  9
$TREEDEPTH
 70
  3020
  9
$PICKSTYLE
 70
     1
  9
$CMLSTYLE
  2
STANDARD
  9
$CMLJUST
 70
     0
  9
$CMLSCALE
 40
20.0
  9
$PROXYGRAPHICS
 70
     1
  9
$MEASUREMENT
 70
     1
  0
ENDSEC
  0
SECTION
  2
CLASSES
  0
CLASS
  1
ACDBDICTIONARYWDFLT
  2
AcDbDictionaryWithDefault
  3
ObjectDBX Classes
 90
        0
280
     0
281
     0
  0
CLASS
  1
VISUALSTYLE
  2
AcDbVisualStyle
  3
ObjectDBX Classes
 90
     4095
280
     0
281
     0
  0
CLASS
  1
MATERIAL
  2
AcDbMaterial
  3
ObjectDBX Classes
 90
     1153
280
     0
281
     0
  0
CLASS
  1
SCALE
  2
AcDbScale
  3
ObjectDBX Classes
 90
     1153
280
     0
281
     0
  0
CLASS
  1
TABLESTYLE
  2
AcDbTableStyle
  3
ObjectDBX Classes
 90
     4095
280
     0
281
     0
  0
CLASS
  1
MLEADERSTYLE
  2
AcDbMLeaderStyle
  3
ACDB_MLEADERSTYLE_CLASS
 90
     4095
280
     0
281
     0
  0
CLASS
  1
SUN
  2
AcDbSun
  3
SCENEOE
 90
     1153
280
     0
281
     0
  0
CLASS
  1
DICTIONARYVAR
  2
AcDbDictionaryVar
  3
ObjectDBX Classes
 90
        0
280
     0
281
     0
  0
CLASS
  1
XRECORD
  2
AcDbXrecord
  3
ObjectDBX Classes
 90
        0
280
     0
281
     0
  0
CLASS
  1
LWPOLYLINE
  2
AcDbPolyline
  3
ObjectDBX Classes
 90
        0
280
     0
281
     1
  0
CLASS
  1
HATCH
  2
AcDbHatch
  3
ObjectDBX Classes
 90
        0
280
     0
281
     1
  0
CLASS
  1
ACDBPLACEHOLDER
  2
AcDbPlaceHolder
  3
ObjectDBX Classes
 90
        0
280
     0
281
     0
  0
CLASS
  1
LAYOUT
  2
AcDbLayout
  3
ObjectDBX Classes
 90
        0
280
     0
281
     0
  0
ENDSEC
  0
SECTION
  2
TABLES
  0
TABLE
  2
VPORT
  5
8
102
{ACAD_XDICTIONARY
360
3FD
102
}
330
0
100
AcDbSymbolTable
 70
     1
  0
VPORT
  5
29
330
8
100
AcDbSymbolTableRecord
100
AcDbViewportTableRecord
  2
*ACTIVE
 70
     0
 10
0.0
 20
0.0
 11
1.0
 21
1.0
 12
630.0
 22
445.5
 13
0.0
 23
0.0
 14
10.0
 24
10.0
 15
10.0
 25
10.0
 16
0.0
 26
0.0
 36
1.0
 17
0.0
 27
0.0
 37
0.0
 40
831.0
 41
1.444043321299639
 42
50.0
 43
0.0
 44
0.0
 50
0.0
 51
0.0
 71
     0
 72
  1000
 73
     1
 74
     3
 75
     0
 76
     0
 77
     0
 78
     0
  0
ENDTAB
  0
TABLE
  2
LTYPE
  5
5
330
0
100
AcDbSymbolTable
 70
     7
  0
LTYPE
  5
14
330
5
100
AcDbSymbolTableRecord
100
AcDbLinetypeTableRecord
  2
BYBLOCK
 70
     0
  3

 72
    65
 73
     0
 40
0.0
  0
LTYPE
  5
15
330
5
100
AcDbSymbolTableRecord
100
AcDbLinetypeTableRecord
  2
BYLAYER
 70
     0
  3

 72
    65
 73
     0
 40
0.0
  0
LTYPE
  5
16
330
5
100
AcDbSymbolTableRecord
100
AcDbLinetypeTableRecord
  2
CONTINUOUS
 70
     0
  3
Solid line
 72
    65
 73
     0
 40
0.0
  0
LTYPE
  5
6E
330
5
100
AcDbSymbolTableRecord
100
AcDbLinetypeTableRecord
  2
EXLTYPE0
 70
     0
  3
破線
 72
    65
 73
     2
 40
4.0
 49
3.0
 74
     0
 49
-1.0
 74
     0
  0
LTYPE
  5
6F
330
5
100
AcDbSymbolTableRecord
100
AcDbLinetypeTableRecord
  2
EXLTYPE1
 70
     0
  3
点線
 72
    65
 73
     2
 40
2.0
 49
1.0
 74
     0
 49
-1.0
 74
     0
  0
LTYPE
  5
70
330
5
100
AcDbSymbolTableRecord
100
AcDbLinetypeTableRecord
  2
EXLTYPE2
 70
     0
  3
一点鎖線
 72
    65
 73
     4
 40
13.0
 49
10.0
 74
     0
 49
-1.0
 74
     0
 49
1.0
 74
     0
 49
-1.0
 74
     0
  0
LTYPE
  5
71
330
5
100
AcDbSymbolTableRecord
100
AcDbLinetypeTableRecord
  2
EXLTYPE3
 70
     0
  3
二点鎖線
 72
    65
 73
     6
 40
15.0
 49
10.0
 74
     0
 49
-1.0
 74
     0
 49
1.0
 74
     0
 49
-1.0
 74
     0
 49
1.0
 74
     0
 49
-1.0
 74
     0
  0
LTYPE
  5
72
330
5
100
AcDbSymbolTableRecord
100
AcDbLinetypeTableRecord
  2
EXLTYPE4
 70
     0
  3
一点鎖線2
 72
    65
 73
     4
 40
3.5
 49
2.0
 74
     0
 49
-0.5
 74
     0
 49
0.5
 74
     0
 49
-0.5
 74
     0
  0
LTYPE
  5
73
330
5
100
AcDbSymbolTableRecord
100
AcDbLinetypeTableRecord
  2
EXLTYPE5
 70
     0
  3
二点鎖線2
 72
    65
 73
     6
 40
4.5
 49
2.0
 74
     0
 49
-0.5
 74
     0
 49
0.5
 74
     0
 49
-0.5
 74
     0
 49
0.5
 74
     0
 49
-0.5
 74
     0
  0
ENDTAB
  0
TABLE
  2
LAYER
  5
2
330
0
100
AcDbSymbolTable
 70
     4
  0
LAYER
  5
10
330
2
100
AcDbSymbolTableRecord
100
AcDbLayerTableRecord
  2
0
 70
     0
 62
     7
  6
CONTINUOUS
  0
LAYER
  5
76
330
2
100
AcDbSymbolTableRecord
100
AcDbLayerTableRecord
  2
図面枠
 70
     4
 62
     7
  6
CONTINUOUS
  0
LAYER
  5
77
330
2
100
AcDbSymbolTableRecord
100
AcDbLayerTableRecord
  2
Ｓ_１_１
 70
     0
 62
     7
  6
CONTINUOUS
  0
LAYER
  5
115
330
2
100
AcDbSymbolTableRecord
100
AcDbLayerTableRecord
  2
DEFPOINTS
 70
     0
 62
     7
  6
CONTINUOUS
  0
ENDTAB
  0
TABLE
  2
STYLE
  5
3
330
0
100
AcDbSymbolTable
 70
     5
  0
STYLE
  5
11
330
3
100
AcDbSymbolTableRecord
100
AcDbTextStyleTableRecord
  2
STANDARD
 70
     0
 40
0.0
 41
1.0
 50
0.0
 71
     0
 42
2.5
  3
monotxt
  4
extfont
  0
STYLE
  5
74
330
3
100
AcDbSymbolTableRecord
100
AcDbTextStyleTableRecord
  2
EXCADSTD
 70
     0
 40
0.0
 41
1.0
 50
0.0
 71
     0
 42
2.5
  3
monotxt
  4
extfont
  0
STYLE
  5
75
330
3
100
AcDbSymbolTableRecord
100
AcDbTextStyleTableRecord
  2
EXCADVERT
 70
     4
 40
0.0
 41
1.0
 50
0.0
 71
     0
 42
2.5
  3
monotxt
  4
extfont
  0
STYLE
  5
D8
330
3
100
AcDbSymbolTableRecord
100
AcDbTextStyleTableRecord
  2
EXCADTTF1
 70
     0
 40
0.0
 41
1.0
 50
0.0
 71
     0
 42
2.5
  3
msgothic.ttc
  4

1001
ACAD
1000
MS Gothic
1071
    32817
  0
STYLE
  5
113
330
3
100
AcDbSymbolTableRecord
100
AcDbTextStyleTableRecord
  2
EXCADDIM1
 70
     0
 40
0.0
 41
1.0
 50
0.0
 71
     0
 42
2.5
  3
msgothic.ttc
  4

1001
ACAD
1000
MS Gothic
1071
    32817
  0
ENDTAB
  0
TABLE
  2
VIEW
  5
6
330
0
100
AcDbSymbolTable
 70
     0
  0
ENDTAB
  0
TABLE
  2
UCS
  5
7
330
0
100
AcDbSymbolTable
 70
     0
  0
ENDTAB
  0
TABLE
  2
APPID
  5
9
330
0
100
AcDbSymbolTable
 70
     2
  0
APPID
  5
12
330
9
100
AcDbSymbolTableRecord
100
AcDbRegAppTableRecord
  2
ACAD
 70
     0
  0
APPID
  5
407
330
9
100
AcDbSymbolTableRecord
100
AcDbRegAppTableRecord
  2
ACAD_MLEADERVER
 70
     0
  0
ENDTAB
  0
TABLE
  2
DIMSTYLE
  5
A
330
0
100
AcDbSymbolTable
 70
     1
  0
DIMSTYLE
105
27
102
{ACAD_REACTORS
330
114
330
122
330
12F
330
13C
330
147
330
156
330
162
330
16F
330
2D3
330
2E0
330
2ED
102
}
330
A
100
AcDbSymbolTableRecord
100
AcDbDimStyleTableRecord
  2
ISO-25
 70
     0
  3

  4

  5

  6

  7

 40
1.0
 41
2.5
 42
0.625
 43
3.75
 44
1.25
 45
0.0
 46
0.0
 47
0.0
 48
0.0
140
2.5
141
2.5
142
0.0
143
0.03937007874016
144
1.0
145
0.0
146
1.0
147
0.625
 71
     0
 72
     0
 73
     0
 74
     0
 75
     0
 76
     0
 77
     1
 78
     8
170
     0
171
     3
172
     1
173
     0
174
     0
175
     0
176
     0
177
     0
178
     0
270
     2
271
     2
272
     2
273
     2
274
     3
340
11
275
     0
280
     0
281
     0
282
     0
283
     0
284
     8
285
     0
286
     0
287
     5
288
     0
  0
ENDTAB
  0
TABLE
  2
BLOCK_RECORD
  5
1
330
0
100
AcDbSymbolTable
 70
    25
  0
BLOCK_RECORD
  5
1F
330
1
100
AcDbSymbolTableRecord
100
AcDbBlockTableRecord
  2
*MODEL_SPACE
  0
BLOCK_RECORD
  5
1B
330
1
100
AcDbSymbolTableRecord
100
AcDbBlockTableRecord
  2
*PAPER_SPACE
  0
BLOCK_RECORD
  5
78
330
1
100
AcDbSymbolTableRecord
100
AcDbBlockTableRecord
  2
EX_NORM
  0
BLOCK_RECORD
  5
7B
330
1
100
AcDbSymbolTableRecord
100
AcDbBlockTableRecord
  2
EX_BNORM
  0
BLOCK_RECORD
  5
7E
330
1
100
AcDbSymbolTableRecord
100
AcDbBlockTableRecord
  2
EX_BCIR
  0
BLOCK_RECORD
  5
81
330
1
100
AcDbSymbolTableRecord
100
AcDbBlockTableRecord
  2
EX_RCIVIL
  0
BLOCK_RECORD
  5
84
330
1
100
AcDbSymbolTableRecord
100
AcDbBlockTableRecord
  2
EX_SLANT
  0
BLOCK_RECORD
  5
87
330
1
100
AcDbSymbolTableRecord
100
AcDbBlockTableRecord
  2
EX_NONE
  0
BLOCK_RECORD
  5
8A
330
1
100
AcDbSymbolTableRecord
100
AcDbBlockTableRecord
  2
EX_CIVIL
  0
BLOCK_RECORD
  5
8D
330
1
100
AcDbSymbolTableRecord
100
AcDbBlockTableRecord
  2
EX_WCIR
  0
BLOCK_RECORD
  5
90
330
1
100
AcDbSymbolTableRecord
100
AcDbBlockTableRecord
  2
EX_WCIR2
  0
BLOCK_RECORD
  5
93
330
1
100
AcDbSymbolTableRecord
100
AcDbBlockTableRecord
  2
EX_WNORM
  0
BLOCK_RECORD
  5
96
330
1
100
AcDbSymbolTableRecord
100
AcDbBlockTableRecord
  2
EX_NNORM
  0
BLOCK_RECORD
  5
99
330
1
100
AcDbSymbolTableRecord
100
AcDbBlockTableRecord
  2
EX_BBOX
  0
BLOCK_RECORD
  5
9C
330
1
100
AcDbSymbolTableRecord
100
AcDbBlockTableRecord
  2
EX_WBOX
  0
BLOCK_RECORD
  5
9F
330
1
100
AcDbSymbolTableRecord
100
AcDbBlockTableRecord
  2
EX_INTEGRAL
  0
BLOCK_RECORD
  5
116
330
1
100
AcDbSymbolTableRecord
100
AcDbBlockTableRecord
  2
*D15
  0
BLOCK_RECORD
  5
123
330
1
100
AcDbSymbolTableRecord
100
AcDbBlockTableRecord
  2
*D16
  0
BLOCK_RECORD
  5
130
330
1
100
AcDbSymbolTableRecord
100
AcDbBlockTableRecord
  2
*D17
  0
BLOCK_RECORD
  5
13D
330
1
100
AcDbSymbolTableRecord
100
AcDbBlockTableRecord
  2
*D18
  0
BLOCK_RECORD
  5
148
330
1
100
AcDbSymbolTableRecord
100
AcDbBlockTableRecord
  2
*D19
  0
BLOCK_RECORD
  5
157
330
1
100
AcDbSymbolTableRecord
100
AcDbBlockTableRecord
  2
*D20
  0
BLOCK_RECORD
  5
163
330
1
100
AcDbSymbolTableRecord
100
AcDbBlockTableRecord
  2
*D21
  0
BLOCK_RECORD
  5
170
330
1
100
AcDbSymbolTableRecord
100
AcDbBlockTableRecord
  2
*D22
  0
BLOCK_RECORD
  5
2D4
330
1
100
AcDbSymbolTableRecord
100
AcDbBlockTableRecord
  2
*D23
  0
BLOCK_RECORD
  5
2E1
330
1
100
AcDbSymbolTableRecord
100
AcDbBlockTableRecord
  2
*D24
  0
BLOCK_RECORD
  5
2EE
330
1
100
AcDbSymbolTableRecord
100
AcDbBlockTableRecord
  2
*D25
  0
ENDTAB
  0
ENDSEC
  0
SECTION
  2
BLOCKS
  0
BLOCK
  5
20
330
1F
100
AcDbEntity
  8
0
100
AcDbBlockBegin
  2
*MODEL_SPACE
 70
     0
 10
0.0
 20
0.0
 30
0.0
  3
*MODEL_SPACE
  1

  0
ENDBLK
  5
21
330
1F
100
AcDbEntity
  8
0
100
AcDbBlockEnd
  0
BLOCK
  5
1C
330
1B
100
AcDbEntity
 67
     1
  8
0
100
AcDbBlockBegin
  2
*PAPER_SPACE
 70
     0
 10
0.0
 20
0.0
 30
0.0
  3
*PAPER_SPACE
  1

  0
ENDBLK
  5
1D
330
1B
100
AcDbEntity
 67
     1
  8
0
100
AcDbBlockEnd
  0
BLOCK
  5
79
330
78
100
AcDbEntity
  8
0
100
AcDbBlockBegin
  2
EX_NORM
 70
     0
 10
0.0
 20
0.0
 30
0.0
  3
EX_NORM
  1

  0
LINE
  5
A2
330
78
100
AcDbEntity
  8
0
  6
CONTINUOUS
 62
     0
100
AcDbLine
 10
0.0
 20
0.0
 30
0.0
 11
-1.0
 21
0.0
 31
0.0
  0
LINE
  5
A3
330
78
100
AcDbEntity
  8
0
  6
CONTINUOUS
 62
     0
100
AcDbLine
 10
0.0
 20
0.0
 30
0.0
 11
-1.0
 21
0.166666667
 31
0.0
  0
LINE
  5
A4
330
78
100
AcDbEntity
  8
0
  6
CONTINUOUS
 62
     0
100
AcDbLine
 10
0.0
 20
0.0
 30
0.0
 11
-1.0
 21
-0.166666667
 31
0.0
  0
ENDBLK
  5
7A
330
78
100
AcDbEntity
  8
0
100
AcDbBlockEnd
  0
BLOCK
  5
7C
330
7B
100
AcDbEntity
  8
0
100
AcDbBlockBegin
  2
EX_BNORM
 70
     0
 10
0.0
 20
0.0
 30
0.0
  3
EX_BNORM
  1

  0
LINE
  5
A5
330
7B
100
AcDbEntity
  8
0
  6
CONTINUOUS
 62
     0
100
AcDbLine
 10
0.0
 20
0.0
 30
0.0
 11
-1.0
 21
0.0
 31
0.0
  0
LINE
  5
A6
330
7B
100
AcDbEntity
  8
0
  6
CONTINUOUS
 62
     0
100
AcDbLine
 10
0.0
 20
0.0
 30
0.0
 11
-1.0
 21
0.166666667
 31
0.0
  0
LINE
  5
A7
330
7B
100
AcDbEntity
  8
0
  6
CONTINUOUS
 62
     0
100
AcDbLine
 10
0.0
 20
0.0
 30
0.0
 11
-1.0
 21
-0.166666667
 31
0.0
  0
LINE
  5
A8
330
7B
100
AcDbEntity
  8
0
  6
CONTINUOUS
 62
     0
100
AcDbLine
 10
0.0
 20
0.0
 30
0.0
 11
-1.0
 21
0.083333333
 31
0.0
  0
LINE
  5
A9
330
7B
100
AcDbEntity
  8
0
  6
CONTINUOUS
 62
     0
100
AcDbLine
 10
0.0
 20
0.0
 30
0.0
 11
-1.0
 21
-0.083333333
 31
0.0
  0
LINE
  5
AA
330
7B
100
AcDbEntity
  8
0
  6
CONTINUOUS
 62
     0
100
AcDbLine
 10
-1.0
 20
0.166666667
 30
0.0
 11
-1.0
 21
-0.166666667
 31
0.0
  0
ENDBLK
  5
7D
330
7B
100
AcDbEntity
  8
0
100
AcDbBlockEnd
  0
BLOCK
  5
7F
330
7E
100
AcDbEntity
  8
0
100
AcDbBlockBegin
  2
EX_BCIR
 70
     0
 10
0.0
 20
0.0
 30
0.0
  3
EX_BCIR
  1

  0
LINE
  5
AB
330
7E
100
AcDbEntity
  8
0
  6
CONTINUOUS
 62
     0
100
AcDbLine
 10
0.0
 20
0.0
 30
0.0
 11
-1.0
 21
0.0
 31
0.0
  0
CIRCLE
  5
AC
330
7E
100
AcDbEntity
  8
0
  6
CONTINUOUS
 62
     0
100
AcDbCircle
 10
0.0
 20
0.0
 30
0.0
 40
0.5
  0
CIRCLE
  5
AD
330
7E
100
AcDbEntity
  8
0
  6
CONTINUOUS
 62
     0
100
AcDbCircle
 10
0.0
 20
0.0
 30
0.0
 40
0.25
  0
ENDBLK
  5
80
330
7E
100
AcDbEntity
  8
0
100
AcDbBlockEnd
  0
BLOCK
  5
82
330
81
100
AcDbEntity
  8
0
100
AcDbBlockBegin
  2
EX_RCIVIL
 70
     0
 10
0.0
 20
0.0
 30
0.0
  3
EX_RCIVIL
  1

  0
LINE
  5
AE
330
81
100
AcDbEntity
  8
0
  6
CONTINUOUS
 62
     0
100
AcDbLine
 10
0.0
 20
0.0
 30
0.0
 11
-1.0
 21
0.0
 31
0.0
  0
LINE
  5
AF
330
81
100
AcDbEntity
  8
0
  6
CONTINUOUS
 62
     0
100
AcDbLine
 10
-1.0
 20
-0.25
 30
0.0
 11
0.0
 21
-0.25
 31
0.0
  0
LINE
  5
B0
330
81
100
AcDbEntity
  8
0
  6
CONTINUOUS
 62
     0
100
AcDbLine
 10
-1.0
 20
-0.125
 30
0.0
 11
0.0
 21
-0.125
 31
0.0
  0
ENDBLK
  5
83
330
81
100
AcDbEntity
  8
0
100
AcDbBlockEnd
  0
BLOCK
  5
85
330
84
100
AcDbEntity
  8
0
100
AcDbBlockBegin
  2
EX_SLANT
 70
     0
 10
0.0
 20
0.0
 30
0.0
  3
EX_SLANT
  1

  0
LINE
  5
B1
330
84
100
AcDbEntity
  8
0
  6
CONTINUOUS
 62
     0
100
AcDbLine
 10
0.0
 20
0.0
 30
0.0
 11
-1.0
 21
0.0
 31
0.0
  0
LINE
  5
B2
330
84
100
AcDbEntity
  8
0
  6
CONTINUOUS
 62
     0
100
AcDbLine
 10
0.707106781
 20
0.707106781
 30
0.0
 11
-0.707106781
 21
-0.707106781
 31
0.0
  0
ENDBLK
  5
86
330
84
100
AcDbEntity
  8
0
100
AcDbBlockEnd
  0
BLOCK
  5
88
330
87
100
AcDbEntity
  8
0
100
AcDbBlockBegin
  2
EX_NONE
 70
     0
 10
0.0
 20
0.0
 30
0.0
  3
EX_NONE
  1

  0
LINE
  5
B3
330
87
100
AcDbEntity
  8
0
  6
CONTINUOUS
 62
     0
100
AcDbLine
 10
0.0
 20
0.0
 30
0.0
 11
-1.0
 21
0.0
 31
0.0
  0
ENDBLK
  5
89
330
87
100
AcDbEntity
  8
0
100
AcDbBlockEnd
  0
BLOCK
  5
8B
330
8A
100
AcDbEntity
  8
0
100
AcDbBlockBegin
  2
EX_CIVIL
 70
     0
 10
0.0
 20
0.0
 30
0.0
  3
EX_CIVIL
  1

  0
LINE
  5
B4
330
8A
100
AcDbEntity
  8
0
  6
CONTINUOUS
 62
     0
100
AcDbLine
 10
0.0
 20
0.0
 30
0.0
 11
-1.0
 21
0.0
 31
0.0
  0
LINE
  5
B5
330
8A
100
AcDbEntity
  8
0
  6
CONTINUOUS
 62
     0
100
AcDbLine
 10
-1.0
 20
0.25
 30
0.0
 11
0.0
 21
0.25
 31
0.0
  0
LINE
  5
B6
330
8A
100
AcDbEntity
  8
0
  6
CONTINUOUS
 62
     0
100
AcDbLine
 10
-1.0
 20
0.125
 30
0.0
 11
0.0
 21
0.125
 31
0.0
  0
ENDBLK
  5
8C
330
8A
100
AcDbEntity
  8
0
100
AcDbBlockEnd
  0
BLOCK
  5
8E
330
8D
100
AcDbEntity
  8
0
100
AcDbBlockBegin
  2
EX_WCIR
 70
     0
 10
0.0
 20
0.0
 30
0.0
  3
EX_WCIR
  1

  0
LINE
  5
B7
330
8D
100
AcDbEntity
  8
0
  6
CONTINUOUS
 62
     0
100
AcDbLine
 10
0.0
 20
0.0
 30
0.0
 11
-1.0
 21
0.0
 31
0.0
  0
CIRCLE
  5
B8
330
8D
100
AcDbEntity
  8
0
  6
CONTINUOUS
 62
     0
100
AcDbCircle
 10
0.0
 20
0.0
 30
0.0
 40
0.5
  0
ENDBLK
  5
8F
330
8D
100
AcDbEntity
  8
0
100
AcDbBlockEnd
  0
BLOCK
  5
91
330
90
100
AcDbEntity
  8
0
100
AcDbBlockBegin
  2
EX_WCIR2
 70
     0
 10
0.0
 20
0.0
 30
0.0
  3
EX_WCIR2
  1

  0
LINE
  5
B9
330
90
100
AcDbEntity
  8
0
  6
CONTINUOUS
 62
     0
100
AcDbLine
 10
-0.5
 20
0.0
 30
0.0
 11
-1.0
 21
0.0
 31
0.0
  0
CIRCLE
  5
BA
330
90
100
AcDbEntity
  8
0
  6
CONTINUOUS
 62
     0
100
AcDbCircle
 10
0.0
 20
0.0
 30
0.0
 40
0.5
  0
ENDBLK
  5
92
330
90
100
AcDbEntity
  8
0
100
AcDbBlockEnd
  0
BLOCK
  5
94
330
93
100
AcDbEntity
  8
0
100
AcDbBlockBegin
  2
EX_WNORM
 70
     0
 10
0.0
 20
0.0
 30
0.0
  3
EX_WNORM
  1

  0
LINE
  5
BB
330
93
100
AcDbEntity
  8
0
  6
CONTINUOUS
 62
     0
100
AcDbLine
 10
-1.0
 20
0.0
 30
0.0
 11
-1.0
 21
0.0
 31
0.0
  0
LINE
  5
BC
330
93
100
AcDbEntity
  8
0
  6
CONTINUOUS
 62
     0
100
AcDbLine
 10
0.0
 20
0.0
 30
0.0
 11
-1.0
 21
0.166666667
 31
0.0
  0
LINE
  5
BD
330
93
100
AcDbEntity
  8
0
  6
CONTINUOUS
 62
     0
100
AcDbLine
 10
0.0
 20
0.0
 30
0.0
 11
-1.0
 21
-0.166666667
 31
0.0
  0
LINE
  5
BE
330
93
100
AcDbEntity
  8
0
  6
CONTINUOUS
 62
     0
100
AcDbLine
 10
-1.0
 20
0.166666667
 30
0.0
 11
-1.0
 21
-0.166666667
 31
0.0
  0
ENDBLK
  5
95
330
93
100
AcDbEntity
  8
0
100
AcDbBlockEnd
  0
BLOCK
  5
97
330
96
100
AcDbEntity
  8
0
100
AcDbBlockBegin
  2
EX_NNORM
 70
     0
 10
0.0
 20
0.0
 30
0.0
  3
EX_NNORM
  1

  0
LINE
  5
BF
330
96
100
AcDbEntity
  8
0
  6
CONTINUOUS
 62
     0
100
AcDbLine
 10
0.0
 20
0.0
 30
0.0
 11
-1.0
 21
0.0
 31
0.0
  0
LINE
  5
C0
330
96
100
AcDbEntity
  8
0
  6
CONTINUOUS
 62
     0
100
AcDbLine
 10
0.0
 20
0.0
 30
0.0
 11
-1.0
 21
0.166666667
 31
0.0
  0
LINE
  5
C1
330
96
100
AcDbEntity
  8
0
  6
CONTINUOUS
 62
     0
100
AcDbLine
 10
0.0
 20
0.0
 30
0.0
 11
-1.0
 21
-0.166666667
 31
0.0
  0
LINE
  5
C2
330
96
100
AcDbEntity
  8
0
  6
CONTINUOUS
 62
     0
100
AcDbLine
 10
-1.0
 20
0.166666667
 30
0.0
 11
-1.0
 21
-0.166666667
 31
0.0
  0
ENDBLK
  5
98
330
96
100
AcDbEntity
  8
0
100
AcDbBlockEnd
  0
BLOCK
  5
9A
330
99
100
AcDbEntity
  8
0
100
AcDbBlockBegin
  2
EX_BBOX
 70
     0
 10
0.0
 20
0.0
 30
0.0
  3
EX_BBOX
  1

  0
LINE
  5
C3
330
99
100
AcDbEntity
  8
0
  6
CONTINUOUS
 62
     0
100
AcDbLine
 10
0.0
 20
0.0
 30
0.0
 11
-1.0
 21
0.0
 31
0.0
  0
LINE
  5
C4
330
99
100
AcDbEntity
  8
0
  6
CONTINUOUS
 62
     0
100
AcDbLine
 10
-0.5
 20
0.5
 30
0.0
 11
0.5
 21
0.5
 31
0.0
  0
LINE
  5
C5
330
99
100
AcDbEntity
  8
0
  6
CONTINUOUS
 62
     0
100
AcDbLine
 10
0.5
 20
0.5
 30
0.0
 11
0.5
 21
-0.5
 31
0.0
  0
LINE
  5
C6
330
99
100
AcDbEntity
  8
0
  6
CONTINUOUS
 62
     0
100
AcDbLine
 10
0.5
 20
-0.5
 30
0.0
 11
-0.5
 21
-0.5
 31
0.0
  0
LINE
  5
C7
330
99
100
AcDbEntity
  8
0
  6
CONTINUOUS
 62
     0
100
AcDbLine
 10
-0.5
 20
-0.5
 30
0.0
 11
-0.5
 21
0.5
 31
0.0
  0
LINE
  5
C8
330
99
100
AcDbEntity
  8
0
  6
CONTINUOUS
 62
     0
100
AcDbLine
 10
-0.25
 20
0.25
 30
0.0
 11
0.25
 21
0.25
 31
0.0
  0
LINE
  5
C9
330
99
100
AcDbEntity
  8
0
  6
CONTINUOUS
 62
     0
100
AcDbLine
 10
0.25
 20
0.25
 30
0.0
 11
0.25
 21
-0.25
 31
0.0
  0
LINE
  5
CA
330
99
100
AcDbEntity
  8
0
  6
CONTINUOUS
 62
     0
100
AcDbLine
 10
0.25
 20
-0.25
 30
0.0
 11
-0.25
 21
-0.25
 31
0.0
  0
LINE
  5
CB
330
99
100
AcDbEntity
  8
0
  6
CONTINUOUS
 62
     0
100
AcDbLine
 10
-0.25
 20
-0.25
 30
0.0
 11
-0.25
 21
0.25
 31
0.0
  0
ENDBLK
  5
9B
330
99
100
AcDbEntity
  8
0
100
AcDbBlockEnd
  0
BLOCK
  5
9D
330
9C
100
AcDbEntity
  8
0
100
AcDbBlockBegin
  2
EX_WBOX
 70
     0
 10
0.0
 20
0.0
 30
0.0
  3
EX_WBOX
  1

  0
LINE
  5
CC
330
9C
100
AcDbEntity
  8
0
  6
CONTINUOUS
 62
     0
100
AcDbLine
 10
-0.5
 20
0.0
 30
0.0
 11
-1.0
 21
0.0
 31
0.0
  0
LINE
  5
CD
330
9C
100
AcDbEntity
  8
0
  6
CONTINUOUS
 62
     0
100
AcDbLine
 10
-0.5
 20
0.5
 30
0.0
 11
0.5
 21
0.5
 31
0.0
  0
LINE
  5
CE
330
9C
100
AcDbEntity
  8
0
  6
CONTINUOUS
 62
     0
100
AcDbLine
 10
0.5
 20
0.5
 30
0.0
 11
0.5
 21
-0.5
 31
0.0
  0
LINE
  5
CF
330
9C
100
AcDbEntity
  8
0
  6
CONTINUOUS
 62
     0
100
AcDbLine
 10
0.5
 20
-0.5
 30
0.0
 11
-0.5
 21
-0.5
 31
0.0
  0
LINE
  5
D0
330
9C
100
AcDbEntity
  8
0
  6
CONTINUOUS
 62
     0
100
AcDbLine
 10
-0.5
 20
-0.5
 30
0.0
 11
-0.5
 21
0.5
 31
0.0
  0
ENDBLK
  5
9E
330
9C
100
AcDbEntity
  8
0
100
AcDbBlockEnd
  0
BLOCK
  5
A0
330
9F
100
AcDbEntity
  8
0
100
AcDbBlockBegin
  2
EX_INTEGRAL
 70
     0
 10
0.0
 20
0.0
 30
0.0
  3
EX_INTEGRAL
  1

  0
LINE
  5
D1
330
9F
100
AcDbEntity
  8
0
  6
CONTINUOUS
 62
     0
100
AcDbLine
 10
0.0
 20
0.0
 30
0.0
 11
-1.0
 21
0.0
 31
0.0
  0
ARC
  5
D2
330
9F
100
AcDbEntity
  8
0
  6
CONTINUOUS
 62
     0
100
AcDbCircle
 10
0.542115
 20
0.164992
 30
0.0
 40
0.56667
100
AcDbArc
 50
73.07249033629006
 51
196.9275130221199
  0
ARC
  5
D3
330
9F
100
AcDbEntity
  8
0
  6
CONTINUOUS
 62
     0
100
AcDbCircle
 10
-0.542115
 20
-0.164992
 30
0.0
 40
0.56667
100
AcDbArc
 50
253.0724869220464
 51
16.9275130559125
  0
ENDBLK
  5
A1
330
9F
100
AcDbEntity
  8
0
100
AcDbBlockEnd
  0
BLOCK
  5
117
330
116
100
AcDbEntity
  8
0
100
AcDbBlockBegin
  2
*D15
 70
     1
 10
0.0
 20
0.0
 30
0.0
  3
*D15
  1

  0
LINE
  5
119
330
116
100
AcDbEntity
  8
Ｓ_１_１
  6
CONTINUOUS
 62
     2
100
AcDbLine
 10
444.999965
 20
388.499996
 30
0.0
 11
444.999965
 21
603.0
 31
0.0
  0
LINE
  5
11A
330
116
100
AcDbEntity
  8
Ｓ_１_１
  6
CONTINUOUS
 62
     2
100
AcDbLine
 10
195.000002
 20
388.499996
 30
0.0
 11
195.000002
 21
603.0
 31
0.0
  0
LINE
  5
11B
330
116
100
AcDbEntity
  8
Ｓ_１_１
  6
CONTINUOUS
 62
     2
100
AcDbLine
 10
435.999965
 20
600.0
 30
0.0
 11
204.000002
 21
600.0
 31
0.0
  0
INSERT
  5
11C
330
116
100
AcDbEntity
  8
Ｓ_１_１
 62
     2
100
AcDbBlockReference
  2
EX_NORM
 10
444.999965
 20
600.0
 30
0.0
 41
9.0
 42
9.0
 43
9.0
  0
INSERT
  5
11D
330
116
100
AcDbEntity
  8
Ｓ_１_１
 62
     2
100
AcDbBlockReference
  2
EX_NORM
 10
195.000002
 20
600.0
 30
0.0
 41
9.0
 42
9.0
 43
9.0
 50
180.0
  0
MTEXT
  5
11E
330
116
100
AcDbEntity
  8
Ｓ_１_１
 62
     2
100
AcDbMText
 10
319.9999835
 20
608.25
 30
0.0
 40
10.38871247113164
 41
0.0
 71
     5
 72
     1
  1
250
  7
EXCADDIM1
  0
POINT
  5
11F
330
116
100
AcDbEntity
  8
DEFPOINTS
 62
     0
100
AcDbPoint
 10
444.999965
 20
383.999996
 30
0.0
  0
POINT
  5
120
330
116
100
AcDbEntity
  8
DEFPOINTS
 62
     0
100
AcDbPoint
 10
195.000002
 20
383.999996
 30
0.0
  0
POINT
  5
121
330
116
100
AcDbEntity
  8
DEFPOINTS
 62
     0
100
AcDbPoint
 10
195.000002
 20
600.0
 30
0.0
  0
ENDBLK
  5
118
330
116
100
AcDbEntity
  8
0
100
AcDbBlockEnd
  0
BLOCK
  5
124
330
123
100
AcDbEntity
  8
0
100
AcDbBlockBegin
  2
*D16
 70
     1
 10
0.0
 20
0.0
 30
0.0
  3
*D16
  1

  0
LINE
  5
126
330
123
100
AcDbEntity
  8
Ｓ_１_１
  6
CONTINUOUS
 62
     2
100
AcDbLine
 10
1002.499992
 20
454.9999909999999
 30
0.0
 11
1063.0
 21
454.9999909999999
 31
0.0
  0
LINE
  5
127
330
123
100
AcDbEntity
  8
Ｓ_１_１
  6
CONTINUOUS
 62
     2
100
AcDbLine
 10
1002.499992
 20
265.000004
 30
0.0
 11
1063.0
 21
265.000004
 31
0.0
  0
LINE
  5
128
330
123
100
AcDbEntity
  8
Ｓ_１_１
  6
CONTINUOUS
 62
     2
100
AcDbLine
 10
1060.0
 20
445.9999909999999
 30
0.0
 11
1060.0
 21
274.000004
 31
0.0
  0
INSERT
  5
129
330
123
100
AcDbEntity
  8
Ｓ_１_１
 62
     2
100
AcDbBlockReference
  2
EX_NORM
 10
1060.0
 20
454.9999909999999
 30
0.0
 41
9.0
 42
9.0
 43
9.0
 50
90.0
  0
INSERT
  5
12A
330
123
100
AcDbEntity
  8
Ｓ_１_１
 62
     2
100
AcDbBlockReference
  2
EX_NORM
 10
1060.0
 20
265.000004
 30
0.0
 41
9.0
 42
9.0
 43
9.0
 50
270.0
  0
MTEXT
  5
12B
330
123
100
AcDbEntity
  8
Ｓ_１_１
 62
     2
100
AcDbMText
 10
1051.75
 20
359.9999974999999
 30
0.0
 40
10.38871247113164
 41
0.0
 71
     5
 72
     1
  1
%%c190
  7
EXCADDIM1
 11
0.0
 21
1.0
 31
0.0
  0
POINT
  5
12C
330
123
100
AcDbEntity
  8
DEFPOINTS
 62
     0
100
AcDbPoint
 10
997.9999919999999
 20
454.9999909999999
 30
0.0
  0
POINT
  5
12D
330
123
100
AcDbEntity
  8
DEFPOINTS
 62
     0
100
AcDbPoint
 10
997.9999919999999
 20
265.000004
 30
0.0
  0
POINT
  5
12E
330
123
100
AcDbEntity
  8
DEFPOINTS
 62
     0
100
AcDbPoint
 10
1060.0
 20
265.000004
 30
0.0
  0
ENDBLK
  5
125
330
123
100
AcDbEntity
  8
0
100
AcDbBlockEnd
  0
BLOCK
  5
131
330
130
100
AcDbEntity
  8
0
100
AcDbBlockBegin
  2
*D17
 70
     1
 10
0.0
 20
0.0
 30
0.0
  3
*D17
  1

  0
LINE
  5
133
330
130
100
AcDbEntity
  8
Ｓ_１_１
  6
CONTINUOUS
 62
     2
100
AcDbLine
 10
1002.499992
 20
454.9999829999999
 30
0.0
 11
1063.0
 21
454.9999829999999
 31
0.0
  0
LINE
  5
134
330
130
100
AcDbEntity
  8
Ｓ_１_１
  6
CONTINUOUS
 62
     2
100
AcDbLine
 10
916.500009
 20
555.362262
 30
0.0
 11
1063.0
 21
555.3622619999999
 31
0.0
  0
LINE
  5
135
330
130
100
AcDbEntity
  8
Ｓ_１_１
  6
CONTINUOUS
 62
     2
100
AcDbLine
 10
1060.0
 20
463.9999829999999
 30
0.0
 11
1060.0
 21
546.3622619999999
 31
0.0
  0
INSERT
  5
136
330
130
100
AcDbEntity
  8
Ｓ_１_１
 62
     2
100
AcDbBlockReference
  2
EX_NORM
 10
1060.0
 20
454.9999829999999
 30
0.0
 41
9.0
 42
9.0
 43
9.0
 50
270.0
  0
INSERT
  5
137
330
130
100
AcDbEntity
  8
Ｓ_１_１
 62
     2
100
AcDbBlockReference
  2
EX_NORM
 10
1060.0
 20
555.3622619999999
 30
0.0
 41
9.0
 42
9.0
 43
9.0
 50
90.0
  0
MTEXT
  5
138
330
130
100
AcDbEntity
  8
Ｓ_１_１
 62
     2
100
AcDbMText
 10
1051.75
 20
505.1811225
 30
0.0
 40
10.38871247113164
 41
0.0
 71
     5
 72
     1
  1
(100)
  7
EXCADDIM1
 11
0.0
 21
1.0
 31
0.0
  0
POINT
  5
139
330
130
100
AcDbEntity
  8
DEFPOINTS
 62
     0
100
AcDbPoint
 10
997.9999919999999
 20
454.9999829999999
 30
0.0
  0
POINT
  5
13A
330
130
100
AcDbEntity
  8
DEFPOINTS
 62
     0
100
AcDbPoint
 10
912.000009
 20
555.362262
 30
0.0
  0
POINT
  5
13B
330
130
100
AcDbEntity
  8
DEFPOINTS
 62
     0
100
AcDbPoint
 10
1060.0
 20
555.3622619999999
 30
0.0
  0
ENDBLK
  5
132
330
130
100
AcDbEntity
  8
0
100
AcDbBlockEnd
  0
BLOCK
  5
13E
330
13D
100
AcDbEntity
  8
0
100
AcDbBlockBegin
  2
*D18
 70
     1
 10
0.0
 20
0.0
 30
0.0
  3
*D18
  1

  0
LINE
  5
140
330
13D
100
AcDbEntity
  8
Ｓ_１_１
  6
CONTINUOUS
 62
     2
100
AcDbLine
 10
991.0
 20
200.0
 30
0.0
 11
639.000025
 21
200.0
 31
0.0
  0
INSERT
  5
141
330
13D
100
AcDbEntity
  8
Ｓ_１_１
 62
     2
100
AcDbBlockReference
  2
EX_NORM
 10
1000.0
 20
200.0
 30
0.0
 41
9.0
 42
9.0
 43
9.0
  0
INSERT
  5
142
330
13D
100
AcDbEntity
  8
Ｓ_１_１
 62
     2
100
AcDbBlockReference
  2
EX_NORM
 10
630.000025
 20
200.0
 30
0.0
 41
9.0
 42
9.0
 43
9.0
 50
180.0
  0
MTEXT
  5
143
330
13D
100
AcDbEntity
  8
Ｓ_１_１
 62
     2
100
AcDbMText
 10
815.0000125
 20
208.25
 30
0.0
 40
10.38871247113164
 41
0.0
 71
     5
 72
     1
  1
370
  7
EXCADDIM1
  0
POINT
  5
144
330
13D
100
AcDbEntity
  8
DEFPOINTS
 62
     0
100
AcDbPoint
 10
1000.0
 20
266.999996
 30
0.0
  0
POINT
  5
145
330
13D
100
AcDbEntity
  8
DEFPOINTS
 62
     0
100
AcDbPoint
 10
630.000025
 20
266.999996
 30
0.0
  0
POINT
  5
146
330
13D
100
AcDbEntity
  8
DEFPOINTS
 62
     0
100
AcDbPoint
 10
630.000025
 20
200.0
 30
0.0
  0
ENDBLK
  5
13F
330
13D
100
AcDbEntity
  8
0
100
AcDbBlockEnd
  0
BLOCK
  5
149
330
148
100
AcDbEntity
  8
0
100
AcDbBlockBegin
  2
*D19
 70
     1
 10
0.0
 20
0.0
 30
0.0
  3
*D19
  1

  0
LINE
  5
14B
330
148
100
AcDbEntity
  8
Ｓ_１_１
  6
CONTINUOUS
 62
     2
100
AcDbLine
 10
630.000025
 20
262.499996
 30
0.0
 11
630.000025
 21
197.0
 31
0.0
  0
LINE
  5
14C
330
148
100
AcDbEntity
  8
Ｓ_１_１
  6
CONTINUOUS
 62
     2
100
AcDbLine
 10
620.00002
 20
315.4999879
 30
0.0
 11
620.00002
 21
197.0
 31
0.0
  0
LINE
  5
14D
330
148
100
AcDbEntity
  8
Ｓ_１_１
  6
CONTINUOUS
 62
     2
100
AcDbLine
 10
630.000025
 20
200.0
 30
0.0
 11
620.00002
 21
200.0
 31
0.0
  0
LINE
  5
14E
330
148
100
AcDbEntity
  8
Ｓ_１_１
  6
CONTINUOUS
 62
     2
100
AcDbLine
 10
639.000025
 20
200.0
 30
0.0
 11
648.000025
 21
200.0
 31
0.0
  0
LINE
  5
14F
330
148
100
AcDbEntity
  8
Ｓ_１_１
  6
CONTINUOUS
 62
     2
100
AcDbLine
 10
611.00002
 20
200.0
 30
0.0
 11
602.00002
 21
200.0
 31
0.0
  0
INSERT
  5
150
330
148
100
AcDbEntity
  8
Ｓ_１_１
 62
     2
100
AcDbBlockReference
  2
EX_NORM
 10
630.000025
 20
200.0
 30
0.0
 41
9.0
 42
9.0
 43
9.0
 50
180.0
  0
INSERT
  5
151
330
148
100
AcDbEntity
  8
Ｓ_１_１
 62
     2
100
AcDbBlockReference
  2
EX_NORM
 10
620.00002
 20
200.0
 30
0.0
 41
9.0
 42
9.0
 43
9.0
  0
MTEXT
  5
152
330
148
100
AcDbEntity
  8
Ｓ_１_１
 62
     2
100
AcDbMText
 10
645.750025
 20
208.2499999999998
 30
0.0
 40
10.38871247113164
 41
0.0
 71
     5
 72
     1
  1
10
  7
EXCADDIM1
  0
POINT
  5
153
330
148
100
AcDbEntity
  8
DEFPOINTS
 62
     0
100
AcDbPoint
 10
630.000025
 20
266.999996
 30
0.0
  0
POINT
  5
154
330
148
100
AcDbEntity
  8
DEFPOINTS
 62
     0
100
AcDbPoint
 10
620.00002
 20
319.9999879
 30
0.0
  0
POINT
  5
155
330
148
100
AcDbEntity
  8
DEFPOINTS
 62
     0
100
AcDbPoint
 10
620.00002
 20
200.0
 30
0.0
  0
ENDBLK
  5
14A
330
148
100
AcDbEntity
  8
0
100
AcDbBlockEnd
  0
BLOCK
  5
158
330
157
100
AcDbEntity
  8
0
100
AcDbBlockBegin
  2
*D20
 70
     1
 10
0.0
 20
0.0
 30
0.0
  3
*D20
  1

  0
LINE
  5
15A
330
157
100
AcDbEntity
  8
Ｓ_１_１
  6
CONTINUOUS
 62
     2
100
AcDbLine
 10
620.00002181081
 20
315.500008
 30
0.0
 11
620.00002181081
 21
197.0
 31
0.0
  0
LINE
  5
15B
330
157
100
AcDbEntity
  8
Ｓ_１_１
  6
CONTINUOUS
 62
     2
100
AcDbLine
 10
611.00002181081
 20
200.0
 30
0.0
 11
594.00002
 21
200.0
 31
0.0
  0
INSERT
  5
15C
330
157
100
AcDbEntity
  8
Ｓ_１_１
 62
     2
100
AcDbBlockReference
  2
EX_NORM
 10
620.00002181081
 20
200.0
 30
0.0
 41
9.0
 42
9.0
 43
9.0
  0
INSERT
  5
15D
330
157
100
AcDbEntity
  8
Ｓ_１_１
 62
     2
100
AcDbBlockReference
  2
EX_NORM
 10
585.00002
 20
200.0
 30
0.0
 41
9.0
 42
9.0
 43
9.0
 50
180.0
  0
MTEXT
  5
15E
330
157
100
AcDbEntity
  8
Ｓ_１_１
 62
     2
100
AcDbMText
 10
602.500020905405
 20
208.25
 30
0.0
 40
10.38871247113164
 41
0.0
 71
     5
 72
     1
  1
35
  7
EXCADDIM1
  0
POINT
  5
15F
330
157
100
AcDbEntity
  8
DEFPOINTS
 62
     0
100
AcDbPoint
 10
620.00002181081
 20
320.000008
 30
0.0
  0
POINT
  5
160
330
157
100
AcDbEntity
  8
DEFPOINTS
 62
     0
100
AcDbPoint
 10
585.00002
 20
264.500012
 30
0.0
  0
POINT
  5
161
330
157
100
AcDbEntity
  8
DEFPOINTS
 62
     0
100
AcDbPoint
 10
585.00002
 20
200.0
 30
0.0
  0
ENDBLK
  5
159
330
157
100
AcDbEntity
  8
0
100
AcDbBlockEnd
  0
BLOCK
  5
164
330
163
100
AcDbEntity
  8
0
100
AcDbBlockBegin
  2
*D21
 70
     1
 10
0.0
 20
0.0
 30
0.0
  3
*D21
  1

  0
LINE
  5
166
330
163
100
AcDbEntity
  8
Ｓ_１_１
  6
CONTINUOUS
 62
     2
100
AcDbLine
 10
585.00002
 20
260.000012
 30
0.0
 11
585.00002
 21
177.0
 31
0.0
  0
LINE
  5
167
330
163
100
AcDbEntity
  8
Ｓ_１_１
  6
CONTINUOUS
 62
     2
100
AcDbLine
 10
1000.0
 20
262.499996
 30
0.0
 11
1000.0
 21
177.0
 31
0.0
  0
LINE
  5
168
330
163
100
AcDbEntity
  8
Ｓ_１_１
  6
CONTINUOUS
 62
     2
100
AcDbLine
 10
594.00002
 20
180.0
 30
0.0
 11
991.0
 21
180.0
 31
0.0
  0
INSERT
  5
169
330
163
100
AcDbEntity
  8
Ｓ_１_１
 62
     2
100
AcDbBlockReference
  2
EX_NORM
 10
585.00002
 20
180.0
 30
0.0
 41
9.0
 42
9.0
 43
9.0
 50
180.0
  0
INSERT
  5
16A
330
163
100
AcDbEntity
  8
Ｓ_１_１
 62
     2
100
AcDbBlockReference
  2
EX_NORM
 10
1000.0
 20
180.0
 30
0.0
 41
9.0
 42
9.0
 43
9.0
  0
MTEXT
  5
16B
330
163
100
AcDbEntity
  8
Ｓ_１_１
 62
     2
100
AcDbMText
 10
792.5000099999999
 20
188.25
 30
0.0
 40
10.38871247113164
 41
0.0
 71
     5
 72
     1
  1
415
  7
EXCADDIM1
  0
POINT
  5
16C
330
163
100
AcDbEntity
  8
DEFPOINTS
 62
     0
100
AcDbPoint
 10
585.00002
 20
264.500012
 30
0.0
  0
POINT
  5
16D
330
163
100
AcDbEntity
  8
DEFPOINTS
 62
     0
100
AcDbPoint
 10
1000.0
 20
266.999996
 30
0.0
  0
POINT
  5
16E
330
163
100
AcDbEntity
  8
DEFPOINTS
 62
     0
100
AcDbPoint
 10
1000.0
 20
180.0
 30
0.0
  0
ENDBLK
  5
165
330
163
100
AcDbEntity
  8
0
100
AcDbBlockEnd
  0
BLOCK
  5
171
330
170
100
AcDbEntity
  8
0
100
AcDbBlockBegin
  2
*D22
 70
     1
 10
0.0
 20
0.0
 30
0.0
  3
*D22
  1

  0
LINE
  5
173
330
170
100
AcDbEntity
  8
Ｓ_１_１
  6
CONTINUOUS
 62
     2
100
AcDbLine
 10
582.5000229999999
 20
457.499991
 30
0.0
 11
537.0
 21
457.499991
 31
0.0
  0
LINE
  5
174
330
170
100
AcDbEntity
  8
Ｓ_１_１
  6
CONTINUOUS
 62
     2
100
AcDbLine
 10
582.5000229999999
 20
262.500004
 30
0.0
 11
537.0
 21
262.500004
 31
0.0
  0
LINE
  5
175
330
170
100
AcDbEntity
  8
Ｓ_１_１
  6
CONTINUOUS
 62
     2
100
AcDbLine
 10
540.0
 20
448.499991
 30
0.0
 11
540.0
 21
271.500004
 31
0.0
  0
INSERT
  5
176
330
170
100
AcDbEntity
  8
Ｓ_１_１
 62
     2
100
AcDbBlockReference
  2
EX_NORM
 10
540.0
 20
457.499991
 30
0.0
 41
9.0
 42
9.0
 43
9.0
 50
90.0
  0
INSERT
  5
177
330
170
100
AcDbEntity
  8
Ｓ_１_１
 62
     2
100
AcDbBlockReference
  2
EX_NORM
 10
540.0
 20
262.500004
 30
0.0
 41
9.0
 42
9.0
 43
9.0
 50
270.0
  0
MTEXT
  5
178
330
170
100
AcDbEntity
  8
Ｓ_１_１
 62
     2
100
AcDbMText
 10
531.75
 20
359.9999975
 30
0.0
 40
10.38871247113164
 41
0.0
 71
     5
 72
     1
  1
%%c195
  7
EXCADDIM1
 11
0.0
 21
1.0
 31
0.0
  0
POINT
  5
179
330
170
100
AcDbEntity
  8
DEFPOINTS
 62
     0
100
AcDbPoint
 10
587.0000229999999
 20
457.499991
 30
0.0
  0
POINT
  5
17A
330
170
100
AcDbEntity
  8
DEFPOINTS
 62
     0
100
AcDbPoint
 10
587.0000229999999
 20
262.500004
 30
0.0
  0
POINT
  5
17B
330
170
100
AcDbEntity
  8
DEFPOINTS
 62
     0
100
AcDbPoint
 10
540.0
 20
262.500004
 30
0.0
  0
ENDBLK
  5
172
330
170
100
AcDbEntity
  8
0
100
AcDbBlockEnd
  0
BLOCK
  5
2D5
330
2D4
100
AcDbEntity
  8
0
100
AcDbBlockBegin
  2
*D23
 70
     1
 10
0.0
 20
0.0
 30
0.0
  3
*D23
  1

  0
LINE
  5
2D7
330
2D4
100
AcDbEntity
  8
Ｓ_１_１
  6
CONTINUOUS
 62
     2
100
AcDbLine
 10
1000.0
 20
457.499976
 30
0.0
 11
1000.0
 21
603.0
 31
0.0
  0
LINE
  5
2D8
330
2D4
100
AcDbEntity
  8
Ｓ_１_１
  6
CONTINUOUS
 62
     2
100
AcDbLine
 10
900.000001
 20
566.6
 30
0.0
 11
900.000001
 21
603.0
 31
0.0
  0
LINE
  5
2D9
330
2D4
100
AcDbEntity
  8
Ｓ_１_１
  6
CONTINUOUS
 62
     2
100
AcDbLine
 10
991.0
 20
600.0
 30
0.0
 11
909.000001
 21
600.0
 31
0.0
  0
INSERT
  5
2DA
330
2D4
100
AcDbEntity
  8
Ｓ_１_１
 62
     2
100
AcDbBlockReference
  2
EX_NORM
 10
1000.0
 20
600.0
 30
0.0
 41
9.0
 42
9.0
 43
9.0
  0
INSERT
  5
2DB
330
2D4
100
AcDbEntity
  8
Ｓ_１_１
 62
     2
100
AcDbBlockReference
  2
EX_NORM
 10
900.000001
 20
600.0
 30
0.0
 41
9.0
 42
9.0
 43
9.0
 50
180.0
  0
MTEXT
  5
2DC
330
2D4
100
AcDbEntity
  8
Ｓ_１_１
 62
     2
100
AcDbMText
 10
950.0000005
 20
608.25
 30
0.0
 40
10.38871247113164
 41
0.0
 71
     5
 72
     1
  1
100
  7
EXCADDIM1
  0
POINT
  5
2DD
330
2D4
100
AcDbEntity
  8
DEFPOINTS
 62
     0
100
AcDbPoint
 10
1000.0
 20
452.999976
 30
0.0
  0
POINT
  5
2DE
330
2D4
100
AcDbEntity
  8
DEFPOINTS
 62
     0
100
AcDbPoint
 10
900.000001
 20
562.1
 30
0.0
  0
POINT
  5
2DF
330
2D4
100
AcDbEntity
  8
DEFPOINTS
 62
     0
100
AcDbPoint
 10
900.000001
 20
600.0
 30
0.0
  0
ENDBLK
  5
2D6
330
2D4
100
AcDbEntity
  8
0
100
AcDbBlockEnd
  0
BLOCK
  5
2E2
330
2E1
100
AcDbEntity
  8
0
100
AcDbBlockBegin
  2
*D24
 70
     1
 10
0.0
 20
0.0
 30
0.0
  3
*D24
  1

  0
LINE
  5
2E4
330
2E1
100
AcDbEntity
  8
Ｓ_１_１
  6
CONTINUOUS
 62
     2
100
AcDbLine
 10
900.000001
 20
566.6
 30
0.0
 11
900.000001
 21
603.0
 31
0.0
  0
LINE
  5
2E5
330
2E1
100
AcDbEntity
  8
Ｓ_１_１
  6
CONTINUOUS
 62
     2
100
AcDbLine
 10
700.000024
 20
575.4
 30
0.0
 11
700.000024
 21
603.0
 31
0.0
  0
LINE
  5
2E6
330
2E1
100
AcDbEntity
  8
Ｓ_１_１
  6
CONTINUOUS
 62
     2
100
AcDbLine
 10
891.000001
 20
600.0
 30
0.0
 11
709.000024
 21
600.0
 31
0.0
  0
INSERT
  5
2E7
330
2E1
100
AcDbEntity
  8
Ｓ_１_１
 62
     2
100
AcDbBlockReference
  2
EX_NORM
 10
900.000001
 20
600.0
 30
0.0
 41
9.0
 42
9.0
 43
9.0
  0
INSERT
  5
2E8
330
2E1
100
AcDbEntity
  8
Ｓ_１_１
 62
     2
100
AcDbBlockReference
  2
EX_NORM
 10
700.000024
 20
600.0
 30
0.0
 41
9.0
 42
9.0
 43
9.0
 50
180.0
  0
MTEXT
  5
2E9
330
2E1
100
AcDbEntity
  8
Ｓ_１_１
 62
     2
100
AcDbMText
 10
800.0000125
 20
608.25
 30
0.0
 40
10.38871247113164
 41
0.0
 71
     5
 72
     1
  1
200
  7
EXCADDIM1
  0
POINT
  5
2EA
330
2E1
100
AcDbEntity
  8
DEFPOINTS
 62
     0
100
AcDbPoint
 10
900.000001
 20
562.1
 30
0.0
  0
POINT
  5
2EB
330
2E1
100
AcDbEntity
  8
DEFPOINTS
 62
     0
100
AcDbPoint
 10
700.000024
 20
570.9
 30
0.0
  0
POINT
  5
2EC
330
2E1
100
AcDbEntity
  8
DEFPOINTS
 62
     0
100
AcDbPoint
 10
700.000024
 20
600.0
 30
0.0
  0
ENDBLK
  5
2E3
330
2E1
100
AcDbEntity
  8
0
100
AcDbBlockEnd
  0
BLOCK
  5
2EF
330
2EE
100
AcDbEntity
  8
0
100
AcDbBlockBegin
  2
*D25
 70
     1
 10
0.0
 20
0.0
 30
0.0
  3
*D25
  1

  0
LINE
  5
2F1
330
2EE
100
AcDbEntity
  8
Ｓ_１_１
  6
CONTINUOUS
 62
     2
100
AcDbLine
 10
700.000024
 20
575.4
 30
0.0
 11
700.000024
 21
603.0
 31
0.0
  0
LINE
  5
2F2
330
2EE
100
AcDbEntity
  8
Ｓ_１_１
  6
CONTINUOUS
 62
     2
100
AcDbLine
 10
630.000025
 20
457.500001
 30
0.0
 11
630.000025
 21
603.0
 31
0.0
  0
LINE
  5
2F3
330
2EE
100
AcDbEntity
  8
Ｓ_１_１
  6
CONTINUOUS
 62
     2
100
AcDbLine
 10
691.000024
 20
600.0
 30
0.0
 11
639.000025
 21
600.0
 31
0.0
  0
INSERT
  5
2F4
330
2EE
100
AcDbEntity
  8
Ｓ_１_１
 62
     2
100
AcDbBlockReference
  2
EX_NORM
 10
700.000024
 20
600.0
 30
0.0
 41
9.0
 42
9.0
 43
9.0
  0
INSERT
  5
2F5
330
2EE
100
AcDbEntity
  8
Ｓ_１_１
 62
     2
100
AcDbBlockReference
  2
EX_NORM
 10
630.000025
 20
600.0
 30
0.0
 41
9.0
 42
9.0
 43
9.0
 50
180.0
  0
MTEXT
  5
2F6
330
2EE
100
AcDbEntity
  8
Ｓ_１_１
 62
     2
100
AcDbMText
 10
665.0000245
 20
608.25
 30
0.0
 40
10.38871247113164
 41
0.0
 71
     5
 72
     1
  1
70
  7
EXCADDIM1
  0
POINT
  5
2F7
330
2EE
100
AcDbEntity
  8
DEFPOINTS
 62
     0
100
AcDbPoint
 10
700.000024
 20
570.9
 30
0.0
  0
POINT
  5
2F8
330
2EE
100
AcDbEntity
  8
DEFPOINTS
 62
     0
100
AcDbPoint
 10
630.000025
 20
453.000001
 30
0.0
  0
POINT
  5
2F9
330
2EE
100
AcDbEntity
  8
DEFPOINTS
 62
     0
100
AcDbPoint
 10
630.000025
 20
600.0
 30
0.0
  0
ENDBLK
  5
2F0
330
2EE
100
AcDbEntity
  8
0
100
AcDbBlockEnd
  0
ENDSEC
  0
SECTION
  2
ENTITIES
  0
LINE
  5
D4
330
1F
100
AcDbEntity
  8
図面枠
  6
CONTINUOUS
 62
     5
100
AcDbLine
 10
30.0
 20
30.0
 30
0.0
 11
1230.0
 21
30.0
 31
0.0
  0
LINE
  5
D5
330
1F
100
AcDbEntity
  8
図面枠
  6
CONTINUOUS
 62
     5
100
AcDbLine
 10
1230.0
 20
30.0
 30
0.0
 11
1230.0
 21
861.0
 31
0.0
  0
LINE
  5
D6
330
1F
100
AcDbEntity
  8
図面枠
  6
CONTINUOUS
 62
     5
100
AcDbLine
 10
1230.0
 20
861.0
 30
0.0
 11
30.00000000000016
 21
861.0
 31
0.0
  0
LINE
  5
D7
330
1F
100
AcDbEntity
  8
図面枠
  6
CONTINUOUS
 62
     5
100
AcDbLine
 10
30.00000000000016
 20
861.0
 30
0.0
 11
30.0
 21
30.0
 31
0.0
  0
TEXT
  5
D9
330
1F
100
AcDbEntity
  8
図面枠
  6
CONTINUOUS
 62
     4
100
AcDbText
 10
1161.0
 20
814.1484375
 30
0.0
 40
10.38871247113164
  1
kN
 41
0.999230769230769
  7
EXCADTTF1
 72
     5
 11
1174.5
 21
814.1484375
 31
0.0
100
AcDbText
  0
TEXT
  5
DA
330
1F
100
AcDbEntity
  8
図面枠
  6
CONTINUOUS
 62
     4
100
AcDbText
 10
981.0
 20
814.1484375
 30
0.0
 40
10.38871247113164
  1
能力
 41
0.999230769230769
  7
EXCADTTF1
 72
     5
 11
1008.0
 21
814.1484375
 31
0.0
100
AcDbText
  0
TEXT
  5
DB
330
1F
100
AcDbEntity
  8
図面枠
  6
CONTINUOUS
 62
     4
100
AcDbText
 10
1061.25
 20
832.1484375
 30
0.0
 40
10.38871247113164
  1
仕　　　様
 41
0.9992307692307689
  7
EXCADTTF1
 72
     5
 11
1128.75
 21
832.1484375
 31
0.0
100
AcDbText
  0
LINE
  5
DC
330
1F
100
AcDbEntity
  8
図面枠
  6
CONTINUOUS
 62
     3
100
AcDbLine
 10
975.0
 20
846.0
 30
0.0
 11
1215.0
 21
846.0
 31
0.0
  0
LINE
  5
DD
330
1F
100
AcDbEntity
  8
図面枠
  6
CONTINUOUS
 62
     3
100
AcDbLine
 10
975.0
 20
828.0
 30
0.0
 11
1215.0
 21
828.0
 31
0.0
  0
LINE
  5
DE
330
1F
100
AcDbEntity
  8
図面枠
  6
CONTINUOUS
 62
     3
100
AcDbLine
 10
45.00000000000005
 20
845.8724047358099
 30
0.0
 11
396.0
 21
845.8724047358099
 31
0.0
  0
LINE
  5
DF
330
1F
100
AcDbEntity
  8
図面枠
  6
CONTINUOUS
 62
     3
100
AcDbLine
 10
45.00000000000005
 20
818.8724047358099
 30
0.0
 11
396.0
 21
818.8724047358099
 31
0.0
  0
LINE
  5
E0
330
1F
100
AcDbEntity
  8
図面枠
  6
CONTINUOUS
 62
     3
100
AcDbLine
 10
45.00000000000005
 20
845.8724047358099
 30
0.0
 11
45.00000000000005
 21
818.8724047358099
 31
0.0
  0
LINE
  5
E1
330
1F
100
AcDbEntity
  8
図面枠
  6
CONTINUOUS
 62
     3
100
AcDbLine
 10
396.0
 20
845.8724047358099
 30
0.0
 11
396.0
 21
818.8724047358099
 31
0.0
  0
TEXT
  5
E2
330
1F
100
AcDbEntity
  8
図面枠
  6
CONTINUOUS
 62
     4
100
AcDbText
 10
54.00000000000006
 20
825.9036547358099
 30
0.0
 40
13.85161662817552
  1
1000kN200ストローク試験用油圧ジャッキ
 41
0.9992307692307695
  7
EXCADTTF1
 72
     5
 11
387.0000000000001
 21
825.9036547358099
 31
0.0
100
AcDbText
  0
LINE
  5
E3
330
1F
100
AcDbEntity
  8
図面枠
  6
CONTINUOUS
 62
     3
100
AcDbLine
 10
1107.0
 20
72.0
 30
0.0
 11
1215.0
 21
72.0
 31
0.0
  0
LINE
  5
E4
330
1F
100
AcDbEntity
  8
図面枠
  6
CONTINUOUS
 62
     3
100
AcDbLine
 10
1107.0
 20
45.0
 30
0.0
 11
1215.0
 21
45.0
 31
0.0
  0
LINE
  5
E5
330
1F
100
AcDbEntity
  8
図面枠
  6
CONTINUOUS
 62
     3
100
AcDbLine
 10
1107.0
 20
72.0
 30
0.0
 11
1107.0
 21
45.0
 31
0.0
  0
LINE
  5
E6
330
1F
100
AcDbEntity
  8
図面枠
  6
CONTINUOUS
 62
     3
100
AcDbLine
 10
1215.0
 20
72.0
 30
0.0
 11
1215.0
 21
45.0
 31
0.0
  0
TEXT
  5
E7
330
1F
100
AcDbEntity
  8
図面枠
  6
CONTINUOUS
 62
     4
100
AcDbText
 10
1116.0
 20
52.03125
 30
0.0
 40
13.85161662817552
  1
OTLJ-10020
 41
0.9992307692307693
  7
EXCADTTF1
 72
     5
 11
1206.0
 21
52.03125
 31
0.0
100
AcDbText
  0
TEXT
  5
E8
330
1F
100
AcDbEntity
  8
図面枠
  6
CONTINUOUS
 62
     4
100
AcDbText
 10
1122.0
 20
814.1484375
 30
0.0
 40
10.38871247113164
  1
1000
 41
0.999230769230769
  7
EXCADTTF1
 72
     5
 11
1149.0
 21
814.1484375
 31
0.0
100
AcDbText
  0
TEXT
  5
E9
330
1F
100
AcDbEntity
  8
図面枠
  6
CONTINUOUS
 62
     4
100
AcDbText
 10
1161.0
 20
706.1484375
 30
0.0
 40
10.38871247113164
  1
cm
 41
0.999230769230769
  7
EXCADTTF1
 72
     5
 11
1174.5
 21
706.1484375
 31
0.0
100
AcDbText
  0
TEXT
  5
EA
330
1F
100
AcDbEntity
  8
図面枠
  6
CONTINUOUS
 62
     4
100
AcDbText
 10
1170.45
 20
712.5292969420552
 30
0.0
 40
4.674920098289698
  1
2
 41
0.9992308790346205
  7
EXCADTTF1
 72
     5
 11
1173.4875
 21
712.5292969420552
 31
0.0
100
AcDbText
  0
TEXT
  5
EB
330
1F
100
AcDbEntity
  8
図面枠
  6
CONTINUOUS
 62
     4
100
AcDbText
 10
1161.0
 20
796.1484375
 30
0.0
 40
10.38871247113164
  1
mm
 41
0.999230769230769
  7
EXCADTTF1
 72
     5
 11
1174.5
 21
796.1484375
 31
0.0
100
AcDbText
  0
TEXT
  5
EC
330
1F
100
AcDbEntity
  8
図面枠
  6
CONTINUOUS
 62
     4
100
AcDbText
 10
1161.0
 20
778.1484375
 30
0.0
 40
10.38871247113164
  1
mm
 41
0.999230769230769
  7
EXCADTTF1
 72
     5
 11
1174.5
 21
778.1484375
 31
0.0
100
AcDbText
  0
TEXT
  5
ED
330
1F
100
AcDbEntity
  8
図面枠
  6
CONTINUOUS
 62
     4
100
AcDbText
 10
1161.0
 20
760.1484375
 30
0.0
 40
10.38871247113164
  1
mm
 41
0.999230769230769
  7
EXCADTTF1
 72
     5
 11
1174.5
 21
760.1484375
 31
0.0
100
AcDbText
  0
TEXT
  5
EE
330
1F
100
AcDbEntity
  8
図面枠
  6
CONTINUOUS
 62
     4
100
AcDbText
 10
1161.0
 20
742.1484375
 30
0.0
 40
10.38871247113164
  1
mm
 41
0.999230769230769
  7
EXCADTTF1
 72
     5
 11
1174.5
 21
742.1484375
 31
0.0
100
AcDbText
  0
TEXT
  5
EF
330
1F
100
AcDbEntity
  8
図面枠
  6
CONTINUOUS
 62
     4
100
AcDbText
 10
1161.0
 20
724.1484375
 30
0.0
 40
10.38871247113164
  1
mm
 41
0.999230769230769
  7
EXCADTTF1
 72
     5
 11
1174.5
 21
724.1484375
 31
0.0
100
AcDbText
  0
TEXT
  5
F0
330
1F
100
AcDbEntity
  8
図面枠
  6
CONTINUOUS
 62
     4
100
AcDbText
 10
1161.0
 20
688.1484375
 30
0.0
 40
10.38871247113164
  1
MPa
 41
0.999230769230769
  7
EXCADTTF1
 72
     5
 11
1181.25
 21
688.1484375
 31
0.0
100
AcDbText
  0
TEXT
  5
F1
330
1F
100
AcDbEntity
  8
図面枠
  6
CONTINUOUS
 62
     4
100
AcDbText
 10
981.0
 20
796.1484375
 30
0.0
 40
10.38871247113164
  1
ストローク
 41
0.9992307692307689
  7
EXCADTTF1
 72
     5
 11
1048.5
 21
796.1484375
 31
0.0
100
AcDbText
  0
TEXT
  5
F2
330
1F
100
AcDbEntity
  8
図面枠
  6
CONTINUOUS
 62
     4
100
AcDbText
 10
981.0
 20
778.1484375
 30
0.0
 40
10.38871247113164
  1
最低機械高
 41
0.9992307692307689
  7
EXCADTTF1
 72
     5
 11
1048.5
 21
778.1484375
 31
0.0
100
AcDbText
  0
TEXT
  5
F3
330
1F
100
AcDbEntity
  8
図面枠
  6
CONTINUOUS
 62
     4
100
AcDbText
 10
981.0
 20
760.1484375
 30
0.0
 40
10.38871247113164
  1
シリンダー外径
 41
0.9992307692307688
  7
EXCADTTF1
 72
     5
 11
1075.5
 21
760.1484375
 31
0.0
100
AcDbText
  0
TEXT
  5
F4
330
1F
100
AcDbEntity
  8
図面枠
  6
CONTINUOUS
 62
     4
100
AcDbText
 10
981.0
 20
742.1484375
 30
0.0
 40
10.38871247113164
  1
ヘッド径
 41
0.999230769230769
  7
EXCADTTF1
 72
     5
 11
1035.0
 21
742.1484375
 31
0.0
100
AcDbText
  0
TEXT
  5
F5
330
1F
100
AcDbEntity
  8
図面枠
  6
CONTINUOUS
 62
     4
100
AcDbText
 10
981.0
 20
724.1484375
 30
0.0
 40
10.38871247113164
  1
ピストン径
 41
0.9992307692307689
  7
EXCADTTF1
 72
     5
 11
1048.5
 21
724.1484375
 31
0.0
100
AcDbText
  0
TEXT
  5
F6
330
1F
100
AcDbEntity
  8
図面枠
  6
CONTINUOUS
 62
     4
100
AcDbText
 10
981.0
 20
706.1484375
 30
0.0
 40
10.38871247113164
  1
受圧面積
 41
0.999230769230769
  7
EXCADTTF1
 72
     5
 11
1035.0
 21
706.1484375
 31
0.0
100
AcDbText
  0
TEXT
  5
F7
330
1F
100
AcDbEntity
  8
図面枠
  6
CONTINUOUS
 62
     4
100
AcDbText
 10
981.0
 20
688.1484375
 30
0.0
 40
10.38871247113164
  1
最高使用圧力
 41
0.9992307692307689
  7
EXCADTTF1
 72
     5
 11
1062.0
 21
688.1484375
 31
0.0
100
AcDbText
  0
LINE
  5
F8
330
1F
100
AcDbEntity
  8
図面枠
  6
CONTINUOUS
 62
     2
100
AcDbLine
 10
975.0
 20
810.0
 30
0.0
 11
1215.0
 21
810.0
 31
0.0
  0
LINE
  5
F9
330
1F
100
AcDbEntity
  8
図面枠
  6
CONTINUOUS
 62
     2
100
AcDbLine
 10
975.0
 20
792.0
 30
0.0
 11
1215.0
 21
792.0
 31
0.0
  0
LINE
  5
FA
330
1F
100
AcDbEntity
  8
図面枠
  6
CONTINUOUS
 62
     2
100
AcDbLine
 10
975.0
 20
774.0
 30
0.0
 11
1215.0
 21
774.0
 31
0.0
  0
LINE
  5
FB
330
1F
100
AcDbEntity
  8
図面枠
  6
CONTINUOUS
 62
     2
100
AcDbLine
 10
975.0
 20
756.0
 30
0.0
 11
1215.0
 21
756.0
 31
0.0
  0
LINE
  5
FC
330
1F
100
AcDbEntity
  8
図面枠
  6
CONTINUOUS
 62
     2
100
AcDbLine
 10
975.0
 20
738.0
 30
0.0
 11
1215.0
 21
738.0
 31
0.0
  0
LINE
  5
FD
330
1F
100
AcDbEntity
  8
図面枠
  6
CONTINUOUS
 62
     2
100
AcDbLine
 10
975.0
 20
720.0
 30
0.0
 11
1215.0
 21
720.0
 31
0.0
  0
LINE
  5
FE
330
1F
100
AcDbEntity
  8
図面枠
  6
CONTINUOUS
 62
     2
100
AcDbLine
 10
975.0
 20
702.0
 30
0.0
 11
1215.0
 21
702.0
 31
0.0
  0
TEXT
  5
FF
330
1F
100
AcDbEntity
  8
図面枠
  6
CONTINUOUS
 62
     4
100
AcDbText
 10
1128.75
 20
796.1484375
 30
0.0
 40
10.38871247113164
  1
200
 41
0.999230769230769
  7
EXCADTTF1
 72
     5
 11
1149.0
 21
796.1484375
 31
0.0
100
AcDbText
  0
TEXT
  5
100
330
1F
100
AcDbEntity
  8
図面枠
  6
CONTINUOUS
 62
     4
100
AcDbText
 10
1128.75
 20
778.1484375
 30
0.0
 40
10.38871247113164
  1
415
 41
0.999230769230769
  7
EXCADTTF1
 72
     5
 11
1149.0
 21
778.1484375
 31
0.0
100
AcDbText
  0
TEXT
  5
101
330
1F
100
AcDbEntity
  8
図面枠
  6
CONTINUOUS
 62
     4
100
AcDbText
 10
1128.75
 20
760.1484375
 30
0.0
 40
10.38871247113164
  1
190
 41
0.999230769230769
  7
EXCADTTF1
 72
     5
 11
1149.0
 21
760.1484375
 31
0.0
100
AcDbText
  0
TEXT
  5
102
330
1F
100
AcDbEntity
  8
図面枠
  6
CONTINUOUS
 62
     4
100
AcDbText
 10
1128.75
 20
742.1484375
 30
0.0
 40
10.38871247113164
  1
195
 41
0.999230769230769
  7
EXCADTTF1
 72
     5
 11
1149.0
 21
742.1484375
 31
0.0
100
AcDbText
  0
TEXT
  5
103
330
1F
100
AcDbEntity
  8
図面枠
  6
CONTINUOUS
 62
     4
100
AcDbText
 10
1128.75
 20
724.1484375
 30
0.0
 40
10.38871247113164
  1
145
 41
0.999230769230769
  7
EXCADTTF1
 72
     5
 11
1149.0
 21
724.1484375
 31
0.0
100
AcDbText
  0
TEXT
  5
104
330
1F
100
AcDbEntity
  8
図面枠
  6
CONTINUOUS
 62
     4
100
AcDbText
 10
1108.5
 20
706.1484375
 30
0.0
 40
10.38871247113164
  1
165.13
 41
0.9992307692307689
  7
EXCADTTF1
 72
     5
 11
1149.0
 21
706.1484375
 31
0.0
100
AcDbText
  0
TEXT
  5
105
330
1F
100
AcDbEntity
  8
図面枠
  6
CONTINUOUS
 62
     4
100
AcDbText
 10
1122.0
 20
688.1484375
 30
0.0
 40
10.38871247113164
  1
60.6
 41
0.999230769230769
  7
EXCADTTF1
 72
     5
 11
1149.0
 21
688.1484375
 31
0.0
100
AcDbText
  0
TEXT
  5
106
330
1F
100
AcDbEntity
  8
図面枠
  6
CONTINUOUS
 62
     4
100
AcDbText
 10
1161.0
 20
653.9484375000001
 30
0.0
 40
10.38871247113164
  1
kg
 41
0.999230769230769
  7
EXCADTTF1
 72
     5
 11
1174.5
 21
653.9484375000001
 31
0.0
100
AcDbText
  0
TEXT
  5
107
330
1F
100
AcDbEntity
  8
図面枠
  6
CONTINUOUS
 62
     4
100
AcDbText
 10
981.0
 20
671.9484375000001
 30
0.0
 40
10.38871247113164
  1
所要油量
 41
0.999230769230769
  7
EXCADTTF1
 72
     5
 11
1035.0
 21
671.9484375000001
 31
0.0
100
AcDbText
  0
TEXT
  5
108
330
1F
100
AcDbEntity
  8
図面枠
  6
CONTINUOUS
 62
     4
100
AcDbText
 10
981.0
 20
653.9484375000001
 30
0.0
 40
10.38871247113164
  1
重量
 41
0.999230769230769
  7
EXCADTTF1
 72
     5
 11
1008.0
 21
653.9484375000001
 31
0.0
100
AcDbText
  0
TEXT
  5
109
330
1F
100
AcDbEntity
  8
図面枠
  6
CONTINUOUS
 62
     4
100
AcDbText
 10
1122.0
 20
653.9484375000001
 30
0.0
 40
10.38871247113164
  1
約81
 41
0.999230769230769
  7
EXCADTTF1
 72
     5
 11
1149.0
 21
653.9484375000001
 31
0.0
100
AcDbText
  0
LINE
  5
10A
330
1F
100
AcDbEntity
  8
図面枠
  6
CONTINUOUS
 62
     3
100
AcDbLine
 10
975.0
 20
649.8000000000001
 30
0.0
 11
1215.0
 21
649.8000000000001
 31
0.0
  0
LINE
  5
10B
330
1F
100
AcDbEntity
  8
図面枠
  6
CONTINUOUS
 62
     2
100
AcDbLine
 10
975.0
 20
685.8000000000001
 30
0.0
 11
1215.0
 21
685.8000000000001
 31
0.0
  0
LINE
  5
10C
330
1F
100
AcDbEntity
  8
図面枠
  6
CONTINUOUS
 62
     2
100
AcDbLine
 10
975.0
 20
667.8000000000001
 30
0.0
 11
1215.0
 21
667.8000000000001
 31
0.0
  0
LINE
  5
10D
330
1F
100
AcDbEntity
  8
図面枠
  6
CONTINUOUS
 62
     3
100
AcDbLine
 10
975.0
 20
846.0
 30
0.0
 11
975.0
 21
649.8000000000001
 31
0.0
  0
LINE
  5
10E
330
1F
100
AcDbEntity
  8
図面枠
  6
CONTINUOUS
 62
     2
100
AcDbLine
 10
1095.0
 20
828.0
 30
0.0
 11
1095.0
 21
649.8000000000001
 31
0.0
  0
LINE
  5
10F
330
1F
100
AcDbEntity
  8
図面枠
  6
CONTINUOUS
 62
     2
100
AcDbLine
 10
1155.0
 20
828.0
 30
0.0
 11
1155.0
 21
649.8000000000001
 31
0.0
  0
LINE
  5
110
330
1F
100
AcDbEntity
  8
図面枠
  6
CONTINUOUS
 62
     3
100
AcDbLine
 10
1215.0
 20
846.0
 30
0.0
 11
1215.0
 21
649.8000000000001
 31
0.0
  0
TEXT
  5
111
330
1F
100
AcDbEntity
  8
図面枠
  6
CONTINUOUS
 62
     4
100
AcDbText
 10
1161.0
 20
671.9484375000001
 30
0.0
 40
10.38871247113164
  1
L
 41
0.999230769230769
  7
EXCADTTF1
 72
     5
 11
1167.75
 21
671.9484375000001
 31
0.0
100
AcDbText
  0
TEXT
  5
112
330
1F
100
AcDbEntity
  8
図面枠
  6
CONTINUOUS
 62
     4
100
AcDbText
 10
1128.75
 20
671.9484375000001
 30
0.0
 40
10.38871247113164
  1
3.3
 41
0.999230769230769
  7
EXCADTTF1
 72
     5
 11
1149.0
 21
671.9484375000001
 31
0.0
100
AcDbText
  0
DIMENSION
  5
114
330
1F
100
AcDbEntity
  8
Ｓ_１_１
  6
CONTINUOUS
 62
     2
100
AcDbDimension
  2
*D15
 10
195.000002
 20
600.0
 30
0.0
 11
319.9999835
 21
608.25
 31
0.0
 70
   160
  3
ISO-25
100
AcDbAlignedDimension
 13
444.999965
 23
383.999996
 33
0.0
 14
195.000002
 24
383.999996
 34
0.0
100
AcDbRotatedDimension
1001
ACAD
1000
DSTYLE
1002
{
1070
   270
1070
     2
1070
     6
1000
EX_NORM
1070
     7
1000
EX_NORM
1070
    41
1040
9.0
1070
    42
1040
4.5
1070
    44
1040
3.0
1070
    73
1070
     0
1070
    74
1070
     0
1070
    75
1070
     0
1070
    76
1070
     0
1070
    77
1070
     1
1070
    78
1070
     8
1070
   140
1040
10.38871247113164
1070
   147
1040
0.0
1070
   173
1070
     1
1070
   176
1070
     2
1070
   177
1070
     2
1070
   178
1070
     2
1070
   271
1070
     2
1070
   277
1070
     2
1070
   279
1070
     2
1070
   280
1070
     0
1070
   287
1070
     5
1070
   340
1005
113
1002
}
  0
DIMENSION
  5
122
330
1F
100
AcDbEntity
  8
Ｓ_１_１
  6
CONTINUOUS
 62
     2
100
AcDbDimension
  2
*D16
 10
1060.0
 20
265.000004
 30
0.0
 11
1051.75
 21
359.9999974999999
 31
0.0
 70
   160
  1
%%c190
  3
ISO-25
100
AcDbAlignedDimension
 13
997.9999919999999
 23
454.9999909999999
 33
0.0
 14
997.9999919999999
 24
265.000004
 34
0.0
 50
90.0
100
AcDbRotatedDimension
1001
ACAD
1000
DSTYLE
1002
{
1070
   270
1070
     2
1070
     6
1000
EX_NORM
1070
     7
1000
EX_NORM
1070
    41
1040
9.0
1070
    42
1040
4.5
1070
    44
1040
3.0
1070
    73
1070
     0
1070
    74
1070
     0
1070
    75
1070
     0
1070
    76
1070
     0
1070
    77
1070
     1
1070
    78
1070
     8
1070
   140
1040
10.38871247113164
1070
   147
1040
0.0
1070
   173
1070
     1
1070
   176
1070
     2
1070
   177
1070
     2
1070
   178
1070
     2
1070
   271
1070
     2
1070
   277
1070
     2
1070
   279
1070
     2
1070
   280
1070
     0
1070
   287
1070
     5
1070
   340
1005
113
1002
}
  0
DIMENSION
  5
12F
330
1F
100
AcDbEntity
  8
Ｓ_１_１
  6
CONTINUOUS
 62
     2
100
AcDbDimension
  2
*D17
 10
1060.0
 20
555.3622619999999
 30
0.0
 11
1051.75
 21
505.1811225
 31
0.0
 70
   160
  1
(100)
  3
ISO-25
100
AcDbAlignedDimension
 13
997.9999919999999
 23
454.9999829999999
 33
0.0
 14
912.000009
 24
555.362262
 34
0.0
 50
90.0
100
AcDbRotatedDimension
1001
ACAD
1000
DSTYLE
1002
{
1070
   270
1070
     2
1070
     6
1000
EX_NORM
1070
     7
1000
EX_NORM
1070
    41
1040
9.0
1070
    42
1040
4.5
1070
    44
1040
3.0
1070
    73
1070
     0
1070
    74
1070
     0
1070
    75
1070
     0
1070
    76
1070
     0
1070
    77
1070
     1
1070
    78
1070
     8
1070
   140
1040
10.38871247113164
1070
   147
1040
0.0
1070
   173
1070
     1
1070
   176
1070
     2
1070
   177
1070
     2
1070
   178
1070
     2
1070
   271
1070
     2
1070
   277
1070
     2
1070
   279
1070
     2
1070
   280
1070
     0
1070
   287
1070
     5
1070
   340
1005
113
1002
}
  0
DIMENSION
  5
13C
330
1F
100
AcDbEntity
  8
Ｓ_１_１
  6
CONTINUOUS
 62
     2
100
AcDbDimension
  2
*D18
 10
630.000025
 20
200.0
 30
0.0
 11
815.0000125
 21
208.25
 31
0.0
 70
   160
  3
ISO-25
100
AcDbAlignedDimension
 13
1000.0
 23
266.999996
 33
0.0
 14
630.000025
 24
266.999996
 34
0.0
100
AcDbRotatedDimension
1001
ACAD
1000
DSTYLE
1002
{
1070
   270
1070
     2
1070
     6
1000
EX_NORM
1070
     7
1000
EX_NORM
1070
    41
1040
9.0
1070
    42
1040
0.0
1070
    44
1040
0.0
1070
    73
1070
     0
1070
    74
1070
     0
1070
    75
1070
     1
1070
    76
1070
     1
1070
    77
1070
     1
1070
    78
1070
     8
1070
   140
1040
10.38871247113164
1070
   147
1040
0.0
1070
   173
1070
     1
1070
   176
1070
     2
1070
   177
1070
     2
1070
   178
1070
     2
1070
   271
1070
     2
1070
   277
1070
     2
1070
   279
1070
     2
1070
   280
1070
     0
1070
   287
1070
     5
1070
   340
1005
113
1002
}
  0
DIMENSION
  5
147
330
1F
100
AcDbEntity
  8
Ｓ_１_１
  6
CONTINUOUS
 62
     2
100
AcDbDimension
  2
*D19
 10
620.00002
 20
200.0
 30
0.0
 11
645.750025
 21
208.2499999999998
 31
0.0
 70
   160
  3
ISO-25
100
AcDbAlignedDimension
 13
630.000025
 23
266.999996
 33
0.0
 14
620.00002
 24
319.9999879
 34
0.0
100
AcDbRotatedDimension
1001
ACAD
1000
DSTYLE
1002
{
1070
   270
1070
     2
1070
     6
1000
EX_NORM
1070
     7
1000
EX_NORM
1070
    41
1040
9.0
1070
    42
1040
4.5
1070
    44
1040
3.0
1070
    73
1070
     0
1070
    74
1070
     0
1070
    75
1070
     0
1070
    76
1070
     0
1070
    77
1070
     1
1070
    78
1070
     8
1070
   140
1040
10.38871247113164
1070
   147
1040
0.0
1070
   173
1070
     1
1070
   176
1070
     2
1070
   177
1070
     2
1070
   178
1070
     2
1070
   271
1070
     2
1070
   277
1070
     2
1070
   279
1070
     2
1070
   280
1070
     1
1070
   287
1070
     5
1070
   340
1005
113
1002
}
  0
DIMENSION
  5
156
330
1F
100
AcDbEntity
  8
Ｓ_１_１
  6
CONTINUOUS
 62
     2
100
AcDbDimension
  2
*D20
 10
585.00002
 20
200.0
 30
0.0
 11
602.500020905405
 21
208.25
 31
0.0
 70
   160
  3
ISO-25
100
AcDbAlignedDimension
 13
620.00002181081
 23
320.000008
 33
0.0
 14
585.00002
 24
264.500012
 34
0.0
100
AcDbRotatedDimension
1001
ACAD
1000
DSTYLE
1002
{
1070
   270
1070
     2
1070
     6
1000
EX_NORM
1070
     7
1000
EX_NORM
1070
    41
1040
9.0
1070
    42
1040
4.5
1070
    44
1040
3.0
1070
    73
1070
     0
1070
    74
1070
     0
1070
    75
1070
     0
1070
    76
1070
     1
1070
    77
1070
     1
1070
    78
1070
     8
1070
   140
1040
10.38871247113164
1070
   147
1040
0.0
1070
   173
1070
     1
1070
   176
1070
     2
1070
   177
1070
     2
1070
   178
1070
     2
1070
   271
1070
     2
1070
   277
1070
     2
1070
   279
1070
     2
1070
   280
1070
     0
1070
   287
1070
     5
1070
   340
1005
113
1002
}
  0
DIMENSION
  5
162
330
1F
100
AcDbEntity
  8
Ｓ_１_１
  6
CONTINUOUS
 62
     2
100
AcDbDimension
  2
*D21
 10
1000.0
 20
180.0
 30
0.0
 11
792.5000099999999
 21
188.25
 31
0.0
 70
   160
  3
ISO-25
100
AcDbAlignedDimension
 13
585.00002
 23
264.500012
 33
0.0
 14
1000.0
 24
266.999996
 34
0.0
100
AcDbRotatedDimension
1001
ACAD
1000
DSTYLE
1002
{
1070
   270
1070
     2
1070
     6
1000
EX_NORM
1070
     7
1000
EX_NORM
1070
    41
1040
9.0
1070
    42
1040
4.5
1070
    44
1040
3.0
1070
    73
1070
     0
1070
    74
1070
     0
1070
    75
1070
     0
1070
    76
1070
     0
1070
    77
1070
     1
1070
    78
1070
     8
1070
   140
1040
10.38871247113164
1070
   147
1040
0.0
1070
   173
1070
     1
1070
   176
1070
     2
1070
   177
1070
     2
1070
   178
1070
     2
1070
   271
1070
     2
1070
   277
1070
     2
1070
   279
1070
     2
1070
   280
1070
     0
1070
   287
1070
     5
1070
   340
1005
113
1002
}
  0
DIMENSION
  5
16F
330
1F
100
AcDbEntity
  8
Ｓ_１_１
  6
CONTINUOUS
 62
     2
100
AcDbDimension
  2
*D22
 10
540.0
 20
262.500004
 30
0.0
 11
531.75
 21
359.9999975
 31
0.0
 70
   160
  1
%%c195
  3
ISO-25
100
AcDbAlignedDimension
 13
587.0000229999999
 23
457.499991
 33
0.0
 14
587.0000229999999
 24
262.500004
 34
0.0
 50
90.0
100
AcDbRotatedDimension
1001
ACAD
1000
DSTYLE
1002
{
1070
   270
1070
     2
1070
     6
1000
EX_NORM
1070
     7
1000
EX_NORM
1070
    41
1040
9.0
1070
    42
1040
4.5
1070
    44
1040
3.0
1070
    73
1070
     0
1070
    74
1070
     0
1070
    75
1070
     0
1070
    76
1070
     0
1070
    77
1070
     1
1070
    78
1070
     8
1070
   140
1040
10.38871247113164
1070
   147
1040
0.0
1070
   173
1070
     1
1070
   176
1070
     2
1070
   177
1070
     2
1070
   178
1070
     2
1070
   271
1070
     2
1070
   277
1070
     2
1070
   279
1070
     2
1070
   280
1070
     0
1070
   287
1070
     5
1070
   340
1005
113
1002
}
  0
LINE
  5
17C
330
1F
100
AcDbEntity
  8
Ｓ_１_１
  6
EXLTYPE2
 62
     1
100
AcDbLine
 10
705.000004
 20
386.4379279999999
 30
0.0
 11
705.000004
 21
335.5327040000001
 31
0.0
  0
LINE
  5
17D
330
1F
100
AcDbEntity
  8
Ｓ_１_１
  6
EXLTYPE2
 62
     1
100
AcDbLine
 10
575.5648719999999
 20
360.0
 30
0.0
 11
1015.405197
 21
360.0
 31
0.0
  0
LINE
  5
17E
330
1F
100
AcDbEntity
  8
Ｓ_１_１
  6
EXLTYPE0
 62
     2
100
AcDbLine
 10
699.00002
 20
384.9999970000001
 30
0.0
 11
699.00002
 21
375.9999990000001
 31
0.0
  0
ARC
  5
17F
330
1F
100
AcDbEntity
  8
Ｓ_１_１
  6
CONTINUOUS
 62
     3
100
AcDbCircle
 10
900.0000009999999
 20
483.422833
 30
0.0
 40
21.939437
100
AcDbArc
 50
76.82650699999999
 51
103.17347
  0
ARC
  5
180
330
1F
100
AcDbEntity
  8
Ｓ_１_１
  6
CONTINUOUS
 62
     3
100
AcDbCircle
 10
900.0000009999999
 20
514.8016929999999
 30
0.0
 40
21.939437
100
AcDbArc
 50
256.8265370000001
 51
283.173527
  0
ARC
  5
181
330
1F
100
AcDbEntity
  8
Ｓ_１_１
  6
CONTINUOUS
 62
     3
100
AcDbCircle
 10
909.0932859999998
 20
481.729517
 30
0.0
 40
5.367246000000002
100
AcDbArc
 50
235.6158480000003
 51
304.3841360000004
  0
ARC
  5
182
330
1F
100
AcDbEntity
  8
Ｓ_１_１
  6
CONTINUOUS
 62
     3
100
AcDbCircle
 10
900.0000009999999
 20
496.424456
 30
0.0
 40
20.062196
100
AcDbArc
 50
252.412124
 51
287.588008
  0
ARC
  5
183
330
1F
100
AcDbEntity
  8
Ｓ_１_１
  6
CONTINUOUS
 62
     3
100
AcDbCircle
 10
909.0932859999998
 20
479.9950219999999
 30
0.0
 40
5.367246000000002
100
AcDbArc
 50
55.61591800000001
 51
124.384206
  0
ARC
  5
184
330
1F
100
AcDbEntity
  8
Ｓ_１_１
  6
CONTINUOUS
 62
     3
100
AcDbCircle
 10
890.9067169999998
 20
479.9950219999999
 30
0.0
 40
5.367246000000002
100
AcDbArc
 50
55.615836
 51
124.384124
  0
ARC
  5
185
330
1F
100
AcDbEntity
  8
Ｓ_１_１
  6
CONTINUOUS
 62
     3
100
AcDbCircle
 10
900.0000009999999
 20
465.3000649999999
 30
0.0
 40
20.062196
100
AcDbArc
 50
72.41204699999997
 51
107.587931
  0
ARC
  5
186
330
1F
100
AcDbEntity
  8
Ｓ_１_１
  6
CONTINUOUS
 62
     3
100
AcDbCircle
 10
890.9067169999998
 20
481.729517
 30
0.0
 40
5.367246000000002
100
AcDbArc
 50
235.6159300000003
 51
304.3842180000003
  0
ARC
  5
187
330
1F
100
AcDbEntity
  8
Ｓ_１_１
  6
CONTINUOUS
 62
     3
100
AcDbCircle
 10
723.500008
 20
350.500002
 30
0.0
 40
0.5
100
AcDbArc
 50
90.000003
 51
180.000005
  0
CIRCLE
  5
188
330
1F
100
AcDbEntity
  8
Ｓ_１_１
  6
CONTINUOUS
 62
     3
100
AcDbCircle
 10
705.000004
 20
360.0
 30
0.0
 40
2.1
  0
CIRCLE
  5
189
330
1F
100
AcDbEntity
  8
Ｓ_１_１
  6
CONTINUOUS
 62
     3
100
AcDbCircle
 10
705.000004
 20
360.0
 30
0.0
 40
2.5
  0
ARC
  5
18A
330
1F
100
AcDbEntity
  8
Ｓ_１_１
  6
CONTINUOUS
 62
     3
100
AcDbCircle
 10
723.500008
 20
369.4999980000001
 30
0.0
 40
0.5
100
AcDbArc
 50
179.999991
 51
270.0000010000001
  0
LINE
  5
18B
330
1F
100
AcDbEntity
  8
Ｓ_１_１
  6
CONTINUOUS
 62
     3
100
AcDbLine
 10
912.0000089999999
 20
492.862263
 30
0.0
 11
888.0000319999999
 21
492.862263
 31
0.0
  0
LINE
  5
18C
330
1F
100
AcDbEntity
  8
Ｓ_１_１
  6
CONTINUOUS
 62
     3
100
AcDbLine
 10
895.000002
 20
493.439608
 30
0.0
 11
886.999971
 21
493.439608
 31
0.0
  0
LINE
  5
18D
330
1F
100
AcDbEntity
  8
Ｓ_１_１
  6
CONTINUOUS
 62
     3
100
AcDbLine
 10
895.000002
 20
504.7849080000001
 30
0.0
 11
886.999971
 21
504.7849080000001
 31
0.0
  0
LINE
  5
18E
330
1F
100
AcDbEntity
  8
Ｓ_１_１
  6
CONTINUOUS
 62
     3
100
AcDbLine
 10
913.0000319999999
 20
493.439608
 30
0.0
 11
905.0000009999999
 21
493.439608
 31
0.0
  0
LINE
  5
18F
330
1F
100
AcDbEntity
  8
Ｓ_１_１
  6
CONTINUOUS
 62
     3
100
AcDbLine
 10
913.0000319999999
 20
504.7849080000001
 30
0.0
 11
905.0000009999999
 21
504.7849080000001
 31
0.0
  0
LINE
  5
190
330
1F
100
AcDbEntity
  8
Ｓ_１_１
  6
CONTINUOUS
 62
     3
100
AcDbLine
 10
913.0000319999999
 20
520.939598
 30
0.0
 11
886.999971
 21
520.939598
 31
0.0
  0
LINE
  5
191
330
1F
100
AcDbEntity
  8
Ｓ_１_１
  6
CONTINUOUS
 62
     3
100
AcDbLine
 10
913.000016
 20
520.939616
 30
0.0
 11
912.0000089999999
 21
520.362262
 31
0.0
  0
LINE
  5
192
330
1F
100
AcDbEntity
  8
Ｓ_１_１
  6
CONTINUOUS
 62
     3
100
AcDbLine
 10
888.000012
 20
505.362263
 30
0.0
 11
886.999972
 21
504.7848899999999
 31
0.0
  0
LINE
  5
193
330
1F
100
AcDbEntity
  8
Ｓ_１_１
  6
CONTINUOUS
 62
     3
100
AcDbLine
 10
912.9999879999998
 20
493.43959
 30
0.0
 11
912.0000469999999
 21
492.862273
 31
0.0
  0
LINE
  5
194
330
1F
100
AcDbEntity
  8
Ｓ_１_１
  6
CONTINUOUS
 62
     3
100
AcDbLine
 10
888.0000069999999
 20
520.3622490000001
 30
0.0
 11
887.0000159999998
 21
520.939594
 31
0.0
  0
LINE
  5
195
330
1F
100
AcDbEntity
  8
Ｓ_１_１
  6
CONTINUOUS
 62
     3
100
AcDbLine
 10
912.999992
 20
504.7849400000001
 30
0.0
 11
912.000018
 21
505.362275
 31
0.0
  0
LINE
  5
196
330
1F
100
AcDbEntity
  8
Ｓ_１_１
  6
CONTINUOUS
 62
     3
100
AcDbLine
 10
887.9999949999999
 20
492.862267
 30
0.0
 11
886.9999879999999
 21
493.4396219999999
 31
0.0
  0
LINE
  5
197
330
1F
100
AcDbEntity
  8
Ｓ_１_１
  6
CONTINUOUS
 62
     3
100
AcDbLine
 10
895.000002
 20
504.7849080000001
 30
0.0
 11
895.000002
 21
493.439608
 31
0.0
  0
LINE
  5
198
330
1F
100
AcDbEntity
  8
Ｓ_１_１
  6
CONTINUOUS
 62
     3
100
AcDbLine
 10
905.0000009999999
 20
504.7849080000001
 30
0.0
 11
905.0000009999999
 21
493.439608
 31
0.0
  0
LINE
  5
199
330
1F
100
AcDbEntity
  8
Ｓ_１_１
  6
CONTINUOUS
 62
     3
100
AcDbLine
 10
898.2499989999999
 20
528.54399
 30
0.0
 11
898.1450749999998
 21
528.3622570000001
 31
0.0
  0
LINE
  5
19A
330
1F
100
AcDbEntity
  8
Ｓ_１_１
  6
CONTINUOUS
 62
     3
100
AcDbLine
 10
898.249971
 20
528.3622740000002
 30
0.0
 11
883.9999789999999
 21
528.3622740000002
 31
0.0
  0
LINE
  5
19B
330
1F
100
AcDbEntity
  8
Ｓ_１_１
  6
CONTINUOUS
 62
     3
100
AcDbLine
 10
898.249971
 20
527.862262
 30
0.0
 11
884.5000089999997
 21
527.862262
 31
0.0
  0
LINE
  5
19C
330
1F
100
AcDbEntity
  8
Ｓ_１_１
  6
CONTINUOUS
 62
     3
100
AcDbLine
 10
901.7500319999999
 20
531.3622660000002
 30
0.0
 11
898.249971
 21
531.3622660000002
 31
0.0
  0
LINE
  5
19D
330
1F
100
AcDbEntity
  8
Ｓ_１_１
  6
CONTINUOUS
 62
     3
100
AcDbLine
 10
901.7500319999999
 20
531.3622660000002
 30
0.0
 11
901.7500319999999
 21
527.862262
 31
0.0
  0
LINE
  5
19E
330
1F
100
AcDbEntity
  8
Ｓ_１_１
  6
CONTINUOUS
 62
     3
100
AcDbLine
 10
898.249971
 20
531.3622660000002
 30
0.0
 11
898.249971
 21
527.862262
 31
0.0
  0
LINE
  5
19F
330
1F
100
AcDbEntity
  8
Ｓ_１_１
  6
CONTINUOUS
 62
     3
100
AcDbLine
 10
915.4999979999999
 20
525.3622410000002
 30
0.0
 11
915.000008
 21
524.8622510000001
 31
0.0
  0
LINE
  5
1A0
330
1F
100
AcDbEntity
  8
Ｓ_１_１
  6
CONTINUOUS
 62
     3
100
AcDbLine
 10
915.4999779999999
 20
526.36224
 30
0.0
 11
914.999974
 21
526.862244
 31
0.0
  0
LINE
  5
1A1
330
1F
100
AcDbEntity
  8
Ｓ_１_１
  6
CONTINUOUS
 62
     3
100
AcDbLine
 10
884.9999829999999
 20
524.862244
 30
0.0
 11
884.4999859999998
 21
525.3622410000002
 31
0.0
  0
LINE
  5
1A2
330
1F
100
AcDbEntity
  8
Ｓ_１_１
  6
CONTINUOUS
 62
     3
100
AcDbLine
 10
884.99999
 20
526.86225
 30
0.0
 11
884.4999729999998
 21
526.3622340000001
 31
0.0
  0
LINE
  5
1A3
330
1F
100
AcDbEntity
  8
Ｓ_１_１
  6
CONTINUOUS
 62
     3
100
AcDbLine
 10
886.999971
 20
524.8622510000001
 30
0.0
 11
885.000002
 21
524.8622510000001
 31
0.0
  0
LINE
  5
1A4
330
1F
100
AcDbEntity
  8
Ｓ_１_１
  6
CONTINUOUS
 62
     3
100
AcDbLine
 10
886.999971
 20
526.8622780000002
 30
0.0
 11
885.000002
 21
526.8622780000002
 31
0.0
  0
LINE
  5
1A5
330
1F
100
AcDbEntity
  8
Ｓ_１_１
  6
CONTINUOUS
 62
     3
100
AcDbLine
 10
915.0000009999999
 20
526.8622780000002
 30
0.0
 11
913.0000319999999
 21
526.8622780000002
 31
0.0
  0
LINE
  5
1A6
330
1F
100
AcDbEntity
  8
Ｓ_１_１
  6
CONTINUOUS
 62
     3
100
AcDbLine
 10
915.0000009999999
 20
524.8622510000001
 30
0.0
 11
913.0000319999999
 21
524.8622510000001
 31
0.0
  0
LINE
  5
1A7
330
1F
100
AcDbEntity
  8
Ｓ_１_１
  6
CONTINUOUS
 62
     3
100
AcDbLine
 10
915.4999939999999
 20
526.3622660000002
 30
0.0
 11
915.4999939999999
 21
525.3622820000002
 31
0.0
  0
LINE
  5
1A8
330
1F
100
AcDbEntity
  8
Ｓ_１_１
  6
CONTINUOUS
 62
     3
100
AcDbLine
 10
884.5000089999997
 20
526.3622660000002
 30
0.0
 11
884.5000089999997
 21
525.3622820000002
 31
0.0
  0
LINE
  5
1A9
330
1F
100
AcDbEntity
  8
Ｓ_１_１
  6
CONTINUOUS
 62
     3
100
AcDbLine
 10
901.8549409999998
 20
528.3622700000002
 30
0.0
 11
901.750015
 21
528.5440060000002
 31
0.0
  0
LINE
  5
1AA
330
1F
100
AcDbEntity
  8
Ｓ_１_１
  6
CONTINUOUS
 62
     3
100
AcDbLine
 10
916.0000239999999
 20
551.862258
 30
0.0
 11
883.9999789999999
 21
551.862258
 31
0.0
  0
LINE
  5
1AB
330
1F
100
AcDbEntity
  8
Ｓ_１_１
  6
CONTINUOUS
 62
     3
100
AcDbLine
 10
916.0000239999999
 20
544.362258
 30
0.0
 11
883.9999789999999
 21
544.362258
 31
0.0
  0
LINE
  5
1AC
330
1F
100
AcDbEntity
  8
Ｓ_１_１
  6
CONTINUOUS
 62
     3
100
AcDbLine
 10
916.0000239999999
 20
528.3622740000002
 30
0.0
 11
901.7500319999999
 21
528.3622740000002
 31
0.0
  0
LINE
  5
1AD
330
1F
100
AcDbEntity
  8
Ｓ_１_１
  6
CONTINUOUS
 62
     3
100
AcDbLine
 10
883.9999789999999
 20
535.362262
 30
0.0
 11
916.0000239999999
 21
535.362262
 31
0.0
  0
LINE
  5
1AE
330
1F
100
AcDbEntity
  8
Ｓ_１_１
  6
CONTINUOUS
 62
     3
100
AcDbLine
 10
884.4999929999998
 20
527.862244
 30
0.0
 11
883.9999899999999
 21
528.3622470000001
 31
0.0
  0
LINE
  5
1AF
330
1F
100
AcDbEntity
  8
Ｓ_１_１
  6
CONTINUOUS
 62
     3
100
AcDbLine
 10
916.000008
 20
528.362258
 30
0.0
 11
915.4999909999999
 21
527.8622410000002
 31
0.0
  0
LINE
  5
1B0
330
1F
100
AcDbEntity
  8
Ｓ_１_１
  6
CONTINUOUS
 62
     3
100
AcDbLine
 10
883.9999789999999
 20
535.362262
 30
0.0
 11
883.9999789999999
 21
528.3622740000002
 31
0.0
  0
LINE
  5
1B1
330
1F
100
AcDbEntity
  8
Ｓ_１_１
  6
CONTINUOUS
 62
     3
100
AcDbLine
 10
916.0000239999999
 20
535.362262
 30
0.0
 11
916.0000239999999
 21
528.3622740000002
 31
0.0
  0
LINE
  5
1B2
330
1F
100
AcDbEntity
  8
Ｓ_１_１
  6
CONTINUOUS
 62
     3
100
AcDbLine
 10
916.000008
 20
544.3622530000001
 30
0.0
 11
915.5000189999998
 21
543.862264
 31
0.0
  0
LINE
  5
1B3
330
1F
100
AcDbEntity
  8
Ｓ_１_１
  6
CONTINUOUS
 62
     3
100
AcDbLine
 10
884.5000069999998
 20
535.8622670000001
 30
0.0
 11
883.9999899999999
 21
535.36225
 31
0.0
  0
LINE
  5
1B4
330
1F
100
AcDbEntity
  8
Ｓ_１_１
  6
CONTINUOUS
 62
     3
100
AcDbLine
 10
884.50002
 20
543.8622660000002
 30
0.0
 11
884.0000159999998
 21
544.3622700000002
 31
0.0
  0
LINE
  5
1B5
330
1F
100
AcDbEntity
  8
Ｓ_１_１
  6
CONTINUOUS
 62
     3
100
AcDbLine
 10
915.999994
 20
535.3622530000001
 30
0.0
 11
915.4999909999999
 21
535.8622570000001
 31
0.0
  0
LINE
  5
1B6
330
1F
100
AcDbEntity
  8
Ｓ_１_１
  6
CONTINUOUS
 62
     3
100
AcDbLine
 10
915.4999939999999
 20
543.8622660000002
 30
0.0
 11
884.5000089999997
 21
543.8622660000002
 31
0.0
  0
LINE
  5
1B7
330
1F
100
AcDbEntity
  8
Ｓ_１_１
  6
CONTINUOUS
 62
     3
100
AcDbLine
 10
915.4999939999999
 20
535.8622740000002
 30
0.0
 11
884.5000089999997
 21
535.8622740000002
 31
0.0
  0
LINE
  5
1B8
330
1F
100
AcDbEntity
  8
Ｓ_１_１
  6
CONTINUOUS
 62
     3
100
AcDbLine
 10
884.5000089999997
 20
543.8622660000002
 30
0.0
 11
884.5000089999997
 21
535.8622740000002
 31
0.0
  0
LINE
  5
1B9
330
1F
100
AcDbEntity
  8
Ｓ_１_１
  6
CONTINUOUS
 62
     3
100
AcDbLine
 10
915.4999939999999
 20
543.8622660000002
 30
0.0
 11
915.4999939999999
 21
535.8622740000002
 31
0.0
  0
LINE
  5
1BA
330
1F
100
AcDbEntity
  8
Ｓ_１_１
  6
CONTINUOUS
 62
     3
100
AcDbLine
 10
887.0000029999999
 20
554.8622690000001
 30
0.0
 11
884.0000099999999
 21
551.8622770000001
 31
0.0
  0
LINE
  5
1BB
330
1F
100
AcDbEntity
  8
Ｓ_１_１
  6
CONTINUOUS
 62
     3
100
AcDbLine
 10
913.0000359999999
 20
554.8622960000001
 30
0.0
 11
916.000021
 21
551.862311
 31
0.0
  0
LINE
  5
1BC
330
1F
100
AcDbEntity
  8
Ｓ_１_１
  6
CONTINUOUS
 62
     3
100
AcDbLine
 10
912.0000089999999
 20
520.3622630000001
 30
0.0
 11
912.0000089999999
 21
505.362263
 31
0.0
  0
LINE
  5
1BD
330
1F
100
AcDbEntity
  8
Ｓ_１_１
  6
CONTINUOUS
 62
     3
100
AcDbLine
 10
888.0000319999999
 20
520.3622630000001
 30
0.0
 11
888.0000319999999
 21
505.362263
 31
0.0
  0
LINE
  5
1BE
330
1F
100
AcDbEntity
  8
Ｓ_１_１
  6
CONTINUOUS
 62
     3
100
AcDbLine
 10
913.0000319999999
 20
554.8622510000001
 30
0.0
 11
886.999971
 21
554.8622510000001
 31
0.0
  0
LINE
  5
1BF
330
1F
100
AcDbEntity
  8
Ｓ_１_１
  6
CONTINUOUS
 62
     3
100
AcDbLine
 10
883.9999789999999
 20
551.862258
 30
0.0
 11
883.9999789999999
 21
544.362258
 31
0.0
  0
LINE
  5
1C0
330
1F
100
AcDbEntity
  8
Ｓ_１_１
  6
CONTINUOUS
 62
     3
100
AcDbLine
 10
916.0000239999999
 20
551.862258
 30
0.0
 11
916.0000239999999
 21
544.362258
 31
0.0
  0
LINE
  5
1C1
330
1F
100
AcDbEntity
  8
Ｓ_１_１
  6
CONTINUOUS
 62
     3
100
AcDbLine
 10
886.999971
 20
504.7848990000001
 30
0.0
 11
886.999971
 21
493.439608
 31
0.0
  0
LINE
  5
1C2
330
1F
100
AcDbEntity
  8
Ｓ_１_１
  6
CONTINUOUS
 62
     3
100
AcDbLine
 10
913.0000319999999
 20
504.7849080000001
 30
0.0
 11
913.0000319999999
 21
493.439608
 31
0.0
  0
LINE
  5
1C3
330
1F
100
AcDbEntity
  8
Ｓ_１_１
  6
CONTINUOUS
 62
     3
100
AcDbLine
 10
888.0000319999999
 20
555.362262
 30
0.0
 11
888.0000319999999
 21
554.8622510000001
 31
0.0
  0
LINE
  5
1C4
330
1F
100
AcDbEntity
  8
Ｓ_１_１
  6
CONTINUOUS
 62
     3
100
AcDbLine
 10
912.0000089999999
 20
555.362262
 30
0.0
 11
912.0000089999999
 21
554.8622510000001
 31
0.0
  0
LINE
  5
1C5
330
1F
100
AcDbEntity
  8
Ｓ_１_１
  6
CONTINUOUS
 62
     3
100
AcDbLine
 10
913.0000319999999
 20
527.862262
 30
0.0
 11
913.0000319999999
 21
520.939598
 31
0.0
  0
LINE
  5
1C6
330
1F
100
AcDbEntity
  8
Ｓ_１_１
  6
CONTINUOUS
 62
     3
100
AcDbLine
 10
886.999971
 20
527.862262
 30
0.0
 11
886.999971
 21
520.939598
 31
0.0
  0
LINE
  5
1C7
330
1F
100
AcDbEntity
  8
Ｓ_１_１
  6
CONTINUOUS
 62
     3
100
AcDbLine
 10
915.4999939999999
 20
527.862262
 30
0.0
 11
901.7500319999999
 21
527.862262
 31
0.0
  0
LINE
  5
1C8
330
1F
100
AcDbEntity
  8
Ｓ_１_１
  6
CONTINUOUS
 62
     3
100
AcDbLine
 10
912.0000089999999
 20
520.3622630000001
 30
0.0
 11
888.0000319999999
 21
520.3622630000001
 31
0.0
  0
LINE
  5
1C9
330
1F
100
AcDbEntity
  8
Ｓ_１_１
  6
CONTINUOUS
 62
     3
100
AcDbLine
 10
912.0000089999999
 20
505.362263
 30
0.0
 11
888.0000319999999
 21
505.362263
 31
0.0
  0
LINE
  5
1CA
330
1F
100
AcDbEntity
  8
Ｓ_１_１
  6
CONTINUOUS
 62
     3
100
AcDbLine
 10
912.0000089999999
 20
555.362262
 30
0.0
 11
888.0000319999999
 21
555.362262
 31
0.0
  0
LINE
  5
1CB
330
1F
100
AcDbEntity
  8
Ｓ_１_１
  6
CONTINUOUS
 62
     3
100
AcDbLine
 10
907.1798719999999
 20
492.862263
 30
0.0
 11
907.5634809999999
 21
486.724528
 31
0.0
  0
LINE
  5
1CC
330
1F
100
AcDbEntity
  8
Ｓ_１_１
  6
CONTINUOUS
 62
     3
100
AcDbLine
 10
908.349981
 20
485.3622659999999
 30
0.0
 11
907.5634769999999
 21
486.724532
 31
0.0
  0
LINE
  5
1CD
330
1F
100
AcDbEntity
  8
Ｓ_１_１
  6
CONTINUOUS
 62
     3
100
AcDbLine
 10
907.881235
 20
492.8622679999999
 30
0.0
 11
908.349986
 21
485.362245
 31
0.0
  0
LINE
  5
1CE
330
1F
100
AcDbEntity
  8
Ｓ_１_１
  6
CONTINUOUS
 62
     3
100
AcDbLine
 10
892.4364939999999
 20
486.7245189999999
 30
0.0
 11
891.649999
 21
485.362269
 31
0.0
  0
LINE
  5
1CF
330
1F
100
AcDbEntity
  8
Ｓ_１_１
  6
CONTINUOUS
 62
     3
100
AcDbLine
 10
892.118757
 20
492.862271
 30
0.0
 11
891.650006
 21
485.3622559999999
 31
0.0
  0
LINE
  5
1D0
330
1F
100
AcDbEntity
  8
Ｓ_１_１
  6
CONTINUOUS
 62
     3
100
AcDbLine
 10
892.8201569999999
 20
492.862263
 30
0.0
 11
892.4365489999999
 21
486.724538
 31
0.0
  0
LINE
  5
1D1
330
1F
100
AcDbEntity
  8
Ｓ_１_１
  6
CONTINUOUS
 62
     3
100
AcDbLine
 10
908.264848
 20
486.72453
 30
0.0
 11
891.735155
 21
486.72453
 31
0.0
  0
LINE
  5
1D2
330
1F
100
AcDbEntity
  8
Ｓ_１_１
  6
CONTINUOUS
 62
     3
100
AcDbLine
 10
892.436526
 20
474.999993
 30
0.0
 11
891.650012
 21
476.362276
 31
0.0
  0
LINE
  5
1D3
330
1F
100
AcDbEntity
  8
Ｓ_１_１
  6
CONTINUOUS
 62
     3
100
AcDbLine
 10
892.0476959999997
 20
470.000005
 30
0.0
 11
891.650054
 21
476.362274
 31
0.0
  0
LINE
  5
1D4
330
1F
100
AcDbEntity
  8
Ｓ_１_１
  6
CONTINUOUS
 62
     3
100
AcDbLine
 10
892.7490209999999
 20
469.9999980000001
 30
0.0
 11
892.436521
 21
474.9999970000001
 31
0.0
  0
LINE
  5
1D5
330
1F
100
AcDbEntity
  8
Ｓ_１_１
  6
CONTINUOUS
 62
     3
100
AcDbLine
 10
908.3499919999999
 20
476.362243
 30
0.0
 11
907.5634969999999
 21
474.999993
 31
0.0
  0
LINE
  5
1D6
330
1F
100
AcDbEntity
  8
Ｓ_１_１
  6
CONTINUOUS
 62
     3
100
AcDbLine
 10
908.264848
 20
475.0000000000001
 30
0.0
 11
891.735155
 21
475.0000000000001
 31
0.0
  0
LINE
  5
1D7
330
1F
100
AcDbEntity
  8
Ｓ_１_１
  6
CONTINUOUS
 62
     3
100
AcDbLine
 10
907.952372
 20
470.0000020000001
 30
0.0
 11
908.3500129999999
 21
476.3622619999999
 31
0.0
  0
LINE
  5
1D8
330
1F
100
AcDbEntity
  8
Ｓ_１_１
  6
CONTINUOUS
 62
     3
100
AcDbLine
 10
907.251009
 20
469.9999980000001
 30
0.0
 11
907.563509
 21
474.9999970000001
 31
0.0
  0
LINE
  5
1D9
330
1F
100
AcDbEntity
  8
Ｓ_１_１
  6
CONTINUOUS
 62
     3
100
AcDbLine
 10
910.500016
 20
476.3622659999999
 30
0.0
 11
912.1243769999998
 21
477.300087
 31
0.0
  0
LINE
  5
1DA
330
1F
100
AcDbEntity
  8
Ｓ_１_１
  6
CONTINUOUS
 62
     3
100
AcDbLine
 10
910.5000299999999
 20
485.3622809999999
 30
0.0
 11
912.124374
 21
484.424469
 31
0.0
  0
LINE
  5
1DB
330
1F
100
AcDbEntity
  8
Ｓ_１_１
  6
CONTINUOUS
 62
     3
100
AcDbLine
 10
889.5000089999999
 20
476.362276
 30
0.0
 11
887.8756319999999
 21
477.300107
 31
0.0
  0
LINE
  5
1DC
330
1F
100
AcDbEntity
  8
Ｓ_１_１
  6
CONTINUOUS
 62
     3
100
AcDbLine
 10
889.500014
 20
485.362276
 30
0.0
 11
887.8756199999999
 21
484.424436
 31
0.0
  0
LINE
  5
1DD
330
1F
100
AcDbEntity
  8
Ｓ_１_１
  6
CONTINUOUS
 62
     3
100
AcDbLine
 10
887.8756349999999
 20
484.4244389999999
 30
0.0
 11
887.8756349999999
 21
477.300082
 31
0.0
  0
LINE
  5
1DE
330
1F
100
AcDbEntity
  8
Ｓ_１_１
  6
CONTINUOUS
 62
     3
100
AcDbLine
 10
912.1243299999999
 20
484.424458
 30
0.0
 11
912.1243299999999
 21
477.3000720000001
 31
0.0
  0
LINE
  5
1DF
330
1F
100
AcDbEntity
  8
Ｓ_１_１
  6
CONTINUOUS
 62
     3
100
AcDbLine
 10
906.0621659999999
 20
484.4244389999999
 30
0.0
 11
906.0621659999999
 21
477.300082
 31
0.0
  0
LINE
  5
1E0
330
1F
100
AcDbEntity
  8
Ｓ_１_１
  6
CONTINUOUS
 62
     3
100
AcDbLine
 10
893.937837
 20
484.4244389999999
 30
0.0
 11
893.937837
 21
477.300082
 31
0.0
  0
LINE
  5
1E1
330
1F
100
AcDbEntity
  8
Ｓ_１_１
  6
CONTINUOUS
 62
     3
100
AcDbLine
 10
910.5000319999999
 20
485.362263
 30
0.0
 11
889.499971
 21
485.362263
 31
0.0
  0
LINE
  5
1E2
330
1F
100
AcDbEntity
  8
Ｓ_１_１
  6
CONTINUOUS
 62
     3
100
AcDbLine
 10
910.5000319999999
 20
476.362257
 30
0.0
 11
889.499971
 21
476.362257
 31
0.0
  0
LINE
  5
1E3
330
1F
100
AcDbEntity
  8
Ｓ_１_１
  6
CONTINUOUS
 62
     3
100
AcDbLine
 10
620.000021
 20
319.999999
 30
0.0
 11
615.00002
 21
264.499997
 31
0.0
  0
LINE
  5
1E4
330
1F
100
AcDbEntity
  8
Ｓ_１_１
  6
CONTINUOUS
 62
     3
100
AcDbLine
 10
699.00002
 20
375.9999990000001
 30
0.0
 11
699.00002
 21
373.9999970000001
 31
0.0
  0
LINE
  5
1E5
330
1F
100
AcDbEntity
  8
Ｓ_１_１
  6
CONTINUOUS
 62
     3
100
AcDbLine
 10
711.000008
 20
375.9999990000001
 30
0.0
 11
711.000008
 21
373.9999970000001
 31
0.0
  0
LINE
  5
1E6
330
1F
100
AcDbEntity
  8
Ｓ_１_１
  6
CONTINUOUS
 62
     3
100
AcDbLine
 10
711.000008
 20
345.999997
 30
0.0
 11
711.000008
 21
343.999999
 31
0.0
  0
LINE
  5
1E7
330
1F
100
AcDbEntity
  8
Ｓ_１_１
  6
CONTINUOUS
 62
     3
100
AcDbLine
 10
699.00002
 20
345.999997
 30
0.0
 11
699.00002
 21
343.999999
 31
0.0
  0
LINE
  5
1E8
330
1F
100
AcDbEntity
  8
Ｓ_１_１
  6
CONTINUOUS
 62
     3
100
AcDbLine
 10
683.000016
 20
373.9999970000001
 30
0.0
 11
723.000016
 21
373.9999970000001
 31
0.0
  0
LINE
  5
1E9
330
1F
100
AcDbEntity
  8
Ｓ_１_１
  6
CONTINUOUS
 62
     3
100
AcDbLine
 10
685.0000239999999
 20
384.9999970000001
 30
0.0
 11
725.000004
 21
384.9999970000001
 31
0.0
  0
LINE
  5
1EA
330
1F
100
AcDbEntity
  8
Ｓ_１_１
  6
CONTINUOUS
 62
     3
100
AcDbLine
 10
685.0000239999999
 20
375.9999990000001
 30
0.0
 11
725.000004
 21
375.9999990000001
 31
0.0
  0
LINE
  5
1EB
330
1F
100
AcDbEntity
  8
Ｓ_１_１
  6
CONTINUOUS
 62
     3
100
AcDbLine
 10
683.000016
 20
345.999997
 30
0.0
 11
723.000016
 21
345.999997
 31
0.0
  0
LINE
  5
1EC
330
1F
100
AcDbEntity
  8
Ｓ_１_１
  6
CONTINUOUS
 62
     3
100
AcDbLine
 10
685.0000239999999
 20
334.999998
 30
0.0
 11
725.000004
 21
334.999998
 31
0.0
  0
LINE
  5
1ED
330
1F
100
AcDbEntity
  8
Ｓ_１_１
  6
CONTINUOUS
 62
     3
100
AcDbLine
 10
685.0000239999999
 20
343.999999
 30
0.0
 11
725.000004
 21
343.999999
 31
0.0
  0
LINE
  5
1EE
330
1F
100
AcDbEntity
  8
Ｓ_１_１
  6
CONTINUOUS
 62
     3
100
AcDbLine
 10
620.000016
 20
399.9999960000001
 30
0.0
 11
615.000016
 21
455.499991
 31
0.0
  0
LINE
  5
1EF
330
1F
100
AcDbEntity
  8
Ｓ_１_１
  6
CONTINUOUS
 62
     3
100
AcDbLine
 10
620.00002
 20
320.000008
 30
0.0
 11
625.00002
 21
320.000008
 31
0.0
  0
LINE
  5
1F0
330
1F
100
AcDbEntity
  8
Ｓ_１_１
  6
CONTINUOUS
 62
     3
100
AcDbLine
 10
620.00002
 20
399.9999970000001
 30
0.0
 11
625.00002
 21
399.9999970000001
 31
0.0
  0
LINE
  5
1F1
330
1F
100
AcDbEntity
  8
Ｓ_１_１
  6
CONTINUOUS
 62
     3
100
AcDbLine
 10
625.000022
 20
307.000001
 30
0.0
 11
627.000021
 21
305.000001
 31
0.0
  0
LINE
  5
1F2
330
1F
100
AcDbEntity
  8
Ｓ_１_１
  6
CONTINUOUS
 62
     3
100
AcDbLine
 10
627.0000239999999
 20
414.9999980000001
 30
0.0
 11
625.0000249999999
 21
412.9999980000001
 31
0.0
  0
LINE
  5
1F3
330
1F
100
AcDbEntity
  8
Ｓ_１_１
  6
CONTINUOUS
 62
     3
100
AcDbLine
 10
613.0000239999999
 20
262.500007
 30
0.0
 11
615.000019
 21
264.500001
 31
0.0
  0
LINE
  5
1F4
330
1F
100
AcDbEntity
  8
Ｓ_１_１
  6
CONTINUOUS
 62
     3
100
AcDbLine
 10
613.000022
 20
457.499995
 30
0.0
 11
615.0000229999999
 21
455.499994
 31
0.0
  0
LINE
  5
1F5
330
1F
100
AcDbEntity
  8
Ｓ_１_１
  6
CONTINUOUS
 62
     3
100
AcDbLine
 10
627.0000229999999
 20
304.999993
 30
0.0
 11
630.0000249999999
 21
304.999993
 31
0.0
  0
LINE
  5
1F6
330
1F
100
AcDbEntity
  8
Ｓ_１_１
  6
CONTINUOUS
 62
     3
100
AcDbLine
 10
627.0000229999999
 20
414.9999970000001
 30
0.0
 11
630.0000249999999
 21
414.9999970000001
 31
0.0
  0
LINE
  5
1F7
330
1F
100
AcDbEntity
  8
Ｓ_１_１
  6
CONTINUOUS
 62
     3
100
AcDbLine
 10
587.0000229999999
 20
457.499991
 30
0.0
 11
587.0000229999999
 21
262.500004
 31
0.0
  0
LINE
  5
1F8
330
1F
100
AcDbEntity
  8
Ｓ_１_１
  6
CONTINUOUS
 62
     3
100
AcDbLine
 10
587.000019
 20
262.5000130000001
 30
0.0
 11
585.00002
 21
264.5000120000001
 31
0.0
  0
LINE
  5
1F9
330
1F
100
AcDbEntity
  8
Ｓ_１_１
  6
CONTINUOUS
 62
     3
100
AcDbLine
 10
587.000022
 20
457.499999
 30
0.0
 11
585.0000229999999
 21
455.5000000000001
 31
0.0
  0
LINE
  5
1FA
330
1F
100
AcDbEntity
  8
Ｓ_１_１
  6
CONTINUOUS
 62
     3
100
AcDbLine
 10
587.0000229999999
 20
457.499991
 30
0.0
 11
613.000022
 21
457.499991
 31
0.0
  0
LINE
  5
1FB
330
1F
100
AcDbEntity
  8
Ｓ_１_１
  6
CONTINUOUS
 62
     3
100
AcDbLine
 10
587.0000229999999
 20
262.500004
 30
0.0
 11
613.000022
 21
262.500004
 31
0.0
  0
LINE
  5
1FC
330
1F
100
AcDbEntity
  8
Ｓ_１_１
  6
CONTINUOUS
 62
     3
100
AcDbLine
 10
632.0000229999999
 20
265.000004
 30
0.0
 11
997.9999919999999
 21
265.000004
 31
0.0
  0
LINE
  5
1FD
330
1F
100
AcDbEntity
  8
Ｓ_１_１
  6
CONTINUOUS
 62
     3
100
AcDbLine
 10
630.00002
 20
452.999996
 30
0.0
 11
632.000019
 21
454.9999949999999
 31
0.0
  0
LINE
  5
1FE
330
1F
100
AcDbEntity
  8
Ｓ_１_１
  6
CONTINUOUS
 62
     3
100
AcDbLine
 10
630.000019
 20
267.000002
 30
0.0
 11
632.000018
 21
265.000003
 31
0.0
  0
LINE
  5
1FF
330
1F
100
AcDbEntity
  8
Ｓ_１_１
  6
CONTINUOUS
 62
     3
100
AcDbLine
 10
632.0000229999999
 20
454.9999909999999
 30
0.0
 11
632.0000229999999
 21
265.000004
 31
0.0
  0
LINE
  5
200
330
1F
100
AcDbEntity
  8
Ｓ_１_１
  6
CONTINUOUS
 62
     3
100
AcDbLine
 10
1000.0
 20
453.000003
 30
0.0
 11
1000.0
 21
267.000002
 31
0.0
  0
LINE
  5
201
330
1F
100
AcDbEntity
  8
Ｓ_１_１
  6
CONTINUOUS
 62
     3
100
AcDbLine
 10
998.0000019999999
 20
264.999999
 30
0.0
 11
1000.000002
 21
266.999998
 31
0.0
  0
LINE
  5
202
330
1F
100
AcDbEntity
  8
Ｓ_１_１
  6
CONTINUOUS
 62
     3
100
AcDbLine
 10
998.0000009999999
 20
454.999974
 30
0.0
 11
1000.000001
 21
452.999975
 31
0.0
  0
LINE
  5
203
330
1F
100
AcDbEntity
  8
Ｓ_１_１
  6
CONTINUOUS
 62
     3
100
AcDbLine
 10
997.9999919999999
 20
454.9999909999999
 30
0.0
 11
997.9999919999999
 21
265.000004
 31
0.0
  0
LINE
  5
204
330
1F
100
AcDbEntity
  8
Ｓ_１_１
  6
CONTINUOUS
 62
     3
100
AcDbLine
 10
615.00002
 20
455.499993
 30
0.0
 11
615.00002
 21
264.500011
 31
0.0
  0
LINE
  5
205
330
1F
100
AcDbEntity
  8
Ｓ_１_１
  6
CONTINUOUS
 62
     3
100
AcDbLine
 10
627.0000229999999
 20
304.999993
 30
0.0
 11
627.0000229999999
 21
414.9999970000001
 31
0.0
  0
LINE
  5
206
330
1F
100
AcDbEntity
  8
Ｓ_１_１
  6
CONTINUOUS
 62
     3
100
AcDbLine
 10
613.000022
 20
457.499991
 30
0.0
 11
613.000022
 21
262.500004
 31
0.0
  0
LINE
  5
207
330
1F
100
AcDbEntity
  8
Ｓ_１_１
  6
CONTINUOUS
 62
     3
100
AcDbLine
 10
620.00002
 20
399.9999970000001
 30
0.0
 11
620.00002
 21
320.000008
 31
0.0
  0
LINE
  5
208
330
1F
100
AcDbEntity
  8
Ｓ_１_１
  6
CONTINUOUS
 62
     3
100
AcDbLine
 10
625.00002
 20
412.9999939999999
 30
0.0
 11
625.00002
 21
307.000001
 31
0.0
  0
LINE
  5
209
330
1F
100
AcDbEntity
  8
Ｓ_１_１
  6
CONTINUOUS
 62
     3
100
AcDbLine
 10
821.9999949999999
 20
351.000007
 30
0.0
 11
823.0000009999998
 21
352.0000140000001
 31
0.0
  0
LINE
  5
20A
330
1F
100
AcDbEntity
  8
Ｓ_１_１
  6
CONTINUOUS
 62
     3
100
AcDbLine
 10
723.500008
 20
351.0
 30
0.0
 11
822.00001
 21
351.0
 31
0.0
  0
LINE
  5
20B
330
1F
100
AcDbEntity
  8
Ｓ_１_１
  6
CONTINUOUS
 62
     3
100
AcDbLine
 10
683.000016
 20
373.9999970000001
 30
0.0
 11
683.000016
 21
345.999997
 31
0.0
  0
LINE
  5
20C
330
1F
100
AcDbEntity
  8
Ｓ_１_１
  6
CONTINUOUS
 62
     3
100
AcDbLine
 10
723.000016
 20
373.9999970000001
 30
0.0
 11
723.000016
 21
345.999997
 31
0.0
  0
LINE
  5
20D
330
1F
100
AcDbEntity
  8
Ｓ_１_１
  6
CONTINUOUS
 62
     3
100
AcDbLine
 10
822.00001
 20
369.0000000000001
 30
0.0
 11
822.00001
 21
351.0
 31
0.0
  0
LINE
  5
20E
330
1F
100
AcDbEntity
  8
Ｓ_１_１
  6
CONTINUOUS
 62
     3
100
AcDbLine
 10
822.9999949999998
 20
368.000015
 30
0.0
 11
822.9999949999998
 21
352.000002
 31
0.0
  0
LINE
  5
20F
330
1F
100
AcDbEntity
  8
Ｓ_１_１
  6
CONTINUOUS
 62
     3
100
AcDbLine
 10
725.000004
 20
343.999999
 30
0.0
 11
725.000004
 21
334.999998
 31
0.0
  0
LINE
  5
210
330
1F
100
AcDbEntity
  8
Ｓ_１_１
  6
CONTINUOUS
 62
     3
100
AcDbLine
 10
685.0000239999999
 20
343.999999
 30
0.0
 11
685.0000239999999
 21
334.999998
 31
0.0
  0
LINE
  5
211
330
1F
100
AcDbEntity
  8
Ｓ_１_１
  6
CONTINUOUS
 62
     3
100
AcDbLine
 10
725.000004
 20
375.9999990000001
 30
0.0
 11
725.000004
 21
384.9999970000001
 31
0.0
  0
LINE
  5
212
330
1F
100
AcDbEntity
  8
Ｓ_１_１
  6
CONTINUOUS
 62
     3
100
AcDbLine
 10
685.0000239999999
 20
375.9999990000001
 30
0.0
 11
685.0000239999999
 21
384.9999970000001
 31
0.0
  0
LINE
  5
213
330
1F
100
AcDbEntity
  8
Ｓ_１_１
  6
CONTINUOUS
 62
     3
100
AcDbLine
 10
822.000008
 20
369.000006
 30
0.0
 11
823.0
 21
368.000013
 31
0.0
  0
LINE
  5
214
330
1F
100
AcDbEntity
  8
Ｓ_１_１
  6
CONTINUOUS
 62
     3
100
AcDbLine
 10
723.500008
 20
369.0000000000001
 30
0.0
 11
822.00001
 21
369.0000000000001
 31
0.0
  0
LINE
  5
215
330
1F
100
AcDbEntity
  8
Ｓ_１_１
  6
CONTINUOUS
 62
     3
100
AcDbLine
 10
880.9999979999999
 20
454.999966
 30
0.0
 11
885.00001
 21
458.999979
 31
0.0
  0
LINE
  5
216
330
1F
100
AcDbEntity
  8
Ｓ_１_１
  6
CONTINUOUS
 62
     3
100
AcDbLine
 10
885.000002
 20
468.9999970000001
 30
0.0
 11
885.000002
 21
458.999997
 31
0.0
  0
LINE
  5
217
330
1F
100
AcDbEntity
  8
Ｓ_１_１
  6
CONTINUOUS
 62
     3
100
AcDbLine
 10
915.0000009999999
 20
468.9999970000001
 30
0.0
 11
915.0000009999999
 21
458.999997
 31
0.0
  0
LINE
  5
218
330
1F
100
AcDbEntity
  8
Ｓ_１_１
  6
CONTINUOUS
 62
     3
100
AcDbLine
 10
885.000002
 20
468.9999960000001
 30
0.0
 11
915.0000009999999
 21
468.9999960000001
 31
0.0
  0
LINE
  5
219
330
1F
100
AcDbEntity
  8
Ｓ_１_１
  6
CONTINUOUS
 62
     3
100
AcDbLine
 10
915.0000009999999
 20
458.999992
 30
0.0
 11
919.0
 21
454.9999929999999
 31
0.0
  0
LINE
  5
21A
330
1F
100
AcDbEntity
  8
Ｓ_１_１
  6
CONTINUOUS
 62
     3
100
AcDbLine
 10
885.000014
 20
468.999975
 30
0.0
 11
886.0000069999998
 21
469.999968
 31
0.0
  0
LINE
  5
21B
330
1F
100
AcDbEntity
  8
Ｓ_１_１
  6
CONTINUOUS
 62
     3
100
AcDbLine
 10
885.000002
 20
458.999997
 30
0.0
 11
915.0000009999999
 21
458.999997
 31
0.0
  0
LINE
  5
21C
330
1F
100
AcDbEntity
  8
Ｓ_１_１
  6
CONTINUOUS
 62
     3
100
AcDbLine
 10
886.0000249999999
 20
470.0000010000001
 30
0.0
 11
913.9999779999999
 21
470.0000010000001
 31
0.0
  0
LINE
  5
21D
330
1F
100
AcDbEntity
  8
Ｓ_１_１
  6
CONTINUOUS
 62
     3
100
AcDbLine
 10
681.000019
 20
454.9999879999999
 30
0.0
 11
685.0000249999999
 21
458.999994
 31
0.0
  0
LINE
  5
21E
330
1F
100
AcDbEntity
  8
Ｓ_１_１
  6
CONTINUOUS
 62
     3
100
AcDbLine
 10
914.0000129999999
 20
469.9999799999999
 30
0.0
 11
915.0000049999999
 21
468.999987
 31
0.0
  0
LINE
  5
21F
330
1F
100
AcDbEntity
  8
Ｓ_１_１
  6
CONTINUOUS
 62
     3
100
AcDbLine
 10
685.0000239999999
 20
468.9999970000001
 30
0.0
 11
685.0000239999999
 21
458.999997
 31
0.0
  0
LINE
  5
220
330
1F
100
AcDbEntity
  8
Ｓ_１_１
  6
CONTINUOUS
 62
     3
100
AcDbLine
 10
715.0000229999999
 20
468.9999970000001
 30
0.0
 11
715.0000229999999
 21
458.999997
 31
0.0
  0
LINE
  5
221
330
1F
100
AcDbEntity
  8
Ｓ_１_１
  6
CONTINUOUS
 62
     3
100
AcDbLine
 10
685.0000239999999
 20
468.9999960000001
 30
0.0
 11
715.0000239999999
 21
468.9999960000001
 31
0.0
  0
LINE
  5
222
330
1F
100
AcDbEntity
  8
Ｓ_１_１
  6
CONTINUOUS
 62
     3
100
AcDbLine
 10
715.000008
 20
458.999989
 30
0.0
 11
719.00001
 21
454.9999859999999
 31
0.0
  0
LINE
  5
223
330
1F
100
AcDbEntity
  8
Ｓ_１_１
  6
CONTINUOUS
 62
     3
100
AcDbLine
 10
685.0000249999999
 20
469.0000020000001
 30
0.0
 11
686.000018
 21
469.9999949999999
 31
0.0
  0
LINE
  5
224
330
1F
100
AcDbEntity
  8
Ｓ_１_１
  6
CONTINUOUS
 62
     3
100
AcDbLine
 10
630.0000249999999
 20
453.000003
 30
0.0
 11
630.0000249999999
 21
267.000002
 31
0.0
  0
LINE
  5
225
330
1F
100
AcDbEntity
  8
Ｓ_１_１
  6
CONTINUOUS
 62
     3
100
AcDbLine
 10
714.000016
 20
469.9999889999999
 30
0.0
 11
715.000015
 21
468.999989
 31
0.0
  0
LINE
  5
226
330
1F
100
AcDbEntity
  8
Ｓ_１_１
  6
CONTINUOUS
 62
     3
100
AcDbLine
 10
685.0000239999999
 20
458.999997
 30
0.0
 11
715.0000229999999
 21
458.999997
 31
0.0
  0
LINE
  5
227
330
1F
100
AcDbEntity
  8
Ｓ_１_１
  6
CONTINUOUS
 62
     3
100
AcDbLine
 10
686.000018
 20
470.0000010000001
 30
0.0
 11
714.00002
 21
470.0000010000001
 31
0.0
  0
LINE
  5
228
330
1F
100
AcDbEntity
  8
Ｓ_１_１
  6
CONTINUOUS
 62
     3
100
AcDbLine
 10
585.00002
 20
455.499993
 30
0.0
 11
585.00002
 21
264.500011
 31
0.0
  0
LINE
  5
229
330
1F
100
AcDbEntity
  8
Ｓ_１_１
  6
EXLTYPE2
 62
     1
100
AcDbLine
 10
433.4999919999998
 20
392.218811
 30
0.0
 11
433.4999919999998
 21
331.75489
 31
0.0
  0
LINE
  5
22A
330
1F
100
AcDbEntity
  8
Ｓ_１_１
  6
EXLTYPE2
 62
     1
100
AcDbLine
 10
206.49996
 20
392.218811
 30
0.0
 11
206.49996
 21
331.75489
 31
0.0
  0
LINE
  5
22B
330
1F
100
AcDbEntity
  8
Ｓ_１_１
  6
EXLTYPE2
 62
     1
100
AcDbLine
 10
307.9999919999999
 20
363.4999980000001
 30
0.0
 11
307.9999919999999
 21
356.499996
 31
0.0
  0
LINE
  5
22C
330
1F
100
AcDbEntity
  8
Ｓ_１_１
  6
EXLTYPE2
 62
     1
100
AcDbLine
 10
331.9999879999999
 20
363.4999980000001
 30
0.0
 11
331.9999879999999
 21
356.499996
 31
0.0
  0
LINE
  5
22D
330
1F
100
AcDbEntity
  8
Ｓ_１_１
  6
EXLTYPE2
 62
     1
100
AcDbLine
 10
185.7806409999999
 20
360.0
 30
0.0
 11
456.08897
 21
360.0
 31
0.0
  0
LINE
  5
22E
330
1F
100
AcDbEntity
  8
Ｓ_１_１
  6
EXLTYPE0
 62
     2
100
AcDbLine
 10
428.9999939999998
 20
384.9999970000001
 30
0.0
 11
428.9999939999998
 21
334.999998
 31
0.0
  0
LINE
  5
22F
330
1F
100
AcDbEntity
  8
Ｓ_１_１
  6
EXLTYPE0
 62
     2
100
AcDbLine
 10
437.999995
 20
384.9999970000001
 30
0.0
 11
437.999995
 21
334.999998
 31
0.0
  0
LINE
  5
230
330
1F
100
AcDbEntity
  8
Ｓ_１_１
  6
EXLTYPE0
 62
     2
100
AcDbLine
 10
210.9999669999999
 20
384.9999970000001
 30
0.0
 11
210.9999669999999
 21
334.999998
 31
0.0
  0
LINE
  5
231
330
1F
100
AcDbEntity
  8
Ｓ_１_１
  6
EXLTYPE0
 62
     2
100
AcDbLine
 10
201.9999709999999
 20
384.9999970000001
 30
0.0
 11
201.9999709999999
 21
334.999998
 31
0.0
  0
POLYLINE
  5
232
330
1F
100
AcDbEntity
  8
Ｓ_１_１
  6
CONTINUOUS
 62
     3
100
AcDb2dPolyline
 66
     1
 10
0.0
 20
0.0
 30
0.0
 70
   128
  0
VERTEX
  5
233
330
232
100
AcDbEntity
  8
Ｓ_１_１
  6
CONTINUOUS
 62
     3
100
AcDbVertex
100
AcDb2dVertex
 10
304.9999999999999
 20
458.999997
 30
0.0
  0
VERTEX
  5
234
330
232
100
AcDbEntity
  8
Ｓ_１_１
  6
CONTINUOUS
 62
     3
100
AcDbVertex
100
AcDb2dVertex
 10
304.903522
 20
458.95611
 30
0.0
  0
VERTEX
  5
235
330
232
100
AcDbEntity
  8
Ｓ_１_１
  6
CONTINUOUS
 62
     3
100
AcDbVertex
100
AcDb2dVertex
 10
304.807601
 20
458.910441
 30
0.0
  0
VERTEX
  5
236
330
232
100
AcDbEntity
  8
Ｓ_１_１
  6
CONTINUOUS
 62
     3
100
AcDbVertex
100
AcDb2dVertex
 10
304.7123379999999
 20
458.8629790000001
 30
0.0
  0
VERTEX
  5
237
330
232
100
AcDbEntity
  8
Ｓ_１_１
  6
CONTINUOUS
 62
     3
100
AcDbVertex
100
AcDb2dVertex
 10
304.6178349999999
 20
458.813711
 30
0.0
  0
VERTEX
  5
238
330
232
100
AcDbEntity
  8
Ｓ_１_１
  6
CONTINUOUS
 62
     3
100
AcDbVertex
100
AcDb2dVertex
 10
304.524193
 20
458.762623
 30
0.0
  0
VERTEX
  5
239
330
232
100
AcDbEntity
  8
Ｓ_１_１
  6
CONTINUOUS
 62
     3
100
AcDbVertex
100
AcDb2dVertex
 10
304.431514
 20
458.709704
 30
0.0
  0
VERTEX
  5
23A
330
232
100
AcDbEntity
  8
Ｓ_１_１
  6
CONTINUOUS
 62
     3
100
AcDbVertex
100
AcDb2dVertex
 10
304.3398989999999
 20
458.6549410000001
 30
0.0
  0
VERTEX
  5
23B
330
232
100
AcDbEntity
  8
Ｓ_１_１
  6
CONTINUOUS
 62
     3
100
AcDbVertex
100
AcDb2dVertex
 10
304.2494489999999
 20
458.598321
 30
0.0
  0
VERTEX
  5
23C
330
232
100
AcDbEntity
  8
Ｓ_１_１
  6
CONTINUOUS
 62
     3
100
AcDbVertex
100
AcDb2dVertex
 10
304.160267
 20
458.539831
 30
0.0
  0
VERTEX
  5
23D
330
232
100
AcDbEntity
  8
Ｓ_１_１
  6
CONTINUOUS
 62
     3
100
AcDbVertex
100
AcDb2dVertex
 10
304.072452
 20
458.479459
 30
0.0
  0
VERTEX
  5
23E
330
232
100
AcDbEntity
  8
Ｓ_１_１
  6
CONTINUOUS
 62
     3
100
AcDbVertex
100
AcDb2dVertex
 10
303.9861069999999
 20
458.4171930000001
 30
0.0
  0
VERTEX
  5
23F
330
232
100
AcDbEntity
  8
Ｓ_１_１
  6
CONTINUOUS
 62
     3
100
AcDbVertex
100
AcDb2dVertex
 10
303.9013339999999
 20
458.35302
 30
0.0
  0
VERTEX
  5
240
330
232
100
AcDbEntity
  8
Ｓ_１_１
  6
CONTINUOUS
 62
     3
100
AcDbVertex
100
AcDb2dVertex
 10
303.818233
 20
458.286927
 30
0.0
  0
VERTEX
  5
241
330
232
100
AcDbEntity
  8
Ｓ_１_１
  6
CONTINUOUS
 62
     3
100
AcDbVertex
100
AcDb2dVertex
 10
303.736906
 20
458.218901
 30
0.0
  0
VERTEX
  5
242
330
232
100
AcDbEntity
  8
Ｓ_１_１
  6
CONTINUOUS
 62
     3
100
AcDbVertex
100
AcDb2dVertex
 10
303.6574539999999
 20
458.148931
 30
0.0
  0
VERTEX
  5
243
330
232
100
AcDbEntity
  8
Ｓ_１_１
  6
CONTINUOUS
 62
     3
100
AcDbVertex
100
AcDb2dVertex
 10
303.579979
 20
458.077002
 30
0.0
  0
VERTEX
  5
244
330
232
100
AcDbEntity
  8
Ｓ_１_１
  6
CONTINUOUS
 62
     3
100
AcDbVertex
100
AcDb2dVertex
 10
303.5005359999999
 20
457.999087
 30
0.0
  0
VERTEX
  5
245
330
232
100
AcDbEntity
  8
Ｓ_１_１
  6
CONTINUOUS
 62
     3
100
AcDbVertex
100
AcDb2dVertex
 10
303.4232719999999
 20
457.919114
 30
0.0
  0
VERTEX
  5
246
330
232
100
AcDbEntity
  8
Ｓ_１_１
  6
CONTINUOUS
 62
     3
100
AcDbVertex
100
AcDb2dVertex
 10
303.3480589999999
 20
457.8372160000001
 30
0.0
  0
VERTEX
  5
247
330
232
100
AcDbEntity
  8
Ｓ_１_１
  6
CONTINUOUS
 62
     3
100
AcDbVertex
100
AcDb2dVertex
 10
303.274767
 20
457.753524
 30
0.0
  0
VERTEX
  5
248
330
232
100
AcDbEntity
  8
Ｓ_１_１
  6
CONTINUOUS
 62
     3
100
AcDbVertex
100
AcDb2dVertex
 10
303.203268
 20
457.66817
 30
0.0
  0
VERTEX
  5
249
330
232
100
AcDbEntity
  8
Ｓ_１_１
  6
CONTINUOUS
 62
     3
100
AcDbVertex
100
AcDb2dVertex
 10
303.133433
 20
457.581285
 30
0.0
  0
VERTEX
  5
24A
330
232
100
AcDbEntity
  8
Ｓ_１_１
  6
CONTINUOUS
 62
     3
100
AcDbVertex
100
AcDb2dVertex
 10
303.0651329999999
 20
457.4930009999999
 30
0.0
  0
VERTEX
  5
24B
330
232
100
AcDbEntity
  8
Ｓ_１_１
  6
CONTINUOUS
 62
     3
100
AcDbVertex
100
AcDb2dVertex
 10
302.9982389999999
 20
457.4034489999999
 30
0.0
  0
VERTEX
  5
24C
330
232
100
AcDbEntity
  8
Ｓ_１_１
  6
CONTINUOUS
 62
     3
100
AcDbVertex
100
AcDb2dVertex
 10
302.9326209999999
 20
457.31276
 30
0.0
  0
VERTEX
  5
24D
330
232
100
AcDbEntity
  8
Ｓ_１_１
  6
CONTINUOUS
 62
     3
100
AcDbVertex
100
AcDb2dVertex
 10
302.8681519999999
 20
457.2210669999999
 30
0.0
  0
VERTEX
  5
24E
330
232
100
AcDbEntity
  8
Ｓ_１_１
  6
CONTINUOUS
 62
     3
100
AcDbVertex
100
AcDb2dVertex
 10
302.8047019999999
 20
457.128501
 30
0.0
  0
VERTEX
  5
24F
330
232
100
AcDbEntity
  8
Ｓ_１_１
  6
CONTINUOUS
 62
     3
100
AcDbVertex
100
AcDb2dVertex
 10
302.7421419999999
 20
457.0351929999999
 30
0.0
  0
VERTEX
  5
250
330
232
100
AcDbEntity
  8
Ｓ_１_１
  6
CONTINUOUS
 62
     3
100
AcDbVertex
100
AcDb2dVertex
 10
302.6803429999999
 20
456.941274
 30
0.0
  0
VERTEX
  5
251
330
232
100
AcDbEntity
  8
Ｓ_１_１
  6
CONTINUOUS
 62
     3
100
AcDbVertex
100
AcDb2dVertex
 10
302.6191769999999
 20
456.8468769999999
 30
0.0
  0
VERTEX
  5
252
330
232
100
AcDbEntity
  8
Ｓ_１_１
  6
CONTINUOUS
 62
     3
100
AcDbVertex
100
AcDb2dVertex
 10
302.5585139999999
 20
456.752132
 30
0.0
  0
VERTEX
  5
253
330
232
100
AcDbEntity
  8
Ｓ_１_１
  6
CONTINUOUS
 62
     3
100
AcDbVertex
100
AcDb2dVertex
 10
302.4982259999999
 20
456.657172
 30
0.0
  0
VERTEX
  5
254
330
232
100
AcDbEntity
  8
Ｓ_１_１
  6
CONTINUOUS
 62
     3
100
AcDbVertex
100
AcDb2dVertex
 10
302.465471
 20
456.6053479999999
 30
0.0
  0
VERTEX
  5
255
330
232
100
AcDbEntity
  8
Ｓ_１_１
  6
CONTINUOUS
 62
     3
100
AcDbVertex
100
AcDb2dVertex
 10
302.4327989999999
 20
456.5534940000001
 30
0.0
  0
VERTEX
  5
256
330
232
100
AcDbEntity
  8
Ｓ_１_１
  6
CONTINUOUS
 62
     3
100
AcDbVertex
100
AcDb2dVertex
 10
302.4002179999999
 20
456.5016059999999
 30
0.0
  0
VERTEX
  5
257
330
232
100
AcDbEntity
  8
Ｓ_１_１
  6
CONTINUOUS
 62
     3
100
AcDbVertex
100
AcDb2dVertex
 10
302.3677369999999
 20
456.44968
 30
0.0
  0
VERTEX
  5
258
330
232
100
AcDbEntity
  8
Ｓ_１_１
  6
CONTINUOUS
 62
     3
100
AcDbVertex
100
AcDb2dVertex
 10
302.3353659999999
 20
456.397712
 30
0.0
  0
VERTEX
  5
259
330
232
100
AcDbEntity
  8
Ｓ_１_１
  6
CONTINUOUS
 62
     3
100
AcDbVertex
100
AcDb2dVertex
 10
302.3031139999999
 20
456.345697
 30
0.0
  0
VERTEX
  5
25A
330
232
100
AcDbEntity
  8
Ｓ_１_１
  6
CONTINUOUS
 62
     3
100
AcDbVertex
100
AcDb2dVertex
 10
302.27099
 20
456.2936300000001
 30
0.0
  0
VERTEX
  5
25B
330
232
100
AcDbEntity
  8
Ｓ_１_１
  6
CONTINUOUS
 62
     3
100
AcDbVertex
100
AcDb2dVertex
 10
302.2390029999999
 20
456.241508
 30
0.0
  0
VERTEX
  5
25C
330
232
100
AcDbEntity
  8
Ｓ_１_１
  6
CONTINUOUS
 62
     3
100
AcDbVertex
100
AcDb2dVertex
 10
302.2071629999999
 20
456.189326
 30
0.0
  0
VERTEX
  5
25D
330
232
100
AcDbEntity
  8
Ｓ_１_１
  6
CONTINUOUS
 62
     3
100
AcDbVertex
100
AcDb2dVertex
 10
302.1754769999999
 20
456.137079
 30
0.0
  0
VERTEX
  5
25E
330
232
100
AcDbEntity
  8
Ｓ_１_１
  6
CONTINUOUS
 62
     3
100
AcDbVertex
100
AcDb2dVertex
 10
302.143956
 20
456.084764
 30
0.0
  0
VERTEX
  5
25F
330
232
100
AcDbEntity
  8
Ｓ_１_１
  6
CONTINUOUS
 62
     3
100
AcDbVertex
100
AcDb2dVertex
 10
302.1126089999999
 20
456.0323760000001
 30
0.0
  0
VERTEX
  5
260
330
232
100
AcDbEntity
  8
Ｓ_１_１
  6
CONTINUOUS
 62
     3
100
AcDbVertex
100
AcDb2dVertex
 10
302.0814439999999
 20
455.9799099999999
 30
0.0
  0
VERTEX
  5
261
330
232
100
AcDbEntity
  8
Ｓ_１_１
  6
CONTINUOUS
 62
     3
100
AcDbVertex
100
AcDb2dVertex
 10
302.0504709999999
 20
455.9273619999999
 30
0.0
  0
VERTEX
  5
262
330
232
100
AcDbEntity
  8
Ｓ_１_１
  6
CONTINUOUS
 62
     3
100
AcDbVertex
100
AcDb2dVertex
 10
302.0196989999999
 20
455.8747280000001
 30
0.0
  0
VERTEX
  5
263
330
232
100
AcDbEntity
  8
Ｓ_１_１
  6
CONTINUOUS
 62
     3
100
AcDbVertex
100
AcDb2dVertex
 10
301.9891379999999
 20
455.822004
 30
0.0
  0
SEQEND
  5
264
330
232
100
AcDbEntity
  8
Ｓ_１_１
  6
CONTINUOUS
 62
     3
  0
ARC
  5
265
330
1F
100
AcDbEntity
  8
Ｓ_１_１
  6
CONTINUOUS
 62
     3
100
AcDbCircle
 10
443.9999799999999
 20
346.999998
 30
0.0
 40
1.0
100
AcDbArc
 50
269.999997
 51
0.0
  0
ARC
  5
266
330
1F
100
AcDbEntity
  8
Ｓ_１_１
  6
CONTINUOUS
 62
     3
100
AcDbCircle
 10
443.9999799999999
 20
342.999997
 30
0.0
 40
1.0
100
AcDbArc
 50
0.0
 51
90.000003
  0
ARC
  5
267
330
1F
100
AcDbEntity
  8
Ｓ_１_１
  6
CONTINUOUS
 62
     3
100
AcDbCircle
 10
443.9999799999999
 20
383.9999960000001
 30
0.0
 40
1.0
100
AcDbArc
 50
0.0
 51
90.000003
  0
ARC
  5
268
330
1F
100
AcDbEntity
  8
Ｓ_１_１
  6
CONTINUOUS
 62
     3
100
AcDbCircle
 10
443.9999799999999
 20
336.000002
 30
0.0
 40
1.0
100
AcDbArc
 50
269.999997
 51
0.0
  0
ARC
  5
269
330
1F
100
AcDbEntity
  8
Ｓ_１_１
  6
CONTINUOUS
 62
     3
100
AcDbCircle
 10
443.9999799999999
 20
376.9999980000001
 30
0.0
 40
1.0
100
AcDbArc
 50
269.999997
 51
0.0
  0
ARC
  5
26A
330
1F
100
AcDbEntity
  8
Ｓ_１_１
  6
CONTINUOUS
 62
     3
100
AcDbCircle
 10
443.9999799999999
 20
372.9999980000001
 30
0.0
 40
1.0
100
AcDbArc
 50
0.0
 51
90.000003
  0
ARC
  5
26B
330
1F
100
AcDbEntity
  8
Ｓ_１_１
  6
CONTINUOUS
 62
     3
100
AcDbCircle
 10
196.0000249999999
 20
336.000002
 30
0.0
 40
1.0
100
AcDbArc
 50
179.999991
 51
270.0000010000001
  0
ARC
  5
26C
330
1F
100
AcDbEntity
  8
Ｓ_１_１
  6
CONTINUOUS
 62
     3
100
AcDbCircle
 10
196.0000249999999
 20
342.999997
 30
0.0
 40
1.0
100
AcDbArc
 50
90.000003
 51
180.000005
  0
ARC
  5
26D
330
1F
100
AcDbEntity
  8
Ｓ_１_１
  6
CONTINUOUS
 62
     3
100
AcDbCircle
 10
196.0000249999999
 20
376.9999980000001
 30
0.0
 40
1.0
100
AcDbArc
 50
179.999991
 51
270.0000010000001
  0
ARC
  5
26E
330
1F
100
AcDbEntity
  8
Ｓ_１_１
  6
CONTINUOUS
 62
     3
100
AcDbCircle
 10
196.0000249999999
 20
372.9999980000001
 30
0.0
 40
1.0
100
AcDbArc
 50
90.000003
 51
180.000005
  0
ARC
  5
26F
330
1F
100
AcDbEntity
  8
Ｓ_１_１
  6
CONTINUOUS
 62
     3
100
AcDbCircle
 10
196.0000249999999
 20
346.999998
 30
0.0
 40
1.0
100
AcDbArc
 50
179.999991
 51
270.0000010000001
  0
ARC
  5
270
330
1F
100
AcDbEntity
  8
Ｓ_１_１
  6
CONTINUOUS
 62
     3
100
AcDbCircle
 10
196.0000249999999
 20
383.9999960000001
 30
0.0
 40
1.0
100
AcDbArc
 50
90.000003
 51
180.000005
  0
CIRCLE
  5
271
330
1F
100
AcDbEntity
  8
Ｓ_１_１
  6
CONTINUOUS
 62
     3
100
AcDbCircle
 10
319.9999999999999
 20
360.0
 30
0.0
 40
79.999989
  0
CIRCLE
  5
272
330
1F
100
AcDbEntity
  8
Ｓ_１_１
  6
CONTINUOUS
 62
     3
100
AcDbCircle
 10
319.9999999999999
 20
360.0
 30
0.0
 40
59.999999
  0
CIRCLE
  5
273
330
1F
100
AcDbEntity
  8
Ｓ_１_１
  6
CONTINUOUS
 62
     3
100
AcDbCircle
 10
319.9999999999999
 20
360.0
 30
0.0
 40
39.99999500000001
  0
CIRCLE
  5
274
330
1F
100
AcDbEntity
  8
Ｓ_１_１
  6
CONTINUOUS
 62
     3
100
AcDbCircle
 10
319.9999999999999
 20
360.0
 30
0.0
 40
96.000002
  0
CIRCLE
  5
275
330
1F
100
AcDbEntity
  8
Ｓ_１_１
  6
CONTINUOUS
 62
     3
100
AcDbCircle
 10
319.9999999999999
 20
360.0
 30
0.0
 40
97.499999
  0
CIRCLE
  5
276
330
1F
100
AcDbEntity
  8
Ｓ_１_１
  6
CONTINUOUS
 62
     3
100
AcDbCircle
 10
319.9999999999999
 20
360.0
 30
0.0
 40
18.499998
  0
CIRCLE
  5
277
330
1F
100
AcDbEntity
  8
Ｓ_１_１
  6
CONTINUOUS
 62
     3
100
AcDbCircle
 10
331.9999879999999
 20
360.0
 30
0.0
 40
2.0
  0
CIRCLE
  5
278
330
1F
100
AcDbEntity
  8
Ｓ_１_１
  6
CONTINUOUS
 62
     3
100
AcDbCircle
 10
307.9999919999999
 20
360.0
 30
0.0
 40
2.0
  0
CIRCLE
  5
279
330
1F
100
AcDbEntity
  8
Ｓ_１_１
  6
CONTINUOUS
 62
     3
100
AcDbCircle
 10
319.9999999999999
 20
360.0
 30
0.0
 40
17.5
  0
LINE
  5
27A
330
1F
100
AcDbEntity
  8
Ｓ_１_１
  6
CONTINUOUS
 62
     3
100
AcDbLine
 10
443.9999799999999
 20
384.9999970000001
 30
0.0
 11
414.240378
 21
384.9999970000001
 31
0.0
  0
LINE
  5
27B
330
1F
100
AcDbEntity
  8
Ｓ_１_１
  6
CONTINUOUS
 62
     3
100
AcDbLine
 10
443.9999799999999
 20
334.999998
 30
0.0
 11
414.240378
 21
334.999998
 31
0.0
  0
LINE
  5
27C
330
1F
100
AcDbEntity
  8
Ｓ_１_１
  6
CONTINUOUS
 62
     3
100
AcDbLine
 10
444.999965
 20
383.9999960000001
 30
0.0
 11
444.999965
 21
376.9999980000001
 31
0.0
  0
LINE
  5
27D
330
1F
100
AcDbEntity
  8
Ｓ_１_１
  6
CONTINUOUS
 62
     3
100
AcDbLine
 10
443.9999799999999
 20
375.9999990000001
 30
0.0
 11
416.3392239999999
 21
375.9999990000001
 31
0.0
  0
LINE
  5
27E
330
1F
100
AcDbEntity
  8
Ｓ_１_１
  6
CONTINUOUS
 62
     3
100
AcDbLine
 10
443.9999799999999
 20
345.999997
 30
0.0
 11
416.3392239999999
 21
345.999997
 31
0.0
  0
LINE
  5
27F
330
1F
100
AcDbEntity
  8
Ｓ_１_１
  6
CONTINUOUS
 62
     3
100
AcDbLine
 10
443.9999799999999
 20
373.9999970000001
 30
0.0
 11
416.3392239999999
 21
373.9999970000001
 31
0.0
  0
LINE
  5
280
330
1F
100
AcDbEntity
  8
Ｓ_１_１
  6
CONTINUOUS
 62
     3
100
AcDbLine
 10
444.999965
 20
372.9999980000001
 30
0.0
 11
444.999965
 21
346.999998
 31
0.0
  0
LINE
  5
281
330
1F
100
AcDbEntity
  8
Ｓ_１_１
  6
CONTINUOUS
 62
     3
100
AcDbLine
 10
443.9999799999999
 20
343.999999
 30
0.0
 11
416.3392239999999
 21
343.999999
 31
0.0
  0
LINE
  5
282
330
1F
100
AcDbEntity
  8
Ｓ_１_１
  6
CONTINUOUS
 62
     3
100
AcDbLine
 10
444.999965
 20
342.999997
 30
0.0
 11
444.999965
 21
336.000002
 31
0.0
  0
LINE
  5
283
330
1F
100
AcDbEntity
  8
Ｓ_１_１
  6
CONTINUOUS
 62
     3
100
AcDbLine
 10
195.0000019999999
 20
372.9999980000001
 30
0.0
 11
195.0000019999999
 21
346.999998
 31
0.0
  0
LINE
  5
284
330
1F
100
AcDbEntity
  8
Ｓ_１_１
  6
CONTINUOUS
 62
     3
100
AcDbLine
 10
195.0000019999999
 20
342.999997
 30
0.0
 11
195.0000019999999
 21
336.000002
 31
0.0
  0
LINE
  5
285
330
1F
100
AcDbEntity
  8
Ｓ_１_１
  6
CONTINUOUS
 62
     3
100
AcDbLine
 10
196.0000249999999
 20
373.9999970000001
 30
0.0
 11
223.6607559999999
 21
373.9999970000001
 31
0.0
  0
LINE
  5
286
330
1F
100
AcDbEntity
  8
Ｓ_１_１
  6
CONTINUOUS
 62
     3
100
AcDbLine
 10
196.0000249999999
 20
375.9999990000001
 30
0.0
 11
223.6607559999999
 21
375.9999990000001
 31
0.0
  0
LINE
  5
287
330
1F
100
AcDbEntity
  8
Ｓ_１_１
  6
CONTINUOUS
 62
     3
100
AcDbLine
 10
196.0000249999999
 20
345.999997
 30
0.0
 11
223.6607559999999
 21
345.999997
 31
0.0
  0
LINE
  5
288
330
1F
100
AcDbEntity
  8
Ｓ_１_１
  6
CONTINUOUS
 62
     3
100
AcDbLine
 10
196.0000249999999
 20
343.999999
 30
0.0
 11
223.6607559999999
 21
343.999999
 31
0.0
  0
LINE
  5
289
330
1F
100
AcDbEntity
  8
Ｓ_１_１
  6
CONTINUOUS
 62
     3
100
AcDbLine
 10
196.0000249999999
 20
334.999998
 30
0.0
 11
225.759603
 21
334.999998
 31
0.0
  0
LINE
  5
28A
330
1F
100
AcDbEntity
  8
Ｓ_１_１
  6
CONTINUOUS
 62
     3
100
AcDbLine
 10
196.0000249999999
 20
384.9999970000001
 30
0.0
 11
225.759603
 21
384.9999970000001
 31
0.0
  0
LINE
  5
28B
330
1F
100
AcDbEntity
  8
Ｓ_１_１
  6
CONTINUOUS
 62
     3
100
AcDbLine
 10
195.0000019999999
 20
383.9999960000001
 30
0.0
 11
195.0000019999999
 21
376.9999980000001
 31
0.0
  0
LINE
  5
28C
330
1F
100
AcDbEntity
  8
Ｓ_１_１
  6
CONTINUOUS
 62
     3
100
AcDbLine
 10
306.0000219999999
 20
469.9999909999999
 30
0.0
 11
305.0000229999999
 21
468.999991
 31
0.0
  0
LINE
  5
28D
330
1F
100
AcDbEntity
  8
Ｓ_１_１
  6
CONTINUOUS
 62
     3
100
AcDbLine
 10
304.9999999999999
 20
469.000016
 30
0.0
 11
304.9999999999999
 21
458.999997
 31
0.0
  0
LINE
  5
28E
330
1F
100
AcDbEntity
  8
Ｓ_１_１
  6
CONTINUOUS
 62
     3
100
AcDbLine
 10
333.9999819999999
 20
469.9999929999999
 30
0.0
 11
334.9999889999999
 21
468.999986
 31
0.0
  0
LINE
  5
28F
330
1F
100
AcDbEntity
  8
Ｓ_１_１
  6
CONTINUOUS
 62
     3
100
AcDbLine
 10
335.0
 20
469.000016
 30
0.0
 11
335.0
 21
458.999997
 31
0.0
  0
LINE
  5
290
330
1F
100
AcDbEntity
  8
Ｓ_１_１
  6
CONTINUOUS
 62
     3
100
AcDbLine
 10
304.9999999999999
 20
469.000016
 30
0.0
 11
335.0
 21
469.000016
 31
0.0
  0
LINE
  5
291
330
1F
100
AcDbEntity
  8
Ｓ_１_１
  6
CONTINUOUS
 62
     3
100
AcDbLine
 10
306.0000039999999
 20
470.0000010000001
 30
0.0
 11
333.999996
 21
470.0000010000001
 31
0.0
  0
LINE
  5
292
330
1F
100
AcDbEntity
  8
Ｓ_１_１
  6
EXLTYPE2
 62
     1
100
AcDbLine
 10
900.0000009999999
 20
562.1
 30
0.0
 11
900.0000009999999
 21
439.9999909999999
 31
0.0
  0
LINE
  5
293
330
1F
100
AcDbEntity
  8
Ｓ_１_１
  6
CONTINUOUS
 62
     3
100
AcDbLine
 10
304.9999999999999
 20
458.999997
 30
0.0
 11
335.0
 21
458.999997
 31
0.0
  0
ARC
  5
294
330
1F
100
AcDbEntity
  8
Ｓ_１_１
  6
CONTINUOUS
 62
     3
100
AcDbCircle
 10
700.0000135
 20
541.5376994580538
 30
0.0
 40
88.59895406928452
100
AcDbArc
 50
257.6167738619496
 51
282.3832261380504
  0
ARC
  5
295
330
1F
100
AcDbEntity
  8
Ｓ_１_１
  6
CONTINUOUS
 62
     3
100
AcDbCircle
 10
900.000012499995
 20
541.5376810226493
 30
0.0
 40
88.5989356338801
100
AcDbArc
 50
257.6167725685783
 51
282.3832274314218
  0
LINE
  5
296
330
1F
100
AcDbEntity
  8
Ｓ_１_１
  6
CONTINUOUS
 62
     3
100
AcDbLine
 10
632.0000229999999
 20
454.9999909999999
 30
0.0
 11
681.0000220000005
 21
454.9999909999999
 31
0.0
  0
LINE
  5
297
330
1F
100
AcDbEntity
  8
Ｓ_１_１
  6
CONTINUOUS
 62
     3
100
AcDbLine
 10
719.0000049999995
 20
454.9999909999999
 30
0.0
 11
881.0000229999936
 21
454.9999909999999
 31
0.0
  0
LINE
  5
298
330
1F
100
AcDbEntity
  8
Ｓ_１_１
  6
CONTINUOUS
 62
     3
100
AcDbLine
 10
919.0000019999997
 20
454.9999909999999
 30
0.0
 11
997.9999919999999
 21
454.9999909999999
 31
0.0
  0
POLYLINE
  5
299
330
1F
100
AcDbEntity
  8
Ｓ_１_１
  6
CONTINUOUS
 62
     3
100
AcDb2dPolyline
 66
     1
 10
0.0
 20
0.0
 30
0.0
 70
   128
  0
VERTEX
  5
29A
330
299
100
AcDbEntity
  8
Ｓ_１_１
  6
CONTINUOUS
 62
     3
100
AcDbVertex
100
AcDb2dVertex
 10
335.0000000000001
 20
458.999997
 30
0.0
  0
VERTEX
  5
29B
330
299
100
AcDbEntity
  8
Ｓ_１_１
  6
CONTINUOUS
 62
     3
100
AcDbVertex
100
AcDb2dVertex
 10
335.096478
 20
458.95611
 30
0.0
  0
VERTEX
  5
29C
330
299
100
AcDbEntity
  8
Ｓ_１_１
  6
CONTINUOUS
 62
     3
100
AcDbVertex
100
AcDb2dVertex
 10
335.192398
 20
458.910441
 30
0.0
  0
VERTEX
  5
29D
330
299
100
AcDbEntity
  8
Ｓ_１_１
  6
CONTINUOUS
 62
     3
100
AcDbVertex
100
AcDb2dVertex
 10
335.2876610000001
 20
458.8629790000001
 30
0.0
  0
VERTEX
  5
29E
330
299
100
AcDbEntity
  8
Ｓ_１_１
  6
CONTINUOUS
 62
     3
100
AcDbVertex
100
AcDb2dVertex
 10
335.3821630000001
 20
458.81371
 30
0.0
  0
VERTEX
  5
29F
330
299
100
AcDbEntity
  8
Ｓ_１_１
  6
CONTINUOUS
 62
     3
100
AcDbVertex
100
AcDb2dVertex
 10
335.475803
 20
458.762622
 30
0.0
  0
VERTEX
  5
2A0
330
299
100
AcDbEntity
  8
Ｓ_１_１
  6
CONTINUOUS
 62
     3
100
AcDbVertex
100
AcDb2dVertex
 10
335.568481
 20
458.709702
 30
0.0
  0
VERTEX
  5
2A1
330
299
100
AcDbEntity
  8
Ｓ_１_１
  6
CONTINUOUS
 62
     3
100
AcDbVertex
100
AcDb2dVertex
 10
335.6600950000001
 20
458.654939
 30
0.0
  0
VERTEX
  5
2A2
330
299
100
AcDbEntity
  8
Ｓ_１_１
  6
CONTINUOUS
 62
     3
100
AcDbVertex
100
AcDb2dVertex
 10
335.750543
 20
458.598318
 30
0.0
  0
VERTEX
  5
2A3
330
299
100
AcDbEntity
  8
Ｓ_１_１
  6
CONTINUOUS
 62
     3
100
AcDbVertex
100
AcDb2dVertex
 10
335.839724
 20
458.539828
 30
0.0
  0
VERTEX
  5
2A4
330
299
100
AcDbEntity
  8
Ｓ_１_１
  6
CONTINUOUS
 62
     3
100
AcDbVertex
100
AcDb2dVertex
 10
335.927537
 20
458.479457
 30
0.0
  0
VERTEX
  5
2A5
330
299
100
AcDbEntity
  8
Ｓ_１_１
  6
CONTINUOUS
 62
     3
100
AcDbVertex
100
AcDb2dVertex
 10
336.0138800000001
 20
458.4171910000001
 30
0.0
  0
VERTEX
  5
2A6
330
299
100
AcDbEntity
  8
Ｓ_１_１
  6
CONTINUOUS
 62
     3
100
AcDbVertex
100
AcDb2dVertex
 10
336.098652
 20
458.353017
 30
0.0
  0
VERTEX
  5
2A7
330
299
100
AcDbEntity
  8
Ｓ_１_１
  6
CONTINUOUS
 62
     3
100
AcDbVertex
100
AcDb2dVertex
 10
336.1817520000001
 20
458.2869250000001
 30
0.0
  0
VERTEX
  5
2A8
330
299
100
AcDbEntity
  8
Ｓ_１_１
  6
CONTINUOUS
 62
     3
100
AcDbVertex
100
AcDb2dVertex
 10
336.2630780000001
 20
458.218899
 30
0.0
  0
VERTEX
  5
2A9
330
299
100
AcDbEntity
  8
Ｓ_１_１
  6
CONTINUOUS
 62
     3
100
AcDbVertex
100
AcDb2dVertex
 10
336.342528
 20
458.14893
 30
0.0
  0
VERTEX
  5
2AA
330
299
100
AcDbEntity
  8
Ｓ_１_１
  6
CONTINUOUS
 62
     3
100
AcDbVertex
100
AcDb2dVertex
 10
336.4200020000001
 20
458.077002
 30
0.0
  0
VERTEX
  5
2AB
330
299
100
AcDbEntity
  8
Ｓ_１_１
  6
CONTINUOUS
 62
     3
100
AcDbVertex
100
AcDb2dVertex
 10
336.499445
 20
457.999087
 30
0.0
  0
VERTEX
  5
2AC
330
299
100
AcDbEntity
  8
Ｓ_１_１
  6
CONTINUOUS
 62
     3
100
AcDbVertex
100
AcDb2dVertex
 10
336.5767090000001
 20
457.919114
 30
0.0
  0
VERTEX
  5
2AD
330
299
100
AcDbEntity
  8
Ｓ_１_１
  6
CONTINUOUS
 62
     3
100
AcDbVertex
100
AcDb2dVertex
 10
336.651923
 20
457.8372160000001
 30
0.0
  0
VERTEX
  5
2AE
330
299
100
AcDbEntity
  8
Ｓ_１_１
  6
CONTINUOUS
 62
     3
100
AcDbVertex
100
AcDb2dVertex
 10
336.725216
 20
457.753525
 30
0.0
  0
VERTEX
  5
2AF
330
299
100
AcDbEntity
  8
Ｓ_１_１
  6
CONTINUOUS
 62
     3
100
AcDbVertex
100
AcDb2dVertex
 10
336.7967160000001
 20
457.668171
 30
0.0
  0
VERTEX
  5
2B0
330
299
100
AcDbEntity
  8
Ｓ_１_１
  6
CONTINUOUS
 62
     3
100
AcDbVertex
100
AcDb2dVertex
 10
336.8665530000001
 20
457.581286
 30
0.0
  0
VERTEX
  5
2B1
330
299
100
AcDbEntity
  8
Ｓ_１_１
  6
CONTINUOUS
 62
     3
100
AcDbVertex
100
AcDb2dVertex
 10
336.9348550000001
 20
457.4930019999999
 30
0.0
  0
VERTEX
  5
2B2
330
299
100
AcDbEntity
  8
Ｓ_１_１
  6
CONTINUOUS
 62
     3
100
AcDbVertex
100
AcDb2dVertex
 10
337.0017510000001
 20
457.4034499999999
 30
0.0
  0
VERTEX
  5
2B3
330
299
100
AcDbEntity
  8
Ｓ_１_１
  6
CONTINUOUS
 62
     3
100
AcDbVertex
100
AcDb2dVertex
 10
337.0673700000001
 20
457.312762
 30
0.0
  0
VERTEX
  5
2B4
330
299
100
AcDbEntity
  8
Ｓ_１_１
  6
CONTINUOUS
 62
     3
100
AcDbVertex
100
AcDb2dVertex
 10
337.131841
 20
457.2210689999999
 30
0.0
  0
VERTEX
  5
2B5
330
299
100
AcDbEntity
  8
Ｓ_１_１
  6
CONTINUOUS
 62
     3
100
AcDbVertex
100
AcDb2dVertex
 10
337.195292
 20
457.128502
 30
0.0
  0
VERTEX
  5
2B6
330
299
100
AcDbEntity
  8
Ｓ_１_１
  6
CONTINUOUS
 62
     3
100
AcDbVertex
100
AcDb2dVertex
 10
337.2578540000001
 20
457.0351939999999
 30
0.0
  0
VERTEX
  5
2B7
330
299
100
AcDbEntity
  8
Ｓ_１_１
  6
CONTINUOUS
 62
     3
100
AcDbVertex
100
AcDb2dVertex
 10
337.319654
 20
456.941275
 30
0.0
  0
VERTEX
  5
2B8
330
299
100
AcDbEntity
  8
Ｓ_１_１
  6
CONTINUOUS
 62
     3
100
AcDbVertex
100
AcDb2dVertex
 10
337.3808210000001
 20
456.8468779999999
 30
0.0
  0
VERTEX
  5
2B9
330
299
100
AcDbEntity
  8
Ｓ_１_１
  6
CONTINUOUS
 62
     3
100
AcDbVertex
100
AcDb2dVertex
 10
337.4414850000001
 20
456.752133
 30
0.0
  0
VERTEX
  5
2BA
330
299
100
AcDbEntity
  8
Ｓ_１_１
  6
CONTINUOUS
 62
     3
100
AcDbVertex
100
AcDb2dVertex
 10
337.5017730000001
 20
456.657172
 30
0.0
  0
VERTEX
  5
2BB
330
299
100
AcDbEntity
  8
Ｓ_１_１
  6
CONTINUOUS
 62
     3
100
AcDbVertex
100
AcDb2dVertex
 10
337.534528
 20
456.6053479999999
 30
0.0
  0
VERTEX
  5
2BC
330
299
100
AcDbEntity
  8
Ｓ_１_１
  6
CONTINUOUS
 62
     3
100
AcDbVertex
100
AcDb2dVertex
 10
337.5672010000001
 20
456.5534940000001
 30
0.0
  0
VERTEX
  5
2BD
330
299
100
AcDbEntity
  8
Ｓ_１_１
  6
CONTINUOUS
 62
     3
100
AcDbVertex
100
AcDb2dVertex
 10
337.5997820000001
 20
456.5016059999999
 30
0.0
  0
VERTEX
  5
2BE
330
299
100
AcDbEntity
  8
Ｓ_１_１
  6
CONTINUOUS
 62
     3
100
AcDbVertex
100
AcDb2dVertex
 10
337.6322620000001
 20
456.44968
 30
0.0
  0
VERTEX
  5
2BF
330
299
100
AcDbEntity
  8
Ｓ_１_１
  6
CONTINUOUS
 62
     3
100
AcDbVertex
100
AcDb2dVertex
 10
337.6646330000001
 20
456.397712
 30
0.0
  0
VERTEX
  5
2C0
330
299
100
AcDbEntity
  8
Ｓ_１_１
  6
CONTINUOUS
 62
     3
100
AcDbVertex
100
AcDb2dVertex
 10
337.6968850000001
 20
456.345697
 30
0.0
  0
VERTEX
  5
2C1
330
299
100
AcDbEntity
  8
Ｓ_１_１
  6
CONTINUOUS
 62
     3
100
AcDbVertex
100
AcDb2dVertex
 10
337.729009
 20
456.2936300000001
 30
0.0
  0
VERTEX
  5
2C2
330
299
100
AcDbEntity
  8
Ｓ_１_１
  6
CONTINUOUS
 62
     3
100
AcDbVertex
100
AcDb2dVertex
 10
337.7609960000001
 20
456.241508
 30
0.0
  0
VERTEX
  5
2C3
330
299
100
AcDbEntity
  8
Ｓ_１_１
  6
CONTINUOUS
 62
     3
100
AcDbVertex
100
AcDb2dVertex
 10
337.7928370000001
 20
456.189326
 30
0.0
  0
VERTEX
  5
2C4
330
299
100
AcDbEntity
  8
Ｓ_１_１
  6
CONTINUOUS
 62
     3
100
AcDbVertex
100
AcDb2dVertex
 10
337.824522
 20
456.137079
 30
0.0
  0
VERTEX
  5
2C5
330
299
100
AcDbEntity
  8
Ｓ_１_１
  6
CONTINUOUS
 62
     3
100
AcDbVertex
100
AcDb2dVertex
 10
337.8560430000001
 20
456.084764
 30
0.0
  0
VERTEX
  5
2C6
330
299
100
AcDbEntity
  8
Ｓ_１_１
  6
CONTINUOUS
 62
     3
100
AcDbVertex
100
AcDb2dVertex
 10
337.8873910000001
 20
456.0323760000001
 30
0.0
  0
VERTEX
  5
2C7
330
299
100
AcDbEntity
  8
Ｓ_１_１
  6
CONTINUOUS
 62
     3
100
AcDbVertex
100
AcDb2dVertex
 10
337.9185560000001
 20
455.9799099999999
 30
0.0
  0
VERTEX
  5
2C8
330
299
100
AcDbEntity
  8
Ｓ_１_１
  6
CONTINUOUS
 62
     3
100
AcDbVertex
100
AcDb2dVertex
 10
337.9495280000001
 20
455.9273619999999
 30
0.0
  0
VERTEX
  5
2C9
330
299
100
AcDbEntity
  8
Ｓ_１_１
  6
CONTINUOUS
 62
     3
100
AcDbVertex
100
AcDb2dVertex
 10
337.9803000000001
 20
455.8747280000001
 30
0.0
  0
VERTEX
  5
2CA
330
299
100
AcDbEntity
  8
Ｓ_１_１
  6
CONTINUOUS
 62
     3
100
AcDbVertex
100
AcDb2dVertex
 10
338.0108545169887
 20
455.8220169093088
 30
0.0
  0
SEQEND
  5
2CB
330
299
100
AcDbEntity
  8
Ｓ_１_１
  6
CONTINUOUS
 62
     3
  0
LINE
  5
2CC
330
1F
100
AcDbEntity
  8
Ｓ_１_１
  6
EXLTYPE0
 62
     2
100
AcDbLine
 10
711.000008
 20
384.9999970000001
 30
0.0
 11
711.000008
 21
375.9999990000001
 31
0.0
  0
LINE
  5
2CD
330
1F
100
AcDbEntity
  8
Ｓ_１_１
  6
EXLTYPE0
 62
     2
100
AcDbLine
 10
699.00002
 20
343.999999
 30
0.0
 11
699.00002
 21
334.999998
 31
0.0
  0
LINE
  5
2CE
330
1F
100
AcDbEntity
  8
Ｓ_１_１
  6
EXLTYPE0
 62
     2
100
AcDbLine
 10
711.000008
 20
343.999999
 30
0.0
 11
711.000008
 21
334.999998
 31
0.0
  0
LINE
  5
2CF
330
1F
100
AcDbEntity
  8
Ｓ_１_１
  6
EXLTYPE0
 62
     2
100
AcDbLine
 10
699.00002
 20
373.9999970000001
 30
0.0
 11
699.00002
 21
345.999997
 31
0.0
  0
LINE
  5
2D0
330
1F
100
AcDbEntity
  8
Ｓ_１_１
  6
EXLTYPE0
 62
     2
100
AcDbLine
 10
711.000008
 20
373.9999970000001
 30
0.0
 11
711.000008
 21
345.999997
 31
0.0
  0
LINE
  5
2D1
330
1F
100
AcDbEntity
  8
Ｓ_１_１
  6
EXLTYPE2
 62
     1
100
AcDbLine
 10
319.9999999999999
 20
570.9
 30
0.0
 11
319.9999999999999
 21
252.8
 31
0.0
  0
LINE
  5
2D2
330
1F
100
AcDbEntity
  8
Ｓ_１_１
  6
EXLTYPE2
 62
     1
100
AcDbLine
 10
700.0000239999999
 20
570.9
 30
0.0
 11
700.0000239999999
 21
439.9999909999999
 31
0.0
  0
DIMENSION
  5
2D3
330
1F
100
AcDbEntity
  8
Ｓ_１_１
  6
CONTINUOUS
 62
     2
100
AcDbDimension
  2
*D23
 10
900.000001
 20
600.0
 30
0.0
 11
950.0000005
 21
608.25
 31
0.0
 70
   160
  3
ISO-25
100
AcDbAlignedDimension
 13
1000.0
 23
452.999976
 33
0.0
 14
900.000001
 24
562.1
 34
0.0
100
AcDbRotatedDimension
1001
ACAD
1000
DSTYLE
1002
{
1070
   270
1070
     2
1070
     6
1000
EX_NORM
1070
     7
1000
EX_NORM
1070
    41
1040
9.0
1070
    42
1040
4.5
1070
    44
1040
3.0
1070
    73
1070
     0
1070
    74
1070
     0
1070
    75
1070
     0
1070
    76
1070
     0
1070
    77
1070
     1
1070
    78
1070
     8
1070
   140
1040
10.38871247113164
1070
   147
1040
0.0
1070
   173
1070
     1
1070
   176
1070
     2
1070
   177
1070
     2
1070
   178
1070
     2
1070
   271
1070
     2
1070
   277
1070
     2
1070
   279
1070
     2
1070
   280
1070
     0
1070
   287
1070
     5
1070
   340
1005
113
1002
}
  0
DIMENSION
  5
2E0
330
1F
100
AcDbEntity
  8
Ｓ_１_１
  6
CONTINUOUS
 62
     2
100
AcDbDimension
  2
*D24
 10
700.000024
 20
600.0
 30
0.0
 11
800.0000125
 21
608.25
 31
0.0
 70
   160
  3
ISO-25
100
AcDbAlignedDimension
 13
900.000001
 23
562.1
 33
0.0
 14
700.000024
 24
570.9
 34
0.0
100
AcDbRotatedDimension
1001
ACAD
1000
DSTYLE
1002
{
1070
   270
1070
     2
1070
     6
1000
EX_NORM
1070
     7
1000
EX_NORM
1070
    41
1040
9.0
1070
    42
1040
4.5
1070
    44
1040
3.0
1070
    73
1070
     0
1070
    74
1070
     0
1070
    75
1070
     0
1070
    76
1070
     0
1070
    77
1070
     1
1070
    78
1070
     8
1070
   140
1040
10.38871247113164
1070
   147
1040
0.0
1070
   173
1070
     1
1070
   176
1070
     2
1070
   177
1070
     2
1070
   178
1070
     2
1070
   271
1070
     2
1070
   277
1070
     2
1070
   279
1070
     2
1070
   280
1070
     0
1070
   287
1070
     5
1070
   340
1005
113
1002
}
  0
DIMENSION
  5
2ED
330
1F
100
AcDbEntity
  8
Ｓ_１_１
  6
CONTINUOUS
 62
     2
100
AcDbDimension
  2
*D25
 10
630.000025
 20
600.0
 30
0.0
 11
665.0000245
 21
608.25
 31
0.0
 70
   160
  3
ISO-25
100
AcDbAlignedDimension
 13
700.000024
 23
570.9
 33
0.0
 14
630.000025
 24
453.000001
 34
0.0
100
AcDbRotatedDimension
1001
ACAD
1000
DSTYLE
1002
{
1070
   270
1070
     2
1070
     6
1000
EX_NORM
1070
     7
1000
EX_NORM
1070
    41
1040
9.0
1070
    42
1040
4.5
1070
    44
1040
3.0
1070
    73
1070
     0
1070
    74
1070
     0
1070
    75
1070
     0
1070
    76
1070
     0
1070
    77
1070
     1
1070
    78
1070
     8
1070
   140
1040
10.38871247113164
1070
   147
1040
0.0
1070
   173
1070
     1
1070
   176
1070
     2
1070
   177
1070
     2
1070
   178
1070
     2
1070
   271
1070
     2
1070
   277
1070
     2
1070
   279
1070
     2
1070
   280
1070
     0
1070
   287
1070
     5
1070
   340
1005
113
1002
}
  0
LINE
  5
2FA
330
1F
100
AcDbEntity
  8
Ｓ_１_１
  6
CONTINUOUS
 62
     3
100
AcDbLine
 10
308.5000000000005
 20
476.3622800000092
 30
0.0
 11
320.0000000000005
 21
476.3622800000092
 31
0.0
  0
LINE
  5
2FB
330
1F
100
AcDbEntity
  8
Ｓ_１_１
  6
CONTINUOUS
 62
     3
100
AcDbLine
 10
320.0000000000005
 20
476.3622800000092
 30
0.0
 11
331.5000000000005
 21
476.3622800000092
 31
0.0
  0
LINE
  5
2FC
330
1F
100
AcDbEntity
  8
Ｓ_１_１
  6
CONTINUOUS
 62
     3
100
AcDbLine
 10
308.5000000000005
 20
509.3622800000092
 30
0.0
 11
320.0000000000005
 21
509.3622800000092
 31
0.0
  0
LINE
  5
2FD
330
1F
100
AcDbEntity
  8
Ｓ_１_１
  6
CONTINUOUS
 62
     3
100
AcDbLine
 10
320.0000000000005
 20
509.3622800000092
 30
0.0
 11
331.5000000000005
 21
509.3622800000092
 31
0.0
  0
LINE
  5
2FE
330
1F
100
AcDbEntity
  8
Ｓ_１_１
  6
CONTINUOUS
 62
     3
100
AcDbLine
 10
331.5000013689005
 20
509.3622815587089
 30
0.0
 11
332.5000014189005
 21
508.3622814243088
 31
0.0
  0
LINE
  5
2FF
330
1F
100
AcDbEntity
  8
Ｓ_１_１
  6
CONTINUOUS
 62
     3
100
AcDbLine
 10
332.5000007867002
 20
477.3622789029088
 30
0.0
 11
331.5000009896003
 21
476.362279190009
 31
0.0
  0
LINE
  5
300
330
1F
100
AcDbEntity
  8
Ｓ_１_１
  6
CONTINUOUS
 62
     3
100
AcDbLine
 10
307.5000000481005
 20
477.3622800758091
 30
0.0
 11
308.5000001752006
 21
476.3622800330088
 31
0.0
  0
LINE
  5
301
330
1F
100
AcDbEntity
  8
Ｓ_１_１
  6
CONTINUOUS
 62
     3
100
AcDbLine
 10
308.4999997116007
 20
509.3622804628092
 30
0.0
 11
307.4999999987004
 21
508.3622806657088
 31
0.0
  0
LINE
  5
302
330
1F
100
AcDbEntity
  8
Ｓ_１_１
  6
CONTINUOUS
 62
     3
100
AcDbLine
 10
307.5000000000005
 20
508.3622800000092
 30
0.0
 11
332.5000000000005
 21
508.3622800000092
 31
0.0
  0
LINE
  5
303
330
1F
100
AcDbEntity
  8
Ｓ_１_１
  6
CONTINUOUS
 62
     3
100
AcDbLine
 10
307.5000000000005
 20
477.3622800000092
 30
0.0
 11
332.5000000000005
 21
477.3622800000091
 31
0.0
  0
LINE
  5
304
330
1F
100
AcDbEntity
  8
Ｓ_１_１
  6
CONTINUOUS
 62
     3
100
AcDbLine
 10
328.2648620000005
 20
510.72455200002
 30
0.0
 11
311.7351450000006
 21
510.72455200002
 31
0.0
  0
LINE
  5
305
330
1F
100
AcDbEntity
  8
Ｓ_１_１
  6
CONTINUOUS
 62
     3
100
AcDbLine
 10
312.8201190000005
 20
516.86225300002
 30
0.0
 11
312.4365110000004
 21
510.7245400000201
 31
0.0
  0
LINE
  5
306
330
1F
100
AcDbEntity
  8
Ｓ_１_１
  6
CONTINUOUS
 62
     3
100
AcDbLine
 10
312.1187490000003
 20
516.86227100002
 30
0.0
 11
311.6499980000004
 21
509.36225700002
 31
0.0
  0
LINE
  5
307
330
1F
100
AcDbEntity
  8
Ｓ_１_１
  6
CONTINUOUS
 62
     3
100
AcDbLine
 10
312.4365260000005
 20
510.7245600000201
 30
0.0
 11
311.6500110000005
 21
509.36227700002
 31
0.0
  0
LINE
  5
308
330
1F
100
AcDbEntity
  8
Ｓ_１_１
  6
CONTINUOUS
 62
     3
100
AcDbLine
 10
327.8812500000004
 20
516.86228300002
 30
0.0
 11
328.3500030000005
 21
509.36223800002
 31
0.0
  0
LINE
  5
309
330
1F
100
AcDbEntity
  8
Ｓ_１_１
  6
CONTINUOUS
 62
     3
100
AcDbLine
 10
328.3499890000003
 20
509.3622610000201
 30
0.0
 11
327.5634830000004
 21
510.72453100002
 31
0.0
  0
LINE
  5
30A
330
1F
100
AcDbEntity
  8
Ｓ_１_１
  6
CONTINUOUS
 62
     3
100
AcDbLine
 10
327.1798880000006
 20
516.86226500002
 30
0.0
 11
327.5634970000006
 21
510.72452200002
 31
0.0
  0
LINE
  5
30B
330
1F
100
AcDbEntity
  8
Ｓ_１_１
  6
CONTINUOUS
 62
     3
100
AcDbLine
 10
328.2648620000005
 20
475.000008
 30
0.0
 11
311.7351450000006
 21
475.000008
 31
0.0
  0
LINE
  5
30C
330
1F
100
AcDbEntity
  8
Ｓ_１_１
  6
CONTINUOUS
 62
     3
100
AcDbLine
 10
328.3500120000004
 20
476.362299
 30
0.0
 11
327.5634980000005
 21
475.000016
 31
0.0
  0
LINE
  5
30D
330
1F
100
AcDbEntity
  8
Ｓ_１_１
  6
CONTINUOUS
 62
     3
100
AcDbLine
 10
312.4365030000004
 20
474.9999999999999
 30
0.0
 11
311.6499960000006
 21
476.36227
 31
0.0
  0
ARC
  5
30E
330
1F
100
AcDbEntity
  8
Ｓ_１_１
  6
CONTINUOUS
 62
     3
100
AcDbCircle
 10
330.3922884999902
 20
517.7284460000185
 30
0.0
 40
6.133925000000001
100
AcDbArc
 50
55.61543800000034
 51
124.3845830000003
  0
ARC
  5
30F
330
1F
100
AcDbEntity
  8
Ｓ_１_１
  6
CONTINUOUS
 62
     3
100
AcDbCircle
 10
319.9999844999903
 20
500.9341340000184
 30
0.0
 40
22.927938
100
AcDbArc
 50
72.411858
 51
107.5881660000001
  0
ARC
  5
310
330
1F
100
AcDbEntity
  8
Ｓ_１_１
  6
CONTINUOUS
 62
     3
100
AcDbCircle
 10
309.6076504999906
 20
522.9961460000184
 30
0.0
 40
6.133925000000001
100
AcDbArc
 50
235.6154019999991
 51
304.3845609999998
  0
ARC
  5
311
330
1F
100
AcDbEntity
  8
Ｓ_１_１
  6
CONTINUOUS
 62
     3
100
AcDbCircle
 10
315.4999844999907
 20
560.8621130000186
 30
0.0
 40
1.0
100
AcDbArc
 50
89.99997799999524
 51
179.9999749999976
  0
ARC
  5
312
330
1F
100
AcDbEntity
  8
Ｓ_１_１
  6
CONTINUOUS
 62
     3
100
AcDbCircle
 10
309.6076504999906
 20
517.7284460000185
 30
0.0
 40
6.133925000000001
100
AcDbArc
 50
55.6153689999997
 51
124.384513999999
  0
ARC
  5
313
330
1F
100
AcDbEntity
  8
Ｓ_１_１
  6
CONTINUOUS
 62
     3
100
AcDbCircle
 10
319.9999844999903
 20
539.7902130000186
 30
0.0
 40
22.927942
100
AcDbArc
 50
252.4118210000002
 51
287.5881150000001
  0
ARC
  5
314
330
1F
100
AcDbEntity
  8
Ｓ_１_１
  6
CONTINUOUS
 62
     3
100
AcDbCircle
 10
330.3922884999902
 20
522.9961460000184
 30
0.0
 40
6.133925000000001
100
AcDbArc
 50
235.6154159999998
 51
304.3845739999999
  0
ARC
  5
315
330
1F
100
AcDbEntity
  8
Ｓ_１_１
  6
CONTINUOUS
 62
     3
100
AcDbCircle
 10
324.4999544999901
 20
560.8621130000186
 30
0.0
 40
1.0
100
AcDbArc
 50
359.9999970000023
 51
89.9999780000017
  0
LINE
  5
316
330
1F
100
AcDbEntity
  8
Ｓ_１_１
  6
CONTINUOUS
 62
     3
100
AcDbLine
 10
318.5000154999903
 20
563.8622350000185
 30
0.0
 11
321.4999844999903
 21
563.8622350000185
 31
0.0
  0
LINE
  5
317
330
1F
100
AcDbEntity
  8
Ｓ_１_１
  6
CONTINUOUS
 62
     3
100
AcDbLine
 10
307.9999844999907
 20
516.8623570000184
 30
0.0
 11
331.9999544999901
 21
516.8623570000184
 31
0.0
  0
LINE
  5
318
330
1F
100
AcDbEntity
  8
Ｓ_１_１
  6
CONTINUOUS
 62
     3
100
AcDbLine
 10
314.4999544999906
 20
560.8621130000186
 30
0.0
 11
314.4999544999906
 21
551.8623570000184
 31
0.0
  0
LINE
  5
319
330
1F
100
AcDbEntity
  8
Ｓ_１_１
  6
CONTINUOUS
 62
     3
100
AcDbLine
 10
314.4999544999906
 20
551.8623570000184
 30
0.0
 11
325.4999844999903
 21
551.8623570000184
 31
0.0
  0
LINE
  5
31A
330
1F
100
AcDbEntity
  8
Ｓ_１_１
  6
CONTINUOUS
 62
     3
100
AcDbLine
 10
311.0000154999908
 20
548.3621130000186
 30
0.0
 11
311.0000154999908
 21
546.3622350000185
 31
0.0
  0
LINE
  5
31B
330
1F
100
AcDbEntity
  8
Ｓ_１_１
  6
CONTINUOUS
 62
     3
100
AcDbLine
 10
328.9999844999903
 20
548.3621130000186
 30
0.0
 11
328.9999844999903
 21
546.3622350000185
 31
0.0
  0
LINE
  5
31C
330
1F
100
AcDbEntity
  8
Ｓ_１_１
  6
CONTINUOUS
 62
     3
100
AcDbLine
 10
308.7499844999907
 20
532.8622350000185
 30
0.0
 11
331.2499844999903
 21
532.8622350000185
 31
0.0
  0
LINE
  5
31D
330
1F
100
AcDbEntity
  8
Ｓ_１_１
  6
CONTINUOUS
 62
     3
100
AcDbLine
 10
331.7499844999903
 20
532.3622350000185
 30
0.0
 11
331.7499844999903
 21
523.8622350000185
 31
0.0
  0
LINE
  5
31E
330
1F
100
AcDbEntity
  8
Ｓ_１_１
  6
CONTINUOUS
 62
     3
100
AcDbLine
 10
308.2499544999906
 20
532.3622350000185
 30
0.0
 11
308.2499544999906
 21
523.8622350000185
 31
0.0
  0
LINE
  5
31F
330
1F
100
AcDbEntity
  8
Ｓ_１_１
  6
CONTINUOUS
 62
     3
100
AcDbLine
 10
306.1436164999905
 20
517.9342090000184
 30
0.0
 11
307.9999884999907
 21
516.8624320000188
 31
0.0
  0
LINE
  5
320
330
1F
100
AcDbEntity
  8
Ｓ_１_１
  6
CONTINUOUS
 62
     3
100
AcDbLine
 10
331.9999114999901
 20
523.8624260000186
 30
0.0
 11
333.8563894999903
 21
522.7905870000184
 31
0.0
  0
LINE
  5
321
330
1F
100
AcDbEntity
  8
Ｓ_１_１
  6
CONTINUOUS
 62
     3
100
AcDbLine
 10
331.9999534999902
 20
516.8623900000186
 30
0.0
 11
333.8563264999903
 21
517.9341670000188
 31
0.0
  0
LINE
  5
322
330
1F
100
AcDbEntity
  8
Ｓ_１_１
  6
CONTINUOUS
 62
     3
100
AcDbLine
 10
306.1436234999906
 20
522.7907270000185
 30
0.0
 11
307.9999964999907
 21
523.8625040000186
 31
0.0
  0
LINE
  5
323
330
1F
100
AcDbEntity
  8
Ｓ_１_１
  6
CONTINUOUS
 62
     3
100
AcDbLine
 10
333.85639949999
 20
522.7904570000185
 30
0.0
 11
333.85639949999
 21
517.9341340000185
 31
0.0
  0
LINE
  5
324
330
1F
100
AcDbEntity
  8
Ｓ_１_１
  6
CONTINUOUS
 62
     3
100
AcDbLine
 10
326.9282074999902
 20
522.7904570000185
 30
0.0
 11
326.9282074999902
 21
517.9341340000185
 31
0.0
  0
LINE
  5
325
330
1F
100
AcDbEntity
  8
Ｓ_１_１
  6
CONTINUOUS
 62
     3
100
AcDbLine
 10
313.0718534999906
 20
522.7904570000185
 30
0.0
 11
313.0718534999906
 21
517.9341340000185
 31
0.0
  0
LINE
  5
326
330
1F
100
AcDbEntity
  8
Ｓ_１_１
  6
CONTINUOUS
 62
     3
100
AcDbLine
 10
306.1435854999905
 20
522.7904570000185
 30
0.0
 11
306.1435854999905
 21
517.9341340000185
 31
0.0
  0
LINE
  5
327
330
1F
100
AcDbEntity
  8
Ｓ_１_１
  6
CONTINUOUS
 62
     3
100
AcDbLine
 10
307.9999844999907
 20
523.8622350000185
 30
0.0
 11
331.9999544999901
 21
523.8622350000185
 31
0.0
  0
LINE
  5
328
330
1F
100
AcDbEntity
  8
Ｓ_１_１
  6
CONTINUOUS
 62
     3
100
AcDbLine
 10
315.4999844999907
 20
561.8623570000188
 30
0.0
 11
324.4999544999901
 21
561.8623570000188
 31
0.0
  0
LINE
  5
329
330
1F
100
AcDbEntity
  8
Ｓ_１_１
  6
CONTINUOUS
 62
     3
100
AcDbLine
 10
321.4998434999903
 20
563.8624220000186
 30
0.0
 11
323.49988849999
 21
561.8623770000188
 31
0.0
  0
LINE
  5
32A
330
1F
100
AcDbEntity
  8
Ｓ_１_１
  6
CONTINUOUS
 62
     3
100
AcDbLine
 10
316.4998164999907
 20
561.8624200000183
 30
0.0
 11
318.49977549999
 21
563.8623790000186
 31
0.0
  0
LINE
  5
32B
330
1F
100
AcDbEntity
  8
Ｓ_１_１
  6
CONTINUOUS
 62
     3
100
AcDbLine
 10
312.4999844999907
 20
543.3621130000186
 30
0.0
 11
327.4999844999903
 21
543.3621130000186
 31
0.0
  0
LINE
  5
32C
330
1F
100
AcDbEntity
  8
Ｓ_１_１
  6
CONTINUOUS
 62
     3
100
AcDbLine
 10
312.4999844999907
 20
544.8622350000185
 30
0.0
 11
327.4999844999903
 21
544.8622350000185
 31
0.0
  0
LINE
  5
32D
330
1F
100
AcDbEntity
  8
Ｓ_１_１
  6
CONTINUOUS
 62
     3
100
AcDbLine
 10
311.0000154999908
 20
548.3621130000186
 30
0.0
 11
328.9999844999903
 21
548.3621130000186
 31
0.0
  0
LINE
  5
32E
330
1F
100
AcDbEntity
  8
Ｓ_１_１
  6
CONTINUOUS
 62
     3
100
AcDbLine
 10
328.9999844999903
 20
541.8623570000184
 30
0.0
 11
328.9999844999903
 21
532.8622350000185
 31
0.0
  0
LINE
  5
32F
330
1F
100
AcDbEntity
  8
Ｓ_１_１
  6
CONTINUOUS
 62
     3
100
AcDbLine
 10
311.0000154999908
 20
541.8623570000184
 30
0.0
 11
311.0000154999908
 21
532.8622350000185
 31
0.0
  0
LINE
  5
330
330
1F
100
AcDbEntity
  8
Ｓ_１_１
  6
CONTINUOUS
 62
     3
100
AcDbLine
 10
310.9998724999905
 20
546.3622560000188
 30
0.0
 11
312.4998844999905
 21
544.8622430000185
 31
0.0
  0
LINE
  5
331
330
1F
100
AcDbEntity
  8
Ｓ_１_１
  6
CONTINUOUS
 62
     3
100
AcDbLine
 10
327.4999504999901
 20
544.8622420000186
 30
0.0
 11
328.9998334999901
 21
546.3621250000185
 31
0.0
  0
LINE
  5
332
330
1F
100
AcDbEntity
  8
Ｓ_１_１
  6
CONTINUOUS
 62
     3
100
AcDbLine
 10
311.0000154999908
 20
546.3622350000185
 30
0.0
 11
328.9999844999903
 21
546.3622350000185
 31
0.0
  0
LINE
  5
333
330
1F
100
AcDbEntity
  8
Ｓ_１_１
  6
CONTINUOUS
 62
     3
100
AcDbLine
 10
310.9999864999905
 20
541.8623900000186
 30
0.0
 11
312.4998694999904
 21
543.3622730000186
 31
0.0
  0
LINE
  5
334
330
1F
100
AcDbEntity
  8
Ｓ_１_１
  6
CONTINUOUS
 62
     3
100
AcDbLine
 10
327.4998364999902
 20
543.3622310000185
 30
0.0
 11
328.99984949999
 21
541.8622190000185
 31
0.0
  0
LINE
  5
335
330
1F
100
AcDbEntity
  8
Ｓ_１_１
  6
CONTINUOUS
 62
     3
100
AcDbLine
 10
308.2499544999906
 20
532.3622350000185
 30
0.0
 11
331.7499844999903
 21
532.3622350000185
 31
0.0
  0
LINE
  5
336
330
1F
100
AcDbEntity
  8
Ｓ_１_１
  6
CONTINUOUS
 62
     3
100
AcDbLine
 10
311.0000154999908
 20
541.8623570000184
 30
0.0
 11
328.9999844999903
 21
541.8623570000184
 31
0.0
  0
LINE
  5
337
330
1F
100
AcDbEntity
  8
Ｓ_１_１
  6
CONTINUOUS
 62
     3
100
AcDbLine
 10
312.4999844999907
 20
544.8622350000185
 30
0.0
 11
312.4999844999907
 21
543.3621130000186
 31
0.0
  0
LINE
  5
338
330
1F
100
AcDbEntity
  8
Ｓ_１_１
  6
CONTINUOUS
 62
     3
100
AcDbLine
 10
327.4999844999903
 20
544.8622350000185
 30
0.0
 11
327.4999844999903
 21
543.3621130000186
 31
0.0
  0
LINE
  5
339
330
1F
100
AcDbEntity
  8
Ｓ_１_１
  6
CONTINUOUS
 62
     3
100
AcDbLine
 10
331.2498804999901
 20
532.8623240000186
 30
0.0
 11
331.7498274999903
 21
532.3623780000187
 31
0.0
  0
LINE
  5
33A
330
1F
100
AcDbEntity
  8
Ｓ_１_１
  6
CONTINUOUS
 62
     3
100
AcDbLine
 10
308.2499094999908
 20
532.3623260000184
 30
0.0
 11
308.7498074999908
 21
532.8622350000185
 31
0.0
  0
LINE
  5
33B
330
1F
100
AcDbEntity
  8
Ｓ_１_１
  6
CONTINUOUS
 62
     3
100
AcDbLine
 10
310.9999434999905
 20
548.3623440000185
 30
0.0
 11
314.4999574999907
 21
551.8623580000187
 31
0.0
  0
LINE
  5
33C
330
1F
100
AcDbEntity
  8
Ｓ_１_１
  6
CONTINUOUS
 62
     3
100
AcDbLine
 10
325.4998344999904
 20
551.8621440000186
 30
0.0
 11
328.9998054999901
 21
548.3621720000185
 31
0.0
  0
LINE
  5
33D
330
1F
100
AcDbEntity
  8
Ｓ_１_１
  6
CONTINUOUS
 62
     3
100
AcDbLine
 10
325.4999844999903
 20
560.8621130000186
 30
0.0
 11
325.4999844999903
 21
551.8623570000184
 31
0.0
  0
LINE
  5
33E
330
1F
100
AcDbEntity
  8
Ｓ_１_１
  6
CONTINUOUS
 62
     3
100
AcDbLine
 10
369.000000000001
 20
497.1122800000092
 30
0.0
 11
374.000000000001
 21
497.1122800000092
 31
0.0
  0
LINE
  5
33F
330
1F
100
AcDbEntity
  8
Ｓ_１_１
  6
CONTINUOUS
 62
     3
100
AcDbLine
 10
369.000000000001
 20
488.6122800000092
 30
0.0
 11
374.000000000001
 21
488.6122800000092
 31
0.0
  0
LINE
  5
340
330
1F
100
AcDbEntity
  8
Ｓ_１_１
  6
CONTINUOUS
 62
     3
100
AcDbLine
 10
369.000000000001
 20
487.8622800000092
 30
0.0
 11
373.250000000001
 21
487.8622800000092
 31
0.0
  0
LINE
  5
341
330
1F
100
AcDbEntity
  8
Ｓ_１_１
  6
CONTINUOUS
 62
     3
100
AcDbLine
 10
369.000000000001
 20
497.8622800000092
 30
0.0
 11
373.250000000001
 21
497.8622800000092
 31
0.0
  0
LINE
  5
342
330
1F
100
AcDbEntity
  8
Ｓ_１_１
  6
CONTINUOUS
 62
     3
100
AcDbLine
 10
374.000000000001
 20
488.6122800000092
 30
0.0
 11
374.000000000001
 21
497.1122800000092
 31
0.0
  0
LINE
  5
343
330
1F
100
AcDbEntity
  8
Ｓ_１_１
  6
CONTINUOUS
 62
     3
100
AcDbLine
 10
373.250000000001
 20
487.8622800000092
 30
0.0
 11
373.250000000001
 21
497.8622800000092
 31
0.0
  0
LINE
  5
344
330
1F
100
AcDbEntity
  8
Ｓ_１_１
  6
CONTINUOUS
 62
     3
100
AcDbLine
 10
373.2500025577011
 20
487.8622811250091
 30
0.0
 11
374.0000006565011
 21
488.612279287009
 31
0.0
  0
LINE
  5
345
330
1F
100
AcDbEntity
  8
Ｓ_１_１
  6
CONTINUOUS
 62
     3
100
AcDbLine
 10
374.0000016470008
 20
497.1122819253089
 30
0.0
 11
373.2500014619009
 21
497.862282047109
 31
0.0
  0
LINE
  5
346
330
1F
100
AcDbEntity
  8
Ｓ_１_１
  6
CONTINUOUS
 62
     3
100
AcDbLine
 10
362.000000000001
 20
492.8622800000092
 30
0.0
 11
362.000000000001
 21
502.8622800000091
 31
0.0
  0
LINE
  5
347
330
1F
100
AcDbEntity
  8
Ｓ_１_１
  6
CONTINUOUS
 62
     3
100
AcDbLine
 10
362.000000000001
 20
482.8622800000092
 30
0.0
 11
362.000000000001
 21
492.8622800000092
 31
0.0
  0
LINE
  5
348
330
1F
100
AcDbEntity
  8
Ｓ_１_１
  6
CONTINUOUS
 62
     3
100
AcDbLine
 10
362.0000005510011
 20
502.8622794490091
 30
0.0
 11
363.0000005800007
 21
501.8622793357087
 31
0.0
  0
LINE
  5
349
330
1F
100
AcDbEntity
  8
Ｓ_１_１
  6
CONTINUOUS
 62
     3
100
AcDbLine
 10
363.0000002849011
 20
483.8622802006092
 30
0.0
 11
362.0000004877011
 21
482.8622804877089
 31
0.0
  0
LINE
  5
34A
330
1F
100
AcDbEntity
  8
Ｓ_１_１
  6
CONTINUOUS
 62
     3
100
AcDbLine
 10
363.000000000001
 20
483.8622802006092
 30
0.0
 11
363.000000000001
 21
492.8622800000092
 31
0.0
  0
LINE
  5
34B
330
1F
100
AcDbEntity
  8
Ｓ_１_１
  6
CONTINUOUS
 62
     3
100
AcDbLine
 10
363.000000000001
 20
492.8622800000092
 30
0.0
 11
363.000000000001
 21
501.8622793357087
 31
0.0
  0
LINE
  5
34C
330
1F
100
AcDbEntity
  8
Ｓ_１_１
  6
CONTINUOUS
 62
     3
100
AcDbLine
 10
332.5000000000005
 20
502.8622800000091
 30
0.0
 11
362.000000000001
 21
502.8622800000091
 31
0.0
  0
LINE
  5
34D
330
1F
100
AcDbEntity
  8
Ｓ_１_１
  6
CONTINUOUS
 62
     3
100
AcDbLine
 10
368.9999981656011
 20
500.3546926632092
 30
0.0
 11
367.9999979724008
 21
502.3622792529088
 31
0.0
  0
LINE
  5
34E
330
1F
100
AcDbEntity
  8
Ｓ_１_１
  6
CONTINUOUS
 62
     3
100
AcDbLine
 10
368.9999995145009
 20
485.3698662440091
 30
0.0
 11
367.999999321301
 21
483.3622796543089
 31
0.0
  0
LINE
  5
34F
330
1F
100
AcDbEntity
  8
Ｓ_１_１
  6
CONTINUOUS
 62
     3
100
AcDbLine
 10
362.999999976601
 20
500.3546933062092
 30
0.0
 11
364.0000001698009
 21
502.3622798959088
 31
0.0
  0
LINE
  5
350
330
1F
100
AcDbEntity
  8
Ｓ_１_１
  6
CONTINUOUS
 62
     3
100
AcDbLine
 10
362.999998485901
 20
485.3698658857091
 30
0.0
 11
363.9999985375007
 21
483.3622795805089
 31
0.0
  0
LINE
  5
351
330
1F
100
AcDbEntity
  8
Ｓ_１_１
  6
CONTINUOUS
 62
     3
100
AcDbLine
 10
364.000000000001
 20
483.3622800000092
 30
0.0
 11
368.000000000001
 21
483.3622800000092
 31
0.0
  0
LINE
  5
352
330
1F
100
AcDbEntity
  8
Ｓ_１_１
  6
CONTINUOUS
 62
     3
100
AcDbLine
 10
364.000000000001
 20
502.3622800000092
 30
0.0
 11
368.000000000001
 21
502.3622800000092
 31
0.0
  0
LINE
  5
353
330
1F
100
AcDbEntity
  8
Ｓ_１_１
  6
CONTINUOUS
 62
     3
100
AcDbLine
 10
369.000000000001
 20
492.8622800000092
 30
0.0
 11
369.000000000001
 21
500.3546938387092
 31
0.0
  0
LINE
  5
354
330
1F
100
AcDbEntity
  8
Ｓ_１_１
  6
CONTINUOUS
 62
     3
100
AcDbLine
 10
369.000000000001
 20
485.3698661613092
 30
0.0
 11
369.000000000001
 21
492.8622800000092
 31
0.0
  0
ARC
  5
355
330
1F
100
AcDbEntity
  8
Ｓ_１_１
  6
CONTINUOUS
 62
     3
100
AcDbCircle
 10
378.5416666667011
 20
492.8622800000092
 30
0.0
 40
15.5416666667
100
AcDbArc
 50
159.3345163543002
 51
159.3345238904477
  0
ARC
  5
356
330
1F
100
AcDbEntity
  8
Ｓ_１_１
  6
CONTINUOUS
 62
     3
100
AcDbCircle
 10
353.4583333333008
 20
492.8622800000092
 30
0.0
 40
15.5416666667
100
AcDbArc
 50
20.66547610955293
 51
20.66547840939962
  0
ARC
  5
357
330
1F
100
AcDbEntity
  8
Ｓ_１_１
  6
CONTINUOUS
 62
     3
100
AcDbCircle
 10
378.5416666667011
 20
492.8622800000092
 30
0.0
 40
15.5416666667
100
AcDbArc
 50
162.8126324028145
 51
197.1873680951787
  0
ARC
  5
358
330
1F
100
AcDbEntity
  8
Ｓ_１_１
  6
CONTINUOUS
 62
     3
100
AcDbCircle
 10
378.5416666667011
 20
492.8622800000092
 30
0.0
 40
15.5416666667
100
AcDbArc
 50
200.6654786560356
 51
200.6654800033002
  0
ARC
  5
359
330
1F
100
AcDbEntity
  8
Ｓ_１_１
  6
CONTINUOUS
 62
     3
100
AcDbCircle
 10
353.4583333333008
 20
492.8622800000092
 30
0.0
 40
15.5416666667
100
AcDbArc
 50
342.8126319048212
 51
17.18736759718547
  0
LINE
  5
35A
330
1F
100
AcDbEntity
  8
Ｓ_１_１
  6
CONTINUOUS
 62
     3
100
AcDbLine
 10
368.305964117863
 20
497.4548024946891
 30
0.0
 11
363.694035882139
 21
497.4548024946891
 31
0.0
  0
LINE
  5
35B
330
1F
100
AcDbEntity
  8
Ｓ_１_１
  6
CONTINUOUS
 62
     3
100
AcDbLine
 10
368.3059640779466
 20
488.2697573762792
 30
0.0
 11
363.6940359220553
 21
488.2697573762792
 31
0.0
  0
ARC
  5
35C
330
1F
100
AcDbEntity
  8
Ｓ_１_１
  6
CONTINUOUS
 62
     3
100
AcDbCircle
 10
363.000000000001
 20
485.3698628460191
 30
0.0
 40
6.000000000001596
100
AcDbArc
 50
0.0000417559226242
 51
28.90218407791362
  0
ARC
  5
35D
330
1F
100
AcDbEntity
  8
Ｓ_１_１
  6
CONTINUOUS
 62
     3
100
AcDbCircle
 10
369.000000000001
 20
485.3698672186891
 30
0.0
 40
6.000000000001596
100
AcDbArc
 50
151.0978636188124
 51
180.0000417558857
  0
ARC
  5
35E
330
1F
100
AcDbEntity
  8
Ｓ_１_１
  6
CONTINUOUS
 62
     3
100
AcDbCircle
 10
369.000000000001
 20
500.3546933531891
 30
0.0
 40
6.000000000000005
100
AcDbArc
 50
179.9999920172612
 51
208.9021440266621
  0
ARC
  5
35F
330
1F
100
AcDbEntity
  8
Ｓ_１_１
  6
CONTINUOUS
 62
     3
100
AcDbCircle
 10
363.000000000001
 20
500.3546933531891
 30
0.0
 40
6.000000000001596
100
AcDbArc
 50
331.0978559733464
 51
0.0
  0
LINE
  5
360
330
1F
100
AcDbEntity
  8
Ｓ_１_１
  6
CONTINUOUS
 62
     3
100
AcDbLine
 10
332.5000000000005
 20
482.8622800000092
 30
0.0
 11
362.000000000001
 21
482.8622800000092
 31
0.0
  0
LINE
  5
361
330
1F
100
AcDbEntity
  8
Ｓ_１_１
  6
EXLTYPE2
 62
     1
100
AcDbLine
 10
306.1188507080006
 20
492.8622800000092
 30
0.0
 11
375.011447906501
 21
492.8622800000092
 31
0.0
  0
LINE
  5
362
330
1F
100
AcDbEntity
  8
Ｓ_１_１
  6
CONTINUOUS
 62
     3
100
AcDbLine
 10
312.0476508124992
 20
470.0000010000001
 30
0.0
 11
311.6500100000003
 21
476.362264
 31
0.0
  0
LINE
  5
363
330
1F
100
AcDbEntity
  8
Ｓ_１_１
  6
CONTINUOUS
 62
     3
100
AcDbLine
 10
312.7490140000005
 20
470.0000010000001
 30
0.0
 11
312.4365130000006
 21
475.000011
 31
0.0
  0
LINE
  5
364
330
1F
100
AcDbEntity
  8
Ｓ_１_１
  6
CONTINUOUS
 62
     3
100
AcDbLine
 10
327.2509897500013
 20
470.0000010000001
 30
0.0
 11
327.5634900000005
 21
474.9999989999999
 31
0.0
  0
LINE
  5
365
330
1F
100
AcDbEntity
  8
Ｓ_１_１
  6
CONTINUOUS
 62
     3
100
AcDbLine
 10
327.9523530000006
 20
470.0000010000001
 30
0.0
 11
328.3499930000003
 21
476.362252
 31
0.0
  0
LINE
  5
366
330
1F
100
AcDbEntity
  8
Ｓ_１_１
  6
CONTINUOUS
 62
     3
100
AcDbLine
 10
307.5000000000005
 20
477.3622800000092
 30
0.0
 11
307.5000000000005
 21
508.3622800000092
 31
0.0
  0
LINE
  5
367
330
1F
100
AcDbEntity
  8
Ｓ_１_１
  6
CONTINUOUS
 62
     3
100
AcDbLine
 10
332.5000000000005
 20
477.3622800000092
 30
0.0
 11
332.5000000000005
 21
508.3622800000092
 31
0.0
  0
LINE
  5
368
330
1F
100
AcDbEntity
  8
Ｓ_１_１
  6
CONTINUOUS
 62
     3
100
AcDbLine
 10
688.500024
 20
476.3622770000092
 30
0.0
 11
700.000024
 21
476.3622770000092
 31
0.0
  0
LINE
  5
369
330
1F
100
AcDbEntity
  8
Ｓ_１_１
  6
CONTINUOUS
 62
     3
100
AcDbLine
 10
700.000024
 20
476.3622770000092
 30
0.0
 11
711.500024
 21
476.3622770000092
 31
0.0
  0
LINE
  5
36A
330
1F
100
AcDbEntity
  8
Ｓ_１_１
  6
CONTINUOUS
 62
     3
100
AcDbLine
 10
712.500024
 20
477.3622770000091
 30
0.0
 11
712.500024
 21
492.8622770000092
 31
0.0
  0
LINE
  5
36B
330
1F
100
AcDbEntity
  8
Ｓ_１_１
  6
CONTINUOUS
 62
     3
100
AcDbLine
 10
712.500024
 20
508.3622770000092
 30
0.0
 11
712.500024
 21
492.8622770000092
 31
0.0
  0
LINE
  5
36C
330
1F
100
AcDbEntity
  8
Ｓ_１_１
  6
CONTINUOUS
 62
     3
100
AcDbLine
 10
688.500024
 20
509.3622770000092
 30
0.0
 11
700.000024
 21
509.3622770000092
 31
0.0
  0
LINE
  5
36D
330
1F
100
AcDbEntity
  8
Ｓ_１_１
  6
CONTINUOUS
 62
     3
100
AcDbLine
 10
700.000024
 20
509.3622770000092
 30
0.0
 11
711.500024
 21
509.3622770000092
 31
0.0
  0
LINE
  5
36E
330
1F
100
AcDbEntity
  8
Ｓ_１_１
  6
CONTINUOUS
 62
     3
100
AcDbLine
 10
711.5000253689001
 20
509.3622785587089
 30
0.0
 11
712.5000254189
 21
508.3622784243088
 31
0.0
  0
LINE
  5
36F
330
1F
100
AcDbEntity
  8
Ｓ_１_１
  6
CONTINUOUS
 62
     3
100
AcDbLine
 10
712.5000247866998
 20
477.3622759029088
 30
0.0
 11
711.5000249895999
 21
476.362276190009
 31
0.0
  0
LINE
  5
370
330
1F
100
AcDbEntity
  8
Ｓ_１_１
  6
CONTINUOUS
 62
     3
100
AcDbLine
 10
687.5000240481
 20
477.3622770758091
 30
0.0
 11
688.5000241752001
 21
476.3622770330088
 31
0.0
  0
LINE
  5
371
330
1F
100
AcDbEntity
  8
Ｓ_１_１
  6
CONTINUOUS
 62
     3
100
AcDbLine
 10
687.500024
 20
477.3622770000092
 30
0.0
 11
687.500024
 21
492.8622770000092
 31
0.0
  0
LINE
  5
372
330
1F
100
AcDbEntity
  8
Ｓ_１_１
  6
CONTINUOUS
 62
     3
100
AcDbLine
 10
688.5000237116002
 20
509.3622774628092
 30
0.0
 11
687.5000239986999
 21
508.3622776657088
 31
0.0
  0
LINE
  5
373
330
1F
100
AcDbEntity
  8
Ｓ_１_１
  6
CONTINUOUS
 62
     3
100
AcDbLine
 10
687.500024
 20
508.3622770000092
 30
0.0
 11
687.500024
 21
492.8622770000092
 31
0.0
  0
LINE
  5
374
330
1F
100
AcDbEntity
  8
Ｓ_１_１
  6
CONTINUOUS
 62
     3
100
AcDbLine
 10
687.500024
 20
508.3622770000092
 30
0.0
 11
712.500024
 21
508.3622770000092
 31
0.0
  0
LINE
  5
375
330
1F
100
AcDbEntity
  8
Ｓ_１_１
  6
CONTINUOUS
 62
     3
100
AcDbLine
 10
687.500024
 20
477.3622770000092
 30
0.0
 11
712.500024
 21
477.3622770000091
 31
0.0
  0
LINE
  5
376
330
1F
100
AcDbEntity
  8
Ｓ_１_１
  6
CONTINUOUS
 62
     3
100
AcDbLine
 10
708.264886
 20
510.72454900002
 30
0.0
 11
691.7351690000002
 21
510.72454900002
 31
0.0
  0
LINE
  5
377
330
1F
100
AcDbEntity
  8
Ｓ_１_１
  6
CONTINUOUS
 62
     3
100
AcDbLine
 10
692.820143
 20
516.86225000002
 30
0.0
 11
692.4365350000002
 21
510.7245370000201
 31
0.0
  0
LINE
  5
378
330
1F
100
AcDbEntity
  8
Ｓ_１_１
  6
CONTINUOUS
 62
     3
100
AcDbLine
 10
692.118773
 20
516.8622680000201
 30
0.0
 11
691.6500220000001
 21
509.36225400002
 31
0.0
  0
LINE
  5
379
330
1F
100
AcDbEntity
  8
Ｓ_１_１
  6
CONTINUOUS
 62
     3
100
AcDbLine
 10
692.4365500000002
 20
510.7245570000201
 30
0.0
 11
691.650035
 21
509.36227400002
 31
0.0
  0
LINE
  5
37A
330
1F
100
AcDbEntity
  8
Ｓ_１_１
  6
CONTINUOUS
 62
     3
100
AcDbLine
 10
707.881274
 20
516.8622800000201
 30
0.0
 11
708.3500270000001
 21
509.36223500002
 31
0.0
  0
LINE
  5
37B
330
1F
100
AcDbEntity
  8
Ｓ_１_１
  6
CONTINUOUS
 62
     3
100
AcDbLine
 10
708.3500130000001
 20
509.3622580000201
 30
0.0
 11
707.563507
 21
510.72452800002
 31
0.0
  0
LINE
  5
37C
330
1F
100
AcDbEntity
  8
Ｓ_１_１
  6
CONTINUOUS
 62
     3
100
AcDbLine
 10
707.1799120000002
 20
516.8622620000201
 30
0.0
 11
707.5635210000002
 21
510.72451900002
 31
0.0
  0
LINE
  5
37D
330
1F
100
AcDbEntity
  8
Ｓ_１_１
  6
CONTINUOUS
 62
     3
100
AcDbLine
 10
707.2510130000002
 20
469.999986
 30
0.0
 11
707.563514
 21
474.999996
 31
0.0
  0
LINE
  5
37E
330
1F
100
AcDbEntity
  8
Ｓ_１_１
  6
CONTINUOUS
 62
     3
100
AcDbLine
 10
707.9523770000002
 20
469.999998
 30
0.0
 11
708.3500170000001
 21
476.362249
 31
0.0
  0
LINE
  5
37F
330
1F
100
AcDbEntity
  8
Ｓ_１_１
  6
CONTINUOUS
 62
     3
100
AcDbLine
 10
708.264886
 20
475.000005
 30
0.0
 11
691.7351690000002
 21
475.000005
 31
0.0
  0
LINE
  5
380
330
1F
100
AcDbEntity
  8
Ｓ_１_１
  6
CONTINUOUS
 62
     3
100
AcDbLine
 10
708.3500360000002
 20
476.362296
 30
0.0
 11
707.563522
 21
475.000013
 31
0.0
  0
LINE
  5
381
330
1F
100
AcDbEntity
  8
Ｓ_１_１
  6
CONTINUOUS
 62
     3
100
AcDbLine
 10
692.749038
 20
469.999998
 30
0.0
 11
692.4365370000002
 21
475.000008
 31
0.0
  0
LINE
  5
382
330
1F
100
AcDbEntity
  8
Ｓ_１_１
  6
CONTINUOUS
 62
     3
100
AcDbLine
 10
692.0476740000003
 20
470.000011
 30
0.0
 11
691.6500340000001
 21
476.362261
 31
0.0
  0
LINE
  5
383
330
1F
100
AcDbEntity
  8
Ｓ_１_１
  6
CONTINUOUS
 62
     3
100
AcDbLine
 10
692.4365270000002
 20
474.999997
 30
0.0
 11
691.6500200000002
 21
476.362267
 31
0.0
  0
ARC
  5
384
330
1F
100
AcDbEntity
  8
Ｓ_１_１
  6
CONTINUOUS
 62
     3
100
AcDbCircle
 10
710.3923124999898
 20
517.7284430000185
 30
0.0
 40
6.133925000000001
100
AcDbArc
 50
55.61543800000034
 51
124.3845830000003
  0
ARC
  5
385
330
1F
100
AcDbEntity
  8
Ｓ_１_１
  6
CONTINUOUS
 62
     3
100
AcDbCircle
 10
700.0000084999898
 20
500.9341310000185
 30
0.0
 40
22.927938
100
AcDbArc
 50
72.411858
 51
107.5881660000001
  0
ARC
  5
386
330
1F
100
AcDbEntity
  8
Ｓ_１_１
  6
CONTINUOUS
 62
     3
100
AcDbCircle
 10
689.6076744999901
 20
522.9961430000184
 30
0.0
 40
6.133925000000001
100
AcDbArc
 50
235.6154019999991
 51
304.3845609999998
  0
ARC
  5
387
330
1F
100
AcDbEntity
  8
Ｓ_１_１
  6
CONTINUOUS
 62
     3
100
AcDbCircle
 10
695.5000084999903
 20
560.8621100000186
 30
0.0
 40
1.0
100
AcDbArc
 50
89.99997799999524
 51
179.9999749999976
  0
ARC
  5
388
330
1F
100
AcDbEntity
  8
Ｓ_１_１
  6
CONTINUOUS
 62
     3
100
AcDbCircle
 10
689.6076744999901
 20
517.7284430000185
 30
0.0
 40
6.133925000000001
100
AcDbArc
 50
55.6153689999997
 51
124.384513999999
  0
ARC
  5
389
330
1F
100
AcDbEntity
  8
Ｓ_１_１
  6
CONTINUOUS
 62
     3
100
AcDbCircle
 10
700.0000084999898
 20
539.7902100000186
 30
0.0
 40
22.927942
100
AcDbArc
 50
252.4118210000002
 51
287.5881150000001
  0
ARC
  5
38A
330
1F
100
AcDbEntity
  8
Ｓ_１_１
  6
CONTINUOUS
 62
     3
100
AcDbCircle
 10
710.3923124999898
 20
522.9961430000184
 30
0.0
 40
6.133925000000001
100
AcDbArc
 50
235.6154159999998
 51
304.3845739999999
  0
ARC
  5
38B
330
1F
100
AcDbEntity
  8
Ｓ_１_１
  6
CONTINUOUS
 62
     3
100
AcDbCircle
 10
704.4999784999897
 20
560.8621100000186
 30
0.0
 40
1.0
100
AcDbArc
 50
359.9999970000023
 51
89.9999780000017
  0
LINE
  5
38C
330
1F
100
AcDbEntity
  8
Ｓ_１_１
  6
CONTINUOUS
 62
     3
100
AcDbLine
 10
698.5000394999898
 20
563.8622320000185
 30
0.0
 11
701.5000084999898
 21
563.8622320000185
 31
0.0
  0
LINE
  5
38D
330
1F
100
AcDbEntity
  8
Ｓ_１_１
  6
CONTINUOUS
 62
     3
100
AcDbLine
 10
688.0000084999903
 20
516.8623540000184
 30
0.0
 11
711.9999784999897
 21
516.8623540000184
 31
0.0
  0
LINE
  5
38E
330
1F
100
AcDbEntity
  8
Ｓ_１_１
  6
CONTINUOUS
 62
     3
100
AcDbLine
 10
694.4999784999901
 20
560.8621100000186
 30
0.0
 11
694.4999784999901
 21
551.8623540000184
 31
0.0
  0
LINE
  5
38F
330
1F
100
AcDbEntity
  8
Ｓ_１_１
  6
CONTINUOUS
 62
     3
100
AcDbLine
 10
694.4999784999901
 20
551.8623540000184
 30
0.0
 11
705.5000084999898
 21
551.8623540000184
 31
0.0
  0
LINE
  5
390
330
1F
100
AcDbEntity
  8
Ｓ_１_１
  6
CONTINUOUS
 62
     3
100
AcDbLine
 10
691.0000394999903
 20
548.3621100000186
 30
0.0
 11
691.0000394999903
 21
546.3622320000185
 31
0.0
  0
LINE
  5
391
330
1F
100
AcDbEntity
  8
Ｓ_１_１
  6
CONTINUOUS
 62
     3
100
AcDbLine
 10
709.0000084999898
 20
548.3621100000186
 30
0.0
 11
709.0000084999898
 21
546.3622320000185
 31
0.0
  0
LINE
  5
392
330
1F
100
AcDbEntity
  8
Ｓ_１_１
  6
CONTINUOUS
 62
     3
100
AcDbLine
 10
688.7500084999903
 20
532.8622320000185
 30
0.0
 11
711.2500084999898
 21
532.8622320000185
 31
0.0
  0
LINE
  5
393
330
1F
100
AcDbEntity
  8
Ｓ_１_１
  6
CONTINUOUS
 62
     3
100
AcDbLine
 10
711.7500084999898
 20
532.3622320000185
 30
0.0
 11
711.7500084999898
 21
523.8622320000185
 31
0.0
  0
LINE
  5
394
330
1F
100
AcDbEntity
  8
Ｓ_１_１
  6
CONTINUOUS
 62
     3
100
AcDbLine
 10
688.2499784999901
 20
532.3622320000185
 30
0.0
 11
688.2499784999901
 21
523.8622320000185
 31
0.0
  0
LINE
  5
395
330
1F
100
AcDbEntity
  8
Ｓ_１_１
  6
CONTINUOUS
 62
     3
100
AcDbLine
 10
686.14364049999
 20
517.9342060000184
 30
0.0
 11
688.0000124999902
 21
516.8624290000188
 31
0.0
  0
LINE
  5
396
330
1F
100
AcDbEntity
  8
Ｓ_１_１
  6
CONTINUOUS
 62
     3
100
AcDbLine
 10
711.9999354999896
 20
523.8624230000186
 30
0.0
 11
713.8564134999898
 21
522.7905840000184
 31
0.0
  0
LINE
  5
397
330
1F
100
AcDbEntity
  8
Ｓ_１_１
  6
CONTINUOUS
 62
     3
100
AcDbLine
 10
711.9999774999898
 20
516.8623870000187
 30
0.0
 11
713.8563504999898
 21
517.9341640000188
 31
0.0
  0
LINE
  5
398
330
1F
100
AcDbEntity
  8
Ｓ_１_１
  6
CONTINUOUS
 62
     3
100
AcDbLine
 10
686.1436474999902
 20
522.7907240000185
 30
0.0
 11
688.0000204999902
 21
523.8625010000186
 31
0.0
  0
LINE
  5
399
330
1F
100
AcDbEntity
  8
Ｓ_１_１
  6
CONTINUOUS
 62
     3
100
AcDbLine
 10
713.8564234999895
 20
522.7904540000185
 30
0.0
 11
713.8564234999895
 21
517.9341310000185
 31
0.0
  0
LINE
  5
39A
330
1F
100
AcDbEntity
  8
Ｓ_１_１
  6
CONTINUOUS
 62
     3
100
AcDbLine
 10
706.9282314999897
 20
522.7904540000185
 30
0.0
 11
706.9282314999897
 21
517.9341310000185
 31
0.0
  0
LINE
  5
39B
330
1F
100
AcDbEntity
  8
Ｓ_１_１
  6
CONTINUOUS
 62
     3
100
AcDbLine
 10
693.0718774999901
 20
522.7904540000185
 30
0.0
 11
693.0718774999901
 21
517.9341310000185
 31
0.0
  0
LINE
  5
39C
330
1F
100
AcDbEntity
  8
Ｓ_１_１
  6
CONTINUOUS
 62
     3
100
AcDbLine
 10
686.14360949999
 20
522.7904540000185
 30
0.0
 11
686.14360949999
 21
517.9341310000185
 31
0.0
  0
LINE
  5
39D
330
1F
100
AcDbEntity
  8
Ｓ_１_１
  6
CONTINUOUS
 62
     3
100
AcDbLine
 10
688.0000084999903
 20
523.8622320000185
 30
0.0
 11
711.9999784999897
 21
523.8622320000185
 31
0.0
  0
LINE
  5
39E
330
1F
100
AcDbEntity
  8
Ｓ_１_１
  6
CONTINUOUS
 62
     3
100
AcDbLine
 10
695.5000084999903
 20
561.8623540000189
 30
0.0
 11
704.4999784999897
 21
561.8623540000189
 31
0.0
  0
LINE
  5
39F
330
1F
100
AcDbEntity
  8
Ｓ_１_１
  6
CONTINUOUS
 62
     3
100
AcDbLine
 10
701.4998674999898
 20
563.8624190000186
 30
0.0
 11
703.4999124999896
 21
561.8623740000188
 31
0.0
  0
LINE
  5
3A0
330
1F
100
AcDbEntity
  8
Ｓ_１_１
  6
CONTINUOUS
 62
     3
100
AcDbLine
 10
696.4998404999902
 20
561.8624170000184
 30
0.0
 11
698.4997994999895
 21
563.8623760000186
 31
0.0
  0
LINE
  5
3A1
330
1F
100
AcDbEntity
  8
Ｓ_１_１
  6
CONTINUOUS
 62
     3
100
AcDbLine
 10
692.5000084999903
 20
543.3621100000186
 30
0.0
 11
707.5000084999898
 21
543.3621100000186
 31
0.0
  0
LINE
  5
3A2
330
1F
100
AcDbEntity
  8
Ｓ_１_１
  6
CONTINUOUS
 62
     3
100
AcDbLine
 10
692.5000084999903
 20
544.8622320000185
 30
0.0
 11
707.5000084999898
 21
544.8622320000185
 31
0.0
  0
LINE
  5
3A3
330
1F
100
AcDbEntity
  8
Ｓ_１_１
  6
CONTINUOUS
 62
     3
100
AcDbLine
 10
691.0000394999903
 20
548.3621100000186
 30
0.0
 11
709.0000084999898
 21
548.3621100000186
 31
0.0
  0
LINE
  5
3A4
330
1F
100
AcDbEntity
  8
Ｓ_１_１
  6
CONTINUOUS
 62
     3
100
AcDbLine
 10
709.0000084999898
 20
541.8623540000184
 30
0.0
 11
709.0000084999898
 21
532.8622320000185
 31
0.0
  0
LINE
  5
3A5
330
1F
100
AcDbEntity
  8
Ｓ_１_１
  6
CONTINUOUS
 62
     3
100
AcDbLine
 10
691.0000394999903
 20
541.8623540000184
 30
0.0
 11
691.0000394999903
 21
532.8622320000185
 31
0.0
  0
LINE
  5
3A6
330
1F
100
AcDbEntity
  8
Ｓ_１_１
  6
CONTINUOUS
 62
     3
100
AcDbLine
 10
690.9998964999901
 20
546.3622530000188
 30
0.0
 11
692.49990849999
 21
544.8622400000185
 31
0.0
  0
LINE
  5
3A7
330
1F
100
AcDbEntity
  8
Ｓ_１_１
  6
CONTINUOUS
 62
     3
100
AcDbLine
 10
707.4999744999897
 20
544.8622390000186
 30
0.0
 11
708.9998574999896
 21
546.3621220000185
 31
0.0
  0
LINE
  5
3A8
330
1F
100
AcDbEntity
  8
Ｓ_１_１
  6
CONTINUOUS
 62
     3
100
AcDbLine
 10
691.0000394999903
 20
546.3622320000185
 30
0.0
 11
709.0000084999898
 21
546.3622320000185
 31
0.0
  0
LINE
  5
3A9
330
1F
100
AcDbEntity
  8
Ｓ_１_１
  6
CONTINUOUS
 62
     3
100
AcDbLine
 10
691.00001049999
 20
541.8623870000187
 30
0.0
 11
692.49989349999
 21
543.3622700000186
 31
0.0
  0
LINE
  5
3AA
330
1F
100
AcDbEntity
  8
Ｓ_１_１
  6
CONTINUOUS
 62
     3
100
AcDbLine
 10
707.4998604999897
 20
543.3622280000185
 30
0.0
 11
708.9998734999896
 21
541.8622160000185
 31
0.0
  0
LINE
  5
3AB
330
1F
100
AcDbEntity
  8
Ｓ_１_１
  6
CONTINUOUS
 62
     3
100
AcDbLine
 10
688.2499784999901
 20
532.3622320000185
 30
0.0
 11
711.7500084999898
 21
532.3622320000185
 31
0.0
  0
LINE
  5
3AC
330
1F
100
AcDbEntity
  8
Ｓ_１_１
  6
CONTINUOUS
 62
     3
100
AcDbLine
 10
691.0000394999903
 20
541.8623540000184
 30
0.0
 11
709.0000084999898
 21
541.8623540000184
 31
0.0
  0
LINE
  5
3AD
330
1F
100
AcDbEntity
  8
Ｓ_１_１
  6
CONTINUOUS
 62
     3
100
AcDbLine
 10
692.5000084999903
 20
544.8622320000185
 30
0.0
 11
692.5000084999903
 21
543.3621100000186
 31
0.0
  0
LINE
  5
3AE
330
1F
100
AcDbEntity
  8
Ｓ_１_１
  6
CONTINUOUS
 62
     3
100
AcDbLine
 10
707.5000084999898
 20
544.8622320000185
 30
0.0
 11
707.5000084999898
 21
543.3621100000186
 31
0.0
  0
LINE
  5
3AF
330
1F
100
AcDbEntity
  8
Ｓ_１_１
  6
CONTINUOUS
 62
     3
100
AcDbLine
 10
711.2499044999896
 20
532.8623210000186
 30
0.0
 11
711.7498514999899
 21
532.3623750000187
 31
0.0
  0
LINE
  5
3B0
330
1F
100
AcDbEntity
  8
Ｓ_１_１
  6
CONTINUOUS
 62
     3
100
AcDbLine
 10
688.2499334999903
 20
532.3623230000184
 30
0.0
 11
688.7498314999904
 21
532.8622320000185
 31
0.0
  0
LINE
  5
3B1
330
1F
100
AcDbEntity
  8
Ｓ_１_１
  6
CONTINUOUS
 62
     3
100
AcDbLine
 10
690.99996749999
 20
548.3623410000185
 30
0.0
 11
694.4999814999902
 21
551.8623550000187
 31
0.0
  0
LINE
  5
3B2
330
1F
100
AcDbEntity
  8
Ｓ_１_１
  6
CONTINUOUS
 62
     3
100
AcDbLine
 10
705.49985849999
 20
551.8621410000186
 30
0.0
 11
708.9998294999897
 21
548.3621690000185
 31
0.0
  0
LINE
  5
3B3
330
1F
100
AcDbEntity
  8
Ｓ_１_１
  6
CONTINUOUS
 62
     3
100
AcDbLine
 10
705.5000084999898
 20
560.8621100000186
 30
0.0
 11
705.5000084999898
 21
551.8623540000184
 31
0.0
  0
CIRCLE
  5
3B4
330
1F
100
AcDbEntity
  8
Ｓ_１_１
  6
CONTINUOUS
 62
     3
100
AcDbCircle
 10
700.000024
 20
492.86227700001
 30
0.0
 40
10.0
  0
POLYLINE
  5
3B5
330
1F
100
AcDbEntity
  8
Ｓ_１_１
  6
CONTINUOUS
 62
     3
100
AcDb2dPolyline
 66
     1
 10
0.0
 20
0.0
 30
0.0
 70
   128
  0
VERTEX
  5
3B6
330
3B5
100
AcDbEntity
  8
Ｓ_１_１
  6
CONTINUOUS
 62
     3
100
AcDbVertex
100
AcDb2dVertex
 10
700.000024
 20
502.3622770000101
 30
0.0
  0
VERTEX
  5
3B7
330
3B5
100
AcDbEntity
  8
Ｓ_１_１
  6
CONTINUOUS
 62
     3
100
AcDbVertex
100
AcDb2dVertex
 10
691.7727826640479
 20
497.6122770000101
 30
0.0
  0
VERTEX
  5
3B8
330
3B5
100
AcDbEntity
  8
Ｓ_１_１
  6
CONTINUOUS
 62
     3
100
AcDbVertex
100
AcDb2dVertex
 10
691.7727826640479
 20
488.1122770000101
 30
0.0
  0
VERTEX
  5
3B9
330
3B5
100
AcDbEntity
  8
Ｓ_１_１
  6
CONTINUOUS
 62
     3
100
AcDbVertex
100
AcDb2dVertex
 10
700.000024
 20
483.3622770000101
 30
0.0
  0
VERTEX
  5
3BA
330
3B5
100
AcDbEntity
  8
Ｓ_１_１
  6
CONTINUOUS
 62
     3
100
AcDbVertex
100
AcDb2dVertex
 10
708.2272653359522
 20
488.1122770000101
 30
0.0
  0
VERTEX
  5
3BB
330
3B5
100
AcDbEntity
  8
Ｓ_１_１
  6
CONTINUOUS
 62
     3
100
AcDbVertex
100
AcDb2dVertex
 10
708.2272653359522
 20
497.6122770000101
 30
0.0
  0
VERTEX
  5
3BC
330
3B5
100
AcDbEntity
  8
Ｓ_１_１
  6
CONTINUOUS
 62
     3
100
AcDbVertex
100
AcDb2dVertex
 10
700.000024
 20
502.3622770000101
 30
0.0
  0
SEQEND
  5
3BD
330
3B5
100
AcDbEntity
  8
Ｓ_１_１
  6
CONTINUOUS
 62
     3
  0
CIRCLE
  5
3BE
330
1F
100
AcDbEntity
  8
Ｓ_１_１
  6
CONTINUOUS
 62
     3
100
AcDbCircle
 10
700.000024
 20
492.86227700001
 30
0.0
 40
8.227241335951572
  0
ARC
  5
3BF
330
1F
100
AcDbEntity
  8
Ｓ_１_１
  6
CONTINUOUS
 62
     3
100
AcDbCircle
 10
700.000024
 20
492.86227700001
 30
0.0
 40
8.999999915700016
100
AcDbArc
 50
96.08359749728285
 51
143.9164025027172
  0
ARC
  5
3C0
330
1F
100
AcDbEntity
  8
Ｓ_１_１
  6
CONTINUOUS
 62
     3
100
AcDbCircle
 10
700.000024
 20
492.86227700001
 30
0.0
 40
8.999999915700016
100
AcDbArc
 50
156.0835974972827
 51
203.9164025027173
  0
ARC
  5
3C1
330
1F
100
AcDbEntity
  8
Ｓ_１_１
  6
CONTINUOUS
 62
     3
100
AcDbCircle
 10
700.000024
 20
492.86227700001
 30
0.0
 40
8.999999915700016
100
AcDbArc
 50
216.0835974972828
 51
263.9164025027172
  0
ARC
  5
3C2
330
1F
100
AcDbEntity
  8
Ｓ_１_１
  6
CONTINUOUS
 62
     3
100
AcDbCircle
 10
700.000024
 20
492.86227700001
 30
0.0
 40
8.999999915700016
100
AcDbArc
 50
276.0835974972829
 51
323.9164025027172
  0
ARC
  5
3C3
330
1F
100
AcDbEntity
  8
Ｓ_１_１
  6
CONTINUOUS
 62
     3
100
AcDbCircle
 10
700.000024
 20
492.86227700001
 30
0.0
 40
8.999999915700016
100
AcDbArc
 50
336.0835974972827
 51
23.91640250271736
  0
ARC
  5
3C4
330
1F
100
AcDbEntity
  8
Ｓ_１_１
  6
CONTINUOUS
 62
     3
100
AcDbCircle
 10
700.000024
 20
492.86227700001
 30
0.0
 40
8.999999915700016
100
AcDbArc
 50
36.08359749728283
 51
83.91640250271715
  0
CIRCLE
  5
3C5
330
1F
100
AcDbEntity
  8
Ｓ_１_１
  6
CONTINUOUS
 62
     3
100
AcDbCircle
 10
700.000024
 20
492.86227700001
 30
0.0
 40
5.0
  0
CIRCLE
  5
3C6
330
1F
100
AcDbEntity
  8
Ｓ_１_１
  6
CONTINUOUS
 62
     3
100
AcDbCircle
 10
700.000024
 20
492.86227700001
 30
0.0
 40
4.25
  0
LINE
  5
3C7
330
1F
100
AcDbEntity
  8
Ｓ_１_１
  6
EXLTYPE2
 62
     1
100
AcDbLine
 10
713.000024
 20
492.8622770000092
 30
0.0
 11
687.000024
 21
492.8622770000092
 31
0.0
  0
POLYLINE
  5
3C8
330
1F
100
AcDbEntity
  8
Ｓ_１_１
  6
CONTINUOUS
 62
     3
100
AcDb2dPolyline
 66
     1
 10
0.0
 20
0.0
 30
0.0
 70
   128
  0
VERTEX
  5
3C9
330
3C8
100
AcDbEntity
  8
Ｓ_１_１
  6
CONTINUOUS
 62
     3
100
AcDbVertex
100
AcDb2dVertex
 10
700.000024
 20
495.7490283459582
 30
0.0
  0
VERTEX
  5
3CA
330
3C8
100
AcDbEntity
  8
Ｓ_１_１
  6
CONTINUOUS
 62
     3
100
AcDbVertex
100
AcDb2dVertex
 10
697.500024
 20
494.305652672984
 30
0.0
  0
VERTEX
  5
3CB
330
3C8
100
AcDbEntity
  8
Ｓ_１_１
  6
CONTINUOUS
 62
     3
100
AcDbVertex
100
AcDb2dVertex
 10
697.500024
 20
491.4189013270359
 30
0.0
  0
VERTEX
  5
3CC
330
3C8
100
AcDbEntity
  8
Ｓ_１_１
  6
CONTINUOUS
 62
     3
100
AcDbVertex
100
AcDb2dVertex
 10
700.000024
 20
489.9755256540618
 30
0.0
  0
VERTEX
  5
3CD
330
3C8
100
AcDbEntity
  8
Ｓ_１_１
  6
CONTINUOUS
 62
     3
100
AcDbVertex
100
AcDb2dVertex
 10
702.500024
 20
491.4189013270359
 30
0.0
  0
VERTEX
  5
3CE
330
3C8
100
AcDbEntity
  8
Ｓ_１_１
  6
CONTINUOUS
 62
     3
100
AcDbVertex
100
AcDb2dVertex
 10
702.500024
 20
494.305652672984
 30
0.0
  0
VERTEX
  5
3CF
330
3C8
100
AcDbEntity
  8
Ｓ_１_１
  6
CONTINUOUS
 62
     3
100
AcDbVertex
100
AcDb2dVertex
 10
700.000024
 20
495.7490283459582
 30
0.0
  0
SEQEND
  5
3D0
330
3C8
100
AcDbEntity
  8
Ｓ_１_１
  6
CONTINUOUS
 62
     3
  0
ENDSEC
  0
SECTION
  2
OBJECTS
  0
DICTIONARY
  5
C
330
0
100
AcDbDictionary
  3
ACAD_GROUP
350
D
  3
ACAD_LAYOUT
350
1A
  3
ACAD_MATERIAL
350
43
  3
ACAD_MLEADERSTYLE
350
6B
  3
ACAD_MLINESTYLE
350
17
  3
ACAD_PLOTSETTINGS
350
19
  3
ACAD_SCALELIST
350
47
  3
ACAD_VISUALSTYLE
350
2A
  3
ACDBHEADERROUNDTRIPXREC
350
3D1
  3
ACDBVARIABLEDICTIONARY
350
3F2
  0
DICTIONARY
  5
3FD
330
8
100
AcDbDictionary
280
     1
  3
ACAD_XREC_ROUNDTRIP
360
3FE
  0
DICTIONARY
  5
D
102
{ACAD_REACTORS
330
C
102
}
330
C
100
AcDbDictionary
  0
DICTIONARY
  5
1A
102
{ACAD_REACTORS
330
C
102
}
330
C
100
AcDbDictionary
  0
DICTIONARY
  5
43
102
{ACAD_REACTORS
330
C
102
}
330
C
100
AcDbDictionary
  3
BYBLOCK
350
45
  3
BYLAYER
350
44
  3
GLOBAL
350
46
  0
DICTIONARY
  5
6B
102
{ACAD_REACTORS
330
C
102
}
330
C
100
AcDbDictionary
  3
STANDARD
350
6C
  0
DICTIONARY
  5
17
102
{ACAD_REACTORS
330
C
102
}
330
C
100
AcDbDictionary
  3
STANDARD
350
18
  0
DICTIONARY
  5
19
102
{ACAD_REACTORS
330
C
102
}
330
C
100
AcDbDictionary
  0
DICTIONARY
  5
47
102
{ACAD_REACTORS
330
C
102
}
330
C
100
AcDbDictionary
  3
A0
350
48
  3
A1
350
49
  3
A2
350
4A
  3
A3
350
4B
  3
A4
350
4C
  3
A5
350
4D
  3
A6
350
4E
  3
A7
350
4F
  3
A8
350
50
  3
A9
350
51
  3
B0
350
52
  3
B1
350
53
  3
B2
350
54
  3
B3
350
55
  3
B4
350
56
  3
B5
350
57
  3
B6
350
58
  3
B7
350
59
  3
B8
350
5A
  3
B9
350
5B
  3
C0
350
5C
  3
C1
350
5D
  3
C2
350
5E
  3
C3
350
5F
  3
C4
350
60
  3
C5
350
61
  3
C6
350
62
  3
C7
350
63
  3
C8
350
64
  3
C9
350
65
  3
D0
350
66
  3
D1
350
67
  3
D2
350
68
  0
DICTIONARY
  5
2A
102
{ACAD_REACTORS
330
C
102
}
330
C
100
AcDbDictionary
  3
2DWIREFRAME
350
2F
  3
BASIC
350
32
  3
BRIGHTEN
350
36
  3
COLORCHANGE
350
3A
  3
CONCEPTUAL
350
34
  3
DIM
350
35
  3
EDGECOLOROFF
350
3D
  3
FACEPATTERN
350
39
  3
FLAT
350
2B
  3
FLATWITHEDGES
350
2C
  3
GOURAUD
350
2D
  3
GOURAUDWITHEDGES
350
2E
  3
HIDDEN
350
31
  3
JITTEROFF
350
3B
  3
LINEPATTERN
350
38
  3
OVERHANGOFF
350
3C
  3
REALISTIC
350
33
  3
SHADED
350
42
  3
SHADED_WITH_EDGES
350
41
  3
SHADES_OF_GRAY
350
3E
  3
SKETCHY
350
3F
  3
THICKEN
350
37
  3
WIREFRAME
350
30
  3
X-RAY
350
40
  0
DICTIONARY
  5
3D1
102
{ACAD_REACTORS
330
C
102
}
330
C
100
AcDbDictionary
  3
CEPSNID
350
3DB
  3
CEPSNTYPE
350
3DA
  3
DIMSTYLEDATA
350
3F1
  3
FINGERPRINTGUID
350
3DC
  3
HYPERLINKBASE
350
3D4
  3
INSUNITS
350
3D9
  3
LAYOUTDICT
350
3D6
  3
LWETCUNION
350
3D8
  3
PLOTSETDICT
350
3D7
  3
PSVPSCALE
350
3DE
  3
PUCSBASE
350
3E1
  3
PUCSORGBACK
350
3E7
  3
PUCSORGBOTTOM
350
3E3
  3
PUCSORGFRONT
350
3E6
  3
PUCSORGLEFT
350
3E4
  3
PUCSORGRIGHT
350
3E5
  3
PUCSORGTOP
350
3E2
  3
PUCSORTHOREF
350
3DF
  3
PUCSORTHOVIEW
350
3E0
  3
STYLESHEET
350
3D5
  3
TSTACKALIGN
350
3D2
  3
TSTACKSIZE
350
3D3
  3
UCSBASE
350
3EA
  3
UCSORGBACK
350
3F0
  3
UCSORGBOTTOM
350
3EC
  3
UCSORGFRONT
350
3EF
  3
UCSORGLEFT
350
3ED
  3
UCSORGRIGHT
350
3EE
  3
UCSORGTOP
350
3EB
  3
UCSORTHOREF
350
3E8
  3
UCSORTHOVIEW
350
3E9
  3
VERSIONGUID
350
3DD
  0
DICTIONARY
  5
3F2
102
{ACAD_REACTORS
330
C
102
}
330
C
100
AcDbDictionary
  3
CANNOSCALE
350
3FF
  3
CENTEREXE
350
3F9
  3
CENTERLTYPEFILE
350
3FA
  3
CMLEADERSTYLE
350
3F4
  3
CTABLESTYLE
350
3F3
  3
DIMASSOC
350
3FB
  3
HIDETEXT
350
3FC
  3
MSLTSCALE
350
400
  3
PSOLHEIGHT
350
3F6
  3
PSOLWIDTH
350
3F5
  0
XRECORD
  5
3FE
102
{ACAD_REACTORS
330
3FD
102
}
330
3FD
100
AcDbXrecord
102
VTR_0.000_0.000_1.000_1.000_VISUALSTYLE
340
2F
102
VTR_0.000_0.000_1.000_1.000_GRIDDISPLAY
 70
     3
102
VTR_0.000_0.000_1.000_1.000_GRIDMAJOR
 70
     5
102
VTR_0.000_0.000_1.000_1.000_DEFAULTLIGHTING
280
     1
102
VTR_0.000_0.000_1.000_1.000_DEFAULTLIGHTINGTYPE
 70
     1
102
VTR_0.000_0.000_1.000_1.000_BRIGHTNESS
141
0.0
102
VTR_0.000_0.000_1.000_1.000_CONTRAST
142
0.0
  0
MATERIAL
  5
45
102
{ACAD_REACTORS
330
43
102
}
102
{ACAD_XDICTIONARY
360
403
102
}
330
43
100
AcDbMaterial
  1
BYBLOCK
  0
MATERIAL
  5
44
102
{ACAD_REACTORS
330
43
102
}
102
{ACAD_XDICTIONARY
360
401
102
}
330
43
100
AcDbMaterial
  1
BYLAYER
  0
MATERIAL
  5
46
102
{ACAD_REACTORS
330
43
102
}
102
{ACAD_XDICTIONARY
360
405
102
}
330
43
100
AcDbMaterial
  1
GLOBAL
  0
ACAD_PROXY_OBJECT
  5
6C
102
{ACAD_REACTORS
330
6B
102
}
330
6B
100
AcDbProxyObject
 90
      499
 91
      505
 93
      610
310
40901902A4063FBFFFFFE0000000000000020400000000000020404214DD185B99185C990000000000000104090141901A00000000000004100000000000000041025764000000000000039000
340
14
340
0
340
11
340
0
 94
        0
1001
ACAD_MLEADERVER
1070
     2
  0
MLINESTYLE
  5
18
102
{ACAD_REACTORS
330
17
102
}
330
17
100
AcDbMlineStyle
  2
Standard
 70
     0
  3

 62
   256
 51
90.0
 52
90.0
 71
     2
 49
0.5
 62
   256
  6
BYLAYER
 49
-0.5
 62
   256
  6
BYLAYER
  0
ACAD_PROXY_OBJECT
  5
48
102
{ACAD_REACTORS
330
47
102
}
330
47
100
AcDbProxyObject
 90
      499
 91
      503
 93
       41
310
903313A31580
  0
ACAD_PROXY_OBJECT
  5
49
102
{ACAD_REACTORS
330
47
102
}
330
47
100
AcDbProxyObject
 90
      499
 91
      503
 93
      105
310
903313A324000000000000004000
  0
ACAD_PROXY_OBJECT
  5
4A
102
{ACAD_REACTORS
330
47
102
}
330
47
100
AcDbProxyObject
 90
      499
 91
      503
 93
      105
310
903313A344000000000000104000
  0
ACAD_PROXY_OBJECT
  5
4B
102
{ACAD_REACTORS
330
47
102
}
330
47
100
AcDbProxyObject
 90
      499
 91
      503
 93
      105
310
903313A354000000000000144000
  0
ACAD_PROXY_OBJECT
  5
4C
102
{ACAD_REACTORS
330
47
102
}
330
47
100
AcDbProxyObject
 90
      499
 91
      503
 93
      105
310
903313A384000000000000204000
  0
ACAD_PROXY_OBJECT
  5
4D
102
{ACAD_REACTORS
330
47
102
}
330
47
100
AcDbProxyObject
 90
      499
 91
      503
 93
      113
310
904313A31304000000000000244000
  0
ACAD_PROXY_OBJECT
  5
4E
102
{ACAD_REACTORS
330
47
102
}
330
47
100
AcDbProxyObject
 90
      499
 91
      503
 93
      113
310
904313A31364000000000000304000
  0
ACAD_PROXY_OBJECT
  5
4F
102
{ACAD_REACTORS
330
47
102
}
330
47
100
AcDbProxyObject
 90
      499
 91
      503
 93
      113
310
904313A32304000000000000344000
  0
ACAD_PROXY_OBJECT
  5
50
102
{ACAD_REACTORS
330
47
102
}
330
47
100
AcDbProxyObject
 90
      499
 91
      503
 93
      113
310
904313A333040000000000003E4000
  0
ACAD_PROXY_OBJECT
  5
51
102
{ACAD_REACTORS
330
47
102
}
330
47
100
AcDbProxyObject
 90
      499
 91
      503
 93
      113
310
904313A34304000000000000444000
  0
ACAD_PROXY_OBJECT
  5
52
102
{ACAD_REACTORS
330
47
102
}
330
47
100
AcDbProxyObject
 90
      499
 91
      503
 93
      113
310
904313A35304000000000000494000
  0
ACAD_PROXY_OBJECT
  5
53
102
{ACAD_REACTORS
330
47
102
}
330
47
100
AcDbProxyObject
 90
      499
 91
      503
 93
      121
310
905313A3130304000000000000594000
  0
ACAD_PROXY_OBJECT
  5
54
102
{ACAD_REACTORS
330
47
102
}
330
47
100
AcDbProxyObject
 90
      499
 91
      503
 93
      105
310
903323A310000000000000010100
  0
ACAD_PROXY_OBJECT
  5
55
102
{ACAD_REACTORS
330
47
102
}
330
47
100
AcDbProxyObject
 90
      499
 91
      503
 93
      105
310
903343A310000000000000410100
  0
ACAD_PROXY_OBJECT
  5
56
102
{ACAD_REACTORS
330
47
102
}
330
47
100
AcDbProxyObject
 90
      499
 91
      503
 93
      105
310
903383A310000000000000810100
  0
ACAD_PROXY_OBJECT
  5
57
102
{ACAD_REACTORS
330
47
102
}
330
47
100
AcDbProxyObject
 90
      499
 91
      503
 93
      113
310
90431303A310000000000000910100
  0
ACAD_PROXY_OBJECT
  5
58
102
{ACAD_REACTORS
330
47
102
}
330
47
100
AcDbProxyObject
 90
      499
 91
      503
 93
      121
310
9053130303A310000000000001650100
  0
ACAD_PROXY_OBJECT
  5
59
102
{ACAD_REACTORS
330
47
102
}
330
47
100
AcDbProxyObject
 90
      499
 91
      503
 93
      257
310
90E312F31323822203D2031272D3022000000000000200FC000000000000284000
  0
ACAD_PROXY_OBJECT
  5
5A
102
{ACAD_REACTORS
330
47
102
}
330
47
100
AcDbProxyObject
 90
      499
 91
      503
 93
      249
310
90D312F363422203D2031272D3022000000000000240FC000000000000284000
  0
ACAD_PROXY_OBJECT
  5
5B
102
{ACAD_REACTORS
330
47
102
}
330
47
100
AcDbProxyObject
 90
      499
 91
      503
 93
      249
310
90D312F333222203D2031272D3022000000000000280FC000000000000284000
  0
ACAD_PROXY_OBJECT
  5
5C
102
{ACAD_REACTORS
330
47
102
}
330
47
100
AcDbProxyObject
 90
      499
 91
      503
 93
      249
310
90D312F313622203D2031272D30220000000000002C0FC000000000000284000
  0
ACAD_PROXY_OBJECT
  5
5D
102
{ACAD_REACTORS
330
47
102
}
330
47
100
AcDbProxyObject
 90
      499
 91
      503
 93
      249
310
90D332F333222203D2031272D30220000000000002E0FC000000000000284000
  0
ACAD_PROXY_OBJECT
  5
5E
102
{ACAD_REACTORS
330
47
102
}
330
47
100
AcDbProxyObject
 90
      499
 91
      503
 93
      241
310
90C312F3822203D2031272D3022000000000000300FC000000000000284000
  0
ACAD_PROXY_OBJECT
  5
5F
102
{ACAD_REACTORS
330
47
102
}
330
47
100
AcDbProxyObject
 90
      499
 91
      503
 93
      249
310
90D332F313622203D2031272D3022000000000000320FC000000000000284000
  0
ACAD_PROXY_OBJECT
  5
60
102
{ACAD_REACTORS
330
47
102
}
330
47
100
AcDbProxyObject
 90
      499
 91
      503
 93
      241
310
90C312F3422203D2031272D3022000000000000340FC000000000000284000
  0
ACAD_PROXY_OBJECT
  5
61
102
{ACAD_REACTORS
330
47
102
}
330
47
100
AcDbProxyObject
 90
      499
 91
      503
 93
      241
310
90C332F3822203D2031272D3022000000000000360FC000000000000284000
  0
ACAD_PROXY_OBJECT
  5
62
102
{ACAD_REACTORS
330
47
102
}
330
47
100
AcDbProxyObject
 90
      499
 91
      503
 93
      241
310
90C312F3222203D2031272D3022000000000000380FC000000000000284000
  0
ACAD_PROXY_OBJECT
  5
63
102
{ACAD_REACTORS
330
47
102
}
330
47
100
AcDbProxyObject
 90
      499
 91
      503
 93
      241
310
90C332F3422203D2031272D30220000000000003A0FC000000000000284000
  0
ACAD_PROXY_OBJECT
  5
64
102
{ACAD_REACTORS
330
47
102
}
330
47
100
AcDbProxyObject
 90
      499
 91
      503
 93
      161
310
90A3122203D2031272D30224000000000000284000
  0
ACAD_PROXY_OBJECT
  5
65
102
{ACAD_REACTORS
330
47
102
}
330
47
100
AcDbProxyObject
 90
      499
 91
      503
 93
      257
310
90E312D312F3222203D2031272D30220000000000003E0FC000000000000284000
  0
ACAD_PROXY_OBJECT
  5
66
102
{ACAD_REACTORS
330
47
102
}
330
47
100
AcDbProxyObject
 90
      499
 91
      503
 93
      225
310
90A3322203D2031272D302200000000000002100000000000000284000
  0
ACAD_PROXY_OBJECT
  5
67
102
{ACAD_REACTORS
330
47
102
}
330
47
100
AcDbProxyObject
 90
      499
 91
      503
 93
      225
310
90A3622203D2031272D302200000000000006100000000000000284000
  0
ACAD_PROXY_OBJECT
  5
68
102
{ACAD_REACTORS
330
47
102
}
330
47
100
AcDbProxyObject
 90
      499
 91
      503
 93
      249
310
90D31272D3022203D2031272D30220000000000000A100000000000000284000
  0
ACAD_PROXY_OBJECT
  5
2F
102
{ACAD_REACTORS
330
2A
102
}
330
2A
100
AcDbProxyObject
 90
      499
 91
      501
 93
      436
310
42CC9915DA5C99599C985B595049028333333333333E33F0000000000000F90107901411070040501600405405064090741402480A0340
1001
ACAD
1000
AcDbSavedByObjectVersion
1070
     0
  0
ACAD_PROXY_OBJECT
  5
32
102
{ACAD_REACTORS
330
2A
102
}
330
2A
100
AcDbProxyObject
 90
      499
 91
      501
 93
      388
310
4150985CDA58D07406404333333333333E33F0000000000000F90107A41107004050150841D405064090741402480A0350
1001
ACAD
1000
AcDbSavedByObjectVersion
1070
     0
  0
ACAD_PROXY_OBJECT
  5
36
102
{ACAD_REACTORS
330
2A
102
}
330
2A
100
AcDbProxyObject
 90
      499
 91
      501
 93
      428
310
42109C9A59DA1D195B90C409028333333333333E33F0000000000000F9010790141107004050150841D405064090741402480A029950
1001
ACAD
1000
AcDbSavedByObjectVersion
1070
     0
  0
ACAD_PROXY_OBJECT
  5
3A
102
{ACAD_REACTORS
330
2A
102
}
330
2A
100
AcDbProxyObject
 90
      499
 91
      501
 93
      452
310
42D0DBDB1BDC90DA185B99D95104090240C333333333333E33F0000000000000F90108901411070040501508421405064090741402480A0350
1001
ACAD
1000
AcDbSavedByObjectVersion
1070
     0
  0
ACAD_PROXY_OBJECT
  5
34
102
{ACAD_REACTORS
330
2A
102
}
330
2A
100
AcDbProxyObject
 90
      499
 91
      501
 93
      500
310
4290DBDB98D95C1D1D585B10940D028333333333333E33F0000000000000F90107902409070040501000000000018199010841D405064090740C02480A0340
1001
ACAD
1000
AcDbSavedByObjectVersion
1070
     0
  0
ACAD_PROXY_OBJECT
  5
35
102
{ACAD_REACTORS
330
2A
102
}
330
2A
100
AcDbProxyObject
 90
      499
 91
      501
 93
      412
310
40D11A5B50B409028333333333333E33F0000000000000F9010790141107004050150841D405064090741402480A02677FFFFFD0
1001
ACAD
1000
AcDbSavedByObjectVersion
1070
     0
  0
ACAD_PROXY_OBJECT
  5
3D
102
{ACAD_REACTORS
330
2A
102
}
330
2A
100
AcDbProxyObject
 90
      499
 91
      501
 93
      452
310
43115919D950DBDB1BDC93D999916409028333333333333E33F0000000000000F9010790141107004050150841D405064090741402480A0350
1001
ACAD
1000
AcDbSavedByObjectVersion
1070
     0
  0
ACAD_PROXY_OBJECT
  5
39
102
{ACAD_REACTORS
330
2A
102
}
330
2A
100
AcDbProxyObject
 90
      499
 91
      501
 93
      444
310
42D19858D95C185D1D195C9B90F409028333333333333E33F0000000000000F9010790141107004050150841D405064090741402480A0350
1001
ACAD
1000
AcDbSavedByObjectVersion
1070
     0
  0
ACAD_PROXY_OBJECT
  5
2B
102
{ACAD_REACTORS
330
2A
102
}
330
2A
100
AcDbProxyObject
 90
      499
 91
      501
 93
      380
310
41119B185D240901404333333333333E33F0000000000000F9010740A907004050150841D405064090741402480A1B50
1001
ACAD
1000
AcDbSavedByObjectVersion
1070
     0
  0
ACAD_PROXY_OBJECT
  5
2C
102
{ACAD_REACTORS
330
2A
102
}
330
2A
100
AcDbProxyObject
 90
      499
 91
      501
 93
      468
310
43519B185D15DA5D1A115919D95CD0140901404333333333333E33F0000000000000F90107409019070040501600405405064090741402480A1B50
1001
ACAD
1000
AcDbSavedByObjectVersion
1070
     0
  0
ACAD_PROXY_OBJECT
  5
2D
102
{ACAD_REACTORS
330
2A
102
}
330
2A
100
AcDbProxyObject
 90
      499
 91
      501
 93
      404
310
41D1DBDD5C985D5910240902404333333333333E33F0000000000000F9010740A9070040501641D405064090741402480A1B50
1001
ACAD
1000
AcDbSavedByObjectVersion
1070
     0
  0
ACAD_PROXY_OBJECT
  5
2E
102
{ACAD_REACTORS
330
2A
102
}
330
2A
100
AcDbProxyObject
 90
      499
 91
      501
 93
      492
310
4411DBDD5C985D5915DA5D1A115919D95CD0340902404333333333333E33F0000000000000F90107409019070040501600405405064090741402480A1B50
1001
ACAD
1000
AcDbSavedByObjectVersion
1070
     0
  0
ACAD_PROXY_OBJECT
  5
31
102
{ACAD_REACTORS
330
2A
102
}
330
2A
100
AcDbProxyObject
 90
      499
 91
      501
 93
      476
310
41921A5919195B90640502408333333333333E33F0000000000000F901079024090700405020000000000001110200405405064090740C02480A0340
1001
ACAD
1000
AcDbSavedByObjectVersion
1070
     0
  0
ACAD_PROXY_OBJECT
  5
3B
102
{ACAD_REACTORS
330
2A
102
}
330
2A
100
AcDbProxyObject
 90
      499
 91
      501
 93
      428
310
42529A5D1D195C93D999914409028333333333333E33F0000000000000F9010790141107004050150A41D405064090741402480A0350
1001
ACAD
1000
AcDbSavedByObjectVersion
1070
     0
  0
ACAD_PROXY_OBJECT
  5
38
102
{ACAD_REACTORS
330
2A
102
}
330
2A
100
AcDbProxyObject
 90
      499
 91
      501
 93
      444
310
42D31A5B995C185D1D195C9B90E409028333333333333E33F0000000000000F9010790141107004050750841D405064090741402483A0350
1001
ACAD
1000
AcDbSavedByObjectVersion
1070
     0
  0
ACAD_PROXY_OBJECT
  5
3C
102
{ACAD_REACTORS
330
2A
102
}
330
2A
100
AcDbProxyObject
 90
      499
 91
      501
 93
      444
310
42D3DD995C9A185B99D3D999915409028333333333333E33F0000000000000F9010790141107004050150941D405064090741402480A0350
1001
ACAD
1000
AcDbSavedByObjectVersion
1070
     0
  0
ACAD_PROXY_OBJECT
  5
33
102
{ACAD_REACTORS
330
2A
102
}
330
2A
100
AcDbProxyObject
 90
      499
 91
      501
 93
      428
310
425499585B1A5CDD1A58D08409038333333333333E33F0000000000000F9010740A907004050150800405405064090740C02480A1B40
1001
ACAD
1000
AcDbSavedByObjectVersion
1070
     0
  0
ACAD_PROXY_OBJECT
  5
42
102
{ACAD_REACTORS
330
2A
102
}
330
2A
100
AcDbProxyObject
 90
      499
 91
      501
 93
      420
310
4194DA1859195911B40902404333333333333E33F0000000000000F9010740A41107004050150800405405064090840C02480A0B40
1001
ACAD
1000
AcDbSavedByObjectVersion
1070
     0
  0
ACAD_PROXY_OBJECT
  5
41
102
{ACAD_REACTORS
330
2A
102
}
330
2A
100
AcDbProxyObject
 90
      499
 91
      501
 93
      516
310
4454DA18591959081DDA5D1A08195919D95CD1A40902404333333333333E33F0000000000000F901074090142907004050250800405405064090740C02480A0B40
1001
ACAD
1000
AcDbSavedByObjectVersion
1070
     0
  0
ACAD_PROXY_OBJECT
  5
3E
102
{ACAD_REACTORS
330
2A
102
}
330
2A
100
AcDbProxyObject
 90
      499
 91
      501
 93
      532
310
4394DA1859195CC81BD98811DC985E5174090240C333333333333E33F0000000000000F901079024090741D01000000000000111010841D405064090740C02480A0340
1001
ACAD
1000
AcDbSavedByObjectVersion
1070
     0
  0
ACAD_PROXY_OBJECT
  5
3F
102
{ACAD_REACTORS
330
2A
102
}
330
2A
100
AcDbProxyObject
 90
      499
 91
      501
 93
      476
310
41D4DAD95D18DA1E51840502408333333333333E33F0000000000000F901079024090741D01000000000000111010B41D405064090741802480A0340
1001
ACAD
1000
AcDbSavedByObjectVersion
1070
     0
  0
ACAD_PROXY_OBJECT
  5
37
102
{ACAD_REACTORS
330
2A
102
}
330
2A
100
AcDbProxyObject
 90
      499
 91
      501
 93
      412
310
41D51A1A58DAD95B90D409028333333333333E33F0000000000000F9010790141107004050150C41D405064090741402480A0350
1001
ACAD
1000
AcDbSavedByObjectVersion
1070
     0
  0
ACAD_PROXY_OBJECT
  5
30
102
{ACAD_REACTORS
330
2A
102
}
330
2A
100
AcDbProxyObject
 90
      499
 91
      501
 93
      420
310
4255DA5C99599C985B595059028333333333333E33F0000000000000F90107901411070040501600405405064090740C02480A0340
1001
ACAD
1000
AcDbSavedByObjectVersion
1070
     0
  0
ACAD_PROXY_OBJECT
  5
40
102
{ACAD_REACTORS
330
2A
102
}
330
2A
100
AcDbProxyObject
 90
      499
 91
      501
 93
      404
310
41560B54985E51940902404000000000000E03F0000000000000F9010740501907004050150841D405064090740C02480A1B40
1001
ACAD
1000
AcDbSavedByObjectVersion
1070
     0
  0
XRECORD
  5
3DB
102
{ACAD_REACTORS
330
3D1
102
}
330
3D1
100
AcDbXrecord
340
0
  0
XRECORD
  5
3DA
102
{ACAD_REACTORS
330
3D1
102
}
330
3D1
100
AcDbXrecord
 90
        0
  0
XRECORD
  5
3F1
102
{ACAD_REACTORS
330
3D1
102
}
330
3D1
100
AcDbXrecord
1000
DSTYLE
1002
{
1070
   340
340
11
1002
}
  0
XRECORD
  5
3DC
102
{ACAD_REACTORS
330
3D1
102
}
330
3D1
100
AcDbXrecord
  1
{94e988fd-a0a4-4b0c-8d57-09f556c11a3c}
  0
XRECORD
  5
3D4
102
{ACAD_REACTORS
330
3D1
102
}
330
3D1
100
AcDbXrecord
  1

  0
XRECORD
  5
3D9
102
{ACAD_REACTORS
330
3D1
102
}
330
3D1
100
AcDbXrecord
 90
        4
  0
XRECORD
  5
3D6
102
{ACAD_REACTORS
330
3D1
102
}
330
3D1
100
AcDbXrecord
340
1A
  0
XRECORD
  5
3D8
102
{ACAD_REACTORS
330
3D1
102
}
330
3D1
100
AcDbXrecord
 90
    10781
  0
XRECORD
  5
3D7
102
{ACAD_REACTORS
330
3D1
102
}
330
3D1
100
AcDbXrecord
340
19
  0
XRECORD
  5
3DE
102
{ACAD_REACTORS
330
3D1
102
}
330
3D1
100
AcDbXrecord
 40
0.0
  0
XRECORD
  5
3E1
102
{ACAD_REACTORS
330
3D1
102
}
330
3D1
100
AcDbXrecord
340
0
  0
XRECORD
  5
3E7
102
{ACAD_REACTORS
330
3D1
102
}
330
3D1
100
AcDbXrecord
 10
0.0
 20
0.0
 30
0.0
  0
XRECORD
  5
3E3
102
{ACAD_REACTORS
330
3D1
102
}
330
3D1
100
AcDbXrecord
 10
0.0
 20
0.0
 30
0.0
  0
XRECORD
  5
3E6
102
{ACAD_REACTORS
330
3D1
102
}
330
3D1
100
AcDbXrecord
 10
0.0
 20
0.0
 30
0.0
  0
XRECORD
  5
3E4
102
{ACAD_REACTORS
330
3D1
102
}
330
3D1
100
AcDbXrecord
 10
0.0
 20
0.0
 30
0.0
  0
XRECORD
  5
3E5
102
{ACAD_REACTORS
330
3D1
102
}
330
3D1
100
AcDbXrecord
 10
0.0
 20
0.0
 30
0.0
  0
XRECORD
  5
3E2
102
{ACAD_REACTORS
330
3D1
102
}
330
3D1
100
AcDbXrecord
 10
0.0
 20
0.0
 30
0.0
  0
XRECORD
  5
3DF
102
{ACAD_REACTORS
330
3D1
102
}
330
3D1
100
AcDbXrecord
340
0
  0
XRECORD
  5
3E0
102
{ACAD_REACTORS
330
3D1
102
}
330
3D1
100
AcDbXrecord
 70
     0
  0
XRECORD
  5
3D5
102
{ACAD_REACTORS
330
3D1
102
}
330
3D1
100
AcDbXrecord
  1

  0
XRECORD
  5
3D2
102
{ACAD_REACTORS
330
3D1
102
}
330
3D1
100
AcDbXrecord
 90
        1
  0
XRECORD
  5
3D3
102
{ACAD_REACTORS
330
3D1
102
}
330
3D1
100
AcDbXrecord
 90
       70
  0
XRECORD
  5
3EA
102
{ACAD_REACTORS
330
3D1
102
}
330
3D1
100
AcDbXrecord
340
0
  0
XRECORD
  5
3F0
102
{ACAD_REACTORS
330
3D1
102
}
330
3D1
100
AcDbXrecord
 10
0.0
 20
0.0
 30
0.0
  0
XRECORD
  5
3EC
102
{ACAD_REACTORS
330
3D1
102
}
330
3D1
100
AcDbXrecord
 10
0.0
 20
0.0
 30
0.0
  0
XRECORD
  5
3EF
102
{ACAD_REACTORS
330
3D1
102
}
330
3D1
100
AcDbXrecord
 10
0.0
 20
0.0
 30
0.0
  0
XRECORD
  5
3ED
102
{ACAD_REACTORS
330
3D1
102
}
330
3D1
100
AcDbXrecord
 10
0.0
 20
0.0
 30
0.0
  0
XRECORD
  5
3EE
102
{ACAD_REACTORS
330
3D1
102
}
330
3D1
100
AcDbXrecord
 10
0.0
 20
0.0
 30
0.0
  0
XRECORD
  5
3EB
102
{ACAD_REACTORS
330
3D1
102
}
330
3D1
100
AcDbXrecord
 10
0.0
 20
0.0
 30
0.0
  0
XRECORD
  5
3E8
102
{ACAD_REACTORS
330
3D1
102
}
330
3D1
100
AcDbXrecord
340
0
  0
XRECORD
  5
3E9
102
{ACAD_REACTORS
330
3D1
102
}
330
3D1
100
AcDbXrecord
 70
     0
  0
XRECORD
  5
3DD
102
{ACAD_REACTORS
330
3D1
102
}
330
3D1
100
AcDbXrecord
  1
{FAEB1C32-E019-11D5-929B-00C0DF256EC4}
  0
DICTIONARYVAR
  5
3FF
102
{ACAD_REACTORS
330
3F2
102
}
330
3F2
100
DictionaryVariables
280
     0
  1
1:1
  0
DICTIONARYVAR
  5
3F9
102
{ACAD_REACTORS
330
3F2
102
}
330
3F2
100
DictionaryVariables
280
     0
  1
3.500000
  0
DICTIONARYVAR
  5
3FA
102
{ACAD_REACTORS
330
3F2
102
}
330
3F2
100
DictionaryVariables
280
     0
  1
acadiso.lin
  0
DICTIONARYVAR
  5
3F4
102
{ACAD_REACTORS
330
3F2
102
}
330
3F2
100
DictionaryVariables
280
     0
  1
Standard
  0
DICTIONARYVAR
  5
3F3
102
{ACAD_REACTORS
330
3F2
102
}
330
3F2
100
DictionaryVariables
280
     0
  1
Standard
  0
DICTIONARYVAR
  5
3FB
102
{ACAD_REACTORS
330
3F2
102
}
330
3F2
100
DictionaryVariables
280
     0
  1
2
  0
DICTIONARYVAR
  5
3FC
102
{ACAD_REACTORS
330
3F2
102
}
330
3F2
100
DictionaryVariables
280
     0
  1
1
  0
DICTIONARYVAR
  5
400
102
{ACAD_REACTORS
330
3F2
102
}
330
3F2
100
DictionaryVariables
280
     0
  1
1
  0
DICTIONARYVAR
  5
3F6
102
{ACAD_REACTORS
330
3F2
102
}
330
3F2
100
DictionaryVariables
280
     0
  1
80.000000
  0
DICTIONARYVAR
  5
3F5
102
{ACAD_REACTORS
330
3F2
102
}
330
3F2
100
DictionaryVariables
280
     0
  1
5.000000
  0
DICTIONARY
  5
403
330
45
100
AcDbDictionary
280
     1
  3
ACAD_XREC_ROUNDTRIP
360
404
  0
DICTIONARY
  5
401
330
44
100
AcDbDictionary
280
     1
  3
ACAD_XREC_ROUNDTRIP
360
402
  0
DICTIONARY
  5
405
330
46
100
AcDbDictionary
280
     1
  3
ACAD_XREC_ROUNDTRIP
360
406
  0
XRECORD
  5
404
102
{ACAD_REACTORS
330
403
102
}
330
403
100
AcDbXrecord
102
MATERIAL
148
0.0
149
0.0
149
0.0
 93
        0
 94
      127
282
     0
 72
     1
 77
     1
171
     1
175
     1
179
     1
273
     0
  0
XRECORD
  5
402
102
{ACAD_REACTORS
330
401
102
}
330
401
100
AcDbXrecord
102
MATERIAL
148
0.0
149
0.0
149
0.0
 93
        0
 94
      127
282
     0
 72
     1
 77
     1
171
     1
175
     1
179
     1
273
     0
  0
XRECORD
  5
406
102
{ACAD_REACTORS
330
405
102
}
330
405
100
AcDbXrecord
102
MATERIAL
148
0.0
149
0.0
149
0.0
 93
        0
 94
      127
282
     0
 72
     1
 77
     1
171
     1
175
     1
179
     1
273
     0
  0
ENDSEC
  0
EOF
