  0
SECTION
  2
HEADER
  9
$ACADVER
  1
AC1014
  9
$ACADMAINTVER
 70
     9
  9
$DWGCODEPAGE
  3
ANSI_932
  9
$INSBASE
 10
0.0
 20
0.0
 30
0.0
  9
$EXTMIN
 10
40.0
 20
40.0
 30
0.0
  9
$EXTMAX
 10
1640.0
 20
1148.0
 30
0.0
  9
$LIMMIN
 10
0.0
 20
0.0
  9
$LIMMAX
 10
420.0
 20
297.0
  9
$ORTHOMODE
 70
     0
  9
$REGENMODE
 70
     1
  9
$FILLMODE
 70
     1
  9
$QTEXTMODE
 70
     0
  9
$MIRRTEXT
 70
     1
  9
$DRAGMODE
 70
     2
  9
$LTSCALE
 40
1.0
  9
$OSMODE
 70
    37
  9
$ATTMODE
 70
     1
  9
$TEXTSIZE
 40
2.5
  9
$TRACEWID
 40
1.0
  9
$TEXTSTYLE
  7
STANDARD
  9
$CLAYER
  8
Ｓ_１_１
  9
$CELTYPE
  6
BYLAYER
  9
$CECOLOR
 62
   256
  9
$CELTSCALE
 40
1.0
  9
$DELOBJ
 70
     1
  9
$DISPSILH
 70
     0
  9
$DIMSCALE
 40
1.0
  9
$DIMASZ
 40
2.5
  9
$DIMEXO
 40
0.625
  9
$DIMDLI
 40
3.75
  9
$DIMRND
 40
0.0
  9
$DIMDLE
 40
0.0
  9
$DIMEXE
 40
1.25
  9
$DIMTP
 40
0.0
  9
$DIMTM
 40
0.0
  9
$DIMTXT
 40
2.5
  9
$DIMCEN
 40
2.5
  9
$DIMTSZ
 40
0.0
  9
$DIMTOL
 70
     0
  9
$DIMLIM
 70
     0
  9
$DIMTIH
 70
     0
  9
$DIMTOH
 70
     0
  9
$DIMSE1
 70
     0
  9
$DIMSE2
 70
     0
  9
$DIMTAD
 70
     1
  9
$DIMZIN
 70
     8
  9
$DIMBLK
  1

  9
$DIMASO
 70
     1
  9
$DIMSHO
 70
     1
  9
$DIMPOST
  1

  9
$DIMAPOST
  1

  9
$DIMALT
 70
     0
  9
$DIMALTD
 70
     3
  9
$DIMALTF
 40
0.03937007874016
  9
$DIMLFAC
 40
1.0
  9
$DIMTOFL
 70
     1
  9
$DIMTVP
 40
0.0
  9
$DIMTIX
 70
     0
  9
$DIMSOXD
 70
     0
  9
$DIMSAH
 70
     0
  9
$DIMBLK1
  1

  9
$DIMBLK2
  1

  9
$DIMSTYLE
  2
ISO-25
  9
$DIMCLRD
 70
     0
  9
$DIMCLRE
 70
     0
  9
$DIMCLRT
 70
     0
  9
$DIMTFAC
 40
1.0
  9
$DIMGAP
 40
0.625
  9
$DIMJUST
 70
     0
  9
$DIMSD1
 70
     0
  9
$DIMSD2
 70
     0
  9
$DIMTOLJ
 70
     0
  9
$DIMTZIN
 70
     8
  9
$DIMALTZ
 70
     0
  9
$DIMALTTZ
 70
     0
  9
$DIMFIT
 70
     3
  9
$DIMUPT
 70
     0
  9
$DIMUNIT
 70
     2
  9
$DIMDEC
 70
     2
  9
$DIMTDEC
 70
     2
  9
$DIMALTU
 70
     2
  9
$DIMALTTD
 70
     3
  9
$DIMTXSTY
  7
STANDARD
  9
$DIMAUNIT
 70
     0
  9
$LUNITS
 70
     2
  9
$LUPREC
 70
     4
  9
$SKETCHINC
 40
1.0
  9
$FILLETRAD
 40
10.0
  9
$AUNITS
 70
     0
  9
$AUPREC
 70
     0
  9
$MENU
  1
.
  9
$ELEVATION
 40
0.0
  9
$PELEVATION
 40
0.0
  9
$THICKNESS
 40
0.0
  9
$LIMCHECK
 70
     0
  9
$CHAMFERA
 40
0.0
  9
$CHAMFERB
 40
0.0
  9
$CHAMFERC
 40
0.0
  9
$CHAMFERD
 40
0.0
  9
$SKPOLY
 70
     0
  9
$TDCREATE
 40
2459585.496268727
  9
$TDUPDATE
 40
2459585.496269375
  9
$TDINDWG
 40
0.0000000116
  9
$TDUSRTIMER
 40
0.0000000116
  9
$USRTIMER
 70
     1
  9
$ANGBASE
 50
0.0
  9
$ANGDIR
 70
     0
  9
$PDMODE
 70
     0
  9
$PDSIZE
 40
0.0
  9
$PLINEWID
 40
0.0
  9
$COORDS
 70
     1
  9
$SPLFRAME
 70
     0
  9
$SPLINETYPE
 70
     6
  9
$SPLINESEGS
 70
     8
  9
$ATTDIA
 70
     0
  9
$ATTREQ
 70
     1
  9
$HANDLING
 70
     1
  9
$HANDSEED
  5
3DC
  9
$SURFTAB1
 70
     6
  9
$SURFTAB2
 70
     6
  9
$SURFTYPE
 70
     6
  9
$SURFU
 70
     6
  9
$SURFV
 70
     6
  9
$UCSNAME
  2

  9
$UCSORG
 10
0.0
 20
0.0
 30
0.0
  9
$UCSXDIR
 10
1.0
 20
0.0
 30
0.0
  9
$UCSYDIR
 10
0.0
 20
1.0
 30
0.0
  9
$PUCSNAME
  2

  9
$PUCSORG
 10
0.0
 20
0.0
 30
0.0
  9
$PUCSXDIR
 10
1.0
 20
0.0
 30
0.0
  9
$PUCSYDIR
 10
0.0
 20
1.0
 30
0.0
  9
$USERI1
 70
     0
  9
$USERI2
 70
     0
  9
$USERI3
 70
     0
  9
$USERI4
 70
     0
  9
$USERI5
 70
     0
  9
$USERR1
 40
0.0
  9
$USERR2
 40
0.0
  9
$USERR3
 40
0.0
  9
$USERR4
 40
0.0
  9
$USERR5
 40
0.0
  9
$WORLDVIEW
 70
     1
  9
$SHADEDGE
 70
     3
  9
$SHADEDIF
 70
    70
  9
$TILEMODE
 70
     1
  9
$MAXACTVP
 70
    64
  9
$PINSBASE
 10
0.0
 20
0.0
 30
0.0
  9
$PLIMCHECK
 70
     0
  9
$PEXTMIN
 10
1.000000000000000E+20
 20
1.000000000000000E+20
 30
1.000000000000000E+20
  9
$PEXTMAX
 10
-1.000000000000000E+20
 20
-1.000000000000000E+20
 30
-1.000000000000000E+20
  9
$PLIMMIN
 10
0.0
 20
0.0
  9
$PLIMMAX
 10
420.0
 20
297.0
  9
$UNITMODE
 70
     0
  9
$VISRETAIN
 70
     1
  9
$PLINEGEN
 70
     0
  9
$PSLTSCALE
 70
     1
  9
$TREEDEPTH
 70
  3020
  9
$PICKSTYLE
 70
     1
  9
$CMLSTYLE
  2
STANDARD
  9
$CMLJUST
 70
     0
  9
$CMLSCALE
 40
20.0
  9
$PROXYGRAPHICS
 70
     1
  9
$MEASUREMENT
 70
     1
  0
ENDSEC
  0
SECTION
  2
CLASSES
  0
CLASS
  1
ACDBDICTIONARYWDFLT
  2
AcDbDictionaryWithDefault
  3
ObjectDBX Classes
 90
        0
280
     0
281
     0
  0
CLASS
  1
VISUALSTYLE
  2
AcDbVisualStyle
  3
ObjectDBX Classes
 90
     4095
280
     0
281
     0
  0
CLASS
  1
MATERIAL
  2
AcDbMaterial
  3
ObjectDBX Classes
 90
     1153
280
     0
281
     0
  0
CLASS
  1
SCALE
  2
AcDbScale
  3
ObjectDBX Classes
 90
     1153
280
     0
281
     0
  0
CLASS
  1
TABLESTYLE
  2
AcDbTableStyle
  3
ObjectDBX Classes
 90
     4095
280
     0
281
     0
  0
CLASS
  1
MLEADERSTYLE
  2
AcDbMLeaderStyle
  3
ACDB_MLEADERSTYLE_CLASS
 90
     4095
280
     0
281
     0
  0
CLASS
  1
SUN
  2
AcDbSun
  3
SCENEOE
 90
     1153
280
     0
281
     0
  0
CLASS
  1
DICTIONARYVAR
  2
AcDbDictionaryVar
  3
ObjectDBX Classes
 90
        0
280
     0
281
     0
  0
CLASS
  1
XRECORD
  2
AcDbXrecord
  3
ObjectDBX Classes
 90
        0
280
     0
281
     0
  0
CLASS
  1
LWPOLYLINE
  2
AcDbPolyline
  3
ObjectDBX Classes
 90
        0
280
     0
281
     1
  0
CLASS
  1
HATCH
  2
AcDbHatch
  3
ObjectDBX Classes
 90
        0
280
     0
281
     1
  0
CLASS
  1
ACDBPLACEHOLDER
  2
AcDbPlaceHolder
  3
ObjectDBX Classes
 90
        0
280
     0
281
     0
  0
CLASS
  1
LAYOUT
  2
AcDbLayout
  3
ObjectDBX Classes
 90
        0
280
     0
281
     0
  0
ENDSEC
  0
SECTION
  2
TABLES
  0
TABLE
  2
VPORT
  5
8
102
{ACAD_XDICTIONARY
360
3D1
102
}
330
0
100
AcDbSymbolTable
 70
     1
  0
VPORT
  5
29
330
8
100
AcDbSymbolTableRecord
100
AcDbViewportTableRecord
  2
*ACTIVE
 70
     0
 10
0.0
 20
0.0
 11
1.0
 21
1.0
 12
840.0
 22
594.0
 13
0.0
 23
0.0
 14
10.0
 24
10.0
 15
10.0
 25
10.0
 16
0.0
 26
0.0
 36
1.0
 17
0.0
 27
0.0
 37
0.0
 40
1108.0
 41
1.444043321299639
 42
50.0
 43
0.0
 44
0.0
 50
0.0
 51
0.0
 71
     0
 72
  1000
 73
     1
 74
     3
 75
     0
 76
     0
 77
     0
 78
     0
  0
ENDTAB
  0
TABLE
  2
LTYPE
  5
5
330
0
100
AcDbSymbolTable
 70
     7
  0
LTYPE
  5
14
330
5
100
AcDbSymbolTableRecord
100
AcDbLinetypeTableRecord
  2
BYBLOCK
 70
     0
  3

 72
    65
 73
     0
 40
0.0
  0
LTYPE
  5
15
330
5
100
AcDbSymbolTableRecord
100
AcDbLinetypeTableRecord
  2
BYLAYER
 70
     0
  3

 72
    65
 73
     0
 40
0.0
  0
LTYPE
  5
16
330
5
100
AcDbSymbolTableRecord
100
AcDbLinetypeTableRecord
  2
CONTINUOUS
 70
     0
  3
Solid line
 72
    65
 73
     0
 40
0.0
  0
LTYPE
  5
6E
330
5
100
AcDbSymbolTableRecord
100
AcDbLinetypeTableRecord
  2
EXLTYPE0
 70
     0
  3
破線
 72
    65
 73
     2
 40
4.0
 49
3.0
 74
     0
 49
-1.0
 74
     0
  0
LTYPE
  5
6F
330
5
100
AcDbSymbolTableRecord
100
AcDbLinetypeTableRecord
  2
EXLTYPE1
 70
     0
  3
点線
 72
    65
 73
     2
 40
2.0
 49
1.0
 74
     0
 49
-1.0
 74
     0
  0
LTYPE
  5
70
330
5
100
AcDbSymbolTableRecord
100
AcDbLinetypeTableRecord
  2
EXLTYPE2
 70
     0
  3
一点鎖線
 72
    65
 73
     4
 40
13.0
 49
10.0
 74
     0
 49
-1.0
 74
     0
 49
1.0
 74
     0
 49
-1.0
 74
     0
  0
LTYPE
  5
71
330
5
100
AcDbSymbolTableRecord
100
AcDbLinetypeTableRecord
  2
EXLTYPE3
 70
     0
  3
二点鎖線
 72
    65
 73
     6
 40
15.0
 49
10.0
 74
     0
 49
-1.0
 74
     0
 49
1.0
 74
     0
 49
-1.0
 74
     0
 49
1.0
 74
     0
 49
-1.0
 74
     0
  0
LTYPE
  5
72
330
5
100
AcDbSymbolTableRecord
100
AcDbLinetypeTableRecord
  2
EXLTYPE4
 70
     0
  3
一点鎖線2
 72
    65
 73
     4
 40
3.5
 49
2.0
 74
     0
 49
-0.5
 74
     0
 49
0.5
 74
     0
 49
-0.5
 74
     0
  0
LTYPE
  5
73
330
5
100
AcDbSymbolTableRecord
100
AcDbLinetypeTableRecord
  2
EXLTYPE5
 70
     0
  3
二点鎖線2
 72
    65
 73
     6
 40
4.5
 49
2.0
 74
     0
 49
-0.5
 74
     0
 49
0.5
 74
     0
 49
-0.5
 74
     0
 49
0.5
 74
     0
 49
-0.5
 74
     0
  0
ENDTAB
  0
TABLE
  2
LAYER
  5
2
330
0
100
AcDbSymbolTable
 70
     4
  0
LAYER
  5
10
330
2
100
AcDbSymbolTableRecord
100
AcDbLayerTableRecord
  2
0
 70
     0
 62
     7
  6
CONTINUOUS
  0
LAYER
  5
76
330
2
100
AcDbSymbolTableRecord
100
AcDbLayerTableRecord
  2
図面枠
 70
     4
 62
     7
  6
CONTINUOUS
  0
LAYER
  5
77
330
2
100
AcDbSymbolTableRecord
100
AcDbLayerTableRecord
  2
Ｓ_１_１
 70
     0
 62
     7
  6
CONTINUOUS
  0
LAYER
  5
115
330
2
100
AcDbSymbolTableRecord
100
AcDbLayerTableRecord
  2
DEFPOINTS
 70
     0
 62
     7
  6
CONTINUOUS
  0
ENDTAB
  0
TABLE
  2
STYLE
  5
3
330
0
100
AcDbSymbolTable
 70
     5
  0
STYLE
  5
11
330
3
100
AcDbSymbolTableRecord
100
AcDbTextStyleTableRecord
  2
STANDARD
 70
     0
 40
0.0
 41
1.0
 50
0.0
 71
     0
 42
2.5
  3
monotxt
  4
extfont
  0
STYLE
  5
74
330
3
100
AcDbSymbolTableRecord
100
AcDbTextStyleTableRecord
  2
EXCADSTD
 70
     0
 40
0.0
 41
1.0
 50
0.0
 71
     0
 42
2.5
  3
monotxt
  4
extfont
  0
STYLE
  5
75
330
3
100
AcDbSymbolTableRecord
100
AcDbTextStyleTableRecord
  2
EXCADVERT
 70
     4
 40
0.0
 41
1.0
 50
0.0
 71
     0
 42
2.5
  3
monotxt
  4
extfont
  0
STYLE
  5
D8
330
3
100
AcDbSymbolTableRecord
100
AcDbTextStyleTableRecord
  2
EXCADTTF1
 70
     0
 40
0.0
 41
1.0
 50
0.0
 71
     0
 42
2.5
  3
msgothic.ttc
  4

1001
ACAD
1000
MS Gothic
1071
    32817
  0
STYLE
  5
113
330
3
100
AcDbSymbolTableRecord
100
AcDbTextStyleTableRecord
  2
EXCADDIM1
 70
     0
 40
0.0
 41
1.0
 50
0.0
 71
     0
 42
2.5
  3
msgothic.ttc
  4

1001
ACAD
1000
MS Gothic
1071
    32817
  0
ENDTAB
  0
TABLE
  2
VIEW
  5
6
330
0
100
AcDbSymbolTable
 70
     0
  0
ENDTAB
  0
TABLE
  2
UCS
  5
7
330
0
100
AcDbSymbolTable
 70
     0
  0
ENDTAB
  0
TABLE
  2
APPID
  5
9
330
0
100
AcDbSymbolTable
 70
     2
  0
APPID
  5
12
330
9
100
AcDbSymbolTableRecord
100
AcDbRegAppTableRecord
  2
ACAD
 70
     0
  0
APPID
  5
3DB
330
9
100
AcDbSymbolTableRecord
100
AcDbRegAppTableRecord
  2
ACAD_MLEADERVER
 70
     0
  0
ENDTAB
  0
TABLE
  2
DIMSTYLE
  5
A
330
0
100
AcDbSymbolTable
 70
     1
  0
DIMSTYLE
105
27
102
{ACAD_REACTORS
330
114
330
122
330
12D
330
13A
330
146
330
153
330
160
330
16B
330
17A
330
186
330
191
330
19E
330
1AB
102
}
330
A
100
AcDbSymbolTableRecord
100
AcDbDimStyleTableRecord
  2
ISO-25
 70
     0
  3

  4

  5

  6

  7

 40
1.0
 41
2.5
 42
0.625
 43
3.75
 44
1.25
 45
0.0
 46
0.0
 47
0.0
 48
0.0
140
2.5
141
2.5
142
0.0
143
0.03937007874016
144
1.0
145
0.0
146
1.0
147
0.625
 71
     0
 72
     0
 73
     0
 74
     0
 75
     0
 76
     0
 77
     1
 78
     8
170
     0
171
     3
172
     1
173
     0
174
     0
175
     0
176
     0
177
     0
178
     0
270
     2
271
     2
272
     2
273
     2
274
     3
340
11
275
     0
280
     0
281
     0
282
     0
283
     0
284
     8
285
     0
286
     0
287
     5
288
     0
  0
ENDTAB
  0
TABLE
  2
BLOCK_RECORD
  5
1
330
0
100
AcDbSymbolTable
 70
    27
  0
BLOCK_RECORD
  5
1F
330
1
100
AcDbSymbolTableRecord
100
AcDbBlockTableRecord
  2
*MODEL_SPACE
  0
BLOCK_RECORD
  5
1B
330
1
100
AcDbSymbolTableRecord
100
AcDbBlockTableRecord
  2
*PAPER_SPACE
  0
BLOCK_RECORD
  5
78
330
1
100
AcDbSymbolTableRecord
100
AcDbBlockTableRecord
  2
EX_NORM
  0
BLOCK_RECORD
  5
7B
330
1
100
AcDbSymbolTableRecord
100
AcDbBlockTableRecord
  2
EX_BNORM
  0
BLOCK_RECORD
  5
7E
330
1
100
AcDbSymbolTableRecord
100
AcDbBlockTableRecord
  2
EX_BCIR
  0
BLOCK_RECORD
  5
81
330
1
100
AcDbSymbolTableRecord
100
AcDbBlockTableRecord
  2
EX_RCIVIL
  0
BLOCK_RECORD
  5
84
330
1
100
AcDbSymbolTableRecord
100
AcDbBlockTableRecord
  2
EX_SLANT
  0
BLOCK_RECORD
  5
87
330
1
100
AcDbSymbolTableRecord
100
AcDbBlockTableRecord
  2
EX_NONE
  0
BLOCK_RECORD
  5
8A
330
1
100
AcDbSymbolTableRecord
100
AcDbBlockTableRecord
  2
EX_CIVIL
  0
BLOCK_RECORD
  5
8D
330
1
100
AcDbSymbolTableRecord
100
AcDbBlockTableRecord
  2
EX_WCIR
  0
BLOCK_RECORD
  5
90
330
1
100
AcDbSymbolTableRecord
100
AcDbBlockTableRecord
  2
EX_WCIR2
  0
BLOCK_RECORD
  5
93
330
1
100
AcDbSymbolTableRecord
100
AcDbBlockTableRecord
  2
EX_WNORM
  0
BLOCK_RECORD
  5
96
330
1
100
AcDbSymbolTableRecord
100
AcDbBlockTableRecord
  2
EX_NNORM
  0
BLOCK_RECORD
  5
99
330
1
100
AcDbSymbolTableRecord
100
AcDbBlockTableRecord
  2
EX_BBOX
  0
BLOCK_RECORD
  5
9C
330
1
100
AcDbSymbolTableRecord
100
AcDbBlockTableRecord
  2
EX_WBOX
  0
BLOCK_RECORD
  5
9F
330
1
100
AcDbSymbolTableRecord
100
AcDbBlockTableRecord
  2
EX_INTEGRAL
  0
BLOCK_RECORD
  5
116
330
1
100
AcDbSymbolTableRecord
100
AcDbBlockTableRecord
  2
*D15
  0
BLOCK_RECORD
  5
123
330
1
100
AcDbSymbolTableRecord
100
AcDbBlockTableRecord
  2
*D16
  0
BLOCK_RECORD
  5
12E
330
1
100
AcDbSymbolTableRecord
100
AcDbBlockTableRecord
  2
*D17
  0
BLOCK_RECORD
  5
13B
330
1
100
AcDbSymbolTableRecord
100
AcDbBlockTableRecord
  2
*D18
  0
BLOCK_RECORD
  5
147
330
1
100
AcDbSymbolTableRecord
100
AcDbBlockTableRecord
  2
*D19
  0
BLOCK_RECORD
  5
154
330
1
100
AcDbSymbolTableRecord
100
AcDbBlockTableRecord
  2
*D20
  0
BLOCK_RECORD
  5
161
330
1
100
AcDbSymbolTableRecord
100
AcDbBlockTableRecord
  2
*D21
  0
BLOCK_RECORD
  5
16C
330
1
100
AcDbSymbolTableRecord
100
AcDbBlockTableRecord
  2
*D22
  0
BLOCK_RECORD
  5
17B
330
1
100
AcDbSymbolTableRecord
100
AcDbBlockTableRecord
  2
*D23
  0
BLOCK_RECORD
  5
187
330
1
100
AcDbSymbolTableRecord
100
AcDbBlockTableRecord
  2
*D24
  0
BLOCK_RECORD
  5
192
330
1
100
AcDbSymbolTableRecord
100
AcDbBlockTableRecord
  2
*D25
  0
BLOCK_RECORD
  5
19F
330
1
100
AcDbSymbolTableRecord
100
AcDbBlockTableRecord
  2
*D26
  0
BLOCK_RECORD
  5
1AC
330
1
100
AcDbSymbolTableRecord
100
AcDbBlockTableRecord
  2
*D27
  0
ENDTAB
  0
ENDSEC
  0
SECTION
  2
BLOCKS
  0
BLOCK
  5
20
330
1F
100
AcDbEntity
  8
0
100
AcDbBlockBegin
  2
*MODEL_SPACE
 70
     0
 10
0.0
 20
0.0
 30
0.0
  3
*MODEL_SPACE
  1

  0
ENDBLK
  5
21
330
1F
100
AcDbEntity
  8
0
100
AcDbBlockEnd
  0
BLOCK
  5
1C
330
1B
100
AcDbEntity
 67
     1
  8
0
100
AcDbBlockBegin
  2
*PAPER_SPACE
 70
     0
 10
0.0
 20
0.0
 30
0.0
  3
*PAPER_SPACE
  1

  0
ENDBLK
  5
1D
330
1B
100
AcDbEntity
 67
     1
  8
0
100
AcDbBlockEnd
  0
BLOCK
  5
79
330
78
100
AcDbEntity
  8
0
100
AcDbBlockBegin
  2
EX_NORM
 70
     0
 10
0.0
 20
0.0
 30
0.0
  3
EX_NORM
  1

  0
LINE
  5
A2
330
78
100
AcDbEntity
  8
0
  6
CONTINUOUS
 62
     0
100
AcDbLine
 10
0.0
 20
0.0
 30
0.0
 11
-1.0
 21
0.0
 31
0.0
  0
LINE
  5
A3
330
78
100
AcDbEntity
  8
0
  6
CONTINUOUS
 62
     0
100
AcDbLine
 10
0.0
 20
0.0
 30
0.0
 11
-1.0
 21
0.166666667
 31
0.0
  0
LINE
  5
A4
330
78
100
AcDbEntity
  8
0
  6
CONTINUOUS
 62
     0
100
AcDbLine
 10
0.0
 20
0.0
 30
0.0
 11
-1.0
 21
-0.166666667
 31
0.0
  0
ENDBLK
  5
7A
330
78
100
AcDbEntity
  8
0
100
AcDbBlockEnd
  0
BLOCK
  5
7C
330
7B
100
AcDbEntity
  8
0
100
AcDbBlockBegin
  2
EX_BNORM
 70
     0
 10
0.0
 20
0.0
 30
0.0
  3
EX_BNORM
  1

  0
LINE
  5
A5
330
7B
100
AcDbEntity
  8
0
  6
CONTINUOUS
 62
     0
100
AcDbLine
 10
0.0
 20
0.0
 30
0.0
 11
-1.0
 21
0.0
 31
0.0
  0
LINE
  5
A6
330
7B
100
AcDbEntity
  8
0
  6
CONTINUOUS
 62
     0
100
AcDbLine
 10
0.0
 20
0.0
 30
0.0
 11
-1.0
 21
0.166666667
 31
0.0
  0
LINE
  5
A7
330
7B
100
AcDbEntity
  8
0
  6
CONTINUOUS
 62
     0
100
AcDbLine
 10
0.0
 20
0.0
 30
0.0
 11
-1.0
 21
-0.166666667
 31
0.0
  0
LINE
  5
A8
330
7B
100
AcDbEntity
  8
0
  6
CONTINUOUS
 62
     0
100
AcDbLine
 10
0.0
 20
0.0
 30
0.0
 11
-1.0
 21
0.083333333
 31
0.0
  0
LINE
  5
A9
330
7B
100
AcDbEntity
  8
0
  6
CONTINUOUS
 62
     0
100
AcDbLine
 10
0.0
 20
0.0
 30
0.0
 11
-1.0
 21
-0.083333333
 31
0.0
  0
LINE
  5
AA
330
7B
100
AcDbEntity
  8
0
  6
CONTINUOUS
 62
     0
100
AcDbLine
 10
-1.0
 20
0.166666667
 30
0.0
 11
-1.0
 21
-0.166666667
 31
0.0
  0
ENDBLK
  5
7D
330
7B
100
AcDbEntity
  8
0
100
AcDbBlockEnd
  0
BLOCK
  5
7F
330
7E
100
AcDbEntity
  8
0
100
AcDbBlockBegin
  2
EX_BCIR
 70
     0
 10
0.0
 20
0.0
 30
0.0
  3
EX_BCIR
  1

  0
LINE
  5
AB
330
7E
100
AcDbEntity
  8
0
  6
CONTINUOUS
 62
     0
100
AcDbLine
 10
0.0
 20
0.0
 30
0.0
 11
-1.0
 21
0.0
 31
0.0
  0
CIRCLE
  5
AC
330
7E
100
AcDbEntity
  8
0
  6
CONTINUOUS
 62
     0
100
AcDbCircle
 10
0.0
 20
0.0
 30
0.0
 40
0.5
  0
CIRCLE
  5
AD
330
7E
100
AcDbEntity
  8
0
  6
CONTINUOUS
 62
     0
100
AcDbCircle
 10
0.0
 20
0.0
 30
0.0
 40
0.25
  0
ENDBLK
  5
80
330
7E
100
AcDbEntity
  8
0
100
AcDbBlockEnd
  0
BLOCK
  5
82
330
81
100
AcDbEntity
  8
0
100
AcDbBlockBegin
  2
EX_RCIVIL
 70
     0
 10
0.0
 20
0.0
 30
0.0
  3
EX_RCIVIL
  1

  0
LINE
  5
AE
330
81
100
AcDbEntity
  8
0
  6
CONTINUOUS
 62
     0
100
AcDbLine
 10
0.0
 20
0.0
 30
0.0
 11
-1.0
 21
0.0
 31
0.0
  0
LINE
  5
AF
330
81
100
AcDbEntity
  8
0
  6
CONTINUOUS
 62
     0
100
AcDbLine
 10
-1.0
 20
-0.25
 30
0.0
 11
0.0
 21
-0.25
 31
0.0
  0
LINE
  5
B0
330
81
100
AcDbEntity
  8
0
  6
CONTINUOUS
 62
     0
100
AcDbLine
 10
-1.0
 20
-0.125
 30
0.0
 11
0.0
 21
-0.125
 31
0.0
  0
ENDBLK
  5
83
330
81
100
AcDbEntity
  8
0
100
AcDbBlockEnd
  0
BLOCK
  5
85
330
84
100
AcDbEntity
  8
0
100
AcDbBlockBegin
  2
EX_SLANT
 70
     0
 10
0.0
 20
0.0
 30
0.0
  3
EX_SLANT
  1

  0
LINE
  5
B1
330
84
100
AcDbEntity
  8
0
  6
CONTINUOUS
 62
     0
100
AcDbLine
 10
0.0
 20
0.0
 30
0.0
 11
-1.0
 21
0.0
 31
0.0
  0
LINE
  5
B2
330
84
100
AcDbEntity
  8
0
  6
CONTINUOUS
 62
     0
100
AcDbLine
 10
0.707106781
 20
0.707106781
 30
0.0
 11
-0.707106781
 21
-0.707106781
 31
0.0
  0
ENDBLK
  5
86
330
84
100
AcDbEntity
  8
0
100
AcDbBlockEnd
  0
BLOCK
  5
88
330
87
100
AcDbEntity
  8
0
100
AcDbBlockBegin
  2
EX_NONE
 70
     0
 10
0.0
 20
0.0
 30
0.0
  3
EX_NONE
  1

  0
LINE
  5
B3
330
87
100
AcDbEntity
  8
0
  6
CONTINUOUS
 62
     0
100
AcDbLine
 10
0.0
 20
0.0
 30
0.0
 11
-1.0
 21
0.0
 31
0.0
  0
ENDBLK
  5
89
330
87
100
AcDbEntity
  8
0
100
AcDbBlockEnd
  0
BLOCK
  5
8B
330
8A
100
AcDbEntity
  8
0
100
AcDbBlockBegin
  2
EX_CIVIL
 70
     0
 10
0.0
 20
0.0
 30
0.0
  3
EX_CIVIL
  1

  0
LINE
  5
B4
330
8A
100
AcDbEntity
  8
0
  6
CONTINUOUS
 62
     0
100
AcDbLine
 10
0.0
 20
0.0
 30
0.0
 11
-1.0
 21
0.0
 31
0.0
  0
LINE
  5
B5
330
8A
100
AcDbEntity
  8
0
  6
CONTINUOUS
 62
     0
100
AcDbLine
 10
-1.0
 20
0.25
 30
0.0
 11
0.0
 21
0.25
 31
0.0
  0
LINE
  5
B6
330
8A
100
AcDbEntity
  8
0
  6
CONTINUOUS
 62
     0
100
AcDbLine
 10
-1.0
 20
0.125
 30
0.0
 11
0.0
 21
0.125
 31
0.0
  0
ENDBLK
  5
8C
330
8A
100
AcDbEntity
  8
0
100
AcDbBlockEnd
  0
BLOCK
  5
8E
330
8D
100
AcDbEntity
  8
0
100
AcDbBlockBegin
  2
EX_WCIR
 70
     0
 10
0.0
 20
0.0
 30
0.0
  3
EX_WCIR
  1

  0
LINE
  5
B7
330
8D
100
AcDbEntity
  8
0
  6
CONTINUOUS
 62
     0
100
AcDbLine
 10
0.0
 20
0.0
 30
0.0
 11
-1.0
 21
0.0
 31
0.0
  0
CIRCLE
  5
B8
330
8D
100
AcDbEntity
  8
0
  6
CONTINUOUS
 62
     0
100
AcDbCircle
 10
0.0
 20
0.0
 30
0.0
 40
0.5
  0
ENDBLK
  5
8F
330
8D
100
AcDbEntity
  8
0
100
AcDbBlockEnd
  0
BLOCK
  5
91
330
90
100
AcDbEntity
  8
0
100
AcDbBlockBegin
  2
EX_WCIR2
 70
     0
 10
0.0
 20
0.0
 30
0.0
  3
EX_WCIR2
  1

  0
LINE
  5
B9
330
90
100
AcDbEntity
  8
0
  6
CONTINUOUS
 62
     0
100
AcDbLine
 10
-0.5
 20
0.0
 30
0.0
 11
-1.0
 21
0.0
 31
0.0
  0
CIRCLE
  5
BA
330
90
100
AcDbEntity
  8
0
  6
CONTINUOUS
 62
     0
100
AcDbCircle
 10
0.0
 20
0.0
 30
0.0
 40
0.5
  0
ENDBLK
  5
92
330
90
100
AcDbEntity
  8
0
100
AcDbBlockEnd
  0
BLOCK
  5
94
330
93
100
AcDbEntity
  8
0
100
AcDbBlockBegin
  2
EX_WNORM
 70
     0
 10
0.0
 20
0.0
 30
0.0
  3
EX_WNORM
  1

  0
LINE
  5
BB
330
93
100
AcDbEntity
  8
0
  6
CONTINUOUS
 62
     0
100
AcDbLine
 10
-1.0
 20
0.0
 30
0.0
 11
-1.0
 21
0.0
 31
0.0
  0
LINE
  5
BC
330
93
100
AcDbEntity
  8
0
  6
CONTINUOUS
 62
     0
100
AcDbLine
 10
0.0
 20
0.0
 30
0.0
 11
-1.0
 21
0.166666667
 31
0.0
  0
LINE
  5
BD
330
93
100
AcDbEntity
  8
0
  6
CONTINUOUS
 62
     0
100
AcDbLine
 10
0.0
 20
0.0
 30
0.0
 11
-1.0
 21
-0.166666667
 31
0.0
  0
LINE
  5
BE
330
93
100
AcDbEntity
  8
0
  6
CONTINUOUS
 62
     0
100
AcDbLine
 10
-1.0
 20
0.166666667
 30
0.0
 11
-1.0
 21
-0.166666667
 31
0.0
  0
ENDBLK
  5
95
330
93
100
AcDbEntity
  8
0
100
AcDbBlockEnd
  0
BLOCK
  5
97
330
96
100
AcDbEntity
  8
0
100
AcDbBlockBegin
  2
EX_NNORM
 70
     0
 10
0.0
 20
0.0
 30
0.0
  3
EX_NNORM
  1

  0
LINE
  5
BF
330
96
100
AcDbEntity
  8
0
  6
CONTINUOUS
 62
     0
100
AcDbLine
 10
0.0
 20
0.0
 30
0.0
 11
-1.0
 21
0.0
 31
0.0
  0
LINE
  5
C0
330
96
100
AcDbEntity
  8
0
  6
CONTINUOUS
 62
     0
100
AcDbLine
 10
0.0
 20
0.0
 30
0.0
 11
-1.0
 21
0.166666667
 31
0.0
  0
LINE
  5
C1
330
96
100
AcDbEntity
  8
0
  6
CONTINUOUS
 62
     0
100
AcDbLine
 10
0.0
 20
0.0
 30
0.0
 11
-1.0
 21
-0.166666667
 31
0.0
  0
LINE
  5
C2
330
96
100
AcDbEntity
  8
0
  6
CONTINUOUS
 62
     0
100
AcDbLine
 10
-1.0
 20
0.166666667
 30
0.0
 11
-1.0
 21
-0.166666667
 31
0.0
  0
ENDBLK
  5
98
330
96
100
AcDbEntity
  8
0
100
AcDbBlockEnd
  0
BLOCK
  5
9A
330
99
100
AcDbEntity
  8
0
100
AcDbBlockBegin
  2
EX_BBOX
 70
     0
 10
0.0
 20
0.0
 30
0.0
  3
EX_BBOX
  1

  0
LINE
  5
C3
330
99
100
AcDbEntity
  8
0
  6
CONTINUOUS
 62
     0
100
AcDbLine
 10
0.0
 20
0.0
 30
0.0
 11
-1.0
 21
0.0
 31
0.0
  0
LINE
  5
C4
330
99
100
AcDbEntity
  8
0
  6
CONTINUOUS
 62
     0
100
AcDbLine
 10
-0.5
 20
0.5
 30
0.0
 11
0.5
 21
0.5
 31
0.0
  0
LINE
  5
C5
330
99
100
AcDbEntity
  8
0
  6
CONTINUOUS
 62
     0
100
AcDbLine
 10
0.5
 20
0.5
 30
0.0
 11
0.5
 21
-0.5
 31
0.0
  0
LINE
  5
C6
330
99
100
AcDbEntity
  8
0
  6
CONTINUOUS
 62
     0
100
AcDbLine
 10
0.5
 20
-0.5
 30
0.0
 11
-0.5
 21
-0.5
 31
0.0
  0
LINE
  5
C7
330
99
100
AcDbEntity
  8
0
  6
CONTINUOUS
 62
     0
100
AcDbLine
 10
-0.5
 20
-0.5
 30
0.0
 11
-0.5
 21
0.5
 31
0.0
  0
LINE
  5
C8
330
99
100
AcDbEntity
  8
0
  6
CONTINUOUS
 62
     0
100
AcDbLine
 10
-0.25
 20
0.25
 30
0.0
 11
0.25
 21
0.25
 31
0.0
  0
LINE
  5
C9
330
99
100
AcDbEntity
  8
0
  6
CONTINUOUS
 62
     0
100
AcDbLine
 10
0.25
 20
0.25
 30
0.0
 11
0.25
 21
-0.25
 31
0.0
  0
LINE
  5
CA
330
99
100
AcDbEntity
  8
0
  6
CONTINUOUS
 62
     0
100
AcDbLine
 10
0.25
 20
-0.25
 30
0.0
 11
-0.25
 21
-0.25
 31
0.0
  0
LINE
  5
CB
330
99
100
AcDbEntity
  8
0
  6
CONTINUOUS
 62
     0
100
AcDbLine
 10
-0.25
 20
-0.25
 30
0.0
 11
-0.25
 21
0.25
 31
0.0
  0
ENDBLK
  5
9B
330
99
100
AcDbEntity
  8
0
100
AcDbBlockEnd
  0
BLOCK
  5
9D
330
9C
100
AcDbEntity
  8
0
100
AcDbBlockBegin
  2
EX_WBOX
 70
     0
 10
0.0
 20
0.0
 30
0.0
  3
EX_WBOX
  1

  0
LINE
  5
CC
330
9C
100
AcDbEntity
  8
0
  6
CONTINUOUS
 62
     0
100
AcDbLine
 10
-0.5
 20
0.0
 30
0.0
 11
-1.0
 21
0.0
 31
0.0
  0
LINE
  5
CD
330
9C
100
AcDbEntity
  8
0
  6
CONTINUOUS
 62
     0
100
AcDbLine
 10
-0.5
 20
0.5
 30
0.0
 11
0.5
 21
0.5
 31
0.0
  0
LINE
  5
CE
330
9C
100
AcDbEntity
  8
0
  6
CONTINUOUS
 62
     0
100
AcDbLine
 10
0.5
 20
0.5
 30
0.0
 11
0.5
 21
-0.5
 31
0.0
  0
LINE
  5
CF
330
9C
100
AcDbEntity
  8
0
  6
CONTINUOUS
 62
     0
100
AcDbLine
 10
0.5
 20
-0.5
 30
0.0
 11
-0.5
 21
-0.5
 31
0.0
  0
LINE
  5
D0
330
9C
100
AcDbEntity
  8
0
  6
CONTINUOUS
 62
     0
100
AcDbLine
 10
-0.5
 20
-0.5
 30
0.0
 11
-0.5
 21
0.5
 31
0.0
  0
ENDBLK
  5
9E
330
9C
100
AcDbEntity
  8
0
100
AcDbBlockEnd
  0
BLOCK
  5
A0
330
9F
100
AcDbEntity
  8
0
100
AcDbBlockBegin
  2
EX_INTEGRAL
 70
     0
 10
0.0
 20
0.0
 30
0.0
  3
EX_INTEGRAL
  1

  0
LINE
  5
D1
330
9F
100
AcDbEntity
  8
0
  6
CONTINUOUS
 62
     0
100
AcDbLine
 10
0.0
 20
0.0
 30
0.0
 11
-1.0
 21
0.0
 31
0.0
  0
ARC
  5
D2
330
9F
100
AcDbEntity
  8
0
  6
CONTINUOUS
 62
     0
100
AcDbCircle
 10
0.542115
 20
0.164992
 30
0.0
 40
0.56667
100
AcDbArc
 50
73.07249033629006
 51
196.9275130221199
  0
ARC
  5
D3
330
9F
100
AcDbEntity
  8
0
  6
CONTINUOUS
 62
     0
100
AcDbCircle
 10
-0.542115
 20
-0.164992
 30
0.0
 40
0.56667
100
AcDbArc
 50
253.0724869220464
 51
16.9275130559125
  0
ENDBLK
  5
A1
330
9F
100
AcDbEntity
  8
0
100
AcDbBlockEnd
  0
BLOCK
  5
117
330
116
100
AcDbEntity
  8
0
100
AcDbBlockBegin
  2
*D15
 70
     1
 10
0.0
 20
0.0
 30
0.0
  3
*D15
  1

  0
LINE
  5
119
330
116
100
AcDbEntity
  8
Ｓ_１_１
  6
CONTINUOUS
 62
     2
100
AcDbLine
 10
1350.0
 20
661.500009
 30
0.0
 11
1350.0
 21
779.0
 31
0.0
  0
LINE
  5
11A
330
116
100
AcDbEntity
  8
Ｓ_１_１
  6
CONTINUOUS
 62
     2
100
AcDbLine
 10
1235.00003
 20
735.431543
 30
0.0
 11
1235.00003
 21
779.0
 31
0.0
  0
LINE
  5
11B
330
116
100
AcDbEntity
  8
Ｓ_１_１
  6
CONTINUOUS
 62
     2
100
AcDbLine
 10
1338.0
 20
775.0
 30
0.0
 11
1247.00003
 21
775.0
 31
0.0
  0
INSERT
  5
11C
330
116
100
AcDbEntity
  8
Ｓ_１_１
 62
     2
100
AcDbBlockReference
  2
EX_NORM
 10
1350.0
 20
775.0
 30
0.0
 41
12.0
 42
12.0
 43
12.0
  0
INSERT
  5
11D
330
116
100
AcDbEntity
  8
Ｓ_１_１
 62
     2
100
AcDbBlockReference
  2
EX_NORM
 10
1235.00003
 20
775.0
 30
0.0
 41
12.0
 42
12.0
 43
12.0
 50
180.0
  0
MTEXT
  5
11E
330
116
100
AcDbEntity
  8
Ｓ_１_１
 62
     2
100
AcDbMText
 10
1292.500015
 20
786.0
 30
0.0
 40
13.85161662817552
 41
0.0
 71
     5
 72
     1
  1
115
  7
EXCADDIM1
  0
POINT
  5
11F
330
116
100
AcDbEntity
  8
DEFPOINTS
 62
     0
100
AcDbPoint
 10
1350.0
 20
655.500009
 30
0.0
  0
POINT
  5
120
330
116
100
AcDbEntity
  8
DEFPOINTS
 62
     0
100
AcDbPoint
 10
1235.00003
 20
729.431543
 30
0.0
  0
POINT
  5
121
330
116
100
AcDbEntity
  8
DEFPOINTS
 62
     0
100
AcDbPoint
 10
1235.00003
 20
775.0
 30
0.0
  0
ENDBLK
  5
118
330
116
100
AcDbEntity
  8
0
100
AcDbBlockEnd
  0
BLOCK
  5
124
330
123
100
AcDbEntity
  8
0
100
AcDbBlockBegin
  2
*D16
 70
     1
 10
0.0
 20
0.0
 30
0.0
  3
*D16
  1

  0
LINE
  5
126
330
123
100
AcDbEntity
  8
Ｓ_１_１
  6
CONTINUOUS
 62
     2
100
AcDbLine
 10
1223.00003
 20
775.0
 30
0.0
 11
982.000034
 21
775.0
 31
0.0
  0
INSERT
  5
127
330
123
100
AcDbEntity
  8
Ｓ_１_１
 62
     2
100
AcDbBlockReference
  2
EX_NORM
 10
1235.00003
 20
775.0
 30
0.0
 41
12.0
 42
12.0
 43
12.0
  0
INSERT
  5
128
330
123
100
AcDbEntity
  8
Ｓ_１_１
 62
     2
100
AcDbBlockReference
  2
EX_NORM
 10
970.000034
 20
775.0
 30
0.0
 41
12.0
 42
12.0
 43
12.0
 50
180.0
  0
MTEXT
  5
129
330
123
100
AcDbEntity
  8
Ｓ_１_１
 62
     2
100
AcDbMText
 10
1102.500032
 20
786.0
 30
0.0
 40
13.85161662817552
 41
0.0
 71
     5
 72
     1
  1
265
  7
EXCADDIM1
  0
POINT
  5
12A
330
123
100
AcDbEntity
  8
DEFPOINTS
 62
     0
100
AcDbPoint
 10
1235.00003
 20
735.431543
 30
0.0
  0
POINT
  5
12B
330
123
100
AcDbEntity
  8
DEFPOINTS
 62
     0
100
AcDbPoint
 10
970.000034
 20
729.431543
 30
0.0
  0
POINT
  5
12C
330
123
100
AcDbEntity
  8
DEFPOINTS
 62
     0
100
AcDbPoint
 10
970.000034
 20
775.0
 30
0.0
  0
ENDBLK
  5
125
330
123
100
AcDbEntity
  8
0
100
AcDbBlockEnd
  0
BLOCK
  5
12F
330
12E
100
AcDbEntity
  8
0
100
AcDbBlockBegin
  2
*D17
 70
     1
 10
0.0
 20
0.0
 30
0.0
  3
*D17
  1

  0
LINE
  5
131
330
12E
100
AcDbEntity
  8
Ｓ_１_１
  6
CONTINUOUS
 62
     2
100
AcDbLine
 10
970.000034
 20
735.431543
 30
0.0
 11
970.000034
 21
779.0
 31
0.0
  0
LINE
  5
132
330
12E
100
AcDbEntity
  8
Ｓ_１_１
  6
CONTINUOUS
 62
     2
100
AcDbLine
 10
855.00003
 20
661.500002
 30
0.0
 11
855.00003
 21
779.0
 31
0.0
  0
LINE
  5
133
330
12E
100
AcDbEntity
  8
Ｓ_１_１
  6
CONTINUOUS
 62
     2
100
AcDbLine
 10
958.000034
 20
775.0
 30
0.0
 11
867.00003
 21
775.0
 31
0.0
  0
INSERT
  5
134
330
12E
100
AcDbEntity
  8
Ｓ_１_１
 62
     2
100
AcDbBlockReference
  2
EX_NORM
 10
970.000034
 20
775.0
 30
0.0
 41
12.0
 42
12.0
 43
12.0
  0
INSERT
  5
135
330
12E
100
AcDbEntity
  8
Ｓ_１_１
 62
     2
100
AcDbBlockReference
  2
EX_NORM
 10
855.00003
 20
775.0
 30
0.0
 41
12.0
 42
12.0
 43
12.0
 50
180.0
  0
MTEXT
  5
136
330
12E
100
AcDbEntity
  8
Ｓ_１_１
 62
     2
100
AcDbMText
 10
912.500032
 20
786.0
 30
0.0
 40
13.85161662817552
 41
0.0
 71
     5
 72
     1
  1
115
  7
EXCADDIM1
  0
POINT
  5
137
330
12E
100
AcDbEntity
  8
DEFPOINTS
 62
     0
100
AcDbPoint
 10
970.000034
 20
729.431543
 30
0.0
  0
POINT
  5
138
330
12E
100
AcDbEntity
  8
DEFPOINTS
 62
     0
100
AcDbPoint
 10
855.00003
 20
655.500002
 30
0.0
  0
POINT
  5
139
330
12E
100
AcDbEntity
  8
DEFPOINTS
 62
     0
100
AcDbPoint
 10
855.00003
 20
775.0
 30
0.0
  0
ENDBLK
  5
130
330
12E
100
AcDbEntity
  8
0
100
AcDbBlockEnd
  0
BLOCK
  5
13C
330
13B
100
AcDbEntity
  8
0
100
AcDbBlockBegin
  2
*D18
 70
     1
 10
0.0
 20
0.0
 30
0.0
  3
*D18
  1

  0
LINE
  5
13E
330
13B
100
AcDbEntity
  8
Ｓ_１_１
  6
CONTINUOUS
 62
     2
100
AcDbLine
 10
1354.00003
 20
392.499994
 30
0.0
 11
1429.0
 21
392.499994
 31
0.0
  0
LINE
  5
13F
330
13B
100
AcDbEntity
  8
Ｓ_１_１
  6
CONTINUOUS
 62
     2
100
AcDbLine
 10
1425.0
 20
645.499979
 30
0.0
 11
1425.0
 21
404.499994
 31
0.0
  0
INSERT
  5
140
330
13B
100
AcDbEntity
  8
Ｓ_１_１
 62
     2
100
AcDbBlockReference
  2
EX_NORM
 10
1425.0
 20
657.499979
 30
0.0
 41
12.0
 42
12.0
 43
12.0
 50
90.0
  0
INSERT
  5
141
330
13B
100
AcDbEntity
  8
Ｓ_１_１
 62
     2
100
AcDbBlockReference
  2
EX_NORM
 10
1425.0
 20
392.499994
 30
0.0
 41
12.0
 42
12.0
 43
12.0
 50
270.0
  0
MTEXT
  5
142
330
13B
100
AcDbEntity
  8
Ｓ_１_１
 62
     2
100
AcDbMText
 10
1414.0
 20
524.9999865
 30
0.0
 40
13.85161662817552
 41
0.0
 71
     5
 72
     1
  1
%%c265
  7
EXCADDIM1
 11
0.0
 21
1.0
 31
0.0
  0
POINT
  5
143
330
13B
100
AcDbEntity
  8
DEFPOINTS
 62
     0
100
AcDbPoint
 10
1348.00003
 20
657.499979
 30
0.0
  0
POINT
  5
144
330
13B
100
AcDbEntity
  8
DEFPOINTS
 62
     0
100
AcDbPoint
 10
1348.00003
 20
392.499994
 30
0.0
  0
POINT
  5
145
330
13B
100
AcDbEntity
  8
DEFPOINTS
 62
     0
100
AcDbPoint
 10
1425.0
 20
392.499994
 30
0.0
  0
ENDBLK
  5
13D
330
13B
100
AcDbEntity
  8
0
100
AcDbBlockEnd
  0
BLOCK
  5
148
330
147
100
AcDbEntity
  8
0
100
AcDbBlockBegin
  2
*D19
 70
     1
 10
0.0
 20
0.0
 30
0.0
  3
*D19
  1

  0
LINE
  5
14A
330
147
100
AcDbEntity
  8
Ｓ_１_１
  6
CONTINUOUS
 62
     2
100
AcDbLine
 10
1354.000029
 20
657.499979
 30
0.0
 11
1429.0
 21
657.499979
 31
0.0
  0
LINE
  5
14B
330
147
100
AcDbEntity
  8
Ｓ_１_１
  6
CONTINUOUS
 62
     2
100
AcDbLine
 10
1284.000041
 20
717.499994
 30
0.0
 11
1429.0
 21
717.499994
 31
0.0
  0
LINE
  5
14C
330
147
100
AcDbEntity
  8
Ｓ_１_１
  6
CONTINUOUS
 62
     2
100
AcDbLine
 10
1425.0
 20
669.499979
 30
0.0
 11
1425.0
 21
705.499994
 31
0.0
  0
INSERT
  5
14D
330
147
100
AcDbEntity
  8
Ｓ_１_１
 62
     2
100
AcDbBlockReference
  2
EX_NORM
 10
1425.0
 20
657.499979
 30
0.0
 41
12.0
 42
12.0
 43
12.0
 50
270.0
  0
INSERT
  5
14E
330
147
100
AcDbEntity
  8
Ｓ_１_１
 62
     2
100
AcDbBlockReference
  2
EX_NORM
 10
1425.0
 20
717.499994
 30
0.0
 41
12.0
 42
12.0
 43
12.0
 50
90.0
  0
MTEXT
  5
14F
330
147
100
AcDbEntity
  8
Ｓ_１_１
 62
     2
100
AcDbMText
 10
1414.0
 20
687.4999865
 30
0.0
 40
13.85161662817552
 41
0.0
 71
     5
 72
     1
  1
60
  7
EXCADDIM1
 11
0.0
 21
1.0
 31
0.0
  0
POINT
  5
150
330
147
100
AcDbEntity
  8
DEFPOINTS
 62
     0
100
AcDbPoint
 10
1348.000029
 20
657.499979
 30
0.0
  0
POINT
  5
151
330
147
100
AcDbEntity
  8
DEFPOINTS
 62
     0
100
AcDbPoint
 10
1278.000041
 20
717.499994
 30
0.0
  0
POINT
  5
152
330
147
100
AcDbEntity
  8
DEFPOINTS
 62
     0
100
AcDbPoint
 10
1425.0
 20
717.499994
 30
0.0
  0
ENDBLK
  5
149
330
147
100
AcDbEntity
  8
0
100
AcDbBlockEnd
  0
BLOCK
  5
155
330
154
100
AcDbEntity
  8
0
100
AcDbBlockBegin
  2
*D20
 70
     1
 10
0.0
 20
0.0
 30
0.0
  3
*D20
  1

  0
LINE
  5
157
330
154
100
AcDbEntity
  8
Ｓ_１_１
  6
CONTINUOUS
 62
     2
100
AcDbLine
 10
786.0000299999999
 20
644.999994
 30
0.0
 11
721.0
 21
644.999994
 31
0.0
  0
LINE
  5
158
330
154
100
AcDbEntity
  8
Ｓ_１_１
  6
CONTINUOUS
 62
     2
100
AcDbLine
 10
786.0000299999999
 20
405.000002
 30
0.0
 11
721.0
 21
405.000002
 31
0.0
  0
LINE
  5
159
330
154
100
AcDbEntity
  8
Ｓ_１_１
  6
CONTINUOUS
 62
     2
100
AcDbLine
 10
725.0
 20
632.999994
 30
0.0
 11
725.0
 21
417.000002
 31
0.0
  0
INSERT
  5
15A
330
154
100
AcDbEntity
  8
Ｓ_１_１
 62
     2
100
AcDbBlockReference
  2
EX_NORM
 10
725.0
 20
644.999994
 30
0.0
 41
12.0
 42
12.0
 43
12.0
 50
90.0
  0
INSERT
  5
15B
330
154
100
AcDbEntity
  8
Ｓ_１_１
 62
     2
100
AcDbBlockReference
  2
EX_NORM
 10
725.0
 20
405.000002
 30
0.0
 41
12.0
 42
12.0
 43
12.0
 50
270.0
  0
MTEXT
  5
15C
330
154
100
AcDbEntity
  8
Ｓ_１_１
 62
     2
100
AcDbMText
 10
714.0
 20
524.999998
 30
0.0
 40
13.85161662817552
 41
0.0
 71
     5
 72
     1
  1
%%c240
  7
EXCADDIM1
 11
0.0
 21
1.0
 31
0.0
  0
POINT
  5
15D
330
154
100
AcDbEntity
  8
DEFPOINTS
 62
     0
100
AcDbPoint
 10
792.0000299999999
 20
644.999994
 30
0.0
  0
POINT
  5
15E
330
154
100
AcDbEntity
  8
DEFPOINTS
 62
     0
100
AcDbPoint
 10
792.0000299999999
 20
405.000002
 30
0.0
  0
POINT
  5
15F
330
154
100
AcDbEntity
  8
DEFPOINTS
 62
     0
100
AcDbPoint
 10
725.0
 20
405.000002
 30
0.0
  0
ENDBLK
  5
156
330
154
100
AcDbEntity
  8
0
100
AcDbBlockEnd
  0
BLOCK
  5
162
330
161
100
AcDbEntity
  8
0
100
AcDbBlockBegin
  2
*D21
 70
     1
 10
0.0
 20
0.0
 30
0.0
  3
*D21
  1

  0
LINE
  5
164
330
161
100
AcDbEntity
  8
Ｓ_１_１
  6
CONTINUOUS
 62
     2
100
AcDbLine
 10
1338.0
 20
325.0
 30
0.0
 11
867.00003
 21
325.0
 31
0.0
  0
INSERT
  5
165
330
161
100
AcDbEntity
  8
Ｓ_１_１
 62
     2
100
AcDbBlockReference
  2
EX_NORM
 10
1350.0
 20
325.0
 30
0.0
 41
12.0
 42
12.0
 43
12.0
  0
INSERT
  5
166
330
161
100
AcDbEntity
  8
Ｓ_１_１
 62
     2
100
AcDbBlockReference
  2
EX_NORM
 10
855.00003
 20
325.0
 30
0.0
 41
12.0
 42
12.0
 43
12.0
 50
180.0
  0
MTEXT
  5
167
330
161
100
AcDbEntity
  8
Ｓ_１_１
 62
     2
100
AcDbMText
 10
1102.500015
 20
336.0
 30
0.0
 40
13.85161662817552
 41
0.0
 71
     5
 72
     1
  1
495
  7
EXCADDIM1
  0
POINT
  5
168
330
161
100
AcDbEntity
  8
DEFPOINTS
 62
     0
100
AcDbPoint
 10
1350.0
 20
394.49997400001
 30
0.0
  0
POINT
  5
169
330
161
100
AcDbEntity
  8
DEFPOINTS
 62
     0
100
AcDbPoint
 10
855.00003
 20
394.500012
 30
0.0
  0
POINT
  5
16A
330
161
100
AcDbEntity
  8
DEFPOINTS
 62
     0
100
AcDbPoint
 10
855.00003
 20
325.0
 30
0.0
  0
ENDBLK
  5
163
330
161
100
AcDbEntity
  8
0
100
AcDbBlockEnd
  0
BLOCK
  5
16D
330
16C
100
AcDbEntity
  8
0
100
AcDbBlockBegin
  2
*D22
 70
     1
 10
0.0
 20
0.0
 30
0.0
  3
*D22
  1

  0
LINE
  5
16F
330
16C
100
AcDbEntity
  8
Ｓ_１_１
  6
CONTINUOUS
 62
     2
100
AcDbLine
 10
855.00003
 20
388.500012
 30
0.0
 11
855.00003
 21
321.0
 31
0.0
  0
LINE
  5
170
330
16C
100
AcDbEntity
  8
Ｓ_１_１
  6
CONTINUOUS
 62
     2
100
AcDbLine
 10
835.000038
 20
400.999965
 30
0.0
 11
835.000038
 21
321.0
 31
0.0
  0
LINE
  5
171
330
16C
100
AcDbEntity
  8
Ｓ_１_１
  6
CONTINUOUS
 62
     2
100
AcDbLine
 10
855.00003
 20
325.0
 30
0.0
 11
835.000038
 21
325.0
 31
0.0
  0
LINE
  5
172
330
16C
100
AcDbEntity
  8
Ｓ_１_１
  6
CONTINUOUS
 62
     2
100
AcDbLine
 10
867.00003
 20
325.0
 30
0.0
 11
879.00003
 21
325.0
 31
0.0
  0
LINE
  5
173
330
16C
100
AcDbEntity
  8
Ｓ_１_１
  6
CONTINUOUS
 62
     2
100
AcDbLine
 10
823.000038
 20
325.0
 30
0.0
 11
811.000038
 21
325.0
 31
0.0
  0
INSERT
  5
174
330
16C
100
AcDbEntity
  8
Ｓ_１_１
 62
     2
100
AcDbBlockReference
  2
EX_NORM
 10
855.00003
 20
325.0
 30
0.0
 41
12.0
 42
12.0
 43
12.0
 50
180.0
  0
INSERT
  5
175
330
16C
100
AcDbEntity
  8
Ｓ_１_１
 62
     2
100
AcDbBlockReference
  2
EX_BCIR
 10
835.000038
 20
325.0
 30
0.0
 41
12.0
 42
12.0
 43
12.0
  0
MTEXT
  5
176
330
16C
100
AcDbEntity
  8
Ｓ_１_１
 62
     2
100
AcDbMText
 10
845.000034
 20
336.0
 30
0.0
 40
13.85161662817552
 41
0.0
 71
     5
 72
     1
  1
20
  7
EXCADDIM1
  0
POINT
  5
177
330
16C
100
AcDbEntity
  8
DEFPOINTS
 62
     0
100
AcDbPoint
 10
855.00003
 20
394.500012
 30
0.0
  0
POINT
  5
178
330
16C
100
AcDbEntity
  8
DEFPOINTS
 62
     0
100
AcDbPoint
 10
835.000038
 20
406.999965
 30
0.0
  0
POINT
  5
179
330
16C
100
AcDbEntity
  8
DEFPOINTS
 62
     0
100
AcDbPoint
 10
835.000038
 20
325.0
 30
0.0
  0
ENDBLK
  5
16E
330
16C
100
AcDbEntity
  8
0
100
AcDbBlockEnd
  0
BLOCK
  5
17C
330
17B
100
AcDbEntity
  8
0
100
AcDbBlockBegin
  2
*D23
 70
     1
 10
0.0
 20
0.0
 30
0.0
  3
*D23
  1

  0
LINE
  5
17E
330
17B
100
AcDbEntity
  8
Ｓ_１_１
  6
CONTINUOUS
 62
     2
100
AcDbLine
 10
820.000038
 20
401.00021119998
 30
0.0
 11
820.000038
 21
321.0
 31
0.0
  0
LINE
  5
17F
330
17B
100
AcDbEntity
  8
Ｓ_１_１
  6
CONTINUOUS
 62
     2
100
AcDbLine
 10
831.000038
 20
325.0
 30
0.0
 11
824.000038
 21
325.0
 31
0.0
  0
INSERT
  5
180
330
17B
100
AcDbEntity
  8
Ｓ_１_１
 62
     2
100
AcDbBlockReference
  2
EX_BCIR
 10
835.000038
 20
325.0
 30
0.0
 41
4.0
 42
4.0
 43
4.0
  0
INSERT
  5
181
330
17B
100
AcDbEntity
  8
Ｓ_１_１
 62
     2
100
AcDbBlockReference
  2
EX_BCIR
 10
820.000038
 20
325.0
 30
0.0
 41
4.0
 42
4.0
 43
4.0
 50
180.0
  0
MTEXT
  5
182
330
17B
100
AcDbEntity
  8
Ｓ_１_１
 62
     2
100
AcDbMText
 10
827.500038
 20
314.0
 30
0.0
 40
13.85161662817552
 41
0.0
 71
     5
 72
     1
  1
15
  7
EXCADDIM1
  0
POINT
  5
183
330
17B
100
AcDbEntity
  8
DEFPOINTS
 62
     0
100
AcDbPoint
 10
835.000038
 20
406.999965
 30
0.0
  0
POINT
  5
184
330
17B
100
AcDbEntity
  8
DEFPOINTS
 62
     0
100
AcDbPoint
 10
820.000038
 20
407.00021119998
 30
0.0
  0
POINT
  5
185
330
17B
100
AcDbEntity
  8
DEFPOINTS
 62
     0
100
AcDbPoint
 10
820.000038
 20
325.0
 30
0.0
  0
ENDBLK
  5
17D
330
17B
100
AcDbEntity
  8
0
100
AcDbBlockEnd
  0
BLOCK
  5
188
330
187
100
AcDbEntity
  8
0
100
AcDbBlockBegin
  2
*D24
 70
     1
 10
0.0
 20
0.0
 30
0.0
  3
*D24
  1

  0
LINE
  5
18A
330
187
100
AcDbEntity
  8
Ｓ_１_１
  6
CONTINUOUS
 62
     2
100
AcDbLine
 10
816.000038
 20
325.0
 30
0.0
 11
794.000038
 21
325.0
 31
0.0
  0
INSERT
  5
18B
330
187
100
AcDbEntity
  8
Ｓ_１_１
 62
     2
100
AcDbBlockReference
  2
EX_BCIR
 10
820.000038
 20
325.0
 30
0.0
 41
4.0
 42
4.0
 43
4.0
  0
INSERT
  5
18C
330
187
100
AcDbEntity
  8
Ｓ_１_１
 62
     2
100
AcDbBlockReference
  2
EX_NORM
 10
790.000038
 20
325.0
 30
0.0
 41
4.0
 42
4.0
 43
4.0
 50
180.0
  0
MTEXT
  5
18D
330
187
100
AcDbEntity
  8
Ｓ_１_１
 62
     2
100
AcDbMText
 10
805.000038
 20
336.0
 30
0.0
 40
13.85161662817552
 41
0.0
 71
     5
 72
     1
  1
30
  7
EXCADDIM1
  0
POINT
  5
18E
330
187
100
AcDbEntity
  8
DEFPOINTS
 62
     0
100
AcDbPoint
 10
820.000038
 20
407.00021119998
 30
0.0
  0
POINT
  5
18F
330
187
100
AcDbEntity
  8
DEFPOINTS
 62
     0
100
AcDbPoint
 10
790.000038
 20
406.999982
 30
0.0
  0
POINT
  5
190
330
187
100
AcDbEntity
  8
DEFPOINTS
 62
     0
100
AcDbPoint
 10
790.000038
 20
325.0
 30
0.0
  0
ENDBLK
  5
189
330
187
100
AcDbEntity
  8
0
100
AcDbBlockEnd
  0
BLOCK
  5
193
330
192
100
AcDbEntity
  8
0
100
AcDbBlockBegin
  2
*D25
 70
     1
 10
0.0
 20
0.0
 30
0.0
  3
*D25
  1

  0
LINE
  5
195
330
192
100
AcDbEntity
  8
Ｓ_１_１
  6
CONTINUOUS
 62
     2
100
AcDbLine
 10
790.000038
 20
400.999982
 30
0.0
 11
790.000038
 21
296.0
 31
0.0
  0
LINE
  5
196
330
192
100
AcDbEntity
  8
Ｓ_１_１
  6
CONTINUOUS
 62
     2
100
AcDbLine
 10
1350.0
 20
388.49997400001
 30
0.0
 11
1350.0
 21
296.0
 31
0.0
  0
LINE
  5
197
330
192
100
AcDbEntity
  8
Ｓ_１_１
  6
CONTINUOUS
 62
     2
100
AcDbLine
 10
802.000038
 20
300.0
 30
0.0
 11
1338.0
 21
300.0
 31
0.0
  0
INSERT
  5
198
330
192
100
AcDbEntity
  8
Ｓ_１_１
 62
     2
100
AcDbBlockReference
  2
EX_NORM
 10
790.000038
 20
300.0
 30
0.0
 41
12.0
 42
12.0
 43
12.0
 50
180.0
  0
INSERT
  5
199
330
192
100
AcDbEntity
  8
Ｓ_１_１
 62
     2
100
AcDbBlockReference
  2
EX_NORM
 10
1350.0
 20
300.0
 30
0.0
 41
12.0
 42
12.0
 43
12.0
  0
MTEXT
  5
19A
330
192
100
AcDbEntity
  8
Ｓ_１_１
 62
     2
100
AcDbMText
 10
1070.000019
 20
311.0
 30
0.0
 40
13.85161662817552
 41
0.0
 71
     5
 72
     1
  1
560
  7
EXCADDIM1
  0
POINT
  5
19B
330
192
100
AcDbEntity
  8
DEFPOINTS
 62
     0
100
AcDbPoint
 10
790.000038
 20
406.999982
 30
0.0
  0
POINT
  5
19C
330
192
100
AcDbEntity
  8
DEFPOINTS
 62
     0
100
AcDbPoint
 10
1350.0
 20
394.49997400001
 30
0.0
  0
POINT
  5
19D
330
192
100
AcDbEntity
  8
DEFPOINTS
 62
     0
100
AcDbPoint
 10
1350.0
 20
300.0
 30
0.0
  0
ENDBLK
  5
194
330
192
100
AcDbEntity
  8
0
100
AcDbBlockEnd
  0
BLOCK
  5
1A0
330
19F
100
AcDbEntity
  8
0
100
AcDbBlockBegin
  2
*D26
 70
     1
 10
0.0
 20
0.0
 30
0.0
  3
*D26
  1

  0
LINE
  5
1A2
330
19F
100
AcDbEntity
  8
Ｓ_１_１
  6
CONTINUOUS
 62
     2
100
AcDbLine
 10
364.083435
 20
721.499994
 30
0.0
 11
364.083435
 21
779.0
 31
0.0
  0
LINE
  5
1A3
330
19F
100
AcDbEntity
  8
Ｓ_１_１
  6
CONTINUOUS
 62
     2
100
AcDbLine
 10
454.083435
 20
721.499994
 30
0.0
 11
454.083435
 21
779.0
 31
0.0
  0
LINE
  5
1A4
330
19F
100
AcDbEntity
  8
Ｓ_１_１
  6
CONTINUOUS
 62
     2
100
AcDbLine
 10
376.083435
 20
775.0
 30
0.0
 11
442.083435
 21
775.0
 31
0.0
  0
INSERT
  5
1A5
330
19F
100
AcDbEntity
  8
Ｓ_１_１
 62
     2
100
AcDbBlockReference
  2
EX_NORM
 10
364.083435
 20
775.0
 30
0.0
 41
12.0
 42
12.0
 43
12.0
 50
180.0
  0
INSERT
  5
1A6
330
19F
100
AcDbEntity
  8
Ｓ_１_１
 62
     2
100
AcDbBlockReference
  2
EX_NORM
 10
454.083435
 20
775.0
 30
0.0
 41
12.0
 42
12.0
 43
12.0
  0
MTEXT
  5
1A7
330
19F
100
AcDbEntity
  8
Ｓ_１_１
 62
     2
100
AcDbMText
 10
409.0834350000001
 20
786.0
 30
0.0
 40
13.85161662817552
 41
0.0
 71
     5
 72
     1
  1
%%c90
  7
EXCADDIM1
  0
POINT
  5
1A8
330
19F
100
AcDbEntity
  8
DEFPOINTS
 62
     0
100
AcDbPoint
 10
364.083435
 20
715.499994
 30
0.0
  0
POINT
  5
1A9
330
19F
100
AcDbEntity
  8
DEFPOINTS
 62
     0
100
AcDbPoint
 10
454.083435
 20
715.499994
 30
0.0
  0
POINT
  5
1AA
330
19F
100
AcDbEntity
  8
DEFPOINTS
 62
     0
100
AcDbPoint
 10
454.083435
 20
775.0
 30
0.0
  0
ENDBLK
  5
1A1
330
19F
100
AcDbEntity
  8
0
100
AcDbBlockEnd
  0
BLOCK
  5
1AD
330
1AC
100
AcDbEntity
  8
0
100
AcDbBlockBegin
  2
*D27
 70
     1
 10
0.0
 20
0.0
 30
0.0
  3
*D27
  1

  0
LINE
  5
1AF
330
1AC
100
AcDbEntity
  8
Ｓ_１_１
  6
CONTINUOUS
 62
     2
100
AcDbLine
 10
236.583435
 20
538.5
 30
0.0
 11
236.583435
 21
804.0
 31
0.0
  0
LINE
  5
1B0
330
1AC
100
AcDbEntity
  8
Ｓ_１_１
  6
CONTINUOUS
 62
     2
100
AcDbLine
 10
581.583435
 20
538.5
 30
0.0
 11
581.583435
 21
804.0
 31
0.0
  0
LINE
  5
1B1
330
1AC
100
AcDbEntity
  8
Ｓ_１_１
  6
CONTINUOUS
 62
     2
100
AcDbLine
 10
248.583435
 20
800.0
 30
0.0
 11
569.583435
 21
800.0
 31
0.0
  0
INSERT
  5
1B2
330
1AC
100
AcDbEntity
  8
Ｓ_１_１
 62
     2
100
AcDbBlockReference
  2
EX_NORM
 10
236.583435
 20
800.0
 30
0.0
 41
12.0
 42
12.0
 43
12.0
 50
180.0
  0
INSERT
  5
1B3
330
1AC
100
AcDbEntity
  8
Ｓ_１_１
 62
     2
100
AcDbBlockReference
  2
EX_NORM
 10
581.583435
 20
800.0
 30
0.0
 41
12.0
 42
12.0
 43
12.0
  0
MTEXT
  5
1B4
330
1AC
100
AcDbEntity
  8
Ｓ_１_１
 62
     2
100
AcDbMText
 10
409.0834350000001
 20
811.0
 30
0.0
 40
13.85161662817552
 41
0.0
 71
     5
 72
     1
  1
345
  7
EXCADDIM1
  0
POINT
  5
1B5
330
1AC
100
AcDbEntity
  8
DEFPOINTS
 62
     0
100
AcDbPoint
 10
236.583435
 20
532.5
 30
0.0
  0
POINT
  5
1B6
330
1AC
100
AcDbEntity
  8
DEFPOINTS
 62
     0
100
AcDbPoint
 10
581.583435
 20
532.5
 30
0.0
  0
POINT
  5
1B7
330
1AC
100
AcDbEntity
  8
DEFPOINTS
 62
     0
100
AcDbPoint
 10
581.583435
 20
800.0
 30
0.0
  0
ENDBLK
  5
1AE
330
1AC
100
AcDbEntity
  8
0
100
AcDbBlockEnd
  0
ENDSEC
  0
SECTION
  2
ENTITIES
  0
LINE
  5
D4
330
1F
100
AcDbEntity
  8
図面枠
  6
CONTINUOUS
 62
     5
100
AcDbLine
 10
40.0
 20
40.0
 30
0.0
 11
1640.0
 21
40.0
 31
0.0
  0
LINE
  5
D5
330
1F
100
AcDbEntity
  8
図面枠
  6
CONTINUOUS
 62
     5
100
AcDbLine
 10
1640.0
 20
40.0
 30
0.0
 11
1640.0
 21
1148.0
 31
0.0
  0
LINE
  5
D6
330
1F
100
AcDbEntity
  8
図面枠
  6
CONTINUOUS
 62
     5
100
AcDbLine
 10
1640.0
 20
1148.0
 30
0.0
 11
40.00000000000021
 21
1148.0
 31
0.0
  0
LINE
  5
D7
330
1F
100
AcDbEntity
  8
図面枠
  6
CONTINUOUS
 62
     5
100
AcDbLine
 10
40.00000000000021
 20
1148.0
 30
0.0
 11
40.0
 21
40.0
 31
0.0
  0
TEXT
  5
D9
330
1F
100
AcDbEntity
  8
図面枠
  6
CONTINUOUS
 62
     4
100
AcDbText
 10
1548.0
 20
1085.53125
 30
0.0
 40
13.85161662817552
  1
kN
 41
0.9992307692307693
  7
EXCADTTF1
 72
     5
 11
1566.0
 21
1085.53125
 31
0.0
100
AcDbText
  0
TEXT
  5
DA
330
1F
100
AcDbEntity
  8
図面枠
  6
CONTINUOUS
 62
     4
100
AcDbText
 10
1308.0
 20
1085.53125
 30
0.0
 40
13.85161662817552
  1
能力
 41
0.9992307692307693
  7
EXCADTTF1
 72
     5
 11
1344.0
 21
1085.53125
 31
0.0
100
AcDbText
  0
TEXT
  5
DB
330
1F
100
AcDbEntity
  8
図面枠
  6
CONTINUOUS
 62
     4
100
AcDbText
 10
1415.0
 20
1109.53125
 30
0.0
 40
13.85161662817552
  1
仕　　　様
 41
0.9992307692307693
  7
EXCADTTF1
 72
     5
 11
1505.0
 21
1109.53125
 31
0.0
100
AcDbText
  0
LINE
  5
DC
330
1F
100
AcDbEntity
  8
図面枠
  6
CONTINUOUS
 62
     3
100
AcDbLine
 10
1300.0
 20
1128.0
 30
0.0
 11
1620.0
 21
1128.0
 31
0.0
  0
LINE
  5
DD
330
1F
100
AcDbEntity
  8
図面枠
  6
CONTINUOUS
 62
     3
100
AcDbLine
 10
1300.0
 20
1104.0
 30
0.0
 11
1620.0
 21
1104.0
 31
0.0
  0
LINE
  5
DE
330
1F
100
AcDbEntity
  8
図面枠
  6
CONTINUOUS
 62
     3
100
AcDbLine
 10
1476.0
 20
96.0
 30
0.0
 11
1620.0
 21
96.0
 31
0.0
  0
LINE
  5
DF
330
1F
100
AcDbEntity
  8
図面枠
  6
CONTINUOUS
 62
     3
100
AcDbLine
 10
1476.0
 20
60.0
 30
0.0
 11
1620.0
 21
60.0
 31
0.0
  0
LINE
  5
E0
330
1F
100
AcDbEntity
  8
図面枠
  6
CONTINUOUS
 62
     3
100
AcDbLine
 10
1476.0
 20
96.0
 30
0.0
 11
1476.0
 21
60.0
 31
0.0
  0
LINE
  5
E1
330
1F
100
AcDbEntity
  8
図面枠
  6
CONTINUOUS
 62
     3
100
AcDbLine
 10
1620.0
 20
96.0
 30
0.0
 11
1620.0
 21
60.0
 31
0.0
  0
TEXT
  5
E2
330
1F
100
AcDbEntity
  8
図面枠
  6
CONTINUOUS
 62
     4
100
AcDbText
 10
1488.0
 20
69.375
 30
0.0
 40
18.46882217090069
  1
OTLJ-20020
 41
0.9992307692307694
  7
EXCADTTF1
 72
     5
 11
1608.0
 21
69.375
 31
0.0
100
AcDbText
  0
LINE
  5
E3
330
1F
100
AcDbEntity
  8
図面枠
  6
CONTINUOUS
 62
     3
100
AcDbLine
 10
60.00000000000006
 20
1128.0
 30
0.0
 11
528.0000000000001
 21
1128.0
 31
0.0
  0
LINE
  5
E4
330
1F
100
AcDbEntity
  8
図面枠
  6
CONTINUOUS
 62
     3
100
AcDbLine
 10
60.00000000000006
 20
1092.0
 30
0.0
 11
528.0000000000001
 21
1092.0
 31
0.0
  0
LINE
  5
E5
330
1F
100
AcDbEntity
  8
図面枠
  6
CONTINUOUS
 62
     3
100
AcDbLine
 10
60.00000000000006
 20
1128.0
 30
0.0
 11
60.00000000000006
 21
1092.0
 31
0.0
  0
LINE
  5
E6
330
1F
100
AcDbEntity
  8
図面枠
  6
CONTINUOUS
 62
     3
100
AcDbLine
 10
528.0000000000001
 20
1128.0
 30
0.0
 11
528.0000000000001
 21
1092.0
 31
0.0
  0
TEXT
  5
E7
330
1F
100
AcDbEntity
  8
図面枠
  6
CONTINUOUS
 62
     4
100
AcDbText
 10
72.00000000000006
 20
1101.375
 30
0.0
 40
18.46882217090069
  1
2000kN200ストローク試験用油圧ジャッキ
 41
0.9992307692307696
  7
EXCADTTF1
 72
     5
 11
516.0
 21
1101.375
 31
0.0
100
AcDbText
  0
TEXT
  5
E8
330
1F
100
AcDbEntity
  8
図面枠
  6
CONTINUOUS
 62
     4
100
AcDbText
 10
1496.0
 20
1085.53125
 30
0.0
 40
13.85161662817552
  1
2000
 41
0.9992307692307693
  7
EXCADTTF1
 72
     5
 11
1532.0
 21
1085.53125
 31
0.0
100
AcDbText
  0
TEXT
  5
E9
330
1F
100
AcDbEntity
  8
図面枠
  6
CONTINUOUS
 62
     4
100
AcDbText
 10
1548.0
 20
1061.53125
 30
0.0
 40
13.85161662817552
  1
mm
 41
0.9992307692307693
  7
EXCADTTF1
 72
     5
 11
1566.0
 21
1061.53125
 31
0.0
100
AcDbText
  0
TEXT
  5
EA
330
1F
100
AcDbEntity
  8
図面枠
  6
CONTINUOUS
 62
     4
100
AcDbText
 10
1548.0
 20
1037.53125
 30
0.0
 40
13.85161662817552
  1
mm
 41
0.9992307692307693
  7
EXCADTTF1
 72
     5
 11
1566.0
 21
1037.53125
 31
0.0
100
AcDbText
  0
TEXT
  5
EB
330
1F
100
AcDbEntity
  8
図面枠
  6
CONTINUOUS
 62
     4
100
AcDbText
 10
1548.0
 20
1013.53125
 30
0.0
 40
13.85161662817552
  1
mm
 41
0.9992307692307693
  7
EXCADTTF1
 72
     5
 11
1566.0
 21
1013.53125
 31
0.0
100
AcDbText
  0
TEXT
  5
EC
330
1F
100
AcDbEntity
  8
図面枠
  6
CONTINUOUS
 62
     4
100
AcDbText
 10
1548.0
 20
989.53125
 30
0.0
 40
13.85161662817552
  1
mm
 41
0.9992307692307693
  7
EXCADTTF1
 72
     5
 11
1566.0
 21
989.53125
 31
0.0
100
AcDbText
  0
TEXT
  5
ED
330
1F
100
AcDbEntity
  8
図面枠
  6
CONTINUOUS
 62
     4
100
AcDbText
 10
1548.0
 20
965.53125
 30
0.0
 40
13.85161662817552
  1
mm
 41
0.9992307692307693
  7
EXCADTTF1
 72
     5
 11
1566.0
 21
965.53125
 31
0.0
100
AcDbText
  0
TEXT
  5
EE
330
1F
100
AcDbEntity
  8
図面枠
  6
CONTINUOUS
 62
     4
100
AcDbText
 10
1548.0
 20
917.53125
 30
0.0
 40
13.85161662817552
  1
MPa
 41
0.9992307692307694
  7
EXCADTTF1
 72
     5
 11
1575.0
 21
917.53125
 31
0.0
100
AcDbText
  0
TEXT
  5
EF
330
1F
100
AcDbEntity
  8
図面枠
  6
CONTINUOUS
 62
     4
100
AcDbText
 10
1308.0
 20
1061.53125
 30
0.0
 40
13.85161662817552
  1
ストローク
 41
0.9992307692307693
  7
EXCADTTF1
 72
     5
 11
1398.0
 21
1061.53125
 31
0.0
100
AcDbText
  0
TEXT
  5
F0
330
1F
100
AcDbEntity
  8
図面枠
  6
CONTINUOUS
 62
     4
100
AcDbText
 10
1308.0
 20
1037.53125
 30
0.0
 40
13.85161662817552
  1
最低機械高
 41
0.9992307692307693
  7
EXCADTTF1
 72
     5
 11
1398.0
 21
1037.53125
 31
0.0
100
AcDbText
  0
TEXT
  5
F1
330
1F
100
AcDbEntity
  8
図面枠
  6
CONTINUOUS
 62
     4
100
AcDbText
 10
1308.0
 20
1013.53125
 30
0.0
 40
13.85161662817552
  1
シリンダー外径
 41
0.9992307692307691
  7
EXCADTTF1
 72
     5
 11
1434.0
 21
1013.53125
 31
0.0
100
AcDbText
  0
TEXT
  5
F2
330
1F
100
AcDbEntity
  8
図面枠
  6
CONTINUOUS
 62
     4
100
AcDbText
 10
1308.0
 20
989.53125
 30
0.0
 40
13.85161662817552
  1
ヘッド径
 41
0.9992307692307693
  7
EXCADTTF1
 72
     5
 11
1380.0
 21
989.53125
 31
0.0
100
AcDbText
  0
TEXT
  5
F3
330
1F
100
AcDbEntity
  8
図面枠
  6
CONTINUOUS
 62
     4
100
AcDbText
 10
1308.0
 20
965.53125
 30
0.0
 40
13.85161662817552
  1
ピストン径
 41
0.9992307692307693
  7
EXCADTTF1
 72
     5
 11
1398.0
 21
965.53125
 31
0.0
100
AcDbText
  0
TEXT
  5
F4
330
1F
100
AcDbEntity
  8
図面枠
  6
CONTINUOUS
 62
     4
100
AcDbText
 10
1308.0
 20
941.53125
 30
0.0
 40
13.85161662817552
  1
受圧面積
 41
0.9992307692307693
  7
EXCADTTF1
 72
     5
 11
1380.0
 21
941.53125
 31
0.0
100
AcDbText
  0
TEXT
  5
F5
330
1F
100
AcDbEntity
  8
図面枠
  6
CONTINUOUS
 62
     4
100
AcDbText
 10
1308.0
 20
917.53125
 30
0.0
 40
13.85161662817552
  1
最高使用圧力
 41
0.9992307692307693
  7
EXCADTTF1
 72
     5
 11
1416.0
 21
917.53125
 31
0.0
100
AcDbText
  0
LINE
  5
F6
330
1F
100
AcDbEntity
  8
図面枠
  6
CONTINUOUS
 62
     2
100
AcDbLine
 10
1300.0
 20
1080.0
 30
0.0
 11
1620.0
 21
1080.0
 31
0.0
  0
LINE
  5
F7
330
1F
100
AcDbEntity
  8
図面枠
  6
CONTINUOUS
 62
     2
100
AcDbLine
 10
1300.0
 20
1056.0
 30
0.0
 11
1620.0
 21
1056.0
 31
0.0
  0
LINE
  5
F8
330
1F
100
AcDbEntity
  8
図面枠
  6
CONTINUOUS
 62
     2
100
AcDbLine
 10
1300.0
 20
1032.0
 30
0.0
 11
1620.0
 21
1032.0
 31
0.0
  0
LINE
  5
F9
330
1F
100
AcDbEntity
  8
図面枠
  6
CONTINUOUS
 62
     2
100
AcDbLine
 10
1300.0
 20
1008.0
 30
0.0
 11
1620.0
 21
1008.0
 31
0.0
  0
LINE
  5
FA
330
1F
100
AcDbEntity
  8
図面枠
  6
CONTINUOUS
 62
     2
100
AcDbLine
 10
1300.0
 20
984.0
 30
0.0
 11
1620.0
 21
984.0
 31
0.0
  0
LINE
  5
FB
330
1F
100
AcDbEntity
  8
図面枠
  6
CONTINUOUS
 62
     2
100
AcDbLine
 10
1300.0
 20
960.0
 30
0.0
 11
1620.0
 21
960.0
 31
0.0
  0
LINE
  5
FC
330
1F
100
AcDbEntity
  8
図面枠
  6
CONTINUOUS
 62
     2
100
AcDbLine
 10
1300.0
 20
936.0
 30
0.0
 11
1620.0
 21
936.0
 31
0.0
  0
TEXT
  5
FD
330
1F
100
AcDbEntity
  8
図面枠
  6
CONTINUOUS
 62
     4
100
AcDbText
 10
1505.0
 20
1061.53125
 30
0.0
 40
13.85161662817552
  1
200
 41
0.9992307692307694
  7
EXCADTTF1
 72
     5
 11
1532.0
 21
1061.53125
 31
0.0
100
AcDbText
  0
TEXT
  5
FE
330
1F
100
AcDbEntity
  8
図面枠
  6
CONTINUOUS
 62
     4
100
AcDbText
 10
1505.0
 20
1037.53125
 30
0.0
 40
13.85161662817552
  1
560
 41
0.9992307692307694
  7
EXCADTTF1
 72
     5
 11
1532.0
 21
1037.53125
 31
0.0
100
AcDbText
  0
TEXT
  5
FF
330
1F
100
AcDbEntity
  8
図面枠
  6
CONTINUOUS
 62
     4
100
AcDbText
 10
1505.0
 20
1013.53125
 30
0.0
 40
13.85161662817552
  1
265
 41
0.9992307692307694
  7
EXCADTTF1
 72
     5
 11
1532.0
 21
1013.53125
 31
0.0
100
AcDbText
  0
TEXT
  5
100
330
1F
100
AcDbEntity
  8
図面枠
  6
CONTINUOUS
 62
     4
100
AcDbText
 10
1505.0
 20
989.53125
 30
0.0
 40
13.85161662817552
  1
240
 41
0.9992307692307694
  7
EXCADTTF1
 72
     5
 11
1532.0
 21
989.53125
 31
0.0
100
AcDbText
  0
TEXT
  5
101
330
1F
100
AcDbEntity
  8
図面枠
  6
CONTINUOUS
 62
     4
100
AcDbText
 10
1505.0
 20
965.53125
 30
0.0
 40
13.85161662817552
  1
205
 41
0.9992307692307694
  7
EXCADTTF1
 72
     5
 11
1532.0
 21
965.53125
 31
0.0
100
AcDbText
  0
TEXT
  5
102
330
1F
100
AcDbEntity
  8
図面枠
  6
CONTINUOUS
 62
     4
100
AcDbText
 10
1478.0
 20
941.53125
 30
0.0
 40
13.85161662817552
  1
330.06
 41
0.9992307692307693
  7
EXCADTTF1
 72
     5
 11
1532.0
 21
941.53125
 31
0.0
100
AcDbText
  0
TEXT
  5
103
330
1F
100
AcDbEntity
  8
図面枠
  6
CONTINUOUS
 62
     4
100
AcDbText
 10
1496.0
 20
917.53125
 30
0.0
 40
13.85161662817552
  1
60.6
 41
0.9992307692307693
  7
EXCADTTF1
 72
     5
 11
1532.0
 21
917.53125
 31
0.0
100
AcDbText
  0
TEXT
  5
104
330
1F
100
AcDbEntity
  8
図面枠
  6
CONTINUOUS
 62
     4
100
AcDbText
 10
1548.0
 20
869.53125
 30
0.0
 40
13.85161662817552
  1
kg
 41
0.9992307692307693
  7
EXCADTTF1
 72
     5
 11
1566.0
 21
869.53125
 31
0.0
100
AcDbText
  0
TEXT
  5
105
330
1F
100
AcDbEntity
  8
図面枠
  6
CONTINUOUS
 62
     4
100
AcDbText
 10
1308.0
 20
893.53125
 30
0.0
 40
13.85161662817552
  1
所要油量
 41
0.9992307692307693
  7
EXCADTTF1
 72
     5
 11
1380.0
 21
893.53125
 31
0.0
100
AcDbText
  0
TEXT
  5
106
330
1F
100
AcDbEntity
  8
図面枠
  6
CONTINUOUS
 62
     4
100
AcDbText
 10
1308.0
 20
869.53125
 30
0.0
 40
13.85161662817552
  1
重量
 41
0.9992307692307693
  7
EXCADTTF1
 72
     5
 11
1344.0
 21
869.53125
 31
0.0
100
AcDbText
  0
LINE
  5
107
330
1F
100
AcDbEntity
  8
図面枠
  6
CONTINUOUS
 62
     2
100
AcDbLine
 10
1300.0
 20
912.0
 30
0.0
 11
1620.0
 21
912.0
 31
0.0
  0
LINE
  5
108
330
1F
100
AcDbEntity
  8
図面枠
  6
CONTINUOUS
 62
     2
100
AcDbLine
 10
1300.0
 20
888.0
 30
0.0
 11
1620.0
 21
888.0
 31
0.0
  0
LINE
  5
109
330
1F
100
AcDbEntity
  8
図面枠
  6
CONTINUOUS
 62
     3
100
AcDbLine
 10
1300.0
 20
864.0
 30
0.0
 11
1620.0
 21
864.0
 31
0.0
  0
TEXT
  5
10A
330
1F
100
AcDbEntity
  8
図面枠
  6
CONTINUOUS
 62
     4
100
AcDbText
 10
1487.0
 20
869.53125
 30
0.0
 40
13.85161662817552
  1
約215
 41
0.9992307692307693
  7
EXCADTTF1
 72
     5
 11
1532.0
 21
869.53125
 31
0.0
100
AcDbText
  0
TEXT
  5
10B
330
1F
100
AcDbEntity
  8
図面枠
  6
CONTINUOUS
 62
     4
100
AcDbText
 10
1548.0
 20
941.53125
 30
0.0
 40
13.85161662817552
  1
cm
 41
0.9992307692307693
  7
EXCADTTF1
 72
     5
 11
1566.0
 21
941.53125
 31
0.0
100
AcDbText
  0
TEXT
  5
10C
330
1F
100
AcDbEntity
  8
図面枠
  6
CONTINUOUS
 62
     4
100
AcDbText
 10
1560.6
 20
950.0390626341105
 30
0.0
 40
6.23322704234795
  1
2
 41
0.9992308398189645
  7
EXCADTTF1
 72
     5
 11
1564.65
 21
950.0390626341105
 31
0.0
100
AcDbText
  0
LINE
  5
10D
330
1F
100
AcDbEntity
  8
図面枠
  6
CONTINUOUS
 62
     3
100
AcDbLine
 10
1300.0
 20
1128.0
 30
0.0
 11
1300.0
 21
864.0
 31
0.0
  0
LINE
  5
10E
330
1F
100
AcDbEntity
  8
図面枠
  6
CONTINUOUS
 62
     2
100
AcDbLine
 10
1460.0
 20
1104.0
 30
0.0
 11
1460.0
 21
864.0
 31
0.0
  0
LINE
  5
10F
330
1F
100
AcDbEntity
  8
図面枠
  6
CONTINUOUS
 62
     2
100
AcDbLine
 10
1540.0
 20
1104.0
 30
0.0
 11
1540.0
 21
864.0
 31
0.0
  0
LINE
  5
110
330
1F
100
AcDbEntity
  8
図面枠
  6
CONTINUOUS
 62
     3
100
AcDbLine
 10
1620.0
 20
1128.0
 30
0.0
 11
1620.0
 21
864.0
 31
0.0
  0
TEXT
  5
111
330
1F
100
AcDbEntity
  8
図面枠
  6
CONTINUOUS
 62
     4
100
AcDbText
 10
1548.0
 20
893.53125
 30
0.0
 40
13.85161662817552
  1
L
 41
0.9992307692307693
  7
EXCADTTF1
 72
     5
 11
1557.0
 21
893.53125
 31
0.0
100
AcDbText
  0
TEXT
  5
112
330
1F
100
AcDbEntity
  8
図面枠
  6
CONTINUOUS
 62
     4
100
AcDbText
 10
1505.0
 20
893.53125
 30
0.0
 40
13.85161662817552
  1
6.6
 41
0.9992307692307694
  7
EXCADTTF1
 72
     5
 11
1532.0
 21
893.53125
 31
0.0
100
AcDbText
  0
DIMENSION
  5
114
330
1F
100
AcDbEntity
  8
Ｓ_１_１
  6
CONTINUOUS
 62
     2
100
AcDbDimension
  2
*D15
 10
1235.00003
 20
775.0
 30
0.0
 11
1292.500015
 21
786.0
 31
0.0
 70
   160
  3
ISO-25
100
AcDbAlignedDimension
 13
1350.0
 23
655.500009
 33
0.0
 14
1235.00003
 24
729.431543
 34
0.0
100
AcDbRotatedDimension
1001
ACAD
1000
DSTYLE
1002
{
1070
   270
1070
     2
1070
     6
1000
EX_NORM
1070
     7
1000
EX_NORM
1070
    41
1040
12.0
1070
    42
1040
6.0
1070
    44
1040
4.0
1070
    73
1070
     0
1070
    74
1070
     0
1070
    75
1070
     0
1070
    76
1070
     0
1070
    77
1070
     1
1070
    78
1070
     8
1070
   140
1040
13.85161662817552
1070
   147
1040
0.0
1070
   173
1070
     1
1070
   176
1070
     2
1070
   177
1070
     2
1070
   178
1070
     2
1070
   271
1070
     2
1070
   277
1070
     2
1070
   279
1070
     2
1070
   280
1070
     0
1070
   287
1070
     5
1070
   340
1005
113
1002
}
  0
DIMENSION
  5
122
330
1F
100
AcDbEntity
  8
Ｓ_１_１
  6
CONTINUOUS
 62
     2
100
AcDbDimension
  2
*D16
 10
970.000034
 20
775.0
 30
0.0
 11
1102.500032
 21
786.0
 31
0.0
 70
   160
  3
ISO-25
100
AcDbAlignedDimension
 13
1235.00003
 23
735.431543
 33
0.0
 14
970.000034
 24
729.431543
 34
0.0
100
AcDbRotatedDimension
1001
ACAD
1000
DSTYLE
1002
{
1070
   270
1070
     2
1070
     6
1000
EX_NORM
1070
     7
1000
EX_NORM
1070
    41
1040
12.0
1070
    42
1040
0.0
1070
    44
1040
0.0
1070
    73
1070
     0
1070
    74
1070
     0
1070
    75
1070
     1
1070
    76
1070
     1
1070
    77
1070
     1
1070
    78
1070
     8
1070
   140
1040
13.85161662817552
1070
   147
1040
0.0
1070
   173
1070
     1
1070
   176
1070
     2
1070
   177
1070
     2
1070
   178
1070
     2
1070
   271
1070
     2
1070
   277
1070
     2
1070
   279
1070
     2
1070
   280
1070
     0
1070
   287
1070
     5
1070
   340
1005
113
1002
}
  0
DIMENSION
  5
12D
330
1F
100
AcDbEntity
  8
Ｓ_１_１
  6
CONTINUOUS
 62
     2
100
AcDbDimension
  2
*D17
 10
855.00003
 20
775.0
 30
0.0
 11
912.500032
 21
786.0
 31
0.0
 70
   160
  3
ISO-25
100
AcDbAlignedDimension
 13
970.000034
 23
729.431543
 33
0.0
 14
855.00003
 24
655.500002
 34
0.0
100
AcDbRotatedDimension
1001
ACAD
1000
DSTYLE
1002
{
1070
   270
1070
     2
1070
     6
1000
EX_NORM
1070
     7
1000
EX_NORM
1070
    41
1040
12.0
1070
    42
1040
6.0
1070
    44
1040
4.0
1070
    73
1070
     0
1070
    74
1070
     0
1070
    75
1070
     0
1070
    76
1070
     0
1070
    77
1070
     1
1070
    78
1070
     8
1070
   140
1040
13.85161662817552
1070
   147
1040
0.0
1070
   173
1070
     1
1070
   176
1070
     2
1070
   177
1070
     2
1070
   178
1070
     2
1070
   271
1070
     2
1070
   277
1070
     2
1070
   279
1070
     2
1070
   280
1070
     0
1070
   287
1070
     5
1070
   340
1005
113
1002
}
  0
DIMENSION
  5
13A
330
1F
100
AcDbEntity
  8
Ｓ_１_１
  6
CONTINUOUS
 62
     2
100
AcDbDimension
  2
*D18
 10
1425.0
 20
392.499994
 30
0.0
 11
1414.0
 21
524.9999865
 31
0.0
 70
   160
  1
%%c265
  3
ISO-25
100
AcDbAlignedDimension
 13
1348.00003
 23
657.499979
 33
0.0
 14
1348.00003
 24
392.499994
 34
0.0
 50
90.0
100
AcDbRotatedDimension
1001
ACAD
1000
DSTYLE
1002
{
1070
   270
1070
     2
1070
     6
1000
EX_NORM
1070
     7
1000
EX_NORM
1070
    41
1040
12.0
1070
    42
1040
6.0
1070
    44
1040
4.0
1070
    73
1070
     0
1070
    74
1070
     0
1070
    75
1070
     1
1070
    76
1070
     0
1070
    77
1070
     1
1070
    78
1070
     8
1070
   140
1040
13.85161662817552
1070
   147
1040
0.0
1070
   173
1070
     1
1070
   176
1070
     2
1070
   177
1070
     2
1070
   178
1070
     2
1070
   271
1070
     2
1070
   277
1070
     2
1070
   279
1070
     2
1070
   280
1070
     0
1070
   287
1070
     5
1070
   340
1005
113
1002
}
  0
DIMENSION
  5
146
330
1F
100
AcDbEntity
  8
Ｓ_１_１
  6
CONTINUOUS
 62
     2
100
AcDbDimension
  2
*D19
 10
1425.0
 20
717.499994
 30
0.0
 11
1414.0
 21
687.4999865
 31
0.0
 70
   160
  3
ISO-25
100
AcDbAlignedDimension
 13
1348.000029
 23
657.499979
 33
0.0
 14
1278.000041
 24
717.499994
 34
0.0
 50
90.0
100
AcDbRotatedDimension
1001
ACAD
1000
DSTYLE
1002
{
1070
   270
1070
     2
1070
     6
1000
EX_NORM
1070
     7
1000
EX_NORM
1070
    41
1040
12.0
1070
    42
1040
6.0
1070
    44
1040
4.0
1070
    73
1070
     0
1070
    74
1070
     0
1070
    75
1070
     0
1070
    76
1070
     0
1070
    77
1070
     1
1070
    78
1070
     8
1070
   140
1040
13.85161662817552
1070
   147
1040
0.0
1070
   173
1070
     1
1070
   176
1070
     2
1070
   177
1070
     2
1070
   178
1070
     2
1070
   271
1070
     2
1070
   277
1070
     2
1070
   279
1070
     2
1070
   280
1070
     0
1070
   287
1070
     5
1070
   340
1005
113
1002
}
  0
DIMENSION
  5
153
330
1F
100
AcDbEntity
  8
Ｓ_１_１
  6
CONTINUOUS
 62
     2
100
AcDbDimension
  2
*D20
 10
725.0
 20
405.000002
 30
0.0
 11
714.0
 21
524.999998
 31
0.0
 70
   160
  1
%%c240
  3
ISO-25
100
AcDbAlignedDimension
 13
792.0000299999999
 23
644.999994
 33
0.0
 14
792.0000299999999
 24
405.000002
 34
0.0
 50
90.0
100
AcDbRotatedDimension
1001
ACAD
1000
DSTYLE
1002
{
1070
   270
1070
     2
1070
     6
1000
EX_NORM
1070
     7
1000
EX_NORM
1070
    41
1040
12.0
1070
    42
1040
6.0
1070
    44
1040
4.0
1070
    73
1070
     0
1070
    74
1070
     0
1070
    75
1070
     0
1070
    76
1070
     0
1070
    77
1070
     1
1070
    78
1070
     8
1070
   140
1040
13.85161662817552
1070
   147
1040
0.0
1070
   173
1070
     1
1070
   176
1070
     2
1070
   177
1070
     2
1070
   178
1070
     2
1070
   271
1070
     2
1070
   277
1070
     2
1070
   279
1070
     2
1070
   280
1070
     0
1070
   287
1070
     5
1070
   340
1005
113
1002
}
  0
DIMENSION
  5
160
330
1F
100
AcDbEntity
  8
Ｓ_１_１
  6
CONTINUOUS
 62
     2
100
AcDbDimension
  2
*D21
 10
855.00003
 20
325.0
 30
0.0
 11
1102.500015
 21
336.0
 31
0.0
 70
   160
  3
ISO-25
100
AcDbAlignedDimension
 13
1350.0
 23
394.49997400001
 33
0.0
 14
855.00003
 24
394.500012
 34
0.0
100
AcDbRotatedDimension
1001
ACAD
1000
DSTYLE
1002
{
1070
   270
1070
     2
1070
     6
1000
EX_NORM
1070
     7
1000
EX_NORM
1070
    41
1040
12.0
1070
    42
1040
0.0
1070
    44
1040
0.0
1070
    73
1070
     0
1070
    74
1070
     0
1070
    75
1070
     1
1070
    76
1070
     1
1070
    77
1070
     1
1070
    78
1070
     8
1070
   140
1040
13.85161662817552
1070
   147
1040
0.0
1070
   173
1070
     1
1070
   176
1070
     2
1070
   177
1070
     2
1070
   178
1070
     2
1070
   271
1070
     2
1070
   277
1070
     2
1070
   279
1070
     2
1070
   280
1070
     0
1070
   287
1070
     5
1070
   340
1005
113
1002
}
  0
DIMENSION
  5
16B
330
1F
100
AcDbEntity
  8
Ｓ_１_１
  6
CONTINUOUS
 62
     2
100
AcDbDimension
  2
*D22
 10
835.000038
 20
325.0
 30
0.0
 11
845.000034
 21
336.0
 31
0.0
 70
   160
  3
ISO-25
100
AcDbAlignedDimension
 13
855.00003
 23
394.500012
 33
0.0
 14
835.000038
 24
406.999965
 34
0.0
100
AcDbRotatedDimension
1001
ACAD
1000
DSTYLE
1002
{
1070
   270
1070
     2
1070
     6
1000
EX_NORM
1070
     7
1000
EX_BCIR
1070
    41
1040
12.0
1070
    42
1040
6.0
1070
    44
1040
4.0
1070
    73
1070
     0
1070
    74
1070
     0
1070
    75
1070
     0
1070
    76
1070
     0
1070
    77
1070
     1
1070
    78
1070
     8
1070
   140
1040
13.85161662817552
1070
   147
1040
0.0
1070
   173
1070
     1
1070
   176
1070
     2
1070
   177
1070
     2
1070
   178
1070
     2
1070
   271
1070
     2
1070
   277
1070
     2
1070
   279
1070
     2
1070
   280
1070
     0
1070
   287
1070
     5
1070
   340
1005
113
1002
}
  0
DIMENSION
  5
17A
330
1F
100
AcDbEntity
  8
Ｓ_１_１
  6
CONTINUOUS
 62
     2
100
AcDbDimension
  2
*D23
 10
820.000038
 20
325.0
 30
0.0
 11
827.500038
 21
314.0
 31
0.0
 70
   160
  3
ISO-25
100
AcDbAlignedDimension
 13
835.000038
 23
406.999965
 33
0.0
 14
820.000038
 24
407.00021119998
 34
0.0
100
AcDbRotatedDimension
1001
ACAD
1000
DSTYLE
1002
{
1070
   270
1070
     2
1070
     6
1000
EX_BCIR
1070
     7
1000
EX_BCIR
1070
    41
1040
4.0
1070
    42
1040
6.0
1070
    44
1040
4.0
1070
    73
1070
     0
1070
    74
1070
     0
1070
    75
1070
     1
1070
    76
1070
     0
1070
    77
1070
     1
1070
    78
1070
     8
1070
   140
1040
13.85161662817552
1070
   147
1040
0.0
1070
   173
1070
     1
1070
   176
1070
     2
1070
   177
1070
     2
1070
   178
1070
     2
1070
   271
1070
     2
1070
   277
1070
     2
1070
   279
1070
     2
1070
   280
1070
     0
1070
   287
1070
     5
1070
   340
1005
113
1002
}
  0
DIMENSION
  5
186
330
1F
100
AcDbEntity
  8
Ｓ_１_１
  6
CONTINUOUS
 62
     2
100
AcDbDimension
  2
*D24
 10
790.000038
 20
325.0
 30
0.0
 11
805.000038
 21
336.0
 31
0.0
 70
   160
  3
ISO-25
100
AcDbAlignedDimension
 13
820.000038
 23
407.00021119998
 33
0.0
 14
790.000038
 24
406.999982
 34
0.0
100
AcDbRotatedDimension
1001
ACAD
1000
DSTYLE
1002
{
1070
   270
1070
     2
1070
     6
1000
EX_BCIR
1070
     7
1000
EX_NORM
1070
    41
1040
4.0
1070
    42
1040
0.0
1070
    44
1040
0.0
1070
    73
1070
     0
1070
    74
1070
     0
1070
    75
1070
     1
1070
    76
1070
     1
1070
    77
1070
     1
1070
    78
1070
     8
1070
   140
1040
13.85161662817552
1070
   147
1040
0.0
1070
   173
1070
     1
1070
   176
1070
     2
1070
   177
1070
     2
1070
   178
1070
     2
1070
   271
1070
     2
1070
   277
1070
     2
1070
   279
1070
     2
1070
   280
1070
     0
1070
   287
1070
     5
1070
   340
1005
113
1002
}
  0
DIMENSION
  5
191
330
1F
100
AcDbEntity
  8
Ｓ_１_１
  6
CONTINUOUS
 62
     2
100
AcDbDimension
  2
*D25
 10
1350.0
 20
300.0
 30
0.0
 11
1070.000019
 21
311.0
 31
0.0
 70
   160
  3
ISO-25
100
AcDbAlignedDimension
 13
790.000038
 23
406.999982
 33
0.0
 14
1350.0
 24
394.49997400001
 34
0.0
100
AcDbRotatedDimension
1001
ACAD
1000
DSTYLE
1002
{
1070
   270
1070
     2
1070
     6
1000
EX_NORM
1070
     7
1000
EX_NORM
1070
    41
1040
12.0
1070
    42
1040
6.0
1070
    44
1040
4.0
1070
    73
1070
     0
1070
    74
1070
     0
1070
    75
1070
     0
1070
    76
1070
     0
1070
    77
1070
     1
1070
    78
1070
     8
1070
   140
1040
13.85161662817552
1070
   147
1040
0.0
1070
   173
1070
     1
1070
   176
1070
     2
1070
   177
1070
     2
1070
   178
1070
     2
1070
   271
1070
     2
1070
   277
1070
     2
1070
   279
1070
     2
1070
   280
1070
     0
1070
   287
1070
     5
1070
   340
1005
113
1002
}
  0
DIMENSION
  5
19E
330
1F
100
AcDbEntity
  8
Ｓ_１_１
  6
CONTINUOUS
 62
     2
100
AcDbDimension
  2
*D26
 10
454.083435
 20
775.0
 30
0.0
 11
409.0834350000001
 21
786.0
 31
0.0
 70
   160
  1
%%c90
  3
ISO-25
100
AcDbAlignedDimension
 13
364.083435
 23
715.499994
 33
0.0
 14
454.083435
 24
715.499994
 34
0.0
100
AcDbRotatedDimension
1001
ACAD
1000
DSTYLE
1002
{
1070
   270
1070
     2
1070
     6
1000
EX_NORM
1070
     7
1000
EX_NORM
1070
    41
1040
12.0
1070
    42
1040
6.0
1070
    44
1040
4.0
1070
    73
1070
     0
1070
    74
1070
     0
1070
    75
1070
     0
1070
    76
1070
     0
1070
    77
1070
     1
1070
    78
1070
     8
1070
   140
1040
13.85161662817552
1070
   147
1040
0.0
1070
   173
1070
     1
1070
   176
1070
     2
1070
   177
1070
     2
1070
   178
1070
     2
1070
   271
1070
     2
1070
   277
1070
     2
1070
   279
1070
     2
1070
   280
1070
     0
1070
   287
1070
     5
1070
   340
1005
113
1002
}
  0
DIMENSION
  5
1AB
330
1F
100
AcDbEntity
  8
Ｓ_１_１
  6
CONTINUOUS
 62
     2
100
AcDbDimension
  2
*D27
 10
581.583435
 20
800.0
 30
0.0
 11
409.0834350000001
 21
811.0
 31
0.0
 70
   160
  3
ISO-25
100
AcDbAlignedDimension
 13
236.583435
 23
532.5
 33
0.0
 14
581.583435
 24
532.5
 34
0.0
100
AcDbRotatedDimension
1001
ACAD
1000
DSTYLE
1002
{
1070
   270
1070
     2
1070
     6
1000
EX_NORM
1070
     7
1000
EX_NORM
1070
    41
1040
12.0
1070
    42
1040
6.0
1070
    44
1040
4.0
1070
    73
1070
     0
1070
    74
1070
     0
1070
    75
1070
     0
1070
    76
1070
     0
1070
    77
1070
     1
1070
    78
1070
     8
1070
   140
1040
13.85161662817552
1070
   147
1040
0.0
1070
   173
1070
     1
1070
   176
1070
     2
1070
   177
1070
     2
1070
   178
1070
     2
1070
   271
1070
     2
1070
   277
1070
     2
1070
   279
1070
     2
1070
   280
1070
     0
1070
   287
1070
     5
1070
   340
1005
113
1002
}
  0
POINT
  5
1B8
330
1F
100
AcDbEntity
  8
Ｓ_１_１
  6
CONTINUOUS
 62
    80
100
AcDbPoint
 10
825.0000299999999
 20
465.0000090000001
 30
0.0
  0
ARC
  5
1B9
330
1F
100
AcDbEntity
  8
Ｓ_１_１
  6
EXLTYPE2
 62
     1
100
AcDbCircle
 10
1005.000038
 20
525.0
 30
0.0
 40
50.00000400000001
100
AcDbArc
 50
188.6269200000001
 51
0.0
  0
ARC
  5
1BA
330
1F
100
AcDbEntity
  8
Ｓ_１_１
  6
EXLTYPE2
 62
     1
100
AcDbCircle
 10
1005.000038
 20
525.0
 30
0.0
 40
50.00000400000001
100
AcDbArc
 50
0.0
 51
171.37308
  0
LINE
  5
1BB
330
1F
100
AcDbEntity
  8
Ｓ_１_１
  6
EXLTYPE2
 62
     1
100
AcDbLine
 10
1235.00003
 20
729.431543
 30
0.0
 11
1235.00003
 21
615.0711230000001
 31
0.0
  0
LINE
  5
1BC
330
1F
100
AcDbEntity
  8
Ｓ_１_１
  6
EXLTYPE2
 62
     1
100
AcDbLine
 10
970.0000339999999
 20
729.431543
 30
0.0
 11
970.0000339999999
 21
615.0711230000001
 31
0.0
  0
POLYLINE
  5
1BD
330
1F
100
AcDbEntity
  8
Ｓ_１_１
  6
CONTINUOUS
 62
     3
100
AcDb2dPolyline
 66
     1
 10
0.0
 20
0.0
 30
0.0
 70
   128
  0
VERTEX
  5
1BE
330
1BD
100
AcDbEntity
  8
Ｓ_１_１
  6
CONTINUOUS
 62
     3
100
AcDbVertex
100
AcDb2dVertex
 10
1229.00003
 20
651.511419
 30
0.0
  0
VERTEX
  5
1BF
330
1BD
100
AcDbEntity
  8
Ｓ_１_１
  6
CONTINUOUS
 62
     3
100
AcDbVertex
100
AcDb2dVertex
 10
1229.022862
 20
651.250304
 30
0.0
  0
VERTEX
  5
1C0
330
1BD
100
AcDbEntity
  8
Ｓ_１_１
  6
CONTINUOUS
 62
     3
100
AcDbVertex
100
AcDb2dVertex
 10
1229.091184
 20
650.991176
 30
0.0
  0
VERTEX
  5
1C1
330
1BD
100
AcDbEntity
  8
Ｓ_１_１
  6
CONTINUOUS
 62
     3
100
AcDbVertex
100
AcDb2dVertex
 10
1229.204475
 20
650.736007
 30
0.0
  0
VERTEX
  5
1C2
330
1BD
100
AcDbEntity
  8
Ｓ_１_１
  6
CONTINUOUS
 62
     3
100
AcDbVertex
100
AcDb2dVertex
 10
1229.361874
 20
650.48674
 30
0.0
  0
VERTEX
  5
1C3
330
1BD
100
AcDbEntity
  8
Ｓ_１_１
  6
CONTINUOUS
 62
     3
100
AcDbVertex
100
AcDb2dVertex
 10
1229.562183
 20
650.245271
 30
0.0
  0
VERTEX
  5
1C4
330
1BD
100
AcDbEntity
  8
Ｓ_１_１
  6
CONTINUOUS
 62
     3
100
AcDbVertex
100
AcDb2dVertex
 10
1229.803878
 20
650.0134390000001
 30
0.0
  0
VERTEX
  5
1C5
330
1BD
100
AcDbEntity
  8
Ｓ_１_１
  6
CONTINUOUS
 62
     3
100
AcDbVertex
100
AcDb2dVertex
 10
1230.085118
 20
649.793007
 30
0.0
  0
VERTEX
  5
1C6
330
1BD
100
AcDbEntity
  8
Ｓ_１_１
  6
CONTINUOUS
 62
     3
100
AcDbVertex
100
AcDb2dVertex
 10
1230.403763
 20
649.5856530000001
 30
0.0
  0
VERTEX
  5
1C7
330
1BD
100
AcDbEntity
  8
Ｓ_１_１
  6
CONTINUOUS
 62
     3
100
AcDbVertex
100
AcDb2dVertex
 10
1230.757389
 20
649.392955
 30
0.0
  0
VERTEX
  5
1C8
330
1BD
100
AcDbEntity
  8
Ｓ_１_１
  6
CONTINUOUS
 62
     3
100
AcDbVertex
100
AcDb2dVertex
 10
1231.143304
 20
649.2163800000001
 30
0.0
  0
VERTEX
  5
1C9
330
1BD
100
AcDbEntity
  8
Ｓ_１_１
  6
CONTINUOUS
 62
     3
100
AcDbVertex
100
AcDb2dVertex
 10
1231.558571
 20
649.057272
 30
0.0
  0
VERTEX
  5
1CA
330
1BD
100
AcDbEntity
  8
Ｓ_１_１
  6
CONTINUOUS
 62
     3
100
AcDbVertex
100
AcDb2dVertex
 10
1232.00003
 20
648.916841
 30
0.0
  0
VERTEX
  5
1CB
330
1BD
100
AcDbEntity
  8
Ｓ_１_１
  6
CONTINUOUS
 62
     3
100
AcDbVertex
100
AcDb2dVertex
 10
1232.464321
 20
648.796157
 30
0.0
  0
VERTEX
  5
1CC
330
1BD
100
AcDbEntity
  8
Ｓ_１_１
  6
CONTINUOUS
 62
     3
100
AcDbVertex
100
AcDb2dVertex
 10
1232.947909
 20
648.696137
 30
0.0
  0
VERTEX
  5
1CD
330
1BD
100
AcDbEntity
  8
Ｓ_１_１
  6
CONTINUOUS
 62
     3
100
AcDbVertex
100
AcDb2dVertex
 10
1233.447116
 20
648.617544
 30
0.0
  0
VERTEX
  5
1CE
330
1BD
100
AcDbEntity
  8
Ｓ_１_１
  6
CONTINUOUS
 62
     3
100
AcDbVertex
100
AcDb2dVertex
 10
1233.958141
 20
648.560974
 30
0.0
  0
VERTEX
  5
1CF
330
1BD
100
AcDbEntity
  8
Ｓ_１_１
  6
CONTINUOUS
 62
     3
100
AcDbVertex
100
AcDb2dVertex
 10
1234.477096
 20
648.5268590000001
 30
0.0
  0
VERTEX
  5
1D0
330
1BD
100
AcDbEntity
  8
Ｓ_１_１
  6
CONTINUOUS
 62
     3
100
AcDbVertex
100
AcDb2dVertex
 10
1235.00003
 20
648.515459
 30
0.0
  0
VERTEX
  5
1D1
330
1BD
100
AcDbEntity
  8
Ｓ_１_１
  6
CONTINUOUS
 62
     3
100
AcDbVertex
100
AcDb2dVertex
 10
1235.522965
 20
648.5268590000001
 30
0.0
  0
VERTEX
  5
1D2
330
1BD
100
AcDbEntity
  8
Ｓ_１_１
  6
CONTINUOUS
 62
     3
100
AcDbVertex
100
AcDb2dVertex
 10
1236.041919
 20
648.560974
 30
0.0
  0
VERTEX
  5
1D3
330
1BD
100
AcDbEntity
  8
Ｓ_１_１
  6
CONTINUOUS
 62
     3
100
AcDbVertex
100
AcDb2dVertex
 10
1236.552944
 20
648.617544
 30
0.0
  0
VERTEX
  5
1D4
330
1BD
100
AcDbEntity
  8
Ｓ_１_１
  6
CONTINUOUS
 62
     3
100
AcDbVertex
100
AcDb2dVertex
 10
1237.052151
 20
648.696137
 30
0.0
  0
VERTEX
  5
1D5
330
1BD
100
AcDbEntity
  8
Ｓ_１_１
  6
CONTINUOUS
 62
     3
100
AcDbVertex
100
AcDb2dVertex
 10
1237.53574
 20
648.796157
 30
0.0
  0
VERTEX
  5
1D6
330
1BD
100
AcDbEntity
  8
Ｓ_１_１
  6
CONTINUOUS
 62
     3
100
AcDbVertex
100
AcDb2dVertex
 10
1238.00003
 20
648.916841
 30
0.0
  0
VERTEX
  5
1D7
330
1BD
100
AcDbEntity
  8
Ｓ_１_１
  6
CONTINUOUS
 62
     3
100
AcDbVertex
100
AcDb2dVertex
 10
1238.441489
 20
649.057272
 30
0.0
  0
VERTEX
  5
1D8
330
1BD
100
AcDbEntity
  8
Ｓ_１_１
  6
CONTINUOUS
 62
     3
100
AcDbVertex
100
AcDb2dVertex
 10
1238.856756
 20
649.2163800000001
 30
0.0
  0
VERTEX
  5
1D9
330
1BD
100
AcDbEntity
  8
Ｓ_１_１
  6
CONTINUOUS
 62
     3
100
AcDbVertex
100
AcDb2dVertex
 10
1239.242671
 20
649.392955
 30
0.0
  0
VERTEX
  5
1DA
330
1BD
100
AcDbEntity
  8
Ｓ_１_１
  6
CONTINUOUS
 62
     3
100
AcDbVertex
100
AcDb2dVertex
 10
1239.596297
 20
649.5856530000001
 30
0.0
  0
VERTEX
  5
1DB
330
1BD
100
AcDbEntity
  8
Ｓ_１_１
  6
CONTINUOUS
 62
     3
100
AcDbVertex
100
AcDb2dVertex
 10
1239.914942
 20
649.793007
 30
0.0
  0
VERTEX
  5
1DC
330
1BD
100
AcDbEntity
  8
Ｓ_１_１
  6
CONTINUOUS
 62
     3
100
AcDbVertex
100
AcDb2dVertex
 10
1240.196183
 20
650.0134390000001
 30
0.0
  0
VERTEX
  5
1DD
330
1BD
100
AcDbEntity
  8
Ｓ_１_１
  6
CONTINUOUS
 62
     3
100
AcDbVertex
100
AcDb2dVertex
 10
1240.437877
 20
650.245271
 30
0.0
  0
VERTEX
  5
1DE
330
1BD
100
AcDbEntity
  8
Ｓ_１_１
  6
CONTINUOUS
 62
     3
100
AcDbVertex
100
AcDb2dVertex
 10
1240.638186
 20
650.48674
 30
0.0
  0
VERTEX
  5
1DF
330
1BD
100
AcDbEntity
  8
Ｓ_１_１
  6
CONTINUOUS
 62
     3
100
AcDbVertex
100
AcDb2dVertex
 10
1240.795585
 20
650.736007
 30
0.0
  0
VERTEX
  5
1E0
330
1BD
100
AcDbEntity
  8
Ｓ_１_１
  6
CONTINUOUS
 62
     3
100
AcDbVertex
100
AcDb2dVertex
 10
1240.908877
 20
650.991176
 30
0.0
  0
VERTEX
  5
1E1
330
1BD
100
AcDbEntity
  8
Ｓ_１_１
  6
CONTINUOUS
 62
     3
100
AcDbVertex
100
AcDb2dVertex
 10
1240.977198
 20
651.250304
 30
0.0
  0
VERTEX
  5
1E2
330
1BD
100
AcDbEntity
  8
Ｓ_１_１
  6
CONTINUOUS
 62
     3
100
AcDbVertex
100
AcDb2dVertex
 10
1241.00003
 20
651.511419
 30
0.0
  0
VERTEX
  5
1E3
330
1BD
100
AcDbEntity
  8
Ｓ_１_１
  6
CONTINUOUS
 62
     3
100
AcDbVertex
100
AcDb2dVertex
 10
1240.977198
 20
651.772534
 30
0.0
  0
VERTEX
  5
1E4
330
1BD
100
AcDbEntity
  8
Ｓ_１_１
  6
CONTINUOUS
 62
     3
100
AcDbVertex
100
AcDb2dVertex
 10
1240.908877
 20
652.0316620000001
 30
0.0
  0
VERTEX
  5
1E5
330
1BD
100
AcDbEntity
  8
Ｓ_１_１
  6
CONTINUOUS
 62
     3
100
AcDbVertex
100
AcDb2dVertex
 10
1240.795585
 20
652.28683
 30
0.0
  0
VERTEX
  5
1E6
330
1BD
100
AcDbEntity
  8
Ｓ_１_１
  6
CONTINUOUS
 62
     3
100
AcDbVertex
100
AcDb2dVertex
 10
1240.638186
 20
652.536098
 30
0.0
  0
VERTEX
  5
1E7
330
1BD
100
AcDbEntity
  8
Ｓ_１_１
  6
CONTINUOUS
 62
     3
100
AcDbVertex
100
AcDb2dVertex
 10
1240.437877
 20
652.777566
 30
0.0
  0
VERTEX
  5
1E8
330
1BD
100
AcDbEntity
  8
Ｓ_１_１
  6
CONTINUOUS
 62
     3
100
AcDbVertex
100
AcDb2dVertex
 10
1240.196183
 20
653.009399
 30
0.0
  0
VERTEX
  5
1E9
330
1BD
100
AcDbEntity
  8
Ｓ_１_１
  6
CONTINUOUS
 62
     3
100
AcDbVertex
100
AcDb2dVertex
 10
1239.914942
 20
653.229831
 30
0.0
  0
VERTEX
  5
1EA
330
1BD
100
AcDbEntity
  8
Ｓ_１_１
  6
CONTINUOUS
 62
     3
100
AcDbVertex
100
AcDb2dVertex
 10
1239.596297
 20
653.437185
 30
0.0
  0
VERTEX
  5
1EB
330
1BD
100
AcDbEntity
  8
Ｓ_１_１
  6
CONTINUOUS
 62
     3
100
AcDbVertex
100
AcDb2dVertex
 10
1239.242671
 20
653.6298830000001
 30
0.0
  0
VERTEX
  5
1EC
330
1BD
100
AcDbEntity
  8
Ｓ_１_１
  6
CONTINUOUS
 62
     3
100
AcDbVertex
100
AcDb2dVertex
 10
1238.856756
 20
653.806458
 30
0.0
  0
VERTEX
  5
1ED
330
1BD
100
AcDbEntity
  8
Ｓ_１_１
  6
CONTINUOUS
 62
     3
100
AcDbVertex
100
AcDb2dVertex
 10
1238.441489
 20
653.9655660000001
 30
0.0
  0
VERTEX
  5
1EE
330
1BD
100
AcDbEntity
  8
Ｓ_１_１
  6
CONTINUOUS
 62
     3
100
AcDbVertex
100
AcDb2dVertex
 10
1238.00003
 20
654.105997
 30
0.0
  0
VERTEX
  5
1EF
330
1BD
100
AcDbEntity
  8
Ｓ_１_１
  6
CONTINUOUS
 62
     3
100
AcDbVertex
100
AcDb2dVertex
 10
1237.53574
 20
654.226681
 30
0.0
  0
VERTEX
  5
1F0
330
1BD
100
AcDbEntity
  8
Ｓ_１_１
  6
CONTINUOUS
 62
     3
100
AcDbVertex
100
AcDb2dVertex
 10
1237.052151
 20
654.326701
 30
0.0
  0
VERTEX
  5
1F1
330
1BD
100
AcDbEntity
  8
Ｓ_１_１
  6
CONTINUOUS
 62
     3
100
AcDbVertex
100
AcDb2dVertex
 10
1236.552944
 20
654.405294
 30
0.0
  0
VERTEX
  5
1F2
330
1BD
100
AcDbEntity
  8
Ｓ_１_１
  6
CONTINUOUS
 62
     3
100
AcDbVertex
100
AcDb2dVertex
 10
1236.041919
 20
654.461864
 30
0.0
  0
VERTEX
  5
1F3
330
1BD
100
AcDbEntity
  8
Ｓ_１_１
  6
CONTINUOUS
 62
     3
100
AcDbVertex
100
AcDb2dVertex
 10
1235.522965
 20
654.495979
 30
0.0
  0
VERTEX
  5
1F4
330
1BD
100
AcDbEntity
  8
Ｓ_１_１
  6
CONTINUOUS
 62
     3
100
AcDbVertex
100
AcDb2dVertex
 10
1235.00003
 20
654.507379
 30
0.0
  0
VERTEX
  5
1F5
330
1BD
100
AcDbEntity
  8
Ｓ_１_１
  6
CONTINUOUS
 62
     3
100
AcDbVertex
100
AcDb2dVertex
 10
1234.477096
 20
654.495979
 30
0.0
  0
VERTEX
  5
1F6
330
1BD
100
AcDbEntity
  8
Ｓ_１_１
  6
CONTINUOUS
 62
     3
100
AcDbVertex
100
AcDb2dVertex
 10
1233.958141
 20
654.461864
 30
0.0
  0
VERTEX
  5
1F7
330
1BD
100
AcDbEntity
  8
Ｓ_１_１
  6
CONTINUOUS
 62
     3
100
AcDbVertex
100
AcDb2dVertex
 10
1233.447116
 20
654.405294
 30
0.0
  0
VERTEX
  5
1F8
330
1BD
100
AcDbEntity
  8
Ｓ_１_１
  6
CONTINUOUS
 62
     3
100
AcDbVertex
100
AcDb2dVertex
 10
1232.947909
 20
654.326701
 30
0.0
  0
VERTEX
  5
1F9
330
1BD
100
AcDbEntity
  8
Ｓ_１_１
  6
CONTINUOUS
 62
     3
100
AcDbVertex
100
AcDb2dVertex
 10
1232.464321
 20
654.226681
 30
0.0
  0
VERTEX
  5
1FA
330
1BD
100
AcDbEntity
  8
Ｓ_１_１
  6
CONTINUOUS
 62
     3
100
AcDbVertex
100
AcDb2dVertex
 10
1232.00003
 20
654.105997
 30
0.0
  0
VERTEX
  5
1FB
330
1BD
100
AcDbEntity
  8
Ｓ_１_１
  6
CONTINUOUS
 62
     3
100
AcDbVertex
100
AcDb2dVertex
 10
1231.558571
 20
653.9655660000001
 30
0.0
  0
VERTEX
  5
1FC
330
1BD
100
AcDbEntity
  8
Ｓ_１_１
  6
CONTINUOUS
 62
     3
100
AcDbVertex
100
AcDb2dVertex
 10
1231.143304
 20
653.806458
 30
0.0
  0
VERTEX
  5
1FD
330
1BD
100
AcDbEntity
  8
Ｓ_１_１
  6
CONTINUOUS
 62
     3
100
AcDbVertex
100
AcDb2dVertex
 10
1230.757389
 20
653.6298830000001
 30
0.0
  0
VERTEX
  5
1FE
330
1BD
100
AcDbEntity
  8
Ｓ_１_１
  6
CONTINUOUS
 62
     3
100
AcDbVertex
100
AcDb2dVertex
 10
1230.403763
 20
653.437185
 30
0.0
  0
VERTEX
  5
1FF
330
1BD
100
AcDbEntity
  8
Ｓ_１_１
  6
CONTINUOUS
 62
     3
100
AcDbVertex
100
AcDb2dVertex
 10
1230.085118
 20
653.229831
 30
0.0
  0
VERTEX
  5
200
330
1BD
100
AcDbEntity
  8
Ｓ_１_１
  6
CONTINUOUS
 62
     3
100
AcDbVertex
100
AcDb2dVertex
 10
1229.803878
 20
653.009399
 30
0.0
  0
VERTEX
  5
201
330
1BD
100
AcDbEntity
  8
Ｓ_１_１
  6
CONTINUOUS
 62
     3
100
AcDbVertex
100
AcDb2dVertex
 10
1229.562183
 20
652.777566
 30
0.0
  0
VERTEX
  5
202
330
1BD
100
AcDbEntity
  8
Ｓ_１_１
  6
CONTINUOUS
 62
     3
100
AcDbVertex
100
AcDb2dVertex
 10
1229.361874
 20
652.536098
 30
0.0
  0
VERTEX
  5
203
330
1BD
100
AcDbEntity
  8
Ｓ_１_１
  6
CONTINUOUS
 62
     3
100
AcDbVertex
100
AcDb2dVertex
 10
1229.204475
 20
652.28683
 30
0.0
  0
VERTEX
  5
204
330
1BD
100
AcDbEntity
  8
Ｓ_１_１
  6
CONTINUOUS
 62
     3
100
AcDbVertex
100
AcDb2dVertex
 10
1229.091184
 20
652.0316620000001
 30
0.0
  0
VERTEX
  5
205
330
1BD
100
AcDbEntity
  8
Ｓ_１_１
  6
CONTINUOUS
 62
     3
100
AcDbVertex
100
AcDb2dVertex
 10
1229.022862
 20
651.772534
 30
0.0
  0
VERTEX
  5
206
330
1BD
100
AcDbEntity
  8
Ｓ_１_１
  6
CONTINUOUS
 62
     3
100
AcDbVertex
100
AcDb2dVertex
 10
1229.00003
 20
651.511419
 30
0.0
  0
SEQEND
  5
207
330
1BD
100
AcDbEntity
  8
Ｓ_１_１
  6
CONTINUOUS
 62
     3
  0
POLYLINE
  5
208
330
1F
100
AcDbEntity
  8
Ｓ_１_１
  6
CONTINUOUS
 62
     3
100
AcDb2dPolyline
 66
     1
 10
0.0
 20
0.0
 30
0.0
 70
   128
  0
VERTEX
  5
209
330
208
100
AcDbEntity
  8
Ｓ_１_１
  6
CONTINUOUS
 62
     3
100
AcDbVertex
100
AcDb2dVertex
 10
1229.00003
 20
647.511425
 30
0.0
  0
VERTEX
  5
20A
330
208
100
AcDbEntity
  8
Ｓ_１_１
  6
CONTINUOUS
 62
     3
100
AcDbVertex
100
AcDb2dVertex
 10
1229.061102
 20
647.085055
 30
0.0
  0
VERTEX
  5
20B
330
208
100
AcDbEntity
  8
Ｓ_１_１
  6
CONTINUOUS
 62
     3
100
AcDbVertex
100
AcDb2dVertex
 10
1229.243073
 20
646.667365
 30
0.0
  0
VERTEX
  5
20C
330
208
100
AcDbEntity
  8
Ｓ_１_１
  6
CONTINUOUS
 62
     3
100
AcDbVertex
100
AcDb2dVertex
 10
1229.542239
 20
646.266858
 30
0.0
  0
VERTEX
  5
20D
330
208
100
AcDbEntity
  8
Ｓ_１_１
  6
CONTINUOUS
 62
     3
100
AcDbVertex
100
AcDb2dVertex
 10
1229.952511
 20
645.891687
 30
0.0
  0
VERTEX
  5
20E
330
208
100
AcDbEntity
  8
Ｓ_１_１
  6
CONTINUOUS
 62
     3
100
AcDbVertex
100
AcDb2dVertex
 10
1230.465535
 20
645.549489
 30
0.0
  0
VERTEX
  5
20F
330
208
100
AcDbEntity
  8
Ｓ_１_１
  6
CONTINUOUS
 62
     3
100
AcDbVertex
100
AcDb2dVertex
 10
1231.070868
 20
645.24723
 30
0.0
  0
VERTEX
  5
210
330
208
100
AcDbEntity
  8
Ｓ_１_１
  6
CONTINUOUS
 62
     3
100
AcDbVertex
100
AcDb2dVertex
 10
1231.756187
 20
644.991064
 30
0.0
  0
VERTEX
  5
211
330
208
100
AcDbEntity
  8
Ｓ_１_１
  6
CONTINUOUS
 62
     3
100
AcDbVertex
100
AcDb2dVertex
 10
1232.507542
 20
644.786205
 30
0.0
  0
VERTEX
  5
212
330
208
100
AcDbEntity
  8
Ｓ_１_１
  6
CONTINUOUS
 62
     3
100
AcDbVertex
100
AcDb2dVertex
 10
1233.309637
 20
644.636823
 30
0.0
  0
VERTEX
  5
213
330
208
100
AcDbEntity
  8
Ｓ_１_１
  6
CONTINUOUS
 62
     3
100
AcDbVertex
100
AcDb2dVertex
 10
1234.146143
 20
644.545961
 30
0.0
  0
VERTEX
  5
214
330
208
100
AcDbEntity
  8
Ｓ_１_１
  6
CONTINUOUS
 62
     3
100
AcDbVertex
100
AcDb2dVertex
 10
1235.000032
 20
644.5154660000001
 30
0.0
  0
VERTEX
  5
215
330
208
100
AcDbEntity
  8
Ｓ_１_１
  6
CONTINUOUS
 62
     3
100
AcDbVertex
100
AcDb2dVertex
 10
1235.853921
 20
644.545961
 30
0.0
  0
VERTEX
  5
216
330
208
100
AcDbEntity
  8
Ｓ_１_１
  6
CONTINUOUS
 62
     3
100
AcDbVertex
100
AcDb2dVertex
 10
1236.690427
 20
644.636824
 30
0.0
  0
VERTEX
  5
217
330
208
100
AcDbEntity
  8
Ｓ_１_１
  6
CONTINUOUS
 62
     3
100
AcDbVertex
100
AcDb2dVertex
 10
1237.492521
 20
644.786206
 30
0.0
  0
VERTEX
  5
218
330
208
100
AcDbEntity
  8
Ｓ_１_１
  6
CONTINUOUS
 62
     3
100
AcDbVertex
100
AcDb2dVertex
 10
1238.243876
 20
644.991065
 30
0.0
  0
VERTEX
  5
219
330
208
100
AcDbEntity
  8
Ｓ_１_１
  6
CONTINUOUS
 62
     3
100
AcDbVertex
100
AcDb2dVertex
 10
1238.929195
 20
645.247231
 30
0.0
  0
VERTEX
  5
21A
330
208
100
AcDbEntity
  8
Ｓ_１_１
  6
CONTINUOUS
 62
     3
100
AcDbVertex
100
AcDb2dVertex
 10
1239.534528
 20
645.54949
 30
0.0
  0
VERTEX
  5
21B
330
208
100
AcDbEntity
  8
Ｓ_１_１
  6
CONTINUOUS
 62
     3
100
AcDbVertex
100
AcDb2dVertex
 10
1240.047552
 20
645.891688
 30
0.0
  0
VERTEX
  5
21C
330
208
100
AcDbEntity
  8
Ｓ_１_１
  6
CONTINUOUS
 62
     3
100
AcDbVertex
100
AcDb2dVertex
 10
1240.457822
 20
646.26686
 30
0.0
  0
VERTEX
  5
21D
330
208
100
AcDbEntity
  8
Ｓ_１_１
  6
CONTINUOUS
 62
     3
100
AcDbVertex
100
AcDb2dVertex
 10
1240.756988
 20
646.667367
 30
0.0
  0
VERTEX
  5
21E
330
208
100
AcDbEntity
  8
Ｓ_１_１
  6
CONTINUOUS
 62
     3
100
AcDbVertex
100
AcDb2dVertex
 10
1240.938959
 20
647.085057
 30
0.0
  0
VERTEX
  5
21F
330
208
100
AcDbEntity
  8
Ｓ_１_１
  6
CONTINUOUS
 62
     3
100
AcDbVertex
100
AcDb2dVertex
 10
1241.00003
 20
647.511427
 30
0.0
  0
SEQEND
  5
220
330
208
100
AcDbEntity
  8
Ｓ_１_１
  6
CONTINUOUS
 62
     3
  0
POLYLINE
  5
221
330
1F
100
AcDbEntity
  8
Ｓ_１_１
  6
CONTINUOUS
 62
     3
100
AcDb2dPolyline
 66
     1
 10
0.0
 20
0.0
 30
0.0
 70
   128
  0
VERTEX
  5
222
330
221
100
AcDbEntity
  8
Ｓ_１_１
  6
CONTINUOUS
 62
     3
100
AcDbVertex
100
AcDb2dVertex
 10
1232.00003
 20
651.511423
 30
0.0
  0
VERTEX
  5
223
330
221
100
AcDbEntity
  8
Ｓ_１_１
  6
CONTINUOUS
 62
     3
100
AcDbVertex
100
AcDb2dVertex
 10
1232.011446
 20
651.424619
 30
0.0
  0
VERTEX
  5
224
330
221
100
AcDbEntity
  8
Ｓ_１_１
  6
CONTINUOUS
 62
     3
100
AcDbVertex
100
AcDb2dVertex
 10
1232.045607
 20
651.338477
 30
0.0
  0
VERTEX
  5
225
330
221
100
AcDbEntity
  8
Ｓ_１_１
  6
CONTINUOUS
 62
     3
100
AcDbVertex
100
AcDb2dVertex
 10
1232.102253
 20
651.25365
 30
0.0
  0
VERTEX
  5
226
330
221
100
AcDbEntity
  8
Ｓ_１_１
  6
CONTINUOUS
 62
     3
100
AcDbVertex
100
AcDb2dVertex
 10
1232.180952
 20
651.170786
 30
0.0
  0
VERTEX
  5
227
330
221
100
AcDbEntity
  8
Ｓ_１_１
  6
CONTINUOUS
 62
     3
100
AcDbVertex
100
AcDb2dVertex
 10
1232.281107
 20
651.0905130000001
 30
0.0
  0
VERTEX
  5
228
330
221
100
AcDbEntity
  8
Ｓ_１_１
  6
CONTINUOUS
 62
     3
100
AcDbVertex
100
AcDb2dVertex
 10
1232.401954
 20
651.013445
 30
0.0
  0
VERTEX
  5
229
330
221
100
AcDbEntity
  8
Ｓ_１_１
  6
CONTINUOUS
 62
     3
100
AcDbVertex
100
AcDb2dVertex
 10
1232.542574
 20
650.9401660000001
 30
0.0
  0
VERTEX
  5
22A
330
221
100
AcDbEntity
  8
Ｓ_１_１
  6
CONTINUOUS
 62
     3
100
AcDbVertex
100
AcDb2dVertex
 10
1232.701897
 20
650.871234
 30
0.0
  0
VERTEX
  5
22B
330
221
100
AcDbEntity
  8
Ｓ_１_１
  6
CONTINUOUS
 62
     3
100
AcDbVertex
100
AcDb2dVertex
 10
1232.87871
 20
650.807175
 30
0.0
  0
VERTEX
  5
22C
330
221
100
AcDbEntity
  8
Ｓ_１_１
  6
CONTINUOUS
 62
     3
100
AcDbVertex
100
AcDb2dVertex
 10
1233.071667
 20
650.748476
 30
0.0
  0
VERTEX
  5
22D
330
221
100
AcDbEntity
  8
Ｓ_１_１
  6
CONTINUOUS
 62
     3
100
AcDbVertex
100
AcDb2dVertex
 10
1233.279301
 20
650.695583
 30
0.0
  0
VERTEX
  5
22E
330
221
100
AcDbEntity
  8
Ｓ_１_１
  6
CONTINUOUS
 62
     3
100
AcDbVertex
100
AcDb2dVertex
 10
1233.50003
 20
650.648899
 30
0.0
  0
VERTEX
  5
22F
330
221
100
AcDbEntity
  8
Ｓ_１_１
  6
CONTINUOUS
 62
     3
100
AcDbVertex
100
AcDb2dVertex
 10
1233.732175
 20
650.60878
 30
0.0
  0
VERTEX
  5
230
330
221
100
AcDbEntity
  8
Ｓ_１_１
  6
CONTINUOUS
 62
     3
100
AcDbVertex
100
AcDb2dVertex
 10
1233.97397
 20
650.5755300000001
 30
0.0
  0
VERTEX
  5
231
330
221
100
AcDbEntity
  8
Ｓ_１_１
  6
CONTINUOUS
 62
     3
100
AcDbVertex
100
AcDb2dVertex
 10
1234.223573
 20
650.549403
 30
0.0
  0
VERTEX
  5
232
330
221
100
AcDbEntity
  8
Ｓ_１_１
  6
CONTINUOUS
 62
     3
100
AcDbVertex
100
AcDb2dVertex
 10
1234.479086
 20
650.5305970000001
 30
0.0
  0
VERTEX
  5
233
330
221
100
AcDbEntity
  8
Ｓ_１_１
  6
CONTINUOUS
 62
     3
100
AcDbVertex
100
AcDb2dVertex
 10
1234.738563
 20
650.519256
 30
0.0
  0
VERTEX
  5
234
330
221
100
AcDbEntity
  8
Ｓ_１_１
  6
CONTINUOUS
 62
     3
100
AcDbVertex
100
AcDb2dVertex
 10
1235.00003
 20
650.5154660000001
 30
0.0
  0
VERTEX
  5
235
330
221
100
AcDbEntity
  8
Ｓ_１_１
  6
CONTINUOUS
 62
     3
100
AcDbVertex
100
AcDb2dVertex
 10
1235.261497
 20
650.519256
 30
0.0
  0
VERTEX
  5
236
330
221
100
AcDbEntity
  8
Ｓ_１_１
  6
CONTINUOUS
 62
     3
100
AcDbVertex
100
AcDb2dVertex
 10
1235.520975
 20
650.5305970000001
 30
0.0
  0
VERTEX
  5
237
330
221
100
AcDbEntity
  8
Ｓ_１_１
  6
CONTINUOUS
 62
     3
100
AcDbVertex
100
AcDb2dVertex
 10
1235.776487
 20
650.549403
 30
0.0
  0
VERTEX
  5
238
330
221
100
AcDbEntity
  8
Ｓ_１_１
  6
CONTINUOUS
 62
     3
100
AcDbVertex
100
AcDb2dVertex
 10
1236.026091
 20
650.5755300000001
 30
0.0
  0
VERTEX
  5
239
330
221
100
AcDbEntity
  8
Ｓ_１_１
  6
CONTINUOUS
 62
     3
100
AcDbVertex
100
AcDb2dVertex
 10
1236.267885
 20
650.60878
 30
0.0
  0
VERTEX
  5
23A
330
221
100
AcDbEntity
  8
Ｓ_１_１
  6
CONTINUOUS
 62
     3
100
AcDbVertex
100
AcDb2dVertex
 10
1236.50003
 20
650.648899
 30
0.0
  0
VERTEX
  5
23B
330
221
100
AcDbEntity
  8
Ｓ_１_１
  6
CONTINUOUS
 62
     3
100
AcDbVertex
100
AcDb2dVertex
 10
1236.720759
 20
650.695583
 30
0.0
  0
VERTEX
  5
23C
330
221
100
AcDbEntity
  8
Ｓ_１_１
  6
CONTINUOUS
 62
     3
100
AcDbVertex
100
AcDb2dVertex
 10
1236.928393
 20
650.748476
 30
0.0
  0
VERTEX
  5
23D
330
221
100
AcDbEntity
  8
Ｓ_１_１
  6
CONTINUOUS
 62
     3
100
AcDbVertex
100
AcDb2dVertex
 10
1237.12135
 20
650.807175
 30
0.0
  0
VERTEX
  5
23E
330
221
100
AcDbEntity
  8
Ｓ_１_１
  6
CONTINUOUS
 62
     3
100
AcDbVertex
100
AcDb2dVertex
 10
1237.298163
 20
650.871234
 30
0.0
  0
VERTEX
  5
23F
330
221
100
AcDbEntity
  8
Ｓ_１_１
  6
CONTINUOUS
 62
     3
100
AcDbVertex
100
AcDb2dVertex
 10
1237.457486
 20
650.9401660000001
 30
0.0
  0
VERTEX
  5
240
330
221
100
AcDbEntity
  8
Ｓ_１_１
  6
CONTINUOUS
 62
     3
100
AcDbVertex
100
AcDb2dVertex
 10
1237.598106
 20
651.013445
 30
0.0
  0
VERTEX
  5
241
330
221
100
AcDbEntity
  8
Ｓ_１_１
  6
CONTINUOUS
 62
     3
100
AcDbVertex
100
AcDb2dVertex
 10
1237.718953
 20
651.0905130000001
 30
0.0
  0
VERTEX
  5
242
330
221
100
AcDbEntity
  8
Ｓ_１_１
  6
CONTINUOUS
 62
     3
100
AcDbVertex
100
AcDb2dVertex
 10
1237.819108
 20
651.170786
 30
0.0
  0
VERTEX
  5
243
330
221
100
AcDbEntity
  8
Ｓ_１_１
  6
CONTINUOUS
 62
     3
100
AcDbVertex
100
AcDb2dVertex
 10
1237.897808
 20
651.25365
 30
0.0
  0
VERTEX
  5
244
330
221
100
AcDbEntity
  8
Ｓ_１_１
  6
CONTINUOUS
 62
     3
100
AcDbVertex
100
AcDb2dVertex
 10
1237.954453
 20
651.338477
 30
0.0
  0
VERTEX
  5
245
330
221
100
AcDbEntity
  8
Ｓ_１_１
  6
CONTINUOUS
 62
     3
100
AcDbVertex
100
AcDb2dVertex
 10
1237.988614
 20
651.424619
 30
0.0
  0
VERTEX
  5
246
330
221
100
AcDbEntity
  8
Ｓ_１_１
  6
CONTINUOUS
 62
     3
100
AcDbVertex
100
AcDb2dVertex
 10
1238.00003
 20
651.511423
 30
0.0
  0
VERTEX
  5
247
330
221
100
AcDbEntity
  8
Ｓ_１_１
  6
CONTINUOUS
 62
     3
100
AcDbVertex
100
AcDb2dVertex
 10
1237.988614
 20
651.5982260000001
 30
0.0
  0
VERTEX
  5
248
330
221
100
AcDbEntity
  8
Ｓ_１_１
  6
CONTINUOUS
 62
     3
100
AcDbVertex
100
AcDb2dVertex
 10
1237.954453
 20
651.6843690000001
 30
0.0
  0
VERTEX
  5
249
330
221
100
AcDbEntity
  8
Ｓ_１_１
  6
CONTINUOUS
 62
     3
100
AcDbVertex
100
AcDb2dVertex
 10
1237.897808
 20
651.7691950000001
 30
0.0
  0
VERTEX
  5
24A
330
221
100
AcDbEntity
  8
Ｓ_１_１
  6
CONTINUOUS
 62
     3
100
AcDbVertex
100
AcDb2dVertex
 10
1237.819108
 20
651.85206
 30
0.0
  0
VERTEX
  5
24B
330
221
100
AcDbEntity
  8
Ｓ_１_１
  6
CONTINUOUS
 62
     3
100
AcDbVertex
100
AcDb2dVertex
 10
1237.718953
 20
651.9323320000001
 30
0.0
  0
VERTEX
  5
24C
330
221
100
AcDbEntity
  8
Ｓ_１_１
  6
CONTINUOUS
 62
     3
100
AcDbVertex
100
AcDb2dVertex
 10
1237.598106
 20
652.009401
 30
0.0
  0
VERTEX
  5
24D
330
221
100
AcDbEntity
  8
Ｓ_１_１
  6
CONTINUOUS
 62
     3
100
AcDbVertex
100
AcDb2dVertex
 10
1237.457486
 20
652.08268
 30
0.0
  0
VERTEX
  5
24E
330
221
100
AcDbEntity
  8
Ｓ_１_１
  6
CONTINUOUS
 62
     3
100
AcDbVertex
100
AcDb2dVertex
 10
1237.298163
 20
652.151611
 30
0.0
  0
VERTEX
  5
24F
330
221
100
AcDbEntity
  8
Ｓ_１_１
  6
CONTINUOUS
 62
     3
100
AcDbVertex
100
AcDb2dVertex
 10
1237.12135
 20
652.21567
 30
0.0
  0
VERTEX
  5
250
330
221
100
AcDbEntity
  8
Ｓ_１_１
  6
CONTINUOUS
 62
     3
100
AcDbVertex
100
AcDb2dVertex
 10
1236.928393
 20
652.2743700000001
 30
0.0
  0
VERTEX
  5
251
330
221
100
AcDbEntity
  8
Ｓ_１_１
  6
CONTINUOUS
 62
     3
100
AcDbVertex
100
AcDb2dVertex
 10
1236.720759
 20
652.327262
 30
0.0
  0
VERTEX
  5
252
330
221
100
AcDbEntity
  8
Ｓ_１_１
  6
CONTINUOUS
 62
     3
100
AcDbVertex
100
AcDb2dVertex
 10
1236.50003
 20
652.373946
 30
0.0
  0
VERTEX
  5
253
330
221
100
AcDbEntity
  8
Ｓ_１_１
  6
CONTINUOUS
 62
     3
100
AcDbVertex
100
AcDb2dVertex
 10
1236.267885
 20
652.414066
 30
0.0
  0
VERTEX
  5
254
330
221
100
AcDbEntity
  8
Ｓ_１_１
  6
CONTINUOUS
 62
     3
100
AcDbVertex
100
AcDb2dVertex
 10
1236.026091
 20
652.447316
 30
0.0
  0
VERTEX
  5
255
330
221
100
AcDbEntity
  8
Ｓ_１_１
  6
CONTINUOUS
 62
     3
100
AcDbVertex
100
AcDb2dVertex
 10
1235.776487
 20
652.4734430000001
 30
0.0
  0
VERTEX
  5
256
330
221
100
AcDbEntity
  8
Ｓ_１_１
  6
CONTINUOUS
 62
     3
100
AcDbVertex
100
AcDb2dVertex
 10
1235.520975
 20
652.492248
 30
0.0
  0
VERTEX
  5
257
330
221
100
AcDbEntity
  8
Ｓ_１_１
  6
CONTINUOUS
 62
     3
100
AcDbVertex
100
AcDb2dVertex
 10
1235.261497
 20
652.503589
 30
0.0
  0
VERTEX
  5
258
330
221
100
AcDbEntity
  8
Ｓ_１_１
  6
CONTINUOUS
 62
     3
100
AcDbVertex
100
AcDb2dVertex
 10
1235.00003
 20
652.507379
 30
0.0
  0
VERTEX
  5
259
330
221
100
AcDbEntity
  8
Ｓ_１_１
  6
CONTINUOUS
 62
     3
100
AcDbVertex
100
AcDb2dVertex
 10
1234.738563
 20
652.503589
 30
0.0
  0
VERTEX
  5
25A
330
221
100
AcDbEntity
  8
Ｓ_１_１
  6
CONTINUOUS
 62
     3
100
AcDbVertex
100
AcDb2dVertex
 10
1234.479086
 20
652.492248
 30
0.0
  0
VERTEX
  5
25B
330
221
100
AcDbEntity
  8
Ｓ_１_１
  6
CONTINUOUS
 62
     3
100
AcDbVertex
100
AcDb2dVertex
 10
1234.223573
 20
652.4734430000001
 30
0.0
  0
VERTEX
  5
25C
330
221
100
AcDbEntity
  8
Ｓ_１_１
  6
CONTINUOUS
 62
     3
100
AcDbVertex
100
AcDb2dVertex
 10
1233.97397
 20
652.447316
 30
0.0
  0
VERTEX
  5
25D
330
221
100
AcDbEntity
  8
Ｓ_１_１
  6
CONTINUOUS
 62
     3
100
AcDbVertex
100
AcDb2dVertex
 10
1233.732175
 20
652.414066
 30
0.0
  0
VERTEX
  5
25E
330
221
100
AcDbEntity
  8
Ｓ_１_１
  6
CONTINUOUS
 62
     3
100
AcDbVertex
100
AcDb2dVertex
 10
1233.50003
 20
652.373946
 30
0.0
  0
VERTEX
  5
25F
330
221
100
AcDbEntity
  8
Ｓ_１_１
  6
CONTINUOUS
 62
     3
100
AcDbVertex
100
AcDb2dVertex
 10
1233.279301
 20
652.327262
 30
0.0
  0
VERTEX
  5
260
330
221
100
AcDbEntity
  8
Ｓ_１_１
  6
CONTINUOUS
 62
     3
100
AcDbVertex
100
AcDb2dVertex
 10
1233.071667
 20
652.2743700000001
 30
0.0
  0
VERTEX
  5
261
330
221
100
AcDbEntity
  8
Ｓ_１_１
  6
CONTINUOUS
 62
     3
100
AcDbVertex
100
AcDb2dVertex
 10
1232.87871
 20
652.21567
 30
0.0
  0
VERTEX
  5
262
330
221
100
AcDbEntity
  8
Ｓ_１_１
  6
CONTINUOUS
 62
     3
100
AcDbVertex
100
AcDb2dVertex
 10
1232.701897
 20
652.151611
 30
0.0
  0
VERTEX
  5
263
330
221
100
AcDbEntity
  8
Ｓ_１_１
  6
CONTINUOUS
 62
     3
100
AcDbVertex
100
AcDb2dVertex
 10
1232.542574
 20
652.08268
 30
0.0
  0
VERTEX
  5
264
330
221
100
AcDbEntity
  8
Ｓ_１_１
  6
CONTINUOUS
 62
     3
100
AcDbVertex
100
AcDb2dVertex
 10
1232.401954
 20
652.009401
 30
0.0
  0
VERTEX
  5
265
330
221
100
AcDbEntity
  8
Ｓ_１_１
  6
CONTINUOUS
 62
     3
100
AcDbVertex
100
AcDb2dVertex
 10
1232.281107
 20
651.9323320000001
 30
0.0
  0
VERTEX
  5
266
330
221
100
AcDbEntity
  8
Ｓ_１_１
  6
CONTINUOUS
 62
     3
100
AcDbVertex
100
AcDb2dVertex
 10
1232.180952
 20
651.85206
 30
0.0
  0
VERTEX
  5
267
330
221
100
AcDbEntity
  8
Ｓ_１_１
  6
CONTINUOUS
 62
     3
100
AcDbVertex
100
AcDb2dVertex
 10
1232.102253
 20
651.7691950000001
 30
0.0
  0
VERTEX
  5
268
330
221
100
AcDbEntity
  8
Ｓ_１_１
  6
CONTINUOUS
 62
     3
100
AcDbVertex
100
AcDb2dVertex
 10
1232.045607
 20
651.6843690000001
 30
0.0
  0
VERTEX
  5
269
330
221
100
AcDbEntity
  8
Ｓ_１_１
  6
CONTINUOUS
 62
     3
100
AcDbVertex
100
AcDb2dVertex
 10
1232.011446
 20
651.5982260000001
 30
0.0
  0
VERTEX
  5
26A
330
221
100
AcDbEntity
  8
Ｓ_１_１
  6
CONTINUOUS
 62
     3
100
AcDbVertex
100
AcDb2dVertex
 10
1232.00003
 20
651.511423
 30
0.0
  0
SEQEND
  5
26B
330
221
100
AcDbEntity
  8
Ｓ_１_１
  6
CONTINUOUS
 62
     3
  0
POLYLINE
  5
26C
330
1F
100
AcDbEntity
  8
Ｓ_１_１
  6
CONTINUOUS
 62
     3
100
AcDb2dPolyline
 66
     1
 10
0.0
 20
0.0
 30
0.0
 70
   128
  0
VERTEX
  5
26D
330
26C
100
AcDbEntity
  8
Ｓ_１_１
  6
CONTINUOUS
 62
     3
100
AcDbVertex
100
AcDb2dVertex
 10
967.0000339999999
 20
651.511423
 30
0.0
  0
VERTEX
  5
26E
330
26C
100
AcDbEntity
  8
Ｓ_１_１
  6
CONTINUOUS
 62
     3
100
AcDbVertex
100
AcDb2dVertex
 10
967.01145
 20
651.424619
 30
0.0
  0
VERTEX
  5
26F
330
26C
100
AcDbEntity
  8
Ｓ_１_１
  6
CONTINUOUS
 62
     3
100
AcDbVertex
100
AcDb2dVertex
 10
967.0456109999999
 20
651.338477
 30
0.0
  0
VERTEX
  5
270
330
26C
100
AcDbEntity
  8
Ｓ_１_１
  6
CONTINUOUS
 62
     3
100
AcDbVertex
100
AcDb2dVertex
 10
967.1022559999999
 20
651.25365
 30
0.0
  0
VERTEX
  5
271
330
26C
100
AcDbEntity
  8
Ｓ_１_１
  6
CONTINUOUS
 62
     3
100
AcDbVertex
100
AcDb2dVertex
 10
967.1809559999999
 20
651.170786
 30
0.0
  0
VERTEX
  5
272
330
26C
100
AcDbEntity
  8
Ｓ_１_１
  6
CONTINUOUS
 62
     3
100
AcDbVertex
100
AcDb2dVertex
 10
967.2811109999999
 20
651.0905130000001
 30
0.0
  0
VERTEX
  5
273
330
26C
100
AcDbEntity
  8
Ｓ_１_１
  6
CONTINUOUS
 62
     3
100
AcDbVertex
100
AcDb2dVertex
 10
967.4019579999999
 20
651.013445
 30
0.0
  0
VERTEX
  5
274
330
26C
100
AcDbEntity
  8
Ｓ_１_１
  6
CONTINUOUS
 62
     3
100
AcDbVertex
100
AcDb2dVertex
 10
967.5425779999998
 20
650.9401660000001
 30
0.0
  0
VERTEX
  5
275
330
26C
100
AcDbEntity
  8
Ｓ_１_１
  6
CONTINUOUS
 62
     3
100
AcDbVertex
100
AcDb2dVertex
 10
967.7019009999999
 20
650.871234
 30
0.0
  0
VERTEX
  5
276
330
26C
100
AcDbEntity
  8
Ｓ_１_１
  6
CONTINUOUS
 62
     3
100
AcDbVertex
100
AcDb2dVertex
 10
967.878714
 20
650.807175
 30
0.0
  0
VERTEX
  5
277
330
26C
100
AcDbEntity
  8
Ｓ_１_１
  6
CONTINUOUS
 62
     3
100
AcDbVertex
100
AcDb2dVertex
 10
968.0716709999999
 20
650.748476
 30
0.0
  0
VERTEX
  5
278
330
26C
100
AcDbEntity
  8
Ｓ_１_１
  6
CONTINUOUS
 62
     3
100
AcDbVertex
100
AcDb2dVertex
 10
968.2793049999999
 20
650.695583
 30
0.0
  0
VERTEX
  5
279
330
26C
100
AcDbEntity
  8
Ｓ_１_１
  6
CONTINUOUS
 62
     3
100
AcDbVertex
100
AcDb2dVertex
 10
968.5000339999999
 20
650.648899
 30
0.0
  0
VERTEX
  5
27A
330
26C
100
AcDbEntity
  8
Ｓ_１_１
  6
CONTINUOUS
 62
     3
100
AcDbVertex
100
AcDb2dVertex
 10
968.7321789999999
 20
650.60878
 30
0.0
  0
VERTEX
  5
27B
330
26C
100
AcDbEntity
  8
Ｓ_１_１
  6
CONTINUOUS
 62
     3
100
AcDbVertex
100
AcDb2dVertex
 10
968.9739729999999
 20
650.5755300000001
 30
0.0
  0
VERTEX
  5
27C
330
26C
100
AcDbEntity
  8
Ｓ_１_１
  6
CONTINUOUS
 62
     3
100
AcDbVertex
100
AcDb2dVertex
 10
969.223577
 20
650.549403
 30
0.0
  0
VERTEX
  5
27D
330
26C
100
AcDbEntity
  8
Ｓ_１_１
  6
CONTINUOUS
 62
     3
100
AcDbVertex
100
AcDb2dVertex
 10
969.4790889999999
 20
650.5305970000001
 30
0.0
  0
VERTEX
  5
27E
330
26C
100
AcDbEntity
  8
Ｓ_１_１
  6
CONTINUOUS
 62
     3
100
AcDbVertex
100
AcDb2dVertex
 10
969.7385669999999
 20
650.519256
 30
0.0
  0
VERTEX
  5
27F
330
26C
100
AcDbEntity
  8
Ｓ_１_１
  6
CONTINUOUS
 62
     3
100
AcDbVertex
100
AcDb2dVertex
 10
970.0000339999999
 20
650.5154660000001
 30
0.0
  0
VERTEX
  5
280
330
26C
100
AcDbEntity
  8
Ｓ_１_１
  6
CONTINUOUS
 62
     3
100
AcDbVertex
100
AcDb2dVertex
 10
970.261501
 20
650.519256
 30
0.0
  0
VERTEX
  5
281
330
26C
100
AcDbEntity
  8
Ｓ_１_１
  6
CONTINUOUS
 62
     3
100
AcDbVertex
100
AcDb2dVertex
 10
970.5209779999999
 20
650.5305970000001
 30
0.0
  0
VERTEX
  5
282
330
26C
100
AcDbEntity
  8
Ｓ_１_１
  6
CONTINUOUS
 62
     3
100
AcDbVertex
100
AcDb2dVertex
 10
970.7764909999999
 20
650.549403
 30
0.0
  0
VERTEX
  5
283
330
26C
100
AcDbEntity
  8
Ｓ_１_１
  6
CONTINUOUS
 62
     3
100
AcDbVertex
100
AcDb2dVertex
 10
971.0260939999998
 20
650.5755300000001
 30
0.0
  0
VERTEX
  5
284
330
26C
100
AcDbEntity
  8
Ｓ_１_１
  6
CONTINUOUS
 62
     3
100
AcDbVertex
100
AcDb2dVertex
 10
971.267889
 20
650.60878
 30
0.0
  0
VERTEX
  5
285
330
26C
100
AcDbEntity
  8
Ｓ_１_１
  6
CONTINUOUS
 62
     3
100
AcDbVertex
100
AcDb2dVertex
 10
971.5000339999999
 20
650.648899
 30
0.0
  0
VERTEX
  5
286
330
26C
100
AcDbEntity
  8
Ｓ_１_１
  6
CONTINUOUS
 62
     3
100
AcDbVertex
100
AcDb2dVertex
 10
971.7207629999999
 20
650.695583
 30
0.0
  0
VERTEX
  5
287
330
26C
100
AcDbEntity
  8
Ｓ_１_１
  6
CONTINUOUS
 62
     3
100
AcDbVertex
100
AcDb2dVertex
 10
971.9283969999999
 20
650.748476
 30
0.0
  0
VERTEX
  5
288
330
26C
100
AcDbEntity
  8
Ｓ_１_１
  6
CONTINUOUS
 62
     3
100
AcDbVertex
100
AcDb2dVertex
 10
972.1213539999999
 20
650.807175
 30
0.0
  0
VERTEX
  5
289
330
26C
100
AcDbEntity
  8
Ｓ_１_１
  6
CONTINUOUS
 62
     3
100
AcDbVertex
100
AcDb2dVertex
 10
972.2981669999999
 20
650.871234
 30
0.0
  0
VERTEX
  5
28A
330
26C
100
AcDbEntity
  8
Ｓ_１_１
  6
CONTINUOUS
 62
     3
100
AcDbVertex
100
AcDb2dVertex
 10
972.4574899999999
 20
650.9401660000001
 30
0.0
  0
VERTEX
  5
28B
330
26C
100
AcDbEntity
  8
Ｓ_１_１
  6
CONTINUOUS
 62
     3
100
AcDbVertex
100
AcDb2dVertex
 10
972.5981099999999
 20
651.013445
 30
0.0
  0
VERTEX
  5
28C
330
26C
100
AcDbEntity
  8
Ｓ_１_１
  6
CONTINUOUS
 62
     3
100
AcDbVertex
100
AcDb2dVertex
 10
972.7189569999999
 20
651.0905130000001
 30
0.0
  0
VERTEX
  5
28D
330
26C
100
AcDbEntity
  8
Ｓ_１_１
  6
CONTINUOUS
 62
     3
100
AcDbVertex
100
AcDb2dVertex
 10
972.8191119999999
 20
651.170786
 30
0.0
  0
VERTEX
  5
28E
330
26C
100
AcDbEntity
  8
Ｓ_１_１
  6
CONTINUOUS
 62
     3
100
AcDbVertex
100
AcDb2dVertex
 10
972.8978109999999
 20
651.25365
 30
0.0
  0
VERTEX
  5
28F
330
26C
100
AcDbEntity
  8
Ｓ_１_１
  6
CONTINUOUS
 62
     3
100
AcDbVertex
100
AcDb2dVertex
 10
972.9544569999999
 20
651.338477
 30
0.0
  0
VERTEX
  5
290
330
26C
100
AcDbEntity
  8
Ｓ_１_１
  6
CONTINUOUS
 62
     3
100
AcDbVertex
100
AcDb2dVertex
 10
972.9886179999999
 20
651.424619
 30
0.0
  0
VERTEX
  5
291
330
26C
100
AcDbEntity
  8
Ｓ_１_１
  6
CONTINUOUS
 62
     3
100
AcDbVertex
100
AcDb2dVertex
 10
973.0000339999999
 20
651.511423
 30
0.0
  0
VERTEX
  5
292
330
26C
100
AcDbEntity
  8
Ｓ_１_１
  6
CONTINUOUS
 62
     3
100
AcDbVertex
100
AcDb2dVertex
 10
972.9886179999999
 20
651.5982260000001
 30
0.0
  0
VERTEX
  5
293
330
26C
100
AcDbEntity
  8
Ｓ_１_１
  6
CONTINUOUS
 62
     3
100
AcDbVertex
100
AcDb2dVertex
 10
972.9544569999999
 20
651.6843690000001
 30
0.0
  0
VERTEX
  5
294
330
26C
100
AcDbEntity
  8
Ｓ_１_１
  6
CONTINUOUS
 62
     3
100
AcDbVertex
100
AcDb2dVertex
 10
972.8978109999999
 20
651.7691950000001
 30
0.0
  0
VERTEX
  5
295
330
26C
100
AcDbEntity
  8
Ｓ_１_１
  6
CONTINUOUS
 62
     3
100
AcDbVertex
100
AcDb2dVertex
 10
972.8191119999999
 20
651.85206
 30
0.0
  0
VERTEX
  5
296
330
26C
100
AcDbEntity
  8
Ｓ_１_１
  6
CONTINUOUS
 62
     3
100
AcDbVertex
100
AcDb2dVertex
 10
972.7189569999999
 20
651.9323320000001
 30
0.0
  0
VERTEX
  5
297
330
26C
100
AcDbEntity
  8
Ｓ_１_１
  6
CONTINUOUS
 62
     3
100
AcDbVertex
100
AcDb2dVertex
 10
972.5981099999999
 20
652.009401
 30
0.0
  0
VERTEX
  5
298
330
26C
100
AcDbEntity
  8
Ｓ_１_１
  6
CONTINUOUS
 62
     3
100
AcDbVertex
100
AcDb2dVertex
 10
972.4574899999999
 20
652.08268
 30
0.0
  0
VERTEX
  5
299
330
26C
100
AcDbEntity
  8
Ｓ_１_１
  6
CONTINUOUS
 62
     3
100
AcDbVertex
100
AcDb2dVertex
 10
972.2981669999999
 20
652.151611
 30
0.0
  0
VERTEX
  5
29A
330
26C
100
AcDbEntity
  8
Ｓ_１_１
  6
CONTINUOUS
 62
     3
100
AcDbVertex
100
AcDb2dVertex
 10
972.1213539999999
 20
652.21567
 30
0.0
  0
VERTEX
  5
29B
330
26C
100
AcDbEntity
  8
Ｓ_１_１
  6
CONTINUOUS
 62
     3
100
AcDbVertex
100
AcDb2dVertex
 10
971.9283969999999
 20
652.2743700000001
 30
0.0
  0
VERTEX
  5
29C
330
26C
100
AcDbEntity
  8
Ｓ_１_１
  6
CONTINUOUS
 62
     3
100
AcDbVertex
100
AcDb2dVertex
 10
971.7207629999999
 20
652.327262
 30
0.0
  0
VERTEX
  5
29D
330
26C
100
AcDbEntity
  8
Ｓ_１_１
  6
CONTINUOUS
 62
     3
100
AcDbVertex
100
AcDb2dVertex
 10
971.5000339999999
 20
652.373946
 30
0.0
  0
VERTEX
  5
29E
330
26C
100
AcDbEntity
  8
Ｓ_１_１
  6
CONTINUOUS
 62
     3
100
AcDbVertex
100
AcDb2dVertex
 10
971.267889
 20
652.414066
 30
0.0
  0
VERTEX
  5
29F
330
26C
100
AcDbEntity
  8
Ｓ_１_１
  6
CONTINUOUS
 62
     3
100
AcDbVertex
100
AcDb2dVertex
 10
971.0260939999998
 20
652.447316
 30
0.0
  0
VERTEX
  5
2A0
330
26C
100
AcDbEntity
  8
Ｓ_１_１
  6
CONTINUOUS
 62
     3
100
AcDbVertex
100
AcDb2dVertex
 10
970.7764909999999
 20
652.4734430000001
 30
0.0
  0
VERTEX
  5
2A1
330
26C
100
AcDbEntity
  8
Ｓ_１_１
  6
CONTINUOUS
 62
     3
100
AcDbVertex
100
AcDb2dVertex
 10
970.5209779999999
 20
652.492248
 30
0.0
  0
VERTEX
  5
2A2
330
26C
100
AcDbEntity
  8
Ｓ_１_１
  6
CONTINUOUS
 62
     3
100
AcDbVertex
100
AcDb2dVertex
 10
970.261501
 20
652.503589
 30
0.0
  0
VERTEX
  5
2A3
330
26C
100
AcDbEntity
  8
Ｓ_１_１
  6
CONTINUOUS
 62
     3
100
AcDbVertex
100
AcDb2dVertex
 10
970.0000339999999
 20
652.507379
 30
0.0
  0
VERTEX
  5
2A4
330
26C
100
AcDbEntity
  8
Ｓ_１_１
  6
CONTINUOUS
 62
     3
100
AcDbVertex
100
AcDb2dVertex
 10
969.7385669999999
 20
652.503589
 30
0.0
  0
VERTEX
  5
2A5
330
26C
100
AcDbEntity
  8
Ｓ_１_１
  6
CONTINUOUS
 62
     3
100
AcDbVertex
100
AcDb2dVertex
 10
969.4790889999999
 20
652.492248
 30
0.0
  0
VERTEX
  5
2A6
330
26C
100
AcDbEntity
  8
Ｓ_１_１
  6
CONTINUOUS
 62
     3
100
AcDbVertex
100
AcDb2dVertex
 10
969.223577
 20
652.4734430000001
 30
0.0
  0
VERTEX
  5
2A7
330
26C
100
AcDbEntity
  8
Ｓ_１_１
  6
CONTINUOUS
 62
     3
100
AcDbVertex
100
AcDb2dVertex
 10
968.9739729999999
 20
652.447316
 30
0.0
  0
VERTEX
  5
2A8
330
26C
100
AcDbEntity
  8
Ｓ_１_１
  6
CONTINUOUS
 62
     3
100
AcDbVertex
100
AcDb2dVertex
 10
968.7321789999999
 20
652.414066
 30
0.0
  0
VERTEX
  5
2A9
330
26C
100
AcDbEntity
  8
Ｓ_１_１
  6
CONTINUOUS
 62
     3
100
AcDbVertex
100
AcDb2dVertex
 10
968.5000339999999
 20
652.373946
 30
0.0
  0
VERTEX
  5
2AA
330
26C
100
AcDbEntity
  8
Ｓ_１_１
  6
CONTINUOUS
 62
     3
100
AcDbVertex
100
AcDb2dVertex
 10
968.2793049999999
 20
652.327262
 30
0.0
  0
VERTEX
  5
2AB
330
26C
100
AcDbEntity
  8
Ｓ_１_１
  6
CONTINUOUS
 62
     3
100
AcDbVertex
100
AcDb2dVertex
 10
968.0716709999999
 20
652.2743700000001
 30
0.0
  0
VERTEX
  5
2AC
330
26C
100
AcDbEntity
  8
Ｓ_１_１
  6
CONTINUOUS
 62
     3
100
AcDbVertex
100
AcDb2dVertex
 10
967.878714
 20
652.21567
 30
0.0
  0
VERTEX
  5
2AD
330
26C
100
AcDbEntity
  8
Ｓ_１_１
  6
CONTINUOUS
 62
     3
100
AcDbVertex
100
AcDb2dVertex
 10
967.7019009999999
 20
652.151611
 30
0.0
  0
VERTEX
  5
2AE
330
26C
100
AcDbEntity
  8
Ｓ_１_１
  6
CONTINUOUS
 62
     3
100
AcDbVertex
100
AcDb2dVertex
 10
967.5425779999998
 20
652.08268
 30
0.0
  0
VERTEX
  5
2AF
330
26C
100
AcDbEntity
  8
Ｓ_１_１
  6
CONTINUOUS
 62
     3
100
AcDbVertex
100
AcDb2dVertex
 10
967.4019579999999
 20
652.009401
 30
0.0
  0
VERTEX
  5
2B0
330
26C
100
AcDbEntity
  8
Ｓ_１_１
  6
CONTINUOUS
 62
     3
100
AcDbVertex
100
AcDb2dVertex
 10
967.2811109999999
 20
651.9323320000001
 30
0.0
  0
VERTEX
  5
2B1
330
26C
100
AcDbEntity
  8
Ｓ_１_１
  6
CONTINUOUS
 62
     3
100
AcDbVertex
100
AcDb2dVertex
 10
967.1809559999999
 20
651.85206
 30
0.0
  0
VERTEX
  5
2B2
330
26C
100
AcDbEntity
  8
Ｓ_１_１
  6
CONTINUOUS
 62
     3
100
AcDbVertex
100
AcDb2dVertex
 10
967.1022559999999
 20
651.7691950000001
 30
0.0
  0
VERTEX
  5
2B3
330
26C
100
AcDbEntity
  8
Ｓ_１_１
  6
CONTINUOUS
 62
     3
100
AcDbVertex
100
AcDb2dVertex
 10
967.0456109999999
 20
651.6843690000001
 30
0.0
  0
VERTEX
  5
2B4
330
26C
100
AcDbEntity
  8
Ｓ_１_１
  6
CONTINUOUS
 62
     3
100
AcDbVertex
100
AcDb2dVertex
 10
967.01145
 20
651.5982260000001
 30
0.0
  0
VERTEX
  5
2B5
330
26C
100
AcDbEntity
  8
Ｓ_１_１
  6
CONTINUOUS
 62
     3
100
AcDbVertex
100
AcDb2dVertex
 10
967.0000339999999
 20
651.511423
 30
0.0
  0
SEQEND
  5
2B6
330
26C
100
AcDbEntity
  8
Ｓ_１_１
  6
CONTINUOUS
 62
     3
  0
POLYLINE
  5
2B7
330
1F
100
AcDbEntity
  8
Ｓ_１_１
  6
CONTINUOUS
 62
     3
100
AcDb2dPolyline
 66
     1
 10
0.0
 20
0.0
 30
0.0
 70
   128
  0
VERTEX
  5
2B8
330
2B7
100
AcDbEntity
  8
Ｓ_１_１
  6
CONTINUOUS
 62
     3
100
AcDbVertex
100
AcDb2dVertex
 10
964.0000359999999
 20
647.511425
 30
0.0
  0
VERTEX
  5
2B9
330
2B7
100
AcDbEntity
  8
Ｓ_１_１
  6
CONTINUOUS
 62
     3
100
AcDbVertex
100
AcDb2dVertex
 10
964.0611079999999
 20
647.085055
 30
0.0
  0
VERTEX
  5
2BA
330
2B7
100
AcDbEntity
  8
Ｓ_１_１
  6
CONTINUOUS
 62
     3
100
AcDbVertex
100
AcDb2dVertex
 10
964.2430789999999
 20
646.667365
 30
0.0
  0
VERTEX
  5
2BB
330
2B7
100
AcDbEntity
  8
Ｓ_１_１
  6
CONTINUOUS
 62
     3
100
AcDbVertex
100
AcDb2dVertex
 10
964.5422449999999
 20
646.266858
 30
0.0
  0
VERTEX
  5
2BC
330
2B7
100
AcDbEntity
  8
Ｓ_１_１
  6
CONTINUOUS
 62
     3
100
AcDbVertex
100
AcDb2dVertex
 10
964.9525159999998
 20
645.891687
 30
0.0
  0
VERTEX
  5
2BD
330
2B7
100
AcDbEntity
  8
Ｓ_１_１
  6
CONTINUOUS
 62
     3
100
AcDbVertex
100
AcDb2dVertex
 10
965.4655399999999
 20
645.549489
 30
0.0
  0
VERTEX
  5
2BE
330
2B7
100
AcDbEntity
  8
Ｓ_１_１
  6
CONTINUOUS
 62
     3
100
AcDbVertex
100
AcDb2dVertex
 10
966.0708729999999
 20
645.24723
 30
0.0
  0
VERTEX
  5
2BF
330
2B7
100
AcDbEntity
  8
Ｓ_１_１
  6
CONTINUOUS
 62
     3
100
AcDbVertex
100
AcDb2dVertex
 10
966.7561919999998
 20
644.991064
 30
0.0
  0
VERTEX
  5
2C0
330
2B7
100
AcDbEntity
  8
Ｓ_１_１
  6
CONTINUOUS
 62
     3
100
AcDbVertex
100
AcDb2dVertex
 10
967.5075469999999
 20
644.786205
 30
0.0
  0
VERTEX
  5
2C1
330
2B7
100
AcDbEntity
  8
Ｓ_１_１
  6
CONTINUOUS
 62
     3
100
AcDbVertex
100
AcDb2dVertex
 10
968.3096409999998
 20
644.636823
 30
0.0
  0
VERTEX
  5
2C2
330
2B7
100
AcDbEntity
  8
Ｓ_１_１
  6
CONTINUOUS
 62
     3
100
AcDbVertex
100
AcDb2dVertex
 10
969.1461469999999
 20
644.545961
 30
0.0
  0
VERTEX
  5
2C3
330
2B7
100
AcDbEntity
  8
Ｓ_１_１
  6
CONTINUOUS
 62
     3
100
AcDbVertex
100
AcDb2dVertex
 10
970.0000359999999
 20
644.5154660000001
 30
0.0
  0
VERTEX
  5
2C4
330
2B7
100
AcDbEntity
  8
Ｓ_１_１
  6
CONTINUOUS
 62
     3
100
AcDbVertex
100
AcDb2dVertex
 10
970.8539239999999
 20
644.545961
 30
0.0
  0
VERTEX
  5
2C5
330
2B7
100
AcDbEntity
  8
Ｓ_１_１
  6
CONTINUOUS
 62
     3
100
AcDbVertex
100
AcDb2dVertex
 10
971.6904299999999
 20
644.636824
 30
0.0
  0
VERTEX
  5
2C6
330
2B7
100
AcDbEntity
  8
Ｓ_１_１
  6
CONTINUOUS
 62
     3
100
AcDbVertex
100
AcDb2dVertex
 10
972.4925239999999
 20
644.786206
 30
0.0
  0
VERTEX
  5
2C7
330
2B7
100
AcDbEntity
  8
Ｓ_１_１
  6
CONTINUOUS
 62
     3
100
AcDbVertex
100
AcDb2dVertex
 10
973.2438789999999
 20
644.991065
 30
0.0
  0
VERTEX
  5
2C8
330
2B7
100
AcDbEntity
  8
Ｓ_１_１
  6
CONTINUOUS
 62
     3
100
AcDbVertex
100
AcDb2dVertex
 10
973.9291979999999
 20
645.247231
 30
0.0
  0
VERTEX
  5
2C9
330
2B7
100
AcDbEntity
  8
Ｓ_１_１
  6
CONTINUOUS
 62
     3
100
AcDbVertex
100
AcDb2dVertex
 10
974.5345299999999
 20
645.54949
 30
0.0
  0
VERTEX
  5
2CA
330
2B7
100
AcDbEntity
  8
Ｓ_１_１
  6
CONTINUOUS
 62
     3
100
AcDbVertex
100
AcDb2dVertex
 10
975.047554
 20
645.891688
 30
0.0
  0
VERTEX
  5
2CB
330
2B7
100
AcDbEntity
  8
Ｓ_１_１
  6
CONTINUOUS
 62
     3
100
AcDbVertex
100
AcDb2dVertex
 10
975.4578239999998
 20
646.26686
 30
0.0
  0
VERTEX
  5
2CC
330
2B7
100
AcDbEntity
  8
Ｓ_１_１
  6
CONTINUOUS
 62
     3
100
AcDbVertex
100
AcDb2dVertex
 10
975.7569899999999
 20
646.667367
 30
0.0
  0
VERTEX
  5
2CD
330
2B7
100
AcDbEntity
  8
Ｓ_１_１
  6
CONTINUOUS
 62
     3
100
AcDbVertex
100
AcDb2dVertex
 10
975.9389609999998
 20
647.085057
 30
0.0
  0
VERTEX
  5
2CE
330
2B7
100
AcDbEntity
  8
Ｓ_１_１
  6
CONTINUOUS
 62
     3
100
AcDbVertex
100
AcDb2dVertex
 10
976.0000319999999
 20
647.511427
 30
0.0
  0
SEQEND
  5
2CF
330
2B7
100
AcDbEntity
  8
Ｓ_１_１
  6
CONTINUOUS
 62
     3
  0
POLYLINE
  5
2D0
330
1F
100
AcDbEntity
  8
Ｓ_１_１
  6
CONTINUOUS
 62
     3
100
AcDb2dPolyline
 66
     1
 10
0.0
 20
0.0
 30
0.0
 70
   128
  0
VERTEX
  5
2D1
330
2D0
100
AcDbEntity
  8
Ｓ_１_１
  6
CONTINUOUS
 62
     3
100
AcDbVertex
100
AcDb2dVertex
 10
964.0000359999999
 20
651.511419
 30
0.0
  0
VERTEX
  5
2D2
330
2D0
100
AcDbEntity
  8
Ｓ_１_１
  6
CONTINUOUS
 62
     3
100
AcDbVertex
100
AcDb2dVertex
 10
964.0228679999999
 20
651.250304
 30
0.0
  0
VERTEX
  5
2D3
330
2D0
100
AcDbEntity
  8
Ｓ_１_１
  6
CONTINUOUS
 62
     3
100
AcDbVertex
100
AcDb2dVertex
 10
964.091189
 20
650.991176
 30
0.0
  0
VERTEX
  5
2D4
330
2D0
100
AcDbEntity
  8
Ｓ_１_１
  6
CONTINUOUS
 62
     3
100
AcDbVertex
100
AcDb2dVertex
 10
964.204481
 20
650.736007
 30
0.0
  0
VERTEX
  5
2D5
330
2D0
100
AcDbEntity
  8
Ｓ_１_１
  6
CONTINUOUS
 62
     3
100
AcDbVertex
100
AcDb2dVertex
 10
964.3618799999999
 20
650.48674
 30
0.0
  0
VERTEX
  5
2D6
330
2D0
100
AcDbEntity
  8
Ｓ_１_１
  6
CONTINUOUS
 62
     3
100
AcDbVertex
100
AcDb2dVertex
 10
964.562189
 20
650.245271
 30
0.0
  0
VERTEX
  5
2D7
330
2D0
100
AcDbEntity
  8
Ｓ_１_１
  6
CONTINUOUS
 62
     3
100
AcDbVertex
100
AcDb2dVertex
 10
964.8038829999999
 20
650.0134390000001
 30
0.0
  0
VERTEX
  5
2D8
330
2D0
100
AcDbEntity
  8
Ｓ_１_１
  6
CONTINUOUS
 62
     3
100
AcDbVertex
100
AcDb2dVertex
 10
965.0851229999998
 20
649.793007
 30
0.0
  0
VERTEX
  5
2D9
330
2D0
100
AcDbEntity
  8
Ｓ_１_１
  6
CONTINUOUS
 62
     3
100
AcDbVertex
100
AcDb2dVertex
 10
965.4037689999999
 20
649.5856530000001
 30
0.0
  0
VERTEX
  5
2DA
330
2D0
100
AcDbEntity
  8
Ｓ_１_１
  6
CONTINUOUS
 62
     3
100
AcDbVertex
100
AcDb2dVertex
 10
965.7573949999999
 20
649.392955
 30
0.0
  0
VERTEX
  5
2DB
330
2D0
100
AcDbEntity
  8
Ｓ_１_１
  6
CONTINUOUS
 62
     3
100
AcDbVertex
100
AcDb2dVertex
 10
966.1433089999999
 20
649.2163800000001
 30
0.0
  0
VERTEX
  5
2DC
330
2D0
100
AcDbEntity
  8
Ｓ_１_１
  6
CONTINUOUS
 62
     3
100
AcDbVertex
100
AcDb2dVertex
 10
966.5585759999999
 20
649.057272
 30
0.0
  0
VERTEX
  5
2DD
330
2D0
100
AcDbEntity
  8
Ｓ_１_１
  6
CONTINUOUS
 62
     3
100
AcDbVertex
100
AcDb2dVertex
 10
967.0000349999999
 20
648.916841
 30
0.0
  0
VERTEX
  5
2DE
330
2D0
100
AcDbEntity
  8
Ｓ_１_１
  6
CONTINUOUS
 62
     3
100
AcDbVertex
100
AcDb2dVertex
 10
967.4643249999999
 20
648.796157
 30
0.0
  0
VERTEX
  5
2DF
330
2D0
100
AcDbEntity
  8
Ｓ_１_１
  6
CONTINUOUS
 62
     3
100
AcDbVertex
100
AcDb2dVertex
 10
967.9479139999999
 20
648.696137
 30
0.0
  0
VERTEX
  5
2E0
330
2D0
100
AcDbEntity
  8
Ｓ_１_１
  6
CONTINUOUS
 62
     3
100
AcDbVertex
100
AcDb2dVertex
 10
968.4471199999999
 20
648.617544
 30
0.0
  0
VERTEX
  5
2E1
330
2D0
100
AcDbEntity
  8
Ｓ_１_１
  6
CONTINUOUS
 62
     3
100
AcDbVertex
100
AcDb2dVertex
 10
968.9581449999998
 20
648.560974
 30
0.0
  0
VERTEX
  5
2E2
330
2D0
100
AcDbEntity
  8
Ｓ_１_１
  6
CONTINUOUS
 62
     3
100
AcDbVertex
100
AcDb2dVertex
 10
969.4770999999998
 20
648.5268590000001
 30
0.0
  0
VERTEX
  5
2E3
330
2D0
100
AcDbEntity
  8
Ｓ_１_１
  6
CONTINUOUS
 62
     3
100
AcDbVertex
100
AcDb2dVertex
 10
970.0000339999999
 20
648.515459
 30
0.0
  0
VERTEX
  5
2E4
330
2D0
100
AcDbEntity
  8
Ｓ_１_１
  6
CONTINUOUS
 62
     3
100
AcDbVertex
100
AcDb2dVertex
 10
970.5229679999999
 20
648.5268590000001
 30
0.0
  0
VERTEX
  5
2E5
330
2D0
100
AcDbEntity
  8
Ｓ_１_１
  6
CONTINUOUS
 62
     3
100
AcDbVertex
100
AcDb2dVertex
 10
971.0419229999999
 20
648.560974
 30
0.0
  0
VERTEX
  5
2E6
330
2D0
100
AcDbEntity
  8
Ｓ_１_１
  6
CONTINUOUS
 62
     3
100
AcDbVertex
100
AcDb2dVertex
 10
971.5529479999999
 20
648.617544
 30
0.0
  0
VERTEX
  5
2E7
330
2D0
100
AcDbEntity
  8
Ｓ_１_１
  6
CONTINUOUS
 62
     3
100
AcDbVertex
100
AcDb2dVertex
 10
972.052154
 20
648.696137
 30
0.0
  0
VERTEX
  5
2E8
330
2D0
100
AcDbEntity
  8
Ｓ_１_１
  6
CONTINUOUS
 62
     3
100
AcDbVertex
100
AcDb2dVertex
 10
972.5357429999999
 20
648.796157
 30
0.0
  0
VERTEX
  5
2E9
330
2D0
100
AcDbEntity
  8
Ｓ_１_１
  6
CONTINUOUS
 62
     3
100
AcDbVertex
100
AcDb2dVertex
 10
973.0000329999999
 20
648.916841
 30
0.0
  0
VERTEX
  5
2EA
330
2D0
100
AcDbEntity
  8
Ｓ_１_１
  6
CONTINUOUS
 62
     3
100
AcDbVertex
100
AcDb2dVertex
 10
973.4414909999999
 20
649.057272
 30
0.0
  0
VERTEX
  5
2EB
330
2D0
100
AcDbEntity
  8
Ｓ_１_１
  6
CONTINUOUS
 62
     3
100
AcDbVertex
100
AcDb2dVertex
 10
973.8567579999999
 20
649.2163800000001
 30
0.0
  0
VERTEX
  5
2EC
330
2D0
100
AcDbEntity
  8
Ｓ_１_１
  6
CONTINUOUS
 62
     3
100
AcDbVertex
100
AcDb2dVertex
 10
974.242673
 20
649.392955
 30
0.0
  0
VERTEX
  5
2ED
330
2D0
100
AcDbEntity
  8
Ｓ_１_１
  6
CONTINUOUS
 62
     3
100
AcDbVertex
100
AcDb2dVertex
 10
974.5962989999999
 20
649.5856530000001
 30
0.0
  0
VERTEX
  5
2EE
330
2D0
100
AcDbEntity
  8
Ｓ_１_１
  6
CONTINUOUS
 62
     3
100
AcDbVertex
100
AcDb2dVertex
 10
974.914945
 20
649.793007
 30
0.0
  0
VERTEX
  5
2EF
330
2D0
100
AcDbEntity
  8
Ｓ_１_１
  6
CONTINUOUS
 62
     3
100
AcDbVertex
100
AcDb2dVertex
 10
975.1961849999999
 20
650.0134390000001
 30
0.0
  0
VERTEX
  5
2F0
330
2D0
100
AcDbEntity
  8
Ｓ_１_１
  6
CONTINUOUS
 62
     3
100
AcDbVertex
100
AcDb2dVertex
 10
975.4378789999998
 20
650.245271
 30
0.0
  0
VERTEX
  5
2F1
330
2D0
100
AcDbEntity
  8
Ｓ_１_１
  6
CONTINUOUS
 62
     3
100
AcDbVertex
100
AcDb2dVertex
 10
975.6381879999999
 20
650.48674
 30
0.0
  0
VERTEX
  5
2F2
330
2D0
100
AcDbEntity
  8
Ｓ_１_１
  6
CONTINUOUS
 62
     3
100
AcDbVertex
100
AcDb2dVertex
 10
975.7955869999998
 20
650.736007
 30
0.0
  0
VERTEX
  5
2F3
330
2D0
100
AcDbEntity
  8
Ｓ_１_１
  6
CONTINUOUS
 62
     3
100
AcDbVertex
100
AcDb2dVertex
 10
975.9088789999998
 20
650.991176
 30
0.0
  0
VERTEX
  5
2F4
330
2D0
100
AcDbEntity
  8
Ｓ_１_１
  6
CONTINUOUS
 62
     3
100
AcDbVertex
100
AcDb2dVertex
 10
975.9771999999999
 20
651.250304
 30
0.0
  0
VERTEX
  5
2F5
330
2D0
100
AcDbEntity
  8
Ｓ_１_１
  6
CONTINUOUS
 62
     3
100
AcDbVertex
100
AcDb2dVertex
 10
976.0000319999999
 20
651.511419
 30
0.0
  0
VERTEX
  5
2F6
330
2D0
100
AcDbEntity
  8
Ｓ_１_１
  6
CONTINUOUS
 62
     3
100
AcDbVertex
100
AcDb2dVertex
 10
975.9771999999999
 20
651.772534
 30
0.0
  0
VERTEX
  5
2F7
330
2D0
100
AcDbEntity
  8
Ｓ_１_１
  6
CONTINUOUS
 62
     3
100
AcDbVertex
100
AcDb2dVertex
 10
975.9088789999998
 20
652.0316620000001
 30
0.0
  0
VERTEX
  5
2F8
330
2D0
100
AcDbEntity
  8
Ｓ_１_１
  6
CONTINUOUS
 62
     3
100
AcDbVertex
100
AcDb2dVertex
 10
975.7955869999998
 20
652.28683
 30
0.0
  0
VERTEX
  5
2F9
330
2D0
100
AcDbEntity
  8
Ｓ_１_１
  6
CONTINUOUS
 62
     3
100
AcDbVertex
100
AcDb2dVertex
 10
975.6381879999999
 20
652.536098
 30
0.0
  0
VERTEX
  5
2FA
330
2D0
100
AcDbEntity
  8
Ｓ_１_１
  6
CONTINUOUS
 62
     3
100
AcDbVertex
100
AcDb2dVertex
 10
975.4378789999998
 20
652.777566
 30
0.0
  0
VERTEX
  5
2FB
330
2D0
100
AcDbEntity
  8
Ｓ_１_１
  6
CONTINUOUS
 62
     3
100
AcDbVertex
100
AcDb2dVertex
 10
975.1961849999999
 20
653.009399
 30
0.0
  0
VERTEX
  5
2FC
330
2D0
100
AcDbEntity
  8
Ｓ_１_１
  6
CONTINUOUS
 62
     3
100
AcDbVertex
100
AcDb2dVertex
 10
974.914945
 20
653.229831
 30
0.0
  0
VERTEX
  5
2FD
330
2D0
100
AcDbEntity
  8
Ｓ_１_１
  6
CONTINUOUS
 62
     3
100
AcDbVertex
100
AcDb2dVertex
 10
974.5962989999999
 20
653.437185
 30
0.0
  0
VERTEX
  5
2FE
330
2D0
100
AcDbEntity
  8
Ｓ_１_１
  6
CONTINUOUS
 62
     3
100
AcDbVertex
100
AcDb2dVertex
 10
974.242673
 20
653.6298830000001
 30
0.0
  0
VERTEX
  5
2FF
330
2D0
100
AcDbEntity
  8
Ｓ_１_１
  6
CONTINUOUS
 62
     3
100
AcDbVertex
100
AcDb2dVertex
 10
973.8567579999999
 20
653.806458
 30
0.0
  0
VERTEX
  5
300
330
2D0
100
AcDbEntity
  8
Ｓ_１_１
  6
CONTINUOUS
 62
     3
100
AcDbVertex
100
AcDb2dVertex
 10
973.4414909999999
 20
653.9655660000001
 30
0.0
  0
VERTEX
  5
301
330
2D0
100
AcDbEntity
  8
Ｓ_１_１
  6
CONTINUOUS
 62
     3
100
AcDbVertex
100
AcDb2dVertex
 10
973.0000329999999
 20
654.105997
 30
0.0
  0
VERTEX
  5
302
330
2D0
100
AcDbEntity
  8
Ｓ_１_１
  6
CONTINUOUS
 62
     3
100
AcDbVertex
100
AcDb2dVertex
 10
972.5357429999999
 20
654.226681
 30
0.0
  0
VERTEX
  5
303
330
2D0
100
AcDbEntity
  8
Ｓ_１_１
  6
CONTINUOUS
 62
     3
100
AcDbVertex
100
AcDb2dVertex
 10
972.052154
 20
654.326701
 30
0.0
  0
VERTEX
  5
304
330
2D0
100
AcDbEntity
  8
Ｓ_１_１
  6
CONTINUOUS
 62
     3
100
AcDbVertex
100
AcDb2dVertex
 10
971.5529479999999
 20
654.405294
 30
0.0
  0
VERTEX
  5
305
330
2D0
100
AcDbEntity
  8
Ｓ_１_１
  6
CONTINUOUS
 62
     3
100
AcDbVertex
100
AcDb2dVertex
 10
971.0419229999999
 20
654.461864
 30
0.0
  0
VERTEX
  5
306
330
2D0
100
AcDbEntity
  8
Ｓ_１_１
  6
CONTINUOUS
 62
     3
100
AcDbVertex
100
AcDb2dVertex
 10
970.5229679999999
 20
654.495979
 30
0.0
  0
VERTEX
  5
307
330
2D0
100
AcDbEntity
  8
Ｓ_１_１
  6
CONTINUOUS
 62
     3
100
AcDbVertex
100
AcDb2dVertex
 10
970.0000339999999
 20
654.507379
 30
0.0
  0
VERTEX
  5
308
330
2D0
100
AcDbEntity
  8
Ｓ_１_１
  6
CONTINUOUS
 62
     3
100
AcDbVertex
100
AcDb2dVertex
 10
969.4770999999998
 20
654.495979
 30
0.0
  0
VERTEX
  5
309
330
2D0
100
AcDbEntity
  8
Ｓ_１_１
  6
CONTINUOUS
 62
     3
100
AcDbVertex
100
AcDb2dVertex
 10
968.9581449999998
 20
654.461864
 30
0.0
  0
VERTEX
  5
30A
330
2D0
100
AcDbEntity
  8
Ｓ_１_１
  6
CONTINUOUS
 62
     3
100
AcDbVertex
100
AcDb2dVertex
 10
968.4471199999999
 20
654.405294
 30
0.0
  0
VERTEX
  5
30B
330
2D0
100
AcDbEntity
  8
Ｓ_１_１
  6
CONTINUOUS
 62
     3
100
AcDbVertex
100
AcDb2dVertex
 10
967.9479139999999
 20
654.326701
 30
0.0
  0
VERTEX
  5
30C
330
2D0
100
AcDbEntity
  8
Ｓ_１_１
  6
CONTINUOUS
 62
     3
100
AcDbVertex
100
AcDb2dVertex
 10
967.4643249999999
 20
654.226681
 30
0.0
  0
VERTEX
  5
30D
330
2D0
100
AcDbEntity
  8
Ｓ_１_１
  6
CONTINUOUS
 62
     3
100
AcDbVertex
100
AcDb2dVertex
 10
967.0000349999999
 20
654.105997
 30
0.0
  0
VERTEX
  5
30E
330
2D0
100
AcDbEntity
  8
Ｓ_１_１
  6
CONTINUOUS
 62
     3
100
AcDbVertex
100
AcDb2dVertex
 10
966.5585759999999
 20
653.9655660000001
 30
0.0
  0
VERTEX
  5
30F
330
2D0
100
AcDbEntity
  8
Ｓ_１_１
  6
CONTINUOUS
 62
     3
100
AcDbVertex
100
AcDb2dVertex
 10
966.1433089999999
 20
653.806458
 30
0.0
  0
VERTEX
  5
310
330
2D0
100
AcDbEntity
  8
Ｓ_１_１
  6
CONTINUOUS
 62
     3
100
AcDbVertex
100
AcDb2dVertex
 10
965.7573949999999
 20
653.6298830000001
 30
0.0
  0
VERTEX
  5
311
330
2D0
100
AcDbEntity
  8
Ｓ_１_１
  6
CONTINUOUS
 62
     3
100
AcDbVertex
100
AcDb2dVertex
 10
965.4037689999999
 20
653.437185
 30
0.0
  0
VERTEX
  5
312
330
2D0
100
AcDbEntity
  8
Ｓ_１_１
  6
CONTINUOUS
 62
     3
100
AcDbVertex
100
AcDb2dVertex
 10
965.0851229999998
 20
653.229831
 30
0.0
  0
VERTEX
  5
313
330
2D0
100
AcDbEntity
  8
Ｓ_１_１
  6
CONTINUOUS
 62
     3
100
AcDbVertex
100
AcDb2dVertex
 10
964.8038829999999
 20
653.009399
 30
0.0
  0
VERTEX
  5
314
330
2D0
100
AcDbEntity
  8
Ｓ_１_１
  6
CONTINUOUS
 62
     3
100
AcDbVertex
100
AcDb2dVertex
 10
964.562189
 20
652.777566
 30
0.0
  0
VERTEX
  5
315
330
2D0
100
AcDbEntity
  8
Ｓ_１_１
  6
CONTINUOUS
 62
     3
100
AcDbVertex
100
AcDb2dVertex
 10
964.3618799999999
 20
652.536098
 30
0.0
  0
VERTEX
  5
316
330
2D0
100
AcDbEntity
  8
Ｓ_１_１
  6
CONTINUOUS
 62
     3
100
AcDbVertex
100
AcDb2dVertex
 10
964.204481
 20
652.28683
 30
0.0
  0
VERTEX
  5
317
330
2D0
100
AcDbEntity
  8
Ｓ_１_１
  6
CONTINUOUS
 62
     3
100
AcDbVertex
100
AcDb2dVertex
 10
964.091189
 20
652.0316620000001
 30
0.0
  0
VERTEX
  5
318
330
2D0
100
AcDbEntity
  8
Ｓ_１_１
  6
CONTINUOUS
 62
     3
100
AcDbVertex
100
AcDb2dVertex
 10
964.0228679999999
 20
651.772534
 30
0.0
  0
VERTEX
  5
319
330
2D0
100
AcDbEntity
  8
Ｓ_１_１
  6
CONTINUOUS
 62
     3
100
AcDbVertex
100
AcDb2dVertex
 10
964.0000359999999
 20
651.511419
 30
0.0
  0
SEQEND
  5
31A
330
2D0
100
AcDbEntity
  8
Ｓ_１_１
  6
CONTINUOUS
 62
     3
  0
ARC
  5
31B
330
1F
100
AcDbEntity
  8
Ｓ_１_１
  6
CONTINUOUS
 62
     3
100
AcDbCircle
 10
1005.000038
 20
525.0
 30
0.0
 40
55.00000000000004
100
AcDbArc
 50
187.837473
 51
0.0
  0
ARC
  5
31C
330
1F
100
AcDbEntity
  8
Ｓ_１_１
  6
CONTINUOUS
 62
     3
100
AcDbCircle
 10
1005.000038
 20
525.0
 30
0.0
 40
45.0
100
AcDbArc
 50
189.5940750000001
 51
0.0
  0
ARC
  5
31D
330
1F
100
AcDbEntity
  8
Ｓ_１_１
  6
CONTINUOUS
 62
     3
100
AcDbCircle
 10
1005.000038
 20
525.0
 30
0.0
 40
45.0
100
AcDbArc
 50
0.0
 51
170.405939
  0
ARC
  5
31E
330
1F
100
AcDbEntity
  8
Ｓ_１_１
  6
CONTINUOUS
 62
     3
100
AcDbCircle
 10
1005.000038
 20
525.0
 30
0.0
 40
55.00000000000004
100
AcDbArc
 50
0.0
 51
172.1625270000002
  0
ARC
  5
31F
330
1F
100
AcDbEntity
  8
Ｓ_１_１
  6
CONTINUOUS
 62
     3
100
AcDbCircle
 10
1235.00003
 20
747.184579
 30
0.0
 40
100.3410260000001
100
AcDbArc
 50
243.3543980000003
 51
261.4026200000002
  0
ARC
  5
320
330
1F
100
AcDbEntity
  8
Ｓ_１_１
  6
CONTINUOUS
 62
     3
100
AcDbCircle
 10
1235.00003
 20
747.184579
 30
0.0
 40
100.3410260000001
100
AcDbArc
 50
278.5973820000002
 51
296.6455970000003
  0
ARC
  5
321
330
1F
100
AcDbEntity
  8
Ｓ_１_１
  6
CONTINUOUS
 62
     3
100
AcDbCircle
 10
970.0000339999999
 20
747.184579
 30
0.0
 40
100.3410260000001
100
AcDbArc
 50
243.3543980000003
 51
261.4026200000002
  0
ARC
  5
322
330
1F
100
AcDbEntity
  8
Ｓ_１_１
  6
CONTINUOUS
 62
     3
100
AcDbCircle
 10
970.0000339999999
 20
747.184579
 30
0.0
 40
100.3410260000001
100
AcDbArc
 50
278.5973820000002
 51
296.6455970000003
  0
LINE
  5
323
330
1F
100
AcDbEntity
  8
Ｓ_１_１
  6
CONTINUOUS
 62
     3
100
AcDbLine
 10
1280.00003
 20
657.499979
 30
0.0
 11
1348.00003
 21
657.499979
 31
0.0
  0
LINE
  5
324
330
1F
100
AcDbEntity
  8
Ｓ_１_１
  6
CONTINUOUS
 62
     3
100
AcDbLine
 10
1221.000027
 20
637.499992
 30
0.0
 11
1220.000036
 21
638.499983
 31
0.0
  0
LINE
  5
325
330
1F
100
AcDbEntity
  8
Ｓ_１_１
  6
CONTINUOUS
 62
     3
100
AcDbLine
 10
1249.000037
 20
637.499987
 30
0.0
 11
1250.000038
 21
638.499989
 31
0.0
  0
LINE
  5
326
330
1F
100
AcDbEntity
  8
Ｓ_１_１
  6
CONTINUOUS
 62
     3
100
AcDbLine
 10
1250.00003
 20
647.97104
 30
0.0
 11
1250.00003
 21
638.499994
 31
0.0
  0
LINE
  5
327
330
1F
100
AcDbEntity
  8
Ｓ_１_１
  6
CONTINUOUS
 62
     3
100
AcDbLine
 10
1220.00003
 20
647.97104
 30
0.0
 11
1220.00003
 21
638.499994
 31
0.0
  0
LINE
  5
328
330
1F
100
AcDbEntity
  8
Ｓ_１_１
  6
CONTINUOUS
 62
     3
100
AcDbLine
 10
1221.00003
 20
637.499994
 30
0.0
 11
1249.00003
 21
637.499994
 31
0.0
  0
LINE
  5
329
330
1F
100
AcDbEntity
  8
Ｓ_１_１
  6
CONTINUOUS
 62
     3
100
AcDbLine
 10
1280.000036
 20
715.499999
 30
0.0
 11
1278.000039
 21
717.499996
 31
0.0
  0
LINE
  5
32A
330
1F
100
AcDbEntity
  8
Ｓ_１_１
  6
CONTINUOUS
 62
     3
100
AcDbLine
 10
1190.00005
 20
715.500004
 30
0.0
 11
1192.00003
 21
717.499985
 31
0.0
  0
LINE
  5
32B
330
1F
100
AcDbEntity
  8
Ｓ_１_１
  6
CONTINUOUS
 62
     3
100
AcDbLine
 10
1220.00003
 20
638.499994
 30
0.0
 11
1250.00003
 21
638.499994
 31
0.0
  0
LINE
  5
32C
330
1F
100
AcDbEntity
  8
Ｓ_１_１
  6
CONTINUOUS
 62
     3
100
AcDbLine
 10
1190.00003
 20
715.499994
 30
0.0
 11
1280.00003
 21
715.499994
 31
0.0
  0
LINE
  5
32D
330
1F
100
AcDbEntity
  8
Ｓ_１_１
  6
CONTINUOUS
 62
     3
100
AcDbLine
 10
1192.00003
 20
717.499994
 30
0.0
 11
1278.00003
 21
717.499994
 31
0.0
  0
LINE
  5
32E
330
1F
100
AcDbEntity
  8
Ｓ_１_１
  6
CONTINUOUS
 62
     3
100
AcDbLine
 10
1280.00003
 20
715.499994
 30
0.0
 11
1280.00003
 21
657.499979
 31
0.0
  0
LINE
  5
32F
330
1F
100
AcDbEntity
  8
Ｓ_１_１
  6
CONTINUOUS
 62
     3
100
AcDbLine
 10
1190.00003
 20
715.499994
 30
0.0
 11
1190.00003
 21
657.499979
 31
0.0
  0
LINE
  5
330
330
1F
100
AcDbEntity
  8
Ｓ_１_１
  6
CONTINUOUS
 62
     3
100
AcDbLine
 10
1229.00003
 20
651.511423
 30
0.0
 11
1229.00003
 21
647.511423
 31
0.0
  0
LINE
  5
331
330
1F
100
AcDbEntity
  8
Ｓ_１_１
  6
CONTINUOUS
 62
     3
100
AcDbLine
 10
1241.00003
 20
651.511423
 30
0.0
 11
1241.00003
 21
647.511423
 31
0.0
  0
LINE
  5
332
330
1F
100
AcDbEntity
  8
Ｓ_１_１
  6
CONTINUOUS
 62
     3
100
AcDbLine
 10
964.0000339999999
 20
651.511423
 30
0.0
 11
964.0000339999999
 21
647.511423
 31
0.0
  0
LINE
  5
333
330
1F
100
AcDbEntity
  8
Ｓ_１_１
  6
CONTINUOUS
 62
     3
100
AcDbLine
 10
976.0000299999999
 20
651.511423
 30
0.0
 11
976.0000299999999
 21
647.511423
 31
0.0
  0
LINE
  5
334
330
1F
100
AcDbEntity
  8
Ｓ_１_１
  6
CONTINUOUS
 62
     3
100
AcDbLine
 10
955.0000339999999
 20
638.499994
 30
0.0
 11
985.0000299999999
 21
638.499994
 31
0.0
  0
LINE
  5
335
330
1F
100
AcDbEntity
  8
Ｓ_１_１
  6
CONTINUOUS
 62
     3
100
AcDbLine
 10
984.0000349999999
 20
637.499988
 30
0.0
 11
985.0000359999999
 21
638.49999
 31
0.0
  0
LINE
  5
336
330
1F
100
AcDbEntity
  8
Ｓ_１_１
  6
CONTINUOUS
 62
     3
100
AcDbLine
 10
956.0000389999999
 20
637.49999
 30
0.0
 11
955.0000379999999
 21
638.499991
 31
0.0
  0
LINE
  5
337
330
1F
100
AcDbEntity
  8
Ｓ_１_１
  6
CONTINUOUS
 62
     3
100
AcDbLine
 10
985.0000299999999
 20
647.97104
 30
0.0
 11
985.0000299999999
 21
638.499994
 31
0.0
  0
LINE
  5
338
330
1F
100
AcDbEntity
  8
Ｓ_１_１
  6
CONTINUOUS
 62
     3
100
AcDbLine
 10
955.0000339999999
 20
647.97104
 30
0.0
 11
955.0000339999999
 21
638.499994
 31
0.0
  0
LINE
  5
339
330
1F
100
AcDbEntity
  8
Ｓ_１_１
  6
CONTINUOUS
 62
     3
100
AcDbLine
 10
1015.00003
 20
657.499979
 30
0.0
 11
1190.00003
 21
657.499979
 31
0.0
  0
LINE
  5
33A
330
1F
100
AcDbEntity
  8
Ｓ_１_１
  6
CONTINUOUS
 62
     3
100
AcDbLine
 10
956.0000299999999
 20
637.499994
 30
0.0
 11
984.0000299999999
 21
637.499994
 31
0.0
  0
LINE
  5
33B
330
1F
100
AcDbEntity
  8
Ｓ_１_１
  6
CONTINUOUS
 62
     3
100
AcDbLine
 10
1015.000037
 20
715.499996
 30
0.0
 11
1013.000032
 21
717.500001
 31
0.0
  0
LINE
  5
33C
330
1F
100
AcDbEntity
  8
Ｓ_１_１
  6
CONTINUOUS
 62
     3
100
AcDbLine
 10
925.0000379999999
 20
715.499994
 30
0.0
 11
927.0000399999999
 21
717.499996
 31
0.0
  0
LINE
  5
33D
330
1F
100
AcDbEntity
  8
Ｓ_１_１
  6
CONTINUOUS
 62
     3
100
AcDbLine
 10
925.0000349999999
 20
715.499994
 30
0.0
 11
1015.00003
 21
715.499994
 31
0.0
  0
LINE
  5
33E
330
1F
100
AcDbEntity
  8
Ｓ_１_１
  6
CONTINUOUS
 62
     3
100
AcDbLine
 10
927.0000379999999
 20
717.499994
 30
0.0
 11
1013.00003
 21
717.499994
 31
0.0
  0
LINE
  5
33F
330
1F
100
AcDbEntity
  8
Ｓ_１_１
  6
CONTINUOUS
 62
     3
100
AcDbLine
 10
925.0000349999999
 20
715.499994
 30
0.0
 11
925.0000349999999
 21
657.499979
 31
0.0
  0
LINE
  5
340
330
1F
100
AcDbEntity
  8
Ｓ_１_１
  6
CONTINUOUS
 62
     3
100
AcDbLine
 10
1015.00003
 20
715.499994
 30
0.0
 11
1015.00003
 21
657.499979
 31
0.0
  0
LINE
  5
341
330
1F
100
AcDbEntity
  8
Ｓ_１_１
  6
CONTINUOUS
 62
     3
100
AcDbLine
 10
970.0000339999999
 20
532.5
 30
0.0
 11
970.0000339999999
 21
517.5
 31
0.0
  0
LINE
  5
342
330
1F
100
AcDbEntity
  8
Ｓ_１_１
  6
CONTINUOUS
 62
     3
100
AcDbLine
 10
935.0000299999999
 20
517.5
 30
0.0
 11
975.0000379999999
 21
517.5
 31
0.0
  0
LINE
  5
343
330
1F
100
AcDbEntity
  8
Ｓ_１_１
  6
CONTINUOUS
 62
     3
100
AcDbLine
 10
935.0000299999999
 20
532.5
 30
0.0
 11
975.0000379999999
 21
532.5
 31
0.0
  0
LINE
  5
344
330
1F
100
AcDbEntity
  8
Ｓ_１_１
  6
CONTINUOUS
 62
     3
100
AcDbLine
 10
975.0000379999999
 20
532.5
 30
0.0
 11
975.0000379999999
 21
517.5
 31
0.0
  0
LINE
  5
345
330
1F
100
AcDbEntity
  8
Ｓ_１_１
  6
CONTINUOUS
 62
     3
100
AcDbLine
 10
940.0000339999999
 20
532.5
 30
0.0
 11
940.0000339999999
 21
517.5
 31
0.0
  0
LINE
  5
346
330
1F
100
AcDbEntity
  8
Ｓ_１_１
  6
CONTINUOUS
 62
     3
100
AcDbLine
 10
935.0000299999999
 20
532.5
 30
0.0
 11
935.0000299999999
 21
517.5
 31
0.0
  0
LINE
  5
347
330
1F
100
AcDbEntity
  8
Ｓ_１_１
  6
CONTINUOUS
 62
     3
100
AcDbLine
 10
825.00002
 20
464.999998
 30
0.0
 11
820.000021
 21
407.000014
 31
0.0
  0
LINE
  5
348
330
1F
100
AcDbEntity
  8
Ｓ_１_１
  6
CONTINUOUS
 62
     3
100
AcDbLine
 10
825.0000169999998
 20
584.999994
 30
0.0
 11
820.0000179999998
 21
642.999993
 31
0.0
  0
LINE
  5
349
330
1F
100
AcDbEntity
  8
Ｓ_１_１
  6
CONTINUOUS
 62
     3
100
AcDbLine
 10
825.0000299999999
 20
465.000005
 30
0.0
 11
830.0000449999999
 21
465.000005
 31
0.0
  0
LINE
  5
34A
330
1F
100
AcDbEntity
  8
Ｓ_１_１
  6
CONTINUOUS
 62
     3
100
AcDbLine
 10
825.0000299999999
 20
585.000002
 30
0.0
 11
830.0000449999999
 21
585.000002
 31
0.0
  0
LINE
  5
34B
330
1F
100
AcDbEntity
  8
Ｓ_１_１
  6
CONTINUOUS
 62
     3
100
AcDbLine
 10
830.0000449999999
 20
594.999994
 30
0.0
 11
835.0000379999999
 21
594.999994
 31
0.0
  0
LINE
  5
34C
330
1F
100
AcDbEntity
  8
Ｓ_１_１
  6
CONTINUOUS
 62
     3
100
AcDbLine
 10
830.0000449999999
 20
455.000002
 30
0.0
 11
835.0000379999999
 21
455.000002
 31
0.0
  0
LINE
  5
34D
330
1F
100
AcDbEntity
  8
Ｓ_１_１
  6
CONTINUOUS
 62
     3
100
AcDbLine
 10
830.0000449999999
 20
594.999994
 30
0.0
 11
830.0000449999999
 21
455.000002
 31
0.0
  0
LINE
  5
34E
330
1F
100
AcDbEntity
  8
Ｓ_１_１
  6
CONTINUOUS
 62
     3
100
AcDbLine
 10
825.0000299999999
 20
585.000002
 30
0.0
 11
825.0000299999999
 21
465.000005
 31
0.0
  0
LINE
  5
34F
330
1F
100
AcDbEntity
  8
Ｓ_１_１
  6
CONTINUOUS
 62
     3
100
AcDbLine
 10
837.000022
 20
644.999997
 30
0.0
 11
835.0000249999999
 21
643.0
 31
0.0
  0
LINE
  5
350
330
1F
100
AcDbEntity
  8
Ｓ_１_１
  6
CONTINUOUS
 62
     3
100
AcDbLine
 10
837.0000299999999
 20
644.999994
 30
0.0
 11
837.0000299999999
 21
405.000002
 31
0.0
  0
LINE
  5
351
330
1F
100
AcDbEntity
  8
Ｓ_１_１
  6
CONTINUOUS
 62
     3
100
AcDbLine
 10
837.0000109999999
 20
404.999992
 30
0.0
 11
835.0000169999998
 21
406.999986
 31
0.0
  0
LINE
  5
352
330
1F
100
AcDbEntity
  8
Ｓ_１_１
  6
CONTINUOUS
 62
     3
100
AcDbLine
 10
837.0000299999999
 20
644.999994
 30
0.0
 11
855.0000299999999
 21
644.999994
 31
0.0
  0
LINE
  5
353
330
1F
100
AcDbEntity
  8
Ｓ_１_１
  6
CONTINUOUS
 62
     3
100
AcDbLine
 10
837.0000299999999
 20
405.000002
 30
0.0
 11
855.0000299999999
 21
405.000002
 31
0.0
  0
LINE
  5
354
330
1F
100
AcDbEntity
  8
Ｓ_１_１
  6
CONTINUOUS
 62
     3
100
AcDbLine
 10
792.0000299999999
 20
644.999994
 30
0.0
 11
792.0000299999999
 21
405.000002
 31
0.0
  0
LINE
  5
355
330
1F
100
AcDbEntity
  8
Ｓ_１_１
  6
CONTINUOUS
 62
     3
100
AcDbLine
 10
818.0000449999999
 20
644.999994
 30
0.0
 11
818.0000449999999
 21
405.000002
 31
0.0
  0
LINE
  5
356
330
1F
100
AcDbEntity
  8
Ｓ_１_１
  6
CONTINUOUS
 62
     3
100
AcDbLine
 10
818.000019
 20
645.000012
 30
0.0
 11
820.000021
 21
643.00001
 31
0.0
  0
LINE
  5
357
330
1F
100
AcDbEntity
  8
Ｓ_１_１
  6
CONTINUOUS
 62
     3
100
AcDbLine
 10
792.0000309999999
 20
644.999989
 30
0.0
 11
790.0000369999999
 21
642.999995
 31
0.0
  0
LINE
  5
358
330
1F
100
AcDbEntity
  8
Ｓ_１_１
  6
CONTINUOUS
 62
     3
100
AcDbLine
 10
790.0000289999999
 20
406.999991
 30
0.0
 11
792.0000229999999
 21
404.999997
 31
0.0
  0
LINE
  5
359
330
1F
100
AcDbEntity
  8
Ｓ_１_１
  6
CONTINUOUS
 62
     3
100
AcDbLine
 10
818.0000179999998
 20
404.999989
 30
0.0
 11
820.00002
 21
406.999991
 31
0.0
  0
LINE
  5
35A
330
1F
100
AcDbEntity
  8
Ｓ_１_１
  6
CONTINUOUS
 62
     3
100
AcDbLine
 10
792.0000299999999
 20
644.999994
 30
0.0
 11
818.0000449999999
 21
644.999994
 31
0.0
  0
LINE
  5
35B
330
1F
100
AcDbEntity
  8
Ｓ_１_１
  6
CONTINUOUS
 62
     3
100
AcDbLine
 10
792.0000299999999
 20
405.000002
 30
0.0
 11
818.0000449999999
 21
405.000002
 31
0.0
  0
LINE
  5
35C
330
1F
100
AcDbEntity
  8
Ｓ_１_１
  6
CONTINUOUS
 62
     3
100
AcDbLine
 10
820.0000379999999
 20
643.000002
 30
0.0
 11
820.0000379999999
 21
407.000002
 31
0.0
  0
LINE
  5
35D
330
1F
100
AcDbEntity
  8
Ｓ_１_１
  6
CONTINUOUS
 62
     3
100
AcDbLine
 10
835.0000379999999
 20
643.000002
 30
0.0
 11
835.0000379999999
 21
407.000002
 31
0.0
  0
LINE
  5
35E
330
1F
100
AcDbEntity
  8
Ｓ_１_１
  6
CONTINUOUS
 62
     3
100
AcDbLine
 10
855.0000309999999
 20
655.500003
 30
0.0
 11
857.0000279999999
 21
657.5
 31
0.0
  0
LINE
  5
35F
330
1F
100
AcDbEntity
  8
Ｓ_１_１
  6
CONTINUOUS
 62
     3
100
AcDbLine
 10
857.0000329999999
 20
392.50001
 30
0.0
 11
855.0000329999999
 21
394.5000090000001
 31
0.0
  0
LINE
  5
360
330
1F
100
AcDbEntity
  8
Ｓ_１_１
  6
CONTINUOUS
 62
     3
100
AcDbLine
 10
857.0000449999999
 20
657.499979
 30
0.0
 11
857.0000449999999
 21
392.499994
 31
0.0
  0
LINE
  5
361
330
1F
100
AcDbEntity
  8
Ｓ_１_１
  6
CONTINUOUS
 62
     3
100
AcDbLine
 10
855.0000299999999
 20
655.499994
 30
0.0
 11
855.0000299999999
 21
394.5000090000001
 31
0.0
  0
LINE
  5
362
330
1F
100
AcDbEntity
  8
Ｓ_１_１
  6
CONTINUOUS
 62
     3
100
AcDbLine
 10
1348.00003
 20
657.499979
 30
0.0
 11
1348.00003
 21
392.499994
 31
0.0
  0
LINE
  5
363
330
1F
100
AcDbEntity
  8
Ｓ_１_１
  6
CONTINUOUS
 62
     3
100
AcDbLine
 10
1350.000008
 20
655.500001
 30
0.0
 11
1348.000016
 21
657.499992
 31
0.0
  0
LINE
  5
364
330
1F
100
AcDbEntity
  8
Ｓ_１_１
  6
CONTINUOUS
 62
     3
100
AcDbLine
 10
1348.000027
 20
392.500002
 30
0.0
 11
1350.00003
 21
394.500004
 31
0.0
  0
LINE
  5
365
330
1F
100
AcDbEntity
  8
Ｓ_１_１
  6
CONTINUOUS
 62
     3
100
AcDbLine
 10
1350.0
 20
655.499994
 30
0.0
 11
1350.0
 21
394.5000090000001
 31
0.0
  0
LINE
  5
366
330
1F
100
AcDbEntity
  8
Ｓ_１_１
  6
CONTINUOUS
 62
     3
100
AcDbLine
 10
790.0000379999999
 20
643.000002
 30
0.0
 11
790.0000379999999
 21
407.000002
 31
0.0
  0
LINE
  5
367
330
1F
100
AcDbEntity
  8
Ｓ_１_１
  6
CONTINUOUS
 62
     3
100
AcDbLine
 10
857.0000449999999
 20
392.499994
 30
0.0
 11
1348.00003
 21
392.499994
 31
0.0
  0
LINE
  5
368
330
1F
100
AcDbEntity
  8
Ｓ_１_１
  6
CONTINUOUS
 62
     3
100
AcDbLine
 10
857.0000449999999
 20
657.499979
 30
0.0
 11
925.0000349999999
 21
657.499979
 31
0.0
  0
LINE
  5
369
330
1F
100
AcDbEntity
  8
Ｓ_１_１
  6
EXLTYPE2
 62
     1
100
AcDbLine
 10
776.0389089999999
 20
525.0
 30
0.0
 11
1370.400038
 21
525.0000000000001
 31
0.0
  0
LINE
  5
36A
330
1F
100
AcDbEntity
  8
Ｓ_１_１
  6
EXLTYPE2
 62
     1
100
AcDbLine
 10
260.85437
 20
575.000002
 30
0.0
 11
242.9459830000001
 21
575.000002
 31
0.0
  0
LINE
  5
36B
330
1F
100
AcDbEntity
  8
Ｓ_１_１
  6
EXLTYPE2
 62
     1
100
AcDbLine
 10
251.583435
 20
585.5440960000001
 30
0.0
 11
251.583435
 21
465.9121680000001
 31
0.0
  0
LINE
  5
36C
330
1F
100
AcDbEntity
  8
Ｓ_１_１
  6
EXLTYPE2
 62
     1
100
AcDbLine
 10
260.85437
 20
475.000002
 30
0.0
 11
242.9459830000001
 21
475.000002
 31
0.0
  0
LINE
  5
36D
330
1F
100
AcDbEntity
  8
Ｓ_１_１
  6
EXLTYPE2
 62
     1
100
AcDbLine
 10
557.3125299999999
 20
575.000002
 30
0.0
 11
575.2208859999998
 21
575.000002
 31
0.0
  0
LINE
  5
36E
330
1F
100
AcDbEntity
  8
Ｓ_１_１
  6
EXLTYPE2
 62
     1
100
AcDbLine
 10
557.3125299999999
 20
475.000002
 30
0.0
 11
575.2208859999998
 21
475.000002
 31
0.0
  0
LINE
  5
36F
330
1F
100
AcDbEntity
  8
Ｓ_１_１
  6
EXLTYPE2
 62
     1
100
AcDbLine
 10
477.3690539999999
 20
658.253455
 30
0.0
 11
467.8695689999998
 21
639.716033
 31
0.0
  0
LINE
  5
370
330
1F
100
AcDbEntity
  8
Ｓ_１_１
  6
EXLTYPE2
 62
     1
100
AcDbLine
 10
340.7978679999999
 20
658.2534430000001
 30
0.0
 11
350.2973459999998
 21
639.716034
 31
0.0
  0
LINE
  5
371
330
1F
100
AcDbEntity
  8
Ｓ_１_１
  6
EXLTYPE2
 62
     1
100
AcDbLine
 10
566.5834349999999
 20
585.5440960000001
 30
0.0
 11
566.5834349999999
 21
465.9121680000001
 31
0.0
  0
LINE
  5
372
330
1F
100
AcDbEntity
  8
Ｓ_１_１
  6
EXLTYPE2
 62
     1
100
AcDbLine
 10
225.0225829999999
 20
525.0
 30
0.0
 11
599.933685
 21
525.0
 31
0.0
  0
ARC
  5
373
330
1F
100
AcDbEntity
  8
Ｓ_１_１
  6
CONTINUOUS
 62
     3
100
AcDbCircle
 10
251.583435
 20
475.000002
 30
0.0
 40
5.0
100
AcDbArc
 50
179.999991
 51
0.0000099999999886
  0
ARC
  5
374
330
1F
100
AcDbEntity
  8
Ｓ_１_１
  6
CONTINUOUS
 62
     3
100
AcDbCircle
 10
251.583435
 20
575.000002
 30
0.0
 40
5.0
100
AcDbArc
 50
0.0
 51
180.000005
  0
ARC
  5
375
330
1F
100
AcDbEntity
  8
Ｓ_１_１
  6
CONTINUOUS
 62
     3
100
AcDbCircle
 10
566.5834349999999
 20
575.000002
 30
0.0
 40
5.0
100
AcDbArc
 50
0.0
 51
180.000005
  0
ARC
  5
376
330
1F
100
AcDbEntity
  8
Ｓ_１_１
  6
CONTINUOUS
 62
     3
100
AcDbCircle
 10
566.5834349999999
 20
475.000002
 30
0.0
 40
5.0
100
AcDbArc
 50
179.999991
 51
0.0000099999999886
  0
CIRCLE
  5
377
330
1F
100
AcDbEntity
  8
Ｓ_１_１
  6
CONTINUOUS
 62
     3
100
AcDbCircle
 10
409.0834349999999
 20
525.0
 30
0.0
 40
98.00000000000007
  0
CIRCLE
  5
378
330
1F
100
AcDbEntity
  8
Ｓ_１_１
  6
CONTINUOUS
 62
     3
100
AcDbCircle
 10
409.0834349999999
 20
525.0
 30
0.0
 40
99.999992
  0
CIRCLE
  5
379
330
1F
100
AcDbEntity
  8
Ｓ_１_１
  6
CONTINUOUS
 62
     3
100
AcDbCircle
 10
409.0834349999999
 20
525.0
 30
0.0
 40
70.0
  0
CIRCLE
  5
37A
330
1F
100
AcDbEntity
  8
Ｓ_１_１
  6
CONTINUOUS
 62
     3
100
AcDbCircle
 10
409.0834349999999
 20
525.0
 30
0.0
 40
67.99999200000003
  0
CIRCLE
  5
37B
330
1F
100
AcDbEntity
  8
Ｓ_１_１
  6
CONTINUOUS
 62
     3
100
AcDbCircle
 10
409.0834349999999
 20
525.0
 30
0.0
 40
38.0
  0
CIRCLE
  5
37C
330
1F
100
AcDbEntity
  8
Ｓ_１_１
  6
CONTINUOUS
 62
     3
100
AcDbCircle
 10
409.0834349999999
 20
525.0
 30
0.0
 40
39.999996
  0
CIRCLE
  5
37D
330
1F
100
AcDbEntity
  8
Ｓ_１_１
  6
CONTINUOUS
 62
     3
100
AcDbCircle
 10
409.0834349999999
 20
525.0
 30
0.0
 40
22.0
  0
CIRCLE
  5
37E
330
1F
100
AcDbEntity
  8
Ｓ_１_１
  6
CONTINUOUS
 62
     3
100
AcDbCircle
 10
409.0834349999999
 20
525.0
 30
0.0
 40
16.99999800000001
  0
CIRCLE
  5
37F
330
1F
100
AcDbEntity
  8
Ｓ_１_１
  6
CONTINUOUS
 62
     3
100
AcDbCircle
 10
409.0834349999999
 20
525.0
 30
0.0
 40
18.0
  0
ARC
  5
380
330
1F
100
AcDbEntity
  8
Ｓ_１_１
  6
CONTINUOUS
 62
     3
100
AcDbCircle
 10
409.0834349999999
 20
525.0
 30
0.0
 40
145.5
100
AcDbArc
 50
60.50379
 51
65.230554
  0
ARC
  5
381
330
1F
100
AcDbEntity
  8
Ｓ_１_１
  6
CONTINUOUS
 62
     3
100
AcDbCircle
 10
409.0834349999999
 20
525.0
 30
0.0
 40
137.499985
100
AcDbArc
 50
54.903195
 51
70.89667400000005
  0
ARC
  5
382
330
1F
100
AcDbEntity
  8
Ｓ_１_１
  6
CONTINUOUS
 62
     3
100
AcDbCircle
 10
409.0834349999999
 20
525.0
 30
0.0
 40
145.5
100
AcDbArc
 50
114.769444
 51
119.496209
  0
ARC
  5
383
330
1F
100
AcDbEntity
  8
Ｓ_１_１
  6
CONTINUOUS
 62
     3
100
AcDbCircle
 10
409.0834349999999
 20
525.0
 30
0.0
 40
137.499985
100
AcDbArc
 50
109.103324
 51
125.0968
  0
CIRCLE
  5
384
330
1F
100
AcDbEntity
  8
Ｓ_１_１
  6
CONTINUOUS
 62
     3
100
AcDbCircle
 10
409.0834349999999
 20
525.0
 30
0.0
 40
119.0000000000001
  0
CIRCLE
  5
385
330
1F
100
AcDbEntity
  8
Ｓ_１_１
  6
CONTINUOUS
 62
     3
100
AcDbCircle
 10
409.0834349999999
 20
525.0
 30
0.0
 40
131.499985
  0
CIRCLE
  5
386
330
1F
100
AcDbEntity
  8
Ｓ_１_１
  6
CONTINUOUS
 62
     3
100
AcDbCircle
 10
409.0834349999999
 20
525.0
 30
0.0
 40
120.0000000000001
  0
CIRCLE
  5
387
330
1F
100
AcDbEntity
  8
Ｓ_１_１
  6
CONTINUOUS
 62
     3
100
AcDbCircle
 10
409.0834349999999
 20
525.0
 30
0.0
 40
132.5
  0
LINE
  5
388
330
1F
100
AcDbEntity
  8
Ｓ_１_１
  6
CONTINUOUS
 62
     3
100
AcDbLine
 10
256.583496
 20
517.5
 30
0.0
 11
256.583496
 21
475.000002
 31
0.0
  0
LINE
  5
389
330
1F
100
AcDbEntity
  8
Ｓ_１_１
  6
CONTINUOUS
 62
     3
100
AcDbLine
 10
246.583435
 20
517.5
 30
0.0
 11
246.583435
 21
475.000002
 31
0.0
  0
LINE
  5
38A
330
1F
100
AcDbEntity
  8
Ｓ_１_１
  6
CONTINUOUS
 62
     3
100
AcDbLine
 10
571.5834649999999
 20
517.5
 30
0.0
 11
571.5834649999999
 21
475.000002
 31
0.0
  0
LINE
  5
38B
330
1F
100
AcDbEntity
  8
Ｓ_１_１
  6
CONTINUOUS
 62
     3
100
AcDbLine
 10
561.5834349999999
 20
517.5
 30
0.0
 11
561.5834349999999
 21
475.000002
 31
0.0
  0
LINE
  5
38C
330
1F
100
AcDbEntity
  8
Ｓ_１_１
  6
CONTINUOUS
 62
     3
100
AcDbLine
 10
256.583496
 20
575.000002
 30
0.0
 11
256.583496
 21
532.5
 31
0.0
  0
LINE
  5
38D
330
1F
100
AcDbEntity
  8
Ｓ_１_１
  6
CONTINUOUS
 62
     3
100
AcDbLine
 10
246.583435
 20
575.000002
 30
0.0
 11
246.583435
 21
532.5
 31
0.0
  0
LINE
  5
38E
330
1F
100
AcDbEntity
  8
Ｓ_１_１
  6
CONTINUOUS
 62
     3
100
AcDbLine
 10
485.265628
 20
633.409074
 30
0.0
 11
488.1404259999999
 21
637.499983
 31
0.0
  0
LINE
  5
38F
330
1F
100
AcDbEntity
  8
Ｓ_１_１
  6
CONTINUOUS
 62
     3
100
AcDbLine
 10
480.7226989999999
 20
651.641492
 30
0.0
 11
477.0709719999999
 21
644.515463
 31
0.0
  0
LINE
  5
390
330
1F
100
AcDbEntity
  8
Ｓ_１_１
  6
CONTINUOUS
 62
     3
100
AcDbLine
 10
470.0432789999999
 20
657.114151
 30
0.0
 11
466.3915519999999
 21
649.9881210000001
 31
0.0
  0
LINE
  5
391
330
1F
100
AcDbEntity
  8
Ｓ_１_１
  6
CONTINUOUS
 62
     3
100
AcDbLine
 10
332.901312
 20
633.409093
 30
0.0
 11
330.0265129999998
 21
637.500002
 31
0.0
  0
LINE
  5
392
330
1F
100
AcDbEntity
  8
Ｓ_１_１
  6
CONTINUOUS
 62
     3
100
AcDbLine
 10
337.444227
 20
651.641473
 30
0.0
 11
341.095937
 21
644.515478
 31
0.0
  0
LINE
  5
393
330
1F
100
AcDbEntity
  8
Ｓ_１_１
  6
CONTINUOUS
 62
     3
100
AcDbLine
 10
348.1236469999999
 20
657.114132
 30
0.0
 11
351.7753559999999
 21
649.988136
 31
0.0
  0
LINE
  5
394
330
1F
100
AcDbEntity
  8
Ｓ_１_１
  6
CONTINUOUS
 62
     3
100
AcDbLine
 10
452.0834309999999
 20
717.5000170000001
 30
0.0
 11
454.0834329999999
 21
715.5000150000001
 31
0.0
  0
LINE
  5
395
330
1F
100
AcDbEntity
  8
Ｓ_１_１
  6
CONTINUOUS
 62
     3
100
AcDbLine
 10
364.083453
 20
715.500008
 30
0.0
 11
366.0834329999999
 21
717.499988
 31
0.0
  0
LINE
  5
396
330
1F
100
AcDbEntity
  8
Ｓ_１_１
  6
CONTINUOUS
 62
     3
100
AcDbLine
 10
454.0834349999999
 20
715.499994
 30
0.0
 11
454.0834349999999
 21
649.6244370000001
 31
0.0
  0
LINE
  5
397
330
1F
100
AcDbEntity
  8
Ｓ_１_１
  6
CONTINUOUS
 62
     3
100
AcDbLine
 10
364.0834349999999
 20
715.499994
 30
0.0
 11
364.0834349999999
 21
654.92785
 31
0.0
  0
LINE
  5
398
330
1F
100
AcDbEntity
  8
Ｓ_１_１
  6
CONTINUOUS
 62
     3
100
AcDbLine
 10
366.083496
 20
717.499994
 30
0.0
 11
452.0834349999999
 21
717.499994
 31
0.0
  0
LINE
  5
399
330
1F
100
AcDbEntity
  8
Ｓ_１_１
  6
CONTINUOUS
 62
     3
100
AcDbLine
 10
364.0834349999999
 20
715.499994
 30
0.0
 11
454.0834349999999
 21
715.499994
 31
0.0
  0
LINE
  5
39A
330
1F
100
AcDbEntity
  8
Ｓ_１_１
  6
CONTINUOUS
 62
     3
100
AcDbLine
 10
241.583496
 20
532.5
 30
0.0
 11
241.583496
 21
517.5
 31
0.0
  0
LINE
  5
39B
330
1F
100
AcDbEntity
  8
Ｓ_１_１
  6
CONTINUOUS
 62
     3
100
AcDbLine
 10
236.583435
 20
517.5
 30
0.0
 11
276.8086539999999
 21
517.5
 31
0.0
  0
LINE
  5
39C
330
1F
100
AcDbEntity
  8
Ｓ_１_１
  6
CONTINUOUS
 62
     3
100
AcDbLine
 10
236.583435
 20
532.5
 30
0.0
 11
276.8086539999999
 21
532.5
 31
0.0
  0
LINE
  5
39D
330
1F
100
AcDbEntity
  8
Ｓ_１_１
  6
CONTINUOUS
 62
     3
100
AcDbLine
 10
236.583435
 20
532.5
 30
0.0
 11
236.583435
 21
517.5
 31
0.0
  0
LINE
  5
39E
330
1F
100
AcDbEntity
  8
Ｓ_１_１
  6
CONTINUOUS
 62
     3
100
AcDbLine
 10
576.5834349999999
 20
532.5
 30
0.0
 11
576.5834349999999
 21
517.5
 31
0.0
  0
LINE
  5
39F
330
1F
100
AcDbEntity
  8
Ｓ_１_１
  6
CONTINUOUS
 62
     3
100
AcDbLine
 10
581.5834349999999
 20
517.5
 30
0.0
 11
541.3582449999999
 21
517.5
 31
0.0
  0
LINE
  5
3A0
330
1F
100
AcDbEntity
  8
Ｓ_１_１
  6
CONTINUOUS
 62
     3
100
AcDbLine
 10
561.5834349999999
 20
575.000002
 30
0.0
 11
561.5834349999999
 21
532.5
 31
0.0
  0
LINE
  5
3A1
330
1F
100
AcDbEntity
  8
Ｓ_１_１
  6
CONTINUOUS
 62
     3
100
AcDbLine
 10
571.5834649999999
 20
575.000002
 30
0.0
 11
571.5834649999999
 21
532.5
 31
0.0
  0
LINE
  5
3A2
330
1F
100
AcDbEntity
  8
Ｓ_１_１
  6
CONTINUOUS
 62
     3
100
AcDbLine
 10
581.5834349999999
 20
532.5
 30
0.0
 11
541.3582449999999
 21
532.5
 31
0.0
  0
LINE
  5
3A3
330
1F
100
AcDbEntity
  8
Ｓ_１_１
  6
CONTINUOUS
 62
     3
100
AcDbLine
 10
581.5834349999999
 20
532.5
 30
0.0
 11
581.5834349999999
 21
517.5
 31
0.0
  0
LINE
  5
3A4
330
1F
100
AcDbEntity
  8
Ｓ_１_１
  6
EXLTYPE2
 62
     1
100
AcDbLine
 10
409.0834349999999
 20
731.9213960000001
 30
0.0
 11
409.0834349999999
 21
369.16398
 31
0.0
  0
ENDSEC
  0
SECTION
  2
OBJECTS
  0
DICTIONARY
  5
C
330
0
100
AcDbDictionary
  3
ACAD_GROUP
350
D
  3
ACAD_LAYOUT
350
1A
  3
ACAD_MATERIAL
350
43
  3
ACAD_MLEADERSTYLE
350
6B
  3
ACAD_MLINESTYLE
350
17
  3
ACAD_PLOTSETTINGS
350
19
  3
ACAD_SCALELIST
350
47
  3
ACAD_VISUALSTYLE
350
2A
  3
ACDBHEADERROUNDTRIPXREC
350
3A5
  3
ACDBVARIABLEDICTIONARY
350
3C6
  0
DICTIONARY
  5
3D1
330
8
100
AcDbDictionary
280
     1
  3
ACAD_XREC_ROUNDTRIP
360
3D2
  0
DICTIONARY
  5
D
102
{ACAD_REACTORS
330
C
102
}
330
C
100
AcDbDictionary
  0
DICTIONARY
  5
1A
102
{ACAD_REACTORS
330
C
102
}
330
C
100
AcDbDictionary
  0
DICTIONARY
  5
43
102
{ACAD_REACTORS
330
C
102
}
330
C
100
AcDbDictionary
  3
BYBLOCK
350
45
  3
BYLAYER
350
44
  3
GLOBAL
350
46
  0
DICTIONARY
  5
6B
102
{ACAD_REACTORS
330
C
102
}
330
C
100
AcDbDictionary
  3
STANDARD
350
6C
  0
DICTIONARY
  5
17
102
{ACAD_REACTORS
330
C
102
}
330
C
100
AcDbDictionary
  3
STANDARD
350
18
  0
DICTIONARY
  5
19
102
{ACAD_REACTORS
330
C
102
}
330
C
100
AcDbDictionary
  0
DICTIONARY
  5
47
102
{ACAD_REACTORS
330
C
102
}
330
C
100
AcDbDictionary
  3
A0
350
48
  3
A1
350
49
  3
A2
350
4A
  3
A3
350
4B
  3
A4
350
4C
  3
A5
350
4D
  3
A6
350
4E
  3
A7
350
4F
  3
A8
350
50
  3
A9
350
51
  3
B0
350
52
  3
B1
350
53
  3
B2
350
54
  3
B3
350
55
  3
B4
350
56
  3
B5
350
57
  3
B6
350
58
  3
B7
350
59
  3
B8
350
5A
  3
B9
350
5B
  3
C0
350
5C
  3
C1
350
5D
  3
C2
350
5E
  3
C3
350
5F
  3
C4
350
60
  3
C5
350
61
  3
C6
350
62
  3
C7
350
63
  3
C8
350
64
  3
C9
350
65
  3
D0
350
66
  3
D1
350
67
  3
D2
350
68
  0
DICTIONARY
  5
2A
102
{ACAD_REACTORS
330
C
102
}
330
C
100
AcDbDictionary
  3
2DWIREFRAME
350
2F
  3
BASIC
350
32
  3
BRIGHTEN
350
36
  3
COLORCHANGE
350
3A
  3
CONCEPTUAL
350
34
  3
DIM
350
35
  3
EDGECOLOROFF
350
3D
  3
FACEPATTERN
350
39
  3
FLAT
350
2B
  3
FLATWITHEDGES
350
2C
  3
GOURAUD
350
2D
  3
GOURAUDWITHEDGES
350
2E
  3
HIDDEN
350
31
  3
JITTEROFF
350
3B
  3
LINEPATTERN
350
38
  3
OVERHANGOFF
350
3C
  3
REALISTIC
350
33
  3
SHADED
350
42
  3
SHADED_WITH_EDGES
350
41
  3
SHADES_OF_GRAY
350
3E
  3
SKETCHY
350
3F
  3
THICKEN
350
37
  3
WIREFRAME
350
30
  3
X-RAY
350
40
  0
DICTIONARY
  5
3A5
102
{ACAD_REACTORS
330
C
102
}
330
C
100
AcDbDictionary
  3
CEPSNID
350
3AF
  3
CEPSNTYPE
350
3AE
  3
DIMSTYLEDATA
350
3C5
  3
FINGERPRINTGUID
350
3B0
  3
HYPERLINKBASE
350
3A8
  3
INSUNITS
350
3AD
  3
LAYOUTDICT
350
3AA
  3
LWETCUNION
350
3AC
  3
PLOTSETDICT
350
3AB
  3
PSVPSCALE
350
3B2
  3
PUCSBASE
350
3B5
  3
PUCSORGBACK
350
3BB
  3
PUCSORGBOTTOM
350
3B7
  3
PUCSORGFRONT
350
3BA
  3
PUCSORGLEFT
350
3B8
  3
PUCSORGRIGHT
350
3B9
  3
PUCSORGTOP
350
3B6
  3
PUCSORTHOREF
350
3B3
  3
PUCSORTHOVIEW
350
3B4
  3
STYLESHEET
350
3A9
  3
TSTACKALIGN
350
3A6
  3
TSTACKSIZE
350
3A7
  3
UCSBASE
350
3BE
  3
UCSORGBACK
350
3C4
  3
UCSORGBOTTOM
350
3C0
  3
UCSORGFRONT
350
3C3
  3
UCSORGLEFT
350
3C1
  3
UCSORGRIGHT
350
3C2
  3
UCSORGTOP
350
3BF
  3
UCSORTHOREF
350
3BC
  3
UCSORTHOVIEW
350
3BD
  3
VERSIONGUID
350
3B1
  0
DICTIONARY
  5
3C6
102
{ACAD_REACTORS
330
C
102
}
330
C
100
AcDbDictionary
  3
CANNOSCALE
350
3D3
  3
CENTEREXE
350
3CD
  3
CENTERLTYPEFILE
350
3CE
  3
CMLEADERSTYLE
350
3C8
  3
CTABLESTYLE
350
3C7
  3
DIMASSOC
350
3CF
  3
HIDETEXT
350
3D0
  3
MSLTSCALE
350
3D4
  3
PSOLHEIGHT
350
3CA
  3
PSOLWIDTH
350
3C9
  0
XRECORD
  5
3D2
102
{ACAD_REACTORS
330
3D1
102
}
330
3D1
100
AcDbXrecord
102
VTR_0.000_0.000_1.000_1.000_VISUALSTYLE
340
2F
102
VTR_0.000_0.000_1.000_1.000_GRIDDISPLAY
 70
     3
102
VTR_0.000_0.000_1.000_1.000_GRIDMAJOR
 70
     5
102
VTR_0.000_0.000_1.000_1.000_DEFAULTLIGHTING
280
     1
102
VTR_0.000_0.000_1.000_1.000_DEFAULTLIGHTINGTYPE
 70
     1
102
VTR_0.000_0.000_1.000_1.000_BRIGHTNESS
141
0.0
102
VTR_0.000_0.000_1.000_1.000_CONTRAST
142
0.0
  0
MATERIAL
  5
45
102
{ACAD_REACTORS
330
43
102
}
102
{ACAD_XDICTIONARY
360
3D7
102
}
330
43
100
AcDbMaterial
  1
BYBLOCK
  0
MATERIAL
  5
44
102
{ACAD_REACTORS
330
43
102
}
102
{ACAD_XDICTIONARY
360
3D5
102
}
330
43
100
AcDbMaterial
  1
BYLAYER
  0
MATERIAL
  5
46
102
{ACAD_REACTORS
330
43
102
}
102
{ACAD_XDICTIONARY
360
3D9
102
}
330
43
100
AcDbMaterial
  1
GLOBAL
  0
ACAD_PROXY_OBJECT
  5
6C
102
{ACAD_REACTORS
330
6B
102
}
330
6B
100
AcDbProxyObject
 90
      499
 91
      505
 93
      610
310
40901902A4063FBFFFFFE0000000000000020400000000000020404214DD185B99185C990000000000000104090141901A00000000000004100000000000000041025764000000000000039000
340
14
340
0
340
11
340
0
 94
        0
1001
ACAD_MLEADERVER
1070
     2
  0
MLINESTYLE
  5
18
102
{ACAD_REACTORS
330
17
102
}
330
17
100
AcDbMlineStyle
  2
Standard
 70
     0
  3

 62
   256
 51
90.0
 52
90.0
 71
     2
 49
0.5
 62
   256
  6
BYLAYER
 49
-0.5
 62
   256
  6
BYLAYER
  0
ACAD_PROXY_OBJECT
  5
48
102
{ACAD_REACTORS
330
47
102
}
330
47
100
AcDbProxyObject
 90
      499
 91
      503
 93
       41
310
903313A31580
  0
ACAD_PROXY_OBJECT
  5
49
102
{ACAD_REACTORS
330
47
102
}
330
47
100
AcDbProxyObject
 90
      499
 91
      503
 93
      105
310
903313A324000000000000004000
  0
ACAD_PROXY_OBJECT
  5
4A
102
{ACAD_REACTORS
330
47
102
}
330
47
100
AcDbProxyObject
 90
      499
 91
      503
 93
      105
310
903313A344000000000000104000
  0
ACAD_PROXY_OBJECT
  5
4B
102
{ACAD_REACTORS
330
47
102
}
330
47
100
AcDbProxyObject
 90
      499
 91
      503
 93
      105
310
903313A354000000000000144000
  0
ACAD_PROXY_OBJECT
  5
4C
102
{ACAD_REACTORS
330
47
102
}
330
47
100
AcDbProxyObject
 90
      499
 91
      503
 93
      105
310
903313A384000000000000204000
  0
ACAD_PROXY_OBJECT
  5
4D
102
{ACAD_REACTORS
330
47
102
}
330
47
100
AcDbProxyObject
 90
      499
 91
      503
 93
      113
310
904313A31304000000000000244000
  0
ACAD_PROXY_OBJECT
  5
4E
102
{ACAD_REACTORS
330
47
102
}
330
47
100
AcDbProxyObject
 90
      499
 91
      503
 93
      113
310
904313A31364000000000000304000
  0
ACAD_PROXY_OBJECT
  5
4F
102
{ACAD_REACTORS
330
47
102
}
330
47
100
AcDbProxyObject
 90
      499
 91
      503
 93
      113
310
904313A32304000000000000344000
  0
ACAD_PROXY_OBJECT
  5
50
102
{ACAD_REACTORS
330
47
102
}
330
47
100
AcDbProxyObject
 90
      499
 91
      503
 93
      113
310
904313A333040000000000003E4000
  0
ACAD_PROXY_OBJECT
  5
51
102
{ACAD_REACTORS
330
47
102
}
330
47
100
AcDbProxyObject
 90
      499
 91
      503
 93
      113
310
904313A34304000000000000444000
  0
ACAD_PROXY_OBJECT
  5
52
102
{ACAD_REACTORS
330
47
102
}
330
47
100
AcDbProxyObject
 90
      499
 91
      503
 93
      113
310
904313A35304000000000000494000
  0
ACAD_PROXY_OBJECT
  5
53
102
{ACAD_REACTORS
330
47
102
}
330
47
100
AcDbProxyObject
 90
      499
 91
      503
 93
      121
310
905313A3130304000000000000594000
  0
ACAD_PROXY_OBJECT
  5
54
102
{ACAD_REACTORS
330
47
102
}
330
47
100
AcDbProxyObject
 90
      499
 91
      503
 93
      105
310
903323A310000000000000010100
  0
ACAD_PROXY_OBJECT
  5
55
102
{ACAD_REACTORS
330
47
102
}
330
47
100
AcDbProxyObject
 90
      499
 91
      503
 93
      105
310
903343A310000000000000410100
  0
ACAD_PROXY_OBJECT
  5
56
102
{ACAD_REACTORS
330
47
102
}
330
47
100
AcDbProxyObject
 90
      499
 91
      503
 93
      105
310
903383A310000000000000810100
  0
ACAD_PROXY_OBJECT
  5
57
102
{ACAD_REACTORS
330
47
102
}
330
47
100
AcDbProxyObject
 90
      499
 91
      503
 93
      113
310
90431303A310000000000000910100
  0
ACAD_PROXY_OBJECT
  5
58
102
{ACAD_REACTORS
330
47
102
}
330
47
100
AcDbProxyObject
 90
      499
 91
      503
 93
      121
310
9053130303A310000000000001650100
  0
ACAD_PROXY_OBJECT
  5
59
102
{ACAD_REACTORS
330
47
102
}
330
47
100
AcDbProxyObject
 90
      499
 91
      503
 93
      257
310
90E312F31323822203D2031272D3022000000000000200FC000000000000284000
  0
ACAD_PROXY_OBJECT
  5
5A
102
{ACAD_REACTORS
330
47
102
}
330
47
100
AcDbProxyObject
 90
      499
 91
      503
 93
      249
310
90D312F363422203D2031272D3022000000000000240FC000000000000284000
  0
ACAD_PROXY_OBJECT
  5
5B
102
{ACAD_REACTORS
330
47
102
}
330
47
100
AcDbProxyObject
 90
      499
 91
      503
 93
      249
310
90D312F333222203D2031272D3022000000000000280FC000000000000284000
  0
ACAD_PROXY_OBJECT
  5
5C
102
{ACAD_REACTORS
330
47
102
}
330
47
100
AcDbProxyObject
 90
      499
 91
      503
 93
      249
310
90D312F313622203D2031272D30220000000000002C0FC000000000000284000
  0
ACAD_PROXY_OBJECT
  5
5D
102
{ACAD_REACTORS
330
47
102
}
330
47
100
AcDbProxyObject
 90
      499
 91
      503
 93
      249
310
90D332F333222203D2031272D30220000000000002E0FC000000000000284000
  0
ACAD_PROXY_OBJECT
  5
5E
102
{ACAD_REACTORS
330
47
102
}
330
47
100
AcDbProxyObject
 90
      499
 91
      503
 93
      241
310
90C312F3822203D2031272D3022000000000000300FC000000000000284000
  0
ACAD_PROXY_OBJECT
  5
5F
102
{ACAD_REACTORS
330
47
102
}
330
47
100
AcDbProxyObject
 90
      499
 91
      503
 93
      249
310
90D332F313622203D2031272D3022000000000000320FC000000000000284000
  0
ACAD_PROXY_OBJECT
  5
60
102
{ACAD_REACTORS
330
47
102
}
330
47
100
AcDbProxyObject
 90
      499
 91
      503
 93
      241
310
90C312F3422203D2031272D3022000000000000340FC000000000000284000
  0
ACAD_PROXY_OBJECT
  5
61
102
{ACAD_REACTORS
330
47
102
}
330
47
100
AcDbProxyObject
 90
      499
 91
      503
 93
      241
310
90C332F3822203D2031272D3022000000000000360FC000000000000284000
  0
ACAD_PROXY_OBJECT
  5
62
102
{ACAD_REACTORS
330
47
102
}
330
47
100
AcDbProxyObject
 90
      499
 91
      503
 93
      241
310
90C312F3222203D2031272D3022000000000000380FC000000000000284000
  0
ACAD_PROXY_OBJECT
  5
63
102
{ACAD_REACTORS
330
47
102
}
330
47
100
AcDbProxyObject
 90
      499
 91
      503
 93
      241
310
90C332F3422203D2031272D30220000000000003A0FC000000000000284000
  0
ACAD_PROXY_OBJECT
  5
64
102
{ACAD_REACTORS
330
47
102
}
330
47
100
AcDbProxyObject
 90
      499
 91
      503
 93
      161
310
90A3122203D2031272D30224000000000000284000
  0
ACAD_PROXY_OBJECT
  5
65
102
{ACAD_REACTORS
330
47
102
}
330
47
100
AcDbProxyObject
 90
      499
 91
      503
 93
      257
310
90E312D312F3222203D2031272D30220000000000003E0FC000000000000284000
  0
ACAD_PROXY_OBJECT
  5
66
102
{ACAD_REACTORS
330
47
102
}
330
47
100
AcDbProxyObject
 90
      499
 91
      503
 93
      225
310
90A3322203D2031272D302200000000000002100000000000000284000
  0
ACAD_PROXY_OBJECT
  5
67
102
{ACAD_REACTORS
330
47
102
}
330
47
100
AcDbProxyObject
 90
      499
 91
      503
 93
      225
310
90A3622203D2031272D302200000000000006100000000000000284000
  0
ACAD_PROXY_OBJECT
  5
68
102
{ACAD_REACTORS
330
47
102
}
330
47
100
AcDbProxyObject
 90
      499
 91
      503
 93
      249
310
90D31272D3022203D2031272D30220000000000000A100000000000000284000
  0
ACAD_PROXY_OBJECT
  5
2F
102
{ACAD_REACTORS
330
2A
102
}
330
2A
100
AcDbProxyObject
 90
      499
 91
      501
 93
      436
310
42CC9915DA5C99599C985B595049028333333333333E33F0000000000000F90107901411070040501600405405064090741402480A0340
1001
ACAD
1000
AcDbSavedByObjectVersion
1070
     0
  0
ACAD_PROXY_OBJECT
  5
32
102
{ACAD_REACTORS
330
2A
102
}
330
2A
100
AcDbProxyObject
 90
      499
 91
      501
 93
      388
310
4150985CDA58D07406404333333333333E33F0000000000000F90107A41107004050150841D405064090741402480A0350
1001
ACAD
1000
AcDbSavedByObjectVersion
1070
     0
  0
ACAD_PROXY_OBJECT
  5
36
102
{ACAD_REACTORS
330
2A
102
}
330
2A
100
AcDbProxyObject
 90
      499
 91
      501
 93
      428
310
42109C9A59DA1D195B90C409028333333333333E33F0000000000000F9010790141107004050150841D405064090741402480A029950
1001
ACAD
1000
AcDbSavedByObjectVersion
1070
     0
  0
ACAD_PROXY_OBJECT
  5
3A
102
{ACAD_REACTORS
330
2A
102
}
330
2A
100
AcDbProxyObject
 90
      499
 91
      501
 93
      452
310
42D0DBDB1BDC90DA185B99D95104090240C333333333333E33F0000000000000F90108901411070040501508421405064090741402480A0350
1001
ACAD
1000
AcDbSavedByObjectVersion
1070
     0
  0
ACAD_PROXY_OBJECT
  5
34
102
{ACAD_REACTORS
330
2A
102
}
330
2A
100
AcDbProxyObject
 90
      499
 91
      501
 93
      500
310
4290DBDB98D95C1D1D585B10940D028333333333333E33F0000000000000F90107902409070040501000000000018199010841D405064090740C02480A0340
1001
ACAD
1000
AcDbSavedByObjectVersion
1070
     0
  0
ACAD_PROXY_OBJECT
  5
35
102
{ACAD_REACTORS
330
2A
102
}
330
2A
100
AcDbProxyObject
 90
      499
 91
      501
 93
      412
310
40D11A5B50B409028333333333333E33F0000000000000F9010790141107004050150841D405064090741402480A02677FFFFFD0
1001
ACAD
1000
AcDbSavedByObjectVersion
1070
     0
  0
ACAD_PROXY_OBJECT
  5
3D
102
{ACAD_REACTORS
330
2A
102
}
330
2A
100
AcDbProxyObject
 90
      499
 91
      501
 93
      452
310
43115919D950DBDB1BDC93D999916409028333333333333E33F0000000000000F9010790141107004050150841D405064090741402480A0350
1001
ACAD
1000
AcDbSavedByObjectVersion
1070
     0
  0
ACAD_PROXY_OBJECT
  5
39
102
{ACAD_REACTORS
330
2A
102
}
330
2A
100
AcDbProxyObject
 90
      499
 91
      501
 93
      444
310
42D19858D95C185D1D195C9B90F409028333333333333E33F0000000000000F9010790141107004050150841D405064090741402480A0350
1001
ACAD
1000
AcDbSavedByObjectVersion
1070
     0
  0
ACAD_PROXY_OBJECT
  5
2B
102
{ACAD_REACTORS
330
2A
102
}
330
2A
100
AcDbProxyObject
 90
      499
 91
      501
 93
      380
310
41119B185D240901404333333333333E33F0000000000000F9010740A907004050150841D405064090741402480A1B50
1001
ACAD
1000
AcDbSavedByObjectVersion
1070
     0
  0
ACAD_PROXY_OBJECT
  5
2C
102
{ACAD_REACTORS
330
2A
102
}
330
2A
100
AcDbProxyObject
 90
      499
 91
      501
 93
      468
310
43519B185D15DA5D1A115919D95CD0140901404333333333333E33F0000000000000F90107409019070040501600405405064090741402480A1B50
1001
ACAD
1000
AcDbSavedByObjectVersion
1070
     0
  0
ACAD_PROXY_OBJECT
  5
2D
102
{ACAD_REACTORS
330
2A
102
}
330
2A
100
AcDbProxyObject
 90
      499
 91
      501
 93
      404
310
41D1DBDD5C985D5910240902404333333333333E33F0000000000000F9010740A9070040501641D405064090741402480A1B50
1001
ACAD
1000
AcDbSavedByObjectVersion
1070
     0
  0
ACAD_PROXY_OBJECT
  5
2E
102
{ACAD_REACTORS
330
2A
102
}
330
2A
100
AcDbProxyObject
 90
      499
 91
      501
 93
      492
310
4411DBDD5C985D5915DA5D1A115919D95CD0340902404333333333333E33F0000000000000F90107409019070040501600405405064090741402480A1B50
1001
ACAD
1000
AcDbSavedByObjectVersion
1070
     0
  0
ACAD_PROXY_OBJECT
  5
31
102
{ACAD_REACTORS
330
2A
102
}
330
2A
100
AcDbProxyObject
 90
      499
 91
      501
 93
      476
310
41921A5919195B90640502408333333333333E33F0000000000000F901079024090700405020000000000001110200405405064090740C02480A0340
1001
ACAD
1000
AcDbSavedByObjectVersion
1070
     0
  0
ACAD_PROXY_OBJECT
  5
3B
102
{ACAD_REACTORS
330
2A
102
}
330
2A
100
AcDbProxyObject
 90
      499
 91
      501
 93
      428
310
42529A5D1D195C93D999914409028333333333333E33F0000000000000F9010790141107004050150A41D405064090741402480A0350
1001
ACAD
1000
AcDbSavedByObjectVersion
1070
     0
  0
ACAD_PROXY_OBJECT
  5
38
102
{ACAD_REACTORS
330
2A
102
}
330
2A
100
AcDbProxyObject
 90
      499
 91
      501
 93
      444
310
42D31A5B995C185D1D195C9B90E409028333333333333E33F0000000000000F9010790141107004050750841D405064090741402483A0350
1001
ACAD
1000
AcDbSavedByObjectVersion
1070
     0
  0
ACAD_PROXY_OBJECT
  5
3C
102
{ACAD_REACTORS
330
2A
102
}
330
2A
100
AcDbProxyObject
 90
      499
 91
      501
 93
      444
310
42D3DD995C9A185B99D3D999915409028333333333333E33F0000000000000F9010790141107004050150941D405064090741402480A0350
1001
ACAD
1000
AcDbSavedByObjectVersion
1070
     0
  0
ACAD_PROXY_OBJECT
  5
33
102
{ACAD_REACTORS
330
2A
102
}
330
2A
100
AcDbProxyObject
 90
      499
 91
      501
 93
      428
310
425499585B1A5CDD1A58D08409038333333333333E33F0000000000000F9010740A907004050150800405405064090740C02480A1B40
1001
ACAD
1000
AcDbSavedByObjectVersion
1070
     0
  0
ACAD_PROXY_OBJECT
  5
42
102
{ACAD_REACTORS
330
2A
102
}
330
2A
100
AcDbProxyObject
 90
      499
 91
      501
 93
      420
310
4194DA1859195911B40902404333333333333E33F0000000000000F9010740A41107004050150800405405064090840C02480A0B40
1001
ACAD
1000
AcDbSavedByObjectVersion
1070
     0
  0
ACAD_PROXY_OBJECT
  5
41
102
{ACAD_REACTORS
330
2A
102
}
330
2A
100
AcDbProxyObject
 90
      499
 91
      501
 93
      516
310
4454DA18591959081DDA5D1A08195919D95CD1A40902404333333333333E33F0000000000000F901074090142907004050250800405405064090740C02480A0B40
1001
ACAD
1000
AcDbSavedByObjectVersion
1070
     0
  0
ACAD_PROXY_OBJECT
  5
3E
102
{ACAD_REACTORS
330
2A
102
}
330
2A
100
AcDbProxyObject
 90
      499
 91
      501
 93
      532
310
4394DA1859195CC81BD98811DC985E5174090240C333333333333E33F0000000000000F901079024090741D01000000000000111010841D405064090740C02480A0340
1001
ACAD
1000
AcDbSavedByObjectVersion
1070
     0
  0
ACAD_PROXY_OBJECT
  5
3F
102
{ACAD_REACTORS
330
2A
102
}
330
2A
100
AcDbProxyObject
 90
      499
 91
      501
 93
      476
310
41D4DAD95D18DA1E51840502408333333333333E33F0000000000000F901079024090741D01000000000000111010B41D405064090741802480A0340
1001
ACAD
1000
AcDbSavedByObjectVersion
1070
     0
  0
ACAD_PROXY_OBJECT
  5
37
102
{ACAD_REACTORS
330
2A
102
}
330
2A
100
AcDbProxyObject
 90
      499
 91
      501
 93
      412
310
41D51A1A58DAD95B90D409028333333333333E33F0000000000000F9010790141107004050150C41D405064090741402480A0350
1001
ACAD
1000
AcDbSavedByObjectVersion
1070
     0
  0
ACAD_PROXY_OBJECT
  5
30
102
{ACAD_REACTORS
330
2A
102
}
330
2A
100
AcDbProxyObject
 90
      499
 91
      501
 93
      420
310
4255DA5C99599C985B595059028333333333333E33F0000000000000F90107901411070040501600405405064090740C02480A0340
1001
ACAD
1000
AcDbSavedByObjectVersion
1070
     0
  0
ACAD_PROXY_OBJECT
  5
40
102
{ACAD_REACTORS
330
2A
102
}
330
2A
100
AcDbProxyObject
 90
      499
 91
      501
 93
      404
310
41560B54985E51940902404000000000000E03F0000000000000F9010740501907004050150841D405064090740C02480A1B40
1001
ACAD
1000
AcDbSavedByObjectVersion
1070
     0
  0
XRECORD
  5
3AF
102
{ACAD_REACTORS
330
3A5
102
}
330
3A5
100
AcDbXrecord
340
0
  0
XRECORD
  5
3AE
102
{ACAD_REACTORS
330
3A5
102
}
330
3A5
100
AcDbXrecord
 90
        0
  0
XRECORD
  5
3C5
102
{ACAD_REACTORS
330
3A5
102
}
330
3A5
100
AcDbXrecord
1000
DSTYLE
1002
{
1070
   340
340
11
1002
}
  0
XRECORD
  5
3B0
102
{ACAD_REACTORS
330
3A5
102
}
330
3A5
100
AcDbXrecord
  1
{57fe01ad-e4a5-41c7-9c44-f53b655320c0}
  0
XRECORD
  5
3A8
102
{ACAD_REACTORS
330
3A5
102
}
330
3A5
100
AcDbXrecord
  1

  0
XRECORD
  5
3AD
102
{ACAD_REACTORS
330
3A5
102
}
330
3A5
100
AcDbXrecord
 90
        4
  0
XRECORD
  5
3AA
102
{ACAD_REACTORS
330
3A5
102
}
330
3A5
100
AcDbXrecord
340
1A
  0
XRECORD
  5
3AC
102
{ACAD_REACTORS
330
3A5
102
}
330
3A5
100
AcDbXrecord
 90
    10781
  0
XRECORD
  5
3AB
102
{ACAD_REACTORS
330
3A5
102
}
330
3A5
100
AcDbXrecord
340
19
  0
XRECORD
  5
3B2
102
{ACAD_REACTORS
330
3A5
102
}
330
3A5
100
AcDbXrecord
 40
0.0
  0
XRECORD
  5
3B5
102
{ACAD_REACTORS
330
3A5
102
}
330
3A5
100
AcDbXrecord
340
0
  0
XRECORD
  5
3BB
102
{ACAD_REACTORS
330
3A5
102
}
330
3A5
100
AcDbXrecord
 10
0.0
 20
0.0
 30
0.0
  0
XRECORD
  5
3B7
102
{ACAD_REACTORS
330
3A5
102
}
330
3A5
100
AcDbXrecord
 10
0.0
 20
0.0
 30
0.0
  0
XRECORD
  5
3BA
102
{ACAD_REACTORS
330
3A5
102
}
330
3A5
100
AcDbXrecord
 10
0.0
 20
0.0
 30
0.0
  0
XRECORD
  5
3B8
102
{ACAD_REACTORS
330
3A5
102
}
330
3A5
100
AcDbXrecord
 10
0.0
 20
0.0
 30
0.0
  0
XRECORD
  5
3B9
102
{ACAD_REACTORS
330
3A5
102
}
330
3A5
100
AcDbXrecord
 10
0.0
 20
0.0
 30
0.0
  0
XRECORD
  5
3B6
102
{ACAD_REACTORS
330
3A5
102
}
330
3A5
100
AcDbXrecord
 10
0.0
 20
0.0
 30
0.0
  0
XRECORD
  5
3B3
102
{ACAD_REACTORS
330
3A5
102
}
330
3A5
100
AcDbXrecord
340
0
  0
XRECORD
  5
3B4
102
{ACAD_REACTORS
330
3A5
102
}
330
3A5
100
AcDbXrecord
 70
     0
  0
XRECORD
  5
3A9
102
{ACAD_REACTORS
330
3A5
102
}
330
3A5
100
AcDbXrecord
  1

  0
XRECORD
  5
3A6
102
{ACAD_REACTORS
330
3A5
102
}
330
3A5
100
AcDbXrecord
 90
        1
  0
XRECORD
  5
3A7
102
{ACAD_REACTORS
330
3A5
102
}
330
3A5
100
AcDbXrecord
 90
       70
  0
XRECORD
  5
3BE
102
{ACAD_REACTORS
330
3A5
102
}
330
3A5
100
AcDbXrecord
340
0
  0
XRECORD
  5
3C4
102
{ACAD_REACTORS
330
3A5
102
}
330
3A5
100
AcDbXrecord
 10
0.0
 20
0.0
 30
0.0
  0
XRECORD
  5
3C0
102
{ACAD_REACTORS
330
3A5
102
}
330
3A5
100
AcDbXrecord
 10
0.0
 20
0.0
 30
0.0
  0
XRECORD
  5
3C3
102
{ACAD_REACTORS
330
3A5
102
}
330
3A5
100
AcDbXrecord
 10
0.0
 20
0.0
 30
0.0
  0
XRECORD
  5
3C1
102
{ACAD_REACTORS
330
3A5
102
}
330
3A5
100
AcDbXrecord
 10
0.0
 20
0.0
 30
0.0
  0
XRECORD
  5
3C2
102
{ACAD_REACTORS
330
3A5
102
}
330
3A5
100
AcDbXrecord
 10
0.0
 20
0.0
 30
0.0
  0
XRECORD
  5
3BF
102
{ACAD_REACTORS
330
3A5
102
}
330
3A5
100
AcDbXrecord
 10
0.0
 20
0.0
 30
0.0
  0
XRECORD
  5
3BC
102
{ACAD_REACTORS
330
3A5
102
}
330
3A5
100
AcDbXrecord
340
0
  0
XRECORD
  5
3BD
102
{ACAD_REACTORS
330
3A5
102
}
330
3A5
100
AcDbXrecord
 70
     0
  0
XRECORD
  5
3B1
102
{ACAD_REACTORS
330
3A5
102
}
330
3A5
100
AcDbXrecord
  1
{FAEB1C32-E019-11D5-929B-00C0DF256EC4}
  0
DICTIONARYVAR
  5
3D3
102
{ACAD_REACTORS
330
3C6
102
}
330
3C6
100
DictionaryVariables
280
     0
  1
1:1
  0
DICTIONARYVAR
  5
3CD
102
{ACAD_REACTORS
330
3C6
102
}
330
3C6
100
DictionaryVariables
280
     0
  1
3.500000
  0
DICTIONARYVAR
  5
3CE
102
{ACAD_REACTORS
330
3C6
102
}
330
3C6
100
DictionaryVariables
280
     0
  1
acadiso.lin
  0
DICTIONARYVAR
  5
3C8
102
{ACAD_REACTORS
330
3C6
102
}
330
3C6
100
DictionaryVariables
280
     0
  1
Standard
  0
DICTIONARYVAR
  5
3C7
102
{ACAD_REACTORS
330
3C6
102
}
330
3C6
100
DictionaryVariables
280
     0
  1
Standard
  0
DICTIONARYVAR
  5
3CF
102
{ACAD_REACTORS
330
3C6
102
}
330
3C6
100
DictionaryVariables
280
     0
  1
2
  0
DICTIONARYVAR
  5
3D0
102
{ACAD_REACTORS
330
3C6
102
}
330
3C6
100
DictionaryVariables
280
     0
  1
1
  0
DICTIONARYVAR
  5
3D4
102
{ACAD_REACTORS
330
3C6
102
}
330
3C6
100
DictionaryVariables
280
     0
  1
1
  0
DICTIONARYVAR
  5
3CA
102
{ACAD_REACTORS
330
3C6
102
}
330
3C6
100
DictionaryVariables
280
     0
  1
80.000000
  0
DICTIONARYVAR
  5
3C9
102
{ACAD_REACTORS
330
3C6
102
}
330
3C6
100
DictionaryVariables
280
     0
  1
5.000000
  0
DICTIONARY
  5
3D7
330
45
100
AcDbDictionary
280
     1
  3
ACAD_XREC_ROUNDTRIP
360
3D8
  0
DICTIONARY
  5
3D5
330
44
100
AcDbDictionary
280
     1
  3
ACAD_XREC_ROUNDTRIP
360
3D6
  0
DICTIONARY
  5
3D9
330
46
100
AcDbDictionary
280
     1
  3
ACAD_XREC_ROUNDTRIP
360
3DA
  0
XRECORD
  5
3D8
102
{ACAD_REACTORS
330
3D7
102
}
330
3D7
100
AcDbXrecord
102
MATERIAL
148
0.0
149
0.0
149
0.0
 93
        0
 94
      127
282
     0
 72
     1
 77
     1
171
     1
175
     1
179
     1
273
     0
  0
XRECORD
  5
3D6
102
{ACAD_REACTORS
330
3D5
102
}
330
3D5
100
AcDbXrecord
102
MATERIAL
148
0.0
149
0.0
149
0.0
 93
        0
 94
      127
282
     0
 72
     1
 77
     1
171
     1
175
     1
179
     1
273
     0
  0
XRECORD
  5
3DA
102
{ACAD_REACTORS
330
3D9
102
}
330
3D9
100
AcDbXrecord
102
MATERIAL
148
0.0
149
0.0
149
0.0
 93
        0
 94
      127
282
     0
 72
     1
 77
     1
171
     1
175
     1
179
     1
273
     0
  0
ENDSEC
  0
EOF
