  0
SECTION
  2
HEADER
  9
$ACADVER
  1
AC1014
  9
$ACADMAINTVER
 70
     9
  9
$DWGCODEPAGE
  3
ANSI_932
  9
$INSBASE
 10
0.0
 20
0.0
 30
0.0
  9
$EXTMIN
 10
50.0
 20
50.0
 30
0.0
  9
$EXTMAX
 10
2050.0
 20
1435.0
 30
0.0
  9
$LIMMIN
 10
0.0
 20
0.0
  9
$LIMMAX
 10
420.0
 20
297.0
  9
$ORTHOMODE
 70
     0
  9
$REGENMODE
 70
     1
  9
$FILLMODE
 70
     1
  9
$QTEXTMODE
 70
     0
  9
$MIRRTEXT
 70
     1
  9
$DRAGMODE
 70
     2
  9
$LTSCALE
 40
1.0
  9
$OSMODE
 70
    37
  9
$ATTMODE
 70
     1
  9
$TEXTSIZE
 40
2.5
  9
$TRACEWID
 40
1.0
  9
$TEXTSTYLE
  7
STANDARD
  9
$CLAYER
  8
Ｓ_１_１
  9
$CELTYPE
  6
BYLAYER
  9
$CECOLOR
 62
   256
  9
$CELTSCALE
 40
1.0
  9
$DELOBJ
 70
     1
  9
$DISPSILH
 70
     0
  9
$DIMSCALE
 40
1.0
  9
$DIMASZ
 40
2.5
  9
$DIMEXO
 40
0.625
  9
$DIMDLI
 40
3.75
  9
$DIMRND
 40
0.0
  9
$DIMDLE
 40
0.0
  9
$DIMEXE
 40
1.25
  9
$DIMTP
 40
0.0
  9
$DIMTM
 40
0.0
  9
$DIMTXT
 40
2.5
  9
$DIMCEN
 40
2.5
  9
$DIMTSZ
 40
0.0
  9
$DIMTOL
 70
     0
  9
$DIMLIM
 70
     0
  9
$DIMTIH
 70
     0
  9
$DIMTOH
 70
     0
  9
$DIMSE1
 70
     0
  9
$DIMSE2
 70
     0
  9
$DIMTAD
 70
     1
  9
$DIMZIN
 70
     8
  9
$DIMBLK
  1

  9
$DIMASO
 70
     1
  9
$DIMSHO
 70
     1
  9
$DIMPOST
  1

  9
$DIMAPOST
  1

  9
$DIMALT
 70
     0
  9
$DIMALTD
 70
     3
  9
$DIMALTF
 40
0.03937007874016
  9
$DIMLFAC
 40
1.0
  9
$DIMTOFL
 70
     1
  9
$DIMTVP
 40
0.0
  9
$DIMTIX
 70
     0
  9
$DIMSOXD
 70
     0
  9
$DIMSAH
 70
     0
  9
$DIMBLK1
  1

  9
$DIMBLK2
  1

  9
$DIMSTYLE
  2
ISO-25
  9
$DIMCLRD
 70
     0
  9
$DIMCLRE
 70
     0
  9
$DIMCLRT
 70
     0
  9
$DIMTFAC
 40
1.0
  9
$DIMGAP
 40
0.625
  9
$DIMJUST
 70
     0
  9
$DIMSD1
 70
     0
  9
$DIMSD2
 70
     0
  9
$DIMTOLJ
 70
     0
  9
$DIMTZIN
 70
     8
  9
$DIMALTZ
 70
     0
  9
$DIMALTTZ
 70
     0
  9
$DIMFIT
 70
     3
  9
$DIMUPT
 70
     0
  9
$DIMUNIT
 70
     2
  9
$DIMDEC
 70
     2
  9
$DIMTDEC
 70
     2
  9
$DIMALTU
 70
     2
  9
$DIMALTTD
 70
     3
  9
$DIMTXSTY
  7
STANDARD
  9
$DIMAUNIT
 70
     0
  9
$LUNITS
 70
     2
  9
$LUPREC
 70
     4
  9
$SKETCHINC
 40
1.0
  9
$FILLETRAD
 40
10.0
  9
$AUNITS
 70
     0
  9
$AUPREC
 70
     0
  9
$MENU
  1
.
  9
$ELEVATION
 40
0.0
  9
$PELEVATION
 40
0.0
  9
$THICKNESS
 40
0.0
  9
$LIMCHECK
 70
     0
  9
$CHAMFERA
 40
0.0
  9
$CHAMFERB
 40
0.0
  9
$CHAMFERC
 40
0.0
  9
$CHAMFERD
 40
0.0
  9
$SKPOLY
 70
     0
  9
$TDCREATE
 40
2459585.497043947
  9
$TDUPDATE
 40
2459585.497045104
  9
$TDINDWG
 40
0.0000000116
  9
$TDUSRTIMER
 40
0.0000000116
  9
$USRTIMER
 70
     1
  9
$ANGBASE
 50
0.0
  9
$ANGDIR
 70
     0
  9
$PDMODE
 70
     0
  9
$PDSIZE
 40
0.0
  9
$PLINEWID
 40
0.0
  9
$COORDS
 70
     1
  9
$SPLFRAME
 70
     0
  9
$SPLINETYPE
 70
     6
  9
$SPLINESEGS
 70
     8
  9
$ATTDIA
 70
     0
  9
$ATTREQ
 70
     1
  9
$HANDLING
 70
     1
  9
$HANDSEED
  5
4A6
  9
$SURFTAB1
 70
     6
  9
$SURFTAB2
 70
     6
  9
$SURFTYPE
 70
     6
  9
$SURFU
 70
     6
  9
$SURFV
 70
     6
  9
$UCSNAME
  2

  9
$UCSORG
 10
0.0
 20
0.0
 30
0.0
  9
$UCSXDIR
 10
1.0
 20
0.0
 30
0.0
  9
$UCSYDIR
 10
0.0
 20
1.0
 30
0.0
  9
$PUCSNAME
  2

  9
$PUCSORG
 10
0.0
 20
0.0
 30
0.0
  9
$PUCSXDIR
 10
1.0
 20
0.0
 30
0.0
  9
$PUCSYDIR
 10
0.0
 20
1.0
 30
0.0
  9
$USERI1
 70
     0
  9
$USERI2
 70
     0
  9
$USERI3
 70
     0
  9
$USERI4
 70
     0
  9
$USERI5
 70
     0
  9
$USERR1
 40
0.0
  9
$USERR2
 40
0.0
  9
$USERR3
 40
0.0
  9
$USERR4
 40
0.0
  9
$USERR5
 40
0.0
  9
$WORLDVIEW
 70
     1
  9
$SHADEDGE
 70
     3
  9
$SHADEDIF
 70
    70
  9
$TILEMODE
 70
     1
  9
$MAXACTVP
 70
    64
  9
$PINSBASE
 10
0.0
 20
0.0
 30
0.0
  9
$PLIMCHECK
 70
     0
  9
$PEXTMIN
 10
1.000000000000000E+20
 20
1.000000000000000E+20
 30
1.000000000000000E+20
  9
$PEXTMAX
 10
-1.000000000000000E+20
 20
-1.000000000000000E+20
 30
-1.000000000000000E+20
  9
$PLIMMIN
 10
0.0
 20
0.0
  9
$PLIMMAX
 10
420.0
 20
297.0
  9
$UNITMODE
 70
     0
  9
$VISRETAIN
 70
     1
  9
$PLINEGEN
 70
     0
  9
$PSLTSCALE
 70
     1
  9
$TREEDEPTH
 70
  3020
  9
$PICKSTYLE
 70
     1
  9
$CMLSTYLE
  2
STANDARD
  9
$CMLJUST
 70
     0
  9
$CMLSCALE
 40
20.0
  9
$PROXYGRAPHICS
 70
     1
  9
$MEASUREMENT
 70
     1
  0
ENDSEC
  0
SECTION
  2
CLASSES
  0
CLASS
  1
ACDBDICTIONARYWDFLT
  2
AcDbDictionaryWithDefault
  3
ObjectDBX Classes
 90
        0
280
     0
281
     0
  0
CLASS
  1
VISUALSTYLE
  2
AcDbVisualStyle
  3
ObjectDBX Classes
 90
     4095
280
     0
281
     0
  0
CLASS
  1
MATERIAL
  2
AcDbMaterial
  3
ObjectDBX Classes
 90
     1153
280
     0
281
     0
  0
CLASS
  1
SCALE
  2
AcDbScale
  3
ObjectDBX Classes
 90
     1153
280
     0
281
     0
  0
CLASS
  1
TABLESTYLE
  2
AcDbTableStyle
  3
ObjectDBX Classes
 90
     4095
280
     0
281
     0
  0
CLASS
  1
MLEADERSTYLE
  2
AcDbMLeaderStyle
  3
ACDB_MLEADERSTYLE_CLASS
 90
     4095
280
     0
281
     0
  0
CLASS
  1
SUN
  2
AcDbSun
  3
SCENEOE
 90
     1153
280
     0
281
     0
  0
CLASS
  1
DICTIONARYVAR
  2
AcDbDictionaryVar
  3
ObjectDBX Classes
 90
        0
280
     0
281
     0
  0
CLASS
  1
XRECORD
  2
AcDbXrecord
  3
ObjectDBX Classes
 90
        0
280
     0
281
     0
  0
CLASS
  1
LWPOLYLINE
  2
AcDbPolyline
  3
ObjectDBX Classes
 90
        0
280
     0
281
     1
  0
CLASS
  1
HATCH
  2
AcDbHatch
  3
ObjectDBX Classes
 90
        0
280
     0
281
     1
  0
CLASS
  1
ACDBPLACEHOLDER
  2
AcDbPlaceHolder
  3
ObjectDBX Classes
 90
        0
280
     0
281
     0
  0
CLASS
  1
LAYOUT
  2
AcDbLayout
  3
ObjectDBX Classes
 90
        0
280
     0
281
     0
  0
ENDSEC
  0
SECTION
  2
TABLES
  0
TABLE
  2
VPORT
  5
8
102
{ACAD_XDICTIONARY
360
49B
102
}
330
0
100
AcDbSymbolTable
 70
     1
  0
VPORT
  5
29
330
8
100
AcDbSymbolTableRecord
100
AcDbViewportTableRecord
  2
*ACTIVE
 70
     0
 10
0.0
 20
0.0
 11
1.0
 21
1.0
 12
1050.0
 22
742.5
 13
0.0
 23
0.0
 14
10.0
 24
10.0
 15
10.0
 25
10.0
 16
0.0
 26
0.0
 36
1.0
 17
0.0
 27
0.0
 37
0.0
 40
1385.0
 41
1.444043321299639
 42
50.0
 43
0.0
 44
0.0
 50
0.0
 51
0.0
 71
     0
 72
  1000
 73
     1
 74
     3
 75
     0
 76
     0
 77
     0
 78
     0
  0
ENDTAB
  0
TABLE
  2
LTYPE
  5
5
330
0
100
AcDbSymbolTable
 70
     8
  0
LTYPE
  5
14
330
5
100
AcDbSymbolTableRecord
100
AcDbLinetypeTableRecord
  2
BYBLOCK
 70
     0
  3

 72
    65
 73
     0
 40
0.0
  0
LTYPE
  5
15
330
5
100
AcDbSymbolTableRecord
100
AcDbLinetypeTableRecord
  2
BYLAYER
 70
     0
  3

 72
    65
 73
     0
 40
0.0
  0
LTYPE
  5
16
330
5
100
AcDbSymbolTableRecord
100
AcDbLinetypeTableRecord
  2
CONTINUOUS
 70
     0
  3
Solid line
 72
    65
 73
     0
 40
0.0
  0
LTYPE
  5
6E
330
5
100
AcDbSymbolTableRecord
100
AcDbLinetypeTableRecord
  2
EXLTYPE0
 70
     0
  3
破線
 72
    65
 73
     2
 40
4.0
 49
3.0
 74
     0
 49
-1.0
 74
     0
  0
LTYPE
  5
6F
330
5
100
AcDbSymbolTableRecord
100
AcDbLinetypeTableRecord
  2
EXLTYPE1
 70
     0
  3
点線
 72
    65
 73
     2
 40
2.0
 49
1.0
 74
     0
 49
-1.0
 74
     0
  0
LTYPE
  5
70
330
5
100
AcDbSymbolTableRecord
100
AcDbLinetypeTableRecord
  2
EXLTYPE2
 70
     0
  3
一点鎖線
 72
    65
 73
     4
 40
13.0
 49
10.0
 74
     0
 49
-1.0
 74
     0
 49
1.0
 74
     0
 49
-1.0
 74
     0
  0
LTYPE
  5
71
330
5
100
AcDbSymbolTableRecord
100
AcDbLinetypeTableRecord
  2
EXLTYPE3
 70
     0
  3
二点鎖線
 72
    65
 73
     6
 40
15.0
 49
10.0
 74
     0
 49
-1.0
 74
     0
 49
1.0
 74
     0
 49
-1.0
 74
     0
 49
1.0
 74
     0
 49
-1.0
 74
     0
  0
LTYPE
  5
72
330
5
100
AcDbSymbolTableRecord
100
AcDbLinetypeTableRecord
  2
EXLTYPE4
 70
     0
  3
一点鎖線2
 72
    65
 73
     4
 40
3.5
 49
2.0
 74
     0
 49
-0.5
 74
     0
 49
0.5
 74
     0
 49
-0.5
 74
     0
  0
LTYPE
  5
73
330
5
100
AcDbSymbolTableRecord
100
AcDbLinetypeTableRecord
  2
EXLTYPE5
 70
     0
  3
二点鎖線2
 72
    65
 73
     6
 40
4.5
 49
2.0
 74
     0
 49
-0.5
 74
     0
 49
0.5
 74
     0
 49
-0.5
 74
     0
 49
0.5
 74
     0
 49
-0.5
 74
     0
  0
LTYPE
  5
74
330
5
100
AcDbSymbolTableRecord
100
AcDbLinetypeTableRecord
  2
EXLTYPE6
 70
     0
  3
一点鎖線4
 72
    65
 73
     4
 40
13.0
 49
10.0
 74
     0
 49
-1.0
 74
     0
 49
1.0
 74
     0
 49
-1.0
 74
     0
  0
ENDTAB
  0
TABLE
  2
LAYER
  5
2
330
0
100
AcDbSymbolTable
 70
     4
  0
LAYER
  5
10
330
2
100
AcDbSymbolTableRecord
100
AcDbLayerTableRecord
  2
0
 70
     0
 62
     7
  6
CONTINUOUS
  0
LAYER
  5
77
330
2
100
AcDbSymbolTableRecord
100
AcDbLayerTableRecord
  2
図面枠
 70
     4
 62
     7
  6
CONTINUOUS
  0
LAYER
  5
78
330
2
100
AcDbSymbolTableRecord
100
AcDbLayerTableRecord
  2
Ｓ_１_１
 70
     0
 62
     7
  6
CONTINUOUS
  0
LAYER
  5
139
330
2
100
AcDbSymbolTableRecord
100
AcDbLayerTableRecord
  2
DEFPOINTS
 70
     0
 62
     7
  6
CONTINUOUS
  0
ENDTAB
  0
TABLE
  2
STYLE
  5
3
330
0
100
AcDbSymbolTable
 70
     5
  0
STYLE
  5
11
330
3
100
AcDbSymbolTableRecord
100
AcDbTextStyleTableRecord
  2
STANDARD
 70
     0
 40
0.0
 41
1.0
 50
0.0
 71
     0
 42
2.5
  3
monotxt
  4
extfont
  0
STYLE
  5
75
330
3
100
AcDbSymbolTableRecord
100
AcDbTextStyleTableRecord
  2
EXCADSTD
 70
     0
 40
0.0
 41
1.0
 50
0.0
 71
     0
 42
2.5
  3
monotxt
  4
extfont
  0
STYLE
  5
76
330
3
100
AcDbSymbolTableRecord
100
AcDbTextStyleTableRecord
  2
EXCADVERT
 70
     4
 40
0.0
 41
1.0
 50
0.0
 71
     0
 42
2.5
  3
monotxt
  4
extfont
  0
STYLE
  5
DD
330
3
100
AcDbSymbolTableRecord
100
AcDbTextStyleTableRecord
  2
EXCADTTF1
 70
     0
 40
0.0
 41
1.0
 50
0.0
 71
     0
 42
2.5
  3
msgothic.ttc
  4

1001
ACAD
1000
MS Gothic
1071
    32817
  0
STYLE
  5
137
330
3
100
AcDbSymbolTableRecord
100
AcDbTextStyleTableRecord
  2
EXCADDIM1
 70
     0
 40
0.0
 41
1.0
 50
0.0
 71
     0
 42
2.5
  3
msgothic.ttc
  4

1001
ACAD
1000
MS Gothic
1071
    32817
  0
ENDTAB
  0
TABLE
  2
VIEW
  5
6
330
0
100
AcDbSymbolTable
 70
     0
  0
ENDTAB
  0
TABLE
  2
UCS
  5
7
330
0
100
AcDbSymbolTable
 70
     0
  0
ENDTAB
  0
TABLE
  2
APPID
  5
9
330
0
100
AcDbSymbolTable
 70
     2
  0
APPID
  5
12
330
9
100
AcDbSymbolTableRecord
100
AcDbRegAppTableRecord
  2
ACAD
 70
     0
  0
APPID
  5
4A5
330
9
100
AcDbSymbolTableRecord
100
AcDbRegAppTableRecord
  2
ACAD_MLEADERVER
 70
     0
  0
ENDTAB
  0
TABLE
  2
DIMSTYLE
  5
A
330
0
100
AcDbSymbolTable
 70
     1
  0
DIMSTYLE
105
27
102
{ACAD_REACTORS
330
138
330
145
330
150
330
15E
330
16A
330
176
330
183
330
190
330
19C
330
1A9
330
1B6
330
1C1
330
1CD
330
27F
330
28B
330
298
330
2AF
330
2BC
330
2C9
330
32D
330
348
330
353
330
35F
330
36B
330
385
330
391
330
440
330
44D
330
45A
102
}
330
A
100
AcDbSymbolTableRecord
100
AcDbDimStyleTableRecord
  2
ISO-25
 70
     0
  3

  4

  5

  6

  7

 40
1.0
 41
2.5
 42
0.625
 43
3.75
 44
1.25
 45
0.0
 46
0.0
 47
0.0
 48
0.0
140
2.5
141
2.5
142
0.0
143
0.03937007874016
144
1.0
145
0.0
146
1.0
147
0.625
 71
     0
 72
     0
 73
     0
 74
     0
 75
     0
 76
     0
 77
     1
 78
     8
170
     0
171
     3
172
     1
173
     0
174
     0
175
     0
176
     0
177
     0
178
     0
270
     2
271
     2
272
     2
273
     2
274
     3
340
11
275
     0
280
     0
281
     0
282
     0
283
     0
284
     8
285
     0
286
     0
287
     5
288
     0
  0
ENDTAB
  0
TABLE
  2
BLOCK_RECORD
  5
1
330
0
100
AcDbSymbolTable
 70
    43
  0
BLOCK_RECORD
  5
1F
330
1
100
AcDbSymbolTableRecord
100
AcDbBlockTableRecord
  2
*MODEL_SPACE
  0
BLOCK_RECORD
  5
1B
330
1
100
AcDbSymbolTableRecord
100
AcDbBlockTableRecord
  2
*PAPER_SPACE
  0
BLOCK_RECORD
  5
79
330
1
100
AcDbSymbolTableRecord
100
AcDbBlockTableRecord
  2
EX_NORM
  0
BLOCK_RECORD
  5
7C
330
1
100
AcDbSymbolTableRecord
100
AcDbBlockTableRecord
  2
EX_BNORM
  0
BLOCK_RECORD
  5
7F
330
1
100
AcDbSymbolTableRecord
100
AcDbBlockTableRecord
  2
EX_BCIR
  0
BLOCK_RECORD
  5
82
330
1
100
AcDbSymbolTableRecord
100
AcDbBlockTableRecord
  2
EX_RCIVIL
  0
BLOCK_RECORD
  5
85
330
1
100
AcDbSymbolTableRecord
100
AcDbBlockTableRecord
  2
EX_SLANT
  0
BLOCK_RECORD
  5
88
330
1
100
AcDbSymbolTableRecord
100
AcDbBlockTableRecord
  2
EX_NONE
  0
BLOCK_RECORD
  5
8B
330
1
100
AcDbSymbolTableRecord
100
AcDbBlockTableRecord
  2
EX_CIVIL
  0
BLOCK_RECORD
  5
8E
330
1
100
AcDbSymbolTableRecord
100
AcDbBlockTableRecord
  2
EX_WCIR
  0
BLOCK_RECORD
  5
91
330
1
100
AcDbSymbolTableRecord
100
AcDbBlockTableRecord
  2
EX_WCIR2
  0
BLOCK_RECORD
  5
94
330
1
100
AcDbSymbolTableRecord
100
AcDbBlockTableRecord
  2
EX_WNORM
  0
BLOCK_RECORD
  5
97
330
1
100
AcDbSymbolTableRecord
100
AcDbBlockTableRecord
  2
EX_NNORM
  0
BLOCK_RECORD
  5
9A
330
1
100
AcDbSymbolTableRecord
100
AcDbBlockTableRecord
  2
EX_BBOX
  0
BLOCK_RECORD
  5
9D
330
1
100
AcDbSymbolTableRecord
100
AcDbBlockTableRecord
  2
EX_WBOX
  0
BLOCK_RECORD
  5
A0
330
1
100
AcDbSymbolTableRecord
100
AcDbBlockTableRecord
  2
EX_INTEGRAL
  0
BLOCK_RECORD
  5
13A
330
1
100
AcDbSymbolTableRecord
100
AcDbBlockTableRecord
  2
*D15
  0
BLOCK_RECORD
  5
146
330
1
100
AcDbSymbolTableRecord
100
AcDbBlockTableRecord
  2
*D16
  0
BLOCK_RECORD
  5
151
330
1
100
AcDbSymbolTableRecord
100
AcDbBlockTableRecord
  2
*D17
  0
BLOCK_RECORD
  5
15F
330
1
100
AcDbSymbolTableRecord
100
AcDbBlockTableRecord
  2
*D18
  0
BLOCK_RECORD
  5
16B
330
1
100
AcDbSymbolTableRecord
100
AcDbBlockTableRecord
  2
*D19
  0
BLOCK_RECORD
  5
177
330
1
100
AcDbSymbolTableRecord
100
AcDbBlockTableRecord
  2
*D20
  0
BLOCK_RECORD
  5
184
330
1
100
AcDbSymbolTableRecord
100
AcDbBlockTableRecord
  2
*D21
  0
BLOCK_RECORD
  5
191
330
1
100
AcDbSymbolTableRecord
100
AcDbBlockTableRecord
  2
*D22
  0
BLOCK_RECORD
  5
19D
330
1
100
AcDbSymbolTableRecord
100
AcDbBlockTableRecord
  2
*D23
  0
BLOCK_RECORD
  5
1AA
330
1
100
AcDbSymbolTableRecord
100
AcDbBlockTableRecord
  2
*D24
  0
BLOCK_RECORD
  5
1B7
330
1
100
AcDbSymbolTableRecord
100
AcDbBlockTableRecord
  2
*D25
  0
BLOCK_RECORD
  5
1C2
330
1
100
AcDbSymbolTableRecord
100
AcDbBlockTableRecord
  2
*D26
  0
BLOCK_RECORD
  5
1CE
330
1
100
AcDbSymbolTableRecord
100
AcDbBlockTableRecord
  2
*D27
  0
BLOCK_RECORD
  5
280
330
1
100
AcDbSymbolTableRecord
100
AcDbBlockTableRecord
  2
*D28
  0
BLOCK_RECORD
  5
28C
330
1
100
AcDbSymbolTableRecord
100
AcDbBlockTableRecord
  2
*D29
  0
BLOCK_RECORD
  5
299
330
1
100
AcDbSymbolTableRecord
100
AcDbBlockTableRecord
  2
*D30
  0
BLOCK_RECORD
  5
2B0
330
1
100
AcDbSymbolTableRecord
100
AcDbBlockTableRecord
  2
*D31
  0
BLOCK_RECORD
  5
2BD
330
1
100
AcDbSymbolTableRecord
100
AcDbBlockTableRecord
  2
*D32
  0
BLOCK_RECORD
  5
2CA
330
1
100
AcDbSymbolTableRecord
100
AcDbBlockTableRecord
  2
*D33
  0
BLOCK_RECORD
  5
32E
330
1
100
AcDbSymbolTableRecord
100
AcDbBlockTableRecord
  2
*D34
  0
BLOCK_RECORD
  5
349
330
1
100
AcDbSymbolTableRecord
100
AcDbBlockTableRecord
  2
*D35
  0
BLOCK_RECORD
  5
354
330
1
100
AcDbSymbolTableRecord
100
AcDbBlockTableRecord
  2
*D36
  0
BLOCK_RECORD
  5
360
330
1
100
AcDbSymbolTableRecord
100
AcDbBlockTableRecord
  2
*D37
  0
BLOCK_RECORD
  5
36C
330
1
100
AcDbSymbolTableRecord
100
AcDbBlockTableRecord
  2
*D38
  0
BLOCK_RECORD
  5
386
330
1
100
AcDbSymbolTableRecord
100
AcDbBlockTableRecord
  2
*D39
  0
BLOCK_RECORD
  5
392
330
1
100
AcDbSymbolTableRecord
100
AcDbBlockTableRecord
  2
*D40
  0
BLOCK_RECORD
  5
441
330
1
100
AcDbSymbolTableRecord
100
AcDbBlockTableRecord
  2
*D41
  0
BLOCK_RECORD
  5
44E
330
1
100
AcDbSymbolTableRecord
100
AcDbBlockTableRecord
  2
*D42
  0
BLOCK_RECORD
  5
45B
330
1
100
AcDbSymbolTableRecord
100
AcDbBlockTableRecord
  2
*D43
  0
ENDTAB
  0
ENDSEC
  0
SECTION
  2
BLOCKS
  0
BLOCK
  5
20
330
1F
100
AcDbEntity
  8
0
100
AcDbBlockBegin
  2
*MODEL_SPACE
 70
     0
 10
0.0
 20
0.0
 30
0.0
  3
*MODEL_SPACE
  1

  0
ENDBLK
  5
21
330
1F
100
AcDbEntity
  8
0
100
AcDbBlockEnd
  0
BLOCK
  5
1C
330
1B
100
AcDbEntity
 67
     1
  8
0
100
AcDbBlockBegin
  2
*PAPER_SPACE
 70
     0
 10
0.0
 20
0.0
 30
0.0
  3
*PAPER_SPACE
  1

  0
ENDBLK
  5
1D
330
1B
100
AcDbEntity
 67
     1
  8
0
100
AcDbBlockEnd
  0
BLOCK
  5
7A
330
79
100
AcDbEntity
  8
0
100
AcDbBlockBegin
  2
EX_NORM
 70
     0
 10
0.0
 20
0.0
 30
0.0
  3
EX_NORM
  1

  0
LINE
  5
A3
330
79
100
AcDbEntity
  8
0
  6
CONTINUOUS
 62
     0
100
AcDbLine
 10
0.0
 20
0.0
 30
0.0
 11
-1.0
 21
0.0
 31
0.0
  0
LINE
  5
A4
330
79
100
AcDbEntity
  8
0
  6
CONTINUOUS
 62
     0
100
AcDbLine
 10
0.0
 20
0.0
 30
0.0
 11
-1.0
 21
0.166666667
 31
0.0
  0
LINE
  5
A5
330
79
100
AcDbEntity
  8
0
  6
CONTINUOUS
 62
     0
100
AcDbLine
 10
0.0
 20
0.0
 30
0.0
 11
-1.0
 21
-0.166666667
 31
0.0
  0
ENDBLK
  5
7B
330
79
100
AcDbEntity
  8
0
100
AcDbBlockEnd
  0
BLOCK
  5
7D
330
7C
100
AcDbEntity
  8
0
100
AcDbBlockBegin
  2
EX_BNORM
 70
     0
 10
0.0
 20
0.0
 30
0.0
  3
EX_BNORM
  1

  0
LINE
  5
A6
330
7C
100
AcDbEntity
  8
0
  6
CONTINUOUS
 62
     0
100
AcDbLine
 10
0.0
 20
0.0
 30
0.0
 11
-1.0
 21
0.0
 31
0.0
  0
LINE
  5
A7
330
7C
100
AcDbEntity
  8
0
  6
CONTINUOUS
 62
     0
100
AcDbLine
 10
0.0
 20
0.0
 30
0.0
 11
-1.0
 21
0.166666667
 31
0.0
  0
LINE
  5
A8
330
7C
100
AcDbEntity
  8
0
  6
CONTINUOUS
 62
     0
100
AcDbLine
 10
0.0
 20
0.0
 30
0.0
 11
-1.0
 21
-0.166666667
 31
0.0
  0
LINE
  5
A9
330
7C
100
AcDbEntity
  8
0
  6
CONTINUOUS
 62
     0
100
AcDbLine
 10
0.0
 20
0.0
 30
0.0
 11
-1.0
 21
0.083333333
 31
0.0
  0
LINE
  5
AA
330
7C
100
AcDbEntity
  8
0
  6
CONTINUOUS
 62
     0
100
AcDbLine
 10
0.0
 20
0.0
 30
0.0
 11
-1.0
 21
-0.083333333
 31
0.0
  0
LINE
  5
AB
330
7C
100
AcDbEntity
  8
0
  6
CONTINUOUS
 62
     0
100
AcDbLine
 10
-1.0
 20
0.166666667
 30
0.0
 11
-1.0
 21
-0.166666667
 31
0.0
  0
ENDBLK
  5
7E
330
7C
100
AcDbEntity
  8
0
100
AcDbBlockEnd
  0
BLOCK
  5
80
330
7F
100
AcDbEntity
  8
0
100
AcDbBlockBegin
  2
EX_BCIR
 70
     0
 10
0.0
 20
0.0
 30
0.0
  3
EX_BCIR
  1

  0
LINE
  5
AC
330
7F
100
AcDbEntity
  8
0
  6
CONTINUOUS
 62
     0
100
AcDbLine
 10
0.0
 20
0.0
 30
0.0
 11
-1.0
 21
0.0
 31
0.0
  0
CIRCLE
  5
AD
330
7F
100
AcDbEntity
  8
0
  6
CONTINUOUS
 62
     0
100
AcDbCircle
 10
0.0
 20
0.0
 30
0.0
 40
0.5
  0
CIRCLE
  5
AE
330
7F
100
AcDbEntity
  8
0
  6
CONTINUOUS
 62
     0
100
AcDbCircle
 10
0.0
 20
0.0
 30
0.0
 40
0.25
  0
ENDBLK
  5
81
330
7F
100
AcDbEntity
  8
0
100
AcDbBlockEnd
  0
BLOCK
  5
83
330
82
100
AcDbEntity
  8
0
100
AcDbBlockBegin
  2
EX_RCIVIL
 70
     0
 10
0.0
 20
0.0
 30
0.0
  3
EX_RCIVIL
  1

  0
LINE
  5
AF
330
82
100
AcDbEntity
  8
0
  6
CONTINUOUS
 62
     0
100
AcDbLine
 10
0.0
 20
0.0
 30
0.0
 11
-1.0
 21
0.0
 31
0.0
  0
LINE
  5
B0
330
82
100
AcDbEntity
  8
0
  6
CONTINUOUS
 62
     0
100
AcDbLine
 10
-1.0
 20
-0.25
 30
0.0
 11
0.0
 21
-0.25
 31
0.0
  0
LINE
  5
B1
330
82
100
AcDbEntity
  8
0
  6
CONTINUOUS
 62
     0
100
AcDbLine
 10
-1.0
 20
-0.125
 30
0.0
 11
0.0
 21
-0.125
 31
0.0
  0
ENDBLK
  5
84
330
82
100
AcDbEntity
  8
0
100
AcDbBlockEnd
  0
BLOCK
  5
86
330
85
100
AcDbEntity
  8
0
100
AcDbBlockBegin
  2
EX_SLANT
 70
     0
 10
0.0
 20
0.0
 30
0.0
  3
EX_SLANT
  1

  0
LINE
  5
B2
330
85
100
AcDbEntity
  8
0
  6
CONTINUOUS
 62
     0
100
AcDbLine
 10
0.0
 20
0.0
 30
0.0
 11
-1.0
 21
0.0
 31
0.0
  0
LINE
  5
B3
330
85
100
AcDbEntity
  8
0
  6
CONTINUOUS
 62
     0
100
AcDbLine
 10
0.707106781
 20
0.707106781
 30
0.0
 11
-0.707106781
 21
-0.707106781
 31
0.0
  0
ENDBLK
  5
87
330
85
100
AcDbEntity
  8
0
100
AcDbBlockEnd
  0
BLOCK
  5
89
330
88
100
AcDbEntity
  8
0
100
AcDbBlockBegin
  2
EX_NONE
 70
     0
 10
0.0
 20
0.0
 30
0.0
  3
EX_NONE
  1

  0
LINE
  5
B4
330
88
100
AcDbEntity
  8
0
  6
CONTINUOUS
 62
     0
100
AcDbLine
 10
0.0
 20
0.0
 30
0.0
 11
-1.0
 21
0.0
 31
0.0
  0
ENDBLK
  5
8A
330
88
100
AcDbEntity
  8
0
100
AcDbBlockEnd
  0
BLOCK
  5
8C
330
8B
100
AcDbEntity
  8
0
100
AcDbBlockBegin
  2
EX_CIVIL
 70
     0
 10
0.0
 20
0.0
 30
0.0
  3
EX_CIVIL
  1

  0
LINE
  5
B5
330
8B
100
AcDbEntity
  8
0
  6
CONTINUOUS
 62
     0
100
AcDbLine
 10
0.0
 20
0.0
 30
0.0
 11
-1.0
 21
0.0
 31
0.0
  0
LINE
  5
B6
330
8B
100
AcDbEntity
  8
0
  6
CONTINUOUS
 62
     0
100
AcDbLine
 10
-1.0
 20
0.25
 30
0.0
 11
0.0
 21
0.25
 31
0.0
  0
LINE
  5
B7
330
8B
100
AcDbEntity
  8
0
  6
CONTINUOUS
 62
     0
100
AcDbLine
 10
-1.0
 20
0.125
 30
0.0
 11
0.0
 21
0.125
 31
0.0
  0
ENDBLK
  5
8D
330
8B
100
AcDbEntity
  8
0
100
AcDbBlockEnd
  0
BLOCK
  5
8F
330
8E
100
AcDbEntity
  8
0
100
AcDbBlockBegin
  2
EX_WCIR
 70
     0
 10
0.0
 20
0.0
 30
0.0
  3
EX_WCIR
  1

  0
LINE
  5
B8
330
8E
100
AcDbEntity
  8
0
  6
CONTINUOUS
 62
     0
100
AcDbLine
 10
0.0
 20
0.0
 30
0.0
 11
-1.0
 21
0.0
 31
0.0
  0
CIRCLE
  5
B9
330
8E
100
AcDbEntity
  8
0
  6
CONTINUOUS
 62
     0
100
AcDbCircle
 10
0.0
 20
0.0
 30
0.0
 40
0.5
  0
ENDBLK
  5
90
330
8E
100
AcDbEntity
  8
0
100
AcDbBlockEnd
  0
BLOCK
  5
92
330
91
100
AcDbEntity
  8
0
100
AcDbBlockBegin
  2
EX_WCIR2
 70
     0
 10
0.0
 20
0.0
 30
0.0
  3
EX_WCIR2
  1

  0
LINE
  5
BA
330
91
100
AcDbEntity
  8
0
  6
CONTINUOUS
 62
     0
100
AcDbLine
 10
-0.5
 20
0.0
 30
0.0
 11
-1.0
 21
0.0
 31
0.0
  0
CIRCLE
  5
BB
330
91
100
AcDbEntity
  8
0
  6
CONTINUOUS
 62
     0
100
AcDbCircle
 10
0.0
 20
0.0
 30
0.0
 40
0.5
  0
ENDBLK
  5
93
330
91
100
AcDbEntity
  8
0
100
AcDbBlockEnd
  0
BLOCK
  5
95
330
94
100
AcDbEntity
  8
0
100
AcDbBlockBegin
  2
EX_WNORM
 70
     0
 10
0.0
 20
0.0
 30
0.0
  3
EX_WNORM
  1

  0
LINE
  5
BC
330
94
100
AcDbEntity
  8
0
  6
CONTINUOUS
 62
     0
100
AcDbLine
 10
-1.0
 20
0.0
 30
0.0
 11
-1.0
 21
0.0
 31
0.0
  0
LINE
  5
BD
330
94
100
AcDbEntity
  8
0
  6
CONTINUOUS
 62
     0
100
AcDbLine
 10
0.0
 20
0.0
 30
0.0
 11
-1.0
 21
0.166666667
 31
0.0
  0
LINE
  5
BE
330
94
100
AcDbEntity
  8
0
  6
CONTINUOUS
 62
     0
100
AcDbLine
 10
0.0
 20
0.0
 30
0.0
 11
-1.0
 21
-0.166666667
 31
0.0
  0
LINE
  5
BF
330
94
100
AcDbEntity
  8
0
  6
CONTINUOUS
 62
     0
100
AcDbLine
 10
-1.0
 20
0.166666667
 30
0.0
 11
-1.0
 21
-0.166666667
 31
0.0
  0
ENDBLK
  5
96
330
94
100
AcDbEntity
  8
0
100
AcDbBlockEnd
  0
BLOCK
  5
98
330
97
100
AcDbEntity
  8
0
100
AcDbBlockBegin
  2
EX_NNORM
 70
     0
 10
0.0
 20
0.0
 30
0.0
  3
EX_NNORM
  1

  0
LINE
  5
C0
330
97
100
AcDbEntity
  8
0
  6
CONTINUOUS
 62
     0
100
AcDbLine
 10
0.0
 20
0.0
 30
0.0
 11
-1.0
 21
0.0
 31
0.0
  0
LINE
  5
C1
330
97
100
AcDbEntity
  8
0
  6
CONTINUOUS
 62
     0
100
AcDbLine
 10
0.0
 20
0.0
 30
0.0
 11
-1.0
 21
0.166666667
 31
0.0
  0
LINE
  5
C2
330
97
100
AcDbEntity
  8
0
  6
CONTINUOUS
 62
     0
100
AcDbLine
 10
0.0
 20
0.0
 30
0.0
 11
-1.0
 21
-0.166666667
 31
0.0
  0
LINE
  5
C3
330
97
100
AcDbEntity
  8
0
  6
CONTINUOUS
 62
     0
100
AcDbLine
 10
-1.0
 20
0.166666667
 30
0.0
 11
-1.0
 21
-0.166666667
 31
0.0
  0
ENDBLK
  5
99
330
97
100
AcDbEntity
  8
0
100
AcDbBlockEnd
  0
BLOCK
  5
9B
330
9A
100
AcDbEntity
  8
0
100
AcDbBlockBegin
  2
EX_BBOX
 70
     0
 10
0.0
 20
0.0
 30
0.0
  3
EX_BBOX
  1

  0
LINE
  5
C4
330
9A
100
AcDbEntity
  8
0
  6
CONTINUOUS
 62
     0
100
AcDbLine
 10
0.0
 20
0.0
 30
0.0
 11
-1.0
 21
0.0
 31
0.0
  0
LINE
  5
C5
330
9A
100
AcDbEntity
  8
0
  6
CONTINUOUS
 62
     0
100
AcDbLine
 10
-0.5
 20
0.5
 30
0.0
 11
0.5
 21
0.5
 31
0.0
  0
LINE
  5
C6
330
9A
100
AcDbEntity
  8
0
  6
CONTINUOUS
 62
     0
100
AcDbLine
 10
0.5
 20
0.5
 30
0.0
 11
0.5
 21
-0.5
 31
0.0
  0
LINE
  5
C7
330
9A
100
AcDbEntity
  8
0
  6
CONTINUOUS
 62
     0
100
AcDbLine
 10
0.5
 20
-0.5
 30
0.0
 11
-0.5
 21
-0.5
 31
0.0
  0
LINE
  5
C8
330
9A
100
AcDbEntity
  8
0
  6
CONTINUOUS
 62
     0
100
AcDbLine
 10
-0.5
 20
-0.5
 30
0.0
 11
-0.5
 21
0.5
 31
0.0
  0
LINE
  5
C9
330
9A
100
AcDbEntity
  8
0
  6
CONTINUOUS
 62
     0
100
AcDbLine
 10
-0.25
 20
0.25
 30
0.0
 11
0.25
 21
0.25
 31
0.0
  0
LINE
  5
CA
330
9A
100
AcDbEntity
  8
0
  6
CONTINUOUS
 62
     0
100
AcDbLine
 10
0.25
 20
0.25
 30
0.0
 11
0.25
 21
-0.25
 31
0.0
  0
LINE
  5
CB
330
9A
100
AcDbEntity
  8
0
  6
CONTINUOUS
 62
     0
100
AcDbLine
 10
0.25
 20
-0.25
 30
0.0
 11
-0.25
 21
-0.25
 31
0.0
  0
LINE
  5
CC
330
9A
100
AcDbEntity
  8
0
  6
CONTINUOUS
 62
     0
100
AcDbLine
 10
-0.25
 20
-0.25
 30
0.0
 11
-0.25
 21
0.25
 31
0.0
  0
ENDBLK
  5
9C
330
9A
100
AcDbEntity
  8
0
100
AcDbBlockEnd
  0
BLOCK
  5
9E
330
9D
100
AcDbEntity
  8
0
100
AcDbBlockBegin
  2
EX_WBOX
 70
     0
 10
0.0
 20
0.0
 30
0.0
  3
EX_WBOX
  1

  0
LINE
  5
CD
330
9D
100
AcDbEntity
  8
0
  6
CONTINUOUS
 62
     0
100
AcDbLine
 10
-0.5
 20
0.0
 30
0.0
 11
-1.0
 21
0.0
 31
0.0
  0
LINE
  5
CE
330
9D
100
AcDbEntity
  8
0
  6
CONTINUOUS
 62
     0
100
AcDbLine
 10
-0.5
 20
0.5
 30
0.0
 11
0.5
 21
0.5
 31
0.0
  0
LINE
  5
CF
330
9D
100
AcDbEntity
  8
0
  6
CONTINUOUS
 62
     0
100
AcDbLine
 10
0.5
 20
0.5
 30
0.0
 11
0.5
 21
-0.5
 31
0.0
  0
LINE
  5
D0
330
9D
100
AcDbEntity
  8
0
  6
CONTINUOUS
 62
     0
100
AcDbLine
 10
0.5
 20
-0.5
 30
0.0
 11
-0.5
 21
-0.5
 31
0.0
  0
LINE
  5
D1
330
9D
100
AcDbEntity
  8
0
  6
CONTINUOUS
 62
     0
100
AcDbLine
 10
-0.5
 20
-0.5
 30
0.0
 11
-0.5
 21
0.5
 31
0.0
  0
ENDBLK
  5
9F
330
9D
100
AcDbEntity
  8
0
100
AcDbBlockEnd
  0
BLOCK
  5
A1
330
A0
100
AcDbEntity
  8
0
100
AcDbBlockBegin
  2
EX_INTEGRAL
 70
     0
 10
0.0
 20
0.0
 30
0.0
  3
EX_INTEGRAL
  1

  0
LINE
  5
D2
330
A0
100
AcDbEntity
  8
0
  6
CONTINUOUS
 62
     0
100
AcDbLine
 10
0.0
 20
0.0
 30
0.0
 11
-1.0
 21
0.0
 31
0.0
  0
ARC
  5
D3
330
A0
100
AcDbEntity
  8
0
  6
CONTINUOUS
 62
     0
100
AcDbCircle
 10
0.542115
 20
0.164992
 30
0.0
 40
0.56667
100
AcDbArc
 50
73.07249033629006
 51
196.9275130221199
  0
ARC
  5
D4
330
A0
100
AcDbEntity
  8
0
  6
CONTINUOUS
 62
     0
100
AcDbCircle
 10
-0.542115
 20
-0.164992
 30
0.0
 40
0.56667
100
AcDbArc
 50
253.0724869220464
 51
16.9275130559125
  0
ENDBLK
  5
A2
330
A0
100
AcDbEntity
  8
0
100
AcDbBlockEnd
  0
BLOCK
  5
13B
330
13A
100
AcDbEntity
  8
0
100
AcDbBlockBegin
  2
*D15
 70
     1
 10
0.0
 20
0.0
 30
0.0
  3
*D15
  1

  0
LINE
  5
13D
330
13A
100
AcDbEntity
  8
Ｓ_１_１
  6
CONTINUOUS
 62
     2
100
AcDbLine
 10
1785.0
 20
570.0
 30
0.0
 11
1760.0
 21
570.0
 31
0.0
  0
INSERT
  5
13E
330
13A
100
AcDbEntity
  8
Ｓ_１_１
 62
     2
100
AcDbBlockReference
  2
EX_NORM
 10
1800.0
 20
570.0
 30
0.0
 41
15.0
 42
15.0
 43
15.0
  0
INSERT
  5
13F
330
13A
100
AcDbEntity
  8
Ｓ_１_１
 62
     2
100
AcDbBlockReference
  2
EX_NORM
 10
1745.0
 20
570.0
 30
0.0
 41
15.0
 42
15.0
 43
15.0
 50
180.0
  0
MTEXT
  5
140
330
13A
100
AcDbEntity
  8
Ｓ_１_１
 62
     2
100
AcDbMText
 10
1772.5
 20
583.75
 30
0.0
 40
17.3145207852194
 41
0.0
 71
     5
 72
     1
  1
55
  7
EXCADDIM1
  0
POINT
  5
141
330
13A
100
AcDbEntity
  8
DEFPOINTS
 62
     0
100
AcDbPoint
 10
1800.0
 20
422.9999729999901
 30
0.0
  0
POINT
  5
142
330
13A
100
AcDbEntity
  8
DEFPOINTS
 62
     0
100
AcDbPoint
 10
1745.0
 20
517.7326360000001
 30
0.0
  0
POINT
  5
143
330
13A
100
AcDbEntity
  8
DEFPOINTS
 62
     0
100
AcDbPoint
 10
1745.0
 20
570.0
 30
0.0
  0
ENDBLK
  5
13C
330
13A
100
AcDbEntity
  8
0
100
AcDbBlockEnd
  0
BLOCK
  5
147
330
146
100
AcDbEntity
  8
0
100
AcDbBlockBegin
  2
*D16
 70
     1
 10
0.0
 20
0.0
 30
0.0
  3
*D16
  1

  0
LINE
  5
149
330
146
100
AcDbEntity
  8
Ｓ_１_１
  6
CONTINUOUS
 62
     2
100
AcDbLine
 10
634.9999349999998
 20
600.0
 30
0.0
 11
1785.0
 21
600.0
 31
0.0
  0
INSERT
  5
14A
330
146
100
AcDbEntity
  8
Ｓ_１_１
 62
     2
100
AcDbBlockReference
  2
EX_NORM
 10
619.9999349999998
 20
600.0
 30
0.0
 41
15.0
 42
15.0
 43
15.0
 50
180.0
  0
INSERT
  5
14B
330
146
100
AcDbEntity
  8
Ｓ_１_１
 62
     2
100
AcDbBlockReference
  2
EX_NORM
 10
1800.0
 20
600.0
 30
0.0
 41
15.0
 42
15.0
 43
15.0
  0
MTEXT
  5
14C
330
146
100
AcDbEntity
  8
Ｓ_１_１
 62
     2
100
AcDbMText
 10
1209.9999675
 20
613.75
 30
0.0
 40
17.3145207852194
 41
0.0
 71
     5
 72
     1
  1
1180
  7
EXCADDIM1
  0
POINT
  5
14D
330
146
100
AcDbEntity
  8
DEFPOINTS
 62
     0
100
AcDbPoint
 10
619.9999349999998
 20
417.999901
 30
0.0
  0
POINT
  5
14E
330
146
100
AcDbEntity
  8
DEFPOINTS
 62
     0
100
AcDbPoint
 10
1800.0
 20
422.9999729999901
 30
0.0
  0
POINT
  5
14F
330
146
100
AcDbEntity
  8
DEFPOINTS
 62
     0
100
AcDbPoint
 10
1800.0
 20
600.0
 30
0.0
  0
ENDBLK
  5
148
330
146
100
AcDbEntity
  8
0
100
AcDbBlockEnd
  0
BLOCK
  5
152
330
151
100
AcDbEntity
  8
0
100
AcDbBlockBegin
  2
*D17
 70
     1
 10
0.0
 20
0.0
 30
0.0
  3
*D17
  1

  0
LINE
  5
154
330
151
100
AcDbEntity
  8
Ｓ_１_１
  6
CONTINUOUS
 62
     2
100
AcDbLine
 10
619.9999349999998
 20
425.499901
 30
0.0
 11
619.9999349999998
 21
605.0
 31
0.0
  0
LINE
  5
155
330
151
100
AcDbEntity
  8
Ｓ_１_１
  6
CONTINUOUS
 62
     2
100
AcDbLine
 10
619.9999349999998
 20
600.0
 30
0.0
 11
594.9999349999998
 21
600.0
 31
0.0
  0
LINE
  5
156
330
151
100
AcDbEntity
  8
Ｓ_１_１
  6
CONTINUOUS
 62
     2
100
AcDbLine
 10
634.9999349999998
 20
600.0
 30
0.0
 11
649.9999349999998
 21
600.0
 31
0.0
  0
LINE
  5
157
330
151
100
AcDbEntity
  8
Ｓ_１_１
  6
CONTINUOUS
 62
     2
100
AcDbLine
 10
579.9999349999998
 20
600.0
 30
0.0
 11
564.9999349999998
 21
600.0
 31
0.0
  0
INSERT
  5
158
330
151
100
AcDbEntity
  8
Ｓ_１_１
 62
     2
100
AcDbBlockReference
  2
EX_NORM
 10
619.9999349999998
 20
600.0
 30
0.0
 41
15.0
 42
15.0
 43
15.0
 50
180.0
  0
INSERT
  5
159
330
151
100
AcDbEntity
  8
Ｓ_１_１
 62
     2
100
AcDbBlockReference
  2
EX_NORM
 10
594.9999349999998
 20
600.0
 30
0.0
 41
15.0
 42
15.0
 43
15.0
  0
MTEXT
  5
15A
330
151
100
AcDbEntity
  8
Ｓ_１_１
 62
     2
100
AcDbMText
 10
607.4999349999999
 20
613.75
 30
0.0
 40
17.3145207852194
 41
0.0
 71
     5
 72
     1
  1
25
  7
EXCADDIM1
  0
POINT
  5
15B
330
151
100
AcDbEntity
  8
DEFPOINTS
 62
     0
100
AcDbPoint
 10
619.9999349999998
 20
417.999901
 30
0.0
  0
POINT
  5
15C
330
151
100
AcDbEntity
  8
DEFPOINTS
 62
     0
100
AcDbPoint
 10
594.9999349999998
 20
408.00004
 30
0.0
  0
POINT
  5
15D
330
151
100
AcDbEntity
  8
DEFPOINTS
 62
     0
100
AcDbPoint
 10
594.9999349999998
 20
600.0
 30
0.0
  0
ENDBLK
  5
153
330
151
100
AcDbEntity
  8
0
100
AcDbBlockEnd
  0
BLOCK
  5
160
330
15F
100
AcDbEntity
  8
0
100
AcDbBlockBegin
  2
*D18
 70
     1
 10
0.0
 20
0.0
 30
0.0
  3
*D18
  1

  0
LINE
  5
162
330
15F
100
AcDbEntity
  8
Ｓ_１_１
  6
CONTINUOUS
 62
     2
100
AcDbLine
 10
594.9999349999998
 20
415.50004
 30
0.0
 11
594.9999349999998
 21
605.0
 31
0.0
  0
LINE
  5
163
330
15F
100
AcDbEntity
  8
Ｓ_１_１
  6
CONTINUOUS
 62
     2
100
AcDbLine
 10
579.9999349999998
 20
600.0
 30
0.0
 11
474.9999350000001
 21
600.0
 31
0.0
  0
INSERT
  5
164
330
15F
100
AcDbEntity
  8
Ｓ_１_１
 62
     2
100
AcDbBlockReference
  2
EX_NORM
 10
594.9999349999998
 20
600.0
 30
0.0
 41
15.0
 42
15.0
 43
15.0
  0
INSERT
  5
165
330
15F
100
AcDbEntity
  8
Ｓ_１_１
 62
     2
100
AcDbBlockReference
  2
EX_NORM
 10
459.9999350000001
 20
600.0
 30
0.0
 41
15.0
 42
15.0
 43
15.0
 50
180.0
  0
MTEXT
  5
166
330
15F
100
AcDbEntity
  8
Ｓ_１_１
 62
     2
100
AcDbMText
 10
527.4999349999999
 20
613.75
 30
0.0
 40
17.3145207852194
 41
0.0
 71
     5
 72
     1
  1
135
  7
EXCADDIM1
  0
POINT
  5
167
330
15F
100
AcDbEntity
  8
DEFPOINTS
 62
     0
100
AcDbPoint
 10
594.9999349999998
 20
408.00004
 30
0.0
  0
POINT
  5
168
330
15F
100
AcDbEntity
  8
DEFPOINTS
 62
     0
100
AcDbPoint
 10
459.9999350000001
 20
418.087525
 30
0.0
  0
POINT
  5
169
330
15F
100
AcDbEntity
  8
DEFPOINTS
 62
     0
100
AcDbPoint
 10
459.9999350000001
 20
600.0
 30
0.0
  0
ENDBLK
  5
161
330
15F
100
AcDbEntity
  8
0
100
AcDbBlockEnd
  0
BLOCK
  5
16C
330
16B
100
AcDbEntity
  8
0
100
AcDbBlockBegin
  2
*D19
 70
     1
 10
0.0
 20
0.0
 30
0.0
  3
*D19
  1

  0
LINE
  5
16E
330
16B
100
AcDbEntity
  8
Ｓ_１_１
  6
CONTINUOUS
 62
     2
100
AcDbLine
 10
459.9999350000001
 20
425.587525
 30
0.0
 11
459.9999350000001
 21
605.0
 31
0.0
  0
LINE
  5
16F
330
16B
100
AcDbEntity
  8
Ｓ_１_１
  6
CONTINUOUS
 62
     2
100
AcDbLine
 10
444.9999350000001
 20
600.0
 30
0.0
 11
414.9999349999999
 21
600.0
 31
0.0
  0
INSERT
  5
170
330
16B
100
AcDbEntity
  8
Ｓ_１_１
 62
     2
100
AcDbBlockReference
  2
EX_NORM
 10
459.9999350000001
 20
600.0
 30
0.0
 41
15.0
 42
15.0
 43
15.0
  0
INSERT
  5
171
330
16B
100
AcDbEntity
  8
Ｓ_１_１
 62
     2
100
AcDbBlockReference
  2
EX_NORM
 10
399.9999349999999
 20
600.0
 30
0.0
 41
15.0
 42
15.0
 43
15.0
 50
180.0
  0
MTEXT
  5
172
330
16B
100
AcDbEntity
  8
Ｓ_１_１
 62
     2
100
AcDbMText
 10
429.9999350000001
 20
613.75
 30
0.0
 40
17.3145207852194
 41
0.0
 71
     5
 72
     1
  1
60
  7
EXCADDIM1
  0
POINT
  5
173
330
16B
100
AcDbEntity
  8
DEFPOINTS
 62
     0
100
AcDbPoint
 10
459.9999350000001
 20
418.087525
 30
0.0
  0
POINT
  5
174
330
16B
100
AcDbEntity
  8
DEFPOINTS
 62
     0
100
AcDbPoint
 10
399.9999349999999
 20
384.999949
 30
0.0
  0
POINT
  5
175
330
16B
100
AcDbEntity
  8
DEFPOINTS
 62
     0
100
AcDbPoint
 10
399.9999349999999
 20
600.0
 30
0.0
  0
ENDBLK
  5
16D
330
16B
100
AcDbEntity
  8
0
100
AcDbBlockEnd
  0
BLOCK
  5
178
330
177
100
AcDbEntity
  8
0
100
AcDbBlockBegin
  2
*D20
 70
     1
 10
0.0
 20
0.0
 30
0.0
  3
*D20
  1

  0
LINE
  5
17A
330
177
100
AcDbEntity
  8
Ｓ_１_１
  6
CONTINUOUS
 62
     2
100
AcDbLine
 10
1800.0
 20
430.4999729999901
 30
0.0
 11
1800.0
 21
635.0
 31
0.0
  0
LINE
  5
17B
330
177
100
AcDbEntity
  8
Ｓ_１_１
  6
CONTINUOUS
 62
     2
100
AcDbLine
 10
399.9999349999999
 20
392.499949
 30
0.0
 11
399.9999349999999
 21
635.0
 31
0.0
  0
LINE
  5
17C
330
177
100
AcDbEntity
  8
Ｓ_１_１
  6
CONTINUOUS
 62
     2
100
AcDbLine
 10
1785.0
 20
630.0
 30
0.0
 11
414.9999349999999
 21
630.0
 31
0.0
  0
INSERT
  5
17D
330
177
100
AcDbEntity
  8
Ｓ_１_１
 62
     2
100
AcDbBlockReference
  2
EX_NORM
 10
1800.0
 20
630.0
 30
0.0
 41
15.0
 42
15.0
 43
15.0
  0
INSERT
  5
17E
330
177
100
AcDbEntity
  8
Ｓ_１_１
 62
     2
100
AcDbBlockReference
  2
EX_NORM
 10
399.9999349999999
 20
630.0
 30
0.0
 41
15.0
 42
15.0
 43
15.0
 50
180.0
  0
MTEXT
  5
17F
330
177
100
AcDbEntity
  8
Ｓ_１_１
 62
     2
100
AcDbMText
 10
1099.9999675
 20
643.75
 30
0.0
 40
17.3145207852194
 41
0.0
 71
     5
 72
     1
  1
1400
  7
EXCADDIM1
  0
POINT
  5
180
330
177
100
AcDbEntity
  8
DEFPOINTS
 62
     0
100
AcDbPoint
 10
1800.0
 20
422.9999729999901
 30
0.0
  0
POINT
  5
181
330
177
100
AcDbEntity
  8
DEFPOINTS
 62
     0
100
AcDbPoint
 10
399.9999349999999
 20
384.999949
 30
0.0
  0
POINT
  5
182
330
177
100
AcDbEntity
  8
DEFPOINTS
 62
     0
100
AcDbPoint
 10
399.9999349999999
 20
630.0
 30
0.0
  0
ENDBLK
  5
179
330
177
100
AcDbEntity
  8
0
100
AcDbBlockEnd
  0
BLOCK
  5
185
330
184
100
AcDbEntity
  8
0
100
AcDbBlockBegin
  2
*D21
 70
     1
 10
0.0
 20
0.0
 30
0.0
  3
*D21
  1

  0
LINE
  5
187
330
184
100
AcDbEntity
  8
Ｓ_１_１
  6
CONTINUOUS
 62
     2
100
AcDbLine
 10
459.9999350000001
 20
296.837525
 30
0.0
 11
459.9999350000001
 21
175.0
 31
0.0
  0
LINE
  5
188
330
184
100
AcDbEntity
  8
Ｓ_１_１
  6
CONTINUOUS
 62
     2
100
AcDbLine
 10
824.999996
 20
310.483948
 30
0.0
 11
824.999996
 21
175.0
 31
0.0
  0
LINE
  5
189
330
184
100
AcDbEntity
  8
Ｓ_１_１
  6
CONTINUOUS
 62
     2
100
AcDbLine
 10
474.9999350000001
 20
180.0
 30
0.0
 11
809.999996
 21
180.0
 31
0.0
  0
INSERT
  5
18A
330
184
100
AcDbEntity
  8
Ｓ_１_１
 62
     2
100
AcDbBlockReference
  2
EX_NORM
 10
459.9999350000001
 20
180.0
 30
0.0
 41
15.0
 42
15.0
 43
15.0
 50
180.0
  0
INSERT
  5
18B
330
184
100
AcDbEntity
  8
Ｓ_１_１
 62
     2
100
AcDbBlockReference
  2
EX_NORM
 10
824.999996
 20
180.0
 30
0.0
 41
15.0
 42
15.0
 43
15.0
  0
MTEXT
  5
18C
330
184
100
AcDbEntity
  8
Ｓ_１_１
 62
     2
100
AcDbMText
 10
642.4999655
 20
193.75
 30
0.0
 40
17.3145207852194
 41
0.0
 71
     5
 72
     1
  1
365
  7
EXCADDIM1
  0
POINT
  5
18D
330
184
100
AcDbEntity
  8
DEFPOINTS
 62
     0
100
AcDbPoint
 10
459.9999350000001
 20
304.337525
 30
0.0
  0
POINT
  5
18E
330
184
100
AcDbEntity
  8
DEFPOINTS
 62
     0
100
AcDbPoint
 10
824.999996
 20
317.983948
 30
0.0
  0
POINT
  5
18F
330
184
100
AcDbEntity
  8
DEFPOINTS
 62
     0
100
AcDbPoint
 10
824.999996
 20
180.0
 30
0.0
  0
ENDBLK
  5
186
330
184
100
AcDbEntity
  8
0
100
AcDbBlockEnd
  0
BLOCK
  5
192
330
191
100
AcDbEntity
  8
0
100
AcDbBlockBegin
  2
*D22
 70
     1
 10
0.0
 20
0.0
 30
0.0
  3
*D22
  1

  0
LINE
  5
194
330
191
100
AcDbEntity
  8
Ｓ_１_１
  6
CONTINUOUS
 62
     2
100
AcDbLine
 10
534.9999349999998
 20
309.198731
 30
0.0
 11
534.9999349999998
 21
205.0
 31
0.0
  0
LINE
  5
195
330
191
100
AcDbEntity
  8
Ｓ_１_１
  6
CONTINUOUS
 62
     2
100
AcDbLine
 10
474.9999350000001
 20
210.0
 30
0.0
 11
519.9999349999998
 21
210.0
 31
0.0
  0
INSERT
  5
196
330
191
100
AcDbEntity
  8
Ｓ_１_１
 62
     2
100
AcDbBlockReference
  2
EX_NORM
 10
459.9999350000001
 20
210.0
 30
0.0
 41
15.0
 42
15.0
 43
15.0
 50
180.0
  0
INSERT
  5
197
330
191
100
AcDbEntity
  8
Ｓ_１_１
 62
     2
100
AcDbBlockReference
  2
EX_NORM
 10
534.9999349999998
 20
210.0
 30
0.0
 41
15.0
 42
15.0
 43
15.0
  0
MTEXT
  5
198
330
191
100
AcDbEntity
  8
Ｓ_１_１
 62
     2
100
AcDbMText
 10
497.499935
 20
223.75
 30
0.0
 40
17.3145207852194
 41
0.0
 71
     5
 72
     1
  1
75
  7
EXCADDIM1
  0
POINT
  5
199
330
191
100
AcDbEntity
  8
DEFPOINTS
 62
     0
100
AcDbPoint
 10
459.9999350000001
 20
296.837525
 30
0.0
  0
POINT
  5
19A
330
191
100
AcDbEntity
  8
DEFPOINTS
 62
     0
100
AcDbPoint
 10
534.9999349999998
 20
316.698731
 30
0.0
  0
POINT
  5
19B
330
191
100
AcDbEntity
  8
DEFPOINTS
 62
     0
100
AcDbPoint
 10
534.9999349999998
 20
210.0
 30
0.0
  0
ENDBLK
  5
193
330
191
100
AcDbEntity
  8
0
100
AcDbBlockEnd
  0
BLOCK
  5
19E
330
19D
100
AcDbEntity
  8
0
100
AcDbBlockBegin
  2
*D23
 70
     1
 10
0.0
 20
0.0
 30
0.0
  3
*D23
  1

  0
LINE
  5
1A0
330
19D
100
AcDbEntity
  8
Ｓ_１_１
  6
CONTINUOUS
 62
     2
100
AcDbLine
 10
1805.499992
 20
295.0
 30
0.0
 11
1895.0
 21
295.0
 31
0.0
  0
LINE
  5
1A1
330
19D
100
AcDbEntity
  8
Ｓ_１_１
  6
CONTINUOUS
 62
     2
100
AcDbLine
 10
1805.499992
 20
425.0
 30
0.0
 11
1895.0
 21
425.0
 31
0.0
  0
LINE
  5
1A2
330
19D
100
AcDbEntity
  8
Ｓ_１_１
  6
CONTINUOUS
 62
     2
100
AcDbLine
 10
1890.0
 20
310.0
 30
0.0
 11
1890.0
 21
410.0
 31
0.0
  0
INSERT
  5
1A3
330
19D
100
AcDbEntity
  8
Ｓ_１_１
 62
     2
100
AcDbBlockReference
  2
EX_NORM
 10
1890.0
 20
295.0
 30
0.0
 41
15.0
 42
15.0
 43
15.0
 50
270.0
  0
INSERT
  5
1A4
330
19D
100
AcDbEntity
  8
Ｓ_１_１
 62
     2
100
AcDbBlockReference
  2
EX_NORM
 10
1890.0
 20
425.0
 30
0.0
 41
15.0
 42
15.0
 43
15.0
 50
90.0
  0
MTEXT
  5
1A5
330
19D
100
AcDbEntity
  8
Ｓ_１_１
 62
     2
100
AcDbMText
 10
1876.25
 20
359.9999999999998
 30
0.0
 40
17.3145207852194
 41
0.0
 71
     5
 72
     1
  1
%%c130
  7
EXCADDIM1
 11
0.0
 21
1.0
 31
0.0
  0
POINT
  5
1A6
330
19D
100
AcDbEntity
  8
DEFPOINTS
 62
     0
100
AcDbPoint
 10
1797.999992
 20
295.0
 30
0.0
  0
POINT
  5
1A7
330
19D
100
AcDbEntity
  8
DEFPOINTS
 62
     0
100
AcDbPoint
 10
1797.999992
 20
425.0
 30
0.0
  0
POINT
  5
1A8
330
19D
100
AcDbEntity
  8
DEFPOINTS
 62
     0
100
AcDbPoint
 10
1890.0
 20
425.0
 30
0.0
  0
ENDBLK
  5
19F
330
19D
100
AcDbEntity
  8
0
100
AcDbBlockEnd
  0
BLOCK
  5
1AB
330
1AA
100
AcDbEntity
  8
0
100
AcDbBlockBegin
  2
*D24
 70
     1
 10
0.0
 20
0.0
 30
0.0
  3
*D24
  1

  0
LINE
  5
1AD
330
1AA
100
AcDbEntity
  8
Ｓ_１_１
  6
CONTINUOUS
 62
     2
100
AcDbLine
 10
417.4999560000001
 20
310.0
 30
0.0
 11
325.0
 21
310.0
 31
0.0
  0
LINE
  5
1AE
330
1AA
100
AcDbEntity
  8
Ｓ_１_１
  6
CONTINUOUS
 62
     2
100
AcDbLine
 10
417.4999350000001
 20
410.0
 30
0.0
 11
325.0
 21
410.0
 31
0.0
  0
LINE
  5
1AF
330
1AA
100
AcDbEntity
  8
Ｓ_１_１
  6
CONTINUOUS
 62
     2
100
AcDbLine
 10
330.0
 20
325.0
 30
0.0
 11
330.0
 21
395.0
 31
0.0
  0
INSERT
  5
1B0
330
1AA
100
AcDbEntity
  8
Ｓ_１_１
 62
     2
100
AcDbBlockReference
  2
EX_NORM
 10
330.0
 20
310.0
 30
0.0
 41
15.0
 42
15.0
 43
15.0
 50
270.0
  0
INSERT
  5
1B1
330
1AA
100
AcDbEntity
  8
Ｓ_１_１
 62
     2
100
AcDbBlockReference
  2
EX_NORM
 10
330.0
 20
410.0
 30
0.0
 41
15.0
 42
15.0
 43
15.0
 50
90.0
  0
MTEXT
  5
1B2
330
1AA
100
AcDbEntity
  8
Ｓ_１_１
 62
     2
100
AcDbMText
 10
316.25
 20
360.0
 30
0.0
 40
17.3145207852194
 41
0.0
 71
     5
 72
     1
  1
100
  7
EXCADDIM1
 11
0.0
 21
1.0
 31
0.0
  0
POINT
  5
1B3
330
1AA
100
AcDbEntity
  8
DEFPOINTS
 62
     0
100
AcDbPoint
 10
424.9999560000001
 20
310.0
 30
0.0
  0
POINT
  5
1B4
330
1AA
100
AcDbEntity
  8
DEFPOINTS
 62
     0
100
AcDbPoint
 10
424.9999350000001
 20
410.0
 30
0.0
  0
POINT
  5
1B5
330
1AA
100
AcDbEntity
  8
DEFPOINTS
 62
     0
100
AcDbPoint
 10
330.0
 20
410.0
 30
0.0
  0
ENDBLK
  5
1AC
330
1AA
100
AcDbEntity
  8
0
100
AcDbBlockEnd
  0
BLOCK
  5
1B8
330
1B7
100
AcDbEntity
  8
0
100
AcDbBlockBegin
  2
*D25
 70
     1
 10
0.0
 20
0.0
 30
0.0
  3
*D25
  1

  0
LINE
  5
1BA
330
1B7
100
AcDbEntity
  8
Ｓ_１_１
  6
CONTINUOUS
 62
     2
100
AcDbLine
 10
750.0
 20
315.0
 30
0.0
 11
750.0
 21
405.0
 31
0.0
  0
INSERT
  5
1BB
330
1B7
100
AcDbEntity
  8
Ｓ_１_１
 62
     2
100
AcDbBlockReference
  2
EX_NORM
 10
750.0
 20
300.0
 30
0.0
 41
15.0
 42
15.0
 43
15.0
 50
270.0
  0
INSERT
  5
1BC
330
1B7
100
AcDbEntity
  8
Ｓ_１_１
 62
     2
100
AcDbBlockReference
  2
EX_NORM
 10
750.0
 20
420.0
 30
0.0
 41
15.0
 42
15.0
 43
15.0
 50
90.0
  0
MTEXT
  5
1BD
330
1B7
100
AcDbEntity
  8
Ｓ_１_１
 62
     2
100
AcDbMText
 10
736.25
 20
360.0
 30
0.0
 40
17.3145207852194
 41
0.0
 71
     5
 72
     1
  1
     %%c120
  7
EXCADDIM1
 11
0.0
 21
1.0
 31
0.0
  0
POINT
  5
1BE
330
1B7
100
AcDbEntity
  8
DEFPOINTS
 62
     0
100
AcDbPoint
 10
621.999935
 20
300.0
 30
0.0
  0
POINT
  5
1BF
330
1B7
100
AcDbEntity
  8
DEFPOINTS
 62
     0
100
AcDbPoint
 10
621.999935
 20
420.0
 30
0.0
  0
POINT
  5
1C0
330
1B7
100
AcDbEntity
  8
DEFPOINTS
 62
     0
100
AcDbPoint
 10
750.0
 20
420.0
 30
0.0
  0
ENDBLK
  5
1B9
330
1B7
100
AcDbEntity
  8
0
100
AcDbBlockEnd
  0
BLOCK
  5
1C3
330
1C2
100
AcDbEntity
  8
0
100
AcDbBlockBegin
  2
*D26
 70
     1
 10
0.0
 20
0.0
 30
0.0
  3
*D26
  1

  0
LINE
  5
1C5
330
1C2
100
AcDbEntity
  8
Ｓ_１_１
  6
CONTINUOUS
 62
     2
100
AcDbLine
 10
1725.499881
 20
510.362152
 30
0.0
 11
1675.0
 21
510.362152
 31
0.0
  0
LINE
  5
1C6
330
1C2
100
AcDbEntity
  8
Ｓ_１_１
  6
CONTINUOUS
 62
     2
100
AcDbLine
 10
1680.0
 20
440.000758
 30
0.0
 11
1680.0
 21
495.362152
 31
0.0
  0
INSERT
  5
1C7
330
1C2
100
AcDbEntity
  8
Ｓ_１_１
 62
     2
100
AcDbBlockReference
  2
EX_NORM
 10
1680.0
 20
425.000758
 30
0.0
 41
15.0
 42
15.0
 43
15.0
 50
270.0
  0
INSERT
  5
1C8
330
1C2
100
AcDbEntity
  8
Ｓ_１_１
 62
     2
100
AcDbBlockReference
  2
EX_NORM
 10
1680.0
 20
510.362152
 30
0.0
 41
15.0
 42
15.0
 43
15.0
 50
90.0
  0
MTEXT
  5
1C9
330
1C2
100
AcDbEntity
  8
Ｓ_１_１
 62
     2
100
AcDbMText
 10
1666.25
 20
467.681455
 30
0.0
 40
17.3145207852194
 41
0.0
 71
     5
 72
     1
  1
(85)
  7
EXCADDIM1
 11
0.0
 21
1.0
 31
0.0
  0
POINT
  5
1CA
330
1C2
100
AcDbEntity
  8
DEFPOINTS
 62
     0
100
AcDbPoint
 10
1737.047512
 20
425.000758
 30
0.0
  0
POINT
  5
1CB
330
1C2
100
AcDbEntity
  8
DEFPOINTS
 62
     0
100
AcDbPoint
 10
1732.999881
 20
510.362152
 30
0.0
  0
POINT
  5
1CC
330
1C2
100
AcDbEntity
  8
DEFPOINTS
 62
     0
100
AcDbPoint
 10
1680.0
 20
510.362152
 30
0.0
  0
ENDBLK
  5
1C4
330
1C2
100
AcDbEntity
  8
0
100
AcDbBlockEnd
  0
BLOCK
  5
1CF
330
1CE
100
AcDbEntity
  8
0
100
AcDbBlockBegin
  2
*D27
 70
     1
 10
0.0
 20
0.0
 30
0.0
  3
*D27
  1

  0
LINE
  5
1D1
330
1CE
100
AcDbEntity
  8
Ｓ_１_１
  6
CONTINUOUS
 62
     2
100
AcDbLine
 10
392.499926
 20
835.0
 30
0.0
 11
325.0
 21
835.0
 31
0.0
  0
LINE
  5
1D2
330
1CE
100
AcDbEntity
  8
Ｓ_１_１
  6
CONTINUOUS
 62
     2
100
AcDbLine
 10
392.499926
 20
785.0
 30
0.0
 11
325.0
 21
785.0
 31
0.0
  0
LINE
  5
1D3
330
1CE
100
AcDbEntity
  8
Ｓ_１_１
  6
CONTINUOUS
 62
     2
100
AcDbLine
 10
330.0
 20
820.0
 30
0.0
 11
330.0
 21
800.0
 31
0.0
  0
INSERT
  5
1D4
330
1CE
100
AcDbEntity
  8
Ｓ_１_１
 62
     2
100
AcDbBlockReference
  2
EX_NORM
 10
330.0
 20
835.0
 30
0.0
 41
15.0
 42
15.0
 43
15.0
 50
90.0
  0
INSERT
  5
1D5
330
1CE
100
AcDbEntity
  8
Ｓ_１_１
 62
     2
100
AcDbBlockReference
  2
EX_NORM
 10
330.0
 20
785.0
 30
0.0
 41
15.0
 42
15.0
 43
15.0
 50
270.0
  0
MTEXT
  5
1D6
330
1CE
100
AcDbEntity
  8
Ｓ_１_１
 62
     2
100
AcDbMText
 10
316.2500000000001
 20
810.0
 30
0.0
 40
17.3145207852194
 41
0.0
 71
     5
 72
     1
  1
50
  7
EXCADDIM1
 11
0.0
 21
1.0
 31
0.0
  0
POINT
  5
1D7
330
1CE
100
AcDbEntity
  8
DEFPOINTS
 62
     0
100
AcDbPoint
 10
399.999926
 20
835.0
 30
0.0
  0
POINT
  5
1D8
330
1CE
100
AcDbEntity
  8
DEFPOINTS
 62
     0
100
AcDbPoint
 10
399.999926
 20
785.0
 30
0.0
  0
POINT
  5
1D9
330
1CE
100
AcDbEntity
  8
DEFPOINTS
 62
     0
100
AcDbPoint
 10
330.0
 20
785.0
 30
0.0
  0
ENDBLK
  5
1D0
330
1CE
100
AcDbEntity
  8
0
100
AcDbBlockEnd
  0
BLOCK
  5
281
330
280
100
AcDbEntity
  8
0
100
AcDbBlockBegin
  2
*D28
 70
     1
 10
0.0
 20
0.0
 30
0.0
  3
*D28
  1

  0
LINE
  5
283
330
280
100
AcDbEntity
  8
Ｓ_１_１
  6
CONTINUOUS
 62
     2
100
AcDbLine
 10
530.0
 20
1072.5000586691
 30
0.0
 11
530.0
 21
1205.0
 31
0.0
  0
LINE
  5
284
330
280
100
AcDbEntity
  8
Ｓ_１_１
  6
CONTINUOUS
 62
     2
100
AcDbLine
 10
385.0
 20
1200.0
 30
0.0
 11
515.0
 21
1200.0
 31
0.0
  0
INSERT
  5
285
330
280
100
AcDbEntity
  8
Ｓ_１_１
 62
     2
100
AcDbBlockReference
  2
EX_NORM
 10
370.0
 20
1200.0
 30
0.0
 41
15.0
 42
15.0
 43
15.0
 50
180.0
  0
INSERT
  5
286
330
280
100
AcDbEntity
  8
Ｓ_１_１
 62
     2
100
AcDbBlockReference
  2
EX_NORM
 10
530.0
 20
1200.0
 30
0.0
 41
15.0
 42
15.0
 43
15.0
  0
MTEXT
  5
287
330
280
100
AcDbEntity
  8
Ｓ_１_１
 62
     2
100
AcDbMText
 10
450.0000000000001
 20
1213.75
 30
0.0
 40
17.3145207852194
 41
0.0
 71
     5
 72
     1
  1
160
  7
EXCADDIM1
  0
POINT
  5
288
330
280
100
AcDbEntity
  8
DEFPOINTS
 62
     0
100
AcDbPoint
 10
370.0
 20
1065.0000081247
 30
0.0
  0
POINT
  5
289
330
280
100
AcDbEntity
  8
DEFPOINTS
 62
     0
100
AcDbPoint
 10
530.0
 20
1065.0000586691
 30
0.0
  0
POINT
  5
28A
330
280
100
AcDbEntity
  8
DEFPOINTS
 62
     0
100
AcDbPoint
 10
530.0
 20
1200.0
 30
0.0
  0
ENDBLK
  5
282
330
280
100
AcDbEntity
  8
0
100
AcDbBlockEnd
  0
BLOCK
  5
28D
330
28C
100
AcDbEntity
  8
0
100
AcDbBlockBegin
  2
*D29
 70
     1
 10
0.0
 20
0.0
 30
0.0
  3
*D29
  1

  0
LINE
  5
28F
330
28C
100
AcDbEntity
  8
Ｓ_１_１
  6
CONTINUOUS
 62
     2
100
AcDbLine
 10
425.0
 20
1070.8012701892
 30
0.0
 11
425.0
 21
1175.0
 31
0.0
  0
LINE
  5
290
330
28C
100
AcDbEntity
  8
Ｓ_１_１
  6
CONTINUOUS
 62
     2
100
AcDbLine
 10
475.0
 20
1070.8012701892
 30
0.0
 11
475.0
 21
1175.0
 31
0.0
  0
LINE
  5
291
330
28C
100
AcDbEntity
  8
Ｓ_１_１
  6
CONTINUOUS
 62
     2
100
AcDbLine
 10
440.0
 20
1170.0
 30
0.0
 11
460.0
 21
1170.0
 31
0.0
  0
INSERT
  5
292
330
28C
100
AcDbEntity
  8
Ｓ_１_１
 62
     2
100
AcDbBlockReference
  2
EX_NORM
 10
425.0
 20
1170.0
 30
0.0
 41
15.0
 42
15.0
 43
15.0
 50
180.0
  0
INSERT
  5
293
330
28C
100
AcDbEntity
  8
Ｓ_１_１
 62
     2
100
AcDbBlockReference
  2
EX_NORM
 10
475.0
 20
1170.0
 30
0.0
 41
15.0
 42
15.0
 43
15.0
  0
MTEXT
  5
294
330
28C
100
AcDbEntity
  8
Ｓ_１_１
 62
     2
100
AcDbMText
 10
450.0000000000001
 20
1183.75
 30
0.0
 40
17.3145207852194
 41
0.0
 71
     5
 72
     1
  1
50
  7
EXCADDIM1
  0
POINT
  5
295
330
28C
100
AcDbEntity
  8
DEFPOINTS
 62
     0
100
AcDbPoint
 10
425.0
 20
1063.3012701892
 30
0.0
  0
POINT
  5
296
330
28C
100
AcDbEntity
  8
DEFPOINTS
 62
     0
100
AcDbPoint
 10
475.0
 20
1063.3012701892
 30
0.0
  0
POINT
  5
297
330
28C
100
AcDbEntity
  8
DEFPOINTS
 62
     0
100
AcDbPoint
 10
475.0
 20
1170.0
 30
0.0
  0
ENDBLK
  5
28E
330
28C
100
AcDbEntity
  8
0
100
AcDbBlockEnd
  0
BLOCK
  5
29A
330
299
100
AcDbEntity
  8
0
100
AcDbBlockBegin
  2
*D30
 70
     1
 10
0.0
 20
0.0
 30
0.0
  3
*D30
  1

  0
LINE
  5
29C
330
299
100
AcDbEntity
  8
Ｓ_１_１
  6
CONTINUOUS
 62
     2
100
AcDbLine
 10
370.0
 20
1170.0
 30
0.0
 11
368.0001219999999
 21
1170.0
 31
0.0
  0
LINE
  5
29D
330
299
100
AcDbEntity
  8
Ｓ_１_１
  6
CONTINUOUS
 62
     2
100
AcDbLine
 10
385.0
 20
1170.0
 30
0.0
 11
400.0
 21
1170.0
 31
0.0
  0
LINE
  5
29E
330
299
100
AcDbEntity
  8
Ｓ_１_１
  6
CONTINUOUS
 62
     2
100
AcDbLine
 10
353.0001219999999
 20
1170.0
 30
0.0
 11
338.0001219999999
 21
1170.0
 31
0.0
  0
INSERT
  5
29F
330
299
100
AcDbEntity
  8
Ｓ_１_１
 62
     2
100
AcDbBlockReference
  2
EX_NORM
 10
370.0
 20
1170.0
 30
0.0
 41
15.0
 42
15.0
 43
15.0
 50
180.0
  0
INSERT
  5
2A0
330
299
100
AcDbEntity
  8
Ｓ_１_１
 62
     2
100
AcDbBlockReference
  2
EX_BCIR
 10
368.0001219999999
 20
1170.0
 30
0.0
 41
15.0
 42
15.0
 43
15.0
  0
MTEXT
  5
2A1
330
299
100
AcDbEntity
  8
Ｓ_１_１
 62
     2
100
AcDbMText
 10
390.6250000000003
 20
1183.75
 30
0.0
 40
17.3145207852194
 41
0.0
 71
     5
 72
     1
  1
2
  7
EXCADDIM1
  0
POINT
  5
2A2
330
299
100
AcDbEntity
  8
DEFPOINTS
 62
     0
100
AcDbPoint
 10
370.0
 20
1065.0000081247
 30
0.0
  0
POINT
  5
2A3
330
299
100
AcDbEntity
  8
DEFPOINTS
 62
     0
100
AcDbPoint
 10
368.0001219999999
 20
1057.5
 30
0.0
  0
POINT
  5
2A4
330
299
100
AcDbEntity
  8
DEFPOINTS
 62
     0
100
AcDbPoint
 10
368.0001219999999
 20
1170.0
 30
0.0
  0
ENDBLK
  5
29B
330
299
100
AcDbEntity
  8
0
100
AcDbBlockEnd
  0
BLOCK
  5
2B1
330
2B0
100
AcDbEntity
  8
0
100
AcDbBlockBegin
  2
*D31
 70
     1
 10
0.0
 20
0.0
 30
0.0
  3
*D31
  1

  0
LINE
  5
2B3
330
2B0
100
AcDbEntity
  8
Ｓ_１_１
  6
CONTINUOUS
 62
     2
100
AcDbLine
 10
360.5001219999999
 20
1057.5
 30
0.0
 11
234.9999999999998
 21
1057.5
 31
0.0
  0
LINE
  5
2B4
330
2B0
100
AcDbEntity
  8
Ｓ_１_１
  6
CONTINUOUS
 62
     2
100
AcDbLine
 10
360.5001219999999
 20
982.5
 30
0.0
 11
234.9999999999998
 21
982.5
 31
0.0
  0
LINE
  5
2B5
330
2B0
100
AcDbEntity
  8
Ｓ_１_１
  6
CONTINUOUS
 62
     2
100
AcDbLine
 10
240.0000000000001
 20
1042.5
 30
0.0
 11
240.0000000000001
 21
997.5
 31
0.0
  0
INSERT
  5
2B6
330
2B0
100
AcDbEntity
  8
Ｓ_１_１
 62
     2
100
AcDbBlockReference
  2
EX_NORM
 10
240.0000000000001
 20
1057.5
 30
0.0
 41
15.0
 42
15.0
 43
15.0
 50
90.0
  0
INSERT
  5
2B7
330
2B0
100
AcDbEntity
  8
Ｓ_１_１
 62
     2
100
AcDbBlockReference
  2
EX_NORM
 10
240.0000000000001
 20
982.5
 30
0.0
 41
15.0
 42
15.0
 43
15.0
 50
270.0
  0
MTEXT
  5
2B8
330
2B0
100
AcDbEntity
  8
Ｓ_１_１
 62
     2
100
AcDbMText
 10
226.2500000000001
 20
1020.0
 30
0.0
 40
17.3145207852194
 41
0.0
 71
     5
 72
     1
  1
%%c75
  7
EXCADDIM1
 11
0.0
 21
1.0
 31
0.0
  0
POINT
  5
2B9
330
2B0
100
AcDbEntity
  8
DEFPOINTS
 62
     0
100
AcDbPoint
 10
368.0001219999999
 20
1057.5
 30
0.0
  0
POINT
  5
2BA
330
2B0
100
AcDbEntity
  8
DEFPOINTS
 62
     0
100
AcDbPoint
 10
368.0001219999999
 20
982.5
 30
0.0
  0
POINT
  5
2BB
330
2B0
100
AcDbEntity
  8
DEFPOINTS
 62
     0
100
AcDbPoint
 10
240.0000000000001
 20
982.5
 30
0.0
  0
ENDBLK
  5
2B2
330
2B0
100
AcDbEntity
  8
0
100
AcDbBlockEnd
  0
BLOCK
  5
2BE
330
2BD
100
AcDbEntity
  8
0
100
AcDbBlockBegin
  2
*D32
 70
     1
 10
0.0
 20
0.0
 30
0.0
  3
*D32
  1

  0
LINE
  5
2C0
330
2BD
100
AcDbEntity
  8
Ｓ_１_１
  6
CONTINUOUS
 62
     2
100
AcDbLine
 10
362.5
 20
1065.0
 30
0.0
 11
204.9999999999998
 21
1065.0
 31
0.0
  0
LINE
  5
2C1
330
2BD
100
AcDbEntity
  8
Ｓ_１_１
  6
CONTINUOUS
 62
     2
100
AcDbLine
 10
362.5
 20
975.0
 30
0.0
 11
204.9999999999998
 21
975.0
 31
0.0
  0
LINE
  5
2C2
330
2BD
100
AcDbEntity
  8
Ｓ_１_１
  6
CONTINUOUS
 62
     2
100
AcDbLine
 10
210.0000000000001
 20
1050.0
 30
0.0
 11
210.0000000000001
 21
990.0
 31
0.0
  0
INSERT
  5
2C3
330
2BD
100
AcDbEntity
  8
Ｓ_１_１
 62
     2
100
AcDbBlockReference
  2
EX_NORM
 10
210.0000000000001
 20
1065.0
 30
0.0
 41
15.0
 42
15.0
 43
15.0
 50
90.0
  0
INSERT
  5
2C4
330
2BD
100
AcDbEntity
  8
Ｓ_１_１
 62
     2
100
AcDbBlockReference
  2
EX_NORM
 10
210.0000000000001
 20
975.0
 30
0.0
 41
15.0
 42
15.0
 43
15.0
 50
270.0
  0
MTEXT
  5
2C5
330
2BD
100
AcDbEntity
  8
Ｓ_１_１
 62
     2
100
AcDbMText
 10
196.2500000000001
 20
1020.0
 30
0.0
 40
17.3145207852194
 41
0.0
 71
     5
 72
     1
  1
90
  7
EXCADDIM1
 11
0.0
 21
1.0
 31
0.0
  0
POINT
  5
2C6
330
2BD
100
AcDbEntity
  8
DEFPOINTS
 62
     0
100
AcDbPoint
 10
370.0
 20
1065.0
 30
0.0
  0
POINT
  5
2C7
330
2BD
100
AcDbEntity
  8
DEFPOINTS
 62
     0
100
AcDbPoint
 10
370.0
 20
975.0
 30
0.0
  0
POINT
  5
2C8
330
2BD
100
AcDbEntity
  8
DEFPOINTS
 62
     0
100
AcDbPoint
 10
210.0000000000001
 20
975.0
 30
0.0
  0
ENDBLK
  5
2BF
330
2BD
100
AcDbEntity
  8
0
100
AcDbBlockEnd
  0
BLOCK
  5
2CB
330
2CA
100
AcDbEntity
  8
0
100
AcDbBlockBegin
  2
*D33
 70
     1
 10
0.0
 20
0.0
 30
0.0
  3
*D33
  1

  0
LINE
  5
2CD
330
2CA
100
AcDbEntity
  8
Ｓ_１_１
  6
CONTINUOUS
 62
     2
100
AcDbLine
 10
481.2499999999993
 20
965.8734122634721
 30
0.0
 11
418.7500000000007
 21
1074.126587736528
 31
0.0
  0
MTEXT
  5
2CE
330
2CA
100
AcDbEntity
  8
Ｓ_１_１
 62
     2
100
AcDbMText
 10
515.9703493020352
 20
933.2360032158064
 30
0.0
 40
17.3145207852194
 41
0.0
 71
     5
 72
     1
  1
%%c155
  7
EXCADDIM1
 11
0.4999999999999886
 21
-0.8660254037844453
 31
0.0
  0
LINE
  5
2CF
330
2CA
100
AcDbEntity
  8
Ｓ_１_１
  6
CONTINUOUS
 62
     2
100
AcDbLine
 10
411.2500000000009
 20
1087.116968793295
 30
0.0
 11
488.7499999999991
 21
952.8830312067055
 31
0.0
  0
INSERT
  5
2D0
330
2CA
100
AcDbEntity
  8
Ｓ_１_１
 62
     2
100
AcDbBlockReference
  2
EX_NORM
 10
411.2500000000009
 20
1087.116968793295
 30
0.0
 41
15.0
 42
15.0
 43
15.0
 50
119.9999999999993
  0
INSERT
  5
2D1
330
2CA
100
AcDbEntity
  8
Ｓ_１_１
 62
     2
100
AcDbBlockReference
  2
EX_NORM
 10
488.7499999999991
 20
952.8830312067055
 30
0.0
 41
15.0
 42
15.0
 43
15.0
 50
299.9999999999993
  0
POINT
  5
2D2
330
2CA
100
AcDbEntity
  8
DEFPOINTS
 62
     0
100
AcDbPoint
 10
488.7499999999991
 20
952.8830312067055
 30
0.0
  0
POINT
  5
2D3
330
2CA
100
AcDbEntity
  8
DEFPOINTS
 62
     0
100
AcDbPoint
 10
411.2500000000009
 20
1087.116968793295
 30
0.0
  0
ENDBLK
  5
2CC
330
2CA
100
AcDbEntity
  8
0
100
AcDbBlockEnd
  0
BLOCK
  5
32F
330
32E
100
AcDbEntity
  8
0
100
AcDbBlockBegin
  2
*D34
 70
     1
 10
0.0
 20
0.0
 30
0.0
  3
*D34
  1

  0
LINE
  5
331
330
32E
100
AcDbEntity
  8
Ｓ_１_１
  6
CONTINUOUS
 62
     2
100
AcDbLine
 10
449.3933332822019
 20
349.3933982822017
 30
0.0
 11
470.6065367177983
 21
370.6066017177981
 31
0.0
  0
MTEXT
  5
332
330
32E
100
AcDbEntity
  8
Ｓ_１_１
 62
     2
100
AcDbMText
 10
365.086343793425
 20
284.5318452760549
 30
0.0
 40
17.3145207852194
 41
0.0
 71
     5
 72
     1
  1
%%c60
  7
EXCADDIM1
 11
0.7071067811865485
 21
0.7071067811865466
 31
0.0
  0
LINE
  5
333
330
32E
100
AcDbEntity
  8
Ｓ_１_１
  6
CONTINUOUS
 62
     2
100
AcDbLine
 10
481.2131384355965
 20
381.2132034355963
 30
0.0
 11
438.7867315644036
 21
338.7867965644035
 31
0.0
  0
INSERT
  5
334
330
32E
100
AcDbEntity
  8
Ｓ_１_１
 62
     2
100
AcDbBlockReference
  2
EX_NORM
 10
481.2131384355965
 20
381.2132034355963
 30
0.0
 41
15.0
 42
15.0
 43
15.0
 50
44.99999999999992
  0
INSERT
  5
335
330
32E
100
AcDbEntity
  8
Ｓ_１_１
 62
     2
100
AcDbBlockReference
  2
EX_NORM
 10
438.7867315644036
 20
338.7867965644035
 30
0.0
 41
15.0
 42
15.0
 43
15.0
 50
224.9999999999999
  0
POINT
  5
336
330
32E
100
AcDbEntity
  8
DEFPOINTS
 62
     0
100
AcDbPoint
 10
438.7867315644036
 20
338.7867965644035
 30
0.0
  0
POINT
  5
337
330
32E
100
AcDbEntity
  8
DEFPOINTS
 62
     0
100
AcDbPoint
 10
481.2131384355965
 20
381.2132034355963
 30
0.0
  0
ENDBLK
  5
330
330
32E
100
AcDbEntity
  8
0
100
AcDbBlockEnd
  0
BLOCK
  5
34A
330
349
100
AcDbEntity
  8
0
100
AcDbBlockBegin
  2
*D35
 70
     1
 10
0.0
 20
0.0
 30
0.0
  3
*D35
  1

  0
LINE
  5
34C
330
349
100
AcDbEntity
  8
Ｓ_１_１
  6
CONTINUOUS
 62
     2
100
AcDbLine
 10
930.0
 20
742.9999389999999
 30
0.0
 11
930.0
 21
876.9999389999999
 31
0.0
  0
INSERT
  5
34D
330
349
100
AcDbEntity
  8
Ｓ_１_１
 62
     2
100
AcDbBlockReference
  2
EX_NORM
 10
930.0
 20
727.9999389999999
 30
0.0
 41
15.0
 42
15.0
 43
15.0
 50
270.0
  0
INSERT
  5
34E
330
349
100
AcDbEntity
  8
Ｓ_１_１
 62
     2
100
AcDbBlockReference
  2
EX_NORM
 10
930.0
 20
891.9999389999999
 30
0.0
 41
15.0
 42
15.0
 43
15.0
 50
90.0
  0
MTEXT
  5
34F
330
349
100
AcDbEntity
  8
Ｓ_１_１
 62
     2
100
AcDbMText
 10
916.25
 20
809.999939
 30
0.0
 40
17.3145207852194
 41
0.0
 71
     5
 72
     1
  1
　　　164
  7
EXCADDIM1
 11
0.0
 21
1.0
 31
0.0
  0
POINT
  5
350
330
349
100
AcDbEntity
  8
DEFPOINTS
 62
     0
100
AcDbPoint
 10
862.499987
 20
727.999939
 30
0.0
  0
POINT
  5
351
330
349
100
AcDbEntity
  8
DEFPOINTS
 62
     0
100
AcDbPoint
 10
862.499987
 20
891.999939
 30
0.0
  0
POINT
  5
352
330
349
100
AcDbEntity
  8
DEFPOINTS
 62
     0
100
AcDbPoint
 10
930.0
 20
891.9999389999999
 30
0.0
  0
ENDBLK
  5
34B
330
349
100
AcDbEntity
  8
0
100
AcDbBlockEnd
  0
BLOCK
  5
355
330
354
100
AcDbEntity
  8
0
100
AcDbBlockBegin
  2
*D36
 70
     1
 10
0.0
 20
0.0
 30
0.0
  3
*D36
  1

  0
LINE
  5
357
330
354
100
AcDbEntity
  8
Ｓ_１_１
  6
CONTINUOUS
 62
     2
100
AcDbLine
 10
869.999987
 20
891.999939
 30
0.0
 11
935.0
 21
891.9999389999999
 31
0.0
  0
LINE
  5
358
330
354
100
AcDbEntity
  8
Ｓ_１_１
  6
CONTINUOUS
 62
     2
100
AcDbLine
 10
930.0
 20
909.0000609999998
 30
0.0
 11
930.0
 21
906.9999389999999
 31
0.0
  0
INSERT
  5
359
330
354
100
AcDbEntity
  8
Ｓ_１_１
 62
     2
100
AcDbBlockReference
  2
EX_NORM
 10
930.0
 20
924.0000609999998
 30
0.0
 41
15.0
 42
15.0
 43
15.0
 50
90.0
  0
INSERT
  5
35A
330
354
100
AcDbEntity
  8
Ｓ_１_１
 62
     2
100
AcDbBlockReference
  2
EX_NORM
 10
930.0
 20
891.9999389999999
 30
0.0
 41
15.0
 42
15.0
 43
15.0
 50
270.0
  0
MTEXT
  5
35B
330
354
100
AcDbEntity
  8
Ｓ_１_１
 62
     2
100
AcDbMText
 10
916.2500000000001
 20
950.250061
 30
0.0
 40
17.3145207852194
 41
0.0
 71
     5
 72
     1
  1
32
  7
EXCADDIM1
 11
0.0
 21
1.0
 31
0.0
  0
POINT
  5
35C
330
354
100
AcDbEntity
  8
DEFPOINTS
 62
     0
100
AcDbPoint
 10
854.00014200007
 20
924.000061
 30
0.0
  0
POINT
  5
35D
330
354
100
AcDbEntity
  8
DEFPOINTS
 62
     0
100
AcDbPoint
 10
862.499987
 20
891.999939
 30
0.0
  0
POINT
  5
35E
330
354
100
AcDbEntity
  8
DEFPOINTS
 62
     0
100
AcDbPoint
 10
930.0
 20
891.9999389999999
 30
0.0
  0
ENDBLK
  5
356
330
354
100
AcDbEntity
  8
0
100
AcDbBlockEnd
  0
BLOCK
  5
361
330
360
100
AcDbEntity
  8
0
100
AcDbBlockBegin
  2
*D37
 70
     1
 10
0.0
 20
0.0
 30
0.0
  3
*D37
  1

  0
LINE
  5
363
330
360
100
AcDbEntity
  8
Ｓ_１_１
  6
CONTINUOUS
 62
     2
100
AcDbLine
 10
869.999987
 20
727.999939
 30
0.0
 11
935.0
 21
727.9999389999999
 31
0.0
  0
LINE
  5
364
330
360
100
AcDbEntity
  8
Ｓ_１_１
  6
CONTINUOUS
 62
     2
100
AcDbLine
 10
930.0
 20
712.9999389999999
 30
0.0
 11
930.0
 21
710.9999389999998
 31
0.0
  0
INSERT
  5
365
330
360
100
AcDbEntity
  8
Ｓ_１_１
 62
     2
100
AcDbBlockReference
  2
EX_NORM
 10
930.0
 20
727.9999389999999
 30
0.0
 41
15.0
 42
15.0
 43
15.0
 50
90.0
  0
INSERT
  5
366
330
360
100
AcDbEntity
  8
Ｓ_１_１
 62
     2
100
AcDbBlockReference
  2
EX_NORM
 10
930.0
 20
695.9999389999998
 30
0.0
 41
15.0
 42
15.0
 43
15.0
 50
270.0
  0
MTEXT
  5
367
330
360
100
AcDbEntity
  8
Ｓ_１_１
 62
     2
100
AcDbMText
 10
916.2500000000001
 20
669.7499389999999
 30
0.0
 40
17.3145207852194
 41
0.0
 71
     5
 72
     1
  1
32
  7
EXCADDIM1
 11
0.0
 21
1.0
 31
0.0
  0
POINT
  5
368
330
360
100
AcDbEntity
  8
DEFPOINTS
 62
     0
100
AcDbPoint
 10
862.499987
 20
727.999939
 30
0.0
  0
POINT
  5
369
330
360
100
AcDbEntity
  8
DEFPOINTS
 62
     0
100
AcDbPoint
 10
854.00014200007
 20
695.9999389999999
 30
0.0
  0
POINT
  5
36A
330
360
100
AcDbEntity
  8
DEFPOINTS
 62
     0
100
AcDbPoint
 10
930.0
 20
695.9999389999998
 30
0.0
  0
ENDBLK
  5
362
330
360
100
AcDbEntity
  8
0
100
AcDbBlockEnd
  0
BLOCK
  5
36D
330
36C
100
AcDbEntity
  8
0
100
AcDbBlockBegin
  2
*D38
 70
     1
 10
0.0
 20
0.0
 30
0.0
  3
*D38
  1

  0
LINE
  5
36F
330
36C
100
AcDbEntity
  8
Ｓ_１_１
  6
CONTINUOUS
 62
     2
100
AcDbLine
 10
861.50014200007
 20
695.9999389999999
 30
0.0
 11
965.0
 21
695.9999389999998
 31
0.0
  0
LINE
  5
370
330
36C
100
AcDbEntity
  8
Ｓ_１_１
  6
CONTINUOUS
 62
     2
100
AcDbLine
 10
861.50014200007
 20
924.000061
 30
0.0
 11
965.0
 21
924.0000609999998
 31
0.0
  0
LINE
  5
371
330
36C
100
AcDbEntity
  8
Ｓ_１_１
  6
CONTINUOUS
 62
     2
100
AcDbLine
 10
960.0
 20
710.9999389999998
 30
0.0
 11
960.0
 21
909.0000609999998
 31
0.0
  0
INSERT
  5
372
330
36C
100
AcDbEntity
  8
Ｓ_１_１
 62
     2
100
AcDbBlockReference
  2
EX_NORM
 10
960.0
 20
695.9999389999998
 30
0.0
 41
15.0
 42
15.0
 43
15.0
 50
270.0
  0
INSERT
  5
373
330
36C
100
AcDbEntity
  8
Ｓ_１_１
 62
     2
100
AcDbBlockReference
  2
EX_NORM
 10
960.0
 20
924.0000609999998
 30
0.0
 41
15.0
 42
15.0
 43
15.0
 50
90.0
  0
MTEXT
  5
374
330
36C
100
AcDbEntity
  8
Ｓ_１_１
 62
     2
100
AcDbMText
 10
946.25
 20
810.0
 30
0.0
 40
17.3145207852194
 41
0.0
 71
     5
 72
     1
  1
　　　228
  7
EXCADDIM1
 11
0.0
 21
1.0
 31
0.0
  0
POINT
  5
375
330
36C
100
AcDbEntity
  8
DEFPOINTS
 62
     0
100
AcDbPoint
 10
854.00014200007
 20
695.9999389999999
 30
0.0
  0
POINT
  5
376
330
36C
100
AcDbEntity
  8
DEFPOINTS
 62
     0
100
AcDbPoint
 10
854.00014200007
 20
924.000061
 30
0.0
  0
POINT
  5
377
330
36C
100
AcDbEntity
  8
DEFPOINTS
 62
     0
100
AcDbPoint
 10
960.0
 20
924.0000609999998
 30
0.0
  0
ENDBLK
  5
36E
330
36C
100
AcDbEntity
  8
0
100
AcDbBlockEnd
  0
BLOCK
  5
387
330
386
100
AcDbEntity
  8
0
100
AcDbBlockBegin
  2
*D39
 70
     1
 10
0.0
 20
0.0
 30
0.0
  3
*D39
  1

  0
LINE
  5
389
330
386
100
AcDbEntity
  8
Ｓ_１_１
  6
CONTINUOUS
 62
     2
100
AcDbLine
 10
368.000122
 20
1065.0
 30
0.0
 11
368.000122
 21
1175.0
 31
0.0
  0
LINE
  5
38A
330
386
100
AcDbEntity
  8
Ｓ_１_１
  6
CONTINUOUS
 62
     2
100
AcDbLine
 10
363.000122
 20
1170.0
 30
0.0
 11
341.0
 21
1170.0
 31
0.0
  0
INSERT
  5
38B
330
386
100
AcDbEntity
  8
Ｓ_１_１
 62
     2
100
AcDbBlockReference
  2
EX_BCIR
 10
368.000122
 20
1170.0
 30
0.0
 41
5.0
 42
5.0
 43
5.0
  0
INSERT
  5
38C
330
386
100
AcDbEntity
  8
Ｓ_１_１
 62
     2
100
AcDbBlockReference
  2
EX_NORM
 10
336.0
 20
1170.0
 30
0.0
 41
5.0
 42
5.0
 43
5.0
 50
180.0
  0
MTEXT
  5
38D
330
386
100
AcDbEntity
  8
Ｓ_１_１
 62
     2
100
AcDbMText
 10
309.7500000000003
 20
1183.75
 30
0.0
 40
17.3145207852194
 41
0.0
 71
     5
 72
     1
  1
32
  7
EXCADDIM1
  0
POINT
  5
38E
330
386
100
AcDbEntity
  8
DEFPOINTS
 62
     0
100
AcDbPoint
 10
368.000122
 20
1057.5
 30
0.0
  0
POINT
  5
38F
330
386
100
AcDbEntity
  8
DEFPOINTS
 62
     0
100
AcDbPoint
 10
336.0
 20
1048.9998909999
 30
0.0
  0
POINT
  5
390
330
386
100
AcDbEntity
  8
DEFPOINTS
 62
     0
100
AcDbPoint
 10
336.0
 20
1170.0
 30
0.0
  0
ENDBLK
  5
388
330
386
100
AcDbEntity
  8
0
100
AcDbBlockEnd
  0
BLOCK
  5
393
330
392
100
AcDbEntity
  8
0
100
AcDbBlockBegin
  2
*D40
 70
     1
 10
0.0
 20
0.0
 30
0.0
  3
*D40
  1

  0
LINE
  5
395
330
392
100
AcDbEntity
  8
Ｓ_１_１
  6
CONTINUOUS
 62
     2
100
AcDbLine
 10
370.0
 20
1072.5000081247
 30
0.0
 11
370.0
 21
1205.0
 31
0.0
  0
LINE
  5
396
330
392
100
AcDbEntity
  8
Ｓ_１_１
  6
CONTINUOUS
 62
     2
100
AcDbLine
 10
336.0
 20
1056.4998909999
 30
0.0
 11
336.0
 21
1205.0
 31
0.0
  0
LINE
  5
397
330
392
100
AcDbEntity
  8
Ｓ_１_１
  6
CONTINUOUS
 62
     2
100
AcDbLine
 10
355.0
 20
1200.0
 30
0.0
 11
351.0
 21
1200.0
 31
0.0
  0
INSERT
  5
398
330
392
100
AcDbEntity
  8
Ｓ_１_１
 62
     2
100
AcDbBlockReference
  2
EX_NORM
 10
370.0
 20
1200.0
 30
0.0
 41
15.0
 42
15.0
 43
15.0
  0
INSERT
  5
399
330
392
100
AcDbEntity
  8
Ｓ_１_１
 62
     2
100
AcDbBlockReference
  2
EX_NORM
 10
336.0
 20
1200.0
 30
0.0
 41
15.0
 42
15.0
 43
15.0
 50
180.0
  0
MTEXT
  5
39A
330
392
100
AcDbEntity
  8
Ｓ_１_１
 62
     2
100
AcDbMText
 10
309.7500000000003
 20
1213.75
 30
0.0
 40
17.3145207852194
 41
0.0
 71
     5
 72
     1
  1
34
  7
EXCADDIM1
  0
POINT
  5
39B
330
392
100
AcDbEntity
  8
DEFPOINTS
 62
     0
100
AcDbPoint
 10
370.0
 20
1065.0000081247
 30
0.0
  0
POINT
  5
39C
330
392
100
AcDbEntity
  8
DEFPOINTS
 62
     0
100
AcDbPoint
 10
336.0
 20
1048.9998909999
 30
0.0
  0
POINT
  5
39D
330
392
100
AcDbEntity
  8
DEFPOINTS
 62
     0
100
AcDbPoint
 10
336.0
 20
1200.0
 30
0.0
  0
ENDBLK
  5
394
330
392
100
AcDbEntity
  8
0
100
AcDbBlockEnd
  0
BLOCK
  5
442
330
441
100
AcDbEntity
  8
0
100
AcDbBlockBegin
  2
*D41
 70
     1
 10
0.0
 20
0.0
 30
0.0
  3
*D41
  1

  0
LINE
  5
444
330
441
100
AcDbEntity
  8
Ｓ_１_１
  6
CONTINUOUS
 62
     2
100
AcDbLine
 10
619.999935
 20
425.499901
 30
0.0
 11
619.999935
 21
575.0
 31
0.0
  0
LINE
  5
445
330
441
100
AcDbEntity
  8
Ｓ_１_１
  6
CONTINUOUS
 62
     2
100
AcDbLine
 10
689.999996
 20
526.65
 30
0.0
 11
689.999996
 21
575.0
 31
0.0
  0
LINE
  5
446
330
441
100
AcDbEntity
  8
Ｓ_１_１
  6
CONTINUOUS
 62
     2
100
AcDbLine
 10
634.999935
 20
570.0
 30
0.0
 11
674.999996
 21
570.0
 31
0.0
  0
INSERT
  5
447
330
441
100
AcDbEntity
  8
Ｓ_１_１
 62
     2
100
AcDbBlockReference
  2
EX_NORM
 10
619.999935
 20
570.0
 30
0.0
 41
15.0
 42
15.0
 43
15.0
 50
180.0
  0
INSERT
  5
448
330
441
100
AcDbEntity
  8
Ｓ_１_１
 62
     2
100
AcDbBlockReference
  2
EX_NORM
 10
689.999996
 20
570.0
 30
0.0
 41
15.0
 42
15.0
 43
15.0
  0
MTEXT
  5
449
330
441
100
AcDbEntity
  8
Ｓ_１_１
 62
     2
100
AcDbMText
 10
654.9999655
 20
583.75
 30
0.0
 40
17.3145207852194
 41
0.0
 71
     5
 72
     1
  1
70
  7
EXCADDIM1
  0
POINT
  5
44A
330
441
100
AcDbEntity
  8
DEFPOINTS
 62
     0
100
AcDbPoint
 10
619.999935
 20
417.999901
 30
0.0
  0
POINT
  5
44B
330
441
100
AcDbEntity
  8
DEFPOINTS
 62
     0
100
AcDbPoint
 10
689.999996
 20
519.15
 30
0.0
  0
POINT
  5
44C
330
441
100
AcDbEntity
  8
DEFPOINTS
 62
     0
100
AcDbPoint
 10
689.999996
 20
570.0
 30
0.0
  0
ENDBLK
  5
443
330
441
100
AcDbEntity
  8
0
100
AcDbBlockEnd
  0
BLOCK
  5
44F
330
44E
100
AcDbEntity
  8
0
100
AcDbBlockBegin
  2
*D42
 70
     1
 10
0.0
 20
0.0
 30
0.0
  3
*D42
  1

  0
LINE
  5
451
330
44E
100
AcDbEntity
  8
Ｓ_１_１
  6
CONTINUOUS
 62
     2
100
AcDbLine
 10
689.999996
 20
526.65
 30
0.0
 11
689.999996
 21
575.0
 31
0.0
  0
LINE
  5
452
330
44E
100
AcDbEntity
  8
Ｓ_１_１
  6
CONTINUOUS
 62
     2
100
AcDbLine
 10
1745.0
 20
525.232636
 30
0.0
 11
1745.0
 21
575.0
 31
0.0
  0
LINE
  5
453
330
44E
100
AcDbEntity
  8
Ｓ_１_１
  6
CONTINUOUS
 62
     2
100
AcDbLine
 10
704.999996
 20
570.0
 30
0.0
 11
1730.0
 21
570.0
 31
0.0
  0
INSERT
  5
454
330
44E
100
AcDbEntity
  8
Ｓ_１_１
 62
     2
100
AcDbBlockReference
  2
EX_NORM
 10
689.999996
 20
570.0
 30
0.0
 41
15.0
 42
15.0
 43
15.0
 50
180.0
  0
INSERT
  5
455
330
44E
100
AcDbEntity
  8
Ｓ_１_１
 62
     2
100
AcDbBlockReference
  2
EX_NORM
 10
1745.0
 20
570.0
 30
0.0
 41
15.0
 42
15.0
 43
15.0
  0
MTEXT
  5
456
330
44E
100
AcDbEntity
  8
Ｓ_１_１
 62
     2
100
AcDbMText
 10
1217.499998
 20
583.75
 30
0.0
 40
17.3145207852194
 41
0.0
 71
     5
 72
     1
  1
1055
  7
EXCADDIM1
  0
POINT
  5
457
330
44E
100
AcDbEntity
  8
DEFPOINTS
 62
     0
100
AcDbPoint
 10
689.999996
 20
519.15
 30
0.0
  0
POINT
  5
458
330
44E
100
AcDbEntity
  8
DEFPOINTS
 62
     0
100
AcDbPoint
 10
1745.0
 20
517.732636
 30
0.0
  0
POINT
  5
459
330
44E
100
AcDbEntity
  8
DEFPOINTS
 62
     0
100
AcDbPoint
 10
1745.0
 20
570.0
 30
0.0
  0
ENDBLK
  5
450
330
44E
100
AcDbEntity
  8
0
100
AcDbBlockEnd
  0
BLOCK
  5
45C
330
45B
100
AcDbEntity
  8
0
100
AcDbBlockBegin
  2
*D43
 70
     1
 10
0.0
 20
0.0
 30
0.0
  3
*D43
  1

  0
LINE
  5
45E
330
45B
100
AcDbEntity
  8
Ｓ_１_１
  6
CONTINUOUS
 62
     2
100
AcDbLine
 10
699.0000264999899
 20
513.86222400002
 30
0.0
 11
755.0
 21
513.86222400002
 31
0.0
  0
LINE
  5
45F
330
45B
100
AcDbEntity
  8
Ｓ_１_１
  6
CONTINUOUS
 62
     2
100
AcDbLine
 10
750.0
 20
498.86222400002
 30
0.0
 11
750.0
 21
435.0
 31
0.0
  0
INSERT
  5
460
330
45B
100
AcDbEntity
  8
Ｓ_１_１
 62
     2
100
AcDbBlockReference
  2
EX_NORM
 10
750.0
 20
513.86222400002
 30
0.0
 41
15.0
 42
15.0
 43
15.0
 50
90.0
  0
INSERT
  5
461
330
45B
100
AcDbEntity
  8
Ｓ_１_１
 62
     2
100
AcDbBlockReference
  2
EX_NORM
 10
750.0
 20
420.0
 30
0.0
 41
15.0
 42
15.0
 43
15.0
 50
270.0
  0
MTEXT
  5
462
330
45B
100
AcDbEntity
  8
Ｓ_１_１
 62
     2
100
AcDbMText
 10
736.25
 20
466.93111200001
 30
0.0
 40
17.3145207852194
 41
0.0
 71
     5
 72
     1
  1
(94)
  7
EXCADDIM1
 11
0.0
 21
1.0
 31
0.0
  0
POINT
  5
463
330
45B
100
AcDbEntity
  8
DEFPOINTS
 62
     0
100
AcDbPoint
 10
691.5000264999899
 20
513.86222400002
 30
0.0
  0
POINT
  5
464
330
45B
100
AcDbEntity
  8
DEFPOINTS
 62
     0
100
AcDbPoint
 10
709.0
 20
420.0
 30
0.0
  0
POINT
  5
465
330
45B
100
AcDbEntity
  8
DEFPOINTS
 62
     0
100
AcDbPoint
 10
750.0
 20
420.0
 30
0.0
  0
ENDBLK
  5
45D
330
45B
100
AcDbEntity
  8
0
100
AcDbBlockEnd
  0
ENDSEC
  0
SECTION
  2
ENTITIES
  0
LINE
  5
D5
330
1F
100
AcDbEntity
  8
図面枠
  6
CONTINUOUS
 62
     5
100
AcDbLine
 10
50.0
 20
50.0
 30
0.0
 11
2050.0
 21
50.0
 31
0.0
  0
LINE
  5
D6
330
1F
100
AcDbEntity
  8
図面枠
  6
CONTINUOUS
 62
     5
100
AcDbLine
 10
2050.0
 20
50.0
 30
0.0
 11
2050.0
 21
1435.0
 31
0.0
  0
LINE
  5
D7
330
1F
100
AcDbEntity
  8
図面枠
  6
CONTINUOUS
 62
     5
100
AcDbLine
 10
2050.0
 20
1435.0
 30
0.0
 11
50.00000000000026
 21
1435.0
 31
0.0
  0
LINE
  5
D8
330
1F
100
AcDbEntity
  8
図面枠
  6
CONTINUOUS
 62
     5
100
AcDbLine
 10
50.00000000000026
 20
1435.0
 30
0.0
 11
50.0
 21
50.0
 31
0.0
  0
LINE
  5
D9
330
1F
100
AcDbEntity
  8
図面枠
  6
CONTINUOUS
 62
     3
100
AcDbLine
 10
75.00000000000009
 20
1410.0
 30
0.0
 11
720.0000000000001
 21
1410.0
 31
0.0
  0
LINE
  5
DA
330
1F
100
AcDbEntity
  8
図面枠
  6
CONTINUOUS
 62
     3
100
AcDbLine
 10
75.00000000000009
 20
1365.0
 30
0.0
 11
720.0000000000001
 21
1365.0
 31
0.0
  0
LINE
  5
DB
330
1F
100
AcDbEntity
  8
図面枠
  6
CONTINUOUS
 62
     3
100
AcDbLine
 10
75.00000000000009
 20
1410.0
 30
0.0
 11
75.00000000000009
 21
1365.0
 31
0.0
  0
LINE
  5
DC
330
1F
100
AcDbEntity
  8
図面枠
  6
CONTINUOUS
 62
     3
100
AcDbLine
 10
720.0000000000001
 20
1410.0
 30
0.0
 11
720.0000000000001
 21
1365.0
 31
0.0
  0
TEXT
  5
DE
330
1F
100
AcDbEntity
  8
図面枠
  6
CONTINUOUS
 62
     4
100
AcDbText
 10
90.00000000000009
 20
1376.71875
 30
0.0
 40
23.08602771362587
  1
300kN1000ストロークトラニオン油圧ジャッキ
 41
0.9992307692307693
  7
EXCADTTF1
 72
     5
 11
705.0000000000001
 21
1376.71875
 31
0.0
100
AcDbText
  0
LINE
  5
DF
330
1F
100
AcDbEntity
  8
図面枠
  6
CONTINUOUS
 62
     3
100
AcDbLine
 10
1845.0
 20
120.0
 30
0.0
 11
2025.0
 21
120.0
 31
0.0
  0
LINE
  5
E0
330
1F
100
AcDbEntity
  8
図面枠
  6
CONTINUOUS
 62
     3
100
AcDbLine
 10
1845.0
 20
75.0
 30
0.0
 11
2025.0
 21
75.0
 31
0.0
  0
LINE
  5
E1
330
1F
100
AcDbEntity
  8
図面枠
  6
CONTINUOUS
 62
     3
100
AcDbLine
 10
1845.0
 20
120.0
 30
0.0
 11
1845.0
 21
75.0
 31
0.0
  0
LINE
  5
E2
330
1F
100
AcDbEntity
  8
図面枠
  6
CONTINUOUS
 62
     3
100
AcDbLine
 10
2025.0
 20
120.0
 30
0.0
 11
2025.0
 21
75.0
 31
0.0
  0
TEXT
  5
E3
330
1F
100
AcDbEntity
  8
図面枠
  6
CONTINUOUS
 62
     4
100
AcDbText
 10
1860.0
 20
86.71875
 30
0.0
 40
23.08602771362587
  1
OTTC-30100
 41
0.9992307692307693
  7
EXCADTTF1
 72
     5
 11
2010.0
 21
86.71875
 31
0.0
100
AcDbText
  0
LINE
  5
E4
330
1F
100
AcDbEntity
  8
図面枠
  6
CONTINUOUS
 62
     3
100
AcDbLine
 10
1225.0
 20
1380.0
 30
0.0
 11
1625.0
 21
1380.0
 31
0.0
  0
TEXT
  5
E5
330
1F
100
AcDbEntity
  8
図面枠
  6
CONTINUOUS
 62
     4
100
AcDbText
 10
1535.0
 20
1356.9140625
 30
0.0
 40
17.3145207852194
  1
kN
 41
0.999230769230769
  7
EXCADTTF1
 72
     5
 11
1557.5
 21
1356.9140625
 31
0.0
100
AcDbText
  0
TEXT
  5
E6
330
1F
100
AcDbEntity
  8
図面枠
  6
CONTINUOUS
 62
     4
100
AcDbText
 10
1235.0
 20
1356.9140625
 30
0.0
 40
17.3145207852194
  1
能力　　　　　押
 41
0.9992307692307693
  7
EXCADTTF1
 72
     5
 11
1415.0
 21
1356.9140625
 31
0.0
100
AcDbText
  0
LINE
  5
E7
330
1F
100
AcDbEntity
  8
図面枠
  6
CONTINUOUS
 62
     2
100
AcDbLine
 10
1625.0
 20
1320.0
 30
0.0
 11
2025.0
 21
1320.0
 31
0.0
  0
TEXT
  5
E8
330
1F
100
AcDbEntity
  8
図面枠
  6
CONTINUOUS
 62
     4
100
AcDbText
 10
1935.0
 20
1296.9140625
 30
0.0
 40
17.3145207852194
  1
MPa
 41
0.9992307692307689
  7
EXCADTTF1
 72
     5
 11
1968.75
 21
1296.9140625
 31
0.0
100
AcDbText
  0
TEXT
  5
E9
330
1F
100
AcDbEntity
  8
図面枠
  6
CONTINUOUS
 62
     4
100
AcDbText
 10
1635.0
 20
1356.9140625
 30
0.0
 40
17.3145207852194
  1
受圧面積　　　押
 41
0.9992307692307693
  7
EXCADTTF1
 72
     5
 11
1815.0
 21
1356.9140625
 31
0.0
100
AcDbText
  0
TEXT
  5
EA
330
1F
100
AcDbEntity
  8
図面枠
  6
CONTINUOUS
 62
     4
100
AcDbText
 10
1635.0
 20
1326.9140625
 30
0.0
 40
17.3145207852194
  1
　　　　　　　引
 41
0.9992307692307693
  7
EXCADTTF1
 72
     5
 11
1815.0
 21
1326.9140625
 31
0.0
100
AcDbText
  0
LINE
  5
EB
330
1F
100
AcDbEntity
  8
図面枠
  6
CONTINUOUS
 62
     2
100
AcDbLine
 10
1825.0
 20
1350.0
 30
0.0
 11
2025.0
 21
1350.0
 31
0.0
  0
LINE
  5
EC
330
1F
100
AcDbEntity
  8
図面枠
  6
CONTINUOUS
 62
     3
100
AcDbLine
 10
1625.0
 20
1380.0
 30
0.0
 11
2025.0
 21
1380.0
 31
0.0
  0
TEXT
  5
ED
330
1F
100
AcDbEntity
  8
図面枠
  6
CONTINUOUS
 62
     4
100
AcDbText
 10
1635.0
 20
1296.9140625
 30
0.0
 40
17.3145207852194
  1
最高使用圧力　押
 41
0.9992307692307693
  7
EXCADTTF1
 72
     5
 11
1815.0
 21
1296.9140625
 31
0.0
100
AcDbText
  0
LINE
  5
EE
330
1F
100
AcDbEntity
  8
図面枠
  6
CONTINUOUS
 62
     3
100
AcDbLine
 10
1225.0
 20
1410.0
 30
0.0
 11
2025.0
 21
1410.0
 31
0.0
  0
TEXT
  5
EF
330
1F
100
AcDbEntity
  8
図面枠
  6
CONTINUOUS
 62
     4
100
AcDbText
 10
1568.75
 20
1386.9140625
 30
0.0
 40
17.3145207852194
  1
仕　　　様
 41
0.9992307692307691
  7
EXCADTTF1
 72
     5
 11
1681.25
 21
1386.9140625
 31
0.0
100
AcDbText
  0
TEXT
  5
F0
330
1F
100
AcDbEntity
  8
図面枠
  6
CONTINUOUS
 62
     4
100
AcDbText
 10
1481.25
 20
1356.9140625
 30
0.0
 40
17.3145207852194
  1
300
 41
0.9992307692307689
  7
EXCADTTF1
 72
     5
 11
1515.0
 21
1356.9140625
 31
0.0
100
AcDbText
  0
TEXT
  5
F1
330
1F
100
AcDbEntity
  8
図面枠
  6
CONTINUOUS
 62
     4
100
AcDbText
 10
1870.0
 20
1356.9140625
 30
0.0
 40
17.3145207852194
  1
63.6
 41
0.999230769230769
  7
EXCADTTF1
 72
     5
 11
1915.0
 21
1356.9140625
 31
0.0
100
AcDbText
  0
TEXT
  5
F2
330
1F
100
AcDbEntity
  8
図面枠
  6
CONTINUOUS
 62
     4
100
AcDbText
 10
1870.0
 20
1326.9140625
 30
0.0
 40
17.3145207852194
  1
35.3
 41
0.999230769230769
  7
EXCADTTF1
 72
     5
 11
1915.0
 21
1326.9140625
 31
0.0
100
AcDbText
  0
TEXT
  5
F3
330
1F
100
AcDbEntity
  8
図面枠
  6
CONTINUOUS
 62
     4
100
AcDbText
 10
1870.0
 20
1296.9140625
 30
0.0
 40
17.3145207852194
  1
47.2
 41
0.999230769230769
  7
EXCADTTF1
 72
     5
 11
1915.0
 21
1296.9140625
 31
0.0
100
AcDbText
  0
TEXT
  5
F4
330
1F
100
AcDbEntity
  8
図面枠
  6
CONTINUOUS
 62
     4
100
AcDbText
 10
1535.0
 20
1326.9140625
 30
0.0
 40
17.3145207852194
  1
kN
 41
0.999230769230769
  7
EXCADTTF1
 72
     5
 11
1557.5
 21
1326.9140625
 31
0.0
100
AcDbText
  0
TEXT
  5
F5
330
1F
100
AcDbEntity
  8
図面枠
  6
CONTINUOUS
 62
     4
100
AcDbText
 10
1235.0
 20
1326.9140625
 30
0.0
 40
17.3145207852194
  1
　　　　　　　引
 41
0.9992307692307693
  7
EXCADTTF1
 72
     5
 11
1415.0
 21
1326.9140625
 31
0.0
100
AcDbText
  0
LINE
  5
F6
330
1F
100
AcDbEntity
  8
図面枠
  6
CONTINUOUS
 62
     2
100
AcDbLine
 10
1425.0
 20
1350.0
 30
0.0
 11
1625.0
 21
1350.0
 31
0.0
  0
TEXT
  5
F7
330
1F
100
AcDbEntity
  8
図面枠
  6
CONTINUOUS
 62
     4
100
AcDbText
 10
1535.0
 20
1206.9140625
 30
0.0
 40
17.3145207852194
  1
mm
 41
0.999230769230769
  7
EXCADTTF1
 72
     5
 11
1557.5
 21
1206.9140625
 31
0.0
100
AcDbText
  0
TEXT
  5
F8
330
1F
100
AcDbEntity
  8
図面枠
  6
CONTINUOUS
 62
     4
100
AcDbText
 10
1535.0
 20
1176.9140625
 30
0.0
 40
17.3145207852194
  1
mm
 41
0.999230769230769
  7
EXCADTTF1
 72
     5
 11
1557.5
 21
1176.9140625
 31
0.0
100
AcDbText
  0
TEXT
  5
F9
330
1F
100
AcDbEntity
  8
図面枠
  6
CONTINUOUS
 62
     4
100
AcDbText
 10
1535.0
 20
1146.9140625
 30
0.0
 40
17.3145207852194
  1
mm
 41
0.999230769230769
  7
EXCADTTF1
 72
     5
 11
1557.5
 21
1146.9140625
 31
0.0
100
AcDbText
  0
TEXT
  5
FA
330
1F
100
AcDbEntity
  8
図面枠
  6
CONTINUOUS
 62
     4
100
AcDbText
 10
1235.0
 20
1146.9140625
 30
0.0
 40
17.3145207852194
  1
ピストン径
 41
0.9992307692307691
  7
EXCADTTF1
 72
     5
 11
1347.5
 21
1146.9140625
 31
0.0
100
AcDbText
  0
LINE
  5
FB
330
1F
100
AcDbEntity
  8
図面枠
  6
CONTINUOUS
 62
     2
100
AcDbLine
 10
1225.0
 20
1230.0
 30
0.0
 11
1625.0
 21
1230.0
 31
0.0
  0
LINE
  5
FC
330
1F
100
AcDbEntity
  8
図面枠
  6
CONTINUOUS
 62
     2
100
AcDbLine
 10
1225.0
 20
1200.0
 30
0.0
 11
1625.0
 21
1200.0
 31
0.0
  0
LINE
  5
FD
330
1F
100
AcDbEntity
  8
図面枠
  6
CONTINUOUS
 62
     2
100
AcDbLine
 10
1225.0
 20
1170.0
 30
0.0
 11
1625.0
 21
1170.0
 31
0.0
  0
TEXT
  5
FE
330
1F
100
AcDbEntity
  8
図面枠
  6
CONTINUOUS
 62
     4
100
AcDbText
 10
1535.0
 20
1296.9140625
 30
0.0
 40
17.3145207852194
  1
mm
 41
0.999230769230769
  7
EXCADTTF1
 72
     5
 11
1557.5
 21
1296.9140625
 31
0.0
100
AcDbText
  0
TEXT
  5
FF
330
1F
100
AcDbEntity
  8
図面枠
  6
CONTINUOUS
 62
     4
100
AcDbText
 10
1535.0
 20
1266.9140625
 30
0.0
 40
17.3145207852194
  1
mm
 41
0.999230769230769
  7
EXCADTTF1
 72
     5
 11
1557.5
 21
1266.9140625
 31
0.0
100
AcDbText
  0
TEXT
  5
100
330
1F
100
AcDbEntity
  8
図面枠
  6
CONTINUOUS
 62
     4
100
AcDbText
 10
1235.0
 20
1296.9140625
 30
0.0
 40
17.3145207852194
  1
ストローク
 41
0.9992307692307691
  7
EXCADTTF1
 72
     5
 11
1347.5
 21
1296.9140625
 31
0.0
100
AcDbText
  0
TEXT
  5
101
330
1F
100
AcDbEntity
  8
図面枠
  6
CONTINUOUS
 62
     4
100
AcDbText
 10
1235.0
 20
1266.9140625
 30
0.0
 40
17.3145207852194
  1
最低機械高
 41
0.9992307692307691
  7
EXCADTTF1
 72
     5
 11
1347.5
 21
1266.9140625
 31
0.0
100
AcDbText
  0
LINE
  5
102
330
1F
100
AcDbEntity
  8
図面枠
  6
CONTINUOUS
 62
     2
100
AcDbLine
 10
1225.0
 20
1320.0
 30
0.0
 11
1625.0
 21
1320.0
 31
0.0
  0
LINE
  5
103
330
1F
100
AcDbEntity
  8
図面枠
  6
CONTINUOUS
 62
     2
100
AcDbLine
 10
1225.0
 20
1290.0
 30
0.0
 11
1625.0
 21
1290.0
 31
0.0
  0
LINE
  5
104
330
1F
100
AcDbEntity
  8
図面枠
  6
CONTINUOUS
 62
     2
100
AcDbLine
 10
1225.0
 20
1260.0
 30
0.0
 11
1625.0
 21
1260.0
 31
0.0
  0
TEXT
  5
105
330
1F
100
AcDbEntity
  8
図面枠
  6
CONTINUOUS
 62
     4
100
AcDbText
 10
1535.0
 20
1236.9140625
 30
0.0
 40
17.3145207852194
  1
mm
 41
0.999230769230769
  7
EXCADTTF1
 72
     5
 11
1557.5
 21
1236.9140625
 31
0.0
100
AcDbText
  0
TEXT
  5
106
330
1F
100
AcDbEntity
  8
図面枠
  6
CONTINUOUS
 62
     4
100
AcDbText
 10
1235.0
 20
1176.9140625
 30
0.0
 40
17.3145207852194
  1
ロッド径
 41
0.999230769230769
  7
EXCADTTF1
 72
     5
 11
1325.0
 21
1176.9140625
 31
0.0
100
AcDbText
  0
LINE
  5
107
330
1F
100
AcDbEntity
  8
図面枠
  6
CONTINUOUS
 62
     3
100
AcDbLine
 10
1225.0
 20
1140.0
 30
0.0
 11
1625.0
 21
1140.0
 31
0.0
  0
TEXT
  5
108
330
1F
100
AcDbEntity
  8
図面枠
  6
CONTINUOUS
 62
     4
100
AcDbText
 10
1235.0
 20
1206.9140625
 30
0.0
 40
17.3145207852194
  1
シリンダー外径
 41
0.9992307692307693
  7
EXCADTTF1
 72
     5
 11
1392.5
 21
1206.9140625
 31
0.0
100
AcDbText
  0
TEXT
  5
109
330
1F
100
AcDbEntity
  8
図面枠
  6
CONTINUOUS
 62
     4
100
AcDbText
 10
1235.0
 20
1236.9140625
 30
0.0
 40
17.3145207852194
  1
最低芯間距離
 41
0.9992307692307691
  7
EXCADTTF1
 72
     5
 11
1370.0
 21
1236.9140625
 31
0.0
100
AcDbText
  0
TEXT
  5
10A
330
1F
100
AcDbEntity
  8
図面枠
  6
CONTINUOUS
 62
     4
100
AcDbText
 10
1470.0
 20
1296.9140625
 30
0.0
 40
17.3145207852194
  1
1000
 41
0.999230769230769
  7
EXCADTTF1
 72
     5
 11
1515.0
 21
1296.9140625
 31
0.0
100
AcDbText
  0
TEXT
  5
10B
330
1F
100
AcDbEntity
  8
図面枠
  6
CONTINUOUS
 62
     4
100
AcDbText
 10
1470.0
 20
1266.9140625
 30
0.0
 40
17.3145207852194
  1
1400
 41
0.999230769230769
  7
EXCADTTF1
 72
     5
 11
1515.0
 21
1266.9140625
 31
0.0
100
AcDbText
  0
TEXT
  5
10C
330
1F
100
AcDbEntity
  8
図面枠
  6
CONTINUOUS
 62
     4
100
AcDbText
 10
1481.25
 20
1236.9140625
 30
0.0
 40
17.3145207852194
  1
365
 41
0.9992307692307689
  7
EXCADTTF1
 72
     5
 11
1515.0
 21
1236.9140625
 31
0.0
100
AcDbText
  0
TEXT
  5
10D
330
1F
100
AcDbEntity
  8
図面枠
  6
CONTINUOUS
 62
     4
100
AcDbText
 10
1481.25
 20
1206.9140625
 30
0.0
 40
17.3145207852194
  1
130
 41
0.9992307692307689
  7
EXCADTTF1
 72
     5
 11
1515.0
 21
1206.9140625
 31
0.0
100
AcDbText
  0
TEXT
  5
10E
330
1F
100
AcDbEntity
  8
図面枠
  6
CONTINUOUS
 62
     4
100
AcDbText
 10
1492.5
 20
1176.9140625
 30
0.0
 40
17.3145207852194
  1
60
 41
0.999230769230769
  7
EXCADTTF1
 72
     5
 11
1515.0
 21
1176.9140625
 31
0.0
100
AcDbText
  0
TEXT
  5
10F
330
1F
100
AcDbEntity
  8
図面枠
  6
CONTINUOUS
 62
     4
100
AcDbText
 10
1492.5
 20
1146.9140625
 30
0.0
 40
17.3145207852194
  1
90
 41
0.999230769230769
  7
EXCADTTF1
 72
     5
 11
1515.0
 21
1146.9140625
 31
0.0
100
AcDbText
  0
TEXT
  5
110
330
1F
100
AcDbEntity
  8
図面枠
  6
CONTINUOUS
 62
     4
100
AcDbText
 10
1935.0
 20
1266.9140625
 30
0.0
 40
17.3145207852194
  1
MPa
 41
0.9992307692307689
  7
EXCADTTF1
 72
     5
 11
1968.75
 21
1266.9140625
 31
0.0
100
AcDbText
  0
TEXT
  5
111
330
1F
100
AcDbEntity
  8
図面枠
  6
CONTINUOUS
 62
     4
100
AcDbText
 10
1870.0
 20
1266.9140625
 30
0.0
 40
17.3145207852194
  1
47.2
 41
0.999230769230769
  7
EXCADTTF1
 72
     5
 11
1915.0
 21
1266.9140625
 31
0.0
100
AcDbText
  0
TEXT
  5
112
330
1F
100
AcDbEntity
  8
図面枠
  6
CONTINUOUS
 62
     4
100
AcDbText
 10
1635.0
 20
1266.9140625
 30
0.0
 40
17.3145207852194
  1
　　　　　　　引
 41
0.9992307692307693
  7
EXCADTTF1
 72
     5
 11
1815.0
 21
1266.9140625
 31
0.0
100
AcDbText
  0
LINE
  5
113
330
1F
100
AcDbEntity
  8
図面枠
  6
CONTINUOUS
 62
     2
100
AcDbLine
 10
1825.0
 20
1290.0
 30
0.0
 11
2025.0
 21
1290.0
 31
0.0
  0
TEXT
  5
114
330
1F
100
AcDbEntity
  8
図面枠
  6
CONTINUOUS
 62
     4
100
AcDbText
 10
1935.0
 20
1176.9140625
 30
0.0
 40
17.3145207852194
  1
kg
 41
0.999230769230769
  7
EXCADTTF1
 72
     5
 11
1957.5
 21
1176.9140625
 31
0.0
100
AcDbText
  0
TEXT
  5
115
330
1F
100
AcDbEntity
  8
図面枠
  6
CONTINUOUS
 62
     4
100
AcDbText
 10
1635.0
 20
1176.9140625
 30
0.0
 40
17.3145207852194
  1
重量
 41
0.999230769230769
  7
EXCADTTF1
 72
     5
 11
1680.0
 21
1176.9140625
 31
0.0
100
AcDbText
  0
LINE
  5
116
330
1F
100
AcDbEntity
  8
図面枠
  6
CONTINUOUS
 62
     2
100
AcDbLine
 10
1625.0
 20
1200.0
 30
0.0
 11
2025.0
 21
1200.0
 31
0.0
  0
LINE
  5
117
330
1F
100
AcDbEntity
  8
図面枠
  6
CONTINUOUS
 62
     3
100
AcDbLine
 10
1625.0
 20
1170.0
 30
0.0
 11
2025.0
 21
1170.0
 31
0.0
  0
LINE
  5
118
330
1F
100
AcDbEntity
  8
図面枠
  6
CONTINUOUS
 62
     2
100
AcDbLine
 10
1625.0
 20
1260.0
 30
0.0
 11
2025.0
 21
1260.0
 31
0.0
  0
TEXT
  5
119
330
1F
100
AcDbEntity
  8
図面枠
  6
CONTINUOUS
 62
     4
100
AcDbText
 10
1635.0
 20
1236.9140625
 30
0.0
 40
17.3145207852194
  1
所要油量　　　押
 41
0.9992307692307693
  7
EXCADTTF1
 72
     5
 11
1815.0
 21
1236.9140625
 31
0.0
100
AcDbText
  0
TEXT
  5
11A
330
1F
100
AcDbEntity
  8
図面枠
  6
CONTINUOUS
 62
     4
100
AcDbText
 10
1635.0
 20
1206.9140625
 30
0.0
 40
17.3145207852194
  1
　　　　　　　引
 41
0.9992307692307693
  7
EXCADTTF1
 72
     5
 11
1815.0
 21
1206.9140625
 31
0.0
100
AcDbText
  0
LINE
  5
11B
330
1F
100
AcDbEntity
  8
図面枠
  6
CONTINUOUS
 62
     2
100
AcDbLine
 10
1825.0
 20
1230.0
 30
0.0
 11
2025.0
 21
1230.0
 31
0.0
  0
LINE
  5
11C
330
1F
100
AcDbEntity
  8
図面枠
  6
CONTINUOUS
 62
     3
100
AcDbLine
 10
1225.0
 20
1410.0
 30
0.0
 11
1225.0
 21
1140.0
 31
0.0
  0
LINE
  5
11D
330
1F
100
AcDbEntity
  8
図面枠
  6
CONTINUOUS
 62
     2
100
AcDbLine
 10
1425.0
 20
1380.0
 30
0.0
 11
1425.0
 21
1140.0
 31
0.0
  0
LINE
  5
11E
330
1F
100
AcDbEntity
  8
図面枠
  6
CONTINUOUS
 62
     2
100
AcDbLine
 10
1525.0
 20
1380.0
 30
0.0
 11
1525.0
 21
1140.0
 31
0.0
  0
LINE
  5
11F
330
1F
100
AcDbEntity
  8
図面枠
  6
CONTINUOUS
 62
     3
100
AcDbLine
 10
1625.0
 20
1380.0
 30
0.0
 11
1625.0
 21
1140.0
 31
0.0
  0
LINE
  5
120
330
1F
100
AcDbEntity
  8
図面枠
  6
CONTINUOUS
 62
     2
100
AcDbLine
 10
1825.0
 20
1380.0
 30
0.0
 11
1825.0
 21
1170.0
 31
0.0
  0
LINE
  5
121
330
1F
100
AcDbEntity
  8
図面枠
  6
CONTINUOUS
 62
     2
100
AcDbLine
 10
1925.0
 20
1380.0
 30
0.0
 11
1925.0
 21
1170.0
 31
0.0
  0
LINE
  5
122
330
1F
100
AcDbEntity
  8
図面枠
  6
CONTINUOUS
 62
     3
100
AcDbLine
 10
2025.0
 20
1410.0
 30
0.0
 11
2025.0
 21
1170.0
 31
0.0
  0
TEXT
  5
123
330
1F
100
AcDbEntity
  8
図面枠
  6
CONTINUOUS
 62
     4
100
AcDbText
 10
1935.0
 20
1356.9140625
 30
0.0
 40
17.3145207852194
  1
cm
 41
0.999230769230769
  7
EXCADTTF1
 72
     5
 11
1957.5
 21
1356.9140625
 31
0.0
100
AcDbText
  0
TEXT
  5
124
330
1F
100
AcDbEntity
  8
図面枠
  6
CONTINUOUS
 62
     4
100
AcDbText
 10
1950.75
 20
1367.54882825911
 30
0.0
 40
7.791533619463674
  1
2
 41
0.9992308633483801
  7
EXCADTTF1
 72
     5
 11
1955.8125
 21
1367.54882825911
 31
0.0
100
AcDbText
  0
TEXT
  5
125
330
1F
100
AcDbEntity
  8
図面枠
  6
CONTINUOUS
 62
     4
100
AcDbText
 10
1935.0
 20
1326.9140625
 30
0.0
 40
17.3145207852194
  1
cm
 41
0.999230769230769
  7
EXCADTTF1
 72
     5
 11
1957.5
 21
1326.9140625
 31
0.0
100
AcDbText
  0
TEXT
  5
126
330
1F
100
AcDbEntity
  8
図面枠
  6
CONTINUOUS
 62
     4
100
AcDbText
 10
1950.75
 20
1337.54882825911
 30
0.0
 40
7.791533619463674
  1
2
 41
0.9992308633483801
  7
EXCADTTF1
 72
     5
 11
1955.8125
 21
1337.54882825911
 31
0.0
100
AcDbText
  0
TEXT
  5
127
330
1F
100
AcDbEntity
  8
図面枠
  6
CONTINUOUS
 62
     4
100
AcDbText
 10
1481.25
 20
1326.9140625
 30
0.0
 40
17.3145207852194
  1
167
 41
0.9992307692307689
  7
EXCADTTF1
 72
     5
 11
1515.0
 21
1326.9140625
 31
0.0
100
AcDbText
  0
TEXT
  5
128
330
1F
100
AcDbEntity
  8
図面枠
  6
CONTINUOUS
 62
     4
100
AcDbText
 10
1935.0
 20
1236.9140625
 30
0.0
 40
17.3145207852194
  1
L
 41
0.999230769230769
  7
EXCADTTF1
 72
     5
 11
1946.25
 21
1236.9140625
 31
0.0
100
AcDbText
  0
TEXT
  5
129
330
1F
100
AcDbEntity
  8
図面枠
  6
CONTINUOUS
 62
     4
100
AcDbText
 10
1935.0
 20
1206.9140625
 30
0.0
 40
17.3145207852194
  1
L
 41
0.999230769230769
  7
EXCADTTF1
 72
     5
 11
1946.25
 21
1206.9140625
 31
0.0
100
AcDbText
  0
TEXT
  5
12A
330
1F
100
AcDbEntity
  8
図面枠
  6
CONTINUOUS
 62
     4
100
AcDbText
 10
1881.25
 20
1236.9140625
 30
0.0
 40
17.3145207852194
  1
6.4
 41
0.9992307692307689
  7
EXCADTTF1
 72
     5
 11
1915.0
 21
1236.9140625
 31
0.0
100
AcDbText
  0
TEXT
  5
12B
330
1F
100
AcDbEntity
  8
図面枠
  6
CONTINUOUS
 62
     4
100
AcDbText
 10
1881.25
 20
1206.9140625
 30
0.0
 40
17.3145207852194
  1
3.5
 41
0.9992307692307689
  7
EXCADTTF1
 72
     5
 11
1915.0
 21
1206.9140625
 31
0.0
100
AcDbText
  0
TEXT
  5
12C
330
1F
100
AcDbEntity
  8
図面枠
  6
CONTINUOUS
 62
     4
100
AcDbText
 10
1858.75
 20
1176.9140625
 30
0.0
 40
17.3145207852194
  1
約113
 41
0.9992307692307691
  7
EXCADTTF1
 72
     5
 11
1915.0
 21
1176.9140625
 31
0.0
100
AcDbText
  0
LINE
  5
12D
330
1F
100
AcDbEntity
  8
Ｓ_１_１
  6
CONTINUOUS
 62
     2
100
AcDbLine
 10
939.9999870000001
 20
989.9999999999992
 30
0.0
 11
769.9999869999999
 21
990.0000000000001
 31
0.0
  0
LINE
  5
12E
330
1F
100
AcDbEntity
  8
Ｓ_１_１
  6
CONTINUOUS
 62
     2
100
AcDbLine
 10
869.9999870000001
 20
992.4999999999995
 30
0.0
 11
854.9999870000001
 21
989.9999999999997
 31
0.0
  0
LINE
  5
12F
330
1F
100
AcDbEntity
  8
Ｓ_１_１
  6
CONTINUOUS
 62
     2
100
AcDbLine
 10
854.9999870000001
 20
989.9999999999997
 30
0.0
 11
869.9999870000001
 21
987.4999999999995
 31
0.0
  0
LINE
  5
130
330
1F
100
AcDbEntity
  8
Ｓ_１_１
  6
CONTINUOUS
 62
     2
100
AcDbLine
 10
779.9999869999999
 20
987.5000000000001
 30
0.0
 11
794.9999869999999
 21
990.0
 31
0.0
  0
LINE
  5
131
330
1F
100
AcDbEntity
  8
Ｓ_１_１
  6
CONTINUOUS
 62
     2
100
AcDbLine
 10
794.9999869999999
 20
990.0
 30
0.0
 11
779.9999869999999
 21
992.5000000000001
 31
0.0
  0
TEXT
  5
132
330
1F
100
AcDbEntity
  8
Ｓ_１_１
  6
CONTINUOUS
 62
     2
100
AcDbText
 10
869.9999870000001
 20
995.6640624999997
 30
0.0
 40
17.3145207852194
  1
φ60
 41
0.999230769230769
  7
EXCADTTF1
 72
     5
 11
914.9999870000001
 21
995.6640624999997
 31
0.0
100
AcDbText
  0
TEXT
  5
133
330
1F
100
AcDbEntity
  8
Ｓ_１_１
  6
CONTINUOUS
 62
     2
100
AcDbText
 10
914.9999870000001
 20
1005.33203125
 30
0.0
 40
8.6572603926097
  1
-0.2
 41
0.999230769230769
  7
EXCADTTF1
 72
     5
 11
937.4999870000001
 21
1005.33203125
 31
0.0
100
AcDbText
  0
TEXT
  5
134
330
1F
100
AcDbEntity
  8
Ｓ_１_１
  6
CONTINUOUS
 62
     2
100
AcDbText
 10
914.9999870000001
 20
994.0820312499997
 30
0.0
 40
8.6572603926097
  1
-0.3
 41
0.999230769230769
  7
EXCADTTF1
 72
     5
 11
937.4999870000001
 21
994.0820312499997
 31
0.0
100
AcDbText
  0
LINE
  5
135
330
1F
100
AcDbEntity
  8
Ｓ_１_１
  6
CONTINUOUS
 62
     2
100
AcDbLine
 10
854.9999869999999
 20
930.500061
 30
0.0
 11
854.9999869999999
 21
995.0
 31
0.0
  0
LINE
  5
136
330
1F
100
AcDbEntity
  8
Ｓ_１_１
  6
CONTINUOUS
 62
     2
100
AcDbLine
 10
794.9999869999999
 20
930.500061
 30
0.0
 11
794.9999869999999
 21
995.0
 31
0.0
  0
DIMENSION
  5
138
330
1F
100
AcDbEntity
  8
Ｓ_１_１
  6
CONTINUOUS
 62
     2
100
AcDbDimension
  2
*D15
 10
1745.0
 20
570.0
 30
0.0
 11
1772.5
 21
583.75
 31
0.0
 70
   160
  3
ISO-25
100
AcDbAlignedDimension
 13
1800.0
 23
422.9999729999901
 33
0.0
 14
1745.0
 24
517.7326360000001
 34
0.0
100
AcDbRotatedDimension
1001
ACAD
1000
DSTYLE
1002
{
1070
   270
1070
     2
1070
     6
1000
EX_NORM
1070
     7
1000
EX_NORM
1070
    41
1040
15.0
1070
    42
1040
0.0
1070
    44
1040
0.0
1070
    73
1070
     0
1070
    74
1070
     0
1070
    75
1070
     1
1070
    76
1070
     1
1070
    77
1070
     1
1070
    78
1070
     8
1070
   140
1040
17.3145207852194
1070
   147
1040
0.0
1070
   173
1070
     1
1070
   176
1070
     2
1070
   177
1070
     2
1070
   178
1070
     2
1070
   271
1070
     2
1070
   277
1070
     2
1070
   279
1070
     2
1070
   280
1070
     0
1070
   287
1070
     5
1070
   340
1005
137
1002
}
  0
LINE
  5
144
330
1F
100
AcDbEntity
  8
Ｓ_１_１
  6
CONTINUOUS
 62
     2
100
AcDbLine
 10
1745.0
 20
525.2326360000001
 30
0.0
 11
1745.0
 21
575.0
 31
0.0
  0
DIMENSION
  5
145
330
1F
100
AcDbEntity
  8
Ｓ_１_１
  6
CONTINUOUS
 62
     2
100
AcDbDimension
  2
*D16
 10
1800.0
 20
600.0
 30
0.0
 11
1209.9999675
 21
613.75
 31
0.0
 70
   160
  3
ISO-25
100
AcDbAlignedDimension
 13
619.9999349999998
 23
417.999901
 33
0.0
 14
1800.0
 24
422.9999729999901
 34
0.0
100
AcDbRotatedDimension
1001
ACAD
1000
DSTYLE
1002
{
1070
   270
1070
     2
1070
     6
1000
EX_NORM
1070
     7
1000
EX_NORM
1070
    41
1040
15.0
1070
    42
1040
0.0
1070
    44
1040
0.0
1070
    73
1070
     0
1070
    74
1070
     0
1070
    75
1070
     1
1070
    76
1070
     1
1070
    77
1070
     1
1070
    78
1070
     8
1070
   140
1040
17.3145207852194
1070
   147
1040
0.0
1070
   173
1070
     1
1070
   176
1070
     2
1070
   177
1070
     2
1070
   178
1070
     2
1070
   271
1070
     2
1070
   277
1070
     2
1070
   279
1070
     2
1070
   280
1070
     0
1070
   287
1070
     5
1070
   340
1005
137
1002
}
  0
DIMENSION
  5
150
330
1F
100
AcDbEntity
  8
Ｓ_１_１
  6
CONTINUOUS
 62
     2
100
AcDbDimension
  2
*D17
 10
594.9999349999998
 20
600.0
 30
0.0
 11
607.4999349999999
 21
613.75
 31
0.0
 70
   160
  3
ISO-25
100
AcDbAlignedDimension
 13
619.9999349999998
 23
417.999901
 33
0.0
 14
594.9999349999998
 24
408.00004
 34
0.0
100
AcDbRotatedDimension
1001
ACAD
1000
DSTYLE
1002
{
1070
   270
1070
     2
1070
     6
1000
EX_NORM
1070
     7
1000
EX_NORM
1070
    41
1040
15.0
1070
    42
1040
7.5
1070
    44
1040
5.0
1070
    73
1070
     0
1070
    74
1070
     0
1070
    75
1070
     0
1070
    76
1070
     1
1070
    77
1070
     1
1070
    78
1070
     8
1070
   140
1040
17.3145207852194
1070
   147
1040
0.0
1070
   173
1070
     1
1070
   176
1070
     2
1070
   177
1070
     2
1070
   178
1070
     2
1070
   271
1070
     2
1070
   277
1070
     2
1070
   279
1070
     2
1070
   280
1070
     0
1070
   287
1070
     5
1070
   340
1005
137
1002
}
  0
DIMENSION
  5
15E
330
1F
100
AcDbEntity
  8
Ｓ_１_１
  6
CONTINUOUS
 62
     2
100
AcDbDimension
  2
*D18
 10
459.9999350000001
 20
600.0
 30
0.0
 11
527.4999349999999
 21
613.75
 31
0.0
 70
   160
  3
ISO-25
100
AcDbAlignedDimension
 13
594.9999349999998
 23
408.00004
 33
0.0
 14
459.9999350000001
 24
418.087525
 34
0.0
100
AcDbRotatedDimension
1001
ACAD
1000
DSTYLE
1002
{
1070
   270
1070
     2
1070
     6
1000
EX_NORM
1070
     7
1000
EX_NORM
1070
    41
1040
15.0
1070
    42
1040
7.5
1070
    44
1040
5.0
1070
    73
1070
     0
1070
    74
1070
     0
1070
    75
1070
     0
1070
    76
1070
     1
1070
    77
1070
     1
1070
    78
1070
     8
1070
   140
1040
17.3145207852194
1070
   147
1040
0.0
1070
   173
1070
     1
1070
   176
1070
     2
1070
   177
1070
     2
1070
   178
1070
     2
1070
   271
1070
     2
1070
   277
1070
     2
1070
   279
1070
     2
1070
   280
1070
     0
1070
   287
1070
     5
1070
   340
1005
137
1002
}
  0
DIMENSION
  5
16A
330
1F
100
AcDbEntity
  8
Ｓ_１_１
  6
CONTINUOUS
 62
     2
100
AcDbDimension
  2
*D19
 10
399.9999349999999
 20
600.0
 30
0.0
 11
429.9999350000001
 21
613.75
 31
0.0
 70
   160
  3
ISO-25
100
AcDbAlignedDimension
 13
459.9999350000001
 23
418.087525
 33
0.0
 14
399.9999349999999
 24
384.999949
 34
0.0
100
AcDbRotatedDimension
1001
ACAD
1000
DSTYLE
1002
{
1070
   270
1070
     2
1070
     6
1000
EX_NORM
1070
     7
1000
EX_NORM
1070
    41
1040
15.0
1070
    42
1040
7.5
1070
    44
1040
5.0
1070
    73
1070
     0
1070
    74
1070
     0
1070
    75
1070
     0
1070
    76
1070
     1
1070
    77
1070
     1
1070
    78
1070
     8
1070
   140
1040
17.3145207852194
1070
   147
1040
0.0
1070
   173
1070
     1
1070
   176
1070
     2
1070
   177
1070
     2
1070
   178
1070
     2
1070
   271
1070
     2
1070
   277
1070
     2
1070
   279
1070
     2
1070
   280
1070
     0
1070
   287
1070
     5
1070
   340
1005
137
1002
}
  0
DIMENSION
  5
176
330
1F
100
AcDbEntity
  8
Ｓ_１_１
  6
CONTINUOUS
 62
     2
100
AcDbDimension
  2
*D20
 10
399.9999349999999
 20
630.0
 30
0.0
 11
1099.9999675
 21
643.75
 31
0.0
 70
   160
  3
ISO-25
100
AcDbAlignedDimension
 13
1800.0
 23
422.9999729999901
 33
0.0
 14
399.9999349999999
 24
384.999949
 34
0.0
100
AcDbRotatedDimension
1001
ACAD
1000
DSTYLE
1002
{
1070
   270
1070
     2
1070
     6
1000
EX_NORM
1070
     7
1000
EX_NORM
1070
    41
1040
15.0
1070
    42
1040
7.5
1070
    44
1040
5.0
1070
    73
1070
     0
1070
    74
1070
     0
1070
    75
1070
     0
1070
    76
1070
     0
1070
    77
1070
     1
1070
    78
1070
     8
1070
   140
1040
17.3145207852194
1070
   147
1040
0.0
1070
   173
1070
     1
1070
   176
1070
     2
1070
   177
1070
     2
1070
   178
1070
     2
1070
   271
1070
     2
1070
   277
1070
     2
1070
   279
1070
     2
1070
   280
1070
     0
1070
   287
1070
     5
1070
   340
1005
137
1002
}
  0
DIMENSION
  5
183
330
1F
100
AcDbEntity
  8
Ｓ_１_１
  6
CONTINUOUS
 62
     2
100
AcDbDimension
  2
*D21
 10
824.999996
 20
180.0
 30
0.0
 11
642.4999655
 21
193.75
 31
0.0
 70
   160
  3
ISO-25
100
AcDbAlignedDimension
 13
459.9999350000001
 23
304.337525
 33
0.0
 14
824.999996
 24
317.983948
 34
0.0
100
AcDbRotatedDimension
1001
ACAD
1000
DSTYLE
1002
{
1070
   270
1070
     2
1070
     6
1000
EX_NORM
1070
     7
1000
EX_NORM
1070
    41
1040
15.0
1070
    42
1040
7.5
1070
    44
1040
5.0
1070
    73
1070
     0
1070
    74
1070
     0
1070
    75
1070
     0
1070
    76
1070
     0
1070
    77
1070
     1
1070
    78
1070
     8
1070
   140
1040
17.3145207852194
1070
   147
1040
0.0
1070
   173
1070
     1
1070
   176
1070
     2
1070
   177
1070
     2
1070
   178
1070
     2
1070
   271
1070
     2
1070
   277
1070
     2
1070
   279
1070
     2
1070
   280
1070
     0
1070
   287
1070
     5
1070
   340
1005
137
1002
}
  0
DIMENSION
  5
190
330
1F
100
AcDbEntity
  8
Ｓ_１_１
  6
CONTINUOUS
 62
     2
100
AcDbDimension
  2
*D22
 10
534.9999349999998
 20
210.0
 30
0.0
 11
497.499935
 21
223.75
 31
0.0
 70
   160
  3
ISO-25
100
AcDbAlignedDimension
 13
459.9999350000001
 23
296.837525
 33
0.0
 14
534.9999349999998
 24
316.698731
 34
0.0
100
AcDbRotatedDimension
1001
ACAD
1000
DSTYLE
1002
{
1070
   270
1070
     2
1070
     6
1000
EX_NORM
1070
     7
1000
EX_NORM
1070
    41
1040
15.0
1070
    42
1040
7.5
1070
    44
1040
5.0
1070
    73
1070
     0
1070
    74
1070
     0
1070
    75
1070
     1
1070
    76
1070
     0
1070
    77
1070
     1
1070
    78
1070
     8
1070
   140
1040
17.3145207852194
1070
   147
1040
0.0
1070
   173
1070
     1
1070
   176
1070
     2
1070
   177
1070
     2
1070
   178
1070
     2
1070
   271
1070
     2
1070
   277
1070
     2
1070
   279
1070
     2
1070
   280
1070
     0
1070
   287
1070
     5
1070
   340
1005
137
1002
}
  0
DIMENSION
  5
19C
330
1F
100
AcDbEntity
  8
Ｓ_１_１
  6
CONTINUOUS
 62
     2
100
AcDbDimension
  2
*D23
 10
1890.0
 20
425.0
 30
0.0
 11
1876.25
 21
359.9999999999998
 31
0.0
 70
   160
  1
%%c130
  3
ISO-25
100
AcDbAlignedDimension
 13
1797.999992
 23
295.0
 33
0.0
 14
1797.999992
 24
425.0
 34
0.0
 50
90.0
100
AcDbRotatedDimension
1001
ACAD
1000
DSTYLE
1002
{
1070
   270
1070
     2
1070
     6
1000
EX_NORM
1070
     7
1000
EX_NORM
1070
    41
1040
15.0
1070
    42
1040
7.5
1070
    44
1040
5.0
1070
    73
1070
     0
1070
    74
1070
     0
1070
    75
1070
     0
1070
    76
1070
     0
1070
    77
1070
     1
1070
    78
1070
     8
1070
   140
1040
17.3145207852194
1070
   147
1040
0.0
1070
   173
1070
     1
1070
   176
1070
     2
1070
   177
1070
     2
1070
   178
1070
     2
1070
   271
1070
     2
1070
   277
1070
     2
1070
   279
1070
     2
1070
   280
1070
     0
1070
   287
1070
     5
1070
   340
1005
137
1002
}
  0
DIMENSION
  5
1A9
330
1F
100
AcDbEntity
  8
Ｓ_１_１
  6
CONTINUOUS
 62
     2
100
AcDbDimension
  2
*D24
 10
330.0
 20
410.0
 30
0.0
 11
316.25
 21
360.0
 31
0.0
 70
   160
  3
ISO-25
100
AcDbAlignedDimension
 13
424.9999560000001
 23
310.0
 33
0.0
 14
424.9999350000001
 24
410.0
 34
0.0
 50
90.0
100
AcDbRotatedDimension
1001
ACAD
1000
DSTYLE
1002
{
1070
   270
1070
     2
1070
     6
1000
EX_NORM
1070
     7
1000
EX_NORM
1070
    41
1040
15.0
1070
    42
1040
7.5
1070
    44
1040
5.0
1070
    73
1070
     0
1070
    74
1070
     0
1070
    75
1070
     0
1070
    76
1070
     0
1070
    77
1070
     1
1070
    78
1070
     8
1070
   140
1040
17.3145207852194
1070
   147
1040
0.0
1070
   173
1070
     1
1070
   176
1070
     2
1070
   177
1070
     2
1070
   178
1070
     2
1070
   271
1070
     2
1070
   277
1070
     2
1070
   279
1070
     2
1070
   280
1070
     0
1070
   287
1070
     5
1070
   340
1005
137
1002
}
  0
DIMENSION
  5
1B6
330
1F
100
AcDbEntity
  8
Ｓ_１_１
  6
CONTINUOUS
 62
     2
100
AcDbDimension
  2
*D25
 10
750.0
 20
420.0
 30
0.0
 11
736.25
 21
360.0
 31
0.0
 70
   160
  1
     %%c120
  3
ISO-25
100
AcDbAlignedDimension
 13
621.999935
 23
300.0
 33
0.0
 14
621.999935
 24
420.0
 34
0.0
 50
90.0
100
AcDbRotatedDimension
1001
ACAD
1000
DSTYLE
1002
{
1070
   270
1070
     2
1070
     6
1000
EX_NORM
1070
     7
1000
EX_NORM
1070
    41
1040
15.0
1070
    42
1040
0.0
1070
    44
1040
0.0
1070
    73
1070
     0
1070
    74
1070
     0
1070
    75
1070
     1
1070
    76
1070
     1
1070
    77
1070
     1
1070
    78
1070
     8
1070
   140
1040
17.3145207852194
1070
   147
1040
0.0
1070
   173
1070
     1
1070
   176
1070
     2
1070
   177
1070
     2
1070
   178
1070
     2
1070
   271
1070
     2
1070
   277
1070
     2
1070
   279
1070
     2
1070
   280
1070
     0
1070
   287
1070
     5
1070
   340
1005
137
1002
}
  0
DIMENSION
  5
1C1
330
1F
100
AcDbEntity
  8
Ｓ_１_１
  6
CONTINUOUS
 62
     2
100
AcDbDimension
  2
*D26
 10
1680.0
 20
510.362152
 30
0.0
 11
1666.25
 21
467.681455
 31
0.0
 70
   160
  1
(85)
  3
ISO-25
100
AcDbAlignedDimension
 13
1737.047512
 23
425.000758
 33
0.0
 14
1732.999881
 24
510.362152
 34
0.0
 50
90.0
100
AcDbRotatedDimension
1001
ACAD
1000
DSTYLE
1002
{
1070
   270
1070
     2
1070
     6
1000
EX_NORM
1070
     7
1000
EX_NORM
1070
    41
1040
15.0
1070
    42
1040
7.5
1070
    44
1040
5.0
1070
    73
1070
     0
1070
    74
1070
     0
1070
    75
1070
     1
1070
    76
1070
     0
1070
    77
1070
     1
1070
    78
1070
     8
1070
   140
1040
17.3145207852194
1070
   147
1040
0.0
1070
   173
1070
     1
1070
   176
1070
     2
1070
   177
1070
     2
1070
   178
1070
     2
1070
   271
1070
     2
1070
   277
1070
     2
1070
   279
1070
     2
1070
   280
1070
     0
1070
   287
1070
     5
1070
   340
1005
137
1002
}
  0
DIMENSION
  5
1CD
330
1F
100
AcDbEntity
  8
Ｓ_１_１
  6
CONTINUOUS
 62
     2
100
AcDbDimension
  2
*D27
 10
330.0
 20
785.0
 30
0.0
 11
316.2500000000001
 21
810.0
 31
0.0
 70
   160
  3
ISO-25
100
AcDbAlignedDimension
 13
399.999926
 23
835.0
 33
0.0
 14
399.999926
 24
785.0
 34
0.0
 50
90.0
100
AcDbRotatedDimension
1001
ACAD
1000
DSTYLE
1002
{
1070
   270
1070
     2
1070
     6
1000
EX_NORM
1070
     7
1000
EX_NORM
1070
    41
1040
15.0
1070
    42
1040
7.5
1070
    44
1040
5.0
1070
    73
1070
     0
1070
    74
1070
     0
1070
    75
1070
     0
1070
    76
1070
     0
1070
    77
1070
     1
1070
    78
1070
     8
1070
   140
1040
17.3145207852194
1070
   147
1040
0.0
1070
   173
1070
     1
1070
   176
1070
     2
1070
   177
1070
     2
1070
   178
1070
     2
1070
   271
1070
     2
1070
   277
1070
     2
1070
   279
1070
     2
1070
   280
1070
     0
1070
   287
1070
     5
1070
   340
1005
137
1002
}
  0
LINE
  5
1DA
330
1F
100
AcDbEntity
  8
Ｓ_１_１
  6
EXLTYPE2
 62
     1
100
AcDbLine
 10
1745.0
 20
372.4999999999999
 30
0.0
 11
1745.0
 21
347.4999999999999
 31
0.0
  0
LINE
  5
1DB
330
1F
100
AcDbEntity
  8
Ｓ_１_１
  6
EXLTYPE2
 62
     1
100
AcDbLine
 10
1745.0
 20
517.732636
 30
0.0
 11
1745.0
 21
413.306427
 31
0.0
  0
ARC
  5
1DC
330
1F
100
AcDbEntity
  8
Ｓ_１_１
  6
CONTINUOUS
 62
     3
100
AcDbCircle
 10
1745.0
 20
438.422852
 30
0.0
 40
21.939436
100
AcDbArc
 50
76.826514
 51
103.173477
  0
ARC
  5
1DD
330
1F
100
AcDbEntity
  8
Ｓ_１_１
  6
CONTINUOUS
 62
     3
100
AcDbCircle
 10
1745.0
 20
469.8018500000001
 30
0.0
 40
21.939436
100
AcDbArc
 50
256.8265370000001
 51
283.173527
  0
ARC
  5
1DE
330
1F
100
AcDbEntity
  8
Ｓ_１_１
  6
CONTINUOUS
 62
     3
100
AcDbCircle
 10
1754.093219
 20
436.7297370000001
 30
0.0
 40
5.367246000000002
100
AcDbArc
 50
235.6158480000003
 51
304.3841330000002
  0
ARC
  5
1DF
330
1F
100
AcDbEntity
  8
Ｓ_１_１
  6
CONTINUOUS
 62
     3
100
AcDbCircle
 10
1745.0
 20
451.424561
 30
0.0
 40
20.06219500000001
100
AcDbArc
 50
252.4121170000001
 51
287.5880010000001
  0
ARC
  5
1E0
330
1F
100
AcDbEntity
  8
Ｓ_１_１
  6
CONTINUOUS
 62
     3
100
AcDbCircle
 10
1754.093219
 20
434.995117
 30
0.0
 40
5.367246000000002
100
AcDbArc
 50
55.61592200000001
 51
124.384206
  0
ARC
  5
1E1
330
1F
100
AcDbEntity
  8
Ｓ_１_１
  6
CONTINUOUS
 62
     3
100
AcDbCircle
 10
1735.90678
 20
434.995117
 30
0.0
 40
5.367246000000002
100
AcDbArc
 50
55.61583999999999
 51
124.384124
  0
ARC
  5
1E2
330
1F
100
AcDbEntity
  8
Ｓ_１_１
  6
CONTINUOUS
 62
     3
100
AcDbCircle
 10
1745.0
 20
420.300293
 30
0.0
 40
20.06219500000001
100
AcDbArc
 50
72.41204000000002
 51
107.587924
  0
ARC
  5
1E3
330
1F
100
AcDbEntity
  8
Ｓ_１_１
  6
CONTINUOUS
 62
     3
100
AcDbCircle
 10
1735.90678
 20
436.7297370000001
 30
0.0
 40
5.367246000000002
100
AcDbArc
 50
235.6159300000003
 51
304.3842150000002
  0
CIRCLE
  5
1E4
330
1F
100
AcDbEntity
  8
Ｓ_１_１
  6
CONTINUOUS
 62
     3
100
AcDbCircle
 10
1745.0
 20
359.9999999999999
 30
0.0
 40
9.0
  0
CIRCLE
  5
1E5
330
1F
100
AcDbEntity
  8
Ｓ_１_１
  6
CONTINUOUS
 62
     3
100
AcDbCircle
 10
1745.0
 20
359.9999999999999
 30
0.0
 40
7.500000000000004
  0
LINE
  5
1E6
330
1F
100
AcDbEntity
  8
Ｓ_１_１
  6
CONTINUOUS
 62
     3
100
AcDbLine
 10
1756.999919
 20
510.3621519999999
 30
0.0
 11
1732.999881
 21
510.3621519999999
 31
0.0
  0
LINE
  5
1E7
330
1F
100
AcDbEntity
  8
Ｓ_１_１
  6
CONTINUOUS
 62
     3
100
AcDbLine
 10
1756.999919
 20
460.362152
 30
0.0
 11
1732.999881
 21
460.362152
 31
0.0
  0
LINE
  5
1E8
330
1F
100
AcDbEntity
  8
Ｓ_１_１
  6
CONTINUOUS
 62
     3
100
AcDbLine
 10
1756.999919
 20
475.362152
 30
0.0
 11
1732.999881
 21
475.362152
 31
0.0
  0
LINE
  5
1E9
330
1F
100
AcDbEntity
  8
Ｓ_１_１
  6
CONTINUOUS
 62
     3
100
AcDbLine
 10
1760.499878
 20
482.862152
 30
0.0
 11
1746.749878
 21
482.862152
 31
0.0
  0
LINE
  5
1EA
330
1F
100
AcDbEntity
  8
Ｓ_１_１
  6
CONTINUOUS
 62
     3
100
AcDbLine
 10
1731.999919
 20
482.862152
 30
0.0
 11
1731.999919
 21
475.939545
 31
0.0
  0
LINE
  5
1EB
330
1F
100
AcDbEntity
  8
Ｓ_１_１
  6
CONTINUOUS
 62
     3
100
AcDbLine
 10
1757.999878
 20
482.862152
 30
0.0
 11
1757.999878
 21
475.939545
 31
0.0
  0
LINE
  5
1EC
330
1F
100
AcDbEntity
  8
Ｓ_１_１
  6
CONTINUOUS
 62
     3
100
AcDbLine
 10
1756.999919
 20
510.3621519999999
 30
0.0
 11
1756.999919
 21
509.8624580000001
 31
0.0
  0
LINE
  5
1ED
330
1F
100
AcDbEntity
  8
Ｓ_１_１
  6
CONTINUOUS
 62
     3
100
AcDbLine
 10
1732.999881
 20
510.3621519999999
 30
0.0
 11
1732.999881
 21
509.8624580000001
 31
0.0
  0
LINE
  5
1EE
330
1F
100
AcDbEntity
  8
Ｓ_１_１
  6
CONTINUOUS
 62
     3
100
AcDbLine
 10
1757.999878
 20
459.78476
 30
0.0
 11
1757.999878
 21
448.439545
 31
0.0
  0
LINE
  5
1EF
330
1F
100
AcDbEntity
  8
Ｓ_１_１
  6
CONTINUOUS
 62
     3
100
AcDbLine
 10
1731.999919
 20
459.78476
 30
0.0
 11
1731.999919
 21
448.439545
 31
0.0
  0
LINE
  5
1F0
330
1F
100
AcDbEntity
  8
Ｓ_１_１
  6
CONTINUOUS
 62
     3
100
AcDbLine
 10
1760.999958
 20
506.862397
 30
0.0
 11
1760.999958
 21
499.362397
 31
0.0
  0
LINE
  5
1F1
330
1F
100
AcDbEntity
  8
Ｓ_１_１
  6
CONTINUOUS
 62
     3
100
AcDbLine
 10
1729.000042
 20
506.862397
 30
0.0
 11
1729.000042
 21
499.362397
 31
0.0
  0
LINE
  5
1F2
330
1F
100
AcDbEntity
  8
Ｓ_１_１
  6
CONTINUOUS
 62
     3
100
AcDbLine
 10
1757.999878
 20
509.8624580000001
 30
0.0
 11
1731.999919
 21
509.8624580000001
 31
0.0
  0
LINE
  5
1F3
330
1F
100
AcDbEntity
  8
Ｓ_１_１
  6
CONTINUOUS
 62
     3
100
AcDbLine
 10
1732.999881
 20
475.362152
 30
0.0
 11
1732.999881
 21
460.362152
 31
0.0
  0
LINE
  5
1F4
330
1F
100
AcDbEntity
  8
Ｓ_１_１
  6
CONTINUOUS
 62
     3
100
AcDbLine
 10
1756.999919
 20
475.362152
 30
0.0
 11
1756.999919
 21
460.362152
 31
0.0
  0
LINE
  5
1F5
330
1F
100
AcDbEntity
  8
Ｓ_１_１
  6
CONTINUOUS
 62
     3
100
AcDbLine
 10
1757.999689
 20
509.862339
 30
0.0
 11
1760.999778
 21
506.8622500000001
 31
0.0
  0
LINE
  5
1F6
330
1F
100
AcDbEntity
  8
Ｓ_１_１
  6
CONTINUOUS
 62
     3
100
AcDbLine
 10
1731.999812
 20
509.8624899999999
 30
0.0
 11
1728.999723
 21
506.862401
 31
0.0
  0
LINE
  5
1F7
330
1F
100
AcDbEntity
  8
Ｓ_１_１
  6
CONTINUOUS
 62
     3
100
AcDbLine
 10
1760.499878
 20
498.862274
 30
0.0
 11
1760.499878
 21
490.8622130000001
 31
0.0
  0
LINE
  5
1F8
330
1F
100
AcDbEntity
  8
Ｓ_１_１
  6
CONTINUOUS
 62
     3
100
AcDbLine
 10
1729.499919
 20
498.862274
 30
0.0
 11
1729.499919
 21
490.8622130000001
 31
0.0
  0
LINE
  5
1F9
330
1F
100
AcDbEntity
  8
Ｓ_１_１
  6
CONTINUOUS
 62
     3
100
AcDbLine
 10
1760.499878
 20
490.8622130000001
 30
0.0
 11
1729.499919
 21
490.8622130000001
 31
0.0
  0
LINE
  5
1FA
330
1F
100
AcDbEntity
  8
Ｓ_１_１
  6
CONTINUOUS
 62
     3
100
AcDbLine
 10
1760.499878
 20
498.862274
 30
0.0
 11
1729.499919
 21
498.862274
 31
0.0
  0
LINE
  5
1FB
330
1F
100
AcDbEntity
  8
Ｓ_１_１
  6
CONTINUOUS
 62
     3
100
AcDbLine
 10
1760.99997
 20
490.3624790000001
 30
0.0
 11
1760.499916
 21
490.8625329999999
 31
0.0
  0
LINE
  5
1FC
330
1F
100
AcDbEntity
  8
Ｓ_１_１
  6
CONTINUOUS
 62
     3
100
AcDbLine
 10
1729.499687
 20
498.862239
 30
0.0
 11
1728.999632
 21
499.3622930000001
 31
0.0
  0
LINE
  5
1FD
330
1F
100
AcDbEntity
  8
Ｓ_１_１
  6
CONTINUOUS
 62
     3
100
AcDbLine
 10
1729.49999
 20
490.8624090000001
 30
0.0
 11
1728.999935
 21
490.3623540000001
 31
0.0
  0
LINE
  5
1FE
330
1F
100
AcDbEntity
  8
Ｓ_１_１
  6
CONTINUOUS
 62
     3
100
AcDbLine
 10
1760.999841
 20
499.362298
 30
0.0
 11
1760.499787
 21
498.8622440000001
 31
0.0
  0
LINE
  5
1FF
330
1F
100
AcDbEntity
  8
Ｓ_１_１
  6
CONTINUOUS
 62
     3
100
AcDbLine
 10
1760.999958
 20
490.3621519999999
 30
0.0
 11
1760.999958
 21
483.3622130000001
 31
0.0
  0
LINE
  5
200
330
1F
100
AcDbEntity
  8
Ｓ_１_１
  6
CONTINUOUS
 62
     3
100
AcDbLine
 10
1729.000042
 20
490.3621519999999
 30
0.0
 11
1729.000042
 21
483.3622130000001
 31
0.0
  0
LINE
  5
201
330
1F
100
AcDbEntity
  8
Ｓ_１_１
  6
CONTINUOUS
 62
     3
100
AcDbLine
 10
1760.999992
 20
483.362475
 30
0.0
 11
1760.499937
 21
482.86242
 31
0.0
  0
LINE
  5
202
330
1F
100
AcDbEntity
  8
Ｓ_１_１
  6
CONTINUOUS
 62
     3
100
AcDbLine
 10
1729.499839
 20
482.862415
 30
0.0
 11
1728.999914
 21
483.36234
 31
0.0
  0
LINE
  5
203
330
1F
100
AcDbEntity
  8
Ｓ_１_１
  6
CONTINUOUS
 62
     3
100
AcDbLine
 10
1729.000042
 20
490.3621519999999
 30
0.0
 11
1760.999958
 21
490.3621519999999
 31
0.0
  0
LINE
  5
204
330
1F
100
AcDbEntity
  8
Ｓ_１_１
  6
CONTINUOUS
 62
     3
100
AcDbLine
 10
1760.999958
 20
483.3622130000001
 30
0.0
 11
1746.749878
 21
483.3622130000001
 31
0.0
  0
LINE
  5
205
330
1F
100
AcDbEntity
  8
Ｓ_１_１
  6
CONTINUOUS
 62
     3
100
AcDbLine
 10
1760.999958
 20
499.362397
 30
0.0
 11
1729.000042
 21
499.362397
 31
0.0
  0
LINE
  5
206
330
1F
100
AcDbEntity
  8
Ｓ_１_１
  6
CONTINUOUS
 62
     3
100
AcDbLine
 10
1760.999958
 20
506.862397
 30
0.0
 11
1729.000042
 21
506.862397
 31
0.0
  0
LINE
  5
207
330
1F
100
AcDbEntity
  8
Ｓ_１_１
  6
CONTINUOUS
 62
     3
100
AcDbLine
 10
1746.855018
 20
483.362825
 30
0.0
 11
1746.750038
 21
483.544657
 31
0.0
  0
LINE
  5
208
330
1F
100
AcDbEntity
  8
Ｓ_１_１
  6
CONTINUOUS
 62
     3
100
AcDbLine
 10
1729.499919
 20
481.3623050000001
 30
0.0
 11
1729.499919
 21
480.362152
 31
0.0
  0
LINE
  5
209
330
1F
100
AcDbEntity
  8
Ｓ_１_１
  6
CONTINUOUS
 62
     3
100
AcDbLine
 10
1760.499878
 20
481.3623050000001
 30
0.0
 11
1760.499878
 21
480.362152
 31
0.0
  0
LINE
  5
20A
330
1F
100
AcDbEntity
  8
Ｓ_１_１
  6
CONTINUOUS
 62
     3
100
AcDbLine
 10
1760.0
 20
479.8624580000001
 30
0.0
 11
1757.999878
 21
479.8624580000001
 31
0.0
  0
LINE
  5
20B
330
1F
100
AcDbEntity
  8
Ｓ_１_１
  6
CONTINUOUS
 62
     3
100
AcDbLine
 10
1760.0
 20
481.862397
 30
0.0
 11
1757.999878
 21
481.862397
 31
0.0
  0
LINE
  5
20C
330
1F
100
AcDbEntity
  8
Ｓ_１_１
  6
CONTINUOUS
 62
     3
100
AcDbLine
 10
1731.999919
 20
481.862397
 30
0.0
 11
1730.000003
 21
481.862397
 31
0.0
  0
LINE
  5
20D
330
1F
100
AcDbEntity
  8
Ｓ_１_１
  6
CONTINUOUS
 62
     3
100
AcDbLine
 10
1731.999919
 20
479.8624580000001
 30
0.0
 11
1730.000003
 21
479.8624580000001
 31
0.0
  0
LINE
  5
20E
330
1F
100
AcDbEntity
  8
Ｓ_１_１
  6
CONTINUOUS
 62
     3
100
AcDbLine
 10
1729.999702
 20
481.8623529999999
 30
0.0
 11
1729.499626
 21
481.3622769999999
 31
0.0
  0
LINE
  5
20F
330
1F
100
AcDbEntity
  8
Ｓ_１_１
  6
CONTINUOUS
 62
     3
100
AcDbLine
 10
1729.999832
 20
479.862523
 30
0.0
 11
1729.499907
 21
480.362448
 31
0.0
  0
LINE
  5
210
330
1F
100
AcDbEntity
  8
Ｓ_１_１
  6
CONTINUOUS
 62
     3
100
AcDbLine
 10
1760.499853
 20
481.3624489999999
 30
0.0
 11
1759.999799
 21
481.8625040000001
 31
0.0
  0
LINE
  5
211
330
1F
100
AcDbEntity
  8
Ｓ_１_１
  6
CONTINUOUS
 62
     3
100
AcDbLine
 10
1760.499702
 20
480.362448
 30
0.0
 11
1759.999648
 21
479.8623939999999
 31
0.0
  0
LINE
  5
212
330
1F
100
AcDbEntity
  8
Ｓ_１_１
  6
CONTINUOUS
 62
     3
100
AcDbLine
 10
1743.249919
 20
486.3623050000001
 30
0.0
 11
1743.249919
 21
482.862152
 31
0.0
  0
LINE
  5
213
330
1F
100
AcDbEntity
  8
Ｓ_１_１
  6
CONTINUOUS
 62
     3
100
AcDbLine
 10
1746.749878
 20
486.3623050000001
 30
0.0
 11
1746.749878
 21
482.862152
 31
0.0
  0
LINE
  5
214
330
1F
100
AcDbEntity
  8
Ｓ_１_１
  6
CONTINUOUS
 62
     3
100
AcDbLine
 10
1746.749878
 20
486.3623050000001
 30
0.0
 11
1743.249919
 21
486.3623050000001
 31
0.0
  0
LINE
  5
215
330
1F
100
AcDbEntity
  8
Ｓ_１_１
  6
CONTINUOUS
 62
     3
100
AcDbLine
 10
1743.249919
 20
482.862152
 30
0.0
 11
1729.499919
 21
482.862152
 31
0.0
  0
LINE
  5
216
330
1F
100
AcDbEntity
  8
Ｓ_１_１
  6
CONTINUOUS
 62
     3
100
AcDbLine
 10
1743.249919
 20
483.3622130000001
 30
0.0
 11
1729.000042
 21
483.3622130000001
 31
0.0
  0
LINE
  5
217
330
1F
100
AcDbEntity
  8
Ｓ_１_１
  6
CONTINUOUS
 62
     3
100
AcDbLine
 10
1743.249798
 20
483.544563
 30
0.0
 11
1743.144818
 21
483.362731
 31
0.0
  0
LINE
  5
218
330
1F
100
AcDbEntity
  8
Ｓ_１_１
  6
CONTINUOUS
 62
     3
100
AcDbLine
 10
1750.0
 20
459.78476
 30
0.0
 11
1750.0
 21
448.439545
 31
0.0
  0
LINE
  5
219
330
1F
100
AcDbEntity
  8
Ｓ_１_１
  6
CONTINUOUS
 62
     3
100
AcDbLine
 10
1740.000003
 20
459.78476
 30
0.0
 11
1740.000003
 21
448.439545
 31
0.0
  0
LINE
  5
21A
330
1F
100
AcDbEntity
  8
Ｓ_１_１
  6
CONTINUOUS
 62
     3
100
AcDbLine
 10
1732.999839
 20
447.862822
 30
0.0
 11
1731.999766
 21
448.440215
 31
0.0
  0
LINE
  5
21B
330
1F
100
AcDbEntity
  8
Ｓ_１_１
  6
CONTINUOUS
 62
     3
100
AcDbLine
 10
1757.999713
 20
459.785333
 30
0.0
 11
1756.999639
 21
460.362726
 31
0.0
  0
LINE
  5
21C
330
1F
100
AcDbEntity
  8
Ｓ_１_１
  6
CONTINUOUS
 62
     3
100
AcDbLine
 10
1732.999751
 20
475.3626679999999
 30
0.0
 11
1731.999677
 21
475.940061
 31
0.0
  0
LINE
  5
21D
330
1F
100
AcDbEntity
  8
Ｓ_１_１
  6
CONTINUOUS
 62
     3
100
AcDbLine
 10
1758.000272
 20
448.439747
 30
0.0
 11
1757.000199
 21
447.8623540000001
 31
0.0
  0
LINE
  5
21E
330
1F
100
AcDbEntity
  8
Ｓ_１_１
  6
CONTINUOUS
 62
     3
100
AcDbLine
 10
1733.000187
 20
460.362593
 30
0.0
 11
1732.000114
 21
459.785201
 31
0.0
  0
LINE
  5
21F
330
1F
100
AcDbEntity
  8
Ｓ_１_１
  6
CONTINUOUS
 62
     3
100
AcDbLine
 10
1758.000162
 20
475.9399359999999
 30
0.0
 11
1757.000089
 21
475.362544
 31
0.0
  0
LINE
  5
220
330
1F
100
AcDbEntity
  8
Ｓ_１_１
  6
CONTINUOUS
 62
     3
100
AcDbLine
 10
1757.999878
 20
475.939545
 30
0.0
 11
1731.999919
 21
475.939545
 31
0.0
  0
LINE
  5
221
330
1F
100
AcDbEntity
  8
Ｓ_１_１
  6
CONTINUOUS
 62
     3
100
AcDbLine
 10
1757.999878
 20
459.78476
 30
0.0
 11
1750.0
 21
459.78476
 31
0.0
  0
LINE
  5
222
330
1F
100
AcDbEntity
  8
Ｓ_１_１
  6
CONTINUOUS
 62
     3
100
AcDbLine
 10
1757.999878
 20
448.439545
 30
0.0
 11
1750.0
 21
448.439545
 31
0.0
  0
LINE
  5
223
330
1F
100
AcDbEntity
  8
Ｓ_１_１
  6
CONTINUOUS
 62
     3
100
AcDbLine
 10
1740.000003
 20
459.78476
 30
0.0
 11
1731.999919
 21
459.78476
 31
0.0
  0
LINE
  5
224
330
1F
100
AcDbEntity
  8
Ｓ_１_１
  6
CONTINUOUS
 62
     3
100
AcDbLine
 10
1740.000003
 20
448.439545
 30
0.0
 11
1731.999919
 21
448.439545
 31
0.0
  0
LINE
  5
225
330
1F
100
AcDbEntity
  8
Ｓ_１_１
  6
CONTINUOUS
 62
     3
100
AcDbLine
 10
1756.999919
 20
447.862152
 30
0.0
 11
1732.999881
 21
447.862152
 31
0.0
  0
LINE
  5
226
330
1F
100
AcDbEntity
  8
Ｓ_１_１
  6
CONTINUOUS
 62
     3
100
AcDbLine
 10
1752.179803
 20
447.8629869999999
 30
0.0
 11
1752.563423
 21
441.725061
 31
0.0
  0
LINE
  5
227
330
1F
100
AcDbEntity
  8
Ｓ_１_１
  6
CONTINUOUS
 62
     3
100
AcDbLine
 10
1753.349983
 20
440.362722
 30
0.0
 11
1752.563439
 21
441.7250579999999
 31
0.0
  0
LINE
  5
228
330
1F
100
AcDbEntity
  8
Ｓ_１_１
  6
CONTINUOUS
 62
     3
100
AcDbLine
 10
1752.881254
 20
447.8627960000001
 30
0.0
 11
1753.350005
 21
440.362782
 31
0.0
  0
LINE
  5
229
330
1F
100
AcDbEntity
  8
Ｓ_１_１
  6
CONTINUOUS
 62
     3
100
AcDbLine
 10
1737.436397
 20
441.724964
 30
0.0
 11
1736.649868
 21
440.362655
 31
0.0
  0
LINE
  5
22A
330
1F
100
AcDbEntity
  8
Ｓ_１_１
  6
CONTINUOUS
 62
     3
100
AcDbLine
 10
1737.118679
 20
447.862993
 30
0.0
 11
1736.649928
 21
440.3629789999999
 31
0.0
  0
LINE
  5
22B
330
1F
100
AcDbEntity
  8
Ｓ_１_１
  6
CONTINUOUS
 62
     3
100
AcDbLine
 10
1737.820105
 20
447.862787
 30
0.0
 11
1737.43651
 21
441.725257
 31
0.0
  0
LINE
  5
22C
330
1F
100
AcDbEntity
  8
Ｓ_１_１
  6
CONTINUOUS
 62
     3
100
AcDbLine
 10
1753.26477
 20
441.724854
 30
0.0
 11
1736.735233
 21
441.724854
 31
0.0
  0
LINE
  5
22D
330
1F
100
AcDbEntity
  8
Ｓ_１_１
  6
CONTINUOUS
 62
     3
100
AcDbLine
 10
1737.436682
 20
430.0005640000001
 30
0.0
 11
1736.650137
 21
431.3628989999999
 31
0.0
  0
LINE
  5
22E
330
1F
100
AcDbEntity
  8
Ｓ_１_１
  6
CONTINUOUS
 62
     3
100
AcDbLine
 10
1737.047512
 20
425.000758
 30
0.0
 11
1736.649881
 21
431.3628559999999
 31
0.0
  0
LINE
  5
22F
330
1F
100
AcDbEntity
  8
Ｓ_１_１
  6
CONTINUOUS
 62
     3
100
AcDbLine
 10
1737.748963
 20
425.000568
 30
0.0
 11
1737.436462
 21
430.000577
 31
0.0
  0
LINE
  5
230
330
1F
100
AcDbEntity
  8
Ｓ_１_１
  6
CONTINUOUS
 62
     3
100
AcDbLine
 10
1753.349858
 20
431.362714
 30
0.0
 11
1752.563313
 21
430.0003779999999
 31
0.0
  0
LINE
  5
231
330
1F
100
AcDbEntity
  8
Ｓ_１_１
  6
CONTINUOUS
 62
     3
100
AcDbLine
 10
1753.26477
 20
430.0
 30
0.0
 11
1736.735233
 21
430.0
 31
0.0
  0
LINE
  5
232
330
1F
100
AcDbEntity
  8
Ｓ_１_１
  6
CONTINUOUS
 62
     3
100
AcDbLine
 10
1752.9523
 20
425.000565
 30
0.0
 11
1753.349931
 21
431.3626630000001
 31
0.0
  0
LINE
  5
233
330
1F
100
AcDbEntity
  8
Ｓ_１_１
  6
CONTINUOUS
 62
     3
100
AcDbLine
 10
1752.250948
 20
425.0003679999999
 30
0.0
 11
1752.563448
 21
430.0003779999999
 31
0.0
  0
LINE
  5
234
330
1F
100
AcDbEntity
  8
Ｓ_１_１
  6
CONTINUOUS
 62
     3
100
AcDbLine
 10
1755.5
 20
431.36233
 30
0.0
 11
1757.124157
 21
432.300034
 31
0.0
  0
LINE
  5
235
330
1F
100
AcDbEntity
  8
Ｓ_１_１
  6
CONTINUOUS
 62
     3
100
AcDbLine
 10
1755.499653
 20
440.3624380000001
 30
0.0
 11
1757.123981
 21
439.424636
 31
0.0
  0
LINE
  5
236
330
1F
100
AcDbEntity
  8
Ｓ_１_１
  6
CONTINUOUS
 62
     3
100
AcDbLine
 10
1734.499891
 20
431.3627060000001
 30
0.0
 11
1732.875378
 21
432.3006150000001
 31
0.0
  0
LINE
  5
237
330
1F
100
AcDbEntity
  8
Ｓ_１_１
  6
CONTINUOUS
 62
     3
100
AcDbLine
 10
1734.499998
 20
440.3624170000001
 30
0.0
 11
1732.875499
 21
439.424516
 31
0.0
  0
LINE
  5
238
330
1F
100
AcDbEntity
  8
Ｓ_１_１
  6
CONTINUOUS
 62
     3
100
AcDbLine
 10
1732.875568
 20
439.424652
 30
0.0
 11
1732.875568
 21
432.300202
 31
0.0
  0
LINE
  5
239
330
1F
100
AcDbEntity
  8
Ｓ_１_１
  6
CONTINUOUS
 62
     3
100
AcDbLine
 10
1757.124225
 20
439.424652
 30
0.0
 11
1757.124225
 21
432.300202
 31
0.0
  0
LINE
  5
23A
330
1F
100
AcDbEntity
  8
Ｓ_１_１
  6
CONTINUOUS
 62
     3
100
AcDbLine
 10
1751.062011
 20
439.424652
 30
0.0
 11
1751.062011
 21
432.300202
 31
0.0
  0
LINE
  5
23B
330
1F
100
AcDbEntity
  8
Ｓ_１_１
  6
CONTINUOUS
 62
     3
100
AcDbLine
 10
1738.937786
 20
439.424652
 30
0.0
 11
1738.937786
 21
432.300202
 31
0.0
  0
LINE
  5
23C
330
1F
100
AcDbEntity
  8
Ｓ_１_１
  6
CONTINUOUS
 62
     3
100
AcDbLine
 10
1755.499878
 20
440.362549
 30
0.0
 11
1734.499919
 21
440.362549
 31
0.0
  0
LINE
  5
23D
330
1F
100
AcDbEntity
  8
Ｓ_１_１
  6
CONTINUOUS
 62
     3
100
AcDbLine
 10
1755.499878
 20
431.3623050000001
 30
0.0
 11
1734.499919
 21
431.3623050000001
 31
0.0
  0
LINE
  5
23E
330
1F
100
AcDbEntity
  8
Ｓ_１_１
  6
CONTINUOUS
 62
     3
100
AcDbLine
 10
1797.999992
 20
295.0
 30
0.0
 11
1797.999992
 21
425.0
 31
0.0
  0
LINE
  5
23F
330
1F
100
AcDbEntity
  8
Ｓ_１_１
  6
CONTINUOUS
 62
     3
100
AcDbLine
 10
1797.99999
 20
294.999981
 30
0.0
 11
1800.000003
 21
296.999993
 31
0.0
  0
LINE
  5
240
330
1F
100
AcDbEntity
  8
Ｓ_１_１
  6
CONTINUOUS
 62
     3
100
AcDbLine
 10
1798.000009
 20
424.9999649999999
 30
0.0
 11
1799.999989
 21
422.999984
 31
0.0
  0
LINE
  5
241
330
1F
100
AcDbEntity
  8
Ｓ_１_１
  6
CONTINUOUS
 62
     3
100
AcDbLine
 10
1800.0
 20
422.9999999999999
 30
0.0
 11
1800.0
 21
297.0
 31
0.0
  0
LINE
  5
242
330
1F
100
AcDbEntity
  8
Ｓ_１_１
  6
EXLTYPE2
 62
     1
100
AcDbLine
 10
689.999996
 20
372.4999999999999
 30
0.0
 11
689.999996
 21
347.4999999999999
 31
0.0
  0
LINE
  5
243
330
1F
100
AcDbEntity
  8
Ｓ_１_１
  6
EXLTYPE2
 62
     1
100
AcDbLine
 10
569.999935
 20
414.1585999999999
 30
0.0
 11
569.999935
 21
397.944428
 31
0.0
  0
LINE
  5
244
330
1F
100
AcDbEntity
  8
Ｓ_１_１
  6
EXLTYPE2
 62
     1
100
AcDbLine
 10
605.999935
 20
365.337494
 30
0.0
 11
605.999935
 21
355.3624879999999
 31
0.0
  0
LINE
  5
245
330
1F
100
AcDbEntity
  8
Ｓ_１_１
  6
EXLTYPE2
 62
     1
100
AcDbLine
 10
605.999935
 20
338.9124759999999
 30
0.0
 11
605.999935
 21
329.637513
 31
0.0
  0
LINE
  5
246
330
1F
100
AcDbEntity
  8
Ｓ_１_１
  6
EXLTYPE2
 62
     1
100
AcDbLine
 10
605.999935
 20
390.537506
 30
0.0
 11
605.999935
 21
381.262482
 31
0.0
  0
LINE
  5
247
330
1F
100
AcDbEntity
  8
Ｓ_１_１
  6
EXLTYPE2
 62
     1
100
AcDbLine
 10
824.999996
 20
399.955262
 30
0.0
 11
824.999996
 21
317.983948
 31
0.0
  0
LINE
  5
248
330
1F
100
AcDbEntity
  8
Ｓ_１_１
  6
EXLTYPE2
 62
     1
100
AcDbLine
 10
459.9999350000001
 20
418.087525
 30
0.0
 11
459.9999350000001
 21
304.337525
 31
0.0
  0
CIRCLE
  5
249
330
1F
100
AcDbEntity
  8
Ｓ_１_１
  6
CONTINUOUS
 62
     3
100
AcDbCircle
 10
689.999996
 20
359.9999999999999
 30
0.0
 40
7.500000000000004
  0
CIRCLE
  5
24A
330
1F
100
AcDbEntity
  8
Ｓ_１_１
  6
CONTINUOUS
 62
     3
100
AcDbCircle
 10
689.999996
 20
359.9999999999999
 30
0.0
 40
9.0
  0
CIRCLE
  5
24B
330
1F
100
AcDbEntity
  8
Ｓ_１_１
  6
CONTINUOUS
 62
     3
100
AcDbCircle
 10
824.999996
 20
359.9999999999999
 30
0.0
 40
29.00000000000002
  0
ARC
  5
24C
330
1F
100
AcDbEntity
  8
Ｓ_１_１
  6
CONTINUOUS
 62
     3
100
AcDbCircle
 10
424.0964920000002
 20
359.9999999999999
 30
0.0
 40
24.09643400000001
100
AcDbArc
 50
144.9999980000001
 51
214.9999980000001
  0
CIRCLE
  5
24D
330
1F
100
AcDbEntity
  8
Ｓ_１_１
  6
CONTINUOUS
 62
     3
100
AcDbCircle
 10
459.9999350000001
 20
359.9999999999999
 30
0.0
 40
31.00000200000001
  0
CIRCLE
  5
24E
330
1F
100
AcDbEntity
  8
Ｓ_１_１
  6
CONTINUOUS
 62
     3
100
AcDbCircle
 10
459.9999350000001
 20
359.9999999999999
 30
0.0
 40
30.00000000000002
  0
CIRCLE
  5
24F
330
1F
100
AcDbEntity
  8
Ｓ_１_１
  6
CONTINUOUS
 62
     3
100
AcDbCircle
 10
824.999996
 20
359.9999999999999
 30
0.0
 40
37.5
  0
CIRCLE
  5
250
330
1F
100
AcDbEntity
  8
Ｓ_１_１
  6
CONTINUOUS
 62
     3
100
AcDbCircle
 10
605.999935
 20
359.9999999999999
 30
0.0
 40
4.0
  0
CIRCLE
  5
251
330
1F
100
AcDbEntity
  8
Ｓ_１_１
  6
CONTINUOUS
 62
     3
100
AcDbCircle
 10
824.999996
 20
359.9999999999999
 30
0.0
 40
30.00000000000002
  0
LINE
  5
252
330
1F
100
AcDbEntity
  8
Ｓ_１_１
  6
CONTINUOUS
 62
     3
100
AcDbLine
 10
593.000057
 20
310.000002
 30
0.0
 11
593.000057
 21
410.0000019999999
 31
0.0
  0
LINE
  5
253
330
1F
100
AcDbEntity
  8
Ｓ_１_１
  6
CONTINUOUS
 62
     3
100
AcDbLine
 10
594.9999580000001
 20
312.000036
 30
0.0
 11
592.9999560000001
 21
310.000034
 31
0.0
  0
LINE
  5
254
330
1F
100
AcDbEntity
  8
Ｓ_１_１
  6
CONTINUOUS
 62
     3
100
AcDbLine
 10
592.999939
 20
410.000036
 30
0.0
 11
594.999898
 21
408.000077
 31
0.0
  0
LINE
  5
255
330
1F
100
AcDbEntity
  8
Ｓ_１_１
  6
CONTINUOUS
 62
     3
100
AcDbLine
 10
784.999996
 20
314.9999999999999
 30
0.0
 11
864.999996
 21
314.9999999999999
 31
0.0
  0
LINE
  5
256
330
1F
100
AcDbEntity
  8
Ｓ_１_１
  6
CONTINUOUS
 62
     3
100
AcDbLine
 10
784.999996
 20
405.0
 30
0.0
 11
864.999996
 21
405.0
 31
0.0
  0
LINE
  5
257
330
1F
100
AcDbEntity
  8
Ｓ_１_１
  6
CONTINUOUS
 62
     3
100
AcDbLine
 10
784.999996
 20
437.5
 30
0.0
 11
864.999996
 21
437.5
 31
0.0
  0
LINE
  5
258
330
1F
100
AcDbEntity
  8
Ｓ_１_１
  6
CONTINUOUS
 62
     3
100
AcDbLine
 10
784.999996
 20
282.5
 30
0.0
 11
864.999996
 21
282.5
 31
0.0
  0
LINE
  5
259
330
1F
100
AcDbEntity
  8
Ｓ_１_１
  6
CONTINUOUS
 62
     3
100
AcDbLine
 10
594.999935
 20
384.000031
 30
0.0
 11
595.999935
 21
384.000031
 31
0.0
  0
LINE
  5
25A
330
1F
100
AcDbEntity
  8
Ｓ_１_１
  6
CONTINUOUS
 62
     3
100
AcDbLine
 10
404.3578010000002
 20
373.82118
 30
0.0
 11
424.9999889999999
 21
403.301279
 31
0.0
  0
LINE
  5
25B
330
1F
100
AcDbEntity
  8
Ｓ_１_１
  6
CONTINUOUS
 62
     3
100
AcDbLine
 10
424.9999350000001
 20
410.0
 30
0.0
 11
424.9999350000001
 21
403.3013
 31
0.0
  0
LINE
  5
25C
330
1F
100
AcDbEntity
  8
Ｓ_１_１
  6
CONTINUOUS
 62
     3
100
AcDbLine
 10
424.9999350000001
 20
403.3013
 30
0.0
 11
534.999935
 21
403.3013
 31
0.0
  0
LINE
  5
25D
330
1F
100
AcDbEntity
  8
Ｓ_１_１
  6
CONTINUOUS
 62
     3
100
AcDbLine
 10
404.357814
 20
346.178798
 30
0.0
 11
424.9999500000001
 21
316.698773
 31
0.0
  0
LINE
  5
25E
330
1F
100
AcDbEntity
  8
Ｓ_１_１
  6
CONTINUOUS
 62
     3
100
AcDbLine
 10
424.9999350000001
 20
310.0
 30
0.0
 11
424.9999350000001
 21
316.6987309999999
 31
0.0
  0
LINE
  5
25F
330
1F
100
AcDbEntity
  8
Ｓ_１_１
  6
CONTINUOUS
 62
     3
100
AcDbLine
 10
424.999981
 20
309.9999749999999
 30
0.0
 11
399.9999760000001
 21
334.9999799999999
 31
0.0
  0
LINE
  5
260
330
1F
100
AcDbEntity
  8
Ｓ_１_１
  6
CONTINUOUS
 62
     3
100
AcDbLine
 10
424.999981
 20
409.999995
 30
0.0
 11
399.9999760000001
 21
384.99999
 31
0.0
  0
LINE
  5
261
330
1F
100
AcDbEntity
  8
Ｓ_１_１
  6
CONTINUOUS
 62
     3
100
AcDbLine
 10
399.9999349999999
 20
385.0
 30
0.0
 11
399.9999349999999
 21
334.9999999999999
 31
0.0
  0
LINE
  5
262
330
1F
100
AcDbEntity
  8
Ｓ_１_１
  6
CONTINUOUS
 62
     3
100
AcDbLine
 10
621.999935
 20
300.0
 30
0.0
 11
621.999935
 21
420.0
 31
0.0
  0
LINE
  5
263
330
1F
100
AcDbEntity
  8
Ｓ_１_１
  6
CONTINUOUS
 62
     3
100
AcDbLine
 10
619.999994
 20
302.00001
 30
0.0
 11
622.000039
 21
299.999964
 31
0.0
  0
LINE
  5
264
330
1F
100
AcDbEntity
  8
Ｓ_１_１
  6
CONTINUOUS
 62
     3
100
AcDbLine
 10
621.999996
 20
419.999962
 30
0.0
 11
620.000016
 21
417.999982
 31
0.0
  0
LINE
  5
265
330
1F
100
AcDbEntity
  8
Ｓ_１_１
  6
CONTINUOUS
 62
     3
100
AcDbLine
 10
594.999935
 20
335.9999999999999
 30
0.0
 11
595.999935
 21
335.9999999999999
 31
0.0
  0
LINE
  5
266
330
1F
100
AcDbEntity
  8
Ｓ_１_１
  6
CONTINUOUS
 62
     3
100
AcDbLine
 10
596.999935
 20
388.9999999999999
 30
0.0
 11
596.999935
 21
330.9999999999999
 31
0.0
  0
LINE
  5
267
330
1F
100
AcDbEntity
  8
Ｓ_１_１
  6
CONTINUOUS
 62
     3
100
AcDbLine
 10
596.000055
 20
331.9999979999999
 30
0.0
 11
597.0000769999999
 21
330.999976
 31
0.0
  0
LINE
  5
268
330
1F
100
AcDbEntity
  8
Ｓ_１_１
  6
CONTINUOUS
 62
     3
100
AcDbLine
 10
597.0000560000001
 20
388.999972
 30
0.0
 11
596.000055
 21
387.9999709999999
 31
0.0
  0
LINE
  5
269
330
1F
100
AcDbEntity
  8
Ｓ_１_１
  6
CONTINUOUS
 62
     3
100
AcDbLine
 10
595.999935
 20
387.9999999999999
 30
0.0
 11
595.999935
 21
331.99997
 31
0.0
  0
LINE
  5
26A
330
1F
100
AcDbEntity
  8
Ｓ_１_１
  6
CONTINUOUS
 62
     3
100
AcDbLine
 10
616.999935
 20
329.9999999999999
 30
0.0
 11
616.999935
 21
390.0
 31
0.0
  0
LINE
  5
26B
330
1F
100
AcDbEntity
  8
Ｓ_１_１
  6
CONTINUOUS
 62
     3
100
AcDbLine
 10
615.267879
 20
388.9999999999999
 30
0.0
 11
615.267879
 21
330.9999999999999
 31
0.0
  0
LINE
  5
26C
330
1F
100
AcDbEntity
  8
Ｓ_１_１
  6
CONTINUOUS
 62
     3
100
AcDbLine
 10
615.267967
 20
330.999976
 30
0.0
 11
617.000018
 21
329.999976
 31
0.0
  0
LINE
  5
26D
330
1F
100
AcDbEntity
  8
Ｓ_１_１
  6
CONTINUOUS
 62
     3
100
AcDbLine
 10
617.000063
 20
389.999987
 30
0.0
 11
615.268012
 21
388.999987
 31
0.0
  0
LINE
  5
26E
330
1F
100
AcDbEntity
  8
Ｓ_１_１
  6
CONTINUOUS
 62
     3
100
AcDbLine
 10
596.999935
 20
388.9999999999999
 30
0.0
 11
615.267879
 21
388.9999999999999
 31
0.0
  0
LINE
  5
26F
330
1F
100
AcDbEntity
  8
Ｓ_１_１
  6
CONTINUOUS
 62
     3
100
AcDbLine
 10
596.999935
 20
330.9999999999999
 30
0.0
 11
615.267879
 21
330.9999999999999
 31
0.0
  0
LINE
  5
270
330
1F
100
AcDbEntity
  8
Ｓ_１_１
  6
CONTINUOUS
 62
     3
100
AcDbLine
 10
616.999935
 20
329.9999999999999
 30
0.0
 11
619.999935
 21
329.9999999999999
 31
0.0
  0
LINE
  5
271
330
1F
100
AcDbEntity
  8
Ｓ_１_１
  6
CONTINUOUS
 62
     3
100
AcDbLine
 10
616.999935
 20
390.0
 30
0.0
 11
619.999935
 21
390.0
 31
0.0
  0
LINE
  5
272
330
1F
100
AcDbEntity
  8
Ｓ_１_１
  6
CONTINUOUS
 62
     3
100
AcDbLine
 10
594.999935
 20
407.9999999999999
 30
0.0
 11
594.999935
 21
312.000031
 31
0.0
  0
LINE
  5
273
330
1F
100
AcDbEntity
  8
Ｓ_１_１
  6
CONTINUOUS
 62
     3
100
AcDbLine
 10
424.9999350000001
 20
316.6987309999999
 30
0.0
 11
534.999935
 21
316.6987309999999
 31
0.0
  0
LINE
  5
274
330
1F
100
AcDbEntity
  8
Ｓ_１_１
  6
CONTINUOUS
 62
     3
100
AcDbLine
 10
864.999996
 20
437.5
 30
0.0
 11
864.999996
 21
282.5
 31
0.0
  0
LINE
  5
275
330
1F
100
AcDbEntity
  8
Ｓ_１_１
  6
CONTINUOUS
 62
     3
100
AcDbLine
 10
784.999996
 20
437.5
 30
0.0
 11
784.999996
 21
282.5
 31
0.0
  0
LINE
  5
276
330
1F
100
AcDbEntity
  8
Ｓ_１_１
  6
CONTINUOUS
 62
     3
100
AcDbLine
 10
424.9999350000001
 20
310.0
 30
0.0
 11
593.000057
 21
310.0
 31
0.0
  0
LINE
  5
277
330
1F
100
AcDbEntity
  8
Ｓ_１_１
  6
CONTINUOUS
 62
     3
100
AcDbLine
 10
424.9999350000001
 20
410.0
 30
0.0
 11
593.000057
 21
410.0
 31
0.0
  0
LINE
  5
278
330
1F
100
AcDbEntity
  8
Ｓ_１_１
  6
CONTINUOUS
 62
     3
100
AcDbLine
 10
534.999935
 20
403.3013
 30
0.0
 11
534.999935
 21
316.6987309999999
 31
0.0
  0
LINE
  5
279
330
1F
100
AcDbEntity
  8
Ｓ_１_１
  6
CONTINUOUS
 62
     3
100
AcDbLine
 10
619.999935
 20
417.9999999999999
 30
0.0
 11
619.999935
 21
302.0
 31
0.0
  0
LINE
  5
27A
330
1F
100
AcDbEntity
  8
Ｓ_１_１
  6
CONTINUOUS
 62
     3
100
AcDbLine
 10
621.999935
 20
300.0
 30
0.0
 11
784.999996
 21
300.0
 31
0.0
  0
LINE
  5
27B
330
1F
100
AcDbEntity
  8
Ｓ_１_１
  6
CONTINUOUS
 62
     3
100
AcDbLine
 10
621.999935
 20
420.0
 30
0.0
 11
784.999996
 21
420.0
 31
0.0
  0
LINE
  5
27C
330
1F
100
AcDbEntity
  8
Ｓ_１_１
  6
CONTINUOUS
 62
     3
100
AcDbLine
 10
864.999996
 20
425.0
 30
0.0
 11
1797.999992
 21
425.0000000000002
 31
0.0
  0
LINE
  5
27D
330
1F
100
AcDbEntity
  8
Ｓ_１_１
  6
CONTINUOUS
 62
     3
100
AcDbLine
 10
864.999996
 20
295.0
 30
0.0
 11
1797.999992
 21
295.0000000000002
 31
0.0
  0
LINE
  5
27E
330
1F
100
AcDbEntity
  8
Ｓ_１_１
  6
EXLTYPE2
 62
     1
100
AcDbLine
 10
384.5131179999998
 20
359.9999999999999
 30
0.0
 11
1813.0
 21
360.0000000000002
 31
0.0
  0
DIMENSION
  5
27F
330
1F
100
AcDbEntity
  8
Ｓ_１_１
  6
CONTINUOUS
 62
     2
100
AcDbDimension
  2
*D28
 10
530.0
 20
1200.0
 30
0.0
 11
450.0000000000001
 21
1213.75
 31
0.0
 70
   160
  3
ISO-25
100
AcDbAlignedDimension
 13
370.0
 23
1065.0000081247
 33
0.0
 14
530.0
 24
1065.0000586691
 34
0.0
100
AcDbRotatedDimension
1001
ACAD
1000
DSTYLE
1002
{
1070
   270
1070
     2
1070
     6
1000
EX_NORM
1070
     7
1000
EX_NORM
1070
    41
1040
15.0
1070
    42
1040
7.5
1070
    44
1040
5.0
1070
    73
1070
     0
1070
    74
1070
     0
1070
    75
1070
     1
1070
    76
1070
     0
1070
    77
1070
     1
1070
    78
1070
     8
1070
   140
1040
17.3145207852194
1070
   147
1040
0.0
1070
   173
1070
     1
1070
   176
1070
     2
1070
   177
1070
     2
1070
   178
1070
     2
1070
   271
1070
     2
1070
   277
1070
     2
1070
   279
1070
     2
1070
   280
1070
     0
1070
   287
1070
     5
1070
   340
1005
137
1002
}
  0
DIMENSION
  5
28B
330
1F
100
AcDbEntity
  8
Ｓ_１_１
  6
CONTINUOUS
 62
     2
100
AcDbDimension
  2
*D29
 10
475.0
 20
1170.0
 30
0.0
 11
450.0000000000001
 21
1183.75
 31
0.0
 70
   160
  3
ISO-25
100
AcDbAlignedDimension
 13
425.0
 23
1063.3012701892
 33
0.0
 14
475.0
 24
1063.3012701892
 34
0.0
100
AcDbRotatedDimension
1001
ACAD
1000
DSTYLE
1002
{
1070
   270
1070
     2
1070
     6
1000
EX_NORM
1070
     7
1000
EX_NORM
1070
    41
1040
15.0
1070
    42
1040
7.5
1070
    44
1040
5.0
1070
    73
1070
     0
1070
    74
1070
     0
1070
    75
1070
     0
1070
    76
1070
     0
1070
    77
1070
     1
1070
    78
1070
     8
1070
   140
1040
17.3145207852194
1070
   147
1040
0.0
1070
   173
1070
     1
1070
   176
1070
     2
1070
   177
1070
     2
1070
   178
1070
     2
1070
   271
1070
     2
1070
   277
1070
     2
1070
   279
1070
     2
1070
   280
1070
     0
1070
   287
1070
     5
1070
   340
1005
137
1002
}
  0
DIMENSION
  5
298
330
1F
100
AcDbEntity
  8
Ｓ_１_１
  6
CONTINUOUS
 62
     2
100
AcDbDimension
  2
*D30
 10
368.0001219999999
 20
1170.0
 30
0.0
 11
390.6250000000003
 21
1183.75
 31
0.0
 70
   160
  3
ISO-25
100
AcDbAlignedDimension
 13
370.0
 23
1065.0000081247
 33
0.0
 14
368.0001219999999
 24
1057.5
 34
0.0
100
AcDbRotatedDimension
1001
ACAD
1000
DSTYLE
1002
{
1070
   270
1070
     2
1070
     6
1000
EX_NORM
1070
     7
1000
EX_BCIR
1070
    41
1040
15.0
1070
    42
1040
0.0
1070
    44
1040
0.0
1070
    73
1070
     0
1070
    74
1070
     0
1070
    75
1070
     1
1070
    76
1070
     1
1070
    77
1070
     1
1070
    78
1070
     8
1070
   140
1040
17.3145207852194
1070
   147
1040
0.0
1070
   173
1070
     1
1070
   176
1070
     2
1070
   177
1070
     2
1070
   178
1070
     2
1070
   271
1070
     2
1070
   277
1070
     2
1070
   279
1070
     2
1070
   280
1070
     1
1070
   287
1070
     5
1070
   340
1005
137
1002
}
  0
LINE
  5
2A5
330
1F
100
AcDbEntity
  8
Ｓ_１_１
  6
CONTINUOUS
 62
     2
100
AcDbLine
 10
270.0000000000007
 20
1135.0
 30
0.0
 11
270.0
 21
965.0
 31
0.0
  0
LINE
  5
2A6
330
1F
100
AcDbEntity
  8
Ｓ_１_１
  6
CONTINUOUS
 62
     2
100
AcDbLine
 10
267.5000000000003
 20
1065.0
 30
0.0
 11
270.0000000000003
 21
1050.0
 31
0.0
  0
LINE
  5
2A7
330
1F
100
AcDbEntity
  8
Ｓ_１_１
  6
CONTINUOUS
 62
     2
100
AcDbLine
 10
270.0000000000003
 20
1050.0
 30
0.0
 11
272.5000000000003
 21
1065.0
 31
0.0
  0
LINE
  5
2A8
330
1F
100
AcDbEntity
  8
Ｓ_１_１
  6
CONTINUOUS
 62
     2
100
AcDbLine
 10
272.5
 20
975.0
 30
0.0
 11
270.0000000000001
 21
990.0
 31
0.0
  0
LINE
  5
2A9
330
1F
100
AcDbEntity
  8
Ｓ_１_１
  6
CONTINUOUS
 62
     2
100
AcDbLine
 10
270.0000000000001
 20
990.0
 30
0.0
 11
267.5
 21
975.0
 31
0.0
  0
TEXT
  5
2AA
330
1F
100
AcDbEntity
  8
Ｓ_１_１
  6
CONTINUOUS
 62
     2
100
AcDbText
 10
264.3359375000004
 20
1065.0
 30
0.0
 40
17.3145207852194
  1
φ60
 50
90.0
 41
0.999230769230769
  7
EXCADTTF1
 72
     5
 11
264.3359375000004
 21
1110.0
 31
0.0
100
AcDbText
  0
TEXT
  5
2AB
330
1F
100
AcDbEntity
  8
Ｓ_１_１
  6
CONTINUOUS
 62
     2
100
AcDbText
 10
254.6679687500004
 20
1110.0
 30
0.0
 40
8.6572603926097
  1
-0.2
 50
90.0
 41
0.999230769230769
  7
EXCADTTF1
 72
     5
 11
254.6679687500004
 21
1132.5
 31
0.0
100
AcDbText
  0
TEXT
  5
2AC
330
1F
100
AcDbEntity
  8
Ｓ_１_１
  6
CONTINUOUS
 62
     2
100
AcDbText
 10
265.9179687500004
 20
1110.0
 30
0.0
 40
8.6572603926097
  1
-0.3
 50
90.0
 41
0.999230769230769
  7
EXCADTTF1
 72
     5
 11
265.9179687500004
 21
1132.5
 31
0.0
100
AcDbText
  0
LINE
  5
2AD
330
1F
100
AcDbEntity
  8
Ｓ_１_１
  6
CONTINUOUS
 62
     2
100
AcDbLine
 10
329.5000000000001
 20
1050.0
 30
0.0
 11
265.0000000000002
 21
1050.0
 31
0.0
  0
LINE
  5
2AE
330
1F
100
AcDbEntity
  8
Ｓ_１_１
  6
CONTINUOUS
 62
     2
100
AcDbLine
 10
329.5000000000001
 20
990.0
 30
0.0
 11
265.0000000000002
 21
990.0
 31
0.0
  0
DIMENSION
  5
2AF
330
1F
100
AcDbEntity
  8
Ｓ_１_１
  6
CONTINUOUS
 62
     2
100
AcDbDimension
  2
*D31
 10
240.0000000000001
 20
982.5
 30
0.0
 11
226.2500000000001
 21
1020.0
 31
0.0
 70
   160
  1
%%c75
  3
ISO-25
100
AcDbAlignedDimension
 13
368.0001219999999
 23
1057.5
 33
0.0
 14
368.0001219999999
 24
982.5
 34
0.0
 50
90.0
100
AcDbRotatedDimension
1001
ACAD
1000
DSTYLE
1002
{
1070
   270
1070
     2
1070
     6
1000
EX_NORM
1070
     7
1000
EX_NORM
1070
    41
1040
15.0
1070
    42
1040
7.5
1070
    44
1040
5.000000000000256
1070
    73
1070
     0
1070
    74
1070
     0
1070
    75
1070
     0
1070
    76
1070
     0
1070
    77
1070
     1
1070
    78
1070
     8
1070
   140
1040
17.3145207852194
1070
   147
1040
0.0
1070
   173
1070
     1
1070
   176
1070
     2
1070
   177
1070
     2
1070
   178
1070
     2
1070
   271
1070
     2
1070
   277
1070
     2
1070
   279
1070
     2
1070
   280
1070
     0
1070
   287
1070
     5
1070
   340
1005
137
1002
}
  0
DIMENSION
  5
2BC
330
1F
100
AcDbEntity
  8
Ｓ_１_１
  6
CONTINUOUS
 62
     2
100
AcDbDimension
  2
*D32
 10
210.0000000000001
 20
975.0
 30
0.0
 11
196.2500000000001
 21
1020.0
 31
0.0
 70
   160
  3
ISO-25
100
AcDbAlignedDimension
 13
370.0
 23
1065.0
 33
0.0
 14
370.0
 24
975.0
 34
0.0
 50
90.0
100
AcDbRotatedDimension
1001
ACAD
1000
DSTYLE
1002
{
1070
   270
1070
     2
1070
     6
1000
EX_NORM
1070
     7
1000
EX_NORM
1070
    41
1040
15.0
1070
    42
1040
7.5
1070
    44
1040
5.000000000000284
1070
    73
1070
     0
1070
    74
1070
     0
1070
    75
1070
     0
1070
    76
1070
     0
1070
    77
1070
     1
1070
    78
1070
     8
1070
   140
1040
17.3145207852194
1070
   147
1040
0.0
1070
   173
1070
     1
1070
   176
1070
     2
1070
   177
1070
     2
1070
   178
1070
     2
1070
   271
1070
     2
1070
   277
1070
     2
1070
   279
1070
     2
1070
   280
1070
     0
1070
   287
1070
     5
1070
   340
1005
137
1002
}
  0
DIMENSION
  5
2C9
330
1F
100
AcDbEntity
  8
Ｓ_１_１
  6
CONTINUOUS
 62
     2
100
AcDbDimension
  2
*D33
 10
411.2500000000009
 20
1087.116968793295
 30
0.0
 11
515.9703493020352
 21
933.2360032158064
 31
0.0
 70
   163
  3
ISO-25
100
AcDbDiametricDimension
 15
488.7499999999991
 25
952.8830312067055
 35
0.0
 40
0.0
1001
ACAD
1000
DSTYLE
1002
{
1070
   270
1070
     2
1070
     6
1000
EX_NORM
1070
     7
1000
EX_NORM
1070
    41
1040
15.0
1070
    73
1070
     0
1070
    74
1070
     0
1070
    77
1070
     1
1070
    78
1070
     8
1070
   140
1040
17.3145207852194
1070
   147
1040
0.0
1070
   173
1070
     1
1070
   176
1070
     2
1070
   177
1070
     2
1070
   178
1070
     2
1070
   271
1070
     2
1070
   277
1070
     2
1070
   279
1070
     2
1070
   280
1070
     1
1070
   287
1070
     5
1070
   340
1005
137
1002
}
  0
LINE
  5
2D4
330
1F
100
AcDbEntity
  8
Ｓ_１_１
  6
EXLTYPE2
 62
     1
100
AcDbLine
 10
401.6437249999999
 20
810.0
 30
0.0
 11
1813.0
 21
810.0000000000002
 31
0.0
  0
LINE
  5
2D5
330
1F
100
AcDbEntity
  8
Ｓ_１_１
  6
CONTINUOUS
 62
     3
100
AcDbLine
 10
864.9999869999999
 20
745.0
 30
0.0
 11
1797.999992
 21
745.0
 31
0.0
  0
LINE
  5
2D6
330
1F
100
AcDbEntity
  8
Ｓ_１_１
  6
CONTINUOUS
 62
     3
100
AcDbLine
 10
864.9999869999999
 20
875.0
 30
0.0
 11
1797.999992
 21
875.0000000000001
 31
0.0
  0
LINE
  5
2D7
330
1F
100
AcDbEntity
  8
Ｓ_１_１
  6
CONTINUOUS
 62
     3
100
AcDbLine
 10
616.999926
 20
840.0
 30
0.0
 11
619.999926
 21
840.0
 31
0.0
  0
LINE
  5
2D8
330
1F
100
AcDbEntity
  8
Ｓ_１_１
  6
CONTINUOUS
 62
     3
100
AcDbLine
 10
616.999926
 20
780.0
 30
0.0
 11
619.999926
 21
780.0
 31
0.0
  0
LINE
  5
2D9
330
1F
100
AcDbEntity
  8
Ｓ_１_１
  6
CONTINUOUS
 62
     3
100
AcDbLine
 10
596.999926
 20
780.9999390000002
 30
0.0
 11
615.2678699999999
 21
780.9999390000002
 31
0.0
  0
LINE
  5
2DA
330
1F
100
AcDbEntity
  8
Ｓ_１_１
  6
CONTINUOUS
 62
     3
100
AcDbLine
 10
596.999926
 20
838.999939
 30
0.0
 11
615.2678699999999
 21
838.999939
 31
0.0
  0
LINE
  5
2DB
330
1F
100
AcDbEntity
  8
Ｓ_１_１
  6
CONTINUOUS
 62
     3
100
AcDbLine
 10
617.0000029999999
 20
839.9999109999999
 30
0.0
 11
615.267979
 21
838.999926
 31
0.0
  0
LINE
  5
2DC
330
1F
100
AcDbEntity
  8
Ｓ_１_１
  6
CONTINUOUS
 62
     3
100
AcDbLine
 10
615.2679899999998
 20
780.9999290000002
 30
0.0
 11
617.000041
 21
779.9999290000001
 31
0.0
  0
LINE
  5
2DD
330
1F
100
AcDbEntity
  8
Ｓ_１_１
  6
CONTINUOUS
 62
     3
100
AcDbLine
 10
615.2678699999999
 20
838.999939
 30
0.0
 11
615.2678699999999
 21
780.9999390000002
 31
0.0
  0
LINE
  5
2DE
330
1F
100
AcDbEntity
  8
Ｓ_１_１
  6
CONTINUOUS
 62
     3
100
AcDbLine
 10
616.999926
 20
780.0
 30
0.0
 11
616.999926
 21
840.0
 31
0.0
  0
LINE
  5
2DF
330
1F
100
AcDbEntity
  8
Ｓ_１_１
  6
CONTINUOUS
 62
     3
100
AcDbLine
 10
595.999926
 20
837.999939
 30
0.0
 11
595.999926
 21
781.999939
 31
0.0
  0
LINE
  5
2E0
330
1F
100
AcDbEntity
  8
Ｓ_１_１
  6
CONTINUOUS
 62
     3
100
AcDbLine
 10
596.9999499999999
 20
839.0000150000001
 30
0.0
 11
595.9999379999999
 21
838.0000029999999
 31
0.0
  0
LINE
  5
2E1
330
1F
100
AcDbEntity
  8
Ｓ_１_１
  6
CONTINUOUS
 62
     3
100
AcDbLine
 10
595.9999699999998
 20
781.9999760000002
 30
0.0
 11
597.0000359999999
 21
780.99991
 31
0.0
  0
LINE
  5
2E2
330
1F
100
AcDbEntity
  8
Ｓ_１_１
  6
CONTINUOUS
 62
     3
100
AcDbLine
 10
594.999926
 20
833.999939
 30
0.0
 11
595.999926
 21
833.999939
 31
0.0
  0
LINE
  5
2E3
330
1F
100
AcDbEntity
  8
Ｓ_１_１
  6
CONTINUOUS
 62
     3
100
AcDbLine
 10
862.4999869999999
 20
727.999939
 30
0.0
 11
787.4999869999999
 21
727.999939
 31
0.0
  0
LINE
  5
2E4
330
1F
100
AcDbEntity
  8
Ｓ_１_１
  6
CONTINUOUS
 62
     3
100
AcDbLine
 10
864.9999869999999
 20
890.0
 30
0.0
 11
864.9999869999999
 21
730.0
 31
0.0
  0
LINE
  5
2E5
330
1F
100
AcDbEntity
  8
Ｓ_１_１
  6
CONTINUOUS
 62
     3
100
AcDbLine
 10
784.9999869999999
 20
890.0
 30
0.0
 11
784.9999869999999
 21
730.0
 31
0.0
  0
LINE
  5
2E6
330
1F
100
AcDbEntity
  8
Ｓ_１_１
  6
CONTINUOUS
 62
     3
100
AcDbLine
 10
784.9999869999999
 20
890.0
 30
0.0
 11
864.9999869999999
 21
890.0
 31
0.0
  0
LINE
  5
2E7
330
1F
100
AcDbEntity
  8
Ｓ_１_１
  6
CONTINUOUS
 62
     3
100
AcDbLine
 10
784.9999869999999
 20
730.0
 30
0.0
 11
864.9999869999999
 21
730.0
 31
0.0
  0
LINE
  5
2E8
330
1F
100
AcDbEntity
  8
Ｓ_１_１
  6
CONTINUOUS
 62
     3
100
AcDbLine
 10
862.4999869999999
 20
891.999939
 30
0.0
 11
787.4999869999999
 21
891.999939
 31
0.0
  0
LINE
  5
2E9
330
1F
100
AcDbEntity
  8
Ｓ_１_１
  6
CONTINUOUS
 62
     3
100
AcDbLine
 10
619.999926
 20
868.0000000000001
 30
0.0
 11
619.999926
 21
751.999939
 31
0.0
  0
LINE
  5
2EA
330
1F
100
AcDbEntity
  8
Ｓ_１_１
  6
CONTINUOUS
 62
     3
100
AcDbLine
 10
621.999926
 20
870.0
 30
0.0
 11
784.9999869999999
 21
870.0
 31
0.0
  0
LINE
  5
2EB
330
1F
100
AcDbEntity
  8
Ｓ_１_１
  6
CONTINUOUS
 62
     3
100
AcDbLine
 10
621.999926
 20
750.0
 30
0.0
 11
784.9999869999999
 21
750.0
 31
0.0
  0
LINE
  5
2EC
330
1F
100
AcDbEntity
  8
Ｓ_１_１
  6
CONTINUOUS
 62
     3
100
AcDbLine
 10
621.999912
 20
870.0000259999999
 30
0.0
 11
619.99992
 21
868.000035
 31
0.0
  0
LINE
  5
2ED
330
1F
100
AcDbEntity
  8
Ｓ_１_１
  6
CONTINUOUS
 62
     3
100
AcDbLine
 10
619.9999309999998
 20
752.000009
 30
0.0
 11
621.9999759999998
 21
749.999963
 31
0.0
  0
LINE
  5
2EE
330
1F
100
AcDbEntity
  8
Ｓ_１_１
  6
CONTINUOUS
 62
     3
100
AcDbLine
 10
621.999926
 20
870.0
 30
0.0
 11
621.999926
 21
750.0
 31
0.0
  0
LINE
  5
2EF
330
1F
100
AcDbEntity
  8
Ｓ_１_１
  6
CONTINUOUS
 62
     3
100
AcDbLine
 10
594.999926
 20
858.0000000000001
 30
0.0
 11
594.999926
 21
761.999939
 31
0.0
  0
LINE
  5
2F0
330
1F
100
AcDbEntity
  8
Ｓ_１_１
  6
CONTINUOUS
 62
     3
100
AcDbLine
 10
534.999926
 20
860.0
 30
0.0
 11
534.999926
 21
835.0
 31
0.0
  0
LINE
  5
2F1
330
1F
100
AcDbEntity
  8
Ｓ_１_１
  6
CONTINUOUS
 62
     3
100
AcDbLine
 10
534.999926
 20
860.0
 30
0.0
 11
593.0000479999999
 21
860.0
 31
0.0
  0
LINE
  5
2F2
330
1F
100
AcDbEntity
  8
Ｓ_１_１
  6
CONTINUOUS
 62
     3
100
AcDbLine
 10
534.999926
 20
760.0
 30
0.0
 11
593.0000479999999
 21
760.0
 31
0.0
  0
LINE
  5
2F3
330
1F
100
AcDbEntity
  8
Ｓ_１_１
  6
CONTINUOUS
 62
     3
100
AcDbLine
 10
399.999926
 20
835.0
 30
0.0
 11
534.999926
 21
835.0
 31
0.0
  0
LINE
  5
2F4
330
1F
100
AcDbEntity
  8
Ｓ_１_１
  6
CONTINUOUS
 62
     3
100
AcDbLine
 10
399.999926
 20
785.0
 30
0.0
 11
534.999926
 21
785.0
 31
0.0
  0
LINE
  5
2F5
330
1F
100
AcDbEntity
  8
Ｓ_１_１
  6
CONTINUOUS
 62
     3
100
AcDbLine
 10
534.999926
 20
785.0
 30
0.0
 11
534.999926
 21
760.0
 31
0.0
  0
LINE
  5
2F6
330
1F
100
AcDbEntity
  8
Ｓ_１_１
  6
CONTINUOUS
 62
     3
100
AcDbLine
 10
596.999926
 20
838.999939
 30
0.0
 11
596.999926
 21
780.9999390000002
 31
0.0
  0
LINE
  5
2F7
330
1F
100
AcDbEntity
  8
Ｓ_１_１
  6
CONTINUOUS
 62
     3
100
AcDbLine
 10
594.999926
 20
785.9999390000002
 30
0.0
 11
595.999926
 21
785.9999390000002
 31
0.0
  0
LINE
  5
2F8
330
1F
100
AcDbEntity
  8
Ｓ_１_１
  6
CONTINUOUS
 62
     3
100
AcDbLine
 10
862.4999869999999
 20
730.0
 30
0.0
 11
862.4999869999999
 21
727.999939
 31
0.0
  0
LINE
  5
2F9
330
1F
100
AcDbEntity
  8
Ｓ_１_１
  6
CONTINUOUS
 62
     3
100
AcDbLine
 10
787.4999869999999
 20
730.0
 30
0.0
 11
787.4999869999999
 21
727.999939
 31
0.0
  0
LINE
  5
2FA
330
1F
100
AcDbEntity
  8
Ｓ_１_１
  6
CONTINUOUS
 62
     3
100
AcDbLine
 10
787.4999869999999
 20
890.0
 30
0.0
 11
787.4999869999999
 21
891.999939
 31
0.0
  0
LINE
  5
2FB
330
1F
100
AcDbEntity
  8
Ｓ_１_１
  6
CONTINUOUS
 62
     3
100
AcDbLine
 10
862.4999869999999
 20
890.0
 30
0.0
 11
862.4999869999999
 21
891.999939
 31
0.0
  0
LINE
  5
2FC
330
1F
100
AcDbEntity
  8
Ｓ_１_１
  6
CONTINUOUS
 62
     3
100
AcDbLine
 10
399.999926
 20
835.0
 30
0.0
 11
399.999926
 21
785.0
 31
0.0
  0
LINE
  5
2FD
330
1F
100
AcDbEntity
  8
Ｓ_１_１
  6
CONTINUOUS
 62
     3
100
AcDbLine
 10
424.999926
 20
835.0
 30
0.0
 11
424.999926
 21
785.0
 31
0.0
  0
LINE
  5
2FE
330
1F
100
AcDbEntity
  8
Ｓ_１_１
  6
CONTINUOUS
 62
     3
100
AcDbLine
 10
594.9999
 20
858.0000359999999
 30
0.0
 11
592.9999399999999
 21
859.999995
 31
0.0
  0
LINE
  5
2FF
330
1F
100
AcDbEntity
  8
Ｓ_１_１
  6
CONTINUOUS
 62
     3
100
AcDbLine
 10
594.999945
 20
761.9999989999999
 30
0.0
 11
592.999943
 21
759.9999969999999
 31
0.0
  0
LINE
  5
300
330
1F
100
AcDbEntity
  8
Ｓ_１_１
  6
CONTINUOUS
 62
     3
100
AcDbLine
 10
593.0000479999999
 20
760.0
 30
0.0
 11
593.0000479999999
 21
860.0
 31
0.0
  0
CIRCLE
  5
301
330
1F
100
AcDbEntity
  8
Ｓ_１_１
  6
CONTINUOUS
 62
     3
100
AcDbCircle
 10
605.999926
 20
810.0
 30
0.0
 40
4.0
  0
CIRCLE
  5
302
330
1F
100
AcDbEntity
  8
Ｓ_１_１
  6
CONTINUOUS
 62
     3
100
AcDbCircle
 10
569.999926
 20
810.0
 30
0.0
 40
4.0
  0
CIRCLE
  5
303
330
1F
100
AcDbEntity
  8
Ｓ_１_１
  6
CONTINUOUS
 62
     3
100
AcDbCircle
 10
569.999926
 20
810.0
 30
0.0
 40
3.300000000000001
  0
LINE
  5
304
330
1F
100
AcDbEntity
  8
Ｓ_１_１
  6
EXLTYPE0
 62
     2
100
AcDbLine
 10
489.999926
 20
835.0
 30
0.0
 11
489.999926
 21
785.0
 31
0.0
  0
LINE
  5
305
330
1F
100
AcDbEntity
  8
Ｓ_１_１
  6
EXLTYPE0
 62
     2
100
AcDbLine
 10
429.999926
 20
835.0
 30
0.0
 11
429.999926
 21
785.0
 31
0.0
  0
LINE
  5
306
330
1F
100
AcDbEntity
  8
Ｓ_１_１
  6
EXLTYPE2
 62
     1
100
AcDbLine
 10
459.999926
 20
846.8763429999999
 30
0.0
 11
459.999926
 21
776.1613769999999
 31
0.0
  0
LINE
  5
307
330
1F
100
AcDbEntity
  8
Ｓ_１_１
  6
EXLTYPE2
 62
     1
100
AcDbLine
 10
605.999926
 20
840.5374760000001
 30
0.0
 11
605.999926
 21
831.2623900000001
 31
0.0
  0
LINE
  5
308
330
1F
100
AcDbEntity
  8
Ｓ_１_１
  6
EXLTYPE2
 62
     1
100
AcDbLine
 10
605.999926
 20
815.3374019999999
 30
0.0
 11
605.999926
 21
805.362427
 31
0.0
  0
LINE
  5
309
330
1F
100
AcDbEntity
  8
Ｓ_１_１
  6
EXLTYPE2
 62
     1
100
AcDbLine
 10
605.999926
 20
788.912476
 30
0.0
 11
605.999926
 21
779.637451
 31
0.0
  0
LINE
  5
30A
330
1F
100
AcDbEntity
  8
Ｓ_１_１
  6
EXLTYPE2
 62
     1
100
AcDbLine
 10
569.999926
 20
816.737427
 30
0.0
 11
569.999926
 21
802.5624390000002
 31
0.0
  0
LINE
  5
30B
330
1F
100
AcDbEntity
  8
Ｓ_１_１
  6
EXLTYPE2
 62
     1
100
AcDbLine
 10
689.9999869999999
 20
876.3438719999999
 30
0.0
 11
689.9999869999999
 21
861.292175
 31
0.0
  0
LINE
  5
30C
330
1F
100
AcDbEntity
  8
Ｓ_１_１
  6
EXLTYPE2
 62
     1
100
AcDbLine
 10
689.9999869999999
 20
743.6560669999998
 30
0.0
 11
689.9999869999999
 21
758.7077639999999
 31
0.0
  0
LINE
  5
30D
330
1F
100
AcDbEntity
  8
Ｓ_１_１
  6
CONTINUOUS
 62
     3
100
AcDbLine
 10
1800.0
 20
872.999939
 30
0.0
 11
1800.0
 21
746.999939
 31
0.0
  0
LINE
  5
30E
330
1F
100
AcDbEntity
  8
Ｓ_１_１
  6
CONTINUOUS
 62
     3
100
AcDbLine
 10
1798.000024
 20
874.9999559999999
 30
0.0
 11
1800.000026
 21
872.999954
 31
0.0
  0
LINE
  5
30F
330
1F
100
AcDbEntity
  8
Ｓ_１_１
  6
CONTINUOUS
 62
     3
100
AcDbLine
 10
1799.999983
 20
746.999906
 30
0.0
 11
1798.000003
 21
744.999926
 31
0.0
  0
LINE
  5
310
330
1F
100
AcDbEntity
  8
Ｓ_１_１
  6
CONTINUOUS
 62
     3
100
AcDbLine
 10
1797.999992
 20
875.0
 30
0.0
 11
1797.999992
 21
745.0
 31
0.0
  0
CIRCLE
  5
311
330
1F
100
AcDbEntity
  8
Ｓ_１_１
  6
CONTINUOUS
 62
     3
100
AcDbCircle
 10
1744.999991
 20
810.0
 30
0.0
 40
12.00002
  0
CIRCLE
  5
312
330
1F
100
AcDbEntity
  8
Ｓ_１_１
  6
CONTINUOUS
 62
     3
100
AcDbCircle
 10
1744.999991
 20
810.0
 30
0.0
 40
12.999939
  0
CIRCLE
  5
313
330
1F
100
AcDbEntity
  8
Ｓ_１_１
  6
CONTINUOUS
 62
     3
100
AcDbCircle
 10
1744.999991
 20
810.0
 30
0.0
 40
16.00008
  0
LINE
  5
314
330
1F
100
AcDbEntity
  8
Ｓ_１_１
  6
EXLTYPE2
 62
     1
100
AcDbLine
 10
1744.999991
 20
822.5
 30
0.0
 11
1744.999991
 21
797.5
 31
0.0
  0
LINE
  5
315
330
1F
100
AcDbEntity
  8
Ｓ_１_１
  6
EXLTYPE2
 62
     1
100
AcDbLine
 10
1744.999991
 20
880.0166629999999
 30
0.0
 11
1744.999991
 21
860.167236
 31
0.0
  0
LINE
  5
316
330
1F
100
AcDbEntity
  8
Ｓ_１_１
  6
EXLTYPE2
 62
     1
100
AcDbLine
 10
1744.999991
 20
739.9832759999999
 30
0.0
 11
1744.999991
 21
759.832764
 31
0.0
  0
LINE
  5
317
330
1F
100
AcDbEntity
  8
Ｓ_１_１
  6
EXLTYPE2
 62
     1
100
AcDbLine
 10
450.0
 20
1107.762512
 30
0.0
 11
450.0
 21
932.762512
 31
0.0
  0
CIRCLE
  5
318
330
1F
100
AcDbEntity
  8
Ｓ_１_１
  6
CONTINUOUS
 62
     3
100
AcDbCircle
 10
450.0
 20
1020.0
 30
0.0
 40
60.00000000000004
  0
ARC
  5
319
330
1F
100
AcDbEntity
  8
Ｓ_１_１
  6
CONTINUOUS
 62
     3
100
AcDbCircle
 10
450.0
 20
1020.0
 30
0.0
 40
77.5
100
AcDbArc
 50
61.75659
 51
118.243415
  0
ARC
  5
31A
330
1F
100
AcDbEntity
  8
Ｓ_１_１
  6
CONTINUOUS
 62
     3
100
AcDbCircle
 10
450.0
 20
1020.0
 30
0.0
 40
77.5
100
AcDbArc
 50
241.756585
 51
298.2434100000002
  0
CIRCLE
  5
31B
330
1F
100
AcDbEntity
  8
Ｓ_１_１
  6
CONTINUOUS
 62
     3
100
AcDbCircle
 10
450.0
 20
1020.0
 30
0.0
 40
65.0
  0
CIRCLE
  5
31C
330
1F
100
AcDbEntity
  8
Ｓ_１_１
  6
CONTINUOUS
 62
     3
100
AcDbCircle
 10
450.0
 20
1020.0
 30
0.0
 40
25.00000000000002
  0
CIRCLE
  5
31D
330
1F
100
AcDbEntity
  8
Ｓ_１_１
  6
CONTINUOUS
 62
     3
100
AcDbCircle
 10
450.0
 20
1020.0
 30
0.0
 40
50.00000000000004
  0
LINE
  5
31E
330
1F
100
AcDbEntity
  8
Ｓ_１_１
  6
CONTINUOUS
 62
     3
100
AcDbLine
 10
530.0
 20
982.5
 30
0.0
 11
532.0000609999997
 21
982.5
 31
0.0
  0
LINE
  5
31F
330
1F
100
AcDbEntity
  8
Ｓ_１_１
  6
CONTINUOUS
 62
     3
100
AcDbLine
 10
370.0
 20
982.5
 30
0.0
 11
368.0001219999999
 21
982.5
 31
0.0
  0
LINE
  5
320
330
1F
100
AcDbEntity
  8
Ｓ_１_１
  6
CONTINUOUS
 62
     3
100
AcDbLine
 10
370.0
 20
1057.5
 30
0.0
 11
368.0001219999999
 21
1057.5
 31
0.0
  0
LINE
  5
321
330
1F
100
AcDbEntity
  8
Ｓ_１_１
  6
CONTINUOUS
 62
     3
100
AcDbLine
 10
530.0
 20
1057.5
 30
0.0
 11
532.0000609999997
 21
1057.5
 31
0.0
  0
LINE
  5
322
330
1F
100
AcDbEntity
  8
Ｓ_１_１
  6
CONTINUOUS
 62
     3
100
AcDbLine
 10
370.0000769999997
 20
975.0000239999999
 30
0.0
 11
413.325652
 21
951.7267729999999
 31
0.0
  0
LINE
  5
323
330
1F
100
AcDbEntity
  8
Ｓ_１_１
  6
CONTINUOUS
 62
     3
100
AcDbLine
 10
530.0001139999999
 20
975.000006
 30
0.0
 11
486.6744850000001
 21
951.726727
 31
0.0
  0
LINE
  5
324
330
1F
100
AcDbEntity
  8
Ｓ_１_１
  6
CONTINUOUS
 62
     3
100
AcDbLine
 10
530.0000179999997
 20
1065.000049
 30
0.0
 11
486.674497
 21
1088.273271
 31
0.0
  0
LINE
  5
325
330
1F
100
AcDbEntity
  8
Ｓ_１_１
  6
CONTINUOUS
 62
     3
100
AcDbLine
 10
370.0000369999998
 20
1065.000028
 30
0.0
 11
413.3256119999996
 21
1088.273278
 31
0.0
  0
LINE
  5
326
330
1F
100
AcDbEntity
  8
Ｓ_１_１
  6
CONTINUOUS
 62
     3
100
AcDbLine
 10
532.0000609999997
 20
1057.5
 30
0.0
 11
532.0000609999997
 21
982.5
 31
0.0
  0
LINE
  5
327
330
1F
100
AcDbEntity
  8
Ｓ_１_１
  6
CONTINUOUS
 62
     3
100
AcDbLine
 10
530.0
 20
1065.0
 30
0.0
 11
530.0
 21
975.0
 31
0.0
  0
LINE
  5
328
330
1F
100
AcDbEntity
  8
Ｓ_１_１
  6
CONTINUOUS
 62
     3
100
AcDbLine
 10
368.0001219999999
 20
1057.5
 30
0.0
 11
368.0001219999999
 21
982.5
 31
0.0
  0
LINE
  5
329
330
1F
100
AcDbEntity
  8
Ｓ_１_１
  6
CONTINUOUS
 62
     3
100
AcDbLine
 10
370.0
 20
1065.0
 30
0.0
 11
370.0
 21
975.0
 31
0.0
  0
LINE
  5
32A
330
1F
100
AcDbEntity
  8
Ｓ_１_１
  6
CONTINUOUS
 62
     3
100
AcDbLine
 10
425.0
 20
1063.30127
 30
0.0
 11
425.0
 21
976.6987460000001
 31
0.0
  0
LINE
  5
32B
330
1F
100
AcDbEntity
  8
Ｓ_１_１
  6
CONTINUOUS
 62
     3
100
AcDbLine
 10
475.0
 20
1063.30127
 30
0.0
 11
475.0
 21
976.6987460000001
 31
0.0
  0
LINE
  5
32C
330
1F
100
AcDbEntity
  8
Ｓ_１_１
  6
CONTINUOUS
 62
     3
100
AcDbLine
 10
408.5
 20
1270.5
 30
0.0
 11
486.0
 21
1270.5
 31
0.0
  0
DIMENSION
  5
32D
330
1F
100
AcDbEntity
  8
Ｓ_１_１
  6
CONTINUOUS
 62
     2
100
AcDbDimension
  2
*D34
 10
481.2131384355965
 20
381.2132034355963
 30
0.0
 11
365.086343793425
 21
284.5318452760549
 31
0.0
 70
   163
  3
ISO-25
100
AcDbDiametricDimension
 15
438.7867315644036
 25
338.7867965644035
 35
0.0
 40
0.0
1001
ACAD
1000
DSTYLE
1002
{
1070
   270
1070
     2
1070
     6
1000
EX_NORM
1070
     7
1000
EX_NORM
1070
    41
1040
15.0
1070
    73
1070
     0
1070
    74
1070
     0
1070
    77
1070
     1
1070
    78
1070
     8
1070
   140
1040
17.3145207852194
1070
   147
1040
0.0
1070
   173
1070
     1
1070
   176
1070
     2
1070
   177
1070
     2
1070
   178
1070
     2
1070
   271
1070
     2
1070
   277
1070
     2
1070
   279
1070
     2
1070
   280
1070
     0
1070
   287
1070
     5
1070
   340
1005
137
1002
}
  0
TEXT
  5
338
330
1F
100
AcDbEntity
  8
Ｓ_１_１
  6
CONTINUOUS
 62
     4
100
AcDbText
 10
210.0
 20
363.1640625
 30
0.0
 40
17.3145207852194
  1
A
 41
0.999230769230769
  7
EXCADTTF1
 72
     5
 11
221.25
 21
363.1640625
 31
0.0
100
AcDbText
  0
LEADER
  5
339
330
1F
100
AcDbEntity
  8
Ｓ_１_１
  6
CONTINUOUS
 62
     2
100
AcDbLeader
  3
ISO-25
 76
     2
 10
240.0
 20
360.0
 30
0.0
 10
210.0
 20
360.0
 30
0.0
1001
ACAD
1000
DSTYLE
1002
{
1070
     5
1000
EX_NORM
1070
    41
1040
15.0
1070
   341
1005
79
1002
}
  0
TEXT
  5
33A
330
1F
100
AcDbEntity
  8
Ｓ_１_１
  6
CONTINUOUS
 62
     4
100
AcDbText
 10
408.5
 20
1273.6640625
 30
0.0
 40
17.3145207852194
  1
A矢示図
 41
0.999230769230769
  7
EXCADTTF1
 72
     5
 11
487.25
 21
1273.6640625
 31
0.0
100
AcDbText
  0
LINE
  5
33B
330
1F
100
AcDbEntity
  8
Ｓ_１_１
  6
CONTINUOUS
 62
     3
100
AcDbLine
 10
853.9999869999999
 20
924.000061
 30
0.0
 11
795.9999260000001
 21
924.000061
 31
0.0
  0
LINE
  5
33C
330
1F
100
AcDbEntity
  8
Ｓ_１_１
  6
CONTINUOUS
 62
     3
100
AcDbLine
 10
854.0000709999999
 20
924.0001320000001
 30
0.0
 11
855.000078
 21
923.000126
 31
0.0
  0
LINE
  5
33D
330
1F
100
AcDbEntity
  8
Ｓ_１_１
  6
CONTINUOUS
 62
     3
100
AcDbLine
 10
795.999967
 20
924.0000460000001
 30
0.0
 11
794.9999869999999
 21
923.000067
 31
0.0
  0
LINE
  5
33E
330
1F
100
AcDbEntity
  8
Ｓ_１_１
  6
CONTINUOUS
 62
     3
100
AcDbLine
 10
854.9999869999999
 20
923.000061
 30
0.0
 11
794.9999869999999
 21
923.000061
 31
0.0
  0
LINE
  5
33F
330
1F
100
AcDbEntity
  8
Ｓ_１_１
  6
CONTINUOUS
 62
     3
100
AcDbLine
 10
853.9999869999999
 20
695.9999389999999
 30
0.0
 11
795.9999260000001
 21
695.9999389999999
 31
0.0
  0
LINE
  5
340
330
1F
100
AcDbEntity
  8
Ｓ_１_１
  6
CONTINUOUS
 62
     3
100
AcDbLine
 10
854.0000709999999
 20
695.9998679999999
 30
0.0
 11
855.000078
 21
696.9998740000001
 31
0.0
  0
LINE
  5
341
330
1F
100
AcDbEntity
  8
Ｓ_１_１
  6
CONTINUOUS
 62
     3
100
AcDbLine
 10
795.999967
 20
695.9999539999999
 30
0.0
 11
794.9999869999999
 21
696.9999329999999
 31
0.0
  0
LINE
  5
342
330
1F
100
AcDbEntity
  8
Ｓ_１_１
  6
CONTINUOUS
 62
     3
100
AcDbLine
 10
854.9999869999999
 20
696.999939
 30
0.0
 11
794.9999869999999
 21
696.999939
 31
0.0
  0
LINE
  5
343
330
1F
100
AcDbEntity
  8
Ｓ_１_１
  6
CONTINUOUS
 62
     3
100
AcDbLine
 10
794.9999869999999
 20
727.999939
 30
0.0
 11
794.9999869999999
 21
696.9999329999999
 31
0.0
  0
LINE
  5
344
330
1F
100
AcDbEntity
  8
Ｓ_１_１
  6
CONTINUOUS
 62
     3
100
AcDbLine
 10
854.9999869999999
 20
727.999939
 30
0.0
 11
854.9999869999999
 21
696.9997830000909
 31
0.0
  0
LINE
  5
345
330
1F
100
AcDbEntity
  8
Ｓ_１_１
  6
CONTINUOUS
 62
     3
100
AcDbLine
 10
794.9999869999999
 20
892.000061
 30
0.0
 11
794.9999869999999
 21
923.000067
 31
0.0
  0
LINE
  5
346
330
1F
100
AcDbEntity
  8
Ｓ_１_１
  6
CONTINUOUS
 62
     3
100
AcDbLine
 10
854.9999869999999
 20
892.000061
 30
0.0
 11
854.9999869999999
 21
923.0002169999092
 31
0.0
  0
LINE
  5
347
330
1F
100
AcDbEntity
  8
Ｓ_１_１
  6
EXLTYPE2
 62
     1
100
AcDbLine
 10
824.9999869999999
 20
930.0
 30
0.0
 11
824.9999869999999
 21
690.0
 31
0.0
  0
DIMENSION
  5
348
330
1F
100
AcDbEntity
  8
Ｓ_１_１
  6
CONTINUOUS
 62
     2
100
AcDbDimension
  2
*D35
 10
930.0
 20
891.9999389999999
 30
0.0
 11
916.25
 21
809.999939
 31
0.0
 70
   160
  1
　　　164
  3
ISO-25
100
AcDbAlignedDimension
 13
862.499987
 23
727.999939
 33
0.0
 14
862.499987
 24
891.999939
 34
0.0
 50
90.0
100
AcDbRotatedDimension
1001
ACAD
1000
DSTYLE
1002
{
1070
   270
1070
     2
1070
     6
1000
EX_NORM
1070
     7
1000
EX_NORM
1070
    41
1040
15.0
1070
    42
1040
0.0
1070
    44
1040
0.0
1070
    73
1070
     0
1070
    74
1070
     0
1070
    75
1070
     1
1070
    76
1070
     1
1070
    77
1070
     1
1070
    78
1070
     8
1070
   140
1040
17.3145207852194
1070
   147
1040
0.0
1070
   173
1070
     1
1070
   176
1070
     2
1070
   177
1070
     2
1070
   178
1070
     2
1070
   271
1070
     2
1070
   277
1070
     2
1070
   279
1070
     2
1070
   280
1070
     0
1070
   287
1070
     5
1070
   340
1005
137
1002
}
  0
DIMENSION
  5
353
330
1F
100
AcDbEntity
  8
Ｓ_１_１
  6
CONTINUOUS
 62
     2
100
AcDbDimension
  2
*D36
 10
930.0
 20
891.9999389999999
 30
0.0
 11
916.2500000000001
 21
950.250061
 31
0.0
 70
   160
  3
ISO-25
100
AcDbAlignedDimension
 13
854.00014200007
 23
924.000061
 33
0.0
 14
862.499987
 24
891.999939
 34
0.0
 50
90.0
100
AcDbRotatedDimension
1001
ACAD
1000
DSTYLE
1002
{
1070
   270
1070
     2
1070
     6
1000
EX_NORM
1070
     7
1000
EX_NORM
1070
    41
1040
15.0
1070
    42
1040
7.5
1070
    44
1040
5.0
1070
    73
1070
     0
1070
    74
1070
     0
1070
    75
1070
     1
1070
    76
1070
     0
1070
    77
1070
     1
1070
    78
1070
     8
1070
   140
1040
17.3145207852194
1070
   147
1040
0.0
1070
   173
1070
     1
1070
   176
1070
     2
1070
   177
1070
     2
1070
   178
1070
     2
1070
   271
1070
     2
1070
   277
1070
     2
1070
   279
1070
     2
1070
   280
1070
     1
1070
   287
1070
     5
1070
   340
1005
137
1002
}
  0
DIMENSION
  5
35F
330
1F
100
AcDbEntity
  8
Ｓ_１_１
  6
CONTINUOUS
 62
     2
100
AcDbDimension
  2
*D37
 10
930.0
 20
695.9999389999998
 30
0.0
 11
916.2500000000001
 21
669.7499389999999
 31
0.0
 70
   160
  3
ISO-25
100
AcDbAlignedDimension
 13
862.499987
 23
727.999939
 33
0.0
 14
854.00014200007
 24
695.9999389999999
 34
0.0
 50
90.0
100
AcDbRotatedDimension
1001
ACAD
1000
DSTYLE
1002
{
1070
   270
1070
     2
1070
     6
1000
EX_NORM
1070
     7
1000
EX_NORM
1070
    41
1040
15.0
1070
    42
1040
7.5
1070
    44
1040
5.0
1070
    73
1070
     0
1070
    74
1070
     0
1070
    75
1070
     0
1070
    76
1070
     1
1070
    77
1070
     1
1070
    78
1070
     8
1070
   140
1040
17.3145207852194
1070
   147
1040
0.0
1070
   173
1070
     1
1070
   176
1070
     2
1070
   177
1070
     2
1070
   178
1070
     2
1070
   271
1070
     2
1070
   277
1070
     2
1070
   279
1070
     2
1070
   280
1070
     2
1070
   287
1070
     5
1070
   340
1005
137
1002
}
  0
DIMENSION
  5
36B
330
1F
100
AcDbEntity
  8
Ｓ_１_１
  6
CONTINUOUS
 62
     2
100
AcDbDimension
  2
*D38
 10
960.0
 20
924.0000609999998
 30
0.0
 11
946.25
 21
810.0
 31
0.0
 70
   160
  1
　　　228
  3
ISO-25
100
AcDbAlignedDimension
 13
854.00014200007
 23
695.9999389999999
 33
0.0
 14
854.00014200007
 24
924.000061
 34
0.0
 50
90.0
100
AcDbRotatedDimension
1001
ACAD
1000
DSTYLE
1002
{
1070
   270
1070
     2
1070
     6
1000
EX_NORM
1070
     7
1000
EX_NORM
1070
    41
1040
15.0
1070
    42
1040
7.5
1070
    44
1040
5.0
1070
    73
1070
     0
1070
    74
1070
     0
1070
    75
1070
     0
1070
    76
1070
     0
1070
    77
1070
     1
1070
    78
1070
     8
1070
   140
1040
17.3145207852194
1070
   147
1040
0.0
1070
   173
1070
     1
1070
   176
1070
     2
1070
   177
1070
     2
1070
   178
1070
     2
1070
   271
1070
     2
1070
   277
1070
     2
1070
   279
1070
     2
1070
   280
1070
     0
1070
   287
1070
     5
1070
   340
1005
137
1002
}
  0
LINE
  5
378
330
1F
100
AcDbEntity
  8
Ｓ_１_１
  6
CONTINUOUS
 62
     3
100
AcDbLine
 10
337.0
 20
1050.0
 30
0.0
 11
337.0
 21
990.0
 31
0.0
  0
LINE
  5
379
330
1F
100
AcDbEntity
  8
Ｓ_１_１
  6
CONTINUOUS
 62
     3
100
AcDbLine
 10
336.0001090000001
 20
990.9999820000002
 30
0.0
 11
337.0001309999998
 21
989.999959
 31
0.0
  0
LINE
  5
37A
330
1F
100
AcDbEntity
  8
Ｓ_１_１
  6
CONTINUOUS
 62
     3
100
AcDbLine
 10
336.0001090000001
 20
1049.0
 30
0.0
 11
337.0000879999998
 21
1049.99998
 31
0.0
  0
LINE
  5
37B
330
1F
100
AcDbEntity
  8
Ｓ_１_１
  6
CONTINUOUS
 62
     3
100
AcDbLine
 10
336.0
 20
1049.000015
 30
0.0
 11
336.0
 21
991.0
 31
0.0
  0
LINE
  5
37C
330
1F
100
AcDbEntity
  8
Ｓ_１_１
  6
CONTINUOUS
 62
     3
100
AcDbLine
 10
564.0000829999999
 20
1048.999957
 30
0.0
 11
563.0000599999998
 21
1049.99998
 31
0.0
  0
LINE
  5
37D
330
1F
100
AcDbEntity
  8
Ｓ_１_１
  6
CONTINUOUS
 62
     3
100
AcDbLine
 10
564.0
 20
1049.000015
 30
0.0
 11
564.0
 21
991.0
 31
0.0
  0
LINE
  5
37E
330
1F
100
AcDbEntity
  8
Ｓ_１_１
  6
CONTINUOUS
 62
     3
100
AcDbLine
 10
564.0000829999999
 20
990.9999390000002
 30
0.0
 11
563.0001029999999
 21
989.999959
 31
0.0
  0
LINE
  5
37F
330
1F
100
AcDbEntity
  8
Ｓ_１_１
  6
CONTINUOUS
 62
     3
100
AcDbLine
 10
563.0000609999997
 20
1050.0
 30
0.0
 11
563.0000609999997
 21
990.0
 31
0.0
  0
LINE
  5
380
330
1F
100
AcDbEntity
  8
Ｓ_１_１
  6
CONTINUOUS
 62
     3
100
AcDbLine
 10
368.0001219999999
 20
1050.0
 30
0.0
 11
337.0
 21
1050.0
 31
0.0
  0
LINE
  5
381
330
1F
100
AcDbEntity
  8
Ｓ_１_１
  6
CONTINUOUS
 62
     3
100
AcDbLine
 10
368.0001219999999
 20
990.0
 30
0.0
 11
337.0
 21
990.0
 31
0.0
  0
LINE
  5
382
330
1F
100
AcDbEntity
  8
Ｓ_１_１
  6
CONTINUOUS
 62
     3
100
AcDbLine
 10
532.0000609999997
 20
1050.0
 30
0.0
 11
563.0000609999997
 21
1050.0
 31
0.0
  0
LINE
  5
383
330
1F
100
AcDbEntity
  8
Ｓ_１_１
  6
CONTINUOUS
 62
     3
100
AcDbLine
 10
532.0000609999997
 20
990.0
 30
0.0
 11
563.0001439999999
 21
990.0
 31
0.0
  0
LINE
  5
384
330
1F
100
AcDbEntity
  8
Ｓ_１_１
  6
EXLTYPE2
 62
     1
100
AcDbLine
 10
570.0
 20
1020.0
 30
0.0
 11
330.0
 21
1020.0
 31
0.0
  0
DIMENSION
  5
385
330
1F
100
AcDbEntity
  8
Ｓ_１_１
  6
CONTINUOUS
 62
     2
100
AcDbDimension
  2
*D39
 10
336.0
 20
1170.0
 30
0.0
 11
309.7500000000003
 21
1183.75
 31
0.0
 70
   160
  3
ISO-25
100
AcDbAlignedDimension
 13
368.000122
 23
1057.5
 33
0.0
 14
336.0
 24
1048.9998909999
 34
0.0
100
AcDbRotatedDimension
1001
ACAD
1000
DSTYLE
1002
{
1070
   270
1070
     2
1070
     6
1000
EX_BCIR
1070
     7
1000
EX_NORM
1070
    41
1040
5.0
1070
    42
1040
7.5
1070
    44
1040
5.0
1070
    73
1070
     0
1070
    74
1070
     0
1070
    75
1070
     0
1070
    76
1070
     1
1070
    77
1070
     1
1070
    78
1070
     8
1070
   140
1040
17.3145207852194
1070
   147
1040
0.0
1070
   173
1070
     1
1070
   176
1070
     2
1070
   177
1070
     2
1070
   178
1070
     2
1070
   271
1070
     2
1070
   277
1070
     2
1070
   279
1070
     2
1070
   280
1070
     2
1070
   287
1070
     5
1070
   340
1005
137
1002
}
  0
DIMENSION
  5
391
330
1F
100
AcDbEntity
  8
Ｓ_１_１
  6
CONTINUOUS
 62
     2
100
AcDbDimension
  2
*D40
 10
336.0
 20
1200.0
 30
0.0
 11
309.7500000000003
 21
1213.75
 31
0.0
 70
   160
  3
ISO-25
100
AcDbAlignedDimension
 13
370.0
 23
1065.0000081247
 33
0.0
 14
336.0
 24
1048.9998909999
 34
0.0
100
AcDbRotatedDimension
1001
ACAD
1000
DSTYLE
1002
{
1070
   270
1070
     2
1070
     6
1000
EX_NORM
1070
     7
1000
EX_NORM
1070
    41
1040
15.0
1070
    42
1040
7.5
1070
    44
1040
5.0
1070
    73
1070
     0
1070
    74
1070
     0
1070
    75
1070
     0
1070
    76
1070
     0
1070
    77
1070
     1
1070
    78
1070
     8
1070
   140
1040
17.3145207852194
1070
   147
1040
0.0
1070
   173
1070
     1
1070
   176
1070
     2
1070
   177
1070
     2
1070
   178
1070
     2
1070
   271
1070
     2
1070
   277
1070
     2
1070
   279
1070
     2
1070
   280
1070
     2
1070
   287
1070
     5
1070
   340
1005
137
1002
}
  0
CIRCLE
  5
39E
330
1F
100
AcDbEntity
  8
Ｓ_１_１
  6
CONTINUOUS
 62
     3
100
AcDbCircle
 10
689.9999870000136
 20
810.0000000000011
 30
0.0
 40
13.9999997615814
  0
CIRCLE
  5
39F
330
1F
100
AcDbEntity
  8
Ｓ_１_１
  6
CONTINUOUS
 62
     3
100
AcDbCircle
 10
689.9999870000136
 20
810.0000000000011
 30
0.0
 40
15.00000000000001
  0
POLYLINE
  5
3A0
330
1F
100
AcDbEntity
  8
Ｓ_１_１
  6
CONTINUOUS
 62
     3
100
AcDb2dPolyline
 66
     1
 10
0.0
 20
0.0
 30
0.0
 70
   128
  0
VERTEX
  5
3A1
330
3A0
100
AcDbEntity
  8
Ｓ_１_１
  6
CONTINUOUS
 62
     3
100
AcDbVertex
100
AcDb2dVertex
 10
703.8563934605518
 20
810.0000000000038
 30
0.0
  0
VERTEX
  5
3A2
330
3A0
100
AcDbEntity
  8
Ｓ_１_１
  6
CONTINUOUS
 62
     3
100
AcDbVertex
100
AcDb2dVertex
 10
696.9281902302755
 20
798.0000000000038
 30
0.0
  0
VERTEX
  5
3A3
330
3A0
100
AcDbEntity
  8
Ｓ_１_１
  6
CONTINUOUS
 62
     3
100
AcDbVertex
100
AcDb2dVertex
 10
683.0717837697248
 20
798.0000000000038
 30
0.0
  0
VERTEX
  5
3A4
330
3A0
100
AcDbEntity
  8
Ｓ_１_１
  6
CONTINUOUS
 62
     3
100
AcDbVertex
100
AcDb2dVertex
 10
676.1435805394485
 20
810.0000000000038
 30
0.0
  0
VERTEX
  5
3A5
330
3A0
100
AcDbEntity
  8
Ｓ_１_１
  6
CONTINUOUS
 62
     3
100
AcDbVertex
100
AcDb2dVertex
 10
683.0717837697248
 20
822.0000000000039
 30
0.0
  0
VERTEX
  5
3A6
330
3A0
100
AcDbEntity
  8
Ｓ_１_１
  6
CONTINUOUS
 62
     3
100
AcDbVertex
100
AcDb2dVertex
 10
696.9281902302755
 20
822.0000000000039
 30
0.0
  0
VERTEX
  5
3A7
330
3A0
100
AcDbEntity
  8
Ｓ_１_１
  6
CONTINUOUS
 62
     3
100
AcDbVertex
100
AcDb2dVertex
 10
703.8563934605518
 20
810.0000000000038
 30
0.0
  0
SEQEND
  5
3A8
330
3A0
100
AcDbEntity
  8
Ｓ_１_１
  6
CONTINUOUS
 62
     3
  0
CIRCLE
  5
3A9
330
1F
100
AcDbEntity
  8
Ｓ_１_１
  6
CONTINUOUS
 62
     3
100
AcDbCircle
 10
689.9999870000001
 20
810.0000000000038
 30
0.0
 40
12.00000000000102
  0
CIRCLE
  5
3AA
330
1F
100
AcDbEntity
  8
Ｓ_１_１
  6
CONTINUOUS
 62
     3
100
AcDbCircle
 10
689.9999870000001
 20
810.0000000000038
 30
0.0
 40
10.72532284355114
  0
CIRCLE
  5
3AB
330
1F
100
AcDbEntity
  8
Ｓ_１_１
  6
CONTINUOUS
 62
     3
100
AcDbCircle
 10
689.9999870000001
 20
810.0000000000038
 30
0.0
 40
6.323600530683808
  0
CIRCLE
  5
3AC
330
1F
100
AcDbEntity
  8
Ｓ_１_１
  6
CONTINUOUS
 62
     3
100
AcDbCircle
 10
689.9999870000001
 20
810.0000000000038
 30
0.0
 40
4.217842489549019
  0
LINE
  5
3AD
330
1F
100
AcDbEntity
  8
Ｓ_１_１
  6
CONTINUOUS
 62
     3
100
AcDbLine
 10
694.2499869999992
 20
761.0000000000091
 30
0.0
 11
694.2499869999992
 21
756.0000000000091
 31
0.0
  0
LINE
  5
3AE
330
1F
100
AcDbEntity
  8
Ｓ_１_１
  6
CONTINUOUS
 62
     3
100
AcDbLine
 10
685.7499869999992
 20
761.0000000000091
 30
0.0
 11
685.7499869999992
 21
756.0000000000091
 31
0.0
  0
LINE
  5
3AF
330
1F
100
AcDbEntity
  8
Ｓ_１_１
  6
CONTINUOUS
 62
     3
100
AcDbLine
 10
684.9999869999991
 20
761.0000000000091
 30
0.0
 11
684.9999869999991
 21
756.7500000000092
 31
0.0
  0
LINE
  5
3B0
330
1F
100
AcDbEntity
  8
Ｓ_１_１
  6
CONTINUOUS
 62
     3
100
AcDbLine
 10
694.9999869999991
 20
761.0000000000091
 30
0.0
 11
694.9999869999991
 21
756.7500000000092
 31
0.0
  0
LINE
  5
3B1
330
1F
100
AcDbEntity
  8
Ｓ_１_１
  6
CONTINUOUS
 62
     3
100
AcDbLine
 10
685.7499869999992
 20
756.0000000000091
 30
0.0
 11
694.2499869999992
 21
756.0000000000091
 31
0.0
  0
LINE
  5
3B2
330
1F
100
AcDbEntity
  8
Ｓ_１_１
  6
CONTINUOUS
 62
     3
100
AcDbLine
 10
684.9999869999991
 20
756.7500000000092
 30
0.0
 11
694.9999869999991
 21
756.7500000000092
 31
0.0
  0
LINE
  5
3B3
330
1F
100
AcDbEntity
  8
Ｓ_１_１
  6
CONTINUOUS
 62
     3
100
AcDbLine
 10
684.9999881249992
 20
756.7499974423091
 30
0.0
 11
685.7499862869989
 21
755.9999993435091
 31
0.0
  0
LINE
  5
3B4
330
1F
100
AcDbEntity
  8
Ｓ_１_１
  6
CONTINUOUS
 62
     3
100
AcDbLine
 10
694.2499889252989
 20
755.9999983530093
 30
0.0
 11
694.9999890470989
 21
756.7499985381093
 31
0.0
  0
LINE
  5
3B5
330
1F
100
AcDbEntity
  8
Ｓ_１_１
  6
CONTINUOUS
 62
     3
100
AcDbLine
 10
689.9999869999991
 20
768.0000000000092
 30
0.0
 11
699.9999869999991
 21
768.0000000000092
 31
0.0
  0
LINE
  5
3B6
330
1F
100
AcDbEntity
  8
Ｓ_１_１
  6
CONTINUOUS
 62
     3
100
AcDbLine
 10
679.9999869999991
 20
768.0000000000092
 30
0.0
 11
689.9999869999991
 21
768.0000000000092
 31
0.0
  0
LINE
  5
3B7
330
1F
100
AcDbEntity
  8
Ｓ_１_１
  6
CONTINUOUS
 62
     3
100
AcDbLine
 10
699.9999864489992
 20
767.9999994490091
 30
0.0
 11
698.9999863356988
 21
766.9999994200094
 31
0.0
  0
LINE
  5
3B8
330
1F
100
AcDbEntity
  8
Ｓ_１_１
  6
CONTINUOUS
 62
     3
100
AcDbLine
 10
680.9999872005992
 20
766.999999715109
 30
0.0
 11
679.999987487699
 21
767.9999995123089
 31
0.0
  0
LINE
  5
3B9
330
1F
100
AcDbEntity
  8
Ｓ_１_１
  6
CONTINUOUS
 62
     3
100
AcDbLine
 10
680.9999872005992
 20
767.0000000000092
 30
0.0
 11
689.9999869999991
 21
767.0000000000092
 31
0.0
  0
LINE
  5
3BA
330
1F
100
AcDbEntity
  8
Ｓ_１_１
  6
CONTINUOUS
 62
     3
100
AcDbLine
 10
689.9999869999991
 20
767.0000000000092
 30
0.0
 11
698.9999863356988
 21
767.0000000000092
 31
0.0
  0
LINE
  5
3BB
330
1F
100
AcDbEntity
  8
Ｓ_１_１
  6
CONTINUOUS
 62
     3
100
AcDbLine
 10
699.9999869999991
 20
797.5000000000097
 30
0.0
 11
699.9999869999991
 21
768.0000000000092
 31
0.0
  0
LINE
  5
3BC
330
1F
100
AcDbEntity
  8
Ｓ_１_１
  6
CONTINUOUS
 62
     3
100
AcDbLine
 10
697.4923996631992
 20
761.0000018344091
 30
0.0
 11
699.4999862528989
 21
762.0000020276094
 31
0.0
  0
LINE
  5
3BD
330
1F
100
AcDbEntity
  8
Ｓ_１_１
  6
CONTINUOUS
 62
     3
100
AcDbLine
 10
682.5075732439991
 20
761.0000004855093
 30
0.0
 11
680.4999866542989
 21
762.0000006787092
 31
0.0
  0
LINE
  5
3BE
330
1F
100
AcDbEntity
  8
Ｓ_１_１
  6
CONTINUOUS
 62
     3
100
AcDbLine
 10
697.4924003061992
 20
767.0000000234091
 30
0.0
 11
699.4999868958988
 21
765.9999998302093
 31
0.0
  0
LINE
  5
3BF
330
1F
100
AcDbEntity
  8
Ｓ_１_１
  6
CONTINUOUS
 62
     3
100
AcDbLine
 10
682.5075728856991
 20
767.0000015141092
 30
0.0
 11
680.4999865804988
 21
766.0000014625094
 31
0.0
  0
LINE
  5
3C0
330
1F
100
AcDbEntity
  8
Ｓ_１_１
  6
CONTINUOUS
 62
     3
100
AcDbLine
 10
680.4999869999992
 20
766.0000000000091
 30
0.0
 11
680.4999869999992
 21
762.0000000000092
 31
0.0
  0
LINE
  5
3C1
330
1F
100
AcDbEntity
  8
Ｓ_１_１
  6
CONTINUOUS
 62
     3
100
AcDbLine
 10
699.4999869999992
 20
766.0000000000091
 30
0.0
 11
699.4999869999992
 21
762.0000000000092
 31
0.0
  0
LINE
  5
3C2
330
1F
100
AcDbEntity
  8
Ｓ_１_１
  6
CONTINUOUS
 62
     3
100
AcDbLine
 10
689.9999869999991
 20
761.0000000000091
 30
0.0
 11
697.4924008386993
 21
761.0000000000091
 31
0.0
  0
LINE
  5
3C3
330
1F
100
AcDbEntity
  8
Ｓ_１_１
  6
CONTINUOUS
 62
     3
100
AcDbLine
 10
682.5075731612992
 20
761.0000000000091
 30
0.0
 11
689.9999869999991
 21
761.0000000000091
 31
0.0
  0
ARC
  5
3C4
330
1F
100
AcDbEntity
  8
Ｓ_１_１
  6
CONTINUOUS
 62
     3
100
AcDbCircle
 10
689.9999869999991
 20
751.458333333309
 30
0.0
 40
15.5416666667
100
AcDbArc
 50
69.3345163543002
 51
69.33452389044773
  0
ARC
  5
3C5
330
1F
100
AcDbEntity
  8
Ｓ_１_１
  6
CONTINUOUS
 62
     3
100
AcDbCircle
 10
689.9999869999991
 20
776.5416666667094
 30
0.0
 40
15.5416666667
100
AcDbArc
 50
290.665476109553
 51
290.6654784093996
  0
ARC
  5
3C6
330
1F
100
AcDbEntity
  8
Ｓ_１_１
  6
CONTINUOUS
 62
     3
100
AcDbCircle
 10
689.9999869999991
 20
751.458333333309
 30
0.0
 40
15.5416666667
100
AcDbArc
 50
72.81263240281456
 51
107.1873680951786
  0
ARC
  5
3C7
330
1F
100
AcDbEntity
  8
Ｓ_１_１
  6
CONTINUOUS
 62
     3
100
AcDbCircle
 10
689.9999869999991
 20
751.458333333309
 30
0.0
 40
15.5416666667
100
AcDbArc
 50
110.6654786560356
 51
110.6654800033002
  0
ARC
  5
3C8
330
1F
100
AcDbEntity
  8
Ｓ_１_１
  6
CONTINUOUS
 62
     3
100
AcDbCircle
 10
689.9999869999991
 20
776.5416666667094
 30
0.0
 40
15.5416666667
100
AcDbArc
 50
252.8126319048212
 51
287.1873675971856
  0
LINE
  5
3C9
330
1F
100
AcDbEntity
  8
Ｓ_１_１
  6
CONTINUOUS
 62
     3
100
AcDbLine
 10
694.5925094946792
 20
761.6940358821472
 30
0.0
 11
694.5925094946792
 21
766.3059641178712
 31
0.0
  0
LINE
  5
3CA
330
1F
100
AcDbEntity
  8
Ｓ_１_１
  6
CONTINUOUS
 62
     3
100
AcDbLine
 10
685.4074643762692
 20
761.6940359220636
 30
0.0
 11
685.4074643762692
 21
766.3059640779549
 31
0.0
  0
ARC
  5
3CB
330
1F
100
AcDbEntity
  8
Ｓ_１_１
  6
CONTINUOUS
 62
     3
100
AcDbCircle
 10
682.5075698460091
 20
767.0000000000092
 30
0.0
 40
6.000000000001596
100
AcDbArc
 50
270.0000417559226
 51
298.9021840779137
  0
ARC
  5
3CC
330
1F
100
AcDbEntity
  8
Ｓ_１_１
  6
CONTINUOUS
 62
     3
100
AcDbCircle
 10
682.5075742186791
 20
761.0000000000091
 30
0.0
 40
6.000000000001596
100
AcDbArc
 50
61.09786361881239
 51
90.00004175588575
  0
ARC
  5
3CD
330
1F
100
AcDbEntity
  8
Ｓ_１_１
  6
CONTINUOUS
 62
     3
100
AcDbCircle
 10
697.4924003531792
 20
761.0000000000091
 30
0.0
 40
6.000000000000006
100
AcDbArc
 50
89.99999201726119
 51
118.9021440266621
  0
ARC
  5
3CE
330
1F
100
AcDbEntity
  8
Ｓ_１_１
  6
CONTINUOUS
 62
     3
100
AcDbCircle
 10
697.4924003531792
 20
767.0000000000092
 30
0.0
 40
6.000000000001596
100
AcDbArc
 50
241.0978559733465
 51
270.0
  0
LINE
  5
3CF
330
1F
100
AcDbEntity
  8
Ｓ_１_１
  6
CONTINUOUS
 62
     3
100
AcDbLine
 10
679.9999869999991
 20
797.5000000000097
 30
0.0
 11
679.9999869999991
 21
768.0000000000092
 31
0.0
  0
LINE
  5
3D0
330
1F
100
AcDbEntity
  8
Ｓ_１_１
  6
CONTINUOUS
 62
     3
100
AcDbLine
 10
702.4999870000001
 20
822.5000000000099
 30
0.0
 11
677.4999870000001
 21
822.5000000000099
 31
0.0
  0
LINE
  5
3D1
330
1F
100
AcDbEntity
  8
Ｓ_１_１
  6
CONTINUOUS
 62
     3
100
AcDbLine
 10
702.4999870000001
 20
797.5000000000099
 30
0.0
 11
677.4999870000001
 21
797.5000000000099
 31
0.0
  0
LINE
  5
3D2
330
1F
100
AcDbEntity
  8
Ｓ_１_１
  6
CONTINUOUS
 62
     3
100
AcDbLine
 10
677.4999870000001
 20
822.5000000000099
 30
0.0
 11
677.4999870000001
 21
812.3493649053936
 31
0.0
  0
LINE
  5
3D3
330
1F
100
AcDbEntity
  8
Ｓ_１_１
  6
CONTINUOUS
 62
     3
100
AcDbLine
 10
677.4999870000001
 20
807.6506350946139
 30
0.0
 11
677.4999870000001
 21
797.5000000000102
 31
0.0
  0
LINE
  5
3D4
330
1F
100
AcDbEntity
  8
Ｓ_１_１
  6
CONTINUOUS
 62
     3
100
AcDbLine
 10
678.4999870000001
 20
821.5000000000101
 30
0.0
 11
678.4999870000001
 21
814.0814157129622
 31
0.0
  0
LINE
  5
3D5
330
1F
100
AcDbEntity
  8
Ｓ_１_１
  6
CONTINUOUS
 62
     3
100
AcDbLine
 10
678.4999870000001
 20
805.9185842870454
 30
0.0
 11
678.4999870000001
 21
798.5000000000099
 31
0.0
  0
LINE
  5
3D6
330
1F
100
AcDbEntity
  8
Ｓ_１_１
  6
CONTINUOUS
 62
     3
100
AcDbLine
 10
682.7831086351333
 20
821.5000000000101
 30
0.0
 11
678.4999870000001
 21
821.5000000000101
 31
0.0
  0
LINE
  5
3D7
330
1F
100
AcDbEntity
  8
Ｓ_１_１
  6
CONTINUOUS
 62
     3
100
AcDbLine
 10
701.499987
 20
821.5000000000101
 30
0.0
 11
697.2168653648666
 21
821.5000000000101
 31
0.0
  0
LINE
  5
3D8
330
1F
100
AcDbEntity
  8
Ｓ_１_１
  6
CONTINUOUS
 62
     3
100
AcDbLine
 10
701.499987
 20
798.5000000000099
 30
0.0
 11
697.2168653648737
 21
798.5000000000099
 31
0.0
  0
LINE
  5
3D9
330
1F
100
AcDbEntity
  8
Ｓ_１_１
  6
CONTINUOUS
 62
     3
100
AcDbLine
 10
682.7831086351264
 20
798.5000000000099
 30
0.0
 11
678.4999870000001
 21
798.5000000000099
 31
0.0
  0
LINE
  5
3DA
330
1F
100
AcDbEntity
  8
Ｓ_１_１
  6
CONTINUOUS
 62
     3
100
AcDbLine
 10
701.499987
 20
821.5000000000101
 30
0.0
 11
701.499987
 21
814.0814157129622
 31
0.0
  0
LINE
  5
3DB
330
1F
100
AcDbEntity
  8
Ｓ_１_１
  6
CONTINUOUS
 62
     3
100
AcDbLine
 10
702.4999870000001
 20
822.5000000000099
 30
0.0
 11
702.4999870000001
 21
812.3493649053936
 31
0.0
  0
LINE
  5
3DC
330
1F
100
AcDbEntity
  8
Ｓ_１_１
  6
CONTINUOUS
 62
     3
100
AcDbLine
 10
702.4999870000001
 20
807.6506350946139
 30
0.0
 11
702.4999870000001
 21
797.5000000000102
 31
0.0
  0
LINE
  5
3DD
330
1F
100
AcDbEntity
  8
Ｓ_１_１
  6
CONTINUOUS
 62
     3
100
AcDbLine
 10
701.499987
 20
805.9185842870454
 30
0.0
 11
701.499987
 21
798.5000000000099
 31
0.0
  0
LINE
  5
3DE
330
1F
100
AcDbEntity
  8
Ｓ_１_１
  6
EXLTYPE6
 62
     1
100
AcDbLine
 10
689.9999869999956
 20
829.4668931961155
 30
0.0
 11
689.9999869999956
 21
752.5200000000101
 31
0.0
  0
ARC
  5
3DF
330
1F
100
AcDbEntity
  8
Ｓ_１_１
  6
CONTINUOUS
 62
     3
100
AcDbCircle
 10
700.3922844999898
 20
467.7284350000184
 30
0.0
 40
6.133925000000002
100
AcDbArc
 50
55.61543800000034
 51
124.3845830000003
  0
ARC
  5
3E0
330
1F
100
AcDbEntity
  8
Ｓ_１_１
  6
CONTINUOUS
 62
     3
100
AcDbCircle
 10
689.9999804999899
 20
450.9341230000184
 30
0.0
 40
22.927938
100
AcDbArc
 50
72.411858
 51
107.5881660000001
  0
ARC
  5
3E1
330
1F
100
AcDbEntity
  8
Ｓ_１_１
  6
CONTINUOUS
 62
     3
100
AcDbCircle
 10
679.6076464999902
 20
472.9961350000183
 30
0.0
 40
6.133925000000002
100
AcDbArc
 50
235.6154019999991
 51
304.3845609999998
  0
ARC
  5
3E2
330
1F
100
AcDbEntity
  8
Ｓ_１_１
  6
CONTINUOUS
 62
     3
100
AcDbCircle
 10
685.4999804999903
 20
510.8621020000185
 30
0.0
 40
1.0
100
AcDbArc
 50
89.99997799999524
 51
179.9999749999976
  0
ARC
  5
3E3
330
1F
100
AcDbEntity
  8
Ｓ_１_１
  6
CONTINUOUS
 62
     3
100
AcDbCircle
 10
679.6076464999902
 20
467.7284350000184
 30
0.0
 40
6.133925000000002
100
AcDbArc
 50
55.6153689999997
 51
124.384513999999
  0
ARC
  5
3E4
330
1F
100
AcDbEntity
  8
Ｓ_１_１
  6
CONTINUOUS
 62
     3
100
AcDbCircle
 10
689.9999804999899
 20
489.7902020000186
 30
0.0
 40
22.927942
100
AcDbArc
 50
252.4118210000002
 51
287.5881150000001
  0
ARC
  5
3E5
330
1F
100
AcDbEntity
  8
Ｓ_１_１
  6
CONTINUOUS
 62
     3
100
AcDbCircle
 10
700.3922844999898
 20
472.9961350000183
 30
0.0
 40
6.133925000000002
100
AcDbArc
 50
235.6154159999998
 51
304.3845739999999
  0
ARC
  5
3E6
330
1F
100
AcDbEntity
  8
Ｓ_１_１
  6
CONTINUOUS
 62
     3
100
AcDbCircle
 10
694.4999504999897
 20
510.8621020000185
 30
0.0
 40
1.0
100
AcDbArc
 50
359.9999970000023
 51
89.9999780000017
  0
LINE
  5
3E7
330
1F
100
AcDbEntity
  8
Ｓ_１_１
  6
CONTINUOUS
 62
     3
100
AcDbLine
 10
688.5000114999898
 20
513.8622240000184
 30
0.0
 11
691.4999804999898
 21
513.8622240000184
 31
0.0
  0
LINE
  5
3E8
330
1F
100
AcDbEntity
  8
Ｓ_１_１
  6
CONTINUOUS
 62
     3
100
AcDbLine
 10
677.9999804999903
 20
466.8623460000183
 30
0.0
 11
701.9999504999897
 21
466.8623460000183
 31
0.0
  0
LINE
  5
3E9
330
1F
100
AcDbEntity
  8
Ｓ_１_１
  6
CONTINUOUS
 62
     3
100
AcDbLine
 10
684.4999504999902
 20
510.8621020000185
 30
0.0
 11
684.4999504999902
 21
501.8623460000183
 31
0.0
  0
LINE
  5
3EA
330
1F
100
AcDbEntity
  8
Ｓ_１_１
  6
CONTINUOUS
 62
     3
100
AcDbLine
 10
684.4999504999902
 20
501.8623460000183
 30
0.0
 11
695.4999804999899
 21
501.8623460000183
 31
0.0
  0
LINE
  5
3EB
330
1F
100
AcDbEntity
  8
Ｓ_１_１
  6
CONTINUOUS
 62
     3
100
AcDbLine
 10
681.0000114999904
 20
498.3621020000185
 30
0.0
 11
681.0000114999904
 21
496.3622240000184
 31
0.0
  0
LINE
  5
3EC
330
1F
100
AcDbEntity
  8
Ｓ_１_１
  6
CONTINUOUS
 62
     3
100
AcDbLine
 10
698.9999804999898
 20
498.3621020000185
 30
0.0
 11
698.9999804999898
 21
496.3622240000184
 31
0.0
  0
LINE
  5
3ED
330
1F
100
AcDbEntity
  8
Ｓ_１_１
  6
CONTINUOUS
 62
     3
100
AcDbLine
 10
678.7499804999903
 20
482.8622240000184
 30
0.0
 11
701.2499804999899
 21
482.8622240000184
 31
0.0
  0
LINE
  5
3EE
330
1F
100
AcDbEntity
  8
Ｓ_１_１
  6
CONTINUOUS
 62
     3
100
AcDbLine
 10
701.7499804999899
 20
482.3622240000184
 30
0.0
 11
701.7499804999899
 21
473.8622240000184
 31
0.0
  0
LINE
  5
3EF
330
1F
100
AcDbEntity
  8
Ｓ_１_１
  6
CONTINUOUS
 62
     3
100
AcDbLine
 10
678.2499504999902
 20
482.3622240000184
 30
0.0
 11
678.2499504999902
 21
473.8622240000184
 31
0.0
  0
LINE
  5
3F0
330
1F
100
AcDbEntity
  8
Ｓ_１_１
  6
CONTINUOUS
 62
     3
100
AcDbLine
 10
676.1436124999901
 20
467.9341980000183
 30
0.0
 11
677.9999844999903
 21
466.8624210000187
 31
0.0
  0
LINE
  5
3F1
330
1F
100
AcDbEntity
  8
Ｓ_１_１
  6
CONTINUOUS
 62
     3
100
AcDbLine
 10
701.9999074999897
 20
473.8624150000185
 30
0.0
 11
703.8563854999899
 21
472.7905760000183
 31
0.0
  0
LINE
  5
3F2
330
1F
100
AcDbEntity
  8
Ｓ_１_１
  6
CONTINUOUS
 62
     3
100
AcDbLine
 10
701.9999494999897
 20
466.8623790000186
 30
0.0
 11
703.8563224999899
 21
467.9341560000187
 31
0.0
  0
LINE
  5
3F3
330
1F
100
AcDbEntity
  8
Ｓ_１_１
  6
CONTINUOUS
 62
     3
100
AcDbLine
 10
676.1436194999902
 20
472.7907160000184
 30
0.0
 11
677.9999924999903
 21
473.8624930000185
 31
0.0
  0
LINE
  5
3F4
330
1F
100
AcDbEntity
  8
Ｓ_１_１
  6
CONTINUOUS
 62
     3
100
AcDbLine
 10
703.8563954999896
 20
472.7904460000184
 30
0.0
 11
703.8563954999896
 21
467.9341230000185
 31
0.0
  0
LINE
  5
3F5
330
1F
100
AcDbEntity
  8
Ｓ_１_１
  6
CONTINUOUS
 62
     3
100
AcDbLine
 10
696.9282034999898
 20
472.7904460000184
 30
0.0
 11
696.9282034999898
 21
467.9341230000185
 31
0.0
  0
LINE
  5
3F6
330
1F
100
AcDbEntity
  8
Ｓ_１_１
  6
CONTINUOUS
 62
     3
100
AcDbLine
 10
683.0718494999902
 20
472.7904460000184
 30
0.0
 11
683.0718494999902
 21
467.9341230000185
 31
0.0
  0
LINE
  5
3F7
330
1F
100
AcDbEntity
  8
Ｓ_１_１
  6
CONTINUOUS
 62
     3
100
AcDbLine
 10
676.14358149999
 20
472.7904460000184
 30
0.0
 11
676.14358149999
 21
467.9341230000185
 31
0.0
  0
LINE
  5
3F8
330
1F
100
AcDbEntity
  8
Ｓ_１_１
  6
CONTINUOUS
 62
     3
100
AcDbLine
 10
677.9999804999903
 20
473.8622240000184
 30
0.0
 11
701.9999504999897
 21
473.8622240000184
 31
0.0
  0
LINE
  5
3F9
330
1F
100
AcDbEntity
  8
Ｓ_１_１
  6
CONTINUOUS
 62
     3
100
AcDbLine
 10
685.4999804999903
 20
511.8623460000188
 30
0.0
 11
694.4999504999897
 21
511.8623460000188
 31
0.0
  0
LINE
  5
3FA
330
1F
100
AcDbEntity
  8
Ｓ_１_１
  6
CONTINUOUS
 62
     3
100
AcDbLine
 10
691.4998394999899
 20
513.8624110000185
 30
0.0
 11
693.4998844999897
 21
511.8623660000188
 31
0.0
  0
LINE
  5
3FB
330
1F
100
AcDbEntity
  8
Ｓ_１_１
  6
CONTINUOUS
 62
     3
100
AcDbLine
 10
686.4998124999903
 20
511.8624090000183
 30
0.0
 11
688.4997714999896
 21
513.8623680000185
 31
0.0
  0
LINE
  5
3FC
330
1F
100
AcDbEntity
  8
Ｓ_１_１
  6
CONTINUOUS
 62
     3
100
AcDbLine
 10
682.4999804999903
 20
493.3621020000185
 30
0.0
 11
697.4999804999899
 21
493.3621020000185
 31
0.0
  0
LINE
  5
3FD
330
1F
100
AcDbEntity
  8
Ｓ_１_１
  6
CONTINUOUS
 62
     3
100
AcDbLine
 10
682.4999804999903
 20
494.8622240000184
 30
0.0
 11
697.4999804999899
 21
494.8622240000184
 31
0.0
  0
LINE
  5
3FE
330
1F
100
AcDbEntity
  8
Ｓ_１_１
  6
CONTINUOUS
 62
     3
100
AcDbLine
 10
681.0000114999904
 20
498.3621020000185
 30
0.0
 11
698.9999804999898
 21
498.3621020000185
 31
0.0
  0
LINE
  5
3FF
330
1F
100
AcDbEntity
  8
Ｓ_１_１
  6
CONTINUOUS
 62
     3
100
AcDbLine
 10
698.9999804999898
 20
491.8623460000183
 30
0.0
 11
698.9999804999898
 21
482.8622240000184
 31
0.0
  0
LINE
  5
400
330
1F
100
AcDbEntity
  8
Ｓ_１_１
  6
CONTINUOUS
 62
     3
100
AcDbLine
 10
681.0000114999904
 20
491.8623460000183
 30
0.0
 11
681.0000114999904
 21
482.8622240000184
 31
0.0
  0
LINE
  5
401
330
1F
100
AcDbEntity
  8
Ｓ_１_１
  6
CONTINUOUS
 62
     3
100
AcDbLine
 10
680.99986849999
 20
496.3622450000187
 30
0.0
 11
682.4998804999901
 21
494.8622320000184
 31
0.0
  0
LINE
  5
402
330
1F
100
AcDbEntity
  8
Ｓ_１_１
  6
CONTINUOUS
 62
     3
100
AcDbLine
 10
697.4999464999897
 20
494.8622310000185
 30
0.0
 11
698.9998294999897
 21
496.3621140000184
 31
0.0
  0
LINE
  5
403
330
1F
100
AcDbEntity
  8
Ｓ_１_１
  6
CONTINUOUS
 62
     3
100
AcDbLine
 10
681.0000114999904
 20
496.3622240000184
 30
0.0
 11
698.9999804999898
 21
496.3622240000184
 31
0.0
  0
LINE
  5
404
330
1F
100
AcDbEntity
  8
Ｓ_１_１
  6
CONTINUOUS
 62
     3
100
AcDbLine
 10
680.9999824999901
 20
491.8623790000186
 30
0.0
 11
682.49986549999
 21
493.3622620000185
 31
0.0
  0
LINE
  5
405
330
1F
100
AcDbEntity
  8
Ｓ_１_１
  6
CONTINUOUS
 62
     3
100
AcDbLine
 10
697.4998324999897
 20
493.3622200000184
 30
0.0
 11
698.9998454999895
 21
491.8622080000185
 31
0.0
  0
LINE
  5
406
330
1F
100
AcDbEntity
  8
Ｓ_１_１
  6
CONTINUOUS
 62
     3
100
AcDbLine
 10
678.2499504999902
 20
482.3622240000184
 30
0.0
 11
701.7499804999899
 21
482.3622240000184
 31
0.0
  0
LINE
  5
407
330
1F
100
AcDbEntity
  8
Ｓ_１_１
  6
CONTINUOUS
 62
     3
100
AcDbLine
 10
681.0000114999904
 20
491.8623460000183
 30
0.0
 11
698.9999804999898
 21
491.8623460000183
 31
0.0
  0
LINE
  5
408
330
1F
100
AcDbEntity
  8
Ｓ_１_１
  6
CONTINUOUS
 62
     3
100
AcDbLine
 10
682.4999804999903
 20
494.8622240000184
 30
0.0
 11
682.4999804999903
 21
493.3621020000185
 31
0.0
  0
LINE
  5
409
330
1F
100
AcDbEntity
  8
Ｓ_１_１
  6
CONTINUOUS
 62
     3
100
AcDbLine
 10
697.4999804999899
 20
494.8622240000184
 30
0.0
 11
697.4999804999899
 21
493.3621020000185
 31
0.0
  0
LINE
  5
40A
330
1F
100
AcDbEntity
  8
Ｓ_１_１
  6
CONTINUOUS
 62
     3
100
AcDbLine
 10
701.2498764999897
 20
482.8623130000185
 30
0.0
 11
701.7498234999899
 21
482.3623670000186
 31
0.0
  0
LINE
  5
40B
330
1F
100
AcDbEntity
  8
Ｓ_１_１
  6
CONTINUOUS
 62
     3
100
AcDbLine
 10
678.2499054999904
 20
482.3623150000183
 30
0.0
 11
678.7498034999904
 21
482.8622240000184
 31
0.0
  0
LINE
  5
40C
330
1F
100
AcDbEntity
  8
Ｓ_１_１
  6
CONTINUOUS
 62
     3
100
AcDbLine
 10
680.9999394999901
 20
498.3623330000185
 30
0.0
 11
684.4999534999903
 21
501.8623470000186
 31
0.0
  0
LINE
  5
40D
330
1F
100
AcDbEntity
  8
Ｓ_１_１
  6
CONTINUOUS
 62
     3
100
AcDbLine
 10
695.4998304999899
 20
501.8621330000185
 30
0.0
 11
698.9998014999898
 21
498.3621610000185
 31
0.0
  0
LINE
  5
40E
330
1F
100
AcDbEntity
  8
Ｓ_１_１
  6
CONTINUOUS
 62
     3
100
AcDbLine
 10
695.4999804999899
 20
510.8621020000185
 30
0.0
 11
695.4999804999899
 21
501.8623460000183
 31
0.0
  0
LINE
  5
40F
330
1F
100
AcDbEntity
  8
Ｓ_１_１
  6
CONTINUOUS
 62
     3
100
AcDbLine
 10
678.4999960000001
 20
426.3622660000092
 30
0.0
 11
689.999996
 21
426.362266000009
 31
0.0
  0
LINE
  5
410
330
1F
100
AcDbEntity
  8
Ｓ_１_１
  6
CONTINUOUS
 62
     3
100
AcDbLine
 10
689.999996
 20
426.362266000009
 30
0.0
 11
701.4999960000001
 21
426.362266000009
 31
0.0
  0
LINE
  5
411
330
1F
100
AcDbEntity
  8
Ｓ_１_１
  6
CONTINUOUS
 62
     3
100
AcDbLine
 10
702.499996
 20
427.362266000009
 30
0.0
 11
702.499996
 21
442.862266000009
 31
0.0
  0
LINE
  5
412
330
1F
100
AcDbEntity
  8
Ｓ_１_１
  6
CONTINUOUS
 62
     3
100
AcDbLine
 10
702.499996
 20
458.362266000009
 30
0.0
 11
702.499996
 21
442.862266000009
 31
0.0
  0
LINE
  5
413
330
1F
100
AcDbEntity
  8
Ｓ_１_１
  6
CONTINUOUS
 62
     3
100
AcDbLine
 10
678.4999960000001
 20
459.362266000009
 30
0.0
 11
689.999996
 21
459.362266000009
 31
0.0
  0
LINE
  5
414
330
1F
100
AcDbEntity
  8
Ｓ_１_１
  6
CONTINUOUS
 62
     3
100
AcDbLine
 10
689.999996
 20
459.362266000009
 30
0.0
 11
701.4999960000001
 21
459.362266000009
 31
0.0
  0
LINE
  5
415
330
1F
100
AcDbEntity
  8
Ｓ_１_１
  6
CONTINUOUS
 62
     3
100
AcDbLine
 10
701.4999973689002
 20
459.3622675587088
 30
0.0
 11
702.4999974189001
 21
458.3622674243086
 31
0.0
  0
LINE
  5
416
330
1F
100
AcDbEntity
  8
Ｓ_１_１
  6
CONTINUOUS
 62
     3
100
AcDbLine
 10
702.4999967866999
 20
427.3622649029087
 30
0.0
 11
701.4999969895999
 21
426.362265190009
 31
0.0
  0
LINE
  5
417
330
1F
100
AcDbEntity
  8
Ｓ_１_１
  6
CONTINUOUS
 62
     3
100
AcDbLine
 10
677.4999960481001
 20
427.362266075809
 30
0.0
 11
678.4999961752002
 21
426.3622660330089
 31
0.0
  0
LINE
  5
418
330
1F
100
AcDbEntity
  8
Ｓ_１_１
  6
CONTINUOUS
 62
     3
100
AcDbLine
 10
677.499996
 20
427.3622660000092
 30
0.0
 11
677.499996
 21
442.862266000009
 31
0.0
  0
LINE
  5
419
330
1F
100
AcDbEntity
  8
Ｓ_１_１
  6
CONTINUOUS
 62
     3
100
AcDbLine
 10
678.4999957116003
 20
459.362266462809
 30
0.0
 11
677.4999959987
 21
458.3622666657087
 31
0.0
  0
LINE
  5
41A
330
1F
100
AcDbEntity
  8
Ｓ_１_１
  6
CONTINUOUS
 62
     3
100
AcDbLine
 10
677.499996
 20
458.362266000009
 30
0.0
 11
677.499996
 21
442.862266000009
 31
0.0
  0
LINE
  5
41B
330
1F
100
AcDbEntity
  8
Ｓ_１_１
  6
CONTINUOUS
 62
     3
100
AcDbLine
 10
677.499996
 20
458.362266000009
 30
0.0
 11
702.499996
 21
458.362266000009
 31
0.0
  0
LINE
  5
41C
330
1F
100
AcDbEntity
  8
Ｓ_１_１
  6
CONTINUOUS
 62
     3
100
AcDbLine
 10
677.499996
 20
427.3622660000092
 30
0.0
 11
702.499996
 21
427.362266000009
 31
0.0
  0
LINE
  5
41D
330
1F
100
AcDbEntity
  8
Ｓ_１_１
  6
CONTINUOUS
 62
     3
100
AcDbLine
 10
698.2648580000001
 20
460.7245380000199
 30
0.0
 11
681.7351410000001
 21
460.7245380000199
 31
0.0
  0
LINE
  5
41E
330
1F
100
AcDbEntity
  8
Ｓ_１_１
  6
CONTINUOUS
 62
     3
100
AcDbLine
 10
682.8201150000001
 20
466.8622390000198
 30
0.0
 11
682.4365070000002
 21
460.72452600002
 31
0.0
  0
LINE
  5
41F
330
1F
100
AcDbEntity
  8
Ｓ_１_１
  6
CONTINUOUS
 62
     3
100
AcDbLine
 10
682.118745
 20
466.86225700002
 30
0.0
 11
681.6499940000002
 21
459.3622430000198
 31
0.0
  0
LINE
  5
420
330
1F
100
AcDbEntity
  8
Ｓ_１_１
  6
CONTINUOUS
 62
     3
100
AcDbLine
 10
682.4365220000001
 20
460.7245460000199
 30
0.0
 11
681.6500070000001
 21
459.3622630000201
 31
0.0
  0
LINE
  5
421
330
1F
100
AcDbEntity
  8
Ｓ_１_１
  6
CONTINUOUS
 62
     3
100
AcDbLine
 10
697.881246
 20
466.86226900002
 30
0.0
 11
698.3499990000001
 21
459.36222400002
 31
0.0
  0
LINE
  5
422
330
1F
100
AcDbEntity
  8
Ｓ_１_１
  6
CONTINUOUS
 62
     3
100
AcDbLine
 10
698.3499850000002
 20
459.36224700002
 30
0.0
 11
697.563479
 21
460.7245170000199
 31
0.0
  0
LINE
  5
423
330
1F
100
AcDbEntity
  8
Ｓ_１_１
  6
CONTINUOUS
 62
     3
100
AcDbLine
 10
697.1798840000002
 20
466.86225100002
 30
0.0
 11
697.5634930000002
 21
460.72450800002
 31
0.0
  0
LINE
  5
424
330
1F
100
AcDbEntity
  8
Ｓ_１_１
  6
CONTINUOUS
 62
     3
100
AcDbLine
 10
697.2509850000002
 20
419.9999750000001
 30
0.0
 11
697.563486
 21
424.999985
 31
0.0
  0
LINE
  5
425
330
1F
100
AcDbEntity
  8
Ｓ_１_１
  6
CONTINUOUS
 62
     3
100
AcDbLine
 10
697.9523490000003
 20
419.999987
 30
0.0
 11
698.3499890000002
 21
426.362238
 31
0.0
  0
LINE
  5
426
330
1F
100
AcDbEntity
  8
Ｓ_１_１
  6
CONTINUOUS
 62
     3
100
AcDbLine
 10
698.2648580000001
 20
424.9999940000001
 30
0.0
 11
681.7351410000001
 21
424.9999940000001
 31
0.0
  0
LINE
  5
427
330
1F
100
AcDbEntity
  8
Ｓ_１_１
  6
CONTINUOUS
 62
     3
100
AcDbLine
 10
698.3500080000002
 20
426.362285
 30
0.0
 11
697.5634940000001
 21
425.0000020000001
 31
0.0
  0
LINE
  5
428
330
1F
100
AcDbEntity
  8
Ｓ_１_１
  6
CONTINUOUS
 62
     3
100
AcDbLine
 10
682.7490100000001
 20
419.999987
 30
0.0
 11
682.4365090000001
 21
424.999997
 31
0.0
  0
LINE
  5
429
330
1F
100
AcDbEntity
  8
Ｓ_１_１
  6
CONTINUOUS
 62
     3
100
AcDbLine
 10
682.0476460000001
 20
420.0000000000001
 30
0.0
 11
681.6500060000002
 21
426.36225
 31
0.0
  0
LINE
  5
42A
330
1F
100
AcDbEntity
  8
Ｓ_１_１
  6
CONTINUOUS
 62
     3
100
AcDbLine
 10
682.4364990000001
 20
424.9999860000001
 30
0.0
 11
681.6499920000002
 21
426.3622559999999
 31
0.0
  0
CIRCLE
  5
42B
330
1F
100
AcDbEntity
  8
Ｓ_１_１
  6
CONTINUOUS
 62
     3
100
AcDbCircle
 10
689.999996
 20
442.8622660000099
 30
0.0
 40
10.0
  0
POLYLINE
  5
42C
330
1F
100
AcDbEntity
  8
Ｓ_１_１
  6
CONTINUOUS
 62
     3
100
AcDb2dPolyline
 66
     1
 10
0.0
 20
0.0
 30
0.0
 70
   128
  0
VERTEX
  5
42D
330
42C
100
AcDbEntity
  8
Ｓ_１_１
  6
CONTINUOUS
 62
     3
100
AcDbVertex
100
AcDb2dVertex
 10
689.999996
 20
452.3622660000099
 30
0.0
  0
VERTEX
  5
42E
330
42C
100
AcDbEntity
  8
Ｓ_１_１
  6
CONTINUOUS
 62
     3
100
AcDbVertex
100
AcDb2dVertex
 10
681.7727546640479
 20
447.6122660000099
 30
0.0
  0
VERTEX
  5
42F
330
42C
100
AcDbEntity
  8
Ｓ_１_１
  6
CONTINUOUS
 62
     3
100
AcDbVertex
100
AcDb2dVertex
 10
681.7727546640479
 20
438.1122660000099
 30
0.0
  0
VERTEX
  5
430
330
42C
100
AcDbEntity
  8
Ｓ_１_１
  6
CONTINUOUS
 62
     3
100
AcDbVertex
100
AcDb2dVertex
 10
689.999996
 20
433.36226600001
 30
0.0
  0
VERTEX
  5
431
330
42C
100
AcDbEntity
  8
Ｓ_１_１
  6
CONTINUOUS
 62
     3
100
AcDbVertex
100
AcDb2dVertex
 10
698.2272373359522
 20
438.1122660000099
 30
0.0
  0
VERTEX
  5
432
330
42C
100
AcDbEntity
  8
Ｓ_１_１
  6
CONTINUOUS
 62
     3
100
AcDbVertex
100
AcDb2dVertex
 10
698.2272373359522
 20
447.6122660000099
 30
0.0
  0
VERTEX
  5
433
330
42C
100
AcDbEntity
  8
Ｓ_１_１
  6
CONTINUOUS
 62
     3
100
AcDbVertex
100
AcDb2dVertex
 10
689.999996
 20
452.3622660000099
 30
0.0
  0
SEQEND
  5
434
330
42C
100
AcDbEntity
  8
Ｓ_１_１
  6
CONTINUOUS
 62
     3
  0
CIRCLE
  5
435
330
1F
100
AcDbEntity
  8
Ｓ_１_１
  6
CONTINUOUS
 62
     3
100
AcDbCircle
 10
689.999996
 20
442.8622660000099
 30
0.0
 40
8.227241335951572
  0
ARC
  5
436
330
1F
100
AcDbEntity
  8
Ｓ_１_１
  6
CONTINUOUS
 62
     3
100
AcDbCircle
 10
689.999996
 20
442.8622660000099
 30
0.0
 40
8.999999915700016
100
AcDbArc
 50
96.08359749728285
 51
143.9164025027172
  0
ARC
  5
437
330
1F
100
AcDbEntity
  8
Ｓ_１_１
  6
CONTINUOUS
 62
     3
100
AcDbCircle
 10
689.999996
 20
442.8622660000099
 30
0.0
 40
8.999999915700016
100
AcDbArc
 50
156.0835974972827
 51
203.9164025027173
  0
ARC
  5
438
330
1F
100
AcDbEntity
  8
Ｓ_１_１
  6
CONTINUOUS
 62
     3
100
AcDbCircle
 10
689.999996
 20
442.8622660000099
 30
0.0
 40
8.999999915700016
100
AcDbArc
 50
216.0835974972828
 51
263.9164025027172
  0
ARC
  5
439
330
1F
100
AcDbEntity
  8
Ｓ_１_１
  6
CONTINUOUS
 62
     3
100
AcDbCircle
 10
689.999996
 20
442.8622660000099
 30
0.0
 40
8.999999915700016
100
AcDbArc
 50
276.0835974972829
 51
323.9164025027172
  0
ARC
  5
43A
330
1F
100
AcDbEntity
  8
Ｓ_１_１
  6
CONTINUOUS
 62
     3
100
AcDbCircle
 10
689.999996
 20
442.8622660000099
 30
0.0
 40
8.999999915700016
100
AcDbArc
 50
336.0835974972827
 51
23.91640250271736
  0
ARC
  5
43B
330
1F
100
AcDbEntity
  8
Ｓ_１_１
  6
CONTINUOUS
 62
     3
100
AcDbCircle
 10
689.999996
 20
442.8622660000099
 30
0.0
 40
8.999999915700016
100
AcDbArc
 50
36.08359749728283
 51
83.91640250271715
  0
CIRCLE
  5
43C
330
1F
100
AcDbEntity
  8
Ｓ_１_１
  6
CONTINUOUS
 62
     3
100
AcDbCircle
 10
689.999996
 20
442.8622660000099
 30
0.0
 40
5.0
  0
CIRCLE
  5
43D
330
1F
100
AcDbEntity
  8
Ｓ_１_１
  6
CONTINUOUS
 62
     3
100
AcDbCircle
 10
689.999996
 20
442.8622660000099
 30
0.0
 40
4.25
  0
LINE
  5
43E
330
1F
100
AcDbEntity
  8
Ｓ_１_１
  6
EXLTYPE2
 62
     1
100
AcDbLine
 10
702.9999960000001
 20
442.862266000009
 30
0.0
 11
676.9999960000001
 21
442.862266000009
 31
0.0
  0
LINE
  5
43F
330
1F
100
AcDbEntity
  8
Ｓ_１_１
  6
EXLTYPE2
 62
     1
100
AcDbLine
 10
689.999996
 20
519.15
 30
0.0
 11
689.999996
 21
411.292206
 31
0.0
  0
DIMENSION
  5
440
330
1F
100
AcDbEntity
  8
Ｓ_１_１
  6
CONTINUOUS
 62
     2
100
AcDbDimension
  2
*D41
 10
689.999996
 20
570.0
 30
0.0
 11
654.9999655
 21
583.75
 31
0.0
 70
   160
  3
ISO-25
100
AcDbAlignedDimension
 13
619.999935
 23
417.999901
 33
0.0
 14
689.999996
 24
519.15
 34
0.0
100
AcDbRotatedDimension
1001
ACAD
1000
DSTYLE
1002
{
1070
   270
1070
     2
1070
     6
1000
EX_NORM
1070
     7
1000
EX_NORM
1070
    41
1040
15.0
1070
    42
1040
7.5
1070
    44
1040
5.0
1070
    73
1070
     0
1070
    74
1070
     0
1070
    75
1070
     0
1070
    76
1070
     0
1070
    77
1070
     1
1070
    78
1070
     8
1070
   140
1040
17.3145207852194
1070
   147
1040
0.0
1070
   173
1070
     1
1070
   176
1070
     2
1070
   177
1070
     2
1070
   178
1070
     2
1070
   271
1070
     2
1070
   277
1070
     2
1070
   279
1070
     2
1070
   280
1070
     0
1070
   287
1070
     5
1070
   340
1005
137
1002
}
  0
DIMENSION
  5
44D
330
1F
100
AcDbEntity
  8
Ｓ_１_１
  6
CONTINUOUS
 62
     2
100
AcDbDimension
  2
*D42
 10
1745.0
 20
570.0
 30
0.0
 11
1217.499998
 21
583.75
 31
0.0
 70
   160
  3
ISO-25
100
AcDbAlignedDimension
 13
689.999996
 23
519.15
 33
0.0
 14
1745.0
 24
517.732636
 34
0.0
100
AcDbRotatedDimension
1001
ACAD
1000
DSTYLE
1002
{
1070
   270
1070
     2
1070
     6
1000
EX_NORM
1070
     7
1000
EX_NORM
1070
    41
1040
15.0
1070
    42
1040
7.5
1070
    44
1040
5.0
1070
    73
1070
     0
1070
    74
1070
     0
1070
    75
1070
     0
1070
    76
1070
     0
1070
    77
1070
     1
1070
    78
1070
     8
1070
   140
1040
17.3145207852194
1070
   147
1040
0.0
1070
   173
1070
     1
1070
   176
1070
     2
1070
   177
1070
     2
1070
   178
1070
     2
1070
   271
1070
     2
1070
   277
1070
     2
1070
   279
1070
     2
1070
   280
1070
     0
1070
   287
1070
     5
1070
   340
1005
137
1002
}
  0
DIMENSION
  5
45A
330
1F
100
AcDbEntity
  8
Ｓ_１_１
  6
CONTINUOUS
 62
     2
100
AcDbDimension
  2
*D43
 10
750.0
 20
420.0
 30
0.0
 11
736.25
 21
466.93111200001
 31
0.0
 70
   160
  1
(94)
  3
ISO-25
100
AcDbAlignedDimension
 13
691.5000264999899
 23
513.86222400002
 33
0.0
 14
709.0
 24
420.0
 34
0.0
 50
90.0
100
AcDbRotatedDimension
1001
ACAD
1000
DSTYLE
1002
{
1070
   270
1070
     2
1070
     6
1000
EX_NORM
1070
     7
1000
EX_NORM
1070
    41
1040
15.0
1070
    42
1040
7.5
1070
    44
1040
5.0
1070
    73
1070
     0
1070
    74
1070
     0
1070
    75
1070
     0
1070
    76
1070
     1
1070
    77
1070
     1
1070
    78
1070
     8
1070
   140
1040
17.3145207852194
1070
   147
1040
0.0
1070
   173
1070
     1
1070
   176
1070
     2
1070
   177
1070
     2
1070
   178
1070
     2
1070
   271
1070
     2
1070
   277
1070
     2
1070
   279
1070
     2
1070
   280
1070
     0
1070
   287
1070
     5
1070
   340
1005
137
1002
}
  0
POLYLINE
  5
466
330
1F
100
AcDbEntity
  8
Ｓ_１_１
  6
CONTINUOUS
 62
     3
100
AcDb2dPolyline
 66
     1
 10
0.0
 20
0.0
 30
0.0
 70
   128
  0
VERTEX
  5
467
330
466
100
AcDbEntity
  8
Ｓ_１_１
  6
CONTINUOUS
 62
     3
100
AcDbVertex
100
AcDb2dVertex
 10
689.999996
 20
445.7490173459581
 30
0.0
  0
VERTEX
  5
468
330
466
100
AcDbEntity
  8
Ｓ_１_１
  6
CONTINUOUS
 62
     3
100
AcDbVertex
100
AcDb2dVertex
 10
687.499996
 20
444.3056416729841
 30
0.0
  0
VERTEX
  5
469
330
466
100
AcDbEntity
  8
Ｓ_１_１
  6
CONTINUOUS
 62
     3
100
AcDbVertex
100
AcDb2dVertex
 10
687.499996
 20
441.4188903270359
 30
0.0
  0
VERTEX
  5
46A
330
466
100
AcDbEntity
  8
Ｓ_１_１
  6
CONTINUOUS
 62
     3
100
AcDbVertex
100
AcDb2dVertex
 10
689.999996
 20
439.9755146540619
 30
0.0
  0
VERTEX
  5
46B
330
466
100
AcDbEntity
  8
Ｓ_１_１
  6
CONTINUOUS
 62
     3
100
AcDbVertex
100
AcDb2dVertex
 10
692.499996
 20
441.4188903270359
 30
0.0
  0
VERTEX
  5
46C
330
466
100
AcDbEntity
  8
Ｓ_１_１
  6
CONTINUOUS
 62
     3
100
AcDbVertex
100
AcDb2dVertex
 10
692.499996
 20
444.3056416729841
 30
0.0
  0
VERTEX
  5
46D
330
466
100
AcDbEntity
  8
Ｓ_１_１
  6
CONTINUOUS
 62
     3
100
AcDbVertex
100
AcDb2dVertex
 10
689.999996
 20
445.7490173459581
 30
0.0
  0
SEQEND
  5
46E
330
466
100
AcDbEntity
  8
Ｓ_１_１
  6
CONTINUOUS
 62
     3
  0
ENDSEC
  0
SECTION
  2
OBJECTS
  0
DICTIONARY
  5
C
330
0
100
AcDbDictionary
  3
ACAD_GROUP
350
D
  3
ACAD_LAYOUT
350
1A
  3
ACAD_MATERIAL
350
43
  3
ACAD_MLEADERSTYLE
350
6B
  3
ACAD_MLINESTYLE
350
17
  3
ACAD_PLOTSETTINGS
350
19
  3
ACAD_SCALELIST
350
47
  3
ACAD_VISUALSTYLE
350
2A
  3
ACDBHEADERROUNDTRIPXREC
350
46F
  3
ACDBVARIABLEDICTIONARY
350
490
  0
DICTIONARY
  5
49B
330
8
100
AcDbDictionary
280
     1
  3
ACAD_XREC_ROUNDTRIP
360
49C
  0
DICTIONARY
  5
D
102
{ACAD_REACTORS
330
C
102
}
330
C
100
AcDbDictionary
  0
DICTIONARY
  5
1A
102
{ACAD_REACTORS
330
C
102
}
330
C
100
AcDbDictionary
  0
DICTIONARY
  5
43
102
{ACAD_REACTORS
330
C
102
}
330
C
100
AcDbDictionary
  3
BYBLOCK
350
45
  3
BYLAYER
350
44
  3
GLOBAL
350
46
  0
DICTIONARY
  5
6B
102
{ACAD_REACTORS
330
C
102
}
330
C
100
AcDbDictionary
  3
STANDARD
350
6C
  0
DICTIONARY
  5
17
102
{ACAD_REACTORS
330
C
102
}
330
C
100
AcDbDictionary
  3
STANDARD
350
18
  0
DICTIONARY
  5
19
102
{ACAD_REACTORS
330
C
102
}
330
C
100
AcDbDictionary
  0
DICTIONARY
  5
47
102
{ACAD_REACTORS
330
C
102
}
330
C
100
AcDbDictionary
  3
A0
350
48
  3
A1
350
49
  3
A2
350
4A
  3
A3
350
4B
  3
A4
350
4C
  3
A5
350
4D
  3
A6
350
4E
  3
A7
350
4F
  3
A8
350
50
  3
A9
350
51
  3
B0
350
52
  3
B1
350
53
  3
B2
350
54
  3
B3
350
55
  3
B4
350
56
  3
B5
350
57
  3
B6
350
58
  3
B7
350
59
  3
B8
350
5A
  3
B9
350
5B
  3
C0
350
5C
  3
C1
350
5D
  3
C2
350
5E
  3
C3
350
5F
  3
C4
350
60
  3
C5
350
61
  3
C6
350
62
  3
C7
350
63
  3
C8
350
64
  3
C9
350
65
  3
D0
350
66
  3
D1
350
67
  3
D2
350
68
  0
DICTIONARY
  5
2A
102
{ACAD_REACTORS
330
C
102
}
330
C
100
AcDbDictionary
  3
2DWIREFRAME
350
2F
  3
BASIC
350
32
  3
BRIGHTEN
350
36
  3
COLORCHANGE
350
3A
  3
CONCEPTUAL
350
34
  3
DIM
350
35
  3
EDGECOLOROFF
350
3D
  3
FACEPATTERN
350
39
  3
FLAT
350
2B
  3
FLATWITHEDGES
350
2C
  3
GOURAUD
350
2D
  3
GOURAUDWITHEDGES
350
2E
  3
HIDDEN
350
31
  3
JITTEROFF
350
3B
  3
LINEPATTERN
350
38
  3
OVERHANGOFF
350
3C
  3
REALISTIC
350
33
  3
SHADED
350
42
  3
SHADED_WITH_EDGES
350
41
  3
SHADES_OF_GRAY
350
3E
  3
SKETCHY
350
3F
  3
THICKEN
350
37
  3
WIREFRAME
350
30
  3
X-RAY
350
40
  0
DICTIONARY
  5
46F
102
{ACAD_REACTORS
330
C
102
}
330
C
100
AcDbDictionary
  3
CEPSNID
350
479
  3
CEPSNTYPE
350
478
  3
DIMSTYLEDATA
350
48F
  3
FINGERPRINTGUID
350
47A
  3
HYPERLINKBASE
350
472
  3
INSUNITS
350
477
  3
LAYOUTDICT
350
474
  3
LWETCUNION
350
476
  3
PLOTSETDICT
350
475
  3
PSVPSCALE
350
47C
  3
PUCSBASE
350
47F
  3
PUCSORGBACK
350
485
  3
PUCSORGBOTTOM
350
481
  3
PUCSORGFRONT
350
484
  3
PUCSORGLEFT
350
482
  3
PUCSORGRIGHT
350
483
  3
PUCSORGTOP
350
480
  3
PUCSORTHOREF
350
47D
  3
PUCSORTHOVIEW
350
47E
  3
STYLESHEET
350
473
  3
TSTACKALIGN
350
470
  3
TSTACKSIZE
350
471
  3
UCSBASE
350
488
  3
UCSORGBACK
350
48E
  3
UCSORGBOTTOM
350
48A
  3
UCSORGFRONT
350
48D
  3
UCSORGLEFT
350
48B
  3
UCSORGRIGHT
350
48C
  3
UCSORGTOP
350
489
  3
UCSORTHOREF
350
486
  3
UCSORTHOVIEW
350
487
  3
VERSIONGUID
350
47B
  0
DICTIONARY
  5
490
102
{ACAD_REACTORS
330
C
102
}
330
C
100
AcDbDictionary
  3
CANNOSCALE
350
49D
  3
CENTEREXE
350
497
  3
CENTERLTYPEFILE
350
498
  3
CMLEADERSTYLE
350
492
  3
CTABLESTYLE
350
491
  3
DIMASSOC
350
499
  3
HIDETEXT
350
49A
  3
MSLTSCALE
350
49E
  3
PSOLHEIGHT
350
494
  3
PSOLWIDTH
350
493
  0
XRECORD
  5
49C
102
{ACAD_REACTORS
330
49B
102
}
330
49B
100
AcDbXrecord
102
VTR_0.000_0.000_1.000_1.000_VISUALSTYLE
340
2F
102
VTR_0.000_0.000_1.000_1.000_GRIDDISPLAY
 70
     3
102
VTR_0.000_0.000_1.000_1.000_GRIDMAJOR
 70
     5
102
VTR_0.000_0.000_1.000_1.000_DEFAULTLIGHTING
280
     1
102
VTR_0.000_0.000_1.000_1.000_DEFAULTLIGHTINGTYPE
 70
     1
102
VTR_0.000_0.000_1.000_1.000_BRIGHTNESS
141
0.0
102
VTR_0.000_0.000_1.000_1.000_CONTRAST
142
0.0
  0
MATERIAL
  5
45
102
{ACAD_REACTORS
330
43
102
}
102
{ACAD_XDICTIONARY
360
4A1
102
}
330
43
100
AcDbMaterial
  1
BYBLOCK
  0
MATERIAL
  5
44
102
{ACAD_REACTORS
330
43
102
}
102
{ACAD_XDICTIONARY
360
49F
102
}
330
43
100
AcDbMaterial
  1
BYLAYER
  0
MATERIAL
  5
46
102
{ACAD_REACTORS
330
43
102
}
102
{ACAD_XDICTIONARY
360
4A3
102
}
330
43
100
AcDbMaterial
  1
GLOBAL
  0
ACAD_PROXY_OBJECT
  5
6C
102
{ACAD_REACTORS
330
6B
102
}
330
6B
100
AcDbProxyObject
 90
      499
 91
      505
 93
      610
310
40901902A4063FBFFFFFE0000000000000020400000000000020404214DD185B99185C990000000000000104090141901A00000000000004100000000000000041025764000000000000039000
340
14
340
0
340
11
340
0
 94
        0
1001
ACAD_MLEADERVER
1070
     2
  0
MLINESTYLE
  5
18
102
{ACAD_REACTORS
330
17
102
}
330
17
100
AcDbMlineStyle
  2
Standard
 70
     0
  3

 62
   256
 51
90.0
 52
90.0
 71
     2
 49
0.5
 62
   256
  6
BYLAYER
 49
-0.5
 62
   256
  6
BYLAYER
  0
ACAD_PROXY_OBJECT
  5
48
102
{ACAD_REACTORS
330
47
102
}
330
47
100
AcDbProxyObject
 90
      499
 91
      503
 93
       41
310
903313A31580
  0
ACAD_PROXY_OBJECT
  5
49
102
{ACAD_REACTORS
330
47
102
}
330
47
100
AcDbProxyObject
 90
      499
 91
      503
 93
      105
310
903313A324000000000000004000
  0
ACAD_PROXY_OBJECT
  5
4A
102
{ACAD_REACTORS
330
47
102
}
330
47
100
AcDbProxyObject
 90
      499
 91
      503
 93
      105
310
903313A344000000000000104000
  0
ACAD_PROXY_OBJECT
  5
4B
102
{ACAD_REACTORS
330
47
102
}
330
47
100
AcDbProxyObject
 90
      499
 91
      503
 93
      105
310
903313A354000000000000144000
  0
ACAD_PROXY_OBJECT
  5
4C
102
{ACAD_REACTORS
330
47
102
}
330
47
100
AcDbProxyObject
 90
      499
 91
      503
 93
      105
310
903313A384000000000000204000
  0
ACAD_PROXY_OBJECT
  5
4D
102
{ACAD_REACTORS
330
47
102
}
330
47
100
AcDbProxyObject
 90
      499
 91
      503
 93
      113
310
904313A31304000000000000244000
  0
ACAD_PROXY_OBJECT
  5
4E
102
{ACAD_REACTORS
330
47
102
}
330
47
100
AcDbProxyObject
 90
      499
 91
      503
 93
      113
310
904313A31364000000000000304000
  0
ACAD_PROXY_OBJECT
  5
4F
102
{ACAD_REACTORS
330
47
102
}
330
47
100
AcDbProxyObject
 90
      499
 91
      503
 93
      113
310
904313A32304000000000000344000
  0
ACAD_PROXY_OBJECT
  5
50
102
{ACAD_REACTORS
330
47
102
}
330
47
100
AcDbProxyObject
 90
      499
 91
      503
 93
      113
310
904313A333040000000000003E4000
  0
ACAD_PROXY_OBJECT
  5
51
102
{ACAD_REACTORS
330
47
102
}
330
47
100
AcDbProxyObject
 90
      499
 91
      503
 93
      113
310
904313A34304000000000000444000
  0
ACAD_PROXY_OBJECT
  5
52
102
{ACAD_REACTORS
330
47
102
}
330
47
100
AcDbProxyObject
 90
      499
 91
      503
 93
      113
310
904313A35304000000000000494000
  0
ACAD_PROXY_OBJECT
  5
53
102
{ACAD_REACTORS
330
47
102
}
330
47
100
AcDbProxyObject
 90
      499
 91
      503
 93
      121
310
905313A3130304000000000000594000
  0
ACAD_PROXY_OBJECT
  5
54
102
{ACAD_REACTORS
330
47
102
}
330
47
100
AcDbProxyObject
 90
      499
 91
      503
 93
      105
310
903323A310000000000000010100
  0
ACAD_PROXY_OBJECT
  5
55
102
{ACAD_REACTORS
330
47
102
}
330
47
100
AcDbProxyObject
 90
      499
 91
      503
 93
      105
310
903343A310000000000000410100
  0
ACAD_PROXY_OBJECT
  5
56
102
{ACAD_REACTORS
330
47
102
}
330
47
100
AcDbProxyObject
 90
      499
 91
      503
 93
      105
310
903383A310000000000000810100
  0
ACAD_PROXY_OBJECT
  5
57
102
{ACAD_REACTORS
330
47
102
}
330
47
100
AcDbProxyObject
 90
      499
 91
      503
 93
      113
310
90431303A310000000000000910100
  0
ACAD_PROXY_OBJECT
  5
58
102
{ACAD_REACTORS
330
47
102
}
330
47
100
AcDbProxyObject
 90
      499
 91
      503
 93
      121
310
9053130303A310000000000001650100
  0
ACAD_PROXY_OBJECT
  5
59
102
{ACAD_REACTORS
330
47
102
}
330
47
100
AcDbProxyObject
 90
      499
 91
      503
 93
      257
310
90E312F31323822203D2031272D3022000000000000200FC000000000000284000
  0
ACAD_PROXY_OBJECT
  5
5A
102
{ACAD_REACTORS
330
47
102
}
330
47
100
AcDbProxyObject
 90
      499
 91
      503
 93
      249
310
90D312F363422203D2031272D3022000000000000240FC000000000000284000
  0
ACAD_PROXY_OBJECT
  5
5B
102
{ACAD_REACTORS
330
47
102
}
330
47
100
AcDbProxyObject
 90
      499
 91
      503
 93
      249
310
90D312F333222203D2031272D3022000000000000280FC000000000000284000
  0
ACAD_PROXY_OBJECT
  5
5C
102
{ACAD_REACTORS
330
47
102
}
330
47
100
AcDbProxyObject
 90
      499
 91
      503
 93
      249
310
90D312F313622203D2031272D30220000000000002C0FC000000000000284000
  0
ACAD_PROXY_OBJECT
  5
5D
102
{ACAD_REACTORS
330
47
102
}
330
47
100
AcDbProxyObject
 90
      499
 91
      503
 93
      249
310
90D332F333222203D2031272D30220000000000002E0FC000000000000284000
  0
ACAD_PROXY_OBJECT
  5
5E
102
{ACAD_REACTORS
330
47
102
}
330
47
100
AcDbProxyObject
 90
      499
 91
      503
 93
      241
310
90C312F3822203D2031272D3022000000000000300FC000000000000284000
  0
ACAD_PROXY_OBJECT
  5
5F
102
{ACAD_REACTORS
330
47
102
}
330
47
100
AcDbProxyObject
 90
      499
 91
      503
 93
      249
310
90D332F313622203D2031272D3022000000000000320FC000000000000284000
  0
ACAD_PROXY_OBJECT
  5
60
102
{ACAD_REACTORS
330
47
102
}
330
47
100
AcDbProxyObject
 90
      499
 91
      503
 93
      241
310
90C312F3422203D2031272D3022000000000000340FC000000000000284000
  0
ACAD_PROXY_OBJECT
  5
61
102
{ACAD_REACTORS
330
47
102
}
330
47
100
AcDbProxyObject
 90
      499
 91
      503
 93
      241
310
90C332F3822203D2031272D3022000000000000360FC000000000000284000
  0
ACAD_PROXY_OBJECT
  5
62
102
{ACAD_REACTORS
330
47
102
}
330
47
100
AcDbProxyObject
 90
      499
 91
      503
 93
      241
310
90C312F3222203D2031272D3022000000000000380FC000000000000284000
  0
ACAD_PROXY_OBJECT
  5
63
102
{ACAD_REACTORS
330
47
102
}
330
47
100
AcDbProxyObject
 90
      499
 91
      503
 93
      241
310
90C332F3422203D2031272D30220000000000003A0FC000000000000284000
  0
ACAD_PROXY_OBJECT
  5
64
102
{ACAD_REACTORS
330
47
102
}
330
47
100
AcDbProxyObject
 90
      499
 91
      503
 93
      161
310
90A3122203D2031272D30224000000000000284000
  0
ACAD_PROXY_OBJECT
  5
65
102
{ACAD_REACTORS
330
47
102
}
330
47
100
AcDbProxyObject
 90
      499
 91
      503
 93
      257
310
90E312D312F3222203D2031272D30220000000000003E0FC000000000000284000
  0
ACAD_PROXY_OBJECT
  5
66
102
{ACAD_REACTORS
330
47
102
}
330
47
100
AcDbProxyObject
 90
      499
 91
      503
 93
      225
310
90A3322203D2031272D302200000000000002100000000000000284000
  0
ACAD_PROXY_OBJECT
  5
67
102
{ACAD_REACTORS
330
47
102
}
330
47
100
AcDbProxyObject
 90
      499
 91
      503
 93
      225
310
90A3622203D2031272D302200000000000006100000000000000284000
  0
ACAD_PROXY_OBJECT
  5
68
102
{ACAD_REACTORS
330
47
102
}
330
47
100
AcDbProxyObject
 90
      499
 91
      503
 93
      249
310
90D31272D3022203D2031272D30220000000000000A100000000000000284000
  0
ACAD_PROXY_OBJECT
  5
2F
102
{ACAD_REACTORS
330
2A
102
}
330
2A
100
AcDbProxyObject
 90
      499
 91
      501
 93
      436
310
42CC9915DA5C99599C985B595049028333333333333E33F0000000000000F90107901411070040501600405405064090741402480A0340
1001
ACAD
1000
AcDbSavedByObjectVersion
1070
     0
  0
ACAD_PROXY_OBJECT
  5
32
102
{ACAD_REACTORS
330
2A
102
}
330
2A
100
AcDbProxyObject
 90
      499
 91
      501
 93
      388
310
4150985CDA58D07406404333333333333E33F0000000000000F90107A41107004050150841D405064090741402480A0350
1001
ACAD
1000
AcDbSavedByObjectVersion
1070
     0
  0
ACAD_PROXY_OBJECT
  5
36
102
{ACAD_REACTORS
330
2A
102
}
330
2A
100
AcDbProxyObject
 90
      499
 91
      501
 93
      428
310
42109C9A59DA1D195B90C409028333333333333E33F0000000000000F9010790141107004050150841D405064090741402480A029950
1001
ACAD
1000
AcDbSavedByObjectVersion
1070
     0
  0
ACAD_PROXY_OBJECT
  5
3A
102
{ACAD_REACTORS
330
2A
102
}
330
2A
100
AcDbProxyObject
 90
      499
 91
      501
 93
      452
310
42D0DBDB1BDC90DA185B99D95104090240C333333333333E33F0000000000000F90108901411070040501508421405064090741402480A0350
1001
ACAD
1000
AcDbSavedByObjectVersion
1070
     0
  0
ACAD_PROXY_OBJECT
  5
34
102
{ACAD_REACTORS
330
2A
102
}
330
2A
100
AcDbProxyObject
 90
      499
 91
      501
 93
      500
310
4290DBDB98D95C1D1D585B10940D028333333333333E33F0000000000000F90107902409070040501000000000018199010841D405064090740C02480A0340
1001
ACAD
1000
AcDbSavedByObjectVersion
1070
     0
  0
ACAD_PROXY_OBJECT
  5
35
102
{ACAD_REACTORS
330
2A
102
}
330
2A
100
AcDbProxyObject
 90
      499
 91
      501
 93
      412
310
40D11A5B50B409028333333333333E33F0000000000000F9010790141107004050150841D405064090741402480A02677FFFFFD0
1001
ACAD
1000
AcDbSavedByObjectVersion
1070
     0
  0
ACAD_PROXY_OBJECT
  5
3D
102
{ACAD_REACTORS
330
2A
102
}
330
2A
100
AcDbProxyObject
 90
      499
 91
      501
 93
      452
310
43115919D950DBDB1BDC93D999916409028333333333333E33F0000000000000F9010790141107004050150841D405064090741402480A0350
1001
ACAD
1000
AcDbSavedByObjectVersion
1070
     0
  0
ACAD_PROXY_OBJECT
  5
39
102
{ACAD_REACTORS
330
2A
102
}
330
2A
100
AcDbProxyObject
 90
      499
 91
      501
 93
      444
310
42D19858D95C185D1D195C9B90F409028333333333333E33F0000000000000F9010790141107004050150841D405064090741402480A0350
1001
ACAD
1000
AcDbSavedByObjectVersion
1070
     0
  0
ACAD_PROXY_OBJECT
  5
2B
102
{ACAD_REACTORS
330
2A
102
}
330
2A
100
AcDbProxyObject
 90
      499
 91
      501
 93
      380
310
41119B185D240901404333333333333E33F0000000000000F9010740A907004050150841D405064090741402480A1B50
1001
ACAD
1000
AcDbSavedByObjectVersion
1070
     0
  0
ACAD_PROXY_OBJECT
  5
2C
102
{ACAD_REACTORS
330
2A
102
}
330
2A
100
AcDbProxyObject
 90
      499
 91
      501
 93
      468
310
43519B185D15DA5D1A115919D95CD0140901404333333333333E33F0000000000000F90107409019070040501600405405064090741402480A1B50
1001
ACAD
1000
AcDbSavedByObjectVersion
1070
     0
  0
ACAD_PROXY_OBJECT
  5
2D
102
{ACAD_REACTORS
330
2A
102
}
330
2A
100
AcDbProxyObject
 90
      499
 91
      501
 93
      404
310
41D1DBDD5C985D5910240902404333333333333E33F0000000000000F9010740A9070040501641D405064090741402480A1B50
1001
ACAD
1000
AcDbSavedByObjectVersion
1070
     0
  0
ACAD_PROXY_OBJECT
  5
2E
102
{ACAD_REACTORS
330
2A
102
}
330
2A
100
AcDbProxyObject
 90
      499
 91
      501
 93
      492
310
4411DBDD5C985D5915DA5D1A115919D95CD0340902404333333333333E33F0000000000000F90107409019070040501600405405064090741402480A1B50
1001
ACAD
1000
AcDbSavedByObjectVersion
1070
     0
  0
ACAD_PROXY_OBJECT
  5
31
102
{ACAD_REACTORS
330
2A
102
}
330
2A
100
AcDbProxyObject
 90
      499
 91
      501
 93
      476
310
41921A5919195B90640502408333333333333E33F0000000000000F901079024090700405020000000000001110200405405064090740C02480A0340
1001
ACAD
1000
AcDbSavedByObjectVersion
1070
     0
  0
ACAD_PROXY_OBJECT
  5
3B
102
{ACAD_REACTORS
330
2A
102
}
330
2A
100
AcDbProxyObject
 90
      499
 91
      501
 93
      428
310
42529A5D1D195C93D999914409028333333333333E33F0000000000000F9010790141107004050150A41D405064090741402480A0350
1001
ACAD
1000
AcDbSavedByObjectVersion
1070
     0
  0
ACAD_PROXY_OBJECT
  5
38
102
{ACAD_REACTORS
330
2A
102
}
330
2A
100
AcDbProxyObject
 90
      499
 91
      501
 93
      444
310
42D31A5B995C185D1D195C9B90E409028333333333333E33F0000000000000F9010790141107004050750841D405064090741402483A0350
1001
ACAD
1000
AcDbSavedByObjectVersion
1070
     0
  0
ACAD_PROXY_OBJECT
  5
3C
102
{ACAD_REACTORS
330
2A
102
}
330
2A
100
AcDbProxyObject
 90
      499
 91
      501
 93
      444
310
42D3DD995C9A185B99D3D999915409028333333333333E33F0000000000000F9010790141107004050150941D405064090741402480A0350
1001
ACAD
1000
AcDbSavedByObjectVersion
1070
     0
  0
ACAD_PROXY_OBJECT
  5
33
102
{ACAD_REACTORS
330
2A
102
}
330
2A
100
AcDbProxyObject
 90
      499
 91
      501
 93
      428
310
425499585B1A5CDD1A58D08409038333333333333E33F0000000000000F9010740A907004050150800405405064090740C02480A1B40
1001
ACAD
1000
AcDbSavedByObjectVersion
1070
     0
  0
ACAD_PROXY_OBJECT
  5
42
102
{ACAD_REACTORS
330
2A
102
}
330
2A
100
AcDbProxyObject
 90
      499
 91
      501
 93
      420
310
4194DA1859195911B40902404333333333333E33F0000000000000F9010740A41107004050150800405405064090840C02480A0B40
1001
ACAD
1000
AcDbSavedByObjectVersion
1070
     0
  0
ACAD_PROXY_OBJECT
  5
41
102
{ACAD_REACTORS
330
2A
102
}
330
2A
100
AcDbProxyObject
 90
      499
 91
      501
 93
      516
310
4454DA18591959081DDA5D1A08195919D95CD1A40902404333333333333E33F0000000000000F901074090142907004050250800405405064090740C02480A0B40
1001
ACAD
1000
AcDbSavedByObjectVersion
1070
     0
  0
ACAD_PROXY_OBJECT
  5
3E
102
{ACAD_REACTORS
330
2A
102
}
330
2A
100
AcDbProxyObject
 90
      499
 91
      501
 93
      532
310
4394DA1859195CC81BD98811DC985E5174090240C333333333333E33F0000000000000F901079024090741D01000000000000111010841D405064090740C02480A0340
1001
ACAD
1000
AcDbSavedByObjectVersion
1070
     0
  0
ACAD_PROXY_OBJECT
  5
3F
102
{ACAD_REACTORS
330
2A
102
}
330
2A
100
AcDbProxyObject
 90
      499
 91
      501
 93
      476
310
41D4DAD95D18DA1E51840502408333333333333E33F0000000000000F901079024090741D01000000000000111010B41D405064090741802480A0340
1001
ACAD
1000
AcDbSavedByObjectVersion
1070
     0
  0
ACAD_PROXY_OBJECT
  5
37
102
{ACAD_REACTORS
330
2A
102
}
330
2A
100
AcDbProxyObject
 90
      499
 91
      501
 93
      412
310
41D51A1A58DAD95B90D409028333333333333E33F0000000000000F9010790141107004050150C41D405064090741402480A0350
1001
ACAD
1000
AcDbSavedByObjectVersion
1070
     0
  0
ACAD_PROXY_OBJECT
  5
30
102
{ACAD_REACTORS
330
2A
102
}
330
2A
100
AcDbProxyObject
 90
      499
 91
      501
 93
      420
310
4255DA5C99599C985B595059028333333333333E33F0000000000000F90107901411070040501600405405064090740C02480A0340
1001
ACAD
1000
AcDbSavedByObjectVersion
1070
     0
  0
ACAD_PROXY_OBJECT
  5
40
102
{ACAD_REACTORS
330
2A
102
}
330
2A
100
AcDbProxyObject
 90
      499
 91
      501
 93
      404
310
41560B54985E51940902404000000000000E03F0000000000000F9010740501907004050150841D405064090740C02480A1B40
1001
ACAD
1000
AcDbSavedByObjectVersion
1070
     0
  0
XRECORD
  5
479
102
{ACAD_REACTORS
330
46F
102
}
330
46F
100
AcDbXrecord
340
0
  0
XRECORD
  5
478
102
{ACAD_REACTORS
330
46F
102
}
330
46F
100
AcDbXrecord
 90
        0
  0
XRECORD
  5
48F
102
{ACAD_REACTORS
330
46F
102
}
330
46F
100
AcDbXrecord
1000
DSTYLE
1002
{
1070
   340
340
11
1002
}
  0
XRECORD
  5
47A
102
{ACAD_REACTORS
330
46F
102
}
330
46F
100
AcDbXrecord
  1
{8b76c44e-a6ce-4302-b722-17c2a8d763e0}
  0
XRECORD
  5
472
102
{ACAD_REACTORS
330
46F
102
}
330
46F
100
AcDbXrecord
  1

  0
XRECORD
  5
477
102
{ACAD_REACTORS
330
46F
102
}
330
46F
100
AcDbXrecord
 90
        4
  0
XRECORD
  5
474
102
{ACAD_REACTORS
330
46F
102
}
330
46F
100
AcDbXrecord
340
1A
  0
XRECORD
  5
476
102
{ACAD_REACTORS
330
46F
102
}
330
46F
100
AcDbXrecord
 90
    10781
  0
XRECORD
  5
475
102
{ACAD_REACTORS
330
46F
102
}
330
46F
100
AcDbXrecord
340
19
  0
XRECORD
  5
47C
102
{ACAD_REACTORS
330
46F
102
}
330
46F
100
AcDbXrecord
 40
0.0
  0
XRECORD
  5
47F
102
{ACAD_REACTORS
330
46F
102
}
330
46F
100
AcDbXrecord
340
0
  0
XRECORD
  5
485
102
{ACAD_REACTORS
330
46F
102
}
330
46F
100
AcDbXrecord
 10
0.0
 20
0.0
 30
0.0
  0
XRECORD
  5
481
102
{ACAD_REACTORS
330
46F
102
}
330
46F
100
AcDbXrecord
 10
0.0
 20
0.0
 30
0.0
  0
XRECORD
  5
484
102
{ACAD_REACTORS
330
46F
102
}
330
46F
100
AcDbXrecord
 10
0.0
 20
0.0
 30
0.0
  0
XRECORD
  5
482
102
{ACAD_REACTORS
330
46F
102
}
330
46F
100
AcDbXrecord
 10
0.0
 20
0.0
 30
0.0
  0
XRECORD
  5
483
102
{ACAD_REACTORS
330
46F
102
}
330
46F
100
AcDbXrecord
 10
0.0
 20
0.0
 30
0.0
  0
XRECORD
  5
480
102
{ACAD_REACTORS
330
46F
102
}
330
46F
100
AcDbXrecord
 10
0.0
 20
0.0
 30
0.0
  0
XRECORD
  5
47D
102
{ACAD_REACTORS
330
46F
102
}
330
46F
100
AcDbXrecord
340
0
  0
XRECORD
  5
47E
102
{ACAD_REACTORS
330
46F
102
}
330
46F
100
AcDbXrecord
 70
     0
  0
XRECORD
  5
473
102
{ACAD_REACTORS
330
46F
102
}
330
46F
100
AcDbXrecord
  1

  0
XRECORD
  5
470
102
{ACAD_REACTORS
330
46F
102
}
330
46F
100
AcDbXrecord
 90
        1
  0
XRECORD
  5
471
102
{ACAD_REACTORS
330
46F
102
}
330
46F
100
AcDbXrecord
 90
       70
  0
XRECORD
  5
488
102
{ACAD_REACTORS
330
46F
102
}
330
46F
100
AcDbXrecord
340
0
  0
XRECORD
  5
48E
102
{ACAD_REACTORS
330
46F
102
}
330
46F
100
AcDbXrecord
 10
0.0
 20
0.0
 30
0.0
  0
XRECORD
  5
48A
102
{ACAD_REACTORS
330
46F
102
}
330
46F
100
AcDbXrecord
 10
0.0
 20
0.0
 30
0.0
  0
XRECORD
  5
48D
102
{ACAD_REACTORS
330
46F
102
}
330
46F
100
AcDbXrecord
 10
0.0
 20
0.0
 30
0.0
  0
XRECORD
  5
48B
102
{ACAD_REACTORS
330
46F
102
}
330
46F
100
AcDbXrecord
 10
0.0
 20
0.0
 30
0.0
  0
XRECORD
  5
48C
102
{ACAD_REACTORS
330
46F
102
}
330
46F
100
AcDbXrecord
 10
0.0
 20
0.0
 30
0.0
  0
XRECORD
  5
489
102
{ACAD_REACTORS
330
46F
102
}
330
46F
100
AcDbXrecord
 10
0.0
 20
0.0
 30
0.0
  0
XRECORD
  5
486
102
{ACAD_REACTORS
330
46F
102
}
330
46F
100
AcDbXrecord
340
0
  0
XRECORD
  5
487
102
{ACAD_REACTORS
330
46F
102
}
330
46F
100
AcDbXrecord
 70
     0
  0
XRECORD
  5
47B
102
{ACAD_REACTORS
330
46F
102
}
330
46F
100
AcDbXrecord
  1
{FAEB1C32-E019-11D5-929B-00C0DF256EC4}
  0
DICTIONARYVAR
  5
49D
102
{ACAD_REACTORS
330
490
102
}
330
490
100
DictionaryVariables
280
     0
  1
1:1
  0
DICTIONARYVAR
  5
497
102
{ACAD_REACTORS
330
490
102
}
330
490
100
DictionaryVariables
280
     0
  1
3.500000
  0
DICTIONARYVAR
  5
498
102
{ACAD_REACTORS
330
490
102
}
330
490
100
DictionaryVariables
280
     0
  1
acadiso.lin
  0
DICTIONARYVAR
  5
492
102
{ACAD_REACTORS
330
490
102
}
330
490
100
DictionaryVariables
280
     0
  1
Standard
  0
DICTIONARYVAR
  5
491
102
{ACAD_REACTORS
330
490
102
}
330
490
100
DictionaryVariables
280
     0
  1
Standard
  0
DICTIONARYVAR
  5
499
102
{ACAD_REACTORS
330
490
102
}
330
490
100
DictionaryVariables
280
     0
  1
2
  0
DICTIONARYVAR
  5
49A
102
{ACAD_REACTORS
330
490
102
}
330
490
100
DictionaryVariables
280
     0
  1
1
  0
DICTIONARYVAR
  5
49E
102
{ACAD_REACTORS
330
490
102
}
330
490
100
DictionaryVariables
280
     0
  1
1
  0
DICTIONARYVAR
  5
494
102
{ACAD_REACTORS
330
490
102
}
330
490
100
DictionaryVariables
280
     0
  1
80.000000
  0
DICTIONARYVAR
  5
493
102
{ACAD_REACTORS
330
490
102
}
330
490
100
DictionaryVariables
280
     0
  1
5.000000
  0
DICTIONARY
  5
4A1
330
45
100
AcDbDictionary
280
     1
  3
ACAD_XREC_ROUNDTRIP
360
4A2
  0
DICTIONARY
  5
49F
330
44
100
AcDbDictionary
280
     1
  3
ACAD_XREC_ROUNDTRIP
360
4A0
  0
DICTIONARY
  5
4A3
330
46
100
AcDbDictionary
280
     1
  3
ACAD_XREC_ROUNDTRIP
360
4A4
  0
XRECORD
  5
4A2
102
{ACAD_REACTORS
330
4A1
102
}
330
4A1
100
AcDbXrecord
102
MATERIAL
148
0.0
149
0.0
149
0.0
 93
        0
 94
      127
282
     0
 72
     1
 77
     1
171
     1
175
     1
179
     1
273
     0
  0
XRECORD
  5
4A0
102
{ACAD_REACTORS
330
49F
102
}
330
49F
100
AcDbXrecord
102
MATERIAL
148
0.0
149
0.0
149
0.0
 93
        0
 94
      127
282
     0
 72
     1
 77
     1
171
     1
175
     1
179
     1
273
     0
  0
XRECORD
  5
4A4
102
{ACAD_REACTORS
330
4A3
102
}
330
4A3
100
AcDbXrecord
102
MATERIAL
148
0.0
149
0.0
149
0.0
 93
        0
 94
      127
282
     0
 72
     1
 77
     1
171
     1
175
     1
179
     1
273
     0
  0
ENDSEC
  0
EOF
