  0
SECTION
  2
HEADER
  9
$ACADVER
  1
AC1014
  9
$ACADMAINTVER
 70
     9
  9
$DWGCODEPAGE
  3
ANSI_932
  9
$INSBASE
 10
0.0
 20
0.0
 30
0.0
  9
$EXTMIN
 10
50.0
 20
50.0
 30
0.0
  9
$EXTMAX
 10
2050.0
 20
1435.0
 30
0.0
  9
$LIMMIN
 10
0.0
 20
0.0
  9
$LIMMAX
 10
420.0
 20
297.0
  9
$ORTHOMODE
 70
     0
  9
$REGENMODE
 70
     1
  9
$FILLMODE
 70
     1
  9
$QTEXTMODE
 70
     0
  9
$MIRRTEXT
 70
     1
  9
$DRAGMODE
 70
     2
  9
$LTSCALE
 40
1.0
  9
$OSMODE
 70
    37
  9
$ATTMODE
 70
     1
  9
$TEXTSIZE
 40
2.5
  9
$TRACEWID
 40
1.0
  9
$TEXTSTYLE
  7
STANDARD
  9
$CLAYER
  8
Ｓ_１_１
  9
$CELTYPE
  6
BYLAYER
  9
$CECOLOR
 62
   256
  9
$CELTSCALE
 40
1.0
  9
$DELOBJ
 70
     1
  9
$DISPSILH
 70
     0
  9
$DIMSCALE
 40
1.0
  9
$DIMASZ
 40
2.5
  9
$DIMEXO
 40
0.625
  9
$DIMDLI
 40
3.75
  9
$DIMRND
 40
0.0
  9
$DIMDLE
 40
0.0
  9
$DIMEXE
 40
1.25
  9
$DIMTP
 40
0.0
  9
$DIMTM
 40
0.0
  9
$DIMTXT
 40
2.5
  9
$DIMCEN
 40
2.5
  9
$DIMTSZ
 40
0.0
  9
$DIMTOL
 70
     0
  9
$DIMLIM
 70
     0
  9
$DIMTIH
 70
     0
  9
$DIMTOH
 70
     0
  9
$DIMSE1
 70
     0
  9
$DIMSE2
 70
     0
  9
$DIMTAD
 70
     1
  9
$DIMZIN
 70
     8
  9
$DIMBLK
  1

  9
$DIMASO
 70
     1
  9
$DIMSHO
 70
     1
  9
$DIMPOST
  1

  9
$DIMAPOST
  1

  9
$DIMALT
 70
     0
  9
$DIMALTD
 70
     3
  9
$DIMALTF
 40
0.03937007874016
  9
$DIMLFAC
 40
1.0
  9
$DIMTOFL
 70
     1
  9
$DIMTVP
 40
0.0
  9
$DIMTIX
 70
     0
  9
$DIMSOXD
 70
     0
  9
$DIMSAH
 70
     0
  9
$DIMBLK1
  1

  9
$DIMBLK2
  1

  9
$DIMSTYLE
  2
ISO-25
  9
$DIMCLRD
 70
     0
  9
$DIMCLRE
 70
     0
  9
$DIMCLRT
 70
     0
  9
$DIMTFAC
 40
1.0
  9
$DIMGAP
 40
0.625
  9
$DIMJUST
 70
     0
  9
$DIMSD1
 70
     0
  9
$DIMSD2
 70
     0
  9
$DIMTOLJ
 70
     0
  9
$DIMTZIN
 70
     8
  9
$DIMALTZ
 70
     0
  9
$DIMALTTZ
 70
     0
  9
$DIMFIT
 70
     3
  9
$DIMUPT
 70
     0
  9
$DIMUNIT
 70
     2
  9
$DIMDEC
 70
     2
  9
$DIMTDEC
 70
     2
  9
$DIMALTU
 70
     2
  9
$DIMALTTD
 70
     3
  9
$DIMTXSTY
  7
STANDARD
  9
$DIMAUNIT
 70
     0
  9
$LUNITS
 70
     2
  9
$LUPREC
 70
     4
  9
$SKETCHINC
 40
1.0
  9
$FILLETRAD
 40
10.0
  9
$AUNITS
 70
     0
  9
$AUPREC
 70
     0
  9
$MENU
  1
.
  9
$ELEVATION
 40
0.0
  9
$PELEVATION
 40
0.0
  9
$THICKNESS
 40
0.0
  9
$LIMCHECK
 70
     0
  9
$CHAMFERA
 40
0.0
  9
$CHAMFERB
 40
0.0
  9
$CHAMFERC
 40
0.0
  9
$CHAMFERD
 40
0.0
  9
$SKPOLY
 70
     0
  9
$TDCREATE
 40
2459585.497046262
  9
$TDUPDATE
 40
2459585.497047384
  9
$TDINDWG
 40
0.0000000116
  9
$TDUSRTIMER
 40
0.0000000116
  9
$USRTIMER
 70
     1
  9
$ANGBASE
 50
0.0
  9
$ANGDIR
 70
     0
  9
$PDMODE
 70
     0
  9
$PDSIZE
 40
0.0
  9
$PLINEWID
 40
0.0
  9
$COORDS
 70
     1
  9
$SPLFRAME
 70
     0
  9
$SPLINETYPE
 70
     6
  9
$SPLINESEGS
 70
     8
  9
$ATTDIA
 70
     0
  9
$ATTREQ
 70
     1
  9
$HANDLING
 70
     1
  9
$HANDSEED
  5
49A
  9
$SURFTAB1
 70
     6
  9
$SURFTAB2
 70
     6
  9
$SURFTYPE
 70
     6
  9
$SURFU
 70
     6
  9
$SURFV
 70
     6
  9
$UCSNAME
  2

  9
$UCSORG
 10
0.0
 20
0.0
 30
0.0
  9
$UCSXDIR
 10
1.0
 20
0.0
 30
0.0
  9
$UCSYDIR
 10
0.0
 20
1.0
 30
0.0
  9
$PUCSNAME
  2

  9
$PUCSORG
 10
0.0
 20
0.0
 30
0.0
  9
$PUCSXDIR
 10
1.0
 20
0.0
 30
0.0
  9
$PUCSYDIR
 10
0.0
 20
1.0
 30
0.0
  9
$USERI1
 70
     0
  9
$USERI2
 70
     0
  9
$USERI3
 70
     0
  9
$USERI4
 70
     0
  9
$USERI5
 70
     0
  9
$USERR1
 40
0.0
  9
$USERR2
 40
0.0
  9
$USERR3
 40
0.0
  9
$USERR4
 40
0.0
  9
$USERR5
 40
0.0
  9
$WORLDVIEW
 70
     1
  9
$SHADEDGE
 70
     3
  9
$SHADEDIF
 70
    70
  9
$TILEMODE
 70
     1
  9
$MAXACTVP
 70
    64
  9
$PINSBASE
 10
0.0
 20
0.0
 30
0.0
  9
$PLIMCHECK
 70
     0
  9
$PEXTMIN
 10
1.000000000000000E+20
 20
1.000000000000000E+20
 30
1.000000000000000E+20
  9
$PEXTMAX
 10
-1.000000000000000E+20
 20
-1.000000000000000E+20
 30
-1.000000000000000E+20
  9
$PLIMMIN
 10
0.0
 20
0.0
  9
$PLIMMAX
 10
420.0
 20
297.0
  9
$UNITMODE
 70
     0
  9
$VISRETAIN
 70
     1
  9
$PLINEGEN
 70
     0
  9
$PSLTSCALE
 70
     1
  9
$TREEDEPTH
 70
  3020
  9
$PICKSTYLE
 70
     1
  9
$CMLSTYLE
  2
STANDARD
  9
$CMLJUST
 70
     0
  9
$CMLSCALE
 40
20.0
  9
$PROXYGRAPHICS
 70
     1
  9
$MEASUREMENT
 70
     1
  0
ENDSEC
  0
SECTION
  2
CLASSES
  0
CLASS
  1
ACDBDICTIONARYWDFLT
  2
AcDbDictionaryWithDefault
  3
ObjectDBX Classes
 90
        0
280
     0
281
     0
  0
CLASS
  1
VISUALSTYLE
  2
AcDbVisualStyle
  3
ObjectDBX Classes
 90
     4095
280
     0
281
     0
  0
CLASS
  1
MATERIAL
  2
AcDbMaterial
  3
ObjectDBX Classes
 90
     1153
280
     0
281
     0
  0
CLASS
  1
SCALE
  2
AcDbScale
  3
ObjectDBX Classes
 90
     1153
280
     0
281
     0
  0
CLASS
  1
TABLESTYLE
  2
AcDbTableStyle
  3
ObjectDBX Classes
 90
     4095
280
     0
281
     0
  0
CLASS
  1
MLEADERSTYLE
  2
AcDbMLeaderStyle
  3
ACDB_MLEADERSTYLE_CLASS
 90
     4095
280
     0
281
     0
  0
CLASS
  1
SUN
  2
AcDbSun
  3
SCENEOE
 90
     1153
280
     0
281
     0
  0
CLASS
  1
DICTIONARYVAR
  2
AcDbDictionaryVar
  3
ObjectDBX Classes
 90
        0
280
     0
281
     0
  0
CLASS
  1
XRECORD
  2
AcDbXrecord
  3
ObjectDBX Classes
 90
        0
280
     0
281
     0
  0
CLASS
  1
LWPOLYLINE
  2
AcDbPolyline
  3
ObjectDBX Classes
 90
        0
280
     0
281
     1
  0
CLASS
  1
HATCH
  2
AcDbHatch
  3
ObjectDBX Classes
 90
        0
280
     0
281
     1
  0
CLASS
  1
ACDBPLACEHOLDER
  2
AcDbPlaceHolder
  3
ObjectDBX Classes
 90
        0
280
     0
281
     0
  0
CLASS
  1
LAYOUT
  2
AcDbLayout
  3
ObjectDBX Classes
 90
        0
280
     0
281
     0
  0
ENDSEC
  0
SECTION
  2
TABLES
  0
TABLE
  2
VPORT
  5
8
102
{ACAD_XDICTIONARY
360
48F
102
}
330
0
100
AcDbSymbolTable
 70
     1
  0
VPORT
  5
29
330
8
100
AcDbSymbolTableRecord
100
AcDbViewportTableRecord
  2
*ACTIVE
 70
     0
 10
0.0
 20
0.0
 11
1.0
 21
1.0
 12
1050.0
 22
742.5
 13
0.0
 23
0.0
 14
10.0
 24
10.0
 15
10.0
 25
10.0
 16
0.0
 26
0.0
 36
1.0
 17
0.0
 27
0.0
 37
0.0
 40
1385.0
 41
1.444043321299639
 42
50.0
 43
0.0
 44
0.0
 50
0.0
 51
0.0
 71
     0
 72
  1000
 73
     1
 74
     3
 75
     0
 76
     0
 77
     0
 78
     0
  0
ENDTAB
  0
TABLE
  2
LTYPE
  5
5
330
0
100
AcDbSymbolTable
 70
     8
  0
LTYPE
  5
14
330
5
100
AcDbSymbolTableRecord
100
AcDbLinetypeTableRecord
  2
BYBLOCK
 70
     0
  3

 72
    65
 73
     0
 40
0.0
  0
LTYPE
  5
15
330
5
100
AcDbSymbolTableRecord
100
AcDbLinetypeTableRecord
  2
BYLAYER
 70
     0
  3

 72
    65
 73
     0
 40
0.0
  0
LTYPE
  5
16
330
5
100
AcDbSymbolTableRecord
100
AcDbLinetypeTableRecord
  2
CONTINUOUS
 70
     0
  3
Solid line
 72
    65
 73
     0
 40
0.0
  0
LTYPE
  5
6E
330
5
100
AcDbSymbolTableRecord
100
AcDbLinetypeTableRecord
  2
EXLTYPE0
 70
     0
  3
破線
 72
    65
 73
     2
 40
4.0
 49
3.0
 74
     0
 49
-1.0
 74
     0
  0
LTYPE
  5
6F
330
5
100
AcDbSymbolTableRecord
100
AcDbLinetypeTableRecord
  2
EXLTYPE1
 70
     0
  3
点線
 72
    65
 73
     2
 40
2.0
 49
1.0
 74
     0
 49
-1.0
 74
     0
  0
LTYPE
  5
70
330
5
100
AcDbSymbolTableRecord
100
AcDbLinetypeTableRecord
  2
EXLTYPE2
 70
     0
  3
一点鎖線
 72
    65
 73
     4
 40
13.0
 49
10.0
 74
     0
 49
-1.0
 74
     0
 49
1.0
 74
     0
 49
-1.0
 74
     0
  0
LTYPE
  5
71
330
5
100
AcDbSymbolTableRecord
100
AcDbLinetypeTableRecord
  2
EXLTYPE3
 70
     0
  3
二点鎖線
 72
    65
 73
     6
 40
15.0
 49
10.0
 74
     0
 49
-1.0
 74
     0
 49
1.0
 74
     0
 49
-1.0
 74
     0
 49
1.0
 74
     0
 49
-1.0
 74
     0
  0
LTYPE
  5
72
330
5
100
AcDbSymbolTableRecord
100
AcDbLinetypeTableRecord
  2
EXLTYPE4
 70
     0
  3
一点鎖線2
 72
    65
 73
     4
 40
3.5
 49
2.0
 74
     0
 49
-0.5
 74
     0
 49
0.5
 74
     0
 49
-0.5
 74
     0
  0
LTYPE
  5
73
330
5
100
AcDbSymbolTableRecord
100
AcDbLinetypeTableRecord
  2
EXLTYPE5
 70
     0
  3
二点鎖線2
 72
    65
 73
     6
 40
4.5
 49
2.0
 74
     0
 49
-0.5
 74
     0
 49
0.5
 74
     0
 49
-0.5
 74
     0
 49
0.5
 74
     0
 49
-0.5
 74
     0
  0
LTYPE
  5
74
330
5
100
AcDbSymbolTableRecord
100
AcDbLinetypeTableRecord
  2
EXLTYPE6
 70
     0
  3
一点鎖線4
 72
    65
 73
     4
 40
13.0
 49
10.0
 74
     0
 49
-1.0
 74
     0
 49
1.0
 74
     0
 49
-1.0
 74
     0
  0
ENDTAB
  0
TABLE
  2
LAYER
  5
2
330
0
100
AcDbSymbolTable
 70
     4
  0
LAYER
  5
10
330
2
100
AcDbSymbolTableRecord
100
AcDbLayerTableRecord
  2
0
 70
     0
 62
     7
  6
CONTINUOUS
  0
LAYER
  5
77
330
2
100
AcDbSymbolTableRecord
100
AcDbLayerTableRecord
  2
図面枠
 70
     4
 62
     7
  6
CONTINUOUS
  0
LAYER
  5
78
330
2
100
AcDbSymbolTableRecord
100
AcDbLayerTableRecord
  2
Ｓ_１_１
 70
     0
 62
     7
  6
CONTINUOUS
  0
LAYER
  5
12F
330
2
100
AcDbSymbolTableRecord
100
AcDbLayerTableRecord
  2
DEFPOINTS
 70
     0
 62
     7
  6
CONTINUOUS
  0
ENDTAB
  0
TABLE
  2
STYLE
  5
3
330
0
100
AcDbSymbolTable
 70
     5
  0
STYLE
  5
11
330
3
100
AcDbSymbolTableRecord
100
AcDbTextStyleTableRecord
  2
STANDARD
 70
     0
 40
0.0
 41
1.0
 50
0.0
 71
     0
 42
2.5
  3
monotxt
  4
extfont
  0
STYLE
  5
75
330
3
100
AcDbSymbolTableRecord
100
AcDbTextStyleTableRecord
  2
EXCADSTD
 70
     0
 40
0.0
 41
1.0
 50
0.0
 71
     0
 42
2.5
  3
monotxt
  4
extfont
  0
STYLE
  5
76
330
3
100
AcDbSymbolTableRecord
100
AcDbTextStyleTableRecord
  2
EXCADVERT
 70
     4
 40
0.0
 41
1.0
 50
0.0
 71
     0
 42
2.5
  3
monotxt
  4
extfont
  0
STYLE
  5
DD
330
3
100
AcDbSymbolTableRecord
100
AcDbTextStyleTableRecord
  2
EXCADTTF1
 70
     0
 40
0.0
 41
1.0
 50
0.0
 71
     0
 42
2.5
  3
msgothic.ttc
  4

1001
ACAD
1000
MS Gothic
1071
    32817
  0
STYLE
  5
12D
330
3
100
AcDbSymbolTableRecord
100
AcDbTextStyleTableRecord
  2
EXCADDIM1
 70
     0
 40
0.0
 41
1.0
 50
0.0
 71
     0
 42
2.5
  3
msgothic.ttc
  4

1001
ACAD
1000
MS Gothic
1071
    32817
  0
ENDTAB
  0
TABLE
  2
VIEW
  5
6
330
0
100
AcDbSymbolTable
 70
     0
  0
ENDTAB
  0
TABLE
  2
UCS
  5
7
330
0
100
AcDbSymbolTable
 70
     0
  0
ENDTAB
  0
TABLE
  2
APPID
  5
9
330
0
100
AcDbSymbolTable
 70
     2
  0
APPID
  5
12
330
9
100
AcDbSymbolTableRecord
100
AcDbRegAppTableRecord
  2
ACAD
 70
     0
  0
APPID
  5
499
330
9
100
AcDbSymbolTableRecord
100
AcDbRegAppTableRecord
  2
ACAD_MLEADERVER
 70
     0
  0
ENDTAB
  0
TABLE
  2
DIMSTYLE
  5
A
330
0
100
AcDbSymbolTable
 70
     1
  0
DIMSTYLE
105
27
102
{ACAD_REACTORS
330
12E
330
146
330
152
330
15D
330
16B
330
177
330
228
330
235
330
242
330
24F
330
25A
330
266
330
273
330
280
330
28D
330
299
330
2A6
330
2B3
330
31E
330
339
330
344
330
350
330
35C
330
376
330
382
330
434
330
441
330
44E
102
}
330
A
100
AcDbSymbolTableRecord
100
AcDbDimStyleTableRecord
  2
ISO-25
 70
     0
  3

  4

  5

  6

  7

 40
1.0
 41
2.5
 42
0.625
 43
3.75
 44
1.25
 45
0.0
 46
0.0
 47
0.0
 48
0.0
140
2.5
141
2.5
142
0.0
143
0.03937007874016
144
1.0
145
0.0
146
1.0
147
0.625
 71
     0
 72
     0
 73
     0
 74
     0
 75
     0
 76
     0
 77
     1
 78
     8
170
     0
171
     3
172
     1
173
     0
174
     0
175
     0
176
     0
177
     0
178
     0
270
     2
271
     2
272
     2
273
     2
274
     3
340
11
275
     0
280
     0
281
     0
282
     0
283
     0
284
     8
285
     0
286
     0
287
     5
288
     0
  0
ENDTAB
  0
TABLE
  2
BLOCK_RECORD
  5
1
330
0
100
AcDbSymbolTable
 70
    42
  0
BLOCK_RECORD
  5
1F
330
1
100
AcDbSymbolTableRecord
100
AcDbBlockTableRecord
  2
*MODEL_SPACE
  0
BLOCK_RECORD
  5
1B
330
1
100
AcDbSymbolTableRecord
100
AcDbBlockTableRecord
  2
*PAPER_SPACE
  0
BLOCK_RECORD
  5
79
330
1
100
AcDbSymbolTableRecord
100
AcDbBlockTableRecord
  2
EX_NORM
  0
BLOCK_RECORD
  5
7C
330
1
100
AcDbSymbolTableRecord
100
AcDbBlockTableRecord
  2
EX_BNORM
  0
BLOCK_RECORD
  5
7F
330
1
100
AcDbSymbolTableRecord
100
AcDbBlockTableRecord
  2
EX_BCIR
  0
BLOCK_RECORD
  5
82
330
1
100
AcDbSymbolTableRecord
100
AcDbBlockTableRecord
  2
EX_RCIVIL
  0
BLOCK_RECORD
  5
85
330
1
100
AcDbSymbolTableRecord
100
AcDbBlockTableRecord
  2
EX_SLANT
  0
BLOCK_RECORD
  5
88
330
1
100
AcDbSymbolTableRecord
100
AcDbBlockTableRecord
  2
EX_NONE
  0
BLOCK_RECORD
  5
8B
330
1
100
AcDbSymbolTableRecord
100
AcDbBlockTableRecord
  2
EX_CIVIL
  0
BLOCK_RECORD
  5
8E
330
1
100
AcDbSymbolTableRecord
100
AcDbBlockTableRecord
  2
EX_WCIR
  0
BLOCK_RECORD
  5
91
330
1
100
AcDbSymbolTableRecord
100
AcDbBlockTableRecord
  2
EX_WCIR2
  0
BLOCK_RECORD
  5
94
330
1
100
AcDbSymbolTableRecord
100
AcDbBlockTableRecord
  2
EX_WNORM
  0
BLOCK_RECORD
  5
97
330
1
100
AcDbSymbolTableRecord
100
AcDbBlockTableRecord
  2
EX_NNORM
  0
BLOCK_RECORD
  5
9A
330
1
100
AcDbSymbolTableRecord
100
AcDbBlockTableRecord
  2
EX_BBOX
  0
BLOCK_RECORD
  5
9D
330
1
100
AcDbSymbolTableRecord
100
AcDbBlockTableRecord
  2
EX_WBOX
  0
BLOCK_RECORD
  5
A0
330
1
100
AcDbSymbolTableRecord
100
AcDbBlockTableRecord
  2
EX_INTEGRAL
  0
BLOCK_RECORD
  5
130
330
1
100
AcDbSymbolTableRecord
100
AcDbBlockTableRecord
  2
*D15
  0
BLOCK_RECORD
  5
147
330
1
100
AcDbSymbolTableRecord
100
AcDbBlockTableRecord
  2
*D16
  0
BLOCK_RECORD
  5
153
330
1
100
AcDbSymbolTableRecord
100
AcDbBlockTableRecord
  2
*D17
  0
BLOCK_RECORD
  5
15E
330
1
100
AcDbSymbolTableRecord
100
AcDbBlockTableRecord
  2
*D18
  0
BLOCK_RECORD
  5
16C
330
1
100
AcDbSymbolTableRecord
100
AcDbBlockTableRecord
  2
*D19
  0
BLOCK_RECORD
  5
178
330
1
100
AcDbSymbolTableRecord
100
AcDbBlockTableRecord
  2
*D20
  0
BLOCK_RECORD
  5
229
330
1
100
AcDbSymbolTableRecord
100
AcDbBlockTableRecord
  2
*D21
  0
BLOCK_RECORD
  5
236
330
1
100
AcDbSymbolTableRecord
100
AcDbBlockTableRecord
  2
*D22
  0
BLOCK_RECORD
  5
243
330
1
100
AcDbSymbolTableRecord
100
AcDbBlockTableRecord
  2
*D23
  0
BLOCK_RECORD
  5
250
330
1
100
AcDbSymbolTableRecord
100
AcDbBlockTableRecord
  2
*D24
  0
BLOCK_RECORD
  5
25B
330
1
100
AcDbSymbolTableRecord
100
AcDbBlockTableRecord
  2
*D25
  0
BLOCK_RECORD
  5
267
330
1
100
AcDbSymbolTableRecord
100
AcDbBlockTableRecord
  2
*D26
  0
BLOCK_RECORD
  5
274
330
1
100
AcDbSymbolTableRecord
100
AcDbBlockTableRecord
  2
*D27
  0
BLOCK_RECORD
  5
281
330
1
100
AcDbSymbolTableRecord
100
AcDbBlockTableRecord
  2
*D28
  0
BLOCK_RECORD
  5
28E
330
1
100
AcDbSymbolTableRecord
100
AcDbBlockTableRecord
  2
*D29
  0
BLOCK_RECORD
  5
29A
330
1
100
AcDbSymbolTableRecord
100
AcDbBlockTableRecord
  2
*D30
  0
BLOCK_RECORD
  5
2A7
330
1
100
AcDbSymbolTableRecord
100
AcDbBlockTableRecord
  2
*D31
  0
BLOCK_RECORD
  5
2B4
330
1
100
AcDbSymbolTableRecord
100
AcDbBlockTableRecord
  2
*D32
  0
BLOCK_RECORD
  5
31F
330
1
100
AcDbSymbolTableRecord
100
AcDbBlockTableRecord
  2
*D33
  0
BLOCK_RECORD
  5
33A
330
1
100
AcDbSymbolTableRecord
100
AcDbBlockTableRecord
  2
*D34
  0
BLOCK_RECORD
  5
345
330
1
100
AcDbSymbolTableRecord
100
AcDbBlockTableRecord
  2
*D35
  0
BLOCK_RECORD
  5
351
330
1
100
AcDbSymbolTableRecord
100
AcDbBlockTableRecord
  2
*D36
  0
BLOCK_RECORD
  5
35D
330
1
100
AcDbSymbolTableRecord
100
AcDbBlockTableRecord
  2
*D37
  0
BLOCK_RECORD
  5
377
330
1
100
AcDbSymbolTableRecord
100
AcDbBlockTableRecord
  2
*D38
  0
BLOCK_RECORD
  5
383
330
1
100
AcDbSymbolTableRecord
100
AcDbBlockTableRecord
  2
*D39
  0
BLOCK_RECORD
  5
435
330
1
100
AcDbSymbolTableRecord
100
AcDbBlockTableRecord
  2
*D40
  0
BLOCK_RECORD
  5
442
330
1
100
AcDbSymbolTableRecord
100
AcDbBlockTableRecord
  2
*D41
  0
BLOCK_RECORD
  5
44F
330
1
100
AcDbSymbolTableRecord
100
AcDbBlockTableRecord
  2
*D42
  0
ENDTAB
  0
ENDSEC
  0
SECTION
  2
BLOCKS
  0
BLOCK
  5
20
330
1F
100
AcDbEntity
  8
0
100
AcDbBlockBegin
  2
*MODEL_SPACE
 70
     0
 10
0.0
 20
0.0
 30
0.0
  3
*MODEL_SPACE
  1

  0
ENDBLK
  5
21
330
1F
100
AcDbEntity
  8
0
100
AcDbBlockEnd
  0
BLOCK
  5
1C
330
1B
100
AcDbEntity
 67
     1
  8
0
100
AcDbBlockBegin
  2
*PAPER_SPACE
 70
     0
 10
0.0
 20
0.0
 30
0.0
  3
*PAPER_SPACE
  1

  0
ENDBLK
  5
1D
330
1B
100
AcDbEntity
 67
     1
  8
0
100
AcDbBlockEnd
  0
BLOCK
  5
7A
330
79
100
AcDbEntity
  8
0
100
AcDbBlockBegin
  2
EX_NORM
 70
     0
 10
0.0
 20
0.0
 30
0.0
  3
EX_NORM
  1

  0
LINE
  5
A3
330
79
100
AcDbEntity
  8
0
  6
CONTINUOUS
 62
     0
100
AcDbLine
 10
0.0
 20
0.0
 30
0.0
 11
-1.0
 21
0.0
 31
0.0
  0
LINE
  5
A4
330
79
100
AcDbEntity
  8
0
  6
CONTINUOUS
 62
     0
100
AcDbLine
 10
0.0
 20
0.0
 30
0.0
 11
-1.0
 21
0.166666667
 31
0.0
  0
LINE
  5
A5
330
79
100
AcDbEntity
  8
0
  6
CONTINUOUS
 62
     0
100
AcDbLine
 10
0.0
 20
0.0
 30
0.0
 11
-1.0
 21
-0.166666667
 31
0.0
  0
ENDBLK
  5
7B
330
79
100
AcDbEntity
  8
0
100
AcDbBlockEnd
  0
BLOCK
  5
7D
330
7C
100
AcDbEntity
  8
0
100
AcDbBlockBegin
  2
EX_BNORM
 70
     0
 10
0.0
 20
0.0
 30
0.0
  3
EX_BNORM
  1

  0
LINE
  5
A6
330
7C
100
AcDbEntity
  8
0
  6
CONTINUOUS
 62
     0
100
AcDbLine
 10
0.0
 20
0.0
 30
0.0
 11
-1.0
 21
0.0
 31
0.0
  0
LINE
  5
A7
330
7C
100
AcDbEntity
  8
0
  6
CONTINUOUS
 62
     0
100
AcDbLine
 10
0.0
 20
0.0
 30
0.0
 11
-1.0
 21
0.166666667
 31
0.0
  0
LINE
  5
A8
330
7C
100
AcDbEntity
  8
0
  6
CONTINUOUS
 62
     0
100
AcDbLine
 10
0.0
 20
0.0
 30
0.0
 11
-1.0
 21
-0.166666667
 31
0.0
  0
LINE
  5
A9
330
7C
100
AcDbEntity
  8
0
  6
CONTINUOUS
 62
     0
100
AcDbLine
 10
0.0
 20
0.0
 30
0.0
 11
-1.0
 21
0.083333333
 31
0.0
  0
LINE
  5
AA
330
7C
100
AcDbEntity
  8
0
  6
CONTINUOUS
 62
     0
100
AcDbLine
 10
0.0
 20
0.0
 30
0.0
 11
-1.0
 21
-0.083333333
 31
0.0
  0
LINE
  5
AB
330
7C
100
AcDbEntity
  8
0
  6
CONTINUOUS
 62
     0
100
AcDbLine
 10
-1.0
 20
0.166666667
 30
0.0
 11
-1.0
 21
-0.166666667
 31
0.0
  0
ENDBLK
  5
7E
330
7C
100
AcDbEntity
  8
0
100
AcDbBlockEnd
  0
BLOCK
  5
80
330
7F
100
AcDbEntity
  8
0
100
AcDbBlockBegin
  2
EX_BCIR
 70
     0
 10
0.0
 20
0.0
 30
0.0
  3
EX_BCIR
  1

  0
LINE
  5
AC
330
7F
100
AcDbEntity
  8
0
  6
CONTINUOUS
 62
     0
100
AcDbLine
 10
0.0
 20
0.0
 30
0.0
 11
-1.0
 21
0.0
 31
0.0
  0
CIRCLE
  5
AD
330
7F
100
AcDbEntity
  8
0
  6
CONTINUOUS
 62
     0
100
AcDbCircle
 10
0.0
 20
0.0
 30
0.0
 40
0.5
  0
CIRCLE
  5
AE
330
7F
100
AcDbEntity
  8
0
  6
CONTINUOUS
 62
     0
100
AcDbCircle
 10
0.0
 20
0.0
 30
0.0
 40
0.25
  0
ENDBLK
  5
81
330
7F
100
AcDbEntity
  8
0
100
AcDbBlockEnd
  0
BLOCK
  5
83
330
82
100
AcDbEntity
  8
0
100
AcDbBlockBegin
  2
EX_RCIVIL
 70
     0
 10
0.0
 20
0.0
 30
0.0
  3
EX_RCIVIL
  1

  0
LINE
  5
AF
330
82
100
AcDbEntity
  8
0
  6
CONTINUOUS
 62
     0
100
AcDbLine
 10
0.0
 20
0.0
 30
0.0
 11
-1.0
 21
0.0
 31
0.0
  0
LINE
  5
B0
330
82
100
AcDbEntity
  8
0
  6
CONTINUOUS
 62
     0
100
AcDbLine
 10
-1.0
 20
-0.25
 30
0.0
 11
0.0
 21
-0.25
 31
0.0
  0
LINE
  5
B1
330
82
100
AcDbEntity
  8
0
  6
CONTINUOUS
 62
     0
100
AcDbLine
 10
-1.0
 20
-0.125
 30
0.0
 11
0.0
 21
-0.125
 31
0.0
  0
ENDBLK
  5
84
330
82
100
AcDbEntity
  8
0
100
AcDbBlockEnd
  0
BLOCK
  5
86
330
85
100
AcDbEntity
  8
0
100
AcDbBlockBegin
  2
EX_SLANT
 70
     0
 10
0.0
 20
0.0
 30
0.0
  3
EX_SLANT
  1

  0
LINE
  5
B2
330
85
100
AcDbEntity
  8
0
  6
CONTINUOUS
 62
     0
100
AcDbLine
 10
0.0
 20
0.0
 30
0.0
 11
-1.0
 21
0.0
 31
0.0
  0
LINE
  5
B3
330
85
100
AcDbEntity
  8
0
  6
CONTINUOUS
 62
     0
100
AcDbLine
 10
0.707106781
 20
0.707106781
 30
0.0
 11
-0.707106781
 21
-0.707106781
 31
0.0
  0
ENDBLK
  5
87
330
85
100
AcDbEntity
  8
0
100
AcDbBlockEnd
  0
BLOCK
  5
89
330
88
100
AcDbEntity
  8
0
100
AcDbBlockBegin
  2
EX_NONE
 70
     0
 10
0.0
 20
0.0
 30
0.0
  3
EX_NONE
  1

  0
LINE
  5
B4
330
88
100
AcDbEntity
  8
0
  6
CONTINUOUS
 62
     0
100
AcDbLine
 10
0.0
 20
0.0
 30
0.0
 11
-1.0
 21
0.0
 31
0.0
  0
ENDBLK
  5
8A
330
88
100
AcDbEntity
  8
0
100
AcDbBlockEnd
  0
BLOCK
  5
8C
330
8B
100
AcDbEntity
  8
0
100
AcDbBlockBegin
  2
EX_CIVIL
 70
     0
 10
0.0
 20
0.0
 30
0.0
  3
EX_CIVIL
  1

  0
LINE
  5
B5
330
8B
100
AcDbEntity
  8
0
  6
CONTINUOUS
 62
     0
100
AcDbLine
 10
0.0
 20
0.0
 30
0.0
 11
-1.0
 21
0.0
 31
0.0
  0
LINE
  5
B6
330
8B
100
AcDbEntity
  8
0
  6
CONTINUOUS
 62
     0
100
AcDbLine
 10
-1.0
 20
0.25
 30
0.0
 11
0.0
 21
0.25
 31
0.0
  0
LINE
  5
B7
330
8B
100
AcDbEntity
  8
0
  6
CONTINUOUS
 62
     0
100
AcDbLine
 10
-1.0
 20
0.125
 30
0.0
 11
0.0
 21
0.125
 31
0.0
  0
ENDBLK
  5
8D
330
8B
100
AcDbEntity
  8
0
100
AcDbBlockEnd
  0
BLOCK
  5
8F
330
8E
100
AcDbEntity
  8
0
100
AcDbBlockBegin
  2
EX_WCIR
 70
     0
 10
0.0
 20
0.0
 30
0.0
  3
EX_WCIR
  1

  0
LINE
  5
B8
330
8E
100
AcDbEntity
  8
0
  6
CONTINUOUS
 62
     0
100
AcDbLine
 10
0.0
 20
0.0
 30
0.0
 11
-1.0
 21
0.0
 31
0.0
  0
CIRCLE
  5
B9
330
8E
100
AcDbEntity
  8
0
  6
CONTINUOUS
 62
     0
100
AcDbCircle
 10
0.0
 20
0.0
 30
0.0
 40
0.5
  0
ENDBLK
  5
90
330
8E
100
AcDbEntity
  8
0
100
AcDbBlockEnd
  0
BLOCK
  5
92
330
91
100
AcDbEntity
  8
0
100
AcDbBlockBegin
  2
EX_WCIR2
 70
     0
 10
0.0
 20
0.0
 30
0.0
  3
EX_WCIR2
  1

  0
LINE
  5
BA
330
91
100
AcDbEntity
  8
0
  6
CONTINUOUS
 62
     0
100
AcDbLine
 10
-0.5
 20
0.0
 30
0.0
 11
-1.0
 21
0.0
 31
0.0
  0
CIRCLE
  5
BB
330
91
100
AcDbEntity
  8
0
  6
CONTINUOUS
 62
     0
100
AcDbCircle
 10
0.0
 20
0.0
 30
0.0
 40
0.5
  0
ENDBLK
  5
93
330
91
100
AcDbEntity
  8
0
100
AcDbBlockEnd
  0
BLOCK
  5
95
330
94
100
AcDbEntity
  8
0
100
AcDbBlockBegin
  2
EX_WNORM
 70
     0
 10
0.0
 20
0.0
 30
0.0
  3
EX_WNORM
  1

  0
LINE
  5
BC
330
94
100
AcDbEntity
  8
0
  6
CONTINUOUS
 62
     0
100
AcDbLine
 10
-1.0
 20
0.0
 30
0.0
 11
-1.0
 21
0.0
 31
0.0
  0
LINE
  5
BD
330
94
100
AcDbEntity
  8
0
  6
CONTINUOUS
 62
     0
100
AcDbLine
 10
0.0
 20
0.0
 30
0.0
 11
-1.0
 21
0.166666667
 31
0.0
  0
LINE
  5
BE
330
94
100
AcDbEntity
  8
0
  6
CONTINUOUS
 62
     0
100
AcDbLine
 10
0.0
 20
0.0
 30
0.0
 11
-1.0
 21
-0.166666667
 31
0.0
  0
LINE
  5
BF
330
94
100
AcDbEntity
  8
0
  6
CONTINUOUS
 62
     0
100
AcDbLine
 10
-1.0
 20
0.166666667
 30
0.0
 11
-1.0
 21
-0.166666667
 31
0.0
  0
ENDBLK
  5
96
330
94
100
AcDbEntity
  8
0
100
AcDbBlockEnd
  0
BLOCK
  5
98
330
97
100
AcDbEntity
  8
0
100
AcDbBlockBegin
  2
EX_NNORM
 70
     0
 10
0.0
 20
0.0
 30
0.0
  3
EX_NNORM
  1

  0
LINE
  5
C0
330
97
100
AcDbEntity
  8
0
  6
CONTINUOUS
 62
     0
100
AcDbLine
 10
0.0
 20
0.0
 30
0.0
 11
-1.0
 21
0.0
 31
0.0
  0
LINE
  5
C1
330
97
100
AcDbEntity
  8
0
  6
CONTINUOUS
 62
     0
100
AcDbLine
 10
0.0
 20
0.0
 30
0.0
 11
-1.0
 21
0.166666667
 31
0.0
  0
LINE
  5
C2
330
97
100
AcDbEntity
  8
0
  6
CONTINUOUS
 62
     0
100
AcDbLine
 10
0.0
 20
0.0
 30
0.0
 11
-1.0
 21
-0.166666667
 31
0.0
  0
LINE
  5
C3
330
97
100
AcDbEntity
  8
0
  6
CONTINUOUS
 62
     0
100
AcDbLine
 10
-1.0
 20
0.166666667
 30
0.0
 11
-1.0
 21
-0.166666667
 31
0.0
  0
ENDBLK
  5
99
330
97
100
AcDbEntity
  8
0
100
AcDbBlockEnd
  0
BLOCK
  5
9B
330
9A
100
AcDbEntity
  8
0
100
AcDbBlockBegin
  2
EX_BBOX
 70
     0
 10
0.0
 20
0.0
 30
0.0
  3
EX_BBOX
  1

  0
LINE
  5
C4
330
9A
100
AcDbEntity
  8
0
  6
CONTINUOUS
 62
     0
100
AcDbLine
 10
0.0
 20
0.0
 30
0.0
 11
-1.0
 21
0.0
 31
0.0
  0
LINE
  5
C5
330
9A
100
AcDbEntity
  8
0
  6
CONTINUOUS
 62
     0
100
AcDbLine
 10
-0.5
 20
0.5
 30
0.0
 11
0.5
 21
0.5
 31
0.0
  0
LINE
  5
C6
330
9A
100
AcDbEntity
  8
0
  6
CONTINUOUS
 62
     0
100
AcDbLine
 10
0.5
 20
0.5
 30
0.0
 11
0.5
 21
-0.5
 31
0.0
  0
LINE
  5
C7
330
9A
100
AcDbEntity
  8
0
  6
CONTINUOUS
 62
     0
100
AcDbLine
 10
0.5
 20
-0.5
 30
0.0
 11
-0.5
 21
-0.5
 31
0.0
  0
LINE
  5
C8
330
9A
100
AcDbEntity
  8
0
  6
CONTINUOUS
 62
     0
100
AcDbLine
 10
-0.5
 20
-0.5
 30
0.0
 11
-0.5
 21
0.5
 31
0.0
  0
LINE
  5
C9
330
9A
100
AcDbEntity
  8
0
  6
CONTINUOUS
 62
     0
100
AcDbLine
 10
-0.25
 20
0.25
 30
0.0
 11
0.25
 21
0.25
 31
0.0
  0
LINE
  5
CA
330
9A
100
AcDbEntity
  8
0
  6
CONTINUOUS
 62
     0
100
AcDbLine
 10
0.25
 20
0.25
 30
0.0
 11
0.25
 21
-0.25
 31
0.0
  0
LINE
  5
CB
330
9A
100
AcDbEntity
  8
0
  6
CONTINUOUS
 62
     0
100
AcDbLine
 10
0.25
 20
-0.25
 30
0.0
 11
-0.25
 21
-0.25
 31
0.0
  0
LINE
  5
CC
330
9A
100
AcDbEntity
  8
0
  6
CONTINUOUS
 62
     0
100
AcDbLine
 10
-0.25
 20
-0.25
 30
0.0
 11
-0.25
 21
0.25
 31
0.0
  0
ENDBLK
  5
9C
330
9A
100
AcDbEntity
  8
0
100
AcDbBlockEnd
  0
BLOCK
  5
9E
330
9D
100
AcDbEntity
  8
0
100
AcDbBlockBegin
  2
EX_WBOX
 70
     0
 10
0.0
 20
0.0
 30
0.0
  3
EX_WBOX
  1

  0
LINE
  5
CD
330
9D
100
AcDbEntity
  8
0
  6
CONTINUOUS
 62
     0
100
AcDbLine
 10
-0.5
 20
0.0
 30
0.0
 11
-1.0
 21
0.0
 31
0.0
  0
LINE
  5
CE
330
9D
100
AcDbEntity
  8
0
  6
CONTINUOUS
 62
     0
100
AcDbLine
 10
-0.5
 20
0.5
 30
0.0
 11
0.5
 21
0.5
 31
0.0
  0
LINE
  5
CF
330
9D
100
AcDbEntity
  8
0
  6
CONTINUOUS
 62
     0
100
AcDbLine
 10
0.5
 20
0.5
 30
0.0
 11
0.5
 21
-0.5
 31
0.0
  0
LINE
  5
D0
330
9D
100
AcDbEntity
  8
0
  6
CONTINUOUS
 62
     0
100
AcDbLine
 10
0.5
 20
-0.5
 30
0.0
 11
-0.5
 21
-0.5
 31
0.0
  0
LINE
  5
D1
330
9D
100
AcDbEntity
  8
0
  6
CONTINUOUS
 62
     0
100
AcDbLine
 10
-0.5
 20
-0.5
 30
0.0
 11
-0.5
 21
0.5
 31
0.0
  0
ENDBLK
  5
9F
330
9D
100
AcDbEntity
  8
0
100
AcDbBlockEnd
  0
BLOCK
  5
A1
330
A0
100
AcDbEntity
  8
0
100
AcDbBlockBegin
  2
EX_INTEGRAL
 70
     0
 10
0.0
 20
0.0
 30
0.0
  3
EX_INTEGRAL
  1

  0
LINE
  5
D2
330
A0
100
AcDbEntity
  8
0
  6
CONTINUOUS
 62
     0
100
AcDbLine
 10
0.0
 20
0.0
 30
0.0
 11
-1.0
 21
0.0
 31
0.0
  0
ARC
  5
D3
330
A0
100
AcDbEntity
  8
0
  6
CONTINUOUS
 62
     0
100
AcDbCircle
 10
0.542115
 20
0.164992
 30
0.0
 40
0.56667
100
AcDbArc
 50
73.07249033629006
 51
196.9275130221199
  0
ARC
  5
D4
330
A0
100
AcDbEntity
  8
0
  6
CONTINUOUS
 62
     0
100
AcDbCircle
 10
-0.542115
 20
-0.164992
 30
0.0
 40
0.56667
100
AcDbArc
 50
253.0724869220464
 51
16.9275130559125
  0
ENDBLK
  5
A2
330
A0
100
AcDbEntity
  8
0
100
AcDbBlockEnd
  0
BLOCK
  5
131
330
130
100
AcDbEntity
  8
0
100
AcDbBlockBegin
  2
*D15
 70
     1
 10
0.0
 20
0.0
 30
0.0
  3
*D15
  1

  0
LINE
  5
133
330
130
100
AcDbEntity
  8
Ｓ_１_１
  6
CONTINUOUS
 62
     2
100
AcDbLine
 10
352.4999350000001
 20
775.0
 30
0.0
 11
295.0
 21
775.0
 31
0.0
  0
LINE
  5
134
330
130
100
AcDbEntity
  8
Ｓ_１_１
  6
CONTINUOUS
 62
     2
100
AcDbLine
 10
352.4999350000001
 20
725.0
 30
0.0
 11
295.0
 21
725.0
 31
0.0
  0
LINE
  5
135
330
130
100
AcDbEntity
  8
Ｓ_１_１
  6
CONTINUOUS
 62
     2
100
AcDbLine
 10
300.0
 20
760.0
 30
0.0
 11
300.0
 21
740.0
 31
0.0
  0
INSERT
  5
136
330
130
100
AcDbEntity
  8
Ｓ_１_１
 62
     2
100
AcDbBlockReference
  2
EX_NORM
 10
300.0
 20
775.0
 30
0.0
 41
15.0
 42
15.0
 43
15.0
 50
90.0
  0
INSERT
  5
137
330
130
100
AcDbEntity
  8
Ｓ_１_１
 62
     2
100
AcDbBlockReference
  2
EX_NORM
 10
300.0
 20
725.0
 30
0.0
 41
15.0
 42
15.0
 43
15.0
 50
270.0
  0
MTEXT
  5
138
330
130
100
AcDbEntity
  8
Ｓ_１_１
 62
     2
100
AcDbMText
 10
286.25
 20
750.0
 30
0.0
 40
17.3145207852194
 41
0.0
 71
     5
 72
     1
  1
50
  7
EXCADDIM1
 11
0.0
 21
1.0
 31
0.0
  0
POINT
  5
139
330
130
100
AcDbEntity
  8
DEFPOINTS
 62
     0
100
AcDbPoint
 10
359.9999350000001
 20
775.0
 30
0.0
  0
POINT
  5
13A
330
130
100
AcDbEntity
  8
DEFPOINTS
 62
     0
100
AcDbPoint
 10
359.9999350000001
 20
725.0
 30
0.0
  0
POINT
  5
13B
330
130
100
AcDbEntity
  8
DEFPOINTS
 62
     0
100
AcDbPoint
 10
300.0
 20
725.0
 30
0.0
  0
ENDBLK
  5
132
330
130
100
AcDbEntity
  8
0
100
AcDbBlockEnd
  0
BLOCK
  5
148
330
147
100
AcDbEntity
  8
0
100
AcDbBlockBegin
  2
*D16
 70
     1
 10
0.0
 20
0.0
 30
0.0
  3
*D16
  1

  0
LINE
  5
14A
330
147
100
AcDbEntity
  8
Ｓ_１_１
  6
CONTINUOUS
 62
     2
100
AcDbLine
 10
1755.0
 20
510.0
 30
0.0
 11
1715.0
 21
510.0
 31
0.0
  0
INSERT
  5
14B
330
147
100
AcDbEntity
  8
Ｓ_１_１
 62
     2
100
AcDbBlockReference
  2
EX_NORM
 10
1770.0
 20
510.0
 30
0.0
 41
15.0
 42
15.0
 43
15.0
  0
INSERT
  5
14C
330
147
100
AcDbEntity
  8
Ｓ_１_１
 62
     2
100
AcDbBlockReference
  2
EX_NORM
 10
1700.0
 20
510.0
 30
0.0
 41
15.0
 42
15.0
 43
15.0
 50
180.0
  0
MTEXT
  5
14D
330
147
100
AcDbEntity
  8
Ｓ_１_１
 62
     2
100
AcDbMText
 10
1735.0
 20
523.75
 30
0.0
 40
17.3145207852194
 41
0.0
 71
     5
 72
     1
  1
70
  7
EXCADDIM1
  0
POINT
  5
14E
330
147
100
AcDbEntity
  8
DEFPOINTS
 62
     0
100
AcDbPoint
 10
1770.0
 20
367.99997699998
 30
0.0
  0
POINT
  5
14F
330
147
100
AcDbEntity
  8
DEFPOINTS
 62
     0
100
AcDbPoint
 10
1700.0
 20
464.782563
 30
0.0
  0
POINT
  5
150
330
147
100
AcDbEntity
  8
DEFPOINTS
 62
     0
100
AcDbPoint
 10
1700.0
 20
510.0
 30
0.0
  0
ENDBLK
  5
149
330
147
100
AcDbEntity
  8
0
100
AcDbBlockEnd
  0
BLOCK
  5
154
330
153
100
AcDbEntity
  8
0
100
AcDbBlockBegin
  2
*D17
 70
     1
 10
0.0
 20
0.0
 30
0.0
  3
*D17
  1

  0
LINE
  5
156
330
153
100
AcDbEntity
  8
Ｓ_１_１
  6
CONTINUOUS
 62
     2
100
AcDbLine
 10
594.999935
 20
540.0
 30
0.0
 11
1755.0
 21
540.0
 31
0.0
  0
INSERT
  5
157
330
153
100
AcDbEntity
  8
Ｓ_１_１
 62
     2
100
AcDbBlockReference
  2
EX_NORM
 10
579.999935
 20
540.0
 30
0.0
 41
15.0
 42
15.0
 43
15.0
 50
180.0
  0
INSERT
  5
158
330
153
100
AcDbEntity
  8
Ｓ_１_１
 62
     2
100
AcDbBlockReference
  2
EX_NORM
 10
1770.0
 20
540.0
 30
0.0
 41
15.0
 42
15.0
 43
15.0
  0
MTEXT
  5
159
330
153
100
AcDbEntity
  8
Ｓ_１_１
 62
     2
100
AcDbMText
 10
1174.9999675
 20
553.75
 30
0.0
 40
17.3145207852194
 41
0.0
 71
     5
 72
     1
  1
1190
  7
EXCADDIM1
  0
POINT
  5
15A
330
153
100
AcDbEntity
  8
DEFPOINTS
 62
     0
100
AcDbPoint
 10
579.999935
 20
362.9998620000001
 30
0.0
  0
POINT
  5
15B
330
153
100
AcDbEntity
  8
DEFPOINTS
 62
     0
100
AcDbPoint
 10
1770.0
 20
367.99997699998
 30
0.0
  0
POINT
  5
15C
330
153
100
AcDbEntity
  8
DEFPOINTS
 62
     0
100
AcDbPoint
 10
1770.0
 20
540.0
 30
0.0
  0
ENDBLK
  5
155
330
153
100
AcDbEntity
  8
0
100
AcDbBlockEnd
  0
BLOCK
  5
15F
330
15E
100
AcDbEntity
  8
0
100
AcDbBlockBegin
  2
*D18
 70
     1
 10
0.0
 20
0.0
 30
0.0
  3
*D18
  1

  0
LINE
  5
161
330
15E
100
AcDbEntity
  8
Ｓ_１_１
  6
CONTINUOUS
 62
     2
100
AcDbLine
 10
579.999935
 20
370.4998620000001
 30
0.0
 11
579.999935
 21
545.0
 31
0.0
  0
LINE
  5
162
330
15E
100
AcDbEntity
  8
Ｓ_１_１
  6
CONTINUOUS
 62
     2
100
AcDbLine
 10
579.999935
 20
540.0
 30
0.0
 11
554.999935
 21
540.0
 31
0.0
  0
LINE
  5
163
330
15E
100
AcDbEntity
  8
Ｓ_１_１
  6
CONTINUOUS
 62
     2
100
AcDbLine
 10
594.999935
 20
540.0
 30
0.0
 11
609.999935
 21
540.0
 31
0.0
  0
LINE
  5
164
330
15E
100
AcDbEntity
  8
Ｓ_１_１
  6
CONTINUOUS
 62
     2
100
AcDbLine
 10
539.999935
 20
540.0
 30
0.0
 11
524.999935
 21
540.0
 31
0.0
  0
INSERT
  5
165
330
15E
100
AcDbEntity
  8
Ｓ_１_１
 62
     2
100
AcDbBlockReference
  2
EX_NORM
 10
579.999935
 20
540.0
 30
0.0
 41
15.0
 42
15.0
 43
15.0
 50
180.0
  0
INSERT
  5
166
330
15E
100
AcDbEntity
  8
Ｓ_１_１
 62
     2
100
AcDbBlockReference
  2
EX_NORM
 10
554.999935
 20
540.0
 30
0.0
 41
15.0
 42
15.0
 43
15.0
  0
MTEXT
  5
167
330
15E
100
AcDbEntity
  8
Ｓ_１_１
 62
     2
100
AcDbMText
 10
567.499935
 20
553.75
 30
0.0
 40
17.3145207852194
 41
0.0
 71
     5
 72
     1
  1
25
  7
EXCADDIM1
  0
POINT
  5
168
330
15E
100
AcDbEntity
  8
DEFPOINTS
 62
     0
100
AcDbPoint
 10
579.999935
 20
362.9998620000001
 30
0.0
  0
POINT
  5
169
330
15E
100
AcDbEntity
  8
DEFPOINTS
 62
     0
100
AcDbPoint
 10
554.999935
 20
345.000041
 30
0.0
  0
POINT
  5
16A
330
15E
100
AcDbEntity
  8
DEFPOINTS
 62
     0
100
AcDbPoint
 10
554.999935
 20
540.0
 30
0.0
  0
ENDBLK
  5
160
330
15E
100
AcDbEntity
  8
0
100
AcDbBlockEnd
  0
BLOCK
  5
16D
330
16C
100
AcDbEntity
  8
0
100
AcDbBlockBegin
  2
*D19
 70
     1
 10
0.0
 20
0.0
 30
0.0
  3
*D19
  1

  0
LINE
  5
16F
330
16C
100
AcDbEntity
  8
Ｓ_１_１
  6
CONTINUOUS
 62
     2
100
AcDbLine
 10
554.999935
 20
352.500041
 30
0.0
 11
554.999935
 21
545.0
 31
0.0
  0
LINE
  5
170
330
16C
100
AcDbEntity
  8
Ｓ_１_１
  6
CONTINUOUS
 62
     2
100
AcDbLine
 10
539.999935
 20
540.0
 30
0.0
 11
434.9999350000001
 21
540.0
 31
0.0
  0
INSERT
  5
171
330
16C
100
AcDbEntity
  8
Ｓ_１_１
 62
     2
100
AcDbBlockReference
  2
EX_NORM
 10
554.999935
 20
540.0
 30
0.0
 41
15.0
 42
15.0
 43
15.0
  0
INSERT
  5
172
330
16C
100
AcDbEntity
  8
Ｓ_１_１
 62
     2
100
AcDbBlockReference
  2
EX_NORM
 10
419.9999350000001
 20
540.0
 30
0.0
 41
15.0
 42
15.0
 43
15.0
 50
180.0
  0
MTEXT
  5
173
330
16C
100
AcDbEntity
  8
Ｓ_１_１
 62
     2
100
AcDbMText
 10
487.4999350000001
 20
553.75
 30
0.0
 40
17.3145207852194
 41
0.0
 71
     5
 72
     1
  1
135
  7
EXCADDIM1
  0
POINT
  5
174
330
16C
100
AcDbEntity
  8
DEFPOINTS
 62
     0
100
AcDbPoint
 10
554.999935
 20
345.000041
 30
0.0
  0
POINT
  5
175
330
16C
100
AcDbEntity
  8
DEFPOINTS
 62
     0
100
AcDbPoint
 10
419.9999350000001
 20
358.087525
 30
0.0
  0
POINT
  5
176
330
16C
100
AcDbEntity
  8
DEFPOINTS
 62
     0
100
AcDbPoint
 10
419.9999350000001
 20
540.0
 30
0.0
  0
ENDBLK
  5
16E
330
16C
100
AcDbEntity
  8
0
100
AcDbBlockEnd
  0
BLOCK
  5
179
330
178
100
AcDbEntity
  8
0
100
AcDbBlockBegin
  2
*D20
 70
     1
 10
0.0
 20
0.0
 30
0.0
  3
*D20
  1

  0
LINE
  5
17B
330
178
100
AcDbEntity
  8
Ｓ_１_１
  6
CONTINUOUS
 62
     2
100
AcDbLine
 10
419.9999350000001
 20
365.587525
 30
0.0
 11
419.9999350000001
 21
545.0
 31
0.0
  0
LINE
  5
17C
330
178
100
AcDbEntity
  8
Ｓ_１_１
  6
CONTINUOUS
 62
     2
100
AcDbLine
 10
359.9999350000001
 20
330.0
 30
0.0
 11
359.9999350000001
 21
545.0
 31
0.0
  0
LINE
  5
17D
330
178
100
AcDbEntity
  8
Ｓ_１_１
  6
CONTINUOUS
 62
     2
100
AcDbLine
 10
404.9999350000001
 20
540.0
 30
0.0
 11
374.9999350000001
 21
540.0
 31
0.0
  0
INSERT
  5
17E
330
178
100
AcDbEntity
  8
Ｓ_１_１
 62
     2
100
AcDbBlockReference
  2
EX_NORM
 10
419.9999350000001
 20
540.0
 30
0.0
 41
15.0
 42
15.0
 43
15.0
  0
INSERT
  5
17F
330
178
100
AcDbEntity
  8
Ｓ_１_１
 62
     2
100
AcDbBlockReference
  2
EX_NORM
 10
359.9999350000001
 20
540.0
 30
0.0
 41
15.0
 42
15.0
 43
15.0
 50
180.0
  0
MTEXT
  5
180
330
178
100
AcDbEntity
  8
Ｓ_１_１
 62
     2
100
AcDbMText
 10
389.9999350000001
 20
553.75
 30
0.0
 40
17.3145207852194
 41
0.0
 71
     5
 72
     1
  1
60
  7
EXCADDIM1
  0
POINT
  5
181
330
178
100
AcDbEntity
  8
DEFPOINTS
 62
     0
100
AcDbPoint
 10
419.9999350000001
 20
358.087525
 30
0.0
  0
POINT
  5
182
330
178
100
AcDbEntity
  8
DEFPOINTS
 62
     0
100
AcDbPoint
 10
359.9999350000001
 20
322.5
 30
0.0
  0
POINT
  5
183
330
178
100
AcDbEntity
  8
DEFPOINTS
 62
     0
100
AcDbPoint
 10
359.9999350000001
 20
540.0
 30
0.0
  0
ENDBLK
  5
17A
330
178
100
AcDbEntity
  8
0
100
AcDbBlockEnd
  0
BLOCK
  5
22A
330
229
100
AcDbEntity
  8
0
100
AcDbBlockBegin
  2
*D21
 70
     1
 10
0.0
 20
0.0
 30
0.0
  3
*D21
  1

  0
LINE
  5
22C
330
229
100
AcDbEntity
  8
Ｓ_１_１
  6
CONTINUOUS
 62
     2
100
AcDbLine
 10
1770.0
 20
375.49997699998
 30
0.0
 11
1770.0
 21
575.0
 31
0.0
  0
LINE
  5
22D
330
229
100
AcDbEntity
  8
Ｓ_１_１
  6
CONTINUOUS
 62
     2
100
AcDbLine
 10
359.999935
 20
332.499753
 30
0.0
 11
359.999935
 21
575.0
 31
0.0
  0
LINE
  5
22E
330
229
100
AcDbEntity
  8
Ｓ_１_１
  6
CONTINUOUS
 62
     2
100
AcDbLine
 10
1755.0
 20
570.0
 30
0.0
 11
374.999935
 21
570.0
 31
0.0
  0
INSERT
  5
22F
330
229
100
AcDbEntity
  8
Ｓ_１_１
 62
     2
100
AcDbBlockReference
  2
EX_NORM
 10
1770.0
 20
570.0
 30
0.0
 41
15.0
 42
15.0
 43
15.0
  0
INSERT
  5
230
330
229
100
AcDbEntity
  8
Ｓ_１_１
 62
     2
100
AcDbBlockReference
  2
EX_NORM
 10
359.999935
 20
570.0
 30
0.0
 41
15.0
 42
15.0
 43
15.0
 50
180.0
  0
MTEXT
  5
231
330
229
100
AcDbEntity
  8
Ｓ_１_１
 62
     2
100
AcDbMText
 10
1064.9999675
 20
583.75
 30
0.0
 40
17.3145207852194
 41
0.0
 71
     5
 72
     1
  1
1410
  7
EXCADDIM1
  0
POINT
  5
232
330
229
100
AcDbEntity
  8
DEFPOINTS
 62
     0
100
AcDbPoint
 10
1770.0
 20
367.99997699998
 30
0.0
  0
POINT
  5
233
330
229
100
AcDbEntity
  8
DEFPOINTS
 62
     0
100
AcDbPoint
 10
359.999935
 20
324.999753
 30
0.0
  0
POINT
  5
234
330
229
100
AcDbEntity
  8
DEFPOINTS
 62
     0
100
AcDbPoint
 10
359.999935
 20
570.0
 30
0.0
  0
ENDBLK
  5
22B
330
229
100
AcDbEntity
  8
0
100
AcDbBlockEnd
  0
BLOCK
  5
237
330
236
100
AcDbEntity
  8
0
100
AcDbBlockBegin
  2
*D22
 70
     1
 10
0.0
 20
0.0
 30
0.0
  3
*D22
  1

  0
LINE
  5
239
330
236
100
AcDbEntity
  8
Ｓ_１_１
  6
CONTINUOUS
 62
     2
100
AcDbLine
 10
419.999935
 20
236.837525
 30
0.0
 11
419.999935
 21
145.0
 31
0.0
  0
LINE
  5
23A
330
236
100
AcDbEntity
  8
Ｓ_１_１
  6
CONTINUOUS
 62
     2
100
AcDbLine
 10
494.999935
 20
249.198731
 30
0.0
 11
494.999935
 21
145.0
 31
0.0
  0
LINE
  5
23B
330
236
100
AcDbEntity
  8
Ｓ_１_１
  6
CONTINUOUS
 62
     2
100
AcDbLine
 10
434.999935
 20
150.0
 30
0.0
 11
479.999935
 21
150.0
 31
0.0
  0
INSERT
  5
23C
330
236
100
AcDbEntity
  8
Ｓ_１_１
 62
     2
100
AcDbBlockReference
  2
EX_NORM
 10
419.999935
 20
150.0
 30
0.0
 41
15.0
 42
15.0
 43
15.0
 50
180.0
  0
INSERT
  5
23D
330
236
100
AcDbEntity
  8
Ｓ_１_１
 62
     2
100
AcDbBlockReference
  2
EX_NORM
 10
494.999935
 20
150.0
 30
0.0
 41
15.0
 42
15.0
 43
15.0
  0
MTEXT
  5
23E
330
236
100
AcDbEntity
  8
Ｓ_１_１
 62
     2
100
AcDbMText
 10
457.499935
 20
163.75
 30
0.0
 40
17.3145207852194
 41
0.0
 71
     5
 72
     1
  1
75
  7
EXCADDIM1
  0
POINT
  5
23F
330
236
100
AcDbEntity
  8
DEFPOINTS
 62
     0
100
AcDbPoint
 10
419.999935
 20
244.337525
 30
0.0
  0
POINT
  5
240
330
236
100
AcDbEntity
  8
DEFPOINTS
 62
     0
100
AcDbPoint
 10
494.999935
 20
256.698731
 30
0.0
  0
POINT
  5
241
330
236
100
AcDbEntity
  8
DEFPOINTS
 62
     0
100
AcDbPoint
 10
494.999935
 20
150.0
 30
0.0
  0
ENDBLK
  5
238
330
236
100
AcDbEntity
  8
0
100
AcDbBlockEnd
  0
BLOCK
  5
244
330
243
100
AcDbEntity
  8
0
100
AcDbBlockBegin
  2
*D23
 70
     1
 10
0.0
 20
0.0
 30
0.0
  3
*D23
  1

  0
LINE
  5
246
330
243
100
AcDbEntity
  8
Ｓ_１_１
  6
CONTINUOUS
 62
     2
100
AcDbLine
 10
419.999935
 20
229.337525
 30
0.0
 11
419.999935
 21
115.0
 31
0.0
  0
LINE
  5
247
330
243
100
AcDbEntity
  8
Ｓ_１_１
  6
CONTINUOUS
 62
     2
100
AcDbLine
 10
784.999996
 20
254.028778
 30
0.0
 11
784.999996
 21
115.0
 31
0.0
  0
LINE
  5
248
330
243
100
AcDbEntity
  8
Ｓ_１_１
  6
CONTINUOUS
 62
     2
100
AcDbLine
 10
434.999935
 20
120.0
 30
0.0
 11
769.999996
 21
120.0
 31
0.0
  0
INSERT
  5
249
330
243
100
AcDbEntity
  8
Ｓ_１_１
 62
     2
100
AcDbBlockReference
  2
EX_NORM
 10
419.999935
 20
120.0
 30
0.0
 41
15.0
 42
15.0
 43
15.0
 50
180.0
  0
INSERT
  5
24A
330
243
100
AcDbEntity
  8
Ｓ_１_１
 62
     2
100
AcDbBlockReference
  2
EX_NORM
 10
784.999996
 20
120.0
 30
0.0
 41
15.0
 42
15.0
 43
15.0
  0
MTEXT
  5
24B
330
243
100
AcDbEntity
  8
Ｓ_１_１
 62
     2
100
AcDbMText
 10
602.4999655
 20
133.75
 30
0.0
 40
17.3145207852194
 41
0.0
 71
     5
 72
     1
  1
365
  7
EXCADDIM1
  0
POINT
  5
24C
330
243
100
AcDbEntity
  8
DEFPOINTS
 62
     0
100
AcDbPoint
 10
419.999935
 20
236.837525
 30
0.0
  0
POINT
  5
24D
330
243
100
AcDbEntity
  8
DEFPOINTS
 62
     0
100
AcDbPoint
 10
784.999996
 20
261.528778
 30
0.0
  0
POINT
  5
24E
330
243
100
AcDbEntity
  8
DEFPOINTS
 62
     0
100
AcDbPoint
 10
784.999996
 20
120.0
 30
0.0
  0
ENDBLK
  5
245
330
243
100
AcDbEntity
  8
0
100
AcDbBlockEnd
  0
BLOCK
  5
251
330
250
100
AcDbEntity
  8
0
100
AcDbBlockBegin
  2
*D24
 70
     1
 10
0.0
 20
0.0
 30
0.0
  3
*D24
  1

  0
LINE
  5
253
330
250
100
AcDbEntity
  8
Ｓ_１_１
  6
CONTINUOUS
 62
     2
100
AcDbLine
 10
720.0
 20
350.0
 30
0.0
 11
720.0
 21
249.99997
 31
0.0
  0
INSERT
  5
254
330
250
100
AcDbEntity
  8
Ｓ_１_１
 62
     2
100
AcDbBlockReference
  2
EX_NORM
 10
720.0
 20
365.0
 30
0.0
 41
15.0
 42
15.0
 43
15.0
 50
90.0
  0
INSERT
  5
255
330
250
100
AcDbEntity
  8
Ｓ_１_１
 62
     2
100
AcDbBlockReference
  2
EX_NORM
 10
720.0
 20
234.99997
 30
0.0
 41
15.0
 42
15.0
 43
15.0
 50
270.0
  0
MTEXT
  5
256
330
250
100
AcDbEntity
  8
Ｓ_１_１
 62
     2
100
AcDbMText
 10
706.25
 20
299.9999849999999
 30
0.0
 40
17.3145207852194
 41
0.0
 71
     5
 72
     1
  1
     %%c130
  7
EXCADDIM1
 11
0.0
 21
1.0
 31
0.0
  0
POINT
  5
257
330
250
100
AcDbEntity
  8
DEFPOINTS
 62
     0
100
AcDbPoint
 10
662.9523194999999
 20
365.0
 30
0.0
  0
POINT
  5
258
330
250
100
AcDbEntity
  8
DEFPOINTS
 62
     0
100
AcDbPoint
 10
652.9999999999999
 20
234.99997
 30
0.0
  0
POINT
  5
259
330
250
100
AcDbEntity
  8
DEFPOINTS
 62
     0
100
AcDbPoint
 10
720.0
 20
234.99997
 30
0.0
  0
ENDBLK
  5
252
330
250
100
AcDbEntity
  8
0
100
AcDbBlockEnd
  0
BLOCK
  5
25C
330
25B
100
AcDbEntity
  8
0
100
AcDbBlockBegin
  2
*D25
 70
     1
 10
0.0
 20
0.0
 30
0.0
  3
*D25
  1

  0
LINE
  5
25E
330
25B
100
AcDbEntity
  8
Ｓ_１_１
  6
CONTINUOUS
 62
     2
100
AcDbLine
 10
1680.500003
 20
455.362274
 30
0.0
 11
1615.0
 21
455.362274
 31
0.0
  0
LINE
  5
25F
330
25B
100
AcDbEntity
  8
Ｓ_１_１
  6
CONTINUOUS
 62
     2
100
AcDbLine
 10
1620.0
 20
440.362274
 30
0.0
 11
1620.0
 21
385.000031
 31
0.0
  0
INSERT
  5
260
330
25B
100
AcDbEntity
  8
Ｓ_１_１
 62
     2
100
AcDbBlockReference
  2
EX_NORM
 10
1620.0
 20
455.362274
 30
0.0
 41
15.0
 42
15.0
 43
15.0
 50
90.0
  0
INSERT
  5
261
330
25B
100
AcDbEntity
  8
Ｓ_１_１
 62
     2
100
AcDbBlockReference
  2
EX_NORM
 10
1620.0
 20
370.000031
 30
0.0
 41
15.0
 42
15.0
 43
15.0
 50
270.0
  0
MTEXT
  5
262
330
25B
100
AcDbEntity
  8
Ｓ_１_１
 62
     2
100
AcDbMText
 10
1606.25
 20
412.6811525
 30
0.0
 40
17.3145207852194
 41
0.0
 71
     5
 72
     1
  1
(85)
  7
EXCADDIM1
 11
0.0
 21
1.0
 31
0.0
  0
POINT
  5
263
330
25B
100
AcDbEntity
  8
DEFPOINTS
 62
     0
100
AcDbPoint
 10
1688.000003
 20
455.362274
 30
0.0
  0
POINT
  5
264
330
25B
100
AcDbEntity
  8
DEFPOINTS
 62
     0
100
AcDbPoint
 10
1692.047649
 20
370.000031
 30
0.0
  0
POINT
  5
265
330
25B
100
AcDbEntity
  8
DEFPOINTS
 62
     0
100
AcDbPoint
 10
1620.0
 20
370.000031
 30
0.0
  0
ENDBLK
  5
25D
330
25B
100
AcDbEntity
  8
0
100
AcDbBlockEnd
  0
BLOCK
  5
268
330
267
100
AcDbEntity
  8
0
100
AcDbBlockBegin
  2
*D26
 70
     1
 10
0.0
 20
0.0
 30
0.0
  3
*D26
  1

  0
LINE
  5
26A
330
267
100
AcDbEntity
  8
Ｓ_１_１
  6
CONTINUOUS
 62
     2
100
AcDbLine
 10
1775.499992
 20
229.99997
 30
0.0
 11
1865.0
 21
229.99997
 31
0.0
  0
LINE
  5
26B
330
267
100
AcDbEntity
  8
Ｓ_１_１
  6
CONTINUOUS
 62
     2
100
AcDbLine
 10
1775.499992
 20
370.000031
 30
0.0
 11
1865.0
 21
370.000031
 31
0.0
  0
LINE
  5
26C
330
267
100
AcDbEntity
  8
Ｓ_１_１
  6
CONTINUOUS
 62
     2
100
AcDbLine
 10
1860.0
 20
244.99997
 30
0.0
 11
1860.0
 21
355.000031
 31
0.0
  0
INSERT
  5
26D
330
267
100
AcDbEntity
  8
Ｓ_１_１
 62
     2
100
AcDbBlockReference
  2
EX_NORM
 10
1860.0
 20
229.99997
 30
0.0
 41
15.0
 42
15.0
 43
15.0
 50
270.0
  0
INSERT
  5
26E
330
267
100
AcDbEntity
  8
Ｓ_１_１
 62
     2
100
AcDbBlockReference
  2
EX_NORM
 10
1860.0
 20
370.000031
 30
0.0
 41
15.0
 42
15.0
 43
15.0
 50
90.0
  0
MTEXT
  5
26F
330
267
100
AcDbEntity
  8
Ｓ_１_１
 62
     2
100
AcDbMText
 10
1846.25
 20
300.0000004999999
 30
0.0
 40
17.3145207852194
 41
0.0
 71
     5
 72
     1
  1
%%c140
  7
EXCADDIM1
 11
0.0
 21
1.0
 31
0.0
  0
POINT
  5
270
330
267
100
AcDbEntity
  8
DEFPOINTS
 62
     0
100
AcDbPoint
 10
1767.999992
 20
229.99997
 30
0.0
  0
POINT
  5
271
330
267
100
AcDbEntity
  8
DEFPOINTS
 62
     0
100
AcDbPoint
 10
1767.999992
 20
370.000031
 30
0.0
  0
POINT
  5
272
330
267
100
AcDbEntity
  8
DEFPOINTS
 62
     0
100
AcDbPoint
 10
1860.0
 20
370.000031
 30
0.0
  0
ENDBLK
  5
269
330
267
100
AcDbEntity
  8
0
100
AcDbBlockEnd
  0
BLOCK
  5
275
330
274
100
AcDbEntity
  8
0
100
AcDbBlockBegin
  2
*D27
 70
     1
 10
0.0
 20
0.0
 30
0.0
  3
*D27
  1

  0
LINE
  5
277
330
274
100
AcDbEntity
  8
Ｓ_１_１
  6
CONTINUOUS
 62
     2
100
AcDbLine
 10
377.499935
 20
250.0
 30
0.0
 11
295.0
 21
250.0
 31
0.0
  0
LINE
  5
278
330
274
100
AcDbEntity
  8
Ｓ_１_１
  6
CONTINUOUS
 62
     2
100
AcDbLine
 10
377.499935
 20
350.0
 30
0.0
 11
295.0
 21
350.0
 31
0.0
  0
LINE
  5
279
330
274
100
AcDbEntity
  8
Ｓ_１_１
  6
CONTINUOUS
 62
     2
100
AcDbLine
 10
300.0
 20
265.0
 30
0.0
 11
300.0
 21
335.0
 31
0.0
  0
INSERT
  5
27A
330
274
100
AcDbEntity
  8
Ｓ_１_１
 62
     2
100
AcDbBlockReference
  2
EX_NORM
 10
300.0
 20
250.0
 30
0.0
 41
15.0
 42
15.0
 43
15.0
 50
270.0
  0
INSERT
  5
27B
330
274
100
AcDbEntity
  8
Ｓ_１_１
 62
     2
100
AcDbBlockReference
  2
EX_NORM
 10
300.0
 20
350.0
 30
0.0
 41
15.0
 42
15.0
 43
15.0
 50
90.0
  0
MTEXT
  5
27C
330
274
100
AcDbEntity
  8
Ｓ_１_１
 62
     2
100
AcDbMText
 10
286.25
 20
300.0
 30
0.0
 40
17.3145207852194
 41
0.0
 71
     5
 72
     1
  1
100
  7
EXCADDIM1
 11
0.0
 21
1.0
 31
0.0
  0
POINT
  5
27D
330
274
100
AcDbEntity
  8
DEFPOINTS
 62
     0
100
AcDbPoint
 10
384.999935
 20
250.0
 30
0.0
  0
POINT
  5
27E
330
274
100
AcDbEntity
  8
DEFPOINTS
 62
     0
100
AcDbPoint
 10
384.999935
 20
350.0
 30
0.0
  0
POINT
  5
27F
330
274
100
AcDbEntity
  8
DEFPOINTS
 62
     0
100
AcDbPoint
 10
300.0
 20
350.0
 30
0.0
  0
ENDBLK
  5
276
330
274
100
AcDbEntity
  8
0
100
AcDbBlockEnd
  0
BLOCK
  5
282
330
281
100
AcDbEntity
  8
0
100
AcDbBlockBegin
  2
*D28
 70
     1
 10
0.0
 20
0.0
 30
0.0
  3
*D28
  1

  0
LINE
  5
284
330
281
100
AcDbEntity
  8
Ｓ_１_１
  6
CONTINUOUS
 62
     2
100
AcDbLine
 10
455.0
 20
1070.8012701892
 30
0.0
 11
455.0
 21
1175.0
 31
0.0
  0
LINE
  5
285
330
281
100
AcDbEntity
  8
Ｓ_１_１
  6
CONTINUOUS
 62
     2
100
AcDbLine
 10
505.0
 20
1070.8012701892
 30
0.0
 11
505.0
 21
1175.0
 31
0.0
  0
LINE
  5
286
330
281
100
AcDbEntity
  8
Ｓ_１_１
  6
CONTINUOUS
 62
     2
100
AcDbLine
 10
470.0
 20
1170.0
 30
0.0
 11
490.0
 21
1170.0
 31
0.0
  0
INSERT
  5
287
330
281
100
AcDbEntity
  8
Ｓ_１_１
 62
     2
100
AcDbBlockReference
  2
EX_NORM
 10
455.0
 20
1170.0
 30
0.0
 41
15.0
 42
15.0
 43
15.0
 50
180.0
  0
INSERT
  5
288
330
281
100
AcDbEntity
  8
Ｓ_１_１
 62
     2
100
AcDbBlockReference
  2
EX_NORM
 10
505.0
 20
1170.0
 30
0.0
 41
15.0
 42
15.0
 43
15.0
  0
MTEXT
  5
289
330
281
100
AcDbEntity
  8
Ｓ_１_１
 62
     2
100
AcDbMText
 10
480.0000000000001
 20
1183.75
 30
0.0
 40
17.3145207852194
 41
0.0
 71
     5
 72
     1
  1
50
  7
EXCADDIM1
  0
POINT
  5
28A
330
281
100
AcDbEntity
  8
DEFPOINTS
 62
     0
100
AcDbPoint
 10
455.0
 20
1063.3012701892
 30
0.0
  0
POINT
  5
28B
330
281
100
AcDbEntity
  8
DEFPOINTS
 62
     0
100
AcDbPoint
 10
505.0
 20
1063.3012701892
 30
0.0
  0
POINT
  5
28C
330
281
100
AcDbEntity
  8
DEFPOINTS
 62
     0
100
AcDbPoint
 10
505.0
 20
1170.0
 30
0.0
  0
ENDBLK
  5
283
330
281
100
AcDbEntity
  8
0
100
AcDbBlockEnd
  0
BLOCK
  5
28F
330
28E
100
AcDbEntity
  8
0
100
AcDbBlockBegin
  2
*D29
 70
     1
 10
0.0
 20
0.0
 30
0.0
  3
*D29
  1

  0
LINE
  5
291
330
28E
100
AcDbEntity
  8
Ｓ_１_１
  6
CONTINUOUS
 62
     2
100
AcDbLine
 10
560.0
 20
1078.175764801
 30
0.0
 11
560.0
 21
1205.0
 31
0.0
  0
LINE
  5
292
330
28E
100
AcDbEntity
  8
Ｓ_１_１
  6
CONTINUOUS
 62
     2
100
AcDbLine
 10
415.0
 20
1200.0
 30
0.0
 11
545.0
 21
1200.0
 31
0.0
  0
INSERT
  5
293
330
28E
100
AcDbEntity
  8
Ｓ_１_１
 62
     2
100
AcDbBlockReference
  2
EX_NORM
 10
400.0
 20
1200.0
 30
0.0
 41
15.0
 42
15.0
 43
15.0
 50
180.0
  0
INSERT
  5
294
330
28E
100
AcDbEntity
  8
Ｓ_１_１
 62
     2
100
AcDbBlockReference
  2
EX_NORM
 10
560.0
 20
1200.0
 30
0.0
 41
15.0
 42
15.0
 43
15.0
  0
MTEXT
  5
295
330
28E
100
AcDbEntity
  8
Ｓ_１_１
 62
     2
100
AcDbMText
 10
480.0000000000001
 20
1213.75
 30
0.0
 40
17.3145207852194
 41
0.0
 71
     5
 72
     1
  1
160
  7
EXCADDIM1
  0
POINT
  5
296
330
28E
100
AcDbEntity
  8
DEFPOINTS
 62
     0
100
AcDbPoint
 10
400.0
 20
1070.6757137937
 30
0.0
  0
POINT
  5
297
330
28E
100
AcDbEntity
  8
DEFPOINTS
 62
     0
100
AcDbPoint
 10
560.0
 20
1070.675764801
 30
0.0
  0
POINT
  5
298
330
28E
100
AcDbEntity
  8
DEFPOINTS
 62
     0
100
AcDbPoint
 10
560.0
 20
1200.0
 30
0.0
  0
ENDBLK
  5
290
330
28E
100
AcDbEntity
  8
0
100
AcDbBlockEnd
  0
BLOCK
  5
29B
330
29A
100
AcDbEntity
  8
0
100
AcDbBlockBegin
  2
*D30
 70
     1
 10
0.0
 20
0.0
 30
0.0
  3
*D30
  1

  0
LINE
  5
29D
330
29A
100
AcDbEntity
  8
Ｓ_１_１
  6
CONTINUOUS
 62
     2
100
AcDbLine
 10
398.000122
 20
1170.0
 30
0.0
 11
400.0
 21
1170.0
 31
0.0
  0
LINE
  5
29E
330
29A
100
AcDbEntity
  8
Ｓ_１_１
  6
CONTINUOUS
 62
     2
100
AcDbLine
 10
393.000122
 20
1170.0
 30
0.0
 11
388.000122
 21
1170.0
 31
0.0
  0
LINE
  5
29F
330
29A
100
AcDbEntity
  8
Ｓ_１_１
  6
CONTINUOUS
 62
     2
100
AcDbLine
 10
405.0
 20
1170.0
 30
0.0
 11
410.0
 21
1170.0
 31
0.0
  0
INSERT
  5
2A0
330
29A
100
AcDbEntity
  8
Ｓ_１_１
 62
     2
100
AcDbBlockReference
  2
EX_BCIR
 10
398.000122
 20
1170.0
 30
0.0
 41
5.0
 42
5.0
 43
5.0
  0
INSERT
  5
2A1
330
29A
100
AcDbEntity
  8
Ｓ_１_１
 62
     2
100
AcDbBlockReference
  2
EX_NORM
 10
400.0
 20
1170.0
 30
0.0
 41
5.0
 42
5.0
 43
5.0
 50
180.0
  0
MTEXT
  5
2A2
330
29A
100
AcDbEntity
  8
Ｓ_１_１
 62
     2
100
AcDbMText
 10
420.6250000000001
 20
1183.75
 30
0.0
 40
17.3145207852194
 41
0.0
 71
     5
 72
     1
  1
2
  7
EXCADDIM1
  0
POINT
  5
2A3
330
29A
100
AcDbEntity
  8
DEFPOINTS
 62
     0
100
AcDbPoint
 10
398.000122
 20
1055.0
 30
0.0
  0
POINT
  5
2A4
330
29A
100
AcDbEntity
  8
DEFPOINTS
 62
     0
100
AcDbPoint
 10
400.0
 20
1070.6757137937
 30
0.0
  0
POINT
  5
2A5
330
29A
100
AcDbEntity
  8
DEFPOINTS
 62
     0
100
AcDbPoint
 10
400.0
 20
1170.0
 30
0.0
  0
ENDBLK
  5
29C
330
29A
100
AcDbEntity
  8
0
100
AcDbBlockEnd
  0
BLOCK
  5
2A8
330
2A7
100
AcDbEntity
  8
0
100
AcDbBlockBegin
  2
*D31
 70
     1
 10
0.0
 20
0.0
 30
0.0
  3
*D31
  1

  0
LINE
  5
2AA
330
2A7
100
AcDbEntity
  8
Ｓ_１_１
  6
CONTINUOUS
 62
     2
100
AcDbLine
 10
390.5001220000001
 20
1055.0
 30
0.0
 11
264.9999999999998
 21
1055.0
 31
0.0
  0
LINE
  5
2AB
330
2A7
100
AcDbEntity
  8
Ｓ_１_１
  6
CONTINUOUS
 62
     2
100
AcDbLine
 10
390.5001220000001
 20
985.0
 30
0.0
 11
264.9999999999998
 21
985.0
 31
0.0
  0
LINE
  5
2AC
330
2A7
100
AcDbEntity
  8
Ｓ_１_１
  6
CONTINUOUS
 62
     2
100
AcDbLine
 10
270.0000000000001
 20
1040.0
 30
0.0
 11
270.0000000000001
 21
1000.0
 31
0.0
  0
INSERT
  5
2AD
330
2A7
100
AcDbEntity
  8
Ｓ_１_１
 62
     2
100
AcDbBlockReference
  2
EX_NORM
 10
270.0000000000001
 20
1055.0
 30
0.0
 41
15.0
 42
15.0
 43
15.0
 50
90.0
  0
INSERT
  5
2AE
330
2A7
100
AcDbEntity
  8
Ｓ_１_１
 62
     2
100
AcDbBlockReference
  2
EX_NORM
 10
270.0000000000001
 20
985.0
 30
0.0
 41
15.0
 42
15.0
 43
15.0
 50
270.0
  0
MTEXT
  5
2AF
330
2A7
100
AcDbEntity
  8
Ｓ_１_１
 62
     2
100
AcDbMText
 10
256.2500000000002
 20
1020.0
 30
0.0
 40
17.3145207852194
 41
0.0
 71
     5
 72
     1
  1
%%c70
  7
EXCADDIM1
 11
0.0
 21
1.0
 31
0.0
  0
POINT
  5
2B0
330
2A7
100
AcDbEntity
  8
DEFPOINTS
 62
     0
100
AcDbPoint
 10
398.0001220000001
 20
1055.0
 30
0.0
  0
POINT
  5
2B1
330
2A7
100
AcDbEntity
  8
DEFPOINTS
 62
     0
100
AcDbPoint
 10
398.0001220000001
 20
985.0
 30
0.0
  0
POINT
  5
2B2
330
2A7
100
AcDbEntity
  8
DEFPOINTS
 62
     0
100
AcDbPoint
 10
270.0000000000001
 20
985.0
 30
0.0
  0
ENDBLK
  5
2A9
330
2A7
100
AcDbEntity
  8
0
100
AcDbBlockEnd
  0
BLOCK
  5
2B5
330
2B4
100
AcDbEntity
  8
0
100
AcDbBlockBegin
  2
*D32
 70
     1
 10
0.0
 20
0.0
 30
0.0
  3
*D32
  1

  0
LINE
  5
2B7
330
2B4
100
AcDbEntity
  8
Ｓ_１_１
  6
CONTINUOUS
 62
     2
100
AcDbLine
 10
392.5
 20
1070.6757137937
 30
0.0
 11
234.9999999999998
 21
1070.6757137937
 31
0.0
  0
LINE
  5
2B8
330
2B4
100
AcDbEntity
  8
Ｓ_１_１
  6
CONTINUOUS
 62
     2
100
AcDbLine
 10
392.5
 20
969.3243272638
 30
0.0
 11
234.9999999999998
 21
969.3243272638
 31
0.0
  0
LINE
  5
2B9
330
2B4
100
AcDbEntity
  8
Ｓ_１_１
  6
CONTINUOUS
 62
     2
100
AcDbLine
 10
240.0000000000001
 20
1055.6757137937
 30
0.0
 11
240.0000000000001
 21
984.3243272638
 31
0.0
  0
INSERT
  5
2BA
330
2B4
100
AcDbEntity
  8
Ｓ_１_１
 62
     2
100
AcDbBlockReference
  2
EX_NORM
 10
240.0000000000001
 20
1070.6757137937
 30
0.0
 41
15.0
 42
15.0
 43
15.0
 50
90.0
  0
INSERT
  5
2BB
330
2B4
100
AcDbEntity
  8
Ｓ_１_１
 62
     2
100
AcDbBlockReference
  2
EX_NORM
 10
240.0000000000001
 20
969.3243272638
 30
0.0
 41
15.0
 42
15.0
 43
15.0
 50
270.0
  0
MTEXT
  5
2BC
330
2B4
100
AcDbEntity
  8
Ｓ_１_１
 62
     2
100
AcDbMText
 10
226.2500000000001
 20
1020.00002052875
 30
0.0
 40
17.3145207852194
 41
0.0
 71
     5
 72
     1
  1
101
  7
EXCADDIM1
 11
0.0
 21
1.0
 31
0.0
  0
POINT
  5
2BD
330
2B4
100
AcDbEntity
  8
DEFPOINTS
 62
     0
100
AcDbPoint
 10
400.0
 20
1070.6757137937
 30
0.0
  0
POINT
  5
2BE
330
2B4
100
AcDbEntity
  8
DEFPOINTS
 62
     0
100
AcDbPoint
 10
400.0
 20
969.3243272638
 30
0.0
  0
POINT
  5
2BF
330
2B4
100
AcDbEntity
  8
DEFPOINTS
 62
     0
100
AcDbPoint
 10
240.0000000000001
 20
969.3243272638
 30
0.0
  0
ENDBLK
  5
2B6
330
2B4
100
AcDbEntity
  8
0
100
AcDbBlockEnd
  0
BLOCK
  5
320
330
31F
100
AcDbEntity
  8
0
100
AcDbBlockBegin
  2
*D33
 70
     1
 10
0.0
 20
0.0
 30
0.0
  3
*D33
  1

  0
LINE
  5
322
330
31F
100
AcDbEntity
  8
Ｓ_１_１
  6
CONTINUOUS
 62
     2
100
AcDbLine
 10
409.3933332822019
 20
289.3933982822018
 30
0.0
 11
430.6065367177983
 21
310.6066017177983
 31
0.0
  0
MTEXT
  5
323
330
31F
100
AcDbEntity
  8
Ｓ_１_１
 62
     2
100
AcDbMText
 10
325.5863437934249
 20
225.0318452760548
 30
0.0
 40
17.3145207852194
 41
0.0
 71
     5
 72
     1
  1
%%c60
  7
EXCADDIM1
 11
0.707106781186548
 21
0.707106781186547
 31
0.0
  0
LINE
  5
324
330
31F
100
AcDbEntity
  8
Ｓ_１_１
  6
CONTINUOUS
 62
     2
100
AcDbLine
 10
441.2131384355965
 20
321.2132034355965
 30
0.0
 11
398.7867315644036
 21
278.7867965644036
 31
0.0
  0
INSERT
  5
325
330
31F
100
AcDbEntity
  8
Ｓ_１_１
 62
     2
100
AcDbBlockReference
  2
EX_NORM
 10
441.2131384355965
 20
321.2132034355965
 30
0.0
 41
15.0
 42
15.0
 43
15.0
 50
44.99999999999996
  0
INSERT
  5
326
330
31F
100
AcDbEntity
  8
Ｓ_１_１
 62
     2
100
AcDbBlockReference
  2
EX_NORM
 10
398.7867315644036
 20
278.7867965644036
 30
0.0
 41
15.0
 42
15.0
 43
15.0
 50
225.0
  0
POINT
  5
327
330
31F
100
AcDbEntity
  8
DEFPOINTS
 62
     0
100
AcDbPoint
 10
398.7867315644036
 20
278.7867965644036
 30
0.0
  0
POINT
  5
328
330
31F
100
AcDbEntity
  8
DEFPOINTS
 62
     0
100
AcDbPoint
 10
441.2131384355965
 20
321.2132034355965
 30
0.0
  0
ENDBLK
  5
321
330
31F
100
AcDbEntity
  8
0
100
AcDbBlockEnd
  0
BLOCK
  5
33B
330
33A
100
AcDbEntity
  8
0
100
AcDbBlockBegin
  2
*D34
 70
     1
 10
0.0
 20
0.0
 30
0.0
  3
*D34
  1

  0
LINE
  5
33D
330
33A
100
AcDbEntity
  8
Ｓ_１_１
  6
CONTINUOUS
 62
     2
100
AcDbLine
 10
900.0
 20
816.999939
 30
0.0
 11
900.0
 21
682.999939
 31
0.0
  0
INSERT
  5
33E
330
33A
100
AcDbEntity
  8
Ｓ_１_１
 62
     2
100
AcDbBlockReference
  2
EX_NORM
 10
900.0
 20
831.999939
 30
0.0
 41
15.0
 42
15.0
 43
15.0
 50
90.0
  0
INSERT
  5
33F
330
33A
100
AcDbEntity
  8
Ｓ_１_１
 62
     2
100
AcDbBlockReference
  2
EX_NORM
 10
900.0
 20
667.999939
 30
0.0
 41
15.0
 42
15.0
 43
15.0
 50
270.0
  0
MTEXT
  5
340
330
33A
100
AcDbEntity
  8
Ｓ_１_１
 62
     2
100
AcDbMText
 10
886.25
 20
749.999939
 30
0.0
 40
17.3145207852194
 41
0.0
 71
     5
 72
     1
  1
　　　164
  7
EXCADDIM1
 11
0.0
 21
1.0
 31
0.0
  0
POINT
  5
341
330
33A
100
AcDbEntity
  8
DEFPOINTS
 62
     0
100
AcDbPoint
 10
819.999996
 20
831.999939
 30
0.0
  0
POINT
  5
342
330
33A
100
AcDbEntity
  8
DEFPOINTS
 62
     0
100
AcDbPoint
 10
819.999996
 20
667.999939
 30
0.0
  0
POINT
  5
343
330
33A
100
AcDbEntity
  8
DEFPOINTS
 62
     0
100
AcDbPoint
 10
900.0
 20
667.999939
 30
0.0
  0
ENDBLK
  5
33C
330
33A
100
AcDbEntity
  8
0
100
AcDbBlockEnd
  0
BLOCK
  5
346
330
345
100
AcDbEntity
  8
0
100
AcDbBlockBegin
  2
*D35
 70
     1
 10
0.0
 20
0.0
 30
0.0
  3
*D35
  1

  0
LINE
  5
348
330
345
100
AcDbEntity
  8
Ｓ_１_１
  6
CONTINUOUS
 62
     2
100
AcDbLine
 10
827.499996
 20
831.999939
 30
0.0
 11
905.0
 21
831.999939
 31
0.0
  0
LINE
  5
349
330
345
100
AcDbEntity
  8
Ｓ_１_１
  6
CONTINUOUS
 62
     2
100
AcDbLine
 10
900.0
 20
849.0
 30
0.0
 11
900.0
 21
846.999939
 31
0.0
  0
INSERT
  5
34A
330
345
100
AcDbEntity
  8
Ｓ_１_１
 62
     2
100
AcDbBlockReference
  2
EX_NORM
 10
900.0
 20
864.0
 30
0.0
 41
15.0
 42
15.0
 43
15.0
 50
90.0
  0
INSERT
  5
34B
330
345
100
AcDbEntity
  8
Ｓ_１_１
 62
     2
100
AcDbBlockReference
  2
EX_NORM
 10
900.0
 20
831.999939
 30
0.0
 41
15.0
 42
15.0
 43
15.0
 50
270.0
  0
MTEXT
  5
34C
330
345
100
AcDbEntity
  8
Ｓ_１_１
 62
     2
100
AcDbMText
 10
886.2500000000001
 20
890.2499999999999
 30
0.0
 40
17.3145207852194
 41
0.0
 71
     5
 72
     1
  1
32
  7
EXCADDIM1
 11
0.0
 21
1.0
 31
0.0
  0
POINT
  5
34D
330
345
100
AcDbEntity
  8
DEFPOINTS
 62
     0
100
AcDbPoint
 10
813.9999540001202
 20
864.0
 30
0.0
  0
POINT
  5
34E
330
345
100
AcDbEntity
  8
DEFPOINTS
 62
     0
100
AcDbPoint
 10
819.999996
 20
831.999939
 30
0.0
  0
POINT
  5
34F
330
345
100
AcDbEntity
  8
DEFPOINTS
 62
     0
100
AcDbPoint
 10
900.0
 20
831.999939
 30
0.0
  0
ENDBLK
  5
347
330
345
100
AcDbEntity
  8
0
100
AcDbBlockEnd
  0
BLOCK
  5
352
330
351
100
AcDbEntity
  8
0
100
AcDbBlockBegin
  2
*D36
 70
     1
 10
0.0
 20
0.0
 30
0.0
  3
*D36
  1

  0
LINE
  5
354
330
351
100
AcDbEntity
  8
Ｓ_１_１
  6
CONTINUOUS
 62
     2
100
AcDbLine
 10
827.499996
 20
667.999939
 30
0.0
 11
905.0
 21
667.999939
 31
0.0
  0
LINE
  5
355
330
351
100
AcDbEntity
  8
Ｓ_１_１
  6
CONTINUOUS
 62
     2
100
AcDbLine
 10
900.0
 20
652.999939
 30
0.0
 11
900.0
 21
650.999939
 31
0.0
  0
INSERT
  5
356
330
351
100
AcDbEntity
  8
Ｓ_１_１
 62
     2
100
AcDbBlockReference
  2
EX_NORM
 10
900.0
 20
667.999939
 30
0.0
 41
15.0
 42
15.0
 43
15.0
 50
90.0
  0
INSERT
  5
357
330
351
100
AcDbEntity
  8
Ｓ_１_１
 62
     2
100
AcDbBlockReference
  2
EX_NORM
 10
900.0
 20
635.999939
 30
0.0
 41
15.0
 42
15.0
 43
15.0
 50
270.0
  0
MTEXT
  5
358
330
351
100
AcDbEntity
  8
Ｓ_１_１
 62
     2
100
AcDbMText
 10
886.2500000000001
 20
609.7499389999999
 30
0.0
 40
17.3145207852194
 41
0.0
 71
     5
 72
     1
  1
32
  7
EXCADDIM1
 11
0.0
 21
1.0
 31
0.0
  0
POINT
  5
359
330
351
100
AcDbEntity
  8
DEFPOINTS
 62
     0
100
AcDbPoint
 10
819.999996
 20
667.999939
 30
0.0
  0
POINT
  5
35A
330
351
100
AcDbEntity
  8
DEFPOINTS
 62
     0
100
AcDbPoint
 10
814.000142
 20
635.999939
 30
0.0
  0
POINT
  5
35B
330
351
100
AcDbEntity
  8
DEFPOINTS
 62
     0
100
AcDbPoint
 10
900.0
 20
635.999939
 30
0.0
  0
ENDBLK
  5
353
330
351
100
AcDbEntity
  8
0
100
AcDbBlockEnd
  0
BLOCK
  5
35E
330
35D
100
AcDbEntity
  8
0
100
AcDbBlockBegin
  2
*D37
 70
     1
 10
0.0
 20
0.0
 30
0.0
  3
*D37
  1

  0
LINE
  5
360
330
35D
100
AcDbEntity
  8
Ｓ_１_１
  6
CONTINUOUS
 62
     2
100
AcDbLine
 10
821.500142
 20
635.999939
 30
0.0
 11
935.0
 21
635.9999389999999
 31
0.0
  0
LINE
  5
361
330
35D
100
AcDbEntity
  8
Ｓ_１_１
  6
CONTINUOUS
 62
     2
100
AcDbLine
 10
821.4999540001202
 20
864.0
 30
0.0
 11
935.0
 21
863.9999999999999
 31
0.0
  0
LINE
  5
362
330
35D
100
AcDbEntity
  8
Ｓ_１_１
  6
CONTINUOUS
 62
     2
100
AcDbLine
 10
930.0
 20
650.9999389999999
 30
0.0
 11
930.0
 21
848.9999999999999
 31
0.0
  0
INSERT
  5
363
330
35D
100
AcDbEntity
  8
Ｓ_１_１
 62
     2
100
AcDbBlockReference
  2
EX_NORM
 10
930.0
 20
635.9999389999999
 30
0.0
 41
15.0
 42
15.0
 43
15.0
 50
270.0
  0
INSERT
  5
364
330
35D
100
AcDbEntity
  8
Ｓ_１_１
 62
     2
100
AcDbBlockReference
  2
EX_NORM
 10
930.0
 20
863.9999999999999
 30
0.0
 41
15.0
 42
15.0
 43
15.0
 50
90.0
  0
MTEXT
  5
365
330
35D
100
AcDbEntity
  8
Ｓ_１_１
 62
     2
100
AcDbMText
 10
916.25
 20
749.9999695
 30
0.0
 40
17.3145207852194
 41
0.0
 71
     5
 72
     1
  1
　　　228
  7
EXCADDIM1
 11
0.0
 21
1.0
 31
0.0
  0
POINT
  5
366
330
35D
100
AcDbEntity
  8
DEFPOINTS
 62
     0
100
AcDbPoint
 10
814.000142
 20
635.999939
 30
0.0
  0
POINT
  5
367
330
35D
100
AcDbEntity
  8
DEFPOINTS
 62
     0
100
AcDbPoint
 10
813.9999540001202
 20
864.0
 30
0.0
  0
POINT
  5
368
330
35D
100
AcDbEntity
  8
DEFPOINTS
 62
     0
100
AcDbPoint
 10
930.0
 20
863.9999999999999
 30
0.0
  0
ENDBLK
  5
35F
330
35D
100
AcDbEntity
  8
0
100
AcDbBlockEnd
  0
BLOCK
  5
378
330
377
100
AcDbEntity
  8
0
100
AcDbBlockBegin
  2
*D38
 70
     1
 10
0.0
 20
0.0
 30
0.0
  3
*D38
  1

  0
LINE
  5
37A
330
377
100
AcDbEntity
  8
Ｓ_１_１
  6
CONTINUOUS
 62
     2
100
AcDbLine
 10
398.000122
 20
1062.5
 30
0.0
 11
398.000122
 21
1175.0
 31
0.0
  0
LINE
  5
37B
330
377
100
AcDbEntity
  8
Ｓ_１_１
  6
CONTINUOUS
 62
     2
100
AcDbLine
 10
393.000122
 20
1170.0
 30
0.0
 11
371.0
 21
1170.0
 31
0.0
  0
INSERT
  5
37C
330
377
100
AcDbEntity
  8
Ｓ_１_１
 62
     2
100
AcDbBlockReference
  2
EX_BCIR
 10
398.000122
 20
1170.0
 30
0.0
 41
5.0
 42
5.0
 43
5.0
  0
INSERT
  5
37D
330
377
100
AcDbEntity
  8
Ｓ_１_１
 62
     2
100
AcDbBlockReference
  2
EX_NORM
 10
366.0
 20
1170.0
 30
0.0
 41
5.0
 42
5.0
 43
5.0
 50
180.0
  0
MTEXT
  5
37E
330
377
100
AcDbEntity
  8
Ｓ_１_１
 62
     2
100
AcDbMText
 10
339.7500000000003
 20
1183.75
 30
0.0
 40
17.3145207852194
 41
0.0
 71
     5
 72
     1
  1
32
  7
EXCADDIM1
  0
POINT
  5
37F
330
377
100
AcDbEntity
  8
DEFPOINTS
 62
     0
100
AcDbPoint
 10
398.000122
 20
1055.0
 30
0.0
  0
POINT
  5
380
330
377
100
AcDbEntity
  8
DEFPOINTS
 62
     0
100
AcDbPoint
 10
366.0
 20
1048.999934
 30
0.0
  0
POINT
  5
381
330
377
100
AcDbEntity
  8
DEFPOINTS
 62
     0
100
AcDbPoint
 10
366.0
 20
1170.0
 30
0.0
  0
ENDBLK
  5
379
330
377
100
AcDbEntity
  8
0
100
AcDbBlockEnd
  0
BLOCK
  5
384
330
383
100
AcDbEntity
  8
0
100
AcDbBlockBegin
  2
*D39
 70
     1
 10
0.0
 20
0.0
 30
0.0
  3
*D39
  1

  0
LINE
  5
386
330
383
100
AcDbEntity
  8
Ｓ_１_１
  6
CONTINUOUS
 62
     2
100
AcDbLine
 10
366.0
 20
1056.499934
 30
0.0
 11
366.0
 21
1205.0
 31
0.0
  0
LINE
  5
387
330
383
100
AcDbEntity
  8
Ｓ_１_１
  6
CONTINUOUS
 62
     2
100
AcDbLine
 10
400.0
 20
1078.1757137937
 30
0.0
 11
400.0
 21
1205.0
 31
0.0
  0
LINE
  5
388
330
383
100
AcDbEntity
  8
Ｓ_１_１
  6
CONTINUOUS
 62
     2
100
AcDbLine
 10
381.0
 20
1200.0
 30
0.0
 11
385.0
 21
1200.0
 31
0.0
  0
INSERT
  5
389
330
383
100
AcDbEntity
  8
Ｓ_１_１
 62
     2
100
AcDbBlockReference
  2
EX_NORM
 10
366.0
 20
1200.0
 30
0.0
 41
15.0
 42
15.0
 43
15.0
 50
180.0
  0
INSERT
  5
38A
330
383
100
AcDbEntity
  8
Ｓ_１_１
 62
     2
100
AcDbBlockReference
  2
EX_NORM
 10
400.0
 20
1200.0
 30
0.0
 41
15.0
 42
15.0
 43
15.0
  0
MTEXT
  5
38B
330
383
100
AcDbEntity
  8
Ｓ_１_１
 62
     2
100
AcDbMText
 10
339.75
 20
1213.75
 30
0.0
 40
17.3145207852194
 41
0.0
 71
     5
 72
     1
  1
34
  7
EXCADDIM1
  0
POINT
  5
38C
330
383
100
AcDbEntity
  8
DEFPOINTS
 62
     0
100
AcDbPoint
 10
366.0
 20
1048.999934
 30
0.0
  0
POINT
  5
38D
330
383
100
AcDbEntity
  8
DEFPOINTS
 62
     0
100
AcDbPoint
 10
400.0
 20
1070.6757137937
 30
0.0
  0
POINT
  5
38E
330
383
100
AcDbEntity
  8
DEFPOINTS
 62
     0
100
AcDbPoint
 10
400.0
 20
1200.0
 30
0.0
  0
ENDBLK
  5
385
330
383
100
AcDbEntity
  8
0
100
AcDbBlockEnd
  0
BLOCK
  5
436
330
435
100
AcDbEntity
  8
0
100
AcDbBlockBegin
  2
*D40
 70
     1
 10
0.0
 20
0.0
 30
0.0
  3
*D40
  1

  0
LINE
  5
438
330
435
100
AcDbEntity
  8
Ｓ_１_１
  6
CONTINUOUS
 62
     2
100
AcDbLine
 10
579.999935
 20
370.499862
 30
0.0
 11
579.999935
 21
515.0
 31
0.0
  0
LINE
  5
439
330
435
100
AcDbEntity
  8
Ｓ_１_１
  6
CONTINUOUS
 62
     2
100
AcDbLine
 10
654.999996
 20
472.5
 30
0.0
 11
654.999996
 21
515.0
 31
0.0
  0
LINE
  5
43A
330
435
100
AcDbEntity
  8
Ｓ_１_１
  6
CONTINUOUS
 62
     2
100
AcDbLine
 10
594.999935
 20
510.0
 30
0.0
 11
639.999996
 21
510.0
 31
0.0
  0
INSERT
  5
43B
330
435
100
AcDbEntity
  8
Ｓ_１_１
 62
     2
100
AcDbBlockReference
  2
EX_NORM
 10
579.999935
 20
510.0
 30
0.0
 41
15.0
 42
15.0
 43
15.0
 50
180.0
  0
INSERT
  5
43C
330
435
100
AcDbEntity
  8
Ｓ_１_１
 62
     2
100
AcDbBlockReference
  2
EX_NORM
 10
654.999996
 20
510.0
 30
0.0
 41
15.0
 42
15.0
 43
15.0
  0
MTEXT
  5
43D
330
435
100
AcDbEntity
  8
Ｓ_１_１
 62
     2
100
AcDbMText
 10
617.4999655
 20
523.75
 30
0.0
 40
17.3145207852194
 41
0.0
 71
     5
 72
     1
  1
75
  7
EXCADDIM1
  0
POINT
  5
43E
330
435
100
AcDbEntity
  8
DEFPOINTS
 62
     0
100
AcDbPoint
 10
579.999935
 20
362.999862
 30
0.0
  0
POINT
  5
43F
330
435
100
AcDbEntity
  8
DEFPOINTS
 62
     0
100
AcDbPoint
 10
654.999996
 20
465.0
 30
0.0
  0
POINT
  5
440
330
435
100
AcDbEntity
  8
DEFPOINTS
 62
     0
100
AcDbPoint
 10
654.999996
 20
510.0
 30
0.0
  0
ENDBLK
  5
437
330
435
100
AcDbEntity
  8
0
100
AcDbBlockEnd
  0
BLOCK
  5
443
330
442
100
AcDbEntity
  8
0
100
AcDbBlockBegin
  2
*D41
 70
     1
 10
0.0
 20
0.0
 30
0.0
  3
*D41
  1

  0
LINE
  5
445
330
442
100
AcDbEntity
  8
Ｓ_１_１
  6
CONTINUOUS
 62
     2
100
AcDbLine
 10
654.999996
 20
472.5
 30
0.0
 11
654.999996
 21
515.0
 31
0.0
  0
LINE
  5
446
330
442
100
AcDbEntity
  8
Ｓ_１_１
  6
CONTINUOUS
 62
     2
100
AcDbLine
 10
1700.0
 20
472.282563
 30
0.0
 11
1700.0
 21
515.0
 31
0.0
  0
LINE
  5
447
330
442
100
AcDbEntity
  8
Ｓ_１_１
  6
CONTINUOUS
 62
     2
100
AcDbLine
 10
669.999996
 20
510.0
 30
0.0
 11
1685.0
 21
510.0
 31
0.0
  0
INSERT
  5
448
330
442
100
AcDbEntity
  8
Ｓ_１_１
 62
     2
100
AcDbBlockReference
  2
EX_NORM
 10
654.999996
 20
510.0
 30
0.0
 41
15.0
 42
15.0
 43
15.0
 50
180.0
  0
INSERT
  5
449
330
442
100
AcDbEntity
  8
Ｓ_１_１
 62
     2
100
AcDbBlockReference
  2
EX_NORM
 10
1700.0
 20
510.0
 30
0.0
 41
15.0
 42
15.0
 43
15.0
  0
MTEXT
  5
44A
330
442
100
AcDbEntity
  8
Ｓ_１_１
 62
     2
100
AcDbMText
 10
1177.499998
 20
523.75
 30
0.0
 40
17.3145207852194
 41
0.0
 71
     5
 72
     1
  1
1045
  7
EXCADDIM1
  0
POINT
  5
44B
330
442
100
AcDbEntity
  8
DEFPOINTS
 62
     0
100
AcDbPoint
 10
654.999996
 20
465.0
 30
0.0
  0
POINT
  5
44C
330
442
100
AcDbEntity
  8
DEFPOINTS
 62
     0
100
AcDbPoint
 10
1700.0
 20
464.782563
 30
0.0
  0
POINT
  5
44D
330
442
100
AcDbEntity
  8
DEFPOINTS
 62
     0
100
AcDbPoint
 10
1700.0
 20
510.0
 30
0.0
  0
ENDBLK
  5
444
330
442
100
AcDbEntity
  8
0
100
AcDbBlockEnd
  0
BLOCK
  5
450
330
44F
100
AcDbEntity
  8
0
100
AcDbBlockBegin
  2
*D42
 70
     1
 10
0.0
 20
0.0
 30
0.0
  3
*D42
  1

  0
LINE
  5
452
330
44F
100
AcDbEntity
  8
Ｓ_１_１
  6
CONTINUOUS
 62
     2
100
AcDbLine
 10
664.0000264999899
 20
458.86222400002
 30
0.0
 11
725.0
 21
458.86222400002
 31
0.0
  0
LINE
  5
453
330
44F
100
AcDbEntity
  8
Ｓ_１_１
  6
CONTINUOUS
 62
     2
100
AcDbLine
 10
720.0
 20
380.0
 30
0.0
 11
720.0
 21
443.86222400002
 31
0.0
  0
INSERT
  5
454
330
44F
100
AcDbEntity
  8
Ｓ_１_１
 62
     2
100
AcDbBlockReference
  2
EX_NORM
 10
720.0
 20
365.0
 30
0.0
 41
15.0
 42
15.0
 43
15.0
 50
270.0
  0
INSERT
  5
455
330
44F
100
AcDbEntity
  8
Ｓ_１_１
 62
     2
100
AcDbBlockReference
  2
EX_NORM
 10
720.0
 20
458.86222400002
 30
0.0
 41
15.0
 42
15.0
 43
15.0
 50
90.0
  0
MTEXT
  5
456
330
44F
100
AcDbEntity
  8
Ｓ_１_１
 62
     2
100
AcDbMText
 10
706.25
 20
411.93111200001
 30
0.0
 40
17.3145207852194
 41
0.0
 71
     5
 72
     1
  1
(94)
  7
EXCADDIM1
 11
0.0
 21
1.0
 31
0.0
  0
POINT
  5
457
330
44F
100
AcDbEntity
  8
DEFPOINTS
 62
     0
100
AcDbPoint
 10
662.9523498125
 20
365.0
 30
0.0
  0
POINT
  5
458
330
44F
100
AcDbEntity
  8
DEFPOINTS
 62
     0
100
AcDbPoint
 10
656.5000264999899
 20
458.86222400002
 30
0.0
  0
POINT
  5
459
330
44F
100
AcDbEntity
  8
DEFPOINTS
 62
     0
100
AcDbPoint
 10
720.0
 20
458.86222400002
 30
0.0
  0
ENDBLK
  5
451
330
44F
100
AcDbEntity
  8
0
100
AcDbBlockEnd
  0
ENDSEC
  0
SECTION
  2
ENTITIES
  0
LINE
  5
D5
330
1F
100
AcDbEntity
  8
図面枠
  6
CONTINUOUS
 62
     5
100
AcDbLine
 10
50.0
 20
50.0
 30
0.0
 11
2050.0
 21
50.0
 31
0.0
  0
LINE
  5
D6
330
1F
100
AcDbEntity
  8
図面枠
  6
CONTINUOUS
 62
     5
100
AcDbLine
 10
2050.0
 20
50.0
 30
0.0
 11
2050.0
 21
1435.0
 31
0.0
  0
LINE
  5
D7
330
1F
100
AcDbEntity
  8
図面枠
  6
CONTINUOUS
 62
     5
100
AcDbLine
 10
2050.0
 20
1435.0
 30
0.0
 11
50.00000000000026
 21
1435.0
 31
0.0
  0
LINE
  5
D8
330
1F
100
AcDbEntity
  8
図面枠
  6
CONTINUOUS
 62
     5
100
AcDbLine
 10
50.00000000000026
 20
1435.0
 30
0.0
 11
50.0
 21
50.0
 31
0.0
  0
LINE
  5
D9
330
1F
100
AcDbEntity
  8
図面枠
  6
CONTINUOUS
 62
     3
100
AcDbLine
 10
75.00000000000009
 20
1410.0
 30
0.0
 11
720.0000000000001
 21
1410.0
 31
0.0
  0
LINE
  5
DA
330
1F
100
AcDbEntity
  8
図面枠
  6
CONTINUOUS
 62
     3
100
AcDbLine
 10
75.00000000000009
 20
1365.0
 30
0.0
 11
720.0000000000001
 21
1365.0
 31
0.0
  0
LINE
  5
DB
330
1F
100
AcDbEntity
  8
図面枠
  6
CONTINUOUS
 62
     3
100
AcDbLine
 10
75.00000000000009
 20
1410.0
 30
0.0
 11
75.00000000000009
 21
1365.0
 31
0.0
  0
LINE
  5
DC
330
1F
100
AcDbEntity
  8
図面枠
  6
CONTINUOUS
 62
     3
100
AcDbLine
 10
720.0000000000001
 20
1410.0
 30
0.0
 11
720.0000000000001
 21
1365.0
 31
0.0
  0
TEXT
  5
DE
330
1F
100
AcDbEntity
  8
図面枠
  6
CONTINUOUS
 62
     4
100
AcDbText
 10
90.00000000000009
 20
1376.71875
 30
0.0
 40
23.08602771362587
  1
450kN1000ストロークトラニオン油圧ジャッキ
 41
0.9992307692307693
  7
EXCADTTF1
 72
     5
 11
705.0000000000001
 21
1376.71875
 31
0.0
100
AcDbText
  0
LINE
  5
DF
330
1F
100
AcDbEntity
  8
図面枠
  6
CONTINUOUS
 62
     3
100
AcDbLine
 10
2025.0
 20
120.0
 30
0.0
 11
2025.0
 21
75.0
 31
0.0
  0
LINE
  5
E0
330
1F
100
AcDbEntity
  8
図面枠
  6
CONTINUOUS
 62
     3
100
AcDbLine
 10
1225.0
 20
1380.0
 30
0.0
 11
1625.0
 21
1380.0
 31
0.0
  0
TEXT
  5
E1
330
1F
100
AcDbEntity
  8
図面枠
  6
CONTINUOUS
 62
     4
100
AcDbText
 10
1535.0
 20
1356.9140625
 30
0.0
 40
17.3145207852194
  1
kN
 41
0.999230769230769
  7
EXCADTTF1
 72
     5
 11
1557.5
 21
1356.9140625
 31
0.0
100
AcDbText
  0
TEXT
  5
E2
330
1F
100
AcDbEntity
  8
図面枠
  6
CONTINUOUS
 62
     4
100
AcDbText
 10
1235.0
 20
1356.9140625
 30
0.0
 40
17.3145207852194
  1
能力　　　　　押
 41
0.9992307692307693
  7
EXCADTTF1
 72
     5
 11
1415.0
 21
1356.9140625
 31
0.0
100
AcDbText
  0
LINE
  5
E3
330
1F
100
AcDbEntity
  8
図面枠
  6
CONTINUOUS
 62
     2
100
AcDbLine
 10
1625.0
 20
1320.0
 30
0.0
 11
2025.0
 21
1320.0
 31
0.0
  0
TEXT
  5
E4
330
1F
100
AcDbEntity
  8
図面枠
  6
CONTINUOUS
 62
     4
100
AcDbText
 10
1935.0
 20
1296.9140625
 30
0.0
 40
17.3145207852194
  1
MPa
 41
0.9992307692307689
  7
EXCADTTF1
 72
     5
 11
1968.75
 21
1296.9140625
 31
0.0
100
AcDbText
  0
TEXT
  5
E5
330
1F
100
AcDbEntity
  8
図面枠
  6
CONTINUOUS
 62
     4
100
AcDbText
 10
1635.0
 20
1356.9140625
 30
0.0
 40
17.3145207852194
  1
受圧面積　　　押
 41
0.9992307692307693
  7
EXCADTTF1
 72
     5
 11
1815.0
 21
1356.9140625
 31
0.0
100
AcDbText
  0
TEXT
  5
E6
330
1F
100
AcDbEntity
  8
図面枠
  6
CONTINUOUS
 62
     4
100
AcDbText
 10
1635.0
 20
1326.9140625
 30
0.0
 40
17.3145207852194
  1
　　　　　　　引
 41
0.9992307692307693
  7
EXCADTTF1
 72
     5
 11
1815.0
 21
1326.9140625
 31
0.0
100
AcDbText
  0
LINE
  5
E7
330
1F
100
AcDbEntity
  8
図面枠
  6
CONTINUOUS
 62
     2
100
AcDbLine
 10
1825.0
 20
1350.0
 30
0.0
 11
2025.0
 21
1350.0
 31
0.0
  0
LINE
  5
E8
330
1F
100
AcDbEntity
  8
図面枠
  6
CONTINUOUS
 62
     3
100
AcDbLine
 10
1625.0
 20
1380.0
 30
0.0
 11
2025.0
 21
1380.0
 31
0.0
  0
TEXT
  5
E9
330
1F
100
AcDbEntity
  8
図面枠
  6
CONTINUOUS
 62
     4
100
AcDbText
 10
1635.0
 20
1296.9140625
 30
0.0
 40
17.3145207852194
  1
最高使用圧力　押
 41
0.9992307692307693
  7
EXCADTTF1
 72
     5
 11
1815.0
 21
1296.9140625
 31
0.0
100
AcDbText
  0
LINE
  5
EA
330
1F
100
AcDbEntity
  8
図面枠
  6
CONTINUOUS
 62
     3
100
AcDbLine
 10
1225.0
 20
1410.0
 30
0.0
 11
2025.0
 21
1410.0
 31
0.0
  0
TEXT
  5
EB
330
1F
100
AcDbEntity
  8
図面枠
  6
CONTINUOUS
 62
     4
100
AcDbText
 10
1568.75
 20
1386.9140625
 30
0.0
 40
17.3145207852194
  1
仕　　　様
 41
0.9992307692307691
  7
EXCADTTF1
 72
     5
 11
1681.25
 21
1386.9140625
 31
0.0
100
AcDbText
  0
TEXT
  5
EC
330
1F
100
AcDbEntity
  8
図面枠
  6
CONTINUOUS
 62
     4
100
AcDbText
 10
1481.25
 20
1356.9140625
 30
0.0
 40
17.3145207852194
  1
450
 41
0.9992307692307689
  7
EXCADTTF1
 72
     5
 11
1515.0
 21
1356.9140625
 31
0.0
100
AcDbText
  0
TEXT
  5
ED
330
1F
100
AcDbEntity
  8
図面枠
  6
CONTINUOUS
 62
     4
100
AcDbText
 10
1870.0
 20
1356.9140625
 30
0.0
 40
17.3145207852194
  1
91.6
 41
0.999230769230769
  7
EXCADTTF1
 72
     5
 11
1915.0
 21
1356.9140625
 31
0.0
100
AcDbText
  0
TEXT
  5
EE
330
1F
100
AcDbEntity
  8
図面枠
  6
CONTINUOUS
 62
     4
100
AcDbText
 10
1870.0
 20
1326.9140625
 30
0.0
 40
17.3145207852194
  1
41.3
 41
0.999230769230769
  7
EXCADTTF1
 72
     5
 11
1915.0
 21
1326.9140625
 31
0.0
100
AcDbText
  0
TEXT
  5
EF
330
1F
100
AcDbEntity
  8
図面枠
  6
CONTINUOUS
 62
     4
100
AcDbText
 10
1870.0
 20
1296.9140625
 30
0.0
 40
17.3145207852194
  1
49.1
 41
0.999230769230769
  7
EXCADTTF1
 72
     5
 11
1915.0
 21
1296.9140625
 31
0.0
100
AcDbText
  0
TEXT
  5
F0
330
1F
100
AcDbEntity
  8
図面枠
  6
CONTINUOUS
 62
     4
100
AcDbText
 10
1535.0
 20
1326.9140625
 30
0.0
 40
17.3145207852194
  1
kN
 41
0.999230769230769
  7
EXCADTTF1
 72
     5
 11
1557.5
 21
1326.9140625
 31
0.0
100
AcDbText
  0
TEXT
  5
F1
330
1F
100
AcDbEntity
  8
図面枠
  6
CONTINUOUS
 62
     4
100
AcDbText
 10
1235.0
 20
1326.9140625
 30
0.0
 40
17.3145207852194
  1
　　　　　　　引
 41
0.9992307692307693
  7
EXCADTTF1
 72
     5
 11
1415.0
 21
1326.9140625
 31
0.0
100
AcDbText
  0
TEXT
  5
F2
330
1F
100
AcDbEntity
  8
図面枠
  6
CONTINUOUS
 62
     4
100
AcDbText
 10
1535.0
 20
1206.9140625
 30
0.0
 40
17.3145207852194
  1
mm
 41
0.999230769230769
  7
EXCADTTF1
 72
     5
 11
1557.5
 21
1206.9140625
 31
0.0
100
AcDbText
  0
TEXT
  5
F3
330
1F
100
AcDbEntity
  8
図面枠
  6
CONTINUOUS
 62
     4
100
AcDbText
 10
1535.0
 20
1176.9140625
 30
0.0
 40
17.3145207852194
  1
mm
 41
0.999230769230769
  7
EXCADTTF1
 72
     5
 11
1557.5
 21
1176.9140625
 31
0.0
100
AcDbText
  0
TEXT
  5
F4
330
1F
100
AcDbEntity
  8
図面枠
  6
CONTINUOUS
 62
     4
100
AcDbText
 10
1535.0
 20
1146.9140625
 30
0.0
 40
17.3145207852194
  1
mm
 41
0.999230769230769
  7
EXCADTTF1
 72
     5
 11
1557.5
 21
1146.9140625
 31
0.0
100
AcDbText
  0
TEXT
  5
F5
330
1F
100
AcDbEntity
  8
図面枠
  6
CONTINUOUS
 62
     4
100
AcDbText
 10
1235.0
 20
1146.9140625
 30
0.0
 40
17.3145207852194
  1
ピストン径
 41
0.9992307692307691
  7
EXCADTTF1
 72
     5
 11
1347.5
 21
1146.9140625
 31
0.0
100
AcDbText
  0
LINE
  5
F6
330
1F
100
AcDbEntity
  8
図面枠
  6
CONTINUOUS
 62
     2
100
AcDbLine
 10
1225.0
 20
1230.0
 30
0.0
 11
1625.0
 21
1230.0
 31
0.0
  0
LINE
  5
F7
330
1F
100
AcDbEntity
  8
図面枠
  6
CONTINUOUS
 62
     2
100
AcDbLine
 10
1225.0
 20
1200.0
 30
0.0
 11
1625.0
 21
1200.0
 31
0.0
  0
LINE
  5
F8
330
1F
100
AcDbEntity
  8
図面枠
  6
CONTINUOUS
 62
     2
100
AcDbLine
 10
1225.0
 20
1170.0
 30
0.0
 11
1625.0
 21
1170.0
 31
0.0
  0
TEXT
  5
F9
330
1F
100
AcDbEntity
  8
図面枠
  6
CONTINUOUS
 62
     4
100
AcDbText
 10
1535.0
 20
1296.9140625
 30
0.0
 40
17.3145207852194
  1
mm
 41
0.999230769230769
  7
EXCADTTF1
 72
     5
 11
1557.5
 21
1296.9140625
 31
0.0
100
AcDbText
  0
TEXT
  5
FA
330
1F
100
AcDbEntity
  8
図面枠
  6
CONTINUOUS
 62
     4
100
AcDbText
 10
1535.0
 20
1266.9140625
 30
0.0
 40
17.3145207852194
  1
mm
 41
0.999230769230769
  7
EXCADTTF1
 72
     5
 11
1557.5
 21
1266.9140625
 31
0.0
100
AcDbText
  0
TEXT
  5
FB
330
1F
100
AcDbEntity
  8
図面枠
  6
CONTINUOUS
 62
     4
100
AcDbText
 10
1235.0
 20
1296.9140625
 30
0.0
 40
17.3145207852194
  1
ストローク
 41
0.9992307692307691
  7
EXCADTTF1
 72
     5
 11
1347.5
 21
1296.9140625
 31
0.0
100
AcDbText
  0
TEXT
  5
FC
330
1F
100
AcDbEntity
  8
図面枠
  6
CONTINUOUS
 62
     4
100
AcDbText
 10
1235.0
 20
1266.9140625
 30
0.0
 40
17.3145207852194
  1
最低機械高
 41
0.9992307692307691
  7
EXCADTTF1
 72
     5
 11
1347.5
 21
1266.9140625
 31
0.0
100
AcDbText
  0
LINE
  5
FD
330
1F
100
AcDbEntity
  8
図面枠
  6
CONTINUOUS
 62
     2
100
AcDbLine
 10
1225.0
 20
1320.0
 30
0.0
 11
1625.0
 21
1320.0
 31
0.0
  0
LINE
  5
FE
330
1F
100
AcDbEntity
  8
図面枠
  6
CONTINUOUS
 62
     2
100
AcDbLine
 10
1225.0
 20
1290.0
 30
0.0
 11
1625.0
 21
1290.0
 31
0.0
  0
LINE
  5
FF
330
1F
100
AcDbEntity
  8
図面枠
  6
CONTINUOUS
 62
     2
100
AcDbLine
 10
1225.0
 20
1260.0
 30
0.0
 11
1625.0
 21
1260.0
 31
0.0
  0
TEXT
  5
100
330
1F
100
AcDbEntity
  8
図面枠
  6
CONTINUOUS
 62
     4
100
AcDbText
 10
1535.0
 20
1236.9140625
 30
0.0
 40
17.3145207852194
  1
mm
 41
0.999230769230769
  7
EXCADTTF1
 72
     5
 11
1557.5
 21
1236.9140625
 31
0.0
100
AcDbText
  0
TEXT
  5
101
330
1F
100
AcDbEntity
  8
図面枠
  6
CONTINUOUS
 62
     4
100
AcDbText
 10
1235.0
 20
1176.9140625
 30
0.0
 40
17.3145207852194
  1
ロッド径
 41
0.999230769230769
  7
EXCADTTF1
 72
     5
 11
1325.0
 21
1176.9140625
 31
0.0
100
AcDbText
  0
LINE
  5
102
330
1F
100
AcDbEntity
  8
図面枠
  6
CONTINUOUS
 62
     3
100
AcDbLine
 10
1225.0
 20
1140.0
 30
0.0
 11
1625.0
 21
1140.0
 31
0.0
  0
TEXT
  5
103
330
1F
100
AcDbEntity
  8
図面枠
  6
CONTINUOUS
 62
     4
100
AcDbText
 10
1235.0
 20
1206.9140625
 30
0.0
 40
17.3145207852194
  1
シリンダー外径
 41
0.9992307692307693
  7
EXCADTTF1
 72
     5
 11
1392.5
 21
1206.9140625
 31
0.0
100
AcDbText
  0
TEXT
  5
104
330
1F
100
AcDbEntity
  8
図面枠
  6
CONTINUOUS
 62
     4
100
AcDbText
 10
1235.0
 20
1236.9140625
 30
0.0
 40
17.3145207852194
  1
最低芯間距離
 41
0.9992307692307691
  7
EXCADTTF1
 72
     5
 11
1370.0
 21
1236.9140625
 31
0.0
100
AcDbText
  0
TEXT
  5
105
330
1F
100
AcDbEntity
  8
図面枠
  6
CONTINUOUS
 62
     4
100
AcDbText
 10
1470.0
 20
1296.9140625
 30
0.0
 40
17.3145207852194
  1
1000
 41
0.999230769230769
  7
EXCADTTF1
 72
     5
 11
1515.0
 21
1296.9140625
 31
0.0
100
AcDbText
  0
TEXT
  5
106
330
1F
100
AcDbEntity
  8
図面枠
  6
CONTINUOUS
 62
     4
100
AcDbText
 10
1481.25
 20
1236.9140625
 30
0.0
 40
17.3145207852194
  1
365
 41
0.9992307692307689
  7
EXCADTTF1
 72
     5
 11
1515.0
 21
1236.9140625
 31
0.0
100
AcDbText
  0
TEXT
  5
107
330
1F
100
AcDbEntity
  8
図面枠
  6
CONTINUOUS
 62
     4
100
AcDbText
 10
1470.0
 20
1266.9140625
 30
0.0
 40
17.3145207852194
  1
1410
 41
0.999230769230769
  7
EXCADTTF1
 72
     5
 11
1515.0
 21
1266.9140625
 31
0.0
100
AcDbText
  0
TEXT
  5
108
330
1F
100
AcDbEntity
  8
図面枠
  6
CONTINUOUS
 62
     4
100
AcDbText
 10
1481.25
 20
1206.9140625
 30
0.0
 40
17.3145207852194
  1
140
 41
0.9992307692307689
  7
EXCADTTF1
 72
     5
 11
1515.0
 21
1206.9140625
 31
0.0
100
AcDbText
  0
TEXT
  5
109
330
1F
100
AcDbEntity
  8
図面枠
  6
CONTINUOUS
 62
     4
100
AcDbText
 10
1492.5
 20
1176.9140625
 30
0.0
 40
17.3145207852194
  1
80
 41
0.999230769230769
  7
EXCADTTF1
 72
     5
 11
1515.0
 21
1176.9140625
 31
0.0
100
AcDbText
  0
TEXT
  5
10A
330
1F
100
AcDbEntity
  8
図面枠
  6
CONTINUOUS
 62
     4
100
AcDbText
 10
1481.25
 20
1146.9140625
 30
0.0
 40
17.3145207852194
  1
108
 41
0.9992307692307689
  7
EXCADTTF1
 72
     5
 11
1515.0
 21
1146.9140625
 31
0.0
100
AcDbText
  0
TEXT
  5
10B
330
1F
100
AcDbEntity
  8
図面枠
  6
CONTINUOUS
 62
     4
100
AcDbText
 10
1935.0
 20
1266.9140625
 30
0.0
 40
17.3145207852194
  1
MPa
 41
0.9992307692307689
  7
EXCADTTF1
 72
     5
 11
1968.75
 21
1266.9140625
 31
0.0
100
AcDbText
  0
TEXT
  5
10C
330
1F
100
AcDbEntity
  8
図面枠
  6
CONTINUOUS
 62
     4
100
AcDbText
 10
1870.0
 20
1266.9140625
 30
0.0
 40
17.3145207852194
  1
49.1
 41
0.999230769230769
  7
EXCADTTF1
 72
     5
 11
1915.0
 21
1266.9140625
 31
0.0
100
AcDbText
  0
TEXT
  5
10D
330
1F
100
AcDbEntity
  8
図面枠
  6
CONTINUOUS
 62
     4
100
AcDbText
 10
1635.0
 20
1266.9140625
 30
0.0
 40
17.3145207852194
  1
　　　　　　　引
 41
0.9992307692307693
  7
EXCADTTF1
 72
     5
 11
1815.0
 21
1266.9140625
 31
0.0
100
AcDbText
  0
TEXT
  5
10E
330
1F
100
AcDbEntity
  8
図面枠
  6
CONTINUOUS
 62
     4
100
AcDbText
 10
1935.0
 20
1176.9140625
 30
0.0
 40
17.3145207852194
  1
kg
 41
0.999230769230769
  7
EXCADTTF1
 72
     5
 11
1957.5
 21
1176.9140625
 31
0.0
100
AcDbText
  0
LINE
  5
10F
330
1F
100
AcDbEntity
  8
図面枠
  6
CONTINUOUS
 62
     2
100
AcDbLine
 10
1625.0
 20
1200.0
 30
0.0
 11
2025.0
 21
1200.0
 31
0.0
  0
LINE
  5
110
330
1F
100
AcDbEntity
  8
図面枠
  6
CONTINUOUS
 62
     3
100
AcDbLine
 10
1625.0
 20
1170.0
 30
0.0
 11
2025.0
 21
1170.0
 31
0.0
  0
LINE
  5
111
330
1F
100
AcDbEntity
  8
図面枠
  6
CONTINUOUS
 62
     2
100
AcDbLine
 10
1625.0
 20
1260.0
 30
0.0
 11
2025.0
 21
1260.0
 31
0.0
  0
TEXT
  5
112
330
1F
100
AcDbEntity
  8
図面枠
  6
CONTINUOUS
 62
     4
100
AcDbText
 10
1635.0
 20
1236.9140625
 30
0.0
 40
17.3145207852194
  1
所要油量　　　押
 41
0.9992307692307693
  7
EXCADTTF1
 72
     5
 11
1815.0
 21
1236.9140625
 31
0.0
100
AcDbText
  0
TEXT
  5
113
330
1F
100
AcDbEntity
  8
図面枠
  6
CONTINUOUS
 62
     4
100
AcDbText
 10
1635.0
 20
1206.9140625
 30
0.0
 40
17.3145207852194
  1
　　　　　　　引
 41
0.9992307692307693
  7
EXCADTTF1
 72
     5
 11
1815.0
 21
1206.9140625
 31
0.0
100
AcDbText
  0
LINE
  5
114
330
1F
100
AcDbEntity
  8
図面枠
  6
CONTINUOUS
 62
     2
100
AcDbLine
 10
1825.0
 20
1230.0
 30
0.0
 11
2025.0
 21
1230.0
 31
0.0
  0
TEXT
  5
115
330
1F
100
AcDbEntity
  8
図面枠
  6
CONTINUOUS
 62
     4
100
AcDbText
 10
1635.0
 20
1176.9140625
 30
0.0
 40
17.3145207852194
  1
重量
 41
0.999230769230769
  7
EXCADTTF1
 72
     5
 11
1680.0
 21
1176.9140625
 31
0.0
100
AcDbText
  0
LINE
  5
116
330
1F
100
AcDbEntity
  8
図面枠
  6
CONTINUOUS
 62
     2
100
AcDbLine
 10
1425.0
 20
1350.0
 30
0.0
 11
1625.0
 21
1350.0
 31
0.0
  0
LINE
  5
117
330
1F
100
AcDbEntity
  8
図面枠
  6
CONTINUOUS
 62
     2
100
AcDbLine
 10
1825.0
 20
1290.0
 30
0.0
 11
2025.0
 21
1290.0
 31
0.0
  0
LINE
  5
118
330
1F
100
AcDbEntity
  8
図面枠
  6
CONTINUOUS
 62
     3
100
AcDbLine
 10
1225.0
 20
1410.0
 30
0.0
 11
1225.0
 21
1140.0
 31
0.0
  0
LINE
  5
119
330
1F
100
AcDbEntity
  8
図面枠
  6
CONTINUOUS
 62
     2
100
AcDbLine
 10
1425.0
 20
1380.0
 30
0.0
 11
1425.0
 21
1140.0
 31
0.0
  0
LINE
  5
11A
330
1F
100
AcDbEntity
  8
図面枠
  6
CONTINUOUS
 62
     2
100
AcDbLine
 10
1525.0
 20
1380.0
 30
0.0
 11
1525.0
 21
1140.0
 31
0.0
  0
LINE
  5
11B
330
1F
100
AcDbEntity
  8
図面枠
  6
CONTINUOUS
 62
     3
100
AcDbLine
 10
1625.0
 20
1380.0
 30
0.0
 11
1625.0
 21
1140.0
 31
0.0
  0
LINE
  5
11C
330
1F
100
AcDbEntity
  8
図面枠
  6
CONTINUOUS
 62
     2
100
AcDbLine
 10
1825.0
 20
1380.0
 30
0.0
 11
1825.0
 21
1170.0
 31
0.0
  0
LINE
  5
11D
330
1F
100
AcDbEntity
  8
図面枠
  6
CONTINUOUS
 62
     2
100
AcDbLine
 10
1925.0
 20
1380.0
 30
0.0
 11
1925.0
 21
1170.0
 31
0.0
  0
LINE
  5
11E
330
1F
100
AcDbEntity
  8
図面枠
  6
CONTINUOUS
 62
     3
100
AcDbLine
 10
2025.0
 20
1410.0
 30
0.0
 11
2025.0
 21
1170.0
 31
0.0
  0
TEXT
  5
11F
330
1F
100
AcDbEntity
  8
図面枠
  6
CONTINUOUS
 62
     4
100
AcDbText
 10
1935.0
 20
1356.9140625
 30
0.0
 40
17.3145207852194
  1
cm
 41
0.999230769230769
  7
EXCADTTF1
 72
     5
 11
1957.5
 21
1356.9140625
 31
0.0
100
AcDbText
  0
TEXT
  5
120
330
1F
100
AcDbEntity
  8
図面枠
  6
CONTINUOUS
 62
     4
100
AcDbText
 10
1950.75
 20
1367.54882825911
 30
0.0
 40
7.791533619463674
  1
2
 41
0.9992308633483801
  7
EXCADTTF1
 72
     5
 11
1955.8125
 21
1367.54882825911
 31
0.0
100
AcDbText
  0
TEXT
  5
121
330
1F
100
AcDbEntity
  8
図面枠
  6
CONTINUOUS
 62
     4
100
AcDbText
 10
1935.0
 20
1326.9140625
 30
0.0
 40
17.3145207852194
  1
cm
 41
0.999230769230769
  7
EXCADTTF1
 72
     5
 11
1957.5
 21
1326.9140625
 31
0.0
100
AcDbText
  0
TEXT
  5
122
330
1F
100
AcDbEntity
  8
図面枠
  6
CONTINUOUS
 62
     4
100
AcDbText
 10
1950.75
 20
1337.54882825911
 30
0.0
 40
7.791533619463674
  1
2
 41
0.9992308633483801
  7
EXCADTTF1
 72
     5
 11
1955.8125
 21
1337.54882825911
 31
0.0
100
AcDbText
  0
TEXT
  5
123
330
1F
100
AcDbEntity
  8
図面枠
  6
CONTINUOUS
 62
     4
100
AcDbText
 10
1481.25
 20
1326.9140625
 30
0.0
 40
17.3145207852194
  1
203
 41
0.9992307692307689
  7
EXCADTTF1
 72
     5
 11
1515.0
 21
1326.9140625
 31
0.0
100
AcDbText
  0
LINE
  5
124
330
1F
100
AcDbEntity
  8
図面枠
  6
CONTINUOUS
 62
     3
100
AcDbLine
 10
1815.0
 20
120.0
 30
0.0
 11
1815.0
 21
75.0
 31
0.0
  0
TEXT
  5
125
330
1F
100
AcDbEntity
  8
図面枠
  6
CONTINUOUS
 62
     4
100
AcDbText
 10
1830.0
 20
86.71875
 30
0.0
 40
23.08602771362587
  1
OTTC-45100-A
 41
0.9992307692307693
  7
EXCADTTF1
 72
     5
 11
2010.0
 21
86.71875
 31
0.0
100
AcDbText
  0
LINE
  5
126
330
1F
100
AcDbEntity
  8
図面枠
  6
CONTINUOUS
 62
     3
100
AcDbLine
 10
1815.0
 20
120.0
 30
0.0
 11
2025.0
 21
120.0
 31
0.0
  0
LINE
  5
127
330
1F
100
AcDbEntity
  8
図面枠
  6
CONTINUOUS
 62
     3
100
AcDbLine
 10
1815.0
 20
75.0
 30
0.0
 11
2025.0
 21
75.0
 31
0.0
  0
TEXT
  5
128
330
1F
100
AcDbEntity
  8
図面枠
  6
CONTINUOUS
 62
     4
100
AcDbText
 10
1935.0
 20
1236.9140625
 30
0.0
 40
17.3145207852194
  1
L
 41
0.999230769230769
  7
EXCADTTF1
 72
     5
 11
1946.25
 21
1236.9140625
 31
0.0
100
AcDbText
  0
TEXT
  5
129
330
1F
100
AcDbEntity
  8
図面枠
  6
CONTINUOUS
 62
     4
100
AcDbText
 10
1935.0
 20
1206.9140625
 30
0.0
 40
17.3145207852194
  1
L
 41
0.999230769230769
  7
EXCADTTF1
 72
     5
 11
1946.25
 21
1206.9140625
 31
0.0
100
AcDbText
  0
TEXT
  5
12A
330
1F
100
AcDbEntity
  8
図面枠
  6
CONTINUOUS
 62
     4
100
AcDbText
 10
1881.25
 20
1236.9140625
 30
0.0
 40
17.3145207852194
  1
9.2
 41
0.9992307692307689
  7
EXCADTTF1
 72
     5
 11
1915.0
 21
1236.9140625
 31
0.0
100
AcDbText
  0
TEXT
  5
12B
330
1F
100
AcDbEntity
  8
図面枠
  6
CONTINUOUS
 62
     4
100
AcDbText
 10
1881.25
 20
1206.9140625
 30
0.0
 40
17.3145207852194
  1
4.1
 41
0.9992307692307689
  7
EXCADTTF1
 72
     5
 11
1915.0
 21
1206.9140625
 31
0.0
100
AcDbText
  0
TEXT
  5
12C
330
1F
100
AcDbEntity
  8
図面枠
  6
CONTINUOUS
 62
     4
100
AcDbText
 10
1858.75
 20
1176.9140625
 30
0.0
 40
17.3145207852194
  1
約126
 41
0.9992307692307691
  7
EXCADTTF1
 72
     5
 11
1915.0
 21
1176.9140625
 31
0.0
100
AcDbText
  0
DIMENSION
  5
12E
330
1F
100
AcDbEntity
  8
Ｓ_１_１
  6
CONTINUOUS
 62
     2
100
AcDbDimension
  2
*D15
 10
300.0
 20
725.0
 30
0.0
 11
286.25
 21
750.0
 31
0.0
 70
   160
  3
ISO-25
100
AcDbAlignedDimension
 13
359.9999350000001
 23
775.0
 33
0.0
 14
359.9999350000001
 24
725.0
 34
0.0
 50
90.0
100
AcDbRotatedDimension
1001
ACAD
1000
DSTYLE
1002
{
1070
   270
1070
     2
1070
     6
1000
EX_NORM
1070
     7
1000
EX_NORM
1070
    41
1040
15.0
1070
    42
1040
7.5
1070
    44
1040
5.0
1070
    73
1070
     0
1070
    74
1070
     0
1070
    75
1070
     0
1070
    76
1070
     0
1070
    77
1070
     1
1070
    78
1070
     8
1070
   140
1040
17.3145207852194
1070
   147
1040
0.0
1070
   173
1070
     1
1070
   176
1070
     2
1070
   177
1070
     2
1070
   178
1070
     2
1070
   271
1070
     2
1070
   277
1070
     2
1070
   279
1070
     2
1070
   280
1070
     0
1070
   287
1070
     5
1070
   340
1005
12D
1002
}
  0
LINE
  5
13C
330
1F
100
AcDbEntity
  8
Ｓ_１_１
  6
CONTINUOUS
 62
     2
100
AcDbLine
 10
899.9999960000004
 20
929.9999999999992
 30
0.0
 11
729.999996
 21
930.0000000000001
 31
0.0
  0
LINE
  5
13D
330
1F
100
AcDbEntity
  8
Ｓ_１_１
  6
CONTINUOUS
 62
     2
100
AcDbLine
 10
829.9999960000004
 20
932.4999999999995
 30
0.0
 11
814.9999960000004
 21
929.9999999999997
 31
0.0
  0
LINE
  5
13E
330
1F
100
AcDbEntity
  8
Ｓ_１_１
  6
CONTINUOUS
 62
     2
100
AcDbLine
 10
814.9999960000004
 20
929.9999999999997
 30
0.0
 11
829.9999960000004
 21
927.4999999999995
 31
0.0
  0
LINE
  5
13F
330
1F
100
AcDbEntity
  8
Ｓ_１_１
  6
CONTINUOUS
 62
     2
100
AcDbLine
 10
739.999996
 20
927.5000000000001
 30
0.0
 11
754.999996
 21
930.0
 31
0.0
  0
LINE
  5
140
330
1F
100
AcDbEntity
  8
Ｓ_１_１
  6
CONTINUOUS
 62
     2
100
AcDbLine
 10
754.999996
 20
930.0
 30
0.0
 11
739.999996
 21
932.5000000000001
 31
0.0
  0
TEXT
  5
141
330
1F
100
AcDbEntity
  8
Ｓ_１_１
  6
CONTINUOUS
 62
     2
100
AcDbText
 10
829.9999960000004
 20
935.6640624999997
 30
0.0
 40
17.3145207852194
  1
φ60
 41
0.999230769230769
  7
EXCADTTF1
 72
     5
 11
874.9999960000004
 21
935.6640624999997
 31
0.0
100
AcDbText
  0
TEXT
  5
142
330
1F
100
AcDbEntity
  8
Ｓ_１_１
  6
CONTINUOUS
 62
     2
100
AcDbText
 10
874.9999960000004
 20
945.3320312499997
 30
0.0
 40
8.6572603926097
  1
-0.1
 41
0.999230769230769
  7
EXCADTTF1
 72
     5
 11
897.4999960000004
 21
945.3320312499997
 31
0.0
100
AcDbText
  0
TEXT
  5
143
330
1F
100
AcDbEntity
  8
Ｓ_１_１
  6
CONTINUOUS
 62
     2
100
AcDbText
 10
874.9999960000004
 20
934.0820312499997
 30
0.0
 40
8.6572603926097
  1
-0.2
 41
0.999230769230769
  7
EXCADTTF1
 72
     5
 11
897.4999960000004
 21
934.0820312499997
 31
0.0
100
AcDbText
  0
LINE
  5
144
330
1F
100
AcDbEntity
  8
Ｓ_１_１
  6
CONTINUOUS
 62
     2
100
AcDbLine
 10
814.999996
 20
870.499939
 30
0.0
 11
814.999996
 21
935.0
 31
0.0
  0
LINE
  5
145
330
1F
100
AcDbEntity
  8
Ｓ_１_１
  6
CONTINUOUS
 62
     2
100
AcDbLine
 10
754.999996
 20
870.499939
 30
0.0
 11
754.999996
 21
935.0
 31
0.0
  0
DIMENSION
  5
146
330
1F
100
AcDbEntity
  8
Ｓ_１_１
  6
CONTINUOUS
 62
     2
100
AcDbDimension
  2
*D16
 10
1700.0
 20
510.0
 30
0.0
 11
1735.0
 21
523.75
 31
0.0
 70
   160
  3
ISO-25
100
AcDbAlignedDimension
 13
1770.0
 23
367.99997699998
 33
0.0
 14
1700.0
 24
464.782563
 34
0.0
100
AcDbRotatedDimension
1001
ACAD
1000
DSTYLE
1002
{
1070
   270
1070
     2
1070
     6
1000
EX_NORM
1070
     7
1000
EX_NORM
1070
    41
1040
15.0
1070
    42
1040
0.0
1070
    44
1040
0.0
1070
    73
1070
     0
1070
    74
1070
     0
1070
    75
1070
     1
1070
    76
1070
     1
1070
    77
1070
     1
1070
    78
1070
     8
1070
   140
1040
17.3145207852194
1070
   147
1040
0.0
1070
   173
1070
     1
1070
   176
1070
     2
1070
   177
1070
     2
1070
   178
1070
     2
1070
   271
1070
     2
1070
   277
1070
     2
1070
   279
1070
     2
1070
   280
1070
     0
1070
   287
1070
     5
1070
   340
1005
12D
1002
}
  0
LINE
  5
151
330
1F
100
AcDbEntity
  8
Ｓ_１_１
  6
CONTINUOUS
 62
     2
100
AcDbLine
 10
1700.0
 20
472.282563
 30
0.0
 11
1700.0
 21
515.0
 31
0.0
  0
DIMENSION
  5
152
330
1F
100
AcDbEntity
  8
Ｓ_１_１
  6
CONTINUOUS
 62
     2
100
AcDbDimension
  2
*D17
 10
1770.0
 20
540.0
 30
0.0
 11
1174.9999675
 21
553.75
 31
0.0
 70
   160
  3
ISO-25
100
AcDbAlignedDimension
 13
579.999935
 23
362.9998620000001
 33
0.0
 14
1770.0
 24
367.99997699998
 34
0.0
100
AcDbRotatedDimension
1001
ACAD
1000
DSTYLE
1002
{
1070
   270
1070
     2
1070
     6
1000
EX_NORM
1070
     7
1000
EX_NORM
1070
    41
1040
15.0
1070
    42
1040
0.0
1070
    44
1040
0.0
1070
    73
1070
     0
1070
    74
1070
     0
1070
    75
1070
     1
1070
    76
1070
     1
1070
    77
1070
     1
1070
    78
1070
     8
1070
   140
1040
17.3145207852194
1070
   147
1040
0.0
1070
   173
1070
     1
1070
   176
1070
     2
1070
   177
1070
     2
1070
   178
1070
     2
1070
   271
1070
     2
1070
   277
1070
     2
1070
   279
1070
     2
1070
   280
1070
     0
1070
   287
1070
     5
1070
   340
1005
12D
1002
}
  0
DIMENSION
  5
15D
330
1F
100
AcDbEntity
  8
Ｓ_１_１
  6
CONTINUOUS
 62
     2
100
AcDbDimension
  2
*D18
 10
554.999935
 20
540.0
 30
0.0
 11
567.499935
 21
553.75
 31
0.0
 70
   160
  3
ISO-25
100
AcDbAlignedDimension
 13
579.999935
 23
362.9998620000001
 33
0.0
 14
554.999935
 24
345.000041
 34
0.0
100
AcDbRotatedDimension
1001
ACAD
1000
DSTYLE
1002
{
1070
   270
1070
     2
1070
     6
1000
EX_NORM
1070
     7
1000
EX_NORM
1070
    41
1040
15.0
1070
    42
1040
7.5
1070
    44
1040
5.0
1070
    73
1070
     0
1070
    74
1070
     0
1070
    75
1070
     0
1070
    76
1070
     1
1070
    77
1070
     1
1070
    78
1070
     8
1070
   140
1040
17.3145207852194
1070
   147
1040
0.0
1070
   173
1070
     1
1070
   176
1070
     2
1070
   177
1070
     2
1070
   178
1070
     2
1070
   271
1070
     2
1070
   277
1070
     2
1070
   279
1070
     2
1070
   280
1070
     0
1070
   287
1070
     5
1070
   340
1005
12D
1002
}
  0
DIMENSION
  5
16B
330
1F
100
AcDbEntity
  8
Ｓ_１_１
  6
CONTINUOUS
 62
     2
100
AcDbDimension
  2
*D19
 10
419.9999350000001
 20
540.0
 30
0.0
 11
487.4999350000001
 21
553.75
 31
0.0
 70
   160
  3
ISO-25
100
AcDbAlignedDimension
 13
554.999935
 23
345.000041
 33
0.0
 14
419.9999350000001
 24
358.087525
 34
0.0
100
AcDbRotatedDimension
1001
ACAD
1000
DSTYLE
1002
{
1070
   270
1070
     2
1070
     6
1000
EX_NORM
1070
     7
1000
EX_NORM
1070
    41
1040
15.0
1070
    42
1040
7.5
1070
    44
1040
5.0
1070
    73
1070
     0
1070
    74
1070
     0
1070
    75
1070
     0
1070
    76
1070
     1
1070
    77
1070
     1
1070
    78
1070
     8
1070
   140
1040
17.3145207852194
1070
   147
1040
0.0
1070
   173
1070
     1
1070
   176
1070
     2
1070
   177
1070
     2
1070
   178
1070
     2
1070
   271
1070
     2
1070
   277
1070
     2
1070
   279
1070
     2
1070
   280
1070
     0
1070
   287
1070
     5
1070
   340
1005
12D
1002
}
  0
DIMENSION
  5
177
330
1F
100
AcDbEntity
  8
Ｓ_１_１
  6
CONTINUOUS
 62
     2
100
AcDbDimension
  2
*D20
 10
359.9999350000001
 20
540.0
 30
0.0
 11
389.9999350000001
 21
553.75
 31
0.0
 70
   160
  3
ISO-25
100
AcDbAlignedDimension
 13
419.9999350000001
 23
358.087525
 33
0.0
 14
359.9999350000001
 24
322.5
 34
0.0
100
AcDbRotatedDimension
1001
ACAD
1000
DSTYLE
1002
{
1070
   270
1070
     2
1070
     6
1000
EX_NORM
1070
     7
1000
EX_NORM
1070
    41
1040
15.0
1070
    42
1040
7.5
1070
    44
1040
5.0
1070
    73
1070
     0
1070
    74
1070
     0
1070
    75
1070
     0
1070
    76
1070
     0
1070
    77
1070
     1
1070
    78
1070
     8
1070
   140
1040
17.3145207852194
1070
   147
1040
0.0
1070
   173
1070
     1
1070
   176
1070
     2
1070
   177
1070
     2
1070
   178
1070
     2
1070
   271
1070
     2
1070
   277
1070
     2
1070
   279
1070
     2
1070
   280
1070
     0
1070
   287
1070
     5
1070
   340
1005
12D
1002
}
  0
LINE
  5
184
330
1F
100
AcDbEntity
  8
Ｓ_１_１
  6
EXLTYPE2
 62
     1
100
AcDbLine
 10
1700.0
 20
464.782563
 30
0.0
 11
1700.0
 21
349.199982
 31
0.0
  0
ARC
  5
185
330
1F
100
AcDbEntity
  8
Ｓ_１_１
  6
CONTINUOUS
 62
     3
100
AcDbCircle
 10
1700.0
 20
383.4228210000001
 30
0.0
 40
21.93943800000001
100
AcDbArc
 50
76.82650699999999
 51
103.17347
  0
ARC
  5
186
330
1F
100
AcDbEntity
  8
Ｓ_１_１
  6
CONTINUOUS
 62
     3
100
AcDbCircle
 10
1700.0
 20
414.8017280000001
 30
0.0
 40
21.93943800000001
100
AcDbArc
 50
256.8265370000001
 51
283.173527
  0
ARC
  5
187
330
1F
100
AcDbEntity
  8
Ｓ_１_１
  6
CONTINUOUS
 62
     3
100
AcDbCircle
 10
1709.093277
 20
381.729523
 30
0.0
 40
5.367246000000002
100
AcDbArc
 50
235.6158480000003
 51
304.3841360000004
  0
ARC
  5
188
330
1F
100
AcDbEntity
  8
Ｓ_１_１
  6
CONTINUOUS
 62
     3
100
AcDbCircle
 10
1699.999984
 20
396.424469
 30
0.0
 40
20.062197
100
AcDbArc
 50
252.412124
 51
287.588008
  0
ARC
  5
189
330
1F
100
AcDbEntity
  8
Ｓ_１_１
  6
CONTINUOUS
 62
     3
100
AcDbCircle
 10
1709.093277
 20
379.995026
 30
0.0
 40
5.367246000000002
100
AcDbArc
 50
55.61591800000001
 51
124.384206
  0
ARC
  5
18A
330
1F
100
AcDbEntity
  8
Ｓ_１_１
  6
CONTINUOUS
 62
     3
100
AcDbCircle
 10
1690.906719
 20
379.995026
 30
0.0
 40
5.367246000000002
100
AcDbArc
 50
55.615836
 51
124.384124
  0
ARC
  5
18B
330
1F
100
AcDbEntity
  8
Ｓ_１_１
  6
CONTINUOUS
 62
     3
100
AcDbCircle
 10
1699.999984
 20
365.300049
 30
0.0
 40
20.062197
100
AcDbArc
 50
72.41204699999997
 51
107.587931
  0
ARC
  5
18C
330
1F
100
AcDbEntity
  8
Ｓ_１_１
  6
CONTINUOUS
 62
     3
100
AcDbCircle
 10
1690.906719
 20
381.729523
 30
0.0
 40
5.367246000000002
100
AcDbArc
 50
235.6159300000003
 51
304.3842180000003
  0
LINE
  5
18D
330
1F
100
AcDbEntity
  8
Ｓ_１_１
  6
CONTINUOUS
 62
     3
100
AcDbLine
 10
1712.000015
 20
392.862274
 30
0.0
 11
1688.000003
 21
392.862274
 31
0.0
  0
LINE
  5
18E
330
1F
100
AcDbEntity
  8
Ｓ_１_１
  6
CONTINUOUS
 62
     3
100
AcDbLine
 10
1694.999996
 20
393.4396060000001
 30
0.0
 11
1687.000003
 21
393.4396060000001
 31
0.0
  0
LINE
  5
18F
330
1F
100
AcDbEntity
  8
Ｓ_１_１
  6
CONTINUOUS
 62
     3
100
AcDbLine
 10
1694.999996
 20
404.7849430000001
 30
0.0
 11
1687.000003
 21
404.7849430000001
 31
0.0
  0
LINE
  5
190
330
1F
100
AcDbEntity
  8
Ｓ_１_１
  6
CONTINUOUS
 62
     3
100
AcDbLine
 10
1713.0
 20
393.4396060000001
 30
0.0
 11
1705.0
 21
393.4396060000001
 31
0.0
  0
LINE
  5
191
330
1F
100
AcDbEntity
  8
Ｓ_１_１
  6
CONTINUOUS
 62
     3
100
AcDbLine
 10
1713.0
 20
404.7849430000001
 30
0.0
 11
1705.0
 21
404.7849430000001
 31
0.0
  0
LINE
  5
192
330
1F
100
AcDbEntity
  8
Ｓ_１_１
  6
CONTINUOUS
 62
     3
100
AcDbLine
 10
1713.0
 20
420.9396060000001
 30
0.0
 11
1687.000003
 21
420.9396060000001
 31
0.0
  0
LINE
  5
193
330
1F
100
AcDbEntity
  8
Ｓ_１_１
  6
CONTINUOUS
 62
     3
100
AcDbLine
 10
1712.999986
 20
420.9396290000001
 30
0.0
 11
1711.999979
 21
420.362274
 31
0.0
  0
LINE
  5
194
330
1F
100
AcDbEntity
  8
Ｓ_１_１
  6
CONTINUOUS
 62
     3
100
AcDbLine
 10
1688.0
 20
405.3622440000001
 30
0.0
 11
1686.999993
 21
404.7848900000001
 31
0.0
  0
LINE
  5
195
330
1F
100
AcDbEntity
  8
Ｓ_１_１
  6
CONTINUOUS
 62
     3
100
AcDbLine
 10
1713.000005
 20
393.439598
 30
0.0
 11
1712.000011
 21
392.8622510000001
 31
0.0
  0
LINE
  5
196
330
1F
100
AcDbEntity
  8
Ｓ_１_１
  6
CONTINUOUS
 62
     3
100
AcDbLine
 10
1688.000002
 20
420.3622470000001
 30
0.0
 11
1687.000008
 21
420.939594
 31
0.0
  0
LINE
  5
197
330
1F
100
AcDbEntity
  8
Ｓ_１_１
  6
CONTINUOUS
 62
     3
100
AcDbLine
 10
1712.99999
 20
404.7848970000001
 30
0.0
 11
1711.999996
 21
405.362243
 31
0.0
  0
LINE
  5
198
330
1F
100
AcDbEntity
  8
Ｓ_１_１
  6
CONTINUOUS
 62
     3
100
AcDbLine
 10
1687.999999
 20
392.862242
 30
0.0
 11
1686.999978
 21
393.4396050000001
 31
0.0
  0
LINE
  5
199
330
1F
100
AcDbEntity
  8
Ｓ_１_１
  6
CONTINUOUS
 62
     3
100
AcDbLine
 10
1694.999996
 20
404.7849430000001
 30
0.0
 11
1694.999996
 21
393.4396060000001
 31
0.0
  0
LINE
  5
19A
330
1F
100
AcDbEntity
  8
Ｓ_１_１
  6
CONTINUOUS
 62
     3
100
AcDbLine
 10
1705.0
 20
404.7849430000001
 30
0.0
 11
1705.0
 21
393.4396060000001
 31
0.0
  0
LINE
  5
19B
330
1F
100
AcDbEntity
  8
Ｓ_１_１
  6
CONTINUOUS
 62
     3
100
AcDbLine
 10
1698.249996
 20
428.5439960000001
 30
0.0
 11
1698.145077
 21
428.3622700000001
 31
0.0
  0
LINE
  5
19C
330
1F
100
AcDbEntity
  8
Ｓ_１_１
  6
CONTINUOUS
 62
     3
100
AcDbLine
 10
1698.25
 20
428.3622740000001
 30
0.0
 11
1684.000003
 21
428.3622740000001
 31
0.0
  0
LINE
  5
19D
330
1F
100
AcDbEntity
  8
Ｓ_１_１
  6
CONTINUOUS
 62
     3
100
AcDbLine
 10
1698.25
 20
427.8622740000001
 30
0.0
 11
1684.500003
 21
427.8622740000001
 31
0.0
  0
LINE
  5
19E
330
1F
100
AcDbEntity
  8
Ｓ_１_１
  6
CONTINUOUS
 62
     3
100
AcDbLine
 10
1701.75
 20
431.3622740000001
 30
0.0
 11
1698.25
 21
431.3622740000001
 31
0.0
  0
LINE
  5
19F
330
1F
100
AcDbEntity
  8
Ｓ_１_１
  6
CONTINUOUS
 62
     3
100
AcDbLine
 10
1701.75
 20
431.3622740000001
 30
0.0
 11
1701.75
 21
427.8622740000001
 31
0.0
  0
LINE
  5
1A0
330
1F
100
AcDbEntity
  8
Ｓ_１_１
  6
CONTINUOUS
 62
     3
100
AcDbLine
 10
1698.25
 20
431.3622740000001
 30
0.0
 11
1698.25
 21
427.8622740000001
 31
0.0
  0
LINE
  5
1A1
330
1F
100
AcDbEntity
  8
Ｓ_１_１
  6
CONTINUOUS
 62
     3
100
AcDbLine
 10
1715.500004
 20
425.3622800000001
 30
0.0
 11
1714.999993
 21
424.862269
 31
0.0
  0
LINE
  5
1A2
330
1F
100
AcDbEntity
  8
Ｓ_１_１
  6
CONTINUOUS
 62
     3
100
AcDbLine
 10
1715.499983
 20
426.3622809999999
 30
0.0
 11
1714.999993
 21
426.862271
 31
0.0
  0
LINE
  5
1A3
330
1F
100
AcDbEntity
  8
Ｓ_１_１
  6
CONTINUOUS
 62
     3
100
AcDbLine
 10
1684.999983
 20
424.8622900000001
 30
0.0
 11
1684.499993
 21
425.3622800000001
 31
0.0
  0
LINE
  5
1A4
330
1F
100
AcDbEntity
  8
Ｓ_１_１
  6
CONTINUOUS
 62
     3
100
AcDbLine
 10
1685.000004
 20
426.862271
 30
0.0
 11
1684.500014
 21
426.3622809999999
 31
0.0
  0
LINE
  5
1A5
330
1F
100
AcDbEntity
  8
Ｓ_１_１
  6
CONTINUOUS
 62
     3
100
AcDbLine
 10
1687.000003
 20
424.8622740000001
 30
0.0
 11
1685.000003
 21
424.8622740000001
 31
0.0
  0
LINE
  5
1A6
330
1F
100
AcDbEntity
  8
Ｓ_１_１
  6
CONTINUOUS
 62
     3
100
AcDbLine
 10
1687.000003
 20
426.8622740000001
 30
0.0
 11
1685.000003
 21
426.8622740000001
 31
0.0
  0
LINE
  5
1A7
330
1F
100
AcDbEntity
  8
Ｓ_１_１
  6
CONTINUOUS
 62
     3
100
AcDbLine
 10
1715.0
 20
426.8622740000001
 30
0.0
 11
1713.0
 21
426.8622740000001
 31
0.0
  0
LINE
  5
1A8
330
1F
100
AcDbEntity
  8
Ｓ_１_１
  6
CONTINUOUS
 62
     3
100
AcDbLine
 10
1715.0
 20
424.8622740000001
 30
0.0
 11
1713.0
 21
424.8622740000001
 31
0.0
  0
LINE
  5
1A9
330
1F
100
AcDbEntity
  8
Ｓ_１_１
  6
CONTINUOUS
 62
     3
100
AcDbLine
 10
1715.5
 20
426.3622740000001
 30
0.0
 11
1715.5
 21
425.3622740000001
 31
0.0
  0
LINE
  5
1AA
330
1F
100
AcDbEntity
  8
Ｓ_１_１
  6
CONTINUOUS
 62
     3
100
AcDbLine
 10
1684.500003
 20
426.3622740000001
 30
0.0
 11
1684.500003
 21
425.3622740000001
 31
0.0
  0
LINE
  5
1AB
330
1F
100
AcDbEntity
  8
Ｓ_１_１
  6
CONTINUOUS
 62
     3
100
AcDbLine
 10
1701.854902
 20
428.3622700000001
 30
0.0
 11
1701.749982
 21
428.5439960000001
 31
0.0
  0
LINE
  5
1AC
330
1F
100
AcDbEntity
  8
Ｓ_１_１
  6
CONTINUOUS
 62
     3
100
AcDbLine
 10
1716.0
 20
451.8622740000001
 30
0.0
 11
1684.000003
 21
451.8622740000001
 31
0.0
  0
LINE
  5
1AD
330
1F
100
AcDbEntity
  8
Ｓ_１_１
  6
CONTINUOUS
 62
     3
100
AcDbLine
 10
1716.0
 20
444.3622740000001
 30
0.0
 11
1684.000003
 21
444.3622740000001
 31
0.0
  0
LINE
  5
1AE
330
1F
100
AcDbEntity
  8
Ｓ_１_１
  6
CONTINUOUS
 62
     3
100
AcDbLine
 10
1716.0
 20
428.3622740000001
 30
0.0
 11
1701.75
 21
428.3622740000001
 31
0.0
  0
LINE
  5
1AF
330
1F
100
AcDbEntity
  8
Ｓ_１_１
  6
CONTINUOUS
 62
     3
100
AcDbLine
 10
1684.000003
 20
435.3622740000001
 30
0.0
 11
1716.0
 21
435.3622740000001
 31
0.0
  0
LINE
  5
1B0
330
1F
100
AcDbEntity
  8
Ｓ_１_１
  6
CONTINUOUS
 62
     3
100
AcDbLine
 10
1684.500009
 20
427.8622930000001
 30
0.0
 11
1684.000019
 21
428.3622820000001
 31
0.0
  0
LINE
  5
1B1
330
1F
100
AcDbEntity
  8
Ｓ_１_１
  6
CONTINUOUS
 62
     3
100
AcDbLine
 10
1715.999973
 20
428.362288
 30
0.0
 11
1715.499983
 21
427.862298
 31
0.0
  0
LINE
  5
1B2
330
1F
100
AcDbEntity
  8
Ｓ_１_１
  6
CONTINUOUS
 62
     3
100
AcDbLine
 10
1684.000003
 20
435.3622740000001
 30
0.0
 11
1684.000003
 21
428.3622740000001
 31
0.0
  0
LINE
  5
1B3
330
1F
100
AcDbEntity
  8
Ｓ_１_１
  6
CONTINUOUS
 62
     3
100
AcDbLine
 10
1716.0
 20
435.3622740000001
 30
0.0
 11
1716.0
 21
428.3622740000001
 31
0.0
  0
LINE
  5
1B4
330
1F
100
AcDbEntity
  8
Ｓ_１_１
  6
CONTINUOUS
 62
     3
100
AcDbLine
 10
1715.999995
 20
444.362284
 30
0.0
 11
1715.499984
 21
443.8622720000001
 31
0.0
  0
LINE
  5
1B5
330
1F
100
AcDbEntity
  8
Ｓ_１_１
  6
CONTINUOUS
 62
     3
100
AcDbLine
 10
1684.499993
 20
435.862286
 30
0.0
 11
1683.999981
 21
435.362275
 31
0.0
  0
LINE
  5
1B6
330
1F
100
AcDbEntity
  8
Ｓ_１_１
  6
CONTINUOUS
 62
     3
100
AcDbLine
 10
1684.500008
 20
443.862267
 30
0.0
 11
1683.999997
 21
444.3622789999999
 31
0.0
  0
LINE
  5
1B7
330
1F
100
AcDbEntity
  8
Ｓ_１_１
  6
CONTINUOUS
 62
     3
100
AcDbLine
 10
1716.000011
 20
435.3622700000001
 30
0.0
 11
1715.499999
 21
435.862281
 31
0.0
  0
LINE
  5
1B8
330
1F
100
AcDbEntity
  8
Ｓ_１_１
  6
CONTINUOUS
 62
     3
100
AcDbLine
 10
1715.5
 20
443.8622740000001
 30
0.0
 11
1684.500003
 21
443.8622740000001
 31
0.0
  0
LINE
  5
1B9
330
1F
100
AcDbEntity
  8
Ｓ_１_１
  6
CONTINUOUS
 62
     3
100
AcDbLine
 10
1715.5
 20
435.8622740000001
 30
0.0
 11
1684.500003
 21
435.8622740000001
 31
0.0
  0
LINE
  5
1BA
330
1F
100
AcDbEntity
  8
Ｓ_１_１
  6
CONTINUOUS
 62
     3
100
AcDbLine
 10
1684.500003
 20
443.8622740000001
 30
0.0
 11
1684.500003
 21
435.8622740000001
 31
0.0
  0
LINE
  5
1BB
330
1F
100
AcDbEntity
  8
Ｓ_１_１
  6
CONTINUOUS
 62
     3
100
AcDbLine
 10
1715.5
 20
443.8622740000001
 30
0.0
 11
1715.5
 21
435.8622740000001
 31
0.0
  0
LINE
  5
1BC
330
1F
100
AcDbEntity
  8
Ｓ_１_１
  6
CONTINUOUS
 62
     3
100
AcDbLine
 10
1687.000006
 20
454.8623000000001
 30
0.0
 11
1684.000003
 21
451.8622970000001
 31
0.0
  0
LINE
  5
1BD
330
1F
100
AcDbEntity
  8
Ｓ_１_１
  6
CONTINUOUS
 62
     3
100
AcDbLine
 10
1712.999991
 20
454.8623000000001
 30
0.0
 11
1715.999994
 21
451.8622970000001
 31
0.0
  0
LINE
  5
1BE
330
1F
100
AcDbEntity
  8
Ｓ_１_１
  6
CONTINUOUS
 62
     3
100
AcDbLine
 10
1712.0
 20
420.362274
 30
0.0
 11
1712.0
 21
405.362274
 31
0.0
  0
LINE
  5
1BF
330
1F
100
AcDbEntity
  8
Ｓ_１_１
  6
CONTINUOUS
 62
     3
100
AcDbLine
 10
1688.000003
 20
420.362274
 30
0.0
 11
1688.000003
 21
405.362274
 31
0.0
  0
LINE
  5
1C0
330
1F
100
AcDbEntity
  8
Ｓ_１_１
  6
CONTINUOUS
 62
     3
100
AcDbLine
 10
1713.0
 20
454.8622740000001
 30
0.0
 11
1687.000003
 21
454.8622740000001
 31
0.0
  0
LINE
  5
1C1
330
1F
100
AcDbEntity
  8
Ｓ_１_１
  6
CONTINUOUS
 62
     3
100
AcDbLine
 10
1684.000003
 20
451.8622740000001
 30
0.0
 11
1684.000003
 21
444.3622740000001
 31
0.0
  0
LINE
  5
1C2
330
1F
100
AcDbEntity
  8
Ｓ_１_１
  6
CONTINUOUS
 62
     3
100
AcDbLine
 10
1716.0
 20
451.8622740000001
 30
0.0
 11
1716.0
 21
444.3622740000001
 31
0.0
  0
LINE
  5
1C3
330
1F
100
AcDbEntity
  8
Ｓ_１_１
  6
CONTINUOUS
 62
     3
100
AcDbLine
 10
1687.000003
 20
404.784882
 30
0.0
 11
1687.000003
 21
393.4396060000001
 31
0.0
  0
LINE
  5
1C4
330
1F
100
AcDbEntity
  8
Ｓ_１_１
  6
CONTINUOUS
 62
     3
100
AcDbLine
 10
1713.0
 20
404.7849430000001
 30
0.0
 11
1713.0
 21
393.4396060000001
 31
0.0
  0
LINE
  5
1C5
330
1F
100
AcDbEntity
  8
Ｓ_１_１
  6
CONTINUOUS
 62
     3
100
AcDbLine
 10
1688.000003
 20
455.3622740000001
 30
0.0
 11
1688.000003
 21
454.8622740000001
 31
0.0
  0
LINE
  5
1C6
330
1F
100
AcDbEntity
  8
Ｓ_１_１
  6
CONTINUOUS
 62
     3
100
AcDbLine
 10
1712.0
 20
455.3622740000001
 30
0.0
 11
1712.0
 21
454.8622740000001
 31
0.0
  0
LINE
  5
1C7
330
1F
100
AcDbEntity
  8
Ｓ_１_１
  6
CONTINUOUS
 62
     3
100
AcDbLine
 10
1713.0
 20
427.8622740000001
 30
0.0
 11
1713.0
 21
420.9396060000001
 31
0.0
  0
LINE
  5
1C8
330
1F
100
AcDbEntity
  8
Ｓ_１_１
  6
CONTINUOUS
 62
     3
100
AcDbLine
 10
1687.000003
 20
427.8622740000001
 30
0.0
 11
1687.000003
 21
420.9396060000001
 31
0.0
  0
LINE
  5
1C9
330
1F
100
AcDbEntity
  8
Ｓ_１_１
  6
CONTINUOUS
 62
     3
100
AcDbLine
 10
1715.5
 20
427.8622740000001
 30
0.0
 11
1701.75
 21
427.8622740000001
 31
0.0
  0
LINE
  5
1CA
330
1F
100
AcDbEntity
  8
Ｓ_１_１
  6
CONTINUOUS
 62
     3
100
AcDbLine
 10
1712.0
 20
420.362274
 30
0.0
 11
1688.000003
 21
420.362274
 31
0.0
  0
LINE
  5
1CB
330
1F
100
AcDbEntity
  8
Ｓ_１_１
  6
CONTINUOUS
 62
     3
100
AcDbLine
 10
1712.0
 20
405.362274
 30
0.0
 11
1688.000019
 21
405.362274
 31
0.0
  0
LINE
  5
1CC
330
1F
100
AcDbEntity
  8
Ｓ_１_１
  6
CONTINUOUS
 62
     3
100
AcDbLine
 10
1712.0
 20
455.3622740000001
 30
0.0
 11
1688.000003
 21
455.3622740000001
 31
0.0
  0
LINE
  5
1CD
330
1F
100
AcDbEntity
  8
Ｓ_１_１
  6
CONTINUOUS
 62
     3
100
AcDbLine
 10
1707.179879
 20
392.862285
 30
0.0
 11
1707.563488
 21
386.724542
 31
0.0
  0
LINE
  5
1CE
330
1F
100
AcDbEntity
  8
Ｓ_１_１
  6
CONTINUOUS
 62
     3
100
AcDbLine
 10
1708.349971
 20
385.3622630000001
 30
0.0
 11
1707.563472
 21
386.724519
 31
0.0
  0
LINE
  5
1CF
330
1F
100
AcDbEntity
  8
Ｓ_１_１
  6
CONTINUOUS
 62
     3
100
AcDbLine
 10
1707.881243
 20
392.862272
 30
0.0
 11
1708.349994
 21
385.3622580000001
 31
0.0
  0
LINE
  5
1D0
330
1F
100
AcDbEntity
  8
Ｓ_１_１
  6
CONTINUOUS
 62
     3
100
AcDbLine
 10
1692.436493
 20
386.7245270000001
 30
0.0
 11
1691.649994
 21
385.36227
 31
0.0
  0
LINE
  5
1D1
330
1F
100
AcDbEntity
  8
Ｓ_１_１
  6
CONTINUOUS
 62
     3
100
AcDbLine
 10
1692.118751
 20
392.862312
 30
0.0
 11
1691.649997
 21
385.362237
 31
0.0
  0
LINE
  5
1D2
330
1F
100
AcDbEntity
  8
Ｓ_１_１
  6
CONTINUOUS
 62
     3
100
AcDbLine
 10
1692.820126
 20
392.8622630000001
 30
0.0
 11
1692.436517
 21
386.72452
 31
0.0
  0
LINE
  5
1D3
330
1F
100
AcDbEntity
  8
Ｓ_１_１
  6
CONTINUOUS
 62
     3
100
AcDbLine
 10
1708.264862
 20
386.724518
 30
0.0
 11
1691.735134
 21
386.724518
 31
0.0
  0
LINE
  5
1D4
330
1F
100
AcDbEntity
  8
Ｓ_１_１
  6
CONTINUOUS
 62
     3
100
AcDbLine
 10
1692.436497
 20
375.000005
 30
0.0
 11
1691.649998
 21
376.362261
 31
0.0
  0
LINE
  5
1D5
330
1F
100
AcDbEntity
  8
Ｓ_１_１
  6
CONTINUOUS
 62
     3
100
AcDbLine
 10
1692.047651
 20
369.9999990000001
 30
0.0
 11
1691.650008
 21
376.36228
 31
0.0
  0
LINE
  5
1D6
330
1F
100
AcDbEntity
  8
Ｓ_１_１
  6
CONTINUOUS
 62
     3
100
AcDbLine
 10
1692.749014
 20
369.9999870000001
 30
0.0
 11
1692.436514
 21
374.9999960000001
 31
0.0
  0
LINE
  5
1D7
330
1F
100
AcDbEntity
  8
Ｓ_１_１
  6
CONTINUOUS
 62
     3
100
AcDbLine
 10
1708.34998
 20
376.362261
 30
0.0
 11
1707.563481
 21
375.000005
 31
0.0
  0
LINE
  5
1D8
330
1F
100
AcDbEntity
  8
Ｓ_１_１
  6
CONTINUOUS
 62
     3
100
AcDbLine
 10
1708.264862
 20
375.000031
 30
0.0
 11
1691.735134
 21
375.000031
 31
0.0
  0
LINE
  5
1D9
330
1F
100
AcDbEntity
  8
Ｓ_１_１
  6
CONTINUOUS
 62
     3
100
AcDbLine
 10
1707.952357
 20
370.000008
 30
0.0
 11
1708.349997
 21
376.3622580000001
 31
0.0
  0
LINE
  5
1DA
330
1F
100
AcDbEntity
  8
Ｓ_１_１
  6
CONTINUOUS
 62
     3
100
AcDbLine
 10
1707.250993
 20
369.9999950000001
 30
0.0
 11
1707.563492
 21
374.999974
 31
0.0
  0
LINE
  5
1DB
330
1F
100
AcDbEntity
  8
Ｓ_１_１
  6
CONTINUOUS
 62
     3
100
AcDbLine
 10
1710.500018
 20
376.362283
 30
0.0
 11
1712.124372
 21
377.3001
 31
0.0
  0
LINE
  5
1DC
330
1F
100
AcDbEntity
  8
Ｓ_１_１
  6
CONTINUOUS
 62
     3
100
AcDbLine
 10
1710.500012
 20
385.362279
 30
0.0
 11
1712.124392
 21
384.424446
 31
0.0
  0
LINE
  5
1DD
330
1F
100
AcDbEntity
  8
Ｓ_１_１
  6
CONTINUOUS
 62
     3
100
AcDbLine
 10
1689.499987
 20
376.362275
 30
0.0
 11
1687.875633
 21
377.3000929999999
 31
0.0
  0
LINE
  5
1DE
330
1F
100
AcDbEntity
  8
Ｓ_１_１
  6
CONTINUOUS
 62
     3
100
AcDbLine
 10
1689.499993
 20
385.362286
 30
0.0
 11
1687.875626
 21
384.424461
 31
0.0
  0
LINE
  5
1DF
330
1F
100
AcDbEntity
  8
Ｓ_１_１
  6
CONTINUOUS
 62
     3
100
AcDbLine
 10
1687.875629
 20
384.424469
 30
0.0
 11
1687.875629
 21
377.30008
 31
0.0
  0
LINE
  5
1E0
330
1F
100
AcDbEntity
  8
Ｓ_１_１
  6
CONTINUOUS
 62
     3
100
AcDbLine
 10
1712.124343
 20
384.424469
 30
0.0
 11
1712.124343
 21
377.30008
 31
0.0
  0
LINE
  5
1E1
330
1F
100
AcDbEntity
  8
Ｓ_１_１
  6
CONTINUOUS
 62
     3
100
AcDbLine
 10
1706.062164
 20
384.424469
 30
0.0
 11
1706.062164
 21
377.30008
 31
0.0
  0
LINE
  5
1E2
330
1F
100
AcDbEntity
  8
Ｓ_１_１
  6
CONTINUOUS
 62
     3
100
AcDbLine
 10
1693.937801
 20
384.424469
 30
0.0
 11
1693.937801
 21
377.30008
 31
0.0
  0
LINE
  5
1E3
330
1F
100
AcDbEntity
  8
Ｓ_１_１
  6
CONTINUOUS
 62
     3
100
AcDbLine
 10
1710.500015
 20
385.3622130000001
 30
0.0
 11
1689.499988
 21
385.3622130000001
 31
0.0
  0
LINE
  5
1E4
330
1F
100
AcDbEntity
  8
Ｓ_１_１
  6
CONTINUOUS
 62
     3
100
AcDbLine
 10
1710.5
 20
376.3622130000001
 30
0.0
 11
1689.499988
 21
376.3622130000001
 31
0.0
  0
LINE
  5
1E5
330
1F
100
AcDbEntity
  8
Ｓ_１_１
  6
CONTINUOUS
 62
     3
100
AcDbLine
 10
1767.999985
 20
369.999993
 30
0.0
 11
1769.999965
 21
368.000012
 31
0.0
  0
LINE
  5
1E6
330
1F
100
AcDbEntity
  8
Ｓ_１_１
  6
CONTINUOUS
 62
     3
100
AcDbLine
 10
1767.999992
 20
229.99997
 30
0.0
 11
1767.999992
 21
370.000031
 31
0.0
  0
LINE
  5
1E7
330
1F
100
AcDbEntity
  8
Ｓ_１_１
  6
CONTINUOUS
 62
     3
100
AcDbLine
 10
1768.000006
 20
229.999996
 30
0.0
 11
1770.000008
 21
231.9999980000001
 31
0.0
  0
LINE
  5
1E8
330
1F
100
AcDbEntity
  8
Ｓ_１_１
  6
CONTINUOUS
 62
     3
100
AcDbLine
 10
1770.0
 20
367.99997
 30
0.0
 11
1770.0
 21
231.99997
 31
0.0
  0
LINE
  5
1E9
330
1F
100
AcDbEntity
  8
Ｓ_１_１
  6
EXLTYPE2
 62
     1
100
AcDbLine
 10
784.999996
 20
340.7344670000001
 30
0.0
 11
784.999996
 21
261.528778
 31
0.0
  0
LINE
  5
1EA
330
1F
100
AcDbEntity
  8
Ｓ_１_１
  6
EXLTYPE2
 62
     1
100
AcDbLine
 10
565.999935
 20
259.462525
 30
0.0
 11
565.999935
 21
268.737549
 31
0.0
  0
LINE
  5
1EB
330
1F
100
AcDbEntity
  8
Ｓ_１_１
  6
EXLTYPE2
 62
     1
100
AcDbLine
 10
529.999935
 20
356.103669
 30
0.0
 11
529.999935
 21
330.524994
 31
0.0
  0
LINE
  5
1EC
330
1F
100
AcDbEntity
  8
Ｓ_１_１
  6
EXLTYPE2
 62
     1
100
AcDbLine
 10
565.999935
 20
305.337494
 30
0.0
 11
565.999935
 21
295.362488
 31
0.0
  0
LINE
  5
1ED
330
1F
100
AcDbEntity
  8
Ｓ_１_１
  6
EXLTYPE2
 62
     1
100
AcDbLine
 10
565.999935
 20
340.5375059999999
 30
0.0
 11
565.999935
 21
331.262482
 31
0.0
  0
LINE
  5
1EE
330
1F
100
AcDbEntity
  8
Ｓ_１_１
  6
EXLTYPE2
 62
     1
100
AcDbLine
 10
419.9999350000001
 20
358.087525
 30
0.0
 11
419.9999350000001
 21
244.337525
 31
0.0
  0
CIRCLE
  5
1EF
330
1F
100
AcDbEntity
  8
Ｓ_１_１
  6
CONTINUOUS
 62
     3
100
AcDbCircle
 10
784.999996
 20
300.0000000000001
 30
0.0
 40
29.00000000000002
  0
ARC
  5
1F0
330
1F
100
AcDbEntity
  8
Ｓ_１_１
  6
CONTINUOUS
 62
     3
100
AcDbCircle
 10
384.0964920000002
 20
300.0000000000001
 30
0.0
 40
24.09643400000001
100
AcDbArc
 50
144.9999980000001
 51
214.9999980000001
  0
CIRCLE
  5
1F1
330
1F
100
AcDbEntity
  8
Ｓ_１_１
  6
CONTINUOUS
 62
     3
100
AcDbCircle
 10
419.9999350000001
 20
300.0000000000001
 30
0.0
 40
31.00000200000001
  0
CIRCLE
  5
1F2
330
1F
100
AcDbEntity
  8
Ｓ_１_１
  6
CONTINUOUS
 62
     3
100
AcDbCircle
 10
419.9999350000001
 20
300.0000000000001
 30
0.0
 40
30.00000000000002
  0
CIRCLE
  5
1F3
330
1F
100
AcDbEntity
  8
Ｓ_１_１
  6
CONTINUOUS
 62
     3
100
AcDbCircle
 10
784.999996
 20
300.0000000000001
 30
0.0
 40
35.0
  0
CIRCLE
  5
1F4
330
1F
100
AcDbEntity
  8
Ｓ_１_１
  6
CONTINUOUS
 62
     3
100
AcDbCircle
 10
565.999935
 20
300.0000000000001
 30
0.0
 40
4.0
  0
CIRCLE
  5
1F5
330
1F
100
AcDbEntity
  8
Ｓ_１_１
  6
CONTINUOUS
 62
     3
100
AcDbCircle
 10
784.999996
 20
300.0000000000001
 30
0.0
 40
30.00000000000002
  0
LINE
  5
1F6
330
1F
100
AcDbEntity
  8
Ｓ_１_１
  6
CONTINUOUS
 62
     3
100
AcDbLine
 10
744.999996
 20
249.32428
 30
0.0
 11
824.999996
 21
249.32428
 31
0.0
  0
LINE
  5
1F7
330
1F
100
AcDbEntity
  8
Ｓ_１_１
  6
CONTINUOUS
 62
     3
100
AcDbLine
 10
744.999996
 20
350.675751
 30
0.0
 11
824.999996
 21
350.675751
 31
0.0
  0
LINE
  5
1F8
330
1F
100
AcDbEntity
  8
Ｓ_１_１
  6
CONTINUOUS
 62
     3
100
AcDbLine
 10
579.999935
 20
305.0000000000001
 30
0.0
 11
588.000057
 21
305.0000000000001
 31
0.0
  0
LINE
  5
1F9
330
1F
100
AcDbEntity
  8
Ｓ_１_１
  6
CONTINUOUS
 62
     3
100
AcDbLine
 10
581.999935
 20
365.000061
 30
0.0
 11
581.999935
 21
305.0000000000001
 31
0.0
  0
LINE
  5
1FA
330
1F
100
AcDbEntity
  8
Ｓ_１_１
  6
CONTINUOUS
 62
     3
100
AcDbLine
 10
364.3577219999999
 20
313.821219
 30
0.0
 11
384.9999110000002
 21
343.301319
 31
0.0
  0
LINE
  5
1FB
330
1F
100
AcDbEntity
  8
Ｓ_１_１
  6
CONTINUOUS
 62
     3
100
AcDbLine
 10
384.9999350000001
 20
350.0000000000001
 30
0.0
 11
384.9999350000001
 21
343.3013
 31
0.0
  0
LINE
  5
1FC
330
1F
100
AcDbEntity
  8
Ｓ_１_１
  6
CONTINUOUS
 62
     3
100
AcDbLine
 10
384.9999350000001
 20
343.3013
 30
0.0
 11
494.9999350000001
 21
343.3013
 31
0.0
  0
LINE
  5
1FD
330
1F
100
AcDbEntity
  8
Ｓ_１_１
  6
CONTINUOUS
 62
     3
100
AcDbLine
 10
579.9999520000001
 20
305.0000250000001
 30
0.0
 11
587.9999680000001
 21
295.000005
 31
0.0
  0
LINE
  5
1FE
330
1F
100
AcDbEntity
  8
Ｓ_１_１
  6
CONTINUOUS
 62
     3
100
AcDbLine
 10
579.999933
 20
295.000009
 30
0.0
 11
587.99993
 21
305.000006
 31
0.0
  0
LINE
  5
1FF
330
1F
100
AcDbEntity
  8
Ｓ_１_１
  6
CONTINUOUS
 62
     3
100
AcDbLine
 10
579.999935
 20
295.0000000000001
 30
0.0
 11
588.000057
 21
295.0000000000001
 31
0.0
  0
LINE
  5
200
330
1F
100
AcDbEntity
  8
Ｓ_１_１
  6
CONTINUOUS
 62
     3
100
AcDbLine
 10
588.000057
 20
365.0000000000001
 30
0.0
 11
588.000057
 21
234.99997
 31
0.0
  0
LINE
  5
201
330
1F
100
AcDbEntity
  8
Ｓ_１_１
  6
CONTINUOUS
 62
     3
100
AcDbLine
 10
549.999935
 20
350.0000000000001
 30
0.0
 11
549.999935
 21
250.0000000000001
 31
0.0
  0
LINE
  5
202
330
1F
100
AcDbEntity
  8
Ｓ_１_１
  6
CONTINUOUS
 62
     3
100
AcDbLine
 10
744.999996
 20
217.5000000000001
 30
0.0
 11
824.999996
 21
217.5000000000001
 31
0.0
  0
LINE
  5
203
330
1F
100
AcDbEntity
  8
Ｓ_１_１
  6
CONTINUOUS
 62
     3
100
AcDbLine
 10
576.999935
 20
260.0000920000001
 30
0.0
 11
579.999935
 21
260.0000920000001
 31
0.0
  0
LINE
  5
204
330
1F
100
AcDbEntity
  8
Ｓ_１_１
  6
CONTINUOUS
 62
     3
100
AcDbLine
 10
557.0000990000001
 20
261.000007
 30
0.0
 11
556.0001199999999
 21
261.999987
 31
0.0
  0
LINE
  5
205
330
1F
100
AcDbEntity
  8
Ｓ_１_１
  6
CONTINUOUS
 62
     3
100
AcDbLine
 10
577.0000480000001
 20
260.000028
 30
0.0
 11
575.2679969999999
 21
261.000028
 31
0.0
  0
LINE
  5
206
330
1F
100
AcDbEntity
  8
Ｓ_１_１
  6
CONTINUOUS
 62
     3
100
AcDbLine
 10
556.999935
 20
261.0000310000001
 30
0.0
 11
575.267879
 21
261.0000310000001
 31
0.0
  0
LINE
  5
207
330
1F
100
AcDbEntity
  8
Ｓ_１_１
  6
CONTINUOUS
 62
     3
100
AcDbLine
 10
554.999939
 20
255.000019
 30
0.0
 11
549.9999339999999
 21
250.000014
 31
0.0
  0
LINE
  5
208
330
1F
100
AcDbEntity
  8
Ｓ_１_１
  6
CONTINUOUS
 62
     3
100
AcDbLine
 10
549.9999379999999
 20
350.0000379999999
 30
0.0
 11
555.000008
 21
344.999968
 31
0.0
  0
LINE
  5
209
330
1F
100
AcDbEntity
  8
Ｓ_１_１
  6
CONTINUOUS
 62
     3
100
AcDbLine
 10
582.000057
 20
365.0000000000001
 30
0.0
 11
744.999996
 21
365.0000000000001
 31
0.0
  0
LINE
  5
20A
330
1F
100
AcDbEntity
  8
Ｓ_１_１
  6
CONTINUOUS
 62
     3
100
AcDbLine
 10
744.999996
 20
382.500031
 30
0.0
 11
824.999996
 21
382.500031
 31
0.0
  0
LINE
  5
20B
330
1F
100
AcDbEntity
  8
Ｓ_１_１
  6
CONTINUOUS
 62
     3
100
AcDbLine
 10
364.3578079999999
 20
286.1788520000001
 30
0.0
 11
384.9999789999999
 21
256.698778
 31
0.0
  0
LINE
  5
20C
330
1F
100
AcDbEntity
  8
Ｓ_１_１
  6
CONTINUOUS
 62
     3
100
AcDbLine
 10
384.9999350000001
 20
250.0000000000001
 30
0.0
 11
384.9999350000001
 21
256.698731
 31
0.0
  0
LINE
  5
20D
330
1F
100
AcDbEntity
  8
Ｓ_１_１
  6
CONTINUOUS
 62
     3
100
AcDbLine
 10
385.000024
 20
249.999995
 30
0.0
 11
360.0000190000001
 21
275.0000000000001
 31
0.0
  0
LINE
  5
20E
330
1F
100
AcDbEntity
  8
Ｓ_１_１
  6
CONTINUOUS
 62
     3
100
AcDbLine
 10
385.0001110000001
 20
349.999929
 30
0.0
 11
360.000106
 21
324.999924
 31
0.0
  0
LINE
  5
20F
330
1F
100
AcDbEntity
  8
Ｓ_１_１
  6
CONTINUOUS
 62
     3
100
AcDbLine
 10
359.9999350000001
 20
325.0000000000001
 30
0.0
 11
359.9999350000001
 21
275.0000000000001
 31
0.0
  0
LINE
  5
210
330
1F
100
AcDbEntity
  8
Ｓ_１_１
  6
CONTINUOUS
 62
     3
100
AcDbLine
 10
581.999935
 20
234.99997
 30
0.0
 11
581.999935
 21
295.0000000000001
 31
0.0
  0
LINE
  5
211
330
1F
100
AcDbEntity
  8
Ｓ_１_１
  6
CONTINUOUS
 62
     3
100
AcDbLine
 10
579.999994
 20
237.000003
 30
0.0
 11
581.999996
 21
235.0000010000001
 31
0.0
  0
LINE
  5
212
330
1F
100
AcDbEntity
  8
Ｓ_１_１
  6
CONTINUOUS
 62
     3
100
AcDbLine
 10
582.000061
 20
364.999988
 30
0.0
 11
580.000059
 21
362.9999860000001
 31
0.0
  0
LINE
  5
213
330
1F
100
AcDbEntity
  8
Ｓ_１_１
  6
CONTINUOUS
 62
     3
100
AcDbLine
 10
556.999935
 20
339.0000000000001
 30
0.0
 11
556.999935
 21
261.0000310000001
 31
0.0
  0
LINE
  5
214
330
1F
100
AcDbEntity
  8
Ｓ_１_１
  6
CONTINUOUS
 62
     3
100
AcDbLine
 10
554.999935
 20
336.5000000000001
 30
0.0
 11
555.999935
 21
336.5000000000001
 31
0.0
  0
LINE
  5
215
330
1F
100
AcDbEntity
  8
Ｓ_１_１
  6
CONTINUOUS
 62
     3
100
AcDbLine
 10
557.0000990000001
 20
338.99996
 30
0.0
 11
556.000098
 21
337.999959
 31
0.0
  0
LINE
  5
216
330
1F
100
AcDbEntity
  8
Ｓ_１_１
  6
CONTINUOUS
 62
     3
100
AcDbLine
 10
555.999935
 20
337.9999390000001
 30
0.0
 11
555.999935
 21
262.0000920000001
 31
0.0
  0
LINE
  5
217
330
1F
100
AcDbEntity
  8
Ｓ_１_１
  6
CONTINUOUS
 62
     3
100
AcDbLine
 10
576.999935
 20
260.0000920000001
 30
0.0
 11
576.999935
 21
340.0000000000001
 31
0.0
  0
LINE
  5
218
330
1F
100
AcDbEntity
  8
Ｓ_１_１
  6
CONTINUOUS
 62
     3
100
AcDbLine
 10
575.267879
 20
339.0000000000001
 30
0.0
 11
575.267879
 21
261.0000310000001
 31
0.0
  0
LINE
  5
219
330
1F
100
AcDbEntity
  8
Ｓ_１_１
  6
CONTINUOUS
 62
     3
100
AcDbLine
 10
577.0000380000001
 20
340.0000270000001
 30
0.0
 11
575.267987
 21
339.000027
 31
0.0
  0
LINE
  5
21A
330
1F
100
AcDbEntity
  8
Ｓ_１_１
  6
CONTINUOUS
 62
     3
100
AcDbLine
 10
556.999935
 20
339.0000000000001
 30
0.0
 11
575.267879
 21
339.0000000000001
 31
0.0
  0
LINE
  5
21B
330
1F
100
AcDbEntity
  8
Ｓ_１_１
  6
CONTINUOUS
 62
     3
100
AcDbLine
 10
576.999935
 20
340.0000000000001
 30
0.0
 11
579.999935
 21
340.0000000000001
 31
0.0
  0
LINE
  5
21C
330
1F
100
AcDbEntity
  8
Ｓ_１_１
  6
CONTINUOUS
 62
     3
100
AcDbLine
 10
554.999935
 20
345.0000000000001
 30
0.0
 11
554.999935
 21
255.0000000000001
 31
0.0
  0
LINE
  5
21D
330
1F
100
AcDbEntity
  8
Ｓ_１_１
  6
CONTINUOUS
 62
     3
100
AcDbLine
 10
384.9999350000001
 20
256.698731
 30
0.0
 11
494.9999350000001
 21
256.698731
 31
0.0
  0
LINE
  5
21E
330
1F
100
AcDbEntity
  8
Ｓ_１_１
  6
CONTINUOUS
 62
     3
100
AcDbLine
 10
824.999996
 20
382.500031
 30
0.0
 11
824.999996
 21
217.5000000000001
 31
0.0
  0
LINE
  5
21F
330
1F
100
AcDbEntity
  8
Ｓ_１_１
  6
CONTINUOUS
 62
     3
100
AcDbLine
 10
744.999996
 20
382.500031
 30
0.0
 11
744.999996
 21
217.5000000000001
 31
0.0
  0
LINE
  5
220
330
1F
100
AcDbEntity
  8
Ｓ_１_１
  6
CONTINUOUS
 62
     3
100
AcDbLine
 10
384.9999350000001
 20
250.0000000000001
 30
0.0
 11
549.999935
 21
250.0000000000001
 31
0.0
  0
LINE
  5
221
330
1F
100
AcDbEntity
  8
Ｓ_１_１
  6
CONTINUOUS
 62
     3
100
AcDbLine
 10
384.9999350000001
 20
350.0000000000001
 30
0.0
 11
549.999935
 21
350.0000000000001
 31
0.0
  0
LINE
  5
222
330
1F
100
AcDbEntity
  8
Ｓ_１_１
  6
CONTINUOUS
 62
     3
100
AcDbLine
 10
494.9999350000001
 20
343.3013
 30
0.0
 11
494.9999350000001
 21
256.698731
 31
0.0
  0
LINE
  5
223
330
1F
100
AcDbEntity
  8
Ｓ_１_１
  6
CONTINUOUS
 62
     3
100
AcDbLine
 10
581.999935
 20
234.99997
 30
0.0
 11
744.999996
 21
234.99997
 31
0.0
  0
LINE
  5
224
330
1F
100
AcDbEntity
  8
Ｓ_１_１
  6
CONTINUOUS
 62
     3
100
AcDbLine
 10
579.999935
 20
362.9999390000001
 30
0.0
 11
579.999935
 21
237.000031
 31
0.0
  0
LINE
  5
225
330
1F
100
AcDbEntity
  8
Ｓ_１_１
  6
EXLTYPE2
 62
     1
100
AcDbLine
 10
344.513118
 20
300.0000000000001
 30
0.0
 11
1780.499996
 21
300.0000000000003
 31
0.0
  0
LINE
  5
226
330
1F
100
AcDbEntity
  8
Ｓ_１_１
  6
CONTINUOUS
 62
     3
100
AcDbLine
 10
824.999996
 20
370.000031
 30
0.0
 11
1767.999992
 21
370.0000310000001
 31
0.0
  0
LINE
  5
227
330
1F
100
AcDbEntity
  8
Ｓ_１_１
  6
CONTINUOUS
 62
     3
100
AcDbLine
 10
824.999996
 20
229.99997
 30
0.0
 11
1767.999992
 21
229.9999700000002
 31
0.0
  0
DIMENSION
  5
228
330
1F
100
AcDbEntity
  8
Ｓ_１_１
  6
CONTINUOUS
 62
     2
100
AcDbDimension
  2
*D21
 10
359.999935
 20
570.0
 30
0.0
 11
1064.9999675
 21
583.75
 31
0.0
 70
   160
  3
ISO-25
100
AcDbAlignedDimension
 13
1770.0
 23
367.99997699998
 33
0.0
 14
359.999935
 24
324.999753
 34
0.0
100
AcDbRotatedDimension
1001
ACAD
1000
DSTYLE
1002
{
1070
   270
1070
     2
1070
     6
1000
EX_NORM
1070
     7
1000
EX_NORM
1070
    41
1040
15.0
1070
    42
1040
7.5
1070
    44
1040
5.0
1070
    73
1070
     0
1070
    74
1070
     0
1070
    75
1070
     0
1070
    76
1070
     0
1070
    77
1070
     1
1070
    78
1070
     8
1070
   140
1040
17.3145207852194
1070
   147
1040
0.0
1070
   173
1070
     1
1070
   176
1070
     2
1070
   177
1070
     2
1070
   178
1070
     2
1070
   271
1070
     2
1070
   277
1070
     2
1070
   279
1070
     2
1070
   280
1070
     0
1070
   287
1070
     5
1070
   340
1005
12D
1002
}
  0
DIMENSION
  5
235
330
1F
100
AcDbEntity
  8
Ｓ_１_１
  6
CONTINUOUS
 62
     2
100
AcDbDimension
  2
*D22
 10
494.999935
 20
150.0
 30
0.0
 11
457.499935
 21
163.75
 31
0.0
 70
   160
  3
ISO-25
100
AcDbAlignedDimension
 13
419.999935
 23
244.337525
 33
0.0
 14
494.999935
 24
256.698731
 34
0.0
100
AcDbRotatedDimension
1001
ACAD
1000
DSTYLE
1002
{
1070
   270
1070
     2
1070
     6
1000
EX_NORM
1070
     7
1000
EX_NORM
1070
    41
1040
15.0
1070
    42
1040
7.5
1070
    44
1040
5.0
1070
    73
1070
     0
1070
    74
1070
     0
1070
    75
1070
     0
1070
    76
1070
     0
1070
    77
1070
     1
1070
    78
1070
     8
1070
   140
1040
17.3145207852194
1070
   147
1040
0.0
1070
   173
1070
     1
1070
   176
1070
     2
1070
   177
1070
     2
1070
   178
1070
     2
1070
   271
1070
     2
1070
   277
1070
     2
1070
   279
1070
     2
1070
   280
1070
     0
1070
   287
1070
     5
1070
   340
1005
12D
1002
}
  0
DIMENSION
  5
242
330
1F
100
AcDbEntity
  8
Ｓ_１_１
  6
CONTINUOUS
 62
     2
100
AcDbDimension
  2
*D23
 10
784.999996
 20
120.0
 30
0.0
 11
602.4999655
 21
133.75
 31
0.0
 70
   160
  3
ISO-25
100
AcDbAlignedDimension
 13
419.999935
 23
236.837525
 33
0.0
 14
784.999996
 24
261.528778
 34
0.0
100
AcDbRotatedDimension
1001
ACAD
1000
DSTYLE
1002
{
1070
   270
1070
     2
1070
     6
1000
EX_NORM
1070
     7
1000
EX_NORM
1070
    41
1040
15.0
1070
    42
1040
7.5
1070
    44
1040
5.0
1070
    73
1070
     0
1070
    74
1070
     0
1070
    75
1070
     0
1070
    76
1070
     0
1070
    77
1070
     1
1070
    78
1070
     8
1070
   140
1040
17.3145207852194
1070
   147
1040
0.0
1070
   173
1070
     1
1070
   176
1070
     2
1070
   177
1070
     2
1070
   178
1070
     2
1070
   271
1070
     2
1070
   277
1070
     2
1070
   279
1070
     2
1070
   280
1070
     0
1070
   287
1070
     5
1070
   340
1005
12D
1002
}
  0
DIMENSION
  5
24F
330
1F
100
AcDbEntity
  8
Ｓ_１_１
  6
CONTINUOUS
 62
     2
100
AcDbDimension
  2
*D24
 10
720.0
 20
234.99997
 30
0.0
 11
706.25
 21
299.9999849999999
 31
0.0
 70
   160
  1
     %%c130
  3
ISO-25
100
AcDbAlignedDimension
 13
662.9523194999999
 23
365.0
 33
0.0
 14
652.9999999999999
 24
234.99997
 34
0.0
 50
90.0
100
AcDbRotatedDimension
1001
ACAD
1000
DSTYLE
1002
{
1070
   270
1070
     2
1070
     6
1000
EX_NORM
1070
     7
1000
EX_NORM
1070
    41
1040
15.0
1070
    42
1040
0.0
1070
    44
1040
0.0
1070
    73
1070
     0
1070
    74
1070
     0
1070
    75
1070
     1
1070
    76
1070
     1
1070
    77
1070
     1
1070
    78
1070
     8
1070
   140
1040
17.3145207852194
1070
   147
1040
0.0
1070
   173
1070
     1
1070
   176
1070
     2
1070
   177
1070
     2
1070
   178
1070
     2
1070
   271
1070
     2
1070
   277
1070
     2
1070
   279
1070
     2
1070
   280
1070
     0
1070
   287
1070
     5
1070
   340
1005
12D
1002
}
  0
DIMENSION
  5
25A
330
1F
100
AcDbEntity
  8
Ｓ_１_１
  6
CONTINUOUS
 62
     2
100
AcDbDimension
  2
*D25
 10
1620.0
 20
370.000031
 30
0.0
 11
1606.25
 21
412.6811525
 31
0.0
 70
   160
  1
(85)
  3
ISO-25
100
AcDbAlignedDimension
 13
1688.000003
 23
455.362274
 33
0.0
 14
1692.047649
 24
370.000031
 34
0.0
 50
90.0
100
AcDbRotatedDimension
1001
ACAD
1000
DSTYLE
1002
{
1070
   270
1070
     2
1070
     6
1000
EX_NORM
1070
     7
1000
EX_NORM
1070
    41
1040
15.0
1070
    42
1040
7.5
1070
    44
1040
5.0
1070
    73
1070
     0
1070
    74
1070
     0
1070
    75
1070
     0
1070
    76
1070
     1
1070
    77
1070
     1
1070
    78
1070
     8
1070
   140
1040
17.3145207852194
1070
   147
1040
0.0
1070
   173
1070
     1
1070
   176
1070
     2
1070
   177
1070
     2
1070
   178
1070
     2
1070
   271
1070
     2
1070
   277
1070
     2
1070
   279
1070
     2
1070
   280
1070
     0
1070
   287
1070
     5
1070
   340
1005
12D
1002
}
  0
DIMENSION
  5
266
330
1F
100
AcDbEntity
  8
Ｓ_１_１
  6
CONTINUOUS
 62
     2
100
AcDbDimension
  2
*D26
 10
1860.0
 20
370.000031
 30
0.0
 11
1846.25
 21
300.0000004999999
 31
0.0
 70
   160
  1
%%c140
  3
ISO-25
100
AcDbAlignedDimension
 13
1767.999992
 23
229.99997
 33
0.0
 14
1767.999992
 24
370.000031
 34
0.0
 50
90.0
100
AcDbRotatedDimension
1001
ACAD
1000
DSTYLE
1002
{
1070
   270
1070
     2
1070
     6
1000
EX_NORM
1070
     7
1000
EX_NORM
1070
    41
1040
15.0
1070
    42
1040
7.5
1070
    44
1040
5.0
1070
    73
1070
     0
1070
    74
1070
     0
1070
    75
1070
     0
1070
    76
1070
     0
1070
    77
1070
     1
1070
    78
1070
     8
1070
   140
1040
17.3145207852194
1070
   147
1040
0.0
1070
   173
1070
     1
1070
   176
1070
     2
1070
   177
1070
     2
1070
   178
1070
     2
1070
   271
1070
     2
1070
   277
1070
     2
1070
   279
1070
     2
1070
   280
1070
     0
1070
   287
1070
     5
1070
   340
1005
12D
1002
}
  0
DIMENSION
  5
273
330
1F
100
AcDbEntity
  8
Ｓ_１_１
  6
CONTINUOUS
 62
     2
100
AcDbDimension
  2
*D27
 10
300.0
 20
350.0
 30
0.0
 11
286.25
 21
300.0
 31
0.0
 70
   160
  3
ISO-25
100
AcDbAlignedDimension
 13
384.999935
 23
250.0
 33
0.0
 14
384.999935
 24
350.0
 34
0.0
 50
90.0
100
AcDbRotatedDimension
1001
ACAD
1000
DSTYLE
1002
{
1070
   270
1070
     2
1070
     6
1000
EX_NORM
1070
     7
1000
EX_NORM
1070
    41
1040
15.0
1070
    42
1040
7.5
1070
    44
1040
5.0
1070
    73
1070
     0
1070
    74
1070
     0
1070
    75
1070
     0
1070
    76
1070
     0
1070
    77
1070
     1
1070
    78
1070
     8
1070
   140
1040
17.3145207852194
1070
   147
1040
0.0
1070
   173
1070
     1
1070
   176
1070
     2
1070
   177
1070
     2
1070
   178
1070
     2
1070
   271
1070
     2
1070
   277
1070
     2
1070
   279
1070
     2
1070
   280
1070
     0
1070
   287
1070
     5
1070
   340
1005
12D
1002
}
  0
DIMENSION
  5
280
330
1F
100
AcDbEntity
  8
Ｓ_１_１
  6
CONTINUOUS
 62
     2
100
AcDbDimension
  2
*D28
 10
505.0
 20
1170.0
 30
0.0
 11
480.0000000000001
 21
1183.75
 31
0.0
 70
   160
  3
ISO-25
100
AcDbAlignedDimension
 13
455.0
 23
1063.3012701892
 33
0.0
 14
505.0
 24
1063.3012701892
 34
0.0
100
AcDbRotatedDimension
1001
ACAD
1000
DSTYLE
1002
{
1070
   270
1070
     2
1070
     6
1000
EX_NORM
1070
     7
1000
EX_NORM
1070
    41
1040
15.0
1070
    42
1040
7.5
1070
    44
1040
5.0
1070
    73
1070
     0
1070
    74
1070
     0
1070
    75
1070
     0
1070
    76
1070
     0
1070
    77
1070
     1
1070
    78
1070
     8
1070
   140
1040
17.3145207852194
1070
   147
1040
0.0
1070
   173
1070
     1
1070
   176
1070
     2
1070
   177
1070
     2
1070
   178
1070
     2
1070
   271
1070
     2
1070
   277
1070
     2
1070
   279
1070
     2
1070
   280
1070
     0
1070
   287
1070
     5
1070
   340
1005
12D
1002
}
  0
DIMENSION
  5
28D
330
1F
100
AcDbEntity
  8
Ｓ_１_１
  6
CONTINUOUS
 62
     2
100
AcDbDimension
  2
*D29
 10
560.0
 20
1200.0
 30
0.0
 11
480.0000000000001
 21
1213.75
 31
0.0
 70
   160
  3
ISO-25
100
AcDbAlignedDimension
 13
400.0
 23
1070.6757137937
 33
0.0
 14
560.0
 24
1070.675764801
 34
0.0
100
AcDbRotatedDimension
1001
ACAD
1000
DSTYLE
1002
{
1070
   270
1070
     2
1070
     6
1000
EX_NORM
1070
     7
1000
EX_NORM
1070
    41
1040
15.0
1070
    42
1040
7.5
1070
    44
1040
5.0
1070
    73
1070
     0
1070
    74
1070
     0
1070
    75
1070
     1
1070
    76
1070
     0
1070
    77
1070
     1
1070
    78
1070
     8
1070
   140
1040
17.3145207852194
1070
   147
1040
0.0
1070
   173
1070
     1
1070
   176
1070
     2
1070
   177
1070
     2
1070
   178
1070
     2
1070
   271
1070
     2
1070
   277
1070
     2
1070
   279
1070
     2
1070
   280
1070
     0
1070
   287
1070
     5
1070
   340
1005
12D
1002
}
  0
DIMENSION
  5
299
330
1F
100
AcDbEntity
  8
Ｓ_１_１
  6
CONTINUOUS
 62
     2
100
AcDbDimension
  2
*D30
 10
400.0
 20
1170.0
 30
0.0
 11
420.6250000000001
 21
1183.75
 31
0.0
 70
   160
  3
ISO-25
100
AcDbAlignedDimension
 13
398.000122
 23
1055.0
 33
0.0
 14
400.0
 24
1070.6757137937
 34
0.0
100
AcDbRotatedDimension
1001
ACAD
1000
DSTYLE
1002
{
1070
   270
1070
     2
1070
     6
1000
EX_BCIR
1070
     7
1000
EX_NORM
1070
    41
1040
5.0
1070
    42
1040
0.0
1070
    44
1040
0.0
1070
    73
1070
     0
1070
    74
1070
     0
1070
    75
1070
     1
1070
    76
1070
     1
1070
    77
1070
     1
1070
    78
1070
     8
1070
   140
1040
17.3145207852194
1070
   147
1040
0.0
1070
   173
1070
     1
1070
   176
1070
     2
1070
   177
1070
     2
1070
   178
1070
     2
1070
   271
1070
     2
1070
   277
1070
     2
1070
   279
1070
     2
1070
   280
1070
     2
1070
   287
1070
     5
1070
   340
1005
12D
1002
}
  0
DIMENSION
  5
2A6
330
1F
100
AcDbEntity
  8
Ｓ_１_１
  6
CONTINUOUS
 62
     2
100
AcDbDimension
  2
*D31
 10
270.0000000000001
 20
985.0
 30
0.0
 11
256.2500000000002
 21
1020.0
 31
0.0
 70
   160
  1
%%c70
  3
ISO-25
100
AcDbAlignedDimension
 13
398.0001220000001
 23
1055.0
 33
0.0
 14
398.0001220000001
 24
985.0
 34
0.0
 50
90.0
100
AcDbRotatedDimension
1001
ACAD
1000
DSTYLE
1002
{
1070
   270
1070
     2
1070
     6
1000
EX_NORM
1070
     7
1000
EX_NORM
1070
    41
1040
15.0
1070
    42
1040
7.5
1070
    44
1040
5.000000000000227
1070
    73
1070
     0
1070
    74
1070
     0
1070
    75
1070
     0
1070
    76
1070
     0
1070
    77
1070
     1
1070
    78
1070
     8
1070
   140
1040
17.3145207852194
1070
   147
1040
0.0
1070
   173
1070
     1
1070
   176
1070
     2
1070
   177
1070
     2
1070
   178
1070
     2
1070
   271
1070
     2
1070
   277
1070
     2
1070
   279
1070
     2
1070
   280
1070
     0
1070
   287
1070
     5
1070
   340
1005
12D
1002
}
  0
DIMENSION
  5
2B3
330
1F
100
AcDbEntity
  8
Ｓ_１_１
  6
CONTINUOUS
 62
     2
100
AcDbDimension
  2
*D32
 10
240.0000000000001
 20
969.3243272638
 30
0.0
 11
226.2500000000001
 21
1020.00002052875
 31
0.0
 70
   160
  1
101
  3
ISO-25
100
AcDbAlignedDimension
 13
400.0
 23
1070.6757137937
 33
0.0
 14
400.0
 24
969.3243272638
 34
0.0
 50
90.0
100
AcDbRotatedDimension
1001
ACAD
1000
DSTYLE
1002
{
1070
   270
1070
     2
1070
     6
1000
EX_NORM
1070
     7
1000
EX_NORM
1070
    41
1040
15.0
1070
    42
1040
7.5
1070
    44
1040
5.000000000000284
1070
    73
1070
     0
1070
    74
1070
     0
1070
    75
1070
     0
1070
    76
1070
     0
1070
    77
1070
     1
1070
    78
1070
     8
1070
   140
1040
17.3145207852194
1070
   147
1040
0.0
1070
   173
1070
     1
1070
   176
1070
     2
1070
   177
1070
     2
1070
   178
1070
     2
1070
   271
1070
     2
1070
   277
1070
     2
1070
   279
1070
     2
1070
   280
1070
     0
1070
   287
1070
     5
1070
   340
1005
12D
1002
}
  0
LINE
  5
2C0
330
1F
100
AcDbEntity
  8
Ｓ_１_１
  6
CONTINUOUS
 62
     2
100
AcDbLine
 10
300.0000000000007
 20
1141.64999961853
 30
0.0
 11
300.0
 21
965.0
 31
0.0
  0
LINE
  5
2C1
330
1F
100
AcDbEntity
  8
Ｓ_１_１
  6
CONTINUOUS
 62
     2
100
AcDbLine
 10
297.5000000000003
 20
1065.0
 30
0.0
 11
300.0000000000003
 21
1050.0
 31
0.0
  0
LINE
  5
2C2
330
1F
100
AcDbEntity
  8
Ｓ_１_１
  6
CONTINUOUS
 62
     2
100
AcDbLine
 10
300.0000000000003
 20
1050.0
 30
0.0
 11
302.5000000000003
 21
1065.0
 31
0.0
  0
LINE
  5
2C3
330
1F
100
AcDbEntity
  8
Ｓ_１_１
  6
CONTINUOUS
 62
     2
100
AcDbLine
 10
302.5
 20
975.0
 30
0.0
 11
300.0000000000001
 21
990.0
 31
0.0
  0
LINE
  5
2C4
330
1F
100
AcDbEntity
  8
Ｓ_１_１
  6
CONTINUOUS
 62
     2
100
AcDbLine
 10
300.0000000000001
 20
990.0
 30
0.0
 11
297.5
 21
975.0
 31
0.0
  0
TEXT
  5
2C5
330
1F
100
AcDbEntity
  8
Ｓ_１_１
  6
CONTINUOUS
 62
     2
100
AcDbText
 10
294.3359375000003
 20
1073.7
 30
0.0
 40
17.3145207852194
  1
φ60
 50
90.0
 41
0.999230769230769
  7
EXCADTTF1
 72
     5
 11
294.3359375000003
 21
1118.7
 31
0.0
100
AcDbText
  0
TEXT
  5
2C6
330
1F
100
AcDbEntity
  8
Ｓ_１_１
  6
CONTINUOUS
 62
     2
100
AcDbText
 10
284.6679687500003
 20
1118.7
 30
0.0
 40
8.6572603926097
  1
-0.1
 50
90.0
 41
0.999230769230769
  7
EXCADTTF1
 72
     5
 11
284.6679687500003
 21
1141.2
 31
0.0
100
AcDbText
  0
TEXT
  5
2C7
330
1F
100
AcDbEntity
  8
Ｓ_１_１
  6
CONTINUOUS
 62
     2
100
AcDbText
 10
295.9179687500003
 20
1118.7
 30
0.0
 40
8.6572603926097
  1
-0.2
 50
90.0
 41
0.999230769230769
  7
EXCADTTF1
 72
     5
 11
295.9179687500003
 21
1141.2
 31
0.0
100
AcDbText
  0
LINE
  5
2C8
330
1F
100
AcDbEntity
  8
Ｓ_１_１
  6
CONTINUOUS
 62
     2
100
AcDbLine
 10
359.5000000000001
 20
1050.0
 30
0.0
 11
295.0000000000002
 21
1050.0
 31
0.0
  0
LINE
  5
2C9
330
1F
100
AcDbEntity
  8
Ｓ_１_１
  6
CONTINUOUS
 62
     2
100
AcDbLine
 10
359.5000000000001
 20
990.0
 30
0.0
 11
295.0000000000002
 21
990.0
 31
0.0
  0
LINE
  5
2CA
330
1F
100
AcDbEntity
  8
Ｓ_１_１
  6
EXLTYPE2
 62
     1
100
AcDbLine
 10
1705.0
 20
762.5
 30
0.0
 11
1705.0
 21
737.5
 31
0.0
  0
CIRCLE
  5
2CB
330
1F
100
AcDbEntity
  8
Ｓ_１_１
  6
CONTINUOUS
 62
     3
100
AcDbCircle
 10
1705.0
 20
750.0
 30
0.0
 40
16.00008
  0
CIRCLE
  5
2CC
330
1F
100
AcDbEntity
  8
Ｓ_１_１
  6
CONTINUOUS
 62
     3
100
AcDbCircle
 10
1705.0
 20
750.0
 30
0.0
 40
12.999939
  0
CIRCLE
  5
2CD
330
1F
100
AcDbEntity
  8
Ｓ_１_１
  6
CONTINUOUS
 62
     3
100
AcDbCircle
 10
1705.0
 20
750.0
 30
0.0
 40
12.00002
  0
LINE
  5
2CE
330
1F
100
AcDbEntity
  8
Ｓ_１_１
  6
CONTINUOUS
 62
     3
100
AcDbLine
 10
1768.000039
 20
819.9999880000001
 30
0.0
 11
1769.999998
 21
818.0000289999999
 31
0.0
  0
LINE
  5
2CF
330
1F
100
AcDbEntity
  8
Ｓ_１_１
  6
CONTINUOUS
 62
     3
100
AcDbLine
 10
1768.000011
 20
680.000049
 30
0.0
 11
1770.000013
 21
682.000052
 31
0.0
  0
LINE
  5
2D0
330
1F
100
AcDbEntity
  8
Ｓ_１_１
  6
CONTINUOUS
 62
     3
100
AcDbLine
 10
1767.999992
 20
820.0000000000001
 30
0.0
 11
1767.999992
 21
680.0
 31
0.0
  0
LINE
  5
2D1
330
1F
100
AcDbEntity
  8
Ｓ_１_１
  6
CONTINUOUS
 62
     3
100
AcDbLine
 10
1770.0
 20
817.999939
 30
0.0
 11
1770.0
 21
682.0
 31
0.0
  0
LINE
  5
2D2
330
1F
100
AcDbEntity
  8
Ｓ_１_１
  6
EXLTYPE2
 62
     1
100
AcDbLine
 10
529.999935
 20
756.737427
 30
0.0
 11
529.999935
 21
742.5624389999999
 31
0.0
  0
LINE
  5
2D3
330
1F
100
AcDbEntity
  8
Ｓ_１_１
  6
EXLTYPE2
 62
     1
100
AcDbLine
 10
565.999935
 20
718.9124760000001
 30
0.0
 11
565.999935
 21
709.637451
 31
0.0
  0
LINE
  5
2D4
330
1F
100
AcDbEntity
  8
Ｓ_１_１
  6
EXLTYPE2
 62
     1
100
AcDbLine
 10
565.999935
 20
755.3374019999999
 30
0.0
 11
565.999935
 21
745.362427
 31
0.0
  0
LINE
  5
2D5
330
1F
100
AcDbEntity
  8
Ｓ_１_１
  6
EXLTYPE2
 62
     1
100
AcDbLine
 10
565.999935
 20
790.5374760000001
 30
0.0
 11
565.999935
 21
781.2623900000001
 31
0.0
  0
LINE
  5
2D6
330
1F
100
AcDbEntity
  8
Ｓ_１_１
  6
EXLTYPE2
 62
     1
100
AcDbLine
 10
419.9999350000001
 20
780.0
 30
0.0
 11
419.9999350000001
 21
720.0
 31
0.0
  0
CIRCLE
  5
2D7
330
1F
100
AcDbEntity
  8
Ｓ_１_１
  6
CONTINUOUS
 62
     3
100
AcDbCircle
 10
784.999996
 20
750.0
 30
0.0
 40
4.0
  0
CIRCLE
  5
2D8
330
1F
100
AcDbEntity
  8
Ｓ_１_１
  6
CONTINUOUS
 62
     3
100
AcDbCircle
 10
784.999996
 20
750.0
 30
0.0
 40
5.0
  0
CIRCLE
  5
2D9
330
1F
100
AcDbEntity
  8
Ｓ_１_１
  6
CONTINUOUS
 62
     3
100
AcDbCircle
 10
529.999935
 20
750.0
 30
0.0
 40
3.300000000000001
  0
CIRCLE
  5
2DA
330
1F
100
AcDbEntity
  8
Ｓ_１_１
  6
CONTINUOUS
 62
     3
100
AcDbCircle
 10
529.999935
 20
750.0
 30
0.0
 40
4.0
  0
CIRCLE
  5
2DB
330
1F
100
AcDbEntity
  8
Ｓ_１_１
  6
CONTINUOUS
 62
     3
100
AcDbCircle
 10
565.999935
 20
750.0
 30
0.0
 40
4.0
  0
LINE
  5
2DC
330
1F
100
AcDbEntity
  8
Ｓ_１_１
  6
CONTINUOUS
 62
     3
100
AcDbLine
 10
549.999935
 20
800.0
 30
0.0
 11
549.999935
 21
700.0
 31
0.0
  0
LINE
  5
2DD
330
1F
100
AcDbEntity
  8
Ｓ_１_１
  6
CONTINUOUS
 62
     3
100
AcDbLine
 10
555.000004
 20
794.999948
 30
0.0
 11
549.999933
 21
800.0000180000001
 31
0.0
  0
LINE
  5
2DE
330
1F
100
AcDbEntity
  8
Ｓ_１_１
  6
CONTINUOUS
 62
     3
100
AcDbLine
 10
549.999937
 20
699.999994
 30
0.0
 11
554.999943
 21
705.0
 31
0.0
  0
LINE
  5
2DF
330
1F
100
AcDbEntity
  8
Ｓ_１_１
  6
CONTINUOUS
 62
     3
100
AcDbLine
 10
554.999935
 20
715.9999389999999
 30
0.0
 11
555.999935
 21
715.9999389999999
 31
0.0
  0
LINE
  5
2E0
330
1F
100
AcDbEntity
  8
Ｓ_１_１
  6
CONTINUOUS
 62
     3
100
AcDbLine
 10
556.999935
 20
788.999939
 30
0.0
 11
556.999935
 21
710.9999389999999
 31
0.0
  0
LINE
  5
2E1
330
1F
100
AcDbEntity
  8
Ｓ_１_１
  6
CONTINUOUS
 62
     3
100
AcDbLine
 10
494.9999350000001
 20
725.0
 30
0.0
 11
494.9999350000001
 21
700.0
 31
0.0
  0
LINE
  5
2E2
330
1F
100
AcDbEntity
  8
Ｓ_１_１
  6
CONTINUOUS
 62
     3
100
AcDbLine
 10
494.9999350000001
 20
700.0
 30
0.0
 11
549.999935
 21
700.0
 31
0.0
  0
LINE
  5
2E3
330
1F
100
AcDbEntity
  8
Ｓ_１_１
  6
CONTINUOUS
 62
     3
100
AcDbLine
 10
494.9999350000001
 20
800.0
 30
0.0
 11
549.999935
 21
800.0
 31
0.0
  0
LINE
  5
2E4
330
1F
100
AcDbEntity
  8
Ｓ_１_１
  6
CONTINUOUS
 62
     3
100
AcDbLine
 10
494.9999350000001
 20
800.0
 30
0.0
 11
494.9999350000001
 21
775.0
 31
0.0
  0
LINE
  5
2E5
330
1F
100
AcDbEntity
  8
Ｓ_１_１
  6
CONTINUOUS
 62
     3
100
AcDbLine
 10
554.999935
 20
795.0
 30
0.0
 11
554.999935
 21
705.0
 31
0.0
  0
LINE
  5
2E6
330
1F
100
AcDbEntity
  8
Ｓ_１_１
  6
CONTINUOUS
 62
     3
100
AcDbLine
 10
581.999935
 20
815.0000000000001
 30
0.0
 11
581.999935
 21
685.0
 31
0.0
  0
LINE
  5
2E7
330
1F
100
AcDbEntity
  8
Ｓ_１_１
  6
CONTINUOUS
 62
     3
100
AcDbLine
 10
580.0000050000001
 20
686.9999270000001
 30
0.0
 11
582.0000500000001
 21
684.999882
 31
0.0
  0
LINE
  5
2E8
330
1F
100
AcDbEntity
  8
Ｓ_１_１
  6
CONTINUOUS
 62
     3
100
AcDbLine
 10
582.000018
 20
814.999944
 30
0.0
 11
580.000016
 21
812.9999420000001
 31
0.0
  0
LINE
  5
2E9
330
1F
100
AcDbEntity
  8
Ｓ_１_１
  6
CONTINUOUS
 62
     3
100
AcDbLine
 10
581.999935
 20
685.0
 30
0.0
 11
744.999996
 21
685.0
 31
0.0
  0
LINE
  5
2EA
330
1F
100
AcDbEntity
  8
Ｓ_１_１
  6
CONTINUOUS
 62
     3
100
AcDbLine
 10
581.999935
 20
815.0000000000001
 30
0.0
 11
744.999996
 21
815.0000000000001
 31
0.0
  0
LINE
  5
2EB
330
1F
100
AcDbEntity
  8
Ｓ_１_１
  6
CONTINUOUS
 62
     3
100
AcDbLine
 10
579.999935
 20
813.0000610000002
 30
0.0
 11
579.999935
 21
686.999939
 31
0.0
  0
LINE
  5
2EC
330
1F
100
AcDbEntity
  8
Ｓ_１_１
  6
CONTINUOUS
 62
     3
100
AcDbLine
 10
749.999996
 20
830.0000000000001
 30
0.0
 11
749.999996
 21
831.9999389999999
 31
0.0
  0
LINE
  5
2ED
330
1F
100
AcDbEntity
  8
Ｓ_１_１
  6
CONTINUOUS
 62
     3
100
AcDbLine
 10
819.999996
 20
830.0000000000001
 30
0.0
 11
819.999996
 21
831.9999389999999
 31
0.0
  0
LINE
  5
2EE
330
1F
100
AcDbEntity
  8
Ｓ_１_１
  6
CONTINUOUS
 62
     3
100
AcDbLine
 10
819.999996
 20
831.9999389999999
 30
0.0
 11
749.999996
 21
831.9999389999999
 31
0.0
  0
LINE
  5
2EF
330
1F
100
AcDbEntity
  8
Ｓ_１_１
  6
CONTINUOUS
 62
     3
100
AcDbLine
 10
744.999996
 20
670.0
 30
0.0
 11
824.999996
 21
670.0
 31
0.0
  0
LINE
  5
2F0
330
1F
100
AcDbEntity
  8
Ｓ_１_１
  6
CONTINUOUS
 62
     3
100
AcDbLine
 10
744.999996
 20
830.0000000000001
 30
0.0
 11
824.999996
 21
830.0000000000001
 31
0.0
  0
LINE
  5
2F1
330
1F
100
AcDbEntity
  8
Ｓ_１_１
  6
CONTINUOUS
 62
     3
100
AcDbLine
 10
744.999996
 20
830.0000000000001
 30
0.0
 11
744.999996
 21
670.0
 31
0.0
  0
LINE
  5
2F2
330
1F
100
AcDbEntity
  8
Ｓ_１_１
  6
CONTINUOUS
 62
     3
100
AcDbLine
 10
824.999996
 20
830.0000000000001
 30
0.0
 11
824.999996
 21
670.0
 31
0.0
  0
LINE
  5
2F3
330
1F
100
AcDbEntity
  8
Ｓ_１_１
  6
CONTINUOUS
 62
     3
100
AcDbLine
 10
749.999996
 20
670.0
 30
0.0
 11
749.999996
 21
667.999939
 31
0.0
  0
LINE
  5
2F4
330
1F
100
AcDbEntity
  8
Ｓ_１_１
  6
CONTINUOUS
 62
     3
100
AcDbLine
 10
819.999996
 20
670.0
 30
0.0
 11
819.999996
 21
667.999939
 31
0.0
  0
LINE
  5
2F5
330
1F
100
AcDbEntity
  8
Ｓ_１_１
  6
CONTINUOUS
 62
     3
100
AcDbLine
 10
819.999996
 20
667.999939
 30
0.0
 11
749.999996
 21
667.999939
 31
0.0
  0
LINE
  5
2F6
330
1F
100
AcDbEntity
  8
Ｓ_１_１
  6
CONTINUOUS
 62
     3
100
AcDbLine
 10
554.999935
 20
783.999939
 30
0.0
 11
555.999935
 21
783.999939
 31
0.0
  0
LINE
  5
2F7
330
1F
100
AcDbEntity
  8
Ｓ_１_１
  6
CONTINUOUS
 62
     3
100
AcDbLine
 10
556.000033
 20
711.9998999999999
 30
0.0
 11
557.0000990000001
 21
710.9998340000001
 31
0.0
  0
LINE
  5
2F8
330
1F
100
AcDbEntity
  8
Ｓ_１_１
  6
CONTINUOUS
 62
     3
100
AcDbLine
 10
557.0000560000001
 20
788.9999170000001
 30
0.0
 11
556.000055
 21
787.999916
 31
0.0
  0
LINE
  5
2F9
330
1F
100
AcDbEntity
  8
Ｓ_１_１
  6
CONTINUOUS
 62
     3
100
AcDbLine
 10
555.999935
 20
787.999939
 30
0.0
 11
555.999935
 21
711.999939
 31
0.0
  0
LINE
  5
2FA
330
1F
100
AcDbEntity
  8
Ｓ_１_１
  6
CONTINUOUS
 62
     3
100
AcDbLine
 10
576.999935
 20
710.0
 30
0.0
 11
576.999935
 21
790.0
 31
0.0
  0
LINE
  5
2FB
330
1F
100
AcDbEntity
  8
Ｓ_１_１
  6
CONTINUOUS
 62
     3
100
AcDbLine
 10
575.267879
 20
788.999939
 30
0.0
 11
575.267879
 21
710.9999389999999
 31
0.0
  0
LINE
  5
2FC
330
1F
100
AcDbEntity
  8
Ｓ_１_１
  6
CONTINUOUS
 62
     3
100
AcDbLine
 10
575.267994
 20
710.9999200000001
 30
0.0
 11
577.000045
 21
709.99992
 31
0.0
  0
LINE
  5
2FD
330
1F
100
AcDbEntity
  8
Ｓ_１_１
  6
CONTINUOUS
 62
     3
100
AcDbLine
 10
577.0
 20
789.9999300000002
 30
0.0
 11
575.267975
 21
788.9999460000001
 31
0.0
  0
LINE
  5
2FE
330
1F
100
AcDbEntity
  8
Ｓ_１_１
  6
CONTINUOUS
 62
     3
100
AcDbLine
 10
556.999935
 20
788.999939
 30
0.0
 11
575.267879
 21
788.999939
 31
0.0
  0
LINE
  5
2FF
330
1F
100
AcDbEntity
  8
Ｓ_１_１
  6
CONTINUOUS
 62
     3
100
AcDbLine
 10
556.999935
 20
710.9999389999999
 30
0.0
 11
575.267879
 21
710.9999389999999
 31
0.0
  0
LINE
  5
300
330
1F
100
AcDbEntity
  8
Ｓ_１_１
  6
CONTINUOUS
 62
     3
100
AcDbLine
 10
576.999935
 20
710.0
 30
0.0
 11
579.999935
 21
710.0
 31
0.0
  0
LINE
  5
301
330
1F
100
AcDbEntity
  8
Ｓ_１_１
  6
CONTINUOUS
 62
     3
100
AcDbLine
 10
576.999935
 20
790.0
 30
0.0
 11
579.999935
 21
790.0
 31
0.0
  0
LINE
  5
302
330
1F
100
AcDbEntity
  8
Ｓ_１_１
  6
EXLTYPE2
 62
     1
100
AcDbLine
 10
353.6000000000001
 20
750.0
 30
0.0
 11
1785.499996
 21
750.0000000000002
 31
0.0
  0
LINE
  5
303
330
1F
100
AcDbEntity
  8
Ｓ_１_１
  6
CONTINUOUS
 62
     3
100
AcDbLine
 10
359.9999350000001
 20
775.0
 30
0.0
 11
359.9999350000001
 21
725.0
 31
0.0
  0
LINE
  5
304
330
1F
100
AcDbEntity
  8
Ｓ_１_１
  6
CONTINUOUS
 62
     3
100
AcDbLine
 10
359.9999350000001
 20
775.0
 30
0.0
 11
494.9999350000001
 21
775.0
 31
0.0
  0
LINE
  5
305
330
1F
100
AcDbEntity
  8
Ｓ_１_１
  6
CONTINUOUS
 62
     3
100
AcDbLine
 10
359.9999350000001
 20
725.0
 30
0.0
 11
494.9999350000001
 21
725.0
 31
0.0
  0
LINE
  5
306
330
1F
100
AcDbEntity
  8
Ｓ_１_１
  6
CONTINUOUS
 62
     3
100
AcDbLine
 10
385.000182
 20
725.0
 30
0.0
 11
385.000182
 21
775.0
 31
0.0
  0
LINE
  5
307
330
1F
100
AcDbEntity
  8
Ｓ_１_１
  6
EXLTYPE0
 62
     2
100
AcDbLine
 10
389.9999350000001
 20
725.0
 30
0.0
 11
389.9999350000001
 21
775.0
 31
0.0
  0
LINE
  5
308
330
1F
100
AcDbEntity
  8
Ｓ_１_１
  6
EXLTYPE0
 62
     2
100
AcDbLine
 10
449.9999350000001
 20
725.0
 30
0.0
 11
449.9999350000001
 21
775.0
 31
0.0
  0
LINE
  5
309
330
1F
100
AcDbEntity
  8
Ｓ_１_１
  6
EXLTYPE2
 62
     1
100
AcDbLine
 10
480.0
 20
1107.762512
 30
0.0
 11
480.0
 21
932.7625119999999
 31
0.0
  0
ARC
  5
30A
330
1F
100
AcDbEntity
  8
Ｓ_１_１
  6
CONTINUOUS
 62
     3
100
AcDbCircle
 10
480.0
 20
1020.0
 30
0.0
 40
82.5
100
AcDbArc
 50
61.75659
 51
118.243415
  0
ARC
  5
30B
330
1F
100
AcDbEntity
  8
Ｓ_１_１
  6
CONTINUOUS
 62
     3
100
AcDbCircle
 10
480.0
 20
1020.0
 30
0.0
 40
82.5
100
AcDbArc
 50
241.756585
 51
298.2434100000002
  0
CIRCLE
  5
30C
330
1F
100
AcDbEntity
  8
Ｓ_１_１
  6
CONTINUOUS
 62
     3
100
AcDbCircle
 10
480.0
 20
1020.0
 30
0.0
 40
65.0
  0
CIRCLE
  5
30D
330
1F
100
AcDbEntity
  8
Ｓ_１_１
  6
CONTINUOUS
 62
     3
100
AcDbCircle
 10
480.0
 20
1020.0
 30
0.0
 40
25.00000000000002
  0
CIRCLE
  5
30E
330
1F
100
AcDbEntity
  8
Ｓ_１_１
  6
CONTINUOUS
 62
     3
100
AcDbCircle
 10
480.0
 20
1020.0
 30
0.0
 40
50.00000000000004
  0
LINE
  5
30F
330
1F
100
AcDbEntity
  8
Ｓ_１_１
  6
CONTINUOUS
 62
     3
100
AcDbLine
 10
560.0001030000001
 20
969.3242620000001
 30
0.0
 11
519.040563
 21
947.3219770000001
 31
0.0
  0
LINE
  5
310
330
1F
100
AcDbEntity
  8
Ｓ_１_１
  6
CONTINUOUS
 62
     3
100
AcDbLine
 10
400.000034
 20
969.3243090000001
 30
0.0
 11
440.9595750000001
 21
947.322024
 31
0.0
  0
LINE
  5
311
330
1F
100
AcDbEntity
  8
Ｓ_１_１
  6
CONTINUOUS
 62
     3
100
AcDbLine
 10
400.0000190000001
 20
1070.675724
 30
0.0
 11
440.9595059999999
 21
1092.67798
 31
0.0
  0
LINE
  5
312
330
1F
100
AcDbEntity
  8
Ｓ_１_１
  6
CONTINUOUS
 62
     3
100
AcDbLine
 10
560.000035
 20
1070.675746
 30
0.0
 11
519.0406029999999
 21
1092.677973
 31
0.0
  0
LINE
  5
313
330
1F
100
AcDbEntity
  8
Ｓ_１_１
  6
CONTINUOUS
 62
     3
100
AcDbLine
 10
560.0
 20
1070.675736
 30
0.0
 11
560.0
 21
969.3242489999998
 31
0.0
  0
LINE
  5
314
330
1F
100
AcDbEntity
  8
Ｓ_１_１
  6
CONTINUOUS
 62
     3
100
AcDbLine
 10
560.0
 20
985.0
 30
0.0
 11
562.000061
 21
985.0
 31
0.0
  0
LINE
  5
315
330
1F
100
AcDbEntity
  8
Ｓ_１_１
  6
CONTINUOUS
 62
     3
100
AcDbLine
 10
560.0
 20
1055.0
 30
0.0
 11
562.000061
 21
1055.0
 31
0.0
  0
LINE
  5
316
330
1F
100
AcDbEntity
  8
Ｓ_１_１
  6
CONTINUOUS
 62
     3
100
AcDbLine
 10
562.000061
 20
1055.0
 30
0.0
 11
562.000061
 21
985.0
 31
0.0
  0
LINE
  5
317
330
1F
100
AcDbEntity
  8
Ｓ_１_１
  6
CONTINUOUS
 62
     3
100
AcDbLine
 10
400.0
 20
985.0
 30
0.0
 11
398.000122
 21
985.0
 31
0.0
  0
LINE
  5
318
330
1F
100
AcDbEntity
  8
Ｓ_１_１
  6
CONTINUOUS
 62
     3
100
AcDbLine
 10
400.0
 20
1055.0
 30
0.0
 11
398.000122
 21
1055.0
 31
0.0
  0
LINE
  5
319
330
1F
100
AcDbEntity
  8
Ｓ_１_１
  6
CONTINUOUS
 62
     3
100
AcDbLine
 10
398.000122
 20
1055.0
 30
0.0
 11
398.000122
 21
985.0
 31
0.0
  0
LINE
  5
31A
330
1F
100
AcDbEntity
  8
Ｓ_１_１
  6
CONTINUOUS
 62
     3
100
AcDbLine
 10
400.0
 20
1070.675736
 30
0.0
 11
400.0
 21
969.3242879999998
 31
0.0
  0
LINE
  5
31B
330
1F
100
AcDbEntity
  8
Ｓ_１_１
  6
CONTINUOUS
 62
     3
100
AcDbLine
 10
455.0
 20
1063.30127
 30
0.0
 11
455.0
 21
976.6987460000001
 31
0.0
  0
LINE
  5
31C
330
1F
100
AcDbEntity
  8
Ｓ_１_１
  6
CONTINUOUS
 62
     3
100
AcDbLine
 10
505.0
 20
1063.30127
 30
0.0
 11
505.0
 21
976.6987460000001
 31
0.0
  0
LINE
  5
31D
330
1F
100
AcDbEntity
  8
Ｓ_１_１
  6
CONTINUOUS
 62
     3
100
AcDbLine
 10
444.0000000000001
 20
1267.5
 30
0.0
 11
522.0
 21
1267.5
 31
0.0
  0
DIMENSION
  5
31E
330
1F
100
AcDbEntity
  8
Ｓ_１_１
  6
CONTINUOUS
 62
     2
100
AcDbDimension
  2
*D33
 10
441.2131384355965
 20
321.2132034355965
 30
0.0
 11
325.5863437934249
 21
225.0318452760548
 31
0.0
 70
   163
  3
ISO-25
100
AcDbDiametricDimension
 15
398.7867315644036
 25
278.7867965644036
 35
0.0
 40
0.0
1001
ACAD
1000
DSTYLE
1002
{
1070
   270
1070
     2
1070
     6
1000
EX_NORM
1070
     7
1000
EX_NORM
1070
    41
1040
15.0
1070
    73
1070
     0
1070
    74
1070
     0
1070
    77
1070
     1
1070
    78
1070
     8
1070
   140
1040
17.3145207852194
1070
   147
1040
0.0
1070
   173
1070
     1
1070
   176
1070
     2
1070
   177
1070
     2
1070
   178
1070
     2
1070
   271
1070
     2
1070
   277
1070
     2
1070
   279
1070
     2
1070
   280
1070
     0
1070
   287
1070
     5
1070
   340
1005
12D
1002
}
  0
TEXT
  5
329
330
1F
100
AcDbEntity
  8
Ｓ_１_１
  6
CONTINUOUS
 62
     4
100
AcDbText
 10
178.0
 20
303.1640625
 30
0.0
 40
17.3145207852194
  1
A
 41
0.999230769230769
  7
EXCADTTF1
 72
     5
 11
189.25
 21
303.1640625
 31
0.0
100
AcDbText
  0
LEADER
  5
32A
330
1F
100
AcDbEntity
  8
Ｓ_１_１
  6
CONTINUOUS
 62
     2
100
AcDbLeader
  3
ISO-25
 76
     2
 10
210.0000000000001
 20
300.0
 30
0.0
 10
178.0000000000001
 20
300.0
 30
0.0
1001
ACAD
1000
DSTYLE
1002
{
1070
     5
1000
EX_NORM
1070
    41
1040
15.0
1070
   341
1005
79
1002
}
  0
TEXT
  5
32B
330
1F
100
AcDbEntity
  8
Ｓ_１_１
  6
CONTINUOUS
 62
     4
100
AcDbText
 10
444.0000000000001
 20
1270.6640625
 30
0.0
 40
17.3145207852194
  1
A矢示図
 41
0.9992307692307684
  7
EXCADTTF1
 72
     5
 11
522.75
 21
1270.6640625
 31
0.0
100
AcDbText
  0
LINE
  5
32C
330
1F
100
AcDbEntity
  8
Ｓ_１_１
  6
CONTINUOUS
 62
     3
100
AcDbLine
 10
814.999996
 20
862.999939
 30
0.0
 11
754.999996
 21
862.999939
 31
0.0
  0
LINE
  5
32D
330
1F
100
AcDbEntity
  8
Ｓ_１_１
  6
CONTINUOUS
 62
     3
100
AcDbLine
 10
756.0001480000001
 20
863.9998080000004
 30
0.0
 11
755.000153
 21
862.9998130000001
 31
0.0
  0
LINE
  5
32E
330
1F
100
AcDbEntity
  8
Ｓ_１_１
  6
CONTINUOUS
 62
     3
100
AcDbLine
 10
814.0000700000002
 20
863.9998840000001
 30
0.0
 11
815.000049
 21
862.9999040000001
 31
0.0
  0
LINE
  5
32F
330
1F
100
AcDbEntity
  8
Ｓ_１_１
  6
CONTINUOUS
 62
     3
100
AcDbLine
 10
813.999996
 20
864.0000000000003
 30
0.0
 11
755.999935
 21
864.0000000000003
 31
0.0
  0
LINE
  5
330
330
1F
100
AcDbEntity
  8
Ｓ_１_１
  6
CONTINUOUS
 62
     3
100
AcDbLine
 10
814.999996
 20
636.999939
 30
0.0
 11
754.999996
 21
636.999939
 31
0.0
  0
LINE
  5
331
330
1F
100
AcDbEntity
  8
Ｓ_１_１
  6
CONTINUOUS
 62
     3
100
AcDbLine
 10
756.000057
 20
635.9998720000001
 30
0.0
 11
755.000077
 21
636.999852
 31
0.0
  0
LINE
  5
332
330
1F
100
AcDbEntity
  8
Ｓ_１_１
  6
CONTINUOUS
 62
     3
100
AcDbLine
 10
814.0000749999999
 20
635.9998720000001
 30
0.0
 11
815.000082
 21
636.9998790000001
 31
0.0
  0
LINE
  5
333
330
1F
100
AcDbEntity
  8
Ｓ_１_１
  6
CONTINUOUS
 62
     3
100
AcDbLine
 10
813.999996
 20
635.999939
 30
0.0
 11
755.999935
 21
635.999939
 31
0.0
  0
LINE
  5
334
330
1F
100
AcDbEntity
  8
Ｓ_１_１
  6
CONTINUOUS
 62
     3
100
AcDbLine
 10
754.999996
 20
667.999939
 30
0.0
 11
754.999996
 21
636.999939
 31
0.0
  0
LINE
  5
335
330
1F
100
AcDbEntity
  8
Ｓ_１_１
  6
CONTINUOUS
 62
     3
100
AcDbLine
 10
814.999996
 20
667.999939
 30
0.0
 11
814.999996
 21
636.999939
 31
0.0
  0
LINE
  5
336
330
1F
100
AcDbEntity
  8
Ｓ_１_１
  6
CONTINUOUS
 62
     3
100
AcDbLine
 10
754.999996
 20
831.9999389999999
 30
0.0
 11
754.999996
 21
862.999939
 31
0.0
  0
LINE
  5
337
330
1F
100
AcDbEntity
  8
Ｓ_１_１
  6
CONTINUOUS
 62
     3
100
AcDbLine
 10
814.999996
 20
831.9999389999999
 30
0.0
 11
814.999996
 21
862.999939
 31
0.0
  0
LINE
  5
338
330
1F
100
AcDbEntity
  8
Ｓ_１_１
  6
EXLTYPE2
 62
     1
100
AcDbLine
 10
784.999996
 20
870.0
 30
0.0
 11
784.999996
 21
630.0
 31
0.0
  0
DIMENSION
  5
339
330
1F
100
AcDbEntity
  8
Ｓ_１_１
  6
CONTINUOUS
 62
     2
100
AcDbDimension
  2
*D34
 10
900.0
 20
667.999939
 30
0.0
 11
886.25
 21
749.999939
 31
0.0
 70
   160
  1
　　　164
  3
ISO-25
100
AcDbAlignedDimension
 13
819.999996
 23
831.999939
 33
0.0
 14
819.999996
 24
667.999939
 34
0.0
 50
90.0
100
AcDbRotatedDimension
1001
ACAD
1000
DSTYLE
1002
{
1070
   270
1070
     2
1070
     6
1000
EX_NORM
1070
     7
1000
EX_NORM
1070
    41
1040
15.0
1070
    42
1040
0.0
1070
    44
1040
0.0
1070
    73
1070
     0
1070
    74
1070
     0
1070
    75
1070
     1
1070
    76
1070
     1
1070
    77
1070
     1
1070
    78
1070
     8
1070
   140
1040
17.3145207852194
1070
   147
1040
0.0
1070
   173
1070
     1
1070
   176
1070
     2
1070
   177
1070
     2
1070
   178
1070
     2
1070
   271
1070
     2
1070
   277
1070
     2
1070
   279
1070
     2
1070
   280
1070
     0
1070
   287
1070
     5
1070
   340
1005
12D
1002
}
  0
DIMENSION
  5
344
330
1F
100
AcDbEntity
  8
Ｓ_１_１
  6
CONTINUOUS
 62
     2
100
AcDbDimension
  2
*D35
 10
900.0
 20
831.999939
 30
0.0
 11
886.2500000000001
 21
890.2499999999999
 31
0.0
 70
   160
  3
ISO-25
100
AcDbAlignedDimension
 13
813.9999540001202
 23
864.0
 33
0.0
 14
819.999996
 24
831.999939
 34
0.0
 50
90.0
100
AcDbRotatedDimension
1001
ACAD
1000
DSTYLE
1002
{
1070
   270
1070
     2
1070
     6
1000
EX_NORM
1070
     7
1000
EX_NORM
1070
    41
1040
15.0
1070
    42
1040
7.5
1070
    44
1040
5.0
1070
    73
1070
     0
1070
    74
1070
     0
1070
    75
1070
     1
1070
    76
1070
     0
1070
    77
1070
     1
1070
    78
1070
     8
1070
   140
1040
17.3145207852194
1070
   147
1040
0.0
1070
   173
1070
     1
1070
   176
1070
     2
1070
   177
1070
     2
1070
   178
1070
     2
1070
   271
1070
     2
1070
   277
1070
     2
1070
   279
1070
     2
1070
   280
1070
     1
1070
   287
1070
     5
1070
   340
1005
12D
1002
}
  0
DIMENSION
  5
350
330
1F
100
AcDbEntity
  8
Ｓ_１_１
  6
CONTINUOUS
 62
     2
100
AcDbDimension
  2
*D36
 10
900.0
 20
635.999939
 30
0.0
 11
886.2500000000001
 21
609.7499389999999
 31
0.0
 70
   160
  3
ISO-25
100
AcDbAlignedDimension
 13
819.999996
 23
667.999939
 33
0.0
 14
814.000142
 24
635.999939
 34
0.0
 50
90.0
100
AcDbRotatedDimension
1001
ACAD
1000
DSTYLE
1002
{
1070
   270
1070
     2
1070
     6
1000
EX_NORM
1070
     7
1000
EX_NORM
1070
    41
1040
15.0
1070
    42
1040
7.5
1070
    44
1040
5.0
1070
    73
1070
     0
1070
    74
1070
     0
1070
    75
1070
     0
1070
    76
1070
     1
1070
    77
1070
     1
1070
    78
1070
     8
1070
   140
1040
17.3145207852194
1070
   147
1040
0.0
1070
   173
1070
     1
1070
   176
1070
     2
1070
   177
1070
     2
1070
   178
1070
     2
1070
   271
1070
     2
1070
   277
1070
     2
1070
   279
1070
     2
1070
   280
1070
     2
1070
   287
1070
     5
1070
   340
1005
12D
1002
}
  0
DIMENSION
  5
35C
330
1F
100
AcDbEntity
  8
Ｓ_１_１
  6
CONTINUOUS
 62
     2
100
AcDbDimension
  2
*D37
 10
930.0
 20
863.9999999999999
 30
0.0
 11
916.25
 21
749.9999695
 31
0.0
 70
   160
  1
　　　228
  3
ISO-25
100
AcDbAlignedDimension
 13
814.000142
 23
635.999939
 33
0.0
 14
813.9999540001202
 24
864.0
 34
0.0
 50
90.0
100
AcDbRotatedDimension
1001
ACAD
1000
DSTYLE
1002
{
1070
   270
1070
     2
1070
     6
1000
EX_NORM
1070
     7
1000
EX_NORM
1070
    41
1040
15.0
1070
    42
1040
7.5
1070
    44
1040
5.0
1070
    73
1070
     0
1070
    74
1070
     0
1070
    75
1070
     0
1070
    76
1070
     0
1070
    77
1070
     1
1070
    78
1070
     8
1070
   140
1040
17.3145207852194
1070
   147
1040
0.0
1070
   173
1070
     1
1070
   176
1070
     2
1070
   177
1070
     2
1070
   178
1070
     2
1070
   271
1070
     2
1070
   277
1070
     2
1070
   279
1070
     2
1070
   280
1070
     0
1070
   287
1070
     5
1070
   340
1005
12D
1002
}
  0
LINE
  5
369
330
1F
100
AcDbEntity
  8
Ｓ_１_１
  6
CONTINUOUS
 62
     3
100
AcDbLine
 10
367.0
 20
1050.0
 30
0.0
 11
367.0
 21
990.0
 31
0.0
  0
LINE
  5
36A
330
1F
100
AcDbEntity
  8
Ｓ_１_１
  6
CONTINUOUS
 62
     3
100
AcDbLine
 10
366.0001090000001
 20
991.0000249999998
 30
0.0
 11
367.000131
 21
990.000002
 31
0.0
  0
LINE
  5
36B
330
1F
100
AcDbEntity
  8
Ｓ_１_１
  6
CONTINUOUS
 62
     3
100
AcDbLine
 10
366.0001090000001
 20
1049.000043
 30
0.0
 11
367.0000879999999
 21
1050.000022
 31
0.0
  0
LINE
  5
36C
330
1F
100
AcDbEntity
  8
Ｓ_１_１
  6
CONTINUOUS
 62
     3
100
AcDbLine
 10
366.0
 20
1049.000015
 30
0.0
 11
366.0
 21
991.0
 31
0.0
  0
LINE
  5
36D
330
1F
100
AcDbEntity
  8
Ｓ_１_１
  6
CONTINUOUS
 62
     3
100
AcDbLine
 10
594.0000830000001
 20
1049.0
 30
0.0
 11
593.0000600000001
 21
1050.000022
 31
0.0
  0
LINE
  5
36E
330
1F
100
AcDbEntity
  8
Ｓ_１_１
  6
CONTINUOUS
 62
     3
100
AcDbLine
 10
594.0
 20
1049.000015
 30
0.0
 11
594.0
 21
991.0
 31
0.0
  0
LINE
  5
36F
330
1F
100
AcDbEntity
  8
Ｓ_１_１
  6
CONTINUOUS
 62
     3
100
AcDbLine
 10
594.0000830000001
 20
990.9999809999999
 30
0.0
 11
593.0001030000001
 21
990.000002
 31
0.0
  0
LINE
  5
370
330
1F
100
AcDbEntity
  8
Ｓ_１_１
  6
CONTINUOUS
 62
     3
100
AcDbLine
 10
593.000061
 20
1050.0
 30
0.0
 11
593.000061
 21
990.0
 31
0.0
  0
LINE
  5
371
330
1F
100
AcDbEntity
  8
Ｓ_１_１
  6
EXLTYPE2
 62
     1
100
AcDbLine
 10
600.0
 20
1020.0
 30
0.0
 11
360.0
 21
1020.0
 31
0.0
  0
LINE
  5
372
330
1F
100
AcDbEntity
  8
Ｓ_１_１
  6
CONTINUOUS
 62
     3
100
AcDbLine
 10
398.000122
 20
1050.0
 30
0.0
 11
367.0
 21
1050.0
 31
0.0
  0
LINE
  5
373
330
1F
100
AcDbEntity
  8
Ｓ_１_１
  6
CONTINUOUS
 62
     3
100
AcDbLine
 10
398.000122
 20
990.0
 30
0.0
 11
367.0
 21
990.0
 31
0.0
  0
LINE
  5
374
330
1F
100
AcDbEntity
  8
Ｓ_１_１
  6
CONTINUOUS
 62
     3
100
AcDbLine
 10
562.000061
 20
990.0
 30
0.0
 11
593.000100999998
 21
990.0
 31
0.0
  0
LINE
  5
375
330
1F
100
AcDbEntity
  8
Ｓ_１_１
  6
CONTINUOUS
 62
     3
100
AcDbLine
 10
562.000061
 20
1050.0
 30
0.0
 11
593.0000820000221
 21
1050.0
 31
0.0
  0
DIMENSION
  5
376
330
1F
100
AcDbEntity
  8
Ｓ_１_１
  6
CONTINUOUS
 62
     2
100
AcDbDimension
  2
*D38
 10
366.0
 20
1170.0
 30
0.0
 11
339.7500000000003
 21
1183.75
 31
0.0
 70
   160
  3
ISO-25
100
AcDbAlignedDimension
 13
398.000122
 23
1055.0
 33
0.0
 14
366.0
 24
1048.999934
 34
0.0
100
AcDbRotatedDimension
1001
ACAD
1000
DSTYLE
1002
{
1070
   270
1070
     2
1070
     6
1000
EX_BCIR
1070
     7
1000
EX_NORM
1070
    41
1040
5.0
1070
    42
1040
7.5
1070
    44
1040
5.0
1070
    73
1070
     0
1070
    74
1070
     0
1070
    75
1070
     0
1070
    76
1070
     1
1070
    77
1070
     1
1070
    78
1070
     8
1070
   140
1040
17.3145207852194
1070
   147
1040
0.0
1070
   173
1070
     1
1070
   176
1070
     2
1070
   177
1070
     2
1070
   178
1070
     2
1070
   271
1070
     2
1070
   277
1070
     2
1070
   279
1070
     2
1070
   280
1070
     2
1070
   287
1070
     5
1070
   340
1005
12D
1002
}
  0
DIMENSION
  5
382
330
1F
100
AcDbEntity
  8
Ｓ_１_１
  6
CONTINUOUS
 62
     2
100
AcDbDimension
  2
*D39
 10
400.0
 20
1200.0
 30
0.0
 11
339.75
 21
1213.75
 31
0.0
 70
   160
  3
ISO-25
100
AcDbAlignedDimension
 13
366.0
 23
1048.999934
 33
0.0
 14
400.0
 24
1070.6757137937
 34
0.0
100
AcDbRotatedDimension
1001
ACAD
1000
DSTYLE
1002
{
1070
   270
1070
     2
1070
     6
1000
EX_NORM
1070
     7
1000
EX_NORM
1070
    41
1040
15.0
1070
    42
1040
7.5
1070
    44
1040
5.0
1070
    73
1070
     0
1070
    74
1070
     0
1070
    75
1070
     0
1070
    76
1070
     0
1070
    77
1070
     1
1070
    78
1070
     8
1070
   140
1040
17.3145207852194
1070
   147
1040
0.0
1070
   173
1070
     1
1070
   176
1070
     2
1070
   177
1070
     2
1070
   178
1070
     2
1070
   271
1070
     2
1070
   277
1070
     2
1070
   279
1070
     2
1070
   280
1070
     1
1070
   287
1070
     5
1070
   340
1005
12D
1002
}
  0
LINE
  5
38F
330
1F
100
AcDbEntity
  8
Ｓ_１_１
  6
CONTINUOUS
 62
     3
100
AcDbLine
 10
824.999996
 20
820.0000000000002
 30
0.0
 11
1768.000027
 21
820.0000000000006
 31
0.0
  0
LINE
  5
390
330
1F
100
AcDbEntity
  8
Ｓ_１_１
  6
CONTINUOUS
 62
     3
100
AcDbLine
 10
824.999996
 20
680.0
 30
0.0
 11
1767.999992
 21
680.0000000000002
 31
0.0
  0
LINE
  5
391
330
1F
100
AcDbEntity
  8
Ｓ_１_１
  6
CONTINUOUS
 62
     3
100
AcDbLine
 10
554.999935
 20
263.5000000000002
 30
0.0
 11
555.999935
 21
263.5000000000002
 31
0.0
  0
CIRCLE
  5
392
330
1F
100
AcDbEntity
  8
Ｓ_１_１
  6
CONTINUOUS
 62
     3
100
AcDbCircle
 10
654.9999960000134
 20
750.0000000000009
 30
0.0
 40
13.9999997615814
  0
CIRCLE
  5
393
330
1F
100
AcDbEntity
  8
Ｓ_１_１
  6
CONTINUOUS
 62
     3
100
AcDbCircle
 10
654.9999960000134
 20
750.0000000000009
 30
0.0
 40
15.00000000000001
  0
POLYLINE
  5
394
330
1F
100
AcDbEntity
  8
Ｓ_１_１
  6
CONTINUOUS
 62
     3
100
AcDb2dPolyline
 66
     1
 10
0.0
 20
0.0
 30
0.0
 70
   128
  0
VERTEX
  5
395
330
394
100
AcDbEntity
  8
Ｓ_１_１
  6
CONTINUOUS
 62
     3
100
AcDbVertex
100
AcDb2dVertex
 10
668.8564024605515
 20
750.0000000000038
 30
0.0
  0
VERTEX
  5
396
330
394
100
AcDbEntity
  8
Ｓ_１_１
  6
CONTINUOUS
 62
     3
100
AcDbVertex
100
AcDb2dVertex
 10
661.9281992302754
 20
738.0000000000038
 30
0.0
  0
VERTEX
  5
397
330
394
100
AcDbEntity
  8
Ｓ_１_１
  6
CONTINUOUS
 62
     3
100
AcDbVertex
100
AcDb2dVertex
 10
648.0717927697245
 20
738.0000000000038
 30
0.0
  0
VERTEX
  5
398
330
394
100
AcDbEntity
  8
Ｓ_１_１
  6
CONTINUOUS
 62
     3
100
AcDbVertex
100
AcDb2dVertex
 10
641.1435895394484
 20
750.0000000000038
 30
0.0
  0
VERTEX
  5
399
330
394
100
AcDbEntity
  8
Ｓ_１_１
  6
CONTINUOUS
 62
     3
100
AcDbVertex
100
AcDb2dVertex
 10
648.0717927697245
 20
762.0000000000036
 30
0.0
  0
VERTEX
  5
39A
330
394
100
AcDbEntity
  8
Ｓ_１_１
  6
CONTINUOUS
 62
     3
100
AcDbVertex
100
AcDb2dVertex
 10
661.9281992302754
 20
762.0000000000036
 30
0.0
  0
VERTEX
  5
39B
330
394
100
AcDbEntity
  8
Ｓ_１_１
  6
CONTINUOUS
 62
     3
100
AcDbVertex
100
AcDb2dVertex
 10
668.8564024605515
 20
750.0000000000038
 30
0.0
  0
SEQEND
  5
39C
330
394
100
AcDbEntity
  8
Ｓ_１_１
  6
CONTINUOUS
 62
     3
  0
CIRCLE
  5
39D
330
1F
100
AcDbEntity
  8
Ｓ_１_１
  6
CONTINUOUS
 62
     3
100
AcDbCircle
 10
654.999996
 20
750.0000000000038
 30
0.0
 40
12.00000000000102
  0
CIRCLE
  5
39E
330
1F
100
AcDbEntity
  8
Ｓ_１_１
  6
CONTINUOUS
 62
     3
100
AcDbCircle
 10
654.999996
 20
750.0000000000038
 30
0.0
 40
10.72532284355114
  0
CIRCLE
  5
39F
330
1F
100
AcDbEntity
  8
Ｓ_１_１
  6
CONTINUOUS
 62
     3
100
AcDbCircle
 10
654.999996
 20
750.0000000000038
 30
0.0
 40
6.323600530683808
  0
CIRCLE
  5
3A0
330
1F
100
AcDbEntity
  8
Ｓ_１_１
  6
CONTINUOUS
 62
     3
100
AcDbCircle
 10
654.999996
 20
750.0000000000038
 30
0.0
 40
4.217842489549019
  0
LINE
  5
3A1
330
1F
100
AcDbEntity
  8
Ｓ_１_１
  6
CONTINUOUS
 62
     3
100
AcDbLine
 10
659.249995999999
 20
701.0000000000091
 30
0.0
 11
659.249995999999
 21
696.0000000000091
 31
0.0
  0
LINE
  5
3A2
330
1F
100
AcDbEntity
  8
Ｓ_１_１
  6
CONTINUOUS
 62
     3
100
AcDbLine
 10
650.7499959999991
 20
701.0000000000091
 30
0.0
 11
650.7499959999991
 21
696.0000000000091
 31
0.0
  0
LINE
  5
3A3
330
1F
100
AcDbEntity
  8
Ｓ_１_１
  6
CONTINUOUS
 62
     3
100
AcDbLine
 10
649.9999959999991
 20
701.0000000000091
 30
0.0
 11
649.9999959999991
 21
696.7500000000092
 31
0.0
  0
LINE
  5
3A4
330
1F
100
AcDbEntity
  8
Ｓ_１_１
  6
CONTINUOUS
 62
     3
100
AcDbLine
 10
659.9999959999991
 20
701.0000000000091
 30
0.0
 11
659.9999959999991
 21
696.7500000000092
 31
0.0
  0
LINE
  5
3A5
330
1F
100
AcDbEntity
  8
Ｓ_１_１
  6
CONTINUOUS
 62
     3
100
AcDbLine
 10
650.7499959999991
 20
696.0000000000091
 30
0.0
 11
659.249995999999
 21
696.0000000000091
 31
0.0
  0
LINE
  5
3A6
330
1F
100
AcDbEntity
  8
Ｓ_１_１
  6
CONTINUOUS
 62
     3
100
AcDbLine
 10
649.9999959999991
 20
696.7500000000092
 30
0.0
 11
659.9999959999991
 21
696.7500000000092
 31
0.0
  0
LINE
  5
3A7
330
1F
100
AcDbEntity
  8
Ｓ_１_１
  6
CONTINUOUS
 62
     3
100
AcDbLine
 10
649.9999971249989
 20
696.7499974423091
 30
0.0
 11
650.7499952869989
 21
695.9999993435091
 31
0.0
  0
LINE
  5
3A8
330
1F
100
AcDbEntity
  8
Ｓ_１_１
  6
CONTINUOUS
 62
     3
100
AcDbLine
 10
659.2499979252989
 20
695.9999983530093
 30
0.0
 11
659.9999980470989
 21
696.7499985381093
 31
0.0
  0
LINE
  5
3A9
330
1F
100
AcDbEntity
  8
Ｓ_１_１
  6
CONTINUOUS
 62
     3
100
AcDbLine
 10
654.9999959999991
 20
708.0000000000092
 30
0.0
 11
664.9999959999991
 21
708.0000000000092
 31
0.0
  0
LINE
  5
3AA
330
1F
100
AcDbEntity
  8
Ｓ_１_１
  6
CONTINUOUS
 62
     3
100
AcDbLine
 10
644.9999959999991
 20
708.0000000000092
 30
0.0
 11
654.9999959999991
 21
708.0000000000092
 31
0.0
  0
LINE
  5
3AB
330
1F
100
AcDbEntity
  8
Ｓ_１_１
  6
CONTINUOUS
 62
     3
100
AcDbLine
 10
664.999995448999
 20
707.9999994490091
 30
0.0
 11
663.9999953356986
 21
706.9999994200094
 31
0.0
  0
LINE
  5
3AC
330
1F
100
AcDbEntity
  8
Ｓ_１_１
  6
CONTINUOUS
 62
     3
100
AcDbLine
 10
645.999996200599
 20
706.999999715109
 30
0.0
 11
644.9999964876988
 21
707.9999995123089
 31
0.0
  0
LINE
  5
3AD
330
1F
100
AcDbEntity
  8
Ｓ_１_１
  6
CONTINUOUS
 62
     3
100
AcDbLine
 10
645.999996200599
 20
707.0000000000092
 30
0.0
 11
654.9999959999991
 21
707.0000000000092
 31
0.0
  0
LINE
  5
3AE
330
1F
100
AcDbEntity
  8
Ｓ_１_１
  6
CONTINUOUS
 62
     3
100
AcDbLine
 10
654.9999959999991
 20
707.0000000000092
 30
0.0
 11
663.9999953356986
 21
707.0000000000092
 31
0.0
  0
LINE
  5
3AF
330
1F
100
AcDbEntity
  8
Ｓ_１_１
  6
CONTINUOUS
 62
     3
100
AcDbLine
 10
664.9999959999991
 20
737.5000000000097
 30
0.0
 11
664.9999959999991
 21
708.0000000000092
 31
0.0
  0
LINE
  5
3B0
330
1F
100
AcDbEntity
  8
Ｓ_１_１
  6
CONTINUOUS
 62
     3
100
AcDbLine
 10
662.4924086631991
 20
701.0000018344091
 30
0.0
 11
664.4999952528988
 21
702.0000020276094
 31
0.0
  0
LINE
  5
3B1
330
1F
100
AcDbEntity
  8
Ｓ_１_１
  6
CONTINUOUS
 62
     3
100
AcDbLine
 10
647.507582243999
 20
701.0000004855093
 30
0.0
 11
645.4999956542988
 21
702.0000006787092
 31
0.0
  0
LINE
  5
3B2
330
1F
100
AcDbEntity
  8
Ｓ_１_１
  6
CONTINUOUS
 62
     3
100
AcDbLine
 10
662.492409306199
 20
707.0000000234091
 30
0.0
 11
664.4999958958988
 21
705.9999998302093
 31
0.0
  0
LINE
  5
3B3
330
1F
100
AcDbEntity
  8
Ｓ_１_１
  6
CONTINUOUS
 62
     3
100
AcDbLine
 10
647.507581885699
 20
707.0000015141092
 30
0.0
 11
645.4999955804988
 21
706.0000014625094
 31
0.0
  0
LINE
  5
3B4
330
1F
100
AcDbEntity
  8
Ｓ_１_１
  6
CONTINUOUS
 62
     3
100
AcDbLine
 10
645.499995999999
 20
706.0000000000091
 30
0.0
 11
645.499995999999
 21
702.0000000000092
 31
0.0
  0
LINE
  5
3B5
330
1F
100
AcDbEntity
  8
Ｓ_１_１
  6
CONTINUOUS
 62
     3
100
AcDbLine
 10
664.4999959999991
 20
706.0000000000091
 30
0.0
 11
664.4999959999991
 21
702.0000000000092
 31
0.0
  0
LINE
  5
3B6
330
1F
100
AcDbEntity
  8
Ｓ_１_１
  6
CONTINUOUS
 62
     3
100
AcDbLine
 10
654.9999959999991
 20
701.0000000000091
 30
0.0
 11
662.492409838699
 21
701.0000000000091
 31
0.0
  0
LINE
  5
3B7
330
1F
100
AcDbEntity
  8
Ｓ_１_１
  6
CONTINUOUS
 62
     3
100
AcDbLine
 10
647.5075821612991
 20
701.0000000000091
 30
0.0
 11
654.9999959999991
 21
701.0000000000091
 31
0.0
  0
ARC
  5
3B8
330
1F
100
AcDbEntity
  8
Ｓ_１_１
  6
CONTINUOUS
 62
     3
100
AcDbCircle
 10
654.9999959999991
 20
691.458333333309
 30
0.0
 40
15.5416666667
100
AcDbArc
 50
69.3345163543002
 51
69.33452389044773
  0
ARC
  5
3B9
330
1F
100
AcDbEntity
  8
Ｓ_１_１
  6
CONTINUOUS
 62
     3
100
AcDbCircle
 10
654.9999959999991
 20
716.5416666667094
 30
0.0
 40
15.5416666667
100
AcDbArc
 50
290.665476109553
 51
290.6654784093996
  0
ARC
  5
3BA
330
1F
100
AcDbEntity
  8
Ｓ_１_１
  6
CONTINUOUS
 62
     3
100
AcDbCircle
 10
654.9999959999991
 20
691.458333333309
 30
0.0
 40
15.5416666667
100
AcDbArc
 50
72.81263240281456
 51
107.1873680951786
  0
ARC
  5
3BB
330
1F
100
AcDbEntity
  8
Ｓ_１_１
  6
CONTINUOUS
 62
     3
100
AcDbCircle
 10
654.9999959999991
 20
691.458333333309
 30
0.0
 40
15.5416666667
100
AcDbArc
 50
110.6654786560356
 51
110.6654800033002
  0
ARC
  5
3BC
330
1F
100
AcDbEntity
  8
Ｓ_１_１
  6
CONTINUOUS
 62
     3
100
AcDbCircle
 10
654.9999959999991
 20
716.5416666667094
 30
0.0
 40
15.5416666667
100
AcDbArc
 50
252.8126319048212
 51
287.1873675971856
  0
LINE
  5
3BD
330
1F
100
AcDbEntity
  8
Ｓ_１_１
  6
CONTINUOUS
 62
     3
100
AcDbLine
 10
659.5925184946791
 20
701.6940358821472
 30
0.0
 11
659.5925184946791
 21
706.3059641178712
 31
0.0
  0
LINE
  5
3BE
330
1F
100
AcDbEntity
  8
Ｓ_１_１
  6
CONTINUOUS
 62
     3
100
AcDbLine
 10
650.4074733762691
 20
701.6940359220636
 30
0.0
 11
650.4074733762691
 21
706.3059640779549
 31
0.0
  0
ARC
  5
3BF
330
1F
100
AcDbEntity
  8
Ｓ_１_１
  6
CONTINUOUS
 62
     3
100
AcDbCircle
 10
647.507578846009
 20
707.0000000000092
 30
0.0
 40
6.000000000001596
100
AcDbArc
 50
270.0000417559226
 51
298.9021840779137
  0
ARC
  5
3C0
330
1F
100
AcDbEntity
  8
Ｓ_１_１
  6
CONTINUOUS
 62
     3
100
AcDbCircle
 10
647.507583218679
 20
701.0000000000091
 30
0.0
 40
6.000000000001596
100
AcDbArc
 50
61.09786361881239
 51
90.00004175588575
  0
ARC
  5
3C1
330
1F
100
AcDbEntity
  8
Ｓ_１_１
  6
CONTINUOUS
 62
     3
100
AcDbCircle
 10
662.4924093531789
 20
701.0000000000091
 30
0.0
 40
6.000000000000006
100
AcDbArc
 50
89.99999201726119
 51
118.9021440266621
  0
ARC
  5
3C2
330
1F
100
AcDbEntity
  8
Ｓ_１_１
  6
CONTINUOUS
 62
     3
100
AcDbCircle
 10
662.4924093531789
 20
707.0000000000092
 30
0.0
 40
6.000000000001596
100
AcDbArc
 50
241.0978559733465
 51
270.0
  0
LINE
  5
3C3
330
1F
100
AcDbEntity
  8
Ｓ_１_１
  6
CONTINUOUS
 62
     3
100
AcDbLine
 10
644.9999959999991
 20
737.5000000000097
 30
0.0
 11
644.9999959999991
 21
708.0000000000092
 31
0.0
  0
LINE
  5
3C4
330
1F
100
AcDbEntity
  8
Ｓ_１_１
  6
CONTINUOUS
 62
     3
100
AcDbLine
 10
667.499996
 20
762.5000000000099
 30
0.0
 11
642.499996
 21
762.5000000000099
 31
0.0
  0
LINE
  5
3C5
330
1F
100
AcDbEntity
  8
Ｓ_１_１
  6
CONTINUOUS
 62
     3
100
AcDbLine
 10
667.499996
 20
737.5000000000099
 30
0.0
 11
642.499996
 21
737.5000000000099
 31
0.0
  0
LINE
  5
3C6
330
1F
100
AcDbEntity
  8
Ｓ_１_１
  6
CONTINUOUS
 62
     3
100
AcDbLine
 10
642.499996
 20
762.5000000000099
 30
0.0
 11
642.499996
 21
752.3493649053936
 31
0.0
  0
LINE
  5
3C7
330
1F
100
AcDbEntity
  8
Ｓ_１_１
  6
CONTINUOUS
 62
     3
100
AcDbLine
 10
642.499996
 20
747.6506350946139
 30
0.0
 11
642.499996
 21
737.50000000001
 31
0.0
  0
LINE
  5
3C8
330
1F
100
AcDbEntity
  8
Ｓ_１_１
  6
CONTINUOUS
 62
     3
100
AcDbLine
 10
643.499996
 20
761.5000000000101
 30
0.0
 11
643.499996
 21
754.0814157129622
 31
0.0
  0
LINE
  5
3C9
330
1F
100
AcDbEntity
  8
Ｓ_１_１
  6
CONTINUOUS
 62
     3
100
AcDbLine
 10
643.499996
 20
745.9185842870452
 30
0.0
 11
643.499996
 21
738.5000000000099
 31
0.0
  0
LINE
  5
3CA
330
1F
100
AcDbEntity
  8
Ｓ_１_１
  6
CONTINUOUS
 62
     3
100
AcDbLine
 10
647.7831176351333
 20
761.5000000000101
 30
0.0
 11
643.499996
 21
761.5000000000101
 31
0.0
  0
LINE
  5
3CB
330
1F
100
AcDbEntity
  8
Ｓ_１_１
  6
CONTINUOUS
 62
     3
100
AcDbLine
 10
666.499996
 20
761.5000000000101
 30
0.0
 11
662.2168743648664
 21
761.5000000000101
 31
0.0
  0
LINE
  5
3CC
330
1F
100
AcDbEntity
  8
Ｓ_１_１
  6
CONTINUOUS
 62
     3
100
AcDbLine
 10
666.499996
 20
738.5000000000099
 30
0.0
 11
662.2168743648735
 21
738.5000000000099
 31
0.0
  0
LINE
  5
3CD
330
1F
100
AcDbEntity
  8
Ｓ_１_１
  6
CONTINUOUS
 62
     3
100
AcDbLine
 10
647.7831176351262
 20
738.5000000000099
 30
0.0
 11
643.499996
 21
738.5000000000099
 31
0.0
  0
LINE
  5
3CE
330
1F
100
AcDbEntity
  8
Ｓ_１_１
  6
CONTINUOUS
 62
     3
100
AcDbLine
 10
666.499996
 20
761.5000000000101
 30
0.0
 11
666.499996
 21
754.0814157129622
 31
0.0
  0
LINE
  5
3CF
330
1F
100
AcDbEntity
  8
Ｓ_１_１
  6
CONTINUOUS
 62
     3
100
AcDbLine
 10
667.499996
 20
762.5000000000099
 30
0.0
 11
667.499996
 21
752.3493649053936
 31
0.0
  0
LINE
  5
3D0
330
1F
100
AcDbEntity
  8
Ｓ_１_１
  6
CONTINUOUS
 62
     3
100
AcDbLine
 10
667.499996
 20
747.6506350946139
 30
0.0
 11
667.499996
 21
737.50000000001
 31
0.0
  0
LINE
  5
3D1
330
1F
100
AcDbEntity
  8
Ｓ_１_１
  6
CONTINUOUS
 62
     3
100
AcDbLine
 10
666.499996
 20
745.9185842870452
 30
0.0
 11
666.499996
 21
738.5000000000099
 31
0.0
  0
LINE
  5
3D2
330
1F
100
AcDbEntity
  8
Ｓ_１_１
  6
EXLTYPE6
 62
     1
100
AcDbLine
 10
654.9999959999955
 20
769.4668931961155
 30
0.0
 11
654.9999959999955
 21
692.5200000000101
 31
0.0
  0
ARC
  5
3D3
330
1F
100
AcDbEntity
  8
Ｓ_１_１
  6
CONTINUOUS
 62
     3
100
AcDbCircle
 10
665.3922844999898
 20
412.7284350000184
 30
0.0
 40
6.133925000000002
100
AcDbArc
 50
55.61543800000034
 51
124.3845830000003
  0
ARC
  5
3D4
330
1F
100
AcDbEntity
  8
Ｓ_１_１
  6
CONTINUOUS
 62
     3
100
AcDbCircle
 10
654.9999804999899
 20
395.9341230000184
 30
0.0
 40
22.927938
100
AcDbArc
 50
72.411858
 51
107.5881660000001
  0
ARC
  5
3D5
330
1F
100
AcDbEntity
  8
Ｓ_１_１
  6
CONTINUOUS
 62
     3
100
AcDbCircle
 10
644.6076464999902
 20
417.9961350000183
 30
0.0
 40
6.133925000000002
100
AcDbArc
 50
235.6154019999991
 51
304.3845609999998
  0
ARC
  5
3D6
330
1F
100
AcDbEntity
  8
Ｓ_１_１
  6
CONTINUOUS
 62
     3
100
AcDbCircle
 10
650.4999804999903
 20
455.8621020000185
 30
0.0
 40
1.0
100
AcDbArc
 50
89.99997799999524
 51
179.9999749999976
  0
ARC
  5
3D7
330
1F
100
AcDbEntity
  8
Ｓ_１_１
  6
CONTINUOUS
 62
     3
100
AcDbCircle
 10
644.6076464999902
 20
412.7284350000184
 30
0.0
 40
6.133925000000002
100
AcDbArc
 50
55.6153689999997
 51
124.384513999999
  0
ARC
  5
3D8
330
1F
100
AcDbEntity
  8
Ｓ_１_１
  6
CONTINUOUS
 62
     3
100
AcDbCircle
 10
654.9999804999899
 20
434.7902020000186
 30
0.0
 40
22.927942
100
AcDbArc
 50
252.4118210000002
 51
287.5881150000001
  0
ARC
  5
3D9
330
1F
100
AcDbEntity
  8
Ｓ_１_１
  6
CONTINUOUS
 62
     3
100
AcDbCircle
 10
665.3922844999898
 20
417.9961350000183
 30
0.0
 40
6.133925000000002
100
AcDbArc
 50
235.6154159999998
 51
304.3845739999999
  0
ARC
  5
3DA
330
1F
100
AcDbEntity
  8
Ｓ_１_１
  6
CONTINUOUS
 62
     3
100
AcDbCircle
 10
659.4999504999897
 20
455.8621020000185
 30
0.0
 40
1.0
100
AcDbArc
 50
359.9999970000023
 51
89.9999780000017
  0
LINE
  5
3DB
330
1F
100
AcDbEntity
  8
Ｓ_１_１
  6
CONTINUOUS
 62
     3
100
AcDbLine
 10
653.5000114999898
 20
458.8622240000184
 30
0.0
 11
656.4999804999898
 21
458.8622240000184
 31
0.0
  0
LINE
  5
3DC
330
1F
100
AcDbEntity
  8
Ｓ_１_１
  6
CONTINUOUS
 62
     3
100
AcDbLine
 10
642.9999804999903
 20
411.8623460000183
 30
0.0
 11
666.9999504999897
 21
411.8623460000183
 31
0.0
  0
LINE
  5
3DD
330
1F
100
AcDbEntity
  8
Ｓ_１_１
  6
CONTINUOUS
 62
     3
100
AcDbLine
 10
649.4999504999902
 20
455.8621020000185
 30
0.0
 11
649.4999504999902
 21
446.8623460000183
 31
0.0
  0
LINE
  5
3DE
330
1F
100
AcDbEntity
  8
Ｓ_１_１
  6
CONTINUOUS
 62
     3
100
AcDbLine
 10
649.4999504999902
 20
446.8623460000183
 30
0.0
 11
660.4999804999899
 21
446.8623460000183
 31
0.0
  0
LINE
  5
3DF
330
1F
100
AcDbEntity
  8
Ｓ_１_１
  6
CONTINUOUS
 62
     3
100
AcDbLine
 10
646.0000114999904
 20
443.3621020000185
 30
0.0
 11
646.0000114999904
 21
441.3622240000184
 31
0.0
  0
LINE
  5
3E0
330
1F
100
AcDbEntity
  8
Ｓ_１_１
  6
CONTINUOUS
 62
     3
100
AcDbLine
 10
663.9999804999898
 20
443.3621020000185
 30
0.0
 11
663.9999804999898
 21
441.3622240000184
 31
0.0
  0
LINE
  5
3E1
330
1F
100
AcDbEntity
  8
Ｓ_１_１
  6
CONTINUOUS
 62
     3
100
AcDbLine
 10
643.7499804999903
 20
427.8622240000184
 30
0.0
 11
666.2499804999899
 21
427.8622240000184
 31
0.0
  0
LINE
  5
3E2
330
1F
100
AcDbEntity
  8
Ｓ_１_１
  6
CONTINUOUS
 62
     3
100
AcDbLine
 10
666.7499804999899
 20
427.3622240000184
 30
0.0
 11
666.7499804999899
 21
418.8622240000184
 31
0.0
  0
LINE
  5
3E3
330
1F
100
AcDbEntity
  8
Ｓ_１_１
  6
CONTINUOUS
 62
     3
100
AcDbLine
 10
643.2499504999902
 20
427.3622240000184
 30
0.0
 11
643.2499504999902
 21
418.8622240000184
 31
0.0
  0
LINE
  5
3E4
330
1F
100
AcDbEntity
  8
Ｓ_１_１
  6
CONTINUOUS
 62
     3
100
AcDbLine
 10
641.1436124999901
 20
412.9341980000183
 30
0.0
 11
642.9999844999903
 21
411.8624210000187
 31
0.0
  0
LINE
  5
3E5
330
1F
100
AcDbEntity
  8
Ｓ_１_１
  6
CONTINUOUS
 62
     3
100
AcDbLine
 10
666.9999074999897
 20
418.8624150000185
 30
0.0
 11
668.8563854999899
 21
417.7905760000183
 31
0.0
  0
LINE
  5
3E6
330
1F
100
AcDbEntity
  8
Ｓ_１_１
  6
CONTINUOUS
 62
     3
100
AcDbLine
 10
666.9999494999897
 20
411.8623790000186
 30
0.0
 11
668.8563224999899
 21
412.9341560000187
 31
0.0
  0
LINE
  5
3E7
330
1F
100
AcDbEntity
  8
Ｓ_１_１
  6
CONTINUOUS
 62
     3
100
AcDbLine
 10
641.1436194999902
 20
417.7907160000184
 30
0.0
 11
642.9999924999903
 21
418.8624930000185
 31
0.0
  0
LINE
  5
3E8
330
1F
100
AcDbEntity
  8
Ｓ_１_１
  6
CONTINUOUS
 62
     3
100
AcDbLine
 10
668.8563954999896
 20
417.7904460000184
 30
0.0
 11
668.8563954999896
 21
412.9341230000185
 31
0.0
  0
LINE
  5
3E9
330
1F
100
AcDbEntity
  8
Ｓ_１_１
  6
CONTINUOUS
 62
     3
100
AcDbLine
 10
661.9282034999898
 20
417.7904460000184
 30
0.0
 11
661.9282034999898
 21
412.9341230000185
 31
0.0
  0
LINE
  5
3EA
330
1F
100
AcDbEntity
  8
Ｓ_１_１
  6
CONTINUOUS
 62
     3
100
AcDbLine
 10
648.0718494999902
 20
417.7904460000184
 30
0.0
 11
648.0718494999902
 21
412.9341230000185
 31
0.0
  0
LINE
  5
3EB
330
1F
100
AcDbEntity
  8
Ｓ_１_１
  6
CONTINUOUS
 62
     3
100
AcDbLine
 10
641.14358149999
 20
417.7904460000184
 30
0.0
 11
641.14358149999
 21
412.9341230000185
 31
0.0
  0
LINE
  5
3EC
330
1F
100
AcDbEntity
  8
Ｓ_１_１
  6
CONTINUOUS
 62
     3
100
AcDbLine
 10
642.9999804999903
 20
418.8622240000184
 30
0.0
 11
666.9999504999897
 21
418.8622240000184
 31
0.0
  0
LINE
  5
3ED
330
1F
100
AcDbEntity
  8
Ｓ_１_１
  6
CONTINUOUS
 62
     3
100
AcDbLine
 10
650.4999804999903
 20
456.8623460000188
 30
0.0
 11
659.4999504999897
 21
456.8623460000188
 31
0.0
  0
LINE
  5
3EE
330
1F
100
AcDbEntity
  8
Ｓ_１_１
  6
CONTINUOUS
 62
     3
100
AcDbLine
 10
656.4998394999899
 20
458.8624110000185
 30
0.0
 11
658.4998844999897
 21
456.8623660000188
 31
0.0
  0
LINE
  5
3EF
330
1F
100
AcDbEntity
  8
Ｓ_１_１
  6
CONTINUOUS
 62
     3
100
AcDbLine
 10
651.4998124999903
 20
456.8624090000183
 30
0.0
 11
653.4997714999896
 21
458.8623680000185
 31
0.0
  0
LINE
  5
3F0
330
1F
100
AcDbEntity
  8
Ｓ_１_１
  6
CONTINUOUS
 62
     3
100
AcDbLine
 10
647.4999804999903
 20
438.3621020000185
 30
0.0
 11
662.4999804999899
 21
438.3621020000185
 31
0.0
  0
LINE
  5
3F1
330
1F
100
AcDbEntity
  8
Ｓ_１_１
  6
CONTINUOUS
 62
     3
100
AcDbLine
 10
647.4999804999903
 20
439.8622240000184
 30
0.0
 11
662.4999804999899
 21
439.8622240000184
 31
0.0
  0
LINE
  5
3F2
330
1F
100
AcDbEntity
  8
Ｓ_１_１
  6
CONTINUOUS
 62
     3
100
AcDbLine
 10
646.0000114999904
 20
443.3621020000185
 30
0.0
 11
663.9999804999898
 21
443.3621020000185
 31
0.0
  0
LINE
  5
3F3
330
1F
100
AcDbEntity
  8
Ｓ_１_１
  6
CONTINUOUS
 62
     3
100
AcDbLine
 10
663.9999804999898
 20
436.8623460000183
 30
0.0
 11
663.9999804999898
 21
427.8622240000184
 31
0.0
  0
LINE
  5
3F4
330
1F
100
AcDbEntity
  8
Ｓ_１_１
  6
CONTINUOUS
 62
     3
100
AcDbLine
 10
646.0000114999904
 20
436.8623460000183
 30
0.0
 11
646.0000114999904
 21
427.8622240000184
 31
0.0
  0
LINE
  5
3F5
330
1F
100
AcDbEntity
  8
Ｓ_１_１
  6
CONTINUOUS
 62
     3
100
AcDbLine
 10
645.99986849999
 20
441.3622450000187
 30
0.0
 11
647.4998804999901
 21
439.8622320000184
 31
0.0
  0
LINE
  5
3F6
330
1F
100
AcDbEntity
  8
Ｓ_１_１
  6
CONTINUOUS
 62
     3
100
AcDbLine
 10
662.4999464999897
 20
439.8622310000185
 30
0.0
 11
663.9998294999897
 21
441.3621140000184
 31
0.0
  0
LINE
  5
3F7
330
1F
100
AcDbEntity
  8
Ｓ_１_１
  6
CONTINUOUS
 62
     3
100
AcDbLine
 10
646.0000114999904
 20
441.3622240000184
 30
0.0
 11
663.9999804999898
 21
441.3622240000184
 31
0.0
  0
LINE
  5
3F8
330
1F
100
AcDbEntity
  8
Ｓ_１_１
  6
CONTINUOUS
 62
     3
100
AcDbLine
 10
645.9999824999901
 20
436.8623790000186
 30
0.0
 11
647.49986549999
 21
438.3622620000185
 31
0.0
  0
LINE
  5
3F9
330
1F
100
AcDbEntity
  8
Ｓ_１_１
  6
CONTINUOUS
 62
     3
100
AcDbLine
 10
662.4998324999897
 20
438.3622200000184
 30
0.0
 11
663.9998454999895
 21
436.8622080000185
 31
0.0
  0
LINE
  5
3FA
330
1F
100
AcDbEntity
  8
Ｓ_１_１
  6
CONTINUOUS
 62
     3
100
AcDbLine
 10
643.2499504999902
 20
427.3622240000184
 30
0.0
 11
666.7499804999899
 21
427.3622240000184
 31
0.0
  0
LINE
  5
3FB
330
1F
100
AcDbEntity
  8
Ｓ_１_１
  6
CONTINUOUS
 62
     3
100
AcDbLine
 10
646.0000114999904
 20
436.8623460000183
 30
0.0
 11
663.9999804999898
 21
436.8623460000183
 31
0.0
  0
LINE
  5
3FC
330
1F
100
AcDbEntity
  8
Ｓ_１_１
  6
CONTINUOUS
 62
     3
100
AcDbLine
 10
647.4999804999903
 20
439.8622240000184
 30
0.0
 11
647.4999804999903
 21
438.3621020000185
 31
0.0
  0
LINE
  5
3FD
330
1F
100
AcDbEntity
  8
Ｓ_１_１
  6
CONTINUOUS
 62
     3
100
AcDbLine
 10
662.4999804999899
 20
439.8622240000184
 30
0.0
 11
662.4999804999899
 21
438.3621020000185
 31
0.0
  0
LINE
  5
3FE
330
1F
100
AcDbEntity
  8
Ｓ_１_１
  6
CONTINUOUS
 62
     3
100
AcDbLine
 10
666.2498764999897
 20
427.8623130000185
 30
0.0
 11
666.7498234999899
 21
427.3623670000186
 31
0.0
  0
LINE
  5
3FF
330
1F
100
AcDbEntity
  8
Ｓ_１_１
  6
CONTINUOUS
 62
     3
100
AcDbLine
 10
643.2499054999904
 20
427.3623150000183
 30
0.0
 11
643.7498034999904
 21
427.8622240000184
 31
0.0
  0
LINE
  5
400
330
1F
100
AcDbEntity
  8
Ｓ_１_１
  6
CONTINUOUS
 62
     3
100
AcDbLine
 10
645.9999394999901
 20
443.3623330000185
 30
0.0
 11
649.4999534999903
 21
446.8623470000186
 31
0.0
  0
LINE
  5
401
330
1F
100
AcDbEntity
  8
Ｓ_１_１
  6
CONTINUOUS
 62
     3
100
AcDbLine
 10
660.4998304999899
 20
446.8621330000185
 30
0.0
 11
663.9998014999898
 21
443.3621610000185
 31
0.0
  0
LINE
  5
402
330
1F
100
AcDbEntity
  8
Ｓ_１_１
  6
CONTINUOUS
 62
     3
100
AcDbLine
 10
660.4999804999899
 20
455.8621020000185
 30
0.0
 11
660.4999804999899
 21
446.8623460000183
 31
0.0
  0
LINE
  5
403
330
1F
100
AcDbEntity
  8
Ｓ_１_１
  6
CONTINUOUS
 62
     3
100
AcDbLine
 10
643.4999960000001
 20
371.3622660000091
 30
0.0
 11
654.999996
 21
371.362266000009
 31
0.0
  0
LINE
  5
404
330
1F
100
AcDbEntity
  8
Ｓ_１_１
  6
CONTINUOUS
 62
     3
100
AcDbLine
 10
654.999996
 20
371.362266000009
 30
0.0
 11
666.4999960000001
 21
371.362266000009
 31
0.0
  0
LINE
  5
405
330
1F
100
AcDbEntity
  8
Ｓ_１_１
  6
CONTINUOUS
 62
     3
100
AcDbLine
 10
667.499996
 20
372.362266000009
 30
0.0
 11
667.499996
 21
387.862266000009
 31
0.0
  0
LINE
  5
406
330
1F
100
AcDbEntity
  8
Ｓ_１_１
  6
CONTINUOUS
 62
     3
100
AcDbLine
 10
667.499996
 20
403.362266000009
 30
0.0
 11
667.499996
 21
387.862266000009
 31
0.0
  0
LINE
  5
407
330
1F
100
AcDbEntity
  8
Ｓ_１_１
  6
CONTINUOUS
 62
     3
100
AcDbLine
 10
643.4999960000001
 20
404.362266000009
 30
0.0
 11
654.999996
 21
404.362266000009
 31
0.0
  0
LINE
  5
408
330
1F
100
AcDbEntity
  8
Ｓ_１_１
  6
CONTINUOUS
 62
     3
100
AcDbLine
 10
654.999996
 20
404.362266000009
 30
0.0
 11
666.4999960000001
 21
404.362266000009
 31
0.0
  0
LINE
  5
409
330
1F
100
AcDbEntity
  8
Ｓ_１_１
  6
CONTINUOUS
 62
     3
100
AcDbLine
 10
666.4999973689002
 20
404.3622675587088
 30
0.0
 11
667.4999974189001
 21
403.3622674243086
 31
0.0
  0
LINE
  5
40A
330
1F
100
AcDbEntity
  8
Ｓ_１_１
  6
CONTINUOUS
 62
     3
100
AcDbLine
 10
667.4999967866999
 20
372.3622649029086
 30
0.0
 11
666.4999969895999
 21
371.3622651900089
 31
0.0
  0
LINE
  5
40B
330
1F
100
AcDbEntity
  8
Ｓ_１_１
  6
CONTINUOUS
 62
     3
100
AcDbLine
 10
642.4999960481001
 20
372.3622660758089
 30
0.0
 11
643.4999961752002
 21
371.3622660330088
 31
0.0
  0
LINE
  5
40C
330
1F
100
AcDbEntity
  8
Ｓ_１_１
  6
CONTINUOUS
 62
     3
100
AcDbLine
 10
642.499996
 20
372.3622660000092
 30
0.0
 11
642.499996
 21
387.862266000009
 31
0.0
  0
LINE
  5
40D
330
1F
100
AcDbEntity
  8
Ｓ_１_１
  6
CONTINUOUS
 62
     3
100
AcDbLine
 10
643.4999957116003
 20
404.362266462809
 30
0.0
 11
642.4999959987
 21
403.3622666657087
 31
0.0
  0
LINE
  5
40E
330
1F
100
AcDbEntity
  8
Ｓ_１_１
  6
CONTINUOUS
 62
     3
100
AcDbLine
 10
642.499996
 20
403.362266000009
 30
0.0
 11
642.499996
 21
387.862266000009
 31
0.0
  0
LINE
  5
40F
330
1F
100
AcDbEntity
  8
Ｓ_１_１
  6
CONTINUOUS
 62
     3
100
AcDbLine
 10
642.499996
 20
403.362266000009
 30
0.0
 11
667.499996
 21
403.362266000009
 31
0.0
  0
LINE
  5
410
330
1F
100
AcDbEntity
  8
Ｓ_１_１
  6
CONTINUOUS
 62
     3
100
AcDbLine
 10
642.499996
 20
372.3622660000092
 30
0.0
 11
667.499996
 21
372.362266000009
 31
0.0
  0
LINE
  5
411
330
1F
100
AcDbEntity
  8
Ｓ_１_１
  6
CONTINUOUS
 62
     3
100
AcDbLine
 10
663.2648580000001
 20
405.7245380000199
 30
0.0
 11
646.7351410000001
 21
405.7245380000199
 31
0.0
  0
LINE
  5
412
330
1F
100
AcDbEntity
  8
Ｓ_１_１
  6
CONTINUOUS
 62
     3
100
AcDbLine
 10
647.8201150000001
 20
411.8622390000198
 30
0.0
 11
647.4365070000002
 21
405.72452600002
 31
0.0
  0
LINE
  5
413
330
1F
100
AcDbEntity
  8
Ｓ_１_１
  6
CONTINUOUS
 62
     3
100
AcDbLine
 10
647.118745
 20
411.86225700002
 30
0.0
 11
646.6499940000002
 21
404.3622430000198
 31
0.0
  0
LINE
  5
414
330
1F
100
AcDbEntity
  8
Ｓ_１_１
  6
CONTINUOUS
 62
     3
100
AcDbLine
 10
647.4365220000001
 20
405.7245460000199
 30
0.0
 11
646.6500070000001
 21
404.3622630000201
 31
0.0
  0
LINE
  5
415
330
1F
100
AcDbEntity
  8
Ｓ_１_１
  6
CONTINUOUS
 62
     3
100
AcDbLine
 10
662.881246
 20
411.86226900002
 30
0.0
 11
663.3499990000001
 21
404.36222400002
 31
0.0
  0
LINE
  5
416
330
1F
100
AcDbEntity
  8
Ｓ_１_１
  6
CONTINUOUS
 62
     3
100
AcDbLine
 10
663.3499850000002
 20
404.36224700002
 30
0.0
 11
662.563479
 21
405.7245170000199
 31
0.0
  0
LINE
  5
417
330
1F
100
AcDbEntity
  8
Ｓ_１_１
  6
CONTINUOUS
 62
     3
100
AcDbLine
 10
662.1798840000002
 20
411.86225100002
 30
0.0
 11
662.5634930000002
 21
405.72450800002
 31
0.0
  0
LINE
  5
418
330
1F
100
AcDbEntity
  8
Ｓ_１_１
  6
CONTINUOUS
 62
     3
100
AcDbLine
 10
662.2509850000002
 20
364.9999749999999
 30
0.0
 11
662.563486
 21
369.9999849999999
 31
0.0
  0
LINE
  5
419
330
1F
100
AcDbEntity
  8
Ｓ_１_１
  6
CONTINUOUS
 62
     3
100
AcDbLine
 10
662.9523490000003
 20
364.9999869999999
 30
0.0
 11
663.3499890000002
 21
371.3622379999999
 31
0.0
  0
LINE
  5
41A
330
1F
100
AcDbEntity
  8
Ｓ_１_１
  6
CONTINUOUS
 62
     3
100
AcDbLine
 10
663.2648580000001
 20
369.999994
 30
0.0
 11
646.7351410000001
 21
369.999994
 31
0.0
  0
LINE
  5
41B
330
1F
100
AcDbEntity
  8
Ｓ_１_１
  6
CONTINUOUS
 62
     3
100
AcDbLine
 10
663.3500080000002
 20
371.3622849999999
 30
0.0
 11
662.5634940000001
 21
370.000002
 31
0.0
  0
LINE
  5
41C
330
1F
100
AcDbEntity
  8
Ｓ_１_１
  6
CONTINUOUS
 62
     3
100
AcDbLine
 10
647.7490100000001
 20
364.9999869999999
 30
0.0
 11
647.4365090000001
 21
369.9999969999999
 31
0.0
  0
LINE
  5
41D
330
1F
100
AcDbEntity
  8
Ｓ_１_１
  6
CONTINUOUS
 62
     3
100
AcDbLine
 10
647.0476460000001
 20
365.0
 30
0.0
 11
646.6500060000002
 21
371.3622499999998
 31
0.0
  0
LINE
  5
41E
330
1F
100
AcDbEntity
  8
Ｓ_１_１
  6
CONTINUOUS
 62
     3
100
AcDbLine
 10
647.4364990000001
 20
369.999986
 30
0.0
 11
646.6499920000002
 21
371.3622559999999
 31
0.0
  0
CIRCLE
  5
41F
330
1F
100
AcDbEntity
  8
Ｓ_１_１
  6
CONTINUOUS
 62
     3
100
AcDbCircle
 10
654.999996
 20
387.8622660000099
 30
0.0
 40
10.0
  0
POLYLINE
  5
420
330
1F
100
AcDbEntity
  8
Ｓ_１_１
  6
CONTINUOUS
 62
     3
100
AcDb2dPolyline
 66
     1
 10
0.0
 20
0.0
 30
0.0
 70
   128
  0
VERTEX
  5
421
330
420
100
AcDbEntity
  8
Ｓ_１_１
  6
CONTINUOUS
 62
     3
100
AcDbVertex
100
AcDb2dVertex
 10
654.999996
 20
397.3622660000099
 30
0.0
  0
VERTEX
  5
422
330
420
100
AcDbEntity
  8
Ｓ_１_１
  6
CONTINUOUS
 62
     3
100
AcDbVertex
100
AcDb2dVertex
 10
646.7727546640479
 20
392.6122660000099
 30
0.0
  0
VERTEX
  5
423
330
420
100
AcDbEntity
  8
Ｓ_１_１
  6
CONTINUOUS
 62
     3
100
AcDbVertex
100
AcDb2dVertex
 10
646.7727546640479
 20
383.1122660000098
 30
0.0
  0
VERTEX
  5
424
330
420
100
AcDbEntity
  8
Ｓ_１_１
  6
CONTINUOUS
 62
     3
100
AcDbVertex
100
AcDb2dVertex
 10
654.999996
 20
378.3622660000099
 30
0.0
  0
VERTEX
  5
425
330
420
100
AcDbEntity
  8
Ｓ_１_１
  6
CONTINUOUS
 62
     3
100
AcDbVertex
100
AcDb2dVertex
 10
663.2272373359522
 20
383.1122660000098
 30
0.0
  0
VERTEX
  5
426
330
420
100
AcDbEntity
  8
Ｓ_１_１
  6
CONTINUOUS
 62
     3
100
AcDbVertex
100
AcDb2dVertex
 10
663.2272373359522
 20
392.6122660000099
 30
0.0
  0
VERTEX
  5
427
330
420
100
AcDbEntity
  8
Ｓ_１_１
  6
CONTINUOUS
 62
     3
100
AcDbVertex
100
AcDb2dVertex
 10
654.999996
 20
397.3622660000099
 30
0.0
  0
SEQEND
  5
428
330
420
100
AcDbEntity
  8
Ｓ_１_１
  6
CONTINUOUS
 62
     3
  0
CIRCLE
  5
429
330
1F
100
AcDbEntity
  8
Ｓ_１_１
  6
CONTINUOUS
 62
     3
100
AcDbCircle
 10
654.999996
 20
387.8622660000099
 30
0.0
 40
8.227241335951572
  0
ARC
  5
42A
330
1F
100
AcDbEntity
  8
Ｓ_１_１
  6
CONTINUOUS
 62
     3
100
AcDbCircle
 10
654.999996
 20
387.8622660000099
 30
0.0
 40
8.999999915700016
100
AcDbArc
 50
96.08359749728285
 51
143.9164025027172
  0
ARC
  5
42B
330
1F
100
AcDbEntity
  8
Ｓ_１_１
  6
CONTINUOUS
 62
     3
100
AcDbCircle
 10
654.999996
 20
387.8622660000099
 30
0.0
 40
8.999999915700016
100
AcDbArc
 50
156.0835974972827
 51
203.9164025027173
  0
ARC
  5
42C
330
1F
100
AcDbEntity
  8
Ｓ_１_１
  6
CONTINUOUS
 62
     3
100
AcDbCircle
 10
654.999996
 20
387.8622660000099
 30
0.0
 40
8.999999915700016
100
AcDbArc
 50
216.0835974972828
 51
263.9164025027172
  0
ARC
  5
42D
330
1F
100
AcDbEntity
  8
Ｓ_１_１
  6
CONTINUOUS
 62
     3
100
AcDbCircle
 10
654.999996
 20
387.8622660000099
 30
0.0
 40
8.999999915700016
100
AcDbArc
 50
276.0835974972829
 51
323.9164025027172
  0
ARC
  5
42E
330
1F
100
AcDbEntity
  8
Ｓ_１_１
  6
CONTINUOUS
 62
     3
100
AcDbCircle
 10
654.999996
 20
387.8622660000099
 30
0.0
 40
8.999999915700016
100
AcDbArc
 50
336.0835974972827
 51
23.91640250271736
  0
ARC
  5
42F
330
1F
100
AcDbEntity
  8
Ｓ_１_１
  6
CONTINUOUS
 62
     3
100
AcDbCircle
 10
654.999996
 20
387.8622660000099
 30
0.0
 40
8.999999915700016
100
AcDbArc
 50
36.08359749728283
 51
83.91640250271715
  0
CIRCLE
  5
430
330
1F
100
AcDbEntity
  8
Ｓ_１_１
  6
CONTINUOUS
 62
     3
100
AcDbCircle
 10
654.999996
 20
387.8622660000099
 30
0.0
 40
5.0
  0
CIRCLE
  5
431
330
1F
100
AcDbEntity
  8
Ｓ_１_１
  6
CONTINUOUS
 62
     3
100
AcDbCircle
 10
654.999996
 20
387.8622660000099
 30
0.0
 40
4.25
  0
LINE
  5
432
330
1F
100
AcDbEntity
  8
Ｓ_１_１
  6
EXLTYPE2
 62
     1
100
AcDbLine
 10
667.9999960000001
 20
387.862266000009
 30
0.0
 11
641.9999960000001
 21
387.862266000009
 31
0.0
  0
LINE
  5
433
330
1F
100
AcDbEntity
  8
Ｓ_１_１
  6
EXLTYPE2
 62
     1
100
AcDbLine
 10
654.999996
 20
465.0
 30
0.0
 11
654.999996
 21
352.867127
 31
0.0
  0
DIMENSION
  5
434
330
1F
100
AcDbEntity
  8
Ｓ_１_１
  6
CONTINUOUS
 62
     2
100
AcDbDimension
  2
*D40
 10
654.999996
 20
510.0
 30
0.0
 11
617.4999655
 21
523.75
 31
0.0
 70
   160
  3
ISO-25
100
AcDbAlignedDimension
 13
579.999935
 23
362.999862
 33
0.0
 14
654.999996
 24
465.0
 34
0.0
100
AcDbRotatedDimension
1001
ACAD
1000
DSTYLE
1002
{
1070
   270
1070
     2
1070
     6
1000
EX_NORM
1070
     7
1000
EX_NORM
1070
    41
1040
15.0
1070
    42
1040
7.5
1070
    44
1040
5.0
1070
    73
1070
     0
1070
    74
1070
     0
1070
    75
1070
     0
1070
    76
1070
     0
1070
    77
1070
     1
1070
    78
1070
     8
1070
   140
1040
17.3145207852194
1070
   147
1040
0.0
1070
   173
1070
     1
1070
   176
1070
     2
1070
   177
1070
     2
1070
   178
1070
     2
1070
   271
1070
     2
1070
   277
1070
     2
1070
   279
1070
     2
1070
   280
1070
     0
1070
   287
1070
     5
1070
   340
1005
12D
1002
}
  0
DIMENSION
  5
441
330
1F
100
AcDbEntity
  8
Ｓ_１_１
  6
CONTINUOUS
 62
     2
100
AcDbDimension
  2
*D41
 10
1700.0
 20
510.0
 30
0.0
 11
1177.499998
 21
523.75
 31
0.0
 70
   160
  3
ISO-25
100
AcDbAlignedDimension
 13
654.999996
 23
465.0
 33
0.0
 14
1700.0
 24
464.782563
 34
0.0
100
AcDbRotatedDimension
1001
ACAD
1000
DSTYLE
1002
{
1070
   270
1070
     2
1070
     6
1000
EX_NORM
1070
     7
1000
EX_NORM
1070
    41
1040
15.0
1070
    42
1040
7.5
1070
    44
1040
5.0
1070
    73
1070
     0
1070
    74
1070
     0
1070
    75
1070
     0
1070
    76
1070
     0
1070
    77
1070
     1
1070
    78
1070
     8
1070
   140
1040
17.3145207852194
1070
   147
1040
0.0
1070
   173
1070
     1
1070
   176
1070
     2
1070
   177
1070
     2
1070
   178
1070
     2
1070
   271
1070
     2
1070
   277
1070
     2
1070
   279
1070
     2
1070
   280
1070
     0
1070
   287
1070
     5
1070
   340
1005
12D
1002
}
  0
DIMENSION
  5
44E
330
1F
100
AcDbEntity
  8
Ｓ_１_１
  6
CONTINUOUS
 62
     2
100
AcDbDimension
  2
*D42
 10
720.0
 20
458.86222400002
 30
0.0
 11
706.25
 21
411.93111200001
 31
0.0
 70
   160
  1
(94)
  3
ISO-25
100
AcDbAlignedDimension
 13
662.9523498125
 23
365.0
 33
0.0
 14
656.5000264999899
 24
458.86222400002
 34
0.0
 50
90.0
100
AcDbRotatedDimension
1001
ACAD
1000
DSTYLE
1002
{
1070
   270
1070
     2
1070
     6
1000
EX_NORM
1070
     7
1000
EX_NORM
1070
    41
1040
15.0
1070
    42
1040
7.5
1070
    44
1040
5.0
1070
    73
1070
     0
1070
    74
1070
     0
1070
    75
1070
     1
1070
    76
1070
     0
1070
    77
1070
     1
1070
    78
1070
     8
1070
   140
1040
17.3145207852194
1070
   147
1040
0.0
1070
   173
1070
     1
1070
   176
1070
     2
1070
   177
1070
     2
1070
   178
1070
     2
1070
   271
1070
     2
1070
   277
1070
     2
1070
   279
1070
     2
1070
   280
1070
     0
1070
   287
1070
     5
1070
   340
1005
12D
1002
}
  0
POLYLINE
  5
45A
330
1F
100
AcDbEntity
  8
Ｓ_１_１
  6
CONTINUOUS
 62
     3
100
AcDb2dPolyline
 66
     1
 10
0.0
 20
0.0
 30
0.0
 70
   128
  0
VERTEX
  5
45B
330
45A
100
AcDbEntity
  8
Ｓ_１_１
  6
CONTINUOUS
 62
     3
100
AcDbVertex
100
AcDb2dVertex
 10
654.999996
 20
390.7490173459581
 30
0.0
  0
VERTEX
  5
45C
330
45A
100
AcDbEntity
  8
Ｓ_１_１
  6
CONTINUOUS
 62
     3
100
AcDbVertex
100
AcDb2dVertex
 10
652.499996
 20
389.3056416729841
 30
0.0
  0
VERTEX
  5
45D
330
45A
100
AcDbEntity
  8
Ｓ_１_１
  6
CONTINUOUS
 62
     3
100
AcDbVertex
100
AcDb2dVertex
 10
652.499996
 20
386.4188903270359
 30
0.0
  0
VERTEX
  5
45E
330
45A
100
AcDbEntity
  8
Ｓ_１_１
  6
CONTINUOUS
 62
     3
100
AcDbVertex
100
AcDb2dVertex
 10
654.999996
 20
384.9755146540619
 30
0.0
  0
VERTEX
  5
45F
330
45A
100
AcDbEntity
  8
Ｓ_１_１
  6
CONTINUOUS
 62
     3
100
AcDbVertex
100
AcDb2dVertex
 10
657.499996
 20
386.4188903270359
 30
0.0
  0
VERTEX
  5
460
330
45A
100
AcDbEntity
  8
Ｓ_１_１
  6
CONTINUOUS
 62
     3
100
AcDbVertex
100
AcDb2dVertex
 10
657.499996
 20
389.3056416729841
 30
0.0
  0
VERTEX
  5
461
330
45A
100
AcDbEntity
  8
Ｓ_１_１
  6
CONTINUOUS
 62
     3
100
AcDbVertex
100
AcDb2dVertex
 10
654.999996
 20
390.7490173459581
 30
0.0
  0
SEQEND
  5
462
330
45A
100
AcDbEntity
  8
Ｓ_１_１
  6
CONTINUOUS
 62
     3
  0
ENDSEC
  0
SECTION
  2
OBJECTS
  0
DICTIONARY
  5
C
330
0
100
AcDbDictionary
  3
ACAD_GROUP
350
D
  3
ACAD_LAYOUT
350
1A
  3
ACAD_MATERIAL
350
43
  3
ACAD_MLEADERSTYLE
350
6B
  3
ACAD_MLINESTYLE
350
17
  3
ACAD_PLOTSETTINGS
350
19
  3
ACAD_SCALELIST
350
47
  3
ACAD_VISUALSTYLE
350
2A
  3
ACDBHEADERROUNDTRIPXREC
350
463
  3
ACDBVARIABLEDICTIONARY
350
484
  0
DICTIONARY
  5
48F
330
8
100
AcDbDictionary
280
     1
  3
ACAD_XREC_ROUNDTRIP
360
490
  0
DICTIONARY
  5
D
102
{ACAD_REACTORS
330
C
102
}
330
C
100
AcDbDictionary
  0
DICTIONARY
  5
1A
102
{ACAD_REACTORS
330
C
102
}
330
C
100
AcDbDictionary
  0
DICTIONARY
  5
43
102
{ACAD_REACTORS
330
C
102
}
330
C
100
AcDbDictionary
  3
BYBLOCK
350
45
  3
BYLAYER
350
44
  3
GLOBAL
350
46
  0
DICTIONARY
  5
6B
102
{ACAD_REACTORS
330
C
102
}
330
C
100
AcDbDictionary
  3
STANDARD
350
6C
  0
DICTIONARY
  5
17
102
{ACAD_REACTORS
330
C
102
}
330
C
100
AcDbDictionary
  3
STANDARD
350
18
  0
DICTIONARY
  5
19
102
{ACAD_REACTORS
330
C
102
}
330
C
100
AcDbDictionary
  0
DICTIONARY
  5
47
102
{ACAD_REACTORS
330
C
102
}
330
C
100
AcDbDictionary
  3
A0
350
48
  3
A1
350
49
  3
A2
350
4A
  3
A3
350
4B
  3
A4
350
4C
  3
A5
350
4D
  3
A6
350
4E
  3
A7
350
4F
  3
A8
350
50
  3
A9
350
51
  3
B0
350
52
  3
B1
350
53
  3
B2
350
54
  3
B3
350
55
  3
B4
350
56
  3
B5
350
57
  3
B6
350
58
  3
B7
350
59
  3
B8
350
5A
  3
B9
350
5B
  3
C0
350
5C
  3
C1
350
5D
  3
C2
350
5E
  3
C3
350
5F
  3
C4
350
60
  3
C5
350
61
  3
C6
350
62
  3
C7
350
63
  3
C8
350
64
  3
C9
350
65
  3
D0
350
66
  3
D1
350
67
  3
D2
350
68
  0
DICTIONARY
  5
2A
102
{ACAD_REACTORS
330
C
102
}
330
C
100
AcDbDictionary
  3
2DWIREFRAME
350
2F
  3
BASIC
350
32
  3
BRIGHTEN
350
36
  3
COLORCHANGE
350
3A
  3
CONCEPTUAL
350
34
  3
DIM
350
35
  3
EDGECOLOROFF
350
3D
  3
FACEPATTERN
350
39
  3
FLAT
350
2B
  3
FLATWITHEDGES
350
2C
  3
GOURAUD
350
2D
  3
GOURAUDWITHEDGES
350
2E
  3
HIDDEN
350
31
  3
JITTEROFF
350
3B
  3
LINEPATTERN
350
38
  3
OVERHANGOFF
350
3C
  3
REALISTIC
350
33
  3
SHADED
350
42
  3
SHADED_WITH_EDGES
350
41
  3
SHADES_OF_GRAY
350
3E
  3
SKETCHY
350
3F
  3
THICKEN
350
37
  3
WIREFRAME
350
30
  3
X-RAY
350
40
  0
DICTIONARY
  5
463
102
{ACAD_REACTORS
330
C
102
}
330
C
100
AcDbDictionary
  3
CEPSNID
350
46D
  3
CEPSNTYPE
350
46C
  3
DIMSTYLEDATA
350
483
  3
FINGERPRINTGUID
350
46E
  3
HYPERLINKBASE
350
466
  3
INSUNITS
350
46B
  3
LAYOUTDICT
350
468
  3
LWETCUNION
350
46A
  3
PLOTSETDICT
350
469
  3
PSVPSCALE
350
470
  3
PUCSBASE
350
473
  3
PUCSORGBACK
350
479
  3
PUCSORGBOTTOM
350
475
  3
PUCSORGFRONT
350
478
  3
PUCSORGLEFT
350
476
  3
PUCSORGRIGHT
350
477
  3
PUCSORGTOP
350
474
  3
PUCSORTHOREF
350
471
  3
PUCSORTHOVIEW
350
472
  3
STYLESHEET
350
467
  3
TSTACKALIGN
350
464
  3
TSTACKSIZE
350
465
  3
UCSBASE
350
47C
  3
UCSORGBACK
350
482
  3
UCSORGBOTTOM
350
47E
  3
UCSORGFRONT
350
481
  3
UCSORGLEFT
350
47F
  3
UCSORGRIGHT
350
480
  3
UCSORGTOP
350
47D
  3
UCSORTHOREF
350
47A
  3
UCSORTHOVIEW
350
47B
  3
VERSIONGUID
350
46F
  0
DICTIONARY
  5
484
102
{ACAD_REACTORS
330
C
102
}
330
C
100
AcDbDictionary
  3
CANNOSCALE
350
491
  3
CENTEREXE
350
48B
  3
CENTERLTYPEFILE
350
48C
  3
CMLEADERSTYLE
350
486
  3
CTABLESTYLE
350
485
  3
DIMASSOC
350
48D
  3
HIDETEXT
350
48E
  3
MSLTSCALE
350
492
  3
PSOLHEIGHT
350
488
  3
PSOLWIDTH
350
487
  0
XRECORD
  5
490
102
{ACAD_REACTORS
330
48F
102
}
330
48F
100
AcDbXrecord
102
VTR_0.000_0.000_1.000_1.000_VISUALSTYLE
340
2F
102
VTR_0.000_0.000_1.000_1.000_GRIDDISPLAY
 70
     3
102
VTR_0.000_0.000_1.000_1.000_GRIDMAJOR
 70
     5
102
VTR_0.000_0.000_1.000_1.000_DEFAULTLIGHTING
280
     1
102
VTR_0.000_0.000_1.000_1.000_DEFAULTLIGHTINGTYPE
 70
     1
102
VTR_0.000_0.000_1.000_1.000_BRIGHTNESS
141
0.0
102
VTR_0.000_0.000_1.000_1.000_CONTRAST
142
0.0
  0
MATERIAL
  5
45
102
{ACAD_REACTORS
330
43
102
}
102
{ACAD_XDICTIONARY
360
495
102
}
330
43
100
AcDbMaterial
  1
BYBLOCK
  0
MATERIAL
  5
44
102
{ACAD_REACTORS
330
43
102
}
102
{ACAD_XDICTIONARY
360
493
102
}
330
43
100
AcDbMaterial
  1
BYLAYER
  0
MATERIAL
  5
46
102
{ACAD_REACTORS
330
43
102
}
102
{ACAD_XDICTIONARY
360
497
102
}
330
43
100
AcDbMaterial
  1
GLOBAL
  0
ACAD_PROXY_OBJECT
  5
6C
102
{ACAD_REACTORS
330
6B
102
}
330
6B
100
AcDbProxyObject
 90
      499
 91
      505
 93
      610
310
40901902A4063FBFFFFFE0000000000000020400000000000020404214DD185B99185C990000000000000104090141901A00000000000004100000000000000041025764000000000000039000
340
14
340
0
340
11
340
0
 94
        0
1001
ACAD_MLEADERVER
1070
     2
  0
MLINESTYLE
  5
18
102
{ACAD_REACTORS
330
17
102
}
330
17
100
AcDbMlineStyle
  2
Standard
 70
     0
  3

 62
   256
 51
90.0
 52
90.0
 71
     2
 49
0.5
 62
   256
  6
BYLAYER
 49
-0.5
 62
   256
  6
BYLAYER
  0
ACAD_PROXY_OBJECT
  5
48
102
{ACAD_REACTORS
330
47
102
}
330
47
100
AcDbProxyObject
 90
      499
 91
      503
 93
       41
310
903313A31580
  0
ACAD_PROXY_OBJECT
  5
49
102
{ACAD_REACTORS
330
47
102
}
330
47
100
AcDbProxyObject
 90
      499
 91
      503
 93
      105
310
903313A324000000000000004000
  0
ACAD_PROXY_OBJECT
  5
4A
102
{ACAD_REACTORS
330
47
102
}
330
47
100
AcDbProxyObject
 90
      499
 91
      503
 93
      105
310
903313A344000000000000104000
  0
ACAD_PROXY_OBJECT
  5
4B
102
{ACAD_REACTORS
330
47
102
}
330
47
100
AcDbProxyObject
 90
      499
 91
      503
 93
      105
310
903313A354000000000000144000
  0
ACAD_PROXY_OBJECT
  5
4C
102
{ACAD_REACTORS
330
47
102
}
330
47
100
AcDbProxyObject
 90
      499
 91
      503
 93
      105
310
903313A384000000000000204000
  0
ACAD_PROXY_OBJECT
  5
4D
102
{ACAD_REACTORS
330
47
102
}
330
47
100
AcDbProxyObject
 90
      499
 91
      503
 93
      113
310
904313A31304000000000000244000
  0
ACAD_PROXY_OBJECT
  5
4E
102
{ACAD_REACTORS
330
47
102
}
330
47
100
AcDbProxyObject
 90
      499
 91
      503
 93
      113
310
904313A31364000000000000304000
  0
ACAD_PROXY_OBJECT
  5
4F
102
{ACAD_REACTORS
330
47
102
}
330
47
100
AcDbProxyObject
 90
      499
 91
      503
 93
      113
310
904313A32304000000000000344000
  0
ACAD_PROXY_OBJECT
  5
50
102
{ACAD_REACTORS
330
47
102
}
330
47
100
AcDbProxyObject
 90
      499
 91
      503
 93
      113
310
904313A333040000000000003E4000
  0
ACAD_PROXY_OBJECT
  5
51
102
{ACAD_REACTORS
330
47
102
}
330
47
100
AcDbProxyObject
 90
      499
 91
      503
 93
      113
310
904313A34304000000000000444000
  0
ACAD_PROXY_OBJECT
  5
52
102
{ACAD_REACTORS
330
47
102
}
330
47
100
AcDbProxyObject
 90
      499
 91
      503
 93
      113
310
904313A35304000000000000494000
  0
ACAD_PROXY_OBJECT
  5
53
102
{ACAD_REACTORS
330
47
102
}
330
47
100
AcDbProxyObject
 90
      499
 91
      503
 93
      121
310
905313A3130304000000000000594000
  0
ACAD_PROXY_OBJECT
  5
54
102
{ACAD_REACTORS
330
47
102
}
330
47
100
AcDbProxyObject
 90
      499
 91
      503
 93
      105
310
903323A310000000000000010100
  0
ACAD_PROXY_OBJECT
  5
55
102
{ACAD_REACTORS
330
47
102
}
330
47
100
AcDbProxyObject
 90
      499
 91
      503
 93
      105
310
903343A310000000000000410100
  0
ACAD_PROXY_OBJECT
  5
56
102
{ACAD_REACTORS
330
47
102
}
330
47
100
AcDbProxyObject
 90
      499
 91
      503
 93
      105
310
903383A310000000000000810100
  0
ACAD_PROXY_OBJECT
  5
57
102
{ACAD_REACTORS
330
47
102
}
330
47
100
AcDbProxyObject
 90
      499
 91
      503
 93
      113
310
90431303A310000000000000910100
  0
ACAD_PROXY_OBJECT
  5
58
102
{ACAD_REACTORS
330
47
102
}
330
47
100
AcDbProxyObject
 90
      499
 91
      503
 93
      121
310
9053130303A310000000000001650100
  0
ACAD_PROXY_OBJECT
  5
59
102
{ACAD_REACTORS
330
47
102
}
330
47
100
AcDbProxyObject
 90
      499
 91
      503
 93
      257
310
90E312F31323822203D2031272D3022000000000000200FC000000000000284000
  0
ACAD_PROXY_OBJECT
  5
5A
102
{ACAD_REACTORS
330
47
102
}
330
47
100
AcDbProxyObject
 90
      499
 91
      503
 93
      249
310
90D312F363422203D2031272D3022000000000000240FC000000000000284000
  0
ACAD_PROXY_OBJECT
  5
5B
102
{ACAD_REACTORS
330
47
102
}
330
47
100
AcDbProxyObject
 90
      499
 91
      503
 93
      249
310
90D312F333222203D2031272D3022000000000000280FC000000000000284000
  0
ACAD_PROXY_OBJECT
  5
5C
102
{ACAD_REACTORS
330
47
102
}
330
47
100
AcDbProxyObject
 90
      499
 91
      503
 93
      249
310
90D312F313622203D2031272D30220000000000002C0FC000000000000284000
  0
ACAD_PROXY_OBJECT
  5
5D
102
{ACAD_REACTORS
330
47
102
}
330
47
100
AcDbProxyObject
 90
      499
 91
      503
 93
      249
310
90D332F333222203D2031272D30220000000000002E0FC000000000000284000
  0
ACAD_PROXY_OBJECT
  5
5E
102
{ACAD_REACTORS
330
47
102
}
330
47
100
AcDbProxyObject
 90
      499
 91
      503
 93
      241
310
90C312F3822203D2031272D3022000000000000300FC000000000000284000
  0
ACAD_PROXY_OBJECT
  5
5F
102
{ACAD_REACTORS
330
47
102
}
330
47
100
AcDbProxyObject
 90
      499
 91
      503
 93
      249
310
90D332F313622203D2031272D3022000000000000320FC000000000000284000
  0
ACAD_PROXY_OBJECT
  5
60
102
{ACAD_REACTORS
330
47
102
}
330
47
100
AcDbProxyObject
 90
      499
 91
      503
 93
      241
310
90C312F3422203D2031272D3022000000000000340FC000000000000284000
  0
ACAD_PROXY_OBJECT
  5
61
102
{ACAD_REACTORS
330
47
102
}
330
47
100
AcDbProxyObject
 90
      499
 91
      503
 93
      241
310
90C332F3822203D2031272D3022000000000000360FC000000000000284000
  0
ACAD_PROXY_OBJECT
  5
62
102
{ACAD_REACTORS
330
47
102
}
330
47
100
AcDbProxyObject
 90
      499
 91
      503
 93
      241
310
90C312F3222203D2031272D3022000000000000380FC000000000000284000
  0
ACAD_PROXY_OBJECT
  5
63
102
{ACAD_REACTORS
330
47
102
}
330
47
100
AcDbProxyObject
 90
      499
 91
      503
 93
      241
310
90C332F3422203D2031272D30220000000000003A0FC000000000000284000
  0
ACAD_PROXY_OBJECT
  5
64
102
{ACAD_REACTORS
330
47
102
}
330
47
100
AcDbProxyObject
 90
      499
 91
      503
 93
      161
310
90A3122203D2031272D30224000000000000284000
  0
ACAD_PROXY_OBJECT
  5
65
102
{ACAD_REACTORS
330
47
102
}
330
47
100
AcDbProxyObject
 90
      499
 91
      503
 93
      257
310
90E312D312F3222203D2031272D30220000000000003E0FC000000000000284000
  0
ACAD_PROXY_OBJECT
  5
66
102
{ACAD_REACTORS
330
47
102
}
330
47
100
AcDbProxyObject
 90
      499
 91
      503
 93
      225
310
90A3322203D2031272D302200000000000002100000000000000284000
  0
ACAD_PROXY_OBJECT
  5
67
102
{ACAD_REACTORS
330
47
102
}
330
47
100
AcDbProxyObject
 90
      499
 91
      503
 93
      225
310
90A3622203D2031272D302200000000000006100000000000000284000
  0
ACAD_PROXY_OBJECT
  5
68
102
{ACAD_REACTORS
330
47
102
}
330
47
100
AcDbProxyObject
 90
      499
 91
      503
 93
      249
310
90D31272D3022203D2031272D30220000000000000A100000000000000284000
  0
ACAD_PROXY_OBJECT
  5
2F
102
{ACAD_REACTORS
330
2A
102
}
330
2A
100
AcDbProxyObject
 90
      499
 91
      501
 93
      436
310
42CC9915DA5C99599C985B595049028333333333333E33F0000000000000F90107901411070040501600405405064090741402480A0340
1001
ACAD
1000
AcDbSavedByObjectVersion
1070
     0
  0
ACAD_PROXY_OBJECT
  5
32
102
{ACAD_REACTORS
330
2A
102
}
330
2A
100
AcDbProxyObject
 90
      499
 91
      501
 93
      388
310
4150985CDA58D07406404333333333333E33F0000000000000F90107A41107004050150841D405064090741402480A0350
1001
ACAD
1000
AcDbSavedByObjectVersion
1070
     0
  0
ACAD_PROXY_OBJECT
  5
36
102
{ACAD_REACTORS
330
2A
102
}
330
2A
100
AcDbProxyObject
 90
      499
 91
      501
 93
      428
310
42109C9A59DA1D195B90C409028333333333333E33F0000000000000F9010790141107004050150841D405064090741402480A029950
1001
ACAD
1000
AcDbSavedByObjectVersion
1070
     0
  0
ACAD_PROXY_OBJECT
  5
3A
102
{ACAD_REACTORS
330
2A
102
}
330
2A
100
AcDbProxyObject
 90
      499
 91
      501
 93
      452
310
42D0DBDB1BDC90DA185B99D95104090240C333333333333E33F0000000000000F90108901411070040501508421405064090741402480A0350
1001
ACAD
1000
AcDbSavedByObjectVersion
1070
     0
  0
ACAD_PROXY_OBJECT
  5
34
102
{ACAD_REACTORS
330
2A
102
}
330
2A
100
AcDbProxyObject
 90
      499
 91
      501
 93
      500
310
4290DBDB98D95C1D1D585B10940D028333333333333E33F0000000000000F90107902409070040501000000000018199010841D405064090740C02480A0340
1001
ACAD
1000
AcDbSavedByObjectVersion
1070
     0
  0
ACAD_PROXY_OBJECT
  5
35
102
{ACAD_REACTORS
330
2A
102
}
330
2A
100
AcDbProxyObject
 90
      499
 91
      501
 93
      412
310
40D11A5B50B409028333333333333E33F0000000000000F9010790141107004050150841D405064090741402480A02677FFFFFD0
1001
ACAD
1000
AcDbSavedByObjectVersion
1070
     0
  0
ACAD_PROXY_OBJECT
  5
3D
102
{ACAD_REACTORS
330
2A
102
}
330
2A
100
AcDbProxyObject
 90
      499
 91
      501
 93
      452
310
43115919D950DBDB1BDC93D999916409028333333333333E33F0000000000000F9010790141107004050150841D405064090741402480A0350
1001
ACAD
1000
AcDbSavedByObjectVersion
1070
     0
  0
ACAD_PROXY_OBJECT
  5
39
102
{ACAD_REACTORS
330
2A
102
}
330
2A
100
AcDbProxyObject
 90
      499
 91
      501
 93
      444
310
42D19858D95C185D1D195C9B90F409028333333333333E33F0000000000000F9010790141107004050150841D405064090741402480A0350
1001
ACAD
1000
AcDbSavedByObjectVersion
1070
     0
  0
ACAD_PROXY_OBJECT
  5
2B
102
{ACAD_REACTORS
330
2A
102
}
330
2A
100
AcDbProxyObject
 90
      499
 91
      501
 93
      380
310
41119B185D240901404333333333333E33F0000000000000F9010740A907004050150841D405064090741402480A1B50
1001
ACAD
1000
AcDbSavedByObjectVersion
1070
     0
  0
ACAD_PROXY_OBJECT
  5
2C
102
{ACAD_REACTORS
330
2A
102
}
330
2A
100
AcDbProxyObject
 90
      499
 91
      501
 93
      468
310
43519B185D15DA5D1A115919D95CD0140901404333333333333E33F0000000000000F90107409019070040501600405405064090741402480A1B50
1001
ACAD
1000
AcDbSavedByObjectVersion
1070
     0
  0
ACAD_PROXY_OBJECT
  5
2D
102
{ACAD_REACTORS
330
2A
102
}
330
2A
100
AcDbProxyObject
 90
      499
 91
      501
 93
      404
310
41D1DBDD5C985D5910240902404333333333333E33F0000000000000F9010740A9070040501641D405064090741402480A1B50
1001
ACAD
1000
AcDbSavedByObjectVersion
1070
     0
  0
ACAD_PROXY_OBJECT
  5
2E
102
{ACAD_REACTORS
330
2A
102
}
330
2A
100
AcDbProxyObject
 90
      499
 91
      501
 93
      492
310
4411DBDD5C985D5915DA5D1A115919D95CD0340902404333333333333E33F0000000000000F90107409019070040501600405405064090741402480A1B50
1001
ACAD
1000
AcDbSavedByObjectVersion
1070
     0
  0
ACAD_PROXY_OBJECT
  5
31
102
{ACAD_REACTORS
330
2A
102
}
330
2A
100
AcDbProxyObject
 90
      499
 91
      501
 93
      476
310
41921A5919195B90640502408333333333333E33F0000000000000F901079024090700405020000000000001110200405405064090740C02480A0340
1001
ACAD
1000
AcDbSavedByObjectVersion
1070
     0
  0
ACAD_PROXY_OBJECT
  5
3B
102
{ACAD_REACTORS
330
2A
102
}
330
2A
100
AcDbProxyObject
 90
      499
 91
      501
 93
      428
310
42529A5D1D195C93D999914409028333333333333E33F0000000000000F9010790141107004050150A41D405064090741402480A0350
1001
ACAD
1000
AcDbSavedByObjectVersion
1070
     0
  0
ACAD_PROXY_OBJECT
  5
38
102
{ACAD_REACTORS
330
2A
102
}
330
2A
100
AcDbProxyObject
 90
      499
 91
      501
 93
      444
310
42D31A5B995C185D1D195C9B90E409028333333333333E33F0000000000000F9010790141107004050750841D405064090741402483A0350
1001
ACAD
1000
AcDbSavedByObjectVersion
1070
     0
  0
ACAD_PROXY_OBJECT
  5
3C
102
{ACAD_REACTORS
330
2A
102
}
330
2A
100
AcDbProxyObject
 90
      499
 91
      501
 93
      444
310
42D3DD995C9A185B99D3D999915409028333333333333E33F0000000000000F9010790141107004050150941D405064090741402480A0350
1001
ACAD
1000
AcDbSavedByObjectVersion
1070
     0
  0
ACAD_PROXY_OBJECT
  5
33
102
{ACAD_REACTORS
330
2A
102
}
330
2A
100
AcDbProxyObject
 90
      499
 91
      501
 93
      428
310
425499585B1A5CDD1A58D08409038333333333333E33F0000000000000F9010740A907004050150800405405064090740C02480A1B40
1001
ACAD
1000
AcDbSavedByObjectVersion
1070
     0
  0
ACAD_PROXY_OBJECT
  5
42
102
{ACAD_REACTORS
330
2A
102
}
330
2A
100
AcDbProxyObject
 90
      499
 91
      501
 93
      420
310
4194DA1859195911B40902404333333333333E33F0000000000000F9010740A41107004050150800405405064090840C02480A0B40
1001
ACAD
1000
AcDbSavedByObjectVersion
1070
     0
  0
ACAD_PROXY_OBJECT
  5
41
102
{ACAD_REACTORS
330
2A
102
}
330
2A
100
AcDbProxyObject
 90
      499
 91
      501
 93
      516
310
4454DA18591959081DDA5D1A08195919D95CD1A40902404333333333333E33F0000000000000F901074090142907004050250800405405064090740C02480A0B40
1001
ACAD
1000
AcDbSavedByObjectVersion
1070
     0
  0
ACAD_PROXY_OBJECT
  5
3E
102
{ACAD_REACTORS
330
2A
102
}
330
2A
100
AcDbProxyObject
 90
      499
 91
      501
 93
      532
310
4394DA1859195CC81BD98811DC985E5174090240C333333333333E33F0000000000000F901079024090741D01000000000000111010841D405064090740C02480A0340
1001
ACAD
1000
AcDbSavedByObjectVersion
1070
     0
  0
ACAD_PROXY_OBJECT
  5
3F
102
{ACAD_REACTORS
330
2A
102
}
330
2A
100
AcDbProxyObject
 90
      499
 91
      501
 93
      476
310
41D4DAD95D18DA1E51840502408333333333333E33F0000000000000F901079024090741D01000000000000111010B41D405064090741802480A0340
1001
ACAD
1000
AcDbSavedByObjectVersion
1070
     0
  0
ACAD_PROXY_OBJECT
  5
37
102
{ACAD_REACTORS
330
2A
102
}
330
2A
100
AcDbProxyObject
 90
      499
 91
      501
 93
      412
310
41D51A1A58DAD95B90D409028333333333333E33F0000000000000F9010790141107004050150C41D405064090741402480A0350
1001
ACAD
1000
AcDbSavedByObjectVersion
1070
     0
  0
ACAD_PROXY_OBJECT
  5
30
102
{ACAD_REACTORS
330
2A
102
}
330
2A
100
AcDbProxyObject
 90
      499
 91
      501
 93
      420
310
4255DA5C99599C985B595059028333333333333E33F0000000000000F90107901411070040501600405405064090740C02480A0340
1001
ACAD
1000
AcDbSavedByObjectVersion
1070
     0
  0
ACAD_PROXY_OBJECT
  5
40
102
{ACAD_REACTORS
330
2A
102
}
330
2A
100
AcDbProxyObject
 90
      499
 91
      501
 93
      404
310
41560B54985E51940902404000000000000E03F0000000000000F9010740501907004050150841D405064090740C02480A1B40
1001
ACAD
1000
AcDbSavedByObjectVersion
1070
     0
  0
XRECORD
  5
46D
102
{ACAD_REACTORS
330
463
102
}
330
463
100
AcDbXrecord
340
0
  0
XRECORD
  5
46C
102
{ACAD_REACTORS
330
463
102
}
330
463
100
AcDbXrecord
 90
        0
  0
XRECORD
  5
483
102
{ACAD_REACTORS
330
463
102
}
330
463
100
AcDbXrecord
1000
DSTYLE
1002
{
1070
   340
340
11
1002
}
  0
XRECORD
  5
46E
102
{ACAD_REACTORS
330
463
102
}
330
463
100
AcDbXrecord
  1
{f726ceea-cea4-43f7-a9c1-28800cf4c278}
  0
XRECORD
  5
466
102
{ACAD_REACTORS
330
463
102
}
330
463
100
AcDbXrecord
  1

  0
XRECORD
  5
46B
102
{ACAD_REACTORS
330
463
102
}
330
463
100
AcDbXrecord
 90
        4
  0
XRECORD
  5
468
102
{ACAD_REACTORS
330
463
102
}
330
463
100
AcDbXrecord
340
1A
  0
XRECORD
  5
46A
102
{ACAD_REACTORS
330
463
102
}
330
463
100
AcDbXrecord
 90
    10781
  0
XRECORD
  5
469
102
{ACAD_REACTORS
330
463
102
}
330
463
100
AcDbXrecord
340
19
  0
XRECORD
  5
470
102
{ACAD_REACTORS
330
463
102
}
330
463
100
AcDbXrecord
 40
0.0
  0
XRECORD
  5
473
102
{ACAD_REACTORS
330
463
102
}
330
463
100
AcDbXrecord
340
0
  0
XRECORD
  5
479
102
{ACAD_REACTORS
330
463
102
}
330
463
100
AcDbXrecord
 10
0.0
 20
0.0
 30
0.0
  0
XRECORD
  5
475
102
{ACAD_REACTORS
330
463
102
}
330
463
100
AcDbXrecord
 10
0.0
 20
0.0
 30
0.0
  0
XRECORD
  5
478
102
{ACAD_REACTORS
330
463
102
}
330
463
100
AcDbXrecord
 10
0.0
 20
0.0
 30
0.0
  0
XRECORD
  5
476
102
{ACAD_REACTORS
330
463
102
}
330
463
100
AcDbXrecord
 10
0.0
 20
0.0
 30
0.0
  0
XRECORD
  5
477
102
{ACAD_REACTORS
330
463
102
}
330
463
100
AcDbXrecord
 10
0.0
 20
0.0
 30
0.0
  0
XRECORD
  5
474
102
{ACAD_REACTORS
330
463
102
}
330
463
100
AcDbXrecord
 10
0.0
 20
0.0
 30
0.0
  0
XRECORD
  5
471
102
{ACAD_REACTORS
330
463
102
}
330
463
100
AcDbXrecord
340
0
  0
XRECORD
  5
472
102
{ACAD_REACTORS
330
463
102
}
330
463
100
AcDbXrecord
 70
     0
  0
XRECORD
  5
467
102
{ACAD_REACTORS
330
463
102
}
330
463
100
AcDbXrecord
  1

  0
XRECORD
  5
464
102
{ACAD_REACTORS
330
463
102
}
330
463
100
AcDbXrecord
 90
        1
  0
XRECORD
  5
465
102
{ACAD_REACTORS
330
463
102
}
330
463
100
AcDbXrecord
 90
       70
  0
XRECORD
  5
47C
102
{ACAD_REACTORS
330
463
102
}
330
463
100
AcDbXrecord
340
0
  0
XRECORD
  5
482
102
{ACAD_REACTORS
330
463
102
}
330
463
100
AcDbXrecord
 10
0.0
 20
0.0
 30
0.0
  0
XRECORD
  5
47E
102
{ACAD_REACTORS
330
463
102
}
330
463
100
AcDbXrecord
 10
0.0
 20
0.0
 30
0.0
  0
XRECORD
  5
481
102
{ACAD_REACTORS
330
463
102
}
330
463
100
AcDbXrecord
 10
0.0
 20
0.0
 30
0.0
  0
XRECORD
  5
47F
102
{ACAD_REACTORS
330
463
102
}
330
463
100
AcDbXrecord
 10
0.0
 20
0.0
 30
0.0
  0
XRECORD
  5
480
102
{ACAD_REACTORS
330
463
102
}
330
463
100
AcDbXrecord
 10
0.0
 20
0.0
 30
0.0
  0
XRECORD
  5
47D
102
{ACAD_REACTORS
330
463
102
}
330
463
100
AcDbXrecord
 10
0.0
 20
0.0
 30
0.0
  0
XRECORD
  5
47A
102
{ACAD_REACTORS
330
463
102
}
330
463
100
AcDbXrecord
340
0
  0
XRECORD
  5
47B
102
{ACAD_REACTORS
330
463
102
}
330
463
100
AcDbXrecord
 70
     0
  0
XRECORD
  5
46F
102
{ACAD_REACTORS
330
463
102
}
330
463
100
AcDbXrecord
  1
{FAEB1C32-E019-11D5-929B-00C0DF256EC4}
  0
DICTIONARYVAR
  5
491
102
{ACAD_REACTORS
330
484
102
}
330
484
100
DictionaryVariables
280
     0
  1
1:1
  0
DICTIONARYVAR
  5
48B
102
{ACAD_REACTORS
330
484
102
}
330
484
100
DictionaryVariables
280
     0
  1
3.500000
  0
DICTIONARYVAR
  5
48C
102
{ACAD_REACTORS
330
484
102
}
330
484
100
DictionaryVariables
280
     0
  1
acadiso.lin
  0
DICTIONARYVAR
  5
486
102
{ACAD_REACTORS
330
484
102
}
330
484
100
DictionaryVariables
280
     0
  1
Standard
  0
DICTIONARYVAR
  5
485
102
{ACAD_REACTORS
330
484
102
}
330
484
100
DictionaryVariables
280
     0
  1
Standard
  0
DICTIONARYVAR
  5
48D
102
{ACAD_REACTORS
330
484
102
}
330
484
100
DictionaryVariables
280
     0
  1
2
  0
DICTIONARYVAR
  5
48E
102
{ACAD_REACTORS
330
484
102
}
330
484
100
DictionaryVariables
280
     0
  1
1
  0
DICTIONARYVAR
  5
492
102
{ACAD_REACTORS
330
484
102
}
330
484
100
DictionaryVariables
280
     0
  1
1
  0
DICTIONARYVAR
  5
488
102
{ACAD_REACTORS
330
484
102
}
330
484
100
DictionaryVariables
280
     0
  1
80.000000
  0
DICTIONARYVAR
  5
487
102
{ACAD_REACTORS
330
484
102
}
330
484
100
DictionaryVariables
280
     0
  1
5.000000
  0
DICTIONARY
  5
495
330
45
100
AcDbDictionary
280
     1
  3
ACAD_XREC_ROUNDTRIP
360
496
  0
DICTIONARY
  5
493
330
44
100
AcDbDictionary
280
     1
  3
ACAD_XREC_ROUNDTRIP
360
494
  0
DICTIONARY
  5
497
330
46
100
AcDbDictionary
280
     1
  3
ACAD_XREC_ROUNDTRIP
360
498
  0
XRECORD
  5
496
102
{ACAD_REACTORS
330
495
102
}
330
495
100
AcDbXrecord
102
MATERIAL
148
0.0
149
0.0
149
0.0
 93
        0
 94
      127
282
     0
 72
     1
 77
     1
171
     1
175
     1
179
     1
273
     0
  0
XRECORD
  5
494
102
{ACAD_REACTORS
330
493
102
}
330
493
100
AcDbXrecord
102
MATERIAL
148
0.0
149
0.0
149
0.0
 93
        0
 94
      127
282
     0
 72
     1
 77
     1
171
     1
175
     1
179
     1
273
     0
  0
XRECORD
  5
498
102
{ACAD_REACTORS
330
497
102
}
330
497
100
AcDbXrecord
102
MATERIAL
148
0.0
149
0.0
149
0.0
 93
        0
 94
      127
282
     0
 72
     1
 77
     1
171
     1
175
     1
179
     1
273
     0
  0
ENDSEC
  0
EOF
