  0
SECTION
  2
HEADER
  9
$ACADVER
  1
AC1014
  9
$ACADMAINTVER
 70
     9
  9
$DWGCODEPAGE
  3
ANSI_932
  9
$INSBASE
 10
0.0
 20
0.0
 30
0.0
  9
$EXTMIN
 10
30.0
 20
30.0
 30
0.0
  9
$EXTMAX
 10
1230.0
 20
861.0
 30
0.0
  9
$LIMMIN
 10
0.0
 20
0.0
  9
$LIMMAX
 10
420.0
 20
297.0
  9
$ORTHOMODE
 70
     0
  9
$REGENMODE
 70
     1
  9
$FILLMODE
 70
     1
  9
$QTEXTMODE
 70
     0
  9
$MIRRTEXT
 70
     1
  9
$DRAGMODE
 70
     2
  9
$LTSCALE
 40
1.0
  9
$OSMODE
 70
    37
  9
$ATTMODE
 70
     1
  9
$TEXTSIZE
 40
2.5
  9
$TRACEWID
 40
1.0
  9
$TEXTSTYLE
  7
STANDARD
  9
$CLAYER
  8
Ｓ_１_１
  9
$CELTYPE
  6
BYLAYER
  9
$CECOLOR
 62
   256
  9
$CELTSCALE
 40
1.0
  9
$DELOBJ
 70
     1
  9
$DISPSILH
 70
     0
  9
$DIMSCALE
 40
1.0
  9
$DIMASZ
 40
2.5
  9
$DIMEXO
 40
0.625
  9
$DIMDLI
 40
3.75
  9
$DIMRND
 40
0.0
  9
$DIMDLE
 40
0.0
  9
$DIMEXE
 40
1.25
  9
$DIMTP
 40
0.0
  9
$DIMTM
 40
0.0
  9
$DIMTXT
 40
2.5
  9
$DIMCEN
 40
2.5
  9
$DIMTSZ
 40
0.0
  9
$DIMTOL
 70
     0
  9
$DIMLIM
 70
     0
  9
$DIMTIH
 70
     0
  9
$DIMTOH
 70
     0
  9
$DIMSE1
 70
     0
  9
$DIMSE2
 70
     0
  9
$DIMTAD
 70
     1
  9
$DIMZIN
 70
     8
  9
$DIMBLK
  1

  9
$DIMASO
 70
     1
  9
$DIMSHO
 70
     1
  9
$DIMPOST
  1

  9
$DIMAPOST
  1

  9
$DIMALT
 70
     0
  9
$DIMALTD
 70
     3
  9
$DIMALTF
 40
0.03937007874016
  9
$DIMLFAC
 40
1.0
  9
$DIMTOFL
 70
     1
  9
$DIMTVP
 40
0.0
  9
$DIMTIX
 70
     0
  9
$DIMSOXD
 70
     0
  9
$DIMSAH
 70
     0
  9
$DIMBLK1
  1

  9
$DIMBLK2
  1

  9
$DIMSTYLE
  2
ISO-25
  9
$DIMCLRD
 70
     0
  9
$DIMCLRE
 70
     0
  9
$DIMCLRT
 70
     0
  9
$DIMTFAC
 40
1.0
  9
$DIMGAP
 40
0.625
  9
$DIMJUST
 70
     0
  9
$DIMSD1
 70
     0
  9
$DIMSD2
 70
     0
  9
$DIMTOLJ
 70
     0
  9
$DIMTZIN
 70
     8
  9
$DIMALTZ
 70
     0
  9
$DIMALTTZ
 70
     0
  9
$DIMFIT
 70
     3
  9
$DIMUPT
 70
     0
  9
$DIMUNIT
 70
     2
  9
$DIMDEC
 70
     2
  9
$DIMTDEC
 70
     2
  9
$DIMALTU
 70
     2
  9
$DIMALTTD
 70
     3
  9
$DIMTXSTY
  7
STANDARD
  9
$DIMAUNIT
 70
     0
  9
$LUNITS
 70
     2
  9
$LUPREC
 70
     4
  9
$SKETCHINC
 40
1.0
  9
$FILLETRAD
 40
10.0
  9
$AUNITS
 70
     0
  9
$AUPREC
 70
     0
  9
$MENU
  1
.
  9
$ELEVATION
 40
0.0
  9
$PELEVATION
 40
0.0
  9
$THICKNESS
 40
0.0
  9
$LIMCHECK
 70
     0
  9
$CHAMFERA
 40
0.0
  9
$CHAMFERB
 40
0.0
  9
$CHAMFERC
 40
0.0
  9
$CHAMFERD
 40
0.0
  9
$SKPOLY
 70
     0
  9
$TDCREATE
 40
2459585.497338391
  9
$TDUPDATE
 40
2459585.497339502
  9
$TDINDWG
 40
0.0000000116
  9
$TDUSRTIMER
 40
0.0000000116
  9
$USRTIMER
 70
     1
  9
$ANGBASE
 50
0.0
  9
$ANGDIR
 70
     0
  9
$PDMODE
 70
     0
  9
$PDSIZE
 40
0.0
  9
$PLINEWID
 40
0.0
  9
$COORDS
 70
     1
  9
$SPLFRAME
 70
     0
  9
$SPLINETYPE
 70
     6
  9
$SPLINESEGS
 70
     8
  9
$ATTDIA
 70
     0
  9
$ATTREQ
 70
     1
  9
$HANDLING
 70
     1
  9
$HANDSEED
  5
531
  9
$SURFTAB1
 70
     6
  9
$SURFTAB2
 70
     6
  9
$SURFTYPE
 70
     6
  9
$SURFU
 70
     6
  9
$SURFV
 70
     6
  9
$UCSNAME
  2

  9
$UCSORG
 10
0.0
 20
0.0
 30
0.0
  9
$UCSXDIR
 10
1.0
 20
0.0
 30
0.0
  9
$UCSYDIR
 10
0.0
 20
1.0
 30
0.0
  9
$PUCSNAME
  2

  9
$PUCSORG
 10
0.0
 20
0.0
 30
0.0
  9
$PUCSXDIR
 10
1.0
 20
0.0
 30
0.0
  9
$PUCSYDIR
 10
0.0
 20
1.0
 30
0.0
  9
$USERI1
 70
     0
  9
$USERI2
 70
     0
  9
$USERI3
 70
     0
  9
$USERI4
 70
     0
  9
$USERI5
 70
     0
  9
$USERR1
 40
0.0
  9
$USERR2
 40
0.0
  9
$USERR3
 40
0.0
  9
$USERR4
 40
0.0
  9
$USERR5
 40
0.0
  9
$WORLDVIEW
 70
     1
  9
$SHADEDGE
 70
     3
  9
$SHADEDIF
 70
    70
  9
$TILEMODE
 70
     1
  9
$MAXACTVP
 70
    64
  9
$PINSBASE
 10
0.0
 20
0.0
 30
0.0
  9
$PLIMCHECK
 70
     0
  9
$PEXTMIN
 10
1.000000000000000E+20
 20
1.000000000000000E+20
 30
1.000000000000000E+20
  9
$PEXTMAX
 10
-1.000000000000000E+20
 20
-1.000000000000000E+20
 30
-1.000000000000000E+20
  9
$PLIMMIN
 10
0.0
 20
0.0
  9
$PLIMMAX
 10
420.0
 20
297.0
  9
$UNITMODE
 70
     0
  9
$VISRETAIN
 70
     1
  9
$PLINEGEN
 70
     0
  9
$PSLTSCALE
 70
     1
  9
$TREEDEPTH
 70
  3020
  9
$PICKSTYLE
 70
     1
  9
$CMLSTYLE
  2
STANDARD
  9
$CMLJUST
 70
     0
  9
$CMLSCALE
 40
20.0
  9
$PROXYGRAPHICS
 70
     1
  9
$MEASUREMENT
 70
     1
  0
ENDSEC
  0
SECTION
  2
CLASSES
  0
CLASS
  1
ACDBDICTIONARYWDFLT
  2
AcDbDictionaryWithDefault
  3
ObjectDBX Classes
 90
        0
280
     0
281
     0
  0
CLASS
  1
VISUALSTYLE
  2
AcDbVisualStyle
  3
ObjectDBX Classes
 90
     4095
280
     0
281
     0
  0
CLASS
  1
MATERIAL
  2
AcDbMaterial
  3
ObjectDBX Classes
 90
     1153
280
     0
281
     0
  0
CLASS
  1
SCALE
  2
AcDbScale
  3
ObjectDBX Classes
 90
     1153
280
     0
281
     0
  0
CLASS
  1
TABLESTYLE
  2
AcDbTableStyle
  3
ObjectDBX Classes
 90
     4095
280
     0
281
     0
  0
CLASS
  1
MLEADERSTYLE
  2
AcDbMLeaderStyle
  3
ACDB_MLEADERSTYLE_CLASS
 90
     4095
280
     0
281
     0
  0
CLASS
  1
SUN
  2
AcDbSun
  3
SCENEOE
 90
     1153
280
     0
281
     0
  0
CLASS
  1
DICTIONARYVAR
  2
AcDbDictionaryVar
  3
ObjectDBX Classes
 90
        0
280
     0
281
     0
  0
CLASS
  1
XRECORD
  2
AcDbXrecord
  3
ObjectDBX Classes
 90
        0
280
     0
281
     0
  0
CLASS
  1
LWPOLYLINE
  2
AcDbPolyline
  3
ObjectDBX Classes
 90
        0
280
     0
281
     1
  0
CLASS
  1
HATCH
  2
AcDbHatch
  3
ObjectDBX Classes
 90
        0
280
     0
281
     1
  0
CLASS
  1
ACDBPLACEHOLDER
  2
AcDbPlaceHolder
  3
ObjectDBX Classes
 90
        0
280
     0
281
     0
  0
CLASS
  1
LAYOUT
  2
AcDbLayout
  3
ObjectDBX Classes
 90
        0
280
     0
281
     0
  0
ENDSEC
  0
SECTION
  2
TABLES
  0
TABLE
  2
VPORT
  5
8
102
{ACAD_XDICTIONARY
360
526
102
}
330
0
100
AcDbSymbolTable
 70
     1
  0
VPORT
  5
29
330
8
100
AcDbSymbolTableRecord
100
AcDbViewportTableRecord
  2
*ACTIVE
 70
     0
 10
0.0
 20
0.0
 11
1.0
 21
1.0
 12
630.0
 22
445.5
 13
0.0
 23
0.0
 14
10.0
 24
10.0
 15
10.0
 25
10.0
 16
0.0
 26
0.0
 36
1.0
 17
0.0
 27
0.0
 37
0.0
 40
831.0
 41
1.444043321299639
 42
50.0
 43
0.0
 44
0.0
 50
0.0
 51
0.0
 71
     0
 72
  1000
 73
     1
 74
     3
 75
     0
 76
     0
 77
     0
 78
     0
  0
ENDTAB
  0
TABLE
  2
LTYPE
  5
5
330
0
100
AcDbSymbolTable
 70
     7
  0
LTYPE
  5
14
330
5
100
AcDbSymbolTableRecord
100
AcDbLinetypeTableRecord
  2
BYBLOCK
 70
     0
  3

 72
    65
 73
     0
 40
0.0
  0
LTYPE
  5
15
330
5
100
AcDbSymbolTableRecord
100
AcDbLinetypeTableRecord
  2
BYLAYER
 70
     0
  3

 72
    65
 73
     0
 40
0.0
  0
LTYPE
  5
16
330
5
100
AcDbSymbolTableRecord
100
AcDbLinetypeTableRecord
  2
CONTINUOUS
 70
     0
  3
Solid line
 72
    65
 73
     0
 40
0.0
  0
LTYPE
  5
6E
330
5
100
AcDbSymbolTableRecord
100
AcDbLinetypeTableRecord
  2
EXLTYPE0
 70
     0
  3
破線
 72
    65
 73
     2
 40
4.0
 49
3.0
 74
     0
 49
-1.0
 74
     0
  0
LTYPE
  5
6F
330
5
100
AcDbSymbolTableRecord
100
AcDbLinetypeTableRecord
  2
EXLTYPE1
 70
     0
  3
点線
 72
    65
 73
     2
 40
2.0
 49
1.0
 74
     0
 49
-1.0
 74
     0
  0
LTYPE
  5
70
330
5
100
AcDbSymbolTableRecord
100
AcDbLinetypeTableRecord
  2
EXLTYPE2
 70
     0
  3
一点鎖線
 72
    65
 73
     4
 40
13.0
 49
10.0
 74
     0
 49
-1.0
 74
     0
 49
1.0
 74
     0
 49
-1.0
 74
     0
  0
LTYPE
  5
71
330
5
100
AcDbSymbolTableRecord
100
AcDbLinetypeTableRecord
  2
EXLTYPE3
 70
     0
  3
二点鎖線
 72
    65
 73
     6
 40
15.0
 49
10.0
 74
     0
 49
-1.0
 74
     0
 49
1.0
 74
     0
 49
-1.0
 74
     0
 49
1.0
 74
     0
 49
-1.0
 74
     0
  0
LTYPE
  5
72
330
5
100
AcDbSymbolTableRecord
100
AcDbLinetypeTableRecord
  2
EXLTYPE4
 70
     0
  3
一点鎖線2
 72
    65
 73
     4
 40
3.5
 49
2.0
 74
     0
 49
-0.5
 74
     0
 49
0.5
 74
     0
 49
-0.5
 74
     0
  0
LTYPE
  5
73
330
5
100
AcDbSymbolTableRecord
100
AcDbLinetypeTableRecord
  2
EXLTYPE5
 70
     0
  3
二点鎖線2
 72
    65
 73
     6
 40
4.5
 49
2.0
 74
     0
 49
-0.5
 74
     0
 49
0.5
 74
     0
 49
-0.5
 74
     0
 49
0.5
 74
     0
 49
-0.5
 74
     0
  0
ENDTAB
  0
TABLE
  2
LAYER
  5
2
330
0
100
AcDbSymbolTable
 70
     4
  0
LAYER
  5
10
330
2
100
AcDbSymbolTableRecord
100
AcDbLayerTableRecord
  2
0
 70
     0
 62
     7
  6
CONTINUOUS
  0
LAYER
  5
76
330
2
100
AcDbSymbolTableRecord
100
AcDbLayerTableRecord
  2
図面枠
 70
     4
 62
     7
  6
CONTINUOUS
  0
LAYER
  5
77
330
2
100
AcDbSymbolTableRecord
100
AcDbLayerTableRecord
  2
Ｓ_１_１
 70
     0
 62
     7
  6
CONTINUOUS
  0
LAYER
  5
12A
330
2
100
AcDbSymbolTableRecord
100
AcDbLayerTableRecord
  2
DEFPOINTS
 70
     0
 62
     7
  6
CONTINUOUS
  0
ENDTAB
  0
TABLE
  2
STYLE
  5
3
330
0
100
AcDbSymbolTable
 70
     5
  0
STYLE
  5
11
330
3
100
AcDbSymbolTableRecord
100
AcDbTextStyleTableRecord
  2
STANDARD
 70
     0
 40
0.0
 41
1.0
 50
0.0
 71
     0
 42
2.5
  3
monotxt
  4
extfont
  0
STYLE
  5
74
330
3
100
AcDbSymbolTableRecord
100
AcDbTextStyleTableRecord
  2
EXCADSTD
 70
     0
 40
0.0
 41
1.0
 50
0.0
 71
     0
 42
2.5
  3
monotxt
  4
extfont
  0
STYLE
  5
75
330
3
100
AcDbSymbolTableRecord
100
AcDbTextStyleTableRecord
  2
EXCADVERT
 70
     4
 40
0.0
 41
1.0
 50
0.0
 71
     0
 42
2.5
  3
monotxt
  4
extfont
  0
STYLE
  5
DA
330
3
100
AcDbSymbolTableRecord
100
AcDbTextStyleTableRecord
  2
EXCADTTF1
 70
     0
 40
0.0
 41
1.0
 50
0.0
 71
     0
 42
2.5
  3
msgothic.ttc
  4

1001
ACAD
1000
MS Gothic
1071
    32817
  0
STYLE
  5
128
330
3
100
AcDbSymbolTableRecord
100
AcDbTextStyleTableRecord
  2
EXCADDIM1
 70
     0
 40
0.0
 41
1.0
 50
0.0
 71
     0
 42
2.5
  3
msgothic.ttc
  4

1001
ACAD
1000
MS Gothic
1071
    32817
  0
ENDTAB
  0
TABLE
  2
VIEW
  5
6
330
0
100
AcDbSymbolTable
 70
     0
  0
ENDTAB
  0
TABLE
  2
UCS
  5
7
330
0
100
AcDbSymbolTable
 70
     0
  0
ENDTAB
  0
TABLE
  2
APPID
  5
9
330
0
100
AcDbSymbolTable
 70
     2
  0
APPID
  5
12
330
9
100
AcDbSymbolTableRecord
100
AcDbRegAppTableRecord
  2
ACAD
 70
     0
  0
APPID
  5
530
330
9
100
AcDbSymbolTableRecord
100
AcDbRegAppTableRecord
  2
ACAD_MLEADERVER
 70
     0
  0
ENDTAB
  0
TABLE
  2
DIMSTYLE
  5
A
330
0
100
AcDbSymbolTable
 70
     1
  0
DIMSTYLE
105
27
102
{ACAD_REACTORS
330
129
330
135
330
142
330
14F
330
15C
330
34B
330
363
330
3F2
330
46B
330
478
330
484
330
491
330
49E
330
4AA
330
4B7
330
4C4
330
4D1
330
4DE
330
4ED
102
}
330
A
100
AcDbSymbolTableRecord
100
AcDbDimStyleTableRecord
  2
ISO-25
 70
     0
  3

  4

  5

  6

  7

 40
1.0
 41
2.5
 42
0.625
 43
3.75
 44
1.25
 45
0.0
 46
0.0
 47
0.0
 48
0.0
140
2.5
141
2.5
142
0.0
143
0.03937007874016
144
1.0
145
0.0
146
1.0
147
0.625
 71
     0
 72
     0
 73
     0
 74
     0
 75
     0
 76
     0
 77
     1
 78
     8
170
     0
171
     3
172
     1
173
     0
174
     0
175
     0
176
     0
177
     0
178
     0
270
     2
271
     2
272
     2
273
     2
274
     3
340
11
275
     0
280
     0
281
     0
282
     0
283
     0
284
     8
285
     0
286
     0
287
     5
288
     0
  0
ENDTAB
  0
TABLE
  2
BLOCK_RECORD
  5
1
330
0
100
AcDbSymbolTable
 70
    33
  0
BLOCK_RECORD
  5
1F
330
1
100
AcDbSymbolTableRecord
100
AcDbBlockTableRecord
  2
*MODEL_SPACE
  0
BLOCK_RECORD
  5
1B
330
1
100
AcDbSymbolTableRecord
100
AcDbBlockTableRecord
  2
*PAPER_SPACE
  0
BLOCK_RECORD
  5
78
330
1
100
AcDbSymbolTableRecord
100
AcDbBlockTableRecord
  2
EX_NORM
  0
BLOCK_RECORD
  5
7B
330
1
100
AcDbSymbolTableRecord
100
AcDbBlockTableRecord
  2
EX_BNORM
  0
BLOCK_RECORD
  5
7E
330
1
100
AcDbSymbolTableRecord
100
AcDbBlockTableRecord
  2
EX_BCIR
  0
BLOCK_RECORD
  5
81
330
1
100
AcDbSymbolTableRecord
100
AcDbBlockTableRecord
  2
EX_RCIVIL
  0
BLOCK_RECORD
  5
84
330
1
100
AcDbSymbolTableRecord
100
AcDbBlockTableRecord
  2
EX_SLANT
  0
BLOCK_RECORD
  5
87
330
1
100
AcDbSymbolTableRecord
100
AcDbBlockTableRecord
  2
EX_NONE
  0
BLOCK_RECORD
  5
8A
330
1
100
AcDbSymbolTableRecord
100
AcDbBlockTableRecord
  2
EX_CIVIL
  0
BLOCK_RECORD
  5
8D
330
1
100
AcDbSymbolTableRecord
100
AcDbBlockTableRecord
  2
EX_WCIR
  0
BLOCK_RECORD
  5
90
330
1
100
AcDbSymbolTableRecord
100
AcDbBlockTableRecord
  2
EX_WCIR2
  0
BLOCK_RECORD
  5
93
330
1
100
AcDbSymbolTableRecord
100
AcDbBlockTableRecord
  2
EX_WNORM
  0
BLOCK_RECORD
  5
96
330
1
100
AcDbSymbolTableRecord
100
AcDbBlockTableRecord
  2
EX_NNORM
  0
BLOCK_RECORD
  5
99
330
1
100
AcDbSymbolTableRecord
100
AcDbBlockTableRecord
  2
EX_BBOX
  0
BLOCK_RECORD
  5
9C
330
1
100
AcDbSymbolTableRecord
100
AcDbBlockTableRecord
  2
EX_WBOX
  0
BLOCK_RECORD
  5
9F
330
1
100
AcDbSymbolTableRecord
100
AcDbBlockTableRecord
  2
EX_INTEGRAL
  0
BLOCK_RECORD
  5
12B
330
1
100
AcDbSymbolTableRecord
100
AcDbBlockTableRecord
  2
*D15
  0
BLOCK_RECORD
  5
136
330
1
100
AcDbSymbolTableRecord
100
AcDbBlockTableRecord
  2
*D16
  0
BLOCK_RECORD
  5
143
330
1
100
AcDbSymbolTableRecord
100
AcDbBlockTableRecord
  2
*D17
  0
BLOCK_RECORD
  5
150
330
1
100
AcDbSymbolTableRecord
100
AcDbBlockTableRecord
  2
*D18
  0
BLOCK_RECORD
  5
15D
330
1
100
AcDbSymbolTableRecord
100
AcDbBlockTableRecord
  2
*D19
  0
BLOCK_RECORD
  5
34C
330
1
100
AcDbSymbolTableRecord
100
AcDbBlockTableRecord
  2
*D20
  0
BLOCK_RECORD
  5
364
330
1
100
AcDbSymbolTableRecord
100
AcDbBlockTableRecord
  2
*D21
  0
BLOCK_RECORD
  5
3F3
330
1
100
AcDbSymbolTableRecord
100
AcDbBlockTableRecord
  2
*D22
  0
BLOCK_RECORD
  5
46C
330
1
100
AcDbSymbolTableRecord
100
AcDbBlockTableRecord
  2
*D23
  0
BLOCK_RECORD
  5
479
330
1
100
AcDbSymbolTableRecord
100
AcDbBlockTableRecord
  2
*D24
  0
BLOCK_RECORD
  5
485
330
1
100
AcDbSymbolTableRecord
100
AcDbBlockTableRecord
  2
*D25
  0
BLOCK_RECORD
  5
492
330
1
100
AcDbSymbolTableRecord
100
AcDbBlockTableRecord
  2
*D26
  0
BLOCK_RECORD
  5
49F
330
1
100
AcDbSymbolTableRecord
100
AcDbBlockTableRecord
  2
*D27
  0
BLOCK_RECORD
  5
4AB
330
1
100
AcDbSymbolTableRecord
100
AcDbBlockTableRecord
  2
*D28
  0
BLOCK_RECORD
  5
4B8
330
1
100
AcDbSymbolTableRecord
100
AcDbBlockTableRecord
  2
*D29
  0
BLOCK_RECORD
  5
4C5
330
1
100
AcDbSymbolTableRecord
100
AcDbBlockTableRecord
  2
*D30
  0
BLOCK_RECORD
  5
4D2
330
1
100
AcDbSymbolTableRecord
100
AcDbBlockTableRecord
  2
*D31
  0
BLOCK_RECORD
  5
4DF
330
1
100
AcDbSymbolTableRecord
100
AcDbBlockTableRecord
  2
*D32
  0
BLOCK_RECORD
  5
4EE
330
1
100
AcDbSymbolTableRecord
100
AcDbBlockTableRecord
  2
*D33
  0
ENDTAB
  0
ENDSEC
  0
SECTION
  2
BLOCKS
  0
BLOCK
  5
20
330
1F
100
AcDbEntity
  8
0
100
AcDbBlockBegin
  2
*MODEL_SPACE
 70
     0
 10
0.0
 20
0.0
 30
0.0
  3
*MODEL_SPACE
  1

  0
ENDBLK
  5
21
330
1F
100
AcDbEntity
  8
0
100
AcDbBlockEnd
  0
BLOCK
  5
1C
330
1B
100
AcDbEntity
 67
     1
  8
0
100
AcDbBlockBegin
  2
*PAPER_SPACE
 70
     0
 10
0.0
 20
0.0
 30
0.0
  3
*PAPER_SPACE
  1

  0
ENDBLK
  5
1D
330
1B
100
AcDbEntity
 67
     1
  8
0
100
AcDbBlockEnd
  0
BLOCK
  5
79
330
78
100
AcDbEntity
  8
0
100
AcDbBlockBegin
  2
EX_NORM
 70
     0
 10
0.0
 20
0.0
 30
0.0
  3
EX_NORM
  1

  0
LINE
  5
A2
330
78
100
AcDbEntity
  8
0
  6
CONTINUOUS
 62
     0
100
AcDbLine
 10
0.0
 20
0.0
 30
0.0
 11
-1.0
 21
0.0
 31
0.0
  0
LINE
  5
A3
330
78
100
AcDbEntity
  8
0
  6
CONTINUOUS
 62
     0
100
AcDbLine
 10
0.0
 20
0.0
 30
0.0
 11
-1.0
 21
0.166666667
 31
0.0
  0
LINE
  5
A4
330
78
100
AcDbEntity
  8
0
  6
CONTINUOUS
 62
     0
100
AcDbLine
 10
0.0
 20
0.0
 30
0.0
 11
-1.0
 21
-0.166666667
 31
0.0
  0
ENDBLK
  5
7A
330
78
100
AcDbEntity
  8
0
100
AcDbBlockEnd
  0
BLOCK
  5
7C
330
7B
100
AcDbEntity
  8
0
100
AcDbBlockBegin
  2
EX_BNORM
 70
     0
 10
0.0
 20
0.0
 30
0.0
  3
EX_BNORM
  1

  0
LINE
  5
A5
330
7B
100
AcDbEntity
  8
0
  6
CONTINUOUS
 62
     0
100
AcDbLine
 10
0.0
 20
0.0
 30
0.0
 11
-1.0
 21
0.0
 31
0.0
  0
LINE
  5
A6
330
7B
100
AcDbEntity
  8
0
  6
CONTINUOUS
 62
     0
100
AcDbLine
 10
0.0
 20
0.0
 30
0.0
 11
-1.0
 21
0.166666667
 31
0.0
  0
LINE
  5
A7
330
7B
100
AcDbEntity
  8
0
  6
CONTINUOUS
 62
     0
100
AcDbLine
 10
0.0
 20
0.0
 30
0.0
 11
-1.0
 21
-0.166666667
 31
0.0
  0
LINE
  5
A8
330
7B
100
AcDbEntity
  8
0
  6
CONTINUOUS
 62
     0
100
AcDbLine
 10
0.0
 20
0.0
 30
0.0
 11
-1.0
 21
0.083333333
 31
0.0
  0
LINE
  5
A9
330
7B
100
AcDbEntity
  8
0
  6
CONTINUOUS
 62
     0
100
AcDbLine
 10
0.0
 20
0.0
 30
0.0
 11
-1.0
 21
-0.083333333
 31
0.0
  0
LINE
  5
AA
330
7B
100
AcDbEntity
  8
0
  6
CONTINUOUS
 62
     0
100
AcDbLine
 10
-1.0
 20
0.166666667
 30
0.0
 11
-1.0
 21
-0.166666667
 31
0.0
  0
ENDBLK
  5
7D
330
7B
100
AcDbEntity
  8
0
100
AcDbBlockEnd
  0
BLOCK
  5
7F
330
7E
100
AcDbEntity
  8
0
100
AcDbBlockBegin
  2
EX_BCIR
 70
     0
 10
0.0
 20
0.0
 30
0.0
  3
EX_BCIR
  1

  0
LINE
  5
AB
330
7E
100
AcDbEntity
  8
0
  6
CONTINUOUS
 62
     0
100
AcDbLine
 10
0.0
 20
0.0
 30
0.0
 11
-1.0
 21
0.0
 31
0.0
  0
CIRCLE
  5
AC
330
7E
100
AcDbEntity
  8
0
  6
CONTINUOUS
 62
     0
100
AcDbCircle
 10
0.0
 20
0.0
 30
0.0
 40
0.5
  0
CIRCLE
  5
AD
330
7E
100
AcDbEntity
  8
0
  6
CONTINUOUS
 62
     0
100
AcDbCircle
 10
0.0
 20
0.0
 30
0.0
 40
0.25
  0
ENDBLK
  5
80
330
7E
100
AcDbEntity
  8
0
100
AcDbBlockEnd
  0
BLOCK
  5
82
330
81
100
AcDbEntity
  8
0
100
AcDbBlockBegin
  2
EX_RCIVIL
 70
     0
 10
0.0
 20
0.0
 30
0.0
  3
EX_RCIVIL
  1

  0
LINE
  5
AE
330
81
100
AcDbEntity
  8
0
  6
CONTINUOUS
 62
     0
100
AcDbLine
 10
0.0
 20
0.0
 30
0.0
 11
-1.0
 21
0.0
 31
0.0
  0
LINE
  5
AF
330
81
100
AcDbEntity
  8
0
  6
CONTINUOUS
 62
     0
100
AcDbLine
 10
-1.0
 20
-0.25
 30
0.0
 11
0.0
 21
-0.25
 31
0.0
  0
LINE
  5
B0
330
81
100
AcDbEntity
  8
0
  6
CONTINUOUS
 62
     0
100
AcDbLine
 10
-1.0
 20
-0.125
 30
0.0
 11
0.0
 21
-0.125
 31
0.0
  0
ENDBLK
  5
83
330
81
100
AcDbEntity
  8
0
100
AcDbBlockEnd
  0
BLOCK
  5
85
330
84
100
AcDbEntity
  8
0
100
AcDbBlockBegin
  2
EX_SLANT
 70
     0
 10
0.0
 20
0.0
 30
0.0
  3
EX_SLANT
  1

  0
LINE
  5
B1
330
84
100
AcDbEntity
  8
0
  6
CONTINUOUS
 62
     0
100
AcDbLine
 10
0.0
 20
0.0
 30
0.0
 11
-1.0
 21
0.0
 31
0.0
  0
LINE
  5
B2
330
84
100
AcDbEntity
  8
0
  6
CONTINUOUS
 62
     0
100
AcDbLine
 10
0.707106781
 20
0.707106781
 30
0.0
 11
-0.707106781
 21
-0.707106781
 31
0.0
  0
ENDBLK
  5
86
330
84
100
AcDbEntity
  8
0
100
AcDbBlockEnd
  0
BLOCK
  5
88
330
87
100
AcDbEntity
  8
0
100
AcDbBlockBegin
  2
EX_NONE
 70
     0
 10
0.0
 20
0.0
 30
0.0
  3
EX_NONE
  1

  0
LINE
  5
B3
330
87
100
AcDbEntity
  8
0
  6
CONTINUOUS
 62
     0
100
AcDbLine
 10
0.0
 20
0.0
 30
0.0
 11
-1.0
 21
0.0
 31
0.0
  0
ENDBLK
  5
89
330
87
100
AcDbEntity
  8
0
100
AcDbBlockEnd
  0
BLOCK
  5
8B
330
8A
100
AcDbEntity
  8
0
100
AcDbBlockBegin
  2
EX_CIVIL
 70
     0
 10
0.0
 20
0.0
 30
0.0
  3
EX_CIVIL
  1

  0
LINE
  5
B4
330
8A
100
AcDbEntity
  8
0
  6
CONTINUOUS
 62
     0
100
AcDbLine
 10
0.0
 20
0.0
 30
0.0
 11
-1.0
 21
0.0
 31
0.0
  0
LINE
  5
B5
330
8A
100
AcDbEntity
  8
0
  6
CONTINUOUS
 62
     0
100
AcDbLine
 10
-1.0
 20
0.25
 30
0.0
 11
0.0
 21
0.25
 31
0.0
  0
LINE
  5
B6
330
8A
100
AcDbEntity
  8
0
  6
CONTINUOUS
 62
     0
100
AcDbLine
 10
-1.0
 20
0.125
 30
0.0
 11
0.0
 21
0.125
 31
0.0
  0
ENDBLK
  5
8C
330
8A
100
AcDbEntity
  8
0
100
AcDbBlockEnd
  0
BLOCK
  5
8E
330
8D
100
AcDbEntity
  8
0
100
AcDbBlockBegin
  2
EX_WCIR
 70
     0
 10
0.0
 20
0.0
 30
0.0
  3
EX_WCIR
  1

  0
LINE
  5
B7
330
8D
100
AcDbEntity
  8
0
  6
CONTINUOUS
 62
     0
100
AcDbLine
 10
0.0
 20
0.0
 30
0.0
 11
-1.0
 21
0.0
 31
0.0
  0
CIRCLE
  5
B8
330
8D
100
AcDbEntity
  8
0
  6
CONTINUOUS
 62
     0
100
AcDbCircle
 10
0.0
 20
0.0
 30
0.0
 40
0.5
  0
ENDBLK
  5
8F
330
8D
100
AcDbEntity
  8
0
100
AcDbBlockEnd
  0
BLOCK
  5
91
330
90
100
AcDbEntity
  8
0
100
AcDbBlockBegin
  2
EX_WCIR2
 70
     0
 10
0.0
 20
0.0
 30
0.0
  3
EX_WCIR2
  1

  0
LINE
  5
B9
330
90
100
AcDbEntity
  8
0
  6
CONTINUOUS
 62
     0
100
AcDbLine
 10
-0.5
 20
0.0
 30
0.0
 11
-1.0
 21
0.0
 31
0.0
  0
CIRCLE
  5
BA
330
90
100
AcDbEntity
  8
0
  6
CONTINUOUS
 62
     0
100
AcDbCircle
 10
0.0
 20
0.0
 30
0.0
 40
0.5
  0
ENDBLK
  5
92
330
90
100
AcDbEntity
  8
0
100
AcDbBlockEnd
  0
BLOCK
  5
94
330
93
100
AcDbEntity
  8
0
100
AcDbBlockBegin
  2
EX_WNORM
 70
     0
 10
0.0
 20
0.0
 30
0.0
  3
EX_WNORM
  1

  0
LINE
  5
BB
330
93
100
AcDbEntity
  8
0
  6
CONTINUOUS
 62
     0
100
AcDbLine
 10
-1.0
 20
0.0
 30
0.0
 11
-1.0
 21
0.0
 31
0.0
  0
LINE
  5
BC
330
93
100
AcDbEntity
  8
0
  6
CONTINUOUS
 62
     0
100
AcDbLine
 10
0.0
 20
0.0
 30
0.0
 11
-1.0
 21
0.166666667
 31
0.0
  0
LINE
  5
BD
330
93
100
AcDbEntity
  8
0
  6
CONTINUOUS
 62
     0
100
AcDbLine
 10
0.0
 20
0.0
 30
0.0
 11
-1.0
 21
-0.166666667
 31
0.0
  0
LINE
  5
BE
330
93
100
AcDbEntity
  8
0
  6
CONTINUOUS
 62
     0
100
AcDbLine
 10
-1.0
 20
0.166666667
 30
0.0
 11
-1.0
 21
-0.166666667
 31
0.0
  0
ENDBLK
  5
95
330
93
100
AcDbEntity
  8
0
100
AcDbBlockEnd
  0
BLOCK
  5
97
330
96
100
AcDbEntity
  8
0
100
AcDbBlockBegin
  2
EX_NNORM
 70
     0
 10
0.0
 20
0.0
 30
0.0
  3
EX_NNORM
  1

  0
LINE
  5
BF
330
96
100
AcDbEntity
  8
0
  6
CONTINUOUS
 62
     0
100
AcDbLine
 10
0.0
 20
0.0
 30
0.0
 11
-1.0
 21
0.0
 31
0.0
  0
LINE
  5
C0
330
96
100
AcDbEntity
  8
0
  6
CONTINUOUS
 62
     0
100
AcDbLine
 10
0.0
 20
0.0
 30
0.0
 11
-1.0
 21
0.166666667
 31
0.0
  0
LINE
  5
C1
330
96
100
AcDbEntity
  8
0
  6
CONTINUOUS
 62
     0
100
AcDbLine
 10
0.0
 20
0.0
 30
0.0
 11
-1.0
 21
-0.166666667
 31
0.0
  0
LINE
  5
C2
330
96
100
AcDbEntity
  8
0
  6
CONTINUOUS
 62
     0
100
AcDbLine
 10
-1.0
 20
0.166666667
 30
0.0
 11
-1.0
 21
-0.166666667
 31
0.0
  0
ENDBLK
  5
98
330
96
100
AcDbEntity
  8
0
100
AcDbBlockEnd
  0
BLOCK
  5
9A
330
99
100
AcDbEntity
  8
0
100
AcDbBlockBegin
  2
EX_BBOX
 70
     0
 10
0.0
 20
0.0
 30
0.0
  3
EX_BBOX
  1

  0
LINE
  5
C3
330
99
100
AcDbEntity
  8
0
  6
CONTINUOUS
 62
     0
100
AcDbLine
 10
0.0
 20
0.0
 30
0.0
 11
-1.0
 21
0.0
 31
0.0
  0
LINE
  5
C4
330
99
100
AcDbEntity
  8
0
  6
CONTINUOUS
 62
     0
100
AcDbLine
 10
-0.5
 20
0.5
 30
0.0
 11
0.5
 21
0.5
 31
0.0
  0
LINE
  5
C5
330
99
100
AcDbEntity
  8
0
  6
CONTINUOUS
 62
     0
100
AcDbLine
 10
0.5
 20
0.5
 30
0.0
 11
0.5
 21
-0.5
 31
0.0
  0
LINE
  5
C6
330
99
100
AcDbEntity
  8
0
  6
CONTINUOUS
 62
     0
100
AcDbLine
 10
0.5
 20
-0.5
 30
0.0
 11
-0.5
 21
-0.5
 31
0.0
  0
LINE
  5
C7
330
99
100
AcDbEntity
  8
0
  6
CONTINUOUS
 62
     0
100
AcDbLine
 10
-0.5
 20
-0.5
 30
0.0
 11
-0.5
 21
0.5
 31
0.0
  0
LINE
  5
C8
330
99
100
AcDbEntity
  8
0
  6
CONTINUOUS
 62
     0
100
AcDbLine
 10
-0.25
 20
0.25
 30
0.0
 11
0.25
 21
0.25
 31
0.0
  0
LINE
  5
C9
330
99
100
AcDbEntity
  8
0
  6
CONTINUOUS
 62
     0
100
AcDbLine
 10
0.25
 20
0.25
 30
0.0
 11
0.25
 21
-0.25
 31
0.0
  0
LINE
  5
CA
330
99
100
AcDbEntity
  8
0
  6
CONTINUOUS
 62
     0
100
AcDbLine
 10
0.25
 20
-0.25
 30
0.0
 11
-0.25
 21
-0.25
 31
0.0
  0
LINE
  5
CB
330
99
100
AcDbEntity
  8
0
  6
CONTINUOUS
 62
     0
100
AcDbLine
 10
-0.25
 20
-0.25
 30
0.0
 11
-0.25
 21
0.25
 31
0.0
  0
ENDBLK
  5
9B
330
99
100
AcDbEntity
  8
0
100
AcDbBlockEnd
  0
BLOCK
  5
9D
330
9C
100
AcDbEntity
  8
0
100
AcDbBlockBegin
  2
EX_WBOX
 70
     0
 10
0.0
 20
0.0
 30
0.0
  3
EX_WBOX
  1

  0
LINE
  5
CC
330
9C
100
AcDbEntity
  8
0
  6
CONTINUOUS
 62
     0
100
AcDbLine
 10
-0.5
 20
0.0
 30
0.0
 11
-1.0
 21
0.0
 31
0.0
  0
LINE
  5
CD
330
9C
100
AcDbEntity
  8
0
  6
CONTINUOUS
 62
     0
100
AcDbLine
 10
-0.5
 20
0.5
 30
0.0
 11
0.5
 21
0.5
 31
0.0
  0
LINE
  5
CE
330
9C
100
AcDbEntity
  8
0
  6
CONTINUOUS
 62
     0
100
AcDbLine
 10
0.5
 20
0.5
 30
0.0
 11
0.5
 21
-0.5
 31
0.0
  0
LINE
  5
CF
330
9C
100
AcDbEntity
  8
0
  6
CONTINUOUS
 62
     0
100
AcDbLine
 10
0.5
 20
-0.5
 30
0.0
 11
-0.5
 21
-0.5
 31
0.0
  0
LINE
  5
D0
330
9C
100
AcDbEntity
  8
0
  6
CONTINUOUS
 62
     0
100
AcDbLine
 10
-0.5
 20
-0.5
 30
0.0
 11
-0.5
 21
0.5
 31
0.0
  0
ENDBLK
  5
9E
330
9C
100
AcDbEntity
  8
0
100
AcDbBlockEnd
  0
BLOCK
  5
A0
330
9F
100
AcDbEntity
  8
0
100
AcDbBlockBegin
  2
EX_INTEGRAL
 70
     0
 10
0.0
 20
0.0
 30
0.0
  3
EX_INTEGRAL
  1

  0
LINE
  5
D1
330
9F
100
AcDbEntity
  8
0
  6
CONTINUOUS
 62
     0
100
AcDbLine
 10
0.0
 20
0.0
 30
0.0
 11
-1.0
 21
0.0
 31
0.0
  0
ARC
  5
D2
330
9F
100
AcDbEntity
  8
0
  6
CONTINUOUS
 62
     0
100
AcDbCircle
 10
0.542115
 20
0.164992
 30
0.0
 40
0.56667
100
AcDbArc
 50
73.07249033629006
 51
196.9275130221199
  0
ARC
  5
D3
330
9F
100
AcDbEntity
  8
0
  6
CONTINUOUS
 62
     0
100
AcDbCircle
 10
-0.542115
 20
-0.164992
 30
0.0
 40
0.56667
100
AcDbArc
 50
253.0724869220464
 51
16.9275130559125
  0
ENDBLK
  5
A1
330
9F
100
AcDbEntity
  8
0
100
AcDbBlockEnd
  0
BLOCK
  5
12C
330
12B
100
AcDbEntity
  8
0
100
AcDbBlockBegin
  2
*D15
 70
     1
 10
0.0
 20
0.0
 30
0.0
  3
*D15
  1

  0
LINE
  5
12E
330
12B
100
AcDbEntity
  8
Ｓ_１_１
  6
CONTINUOUS
 62
     2
100
AcDbLine
 10
409.0000020000001
 20
399.9999999999999
 30
0.0
 11
710.9999980000001
 21
399.9999999999999
 31
0.0
  0
INSERT
  5
12F
330
12B
100
AcDbEntity
  8
Ｓ_１_１
 62
     2
100
AcDbBlockReference
  2
EX_NORM
 10
400.0000020000001
 20
399.9999999999999
 30
0.0
 41
9.0
 42
9.0
 43
9.0
 50
180.0
  0
INSERT
  5
130
330
12B
100
AcDbEntity
  8
Ｓ_１_１
 62
     2
100
AcDbBlockReference
  2
EX_NORM
 10
719.9999980000001
 20
399.9999999999999
 30
0.0
 41
9.0
 42
9.0
 43
9.0
  0
MTEXT
  5
131
330
12B
100
AcDbEntity
  8
Ｓ_１_１
 62
     2
100
AcDbMText
 10
560.0000000000001
 20
408.2499999999999
 30
0.0
 40
10.38871247113164
 41
0.0
 71
     5
 72
     1
  1
320
  7
EXCADDIM1
  0
POINT
  5
132
330
12B
100
AcDbEntity
  8
DEFPOINTS
 62
     0
100
AcDbPoint
 10
400.0000020000001
 20
454.9999889999999
 30
0.0
  0
POINT
  5
133
330
12B
100
AcDbEntity
  8
DEFPOINTS
 62
     0
100
AcDbPoint
 10
719.9999980000001
 20
455.000016
 30
0.0
  0
POINT
  5
134
330
12B
100
AcDbEntity
  8
DEFPOINTS
 62
     0
100
AcDbPoint
 10
719.9999980000001
 20
399.9999999999999
 30
0.0
  0
ENDBLK
  5
12D
330
12B
100
AcDbEntity
  8
0
100
AcDbBlockEnd
  0
BLOCK
  5
137
330
136
100
AcDbEntity
  8
0
100
AcDbBlockBegin
  2
*D16
 70
     1
 10
0.0
 20
0.0
 30
0.0
  3
*D16
  1

  0
LINE
  5
139
330
136
100
AcDbEntity
  8
Ｓ_１_１
  6
CONTINUOUS
 62
     2
100
AcDbLine
 10
400.0000020000001
 20
450.4999889999999
 30
0.0
 11
400.0000020000001
 21
396.9999999999999
 31
0.0
  0
LINE
  5
13A
330
136
100
AcDbEntity
  8
Ｓ_１_１
  6
CONTINUOUS
 62
     2
100
AcDbLine
 10
370.0000030000001
 20
450.4999819999999
 30
0.0
 11
370.0000030000001
 21
396.9999999999999
 31
0.0
  0
LINE
  5
13B
330
136
100
AcDbEntity
  8
Ｓ_１_１
  6
CONTINUOUS
 62
     2
100
AcDbLine
 10
391.0000020000001
 20
399.9999999999999
 30
0.0
 11
379.0000030000001
 21
399.9999999999999
 31
0.0
  0
INSERT
  5
13C
330
136
100
AcDbEntity
  8
Ｓ_１_１
 62
     2
100
AcDbBlockReference
  2
EX_NORM
 10
400.0000020000001
 20
399.9999999999999
 30
0.0
 41
9.0
 42
9.0
 43
9.0
  0
INSERT
  5
13D
330
136
100
AcDbEntity
  8
Ｓ_１_１
 62
     2
100
AcDbBlockReference
  2
EX_NORM
 10
370.0000030000001
 20
399.9999999999999
 30
0.0
 41
9.0
 42
9.0
 43
9.0
 50
180.0
  0
MTEXT
  5
13E
330
136
100
AcDbEntity
  8
Ｓ_１_１
 62
     2
100
AcDbMText
 10
320.5000030000003
 20
408.2499999999999
 30
0.0
 40
10.38871247113164
 41
0.0
 71
     5
 72
     1
  1
30（移動量）
  7
EXCADDIM1
  0
POINT
  5
13F
330
136
100
AcDbEntity
  8
DEFPOINTS
 62
     0
100
AcDbPoint
 10
400.0000020000001
 20
454.9999889999999
 30
0.0
  0
POINT
  5
140
330
136
100
AcDbEntity
  8
DEFPOINTS
 62
     0
100
AcDbPoint
 10
370.0000030000001
 20
454.9999819999999
 30
0.0
  0
POINT
  5
141
330
136
100
AcDbEntity
  8
DEFPOINTS
 62
     0
100
AcDbPoint
 10
370.0000030000001
 20
399.9999999999999
 30
0.0
  0
ENDBLK
  5
138
330
136
100
AcDbEntity
  8
0
100
AcDbBlockEnd
  0
BLOCK
  5
144
330
143
100
AcDbEntity
  8
0
100
AcDbBlockBegin
  2
*D17
 70
     1
 10
0.0
 20
0.0
 30
0.0
  3
*D17
  1

  0
LINE
  5
146
330
143
100
AcDbEntity
  8
Ｓ_１_１
  6
CONTINUOUS
 62
     2
100
AcDbLine
 10
719.9999980000001
 20
450.500016
 30
0.0
 11
719.9999980000001
 21
396.9999999999999
 31
0.0
  0
LINE
  5
147
330
143
100
AcDbEntity
  8
Ｓ_１_１
  6
CONTINUOUS
 62
     2
100
AcDbLine
 10
749.9999970000001
 20
450.4999849999999
 30
0.0
 11
749.9999970000001
 21
396.9999999999999
 31
0.0
  0
LINE
  5
148
330
143
100
AcDbEntity
  8
Ｓ_１_１
  6
CONTINUOUS
 62
     2
100
AcDbLine
 10
728.9999980000001
 20
399.9999999999999
 30
0.0
 11
740.9999970000001
 21
399.9999999999999
 31
0.0
  0
INSERT
  5
149
330
143
100
AcDbEntity
  8
Ｓ_１_１
 62
     2
100
AcDbBlockReference
  2
EX_NORM
 10
719.9999980000001
 20
399.9999999999999
 30
0.0
 41
9.0
 42
9.0
 43
9.0
 50
180.0
  0
INSERT
  5
14A
330
143
100
AcDbEntity
  8
Ｓ_１_１
 62
     2
100
AcDbBlockReference
  2
EX_NORM
 10
749.9999970000001
 20
399.9999999999999
 30
0.0
 41
9.0
 42
9.0
 43
9.0
  0
MTEXT
  5
14B
330
143
100
AcDbEntity
  8
Ｓ_１_１
 62
     2
100
AcDbMText
 10
799.499997
 20
408.2499999999999
 30
0.0
 40
10.38871247113164
 41
0.0
 71
     5
 72
     1
  1
30（移動量）
  7
EXCADDIM1
  0
POINT
  5
14C
330
143
100
AcDbEntity
  8
DEFPOINTS
 62
     0
100
AcDbPoint
 10
719.9999980000001
 20
455.000016
 30
0.0
  0
POINT
  5
14D
330
143
100
AcDbEntity
  8
DEFPOINTS
 62
     0
100
AcDbPoint
 10
749.9999970000001
 20
454.9999849999999
 30
0.0
  0
POINT
  5
14E
330
143
100
AcDbEntity
  8
DEFPOINTS
 62
     0
100
AcDbPoint
 10
749.9999970000001
 20
399.9999999999999
 30
0.0
  0
ENDBLK
  5
145
330
143
100
AcDbEntity
  8
0
100
AcDbBlockEnd
  0
BLOCK
  5
151
330
150
100
AcDbEntity
  8
0
100
AcDbBlockBegin
  2
*D18
 70
     1
 10
0.0
 20
0.0
 30
0.0
  3
*D18
  1

  0
LINE
  5
153
330
150
100
AcDbEntity
  8
Ｓ_１_１
  6
CONTINUOUS
 62
     2
100
AcDbLine
 10
405.4999900000001
 20
445.0000019999999
 30
0.0
 11
317.0000000000001
 21
445.0000019999999
 31
0.0
  0
LINE
  5
154
330
150
100
AcDbEntity
  8
Ｓ_１_１
  6
CONTINUOUS
 62
     2
100
AcDbLine
 10
405.500008
 20
714.999998
 30
0.0
 11
317.0000000000001
 21
714.999998
 31
0.0
  0
LINE
  5
155
330
150
100
AcDbEntity
  8
Ｓ_１_１
  6
CONTINUOUS
 62
     2
100
AcDbLine
 10
320.0000000000001
 20
454.0000019999999
 30
0.0
 11
320.0000000000001
 21
705.999998
 31
0.0
  0
INSERT
  5
156
330
150
100
AcDbEntity
  8
Ｓ_１_１
 62
     2
100
AcDbBlockReference
  2
EX_NORM
 10
320.0000000000001
 20
445.0000019999999
 30
0.0
 41
9.0
 42
9.0
 43
9.0
 50
270.0
  0
INSERT
  5
157
330
150
100
AcDbEntity
  8
Ｓ_１_１
 62
     2
100
AcDbBlockReference
  2
EX_NORM
 10
320.0000000000001
 20
714.999998
 30
0.0
 41
9.0
 42
9.0
 43
9.0
 50
90.0
  0
MTEXT
  5
158
330
150
100
AcDbEntity
  8
Ｓ_１_１
 62
     2
100
AcDbMText
 10
311.7500000000002
 20
580.0
 30
0.0
 40
10.38871247113164
 41
0.0
 71
     5
 72
     1
  1
270
  7
EXCADDIM1
 11
0.0
 21
1.0
 31
0.0
  0
POINT
  5
159
330
150
100
AcDbEntity
  8
DEFPOINTS
 62
     0
100
AcDbPoint
 10
409.9999900000001
 20
445.0000019999999
 30
0.0
  0
POINT
  5
15A
330
150
100
AcDbEntity
  8
DEFPOINTS
 62
     0
100
AcDbPoint
 10
410.000008
 20
714.999998
 30
0.0
  0
POINT
  5
15B
330
150
100
AcDbEntity
  8
DEFPOINTS
 62
     0
100
AcDbPoint
 10
320.0000000000001
 20
714.999998
 30
0.0
  0
ENDBLK
  5
152
330
150
100
AcDbEntity
  8
0
100
AcDbBlockEnd
  0
BLOCK
  5
15E
330
15D
100
AcDbEntity
  8
0
100
AcDbBlockBegin
  2
*D19
 70
     1
 10
0.0
 20
0.0
 30
0.0
  3
*D19
  1

  0
LINE
  5
160
330
15D
100
AcDbEntity
  8
Ｓ_１_１
  6
CONTINUOUS
 62
     2
100
AcDbLine
 10
564.5000000000001
 20
455.0000019999999
 30
0.0
 11
803.0000000000001
 21
455.0000019999999
 31
0.0
  0
LINE
  5
161
330
15D
100
AcDbEntity
  8
Ｓ_１_１
  6
CONTINUOUS
 62
     2
100
AcDbLine
 10
564.5000000000001
 20
704.999998
 30
0.0
 11
803.0000000000001
 21
704.999998
 31
0.0
  0
LINE
  5
162
330
15D
100
AcDbEntity
  8
Ｓ_１_１
  6
CONTINUOUS
 62
     2
100
AcDbLine
 10
800.0000000000001
 20
464.0000019999999
 30
0.0
 11
800.0000000000001
 21
695.999998
 31
0.0
  0
INSERT
  5
163
330
15D
100
AcDbEntity
  8
Ｓ_１_１
 62
     2
100
AcDbBlockReference
  2
EX_NORM
 10
800.0000000000001
 20
455.0000019999999
 30
0.0
 41
9.0
 42
9.0
 43
9.0
 50
270.0
  0
INSERT
  5
164
330
15D
100
AcDbEntity
  8
Ｓ_１_１
 62
     2
100
AcDbBlockReference
  2
EX_NORM
 10
800.0000000000001
 20
704.999998
 30
0.0
 41
9.0
 42
9.0
 43
9.0
 50
90.0
  0
MTEXT
  5
165
330
15D
100
AcDbEntity
  8
Ｓ_１_１
 62
     2
100
AcDbMText
 10
791.7500000000001
 20
580.0
 30
0.0
 40
10.38871247113164
 41
0.0
 71
     5
 72
     1
  1
250
  7
EXCADDIM1
 11
0.0
 21
1.0
 31
0.0
  0
POINT
  5
166
330
15D
100
AcDbEntity
  8
DEFPOINTS
 62
     0
100
AcDbPoint
 10
560.0000000000001
 20
455.0000019999999
 30
0.0
  0
POINT
  5
167
330
15D
100
AcDbEntity
  8
DEFPOINTS
 62
     0
100
AcDbPoint
 10
560.0000000000001
 20
704.999998
 30
0.0
  0
POINT
  5
168
330
15D
100
AcDbEntity
  8
DEFPOINTS
 62
     0
100
AcDbPoint
 10
800.0000000000001
 20
704.999998
 30
0.0
  0
ENDBLK
  5
15F
330
15D
100
AcDbEntity
  8
0
100
AcDbBlockEnd
  0
BLOCK
  5
34D
330
34C
100
AcDbEntity
  8
0
100
AcDbBlockBegin
  2
*D20
 70
     1
 10
0.0
 20
0.0
 30
0.0
  3
*D20
  1

  0
LINE
  5
34F
330
34C
100
AcDbEntity
  8
Ｓ_１_１
  6
CONTINUOUS
 62
     2
100
AcDbLine
 10
592.5269112274744
 20
612.5269112274743
 30
0.0
 11
527.4730887725258
 21
547.4730887725257
 31
0.0
  0
MTEXT
  5
350
330
34C
100
AcDbEntity
  8
Ｓ_１_１
 62
     2
100
AcDbMText
 10
606.0503284176675
 20
637.717590307245
 30
0.0
 40
10.38871247113164
 41
0.0
 71
     5
 72
     1
  1
%%c110
  7
EXCADDIM1
 11
0.7071067811865475
 21
0.7071067811865475
 31
0.0
  0
LINE
  5
351
330
34C
100
AcDbEntity
  8
Ｓ_１_１
  6
CONTINUOUS
 62
     2
100
AcDbLine
 10
521.1091277418468
 20
541.1091277418467
 30
0.0
 11
598.8908722581534
 21
618.8908722581533
 31
0.0
  0
INSERT
  5
352
330
34C
100
AcDbEntity
  8
Ｓ_１_１
 62
     2
100
AcDbBlockReference
  2
EX_NORM
 10
521.1091277418468
 20
541.1091277418467
 30
0.0
 41
9.0
 42
9.0
 43
9.0
 50
225.0
  0
INSERT
  5
353
330
34C
100
AcDbEntity
  8
Ｓ_１_１
 62
     2
100
AcDbBlockReference
  2
EX_NORM
 10
598.8908722581534
 20
618.8908722581533
 30
0.0
 41
9.0
 42
9.0
 43
9.0
 50
45.0
  0
POINT
  5
354
330
34C
100
AcDbEntity
  8
DEFPOINTS
 62
     0
100
AcDbPoint
 10
598.8908722581534
 20
618.8908722581533
 30
0.0
  0
POINT
  5
355
330
34C
100
AcDbEntity
  8
DEFPOINTS
 62
     0
100
AcDbPoint
 10
521.1091277418468
 20
541.1091277418467
 30
0.0
  0
ENDBLK
  5
34E
330
34C
100
AcDbEntity
  8
0
100
AcDbBlockEnd
  0
BLOCK
  5
365
330
364
100
AcDbEntity
  8
0
100
AcDbBlockBegin
  2
*D21
 70
     1
 10
0.0
 20
0.0
 30
0.0
  3
*D21
  1

  0
LINE
  5
367
330
364
100
AcDbEntity
  8
Ｓ_１_１
  6
CONTINUOUS
 62
     2
100
AcDbLine
 10
440.000002
 20
269.999996
 30
0.0
 11
440.000002
 21
343.0
 31
0.0
  0
LINE
  5
368
330
364
100
AcDbEntity
  8
Ｓ_１_１
  6
CONTINUOUS
 62
     2
100
AcDbLine
 10
679.999998
 20
269.999996
 30
0.0
 11
679.999998
 21
343.0
 31
0.0
  0
LINE
  5
369
330
364
100
AcDbEntity
  8
Ｓ_１_１
  6
CONTINUOUS
 62
     2
100
AcDbLine
 10
449.000002
 20
340.0
 30
0.0
 11
670.999998
 21
340.0
 31
0.0
  0
INSERT
  5
36A
330
364
100
AcDbEntity
  8
Ｓ_１_１
 62
     2
100
AcDbBlockReference
  2
EX_NORM
 10
440.000002
 20
340.0
 30
0.0
 41
9.0
 42
9.0
 43
9.0
 50
180.0
  0
INSERT
  5
36B
330
364
100
AcDbEntity
  8
Ｓ_１_１
 62
     2
100
AcDbBlockReference
  2
EX_NORM
 10
679.999998
 20
340.0
 30
0.0
 41
9.0
 42
9.0
 43
9.0
  0
MTEXT
  5
36C
330
364
100
AcDbEntity
  8
Ｓ_１_１
 62
     2
100
AcDbMText
 10
560.0
 20
348.25
 30
0.0
 40
10.38871247113164
 41
0.0
 71
     5
 72
     1
  1
%%c240
  7
EXCADDIM1
  0
POINT
  5
36D
330
364
100
AcDbEntity
  8
DEFPOINTS
 62
     0
100
AcDbPoint
 10
440.000002
 20
265.499996
 30
0.0
  0
POINT
  5
36E
330
364
100
AcDbEntity
  8
DEFPOINTS
 62
     0
100
AcDbPoint
 10
679.999998
 20
265.499996
 30
0.0
  0
POINT
  5
36F
330
364
100
AcDbEntity
  8
DEFPOINTS
 62
     0
100
AcDbPoint
 10
679.999998
 20
340.0
 30
0.0
  0
ENDBLK
  5
366
330
364
100
AcDbEntity
  8
0
100
AcDbBlockEnd
  0
BLOCK
  5
3F4
330
3F3
100
AcDbEntity
  8
0
100
AcDbBlockBegin
  2
*D22
 70
     1
 10
0.0
 20
0.0
 30
0.0
  3
*D22
  1

  0
LINE
  5
3F6
330
3F3
100
AcDbEntity
  8
Ｓ_１_１
  6
CONTINUOUS
 62
     2
100
AcDbLine
 10
395.499964
 20
290.4999769999999
 30
0.0
 11
316.798193048186
 21
290.499977
 31
0.0
  0
LINE
  5
3F7
330
3F3
100
AcDbEntity
  8
Ｓ_１_１
  6
CONTINUOUS
 62
     2
100
AcDbLine
 10
362.6201490820187
 20
284.1833400776307
 30
0.0
 11
316.9362966875692
 21
282.588024798669
 31
0.0
  0
ARC
  5
3F8
330
3F3
100
AcDbEntity
  8
Ｓ_１_１
  6
CONTINUOUS
 62
     2
100
AcDbCircle
 10
543.5049638871956
 20
290.4999769999999
 30
0.0
 40
223.7067708390096
100
AcDbArc
 50
175.3895289257431
 51
177.6947644628715
  0
ARC
  5
3F9
330
3F3
100
AcDbEntity
  8
Ｓ_１_１
  6
CONTINUOUS
 62
     2
100
AcDbCircle
 10
543.5049638871956
 20
290.4999769999999
 30
0.0
 40
223.7067708390096
100
AcDbArc
 50
184.3052355371285
 51
186.6104710742569
  0
ARC
  5
3FA
330
3F3
100
AcDbEntity
  8
Ｓ_１_１
  6
CONTINUOUS
 62
     2
100
AcDbCircle
 10
543.5049638871956
 20
290.4999769999999
 30
0.0
 40
223.7067708390096
100
AcDbArc
 50
180.0
 51
182.0
  0
INSERT
  5
3FB
330
3F3
100
AcDbEntity
  8
Ｓ_１_１
 62
     2
100
AcDbBlockReference
  2
EX_NORM
 10
319.798193048186
 20
290.499977
 30
0.0
 41
9.0
 42
9.0
 43
9.0
 50
268.8473822314358
  0
INSERT
  5
3FC
330
3F3
100
AcDbEntity
  8
Ｓ_１_１
 62
     2
100
AcDbBlockReference
  2
EX_NORM
 10
319.9344691686265
 20
282.6927232887766
 30
0.0
 41
9.0
 42
9.0
 43
9.0
 50
93.15261776856426
  0
MTEXT
  5
3FD
330
3F3
100
AcDbEntity
  8
Ｓ_１_１
 62
     2
100
AcDbMText
 10
312.1228392179689
 20
306.8173273245864
 30
0.0
 40
10.38871247113164
 41
0.0
 71
     5
 72
     1
  1
2%%d
  7
EXCADDIM1
 11
0.07034651441975617
 21
0.9975226152368631
 31
0.0
  0
POINT
  5
3FE
330
3F3
100
AcDbEntity
  8
DEFPOINTS
 62
     0
100
AcDbPoint
 10
543.5049638871956
 20
290.4999769999999
 30
0.0
  0
POINT
  5
3FF
330
3F3
100
AcDbEntity
  8
DEFPOINTS
 62
     0
100
AcDbPoint
 10
399.999964
 20
290.4999769999999
 30
0.0
  0
POINT
  5
400
330
3F3
100
AcDbEntity
  8
DEFPOINTS
 62
     0
100
AcDbPoint
 10
367.1174078036046
 20
284.340387812792
 30
0.0
  0
POINT
  5
401
330
3F3
100
AcDbEntity
  8
DEFPOINTS
 62
     0
100
AcDbPoint
 10
319.8587636296048
 20
285.2945539087659
 30
0.0
  0
ENDBLK
  5
3F5
330
3F3
100
AcDbEntity
  8
0
100
AcDbBlockEnd
  0
BLOCK
  5
46D
330
46C
100
AcDbEntity
  8
0
100
AcDbBlockBegin
  2
*D23
 70
     1
 10
0.0
 20
0.0
 30
0.0
  3
*D23
  1

  0
LINE
  5
46F
330
46C
100
AcDbEntity
  8
Ｓ_１_１
  6
CONTINUOUS
 62
     2
100
AcDbLine
 10
374.637759
 20
183.500002
 30
0.0
 11
374.637759
 21
137.0
 31
0.0
  0
LINE
  5
470
330
46C
100
AcDbEntity
  8
Ｓ_１_１
  6
CONTINUOUS
 62
     2
100
AcDbLine
 10
459.999994
 20
177.499998
 30
0.0
 11
459.999994
 21
137.0
 31
0.0
  0
LINE
  5
471
330
46C
100
AcDbEntity
  8
Ｓ_１_１
  6
CONTINUOUS
 62
     2
100
AcDbLine
 10
383.637759
 20
140.0
 30
0.0
 11
450.999994
 21
140.0
 31
0.0
  0
INSERT
  5
472
330
46C
100
AcDbEntity
  8
Ｓ_１_１
 62
     2
100
AcDbBlockReference
  2
EX_NORM
 10
374.637759
 20
140.0
 30
0.0
 41
9.0
 42
9.0
 43
9.0
 50
180.0
  0
INSERT
  5
473
330
46C
100
AcDbEntity
  8
Ｓ_１_１
 62
     2
100
AcDbBlockReference
  2
EX_NORM
 10
459.999994
 20
140.0
 30
0.0
 41
9.0
 42
9.0
 43
9.0
  0
MTEXT
  5
474
330
46C
100
AcDbEntity
  8
Ｓ_１_１
 62
     2
100
AcDbMText
 10
417.3188765
 20
148.25
 30
0.0
 40
10.38871247113164
 41
0.0
 71
     5
 72
     1
  1
(85)
  7
EXCADDIM1
  0
POINT
  5
475
330
46C
100
AcDbEntity
  8
DEFPOINTS
 62
     0
100
AcDbPoint
 10
374.637759
 20
188.000002
 30
0.0
  0
POINT
  5
476
330
46C
100
AcDbEntity
  8
DEFPOINTS
 62
     0
100
AcDbPoint
 10
459.999994
 20
181.999998
 30
0.0
  0
POINT
  5
477
330
46C
100
AcDbEntity
  8
DEFPOINTS
 62
     0
100
AcDbPoint
 10
459.999994
 20
140.0
 30
0.0
  0
ENDBLK
  5
46E
330
46C
100
AcDbEntity
  8
0
100
AcDbBlockEnd
  0
BLOCK
  5
47A
330
479
100
AcDbEntity
  8
0
100
AcDbBlockBegin
  2
*D24
 70
     1
 10
0.0
 20
0.0
 30
0.0
  3
*D24
  1

  0
LINE
  5
47C
330
479
100
AcDbEntity
  8
Ｓ_１_１
  6
CONTINUOUS
 62
     2
100
AcDbLine
 10
659.999999
 20
177.500006
 30
0.0
 11
659.999999
 21
137.0
 31
0.0
  0
LINE
  5
47D
330
479
100
AcDbEntity
  8
Ｓ_１_１
  6
CONTINUOUS
 62
     2
100
AcDbLine
 10
468.999994
 20
140.0
 30
0.0
 11
650.999999
 21
140.0
 31
0.0
  0
INSERT
  5
47E
330
479
100
AcDbEntity
  8
Ｓ_１_１
 62
     2
100
AcDbBlockReference
  2
EX_NORM
 10
459.999994
 20
140.0
 30
0.0
 41
9.0
 42
9.0
 43
9.0
 50
180.0
  0
INSERT
  5
47F
330
479
100
AcDbEntity
  8
Ｓ_１_１
 62
     2
100
AcDbBlockReference
  2
EX_NORM
 10
659.999999
 20
140.0
 30
0.0
 41
9.0
 42
9.0
 43
9.0
  0
MTEXT
  5
480
330
479
100
AcDbEntity
  8
Ｓ_１_１
 62
     2
100
AcDbMText
 10
559.9999965000001
 20
148.25
 30
0.0
 40
10.38871247113164
 41
0.0
 71
     5
 72
     1
  1
%%c200
  7
EXCADDIM1
  0
POINT
  5
481
330
479
100
AcDbEntity
  8
DEFPOINTS
 62
     0
100
AcDbPoint
 10
459.999994
 20
181.999998
 30
0.0
  0
POINT
  5
482
330
479
100
AcDbEntity
  8
DEFPOINTS
 62
     0
100
AcDbPoint
 10
659.999999
 20
182.000006
 30
0.0
  0
POINT
  5
483
330
479
100
AcDbEntity
  8
DEFPOINTS
 62
     0
100
AcDbPoint
 10
659.999999
 20
140.0
 30
0.0
  0
ENDBLK
  5
47B
330
479
100
AcDbEntity
  8
0
100
AcDbBlockEnd
  0
BLOCK
  5
486
330
485
100
AcDbEntity
  8
0
100
AcDbBlockBegin
  2
*D25
 70
     1
 10
0.0
 20
0.0
 30
0.0
  3
*D25
  1

  0
LINE
  5
488
330
485
100
AcDbEntity
  8
Ｓ_１_１
  6
CONTINUOUS
 62
     2
100
AcDbLine
 10
457.499992
 20
180.0
 30
0.0
 11
317.0
 21
180.0
 31
0.0
  0
LINE
  5
489
330
485
100
AcDbEntity
  8
Ｓ_１_１
  6
CONTINUOUS
 62
     2
100
AcDbLine
 10
359.399997
 20
200.0
 30
0.0
 11
317.0
 21
200.0
 31
0.0
  0
LINE
  5
48A
330
485
100
AcDbEntity
  8
Ｓ_１_１
  6
CONTINUOUS
 62
     2
100
AcDbLine
 10
320.0
 20
189.0
 30
0.0
 11
320.0
 21
191.0
 31
0.0
  0
INSERT
  5
48B
330
485
100
AcDbEntity
  8
Ｓ_１_１
 62
     2
100
AcDbBlockReference
  2
EX_NORM
 10
320.0
 20
180.0
 30
0.0
 41
9.0
 42
9.0
 43
9.0
 50
270.0
  0
INSERT
  5
48C
330
485
100
AcDbEntity
  8
Ｓ_１_１
 62
     2
100
AcDbBlockReference
  2
EX_NORM
 10
320.0
 20
200.0
 30
0.0
 41
9.0
 42
9.0
 43
9.0
 50
90.0
  0
MTEXT
  5
48D
330
485
100
AcDbEntity
  8
Ｓ_１_１
 62
     2
100
AcDbMText
 10
311.7500000000001
 20
164.2499999999999
 30
0.0
 40
10.38871247113164
 41
0.0
 71
     5
 72
     1
  1
20
  7
EXCADDIM1
 11
0.0
 21
1.0
 31
0.0
  0
POINT
  5
48E
330
485
100
AcDbEntity
  8
DEFPOINTS
 62
     0
100
AcDbPoint
 10
461.999992
 20
180.0
 30
0.0
  0
POINT
  5
48F
330
485
100
AcDbEntity
  8
DEFPOINTS
 62
     0
100
AcDbPoint
 10
363.899997
 20
200.0
 30
0.0
  0
POINT
  5
490
330
485
100
AcDbEntity
  8
DEFPOINTS
 62
     0
100
AcDbPoint
 10
320.0
 20
200.0
 30
0.0
  0
ENDBLK
  5
487
330
485
100
AcDbEntity
  8
0
100
AcDbBlockEnd
  0
BLOCK
  5
493
330
492
100
AcDbEntity
  8
0
100
AcDbBlockBegin
  2
*D26
 70
     1
 10
0.0
 20
0.0
 30
0.0
  3
*D26
  1

  0
LINE
  5
495
330
492
100
AcDbEntity
  8
Ｓ_１_１
  6
CONTINUOUS
 62
     2
100
AcDbLine
 10
457.499992
 20
180.0
 30
0.0
 11
297.0
 21
180.0
 31
0.0
  0
LINE
  5
496
330
492
100
AcDbEntity
  8
Ｓ_１_１
  6
CONTINUOUS
 62
     2
100
AcDbLine
 10
437.5000049999999
 20
213.499999
 30
0.0
 11
297.0
 21
213.499999
 31
0.0
  0
LINE
  5
497
330
492
100
AcDbEntity
  8
Ｓ_１_１
  6
CONTINUOUS
 62
     2
100
AcDbLine
 10
300.0
 20
189.0
 30
0.0
 11
300.0
 21
204.499999
 31
0.0
  0
INSERT
  5
498
330
492
100
AcDbEntity
  8
Ｓ_１_１
 62
     2
100
AcDbBlockReference
  2
EX_NORM
 10
300.0
 20
180.0
 30
0.0
 41
9.0
 42
9.0
 43
9.0
 50
270.0
  0
INSERT
  5
499
330
492
100
AcDbEntity
  8
Ｓ_１_１
 62
     2
100
AcDbBlockReference
  2
EX_NORM
 10
300.0
 20
213.499999
 30
0.0
 41
9.0
 42
9.0
 43
9.0
 50
90.0
  0
MTEXT
  5
49A
330
492
100
AcDbEntity
  8
Ｓ_１_１
 62
     2
100
AcDbMText
 10
291.75
 20
196.7499995
 30
0.0
 40
10.38871247113164
 41
0.0
 71
     5
 72
     1
  1
33.5
  7
EXCADDIM1
 11
0.0
 21
1.0
 31
0.0
  0
POINT
  5
49B
330
492
100
AcDbEntity
  8
DEFPOINTS
 62
     0
100
AcDbPoint
 10
461.999992
 20
180.0
 30
0.0
  0
POINT
  5
49C
330
492
100
AcDbEntity
  8
DEFPOINTS
 62
     0
100
AcDbPoint
 10
442.0000049999999
 20
213.499999
 30
0.0
  0
POINT
  5
49D
330
492
100
AcDbEntity
  8
DEFPOINTS
 62
     0
100
AcDbPoint
 10
300.0
 20
213.499999
 30
0.0
  0
ENDBLK
  5
494
330
492
100
AcDbEntity
  8
0
100
AcDbBlockEnd
  0
BLOCK
  5
4A0
330
49F
100
AcDbEntity
  8
0
100
AcDbBlockBegin
  2
*D27
 70
     1
 10
0.0
 20
0.0
 30
0.0
  3
*D27
  1

  0
LINE
  5
4A2
330
49F
100
AcDbEntity
  8
Ｓ_１_１
  6
CONTINUOUS
 62
     2
100
AcDbLine
 10
405.499964
 20
265.499977
 30
0.0
 11
297.0
 21
265.499977
 31
0.0
  0
LINE
  5
4A3
330
49F
100
AcDbEntity
  8
Ｓ_１_１
  6
CONTINUOUS
 62
     2
100
AcDbLine
 10
300.0
 20
222.499999
 30
0.0
 11
300.0
 21
256.499977
 31
0.0
  0
INSERT
  5
4A4
330
49F
100
AcDbEntity
  8
Ｓ_１_１
 62
     2
100
AcDbBlockReference
  2
EX_NORM
 10
300.0
 20
213.499999
 30
0.0
 41
9.0
 42
9.0
 43
9.0
 50
270.0
  0
INSERT
  5
4A5
330
49F
100
AcDbEntity
  8
Ｓ_１_１
 62
     2
100
AcDbBlockReference
  2
EX_NORM
 10
300.0
 20
265.499977
 30
0.0
 41
9.0
 42
9.0
 43
9.0
 50
90.0
  0
MTEXT
  5
4A6
330
49F
100
AcDbEntity
  8
Ｓ_１_１
 62
     2
100
AcDbMText
 10
291.75
 20
239.499988
 30
0.0
 40
10.38871247113164
 41
0.0
 71
     5
 72
     1
  1
52
  7
EXCADDIM1
 11
0.0
 21
1.0
 31
0.0
  0
POINT
  5
4A7
330
49F
100
AcDbEntity
  8
DEFPOINTS
 62
     0
100
AcDbPoint
 10
442.0000049999999
 20
213.499999
 30
0.0
  0
POINT
  5
4A8
330
49F
100
AcDbEntity
  8
DEFPOINTS
 62
     0
100
AcDbPoint
 10
409.999964
 20
265.499977
 30
0.0
  0
POINT
  5
4A9
330
49F
100
AcDbEntity
  8
DEFPOINTS
 62
     0
100
AcDbPoint
 10
300.0
 20
265.499977
 30
0.0
  0
ENDBLK
  5
4A1
330
49F
100
AcDbEntity
  8
0
100
AcDbBlockEnd
  0
BLOCK
  5
4AC
330
4AB
100
AcDbEntity
  8
0
100
AcDbBlockBegin
  2
*D28
 70
     1
 10
0.0
 20
0.0
 30
0.0
  3
*D28
  1

  0
LINE
  5
4AE
330
4AB
100
AcDbEntity
  8
Ｓ_１_１
  6
CONTINUOUS
 62
     2
100
AcDbLine
 10
457.499992
 20
180.0
 30
0.0
 11
277.0
 21
180.0
 31
0.0
  0
LINE
  5
4AF
330
4AB
100
AcDbEntity
  8
Ｓ_１_１
  6
CONTINUOUS
 62
     2
100
AcDbLine
 10
405.499964
 20
265.499996
 30
0.0
 11
277.0
 21
265.499996
 31
0.0
  0
LINE
  5
4B0
330
4AB
100
AcDbEntity
  8
Ｓ_１_１
  6
CONTINUOUS
 62
     2
100
AcDbLine
 10
280.0
 20
189.0
 30
0.0
 11
280.0
 21
256.499996
 31
0.0
  0
INSERT
  5
4B1
330
4AB
100
AcDbEntity
  8
Ｓ_１_１
 62
     2
100
AcDbBlockReference
  2
EX_NORM
 10
280.0
 20
180.0
 30
0.0
 41
9.0
 42
9.0
 43
9.0
 50
270.0
  0
INSERT
  5
4B2
330
4AB
100
AcDbEntity
  8
Ｓ_１_１
 62
     2
100
AcDbBlockReference
  2
EX_NORM
 10
280.0
 20
265.499996
 30
0.0
 41
9.0
 42
9.0
 43
9.0
 50
90.0
  0
MTEXT
  5
4B3
330
4AB
100
AcDbEntity
  8
Ｓ_１_１
 62
     2
100
AcDbMText
 10
271.75
 20
222.749998
 30
0.0
 40
10.38871247113164
 41
0.0
 71
     5
 72
     1
  1
85.5
  7
EXCADDIM1
 11
0.0
 21
1.0
 31
0.0
  0
POINT
  5
4B4
330
4AB
100
AcDbEntity
  8
DEFPOINTS
 62
     0
100
AcDbPoint
 10
461.999992
 20
180.0
 30
0.0
  0
POINT
  5
4B5
330
4AB
100
AcDbEntity
  8
DEFPOINTS
 62
     0
100
AcDbPoint
 10
409.999964
 20
265.499996
 30
0.0
  0
POINT
  5
4B6
330
4AB
100
AcDbEntity
  8
DEFPOINTS
 62
     0
100
AcDbPoint
 10
280.0
 20
265.499996
 30
0.0
  0
ENDBLK
  5
4AD
330
4AB
100
AcDbEntity
  8
0
100
AcDbBlockEnd
  0
BLOCK
  5
4B9
330
4B8
100
AcDbEntity
  8
0
100
AcDbBlockBegin
  2
*D29
 70
     1
 10
0.0
 20
0.0
 30
0.0
  3
*D29
  1

  0
LINE
  5
4BB
330
4B8
100
AcDbEntity
  8
Ｓ_１_１
  6
CONTINUOUS
 62
     2
100
AcDbLine
 10
662.499992
 20
180.0
 30
0.0
 11
802.9999999999998
 21
180.0
 31
0.0
  0
LINE
  5
4BC
330
4B8
100
AcDbEntity
  8
Ｓ_１_１
  6
CONTINUOUS
 62
     2
100
AcDbLine
 10
728.5000359999999
 20
255.499977
 30
0.0
 11
802.9999999999998
 21
255.499977
 31
0.0
  0
LINE
  5
4BD
330
4B8
100
AcDbEntity
  8
Ｓ_１_１
  6
CONTINUOUS
 62
     2
100
AcDbLine
 10
799.9999999999998
 20
189.0
 30
0.0
 11
799.9999999999998
 21
246.499977
 31
0.0
  0
INSERT
  5
4BE
330
4B8
100
AcDbEntity
  8
Ｓ_１_１
 62
     2
100
AcDbBlockReference
  2
EX_NORM
 10
799.9999999999998
 20
180.0
 30
0.0
 41
9.0
 42
9.0
 43
9.0
 50
270.0
  0
INSERT
  5
4BF
330
4B8
100
AcDbEntity
  8
Ｓ_１_１
 62
     2
100
AcDbBlockReference
  2
EX_NORM
 10
799.9999999999998
 20
255.499977
 30
0.0
 41
9.0
 42
9.0
 43
9.0
 50
90.0
  0
MTEXT
  5
4C0
330
4B8
100
AcDbEntity
  8
Ｓ_１_１
 62
     2
100
AcDbMText
 10
791.7499999999998
 20
217.7499885
 30
0.0
 40
10.38871247113164
 41
0.0
 71
     5
 72
     1
  1
75.5
  7
EXCADDIM1
 11
0.0
 21
1.0
 31
0.0
  0
POINT
  5
4C1
330
4B8
100
AcDbEntity
  8
DEFPOINTS
 62
     0
100
AcDbPoint
 10
652.999992
 20
180.0
 30
0.0
  0
POINT
  5
4C2
330
4B8
100
AcDbEntity
  8
DEFPOINTS
 62
     0
100
AcDbPoint
 10
719.0000359999999
 20
255.499977
 30
0.0
  0
POINT
  5
4C3
330
4B8
100
AcDbEntity
  8
DEFPOINTS
 62
     0
100
AcDbPoint
 10
799.9999999999998
 20
255.499977
 30
0.0
  0
ENDBLK
  5
4BA
330
4B8
100
AcDbEntity
  8
0
100
AcDbBlockEnd
  0
BLOCK
  5
4C6
330
4C5
100
AcDbEntity
  8
0
100
AcDbBlockBegin
  2
*D30
 70
     1
 10
0.0
 20
0.0
 30
0.0
  3
*D30
  1

  0
LINE
  5
4C8
330
4C5
100
AcDbEntity
  8
Ｓ_１_１
  6
CONTINUOUS
 62
     2
100
AcDbLine
 10
723.5000359999999
 20
255.499977
 30
0.0
 11
802.9999999999998
 21
255.499977
 31
0.0
  0
LINE
  5
4C9
330
4C5
100
AcDbEntity
  8
Ｓ_１_１
  6
CONTINUOUS
 62
     2
100
AcDbLine
 10
724.5000359999999
 20
290.499977
 30
0.0
 11
802.9999999999998
 21
290.499977
 31
0.0
  0
LINE
  5
4CA
330
4C5
100
AcDbEntity
  8
Ｓ_１_１
  6
CONTINUOUS
 62
     2
100
AcDbLine
 10
799.9999999999998
 20
264.499977
 30
0.0
 11
799.9999999999998
 21
281.499977
 31
0.0
  0
INSERT
  5
4CB
330
4C5
100
AcDbEntity
  8
Ｓ_１_１
 62
     2
100
AcDbBlockReference
  2
EX_NORM
 10
799.9999999999998
 20
255.499977
 30
0.0
 41
9.0
 42
9.0
 43
9.0
 50
270.0
  0
INSERT
  5
4CC
330
4C5
100
AcDbEntity
  8
Ｓ_１_１
 62
     2
100
AcDbBlockReference
  2
EX_NORM
 10
799.9999999999998
 20
290.499977
 30
0.0
 41
9.0
 42
9.0
 43
9.0
 50
90.0
  0
MTEXT
  5
4CD
330
4C5
100
AcDbEntity
  8
Ｓ_１_１
 62
     2
100
AcDbMText
 10
791.7499999999998
 20
272.999977
 30
0.0
 40
10.38871247113164
 41
0.0
 71
     5
 72
     1
  1
35
  7
EXCADDIM1
 11
0.0
 21
1.0
 31
0.0
  0
POINT
  5
4CE
330
4C5
100
AcDbEntity
  8
DEFPOINTS
 62
     0
100
AcDbPoint
 10
719.0000359999999
 20
255.499977
 30
0.0
  0
POINT
  5
4CF
330
4C5
100
AcDbEntity
  8
DEFPOINTS
 62
     0
100
AcDbPoint
 10
720.0000359999999
 20
290.499977
 30
0.0
  0
POINT
  5
4D0
330
4C5
100
AcDbEntity
  8
DEFPOINTS
 62
     0
100
AcDbPoint
 10
799.9999999999998
 20
290.499977
 30
0.0
  0
ENDBLK
  5
4C7
330
4C5
100
AcDbEntity
  8
0
100
AcDbBlockEnd
  0
BLOCK
  5
4D3
330
4D2
100
AcDbEntity
  8
0
100
AcDbBlockBegin
  2
*D31
 70
     1
 10
0.0
 20
0.0
 30
0.0
  3
*D31
  1

  0
LINE
  5
4D5
330
4D2
100
AcDbEntity
  8
Ｓ_１_１
  6
CONTINUOUS
 62
     2
100
AcDbLine
 10
662.499992
 20
180.0
 30
0.0
 11
823.0
 21
180.0
 31
0.0
  0
LINE
  5
4D6
330
4D2
100
AcDbEntity
  8
Ｓ_１_１
  6
CONTINUOUS
 62
     2
100
AcDbLine
 10
729.5000359999999
 20
290.499977
 30
0.0
 11
823.0
 21
290.499977
 31
0.0
  0
LINE
  5
4D7
330
4D2
100
AcDbEntity
  8
Ｓ_１_１
  6
CONTINUOUS
 62
     2
100
AcDbLine
 10
820.0
 20
189.0
 30
0.0
 11
820.0
 21
281.499977
 31
0.0
  0
INSERT
  5
4D8
330
4D2
100
AcDbEntity
  8
Ｓ_１_１
 62
     2
100
AcDbBlockReference
  2
EX_NORM
 10
820.0
 20
180.0
 30
0.0
 41
9.0
 42
9.0
 43
9.0
 50
270.0
  0
INSERT
  5
4D9
330
4D2
100
AcDbEntity
  8
Ｓ_１_１
 62
     2
100
AcDbBlockReference
  2
EX_NORM
 10
820.0
 20
290.499977
 30
0.0
 41
9.0
 42
9.0
 43
9.0
 50
90.0
  0
MTEXT
  5
4DA
330
4D2
100
AcDbEntity
  8
Ｓ_１_１
 62
     2
100
AcDbMText
 10
811.75
 20
235.2499885
 30
0.0
 40
10.38871247113164
 41
0.0
 71
     5
 72
     1
  1
110.5
  7
EXCADDIM1
 11
0.0
 21
1.0
 31
0.0
  0
POINT
  5
4DB
330
4D2
100
AcDbEntity
  8
DEFPOINTS
 62
     0
100
AcDbPoint
 10
652.999992
 20
180.0
 30
0.0
  0
POINT
  5
4DC
330
4D2
100
AcDbEntity
  8
DEFPOINTS
 62
     0
100
AcDbPoint
 10
720.0000359999999
 20
290.499977
 30
0.0
  0
POINT
  5
4DD
330
4D2
100
AcDbEntity
  8
DEFPOINTS
 62
     0
100
AcDbPoint
 10
820.0
 20
290.499977
 30
0.0
  0
ENDBLK
  5
4D4
330
4D2
100
AcDbEntity
  8
0
100
AcDbBlockEnd
  0
BLOCK
  5
4E0
330
4DF
100
AcDbEntity
  8
0
100
AcDbBlockBegin
  2
*D32
 70
     1
 10
0.0
 20
0.0
 30
0.0
  3
*D32
  1

  0
LINE
  5
4E2
330
4DF
100
AcDbEntity
  8
Ｓ_１_１
  6
CONTINUOUS
 62
     2
100
AcDbLine
 10
723.5000359999999
 20
255.499977
 30
0.0
 11
783.0
 21
255.499977
 31
0.0
  0
LINE
  5
4E3
330
4DF
100
AcDbEntity
  8
Ｓ_１_１
  6
CONTINUOUS
 62
     2
100
AcDbLine
 10
724.500036
 20
271.78286472703
 30
0.0
 11
783.0
 21
271.78286472703
 31
0.0
  0
LINE
  5
4E4
330
4DF
100
AcDbEntity
  8
Ｓ_１_１
  6
CONTINUOUS
 62
     2
100
AcDbLine
 10
780.0
 20
255.499977
 30
0.0
 11
780.0
 21
271.78286472703
 31
0.0
  0
LINE
  5
4E5
330
4DF
100
AcDbEntity
  8
Ｓ_１_１
  6
CONTINUOUS
 62
     2
100
AcDbLine
 10
780.0
 20
246.499977
 30
0.0
 11
780.0
 21
237.499977
 31
0.0
  0
LINE
  5
4E6
330
4DF
100
AcDbEntity
  8
Ｓ_１_１
  6
CONTINUOUS
 62
     2
100
AcDbLine
 10
780.0
 20
280.78286472703
 30
0.0
 11
780.0
 21
289.78286472703
 31
0.0
  0
INSERT
  5
4E7
330
4DF
100
AcDbEntity
  8
Ｓ_１_１
 62
     2
100
AcDbBlockReference
  2
EX_NORM
 10
780.0
 20
255.499977
 30
0.0
 41
9.0
 42
9.0
 43
9.0
 50
90.0
  0
INSERT
  5
4E8
330
4DF
100
AcDbEntity
  8
Ｓ_１_１
 62
     2
100
AcDbBlockReference
  2
EX_BCIR
 10
780.0
 20
271.78286472703
 30
0.0
 41
9.0
 42
9.0
 43
9.0
 50
270.0
  0
MTEXT
  5
4E9
330
4DF
100
AcDbEntity
  8
Ｓ_１_１
 62
     2
100
AcDbMText
 10
771.75
 20
239.7499769999998
 30
0.0
 40
10.38871247113164
 41
0.0
 71
     5
 72
     1
  1
16
  7
EXCADDIM1
 11
0.0
 21
1.0
 31
0.0
  0
POINT
  5
4EA
330
4DF
100
AcDbEntity
  8
DEFPOINTS
 62
     0
100
AcDbPoint
 10
719.0000359999999
 20
255.499977
 30
0.0
  0
POINT
  5
4EB
330
4DF
100
AcDbEntity
  8
DEFPOINTS
 62
     0
100
AcDbPoint
 10
720.000036
 20
271.78286472703
 30
0.0
  0
POINT
  5
4EC
330
4DF
100
AcDbEntity
  8
DEFPOINTS
 62
     0
100
AcDbPoint
 10
780.0
 20
271.78286472703
 30
0.0
  0
ENDBLK
  5
4E1
330
4DF
100
AcDbEntity
  8
0
100
AcDbBlockEnd
  0
BLOCK
  5
4EF
330
4EE
100
AcDbEntity
  8
0
100
AcDbBlockBegin
  2
*D33
 70
     1
 10
0.0
 20
0.0
 30
0.0
  3
*D33
  1

  0
LINE
  5
4F1
330
4EE
100
AcDbEntity
  8
Ｓ_１_１
  6
CONTINUOUS
 62
     2
100
AcDbLine
 10
724.500036
 20
290.499977
 30
0.0
 11
783.0
 21
290.499977
 31
0.0
  0
LINE
  5
4F2
330
4EE
100
AcDbEntity
  8
Ｓ_１_１
  6
CONTINUOUS
 62
     2
100
AcDbLine
 10
724.5000359999799
 20
271.78286472703
 30
0.0
 11
783.0
 21
271.78286472703
 31
0.0
  0
LINE
  5
4F3
330
4EE
100
AcDbEntity
  8
Ｓ_１_１
  6
CONTINUOUS
 62
     2
100
AcDbLine
 10
780.0
 20
281.499977
 30
0.0
 11
780.0
 21
280.78286472703
 31
0.0
  0
INSERT
  5
4F4
330
4EE
100
AcDbEntity
  8
Ｓ_１_１
 62
     2
100
AcDbBlockReference
  2
EX_NORM
 10
780.0
 20
290.499977
 30
0.0
 41
9.0
 42
9.0
 43
9.0
 50
90.0
  0
INSERT
  5
4F5
330
4EE
100
AcDbEntity
  8
Ｓ_１_１
 62
     2
100
AcDbBlockReference
  2
EX_BCIR
 10
780.0
 20
271.78286472703
 30
0.0
 41
9.0
 42
9.0
 43
9.0
 50
270.0
  0
MTEXT
  5
4F6
330
4EE
100
AcDbEntity
  8
Ｓ_１_１
 62
     2
100
AcDbMText
 10
771.75
 20
306.2499769999998
 30
0.0
 40
10.38871247113164
 41
0.0
 71
     5
 72
     1
  1
19
  7
EXCADDIM1
 11
0.0
 21
1.0
 31
0.0
  0
POINT
  5
4F7
330
4EE
100
AcDbEntity
  8
DEFPOINTS
 62
     0
100
AcDbPoint
 10
720.000036
 20
290.499977
 30
0.0
  0
POINT
  5
4F8
330
4EE
100
AcDbEntity
  8
DEFPOINTS
 62
     0
100
AcDbPoint
 10
720.0000359999799
 20
271.78286472703
 30
0.0
  0
POINT
  5
4F9
330
4EE
100
AcDbEntity
  8
DEFPOINTS
 62
     0
100
AcDbPoint
 10
780.0
 20
271.78286472703
 30
0.0
  0
ENDBLK
  5
4F0
330
4EE
100
AcDbEntity
  8
0
100
AcDbBlockEnd
  0
ENDSEC
  0
SECTION
  2
ENTITIES
  0
LINE
  5
D4
330
1F
100
AcDbEntity
  8
図面枠
  6
CONTINUOUS
 62
     5
100
AcDbLine
 10
30.0
 20
30.0
 30
0.0
 11
1230.0
 21
30.0
 31
0.0
  0
LINE
  5
D5
330
1F
100
AcDbEntity
  8
図面枠
  6
CONTINUOUS
 62
     5
100
AcDbLine
 10
1230.0
 20
30.0
 30
0.0
 11
1230.0
 21
861.0
 31
0.0
  0
LINE
  5
D6
330
1F
100
AcDbEntity
  8
図面枠
  6
CONTINUOUS
 62
     5
100
AcDbLine
 10
1230.0
 20
861.0
 30
0.0
 11
30.00000000000016
 21
861.0
 31
0.0
  0
LINE
  5
D7
330
1F
100
AcDbEntity
  8
図面枠
  6
CONTINUOUS
 62
     5
100
AcDbLine
 10
30.00000000000016
 20
861.0
 30
0.0
 11
30.0
 21
30.0
 31
0.0
  0
LINE
  5
D8
330
1F
100
AcDbEntity
  8
図面枠
  6
CONTINUOUS
 62
     3
100
AcDbLine
 10
1215.0
 20
72.0
 30
0.0
 11
1215.0
 21
45.0
 31
0.0
  0
LINE
  5
D9
330
1F
100
AcDbEntity
  8
図面枠
  6
CONTINUOUS
 62
     3
100
AcDbLine
 10
45.00000000000005
 20
846.0
 30
0.0
 11
45.00000000000005
 21
819.0
 31
0.0
  0
TEXT
  5
DB
330
1F
100
AcDbEntity
  8
図面枠
  6
CONTINUOUS
 62
     4
100
AcDbText
 10
1161.0
 20
814.1484375
 30
0.0
 40
10.38871247113164
  1
kN
 41
0.999230769230769
  7
EXCADTTF1
 72
     5
 11
1174.5
 21
814.1484375
 31
0.0
100
AcDbText
  0
TEXT
  5
DC
330
1F
100
AcDbEntity
  8
図面枠
  6
CONTINUOUS
 62
     4
100
AcDbText
 10
1122.0
 20
814.1484375
 30
0.0
 40
10.38871247113164
  1
1000
 41
0.999230769230769
  7
EXCADTTF1
 72
     5
 11
1149.0
 21
814.1484375
 31
0.0
100
AcDbText
  0
TEXT
  5
DD
330
1F
100
AcDbEntity
  8
図面枠
  6
CONTINUOUS
 62
     4
100
AcDbText
 10
1161.0
 20
688.1484375
 30
0.0
 40
10.38871247113164
  1
cm
 41
0.999230769230769
  7
EXCADTTF1
 72
     5
 11
1174.5
 21
688.1484375
 31
0.0
100
AcDbText
  0
TEXT
  5
DE
330
1F
100
AcDbEntity
  8
図面枠
  6
CONTINUOUS
 62
     4
100
AcDbText
 10
1170.45
 20
694.5292969420552
 30
0.0
 40
4.674920098289698
  1
2
 41
0.9992308790346205
  7
EXCADTTF1
 72
     5
 11
1173.4875
 21
694.5292969420552
 31
0.0
100
AcDbText
  0
TEXT
  5
DF
330
1F
100
AcDbEntity
  8
図面枠
  6
CONTINUOUS
 62
     4
100
AcDbText
 10
1161.0
 20
796.1484375
 30
0.0
 40
10.38871247113164
  1
mm
 41
0.999230769230769
  7
EXCADTTF1
 72
     5
 11
1174.5
 21
796.1484375
 31
0.0
100
AcDbText
  0
TEXT
  5
E0
330
1F
100
AcDbEntity
  8
図面枠
  6
CONTINUOUS
 62
     4
100
AcDbText
 10
1161.0
 20
778.1484375
 30
0.0
 40
10.38871247113164
  1
mm
 41
0.999230769230769
  7
EXCADTTF1
 72
     5
 11
1174.5
 21
778.1484375
 31
0.0
100
AcDbText
  0
TEXT
  5
E1
330
1F
100
AcDbEntity
  8
図面枠
  6
CONTINUOUS
 62
     4
100
AcDbText
 10
1161.0
 20
760.1484375
 30
0.0
 40
10.38871247113164
  1
mm
 41
0.999230769230769
  7
EXCADTTF1
 72
     5
 11
1174.5
 21
760.1484375
 31
0.0
100
AcDbText
  0
TEXT
  5
E2
330
1F
100
AcDbEntity
  8
図面枠
  6
CONTINUOUS
 62
     4
100
AcDbText
 10
1135.5
 20
796.1484375
 30
0.0
 40
10.38871247113164
  1
20
 41
0.999230769230769
  7
EXCADTTF1
 72
     5
 11
1149.0
 21
796.1484375
 31
0.0
100
AcDbText
  0
TEXT
  5
E3
330
1F
100
AcDbEntity
  8
図面枠
  6
CONTINUOUS
 62
     4
100
AcDbText
 10
1122.0
 20
760.1484375
 30
0.0
 40
10.38871247113164
  1
85.5
 41
0.999230769230769
  7
EXCADTTF1
 72
     5
 11
1149.0
 21
760.1484375
 31
0.0
100
AcDbText
  0
TEXT
  5
E4
330
1F
100
AcDbEntity
  8
図面枠
  6
CONTINUOUS
 62
     4
100
AcDbText
 10
1161.0
 20
724.1484375
 30
0.0
 40
10.38871247113164
  1
mm
 41
0.999230769230769
  7
EXCADTTF1
 72
     5
 11
1174.5
 21
724.1484375
 31
0.0
100
AcDbText
  0
TEXT
  5
E5
330
1F
100
AcDbEntity
  8
図面枠
  6
CONTINUOUS
 62
     4
100
AcDbText
 10
1161.0
 20
706.1484375
 30
0.0
 40
10.38871247113164
  1
mm
 41
0.999230769230769
  7
EXCADTTF1
 72
     5
 11
1174.5
 21
706.1484375
 31
0.0
100
AcDbText
  0
TEXT
  5
E6
330
1F
100
AcDbEntity
  8
図面枠
  6
CONTINUOUS
 62
     4
100
AcDbText
 10
1161.0
 20
670.1484375
 30
0.0
 40
10.38871247113164
  1
MPa
 41
0.999230769230769
  7
EXCADTTF1
 72
     5
 11
1181.25
 21
670.1484375
 31
0.0
100
AcDbText
  0
TEXT
  5
E7
330
1F
100
AcDbEntity
  8
図面枠
  6
CONTINUOUS
 62
     4
100
AcDbText
 10
1128.75
 20
724.1484375
 30
0.0
 40
10.38871247113164
  1
110
 41
0.999230769230769
  7
EXCADTTF1
 72
     5
 11
1149.0
 21
724.1484375
 31
0.0
100
AcDbText
  0
TEXT
  5
E8
330
1F
100
AcDbEntity
  8
図面枠
  6
CONTINUOUS
 62
     4
100
AcDbText
 10
1128.75
 20
706.1484375
 30
0.0
 40
10.38871247113164
  1
145
 41
0.999230769230769
  7
EXCADTTF1
 72
     5
 11
1149.0
 21
706.1484375
 31
0.0
100
AcDbText
  0
TEXT
  5
E9
330
1F
100
AcDbEntity
  8
図面枠
  6
CONTINUOUS
 62
     4
100
AcDbText
 10
1115.25
 20
688.1484375
 30
0.0
 40
10.38871247113164
  1
165.1
 41
0.9992307692307689
  7
EXCADTTF1
 72
     5
 11
1149.0
 21
688.1484375
 31
0.0
100
AcDbText
  0
TEXT
  5
EA
330
1F
100
AcDbEntity
  8
図面枠
  6
CONTINUOUS
 62
     4
100
AcDbText
 10
1122.0
 20
670.1484375
 30
0.0
 40
10.38871247113164
  1
60.6
 41
0.999230769230769
  7
EXCADTTF1
 72
     5
 11
1149.0
 21
670.1484375
 31
0.0
100
AcDbText
  0
TEXT
  5
EB
330
1F
100
AcDbEntity
  8
図面枠
  6
CONTINUOUS
 62
     4
100
AcDbText
 10
1161.0
 20
742.1484375
 30
0.0
 40
10.38871247113164
  1
mm
 41
0.999230769230769
  7
EXCADTTF1
 72
     5
 11
1174.5
 21
742.1484375
 31
0.0
100
AcDbText
  0
TEXT
  5
EC
330
1F
100
AcDbEntity
  8
図面枠
  6
CONTINUOUS
 62
     4
100
AcDbText
 10
1161.0
 20
634.1484375
 30
0.0
 40
10.38871247113164
  1
kg
 41
0.999230769230769
  7
EXCADTTF1
 72
     5
 11
1174.5
 21
634.1484375
 31
0.0
100
AcDbText
  0
TEXT
  5
ED
330
1F
100
AcDbEntity
  8
図面枠
  6
CONTINUOUS
 62
     4
100
AcDbText
 10
1161.0
 20
616.1484375
 30
0.0
 40
10.38871247113164
  1
kg
 41
0.999230769230769
  7
EXCADTTF1
 72
     5
 11
1174.5
 21
616.1484375
 31
0.0
100
AcDbText
  0
LINE
  5
EE
330
1F
100
AcDbEntity
  8
図面枠
  6
CONTINUOUS
 62
     2
100
AcDbLine
 10
1035.0
 20
648.0
 30
0.0
 11
1035.0
 21
612.0
 31
0.0
  0
LINE
  5
EF
330
1F
100
AcDbEntity
  8
図面枠
  6
CONTINUOUS
 62
     2
100
AcDbLine
 10
1035.0
 20
630.0
 30
0.0
 11
1215.0
 21
630.0
 31
0.0
  0
TEXT
  5
F0
330
1F
100
AcDbEntity
  8
図面枠
  6
CONTINUOUS
 62
     4
100
AcDbText
 10
1038.0
 20
634.1484375
 30
0.0
 40
10.38871247113164
  1
ジャッキ
 41
0.999230769230769
  7
EXCADTTF1
 72
     5
 11
1092.0
 21
634.1484375
 31
0.0
100
AcDbText
  0
TEXT
  5
F1
330
1F
100
AcDbEntity
  8
図面枠
  6
CONTINUOUS
 62
     4
100
AcDbText
 10
1038.0
 20
616.1484375
 30
0.0
 40
10.38871247113164
  1
プレート
 41
0.999230769230769
  7
EXCADTTF1
 72
     5
 11
1092.0
 21
616.1484375
 31
0.0
100
AcDbText
  0
LINE
  5
F2
330
1F
100
AcDbEntity
  8
図面枠
  6
CONTINUOUS
 62
     2
100
AcDbLine
 10
1095.0
 20
828.0
 30
0.0
 11
1095.0
 21
612.0
 31
0.0
  0
TEXT
  5
F3
330
1F
100
AcDbEntity
  8
図面枠
  6
CONTINUOUS
 62
     4
100
AcDbText
 10
921.0
 20
814.1484375
 30
0.0
 40
10.38871247113164
  1
能力
 41
0.999230769230769
  7
EXCADTTF1
 72
     5
 11
948.0
 21
814.1484375
 31
0.0
100
AcDbText
  0
TEXT
  5
F4
330
1F
100
AcDbEntity
  8
図面枠
  6
CONTINUOUS
 62
     4
100
AcDbText
 10
921.0
 20
778.1484375
 30
0.0
 40
10.38871247113164
  1
最低機械高
 41
0.9992307692307689
  7
EXCADTTF1
 72
     5
 11
988.5
 21
778.1484375
 31
0.0
100
AcDbText
  0
TEXT
  5
F5
330
1F
100
AcDbEntity
  8
図面枠
  6
CONTINUOUS
 62
     4
100
AcDbText
 10
921.0
 20
760.1484375
 30
0.0
 40
10.38871247113164
  1
ジャッキ機械高
 41
0.9992307692307688
  7
EXCADTTF1
 72
     5
 11
1015.5
 21
760.1484375
 31
0.0
100
AcDbText
  0
TEXT
  5
F6
330
1F
100
AcDbEntity
  8
図面枠
  6
CONTINUOUS
 62
     4
100
AcDbText
 10
921.0
 20
706.1484375
 30
0.0
 40
10.38871247113164
  1
ピストン径
 41
0.9992307692307689
  7
EXCADTTF1
 72
     5
 11
988.5
 21
706.1484375
 31
0.0
100
AcDbText
  0
TEXT
  5
F7
330
1F
100
AcDbEntity
  8
図面枠
  6
CONTINUOUS
 62
     4
100
AcDbText
 10
921.0
 20
688.1484375
 30
0.0
 40
10.38871247113164
  1
受圧面積
 41
0.999230769230769
  7
EXCADTTF1
 72
     5
 11
975.0
 21
688.1484375
 31
0.0
100
AcDbText
  0
TEXT
  5
F8
330
1F
100
AcDbEntity
  8
図面枠
  6
CONTINUOUS
 62
     4
100
AcDbText
 10
921.0
 20
670.1484375
 30
0.0
 40
10.38871247113164
  1
最高使用圧力
 41
0.9992307692307689
  7
EXCADTTF1
 72
     5
 11
1002.0
 21
670.1484375
 31
0.0
100
AcDbText
  0
TEXT
  5
F9
330
1F
100
AcDbEntity
  8
図面枠
  6
CONTINUOUS
 62
     4
100
AcDbText
 10
921.0
 20
724.1484375
 30
0.0
 40
10.38871247113164
  1
ロッド径
 41
0.999230769230769
  7
EXCADTTF1
 72
     5
 11
975.0
 21
724.1484375
 31
0.0
100
AcDbText
  0
TEXT
  5
FA
330
1F
100
AcDbEntity
  8
図面枠
  6
CONTINUOUS
 62
     4
100
AcDbText
 10
921.0
 20
742.1484375
 30
0.0
 40
10.38871247113164
  1
シリンダ外径
 41
0.9992307692307689
  7
EXCADTTF1
 72
     5
 11
1002.0
 21
742.1484375
 31
0.0
100
AcDbText
  0
TEXT
  5
FB
330
1F
100
AcDbEntity
  8
図面枠
  6
CONTINUOUS
 62
     4
100
AcDbText
 10
921.0
 20
652.1484375
 30
0.0
 40
10.38871247113164
  1
所要油量
 41
0.999230769230769
  7
EXCADTTF1
 72
     5
 11
975.0
 21
652.1484375
 31
0.0
100
AcDbText
  0
TEXT
  5
FC
330
1F
100
AcDbEntity
  8
図面枠
  6
CONTINUOUS
 62
     4
100
AcDbText
 10
921.0
 20
634.1484375
 30
0.0
 40
10.38871247113164
  1
重量
 41
0.999230769230769
  7
EXCADTTF1
 72
     5
 11
948.0
 21
634.1484375
 31
0.0
100
AcDbText
  0
TEXT
  5
FD
330
1F
100
AcDbEntity
  8
図面枠
  6
CONTINUOUS
 62
     4
100
AcDbText
 10
921.0
 20
598.1484375
 30
0.0
 40
10.38871247113164
  1
備考
 41
0.999230769230769
  7
EXCADTTF1
 72
     5
 11
948.0
 21
598.1484375
 31
0.0
100
AcDbText
  0
TEXT
  5
FE
330
1F
100
AcDbEntity
  8
図面枠
  6
CONTINUOUS
 62
     4
100
AcDbText
 10
921.0
 20
796.1484375
 30
0.0
 40
10.38871247113164
  1
ストローク　※
 41
0.9992307692307688
  7
EXCADTTF1
 72
     5
 11
1015.5
 21
796.1484375
 31
0.0
100
AcDbText
  0
TEXT
  5
FF
330
1F
100
AcDbEntity
  8
図面枠
  6
CONTINUOUS
 62
     4
100
AcDbText
 10
1031.25
 20
832.1484375
 30
0.0
 40
10.38871247113164
  1
仕　　　様
 41
0.9992307692307689
  7
EXCADTTF1
 72
     5
 11
1098.75
 21
832.1484375
 31
0.0
100
AcDbText
  0
LINE
  5
100
330
1F
100
AcDbEntity
  8
図面枠
  6
CONTINUOUS
 62
     3
100
AcDbLine
 10
915.0
 20
828.0
 30
0.0
 11
1215.0
 21
828.0
 31
0.0
  0
LINE
  5
101
330
1F
100
AcDbEntity
  8
図面枠
  6
CONTINUOUS
 62
     2
100
AcDbLine
 10
915.0
 20
810.0
 30
0.0
 11
1215.0
 21
810.0
 31
0.0
  0
LINE
  5
102
330
1F
100
AcDbEntity
  8
図面枠
  6
CONTINUOUS
 62
     2
100
AcDbLine
 10
915.0
 20
792.0
 30
0.0
 11
1215.0
 21
792.0
 31
0.0
  0
LINE
  5
103
330
1F
100
AcDbEntity
  8
図面枠
  6
CONTINUOUS
 62
     2
100
AcDbLine
 10
915.0
 20
774.0
 30
0.0
 11
1215.0
 21
774.0
 31
0.0
  0
LINE
  5
104
330
1F
100
AcDbEntity
  8
図面枠
  6
CONTINUOUS
 62
     2
100
AcDbLine
 10
915.0
 20
756.0
 30
0.0
 11
1215.0
 21
756.0
 31
0.0
  0
LINE
  5
105
330
1F
100
AcDbEntity
  8
図面枠
  6
CONTINUOUS
 62
     2
100
AcDbLine
 10
915.0
 20
720.0
 30
0.0
 11
1215.0
 21
720.0
 31
0.0
  0
LINE
  5
106
330
1F
100
AcDbEntity
  8
図面枠
  6
CONTINUOUS
 62
     2
100
AcDbLine
 10
915.0
 20
702.0
 30
0.0
 11
1215.0
 21
702.0
 31
0.0
  0
LINE
  5
107
330
1F
100
AcDbEntity
  8
図面枠
  6
CONTINUOUS
 62
     2
100
AcDbLine
 10
915.0
 20
684.0
 30
0.0
 11
1215.0
 21
684.0
 31
0.0
  0
LINE
  5
108
330
1F
100
AcDbEntity
  8
図面枠
  6
CONTINUOUS
 62
     2
100
AcDbLine
 10
915.0
 20
738.0
 30
0.0
 11
1215.0
 21
738.0
 31
0.0
  0
LINE
  5
109
330
1F
100
AcDbEntity
  8
図面枠
  6
CONTINUOUS
 62
     2
100
AcDbLine
 10
915.0
 20
666.0
 30
0.0
 11
1215.0
 21
666.0
 31
0.0
  0
LINE
  5
10A
330
1F
100
AcDbEntity
  8
図面枠
  6
CONTINUOUS
 62
     2
100
AcDbLine
 10
915.0
 20
648.0
 30
0.0
 11
1215.0
 21
648.0
 31
0.0
  0
LINE
  5
10B
330
1F
100
AcDbEntity
  8
図面枠
  6
CONTINUOUS
 62
     2
100
AcDbLine
 10
915.0
 20
612.0
 30
0.0
 11
1215.0
 21
612.0
 31
0.0
  0
LINE
  5
10C
330
1F
100
AcDbEntity
  8
図面枠
  6
CONTINUOUS
 62
     2
100
AcDbLine
 10
1155.0
 20
828.0
 30
0.0
 11
1155.0
 21
612.0
 31
0.0
  0
LINE
  5
10D
330
1F
100
AcDbEntity
  8
図面枠
  6
CONTINUOUS
 62
     3
100
AcDbLine
 10
915.0
 20
846.0
 30
0.0
 11
1215.0
 21
846.0
 31
0.0
  0
TEXT
  5
10E
330
1F
100
AcDbEntity
  8
図面枠
  6
CONTINUOUS
 62
     4
100
AcDbText
 10
1122.0
 20
652.1484375
 30
0.0
 40
10.38871247113164
  1
0.33
 41
0.999230769230769
  7
EXCADTTF1
 72
     5
 11
1149.0
 21
652.1484375
 31
0.0
100
AcDbText
  0
TEXT
  5
10F
330
1F
100
AcDbEntity
  8
図面枠
  6
CONTINUOUS
 62
     4
100
AcDbText
 10
1161.0
 20
652.1484375
 30
0.0
 40
10.38871247113164
  1
L
 41
0.999230769230769
  7
EXCADTTF1
 72
     5
 11
1167.75
 21
652.1484375
 31
0.0
100
AcDbText
  0
LINE
  5
110
330
1F
100
AcDbEntity
  8
図面枠
  6
CONTINUOUS
 62
     3
100
AcDbLine
 10
1098.0
 20
72.0
 30
0.0
 11
1098.0
 21
45.0
 31
0.0
  0
TEXT
  5
111
330
1F
100
AcDbEntity
  8
図面枠
  6
CONTINUOUS
 62
     4
100
AcDbText
 10
1107.0
 20
52.03125
 30
0.0
 40
13.85161662817552
  1
MJ-10020-UB
 41
0.9992307692307693
  7
EXCADTTF1
 72
     5
 11
1206.0
 21
52.03125
 31
0.0
100
AcDbText
  0
LINE
  5
112
330
1F
100
AcDbEntity
  8
図面枠
  6
CONTINUOUS
 62
     3
100
AcDbLine
 10
1098.0
 20
72.0
 30
0.0
 11
1215.0
 21
72.0
 31
0.0
  0
LINE
  5
113
330
1F
100
AcDbEntity
  8
図面枠
  6
CONTINUOUS
 62
     3
100
AcDbLine
 10
1098.0
 20
45.0
 30
0.0
 11
1215.0
 21
45.0
 31
0.0
  0
TEXT
  5
114
330
1F
100
AcDbEntity
  8
図面枠
  6
CONTINUOUS
 62
     4
100
AcDbText
 10
54.00000000000006
 20
826.03125
 30
0.0
 40
13.85161662817552
  1
1000kN20ストローク補修用油圧ジャッキ（タイプB ユニバーサルヘッド付）
 41
0.9992307692307699
  7
EXCADTTF1
 72
     5
 11
666.0
 21
826.03125
 31
0.0
100
AcDbText
  0
LINE
  5
115
330
1F
100
AcDbEntity
  8
図面枠
  6
CONTINUOUS
 62
     3
100
AcDbLine
 10
675.0000000000001
 20
846.0
 30
0.0
 11
675.0000000000001
 21
819.0
 31
0.0
  0
LINE
  5
116
330
1F
100
AcDbEntity
  8
図面枠
  6
CONTINUOUS
 62
     3
100
AcDbLine
 10
45.00000000000005
 20
846.0
 30
0.0
 11
675.0000000000001
 21
846.0
 31
0.0
  0
LINE
  5
117
330
1F
100
AcDbEntity
  8
図面枠
  6
CONTINUOUS
 62
     3
100
AcDbLine
 10
45.00000000000005
 20
819.0
 30
0.0
 11
675.0000000000001
 21
819.0
 31
0.0
  0
LINE
  5
118
330
1F
100
AcDbEntity
  8
図面枠
  6
CONTINUOUS
 62
     3
100
AcDbLine
 10
915.0
 20
558.0
 30
0.0
 11
1215.0
 21
558.0
 31
0.0
  0
TEXT
  5
119
330
1F
100
AcDbEntity
  8
図面枠
  6
CONTINUOUS
 62
     4
100
AcDbText
 10
884.9999999999999
 20
513.3984375
 30
0.0
 40
10.38871247113164
  1
※）①ストロークエンドからの加圧はおやめ下さい。
 41
0.9992307692307695
  7
EXCADTTF1
 72
     5
 11
1209.0
 21
513.3984375
 31
0.0
100
AcDbText
  0
TEXT
  5
11A
330
1F
100
AcDbEntity
  8
図面枠
  6
CONTINUOUS
 62
     4
100
AcDbText
 10
884.9999999999999
 20
499.8984375
 30
0.0
 40
10.38871247113164
  1
　　
 41
0.999230769230769
  7
EXCADTTF1
 72
     5
 11
911.9999999999999
 21
499.8984375
 31
0.0
100
AcDbText
  0
TEXT
  5
11B
330
1F
100
AcDbEntity
  8
図面枠
  6
CONTINUOUS
 62
     4
100
AcDbText
 10
884.9999999999999
 20
486.3984375
 30
0.0
 40
10.38871247113164
  1
　　②ストロークエンドにて安全ナットをロック
 41
0.9992307692307694
  7
EXCADTTF1
 72
     5
 11
1182.0
 21
486.3984375
 31
0.0
100
AcDbText
  0
TEXT
  5
11C
330
1F
100
AcDbEntity
  8
図面枠
  6
CONTINUOUS
 62
     4
100
AcDbText
 10
884.9999999999999
 20
472.8984375
 30
0.0
 40
10.38871247113164
  1
　　　した場合、解放が困難になる場合があります。
 41
0.9992307692307695
  7
EXCADTTF1
 72
     5
 11
1209.0
 21
472.8984375
 31
0.0
100
AcDbText
  0
TEXT
  5
11D
330
1F
100
AcDbEntity
  8
図面枠
  6
CONTINUOUS
 62
     4
100
AcDbText
 10
884.9999999999999
 20
445.8984375
 30
0.0
 40
10.38871247113164
  1
　　③出荷時にストロークエンド使用が出来ないよう
 41
0.9992307692307695
  7
EXCADTTF1
 72
     5
 11
1209.0
 21
445.8984375
 31
0.0
100
AcDbText
  0
TEXT
  5
11E
330
1F
100
AcDbEntity
  8
図面枠
  6
CONTINUOUS
 62
     4
100
AcDbText
 10
884.9999999999999
 20
432.3984375
 30
0.0
 40
10.38871247113164
  1
　　　手動ポンプの油量を調整させていただく場合が
 41
0.9992307692307695
  7
EXCADTTF1
 72
     5
 11
1209.0
 21
432.3984375
 31
0.0
100
AcDbText
  0
TEXT
  5
11F
330
1F
100
AcDbEntity
  8
図面枠
  6
CONTINUOUS
 62
     4
100
AcDbText
 10
884.9999999999999
 20
418.8984375
 30
0.0
 40
10.38871247113164
  1
　　　あります。
 41
0.9992307692307688
  7
EXCADTTF1
 72
     5
 11
992.9999999999999
 21
418.8984375
 31
0.0
100
AcDbText
  0
TEXT
  5
120
330
1F
100
AcDbEntity
  8
図面枠
  6
CONTINUOUS
 62
     4
100
AcDbText
 10
921.0
 20
580.1484375
 30
0.0
 40
10.38871247113164
  1
可動ヘッドは、±30mm移動可能
 41
0.9992307692307688
  7
EXCADTTF1
 72
     5
 11
1110.0
 21
580.1484375
 31
0.0
100
AcDbText
  0
TEXT
  5
121
330
1F
100
AcDbEntity
  8
図面枠
  6
CONTINUOUS
 62
     4
100
AcDbText
 10
921.0
 20
562.1484375
 30
0.0
 40
10.38871247113164
  1
ユニバーサルヘッド振り角は、±2゜(±3.5％）
 41
0.999230769230769
  7
EXCADTTF1
 72
     5
 11
1211.25
 21
562.1484375
 31
0.0
100
AcDbText
  0
LINE
  5
122
330
1F
100
AcDbEntity
  8
図面枠
  6
CONTINUOUS
 62
     3
100
AcDbLine
 10
915.0
 20
846.0
 30
0.0
 11
915.0
 21
558.0
 31
0.0
  0
LINE
  5
123
330
1F
100
AcDbEntity
  8
図面枠
  6
CONTINUOUS
 62
     3
100
AcDbLine
 10
1215.0
 20
846.0
 30
0.0
 11
1215.0
 21
558.0
 31
0.0
  0
TEXT
  5
124
330
1F
100
AcDbEntity
  8
図面枠
  6
CONTINUOUS
 62
     4
100
AcDbText
 10
1115.25
 20
778.1484375
 30
0.0
 40
10.38871247113164
  1
110.5
 41
0.9992307692307689
  7
EXCADTTF1
 72
     5
 11
1149.0
 21
778.1484375
 31
0.0
100
AcDbText
  0
TEXT
  5
125
330
1F
100
AcDbEntity
  8
図面枠
  6
CONTINUOUS
 62
     4
100
AcDbText
 10
1122.0
 20
616.1484375
 30
0.0
 40
10.38871247113164
  1
約18
 41
0.999230769230769
  7
EXCADTTF1
 72
     5
 11
1149.0
 21
616.1484375
 31
0.0
100
AcDbText
  0
TEXT
  5
126
330
1F
100
AcDbEntity
  8
図面枠
  6
CONTINUOUS
 62
     4
100
AcDbText
 10
1108.5
 20
634.1484375
 30
0.0
 40
10.38871247113164
  1
約25.5
 41
0.9992307692307689
  7
EXCADTTF1
 72
     5
 11
1149.0
 21
634.1484375
 31
0.0
100
AcDbText
  0
TEXT
  5
127
330
1F
100
AcDbEntity
  8
図面枠
  6
CONTINUOUS
 62
     4
100
AcDbText
 10
1128.75
 20
742.1484375
 30
0.0
 40
10.38871247113164
  1
200
 41
0.999230769230769
  7
EXCADTTF1
 72
     5
 11
1149.0
 21
742.1484375
 31
0.0
100
AcDbText
  0
DIMENSION
  5
129
330
1F
100
AcDbEntity
  8
Ｓ_１_１
  6
CONTINUOUS
 62
     2
100
AcDbDimension
  2
*D15
 10
719.9999980000001
 20
399.9999999999999
 30
0.0
 11
560.0000000000001
 21
408.2499999999999
 31
0.0
 70
   160
  3
ISO-25
100
AcDbAlignedDimension
 13
400.0000020000001
 23
454.9999889999999
 33
0.0
 14
719.9999980000001
 24
455.000016
 34
0.0
100
AcDbRotatedDimension
1001
ACAD
1000
DSTYLE
1002
{
1070
   270
1070
     2
1070
     6
1000
EX_NORM
1070
     7
1000
EX_NORM
1070
    41
1040
9.0
1070
    42
1040
0.0
1070
    44
1040
0.0
1070
    73
1070
     0
1070
    74
1070
     0
1070
    75
1070
     1
1070
    76
1070
     1
1070
    77
1070
     1
1070
    78
1070
     8
1070
   140
1040
10.38871247113164
1070
   147
1040
0.0
1070
   173
1070
     1
1070
   176
1070
     2
1070
   177
1070
     2
1070
   178
1070
     2
1070
   271
1070
     2
1070
   277
1070
     2
1070
   279
1070
     2
1070
   280
1070
     0
1070
   287
1070
     5
1070
   340
1005
128
1002
}
  0
DIMENSION
  5
135
330
1F
100
AcDbEntity
  8
Ｓ_１_１
  6
CONTINUOUS
 62
     2
100
AcDbDimension
  2
*D16
 10
370.0000030000001
 20
399.9999999999999
 30
0.0
 11
320.5000030000003
 21
408.2499999999999
 31
0.0
 70
   160
  1
30（移動量）
  3
ISO-25
100
AcDbAlignedDimension
 13
400.0000020000001
 23
454.9999889999999
 33
0.0
 14
370.0000030000001
 24
454.9999819999999
 34
0.0
100
AcDbRotatedDimension
1001
ACAD
1000
DSTYLE
1002
{
1070
   270
1070
     2
1070
     6
1000
EX_NORM
1070
     7
1000
EX_NORM
1070
    41
1040
9.0
1070
    42
1040
4.5
1070
    44
1040
3.0
1070
    73
1070
     0
1070
    74
1070
     0
1070
    75
1070
     0
1070
    76
1070
     0
1070
    77
1070
     1
1070
    78
1070
     8
1070
   140
1040
10.38871247113164
1070
   147
1040
0.0
1070
   173
1070
     1
1070
   176
1070
     2
1070
   177
1070
     2
1070
   178
1070
     2
1070
   271
1070
     2
1070
   277
1070
     2
1070
   279
1070
     2
1070
   280
1070
     2
1070
   287
1070
     5
1070
   340
1005
128
1002
}
  0
DIMENSION
  5
142
330
1F
100
AcDbEntity
  8
Ｓ_１_１
  6
CONTINUOUS
 62
     2
100
AcDbDimension
  2
*D17
 10
749.9999970000001
 20
399.9999999999999
 30
0.0
 11
799.499997
 21
408.2499999999999
 31
0.0
 70
   160
  1
30（移動量）
  3
ISO-25
100
AcDbAlignedDimension
 13
719.9999980000001
 23
455.000016
 33
0.0
 14
749.9999970000001
 24
454.9999849999999
 34
0.0
100
AcDbRotatedDimension
1001
ACAD
1000
DSTYLE
1002
{
1070
   270
1070
     2
1070
     6
1000
EX_NORM
1070
     7
1000
EX_NORM
1070
    41
1040
9.0
1070
    42
1040
4.5
1070
    44
1040
3.0
1070
    73
1070
     0
1070
    74
1070
     0
1070
    75
1070
     0
1070
    76
1070
     0
1070
    77
1070
     1
1070
    78
1070
     8
1070
   140
1040
10.38871247113164
1070
   147
1040
0.0
1070
   173
1070
     1
1070
   176
1070
     2
1070
   177
1070
     2
1070
   178
1070
     2
1070
   271
1070
     2
1070
   277
1070
     2
1070
   279
1070
     2
1070
   280
1070
     2
1070
   287
1070
     5
1070
   340
1005
128
1002
}
  0
DIMENSION
  5
14F
330
1F
100
AcDbEntity
  8
Ｓ_１_１
  6
CONTINUOUS
 62
     2
100
AcDbDimension
  2
*D18
 10
320.0000000000001
 20
714.999998
 30
0.0
 11
311.7500000000002
 21
580.0
 31
0.0
 70
   160
  3
ISO-25
100
AcDbAlignedDimension
 13
409.9999900000001
 23
445.0000019999999
 33
0.0
 14
410.000008
 24
714.999998
 34
0.0
 50
90.0
100
AcDbRotatedDimension
1001
ACAD
1000
DSTYLE
1002
{
1070
   270
1070
     2
1070
     6
1000
EX_NORM
1070
     7
1000
EX_NORM
1070
    41
1040
9.0
1070
    42
1040
4.5
1070
    44
1040
3.0
1070
    73
1070
     0
1070
    74
1070
     0
1070
    75
1070
     0
1070
    76
1070
     0
1070
    77
1070
     1
1070
    78
1070
     8
1070
   140
1040
10.38871247113164
1070
   147
1040
0.0
1070
   173
1070
     1
1070
   176
1070
     2
1070
   177
1070
     2
1070
   178
1070
     2
1070
   271
1070
     2
1070
   277
1070
     2
1070
   279
1070
     2
1070
   280
1070
     0
1070
   287
1070
     5
1070
   340
1005
128
1002
}
  0
DIMENSION
  5
15C
330
1F
100
AcDbEntity
  8
Ｓ_１_１
  6
CONTINUOUS
 62
     2
100
AcDbDimension
  2
*D19
 10
800.0000000000001
 20
704.999998
 30
0.0
 11
791.7500000000001
 21
580.0
 31
0.0
 70
   160
  3
ISO-25
100
AcDbAlignedDimension
 13
560.0000000000001
 23
455.0000019999999
 33
0.0
 14
560.0000000000001
 24
704.999998
 34
0.0
 50
90.0
100
AcDbRotatedDimension
1001
ACAD
1000
DSTYLE
1002
{
1070
   270
1070
     2
1070
     6
1000
EX_NORM
1070
     7
1000
EX_NORM
1070
    41
1040
9.0
1070
    42
1040
4.5
1070
    44
1040
3.0
1070
    73
1070
     0
1070
    74
1070
     0
1070
    75
1070
     0
1070
    76
1070
     0
1070
    77
1070
     1
1070
    78
1070
     8
1070
   140
1040
10.38871247113164
1070
   147
1040
0.0
1070
   173
1070
     1
1070
   176
1070
     2
1070
   177
1070
     2
1070
   178
1070
     2
1070
   271
1070
     2
1070
   277
1070
     2
1070
   279
1070
     2
1070
   280
1070
     0
1070
   287
1070
     5
1070
   340
1005
128
1002
}
  0
LINE
  5
169
330
1F
100
AcDbEntity
  8
Ｓ_１_１
  6
EXLTYPE2
 62
     1
100
AcDbLine
 10
512.5000010000002
 20
210.0
 30
0.0
 11
512.5000010000002
 21
190.0
 31
0.0
  0
LINE
  5
16A
330
1F
100
AcDbEntity
  8
Ｓ_１_１
  6
EXLTYPE2
 62
     1
100
AcDbLine
 10
502.5000010000002
 20
200.0
 30
0.0
 11
522.5000010000001
 21
200.0
 31
0.0
  0
LINE
  5
16B
330
1F
100
AcDbEntity
  8
Ｓ_１_１
  6
EXLTYPE2
 62
     1
100
AcDbLine
 10
570.0000000000001
 20
228.499999
 30
0.0
 11
550.0000000000001
 21
228.499999
 31
0.0
  0
LINE
  5
16C
330
1F
100
AcDbEntity
  8
Ｓ_１_１
  6
EXLTYPE2
 62
     1
100
AcDbLine
 10
669.5928940000001
 20
228.499999
 30
0.0
 11
649.5928940000001
 21
228.499999
 31
0.0
  0
LINE
  5
16D
330
1F
100
AcDbEntity
  8
Ｓ_１_１
  6
EXLTYPE2
 62
     1
100
AcDbLine
 10
659.5928940000001
 20
218.4999989999999
 30
0.0
 11
659.5928940000001
 21
238.499998
 31
0.0
  0
LINE
  5
16E
330
1F
100
AcDbEntity
  8
Ｓ_１_１
  6
EXLTYPE2
 62
     1
100
AcDbLine
 10
470.4071060000002
 20
228.499999
 30
0.0
 11
450.4071060000002
 21
228.499999
 31
0.0
  0
LINE
  5
16F
330
1F
100
AcDbEntity
  8
Ｓ_１_１
  6
EXLTYPE2
 62
     1
100
AcDbLine
 10
460.4071060000002
 20
218.4999989999999
 30
0.0
 11
460.4071060000002
 21
238.499998
 31
0.0
  0
POLYLINE
  5
170
330
1F
100
AcDbEntity
  8
Ｓ_１_１
  6
CONTINUOUS
 62
     3
100
AcDb2dPolyline
 66
     1
 10
0.0
 20
0.0
 30
0.0
 70
   128
  0
VERTEX
  5
171
330
170
100
AcDbEntity
  8
Ｓ_１_１
  6
CONTINUOUS
 62
     3
100
AcDbVertex
100
AcDb2dVertex
 10
512.5000010000002
 20
196.999998
 30
0.0
  0
VERTEX
  5
172
330
170
100
AcDbEntity
  8
Ｓ_１_１
  6
CONTINUOUS
 62
     3
100
AcDbVertex
100
AcDb2dVertex
 10
512.6743130000002
 20
197.0114139999999
 30
0.0
  0
VERTEX
  5
173
330
170
100
AcDbEntity
  8
Ｓ_１_１
  6
CONTINUOUS
 62
     3
100
AcDbVertex
100
AcDb2dVertex
 10
512.8472980000001
 20
197.0455749999999
 30
0.0
  0
VERTEX
  5
174
330
170
100
AcDbEntity
  8
Ｓ_１_１
  6
CONTINUOUS
 62
     3
100
AcDbVertex
100
AcDb2dVertex
 10
513.0176410000001
 20
197.102221
 30
0.0
  0
VERTEX
  5
175
330
170
100
AcDbEntity
  8
Ｓ_１_１
  6
CONTINUOUS
 62
     3
100
AcDbVertex
100
AcDb2dVertex
 10
513.1840440000002
 20
197.18092
 30
0.0
  0
VERTEX
  5
176
330
170
100
AcDbEntity
  8
Ｓ_１_１
  6
CONTINUOUS
 62
     3
100
AcDbVertex
100
AcDb2dVertex
 10
513.3452410000002
 20
197.281075
 30
0.0
  0
VERTEX
  5
177
330
170
100
AcDbEntity
  8
Ｓ_１_１
  6
CONTINUOUS
 62
     3
100
AcDbVertex
100
AcDb2dVertex
 10
513.5000050000002
 20
197.401922
 30
0.0
  0
VERTEX
  5
178
330
170
100
AcDbEntity
  8
Ｓ_１_１
  6
CONTINUOUS
 62
     3
100
AcDbVertex
100
AcDb2dVertex
 10
513.6471580000002
 20
197.542542
 30
0.0
  0
VERTEX
  5
179
330
170
100
AcDbEntity
  8
Ｓ_１_１
  6
CONTINUOUS
 62
     3
100
AcDbVertex
100
AcDb2dVertex
 10
513.7855810000002
 20
197.701865
 30
0.0
  0
VERTEX
  5
17A
330
170
100
AcDbEntity
  8
Ｓ_１_１
  6
CONTINUOUS
 62
     3
100
AcDbVertex
100
AcDb2dVertex
 10
513.9142200000002
 20
197.8786779999999
 30
0.0
  0
VERTEX
  5
17B
330
170
100
AcDbEntity
  8
Ｓ_１_１
  6
CONTINUOUS
 62
     3
100
AcDbVertex
100
AcDb2dVertex
 10
514.0320950000001
 20
198.071636
 30
0.0
  0
VERTEX
  5
17C
330
170
100
AcDbEntity
  8
Ｓ_１_１
  6
CONTINUOUS
 62
     3
100
AcDbVertex
100
AcDb2dVertex
 10
514.1383110000002
 20
198.27927
 30
0.0
  0
VERTEX
  5
17D
330
170
100
AcDbEntity
  8
Ｓ_１_１
  6
CONTINUOUS
 62
     3
100
AcDbVertex
100
AcDb2dVertex
 10
514.2320580000002
 20
198.499999
 30
0.0
  0
VERTEX
  5
17E
330
170
100
AcDbEntity
  8
Ｓ_１_１
  6
CONTINUOUS
 62
     3
100
AcDbVertex
100
AcDb2dVertex
 10
514.3126230000001
 20
198.7321439999999
 30
0.0
  0
VERTEX
  5
17F
330
170
100
AcDbEntity
  8
Ｓ_１_１
  6
CONTINUOUS
 62
     3
100
AcDbVertex
100
AcDb2dVertex
 10
514.3793930000002
 20
198.9739389999999
 30
0.0
  0
VERTEX
  5
180
330
170
100
AcDbEntity
  8
Ｓ_１_１
  6
CONTINUOUS
 62
     3
100
AcDbVertex
100
AcDb2dVertex
 10
514.4318600000001
 20
199.2235419999999
 30
0.0
  0
VERTEX
  5
181
330
170
100
AcDbEntity
  8
Ｓ_１_１
  6
CONTINUOUS
 62
     3
100
AcDbVertex
100
AcDb2dVertex
 10
514.4696240000002
 20
199.479055
 30
0.0
  0
VERTEX
  5
182
330
170
100
AcDbEntity
  8
Ｓ_１_１
  6
CONTINUOUS
 62
     3
100
AcDbVertex
100
AcDb2dVertex
 10
514.4923980000002
 20
199.7385329999999
 30
0.0
  0
VERTEX
  5
183
330
170
100
AcDbEntity
  8
Ｓ_１_１
  6
CONTINUOUS
 62
     3
100
AcDbVertex
100
AcDb2dVertex
 10
514.5000080000002
 20
200.0
 30
0.0
  0
VERTEX
  5
184
330
170
100
AcDbEntity
  8
Ｓ_１_１
  6
CONTINUOUS
 62
     3
100
AcDbVertex
100
AcDb2dVertex
 10
514.4923980000002
 20
200.2614669999999
 30
0.0
  0
VERTEX
  5
185
330
170
100
AcDbEntity
  8
Ｓ_１_１
  6
CONTINUOUS
 62
     3
100
AcDbVertex
100
AcDb2dVertex
 10
514.4696240000002
 20
200.5209449999999
 30
0.0
  0
VERTEX
  5
186
330
170
100
AcDbEntity
  8
Ｓ_１_１
  6
CONTINUOUS
 62
     3
100
AcDbVertex
100
AcDb2dVertex
 10
514.4318600000001
 20
200.7764579999999
 30
0.0
  0
VERTEX
  5
187
330
170
100
AcDbEntity
  8
Ｓ_１_１
  6
CONTINUOUS
 62
     3
100
AcDbVertex
100
AcDb2dVertex
 10
514.3793930000002
 20
201.026061
 30
0.0
  0
VERTEX
  5
188
330
170
100
AcDbEntity
  8
Ｓ_１_１
  6
CONTINUOUS
 62
     3
100
AcDbVertex
100
AcDb2dVertex
 10
514.3126230000001
 20
201.2678559999999
 30
0.0
  0
VERTEX
  5
189
330
170
100
AcDbEntity
  8
Ｓ_１_１
  6
CONTINUOUS
 62
     3
100
AcDbVertex
100
AcDb2dVertex
 10
514.2320580000002
 20
201.500001
 30
0.0
  0
VERTEX
  5
18A
330
170
100
AcDbEntity
  8
Ｓ_１_１
  6
CONTINUOUS
 62
     3
100
AcDbVertex
100
AcDb2dVertex
 10
514.1383110000002
 20
201.72073
 30
0.0
  0
VERTEX
  5
18B
330
170
100
AcDbEntity
  8
Ｓ_１_１
  6
CONTINUOUS
 62
     3
100
AcDbVertex
100
AcDb2dVertex
 10
514.0320950000001
 20
201.928364
 30
0.0
  0
VERTEX
  5
18C
330
170
100
AcDbEntity
  8
Ｓ_１_１
  6
CONTINUOUS
 62
     3
100
AcDbVertex
100
AcDb2dVertex
 10
513.9142200000002
 20
202.1213219999999
 30
0.0
  0
VERTEX
  5
18D
330
170
100
AcDbEntity
  8
Ｓ_１_１
  6
CONTINUOUS
 62
     3
100
AcDbVertex
100
AcDb2dVertex
 10
513.7855810000002
 20
202.2981349999999
 30
0.0
  0
VERTEX
  5
18E
330
170
100
AcDbEntity
  8
Ｓ_１_１
  6
CONTINUOUS
 62
     3
100
AcDbVertex
100
AcDb2dVertex
 10
513.6471580000002
 20
202.4574579999999
 30
0.0
  0
VERTEX
  5
18F
330
170
100
AcDbEntity
  8
Ｓ_１_１
  6
CONTINUOUS
 62
     3
100
AcDbVertex
100
AcDb2dVertex
 10
513.5000050000002
 20
202.598078
 30
0.0
  0
VERTEX
  5
190
330
170
100
AcDbEntity
  8
Ｓ_１_１
  6
CONTINUOUS
 62
     3
100
AcDbVertex
100
AcDb2dVertex
 10
513.3452410000002
 20
202.718925
 30
0.0
  0
VERTEX
  5
191
330
170
100
AcDbEntity
  8
Ｓ_１_１
  6
CONTINUOUS
 62
     3
100
AcDbVertex
100
AcDb2dVertex
 10
513.1840440000002
 20
202.81908
 30
0.0
  0
VERTEX
  5
192
330
170
100
AcDbEntity
  8
Ｓ_１_１
  6
CONTINUOUS
 62
     3
100
AcDbVertex
100
AcDb2dVertex
 10
513.0176410000001
 20
202.897779
 30
0.0
  0
VERTEX
  5
193
330
170
100
AcDbEntity
  8
Ｓ_１_１
  6
CONTINUOUS
 62
     3
100
AcDbVertex
100
AcDb2dVertex
 10
512.8472980000001
 20
202.954425
 30
0.0
  0
VERTEX
  5
194
330
170
100
AcDbEntity
  8
Ｓ_１_１
  6
CONTINUOUS
 62
     3
100
AcDbVertex
100
AcDb2dVertex
 10
512.6743130000002
 20
202.9885859999999
 30
0.0
  0
VERTEX
  5
195
330
170
100
AcDbEntity
  8
Ｓ_１_１
  6
CONTINUOUS
 62
     3
100
AcDbVertex
100
AcDb2dVertex
 10
512.5000010000002
 20
203.000002
 30
0.0
  0
VERTEX
  5
196
330
170
100
AcDbEntity
  8
Ｓ_１_１
  6
CONTINUOUS
 62
     3
100
AcDbVertex
100
AcDb2dVertex
 10
512.3256890000001
 20
202.9885859999999
 30
0.0
  0
VERTEX
  5
197
330
170
100
AcDbEntity
  8
Ｓ_１_１
  6
CONTINUOUS
 62
     3
100
AcDbVertex
100
AcDb2dVertex
 10
512.1527030000002
 20
202.954425
 30
0.0
  0
VERTEX
  5
198
330
170
100
AcDbEntity
  8
Ｓ_１_１
  6
CONTINUOUS
 62
     3
100
AcDbVertex
100
AcDb2dVertex
 10
511.9823610000002
 20
202.897779
 30
0.0
  0
VERTEX
  5
199
330
170
100
AcDbEntity
  8
Ｓ_１_１
  6
CONTINUOUS
 62
     3
100
AcDbVertex
100
AcDb2dVertex
 10
511.8159580000001
 20
202.81908
 30
0.0
  0
VERTEX
  5
19A
330
170
100
AcDbEntity
  8
Ｓ_１_１
  6
CONTINUOUS
 62
     3
100
AcDbVertex
100
AcDb2dVertex
 10
511.6547610000001
 20
202.718925
 30
0.0
  0
VERTEX
  5
19B
330
170
100
AcDbEntity
  8
Ｓ_１_１
  6
CONTINUOUS
 62
     3
100
AcDbVertex
100
AcDb2dVertex
 10
511.4999970000001
 20
202.598078
 30
0.0
  0
VERTEX
  5
19C
330
170
100
AcDbEntity
  8
Ｓ_１_１
  6
CONTINUOUS
 62
     3
100
AcDbVertex
100
AcDb2dVertex
 10
511.3528440000001
 20
202.4574579999999
 30
0.0
  0
VERTEX
  5
19D
330
170
100
AcDbEntity
  8
Ｓ_１_１
  6
CONTINUOUS
 62
     3
100
AcDbVertex
100
AcDb2dVertex
 10
511.2144210000001
 20
202.2981349999999
 30
0.0
  0
VERTEX
  5
19E
330
170
100
AcDbEntity
  8
Ｓ_１_１
  6
CONTINUOUS
 62
     3
100
AcDbVertex
100
AcDb2dVertex
 10
511.0857820000002
 20
202.1213219999999
 30
0.0
  0
VERTEX
  5
19F
330
170
100
AcDbEntity
  8
Ｓ_１_１
  6
CONTINUOUS
 62
     3
100
AcDbVertex
100
AcDb2dVertex
 10
510.9679060000001
 20
201.928364
 30
0.0
  0
VERTEX
  5
1A0
330
170
100
AcDbEntity
  8
Ｓ_１_１
  6
CONTINUOUS
 62
     3
100
AcDbVertex
100
AcDb2dVertex
 10
510.8616900000002
 20
201.72073
 30
0.0
  0
VERTEX
  5
1A1
330
170
100
AcDbEntity
  8
Ｓ_１_１
  6
CONTINUOUS
 62
     3
100
AcDbVertex
100
AcDb2dVertex
 10
510.7679430000002
 20
201.500001
 30
0.0
  0
VERTEX
  5
1A2
330
170
100
AcDbEntity
  8
Ｓ_１_１
  6
CONTINUOUS
 62
     3
100
AcDbVertex
100
AcDb2dVertex
 10
510.6873780000002
 20
201.2678559999999
 30
0.0
  0
VERTEX
  5
1A3
330
170
100
AcDbEntity
  8
Ｓ_１_１
  6
CONTINUOUS
 62
     3
100
AcDbVertex
100
AcDb2dVertex
 10
510.6206080000001
 20
201.026061
 30
0.0
  0
VERTEX
  5
1A4
330
170
100
AcDbEntity
  8
Ｓ_１_１
  6
CONTINUOUS
 62
     3
100
AcDbVertex
100
AcDb2dVertex
 10
510.5681420000002
 20
200.7764579999999
 30
0.0
  0
VERTEX
  5
1A5
330
170
100
AcDbEntity
  8
Ｓ_１_１
  6
CONTINUOUS
 62
     3
100
AcDbVertex
100
AcDb2dVertex
 10
510.5303780000001
 20
200.5209449999999
 30
0.0
  0
VERTEX
  5
1A6
330
170
100
AcDbEntity
  8
Ｓ_１_１
  6
CONTINUOUS
 62
     3
100
AcDbVertex
100
AcDb2dVertex
 10
510.5076040000001
 20
200.2614669999999
 30
0.0
  0
VERTEX
  5
1A7
330
170
100
AcDbEntity
  8
Ｓ_１_１
  6
CONTINUOUS
 62
     3
100
AcDbVertex
100
AcDb2dVertex
 10
510.4999930000001
 20
200.0
 30
0.0
  0
VERTEX
  5
1A8
330
170
100
AcDbEntity
  8
Ｓ_１_１
  6
CONTINUOUS
 62
     3
100
AcDbVertex
100
AcDb2dVertex
 10
510.5076040000001
 20
199.7385329999999
 30
0.0
  0
VERTEX
  5
1A9
330
170
100
AcDbEntity
  8
Ｓ_１_１
  6
CONTINUOUS
 62
     3
100
AcDbVertex
100
AcDb2dVertex
 10
510.5303780000001
 20
199.479055
 30
0.0
  0
VERTEX
  5
1AA
330
170
100
AcDbEntity
  8
Ｓ_１_１
  6
CONTINUOUS
 62
     3
100
AcDbVertex
100
AcDb2dVertex
 10
510.5681420000002
 20
199.2235419999999
 30
0.0
  0
VERTEX
  5
1AB
330
170
100
AcDbEntity
  8
Ｓ_１_１
  6
CONTINUOUS
 62
     3
100
AcDbVertex
100
AcDb2dVertex
 10
510.6206080000001
 20
198.9739389999999
 30
0.0
  0
VERTEX
  5
1AC
330
170
100
AcDbEntity
  8
Ｓ_１_１
  6
CONTINUOUS
 62
     3
100
AcDbVertex
100
AcDb2dVertex
 10
510.6873780000002
 20
198.7321439999999
 30
0.0
  0
VERTEX
  5
1AD
330
170
100
AcDbEntity
  8
Ｓ_１_１
  6
CONTINUOUS
 62
     3
100
AcDbVertex
100
AcDb2dVertex
 10
510.7679430000002
 20
198.499999
 30
0.0
  0
VERTEX
  5
1AE
330
170
100
AcDbEntity
  8
Ｓ_１_１
  6
CONTINUOUS
 62
     3
100
AcDbVertex
100
AcDb2dVertex
 10
510.8616900000002
 20
198.27927
 30
0.0
  0
VERTEX
  5
1AF
330
170
100
AcDbEntity
  8
Ｓ_１_１
  6
CONTINUOUS
 62
     3
100
AcDbVertex
100
AcDb2dVertex
 10
510.9679060000001
 20
198.071636
 30
0.0
  0
VERTEX
  5
1B0
330
170
100
AcDbEntity
  8
Ｓ_１_１
  6
CONTINUOUS
 62
     3
100
AcDbVertex
100
AcDb2dVertex
 10
511.0857820000002
 20
197.8786779999999
 30
0.0
  0
VERTEX
  5
1B1
330
170
100
AcDbEntity
  8
Ｓ_１_１
  6
CONTINUOUS
 62
     3
100
AcDbVertex
100
AcDb2dVertex
 10
511.2144210000001
 20
197.701865
 30
0.0
  0
VERTEX
  5
1B2
330
170
100
AcDbEntity
  8
Ｓ_１_１
  6
CONTINUOUS
 62
     3
100
AcDbVertex
100
AcDb2dVertex
 10
511.3528440000001
 20
197.542542
 30
0.0
  0
VERTEX
  5
1B3
330
170
100
AcDbEntity
  8
Ｓ_１_１
  6
CONTINUOUS
 62
     3
100
AcDbVertex
100
AcDb2dVertex
 10
511.4999970000001
 20
197.401922
 30
0.0
  0
VERTEX
  5
1B4
330
170
100
AcDbEntity
  8
Ｓ_１_１
  6
CONTINUOUS
 62
     3
100
AcDbVertex
100
AcDb2dVertex
 10
511.6547610000001
 20
197.281075
 30
0.0
  0
VERTEX
  5
1B5
330
170
100
AcDbEntity
  8
Ｓ_１_１
  6
CONTINUOUS
 62
     3
100
AcDbVertex
100
AcDb2dVertex
 10
511.8159580000001
 20
197.18092
 30
0.0
  0
VERTEX
  5
1B6
330
170
100
AcDbEntity
  8
Ｓ_１_１
  6
CONTINUOUS
 62
     3
100
AcDbVertex
100
AcDb2dVertex
 10
511.9823610000002
 20
197.102221
 30
0.0
  0
VERTEX
  5
1B7
330
170
100
AcDbEntity
  8
Ｓ_１_１
  6
CONTINUOUS
 62
     3
100
AcDbVertex
100
AcDb2dVertex
 10
512.1527030000002
 20
197.0455749999999
 30
0.0
  0
VERTEX
  5
1B8
330
170
100
AcDbEntity
  8
Ｓ_１_１
  6
CONTINUOUS
 62
     3
100
AcDbVertex
100
AcDb2dVertex
 10
512.3256890000001
 20
197.0114139999999
 30
0.0
  0
VERTEX
  5
1B9
330
170
100
AcDbEntity
  8
Ｓ_１_１
  6
CONTINUOUS
 62
     3
100
AcDbVertex
100
AcDb2dVertex
 10
512.5000010000002
 20
196.999998
 30
0.0
  0
SEQEND
  5
1BA
330
170
100
AcDbEntity
  8
Ｓ_１_１
  6
CONTINUOUS
 62
     3
  0
POLYLINE
  5
1BB
330
1F
100
AcDbEntity
  8
Ｓ_１_１
  6
CONTINUOUS
 62
     3
100
AcDb2dPolyline
 66
     1
 10
0.0
 20
0.0
 30
0.0
 70
   128
  0
VERTEX
  5
1BC
330
1BB
100
AcDbEntity
  8
Ｓ_１_１
  6
CONTINUOUS
 62
     3
100
AcDbVertex
100
AcDb2dVertex
 10
512.5000010000002
 20
195.9999989999999
 30
0.0
  0
VERTEX
  5
1BD
330
1BB
100
AcDbEntity
  8
Ｓ_１_１
  6
CONTINUOUS
 62
     3
100
AcDbVertex
100
AcDb2dVertex
 10
512.7614670000002
 20
196.01522
 30
0.0
  0
VERTEX
  5
1BE
330
1BB
100
AcDbEntity
  8
Ｓ_１_１
  6
CONTINUOUS
 62
     3
100
AcDbVertex
100
AcDb2dVertex
 10
513.0209440000002
 20
196.0607679999999
 30
0.0
  0
VERTEX
  5
1BF
330
1BB
100
AcDbEntity
  8
Ｓ_１_１
  6
CONTINUOUS
 62
     3
100
AcDbVertex
100
AcDb2dVertex
 10
513.2764560000002
 20
196.136296
 30
0.0
  0
VERTEX
  5
1C0
330
1BB
100
AcDbEntity
  8
Ｓ_１_１
  6
CONTINUOUS
 62
     3
100
AcDbVertex
100
AcDb2dVertex
 10
513.5260590000001
 20
196.2412289999999
 30
0.0
  0
VERTEX
  5
1C1
330
1BB
100
AcDbEntity
  8
Ｓ_１_１
  6
CONTINUOUS
 62
     3
100
AcDbVertex
100
AcDb2dVertex
 10
513.7678520000002
 20
196.374768
 30
0.0
  0
VERTEX
  5
1C2
330
1BB
100
AcDbEntity
  8
Ｓ_１_１
  6
CONTINUOUS
 62
     3
100
AcDbVertex
100
AcDb2dVertex
 10
513.9999970000001
 20
196.5358979999999
 30
0.0
  0
VERTEX
  5
1C3
330
1BB
100
AcDbEntity
  8
Ｓ_１_１
  6
CONTINUOUS
 62
     3
100
AcDbVertex
100
AcDb2dVertex
 10
514.2207260000001
 20
196.7233909999999
 30
0.0
  0
VERTEX
  5
1C4
330
1BB
100
AcDbEntity
  8
Ｓ_１_１
  6
CONTINUOUS
 62
     3
100
AcDbVertex
100
AcDb2dVertex
 10
514.4283590000002
 20
196.935822
 30
0.0
  0
VERTEX
  5
1C5
330
1BB
100
AcDbEntity
  8
Ｓ_１_１
  6
CONTINUOUS
 62
     3
100
AcDbVertex
100
AcDb2dVertex
 10
514.6213160000002
 20
197.1715719999999
 30
0.0
  0
VERTEX
  5
1C6
330
1BB
100
AcDbEntity
  8
Ｓ_１_１
  6
CONTINUOUS
 62
     3
100
AcDbVertex
100
AcDb2dVertex
 10
514.7981280000001
 20
197.428849
 30
0.0
  0
VERTEX
  5
1C7
330
1BB
100
AcDbEntity
  8
Ｓ_１_１
  6
CONTINUOUS
 62
     3
100
AcDbVertex
100
AcDb2dVertex
 10
514.9574510000002
 20
197.705694
 30
0.0
  0
VERTEX
  5
1C8
330
1BB
100
AcDbEntity
  8
Ｓ_１_１
  6
CONTINUOUS
 62
     3
100
AcDbVertex
100
AcDb2dVertex
 10
515.0980700000001
 20
198.0
 30
0.0
  0
VERTEX
  5
1C9
330
1BB
100
AcDbEntity
  8
Ｓ_１_１
  6
CONTINUOUS
 62
     3
100
AcDbVertex
100
AcDb2dVertex
 10
515.2189170000001
 20
198.309527
 30
0.0
  0
VERTEX
  5
1CA
330
1BB
100
AcDbEntity
  8
Ｓ_１_１
  6
CONTINUOUS
 62
     3
100
AcDbVertex
100
AcDb2dVertex
 10
515.3190710000001
 20
198.6319189999999
 30
0.0
  0
VERTEX
  5
1CB
330
1BB
100
AcDbEntity
  8
Ｓ_１_１
  6
CONTINUOUS
 62
     3
100
AcDbVertex
100
AcDb2dVertex
 10
515.3977710000001
 20
198.9647239999999
 30
0.0
  0
VERTEX
  5
1CC
330
1BB
100
AcDbEntity
  8
Ｓ_１_１
  6
CONTINUOUS
 62
     3
100
AcDbVertex
100
AcDb2dVertex
 10
515.4544160000002
 20
199.3054069999999
 30
0.0
  0
VERTEX
  5
1CD
330
1BB
100
AcDbEntity
  8
Ｓ_１_１
  6
CONTINUOUS
 62
     3
100
AcDbVertex
100
AcDb2dVertex
 10
515.4885770000002
 20
199.651377
 30
0.0
  0
VERTEX
  5
1CE
330
1BB
100
AcDbEntity
  8
Ｓ_１_１
  6
CONTINUOUS
 62
     3
100
AcDbVertex
100
AcDb2dVertex
 10
515.4999930000001
 20
200.0
 30
0.0
  0
VERTEX
  5
1CF
330
1BB
100
AcDbEntity
  8
Ｓ_１_１
  6
CONTINUOUS
 62
     3
100
AcDbVertex
100
AcDb2dVertex
 10
515.4885770000002
 20
200.3486229999999
 30
0.0
  0
VERTEX
  5
1D0
330
1BB
100
AcDbEntity
  8
Ｓ_１_１
  6
CONTINUOUS
 62
     3
100
AcDbVertex
100
AcDb2dVertex
 10
515.4544160000002
 20
200.6945929999999
 30
0.0
  0
VERTEX
  5
1D1
330
1BB
100
AcDbEntity
  8
Ｓ_１_１
  6
CONTINUOUS
 62
     3
100
AcDbVertex
100
AcDb2dVertex
 10
515.3977710000001
 20
201.0352759999999
 30
0.0
  0
VERTEX
  5
1D2
330
1BB
100
AcDbEntity
  8
Ｓ_１_１
  6
CONTINUOUS
 62
     3
100
AcDbVertex
100
AcDb2dVertex
 10
515.3190710000001
 20
201.3680809999999
 30
0.0
  0
VERTEX
  5
1D3
330
1BB
100
AcDbEntity
  8
Ｓ_１_１
  6
CONTINUOUS
 62
     3
100
AcDbVertex
100
AcDb2dVertex
 10
515.2189170000001
 20
201.690473
 30
0.0
  0
VERTEX
  5
1D4
330
1BB
100
AcDbEntity
  8
Ｓ_１_１
  6
CONTINUOUS
 62
     3
100
AcDbVertex
100
AcDb2dVertex
 10
515.0980700000001
 20
201.9999999999999
 30
0.0
  0
VERTEX
  5
1D5
330
1BB
100
AcDbEntity
  8
Ｓ_１_１
  6
CONTINUOUS
 62
     3
100
AcDbVertex
100
AcDb2dVertex
 10
514.9574510000002
 20
202.294306
 30
0.0
  0
VERTEX
  5
1D6
330
1BB
100
AcDbEntity
  8
Ｓ_１_１
  6
CONTINUOUS
 62
     3
100
AcDbVertex
100
AcDb2dVertex
 10
514.7981280000001
 20
202.5711509999999
 30
0.0
  0
VERTEX
  5
1D7
330
1BB
100
AcDbEntity
  8
Ｓ_１_１
  6
CONTINUOUS
 62
     3
100
AcDbVertex
100
AcDb2dVertex
 10
514.6213160000002
 20
202.828428
 30
0.0
  0
VERTEX
  5
1D8
330
1BB
100
AcDbEntity
  8
Ｓ_１_１
  6
CONTINUOUS
 62
     3
100
AcDbVertex
100
AcDb2dVertex
 10
514.4283590000002
 20
203.0641779999999
 30
0.0
  0
VERTEX
  5
1D9
330
1BB
100
AcDbEntity
  8
Ｓ_１_１
  6
CONTINUOUS
 62
     3
100
AcDbVertex
100
AcDb2dVertex
 10
514.2207260000001
 20
203.276609
 30
0.0
  0
VERTEX
  5
1DA
330
1BB
100
AcDbEntity
  8
Ｓ_１_１
  6
CONTINUOUS
 62
     3
100
AcDbVertex
100
AcDb2dVertex
 10
513.9999970000001
 20
203.464102
 30
0.0
  0
VERTEX
  5
1DB
330
1BB
100
AcDbEntity
  8
Ｓ_１_１
  6
CONTINUOUS
 62
     3
100
AcDbVertex
100
AcDb2dVertex
 10
513.7678520000002
 20
203.6252319999999
 30
0.0
  0
VERTEX
  5
1DC
330
1BB
100
AcDbEntity
  8
Ｓ_１_１
  6
CONTINUOUS
 62
     3
100
AcDbVertex
100
AcDb2dVertex
 10
513.5260590000001
 20
203.758771
 30
0.0
  0
VERTEX
  5
1DD
330
1BB
100
AcDbEntity
  8
Ｓ_１_１
  6
CONTINUOUS
 62
     3
100
AcDbVertex
100
AcDb2dVertex
 10
513.2764560000002
 20
203.863704
 30
0.0
  0
VERTEX
  5
1DE
330
1BB
100
AcDbEntity
  8
Ｓ_１_１
  6
CONTINUOUS
 62
     3
100
AcDbVertex
100
AcDb2dVertex
 10
513.0209440000002
 20
203.9392319999999
 30
0.0
  0
VERTEX
  5
1DF
330
1BB
100
AcDbEntity
  8
Ｓ_１_１
  6
CONTINUOUS
 62
     3
100
AcDbVertex
100
AcDb2dVertex
 10
512.7614670000002
 20
203.98478
 30
0.0
  0
VERTEX
  5
1E0
330
1BB
100
AcDbEntity
  8
Ｓ_１_１
  6
CONTINUOUS
 62
     3
100
AcDbVertex
100
AcDb2dVertex
 10
512.5000010000002
 20
204.000001
 30
0.0
  0
VERTEX
  5
1E1
330
1BB
100
AcDbEntity
  8
Ｓ_１_１
  6
CONTINUOUS
 62
     3
100
AcDbVertex
100
AcDb2dVertex
 10
512.2385340000002
 20
203.98478
 30
0.0
  0
VERTEX
  5
1E2
330
1BB
100
AcDbEntity
  8
Ｓ_１_１
  6
CONTINUOUS
 62
     3
100
AcDbVertex
100
AcDb2dVertex
 10
511.9790580000001
 20
203.9392319999999
 30
0.0
  0
VERTEX
  5
1E3
330
1BB
100
AcDbEntity
  8
Ｓ_１_１
  6
CONTINUOUS
 62
     3
100
AcDbVertex
100
AcDb2dVertex
 10
511.7235460000002
 20
203.863704
 30
0.0
  0
VERTEX
  5
1E4
330
1BB
100
AcDbEntity
  8
Ｓ_１_１
  6
CONTINUOUS
 62
     3
100
AcDbVertex
100
AcDb2dVertex
 10
511.4739430000001
 20
203.758771
 30
0.0
  0
VERTEX
  5
1E5
330
1BB
100
AcDbEntity
  8
Ｓ_１_１
  6
CONTINUOUS
 62
     3
100
AcDbVertex
100
AcDb2dVertex
 10
511.2321490000001
 20
203.6252319999999
 30
0.0
  0
VERTEX
  5
1E6
330
1BB
100
AcDbEntity
  8
Ｓ_１_１
  6
CONTINUOUS
 62
     3
100
AcDbVertex
100
AcDb2dVertex
 10
511.0000050000002
 20
203.464102
 30
0.0
  0
VERTEX
  5
1E7
330
1BB
100
AcDbEntity
  8
Ｓ_１_１
  6
CONTINUOUS
 62
     3
100
AcDbVertex
100
AcDb2dVertex
 10
510.7792760000002
 20
203.276609
 30
0.0
  0
VERTEX
  5
1E8
330
1BB
100
AcDbEntity
  8
Ｓ_１_１
  6
CONTINUOUS
 62
     3
100
AcDbVertex
100
AcDb2dVertex
 10
510.5716430000002
 20
203.0641779999999
 30
0.0
  0
VERTEX
  5
1E9
330
1BB
100
AcDbEntity
  8
Ｓ_１_１
  6
CONTINUOUS
 62
     3
100
AcDbVertex
100
AcDb2dVertex
 10
510.3786860000001
 20
202.828428
 30
0.0
  0
VERTEX
  5
1EA
330
1BB
100
AcDbEntity
  8
Ｓ_１_１
  6
CONTINUOUS
 62
     3
100
AcDbVertex
100
AcDb2dVertex
 10
510.2018730000002
 20
202.5711509999999
 30
0.0
  0
VERTEX
  5
1EB
330
1BB
100
AcDbEntity
  8
Ｓ_１_１
  6
CONTINUOUS
 62
     3
100
AcDbVertex
100
AcDb2dVertex
 10
510.0425510000001
 20
202.294306
 30
0.0
  0
VERTEX
  5
1EC
330
1BB
100
AcDbEntity
  8
Ｓ_１_１
  6
CONTINUOUS
 62
     3
100
AcDbVertex
100
AcDb2dVertex
 10
509.9019310000002
 20
201.9999999999999
 30
0.0
  0
VERTEX
  5
1ED
330
1BB
100
AcDbEntity
  8
Ｓ_１_１
  6
CONTINUOUS
 62
     3
100
AcDbVertex
100
AcDb2dVertex
 10
509.7810840000002
 20
201.690473
 30
0.0
  0
VERTEX
  5
1EE
330
1BB
100
AcDbEntity
  8
Ｓ_１_１
  6
CONTINUOUS
 62
     3
100
AcDbVertex
100
AcDb2dVertex
 10
509.6809300000002
 20
201.3680809999999
 30
0.0
  0
VERTEX
  5
1EF
330
1BB
100
AcDbEntity
  8
Ｓ_１_１
  6
CONTINUOUS
 62
     3
100
AcDbVertex
100
AcDb2dVertex
 10
509.6022310000002
 20
201.0352759999999
 30
0.0
  0
VERTEX
  5
1F0
330
1BB
100
AcDbEntity
  8
Ｓ_１_１
  6
CONTINUOUS
 62
     3
100
AcDbVertex
100
AcDb2dVertex
 10
509.5455850000001
 20
200.6945929999999
 30
0.0
  0
VERTEX
  5
1F1
330
1BB
100
AcDbEntity
  8
Ｓ_１_１
  6
CONTINUOUS
 62
     3
100
AcDbVertex
100
AcDb2dVertex
 10
509.5114240000001
 20
200.3486229999999
 30
0.0
  0
VERTEX
  5
1F2
330
1BB
100
AcDbEntity
  8
Ｓ_１_１
  6
CONTINUOUS
 62
     3
100
AcDbVertex
100
AcDb2dVertex
 10
509.5000080000002
 20
200.0
 30
0.0
  0
VERTEX
  5
1F3
330
1BB
100
AcDbEntity
  8
Ｓ_１_１
  6
CONTINUOUS
 62
     3
100
AcDbVertex
100
AcDb2dVertex
 10
509.5114240000001
 20
199.651377
 30
0.0
  0
VERTEX
  5
1F4
330
1BB
100
AcDbEntity
  8
Ｓ_１_１
  6
CONTINUOUS
 62
     3
100
AcDbVertex
100
AcDb2dVertex
 10
509.5455850000001
 20
199.3054069999999
 30
0.0
  0
VERTEX
  5
1F5
330
1BB
100
AcDbEntity
  8
Ｓ_１_１
  6
CONTINUOUS
 62
     3
100
AcDbVertex
100
AcDb2dVertex
 10
509.6022310000002
 20
198.9647239999999
 30
0.0
  0
VERTEX
  5
1F6
330
1BB
100
AcDbEntity
  8
Ｓ_１_１
  6
CONTINUOUS
 62
     3
100
AcDbVertex
100
AcDb2dVertex
 10
509.6809300000002
 20
198.6319189999999
 30
0.0
  0
VERTEX
  5
1F7
330
1BB
100
AcDbEntity
  8
Ｓ_１_１
  6
CONTINUOUS
 62
     3
100
AcDbVertex
100
AcDb2dVertex
 10
509.7810840000002
 20
198.309527
 30
0.0
  0
VERTEX
  5
1F8
330
1BB
100
AcDbEntity
  8
Ｓ_１_１
  6
CONTINUOUS
 62
     3
100
AcDbVertex
100
AcDb2dVertex
 10
509.9019310000002
 20
198.0
 30
0.0
  0
VERTEX
  5
1F9
330
1BB
100
AcDbEntity
  8
Ｓ_１_１
  6
CONTINUOUS
 62
     3
100
AcDbVertex
100
AcDb2dVertex
 10
510.0425510000001
 20
197.705694
 30
0.0
  0
VERTEX
  5
1FA
330
1BB
100
AcDbEntity
  8
Ｓ_１_１
  6
CONTINUOUS
 62
     3
100
AcDbVertex
100
AcDb2dVertex
 10
510.2018730000002
 20
197.428849
 30
0.0
  0
VERTEX
  5
1FB
330
1BB
100
AcDbEntity
  8
Ｓ_１_１
  6
CONTINUOUS
 62
     3
100
AcDbVertex
100
AcDb2dVertex
 10
510.3786860000001
 20
197.1715719999999
 30
0.0
  0
VERTEX
  5
1FC
330
1BB
100
AcDbEntity
  8
Ｓ_１_１
  6
CONTINUOUS
 62
     3
100
AcDbVertex
100
AcDb2dVertex
 10
510.5716430000002
 20
196.935822
 30
0.0
  0
VERTEX
  5
1FD
330
1BB
100
AcDbEntity
  8
Ｓ_１_１
  6
CONTINUOUS
 62
     3
100
AcDbVertex
100
AcDb2dVertex
 10
510.7792760000002
 20
196.7233909999999
 30
0.0
  0
VERTEX
  5
1FE
330
1BB
100
AcDbEntity
  8
Ｓ_１_１
  6
CONTINUOUS
 62
     3
100
AcDbVertex
100
AcDb2dVertex
 10
511.0000050000002
 20
196.5358979999999
 30
0.0
  0
VERTEX
  5
1FF
330
1BB
100
AcDbEntity
  8
Ｓ_１_１
  6
CONTINUOUS
 62
     3
100
AcDbVertex
100
AcDb2dVertex
 10
511.2321490000001
 20
196.374768
 30
0.0
  0
VERTEX
  5
200
330
1BB
100
AcDbEntity
  8
Ｓ_１_１
  6
CONTINUOUS
 62
     3
100
AcDbVertex
100
AcDb2dVertex
 10
511.4739430000001
 20
196.2412289999999
 30
0.0
  0
VERTEX
  5
201
330
1BB
100
AcDbEntity
  8
Ｓ_１_１
  6
CONTINUOUS
 62
     3
100
AcDbVertex
100
AcDb2dVertex
 10
511.7235460000002
 20
196.136296
 30
0.0
  0
VERTEX
  5
202
330
1BB
100
AcDbEntity
  8
Ｓ_１_１
  6
CONTINUOUS
 62
     3
100
AcDbVertex
100
AcDb2dVertex
 10
511.9790580000001
 20
196.0607679999999
 30
0.0
  0
VERTEX
  5
203
330
1BB
100
AcDbEntity
  8
Ｓ_１_１
  6
CONTINUOUS
 62
     3
100
AcDbVertex
100
AcDb2dVertex
 10
512.2385340000002
 20
196.01522
 30
0.0
  0
VERTEX
  5
204
330
1BB
100
AcDbEntity
  8
Ｓ_１_１
  6
CONTINUOUS
 62
     3
100
AcDbVertex
100
AcDb2dVertex
 10
512.5000010000002
 20
195.9999989999999
 30
0.0
  0
SEQEND
  5
205
330
1BB
100
AcDbEntity
  8
Ｓ_１_１
  6
CONTINUOUS
 62
     3
  0
POLYLINE
  5
206
330
1F
100
AcDbEntity
  8
Ｓ_１_１
  6
CONTINUOUS
 62
     3
100
AcDb2dPolyline
 66
     1
 10
0.0
 20
0.0
 30
0.0
 70
   128
  0
VERTEX
  5
207
330
206
100
AcDbEntity
  8
Ｓ_１_１
  6
CONTINUOUS
 62
     3
100
AcDbVertex
100
AcDb2dVertex
 10
659.5928940000001
 20
223.999991
 30
0.0
  0
VERTEX
  5
208
330
206
100
AcDbEntity
  8
Ｓ_１_１
  6
CONTINUOUS
 62
     3
100
AcDbVertex
100
AcDb2dVertex
 10
659.8979380000002
 20
224.017115
 30
0.0
  0
VERTEX
  5
209
330
206
100
AcDbEntity
  8
Ｓ_１_１
  6
CONTINUOUS
 62
     3
100
AcDbVertex
100
AcDb2dVertex
 10
660.2006600000002
 20
224.068356
 30
0.0
  0
VERTEX
  5
20A
330
206
100
AcDbEntity
  8
Ｓ_１_１
  6
CONTINUOUS
 62
     3
100
AcDbVertex
100
AcDb2dVertex
 10
660.4987570000002
 20
224.153325
 30
0.0
  0
VERTEX
  5
20B
330
206
100
AcDbEntity
  8
Ｓ_１_１
  6
CONTINUOUS
 62
     3
100
AcDbVertex
100
AcDb2dVertex
 10
660.7899590000002
 20
224.2713739999999
 30
0.0
  0
VERTEX
  5
20C
330
206
100
AcDbEntity
  8
Ｓ_１_１
  6
CONTINUOUS
 62
     3
100
AcDbVertex
100
AcDb2dVertex
 10
661.0720520000001
 20
224.421606
 30
0.0
  0
VERTEX
  5
20D
330
206
100
AcDbEntity
  8
Ｓ_１_１
  6
CONTINUOUS
 62
     3
100
AcDbVertex
100
AcDb2dVertex
 10
661.3428860000001
 20
224.602877
 30
0.0
  0
VERTEX
  5
20E
330
206
100
AcDbEntity
  8
Ｓ_１_１
  6
CONTINUOUS
 62
     3
100
AcDbVertex
100
AcDb2dVertex
 10
661.6004030000001
 20
224.8138069999999
 30
0.0
  0
VERTEX
  5
20F
330
206
100
AcDbEntity
  8
Ｓ_１_１
  6
CONTINUOUS
 62
     3
100
AcDbVertex
100
AcDb2dVertex
 10
661.8426410000002
 20
225.0527919999999
 30
0.0
  0
VERTEX
  5
210
330
206
100
AcDbEntity
  8
Ｓ_１_１
  6
CONTINUOUS
 62
     3
100
AcDbVertex
100
AcDb2dVertex
 10
662.0677570000001
 20
225.3180109999999
 30
0.0
  0
VERTEX
  5
211
330
206
100
AcDbEntity
  8
Ｓ_１_１
  6
CONTINUOUS
 62
     3
100
AcDbVertex
100
AcDb2dVertex
 10
662.2740380000001
 20
225.6074479999999
 30
0.0
  0
VERTEX
  5
212
330
206
100
AcDbEntity
  8
Ｓ_１_１
  6
CONTINUOUS
 62
     3
100
AcDbVertex
100
AcDb2dVertex
 10
662.4599140000001
 20
225.918898
 30
0.0
  0
VERTEX
  5
213
330
206
100
AcDbEntity
  8
Ｓ_１_１
  6
CONTINUOUS
 62
     3
100
AcDbVertex
100
AcDb2dVertex
 10
662.6239700000001
 20
226.249992
 30
0.0
  0
VERTEX
  5
214
330
206
100
AcDbEntity
  8
Ｓ_１_１
  6
CONTINUOUS
 62
     3
100
AcDbVertex
100
AcDb2dVertex
 10
662.7649570000001
 20
226.598211
 30
0.0
  0
VERTEX
  5
215
330
206
100
AcDbEntity
  8
Ｓ_１_１
  6
CONTINUOUS
 62
     3
100
AcDbVertex
100
AcDb2dVertex
 10
662.8818040000001
 20
226.960902
 30
0.0
  0
VERTEX
  5
216
330
206
100
AcDbEntity
  8
Ｓ_１_１
  6
CONTINUOUS
 62
     3
100
AcDbVertex
100
AcDb2dVertex
 10
662.9736200000001
 20
227.3353069999999
 30
0.0
  0
VERTEX
  5
217
330
206
100
AcDbEntity
  8
Ｓ_１_１
  6
CONTINUOUS
 62
     3
100
AcDbVertex
100
AcDb2dVertex
 10
663.0397060000001
 20
227.7185769999999
 30
0.0
  0
VERTEX
  5
218
330
206
100
AcDbEntity
  8
Ｓ_１_１
  6
CONTINUOUS
 62
     3
100
AcDbVertex
100
AcDb2dVertex
 10
663.0795600000001
 20
228.107793
 30
0.0
  0
VERTEX
  5
219
330
206
100
AcDbEntity
  8
Ｓ_１_１
  6
CONTINUOUS
 62
     3
100
AcDbVertex
100
AcDb2dVertex
 10
663.0928790000002
 20
228.499994
 30
0.0
  0
VERTEX
  5
21A
330
206
100
AcDbEntity
  8
Ｓ_１_１
  6
CONTINUOUS
 62
     3
100
AcDbVertex
100
AcDb2dVertex
 10
663.0795600000001
 20
228.892195
 30
0.0
  0
VERTEX
  5
21B
330
206
100
AcDbEntity
  8
Ｓ_１_１
  6
CONTINUOUS
 62
     3
100
AcDbVertex
100
AcDb2dVertex
 10
663.0397060000001
 20
229.2814109999999
 30
0.0
  0
VERTEX
  5
21C
330
206
100
AcDbEntity
  8
Ｓ_１_１
  6
CONTINUOUS
 62
     3
100
AcDbVertex
100
AcDb2dVertex
 10
662.9736200000001
 20
229.6646799999999
 30
0.0
  0
VERTEX
  5
21D
330
206
100
AcDbEntity
  8
Ｓ_１_１
  6
CONTINUOUS
 62
     3
100
AcDbVertex
100
AcDb2dVertex
 10
662.8818040000001
 20
230.0390849999999
 30
0.0
  0
VERTEX
  5
21E
330
206
100
AcDbEntity
  8
Ｓ_１_１
  6
CONTINUOUS
 62
     3
100
AcDbVertex
100
AcDb2dVertex
 10
662.7649570000001
 20
230.4017769999999
 30
0.0
  0
VERTEX
  5
21F
330
206
100
AcDbEntity
  8
Ｓ_１_１
  6
CONTINUOUS
 62
     3
100
AcDbVertex
100
AcDb2dVertex
 10
662.6239700000001
 20
230.749995
 30
0.0
  0
VERTEX
  5
220
330
206
100
AcDbEntity
  8
Ｓ_１_１
  6
CONTINUOUS
 62
     3
100
AcDbVertex
100
AcDb2dVertex
 10
662.4599140000001
 20
231.081089
 30
0.0
  0
VERTEX
  5
221
330
206
100
AcDbEntity
  8
Ｓ_１_１
  6
CONTINUOUS
 62
     3
100
AcDbVertex
100
AcDb2dVertex
 10
662.2740380000001
 20
231.3925399999999
 30
0.0
  0
VERTEX
  5
222
330
206
100
AcDbEntity
  8
Ｓ_１_１
  6
CONTINUOUS
 62
     3
100
AcDbVertex
100
AcDb2dVertex
 10
662.0677570000001
 20
231.6819759999999
 30
0.0
  0
VERTEX
  5
223
330
206
100
AcDbEntity
  8
Ｓ_１_１
  6
CONTINUOUS
 62
     3
100
AcDbVertex
100
AcDb2dVertex
 10
661.8426410000002
 20
231.9471959999999
 30
0.0
  0
VERTEX
  5
224
330
206
100
AcDbEntity
  8
Ｓ_１_１
  6
CONTINUOUS
 62
     3
100
AcDbVertex
100
AcDb2dVertex
 10
661.6004030000001
 20
232.1861799999999
 30
0.0
  0
VERTEX
  5
225
330
206
100
AcDbEntity
  8
Ｓ_１_１
  6
CONTINUOUS
 62
     3
100
AcDbVertex
100
AcDb2dVertex
 10
661.3428860000001
 20
232.397111
 30
0.0
  0
VERTEX
  5
226
330
206
100
AcDbEntity
  8
Ｓ_１_１
  6
CONTINUOUS
 62
     3
100
AcDbVertex
100
AcDb2dVertex
 10
661.0720520000001
 20
232.5783809999999
 30
0.0
  0
VERTEX
  5
227
330
206
100
AcDbEntity
  8
Ｓ_１_１
  6
CONTINUOUS
 62
     3
100
AcDbVertex
100
AcDb2dVertex
 10
660.7899590000002
 20
232.728613
 30
0.0
  0
VERTEX
  5
228
330
206
100
AcDbEntity
  8
Ｓ_１_１
  6
CONTINUOUS
 62
     3
100
AcDbVertex
100
AcDb2dVertex
 10
660.4987570000002
 20
232.846663
 30
0.0
  0
VERTEX
  5
229
330
206
100
AcDbEntity
  8
Ｓ_１_１
  6
CONTINUOUS
 62
     3
100
AcDbVertex
100
AcDb2dVertex
 10
660.2006600000002
 20
232.9316319999999
 30
0.0
  0
VERTEX
  5
22A
330
206
100
AcDbEntity
  8
Ｓ_１_１
  6
CONTINUOUS
 62
     3
100
AcDbVertex
100
AcDb2dVertex
 10
659.8979380000002
 20
232.9828729999999
 30
0.0
  0
VERTEX
  5
22B
330
206
100
AcDbEntity
  8
Ｓ_１_１
  6
CONTINUOUS
 62
     3
100
AcDbVertex
100
AcDb2dVertex
 10
659.5928940000001
 20
232.999997
 30
0.0
  0
VERTEX
  5
22C
330
206
100
AcDbEntity
  8
Ｓ_１_１
  6
CONTINUOUS
 62
     3
100
AcDbVertex
100
AcDb2dVertex
 10
659.2878500000002
 20
232.9828729999999
 30
0.0
  0
VERTEX
  5
22D
330
206
100
AcDbEntity
  8
Ｓ_１_１
  6
CONTINUOUS
 62
     3
100
AcDbVertex
100
AcDb2dVertex
 10
658.9851280000001
 20
232.9316319999999
 30
0.0
  0
VERTEX
  5
22E
330
206
100
AcDbEntity
  8
Ｓ_１_１
  6
CONTINUOUS
 62
     3
100
AcDbVertex
100
AcDb2dVertex
 10
658.6870310000002
 20
232.846663
 30
0.0
  0
VERTEX
  5
22F
330
206
100
AcDbEntity
  8
Ｓ_１_１
  6
CONTINUOUS
 62
     3
100
AcDbVertex
100
AcDb2dVertex
 10
658.3958290000002
 20
232.728613
 30
0.0
  0
VERTEX
  5
230
330
206
100
AcDbEntity
  8
Ｓ_１_１
  6
CONTINUOUS
 62
     3
100
AcDbVertex
100
AcDb2dVertex
 10
658.1137370000001
 20
232.5783809999999
 30
0.0
  0
VERTEX
  5
231
330
206
100
AcDbEntity
  8
Ｓ_１_１
  6
CONTINUOUS
 62
     3
100
AcDbVertex
100
AcDb2dVertex
 10
657.8429020000001
 20
232.397111
 30
0.0
  0
VERTEX
  5
232
330
206
100
AcDbEntity
  8
Ｓ_１_１
  6
CONTINUOUS
 62
     3
100
AcDbVertex
100
AcDb2dVertex
 10
657.5853850000001
 20
232.1861799999999
 30
0.0
  0
VERTEX
  5
233
330
206
100
AcDbEntity
  8
Ｓ_１_１
  6
CONTINUOUS
 62
     3
100
AcDbVertex
100
AcDb2dVertex
 10
657.3431470000002
 20
231.9471959999999
 30
0.0
  0
VERTEX
  5
234
330
206
100
AcDbEntity
  8
Ｓ_１_１
  6
CONTINUOUS
 62
     3
100
AcDbVertex
100
AcDb2dVertex
 10
657.1180310000001
 20
231.6819759999999
 30
0.0
  0
VERTEX
  5
235
330
206
100
AcDbEntity
  8
Ｓ_１_１
  6
CONTINUOUS
 62
     3
100
AcDbVertex
100
AcDb2dVertex
 10
656.9117500000001
 20
231.3925399999999
 30
0.0
  0
VERTEX
  5
236
330
206
100
AcDbEntity
  8
Ｓ_１_１
  6
CONTINUOUS
 62
     3
100
AcDbVertex
100
AcDb2dVertex
 10
656.7258740000001
 20
231.081089
 30
0.0
  0
VERTEX
  5
237
330
206
100
AcDbEntity
  8
Ｓ_１_１
  6
CONTINUOUS
 62
     3
100
AcDbVertex
100
AcDb2dVertex
 10
656.5618180000001
 20
230.749995
 30
0.0
  0
VERTEX
  5
238
330
206
100
AcDbEntity
  8
Ｓ_１_１
  6
CONTINUOUS
 62
     3
100
AcDbVertex
100
AcDb2dVertex
 10
656.4208310000001
 20
230.4017769999999
 30
0.0
  0
VERTEX
  5
239
330
206
100
AcDbEntity
  8
Ｓ_１_１
  6
CONTINUOUS
 62
     3
100
AcDbVertex
100
AcDb2dVertex
 10
656.3039840000001
 20
230.0390849999999
 30
0.0
  0
VERTEX
  5
23A
330
206
100
AcDbEntity
  8
Ｓ_１_１
  6
CONTINUOUS
 62
     3
100
AcDbVertex
100
AcDb2dVertex
 10
656.2121690000001
 20
229.6646799999999
 30
0.0
  0
VERTEX
  5
23B
330
206
100
AcDbEntity
  8
Ｓ_１_１
  6
CONTINUOUS
 62
     3
100
AcDbVertex
100
AcDb2dVertex
 10
656.1460820000001
 20
229.2814109999999
 30
0.0
  0
VERTEX
  5
23C
330
206
100
AcDbEntity
  8
Ｓ_１_１
  6
CONTINUOUS
 62
     3
100
AcDbVertex
100
AcDb2dVertex
 10
656.1062280000001
 20
228.892195
 30
0.0
  0
VERTEX
  5
23D
330
206
100
AcDbEntity
  8
Ｓ_１_１
  6
CONTINUOUS
 62
     3
100
AcDbVertex
100
AcDb2dVertex
 10
656.0929090000002
 20
228.499994
 30
0.0
  0
VERTEX
  5
23E
330
206
100
AcDbEntity
  8
Ｓ_１_１
  6
CONTINUOUS
 62
     3
100
AcDbVertex
100
AcDb2dVertex
 10
656.1062280000001
 20
228.107793
 30
0.0
  0
VERTEX
  5
23F
330
206
100
AcDbEntity
  8
Ｓ_１_１
  6
CONTINUOUS
 62
     3
100
AcDbVertex
100
AcDb2dVertex
 10
656.1460820000001
 20
227.7185769999999
 30
0.0
  0
VERTEX
  5
240
330
206
100
AcDbEntity
  8
Ｓ_１_１
  6
CONTINUOUS
 62
     3
100
AcDbVertex
100
AcDb2dVertex
 10
656.2121690000001
 20
227.3353069999999
 30
0.0
  0
VERTEX
  5
241
330
206
100
AcDbEntity
  8
Ｓ_１_１
  6
CONTINUOUS
 62
     3
100
AcDbVertex
100
AcDb2dVertex
 10
656.3039840000001
 20
226.960902
 30
0.0
  0
VERTEX
  5
242
330
206
100
AcDbEntity
  8
Ｓ_１_１
  6
CONTINUOUS
 62
     3
100
AcDbVertex
100
AcDb2dVertex
 10
656.4208310000001
 20
226.598211
 30
0.0
  0
VERTEX
  5
243
330
206
100
AcDbEntity
  8
Ｓ_１_１
  6
CONTINUOUS
 62
     3
100
AcDbVertex
100
AcDb2dVertex
 10
656.5618180000001
 20
226.249992
 30
0.0
  0
VERTEX
  5
244
330
206
100
AcDbEntity
  8
Ｓ_１_１
  6
CONTINUOUS
 62
     3
100
AcDbVertex
100
AcDb2dVertex
 10
656.7258740000001
 20
225.918898
 30
0.0
  0
VERTEX
  5
245
330
206
100
AcDbEntity
  8
Ｓ_１_１
  6
CONTINUOUS
 62
     3
100
AcDbVertex
100
AcDb2dVertex
 10
656.9117500000001
 20
225.6074479999999
 30
0.0
  0
VERTEX
  5
246
330
206
100
AcDbEntity
  8
Ｓ_１_１
  6
CONTINUOUS
 62
     3
100
AcDbVertex
100
AcDb2dVertex
 10
657.1180310000001
 20
225.3180109999999
 30
0.0
  0
VERTEX
  5
247
330
206
100
AcDbEntity
  8
Ｓ_１_１
  6
CONTINUOUS
 62
     3
100
AcDbVertex
100
AcDb2dVertex
 10
657.3431470000002
 20
225.0527919999999
 30
0.0
  0
VERTEX
  5
248
330
206
100
AcDbEntity
  8
Ｓ_１_１
  6
CONTINUOUS
 62
     3
100
AcDbVertex
100
AcDb2dVertex
 10
657.5853850000001
 20
224.8138069999999
 30
0.0
  0
VERTEX
  5
249
330
206
100
AcDbEntity
  8
Ｓ_１_１
  6
CONTINUOUS
 62
     3
100
AcDbVertex
100
AcDb2dVertex
 10
657.8429020000001
 20
224.602877
 30
0.0
  0
VERTEX
  5
24A
330
206
100
AcDbEntity
  8
Ｓ_１_１
  6
CONTINUOUS
 62
     3
100
AcDbVertex
100
AcDb2dVertex
 10
658.1137370000001
 20
224.421606
 30
0.0
  0
VERTEX
  5
24B
330
206
100
AcDbEntity
  8
Ｓ_１_１
  6
CONTINUOUS
 62
     3
100
AcDbVertex
100
AcDb2dVertex
 10
658.3958290000002
 20
224.2713739999999
 30
0.0
  0
VERTEX
  5
24C
330
206
100
AcDbEntity
  8
Ｓ_１_１
  6
CONTINUOUS
 62
     3
100
AcDbVertex
100
AcDb2dVertex
 10
658.6870310000002
 20
224.153325
 30
0.0
  0
VERTEX
  5
24D
330
206
100
AcDbEntity
  8
Ｓ_１_１
  6
CONTINUOUS
 62
     3
100
AcDbVertex
100
AcDb2dVertex
 10
658.9851280000001
 20
224.068356
 30
0.0
  0
VERTEX
  5
24E
330
206
100
AcDbEntity
  8
Ｓ_１_１
  6
CONTINUOUS
 62
     3
100
AcDbVertex
100
AcDb2dVertex
 10
659.2878500000002
 20
224.017115
 30
0.0
  0
VERTEX
  5
24F
330
206
100
AcDbEntity
  8
Ｓ_１_１
  6
CONTINUOUS
 62
     3
100
AcDbVertex
100
AcDb2dVertex
 10
659.5928940000001
 20
223.999991
 30
0.0
  0
SEQEND
  5
250
330
206
100
AcDbEntity
  8
Ｓ_１_１
  6
CONTINUOUS
 62
     3
  0
POLYLINE
  5
251
330
1F
100
AcDbEntity
  8
Ｓ_１_１
  6
CONTINUOUS
 62
     3
100
AcDb2dPolyline
 66
     1
 10
0.0
 20
0.0
 30
0.0
 70
   128
  0
VERTEX
  5
252
330
251
100
AcDbEntity
  8
Ｓ_１_１
  6
CONTINUOUS
 62
     3
100
AcDbVertex
100
AcDb2dVertex
 10
460.4071060000002
 20
223.999991
 30
0.0
  0
VERTEX
  5
253
330
251
100
AcDbEntity
  8
Ｓ_１_１
  6
CONTINUOUS
 62
     3
100
AcDbVertex
100
AcDb2dVertex
 10
460.7121530000002
 20
224.017115
 30
0.0
  0
VERTEX
  5
254
330
251
100
AcDbEntity
  8
Ｓ_１_１
  6
CONTINUOUS
 62
     3
100
AcDbVertex
100
AcDb2dVertex
 10
461.0148790000002
 20
224.068356
 30
0.0
  0
VERTEX
  5
255
330
251
100
AcDbEntity
  8
Ｓ_１_１
  6
CONTINUOUS
 62
     3
100
AcDbVertex
100
AcDb2dVertex
 10
461.3129790000001
 20
224.153325
 30
0.0
  0
VERTEX
  5
256
330
251
100
AcDbEntity
  8
Ｓ_１_１
  6
CONTINUOUS
 62
     3
100
AcDbVertex
100
AcDb2dVertex
 10
461.6041840000001
 20
224.2713739999999
 30
0.0
  0
VERTEX
  5
257
330
251
100
AcDbEntity
  8
Ｓ_１_１
  6
CONTINUOUS
 62
     3
100
AcDbVertex
100
AcDb2dVertex
 10
461.8862800000001
 20
224.421606
 30
0.0
  0
VERTEX
  5
258
330
251
100
AcDbEntity
  8
Ｓ_１_１
  6
CONTINUOUS
 62
     3
100
AcDbVertex
100
AcDb2dVertex
 10
462.1571170000001
 20
224.602877
 30
0.0
  0
VERTEX
  5
259
330
251
100
AcDbEntity
  8
Ｓ_１_１
  6
CONTINUOUS
 62
     3
100
AcDbVertex
100
AcDb2dVertex
 10
462.4146370000002
 20
224.8138069999999
 30
0.0
  0
VERTEX
  5
25A
330
251
100
AcDbEntity
  8
Ｓ_１_１
  6
CONTINUOUS
 62
     3
100
AcDbVertex
100
AcDb2dVertex
 10
462.6568770000001
 20
225.0527919999999
 30
0.0
  0
VERTEX
  5
25B
330
251
100
AcDbEntity
  8
Ｓ_１_１
  6
CONTINUOUS
 62
     3
100
AcDbVertex
100
AcDb2dVertex
 10
462.8819960000001
 20
225.3180109999999
 30
0.0
  0
VERTEX
  5
25C
330
251
100
AcDbEntity
  8
Ｓ_１_１
  6
CONTINUOUS
 62
     3
100
AcDbVertex
100
AcDb2dVertex
 10
463.0882790000001
 20
225.6074479999999
 30
0.0
  0
VERTEX
  5
25D
330
251
100
AcDbEntity
  8
Ｓ_１_１
  6
CONTINUOUS
 62
     3
100
AcDbVertex
100
AcDb2dVertex
 10
463.2741570000001
 20
225.918898
 30
0.0
  0
VERTEX
  5
25E
330
251
100
AcDbEntity
  8
Ｓ_１_１
  6
CONTINUOUS
 62
     3
100
AcDbVertex
100
AcDb2dVertex
 10
463.4382150000001
 20
226.249992
 30
0.0
  0
VERTEX
  5
25F
330
251
100
AcDbEntity
  8
Ｓ_１_１
  6
CONTINUOUS
 62
     3
100
AcDbVertex
100
AcDb2dVertex
 10
463.5792040000001
 20
226.598211
 30
0.0
  0
VERTEX
  5
260
330
251
100
AcDbEntity
  8
Ｓ_１_１
  6
CONTINUOUS
 62
     3
100
AcDbVertex
100
AcDb2dVertex
 10
463.6960520000001
 20
226.960902
 30
0.0
  0
VERTEX
  5
261
330
251
100
AcDbEntity
  8
Ｓ_１_１
  6
CONTINUOUS
 62
     3
100
AcDbVertex
100
AcDb2dVertex
 10
463.7878690000002
 20
227.3353069999999
 30
0.0
  0
VERTEX
  5
262
330
251
100
AcDbEntity
  8
Ｓ_１_１
  6
CONTINUOUS
 62
     3
100
AcDbVertex
100
AcDb2dVertex
 10
463.8539560000001
 20
227.7185769999999
 30
0.0
  0
VERTEX
  5
263
330
251
100
AcDbEntity
  8
Ｓ_１_１
  6
CONTINUOUS
 62
     3
100
AcDbVertex
100
AcDb2dVertex
 10
463.8938100000001
 20
228.107793
 30
0.0
  0
VERTEX
  5
264
330
251
100
AcDbEntity
  8
Ｓ_１_１
  6
CONTINUOUS
 62
     3
100
AcDbVertex
100
AcDb2dVertex
 10
463.9071290000002
 20
228.499994
 30
0.0
  0
VERTEX
  5
265
330
251
100
AcDbEntity
  8
Ｓ_１_１
  6
CONTINUOUS
 62
     3
100
AcDbVertex
100
AcDb2dVertex
 10
463.8938100000001
 20
228.892195
 30
0.0
  0
VERTEX
  5
266
330
251
100
AcDbEntity
  8
Ｓ_１_１
  6
CONTINUOUS
 62
     3
100
AcDbVertex
100
AcDb2dVertex
 10
463.8539560000001
 20
229.2814109999999
 30
0.0
  0
VERTEX
  5
267
330
251
100
AcDbEntity
  8
Ｓ_１_１
  6
CONTINUOUS
 62
     3
100
AcDbVertex
100
AcDb2dVertex
 10
463.7878690000002
 20
229.6646799999999
 30
0.0
  0
VERTEX
  5
268
330
251
100
AcDbEntity
  8
Ｓ_１_１
  6
CONTINUOUS
 62
     3
100
AcDbVertex
100
AcDb2dVertex
 10
463.6960520000001
 20
230.0390849999999
 30
0.0
  0
VERTEX
  5
269
330
251
100
AcDbEntity
  8
Ｓ_１_１
  6
CONTINUOUS
 62
     3
100
AcDbVertex
100
AcDb2dVertex
 10
463.5792040000001
 20
230.4017769999999
 30
0.0
  0
VERTEX
  5
26A
330
251
100
AcDbEntity
  8
Ｓ_１_１
  6
CONTINUOUS
 62
     3
100
AcDbVertex
100
AcDb2dVertex
 10
463.4382150000001
 20
230.749995
 30
0.0
  0
VERTEX
  5
26B
330
251
100
AcDbEntity
  8
Ｓ_１_１
  6
CONTINUOUS
 62
     3
100
AcDbVertex
100
AcDb2dVertex
 10
463.2741570000001
 20
231.081089
 30
0.0
  0
VERTEX
  5
26C
330
251
100
AcDbEntity
  8
Ｓ_１_１
  6
CONTINUOUS
 62
     3
100
AcDbVertex
100
AcDb2dVertex
 10
463.0882790000001
 20
231.3925399999999
 30
0.0
  0
VERTEX
  5
26D
330
251
100
AcDbEntity
  8
Ｓ_１_１
  6
CONTINUOUS
 62
     3
100
AcDbVertex
100
AcDb2dVertex
 10
462.8819960000001
 20
231.6819759999999
 30
0.0
  0
VERTEX
  5
26E
330
251
100
AcDbEntity
  8
Ｓ_１_１
  6
CONTINUOUS
 62
     3
100
AcDbVertex
100
AcDb2dVertex
 10
462.6568770000001
 20
231.9471959999999
 30
0.0
  0
VERTEX
  5
26F
330
251
100
AcDbEntity
  8
Ｓ_１_１
  6
CONTINUOUS
 62
     3
100
AcDbVertex
100
AcDb2dVertex
 10
462.4146370000002
 20
232.1861799999999
 30
0.0
  0
VERTEX
  5
270
330
251
100
AcDbEntity
  8
Ｓ_１_１
  6
CONTINUOUS
 62
     3
100
AcDbVertex
100
AcDb2dVertex
 10
462.1571170000001
 20
232.397111
 30
0.0
  0
VERTEX
  5
271
330
251
100
AcDbEntity
  8
Ｓ_１_１
  6
CONTINUOUS
 62
     3
100
AcDbVertex
100
AcDb2dVertex
 10
461.8862800000001
 20
232.5783809999999
 30
0.0
  0
VERTEX
  5
272
330
251
100
AcDbEntity
  8
Ｓ_１_１
  6
CONTINUOUS
 62
     3
100
AcDbVertex
100
AcDb2dVertex
 10
461.6041840000001
 20
232.728613
 30
0.0
  0
VERTEX
  5
273
330
251
100
AcDbEntity
  8
Ｓ_１_１
  6
CONTINUOUS
 62
     3
100
AcDbVertex
100
AcDb2dVertex
 10
461.3129790000001
 20
232.846663
 30
0.0
  0
VERTEX
  5
274
330
251
100
AcDbEntity
  8
Ｓ_１_１
  6
CONTINUOUS
 62
     3
100
AcDbVertex
100
AcDb2dVertex
 10
461.0148790000002
 20
232.9316319999999
 30
0.0
  0
VERTEX
  5
275
330
251
100
AcDbEntity
  8
Ｓ_１_１
  6
CONTINUOUS
 62
     3
100
AcDbVertex
100
AcDb2dVertex
 10
460.7121530000002
 20
232.9828729999999
 30
0.0
  0
VERTEX
  5
276
330
251
100
AcDbEntity
  8
Ｓ_１_１
  6
CONTINUOUS
 62
     3
100
AcDbVertex
100
AcDb2dVertex
 10
460.4071060000002
 20
232.999997
 30
0.0
  0
VERTEX
  5
277
330
251
100
AcDbEntity
  8
Ｓ_１_１
  6
CONTINUOUS
 62
     3
100
AcDbVertex
100
AcDb2dVertex
 10
460.1020590000001
 20
232.9828729999999
 30
0.0
  0
VERTEX
  5
278
330
251
100
AcDbEntity
  8
Ｓ_１_１
  6
CONTINUOUS
 62
     3
100
AcDbVertex
100
AcDb2dVertex
 10
459.7993330000001
 20
232.9316319999999
 30
0.0
  0
VERTEX
  5
279
330
251
100
AcDbEntity
  8
Ｓ_１_１
  6
CONTINUOUS
 62
     3
100
AcDbVertex
100
AcDb2dVertex
 10
459.5012330000002
 20
232.846663
 30
0.0
  0
VERTEX
  5
27A
330
251
100
AcDbEntity
  8
Ｓ_１_１
  6
CONTINUOUS
 62
     3
100
AcDbVertex
100
AcDb2dVertex
 10
459.2100280000002
 20
232.728613
 30
0.0
  0
VERTEX
  5
27B
330
251
100
AcDbEntity
  8
Ｓ_１_１
  6
CONTINUOUS
 62
     3
100
AcDbVertex
100
AcDb2dVertex
 10
458.9279320000002
 20
232.5783809999999
 30
0.0
  0
VERTEX
  5
27C
330
251
100
AcDbEntity
  8
Ｓ_１_１
  6
CONTINUOUS
 62
     3
100
AcDbVertex
100
AcDb2dVertex
 10
458.6570950000001
 20
232.397111
 30
0.0
  0
VERTEX
  5
27D
330
251
100
AcDbEntity
  8
Ｓ_１_１
  6
CONTINUOUS
 62
     3
100
AcDbVertex
100
AcDb2dVertex
 10
458.3995750000001
 20
232.1861799999999
 30
0.0
  0
VERTEX
  5
27E
330
251
100
AcDbEntity
  8
Ｓ_１_１
  6
CONTINUOUS
 62
     3
100
AcDbVertex
100
AcDb2dVertex
 10
458.1573350000002
 20
231.9471959999999
 30
0.0
  0
VERTEX
  5
27F
330
251
100
AcDbEntity
  8
Ｓ_１_１
  6
CONTINUOUS
 62
     3
100
AcDbVertex
100
AcDb2dVertex
 10
457.9322160000002
 20
231.6819759999999
 30
0.0
  0
VERTEX
  5
280
330
251
100
AcDbEntity
  8
Ｓ_１_１
  6
CONTINUOUS
 62
     3
100
AcDbVertex
100
AcDb2dVertex
 10
457.7259330000002
 20
231.3925399999999
 30
0.0
  0
VERTEX
  5
281
330
251
100
AcDbEntity
  8
Ｓ_１_１
  6
CONTINUOUS
 62
     3
100
AcDbVertex
100
AcDb2dVertex
 10
457.5400550000002
 20
231.081089
 30
0.0
  0
VERTEX
  5
282
330
251
100
AcDbEntity
  8
Ｓ_１_１
  6
CONTINUOUS
 62
     3
100
AcDbVertex
100
AcDb2dVertex
 10
457.3759970000002
 20
230.749995
 30
0.0
  0
VERTEX
  5
283
330
251
100
AcDbEntity
  8
Ｓ_１_１
  6
CONTINUOUS
 62
     3
100
AcDbVertex
100
AcDb2dVertex
 10
457.2350080000002
 20
230.4017769999999
 30
0.0
  0
VERTEX
  5
284
330
251
100
AcDbEntity
  8
Ｓ_１_１
  6
CONTINUOUS
 62
     3
100
AcDbVertex
100
AcDb2dVertex
 10
457.1181600000002
 20
230.0390849999999
 30
0.0
  0
VERTEX
  5
285
330
251
100
AcDbEntity
  8
Ｓ_１_１
  6
CONTINUOUS
 62
     3
100
AcDbVertex
100
AcDb2dVertex
 10
457.0263440000002
 20
229.6646799999999
 30
0.0
  0
VERTEX
  5
286
330
251
100
AcDbEntity
  8
Ｓ_１_１
  6
CONTINUOUS
 62
     3
100
AcDbVertex
100
AcDb2dVertex
 10
456.9602560000002
 20
229.2814109999999
 30
0.0
  0
VERTEX
  5
287
330
251
100
AcDbEntity
  8
Ｓ_１_１
  6
CONTINUOUS
 62
     3
100
AcDbVertex
100
AcDb2dVertex
 10
456.9204020000002
 20
228.892195
 30
0.0
  0
VERTEX
  5
288
330
251
100
AcDbEntity
  8
Ｓ_１_１
  6
CONTINUOUS
 62
     3
100
AcDbVertex
100
AcDb2dVertex
 10
456.9070830000002
 20
228.499994
 30
0.0
  0
VERTEX
  5
289
330
251
100
AcDbEntity
  8
Ｓ_１_１
  6
CONTINUOUS
 62
     3
100
AcDbVertex
100
AcDb2dVertex
 10
456.9204020000002
 20
228.107793
 30
0.0
  0
VERTEX
  5
28A
330
251
100
AcDbEntity
  8
Ｓ_１_１
  6
CONTINUOUS
 62
     3
100
AcDbVertex
100
AcDb2dVertex
 10
456.9602560000002
 20
227.7185769999999
 30
0.0
  0
VERTEX
  5
28B
330
251
100
AcDbEntity
  8
Ｓ_１_１
  6
CONTINUOUS
 62
     3
100
AcDbVertex
100
AcDb2dVertex
 10
457.0263440000002
 20
227.3353069999999
 30
0.0
  0
VERTEX
  5
28C
330
251
100
AcDbEntity
  8
Ｓ_１_１
  6
CONTINUOUS
 62
     3
100
AcDbVertex
100
AcDb2dVertex
 10
457.1181600000002
 20
226.960902
 30
0.0
  0
VERTEX
  5
28D
330
251
100
AcDbEntity
  8
Ｓ_１_１
  6
CONTINUOUS
 62
     3
100
AcDbVertex
100
AcDb2dVertex
 10
457.2350080000002
 20
226.598211
 30
0.0
  0
VERTEX
  5
28E
330
251
100
AcDbEntity
  8
Ｓ_１_１
  6
CONTINUOUS
 62
     3
100
AcDbVertex
100
AcDb2dVertex
 10
457.3759970000002
 20
226.249992
 30
0.0
  0
VERTEX
  5
28F
330
251
100
AcDbEntity
  8
Ｓ_１_１
  6
CONTINUOUS
 62
     3
100
AcDbVertex
100
AcDb2dVertex
 10
457.5400550000002
 20
225.918898
 30
0.0
  0
VERTEX
  5
290
330
251
100
AcDbEntity
  8
Ｓ_１_１
  6
CONTINUOUS
 62
     3
100
AcDbVertex
100
AcDb2dVertex
 10
457.7259330000002
 20
225.6074479999999
 30
0.0
  0
VERTEX
  5
291
330
251
100
AcDbEntity
  8
Ｓ_１_１
  6
CONTINUOUS
 62
     3
100
AcDbVertex
100
AcDb2dVertex
 10
457.9322160000002
 20
225.3180109999999
 30
0.0
  0
VERTEX
  5
292
330
251
100
AcDbEntity
  8
Ｓ_１_１
  6
CONTINUOUS
 62
     3
100
AcDbVertex
100
AcDb2dVertex
 10
458.1573350000002
 20
225.0527919999999
 30
0.0
  0
VERTEX
  5
293
330
251
100
AcDbEntity
  8
Ｓ_１_１
  6
CONTINUOUS
 62
     3
100
AcDbVertex
100
AcDb2dVertex
 10
458.3995750000001
 20
224.8138069999999
 30
0.0
  0
VERTEX
  5
294
330
251
100
AcDbEntity
  8
Ｓ_１_１
  6
CONTINUOUS
 62
     3
100
AcDbVertex
100
AcDb2dVertex
 10
458.6570950000001
 20
224.602877
 30
0.0
  0
VERTEX
  5
295
330
251
100
AcDbEntity
  8
Ｓ_１_１
  6
CONTINUOUS
 62
     3
100
AcDbVertex
100
AcDb2dVertex
 10
458.9279320000002
 20
224.421606
 30
0.0
  0
VERTEX
  5
296
330
251
100
AcDbEntity
  8
Ｓ_１_１
  6
CONTINUOUS
 62
     3
100
AcDbVertex
100
AcDb2dVertex
 10
459.2100280000002
 20
224.2713739999999
 30
0.0
  0
VERTEX
  5
297
330
251
100
AcDbEntity
  8
Ｓ_１_１
  6
CONTINUOUS
 62
     3
100
AcDbVertex
100
AcDb2dVertex
 10
459.5012330000002
 20
224.153325
 30
0.0
  0
VERTEX
  5
298
330
251
100
AcDbEntity
  8
Ｓ_１_１
  6
CONTINUOUS
 62
     3
100
AcDbVertex
100
AcDb2dVertex
 10
459.7993330000001
 20
224.068356
 30
0.0
  0
VERTEX
  5
299
330
251
100
AcDbEntity
  8
Ｓ_１_１
  6
CONTINUOUS
 62
     3
100
AcDbVertex
100
AcDb2dVertex
 10
460.1020590000001
 20
224.017115
 30
0.0
  0
VERTEX
  5
29A
330
251
100
AcDbEntity
  8
Ｓ_１_１
  6
CONTINUOUS
 62
     3
100
AcDbVertex
100
AcDb2dVertex
 10
460.4071060000002
 20
223.999991
 30
0.0
  0
SEQEND
  5
29B
330
251
100
AcDbEntity
  8
Ｓ_１_１
  6
CONTINUOUS
 62
     3
  0
POLYLINE
  5
29C
330
1F
100
AcDbEntity
  8
Ｓ_１_１
  6
CONTINUOUS
 62
     3
100
AcDb2dPolyline
 66
     1
 10
0.0
 20
0.0
 30
0.0
 70
   128
  0
VERTEX
  5
29D
330
29C
100
AcDbEntity
  8
Ｓ_１_１
  6
CONTINUOUS
 62
     3
100
AcDbVertex
100
AcDb2dVertex
 10
460.4071060000002
 20
222.499995
 30
0.0
  0
VERTEX
  5
29E
330
29C
100
AcDbEntity
  8
Ｓ_１_１
  6
CONTINUOUS
 62
     3
100
AcDbVertex
100
AcDb2dVertex
 10
460.7557270000001
 20
222.522827
 30
0.0
  0
VERTEX
  5
29F
330
29C
100
AcDbEntity
  8
Ｓ_１_１
  6
CONTINUOUS
 62
     3
100
AcDbVertex
100
AcDb2dVertex
 10
461.1016950000001
 20
222.5911479999999
 30
0.0
  0
VERTEX
  5
2A0
330
29C
100
AcDbEntity
  8
Ｓ_１_１
  6
CONTINUOUS
 62
     3
100
AcDbVertex
100
AcDb2dVertex
 10
461.4423760000001
 20
222.7044399999999
 30
0.0
  0
VERTEX
  5
2A1
330
29C
100
AcDbEntity
  8
Ｓ_１_１
  6
CONTINUOUS
 62
     3
100
AcDbVertex
100
AcDb2dVertex
 10
461.7751790000002
 20
222.861839
 30
0.0
  0
VERTEX
  5
2A2
330
29C
100
AcDbEntity
  8
Ｓ_１_１
  6
CONTINUOUS
 62
     3
100
AcDbVertex
100
AcDb2dVertex
 10
462.0975690000001
 20
223.0621479999999
 30
0.0
  0
VERTEX
  5
2A3
330
29C
100
AcDbEntity
  8
Ｓ_１_１
  6
CONTINUOUS
 62
     3
100
AcDbVertex
100
AcDb2dVertex
 10
462.4070950000001
 20
223.303842
 30
0.0
  0
VERTEX
  5
2A4
330
29C
100
AcDbEntity
  8
Ｓ_１_１
  6
CONTINUOUS
 62
     3
100
AcDbVertex
100
AcDb2dVertex
 10
462.7013990000001
 20
223.5850819999999
 30
0.0
  0
VERTEX
  5
2A5
330
29C
100
AcDbEntity
  8
Ｓ_１_１
  6
CONTINUOUS
 62
     3
100
AcDbVertex
100
AcDb2dVertex
 10
462.9782420000001
 20
223.9037279999999
 30
0.0
  0
VERTEX
  5
2A6
330
29C
100
AcDbEntity
  8
Ｓ_１_１
  6
CONTINUOUS
 62
     3
100
AcDbVertex
100
AcDb2dVertex
 10
463.2355170000001
 20
224.2573539999999
 30
0.0
  0
VERTEX
  5
2A7
330
29C
100
AcDbEntity
  8
Ｓ_１_１
  6
CONTINUOUS
 62
     3
100
AcDbVertex
100
AcDb2dVertex
 10
463.4712660000001
 20
224.643269
 30
0.0
  0
VERTEX
  5
2A8
330
29C
100
AcDbEntity
  8
Ｓ_１_１
  6
CONTINUOUS
 62
     3
100
AcDbVertex
100
AcDb2dVertex
 10
463.6836950000002
 20
225.058536
 30
0.0
  0
VERTEX
  5
2A9
330
29C
100
AcDbEntity
  8
Ｓ_１_１
  6
CONTINUOUS
 62
     3
100
AcDbVertex
100
AcDb2dVertex
 10
463.8711880000002
 20
225.499994
 30
0.0
  0
VERTEX
  5
2AA
330
29C
100
AcDbEntity
  8
Ｓ_１_１
  6
CONTINUOUS
 62
     3
100
AcDbVertex
100
AcDb2dVertex
 10
464.0323160000002
 20
225.964285
 30
0.0
  0
VERTEX
  5
2AB
330
29C
100
AcDbEntity
  8
Ｓ_１_１
  6
CONTINUOUS
 62
     3
100
AcDbVertex
100
AcDb2dVertex
 10
464.1658550000001
 20
226.4478729999999
 30
0.0
  0
VERTEX
  5
2AC
330
29C
100
AcDbEntity
  8
Ｓ_１_１
  6
CONTINUOUS
 62
     3
100
AcDbVertex
100
AcDb2dVertex
 10
464.2707870000002
 20
226.94708
 30
0.0
  0
VERTEX
  5
2AD
330
29C
100
AcDbEntity
  8
Ｓ_１_１
  6
CONTINUOUS
 62
     3
100
AcDbVertex
100
AcDb2dVertex
 10
464.3463140000001
 20
227.4581049999999
 30
0.0
  0
VERTEX
  5
2AE
330
29C
100
AcDbEntity
  8
Ｓ_１_１
  6
CONTINUOUS
 62
     3
100
AcDbVertex
100
AcDb2dVertex
 10
464.3918620000001
 20
227.9770599999999
 30
0.0
  0
VERTEX
  5
2AF
330
29C
100
AcDbEntity
  8
Ｓ_１_１
  6
CONTINUOUS
 62
     3
100
AcDbVertex
100
AcDb2dVertex
 10
464.4070830000002
 20
228.499994
 30
0.0
  0
VERTEX
  5
2B0
330
29C
100
AcDbEntity
  8
Ｓ_１_１
  6
CONTINUOUS
 62
     3
100
AcDbVertex
100
AcDb2dVertex
 10
464.3918620000001
 20
229.022928
 30
0.0
  0
VERTEX
  5
2B1
330
29C
100
AcDbEntity
  8
Ｓ_１_１
  6
CONTINUOUS
 62
     3
100
AcDbVertex
100
AcDb2dVertex
 10
464.3463140000001
 20
229.541883
 30
0.0
  0
VERTEX
  5
2B2
330
29C
100
AcDbEntity
  8
Ｓ_１_１
  6
CONTINUOUS
 62
     3
100
AcDbVertex
100
AcDb2dVertex
 10
464.2707870000002
 20
230.052908
 30
0.0
  0
VERTEX
  5
2B3
330
29C
100
AcDbEntity
  8
Ｓ_１_１
  6
CONTINUOUS
 62
     3
100
AcDbVertex
100
AcDb2dVertex
 10
464.1658550000001
 20
230.5521139999999
 30
0.0
  0
VERTEX
  5
2B4
330
29C
100
AcDbEntity
  8
Ｓ_１_１
  6
CONTINUOUS
 62
     3
100
AcDbVertex
100
AcDb2dVertex
 10
464.0323160000002
 20
231.035703
 30
0.0
  0
VERTEX
  5
2B5
330
29C
100
AcDbEntity
  8
Ｓ_１_１
  6
CONTINUOUS
 62
     3
100
AcDbVertex
100
AcDb2dVertex
 10
463.8711880000002
 20
231.499993
 30
0.0
  0
VERTEX
  5
2B6
330
29C
100
AcDbEntity
  8
Ｓ_１_１
  6
CONTINUOUS
 62
     3
100
AcDbVertex
100
AcDb2dVertex
 10
463.6836950000002
 20
231.941452
 30
0.0
  0
VERTEX
  5
2B7
330
29C
100
AcDbEntity
  8
Ｓ_１_１
  6
CONTINUOUS
 62
     3
100
AcDbVertex
100
AcDb2dVertex
 10
463.4712660000001
 20
232.356719
 30
0.0
  0
VERTEX
  5
2B8
330
29C
100
AcDbEntity
  8
Ｓ_１_１
  6
CONTINUOUS
 62
     3
100
AcDbVertex
100
AcDb2dVertex
 10
463.2355170000001
 20
232.7426339999999
 30
0.0
  0
VERTEX
  5
2B9
330
29C
100
AcDbEntity
  8
Ｓ_１_１
  6
CONTINUOUS
 62
     3
100
AcDbVertex
100
AcDb2dVertex
 10
462.9782420000001
 20
233.09626
 30
0.0
  0
VERTEX
  5
2BA
330
29C
100
AcDbEntity
  8
Ｓ_１_１
  6
CONTINUOUS
 62
     3
100
AcDbVertex
100
AcDb2dVertex
 10
462.7013990000001
 20
233.4149049999999
 30
0.0
  0
VERTEX
  5
2BB
330
29C
100
AcDbEntity
  8
Ｓ_１_１
  6
CONTINUOUS
 62
     3
100
AcDbVertex
100
AcDb2dVertex
 10
462.4070950000001
 20
233.6961449999999
 30
0.0
  0
VERTEX
  5
2BC
330
29C
100
AcDbEntity
  8
Ｓ_１_１
  6
CONTINUOUS
 62
     3
100
AcDbVertex
100
AcDb2dVertex
 10
462.0975690000001
 20
233.9378399999999
 30
0.0
  0
VERTEX
  5
2BD
330
29C
100
AcDbEntity
  8
Ｓ_１_１
  6
CONTINUOUS
 62
     3
100
AcDbVertex
100
AcDb2dVertex
 10
461.7751790000002
 20
234.1381489999999
 30
0.0
  0
VERTEX
  5
2BE
330
29C
100
AcDbEntity
  8
Ｓ_１_１
  6
CONTINUOUS
 62
     3
100
AcDbVertex
100
AcDb2dVertex
 10
461.4423760000001
 20
234.2955479999999
 30
0.0
  0
VERTEX
  5
2BF
330
29C
100
AcDbEntity
  8
Ｓ_１_１
  6
CONTINUOUS
 62
     3
100
AcDbVertex
100
AcDb2dVertex
 10
461.1016950000001
 20
234.4088389999999
 30
0.0
  0
VERTEX
  5
2C0
330
29C
100
AcDbEntity
  8
Ｓ_１_１
  6
CONTINUOUS
 62
     3
100
AcDbVertex
100
AcDb2dVertex
 10
460.7557270000001
 20
234.477161
 30
0.0
  0
VERTEX
  5
2C1
330
29C
100
AcDbEntity
  8
Ｓ_１_１
  6
CONTINUOUS
 62
     3
100
AcDbVertex
100
AcDb2dVertex
 10
460.4071060000002
 20
234.499993
 30
0.0
  0
VERTEX
  5
2C2
330
29C
100
AcDbEntity
  8
Ｓ_１_１
  6
CONTINUOUS
 62
     3
100
AcDbVertex
100
AcDb2dVertex
 10
460.0584850000001
 20
234.477161
 30
0.0
  0
VERTEX
  5
2C3
330
29C
100
AcDbEntity
  8
Ｓ_１_１
  6
CONTINUOUS
 62
     3
100
AcDbVertex
100
AcDb2dVertex
 10
459.7125170000002
 20
234.4088389999999
 30
0.0
  0
VERTEX
  5
2C4
330
29C
100
AcDbEntity
  8
Ｓ_１_１
  6
CONTINUOUS
 62
     3
100
AcDbVertex
100
AcDb2dVertex
 10
459.3718360000001
 20
234.2955479999999
 30
0.0
  0
VERTEX
  5
2C5
330
29C
100
AcDbEntity
  8
Ｓ_１_１
  6
CONTINUOUS
 62
     3
100
AcDbVertex
100
AcDb2dVertex
 10
459.0390330000001
 20
234.1381489999999
 30
0.0
  0
VERTEX
  5
2C6
330
29C
100
AcDbEntity
  8
Ｓ_１_１
  6
CONTINUOUS
 62
     3
100
AcDbVertex
100
AcDb2dVertex
 10
458.7166430000002
 20
233.9378399999999
 30
0.0
  0
VERTEX
  5
2C7
330
29C
100
AcDbEntity
  8
Ｓ_１_１
  6
CONTINUOUS
 62
     3
100
AcDbVertex
100
AcDb2dVertex
 10
458.4071180000001
 20
233.6961449999999
 30
0.0
  0
VERTEX
  5
2C8
330
29C
100
AcDbEntity
  8
Ｓ_１_１
  6
CONTINUOUS
 62
     3
100
AcDbVertex
100
AcDb2dVertex
 10
458.1128130000002
 20
233.4149049999999
 30
0.0
  0
VERTEX
  5
2C9
330
29C
100
AcDbEntity
  8
Ｓ_１_１
  6
CONTINUOUS
 62
     3
100
AcDbVertex
100
AcDb2dVertex
 10
457.8359700000001
 20
233.09626
 30
0.0
  0
VERTEX
  5
2CA
330
29C
100
AcDbEntity
  8
Ｓ_１_１
  6
CONTINUOUS
 62
     3
100
AcDbVertex
100
AcDb2dVertex
 10
457.5786950000002
 20
232.7426339999999
 30
0.0
  0
VERTEX
  5
2CB
330
29C
100
AcDbEntity
  8
Ｓ_１_１
  6
CONTINUOUS
 62
     3
100
AcDbVertex
100
AcDb2dVertex
 10
457.3429460000002
 20
232.356719
 30
0.0
  0
VERTEX
  5
2CC
330
29C
100
AcDbEntity
  8
Ｓ_１_１
  6
CONTINUOUS
 62
     3
100
AcDbVertex
100
AcDb2dVertex
 10
457.1305170000002
 20
231.941452
 30
0.0
  0
VERTEX
  5
2CD
330
29C
100
AcDbEntity
  8
Ｓ_１_１
  6
CONTINUOUS
 62
     3
100
AcDbVertex
100
AcDb2dVertex
 10
456.9430240000002
 20
231.499993
 30
0.0
  0
VERTEX
  5
2CE
330
29C
100
AcDbEntity
  8
Ｓ_１_１
  6
CONTINUOUS
 62
     3
100
AcDbVertex
100
AcDb2dVertex
 10
456.7818960000001
 20
231.035703
 30
0.0
  0
VERTEX
  5
2CF
330
29C
100
AcDbEntity
  8
Ｓ_１_１
  6
CONTINUOUS
 62
     3
100
AcDbVertex
100
AcDb2dVertex
 10
456.6483570000001
 20
230.5521139999999
 30
0.0
  0
VERTEX
  5
2D0
330
29C
100
AcDbEntity
  8
Ｓ_１_１
  6
CONTINUOUS
 62
     3
100
AcDbVertex
100
AcDb2dVertex
 10
456.5434250000002
 20
230.052908
 30
0.0
  0
VERTEX
  5
2D1
330
29C
100
AcDbEntity
  8
Ｓ_１_１
  6
CONTINUOUS
 62
     3
100
AcDbVertex
100
AcDb2dVertex
 10
456.4678980000002
 20
229.541883
 30
0.0
  0
VERTEX
  5
2D2
330
29C
100
AcDbEntity
  8
Ｓ_１_１
  6
CONTINUOUS
 62
     3
100
AcDbVertex
100
AcDb2dVertex
 10
456.4223500000002
 20
229.022928
 30
0.0
  0
VERTEX
  5
2D3
330
29C
100
AcDbEntity
  8
Ｓ_１_１
  6
CONTINUOUS
 62
     3
100
AcDbVertex
100
AcDb2dVertex
 10
456.4071290000002
 20
228.499994
 30
0.0
  0
VERTEX
  5
2D4
330
29C
100
AcDbEntity
  8
Ｓ_１_１
  6
CONTINUOUS
 62
     3
100
AcDbVertex
100
AcDb2dVertex
 10
456.4223500000002
 20
227.9770599999999
 30
0.0
  0
VERTEX
  5
2D5
330
29C
100
AcDbEntity
  8
Ｓ_１_１
  6
CONTINUOUS
 62
     3
100
AcDbVertex
100
AcDb2dVertex
 10
456.4678980000002
 20
227.4581049999999
 30
0.0
  0
VERTEX
  5
2D6
330
29C
100
AcDbEntity
  8
Ｓ_１_１
  6
CONTINUOUS
 62
     3
100
AcDbVertex
100
AcDb2dVertex
 10
456.5434250000002
 20
226.94708
 30
0.0
  0
VERTEX
  5
2D7
330
29C
100
AcDbEntity
  8
Ｓ_１_１
  6
CONTINUOUS
 62
     3
100
AcDbVertex
100
AcDb2dVertex
 10
456.6483570000001
 20
226.4478729999999
 30
0.0
  0
VERTEX
  5
2D8
330
29C
100
AcDbEntity
  8
Ｓ_１_１
  6
CONTINUOUS
 62
     3
100
AcDbVertex
100
AcDb2dVertex
 10
456.7818960000001
 20
225.964285
 30
0.0
  0
VERTEX
  5
2D9
330
29C
100
AcDbEntity
  8
Ｓ_１_１
  6
CONTINUOUS
 62
     3
100
AcDbVertex
100
AcDb2dVertex
 10
456.9430240000002
 20
225.499994
 30
0.0
  0
VERTEX
  5
2DA
330
29C
100
AcDbEntity
  8
Ｓ_１_１
  6
CONTINUOUS
 62
     3
100
AcDbVertex
100
AcDb2dVertex
 10
457.1305170000002
 20
225.058536
 30
0.0
  0
VERTEX
  5
2DB
330
29C
100
AcDbEntity
  8
Ｓ_１_１
  6
CONTINUOUS
 62
     3
100
AcDbVertex
100
AcDb2dVertex
 10
457.3429460000002
 20
224.643269
 30
0.0
  0
VERTEX
  5
2DC
330
29C
100
AcDbEntity
  8
Ｓ_１_１
  6
CONTINUOUS
 62
     3
100
AcDbVertex
100
AcDb2dVertex
 10
457.5786950000002
 20
224.2573539999999
 30
0.0
  0
VERTEX
  5
2DD
330
29C
100
AcDbEntity
  8
Ｓ_１_１
  6
CONTINUOUS
 62
     3
100
AcDbVertex
100
AcDb2dVertex
 10
457.8359700000001
 20
223.9037279999999
 30
0.0
  0
VERTEX
  5
2DE
330
29C
100
AcDbEntity
  8
Ｓ_１_１
  6
CONTINUOUS
 62
     3
100
AcDbVertex
100
AcDb2dVertex
 10
458.1128130000002
 20
223.5850819999999
 30
0.0
  0
VERTEX
  5
2DF
330
29C
100
AcDbEntity
  8
Ｓ_１_１
  6
CONTINUOUS
 62
     3
100
AcDbVertex
100
AcDb2dVertex
 10
458.4071180000001
 20
223.303842
 30
0.0
  0
VERTEX
  5
2E0
330
29C
100
AcDbEntity
  8
Ｓ_１_１
  6
CONTINUOUS
 62
     3
100
AcDbVertex
100
AcDb2dVertex
 10
458.7166430000002
 20
223.0621479999999
 30
0.0
  0
VERTEX
  5
2E1
330
29C
100
AcDbEntity
  8
Ｓ_１_１
  6
CONTINUOUS
 62
     3
100
AcDbVertex
100
AcDb2dVertex
 10
459.0390330000001
 20
222.861839
 30
0.0
  0
VERTEX
  5
2E2
330
29C
100
AcDbEntity
  8
Ｓ_１_１
  6
CONTINUOUS
 62
     3
100
AcDbVertex
100
AcDb2dVertex
 10
459.3718360000001
 20
222.7044399999999
 30
0.0
  0
VERTEX
  5
2E3
330
29C
100
AcDbEntity
  8
Ｓ_１_１
  6
CONTINUOUS
 62
     3
100
AcDbVertex
100
AcDb2dVertex
 10
459.7125170000002
 20
222.5911479999999
 30
0.0
  0
VERTEX
  5
2E4
330
29C
100
AcDbEntity
  8
Ｓ_１_１
  6
CONTINUOUS
 62
     3
100
AcDbVertex
100
AcDb2dVertex
 10
460.0584850000001
 20
222.522827
 30
0.0
  0
VERTEX
  5
2E5
330
29C
100
AcDbEntity
  8
Ｓ_１_１
  6
CONTINUOUS
 62
     3
100
AcDbVertex
100
AcDb2dVertex
 10
460.4071060000002
 20
222.499995
 30
0.0
  0
SEQEND
  5
2E6
330
29C
100
AcDbEntity
  8
Ｓ_１_１
  6
CONTINUOUS
 62
     3
  0
POLYLINE
  5
2E7
330
1F
100
AcDbEntity
  8
Ｓ_１_１
  6
CONTINUOUS
 62
     3
100
AcDb2dPolyline
 66
     1
 10
0.0
 20
0.0
 30
0.0
 70
   128
  0
VERTEX
  5
2E8
330
2E7
100
AcDbEntity
  8
Ｓ_１_１
  6
CONTINUOUS
 62
     3
100
AcDbVertex
100
AcDb2dVertex
 10
659.5928940000001
 20
222.499995
 30
0.0
  0
VERTEX
  5
2E9
330
2E7
100
AcDbEntity
  8
Ｓ_１_１
  6
CONTINUOUS
 62
     3
100
AcDbVertex
100
AcDb2dVertex
 10
659.9415180000001
 20
222.522827
 30
0.0
  0
VERTEX
  5
2EA
330
2E7
100
AcDbEntity
  8
Ｓ_１_１
  6
CONTINUOUS
 62
     3
100
AcDbVertex
100
AcDb2dVertex
 10
660.2874890000002
 20
222.5911479999999
 30
0.0
  0
VERTEX
  5
2EB
330
2E7
100
AcDbEntity
  8
Ｓ_１_１
  6
CONTINUOUS
 62
     3
100
AcDbVertex
100
AcDb2dVertex
 10
660.6281740000002
 20
222.7044399999999
 30
0.0
  0
VERTEX
  5
2EC
330
2E7
100
AcDbEntity
  8
Ｓ_１_１
  6
CONTINUOUS
 62
     3
100
AcDbVertex
100
AcDb2dVertex
 10
660.9609800000002
 20
222.861839
 30
0.0
  0
VERTEX
  5
2ED
330
2E7
100
AcDbEntity
  8
Ｓ_１_１
  6
CONTINUOUS
 62
     3
100
AcDbVertex
100
AcDb2dVertex
 10
661.2833740000001
 20
223.0621479999999
 30
0.0
  0
VERTEX
  5
2EE
330
2E7
100
AcDbEntity
  8
Ｓ_１_１
  6
CONTINUOUS
 62
     3
100
AcDbVertex
100
AcDb2dVertex
 10
661.5929020000001
 20
223.303842
 30
0.0
  0
VERTEX
  5
2EF
330
2E7
100
AcDbEntity
  8
Ｓ_１_１
  6
CONTINUOUS
 62
     3
100
AcDbVertex
100
AcDb2dVertex
 10
661.8872090000001
 20
223.5850819999999
 30
0.0
  0
VERTEX
  5
2F0
330
2E7
100
AcDbEntity
  8
Ｓ_１_１
  6
CONTINUOUS
 62
     3
100
AcDbVertex
100
AcDb2dVertex
 10
662.1640540000002
 20
223.9037279999999
 30
0.0
  0
VERTEX
  5
2F1
330
2E7
100
AcDbEntity
  8
Ｓ_１_１
  6
CONTINUOUS
 62
     3
100
AcDbVertex
100
AcDb2dVertex
 10
662.4213320000001
 20
224.2573539999999
 30
0.0
  0
VERTEX
  5
2F2
330
2E7
100
AcDbEntity
  8
Ｓ_１_１
  6
CONTINUOUS
 62
     3
100
AcDbVertex
100
AcDb2dVertex
 10
662.6570840000002
 20
224.643269
 30
0.0
  0
VERTEX
  5
2F3
330
2E7
100
AcDbEntity
  8
Ｓ_１_１
  6
CONTINUOUS
 62
     3
100
AcDbVertex
100
AcDb2dVertex
 10
662.8695150000001
 20
225.058536
 30
0.0
  0
VERTEX
  5
2F4
330
2E7
100
AcDbEntity
  8
Ｓ_１_１
  6
CONTINUOUS
 62
     3
100
AcDbVertex
100
AcDb2dVertex
 10
663.0570090000001
 20
225.499994
 30
0.0
  0
VERTEX
  5
2F5
330
2E7
100
AcDbEntity
  8
Ｓ_１_１
  6
CONTINUOUS
 62
     3
100
AcDbVertex
100
AcDb2dVertex
 10
663.2181390000002
 20
225.964285
 30
0.0
  0
VERTEX
  5
2F6
330
2E7
100
AcDbEntity
  8
Ｓ_１_１
  6
CONTINUOUS
 62
     3
100
AcDbVertex
100
AcDb2dVertex
 10
663.3516790000001
 20
226.4478729999999
 30
0.0
  0
VERTEX
  5
2F7
330
2E7
100
AcDbEntity
  8
Ｓ_１_１
  6
CONTINUOUS
 62
     3
100
AcDbVertex
100
AcDb2dVertex
 10
663.4566120000002
 20
226.94708
 30
0.0
  0
VERTEX
  5
2F8
330
2E7
100
AcDbEntity
  8
Ｓ_１_１
  6
CONTINUOUS
 62
     3
100
AcDbVertex
100
AcDb2dVertex
 10
663.5321400000001
 20
227.4581049999999
 30
0.0
  0
VERTEX
  5
2F9
330
2E7
100
AcDbEntity
  8
Ｓ_１_１
  6
CONTINUOUS
 62
     3
100
AcDbVertex
100
AcDb2dVertex
 10
663.5776880000002
 20
227.9770599999999
 30
0.0
  0
VERTEX
  5
2FA
330
2E7
100
AcDbEntity
  8
Ｓ_１_１
  6
CONTINUOUS
 62
     3
100
AcDbVertex
100
AcDb2dVertex
 10
663.5929090000002
 20
228.499994
 30
0.0
  0
VERTEX
  5
2FB
330
2E7
100
AcDbEntity
  8
Ｓ_１_１
  6
CONTINUOUS
 62
     3
100
AcDbVertex
100
AcDb2dVertex
 10
663.5776880000002
 20
229.022928
 30
0.0
  0
VERTEX
  5
2FC
330
2E7
100
AcDbEntity
  8
Ｓ_１_１
  6
CONTINUOUS
 62
     3
100
AcDbVertex
100
AcDb2dVertex
 10
663.5321400000001
 20
229.541883
 30
0.0
  0
VERTEX
  5
2FD
330
2E7
100
AcDbEntity
  8
Ｓ_１_１
  6
CONTINUOUS
 62
     3
100
AcDbVertex
100
AcDb2dVertex
 10
663.4566120000002
 20
230.052908
 30
0.0
  0
VERTEX
  5
2FE
330
2E7
100
AcDbEntity
  8
Ｓ_１_１
  6
CONTINUOUS
 62
     3
100
AcDbVertex
100
AcDb2dVertex
 10
663.3516790000001
 20
230.5521139999999
 30
0.0
  0
VERTEX
  5
2FF
330
2E7
100
AcDbEntity
  8
Ｓ_１_１
  6
CONTINUOUS
 62
     3
100
AcDbVertex
100
AcDb2dVertex
 10
663.2181390000002
 20
231.035703
 30
0.0
  0
VERTEX
  5
300
330
2E7
100
AcDbEntity
  8
Ｓ_１_１
  6
CONTINUOUS
 62
     3
100
AcDbVertex
100
AcDb2dVertex
 10
663.0570090000001
 20
231.499993
 30
0.0
  0
VERTEX
  5
301
330
2E7
100
AcDbEntity
  8
Ｓ_１_１
  6
CONTINUOUS
 62
     3
100
AcDbVertex
100
AcDb2dVertex
 10
662.8695150000001
 20
231.941452
 30
0.0
  0
VERTEX
  5
302
330
2E7
100
AcDbEntity
  8
Ｓ_１_１
  6
CONTINUOUS
 62
     3
100
AcDbVertex
100
AcDb2dVertex
 10
662.6570840000002
 20
232.356719
 30
0.0
  0
VERTEX
  5
303
330
2E7
100
AcDbEntity
  8
Ｓ_１_１
  6
CONTINUOUS
 62
     3
100
AcDbVertex
100
AcDb2dVertex
 10
662.4213320000001
 20
232.7426339999999
 30
0.0
  0
VERTEX
  5
304
330
2E7
100
AcDbEntity
  8
Ｓ_１_１
  6
CONTINUOUS
 62
     3
100
AcDbVertex
100
AcDb2dVertex
 10
662.1640540000002
 20
233.09626
 30
0.0
  0
VERTEX
  5
305
330
2E7
100
AcDbEntity
  8
Ｓ_１_１
  6
CONTINUOUS
 62
     3
100
AcDbVertex
100
AcDb2dVertex
 10
661.8872090000001
 20
233.4149049999999
 30
0.0
  0
VERTEX
  5
306
330
2E7
100
AcDbEntity
  8
Ｓ_１_１
  6
CONTINUOUS
 62
     3
100
AcDbVertex
100
AcDb2dVertex
 10
661.5929020000001
 20
233.6961449999999
 30
0.0
  0
VERTEX
  5
307
330
2E7
100
AcDbEntity
  8
Ｓ_１_１
  6
CONTINUOUS
 62
     3
100
AcDbVertex
100
AcDb2dVertex
 10
661.2833740000001
 20
233.9378399999999
 30
0.0
  0
VERTEX
  5
308
330
2E7
100
AcDbEntity
  8
Ｓ_１_１
  6
CONTINUOUS
 62
     3
100
AcDbVertex
100
AcDb2dVertex
 10
660.9609800000002
 20
234.1381489999999
 30
0.0
  0
VERTEX
  5
309
330
2E7
100
AcDbEntity
  8
Ｓ_１_１
  6
CONTINUOUS
 62
     3
100
AcDbVertex
100
AcDb2dVertex
 10
660.6281740000002
 20
234.2955479999999
 30
0.0
  0
VERTEX
  5
30A
330
2E7
100
AcDbEntity
  8
Ｓ_１_１
  6
CONTINUOUS
 62
     3
100
AcDbVertex
100
AcDb2dVertex
 10
660.2874890000002
 20
234.4088389999999
 30
0.0
  0
VERTEX
  5
30B
330
2E7
100
AcDbEntity
  8
Ｓ_１_１
  6
CONTINUOUS
 62
     3
100
AcDbVertex
100
AcDb2dVertex
 10
659.9415180000001
 20
234.477161
 30
0.0
  0
VERTEX
  5
30C
330
2E7
100
AcDbEntity
  8
Ｓ_１_１
  6
CONTINUOUS
 62
     3
100
AcDbVertex
100
AcDb2dVertex
 10
659.5928940000001
 20
234.499993
 30
0.0
  0
VERTEX
  5
30D
330
2E7
100
AcDbEntity
  8
Ｓ_１_１
  6
CONTINUOUS
 62
     3
100
AcDbVertex
100
AcDb2dVertex
 10
659.2442700000001
 20
234.477161
 30
0.0
  0
VERTEX
  5
30E
330
2E7
100
AcDbEntity
  8
Ｓ_１_１
  6
CONTINUOUS
 62
     3
100
AcDbVertex
100
AcDb2dVertex
 10
658.8982990000002
 20
234.4088389999999
 30
0.0
  0
VERTEX
  5
30F
330
2E7
100
AcDbEntity
  8
Ｓ_１_１
  6
CONTINUOUS
 62
     3
100
AcDbVertex
100
AcDb2dVertex
 10
658.5576140000002
 20
234.2955479999999
 30
0.0
  0
VERTEX
  5
310
330
2E7
100
AcDbEntity
  8
Ｓ_１_１
  6
CONTINUOUS
 62
     3
100
AcDbVertex
100
AcDb2dVertex
 10
658.2248080000002
 20
234.1381489999999
 30
0.0
  0
VERTEX
  5
311
330
2E7
100
AcDbEntity
  8
Ｓ_１_１
  6
CONTINUOUS
 62
     3
100
AcDbVertex
100
AcDb2dVertex
 10
657.9024150000001
 20
233.9378399999999
 30
0.0
  0
VERTEX
  5
312
330
2E7
100
AcDbEntity
  8
Ｓ_１_１
  6
CONTINUOUS
 62
     3
100
AcDbVertex
100
AcDb2dVertex
 10
657.5928870000001
 20
233.6961449999999
 30
0.0
  0
VERTEX
  5
313
330
2E7
100
AcDbEntity
  8
Ｓ_１_１
  6
CONTINUOUS
 62
     3
100
AcDbVertex
100
AcDb2dVertex
 10
657.2985800000001
 20
233.4149049999999
 30
0.0
  0
VERTEX
  5
314
330
2E7
100
AcDbEntity
  8
Ｓ_１_１
  6
CONTINUOUS
 62
     3
100
AcDbVertex
100
AcDb2dVertex
 10
657.0217340000002
 20
233.09626
 30
0.0
  0
VERTEX
  5
315
330
2E7
100
AcDbEntity
  8
Ｓ_１_１
  6
CONTINUOUS
 62
     3
100
AcDbVertex
100
AcDb2dVertex
 10
656.7644560000001
 20
232.7426339999999
 30
0.0
  0
VERTEX
  5
316
330
2E7
100
AcDbEntity
  8
Ｓ_１_１
  6
CONTINUOUS
 62
     3
100
AcDbVertex
100
AcDb2dVertex
 10
656.5287050000002
 20
232.356719
 30
0.0
  0
VERTEX
  5
317
330
2E7
100
AcDbEntity
  8
Ｓ_１_１
  6
CONTINUOUS
 62
     3
100
AcDbVertex
100
AcDb2dVertex
 10
656.3162730000001
 20
231.941452
 30
0.0
  0
VERTEX
  5
318
330
2E7
100
AcDbEntity
  8
Ｓ_１_１
  6
CONTINUOUS
 62
     3
100
AcDbVertex
100
AcDb2dVertex
 10
656.1287790000001
 20
231.499993
 30
0.0
  0
VERTEX
  5
319
330
2E7
100
AcDbEntity
  8
Ｓ_１_１
  6
CONTINUOUS
 62
     3
100
AcDbVertex
100
AcDb2dVertex
 10
655.9676490000002
 20
231.035703
 30
0.0
  0
VERTEX
  5
31A
330
2E7
100
AcDbEntity
  8
Ｓ_１_１
  6
CONTINUOUS
 62
     3
100
AcDbVertex
100
AcDb2dVertex
 10
655.8341090000001
 20
230.5521139999999
 30
0.0
  0
VERTEX
  5
31B
330
2E7
100
AcDbEntity
  8
Ｓ_１_１
  6
CONTINUOUS
 62
     3
100
AcDbVertex
100
AcDb2dVertex
 10
655.7291760000002
 20
230.052908
 30
0.0
  0
VERTEX
  5
31C
330
2E7
100
AcDbEntity
  8
Ｓ_１_１
  6
CONTINUOUS
 62
     3
100
AcDbVertex
100
AcDb2dVertex
 10
655.6536480000001
 20
229.541883
 30
0.0
  0
VERTEX
  5
31D
330
2E7
100
AcDbEntity
  8
Ｓ_１_１
  6
CONTINUOUS
 62
     3
100
AcDbVertex
100
AcDb2dVertex
 10
655.6081000000001
 20
229.022928
 30
0.0
  0
VERTEX
  5
31E
330
2E7
100
AcDbEntity
  8
Ｓ_１_１
  6
CONTINUOUS
 62
     3
100
AcDbVertex
100
AcDb2dVertex
 10
655.5928790000002
 20
228.499994
 30
0.0
  0
VERTEX
  5
31F
330
2E7
100
AcDbEntity
  8
Ｓ_１_１
  6
CONTINUOUS
 62
     3
100
AcDbVertex
100
AcDb2dVertex
 10
655.6081000000001
 20
227.9770599999999
 30
0.0
  0
VERTEX
  5
320
330
2E7
100
AcDbEntity
  8
Ｓ_１_１
  6
CONTINUOUS
 62
     3
100
AcDbVertex
100
AcDb2dVertex
 10
655.6536480000001
 20
227.4581049999999
 30
0.0
  0
VERTEX
  5
321
330
2E7
100
AcDbEntity
  8
Ｓ_１_１
  6
CONTINUOUS
 62
     3
100
AcDbVertex
100
AcDb2dVertex
 10
655.7291760000002
 20
226.94708
 30
0.0
  0
VERTEX
  5
322
330
2E7
100
AcDbEntity
  8
Ｓ_１_１
  6
CONTINUOUS
 62
     3
100
AcDbVertex
100
AcDb2dVertex
 10
655.8341090000001
 20
226.4478729999999
 30
0.0
  0
VERTEX
  5
323
330
2E7
100
AcDbEntity
  8
Ｓ_１_１
  6
CONTINUOUS
 62
     3
100
AcDbVertex
100
AcDb2dVertex
 10
655.9676490000002
 20
225.964285
 30
0.0
  0
VERTEX
  5
324
330
2E7
100
AcDbEntity
  8
Ｓ_１_１
  6
CONTINUOUS
 62
     3
100
AcDbVertex
100
AcDb2dVertex
 10
656.1287790000001
 20
225.499994
 30
0.0
  0
VERTEX
  5
325
330
2E7
100
AcDbEntity
  8
Ｓ_１_１
  6
CONTINUOUS
 62
     3
100
AcDbVertex
100
AcDb2dVertex
 10
656.3162730000001
 20
225.058536
 30
0.0
  0
VERTEX
  5
326
330
2E7
100
AcDbEntity
  8
Ｓ_１_１
  6
CONTINUOUS
 62
     3
100
AcDbVertex
100
AcDb2dVertex
 10
656.5287050000002
 20
224.643269
 30
0.0
  0
VERTEX
  5
327
330
2E7
100
AcDbEntity
  8
Ｓ_１_１
  6
CONTINUOUS
 62
     3
100
AcDbVertex
100
AcDb2dVertex
 10
656.7644560000001
 20
224.2573539999999
 30
0.0
  0
VERTEX
  5
328
330
2E7
100
AcDbEntity
  8
Ｓ_１_１
  6
CONTINUOUS
 62
     3
100
AcDbVertex
100
AcDb2dVertex
 10
657.0217340000002
 20
223.9037279999999
 30
0.0
  0
VERTEX
  5
329
330
2E7
100
AcDbEntity
  8
Ｓ_１_１
  6
CONTINUOUS
 62
     3
100
AcDbVertex
100
AcDb2dVertex
 10
657.2985800000001
 20
223.5850819999999
 30
0.0
  0
VERTEX
  5
32A
330
2E7
100
AcDbEntity
  8
Ｓ_１_１
  6
CONTINUOUS
 62
     3
100
AcDbVertex
100
AcDb2dVertex
 10
657.5928870000001
 20
223.303842
 30
0.0
  0
VERTEX
  5
32B
330
2E7
100
AcDbEntity
  8
Ｓ_１_１
  6
CONTINUOUS
 62
     3
100
AcDbVertex
100
AcDb2dVertex
 10
657.9024150000001
 20
223.0621479999999
 30
0.0
  0
VERTEX
  5
32C
330
2E7
100
AcDbEntity
  8
Ｓ_１_１
  6
CONTINUOUS
 62
     3
100
AcDbVertex
100
AcDb2dVertex
 10
658.2248080000002
 20
222.861839
 30
0.0
  0
VERTEX
  5
32D
330
2E7
100
AcDbEntity
  8
Ｓ_１_１
  6
CONTINUOUS
 62
     3
100
AcDbVertex
100
AcDb2dVertex
 10
658.5576140000002
 20
222.7044399999999
 30
0.0
  0
VERTEX
  5
32E
330
2E7
100
AcDbEntity
  8
Ｓ_１_１
  6
CONTINUOUS
 62
     3
100
AcDbVertex
100
AcDb2dVertex
 10
658.8982990000002
 20
222.5911479999999
 30
0.0
  0
VERTEX
  5
32F
330
2E7
100
AcDbEntity
  8
Ｓ_１_１
  6
CONTINUOUS
 62
     3
100
AcDbVertex
100
AcDb2dVertex
 10
659.2442700000001
 20
222.522827
 30
0.0
  0
VERTEX
  5
330
330
2E7
100
AcDbEntity
  8
Ｓ_１_１
  6
CONTINUOUS
 62
     3
100
AcDbVertex
100
AcDb2dVertex
 10
659.5928940000001
 20
222.499995
 30
0.0
  0
SEQEND
  5
331
330
2E7
100
AcDbEntity
  8
Ｓ_１_１
  6
CONTINUOUS
 62
     3
  0
CIRCLE
  5
332
330
1F
100
AcDbEntity
  8
Ｓ_１_１
  6
CONTINUOUS
 62
     3
100
AcDbCircle
 10
560.0000000000001
 20
228.499999
 30
0.0
 40
4.5
  0
CIRCLE
  5
333
330
1F
100
AcDbEntity
  8
Ｓ_１_１
  6
CONTINUOUS
 62
     3
100
AcDbCircle
 10
560.0000000000001
 20
228.499999
 30
0.0
 40
6.000000000000004
  0
LINE
  5
334
330
1F
100
AcDbEntity
  8
Ｓ_１_１
  6
EXLTYPE2
 62
     1
100
AcDbLine
 10
362.3374970000002
 20
580.0
 30
0.0
 11
754.3374990000001
 21
580.0
 31
0.0
  0
ARC
  5
335
330
1F
100
AcDbEntity
  8
Ｓ_１_１
  6
EXLTYPE0
 62
     2
100
AcDbCircle
 10
585.0000000000002
 20
580.0
 30
0.0
 40
124.999998
100
AcDbArc
 50
269.999997
 51
90.000003
  0
ARC
  5
336
330
1F
100
AcDbEntity
  8
Ｓ_１_１
  6
EXLTYPE0
 62
     2
100
AcDbCircle
 10
535.0000000000001
 20
580.0
 30
0.0
 40
124.999998
100
AcDbArc
 50
90.000003
 51
270.0000010000001
  0
CIRCLE
  5
337
330
1F
100
AcDbEntity
  8
Ｓ_１_１
  6
EXLTYPE0
 62
     2
100
AcDbCircle
 10
560.0000000000001
 20
580.0
 30
0.0
 40
119.999998
  0
CIRCLE
  5
338
330
1F
100
AcDbEntity
  8
Ｓ_１_１
  6
EXLTYPE0
 62
     2
100
AcDbCircle
 10
560.0000000000001
 20
580.0
 30
0.0
 40
94.999999
  0
CIRCLE
  5
339
330
1F
100
AcDbEntity
  8
Ｓ_１_１
  6
EXLTYPE0
 62
     2
100
AcDbCircle
 10
560.0000000000001
 20
580.0
 30
0.0
 40
54.999999
  0
LINE
  5
33A
330
1F
100
AcDbEntity
  8
Ｓ_１_１
  6
EXLTYPE0
 62
     2
100
AcDbLine
 10
535.0000000000001
 20
455.000002
 30
0.0
 11
585.0000000000002
 21
455.000002
 31
0.0
  0
LINE
  5
33B
330
1F
100
AcDbEntity
  8
Ｓ_１_１
  6
EXLTYPE0
 62
     2
100
AcDbLine
 10
535.0000000000001
 20
704.999998
 30
0.0
 11
585.0000000000002
 21
704.999998
 31
0.0
  0
LINE
  5
33C
330
1F
100
AcDbEntity
  8
Ｓ_１_１
  6
EXLTYPE3
 62
     2
100
AcDbLine
 10
370.0000200000002
 20
454.999965
 30
0.0
 11
379.9999770000002
 21
445.0000079999999
 31
0.0
  0
LINE
  5
33D
330
1F
100
AcDbEntity
  8
Ｓ_１_１
  6
EXLTYPE3
 62
     2
100
AcDbLine
 10
369.9999950000001
 20
705.000019
 30
0.0
 11
379.9999930000001
 21
715.000015
 31
0.0
  0
LINE
  5
33E
330
1F
100
AcDbEntity
  8
Ｓ_１_１
  6
EXLTYPE3
 62
     2
100
AcDbLine
 10
370.0000030000002
 20
704.999998
 30
0.0
 11
370.0000030000002
 21
455.000002
 31
0.0
  0
LINE
  5
33F
330
1F
100
AcDbEntity
  8
Ｓ_１_１
  6
EXLTYPE3
 62
     2
100
AcDbLine
 10
749.9999690000002
 20
705.000017
 30
0.0
 11
740.0000120000002
 21
714.999974
 31
0.0
  0
LINE
  5
340
330
1F
100
AcDbEntity
  8
Ｓ_１_１
  6
EXLTYPE3
 62
     2
100
AcDbLine
 10
740.0000060000001
 20
444.999993
 30
0.0
 11
750.0000030000001
 21
454.999991
 31
0.0
  0
LINE
  5
341
330
1F
100
AcDbEntity
  8
Ｓ_１_１
  6
EXLTYPE3
 62
     2
100
AcDbLine
 10
749.9999970000001
 20
704.999998
 30
0.0
 11
749.9999970000001
 21
455.000002
 31
0.0
  0
LINE
  5
342
330
1F
100
AcDbEntity
  8
Ｓ_１_１
  6
CONTINUOUS
 62
     3
100
AcDbLine
 10
720.0000110000002
 20
704.999982
 30
0.0
 11
710.0000000000001
 21
714.999993
 31
0.0
  0
LINE
  5
343
330
1F
100
AcDbEntity
  8
Ｓ_１_１
  6
CONTINUOUS
 62
     3
100
AcDbLine
 10
709.9999910000001
 20
445.0000089999999
 30
0.0
 11
719.9999880000001
 21
455.000006
 31
0.0
  0
LINE
  5
344
330
1F
100
AcDbEntity
  8
Ｓ_１_１
  6
CONTINUOUS
 62
     3
100
AcDbLine
 10
399.9999850000002
 20
455.000006
 30
0.0
 11
409.9999960000001
 21
444.999996
 31
0.0
  0
LINE
  5
345
330
1F
100
AcDbEntity
  8
Ｓ_１_１
  6
CONTINUOUS
 62
     3
100
AcDbLine
 10
400.0000070000002
 20
704.999997
 30
0.0
 11
410.0000110000002
 21
715.000001
 31
0.0
  0
LINE
  5
346
330
1F
100
AcDbEntity
  8
Ｓ_１_１
  6
CONTINUOUS
 62
     3
100
AcDbLine
 10
410.0000020000002
 20
445.0000019999999
 30
0.0
 11
709.9999980000001
 21
445.0000019999999
 31
0.0
  0
LINE
  5
347
330
1F
100
AcDbEntity
  8
Ｓ_１_１
  6
CONTINUOUS
 62
     3
100
AcDbLine
 10
410.0000020000002
 20
714.999998
 30
0.0
 11
709.9999980000001
 21
714.999998
 31
0.0
  0
LINE
  5
348
330
1F
100
AcDbEntity
  8
Ｓ_１_１
  6
CONTINUOUS
 62
     3
100
AcDbLine
 10
719.9999980000001
 20
704.999998
 30
0.0
 11
719.9999980000001
 21
455.000002
 31
0.0
  0
LINE
  5
349
330
1F
100
AcDbEntity
  8
Ｓ_１_１
  6
CONTINUOUS
 62
     3
100
AcDbLine
 10
400.0000020000002
 20
704.999998
 30
0.0
 11
400.0000020000002
 21
455.000002
 31
0.0
  0
LINE
  5
34A
330
1F
100
AcDbEntity
  8
Ｓ_１_１
  6
EXLTYPE2
 62
     1
100
AcDbLine
 10
560.0000000000001
 20
726.1
 30
0.0
 11
560.0000000000001
 21
434.1999999999999
 31
0.0
  0
DIMENSION
  5
34B
330
1F
100
AcDbEntity
  8
Ｓ_１_１
  6
CONTINUOUS
 62
     2
100
AcDbDimension
  2
*D20
 10
521.1091277418468
 20
541.1091277418467
 30
0.0
 11
606.0503284176675
 21
637.717590307245
 31
0.0
 70
   163
  3
ISO-25
100
AcDbDiametricDimension
 15
598.8908722581534
 25
618.8908722581533
 35
0.0
 40
0.0
1001
ACAD
1000
DSTYLE
1002
{
1070
   270
1070
     2
1070
     6
1000
EX_NORM
1070
     7
1000
EX_NORM
1070
    41
1040
9.0
1070
    73
1070
     0
1070
    74
1070
     0
1070
    77
1070
     1
1070
    78
1070
     8
1070
   140
1040
10.38871247113164
1070
   147
1040
0.0
1070
   173
1070
     1
1070
   176
1070
     2
1070
   177
1070
     2
1070
   178
1070
     2
1070
   271
1070
     2
1070
   277
1070
     2
1070
   279
1070
     2
1070
   280
1070
     1
1070
   287
1070
     5
1070
   340
1005
128
1002
}
  0
LINE
  5
356
330
1F
100
AcDbEntity
  8
Ｓ_１_１
  6
CONTINUOUS
 62
     3
100
AcDbLine
 10
679.999998
 20
215.499997
 30
0.0
 11
440.0000020000001
 21
215.499997
 31
0.0
  0
LINE
  5
357
330
1F
100
AcDbEntity
  8
Ｓ_１_１
  6
CONTINUOUS
 62
     3
100
AcDbLine
 10
439.999999
 20
215.5000039999999
 30
0.0
 11
442.0000120000001
 21
213.499992
 31
0.0
  0
LINE
  5
358
330
1F
100
AcDbEntity
  8
Ｓ_１_１
  6
CONTINUOUS
 62
     3
100
AcDbLine
 10
677.999991
 20
213.499999
 30
0.0
 11
441.999971
 21
213.499999
 31
0.0
  0
LINE
  5
359
330
1F
100
AcDbEntity
  8
Ｓ_１_１
  6
EXLTYPE0
 62
     2
100
AcDbLine
 10
679.999998
 20
255.499996
 30
0.0
 11
679.999998
 21
265.499996
 31
0.0
  0
LINE
  5
35A
330
1F
100
AcDbEntity
  8
Ｓ_１_１
  6
CONTINUOUS
 62
     3
100
AcDbLine
 10
679.999998
 20
215.499997
 30
0.0
 11
679.999998
 21
255.499996
 31
0.0
  0
LINE
  5
35B
330
1F
100
AcDbEntity
  8
Ｓ_１_１
  6
CONTINUOUS
 62
     3
100
AcDbLine
 10
678.0000120000001
 20
213.499988
 30
0.0
 11
680.0000110000001
 21
215.499988
 31
0.0
  0
TEXT
  5
35C
330
1F
100
AcDbEntity
  8
Ｓ_１_１
  6
CONTINUOUS
 62
     4
100
AcDbText
 10
260.0000000000001
 20
348.1984425000002
 30
0.0
 40
10.38871247113164
  1
ユニバーサルヘッド
 41
0.9992307692307688
  7
EXCADTTF1
 72
     5
 11
381.5000000000001
 21
348.1984425000002
 31
0.0
100
AcDbText
  0
LEADER
  5
35D
330
1F
100
AcDbEntity
  8
Ｓ_１_１
  6
CONTINUOUS
 62
     2
100
AcDbLeader
  3
ISO-25
 76
     3
 10
413.8165045857542
 20
290.499977
 30
0.0
 10
382.5000380000003
 20
344.8000050000002
 30
0.0
 10
260.0000000000001
 20
344.8000050000002
 30
0.0
1001
ACAD
1000
DSTYLE
1002
{
1070
     5
1000
EX_NORM
1070
    41
1040
9.0
1070
   341
1005
78
1002
}
  0
TEXT
  5
35E
330
1F
100
AcDbEntity
  8
Ｓ_１_１
  6
CONTINUOUS
 62
     4
100
AcDbText
 10
299.9
 20
328.1984425000002
 30
0.0
 40
10.38871247113164
  1
可動ヘッド
 41
0.9992307692307689
  7
EXCADTTF1
 72
     5
 11
367.4
 21
328.1984425000002
 31
0.0
100
AcDbText
  0
LEADER
  5
35F
330
1F
100
AcDbEntity
  8
Ｓ_１_１
  6
CONTINUOUS
 62
     2
100
AcDbLeader
  3
ISO-25
 76
     3
 10
413.5211660673124
 20
274.0170478652578
 30
0.0
 10
382.500038
 20
324.8000050000002
 30
0.0
 10
299.9
 20
324.8000050000002
 30
0.0
1001
ACAD
1000
DSTYLE
1002
{
1070
     5
1000
EX_NORM
1070
    41
1040
9.0
1070
   341
1005
78
1002
}
  0
LINE
  5
360
330
1F
100
AcDbEntity
  8
Ｓ_１_１
  6
CONTINUOUS
 62
     3
100
AcDbLine
 10
440.0000020000001
 20
215.499997
 30
0.0
 11
440.0000020000001
 21
265.4999959999999
 31
0.0
  0
TEXT
  5
361
330
1F
100
AcDbEntity
  8
Ｓ_１_１
  6
CONTINUOUS
 62
     4
100
AcDbText
 10
732.2499999999998
 20
344.1484425
 30
0.0
 40
10.38871247113164
  1
6-M12ネジ深20
 41
0.999230769230769
  7
EXCADTTF1
 72
     5
 11
819.9999999999998
 21
344.1484425
 31
0.0
100
AcDbText
  0
LEADER
  5
362
330
1F
100
AcDbEntity
  8
Ｓ_１_１
  6
CONTINUOUS
 62
     2
100
AcDbLeader
  3
ISO-25
 76
     3
 10
661.8466391580599
 20
233.45370050581
 30
0.0
 10
719.9999999999999
 20
340.000005
 30
0.0
 10
820.1
 20
340.000005
 30
0.0
1001
ACAD
1000
DSTYLE
1002
{
1070
     5
1000
EX_NORM
1070
    41
1040
9.0
1070
   341
1005
78
1002
}
  0
DIMENSION
  5
363
330
1F
100
AcDbEntity
  8
Ｓ_１_１
  6
CONTINUOUS
 62
     2
100
AcDbDimension
  2
*D21
 10
679.999998
 20
340.0
 30
0.0
 11
560.0
 21
348.25
 31
0.0
 70
   160
  1
%%c240
  3
ISO-25
100
AcDbAlignedDimension
 13
440.000002
 23
265.499996
 33
0.0
 14
679.999998
 24
265.499996
 34
0.0
100
AcDbRotatedDimension
1001
ACAD
1000
DSTYLE
1002
{
1070
   270
1070
     2
1070
     6
1000
EX_NORM
1070
     7
1000
EX_NORM
1070
    41
1040
9.0
1070
    42
1040
4.5
1070
    44
1040
3.0
1070
    73
1070
     0
1070
    74
1070
     0
1070
    75
1070
     0
1070
    76
1070
     0
1070
    77
1070
     1
1070
    78
1070
     8
1070
   140
1040
10.38871247113164
1070
   147
1040
0.0
1070
   173
1070
     1
1070
   176
1070
     2
1070
   177
1070
     2
1070
   178
1070
     2
1070
   271
1070
     2
1070
   277
1070
     2
1070
   279
1070
     2
1070
   280
1070
     0
1070
   287
1070
     5
1070
   340
1005
128
1002
}
  0
LINE
  5
370
330
1F
100
AcDbEntity
  8
Ｓ_１_１
  6
EXLTYPE2
 62
     1
100
AcDbLine
 10
560.0000000000001
 20
300.0
 30
0.0
 11
560.0000000000001
 21
160.218747
 31
0.0
  0
LINE
  5
371
330
1F
100
AcDbEntity
  8
Ｓ_１_１
  6
EXLTYPE0
 62
     2
100
AcDbLine
 10
679.9999600000001
 20
255.4999529999999
 30
0.0
 11
679.9999600000001
 21
265.4999719999998
 31
0.0
  0
LINE
  5
372
330
1F
100
AcDbEntity
  8
Ｓ_１_１
  6
CONTINUOUS
 62
     3
100
AcDbLine
 10
555.9482579999999
 20
264.4999489999999
 30
0.0
 11
439.9999640000001
 21
264.4999489999999
 31
0.0
  0
LINE
  5
373
330
1F
100
AcDbEntity
  8
Ｓ_１_１
  6
CONTINUOUS
 62
     3
100
AcDbLine
 10
439.9999740000001
 20
264.4999889999999
 30
0.0
 11
440.9999809999999
 21
265.4999959999999
 31
0.0
  0
LINE
  5
374
330
1F
100
AcDbEntity
  8
Ｓ_１_１
  6
CONTINUOUS
 62
     3
100
AcDbLine
 10
690.0000360000001
 20
290.501217
 30
0.0
 11
690.0000360000001
 21
255.789971
 31
0.0
  0
LINE
  5
375
330
1F
100
AcDbEntity
  8
Ｓ_１_１
  6
CONTINUOUS
 62
     3
100
AcDbLine
 10
720.0000360000001
 20
290.501217
 30
0.0
 11
720.0000360000001
 21
271.7841
 31
0.0
  0
LINE
  5
376
330
1F
100
AcDbEntity
  8
Ｓ_１_１
  6
EXLTYPE0
 62
     2
100
AcDbLine
 10
709.9999600000001
 20
265.4999959999999
 30
0.0
 11
409.9999640000001
 21
265.4999959999999
 31
0.0
  0
LINE
  5
377
330
1F
100
AcDbEntity
  8
Ｓ_１_１
  6
CONTINUOUS
 62
     3
100
AcDbLine
 10
555.482941
 20
265.4999769999999
 30
0.0
 11
409.9999640000001
 21
265.4999769999999
 31
0.0
  0
LINE
  5
378
330
1F
100
AcDbEntity
  8
Ｓ_１_１
  6
CONTINUOUS
 62
     3
100
AcDbLine
 10
399.999964
 20
256.4999770000001
 30
0.0
 11
400.9999640000001
 21
255.499977
 31
0.0
  0
LINE
  5
379
330
1F
100
AcDbEntity
  8
Ｓ_１_１
  6
CONTINUOUS
 62
     3
100
AcDbLine
 10
409.9999640000001
 20
256.4999770000001
 30
0.0
 11
408.999964
 21
255.499977
 31
0.0
  0
LINE
  5
37A
330
1F
100
AcDbEntity
  8
Ｓ_１_１
  6
CONTINUOUS
 62
     3
100
AcDbLine
 10
409.9999640000001
 20
256.4999770000001
 30
0.0
 11
409.9999640000001
 21
265.4999959999999
 31
0.0
  0
LINE
  5
37B
330
1F
100
AcDbEntity
  8
Ｓ_１_１
  6
CONTINUOUS
 62
     3
100
AcDbLine
 10
720.0000360000001
 20
256.4999770000001
 30
0.0
 11
719.0000360000001
 21
255.499977
 31
0.0
  0
LINE
  5
37C
330
1F
100
AcDbEntity
  8
Ｓ_１_１
  6
EXLTYPE0
 62
     2
100
AcDbLine
 10
710.0000360000001
 20
256.4999770000001
 30
0.0
 11
711.0000360000001
 21
255.499977
 31
0.0
  0
LINE
  5
37D
330
1F
100
AcDbEntity
  8
Ｓ_１_１
  6
EXLTYPE0
 62
     2
100
AcDbLine
 10
710.0000360000001
 20
256.4999770000001
 30
0.0
 11
710.0000360000001
 21
265.4999769999999
 31
0.0
  0
LINE
  5
37E
330
1F
100
AcDbEntity
  8
Ｓ_１_１
  6
CONTINUOUS
 62
     3
100
AcDbLine
 10
439.9999640000001
 20
255.499977
 30
0.0
 11
400.9999640000001
 21
255.499977
 31
0.0
  0
LINE
  5
37F
330
1F
100
AcDbEntity
  8
Ｓ_１_１
  6
CONTINUOUS
 62
     3
100
AcDbLine
 10
720.000036
 20
256.4999770000001
 30
0.0
 11
720.0000360000003
 21
271.7828647270265
 31
0.0
  0
LINE
  5
380
330
1F
100
AcDbEntity
  8
Ｓ_１_１
  6
CONTINUOUS
 62
     3
100
AcDbLine
 10
720.0000360000001
 20
290.4999769999999
 30
0.0
 11
399.999964
 21
290.4999769999999
 31
0.0
  0
POLYLINE
  5
381
330
1F
100
AcDbEntity
  8
Ｓ_１_１
  6
CONTINUOUS
 62
     3
100
AcDb2dPolyline
 66
     1
 10
0.0
 20
0.0
 30
0.0
 70
   128
  0
VERTEX
  5
382
330
381
100
AcDbEntity
  8
Ｓ_１_１
  6
CONTINUOUS
 62
     3
100
AcDbVertex
100
AcDb2dVertex
 10
563.5083611874788
 20
255.4999769999999
 30
0.0
  0
VERTEX
  5
383
330
381
100
AcDbEntity
  8
Ｓ_１_１
  6
CONTINUOUS
 62
     3
100
AcDbVertex
100
AcDb2dVertex
 10
562.538148
 20
256.25917
 30
0.0
  0
VERTEX
  5
384
330
381
100
AcDbEntity
  8
Ｓ_１_１
  6
CONTINUOUS
 62
     3
100
AcDbVertex
100
AcDb2dVertex
 10
562.0453299999999
 20
256.664953
 30
0.0
  0
VERTEX
  5
385
330
381
100
AcDbEntity
  8
Ｓ_１_１
  6
CONTINUOUS
 62
     3
100
AcDbVertex
100
AcDb2dVertex
 10
561.561563
 20
257.08394
 30
0.0
  0
VERTEX
  5
386
330
381
100
AcDbEntity
  8
Ｓ_１_１
  6
CONTINUOUS
 62
     3
100
AcDbVertex
100
AcDb2dVertex
 10
561.0875029999999
 20
257.515755
 30
0.0
  0
VERTEX
  5
387
330
381
100
AcDbEntity
  8
Ｓ_１_１
  6
CONTINUOUS
 62
     3
100
AcDbVertex
100
AcDb2dVertex
 10
560.6238060000001
 20
257.960018
 30
0.0
  0
VERTEX
  5
388
330
381
100
AcDbEntity
  8
Ｓ_１_１
  6
CONTINUOUS
 62
     3
100
AcDbVertex
100
AcDb2dVertex
 10
560.1711310000001
 20
258.416352
 30
0.0
  0
VERTEX
  5
389
330
381
100
AcDbEntity
  8
Ｓ_１_１
  6
CONTINUOUS
 62
     3
100
AcDbVertex
100
AcDb2dVertex
 10
559.7301329999999
 20
258.884379
 30
0.0
  0
VERTEX
  5
38A
330
381
100
AcDbEntity
  8
Ｓ_１_１
  6
CONTINUOUS
 62
     3
100
AcDbVertex
100
AcDb2dVertex
 10
559.30147
 20
259.3637220000001
 30
0.0
  0
VERTEX
  5
38B
330
381
100
AcDbEntity
  8
Ｓ_１_１
  6
CONTINUOUS
 62
     3
100
AcDbVertex
100
AcDb2dVertex
 10
558.8857969999999
 20
259.854001
 30
0.0
  0
VERTEX
  5
38C
330
381
100
AcDbEntity
  8
Ｓ_１_１
  6
CONTINUOUS
 62
     3
100
AcDbVertex
100
AcDb2dVertex
 10
558.483772
 20
260.35484
 30
0.0
  0
VERTEX
  5
38D
330
381
100
AcDbEntity
  8
Ｓ_１_１
  6
CONTINUOUS
 62
     3
100
AcDbVertex
100
AcDb2dVertex
 10
558.096051
 20
260.86586
 30
0.0
  0
VERTEX
  5
38E
330
381
100
AcDbEntity
  8
Ｓ_１_１
  6
CONTINUOUS
 62
     3
100
AcDbVertex
100
AcDb2dVertex
 10
557.723291
 20
261.3866829999999
 30
0.0
  0
VERTEX
  5
38F
330
381
100
AcDbEntity
  8
Ｓ_１_１
  6
CONTINUOUS
 62
     3
100
AcDbVertex
100
AcDb2dVertex
 10
557.366149
 20
261.916932
 30
0.0
  0
VERTEX
  5
390
330
381
100
AcDbEntity
  8
Ｓ_１_１
  6
CONTINUOUS
 62
     3
100
AcDbVertex
100
AcDb2dVertex
 10
557.025281
 20
262.456229
 30
0.0
  0
VERTEX
  5
391
330
381
100
AcDbEntity
  8
Ｓ_１_１
  6
CONTINUOUS
 62
     3
100
AcDbVertex
100
AcDb2dVertex
 10
556.701345
 20
263.004194
 30
0.0
  0
VERTEX
  5
392
330
381
100
AcDbEntity
  8
Ｓ_１_１
  6
CONTINUOUS
 62
     3
100
AcDbVertex
100
AcDb2dVertex
 10
556.3949970000001
 20
263.5604520000001
 30
0.0
  0
VERTEX
  5
393
330
381
100
AcDbEntity
  8
Ｓ_１_１
  6
CONTINUOUS
 62
     3
100
AcDbVertex
100
AcDb2dVertex
 10
556.2233349999999
 20
263.891169
 30
0.0
  0
VERTEX
  5
394
330
381
100
AcDbEntity
  8
Ｓ_１_１
  6
CONTINUOUS
 62
     3
100
AcDbVertex
100
AcDb2dVertex
 10
556.0578190000001
 20
264.224585
 30
0.0
  0
VERTEX
  5
395
330
381
100
AcDbEntity
  8
Ｓ_１_１
  6
CONTINUOUS
 62
     3
100
AcDbVertex
100
AcDb2dVertex
 10
555.898289
 20
264.560665
 30
0.0
  0
VERTEX
  5
396
330
381
100
AcDbEntity
  8
Ｓ_１_１
  6
CONTINUOUS
 62
     3
100
AcDbVertex
100
AcDb2dVertex
 10
555.7445849999999
 20
264.899371
 30
0.0
  0
VERTEX
  5
397
330
381
100
AcDbEntity
  8
Ｓ_１_１
  6
CONTINUOUS
 62
     3
100
AcDbVertex
100
AcDb2dVertex
 10
555.59655
 20
265.240668
 30
0.0
  0
VERTEX
  5
398
330
381
100
AcDbEntity
  8
Ｓ_１_１
  6
CONTINUOUS
 62
     3
100
AcDbVertex
100
AcDb2dVertex
 10
555.4540239999999
 20
265.58452
 30
0.0
  0
VERTEX
  5
399
330
381
100
AcDbEntity
  8
Ｓ_１_１
  6
CONTINUOUS
 62
     3
100
AcDbVertex
100
AcDb2dVertex
 10
555.316847
 20
265.930892
 30
0.0
  0
VERTEX
  5
39A
330
381
100
AcDbEntity
  8
Ｓ_１_１
  6
CONTINUOUS
 62
     3
100
AcDbVertex
100
AcDb2dVertex
 10
555.1848620000001
 20
266.279748
 30
0.0
  0
VERTEX
  5
39B
330
381
100
AcDbEntity
  8
Ｓ_１_１
  6
CONTINUOUS
 62
     3
100
AcDbVertex
100
AcDb2dVertex
 10
555.057908
 20
266.631051
 30
0.0
  0
VERTEX
  5
39C
330
381
100
AcDbEntity
  8
Ｓ_１_１
  6
CONTINUOUS
 62
     3
100
AcDbVertex
100
AcDb2dVertex
 10
554.935827
 20
266.984766
 30
0.0
  0
VERTEX
  5
39D
330
381
100
AcDbEntity
  8
Ｓ_１_１
  6
CONTINUOUS
 62
     3
100
AcDbVertex
100
AcDb2dVertex
 10
554.8184590000001
 20
267.340857
 30
0.0
  0
VERTEX
  5
39E
330
381
100
AcDbEntity
  8
Ｓ_１_１
  6
CONTINUOUS
 62
     3
100
AcDbVertex
100
AcDb2dVertex
 10
554.705647
 20
267.699289
 30
0.0
  0
VERTEX
  5
39F
330
381
100
AcDbEntity
  8
Ｓ_１_１
  6
CONTINUOUS
 62
     3
100
AcDbVertex
100
AcDb2dVertex
 10
554.597229
 20
268.060024
 30
0.0
  0
VERTEX
  5
3A0
330
381
100
AcDbEntity
  8
Ｓ_１_１
  6
CONTINUOUS
 62
     3
100
AcDbVertex
100
AcDb2dVertex
 10
554.4930489999999
 20
268.423028
 30
0.0
  0
VERTEX
  5
3A1
330
381
100
AcDbEntity
  8
Ｓ_１_１
  6
CONTINUOUS
 62
     3
100
AcDbVertex
100
AcDb2dVertex
 10
554.392945
 20
268.788264
 30
0.0
  0
VERTEX
  5
3A2
330
381
100
AcDbEntity
  8
Ｓ_１_１
  6
CONTINUOUS
 62
     3
100
AcDbVertex
100
AcDb2dVertex
 10
554.2967610000001
 20
269.155697
 30
0.0
  0
VERTEX
  5
3A3
330
381
100
AcDbEntity
  8
Ｓ_１_１
  6
CONTINUOUS
 62
     3
100
AcDbVertex
100
AcDb2dVertex
 10
554.1444710000001
 20
269.772191
 30
0.0
  0
VERTEX
  5
3A4
330
381
100
AcDbEntity
  8
Ｓ_１_１
  6
CONTINUOUS
 62
     3
100
AcDbVertex
100
AcDb2dVertex
 10
553.9997229999999
 20
270.392999
 30
0.0
  0
VERTEX
  5
3A5
330
381
100
AcDbEntity
  8
Ｓ_１_１
  6
CONTINUOUS
 62
     3
100
AcDbVertex
100
AcDb2dVertex
 10
553.8596319999999
 20
271.016444
 30
0.0
  0
VERTEX
  5
3A6
330
381
100
AcDbEntity
  8
Ｓ_１_１
  6
CONTINUOUS
 62
     3
100
AcDbVertex
100
AcDb2dVertex
 10
553.721313
 20
271.640848
 30
0.0
  0
VERTEX
  5
3A7
330
381
100
AcDbEntity
  8
Ｓ_１_１
  6
CONTINUOUS
 62
     3
100
AcDbVertex
100
AcDb2dVertex
 10
553.58188
 20
272.264533
 30
0.0
  0
VERTEX
  5
3A8
330
381
100
AcDbEntity
  8
Ｓ_１_１
  6
CONTINUOUS
 62
     3
100
AcDbVertex
100
AcDb2dVertex
 10
553.4384480000001
 20
272.88582
 30
0.0
  0
VERTEX
  5
3A9
330
381
100
AcDbEntity
  8
Ｓ_１_１
  6
CONTINUOUS
 62
     3
100
AcDbVertex
100
AcDb2dVertex
 10
553.288133
 20
273.503032
 30
0.0
  0
VERTEX
  5
3AA
330
381
100
AcDbEntity
  8
Ｓ_１_１
  6
CONTINUOUS
 62
     3
100
AcDbVertex
100
AcDb2dVertex
 10
553.128048
 20
274.114491
 30
0.0
  0
VERTEX
  5
3AB
330
381
100
AcDbEntity
  8
Ｓ_１_１
  6
CONTINUOUS
 62
     3
100
AcDbVertex
100
AcDb2dVertex
 10
552.9553089999999
 20
274.718518
 30
0.0
  0
VERTEX
  5
3AC
330
381
100
AcDbEntity
  8
Ｓ_１_１
  6
CONTINUOUS
 62
     3
100
AcDbVertex
100
AcDb2dVertex
 10
552.76703
 20
275.313435
 30
0.0
  0
VERTEX
  5
3AD
330
381
100
AcDbEntity
  8
Ｓ_１_１
  6
CONTINUOUS
 62
     3
100
AcDbVertex
100
AcDb2dVertex
 10
552.5603249999999
 20
275.897565
 30
0.0
  0
VERTEX
  5
3AE
330
381
100
AcDbEntity
  8
Ｓ_１_１
  6
CONTINUOUS
 62
     3
100
AcDbVertex
100
AcDb2dVertex
 10
552.3323109999999
 20
276.469228
 30
0.0
  0
VERTEX
  5
3AF
330
381
100
AcDbEntity
  8
Ｓ_１_１
  6
CONTINUOUS
 62
     3
100
AcDbVertex
100
AcDb2dVertex
 10
552.080101
 20
277.026748
 30
0.0
  0
VERTEX
  5
3B0
330
381
100
AcDbEntity
  8
Ｓ_１_１
  6
CONTINUOUS
 62
     3
100
AcDbVertex
100
AcDb2dVertex
 10
551.80081
 20
277.568446
 30
0.0
  0
VERTEX
  5
3B1
330
381
100
AcDbEntity
  8
Ｓ_１_１
  6
CONTINUOUS
 62
     3
100
AcDbVertex
100
AcDb2dVertex
 10
551.4915530000001
 20
278.092644
 30
0.0
  0
VERTEX
  5
3B2
330
381
100
AcDbEntity
  8
Ｓ_１_１
  6
CONTINUOUS
 62
     3
100
AcDbVertex
100
AcDb2dVertex
 10
551.149445
 20
278.597664
 30
0.0
  0
VERTEX
  5
3B3
330
381
100
AcDbEntity
  8
Ｓ_１_１
  6
CONTINUOUS
 62
     3
100
AcDbVertex
100
AcDb2dVertex
 10
550.8660379999999
 20
278.967731
 30
0.0
  0
VERTEX
  5
3B4
330
381
100
AcDbEntity
  8
Ｓ_１_１
  6
CONTINUOUS
 62
     3
100
AcDbVertex
100
AcDb2dVertex
 10
550.5630389999999
 20
279.325339
 30
0.0
  0
VERTEX
  5
3B5
330
381
100
AcDbEntity
  8
Ｓ_１_１
  6
CONTINUOUS
 62
     3
100
AcDbVertex
100
AcDb2dVertex
 10
550.2415040000001
 20
279.670077
 30
0.0
  0
VERTEX
  5
3B6
330
381
100
AcDbEntity
  8
Ｓ_１_１
  6
CONTINUOUS
 62
     3
100
AcDbVertex
100
AcDb2dVertex
 10
549.902486
 20
280.001536
 30
0.0
  0
VERTEX
  5
3B7
330
381
100
AcDbEntity
  8
Ｓ_１_１
  6
CONTINUOUS
 62
     3
100
AcDbVertex
100
AcDb2dVertex
 10
549.547043
 20
280.319306
 30
0.0
  0
VERTEX
  5
3B8
330
381
100
AcDbEntity
  8
Ｓ_１_１
  6
CONTINUOUS
 62
     3
100
AcDbVertex
100
AcDb2dVertex
 10
549.176228
 20
280.622977
 30
0.0
  0
VERTEX
  5
3B9
330
381
100
AcDbEntity
  8
Ｓ_１_１
  6
CONTINUOUS
 62
     3
100
AcDbVertex
100
AcDb2dVertex
 10
548.791097
 20
280.91214
 30
0.0
  0
VERTEX
  5
3BA
330
381
100
AcDbEntity
  8
Ｓ_１_１
  6
CONTINUOUS
 62
     3
100
AcDbVertex
100
AcDb2dVertex
 10
548.392705
 20
281.186384
 30
0.0
  0
VERTEX
  5
3BB
330
381
100
AcDbEntity
  8
Ｓ_１_１
  6
CONTINUOUS
 62
     3
100
AcDbVertex
100
AcDb2dVertex
 10
547.9821079999999
 20
281.445301
 30
0.0
  0
VERTEX
  5
3BC
330
381
100
AcDbEntity
  8
Ｓ_１_１
  6
CONTINUOUS
 62
     3
100
AcDbVertex
100
AcDb2dVertex
 10
547.5603610000001
 20
281.68848
 30
0.0
  0
VERTEX
  5
3BD
330
381
100
AcDbEntity
  8
Ｓ_１_１
  6
CONTINUOUS
 62
     3
100
AcDbVertex
100
AcDb2dVertex
 10
547.128518
 20
281.915512
 30
0.0
  0
VERTEX
  5
3BE
330
381
100
AcDbEntity
  8
Ｓ_１_１
  6
CONTINUOUS
 62
     3
100
AcDbVertex
100
AcDb2dVertex
 10
546.6876360000001
 20
282.125986
 30
0.0
  0
VERTEX
  5
3BF
330
381
100
AcDbEntity
  8
Ｓ_１_１
  6
CONTINUOUS
 62
     3
100
AcDbVertex
100
AcDb2dVertex
 10
546.238769
 20
282.319494
 30
0.0
  0
VERTEX
  5
3C0
330
381
100
AcDbEntity
  8
Ｓ_１_１
  6
CONTINUOUS
 62
     3
100
AcDbVertex
100
AcDb2dVertex
 10
545.7829730000001
 20
282.495625
 30
0.0
  0
VERTEX
  5
3C1
330
381
100
AcDbEntity
  8
Ｓ_１_１
  6
CONTINUOUS
 62
     3
100
AcDbVertex
100
AcDb2dVertex
 10
545.3213020000001
 20
282.653969
 30
0.0
  0
VERTEX
  5
3C2
330
381
100
AcDbEntity
  8
Ｓ_１_１
  6
CONTINUOUS
 62
     3
100
AcDbVertex
100
AcDb2dVertex
 10
544.8548129999999
 20
282.794117
 30
0.0
  0
VERTEX
  5
3C3
330
381
100
AcDbEntity
  8
Ｓ_１_１
  6
CONTINUOUS
 62
     3
100
AcDbVertex
100
AcDb2dVertex
 10
543.997382
 20
283.002744
 30
0.0
  0
VERTEX
  5
3C4
330
381
100
AcDbEntity
  8
Ｓ_１_１
  6
CONTINUOUS
 62
     3
100
AcDbVertex
100
AcDb2dVertex
 10
543.129831
 20
283.158417
 30
0.0
  0
VERTEX
  5
3C5
330
381
100
AcDbEntity
  8
Ｓ_１_１
  6
CONTINUOUS
 62
     3
100
AcDbVertex
100
AcDb2dVertex
 10
542.2544720000001
 20
283.269646
 30
0.0
  0
VERTEX
  5
3C6
330
381
100
AcDbEntity
  8
Ｓ_１_１
  6
CONTINUOUS
 62
     3
100
AcDbVertex
100
AcDb2dVertex
 10
541.373617
 20
283.344939
 30
0.0
  0
VERTEX
  5
3C7
330
381
100
AcDbEntity
  8
Ｓ_１_１
  6
CONTINUOUS
 62
     3
100
AcDbVertex
100
AcDb2dVertex
 10
540.489579
 20
283.392805
 30
0.0
  0
VERTEX
  5
3C8
330
381
100
AcDbEntity
  8
Ｓ_１_１
  6
CONTINUOUS
 62
     3
100
AcDbVertex
100
AcDb2dVertex
 10
539.604671
 20
283.421752
 30
0.0
  0
VERTEX
  5
3C9
330
381
100
AcDbEntity
  8
Ｓ_１_１
  6
CONTINUOUS
 62
     3
100
AcDbVertex
100
AcDb2dVertex
 10
538.7212030000001
 20
283.44029
 30
0.0
  0
VERTEX
  5
3CA
330
381
100
AcDbEntity
  8
Ｓ_１_１
  6
CONTINUOUS
 62
     3
100
AcDbVertex
100
AcDb2dVertex
 10
537.84149
 20
283.456926
 30
0.0
  0
VERTEX
  5
3CB
330
381
100
AcDbEntity
  8
Ｓ_１_１
  6
CONTINUOUS
 62
     3
100
AcDbVertex
100
AcDb2dVertex
 10
536.967842
 20
283.48017
 30
0.0
  0
VERTEX
  5
3CC
330
381
100
AcDbEntity
  8
Ｓ_１_１
  6
CONTINUOUS
 62
     3
100
AcDbVertex
100
AcDb2dVertex
 10
536.1025729999999
 20
283.5185299999999
 30
0.0
  0
VERTEX
  5
3CD
330
381
100
AcDbEntity
  8
Ｓ_１_１
  6
CONTINUOUS
 62
     3
100
AcDbVertex
100
AcDb2dVertex
 10
535.247995
 20
283.580516
 30
0.0
  0
VERTEX
  5
3CE
330
381
100
AcDbEntity
  8
Ｓ_１_１
  6
CONTINUOUS
 62
     3
100
AcDbVertex
100
AcDb2dVertex
 10
534.4064189999999
 20
283.674635
 30
0.0
  0
VERTEX
  5
3CF
330
381
100
AcDbEntity
  8
Ｓ_１_１
  6
CONTINUOUS
 62
     3
100
AcDbVertex
100
AcDb2dVertex
 10
533.5801590000001
 20
283.809396
 30
0.0
  0
VERTEX
  5
3D0
330
381
100
AcDbEntity
  8
Ｓ_１_１
  6
CONTINUOUS
 62
     3
100
AcDbVertex
100
AcDb2dVertex
 10
532.771526
 20
283.993309
 30
0.0
  0
VERTEX
  5
3D1
330
381
100
AcDbEntity
  8
Ｓ_１_１
  6
CONTINUOUS
 62
     3
100
AcDbVertex
100
AcDb2dVertex
 10
531.9828329999999
 20
284.234881
 30
0.0
  0
VERTEX
  5
3D2
330
381
100
AcDbEntity
  8
Ｓ_１_１
  6
CONTINUOUS
 62
     3
100
AcDbVertex
100
AcDb2dVertex
 10
531.2163929999999
 20
284.5426220000001
 30
0.0
  0
VERTEX
  5
3D3
330
381
100
AcDbEntity
  8
Ｓ_１_１
  6
CONTINUOUS
 62
     3
100
AcDbVertex
100
AcDb2dVertex
 10
530.7479089999999
 20
284.7725809999999
 30
0.0
  0
VERTEX
  5
3D4
330
381
100
AcDbEntity
  8
Ｓ_１_１
  6
CONTINUOUS
 62
     3
100
AcDbVertex
100
AcDb2dVertex
 10
530.2891790000001
 20
285.030033
 30
0.0
  0
VERTEX
  5
3D5
330
381
100
AcDbEntity
  8
Ｓ_１_１
  6
CONTINUOUS
 62
     3
100
AcDbVertex
100
AcDb2dVertex
 10
529.8402900000001
 20
285.313085
 30
0.0
  0
VERTEX
  5
3D6
330
381
100
AcDbEntity
  8
Ｓ_１_１
  6
CONTINUOUS
 62
     3
100
AcDbVertex
100
AcDb2dVertex
 10
529.4013319999999
 20
285.6198419999999
 30
0.0
  0
VERTEX
  5
3D7
330
381
100
AcDbEntity
  8
Ｓ_１_１
  6
CONTINUOUS
 62
     3
100
AcDbVertex
100
AcDb2dVertex
 10
528.972391
 20
285.948411
 30
0.0
  0
VERTEX
  5
3D8
330
381
100
AcDbEntity
  8
Ｓ_１_１
  6
CONTINUOUS
 62
     3
100
AcDbVertex
100
AcDb2dVertex
 10
528.553555
 20
286.2968990000001
 30
0.0
  0
VERTEX
  5
3D9
330
381
100
AcDbEntity
  8
Ｓ_１_１
  6
CONTINUOUS
 62
     3
100
AcDbVertex
100
AcDb2dVertex
 10
528.144914
 20
286.663411
 30
0.0
  0
VERTEX
  5
3DA
330
381
100
AcDbEntity
  8
Ｓ_１_１
  6
CONTINUOUS
 62
     3
100
AcDbVertex
100
AcDb2dVertex
 10
527.7465540000001
 20
287.046053
 30
0.0
  0
VERTEX
  5
3DB
330
381
100
AcDbEntity
  8
Ｓ_１_１
  6
CONTINUOUS
 62
     3
100
AcDbVertex
100
AcDb2dVertex
 10
527.3585640000001
 20
287.442933
 30
0.0
  0
VERTEX
  5
3DC
330
381
100
AcDbEntity
  8
Ｓ_１_１
  6
CONTINUOUS
 62
     3
100
AcDbVertex
100
AcDb2dVertex
 10
526.981031
 20
287.852156
 30
0.0
  0
VERTEX
  5
3DD
330
381
100
AcDbEntity
  8
Ｓ_１_１
  6
CONTINUOUS
 62
     3
100
AcDbVertex
100
AcDb2dVertex
 10
526.6140439999999
 20
288.271829
 30
0.0
  0
VERTEX
  5
3DE
330
381
100
AcDbEntity
  8
Ｓ_１_１
  6
CONTINUOUS
 62
     3
100
AcDbVertex
100
AcDb2dVertex
 10
526.2576899999999
 20
288.700058
 30
0.0
  0
VERTEX
  5
3DF
330
381
100
AcDbEntity
  8
Ｓ_１_１
  6
CONTINUOUS
 62
     3
100
AcDbVertex
100
AcDb2dVertex
 10
525.9120580000001
 20
289.134949
 30
0.0
  0
VERTEX
  5
3E0
330
381
100
AcDbEntity
  8
Ｓ_１_１
  6
CONTINUOUS
 62
     3
100
AcDbVertex
100
AcDb2dVertex
 10
525.577235
 20
289.574609
 30
0.0
  0
VERTEX
  5
3E1
330
381
100
AcDbEntity
  8
Ｓ_１_１
  6
CONTINUOUS
 62
     3
100
AcDbVertex
100
AcDb2dVertex
 10
525.253309
 20
290.017144
 30
0.0
  0
VERTEX
  5
3E2
330
381
100
AcDbEntity
  8
Ｓ_１_１
  6
CONTINUOUS
 62
     3
100
AcDbVertex
100
AcDb2dVertex
 10
524.9126273582553
 20
290.4999769999999
 30
0.0
  0
SEQEND
  5
3E3
330
381
100
AcDbEntity
  8
Ｓ_１_１
  6
CONTINUOUS
 62
     3
  0
LINE
  5
3E4
330
1F
100
AcDbEntity
  8
Ｓ_１_１
  6
CONTINUOUS
 62
     3
100
AcDbLine
 10
563.5083611874788
 20
255.4999769999999
 30
0.0
 11
719.0000360000001
 21
255.499977
 31
0.0
  0
LINE
  5
3E5
330
1F
100
AcDbEntity
  8
Ｓ_１_１
  6
CONTINUOUS
 62
     3
100
AcDbLine
 10
399.999964
 20
290.501217
 30
0.0
 11
399.9999640000003
 21
271.7828647270265
 31
0.0
  0
LINE
  5
3E6
330
1F
100
AcDbEntity
  8
Ｓ_１_１
  6
CONTINUOUS
 62
     3
100
AcDbLine
 10
399.999964
 20
256.4999770000001
 30
0.0
 11
399.9999640000003
 21
271.7828647270265
 31
0.0
  0
LINE
  5
3E7
330
1F
100
AcDbEntity
  8
Ｓ_１_１
  6
CONTINUOUS
 62
     3
100
AcDbLine
 10
720.000036
 20
271.7828647270301
 30
0.0
 11
553.6895632893288
 21
271.7828647270301
 31
0.0
  0
ARC
  5
3E8
330
1F
100
AcDbEntity
  8
Ｓ_１_１
  6
EXLTYPE0
 62
     2
100
AcDbCircle
 10
560.0
 20
-654.5000090000001
 30
0.0
 40
939.999986
100
AcDbArc
 50
80.19980768068538
 51
91.792237
  0
ARC
  5
3E9
330
1F
100
AcDbEntity
  8
Ｓ_１_１
  6
CONTINUOUS
 62
     3
100
AcDbCircle
 10
560.0
 20
-654.5000090000001
 30
0.0
 40
939.999986
100
AcDbArc
 50
91.78086500000003
 51
99.80019231931456
  0
LINE
  5
3EA
330
1F
100
AcDbEntity
  8
Ｓ_１_１
  6
EXLTYPE3
 62
     2
100
AcDbLine
 10
367.1173645282286
 20
284.3416270574173
 30
0.0
 11
367.7706256016558
 21
265.6346774988957
 31
0.0
  0
ARC
  5
3EB
330
1F
100
AcDbEntity
  8
Ｓ_１_１
  6
EXLTYPE3
 62
     2
100
AcDbCircle
 10
560.0
 20
-654.5000090000001
 30
0.0
 40
939.999986
100
AcDbArc
 50
100.1839196146383
 51
101.8001923193146
  0
LINE
  5
3EC
330
1F
100
AcDbEntity
  8
Ｓ_１_１
  6
EXLTYPE3
 62
     2
100
AcDbLine
 10
425.7886282382726
 20
286.3892319773905
 30
0.0
 11
367.1174078036046
 21
284.3403878127918
 31
0.0
  0
LINE
  5
3ED
330
1F
100
AcDbEntity
  8
Ｓ_１_１
  6
EXLTYPE3
 62
     2
100
AcDbLine
 10
395.026725051299
 20
266.5864814650267
 30
0.0
 11
367.7706256016646
 21
265.6346774989019
 31
0.0
  0
LINE
  5
3EE
330
1F
100
AcDbEntity
  8
Ｓ_１_１
  6
EXLTYPE3
 62
     2
100
AcDbLine
 10
752.8826354717714
 20
284.3416270574173
 30
0.0
 11
752.2293743983442
 21
265.6346774988957
 31
0.0
  0
LINE
  5
3EF
330
1F
100
AcDbEntity
  8
Ｓ_１_１
  6
EXLTYPE3
 62
     2
100
AcDbLine
 10
694.2113717617274
 20
286.3892319773904
 30
0.0
 11
752.8825921963954
 21
284.3403878127918
 31
0.0
  0
ARC
  5
3F0
330
1F
100
AcDbEntity
  8
Ｓ_１_１
  6
EXLTYPE3
 62
     2
100
AcDbCircle
 10
559.9999999999998
 20
-654.5000090000001
 30
0.0
 40
939.999986
100
AcDbArc
 50
78.19980768068541
 51
79.81608038536163
  0
LINE
  5
3F1
330
1F
100
AcDbEntity
  8
Ｓ_１_１
  6
EXLTYPE3
 62
     2
100
AcDbLine
 10
724.9732749487009
 20
266.5864814650267
 30
0.0
 11
752.2293743983354
 21
265.6346774989019
 31
0.0
  0
DIMENSION
  5
3F2
330
1F
100
AcDbEntity
  8
Ｓ_１_１
  6
CONTINUOUS
 62
     2
100
AcDbDimension
  2
*D22
 10
319.8587636296048
 20
285.2945539087659
 30
0.0
 11
312.1228392179689
 21
306.8173273245864
 31
0.0
 70
   165
  3
ISO-25
100
AcDb3PointAngularDimension
 13
399.999964
 23
290.4999769999999
 33
0.0
 14
367.1174078036046
 24
284.340387812792
 34
0.0
 15
543.5049638871956
 25
290.4999769999999
 35
0.0
1001
ACAD
1000
DSTYLE
1002
{
1070
   270
1070
     2
1070
     6
1000
EX_NORM
1070
     7
1000
EX_NORM
1070
    41
1040
9.0
1070
    42
1040
4.5
1070
    44
1040
3.0
1070
    73
1070
     0
1070
    74
1070
     0
1070
    75
1070
     0
1070
    76
1070
     0
1070
    77
1070
     1
1070
    78
1070
     8
1070
    79
1070
     2
1070
   140
1040
10.38871247113164
1070
   147
1040
0.0
1070
   173
1070
     1
1070
   176
1070
     2
1070
   177
1070
     2
1070
   178
1070
     2
1070
   179
1070
     2
1070
   271
1070
     2
1070
   277
1070
     2
1070
   279
1070
     2
1070
   280
1070
     1
1070
   287
1070
     5
1070
   340
1005
128
1002
}
  0
LEADER
  5
402
330
1F
100
AcDbEntity
  8
Ｓ_１_１
  6
CONTINUOUS
 62
     2
100
AcDbLeader
  3
ISO-25
 76
     3
 10
440.0000019999999
 20
247.8
 30
0.0
 10
421.1500030000001
 20
231.0
 30
0.0
 10
344.150003
 20
231.0
 30
0.0
1001
ACAD
1000
DSTYLE
1002
{
1070
     5
1000
EX_NORM
1070
    41
1040
9.0
1070
   341
1005
78
1002
}
  0
TEXT
  5
403
330
1F
100
AcDbEntity
  8
Ｓ_１_１
  6
CONTINUOUS
 62
     4
100
AcDbText
 10
345.5200030000001
 20
234.3984375
 30
0.0
 40
10.38871247113164
  1
安全ナット
 41
0.9992307692307689
  7
EXCADTTF1
 72
     5
 11
413.0200030000001
 21
234.3984375
 31
0.0
100
AcDbText
  0
LINE
  5
404
330
1F
100
AcDbEntity
  8
Ｓ_１_１
  6
EXLTYPE2
 62
     1
100
AcDbLine
 10
363.8999970000002
 20
200.0
 30
0.0
 11
475.8999650000002
 21
200.0
 31
0.0
  0
ARC
  5
405
330
1F
100
AcDbEntity
  8
Ｓ_１_１
  6
CONTINUOUS
 62
     3
100
AcDbCircle
 10
446.5771500000002
 20
200.0
 30
0.0
 40
21.939437
100
AcDbArc
 50
166.826524
 51
193.173486
  0
ARC
  5
406
330
1F
100
AcDbEntity
  8
Ｓ_１_１
  6
CONTINUOUS
 62
     3
100
AcDbCircle
 10
415.1982900000002
 20
200.0
 30
0.0
 40
21.939437
100
AcDbArc
 50
346.8264750000002
 51
13.17346500000001
  0
ARC
  5
407
330
1F
100
AcDbEntity
  8
Ｓ_１_１
  6
CONTINUOUS
 62
     3
100
AcDbCircle
 10
448.2704940000002
 20
190.9067199999999
 30
0.0
 40
5.367246000000002
100
AcDbArc
 50
325.6158610000001
 51
34.38414599999999
  0
ARC
  5
408
330
1F
100
AcDbEntity
  8
Ｓ_１_１
  6
CONTINUOUS
 62
     3
100
AcDbCircle
 10
433.5755180000002
 20
200.0000099999999
 30
0.0
 40
20.062196
100
AcDbArc
 50
342.4119950000003
 51
17.58787900000001
  0
ARC
  5
409
330
1F
100
AcDbEntity
  8
Ｓ_１_１
  6
CONTINUOUS
 62
     3
100
AcDbCircle
 10
450.0049610000002
 20
190.9067199999999
 30
0.0
 40
5.367246000000002
100
AcDbArc
 50
145.615795
 51
214.3840790000001
  0
ARC
  5
40A
330
1F
100
AcDbEntity
  8
Ｓ_１_１
  6
CONTINUOUS
 62
     3
100
AcDbCircle
 10
450.0049610000002
 20
209.0932799999999
 30
0.0
 40
5.367246000000002
100
AcDbArc
 50
145.615877
 51
214.3841610000001
  0
ARC
  5
40B
330
1F
100
AcDbEntity
  8
Ｓ_１_１
  6
CONTINUOUS
 62
     3
100
AcDbCircle
 10
464.6999370000002
 20
200.0000099999999
 30
0.0
 40
20.062196
100
AcDbArc
 50
162.412063
 51
197.587947
  0
ARC
  5
40C
330
1F
100
AcDbEntity
  8
Ｓ_１_１
  6
CONTINUOUS
 62
     3
100
AcDbCircle
 10
448.2704940000002
 20
209.0932799999999
 30
0.0
 40
5.367246000000002
100
AcDbArc
 50
325.615779
 51
34.38406400000002
  0
LINE
  5
40D
330
1F
100
AcDbEntity
  8
Ｓ_１_１
  6
CONTINUOUS
 62
     3
100
AcDbLine
 10
437.1377580000001
 20
187.999988
 30
0.0
 11
437.1377580000001
 21
211.999998
 31
0.0
  0
LINE
  5
40E
330
1F
100
AcDbEntity
  8
Ｓ_１_１
  6
CONTINUOUS
 62
     3
100
AcDbLine
 10
436.5603660000002
 20
204.9999999999999
 30
0.0
 11
436.5603660000002
 21
213.000002
 31
0.0
  0
LINE
  5
40F
330
1F
100
AcDbEntity
  8
Ｓ_１_１
  6
CONTINUOUS
 62
     3
100
AcDbLine
 10
425.2150750000002
 20
204.9999999999999
 30
0.0
 11
425.2150750000002
 21
213.000002
 31
0.0
  0
LINE
  5
410
330
1F
100
AcDbEntity
  8
Ｓ_１_１
  6
CONTINUOUS
 62
     3
100
AcDbLine
 10
436.5603660000002
 20
186.999998
 30
0.0
 11
436.5603660000002
 21
195.0
 31
0.0
  0
LINE
  5
411
330
1F
100
AcDbEntity
  8
Ｓ_１_１
  6
CONTINUOUS
 62
     3
100
AcDbLine
 10
425.2150750000002
 20
186.999998
 30
0.0
 11
425.2150750000002
 21
195.0
 31
0.0
  0
LINE
  5
412
330
1F
100
AcDbEntity
  8
Ｓ_１_１
  6
CONTINUOUS
 62
     3
100
AcDbLine
 10
409.0603660000002
 20
186.999998
 30
0.0
 11
409.0603660000002
 21
213.000002
 31
0.0
  0
LINE
  5
413
330
1F
100
AcDbEntity
  8
Ｓ_１_１
  6
CONTINUOUS
 62
     3
100
AcDbLine
 10
409.0603580000002
 20
187.0000229999999
 30
0.0
 11
409.6377020000002
 21
188.0000129999999
 31
0.0
  0
LINE
  5
414
330
1F
100
AcDbEntity
  8
Ｓ_１_１
  6
CONTINUOUS
 62
     3
100
AcDbLine
 10
424.6377590000002
 20
211.9999769999999
 30
0.0
 11
425.2151130000002
 21
212.9999839999999
 31
0.0
  0
LINE
  5
415
330
1F
100
AcDbEntity
  8
Ｓ_１_１
  6
CONTINUOUS
 62
     3
100
AcDbLine
 10
436.5603820000001
 20
187.000008
 30
0.0
 11
437.1377270000002
 21
187.999999
 31
0.0
  0
LINE
  5
416
330
1F
100
AcDbEntity
  8
Ｓ_１_１
  6
CONTINUOUS
 62
     3
100
AcDbLine
 10
409.6377280000002
 20
211.9999699999999
 30
0.0
 11
409.0603730000001
 21
212.9999769999999
 31
0.0
  0
LINE
  5
417
330
1F
100
AcDbEntity
  8
Ｓ_１_１
  6
CONTINUOUS
 62
     3
100
AcDbLine
 10
425.2150860000002
 20
187.0000129999999
 30
0.0
 11
424.6377510000002
 21
187.999988
 31
0.0
  0
LINE
  5
418
330
1F
100
AcDbEntity
  8
Ｓ_１_１
  6
CONTINUOUS
 62
     3
100
AcDbLine
 10
437.1377520000001
 20
211.9999849999999
 30
0.0
 11
436.5603970000001
 21
212.999992
 31
0.0
  0
LINE
  5
419
330
1F
100
AcDbEntity
  8
Ｓ_１_１
  6
CONTINUOUS
 62
     3
100
AcDbLine
 10
425.2150750000002
 20
204.9999999999999
 30
0.0
 11
436.5603660000002
 21
204.9999999999999
 31
0.0
  0
LINE
  5
41A
330
1F
100
AcDbEntity
  8
Ｓ_１_１
  6
CONTINUOUS
 62
     3
100
AcDbLine
 10
425.2150750000002
 20
195.0
 30
0.0
 11
436.5603660000002
 21
195.0
 31
0.0
  0
LINE
  5
41B
330
1F
100
AcDbEntity
  8
Ｓ_１_１
  6
CONTINUOUS
 62
     3
100
AcDbLine
 10
401.4560190000001
 20
201.749994
 30
0.0
 11
401.6377520000002
 21
201.8549169999999
 31
0.0
  0
LINE
  5
41C
330
1F
100
AcDbEntity
  8
Ｓ_１_１
  6
CONTINUOUS
 62
     3
100
AcDbLine
 10
401.6377280000001
 20
201.750002
 30
0.0
 11
401.6377280000001
 21
215.999999
 31
0.0
  0
LINE
  5
41D
330
1F
100
AcDbEntity
  8
Ｓ_１_１
  6
CONTINUOUS
 62
     3
100
AcDbLine
 10
402.1377590000002
 20
201.750002
 30
0.0
 11
402.1377590000002
 21
215.5000019999999
 31
0.0
  0
LINE
  5
41E
330
1F
100
AcDbEntity
  8
Ｓ_１_１
  6
CONTINUOUS
 62
     3
100
AcDbLine
 10
398.6376980000002
 20
198.2499979999999
 30
0.0
 11
398.6376980000002
 21
201.750002
 31
0.0
  0
LINE
  5
41F
330
1F
100
AcDbEntity
  8
Ｓ_１_１
  6
CONTINUOUS
 62
     3
100
AcDbLine
 10
398.6376980000002
 20
198.2499979999999
 30
0.0
 11
402.1377590000002
 21
198.2499979999999
 31
0.0
  0
LINE
  5
420
330
1F
100
AcDbEntity
  8
Ｓ_１_１
  6
CONTINUOUS
 62
     3
100
AcDbLine
 10
398.6376980000002
 20
201.750002
 30
0.0
 11
402.1377590000002
 21
201.750002
 31
0.0
  0
LINE
  5
421
330
1F
100
AcDbEntity
  8
Ｓ_１_１
  6
CONTINUOUS
 62
     3
100
AcDbLine
 10
404.6377340000001
 20
184.499995
 30
0.0
 11
405.1377510000002
 21
185.0000119999999
 31
0.0
  0
LINE
  5
422
330
1F
100
AcDbEntity
  8
Ｓ_１_１
  6
CONTINUOUS
 62
     3
100
AcDbLine
 10
403.6377540000002
 20
184.499995
 30
0.0
 11
403.1377380000001
 21
185.0000119999999
 31
0.0
  0
LINE
  5
423
330
1F
100
AcDbEntity
  8
Ｓ_１_１
  6
CONTINUOUS
 62
     3
100
AcDbLine
 10
405.1377240000002
 20
215.0000169999999
 30
0.0
 11
404.6377340000001
 21
215.5000069999999
 31
0.0
  0
LINE
  5
424
330
1F
100
AcDbEntity
  8
Ｓ_１_１
  6
CONTINUOUS
 62
     3
100
AcDbLine
 10
403.1377380000001
 20
214.99999
 30
0.0
 11
403.6377540000002
 21
215.5000069999999
 31
0.0
  0
LINE
  5
425
330
1F
100
AcDbEntity
  8
Ｓ_１_１
  6
CONTINUOUS
 62
     3
100
AcDbLine
 10
405.1377130000002
 20
213.000002
 30
0.0
 11
405.1377130000002
 21
215.0
 31
0.0
  0
LINE
  5
426
330
1F
100
AcDbEntity
  8
Ｓ_１_１
  6
CONTINUOUS
 62
     3
100
AcDbLine
 10
403.1377430000002
 20
213.000002
 30
0.0
 11
403.1377430000002
 21
215.0
 31
0.0
  0
LINE
  5
427
330
1F
100
AcDbEntity
  8
Ｓ_１_１
  6
CONTINUOUS
 62
     3
100
AcDbLine
 10
403.1377430000002
 20
185.0
 30
0.0
 11
403.1377430000002
 21
186.999998
 31
0.0
  0
LINE
  5
428
330
1F
100
AcDbEntity
  8
Ｓ_１_１
  6
CONTINUOUS
 62
     3
100
AcDbLine
 10
405.1377130000002
 20
185.0
 30
0.0
 11
405.1377130000002
 21
186.999998
 31
0.0
  0
LINE
  5
429
330
1F
100
AcDbEntity
  8
Ｓ_１_１
  6
CONTINUOUS
 62
     3
100
AcDbLine
 10
403.6376980000002
 20
184.499998
 30
0.0
 11
404.6377590000002
 21
184.499998
 31
0.0
  0
LINE
  5
42A
330
1F
100
AcDbEntity
  8
Ｓ_１_１
  6
CONTINUOUS
 62
     3
100
AcDbLine
 10
403.6376980000002
 20
215.5000019999999
 30
0.0
 11
404.6377590000002
 21
215.5000019999999
 31
0.0
  0
LINE
  5
42B
330
1F
100
AcDbEntity
  8
Ｓ_１_１
  6
CONTINUOUS
 62
     3
100
AcDbLine
 10
401.6377290000001
 20
198.145083
 30
0.0
 11
401.4560300000001
 21
198.2499869999999
 31
0.0
  0
LINE
  5
42C
330
1F
100
AcDbEntity
  8
Ｓ_１_１
  6
CONTINUOUS
 62
     3
100
AcDbLine
 10
378.1377440000002
 20
184.000001
 30
0.0
 11
378.1377440000002
 21
215.999999
 31
0.0
  0
LINE
  5
42D
330
1F
100
AcDbEntity
  8
Ｓ_１_１
  6
CONTINUOUS
 62
     3
100
AcDbLine
 10
385.6377440000002
 20
184.000001
 30
0.0
 11
385.6377440000002
 21
215.999999
 31
0.0
  0
LINE
  5
42E
330
1F
100
AcDbEntity
  8
Ｓ_１_１
  6
CONTINUOUS
 62
     3
100
AcDbLine
 10
401.6377280000001
 20
184.000001
 30
0.0
 11
401.6377280000001
 21
198.2499979999999
 31
0.0
  0
LINE
  5
42F
330
1F
100
AcDbEntity
  8
Ｓ_１_１
  6
CONTINUOUS
 62
     3
100
AcDbLine
 10
394.6377590000002
 20
215.999999
 30
0.0
 11
394.6377590000002
 21
184.000001
 31
0.0
  0
LINE
  5
430
330
1F
100
AcDbEntity
  8
Ｓ_１_１
  6
CONTINUOUS
 62
     3
100
AcDbLine
 10
402.1377070000002
 20
215.5000099999999
 30
0.0
 11
401.6377180000001
 21
216.0
 31
0.0
  0
LINE
  5
431
330
1F
100
AcDbEntity
  8
Ｓ_１_１
  6
CONTINUOUS
 62
     3
100
AcDbLine
 10
401.6377660000002
 20
184.000002
 30
0.0
 11
402.1377560000002
 21
184.499992
 31
0.0
  0
LINE
  5
432
330
1F
100
AcDbEntity
  8
Ｓ_１_１
  6
CONTINUOUS
 62
     3
100
AcDbLine
 10
394.6377590000002
 20
215.999999
 30
0.0
 11
401.6377280000001
 21
215.999999
 31
0.0
  0
LINE
  5
433
330
1F
100
AcDbEntity
  8
Ｓ_１_１
  6
CONTINUOUS
 62
     3
100
AcDbLine
 10
394.6377590000002
 20
184.000001
 30
0.0
 11
401.6377280000001
 21
184.000001
 31
0.0
  0
LINE
  5
434
330
1F
100
AcDbEntity
  8
Ｓ_１_１
  6
CONTINUOUS
 62
     3
100
AcDbLine
 10
385.6377170000002
 20
184.000001
 30
0.0
 11
386.1377340000001
 21
184.5000179999999
 31
0.0
  0
LINE
  5
435
330
1F
100
AcDbEntity
  8
Ｓ_１_１
  6
CONTINUOUS
 62
     3
100
AcDbLine
 10
394.1377570000002
 20
215.5000029999999
 30
0.0
 11
394.6377470000002
 21
215.999992
 31
0.0
  0
LINE
  5
436
330
1F
100
AcDbEntity
  8
Ｓ_１_１
  6
CONTINUOUS
 62
     3
100
AcDbLine
 10
386.1377120000002
 20
215.5000109999999
 30
0.0
 11
385.6377220000002
 21
216.000001
 31
0.0
  0
LINE
  5
437
330
1F
100
AcDbEntity
  8
Ｓ_１_１
  6
CONTINUOUS
 62
     3
100
AcDbLine
 10
394.6377520000002
 20
184.0000099999999
 30
0.0
 11
394.1377350000001
 21
184.5000259999999
 31
0.0
  0
LINE
  5
438
330
1F
100
AcDbEntity
  8
Ｓ_１_１
  6
CONTINUOUS
 62
     3
100
AcDbLine
 10
386.1376980000002
 20
184.499998
 30
0.0
 11
386.1376980000002
 21
215.5000019999999
 31
0.0
  0
LINE
  5
439
330
1F
100
AcDbEntity
  8
Ｓ_１_１
  6
CONTINUOUS
 62
     3
100
AcDbLine
 10
394.1377280000001
 20
184.499998
 30
0.0
 11
394.1377280000001
 21
215.5000019999999
 31
0.0
  0
LINE
  5
43A
330
1F
100
AcDbEntity
  8
Ｓ_１_１
  6
CONTINUOUS
 62
     3
100
AcDbLine
 10
386.1376980000002
 20
215.5000019999999
 30
0.0
 11
394.1377280000001
 21
215.5000019999999
 31
0.0
  0
LINE
  5
43B
330
1F
100
AcDbEntity
  8
Ｓ_１_１
  6
CONTINUOUS
 62
     3
100
AcDbLine
 10
386.1376980000002
 20
184.499998
 30
0.0
 11
394.1377280000001
 21
184.499998
 31
0.0
  0
LINE
  5
43C
330
1F
100
AcDbEntity
  8
Ｓ_１_１
  6
CONTINUOUS
 62
     3
100
AcDbLine
 10
375.1377190000002
 20
213.000031
 30
0.0
 11
378.1377110000002
 21
216.0000229999999
 31
0.0
  0
LINE
  5
43D
330
1F
100
AcDbEntity
  8
Ｓ_１_１
  6
CONTINUOUS
 62
     3
100
AcDbLine
 10
375.1376920000001
 20
186.999998
 30
0.0
 11
378.1376840000001
 21
184.000006
 31
0.0
  0
LINE
  5
43E
330
1F
100
AcDbEntity
  8
Ｓ_１_１
  6
CONTINUOUS
 62
     3
100
AcDbLine
 10
409.6377590000002
 20
188.000002
 30
0.0
 11
424.6377580000002
 21
188.000002
 31
0.0
  0
LINE
  5
43F
330
1F
100
AcDbEntity
  8
Ｓ_１_１
  6
CONTINUOUS
 62
     3
100
AcDbLine
 10
409.6377590000002
 20
211.999998
 30
0.0
 11
424.6377580000002
 21
211.999998
 31
0.0
  0
LINE
  5
440
330
1F
100
AcDbEntity
  8
Ｓ_１_１
  6
CONTINUOUS
 62
     3
100
AcDbLine
 10
375.1377130000002
 20
186.999998
 30
0.0
 11
375.1377130000002
 21
213.000002
 31
0.0
  0
LINE
  5
441
330
1F
100
AcDbEntity
  8
Ｓ_１_１
  6
CONTINUOUS
 62
     3
100
AcDbLine
 10
378.1377440000002
 20
215.999999
 30
0.0
 11
385.6377440000002
 21
215.999999
 31
0.0
  0
LINE
  5
442
330
1F
100
AcDbEntity
  8
Ｓ_１_１
  6
CONTINUOUS
 62
     3
100
AcDbLine
 10
378.1377440000002
 20
184.000001
 30
0.0
 11
385.6377440000002
 21
184.000001
 31
0.0
  0
LINE
  5
443
330
1F
100
AcDbEntity
  8
Ｓ_１_１
  6
CONTINUOUS
 62
     3
100
AcDbLine
 10
425.2150750000002
 20
213.000002
 30
0.0
 11
436.5603660000002
 21
213.000002
 31
0.0
  0
LINE
  5
444
330
1F
100
AcDbEntity
  8
Ｓ_１_１
  6
CONTINUOUS
 62
     3
100
AcDbLine
 10
425.2150750000002
 20
186.999998
 30
0.0
 11
436.5603660000002
 21
186.999998
 31
0.0
  0
LINE
  5
445
330
1F
100
AcDbEntity
  8
Ｓ_１_１
  6
CONTINUOUS
 62
     3
100
AcDbLine
 10
374.6377590000002
 20
211.999998
 30
0.0
 11
375.1377130000002
 21
211.999998
 31
0.0
  0
LINE
  5
446
330
1F
100
AcDbEntity
  8
Ｓ_１_１
  6
CONTINUOUS
 62
     3
100
AcDbLine
 10
374.6377590000002
 20
188.000002
 30
0.0
 11
375.1377130000002
 21
188.000002
 31
0.0
  0
LINE
  5
447
330
1F
100
AcDbEntity
  8
Ｓ_１_１
  6
CONTINUOUS
 62
     3
100
AcDbLine
 10
402.1377590000002
 20
186.999998
 30
0.0
 11
409.0603660000002
 21
186.999998
 31
0.0
  0
LINE
  5
448
330
1F
100
AcDbEntity
  8
Ｓ_１_１
  6
CONTINUOUS
 62
     3
100
AcDbLine
 10
402.1377590000002
 20
213.000002
 30
0.0
 11
409.0603660000002
 21
213.000002
 31
0.0
  0
LINE
  5
449
330
1F
100
AcDbEntity
  8
Ｓ_１_１
  6
CONTINUOUS
 62
     3
100
AcDbLine
 10
402.1377590000002
 20
184.499998
 30
0.0
 11
402.1377590000002
 21
198.2499979999999
 31
0.0
  0
LINE
  5
44A
330
1F
100
AcDbEntity
  8
Ｓ_１_１
  6
CONTINUOUS
 62
     3
100
AcDbLine
 10
409.6377590000002
 20
188.000002
 30
0.0
 11
409.6377590000002
 21
211.999998
 31
0.0
  0
LINE
  5
44B
330
1F
100
AcDbEntity
  8
Ｓ_１_１
  6
CONTINUOUS
 62
     3
100
AcDbLine
 10
424.6377580000002
 20
187.999997
 30
0.0
 11
424.6377580000002
 21
211.999988
 31
0.0
  0
LINE
  5
44C
330
1F
100
AcDbEntity
  8
Ｓ_１_１
  6
CONTINUOUS
 62
     3
100
AcDbLine
 10
374.6377590000002
 20
188.000002
 30
0.0
 11
374.6377590000002
 21
211.999998
 31
0.0
  0
LINE
  5
44D
330
1F
100
AcDbEntity
  8
Ｓ_１_１
  6
CONTINUOUS
 62
     3
100
AcDbLine
 10
437.1377400000001
 20
192.820117
 30
0.0
 11
443.2754380000001
 21
192.436511
 31
0.0
  0
LINE
  5
44E
330
1F
100
AcDbEntity
  8
Ｓ_１_１
  6
CONTINUOUS
 62
     3
100
AcDbLine
 10
444.6377440000002
 20
191.6500139999999
 30
0.0
 11
443.2754610000002
 21
192.4365279999999
 31
0.0
  0
LINE
  5
44F
330
1F
100
AcDbEntity
  8
Ｓ_１_１
  6
CONTINUOUS
 62
     3
100
AcDbLine
 10
437.1377070000002
 20
192.1187559999999
 30
0.0
 11
444.6377210000002
 21
191.6500049999999
 31
0.0
  0
LINE
  5
450
330
1F
100
AcDbEntity
  8
Ｓ_１_１
  6
CONTINUOUS
 62
     3
100
AcDbLine
 10
443.2754740000001
 20
207.563489
 30
0.0
 11
444.6377570000001
 21
208.350003
 31
0.0
  0
LINE
  5
451
330
1F
100
AcDbEntity
  8
Ｓ_１_１
  6
CONTINUOUS
 62
     3
100
AcDbLine
 10
437.1377530000001
 20
207.881254
 30
0.0
 11
444.6377670000001
 21
208.350005
 31
0.0
  0
LINE
  5
452
330
1F
100
AcDbEntity
  8
Ｓ_１_１
  6
CONTINUOUS
 62
     3
100
AcDbLine
 10
437.1377110000002
 20
207.179879
 30
0.0
 11
443.2754840000001
 21
207.56349
 31
0.0
  0
LINE
  5
453
330
1F
100
AcDbEntity
  8
Ｓ_１_１
  6
CONTINUOUS
 62
     3
100
AcDbLine
 10
443.2754530000002
 20
191.735144
 30
0.0
 11
443.2754530000002
 21
208.264856
 31
0.0
  0
LINE
  5
454
330
1F
100
AcDbEntity
  8
Ｓ_１_１
  6
CONTINUOUS
 62
     3
100
AcDbLine
 10
455.0000170000002
 20
207.5634689999999
 30
0.0
 11
453.6377340000001
 21
208.3499829999999
 31
0.0
  0
LINE
  5
455
330
1F
100
AcDbEntity
  8
Ｓ_１_１
  6
CONTINUOUS
 62
     3
100
AcDbLine
 10
459.9999650000002
 20
207.952357
 30
0.0
 11
453.6377150000002
 21
208.349998
 31
0.0
  0
LINE
  5
456
330
1F
100
AcDbEntity
  8
Ｓ_１_１
  6
CONTINUOUS
 62
     3
100
AcDbLine
 10
460.0000070000002
 20
207.250987
 30
0.0
 11
454.9999980000001
 21
207.563487
 31
0.0
  0
LINE
  5
457
330
1F
100
AcDbEntity
  8
Ｓ_１_１
  6
CONTINUOUS
 62
     3
100
AcDbLine
 10
453.6377140000002
 20
191.6500149999999
 30
0.0
 11
454.9999970000001
 21
192.4365289999999
 31
0.0
  0
LINE
  5
458
330
1F
100
AcDbEntity
  8
Ｓ_１_１
  6
CONTINUOUS
 62
     3
100
AcDbLine
 10
455.0000020000002
 20
191.735144
 30
0.0
 11
455.0000020000002
 21
208.264856
 31
0.0
  0
LINE
  5
459
330
1F
100
AcDbEntity
  8
Ｓ_１_１
  6
CONTINUOUS
 62
     3
100
AcDbLine
 10
460.0000120000002
 20
192.0476379999999
 30
0.0
 11
453.6377620000001
 21
191.649998
 31
0.0
  0
LINE
  5
45A
330
1F
100
AcDbEntity
  8
Ｓ_１_１
  6
CONTINUOUS
 62
     3
100
AcDbLine
 10
459.9999780000002
 20
192.7490089999999
 30
0.0
 11
454.9999680000001
 21
192.436508
 31
0.0
  0
LINE
  5
45B
330
1F
100
AcDbEntity
  8
Ｓ_１_１
  6
CONTINUOUS
 62
     3
100
AcDbLine
 10
453.6377420000001
 20
189.4999779999999
 30
0.0
 11
452.6999210000001
 21
187.8756169999999
 31
0.0
  0
LINE
  5
45C
330
1F
100
AcDbEntity
  8
Ｓ_１_１
  6
CONTINUOUS
 62
     3
100
AcDbLine
 10
444.6377160000002
 20
189.4999859999999
 30
0.0
 11
445.5755380000001
 21
187.875625
 31
0.0
  0
LINE
  5
45D
330
1F
100
AcDbEntity
  8
Ｓ_１_１
  6
CONTINUOUS
 62
     3
100
AcDbLine
 10
453.6377120000002
 20
210.5000229999999
 30
0.0
 11
452.6998910000002
 21
212.1243839999999
 31
0.0
  0
LINE
  5
45E
330
1F
100
AcDbEntity
  8
Ｓ_１_１
  6
CONTINUOUS
 62
     3
100
AcDbLine
 10
444.6377370000001
 20
210.499999
 30
0.0
 11
445.5755590000002
 21
212.124359
 31
0.0
  0
LINE
  5
45F
330
1F
100
AcDbEntity
  8
Ｓ_１_１
  6
CONTINUOUS
 62
     3
100
AcDbLine
 10
445.5755630000002
 20
212.124371
 30
0.0
 11
452.6998920000002
 21
212.124371
 31
0.0
  0
LINE
  5
460
330
1F
100
AcDbEntity
  8
Ｓ_１_１
  6
CONTINUOUS
 62
     3
100
AcDbLine
 10
445.5755630000002
 20
187.8756569999999
 30
0.0
 11
452.6998920000002
 21
187.8756569999999
 31
0.0
  0
LINE
  5
461
330
1F
100
AcDbEntity
  8
Ｓ_１_１
  6
CONTINUOUS
 62
     3
100
AcDbLine
 10
445.5755630000002
 20
193.9378359999999
 30
0.0
 11
452.6998920000002
 21
193.9378359999999
 31
0.0
  0
LINE
  5
462
330
1F
100
AcDbEntity
  8
Ｓ_１_１
  6
CONTINUOUS
 62
     3
100
AcDbLine
 10
445.5755630000002
 20
206.0621879999999
 30
0.0
 11
452.6998920000002
 21
206.0621879999999
 31
0.0
  0
LINE
  5
463
330
1F
100
AcDbEntity
  8
Ｓ_１_１
  6
CONTINUOUS
 62
     3
100
AcDbLine
 10
444.6377580000001
 20
189.4999839999999
 30
0.0
 11
444.6377580000001
 21
210.500007
 31
0.0
  0
LINE
  5
464
330
1F
100
AcDbEntity
  8
Ｓ_１_１
  6
CONTINUOUS
 62
     3
100
AcDbLine
 10
453.6376970000001
 20
189.499993
 30
0.0
 11
453.6376970000001
 21
210.5000159999999
 31
0.0
  0
LINE
  5
465
330
1F
100
AcDbEntity
  8
Ｓ_１_１
  6
CONTINUOUS
 62
     3
100
AcDbLine
 10
461.9999850000002
 20
180.000007
 30
0.0
 11
459.9999990000001
 21
181.999993
 31
0.0
  0
LINE
  5
466
330
1F
100
AcDbEntity
  8
Ｓ_１_１
  6
CONTINUOUS
 62
     3
100
AcDbLine
 10
460.0000010000002
 20
181.999998
 30
0.0
 11
460.0000010000002
 21
213.499999
 31
0.0
  0
LINE
  5
467
330
1F
100
AcDbEntity
  8
Ｓ_１_１
  6
CONTINUOUS
 62
     3
100
AcDbLine
 10
659.9999990000001
 20
182.000006
 30
0.0
 11
657.9999990000001
 21
180.000007
 31
0.0
  0
LINE
  5
468
330
1F
100
AcDbEntity
  8
Ｓ_１_１
  6
CONTINUOUS
 62
     3
100
AcDbLine
 10
659.9999990000001
 20
181.999998
 30
0.0
 11
659.9999990000001
 21
213.499999
 31
0.0
  0
LINE
  5
469
330
1F
100
AcDbEntity
  8
Ｓ_１_１
  6
CONTINUOUS
 62
     3
100
AcDbLine
 10
659.9999990000001
 20
181.999998
 30
0.0
 11
460.0000010000002
 21
181.999998
 31
0.0
  0
LINE
  5
46A
330
1F
100
AcDbEntity
  8
Ｓ_１_１
  6
CONTINUOUS
 62
     3
100
AcDbLine
 10
657.999999
 20
180.0
 30
0.0
 11
461.9999710000002
 21
180.0
 31
0.0
  0
DIMENSION
  5
46B
330
1F
100
AcDbEntity
  8
Ｓ_１_１
  6
CONTINUOUS
 62
     2
100
AcDbDimension
  2
*D23
 10
459.999994
 20
140.0
 30
0.0
 11
417.3188765
 21
148.25
 31
0.0
 70
   160
  1
(<>)
  3
ISO-25
100
AcDbAlignedDimension
 13
374.637759
 23
188.000002
 33
0.0
 14
459.999994
 24
181.999998
 34
0.0
100
AcDbRotatedDimension
1001
ACAD
1000
DSTYLE
1002
{
1070
   270
1070
     2
1070
     6
1000
EX_NORM
1070
     7
1000
EX_NORM
1070
    41
1040
9.0
1070
    42
1040
4.5
1070
    44
1040
3.0
1070
    73
1070
     0
1070
    74
1070
     0
1070
    75
1070
     0
1070
    76
1070
     0
1070
    77
1070
     1
1070
    78
1070
     0
1070
   140
1040
10.38871247113164
1070
   147
1040
0.0
1070
   173
1070
     1
1070
   176
1070
     2
1070
   177
1070
     2
1070
   178
1070
     2
1070
   271
1070
     0
1070
   277
1070
     2
1070
   279
1070
     2
1070
   280
1070
     0
1070
   287
1070
     5
1070
   340
1005
128
1002
}
  0
DIMENSION
  5
478
330
1F
100
AcDbEntity
  8
Ｓ_１_１
  6
CONTINUOUS
 62
     2
100
AcDbDimension
  2
*D24
 10
659.999999
 20
140.0
 30
0.0
 11
559.9999965000001
 21
148.25
 31
0.0
 70
   160
  1
%%c200
  3
ISO-25
100
AcDbAlignedDimension
 13
459.999994
 23
181.999998
 33
0.0
 14
659.999999
 24
182.000006
 34
0.0
100
AcDbRotatedDimension
1001
ACAD
1000
DSTYLE
1002
{
1070
   270
1070
     2
1070
     6
1000
EX_NORM
1070
     7
1000
EX_NORM
1070
    41
1040
9.0
1070
    42
1040
4.5
1070
    44
1040
3.0
1070
    73
1070
     0
1070
    74
1070
     0
1070
    75
1070
     1
1070
    76
1070
     0
1070
    77
1070
     1
1070
    78
1070
     8
1070
   140
1040
10.38871247113164
1070
   147
1040
0.0
1070
   173
1070
     1
1070
   176
1070
     2
1070
   177
1070
     2
1070
   178
1070
     2
1070
   271
1070
     2
1070
   277
1070
     2
1070
   279
1070
     2
1070
   280
1070
     0
1070
   287
1070
     5
1070
   340
1005
128
1002
}
  0
DIMENSION
  5
484
330
1F
100
AcDbEntity
  8
Ｓ_１_１
  6
CONTINUOUS
 62
     2
100
AcDbDimension
  2
*D25
 10
320.0
 20
200.0
 30
0.0
 11
311.7500000000001
 21
164.2499999999999
 31
0.0
 70
   160
  3
ISO-25
100
AcDbAlignedDimension
 13
461.999992
 23
180.0
 33
0.0
 14
363.899997
 24
200.0
 34
0.0
 50
90.0
100
AcDbRotatedDimension
1001
ACAD
1000
DSTYLE
1002
{
1070
   270
1070
     2
1070
     6
1000
EX_NORM
1070
     7
1000
EX_NORM
1070
    41
1040
9.0
1070
    42
1040
4.5
1070
    44
1040
3.0
1070
    73
1070
     0
1070
    74
1070
     0
1070
    75
1070
     0
1070
    76
1070
     0
1070
    77
1070
     1
1070
    78
1070
     8
1070
   140
1040
10.38871247113164
1070
   147
1040
0.0
1070
   173
1070
     1
1070
   176
1070
     2
1070
   177
1070
     2
1070
   178
1070
     2
1070
   271
1070
     2
1070
   277
1070
     2
1070
   279
1070
     2
1070
   280
1070
     1
1070
   287
1070
     5
1070
   340
1005
128
1002
}
  0
DIMENSION
  5
491
330
1F
100
AcDbEntity
  8
Ｓ_１_１
  6
CONTINUOUS
 62
     2
100
AcDbDimension
  2
*D26
 10
300.0
 20
213.499999
 30
0.0
 11
291.75
 21
196.7499995
 31
0.0
 70
   160
  3
ISO-25
100
AcDbAlignedDimension
 13
461.999992
 23
180.0
 33
0.0
 14
442.0000049999999
 24
213.499999
 34
0.0
 50
90.0
100
AcDbRotatedDimension
1001
ACAD
1000
DSTYLE
1002
{
1070
   270
1070
     2
1070
     6
1000
EX_NORM
1070
     7
1000
EX_NORM
1070
    41
1040
9.0
1070
    42
1040
4.5
1070
    44
1040
3.0
1070
    73
1070
     0
1070
    74
1070
     0
1070
    75
1070
     0
1070
    76
1070
     0
1070
    77
1070
     1
1070
    78
1070
     8
1070
   140
1040
10.38871247113164
1070
   147
1040
0.0
1070
   173
1070
     1
1070
   176
1070
     2
1070
   177
1070
     2
1070
   178
1070
     2
1070
   271
1070
     2
1070
   277
1070
     2
1070
   279
1070
     2
1070
   280
1070
     0
1070
   287
1070
     5
1070
   340
1005
128
1002
}
  0
DIMENSION
  5
49E
330
1F
100
AcDbEntity
  8
Ｓ_１_１
  6
CONTINUOUS
 62
     2
100
AcDbDimension
  2
*D27
 10
300.0
 20
265.499977
 30
0.0
 11
291.75
 21
239.499988
 31
0.0
 70
   160
  3
ISO-25
100
AcDbAlignedDimension
 13
442.0000049999999
 23
213.499999
 33
0.0
 14
409.999964
 24
265.499977
 34
0.0
 50
90.0
100
AcDbRotatedDimension
1001
ACAD
1000
DSTYLE
1002
{
1070
   270
1070
     2
1070
     6
1000
EX_NORM
1070
     7
1000
EX_NORM
1070
    41
1040
9.0
1070
    42
1040
4.5
1070
    44
1040
3.0
1070
    73
1070
     0
1070
    74
1070
     0
1070
    75
1070
     1
1070
    76
1070
     0
1070
    77
1070
     1
1070
    78
1070
     8
1070
   140
1040
10.38871247113164
1070
   147
1040
0.0
1070
   173
1070
     1
1070
   176
1070
     2
1070
   177
1070
     2
1070
   178
1070
     2
1070
   271
1070
     2
1070
   277
1070
     2
1070
   279
1070
     2
1070
   280
1070
     0
1070
   287
1070
     5
1070
   340
1005
128
1002
}
  0
DIMENSION
  5
4AA
330
1F
100
AcDbEntity
  8
Ｓ_１_１
  6
CONTINUOUS
 62
     2
100
AcDbDimension
  2
*D28
 10
280.0
 20
265.499996
 30
0.0
 11
271.75
 21
222.749998
 31
0.0
 70
   160
  3
ISO-25
100
AcDbAlignedDimension
 13
461.999992
 23
180.0
 33
0.0
 14
409.999964
 24
265.499996
 34
0.0
 50
90.0
100
AcDbRotatedDimension
1001
ACAD
1000
DSTYLE
1002
{
1070
   270
1070
     2
1070
     6
1000
EX_NORM
1070
     7
1000
EX_NORM
1070
    41
1040
9.0
1070
    42
1040
4.5
1070
    44
1040
3.0
1070
    73
1070
     0
1070
    74
1070
     0
1070
    75
1070
     0
1070
    76
1070
     0
1070
    77
1070
     1
1070
    78
1070
     8
1070
   140
1040
10.38871247113164
1070
   147
1040
0.0
1070
   173
1070
     1
1070
   176
1070
     2
1070
   177
1070
     2
1070
   178
1070
     2
1070
   271
1070
     2
1070
   277
1070
     2
1070
   279
1070
     2
1070
   280
1070
     0
1070
   287
1070
     5
1070
   340
1005
128
1002
}
  0
DIMENSION
  5
4B7
330
1F
100
AcDbEntity
  8
Ｓ_１_１
  6
CONTINUOUS
 62
     2
100
AcDbDimension
  2
*D29
 10
799.9999999999998
 20
255.499977
 30
0.0
 11
791.7499999999998
 21
217.7499885
 31
0.0
 70
   160
  3
ISO-25
100
AcDbAlignedDimension
 13
652.999992
 23
180.0
 33
0.0
 14
719.0000359999999
 24
255.499977
 34
0.0
 50
90.0
100
AcDbRotatedDimension
1001
ACAD
1000
DSTYLE
1002
{
1070
   270
1070
     2
1070
     6
1000
EX_NORM
1070
     7
1000
EX_NORM
1070
    41
1040
9.0
1070
    42
1040
9.5
1070
    44
1040
3.0
1070
    73
1070
     0
1070
    74
1070
     0
1070
    75
1070
     0
1070
    76
1070
     0
1070
    77
1070
     1
1070
    78
1070
     8
1070
   140
1040
10.38871247113164
1070
   147
1040
0.0
1070
   173
1070
     1
1070
   176
1070
     2
1070
   177
1070
     2
1070
   178
1070
     2
1070
   271
1070
     2
1070
   277
1070
     2
1070
   279
1070
     2
1070
   280
1070
     0
1070
   287
1070
     5
1070
   340
1005
128
1002
}
  0
DIMENSION
  5
4C4
330
1F
100
AcDbEntity
  8
Ｓ_１_１
  6
CONTINUOUS
 62
     2
100
AcDbDimension
  2
*D30
 10
799.9999999999998
 20
290.499977
 30
0.0
 11
791.7499999999998
 21
272.999977
 31
0.0
 70
   160
  3
ISO-25
100
AcDbAlignedDimension
 13
719.0000359999999
 23
255.499977
 33
0.0
 14
720.0000359999999
 24
290.499977
 34
0.0
 50
90.0
100
AcDbRotatedDimension
1001
ACAD
1000
DSTYLE
1002
{
1070
   270
1070
     2
1070
     6
1000
EX_NORM
1070
     7
1000
EX_NORM
1070
    41
1040
9.0
1070
    42
1040
4.5
1070
    44
1040
3.0
1070
    73
1070
     0
1070
    74
1070
     0
1070
    75
1070
     0
1070
    76
1070
     0
1070
    77
1070
     1
1070
    78
1070
     8
1070
   140
1040
10.38871247113164
1070
   147
1040
0.0
1070
   173
1070
     1
1070
   176
1070
     2
1070
   177
1070
     2
1070
   178
1070
     2
1070
   271
1070
     2
1070
   277
1070
     2
1070
   279
1070
     2
1070
   280
1070
     0
1070
   287
1070
     5
1070
   340
1005
128
1002
}
  0
DIMENSION
  5
4D1
330
1F
100
AcDbEntity
  8
Ｓ_１_１
  6
CONTINUOUS
 62
     2
100
AcDbDimension
  2
*D31
 10
820.0
 20
290.499977
 30
0.0
 11
811.75
 21
235.2499885
 31
0.0
 70
   160
  3
ISO-25
100
AcDbAlignedDimension
 13
652.999992
 23
180.0
 33
0.0
 14
720.0000359999999
 24
290.499977
 34
0.0
 50
90.0
100
AcDbRotatedDimension
1001
ACAD
1000
DSTYLE
1002
{
1070
   270
1070
     2
1070
     6
1000
EX_NORM
1070
     7
1000
EX_NORM
1070
    41
1040
9.0
1070
    42
1040
9.5
1070
    44
1040
3.0
1070
    73
1070
     0
1070
    74
1070
     0
1070
    75
1070
     0
1070
    76
1070
     0
1070
    77
1070
     1
1070
    78
1070
     8
1070
   140
1040
10.38871247113164
1070
   147
1040
0.0
1070
   173
1070
     1
1070
   176
1070
     2
1070
   177
1070
     2
1070
   178
1070
     2
1070
   271
1070
     2
1070
   277
1070
     2
1070
   279
1070
     2
1070
   280
1070
     0
1070
   287
1070
     5
1070
   340
1005
128
1002
}
  0
DIMENSION
  5
4DE
330
1F
100
AcDbEntity
  8
Ｓ_１_１
  6
CONTINUOUS
 62
     2
100
AcDbDimension
  2
*D32
 10
780.0
 20
271.78286472703
 30
0.0
 11
771.75
 21
239.7499769999998
 31
0.0
 70
   160
  1
16
  3
ISO-25
100
AcDbAlignedDimension
 13
719.0000359999999
 23
255.499977
 33
0.0
 14
720.000036
 24
271.78286472703
 34
0.0
 50
90.0
100
AcDbRotatedDimension
1001
ACAD
1000
DSTYLE
1002
{
1070
   270
1070
     2
1070
     6
1000
EX_NORM
1070
     7
1000
EX_BCIR
1070
    41
1040
9.0
1070
    42
1040
4.5
1070
    44
1040
3.0
1070
    73
1070
     0
1070
    74
1070
     0
1070
    75
1070
     0
1070
    76
1070
     0
1070
    77
1070
     1
1070
    78
1070
     8
1070
   140
1040
10.38871247113164
1070
   147
1040
0.0
1070
   173
1070
     1
1070
   176
1070
     2
1070
   177
1070
     2
1070
   178
1070
     2
1070
   271
1070
     2
1070
   277
1070
     2
1070
   279
1070
     2
1070
   280
1070
     1
1070
   287
1070
     5
1070
   340
1005
128
1002
}
  0
DIMENSION
  5
4ED
330
1F
100
AcDbEntity
  8
Ｓ_１_１
  6
CONTINUOUS
 62
     2
100
AcDbDimension
  2
*D33
 10
780.0
 20
271.78286472703
 30
0.0
 11
771.75
 21
306.2499769999998
 31
0.0
 70
   160
  1
19
  3
ISO-25
100
AcDbAlignedDimension
 13
720.000036
 23
290.499977
 33
0.0
 14
720.0000359999799
 24
271.78286472703
 34
0.0
 50
90.0
100
AcDbRotatedDimension
1001
ACAD
1000
DSTYLE
1002
{
1070
   270
1070
     2
1070
     6
1000
EX_NORM
1070
     7
1000
EX_BCIR
1070
    41
1040
9.0
1070
    42
1040
4.5
1070
    44
1040
3.0
1070
    73
1070
     0
1070
    74
1070
     0
1070
    75
1070
     0
1070
    76
1070
     0
1070
    77
1070
     1
1070
    78
1070
     8
1070
   140
1040
10.38871247113164
1070
   147
1040
0.0
1070
   173
1070
     1
1070
   176
1070
     2
1070
   177
1070
     2
1070
   178
1070
     2
1070
   271
1070
     2
1070
   277
1070
     2
1070
   279
1070
     2
1070
   280
1070
     1
1070
   287
1070
     5
1070
   340
1005
128
1002
}
  0
ENDSEC
  0
SECTION
  2
OBJECTS
  0
DICTIONARY
  5
C
330
0
100
AcDbDictionary
  3
ACAD_GROUP
350
D
  3
ACAD_LAYOUT
350
1A
  3
ACAD_MATERIAL
350
43
  3
ACAD_MLEADERSTYLE
350
6B
  3
ACAD_MLINESTYLE
350
17
  3
ACAD_PLOTSETTINGS
350
19
  3
ACAD_SCALELIST
350
47
  3
ACAD_VISUALSTYLE
350
2A
  3
ACDBHEADERROUNDTRIPXREC
350
4FA
  3
ACDBVARIABLEDICTIONARY
350
51B
  0
DICTIONARY
  5
526
330
8
100
AcDbDictionary
280
     1
  3
ACAD_XREC_ROUNDTRIP
360
527
  0
DICTIONARY
  5
D
102
{ACAD_REACTORS
330
C
102
}
330
C
100
AcDbDictionary
  0
DICTIONARY
  5
1A
102
{ACAD_REACTORS
330
C
102
}
330
C
100
AcDbDictionary
  0
DICTIONARY
  5
43
102
{ACAD_REACTORS
330
C
102
}
330
C
100
AcDbDictionary
  3
BYBLOCK
350
45
  3
BYLAYER
350
44
  3
GLOBAL
350
46
  0
DICTIONARY
  5
6B
102
{ACAD_REACTORS
330
C
102
}
330
C
100
AcDbDictionary
  3
STANDARD
350
6C
  0
DICTIONARY
  5
17
102
{ACAD_REACTORS
330
C
102
}
330
C
100
AcDbDictionary
  3
STANDARD
350
18
  0
DICTIONARY
  5
19
102
{ACAD_REACTORS
330
C
102
}
330
C
100
AcDbDictionary
  0
DICTIONARY
  5
47
102
{ACAD_REACTORS
330
C
102
}
330
C
100
AcDbDictionary
  3
A0
350
48
  3
A1
350
49
  3
A2
350
4A
  3
A3
350
4B
  3
A4
350
4C
  3
A5
350
4D
  3
A6
350
4E
  3
A7
350
4F
  3
A8
350
50
  3
A9
350
51
  3
B0
350
52
  3
B1
350
53
  3
B2
350
54
  3
B3
350
55
  3
B4
350
56
  3
B5
350
57
  3
B6
350
58
  3
B7
350
59
  3
B8
350
5A
  3
B9
350
5B
  3
C0
350
5C
  3
C1
350
5D
  3
C2
350
5E
  3
C3
350
5F
  3
C4
350
60
  3
C5
350
61
  3
C6
350
62
  3
C7
350
63
  3
C8
350
64
  3
C9
350
65
  3
D0
350
66
  3
D1
350
67
  3
D2
350
68
  0
DICTIONARY
  5
2A
102
{ACAD_REACTORS
330
C
102
}
330
C
100
AcDbDictionary
  3
2DWIREFRAME
350
2F
  3
BASIC
350
32
  3
BRIGHTEN
350
36
  3
COLORCHANGE
350
3A
  3
CONCEPTUAL
350
34
  3
DIM
350
35
  3
EDGECOLOROFF
350
3D
  3
FACEPATTERN
350
39
  3
FLAT
350
2B
  3
FLATWITHEDGES
350
2C
  3
GOURAUD
350
2D
  3
GOURAUDWITHEDGES
350
2E
  3
HIDDEN
350
31
  3
JITTEROFF
350
3B
  3
LINEPATTERN
350
38
  3
OVERHANGOFF
350
3C
  3
REALISTIC
350
33
  3
SHADED
350
42
  3
SHADED_WITH_EDGES
350
41
  3
SHADES_OF_GRAY
350
3E
  3
SKETCHY
350
3F
  3
THICKEN
350
37
  3
WIREFRAME
350
30
  3
X-RAY
350
40
  0
DICTIONARY
  5
4FA
102
{ACAD_REACTORS
330
C
102
}
330
C
100
AcDbDictionary
  3
CEPSNID
350
504
  3
CEPSNTYPE
350
503
  3
DIMSTYLEDATA
350
51A
  3
FINGERPRINTGUID
350
505
  3
HYPERLINKBASE
350
4FD
  3
INSUNITS
350
502
  3
LAYOUTDICT
350
4FF
  3
LWETCUNION
350
501
  3
PLOTSETDICT
350
500
  3
PSVPSCALE
350
507
  3
PUCSBASE
350
50A
  3
PUCSORGBACK
350
510
  3
PUCSORGBOTTOM
350
50C
  3
PUCSORGFRONT
350
50F
  3
PUCSORGLEFT
350
50D
  3
PUCSORGRIGHT
350
50E
  3
PUCSORGTOP
350
50B
  3
PUCSORTHOREF
350
508
  3
PUCSORTHOVIEW
350
509
  3
STYLESHEET
350
4FE
  3
TSTACKALIGN
350
4FB
  3
TSTACKSIZE
350
4FC
  3
UCSBASE
350
513
  3
UCSORGBACK
350
519
  3
UCSORGBOTTOM
350
515
  3
UCSORGFRONT
350
518
  3
UCSORGLEFT
350
516
  3
UCSORGRIGHT
350
517
  3
UCSORGTOP
350
514
  3
UCSORTHOREF
350
511
  3
UCSORTHOVIEW
350
512
  3
VERSIONGUID
350
506
  0
DICTIONARY
  5
51B
102
{ACAD_REACTORS
330
C
102
}
330
C
100
AcDbDictionary
  3
CANNOSCALE
350
528
  3
CENTEREXE
350
522
  3
CENTERLTYPEFILE
350
523
  3
CMLEADERSTYLE
350
51D
  3
CTABLESTYLE
350
51C
  3
DIMASSOC
350
524
  3
HIDETEXT
350
525
  3
MSLTSCALE
350
529
  3
PSOLHEIGHT
350
51F
  3
PSOLWIDTH
350
51E
  0
XRECORD
  5
527
102
{ACAD_REACTORS
330
526
102
}
330
526
100
AcDbXrecord
102
VTR_0.000_0.000_1.000_1.000_VISUALSTYLE
340
2F
102
VTR_0.000_0.000_1.000_1.000_GRIDDISPLAY
 70
     3
102
VTR_0.000_0.000_1.000_1.000_GRIDMAJOR
 70
     5
102
VTR_0.000_0.000_1.000_1.000_DEFAULTLIGHTING
280
     1
102
VTR_0.000_0.000_1.000_1.000_DEFAULTLIGHTINGTYPE
 70
     1
102
VTR_0.000_0.000_1.000_1.000_BRIGHTNESS
141
0.0
102
VTR_0.000_0.000_1.000_1.000_CONTRAST
142
0.0
  0
MATERIAL
  5
45
102
{ACAD_REACTORS
330
43
102
}
102
{ACAD_XDICTIONARY
360
52C
102
}
330
43
100
AcDbMaterial
  1
BYBLOCK
  0
MATERIAL
  5
44
102
{ACAD_REACTORS
330
43
102
}
102
{ACAD_XDICTIONARY
360
52A
102
}
330
43
100
AcDbMaterial
  1
BYLAYER
  0
MATERIAL
  5
46
102
{ACAD_REACTORS
330
43
102
}
102
{ACAD_XDICTIONARY
360
52E
102
}
330
43
100
AcDbMaterial
  1
GLOBAL
  0
ACAD_PROXY_OBJECT
  5
6C
102
{ACAD_REACTORS
330
6B
102
}
330
6B
100
AcDbProxyObject
 90
      499
 91
      505
 93
      610
310
40901902A4063FBFFFFFE0000000000000020400000000000020404214DD185B99185C990000000000000104090141901A00000000000004100000000000000041025764000000000000039000
340
14
340
0
340
11
340
0
 94
        0
1001
ACAD_MLEADERVER
1070
     2
  0
MLINESTYLE
  5
18
102
{ACAD_REACTORS
330
17
102
}
330
17
100
AcDbMlineStyle
  2
Standard
 70
     0
  3

 62
   256
 51
90.0
 52
90.0
 71
     2
 49
0.5
 62
   256
  6
BYLAYER
 49
-0.5
 62
   256
  6
BYLAYER
  0
ACAD_PROXY_OBJECT
  5
48
102
{ACAD_REACTORS
330
47
102
}
330
47
100
AcDbProxyObject
 90
      499
 91
      503
 93
       41
310
903313A31580
  0
ACAD_PROXY_OBJECT
  5
49
102
{ACAD_REACTORS
330
47
102
}
330
47
100
AcDbProxyObject
 90
      499
 91
      503
 93
      105
310
903313A324000000000000004000
  0
ACAD_PROXY_OBJECT
  5
4A
102
{ACAD_REACTORS
330
47
102
}
330
47
100
AcDbProxyObject
 90
      499
 91
      503
 93
      105
310
903313A344000000000000104000
  0
ACAD_PROXY_OBJECT
  5
4B
102
{ACAD_REACTORS
330
47
102
}
330
47
100
AcDbProxyObject
 90
      499
 91
      503
 93
      105
310
903313A354000000000000144000
  0
ACAD_PROXY_OBJECT
  5
4C
102
{ACAD_REACTORS
330
47
102
}
330
47
100
AcDbProxyObject
 90
      499
 91
      503
 93
      105
310
903313A384000000000000204000
  0
ACAD_PROXY_OBJECT
  5
4D
102
{ACAD_REACTORS
330
47
102
}
330
47
100
AcDbProxyObject
 90
      499
 91
      503
 93
      113
310
904313A31304000000000000244000
  0
ACAD_PROXY_OBJECT
  5
4E
102
{ACAD_REACTORS
330
47
102
}
330
47
100
AcDbProxyObject
 90
      499
 91
      503
 93
      113
310
904313A31364000000000000304000
  0
ACAD_PROXY_OBJECT
  5
4F
102
{ACAD_REACTORS
330
47
102
}
330
47
100
AcDbProxyObject
 90
      499
 91
      503
 93
      113
310
904313A32304000000000000344000
  0
ACAD_PROXY_OBJECT
  5
50
102
{ACAD_REACTORS
330
47
102
}
330
47
100
AcDbProxyObject
 90
      499
 91
      503
 93
      113
310
904313A333040000000000003E4000
  0
ACAD_PROXY_OBJECT
  5
51
102
{ACAD_REACTORS
330
47
102
}
330
47
100
AcDbProxyObject
 90
      499
 91
      503
 93
      113
310
904313A34304000000000000444000
  0
ACAD_PROXY_OBJECT
  5
52
102
{ACAD_REACTORS
330
47
102
}
330
47
100
AcDbProxyObject
 90
      499
 91
      503
 93
      113
310
904313A35304000000000000494000
  0
ACAD_PROXY_OBJECT
  5
53
102
{ACAD_REACTORS
330
47
102
}
330
47
100
AcDbProxyObject
 90
      499
 91
      503
 93
      121
310
905313A3130304000000000000594000
  0
ACAD_PROXY_OBJECT
  5
54
102
{ACAD_REACTORS
330
47
102
}
330
47
100
AcDbProxyObject
 90
      499
 91
      503
 93
      105
310
903323A310000000000000010100
  0
ACAD_PROXY_OBJECT
  5
55
102
{ACAD_REACTORS
330
47
102
}
330
47
100
AcDbProxyObject
 90
      499
 91
      503
 93
      105
310
903343A310000000000000410100
  0
ACAD_PROXY_OBJECT
  5
56
102
{ACAD_REACTORS
330
47
102
}
330
47
100
AcDbProxyObject
 90
      499
 91
      503
 93
      105
310
903383A310000000000000810100
  0
ACAD_PROXY_OBJECT
  5
57
102
{ACAD_REACTORS
330
47
102
}
330
47
100
AcDbProxyObject
 90
      499
 91
      503
 93
      113
310
90431303A310000000000000910100
  0
ACAD_PROXY_OBJECT
  5
58
102
{ACAD_REACTORS
330
47
102
}
330
47
100
AcDbProxyObject
 90
      499
 91
      503
 93
      121
310
9053130303A310000000000001650100
  0
ACAD_PROXY_OBJECT
  5
59
102
{ACAD_REACTORS
330
47
102
}
330
47
100
AcDbProxyObject
 90
      499
 91
      503
 93
      257
310
90E312F31323822203D2031272D3022000000000000200FC000000000000284000
  0
ACAD_PROXY_OBJECT
  5
5A
102
{ACAD_REACTORS
330
47
102
}
330
47
100
AcDbProxyObject
 90
      499
 91
      503
 93
      249
310
90D312F363422203D2031272D3022000000000000240FC000000000000284000
  0
ACAD_PROXY_OBJECT
  5
5B
102
{ACAD_REACTORS
330
47
102
}
330
47
100
AcDbProxyObject
 90
      499
 91
      503
 93
      249
310
90D312F333222203D2031272D3022000000000000280FC000000000000284000
  0
ACAD_PROXY_OBJECT
  5
5C
102
{ACAD_REACTORS
330
47
102
}
330
47
100
AcDbProxyObject
 90
      499
 91
      503
 93
      249
310
90D312F313622203D2031272D30220000000000002C0FC000000000000284000
  0
ACAD_PROXY_OBJECT
  5
5D
102
{ACAD_REACTORS
330
47
102
}
330
47
100
AcDbProxyObject
 90
      499
 91
      503
 93
      249
310
90D332F333222203D2031272D30220000000000002E0FC000000000000284000
  0
ACAD_PROXY_OBJECT
  5
5E
102
{ACAD_REACTORS
330
47
102
}
330
47
100
AcDbProxyObject
 90
      499
 91
      503
 93
      241
310
90C312F3822203D2031272D3022000000000000300FC000000000000284000
  0
ACAD_PROXY_OBJECT
  5
5F
102
{ACAD_REACTORS
330
47
102
}
330
47
100
AcDbProxyObject
 90
      499
 91
      503
 93
      249
310
90D332F313622203D2031272D3022000000000000320FC000000000000284000
  0
ACAD_PROXY_OBJECT
  5
60
102
{ACAD_REACTORS
330
47
102
}
330
47
100
AcDbProxyObject
 90
      499
 91
      503
 93
      241
310
90C312F3422203D2031272D3022000000000000340FC000000000000284000
  0
ACAD_PROXY_OBJECT
  5
61
102
{ACAD_REACTORS
330
47
102
}
330
47
100
AcDbProxyObject
 90
      499
 91
      503
 93
      241
310
90C332F3822203D2031272D3022000000000000360FC000000000000284000
  0
ACAD_PROXY_OBJECT
  5
62
102
{ACAD_REACTORS
330
47
102
}
330
47
100
AcDbProxyObject
 90
      499
 91
      503
 93
      241
310
90C312F3222203D2031272D3022000000000000380FC000000000000284000
  0
ACAD_PROXY_OBJECT
  5
63
102
{ACAD_REACTORS
330
47
102
}
330
47
100
AcDbProxyObject
 90
      499
 91
      503
 93
      241
310
90C332F3422203D2031272D30220000000000003A0FC000000000000284000
  0
ACAD_PROXY_OBJECT
  5
64
102
{ACAD_REACTORS
330
47
102
}
330
47
100
AcDbProxyObject
 90
      499
 91
      503
 93
      161
310
90A3122203D2031272D30224000000000000284000
  0
ACAD_PROXY_OBJECT
  5
65
102
{ACAD_REACTORS
330
47
102
}
330
47
100
AcDbProxyObject
 90
      499
 91
      503
 93
      257
310
90E312D312F3222203D2031272D30220000000000003E0FC000000000000284000
  0
ACAD_PROXY_OBJECT
  5
66
102
{ACAD_REACTORS
330
47
102
}
330
47
100
AcDbProxyObject
 90
      499
 91
      503
 93
      225
310
90A3322203D2031272D302200000000000002100000000000000284000
  0
ACAD_PROXY_OBJECT
  5
67
102
{ACAD_REACTORS
330
47
102
}
330
47
100
AcDbProxyObject
 90
      499
 91
      503
 93
      225
310
90A3622203D2031272D302200000000000006100000000000000284000
  0
ACAD_PROXY_OBJECT
  5
68
102
{ACAD_REACTORS
330
47
102
}
330
47
100
AcDbProxyObject
 90
      499
 91
      503
 93
      249
310
90D31272D3022203D2031272D30220000000000000A100000000000000284000
  0
ACAD_PROXY_OBJECT
  5
2F
102
{ACAD_REACTORS
330
2A
102
}
330
2A
100
AcDbProxyObject
 90
      499
 91
      501
 93
      436
310
42CC9915DA5C99599C985B595049028333333333333E33F0000000000000F90107901411070040501600405405064090741402480A0340
1001
ACAD
1000
AcDbSavedByObjectVersion
1070
     0
  0
ACAD_PROXY_OBJECT
  5
32
102
{ACAD_REACTORS
330
2A
102
}
330
2A
100
AcDbProxyObject
 90
      499
 91
      501
 93
      388
310
4150985CDA58D07406404333333333333E33F0000000000000F90107A41107004050150841D405064090741402480A0350
1001
ACAD
1000
AcDbSavedByObjectVersion
1070
     0
  0
ACAD_PROXY_OBJECT
  5
36
102
{ACAD_REACTORS
330
2A
102
}
330
2A
100
AcDbProxyObject
 90
      499
 91
      501
 93
      428
310
42109C9A59DA1D195B90C409028333333333333E33F0000000000000F9010790141107004050150841D405064090741402480A029950
1001
ACAD
1000
AcDbSavedByObjectVersion
1070
     0
  0
ACAD_PROXY_OBJECT
  5
3A
102
{ACAD_REACTORS
330
2A
102
}
330
2A
100
AcDbProxyObject
 90
      499
 91
      501
 93
      452
310
42D0DBDB1BDC90DA185B99D95104090240C333333333333E33F0000000000000F90108901411070040501508421405064090741402480A0350
1001
ACAD
1000
AcDbSavedByObjectVersion
1070
     0
  0
ACAD_PROXY_OBJECT
  5
34
102
{ACAD_REACTORS
330
2A
102
}
330
2A
100
AcDbProxyObject
 90
      499
 91
      501
 93
      500
310
4290DBDB98D95C1D1D585B10940D028333333333333E33F0000000000000F90107902409070040501000000000018199010841D405064090740C02480A0340
1001
ACAD
1000
AcDbSavedByObjectVersion
1070
     0
  0
ACAD_PROXY_OBJECT
  5
35
102
{ACAD_REACTORS
330
2A
102
}
330
2A
100
AcDbProxyObject
 90
      499
 91
      501
 93
      412
310
40D11A5B50B409028333333333333E33F0000000000000F9010790141107004050150841D405064090741402480A02677FFFFFD0
1001
ACAD
1000
AcDbSavedByObjectVersion
1070
     0
  0
ACAD_PROXY_OBJECT
  5
3D
102
{ACAD_REACTORS
330
2A
102
}
330
2A
100
AcDbProxyObject
 90
      499
 91
      501
 93
      452
310
43115919D950DBDB1BDC93D999916409028333333333333E33F0000000000000F9010790141107004050150841D405064090741402480A0350
1001
ACAD
1000
AcDbSavedByObjectVersion
1070
     0
  0
ACAD_PROXY_OBJECT
  5
39
102
{ACAD_REACTORS
330
2A
102
}
330
2A
100
AcDbProxyObject
 90
      499
 91
      501
 93
      444
310
42D19858D95C185D1D195C9B90F409028333333333333E33F0000000000000F9010790141107004050150841D405064090741402480A0350
1001
ACAD
1000
AcDbSavedByObjectVersion
1070
     0
  0
ACAD_PROXY_OBJECT
  5
2B
102
{ACAD_REACTORS
330
2A
102
}
330
2A
100
AcDbProxyObject
 90
      499
 91
      501
 93
      380
310
41119B185D240901404333333333333E33F0000000000000F9010740A907004050150841D405064090741402480A1B50
1001
ACAD
1000
AcDbSavedByObjectVersion
1070
     0
  0
ACAD_PROXY_OBJECT
  5
2C
102
{ACAD_REACTORS
330
2A
102
}
330
2A
100
AcDbProxyObject
 90
      499
 91
      501
 93
      468
310
43519B185D15DA5D1A115919D95CD0140901404333333333333E33F0000000000000F90107409019070040501600405405064090741402480A1B50
1001
ACAD
1000
AcDbSavedByObjectVersion
1070
     0
  0
ACAD_PROXY_OBJECT
  5
2D
102
{ACAD_REACTORS
330
2A
102
}
330
2A
100
AcDbProxyObject
 90
      499
 91
      501
 93
      404
310
41D1DBDD5C985D5910240902404333333333333E33F0000000000000F9010740A9070040501641D405064090741402480A1B50
1001
ACAD
1000
AcDbSavedByObjectVersion
1070
     0
  0
ACAD_PROXY_OBJECT
  5
2E
102
{ACAD_REACTORS
330
2A
102
}
330
2A
100
AcDbProxyObject
 90
      499
 91
      501
 93
      492
310
4411DBDD5C985D5915DA5D1A115919D95CD0340902404333333333333E33F0000000000000F90107409019070040501600405405064090741402480A1B50
1001
ACAD
1000
AcDbSavedByObjectVersion
1070
     0
  0
ACAD_PROXY_OBJECT
  5
31
102
{ACAD_REACTORS
330
2A
102
}
330
2A
100
AcDbProxyObject
 90
      499
 91
      501
 93
      476
310
41921A5919195B90640502408333333333333E33F0000000000000F901079024090700405020000000000001110200405405064090740C02480A0340
1001
ACAD
1000
AcDbSavedByObjectVersion
1070
     0
  0
ACAD_PROXY_OBJECT
  5
3B
102
{ACAD_REACTORS
330
2A
102
}
330
2A
100
AcDbProxyObject
 90
      499
 91
      501
 93
      428
310
42529A5D1D195C93D999914409028333333333333E33F0000000000000F9010790141107004050150A41D405064090741402480A0350
1001
ACAD
1000
AcDbSavedByObjectVersion
1070
     0
  0
ACAD_PROXY_OBJECT
  5
38
102
{ACAD_REACTORS
330
2A
102
}
330
2A
100
AcDbProxyObject
 90
      499
 91
      501
 93
      444
310
42D31A5B995C185D1D195C9B90E409028333333333333E33F0000000000000F9010790141107004050750841D405064090741402483A0350
1001
ACAD
1000
AcDbSavedByObjectVersion
1070
     0
  0
ACAD_PROXY_OBJECT
  5
3C
102
{ACAD_REACTORS
330
2A
102
}
330
2A
100
AcDbProxyObject
 90
      499
 91
      501
 93
      444
310
42D3DD995C9A185B99D3D999915409028333333333333E33F0000000000000F9010790141107004050150941D405064090741402480A0350
1001
ACAD
1000
AcDbSavedByObjectVersion
1070
     0
  0
ACAD_PROXY_OBJECT
  5
33
102
{ACAD_REACTORS
330
2A
102
}
330
2A
100
AcDbProxyObject
 90
      499
 91
      501
 93
      428
310
425499585B1A5CDD1A58D08409038333333333333E33F0000000000000F9010740A907004050150800405405064090740C02480A1B40
1001
ACAD
1000
AcDbSavedByObjectVersion
1070
     0
  0
ACAD_PROXY_OBJECT
  5
42
102
{ACAD_REACTORS
330
2A
102
}
330
2A
100
AcDbProxyObject
 90
      499
 91
      501
 93
      420
310
4194DA1859195911B40902404333333333333E33F0000000000000F9010740A41107004050150800405405064090840C02480A0B40
1001
ACAD
1000
AcDbSavedByObjectVersion
1070
     0
  0
ACAD_PROXY_OBJECT
  5
41
102
{ACAD_REACTORS
330
2A
102
}
330
2A
100
AcDbProxyObject
 90
      499
 91
      501
 93
      516
310
4454DA18591959081DDA5D1A08195919D95CD1A40902404333333333333E33F0000000000000F901074090142907004050250800405405064090740C02480A0B40
1001
ACAD
1000
AcDbSavedByObjectVersion
1070
     0
  0
ACAD_PROXY_OBJECT
  5
3E
102
{ACAD_REACTORS
330
2A
102
}
330
2A
100
AcDbProxyObject
 90
      499
 91
      501
 93
      532
310
4394DA1859195CC81BD98811DC985E5174090240C333333333333E33F0000000000000F901079024090741D01000000000000111010841D405064090740C02480A0340
1001
ACAD
1000
AcDbSavedByObjectVersion
1070
     0
  0
ACAD_PROXY_OBJECT
  5
3F
102
{ACAD_REACTORS
330
2A
102
}
330
2A
100
AcDbProxyObject
 90
      499
 91
      501
 93
      476
310
41D4DAD95D18DA1E51840502408333333333333E33F0000000000000F901079024090741D01000000000000111010B41D405064090741802480A0340
1001
ACAD
1000
AcDbSavedByObjectVersion
1070
     0
  0
ACAD_PROXY_OBJECT
  5
37
102
{ACAD_REACTORS
330
2A
102
}
330
2A
100
AcDbProxyObject
 90
      499
 91
      501
 93
      412
310
41D51A1A58DAD95B90D409028333333333333E33F0000000000000F9010790141107004050150C41D405064090741402480A0350
1001
ACAD
1000
AcDbSavedByObjectVersion
1070
     0
  0
ACAD_PROXY_OBJECT
  5
30
102
{ACAD_REACTORS
330
2A
102
}
330
2A
100
AcDbProxyObject
 90
      499
 91
      501
 93
      420
310
4255DA5C99599C985B595059028333333333333E33F0000000000000F90107901411070040501600405405064090740C02480A0340
1001
ACAD
1000
AcDbSavedByObjectVersion
1070
     0
  0
ACAD_PROXY_OBJECT
  5
40
102
{ACAD_REACTORS
330
2A
102
}
330
2A
100
AcDbProxyObject
 90
      499
 91
      501
 93
      404
310
41560B54985E51940902404000000000000E03F0000000000000F9010740501907004050150841D405064090740C02480A1B40
1001
ACAD
1000
AcDbSavedByObjectVersion
1070
     0
  0
XRECORD
  5
504
102
{ACAD_REACTORS
330
4FA
102
}
330
4FA
100
AcDbXrecord
340
0
  0
XRECORD
  5
503
102
{ACAD_REACTORS
330
4FA
102
}
330
4FA
100
AcDbXrecord
 90
        0
  0
XRECORD
  5
51A
102
{ACAD_REACTORS
330
4FA
102
}
330
4FA
100
AcDbXrecord
1000
DSTYLE
1002
{
1070
   340
340
11
1002
}
  0
XRECORD
  5
505
102
{ACAD_REACTORS
330
4FA
102
}
330
4FA
100
AcDbXrecord
  1
{ba010706-a7ae-4af1-b3b0-e6161c3387d0}
  0
XRECORD
  5
4FD
102
{ACAD_REACTORS
330
4FA
102
}
330
4FA
100
AcDbXrecord
  1

  0
XRECORD
  5
502
102
{ACAD_REACTORS
330
4FA
102
}
330
4FA
100
AcDbXrecord
 90
        4
  0
XRECORD
  5
4FF
102
{ACAD_REACTORS
330
4FA
102
}
330
4FA
100
AcDbXrecord
340
1A
  0
XRECORD
  5
501
102
{ACAD_REACTORS
330
4FA
102
}
330
4FA
100
AcDbXrecord
 90
    10781
  0
XRECORD
  5
500
102
{ACAD_REACTORS
330
4FA
102
}
330
4FA
100
AcDbXrecord
340
19
  0
XRECORD
  5
507
102
{ACAD_REACTORS
330
4FA
102
}
330
4FA
100
AcDbXrecord
 40
0.0
  0
XRECORD
  5
50A
102
{ACAD_REACTORS
330
4FA
102
}
330
4FA
100
AcDbXrecord
340
0
  0
XRECORD
  5
510
102
{ACAD_REACTORS
330
4FA
102
}
330
4FA
100
AcDbXrecord
 10
0.0
 20
0.0
 30
0.0
  0
XRECORD
  5
50C
102
{ACAD_REACTORS
330
4FA
102
}
330
4FA
100
AcDbXrecord
 10
0.0
 20
0.0
 30
0.0
  0
XRECORD
  5
50F
102
{ACAD_REACTORS
330
4FA
102
}
330
4FA
100
AcDbXrecord
 10
0.0
 20
0.0
 30
0.0
  0
XRECORD
  5
50D
102
{ACAD_REACTORS
330
4FA
102
}
330
4FA
100
AcDbXrecord
 10
0.0
 20
0.0
 30
0.0
  0
XRECORD
  5
50E
102
{ACAD_REACTORS
330
4FA
102
}
330
4FA
100
AcDbXrecord
 10
0.0
 20
0.0
 30
0.0
  0
XRECORD
  5
50B
102
{ACAD_REACTORS
330
4FA
102
}
330
4FA
100
AcDbXrecord
 10
0.0
 20
0.0
 30
0.0
  0
XRECORD
  5
508
102
{ACAD_REACTORS
330
4FA
102
}
330
4FA
100
AcDbXrecord
340
0
  0
XRECORD
  5
509
102
{ACAD_REACTORS
330
4FA
102
}
330
4FA
100
AcDbXrecord
 70
     0
  0
XRECORD
  5
4FE
102
{ACAD_REACTORS
330
4FA
102
}
330
4FA
100
AcDbXrecord
  1

  0
XRECORD
  5
4FB
102
{ACAD_REACTORS
330
4FA
102
}
330
4FA
100
AcDbXrecord
 90
        1
  0
XRECORD
  5
4FC
102
{ACAD_REACTORS
330
4FA
102
}
330
4FA
100
AcDbXrecord
 90
       70
  0
XRECORD
  5
513
102
{ACAD_REACTORS
330
4FA
102
}
330
4FA
100
AcDbXrecord
340
0
  0
XRECORD
  5
519
102
{ACAD_REACTORS
330
4FA
102
}
330
4FA
100
AcDbXrecord
 10
0.0
 20
0.0
 30
0.0
  0
XRECORD
  5
515
102
{ACAD_REACTORS
330
4FA
102
}
330
4FA
100
AcDbXrecord
 10
0.0
 20
0.0
 30
0.0
  0
XRECORD
  5
518
102
{ACAD_REACTORS
330
4FA
102
}
330
4FA
100
AcDbXrecord
 10
0.0
 20
0.0
 30
0.0
  0
XRECORD
  5
516
102
{ACAD_REACTORS
330
4FA
102
}
330
4FA
100
AcDbXrecord
 10
0.0
 20
0.0
 30
0.0
  0
XRECORD
  5
517
102
{ACAD_REACTORS
330
4FA
102
}
330
4FA
100
AcDbXrecord
 10
0.0
 20
0.0
 30
0.0
  0
XRECORD
  5
514
102
{ACAD_REACTORS
330
4FA
102
}
330
4FA
100
AcDbXrecord
 10
0.0
 20
0.0
 30
0.0
  0
XRECORD
  5
511
102
{ACAD_REACTORS
330
4FA
102
}
330
4FA
100
AcDbXrecord
340
0
  0
XRECORD
  5
512
102
{ACAD_REACTORS
330
4FA
102
}
330
4FA
100
AcDbXrecord
 70
     0
  0
XRECORD
  5
506
102
{ACAD_REACTORS
330
4FA
102
}
330
4FA
100
AcDbXrecord
  1
{FAEB1C32-E019-11D5-929B-00C0DF256EC4}
  0
DICTIONARYVAR
  5
528
102
{ACAD_REACTORS
330
51B
102
}
330
51B
100
DictionaryVariables
280
     0
  1
1:1
  0
DICTIONARYVAR
  5
522
102
{ACAD_REACTORS
330
51B
102
}
330
51B
100
DictionaryVariables
280
     0
  1
3.500000
  0
DICTIONARYVAR
  5
523
102
{ACAD_REACTORS
330
51B
102
}
330
51B
100
DictionaryVariables
280
     0
  1
acadiso.lin
  0
DICTIONARYVAR
  5
51D
102
{ACAD_REACTORS
330
51B
102
}
330
51B
100
DictionaryVariables
280
     0
  1
Standard
  0
DICTIONARYVAR
  5
51C
102
{ACAD_REACTORS
330
51B
102
}
330
51B
100
DictionaryVariables
280
     0
  1
Standard
  0
DICTIONARYVAR
  5
524
102
{ACAD_REACTORS
330
51B
102
}
330
51B
100
DictionaryVariables
280
     0
  1
2
  0
DICTIONARYVAR
  5
525
102
{ACAD_REACTORS
330
51B
102
}
330
51B
100
DictionaryVariables
280
     0
  1
1
  0
DICTIONARYVAR
  5
529
102
{ACAD_REACTORS
330
51B
102
}
330
51B
100
DictionaryVariables
280
     0
  1
1
  0
DICTIONARYVAR
  5
51F
102
{ACAD_REACTORS
330
51B
102
}
330
51B
100
DictionaryVariables
280
     0
  1
80.000000
  0
DICTIONARYVAR
  5
51E
102
{ACAD_REACTORS
330
51B
102
}
330
51B
100
DictionaryVariables
280
     0
  1
5.000000
  0
DICTIONARY
  5
52C
330
45
100
AcDbDictionary
280
     1
  3
ACAD_XREC_ROUNDTRIP
360
52D
  0
DICTIONARY
  5
52A
330
44
100
AcDbDictionary
280
     1
  3
ACAD_XREC_ROUNDTRIP
360
52B
  0
DICTIONARY
  5
52E
330
46
100
AcDbDictionary
280
     1
  3
ACAD_XREC_ROUNDTRIP
360
52F
  0
XRECORD
  5
52D
102
{ACAD_REACTORS
330
52C
102
}
330
52C
100
AcDbXrecord
102
MATERIAL
148
0.0
149
0.0
149
0.0
 93
        0
 94
      127
282
     0
 72
     1
 77
     1
171
     1
175
     1
179
     1
273
     0
  0
XRECORD
  5
52B
102
{ACAD_REACTORS
330
52A
102
}
330
52A
100
AcDbXrecord
102
MATERIAL
148
0.0
149
0.0
149
0.0
 93
        0
 94
      127
282
     0
 72
     1
 77
     1
171
     1
175
     1
179
     1
273
     0
  0
XRECORD
  5
52F
102
{ACAD_REACTORS
330
52E
102
}
330
52E
100
AcDbXrecord
102
MATERIAL
148
0.0
149
0.0
149
0.0
 93
        0
 94
      127
282
     0
 72
     1
 77
     1
171
     1
175
     1
179
     1
273
     0
  0
ENDSEC
  0
EOF
