  0
SECTION
  2
HEADER
  9
$ACADVER
  1
AC1014
  9
$ACADMAINTVER
 70
     9
  9
$DWGCODEPAGE
  3
ANSI_932
  9
$INSBASE
 10
0.0
 20
0.0
 30
0.0
  9
$EXTMIN
 10
30.0
 20
30.0
 30
0.0
  9
$EXTMAX
 10
1230.0
 20
861.0
 30
0.0
  9
$LIMMIN
 10
0.0
 20
0.0
  9
$LIMMAX
 10
420.0
 20
297.0
  9
$ORTHOMODE
 70
     0
  9
$REGENMODE
 70
     1
  9
$FILLMODE
 70
     1
  9
$QTEXTMODE
 70
     0
  9
$MIRRTEXT
 70
     1
  9
$DRAGMODE
 70
     2
  9
$LTSCALE
 40
1.0
  9
$OSMODE
 70
    37
  9
$ATTMODE
 70
     1
  9
$TEXTSIZE
 40
2.5
  9
$TRACEWID
 40
1.0
  9
$TEXTSTYLE
  7
STANDARD
  9
$CLAYER
  8
Ｓ_１_１
  9
$CELTYPE
  6
BYLAYER
  9
$CECOLOR
 62
   256
  9
$CELTSCALE
 40
1.0
  9
$DELOBJ
 70
     1
  9
$DISPSILH
 70
     0
  9
$DIMSCALE
 40
1.0
  9
$DIMASZ
 40
2.5
  9
$DIMEXO
 40
0.625
  9
$DIMDLI
 40
3.75
  9
$DIMRND
 40
0.0
  9
$DIMDLE
 40
0.0
  9
$DIMEXE
 40
1.25
  9
$DIMTP
 40
0.0
  9
$DIMTM
 40
0.0
  9
$DIMTXT
 40
2.5
  9
$DIMCEN
 40
2.5
  9
$DIMTSZ
 40
0.0
  9
$DIMTOL
 70
     0
  9
$DIMLIM
 70
     0
  9
$DIMTIH
 70
     0
  9
$DIMTOH
 70
     0
  9
$DIMSE1
 70
     0
  9
$DIMSE2
 70
     0
  9
$DIMTAD
 70
     1
  9
$DIMZIN
 70
     8
  9
$DIMBLK
  1

  9
$DIMASO
 70
     1
  9
$DIMSHO
 70
     1
  9
$DIMPOST
  1

  9
$DIMAPOST
  1

  9
$DIMALT
 70
     0
  9
$DIMALTD
 70
     3
  9
$DIMALTF
 40
0.03937007874016
  9
$DIMLFAC
 40
1.0
  9
$DIMTOFL
 70
     1
  9
$DIMTVP
 40
0.0
  9
$DIMTIX
 70
     0
  9
$DIMSOXD
 70
     0
  9
$DIMSAH
 70
     0
  9
$DIMBLK1
  1

  9
$DIMBLK2
  1

  9
$DIMSTYLE
  2
ISO-25
  9
$DIMCLRD
 70
     0
  9
$DIMCLRE
 70
     0
  9
$DIMCLRT
 70
     0
  9
$DIMTFAC
 40
1.0
  9
$DIMGAP
 40
0.625
  9
$DIMJUST
 70
     0
  9
$DIMSD1
 70
     0
  9
$DIMSD2
 70
     0
  9
$DIMTOLJ
 70
     0
  9
$DIMTZIN
 70
     8
  9
$DIMALTZ
 70
     0
  9
$DIMALTTZ
 70
     0
  9
$DIMFIT
 70
     3
  9
$DIMUPT
 70
     0
  9
$DIMUNIT
 70
     2
  9
$DIMDEC
 70
     2
  9
$DIMTDEC
 70
     2
  9
$DIMALTU
 70
     2
  9
$DIMALTTD
 70
     3
  9
$DIMTXSTY
  7
STANDARD
  9
$DIMAUNIT
 70
     0
  9
$LUNITS
 70
     2
  9
$LUPREC
 70
     4
  9
$SKETCHINC
 40
1.0
  9
$FILLETRAD
 40
10.0
  9
$AUNITS
 70
     0
  9
$AUPREC
 70
     0
  9
$MENU
  1
.
  9
$ELEVATION
 40
0.0
  9
$PELEVATION
 40
0.0
  9
$THICKNESS
 40
0.0
  9
$LIMCHECK
 70
     0
  9
$CHAMFERA
 40
0.0
  9
$CHAMFERB
 40
0.0
  9
$CHAMFERC
 40
0.0
  9
$CHAMFERD
 40
0.0
  9
$SKPOLY
 70
     0
  9
$TDCREATE
 40
2459585.497340683
  9
$TDUPDATE
 40
2459585.497341725
  9
$TDINDWG
 40
0.0000000116
  9
$TDUSRTIMER
 40
0.0000000116
  9
$USRTIMER
 70
     1
  9
$ANGBASE
 50
0.0
  9
$ANGDIR
 70
     0
  9
$PDMODE
 70
     0
  9
$PDSIZE
 40
0.0
  9
$PLINEWID
 40
0.0
  9
$COORDS
 70
     1
  9
$SPLFRAME
 70
     0
  9
$SPLINETYPE
 70
     6
  9
$SPLINESEGS
 70
     8
  9
$ATTDIA
 70
     0
  9
$ATTREQ
 70
     1
  9
$HANDLING
 70
     1
  9
$HANDSEED
  5
49C
  9
$SURFTAB1
 70
     6
  9
$SURFTAB2
 70
     6
  9
$SURFTYPE
 70
     6
  9
$SURFU
 70
     6
  9
$SURFV
 70
     6
  9
$UCSNAME
  2

  9
$UCSORG
 10
0.0
 20
0.0
 30
0.0
  9
$UCSXDIR
 10
1.0
 20
0.0
 30
0.0
  9
$UCSYDIR
 10
0.0
 20
1.0
 30
0.0
  9
$PUCSNAME
  2

  9
$PUCSORG
 10
0.0
 20
0.0
 30
0.0
  9
$PUCSXDIR
 10
1.0
 20
0.0
 30
0.0
  9
$PUCSYDIR
 10
0.0
 20
1.0
 30
0.0
  9
$USERI1
 70
     0
  9
$USERI2
 70
     0
  9
$USERI3
 70
     0
  9
$USERI4
 70
     0
  9
$USERI5
 70
     0
  9
$USERR1
 40
0.0
  9
$USERR2
 40
0.0
  9
$USERR3
 40
0.0
  9
$USERR4
 40
0.0
  9
$USERR5
 40
0.0
  9
$WORLDVIEW
 70
     1
  9
$SHADEDGE
 70
     3
  9
$SHADEDIF
 70
    70
  9
$TILEMODE
 70
     1
  9
$MAXACTVP
 70
    64
  9
$PINSBASE
 10
0.0
 20
0.0
 30
0.0
  9
$PLIMCHECK
 70
     0
  9
$PEXTMIN
 10
1.000000000000000E+20
 20
1.000000000000000E+20
 30
1.000000000000000E+20
  9
$PEXTMAX
 10
-1.000000000000000E+20
 20
-1.000000000000000E+20
 30
-1.000000000000000E+20
  9
$PLIMMIN
 10
0.0
 20
0.0
  9
$PLIMMAX
 10
420.0
 20
297.0
  9
$UNITMODE
 70
     0
  9
$VISRETAIN
 70
     1
  9
$PLINEGEN
 70
     0
  9
$PSLTSCALE
 70
     1
  9
$TREEDEPTH
 70
  3020
  9
$PICKSTYLE
 70
     1
  9
$CMLSTYLE
  2
STANDARD
  9
$CMLJUST
 70
     0
  9
$CMLSCALE
 40
20.0
  9
$PROXYGRAPHICS
 70
     1
  9
$MEASUREMENT
 70
     1
  0
ENDSEC
  0
SECTION
  2
CLASSES
  0
CLASS
  1
ACDBDICTIONARYWDFLT
  2
AcDbDictionaryWithDefault
  3
ObjectDBX Classes
 90
        0
280
     0
281
     0
  0
CLASS
  1
VISUALSTYLE
  2
AcDbVisualStyle
  3
ObjectDBX Classes
 90
     4095
280
     0
281
     0
  0
CLASS
  1
MATERIAL
  2
AcDbMaterial
  3
ObjectDBX Classes
 90
     1153
280
     0
281
     0
  0
CLASS
  1
SCALE
  2
AcDbScale
  3
ObjectDBX Classes
 90
     1153
280
     0
281
     0
  0
CLASS
  1
TABLESTYLE
  2
AcDbTableStyle
  3
ObjectDBX Classes
 90
     4095
280
     0
281
     0
  0
CLASS
  1
MLEADERSTYLE
  2
AcDbMLeaderStyle
  3
ACDB_MLEADERSTYLE_CLASS
 90
     4095
280
     0
281
     0
  0
CLASS
  1
SUN
  2
AcDbSun
  3
SCENEOE
 90
     1153
280
     0
281
     0
  0
CLASS
  1
DICTIONARYVAR
  2
AcDbDictionaryVar
  3
ObjectDBX Classes
 90
        0
280
     0
281
     0
  0
CLASS
  1
XRECORD
  2
AcDbXrecord
  3
ObjectDBX Classes
 90
        0
280
     0
281
     0
  0
CLASS
  1
LWPOLYLINE
  2
AcDbPolyline
  3
ObjectDBX Classes
 90
        0
280
     0
281
     1
  0
CLASS
  1
HATCH
  2
AcDbHatch
  3
ObjectDBX Classes
 90
        0
280
     0
281
     1
  0
CLASS
  1
ACDBPLACEHOLDER
  2
AcDbPlaceHolder
  3
ObjectDBX Classes
 90
        0
280
     0
281
     0
  0
CLASS
  1
LAYOUT
  2
AcDbLayout
  3
ObjectDBX Classes
 90
        0
280
     0
281
     0
  0
ENDSEC
  0
SECTION
  2
TABLES
  0
TABLE
  2
VPORT
  5
8
102
{ACAD_XDICTIONARY
360
491
102
}
330
0
100
AcDbSymbolTable
 70
     1
  0
VPORT
  5
29
330
8
100
AcDbSymbolTableRecord
100
AcDbViewportTableRecord
  2
*ACTIVE
 70
     0
 10
0.0
 20
0.0
 11
1.0
 21
1.0
 12
630.0
 22
445.5
 13
0.0
 23
0.0
 14
10.0
 24
10.0
 15
10.0
 25
10.0
 16
0.0
 26
0.0
 36
1.0
 17
0.0
 27
0.0
 37
0.0
 40
831.0
 41
1.444043321299639
 42
50.0
 43
0.0
 44
0.0
 50
0.0
 51
0.0
 71
     0
 72
  1000
 73
     1
 74
     3
 75
     0
 76
     0
 77
     0
 78
     0
  0
ENDTAB
  0
TABLE
  2
LTYPE
  5
5
330
0
100
AcDbSymbolTable
 70
     7
  0
LTYPE
  5
14
330
5
100
AcDbSymbolTableRecord
100
AcDbLinetypeTableRecord
  2
BYBLOCK
 70
     0
  3

 72
    65
 73
     0
 40
0.0
  0
LTYPE
  5
15
330
5
100
AcDbSymbolTableRecord
100
AcDbLinetypeTableRecord
  2
BYLAYER
 70
     0
  3

 72
    65
 73
     0
 40
0.0
  0
LTYPE
  5
16
330
5
100
AcDbSymbolTableRecord
100
AcDbLinetypeTableRecord
  2
CONTINUOUS
 70
     0
  3
Solid line
 72
    65
 73
     0
 40
0.0
  0
LTYPE
  5
6E
330
5
100
AcDbSymbolTableRecord
100
AcDbLinetypeTableRecord
  2
EXLTYPE0
 70
     0
  3
破線
 72
    65
 73
     2
 40
4.0
 49
3.0
 74
     0
 49
-1.0
 74
     0
  0
LTYPE
  5
6F
330
5
100
AcDbSymbolTableRecord
100
AcDbLinetypeTableRecord
  2
EXLTYPE1
 70
     0
  3
点線
 72
    65
 73
     2
 40
2.0
 49
1.0
 74
     0
 49
-1.0
 74
     0
  0
LTYPE
  5
70
330
5
100
AcDbSymbolTableRecord
100
AcDbLinetypeTableRecord
  2
EXLTYPE2
 70
     0
  3
一点鎖線
 72
    65
 73
     4
 40
13.0
 49
10.0
 74
     0
 49
-1.0
 74
     0
 49
1.0
 74
     0
 49
-1.0
 74
     0
  0
LTYPE
  5
71
330
5
100
AcDbSymbolTableRecord
100
AcDbLinetypeTableRecord
  2
EXLTYPE3
 70
     0
  3
二点鎖線
 72
    65
 73
     6
 40
15.0
 49
10.0
 74
     0
 49
-1.0
 74
     0
 49
1.0
 74
     0
 49
-1.0
 74
     0
 49
1.0
 74
     0
 49
-1.0
 74
     0
  0
LTYPE
  5
72
330
5
100
AcDbSymbolTableRecord
100
AcDbLinetypeTableRecord
  2
EXLTYPE4
 70
     0
  3
一点鎖線2
 72
    65
 73
     4
 40
3.5
 49
2.0
 74
     0
 49
-0.5
 74
     0
 49
0.5
 74
     0
 49
-0.5
 74
     0
  0
LTYPE
  5
73
330
5
100
AcDbSymbolTableRecord
100
AcDbLinetypeTableRecord
  2
EXLTYPE5
 70
     0
  3
二点鎖線2
 72
    65
 73
     6
 40
4.5
 49
2.0
 74
     0
 49
-0.5
 74
     0
 49
0.5
 74
     0
 49
-0.5
 74
     0
 49
0.5
 74
     0
 49
-0.5
 74
     0
  0
ENDTAB
  0
TABLE
  2
LAYER
  5
2
330
0
100
AcDbSymbolTable
 70
     4
  0
LAYER
  5
10
330
2
100
AcDbSymbolTableRecord
100
AcDbLayerTableRecord
  2
0
 70
     0
 62
     7
  6
CONTINUOUS
  0
LAYER
  5
76
330
2
100
AcDbSymbolTableRecord
100
AcDbLayerTableRecord
  2
図面枠
 70
     4
 62
     7
  6
CONTINUOUS
  0
LAYER
  5
77
330
2
100
AcDbSymbolTableRecord
100
AcDbLayerTableRecord
  2
Ｓ_１_１
 70
     0
 62
     7
  6
CONTINUOUS
  0
LAYER
  5
129
330
2
100
AcDbSymbolTableRecord
100
AcDbLayerTableRecord
  2
DEFPOINTS
 70
     0
 62
     7
  6
CONTINUOUS
  0
ENDTAB
  0
TABLE
  2
STYLE
  5
3
330
0
100
AcDbSymbolTable
 70
     5
  0
STYLE
  5
11
330
3
100
AcDbSymbolTableRecord
100
AcDbTextStyleTableRecord
  2
STANDARD
 70
     0
 40
0.0
 41
1.0
 50
0.0
 71
     0
 42
2.5
  3
monotxt
  4
extfont
  0
STYLE
  5
74
330
3
100
AcDbSymbolTableRecord
100
AcDbTextStyleTableRecord
  2
EXCADSTD
 70
     0
 40
0.0
 41
1.0
 50
0.0
 71
     0
 42
2.5
  3
monotxt
  4
extfont
  0
STYLE
  5
75
330
3
100
AcDbSymbolTableRecord
100
AcDbTextStyleTableRecord
  2
EXCADVERT
 70
     4
 40
0.0
 41
1.0
 50
0.0
 71
     0
 42
2.5
  3
monotxt
  4
extfont
  0
STYLE
  5
DD
330
3
100
AcDbSymbolTableRecord
100
AcDbTextStyleTableRecord
  2
EXCADTTF1
 70
     0
 40
0.0
 41
1.0
 50
0.0
 71
     0
 42
2.5
  3
msgothic.ttc
  4

1001
ACAD
1000
MS Gothic
1071
    32817
  0
STYLE
  5
127
330
3
100
AcDbSymbolTableRecord
100
AcDbTextStyleTableRecord
  2
EXCADDIM1
 70
     0
 40
0.0
 41
1.0
 50
0.0
 71
     0
 42
2.5
  3
msgothic.ttc
  4

1001
ACAD
1000
MS Gothic
1071
    32817
  0
ENDTAB
  0
TABLE
  2
VIEW
  5
6
330
0
100
AcDbSymbolTable
 70
     0
  0
ENDTAB
  0
TABLE
  2
UCS
  5
7
330
0
100
AcDbSymbolTable
 70
     0
  0
ENDTAB
  0
TABLE
  2
APPID
  5
9
330
0
100
AcDbSymbolTable
 70
     2
  0
APPID
  5
12
330
9
100
AcDbSymbolTableRecord
100
AcDbRegAppTableRecord
  2
ACAD
 70
     0
  0
APPID
  5
49B
330
9
100
AcDbSymbolTableRecord
100
AcDbRegAppTableRecord
  2
ACAD_MLEADERVER
 70
     0
  0
ENDTAB
  0
TABLE
  2
DIMSTYLE
  5
A
330
0
100
AcDbSymbolTable
 70
     1
  0
DIMSTYLE
105
27
102
{ACAD_REACTORS
330
128
330
133
330
140
330
14E
330
15A
330
167
330
174
330
3D0
330
3DD
330
3EA
330
3F7
330
404
330
411
330
41E
330
42D
330
43A
330
447
102
}
330
A
100
AcDbSymbolTableRecord
100
AcDbDimStyleTableRecord
  2
ISO-25
 70
     0
  3

  4

  5

  6

  7

 40
1.0
 41
2.5
 42
0.625
 43
3.75
 44
1.25
 45
0.0
 46
0.0
 47
0.0
 48
0.0
140
2.5
141
2.5
142
0.0
143
0.03937007874016
144
1.0
145
0.0
146
1.0
147
0.625
 71
     0
 72
     0
 73
     0
 74
     0
 75
     0
 76
     0
 77
     1
 78
     8
170
     0
171
     3
172
     1
173
     0
174
     0
175
     0
176
     0
177
     0
178
     0
270
     2
271
     2
272
     2
273
     2
274
     3
340
11
275
     0
280
     0
281
     0
282
     0
283
     0
284
     8
285
     0
286
     0
287
     5
288
     0
  0
ENDTAB
  0
TABLE
  2
BLOCK_RECORD
  5
1
330
0
100
AcDbSymbolTable
 70
    31
  0
BLOCK_RECORD
  5
1F
330
1
100
AcDbSymbolTableRecord
100
AcDbBlockTableRecord
  2
*MODEL_SPACE
  0
BLOCK_RECORD
  5
1B
330
1
100
AcDbSymbolTableRecord
100
AcDbBlockTableRecord
  2
*PAPER_SPACE
  0
BLOCK_RECORD
  5
78
330
1
100
AcDbSymbolTableRecord
100
AcDbBlockTableRecord
  2
EX_NORM
  0
BLOCK_RECORD
  5
7B
330
1
100
AcDbSymbolTableRecord
100
AcDbBlockTableRecord
  2
EX_BNORM
  0
BLOCK_RECORD
  5
7E
330
1
100
AcDbSymbolTableRecord
100
AcDbBlockTableRecord
  2
EX_BCIR
  0
BLOCK_RECORD
  5
81
330
1
100
AcDbSymbolTableRecord
100
AcDbBlockTableRecord
  2
EX_RCIVIL
  0
BLOCK_RECORD
  5
84
330
1
100
AcDbSymbolTableRecord
100
AcDbBlockTableRecord
  2
EX_SLANT
  0
BLOCK_RECORD
  5
87
330
1
100
AcDbSymbolTableRecord
100
AcDbBlockTableRecord
  2
EX_NONE
  0
BLOCK_RECORD
  5
8A
330
1
100
AcDbSymbolTableRecord
100
AcDbBlockTableRecord
  2
EX_CIVIL
  0
BLOCK_RECORD
  5
8D
330
1
100
AcDbSymbolTableRecord
100
AcDbBlockTableRecord
  2
EX_WCIR
  0
BLOCK_RECORD
  5
90
330
1
100
AcDbSymbolTableRecord
100
AcDbBlockTableRecord
  2
EX_WCIR2
  0
BLOCK_RECORD
  5
93
330
1
100
AcDbSymbolTableRecord
100
AcDbBlockTableRecord
  2
EX_WNORM
  0
BLOCK_RECORD
  5
96
330
1
100
AcDbSymbolTableRecord
100
AcDbBlockTableRecord
  2
EX_NNORM
  0
BLOCK_RECORD
  5
99
330
1
100
AcDbSymbolTableRecord
100
AcDbBlockTableRecord
  2
EX_BBOX
  0
BLOCK_RECORD
  5
9C
330
1
100
AcDbSymbolTableRecord
100
AcDbBlockTableRecord
  2
EX_WBOX
  0
BLOCK_RECORD
  5
9F
330
1
100
AcDbSymbolTableRecord
100
AcDbBlockTableRecord
  2
EX_INTEGRAL
  0
BLOCK_RECORD
  5
12A
330
1
100
AcDbSymbolTableRecord
100
AcDbBlockTableRecord
  2
*D15
  0
BLOCK_RECORD
  5
134
330
1
100
AcDbSymbolTableRecord
100
AcDbBlockTableRecord
  2
*D16
  0
BLOCK_RECORD
  5
141
330
1
100
AcDbSymbolTableRecord
100
AcDbBlockTableRecord
  2
*D17
  0
BLOCK_RECORD
  5
14F
330
1
100
AcDbSymbolTableRecord
100
AcDbBlockTableRecord
  2
*D18
  0
BLOCK_RECORD
  5
15B
330
1
100
AcDbSymbolTableRecord
100
AcDbBlockTableRecord
  2
*D19
  0
BLOCK_RECORD
  5
168
330
1
100
AcDbSymbolTableRecord
100
AcDbBlockTableRecord
  2
*D20
  0
BLOCK_RECORD
  5
175
330
1
100
AcDbSymbolTableRecord
100
AcDbBlockTableRecord
  2
*D21
  0
BLOCK_RECORD
  5
3D1
330
1
100
AcDbSymbolTableRecord
100
AcDbBlockTableRecord
  2
*D22
  0
BLOCK_RECORD
  5
3DE
330
1
100
AcDbSymbolTableRecord
100
AcDbBlockTableRecord
  2
*D23
  0
BLOCK_RECORD
  5
3EB
330
1
100
AcDbSymbolTableRecord
100
AcDbBlockTableRecord
  2
*D24
  0
BLOCK_RECORD
  5
3F8
330
1
100
AcDbSymbolTableRecord
100
AcDbBlockTableRecord
  2
*D25
  0
BLOCK_RECORD
  5
405
330
1
100
AcDbSymbolTableRecord
100
AcDbBlockTableRecord
  2
*D26
  0
BLOCK_RECORD
  5
412
330
1
100
AcDbSymbolTableRecord
100
AcDbBlockTableRecord
  2
*D27
  0
BLOCK_RECORD
  5
41F
330
1
100
AcDbSymbolTableRecord
100
AcDbBlockTableRecord
  2
*D28
  0
BLOCK_RECORD
  5
42E
330
1
100
AcDbSymbolTableRecord
100
AcDbBlockTableRecord
  2
*D29
  0
BLOCK_RECORD
  5
43B
330
1
100
AcDbSymbolTableRecord
100
AcDbBlockTableRecord
  2
*D30
  0
BLOCK_RECORD
  5
448
330
1
100
AcDbSymbolTableRecord
100
AcDbBlockTableRecord
  2
*D31
  0
ENDTAB
  0
ENDSEC
  0
SECTION
  2
BLOCKS
  0
BLOCK
  5
20
330
1F
100
AcDbEntity
  8
0
100
AcDbBlockBegin
  2
*MODEL_SPACE
 70
     0
 10
0.0
 20
0.0
 30
0.0
  3
*MODEL_SPACE
  1

  0
ENDBLK
  5
21
330
1F
100
AcDbEntity
  8
0
100
AcDbBlockEnd
  0
BLOCK
  5
1C
330
1B
100
AcDbEntity
 67
     1
  8
0
100
AcDbBlockBegin
  2
*PAPER_SPACE
 70
     0
 10
0.0
 20
0.0
 30
0.0
  3
*PAPER_SPACE
  1

  0
ENDBLK
  5
1D
330
1B
100
AcDbEntity
 67
     1
  8
0
100
AcDbBlockEnd
  0
BLOCK
  5
79
330
78
100
AcDbEntity
  8
0
100
AcDbBlockBegin
  2
EX_NORM
 70
     0
 10
0.0
 20
0.0
 30
0.0
  3
EX_NORM
  1

  0
LINE
  5
A2
330
78
100
AcDbEntity
  8
0
  6
CONTINUOUS
 62
     0
100
AcDbLine
 10
0.0
 20
0.0
 30
0.0
 11
-1.0
 21
0.0
 31
0.0
  0
LINE
  5
A3
330
78
100
AcDbEntity
  8
0
  6
CONTINUOUS
 62
     0
100
AcDbLine
 10
0.0
 20
0.0
 30
0.0
 11
-1.0
 21
0.166666667
 31
0.0
  0
LINE
  5
A4
330
78
100
AcDbEntity
  8
0
  6
CONTINUOUS
 62
     0
100
AcDbLine
 10
0.0
 20
0.0
 30
0.0
 11
-1.0
 21
-0.166666667
 31
0.0
  0
ENDBLK
  5
7A
330
78
100
AcDbEntity
  8
0
100
AcDbBlockEnd
  0
BLOCK
  5
7C
330
7B
100
AcDbEntity
  8
0
100
AcDbBlockBegin
  2
EX_BNORM
 70
     0
 10
0.0
 20
0.0
 30
0.0
  3
EX_BNORM
  1

  0
LINE
  5
A5
330
7B
100
AcDbEntity
  8
0
  6
CONTINUOUS
 62
     0
100
AcDbLine
 10
0.0
 20
0.0
 30
0.0
 11
-1.0
 21
0.0
 31
0.0
  0
LINE
  5
A6
330
7B
100
AcDbEntity
  8
0
  6
CONTINUOUS
 62
     0
100
AcDbLine
 10
0.0
 20
0.0
 30
0.0
 11
-1.0
 21
0.166666667
 31
0.0
  0
LINE
  5
A7
330
7B
100
AcDbEntity
  8
0
  6
CONTINUOUS
 62
     0
100
AcDbLine
 10
0.0
 20
0.0
 30
0.0
 11
-1.0
 21
-0.166666667
 31
0.0
  0
LINE
  5
A8
330
7B
100
AcDbEntity
  8
0
  6
CONTINUOUS
 62
     0
100
AcDbLine
 10
0.0
 20
0.0
 30
0.0
 11
-1.0
 21
0.083333333
 31
0.0
  0
LINE
  5
A9
330
7B
100
AcDbEntity
  8
0
  6
CONTINUOUS
 62
     0
100
AcDbLine
 10
0.0
 20
0.0
 30
0.0
 11
-1.0
 21
-0.083333333
 31
0.0
  0
LINE
  5
AA
330
7B
100
AcDbEntity
  8
0
  6
CONTINUOUS
 62
     0
100
AcDbLine
 10
-1.0
 20
0.166666667
 30
0.0
 11
-1.0
 21
-0.166666667
 31
0.0
  0
ENDBLK
  5
7D
330
7B
100
AcDbEntity
  8
0
100
AcDbBlockEnd
  0
BLOCK
  5
7F
330
7E
100
AcDbEntity
  8
0
100
AcDbBlockBegin
  2
EX_BCIR
 70
     0
 10
0.0
 20
0.0
 30
0.0
  3
EX_BCIR
  1

  0
LINE
  5
AB
330
7E
100
AcDbEntity
  8
0
  6
CONTINUOUS
 62
     0
100
AcDbLine
 10
0.0
 20
0.0
 30
0.0
 11
-1.0
 21
0.0
 31
0.0
  0
CIRCLE
  5
AC
330
7E
100
AcDbEntity
  8
0
  6
CONTINUOUS
 62
     0
100
AcDbCircle
 10
0.0
 20
0.0
 30
0.0
 40
0.5
  0
CIRCLE
  5
AD
330
7E
100
AcDbEntity
  8
0
  6
CONTINUOUS
 62
     0
100
AcDbCircle
 10
0.0
 20
0.0
 30
0.0
 40
0.25
  0
ENDBLK
  5
80
330
7E
100
AcDbEntity
  8
0
100
AcDbBlockEnd
  0
BLOCK
  5
82
330
81
100
AcDbEntity
  8
0
100
AcDbBlockBegin
  2
EX_RCIVIL
 70
     0
 10
0.0
 20
0.0
 30
0.0
  3
EX_RCIVIL
  1

  0
LINE
  5
AE
330
81
100
AcDbEntity
  8
0
  6
CONTINUOUS
 62
     0
100
AcDbLine
 10
0.0
 20
0.0
 30
0.0
 11
-1.0
 21
0.0
 31
0.0
  0
LINE
  5
AF
330
81
100
AcDbEntity
  8
0
  6
CONTINUOUS
 62
     0
100
AcDbLine
 10
-1.0
 20
-0.25
 30
0.0
 11
0.0
 21
-0.25
 31
0.0
  0
LINE
  5
B0
330
81
100
AcDbEntity
  8
0
  6
CONTINUOUS
 62
     0
100
AcDbLine
 10
-1.0
 20
-0.125
 30
0.0
 11
0.0
 21
-0.125
 31
0.0
  0
ENDBLK
  5
83
330
81
100
AcDbEntity
  8
0
100
AcDbBlockEnd
  0
BLOCK
  5
85
330
84
100
AcDbEntity
  8
0
100
AcDbBlockBegin
  2
EX_SLANT
 70
     0
 10
0.0
 20
0.0
 30
0.0
  3
EX_SLANT
  1

  0
LINE
  5
B1
330
84
100
AcDbEntity
  8
0
  6
CONTINUOUS
 62
     0
100
AcDbLine
 10
0.0
 20
0.0
 30
0.0
 11
-1.0
 21
0.0
 31
0.0
  0
LINE
  5
B2
330
84
100
AcDbEntity
  8
0
  6
CONTINUOUS
 62
     0
100
AcDbLine
 10
0.707106781
 20
0.707106781
 30
0.0
 11
-0.707106781
 21
-0.707106781
 31
0.0
  0
ENDBLK
  5
86
330
84
100
AcDbEntity
  8
0
100
AcDbBlockEnd
  0
BLOCK
  5
88
330
87
100
AcDbEntity
  8
0
100
AcDbBlockBegin
  2
EX_NONE
 70
     0
 10
0.0
 20
0.0
 30
0.0
  3
EX_NONE
  1

  0
LINE
  5
B3
330
87
100
AcDbEntity
  8
0
  6
CONTINUOUS
 62
     0
100
AcDbLine
 10
0.0
 20
0.0
 30
0.0
 11
-1.0
 21
0.0
 31
0.0
  0
ENDBLK
  5
89
330
87
100
AcDbEntity
  8
0
100
AcDbBlockEnd
  0
BLOCK
  5
8B
330
8A
100
AcDbEntity
  8
0
100
AcDbBlockBegin
  2
EX_CIVIL
 70
     0
 10
0.0
 20
0.0
 30
0.0
  3
EX_CIVIL
  1

  0
LINE
  5
B4
330
8A
100
AcDbEntity
  8
0
  6
CONTINUOUS
 62
     0
100
AcDbLine
 10
0.0
 20
0.0
 30
0.0
 11
-1.0
 21
0.0
 31
0.0
  0
LINE
  5
B5
330
8A
100
AcDbEntity
  8
0
  6
CONTINUOUS
 62
     0
100
AcDbLine
 10
-1.0
 20
0.25
 30
0.0
 11
0.0
 21
0.25
 31
0.0
  0
LINE
  5
B6
330
8A
100
AcDbEntity
  8
0
  6
CONTINUOUS
 62
     0
100
AcDbLine
 10
-1.0
 20
0.125
 30
0.0
 11
0.0
 21
0.125
 31
0.0
  0
ENDBLK
  5
8C
330
8A
100
AcDbEntity
  8
0
100
AcDbBlockEnd
  0
BLOCK
  5
8E
330
8D
100
AcDbEntity
  8
0
100
AcDbBlockBegin
  2
EX_WCIR
 70
     0
 10
0.0
 20
0.0
 30
0.0
  3
EX_WCIR
  1

  0
LINE
  5
B7
330
8D
100
AcDbEntity
  8
0
  6
CONTINUOUS
 62
     0
100
AcDbLine
 10
0.0
 20
0.0
 30
0.0
 11
-1.0
 21
0.0
 31
0.0
  0
CIRCLE
  5
B8
330
8D
100
AcDbEntity
  8
0
  6
CONTINUOUS
 62
     0
100
AcDbCircle
 10
0.0
 20
0.0
 30
0.0
 40
0.5
  0
ENDBLK
  5
8F
330
8D
100
AcDbEntity
  8
0
100
AcDbBlockEnd
  0
BLOCK
  5
91
330
90
100
AcDbEntity
  8
0
100
AcDbBlockBegin
  2
EX_WCIR2
 70
     0
 10
0.0
 20
0.0
 30
0.0
  3
EX_WCIR2
  1

  0
LINE
  5
B9
330
90
100
AcDbEntity
  8
0
  6
CONTINUOUS
 62
     0
100
AcDbLine
 10
-0.5
 20
0.0
 30
0.0
 11
-1.0
 21
0.0
 31
0.0
  0
CIRCLE
  5
BA
330
90
100
AcDbEntity
  8
0
  6
CONTINUOUS
 62
     0
100
AcDbCircle
 10
0.0
 20
0.0
 30
0.0
 40
0.5
  0
ENDBLK
  5
92
330
90
100
AcDbEntity
  8
0
100
AcDbBlockEnd
  0
BLOCK
  5
94
330
93
100
AcDbEntity
  8
0
100
AcDbBlockBegin
  2
EX_WNORM
 70
     0
 10
0.0
 20
0.0
 30
0.0
  3
EX_WNORM
  1

  0
LINE
  5
BB
330
93
100
AcDbEntity
  8
0
  6
CONTINUOUS
 62
     0
100
AcDbLine
 10
-1.0
 20
0.0
 30
0.0
 11
-1.0
 21
0.0
 31
0.0
  0
LINE
  5
BC
330
93
100
AcDbEntity
  8
0
  6
CONTINUOUS
 62
     0
100
AcDbLine
 10
0.0
 20
0.0
 30
0.0
 11
-1.0
 21
0.166666667
 31
0.0
  0
LINE
  5
BD
330
93
100
AcDbEntity
  8
0
  6
CONTINUOUS
 62
     0
100
AcDbLine
 10
0.0
 20
0.0
 30
0.0
 11
-1.0
 21
-0.166666667
 31
0.0
  0
LINE
  5
BE
330
93
100
AcDbEntity
  8
0
  6
CONTINUOUS
 62
     0
100
AcDbLine
 10
-1.0
 20
0.166666667
 30
0.0
 11
-1.0
 21
-0.166666667
 31
0.0
  0
ENDBLK
  5
95
330
93
100
AcDbEntity
  8
0
100
AcDbBlockEnd
  0
BLOCK
  5
97
330
96
100
AcDbEntity
  8
0
100
AcDbBlockBegin
  2
EX_NNORM
 70
     0
 10
0.0
 20
0.0
 30
0.0
  3
EX_NNORM
  1

  0
LINE
  5
BF
330
96
100
AcDbEntity
  8
0
  6
CONTINUOUS
 62
     0
100
AcDbLine
 10
0.0
 20
0.0
 30
0.0
 11
-1.0
 21
0.0
 31
0.0
  0
LINE
  5
C0
330
96
100
AcDbEntity
  8
0
  6
CONTINUOUS
 62
     0
100
AcDbLine
 10
0.0
 20
0.0
 30
0.0
 11
-1.0
 21
0.166666667
 31
0.0
  0
LINE
  5
C1
330
96
100
AcDbEntity
  8
0
  6
CONTINUOUS
 62
     0
100
AcDbLine
 10
0.0
 20
0.0
 30
0.0
 11
-1.0
 21
-0.166666667
 31
0.0
  0
LINE
  5
C2
330
96
100
AcDbEntity
  8
0
  6
CONTINUOUS
 62
     0
100
AcDbLine
 10
-1.0
 20
0.166666667
 30
0.0
 11
-1.0
 21
-0.166666667
 31
0.0
  0
ENDBLK
  5
98
330
96
100
AcDbEntity
  8
0
100
AcDbBlockEnd
  0
BLOCK
  5
9A
330
99
100
AcDbEntity
  8
0
100
AcDbBlockBegin
  2
EX_BBOX
 70
     0
 10
0.0
 20
0.0
 30
0.0
  3
EX_BBOX
  1

  0
LINE
  5
C3
330
99
100
AcDbEntity
  8
0
  6
CONTINUOUS
 62
     0
100
AcDbLine
 10
0.0
 20
0.0
 30
0.0
 11
-1.0
 21
0.0
 31
0.0
  0
LINE
  5
C4
330
99
100
AcDbEntity
  8
0
  6
CONTINUOUS
 62
     0
100
AcDbLine
 10
-0.5
 20
0.5
 30
0.0
 11
0.5
 21
0.5
 31
0.0
  0
LINE
  5
C5
330
99
100
AcDbEntity
  8
0
  6
CONTINUOUS
 62
     0
100
AcDbLine
 10
0.5
 20
0.5
 30
0.0
 11
0.5
 21
-0.5
 31
0.0
  0
LINE
  5
C6
330
99
100
AcDbEntity
  8
0
  6
CONTINUOUS
 62
     0
100
AcDbLine
 10
0.5
 20
-0.5
 30
0.0
 11
-0.5
 21
-0.5
 31
0.0
  0
LINE
  5
C7
330
99
100
AcDbEntity
  8
0
  6
CONTINUOUS
 62
     0
100
AcDbLine
 10
-0.5
 20
-0.5
 30
0.0
 11
-0.5
 21
0.5
 31
0.0
  0
LINE
  5
C8
330
99
100
AcDbEntity
  8
0
  6
CONTINUOUS
 62
     0
100
AcDbLine
 10
-0.25
 20
0.25
 30
0.0
 11
0.25
 21
0.25
 31
0.0
  0
LINE
  5
C9
330
99
100
AcDbEntity
  8
0
  6
CONTINUOUS
 62
     0
100
AcDbLine
 10
0.25
 20
0.25
 30
0.0
 11
0.25
 21
-0.25
 31
0.0
  0
LINE
  5
CA
330
99
100
AcDbEntity
  8
0
  6
CONTINUOUS
 62
     0
100
AcDbLine
 10
0.25
 20
-0.25
 30
0.0
 11
-0.25
 21
-0.25
 31
0.0
  0
LINE
  5
CB
330
99
100
AcDbEntity
  8
0
  6
CONTINUOUS
 62
     0
100
AcDbLine
 10
-0.25
 20
-0.25
 30
0.0
 11
-0.25
 21
0.25
 31
0.0
  0
ENDBLK
  5
9B
330
99
100
AcDbEntity
  8
0
100
AcDbBlockEnd
  0
BLOCK
  5
9D
330
9C
100
AcDbEntity
  8
0
100
AcDbBlockBegin
  2
EX_WBOX
 70
     0
 10
0.0
 20
0.0
 30
0.0
  3
EX_WBOX
  1

  0
LINE
  5
CC
330
9C
100
AcDbEntity
  8
0
  6
CONTINUOUS
 62
     0
100
AcDbLine
 10
-0.5
 20
0.0
 30
0.0
 11
-1.0
 21
0.0
 31
0.0
  0
LINE
  5
CD
330
9C
100
AcDbEntity
  8
0
  6
CONTINUOUS
 62
     0
100
AcDbLine
 10
-0.5
 20
0.5
 30
0.0
 11
0.5
 21
0.5
 31
0.0
  0
LINE
  5
CE
330
9C
100
AcDbEntity
  8
0
  6
CONTINUOUS
 62
     0
100
AcDbLine
 10
0.5
 20
0.5
 30
0.0
 11
0.5
 21
-0.5
 31
0.0
  0
LINE
  5
CF
330
9C
100
AcDbEntity
  8
0
  6
CONTINUOUS
 62
     0
100
AcDbLine
 10
0.5
 20
-0.5
 30
0.0
 11
-0.5
 21
-0.5
 31
0.0
  0
LINE
  5
D0
330
9C
100
AcDbEntity
  8
0
  6
CONTINUOUS
 62
     0
100
AcDbLine
 10
-0.5
 20
-0.5
 30
0.0
 11
-0.5
 21
0.5
 31
0.0
  0
ENDBLK
  5
9E
330
9C
100
AcDbEntity
  8
0
100
AcDbBlockEnd
  0
BLOCK
  5
A0
330
9F
100
AcDbEntity
  8
0
100
AcDbBlockBegin
  2
EX_INTEGRAL
 70
     0
 10
0.0
 20
0.0
 30
0.0
  3
EX_INTEGRAL
  1

  0
LINE
  5
D1
330
9F
100
AcDbEntity
  8
0
  6
CONTINUOUS
 62
     0
100
AcDbLine
 10
0.0
 20
0.0
 30
0.0
 11
-1.0
 21
0.0
 31
0.0
  0
ARC
  5
D2
330
9F
100
AcDbEntity
  8
0
  6
CONTINUOUS
 62
     0
100
AcDbCircle
 10
0.542115
 20
0.164992
 30
0.0
 40
0.56667
100
AcDbArc
 50
73.07249033629006
 51
196.9275130221199
  0
ARC
  5
D3
330
9F
100
AcDbEntity
  8
0
  6
CONTINUOUS
 62
     0
100
AcDbCircle
 10
-0.542115
 20
-0.164992
 30
0.0
 40
0.56667
100
AcDbArc
 50
253.0724869220464
 51
16.9275130559125
  0
ENDBLK
  5
A1
330
9F
100
AcDbEntity
  8
0
100
AcDbBlockEnd
  0
BLOCK
  5
12B
330
12A
100
AcDbEntity
  8
0
100
AcDbBlockBegin
  2
*D15
 70
     1
 10
0.0
 20
0.0
 30
0.0
  3
*D15
  1

  0
LINE
  5
12D
330
12A
100
AcDbEntity
  8
Ｓ_１_１
  6
CONTINUOUS
 62
     2
100
AcDbLine
 10
556.8302514144758
 20
607.5595867974757
 30
0.0
 11
483.1697725855243
 21
552.4403212025243
 31
0.0
  0
MTEXT
  5
12E
330
12A
100
AcDbEntity
  8
Ｓ_１_１
 62
     2
100
AcDbMText
 10
515.0572516476864
 20
586.6053775367307
 30
0.0
 40
10.38871247113164
 41
0.0
 71
     5
 72
     1
  1
　　　　%%c110
  7
EXCADDIM1
 11
0.8006573983915839
 21
0.5991224669471347
 31
0.0
  0
INSERT
  5
12F
330
12A
100
AcDbEntity
  8
Ｓ_１_１
 62
     2
100
AcDbBlockReference
  2
EX_NORM
 10
475.963856
 20
547.048219
 30
0.0
 41
9.0
 42
9.0
 43
9.0
 50
216.8070747890282
  0
INSERT
  5
130
330
12A
100
AcDbEntity
  8
Ｓ_１_１
 62
     2
100
AcDbBlockReference
  2
EX_NORM
 10
564.0361680000001
 20
612.951689
 30
0.0
 41
9.0
 42
9.0
 43
9.0
 50
36.80707478902823
  0
POINT
  5
131
330
12A
100
AcDbEntity
  8
DEFPOINTS
 62
     0
100
AcDbPoint
 10
564.0361680000001
 20
612.951689
 30
0.0
  0
POINT
  5
132
330
12A
100
AcDbEntity
  8
DEFPOINTS
 62
     0
100
AcDbPoint
 10
475.963856
 20
547.048219
 30
0.0
  0
ENDBLK
  5
12C
330
12A
100
AcDbEntity
  8
0
100
AcDbBlockEnd
  0
BLOCK
  5
135
330
134
100
AcDbEntity
  8
0
100
AcDbBlockBegin
  2
*D16
 70
     1
 10
0.0
 20
0.0
 30
0.0
  3
*D16
  1

  0
LINE
  5
137
330
134
100
AcDbEntity
  8
Ｓ_１_１
  6
CONTINUOUS
 62
     2
100
AcDbLine
 10
654.4999969999999
 20
709.999998
 30
0.0
 11
762.9999999999997
 21
709.999998
 31
0.0
  0
LINE
  5
138
330
134
100
AcDbEntity
  8
Ｓ_１_１
  6
CONTINUOUS
 62
     2
100
AcDbLine
 10
654.4999969999999
 20
450.000002
 30
0.0
 11
762.9999999999997
 21
450.000002
 31
0.0
  0
LINE
  5
139
330
134
100
AcDbEntity
  8
Ｓ_１_１
  6
CONTINUOUS
 62
     2
100
AcDbLine
 10
759.9999999999997
 20
700.999998
 30
0.0
 11
759.9999999999997
 21
459.000002
 31
0.0
  0
INSERT
  5
13A
330
134
100
AcDbEntity
  8
Ｓ_１_１
 62
     2
100
AcDbBlockReference
  2
EX_NORM
 10
759.9999999999997
 20
709.999998
 30
0.0
 41
9.0
 42
9.0
 43
9.0
 50
90.0
  0
INSERT
  5
13B
330
134
100
AcDbEntity
  8
Ｓ_１_１
 62
     2
100
AcDbBlockReference
  2
EX_NORM
 10
759.9999999999997
 20
450.000002
 30
0.0
 41
9.0
 42
9.0
 43
9.0
 50
270.0
  0
MTEXT
  5
13C
330
134
100
AcDbEntity
  8
Ｓ_１_１
 62
     2
100
AcDbMText
 10
751.7500000000001
 20
579.9999999999998
 30
0.0
 40
10.38871247113164
 41
0.0
 71
     5
 72
     1
  1
260
  7
EXCADDIM1
 11
0.0
 21
1.0
 31
0.0
  0
POINT
  5
13D
330
134
100
AcDbEntity
  8
DEFPOINTS
 62
     0
100
AcDbPoint
 10
649.9999969999999
 20
709.999998
 30
0.0
  0
POINT
  5
13E
330
134
100
AcDbEntity
  8
DEFPOINTS
 62
     0
100
AcDbPoint
 10
649.9999969999999
 20
450.000002
 30
0.0
  0
POINT
  5
13F
330
134
100
AcDbEntity
  8
DEFPOINTS
 62
     0
100
AcDbPoint
 10
759.9999999999997
 20
450.000002
 30
0.0
  0
ENDBLK
  5
136
330
134
100
AcDbEntity
  8
0
100
AcDbBlockEnd
  0
BLOCK
  5
142
330
141
100
AcDbEntity
  8
0
100
AcDbBlockBegin
  2
*D17
 70
     1
 10
0.0
 20
0.0
 30
0.0
  3
*D17
  1

  0
LINE
  5
144
330
141
100
AcDbEntity
  8
Ｓ_１_１
  6
CONTINUOUS
 62
     2
100
AcDbLine
 10
488.000003
 20
457.500002
 30
0.0
 11
277.0000000000001
 21
457.5000020000001
 31
0.0
  0
LINE
  5
145
330
141
100
AcDbEntity
  8
Ｓ_１_１
  6
CONTINUOUS
 62
     2
100
AcDbLine
 10
488.000003
 20
702.499998
 30
0.0
 11
277.0000000000001
 21
702.499998
 31
0.0
  0
LINE
  5
146
330
141
100
AcDbEntity
  8
Ｓ_１_１
  6
CONTINUOUS
 62
     2
100
AcDbLine
 10
280.0000000000001
 20
466.5000020000001
 30
0.0
 11
280.0000000000001
 21
693.499998
 31
0.0
  0
INSERT
  5
147
330
141
100
AcDbEntity
  8
Ｓ_１_１
 62
     2
100
AcDbBlockReference
  2
EX_NORM
 10
280.0000000000001
 20
457.5000020000001
 30
0.0
 41
9.0
 42
9.0
 43
9.0
 50
270.0
  0
INSERT
  5
148
330
141
100
AcDbEntity
  8
Ｓ_１_１
 62
     2
100
AcDbBlockReference
  2
EX_NORM
 10
280.0000000000001
 20
702.499998
 30
0.0
 41
9.0
 42
9.0
 43
9.0
 50
90.0
  0
MTEXT
  5
149
330
141
100
AcDbEntity
  8
Ｓ_１_１
 62
     2
100
AcDbMText
 10
271.7500000000002
 20
580.0
 30
0.0
 40
10.38871247113164
 41
0.0
 71
     5
 72
     1
  1
245
  7
EXCADDIM1
 11
0.0
 21
1.0
 31
0.0
  0
POINT
  5
14A
330
141
100
AcDbEntity
  8
DEFPOINTS
 62
     0
100
AcDbPoint
 10
492.500003
 20
457.500002
 30
0.0
  0
POINT
  5
14B
330
141
100
AcDbEntity
  8
DEFPOINTS
 62
     0
100
AcDbPoint
 10
492.500003
 20
702.499998
 30
0.0
  0
POINT
  5
14C
330
141
100
AcDbEntity
  8
DEFPOINTS
 62
     0
100
AcDbPoint
 10
280.0000000000001
 20
702.499998
 30
0.0
  0
ENDBLK
  5
143
330
141
100
AcDbEntity
  8
0
100
AcDbBlockEnd
  0
BLOCK
  5
150
330
14F
100
AcDbEntity
  8
0
100
AcDbBlockBegin
  2
*D18
 70
     1
 10
0.0
 20
0.0
 30
0.0
  3
*D18
  1

  0
LINE
  5
152
330
14F
100
AcDbEntity
  8
Ｓ_１_１
  6
CONTINUOUS
 62
     2
100
AcDbLine
 10
360.0000020000001
 20
475.500003
 30
0.0
 11
360.0000020000001
 21
397.0000000000001
 31
0.0
  0
LINE
  5
153
330
14F
100
AcDbEntity
  8
Ｓ_１_１
  6
CONTINUOUS
 62
     2
100
AcDbLine
 10
670.999998
 20
400.0000000000001
 30
0.0
 11
369.0000020000001
 21
400.0000000000001
 31
0.0
  0
INSERT
  5
154
330
14F
100
AcDbEntity
  8
Ｓ_１_１
 62
     2
100
AcDbBlockReference
  2
EX_NORM
 10
679.999998
 20
400.0000000000001
 30
0.0
 41
9.0
 42
9.0
 43
9.0
  0
INSERT
  5
155
330
14F
100
AcDbEntity
  8
Ｓ_１_１
 62
     2
100
AcDbBlockReference
  2
EX_NORM
 10
360.0000020000001
 20
400.0000000000001
 30
0.0
 41
9.0
 42
9.0
 43
9.0
 50
180.0
  0
MTEXT
  5
156
330
14F
100
AcDbEntity
  8
Ｓ_１_１
 62
     2
100
AcDbMText
 10
520.0000000000001
 20
408.2499999999999
 30
0.0
 40
10.38871247113164
 41
0.0
 71
     5
 72
     1
  1
320
  7
EXCADDIM1
  0
POINT
  5
157
330
14F
100
AcDbEntity
  8
DEFPOINTS
 62
     0
100
AcDbPoint
 10
679.999998
 20
480.000003
 30
0.0
  0
POINT
  5
158
330
14F
100
AcDbEntity
  8
DEFPOINTS
 62
     0
100
AcDbPoint
 10
360.0000020000001
 20
480.000003
 30
0.0
  0
POINT
  5
159
330
14F
100
AcDbEntity
  8
DEFPOINTS
 62
     0
100
AcDbPoint
 10
360.0000020000001
 20
400.0000000000001
 30
0.0
  0
ENDBLK
  5
151
330
14F
100
AcDbEntity
  8
0
100
AcDbBlockEnd
  0
BLOCK
  5
15C
330
15B
100
AcDbEntity
  8
0
100
AcDbBlockBegin
  2
*D19
 70
     1
 10
0.0
 20
0.0
 30
0.0
  3
*D19
  1

  0
LINE
  5
15E
330
15B
100
AcDbEntity
  8
Ｓ_１_１
  6
CONTINUOUS
 62
     2
100
AcDbLine
 10
400.000021
 20
264.999997
 30
0.0
 11
400.000021
 21
322.9999999999999
 31
0.0
  0
LINE
  5
15F
330
15B
100
AcDbEntity
  8
Ｓ_１_１
  6
CONTINUOUS
 62
     2
100
AcDbLine
 10
640.000017
 20
264.999997
 30
0.0
 11
640.000017
 21
322.9999999999999
 31
0.0
  0
LINE
  5
160
330
15B
100
AcDbEntity
  8
Ｓ_１_１
  6
CONTINUOUS
 62
     2
100
AcDbLine
 10
409.000021
 20
319.9999999999999
 30
0.0
 11
631.000017
 21
319.9999999999999
 31
0.0
  0
INSERT
  5
161
330
15B
100
AcDbEntity
  8
Ｓ_１_１
 62
     2
100
AcDbBlockReference
  2
EX_NORM
 10
400.000021
 20
319.9999999999999
 30
0.0
 41
9.0
 42
9.0
 43
9.0
 50
180.0
  0
INSERT
  5
162
330
15B
100
AcDbEntity
  8
Ｓ_１_１
 62
     2
100
AcDbBlockReference
  2
EX_NORM
 10
640.000017
 20
319.9999999999999
 30
0.0
 41
9.0
 42
9.0
 43
9.0
  0
MTEXT
  5
163
330
15B
100
AcDbEntity
  8
Ｓ_１_１
 62
     2
100
AcDbMText
 10
520.000019
 20
328.25
 30
0.0
 40
10.38871247113164
 41
0.0
 71
     5
 72
     1
  1
%%c240(230)
  7
EXCADDIM1
  0
POINT
  5
164
330
15B
100
AcDbEntity
  8
DEFPOINTS
 62
     0
100
AcDbPoint
 10
400.000021
 20
260.499997
 30
0.0
  0
POINT
  5
165
330
15B
100
AcDbEntity
  8
DEFPOINTS
 62
     0
100
AcDbPoint
 10
640.000017
 20
260.499997
 30
0.0
  0
POINT
  5
166
330
15B
100
AcDbEntity
  8
DEFPOINTS
 62
     0
100
AcDbPoint
 10
640.000017
 20
319.9999999999999
 30
0.0
  0
ENDBLK
  5
15D
330
15B
100
AcDbEntity
  8
0
100
AcDbBlockEnd
  0
BLOCK
  5
169
330
168
100
AcDbEntity
  8
0
100
AcDbBlockBegin
  2
*D20
 70
     1
 10
0.0
 20
0.0
 30
0.0
  3
*D20
  1

  0
LINE
  5
16B
330
168
100
AcDbEntity
  8
Ｓ_１_１
  6
CONTINUOUS
 62
     2
100
AcDbLine
 10
679.999998
 20
475.500009
 30
0.0
 11
679.999998
 21
397.0000000000003
 31
0.0
  0
LINE
  5
16C
330
168
100
AcDbEntity
  8
Ｓ_１_１
  6
CONTINUOUS
 62
     2
100
AcDbLine
 10
709.9999969999999
 20
475.5000299999999
 30
0.0
 11
709.9999969999999
 21
397.0000000000003
 31
0.0
  0
LINE
  5
16D
330
168
100
AcDbEntity
  8
Ｓ_１_１
  6
CONTINUOUS
 62
     2
100
AcDbLine
 10
688.999998
 20
400.0000000000001
 30
0.0
 11
700.9999969999999
 21
400.0000000000001
 31
0.0
  0
INSERT
  5
16E
330
168
100
AcDbEntity
  8
Ｓ_１_１
 62
     2
100
AcDbBlockReference
  2
EX_NORM
 10
679.999998
 20
400.0000000000001
 30
0.0
 41
9.0
 42
9.0
 43
9.0
 50
180.0
  0
INSERT
  5
16F
330
168
100
AcDbEntity
  8
Ｓ_１_１
 62
     2
100
AcDbBlockReference
  2
EX_NORM
 10
709.9999969999999
 20
400.0000000000001
 30
0.0
 41
9.0
 42
9.0
 43
9.0
  0
MTEXT
  5
170
330
168
100
AcDbEntity
  8
Ｓ_１_１
 62
     2
100
AcDbMText
 10
759.4999969999975
 20
408.2500000000044
 30
0.0
 40
10.38871247113164
 41
0.0
 71
     5
 72
     1
  1
30（移動量）
  7
EXCADDIM1
  0
POINT
  5
171
330
168
100
AcDbEntity
  8
DEFPOINTS
 62
     0
100
AcDbPoint
 10
679.999998
 20
480.000009
 30
0.0
  0
POINT
  5
172
330
168
100
AcDbEntity
  8
DEFPOINTS
 62
     0
100
AcDbPoint
 10
709.9999969999999
 20
480.0000299999999
 30
0.0
  0
POINT
  5
173
330
168
100
AcDbEntity
  8
DEFPOINTS
 62
     0
100
AcDbPoint
 10
709.9999969999999
 20
400.0000000000001
 30
0.0
  0
ENDBLK
  5
16A
330
168
100
AcDbEntity
  8
0
100
AcDbBlockEnd
  0
BLOCK
  5
176
330
175
100
AcDbEntity
  8
0
100
AcDbBlockBegin
  2
*D21
 70
     1
 10
0.0
 20
0.0
 30
0.0
  3
*D21
  1

  0
LINE
  5
178
330
175
100
AcDbEntity
  8
Ｓ_１_１
  6
CONTINUOUS
 62
     2
100
AcDbLine
 10
330.000003
 20
475.499969
 30
0.0
 11
330.000003
 21
396.9999999999999
 31
0.0
  0
LINE
  5
179
330
175
100
AcDbEntity
  8
Ｓ_１_１
  6
CONTINUOUS
 62
     2
100
AcDbLine
 10
351.000002
 20
399.9999999999999
 30
0.0
 11
339.000003
 21
399.9999999999999
 31
0.0
  0
INSERT
  5
17A
330
175
100
AcDbEntity
  8
Ｓ_１_１
 62
     2
100
AcDbBlockReference
  2
EX_NORM
 10
360.000002
 20
399.9999999999999
 30
0.0
 41
9.0
 42
9.0
 43
9.0
  0
INSERT
  5
17B
330
175
100
AcDbEntity
  8
Ｓ_１_１
 62
     2
100
AcDbBlockReference
  2
EX_NORM
 10
330.000003
 20
399.9999999999999
 30
0.0
 41
9.0
 42
9.0
 43
9.0
 50
180.0
  0
MTEXT
  5
17C
330
175
100
AcDbEntity
  8
Ｓ_１_１
 62
     2
100
AcDbMText
 10
280.5000030000002
 20
408.2499999999999
 30
0.0
 40
10.38871247113164
 41
0.0
 71
     5
 72
     1
  1
30（移動量）
  7
EXCADDIM1
  0
POINT
  5
17D
330
175
100
AcDbEntity
  8
DEFPOINTS
 62
     0
100
AcDbPoint
 10
360.000002
 20
479.999978
 30
0.0
  0
POINT
  5
17E
330
175
100
AcDbEntity
  8
DEFPOINTS
 62
     0
100
AcDbPoint
 10
330.000003
 20
479.999969
 30
0.0
  0
POINT
  5
17F
330
175
100
AcDbEntity
  8
DEFPOINTS
 62
     0
100
AcDbPoint
 10
330.000003
 20
399.9999999999999
 30
0.0
  0
ENDBLK
  5
177
330
175
100
AcDbEntity
  8
0
100
AcDbBlockEnd
  0
BLOCK
  5
3D2
330
3D1
100
AcDbEntity
  8
0
100
AcDbBlockBegin
  2
*D22
 70
     1
 10
0.0
 20
0.0
 30
0.0
  3
*D22
  1

  0
LINE
  5
3D4
330
3D1
100
AcDbEntity
  8
Ｓ_１_１
  6
CONTINUOUS
 62
     2
100
AcDbLine
 10
619.9999989999999
 20
157.4999979999999
 30
0.0
 11
619.9999989999999
 21
117.0
 31
0.0
  0
LINE
  5
3D5
330
3D1
100
AcDbEntity
  8
Ｓ_１_１
  6
CONTINUOUS
 62
     2
100
AcDbLine
 10
420.000001
 20
157.4999979999999
 30
0.0
 11
420.000001
 21
117.0
 31
0.0
  0
LINE
  5
3D6
330
3D1
100
AcDbEntity
  8
Ｓ_１_１
  6
CONTINUOUS
 62
     2
100
AcDbLine
 10
610.9999989999999
 20
120.0
 30
0.0
 11
429.000001
 21
120.0
 31
0.0
  0
INSERT
  5
3D7
330
3D1
100
AcDbEntity
  8
Ｓ_１_１
 62
     2
100
AcDbBlockReference
  2
EX_NORM
 10
619.9999989999999
 20
120.0
 30
0.0
 41
9.0
 42
9.0
 43
9.0
  0
INSERT
  5
3D8
330
3D1
100
AcDbEntity
  8
Ｓ_１_１
 62
     2
100
AcDbBlockReference
  2
EX_NORM
 10
420.000001
 20
120.0
 30
0.0
 41
9.0
 42
9.0
 43
9.0
 50
180.0
  0
MTEXT
  5
3D9
330
3D1
100
AcDbEntity
  8
Ｓ_１_１
 62
     2
100
AcDbMText
 10
520.0
 20
128.25
 30
0.0
 40
10.38871247113164
 41
0.0
 71
     5
 72
     1
  1
%%c200(190)
  7
EXCADDIM1
  0
POINT
  5
3DA
330
3D1
100
AcDbEntity
  8
DEFPOINTS
 62
     0
100
AcDbPoint
 10
619.9999989999999
 20
161.9999979999999
 30
0.0
  0
POINT
  5
3DB
330
3D1
100
AcDbEntity
  8
DEFPOINTS
 62
     0
100
AcDbPoint
 10
420.000001
 20
161.9999979999999
 30
0.0
  0
POINT
  5
3DC
330
3D1
100
AcDbEntity
  8
DEFPOINTS
 62
     0
100
AcDbPoint
 10
420.000001
 20
120.0
 30
0.0
  0
ENDBLK
  5
3D3
330
3D1
100
AcDbEntity
  8
0
100
AcDbBlockEnd
  0
BLOCK
  5
3DF
330
3DE
100
AcDbEntity
  8
0
100
AcDbBlockBegin
  2
*D23
 70
     1
 10
0.0
 20
0.0
 30
0.0
  3
*D23
  1

  0
LINE
  5
3E1
330
3DE
100
AcDbEntity
  8
Ｓ_１_１
  6
CONTINUOUS
 62
     2
100
AcDbLine
 10
420.000001
 20
157.499998
 30
0.0
 11
420.000001
 21
117.0
 31
0.0
  0
LINE
  5
3E2
330
3DE
100
AcDbEntity
  8
Ｓ_１_１
  6
CONTINUOUS
 62
     2
100
AcDbLine
 10
334.637759
 20
163.500002
 30
0.0
 11
334.637759
 21
117.0
 31
0.0
  0
LINE
  5
3E3
330
3DE
100
AcDbEntity
  8
Ｓ_１_１
  6
CONTINUOUS
 62
     2
100
AcDbLine
 10
411.000001
 20
120.0
 30
0.0
 11
343.637759
 21
120.0
 31
0.0
  0
INSERT
  5
3E4
330
3DE
100
AcDbEntity
  8
Ｓ_１_１
 62
     2
100
AcDbBlockReference
  2
EX_NORM
 10
420.000001
 20
120.0
 30
0.0
 41
9.0
 42
9.0
 43
9.0
  0
INSERT
  5
3E5
330
3DE
100
AcDbEntity
  8
Ｓ_１_１
 62
     2
100
AcDbBlockReference
  2
EX_NORM
 10
334.637759
 20
120.0
 30
0.0
 41
9.0
 42
9.0
 43
9.0
 50
180.0
  0
MTEXT
  5
3E6
330
3DE
100
AcDbEntity
  8
Ｓ_１_１
 62
     2
100
AcDbMText
 10
377.31888
 20
128.25
 30
0.0
 40
10.38871247113164
 41
0.0
 71
     5
 72
     1
  1
(85)
  7
EXCADDIM1
  0
POINT
  5
3E7
330
3DE
100
AcDbEntity
  8
DEFPOINTS
 62
     0
100
AcDbPoint
 10
420.000001
 20
161.999998
 30
0.0
  0
POINT
  5
3E8
330
3DE
100
AcDbEntity
  8
DEFPOINTS
 62
     0
100
AcDbPoint
 10
334.637759
 20
168.000002
 30
0.0
  0
POINT
  5
3E9
330
3DE
100
AcDbEntity
  8
DEFPOINTS
 62
     0
100
AcDbPoint
 10
334.637759
 20
120.0
 30
0.0
  0
ENDBLK
  5
3E0
330
3DE
100
AcDbEntity
  8
0
100
AcDbBlockEnd
  0
BLOCK
  5
3EC
330
3EB
100
AcDbEntity
  8
0
100
AcDbBlockBegin
  2
*D24
 70
     1
 10
0.0
 20
0.0
 30
0.0
  3
*D24
  1

  0
LINE
  5
3EE
330
3EB
100
AcDbEntity
  8
Ｓ_１_１
  6
CONTINUOUS
 62
     2
100
AcDbLine
 10
417.500002
 20
160.0
 30
0.0
 11
277.0
 21
160.0
 31
0.0
  0
LINE
  5
3EF
330
3EB
100
AcDbEntity
  8
Ｓ_１_１
  6
CONTINUOUS
 62
     2
100
AcDbLine
 10
319.399997
 20
180.0
 30
0.0
 11
277.0
 21
180.0
 31
0.0
  0
LINE
  5
3F0
330
3EB
100
AcDbEntity
  8
Ｓ_１_１
  6
CONTINUOUS
 62
     2
100
AcDbLine
 10
280.0
 20
169.0
 30
0.0
 11
280.0
 21
171.0
 31
0.0
  0
INSERT
  5
3F1
330
3EB
100
AcDbEntity
  8
Ｓ_１_１
 62
     2
100
AcDbBlockReference
  2
EX_NORM
 10
280.0
 20
160.0
 30
0.0
 41
9.0
 42
9.0
 43
9.0
 50
270.0
  0
INSERT
  5
3F2
330
3EB
100
AcDbEntity
  8
Ｓ_１_１
 62
     2
100
AcDbBlockReference
  2
EX_NORM
 10
280.0
 20
180.0
 30
0.0
 41
9.0
 42
9.0
 43
9.0
 50
90.0
  0
MTEXT
  5
3F3
330
3EB
100
AcDbEntity
  8
Ｓ_１_１
 62
     2
100
AcDbMText
 10
271.7500000000001
 20
144.2499999999999
 30
0.0
 40
10.38871247113164
 41
0.0
 71
     5
 72
     1
  1
20
  7
EXCADDIM1
 11
0.0
 21
1.0
 31
0.0
  0
POINT
  5
3F4
330
3EB
100
AcDbEntity
  8
DEFPOINTS
 62
     0
100
AcDbPoint
 10
422.000002
 20
160.0
 30
0.0
  0
POINT
  5
3F5
330
3EB
100
AcDbEntity
  8
DEFPOINTS
 62
     0
100
AcDbPoint
 10
323.899997
 20
180.0
 30
0.0
  0
POINT
  5
3F6
330
3EB
100
AcDbEntity
  8
DEFPOINTS
 62
     0
100
AcDbPoint
 10
280.0
 20
180.0
 30
0.0
  0
ENDBLK
  5
3ED
330
3EB
100
AcDbEntity
  8
0
100
AcDbBlockEnd
  0
BLOCK
  5
3F9
330
3F8
100
AcDbEntity
  8
0
100
AcDbBlockBegin
  2
*D25
 70
     1
 10
0.0
 20
0.0
 30
0.0
  3
*D25
  1

  0
LINE
  5
3FB
330
3F8
100
AcDbEntity
  8
Ｓ_１_１
  6
CONTINUOUS
 62
     2
100
AcDbLine
 10
319.399997
 20
180.0
 30
0.0
 11
277.0
 21
180.0
 31
0.0
  0
LINE
  5
3FC
330
3F8
100
AcDbEntity
  8
Ｓ_１_１
  6
CONTINUOUS
 62
     2
100
AcDbLine
 10
373.000002
 20
260.499996
 30
0.0
 11
277.0
 21
260.499996
 31
0.0
  0
LINE
  5
3FD
330
3F8
100
AcDbEntity
  8
Ｓ_１_１
  6
CONTINUOUS
 62
     2
100
AcDbLine
 10
280.0
 20
189.0
 30
0.0
 11
280.0
 21
251.499996
 31
0.0
  0
INSERT
  5
3FE
330
3F8
100
AcDbEntity
  8
Ｓ_１_１
 62
     2
100
AcDbBlockReference
  2
EX_NORM
 10
280.0
 20
180.0
 30
0.0
 41
9.0
 42
9.0
 43
9.0
 50
270.0
  0
INSERT
  5
3FF
330
3F8
100
AcDbEntity
  8
Ｓ_１_１
 62
     2
100
AcDbBlockReference
  2
EX_NORM
 10
280.0
 20
260.499996
 30
0.0
 41
9.0
 42
9.0
 43
9.0
 50
90.0
  0
MTEXT
  5
400
330
3F8
100
AcDbEntity
  8
Ｓ_１_１
 62
     2
100
AcDbMText
 10
271.75
 20
220.249998
 30
0.0
 40
10.38871247113164
 41
0.0
 71
     5
 72
     1
  1
80.5
  7
EXCADDIM1
 11
0.0
 21
1.0
 31
0.0
  0
POINT
  5
401
330
3F8
100
AcDbEntity
  8
DEFPOINTS
 62
     0
100
AcDbPoint
 10
323.899997
 20
180.0
 30
0.0
  0
POINT
  5
402
330
3F8
100
AcDbEntity
  8
DEFPOINTS
 62
     0
100
AcDbPoint
 10
377.500002
 20
260.499996
 30
0.0
  0
POINT
  5
403
330
3F8
100
AcDbEntity
  8
DEFPOINTS
 62
     0
100
AcDbPoint
 10
280.0
 20
260.499996
 30
0.0
  0
ENDBLK
  5
3FA
330
3F8
100
AcDbEntity
  8
0
100
AcDbBlockEnd
  0
BLOCK
  5
406
330
405
100
AcDbEntity
  8
0
100
AcDbBlockBegin
  2
*D26
 70
     1
 10
0.0
 20
0.0
 30
0.0
  3
*D26
  1

  0
LINE
  5
408
330
405
100
AcDbEntity
  8
Ｓ_１_１
  6
CONTINUOUS
 62
     2
100
AcDbLine
 10
622.500021
 20
160.0
 30
0.0
 11
723.0
 21
160.0
 31
0.0
  0
LINE
  5
409
330
405
100
AcDbEntity
  8
Ｓ_１_１
  6
CONTINUOUS
 62
     2
100
AcDbLine
 10
645.0000279999999
 20
193.499999
 30
0.0
 11
723.0
 21
193.499999
 31
0.0
  0
LINE
  5
40A
330
405
100
AcDbEntity
  8
Ｓ_１_１
  6
CONTINUOUS
 62
     2
100
AcDbLine
 10
720.0
 20
169.0
 30
0.0
 11
720.0
 21
184.499999
 31
0.0
  0
INSERT
  5
40B
330
405
100
AcDbEntity
  8
Ｓ_１_１
 62
     2
100
AcDbBlockReference
  2
EX_NORM
 10
720.0
 20
160.0
 30
0.0
 41
9.0
 42
9.0
 43
9.0
 50
270.0
  0
INSERT
  5
40C
330
405
100
AcDbEntity
  8
Ｓ_１_１
 62
     2
100
AcDbBlockReference
  2
EX_NORM
 10
720.0
 20
193.499999
 30
0.0
 41
9.0
 42
9.0
 43
9.0
 50
90.0
  0
MTEXT
  5
40D
330
405
100
AcDbEntity
  8
Ｓ_１_１
 62
     2
100
AcDbMText
 10
711.75
 20
137.4999999999997
 30
0.0
 40
10.38871247113164
 41
0.0
 71
     5
 72
     1
  1
33.5
  7
EXCADDIM1
 11
0.0
 21
1.0
 31
0.0
  0
POINT
  5
40E
330
405
100
AcDbEntity
  8
DEFPOINTS
 62
     0
100
AcDbPoint
 10
618.000021
 20
160.0
 30
0.0
  0
POINT
  5
40F
330
405
100
AcDbEntity
  8
DEFPOINTS
 62
     0
100
AcDbPoint
 10
640.5000279999999
 20
193.499999
 30
0.0
  0
POINT
  5
410
330
405
100
AcDbEntity
  8
DEFPOINTS
 62
     0
100
AcDbPoint
 10
720.0
 20
193.499999
 30
0.0
  0
ENDBLK
  5
407
330
405
100
AcDbEntity
  8
0
100
AcDbBlockEnd
  0
BLOCK
  5
413
330
412
100
AcDbEntity
  8
0
100
AcDbBlockBegin
  2
*D27
 70
     1
 10
0.0
 20
0.0
 30
0.0
  3
*D27
  1

  0
LINE
  5
415
330
412
100
AcDbEntity
  8
Ｓ_１_１
  6
CONTINUOUS
 62
     2
100
AcDbLine
 10
645.0000279999999
 20
193.499999
 30
0.0
 11
723.0
 21
193.499999
 31
0.0
  0
LINE
  5
416
330
412
100
AcDbEntity
  8
Ｓ_１_１
  6
CONTINUOUS
 62
     2
100
AcDbLine
 10
684.500017
 20
250.499996
 30
0.0
 11
723.0
 21
250.499996
 31
0.0
  0
LINE
  5
417
330
412
100
AcDbEntity
  8
Ｓ_１_１
  6
CONTINUOUS
 62
     2
100
AcDbLine
 10
720.0
 20
202.499999
 30
0.0
 11
720.0
 21
241.499996
 31
0.0
  0
INSERT
  5
418
330
412
100
AcDbEntity
  8
Ｓ_１_１
 62
     2
100
AcDbBlockReference
  2
EX_NORM
 10
720.0
 20
193.499999
 30
0.0
 41
9.0
 42
9.0
 43
9.0
 50
270.0
  0
INSERT
  5
419
330
412
100
AcDbEntity
  8
Ｓ_１_１
 62
     2
100
AcDbBlockReference
  2
EX_NORM
 10
720.0
 20
250.499996
 30
0.0
 41
9.0
 42
9.0
 43
9.0
 50
90.0
  0
MTEXT
  5
41A
330
412
100
AcDbEntity
  8
Ｓ_１_１
 62
     2
100
AcDbMText
 10
711.75
 20
221.9999974999999
 30
0.0
 40
10.38871247113164
 41
0.0
 71
     5
 72
     1
  1
57
  7
EXCADDIM1
 11
0.0
 21
1.0
 31
0.0
  0
POINT
  5
41B
330
412
100
AcDbEntity
  8
DEFPOINTS
 62
     0
100
AcDbPoint
 10
640.5000279999999
 20
193.499999
 30
0.0
  0
POINT
  5
41C
330
412
100
AcDbEntity
  8
DEFPOINTS
 62
     0
100
AcDbPoint
 10
680.000017
 20
250.499996
 30
0.0
  0
POINT
  5
41D
330
412
100
AcDbEntity
  8
DEFPOINTS
 62
     0
100
AcDbPoint
 10
720.0
 20
250.499996
 30
0.0
  0
ENDBLK
  5
414
330
412
100
AcDbEntity
  8
0
100
AcDbBlockEnd
  0
BLOCK
  5
420
330
41F
100
AcDbEntity
  8
0
100
AcDbBlockBegin
  2
*D28
 70
     1
 10
0.0
 20
0.0
 30
0.0
  3
*D28
  1

  0
LINE
  5
422
330
41F
100
AcDbEntity
  8
Ｓ_１_１
  6
CONTINUOUS
 62
     2
100
AcDbLine
 10
684.500017
 20
250.499996
 30
0.0
 11
723.0000000000003
 21
250.499996
 31
0.0
  0
LINE
  5
423
330
41F
100
AcDbEntity
  8
Ｓ_１_１
  6
CONTINUOUS
 62
     2
100
AcDbLine
 10
667.000017
 20
260.499996
 30
0.0
 11
723.0000000000003
 21
260.499996
 31
0.0
  0
LINE
  5
424
330
41F
100
AcDbEntity
  8
Ｓ_１_１
  6
CONTINUOUS
 62
     2
100
AcDbLine
 10
720.0000000000003
 20
250.499996
 30
0.0
 11
720.0000000000003
 21
260.499996
 31
0.0
  0
LINE
  5
425
330
41F
100
AcDbEntity
  8
Ｓ_１_１
  6
CONTINUOUS
 62
     2
100
AcDbLine
 10
720.0000000000003
 20
241.499996
 30
0.0
 11
720.0000000000003
 21
232.499996
 31
0.0
  0
LINE
  5
426
330
41F
100
AcDbEntity
  8
Ｓ_１_１
  6
CONTINUOUS
 62
     2
100
AcDbLine
 10
720.0000000000003
 20
269.499996
 30
0.0
 11
720.0000000000003
 21
278.499996
 31
0.0
  0
INSERT
  5
427
330
41F
100
AcDbEntity
  8
Ｓ_１_１
 62
     2
100
AcDbBlockReference
  2
EX_NORM
 10
720.0000000000003
 20
250.499996
 30
0.0
 41
9.0
 42
9.0
 43
9.0
 50
90.0
  0
INSERT
  5
428
330
41F
100
AcDbEntity
  8
Ｓ_１_１
 62
     2
100
AcDbBlockReference
  2
EX_NORM
 10
720.0000000000003
 20
260.499996
 30
0.0
 41
9.0
 42
9.0
 43
9.0
 50
270.0
  0
MTEXT
  5
429
330
41F
100
AcDbEntity
  8
Ｓ_１_１
 62
     2
100
AcDbMText
 10
711.75
 20
286.3749959999998
 30
0.0
 40
10.38871247113164
 41
0.0
 71
     5
 72
     1
  1
　 10
  7
EXCADDIM1
 11
0.0
 21
1.0
 31
0.0
  0
POINT
  5
42A
330
41F
100
AcDbEntity
  8
DEFPOINTS
 62
     0
100
AcDbPoint
 10
680.000017
 20
250.499996
 30
0.0
  0
POINT
  5
42B
330
41F
100
AcDbEntity
  8
DEFPOINTS
 62
     0
100
AcDbPoint
 10
662.500017
 20
260.499996
 30
0.0
  0
POINT
  5
42C
330
41F
100
AcDbEntity
  8
DEFPOINTS
 62
     0
100
AcDbPoint
 10
720.0000000000003
 20
260.499996
 30
0.0
  0
ENDBLK
  5
421
330
41F
100
AcDbEntity
  8
0
100
AcDbBlockEnd
  0
BLOCK
  5
42F
330
42E
100
AcDbEntity
  8
0
100
AcDbBlockBegin
  2
*D29
 70
     1
 10
0.0
 20
0.0
 30
0.0
  3
*D29
  1

  0
LINE
  5
431
330
42E
100
AcDbEntity
  8
Ｓ_１_１
  6
CONTINUOUS
 62
     2
100
AcDbLine
 10
667.000017
 20
260.499996
 30
0.0
 11
742.9999999999998
 21
260.499996
 31
0.0
  0
LINE
  5
432
330
42E
100
AcDbEntity
  8
Ｓ_１_１
  6
CONTINUOUS
 62
     2
100
AcDbLine
 10
684.500017
 20
280.499986
 30
0.0
 11
742.9999999999998
 21
280.499986
 31
0.0
  0
LINE
  5
433
330
42E
100
AcDbEntity
  8
Ｓ_１_１
  6
CONTINUOUS
 62
     2
100
AcDbLine
 10
739.9999999999999
 20
269.499996
 30
0.0
 11
739.9999999999999
 21
271.499986
 31
0.0
  0
INSERT
  5
434
330
42E
100
AcDbEntity
  8
Ｓ_１_１
 62
     2
100
AcDbBlockReference
  2
EX_NORM
 10
739.9999999999999
 20
260.499996
 30
0.0
 41
9.0
 42
9.0
 43
9.0
 50
270.0
  0
INSERT
  5
435
330
42E
100
AcDbEntity
  8
Ｓ_１_１
 62
     2
100
AcDbBlockReference
  2
EX_NORM
 10
739.9999999999999
 20
280.499986
 30
0.0
 41
9.0
 42
9.0
 43
9.0
 50
90.0
  0
MTEXT
  5
436
330
42E
100
AcDbEntity
  8
Ｓ_１_１
 62
     2
100
AcDbMText
 10
731.75
 20
296.2499859999996
 30
0.0
 40
10.38871247113164
 41
0.0
 71
     5
 72
     1
  1
20
  7
EXCADDIM1
 11
0.0
 21
1.0
 31
0.0
  0
POINT
  5
437
330
42E
100
AcDbEntity
  8
DEFPOINTS
 62
     0
100
AcDbPoint
 10
662.500017
 20
260.499996
 30
0.0
  0
POINT
  5
438
330
42E
100
AcDbEntity
  8
DEFPOINTS
 62
     0
100
AcDbPoint
 10
680.000017
 20
280.499986
 30
0.0
  0
POINT
  5
439
330
42E
100
AcDbEntity
  8
DEFPOINTS
 62
     0
100
AcDbPoint
 10
739.9999999999999
 20
280.499986
 30
0.0
  0
ENDBLK
  5
430
330
42E
100
AcDbEntity
  8
0
100
AcDbBlockEnd
  0
BLOCK
  5
43C
330
43B
100
AcDbEntity
  8
0
100
AcDbBlockBegin
  2
*D30
 70
     1
 10
0.0
 20
0.0
 30
0.0
  3
*D30
  1

  0
LINE
  5
43E
330
43B
100
AcDbEntity
  8
Ｓ_１_１
  6
CONTINUOUS
 62
     2
100
AcDbLine
 10
667.000017
 20
260.499996
 30
0.0
 11
743.0
 21
260.499996
 31
0.0
  0
LINE
  5
43F
330
43B
100
AcDbEntity
  8
Ｓ_１_１
  6
CONTINUOUS
 62
     2
100
AcDbLine
 10
622.500021
 20
160.0
 30
0.0
 11
743.0
 21
160.0
 31
0.0
  0
LINE
  5
440
330
43B
100
AcDbEntity
  8
Ｓ_１_１
  6
CONTINUOUS
 62
     2
100
AcDbLine
 10
740.0
 20
251.499996
 30
0.0
 11
740.0
 21
169.0
 31
0.0
  0
INSERT
  5
441
330
43B
100
AcDbEntity
  8
Ｓ_１_１
 62
     2
100
AcDbBlockReference
  2
EX_NORM
 10
740.0
 20
260.499996
 30
0.0
 41
9.0
 42
9.0
 43
9.0
 50
90.0
  0
INSERT
  5
442
330
43B
100
AcDbEntity
  8
Ｓ_１_１
 62
     2
100
AcDbBlockReference
  2
EX_NORM
 10
740.0
 20
160.0
 30
0.0
 41
9.0
 42
9.0
 43
9.0
 50
270.0
  0
MTEXT
  5
443
330
43B
100
AcDbEntity
  8
Ｓ_１_１
 62
     2
100
AcDbMText
 10
731.75
 20
210.2499979999999
 30
0.0
 40
10.38871247113164
 41
0.0
 71
     5
 72
     1
  1
100.5
  7
EXCADDIM1
 11
0.0
 21
1.0
 31
0.0
  0
POINT
  5
444
330
43B
100
AcDbEntity
  8
DEFPOINTS
 62
     0
100
AcDbPoint
 10
662.500017
 20
260.499996
 30
0.0
  0
POINT
  5
445
330
43B
100
AcDbEntity
  8
DEFPOINTS
 62
     0
100
AcDbPoint
 10
618.000021
 20
160.0
 30
0.0
  0
POINT
  5
446
330
43B
100
AcDbEntity
  8
DEFPOINTS
 62
     0
100
AcDbPoint
 10
740.0
 20
160.0
 30
0.0
  0
ENDBLK
  5
43D
330
43B
100
AcDbEntity
  8
0
100
AcDbBlockEnd
  0
BLOCK
  5
449
330
448
100
AcDbEntity
  8
0
100
AcDbBlockBegin
  2
*D31
 70
     1
 10
0.0
 20
0.0
 30
0.0
  3
*D31
  1

  0
LINE
  5
44B
330
448
100
AcDbEntity
  8
Ｓ_１_１
  6
CONTINUOUS
 62
     2
100
AcDbLine
 10
622.500021
 20
160.0
 30
0.0
 11
763.0000000000001
 21
160.0
 31
0.0
  0
LINE
  5
44C
330
448
100
AcDbEntity
  8
Ｓ_１_１
  6
CONTINUOUS
 62
     2
100
AcDbLine
 10
684.500017
 20
280.499986
 30
0.0
 11
763.0000000000001
 21
280.499986
 31
0.0
  0
LINE
  5
44D
330
448
100
AcDbEntity
  8
Ｓ_１_１
  6
CONTINUOUS
 62
     2
100
AcDbLine
 10
760.0000000000001
 20
169.0
 30
0.0
 11
760.0000000000001
 21
271.499986
 31
0.0
  0
INSERT
  5
44E
330
448
100
AcDbEntity
  8
Ｓ_１_１
 62
     2
100
AcDbBlockReference
  2
EX_NORM
 10
760.0000000000001
 20
160.0
 30
0.0
 41
9.0
 42
9.0
 43
9.0
 50
270.0
  0
INSERT
  5
44F
330
448
100
AcDbEntity
  8
Ｓ_１_１
 62
     2
100
AcDbBlockReference
  2
EX_NORM
 10
760.0000000000001
 20
280.499986
 30
0.0
 41
9.0
 42
9.0
 43
9.0
 50
90.0
  0
MTEXT
  5
450
330
448
100
AcDbEntity
  8
Ｓ_１_１
 62
     2
100
AcDbMText
 10
751.7500000000001
 20
220.2499929999999
 30
0.0
 40
10.38871247113164
 41
0.0
 71
     5
 72
     1
  1
120.5
  7
EXCADDIM1
 11
0.0
 21
1.0
 31
0.0
  0
POINT
  5
451
330
448
100
AcDbEntity
  8
DEFPOINTS
 62
     0
100
AcDbPoint
 10
618.000021
 20
160.0
 30
0.0
  0
POINT
  5
452
330
448
100
AcDbEntity
  8
DEFPOINTS
 62
     0
100
AcDbPoint
 10
680.000017
 20
280.499986
 30
0.0
  0
POINT
  5
453
330
448
100
AcDbEntity
  8
DEFPOINTS
 62
     0
100
AcDbPoint
 10
760.0000000000001
 20
280.499986
 30
0.0
  0
ENDBLK
  5
44A
330
448
100
AcDbEntity
  8
0
100
AcDbBlockEnd
  0
ENDSEC
  0
SECTION
  2
ENTITIES
  0
LINE
  5
D4
330
1F
100
AcDbEntity
  8
図面枠
  6
CONTINUOUS
 62
     5
100
AcDbLine
 10
30.0
 20
30.0
 30
0.0
 11
1230.0
 21
30.0
 31
0.0
  0
LINE
  5
D5
330
1F
100
AcDbEntity
  8
図面枠
  6
CONTINUOUS
 62
     5
100
AcDbLine
 10
1230.0
 20
30.0
 30
0.0
 11
1230.0
 21
861.0
 31
0.0
  0
LINE
  5
D6
330
1F
100
AcDbEntity
  8
図面枠
  6
CONTINUOUS
 62
     5
100
AcDbLine
 10
1230.0
 20
861.0
 30
0.0
 11
30.00000000000016
 21
861.0
 31
0.0
  0
LINE
  5
D7
330
1F
100
AcDbEntity
  8
図面枠
  6
CONTINUOUS
 62
     3
100
AcDbLine
 10
45.00000000000005
 20
846.0
 30
0.0
 11
45.00000000000005
 21
819.0
 31
0.0
  0
LINE
  5
D8
330
1F
100
AcDbEntity
  8
図面枠
  6
CONTINUOUS
 62
     5
100
AcDbLine
 10
30.00000000000016
 20
861.0
 30
0.0
 11
30.0
 21
30.0
 31
0.0
  0
LINE
  5
D9
330
1F
100
AcDbEntity
  8
図面枠
  6
CONTINUOUS
 62
     3
100
AcDbLine
 10
1215.0
 20
72.0
 30
0.0
 11
1215.0
 21
45.0
 31
0.0
  0
LINE
  5
DA
330
1F
100
AcDbEntity
  8
図面枠
  6
CONTINUOUS
 62
     3
100
AcDbLine
 10
1125.0
 20
72.0
 30
0.0
 11
1125.0
 21
45.0
 31
0.0
  0
LINE
  5
DB
330
1F
100
AcDbEntity
  8
図面枠
  6
CONTINUOUS
 62
     3
100
AcDbLine
 10
1125.0
 20
72.0
 30
0.0
 11
1215.0
 21
72.0
 31
0.0
  0
LINE
  5
DC
330
1F
100
AcDbEntity
  8
図面枠
  6
CONTINUOUS
 62
     3
100
AcDbLine
 10
1125.0
 20
45.0
 30
0.0
 11
1215.0
 21
45.0
 31
0.0
  0
TEXT
  5
DE
330
1F
100
AcDbEntity
  8
図面枠
  6
CONTINUOUS
 62
     4
100
AcDbText
 10
1122.0
 20
814.1484375
 30
0.0
 40
10.38871247113164
  1
1000
 41
0.999230769230769
  7
EXCADTTF1
 72
     5
 11
1149.0
 21
814.1484375
 31
0.0
100
AcDbText
  0
TEXT
  5
DF
330
1F
100
AcDbEntity
  8
図面枠
  6
CONTINUOUS
 62
     4
100
AcDbText
 10
1161.0
 20
814.1484375
 30
0.0
 40
10.38871247113164
  1
kN
 41
0.999230769230769
  7
EXCADTTF1
 72
     5
 11
1174.5
 21
814.1484375
 31
0.0
100
AcDbText
  0
TEXT
  5
E0
330
1F
100
AcDbEntity
  8
図面枠
  6
CONTINUOUS
 62
     4
100
AcDbText
 10
1134.0
 20
52.03125
 30
0.0
 40
13.85161662817552
  1
MJ-10035
 41
0.9992307692307693
  7
EXCADTTF1
 72
     5
 11
1206.0
 21
52.03125
 31
0.0
100
AcDbText
  0
TEXT
  5
E1
330
1F
100
AcDbEntity
  8
図面枠
  6
CONTINUOUS
 62
     4
100
AcDbText
 10
1161.0
 20
688.1484375
 30
0.0
 40
10.38871247113164
  1
cm
 41
0.999230769230769
  7
EXCADTTF1
 72
     5
 11
1174.5
 21
688.1484375
 31
0.0
100
AcDbText
  0
TEXT
  5
E2
330
1F
100
AcDbEntity
  8
図面枠
  6
CONTINUOUS
 62
     4
100
AcDbText
 10
1170.45
 20
694.5292969420552
 30
0.0
 40
4.674920098289698
  1
2
 41
0.9992308790346205
  7
EXCADTTF1
 72
     5
 11
1173.4875
 21
694.5292969420552
 31
0.0
100
AcDbText
  0
TEXT
  5
E3
330
1F
100
AcDbEntity
  8
図面枠
  6
CONTINUOUS
 62
     4
100
AcDbText
 10
1115.25
 20
760.1484375
 30
0.0
 40
10.38871247113164
  1
100.5
 41
0.9992307692307689
  7
EXCADTTF1
 72
     5
 11
1149.0
 21
760.1484375
 31
0.0
100
AcDbText
  0
TEXT
  5
E4
330
1F
100
AcDbEntity
  8
図面枠
  6
CONTINUOUS
 62
     4
100
AcDbText
 10
1115.25
 20
778.1484375
 30
0.0
 40
10.38871247113164
  1
120.5
 41
0.9992307692307689
  7
EXCADTTF1
 72
     5
 11
1149.0
 21
778.1484375
 31
0.0
100
AcDbText
  0
TEXT
  5
E5
330
1F
100
AcDbEntity
  8
図面枠
  6
CONTINUOUS
 62
     4
100
AcDbText
 10
1135.5
 20
796.1484375
 30
0.0
 40
10.38871247113164
  1
35
 41
0.999230769230769
  7
EXCADTTF1
 72
     5
 11
1149.0
 21
796.1484375
 31
0.0
100
AcDbText
  0
TEXT
  5
E6
330
1F
100
AcDbEntity
  8
図面枠
  6
CONTINUOUS
 62
     4
100
AcDbText
 10
1161.0
 20
760.1484375
 30
0.0
 40
10.38871247113164
  1
mm
 41
0.999230769230769
  7
EXCADTTF1
 72
     5
 11
1174.5
 21
760.1484375
 31
0.0
100
AcDbText
  0
TEXT
  5
E7
330
1F
100
AcDbEntity
  8
図面枠
  6
CONTINUOUS
 62
     4
100
AcDbText
 10
1161.0
 20
778.1484375
 30
0.0
 40
10.38871247113164
  1
mm
 41
0.999230769230769
  7
EXCADTTF1
 72
     5
 11
1174.5
 21
778.1484375
 31
0.0
100
AcDbText
  0
TEXT
  5
E8
330
1F
100
AcDbEntity
  8
図面枠
  6
CONTINUOUS
 62
     4
100
AcDbText
 10
1161.0
 20
796.1484375
 30
0.0
 40
10.38871247113164
  1
mm
 41
0.999230769230769
  7
EXCADTTF1
 72
     5
 11
1174.5
 21
796.1484375
 31
0.0
100
AcDbText
  0
TEXT
  5
E9
330
1F
100
AcDbEntity
  8
図面枠
  6
CONTINUOUS
 62
     4
100
AcDbText
 10
1115.25
 20
688.1484375
 30
0.0
 40
10.38871247113164
  1
165.1
 41
0.9992307692307689
  7
EXCADTTF1
 72
     5
 11
1149.0
 21
688.1484375
 31
0.0
100
AcDbText
  0
TEXT
  5
EA
330
1F
100
AcDbEntity
  8
図面枠
  6
CONTINUOUS
 62
     4
100
AcDbText
 10
1128.75
 20
724.1484375
 30
0.0
 40
10.38871247113164
  1
110
 41
0.999230769230769
  7
EXCADTTF1
 72
     5
 11
1149.0
 21
724.1484375
 31
0.0
100
AcDbText
  0
TEXT
  5
EB
330
1F
100
AcDbEntity
  8
図面枠
  6
CONTINUOUS
 62
     4
100
AcDbText
 10
1128.75
 20
706.1484375
 30
0.0
 40
10.38871247113164
  1
145
 41
0.999230769230769
  7
EXCADTTF1
 72
     5
 11
1149.0
 21
706.1484375
 31
0.0
100
AcDbText
  0
TEXT
  5
EC
330
1F
100
AcDbEntity
  8
図面枠
  6
CONTINUOUS
 62
     4
100
AcDbText
 10
1161.0
 20
670.1484375
 30
0.0
 40
10.38871247113164
  1
MPa
 41
0.999230769230769
  7
EXCADTTF1
 72
     5
 11
1181.25
 21
670.1484375
 31
0.0
100
AcDbText
  0
TEXT
  5
ED
330
1F
100
AcDbEntity
  8
図面枠
  6
CONTINUOUS
 62
     4
100
AcDbText
 10
1161.0
 20
706.1484375
 30
0.0
 40
10.38871247113164
  1
mm
 41
0.999230769230769
  7
EXCADTTF1
 72
     5
 11
1174.5
 21
706.1484375
 31
0.0
100
AcDbText
  0
TEXT
  5
EE
330
1F
100
AcDbEntity
  8
図面枠
  6
CONTINUOUS
 62
     4
100
AcDbText
 10
1161.0
 20
724.1484375
 30
0.0
 40
10.38871247113164
  1
mm
 41
0.999230769230769
  7
EXCADTTF1
 72
     5
 11
1174.5
 21
724.1484375
 31
0.0
100
AcDbText
  0
TEXT
  5
EF
330
1F
100
AcDbEntity
  8
図面枠
  6
CONTINUOUS
 62
     4
100
AcDbText
 10
1122.03
 20
670.1484375
 30
0.0
 40
10.38871247113164
  1
60.6
 41
0.999230769230769
  7
EXCADTTF1
 72
     5
 11
1149.03
 21
670.1484375
 31
0.0
100
AcDbText
  0
TEXT
  5
F0
330
1F
100
AcDbEntity
  8
図面枠
  6
CONTINUOUS
 62
     4
100
AcDbText
 10
1161.0
 20
742.1484375
 30
0.0
 40
10.38871247113164
  1
mm
 41
0.999230769230769
  7
EXCADTTF1
 72
     5
 11
1174.5
 21
742.1484375
 31
0.0
100
AcDbText
  0
TEXT
  5
F1
330
1F
100
AcDbEntity
  8
図面枠
  6
CONTINUOUS
 62
     4
100
AcDbText
 10
1122.0
 20
616.1484375
 30
0.0
 40
10.38871247113164
  1
約15
 41
0.999230769230769
  7
EXCADTTF1
 72
     5
 11
1149.0
 21
616.1484375
 31
0.0
100
AcDbText
  0
TEXT
  5
F2
330
1F
100
AcDbEntity
  8
図面枠
  6
CONTINUOUS
 62
     4
100
AcDbText
 10
1161.0
 20
616.1484375
 30
0.0
 40
10.38871247113164
  1
kg
 41
0.999230769230769
  7
EXCADTTF1
 72
     5
 11
1174.5
 21
616.1484375
 31
0.0
100
AcDbText
  0
TEXT
  5
F3
330
1F
100
AcDbEntity
  8
図面枠
  6
CONTINUOUS
 62
     4
100
AcDbText
 10
1161.0
 20
634.1484375
 30
0.0
 40
10.38871247113164
  1
kg
 41
0.999230769230769
  7
EXCADTTF1
 72
     5
 11
1174.5
 21
634.1484375
 31
0.0
100
AcDbText
  0
LINE
  5
F4
330
1F
100
AcDbEntity
  8
図面枠
  6
CONTINUOUS
 62
     3
100
AcDbLine
 10
1215.0
 20
846.0
 30
0.0
 11
1215.0
 21
576.0
 31
0.0
  0
TEXT
  5
F5
330
1F
100
AcDbEntity
  8
図面枠
  6
CONTINUOUS
 62
     4
100
AcDbText
 10
54.0000000000001
 20
826.03125
 30
0.0
 40
13.85161662817552
  1
1000kN35ストローク補修用油圧ジャッキ
 41
0.9992307692307695
  7
EXCADTTF1
 72
     5
 11
378.0000000000001
 21
826.03125
 31
0.0
100
AcDbText
  0
LINE
  5
F6
330
1F
100
AcDbEntity
  8
図面枠
  6
CONTINUOUS
 62
     3
100
AcDbLine
 10
387.0000000000002
 20
846.0
 30
0.0
 11
387.0000000000002
 21
819.0
 31
0.0
  0
LINE
  5
F7
330
1F
100
AcDbEntity
  8
図面枠
  6
CONTINUOUS
 62
     3
100
AcDbLine
 10
45.00000000000005
 20
819.0
 30
0.0
 11
387.0000000000002
 21
819.0
 31
0.0
  0
LINE
  5
F8
330
1F
100
AcDbEntity
  8
図面枠
  6
CONTINUOUS
 62
     3
100
AcDbLine
 10
45.00000000000005
 20
846.0
 30
0.0
 11
387.0000000000002
 21
846.0
 31
0.0
  0
TEXT
  5
F9
330
1F
100
AcDbEntity
  8
図面枠
  6
CONTINUOUS
 62
     4
100
AcDbText
 10
921.0
 20
814.1484375
 30
0.0
 40
10.38871247113164
  1
能力
 41
0.999230769230769
  7
EXCADTTF1
 72
     5
 11
948.0
 21
814.1484375
 31
0.0
100
AcDbText
  0
TEXT
  5
FA
330
1F
100
AcDbEntity
  8
図面枠
  6
CONTINUOUS
 62
     4
100
AcDbText
 10
921.0
 20
760.1484375
 30
0.0
 40
10.38871247113164
  1
ジャッキ機械高
 41
0.9992307692307688
  7
EXCADTTF1
 72
     5
 11
1015.5
 21
760.1484375
 31
0.0
100
AcDbText
  0
TEXT
  5
FB
330
1F
100
AcDbEntity
  8
図面枠
  6
CONTINUOUS
 62
     4
100
AcDbText
 10
921.0
 20
778.1484375
 30
0.0
 40
10.38871247113164
  1
最低機械高
 41
0.9992307692307689
  7
EXCADTTF1
 72
     5
 11
988.5
 21
778.1484375
 31
0.0
100
AcDbText
  0
TEXT
  5
FC
330
1F
100
AcDbEntity
  8
図面枠
  6
CONTINUOUS
 62
     4
100
AcDbText
 10
921.0
 20
724.1484375
 30
0.0
 40
10.38871247113164
  1
ロッド径
 41
0.999230769230769
  7
EXCADTTF1
 72
     5
 11
975.0
 21
724.1484375
 31
0.0
100
AcDbText
  0
TEXT
  5
FD
330
1F
100
AcDbEntity
  8
図面枠
  6
CONTINUOUS
 62
     4
100
AcDbText
 10
921.0
 20
670.1484375
 30
0.0
 40
10.38871247113164
  1
最高使用圧力
 41
0.9992307692307689
  7
EXCADTTF1
 72
     5
 11
1002.0
 21
670.1484375
 31
0.0
100
AcDbText
  0
TEXT
  5
FE
330
1F
100
AcDbEntity
  8
図面枠
  6
CONTINUOUS
 62
     4
100
AcDbText
 10
921.0
 20
688.1484375
 30
0.0
 40
10.38871247113164
  1
受圧面積
 41
0.999230769230769
  7
EXCADTTF1
 72
     5
 11
975.0
 21
688.1484375
 31
0.0
100
AcDbText
  0
TEXT
  5
FF
330
1F
100
AcDbEntity
  8
図面枠
  6
CONTINUOUS
 62
     4
100
AcDbText
 10
921.0
 20
706.1484375
 30
0.0
 40
10.38871247113164
  1
ピストン径
 41
0.9992307692307689
  7
EXCADTTF1
 72
     5
 11
988.5
 21
706.1484375
 31
0.0
100
AcDbText
  0
TEXT
  5
100
330
1F
100
AcDbEntity
  8
図面枠
  6
CONTINUOUS
 62
     4
100
AcDbText
 10
921.0
 20
742.1484375
 30
0.0
 40
10.38871247113164
  1
シリンダ外径
 41
0.9992307692307689
  7
EXCADTTF1
 72
     5
 11
1002.0
 21
742.1484375
 31
0.0
100
AcDbText
  0
TEXT
  5
101
330
1F
100
AcDbEntity
  8
図面枠
  6
CONTINUOUS
 62
     4
100
AcDbText
 10
921.0
 20
598.1484375
 30
0.0
 40
10.38871247113164
  1
備考
 41
0.999230769230769
  7
EXCADTTF1
 72
     5
 11
948.0
 21
598.1484375
 31
0.0
100
AcDbText
  0
TEXT
  5
102
330
1F
100
AcDbEntity
  8
図面枠
  6
CONTINUOUS
 62
     4
100
AcDbText
 10
921.0
 20
634.1484375
 30
0.0
 40
10.38871247113164
  1
重量
 41
0.999230769230769
  7
EXCADTTF1
 72
     5
 11
948.0
 21
634.1484375
 31
0.0
100
AcDbText
  0
TEXT
  5
103
330
1F
100
AcDbEntity
  8
図面枠
  6
CONTINUOUS
 62
     4
100
AcDbText
 10
921.0
 20
652.1484375
 30
0.0
 40
10.38871247113164
  1
所要油量
 41
0.999230769230769
  7
EXCADTTF1
 72
     5
 11
975.0
 21
652.1484375
 31
0.0
100
AcDbText
  0
TEXT
  5
104
330
1F
100
AcDbEntity
  8
図面枠
  6
CONTINUOUS
 62
     4
100
AcDbText
 10
921.0
 20
580.1484375
 30
0.0
 40
10.38871247113164
  1
可動ヘッドは、±30mm移動可能
 41
0.9992307692307688
  7
EXCADTTF1
 72
     5
 11
1110.0
 21
580.1484375
 31
0.0
100
AcDbText
  0
LINE
  5
105
330
1F
100
AcDbEntity
  8
図面枠
  6
CONTINUOUS
 62
     3
100
AcDbLine
 10
915.0
 20
846.0
 30
0.0
 11
915.0
 21
576.0
 31
0.0
  0
TEXT
  5
106
330
1F
100
AcDbEntity
  8
図面枠
  6
CONTINUOUS
 62
     4
100
AcDbText
 10
921.0
 20
796.1484375
 30
0.0
 40
10.38871247113164
  1
ストローク　※
 41
0.9992307692307688
  7
EXCADTTF1
 72
     5
 11
1015.5
 21
796.1484375
 31
0.0
100
AcDbText
  0
TEXT
  5
107
330
1F
100
AcDbEntity
  8
図面枠
  6
CONTINUOUS
 62
     4
100
AcDbText
 10
1031.25
 20
832.1484375
 30
0.0
 40
10.38871247113164
  1
仕　　　様
 41
0.9992307692307689
  7
EXCADTTF1
 72
     5
 11
1098.75
 21
832.1484375
 31
0.0
100
AcDbText
  0
LINE
  5
108
330
1F
100
AcDbEntity
  8
図面枠
  6
CONTINUOUS
 62
     3
100
AcDbLine
 10
915.0
 20
846.0
 30
0.0
 11
1215.0
 21
846.0
 31
0.0
  0
LINE
  5
109
330
1F
100
AcDbEntity
  8
図面枠
  6
CONTINUOUS
 62
     3
100
AcDbLine
 10
915.0
 20
576.0
 30
0.0
 11
1215.0
 21
576.0
 31
0.0
  0
LINE
  5
10A
330
1F
100
AcDbEntity
  8
図面枠
  6
CONTINUOUS
 62
     2
100
AcDbLine
 10
915.0
 20
612.0
 30
0.0
 11
1215.0
 21
612.0
 31
0.0
  0
LINE
  5
10B
330
1F
100
AcDbEntity
  8
図面枠
  6
CONTINUOUS
 62
     3
100
AcDbLine
 10
915.0
 20
828.0
 30
0.0
 11
1215.0
 21
828.0
 31
0.0
  0
LINE
  5
10C
330
1F
100
AcDbEntity
  8
図面枠
  6
CONTINUOUS
 62
     2
100
AcDbLine
 10
915.0
 20
810.0
 30
0.0
 11
1215.0
 21
810.0
 31
0.0
  0
LINE
  5
10D
330
1F
100
AcDbEntity
  8
図面枠
  6
CONTINUOUS
 62
     2
100
AcDbLine
 10
915.0
 20
792.0
 30
0.0
 11
1215.0
 21
792.0
 31
0.0
  0
LINE
  5
10E
330
1F
100
AcDbEntity
  8
図面枠
  6
CONTINUOUS
 62
     2
100
AcDbLine
 10
915.0
 20
774.0
 30
0.0
 11
1215.0
 21
774.0
 31
0.0
  0
LINE
  5
10F
330
1F
100
AcDbEntity
  8
図面枠
  6
CONTINUOUS
 62
     2
100
AcDbLine
 10
915.0
 20
756.0
 30
0.0
 11
1215.0
 21
756.0
 31
0.0
  0
LINE
  5
110
330
1F
100
AcDbEntity
  8
図面枠
  6
CONTINUOUS
 62
     2
100
AcDbLine
 10
915.0
 20
720.0
 30
0.0
 11
1215.0
 21
720.0
 31
0.0
  0
LINE
  5
111
330
1F
100
AcDbEntity
  8
図面枠
  6
CONTINUOUS
 62
     2
100
AcDbLine
 10
915.0
 20
702.0
 30
0.0
 11
1215.0
 21
702.0
 31
0.0
  0
LINE
  5
112
330
1F
100
AcDbEntity
  8
図面枠
  6
CONTINUOUS
 62
     2
100
AcDbLine
 10
915.0
 20
684.0
 30
0.0
 11
1215.0
 21
684.0
 31
0.0
  0
LINE
  5
113
330
1F
100
AcDbEntity
  8
図面枠
  6
CONTINUOUS
 62
     2
100
AcDbLine
 10
915.0
 20
738.0
 30
0.0
 11
1215.0
 21
738.0
 31
0.0
  0
LINE
  5
114
330
1F
100
AcDbEntity
  8
図面枠
  6
CONTINUOUS
 62
     2
100
AcDbLine
 10
915.0
 20
666.0
 30
0.0
 11
1215.0
 21
666.0
 31
0.0
  0
LINE
  5
115
330
1F
100
AcDbEntity
  8
図面枠
  6
CONTINUOUS
 62
     2
100
AcDbLine
 10
915.0
 20
648.0
 30
0.0
 11
1215.0
 21
648.0
 31
0.0
  0
LINE
  5
116
330
1F
100
AcDbEntity
  8
図面枠
  6
CONTINUOUS
 62
     2
100
AcDbLine
 10
1155.0
 20
828.0
 30
0.0
 11
1155.0
 21
612.0
 31
0.0
  0
TEXT
  5
117
330
1F
100
AcDbEntity
  8
図面枠
  6
CONTINUOUS
 62
     4
100
AcDbText
 10
884.9999999999999
 20
531.3984375
 30
0.0
 40
10.38871247113164
  1
※）①ストロークエンドからの加圧はおやめ下さい。
 41
0.9992307692307695
  7
EXCADTTF1
 72
     5
 11
1209.0
 21
531.3984375
 31
0.0
100
AcDbText
  0
TEXT
  5
118
330
1F
100
AcDbEntity
  8
図面枠
  6
CONTINUOUS
 62
     4
100
AcDbText
 10
884.9999999999999
 20
517.8984375
 30
0.0
 40
10.38871247113164
  1
　　
 41
0.999230769230769
  7
EXCADTTF1
 72
     5
 11
911.9999999999999
 21
517.8984375
 31
0.0
100
AcDbText
  0
TEXT
  5
119
330
1F
100
AcDbEntity
  8
図面枠
  6
CONTINUOUS
 62
     4
100
AcDbText
 10
884.9999999999999
 20
504.3984375
 30
0.0
 40
10.38871247113164
  1
　　②ストロークエンドにて安全ナットをロック
 41
0.9992307692307694
  7
EXCADTTF1
 72
     5
 11
1182.0
 21
504.3984375
 31
0.0
100
AcDbText
  0
TEXT
  5
11A
330
1F
100
AcDbEntity
  8
図面枠
  6
CONTINUOUS
 62
     4
100
AcDbText
 10
884.9999999999999
 20
490.8984375
 30
0.0
 40
10.38871247113164
  1
　　　した場合、解放が困難になる場合があります。
 41
0.9992307692307695
  7
EXCADTTF1
 72
     5
 11
1209.0
 21
490.8984375
 31
0.0
100
AcDbText
  0
TEXT
  5
11B
330
1F
100
AcDbEntity
  8
図面枠
  6
CONTINUOUS
 62
     4
100
AcDbText
 10
884.9999999999999
 20
463.8984375
 30
0.0
 40
10.38871247113164
  1
　　③出荷時にストロークエンド使用が出来ないよう
 41
0.9992307692307695
  7
EXCADTTF1
 72
     5
 11
1209.0
 21
463.8984375
 31
0.0
100
AcDbText
  0
TEXT
  5
11C
330
1F
100
AcDbEntity
  8
図面枠
  6
CONTINUOUS
 62
     4
100
AcDbText
 10
884.9999999999999
 20
450.3984375
 30
0.0
 40
10.38871247113164
  1
　　　手動ポンプの油量を調整させていただく場合が
 41
0.9992307692307695
  7
EXCADTTF1
 72
     5
 11
1209.0
 21
450.3984375
 31
0.0
100
AcDbText
  0
TEXT
  5
11D
330
1F
100
AcDbEntity
  8
図面枠
  6
CONTINUOUS
 62
     4
100
AcDbText
 10
884.9999999999999
 20
436.8984375
 30
0.0
 40
10.38871247113164
  1
　　　あります。
 41
0.9992307692307688
  7
EXCADTTF1
 72
     5
 11
992.9999999999999
 21
436.8984375
 31
0.0
100
AcDbText
  0
TEXT
  5
11E
330
1F
100
AcDbEntity
  8
図面枠
  6
CONTINUOUS
 62
     4
100
AcDbText
 10
1161.0
 20
652.1484375
 30
0.0
 40
10.38871247113164
  1
L
 41
0.999230769230769
  7
EXCADTTF1
 72
     5
 11
1167.75
 21
652.1484375
 31
0.0
100
AcDbText
  0
TEXT
  5
11F
330
1F
100
AcDbEntity
  8
図面枠
  6
CONTINUOUS
 62
     4
100
AcDbText
 10
1122.0
 20
652.1484375
 30
0.0
 40
10.38871247113164
  1
0.58
 41
0.999230769230769
  7
EXCADTTF1
 72
     5
 11
1149.0
 21
652.1484375
 31
0.0
100
AcDbText
  0
TEXT
  5
120
330
1F
100
AcDbEntity
  8
図面枠
  6
CONTINUOUS
 62
     4
100
AcDbText
 10
1095.0
 20
742.1484375
 30
0.0
 40
10.38871247113164
  1
200(190)
 41
0.9992307692307688
  7
EXCADTTF1
 72
     5
 11
1149.0
 21
742.1484375
 31
0.0
100
AcDbText
  0
TEXT
  5
121
330
1F
100
AcDbEntity
  8
図面枠
  6
CONTINUOUS
 62
     4
100
AcDbText
 10
1023.0
 20
634.1484375
 30
0.0
 40
10.38871247113164
  1
ジャッキ
 41
0.999230769230769
  7
EXCADTTF1
 72
     5
 11
1077.0
 21
634.1484375
 31
0.0
100
AcDbText
  0
LINE
  5
122
330
1F
100
AcDbEntity
  8
図面枠
  6
CONTINUOUS
 62
     2
100
AcDbLine
 10
1020.0
 20
648.0
 30
0.0
 11
1020.0
 21
612.0
 31
0.0
  0
LINE
  5
123
330
1F
100
AcDbEntity
  8
図面枠
  6
CONTINUOUS
 62
     2
100
AcDbLine
 10
1080.0
 20
828.0
 30
0.0
 11
1080.0
 21
612.0
 31
0.0
  0
TEXT
  5
124
330
1F
100
AcDbEntity
  8
図面枠
  6
CONTINUOUS
 62
     4
100
AcDbText
 10
1023.0
 20
616.1484375
 30
0.0
 40
10.38871247113164
  1
プレート
 41
0.999230769230769
  7
EXCADTTF1
 72
     5
 11
1077.0
 21
616.1484375
 31
0.0
100
AcDbText
  0
LINE
  5
125
330
1F
100
AcDbEntity
  8
図面枠
  6
CONTINUOUS
 62
     2
100
AcDbLine
 10
1020.0
 20
630.0
 30
0.0
 11
1215.0
 21
630.0
 31
0.0
  0
TEXT
  5
126
330
1F
100
AcDbEntity
  8
図面枠
  6
CONTINUOUS
 62
     4
100
AcDbText
 10
1122.0
 20
634.1484375
 30
0.0
 40
10.38871247113164
  1
約30
 41
0.999230769230769
  7
EXCADTTF1
 72
     5
 11
1149.0
 21
634.1484375
 31
0.0
100
AcDbText
  0
DIMENSION
  5
128
330
1F
100
AcDbEntity
  8
Ｓ_１_１
  6
CONTINUOUS
 62
     2
100
AcDbDimension
  2
*D15
 10
475.963856
 20
547.048219
 30
0.0
 11
515.0572516476864
 21
586.6053775367307
 31
0.0
 70
   163
  1
　　　　%%c110
  3
ISO-25
100
AcDbDiametricDimension
 15
564.0361680000001
 25
612.951689
 35
0.0
 40
0.0
1001
ACAD
1000
DSTYLE
1002
{
1070
   270
1070
     2
1070
     6
1000
EX_NORM
1070
     7
1000
EX_NORM
1070
    41
1040
9.0
1070
    73
1070
     0
1070
    74
1070
     0
1070
    77
1070
     1
1070
    78
1070
     8
1070
   140
1040
10.38871247113164
1070
   147
1040
0.0
1070
   173
1070
     1
1070
   176
1070
     2
1070
   177
1070
     2
1070
   178
1070
     2
1070
   271
1070
     2
1070
   277
1070
     2
1070
   279
1070
     2
1070
   280
1070
     0
1070
   287
1070
     5
1070
   340
1005
127
1002
}
  0
DIMENSION
  5
133
330
1F
100
AcDbEntity
  8
Ｓ_１_１
  6
CONTINUOUS
 62
     2
100
AcDbDimension
  2
*D16
 10
759.9999999999997
 20
450.000002
 30
0.0
 11
751.7500000000001
 21
579.9999999999998
 31
0.0
 70
   160
  1
260
  3
ISO-25
100
AcDbAlignedDimension
 13
649.9999969999999
 23
709.999998
 33
0.0
 14
649.9999969999999
 24
450.000002
 34
0.0
 50
90.0
100
AcDbRotatedDimension
1001
ACAD
1000
DSTYLE
1002
{
1070
   270
1070
     2
1070
     6
1000
EX_NORM
1070
     7
1000
EX_NORM
1070
    41
1040
9.0
1070
    42
1040
4.5
1070
    44
1040
3.0
1070
    73
1070
     0
1070
    74
1070
     0
1070
    75
1070
     0
1070
    76
1070
     0
1070
    77
1070
     1
1070
    78
1070
     8
1070
   140
1040
10.38871247113164
1070
   147
1040
0.0
1070
   173
1070
     1
1070
   176
1070
     2
1070
   177
1070
     2
1070
   178
1070
     2
1070
   271
1070
     2
1070
   277
1070
     2
1070
   279
1070
     2
1070
   280
1070
     0
1070
   287
1070
     5
1070
   340
1005
127
1002
}
  0
DIMENSION
  5
140
330
1F
100
AcDbEntity
  8
Ｓ_１_１
  6
CONTINUOUS
 62
     2
100
AcDbDimension
  2
*D17
 10
280.0000000000001
 20
702.499998
 30
0.0
 11
271.7500000000002
 21
580.0
 31
0.0
 70
   160
  1
245
  3
ISO-25
100
AcDbAlignedDimension
 13
492.500003
 23
457.500002
 33
0.0
 14
492.500003
 24
702.499998
 34
0.0
 50
90.0
100
AcDbRotatedDimension
1001
ACAD
1000
DSTYLE
1002
{
1070
   270
1070
     2
1070
     6
1000
EX_NORM
1070
     7
1000
EX_NORM
1070
    41
1040
9.0
1070
    42
1040
4.5
1070
    44
1040
3.0
1070
    73
1070
     0
1070
    74
1070
     0
1070
    75
1070
     0
1070
    76
1070
     0
1070
    77
1070
     1
1070
    78
1070
     8
1070
   140
1040
10.38871247113164
1070
   147
1040
0.0
1070
   173
1070
     1
1070
   176
1070
     2
1070
   177
1070
     2
1070
   178
1070
     2
1070
   271
1070
     2
1070
   277
1070
     2
1070
   279
1070
     2
1070
   280
1070
     0
1070
   287
1070
     5
1070
   340
1005
127
1002
}
  0
LINE
  5
14D
330
1F
100
AcDbEntity
  8
Ｓ_１_１
  6
CONTINUOUS
 62
     2
100
AcDbLine
 10
330.000003
 20
475.500003
 30
0.0
 11
330.000003
 21
398.8750029999999
 31
0.0
  0
DIMENSION
  5
14E
330
1F
100
AcDbEntity
  8
Ｓ_１_１
  6
CONTINUOUS
 62
     2
100
AcDbDimension
  2
*D18
 10
360.0000020000001
 20
400.0000000000001
 30
0.0
 11
520.0000000000001
 21
408.2499999999999
 31
0.0
 70
   160
  1
320
  3
ISO-25
100
AcDbAlignedDimension
 13
679.999998
 23
480.000003
 33
0.0
 14
360.0000020000001
 24
480.000003
 34
0.0
100
AcDbRotatedDimension
1001
ACAD
1000
DSTYLE
1002
{
1070
   270
1070
     2
1070
     6
1000
EX_NORM
1070
     7
1000
EX_NORM
1070
    41
1040
9.0
1070
    42
1040
4.5
1070
    44
1040
3.0
1070
    73
1070
     0
1070
    74
1070
     0
1070
    75
1070
     1
1070
    76
1070
     0
1070
    77
1070
     1
1070
    78
1070
     8
1070
   140
1040
10.38871247113164
1070
   147
1040
0.0
1070
   173
1070
     1
1070
   176
1070
     2
1070
   177
1070
     2
1070
   178
1070
     2
1070
   271
1070
     2
1070
   277
1070
     2
1070
   279
1070
     2
1070
   280
1070
     0
1070
   287
1070
     5
1070
   340
1005
127
1002
}
  0
DIMENSION
  5
15A
330
1F
100
AcDbEntity
  8
Ｓ_１_１
  6
CONTINUOUS
 62
     2
100
AcDbDimension
  2
*D19
 10
640.000017
 20
319.9999999999999
 30
0.0
 11
520.000019
 21
328.25
 31
0.0
 70
   160
  1
%%c240(230)
  3
ISO-25
100
AcDbAlignedDimension
 13
400.000021
 23
260.499997
 33
0.0
 14
640.000017
 24
260.499997
 34
0.0
100
AcDbRotatedDimension
1001
ACAD
1000
DSTYLE
1002
{
1070
   270
1070
     2
1070
     6
1000
EX_NORM
1070
     7
1000
EX_NORM
1070
    41
1040
9.0
1070
    42
1040
4.5
1070
    44
1040
3.0
1070
    73
1070
     0
1070
    74
1070
     0
1070
    75
1070
     0
1070
    76
1070
     0
1070
    77
1070
     1
1070
    78
1070
     8
1070
   140
1040
10.38871247113164
1070
   147
1040
0.0
1070
   173
1070
     1
1070
   176
1070
     2
1070
   177
1070
     2
1070
   178
1070
     2
1070
   271
1070
     2
1070
   277
1070
     2
1070
   279
1070
     2
1070
   280
1070
     0
1070
   287
1070
     5
1070
   340
1005
127
1002
}
  0
DIMENSION
  5
167
330
1F
100
AcDbEntity
  8
Ｓ_１_１
  6
CONTINUOUS
 62
     2
100
AcDbDimension
  2
*D20
 10
709.9999969999999
 20
400.0000000000001
 30
0.0
 11
759.4999969999975
 21
408.2500000000044
 31
0.0
 70
   160
  1
30（移動量）
  3
ISO-25
100
AcDbAlignedDimension
 13
679.999998
 23
480.000009
 33
0.0
 14
709.9999969999999
 24
480.0000299999999
 34
0.0
100
AcDbRotatedDimension
1001
ACAD
1000
DSTYLE
1002
{
1070
   270
1070
     2
1070
     6
1000
EX_NORM
1070
     7
1000
EX_NORM
1070
    41
1040
9.0
1070
    42
1040
4.5
1070
    44
1040
2.999999999999829
1070
    73
1070
     0
1070
    74
1070
     0
1070
    75
1070
     0
1070
    76
1070
     0
1070
    77
1070
     1
1070
    78
1070
     8
1070
   140
1040
10.38871247113164
1070
   147
1040
0.0
1070
   173
1070
     1
1070
   176
1070
     2
1070
   177
1070
     2
1070
   178
1070
     2
1070
   271
1070
     2
1070
   277
1070
     2
1070
   279
1070
     2
1070
   280
1070
     2
1070
   287
1070
     5
1070
   340
1005
127
1002
}
  0
DIMENSION
  5
174
330
1F
100
AcDbEntity
  8
Ｓ_１_１
  6
CONTINUOUS
 62
     2
100
AcDbDimension
  2
*D21
 10
330.000003
 20
399.9999999999999
 30
0.0
 11
280.5000030000002
 21
408.2499999999999
 31
0.0
 70
   160
  1
30（移動量）
  3
ISO-25
100
AcDbAlignedDimension
 13
360.000002
 23
479.999978
 33
0.0
 14
330.000003
 24
479.999969
 34
0.0
100
AcDbRotatedDimension
1001
ACAD
1000
DSTYLE
1002
{
1070
   270
1070
     2
1070
     6
1000
EX_NORM
1070
     7
1000
EX_NORM
1070
    41
1040
9.0
1070
    42
1040
4.5
1070
    44
1040
3.0
1070
    73
1070
     0
1070
    74
1070
     0
1070
    75
1070
     1
1070
    76
1070
     0
1070
    77
1070
     1
1070
    78
1070
     8
1070
   140
1040
10.38871247113164
1070
   147
1040
0.0
1070
   173
1070
     1
1070
   176
1070
     2
1070
   177
1070
     2
1070
   178
1070
     2
1070
   271
1070
     2
1070
   277
1070
     2
1070
   279
1070
     2
1070
   280
1070
     2
1070
   287
1070
     5
1070
   340
1005
127
1002
}
  0
TEXT
  5
180
330
1F
100
AcDbEntity
  8
Ｓ_１_１
  6
CONTINUOUS
 62
     4
100
AcDbText
 10
260.0
 20
304.1484375
 30
0.0
 40
10.38871247113164
  1
6-M12ネジ深20
 41
0.999230769230769
  7
EXCADTTF1
 72
     5
 11
347.75
 21
304.1484375
 31
0.0
100
AcDbText
  0
LEADER
  5
181
330
1F
100
AcDbEntity
  8
Ｓ_１_１
  6
CONTINUOUS
 62
     2
100
AcDbLeader
  3
ISO-25
 76
     3
 10
417.7899631733899
 20
213.03302334635
 30
0.0
 10
360.0
 20
300.0
 30
0.0
 10
260.0
 20
300.0
 30
0.0
1001
ACAD
1000
DSTYLE
1002
{
1070
     5
1000
EX_NORM
1070
    41
1040
9.0
1070
   341
1005
78
1002
}
  0
TEXT
  5
182
330
1F
100
AcDbEntity
  8
Ｓ_１_１
  6
CONTINUOUS
 62
     4
100
AcDbText
 10
703.750019
 20
343.3984375
 30
0.0
 40
10.38871247113164
  1
安全ナット
 41
0.9992307692307689
  7
EXCADTTF1
 72
     5
 11
771.250019
 21
343.3984375
 31
0.0
100
AcDbText
  0
LEADER
  5
183
330
1F
100
AcDbEntity
  8
Ｓ_１_１
  6
CONTINUOUS
 62
     2
100
AcDbLeader
  3
ISO-25
 76
     3
 10
640.000017
 20
240.3
 30
0.0
 10
697.500019
 20
340.0
 30
0.0
 10
777.5000189999998
 20
340.0
 30
0.0
1001
ACAD
1000
DSTYLE
1002
{
1070
     5
1000
EX_NORM
1070
    41
1040
9.0
1070
   341
1005
78
1002
}
  0
TEXT
  5
184
330
1F
100
AcDbEntity
  8
Ｓ_１_１
  6
CONTINUOUS
 62
     4
100
AcDbText
 10
703.750019
 20
323.3984375
 30
0.0
 40
10.38871247113164
  1
可動ヘッド
 41
0.9992307692307689
  7
EXCADTTF1
 72
     5
 11
771.250019
 21
323.3984375
 31
0.0
100
AcDbText
  0
LEADER
  5
185
330
1F
100
AcDbEntity
  8
Ｓ_１_１
  6
CONTINUOUS
 62
     2
100
AcDbLeader
  3
ISO-25
 76
     3
 10
667.9760774502399
 20
280.499986
 30
0.0
 10
697.500019
 20
320.0
 30
0.0
 10
777.5000189999998
 20
320.0
 30
0.0
1001
ACAD
1000
DSTYLE
1002
{
1070
     5
1000
EX_NORM
1070
    41
1040
9.0
1070
   341
1005
78
1002
}
  0
LINE
  5
186
330
1F
100
AcDbEntity
  8
Ｓ_１_１
  6
EXLTYPE2
 62
     1
100
AcDbLine
 10
322.337497
 20
580.0
 30
0.0
 11
714.337499
 21
580.0
 31
0.0
  0
LINE
  5
187
330
1F
100
AcDbEntity
  8
Ｓ_１_１
  6
EXLTYPE2
 62
     1
100
AcDbLine
 10
520.0
 20
719.062498
 30
0.0
 11
520.0
 21
438.187487
 31
0.0
  0
ARC
  5
188
330
1F
100
AcDbEntity
  8
Ｓ_１_１
  6
EXLTYPE0
 62
     2
100
AcDbCircle
 10
492.5000000000001
 20
580.0
 30
0.0
 40
122.499998
100
AcDbArc
 50
90.000003
 51
270.0000010000001
  0
ARC
  5
189
330
1F
100
AcDbEntity
  8
Ｓ_１_１
  6
EXLTYPE0
 62
     2
100
AcDbCircle
 10
547.5
 20
580.0
 30
0.0
 40
122.499998
100
AcDbArc
 50
269.999997
 51
90.000003
  0
CIRCLE
  5
18A
330
1F
100
AcDbEntity
  8
Ｓ_１_１
  6
EXLTYPE0
 62
     2
100
AcDbCircle
 10
520.0
 20
580.0
 30
0.0
 40
119.999998
  0
CIRCLE
  5
18B
330
1F
100
AcDbEntity
  8
Ｓ_１_１
  6
EXLTYPE0
 62
     2
100
AcDbCircle
 10
520.0
 20
580.0
 30
0.0
 40
54.999999
  0
LINE
  5
18C
330
1F
100
AcDbEntity
  8
Ｓ_１_１
  6
EXLTYPE0
 62
     2
100
AcDbLine
 10
492.5000000000001
 20
457.500002
 30
0.0
 11
547.5
 21
457.500002
 31
0.0
  0
LINE
  5
18D
330
1F
100
AcDbEntity
  8
Ｓ_１_１
  6
EXLTYPE0
 62
     2
100
AcDbLine
 10
492.5000000000001
 20
702.499998
 30
0.0
 11
547.5
 21
702.499998
 31
0.0
  0
LINE
  5
18E
330
1F
100
AcDbEntity
  8
Ｓ_１_１
  6
EXLTYPE0
 62
     2
100
AcDbLine
 10
545.0
 20
462.4999829999999
 30
0.0
 11
520.0
 21
462.4999829999999
 31
0.0
  0
LINE
  5
18F
330
1F
100
AcDbEntity
  8
Ｓ_１_１
  6
EXLTYPE3
 62
     2
100
AcDbLine
 10
709.9999969999999
 20
679.999999
 30
0.0
 11
709.9999969999999
 21
480.000002
 31
0.0
  0
LINE
  5
190
330
1F
100
AcDbEntity
  8
Ｓ_１_１
  6
EXLTYPE3
 62
     2
100
AcDbLine
 10
679.999978
 20
450.000008
 30
0.0
 11
709.999982
 21
480.000015
 31
0.0
  0
LINE
  5
191
330
1F
100
AcDbEntity
  8
Ｓ_１_１
  6
EXLTYPE3
 62
     2
100
AcDbLine
 10
709.9999740000001
 20
680.000017
 30
0.0
 11
679.999994
 21
709.999995
 31
0.0
  0
LINE
  5
192
330
1F
100
AcDbEntity
  8
Ｓ_１_１
  6
EXLTYPE3
 62
     2
100
AcDbLine
 10
329.999982
 20
680.000012
 30
0.0
 11
359.999989
 21
710.000016
 31
0.0
  0
LINE
  5
193
330
1F
100
AcDbEntity
  8
Ｓ_１_１
  6
EXLTYPE3
 62
     2
100
AcDbLine
 10
330.000003
 20
679.999999
 30
0.0
 11
330.000003
 21
480.000002
 31
0.0
  0
LINE
  5
194
330
1F
100
AcDbEntity
  8
Ｓ_１_１
  6
EXLTYPE3
 62
     2
100
AcDbLine
 10
329.999986
 20
479.999986
 30
0.0
 11
359.999966
 21
450.000008
 31
0.0
  0
LINE
  5
195
330
1F
100
AcDbEntity
  8
Ｓ_１_１
  6
CONTINUOUS
 62
     3
100
AcDbLine
 10
679.999961
 20
680.000036
 30
0.0
 11
649.9999809999999
 21
710.000014
 31
0.0
  0
LINE
  5
196
330
1F
100
AcDbEntity
  8
Ｓ_１_１
  6
CONTINUOUS
 62
     3
100
AcDbLine
 10
649.999992
 20
450.0
 30
0.0
 11
679.99999
 21
480.000001
 31
0.0
  0
LINE
  5
197
330
1F
100
AcDbEntity
  8
Ｓ_１_１
  6
CONTINUOUS
 62
     3
100
AcDbLine
 10
359.999952
 20
480.0000279999999
 30
0.0
 11
389.999986
 21
449.999996
 31
0.0
  0
LINE
  5
198
330
1F
100
AcDbEntity
  8
Ｓ_１_１
  6
CONTINUOUS
 62
     3
100
AcDbLine
 10
360.0000010000001
 20
679.999997
 30
0.0
 11
390.000008
 21
710.000002
 31
0.0
  0
LINE
  5
199
330
1F
100
AcDbEntity
  8
Ｓ_１_１
  6
CONTINUOUS
 62
     3
100
AcDbLine
 10
390.000002
 20
450.000002
 30
0.0
 11
649.999998
 21
450.000002
 31
0.0
  0
LINE
  5
19A
330
1F
100
AcDbEntity
  8
Ｓ_１_１
  6
CONTINUOUS
 62
     3
100
AcDbLine
 10
390.000002
 20
709.999998
 30
0.0
 11
649.999998
 21
709.999998
 31
0.0
  0
LINE
  5
19B
330
1F
100
AcDbEntity
  8
Ｓ_１_１
  6
CONTINUOUS
 62
     3
100
AcDbLine
 10
679.999998
 20
679.999999
 30
0.0
 11
679.999998
 21
480.000002
 31
0.0
  0
LINE
  5
19C
330
1F
100
AcDbEntity
  8
Ｓ_１_１
  6
CONTINUOUS
 62
     3
100
AcDbLine
 10
360.0000020000001
 20
679.999999
 30
0.0
 11
360.0000020000001
 21
480.000002
 31
0.0
  0
LINE
  5
19D
330
1F
100
AcDbEntity
  8
Ｓ_１_１
  6
EXLTYPE2
 62
     1
100
AcDbLine
 10
472.500001
 20
189.9999999999999
 30
0.0
 11
472.500001
 21
169.9999999999999
 31
0.0
  0
LINE
  5
19E
330
1F
100
AcDbEntity
  8
Ｓ_１_１
  6
EXLTYPE2
 62
     1
100
AcDbLine
 10
462.5000010000001
 20
179.9999999999999
 30
0.0
 11
482.5000010000001
 21
179.9999999999999
 31
0.0
  0
LINE
  5
19F
330
1F
100
AcDbEntity
  8
Ｓ_１_１
  6
EXLTYPE2
 62
     1
100
AcDbLine
 10
530.0
 20
208.4999989999999
 30
0.0
 11
510.0
 21
208.4999989999999
 31
0.0
  0
LINE
  5
1A0
330
1F
100
AcDbEntity
  8
Ｓ_１_１
  6
EXLTYPE2
 62
     1
100
AcDbLine
 10
629.5928939999999
 20
208.4999989999999
 30
0.0
 11
609.5928939999999
 21
208.4999989999999
 31
0.0
  0
LINE
  5
1A1
330
1F
100
AcDbEntity
  8
Ｓ_１_１
  6
EXLTYPE2
 62
     1
100
AcDbLine
 10
619.5928939999999
 20
198.4999989999999
 30
0.0
 11
619.5928939999999
 21
218.4999979999999
 31
0.0
  0
LINE
  5
1A2
330
1F
100
AcDbEntity
  8
Ｓ_１_１
  6
EXLTYPE2
 62
     1
100
AcDbLine
 10
430.4071060000001
 20
208.4999989999999
 30
0.0
 11
410.407106
 21
208.4999989999999
 31
0.0
  0
LINE
  5
1A3
330
1F
100
AcDbEntity
  8
Ｓ_１_１
  6
EXLTYPE2
 62
     1
100
AcDbLine
 10
420.4071060000001
 20
198.4999989999999
 30
0.0
 11
420.4071060000001
 21
218.4999979999999
 31
0.0
  0
LINE
  5
1A4
330
1F
100
AcDbEntity
  8
Ｓ_１_１
  6
EXLTYPE2
 62
     1
100
AcDbLine
 10
520.0
 20
286.03124
 30
0.0
 11
520.0
 21
155.218747
 31
0.0
  0
POLYLINE
  5
1A5
330
1F
100
AcDbEntity
  8
Ｓ_１_１
  6
CONTINUOUS
 62
     3
100
AcDb2dPolyline
 66
     1
 10
0.0
 20
0.0
 30
0.0
 70
   128
  0
VERTEX
  5
1A6
330
1A5
100
AcDbEntity
  8
Ｓ_１_１
  6
CONTINUOUS
 62
     3
100
AcDbVertex
100
AcDb2dVertex
 10
472.500001
 20
176.9999979999999
 30
0.0
  0
VERTEX
  5
1A7
330
1A5
100
AcDbEntity
  8
Ｓ_１_１
  6
CONTINUOUS
 62
     3
100
AcDbVertex
100
AcDb2dVertex
 10
472.674313
 20
177.0114139999999
 30
0.0
  0
VERTEX
  5
1A8
330
1A5
100
AcDbEntity
  8
Ｓ_１_１
  6
CONTINUOUS
 62
     3
100
AcDbVertex
100
AcDb2dVertex
 10
472.847298
 20
177.0455749999999
 30
0.0
  0
VERTEX
  5
1A9
330
1A5
100
AcDbEntity
  8
Ｓ_１_１
  6
CONTINUOUS
 62
     3
100
AcDbVertex
100
AcDb2dVertex
 10
473.017641
 20
177.1022209999999
 30
0.0
  0
VERTEX
  5
1AA
330
1A5
100
AcDbEntity
  8
Ｓ_１_１
  6
CONTINUOUS
 62
     3
100
AcDbVertex
100
AcDb2dVertex
 10
473.184044
 20
177.18092
 30
0.0
  0
VERTEX
  5
1AB
330
1A5
100
AcDbEntity
  8
Ｓ_１_１
  6
CONTINUOUS
 62
     3
100
AcDbVertex
100
AcDb2dVertex
 10
473.345241
 20
177.2810749999999
 30
0.0
  0
VERTEX
  5
1AC
330
1A5
100
AcDbEntity
  8
Ｓ_１_１
  6
CONTINUOUS
 62
     3
100
AcDbVertex
100
AcDb2dVertex
 10
473.500005
 20
177.401922
 30
0.0
  0
VERTEX
  5
1AD
330
1A5
100
AcDbEntity
  8
Ｓ_１_１
  6
CONTINUOUS
 62
     3
100
AcDbVertex
100
AcDb2dVertex
 10
473.647158
 20
177.542542
 30
0.0
  0
VERTEX
  5
1AE
330
1A5
100
AcDbEntity
  8
Ｓ_１_１
  6
CONTINUOUS
 62
     3
100
AcDbVertex
100
AcDb2dVertex
 10
473.785581
 20
177.7018649999999
 30
0.0
  0
VERTEX
  5
1AF
330
1A5
100
AcDbEntity
  8
Ｓ_１_１
  6
CONTINUOUS
 62
     3
100
AcDbVertex
100
AcDb2dVertex
 10
473.91422
 20
177.878678
 30
0.0
  0
VERTEX
  5
1B0
330
1A5
100
AcDbEntity
  8
Ｓ_１_１
  6
CONTINUOUS
 62
     3
100
AcDbVertex
100
AcDb2dVertex
 10
474.032095
 20
178.071636
 30
0.0
  0
VERTEX
  5
1B1
330
1A5
100
AcDbEntity
  8
Ｓ_１_１
  6
CONTINUOUS
 62
     3
100
AcDbVertex
100
AcDb2dVertex
 10
474.138311
 20
178.2792699999999
 30
0.0
  0
VERTEX
  5
1B2
330
1A5
100
AcDbEntity
  8
Ｓ_１_１
  6
CONTINUOUS
 62
     3
100
AcDbVertex
100
AcDb2dVertex
 10
474.232058
 20
178.4999989999999
 30
0.0
  0
VERTEX
  5
1B3
330
1A5
100
AcDbEntity
  8
Ｓ_１_１
  6
CONTINUOUS
 62
     3
100
AcDbVertex
100
AcDb2dVertex
 10
474.3126229999999
 20
178.7321439999999
 30
0.0
  0
VERTEX
  5
1B4
330
1A5
100
AcDbEntity
  8
Ｓ_１_１
  6
CONTINUOUS
 62
     3
100
AcDbVertex
100
AcDb2dVertex
 10
474.379393
 20
178.9739389999999
 30
0.0
  0
VERTEX
  5
1B5
330
1A5
100
AcDbEntity
  8
Ｓ_１_１
  6
CONTINUOUS
 62
     3
100
AcDbVertex
100
AcDb2dVertex
 10
474.43186
 20
179.223542
 30
0.0
  0
VERTEX
  5
1B6
330
1A5
100
AcDbEntity
  8
Ｓ_１_１
  6
CONTINUOUS
 62
     3
100
AcDbVertex
100
AcDb2dVertex
 10
474.469624
 20
179.479055
 30
0.0
  0
VERTEX
  5
1B7
330
1A5
100
AcDbEntity
  8
Ｓ_１_１
  6
CONTINUOUS
 62
     3
100
AcDbVertex
100
AcDb2dVertex
 10
474.492398
 20
179.7385329999999
 30
0.0
  0
VERTEX
  5
1B8
330
1A5
100
AcDbEntity
  8
Ｓ_１_１
  6
CONTINUOUS
 62
     3
100
AcDbVertex
100
AcDb2dVertex
 10
474.500008
 20
179.9999999999999
 30
0.0
  0
VERTEX
  5
1B9
330
1A5
100
AcDbEntity
  8
Ｓ_１_１
  6
CONTINUOUS
 62
     3
100
AcDbVertex
100
AcDb2dVertex
 10
474.492398
 20
180.261467
 30
0.0
  0
VERTEX
  5
1BA
330
1A5
100
AcDbEntity
  8
Ｓ_１_１
  6
CONTINUOUS
 62
     3
100
AcDbVertex
100
AcDb2dVertex
 10
474.469624
 20
180.5209449999999
 30
0.0
  0
VERTEX
  5
1BB
330
1A5
100
AcDbEntity
  8
Ｓ_１_１
  6
CONTINUOUS
 62
     3
100
AcDbVertex
100
AcDb2dVertex
 10
474.43186
 20
180.7764579999999
 30
0.0
  0
VERTEX
  5
1BC
330
1A5
100
AcDbEntity
  8
Ｓ_１_１
  6
CONTINUOUS
 62
     3
100
AcDbVertex
100
AcDb2dVertex
 10
474.379393
 20
181.026061
 30
0.0
  0
VERTEX
  5
1BD
330
1A5
100
AcDbEntity
  8
Ｓ_１_１
  6
CONTINUOUS
 62
     3
100
AcDbVertex
100
AcDb2dVertex
 10
474.3126229999999
 20
181.2678559999999
 30
0.0
  0
VERTEX
  5
1BE
330
1A5
100
AcDbEntity
  8
Ｓ_１_１
  6
CONTINUOUS
 62
     3
100
AcDbVertex
100
AcDb2dVertex
 10
474.232058
 20
181.5000009999999
 30
0.0
  0
VERTEX
  5
1BF
330
1A5
100
AcDbEntity
  8
Ｓ_１_１
  6
CONTINUOUS
 62
     3
100
AcDbVertex
100
AcDb2dVertex
 10
474.138311
 20
181.7207299999999
 30
0.0
  0
VERTEX
  5
1C0
330
1A5
100
AcDbEntity
  8
Ｓ_１_１
  6
CONTINUOUS
 62
     3
100
AcDbVertex
100
AcDb2dVertex
 10
474.032095
 20
181.9283639999999
 30
0.0
  0
VERTEX
  5
1C1
330
1A5
100
AcDbEntity
  8
Ｓ_１_１
  6
CONTINUOUS
 62
     3
100
AcDbVertex
100
AcDb2dVertex
 10
473.91422
 20
182.121322
 30
0.0
  0
VERTEX
  5
1C2
330
1A5
100
AcDbEntity
  8
Ｓ_１_１
  6
CONTINUOUS
 62
     3
100
AcDbVertex
100
AcDb2dVertex
 10
473.785581
 20
182.2981349999999
 30
0.0
  0
VERTEX
  5
1C3
330
1A5
100
AcDbEntity
  8
Ｓ_１_１
  6
CONTINUOUS
 62
     3
100
AcDbVertex
100
AcDb2dVertex
 10
473.647158
 20
182.4574579999999
 30
0.0
  0
VERTEX
  5
1C4
330
1A5
100
AcDbEntity
  8
Ｓ_１_１
  6
CONTINUOUS
 62
     3
100
AcDbVertex
100
AcDb2dVertex
 10
473.500005
 20
182.5980779999999
 30
0.0
  0
VERTEX
  5
1C5
330
1A5
100
AcDbEntity
  8
Ｓ_１_１
  6
CONTINUOUS
 62
     3
100
AcDbVertex
100
AcDb2dVertex
 10
473.345241
 20
182.718925
 30
0.0
  0
VERTEX
  5
1C6
330
1A5
100
AcDbEntity
  8
Ｓ_１_１
  6
CONTINUOUS
 62
     3
100
AcDbVertex
100
AcDb2dVertex
 10
473.184044
 20
182.8190799999999
 30
0.0
  0
VERTEX
  5
1C7
330
1A5
100
AcDbEntity
  8
Ｓ_１_１
  6
CONTINUOUS
 62
     3
100
AcDbVertex
100
AcDb2dVertex
 10
473.017641
 20
182.897779
 30
0.0
  0
VERTEX
  5
1C8
330
1A5
100
AcDbEntity
  8
Ｓ_１_１
  6
CONTINUOUS
 62
     3
100
AcDbVertex
100
AcDb2dVertex
 10
472.847298
 20
182.954425
 30
0.0
  0
VERTEX
  5
1C9
330
1A5
100
AcDbEntity
  8
Ｓ_１_１
  6
CONTINUOUS
 62
     3
100
AcDbVertex
100
AcDb2dVertex
 10
472.674313
 20
182.9885859999999
 30
0.0
  0
VERTEX
  5
1CA
330
1A5
100
AcDbEntity
  8
Ｓ_１_１
  6
CONTINUOUS
 62
     3
100
AcDbVertex
100
AcDb2dVertex
 10
472.500001
 20
183.0000019999999
 30
0.0
  0
VERTEX
  5
1CB
330
1A5
100
AcDbEntity
  8
Ｓ_１_１
  6
CONTINUOUS
 62
     3
100
AcDbVertex
100
AcDb2dVertex
 10
472.325689
 20
182.9885859999999
 30
0.0
  0
VERTEX
  5
1CC
330
1A5
100
AcDbEntity
  8
Ｓ_１_１
  6
CONTINUOUS
 62
     3
100
AcDbVertex
100
AcDb2dVertex
 10
472.152703
 20
182.954425
 30
0.0
  0
VERTEX
  5
1CD
330
1A5
100
AcDbEntity
  8
Ｓ_１_１
  6
CONTINUOUS
 62
     3
100
AcDbVertex
100
AcDb2dVertex
 10
471.982361
 20
182.897779
 30
0.0
  0
VERTEX
  5
1CE
330
1A5
100
AcDbEntity
  8
Ｓ_１_１
  6
CONTINUOUS
 62
     3
100
AcDbVertex
100
AcDb2dVertex
 10
471.8159579999999
 20
182.8190799999999
 30
0.0
  0
VERTEX
  5
1CF
330
1A5
100
AcDbEntity
  8
Ｓ_１_１
  6
CONTINUOUS
 62
     3
100
AcDbVertex
100
AcDb2dVertex
 10
471.654761
 20
182.718925
 30
0.0
  0
VERTEX
  5
1D0
330
1A5
100
AcDbEntity
  8
Ｓ_１_１
  6
CONTINUOUS
 62
     3
100
AcDbVertex
100
AcDb2dVertex
 10
471.4999969999999
 20
182.5980779999999
 30
0.0
  0
VERTEX
  5
1D1
330
1A5
100
AcDbEntity
  8
Ｓ_１_１
  6
CONTINUOUS
 62
     3
100
AcDbVertex
100
AcDb2dVertex
 10
471.3528439999999
 20
182.4574579999999
 30
0.0
  0
VERTEX
  5
1D2
330
1A5
100
AcDbEntity
  8
Ｓ_１_１
  6
CONTINUOUS
 62
     3
100
AcDbVertex
100
AcDb2dVertex
 10
471.2144209999999
 20
182.2981349999999
 30
0.0
  0
VERTEX
  5
1D3
330
1A5
100
AcDbEntity
  8
Ｓ_１_１
  6
CONTINUOUS
 62
     3
100
AcDbVertex
100
AcDb2dVertex
 10
471.085782
 20
182.121322
 30
0.0
  0
VERTEX
  5
1D4
330
1A5
100
AcDbEntity
  8
Ｓ_１_１
  6
CONTINUOUS
 62
     3
100
AcDbVertex
100
AcDb2dVertex
 10
470.967906
 20
181.9283639999999
 30
0.0
  0
VERTEX
  5
1D5
330
1A5
100
AcDbEntity
  8
Ｓ_１_１
  6
CONTINUOUS
 62
     3
100
AcDbVertex
100
AcDb2dVertex
 10
470.86169
 20
181.7207299999999
 30
0.0
  0
VERTEX
  5
1D6
330
1A5
100
AcDbEntity
  8
Ｓ_１_１
  6
CONTINUOUS
 62
     3
100
AcDbVertex
100
AcDb2dVertex
 10
470.7679429999999
 20
181.5000009999999
 30
0.0
  0
VERTEX
  5
1D7
330
1A5
100
AcDbEntity
  8
Ｓ_１_１
  6
CONTINUOUS
 62
     3
100
AcDbVertex
100
AcDb2dVertex
 10
470.687378
 20
181.2678559999999
 30
0.0
  0
VERTEX
  5
1D8
330
1A5
100
AcDbEntity
  8
Ｓ_１_１
  6
CONTINUOUS
 62
     3
100
AcDbVertex
100
AcDb2dVertex
 10
470.620608
 20
181.026061
 30
0.0
  0
VERTEX
  5
1D9
330
1A5
100
AcDbEntity
  8
Ｓ_１_１
  6
CONTINUOUS
 62
     3
100
AcDbVertex
100
AcDb2dVertex
 10
470.568142
 20
180.7764579999999
 30
0.0
  0
VERTEX
  5
1DA
330
1A5
100
AcDbEntity
  8
Ｓ_１_１
  6
CONTINUOUS
 62
     3
100
AcDbVertex
100
AcDb2dVertex
 10
470.530378
 20
180.5209449999999
 30
0.0
  0
VERTEX
  5
1DB
330
1A5
100
AcDbEntity
  8
Ｓ_１_１
  6
CONTINUOUS
 62
     3
100
AcDbVertex
100
AcDb2dVertex
 10
470.507604
 20
180.261467
 30
0.0
  0
VERTEX
  5
1DC
330
1A5
100
AcDbEntity
  8
Ｓ_１_１
  6
CONTINUOUS
 62
     3
100
AcDbVertex
100
AcDb2dVertex
 10
470.499993
 20
179.9999999999999
 30
0.0
  0
VERTEX
  5
1DD
330
1A5
100
AcDbEntity
  8
Ｓ_１_１
  6
CONTINUOUS
 62
     3
100
AcDbVertex
100
AcDb2dVertex
 10
470.507604
 20
179.7385329999999
 30
0.0
  0
VERTEX
  5
1DE
330
1A5
100
AcDbEntity
  8
Ｓ_１_１
  6
CONTINUOUS
 62
     3
100
AcDbVertex
100
AcDb2dVertex
 10
470.530378
 20
179.479055
 30
0.0
  0
VERTEX
  5
1DF
330
1A5
100
AcDbEntity
  8
Ｓ_１_１
  6
CONTINUOUS
 62
     3
100
AcDbVertex
100
AcDb2dVertex
 10
470.568142
 20
179.223542
 30
0.0
  0
VERTEX
  5
1E0
330
1A5
100
AcDbEntity
  8
Ｓ_１_１
  6
CONTINUOUS
 62
     3
100
AcDbVertex
100
AcDb2dVertex
 10
470.620608
 20
178.9739389999999
 30
0.0
  0
VERTEX
  5
1E1
330
1A5
100
AcDbEntity
  8
Ｓ_１_１
  6
CONTINUOUS
 62
     3
100
AcDbVertex
100
AcDb2dVertex
 10
470.687378
 20
178.7321439999999
 30
0.0
  0
VERTEX
  5
1E2
330
1A5
100
AcDbEntity
  8
Ｓ_１_１
  6
CONTINUOUS
 62
     3
100
AcDbVertex
100
AcDb2dVertex
 10
470.7679429999999
 20
178.4999989999999
 30
0.0
  0
VERTEX
  5
1E3
330
1A5
100
AcDbEntity
  8
Ｓ_１_１
  6
CONTINUOUS
 62
     3
100
AcDbVertex
100
AcDb2dVertex
 10
470.86169
 20
178.2792699999999
 30
0.0
  0
VERTEX
  5
1E4
330
1A5
100
AcDbEntity
  8
Ｓ_１_１
  6
CONTINUOUS
 62
     3
100
AcDbVertex
100
AcDb2dVertex
 10
470.967906
 20
178.071636
 30
0.0
  0
VERTEX
  5
1E5
330
1A5
100
AcDbEntity
  8
Ｓ_１_１
  6
CONTINUOUS
 62
     3
100
AcDbVertex
100
AcDb2dVertex
 10
471.085782
 20
177.878678
 30
0.0
  0
VERTEX
  5
1E6
330
1A5
100
AcDbEntity
  8
Ｓ_１_１
  6
CONTINUOUS
 62
     3
100
AcDbVertex
100
AcDb2dVertex
 10
471.2144209999999
 20
177.7018649999999
 30
0.0
  0
VERTEX
  5
1E7
330
1A5
100
AcDbEntity
  8
Ｓ_１_１
  6
CONTINUOUS
 62
     3
100
AcDbVertex
100
AcDb2dVertex
 10
471.3528439999999
 20
177.542542
 30
0.0
  0
VERTEX
  5
1E8
330
1A5
100
AcDbEntity
  8
Ｓ_１_１
  6
CONTINUOUS
 62
     3
100
AcDbVertex
100
AcDb2dVertex
 10
471.4999969999999
 20
177.401922
 30
0.0
  0
VERTEX
  5
1E9
330
1A5
100
AcDbEntity
  8
Ｓ_１_１
  6
CONTINUOUS
 62
     3
100
AcDbVertex
100
AcDb2dVertex
 10
471.654761
 20
177.2810749999999
 30
0.0
  0
VERTEX
  5
1EA
330
1A5
100
AcDbEntity
  8
Ｓ_１_１
  6
CONTINUOUS
 62
     3
100
AcDbVertex
100
AcDb2dVertex
 10
471.8159579999999
 20
177.18092
 30
0.0
  0
VERTEX
  5
1EB
330
1A5
100
AcDbEntity
  8
Ｓ_１_１
  6
CONTINUOUS
 62
     3
100
AcDbVertex
100
AcDb2dVertex
 10
471.982361
 20
177.1022209999999
 30
0.0
  0
VERTEX
  5
1EC
330
1A5
100
AcDbEntity
  8
Ｓ_１_１
  6
CONTINUOUS
 62
     3
100
AcDbVertex
100
AcDb2dVertex
 10
472.152703
 20
177.0455749999999
 30
0.0
  0
VERTEX
  5
1ED
330
1A5
100
AcDbEntity
  8
Ｓ_１_１
  6
CONTINUOUS
 62
     3
100
AcDbVertex
100
AcDb2dVertex
 10
472.325689
 20
177.0114139999999
 30
0.0
  0
VERTEX
  5
1EE
330
1A5
100
AcDbEntity
  8
Ｓ_１_１
  6
CONTINUOUS
 62
     3
100
AcDbVertex
100
AcDb2dVertex
 10
472.500001
 20
176.9999979999999
 30
0.0
  0
SEQEND
  5
1EF
330
1A5
100
AcDbEntity
  8
Ｓ_１_１
  6
CONTINUOUS
 62
     3
  0
POLYLINE
  5
1F0
330
1F
100
AcDbEntity
  8
Ｓ_１_１
  6
CONTINUOUS
 62
     3
100
AcDb2dPolyline
 66
     1
 10
0.0
 20
0.0
 30
0.0
 70
   128
  0
VERTEX
  5
1F1
330
1F0
100
AcDbEntity
  8
Ｓ_１_１
  6
CONTINUOUS
 62
     3
100
AcDbVertex
100
AcDb2dVertex
 10
472.500001
 20
175.9999989999999
 30
0.0
  0
VERTEX
  5
1F2
330
1F0
100
AcDbEntity
  8
Ｓ_１_１
  6
CONTINUOUS
 62
     3
100
AcDbVertex
100
AcDb2dVertex
 10
472.761467
 20
176.0152199999999
 30
0.0
  0
VERTEX
  5
1F3
330
1F0
100
AcDbEntity
  8
Ｓ_１_１
  6
CONTINUOUS
 62
     3
100
AcDbVertex
100
AcDb2dVertex
 10
473.020944
 20
176.0607679999999
 30
0.0
  0
VERTEX
  5
1F4
330
1F0
100
AcDbEntity
  8
Ｓ_１_１
  6
CONTINUOUS
 62
     3
100
AcDbVertex
100
AcDb2dVertex
 10
473.276456
 20
176.136296
 30
0.0
  0
VERTEX
  5
1F5
330
1F0
100
AcDbEntity
  8
Ｓ_１_１
  6
CONTINUOUS
 62
     3
100
AcDbVertex
100
AcDb2dVertex
 10
473.526059
 20
176.2412289999999
 30
0.0
  0
VERTEX
  5
1F6
330
1F0
100
AcDbEntity
  8
Ｓ_１_１
  6
CONTINUOUS
 62
     3
100
AcDbVertex
100
AcDb2dVertex
 10
473.767852
 20
176.374768
 30
0.0
  0
VERTEX
  5
1F7
330
1F0
100
AcDbEntity
  8
Ｓ_１_１
  6
CONTINUOUS
 62
     3
100
AcDbVertex
100
AcDb2dVertex
 10
473.999997
 20
176.5358979999999
 30
0.0
  0
VERTEX
  5
1F8
330
1F0
100
AcDbEntity
  8
Ｓ_１_１
  6
CONTINUOUS
 62
     3
100
AcDbVertex
100
AcDb2dVertex
 10
474.220726
 20
176.7233909999999
 30
0.0
  0
VERTEX
  5
1F9
330
1F0
100
AcDbEntity
  8
Ｓ_１_１
  6
CONTINUOUS
 62
     3
100
AcDbVertex
100
AcDb2dVertex
 10
474.428359
 20
176.935822
 30
0.0
  0
VERTEX
  5
1FA
330
1F0
100
AcDbEntity
  8
Ｓ_１_１
  6
CONTINUOUS
 62
     3
100
AcDbVertex
100
AcDb2dVertex
 10
474.621316
 20
177.1715719999999
 30
0.0
  0
VERTEX
  5
1FB
330
1F0
100
AcDbEntity
  8
Ｓ_１_１
  6
CONTINUOUS
 62
     3
100
AcDbVertex
100
AcDb2dVertex
 10
474.7981279999999
 20
177.428849
 30
0.0
  0
VERTEX
  5
1FC
330
1F0
100
AcDbEntity
  8
Ｓ_１_１
  6
CONTINUOUS
 62
     3
100
AcDbVertex
100
AcDb2dVertex
 10
474.957451
 20
177.7056939999999
 30
0.0
  0
VERTEX
  5
1FD
330
1F0
100
AcDbEntity
  8
Ｓ_１_１
  6
CONTINUOUS
 62
     3
100
AcDbVertex
100
AcDb2dVertex
 10
475.09807
 20
177.9999999999999
 30
0.0
  0
VERTEX
  5
1FE
330
1F0
100
AcDbEntity
  8
Ｓ_１_１
  6
CONTINUOUS
 62
     3
100
AcDbVertex
100
AcDb2dVertex
 10
475.2189169999999
 20
178.3095269999999
 30
0.0
  0
VERTEX
  5
1FF
330
1F0
100
AcDbEntity
  8
Ｓ_１_１
  6
CONTINUOUS
 62
     3
100
AcDbVertex
100
AcDb2dVertex
 10
475.319071
 20
178.631919
 30
0.0
  0
VERTEX
  5
200
330
1F0
100
AcDbEntity
  8
Ｓ_１_１
  6
CONTINUOUS
 62
     3
100
AcDbVertex
100
AcDb2dVertex
 10
475.3977709999999
 20
178.9647239999999
 30
0.0
  0
VERTEX
  5
201
330
1F0
100
AcDbEntity
  8
Ｓ_１_１
  6
CONTINUOUS
 62
     3
100
AcDbVertex
100
AcDb2dVertex
 10
475.454416
 20
179.3054069999999
 30
0.0
  0
VERTEX
  5
202
330
1F0
100
AcDbEntity
  8
Ｓ_１_１
  6
CONTINUOUS
 62
     3
100
AcDbVertex
100
AcDb2dVertex
 10
475.488577
 20
179.651377
 30
0.0
  0
VERTEX
  5
203
330
1F0
100
AcDbEntity
  8
Ｓ_１_１
  6
CONTINUOUS
 62
     3
100
AcDbVertex
100
AcDb2dVertex
 10
475.499993
 20
179.9999999999999
 30
0.0
  0
VERTEX
  5
204
330
1F0
100
AcDbEntity
  8
Ｓ_１_１
  6
CONTINUOUS
 62
     3
100
AcDbVertex
100
AcDb2dVertex
 10
475.488577
 20
180.3486229999999
 30
0.0
  0
VERTEX
  5
205
330
1F0
100
AcDbEntity
  8
Ｓ_１_１
  6
CONTINUOUS
 62
     3
100
AcDbVertex
100
AcDb2dVertex
 10
475.454416
 20
180.6945929999999
 30
0.0
  0
VERTEX
  5
206
330
1F0
100
AcDbEntity
  8
Ｓ_１_１
  6
CONTINUOUS
 62
     3
100
AcDbVertex
100
AcDb2dVertex
 10
475.3977709999999
 20
181.035276
 30
0.0
  0
VERTEX
  5
207
330
1F0
100
AcDbEntity
  8
Ｓ_１_１
  6
CONTINUOUS
 62
     3
100
AcDbVertex
100
AcDb2dVertex
 10
475.319071
 20
181.368081
 30
0.0
  0
VERTEX
  5
208
330
1F0
100
AcDbEntity
  8
Ｓ_１_１
  6
CONTINUOUS
 62
     3
100
AcDbVertex
100
AcDb2dVertex
 10
475.2189169999999
 20
181.6904729999999
 30
0.0
  0
VERTEX
  5
209
330
1F0
100
AcDbEntity
  8
Ｓ_１_１
  6
CONTINUOUS
 62
     3
100
AcDbVertex
100
AcDb2dVertex
 10
475.09807
 20
181.9999999999999
 30
0.0
  0
VERTEX
  5
20A
330
1F0
100
AcDbEntity
  8
Ｓ_１_１
  6
CONTINUOUS
 62
     3
100
AcDbVertex
100
AcDb2dVertex
 10
474.957451
 20
182.2943059999999
 30
0.0
  0
VERTEX
  5
20B
330
1F0
100
AcDbEntity
  8
Ｓ_１_１
  6
CONTINUOUS
 62
     3
100
AcDbVertex
100
AcDb2dVertex
 10
474.7981279999999
 20
182.5711509999999
 30
0.0
  0
VERTEX
  5
20C
330
1F0
100
AcDbEntity
  8
Ｓ_１_１
  6
CONTINUOUS
 62
     3
100
AcDbVertex
100
AcDb2dVertex
 10
474.621316
 20
182.828428
 30
0.0
  0
VERTEX
  5
20D
330
1F0
100
AcDbEntity
  8
Ｓ_１_１
  6
CONTINUOUS
 62
     3
100
AcDbVertex
100
AcDb2dVertex
 10
474.428359
 20
183.0641779999999
 30
0.0
  0
VERTEX
  5
20E
330
1F0
100
AcDbEntity
  8
Ｓ_１_１
  6
CONTINUOUS
 62
     3
100
AcDbVertex
100
AcDb2dVertex
 10
474.220726
 20
183.276609
 30
0.0
  0
VERTEX
  5
20F
330
1F0
100
AcDbEntity
  8
Ｓ_１_１
  6
CONTINUOUS
 62
     3
100
AcDbVertex
100
AcDb2dVertex
 10
473.999997
 20
183.464102
 30
0.0
  0
VERTEX
  5
210
330
1F0
100
AcDbEntity
  8
Ｓ_１_１
  6
CONTINUOUS
 62
     3
100
AcDbVertex
100
AcDb2dVertex
 10
473.767852
 20
183.6252319999999
 30
0.0
  0
VERTEX
  5
211
330
1F0
100
AcDbEntity
  8
Ｓ_１_１
  6
CONTINUOUS
 62
     3
100
AcDbVertex
100
AcDb2dVertex
 10
473.526059
 20
183.758771
 30
0.0
  0
VERTEX
  5
212
330
1F0
100
AcDbEntity
  8
Ｓ_１_１
  6
CONTINUOUS
 62
     3
100
AcDbVertex
100
AcDb2dVertex
 10
473.276456
 20
183.8637039999999
 30
0.0
  0
VERTEX
  5
213
330
1F0
100
AcDbEntity
  8
Ｓ_１_１
  6
CONTINUOUS
 62
     3
100
AcDbVertex
100
AcDb2dVertex
 10
473.020944
 20
183.9392319999999
 30
0.0
  0
VERTEX
  5
214
330
1F0
100
AcDbEntity
  8
Ｓ_１_１
  6
CONTINUOUS
 62
     3
100
AcDbVertex
100
AcDb2dVertex
 10
472.761467
 20
183.9847799999999
 30
0.0
  0
VERTEX
  5
215
330
1F0
100
AcDbEntity
  8
Ｓ_１_１
  6
CONTINUOUS
 62
     3
100
AcDbVertex
100
AcDb2dVertex
 10
472.500001
 20
184.0000009999999
 30
0.0
  0
VERTEX
  5
216
330
1F0
100
AcDbEntity
  8
Ｓ_１_１
  6
CONTINUOUS
 62
     3
100
AcDbVertex
100
AcDb2dVertex
 10
472.238534
 20
183.9847799999999
 30
0.0
  0
VERTEX
  5
217
330
1F0
100
AcDbEntity
  8
Ｓ_１_１
  6
CONTINUOUS
 62
     3
100
AcDbVertex
100
AcDb2dVertex
 10
471.979058
 20
183.9392319999999
 30
0.0
  0
VERTEX
  5
218
330
1F0
100
AcDbEntity
  8
Ｓ_１_１
  6
CONTINUOUS
 62
     3
100
AcDbVertex
100
AcDb2dVertex
 10
471.7235459999999
 20
183.8637039999999
 30
0.0
  0
VERTEX
  5
219
330
1F0
100
AcDbEntity
  8
Ｓ_１_１
  6
CONTINUOUS
 62
     3
100
AcDbVertex
100
AcDb2dVertex
 10
471.473943
 20
183.758771
 30
0.0
  0
VERTEX
  5
21A
330
1F0
100
AcDbEntity
  8
Ｓ_１_１
  6
CONTINUOUS
 62
     3
100
AcDbVertex
100
AcDb2dVertex
 10
471.232149
 20
183.6252319999999
 30
0.0
  0
VERTEX
  5
21B
330
1F0
100
AcDbEntity
  8
Ｓ_１_１
  6
CONTINUOUS
 62
     3
100
AcDbVertex
100
AcDb2dVertex
 10
471.000005
 20
183.464102
 30
0.0
  0
VERTEX
  5
21C
330
1F0
100
AcDbEntity
  8
Ｓ_１_１
  6
CONTINUOUS
 62
     3
100
AcDbVertex
100
AcDb2dVertex
 10
470.779276
 20
183.276609
 30
0.0
  0
VERTEX
  5
21D
330
1F0
100
AcDbEntity
  8
Ｓ_１_１
  6
CONTINUOUS
 62
     3
100
AcDbVertex
100
AcDb2dVertex
 10
470.571643
 20
183.0641779999999
 30
0.0
  0
VERTEX
  5
21E
330
1F0
100
AcDbEntity
  8
Ｓ_１_１
  6
CONTINUOUS
 62
     3
100
AcDbVertex
100
AcDb2dVertex
 10
470.378686
 20
182.828428
 30
0.0
  0
VERTEX
  5
21F
330
1F0
100
AcDbEntity
  8
Ｓ_１_１
  6
CONTINUOUS
 62
     3
100
AcDbVertex
100
AcDb2dVertex
 10
470.201873
 20
182.5711509999999
 30
0.0
  0
VERTEX
  5
220
330
1F0
100
AcDbEntity
  8
Ｓ_１_１
  6
CONTINUOUS
 62
     3
100
AcDbVertex
100
AcDb2dVertex
 10
470.0425509999999
 20
182.2943059999999
 30
0.0
  0
VERTEX
  5
221
330
1F0
100
AcDbEntity
  8
Ｓ_１_１
  6
CONTINUOUS
 62
     3
100
AcDbVertex
100
AcDb2dVertex
 10
469.901931
 20
181.9999999999999
 30
0.0
  0
VERTEX
  5
222
330
1F0
100
AcDbEntity
  8
Ｓ_１_１
  6
CONTINUOUS
 62
     3
100
AcDbVertex
100
AcDb2dVertex
 10
469.781084
 20
181.6904729999999
 30
0.0
  0
VERTEX
  5
223
330
1F0
100
AcDbEntity
  8
Ｓ_１_１
  6
CONTINUOUS
 62
     3
100
AcDbVertex
100
AcDb2dVertex
 10
469.68093
 20
181.368081
 30
0.0
  0
VERTEX
  5
224
330
1F0
100
AcDbEntity
  8
Ｓ_１_１
  6
CONTINUOUS
 62
     3
100
AcDbVertex
100
AcDb2dVertex
 10
469.602231
 20
181.035276
 30
0.0
  0
VERTEX
  5
225
330
1F0
100
AcDbEntity
  8
Ｓ_１_１
  6
CONTINUOUS
 62
     3
100
AcDbVertex
100
AcDb2dVertex
 10
469.545585
 20
180.6945929999999
 30
0.0
  0
VERTEX
  5
226
330
1F0
100
AcDbEntity
  8
Ｓ_１_１
  6
CONTINUOUS
 62
     3
100
AcDbVertex
100
AcDb2dVertex
 10
469.511424
 20
180.3486229999999
 30
0.0
  0
VERTEX
  5
227
330
1F0
100
AcDbEntity
  8
Ｓ_１_１
  6
CONTINUOUS
 62
     3
100
AcDbVertex
100
AcDb2dVertex
 10
469.500008
 20
179.9999999999999
 30
0.0
  0
VERTEX
  5
228
330
1F0
100
AcDbEntity
  8
Ｓ_１_１
  6
CONTINUOUS
 62
     3
100
AcDbVertex
100
AcDb2dVertex
 10
469.511424
 20
179.651377
 30
0.0
  0
VERTEX
  5
229
330
1F0
100
AcDbEntity
  8
Ｓ_１_１
  6
CONTINUOUS
 62
     3
100
AcDbVertex
100
AcDb2dVertex
 10
469.545585
 20
179.3054069999999
 30
0.0
  0
VERTEX
  5
22A
330
1F0
100
AcDbEntity
  8
Ｓ_１_１
  6
CONTINUOUS
 62
     3
100
AcDbVertex
100
AcDb2dVertex
 10
469.602231
 20
178.9647239999999
 30
0.0
  0
VERTEX
  5
22B
330
1F0
100
AcDbEntity
  8
Ｓ_１_１
  6
CONTINUOUS
 62
     3
100
AcDbVertex
100
AcDb2dVertex
 10
469.68093
 20
178.631919
 30
0.0
  0
VERTEX
  5
22C
330
1F0
100
AcDbEntity
  8
Ｓ_１_１
  6
CONTINUOUS
 62
     3
100
AcDbVertex
100
AcDb2dVertex
 10
469.781084
 20
178.3095269999999
 30
0.0
  0
VERTEX
  5
22D
330
1F0
100
AcDbEntity
  8
Ｓ_１_１
  6
CONTINUOUS
 62
     3
100
AcDbVertex
100
AcDb2dVertex
 10
469.901931
 20
177.9999999999999
 30
0.0
  0
VERTEX
  5
22E
330
1F0
100
AcDbEntity
  8
Ｓ_１_１
  6
CONTINUOUS
 62
     3
100
AcDbVertex
100
AcDb2dVertex
 10
470.0425509999999
 20
177.7056939999999
 30
0.0
  0
VERTEX
  5
22F
330
1F0
100
AcDbEntity
  8
Ｓ_１_１
  6
CONTINUOUS
 62
     3
100
AcDbVertex
100
AcDb2dVertex
 10
470.201873
 20
177.428849
 30
0.0
  0
VERTEX
  5
230
330
1F0
100
AcDbEntity
  8
Ｓ_１_１
  6
CONTINUOUS
 62
     3
100
AcDbVertex
100
AcDb2dVertex
 10
470.378686
 20
177.1715719999999
 30
0.0
  0
VERTEX
  5
231
330
1F0
100
AcDbEntity
  8
Ｓ_１_１
  6
CONTINUOUS
 62
     3
100
AcDbVertex
100
AcDb2dVertex
 10
470.571643
 20
176.935822
 30
0.0
  0
VERTEX
  5
232
330
1F0
100
AcDbEntity
  8
Ｓ_１_１
  6
CONTINUOUS
 62
     3
100
AcDbVertex
100
AcDb2dVertex
 10
470.779276
 20
176.7233909999999
 30
0.0
  0
VERTEX
  5
233
330
1F0
100
AcDbEntity
  8
Ｓ_１_１
  6
CONTINUOUS
 62
     3
100
AcDbVertex
100
AcDb2dVertex
 10
471.000005
 20
176.5358979999999
 30
0.0
  0
VERTEX
  5
234
330
1F0
100
AcDbEntity
  8
Ｓ_１_１
  6
CONTINUOUS
 62
     3
100
AcDbVertex
100
AcDb2dVertex
 10
471.232149
 20
176.374768
 30
0.0
  0
VERTEX
  5
235
330
1F0
100
AcDbEntity
  8
Ｓ_１_１
  6
CONTINUOUS
 62
     3
100
AcDbVertex
100
AcDb2dVertex
 10
471.473943
 20
176.2412289999999
 30
0.0
  0
VERTEX
  5
236
330
1F0
100
AcDbEntity
  8
Ｓ_１_１
  6
CONTINUOUS
 62
     3
100
AcDbVertex
100
AcDb2dVertex
 10
471.7235459999999
 20
176.136296
 30
0.0
  0
VERTEX
  5
237
330
1F0
100
AcDbEntity
  8
Ｓ_１_１
  6
CONTINUOUS
 62
     3
100
AcDbVertex
100
AcDb2dVertex
 10
471.979058
 20
176.0607679999999
 30
0.0
  0
VERTEX
  5
238
330
1F0
100
AcDbEntity
  8
Ｓ_１_１
  6
CONTINUOUS
 62
     3
100
AcDbVertex
100
AcDb2dVertex
 10
472.238534
 20
176.0152199999999
 30
0.0
  0
VERTEX
  5
239
330
1F0
100
AcDbEntity
  8
Ｓ_１_１
  6
CONTINUOUS
 62
     3
100
AcDbVertex
100
AcDb2dVertex
 10
472.500001
 20
175.9999989999999
 30
0.0
  0
SEQEND
  5
23A
330
1F0
100
AcDbEntity
  8
Ｓ_１_１
  6
CONTINUOUS
 62
     3
  0
POLYLINE
  5
23B
330
1F
100
AcDbEntity
  8
Ｓ_１_１
  6
CONTINUOUS
 62
     3
100
AcDb2dPolyline
 66
     1
 10
0.0
 20
0.0
 30
0.0
 70
   128
  0
VERTEX
  5
23C
330
23B
100
AcDbEntity
  8
Ｓ_１_１
  6
CONTINUOUS
 62
     3
100
AcDbVertex
100
AcDb2dVertex
 10
619.5928939999999
 20
203.9999909999999
 30
0.0
  0
VERTEX
  5
23D
330
23B
100
AcDbEntity
  8
Ｓ_１_１
  6
CONTINUOUS
 62
     3
100
AcDbVertex
100
AcDb2dVertex
 10
619.8979380000001
 20
204.0171149999999
 30
0.0
  0
VERTEX
  5
23E
330
23B
100
AcDbEntity
  8
Ｓ_１_１
  6
CONTINUOUS
 62
     3
100
AcDbVertex
100
AcDb2dVertex
 10
620.20066
 20
204.0683559999999
 30
0.0
  0
VERTEX
  5
23F
330
23B
100
AcDbEntity
  8
Ｓ_１_１
  6
CONTINUOUS
 62
     3
100
AcDbVertex
100
AcDb2dVertex
 10
620.4987570000001
 20
204.1533249999999
 30
0.0
  0
VERTEX
  5
240
330
23B
100
AcDbEntity
  8
Ｓ_１_１
  6
CONTINUOUS
 62
     3
100
AcDbVertex
100
AcDb2dVertex
 10
620.789959
 20
204.2713739999999
 30
0.0
  0
VERTEX
  5
241
330
23B
100
AcDbEntity
  8
Ｓ_１_１
  6
CONTINUOUS
 62
     3
100
AcDbVertex
100
AcDb2dVertex
 10
621.072052
 20
204.4216059999999
 30
0.0
  0
VERTEX
  5
242
330
23B
100
AcDbEntity
  8
Ｓ_１_１
  6
CONTINUOUS
 62
     3
100
AcDbVertex
100
AcDb2dVertex
 10
621.3428859999999
 20
204.6028769999999
 30
0.0
  0
VERTEX
  5
243
330
23B
100
AcDbEntity
  8
Ｓ_１_１
  6
CONTINUOUS
 62
     3
100
AcDbVertex
100
AcDb2dVertex
 10
621.6004029999999
 20
204.8138069999999
 30
0.0
  0
VERTEX
  5
244
330
23B
100
AcDbEntity
  8
Ｓ_１_１
  6
CONTINUOUS
 62
     3
100
AcDbVertex
100
AcDb2dVertex
 10
621.842641
 20
205.0527919999999
 30
0.0
  0
VERTEX
  5
245
330
23B
100
AcDbEntity
  8
Ｓ_１_１
  6
CONTINUOUS
 62
     3
100
AcDbVertex
100
AcDb2dVertex
 10
622.067757
 20
205.318011
 30
0.0
  0
VERTEX
  5
246
330
23B
100
AcDbEntity
  8
Ｓ_１_１
  6
CONTINUOUS
 62
     3
100
AcDbVertex
100
AcDb2dVertex
 10
622.274038
 20
205.6074479999999
 30
0.0
  0
VERTEX
  5
247
330
23B
100
AcDbEntity
  8
Ｓ_１_１
  6
CONTINUOUS
 62
     3
100
AcDbVertex
100
AcDb2dVertex
 10
622.459914
 20
205.9188979999999
 30
0.0
  0
VERTEX
  5
248
330
23B
100
AcDbEntity
  8
Ｓ_１_１
  6
CONTINUOUS
 62
     3
100
AcDbVertex
100
AcDb2dVertex
 10
622.6239699999999
 20
206.2499919999999
 30
0.0
  0
VERTEX
  5
249
330
23B
100
AcDbEntity
  8
Ｓ_１_１
  6
CONTINUOUS
 62
     3
100
AcDbVertex
100
AcDb2dVertex
 10
622.7649569999999
 20
206.5982109999999
 30
0.0
  0
VERTEX
  5
24A
330
23B
100
AcDbEntity
  8
Ｓ_１_１
  6
CONTINUOUS
 62
     3
100
AcDbVertex
100
AcDb2dVertex
 10
622.8818039999999
 20
206.960902
 30
0.0
  0
VERTEX
  5
24B
330
23B
100
AcDbEntity
  8
Ｓ_１_１
  6
CONTINUOUS
 62
     3
100
AcDbVertex
100
AcDb2dVertex
 10
622.97362
 20
207.3353069999999
 30
0.0
  0
VERTEX
  5
24C
330
23B
100
AcDbEntity
  8
Ｓ_１_１
  6
CONTINUOUS
 62
     3
100
AcDbVertex
100
AcDb2dVertex
 10
623.039706
 20
207.7185769999999
 30
0.0
  0
VERTEX
  5
24D
330
23B
100
AcDbEntity
  8
Ｓ_１_１
  6
CONTINUOUS
 62
     3
100
AcDbVertex
100
AcDb2dVertex
 10
623.0795599999999
 20
208.107793
 30
0.0
  0
VERTEX
  5
24E
330
23B
100
AcDbEntity
  8
Ｓ_１_１
  6
CONTINUOUS
 62
     3
100
AcDbVertex
100
AcDb2dVertex
 10
623.092879
 20
208.4999939999999
 30
0.0
  0
VERTEX
  5
24F
330
23B
100
AcDbEntity
  8
Ｓ_１_１
  6
CONTINUOUS
 62
     3
100
AcDbVertex
100
AcDb2dVertex
 10
623.0795599999999
 20
208.892195
 30
0.0
  0
VERTEX
  5
250
330
23B
100
AcDbEntity
  8
Ｓ_１_１
  6
CONTINUOUS
 62
     3
100
AcDbVertex
100
AcDb2dVertex
 10
623.039706
 20
209.2814109999999
 30
0.0
  0
VERTEX
  5
251
330
23B
100
AcDbEntity
  8
Ｓ_１_１
  6
CONTINUOUS
 62
     3
100
AcDbVertex
100
AcDb2dVertex
 10
622.97362
 20
209.6646799999999
 30
0.0
  0
VERTEX
  5
252
330
23B
100
AcDbEntity
  8
Ｓ_１_１
  6
CONTINUOUS
 62
     3
100
AcDbVertex
100
AcDb2dVertex
 10
622.8818039999999
 20
210.0390849999999
 30
0.0
  0
VERTEX
  5
253
330
23B
100
AcDbEntity
  8
Ｓ_１_１
  6
CONTINUOUS
 62
     3
100
AcDbVertex
100
AcDb2dVertex
 10
622.7649569999999
 20
210.4017769999999
 30
0.0
  0
VERTEX
  5
254
330
23B
100
AcDbEntity
  8
Ｓ_１_１
  6
CONTINUOUS
 62
     3
100
AcDbVertex
100
AcDb2dVertex
 10
622.6239699999999
 20
210.7499949999999
 30
0.0
  0
VERTEX
  5
255
330
23B
100
AcDbEntity
  8
Ｓ_１_１
  6
CONTINUOUS
 62
     3
100
AcDbVertex
100
AcDb2dVertex
 10
622.459914
 20
211.0810889999999
 30
0.0
  0
VERTEX
  5
256
330
23B
100
AcDbEntity
  8
Ｓ_１_１
  6
CONTINUOUS
 62
     3
100
AcDbVertex
100
AcDb2dVertex
 10
622.274038
 20
211.3925399999999
 30
0.0
  0
VERTEX
  5
257
330
23B
100
AcDbEntity
  8
Ｓ_１_１
  6
CONTINUOUS
 62
     3
100
AcDbVertex
100
AcDb2dVertex
 10
622.067757
 20
211.681976
 30
0.0
  0
VERTEX
  5
258
330
23B
100
AcDbEntity
  8
Ｓ_１_１
  6
CONTINUOUS
 62
     3
100
AcDbVertex
100
AcDb2dVertex
 10
621.842641
 20
211.9471959999999
 30
0.0
  0
VERTEX
  5
259
330
23B
100
AcDbEntity
  8
Ｓ_１_１
  6
CONTINUOUS
 62
     3
100
AcDbVertex
100
AcDb2dVertex
 10
621.6004029999999
 20
212.1861799999999
 30
0.0
  0
VERTEX
  5
25A
330
23B
100
AcDbEntity
  8
Ｓ_１_１
  6
CONTINUOUS
 62
     3
100
AcDbVertex
100
AcDb2dVertex
 10
621.3428859999999
 20
212.3971109999999
 30
0.0
  0
VERTEX
  5
25B
330
23B
100
AcDbEntity
  8
Ｓ_１_１
  6
CONTINUOUS
 62
     3
100
AcDbVertex
100
AcDb2dVertex
 10
621.072052
 20
212.5783809999999
 30
0.0
  0
VERTEX
  5
25C
330
23B
100
AcDbEntity
  8
Ｓ_１_１
  6
CONTINUOUS
 62
     3
100
AcDbVertex
100
AcDb2dVertex
 10
620.789959
 20
212.7286129999999
 30
0.0
  0
VERTEX
  5
25D
330
23B
100
AcDbEntity
  8
Ｓ_１_１
  6
CONTINUOUS
 62
     3
100
AcDbVertex
100
AcDb2dVertex
 10
620.4987570000001
 20
212.8466629999999
 30
0.0
  0
VERTEX
  5
25E
330
23B
100
AcDbEntity
  8
Ｓ_１_１
  6
CONTINUOUS
 62
     3
100
AcDbVertex
100
AcDb2dVertex
 10
620.20066
 20
212.9316319999999
 30
0.0
  0
VERTEX
  5
25F
330
23B
100
AcDbEntity
  8
Ｓ_１_１
  6
CONTINUOUS
 62
     3
100
AcDbVertex
100
AcDb2dVertex
 10
619.8979380000001
 20
212.9828729999999
 30
0.0
  0
VERTEX
  5
260
330
23B
100
AcDbEntity
  8
Ｓ_１_１
  6
CONTINUOUS
 62
     3
100
AcDbVertex
100
AcDb2dVertex
 10
619.5928939999999
 20
212.9999969999999
 30
0.0
  0
VERTEX
  5
261
330
23B
100
AcDbEntity
  8
Ｓ_１_１
  6
CONTINUOUS
 62
     3
100
AcDbVertex
100
AcDb2dVertex
 10
619.2878499999999
 20
212.9828729999999
 30
0.0
  0
VERTEX
  5
262
330
23B
100
AcDbEntity
  8
Ｓ_１_１
  6
CONTINUOUS
 62
     3
100
AcDbVertex
100
AcDb2dVertex
 10
618.985128
 20
212.9316319999999
 30
0.0
  0
VERTEX
  5
263
330
23B
100
AcDbEntity
  8
Ｓ_１_１
  6
CONTINUOUS
 62
     3
100
AcDbVertex
100
AcDb2dVertex
 10
618.6870309999999
 20
212.8466629999999
 30
0.0
  0
VERTEX
  5
264
330
23B
100
AcDbEntity
  8
Ｓ_１_１
  6
CONTINUOUS
 62
     3
100
AcDbVertex
100
AcDb2dVertex
 10
618.395829
 20
212.7286129999999
 30
0.0
  0
VERTEX
  5
265
330
23B
100
AcDbEntity
  8
Ｓ_１_１
  6
CONTINUOUS
 62
     3
100
AcDbVertex
100
AcDb2dVertex
 10
618.1137369999999
 20
212.5783809999999
 30
0.0
  0
VERTEX
  5
266
330
23B
100
AcDbEntity
  8
Ｓ_１_１
  6
CONTINUOUS
 62
     3
100
AcDbVertex
100
AcDb2dVertex
 10
617.8429019999999
 20
212.3971109999999
 30
0.0
  0
VERTEX
  5
267
330
23B
100
AcDbEntity
  8
Ｓ_１_１
  6
CONTINUOUS
 62
     3
100
AcDbVertex
100
AcDb2dVertex
 10
617.5853849999999
 20
212.1861799999999
 30
0.0
  0
VERTEX
  5
268
330
23B
100
AcDbEntity
  8
Ｓ_１_１
  6
CONTINUOUS
 62
     3
100
AcDbVertex
100
AcDb2dVertex
 10
617.343147
 20
211.9471959999999
 30
0.0
  0
VERTEX
  5
269
330
23B
100
AcDbEntity
  8
Ｓ_１_１
  6
CONTINUOUS
 62
     3
100
AcDbVertex
100
AcDb2dVertex
 10
617.118031
 20
211.681976
 30
0.0
  0
VERTEX
  5
26A
330
23B
100
AcDbEntity
  8
Ｓ_１_１
  6
CONTINUOUS
 62
     3
100
AcDbVertex
100
AcDb2dVertex
 10
616.91175
 20
211.3925399999999
 30
0.0
  0
VERTEX
  5
26B
330
23B
100
AcDbEntity
  8
Ｓ_１_１
  6
CONTINUOUS
 62
     3
100
AcDbVertex
100
AcDb2dVertex
 10
616.725874
 20
211.0810889999999
 30
0.0
  0
VERTEX
  5
26C
330
23B
100
AcDbEntity
  8
Ｓ_１_１
  6
CONTINUOUS
 62
     3
100
AcDbVertex
100
AcDb2dVertex
 10
616.5618179999999
 20
210.7499949999999
 30
0.0
  0
VERTEX
  5
26D
330
23B
100
AcDbEntity
  8
Ｓ_１_１
  6
CONTINUOUS
 62
     3
100
AcDbVertex
100
AcDb2dVertex
 10
616.4208309999999
 20
210.4017769999999
 30
0.0
  0
VERTEX
  5
26E
330
23B
100
AcDbEntity
  8
Ｓ_１_１
  6
CONTINUOUS
 62
     3
100
AcDbVertex
100
AcDb2dVertex
 10
616.3039839999999
 20
210.0390849999999
 30
0.0
  0
VERTEX
  5
26F
330
23B
100
AcDbEntity
  8
Ｓ_１_１
  6
CONTINUOUS
 62
     3
100
AcDbVertex
100
AcDb2dVertex
 10
616.2121689999999
 20
209.6646799999999
 30
0.0
  0
VERTEX
  5
270
330
23B
100
AcDbEntity
  8
Ｓ_１_１
  6
CONTINUOUS
 62
     3
100
AcDbVertex
100
AcDb2dVertex
 10
616.146082
 20
209.2814109999999
 30
0.0
  0
VERTEX
  5
271
330
23B
100
AcDbEntity
  8
Ｓ_１_１
  6
CONTINUOUS
 62
     3
100
AcDbVertex
100
AcDb2dVertex
 10
616.1062279999999
 20
208.892195
 30
0.0
  0
VERTEX
  5
272
330
23B
100
AcDbEntity
  8
Ｓ_１_１
  6
CONTINUOUS
 62
     3
100
AcDbVertex
100
AcDb2dVertex
 10
616.092909
 20
208.4999939999999
 30
0.0
  0
VERTEX
  5
273
330
23B
100
AcDbEntity
  8
Ｓ_１_１
  6
CONTINUOUS
 62
     3
100
AcDbVertex
100
AcDb2dVertex
 10
616.1062279999999
 20
208.107793
 30
0.0
  0
VERTEX
  5
274
330
23B
100
AcDbEntity
  8
Ｓ_１_１
  6
CONTINUOUS
 62
     3
100
AcDbVertex
100
AcDb2dVertex
 10
616.146082
 20
207.7185769999999
 30
0.0
  0
VERTEX
  5
275
330
23B
100
AcDbEntity
  8
Ｓ_１_１
  6
CONTINUOUS
 62
     3
100
AcDbVertex
100
AcDb2dVertex
 10
616.2121689999999
 20
207.3353069999999
 30
0.0
  0
VERTEX
  5
276
330
23B
100
AcDbEntity
  8
Ｓ_１_１
  6
CONTINUOUS
 62
     3
100
AcDbVertex
100
AcDb2dVertex
 10
616.3039839999999
 20
206.960902
 30
0.0
  0
VERTEX
  5
277
330
23B
100
AcDbEntity
  8
Ｓ_１_１
  6
CONTINUOUS
 62
     3
100
AcDbVertex
100
AcDb2dVertex
 10
616.4208309999999
 20
206.5982109999999
 30
0.0
  0
VERTEX
  5
278
330
23B
100
AcDbEntity
  8
Ｓ_１_１
  6
CONTINUOUS
 62
     3
100
AcDbVertex
100
AcDb2dVertex
 10
616.5618179999999
 20
206.2499919999999
 30
0.0
  0
VERTEX
  5
279
330
23B
100
AcDbEntity
  8
Ｓ_１_１
  6
CONTINUOUS
 62
     3
100
AcDbVertex
100
AcDb2dVertex
 10
616.725874
 20
205.9188979999999
 30
0.0
  0
VERTEX
  5
27A
330
23B
100
AcDbEntity
  8
Ｓ_１_１
  6
CONTINUOUS
 62
     3
100
AcDbVertex
100
AcDb2dVertex
 10
616.91175
 20
205.6074479999999
 30
0.0
  0
VERTEX
  5
27B
330
23B
100
AcDbEntity
  8
Ｓ_１_１
  6
CONTINUOUS
 62
     3
100
AcDbVertex
100
AcDb2dVertex
 10
617.118031
 20
205.318011
 30
0.0
  0
VERTEX
  5
27C
330
23B
100
AcDbEntity
  8
Ｓ_１_１
  6
CONTINUOUS
 62
     3
100
AcDbVertex
100
AcDb2dVertex
 10
617.343147
 20
205.0527919999999
 30
0.0
  0
VERTEX
  5
27D
330
23B
100
AcDbEntity
  8
Ｓ_１_１
  6
CONTINUOUS
 62
     3
100
AcDbVertex
100
AcDb2dVertex
 10
617.5853849999999
 20
204.8138069999999
 30
0.0
  0
VERTEX
  5
27E
330
23B
100
AcDbEntity
  8
Ｓ_１_１
  6
CONTINUOUS
 62
     3
100
AcDbVertex
100
AcDb2dVertex
 10
617.8429019999999
 20
204.6028769999999
 30
0.0
  0
VERTEX
  5
27F
330
23B
100
AcDbEntity
  8
Ｓ_１_１
  6
CONTINUOUS
 62
     3
100
AcDbVertex
100
AcDb2dVertex
 10
618.1137369999999
 20
204.4216059999999
 30
0.0
  0
VERTEX
  5
280
330
23B
100
AcDbEntity
  8
Ｓ_１_１
  6
CONTINUOUS
 62
     3
100
AcDbVertex
100
AcDb2dVertex
 10
618.395829
 20
204.2713739999999
 30
0.0
  0
VERTEX
  5
281
330
23B
100
AcDbEntity
  8
Ｓ_１_１
  6
CONTINUOUS
 62
     3
100
AcDbVertex
100
AcDb2dVertex
 10
618.6870309999999
 20
204.1533249999999
 30
0.0
  0
VERTEX
  5
282
330
23B
100
AcDbEntity
  8
Ｓ_１_１
  6
CONTINUOUS
 62
     3
100
AcDbVertex
100
AcDb2dVertex
 10
618.985128
 20
204.0683559999999
 30
0.0
  0
VERTEX
  5
283
330
23B
100
AcDbEntity
  8
Ｓ_１_１
  6
CONTINUOUS
 62
     3
100
AcDbVertex
100
AcDb2dVertex
 10
619.2878499999999
 20
204.0171149999999
 30
0.0
  0
VERTEX
  5
284
330
23B
100
AcDbEntity
  8
Ｓ_１_１
  6
CONTINUOUS
 62
     3
100
AcDbVertex
100
AcDb2dVertex
 10
619.5928939999999
 20
203.9999909999999
 30
0.0
  0
SEQEND
  5
285
330
23B
100
AcDbEntity
  8
Ｓ_１_１
  6
CONTINUOUS
 62
     3
  0
POLYLINE
  5
286
330
1F
100
AcDbEntity
  8
Ｓ_１_１
  6
CONTINUOUS
 62
     3
100
AcDb2dPolyline
 66
     1
 10
0.0
 20
0.0
 30
0.0
 70
   128
  0
VERTEX
  5
287
330
286
100
AcDbEntity
  8
Ｓ_１_１
  6
CONTINUOUS
 62
     3
100
AcDbVertex
100
AcDb2dVertex
 10
420.4071060000001
 20
203.9999909999999
 30
0.0
  0
VERTEX
  5
288
330
286
100
AcDbEntity
  8
Ｓ_１_１
  6
CONTINUOUS
 62
     3
100
AcDbVertex
100
AcDb2dVertex
 10
420.712153
 20
204.0171149999999
 30
0.0
  0
VERTEX
  5
289
330
286
100
AcDbEntity
  8
Ｓ_１_１
  6
CONTINUOUS
 62
     3
100
AcDbVertex
100
AcDb2dVertex
 10
421.014879
 20
204.0683559999999
 30
0.0
  0
VERTEX
  5
28A
330
286
100
AcDbEntity
  8
Ｓ_１_１
  6
CONTINUOUS
 62
     3
100
AcDbVertex
100
AcDb2dVertex
 10
421.312979
 20
204.1533249999999
 30
0.0
  0
VERTEX
  5
28B
330
286
100
AcDbEntity
  8
Ｓ_１_１
  6
CONTINUOUS
 62
     3
100
AcDbVertex
100
AcDb2dVertex
 10
421.6041839999999
 20
204.2713739999999
 30
0.0
  0
VERTEX
  5
28C
330
286
100
AcDbEntity
  8
Ｓ_１_１
  6
CONTINUOUS
 62
     3
100
AcDbVertex
100
AcDb2dVertex
 10
421.88628
 20
204.4216059999999
 30
0.0
  0
VERTEX
  5
28D
330
286
100
AcDbEntity
  8
Ｓ_１_１
  6
CONTINUOUS
 62
     3
100
AcDbVertex
100
AcDb2dVertex
 10
422.157117
 20
204.6028769999999
 30
0.0
  0
VERTEX
  5
28E
330
286
100
AcDbEntity
  8
Ｓ_１_１
  6
CONTINUOUS
 62
     3
100
AcDbVertex
100
AcDb2dVertex
 10
422.414637
 20
204.8138069999999
 30
0.0
  0
VERTEX
  5
28F
330
286
100
AcDbEntity
  8
Ｓ_１_１
  6
CONTINUOUS
 62
     3
100
AcDbVertex
100
AcDb2dVertex
 10
422.656877
 20
205.0527919999999
 30
0.0
  0
VERTEX
  5
290
330
286
100
AcDbEntity
  8
Ｓ_１_１
  6
CONTINUOUS
 62
     3
100
AcDbVertex
100
AcDb2dVertex
 10
422.881996
 20
205.318011
 30
0.0
  0
VERTEX
  5
291
330
286
100
AcDbEntity
  8
Ｓ_１_１
  6
CONTINUOUS
 62
     3
100
AcDbVertex
100
AcDb2dVertex
 10
423.088279
 20
205.6074479999999
 30
0.0
  0
VERTEX
  5
292
330
286
100
AcDbEntity
  8
Ｓ_１_１
  6
CONTINUOUS
 62
     3
100
AcDbVertex
100
AcDb2dVertex
 10
423.274157
 20
205.9188979999999
 30
0.0
  0
VERTEX
  5
293
330
286
100
AcDbEntity
  8
Ｓ_１_１
  6
CONTINUOUS
 62
     3
100
AcDbVertex
100
AcDb2dVertex
 10
423.438215
 20
206.2499919999999
 30
0.0
  0
VERTEX
  5
294
330
286
100
AcDbEntity
  8
Ｓ_１_１
  6
CONTINUOUS
 62
     3
100
AcDbVertex
100
AcDb2dVertex
 10
423.5792039999999
 20
206.5982109999999
 30
0.0
  0
VERTEX
  5
295
330
286
100
AcDbEntity
  8
Ｓ_１_１
  6
CONTINUOUS
 62
     3
100
AcDbVertex
100
AcDb2dVertex
 10
423.696052
 20
206.960902
 30
0.0
  0
VERTEX
  5
296
330
286
100
AcDbEntity
  8
Ｓ_１_１
  6
CONTINUOUS
 62
     3
100
AcDbVertex
100
AcDb2dVertex
 10
423.7878690000001
 20
207.3353069999999
 30
0.0
  0
VERTEX
  5
297
330
286
100
AcDbEntity
  8
Ｓ_１_１
  6
CONTINUOUS
 62
     3
100
AcDbVertex
100
AcDb2dVertex
 10
423.853956
 20
207.7185769999999
 30
0.0
  0
VERTEX
  5
298
330
286
100
AcDbEntity
  8
Ｓ_１_１
  6
CONTINUOUS
 62
     3
100
AcDbVertex
100
AcDb2dVertex
 10
423.89381
 20
208.107793
 30
0.0
  0
VERTEX
  5
299
330
286
100
AcDbEntity
  8
Ｓ_１_１
  6
CONTINUOUS
 62
     3
100
AcDbVertex
100
AcDb2dVertex
 10
423.9071289999999
 20
208.4999939999999
 30
0.0
  0
VERTEX
  5
29A
330
286
100
AcDbEntity
  8
Ｓ_１_１
  6
CONTINUOUS
 62
     3
100
AcDbVertex
100
AcDb2dVertex
 10
423.89381
 20
208.892195
 30
0.0
  0
VERTEX
  5
29B
330
286
100
AcDbEntity
  8
Ｓ_１_１
  6
CONTINUOUS
 62
     3
100
AcDbVertex
100
AcDb2dVertex
 10
423.853956
 20
209.2814109999999
 30
0.0
  0
VERTEX
  5
29C
330
286
100
AcDbEntity
  8
Ｓ_１_１
  6
CONTINUOUS
 62
     3
100
AcDbVertex
100
AcDb2dVertex
 10
423.7878690000001
 20
209.6646799999999
 30
0.0
  0
VERTEX
  5
29D
330
286
100
AcDbEntity
  8
Ｓ_１_１
  6
CONTINUOUS
 62
     3
100
AcDbVertex
100
AcDb2dVertex
 10
423.696052
 20
210.0390849999999
 30
0.0
  0
VERTEX
  5
29E
330
286
100
AcDbEntity
  8
Ｓ_１_１
  6
CONTINUOUS
 62
     3
100
AcDbVertex
100
AcDb2dVertex
 10
423.5792039999999
 20
210.4017769999999
 30
0.0
  0
VERTEX
  5
29F
330
286
100
AcDbEntity
  8
Ｓ_１_１
  6
CONTINUOUS
 62
     3
100
AcDbVertex
100
AcDb2dVertex
 10
423.438215
 20
210.7499949999999
 30
0.0
  0
VERTEX
  5
2A0
330
286
100
AcDbEntity
  8
Ｓ_１_１
  6
CONTINUOUS
 62
     3
100
AcDbVertex
100
AcDb2dVertex
 10
423.274157
 20
211.0810889999999
 30
0.0
  0
VERTEX
  5
2A1
330
286
100
AcDbEntity
  8
Ｓ_１_１
  6
CONTINUOUS
 62
     3
100
AcDbVertex
100
AcDb2dVertex
 10
423.088279
 20
211.3925399999999
 30
0.0
  0
VERTEX
  5
2A2
330
286
100
AcDbEntity
  8
Ｓ_１_１
  6
CONTINUOUS
 62
     3
100
AcDbVertex
100
AcDb2dVertex
 10
422.881996
 20
211.681976
 30
0.0
  0
VERTEX
  5
2A3
330
286
100
AcDbEntity
  8
Ｓ_１_１
  6
CONTINUOUS
 62
     3
100
AcDbVertex
100
AcDb2dVertex
 10
422.656877
 20
211.9471959999999
 30
0.0
  0
VERTEX
  5
2A4
330
286
100
AcDbEntity
  8
Ｓ_１_１
  6
CONTINUOUS
 62
     3
100
AcDbVertex
100
AcDb2dVertex
 10
422.414637
 20
212.1861799999999
 30
0.0
  0
VERTEX
  5
2A5
330
286
100
AcDbEntity
  8
Ｓ_１_１
  6
CONTINUOUS
 62
     3
100
AcDbVertex
100
AcDb2dVertex
 10
422.157117
 20
212.3971109999999
 30
0.0
  0
VERTEX
  5
2A6
330
286
100
AcDbEntity
  8
Ｓ_１_１
  6
CONTINUOUS
 62
     3
100
AcDbVertex
100
AcDb2dVertex
 10
421.88628
 20
212.5783809999999
 30
0.0
  0
VERTEX
  5
2A7
330
286
100
AcDbEntity
  8
Ｓ_１_１
  6
CONTINUOUS
 62
     3
100
AcDbVertex
100
AcDb2dVertex
 10
421.6041839999999
 20
212.7286129999999
 30
0.0
  0
VERTEX
  5
2A8
330
286
100
AcDbEntity
  8
Ｓ_１_１
  6
CONTINUOUS
 62
     3
100
AcDbVertex
100
AcDb2dVertex
 10
421.312979
 20
212.8466629999999
 30
0.0
  0
VERTEX
  5
2A9
330
286
100
AcDbEntity
  8
Ｓ_１_１
  6
CONTINUOUS
 62
     3
100
AcDbVertex
100
AcDb2dVertex
 10
421.014879
 20
212.9316319999999
 30
0.0
  0
VERTEX
  5
2AA
330
286
100
AcDbEntity
  8
Ｓ_１_１
  6
CONTINUOUS
 62
     3
100
AcDbVertex
100
AcDb2dVertex
 10
420.712153
 20
212.9828729999999
 30
0.0
  0
VERTEX
  5
2AB
330
286
100
AcDbEntity
  8
Ｓ_１_１
  6
CONTINUOUS
 62
     3
100
AcDbVertex
100
AcDb2dVertex
 10
420.4071060000001
 20
212.9999969999999
 30
0.0
  0
VERTEX
  5
2AC
330
286
100
AcDbEntity
  8
Ｓ_１_１
  6
CONTINUOUS
 62
     3
100
AcDbVertex
100
AcDb2dVertex
 10
420.102059
 20
212.9828729999999
 30
0.0
  0
VERTEX
  5
2AD
330
286
100
AcDbEntity
  8
Ｓ_１_１
  6
CONTINUOUS
 62
     3
100
AcDbVertex
100
AcDb2dVertex
 10
419.799333
 20
212.9316319999999
 30
0.0
  0
VERTEX
  5
2AE
330
286
100
AcDbEntity
  8
Ｓ_１_１
  6
CONTINUOUS
 62
     3
100
AcDbVertex
100
AcDb2dVertex
 10
419.501233
 20
212.8466629999999
 30
0.0
  0
VERTEX
  5
2AF
330
286
100
AcDbEntity
  8
Ｓ_１_１
  6
CONTINUOUS
 62
     3
100
AcDbVertex
100
AcDb2dVertex
 10
419.210028
 20
212.7286129999999
 30
0.0
  0
VERTEX
  5
2B0
330
286
100
AcDbEntity
  8
Ｓ_１_１
  6
CONTINUOUS
 62
     3
100
AcDbVertex
100
AcDb2dVertex
 10
418.927932
 20
212.5783809999999
 30
0.0
  0
VERTEX
  5
2B1
330
286
100
AcDbEntity
  8
Ｓ_１_１
  6
CONTINUOUS
 62
     3
100
AcDbVertex
100
AcDb2dVertex
 10
418.657095
 20
212.3971109999999
 30
0.0
  0
VERTEX
  5
2B2
330
286
100
AcDbEntity
  8
Ｓ_１_１
  6
CONTINUOUS
 62
     3
100
AcDbVertex
100
AcDb2dVertex
 10
418.399575
 20
212.1861799999999
 30
0.0
  0
VERTEX
  5
2B3
330
286
100
AcDbEntity
  8
Ｓ_１_１
  6
CONTINUOUS
 62
     3
100
AcDbVertex
100
AcDb2dVertex
 10
418.157335
 20
211.9471959999999
 30
0.0
  0
VERTEX
  5
2B4
330
286
100
AcDbEntity
  8
Ｓ_１_１
  6
CONTINUOUS
 62
     3
100
AcDbVertex
100
AcDb2dVertex
 10
417.932216
 20
211.681976
 30
0.0
  0
VERTEX
  5
2B5
330
286
100
AcDbEntity
  8
Ｓ_１_１
  6
CONTINUOUS
 62
     3
100
AcDbVertex
100
AcDb2dVertex
 10
417.725933
 20
211.3925399999999
 30
0.0
  0
VERTEX
  5
2B6
330
286
100
AcDbEntity
  8
Ｓ_１_１
  6
CONTINUOUS
 62
     3
100
AcDbVertex
100
AcDb2dVertex
 10
417.540055
 20
211.0810889999999
 30
0.0
  0
VERTEX
  5
2B7
330
286
100
AcDbEntity
  8
Ｓ_１_１
  6
CONTINUOUS
 62
     3
100
AcDbVertex
100
AcDb2dVertex
 10
417.375997
 20
210.7499949999999
 30
0.0
  0
VERTEX
  5
2B8
330
286
100
AcDbEntity
  8
Ｓ_１_１
  6
CONTINUOUS
 62
     3
100
AcDbVertex
100
AcDb2dVertex
 10
417.2350080000001
 20
210.4017769999999
 30
0.0
  0
VERTEX
  5
2B9
330
286
100
AcDbEntity
  8
Ｓ_１_１
  6
CONTINUOUS
 62
     3
100
AcDbVertex
100
AcDb2dVertex
 10
417.11816
 20
210.0390849999999
 30
0.0
  0
VERTEX
  5
2BA
330
286
100
AcDbEntity
  8
Ｓ_１_１
  6
CONTINUOUS
 62
     3
100
AcDbVertex
100
AcDb2dVertex
 10
417.026344
 20
209.6646799999999
 30
0.0
  0
VERTEX
  5
2BB
330
286
100
AcDbEntity
  8
Ｓ_１_１
  6
CONTINUOUS
 62
     3
100
AcDbVertex
100
AcDb2dVertex
 10
416.960256
 20
209.2814109999999
 30
0.0
  0
VERTEX
  5
2BC
330
286
100
AcDbEntity
  8
Ｓ_１_１
  6
CONTINUOUS
 62
     3
100
AcDbVertex
100
AcDb2dVertex
 10
416.920402
 20
208.892195
 30
0.0
  0
VERTEX
  5
2BD
330
286
100
AcDbEntity
  8
Ｓ_１_１
  6
CONTINUOUS
 62
     3
100
AcDbVertex
100
AcDb2dVertex
 10
416.9070829999999
 20
208.4999939999999
 30
0.0
  0
VERTEX
  5
2BE
330
286
100
AcDbEntity
  8
Ｓ_１_１
  6
CONTINUOUS
 62
     3
100
AcDbVertex
100
AcDb2dVertex
 10
416.920402
 20
208.107793
 30
0.0
  0
VERTEX
  5
2BF
330
286
100
AcDbEntity
  8
Ｓ_１_１
  6
CONTINUOUS
 62
     3
100
AcDbVertex
100
AcDb2dVertex
 10
416.960256
 20
207.7185769999999
 30
0.0
  0
VERTEX
  5
2C0
330
286
100
AcDbEntity
  8
Ｓ_１_１
  6
CONTINUOUS
 62
     3
100
AcDbVertex
100
AcDb2dVertex
 10
417.026344
 20
207.3353069999999
 30
0.0
  0
VERTEX
  5
2C1
330
286
100
AcDbEntity
  8
Ｓ_１_１
  6
CONTINUOUS
 62
     3
100
AcDbVertex
100
AcDb2dVertex
 10
417.11816
 20
206.960902
 30
0.0
  0
VERTEX
  5
2C2
330
286
100
AcDbEntity
  8
Ｓ_１_１
  6
CONTINUOUS
 62
     3
100
AcDbVertex
100
AcDb2dVertex
 10
417.2350080000001
 20
206.5982109999999
 30
0.0
  0
VERTEX
  5
2C3
330
286
100
AcDbEntity
  8
Ｓ_１_１
  6
CONTINUOUS
 62
     3
100
AcDbVertex
100
AcDb2dVertex
 10
417.375997
 20
206.2499919999999
 30
0.0
  0
VERTEX
  5
2C4
330
286
100
AcDbEntity
  8
Ｓ_１_１
  6
CONTINUOUS
 62
     3
100
AcDbVertex
100
AcDb2dVertex
 10
417.540055
 20
205.9188979999999
 30
0.0
  0
VERTEX
  5
2C5
330
286
100
AcDbEntity
  8
Ｓ_１_１
  6
CONTINUOUS
 62
     3
100
AcDbVertex
100
AcDb2dVertex
 10
417.725933
 20
205.6074479999999
 30
0.0
  0
VERTEX
  5
2C6
330
286
100
AcDbEntity
  8
Ｓ_１_１
  6
CONTINUOUS
 62
     3
100
AcDbVertex
100
AcDb2dVertex
 10
417.932216
 20
205.318011
 30
0.0
  0
VERTEX
  5
2C7
330
286
100
AcDbEntity
  8
Ｓ_１_１
  6
CONTINUOUS
 62
     3
100
AcDbVertex
100
AcDb2dVertex
 10
418.157335
 20
205.0527919999999
 30
0.0
  0
VERTEX
  5
2C8
330
286
100
AcDbEntity
  8
Ｓ_１_１
  6
CONTINUOUS
 62
     3
100
AcDbVertex
100
AcDb2dVertex
 10
418.399575
 20
204.8138069999999
 30
0.0
  0
VERTEX
  5
2C9
330
286
100
AcDbEntity
  8
Ｓ_１_１
  6
CONTINUOUS
 62
     3
100
AcDbVertex
100
AcDb2dVertex
 10
418.657095
 20
204.6028769999999
 30
0.0
  0
VERTEX
  5
2CA
330
286
100
AcDbEntity
  8
Ｓ_１_１
  6
CONTINUOUS
 62
     3
100
AcDbVertex
100
AcDb2dVertex
 10
418.927932
 20
204.4216059999999
 30
0.0
  0
VERTEX
  5
2CB
330
286
100
AcDbEntity
  8
Ｓ_１_１
  6
CONTINUOUS
 62
     3
100
AcDbVertex
100
AcDb2dVertex
 10
419.210028
 20
204.2713739999999
 30
0.0
  0
VERTEX
  5
2CC
330
286
100
AcDbEntity
  8
Ｓ_１_１
  6
CONTINUOUS
 62
     3
100
AcDbVertex
100
AcDb2dVertex
 10
419.501233
 20
204.1533249999999
 30
0.0
  0
VERTEX
  5
2CD
330
286
100
AcDbEntity
  8
Ｓ_１_１
  6
CONTINUOUS
 62
     3
100
AcDbVertex
100
AcDb2dVertex
 10
419.799333
 20
204.0683559999999
 30
0.0
  0
VERTEX
  5
2CE
330
286
100
AcDbEntity
  8
Ｓ_１_１
  6
CONTINUOUS
 62
     3
100
AcDbVertex
100
AcDb2dVertex
 10
420.102059
 20
204.0171149999999
 30
0.0
  0
VERTEX
  5
2CF
330
286
100
AcDbEntity
  8
Ｓ_１_１
  6
CONTINUOUS
 62
     3
100
AcDbVertex
100
AcDb2dVertex
 10
420.4071060000001
 20
203.9999909999999
 30
0.0
  0
SEQEND
  5
2D0
330
286
100
AcDbEntity
  8
Ｓ_１_１
  6
CONTINUOUS
 62
     3
  0
POLYLINE
  5
2D1
330
1F
100
AcDbEntity
  8
Ｓ_１_１
  6
CONTINUOUS
 62
     3
100
AcDb2dPolyline
 66
     1
 10
0.0
 20
0.0
 30
0.0
 70
   128
  0
VERTEX
  5
2D2
330
2D1
100
AcDbEntity
  8
Ｓ_１_１
  6
CONTINUOUS
 62
     3
100
AcDbVertex
100
AcDb2dVertex
 10
420.4071060000001
 20
202.4999949999999
 30
0.0
  0
VERTEX
  5
2D3
330
2D1
100
AcDbEntity
  8
Ｓ_１_１
  6
CONTINUOUS
 62
     3
100
AcDbVertex
100
AcDb2dVertex
 10
420.755727
 20
202.5228269999999
 30
0.0
  0
VERTEX
  5
2D4
330
2D1
100
AcDbEntity
  8
Ｓ_１_１
  6
CONTINUOUS
 62
     3
100
AcDbVertex
100
AcDb2dVertex
 10
421.101695
 20
202.5911479999999
 30
0.0
  0
VERTEX
  5
2D5
330
2D1
100
AcDbEntity
  8
Ｓ_１_１
  6
CONTINUOUS
 62
     3
100
AcDbVertex
100
AcDb2dVertex
 10
421.442376
 20
202.7044399999999
 30
0.0
  0
VERTEX
  5
2D6
330
2D1
100
AcDbEntity
  8
Ｓ_１_１
  6
CONTINUOUS
 62
     3
100
AcDbVertex
100
AcDb2dVertex
 10
421.775179
 20
202.861839
 30
0.0
  0
VERTEX
  5
2D7
330
2D1
100
AcDbEntity
  8
Ｓ_１_１
  6
CONTINUOUS
 62
     3
100
AcDbVertex
100
AcDb2dVertex
 10
422.097569
 20
203.0621479999999
 30
0.0
  0
VERTEX
  5
2D8
330
2D1
100
AcDbEntity
  8
Ｓ_１_１
  6
CONTINUOUS
 62
     3
100
AcDbVertex
100
AcDb2dVertex
 10
422.407095
 20
203.303842
 30
0.0
  0
VERTEX
  5
2D9
330
2D1
100
AcDbEntity
  8
Ｓ_１_１
  6
CONTINUOUS
 62
     3
100
AcDbVertex
100
AcDb2dVertex
 10
422.701399
 20
203.5850819999999
 30
0.0
  0
VERTEX
  5
2DA
330
2D1
100
AcDbEntity
  8
Ｓ_１_１
  6
CONTINUOUS
 62
     3
100
AcDbVertex
100
AcDb2dVertex
 10
422.978242
 20
203.9037279999999
 30
0.0
  0
VERTEX
  5
2DB
330
2D1
100
AcDbEntity
  8
Ｓ_１_１
  6
CONTINUOUS
 62
     3
100
AcDbVertex
100
AcDb2dVertex
 10
423.235517
 20
204.257354
 30
0.0
  0
VERTEX
  5
2DC
330
2D1
100
AcDbEntity
  8
Ｓ_１_１
  6
CONTINUOUS
 62
     3
100
AcDbVertex
100
AcDb2dVertex
 10
423.471266
 20
204.6432689999999
 30
0.0
  0
VERTEX
  5
2DD
330
2D1
100
AcDbEntity
  8
Ｓ_１_１
  6
CONTINUOUS
 62
     3
100
AcDbVertex
100
AcDb2dVertex
 10
423.6836949999999
 20
205.0585359999999
 30
0.0
  0
VERTEX
  5
2DE
330
2D1
100
AcDbEntity
  8
Ｓ_１_１
  6
CONTINUOUS
 62
     3
100
AcDbVertex
100
AcDb2dVertex
 10
423.871188
 20
205.4999939999999
 30
0.0
  0
VERTEX
  5
2DF
330
2D1
100
AcDbEntity
  8
Ｓ_１_１
  6
CONTINUOUS
 62
     3
100
AcDbVertex
100
AcDb2dVertex
 10
424.032316
 20
205.9642849999999
 30
0.0
  0
VERTEX
  5
2E0
330
2D1
100
AcDbEntity
  8
Ｓ_１_１
  6
CONTINUOUS
 62
     3
100
AcDbVertex
100
AcDb2dVertex
 10
424.165855
 20
206.447873
 30
0.0
  0
VERTEX
  5
2E1
330
2D1
100
AcDbEntity
  8
Ｓ_１_１
  6
CONTINUOUS
 62
     3
100
AcDbVertex
100
AcDb2dVertex
 10
424.2707869999999
 20
206.94708
 30
0.0
  0
VERTEX
  5
2E2
330
2D1
100
AcDbEntity
  8
Ｓ_１_１
  6
CONTINUOUS
 62
     3
100
AcDbVertex
100
AcDb2dVertex
 10
424.3463139999999
 20
207.4581049999999
 30
0.0
  0
VERTEX
  5
2E3
330
2D1
100
AcDbEntity
  8
Ｓ_１_１
  6
CONTINUOUS
 62
     3
100
AcDbVertex
100
AcDb2dVertex
 10
424.391862
 20
207.9770599999999
 30
0.0
  0
VERTEX
  5
2E4
330
2D1
100
AcDbEntity
  8
Ｓ_１_１
  6
CONTINUOUS
 62
     3
100
AcDbVertex
100
AcDb2dVertex
 10
424.4070829999999
 20
208.4999939999999
 30
0.0
  0
VERTEX
  5
2E5
330
2D1
100
AcDbEntity
  8
Ｓ_１_１
  6
CONTINUOUS
 62
     3
100
AcDbVertex
100
AcDb2dVertex
 10
424.391862
 20
209.0229279999999
 30
0.0
  0
VERTEX
  5
2E6
330
2D1
100
AcDbEntity
  8
Ｓ_１_１
  6
CONTINUOUS
 62
     3
100
AcDbVertex
100
AcDb2dVertex
 10
424.3463139999999
 20
209.5418829999999
 30
0.0
  0
VERTEX
  5
2E7
330
2D1
100
AcDbEntity
  8
Ｓ_１_１
  6
CONTINUOUS
 62
     3
100
AcDbVertex
100
AcDb2dVertex
 10
424.2707869999999
 20
210.0529079999999
 30
0.0
  0
VERTEX
  5
2E8
330
2D1
100
AcDbEntity
  8
Ｓ_１_１
  6
CONTINUOUS
 62
     3
100
AcDbVertex
100
AcDb2dVertex
 10
424.165855
 20
210.552114
 30
0.0
  0
VERTEX
  5
2E9
330
2D1
100
AcDbEntity
  8
Ｓ_１_１
  6
CONTINUOUS
 62
     3
100
AcDbVertex
100
AcDb2dVertex
 10
424.032316
 20
211.0357029999999
 30
0.0
  0
VERTEX
  5
2EA
330
2D1
100
AcDbEntity
  8
Ｓ_１_１
  6
CONTINUOUS
 62
     3
100
AcDbVertex
100
AcDb2dVertex
 10
423.871188
 20
211.4999929999999
 30
0.0
  0
VERTEX
  5
2EB
330
2D1
100
AcDbEntity
  8
Ｓ_１_１
  6
CONTINUOUS
 62
     3
100
AcDbVertex
100
AcDb2dVertex
 10
423.6836949999999
 20
211.9414519999999
 30
0.0
  0
VERTEX
  5
2EC
330
2D1
100
AcDbEntity
  8
Ｓ_１_１
  6
CONTINUOUS
 62
     3
100
AcDbVertex
100
AcDb2dVertex
 10
423.471266
 20
212.3567189999999
 30
0.0
  0
VERTEX
  5
2ED
330
2D1
100
AcDbEntity
  8
Ｓ_１_１
  6
CONTINUOUS
 62
     3
100
AcDbVertex
100
AcDb2dVertex
 10
423.235517
 20
212.742634
 30
0.0
  0
VERTEX
  5
2EE
330
2D1
100
AcDbEntity
  8
Ｓ_１_１
  6
CONTINUOUS
 62
     3
100
AcDbVertex
100
AcDb2dVertex
 10
422.978242
 20
213.09626
 30
0.0
  0
VERTEX
  5
2EF
330
2D1
100
AcDbEntity
  8
Ｓ_１_１
  6
CONTINUOUS
 62
     3
100
AcDbVertex
100
AcDb2dVertex
 10
422.701399
 20
213.4149049999999
 30
0.0
  0
VERTEX
  5
2F0
330
2D1
100
AcDbEntity
  8
Ｓ_１_１
  6
CONTINUOUS
 62
     3
100
AcDbVertex
100
AcDb2dVertex
 10
422.407095
 20
213.6961449999999
 30
0.0
  0
VERTEX
  5
2F1
330
2D1
100
AcDbEntity
  8
Ｓ_１_１
  6
CONTINUOUS
 62
     3
100
AcDbVertex
100
AcDb2dVertex
 10
422.097569
 20
213.9378399999999
 30
0.0
  0
VERTEX
  5
2F2
330
2D1
100
AcDbEntity
  8
Ｓ_１_１
  6
CONTINUOUS
 62
     3
100
AcDbVertex
100
AcDb2dVertex
 10
421.775179
 20
214.1381489999999
 30
0.0
  0
VERTEX
  5
2F3
330
2D1
100
AcDbEntity
  8
Ｓ_１_１
  6
CONTINUOUS
 62
     3
100
AcDbVertex
100
AcDb2dVertex
 10
421.442376
 20
214.2955479999999
 30
0.0
  0
VERTEX
  5
2F4
330
2D1
100
AcDbEntity
  8
Ｓ_１_１
  6
CONTINUOUS
 62
     3
100
AcDbVertex
100
AcDb2dVertex
 10
421.101695
 20
214.4088389999999
 30
0.0
  0
VERTEX
  5
2F5
330
2D1
100
AcDbEntity
  8
Ｓ_１_１
  6
CONTINUOUS
 62
     3
100
AcDbVertex
100
AcDb2dVertex
 10
420.755727
 20
214.4771609999999
 30
0.0
  0
VERTEX
  5
2F6
330
2D1
100
AcDbEntity
  8
Ｓ_１_１
  6
CONTINUOUS
 62
     3
100
AcDbVertex
100
AcDb2dVertex
 10
420.4071060000001
 20
214.4999929999999
 30
0.0
  0
VERTEX
  5
2F7
330
2D1
100
AcDbEntity
  8
Ｓ_１_１
  6
CONTINUOUS
 62
     3
100
AcDbVertex
100
AcDb2dVertex
 10
420.058485
 20
214.4771609999999
 30
0.0
  0
VERTEX
  5
2F8
330
2D1
100
AcDbEntity
  8
Ｓ_１_１
  6
CONTINUOUS
 62
     3
100
AcDbVertex
100
AcDb2dVertex
 10
419.712517
 20
214.4088389999999
 30
0.0
  0
VERTEX
  5
2F9
330
2D1
100
AcDbEntity
  8
Ｓ_１_１
  6
CONTINUOUS
 62
     3
100
AcDbVertex
100
AcDb2dVertex
 10
419.371836
 20
214.2955479999999
 30
0.0
  0
VERTEX
  5
2FA
330
2D1
100
AcDbEntity
  8
Ｓ_１_１
  6
CONTINUOUS
 62
     3
100
AcDbVertex
100
AcDb2dVertex
 10
419.0390329999999
 20
214.1381489999999
 30
0.0
  0
VERTEX
  5
2FB
330
2D1
100
AcDbEntity
  8
Ｓ_１_１
  6
CONTINUOUS
 62
     3
100
AcDbVertex
100
AcDb2dVertex
 10
418.716643
 20
213.9378399999999
 30
0.0
  0
VERTEX
  5
2FC
330
2D1
100
AcDbEntity
  8
Ｓ_１_１
  6
CONTINUOUS
 62
     3
100
AcDbVertex
100
AcDb2dVertex
 10
418.407118
 20
213.6961449999999
 30
0.0
  0
VERTEX
  5
2FD
330
2D1
100
AcDbEntity
  8
Ｓ_１_１
  6
CONTINUOUS
 62
     3
100
AcDbVertex
100
AcDb2dVertex
 10
418.112813
 20
213.4149049999999
 30
0.0
  0
VERTEX
  5
2FE
330
2D1
100
AcDbEntity
  8
Ｓ_１_１
  6
CONTINUOUS
 62
     3
100
AcDbVertex
100
AcDb2dVertex
 10
417.83597
 20
213.09626
 30
0.0
  0
VERTEX
  5
2FF
330
2D1
100
AcDbEntity
  8
Ｓ_１_１
  6
CONTINUOUS
 62
     3
100
AcDbVertex
100
AcDb2dVertex
 10
417.578695
 20
212.742634
 30
0.0
  0
VERTEX
  5
300
330
2D1
100
AcDbEntity
  8
Ｓ_１_１
  6
CONTINUOUS
 62
     3
100
AcDbVertex
100
AcDb2dVertex
 10
417.342946
 20
212.3567189999999
 30
0.0
  0
VERTEX
  5
301
330
2D1
100
AcDbEntity
  8
Ｓ_１_１
  6
CONTINUOUS
 62
     3
100
AcDbVertex
100
AcDb2dVertex
 10
417.1305169999999
 20
211.9414519999999
 30
0.0
  0
VERTEX
  5
302
330
2D1
100
AcDbEntity
  8
Ｓ_１_１
  6
CONTINUOUS
 62
     3
100
AcDbVertex
100
AcDb2dVertex
 10
416.9430239999999
 20
211.4999929999999
 30
0.0
  0
VERTEX
  5
303
330
2D1
100
AcDbEntity
  8
Ｓ_１_１
  6
CONTINUOUS
 62
     3
100
AcDbVertex
100
AcDb2dVertex
 10
416.781896
 20
211.0357029999999
 30
0.0
  0
VERTEX
  5
304
330
2D1
100
AcDbEntity
  8
Ｓ_１_１
  6
CONTINUOUS
 62
     3
100
AcDbVertex
100
AcDb2dVertex
 10
416.648357
 20
210.552114
 30
0.0
  0
VERTEX
  5
305
330
2D1
100
AcDbEntity
  8
Ｓ_１_１
  6
CONTINUOUS
 62
     3
100
AcDbVertex
100
AcDb2dVertex
 10
416.543425
 20
210.0529079999999
 30
0.0
  0
VERTEX
  5
306
330
2D1
100
AcDbEntity
  8
Ｓ_１_１
  6
CONTINUOUS
 62
     3
100
AcDbVertex
100
AcDb2dVertex
 10
416.467898
 20
209.5418829999999
 30
0.0
  0
VERTEX
  5
307
330
2D1
100
AcDbEntity
  8
Ｓ_１_１
  6
CONTINUOUS
 62
     3
100
AcDbVertex
100
AcDb2dVertex
 10
416.42235
 20
209.0229279999999
 30
0.0
  0
VERTEX
  5
308
330
2D1
100
AcDbEntity
  8
Ｓ_１_１
  6
CONTINUOUS
 62
     3
100
AcDbVertex
100
AcDb2dVertex
 10
416.4071289999999
 20
208.4999939999999
 30
0.0
  0
VERTEX
  5
309
330
2D1
100
AcDbEntity
  8
Ｓ_１_１
  6
CONTINUOUS
 62
     3
100
AcDbVertex
100
AcDb2dVertex
 10
416.42235
 20
207.9770599999999
 30
0.0
  0
VERTEX
  5
30A
330
2D1
100
AcDbEntity
  8
Ｓ_１_１
  6
CONTINUOUS
 62
     3
100
AcDbVertex
100
AcDb2dVertex
 10
416.467898
 20
207.4581049999999
 30
0.0
  0
VERTEX
  5
30B
330
2D1
100
AcDbEntity
  8
Ｓ_１_１
  6
CONTINUOUS
 62
     3
100
AcDbVertex
100
AcDb2dVertex
 10
416.543425
 20
206.94708
 30
0.0
  0
VERTEX
  5
30C
330
2D1
100
AcDbEntity
  8
Ｓ_１_１
  6
CONTINUOUS
 62
     3
100
AcDbVertex
100
AcDb2dVertex
 10
416.648357
 20
206.447873
 30
0.0
  0
VERTEX
  5
30D
330
2D1
100
AcDbEntity
  8
Ｓ_１_１
  6
CONTINUOUS
 62
     3
100
AcDbVertex
100
AcDb2dVertex
 10
416.781896
 20
205.9642849999999
 30
0.0
  0
VERTEX
  5
30E
330
2D1
100
AcDbEntity
  8
Ｓ_１_１
  6
CONTINUOUS
 62
     3
100
AcDbVertex
100
AcDb2dVertex
 10
416.9430239999999
 20
205.4999939999999
 30
0.0
  0
VERTEX
  5
30F
330
2D1
100
AcDbEntity
  8
Ｓ_１_１
  6
CONTINUOUS
 62
     3
100
AcDbVertex
100
AcDb2dVertex
 10
417.1305169999999
 20
205.0585359999999
 30
0.0
  0
VERTEX
  5
310
330
2D1
100
AcDbEntity
  8
Ｓ_１_１
  6
CONTINUOUS
 62
     3
100
AcDbVertex
100
AcDb2dVertex
 10
417.342946
 20
204.6432689999999
 30
0.0
  0
VERTEX
  5
311
330
2D1
100
AcDbEntity
  8
Ｓ_１_１
  6
CONTINUOUS
 62
     3
100
AcDbVertex
100
AcDb2dVertex
 10
417.578695
 20
204.257354
 30
0.0
  0
VERTEX
  5
312
330
2D1
100
AcDbEntity
  8
Ｓ_１_１
  6
CONTINUOUS
 62
     3
100
AcDbVertex
100
AcDb2dVertex
 10
417.83597
 20
203.9037279999999
 30
0.0
  0
VERTEX
  5
313
330
2D1
100
AcDbEntity
  8
Ｓ_１_１
  6
CONTINUOUS
 62
     3
100
AcDbVertex
100
AcDb2dVertex
 10
418.112813
 20
203.5850819999999
 30
0.0
  0
VERTEX
  5
314
330
2D1
100
AcDbEntity
  8
Ｓ_１_１
  6
CONTINUOUS
 62
     3
100
AcDbVertex
100
AcDb2dVertex
 10
418.407118
 20
203.303842
 30
0.0
  0
VERTEX
  5
315
330
2D1
100
AcDbEntity
  8
Ｓ_１_１
  6
CONTINUOUS
 62
     3
100
AcDbVertex
100
AcDb2dVertex
 10
418.716643
 20
203.0621479999999
 30
0.0
  0
VERTEX
  5
316
330
2D1
100
AcDbEntity
  8
Ｓ_１_１
  6
CONTINUOUS
 62
     3
100
AcDbVertex
100
AcDb2dVertex
 10
419.0390329999999
 20
202.861839
 30
0.0
  0
VERTEX
  5
317
330
2D1
100
AcDbEntity
  8
Ｓ_１_１
  6
CONTINUOUS
 62
     3
100
AcDbVertex
100
AcDb2dVertex
 10
419.371836
 20
202.7044399999999
 30
0.0
  0
VERTEX
  5
318
330
2D1
100
AcDbEntity
  8
Ｓ_１_１
  6
CONTINUOUS
 62
     3
100
AcDbVertex
100
AcDb2dVertex
 10
419.712517
 20
202.5911479999999
 30
0.0
  0
VERTEX
  5
319
330
2D1
100
AcDbEntity
  8
Ｓ_１_１
  6
CONTINUOUS
 62
     3
100
AcDbVertex
100
AcDb2dVertex
 10
420.058485
 20
202.5228269999999
 30
0.0
  0
VERTEX
  5
31A
330
2D1
100
AcDbEntity
  8
Ｓ_１_１
  6
CONTINUOUS
 62
     3
100
AcDbVertex
100
AcDb2dVertex
 10
420.4071060000001
 20
202.4999949999999
 30
0.0
  0
SEQEND
  5
31B
330
2D1
100
AcDbEntity
  8
Ｓ_１_１
  6
CONTINUOUS
 62
     3
  0
POLYLINE
  5
31C
330
1F
100
AcDbEntity
  8
Ｓ_１_１
  6
CONTINUOUS
 62
     3
100
AcDb2dPolyline
 66
     1
 10
0.0
 20
0.0
 30
0.0
 70
   128
  0
VERTEX
  5
31D
330
31C
100
AcDbEntity
  8
Ｓ_１_１
  6
CONTINUOUS
 62
     3
100
AcDbVertex
100
AcDb2dVertex
 10
619.5928939999999
 20
202.4999949999999
 30
0.0
  0
VERTEX
  5
31E
330
31C
100
AcDbEntity
  8
Ｓ_１_１
  6
CONTINUOUS
 62
     3
100
AcDbVertex
100
AcDb2dVertex
 10
619.9415179999999
 20
202.5228269999999
 30
0.0
  0
VERTEX
  5
31F
330
31C
100
AcDbEntity
  8
Ｓ_１_１
  6
CONTINUOUS
 62
     3
100
AcDbVertex
100
AcDb2dVertex
 10
620.287489
 20
202.5911479999999
 30
0.0
  0
VERTEX
  5
320
330
31C
100
AcDbEntity
  8
Ｓ_１_１
  6
CONTINUOUS
 62
     3
100
AcDbVertex
100
AcDb2dVertex
 10
620.628174
 20
202.7044399999999
 30
0.0
  0
VERTEX
  5
321
330
31C
100
AcDbEntity
  8
Ｓ_１_１
  6
CONTINUOUS
 62
     3
100
AcDbVertex
100
AcDb2dVertex
 10
620.9609800000001
 20
202.861839
 30
0.0
  0
VERTEX
  5
322
330
31C
100
AcDbEntity
  8
Ｓ_１_１
  6
CONTINUOUS
 62
     3
100
AcDbVertex
100
AcDb2dVertex
 10
621.2833739999999
 20
203.0621479999999
 30
0.0
  0
VERTEX
  5
323
330
31C
100
AcDbEntity
  8
Ｓ_１_１
  6
CONTINUOUS
 62
     3
100
AcDbVertex
100
AcDb2dVertex
 10
621.5929019999999
 20
203.303842
 30
0.0
  0
VERTEX
  5
324
330
31C
100
AcDbEntity
  8
Ｓ_１_１
  6
CONTINUOUS
 62
     3
100
AcDbVertex
100
AcDb2dVertex
 10
621.887209
 20
203.5850819999999
 30
0.0
  0
VERTEX
  5
325
330
31C
100
AcDbEntity
  8
Ｓ_１_１
  6
CONTINUOUS
 62
     3
100
AcDbVertex
100
AcDb2dVertex
 10
622.1640540000001
 20
203.9037279999999
 30
0.0
  0
VERTEX
  5
326
330
31C
100
AcDbEntity
  8
Ｓ_１_１
  6
CONTINUOUS
 62
     3
100
AcDbVertex
100
AcDb2dVertex
 10
622.4213319999999
 20
204.257354
 30
0.0
  0
VERTEX
  5
327
330
31C
100
AcDbEntity
  8
Ｓ_１_１
  6
CONTINUOUS
 62
     3
100
AcDbVertex
100
AcDb2dVertex
 10
622.6570839999999
 20
204.6432689999999
 30
0.0
  0
VERTEX
  5
328
330
31C
100
AcDbEntity
  8
Ｓ_１_１
  6
CONTINUOUS
 62
     3
100
AcDbVertex
100
AcDb2dVertex
 10
622.8695149999999
 20
205.0585359999999
 30
0.0
  0
VERTEX
  5
329
330
31C
100
AcDbEntity
  8
Ｓ_１_１
  6
CONTINUOUS
 62
     3
100
AcDbVertex
100
AcDb2dVertex
 10
623.0570089999999
 20
205.4999939999999
 30
0.0
  0
VERTEX
  5
32A
330
31C
100
AcDbEntity
  8
Ｓ_１_１
  6
CONTINUOUS
 62
     3
100
AcDbVertex
100
AcDb2dVertex
 10
623.2181390000001
 20
205.9642849999999
 30
0.0
  0
VERTEX
  5
32B
330
31C
100
AcDbEntity
  8
Ｓ_１_１
  6
CONTINUOUS
 62
     3
100
AcDbVertex
100
AcDb2dVertex
 10
623.3516789999999
 20
206.447873
 30
0.0
  0
VERTEX
  5
32C
330
31C
100
AcDbEntity
  8
Ｓ_１_１
  6
CONTINUOUS
 62
     3
100
AcDbVertex
100
AcDb2dVertex
 10
623.456612
 20
206.94708
 30
0.0
  0
VERTEX
  5
32D
330
31C
100
AcDbEntity
  8
Ｓ_１_１
  6
CONTINUOUS
 62
     3
100
AcDbVertex
100
AcDb2dVertex
 10
623.53214
 20
207.4581049999999
 30
0.0
  0
VERTEX
  5
32E
330
31C
100
AcDbEntity
  8
Ｓ_１_１
  6
CONTINUOUS
 62
     3
100
AcDbVertex
100
AcDb2dVertex
 10
623.5776880000001
 20
207.9770599999999
 30
0.0
  0
VERTEX
  5
32F
330
31C
100
AcDbEntity
  8
Ｓ_１_１
  6
CONTINUOUS
 62
     3
100
AcDbVertex
100
AcDb2dVertex
 10
623.592909
 20
208.4999939999999
 30
0.0
  0
VERTEX
  5
330
330
31C
100
AcDbEntity
  8
Ｓ_１_１
  6
CONTINUOUS
 62
     3
100
AcDbVertex
100
AcDb2dVertex
 10
623.5776880000001
 20
209.0229279999999
 30
0.0
  0
VERTEX
  5
331
330
31C
100
AcDbEntity
  8
Ｓ_１_１
  6
CONTINUOUS
 62
     3
100
AcDbVertex
100
AcDb2dVertex
 10
623.53214
 20
209.5418829999999
 30
0.0
  0
VERTEX
  5
332
330
31C
100
AcDbEntity
  8
Ｓ_１_１
  6
CONTINUOUS
 62
     3
100
AcDbVertex
100
AcDb2dVertex
 10
623.456612
 20
210.0529079999999
 30
0.0
  0
VERTEX
  5
333
330
31C
100
AcDbEntity
  8
Ｓ_１_１
  6
CONTINUOUS
 62
     3
100
AcDbVertex
100
AcDb2dVertex
 10
623.3516789999999
 20
210.552114
 30
0.0
  0
VERTEX
  5
334
330
31C
100
AcDbEntity
  8
Ｓ_１_１
  6
CONTINUOUS
 62
     3
100
AcDbVertex
100
AcDb2dVertex
 10
623.2181390000001
 20
211.0357029999999
 30
0.0
  0
VERTEX
  5
335
330
31C
100
AcDbEntity
  8
Ｓ_１_１
  6
CONTINUOUS
 62
     3
100
AcDbVertex
100
AcDb2dVertex
 10
623.0570089999999
 20
211.4999929999999
 30
0.0
  0
VERTEX
  5
336
330
31C
100
AcDbEntity
  8
Ｓ_１_１
  6
CONTINUOUS
 62
     3
100
AcDbVertex
100
AcDb2dVertex
 10
622.8695149999999
 20
211.9414519999999
 30
0.0
  0
VERTEX
  5
337
330
31C
100
AcDbEntity
  8
Ｓ_１_１
  6
CONTINUOUS
 62
     3
100
AcDbVertex
100
AcDb2dVertex
 10
622.6570839999999
 20
212.3567189999999
 30
0.0
  0
VERTEX
  5
338
330
31C
100
AcDbEntity
  8
Ｓ_１_１
  6
CONTINUOUS
 62
     3
100
AcDbVertex
100
AcDb2dVertex
 10
622.4213319999999
 20
212.742634
 30
0.0
  0
VERTEX
  5
339
330
31C
100
AcDbEntity
  8
Ｓ_１_１
  6
CONTINUOUS
 62
     3
100
AcDbVertex
100
AcDb2dVertex
 10
622.1640540000001
 20
213.09626
 30
0.0
  0
VERTEX
  5
33A
330
31C
100
AcDbEntity
  8
Ｓ_１_１
  6
CONTINUOUS
 62
     3
100
AcDbVertex
100
AcDb2dVertex
 10
621.887209
 20
213.4149049999999
 30
0.0
  0
VERTEX
  5
33B
330
31C
100
AcDbEntity
  8
Ｓ_１_１
  6
CONTINUOUS
 62
     3
100
AcDbVertex
100
AcDb2dVertex
 10
621.5929019999999
 20
213.6961449999999
 30
0.0
  0
VERTEX
  5
33C
330
31C
100
AcDbEntity
  8
Ｓ_１_１
  6
CONTINUOUS
 62
     3
100
AcDbVertex
100
AcDb2dVertex
 10
621.2833739999999
 20
213.9378399999999
 30
0.0
  0
VERTEX
  5
33D
330
31C
100
AcDbEntity
  8
Ｓ_１_１
  6
CONTINUOUS
 62
     3
100
AcDbVertex
100
AcDb2dVertex
 10
620.9609800000001
 20
214.1381489999999
 30
0.0
  0
VERTEX
  5
33E
330
31C
100
AcDbEntity
  8
Ｓ_１_１
  6
CONTINUOUS
 62
     3
100
AcDbVertex
100
AcDb2dVertex
 10
620.628174
 20
214.2955479999999
 30
0.0
  0
VERTEX
  5
33F
330
31C
100
AcDbEntity
  8
Ｓ_１_１
  6
CONTINUOUS
 62
     3
100
AcDbVertex
100
AcDb2dVertex
 10
620.287489
 20
214.4088389999999
 30
0.0
  0
VERTEX
  5
340
330
31C
100
AcDbEntity
  8
Ｓ_１_１
  6
CONTINUOUS
 62
     3
100
AcDbVertex
100
AcDb2dVertex
 10
619.9415179999999
 20
214.4771609999999
 30
0.0
  0
VERTEX
  5
341
330
31C
100
AcDbEntity
  8
Ｓ_１_１
  6
CONTINUOUS
 62
     3
100
AcDbVertex
100
AcDb2dVertex
 10
619.5928939999999
 20
214.4999929999999
 30
0.0
  0
VERTEX
  5
342
330
31C
100
AcDbEntity
  8
Ｓ_１_１
  6
CONTINUOUS
 62
     3
100
AcDbVertex
100
AcDb2dVertex
 10
619.2442699999999
 20
214.4771609999999
 30
0.0
  0
VERTEX
  5
343
330
31C
100
AcDbEntity
  8
Ｓ_１_１
  6
CONTINUOUS
 62
     3
100
AcDbVertex
100
AcDb2dVertex
 10
618.898299
 20
214.4088389999999
 30
0.0
  0
VERTEX
  5
344
330
31C
100
AcDbEntity
  8
Ｓ_１_１
  6
CONTINUOUS
 62
     3
100
AcDbVertex
100
AcDb2dVertex
 10
618.5576140000001
 20
214.2955479999999
 30
0.0
  0
VERTEX
  5
345
330
31C
100
AcDbEntity
  8
Ｓ_１_１
  6
CONTINUOUS
 62
     3
100
AcDbVertex
100
AcDb2dVertex
 10
618.2248079999999
 20
214.1381489999999
 30
0.0
  0
VERTEX
  5
346
330
31C
100
AcDbEntity
  8
Ｓ_１_１
  6
CONTINUOUS
 62
     3
100
AcDbVertex
100
AcDb2dVertex
 10
617.902415
 20
213.9378399999999
 30
0.0
  0
VERTEX
  5
347
330
31C
100
AcDbEntity
  8
Ｓ_１_１
  6
CONTINUOUS
 62
     3
100
AcDbVertex
100
AcDb2dVertex
 10
617.592887
 20
213.6961449999999
 30
0.0
  0
VERTEX
  5
348
330
31C
100
AcDbEntity
  8
Ｓ_１_１
  6
CONTINUOUS
 62
     3
100
AcDbVertex
100
AcDb2dVertex
 10
617.2985799999999
 20
213.4149049999999
 30
0.0
  0
VERTEX
  5
349
330
31C
100
AcDbEntity
  8
Ｓ_１_１
  6
CONTINUOUS
 62
     3
100
AcDbVertex
100
AcDb2dVertex
 10
617.0217339999999
 20
213.09626
 30
0.0
  0
VERTEX
  5
34A
330
31C
100
AcDbEntity
  8
Ｓ_１_１
  6
CONTINUOUS
 62
     3
100
AcDbVertex
100
AcDb2dVertex
 10
616.7644559999999
 20
212.742634
 30
0.0
  0
VERTEX
  5
34B
330
31C
100
AcDbEntity
  8
Ｓ_１_１
  6
CONTINUOUS
 62
     3
100
AcDbVertex
100
AcDb2dVertex
 10
616.528705
 20
212.3567189999999
 30
0.0
  0
VERTEX
  5
34C
330
31C
100
AcDbEntity
  8
Ｓ_１_１
  6
CONTINUOUS
 62
     3
100
AcDbVertex
100
AcDb2dVertex
 10
616.3162729999999
 20
211.9414519999999
 30
0.0
  0
VERTEX
  5
34D
330
31C
100
AcDbEntity
  8
Ｓ_１_１
  6
CONTINUOUS
 62
     3
100
AcDbVertex
100
AcDb2dVertex
 10
616.1287789999999
 20
211.4999929999999
 30
0.0
  0
VERTEX
  5
34E
330
31C
100
AcDbEntity
  8
Ｓ_１_１
  6
CONTINUOUS
 62
     3
100
AcDbVertex
100
AcDb2dVertex
 10
615.9676489999999
 20
211.0357029999999
 30
0.0
  0
VERTEX
  5
34F
330
31C
100
AcDbEntity
  8
Ｓ_１_１
  6
CONTINUOUS
 62
     3
100
AcDbVertex
100
AcDb2dVertex
 10
615.8341089999999
 20
210.552114
 30
0.0
  0
VERTEX
  5
350
330
31C
100
AcDbEntity
  8
Ｓ_１_１
  6
CONTINUOUS
 62
     3
100
AcDbVertex
100
AcDb2dVertex
 10
615.729176
 20
210.0529079999999
 30
0.0
  0
VERTEX
  5
351
330
31C
100
AcDbEntity
  8
Ｓ_１_１
  6
CONTINUOUS
 62
     3
100
AcDbVertex
100
AcDb2dVertex
 10
615.653648
 20
209.5418829999999
 30
0.0
  0
VERTEX
  5
352
330
31C
100
AcDbEntity
  8
Ｓ_１_１
  6
CONTINUOUS
 62
     3
100
AcDbVertex
100
AcDb2dVertex
 10
615.6080999999999
 20
209.0229279999999
 30
0.0
  0
VERTEX
  5
353
330
31C
100
AcDbEntity
  8
Ｓ_１_１
  6
CONTINUOUS
 62
     3
100
AcDbVertex
100
AcDb2dVertex
 10
615.592879
 20
208.4999939999999
 30
0.0
  0
VERTEX
  5
354
330
31C
100
AcDbEntity
  8
Ｓ_１_１
  6
CONTINUOUS
 62
     3
100
AcDbVertex
100
AcDb2dVertex
 10
615.6080999999999
 20
207.9770599999999
 30
0.0
  0
VERTEX
  5
355
330
31C
100
AcDbEntity
  8
Ｓ_１_１
  6
CONTINUOUS
 62
     3
100
AcDbVertex
100
AcDb2dVertex
 10
615.653648
 20
207.4581049999999
 30
0.0
  0
VERTEX
  5
356
330
31C
100
AcDbEntity
  8
Ｓ_１_１
  6
CONTINUOUS
 62
     3
100
AcDbVertex
100
AcDb2dVertex
 10
615.729176
 20
206.94708
 30
0.0
  0
VERTEX
  5
357
330
31C
100
AcDbEntity
  8
Ｓ_１_１
  6
CONTINUOUS
 62
     3
100
AcDbVertex
100
AcDb2dVertex
 10
615.8341089999999
 20
206.447873
 30
0.0
  0
VERTEX
  5
358
330
31C
100
AcDbEntity
  8
Ｓ_１_１
  6
CONTINUOUS
 62
     3
100
AcDbVertex
100
AcDb2dVertex
 10
615.9676489999999
 20
205.9642849999999
 30
0.0
  0
VERTEX
  5
359
330
31C
100
AcDbEntity
  8
Ｓ_１_１
  6
CONTINUOUS
 62
     3
100
AcDbVertex
100
AcDb2dVertex
 10
616.1287789999999
 20
205.4999939999999
 30
0.0
  0
VERTEX
  5
35A
330
31C
100
AcDbEntity
  8
Ｓ_１_１
  6
CONTINUOUS
 62
     3
100
AcDbVertex
100
AcDb2dVertex
 10
616.3162729999999
 20
205.0585359999999
 30
0.0
  0
VERTEX
  5
35B
330
31C
100
AcDbEntity
  8
Ｓ_１_１
  6
CONTINUOUS
 62
     3
100
AcDbVertex
100
AcDb2dVertex
 10
616.528705
 20
204.6432689999999
 30
0.0
  0
VERTEX
  5
35C
330
31C
100
AcDbEntity
  8
Ｓ_１_１
  6
CONTINUOUS
 62
     3
100
AcDbVertex
100
AcDb2dVertex
 10
616.7644559999999
 20
204.257354
 30
0.0
  0
VERTEX
  5
35D
330
31C
100
AcDbEntity
  8
Ｓ_１_１
  6
CONTINUOUS
 62
     3
100
AcDbVertex
100
AcDb2dVertex
 10
617.0217339999999
 20
203.9037279999999
 30
0.0
  0
VERTEX
  5
35E
330
31C
100
AcDbEntity
  8
Ｓ_１_１
  6
CONTINUOUS
 62
     3
100
AcDbVertex
100
AcDb2dVertex
 10
617.2985799999999
 20
203.5850819999999
 30
0.0
  0
VERTEX
  5
35F
330
31C
100
AcDbEntity
  8
Ｓ_１_１
  6
CONTINUOUS
 62
     3
100
AcDbVertex
100
AcDb2dVertex
 10
617.592887
 20
203.303842
 30
0.0
  0
VERTEX
  5
360
330
31C
100
AcDbEntity
  8
Ｓ_１_１
  6
CONTINUOUS
 62
     3
100
AcDbVertex
100
AcDb2dVertex
 10
617.902415
 20
203.0621479999999
 30
0.0
  0
VERTEX
  5
361
330
31C
100
AcDbEntity
  8
Ｓ_１_１
  6
CONTINUOUS
 62
     3
100
AcDbVertex
100
AcDb2dVertex
 10
618.2248079999999
 20
202.861839
 30
0.0
  0
VERTEX
  5
362
330
31C
100
AcDbEntity
  8
Ｓ_１_１
  6
CONTINUOUS
 62
     3
100
AcDbVertex
100
AcDb2dVertex
 10
618.5576140000001
 20
202.7044399999999
 30
0.0
  0
VERTEX
  5
363
330
31C
100
AcDbEntity
  8
Ｓ_１_１
  6
CONTINUOUS
 62
     3
100
AcDbVertex
100
AcDb2dVertex
 10
618.898299
 20
202.5911479999999
 30
0.0
  0
VERTEX
  5
364
330
31C
100
AcDbEntity
  8
Ｓ_１_１
  6
CONTINUOUS
 62
     3
100
AcDbVertex
100
AcDb2dVertex
 10
619.2442699999999
 20
202.5228269999999
 30
0.0
  0
VERTEX
  5
365
330
31C
100
AcDbEntity
  8
Ｓ_１_１
  6
CONTINUOUS
 62
     3
100
AcDbVertex
100
AcDb2dVertex
 10
619.5928939999999
 20
202.4999949999999
 30
0.0
  0
SEQEND
  5
366
330
31C
100
AcDbEntity
  8
Ｓ_１_１
  6
CONTINUOUS
 62
     3
  0
CIRCLE
  5
367
330
1F
100
AcDbEntity
  8
Ｓ_１_１
  6
CONTINUOUS
 62
     3
100
AcDbCircle
 10
520.0
 20
208.4999989999999
 30
0.0
 40
4.5
  0
CIRCLE
  5
368
330
1F
100
AcDbEntity
  8
Ｓ_１_１
  6
CONTINUOUS
 62
     3
100
AcDbCircle
 10
520.0
 20
208.4999989999999
 30
0.0
 40
6.000000000000004
  0
LINE
  5
369
330
1F
100
AcDbEntity
  8
Ｓ_１_１
  6
EXLTYPE2
 62
     1
100
AcDbLine
 10
323.899997
 20
179.9999999999999
 30
0.0
 11
435.899965
 21
179.9999999999999
 31
0.0
  0
ARC
  5
36A
330
1F
100
AcDbEntity
  8
Ｓ_１_１
  6
CONTINUOUS
 62
     3
100
AcDbCircle
 10
406.57715
 20
179.9999999999999
 30
0.0
 40
21.939437
100
AcDbArc
 50
166.826524
 51
193.173486
  0
ARC
  5
36B
330
1F
100
AcDbEntity
  8
Ｓ_１_１
  6
CONTINUOUS
 62
     3
100
AcDbCircle
 10
375.19829
 20
179.9999999999999
 30
0.0
 40
21.939437
100
AcDbArc
 50
346.8264750000002
 51
13.17346500000001
  0
ARC
  5
36C
330
1F
100
AcDbEntity
  8
Ｓ_１_１
  6
CONTINUOUS
 62
     3
100
AcDbCircle
 10
408.270494
 20
170.90672
 30
0.0
 40
5.367246000000002
100
AcDbArc
 50
325.6158610000001
 51
34.38414599999999
  0
ARC
  5
36D
330
1F
100
AcDbEntity
  8
Ｓ_１_１
  6
CONTINUOUS
 62
     3
100
AcDbCircle
 10
393.575518
 20
180.0000099999999
 30
0.0
 40
20.062196
100
AcDbArc
 50
342.4119950000003
 51
17.58787900000001
  0
ARC
  5
36E
330
1F
100
AcDbEntity
  8
Ｓ_１_１
  6
CONTINUOUS
 62
     3
100
AcDbCircle
 10
410.004961
 20
170.90672
 30
0.0
 40
5.367246000000002
100
AcDbArc
 50
145.615795
 51
214.3840790000001
  0
ARC
  5
36F
330
1F
100
AcDbEntity
  8
Ｓ_１_１
  6
CONTINUOUS
 62
     3
100
AcDbCircle
 10
410.004961
 20
189.0932799999999
 30
0.0
 40
5.367246000000002
100
AcDbArc
 50
145.615877
 51
214.3841610000001
  0
ARC
  5
370
330
1F
100
AcDbEntity
  8
Ｓ_１_１
  6
CONTINUOUS
 62
     3
100
AcDbCircle
 10
424.699937
 20
180.0000099999999
 30
0.0
 40
20.062196
100
AcDbArc
 50
162.412063
 51
197.587947
  0
ARC
  5
371
330
1F
100
AcDbEntity
  8
Ｓ_１_１
  6
CONTINUOUS
 62
     3
100
AcDbCircle
 10
408.270494
 20
189.0932799999999
 30
0.0
 40
5.367246000000002
100
AcDbArc
 50
325.615779
 51
34.38406400000002
  0
LINE
  5
372
330
1F
100
AcDbEntity
  8
Ｓ_１_１
  6
CONTINUOUS
 62
     3
100
AcDbLine
 10
397.137758
 20
167.999988
 30
0.0
 11
397.137758
 21
191.9999979999999
 31
0.0
  0
LINE
  5
373
330
1F
100
AcDbEntity
  8
Ｓ_１_１
  6
CONTINUOUS
 62
     3
100
AcDbLine
 10
396.5603659999999
 20
184.9999999999999
 30
0.0
 11
396.5603659999999
 21
193.0000019999999
 31
0.0
  0
LINE
  5
374
330
1F
100
AcDbEntity
  8
Ｓ_１_１
  6
CONTINUOUS
 62
     3
100
AcDbLine
 10
385.215075
 20
184.9999999999999
 30
0.0
 11
385.215075
 21
193.0000019999999
 31
0.0
  0
LINE
  5
375
330
1F
100
AcDbEntity
  8
Ｓ_１_１
  6
CONTINUOUS
 62
     3
100
AcDbLine
 10
396.5603659999999
 20
166.9999979999999
 30
0.0
 11
396.5603659999999
 21
174.9999999999999
 31
0.0
  0
LINE
  5
376
330
1F
100
AcDbEntity
  8
Ｓ_１_１
  6
CONTINUOUS
 62
     3
100
AcDbLine
 10
385.215075
 20
166.9999979999999
 30
0.0
 11
385.215075
 21
174.9999999999999
 31
0.0
  0
LINE
  5
377
330
1F
100
AcDbEntity
  8
Ｓ_１_１
  6
CONTINUOUS
 62
     3
100
AcDbLine
 10
369.060366
 20
166.9999979999999
 30
0.0
 11
369.060366
 21
193.0000019999999
 31
0.0
  0
LINE
  5
378
330
1F
100
AcDbEntity
  8
Ｓ_１_１
  6
CONTINUOUS
 62
     3
100
AcDbLine
 10
369.060367
 20
167.0000219999999
 30
0.0
 11
369.637712
 21
168.0000129999999
 31
0.0
  0
LINE
  5
379
330
1F
100
AcDbEntity
  8
Ｓ_１_１
  6
CONTINUOUS
 62
     3
100
AcDbLine
 10
384.6377689999999
 20
191.9999759999999
 30
0.0
 11
385.2151229999999
 21
192.9999829999999
 31
0.0
  0
LINE
  5
37A
330
1F
100
AcDbEntity
  8
Ｓ_１_１
  6
CONTINUOUS
 62
     3
100
AcDbLine
 10
396.560391
 20
167.0000069999999
 30
0.0
 11
397.1377359999999
 21
167.9999979999999
 31
0.0
  0
LINE
  5
37B
330
1F
100
AcDbEntity
  8
Ｓ_１_１
  6
CONTINUOUS
 62
     3
100
AcDbLine
 10
369.637737
 20
191.9999689999999
 30
0.0
 11
369.0603829999999
 21
192.9999759999999
 31
0.0
  0
LINE
  5
37C
330
1F
100
AcDbEntity
  8
Ｓ_１_１
  6
CONTINUOUS
 62
     3
100
AcDbLine
 10
385.215096
 20
167.0000129999999
 30
0.0
 11
384.637761
 21
167.999987
 31
0.0
  0
LINE
  5
37D
330
1F
100
AcDbEntity
  8
Ｓ_１_１
  6
CONTINUOUS
 62
     3
100
AcDbLine
 10
397.137761
 20
191.9999839999999
 30
0.0
 11
396.560407
 21
192.999991
 31
0.0
  0
LINE
  5
37E
330
1F
100
AcDbEntity
  8
Ｓ_１_１
  6
CONTINUOUS
 62
     3
100
AcDbLine
 10
385.215075
 20
184.9999999999999
 30
0.0
 11
396.5603659999999
 21
184.9999999999999
 31
0.0
  0
LINE
  5
37F
330
1F
100
AcDbEntity
  8
Ｓ_１_１
  6
CONTINUOUS
 62
     3
100
AcDbLine
 10
385.215075
 20
174.9999999999999
 30
0.0
 11
396.5603659999999
 21
174.9999999999999
 31
0.0
  0
LINE
  5
380
330
1F
100
AcDbEntity
  8
Ｓ_１_１
  6
CONTINUOUS
 62
     3
100
AcDbLine
 10
361.456002
 20
181.749995
 30
0.0
 11
361.637735
 21
181.8549189999999
 31
0.0
  0
LINE
  5
381
330
1F
100
AcDbEntity
  8
Ｓ_１_１
  6
CONTINUOUS
 62
     3
100
AcDbLine
 10
361.637728
 20
181.7500019999999
 30
0.0
 11
361.637728
 21
195.9999989999999
 31
0.0
  0
LINE
  5
382
330
1F
100
AcDbEntity
  8
Ｓ_１_１
  6
CONTINUOUS
 62
     3
100
AcDbLine
 10
362.137759
 20
181.7500019999999
 30
0.0
 11
362.137759
 21
195.5000019999999
 31
0.0
  0
LINE
  5
383
330
1F
100
AcDbEntity
  8
Ｓ_１_１
  6
CONTINUOUS
 62
     3
100
AcDbLine
 10
358.6376980000001
 20
178.2499979999999
 30
0.0
 11
358.6376980000001
 21
181.7500019999999
 31
0.0
  0
LINE
  5
384
330
1F
100
AcDbEntity
  8
Ｓ_１_１
  6
CONTINUOUS
 62
     3
100
AcDbLine
 10
358.6376980000001
 20
178.2499979999999
 30
0.0
 11
362.137759
 21
178.2499979999999
 31
0.0
  0
LINE
  5
385
330
1F
100
AcDbEntity
  8
Ｓ_１_１
  6
CONTINUOUS
 62
     3
100
AcDbLine
 10
358.6376980000001
 20
181.7500019999999
 30
0.0
 11
362.137759
 21
181.7500019999999
 31
0.0
  0
LINE
  5
386
330
1F
100
AcDbEntity
  8
Ｓ_１_１
  6
CONTINUOUS
 62
     3
100
AcDbLine
 10
364.637746
 20
164.499994
 30
0.0
 11
365.137763
 21
165.0000109999999
 31
0.0
  0
LINE
  5
387
330
1F
100
AcDbEntity
  8
Ｓ_１_１
  6
CONTINUOUS
 62
     3
100
AcDbLine
 10
363.637767
 20
164.499994
 30
0.0
 11
363.13775
 21
165.0000109999999
 31
0.0
  0
LINE
  5
388
330
1F
100
AcDbEntity
  8
Ｓ_１_１
  6
CONTINUOUS
 62
     3
100
AcDbLine
 10
365.137736
 20
195.000016
 30
0.0
 11
364.637746
 21
195.5000049999999
 31
0.0
  0
LINE
  5
389
330
1F
100
AcDbEntity
  8
Ｓ_１_１
  6
CONTINUOUS
 62
     3
100
AcDbLine
 10
363.13775
 20
194.9999889999999
 30
0.0
 11
363.637767
 21
195.5000049999999
 31
0.0
  0
LINE
  5
38A
330
1F
100
AcDbEntity
  8
Ｓ_１_１
  6
CONTINUOUS
 62
     3
100
AcDbLine
 10
365.137713
 20
193.0000019999999
 30
0.0
 11
365.137713
 21
194.9999999999999
 31
0.0
  0
LINE
  5
38B
330
1F
100
AcDbEntity
  8
Ｓ_１_１
  6
CONTINUOUS
 62
     3
100
AcDbLine
 10
363.1377430000001
 20
193.0000019999999
 30
0.0
 11
363.1377430000001
 21
194.9999999999999
 31
0.0
  0
LINE
  5
38C
330
1F
100
AcDbEntity
  8
Ｓ_１_１
  6
CONTINUOUS
 62
     3
100
AcDbLine
 10
363.1377430000001
 20
164.9999999999999
 30
0.0
 11
363.1377430000001
 21
166.9999979999999
 31
0.0
  0
LINE
  5
38D
330
1F
100
AcDbEntity
  8
Ｓ_１_１
  6
CONTINUOUS
 62
     3
100
AcDbLine
 10
365.137713
 20
164.9999999999999
 30
0.0
 11
365.137713
 21
166.9999979999999
 31
0.0
  0
LINE
  5
38E
330
1F
100
AcDbEntity
  8
Ｓ_１_１
  6
CONTINUOUS
 62
     3
100
AcDbLine
 10
363.6376980000001
 20
164.4999979999999
 30
0.0
 11
364.637759
 21
164.4999979999999
 31
0.0
  0
LINE
  5
38F
330
1F
100
AcDbEntity
  8
Ｓ_１_１
  6
CONTINUOUS
 62
     3
100
AcDbLine
 10
363.6376980000001
 20
195.5000019999999
 30
0.0
 11
364.637759
 21
195.5000019999999
 31
0.0
  0
LINE
  5
390
330
1F
100
AcDbEntity
  8
Ｓ_１_１
  6
CONTINUOUS
 62
     3
100
AcDbLine
 10
361.637712
 20
178.1450839999999
 30
0.0
 11
361.456013
 21
178.249988
 31
0.0
  0
LINE
  5
391
330
1F
100
AcDbEntity
  8
Ｓ_１_１
  6
CONTINUOUS
 62
     3
100
AcDbLine
 10
338.1377440000001
 20
164.0000009999999
 30
0.0
 11
338.1377440000001
 21
195.9999989999999
 31
0.0
  0
LINE
  5
392
330
1F
100
AcDbEntity
  8
Ｓ_１_１
  6
CONTINUOUS
 62
     3
100
AcDbLine
 10
345.6377440000001
 20
164.0000009999999
 30
0.0
 11
345.6377440000001
 21
195.9999989999999
 31
0.0
  0
LINE
  5
393
330
1F
100
AcDbEntity
  8
Ｓ_１_１
  6
CONTINUOUS
 62
     3
100
AcDbLine
 10
361.637728
 20
164.0000009999999
 30
0.0
 11
361.637728
 21
178.2499979999999
 31
0.0
  0
LINE
  5
394
330
1F
100
AcDbEntity
  8
Ｓ_１_１
  6
CONTINUOUS
 62
     3
100
AcDbLine
 10
354.637759
 20
195.9999989999999
 30
0.0
 11
354.637759
 21
164.0000009999999
 31
0.0
  0
LINE
  5
395
330
1F
100
AcDbEntity
  8
Ｓ_１_１
  6
CONTINUOUS
 62
     3
100
AcDbLine
 10
362.137689
 20
195.5000119999999
 30
0.0
 11
361.6376990000001
 21
196.0000019999999
 31
0.0
  0
LINE
  5
396
330
1F
100
AcDbEntity
  8
Ｓ_１_１
  6
CONTINUOUS
 62
     3
100
AcDbLine
 10
361.637748
 20
164.0000029999999
 30
0.0
 11
362.137738
 21
164.499993
 31
0.0
  0
LINE
  5
397
330
1F
100
AcDbEntity
  8
Ｓ_１_１
  6
CONTINUOUS
 62
     3
100
AcDbLine
 10
354.637759
 20
195.9999989999999
 30
0.0
 11
361.637728
 21
195.9999989999999
 31
0.0
  0
LINE
  5
398
330
1F
100
AcDbEntity
  8
Ｓ_１_１
  6
CONTINUOUS
 62
     3
100
AcDbLine
 10
354.637759
 20
164.0000009999999
 30
0.0
 11
361.637728
 21
164.0000009999999
 31
0.0
  0
LINE
  5
399
330
1F
100
AcDbEntity
  8
Ｓ_１_１
  6
CONTINUOUS
 62
     3
100
AcDbLine
 10
345.6376980000001
 20
164.0000019999999
 30
0.0
 11
346.137715
 21
164.500019
 31
0.0
  0
LINE
  5
39A
330
1F
100
AcDbEntity
  8
Ｓ_１_１
  6
CONTINUOUS
 62
     3
100
AcDbLine
 10
354.137739
 20
195.5000049999999
 30
0.0
 11
354.637728
 21
195.999994
 31
0.0
  0
LINE
  5
39B
330
1F
100
AcDbEntity
  8
Ｓ_１_１
  6
CONTINUOUS
 62
     3
100
AcDbLine
 10
346.137693
 20
195.5000129999999
 30
0.0
 11
345.637704
 21
196.0000029999999
 31
0.0
  0
LINE
  5
39C
330
1F
100
AcDbEntity
  8
Ｓ_１_１
  6
CONTINUOUS
 62
     3
100
AcDbLine
 10
354.637734
 20
164.0000109999999
 30
0.0
 11
354.137717
 21
164.5000279999999
 31
0.0
  0
LINE
  5
39D
330
1F
100
AcDbEntity
  8
Ｓ_１_１
  6
CONTINUOUS
 62
     3
100
AcDbLine
 10
346.1376980000001
 20
164.4999979999999
 30
0.0
 11
346.1376980000001
 21
195.5000019999999
 31
0.0
  0
LINE
  5
39E
330
1F
100
AcDbEntity
  8
Ｓ_１_１
  6
CONTINUOUS
 62
     3
100
AcDbLine
 10
354.137728
 20
164.4999979999999
 30
0.0
 11
354.137728
 21
195.5000019999999
 31
0.0
  0
LINE
  5
39F
330
1F
100
AcDbEntity
  8
Ｓ_１_１
  6
CONTINUOUS
 62
     3
100
AcDbLine
 10
346.1376980000001
 20
195.5000019999999
 30
0.0
 11
354.137728
 21
195.5000019999999
 31
0.0
  0
LINE
  5
3A0
330
1F
100
AcDbEntity
  8
Ｓ_１_１
  6
CONTINUOUS
 62
     3
100
AcDbLine
 10
346.1376980000001
 20
164.4999979999999
 30
0.0
 11
354.137728
 21
164.4999979999999
 31
0.0
  0
LINE
  5
3A1
330
1F
100
AcDbEntity
  8
Ｓ_１_１
  6
CONTINUOUS
 62
     3
100
AcDbLine
 10
335.137732
 20
193.0000299999999
 30
0.0
 11
338.137724
 21
196.0000219999999
 31
0.0
  0
LINE
  5
3A2
330
1F
100
AcDbEntity
  8
Ｓ_１_１
  6
CONTINUOUS
 62
     3
100
AcDbLine
 10
335.137705
 20
166.999997
 30
0.0
 11
338.1376969999999
 21
164.0000049999999
 31
0.0
  0
LINE
  5
3A3
330
1F
100
AcDbEntity
  8
Ｓ_１_１
  6
CONTINUOUS
 62
     3
100
AcDbLine
 10
369.637759
 20
168.0000019999999
 30
0.0
 11
384.637758
 21
168.0000019999999
 31
0.0
  0
LINE
  5
3A4
330
1F
100
AcDbEntity
  8
Ｓ_１_１
  6
CONTINUOUS
 62
     3
100
AcDbLine
 10
369.637759
 20
191.9999979999999
 30
0.0
 11
384.637758
 21
191.9999979999999
 31
0.0
  0
LINE
  5
3A5
330
1F
100
AcDbEntity
  8
Ｓ_１_１
  6
CONTINUOUS
 62
     3
100
AcDbLine
 10
335.137713
 20
166.9999979999999
 30
0.0
 11
335.137713
 21
193.0000019999999
 31
0.0
  0
LINE
  5
3A6
330
1F
100
AcDbEntity
  8
Ｓ_１_１
  6
CONTINUOUS
 62
     3
100
AcDbLine
 10
338.1377440000001
 20
195.9999989999999
 30
0.0
 11
345.6377440000001
 21
195.9999989999999
 31
0.0
  0
LINE
  5
3A7
330
1F
100
AcDbEntity
  8
Ｓ_１_１
  6
CONTINUOUS
 62
     3
100
AcDbLine
 10
338.1377440000001
 20
164.0000009999999
 30
0.0
 11
345.6377440000001
 21
164.0000009999999
 31
0.0
  0
LINE
  5
3A8
330
1F
100
AcDbEntity
  8
Ｓ_１_１
  6
CONTINUOUS
 62
     3
100
AcDbLine
 10
385.215075
 20
193.0000019999999
 30
0.0
 11
396.5603659999999
 21
193.0000019999999
 31
0.0
  0
LINE
  5
3A9
330
1F
100
AcDbEntity
  8
Ｓ_１_１
  6
CONTINUOUS
 62
     3
100
AcDbLine
 10
385.215075
 20
166.9999979999999
 30
0.0
 11
396.5603659999999
 21
166.9999979999999
 31
0.0
  0
LINE
  5
3AA
330
1F
100
AcDbEntity
  8
Ｓ_１_１
  6
CONTINUOUS
 62
     3
100
AcDbLine
 10
334.637759
 20
191.9999979999999
 30
0.0
 11
335.137713
 21
191.9999979999999
 31
0.0
  0
LINE
  5
3AB
330
1F
100
AcDbEntity
  8
Ｓ_１_１
  6
CONTINUOUS
 62
     3
100
AcDbLine
 10
334.637759
 20
168.0000019999999
 30
0.0
 11
335.137713
 21
168.0000019999999
 31
0.0
  0
LINE
  5
3AC
330
1F
100
AcDbEntity
  8
Ｓ_１_１
  6
CONTINUOUS
 62
     3
100
AcDbLine
 10
362.137759
 20
166.9999979999999
 30
0.0
 11
369.060366
 21
166.9999979999999
 31
0.0
  0
LINE
  5
3AD
330
1F
100
AcDbEntity
  8
Ｓ_１_１
  6
CONTINUOUS
 62
     3
100
AcDbLine
 10
362.137759
 20
193.0000019999999
 30
0.0
 11
369.060366
 21
193.0000019999999
 31
0.0
  0
LINE
  5
3AE
330
1F
100
AcDbEntity
  8
Ｓ_１_１
  6
CONTINUOUS
 62
     3
100
AcDbLine
 10
362.137759
 20
164.4999979999999
 30
0.0
 11
362.137759
 21
178.2499979999999
 31
0.0
  0
LINE
  5
3AF
330
1F
100
AcDbEntity
  8
Ｓ_１_１
  6
CONTINUOUS
 62
     3
100
AcDbLine
 10
369.637759
 20
168.0000019999999
 30
0.0
 11
369.637759
 21
191.9999979999999
 31
0.0
  0
LINE
  5
3B0
330
1F
100
AcDbEntity
  8
Ｓ_１_１
  6
CONTINUOUS
 62
     3
100
AcDbLine
 10
384.637758
 20
167.999997
 30
0.0
 11
384.637758
 21
191.999988
 31
0.0
  0
LINE
  5
3B1
330
1F
100
AcDbEntity
  8
Ｓ_１_１
  6
CONTINUOUS
 62
     3
100
AcDbLine
 10
334.637759
 20
168.0000019999999
 30
0.0
 11
334.637759
 21
191.9999979999999
 31
0.0
  0
LINE
  5
3B2
330
1F
100
AcDbEntity
  8
Ｓ_１_１
  6
CONTINUOUS
 62
     3
100
AcDbLine
 10
397.1377269999999
 20
172.8201179999999
 30
0.0
 11
403.275425
 21
172.4365119999999
 31
0.0
  0
LINE
  5
3B3
330
1F
100
AcDbEntity
  8
Ｓ_１_１
  6
CONTINUOUS
 62
     3
100
AcDbLine
 10
404.6377279999999
 20
171.6500149999999
 30
0.0
 11
403.275445
 21
172.436529
 31
0.0
  0
LINE
  5
3B4
330
1F
100
AcDbEntity
  8
Ｓ_１_１
  6
CONTINUOUS
 62
     3
100
AcDbLine
 10
397.137694
 20
172.118757
 30
0.0
 11
404.637708
 21
171.6500059999999
 31
0.0
  0
LINE
  5
3B5
330
1F
100
AcDbEntity
  8
Ｓ_１_１
  6
CONTINUOUS
 62
     3
100
AcDbLine
 10
403.275458
 20
187.5634899999999
 30
0.0
 11
404.6377409999999
 21
188.350005
 31
0.0
  0
LINE
  5
3B6
330
1F
100
AcDbEntity
  8
Ｓ_１_１
  6
CONTINUOUS
 62
     3
100
AcDbLine
 10
397.1377399999999
 20
187.881255
 30
0.0
 11
404.637754
 21
188.350006
 31
0.0
  0
LINE
  5
3B7
330
1F
100
AcDbEntity
  8
Ｓ_１_１
  6
CONTINUOUS
 62
     3
100
AcDbLine
 10
397.137698
 20
187.17988
 30
0.0
 11
403.275471
 21
187.5634909999999
 31
0.0
  0
LINE
  5
3B8
330
1F
100
AcDbEntity
  8
Ｓ_１_１
  6
CONTINUOUS
 62
     3
100
AcDbLine
 10
403.275453
 20
171.7351439999999
 30
0.0
 11
403.275453
 21
188.264856
 31
0.0
  0
LINE
  5
3B9
330
1F
100
AcDbEntity
  8
Ｓ_１_１
  6
CONTINUOUS
 62
     3
100
AcDbLine
 10
415.0000010000001
 20
187.5634699999999
 30
0.0
 11
413.6377189999999
 21
188.3499839999999
 31
0.0
  0
LINE
  5
3BA
330
1F
100
AcDbEntity
  8
Ｓ_１_１
  6
CONTINUOUS
 62
     3
100
AcDbLine
 10
419.999952
 20
187.9523579999999
 30
0.0
 11
413.637702
 21
188.349999
 31
0.0
  0
LINE
  5
3BB
330
1F
100
AcDbEntity
  8
Ｓ_１_１
  6
CONTINUOUS
 62
     3
100
AcDbLine
 10
419.999995
 20
187.2509879999999
 30
0.0
 11
414.999985
 21
187.5634889999999
 31
0.0
  0
LINE
  5
3BC
330
1F
100
AcDbEntity
  8
Ｓ_１_１
  6
CONTINUOUS
 62
     3
100
AcDbLine
 10
413.637699
 20
171.6500159999999
 30
0.0
 11
414.999981
 21
172.4365299999999
 31
0.0
  0
LINE
  5
3BD
330
1F
100
AcDbEntity
  8
Ｓ_１_１
  6
CONTINUOUS
 62
     3
100
AcDbLine
 10
415.0000020000001
 20
171.7351439999999
 30
0.0
 11
415.0000020000001
 21
188.264856
 31
0.0
  0
LINE
  5
3BE
330
1F
100
AcDbEntity
  8
Ｓ_１_１
  6
CONTINUOUS
 62
     3
100
AcDbLine
 10
419.9999989999999
 20
172.0476399999999
 30
0.0
 11
413.637749
 21
171.6499989999999
 31
0.0
  0
LINE
  5
3BF
330
1F
100
AcDbEntity
  8
Ｓ_１_１
  6
CONTINUOUS
 62
     3
100
AcDbLine
 10
419.999965
 20
172.7490099999999
 30
0.0
 11
414.9999560000001
 21
172.4365089999999
 31
0.0
  0
LINE
  5
3C0
330
1F
100
AcDbEntity
  8
Ｓ_１_１
  6
CONTINUOUS
 62
     3
100
AcDbLine
 10
413.6377319999999
 20
169.4999789999999
 30
0.0
 11
412.69991
 21
167.875618
 31
0.0
  0
LINE
  5
3C1
330
1F
100
AcDbEntity
  8
Ｓ_１_１
  6
CONTINUOUS
 62
     3
100
AcDbLine
 10
404.637706
 20
169.499987
 30
0.0
 11
405.575527
 21
167.875626
 31
0.0
  0
LINE
  5
3C2
330
1F
100
AcDbEntity
  8
Ｓ_１_１
  6
CONTINUOUS
 62
     3
100
AcDbLine
 10
413.637701
 20
190.5000239999999
 30
0.0
 11
412.69988
 21
192.124385
 31
0.0
  0
LINE
  5
3C3
330
1F
100
AcDbEntity
  8
Ｓ_１_１
  6
CONTINUOUS
 62
     3
100
AcDbLine
 10
404.6377259999999
 20
190.4999999999999
 30
0.0
 11
405.575548
 21
192.124361
 31
0.0
  0
LINE
  5
3C4
330
1F
100
AcDbEntity
  8
Ｓ_１_１
  6
CONTINUOUS
 62
     3
100
AcDbLine
 10
405.575563
 20
192.1243709999999
 30
0.0
 11
412.699892
 21
192.1243709999999
 31
0.0
  0
LINE
  5
3C5
330
1F
100
AcDbEntity
  8
Ｓ_１_１
  6
CONTINUOUS
 62
     3
100
AcDbLine
 10
405.575563
 20
167.8756569999999
 30
0.0
 11
412.699892
 21
167.8756569999999
 31
0.0
  0
LINE
  5
3C6
330
1F
100
AcDbEntity
  8
Ｓ_１_１
  6
CONTINUOUS
 62
     3
100
AcDbLine
 10
405.575563
 20
173.9378359999999
 30
0.0
 11
412.699892
 21
173.9378359999999
 31
0.0
  0
LINE
  5
3C7
330
1F
100
AcDbEntity
  8
Ｓ_１_１
  6
CONTINUOUS
 62
     3
100
AcDbLine
 10
405.575563
 20
186.0621879999999
 30
0.0
 11
412.699892
 21
186.0621879999999
 31
0.0
  0
LINE
  5
3C8
330
1F
100
AcDbEntity
  8
Ｓ_１_１
  6
CONTINUOUS
 62
     3
100
AcDbLine
 10
404.637758
 20
169.4999839999999
 30
0.0
 11
404.637758
 21
190.5000069999999
 31
0.0
  0
LINE
  5
3C9
330
1F
100
AcDbEntity
  8
Ｓ_１_１
  6
CONTINUOUS
 62
     3
100
AcDbLine
 10
413.6376969999999
 20
169.499993
 30
0.0
 11
413.6376969999999
 21
190.500016
 31
0.0
  0
LINE
  5
3CA
330
1F
100
AcDbEntity
  8
Ｓ_１_１
  6
CONTINUOUS
 62
     3
100
AcDbLine
 10
421.9999959999999
 20
160.0000059999999
 30
0.0
 11
420.00001
 21
161.999992
 31
0.0
  0
LINE
  5
3CB
330
1F
100
AcDbEntity
  8
Ｓ_１_１
  6
CONTINUOUS
 62
     3
100
AcDbLine
 10
420.000001
 20
161.9999979999999
 30
0.0
 11
420.000001
 21
193.4999989999999
 31
0.0
  0
LINE
  5
3CC
330
1F
100
AcDbEntity
  8
Ｓ_１_１
  6
CONTINUOUS
 62
     3
100
AcDbLine
 10
620.0000069999999
 20
162.0000049999999
 30
0.0
 11
618.000008
 21
160.0000059999999
 31
0.0
  0
LINE
  5
3CD
330
1F
100
AcDbEntity
  8
Ｓ_１_１
  6
CONTINUOUS
 62
     3
100
AcDbLine
 10
619.9999989999999
 20
161.9999979999999
 30
0.0
 11
619.9999989999999
 21
193.4999989999999
 31
0.0
  0
LINE
  5
3CE
330
1F
100
AcDbEntity
  8
Ｓ_１_１
  6
CONTINUOUS
 62
     3
100
AcDbLine
 10
619.9999989999999
 20
161.9999979999999
 30
0.0
 11
420.000001
 21
161.9999979999999
 31
0.0
  0
LINE
  5
3CF
330
1F
100
AcDbEntity
  8
Ｓ_１_１
  6
CONTINUOUS
 62
     3
100
AcDbLine
 10
618.000008
 20
159.9999999999999
 30
0.0
 11
421.999971
 21
159.9999999999999
 31
0.0
  0
DIMENSION
  5
3D0
330
1F
100
AcDbEntity
  8
Ｓ_１_１
  6
CONTINUOUS
 62
     2
100
AcDbDimension
  2
*D22
 10
420.000001
 20
120.0
 30
0.0
 11
520.0
 21
128.25
 31
0.0
 70
   160
  1
%%c200(190)
  3
ISO-25
100
AcDbAlignedDimension
 13
619.9999989999999
 23
161.9999979999999
 33
0.0
 14
420.000001
 24
161.9999979999999
 34
0.0
100
AcDbRotatedDimension
1001
ACAD
1000
DSTYLE
1002
{
1070
   270
1070
     2
1070
     6
1000
EX_NORM
1070
     7
1000
EX_NORM
1070
    41
1040
9.0
1070
    42
1040
4.5
1070
    44
1040
3.0
1070
    73
1070
     0
1070
    74
1070
     0
1070
    75
1070
     0
1070
    76
1070
     0
1070
    77
1070
     1
1070
    78
1070
     8
1070
   140
1040
10.38871247113164
1070
   147
1040
0.0
1070
   173
1070
     1
1070
   176
1070
     2
1070
   177
1070
     2
1070
   178
1070
     2
1070
   271
1070
     2
1070
   277
1070
     2
1070
   279
1070
     2
1070
   280
1070
     0
1070
   287
1070
     5
1070
   340
1005
127
1002
}
  0
DIMENSION
  5
3DD
330
1F
100
AcDbEntity
  8
Ｓ_１_１
  6
CONTINUOUS
 62
     2
100
AcDbDimension
  2
*D23
 10
334.637759
 20
120.0
 30
0.0
 11
377.31888
 21
128.25
 31
0.0
 70
   160
  1
(85)
  3
ISO-25
100
AcDbAlignedDimension
 13
420.000001
 23
161.999998
 33
0.0
 14
334.637759
 24
168.000002
 34
0.0
100
AcDbRotatedDimension
1001
ACAD
1000
DSTYLE
1002
{
1070
   270
1070
     2
1070
     6
1000
EX_NORM
1070
     7
1000
EX_NORM
1070
    41
1040
9.0
1070
    42
1040
4.5
1070
    44
1040
3.0
1070
    73
1070
     0
1070
    74
1070
     0
1070
    75
1070
     0
1070
    76
1070
     0
1070
    77
1070
     1
1070
    78
1070
     8
1070
   140
1040
10.38871247113164
1070
   147
1040
0.0
1070
   173
1070
     1
1070
   176
1070
     2
1070
   177
1070
     2
1070
   178
1070
     2
1070
   271
1070
     2
1070
   277
1070
     2
1070
   279
1070
     2
1070
   280
1070
     0
1070
   287
1070
     5
1070
   340
1005
127
1002
}
  0
DIMENSION
  5
3EA
330
1F
100
AcDbEntity
  8
Ｓ_１_１
  6
CONTINUOUS
 62
     2
100
AcDbDimension
  2
*D24
 10
280.0
 20
180.0
 30
0.0
 11
271.7500000000001
 21
144.2499999999999
 31
0.0
 70
   160
  3
ISO-25
100
AcDbAlignedDimension
 13
422.000002
 23
160.0
 33
0.0
 14
323.899997
 24
180.0
 34
0.0
 50
90.0
100
AcDbRotatedDimension
1001
ACAD
1000
DSTYLE
1002
{
1070
   270
1070
     2
1070
     6
1000
EX_NORM
1070
     7
1000
EX_NORM
1070
    41
1040
9.0
1070
    42
1040
4.5
1070
    44
1040
3.0
1070
    73
1070
     0
1070
    74
1070
     0
1070
    75
1070
     0
1070
    76
1070
     0
1070
    77
1070
     1
1070
    78
1070
     8
1070
   140
1040
10.38871247113164
1070
   147
1040
0.0
1070
   173
1070
     1
1070
   176
1070
     2
1070
   177
1070
     2
1070
   178
1070
     2
1070
   271
1070
     2
1070
   277
1070
     2
1070
   279
1070
     2
1070
   280
1070
     1
1070
   287
1070
     5
1070
   340
1005
127
1002
}
  0
DIMENSION
  5
3F7
330
1F
100
AcDbEntity
  8
Ｓ_１_１
  6
CONTINUOUS
 62
     2
100
AcDbDimension
  2
*D25
 10
280.0
 20
260.499996
 30
0.0
 11
271.75
 21
220.249998
 31
0.0
 70
   160
  3
ISO-25
100
AcDbAlignedDimension
 13
323.899997
 23
180.0
 33
0.0
 14
377.500002
 24
260.499996
 34
0.0
 50
90.0
100
AcDbRotatedDimension
1001
ACAD
1000
DSTYLE
1002
{
1070
   270
1070
     2
1070
     6
1000
EX_NORM
1070
     7
1000
EX_NORM
1070
    41
1040
9.0
1070
    42
1040
4.5
1070
    44
1040
3.0
1070
    73
1070
     0
1070
    74
1070
     0
1070
    75
1070
     0
1070
    76
1070
     0
1070
    77
1070
     1
1070
    78
1070
     8
1070
   140
1040
10.38871247113164
1070
   147
1040
0.0
1070
   173
1070
     1
1070
   176
1070
     2
1070
   177
1070
     2
1070
   178
1070
     2
1070
   271
1070
     2
1070
   277
1070
     2
1070
   279
1070
     2
1070
   280
1070
     0
1070
   287
1070
     5
1070
   340
1005
127
1002
}
  0
DIMENSION
  5
404
330
1F
100
AcDbEntity
  8
Ｓ_１_１
  6
CONTINUOUS
 62
     2
100
AcDbDimension
  2
*D26
 10
720.0
 20
193.499999
 30
0.0
 11
711.75
 21
137.4999999999997
 31
0.0
 70
   160
  3
ISO-25
100
AcDbAlignedDimension
 13
618.000021
 23
160.0
 33
0.0
 14
640.5000279999999
 24
193.499999
 34
0.0
 50
90.0
100
AcDbRotatedDimension
1001
ACAD
1000
DSTYLE
1002
{
1070
   270
1070
     2
1070
     6
1000
EX_NORM
1070
     7
1000
EX_NORM
1070
    41
1040
9.0
1070
    42
1040
4.5
1070
    44
1040
3.0
1070
    73
1070
     0
1070
    74
1070
     0
1070
    75
1070
     0
1070
    76
1070
     0
1070
    77
1070
     1
1070
    78
1070
     8
1070
   140
1040
10.38871247113164
1070
   147
1040
0.0
1070
   173
1070
     1
1070
   176
1070
     2
1070
   177
1070
     2
1070
   178
1070
     2
1070
   271
1070
     2
1070
   277
1070
     2
1070
   279
1070
     2
1070
   280
1070
     1
1070
   287
1070
     5
1070
   340
1005
127
1002
}
  0
DIMENSION
  5
411
330
1F
100
AcDbEntity
  8
Ｓ_１_１
  6
CONTINUOUS
 62
     2
100
AcDbDimension
  2
*D27
 10
720.0
 20
250.499996
 30
0.0
 11
711.75
 21
221.9999974999999
 31
0.0
 70
   160
  3
ISO-25
100
AcDbAlignedDimension
 13
640.5000279999999
 23
193.499999
 33
0.0
 14
680.000017
 24
250.499996
 34
0.0
 50
90.0
100
AcDbRotatedDimension
1001
ACAD
1000
DSTYLE
1002
{
1070
   270
1070
     2
1070
     6
1000
EX_NORM
1070
     7
1000
EX_NORM
1070
    41
1040
9.0
1070
    42
1040
4.5
1070
    44
1040
3.0
1070
    73
1070
     0
1070
    74
1070
     0
1070
    75
1070
     0
1070
    76
1070
     0
1070
    77
1070
     1
1070
    78
1070
     8
1070
   140
1040
10.38871247113164
1070
   147
1040
0.0
1070
   173
1070
     1
1070
   176
1070
     2
1070
   177
1070
     2
1070
   178
1070
     2
1070
   271
1070
     2
1070
   277
1070
     2
1070
   279
1070
     2
1070
   280
1070
     0
1070
   287
1070
     5
1070
   340
1005
127
1002
}
  0
DIMENSION
  5
41E
330
1F
100
AcDbEntity
  8
Ｓ_１_１
  6
CONTINUOUS
 62
     2
100
AcDbDimension
  2
*D28
 10
720.0000000000003
 20
260.499996
 30
0.0
 11
711.75
 21
286.3749959999998
 31
0.0
 70
   160
  1
　 10
  3
ISO-25
100
AcDbAlignedDimension
 13
680.000017
 23
250.499996
 33
0.0
 14
662.500017
 24
260.499996
 34
0.0
 50
90.0
100
AcDbRotatedDimension
1001
ACAD
1000
DSTYLE
1002
{
1070
   270
1070
     2
1070
     6
1000
EX_NORM
1070
     7
1000
EX_NORM
1070
    41
1040
9.0
1070
    42
1040
4.5
1070
    44
1040
3.0
1070
    73
1070
     0
1070
    74
1070
     0
1070
    75
1070
     0
1070
    76
1070
     0
1070
    77
1070
     1
1070
    78
1070
     8
1070
   140
1040
10.38871247113164
1070
   147
1040
0.0
1070
   173
1070
     1
1070
   176
1070
     2
1070
   177
1070
     2
1070
   178
1070
     2
1070
   271
1070
     2
1070
   277
1070
     2
1070
   279
1070
     2
1070
   280
1070
     2
1070
   287
1070
     5
1070
   340
1005
127
1002
}
  0
DIMENSION
  5
42D
330
1F
100
AcDbEntity
  8
Ｓ_１_１
  6
CONTINUOUS
 62
     2
100
AcDbDimension
  2
*D29
 10
739.9999999999999
 20
280.499986
 30
0.0
 11
731.75
 21
296.2499859999996
 31
0.0
 70
   160
  3
ISO-25
100
AcDbAlignedDimension
 13
662.500017
 23
260.499996
 33
0.0
 14
680.000017
 24
280.499986
 34
0.0
 50
90.0
100
AcDbRotatedDimension
1001
ACAD
1000
DSTYLE
1002
{
1070
   270
1070
     2
1070
     6
1000
EX_NORM
1070
     7
1000
EX_NORM
1070
    41
1040
9.0
1070
    42
1040
4.5
1070
    44
1040
2.999999999999886
1070
    73
1070
     0
1070
    74
1070
     0
1070
    75
1070
     0
1070
    76
1070
     0
1070
    77
1070
     1
1070
    78
1070
     8
1070
   140
1040
10.38871247113164
1070
   147
1040
0.0
1070
   173
1070
     1
1070
   176
1070
     2
1070
   177
1070
     2
1070
   178
1070
     2
1070
   271
1070
     2
1070
   277
1070
     2
1070
   279
1070
     2
1070
   280
1070
     2
1070
   287
1070
     5
1070
   340
1005
127
1002
}
  0
DIMENSION
  5
43A
330
1F
100
AcDbEntity
  8
Ｓ_１_１
  6
CONTINUOUS
 62
     2
100
AcDbDimension
  2
*D30
 10
740.0
 20
160.0
 30
0.0
 11
731.75
 21
210.2499979999999
 31
0.0
 70
   160
  3
ISO-25
100
AcDbAlignedDimension
 13
662.500017
 23
260.499996
 33
0.0
 14
618.000021
 24
160.0
 34
0.0
 50
90.0
100
AcDbRotatedDimension
1001
ACAD
1000
DSTYLE
1002
{
1070
   270
1070
     2
1070
     6
1000
EX_NORM
1070
     7
1000
EX_NORM
1070
    41
1040
9.0
1070
    42
1040
4.5
1070
    44
1040
3.0
1070
    73
1070
     0
1070
    74
1070
     0
1070
    75
1070
     0
1070
    76
1070
     0
1070
    77
1070
     1
1070
    78
1070
     8
1070
   140
1040
10.38871247113164
1070
   147
1040
0.0
1070
   173
1070
     1
1070
   176
1070
     2
1070
   177
1070
     2
1070
   178
1070
     2
1070
   271
1070
     2
1070
   277
1070
     2
1070
   279
1070
     2
1070
   280
1070
     0
1070
   287
1070
     5
1070
   340
1005
127
1002
}
  0
DIMENSION
  5
447
330
1F
100
AcDbEntity
  8
Ｓ_１_１
  6
CONTINUOUS
 62
     2
100
AcDbDimension
  2
*D31
 10
760.0000000000001
 20
280.499986
 30
0.0
 11
751.7500000000001
 21
220.2499929999999
 31
0.0
 70
   160
  3
ISO-25
100
AcDbAlignedDimension
 13
618.000021
 23
160.0
 33
0.0
 14
680.000017
 24
280.499986
 34
0.0
 50
90.0
100
AcDbRotatedDimension
1001
ACAD
1000
DSTYLE
1002
{
1070
   270
1070
     2
1070
     6
1000
EX_NORM
1070
     7
1000
EX_NORM
1070
    41
1040
9.0
1070
    42
1040
4.5
1070
    44
1040
3.0
1070
    73
1070
     0
1070
    74
1070
     0
1070
    75
1070
     0
1070
    76
1070
     0
1070
    77
1070
     1
1070
    78
1070
     8
1070
   140
1040
10.38871247113164
1070
   147
1040
0.0
1070
   173
1070
     1
1070
   176
1070
     2
1070
   177
1070
     2
1070
   178
1070
     2
1070
   271
1070
     2
1070
   277
1070
     2
1070
   279
1070
     2
1070
   280
1070
     0
1070
   287
1070
     5
1070
   340
1005
127
1002
}
  0
LINE
  5
454
330
1F
100
AcDbEntity
  8
Ｓ_１_１
  6
EXLTYPE0
 62
     2
100
AcDbLine
 10
400.000021
 20
250.4999959999999
 30
0.0
 11
400.000021
 21
260.499996
 31
0.0
  0
LINE
  5
455
330
1F
100
AcDbEntity
  8
Ｓ_１_１
  6
EXLTYPE0
 62
     2
100
AcDbLine
 10
640.000017
 20
250.4999959999999
 30
0.0
 11
640.000017
 21
260.499996
 31
0.0
  0
LINE
  5
456
330
1F
100
AcDbEntity
  8
Ｓ_１_１
  6
CONTINUOUS
 62
     3
100
AcDbLine
 10
638.000019
 20
193.4999899999999
 30
0.0
 11
640.000019
 21
195.49999
 31
0.0
  0
LINE
  5
457
330
1F
100
AcDbEntity
  8
Ｓ_１_１
  6
CONTINUOUS
 62
     3
100
AcDbLine
 10
640.000017
 20
195.499997
 30
0.0
 11
640.000017
 21
250.4999959999999
 31
0.0
  0
LINE
  5
458
330
1F
100
AcDbEntity
  8
Ｓ_１_１
  6
CONTINUOUS
 62
     3
100
AcDbLine
 10
647.500017
 20
280.499986
 30
0.0
 11
647.500017
 21
250.4999959999999
 31
0.0
  0
LINE
  5
459
330
1F
100
AcDbEntity
  8
Ｓ_１_１
  6
CONTINUOUS
 62
     3
100
AcDbLine
 10
402.0000199999999
 20
193.4999979999999
 30
0.0
 11
400.0000069999999
 21
195.5000109999999
 31
0.0
  0
LINE
  5
45A
330
1F
100
AcDbEntity
  8
Ｓ_１_１
  6
CONTINUOUS
 62
     3
100
AcDbLine
 10
400.000021
 20
195.499997
 30
0.0
 11
400.000021
 21
250.4999959999999
 31
0.0
  0
LINE
  5
45B
330
1F
100
AcDbEntity
  8
Ｓ_１_１
  6
CONTINUOUS
 62
     3
100
AcDbLine
 10
640.000017
 20
195.5000019999999
 30
0.0
 11
400.000021
 21
195.5000019999999
 31
0.0
  0
LINE
  5
45C
330
1F
100
AcDbEntity
  8
Ｓ_１_１
  6
CONTINUOUS
 62
     3
100
AcDbLine
 10
638.0000099999999
 20
193.4999989999999
 30
0.0
 11
401.99999
 21
193.4999989999999
 31
0.0
  0
LINE
  5
45D
330
1F
100
AcDbEntity
  8
Ｓ_１_１
  6
CONTINUOUS
 62
     3
100
AcDbLine
 10
360.000021
 20
280.499986
 30
0.0
 11
360.000021
 21
250.4999959999999
 31
0.0
  0
LINE
  5
45E
330
1F
100
AcDbEntity
  8
Ｓ_１_１
  6
CONTINUOUS
 62
     3
100
AcDbLine
 10
390.0000209999999
 20
280.499986
 30
0.0
 11
390.0000209999999
 21
250.4999959999999
 31
0.0
  0
LINE
  5
45F
330
1F
100
AcDbEntity
  8
Ｓ_１_１
  6
CONTINUOUS
 62
     3
100
AcDbLine
 10
680.000017
 20
280.499986
 30
0.0
 11
360.000021
 21
280.499986
 31
0.0
  0
LINE
  5
460
330
1F
100
AcDbEntity
  8
Ｓ_１_１
  6
EXLTYPE0
 62
     2
100
AcDbLine
 10
377.500021
 20
260.499996
 30
0.0
 11
377.500021
 21
250.4999959999999
 31
0.0
  0
LINE
  5
461
330
1F
100
AcDbEntity
  8
Ｓ_１_１
  6
CONTINUOUS
 62
     3
100
AcDbLine
 10
680.000017
 20
250.4999959999999
 30
0.0
 11
360.000021
 21
250.4999959999999
 31
0.0
  0
LINE
  5
462
330
1F
100
AcDbEntity
  8
Ｓ_１_１
  6
EXLTYPE0
 62
     2
100
AcDbLine
 10
377.500021
 20
260.499996
 30
0.0
 11
662.500017
 21
260.499996
 31
0.0
  0
LINE
  5
463
330
1F
100
AcDbEntity
  8
Ｓ_１_１
  6
EXLTYPE0
 62
     2
100
AcDbLine
 10
662.500017
 20
260.499996
 30
0.0
 11
662.500017
 21
250.4999959999999
 31
0.0
  0
LINE
  5
464
330
1F
100
AcDbEntity
  8
Ｓ_１_１
  6
CONTINUOUS
 62
     3
100
AcDbLine
 10
680.000017
 20
280.499986
 30
0.0
 11
680.000017
 21
250.4999959999999
 31
0.0
  0
ENDSEC
  0
SECTION
  2
OBJECTS
  0
DICTIONARY
  5
C
330
0
100
AcDbDictionary
  3
ACAD_GROUP
350
D
  3
ACAD_LAYOUT
350
1A
  3
ACAD_MATERIAL
350
43
  3
ACAD_MLEADERSTYLE
350
6B
  3
ACAD_MLINESTYLE
350
17
  3
ACAD_PLOTSETTINGS
350
19
  3
ACAD_SCALELIST
350
47
  3
ACAD_VISUALSTYLE
350
2A
  3
ACDBHEADERROUNDTRIPXREC
350
465
  3
ACDBVARIABLEDICTIONARY
350
486
  0
DICTIONARY
  5
491
330
8
100
AcDbDictionary
280
     1
  3
ACAD_XREC_ROUNDTRIP
360
492
  0
DICTIONARY
  5
D
102
{ACAD_REACTORS
330
C
102
}
330
C
100
AcDbDictionary
  0
DICTIONARY
  5
1A
102
{ACAD_REACTORS
330
C
102
}
330
C
100
AcDbDictionary
  0
DICTIONARY
  5
43
102
{ACAD_REACTORS
330
C
102
}
330
C
100
AcDbDictionary
  3
BYBLOCK
350
45
  3
BYLAYER
350
44
  3
GLOBAL
350
46
  0
DICTIONARY
  5
6B
102
{ACAD_REACTORS
330
C
102
}
330
C
100
AcDbDictionary
  3
STANDARD
350
6C
  0
DICTIONARY
  5
17
102
{ACAD_REACTORS
330
C
102
}
330
C
100
AcDbDictionary
  3
STANDARD
350
18
  0
DICTIONARY
  5
19
102
{ACAD_REACTORS
330
C
102
}
330
C
100
AcDbDictionary
  0
DICTIONARY
  5
47
102
{ACAD_REACTORS
330
C
102
}
330
C
100
AcDbDictionary
  3
A0
350
48
  3
A1
350
49
  3
A2
350
4A
  3
A3
350
4B
  3
A4
350
4C
  3
A5
350
4D
  3
A6
350
4E
  3
A7
350
4F
  3
A8
350
50
  3
A9
350
51
  3
B0
350
52
  3
B1
350
53
  3
B2
350
54
  3
B3
350
55
  3
B4
350
56
  3
B5
350
57
  3
B6
350
58
  3
B7
350
59
  3
B8
350
5A
  3
B9
350
5B
  3
C0
350
5C
  3
C1
350
5D
  3
C2
350
5E
  3
C3
350
5F
  3
C4
350
60
  3
C5
350
61
  3
C6
350
62
  3
C7
350
63
  3
C8
350
64
  3
C9
350
65
  3
D0
350
66
  3
D1
350
67
  3
D2
350
68
  0
DICTIONARY
  5
2A
102
{ACAD_REACTORS
330
C
102
}
330
C
100
AcDbDictionary
  3
2DWIREFRAME
350
2F
  3
BASIC
350
32
  3
BRIGHTEN
350
36
  3
COLORCHANGE
350
3A
  3
CONCEPTUAL
350
34
  3
DIM
350
35
  3
EDGECOLOROFF
350
3D
  3
FACEPATTERN
350
39
  3
FLAT
350
2B
  3
FLATWITHEDGES
350
2C
  3
GOURAUD
350
2D
  3
GOURAUDWITHEDGES
350
2E
  3
HIDDEN
350
31
  3
JITTEROFF
350
3B
  3
LINEPATTERN
350
38
  3
OVERHANGOFF
350
3C
  3
REALISTIC
350
33
  3
SHADED
350
42
  3
SHADED_WITH_EDGES
350
41
  3
SHADES_OF_GRAY
350
3E
  3
SKETCHY
350
3F
  3
THICKEN
350
37
  3
WIREFRAME
350
30
  3
X-RAY
350
40
  0
DICTIONARY
  5
465
102
{ACAD_REACTORS
330
C
102
}
330
C
100
AcDbDictionary
  3
CEPSNID
350
46F
  3
CEPSNTYPE
350
46E
  3
DIMSTYLEDATA
350
485
  3
FINGERPRINTGUID
350
470
  3
HYPERLINKBASE
350
468
  3
INSUNITS
350
46D
  3
LAYOUTDICT
350
46A
  3
LWETCUNION
350
46C
  3
PLOTSETDICT
350
46B
  3
PSVPSCALE
350
472
  3
PUCSBASE
350
475
  3
PUCSORGBACK
350
47B
  3
PUCSORGBOTTOM
350
477
  3
PUCSORGFRONT
350
47A
  3
PUCSORGLEFT
350
478
  3
PUCSORGRIGHT
350
479
  3
PUCSORGTOP
350
476
  3
PUCSORTHOREF
350
473
  3
PUCSORTHOVIEW
350
474
  3
STYLESHEET
350
469
  3
TSTACKALIGN
350
466
  3
TSTACKSIZE
350
467
  3
UCSBASE
350
47E
  3
UCSORGBACK
350
484
  3
UCSORGBOTTOM
350
480
  3
UCSORGFRONT
350
483
  3
UCSORGLEFT
350
481
  3
UCSORGRIGHT
350
482
  3
UCSORGTOP
350
47F
  3
UCSORTHOREF
350
47C
  3
UCSORTHOVIEW
350
47D
  3
VERSIONGUID
350
471
  0
DICTIONARY
  5
486
102
{ACAD_REACTORS
330
C
102
}
330
C
100
AcDbDictionary
  3
CANNOSCALE
350
493
  3
CENTEREXE
350
48D
  3
CENTERLTYPEFILE
350
48E
  3
CMLEADERSTYLE
350
488
  3
CTABLESTYLE
350
487
  3
DIMASSOC
350
48F
  3
HIDETEXT
350
490
  3
MSLTSCALE
350
494
  3
PSOLHEIGHT
350
48A
  3
PSOLWIDTH
350
489
  0
XRECORD
  5
492
102
{ACAD_REACTORS
330
491
102
}
330
491
100
AcDbXrecord
102
VTR_0.000_0.000_1.000_1.000_VISUALSTYLE
340
2F
102
VTR_0.000_0.000_1.000_1.000_GRIDDISPLAY
 70
     3
102
VTR_0.000_0.000_1.000_1.000_GRIDMAJOR
 70
     5
102
VTR_0.000_0.000_1.000_1.000_DEFAULTLIGHTING
280
     1
102
VTR_0.000_0.000_1.000_1.000_DEFAULTLIGHTINGTYPE
 70
     1
102
VTR_0.000_0.000_1.000_1.000_BRIGHTNESS
141
0.0
102
VTR_0.000_0.000_1.000_1.000_CONTRAST
142
0.0
  0
MATERIAL
  5
45
102
{ACAD_REACTORS
330
43
102
}
102
{ACAD_XDICTIONARY
360
497
102
}
330
43
100
AcDbMaterial
  1
BYBLOCK
  0
MATERIAL
  5
44
102
{ACAD_REACTORS
330
43
102
}
102
{ACAD_XDICTIONARY
360
495
102
}
330
43
100
AcDbMaterial
  1
BYLAYER
  0
MATERIAL
  5
46
102
{ACAD_REACTORS
330
43
102
}
102
{ACAD_XDICTIONARY
360
499
102
}
330
43
100
AcDbMaterial
  1
GLOBAL
  0
ACAD_PROXY_OBJECT
  5
6C
102
{ACAD_REACTORS
330
6B
102
}
330
6B
100
AcDbProxyObject
 90
      499
 91
      505
 93
      610
310
40901902A4063FBFFFFFE0000000000000020400000000000020404214DD185B99185C990000000000000104090141901A00000000000004100000000000000041025764000000000000039000
340
14
340
0
340
11
340
0
 94
        0
1001
ACAD_MLEADERVER
1070
     2
  0
MLINESTYLE
  5
18
102
{ACAD_REACTORS
330
17
102
}
330
17
100
AcDbMlineStyle
  2
Standard
 70
     0
  3

 62
   256
 51
90.0
 52
90.0
 71
     2
 49
0.5
 62
   256
  6
BYLAYER
 49
-0.5
 62
   256
  6
BYLAYER
  0
ACAD_PROXY_OBJECT
  5
48
102
{ACAD_REACTORS
330
47
102
}
330
47
100
AcDbProxyObject
 90
      499
 91
      503
 93
       41
310
903313A31580
  0
ACAD_PROXY_OBJECT
  5
49
102
{ACAD_REACTORS
330
47
102
}
330
47
100
AcDbProxyObject
 90
      499
 91
      503
 93
      105
310
903313A324000000000000004000
  0
ACAD_PROXY_OBJECT
  5
4A
102
{ACAD_REACTORS
330
47
102
}
330
47
100
AcDbProxyObject
 90
      499
 91
      503
 93
      105
310
903313A344000000000000104000
  0
ACAD_PROXY_OBJECT
  5
4B
102
{ACAD_REACTORS
330
47
102
}
330
47
100
AcDbProxyObject
 90
      499
 91
      503
 93
      105
310
903313A354000000000000144000
  0
ACAD_PROXY_OBJECT
  5
4C
102
{ACAD_REACTORS
330
47
102
}
330
47
100
AcDbProxyObject
 90
      499
 91
      503
 93
      105
310
903313A384000000000000204000
  0
ACAD_PROXY_OBJECT
  5
4D
102
{ACAD_REACTORS
330
47
102
}
330
47
100
AcDbProxyObject
 90
      499
 91
      503
 93
      113
310
904313A31304000000000000244000
  0
ACAD_PROXY_OBJECT
  5
4E
102
{ACAD_REACTORS
330
47
102
}
330
47
100
AcDbProxyObject
 90
      499
 91
      503
 93
      113
310
904313A31364000000000000304000
  0
ACAD_PROXY_OBJECT
  5
4F
102
{ACAD_REACTORS
330
47
102
}
330
47
100
AcDbProxyObject
 90
      499
 91
      503
 93
      113
310
904313A32304000000000000344000
  0
ACAD_PROXY_OBJECT
  5
50
102
{ACAD_REACTORS
330
47
102
}
330
47
100
AcDbProxyObject
 90
      499
 91
      503
 93
      113
310
904313A333040000000000003E4000
  0
ACAD_PROXY_OBJECT
  5
51
102
{ACAD_REACTORS
330
47
102
}
330
47
100
AcDbProxyObject
 90
      499
 91
      503
 93
      113
310
904313A34304000000000000444000
  0
ACAD_PROXY_OBJECT
  5
52
102
{ACAD_REACTORS
330
47
102
}
330
47
100
AcDbProxyObject
 90
      499
 91
      503
 93
      113
310
904313A35304000000000000494000
  0
ACAD_PROXY_OBJECT
  5
53
102
{ACAD_REACTORS
330
47
102
}
330
47
100
AcDbProxyObject
 90
      499
 91
      503
 93
      121
310
905313A3130304000000000000594000
  0
ACAD_PROXY_OBJECT
  5
54
102
{ACAD_REACTORS
330
47
102
}
330
47
100
AcDbProxyObject
 90
      499
 91
      503
 93
      105
310
903323A310000000000000010100
  0
ACAD_PROXY_OBJECT
  5
55
102
{ACAD_REACTORS
330
47
102
}
330
47
100
AcDbProxyObject
 90
      499
 91
      503
 93
      105
310
903343A310000000000000410100
  0
ACAD_PROXY_OBJECT
  5
56
102
{ACAD_REACTORS
330
47
102
}
330
47
100
AcDbProxyObject
 90
      499
 91
      503
 93
      105
310
903383A310000000000000810100
  0
ACAD_PROXY_OBJECT
  5
57
102
{ACAD_REACTORS
330
47
102
}
330
47
100
AcDbProxyObject
 90
      499
 91
      503
 93
      113
310
90431303A310000000000000910100
  0
ACAD_PROXY_OBJECT
  5
58
102
{ACAD_REACTORS
330
47
102
}
330
47
100
AcDbProxyObject
 90
      499
 91
      503
 93
      121
310
9053130303A310000000000001650100
  0
ACAD_PROXY_OBJECT
  5
59
102
{ACAD_REACTORS
330
47
102
}
330
47
100
AcDbProxyObject
 90
      499
 91
      503
 93
      257
310
90E312F31323822203D2031272D3022000000000000200FC000000000000284000
  0
ACAD_PROXY_OBJECT
  5
5A
102
{ACAD_REACTORS
330
47
102
}
330
47
100
AcDbProxyObject
 90
      499
 91
      503
 93
      249
310
90D312F363422203D2031272D3022000000000000240FC000000000000284000
  0
ACAD_PROXY_OBJECT
  5
5B
102
{ACAD_REACTORS
330
47
102
}
330
47
100
AcDbProxyObject
 90
      499
 91
      503
 93
      249
310
90D312F333222203D2031272D3022000000000000280FC000000000000284000
  0
ACAD_PROXY_OBJECT
  5
5C
102
{ACAD_REACTORS
330
47
102
}
330
47
100
AcDbProxyObject
 90
      499
 91
      503
 93
      249
310
90D312F313622203D2031272D30220000000000002C0FC000000000000284000
  0
ACAD_PROXY_OBJECT
  5
5D
102
{ACAD_REACTORS
330
47
102
}
330
47
100
AcDbProxyObject
 90
      499
 91
      503
 93
      249
310
90D332F333222203D2031272D30220000000000002E0FC000000000000284000
  0
ACAD_PROXY_OBJECT
  5
5E
102
{ACAD_REACTORS
330
47
102
}
330
47
100
AcDbProxyObject
 90
      499
 91
      503
 93
      241
310
90C312F3822203D2031272D3022000000000000300FC000000000000284000
  0
ACAD_PROXY_OBJECT
  5
5F
102
{ACAD_REACTORS
330
47
102
}
330
47
100
AcDbProxyObject
 90
      499
 91
      503
 93
      249
310
90D332F313622203D2031272D3022000000000000320FC000000000000284000
  0
ACAD_PROXY_OBJECT
  5
60
102
{ACAD_REACTORS
330
47
102
}
330
47
100
AcDbProxyObject
 90
      499
 91
      503
 93
      241
310
90C312F3422203D2031272D3022000000000000340FC000000000000284000
  0
ACAD_PROXY_OBJECT
  5
61
102
{ACAD_REACTORS
330
47
102
}
330
47
100
AcDbProxyObject
 90
      499
 91
      503
 93
      241
310
90C332F3822203D2031272D3022000000000000360FC000000000000284000
  0
ACAD_PROXY_OBJECT
  5
62
102
{ACAD_REACTORS
330
47
102
}
330
47
100
AcDbProxyObject
 90
      499
 91
      503
 93
      241
310
90C312F3222203D2031272D3022000000000000380FC000000000000284000
  0
ACAD_PROXY_OBJECT
  5
63
102
{ACAD_REACTORS
330
47
102
}
330
47
100
AcDbProxyObject
 90
      499
 91
      503
 93
      241
310
90C332F3422203D2031272D30220000000000003A0FC000000000000284000
  0
ACAD_PROXY_OBJECT
  5
64
102
{ACAD_REACTORS
330
47
102
}
330
47
100
AcDbProxyObject
 90
      499
 91
      503
 93
      161
310
90A3122203D2031272D30224000000000000284000
  0
ACAD_PROXY_OBJECT
  5
65
102
{ACAD_REACTORS
330
47
102
}
330
47
100
AcDbProxyObject
 90
      499
 91
      503
 93
      257
310
90E312D312F3222203D2031272D30220000000000003E0FC000000000000284000
  0
ACAD_PROXY_OBJECT
  5
66
102
{ACAD_REACTORS
330
47
102
}
330
47
100
AcDbProxyObject
 90
      499
 91
      503
 93
      225
310
90A3322203D2031272D302200000000000002100000000000000284000
  0
ACAD_PROXY_OBJECT
  5
67
102
{ACAD_REACTORS
330
47
102
}
330
47
100
AcDbProxyObject
 90
      499
 91
      503
 93
      225
310
90A3622203D2031272D302200000000000006100000000000000284000
  0
ACAD_PROXY_OBJECT
  5
68
102
{ACAD_REACTORS
330
47
102
}
330
47
100
AcDbProxyObject
 90
      499
 91
      503
 93
      249
310
90D31272D3022203D2031272D30220000000000000A100000000000000284000
  0
ACAD_PROXY_OBJECT
  5
2F
102
{ACAD_REACTORS
330
2A
102
}
330
2A
100
AcDbProxyObject
 90
      499
 91
      501
 93
      436
310
42CC9915DA5C99599C985B595049028333333333333E33F0000000000000F90107901411070040501600405405064090741402480A0340
1001
ACAD
1000
AcDbSavedByObjectVersion
1070
     0
  0
ACAD_PROXY_OBJECT
  5
32
102
{ACAD_REACTORS
330
2A
102
}
330
2A
100
AcDbProxyObject
 90
      499
 91
      501
 93
      388
310
4150985CDA58D07406404333333333333E33F0000000000000F90107A41107004050150841D405064090741402480A0350
1001
ACAD
1000
AcDbSavedByObjectVersion
1070
     0
  0
ACAD_PROXY_OBJECT
  5
36
102
{ACAD_REACTORS
330
2A
102
}
330
2A
100
AcDbProxyObject
 90
      499
 91
      501
 93
      428
310
42109C9A59DA1D195B90C409028333333333333E33F0000000000000F9010790141107004050150841D405064090741402480A029950
1001
ACAD
1000
AcDbSavedByObjectVersion
1070
     0
  0
ACAD_PROXY_OBJECT
  5
3A
102
{ACAD_REACTORS
330
2A
102
}
330
2A
100
AcDbProxyObject
 90
      499
 91
      501
 93
      452
310
42D0DBDB1BDC90DA185B99D95104090240C333333333333E33F0000000000000F90108901411070040501508421405064090741402480A0350
1001
ACAD
1000
AcDbSavedByObjectVersion
1070
     0
  0
ACAD_PROXY_OBJECT
  5
34
102
{ACAD_REACTORS
330
2A
102
}
330
2A
100
AcDbProxyObject
 90
      499
 91
      501
 93
      500
310
4290DBDB98D95C1D1D585B10940D028333333333333E33F0000000000000F90107902409070040501000000000018199010841D405064090740C02480A0340
1001
ACAD
1000
AcDbSavedByObjectVersion
1070
     0
  0
ACAD_PROXY_OBJECT
  5
35
102
{ACAD_REACTORS
330
2A
102
}
330
2A
100
AcDbProxyObject
 90
      499
 91
      501
 93
      412
310
40D11A5B50B409028333333333333E33F0000000000000F9010790141107004050150841D405064090741402480A02677FFFFFD0
1001
ACAD
1000
AcDbSavedByObjectVersion
1070
     0
  0
ACAD_PROXY_OBJECT
  5
3D
102
{ACAD_REACTORS
330
2A
102
}
330
2A
100
AcDbProxyObject
 90
      499
 91
      501
 93
      452
310
43115919D950DBDB1BDC93D999916409028333333333333E33F0000000000000F9010790141107004050150841D405064090741402480A0350
1001
ACAD
1000
AcDbSavedByObjectVersion
1070
     0
  0
ACAD_PROXY_OBJECT
  5
39
102
{ACAD_REACTORS
330
2A
102
}
330
2A
100
AcDbProxyObject
 90
      499
 91
      501
 93
      444
310
42D19858D95C185D1D195C9B90F409028333333333333E33F0000000000000F9010790141107004050150841D405064090741402480A0350
1001
ACAD
1000
AcDbSavedByObjectVersion
1070
     0
  0
ACAD_PROXY_OBJECT
  5
2B
102
{ACAD_REACTORS
330
2A
102
}
330
2A
100
AcDbProxyObject
 90
      499
 91
      501
 93
      380
310
41119B185D240901404333333333333E33F0000000000000F9010740A907004050150841D405064090741402480A1B50
1001
ACAD
1000
AcDbSavedByObjectVersion
1070
     0
  0
ACAD_PROXY_OBJECT
  5
2C
102
{ACAD_REACTORS
330
2A
102
}
330
2A
100
AcDbProxyObject
 90
      499
 91
      501
 93
      468
310
43519B185D15DA5D1A115919D95CD0140901404333333333333E33F0000000000000F90107409019070040501600405405064090741402480A1B50
1001
ACAD
1000
AcDbSavedByObjectVersion
1070
     0
  0
ACAD_PROXY_OBJECT
  5
2D
102
{ACAD_REACTORS
330
2A
102
}
330
2A
100
AcDbProxyObject
 90
      499
 91
      501
 93
      404
310
41D1DBDD5C985D5910240902404333333333333E33F0000000000000F9010740A9070040501641D405064090741402480A1B50
1001
ACAD
1000
AcDbSavedByObjectVersion
1070
     0
  0
ACAD_PROXY_OBJECT
  5
2E
102
{ACAD_REACTORS
330
2A
102
}
330
2A
100
AcDbProxyObject
 90
      499
 91
      501
 93
      492
310
4411DBDD5C985D5915DA5D1A115919D95CD0340902404333333333333E33F0000000000000F90107409019070040501600405405064090741402480A1B50
1001
ACAD
1000
AcDbSavedByObjectVersion
1070
     0
  0
ACAD_PROXY_OBJECT
  5
31
102
{ACAD_REACTORS
330
2A
102
}
330
2A
100
AcDbProxyObject
 90
      499
 91
      501
 93
      476
310
41921A5919195B90640502408333333333333E33F0000000000000F901079024090700405020000000000001110200405405064090740C02480A0340
1001
ACAD
1000
AcDbSavedByObjectVersion
1070
     0
  0
ACAD_PROXY_OBJECT
  5
3B
102
{ACAD_REACTORS
330
2A
102
}
330
2A
100
AcDbProxyObject
 90
      499
 91
      501
 93
      428
310
42529A5D1D195C93D999914409028333333333333E33F0000000000000F9010790141107004050150A41D405064090741402480A0350
1001
ACAD
1000
AcDbSavedByObjectVersion
1070
     0
  0
ACAD_PROXY_OBJECT
  5
38
102
{ACAD_REACTORS
330
2A
102
}
330
2A
100
AcDbProxyObject
 90
      499
 91
      501
 93
      444
310
42D31A5B995C185D1D195C9B90E409028333333333333E33F0000000000000F9010790141107004050750841D405064090741402483A0350
1001
ACAD
1000
AcDbSavedByObjectVersion
1070
     0
  0
ACAD_PROXY_OBJECT
  5
3C
102
{ACAD_REACTORS
330
2A
102
}
330
2A
100
AcDbProxyObject
 90
      499
 91
      501
 93
      444
310
42D3DD995C9A185B99D3D999915409028333333333333E33F0000000000000F9010790141107004050150941D405064090741402480A0350
1001
ACAD
1000
AcDbSavedByObjectVersion
1070
     0
  0
ACAD_PROXY_OBJECT
  5
33
102
{ACAD_REACTORS
330
2A
102
}
330
2A
100
AcDbProxyObject
 90
      499
 91
      501
 93
      428
310
425499585B1A5CDD1A58D08409038333333333333E33F0000000000000F9010740A907004050150800405405064090740C02480A1B40
1001
ACAD
1000
AcDbSavedByObjectVersion
1070
     0
  0
ACAD_PROXY_OBJECT
  5
42
102
{ACAD_REACTORS
330
2A
102
}
330
2A
100
AcDbProxyObject
 90
      499
 91
      501
 93
      420
310
4194DA1859195911B40902404333333333333E33F0000000000000F9010740A41107004050150800405405064090840C02480A0B40
1001
ACAD
1000
AcDbSavedByObjectVersion
1070
     0
  0
ACAD_PROXY_OBJECT
  5
41
102
{ACAD_REACTORS
330
2A
102
}
330
2A
100
AcDbProxyObject
 90
      499
 91
      501
 93
      516
310
4454DA18591959081DDA5D1A08195919D95CD1A40902404333333333333E33F0000000000000F901074090142907004050250800405405064090740C02480A0B40
1001
ACAD
1000
AcDbSavedByObjectVersion
1070
     0
  0
ACAD_PROXY_OBJECT
  5
3E
102
{ACAD_REACTORS
330
2A
102
}
330
2A
100
AcDbProxyObject
 90
      499
 91
      501
 93
      532
310
4394DA1859195CC81BD98811DC985E5174090240C333333333333E33F0000000000000F901079024090741D01000000000000111010841D405064090740C02480A0340
1001
ACAD
1000
AcDbSavedByObjectVersion
1070
     0
  0
ACAD_PROXY_OBJECT
  5
3F
102
{ACAD_REACTORS
330
2A
102
}
330
2A
100
AcDbProxyObject
 90
      499
 91
      501
 93
      476
310
41D4DAD95D18DA1E51840502408333333333333E33F0000000000000F901079024090741D01000000000000111010B41D405064090741802480A0340
1001
ACAD
1000
AcDbSavedByObjectVersion
1070
     0
  0
ACAD_PROXY_OBJECT
  5
37
102
{ACAD_REACTORS
330
2A
102
}
330
2A
100
AcDbProxyObject
 90
      499
 91
      501
 93
      412
310
41D51A1A58DAD95B90D409028333333333333E33F0000000000000F9010790141107004050150C41D405064090741402480A0350
1001
ACAD
1000
AcDbSavedByObjectVersion
1070
     0
  0
ACAD_PROXY_OBJECT
  5
30
102
{ACAD_REACTORS
330
2A
102
}
330
2A
100
AcDbProxyObject
 90
      499
 91
      501
 93
      420
310
4255DA5C99599C985B595059028333333333333E33F0000000000000F90107901411070040501600405405064090740C02480A0340
1001
ACAD
1000
AcDbSavedByObjectVersion
1070
     0
  0
ACAD_PROXY_OBJECT
  5
40
102
{ACAD_REACTORS
330
2A
102
}
330
2A
100
AcDbProxyObject
 90
      499
 91
      501
 93
      404
310
41560B54985E51940902404000000000000E03F0000000000000F9010740501907004050150841D405064090740C02480A1B40
1001
ACAD
1000
AcDbSavedByObjectVersion
1070
     0
  0
XRECORD
  5
46F
102
{ACAD_REACTORS
330
465
102
}
330
465
100
AcDbXrecord
340
0
  0
XRECORD
  5
46E
102
{ACAD_REACTORS
330
465
102
}
330
465
100
AcDbXrecord
 90
        0
  0
XRECORD
  5
485
102
{ACAD_REACTORS
330
465
102
}
330
465
100
AcDbXrecord
1000
DSTYLE
1002
{
1070
   340
340
11
1002
}
  0
XRECORD
  5
470
102
{ACAD_REACTORS
330
465
102
}
330
465
100
AcDbXrecord
  1
{f74755a7-a782-40d6-95fc-bfd34826ecca}
  0
XRECORD
  5
468
102
{ACAD_REACTORS
330
465
102
}
330
465
100
AcDbXrecord
  1

  0
XRECORD
  5
46D
102
{ACAD_REACTORS
330
465
102
}
330
465
100
AcDbXrecord
 90
        4
  0
XRECORD
  5
46A
102
{ACAD_REACTORS
330
465
102
}
330
465
100
AcDbXrecord
340
1A
  0
XRECORD
  5
46C
102
{ACAD_REACTORS
330
465
102
}
330
465
100
AcDbXrecord
 90
    10781
  0
XRECORD
  5
46B
102
{ACAD_REACTORS
330
465
102
}
330
465
100
AcDbXrecord
340
19
  0
XRECORD
  5
472
102
{ACAD_REACTORS
330
465
102
}
330
465
100
AcDbXrecord
 40
0.0
  0
XRECORD
  5
475
102
{ACAD_REACTORS
330
465
102
}
330
465
100
AcDbXrecord
340
0
  0
XRECORD
  5
47B
102
{ACAD_REACTORS
330
465
102
}
330
465
100
AcDbXrecord
 10
0.0
 20
0.0
 30
0.0
  0
XRECORD
  5
477
102
{ACAD_REACTORS
330
465
102
}
330
465
100
AcDbXrecord
 10
0.0
 20
0.0
 30
0.0
  0
XRECORD
  5
47A
102
{ACAD_REACTORS
330
465
102
}
330
465
100
AcDbXrecord
 10
0.0
 20
0.0
 30
0.0
  0
XRECORD
  5
478
102
{ACAD_REACTORS
330
465
102
}
330
465
100
AcDbXrecord
 10
0.0
 20
0.0
 30
0.0
  0
XRECORD
  5
479
102
{ACAD_REACTORS
330
465
102
}
330
465
100
AcDbXrecord
 10
0.0
 20
0.0
 30
0.0
  0
XRECORD
  5
476
102
{ACAD_REACTORS
330
465
102
}
330
465
100
AcDbXrecord
 10
0.0
 20
0.0
 30
0.0
  0
XRECORD
  5
473
102
{ACAD_REACTORS
330
465
102
}
330
465
100
AcDbXrecord
340
0
  0
XRECORD
  5
474
102
{ACAD_REACTORS
330
465
102
}
330
465
100
AcDbXrecord
 70
     0
  0
XRECORD
  5
469
102
{ACAD_REACTORS
330
465
102
}
330
465
100
AcDbXrecord
  1

  0
XRECORD
  5
466
102
{ACAD_REACTORS
330
465
102
}
330
465
100
AcDbXrecord
 90
        1
  0
XRECORD
  5
467
102
{ACAD_REACTORS
330
465
102
}
330
465
100
AcDbXrecord
 90
       70
  0
XRECORD
  5
47E
102
{ACAD_REACTORS
330
465
102
}
330
465
100
AcDbXrecord
340
0
  0
XRECORD
  5
484
102
{ACAD_REACTORS
330
465
102
}
330
465
100
AcDbXrecord
 10
0.0
 20
0.0
 30
0.0
  0
XRECORD
  5
480
102
{ACAD_REACTORS
330
465
102
}
330
465
100
AcDbXrecord
 10
0.0
 20
0.0
 30
0.0
  0
XRECORD
  5
483
102
{ACAD_REACTORS
330
465
102
}
330
465
100
AcDbXrecord
 10
0.0
 20
0.0
 30
0.0
  0
XRECORD
  5
481
102
{ACAD_REACTORS
330
465
102
}
330
465
100
AcDbXrecord
 10
0.0
 20
0.0
 30
0.0
  0
XRECORD
  5
482
102
{ACAD_REACTORS
330
465
102
}
330
465
100
AcDbXrecord
 10
0.0
 20
0.0
 30
0.0
  0
XRECORD
  5
47F
102
{ACAD_REACTORS
330
465
102
}
330
465
100
AcDbXrecord
 10
0.0
 20
0.0
 30
0.0
  0
XRECORD
  5
47C
102
{ACAD_REACTORS
330
465
102
}
330
465
100
AcDbXrecord
340
0
  0
XRECORD
  5
47D
102
{ACAD_REACTORS
330
465
102
}
330
465
100
AcDbXrecord
 70
     0
  0
XRECORD
  5
471
102
{ACAD_REACTORS
330
465
102
}
330
465
100
AcDbXrecord
  1
{FAEB1C32-E019-11D5-929B-00C0DF256EC4}
  0
DICTIONARYVAR
  5
493
102
{ACAD_REACTORS
330
486
102
}
330
486
100
DictionaryVariables
280
     0
  1
1:1
  0
DICTIONARYVAR
  5
48D
102
{ACAD_REACTORS
330
486
102
}
330
486
100
DictionaryVariables
280
     0
  1
3.500000
  0
DICTIONARYVAR
  5
48E
102
{ACAD_REACTORS
330
486
102
}
330
486
100
DictionaryVariables
280
     0
  1
acadiso.lin
  0
DICTIONARYVAR
  5
488
102
{ACAD_REACTORS
330
486
102
}
330
486
100
DictionaryVariables
280
     0
  1
Standard
  0
DICTIONARYVAR
  5
487
102
{ACAD_REACTORS
330
486
102
}
330
486
100
DictionaryVariables
280
     0
  1
Standard
  0
DICTIONARYVAR
  5
48F
102
{ACAD_REACTORS
330
486
102
}
330
486
100
DictionaryVariables
280
     0
  1
2
  0
DICTIONARYVAR
  5
490
102
{ACAD_REACTORS
330
486
102
}
330
486
100
DictionaryVariables
280
     0
  1
1
  0
DICTIONARYVAR
  5
494
102
{ACAD_REACTORS
330
486
102
}
330
486
100
DictionaryVariables
280
     0
  1
1
  0
DICTIONARYVAR
  5
48A
102
{ACAD_REACTORS
330
486
102
}
330
486
100
DictionaryVariables
280
     0
  1
80.000000
  0
DICTIONARYVAR
  5
489
102
{ACAD_REACTORS
330
486
102
}
330
486
100
DictionaryVariables
280
     0
  1
5.000000
  0
DICTIONARY
  5
497
330
45
100
AcDbDictionary
280
     1
  3
ACAD_XREC_ROUNDTRIP
360
498
  0
DICTIONARY
  5
495
330
44
100
AcDbDictionary
280
     1
  3
ACAD_XREC_ROUNDTRIP
360
496
  0
DICTIONARY
  5
499
330
46
100
AcDbDictionary
280
     1
  3
ACAD_XREC_ROUNDTRIP
360
49A
  0
XRECORD
  5
498
102
{ACAD_REACTORS
330
497
102
}
330
497
100
AcDbXrecord
102
MATERIAL
148
0.0
149
0.0
149
0.0
 93
        0
 94
      127
282
     0
 72
     1
 77
     1
171
     1
175
     1
179
     1
273
     0
  0
XRECORD
  5
496
102
{ACAD_REACTORS
330
495
102
}
330
495
100
AcDbXrecord
102
MATERIAL
148
0.0
149
0.0
149
0.0
 93
        0
 94
      127
282
     0
 72
     1
 77
     1
171
     1
175
     1
179
     1
273
     0
  0
XRECORD
  5
49A
102
{ACAD_REACTORS
330
499
102
}
330
499
100
AcDbXrecord
102
MATERIAL
148
0.0
149
0.0
149
0.0
 93
        0
 94
      127
282
     0
 72
     1
 77
     1
171
     1
175
     1
179
     1
273
     0
  0
ENDSEC
  0
EOF
