  0
SECTION
  2
HEADER
  9
$ACADVER
  1
AC1014
  9
$ACADMAINTVER
 70
     9
  9
$DWGCODEPAGE
  3
ANSI_932
  9
$INSBASE
 10
0.0
 20
0.0
 30
0.0
  9
$EXTMIN
 10
30.0
 20
30.0
 30
0.0
  9
$EXTMAX
 10
1230.0
 20
861.0
 30
0.0
  9
$LIMMIN
 10
0.0
 20
0.0
  9
$LIMMAX
 10
420.0
 20
297.0
  9
$ORTHOMODE
 70
     0
  9
$REGENMODE
 70
     1
  9
$FILLMODE
 70
     1
  9
$QTEXTMODE
 70
     0
  9
$MIRRTEXT
 70
     1
  9
$DRAGMODE
 70
     2
  9
$LTSCALE
 40
1.0
  9
$OSMODE
 70
    37
  9
$ATTMODE
 70
     1
  9
$TEXTSIZE
 40
2.5
  9
$TRACEWID
 40
1.0
  9
$TEXTSTYLE
  7
STANDARD
  9
$CLAYER
  8
Ｓ_１_１
  9
$CELTYPE
  6
BYLAYER
  9
$CECOLOR
 62
   256
  9
$CELTSCALE
 40
1.0
  9
$DELOBJ
 70
     1
  9
$DISPSILH
 70
     0
  9
$DIMSCALE
 40
1.0
  9
$DIMASZ
 40
2.5
  9
$DIMEXO
 40
0.625
  9
$DIMDLI
 40
3.75
  9
$DIMRND
 40
0.0
  9
$DIMDLE
 40
0.0
  9
$DIMEXE
 40
1.25
  9
$DIMTP
 40
0.0
  9
$DIMTM
 40
0.0
  9
$DIMTXT
 40
2.5
  9
$DIMCEN
 40
2.5
  9
$DIMTSZ
 40
0.0
  9
$DIMTOL
 70
     0
  9
$DIMLIM
 70
     0
  9
$DIMTIH
 70
     0
  9
$DIMTOH
 70
     0
  9
$DIMSE1
 70
     0
  9
$DIMSE2
 70
     0
  9
$DIMTAD
 70
     1
  9
$DIMZIN
 70
     8
  9
$DIMBLK
  1

  9
$DIMASO
 70
     1
  9
$DIMSHO
 70
     1
  9
$DIMPOST
  1

  9
$DIMAPOST
  1

  9
$DIMALT
 70
     0
  9
$DIMALTD
 70
     3
  9
$DIMALTF
 40
0.03937007874016
  9
$DIMLFAC
 40
1.0
  9
$DIMTOFL
 70
     1
  9
$DIMTVP
 40
0.0
  9
$DIMTIX
 70
     0
  9
$DIMSOXD
 70
     0
  9
$DIMSAH
 70
     0
  9
$DIMBLK1
  1

  9
$DIMBLK2
  1

  9
$DIMSTYLE
  2
ISO-25
  9
$DIMCLRD
 70
     0
  9
$DIMCLRE
 70
     0
  9
$DIMCLRT
 70
     0
  9
$DIMTFAC
 40
1.0
  9
$DIMGAP
 40
0.625
  9
$DIMJUST
 70
     0
  9
$DIMSD1
 70
     0
  9
$DIMSD2
 70
     0
  9
$DIMTOLJ
 70
     0
  9
$DIMTZIN
 70
     8
  9
$DIMALTZ
 70
     0
  9
$DIMALTTZ
 70
     0
  9
$DIMFIT
 70
     3
  9
$DIMUPT
 70
     0
  9
$DIMUNIT
 70
     2
  9
$DIMDEC
 70
     2
  9
$DIMTDEC
 70
     2
  9
$DIMALTU
 70
     2
  9
$DIMALTTD
 70
     3
  9
$DIMTXSTY
  7
STANDARD
  9
$DIMAUNIT
 70
     0
  9
$LUNITS
 70
     2
  9
$LUPREC
 70
     4
  9
$SKETCHINC
 40
1.0
  9
$FILLETRAD
 40
10.0
  9
$AUNITS
 70
     0
  9
$AUPREC
 70
     0
  9
$MENU
  1
.
  9
$ELEVATION
 40
0.0
  9
$PELEVATION
 40
0.0
  9
$THICKNESS
 40
0.0
  9
$LIMCHECK
 70
     0
  9
$CHAMFERA
 40
0.0
  9
$CHAMFERB
 40
0.0
  9
$CHAMFERC
 40
0.0
  9
$CHAMFERD
 40
0.0
  9
$SKPOLY
 70
     0
  9
$TDCREATE
 40
2459856.645582072
  9
$TDUPDATE
 40
2459856.645582338
  9
$TDINDWG
 40
0.0000000116
  9
$TDUSRTIMER
 40
0.0000000116
  9
$USRTIMER
 70
     1
  9
$ANGBASE
 50
0.0
  9
$ANGDIR
 70
     0
  9
$PDMODE
 70
     0
  9
$PDSIZE
 40
0.0
  9
$PLINEWID
 40
0.0
  9
$COORDS
 70
     1
  9
$SPLFRAME
 70
     0
  9
$SPLINETYPE
 70
     6
  9
$SPLINESEGS
 70
     8
  9
$ATTDIA
 70
     0
  9
$ATTREQ
 70
     1
  9
$HANDLING
 70
     1
  9
$HANDSEED
  5
52C
  9
$SURFTAB1
 70
     6
  9
$SURFTAB2
 70
     6
  9
$SURFTYPE
 70
     6
  9
$SURFU
 70
     6
  9
$SURFV
 70
     6
  9
$UCSNAME
  2

  9
$UCSORG
 10
0.0
 20
0.0
 30
0.0
  9
$UCSXDIR
 10
1.0
 20
0.0
 30
0.0
  9
$UCSYDIR
 10
0.0
 20
1.0
 30
0.0
  9
$PUCSNAME
  2

  9
$PUCSORG
 10
0.0
 20
0.0
 30
0.0
  9
$PUCSXDIR
 10
1.0
 20
0.0
 30
0.0
  9
$PUCSYDIR
 10
0.0
 20
1.0
 30
0.0
  9
$USERI1
 70
     0
  9
$USERI2
 70
     0
  9
$USERI3
 70
     0
  9
$USERI4
 70
     0
  9
$USERI5
 70
     0
  9
$USERR1
 40
0.0
  9
$USERR2
 40
0.0
  9
$USERR3
 40
0.0
  9
$USERR4
 40
0.0
  9
$USERR5
 40
0.0
  9
$WORLDVIEW
 70
     1
  9
$SHADEDGE
 70
     3
  9
$SHADEDIF
 70
    70
  9
$TILEMODE
 70
     1
  9
$MAXACTVP
 70
    64
  9
$PINSBASE
 10
0.0
 20
0.0
 30
0.0
  9
$PLIMCHECK
 70
     0
  9
$PEXTMIN
 10
1.000000000000000E+20
 20
1.000000000000000E+20
 30
1.000000000000000E+20
  9
$PEXTMAX
 10
-1.000000000000000E+20
 20
-1.000000000000000E+20
 30
-1.000000000000000E+20
  9
$PLIMMIN
 10
0.0
 20
0.0
  9
$PLIMMAX
 10
420.0
 20
297.0
  9
$UNITMODE
 70
     0
  9
$VISRETAIN
 70
     1
  9
$PLINEGEN
 70
     0
  9
$PSLTSCALE
 70
     1
  9
$TREEDEPTH
 70
  3020
  9
$PICKSTYLE
 70
     1
  9
$CMLSTYLE
  2
STANDARD
  9
$CMLJUST
 70
     0
  9
$CMLSCALE
 40
20.0
  9
$PROXYGRAPHICS
 70
     1
  9
$MEASUREMENT
 70
     1
  0
ENDSEC
  0
SECTION
  2
CLASSES
  0
CLASS
  1
ACDBDICTIONARYWDFLT
  2
AcDbDictionaryWithDefault
  3
ObjectDBX Classes
 90
        0
280
     0
281
     0
  0
CLASS
  1
VISUALSTYLE
  2
AcDbVisualStyle
  3
ObjectDBX Classes
 90
     4095
280
     0
281
     0
  0
CLASS
  1
MATERIAL
  2
AcDbMaterial
  3
ObjectDBX Classes
 90
     1153
280
     0
281
     0
  0
CLASS
  1
SCALE
  2
AcDbScale
  3
ObjectDBX Classes
 90
     1153
280
     0
281
     0
  0
CLASS
  1
TABLESTYLE
  2
AcDbTableStyle
  3
ObjectDBX Classes
 90
     4095
280
     0
281
     0
  0
CLASS
  1
MLEADERSTYLE
  2
AcDbMLeaderStyle
  3
ACDB_MLEADERSTYLE_CLASS
 90
     4095
280
     0
281
     0
  0
CLASS
  1
SUN
  2
AcDbSun
  3
SCENEOE
 90
     1153
280
     0
281
     0
  0
CLASS
  1
DICTIONARYVAR
  2
AcDbDictionaryVar
  3
ObjectDBX Classes
 90
        0
280
     0
281
     0
  0
CLASS
  1
XRECORD
  2
AcDbXrecord
  3
ObjectDBX Classes
 90
        0
280
     0
281
     0
  0
CLASS
  1
LWPOLYLINE
  2
AcDbPolyline
  3
ObjectDBX Classes
 90
        0
280
     0
281
     1
  0
CLASS
  1
HATCH
  2
AcDbHatch
  3
ObjectDBX Classes
 90
        0
280
     0
281
     1
  0
CLASS
  1
ACDBPLACEHOLDER
  2
AcDbPlaceHolder
  3
ObjectDBX Classes
 90
        0
280
     0
281
     0
  0
CLASS
  1
LAYOUT
  2
AcDbLayout
  3
ObjectDBX Classes
 90
        0
280
     0
281
     0
  0
ENDSEC
  0
SECTION
  2
TABLES
  0
TABLE
  2
VPORT
  5
8
102
{ACAD_XDICTIONARY
360
521
102
}
330
0
100
AcDbSymbolTable
 70
     1
  0
VPORT
  5
29
330
8
100
AcDbSymbolTableRecord
100
AcDbViewportTableRecord
  2
*ACTIVE
 70
     0
 10
0.0
 20
0.0
 11
1.0
 21
1.0
 12
630.0
 22
445.5
 13
0.0
 23
0.0
 14
10.0
 24
10.0
 15
10.0
 25
10.0
 16
0.0
 26
0.0
 36
1.0
 17
0.0
 27
0.0
 37
0.0
 40
831.0
 41
1.444043321299639
 42
50.0
 43
0.0
 44
0.0
 50
0.0
 51
0.0
 71
     0
 72
  1000
 73
     1
 74
     3
 75
     0
 76
     0
 77
     0
 78
     0
  0
ENDTAB
  0
TABLE
  2
LTYPE
  5
5
330
0
100
AcDbSymbolTable
 70
     7
  0
LTYPE
  5
14
330
5
100
AcDbSymbolTableRecord
100
AcDbLinetypeTableRecord
  2
BYBLOCK
 70
     0
  3

 72
    65
 73
     0
 40
0.0
  0
LTYPE
  5
15
330
5
100
AcDbSymbolTableRecord
100
AcDbLinetypeTableRecord
  2
BYLAYER
 70
     0
  3

 72
    65
 73
     0
 40
0.0
  0
LTYPE
  5
16
330
5
100
AcDbSymbolTableRecord
100
AcDbLinetypeTableRecord
  2
CONTINUOUS
 70
     0
  3
Solid line
 72
    65
 73
     0
 40
0.0
  0
LTYPE
  5
6E
330
5
100
AcDbSymbolTableRecord
100
AcDbLinetypeTableRecord
  2
EXLTYPE0
 70
     0
  3
破線
 72
    65
 73
     2
 40
4.0
 49
3.0
 74
     0
 49
-1.0
 74
     0
  0
LTYPE
  5
6F
330
5
100
AcDbSymbolTableRecord
100
AcDbLinetypeTableRecord
  2
EXLTYPE1
 70
     0
  3
点線
 72
    65
 73
     2
 40
2.0
 49
1.0
 74
     0
 49
-1.0
 74
     0
  0
LTYPE
  5
70
330
5
100
AcDbSymbolTableRecord
100
AcDbLinetypeTableRecord
  2
EXLTYPE2
 70
     0
  3
一点鎖線
 72
    65
 73
     4
 40
13.0
 49
10.0
 74
     0
 49
-1.0
 74
     0
 49
1.0
 74
     0
 49
-1.0
 74
     0
  0
LTYPE
  5
71
330
5
100
AcDbSymbolTableRecord
100
AcDbLinetypeTableRecord
  2
EXLTYPE3
 70
     0
  3
二点鎖線
 72
    65
 73
     6
 40
15.0
 49
10.0
 74
     0
 49
-1.0
 74
     0
 49
1.0
 74
     0
 49
-1.0
 74
     0
 49
1.0
 74
     0
 49
-1.0
 74
     0
  0
LTYPE
  5
72
330
5
100
AcDbSymbolTableRecord
100
AcDbLinetypeTableRecord
  2
EXLTYPE4
 70
     0
  3
一点鎖線2
 72
    65
 73
     4
 40
3.5
 49
2.0
 74
     0
 49
-0.5
 74
     0
 49
0.5
 74
     0
 49
-0.5
 74
     0
  0
LTYPE
  5
73
330
5
100
AcDbSymbolTableRecord
100
AcDbLinetypeTableRecord
  2
EXLTYPE5
 70
     0
  3
二点鎖線2
 72
    65
 73
     6
 40
4.5
 49
2.0
 74
     0
 49
-0.5
 74
     0
 49
0.5
 74
     0
 49
-0.5
 74
     0
 49
0.5
 74
     0
 49
-0.5
 74
     0
  0
ENDTAB
  0
TABLE
  2
LAYER
  5
2
330
0
100
AcDbSymbolTable
 70
     4
  0
LAYER
  5
10
330
2
100
AcDbSymbolTableRecord
100
AcDbLayerTableRecord
  2
0
 70
     0
 62
     7
  6
CONTINUOUS
  0
LAYER
  5
76
330
2
100
AcDbSymbolTableRecord
100
AcDbLayerTableRecord
  2
図面枠
 70
     4
 62
     7
  6
CONTINUOUS
  0
LAYER
  5
77
330
2
100
AcDbSymbolTableRecord
100
AcDbLayerTableRecord
  2
Ｓ_１_１
 70
     0
 62
     7
  6
CONTINUOUS
  0
LAYER
  5
12A
330
2
100
AcDbSymbolTableRecord
100
AcDbLayerTableRecord
  2
DEFPOINTS
 70
     0
 62
     7
  6
CONTINUOUS
  0
ENDTAB
  0
TABLE
  2
STYLE
  5
3
330
0
100
AcDbSymbolTable
 70
     5
  0
STYLE
  5
11
330
3
100
AcDbSymbolTableRecord
100
AcDbTextStyleTableRecord
  2
STANDARD
 70
     0
 40
0.0
 41
1.0
 50
0.0
 71
     0
 42
2.5
  3
monotxt
  4
extfont
  0
STYLE
  5
74
330
3
100
AcDbSymbolTableRecord
100
AcDbTextStyleTableRecord
  2
EXCADSTD
 70
     0
 40
0.0
 41
1.0
 50
0.0
 71
     0
 42
2.5
  3
monotxt
  4
extfont
  0
STYLE
  5
75
330
3
100
AcDbSymbolTableRecord
100
AcDbTextStyleTableRecord
  2
EXCADVERT
 70
     4
 40
0.0
 41
1.0
 50
0.0
 71
     0
 42
2.5
  3
monotxt
  4
extfont
  0
STYLE
  5
DA
330
3
100
AcDbSymbolTableRecord
100
AcDbTextStyleTableRecord
  2
EXCADTTF1
 70
     0
 40
0.0
 41
1.0
 50
0.0
 71
     0
 42
2.5
  3
msgothic.ttc
  4

1001
ACAD
1000
MS Gothic
1071
    32817
  0
STYLE
  5
128
330
3
100
AcDbSymbolTableRecord
100
AcDbTextStyleTableRecord
  2
EXCADDIM1
 70
     0
 40
0.0
 41
1.0
 50
0.0
 71
     0
 42
2.5
  3
msgothic.ttc
  4

1001
ACAD
1000
MS Gothic
1071
    32817
  0
ENDTAB
  0
TABLE
  2
VIEW
  5
6
330
0
100
AcDbSymbolTable
 70
     0
  0
ENDTAB
  0
TABLE
  2
UCS
  5
7
330
0
100
AcDbSymbolTable
 70
     0
  0
ENDTAB
  0
TABLE
  2
APPID
  5
9
330
0
100
AcDbSymbolTable
 70
     2
  0
APPID
  5
12
330
9
100
AcDbSymbolTableRecord
100
AcDbRegAppTableRecord
  2
ACAD
 70
     0
  0
APPID
  5
52B
330
9
100
AcDbSymbolTableRecord
100
AcDbRegAppTableRecord
  2
ACAD_MLEADERVER
 70
     0
  0
ENDTAB
  0
TABLE
  2
DIMSTYLE
  5
A
330
0
100
AcDbSymbolTable
 70
     1
  0
DIMSTYLE
105
27
102
{ACAD_REACTORS
330
129
330
134
330
141
330
14C
330
158
330
165
330
173
330
180
330
18C
330
38B
330
40E
330
423
330
433
330
440
330
44D
330
45A
330
4CD
330
4DA
330
4E7
102
}
330
A
100
AcDbSymbolTableRecord
100
AcDbDimStyleTableRecord
  2
ISO-25
 70
     0
  3

  4

  5

  6

  7

 40
1.0
 41
2.5
 42
0.625
 43
3.75
 44
1.25
 45
0.0
 46
0.0
 47
0.0
 48
0.0
140
2.5
141
2.5
142
0.0
143
0.03937007874016
144
1.0
145
0.0
146
1.0
147
0.625
 71
     0
 72
     0
 73
     0
 74
     0
 75
     0
 76
     0
 77
     1
 78
     8
170
     0
171
     3
172
     1
173
     0
174
     0
175
     0
176
     0
177
     0
178
     0
270
     2
271
     2
272
     2
273
     2
274
     3
340
11
275
     0
280
     0
281
     0
282
     0
283
     0
284
     8
285
     0
286
     0
287
     5
288
     0
  0
ENDTAB
  0
TABLE
  2
BLOCK_RECORD
  5
1
330
0
100
AcDbSymbolTable
 70
    33
  0
BLOCK_RECORD
  5
1F
330
1
100
AcDbSymbolTableRecord
100
AcDbBlockTableRecord
  2
*MODEL_SPACE
  0
BLOCK_RECORD
  5
1B
330
1
100
AcDbSymbolTableRecord
100
AcDbBlockTableRecord
  2
*PAPER_SPACE
  0
BLOCK_RECORD
  5
78
330
1
100
AcDbSymbolTableRecord
100
AcDbBlockTableRecord
  2
EX_NORM
  0
BLOCK_RECORD
  5
7B
330
1
100
AcDbSymbolTableRecord
100
AcDbBlockTableRecord
  2
EX_BNORM
  0
BLOCK_RECORD
  5
7E
330
1
100
AcDbSymbolTableRecord
100
AcDbBlockTableRecord
  2
EX_BCIR
  0
BLOCK_RECORD
  5
81
330
1
100
AcDbSymbolTableRecord
100
AcDbBlockTableRecord
  2
EX_RCIVIL
  0
BLOCK_RECORD
  5
84
330
1
100
AcDbSymbolTableRecord
100
AcDbBlockTableRecord
  2
EX_SLANT
  0
BLOCK_RECORD
  5
87
330
1
100
AcDbSymbolTableRecord
100
AcDbBlockTableRecord
  2
EX_NONE
  0
BLOCK_RECORD
  5
8A
330
1
100
AcDbSymbolTableRecord
100
AcDbBlockTableRecord
  2
EX_CIVIL
  0
BLOCK_RECORD
  5
8D
330
1
100
AcDbSymbolTableRecord
100
AcDbBlockTableRecord
  2
EX_WCIR
  0
BLOCK_RECORD
  5
90
330
1
100
AcDbSymbolTableRecord
100
AcDbBlockTableRecord
  2
EX_WCIR2
  0
BLOCK_RECORD
  5
93
330
1
100
AcDbSymbolTableRecord
100
AcDbBlockTableRecord
  2
EX_WNORM
  0
BLOCK_RECORD
  5
96
330
1
100
AcDbSymbolTableRecord
100
AcDbBlockTableRecord
  2
EX_NNORM
  0
BLOCK_RECORD
  5
99
330
1
100
AcDbSymbolTableRecord
100
AcDbBlockTableRecord
  2
EX_BBOX
  0
BLOCK_RECORD
  5
9C
330
1
100
AcDbSymbolTableRecord
100
AcDbBlockTableRecord
  2
EX_WBOX
  0
BLOCK_RECORD
  5
9F
330
1
100
AcDbSymbolTableRecord
100
AcDbBlockTableRecord
  2
EX_INTEGRAL
  0
BLOCK_RECORD
  5
12B
330
1
100
AcDbSymbolTableRecord
100
AcDbBlockTableRecord
  2
*D15
  0
BLOCK_RECORD
  5
135
330
1
100
AcDbSymbolTableRecord
100
AcDbBlockTableRecord
  2
*D16
  0
BLOCK_RECORD
  5
142
330
1
100
AcDbSymbolTableRecord
100
AcDbBlockTableRecord
  2
*D17
  0
BLOCK_RECORD
  5
14D
330
1
100
AcDbSymbolTableRecord
100
AcDbBlockTableRecord
  2
*D18
  0
BLOCK_RECORD
  5
159
330
1
100
AcDbSymbolTableRecord
100
AcDbBlockTableRecord
  2
*D19
  0
BLOCK_RECORD
  5
166
330
1
100
AcDbSymbolTableRecord
100
AcDbBlockTableRecord
  2
*D20
  0
BLOCK_RECORD
  5
174
330
1
100
AcDbSymbolTableRecord
100
AcDbBlockTableRecord
  2
*D21
  0
BLOCK_RECORD
  5
181
330
1
100
AcDbSymbolTableRecord
100
AcDbBlockTableRecord
  2
*D22
  0
BLOCK_RECORD
  5
18D
330
1
100
AcDbSymbolTableRecord
100
AcDbBlockTableRecord
  2
*D23
  0
BLOCK_RECORD
  5
38C
330
1
100
AcDbSymbolTableRecord
100
AcDbBlockTableRecord
  2
*D24
  0
BLOCK_RECORD
  5
40F
330
1
100
AcDbSymbolTableRecord
100
AcDbBlockTableRecord
  2
*D25
  0
BLOCK_RECORD
  5
424
330
1
100
AcDbSymbolTableRecord
100
AcDbBlockTableRecord
  2
*D26
  0
BLOCK_RECORD
  5
434
330
1
100
AcDbSymbolTableRecord
100
AcDbBlockTableRecord
  2
*D27
  0
BLOCK_RECORD
  5
441
330
1
100
AcDbSymbolTableRecord
100
AcDbBlockTableRecord
  2
*D28
  0
BLOCK_RECORD
  5
44E
330
1
100
AcDbSymbolTableRecord
100
AcDbBlockTableRecord
  2
*D29
  0
BLOCK_RECORD
  5
45B
330
1
100
AcDbSymbolTableRecord
100
AcDbBlockTableRecord
  2
*D30
  0
BLOCK_RECORD
  5
4CE
330
1
100
AcDbSymbolTableRecord
100
AcDbBlockTableRecord
  2
*D31
  0
BLOCK_RECORD
  5
4DB
330
1
100
AcDbSymbolTableRecord
100
AcDbBlockTableRecord
  2
*D32
  0
BLOCK_RECORD
  5
4E8
330
1
100
AcDbSymbolTableRecord
100
AcDbBlockTableRecord
  2
*D33
  0
ENDTAB
  0
ENDSEC
  0
SECTION
  2
BLOCKS
  0
BLOCK
  5
20
330
1F
100
AcDbEntity
  8
0
100
AcDbBlockBegin
  2
*MODEL_SPACE
 70
     0
 10
0.0
 20
0.0
 30
0.0
  3
*MODEL_SPACE
  1

  0
ENDBLK
  5
21
330
1F
100
AcDbEntity
  8
0
100
AcDbBlockEnd
  0
BLOCK
  5
1C
330
1B
100
AcDbEntity
 67
     1
  8
0
100
AcDbBlockBegin
  2
*PAPER_SPACE
 70
     0
 10
0.0
 20
0.0
 30
0.0
  3
*PAPER_SPACE
  1

  0
ENDBLK
  5
1D
330
1B
100
AcDbEntity
 67
     1
  8
0
100
AcDbBlockEnd
  0
BLOCK
  5
79
330
78
100
AcDbEntity
  8
0
100
AcDbBlockBegin
  2
EX_NORM
 70
     0
 10
0.0
 20
0.0
 30
0.0
  3
EX_NORM
  1

  0
LINE
  5
A2
330
78
100
AcDbEntity
  8
0
  6
CONTINUOUS
 62
     0
100
AcDbLine
 10
0.0
 20
0.0
 30
0.0
 11
-1.0
 21
0.0
 31
0.0
  0
LINE
  5
A3
330
78
100
AcDbEntity
  8
0
  6
CONTINUOUS
 62
     0
100
AcDbLine
 10
0.0
 20
0.0
 30
0.0
 11
-1.0
 21
0.166666667
 31
0.0
  0
LINE
  5
A4
330
78
100
AcDbEntity
  8
0
  6
CONTINUOUS
 62
     0
100
AcDbLine
 10
0.0
 20
0.0
 30
0.0
 11
-1.0
 21
-0.166666667
 31
0.0
  0
ENDBLK
  5
7A
330
78
100
AcDbEntity
  8
0
100
AcDbBlockEnd
  0
BLOCK
  5
7C
330
7B
100
AcDbEntity
  8
0
100
AcDbBlockBegin
  2
EX_BNORM
 70
     0
 10
0.0
 20
0.0
 30
0.0
  3
EX_BNORM
  1

  0
LINE
  5
A5
330
7B
100
AcDbEntity
  8
0
  6
CONTINUOUS
 62
     0
100
AcDbLine
 10
0.0
 20
0.0
 30
0.0
 11
-1.0
 21
0.0
 31
0.0
  0
LINE
  5
A6
330
7B
100
AcDbEntity
  8
0
  6
CONTINUOUS
 62
     0
100
AcDbLine
 10
0.0
 20
0.0
 30
0.0
 11
-1.0
 21
0.166666667
 31
0.0
  0
LINE
  5
A7
330
7B
100
AcDbEntity
  8
0
  6
CONTINUOUS
 62
     0
100
AcDbLine
 10
0.0
 20
0.0
 30
0.0
 11
-1.0
 21
-0.166666667
 31
0.0
  0
LINE
  5
A8
330
7B
100
AcDbEntity
  8
0
  6
CONTINUOUS
 62
     0
100
AcDbLine
 10
0.0
 20
0.0
 30
0.0
 11
-1.0
 21
0.083333333
 31
0.0
  0
LINE
  5
A9
330
7B
100
AcDbEntity
  8
0
  6
CONTINUOUS
 62
     0
100
AcDbLine
 10
0.0
 20
0.0
 30
0.0
 11
-1.0
 21
-0.083333333
 31
0.0
  0
LINE
  5
AA
330
7B
100
AcDbEntity
  8
0
  6
CONTINUOUS
 62
     0
100
AcDbLine
 10
-1.0
 20
0.166666667
 30
0.0
 11
-1.0
 21
-0.166666667
 31
0.0
  0
ENDBLK
  5
7D
330
7B
100
AcDbEntity
  8
0
100
AcDbBlockEnd
  0
BLOCK
  5
7F
330
7E
100
AcDbEntity
  8
0
100
AcDbBlockBegin
  2
EX_BCIR
 70
     0
 10
0.0
 20
0.0
 30
0.0
  3
EX_BCIR
  1

  0
LINE
  5
AB
330
7E
100
AcDbEntity
  8
0
  6
CONTINUOUS
 62
     0
100
AcDbLine
 10
0.0
 20
0.0
 30
0.0
 11
-1.0
 21
0.0
 31
0.0
  0
CIRCLE
  5
AC
330
7E
100
AcDbEntity
  8
0
  6
CONTINUOUS
 62
     0
100
AcDbCircle
 10
0.0
 20
0.0
 30
0.0
 40
0.5
  0
CIRCLE
  5
AD
330
7E
100
AcDbEntity
  8
0
  6
CONTINUOUS
 62
     0
100
AcDbCircle
 10
0.0
 20
0.0
 30
0.0
 40
0.25
  0
ENDBLK
  5
80
330
7E
100
AcDbEntity
  8
0
100
AcDbBlockEnd
  0
BLOCK
  5
82
330
81
100
AcDbEntity
  8
0
100
AcDbBlockBegin
  2
EX_RCIVIL
 70
     0
 10
0.0
 20
0.0
 30
0.0
  3
EX_RCIVIL
  1

  0
LINE
  5
AE
330
81
100
AcDbEntity
  8
0
  6
CONTINUOUS
 62
     0
100
AcDbLine
 10
0.0
 20
0.0
 30
0.0
 11
-1.0
 21
0.0
 31
0.0
  0
LINE
  5
AF
330
81
100
AcDbEntity
  8
0
  6
CONTINUOUS
 62
     0
100
AcDbLine
 10
-1.0
 20
-0.25
 30
0.0
 11
0.0
 21
-0.25
 31
0.0
  0
LINE
  5
B0
330
81
100
AcDbEntity
  8
0
  6
CONTINUOUS
 62
     0
100
AcDbLine
 10
-1.0
 20
-0.125
 30
0.0
 11
0.0
 21
-0.125
 31
0.0
  0
ENDBLK
  5
83
330
81
100
AcDbEntity
  8
0
100
AcDbBlockEnd
  0
BLOCK
  5
85
330
84
100
AcDbEntity
  8
0
100
AcDbBlockBegin
  2
EX_SLANT
 70
     0
 10
0.0
 20
0.0
 30
0.0
  3
EX_SLANT
  1

  0
LINE
  5
B1
330
84
100
AcDbEntity
  8
0
  6
CONTINUOUS
 62
     0
100
AcDbLine
 10
0.0
 20
0.0
 30
0.0
 11
-1.0
 21
0.0
 31
0.0
  0
LINE
  5
B2
330
84
100
AcDbEntity
  8
0
  6
CONTINUOUS
 62
     0
100
AcDbLine
 10
0.707106781
 20
0.707106781
 30
0.0
 11
-0.707106781
 21
-0.707106781
 31
0.0
  0
ENDBLK
  5
86
330
84
100
AcDbEntity
  8
0
100
AcDbBlockEnd
  0
BLOCK
  5
88
330
87
100
AcDbEntity
  8
0
100
AcDbBlockBegin
  2
EX_NONE
 70
     0
 10
0.0
 20
0.0
 30
0.0
  3
EX_NONE
  1

  0
LINE
  5
B3
330
87
100
AcDbEntity
  8
0
  6
CONTINUOUS
 62
     0
100
AcDbLine
 10
0.0
 20
0.0
 30
0.0
 11
-1.0
 21
0.0
 31
0.0
  0
ENDBLK
  5
89
330
87
100
AcDbEntity
  8
0
100
AcDbBlockEnd
  0
BLOCK
  5
8B
330
8A
100
AcDbEntity
  8
0
100
AcDbBlockBegin
  2
EX_CIVIL
 70
     0
 10
0.0
 20
0.0
 30
0.0
  3
EX_CIVIL
  1

  0
LINE
  5
B4
330
8A
100
AcDbEntity
  8
0
  6
CONTINUOUS
 62
     0
100
AcDbLine
 10
0.0
 20
0.0
 30
0.0
 11
-1.0
 21
0.0
 31
0.0
  0
LINE
  5
B5
330
8A
100
AcDbEntity
  8
0
  6
CONTINUOUS
 62
     0
100
AcDbLine
 10
-1.0
 20
0.25
 30
0.0
 11
0.0
 21
0.25
 31
0.0
  0
LINE
  5
B6
330
8A
100
AcDbEntity
  8
0
  6
CONTINUOUS
 62
     0
100
AcDbLine
 10
-1.0
 20
0.125
 30
0.0
 11
0.0
 21
0.125
 31
0.0
  0
ENDBLK
  5
8C
330
8A
100
AcDbEntity
  8
0
100
AcDbBlockEnd
  0
BLOCK
  5
8E
330
8D
100
AcDbEntity
  8
0
100
AcDbBlockBegin
  2
EX_WCIR
 70
     0
 10
0.0
 20
0.0
 30
0.0
  3
EX_WCIR
  1

  0
LINE
  5
B7
330
8D
100
AcDbEntity
  8
0
  6
CONTINUOUS
 62
     0
100
AcDbLine
 10
0.0
 20
0.0
 30
0.0
 11
-1.0
 21
0.0
 31
0.0
  0
CIRCLE
  5
B8
330
8D
100
AcDbEntity
  8
0
  6
CONTINUOUS
 62
     0
100
AcDbCircle
 10
0.0
 20
0.0
 30
0.0
 40
0.5
  0
ENDBLK
  5
8F
330
8D
100
AcDbEntity
  8
0
100
AcDbBlockEnd
  0
BLOCK
  5
91
330
90
100
AcDbEntity
  8
0
100
AcDbBlockBegin
  2
EX_WCIR2
 70
     0
 10
0.0
 20
0.0
 30
0.0
  3
EX_WCIR2
  1

  0
LINE
  5
B9
330
90
100
AcDbEntity
  8
0
  6
CONTINUOUS
 62
     0
100
AcDbLine
 10
-0.5
 20
0.0
 30
0.0
 11
-1.0
 21
0.0
 31
0.0
  0
CIRCLE
  5
BA
330
90
100
AcDbEntity
  8
0
  6
CONTINUOUS
 62
     0
100
AcDbCircle
 10
0.0
 20
0.0
 30
0.0
 40
0.5
  0
ENDBLK
  5
92
330
90
100
AcDbEntity
  8
0
100
AcDbBlockEnd
  0
BLOCK
  5
94
330
93
100
AcDbEntity
  8
0
100
AcDbBlockBegin
  2
EX_WNORM
 70
     0
 10
0.0
 20
0.0
 30
0.0
  3
EX_WNORM
  1

  0
LINE
  5
BB
330
93
100
AcDbEntity
  8
0
  6
CONTINUOUS
 62
     0
100
AcDbLine
 10
-1.0
 20
0.0
 30
0.0
 11
-1.0
 21
0.0
 31
0.0
  0
LINE
  5
BC
330
93
100
AcDbEntity
  8
0
  6
CONTINUOUS
 62
     0
100
AcDbLine
 10
0.0
 20
0.0
 30
0.0
 11
-1.0
 21
0.166666667
 31
0.0
  0
LINE
  5
BD
330
93
100
AcDbEntity
  8
0
  6
CONTINUOUS
 62
     0
100
AcDbLine
 10
0.0
 20
0.0
 30
0.0
 11
-1.0
 21
-0.166666667
 31
0.0
  0
LINE
  5
BE
330
93
100
AcDbEntity
  8
0
  6
CONTINUOUS
 62
     0
100
AcDbLine
 10
-1.0
 20
0.166666667
 30
0.0
 11
-1.0
 21
-0.166666667
 31
0.0
  0
ENDBLK
  5
95
330
93
100
AcDbEntity
  8
0
100
AcDbBlockEnd
  0
BLOCK
  5
97
330
96
100
AcDbEntity
  8
0
100
AcDbBlockBegin
  2
EX_NNORM
 70
     0
 10
0.0
 20
0.0
 30
0.0
  3
EX_NNORM
  1

  0
LINE
  5
BF
330
96
100
AcDbEntity
  8
0
  6
CONTINUOUS
 62
     0
100
AcDbLine
 10
0.0
 20
0.0
 30
0.0
 11
-1.0
 21
0.0
 31
0.0
  0
LINE
  5
C0
330
96
100
AcDbEntity
  8
0
  6
CONTINUOUS
 62
     0
100
AcDbLine
 10
0.0
 20
0.0
 30
0.0
 11
-1.0
 21
0.166666667
 31
0.0
  0
LINE
  5
C1
330
96
100
AcDbEntity
  8
0
  6
CONTINUOUS
 62
     0
100
AcDbLine
 10
0.0
 20
0.0
 30
0.0
 11
-1.0
 21
-0.166666667
 31
0.0
  0
LINE
  5
C2
330
96
100
AcDbEntity
  8
0
  6
CONTINUOUS
 62
     0
100
AcDbLine
 10
-1.0
 20
0.166666667
 30
0.0
 11
-1.0
 21
-0.166666667
 31
0.0
  0
ENDBLK
  5
98
330
96
100
AcDbEntity
  8
0
100
AcDbBlockEnd
  0
BLOCK
  5
9A
330
99
100
AcDbEntity
  8
0
100
AcDbBlockBegin
  2
EX_BBOX
 70
     0
 10
0.0
 20
0.0
 30
0.0
  3
EX_BBOX
  1

  0
LINE
  5
C3
330
99
100
AcDbEntity
  8
0
  6
CONTINUOUS
 62
     0
100
AcDbLine
 10
0.0
 20
0.0
 30
0.0
 11
-1.0
 21
0.0
 31
0.0
  0
LINE
  5
C4
330
99
100
AcDbEntity
  8
0
  6
CONTINUOUS
 62
     0
100
AcDbLine
 10
-0.5
 20
0.5
 30
0.0
 11
0.5
 21
0.5
 31
0.0
  0
LINE
  5
C5
330
99
100
AcDbEntity
  8
0
  6
CONTINUOUS
 62
     0
100
AcDbLine
 10
0.5
 20
0.5
 30
0.0
 11
0.5
 21
-0.5
 31
0.0
  0
LINE
  5
C6
330
99
100
AcDbEntity
  8
0
  6
CONTINUOUS
 62
     0
100
AcDbLine
 10
0.5
 20
-0.5
 30
0.0
 11
-0.5
 21
-0.5
 31
0.0
  0
LINE
  5
C7
330
99
100
AcDbEntity
  8
0
  6
CONTINUOUS
 62
     0
100
AcDbLine
 10
-0.5
 20
-0.5
 30
0.0
 11
-0.5
 21
0.5
 31
0.0
  0
LINE
  5
C8
330
99
100
AcDbEntity
  8
0
  6
CONTINUOUS
 62
     0
100
AcDbLine
 10
-0.25
 20
0.25
 30
0.0
 11
0.25
 21
0.25
 31
0.0
  0
LINE
  5
C9
330
99
100
AcDbEntity
  8
0
  6
CONTINUOUS
 62
     0
100
AcDbLine
 10
0.25
 20
0.25
 30
0.0
 11
0.25
 21
-0.25
 31
0.0
  0
LINE
  5
CA
330
99
100
AcDbEntity
  8
0
  6
CONTINUOUS
 62
     0
100
AcDbLine
 10
0.25
 20
-0.25
 30
0.0
 11
-0.25
 21
-0.25
 31
0.0
  0
LINE
  5
CB
330
99
100
AcDbEntity
  8
0
  6
CONTINUOUS
 62
     0
100
AcDbLine
 10
-0.25
 20
-0.25
 30
0.0
 11
-0.25
 21
0.25
 31
0.0
  0
ENDBLK
  5
9B
330
99
100
AcDbEntity
  8
0
100
AcDbBlockEnd
  0
BLOCK
  5
9D
330
9C
100
AcDbEntity
  8
0
100
AcDbBlockBegin
  2
EX_WBOX
 70
     0
 10
0.0
 20
0.0
 30
0.0
  3
EX_WBOX
  1

  0
LINE
  5
CC
330
9C
100
AcDbEntity
  8
0
  6
CONTINUOUS
 62
     0
100
AcDbLine
 10
-0.5
 20
0.0
 30
0.0
 11
-1.0
 21
0.0
 31
0.0
  0
LINE
  5
CD
330
9C
100
AcDbEntity
  8
0
  6
CONTINUOUS
 62
     0
100
AcDbLine
 10
-0.5
 20
0.5
 30
0.0
 11
0.5
 21
0.5
 31
0.0
  0
LINE
  5
CE
330
9C
100
AcDbEntity
  8
0
  6
CONTINUOUS
 62
     0
100
AcDbLine
 10
0.5
 20
0.5
 30
0.0
 11
0.5
 21
-0.5
 31
0.0
  0
LINE
  5
CF
330
9C
100
AcDbEntity
  8
0
  6
CONTINUOUS
 62
     0
100
AcDbLine
 10
0.5
 20
-0.5
 30
0.0
 11
-0.5
 21
-0.5
 31
0.0
  0
LINE
  5
D0
330
9C
100
AcDbEntity
  8
0
  6
CONTINUOUS
 62
     0
100
AcDbLine
 10
-0.5
 20
-0.5
 30
0.0
 11
-0.5
 21
0.5
 31
0.0
  0
ENDBLK
  5
9E
330
9C
100
AcDbEntity
  8
0
100
AcDbBlockEnd
  0
BLOCK
  5
A0
330
9F
100
AcDbEntity
  8
0
100
AcDbBlockBegin
  2
EX_INTEGRAL
 70
     0
 10
0.0
 20
0.0
 30
0.0
  3
EX_INTEGRAL
  1

  0
LINE
  5
D1
330
9F
100
AcDbEntity
  8
0
  6
CONTINUOUS
 62
     0
100
AcDbLine
 10
0.0
 20
0.0
 30
0.0
 11
-1.0
 21
0.0
 31
0.0
  0
ARC
  5
D2
330
9F
100
AcDbEntity
  8
0
  6
CONTINUOUS
 62
     0
100
AcDbCircle
 10
0.542115
 20
0.164992
 30
0.0
 40
0.56667
100
AcDbArc
 50
73.07249033629006
 51
196.9275130221199
  0
ARC
  5
D3
330
9F
100
AcDbEntity
  8
0
  6
CONTINUOUS
 62
     0
100
AcDbCircle
 10
-0.542115
 20
-0.164992
 30
0.0
 40
0.56667
100
AcDbArc
 50
253.0724869220464
 51
16.9275130559125
  0
ENDBLK
  5
A1
330
9F
100
AcDbEntity
  8
0
100
AcDbBlockEnd
  0
BLOCK
  5
12C
330
12B
100
AcDbEntity
  8
0
100
AcDbBlockBegin
  2
*D15
 70
     1
 10
0.0
 20
0.0
 30
0.0
  3
*D15
  1

  0
LINE
  5
12E
330
12B
100
AcDbEntity
  8
Ｓ_１_１
  6
CONTINUOUS
 62
     2
100
AcDbLine
 10
578.6798564076131
 20
604.8971951658169
 30
0.0
 11
501.320180592387
 21
555.1027948341829
 31
0.0
  0
MTEXT
  5
12F
330
12B
100
AcDbEntity
  8
Ｓ_１_１
 62
     2
100
AcDbMText
 10
535.5347602353324
 20
586.9371391263546
 30
0.0
 40
10.38871247113164
 41
0.0
 71
     5
 72
     1
  1
　　　　%%c110
  7
EXCADDIM1
 11
0.8408659547096579
 21
0.5412434260203218
 31
0.0
  0
INSERT
  5
130
330
12B
100
AcDbEntity
  8
Ｓ_１_１
 62
     2
100
AcDbBlockReference
  2
EX_NORM
 10
493.7523870000001
 20
550.231604
 30
0.0
 41
9.0
 42
9.0
 43
9.0
 50
212.7683244197783
  0
INSERT
  5
131
330
12B
100
AcDbEntity
  8
Ｓ_１_１
 62
     2
100
AcDbBlockReference
  2
EX_NORM
 10
586.24765
 20
609.7683859999999
 30
0.0
 41
9.0
 42
9.0
 43
9.0
 50
32.76832441977831
  0
POINT
  5
132
330
12B
100
AcDbEntity
  8
DEFPOINTS
 62
     0
100
AcDbPoint
 10
586.24765
 20
609.7683859999999
 30
0.0
  0
POINT
  5
133
330
12B
100
AcDbEntity
  8
DEFPOINTS
 62
     0
100
AcDbPoint
 10
493.7523870000001
 20
550.231604
 30
0.0
  0
ENDBLK
  5
12D
330
12B
100
AcDbEntity
  8
0
100
AcDbBlockEnd
  0
BLOCK
  5
136
330
135
100
AcDbEntity
  8
0
100
AcDbBlockBegin
  2
*D16
 70
     1
 10
0.0
 20
0.0
 30
0.0
  3
*D16
  1

  0
LINE
  5
138
330
135
100
AcDbEntity
  8
Ｓ_１_１
  6
CONTINUOUS
 62
     2
100
AcDbLine
 10
437.4999659999999
 20
179.9999999999999
 30
0.0
 11
276.9999999999999
 21
179.9999999999999
 31
0.0
  0
LINE
  5
139
330
135
100
AcDbEntity
  8
Ｓ_１_１
  6
CONTINUOUS
 62
     2
100
AcDbLine
 10
380.4999659999999
 20
280.4999909999999
 30
0.0
 11
276.9999999999999
 21
280.4999909999999
 31
0.0
  0
LINE
  5
13A
330
135
100
AcDbEntity
  8
Ｓ_１_１
  6
CONTINUOUS
 62
     2
100
AcDbLine
 10
280.0
 20
188.9999999999999
 30
0.0
 11
280.0
 21
271.4999909999999
 31
0.0
  0
INSERT
  5
13B
330
135
100
AcDbEntity
  8
Ｓ_１_１
 62
     2
100
AcDbBlockReference
  2
EX_NORM
 10
280.0
 20
179.9999999999999
 30
0.0
 41
9.0
 42
9.0
 43
9.0
 50
270.0
  0
INSERT
  5
13C
330
135
100
AcDbEntity
  8
Ｓ_１_１
 62
     2
100
AcDbBlockReference
  2
EX_NORM
 10
280.0
 20
280.4999909999999
 30
0.0
 41
9.0
 42
9.0
 43
9.0
 50
90.0
  0
MTEXT
  5
13D
330
135
100
AcDbEntity
  8
Ｓ_１_１
 62
     2
100
AcDbMText
 10
271.75
 20
230.2499954999999
 30
0.0
 40
10.38871247113164
 41
0.0
 71
     5
 72
     1
  1
100.5
  7
EXCADDIM1
 11
0.0
 21
1.0
 31
0.0
  0
POINT
  5
13E
330
135
100
AcDbEntity
  8
DEFPOINTS
 62
     0
100
AcDbPoint
 10
446.999966
 20
179.9999999999999
 30
0.0
  0
POINT
  5
13F
330
135
100
AcDbEntity
  8
DEFPOINTS
 62
     0
100
AcDbPoint
 10
389.999966
 20
280.4999909999999
 30
0.0
  0
POINT
  5
140
330
135
100
AcDbEntity
  8
DEFPOINTS
 62
     0
100
AcDbPoint
 10
280.0
 20
280.4999909999999
 30
0.0
  0
ENDBLK
  5
137
330
135
100
AcDbEntity
  8
0
100
AcDbBlockEnd
  0
BLOCK
  5
143
330
142
100
AcDbEntity
  8
0
100
AcDbBlockBegin
  2
*D17
 70
     1
 10
0.0
 20
0.0
 30
0.0
  3
*D17
  1

  0
LINE
  5
145
330
142
100
AcDbEntity
  8
Ｓ_１_１
  6
CONTINUOUS
 62
     2
100
AcDbLine
 10
300.0
 20
222.4999939999999
 30
0.0
 11
300.0
 21
271.4999909999999
 31
0.0
  0
INSERT
  5
146
330
142
100
AcDbEntity
  8
Ｓ_１_１
 62
     2
100
AcDbBlockReference
  2
EX_NORM
 10
300.0
 20
213.4999939999999
 30
0.0
 41
9.0
 42
9.0
 43
9.0
 50
270.0
  0
INSERT
  5
147
330
142
100
AcDbEntity
  8
Ｓ_１_１
 62
     2
100
AcDbBlockReference
  2
EX_NORM
 10
300.0
 20
280.4999909999999
 30
0.0
 41
9.0
 42
9.0
 43
9.0
 50
90.0
  0
MTEXT
  5
148
330
142
100
AcDbEntity
  8
Ｓ_１_１
 62
     2
100
AcDbMText
 10
291.75
 20
246.9999924999999
 30
0.0
 40
10.38871247113164
 41
0.0
 71
     5
 72
     1
  1
67
  7
EXCADDIM1
 11
0.0
 21
1.0
 31
0.0
  0
POINT
  5
149
330
142
100
AcDbEntity
  8
DEFPOINTS
 62
     0
100
AcDbPoint
 10
422.000011
 20
213.4999939999999
 30
0.0
  0
POINT
  5
14A
330
142
100
AcDbEntity
  8
DEFPOINTS
 62
     0
100
AcDbPoint
 10
389.999966
 20
280.4999909999999
 30
0.0
  0
POINT
  5
14B
330
142
100
AcDbEntity
  8
DEFPOINTS
 62
     0
100
AcDbPoint
 10
300.0
 20
280.4999909999999
 30
0.0
  0
ENDBLK
  5
144
330
142
100
AcDbEntity
  8
0
100
AcDbBlockEnd
  0
BLOCK
  5
14E
330
14D
100
AcDbEntity
  8
0
100
AcDbBlockBegin
  2
*D18
 70
     1
 10
0.0
 20
0.0
 30
0.0
  3
*D18
  1

  0
LINE
  5
150
330
14D
100
AcDbEntity
  8
Ｓ_１_１
  6
CONTINUOUS
 62
     2
100
AcDbLine
 10
417.500011
 20
213.4999939999999
 30
0.0
 11
297.0
 21
213.4999939999999
 31
0.0
  0
LINE
  5
151
330
14D
100
AcDbEntity
  8
Ｓ_１_１
  6
CONTINUOUS
 62
     2
100
AcDbLine
 10
300.0
 20
188.9999999999999
 30
0.0
 11
300.0
 21
204.4999939999999
 31
0.0
  0
INSERT
  5
152
330
14D
100
AcDbEntity
  8
Ｓ_１_１
 62
     2
100
AcDbBlockReference
  2
EX_NORM
 10
300.0
 20
179.9999999999999
 30
0.0
 41
9.0
 42
9.0
 43
9.0
 50
270.0
  0
INSERT
  5
153
330
14D
100
AcDbEntity
  8
Ｓ_１_１
 62
     2
100
AcDbBlockReference
  2
EX_NORM
 10
300.0
 20
213.4999939999999
 30
0.0
 41
9.0
 42
9.0
 43
9.0
 50
90.0
  0
MTEXT
  5
154
330
14D
100
AcDbEntity
  8
Ｓ_１_１
 62
     2
100
AcDbMText
 10
291.75
 20
196.7499969999999
 30
0.0
 40
10.38871247113164
 41
0.0
 71
     5
 72
     1
  1
33.5
  7
EXCADDIM1
 11
0.0
 21
1.0
 31
0.0
  0
POINT
  5
155
330
14D
100
AcDbEntity
  8
DEFPOINTS
 62
     0
100
AcDbPoint
 10
446.999966
 20
179.9999999999999
 30
0.0
  0
POINT
  5
156
330
14D
100
AcDbEntity
  8
DEFPOINTS
 62
     0
100
AcDbPoint
 10
422.000011
 20
213.4999939999999
 30
0.0
  0
POINT
  5
157
330
14D
100
AcDbEntity
  8
DEFPOINTS
 62
     0
100
AcDbPoint
 10
300.0
 20
213.4999939999999
 30
0.0
  0
ENDBLK
  5
14F
330
14D
100
AcDbEntity
  8
0
100
AcDbBlockEnd
  0
BLOCK
  5
15A
330
159
100
AcDbEntity
  8
0
100
AcDbBlockBegin
  2
*D19
 70
     1
 10
0.0
 20
0.0
 30
0.0
  3
*D19
  1

  0
LINE
  5
15C
330
159
100
AcDbEntity
  8
Ｓ_１_１
  6
CONTINUOUS
 62
     2
100
AcDbLine
 10
680.0
 20
450.0000019999999
 30
0.0
 11
783.0
 21
450.0000019999999
 31
0.0
  0
LINE
  5
15D
330
159
100
AcDbEntity
  8
Ｓ_１_１
  6
CONTINUOUS
 62
     2
100
AcDbLine
 10
680.0
 20
709.9999979999999
 30
0.0
 11
783.0
 21
709.9999979999999
 31
0.0
  0
LINE
  5
15E
330
159
100
AcDbEntity
  8
Ｓ_１_１
  6
CONTINUOUS
 62
     2
100
AcDbLine
 10
780.0
 20
459.0000019999999
 30
0.0
 11
780.0
 21
700.9999979999999
 31
0.0
  0
INSERT
  5
15F
330
159
100
AcDbEntity
  8
Ｓ_１_１
 62
     2
100
AcDbBlockReference
  2
EX_NORM
 10
780.0
 20
450.0000019999999
 30
0.0
 41
9.0
 42
9.0
 43
9.0
 50
270.0
  0
INSERT
  5
160
330
159
100
AcDbEntity
  8
Ｓ_１_１
 62
     2
100
AcDbBlockReference
  2
EX_NORM
 10
780.0
 20
709.9999979999999
 30
0.0
 41
9.0
 42
9.0
 43
9.0
 50
90.0
  0
MTEXT
  5
161
330
159
100
AcDbEntity
  8
Ｓ_１_１
 62
     2
100
AcDbMText
 10
771.75
 20
579.9999999999999
 30
0.0
 40
10.38871247113164
 41
0.0
 71
     5
 72
     1
  1
260
  7
EXCADDIM1
 11
0.0
 21
1.0
 31
0.0
  0
POINT
  5
162
330
159
100
AcDbEntity
  8
DEFPOINTS
 62
     0
100
AcDbPoint
 10
410.000042
 20
450.0000019999999
 30
0.0
  0
POINT
  5
163
330
159
100
AcDbEntity
  8
DEFPOINTS
 62
     0
100
AcDbPoint
 10
410.000042
 20
709.9999979999999
 30
0.0
  0
POINT
  5
164
330
159
100
AcDbEntity
  8
DEFPOINTS
 62
     0
100
AcDbPoint
 10
780.0
 20
709.9999979999999
 30
0.0
  0
ENDBLK
  5
15B
330
159
100
AcDbEntity
  8
0
100
AcDbBlockEnd
  0
BLOCK
  5
167
330
166
100
AcDbEntity
  8
0
100
AcDbBlockBegin
  2
*D20
 70
     1
 10
0.0
 20
0.0
 30
0.0
  3
*D20
  1

  0
LINE
  5
169
330
166
100
AcDbEntity
  8
Ｓ_１_１
  6
CONTINUOUS
 62
     2
100
AcDbLine
 10
507.999996
 20
457.5000019999999
 30
0.0
 11
297.0
 21
457.500002
 31
0.0
  0
LINE
  5
16A
330
166
100
AcDbEntity
  8
Ｓ_１_１
  6
CONTINUOUS
 62
     2
100
AcDbLine
 10
507.999996
 20
702.4999979999999
 30
0.0
 11
297.0
 21
702.4999979999999
 31
0.0
  0
LINE
  5
16B
330
166
100
AcDbEntity
  8
Ｓ_１_１
  6
CONTINUOUS
 62
     2
100
AcDbLine
 10
300.0000000000001
 20
466.500002
 30
0.0
 11
300.0000000000001
 21
693.4999979999999
 31
0.0
  0
INSERT
  5
16C
330
166
100
AcDbEntity
  8
Ｓ_１_１
 62
     2
100
AcDbBlockReference
  2
EX_NORM
 10
300.0000000000001
 20
457.500002
 30
0.0
 41
9.0
 42
9.0
 43
9.0
 50
270.0
  0
INSERT
  5
16D
330
166
100
AcDbEntity
  8
Ｓ_１_１
 62
     2
100
AcDbBlockReference
  2
EX_NORM
 10
300.0000000000001
 20
702.4999979999999
 30
0.0
 41
9.0
 42
9.0
 43
9.0
 50
90.0
  0
MTEXT
  5
16E
330
166
100
AcDbEntity
  8
Ｓ_１_１
 62
     2
100
AcDbMText
 10
291.7500000000002
 20
580.0
 30
0.0
 40
10.38871247113164
 41
0.0
 71
     5
 72
     1
  1
245
  7
EXCADDIM1
 11
0.0
 21
1.0
 31
0.0
  0
POINT
  5
16F
330
166
100
AcDbEntity
  8
DEFPOINTS
 62
     0
100
AcDbPoint
 10
512.499996
 20
457.5000019999999
 30
0.0
  0
POINT
  5
170
330
166
100
AcDbEntity
  8
DEFPOINTS
 62
     0
100
AcDbPoint
 10
512.499996
 20
702.4999979999999
 30
0.0
  0
POINT
  5
171
330
166
100
AcDbEntity
  8
DEFPOINTS
 62
     0
100
AcDbPoint
 10
300.0000000000001
 20
702.4999979999999
 30
0.0
  0
ENDBLK
  5
168
330
166
100
AcDbEntity
  8
0
100
AcDbBlockEnd
  0
BLOCK
  5
175
330
174
100
AcDbEntity
  8
0
100
AcDbBlockBegin
  2
*D21
 70
     1
 10
0.0
 20
0.0
 30
0.0
  3
*D21
  1

  0
LINE
  5
177
330
174
100
AcDbEntity
  8
Ｓ_１_１
  6
CONTINUOUS
 62
     2
100
AcDbLine
 10
699.999998
 20
475.5000029999998
 30
0.0
 11
699.999998
 21
396.9999999999927
 31
0.0
  0
LINE
  5
178
330
174
100
AcDbEntity
  8
Ｓ_１_１
  6
CONTINUOUS
 62
     2
100
AcDbLine
 10
380.000041
 20
475.5000029999998
 30
0.0
 11
380.000041
 21
396.9999999999927
 31
0.0
  0
LINE
  5
179
330
174
100
AcDbEntity
  8
Ｓ_１_１
  6
CONTINUOUS
 62
     2
100
AcDbLine
 10
690.999998
 20
400.0000000000003
 30
0.0
 11
389.000041
 21
400.0000000000003
 31
0.0
  0
INSERT
  5
17A
330
174
100
AcDbEntity
  8
Ｓ_１_１
 62
     2
100
AcDbBlockReference
  2
EX_NORM
 10
699.999998
 20
400.0000000000003
 30
0.0
 41
9.0
 42
9.0
 43
9.0
  0
INSERT
  5
17B
330
174
100
AcDbEntity
  8
Ｓ_１_１
 62
     2
100
AcDbBlockReference
  2
EX_NORM
 10
380.000041
 20
400.0000000000003
 30
0.0
 41
9.0
 42
9.0
 43
9.0
 50
180.0
  0
MTEXT
  5
17C
330
174
100
AcDbEntity
  8
Ｓ_１_１
 62
     2
100
AcDbMText
 10
540.0000195
 20
408.2500000000003
 30
0.0
 40
10.38871247113164
 41
0.0
 71
     5
 72
     1
  1
320
  7
EXCADDIM1
  0
POINT
  5
17D
330
174
100
AcDbEntity
  8
DEFPOINTS
 62
     0
100
AcDbPoint
 10
699.999998
 20
480.0000029999998
 30
0.0
  0
POINT
  5
17E
330
174
100
AcDbEntity
  8
DEFPOINTS
 62
     0
100
AcDbPoint
 10
380.000041
 20
480.0000029999998
 30
0.0
  0
POINT
  5
17F
330
174
100
AcDbEntity
  8
DEFPOINTS
 62
     0
100
AcDbPoint
 10
380.000041
 20
400.0000000000003
 30
0.0
  0
ENDBLK
  5
176
330
174
100
AcDbEntity
  8
0
100
AcDbBlockEnd
  0
BLOCK
  5
182
330
181
100
AcDbEntity
  8
0
100
AcDbBlockBegin
  2
*D22
 70
     1
 10
0.0
 20
0.0
 30
0.0
  3
*D22
  1

  0
LINE
  5
184
330
181
100
AcDbEntity
  8
Ｓ_１_１
  6
CONTINUOUS
 62
     2
100
AcDbLine
 10
350.000041
 20
475.4999179999999
 30
0.0
 11
350.000041
 21
397.0000000000002
 31
0.0
  0
LINE
  5
185
330
181
100
AcDbEntity
  8
Ｓ_１_１
  6
CONTINUOUS
 62
     2
100
AcDbLine
 10
371.000041
 20
400.0000000000002
 30
0.0
 11
359.000041
 21
400.0000000000002
 31
0.0
  0
INSERT
  5
186
330
181
100
AcDbEntity
  8
Ｓ_１_１
 62
     2
100
AcDbBlockReference
  2
EX_NORM
 10
380.000041
 20
400.0000000000002
 30
0.0
 41
9.0
 42
9.0
 43
9.0
  0
INSERT
  5
187
330
181
100
AcDbEntity
  8
Ｓ_１_１
 62
     2
100
AcDbBlockReference
  2
EX_NORM
 10
350.000041
 20
400.0000000000002
 30
0.0
 41
9.0
 42
9.0
 43
9.0
 50
180.0
  0
MTEXT
  5
188
330
181
100
AcDbEntity
  8
Ｓ_１_１
 62
     2
100
AcDbMText
 10
300.5000410000002
 20
408.2500000000001
 30
0.0
 40
10.38871247113164
 41
0.0
 71
     5
 72
     1
  1
30（移動量）
  7
EXCADDIM1
  0
POINT
  5
189
330
181
100
AcDbEntity
  8
DEFPOINTS
 62
     0
100
AcDbPoint
 10
380.000041
 20
479.9999260000099
 30
0.0
  0
POINT
  5
18A
330
181
100
AcDbEntity
  8
DEFPOINTS
 62
     0
100
AcDbPoint
 10
350.000041
 20
479.9999179999999
 30
0.0
  0
POINT
  5
18B
330
181
100
AcDbEntity
  8
DEFPOINTS
 62
     0
100
AcDbPoint
 10
350.000041
 20
400.0000000000002
 30
0.0
  0
ENDBLK
  5
183
330
181
100
AcDbEntity
  8
0
100
AcDbBlockEnd
  0
BLOCK
  5
18E
330
18D
100
AcDbEntity
  8
0
100
AcDbBlockBegin
  2
*D23
 70
     1
 10
0.0
 20
0.0
 30
0.0
  3
*D23
  1

  0
LINE
  5
190
330
18D
100
AcDbEntity
  8
Ｓ_１_１
  6
CONTINUOUS
 62
     2
100
AcDbLine
 10
729.9999970000001
 20
475.5000229999999
 30
0.0
 11
729.9999970000001
 21
397.0000000000003
 31
0.0
  0
LINE
  5
191
330
18D
100
AcDbEntity
  8
Ｓ_１_１
  6
CONTINUOUS
 62
     2
100
AcDbLine
 10
708.999998
 20
400.0000000000003
 30
0.0
 11
720.9999970000001
 21
400.0000000000003
 31
0.0
  0
INSERT
  5
192
330
18D
100
AcDbEntity
  8
Ｓ_１_１
 62
     2
100
AcDbBlockReference
  2
EX_NORM
 10
699.999998
 20
400.0000000000003
 30
0.0
 41
9.0
 42
9.0
 43
9.0
 50
180.0
  0
INSERT
  5
193
330
18D
100
AcDbEntity
  8
Ｓ_１_１
 62
     2
100
AcDbBlockReference
  2
EX_NORM
 10
729.9999970000001
 20
400.0000000000003
 30
0.0
 41
9.0
 42
9.0
 43
9.0
  0
MTEXT
  5
194
330
18D
100
AcDbEntity
  8
Ｓ_１_１
 62
     2
100
AcDbMText
 10
779.4999970000001
 20
408.2500000000003
 30
0.0
 40
10.38871247113164
 41
0.0
 71
     5
 72
     1
  1
30（移動量）
  7
EXCADDIM1
  0
POINT
  5
195
330
18D
100
AcDbEntity
  8
DEFPOINTS
 62
     0
100
AcDbPoint
 10
699.999998
 20
480.0000019999999
 30
0.0
  0
POINT
  5
196
330
18D
100
AcDbEntity
  8
DEFPOINTS
 62
     0
100
AcDbPoint
 10
729.9999970000001
 20
480.0000229999999
 30
0.0
  0
POINT
  5
197
330
18D
100
AcDbEntity
  8
DEFPOINTS
 62
     0
100
AcDbPoint
 10
729.9999970000001
 20
400.0000000000003
 30
0.0
  0
ENDBLK
  5
18F
330
18D
100
AcDbEntity
  8
0
100
AcDbBlockEnd
  0
BLOCK
  5
38D
330
38C
100
AcDbEntity
  8
0
100
AcDbBlockBegin
  2
*D24
 70
     1
 10
0.0
 20
0.0
 30
0.0
  3
*D24
  1

  0
LINE
  5
38F
330
38C
100
AcDbEntity
  8
Ｓ_１_１
  6
CONTINUOUS
 62
     2
100
AcDbLine
 10
437.4999659999999
 20
180.0
 30
0.0
 11
317.0
 21
180.0
 31
0.0
  0
LINE
  5
390
330
38C
100
AcDbEntity
  8
Ｓ_１_１
  6
CONTINUOUS
 62
     2
100
AcDbLine
 10
339.3999819999898
 20
200.0
 30
0.0
 11
317.0
 21
200.0
 31
0.0
  0
LINE
  5
391
330
38C
100
AcDbEntity
  8
Ｓ_１_１
  6
CONTINUOUS
 62
     2
100
AcDbLine
 10
320.0
 20
189.0
 30
0.0
 11
320.0
 21
191.0
 31
0.0
  0
INSERT
  5
392
330
38C
100
AcDbEntity
  8
Ｓ_１_１
 62
     2
100
AcDbBlockReference
  2
EX_NORM
 10
320.0
 20
180.0
 30
0.0
 41
9.0
 42
9.0
 43
9.0
 50
270.0
  0
INSERT
  5
393
330
38C
100
AcDbEntity
  8
Ｓ_１_１
 62
     2
100
AcDbBlockReference
  2
EX_NORM
 10
320.0
 20
200.0
 30
0.0
 41
9.0
 42
9.0
 43
9.0
 50
90.0
  0
MTEXT
  5
394
330
38C
100
AcDbEntity
  8
Ｓ_１_１
 62
     2
100
AcDbMText
 10
311.7500000000001
 20
164.2499999999999
 30
0.0
 40
10.38871247113164
 41
0.0
 71
     5
 72
     1
  1
20
  7
EXCADDIM1
 11
0.0
 21
1.0
 31
0.0
  0
POINT
  5
395
330
38C
100
AcDbEntity
  8
DEFPOINTS
 62
     0
100
AcDbPoint
 10
447.00001900001
 20
180.0
 30
0.0
  0
POINT
  5
396
330
38C
100
AcDbEntity
  8
DEFPOINTS
 62
     0
100
AcDbPoint
 10
348.900035
 20
200.0
 30
0.0
  0
POINT
  5
397
330
38C
100
AcDbEntity
  8
DEFPOINTS
 62
     0
100
AcDbPoint
 10
320.0
 20
200.0
 30
0.0
  0
ENDBLK
  5
38E
330
38C
100
AcDbEntity
  8
0
100
AcDbBlockEnd
  0
BLOCK
  5
410
330
40F
100
AcDbEntity
  8
0
100
AcDbBlockBegin
  2
*D25
 70
     1
 10
0.0
 20
0.0
 30
0.0
  3
*D25
  1

  0
LINE
  5
412
330
40F
100
AcDbEntity
  8
Ｓ_１_１
  6
CONTINUOUS
 62
     2
100
AcDbLine
 10
642.500007
 20
180.0
 30
0.0
 11
783.0
 21
180.0
 31
0.0
  0
LINE
  5
413
330
40F
100
AcDbEntity
  8
Ｓ_１_１
  6
CONTINUOUS
 62
     2
100
AcDbLine
 10
708.500036
 20
270.500015
 30
0.0
 11
783.0
 21
270.500015
 31
0.0
  0
LINE
  5
414
330
40F
100
AcDbEntity
  8
Ｓ_１_１
  6
CONTINUOUS
 62
     2
100
AcDbLine
 10
780.0
 20
189.0
 30
0.0
 11
780.0
 21
261.500015
 31
0.0
  0
INSERT
  5
415
330
40F
100
AcDbEntity
  8
Ｓ_１_１
 62
     2
100
AcDbBlockReference
  2
EX_NORM
 10
780.0
 20
180.0
 30
0.0
 41
9.0
 42
9.0
 43
9.0
 50
270.0
  0
INSERT
  5
416
330
40F
100
AcDbEntity
  8
Ｓ_１_１
 62
     2
100
AcDbBlockReference
  2
EX_NORM
 10
780.0
 20
270.500015
 30
0.0
 41
9.0
 42
9.0
 43
9.0
 50
90.0
  0
MTEXT
  5
417
330
40F
100
AcDbEntity
  8
Ｓ_１_１
 62
     2
100
AcDbMText
 10
771.75
 20
225.2500075
 30
0.0
 40
10.38871247113164
 41
0.0
 71
     5
 72
     1
  1
90.5
  7
EXCADDIM1
 11
0.0
 21
1.0
 31
0.0
  0
POINT
  5
418
330
40F
100
AcDbEntity
  8
DEFPOINTS
 62
     0
100
AcDbPoint
 10
633.000007
 20
180.0
 30
0.0
  0
POINT
  5
419
330
40F
100
AcDbEntity
  8
DEFPOINTS
 62
     0
100
AcDbPoint
 10
699.000036
 20
270.500015
 30
0.0
  0
POINT
  5
41A
330
40F
100
AcDbEntity
  8
DEFPOINTS
 62
     0
100
AcDbPoint
 10
780.0
 20
270.500015
 30
0.0
  0
ENDBLK
  5
411
330
40F
100
AcDbEntity
  8
0
100
AcDbBlockEnd
  0
BLOCK
  5
425
330
424
100
AcDbEntity
  8
0
100
AcDbBlockBegin
  2
*D26
 70
     1
 10
0.0
 20
0.0
 30
0.0
  3
*D26
  1

  0
LINE
  5
427
330
424
100
AcDbEntity
  8
Ｓ_１_１
  6
CONTINUOUS
 62
     2
100
AcDbLine
 10
375.4999640000001
 20
305.500015
 30
0.0
 11
316.4840828682935
 21
305.5000150000001
 31
0.0
  0
LINE
  5
428
330
424
100
AcDbEntity
  8
Ｓ_１_１
  6
CONTINUOUS
 62
     2
100
AcDbLine
 10
342.6201490820187
 20
299.1833780776305
 30
0.0
 11
316.6101943954932
 21
298.2750904455315
 31
0.0
  0
ARC
  5
429
330
424
100
AcDbEntity
  8
Ｓ_１_１
  6
CONTINUOUS
 62
     2
100
AcDbCircle
 10
523.5049638871967
 20
305.5000149999999
 30
0.0
 40
204.0208810189032
100
AcDbArc
 50
174.9445975028225
 51
177.4722987514112
  0
ARC
  5
42A
330
424
100
AcDbEntity
  8
Ｓ_１_１
  6
CONTINUOUS
 62
     2
100
AcDbCircle
 10
523.5049638871967
 20
305.5000149999999
 30
0.0
 40
204.0208810189032
100
AcDbArc
 50
184.5277012485888
 51
187.0554024971776
  0
ARC
  5
42B
330
424
100
AcDbEntity
  8
Ｓ_１_１
  6
CONTINUOUS
 62
     2
100
AcDbCircle
 10
523.5049638871967
 20
305.5000149999999
 30
0.0
 40
204.0208810189032
100
AcDbArc
 50
179.9999999999999
 51
182.0000000000001
  0
INSERT
  5
42C
330
424
100
AcDbEntity
  8
Ｓ_１_１
 62
     2
100
AcDbBlockReference
  2
EX_NORM
 10
319.4840828682935
 20
305.5000150000001
 30
0.0
 41
9.0
 42
9.0
 43
9.0
 50
268.7361493757056
  0
INSERT
  5
42D
330
424
100
AcDbEntity
  8
Ｓ_１_１
 62
     2
100
AcDbBlockReference
  2
EX_NORM
 10
319.6083668765505
 20
298.379788935639
 30
0.0
 41
9.0
 42
9.0
 43
9.0
 50
93.26385062429445
  0
MTEXT
  5
42E
330
424
100
AcDbEntity
  8
Ｓ_１_１
 62
     2
100
AcDbMText
 10
311.8662859558368
 20
321.8706268397397
 30
0.0
 40
10.38871247113164
 41
0.0
 71
     5
 72
     1
  1
2%%d
  7
EXCADDIM1
 11
0.07712132611482363
 21
0.9970217154396845
 31
0.0
  0
POINT
  5
42F
330
424
100
AcDbEntity
  8
DEFPOINTS
 62
     0
100
AcDbPoint
 10
523.5049638871967
 20
305.5000149999999
 30
0.0
  0
POINT
  5
430
330
424
100
AcDbEntity
  8
DEFPOINTS
 62
     0
100
AcDbPoint
 10
379.9999640000001
 20
305.500015
 30
0.0
  0
POINT
  5
431
330
424
100
AcDbEntity
  8
DEFPOINTS
 62
     0
100
AcDbPoint
 10
347.1174078036046
 20
299.3404258127918
 30
0.0
  0
POINT
  5
432
330
424
100
AcDbEntity
  8
DEFPOINTS
 62
     0
100
AcDbPoint
 10
319.5393233214033
 20
300.7526620201743
 30
0.0
  0
ENDBLK
  5
426
330
424
100
AcDbEntity
  8
0
100
AcDbBlockEnd
  0
BLOCK
  5
435
330
434
100
AcDbEntity
  8
0
100
AcDbBlockBegin
  2
*D27
 70
     1
 10
0.0
 20
0.0
 30
0.0
  3
*D27
  1

  0
LINE
  5
437
330
434
100
AcDbEntity
  8
Ｓ_１_１
  6
CONTINUOUS
 62
     2
100
AcDbLine
 10
703.500036
 20
270.500015
 30
0.0
 11
783.0
 21
270.500015
 31
0.0
  0
LINE
  5
438
330
434
100
AcDbEntity
  8
Ｓ_１_１
  6
CONTINUOUS
 62
     2
100
AcDbLine
 10
704.500036
 20
305.500015
 30
0.0
 11
783.0
 21
305.500015
 31
0.0
  0
LINE
  5
439
330
434
100
AcDbEntity
  8
Ｓ_１_１
  6
CONTINUOUS
 62
     2
100
AcDbLine
 10
780.0
 20
279.500015
 30
0.0
 11
780.0
 21
296.500015
 31
0.0
  0
INSERT
  5
43A
330
434
100
AcDbEntity
  8
Ｓ_１_１
 62
     2
100
AcDbBlockReference
  2
EX_NORM
 10
780.0
 20
270.500015
 30
0.0
 41
9.0
 42
9.0
 43
9.0
 50
270.0
  0
INSERT
  5
43B
330
434
100
AcDbEntity
  8
Ｓ_１_１
 62
     2
100
AcDbBlockReference
  2
EX_NORM
 10
780.0
 20
305.500015
 30
0.0
 41
9.0
 42
9.0
 43
9.0
 50
90.0
  0
MTEXT
  5
43C
330
434
100
AcDbEntity
  8
Ｓ_１_１
 62
     2
100
AcDbMText
 10
771.75
 20
288.000015
 30
0.0
 40
10.38871247113164
 41
0.0
 71
     5
 72
     1
  1
35
  7
EXCADDIM1
 11
0.0
 21
1.0
 31
0.0
  0
POINT
  5
43D
330
434
100
AcDbEntity
  8
DEFPOINTS
 62
     0
100
AcDbPoint
 10
699.000036
 20
270.500015
 30
0.0
  0
POINT
  5
43E
330
434
100
AcDbEntity
  8
DEFPOINTS
 62
     0
100
AcDbPoint
 10
700.000036
 20
305.500015
 30
0.0
  0
POINT
  5
43F
330
434
100
AcDbEntity
  8
DEFPOINTS
 62
     0
100
AcDbPoint
 10
780.0
 20
305.500015
 30
0.0
  0
ENDBLK
  5
436
330
434
100
AcDbEntity
  8
0
100
AcDbBlockEnd
  0
BLOCK
  5
442
330
441
100
AcDbEntity
  8
0
100
AcDbBlockBegin
  2
*D28
 70
     1
 10
0.0
 20
0.0
 30
0.0
  3
*D28
  1

  0
LINE
  5
444
330
441
100
AcDbEntity
  8
Ｓ_１_１
  6
CONTINUOUS
 62
     2
100
AcDbLine
 10
704.50003599998
 20
286.78290272703
 30
0.0
 11
763.0
 21
286.78290272703
 31
0.0
  0
LINE
  5
445
330
441
100
AcDbEntity
  8
Ｓ_１_１
  6
CONTINUOUS
 62
     2
100
AcDbLine
 10
703.500036
 20
270.500015
 30
0.0
 11
763.0
 21
270.500015
 31
0.0
  0
LINE
  5
446
330
441
100
AcDbEntity
  8
Ｓ_１_１
  6
CONTINUOUS
 62
     2
100
AcDbLine
 10
760.0
 20
283.78290272703
 30
0.0
 11
760.0
 21
273.500015
 31
0.0
  0
INSERT
  5
447
330
441
100
AcDbEntity
  8
Ｓ_１_１
 62
     2
100
AcDbBlockReference
  2
EX_BCIR
 10
760.0
 20
286.78290272703
 30
0.0
 41
3.0
 42
3.0
 43
3.0
 50
90.0
  0
INSERT
  5
448
330
441
100
AcDbEntity
  8
Ｓ_１_１
 62
     2
100
AcDbBlockReference
  2
EX_NORM
 10
760.0
 20
270.500015
 30
0.0
 41
3.0
 42
3.0
 43
3.0
 50
270.0
  0
MTEXT
  5
449
330
441
100
AcDbEntity
  8
Ｓ_１_１
 62
     2
100
AcDbMText
 10
751.7500000000001
 20
254.7500149999998
 30
0.0
 40
10.38871247113164
 41
0.0
 71
     5
 72
     1
  1
16
  7
EXCADDIM1
 11
0.0
 21
1.0
 31
0.0
  0
POINT
  5
44A
330
441
100
AcDbEntity
  8
DEFPOINTS
 62
     0
100
AcDbPoint
 10
700.00003599998
 20
286.78290272703
 30
0.0
  0
POINT
  5
44B
330
441
100
AcDbEntity
  8
DEFPOINTS
 62
     0
100
AcDbPoint
 10
699.000036
 20
270.500015
 30
0.0
  0
POINT
  5
44C
330
441
100
AcDbEntity
  8
DEFPOINTS
 62
     0
100
AcDbPoint
 10
760.0
 20
270.500015
 30
0.0
  0
ENDBLK
  5
443
330
441
100
AcDbEntity
  8
0
100
AcDbBlockEnd
  0
BLOCK
  5
44F
330
44E
100
AcDbEntity
  8
0
100
AcDbBlockBegin
  2
*D29
 70
     1
 10
0.0
 20
0.0
 30
0.0
  3
*D29
  1

  0
LINE
  5
451
330
44E
100
AcDbEntity
  8
Ｓ_１_１
  6
CONTINUOUS
 62
     2
100
AcDbLine
 10
704.50003599998
 20
286.78290272703
 30
0.0
 11
763.0
 21
286.78290272703
 31
0.0
  0
LINE
  5
452
330
44E
100
AcDbEntity
  8
Ｓ_１_１
  6
CONTINUOUS
 62
     2
100
AcDbLine
 10
704.500036
 20
305.500015
 30
0.0
 11
763.0
 21
305.500015
 31
0.0
  0
LINE
  5
453
330
44E
100
AcDbEntity
  8
Ｓ_１_１
  6
CONTINUOUS
 62
     2
100
AcDbLine
 10
760.0
 20
289.78290272703
 30
0.0
 11
760.0
 21
302.500015
 31
0.0
  0
INSERT
  5
454
330
44E
100
AcDbEntity
  8
Ｓ_１_１
 62
     2
100
AcDbBlockReference
  2
EX_BCIR
 10
760.0
 20
286.78290272703
 30
0.0
 41
3.0
 42
3.0
 43
3.0
 50
270.0
  0
INSERT
  5
455
330
44E
100
AcDbEntity
  8
Ｓ_１_１
 62
     2
100
AcDbBlockReference
  2
EX_NORM
 10
760.0
 20
305.500015
 30
0.0
 41
3.0
 42
3.0
 43
3.0
 50
90.0
  0
MTEXT
  5
456
330
44E
100
AcDbEntity
  8
Ｓ_１_１
 62
     2
100
AcDbMText
 10
751.7500000000001
 20
321.2500149999999
 30
0.0
 40
10.38871247113164
 41
0.0
 71
     5
 72
     1
  1
19
  7
EXCADDIM1
 11
0.0
 21
1.0
 31
0.0
  0
POINT
  5
457
330
44E
100
AcDbEntity
  8
DEFPOINTS
 62
     0
100
AcDbPoint
 10
700.00003599998
 20
286.78290272703
 30
0.0
  0
POINT
  5
458
330
44E
100
AcDbEntity
  8
DEFPOINTS
 62
     0
100
AcDbPoint
 10
700.000036
 20
305.500015
 30
0.0
  0
POINT
  5
459
330
44E
100
AcDbEntity
  8
DEFPOINTS
 62
     0
100
AcDbPoint
 10
760.0
 20
305.500015
 30
0.0
  0
ENDBLK
  5
450
330
44E
100
AcDbEntity
  8
0
100
AcDbBlockEnd
  0
BLOCK
  5
45C
330
45B
100
AcDbEntity
  8
0
100
AcDbBlockBegin
  2
*D30
 70
     1
 10
0.0
 20
0.0
 30
0.0
  3
*D30
  1

  0
LINE
  5
45E
330
45B
100
AcDbEntity
  8
Ｓ_１_１
  6
CONTINUOUS
 62
     2
100
AcDbLine
 10
642.500007
 20
180.0
 30
0.0
 11
802.9999999999999
 21
180.0
 31
0.0
  0
LINE
  5
45F
330
45B
100
AcDbEntity
  8
Ｓ_１_１
  6
CONTINUOUS
 62
     2
100
AcDbLine
 10
709.500036
 20
305.500015
 30
0.0
 11
802.9999999999999
 21
305.500015
 31
0.0
  0
LINE
  5
460
330
45B
100
AcDbEntity
  8
Ｓ_１_１
  6
CONTINUOUS
 62
     2
100
AcDbLine
 10
799.9999999999999
 20
189.0
 30
0.0
 11
799.9999999999999
 21
296.500015
 31
0.0
  0
INSERT
  5
461
330
45B
100
AcDbEntity
  8
Ｓ_１_１
 62
     2
100
AcDbBlockReference
  2
EX_NORM
 10
799.9999999999999
 20
180.0
 30
0.0
 41
9.0
 42
9.0
 43
9.0
 50
270.0
  0
INSERT
  5
462
330
45B
100
AcDbEntity
  8
Ｓ_１_１
 62
     2
100
AcDbBlockReference
  2
EX_NORM
 10
799.9999999999999
 20
305.500015
 30
0.0
 41
9.0
 42
9.0
 43
9.0
 50
90.0
  0
MTEXT
  5
463
330
45B
100
AcDbEntity
  8
Ｓ_１_１
 62
     2
100
AcDbMText
 10
791.7499999999999
 20
242.7500075
 30
0.0
 40
10.38871247113164
 41
0.0
 71
     5
 72
     1
  1
125.5
  7
EXCADDIM1
 11
0.0
 21
1.0
 31
0.0
  0
POINT
  5
464
330
45B
100
AcDbEntity
  8
DEFPOINTS
 62
     0
100
AcDbPoint
 10
633.000007
 20
180.0
 30
0.0
  0
POINT
  5
465
330
45B
100
AcDbEntity
  8
DEFPOINTS
 62
     0
100
AcDbPoint
 10
700.000036
 20
305.500015
 30
0.0
  0
POINT
  5
466
330
45B
100
AcDbEntity
  8
DEFPOINTS
 62
     0
100
AcDbPoint
 10
799.9999999999999
 20
305.500015
 30
0.0
  0
ENDBLK
  5
45D
330
45B
100
AcDbEntity
  8
0
100
AcDbBlockEnd
  0
BLOCK
  5
4CF
330
4CE
100
AcDbEntity
  8
0
100
AcDbBlockBegin
  2
*D31
 70
     1
 10
0.0
 20
0.0
 30
0.0
  3
*D31
  1

  0
LINE
  5
4D1
330
4CE
100
AcDbEntity
  8
Ｓ_１_１
  6
CONTINUOUS
 62
     2
100
AcDbLine
 10
639.9999990000001
 20
177.4999979999999
 30
0.0
 11
639.9999990000001
 21
137.0
 31
0.0
  0
LINE
  5
4D2
330
4CE
100
AcDbEntity
  8
Ｓ_１_１
  6
CONTINUOUS
 62
     2
100
AcDbLine
 10
440.0000199999995
 20
177.4999979999999
 30
0.0
 11
440.0000199999995
 21
137.0
 31
0.0
  0
LINE
  5
4D3
330
4CE
100
AcDbEntity
  8
Ｓ_１_１
  6
CONTINUOUS
 62
     2
100
AcDbLine
 10
630.9999990000001
 20
140.0
 30
0.0
 11
449.0000199999995
 21
140.0
 31
0.0
  0
INSERT
  5
4D4
330
4CE
100
AcDbEntity
  8
Ｓ_１_１
 62
     2
100
AcDbBlockReference
  2
EX_NORM
 10
639.9999990000001
 20
140.0
 30
0.0
 41
9.0
 42
9.0
 43
9.0
  0
INSERT
  5
4D5
330
4CE
100
AcDbEntity
  8
Ｓ_１_１
 62
     2
100
AcDbBlockReference
  2
EX_NORM
 10
440.0000199999995
 20
140.0
 30
0.0
 41
9.0
 42
9.0
 43
9.0
 50
180.0
  0
MTEXT
  5
4D6
330
4CE
100
AcDbEntity
  8
Ｓ_１_１
 62
     2
100
AcDbMText
 10
540.0000094999998
 20
148.25
 30
0.0
 40
10.38871247113164
 41
0.0
 71
     5
 72
     1
  1
%%c200(190)
  7
EXCADDIM1
  0
POINT
  5
4D7
330
4CE
100
AcDbEntity
  8
DEFPOINTS
 62
     0
100
AcDbPoint
 10
639.9999990000001
 20
181.9999979999999
 30
0.0
  0
POINT
  5
4D8
330
4CE
100
AcDbEntity
  8
DEFPOINTS
 62
     0
100
AcDbPoint
 10
440.0000199999995
 20
181.9999979999999
 30
0.0
  0
POINT
  5
4D9
330
4CE
100
AcDbEntity
  8
DEFPOINTS
 62
     0
100
AcDbPoint
 10
440.0000199999995
 20
140.0
 30
0.0
  0
ENDBLK
  5
4D0
330
4CE
100
AcDbEntity
  8
0
100
AcDbBlockEnd
  0
BLOCK
  5
4DC
330
4DB
100
AcDbEntity
  8
0
100
AcDbBlockBegin
  2
*D32
 70
     1
 10
0.0
 20
0.0
 30
0.0
  3
*D32
  1

  0
LINE
  5
4DE
330
4DB
100
AcDbEntity
  8
Ｓ_１_１
  6
CONTINUOUS
 62
     2
100
AcDbLine
 10
354.637797
 20
183.500002
 30
0.0
 11
354.637797
 21
137.0
 31
0.0
  0
LINE
  5
4DF
330
4DB
100
AcDbEntity
  8
Ｓ_１_１
  6
CONTINUOUS
 62
     2
100
AcDbLine
 10
440.000001
 20
177.50001699999
 30
0.0
 11
440.000001
 21
137.0
 31
0.0
  0
LINE
  5
4E0
330
4DB
100
AcDbEntity
  8
Ｓ_１_１
  6
CONTINUOUS
 62
     2
100
AcDbLine
 10
363.637797
 20
140.0
 30
0.0
 11
431.000001
 21
140.0
 31
0.0
  0
INSERT
  5
4E1
330
4DB
100
AcDbEntity
  8
Ｓ_１_１
 62
     2
100
AcDbBlockReference
  2
EX_NORM
 10
354.637797
 20
140.0
 30
0.0
 41
9.0
 42
9.0
 43
9.0
 50
180.0
  0
INSERT
  5
4E2
330
4DB
100
AcDbEntity
  8
Ｓ_１_１
 62
     2
100
AcDbBlockReference
  2
EX_NORM
 10
440.000001
 20
140.0
 30
0.0
 41
9.0
 42
9.0
 43
9.0
  0
MTEXT
  5
4E3
330
4DB
100
AcDbEntity
  8
Ｓ_１_１
 62
     2
100
AcDbMText
 10
397.318899
 20
148.25
 30
0.0
 40
10.38871247113164
 41
0.0
 71
     5
 72
     1
  1
(85)
  7
EXCADDIM1
  0
POINT
  5
4E4
330
4DB
100
AcDbEntity
  8
DEFPOINTS
 62
     0
100
AcDbPoint
 10
354.637797
 20
188.000002
 30
0.0
  0
POINT
  5
4E5
330
4DB
100
AcDbEntity
  8
DEFPOINTS
 62
     0
100
AcDbPoint
 10
440.000001
 20
182.00001699999
 30
0.0
  0
POINT
  5
4E6
330
4DB
100
AcDbEntity
  8
DEFPOINTS
 62
     0
100
AcDbPoint
 10
440.000001
 20
140.0
 30
0.0
  0
ENDBLK
  5
4DD
330
4DB
100
AcDbEntity
  8
0
100
AcDbBlockEnd
  0
BLOCK
  5
4E9
330
4E8
100
AcDbEntity
  8
0
100
AcDbBlockBegin
  2
*D33
 70
     1
 10
0.0
 20
0.0
 30
0.0
  3
*D33
  1

  0
LINE
  5
4EB
330
4E8
100
AcDbEntity
  8
Ｓ_１_１
  6
CONTINUOUS
 62
     2
100
AcDbLine
 10
419.999934
 20
283.999987
 30
0.0
 11
419.999934
 21
343.0
 31
0.0
  0
LINE
  5
4EC
330
4E8
100
AcDbEntity
  8
Ｓ_１_１
  6
CONTINUOUS
 62
     2
100
AcDbLine
 10
659.99996
 20
285.000034
 30
0.0
 11
659.99996
 21
343.0
 31
0.0
  0
LINE
  5
4ED
330
4E8
100
AcDbEntity
  8
Ｓ_１_１
  6
CONTINUOUS
 62
     2
100
AcDbLine
 10
428.999934
 20
340.0
 30
0.0
 11
650.99996
 21
340.0
 31
0.0
  0
INSERT
  5
4EE
330
4E8
100
AcDbEntity
  8
Ｓ_１_１
 62
     2
100
AcDbBlockReference
  2
EX_NORM
 10
419.999934
 20
340.0
 30
0.0
 41
9.0
 42
9.0
 43
9.0
 50
180.0
  0
INSERT
  5
4EF
330
4E8
100
AcDbEntity
  8
Ｓ_１_１
 62
     2
100
AcDbBlockReference
  2
EX_NORM
 10
659.99996
 20
340.0
 30
0.0
 41
9.0
 42
9.0
 43
9.0
  0
MTEXT
  5
4F0
330
4E8
100
AcDbEntity
  8
Ｓ_１_１
 62
     2
100
AcDbMText
 10
539.999947
 20
348.25
 30
0.0
 40
10.38871247113164
 41
0.0
 71
     5
 72
     1
  1
%%c240(230)
  7
EXCADDIM1
  0
POINT
  5
4F1
330
4E8
100
AcDbEntity
  8
DEFPOINTS
 62
     0
100
AcDbPoint
 10
419.999934
 20
279.499987
 30
0.0
  0
POINT
  5
4F2
330
4E8
100
AcDbEntity
  8
DEFPOINTS
 62
     0
100
AcDbPoint
 10
659.99996
 20
280.500034
 30
0.0
  0
POINT
  5
4F3
330
4E8
100
AcDbEntity
  8
DEFPOINTS
 62
     0
100
AcDbPoint
 10
659.99996
 20
340.0
 30
0.0
  0
ENDBLK
  5
4EA
330
4E8
100
AcDbEntity
  8
0
100
AcDbBlockEnd
  0
ENDSEC
  0
SECTION
  2
ENTITIES
  0
LINE
  5
D4
330
1F
100
AcDbEntity
  8
図面枠
  6
CONTINUOUS
 62
     5
100
AcDbLine
 10
30.0
 20
30.0
 30
0.0
 11
1230.0
 21
30.0
 31
0.0
  0
LINE
  5
D5
330
1F
100
AcDbEntity
  8
図面枠
  6
CONTINUOUS
 62
     5
100
AcDbLine
 10
1230.0
 20
30.0
 30
0.0
 11
1230.0
 21
861.0
 31
0.0
  0
LINE
  5
D6
330
1F
100
AcDbEntity
  8
図面枠
  6
CONTINUOUS
 62
     5
100
AcDbLine
 10
1230.0
 20
861.0
 30
0.0
 11
30.00000000000016
 21
861.0
 31
0.0
  0
LINE
  5
D7
330
1F
100
AcDbEntity
  8
図面枠
  6
CONTINUOUS
 62
     5
100
AcDbLine
 10
30.00000000000016
 20
861.0
 30
0.0
 11
30.0
 21
30.0
 31
0.0
  0
LINE
  5
D8
330
1F
100
AcDbEntity
  8
図面枠
  6
CONTINUOUS
 62
     3
100
AcDbLine
 10
45.00000000000005
 20
846.0
 30
0.0
 11
45.00000000000005
 21
819.0
 31
0.0
  0
LINE
  5
D9
330
1F
100
AcDbEntity
  8
図面枠
  6
CONTINUOUS
 62
     3
100
AcDbLine
 10
1215.0
 20
72.0
 30
0.0
 11
1215.0
 21
45.0
 31
0.0
  0
TEXT
  5
DB
330
1F
100
AcDbEntity
  8
図面枠
  6
CONTINUOUS
 62
     4
100
AcDbText
 10
1116.0
 20
52.03125
 30
0.0
 40
13.85161662817552
  1
MJ-10035-U
 41
0.9992307692307693
  7
EXCADTTF1
 72
     5
 11
1206.0
 21
52.03125
 31
0.0
100
AcDbText
  0
LINE
  5
DC
330
1F
100
AcDbEntity
  8
図面枠
  6
CONTINUOUS
 62
     3
100
AcDbLine
 10
1107.0
 20
72.0
 30
0.0
 11
1107.0
 21
45.0
 31
0.0
  0
LINE
  5
DD
330
1F
100
AcDbEntity
  8
図面枠
  6
CONTINUOUS
 62
     3
100
AcDbLine
 10
1107.0
 20
72.0
 30
0.0
 11
1215.0
 21
72.0
 31
0.0
  0
LINE
  5
DE
330
1F
100
AcDbEntity
  8
図面枠
  6
CONTINUOUS
 62
     3
100
AcDbLine
 10
1107.0
 20
45.0
 30
0.0
 11
1215.0
 21
45.0
 31
0.0
  0
TEXT
  5
DF
330
1F
100
AcDbEntity
  8
図面枠
  6
CONTINUOUS
 62
     4
100
AcDbText
 10
1161.0
 20
688.1484375
 30
0.0
 40
10.38871247113164
  1
cm
 41
0.999230769230769
  7
EXCADTTF1
 72
     5
 11
1174.5
 21
688.1484375
 31
0.0
100
AcDbText
  0
TEXT
  5
E0
330
1F
100
AcDbEntity
  8
図面枠
  6
CONTINUOUS
 62
     4
100
AcDbText
 10
1170.45
 20
694.5292969420552
 30
0.0
 40
4.674920098289698
  1
2
 41
0.9992308790346205
  7
EXCADTTF1
 72
     5
 11
1173.4875
 21
694.5292969420552
 31
0.0
100
AcDbText
  0
LINE
  5
E1
330
1F
100
AcDbEntity
  8
図面枠
  6
CONTINUOUS
 62
     3
100
AcDbLine
 10
1215.0
 20
846.0
 30
0.0
 11
1215.0
 21
558.0
 31
0.0
  0
TEXT
  5
E2
330
1F
100
AcDbEntity
  8
図面枠
  6
CONTINUOUS
 62
     4
100
AcDbText
 10
54.0000000000001
 20
826.03125
 30
0.0
 40
13.85161662817552
  1
1000kN35ストローク補修用油圧ジャッキ（ユニバーサルヘッド付）
 41
0.9992307692307698
  7
EXCADTTF1
 72
     5
 11
594.0000000000001
 21
826.03125
 31
0.0
100
AcDbText
  0
LINE
  5
E3
330
1F
100
AcDbEntity
  8
図面枠
  6
CONTINUOUS
 62
     3
100
AcDbLine
 10
603.0000000000002
 20
846.0
 30
0.0
 11
603.0000000000002
 21
819.0
 31
0.0
  0
LINE
  5
E4
330
1F
100
AcDbEntity
  8
図面枠
  6
CONTINUOUS
 62
     3
100
AcDbLine
 10
45.00000000000005
 20
846.0
 30
0.0
 11
603.0000000000002
 21
846.0000000000002
 31
0.0
  0
LINE
  5
E5
330
1F
100
AcDbEntity
  8
図面枠
  6
CONTINUOUS
 62
     3
100
AcDbLine
 10
45.00000000000005
 20
819.0
 30
0.0
 11
603.0000000000002
 21
819.0000000000002
 31
0.0
  0
TEXT
  5
E6
330
1F
100
AcDbEntity
  8
図面枠
  6
CONTINUOUS
 62
     4
100
AcDbText
 10
1122.0
 20
814.1484375
 30
0.0
 40
10.38871247113164
  1
1000
 41
0.999230769230769
  7
EXCADTTF1
 72
     5
 11
1149.0
 21
814.1484375
 31
0.0
100
AcDbText
  0
TEXT
  5
E7
330
1F
100
AcDbEntity
  8
図面枠
  6
CONTINUOUS
 62
     4
100
AcDbText
 10
1161.0
 20
814.1484375
 30
0.0
 40
10.38871247113164
  1
kN
 41
0.999230769230769
  7
EXCADTTF1
 72
     5
 11
1174.5
 21
814.1484375
 31
0.0
100
AcDbText
  0
TEXT
  5
E8
330
1F
100
AcDbEntity
  8
図面枠
  6
CONTINUOUS
 62
     4
100
AcDbText
 10
1128.75
 20
742.1484375
 30
0.0
 40
10.38871247113164
  1
190
 41
0.999230769230769
  7
EXCADTTF1
 72
     5
 11
1149.0
 21
742.1484375
 31
0.0
100
AcDbText
  0
TEXT
  5
E9
330
1F
100
AcDbEntity
  8
図面枠
  6
CONTINUOUS
 62
     4
100
AcDbText
 10
1122.03
 20
670.1484375
 30
0.0
 40
10.38871247113164
  1
60.6
 41
0.999230769230769
  7
EXCADTTF1
 72
     5
 11
1149.03
 21
670.1484375
 31
0.0
100
AcDbText
  0
TEXT
  5
EA
330
1F
100
AcDbEntity
  8
図面枠
  6
CONTINUOUS
 62
     4
100
AcDbText
 10
1115.25
 20
688.1484375
 30
0.0
 40
10.38871247113164
  1
165.1
 41
0.9992307692307689
  7
EXCADTTF1
 72
     5
 11
1149.0
 21
688.1484375
 31
0.0
100
AcDbText
  0
TEXT
  5
EB
330
1F
100
AcDbEntity
  8
図面枠
  6
CONTINUOUS
 62
     4
100
AcDbText
 10
1128.75
 20
706.1484375
 30
0.0
 40
10.38871247113164
  1
145
 41
0.999230769230769
  7
EXCADTTF1
 72
     5
 11
1149.0
 21
706.1484375
 31
0.0
100
AcDbText
  0
TEXT
  5
EC
330
1F
100
AcDbEntity
  8
図面枠
  6
CONTINUOUS
 62
     4
100
AcDbText
 10
1128.75
 20
724.1484375
 30
0.0
 40
10.38871247113164
  1
110
 41
0.999230769230769
  7
EXCADTTF1
 72
     5
 11
1149.0
 21
724.1484375
 31
0.0
100
AcDbText
  0
TEXT
  5
ED
330
1F
100
AcDbEntity
  8
図面枠
  6
CONTINUOUS
 62
     4
100
AcDbText
 10
1115.25
 20
760.1484375
 30
0.0
 40
10.38871247113164
  1
100.5
 41
0.9992307692307689
  7
EXCADTTF1
 72
     5
 11
1149.0
 21
760.1484375
 31
0.0
100
AcDbText
  0
TEXT
  5
EE
330
1F
100
AcDbEntity
  8
図面枠
  6
CONTINUOUS
 62
     4
100
AcDbText
 10
1115.25
 20
778.1484375
 30
0.0
 40
10.38871247113164
  1
125.5
 41
0.9992307692307689
  7
EXCADTTF1
 72
     5
 11
1149.0
 21
778.1484375
 31
0.0
100
AcDbText
  0
TEXT
  5
EF
330
1F
100
AcDbEntity
  8
図面枠
  6
CONTINUOUS
 62
     4
100
AcDbText
 10
1135.5
 20
796.1484375
 30
0.0
 40
10.38871247113164
  1
35
 41
0.999230769230769
  7
EXCADTTF1
 72
     5
 11
1149.0
 21
796.1484375
 31
0.0
100
AcDbText
  0
TEXT
  5
F0
330
1F
100
AcDbEntity
  8
図面枠
  6
CONTINUOUS
 62
     4
100
AcDbText
 10
1161.0
 20
742.1484375
 30
0.0
 40
10.38871247113164
  1
mm
 41
0.999230769230769
  7
EXCADTTF1
 72
     5
 11
1174.5
 21
742.1484375
 31
0.0
100
AcDbText
  0
TEXT
  5
F1
330
1F
100
AcDbEntity
  8
図面枠
  6
CONTINUOUS
 62
     4
100
AcDbText
 10
1161.0
 20
724.1484375
 30
0.0
 40
10.38871247113164
  1
mm
 41
0.999230769230769
  7
EXCADTTF1
 72
     5
 11
1174.5
 21
724.1484375
 31
0.0
100
AcDbText
  0
TEXT
  5
F2
330
1F
100
AcDbEntity
  8
図面枠
  6
CONTINUOUS
 62
     4
100
AcDbText
 10
1161.0
 20
706.1484375
 30
0.0
 40
10.38871247113164
  1
mm
 41
0.999230769230769
  7
EXCADTTF1
 72
     5
 11
1174.5
 21
706.1484375
 31
0.0
100
AcDbText
  0
TEXT
  5
F3
330
1F
100
AcDbEntity
  8
図面枠
  6
CONTINUOUS
 62
     4
100
AcDbText
 10
1161.0
 20
796.1484375
 30
0.0
 40
10.38871247113164
  1
mm
 41
0.999230769230769
  7
EXCADTTF1
 72
     5
 11
1174.5
 21
796.1484375
 31
0.0
100
AcDbText
  0
TEXT
  5
F4
330
1F
100
AcDbEntity
  8
図面枠
  6
CONTINUOUS
 62
     4
100
AcDbText
 10
1161.0
 20
778.1484375
 30
0.0
 40
10.38871247113164
  1
mm
 41
0.999230769230769
  7
EXCADTTF1
 72
     5
 11
1174.5
 21
778.1484375
 31
0.0
100
AcDbText
  0
TEXT
  5
F5
330
1F
100
AcDbEntity
  8
図面枠
  6
CONTINUOUS
 62
     4
100
AcDbText
 10
1161.0
 20
760.1484375
 30
0.0
 40
10.38871247113164
  1
mm
 41
0.999230769230769
  7
EXCADTTF1
 72
     5
 11
1174.5
 21
760.1484375
 31
0.0
100
AcDbText
  0
TEXT
  5
F6
330
1F
100
AcDbEntity
  8
図面枠
  6
CONTINUOUS
 62
     4
100
AcDbText
 10
1161.0
 20
670.1484375
 30
0.0
 40
10.38871247113164
  1
MPa
 41
0.999230769230769
  7
EXCADTTF1
 72
     5
 11
1181.25
 21
670.1484375
 31
0.0
100
AcDbText
  0
TEXT
  5
F7
330
1F
100
AcDbEntity
  8
図面枠
  6
CONTINUOUS
 62
     4
100
AcDbText
 10
1161.0
 20
634.1484375
 30
0.0
 40
10.38871247113164
  1
kg
 41
0.999230769230769
  7
EXCADTTF1
 72
     5
 11
1174.5
 21
634.1484375
 31
0.0
100
AcDbText
  0
TEXT
  5
F8
330
1F
100
AcDbEntity
  8
図面枠
  6
CONTINUOUS
 62
     4
100
AcDbText
 10
1161.0
 20
616.1484375
 30
0.0
 40
10.38871247113164
  1
kg
 41
0.999230769230769
  7
EXCADTTF1
 72
     5
 11
1174.5
 21
616.1484375
 31
0.0
100
AcDbText
  0
LINE
  5
F9
330
1F
100
AcDbEntity
  8
図面枠
  6
CONTINUOUS
 62
     2
100
AcDbLine
 10
1155.0
 20
828.0
 30
0.0
 11
1155.0
 21
612.0
 31
0.0
  0
LINE
  5
FA
330
1F
100
AcDbEntity
  8
図面枠
  6
CONTINUOUS
 62
     2
100
AcDbLine
 10
1095.0
 20
828.0
 30
0.0
 11
1095.0
 21
612.0
 31
0.0
  0
LINE
  5
FB
330
1F
100
AcDbEntity
  8
図面枠
  6
CONTINUOUS
 62
     2
100
AcDbLine
 10
1035.0
 20
648.0
 30
0.0
 11
1035.0
 21
612.0
 31
0.0
  0
TEXT
  5
FC
330
1F
100
AcDbEntity
  8
図面枠
  6
CONTINUOUS
 62
     4
100
AcDbText
 10
1038.0
 20
634.1484375
 30
0.0
 40
10.38871247113164
  1
ジャッキ
 41
0.999230769230769
  7
EXCADTTF1
 72
     5
 11
1092.0
 21
634.1484375
 31
0.0
100
AcDbText
  0
TEXT
  5
FD
330
1F
100
AcDbEntity
  8
図面枠
  6
CONTINUOUS
 62
     4
100
AcDbText
 10
1038.0
 20
616.1484375
 30
0.0
 40
10.38871247113164
  1
プレート
 41
0.999230769230769
  7
EXCADTTF1
 72
     5
 11
1092.0
 21
616.1484375
 31
0.0
100
AcDbText
  0
LINE
  5
FE
330
1F
100
AcDbEntity
  8
図面枠
  6
CONTINUOUS
 62
     2
100
AcDbLine
 10
1035.0
 20
630.0
 30
0.0
 11
1215.0
 21
630.0
 31
0.0
  0
TEXT
  5
FF
330
1F
100
AcDbEntity
  8
図面枠
  6
CONTINUOUS
 62
     4
100
AcDbText
 10
921.0
 20
814.1484375
 30
0.0
 40
10.38871247113164
  1
能力
 41
0.999230769230769
  7
EXCADTTF1
 72
     5
 11
948.0
 21
814.1484375
 31
0.0
100
AcDbText
  0
TEXT
  5
100
330
1F
100
AcDbEntity
  8
図面枠
  6
CONTINUOUS
 62
     4
100
AcDbText
 10
921.0
 20
760.1484375
 30
0.0
 40
10.38871247113164
  1
ジャッキ機械高
 41
0.9992307692307688
  7
EXCADTTF1
 72
     5
 11
1015.5
 21
760.1484375
 31
0.0
100
AcDbText
  0
TEXT
  5
101
330
1F
100
AcDbEntity
  8
図面枠
  6
CONTINUOUS
 62
     4
100
AcDbText
 10
921.0
 20
778.1484375
 30
0.0
 40
10.38871247113164
  1
最低機械高
 41
0.9992307692307689
  7
EXCADTTF1
 72
     5
 11
988.5
 21
778.1484375
 31
0.0
100
AcDbText
  0
TEXT
  5
102
330
1F
100
AcDbEntity
  8
図面枠
  6
CONTINUOUS
 62
     4
100
AcDbText
 10
921.0
 20
670.1484375
 30
0.0
 40
10.38871247113164
  1
最高使用圧力
 41
0.9992307692307689
  7
EXCADTTF1
 72
     5
 11
1002.0
 21
670.1484375
 31
0.0
100
AcDbText
  0
TEXT
  5
103
330
1F
100
AcDbEntity
  8
図面枠
  6
CONTINUOUS
 62
     4
100
AcDbText
 10
921.0
 20
688.1484375
 30
0.0
 40
10.38871247113164
  1
受圧面積
 41
0.999230769230769
  7
EXCADTTF1
 72
     5
 11
975.0
 21
688.1484375
 31
0.0
100
AcDbText
  0
TEXT
  5
104
330
1F
100
AcDbEntity
  8
図面枠
  6
CONTINUOUS
 62
     4
100
AcDbText
 10
921.0
 20
706.1484375
 30
0.0
 40
10.38871247113164
  1
ピストン径
 41
0.9992307692307689
  7
EXCADTTF1
 72
     5
 11
988.5
 21
706.1484375
 31
0.0
100
AcDbText
  0
TEXT
  5
105
330
1F
100
AcDbEntity
  8
図面枠
  6
CONTINUOUS
 62
     4
100
AcDbText
 10
921.0
 20
724.1484375
 30
0.0
 40
10.38871247113164
  1
ロッド径
 41
0.999230769230769
  7
EXCADTTF1
 72
     5
 11
975.0
 21
724.1484375
 31
0.0
100
AcDbText
  0
TEXT
  5
106
330
1F
100
AcDbEntity
  8
図面枠
  6
CONTINUOUS
 62
     4
100
AcDbText
 10
921.0
 20
742.1484375
 30
0.0
 40
10.38871247113164
  1
シリンダ外径
 41
0.9992307692307689
  7
EXCADTTF1
 72
     5
 11
1002.0
 21
742.1484375
 31
0.0
100
AcDbText
  0
TEXT
  5
107
330
1F
100
AcDbEntity
  8
図面枠
  6
CONTINUOUS
 62
     4
100
AcDbText
 10
921.0
 20
580.1484375
 30
0.0
 40
10.38871247113164
  1
可動ヘッドは、±30mm移動可能
 41
0.9992307692307688
  7
EXCADTTF1
 72
     5
 11
1110.0
 21
580.1484375
 31
0.0
100
AcDbText
  0
TEXT
  5
108
330
1F
100
AcDbEntity
  8
図面枠
  6
CONTINUOUS
 62
     4
100
AcDbText
 10
921.0
 20
598.1484375
 30
0.0
 40
10.38871247113164
  1
備考
 41
0.999230769230769
  7
EXCADTTF1
 72
     5
 11
948.0
 21
598.1484375
 31
0.0
100
AcDbText
  0
TEXT
  5
109
330
1F
100
AcDbEntity
  8
図面枠
  6
CONTINUOUS
 62
     4
100
AcDbText
 10
921.0
 20
634.1484375
 30
0.0
 40
10.38871247113164
  1
重量
 41
0.999230769230769
  7
EXCADTTF1
 72
     5
 11
948.0
 21
634.1484375
 31
0.0
100
AcDbText
  0
TEXT
  5
10A
330
1F
100
AcDbEntity
  8
図面枠
  6
CONTINUOUS
 62
     4
100
AcDbText
 10
921.0
 20
652.1484375
 30
0.0
 40
10.38871247113164
  1
所要油量
 41
0.999230769230769
  7
EXCADTTF1
 72
     5
 11
975.0
 21
652.1484375
 31
0.0
100
AcDbText
  0
LINE
  5
10B
330
1F
100
AcDbEntity
  8
図面枠
  6
CONTINUOUS
 62
     3
100
AcDbLine
 10
915.0
 20
846.0
 30
0.0
 11
915.0
 21
558.0
 31
0.0
  0
TEXT
  5
10C
330
1F
100
AcDbEntity
  8
図面枠
  6
CONTINUOUS
 62
     4
100
AcDbText
 10
921.0
 20
562.1484375
 30
0.0
 40
10.38871247113164
  1
ユニバーサルヘッド振り角は、±2゜(±3.5％）
 41
0.999230769230769
  7
EXCADTTF1
 72
     5
 11
1211.25
 21
562.1484375
 31
0.0
100
AcDbText
  0
TEXT
  5
10D
330
1F
100
AcDbEntity
  8
図面枠
  6
CONTINUOUS
 62
     4
100
AcDbText
 10
921.0
 20
796.1484375
 30
0.0
 40
10.38871247113164
  1
ストローク　※
 41
0.9992307692307688
  7
EXCADTTF1
 72
     5
 11
1015.5
 21
796.1484375
 31
0.0
100
AcDbText
  0
LINE
  5
10E
330
1F
100
AcDbEntity
  8
図面枠
  6
CONTINUOUS
 62
     3
100
AcDbLine
 10
915.0
 20
846.0
 30
0.0
 11
1215.0
 21
846.0
 31
0.0
  0
LINE
  5
10F
330
1F
100
AcDbEntity
  8
図面枠
  6
CONTINUOUS
 62
     3
100
AcDbLine
 10
915.0
 20
558.0
 30
0.0
 11
1215.0
 21
558.0
 31
0.0
  0
LINE
  5
110
330
1F
100
AcDbEntity
  8
図面枠
  6
CONTINUOUS
 62
     3
100
AcDbLine
 10
915.0
 20
828.0
 30
0.0
 11
1215.0
 21
828.0
 31
0.0
  0
LINE
  5
111
330
1F
100
AcDbEntity
  8
図面枠
  6
CONTINUOUS
 62
     2
100
AcDbLine
 10
915.0
 20
684.0
 30
0.0
 11
1215.0
 21
684.0
 31
0.0
  0
LINE
  5
112
330
1F
100
AcDbEntity
  8
図面枠
  6
CONTINUOUS
 62
     2
100
AcDbLine
 10
915.0
 20
702.0
 30
0.0
 11
1215.0
 21
702.0
 31
0.0
  0
LINE
  5
113
330
1F
100
AcDbEntity
  8
図面枠
  6
CONTINUOUS
 62
     2
100
AcDbLine
 10
915.0
 20
720.0
 30
0.0
 11
1215.0
 21
720.0
 31
0.0
  0
LINE
  5
114
330
1F
100
AcDbEntity
  8
図面枠
  6
CONTINUOUS
 62
     2
100
AcDbLine
 10
915.0
 20
738.0
 30
0.0
 11
1215.0
 21
738.0
 31
0.0
  0
LINE
  5
115
330
1F
100
AcDbEntity
  8
図面枠
  6
CONTINUOUS
 62
     2
100
AcDbLine
 10
915.0
 20
756.0
 30
0.0
 11
1215.0
 21
756.0
 31
0.0
  0
LINE
  5
116
330
1F
100
AcDbEntity
  8
図面枠
  6
CONTINUOUS
 62
     2
100
AcDbLine
 10
915.0
 20
774.0
 30
0.0
 11
1215.0
 21
774.0
 31
0.0
  0
LINE
  5
117
330
1F
100
AcDbEntity
  8
図面枠
  6
CONTINUOUS
 62
     2
100
AcDbLine
 10
915.0
 20
792.0
 30
0.0
 11
1215.0
 21
792.0
 31
0.0
  0
LINE
  5
118
330
1F
100
AcDbEntity
  8
図面枠
  6
CONTINUOUS
 62
     2
100
AcDbLine
 10
915.0
 20
810.0
 30
0.0
 11
1215.0
 21
810.0
 31
0.0
  0
LINE
  5
119
330
1F
100
AcDbEntity
  8
図面枠
  6
CONTINUOUS
 62
     2
100
AcDbLine
 10
915.0
 20
612.0
 30
0.0
 11
1215.0
 21
612.0
 31
0.0
  0
LINE
  5
11A
330
1F
100
AcDbEntity
  8
図面枠
  6
CONTINUOUS
 62
     2
100
AcDbLine
 10
915.0
 20
648.0
 30
0.0
 11
1215.0
 21
648.0
 31
0.0
  0
LINE
  5
11B
330
1F
100
AcDbEntity
  8
図面枠
  6
CONTINUOUS
 62
     2
100
AcDbLine
 10
915.0
 20
666.0
 30
0.0
 11
1215.0
 21
666.0
 31
0.0
  0
TEXT
  5
11C
330
1F
100
AcDbEntity
  8
図面枠
  6
CONTINUOUS
 62
     4
100
AcDbText
 10
1031.25
 20
832.1484375
 30
0.0
 40
10.38871247113164
  1
仕　　　様
 41
0.9992307692307689
  7
EXCADTTF1
 72
     5
 11
1098.75
 21
832.1484375
 31
0.0
100
AcDbText
  0
TEXT
  5
11D
330
1F
100
AcDbEntity
  8
図面枠
  6
CONTINUOUS
 62
     4
100
AcDbText
 10
884.9999999999999
 20
507.3984375
 30
0.0
 40
10.38871247113164
  1
※）①ストロークエンドからの加圧はおやめ下さい。
 41
0.9992307692307695
  7
EXCADTTF1
 72
     5
 11
1209.0
 21
507.3984375
 31
0.0
100
AcDbText
  0
TEXT
  5
11E
330
1F
100
AcDbEntity
  8
図面枠
  6
CONTINUOUS
 62
     4
100
AcDbText
 10
884.9999999999999
 20
493.8984375
 30
0.0
 40
10.38871247113164
  1
　　
 41
0.999230769230769
  7
EXCADTTF1
 72
     5
 11
911.9999999999999
 21
493.8984375
 31
0.0
100
AcDbText
  0
TEXT
  5
11F
330
1F
100
AcDbEntity
  8
図面枠
  6
CONTINUOUS
 62
     4
100
AcDbText
 10
884.9999999999999
 20
480.3984375
 30
0.0
 40
10.38871247113164
  1
　　②ストロークエンドにて安全ナットをロック
 41
0.9992307692307694
  7
EXCADTTF1
 72
     5
 11
1182.0
 21
480.3984375
 31
0.0
100
AcDbText
  0
TEXT
  5
120
330
1F
100
AcDbEntity
  8
図面枠
  6
CONTINUOUS
 62
     4
100
AcDbText
 10
884.9999999999999
 20
466.8984375
 30
0.0
 40
10.38871247113164
  1
　　　した場合、解放が困難になる場合があります。
 41
0.9992307692307695
  7
EXCADTTF1
 72
     5
 11
1209.0
 21
466.8984375
 31
0.0
100
AcDbText
  0
TEXT
  5
121
330
1F
100
AcDbEntity
  8
図面枠
  6
CONTINUOUS
 62
     4
100
AcDbText
 10
884.9999999999999
 20
439.8984375
 30
0.0
 40
10.38871247113164
  1
　　③出荷時にストロークエンド使用が出来ないよう
 41
0.9992307692307695
  7
EXCADTTF1
 72
     5
 11
1209.0
 21
439.8984375
 31
0.0
100
AcDbText
  0
TEXT
  5
122
330
1F
100
AcDbEntity
  8
図面枠
  6
CONTINUOUS
 62
     4
100
AcDbText
 10
884.9999999999999
 20
426.3984375
 30
0.0
 40
10.38871247113164
  1
　　　手動ポンプの油量を調整させていただく場合が
 41
0.9992307692307695
  7
EXCADTTF1
 72
     5
 11
1209.0
 21
426.3984375
 31
0.0
100
AcDbText
  0
TEXT
  5
123
330
1F
100
AcDbEntity
  8
図面枠
  6
CONTINUOUS
 62
     4
100
AcDbText
 10
884.9999999999999
 20
412.8984375
 30
0.0
 40
10.38871247113164
  1
　　　あります。
 41
0.9992307692307688
  7
EXCADTTF1
 72
     5
 11
992.9999999999999
 21
412.8984375
 31
0.0
100
AcDbText
  0
TEXT
  5
124
330
1F
100
AcDbEntity
  8
図面枠
  6
CONTINUOUS
 62
     4
100
AcDbText
 10
1122.0
 20
652.1484375
 30
0.0
 40
10.38871247113164
  1
0.58
 41
0.999230769230769
  7
EXCADTTF1
 72
     5
 11
1149.0
 21
652.1484375
 31
0.0
100
AcDbText
  0
TEXT
  5
125
330
1F
100
AcDbEntity
  8
図面枠
  6
CONTINUOUS
 62
     4
100
AcDbText
 10
1161.0
 20
652.1484375
 30
0.0
 40
10.38871247113164
  1
L
 41
0.999230769230769
  7
EXCADTTF1
 72
     5
 11
1167.75
 21
652.1484375
 31
0.0
100
AcDbText
  0
TEXT
  5
126
330
1F
100
AcDbEntity
  8
図面枠
  6
CONTINUOUS
 62
     4
100
AcDbText
 10
1122.0
 20
634.1484375
 30
0.0
 40
10.38871247113164
  1
約30
 41
0.999230769230769
  7
EXCADTTF1
 72
     5
 11
1149.0
 21
634.1484375
 31
0.0
100
AcDbText
  0
TEXT
  5
127
330
1F
100
AcDbEntity
  8
図面枠
  6
CONTINUOUS
 62
     4
100
AcDbText
 10
1122.0
 20
616.1484375
 30
0.0
 40
10.38871247113164
  1
約18
 41
0.999230769230769
  7
EXCADTTF1
 72
     5
 11
1149.0
 21
616.1484375
 31
0.0
100
AcDbText
  0
DIMENSION
  5
129
330
1F
100
AcDbEntity
  8
Ｓ_１_１
  6
CONTINUOUS
 62
     2
100
AcDbDimension
  2
*D15
 10
493.7523870000001
 20
550.231604
 30
0.0
 11
535.5347602353324
 21
586.9371391263546
 31
0.0
 70
   163
  1
　　　　%%c110
  3
ISO-25
100
AcDbDiametricDimension
 15
586.24765
 25
609.7683859999999
 35
0.0
 40
0.0
1001
ACAD
1000
DSTYLE
1002
{
1070
   270
1070
     2
1070
     6
1000
EX_NORM
1070
     7
1000
EX_NORM
1070
    41
1040
9.0
1070
    73
1070
     0
1070
    74
1070
     0
1070
    77
1070
     1
1070
    78
1070
     8
1070
   140
1040
10.38871247113164
1070
   147
1040
0.0
1070
   173
1070
     1
1070
   176
1070
     2
1070
   177
1070
     2
1070
   178
1070
     2
1070
   271
1070
     2
1070
   277
1070
     2
1070
   279
1070
     2
1070
   280
1070
     0
1070
   287
1070
     5
1070
   340
1005
128
1002
}
  0
DIMENSION
  5
134
330
1F
100
AcDbEntity
  8
Ｓ_１_１
  6
CONTINUOUS
 62
     2
100
AcDbDimension
  2
*D16
 10
280.0
 20
280.4999909999999
 30
0.0
 11
271.75
 21
230.2499954999999
 31
0.0
 70
   160
  1
100.5
  3
ISO-25
100
AcDbAlignedDimension
 13
446.999966
 23
179.9999999999999
 33
0.0
 14
389.999966
 24
280.4999909999999
 34
0.0
 50
90.0
100
AcDbRotatedDimension
1001
ACAD
1000
DSTYLE
1002
{
1070
   270
1070
     2
1070
     6
1000
EX_NORM
1070
     7
1000
EX_NORM
1070
    41
1040
9.0
1070
    42
1040
9.50000000000017
1070
    44
1040
3.000000000000057
1070
    73
1070
     0
1070
    74
1070
     0
1070
    75
1070
     0
1070
    76
1070
     0
1070
    77
1070
     1
1070
    78
1070
     8
1070
   140
1040
10.38871247113164
1070
   147
1040
0.0
1070
   173
1070
     1
1070
   176
1070
     2
1070
   177
1070
     2
1070
   178
1070
     2
1070
   271
1070
     2
1070
   277
1070
     2
1070
   279
1070
     2
1070
   280
1070
     0
1070
   287
1070
     5
1070
   340
1005
128
1002
}
  0
DIMENSION
  5
141
330
1F
100
AcDbEntity
  8
Ｓ_１_１
  6
CONTINUOUS
 62
     2
100
AcDbDimension
  2
*D17
 10
300.0
 20
280.4999909999999
 30
0.0
 11
291.75
 21
246.9999924999999
 31
0.0
 70
   160
  1
67
  3
ISO-25
100
AcDbAlignedDimension
 13
422.000011
 23
213.4999939999999
 33
0.0
 14
389.999966
 24
280.4999909999999
 34
0.0
 50
90.0
100
AcDbRotatedDimension
1001
ACAD
1000
DSTYLE
1002
{
1070
   270
1070
     2
1070
     6
1000
EX_NORM
1070
     7
1000
EX_NORM
1070
    41
1040
9.0
1070
    42
1040
0.0
1070
    44
1040
0.0
1070
    73
1070
     0
1070
    74
1070
     0
1070
    75
1070
     1
1070
    76
1070
     1
1070
    77
1070
     1
1070
    78
1070
     8
1070
   140
1040
10.38871247113164
1070
   147
1040
0.0
1070
   173
1070
     1
1070
   176
1070
     2
1070
   177
1070
     2
1070
   178
1070
     2
1070
   271
1070
     2
1070
   277
1070
     2
1070
   279
1070
     2
1070
   280
1070
     0
1070
   287
1070
     5
1070
   340
1005
128
1002
}
  0
DIMENSION
  5
14C
330
1F
100
AcDbEntity
  8
Ｓ_１_１
  6
CONTINUOUS
 62
     2
100
AcDbDimension
  2
*D18
 10
300.0
 20
213.4999939999999
 30
0.0
 11
291.75
 21
196.7499969999999
 31
0.0
 70
   160
  1
33.5
  3
ISO-25
100
AcDbAlignedDimension
 13
446.999966
 23
179.9999999999999
 33
0.0
 14
422.000011
 24
213.4999939999999
 34
0.0
 50
90.0
100
AcDbRotatedDimension
1001
ACAD
1000
DSTYLE
1002
{
1070
   270
1070
     2
1070
     6
1000
EX_NORM
1070
     7
1000
EX_NORM
1070
    41
1040
9.0
1070
    42
1040
4.5
1070
    44
1040
3.0
1070
    73
1070
     0
1070
    74
1070
     0
1070
    75
1070
     1
1070
    76
1070
     0
1070
    77
1070
     1
1070
    78
1070
     8
1070
   140
1040
10.38871247113164
1070
   147
1040
0.0
1070
   173
1070
     1
1070
   176
1070
     2
1070
   177
1070
     2
1070
   178
1070
     2
1070
   271
1070
     2
1070
   277
1070
     2
1070
   279
1070
     2
1070
   280
1070
     0
1070
   287
1070
     5
1070
   340
1005
128
1002
}
  0
DIMENSION
  5
158
330
1F
100
AcDbEntity
  8
Ｓ_１_１
  6
CONTINUOUS
 62
     2
100
AcDbDimension
  2
*D19
 10
780.0
 20
709.9999979999999
 30
0.0
 11
771.75
 21
579.9999999999999
 31
0.0
 70
   160
  1
260
  3
ISO-25
100
AcDbAlignedDimension
 13
410.000042
 23
450.0000019999999
 33
0.0
 14
410.000042
 24
709.9999979999999
 34
0.0
 50
90.0
100
AcDbRotatedDimension
1001
ACAD
1000
DSTYLE
1002
{
1070
   270
1070
     2
1070
     6
1000
EX_NORM
1070
     7
1000
EX_NORM
1070
    41
1040
9.0
1070
    42
1040
269.999958
1070
    44
1040
3.0
1070
    73
1070
     0
1070
    74
1070
     0
1070
    75
1070
     0
1070
    76
1070
     0
1070
    77
1070
     1
1070
    78
1070
     8
1070
   140
1040
10.38871247113164
1070
   147
1040
0.0
1070
   173
1070
     1
1070
   176
1070
     2
1070
   177
1070
     2
1070
   178
1070
     2
1070
   271
1070
     2
1070
   277
1070
     2
1070
   279
1070
     2
1070
   280
1070
     0
1070
   287
1070
     5
1070
   340
1005
128
1002
}
  0
DIMENSION
  5
165
330
1F
100
AcDbEntity
  8
Ｓ_１_１
  6
CONTINUOUS
 62
     2
100
AcDbDimension
  2
*D20
 10
300.0000000000001
 20
702.4999979999999
 30
0.0
 11
291.7500000000002
 21
580.0
 31
0.0
 70
   160
  1
245
  3
ISO-25
100
AcDbAlignedDimension
 13
512.499996
 23
457.5000019999999
 33
0.0
 14
512.499996
 24
702.4999979999999
 34
0.0
 50
90.0
100
AcDbRotatedDimension
1001
ACAD
1000
DSTYLE
1002
{
1070
   270
1070
     2
1070
     6
1000
EX_NORM
1070
     7
1000
EX_NORM
1070
    41
1040
9.0
1070
    42
1040
4.500000000000057
1070
    44
1040
3.000000000000114
1070
    73
1070
     0
1070
    74
1070
     0
1070
    75
1070
     0
1070
    76
1070
     0
1070
    77
1070
     1
1070
    78
1070
     8
1070
   140
1040
10.38871247113164
1070
   147
1040
0.0
1070
   173
1070
     1
1070
   176
1070
     2
1070
   177
1070
     2
1070
   178
1070
     2
1070
   271
1070
     2
1070
   277
1070
     2
1070
   279
1070
     2
1070
   280
1070
     0
1070
   287
1070
     5
1070
   340
1005
128
1002
}
  0
LINE
  5
172
330
1F
100
AcDbEntity
  8
Ｓ_１_１
  6
CONTINUOUS
 62
     2
100
AcDbLine
 10
350.000041
 20
475.5000029999998
 30
0.0
 11
350.000041
 21
398.8750029999999
 31
0.0
  0
DIMENSION
  5
173
330
1F
100
AcDbEntity
  8
Ｓ_１_１
  6
CONTINUOUS
 62
     2
100
AcDbDimension
  2
*D21
 10
380.000041
 20
400.0000000000003
 30
0.0
 11
540.0000195
 21
408.2500000000003
 31
0.0
 70
   160
  1
320
  3
ISO-25
100
AcDbAlignedDimension
 13
699.999998
 23
480.0000029999998
 33
0.0
 14
380.000041
 24
480.0000029999998
 34
0.0
100
AcDbRotatedDimension
1001
ACAD
1000
DSTYLE
1002
{
1070
   270
1070
     2
1070
     6
1000
EX_NORM
1070
     7
1000
EX_NORM
1070
    41
1040
9.0
1070
    42
1040
4.5
1070
    44
1040
3.000000000007617
1070
    73
1070
     0
1070
    74
1070
     0
1070
    75
1070
     0
1070
    76
1070
     0
1070
    77
1070
     1
1070
    78
1070
     8
1070
   140
1040
10.38871247113164
1070
   147
1040
0.0
1070
   173
1070
     1
1070
   176
1070
     2
1070
   177
1070
     2
1070
   178
1070
     2
1070
   271
1070
     2
1070
   277
1070
     2
1070
   279
1070
     2
1070
   280
1070
     0
1070
   287
1070
     5
1070
   340
1005
128
1002
}
  0
DIMENSION
  5
180
330
1F
100
AcDbEntity
  8
Ｓ_１_１
  6
CONTINUOUS
 62
     2
100
AcDbDimension
  2
*D22
 10
350.000041
 20
400.0000000000002
 30
0.0
 11
300.5000410000002
 21
408.2500000000001
 31
0.0
 70
   160
  1
30（移動量）
  3
ISO-25
100
AcDbAlignedDimension
 13
380.000041
 23
479.9999260000099
 33
0.0
 14
350.000041
 24
479.9999179999999
 34
0.0
100
AcDbRotatedDimension
1001
ACAD
1000
DSTYLE
1002
{
1070
   270
1070
     2
1070
     6
1000
EX_NORM
1070
     7
1000
EX_NORM
1070
    41
1040
9.0
1070
    42
1040
4.5
1070
    44
1040
3.0
1070
    73
1070
     0
1070
    74
1070
     0
1070
    75
1070
     1
1070
    76
1070
     0
1070
    77
1070
     1
1070
    78
1070
     8
1070
   140
1040
10.38871247113164
1070
   147
1040
0.0
1070
   173
1070
     1
1070
   176
1070
     2
1070
   177
1070
     2
1070
   178
1070
     2
1070
   271
1070
     2
1070
   277
1070
     2
1070
   279
1070
     2
1070
   280
1070
     2
1070
   287
1070
     5
1070
   340
1005
128
1002
}
  0
DIMENSION
  5
18C
330
1F
100
AcDbEntity
  8
Ｓ_１_１
  6
CONTINUOUS
 62
     2
100
AcDbDimension
  2
*D23
 10
729.9999970000001
 20
400.0000000000003
 30
0.0
 11
779.4999970000001
 21
408.2500000000003
 31
0.0
 70
   160
  1
30（移動量）
  3
ISO-25
100
AcDbAlignedDimension
 13
699.999998
 23
480.0000019999999
 33
0.0
 14
729.9999970000001
 24
480.0000229999999
 34
0.0
100
AcDbRotatedDimension
1001
ACAD
1000
DSTYLE
1002
{
1070
   270
1070
     2
1070
     6
1000
EX_NORM
1070
     7
1000
EX_NORM
1070
    41
1040
9.0
1070
    42
1040
4.5
1070
    44
1040
3.0
1070
    73
1070
     0
1070
    74
1070
     0
1070
    75
1070
     1
1070
    76
1070
     0
1070
    77
1070
     1
1070
    78
1070
     8
1070
   140
1040
10.38871247113164
1070
   147
1040
0.0
1070
   173
1070
     1
1070
   176
1070
     2
1070
   177
1070
     2
1070
   178
1070
     2
1070
   271
1070
     2
1070
   277
1070
     2
1070
   279
1070
     2
1070
   280
1070
     2
1070
   287
1070
     5
1070
   340
1005
128
1002
}
  0
LINE
  5
198
330
1F
100
AcDbEntity
  8
Ｓ_１_１
  6
EXLTYPE2
 62
     1
100
AcDbLine
 10
342.3375349999999
 20
579.9999999999999
 30
0.0
 11
734.337499
 21
579.9999999999999
 31
0.0
  0
LINE
  5
199
330
1F
100
AcDbEntity
  8
Ｓ_１_１
  6
EXLTYPE2
 62
     1
100
AcDbLine
 10
540.0
 20
719.0624979999999
 30
0.0
 11
540.0
 21
438.1874869999999
 31
0.0
  0
ARC
  5
19A
330
1F
100
AcDbEntity
  8
Ｓ_１_１
  6
EXLTYPE0
 62
     2
100
AcDbCircle
 10
512.5
 20
579.9999999999999
 30
0.0
 40
122.499998
100
AcDbArc
 50
90.000003
 51
270.0000010000001
  0
ARC
  5
19B
330
1F
100
AcDbEntity
  8
Ｓ_１_１
  6
EXLTYPE0
 62
     2
100
AcDbCircle
 10
567.5
 20
579.9999999999999
 30
0.0
 40
122.499998
100
AcDbArc
 50
269.999997
 51
90.000003
  0
CIRCLE
  5
19C
330
1F
100
AcDbEntity
  8
Ｓ_１_１
  6
EXLTYPE0
 62
     2
100
AcDbCircle
 10
540.0
 20
579.9999999999999
 30
0.0
 40
119.999998
  0
CIRCLE
  5
19D
330
1F
100
AcDbEntity
  8
Ｓ_１_１
  6
EXLTYPE0
 62
     2
100
AcDbCircle
 10
540.0
 20
579.9999999999999
 30
0.0
 40
54.999999
  0
LINE
  5
19E
330
1F
100
AcDbEntity
  8
Ｓ_１_１
  6
EXLTYPE0
 62
     2
100
AcDbLine
 10
512.5
 20
457.5000019999999
 30
0.0
 11
567.5
 21
457.5000019999999
 31
0.0
  0
LINE
  5
19F
330
1F
100
AcDbEntity
  8
Ｓ_１_１
  6
EXLTYPE0
 62
     2
100
AcDbLine
 10
512.5
 20
702.4999979999999
 30
0.0
 11
567.5
 21
702.4999979999999
 31
0.0
  0
LINE
  5
1A0
330
1F
100
AcDbEntity
  8
Ｓ_１_１
  6
EXLTYPE3
 62
     2
100
AcDbLine
 10
699.999978
 20
450.0000019999999
 30
0.0
 11
729.999984
 21
480.0000099999999
 31
0.0
  0
LINE
  5
1A1
330
1F
100
AcDbEntity
  8
Ｓ_１_１
  6
EXLTYPE3
 62
     2
100
AcDbLine
 10
729.999977
 20
680.0000139999999
 30
0.0
 11
699.9999970000001
 21
709.9999919999999
 31
0.0
  0
LINE
  5
1A2
330
1F
100
AcDbEntity
  8
Ｓ_１_１
  6
EXLTYPE3
 62
     2
100
AcDbLine
 10
729.9999969999999
 20
679.999999
 30
0.0
 11
729.9999969999999
 21
480.0000019999999
 31
0.0
  0
LINE
  5
1A3
330
1F
100
AcDbEntity
  8
Ｓ_１_１
  6
EXLTYPE3
 62
     2
100
AcDbLine
 10
349.999983
 20
479.9999759999999
 30
0.0
 11
379.999963
 21
449.9999979999998
 31
0.0
  0
LINE
  5
1A4
330
1F
100
AcDbEntity
  8
Ｓ_１_１
  6
EXLTYPE3
 62
     2
100
AcDbLine
 10
349.999982
 20
679.999999
 30
0.0
 11
379.999989
 21
710.0000039999999
 31
0.0
  0
LINE
  5
1A5
330
1F
100
AcDbEntity
  8
Ｓ_１_１
  6
EXLTYPE3
 62
     2
100
AcDbLine
 10
350.000041
 20
679.999999
 30
0.0
 11
350.000041
 21
480.0000019999999
 31
0.0
  0
LINE
  5
1A6
330
1F
100
AcDbEntity
  8
Ｓ_１_１
  6
CONTINUOUS
 62
     3
100
AcDbLine
 10
699.999965
 20
680.0000329999999
 30
0.0
 11
669.9999849999999
 21
710.0000099999999
 31
0.0
  0
LINE
  5
1A7
330
1F
100
AcDbEntity
  8
Ｓ_１_１
  6
CONTINUOUS
 62
     3
100
AcDbLine
 10
669.999992
 20
449.9999939999998
 30
0.0
 11
699.999992
 21
479.9999959999998
 31
0.0
  0
LINE
  5
1A8
330
1F
100
AcDbEntity
  8
Ｓ_１_１
  6
CONTINUOUS
 62
     3
100
AcDbLine
 10
379.999949
 20
480.0000179999999
 30
0.0
 11
409.9999829999999
 21
449.9999859999999
 31
0.0
  0
LINE
  5
1A9
330
1F
100
AcDbEntity
  8
Ｓ_１_１
  6
CONTINUOUS
 62
     3
100
AcDbLine
 10
380.0000010000001
 20
679.9999839999999
 30
0.0
 11
410.000015
 21
709.9999959999999
 31
0.0
  0
LINE
  5
1AA
330
1F
100
AcDbEntity
  8
Ｓ_１_１
  6
CONTINUOUS
 62
     3
100
AcDbLine
 10
410.00004
 20
450.0000019999999
 30
0.0
 11
669.999998
 21
450.0000019999999
 31
0.0
  0
LINE
  5
1AB
330
1F
100
AcDbEntity
  8
Ｓ_１_１
  6
CONTINUOUS
 62
     3
100
AcDbLine
 10
699.999998
 20
679.999999
 30
0.0
 11
699.999998
 21
480.0000019999999
 31
0.0
  0
LINE
  5
1AC
330
1F
100
AcDbEntity
  8
Ｓ_１_１
  6
CONTINUOUS
 62
     3
100
AcDbLine
 10
380.000041
 20
679.999999
 30
0.0
 11
380.000041
 21
480.0000019999999
 31
0.0
  0
LINE
  5
1AD
330
1F
100
AcDbEntity
  8
Ｓ_１_１
  6
EXLTYPE2
 62
     1
100
AcDbLine
 10
540.0
 20
316.5958959999999
 30
0.0
 11
540.0
 21
166.6503009999999
 31
0.0
  0
LINE
  5
1AE
330
1F
100
AcDbEntity
  8
Ｓ_１_１
  6
EXLTYPE2
 62
     1
100
AcDbLine
 10
492.5000010000001
 20
209.9999999999999
 30
0.0
 11
492.5000010000001
 21
189.9999999999999
 31
0.0
  0
LINE
  5
1AF
330
1F
100
AcDbEntity
  8
Ｓ_１_１
  6
EXLTYPE2
 62
     1
100
AcDbLine
 10
482.5000010000001
 20
199.9999999999999
 30
0.0
 11
502.500001
 21
199.9999999999999
 31
0.0
  0
LINE
  5
1B0
330
1F
100
AcDbEntity
  8
Ｓ_１_１
  6
EXLTYPE2
 62
     1
100
AcDbLine
 10
550.0
 20
228.4999939999999
 30
0.0
 11
530.0
 21
228.4999939999999
 31
0.0
  0
LINE
  5
1B1
330
1F
100
AcDbEntity
  8
Ｓ_１_１
  6
EXLTYPE2
 62
     1
100
AcDbLine
 10
649.5928940000001
 20
228.4999939999999
 30
0.0
 11
629.5928940000001
 21
228.4999939999999
 31
0.0
  0
LINE
  5
1B2
330
1F
100
AcDbEntity
  8
Ｓ_１_１
  6
EXLTYPE2
 62
     1
100
AcDbLine
 10
639.5928940000001
 20
218.4999939999999
 30
0.0
 11
639.5928940000001
 21
238.4999939999999
 31
0.0
  0
LINE
  5
1B3
330
1F
100
AcDbEntity
  8
Ｓ_１_１
  6
EXLTYPE2
 62
     1
100
AcDbLine
 10
450.4071060000001
 20
228.4999939999999
 30
0.0
 11
430.407068
 21
228.4999939999999
 31
0.0
  0
LINE
  5
1B4
330
1F
100
AcDbEntity
  8
Ｓ_１_１
  6
EXLTYPE2
 62
     1
100
AcDbLine
 10
440.407068
 20
218.4999939999999
 30
0.0
 11
440.407068
 21
238.4999939999999
 31
0.0
  0
LINE
  5
1B5
330
1F
100
AcDbEntity
  8
Ｓ_１_１
  6
EXLTYPE0
 62
     2
100
AcDbLine
 10
659.9999600000001
 20
270.4999909999999
 30
0.0
 11
659.9999600000001
 21
280.5000099999999
 31
0.0
  0
POLYLINE
  5
1B6
330
1F
100
AcDbEntity
  8
Ｓ_１_１
  6
CONTINUOUS
 62
     3
100
AcDb2dPolyline
 66
     1
 10
0.0
 20
0.0
 30
0.0
 70
   128
  0
VERTEX
  5
1B7
330
1B6
100
AcDbEntity
  8
Ｓ_１_１
  6
CONTINUOUS
 62
     3
100
AcDbVertex
100
AcDb2dVertex
 10
492.5000010000001
 20
196.9999979999999
 30
0.0
  0
VERTEX
  5
1B8
330
1B6
100
AcDbEntity
  8
Ｓ_１_１
  6
CONTINUOUS
 62
     3
100
AcDbVertex
100
AcDb2dVertex
 10
492.674313
 20
197.0114139999999
 30
0.0
  0
VERTEX
  5
1B9
330
1B6
100
AcDbEntity
  8
Ｓ_１_１
  6
CONTINUOUS
 62
     3
100
AcDbVertex
100
AcDb2dVertex
 10
492.8472979999999
 20
197.0455749999999
 30
0.0
  0
VERTEX
  5
1BA
330
1B6
100
AcDbEntity
  8
Ｓ_１_１
  6
CONTINUOUS
 62
     3
100
AcDbVertex
100
AcDb2dVertex
 10
493.0176409999999
 20
197.1022209999999
 30
0.0
  0
VERTEX
  5
1BB
330
1B6
100
AcDbEntity
  8
Ｓ_１_１
  6
CONTINUOUS
 62
     3
100
AcDbVertex
100
AcDb2dVertex
 10
493.184044
 20
197.1809209999999
 30
0.0
  0
VERTEX
  5
1BC
330
1B6
100
AcDbEntity
  8
Ｓ_１_１
  6
CONTINUOUS
 62
     3
100
AcDbVertex
100
AcDb2dVertex
 10
493.34524
 20
197.2810749999999
 30
0.0
  0
VERTEX
  5
1BD
330
1B6
100
AcDbEntity
  8
Ｓ_１_１
  6
CONTINUOUS
 62
     3
100
AcDbVertex
100
AcDb2dVertex
 10
493.500005
 20
197.4019219999999
 30
0.0
  0
VERTEX
  5
1BE
330
1B6
100
AcDbEntity
  8
Ｓ_１_１
  6
CONTINUOUS
 62
     3
100
AcDbVertex
100
AcDb2dVertex
 10
493.647158
 20
197.5425419999999
 30
0.0
  0
VERTEX
  5
1BF
330
1B6
100
AcDbEntity
  8
Ｓ_１_１
  6
CONTINUOUS
 62
     3
100
AcDbVertex
100
AcDb2dVertex
 10
493.785581
 20
197.7018649999999
 30
0.0
  0
VERTEX
  5
1C0
330
1B6
100
AcDbEntity
  8
Ｓ_１_１
  6
CONTINUOUS
 62
     3
100
AcDbVertex
100
AcDb2dVertex
 10
493.9142200000001
 20
197.878678
 30
0.0
  0
VERTEX
  5
1C1
330
1B6
100
AcDbEntity
  8
Ｓ_１_１
  6
CONTINUOUS
 62
     3
100
AcDbVertex
100
AcDb2dVertex
 10
494.032095
 20
198.0716359999999
 30
0.0
  0
VERTEX
  5
1C2
330
1B6
100
AcDbEntity
  8
Ｓ_１_１
  6
CONTINUOUS
 62
     3
100
AcDbVertex
100
AcDb2dVertex
 10
494.1383109999999
 20
198.2792699999999
 30
0.0
  0
VERTEX
  5
1C3
330
1B6
100
AcDbEntity
  8
Ｓ_１_１
  6
CONTINUOUS
 62
     3
100
AcDbVertex
100
AcDb2dVertex
 10
494.2320579999999
 20
198.4999989999999
 30
0.0
  0
VERTEX
  5
1C4
330
1B6
100
AcDbEntity
  8
Ｓ_１_１
  6
CONTINUOUS
 62
     3
100
AcDbVertex
100
AcDb2dVertex
 10
494.312623
 20
198.7321449999999
 30
0.0
  0
VERTEX
  5
1C5
330
1B6
100
AcDbEntity
  8
Ｓ_１_１
  6
CONTINUOUS
 62
     3
100
AcDbVertex
100
AcDb2dVertex
 10
494.379393
 20
198.9739389999999
 30
0.0
  0
VERTEX
  5
1C6
330
1B6
100
AcDbEntity
  8
Ｓ_１_１
  6
CONTINUOUS
 62
     3
100
AcDbVertex
100
AcDb2dVertex
 10
494.4318599999999
 20
199.2235429999999
 30
0.0
  0
VERTEX
  5
1C7
330
1B6
100
AcDbEntity
  8
Ｓ_１_１
  6
CONTINUOUS
 62
     3
100
AcDbVertex
100
AcDb2dVertex
 10
494.469624
 20
199.4790549999999
 30
0.0
  0
VERTEX
  5
1C8
330
1B6
100
AcDbEntity
  8
Ｓ_１_１
  6
CONTINUOUS
 62
     3
100
AcDbVertex
100
AcDb2dVertex
 10
494.492398
 20
199.7385329999999
 30
0.0
  0
VERTEX
  5
1C9
330
1B6
100
AcDbEntity
  8
Ｓ_１_１
  6
CONTINUOUS
 62
     3
100
AcDbVertex
100
AcDb2dVertex
 10
494.500008
 20
199.9999999999999
 30
0.0
  0
VERTEX
  5
1CA
330
1B6
100
AcDbEntity
  8
Ｓ_１_１
  6
CONTINUOUS
 62
     3
100
AcDbVertex
100
AcDb2dVertex
 10
494.492398
 20
200.261468
 30
0.0
  0
VERTEX
  5
1CB
330
1B6
100
AcDbEntity
  8
Ｓ_１_１
  6
CONTINUOUS
 62
     3
100
AcDbVertex
100
AcDb2dVertex
 10
494.469624
 20
200.5209449999999
 30
0.0
  0
VERTEX
  5
1CC
330
1B6
100
AcDbEntity
  8
Ｓ_１_１
  6
CONTINUOUS
 62
     3
100
AcDbVertex
100
AcDb2dVertex
 10
494.4318599999999
 20
200.7764579999999
 30
0.0
  0
VERTEX
  5
1CD
330
1B6
100
AcDbEntity
  8
Ｓ_１_１
  6
CONTINUOUS
 62
     3
100
AcDbVertex
100
AcDb2dVertex
 10
494.379393
 20
201.0260609999999
 30
0.0
  0
VERTEX
  5
1CE
330
1B6
100
AcDbEntity
  8
Ｓ_１_１
  6
CONTINUOUS
 62
     3
100
AcDbVertex
100
AcDb2dVertex
 10
494.312623
 20
201.2678559999999
 30
0.0
  0
VERTEX
  5
1CF
330
1B6
100
AcDbEntity
  8
Ｓ_１_１
  6
CONTINUOUS
 62
     3
100
AcDbVertex
100
AcDb2dVertex
 10
494.2320579999999
 20
201.5000009999999
 30
0.0
  0
VERTEX
  5
1D0
330
1B6
100
AcDbEntity
  8
Ｓ_１_１
  6
CONTINUOUS
 62
     3
100
AcDbVertex
100
AcDb2dVertex
 10
494.1383109999999
 20
201.7207299999999
 30
0.0
  0
VERTEX
  5
1D1
330
1B6
100
AcDbEntity
  8
Ｓ_１_１
  6
CONTINUOUS
 62
     3
100
AcDbVertex
100
AcDb2dVertex
 10
494.032095
 20
201.9283639999999
 30
0.0
  0
VERTEX
  5
1D2
330
1B6
100
AcDbEntity
  8
Ｓ_１_１
  6
CONTINUOUS
 62
     3
100
AcDbVertex
100
AcDb2dVertex
 10
493.9142200000001
 20
202.1213219999999
 30
0.0
  0
VERTEX
  5
1D3
330
1B6
100
AcDbEntity
  8
Ｓ_１_１
  6
CONTINUOUS
 62
     3
100
AcDbVertex
100
AcDb2dVertex
 10
493.785581
 20
202.2981349999999
 30
0.0
  0
VERTEX
  5
1D4
330
1B6
100
AcDbEntity
  8
Ｓ_１_１
  6
CONTINUOUS
 62
     3
100
AcDbVertex
100
AcDb2dVertex
 10
493.647158
 20
202.4574579999999
 30
0.0
  0
VERTEX
  5
1D5
330
1B6
100
AcDbEntity
  8
Ｓ_１_１
  6
CONTINUOUS
 62
     3
100
AcDbVertex
100
AcDb2dVertex
 10
493.500005
 20
202.5980779999999
 30
0.0
  0
VERTEX
  5
1D6
330
1B6
100
AcDbEntity
  8
Ｓ_１_１
  6
CONTINUOUS
 62
     3
100
AcDbVertex
100
AcDb2dVertex
 10
493.34524
 20
202.7189249999999
 30
0.0
  0
VERTEX
  5
1D7
330
1B6
100
AcDbEntity
  8
Ｓ_１_１
  6
CONTINUOUS
 62
     3
100
AcDbVertex
100
AcDb2dVertex
 10
493.184044
 20
202.8190799999999
 30
0.0
  0
VERTEX
  5
1D8
330
1B6
100
AcDbEntity
  8
Ｓ_１_１
  6
CONTINUOUS
 62
     3
100
AcDbVertex
100
AcDb2dVertex
 10
493.0176409999999
 20
202.8977789999999
 30
0.0
  0
VERTEX
  5
1D9
330
1B6
100
AcDbEntity
  8
Ｓ_１_１
  6
CONTINUOUS
 62
     3
100
AcDbVertex
100
AcDb2dVertex
 10
492.8472979999999
 20
202.9544249999999
 30
0.0
  0
VERTEX
  5
1DA
330
1B6
100
AcDbEntity
  8
Ｓ_１_１
  6
CONTINUOUS
 62
     3
100
AcDbVertex
100
AcDb2dVertex
 10
492.674313
 20
202.9885859999999
 30
0.0
  0
VERTEX
  5
1DB
330
1B6
100
AcDbEntity
  8
Ｓ_１_１
  6
CONTINUOUS
 62
     3
100
AcDbVertex
100
AcDb2dVertex
 10
492.5000010000001
 20
203.0000019999999
 30
0.0
  0
VERTEX
  5
1DC
330
1B6
100
AcDbEntity
  8
Ｓ_１_１
  6
CONTINUOUS
 62
     3
100
AcDbVertex
100
AcDb2dVertex
 10
492.325689
 20
202.9885859999999
 30
0.0
  0
VERTEX
  5
1DD
330
1B6
100
AcDbEntity
  8
Ｓ_１_１
  6
CONTINUOUS
 62
     3
100
AcDbVertex
100
AcDb2dVertex
 10
492.152703
 20
202.9544249999999
 30
0.0
  0
VERTEX
  5
1DE
330
1B6
100
AcDbEntity
  8
Ｓ_１_１
  6
CONTINUOUS
 62
     3
100
AcDbVertex
100
AcDb2dVertex
 10
491.982361
 20
202.8977789999999
 30
0.0
  0
VERTEX
  5
1DF
330
1B6
100
AcDbEntity
  8
Ｓ_１_１
  6
CONTINUOUS
 62
     3
100
AcDbVertex
100
AcDb2dVertex
 10
491.815958
 20
202.8190799999999
 30
0.0
  0
VERTEX
  5
1E0
330
1B6
100
AcDbEntity
  8
Ｓ_１_１
  6
CONTINUOUS
 62
     3
100
AcDbVertex
100
AcDb2dVertex
 10
491.6547609999999
 20
202.7189249999999
 30
0.0
  0
VERTEX
  5
1E1
330
1B6
100
AcDbEntity
  8
Ｓ_１_１
  6
CONTINUOUS
 62
     3
100
AcDbVertex
100
AcDb2dVertex
 10
491.499997
 20
202.5980779999999
 30
0.0
  0
VERTEX
  5
1E2
330
1B6
100
AcDbEntity
  8
Ｓ_１_１
  6
CONTINUOUS
 62
     3
100
AcDbVertex
100
AcDb2dVertex
 10
491.3528429999999
 20
202.4574579999999
 30
0.0
  0
VERTEX
  5
1E3
330
1B6
100
AcDbEntity
  8
Ｓ_１_１
  6
CONTINUOUS
 62
     3
100
AcDbVertex
100
AcDb2dVertex
 10
491.214421
 20
202.2981349999999
 30
0.0
  0
VERTEX
  5
1E4
330
1B6
100
AcDbEntity
  8
Ｓ_１_１
  6
CONTINUOUS
 62
     3
100
AcDbVertex
100
AcDb2dVertex
 10
491.0857820000001
 20
202.1213219999999
 30
0.0
  0
VERTEX
  5
1E5
330
1B6
100
AcDbEntity
  8
Ｓ_１_１
  6
CONTINUOUS
 62
     3
100
AcDbVertex
100
AcDb2dVertex
 10
490.967906
 20
201.9283639999999
 30
0.0
  0
VERTEX
  5
1E6
330
1B6
100
AcDbEntity
  8
Ｓ_１_１
  6
CONTINUOUS
 62
     3
100
AcDbVertex
100
AcDb2dVertex
 10
490.86169
 20
201.7207299999999
 30
0.0
  0
VERTEX
  5
1E7
330
1B6
100
AcDbEntity
  8
Ｓ_１_１
  6
CONTINUOUS
 62
     3
100
AcDbVertex
100
AcDb2dVertex
 10
490.767943
 20
201.5000009999999
 30
0.0
  0
VERTEX
  5
1E8
330
1B6
100
AcDbEntity
  8
Ｓ_１_１
  6
CONTINUOUS
 62
     3
100
AcDbVertex
100
AcDb2dVertex
 10
490.687378
 20
201.2678559999999
 30
0.0
  0
VERTEX
  5
1E9
330
1B6
100
AcDbEntity
  8
Ｓ_１_１
  6
CONTINUOUS
 62
     3
100
AcDbVertex
100
AcDb2dVertex
 10
490.620608
 20
201.0260609999999
 30
0.0
  0
VERTEX
  5
1EA
330
1B6
100
AcDbEntity
  8
Ｓ_１_１
  6
CONTINUOUS
 62
     3
100
AcDbVertex
100
AcDb2dVertex
 10
490.568142
 20
200.7764579999999
 30
0.0
  0
VERTEX
  5
1EB
330
1B6
100
AcDbEntity
  8
Ｓ_１_１
  6
CONTINUOUS
 62
     3
100
AcDbVertex
100
AcDb2dVertex
 10
490.530378
 20
200.5209449999999
 30
0.0
  0
VERTEX
  5
1EC
330
1B6
100
AcDbEntity
  8
Ｓ_１_１
  6
CONTINUOUS
 62
     3
100
AcDbVertex
100
AcDb2dVertex
 10
490.5076039999999
 20
200.261468
 30
0.0
  0
VERTEX
  5
1ED
330
1B6
100
AcDbEntity
  8
Ｓ_１_１
  6
CONTINUOUS
 62
     3
100
AcDbVertex
100
AcDb2dVertex
 10
490.499993
 20
199.9999999999999
 30
0.0
  0
VERTEX
  5
1EE
330
1B6
100
AcDbEntity
  8
Ｓ_１_１
  6
CONTINUOUS
 62
     3
100
AcDbVertex
100
AcDb2dVertex
 10
490.5076039999999
 20
199.7385329999999
 30
0.0
  0
VERTEX
  5
1EF
330
1B6
100
AcDbEntity
  8
Ｓ_１_１
  6
CONTINUOUS
 62
     3
100
AcDbVertex
100
AcDb2dVertex
 10
490.530378
 20
199.4790549999999
 30
0.0
  0
VERTEX
  5
1F0
330
1B6
100
AcDbEntity
  8
Ｓ_１_１
  6
CONTINUOUS
 62
     3
100
AcDbVertex
100
AcDb2dVertex
 10
490.568142
 20
199.2235429999999
 30
0.0
  0
VERTEX
  5
1F1
330
1B6
100
AcDbEntity
  8
Ｓ_１_１
  6
CONTINUOUS
 62
     3
100
AcDbVertex
100
AcDb2dVertex
 10
490.620608
 20
198.9739389999999
 30
0.0
  0
VERTEX
  5
1F2
330
1B6
100
AcDbEntity
  8
Ｓ_１_１
  6
CONTINUOUS
 62
     3
100
AcDbVertex
100
AcDb2dVertex
 10
490.687378
 20
198.7321449999999
 30
0.0
  0
VERTEX
  5
1F3
330
1B6
100
AcDbEntity
  8
Ｓ_１_１
  6
CONTINUOUS
 62
     3
100
AcDbVertex
100
AcDb2dVertex
 10
490.767943
 20
198.4999989999999
 30
0.0
  0
VERTEX
  5
1F4
330
1B6
100
AcDbEntity
  8
Ｓ_１_１
  6
CONTINUOUS
 62
     3
100
AcDbVertex
100
AcDb2dVertex
 10
490.86169
 20
198.2792699999999
 30
0.0
  0
VERTEX
  5
1F5
330
1B6
100
AcDbEntity
  8
Ｓ_１_１
  6
CONTINUOUS
 62
     3
100
AcDbVertex
100
AcDb2dVertex
 10
490.967906
 20
198.0716359999999
 30
0.0
  0
VERTEX
  5
1F6
330
1B6
100
AcDbEntity
  8
Ｓ_１_１
  6
CONTINUOUS
 62
     3
100
AcDbVertex
100
AcDb2dVertex
 10
491.0857820000001
 20
197.878678
 30
0.0
  0
VERTEX
  5
1F7
330
1B6
100
AcDbEntity
  8
Ｓ_１_１
  6
CONTINUOUS
 62
     3
100
AcDbVertex
100
AcDb2dVertex
 10
491.214421
 20
197.7018649999999
 30
0.0
  0
VERTEX
  5
1F8
330
1B6
100
AcDbEntity
  8
Ｓ_１_１
  6
CONTINUOUS
 62
     3
100
AcDbVertex
100
AcDb2dVertex
 10
491.3528429999999
 20
197.5425419999999
 30
0.0
  0
VERTEX
  5
1F9
330
1B6
100
AcDbEntity
  8
Ｓ_１_１
  6
CONTINUOUS
 62
     3
100
AcDbVertex
100
AcDb2dVertex
 10
491.499997
 20
197.4019219999999
 30
0.0
  0
VERTEX
  5
1FA
330
1B6
100
AcDbEntity
  8
Ｓ_１_１
  6
CONTINUOUS
 62
     3
100
AcDbVertex
100
AcDb2dVertex
 10
491.6547609999999
 20
197.2810749999999
 30
0.0
  0
VERTEX
  5
1FB
330
1B6
100
AcDbEntity
  8
Ｓ_１_１
  6
CONTINUOUS
 62
     3
100
AcDbVertex
100
AcDb2dVertex
 10
491.815958
 20
197.1809209999999
 30
0.0
  0
VERTEX
  5
1FC
330
1B6
100
AcDbEntity
  8
Ｓ_１_１
  6
CONTINUOUS
 62
     3
100
AcDbVertex
100
AcDb2dVertex
 10
491.982361
 20
197.1022209999999
 30
0.0
  0
VERTEX
  5
1FD
330
1B6
100
AcDbEntity
  8
Ｓ_１_１
  6
CONTINUOUS
 62
     3
100
AcDbVertex
100
AcDb2dVertex
 10
492.152703
 20
197.0455749999999
 30
0.0
  0
VERTEX
  5
1FE
330
1B6
100
AcDbEntity
  8
Ｓ_１_１
  6
CONTINUOUS
 62
     3
100
AcDbVertex
100
AcDb2dVertex
 10
492.325689
 20
197.0114139999999
 30
0.0
  0
VERTEX
  5
1FF
330
1B6
100
AcDbEntity
  8
Ｓ_１_１
  6
CONTINUOUS
 62
     3
100
AcDbVertex
100
AcDb2dVertex
 10
492.5000010000001
 20
196.9999979999999
 30
0.0
  0
SEQEND
  5
200
330
1B6
100
AcDbEntity
  8
Ｓ_１_１
  6
CONTINUOUS
 62
     3
  0
POLYLINE
  5
201
330
1F
100
AcDbEntity
  8
Ｓ_１_１
  6
CONTINUOUS
 62
     3
100
AcDb2dPolyline
 66
     1
 10
0.0
 20
0.0
 30
0.0
 70
   128
  0
VERTEX
  5
202
330
201
100
AcDbEntity
  8
Ｓ_１_１
  6
CONTINUOUS
 62
     3
100
AcDbVertex
100
AcDb2dVertex
 10
492.5000010000001
 20
195.9999939999999
 30
0.0
  0
VERTEX
  5
203
330
201
100
AcDbEntity
  8
Ｓ_１_１
  6
CONTINUOUS
 62
     3
100
AcDbVertex
100
AcDb2dVertex
 10
492.761467
 20
196.0152159999999
 30
0.0
  0
VERTEX
  5
204
330
201
100
AcDbEntity
  8
Ｓ_１_１
  6
CONTINUOUS
 62
     3
100
AcDbVertex
100
AcDb2dVertex
 10
493.020944
 20
196.0607629999999
 30
0.0
  0
VERTEX
  5
205
330
201
100
AcDbEntity
  8
Ｓ_１_１
  6
CONTINUOUS
 62
     3
100
AcDbVertex
100
AcDb2dVertex
 10
493.2764559999999
 20
196.1362909999999
 30
0.0
  0
VERTEX
  5
206
330
201
100
AcDbEntity
  8
Ｓ_１_１
  6
CONTINUOUS
 62
     3
100
AcDbVertex
100
AcDb2dVertex
 10
493.526059
 20
196.2412239999999
 30
0.0
  0
VERTEX
  5
207
330
201
100
AcDbEntity
  8
Ｓ_１_１
  6
CONTINUOUS
 62
     3
100
AcDbVertex
100
AcDb2dVertex
 10
493.767852
 20
196.3747629999999
 30
0.0
  0
VERTEX
  5
208
330
201
100
AcDbEntity
  8
Ｓ_１_１
  6
CONTINUOUS
 62
     3
100
AcDbVertex
100
AcDb2dVertex
 10
493.9999969999999
 20
196.5358929999999
 30
0.0
  0
VERTEX
  5
209
330
201
100
AcDbEntity
  8
Ｓ_１_１
  6
CONTINUOUS
 62
     3
100
AcDbVertex
100
AcDb2dVertex
 10
494.2207259999999
 20
196.7233859999999
 30
0.0
  0
VERTEX
  5
20A
330
201
100
AcDbEntity
  8
Ｓ_１_１
  6
CONTINUOUS
 62
     3
100
AcDbVertex
100
AcDb2dVertex
 10
494.4283590000001
 20
196.9358169999999
 30
0.0
  0
VERTEX
  5
20B
330
201
100
AcDbEntity
  8
Ｓ_１_１
  6
CONTINUOUS
 62
     3
100
AcDbVertex
100
AcDb2dVertex
 10
494.621316
 20
197.1715679999999
 30
0.0
  0
VERTEX
  5
20C
330
201
100
AcDbEntity
  8
Ｓ_１_１
  6
CONTINUOUS
 62
     3
100
AcDbVertex
100
AcDb2dVertex
 10
494.798128
 20
197.4288439999999
 30
0.0
  0
VERTEX
  5
20D
330
201
100
AcDbEntity
  8
Ｓ_１_１
  6
CONTINUOUS
 62
     3
100
AcDbVertex
100
AcDb2dVertex
 10
494.957451
 20
197.7056889999999
 30
0.0
  0
VERTEX
  5
20E
330
201
100
AcDbEntity
  8
Ｓ_１_１
  6
CONTINUOUS
 62
     3
100
AcDbVertex
100
AcDb2dVertex
 10
495.09807
 20
197.9999949999999
 30
0.0
  0
VERTEX
  5
20F
330
201
100
AcDbEntity
  8
Ｓ_１_１
  6
CONTINUOUS
 62
     3
100
AcDbVertex
100
AcDb2dVertex
 10
495.218917
 20
198.3095219999999
 30
0.0
  0
VERTEX
  5
210
330
201
100
AcDbEntity
  8
Ｓ_１_１
  6
CONTINUOUS
 62
     3
100
AcDbVertex
100
AcDb2dVertex
 10
495.319071
 20
198.6319139999999
 30
0.0
  0
VERTEX
  5
211
330
201
100
AcDbEntity
  8
Ｓ_１_１
  6
CONTINUOUS
 62
     3
100
AcDbVertex
100
AcDb2dVertex
 10
495.397771
 20
198.9647189999999
 30
0.0
  0
VERTEX
  5
212
330
201
100
AcDbEntity
  8
Ｓ_１_１
  6
CONTINUOUS
 62
     3
100
AcDbVertex
100
AcDb2dVertex
 10
495.454416
 20
199.3054019999999
 30
0.0
  0
VERTEX
  5
213
330
201
100
AcDbEntity
  8
Ｓ_１_１
  6
CONTINUOUS
 62
     3
100
AcDbVertex
100
AcDb2dVertex
 10
495.488577
 20
199.651372
 30
0.0
  0
VERTEX
  5
214
330
201
100
AcDbEntity
  8
Ｓ_１_１
  6
CONTINUOUS
 62
     3
100
AcDbVertex
100
AcDb2dVertex
 10
495.4999929999999
 20
199.9999949999999
 30
0.0
  0
VERTEX
  5
215
330
201
100
AcDbEntity
  8
Ｓ_１_１
  6
CONTINUOUS
 62
     3
100
AcDbVertex
100
AcDb2dVertex
 10
495.488577
 20
200.3486179999999
 30
0.0
  0
VERTEX
  5
216
330
201
100
AcDbEntity
  8
Ｓ_１_１
  6
CONTINUOUS
 62
     3
100
AcDbVertex
100
AcDb2dVertex
 10
495.454416
 20
200.6945879999999
 30
0.0
  0
VERTEX
  5
217
330
201
100
AcDbEntity
  8
Ｓ_１_１
  6
CONTINUOUS
 62
     3
100
AcDbVertex
100
AcDb2dVertex
 10
495.397771
 20
201.0352719999999
 30
0.0
  0
VERTEX
  5
218
330
201
100
AcDbEntity
  8
Ｓ_１_１
  6
CONTINUOUS
 62
     3
100
AcDbVertex
100
AcDb2dVertex
 10
495.319071
 20
201.3680759999999
 30
0.0
  0
VERTEX
  5
219
330
201
100
AcDbEntity
  8
Ｓ_１_１
  6
CONTINUOUS
 62
     3
100
AcDbVertex
100
AcDb2dVertex
 10
495.218917
 20
201.6904689999999
 30
0.0
  0
VERTEX
  5
21A
330
201
100
AcDbEntity
  8
Ｓ_１_１
  6
CONTINUOUS
 62
     3
100
AcDbVertex
100
AcDb2dVertex
 10
495.09807
 20
201.9999959999999
 30
0.0
  0
VERTEX
  5
21B
330
201
100
AcDbEntity
  8
Ｓ_１_１
  6
CONTINUOUS
 62
     3
100
AcDbVertex
100
AcDb2dVertex
 10
494.957451
 20
202.2943019999999
 30
0.0
  0
VERTEX
  5
21C
330
201
100
AcDbEntity
  8
Ｓ_１_１
  6
CONTINUOUS
 62
     3
100
AcDbVertex
100
AcDb2dVertex
 10
494.798128
 20
202.5711459999999
 30
0.0
  0
VERTEX
  5
21D
330
201
100
AcDbEntity
  8
Ｓ_１_１
  6
CONTINUOUS
 62
     3
100
AcDbVertex
100
AcDb2dVertex
 10
494.621316
 20
202.8284229999999
 30
0.0
  0
VERTEX
  5
21E
330
201
100
AcDbEntity
  8
Ｓ_１_１
  6
CONTINUOUS
 62
     3
100
AcDbVertex
100
AcDb2dVertex
 10
494.4283590000001
 20
203.0641739999999
 30
0.0
  0
VERTEX
  5
21F
330
201
100
AcDbEntity
  8
Ｓ_１_１
  6
CONTINUOUS
 62
     3
100
AcDbVertex
100
AcDb2dVertex
 10
494.2207259999999
 20
203.2766039999999
 30
0.0
  0
VERTEX
  5
220
330
201
100
AcDbEntity
  8
Ｓ_１_１
  6
CONTINUOUS
 62
     3
100
AcDbVertex
100
AcDb2dVertex
 10
493.9999969999999
 20
203.464098
 30
0.0
  0
VERTEX
  5
221
330
201
100
AcDbEntity
  8
Ｓ_１_１
  6
CONTINUOUS
 62
     3
100
AcDbVertex
100
AcDb2dVertex
 10
493.767852
 20
203.6252269999999
 30
0.0
  0
VERTEX
  5
222
330
201
100
AcDbEntity
  8
Ｓ_１_１
  6
CONTINUOUS
 62
     3
100
AcDbVertex
100
AcDb2dVertex
 10
493.526059
 20
203.7587669999999
 30
0.0
  0
VERTEX
  5
223
330
201
100
AcDbEntity
  8
Ｓ_１_１
  6
CONTINUOUS
 62
     3
100
AcDbVertex
100
AcDb2dVertex
 10
493.2764559999999
 20
203.8636999999999
 30
0.0
  0
VERTEX
  5
224
330
201
100
AcDbEntity
  8
Ｓ_１_１
  6
CONTINUOUS
 62
     3
100
AcDbVertex
100
AcDb2dVertex
 10
493.020944
 20
203.9392269999999
 30
0.0
  0
VERTEX
  5
225
330
201
100
AcDbEntity
  8
Ｓ_１_１
  6
CONTINUOUS
 62
     3
100
AcDbVertex
100
AcDb2dVertex
 10
492.761467
 20
203.9847749999999
 30
0.0
  0
VERTEX
  5
226
330
201
100
AcDbEntity
  8
Ｓ_１_１
  6
CONTINUOUS
 62
     3
100
AcDbVertex
100
AcDb2dVertex
 10
492.5000010000001
 20
203.9999959999999
 30
0.0
  0
VERTEX
  5
227
330
201
100
AcDbEntity
  8
Ｓ_１_１
  6
CONTINUOUS
 62
     3
100
AcDbVertex
100
AcDb2dVertex
 10
492.238534
 20
203.9847749999999
 30
0.0
  0
VERTEX
  5
228
330
201
100
AcDbEntity
  8
Ｓ_１_１
  6
CONTINUOUS
 62
     3
100
AcDbVertex
100
AcDb2dVertex
 10
491.979058
 20
203.9392269999999
 30
0.0
  0
VERTEX
  5
229
330
201
100
AcDbEntity
  8
Ｓ_１_１
  6
CONTINUOUS
 62
     3
100
AcDbVertex
100
AcDb2dVertex
 10
491.723546
 20
203.8636999999999
 30
0.0
  0
VERTEX
  5
22A
330
201
100
AcDbEntity
  8
Ｓ_１_１
  6
CONTINUOUS
 62
     3
100
AcDbVertex
100
AcDb2dVertex
 10
491.473943
 20
203.7587669999999
 30
0.0
  0
VERTEX
  5
22B
330
201
100
AcDbEntity
  8
Ｓ_１_１
  6
CONTINUOUS
 62
     3
100
AcDbVertex
100
AcDb2dVertex
 10
491.232149
 20
203.6252269999999
 30
0.0
  0
VERTEX
  5
22C
330
201
100
AcDbEntity
  8
Ｓ_１_１
  6
CONTINUOUS
 62
     3
100
AcDbVertex
100
AcDb2dVertex
 10
491.000005
 20
203.464098
 30
0.0
  0
VERTEX
  5
22D
330
201
100
AcDbEntity
  8
Ｓ_１_１
  6
CONTINUOUS
 62
     3
100
AcDbVertex
100
AcDb2dVertex
 10
490.779276
 20
203.2766039999999
 30
0.0
  0
VERTEX
  5
22E
330
201
100
AcDbEntity
  8
Ｓ_１_１
  6
CONTINUOUS
 62
     3
100
AcDbVertex
100
AcDb2dVertex
 10
490.5716430000001
 20
203.0641739999999
 30
0.0
  0
VERTEX
  5
22F
330
201
100
AcDbEntity
  8
Ｓ_１_１
  6
CONTINUOUS
 62
     3
100
AcDbVertex
100
AcDb2dVertex
 10
490.378686
 20
202.8284229999999
 30
0.0
  0
VERTEX
  5
230
330
201
100
AcDbEntity
  8
Ｓ_１_１
  6
CONTINUOUS
 62
     3
100
AcDbVertex
100
AcDb2dVertex
 10
490.201873
 20
202.5711459999999
 30
0.0
  0
VERTEX
  5
231
330
201
100
AcDbEntity
  8
Ｓ_１_１
  6
CONTINUOUS
 62
     3
100
AcDbVertex
100
AcDb2dVertex
 10
490.0425509999999
 20
202.2943019999999
 30
0.0
  0
VERTEX
  5
232
330
201
100
AcDbEntity
  8
Ｓ_１_１
  6
CONTINUOUS
 62
     3
100
AcDbVertex
100
AcDb2dVertex
 10
489.901931
 20
201.9999959999999
 30
0.0
  0
VERTEX
  5
233
330
201
100
AcDbEntity
  8
Ｓ_１_１
  6
CONTINUOUS
 62
     3
100
AcDbVertex
100
AcDb2dVertex
 10
489.781084
 20
201.6904689999999
 30
0.0
  0
VERTEX
  5
234
330
201
100
AcDbEntity
  8
Ｓ_１_１
  6
CONTINUOUS
 62
     3
100
AcDbVertex
100
AcDb2dVertex
 10
489.68093
 20
201.3680759999999
 30
0.0
  0
VERTEX
  5
235
330
201
100
AcDbEntity
  8
Ｓ_１_１
  6
CONTINUOUS
 62
     3
100
AcDbVertex
100
AcDb2dVertex
 10
489.602231
 20
201.0352719999999
 30
0.0
  0
VERTEX
  5
236
330
201
100
AcDbEntity
  8
Ｓ_１_１
  6
CONTINUOUS
 62
     3
100
AcDbVertex
100
AcDb2dVertex
 10
489.545585
 20
200.6945879999999
 30
0.0
  0
VERTEX
  5
237
330
201
100
AcDbEntity
  8
Ｓ_１_１
  6
CONTINUOUS
 62
     3
100
AcDbVertex
100
AcDb2dVertex
 10
489.511424
 20
200.3486179999999
 30
0.0
  0
VERTEX
  5
238
330
201
100
AcDbEntity
  8
Ｓ_１_１
  6
CONTINUOUS
 62
     3
100
AcDbVertex
100
AcDb2dVertex
 10
489.500008
 20
199.9999949999999
 30
0.0
  0
VERTEX
  5
239
330
201
100
AcDbEntity
  8
Ｓ_１_１
  6
CONTINUOUS
 62
     3
100
AcDbVertex
100
AcDb2dVertex
 10
489.511424
 20
199.651372
 30
0.0
  0
VERTEX
  5
23A
330
201
100
AcDbEntity
  8
Ｓ_１_１
  6
CONTINUOUS
 62
     3
100
AcDbVertex
100
AcDb2dVertex
 10
489.545585
 20
199.3054019999999
 30
0.0
  0
VERTEX
  5
23B
330
201
100
AcDbEntity
  8
Ｓ_１_１
  6
CONTINUOUS
 62
     3
100
AcDbVertex
100
AcDb2dVertex
 10
489.602231
 20
198.9647189999999
 30
0.0
  0
VERTEX
  5
23C
330
201
100
AcDbEntity
  8
Ｓ_１_１
  6
CONTINUOUS
 62
     3
100
AcDbVertex
100
AcDb2dVertex
 10
489.68093
 20
198.6319139999999
 30
0.0
  0
VERTEX
  5
23D
330
201
100
AcDbEntity
  8
Ｓ_１_１
  6
CONTINUOUS
 62
     3
100
AcDbVertex
100
AcDb2dVertex
 10
489.781084
 20
198.3095219999999
 30
0.0
  0
VERTEX
  5
23E
330
201
100
AcDbEntity
  8
Ｓ_１_１
  6
CONTINUOUS
 62
     3
100
AcDbVertex
100
AcDb2dVertex
 10
489.901931
 20
197.9999949999999
 30
0.0
  0
VERTEX
  5
23F
330
201
100
AcDbEntity
  8
Ｓ_１_１
  6
CONTINUOUS
 62
     3
100
AcDbVertex
100
AcDb2dVertex
 10
490.0425509999999
 20
197.7056889999999
 30
0.0
  0
VERTEX
  5
240
330
201
100
AcDbEntity
  8
Ｓ_１_１
  6
CONTINUOUS
 62
     3
100
AcDbVertex
100
AcDb2dVertex
 10
490.201873
 20
197.4288439999999
 30
0.0
  0
VERTEX
  5
241
330
201
100
AcDbEntity
  8
Ｓ_１_１
  6
CONTINUOUS
 62
     3
100
AcDbVertex
100
AcDb2dVertex
 10
490.378686
 20
197.1715679999999
 30
0.0
  0
VERTEX
  5
242
330
201
100
AcDbEntity
  8
Ｓ_１_１
  6
CONTINUOUS
 62
     3
100
AcDbVertex
100
AcDb2dVertex
 10
490.5716430000001
 20
196.9358169999999
 30
0.0
  0
VERTEX
  5
243
330
201
100
AcDbEntity
  8
Ｓ_１_１
  6
CONTINUOUS
 62
     3
100
AcDbVertex
100
AcDb2dVertex
 10
490.779276
 20
196.7233859999999
 30
0.0
  0
VERTEX
  5
244
330
201
100
AcDbEntity
  8
Ｓ_１_１
  6
CONTINUOUS
 62
     3
100
AcDbVertex
100
AcDb2dVertex
 10
491.000005
 20
196.5358929999999
 30
0.0
  0
VERTEX
  5
245
330
201
100
AcDbEntity
  8
Ｓ_１_１
  6
CONTINUOUS
 62
     3
100
AcDbVertex
100
AcDb2dVertex
 10
491.232149
 20
196.3747629999999
 30
0.0
  0
VERTEX
  5
246
330
201
100
AcDbEntity
  8
Ｓ_１_１
  6
CONTINUOUS
 62
     3
100
AcDbVertex
100
AcDb2dVertex
 10
491.473943
 20
196.2412239999999
 30
0.0
  0
VERTEX
  5
247
330
201
100
AcDbEntity
  8
Ｓ_１_１
  6
CONTINUOUS
 62
     3
100
AcDbVertex
100
AcDb2dVertex
 10
491.723546
 20
196.1362909999999
 30
0.0
  0
VERTEX
  5
248
330
201
100
AcDbEntity
  8
Ｓ_１_１
  6
CONTINUOUS
 62
     3
100
AcDbVertex
100
AcDb2dVertex
 10
491.979058
 20
196.0607629999999
 30
0.0
  0
VERTEX
  5
249
330
201
100
AcDbEntity
  8
Ｓ_１_１
  6
CONTINUOUS
 62
     3
100
AcDbVertex
100
AcDb2dVertex
 10
492.238534
 20
196.0152159999999
 30
0.0
  0
VERTEX
  5
24A
330
201
100
AcDbEntity
  8
Ｓ_１_１
  6
CONTINUOUS
 62
     3
100
AcDbVertex
100
AcDb2dVertex
 10
492.5000010000001
 20
195.9999939999999
 30
0.0
  0
SEQEND
  5
24B
330
201
100
AcDbEntity
  8
Ｓ_１_１
  6
CONTINUOUS
 62
     3
  0
POLYLINE
  5
24C
330
1F
100
AcDbEntity
  8
Ｓ_１_１
  6
CONTINUOUS
 62
     3
100
AcDb2dPolyline
 66
     1
 10
0.0
 20
0.0
 30
0.0
 70
   128
  0
VERTEX
  5
24D
330
24C
100
AcDbEntity
  8
Ｓ_１_１
  6
CONTINUOUS
 62
     3
100
AcDbVertex
100
AcDb2dVertex
 10
639.5928940000001
 20
223.9999859999999
 30
0.0
  0
VERTEX
  5
24E
330
24C
100
AcDbEntity
  8
Ｓ_１_１
  6
CONTINUOUS
 62
     3
100
AcDbVertex
100
AcDb2dVertex
 10
639.8979380000001
 20
224.0171099999999
 30
0.0
  0
VERTEX
  5
24F
330
24C
100
AcDbEntity
  8
Ｓ_１_１
  6
CONTINUOUS
 62
     3
100
AcDbVertex
100
AcDb2dVertex
 10
640.20066
 20
224.0683519999999
 30
0.0
  0
VERTEX
  5
250
330
24C
100
AcDbEntity
  8
Ｓ_１_１
  6
CONTINUOUS
 62
     3
100
AcDbVertex
100
AcDb2dVertex
 10
640.4987570000001
 20
224.1533199999999
 30
0.0
  0
VERTEX
  5
251
330
24C
100
AcDbEntity
  8
Ｓ_１_１
  6
CONTINUOUS
 62
     3
100
AcDbVertex
100
AcDb2dVertex
 10
640.789959
 20
224.2713699999999
 30
0.0
  0
VERTEX
  5
252
330
24C
100
AcDbEntity
  8
Ｓ_１_１
  6
CONTINUOUS
 62
     3
100
AcDbVertex
100
AcDb2dVertex
 10
641.0720510000001
 20
224.4216019999999
 30
0.0
  0
VERTEX
  5
253
330
24C
100
AcDbEntity
  8
Ｓ_１_１
  6
CONTINUOUS
 62
     3
100
AcDbVertex
100
AcDb2dVertex
 10
641.3428860000001
 20
224.6028719999999
 30
0.0
  0
VERTEX
  5
254
330
24C
100
AcDbEntity
  8
Ｓ_１_１
  6
CONTINUOUS
 62
     3
100
AcDbVertex
100
AcDb2dVertex
 10
641.6004030000001
 20
224.8138029999999
 30
0.0
  0
VERTEX
  5
255
330
24C
100
AcDbEntity
  8
Ｓ_１_１
  6
CONTINUOUS
 62
     3
100
AcDbVertex
100
AcDb2dVertex
 10
641.842641
 20
225.0527869999999
 30
0.0
  0
VERTEX
  5
256
330
24C
100
AcDbEntity
  8
Ｓ_１_１
  6
CONTINUOUS
 62
     3
100
AcDbVertex
100
AcDb2dVertex
 10
642.067757
 20
225.3180069999999
 30
0.0
  0
VERTEX
  5
257
330
24C
100
AcDbEntity
  8
Ｓ_１_１
  6
CONTINUOUS
 62
     3
100
AcDbVertex
100
AcDb2dVertex
 10
642.274038
 20
225.6074429999999
 30
0.0
  0
VERTEX
  5
258
330
24C
100
AcDbEntity
  8
Ｓ_１_１
  6
CONTINUOUS
 62
     3
100
AcDbVertex
100
AcDb2dVertex
 10
642.459914
 20
225.9188939999999
 30
0.0
  0
VERTEX
  5
259
330
24C
100
AcDbEntity
  8
Ｓ_１_１
  6
CONTINUOUS
 62
     3
100
AcDbVertex
100
AcDb2dVertex
 10
642.6239700000001
 20
226.2499879999999
 30
0.0
  0
VERTEX
  5
25A
330
24C
100
AcDbEntity
  8
Ｓ_１_１
  6
CONTINUOUS
 62
     3
100
AcDbVertex
100
AcDb2dVertex
 10
642.7649570000001
 20
226.5982059999999
 30
0.0
  0
VERTEX
  5
25B
330
24C
100
AcDbEntity
  8
Ｓ_１_１
  6
CONTINUOUS
 62
     3
100
AcDbVertex
100
AcDb2dVertex
 10
642.8818040000001
 20
226.960898
 30
0.0
  0
VERTEX
  5
25C
330
24C
100
AcDbEntity
  8
Ｓ_１_１
  6
CONTINUOUS
 62
     3
100
AcDbVertex
100
AcDb2dVertex
 10
642.97362
 20
227.3353029999999
 30
0.0
  0
VERTEX
  5
25D
330
24C
100
AcDbEntity
  8
Ｓ_１_１
  6
CONTINUOUS
 62
     3
100
AcDbVertex
100
AcDb2dVertex
 10
643.039706
 20
227.7185719999999
 30
0.0
  0
VERTEX
  5
25E
330
24C
100
AcDbEntity
  8
Ｓ_１_１
  6
CONTINUOUS
 62
     3
100
AcDbVertex
100
AcDb2dVertex
 10
643.0795600000001
 20
228.1077879999999
 30
0.0
  0
VERTEX
  5
25F
330
24C
100
AcDbEntity
  8
Ｓ_１_１
  6
CONTINUOUS
 62
     3
100
AcDbVertex
100
AcDb2dVertex
 10
643.092879
 20
228.4999889999999
 30
0.0
  0
VERTEX
  5
260
330
24C
100
AcDbEntity
  8
Ｓ_１_１
  6
CONTINUOUS
 62
     3
100
AcDbVertex
100
AcDb2dVertex
 10
643.0795600000001
 20
228.8921899999999
 30
0.0
  0
VERTEX
  5
261
330
24C
100
AcDbEntity
  8
Ｓ_１_１
  6
CONTINUOUS
 62
     3
100
AcDbVertex
100
AcDb2dVertex
 10
643.039706
 20
229.2814059999999
 30
0.0
  0
VERTEX
  5
262
330
24C
100
AcDbEntity
  8
Ｓ_１_１
  6
CONTINUOUS
 62
     3
100
AcDbVertex
100
AcDb2dVertex
 10
642.97362
 20
229.6646759999999
 30
0.0
  0
VERTEX
  5
263
330
24C
100
AcDbEntity
  8
Ｓ_１_１
  6
CONTINUOUS
 62
     3
100
AcDbVertex
100
AcDb2dVertex
 10
642.8818040000001
 20
230.0390809999999
 30
0.0
  0
VERTEX
  5
264
330
24C
100
AcDbEntity
  8
Ｓ_１_１
  6
CONTINUOUS
 62
     3
100
AcDbVertex
100
AcDb2dVertex
 10
642.7649570000001
 20
230.401773
 30
0.0
  0
VERTEX
  5
265
330
24C
100
AcDbEntity
  8
Ｓ_１_１
  6
CONTINUOUS
 62
     3
100
AcDbVertex
100
AcDb2dVertex
 10
642.6239700000001
 20
230.7499909999999
 30
0.0
  0
VERTEX
  5
266
330
24C
100
AcDbEntity
  8
Ｓ_１_１
  6
CONTINUOUS
 62
     3
100
AcDbVertex
100
AcDb2dVertex
 10
642.459914
 20
231.0810849999999
 30
0.0
  0
VERTEX
  5
267
330
24C
100
AcDbEntity
  8
Ｓ_１_１
  6
CONTINUOUS
 62
     3
100
AcDbVertex
100
AcDb2dVertex
 10
642.274038
 20
231.3925349999999
 30
0.0
  0
VERTEX
  5
268
330
24C
100
AcDbEntity
  8
Ｓ_１_１
  6
CONTINUOUS
 62
     3
100
AcDbVertex
100
AcDb2dVertex
 10
642.067757
 20
231.6819719999999
 30
0.0
  0
VERTEX
  5
269
330
24C
100
AcDbEntity
  8
Ｓ_１_１
  6
CONTINUOUS
 62
     3
100
AcDbVertex
100
AcDb2dVertex
 10
641.842641
 20
231.9471909999999
 30
0.0
  0
VERTEX
  5
26A
330
24C
100
AcDbEntity
  8
Ｓ_１_１
  6
CONTINUOUS
 62
     3
100
AcDbVertex
100
AcDb2dVertex
 10
641.6004030000001
 20
232.186176
 30
0.0
  0
VERTEX
  5
26B
330
24C
100
AcDbEntity
  8
Ｓ_１_１
  6
CONTINUOUS
 62
     3
100
AcDbVertex
100
AcDb2dVertex
 10
641.3428860000001
 20
232.3971059999999
 30
0.0
  0
VERTEX
  5
26C
330
24C
100
AcDbEntity
  8
Ｓ_１_１
  6
CONTINUOUS
 62
     3
100
AcDbVertex
100
AcDb2dVertex
 10
641.0720510000001
 20
232.5783769999999
 30
0.0
  0
VERTEX
  5
26D
330
24C
100
AcDbEntity
  8
Ｓ_１_１
  6
CONTINUOUS
 62
     3
100
AcDbVertex
100
AcDb2dVertex
 10
640.789959
 20
232.7286089999999
 30
0.0
  0
VERTEX
  5
26E
330
24C
100
AcDbEntity
  8
Ｓ_１_１
  6
CONTINUOUS
 62
     3
100
AcDbVertex
100
AcDb2dVertex
 10
640.4987570000001
 20
232.8466579999999
 30
0.0
  0
VERTEX
  5
26F
330
24C
100
AcDbEntity
  8
Ｓ_１_１
  6
CONTINUOUS
 62
     3
100
AcDbVertex
100
AcDb2dVertex
 10
640.20066
 20
232.9316269999999
 30
0.0
  0
VERTEX
  5
270
330
24C
100
AcDbEntity
  8
Ｓ_１_１
  6
CONTINUOUS
 62
     3
100
AcDbVertex
100
AcDb2dVertex
 10
639.8979380000001
 20
232.982868
 30
0.0
  0
VERTEX
  5
271
330
24C
100
AcDbEntity
  8
Ｓ_１_１
  6
CONTINUOUS
 62
     3
100
AcDbVertex
100
AcDb2dVertex
 10
639.5928940000001
 20
232.9999919999999
 30
0.0
  0
VERTEX
  5
272
330
24C
100
AcDbEntity
  8
Ｓ_１_１
  6
CONTINUOUS
 62
     3
100
AcDbVertex
100
AcDb2dVertex
 10
639.2878499999999
 20
232.982868
 30
0.0
  0
VERTEX
  5
273
330
24C
100
AcDbEntity
  8
Ｓ_１_１
  6
CONTINUOUS
 62
     3
100
AcDbVertex
100
AcDb2dVertex
 10
638.985128
 20
232.9316269999999
 30
0.0
  0
VERTEX
  5
274
330
24C
100
AcDbEntity
  8
Ｓ_１_１
  6
CONTINUOUS
 62
     3
100
AcDbVertex
100
AcDb2dVertex
 10
638.6870309999999
 20
232.8466579999999
 30
0.0
  0
VERTEX
  5
275
330
24C
100
AcDbEntity
  8
Ｓ_１_１
  6
CONTINUOUS
 62
     3
100
AcDbVertex
100
AcDb2dVertex
 10
638.395829
 20
232.7286089999999
 30
0.0
  0
VERTEX
  5
276
330
24C
100
AcDbEntity
  8
Ｓ_１_１
  6
CONTINUOUS
 62
     3
100
AcDbVertex
100
AcDb2dVertex
 10
638.1137370000001
 20
232.5783769999999
 30
0.0
  0
VERTEX
  5
277
330
24C
100
AcDbEntity
  8
Ｓ_１_１
  6
CONTINUOUS
 62
     3
100
AcDbVertex
100
AcDb2dVertex
 10
637.8429020000001
 20
232.3971059999999
 30
0.0
  0
VERTEX
  5
278
330
24C
100
AcDbEntity
  8
Ｓ_１_１
  6
CONTINUOUS
 62
     3
100
AcDbVertex
100
AcDb2dVertex
 10
637.5853850000001
 20
232.186176
 30
0.0
  0
VERTEX
  5
279
330
24C
100
AcDbEntity
  8
Ｓ_１_１
  6
CONTINUOUS
 62
     3
100
AcDbVertex
100
AcDb2dVertex
 10
637.343147
 20
231.9471909999999
 30
0.0
  0
VERTEX
  5
27A
330
24C
100
AcDbEntity
  8
Ｓ_１_１
  6
CONTINUOUS
 62
     3
100
AcDbVertex
100
AcDb2dVertex
 10
637.118031
 20
231.6819719999999
 30
0.0
  0
VERTEX
  5
27B
330
24C
100
AcDbEntity
  8
Ｓ_１_１
  6
CONTINUOUS
 62
     3
100
AcDbVertex
100
AcDb2dVertex
 10
636.91175
 20
231.3925349999999
 30
0.0
  0
VERTEX
  5
27C
330
24C
100
AcDbEntity
  8
Ｓ_１_１
  6
CONTINUOUS
 62
     3
100
AcDbVertex
100
AcDb2dVertex
 10
636.725874
 20
231.0810849999999
 30
0.0
  0
VERTEX
  5
27D
330
24C
100
AcDbEntity
  8
Ｓ_１_１
  6
CONTINUOUS
 62
     3
100
AcDbVertex
100
AcDb2dVertex
 10
636.5618180000001
 20
230.7499909999999
 30
0.0
  0
VERTEX
  5
27E
330
24C
100
AcDbEntity
  8
Ｓ_１_１
  6
CONTINUOUS
 62
     3
100
AcDbVertex
100
AcDb2dVertex
 10
636.4208310000001
 20
230.401773
 30
0.0
  0
VERTEX
  5
27F
330
24C
100
AcDbEntity
  8
Ｓ_１_１
  6
CONTINUOUS
 62
     3
100
AcDbVertex
100
AcDb2dVertex
 10
636.3039840000001
 20
230.0390809999999
 30
0.0
  0
VERTEX
  5
280
330
24C
100
AcDbEntity
  8
Ｓ_１_１
  6
CONTINUOUS
 62
     3
100
AcDbVertex
100
AcDb2dVertex
 10
636.212168
 20
229.6646759999999
 30
0.0
  0
VERTEX
  5
281
330
24C
100
AcDbEntity
  8
Ｓ_１_１
  6
CONTINUOUS
 62
     3
100
AcDbVertex
100
AcDb2dVertex
 10
636.146082
 20
229.2814059999999
 30
0.0
  0
VERTEX
  5
282
330
24C
100
AcDbEntity
  8
Ｓ_１_１
  6
CONTINUOUS
 62
     3
100
AcDbVertex
100
AcDb2dVertex
 10
636.1062280000001
 20
228.8921899999999
 30
0.0
  0
VERTEX
  5
283
330
24C
100
AcDbEntity
  8
Ｓ_１_１
  6
CONTINUOUS
 62
     3
100
AcDbVertex
100
AcDb2dVertex
 10
636.092909
 20
228.4999889999999
 30
0.0
  0
VERTEX
  5
284
330
24C
100
AcDbEntity
  8
Ｓ_１_１
  6
CONTINUOUS
 62
     3
100
AcDbVertex
100
AcDb2dVertex
 10
636.1062280000001
 20
228.1077879999999
 30
0.0
  0
VERTEX
  5
285
330
24C
100
AcDbEntity
  8
Ｓ_１_１
  6
CONTINUOUS
 62
     3
100
AcDbVertex
100
AcDb2dVertex
 10
636.146082
 20
227.7185719999999
 30
0.0
  0
VERTEX
  5
286
330
24C
100
AcDbEntity
  8
Ｓ_１_１
  6
CONTINUOUS
 62
     3
100
AcDbVertex
100
AcDb2dVertex
 10
636.212168
 20
227.3353029999999
 30
0.0
  0
VERTEX
  5
287
330
24C
100
AcDbEntity
  8
Ｓ_１_１
  6
CONTINUOUS
 62
     3
100
AcDbVertex
100
AcDb2dVertex
 10
636.3039840000001
 20
226.960898
 30
0.0
  0
VERTEX
  5
288
330
24C
100
AcDbEntity
  8
Ｓ_１_１
  6
CONTINUOUS
 62
     3
100
AcDbVertex
100
AcDb2dVertex
 10
636.4208310000001
 20
226.5982059999999
 30
0.0
  0
VERTEX
  5
289
330
24C
100
AcDbEntity
  8
Ｓ_１_１
  6
CONTINUOUS
 62
     3
100
AcDbVertex
100
AcDb2dVertex
 10
636.5618180000001
 20
226.2499879999999
 30
0.0
  0
VERTEX
  5
28A
330
24C
100
AcDbEntity
  8
Ｓ_１_１
  6
CONTINUOUS
 62
     3
100
AcDbVertex
100
AcDb2dVertex
 10
636.725874
 20
225.9188939999999
 30
0.0
  0
VERTEX
  5
28B
330
24C
100
AcDbEntity
  8
Ｓ_１_１
  6
CONTINUOUS
 62
     3
100
AcDbVertex
100
AcDb2dVertex
 10
636.91175
 20
225.6074429999999
 30
0.0
  0
VERTEX
  5
28C
330
24C
100
AcDbEntity
  8
Ｓ_１_１
  6
CONTINUOUS
 62
     3
100
AcDbVertex
100
AcDb2dVertex
 10
637.118031
 20
225.3180069999999
 30
0.0
  0
VERTEX
  5
28D
330
24C
100
AcDbEntity
  8
Ｓ_１_１
  6
CONTINUOUS
 62
     3
100
AcDbVertex
100
AcDb2dVertex
 10
637.343147
 20
225.0527869999999
 30
0.0
  0
VERTEX
  5
28E
330
24C
100
AcDbEntity
  8
Ｓ_１_１
  6
CONTINUOUS
 62
     3
100
AcDbVertex
100
AcDb2dVertex
 10
637.5853850000001
 20
224.8138029999999
 30
0.0
  0
VERTEX
  5
28F
330
24C
100
AcDbEntity
  8
Ｓ_１_１
  6
CONTINUOUS
 62
     3
100
AcDbVertex
100
AcDb2dVertex
 10
637.8429020000001
 20
224.6028719999999
 30
0.0
  0
VERTEX
  5
290
330
24C
100
AcDbEntity
  8
Ｓ_１_１
  6
CONTINUOUS
 62
     3
100
AcDbVertex
100
AcDb2dVertex
 10
638.1137370000001
 20
224.4216019999999
 30
0.0
  0
VERTEX
  5
291
330
24C
100
AcDbEntity
  8
Ｓ_１_１
  6
CONTINUOUS
 62
     3
100
AcDbVertex
100
AcDb2dVertex
 10
638.395829
 20
224.2713699999999
 30
0.0
  0
VERTEX
  5
292
330
24C
100
AcDbEntity
  8
Ｓ_１_１
  6
CONTINUOUS
 62
     3
100
AcDbVertex
100
AcDb2dVertex
 10
638.6870309999999
 20
224.1533199999999
 30
0.0
  0
VERTEX
  5
293
330
24C
100
AcDbEntity
  8
Ｓ_１_１
  6
CONTINUOUS
 62
     3
100
AcDbVertex
100
AcDb2dVertex
 10
638.985128
 20
224.0683519999999
 30
0.0
  0
VERTEX
  5
294
330
24C
100
AcDbEntity
  8
Ｓ_１_１
  6
CONTINUOUS
 62
     3
100
AcDbVertex
100
AcDb2dVertex
 10
639.2878499999999
 20
224.0171099999999
 30
0.0
  0
VERTEX
  5
295
330
24C
100
AcDbEntity
  8
Ｓ_１_１
  6
CONTINUOUS
 62
     3
100
AcDbVertex
100
AcDb2dVertex
 10
639.5928940000001
 20
223.9999859999999
 30
0.0
  0
SEQEND
  5
296
330
24C
100
AcDbEntity
  8
Ｓ_１_１
  6
CONTINUOUS
 62
     3
  0
POLYLINE
  5
297
330
1F
100
AcDbEntity
  8
Ｓ_１_１
  6
CONTINUOUS
 62
     3
100
AcDb2dPolyline
 66
     1
 10
0.0
 20
0.0
 30
0.0
 70
   128
  0
VERTEX
  5
298
330
297
100
AcDbEntity
  8
Ｓ_１_１
  6
CONTINUOUS
 62
     3
100
AcDbVertex
100
AcDb2dVertex
 10
440.407068
 20
223.9999859999999
 30
0.0
  0
VERTEX
  5
299
330
297
100
AcDbEntity
  8
Ｓ_１_１
  6
CONTINUOUS
 62
     3
100
AcDbVertex
100
AcDb2dVertex
 10
440.712115
 20
224.0171099999999
 30
0.0
  0
VERTEX
  5
29A
330
297
100
AcDbEntity
  8
Ｓ_１_１
  6
CONTINUOUS
 62
     3
100
AcDbVertex
100
AcDb2dVertex
 10
441.01484
 20
224.0683519999999
 30
0.0
  0
VERTEX
  5
29B
330
297
100
AcDbEntity
  8
Ｓ_１_１
  6
CONTINUOUS
 62
     3
100
AcDbVertex
100
AcDb2dVertex
 10
441.31294
 20
224.1533199999999
 30
0.0
  0
VERTEX
  5
29C
330
297
100
AcDbEntity
  8
Ｓ_１_１
  6
CONTINUOUS
 62
     3
100
AcDbVertex
100
AcDb2dVertex
 10
441.6041459999999
 20
224.2713699999999
 30
0.0
  0
VERTEX
  5
29D
330
297
100
AcDbEntity
  8
Ｓ_１_１
  6
CONTINUOUS
 62
     3
100
AcDbVertex
100
AcDb2dVertex
 10
441.886241
 20
224.4216019999999
 30
0.0
  0
VERTEX
  5
29E
330
297
100
AcDbEntity
  8
Ｓ_１_１
  6
CONTINUOUS
 62
     3
100
AcDbVertex
100
AcDb2dVertex
 10
442.157079
 20
224.6028719999999
 30
0.0
  0
VERTEX
  5
29F
330
297
100
AcDbEntity
  8
Ｓ_１_１
  6
CONTINUOUS
 62
     3
100
AcDbVertex
100
AcDb2dVertex
 10
442.414598
 20
224.8138029999999
 30
0.0
  0
VERTEX
  5
2A0
330
297
100
AcDbEntity
  8
Ｓ_１_１
  6
CONTINUOUS
 62
     3
100
AcDbVertex
100
AcDb2dVertex
 10
442.656839
 20
225.0527869999999
 30
0.0
  0
VERTEX
  5
2A1
330
297
100
AcDbEntity
  8
Ｓ_１_１
  6
CONTINUOUS
 62
     3
100
AcDbVertex
100
AcDb2dVertex
 10
442.881958
 20
225.3180069999999
 30
0.0
  0
VERTEX
  5
2A2
330
297
100
AcDbEntity
  8
Ｓ_１_１
  6
CONTINUOUS
 62
     3
100
AcDbVertex
100
AcDb2dVertex
 10
443.088241
 20
225.6074429999999
 30
0.0
  0
VERTEX
  5
2A3
330
297
100
AcDbEntity
  8
Ｓ_１_１
  6
CONTINUOUS
 62
     3
100
AcDbVertex
100
AcDb2dVertex
 10
443.274119
 20
225.9188939999999
 30
0.0
  0
VERTEX
  5
2A4
330
297
100
AcDbEntity
  8
Ｓ_１_１
  6
CONTINUOUS
 62
     3
100
AcDbVertex
100
AcDb2dVertex
 10
443.438177
 20
226.2499879999999
 30
0.0
  0
VERTEX
  5
2A5
330
297
100
AcDbEntity
  8
Ｓ_１_１
  6
CONTINUOUS
 62
     3
100
AcDbVertex
100
AcDb2dVertex
 10
443.579166
 20
226.5982059999999
 30
0.0
  0
VERTEX
  5
2A6
330
297
100
AcDbEntity
  8
Ｓ_１_１
  6
CONTINUOUS
 62
     3
100
AcDbVertex
100
AcDb2dVertex
 10
443.6960130000001
 20
226.960898
 30
0.0
  0
VERTEX
  5
2A7
330
297
100
AcDbEntity
  8
Ｓ_１_１
  6
CONTINUOUS
 62
     3
100
AcDbVertex
100
AcDb2dVertex
 10
443.78783
 20
227.3353029999999
 30
0.0
  0
VERTEX
  5
2A8
330
297
100
AcDbEntity
  8
Ｓ_１_１
  6
CONTINUOUS
 62
     3
100
AcDbVertex
100
AcDb2dVertex
 10
443.853917
 20
227.7185719999999
 30
0.0
  0
VERTEX
  5
2A9
330
297
100
AcDbEntity
  8
Ｓ_１_１
  6
CONTINUOUS
 62
     3
100
AcDbVertex
100
AcDb2dVertex
 10
443.893772
 20
228.1077879999999
 30
0.0
  0
VERTEX
  5
2AA
330
297
100
AcDbEntity
  8
Ｓ_１_１
  6
CONTINUOUS
 62
     3
100
AcDbVertex
100
AcDb2dVertex
 10
443.9070909999999
 20
228.4999889999999
 30
0.0
  0
VERTEX
  5
2AB
330
297
100
AcDbEntity
  8
Ｓ_１_１
  6
CONTINUOUS
 62
     3
100
AcDbVertex
100
AcDb2dVertex
 10
443.893772
 20
228.8921899999999
 30
0.0
  0
VERTEX
  5
2AC
330
297
100
AcDbEntity
  8
Ｓ_１_１
  6
CONTINUOUS
 62
     3
100
AcDbVertex
100
AcDb2dVertex
 10
443.853917
 20
229.2814059999999
 30
0.0
  0
VERTEX
  5
2AD
330
297
100
AcDbEntity
  8
Ｓ_１_１
  6
CONTINUOUS
 62
     3
100
AcDbVertex
100
AcDb2dVertex
 10
443.78783
 20
229.6646759999999
 30
0.0
  0
VERTEX
  5
2AE
330
297
100
AcDbEntity
  8
Ｓ_１_１
  6
CONTINUOUS
 62
     3
100
AcDbVertex
100
AcDb2dVertex
 10
443.6960130000001
 20
230.0390809999999
 30
0.0
  0
VERTEX
  5
2AF
330
297
100
AcDbEntity
  8
Ｓ_１_１
  6
CONTINUOUS
 62
     3
100
AcDbVertex
100
AcDb2dVertex
 10
443.579166
 20
230.401773
 30
0.0
  0
VERTEX
  5
2B0
330
297
100
AcDbEntity
  8
Ｓ_１_１
  6
CONTINUOUS
 62
     3
100
AcDbVertex
100
AcDb2dVertex
 10
443.438177
 20
230.7499909999999
 30
0.0
  0
VERTEX
  5
2B1
330
297
100
AcDbEntity
  8
Ｓ_１_１
  6
CONTINUOUS
 62
     3
100
AcDbVertex
100
AcDb2dVertex
 10
443.274119
 20
231.0810849999999
 30
0.0
  0
VERTEX
  5
2B2
330
297
100
AcDbEntity
  8
Ｓ_１_１
  6
CONTINUOUS
 62
     3
100
AcDbVertex
100
AcDb2dVertex
 10
443.088241
 20
231.3925349999999
 30
0.0
  0
VERTEX
  5
2B3
330
297
100
AcDbEntity
  8
Ｓ_１_１
  6
CONTINUOUS
 62
     3
100
AcDbVertex
100
AcDb2dVertex
 10
442.881958
 20
231.6819719999999
 30
0.0
  0
VERTEX
  5
2B4
330
297
100
AcDbEntity
  8
Ｓ_１_１
  6
CONTINUOUS
 62
     3
100
AcDbVertex
100
AcDb2dVertex
 10
442.656839
 20
231.9471909999999
 30
0.0
  0
VERTEX
  5
2B5
330
297
100
AcDbEntity
  8
Ｓ_１_１
  6
CONTINUOUS
 62
     3
100
AcDbVertex
100
AcDb2dVertex
 10
442.414598
 20
232.186176
 30
0.0
  0
VERTEX
  5
2B6
330
297
100
AcDbEntity
  8
Ｓ_１_１
  6
CONTINUOUS
 62
     3
100
AcDbVertex
100
AcDb2dVertex
 10
442.157079
 20
232.3971059999999
 30
0.0
  0
VERTEX
  5
2B7
330
297
100
AcDbEntity
  8
Ｓ_１_１
  6
CONTINUOUS
 62
     3
100
AcDbVertex
100
AcDb2dVertex
 10
441.886241
 20
232.5783769999999
 30
0.0
  0
VERTEX
  5
2B8
330
297
100
AcDbEntity
  8
Ｓ_１_１
  6
CONTINUOUS
 62
     3
100
AcDbVertex
100
AcDb2dVertex
 10
441.6041459999999
 20
232.7286089999999
 30
0.0
  0
VERTEX
  5
2B9
330
297
100
AcDbEntity
  8
Ｓ_１_１
  6
CONTINUOUS
 62
     3
100
AcDbVertex
100
AcDb2dVertex
 10
441.31294
 20
232.8466579999999
 30
0.0
  0
VERTEX
  5
2BA
330
297
100
AcDbEntity
  8
Ｓ_１_１
  6
CONTINUOUS
 62
     3
100
AcDbVertex
100
AcDb2dVertex
 10
441.01484
 20
232.9316269999999
 30
0.0
  0
VERTEX
  5
2BB
330
297
100
AcDbEntity
  8
Ｓ_１_１
  6
CONTINUOUS
 62
     3
100
AcDbVertex
100
AcDb2dVertex
 10
440.712115
 20
232.982868
 30
0.0
  0
VERTEX
  5
2BC
330
297
100
AcDbEntity
  8
Ｓ_１_１
  6
CONTINUOUS
 62
     3
100
AcDbVertex
100
AcDb2dVertex
 10
440.407068
 20
232.9999919999999
 30
0.0
  0
VERTEX
  5
2BD
330
297
100
AcDbEntity
  8
Ｓ_１_１
  6
CONTINUOUS
 62
     3
100
AcDbVertex
100
AcDb2dVertex
 10
440.102021
 20
232.982868
 30
0.0
  0
VERTEX
  5
2BE
330
297
100
AcDbEntity
  8
Ｓ_１_１
  6
CONTINUOUS
 62
     3
100
AcDbVertex
100
AcDb2dVertex
 10
439.799295
 20
232.9316269999999
 30
0.0
  0
VERTEX
  5
2BF
330
297
100
AcDbEntity
  8
Ｓ_１_１
  6
CONTINUOUS
 62
     3
100
AcDbVertex
100
AcDb2dVertex
 10
439.501195
 20
232.8466579999999
 30
0.0
  0
VERTEX
  5
2C0
330
297
100
AcDbEntity
  8
Ｓ_１_１
  6
CONTINUOUS
 62
     3
100
AcDbVertex
100
AcDb2dVertex
 10
439.2099899999999
 20
232.7286089999999
 30
0.0
  0
VERTEX
  5
2C1
330
297
100
AcDbEntity
  8
Ｓ_１_１
  6
CONTINUOUS
 62
     3
100
AcDbVertex
100
AcDb2dVertex
 10
438.927894
 20
232.5783769999999
 30
0.0
  0
VERTEX
  5
2C2
330
297
100
AcDbEntity
  8
Ｓ_１_１
  6
CONTINUOUS
 62
     3
100
AcDbVertex
100
AcDb2dVertex
 10
438.657056
 20
232.3971059999999
 30
0.0
  0
VERTEX
  5
2C3
330
297
100
AcDbEntity
  8
Ｓ_１_１
  6
CONTINUOUS
 62
     3
100
AcDbVertex
100
AcDb2dVertex
 10
438.399537
 20
232.186176
 30
0.0
  0
VERTEX
  5
2C4
330
297
100
AcDbEntity
  8
Ｓ_１_１
  6
CONTINUOUS
 62
     3
100
AcDbVertex
100
AcDb2dVertex
 10
438.157297
 20
231.9471909999999
 30
0.0
  0
VERTEX
  5
2C5
330
297
100
AcDbEntity
  8
Ｓ_１_１
  6
CONTINUOUS
 62
     3
100
AcDbVertex
100
AcDb2dVertex
 10
437.932178
 20
231.6819719999999
 30
0.0
  0
VERTEX
  5
2C6
330
297
100
AcDbEntity
  8
Ｓ_１_１
  6
CONTINUOUS
 62
     3
100
AcDbVertex
100
AcDb2dVertex
 10
437.725895
 20
231.3925349999999
 30
0.0
  0
VERTEX
  5
2C7
330
297
100
AcDbEntity
  8
Ｓ_１_１
  6
CONTINUOUS
 62
     3
100
AcDbVertex
100
AcDb2dVertex
 10
437.540017
 20
231.0810849999999
 30
0.0
  0
VERTEX
  5
2C8
330
297
100
AcDbEntity
  8
Ｓ_１_１
  6
CONTINUOUS
 62
     3
100
AcDbVertex
100
AcDb2dVertex
 10
437.375959
 20
230.7499909999999
 30
0.0
  0
VERTEX
  5
2C9
330
297
100
AcDbEntity
  8
Ｓ_１_１
  6
CONTINUOUS
 62
     3
100
AcDbVertex
100
AcDb2dVertex
 10
437.23497
 20
230.401773
 30
0.0
  0
VERTEX
  5
2CA
330
297
100
AcDbEntity
  8
Ｓ_１_１
  6
CONTINUOUS
 62
     3
100
AcDbVertex
100
AcDb2dVertex
 10
437.118122
 20
230.0390809999999
 30
0.0
  0
VERTEX
  5
2CB
330
297
100
AcDbEntity
  8
Ｓ_１_１
  6
CONTINUOUS
 62
     3
100
AcDbVertex
100
AcDb2dVertex
 10
437.026305
 20
229.6646759999999
 30
0.0
  0
VERTEX
  5
2CC
330
297
100
AcDbEntity
  8
Ｓ_１_１
  6
CONTINUOUS
 62
     3
100
AcDbVertex
100
AcDb2dVertex
 10
436.960218
 20
229.2814059999999
 30
0.0
  0
VERTEX
  5
2CD
330
297
100
AcDbEntity
  8
Ｓ_１_１
  6
CONTINUOUS
 62
     3
100
AcDbVertex
100
AcDb2dVertex
 10
436.920364
 20
228.8921899999999
 30
0.0
  0
VERTEX
  5
2CE
330
297
100
AcDbEntity
  8
Ｓ_１_１
  6
CONTINUOUS
 62
     3
100
AcDbVertex
100
AcDb2dVertex
 10
436.9070449999999
 20
228.4999889999999
 30
0.0
  0
VERTEX
  5
2CF
330
297
100
AcDbEntity
  8
Ｓ_１_１
  6
CONTINUOUS
 62
     3
100
AcDbVertex
100
AcDb2dVertex
 10
436.920364
 20
228.1077879999999
 30
0.0
  0
VERTEX
  5
2D0
330
297
100
AcDbEntity
  8
Ｓ_１_１
  6
CONTINUOUS
 62
     3
100
AcDbVertex
100
AcDb2dVertex
 10
436.960218
 20
227.7185719999999
 30
0.0
  0
VERTEX
  5
2D1
330
297
100
AcDbEntity
  8
Ｓ_１_１
  6
CONTINUOUS
 62
     3
100
AcDbVertex
100
AcDb2dVertex
 10
437.026305
 20
227.3353029999999
 30
0.0
  0
VERTEX
  5
2D2
330
297
100
AcDbEntity
  8
Ｓ_１_１
  6
CONTINUOUS
 62
     3
100
AcDbVertex
100
AcDb2dVertex
 10
437.118122
 20
226.960898
 30
0.0
  0
VERTEX
  5
2D3
330
297
100
AcDbEntity
  8
Ｓ_１_１
  6
CONTINUOUS
 62
     3
100
AcDbVertex
100
AcDb2dVertex
 10
437.23497
 20
226.5982059999999
 30
0.0
  0
VERTEX
  5
2D4
330
297
100
AcDbEntity
  8
Ｓ_１_１
  6
CONTINUOUS
 62
     3
100
AcDbVertex
100
AcDb2dVertex
 10
437.375959
 20
226.2499879999999
 30
0.0
  0
VERTEX
  5
2D5
330
297
100
AcDbEntity
  8
Ｓ_１_１
  6
CONTINUOUS
 62
     3
100
AcDbVertex
100
AcDb2dVertex
 10
437.540017
 20
225.9188939999999
 30
0.0
  0
VERTEX
  5
2D6
330
297
100
AcDbEntity
  8
Ｓ_１_１
  6
CONTINUOUS
 62
     3
100
AcDbVertex
100
AcDb2dVertex
 10
437.725895
 20
225.6074429999999
 30
0.0
  0
VERTEX
  5
2D7
330
297
100
AcDbEntity
  8
Ｓ_１_１
  6
CONTINUOUS
 62
     3
100
AcDbVertex
100
AcDb2dVertex
 10
437.932178
 20
225.3180069999999
 30
0.0
  0
VERTEX
  5
2D8
330
297
100
AcDbEntity
  8
Ｓ_１_１
  6
CONTINUOUS
 62
     3
100
AcDbVertex
100
AcDb2dVertex
 10
438.157297
 20
225.0527869999999
 30
0.0
  0
VERTEX
  5
2D9
330
297
100
AcDbEntity
  8
Ｓ_１_１
  6
CONTINUOUS
 62
     3
100
AcDbVertex
100
AcDb2dVertex
 10
438.399537
 20
224.8138029999999
 30
0.0
  0
VERTEX
  5
2DA
330
297
100
AcDbEntity
  8
Ｓ_１_１
  6
CONTINUOUS
 62
     3
100
AcDbVertex
100
AcDb2dVertex
 10
438.657056
 20
224.6028719999999
 30
0.0
  0
VERTEX
  5
2DB
330
297
100
AcDbEntity
  8
Ｓ_１_１
  6
CONTINUOUS
 62
     3
100
AcDbVertex
100
AcDb2dVertex
 10
438.927894
 20
224.4216019999999
 30
0.0
  0
VERTEX
  5
2DC
330
297
100
AcDbEntity
  8
Ｓ_１_１
  6
CONTINUOUS
 62
     3
100
AcDbVertex
100
AcDb2dVertex
 10
439.2099899999999
 20
224.2713699999999
 30
0.0
  0
VERTEX
  5
2DD
330
297
100
AcDbEntity
  8
Ｓ_１_１
  6
CONTINUOUS
 62
     3
100
AcDbVertex
100
AcDb2dVertex
 10
439.501195
 20
224.1533199999999
 30
0.0
  0
VERTEX
  5
2DE
330
297
100
AcDbEntity
  8
Ｓ_１_１
  6
CONTINUOUS
 62
     3
100
AcDbVertex
100
AcDb2dVertex
 10
439.799295
 20
224.0683519999999
 30
0.0
  0
VERTEX
  5
2DF
330
297
100
AcDbEntity
  8
Ｓ_１_１
  6
CONTINUOUS
 62
     3
100
AcDbVertex
100
AcDb2dVertex
 10
440.102021
 20
224.0171099999999
 30
0.0
  0
VERTEX
  5
2E0
330
297
100
AcDbEntity
  8
Ｓ_１_１
  6
CONTINUOUS
 62
     3
100
AcDbVertex
100
AcDb2dVertex
 10
440.407068
 20
223.9999859999999
 30
0.0
  0
SEQEND
  5
2E1
330
297
100
AcDbEntity
  8
Ｓ_１_１
  6
CONTINUOUS
 62
     3
  0
POLYLINE
  5
2E2
330
1F
100
AcDbEntity
  8
Ｓ_１_１
  6
CONTINUOUS
 62
     3
100
AcDb2dPolyline
 66
     1
 10
0.0
 20
0.0
 30
0.0
 70
   128
  0
VERTEX
  5
2E3
330
2E2
100
AcDbEntity
  8
Ｓ_１_１
  6
CONTINUOUS
 62
     3
100
AcDbVertex
100
AcDb2dVertex
 10
440.407068
 20
222.4999899999999
 30
0.0
  0
VERTEX
  5
2E4
330
2E2
100
AcDbEntity
  8
Ｓ_１_１
  6
CONTINUOUS
 62
     3
100
AcDbVertex
100
AcDb2dVertex
 10
440.75569
 20
222.5228219999999
 30
0.0
  0
VERTEX
  5
2E5
330
2E2
100
AcDbEntity
  8
Ｓ_１_１
  6
CONTINUOUS
 62
     3
100
AcDbVertex
100
AcDb2dVertex
 10
441.10166
 20
222.5911439999999
 30
0.0
  0
VERTEX
  5
2E6
330
2E2
100
AcDbEntity
  8
Ｓ_１_１
  6
CONTINUOUS
 62
     3
100
AcDbVertex
100
AcDb2dVertex
 10
441.442343
 20
222.7044349999999
 30
0.0
  0
VERTEX
  5
2E7
330
2E2
100
AcDbEntity
  8
Ｓ_１_１
  6
CONTINUOUS
 62
     3
100
AcDbVertex
100
AcDb2dVertex
 10
441.7751469999999
 20
222.861834
 30
0.0
  0
VERTEX
  5
2E8
330
2E2
100
AcDbEntity
  8
Ｓ_１_１
  6
CONTINUOUS
 62
     3
100
AcDbVertex
100
AcDb2dVertex
 10
442.097539
 20
223.0621429999999
 30
0.0
  0
VERTEX
  5
2E9
330
2E2
100
AcDbEntity
  8
Ｓ_１_１
  6
CONTINUOUS
 62
     3
100
AcDbVertex
100
AcDb2dVertex
 10
442.407066
 20
223.303838
 30
0.0
  0
VERTEX
  5
2EA
330
2E2
100
AcDbEntity
  8
Ｓ_１_１
  6
CONTINUOUS
 62
     3
100
AcDbVertex
100
AcDb2dVertex
 10
442.7013710000001
 20
223.5850779999999
 30
0.0
  0
VERTEX
  5
2EB
330
2E2
100
AcDbEntity
  8
Ｓ_１_１
  6
CONTINUOUS
 62
     3
100
AcDbVertex
100
AcDb2dVertex
 10
442.978216
 20
223.9037229999999
 30
0.0
  0
VERTEX
  5
2EC
330
2E2
100
AcDbEntity
  8
Ｓ_１_１
  6
CONTINUOUS
 62
     3
100
AcDbVertex
100
AcDb2dVertex
 10
443.235492
 20
224.2573489999999
 30
0.0
  0
VERTEX
  5
2ED
330
2E2
100
AcDbEntity
  8
Ｓ_１_１
  6
CONTINUOUS
 62
     3
100
AcDbVertex
100
AcDb2dVertex
 10
443.471243
 20
224.6432639999999
 30
0.0
  0
VERTEX
  5
2EE
330
2E2
100
AcDbEntity
  8
Ｓ_１_１
  6
CONTINUOUS
 62
     3
100
AcDbVertex
100
AcDb2dVertex
 10
443.6836730000001
 20
225.0585309999999
 30
0.0
  0
VERTEX
  5
2EF
330
2E2
100
AcDbEntity
  8
Ｓ_１_１
  6
CONTINUOUS
 62
     3
100
AcDbVertex
100
AcDb2dVertex
 10
443.8711659999999
 20
225.4999899999999
 30
0.0
  0
VERTEX
  5
2F0
330
2E2
100
AcDbEntity
  8
Ｓ_１_１
  6
CONTINUOUS
 62
     3
100
AcDbVertex
100
AcDb2dVertex
 10
444.032295
 20
225.9642799999999
 30
0.0
  0
VERTEX
  5
2F1
330
2E2
100
AcDbEntity
  8
Ｓ_１_１
  6
CONTINUOUS
 62
     3
100
AcDbVertex
100
AcDb2dVertex
 10
444.165835
 20
226.4478689999999
 30
0.0
  0
VERTEX
  5
2F2
330
2E2
100
AcDbEntity
  8
Ｓ_１_１
  6
CONTINUOUS
 62
     3
100
AcDbVertex
100
AcDb2dVertex
 10
444.270767
 20
226.947075
 30
0.0
  0
VERTEX
  5
2F3
330
2E2
100
AcDbEntity
  8
Ｓ_１_１
  6
CONTINUOUS
 62
     3
100
AcDbVertex
100
AcDb2dVertex
 10
444.346295
 20
227.4580999999999
 30
0.0
  0
VERTEX
  5
2F4
330
2E2
100
AcDbEntity
  8
Ｓ_１_１
  6
CONTINUOUS
 62
     3
100
AcDbVertex
100
AcDb2dVertex
 10
444.3918430000001
 20
227.9770549999999
 30
0.0
  0
VERTEX
  5
2F5
330
2E2
100
AcDbEntity
  8
Ｓ_１_１
  6
CONTINUOUS
 62
     3
100
AcDbVertex
100
AcDb2dVertex
 10
444.407064
 20
228.4999889999999
 30
0.0
  0
VERTEX
  5
2F6
330
2E2
100
AcDbEntity
  8
Ｓ_１_１
  6
CONTINUOUS
 62
     3
100
AcDbVertex
100
AcDb2dVertex
 10
444.3918430000001
 20
229.0229239999999
 30
0.0
  0
VERTEX
  5
2F7
330
2E2
100
AcDbEntity
  8
Ｓ_１_１
  6
CONTINUOUS
 62
     3
100
AcDbVertex
100
AcDb2dVertex
 10
444.346295
 20
229.5418779999999
 30
0.0
  0
VERTEX
  5
2F8
330
2E2
100
AcDbEntity
  8
Ｓ_１_１
  6
CONTINUOUS
 62
     3
100
AcDbVertex
100
AcDb2dVertex
 10
444.270767
 20
230.0529029999999
 30
0.0
  0
VERTEX
  5
2F9
330
2E2
100
AcDbEntity
  8
Ｓ_１_１
  6
CONTINUOUS
 62
     3
100
AcDbVertex
100
AcDb2dVertex
 10
444.165835
 20
230.5521099999999
 30
0.0
  0
VERTEX
  5
2FA
330
2E2
100
AcDbEntity
  8
Ｓ_１_１
  6
CONTINUOUS
 62
     3
100
AcDbVertex
100
AcDb2dVertex
 10
444.032295
 20
231.0356979999999
 30
0.0
  0
VERTEX
  5
2FB
330
2E2
100
AcDbEntity
  8
Ｓ_１_１
  6
CONTINUOUS
 62
     3
100
AcDbVertex
100
AcDb2dVertex
 10
443.8711659999999
 20
231.4999889999999
 30
0.0
  0
VERTEX
  5
2FC
330
2E2
100
AcDbEntity
  8
Ｓ_１_１
  6
CONTINUOUS
 62
     3
100
AcDbVertex
100
AcDb2dVertex
 10
443.6836730000001
 20
231.9414469999999
 30
0.0
  0
VERTEX
  5
2FD
330
2E2
100
AcDbEntity
  8
Ｓ_１_１
  6
CONTINUOUS
 62
     3
100
AcDbVertex
100
AcDb2dVertex
 10
443.471243
 20
232.3567139999999
 30
0.0
  0
VERTEX
  5
2FE
330
2E2
100
AcDbEntity
  8
Ｓ_１_１
  6
CONTINUOUS
 62
     3
100
AcDbVertex
100
AcDb2dVertex
 10
443.235492
 20
232.7426289999999
 30
0.0
  0
VERTEX
  5
2FF
330
2E2
100
AcDbEntity
  8
Ｓ_１_１
  6
CONTINUOUS
 62
     3
100
AcDbVertex
100
AcDb2dVertex
 10
442.978216
 20
233.096255
 30
0.0
  0
VERTEX
  5
300
330
2E2
100
AcDbEntity
  8
Ｓ_１_１
  6
CONTINUOUS
 62
     3
100
AcDbVertex
100
AcDb2dVertex
 10
442.7013710000001
 20
233.4149009999999
 30
0.0
  0
VERTEX
  5
301
330
2E2
100
AcDbEntity
  8
Ｓ_１_１
  6
CONTINUOUS
 62
     3
100
AcDbVertex
100
AcDb2dVertex
 10
442.407066
 20
233.6961409999999
 30
0.0
  0
VERTEX
  5
302
330
2E2
100
AcDbEntity
  8
Ｓ_１_１
  6
CONTINUOUS
 62
     3
100
AcDbVertex
100
AcDb2dVertex
 10
442.097539
 20
233.9378349999999
 30
0.0
  0
VERTEX
  5
303
330
2E2
100
AcDbEntity
  8
Ｓ_１_１
  6
CONTINUOUS
 62
     3
100
AcDbVertex
100
AcDb2dVertex
 10
441.7751469999999
 20
234.1381439999999
 30
0.0
  0
VERTEX
  5
304
330
2E2
100
AcDbEntity
  8
Ｓ_１_１
  6
CONTINUOUS
 62
     3
100
AcDbVertex
100
AcDb2dVertex
 10
441.442343
 20
234.2955429999999
 30
0.0
  0
VERTEX
  5
305
330
2E2
100
AcDbEntity
  8
Ｓ_１_１
  6
CONTINUOUS
 62
     3
100
AcDbVertex
100
AcDb2dVertex
 10
441.10166
 20
234.4088349999999
 30
0.0
  0
VERTEX
  5
306
330
2E2
100
AcDbEntity
  8
Ｓ_１_１
  6
CONTINUOUS
 62
     3
100
AcDbVertex
100
AcDb2dVertex
 10
440.75569
 20
234.4771559999999
 30
0.0
  0
VERTEX
  5
307
330
2E2
100
AcDbEntity
  8
Ｓ_１_１
  6
CONTINUOUS
 62
     3
100
AcDbVertex
100
AcDb2dVertex
 10
440.407068
 20
234.4999879999999
 30
0.0
  0
VERTEX
  5
308
330
2E2
100
AcDbEntity
  8
Ｓ_１_１
  6
CONTINUOUS
 62
     3
100
AcDbVertex
100
AcDb2dVertex
 10
440.0584449999999
 20
234.4771559999999
 30
0.0
  0
VERTEX
  5
309
330
2E2
100
AcDbEntity
  8
Ｓ_１_１
  6
CONTINUOUS
 62
     3
100
AcDbVertex
100
AcDb2dVertex
 10
439.712476
 20
234.4088349999999
 30
0.0
  0
VERTEX
  5
30A
330
2E2
100
AcDbEntity
  8
Ｓ_１_１
  6
CONTINUOUS
 62
     3
100
AcDbVertex
100
AcDb2dVertex
 10
439.371793
 20
234.2955429999999
 30
0.0
  0
VERTEX
  5
30B
330
2E2
100
AcDbEntity
  8
Ｓ_１_１
  6
CONTINUOUS
 62
     3
100
AcDbVertex
100
AcDb2dVertex
 10
439.0389889999999
 20
234.1381439999999
 30
0.0
  0
VERTEX
  5
30C
330
2E2
100
AcDbEntity
  8
Ｓ_１_１
  6
CONTINUOUS
 62
     3
100
AcDbVertex
100
AcDb2dVertex
 10
438.716596
 20
233.9378349999999
 30
0.0
  0
VERTEX
  5
30D
330
2E2
100
AcDbEntity
  8
Ｓ_１_１
  6
CONTINUOUS
 62
     3
100
AcDbVertex
100
AcDb2dVertex
 10
438.40707
 20
233.6961409999999
 30
0.0
  0
VERTEX
  5
30E
330
2E2
100
AcDbEntity
  8
Ｓ_１_１
  6
CONTINUOUS
 62
     3
100
AcDbVertex
100
AcDb2dVertex
 10
438.112764
 20
233.4149009999999
 30
0.0
  0
VERTEX
  5
30F
330
2E2
100
AcDbEntity
  8
Ｓ_１_１
  6
CONTINUOUS
 62
     3
100
AcDbVertex
100
AcDb2dVertex
 10
437.83592
 20
233.096255
 30
0.0
  0
VERTEX
  5
310
330
2E2
100
AcDbEntity
  8
Ｓ_１_１
  6
CONTINUOUS
 62
     3
100
AcDbVertex
100
AcDb2dVertex
 10
437.578643
 20
232.7426289999999
 30
0.0
  0
VERTEX
  5
311
330
2E2
100
AcDbEntity
  8
Ｓ_１_１
  6
CONTINUOUS
 62
     3
100
AcDbVertex
100
AcDb2dVertex
 10
437.3428929999999
 20
232.3567139999999
 30
0.0
  0
VERTEX
  5
312
330
2E2
100
AcDbEntity
  8
Ｓ_１_１
  6
CONTINUOUS
 62
     3
100
AcDbVertex
100
AcDb2dVertex
 10
437.130463
 20
231.9414469999999
 30
0.0
  0
VERTEX
  5
313
330
2E2
100
AcDbEntity
  8
Ｓ_１_１
  6
CONTINUOUS
 62
     3
100
AcDbVertex
100
AcDb2dVertex
 10
436.9429699999999
 20
231.4999889999999
 30
0.0
  0
VERTEX
  5
314
330
2E2
100
AcDbEntity
  8
Ｓ_１_１
  6
CONTINUOUS
 62
     3
100
AcDbVertex
100
AcDb2dVertex
 10
436.78184
 20
231.0356979999999
 30
0.0
  0
VERTEX
  5
315
330
2E2
100
AcDbEntity
  8
Ｓ_１_１
  6
CONTINUOUS
 62
     3
100
AcDbVertex
100
AcDb2dVertex
 10
436.648301
 20
230.5521099999999
 30
0.0
  0
VERTEX
  5
316
330
2E2
100
AcDbEntity
  8
Ｓ_１_１
  6
CONTINUOUS
 62
     3
100
AcDbVertex
100
AcDb2dVertex
 10
436.543368
 20
230.0529029999999
 30
0.0
  0
VERTEX
  5
317
330
2E2
100
AcDbEntity
  8
Ｓ_１_１
  6
CONTINUOUS
 62
     3
100
AcDbVertex
100
AcDb2dVertex
 10
436.467841
 20
229.5418779999999
 30
0.0
  0
VERTEX
  5
318
330
2E2
100
AcDbEntity
  8
Ｓ_１_１
  6
CONTINUOUS
 62
     3
100
AcDbVertex
100
AcDb2dVertex
 10
436.422293
 20
229.0229239999999
 30
0.0
  0
VERTEX
  5
319
330
2E2
100
AcDbEntity
  8
Ｓ_１_１
  6
CONTINUOUS
 62
     3
100
AcDbVertex
100
AcDb2dVertex
 10
436.407072
 20
228.4999889999999
 30
0.0
  0
VERTEX
  5
31A
330
2E2
100
AcDbEntity
  8
Ｓ_１_１
  6
CONTINUOUS
 62
     3
100
AcDbVertex
100
AcDb2dVertex
 10
436.422293
 20
227.9770549999999
 30
0.0
  0
VERTEX
  5
31B
330
2E2
100
AcDbEntity
  8
Ｓ_１_１
  6
CONTINUOUS
 62
     3
100
AcDbVertex
100
AcDb2dVertex
 10
436.467841
 20
227.4580999999999
 30
0.0
  0
VERTEX
  5
31C
330
2E2
100
AcDbEntity
  8
Ｓ_１_１
  6
CONTINUOUS
 62
     3
100
AcDbVertex
100
AcDb2dVertex
 10
436.543368
 20
226.947075
 30
0.0
  0
VERTEX
  5
31D
330
2E2
100
AcDbEntity
  8
Ｓ_１_１
  6
CONTINUOUS
 62
     3
100
AcDbVertex
100
AcDb2dVertex
 10
436.648301
 20
226.4478689999999
 30
0.0
  0
VERTEX
  5
31E
330
2E2
100
AcDbEntity
  8
Ｓ_１_１
  6
CONTINUOUS
 62
     3
100
AcDbVertex
100
AcDb2dVertex
 10
436.78184
 20
225.9642799999999
 30
0.0
  0
VERTEX
  5
31F
330
2E2
100
AcDbEntity
  8
Ｓ_１_１
  6
CONTINUOUS
 62
     3
100
AcDbVertex
100
AcDb2dVertex
 10
436.9429699999999
 20
225.4999899999999
 30
0.0
  0
VERTEX
  5
320
330
2E2
100
AcDbEntity
  8
Ｓ_１_１
  6
CONTINUOUS
 62
     3
100
AcDbVertex
100
AcDb2dVertex
 10
437.130463
 20
225.0585309999999
 30
0.0
  0
VERTEX
  5
321
330
2E2
100
AcDbEntity
  8
Ｓ_１_１
  6
CONTINUOUS
 62
     3
100
AcDbVertex
100
AcDb2dVertex
 10
437.3428929999999
 20
224.6432639999999
 30
0.0
  0
VERTEX
  5
322
330
2E2
100
AcDbEntity
  8
Ｓ_１_１
  6
CONTINUOUS
 62
     3
100
AcDbVertex
100
AcDb2dVertex
 10
437.578643
 20
224.2573489999999
 30
0.0
  0
VERTEX
  5
323
330
2E2
100
AcDbEntity
  8
Ｓ_１_１
  6
CONTINUOUS
 62
     3
100
AcDbVertex
100
AcDb2dVertex
 10
437.83592
 20
223.9037229999999
 30
0.0
  0
VERTEX
  5
324
330
2E2
100
AcDbEntity
  8
Ｓ_１_１
  6
CONTINUOUS
 62
     3
100
AcDbVertex
100
AcDb2dVertex
 10
438.112764
 20
223.5850779999999
 30
0.0
  0
VERTEX
  5
325
330
2E2
100
AcDbEntity
  8
Ｓ_１_１
  6
CONTINUOUS
 62
     3
100
AcDbVertex
100
AcDb2dVertex
 10
438.40707
 20
223.303838
 30
0.0
  0
VERTEX
  5
326
330
2E2
100
AcDbEntity
  8
Ｓ_１_１
  6
CONTINUOUS
 62
     3
100
AcDbVertex
100
AcDb2dVertex
 10
438.716596
 20
223.0621429999999
 30
0.0
  0
VERTEX
  5
327
330
2E2
100
AcDbEntity
  8
Ｓ_１_１
  6
CONTINUOUS
 62
     3
100
AcDbVertex
100
AcDb2dVertex
 10
439.0389889999999
 20
222.861834
 30
0.0
  0
VERTEX
  5
328
330
2E2
100
AcDbEntity
  8
Ｓ_１_１
  6
CONTINUOUS
 62
     3
100
AcDbVertex
100
AcDb2dVertex
 10
439.371793
 20
222.7044349999999
 30
0.0
  0
VERTEX
  5
329
330
2E2
100
AcDbEntity
  8
Ｓ_１_１
  6
CONTINUOUS
 62
     3
100
AcDbVertex
100
AcDb2dVertex
 10
439.712476
 20
222.5911439999999
 30
0.0
  0
VERTEX
  5
32A
330
2E2
100
AcDbEntity
  8
Ｓ_１_１
  6
CONTINUOUS
 62
     3
100
AcDbVertex
100
AcDb2dVertex
 10
440.0584449999999
 20
222.5228219999999
 30
0.0
  0
VERTEX
  5
32B
330
2E2
100
AcDbEntity
  8
Ｓ_１_１
  6
CONTINUOUS
 62
     3
100
AcDbVertex
100
AcDb2dVertex
 10
440.407068
 20
222.4999899999999
 30
0.0
  0
SEQEND
  5
32C
330
2E2
100
AcDbEntity
  8
Ｓ_１_１
  6
CONTINUOUS
 62
     3
  0
POLYLINE
  5
32D
330
1F
100
AcDbEntity
  8
Ｓ_１_１
  6
CONTINUOUS
 62
     3
100
AcDb2dPolyline
 66
     1
 10
0.0
 20
0.0
 30
0.0
 70
   128
  0
VERTEX
  5
32E
330
32D
100
AcDbEntity
  8
Ｓ_１_１
  6
CONTINUOUS
 62
     3
100
AcDbVertex
100
AcDb2dVertex
 10
639.5928940000001
 20
222.4999899999999
 30
0.0
  0
VERTEX
  5
32F
330
32D
100
AcDbEntity
  8
Ｓ_１_１
  6
CONTINUOUS
 62
     3
100
AcDbVertex
100
AcDb2dVertex
 10
639.9415180000001
 20
222.5228219999999
 30
0.0
  0
VERTEX
  5
330
330
32D
100
AcDbEntity
  8
Ｓ_１_１
  6
CONTINUOUS
 62
     3
100
AcDbVertex
100
AcDb2dVertex
 10
640.287489
 20
222.5911439999999
 30
0.0
  0
VERTEX
  5
331
330
32D
100
AcDbEntity
  8
Ｓ_１_１
  6
CONTINUOUS
 62
     3
100
AcDbVertex
100
AcDb2dVertex
 10
640.628174
 20
222.7044349999999
 30
0.0
  0
VERTEX
  5
332
330
32D
100
AcDbEntity
  8
Ｓ_１_１
  6
CONTINUOUS
 62
     3
100
AcDbVertex
100
AcDb2dVertex
 10
640.9609800000001
 20
222.861834
 30
0.0
  0
VERTEX
  5
333
330
32D
100
AcDbEntity
  8
Ｓ_１_１
  6
CONTINUOUS
 62
     3
100
AcDbVertex
100
AcDb2dVertex
 10
641.2833740000001
 20
223.0621429999999
 30
0.0
  0
VERTEX
  5
334
330
32D
100
AcDbEntity
  8
Ｓ_１_１
  6
CONTINUOUS
 62
     3
100
AcDbVertex
100
AcDb2dVertex
 10
641.5929020000001
 20
223.303838
 30
0.0
  0
VERTEX
  5
335
330
32D
100
AcDbEntity
  8
Ｓ_１_１
  6
CONTINUOUS
 62
     3
100
AcDbVertex
100
AcDb2dVertex
 10
641.887209
 20
223.5850779999999
 30
0.0
  0
VERTEX
  5
336
330
32D
100
AcDbEntity
  8
Ｓ_１_１
  6
CONTINUOUS
 62
     3
100
AcDbVertex
100
AcDb2dVertex
 10
642.1640540000001
 20
223.9037229999999
 30
0.0
  0
VERTEX
  5
337
330
32D
100
AcDbEntity
  8
Ｓ_１_１
  6
CONTINUOUS
 62
     3
100
AcDbVertex
100
AcDb2dVertex
 10
642.4213320000001
 20
224.2573489999999
 30
0.0
  0
VERTEX
  5
338
330
32D
100
AcDbEntity
  8
Ｓ_１_１
  6
CONTINUOUS
 62
     3
100
AcDbVertex
100
AcDb2dVertex
 10
642.6570830000001
 20
224.6432639999999
 30
0.0
  0
VERTEX
  5
339
330
32D
100
AcDbEntity
  8
Ｓ_１_１
  6
CONTINUOUS
 62
     3
100
AcDbVertex
100
AcDb2dVertex
 10
642.8695150000001
 20
225.0585309999999
 30
0.0
  0
VERTEX
  5
33A
330
32D
100
AcDbEntity
  8
Ｓ_１_１
  6
CONTINUOUS
 62
     3
100
AcDbVertex
100
AcDb2dVertex
 10
643.0570090000001
 20
225.4999899999999
 30
0.0
  0
VERTEX
  5
33B
330
32D
100
AcDbEntity
  8
Ｓ_１_１
  6
CONTINUOUS
 62
     3
100
AcDbVertex
100
AcDb2dVertex
 10
643.2181390000001
 20
225.9642799999999
 30
0.0
  0
VERTEX
  5
33C
330
32D
100
AcDbEntity
  8
Ｓ_１_１
  6
CONTINUOUS
 62
     3
100
AcDbVertex
100
AcDb2dVertex
 10
643.3516790000001
 20
226.4478689999999
 30
0.0
  0
VERTEX
  5
33D
330
32D
100
AcDbEntity
  8
Ｓ_１_１
  6
CONTINUOUS
 62
     3
100
AcDbVertex
100
AcDb2dVertex
 10
643.456612
 20
226.947075
 30
0.0
  0
VERTEX
  5
33E
330
32D
100
AcDbEntity
  8
Ｓ_１_１
  6
CONTINUOUS
 62
     3
100
AcDbVertex
100
AcDb2dVertex
 10
643.53214
 20
227.4580999999999
 30
0.0
  0
VERTEX
  5
33F
330
32D
100
AcDbEntity
  8
Ｓ_１_１
  6
CONTINUOUS
 62
     3
100
AcDbVertex
100
AcDb2dVertex
 10
643.5776880000001
 20
227.9770549999999
 30
0.0
  0
VERTEX
  5
340
330
32D
100
AcDbEntity
  8
Ｓ_１_１
  6
CONTINUOUS
 62
     3
100
AcDbVertex
100
AcDb2dVertex
 10
643.592909
 20
228.4999889999999
 30
0.0
  0
VERTEX
  5
341
330
32D
100
AcDbEntity
  8
Ｓ_１_１
  6
CONTINUOUS
 62
     3
100
AcDbVertex
100
AcDb2dVertex
 10
643.5776880000001
 20
229.0229239999999
 30
0.0
  0
VERTEX
  5
342
330
32D
100
AcDbEntity
  8
Ｓ_１_１
  6
CONTINUOUS
 62
     3
100
AcDbVertex
100
AcDb2dVertex
 10
643.53214
 20
229.5418779999999
 30
0.0
  0
VERTEX
  5
343
330
32D
100
AcDbEntity
  8
Ｓ_１_１
  6
CONTINUOUS
 62
     3
100
AcDbVertex
100
AcDb2dVertex
 10
643.456612
 20
230.0529029999999
 30
0.0
  0
VERTEX
  5
344
330
32D
100
AcDbEntity
  8
Ｓ_１_１
  6
CONTINUOUS
 62
     3
100
AcDbVertex
100
AcDb2dVertex
 10
643.3516790000001
 20
230.5521099999999
 30
0.0
  0
VERTEX
  5
345
330
32D
100
AcDbEntity
  8
Ｓ_１_１
  6
CONTINUOUS
 62
     3
100
AcDbVertex
100
AcDb2dVertex
 10
643.2181390000001
 20
231.0356979999999
 30
0.0
  0
VERTEX
  5
346
330
32D
100
AcDbEntity
  8
Ｓ_１_１
  6
CONTINUOUS
 62
     3
100
AcDbVertex
100
AcDb2dVertex
 10
643.0570090000001
 20
231.4999889999999
 30
0.0
  0
VERTEX
  5
347
330
32D
100
AcDbEntity
  8
Ｓ_１_１
  6
CONTINUOUS
 62
     3
100
AcDbVertex
100
AcDb2dVertex
 10
642.8695150000001
 20
231.9414469999999
 30
0.0
  0
VERTEX
  5
348
330
32D
100
AcDbEntity
  8
Ｓ_１_１
  6
CONTINUOUS
 62
     3
100
AcDbVertex
100
AcDb2dVertex
 10
642.6570830000001
 20
232.3567139999999
 30
0.0
  0
VERTEX
  5
349
330
32D
100
AcDbEntity
  8
Ｓ_１_１
  6
CONTINUOUS
 62
     3
100
AcDbVertex
100
AcDb2dVertex
 10
642.4213320000001
 20
232.7426289999999
 30
0.0
  0
VERTEX
  5
34A
330
32D
100
AcDbEntity
  8
Ｓ_１_１
  6
CONTINUOUS
 62
     3
100
AcDbVertex
100
AcDb2dVertex
 10
642.1640540000001
 20
233.096255
 30
0.0
  0
VERTEX
  5
34B
330
32D
100
AcDbEntity
  8
Ｓ_１_１
  6
CONTINUOUS
 62
     3
100
AcDbVertex
100
AcDb2dVertex
 10
641.887209
 20
233.4149009999999
 30
0.0
  0
VERTEX
  5
34C
330
32D
100
AcDbEntity
  8
Ｓ_１_１
  6
CONTINUOUS
 62
     3
100
AcDbVertex
100
AcDb2dVertex
 10
641.5929020000001
 20
233.6961409999999
 30
0.0
  0
VERTEX
  5
34D
330
32D
100
AcDbEntity
  8
Ｓ_１_１
  6
CONTINUOUS
 62
     3
100
AcDbVertex
100
AcDb2dVertex
 10
641.2833740000001
 20
233.9378349999999
 30
0.0
  0
VERTEX
  5
34E
330
32D
100
AcDbEntity
  8
Ｓ_１_１
  6
CONTINUOUS
 62
     3
100
AcDbVertex
100
AcDb2dVertex
 10
640.9609800000001
 20
234.1381439999999
 30
0.0
  0
VERTEX
  5
34F
330
32D
100
AcDbEntity
  8
Ｓ_１_１
  6
CONTINUOUS
 62
     3
100
AcDbVertex
100
AcDb2dVertex
 10
640.628174
 20
234.2955429999999
 30
0.0
  0
VERTEX
  5
350
330
32D
100
AcDbEntity
  8
Ｓ_１_１
  6
CONTINUOUS
 62
     3
100
AcDbVertex
100
AcDb2dVertex
 10
640.287489
 20
234.4088349999999
 30
0.0
  0
VERTEX
  5
351
330
32D
100
AcDbEntity
  8
Ｓ_１_１
  6
CONTINUOUS
 62
     3
100
AcDbVertex
100
AcDb2dVertex
 10
639.9415180000001
 20
234.4771559999999
 30
0.0
  0
VERTEX
  5
352
330
32D
100
AcDbEntity
  8
Ｓ_１_１
  6
CONTINUOUS
 62
     3
100
AcDbVertex
100
AcDb2dVertex
 10
639.5928940000001
 20
234.4999879999999
 30
0.0
  0
VERTEX
  5
353
330
32D
100
AcDbEntity
  8
Ｓ_１_１
  6
CONTINUOUS
 62
     3
100
AcDbVertex
100
AcDb2dVertex
 10
639.2442700000001
 20
234.4771559999999
 30
0.0
  0
VERTEX
  5
354
330
32D
100
AcDbEntity
  8
Ｓ_１_１
  6
CONTINUOUS
 62
     3
100
AcDbVertex
100
AcDb2dVertex
 10
638.898299
 20
234.4088349999999
 30
0.0
  0
VERTEX
  5
355
330
32D
100
AcDbEntity
  8
Ｓ_１_１
  6
CONTINUOUS
 62
     3
100
AcDbVertex
100
AcDb2dVertex
 10
638.5576140000001
 20
234.2955429999999
 30
0.0
  0
VERTEX
  5
356
330
32D
100
AcDbEntity
  8
Ｓ_１_１
  6
CONTINUOUS
 62
     3
100
AcDbVertex
100
AcDb2dVertex
 10
638.2248079999999
 20
234.1381439999999
 30
0.0
  0
VERTEX
  5
357
330
32D
100
AcDbEntity
  8
Ｓ_１_１
  6
CONTINUOUS
 62
     3
100
AcDbVertex
100
AcDb2dVertex
 10
637.902415
 20
233.9378349999999
 30
0.0
  0
VERTEX
  5
358
330
32D
100
AcDbEntity
  8
Ｓ_１_１
  6
CONTINUOUS
 62
     3
100
AcDbVertex
100
AcDb2dVertex
 10
637.5928860000001
 20
233.6961409999999
 30
0.0
  0
VERTEX
  5
359
330
32D
100
AcDbEntity
  8
Ｓ_１_１
  6
CONTINUOUS
 62
     3
100
AcDbVertex
100
AcDb2dVertex
 10
637.2985800000001
 20
233.4149009999999
 30
0.0
  0
VERTEX
  5
35A
330
32D
100
AcDbEntity
  8
Ｓ_１_１
  6
CONTINUOUS
 62
     3
100
AcDbVertex
100
AcDb2dVertex
 10
637.0217339999999
 20
233.096255
 30
0.0
  0
VERTEX
  5
35B
330
32D
100
AcDbEntity
  8
Ｓ_１_１
  6
CONTINUOUS
 62
     3
100
AcDbVertex
100
AcDb2dVertex
 10
636.7644560000001
 20
232.7426289999999
 30
0.0
  0
VERTEX
  5
35C
330
32D
100
AcDbEntity
  8
Ｓ_１_１
  6
CONTINUOUS
 62
     3
100
AcDbVertex
100
AcDb2dVertex
 10
636.528705
 20
232.3567139999999
 30
0.0
  0
VERTEX
  5
35D
330
32D
100
AcDbEntity
  8
Ｓ_１_１
  6
CONTINUOUS
 62
     3
100
AcDbVertex
100
AcDb2dVertex
 10
636.3162730000001
 20
231.9414469999999
 30
0.0
  0
VERTEX
  5
35E
330
32D
100
AcDbEntity
  8
Ｓ_１_１
  6
CONTINUOUS
 62
     3
100
AcDbVertex
100
AcDb2dVertex
 10
636.1287790000001
 20
231.4999889999999
 30
0.0
  0
VERTEX
  5
35F
330
32D
100
AcDbEntity
  8
Ｓ_１_１
  6
CONTINUOUS
 62
     3
100
AcDbVertex
100
AcDb2dVertex
 10
635.9676489999999
 20
231.0356979999999
 30
0.0
  0
VERTEX
  5
360
330
32D
100
AcDbEntity
  8
Ｓ_１_１
  6
CONTINUOUS
 62
     3
100
AcDbVertex
100
AcDb2dVertex
 10
635.8341090000001
 20
230.5521099999999
 30
0.0
  0
VERTEX
  5
361
330
32D
100
AcDbEntity
  8
Ｓ_１_１
  6
CONTINUOUS
 62
     3
100
AcDbVertex
100
AcDb2dVertex
 10
635.729176
 20
230.0529029999999
 30
0.0
  0
VERTEX
  5
362
330
32D
100
AcDbEntity
  8
Ｓ_１_１
  6
CONTINUOUS
 62
     3
100
AcDbVertex
100
AcDb2dVertex
 10
635.653648
 20
229.5418779999999
 30
0.0
  0
VERTEX
  5
363
330
32D
100
AcDbEntity
  8
Ｓ_１_１
  6
CONTINUOUS
 62
     3
100
AcDbVertex
100
AcDb2dVertex
 10
635.6080999999999
 20
229.0229239999999
 30
0.0
  0
VERTEX
  5
364
330
32D
100
AcDbEntity
  8
Ｓ_１_１
  6
CONTINUOUS
 62
     3
100
AcDbVertex
100
AcDb2dVertex
 10
635.592879
 20
228.4999889999999
 30
0.0
  0
VERTEX
  5
365
330
32D
100
AcDbEntity
  8
Ｓ_１_１
  6
CONTINUOUS
 62
     3
100
AcDbVertex
100
AcDb2dVertex
 10
635.6080999999999
 20
227.9770549999999
 30
0.0
  0
VERTEX
  5
366
330
32D
100
AcDbEntity
  8
Ｓ_１_１
  6
CONTINUOUS
 62
     3
100
AcDbVertex
100
AcDb2dVertex
 10
635.653648
 20
227.4580999999999
 30
0.0
  0
VERTEX
  5
367
330
32D
100
AcDbEntity
  8
Ｓ_１_１
  6
CONTINUOUS
 62
     3
100
AcDbVertex
100
AcDb2dVertex
 10
635.729176
 20
226.947075
 30
0.0
  0
VERTEX
  5
368
330
32D
100
AcDbEntity
  8
Ｓ_１_１
  6
CONTINUOUS
 62
     3
100
AcDbVertex
100
AcDb2dVertex
 10
635.8341090000001
 20
226.4478689999999
 30
0.0
  0
VERTEX
  5
369
330
32D
100
AcDbEntity
  8
Ｓ_１_１
  6
CONTINUOUS
 62
     3
100
AcDbVertex
100
AcDb2dVertex
 10
635.9676489999999
 20
225.9642799999999
 30
0.0
  0
VERTEX
  5
36A
330
32D
100
AcDbEntity
  8
Ｓ_１_１
  6
CONTINUOUS
 62
     3
100
AcDbVertex
100
AcDb2dVertex
 10
636.1287790000001
 20
225.4999899999999
 30
0.0
  0
VERTEX
  5
36B
330
32D
100
AcDbEntity
  8
Ｓ_１_１
  6
CONTINUOUS
 62
     3
100
AcDbVertex
100
AcDb2dVertex
 10
636.3162730000001
 20
225.0585309999999
 30
0.0
  0
VERTEX
  5
36C
330
32D
100
AcDbEntity
  8
Ｓ_１_１
  6
CONTINUOUS
 62
     3
100
AcDbVertex
100
AcDb2dVertex
 10
636.528705
 20
224.6432639999999
 30
0.0
  0
VERTEX
  5
36D
330
32D
100
AcDbEntity
  8
Ｓ_１_１
  6
CONTINUOUS
 62
     3
100
AcDbVertex
100
AcDb2dVertex
 10
636.7644560000001
 20
224.2573489999999
 30
0.0
  0
VERTEX
  5
36E
330
32D
100
AcDbEntity
  8
Ｓ_１_１
  6
CONTINUOUS
 62
     3
100
AcDbVertex
100
AcDb2dVertex
 10
637.0217339999999
 20
223.9037229999999
 30
0.0
  0
VERTEX
  5
36F
330
32D
100
AcDbEntity
  8
Ｓ_１_１
  6
CONTINUOUS
 62
     3
100
AcDbVertex
100
AcDb2dVertex
 10
637.2985800000001
 20
223.5850779999999
 30
0.0
  0
VERTEX
  5
370
330
32D
100
AcDbEntity
  8
Ｓ_１_１
  6
CONTINUOUS
 62
     3
100
AcDbVertex
100
AcDb2dVertex
 10
637.5928860000001
 20
223.303838
 30
0.0
  0
VERTEX
  5
371
330
32D
100
AcDbEntity
  8
Ｓ_１_１
  6
CONTINUOUS
 62
     3
100
AcDbVertex
100
AcDb2dVertex
 10
637.902415
 20
223.0621429999999
 30
0.0
  0
VERTEX
  5
372
330
32D
100
AcDbEntity
  8
Ｓ_１_１
  6
CONTINUOUS
 62
     3
100
AcDbVertex
100
AcDb2dVertex
 10
638.2248079999999
 20
222.861834
 30
0.0
  0
VERTEX
  5
373
330
32D
100
AcDbEntity
  8
Ｓ_１_１
  6
CONTINUOUS
 62
     3
100
AcDbVertex
100
AcDb2dVertex
 10
638.5576140000001
 20
222.7044349999999
 30
0.0
  0
VERTEX
  5
374
330
32D
100
AcDbEntity
  8
Ｓ_１_１
  6
CONTINUOUS
 62
     3
100
AcDbVertex
100
AcDb2dVertex
 10
638.898299
 20
222.5911439999999
 30
0.0
  0
VERTEX
  5
375
330
32D
100
AcDbEntity
  8
Ｓ_１_１
  6
CONTINUOUS
 62
     3
100
AcDbVertex
100
AcDb2dVertex
 10
639.2442700000001
 20
222.5228219999999
 30
0.0
  0
VERTEX
  5
376
330
32D
100
AcDbEntity
  8
Ｓ_１_１
  6
CONTINUOUS
 62
     3
100
AcDbVertex
100
AcDb2dVertex
 10
639.5928940000001
 20
222.4999899999999
 30
0.0
  0
SEQEND
  5
377
330
32D
100
AcDbEntity
  8
Ｓ_１_１
  6
CONTINUOUS
 62
     3
  0
CIRCLE
  5
378
330
1F
100
AcDbEntity
  8
Ｓ_１_１
  6
CONTINUOUS
 62
     3
100
AcDbCircle
 10
540.0
 20
228.4999939999999
 30
0.0
 40
4.5
  0
CIRCLE
  5
379
330
1F
100
AcDbEntity
  8
Ｓ_１_１
  6
CONTINUOUS
 62
     3
100
AcDbCircle
 10
540.0
 20
228.4999939999999
 30
0.0
 40
6.000000000000004
  0
LINE
  5
37A
330
1F
100
AcDbEntity
  8
Ｓ_１_１
  6
CONTINUOUS
 62
     3
100
AcDbLine
 10
535.9482579999999
 20
279.4999869999999
 30
0.0
 11
419.999964
 21
279.4999869999999
 31
0.0
  0
LINE
  5
37B
330
1F
100
AcDbEntity
  8
Ｓ_１_１
  6
CONTINUOUS
 62
     3
100
AcDbLine
 10
419.999974
 20
279.5000269999999
 30
0.0
 11
420.999981
 21
280.5000339999999
 31
0.0
  0
LINE
  5
37C
330
1F
100
AcDbEntity
  8
Ｓ_１_１
  6
CONTINUOUS
 62
     3
100
AcDbLine
 10
422.000012
 20
213.5000039999999
 30
0.0
 11
419.9999989999999
 21
215.5000169999999
 31
0.0
  0
LINE
  5
37D
330
1F
100
AcDbEntity
  8
Ｓ_１_１
  6
CONTINUOUS
 62
     3
100
AcDbLine
 10
657.9999950000001
 20
213.4999849999999
 30
0.0
 11
659.999994
 21
215.499984
 31
0.0
  0
LINE
  5
37E
330
1F
100
AcDbEntity
  8
Ｓ_１_１
  6
CONTINUOUS
 62
     3
100
AcDbLine
 10
659.9999600000001
 20
215.4999919999999
 30
0.0
 11
659.9999600000001
 21
270.4999909999999
 31
0.0
  0
LINE
  5
37F
330
1F
100
AcDbEntity
  8
Ｓ_１_１
  6
CONTINUOUS
 62
     3
100
AcDbLine
 10
419.999964
 20
215.4999919999999
 30
0.0
 11
419.999964
 21
279.4999869999999
 31
0.0
  0
LINE
  5
380
330
1F
100
AcDbEntity
  8
Ｓ_１_１
  6
CONTINUOUS
 62
     3
100
AcDbLine
 10
659.999998
 20
215.5000019999999
 30
0.0
 11
420.0000399999999
 21
215.5000019999999
 31
0.0
  0
LINE
  5
381
330
1F
100
AcDbEntity
  8
Ｓ_１_１
  6
CONTINUOUS
 62
     3
100
AcDbLine
 10
658.000067
 20
213.4999939999999
 30
0.0
 11
422.000009
 21
213.4999939999999
 31
0.0
  0
LINE
  5
382
330
1F
100
AcDbEntity
  8
Ｓ_１_１
  6
CONTINUOUS
 62
     3
100
AcDbLine
 10
410.00004
 20
709.9999979999999
 30
0.0
 11
669.999985
 21
709.9999979999999
 31
0.0
  0
TEXT
  5
383
330
1F
100
AcDbEntity
  8
Ｓ_１_１
  6
CONTINUOUS
 62
     4
100
AcDbText
 10
240.0000000000001
 20
363.1984375000001
 30
0.0
 40
10.38871247113164
  1
ユニバーサルヘッド
 41
0.999230769230769
  7
EXCADTTF1
 72
     5
 11
361.5000000000001
 21
363.1984375000001
 31
0.0
100
AcDbText
  0
LEADER
  5
384
330
1F
100
AcDbEntity
  8
Ｓ_１_１
  6
CONTINUOUS
 62
     2
100
AcDbLeader
  3
ISO-25
 76
     3
 10
393.8164797863552
 20
305.500015
 30
0.0
 10
362.5000380000004
 20
359.8000000000001
 30
0.0
 10
240.0000000000001
 20
359.8000000000001
 30
0.0
1001
ACAD
1000
DSTYLE
1002
{
1070
     5
1000
EX_NORM
1070
    41
1040
9.0
1070
   341
1005
78
1002
}
  0
TEXT
  5
385
330
1F
100
AcDbEntity
  8
Ｓ_１_１
  6
CONTINUOUS
 62
     4
100
AcDbText
 10
279.9
 20
343.1984375000001
 30
0.0
 40
10.38871247113164
  1
可動ヘッド
 41
0.9992307692307689
  7
EXCADTTF1
 72
     5
 11
347.4
 21
343.1984375000001
 31
0.0
100
AcDbText
  0
LEADER
  5
386
330
1F
100
AcDbEntity
  8
Ｓ_１_１
  6
CONTINUOUS
 62
     2
100
AcDbLeader
  3
ISO-25
 76
     3
 10
393.5211421092095
 20
289.0170820857306
 30
0.0
 10
362.500038
 20
339.8000000000001
 30
0.0
 10
279.9
 20
339.8000000000001
 30
0.0
1001
ACAD
1000
DSTYLE
1002
{
1070
     5
1000
EX_NORM
1070
    41
1040
9.0
1070
   341
1005
78
1002
}
  0
TEXT
  5
387
330
1F
100
AcDbEntity
  8
Ｓ_１_１
  6
CONTINUOUS
 62
     4
100
AcDbText
 10
712.2499999999999
 20
344.1484374999999
 30
0.0
 40
10.38871247113164
  1
6-M12ネジ深20
 41
0.999230769230769
  7
EXCADTTF1
 72
     5
 11
799.9999999999999
 21
344.1484374999999
 31
0.0
100
AcDbText
  0
LEADER
  5
388
330
1F
100
AcDbEntity
  8
Ｓ_１_１
  6
CONTINUOUS
 62
     2
100
AcDbLeader
  3
ISO-25
 76
     3
 10
641.8466391580599
 20
233.45369550581
 30
0.0
 10
699.9999999999999
 20
339.9999999999999
 30
0.0
 10
800.1
 20
339.9999999999999
 30
0.0
1001
ACAD
1000
DSTYLE
1002
{
1070
     5
1000
EX_NORM
1070
    41
1040
9.0
1070
   341
1005
78
1002
}
  0
LEADER
  5
389
330
1F
100
AcDbEntity
  8
Ｓ_１_１
  6
CONTINUOUS
 62
     2
100
AcDbLeader
  3
ISO-25
 76
     3
 10
419.9999639999999
 20
256.8
 30
0.0
 10
401.149965
 20
240.0
 30
0.0
 10
324.149965
 20
240.0000000000001
 30
0.0
1001
ACAD
1000
DSTYLE
1002
{
1070
     5
1000
EX_NORM
1070
    41
1040
9.0
1070
   341
1005
78
1002
}
  0
TEXT
  5
38A
330
1F
100
AcDbEntity
  8
Ｓ_１_１
  6
CONTINUOUS
 62
     4
100
AcDbText
 10
325.5199650000001
 20
243.3984375
 30
0.0
 40
10.38871247113164
  1
安全ナット
 41
0.9992307692307689
  7
EXCADTTF1
 72
     5
 11
393.0199650000001
 21
243.3984375
 31
0.0
100
AcDbText
  0
DIMENSION
  5
38B
330
1F
100
AcDbEntity
  8
Ｓ_１_１
  6
CONTINUOUS
 62
     2
100
AcDbDimension
  2
*D24
 10
320.0
 20
200.0
 30
0.0
 11
311.7500000000001
 21
164.2499999999999
 31
0.0
 70
   160
  3
ISO-25
100
AcDbAlignedDimension
 13
447.00001900001
 23
180.0
 33
0.0
 14
348.900035
 24
200.0
 34
0.0
 50
90.0
100
AcDbRotatedDimension
1001
ACAD
1000
DSTYLE
1002
{
1070
   270
1070
     2
1070
     6
1000
EX_NORM
1070
     7
1000
EX_NORM
1070
    41
1040
9.0
1070
    42
1040
9.500053000010155
1070
    44
1040
3.0
1070
    73
1070
     0
1070
    74
1070
     0
1070
    75
1070
     0
1070
    76
1070
     0
1070
    77
1070
     1
1070
    78
1070
     8
1070
   140
1040
10.38871247113164
1070
   147
1040
0.0
1070
   173
1070
     1
1070
   176
1070
     2
1070
   177
1070
     2
1070
   178
1070
     2
1070
   271
1070
     2
1070
   277
1070
     2
1070
   279
1070
     2
1070
   280
1070
     1
1070
   287
1070
     5
1070
   340
1005
128
1002
}
  0
LINE
  5
398
330
1F
100
AcDbEntity
  8
Ｓ_１_１
  6
CONTINUOUS
 62
     3
100
AcDbLine
 10
670.0000360000001
 20
305.501255
 30
0.0
 11
670.0000360000001
 21
270.790009
 31
0.0
  0
LINE
  5
399
330
1F
100
AcDbEntity
  8
Ｓ_１_１
  6
CONTINUOUS
 62
     3
100
AcDbLine
 10
700.0000360000001
 20
305.501255
 30
0.0
 11
700.0000360000001
 21
286.7841379999999
 31
0.0
  0
LINE
  5
39A
330
1F
100
AcDbEntity
  8
Ｓ_１_１
  6
EXLTYPE0
 62
     2
100
AcDbLine
 10
689.9999600000001
 20
280.5000339999999
 30
0.0
 11
389.9999640000001
 21
280.5000339999999
 31
0.0
  0
LINE
  5
39B
330
1F
100
AcDbEntity
  8
Ｓ_１_１
  6
CONTINUOUS
 62
     3
100
AcDbLine
 10
535.482941
 20
280.500015
 30
0.0
 11
389.9999640000001
 21
280.500015
 31
0.0
  0
LINE
  5
39C
330
1F
100
AcDbEntity
  8
Ｓ_１_１
  6
CONTINUOUS
 62
     3
100
AcDbLine
 10
379.9999640000001
 20
271.500015
 30
0.0
 11
380.9999640000001
 21
270.500015
 31
0.0
  0
LINE
  5
39D
330
1F
100
AcDbEntity
  8
Ｓ_１_１
  6
CONTINUOUS
 62
     3
100
AcDbLine
 10
389.9999640000001
 20
271.500015
 30
0.0
 11
388.9999640000001
 21
270.500015
 31
0.0
  0
LINE
  5
39E
330
1F
100
AcDbEntity
  8
Ｓ_１_１
  6
CONTINUOUS
 62
     3
100
AcDbLine
 10
389.9999640000001
 20
271.500015
 30
0.0
 11
389.9999640000001
 21
280.5000339999999
 31
0.0
  0
LINE
  5
39F
330
1F
100
AcDbEntity
  8
Ｓ_１_１
  6
CONTINUOUS
 62
     3
100
AcDbLine
 10
700.0000360000001
 20
271.500015
 30
0.0
 11
699.0000360000001
 21
270.500015
 31
0.0
  0
LINE
  5
3A0
330
1F
100
AcDbEntity
  8
Ｓ_１_１
  6
EXLTYPE0
 62
     2
100
AcDbLine
 10
690.0000360000001
 20
271.500015
 30
0.0
 11
691.0000360000001
 21
270.500015
 31
0.0
  0
LINE
  5
3A1
330
1F
100
AcDbEntity
  8
Ｓ_１_１
  6
EXLTYPE0
 62
     2
100
AcDbLine
 10
690.0000360000001
 20
271.500015
 30
0.0
 11
690.0000360000001
 21
280.500015
 31
0.0
  0
LINE
  5
3A2
330
1F
100
AcDbEntity
  8
Ｓ_１_１
  6
CONTINUOUS
 62
     3
100
AcDbLine
 10
419.9999640000001
 20
270.500015
 30
0.0
 11
380.9999640000001
 21
270.500015
 31
0.0
  0
LINE
  5
3A3
330
1F
100
AcDbEntity
  8
Ｓ_１_１
  6
CONTINUOUS
 62
     3
100
AcDbLine
 10
700.000036
 20
271.500015
 30
0.0
 11
700.0000360000003
 21
286.7829027270266
 31
0.0
  0
LINE
  5
3A4
330
1F
100
AcDbEntity
  8
Ｓ_１_１
  6
CONTINUOUS
 62
     3
100
AcDbLine
 10
700.0000360000001
 20
305.500015
 30
0.0
 11
379.9999640000001
 21
305.500015
 31
0.0
  0
POLYLINE
  5
3A5
330
1F
100
AcDbEntity
  8
Ｓ_１_１
  6
CONTINUOUS
 62
     3
100
AcDb2dPolyline
 66
     1
 10
0.0
 20
0.0
 30
0.0
 70
   128
  0
VERTEX
  5
3A6
330
3A5
100
AcDbEntity
  8
Ｓ_１_１
  6
CONTINUOUS
 62
     3
100
AcDbVertex
100
AcDb2dVertex
 10
543.5083611874788
 20
270.500015
 30
0.0
  0
VERTEX
  5
3A7
330
3A5
100
AcDbEntity
  8
Ｓ_１_１
  6
CONTINUOUS
 62
     3
100
AcDbVertex
100
AcDb2dVertex
 10
542.538148
 20
271.259208
 30
0.0
  0
VERTEX
  5
3A8
330
3A5
100
AcDbEntity
  8
Ｓ_１_１
  6
CONTINUOUS
 62
     3
100
AcDbVertex
100
AcDb2dVertex
 10
542.0453299999999
 20
271.6649909999999
 30
0.0
  0
VERTEX
  5
3A9
330
3A5
100
AcDbEntity
  8
Ｓ_１_１
  6
CONTINUOUS
 62
     3
100
AcDbVertex
100
AcDb2dVertex
 10
541.561563
 20
272.0839779999999
 30
0.0
  0
VERTEX
  5
3AA
330
3A5
100
AcDbEntity
  8
Ｓ_１_１
  6
CONTINUOUS
 62
     3
100
AcDbVertex
100
AcDb2dVertex
 10
541.0875029999999
 20
272.515793
 30
0.0
  0
VERTEX
  5
3AB
330
3A5
100
AcDbEntity
  8
Ｓ_１_１
  6
CONTINUOUS
 62
     3
100
AcDbVertex
100
AcDb2dVertex
 10
540.6238060000001
 20
272.960056
 30
0.0
  0
VERTEX
  5
3AC
330
3A5
100
AcDbEntity
  8
Ｓ_１_１
  6
CONTINUOUS
 62
     3
100
AcDbVertex
100
AcDb2dVertex
 10
540.1711310000001
 20
273.4163899999999
 30
0.0
  0
VERTEX
  5
3AD
330
3A5
100
AcDbEntity
  8
Ｓ_１_１
  6
CONTINUOUS
 62
     3
100
AcDbVertex
100
AcDb2dVertex
 10
539.7301329999999
 20
273.8844169999999
 30
0.0
  0
VERTEX
  5
3AE
330
3A5
100
AcDbEntity
  8
Ｓ_１_１
  6
CONTINUOUS
 62
     3
100
AcDbVertex
100
AcDb2dVertex
 10
539.30147
 20
274.36376
 30
0.0
  0
VERTEX
  5
3AF
330
3A5
100
AcDbEntity
  8
Ｓ_１_１
  6
CONTINUOUS
 62
     3
100
AcDbVertex
100
AcDb2dVertex
 10
538.8857969999999
 20
274.854039
 30
0.0
  0
VERTEX
  5
3B0
330
3A5
100
AcDbEntity
  8
Ｓ_１_１
  6
CONTINUOUS
 62
     3
100
AcDbVertex
100
AcDb2dVertex
 10
538.483772
 20
275.3548779999999
 30
0.0
  0
VERTEX
  5
3B1
330
3A5
100
AcDbEntity
  8
Ｓ_１_１
  6
CONTINUOUS
 62
     3
100
AcDbVertex
100
AcDb2dVertex
 10
538.096051
 20
275.865898
 30
0.0
  0
VERTEX
  5
3B2
330
3A5
100
AcDbEntity
  8
Ｓ_１_１
  6
CONTINUOUS
 62
     3
100
AcDbVertex
100
AcDb2dVertex
 10
537.723291
 20
276.3867209999999
 30
0.0
  0
VERTEX
  5
3B3
330
3A5
100
AcDbEntity
  8
Ｓ_１_１
  6
CONTINUOUS
 62
     3
100
AcDbVertex
100
AcDb2dVertex
 10
537.366149
 20
276.9169699999999
 30
0.0
  0
VERTEX
  5
3B4
330
3A5
100
AcDbEntity
  8
Ｓ_１_１
  6
CONTINUOUS
 62
     3
100
AcDbVertex
100
AcDb2dVertex
 10
537.025281
 20
277.456267
 30
0.0
  0
VERTEX
  5
3B5
330
3A5
100
AcDbEntity
  8
Ｓ_１_１
  6
CONTINUOUS
 62
     3
100
AcDbVertex
100
AcDb2dVertex
 10
536.701345
 20
278.0042319999999
 30
0.0
  0
VERTEX
  5
3B6
330
3A5
100
AcDbEntity
  8
Ｓ_１_１
  6
CONTINUOUS
 62
     3
100
AcDbVertex
100
AcDb2dVertex
 10
536.3949970000001
 20
278.56049
 30
0.0
  0
VERTEX
  5
3B7
330
3A5
100
AcDbEntity
  8
Ｓ_１_１
  6
CONTINUOUS
 62
     3
100
AcDbVertex
100
AcDb2dVertex
 10
536.2233349999999
 20
278.891207
 30
0.0
  0
VERTEX
  5
3B8
330
3A5
100
AcDbEntity
  8
Ｓ_１_１
  6
CONTINUOUS
 62
     3
100
AcDbVertex
100
AcDb2dVertex
 10
536.0578190000001
 20
279.224623
 30
0.0
  0
VERTEX
  5
3B9
330
3A5
100
AcDbEntity
  8
Ｓ_１_１
  6
CONTINUOUS
 62
     3
100
AcDbVertex
100
AcDb2dVertex
 10
535.898289
 20
279.5607029999999
 30
0.0
  0
VERTEX
  5
3BA
330
3A5
100
AcDbEntity
  8
Ｓ_１_１
  6
CONTINUOUS
 62
     3
100
AcDbVertex
100
AcDb2dVertex
 10
535.7445849999999
 20
279.8994089999999
 30
0.0
  0
VERTEX
  5
3BB
330
3A5
100
AcDbEntity
  8
Ｓ_１_１
  6
CONTINUOUS
 62
     3
100
AcDbVertex
100
AcDb2dVertex
 10
535.59655
 20
280.240706
 30
0.0
  0
VERTEX
  5
3BC
330
3A5
100
AcDbEntity
  8
Ｓ_１_１
  6
CONTINUOUS
 62
     3
100
AcDbVertex
100
AcDb2dVertex
 10
535.4540239999999
 20
280.584558
 30
0.0
  0
VERTEX
  5
3BD
330
3A5
100
AcDbEntity
  8
Ｓ_１_１
  6
CONTINUOUS
 62
     3
100
AcDbVertex
100
AcDb2dVertex
 10
535.316847
 20
280.9309299999999
 30
0.0
  0
VERTEX
  5
3BE
330
3A5
100
AcDbEntity
  8
Ｓ_１_１
  6
CONTINUOUS
 62
     3
100
AcDbVertex
100
AcDb2dVertex
 10
535.1848620000001
 20
281.279786
 30
0.0
  0
VERTEX
  5
3BF
330
3A5
100
AcDbEntity
  8
Ｓ_１_１
  6
CONTINUOUS
 62
     3
100
AcDbVertex
100
AcDb2dVertex
 10
535.057908
 20
281.6310889999999
 30
0.0
  0
VERTEX
  5
3C0
330
3A5
100
AcDbEntity
  8
Ｓ_１_１
  6
CONTINUOUS
 62
     3
100
AcDbVertex
100
AcDb2dVertex
 10
534.935827
 20
281.984804
 30
0.0
  0
VERTEX
  5
3C1
330
3A5
100
AcDbEntity
  8
Ｓ_１_１
  6
CONTINUOUS
 62
     3
100
AcDbVertex
100
AcDb2dVertex
 10
534.8184590000001
 20
282.340895
 30
0.0
  0
VERTEX
  5
3C2
330
3A5
100
AcDbEntity
  8
Ｓ_１_１
  6
CONTINUOUS
 62
     3
100
AcDbVertex
100
AcDb2dVertex
 10
534.705647
 20
282.699327
 30
0.0
  0
VERTEX
  5
3C3
330
3A5
100
AcDbEntity
  8
Ｓ_１_１
  6
CONTINUOUS
 62
     3
100
AcDbVertex
100
AcDb2dVertex
 10
534.597229
 20
283.060062
 30
0.0
  0
VERTEX
  5
3C4
330
3A5
100
AcDbEntity
  8
Ｓ_１_１
  6
CONTINUOUS
 62
     3
100
AcDbVertex
100
AcDb2dVertex
 10
534.4930489999999
 20
283.423066
 30
0.0
  0
VERTEX
  5
3C5
330
3A5
100
AcDbEntity
  8
Ｓ_１_１
  6
CONTINUOUS
 62
     3
100
AcDbVertex
100
AcDb2dVertex
 10
534.392945
 20
283.788302
 30
0.0
  0
VERTEX
  5
3C6
330
3A5
100
AcDbEntity
  8
Ｓ_１_１
  6
CONTINUOUS
 62
     3
100
AcDbVertex
100
AcDb2dVertex
 10
534.2967610000001
 20
284.155735
 30
0.0
  0
VERTEX
  5
3C7
330
3A5
100
AcDbEntity
  8
Ｓ_１_１
  6
CONTINUOUS
 62
     3
100
AcDbVertex
100
AcDb2dVertex
 10
534.1444710000001
 20
284.772229
 30
0.0
  0
VERTEX
  5
3C8
330
3A5
100
AcDbEntity
  8
Ｓ_１_１
  6
CONTINUOUS
 62
     3
100
AcDbVertex
100
AcDb2dVertex
 10
533.9997229999999
 20
285.393037
 30
0.0
  0
VERTEX
  5
3C9
330
3A5
100
AcDbEntity
  8
Ｓ_１_１
  6
CONTINUOUS
 62
     3
100
AcDbVertex
100
AcDb2dVertex
 10
533.8596319999999
 20
286.0164819999999
 30
0.0
  0
VERTEX
  5
3CA
330
3A5
100
AcDbEntity
  8
Ｓ_１_１
  6
CONTINUOUS
 62
     3
100
AcDbVertex
100
AcDb2dVertex
 10
533.721313
 20
286.640886
 30
0.0
  0
VERTEX
  5
3CB
330
3A5
100
AcDbEntity
  8
Ｓ_１_１
  6
CONTINUOUS
 62
     3
100
AcDbVertex
100
AcDb2dVertex
 10
533.58188
 20
287.264571
 30
0.0
  0
VERTEX
  5
3CC
330
3A5
100
AcDbEntity
  8
Ｓ_１_１
  6
CONTINUOUS
 62
     3
100
AcDbVertex
100
AcDb2dVertex
 10
533.4384480000001
 20
287.8858579999999
 30
0.0
  0
VERTEX
  5
3CD
330
3A5
100
AcDbEntity
  8
Ｓ_１_１
  6
CONTINUOUS
 62
     3
100
AcDbVertex
100
AcDb2dVertex
 10
533.288133
 20
288.5030699999999
 30
0.0
  0
VERTEX
  5
3CE
330
3A5
100
AcDbEntity
  8
Ｓ_１_１
  6
CONTINUOUS
 62
     3
100
AcDbVertex
100
AcDb2dVertex
 10
533.128048
 20
289.114529
 30
0.0
  0
VERTEX
  5
3CF
330
3A5
100
AcDbEntity
  8
Ｓ_１_１
  6
CONTINUOUS
 62
     3
100
AcDbVertex
100
AcDb2dVertex
 10
532.9553089999999
 20
289.718556
 30
0.0
  0
VERTEX
  5
3D0
330
3A5
100
AcDbEntity
  8
Ｓ_１_１
  6
CONTINUOUS
 62
     3
100
AcDbVertex
100
AcDb2dVertex
 10
532.76703
 20
290.313473
 30
0.0
  0
VERTEX
  5
3D1
330
3A5
100
AcDbEntity
  8
Ｓ_１_１
  6
CONTINUOUS
 62
     3
100
AcDbVertex
100
AcDb2dVertex
 10
532.5603249999999
 20
290.8976029999999
 30
0.0
  0
VERTEX
  5
3D2
330
3A5
100
AcDbEntity
  8
Ｓ_１_１
  6
CONTINUOUS
 62
     3
100
AcDbVertex
100
AcDb2dVertex
 10
532.3323109999999
 20
291.469266
 30
0.0
  0
VERTEX
  5
3D3
330
3A5
100
AcDbEntity
  8
Ｓ_１_１
  6
CONTINUOUS
 62
     3
100
AcDbVertex
100
AcDb2dVertex
 10
532.080101
 20
292.026786
 30
0.0
  0
VERTEX
  5
3D4
330
3A5
100
AcDbEntity
  8
Ｓ_１_１
  6
CONTINUOUS
 62
     3
100
AcDbVertex
100
AcDb2dVertex
 10
531.80081
 20
292.568484
 30
0.0
  0
VERTEX
  5
3D5
330
3A5
100
AcDbEntity
  8
Ｓ_１_１
  6
CONTINUOUS
 62
     3
100
AcDbVertex
100
AcDb2dVertex
 10
531.4915530000001
 20
293.0926819999999
 30
0.0
  0
VERTEX
  5
3D6
330
3A5
100
AcDbEntity
  8
Ｓ_１_１
  6
CONTINUOUS
 62
     3
100
AcDbVertex
100
AcDb2dVertex
 10
531.149445
 20
293.597702
 30
0.0
  0
VERTEX
  5
3D7
330
3A5
100
AcDbEntity
  8
Ｓ_１_１
  6
CONTINUOUS
 62
     3
100
AcDbVertex
100
AcDb2dVertex
 10
530.8660379999999
 20
293.9677689999999
 30
0.0
  0
VERTEX
  5
3D8
330
3A5
100
AcDbEntity
  8
Ｓ_１_１
  6
CONTINUOUS
 62
     3
100
AcDbVertex
100
AcDb2dVertex
 10
530.5630389999999
 20
294.3253769999999
 30
0.0
  0
VERTEX
  5
3D9
330
3A5
100
AcDbEntity
  8
Ｓ_１_１
  6
CONTINUOUS
 62
     3
100
AcDbVertex
100
AcDb2dVertex
 10
530.2415040000001
 20
294.670115
 30
0.0
  0
VERTEX
  5
3DA
330
3A5
100
AcDbEntity
  8
Ｓ_１_１
  6
CONTINUOUS
 62
     3
100
AcDbVertex
100
AcDb2dVertex
 10
529.902486
 20
295.0015739999999
 30
0.0
  0
VERTEX
  5
3DB
330
3A5
100
AcDbEntity
  8
Ｓ_１_１
  6
CONTINUOUS
 62
     3
100
AcDbVertex
100
AcDb2dVertex
 10
529.547043
 20
295.3193439999999
 30
0.0
  0
VERTEX
  5
3DC
330
3A5
100
AcDbEntity
  8
Ｓ_１_１
  6
CONTINUOUS
 62
     3
100
AcDbVertex
100
AcDb2dVertex
 10
529.176228
 20
295.623015
 30
0.0
  0
VERTEX
  5
3DD
330
3A5
100
AcDbEntity
  8
Ｓ_１_１
  6
CONTINUOUS
 62
     3
100
AcDbVertex
100
AcDb2dVertex
 10
528.791097
 20
295.912178
 30
0.0
  0
VERTEX
  5
3DE
330
3A5
100
AcDbEntity
  8
Ｓ_１_１
  6
CONTINUOUS
 62
     3
100
AcDbVertex
100
AcDb2dVertex
 10
528.392705
 20
296.1864219999999
 30
0.0
  0
VERTEX
  5
3DF
330
3A5
100
AcDbEntity
  8
Ｓ_１_１
  6
CONTINUOUS
 62
     3
100
AcDbVertex
100
AcDb2dVertex
 10
527.9821079999999
 20
296.4453389999999
 30
0.0
  0
VERTEX
  5
3E0
330
3A5
100
AcDbEntity
  8
Ｓ_１_１
  6
CONTINUOUS
 62
     3
100
AcDbVertex
100
AcDb2dVertex
 10
527.5603610000001
 20
296.688518
 30
0.0
  0
VERTEX
  5
3E1
330
3A5
100
AcDbEntity
  8
Ｓ_１_１
  6
CONTINUOUS
 62
     3
100
AcDbVertex
100
AcDb2dVertex
 10
527.128518
 20
296.91555
 30
0.0
  0
VERTEX
  5
3E2
330
3A5
100
AcDbEntity
  8
Ｓ_１_１
  6
CONTINUOUS
 62
     3
100
AcDbVertex
100
AcDb2dVertex
 10
526.6876360000001
 20
297.126024
 30
0.0
  0
VERTEX
  5
3E3
330
3A5
100
AcDbEntity
  8
Ｓ_１_１
  6
CONTINUOUS
 62
     3
100
AcDbVertex
100
AcDb2dVertex
 10
526.238769
 20
297.3195319999999
 30
0.0
  0
VERTEX
  5
3E4
330
3A5
100
AcDbEntity
  8
Ｓ_１_１
  6
CONTINUOUS
 62
     3
100
AcDbVertex
100
AcDb2dVertex
 10
525.7829730000001
 20
297.495663
 30
0.0
  0
VERTEX
  5
3E5
330
3A5
100
AcDbEntity
  8
Ｓ_１_１
  6
CONTINUOUS
 62
     3
100
AcDbVertex
100
AcDb2dVertex
 10
525.3213020000001
 20
297.6540069999999
 30
0.0
  0
VERTEX
  5
3E6
330
3A5
100
AcDbEntity
  8
Ｓ_１_１
  6
CONTINUOUS
 62
     3
100
AcDbVertex
100
AcDb2dVertex
 10
524.8548129999999
 20
297.794155
 30
0.0
  0
VERTEX
  5
3E7
330
3A5
100
AcDbEntity
  8
Ｓ_１_１
  6
CONTINUOUS
 62
     3
100
AcDbVertex
100
AcDb2dVertex
 10
523.997382
 20
298.002782
 30
0.0
  0
VERTEX
  5
3E8
330
3A5
100
AcDbEntity
  8
Ｓ_１_１
  6
CONTINUOUS
 62
     3
100
AcDbVertex
100
AcDb2dVertex
 10
523.129831
 20
298.1584549999999
 30
0.0
  0
VERTEX
  5
3E9
330
3A5
100
AcDbEntity
  8
Ｓ_１_１
  6
CONTINUOUS
 62
     3
100
AcDbVertex
100
AcDb2dVertex
 10
522.2544720000001
 20
298.2696839999999
 30
0.0
  0
VERTEX
  5
3EA
330
3A5
100
AcDbEntity
  8
Ｓ_１_１
  6
CONTINUOUS
 62
     3
100
AcDbVertex
100
AcDb2dVertex
 10
521.373617
 20
298.3449769999999
 30
0.0
  0
VERTEX
  5
3EB
330
3A5
100
AcDbEntity
  8
Ｓ_１_１
  6
CONTINUOUS
 62
     3
100
AcDbVertex
100
AcDb2dVertex
 10
520.489579
 20
298.3928429999999
 30
0.0
  0
VERTEX
  5
3EC
330
3A5
100
AcDbEntity
  8
Ｓ_１_１
  6
CONTINUOUS
 62
     3
100
AcDbVertex
100
AcDb2dVertex
 10
519.604671
 20
298.4217899999999
 30
0.0
  0
VERTEX
  5
3ED
330
3A5
100
AcDbEntity
  8
Ｓ_１_１
  6
CONTINUOUS
 62
     3
100
AcDbVertex
100
AcDb2dVertex
 10
518.7212030000001
 20
298.440328
 30
0.0
  0
VERTEX
  5
3EE
330
3A5
100
AcDbEntity
  8
Ｓ_１_１
  6
CONTINUOUS
 62
     3
100
AcDbVertex
100
AcDb2dVertex
 10
517.84149
 20
298.4569639999999
 30
0.0
  0
VERTEX
  5
3EF
330
3A5
100
AcDbEntity
  8
Ｓ_１_１
  6
CONTINUOUS
 62
     3
100
AcDbVertex
100
AcDb2dVertex
 10
516.967842
 20
298.480208
 30
0.0
  0
VERTEX
  5
3F0
330
3A5
100
AcDbEntity
  8
Ｓ_１_１
  6
CONTINUOUS
 62
     3
100
AcDbVertex
100
AcDb2dVertex
 10
516.1025729999999
 20
298.5185679999999
 30
0.0
  0
VERTEX
  5
3F1
330
3A5
100
AcDbEntity
  8
Ｓ_１_１
  6
CONTINUOUS
 62
     3
100
AcDbVertex
100
AcDb2dVertex
 10
515.247995
 20
298.5805539999999
 30
0.0
  0
VERTEX
  5
3F2
330
3A5
100
AcDbEntity
  8
Ｓ_１_１
  6
CONTINUOUS
 62
     3
100
AcDbVertex
100
AcDb2dVertex
 10
514.4064189999999
 20
298.6746729999999
 30
0.0
  0
VERTEX
  5
3F3
330
3A5
100
AcDbEntity
  8
Ｓ_１_１
  6
CONTINUOUS
 62
     3
100
AcDbVertex
100
AcDb2dVertex
 10
513.5801590000001
 20
298.809434
 30
0.0
  0
VERTEX
  5
3F4
330
3A5
100
AcDbEntity
  8
Ｓ_１_１
  6
CONTINUOUS
 62
     3
100
AcDbVertex
100
AcDb2dVertex
 10
512.771526
 20
298.9933469999999
 30
0.0
  0
VERTEX
  5
3F5
330
3A5
100
AcDbEntity
  8
Ｓ_１_１
  6
CONTINUOUS
 62
     3
100
AcDbVertex
100
AcDb2dVertex
 10
511.9828329999999
 20
299.2349189999999
 30
0.0
  0
VERTEX
  5
3F6
330
3A5
100
AcDbEntity
  8
Ｓ_１_１
  6
CONTINUOUS
 62
     3
100
AcDbVertex
100
AcDb2dVertex
 10
511.2163929999999
 20
299.54266
 30
0.0
  0
VERTEX
  5
3F7
330
3A5
100
AcDbEntity
  8
Ｓ_１_１
  6
CONTINUOUS
 62
     3
100
AcDbVertex
100
AcDb2dVertex
 10
510.7479089999999
 20
299.7726189999999
 30
0.0
  0
VERTEX
  5
3F8
330
3A5
100
AcDbEntity
  8
Ｓ_１_１
  6
CONTINUOUS
 62
     3
100
AcDbVertex
100
AcDb2dVertex
 10
510.2891790000001
 20
300.030071
 30
0.0
  0
VERTEX
  5
3F9
330
3A5
100
AcDbEntity
  8
Ｓ_１_１
  6
CONTINUOUS
 62
     3
100
AcDbVertex
100
AcDb2dVertex
 10
509.8402900000001
 20
300.313123
 30
0.0
  0
VERTEX
  5
3FA
330
3A5
100
AcDbEntity
  8
Ｓ_１_１
  6
CONTINUOUS
 62
     3
100
AcDbVertex
100
AcDb2dVertex
 10
509.4013319999999
 20
300.6198799999999
 30
0.0
  0
VERTEX
  5
3FB
330
3A5
100
AcDbEntity
  8
Ｓ_１_１
  6
CONTINUOUS
 62
     3
100
AcDbVertex
100
AcDb2dVertex
 10
508.972391
 20
300.9484489999999
 30
0.0
  0
VERTEX
  5
3FC
330
3A5
100
AcDbEntity
  8
Ｓ_１_１
  6
CONTINUOUS
 62
     3
100
AcDbVertex
100
AcDb2dVertex
 10
508.553555
 20
301.296937
 30
0.0
  0
VERTEX
  5
3FD
330
3A5
100
AcDbEntity
  8
Ｓ_１_１
  6
CONTINUOUS
 62
     3
100
AcDbVertex
100
AcDb2dVertex
 10
508.144914
 20
301.663449
 30
0.0
  0
VERTEX
  5
3FE
330
3A5
100
AcDbEntity
  8
Ｓ_１_１
  6
CONTINUOUS
 62
     3
100
AcDbVertex
100
AcDb2dVertex
 10
507.746554
 20
302.046091
 30
0.0
  0
VERTEX
  5
3FF
330
3A5
100
AcDbEntity
  8
Ｓ_１_１
  6
CONTINUOUS
 62
     3
100
AcDbVertex
100
AcDb2dVertex
 10
507.3585640000001
 20
302.442971
 30
0.0
  0
VERTEX
  5
400
330
3A5
100
AcDbEntity
  8
Ｓ_１_１
  6
CONTINUOUS
 62
     3
100
AcDbVertex
100
AcDb2dVertex
 10
506.981031
 20
302.852194
 30
0.0
  0
VERTEX
  5
401
330
3A5
100
AcDbEntity
  8
Ｓ_１_１
  6
CONTINUOUS
 62
     3
100
AcDbVertex
100
AcDb2dVertex
 10
506.6140439999999
 20
303.271867
 30
0.0
  0
VERTEX
  5
402
330
3A5
100
AcDbEntity
  8
Ｓ_１_１
  6
CONTINUOUS
 62
     3
100
AcDbVertex
100
AcDb2dVertex
 10
506.2576899999999
 20
303.700096
 30
0.0
  0
VERTEX
  5
403
330
3A5
100
AcDbEntity
  8
Ｓ_１_１
  6
CONTINUOUS
 62
     3
100
AcDbVertex
100
AcDb2dVertex
 10
505.9120580000001
 20
304.134987
 30
0.0
  0
VERTEX
  5
404
330
3A5
100
AcDbEntity
  8
Ｓ_１_１
  6
CONTINUOUS
 62
     3
100
AcDbVertex
100
AcDb2dVertex
 10
505.5772349999999
 20
304.574647
 30
0.0
  0
VERTEX
  5
405
330
3A5
100
AcDbEntity
  8
Ｓ_１_１
  6
CONTINUOUS
 62
     3
100
AcDbVertex
100
AcDb2dVertex
 10
505.2533089999999
 20
305.017182
 30
0.0
  0
VERTEX
  5
406
330
3A5
100
AcDbEntity
  8
Ｓ_１_１
  6
CONTINUOUS
 62
     3
100
AcDbVertex
100
AcDb2dVertex
 10
504.9126273582553
 20
305.500015
 30
0.0
  0
SEQEND
  5
407
330
3A5
100
AcDbEntity
  8
Ｓ_１_１
  6
CONTINUOUS
 62
     3
  0
LINE
  5
408
330
1F
100
AcDbEntity
  8
Ｓ_１_１
  6
CONTINUOUS
 62
     3
100
AcDbLine
 10
543.5083611874788
 20
270.500015
 30
0.0
 11
699.0000360000001
 21
270.500015
 31
0.0
  0
LINE
  5
409
330
1F
100
AcDbEntity
  8
Ｓ_１_１
  6
CONTINUOUS
 62
     3
100
AcDbLine
 10
379.9999640000001
 20
305.501255
 30
0.0
 11
379.9999640000003
 21
286.7829027270266
 31
0.0
  0
LINE
  5
40A
330
1F
100
AcDbEntity
  8
Ｓ_１_１
  6
CONTINUOUS
 62
     3
100
AcDbLine
 10
379.9999640000001
 20
271.500015
 30
0.0
 11
379.9999640000003
 21
286.7829027270266
 31
0.0
  0
LINE
  5
40B
330
1F
100
AcDbEntity
  8
Ｓ_１_１
  6
CONTINUOUS
 62
     3
100
AcDbLine
 10
700.000036
 20
286.78290272703
 30
0.0
 11
533.6895632893288
 21
286.78290272703
 31
0.0
  0
ARC
  5
40C
330
1F
100
AcDbEntity
  8
Ｓ_１_１
  6
EXLTYPE0
 62
     2
100
AcDbCircle
 10
540.0
 20
-639.4999710000002
 30
0.0
 40
939.999986
100
AcDbArc
 50
80.19980768068538
 51
91.792237
  0
ARC
  5
40D
330
1F
100
AcDbEntity
  8
Ｓ_１_１
  6
CONTINUOUS
 62
     3
100
AcDbCircle
 10
540.0
 20
-639.4999710000002
 30
0.0
 40
939.999986
100
AcDbArc
 50
91.78086500000003
 51
99.80019231931456
  0
DIMENSION
  5
40E
330
1F
100
AcDbEntity
  8
Ｓ_１_１
  6
CONTINUOUS
 62
     2
100
AcDbDimension
  2
*D25
 10
780.0
 20
270.500015
 30
0.0
 11
771.75
 21
225.2500075
 31
0.0
 70
   160
  3
ISO-25
100
AcDbAlignedDimension
 13
633.000007
 23
180.0
 33
0.0
 14
699.000036
 24
270.500015
 34
0.0
 50
90.0
100
AcDbRotatedDimension
1001
ACAD
1000
DSTYLE
1002
{
1070
   270
1070
     2
1070
     6
1000
EX_NORM
1070
     7
1000
EX_NORM
1070
    41
1040
9.0
1070
    42
1040
9.5
1070
    44
1040
3.0
1070
    73
1070
     0
1070
    74
1070
     0
1070
    75
1070
     0
1070
    76
1070
     0
1070
    77
1070
     1
1070
    78
1070
     8
1070
   140
1040
10.38871247113164
1070
   147
1040
0.0
1070
   173
1070
     1
1070
   176
1070
     2
1070
   177
1070
     2
1070
   178
1070
     2
1070
   271
1070
     2
1070
   277
1070
     2
1070
   279
1070
     2
1070
   280
1070
     0
1070
   287
1070
     5
1070
   340
1005
128
1002
}
  0
LINE
  5
41B
330
1F
100
AcDbEntity
  8
Ｓ_１_１
  6
EXLTYPE3
 62
     2
100
AcDbLine
 10
347.1173645282286
 20
299.3416650574173
 30
0.0
 11
347.7706256016558
 21
280.6347154988957
 31
0.0
  0
ARC
  5
41C
330
1F
100
AcDbEntity
  8
Ｓ_１_１
  6
EXLTYPE3
 62
     2
100
AcDbCircle
 10
540.0
 20
-639.4999710000002
 30
0.0
 40
939.999986
100
AcDbArc
 50
100.1839196146383
 51
101.8001923193146
  0
LINE
  5
41D
330
1F
100
AcDbEntity
  8
Ｓ_１_１
  6
EXLTYPE3
 62
     2
100
AcDbLine
 10
405.7886282382726
 20
301.3892699773905
 30
0.0
 11
347.1174078036046
 21
299.3404258127919
 31
0.0
  0
LINE
  5
41E
330
1F
100
AcDbEntity
  8
Ｓ_１_１
  6
EXLTYPE3
 62
     2
100
AcDbLine
 10
375.026725051299
 20
281.5865194650268
 30
0.0
 11
347.7706256016646
 21
280.6347154989019
 31
0.0
  0
LINE
  5
41F
330
1F
100
AcDbEntity
  8
Ｓ_１_１
  6
EXLTYPE3
 62
     2
100
AcDbLine
 10
732.8826354717714
 20
299.3416650574173
 30
0.0
 11
732.2293743983442
 21
280.6347154988957
 31
0.0
  0
LINE
  5
420
330
1F
100
AcDbEntity
  8
Ｓ_１_１
  6
EXLTYPE3
 62
     2
100
AcDbLine
 10
674.2113717617274
 20
301.3892699773904
 30
0.0
 11
732.8825921963954
 21
299.3404258127918
 31
0.0
  0
ARC
  5
421
330
1F
100
AcDbEntity
  8
Ｓ_１_１
  6
EXLTYPE3
 62
     2
100
AcDbCircle
 10
539.9999999999998
 20
-639.4999710000002
 30
0.0
 40
939.999986
100
AcDbArc
 50
78.19980768068541
 51
79.81608038536163
  0
LINE
  5
422
330
1F
100
AcDbEntity
  8
Ｓ_１_１
  6
EXLTYPE3
 62
     2
100
AcDbLine
 10
704.9732749487009
 20
281.5865194650267
 30
0.0
 11
732.2293743983354
 21
280.6347154989018
 31
0.0
  0
DIMENSION
  5
423
330
1F
100
AcDbEntity
  8
Ｓ_１_１
  6
CONTINUOUS
 62
     2
100
AcDbDimension
  2
*D26
 10
319.5393233214033
 20
300.7526620201743
 30
0.0
 11
311.8662859558368
 21
321.8706268397397
 31
0.0
 70
   165
  3
ISO-25
100
AcDb3PointAngularDimension
 13
379.9999640000001
 23
305.500015
 33
0.0
 14
347.1174078036046
 24
299.3404258127918
 34
0.0
 15
523.5049638871967
 25
305.5000149999999
 35
0.0
1001
ACAD
1000
DSTYLE
1002
{
1070
   270
1070
     2
1070
     6
1000
EX_NORM
1070
     7
1000
EX_NORM
1070
    41
1040
9.0
1070
    42
1040
4.5
1070
    44
1040
3.0
1070
    73
1070
     0
1070
    74
1070
     0
1070
    75
1070
     0
1070
    76
1070
     0
1070
    77
1070
     1
1070
    78
1070
     8
1070
    79
1070
     2
1070
   140
1040
10.38871247113164
1070
   147
1040
0.0
1070
   173
1070
     1
1070
   176
1070
     2
1070
   177
1070
     2
1070
   178
1070
     2
1070
   179
1070
     2
1070
   271
1070
     2
1070
   277
1070
     2
1070
   279
1070
     2
1070
   280
1070
     1
1070
   287
1070
     5
1070
   340
1005
128
1002
}
  0
DIMENSION
  5
433
330
1F
100
AcDbEntity
  8
Ｓ_１_１
  6
CONTINUOUS
 62
     2
100
AcDbDimension
  2
*D27
 10
780.0
 20
305.500015
 30
0.0
 11
771.75
 21
288.000015
 31
0.0
 70
   160
  3
ISO-25
100
AcDbAlignedDimension
 13
699.000036
 23
270.500015
 33
0.0
 14
700.000036
 24
305.500015
 34
0.0
 50
90.0
100
AcDbRotatedDimension
1001
ACAD
1000
DSTYLE
1002
{
1070
   270
1070
     2
1070
     6
1000
EX_NORM
1070
     7
1000
EX_NORM
1070
    41
1040
9.0
1070
    42
1040
4.5
1070
    44
1040
3.0
1070
    73
1070
     0
1070
    74
1070
     0
1070
    75
1070
     0
1070
    76
1070
     0
1070
    77
1070
     1
1070
    78
1070
     8
1070
   140
1040
10.38871247113164
1070
   147
1040
0.0
1070
   173
1070
     1
1070
   176
1070
     2
1070
   177
1070
     2
1070
   178
1070
     2
1070
   271
1070
     2
1070
   277
1070
     2
1070
   279
1070
     2
1070
   280
1070
     0
1070
   287
1070
     5
1070
   340
1005
128
1002
}
  0
DIMENSION
  5
440
330
1F
100
AcDbEntity
  8
Ｓ_１_１
  6
CONTINUOUS
 62
     2
100
AcDbDimension
  2
*D28
 10
760.0
 20
270.500015
 30
0.0
 11
751.7500000000001
 21
254.7500149999998
 31
0.0
 70
   160
  1
16
  3
ISO-25
100
AcDbAlignedDimension
 13
700.00003599998
 23
286.78290272703
 33
0.0
 14
699.000036
 24
270.500015
 34
0.0
 50
90.0
100
AcDbRotatedDimension
1001
ACAD
1000
DSTYLE
1002
{
1070
   270
1070
     2
1070
     6
1000
EX_BCIR
1070
     7
1000
EX_NORM
1070
    41
1040
3.0
1070
    42
1040
4.5
1070
    44
1040
3.0
1070
    73
1070
     0
1070
    74
1070
     0
1070
    75
1070
     0
1070
    76
1070
     0
1070
    77
1070
     1
1070
    78
1070
     8
1070
   140
1040
10.38871247113164
1070
   147
1040
0.0
1070
   173
1070
     1
1070
   176
1070
     2
1070
   177
1070
     2
1070
   178
1070
     2
1070
   271
1070
     2
1070
   277
1070
     2
1070
   279
1070
     2
1070
   280
1070
     2
1070
   287
1070
     5
1070
   340
1005
128
1002
}
  0
DIMENSION
  5
44D
330
1F
100
AcDbEntity
  8
Ｓ_１_１
  6
CONTINUOUS
 62
     2
100
AcDbDimension
  2
*D29
 10
760.0
 20
305.500015
 30
0.0
 11
751.7500000000001
 21
321.2500149999999
 31
0.0
 70
   160
  1
19
  3
ISO-25
100
AcDbAlignedDimension
 13
700.00003599998
 23
286.78290272703
 33
0.0
 14
700.000036
 24
305.500015
 34
0.0
 50
90.0
100
AcDbRotatedDimension
1001
ACAD
1000
DSTYLE
1002
{
1070
   270
1070
     2
1070
     6
1000
EX_BCIR
1070
     7
1000
EX_NORM
1070
    41
1040
3.0
1070
    42
1040
4.5
1070
    44
1040
3.0
1070
    73
1070
     0
1070
    74
1070
     0
1070
    75
1070
     0
1070
    76
1070
     0
1070
    77
1070
     1
1070
    78
1070
     8
1070
   140
1040
10.38871247113164
1070
   147
1040
0.0
1070
   173
1070
     1
1070
   176
1070
     2
1070
   177
1070
     2
1070
   178
1070
     2
1070
   271
1070
     2
1070
   277
1070
     2
1070
   279
1070
     2
1070
   280
1070
     2
1070
   287
1070
     5
1070
   340
1005
128
1002
}
  0
DIMENSION
  5
45A
330
1F
100
AcDbEntity
  8
Ｓ_１_１
  6
CONTINUOUS
 62
     2
100
AcDbDimension
  2
*D30
 10
799.9999999999999
 20
305.500015
 30
0.0
 11
791.7499999999999
 21
242.7500075
 31
0.0
 70
   160
  3
ISO-25
100
AcDbAlignedDimension
 13
633.000007
 23
180.0
 33
0.0
 14
700.000036
 24
305.500015
 34
0.0
 50
90.0
100
AcDbRotatedDimension
1001
ACAD
1000
DSTYLE
1002
{
1070
   270
1070
     2
1070
     6
1000
EX_NORM
1070
     7
1000
EX_NORM
1070
    41
1040
9.0
1070
    42
1040
9.5
1070
    44
1040
3.0
1070
    73
1070
     0
1070
    74
1070
     0
1070
    75
1070
     0
1070
    76
1070
     0
1070
    77
1070
     1
1070
    78
1070
     8
1070
   140
1040
10.38871247113164
1070
   147
1040
0.0
1070
   173
1070
     1
1070
   176
1070
     2
1070
   177
1070
     2
1070
   178
1070
     2
1070
   271
1070
     2
1070
   277
1070
     2
1070
   279
1070
     2
1070
   280
1070
     0
1070
   287
1070
     5
1070
   340
1005
128
1002
}
  0
ARC
  5
467
330
1F
100
AcDbEntity
  8
Ｓ_１_１
  6
CONTINUOUS
 62
     3
100
AcDbCircle
 10
426.5771119999999
 20
199.9999999999999
 30
0.0
 40
21.939437
100
AcDbArc
 50
166.826524
 51
193.173486
  0
ARC
  5
468
330
1F
100
AcDbEntity
  8
Ｓ_１_１
  6
CONTINUOUS
 62
     3
100
AcDbCircle
 10
395.198328
 20
199.9999999999999
 30
0.0
 40
21.939437
100
AcDbArc
 50
346.8264750000002
 51
13.17346500000001
  0
ARC
  5
469
330
1F
100
AcDbEntity
  8
Ｓ_１_１
  6
CONTINUOUS
 62
     3
100
AcDbCircle
 10
428.270456
 20
190.9067159999999
 30
0.0
 40
5.367246000000002
100
AcDbArc
 50
325.6158610000001
 51
34.38414599999999
  0
ARC
  5
46A
330
1F
100
AcDbEntity
  8
Ｓ_１_１
  6
CONTINUOUS
 62
     3
100
AcDbCircle
 10
413.5755559999999
 20
200.0000099999999
 30
0.0
 40
20.062196
100
AcDbArc
 50
342.4119950000003
 51
17.58787900000001
  0
ARC
  5
46B
330
1F
100
AcDbEntity
  8
Ｓ_１_１
  6
CONTINUOUS
 62
     3
100
AcDbCircle
 10
430.004923
 20
190.9067159999999
 30
0.0
 40
5.367246000000002
100
AcDbArc
 50
145.615795
 51
214.3840790000001
  0
ARC
  5
46C
330
1F
100
AcDbEntity
  8
Ｓ_１_１
  6
CONTINUOUS
 62
     3
100
AcDbCircle
 10
430.004923
 20
209.0932749999999
 30
0.0
 40
5.367246000000002
100
AcDbArc
 50
145.615877
 51
214.3841610000001
  0
ARC
  5
46D
330
1F
100
AcDbEntity
  8
Ｓ_１_１
  6
CONTINUOUS
 62
     3
100
AcDbCircle
 10
444.699937
 20
200.0000099999999
 30
0.0
 40
20.062196
100
AcDbArc
 50
162.412063
 51
197.587947
  0
ARC
  5
46E
330
1F
100
AcDbEntity
  8
Ｓ_１_１
  6
CONTINUOUS
 62
     3
100
AcDbCircle
 10
428.270456
 20
209.0932749999999
 30
0.0
 40
5.367246000000002
100
AcDbArc
 50
325.615779
 51
34.38406400000002
  0
LINE
  5
46F
330
1F
100
AcDbEntity
  8
Ｓ_１_１
  6
CONTINUOUS
 62
     3
100
AcDbLine
 10
417.137796
 20
187.999983
 30
0.0
 11
417.137796
 21
211.9999979999999
 31
0.0
  0
LINE
  5
470
330
1F
100
AcDbEntity
  8
Ｓ_１_１
  6
CONTINUOUS
 62
     3
100
AcDbLine
 10
416.560404
 20
204.9999999999999
 30
0.0
 11
416.560404
 21
213.0000019999999
 31
0.0
  0
LINE
  5
471
330
1F
100
AcDbEntity
  8
Ｓ_１_１
  6
CONTINUOUS
 62
     3
100
AcDbLine
 10
405.215113
 20
204.9999999999999
 30
0.0
 11
405.215113
 21
213.0000019999999
 31
0.0
  0
LINE
  5
472
330
1F
100
AcDbEntity
  8
Ｓ_１_１
  6
CONTINUOUS
 62
     3
100
AcDbLine
 10
416.560404
 20
186.9999979999999
 30
0.0
 11
416.560404
 21
194.9999999999999
 31
0.0
  0
LINE
  5
473
330
1F
100
AcDbEntity
  8
Ｓ_１_１
  6
CONTINUOUS
 62
     3
100
AcDbLine
 10
405.215113
 20
186.9999979999999
 30
0.0
 11
405.215113
 21
194.9999999999999
 31
0.0
  0
LINE
  5
474
330
1F
100
AcDbEntity
  8
Ｓ_１_１
  6
CONTINUOUS
 62
     3
100
AcDbLine
 10
389.060404
 20
186.9999979999999
 30
0.0
 11
389.060404
 21
213.0000019999999
 31
0.0
  0
LINE
  5
475
330
1F
100
AcDbEntity
  8
Ｓ_１_１
  6
CONTINUOUS
 62
     3
100
AcDbLine
 10
389.060353
 20
187.0000439999999
 30
0.0
 11
389.637698
 21
188.0000349999999
 31
0.0
  0
LINE
  5
476
330
1F
100
AcDbEntity
  8
Ｓ_１_１
  6
CONTINUOUS
 62
     3
100
AcDbLine
 10
404.637754
 20
211.9999979999999
 30
0.0
 11
405.215108
 21
213.0000049999999
 31
0.0
  0
LINE
  5
477
330
1F
100
AcDbEntity
  8
Ｓ_１_１
  6
CONTINUOUS
 62
     3
100
AcDbLine
 10
416.560377
 20
187.000029
 30
0.0
 11
417.137722
 21
188.0000199999999
 31
0.0
  0
LINE
  5
478
330
1F
100
AcDbEntity
  8
Ｓ_１_１
  6
CONTINUOUS
 62
     3
100
AcDbLine
 10
389.637756
 20
211.9999729999999
 30
0.0
 11
389.060402
 21
212.9999799999999
 31
0.0
  0
LINE
  5
479
330
1F
100
AcDbEntity
  8
Ｓ_１_１
  6
CONTINUOUS
 62
     3
100
AcDbLine
 10
405.215115
 20
187.0000159999999
 30
0.0
 11
404.63778
 21
187.9999909999999
 31
0.0
  0
LINE
  5
47A
330
1F
100
AcDbEntity
  8
Ｓ_１_１
  6
CONTINUOUS
 62
     3
100
AcDbLine
 10
417.13778
 20
211.9999879999999
 30
0.0
 11
416.5604259999999
 21
212.9999949999999
 31
0.0
  0
LINE
  5
47B
330
1F
100
AcDbEntity
  8
Ｓ_１_１
  6
CONTINUOUS
 62
     3
100
AcDbLine
 10
405.215113
 20
204.9999999999999
 30
0.0
 11
416.560404
 21
204.9999999999999
 31
0.0
  0
LINE
  5
47C
330
1F
100
AcDbEntity
  8
Ｓ_１_１
  6
CONTINUOUS
 62
     3
100
AcDbLine
 10
405.215113
 20
194.9999999999999
 30
0.0
 11
416.560404
 21
194.9999999999999
 31
0.0
  0
LINE
  5
47D
330
1F
100
AcDbEntity
  8
Ｓ_１_１
  6
CONTINUOUS
 62
     3
100
AcDbLine
 10
381.456025
 20
201.7499989999999
 30
0.0
 11
381.637757
 21
201.8549219999999
 31
0.0
  0
LINE
  5
47E
330
1F
100
AcDbEntity
  8
Ｓ_１_１
  6
CONTINUOUS
 62
     3
100
AcDbLine
 10
381.637766
 20
201.7500019999999
 30
0.0
 11
381.637766
 21
215.9999939999999
 31
0.0
  0
LINE
  5
47F
330
1F
100
AcDbEntity
  8
Ｓ_１_１
  6
CONTINUOUS
 62
     3
100
AcDbLine
 10
382.137797
 20
201.7500019999999
 30
0.0
 11
382.137797
 21
215.5000019999999
 31
0.0
  0
LINE
  5
480
330
1F
100
AcDbEntity
  8
Ｓ_１_１
  6
CONTINUOUS
 62
     3
100
AcDbLine
 10
378.637736
 20
198.2499979999999
 30
0.0
 11
378.637736
 21
201.7500019999999
 31
0.0
  0
LINE
  5
481
330
1F
100
AcDbEntity
  8
Ｓ_１_１
  6
CONTINUOUS
 62
     3
100
AcDbLine
 10
378.637736
 20
198.2499979999999
 30
0.0
 11
382.137797
 21
198.2499979999999
 31
0.0
  0
LINE
  5
482
330
1F
100
AcDbEntity
  8
Ｓ_１_１
  6
CONTINUOUS
 62
     3
100
AcDbLine
 10
378.637736
 20
201.7500019999999
 30
0.0
 11
382.137797
 21
201.7500019999999
 31
0.0
  0
LINE
  5
483
330
1F
100
AcDbEntity
  8
Ｓ_１_１
  6
CONTINUOUS
 62
     3
100
AcDbLine
 10
384.637757
 20
184.4999999999999
 30
0.0
 11
385.137774
 21
185.0000169999999
 31
0.0
  0
LINE
  5
484
330
1F
100
AcDbEntity
  8
Ｓ_１_１
  6
CONTINUOUS
 62
     3
100
AcDbLine
 10
383.637777
 20
184.4999999999999
 30
0.0
 11
383.137761
 21
185.0000169999999
 31
0.0
  0
LINE
  5
485
330
1F
100
AcDbEntity
  8
Ｓ_１_１
  6
CONTINUOUS
 62
     3
100
AcDbLine
 10
385.137747
 20
215.0000209999999
 30
0.0
 11
384.637757
 21
215.5000109999999
 31
0.0
  0
LINE
  5
486
330
1F
100
AcDbEntity
  8
Ｓ_１_１
  6
CONTINUOUS
 62
     3
100
AcDbLine
 10
383.137761
 20
214.9999939999999
 30
0.0
 11
383.637777
 21
215.5000109999999
 31
0.0
  0
LINE
  5
487
330
1F
100
AcDbEntity
  8
Ｓ_１_１
  6
CONTINUOUS
 62
     3
100
AcDbLine
 10
385.137751
 20
213.0000019999999
 30
0.0
 11
385.137751
 21
214.9999999999999
 31
0.0
  0
LINE
  5
488
330
1F
100
AcDbEntity
  8
Ｓ_１_１
  6
CONTINUOUS
 62
     3
100
AcDbLine
 10
383.137782
 20
213.0000019999999
 30
0.0
 11
383.137782
 21
214.9999999999999
 31
0.0
  0
LINE
  5
489
330
1F
100
AcDbEntity
  8
Ｓ_１_１
  6
CONTINUOUS
 62
     3
100
AcDbLine
 10
383.137782
 20
184.9999999999999
 30
0.0
 11
383.137782
 21
186.9999979999999
 31
0.0
  0
LINE
  5
48A
330
1F
100
AcDbEntity
  8
Ｓ_１_１
  6
CONTINUOUS
 62
     3
100
AcDbLine
 10
385.137751
 20
184.9999999999999
 30
0.0
 11
385.137751
 21
186.9999979999999
 31
0.0
  0
LINE
  5
48B
330
1F
100
AcDbEntity
  8
Ｓ_１_１
  6
CONTINUOUS
 62
     3
100
AcDbLine
 10
383.637736
 20
184.4999979999999
 30
0.0
 11
384.637797
 21
184.4999979999999
 31
0.0
  0
LINE
  5
48C
330
1F
100
AcDbEntity
  8
Ｓ_１_１
  6
CONTINUOUS
 62
     3
100
AcDbLine
 10
383.637736
 20
215.5000019999999
 30
0.0
 11
384.637797
 21
215.5000019999999
 31
0.0
  0
LINE
  5
48D
330
1F
100
AcDbEntity
  8
Ｓ_１_１
  6
CONTINUOUS
 62
     3
100
AcDbLine
 10
381.637687
 20
198.1450929999999
 30
0.0
 11
381.455988
 21
198.2499969999999
 31
0.0
  0
LINE
  5
48E
330
1F
100
AcDbEntity
  8
Ｓ_１_１
  6
CONTINUOUS
 62
     3
100
AcDbLine
 10
358.137782
 20
183.9999969999999
 30
0.0
 11
358.137782
 21
215.9999939999999
 31
0.0
  0
LINE
  5
48F
330
1F
100
AcDbEntity
  8
Ｓ_１_１
  6
CONTINUOUS
 62
     3
100
AcDbLine
 10
365.637782
 20
183.9999969999999
 30
0.0
 11
365.637782
 21
215.9999939999999
 31
0.0
  0
LINE
  5
490
330
1F
100
AcDbEntity
  8
Ｓ_１_１
  6
CONTINUOUS
 62
     3
100
AcDbLine
 10
381.637766
 20
183.9999969999999
 30
0.0
 11
381.637766
 21
198.2499979999999
 31
0.0
  0
LINE
  5
491
330
1F
100
AcDbEntity
  8
Ｓ_１_１
  6
CONTINUOUS
 62
     3
100
AcDbLine
 10
374.637797
 20
215.9999939999999
 30
0.0
 11
374.637797
 21
183.9999969999999
 31
0.0
  0
LINE
  5
492
330
1F
100
AcDbEntity
  8
Ｓ_１_１
  6
CONTINUOUS
 62
     3
100
AcDbLine
 10
382.137703
 20
215.5000179999999
 30
0.0
 11
381.637713
 21
216.0000079999999
 31
0.0
  0
LINE
  5
493
330
1F
100
AcDbEntity
  8
Ｓ_１_１
  6
CONTINUOUS
 62
     3
100
AcDbLine
 10
381.637759
 20
184.0000109999999
 30
0.0
 11
382.137748
 21
184.5000009999999
 31
0.0
  0
LINE
  5
494
330
1F
100
AcDbEntity
  8
Ｓ_１_１
  6
CONTINUOUS
 62
     3
100
AcDbLine
 10
374.637797
 20
215.9999939999999
 30
0.0
 11
381.637766
 21
215.9999939999999
 31
0.0
  0
LINE
  5
495
330
1F
100
AcDbEntity
  8
Ｓ_１_１
  6
CONTINUOUS
 62
     3
100
AcDbLine
 10
374.637797
 20
183.9999969999999
 30
0.0
 11
381.637766
 21
183.9999969999999
 31
0.0
  0
LINE
  5
496
330
1F
100
AcDbEntity
  8
Ｓ_１_１
  6
CONTINUOUS
 62
     3
100
AcDbLine
 10
365.637709
 20
184.0000109999999
 30
0.0
 11
366.137725
 21
184.500027
 31
0.0
  0
LINE
  5
497
330
1F
100
AcDbEntity
  8
Ｓ_１_１
  6
CONTINUOUS
 62
     3
100
AcDbLine
 10
374.137749
 20
215.5000129999999
 30
0.0
 11
374.637739
 21
216.0000029999999
 31
0.0
  0
LINE
  5
498
330
1F
100
AcDbEntity
  8
Ｓ_１_１
  6
CONTINUOUS
 62
     3
100
AcDbLine
 10
366.137707
 20
215.5000189999999
 30
0.0
 11
365.637717
 21
216.0000089999999
 31
0.0
  0
LINE
  5
499
330
1F
100
AcDbEntity
  8
Ｓ_１_１
  6
CONTINUOUS
 62
     3
100
AcDbLine
 10
374.637747
 20
184.0000169999999
 30
0.0
 11
374.13773
 21
184.5000329999999
 31
0.0
  0
LINE
  5
49A
330
1F
100
AcDbEntity
  8
Ｓ_１_１
  6
CONTINUOUS
 62
     3
100
AcDbLine
 10
366.137736
 20
184.4999979999999
 30
0.0
 11
366.137736
 21
215.5000019999999
 31
0.0
  0
LINE
  5
49B
330
1F
100
AcDbEntity
  8
Ｓ_１_１
  6
CONTINUOUS
 62
     3
100
AcDbLine
 10
374.137766
 20
184.4999979999999
 30
0.0
 11
374.137766
 21
215.5000019999999
 31
0.0
  0
LINE
  5
49C
330
1F
100
AcDbEntity
  8
Ｓ_１_１
  6
CONTINUOUS
 62
     3
100
AcDbLine
 10
366.137736
 20
215.5000019999999
 30
0.0
 11
374.137766
 21
215.5000019999999
 31
0.0
  0
LINE
  5
49D
330
1F
100
AcDbEntity
  8
Ｓ_１_１
  6
CONTINUOUS
 62
     3
100
AcDbLine
 10
366.137736
 20
184.4999979999999
 30
0.0
 11
374.137766
 21
184.4999979999999
 31
0.0
  0
LINE
  5
49E
330
1F
100
AcDbEntity
  8
Ｓ_１_１
  6
CONTINUOUS
 62
     3
100
AcDbLine
 10
355.1377419999999
 20
213.0000349999999
 30
0.0
 11
358.137734
 21
216.0000279999999
 31
0.0
  0
LINE
  5
49F
330
1F
100
AcDbEntity
  8
Ｓ_１_１
  6
CONTINUOUS
 62
     3
100
AcDbLine
 10
355.137715
 20
187.0000029999999
 30
0.0
 11
358.137708
 21
184.0000099999999
 31
0.0
  0
LINE
  5
4A0
330
1F
100
AcDbEntity
  8
Ｓ_１_１
  6
CONTINUOUS
 62
     3
100
AcDbLine
 10
389.637797
 20
188.0000019999999
 30
0.0
 11
404.637796
 21
188.0000019999999
 31
0.0
  0
LINE
  5
4A1
330
1F
100
AcDbEntity
  8
Ｓ_１_１
  6
CONTINUOUS
 62
     3
100
AcDbLine
 10
389.637797
 20
211.9999979999999
 30
0.0
 11
404.637796
 21
211.9999979999999
 31
0.0
  0
LINE
  5
4A2
330
1F
100
AcDbEntity
  8
Ｓ_１_１
  6
CONTINUOUS
 62
     3
100
AcDbLine
 10
355.137751
 20
186.9999979999999
 30
0.0
 11
355.137751
 21
213.0000019999999
 31
0.0
  0
LINE
  5
4A3
330
1F
100
AcDbEntity
  8
Ｓ_１_１
  6
CONTINUOUS
 62
     3
100
AcDbLine
 10
358.137782
 20
215.9999939999999
 30
0.0
 11
365.637782
 21
215.9999939999999
 31
0.0
  0
LINE
  5
4A4
330
1F
100
AcDbEntity
  8
Ｓ_１_１
  6
CONTINUOUS
 62
     3
100
AcDbLine
 10
358.137782
 20
183.9999969999999
 30
0.0
 11
365.637782
 21
183.9999969999999
 31
0.0
  0
LINE
  5
4A5
330
1F
100
AcDbEntity
  8
Ｓ_１_１
  6
CONTINUOUS
 62
     3
100
AcDbLine
 10
405.215113
 20
213.0000019999999
 30
0.0
 11
416.560404
 21
213.0000019999999
 31
0.0
  0
LINE
  5
4A6
330
1F
100
AcDbEntity
  8
Ｓ_１_１
  6
CONTINUOUS
 62
     3
100
AcDbLine
 10
405.215113
 20
186.9999979999999
 30
0.0
 11
416.560404
 21
186.9999979999999
 31
0.0
  0
LINE
  5
4A7
330
1F
100
AcDbEntity
  8
Ｓ_１_１
  6
CONTINUOUS
 62
     3
100
AcDbLine
 10
354.637797
 20
211.9999979999999
 30
0.0
 11
355.137751
 21
211.9999979999999
 31
0.0
  0
LINE
  5
4A8
330
1F
100
AcDbEntity
  8
Ｓ_１_１
  6
CONTINUOUS
 62
     3
100
AcDbLine
 10
354.637797
 20
188.0000019999999
 30
0.0
 11
355.137751
 21
188.0000019999999
 31
0.0
  0
LINE
  5
4A9
330
1F
100
AcDbEntity
  8
Ｓ_１_１
  6
CONTINUOUS
 62
     3
100
AcDbLine
 10
382.137797
 20
186.9999979999999
 30
0.0
 11
389.060404
 21
186.9999979999999
 31
0.0
  0
LINE
  5
4AA
330
1F
100
AcDbEntity
  8
Ｓ_１_１
  6
CONTINUOUS
 62
     3
100
AcDbLine
 10
382.137797
 20
213.0000019999999
 30
0.0
 11
389.060404
 21
213.0000019999999
 31
0.0
  0
LINE
  5
4AB
330
1F
100
AcDbEntity
  8
Ｓ_１_１
  6
CONTINUOUS
 62
     3
100
AcDbLine
 10
382.137797
 20
184.4999979999999
 30
0.0
 11
382.137797
 21
198.2499979999999
 31
0.0
  0
LINE
  5
4AC
330
1F
100
AcDbEntity
  8
Ｓ_１_１
  6
CONTINUOUS
 62
     3
100
AcDbLine
 10
389.637797
 20
188.0000019999999
 30
0.0
 11
389.637797
 21
211.9999979999999
 31
0.0
  0
LINE
  5
4AD
330
1F
100
AcDbEntity
  8
Ｓ_１_１
  6
CONTINUOUS
 62
     3
100
AcDbLine
 10
404.637796
 20
187.9999929999999
 30
0.0
 11
404.637796
 21
211.9999879999999
 31
0.0
  0
LINE
  5
4AE
330
1F
100
AcDbEntity
  8
Ｓ_１_１
  6
CONTINUOUS
 62
     3
100
AcDbLine
 10
354.637797
 20
188.0000019999999
 30
0.0
 11
354.637797
 21
211.9999979999999
 31
0.0
  0
LINE
  5
4AF
330
1F
100
AcDbEntity
  8
Ｓ_１_１
  6
CONTINUOUS
 62
     3
100
AcDbLine
 10
417.1376929999999
 20
192.8201219999999
 30
0.0
 11
423.27539
 21
192.4365159999999
 31
0.0
  0
LINE
  5
4B0
330
1F
100
AcDbEntity
  8
Ｓ_１_１
  6
CONTINUOUS
 62
     3
100
AcDbLine
 10
424.637703
 20
191.6500239999999
 30
0.0
 11
423.27542
 21
192.436538
 31
0.0
  0
LINE
  5
4B1
330
1F
100
AcDbEntity
  8
Ｓ_１_１
  6
CONTINUOUS
 62
     3
100
AcDbLine
 10
417.13766
 20
192.1187609999999
 30
0.0
 11
424.6376739999999
 21
191.6500099999999
 31
0.0
  0
LINE
  5
4B2
330
1F
100
AcDbEntity
  8
Ｓ_１_１
  6
CONTINUOUS
 62
     3
100
AcDbLine
 10
423.2754799999999
 20
207.5634939999999
 30
0.0
 11
424.637763
 21
208.3500079999999
 31
0.0
  0
LINE
  5
4B3
330
1F
100
AcDbEntity
  8
Ｓ_１_１
  6
CONTINUOUS
 62
     3
100
AcDbLine
 10
417.13777
 20
207.8812519999999
 30
0.0
 11
424.637784
 21
208.3500029999999
 31
0.0
  0
LINE
  5
4B4
330
1F
100
AcDbEntity
  8
Ｓ_１_１
  6
CONTINUOUS
 62
     3
100
AcDbLine
 10
417.1376519999999
 20
207.179872
 30
0.0
 11
423.275502
 21
207.5634879999999
 31
0.0
  0
LINE
  5
4B5
330
1F
100
AcDbEntity
  8
Ｓ_１_１
  6
CONTINUOUS
 62
     3
100
AcDbLine
 10
423.275491
 20
191.7351439999999
 30
0.0
 11
423.275491
 21
208.2648559999999
 31
0.0
  0
LINE
  5
4B6
330
1F
100
AcDbEntity
  8
Ｓ_１_１
  6
CONTINUOUS
 62
     3
100
AcDbLine
 10
434.999976
 20
207.5634789999999
 30
0.0
 11
433.6376939999999
 21
208.349993
 31
0.0
  0
LINE
  5
4B7
330
1F
100
AcDbEntity
  8
Ｓ_１_１
  6
CONTINUOUS
 62
     3
100
AcDbLine
 10
439.9999939999999
 20
207.9523529999999
 30
0.0
 11
433.6377440000001
 21
208.349994
 31
0.0
  0
LINE
  5
4B8
330
1F
100
AcDbEntity
  8
Ｓ_１_１
  6
CONTINUOUS
 62
     3
100
AcDbLine
 10
440.000036
 20
207.2509829999999
 30
0.0
 11
435.0000269999999
 21
207.5634829999999
 31
0.0
  0
LINE
  5
4B9
330
1F
100
AcDbEntity
  8
Ｓ_１_１
  6
CONTINUOUS
 62
     3
100
AcDbLine
 10
433.637721
 20
191.650019
 30
0.0
 11
435.000004
 21
192.4365329999999
 31
0.0
  0
LINE
  5
4BA
330
1F
100
AcDbEntity
  8
Ｓ_１_１
  6
CONTINUOUS
 62
     3
100
AcDbLine
 10
434.999963
 20
191.7351439999999
 30
0.0
 11
434.999963
 21
208.2648559999999
 31
0.0
  0
LINE
  5
4BB
330
1F
100
AcDbEntity
  8
Ｓ_１_１
  6
CONTINUOUS
 62
     3
100
AcDbLine
 10
439.9999909999999
 20
192.0476339999999
 30
0.0
 11
433.6377409999999
 21
191.6499929999999
 31
0.0
  0
LINE
  5
4BC
330
1F
100
AcDbEntity
  8
Ｓ_１_１
  6
CONTINUOUS
 62
     3
100
AcDbLine
 10
439.999957
 20
192.7490039999999
 30
0.0
 11
434.999948
 21
192.4365039999999
 31
0.0
  0
LINE
  5
4BD
330
1F
100
AcDbEntity
  8
Ｓ_１_１
  6
CONTINUOUS
 62
     3
100
AcDbLine
 10
433.6377430000001
 20
189.499985
 30
0.0
 11
432.6999219999999
 21
187.8756249999999
 31
0.0
  0
LINE
  5
4BE
330
1F
100
AcDbEntity
  8
Ｓ_１_１
  6
CONTINUOUS
 62
     3
100
AcDbLine
 10
424.6376859999999
 20
189.4999619999999
 30
0.0
 11
425.575507
 21
187.8756019999999
 31
0.0
  0
LINE
  5
4BF
330
1F
100
AcDbEntity
  8
Ｓ_１_１
  6
CONTINUOUS
 62
     3
100
AcDbLine
 10
433.6376809999999
 20
210.4999999999999
 30
0.0
 11
432.69986
 21
212.1243609999999
 31
0.0
  0
LINE
  5
4C0
330
1F
100
AcDbEntity
  8
Ｓ_１_１
  6
CONTINUOUS
 62
     3
100
AcDbLine
 10
424.637738
 20
210.5000059999999
 30
0.0
 11
425.575559
 21
212.1243669999999
 31
0.0
  0
LINE
  5
4C1
330
1F
100
AcDbEntity
  8
Ｓ_１_１
  6
CONTINUOUS
 62
     3
100
AcDbLine
 10
425.575525
 20
212.1243669999999
 30
0.0
 11
432.699854
 21
212.1243669999999
 31
0.0
  0
LINE
  5
4C2
330
1F
100
AcDbEntity
  8
Ｓ_１_１
  6
CONTINUOUS
 62
     3
100
AcDbLine
 10
425.575525
 20
187.8756529999999
 30
0.0
 11
432.699854
 21
187.8756529999999
 31
0.0
  0
LINE
  5
4C3
330
1F
100
AcDbEntity
  8
Ｓ_１_１
  6
CONTINUOUS
 62
     3
100
AcDbLine
 10
425.575525
 20
193.9378359999999
 30
0.0
 11
432.699854
 21
193.9378359999999
 31
0.0
  0
LINE
  5
4C4
330
1F
100
AcDbEntity
  8
Ｓ_１_１
  6
CONTINUOUS
 62
     3
100
AcDbLine
 10
425.575525
 20
206.0621829999999
 30
0.0
 11
432.699854
 21
206.0621829999999
 31
0.0
  0
LINE
  5
4C5
330
1F
100
AcDbEntity
  8
Ｓ_１_１
  6
CONTINUOUS
 62
     3
100
AcDbLine
 10
424.63772
 20
189.4999789999999
 30
0.0
 11
424.63772
 21
210.5000019999999
 31
0.0
  0
LINE
  5
4C6
330
1F
100
AcDbEntity
  8
Ｓ_１_１
  6
CONTINUOUS
 62
     3
100
AcDbLine
 10
433.637659
 20
189.4999889999999
 30
0.0
 11
433.637659
 21
210.5000109999999
 31
0.0
  0
LINE
  5
4C7
330
1F
100
AcDbEntity
  8
Ｓ_１_１
  6
CONTINUOUS
 62
     3
100
AcDbLine
 10
442.000007
 20
180.0000119999999
 30
0.0
 11
440.000021
 21
181.9999969999999
 31
0.0
  0
LINE
  5
4C8
330
1F
100
AcDbEntity
  8
Ｓ_１_１
  6
CONTINUOUS
 62
     3
100
AcDbLine
 10
440.0000010000001
 20
181.9999979999999
 30
0.0
 11
440.0000010000001
 21
213.4999939999999
 31
0.0
  0
LINE
  5
4C9
330
1F
100
AcDbEntity
  8
Ｓ_１_１
  6
CONTINUOUS
 62
     3
100
AcDbLine
 10
640.000004
 20
181.9999969999999
 30
0.0
 11
638.0000050000001
 21
179.9999979999999
 31
0.0
  0
LINE
  5
4CA
330
1F
100
AcDbEntity
  8
Ｓ_１_１
  6
CONTINUOUS
 62
     3
100
AcDbLine
 10
639.9999990000001
 20
181.9999979999999
 30
0.0
 11
639.9999990000001
 21
213.4999939999999
 31
0.0
  0
LINE
  5
4CB
330
1F
100
AcDbEntity
  8
Ｓ_１_１
  6
CONTINUOUS
 62
     3
100
AcDbLine
 10
639.9999990000001
 20
181.9999979999999
 30
0.0
 11
440.0000199999995
 21
181.9999979999999
 31
0.0
  0
LINE
  5
4CC
330
1F
100
AcDbEntity
  8
Ｓ_１_１
  6
CONTINUOUS
 62
     3
100
AcDbLine
 10
637.9999910000001
 20
179.9999999999999
 30
0.0
 11
442.000019000006
 21
179.9999999999999
 31
0.0
  0
DIMENSION
  5
4CD
330
1F
100
AcDbEntity
  8
Ｓ_１_１
  6
CONTINUOUS
 62
     2
100
AcDbDimension
  2
*D31
 10
440.0000199999995
 20
140.0
 30
0.0
 11
540.0000094999998
 21
148.25
 31
0.0
 70
   160
  1
%%c<>(190)
  3
ISO-25
100
AcDbAlignedDimension
 13
639.9999990000001
 23
181.9999979999999
 33
0.0
 14
440.0000199999995
 24
181.9999979999999
 34
0.0
100
AcDbRotatedDimension
1001
ACAD
1000
DSTYLE
1002
{
1070
   270
1070
     2
1070
     6
1000
EX_NORM
1070
     7
1000
EX_NORM
1070
    41
1040
9.0
1070
    42
1040
4.5
1070
    44
1040
3.0
1070
    73
1070
     0
1070
    74
1070
     0
1070
    75
1070
     0
1070
    76
1070
     0
1070
    77
1070
     1
1070
    78
1070
     8
1070
   140
1040
10.38871247113164
1070
   147
1040
0.0
1070
   173
1070
     1
1070
   176
1070
     2
1070
   177
1070
     2
1070
   178
1070
     2
1070
   271
1070
     2
1070
   277
1070
     2
1070
   279
1070
     2
1070
   280
1070
     0
1070
   287
1070
     5
1070
   340
1005
128
1002
}
  0
DIMENSION
  5
4DA
330
1F
100
AcDbEntity
  8
Ｓ_１_１
  6
CONTINUOUS
 62
     2
100
AcDbDimension
  2
*D32
 10
440.000001
 20
140.0
 30
0.0
 11
397.318899
 21
148.25
 31
0.0
 70
   160
  1
(<>)
  3
ISO-25
100
AcDbAlignedDimension
 13
354.637797
 23
188.000002
 33
0.0
 14
440.000001
 24
182.00001699999
 34
0.0
100
AcDbRotatedDimension
1001
ACAD
1000
DSTYLE
1002
{
1070
   270
1070
     2
1070
     6
1000
EX_NORM
1070
     7
1000
EX_NORM
1070
    41
1040
9.0
1070
    42
1040
4.5
1070
    44
1040
3.0
1070
    73
1070
     0
1070
    74
1070
     0
1070
    75
1070
     0
1070
    76
1070
     0
1070
    77
1070
     1
1070
    78
1070
     0
1070
   140
1040
10.38871247113164
1070
   147
1040
0.0
1070
   173
1070
     1
1070
   176
1070
     2
1070
   177
1070
     2
1070
   178
1070
     2
1070
   271
1070
     0
1070
   277
1070
     2
1070
   279
1070
     2
1070
   280
1070
     0
1070
   287
1070
     5
1070
   340
1005
128
1002
}
  0
DIMENSION
  5
4E7
330
1F
100
AcDbEntity
  8
Ｓ_１_１
  6
CONTINUOUS
 62
     2
100
AcDbDimension
  2
*D33
 10
659.99996
 20
340.0
 30
0.0
 11
539.999947
 21
348.25
 31
0.0
 70
   160
  1
%%c<>(230)
  3
ISO-25
100
AcDbAlignedDimension
 13
419.999934
 23
279.499987
 33
0.0
 14
659.99996
 24
280.500034
 34
0.0
100
AcDbRotatedDimension
1001
ACAD
1000
DSTYLE
1002
{
1070
   270
1070
     2
1070
     6
1000
EX_NORM
1070
     7
1000
EX_NORM
1070
    41
1040
9.0
1070
    42
1040
4.5
1070
    44
1040
3.0
1070
    73
1070
     0
1070
    74
1070
     0
1070
    75
1070
     0
1070
    76
1070
     0
1070
    77
1070
     1
1070
    78
1070
     8
1070
   140
1040
10.38871247113164
1070
   147
1040
0.0
1070
   173
1070
     1
1070
   176
1070
     2
1070
   177
1070
     2
1070
   178
1070
     2
1070
   271
1070
     2
1070
   277
1070
     2
1070
   279
1070
     2
1070
   280
1070
     0
1070
   287
1070
     5
1070
   340
1005
128
1002
}
  0
LINE
  5
4F4
330
1F
100
AcDbEntity
  8
Ｓ_１_１
  6
EXLTYPE2
 62
     1
100
AcDbLine
 10
343.900035
 20
199.9999999999999
 30
0.0
 11
455.899965
 21
199.9999999999999
 31
0.0
  0
ENDSEC
  0
SECTION
  2
OBJECTS
  0
DICTIONARY
  5
C
330
0
100
AcDbDictionary
  3
ACAD_GROUP
350
D
  3
ACAD_LAYOUT
350
1A
  3
ACAD_MATERIAL
350
43
  3
ACAD_MLEADERSTYLE
350
6B
  3
ACAD_MLINESTYLE
350
17
  3
ACAD_PLOTSETTINGS
350
19
  3
ACAD_SCALELIST
350
47
  3
ACAD_VISUALSTYLE
350
2A
  3
ACDBHEADERROUNDTRIPXREC
350
4F5
  3
ACDBVARIABLEDICTIONARY
350
516
  0
DICTIONARY
  5
521
330
8
100
AcDbDictionary
280
     1
  3
ACAD_XREC_ROUNDTRIP
360
522
  0
DICTIONARY
  5
D
102
{ACAD_REACTORS
330
C
102
}
330
C
100
AcDbDictionary
  0
DICTIONARY
  5
1A
102
{ACAD_REACTORS
330
C
102
}
330
C
100
AcDbDictionary
  0
DICTIONARY
  5
43
102
{ACAD_REACTORS
330
C
102
}
330
C
100
AcDbDictionary
  3
BYBLOCK
350
45
  3
BYLAYER
350
44
  3
GLOBAL
350
46
  0
DICTIONARY
  5
6B
102
{ACAD_REACTORS
330
C
102
}
330
C
100
AcDbDictionary
  3
STANDARD
350
6C
  0
DICTIONARY
  5
17
102
{ACAD_REACTORS
330
C
102
}
330
C
100
AcDbDictionary
  3
STANDARD
350
18
  0
DICTIONARY
  5
19
102
{ACAD_REACTORS
330
C
102
}
330
C
100
AcDbDictionary
  0
DICTIONARY
  5
47
102
{ACAD_REACTORS
330
C
102
}
330
C
100
AcDbDictionary
  3
A0
350
48
  3
A1
350
49
  3
A2
350
4A
  3
A3
350
4B
  3
A4
350
4C
  3
A5
350
4D
  3
A6
350
4E
  3
A7
350
4F
  3
A8
350
50
  3
A9
350
51
  3
B0
350
52
  3
B1
350
53
  3
B2
350
54
  3
B3
350
55
  3
B4
350
56
  3
B5
350
57
  3
B6
350
58
  3
B7
350
59
  3
B8
350
5A
  3
B9
350
5B
  3
C0
350
5C
  3
C1
350
5D
  3
C2
350
5E
  3
C3
350
5F
  3
C4
350
60
  3
C5
350
61
  3
C6
350
62
  3
C7
350
63
  3
C8
350
64
  3
C9
350
65
  3
D0
350
66
  3
D1
350
67
  3
D2
350
68
  0
DICTIONARY
  5
2A
102
{ACAD_REACTORS
330
C
102
}
330
C
100
AcDbDictionary
  3
2DWIREFRAME
350
2F
  3
BASIC
350
32
  3
BRIGHTEN
350
36
  3
COLORCHANGE
350
3A
  3
CONCEPTUAL
350
34
  3
DIM
350
35
  3
EDGECOLOROFF
350
3D
  3
FACEPATTERN
350
39
  3
FLAT
350
2B
  3
FLATWITHEDGES
350
2C
  3
GOURAUD
350
2D
  3
GOURAUDWITHEDGES
350
2E
  3
HIDDEN
350
31
  3
JITTEROFF
350
3B
  3
LINEPATTERN
350
38
  3
OVERHANGOFF
350
3C
  3
REALISTIC
350
33
  3
SHADED
350
42
  3
SHADED_WITH_EDGES
350
41
  3
SHADES_OF_GRAY
350
3E
  3
SKETCHY
350
3F
  3
THICKEN
350
37
  3
WIREFRAME
350
30
  3
X-RAY
350
40
  0
DICTIONARY
  5
4F5
102
{ACAD_REACTORS
330
C
102
}
330
C
100
AcDbDictionary
  3
CEPSNID
350
4FF
  3
CEPSNTYPE
350
4FE
  3
DIMSTYLEDATA
350
515
  3
FINGERPRINTGUID
350
500
  3
HYPERLINKBASE
350
4F8
  3
INSUNITS
350
4FD
  3
LAYOUTDICT
350
4FA
  3
LWETCUNION
350
4FC
  3
PLOTSETDICT
350
4FB
  3
PSVPSCALE
350
502
  3
PUCSBASE
350
505
  3
PUCSORGBACK
350
50B
  3
PUCSORGBOTTOM
350
507
  3
PUCSORGFRONT
350
50A
  3
PUCSORGLEFT
350
508
  3
PUCSORGRIGHT
350
509
  3
PUCSORGTOP
350
506
  3
PUCSORTHOREF
350
503
  3
PUCSORTHOVIEW
350
504
  3
STYLESHEET
350
4F9
  3
TSTACKALIGN
350
4F6
  3
TSTACKSIZE
350
4F7
  3
UCSBASE
350
50E
  3
UCSORGBACK
350
514
  3
UCSORGBOTTOM
350
510
  3
UCSORGFRONT
350
513
  3
UCSORGLEFT
350
511
  3
UCSORGRIGHT
350
512
  3
UCSORGTOP
350
50F
  3
UCSORTHOREF
350
50C
  3
UCSORTHOVIEW
350
50D
  3
VERSIONGUID
350
501
  0
DICTIONARY
  5
516
102
{ACAD_REACTORS
330
C
102
}
330
C
100
AcDbDictionary
  3
CANNOSCALE
350
523
  3
CENTEREXE
350
51D
  3
CENTERLTYPEFILE
350
51E
  3
CMLEADERSTYLE
350
518
  3
CTABLESTYLE
350
517
  3
DIMASSOC
350
51F
  3
HIDETEXT
350
520
  3
MSLTSCALE
350
524
  3
PSOLHEIGHT
350
51A
  3
PSOLWIDTH
350
519
  0
XRECORD
  5
522
102
{ACAD_REACTORS
330
521
102
}
330
521
100
AcDbXrecord
102
VTR_0.000_0.000_1.000_1.000_VISUALSTYLE
340
2F
102
VTR_0.000_0.000_1.000_1.000_GRIDDISPLAY
 70
     3
102
VTR_0.000_0.000_1.000_1.000_GRIDMAJOR
 70
     5
102
VTR_0.000_0.000_1.000_1.000_DEFAULTLIGHTING
280
     1
102
VTR_0.000_0.000_1.000_1.000_DEFAULTLIGHTINGTYPE
 70
     1
102
VTR_0.000_0.000_1.000_1.000_BRIGHTNESS
141
0.0
102
VTR_0.000_0.000_1.000_1.000_CONTRAST
142
0.0
  0
MATERIAL
  5
45
102
{ACAD_REACTORS
330
43
102
}
102
{ACAD_XDICTIONARY
360
527
102
}
330
43
100
AcDbMaterial
  1
BYBLOCK
  0
MATERIAL
  5
44
102
{ACAD_REACTORS
330
43
102
}
102
{ACAD_XDICTIONARY
360
525
102
}
330
43
100
AcDbMaterial
  1
BYLAYER
  0
MATERIAL
  5
46
102
{ACAD_REACTORS
330
43
102
}
102
{ACAD_XDICTIONARY
360
529
102
}
330
43
100
AcDbMaterial
  1
GLOBAL
  0
ACAD_PROXY_OBJECT
  5
6C
102
{ACAD_REACTORS
330
6B
102
}
330
6B
100
AcDbProxyObject
 90
      499
 91
      505
 93
      610
310
40901902A4063FBFFFFFE0000000000000020400000000000020404214DD185B99185C990000000000000104090141901A00000000000004100000000000000041025764000000000000039000
340
14
340
0
340
11
340
0
 94
        0
1001
ACAD_MLEADERVER
1070
     2
  0
MLINESTYLE
  5
18
102
{ACAD_REACTORS
330
17
102
}
330
17
100
AcDbMlineStyle
  2
Standard
 70
     0
  3

 62
   256
 51
90.0
 52
90.0
 71
     2
 49
0.5
 62
   256
  6
BYLAYER
 49
-0.5
 62
   256
  6
BYLAYER
  0
ACAD_PROXY_OBJECT
  5
48
102
{ACAD_REACTORS
330
47
102
}
330
47
100
AcDbProxyObject
 90
      499
 91
      503
 93
       41
310
903313A31580
  0
ACAD_PROXY_OBJECT
  5
49
102
{ACAD_REACTORS
330
47
102
}
330
47
100
AcDbProxyObject
 90
      499
 91
      503
 93
      105
310
903313A324000000000000004000
  0
ACAD_PROXY_OBJECT
  5
4A
102
{ACAD_REACTORS
330
47
102
}
330
47
100
AcDbProxyObject
 90
      499
 91
      503
 93
      105
310
903313A344000000000000104000
  0
ACAD_PROXY_OBJECT
  5
4B
102
{ACAD_REACTORS
330
47
102
}
330
47
100
AcDbProxyObject
 90
      499
 91
      503
 93
      105
310
903313A354000000000000144000
  0
ACAD_PROXY_OBJECT
  5
4C
102
{ACAD_REACTORS
330
47
102
}
330
47
100
AcDbProxyObject
 90
      499
 91
      503
 93
      105
310
903313A384000000000000204000
  0
ACAD_PROXY_OBJECT
  5
4D
102
{ACAD_REACTORS
330
47
102
}
330
47
100
AcDbProxyObject
 90
      499
 91
      503
 93
      113
310
904313A31304000000000000244000
  0
ACAD_PROXY_OBJECT
  5
4E
102
{ACAD_REACTORS
330
47
102
}
330
47
100
AcDbProxyObject
 90
      499
 91
      503
 93
      113
310
904313A31364000000000000304000
  0
ACAD_PROXY_OBJECT
  5
4F
102
{ACAD_REACTORS
330
47
102
}
330
47
100
AcDbProxyObject
 90
      499
 91
      503
 93
      113
310
904313A32304000000000000344000
  0
ACAD_PROXY_OBJECT
  5
50
102
{ACAD_REACTORS
330
47
102
}
330
47
100
AcDbProxyObject
 90
      499
 91
      503
 93
      113
310
904313A333040000000000003E4000
  0
ACAD_PROXY_OBJECT
  5
51
102
{ACAD_REACTORS
330
47
102
}
330
47
100
AcDbProxyObject
 90
      499
 91
      503
 93
      113
310
904313A34304000000000000444000
  0
ACAD_PROXY_OBJECT
  5
52
102
{ACAD_REACTORS
330
47
102
}
330
47
100
AcDbProxyObject
 90
      499
 91
      503
 93
      113
310
904313A35304000000000000494000
  0
ACAD_PROXY_OBJECT
  5
53
102
{ACAD_REACTORS
330
47
102
}
330
47
100
AcDbProxyObject
 90
      499
 91
      503
 93
      121
310
905313A3130304000000000000594000
  0
ACAD_PROXY_OBJECT
  5
54
102
{ACAD_REACTORS
330
47
102
}
330
47
100
AcDbProxyObject
 90
      499
 91
      503
 93
      105
310
903323A310000000000000010100
  0
ACAD_PROXY_OBJECT
  5
55
102
{ACAD_REACTORS
330
47
102
}
330
47
100
AcDbProxyObject
 90
      499
 91
      503
 93
      105
310
903343A310000000000000410100
  0
ACAD_PROXY_OBJECT
  5
56
102
{ACAD_REACTORS
330
47
102
}
330
47
100
AcDbProxyObject
 90
      499
 91
      503
 93
      105
310
903383A310000000000000810100
  0
ACAD_PROXY_OBJECT
  5
57
102
{ACAD_REACTORS
330
47
102
}
330
47
100
AcDbProxyObject
 90
      499
 91
      503
 93
      113
310
90431303A310000000000000910100
  0
ACAD_PROXY_OBJECT
  5
58
102
{ACAD_REACTORS
330
47
102
}
330
47
100
AcDbProxyObject
 90
      499
 91
      503
 93
      121
310
9053130303A310000000000001650100
  0
ACAD_PROXY_OBJECT
  5
59
102
{ACAD_REACTORS
330
47
102
}
330
47
100
AcDbProxyObject
 90
      499
 91
      503
 93
      257
310
90E312F31323822203D2031272D3022000000000000200FC000000000000284000
  0
ACAD_PROXY_OBJECT
  5
5A
102
{ACAD_REACTORS
330
47
102
}
330
47
100
AcDbProxyObject
 90
      499
 91
      503
 93
      249
310
90D312F363422203D2031272D3022000000000000240FC000000000000284000
  0
ACAD_PROXY_OBJECT
  5
5B
102
{ACAD_REACTORS
330
47
102
}
330
47
100
AcDbProxyObject
 90
      499
 91
      503
 93
      249
310
90D312F333222203D2031272D3022000000000000280FC000000000000284000
  0
ACAD_PROXY_OBJECT
  5
5C
102
{ACAD_REACTORS
330
47
102
}
330
47
100
AcDbProxyObject
 90
      499
 91
      503
 93
      249
310
90D312F313622203D2031272D30220000000000002C0FC000000000000284000
  0
ACAD_PROXY_OBJECT
  5
5D
102
{ACAD_REACTORS
330
47
102
}
330
47
100
AcDbProxyObject
 90
      499
 91
      503
 93
      249
310
90D332F333222203D2031272D30220000000000002E0FC000000000000284000
  0
ACAD_PROXY_OBJECT
  5
5E
102
{ACAD_REACTORS
330
47
102
}
330
47
100
AcDbProxyObject
 90
      499
 91
      503
 93
      241
310
90C312F3822203D2031272D3022000000000000300FC000000000000284000
  0
ACAD_PROXY_OBJECT
  5
5F
102
{ACAD_REACTORS
330
47
102
}
330
47
100
AcDbProxyObject
 90
      499
 91
      503
 93
      249
310
90D332F313622203D2031272D3022000000000000320FC000000000000284000
  0
ACAD_PROXY_OBJECT
  5
60
102
{ACAD_REACTORS
330
47
102
}
330
47
100
AcDbProxyObject
 90
      499
 91
      503
 93
      241
310
90C312F3422203D2031272D3022000000000000340FC000000000000284000
  0
ACAD_PROXY_OBJECT
  5
61
102
{ACAD_REACTORS
330
47
102
}
330
47
100
AcDbProxyObject
 90
      499
 91
      503
 93
      241
310
90C332F3822203D2031272D3022000000000000360FC000000000000284000
  0
ACAD_PROXY_OBJECT
  5
62
102
{ACAD_REACTORS
330
47
102
}
330
47
100
AcDbProxyObject
 90
      499
 91
      503
 93
      241
310
90C312F3222203D2031272D3022000000000000380FC000000000000284000
  0
ACAD_PROXY_OBJECT
  5
63
102
{ACAD_REACTORS
330
47
102
}
330
47
100
AcDbProxyObject
 90
      499
 91
      503
 93
      241
310
90C332F3422203D2031272D30220000000000003A0FC000000000000284000
  0
ACAD_PROXY_OBJECT
  5
64
102
{ACAD_REACTORS
330
47
102
}
330
47
100
AcDbProxyObject
 90
      499
 91
      503
 93
      161
310
90A3122203D2031272D30224000000000000284000
  0
ACAD_PROXY_OBJECT
  5
65
102
{ACAD_REACTORS
330
47
102
}
330
47
100
AcDbProxyObject
 90
      499
 91
      503
 93
      257
310
90E312D312F3222203D2031272D30220000000000003E0FC000000000000284000
  0
ACAD_PROXY_OBJECT
  5
66
102
{ACAD_REACTORS
330
47
102
}
330
47
100
AcDbProxyObject
 90
      499
 91
      503
 93
      225
310
90A3322203D2031272D302200000000000002100000000000000284000
  0
ACAD_PROXY_OBJECT
  5
67
102
{ACAD_REACTORS
330
47
102
}
330
47
100
AcDbProxyObject
 90
      499
 91
      503
 93
      225
310
90A3622203D2031272D302200000000000006100000000000000284000
  0
ACAD_PROXY_OBJECT
  5
68
102
{ACAD_REACTORS
330
47
102
}
330
47
100
AcDbProxyObject
 90
      499
 91
      503
 93
      249
310
90D31272D3022203D2031272D30220000000000000A100000000000000284000
  0
ACAD_PROXY_OBJECT
  5
2F
102
{ACAD_REACTORS
330
2A
102
}
330
2A
100
AcDbProxyObject
 90
      499
 91
      501
 93
      436
310
42CC9915DA5C99599C985B595049028333333333333E33F0000000000000F90107901411070040501600405405064090741402480A0340
1001
ACAD
1000
AcDbSavedByObjectVersion
1070
     0
  0
ACAD_PROXY_OBJECT
  5
32
102
{ACAD_REACTORS
330
2A
102
}
330
2A
100
AcDbProxyObject
 90
      499
 91
      501
 93
      388
310
4150985CDA58D07406404333333333333E33F0000000000000F90107A41107004050150841D405064090741402480A0350
1001
ACAD
1000
AcDbSavedByObjectVersion
1070
     0
  0
ACAD_PROXY_OBJECT
  5
36
102
{ACAD_REACTORS
330
2A
102
}
330
2A
100
AcDbProxyObject
 90
      499
 91
      501
 93
      428
310
42109C9A59DA1D195B90C409028333333333333E33F0000000000000F9010790141107004050150841D405064090741402480A029950
1001
ACAD
1000
AcDbSavedByObjectVersion
1070
     0
  0
ACAD_PROXY_OBJECT
  5
3A
102
{ACAD_REACTORS
330
2A
102
}
330
2A
100
AcDbProxyObject
 90
      499
 91
      501
 93
      452
310
42D0DBDB1BDC90DA185B99D95104090240C333333333333E33F0000000000000F90108901411070040501508421405064090741402480A0350
1001
ACAD
1000
AcDbSavedByObjectVersion
1070
     0
  0
ACAD_PROXY_OBJECT
  5
34
102
{ACAD_REACTORS
330
2A
102
}
330
2A
100
AcDbProxyObject
 90
      499
 91
      501
 93
      500
310
4290DBDB98D95C1D1D585B10940D028333333333333E33F0000000000000F90107902409070040501000000000018199010841D405064090740C02480A0340
1001
ACAD
1000
AcDbSavedByObjectVersion
1070
     0
  0
ACAD_PROXY_OBJECT
  5
35
102
{ACAD_REACTORS
330
2A
102
}
330
2A
100
AcDbProxyObject
 90
      499
 91
      501
 93
      412
310
40D11A5B50B409028333333333333E33F0000000000000F9010790141107004050150841D405064090741402480A02677FFFFFD0
1001
ACAD
1000
AcDbSavedByObjectVersion
1070
     0
  0
ACAD_PROXY_OBJECT
  5
3D
102
{ACAD_REACTORS
330
2A
102
}
330
2A
100
AcDbProxyObject
 90
      499
 91
      501
 93
      452
310
43115919D950DBDB1BDC93D999916409028333333333333E33F0000000000000F9010790141107004050150841D405064090741402480A0350
1001
ACAD
1000
AcDbSavedByObjectVersion
1070
     0
  0
ACAD_PROXY_OBJECT
  5
39
102
{ACAD_REACTORS
330
2A
102
}
330
2A
100
AcDbProxyObject
 90
      499
 91
      501
 93
      444
310
42D19858D95C185D1D195C9B90F409028333333333333E33F0000000000000F9010790141107004050150841D405064090741402480A0350
1001
ACAD
1000
AcDbSavedByObjectVersion
1070
     0
  0
ACAD_PROXY_OBJECT
  5
2B
102
{ACAD_REACTORS
330
2A
102
}
330
2A
100
AcDbProxyObject
 90
      499
 91
      501
 93
      380
310
41119B185D240901404333333333333E33F0000000000000F9010740A907004050150841D405064090741402480A1B50
1001
ACAD
1000
AcDbSavedByObjectVersion
1070
     0
  0
ACAD_PROXY_OBJECT
  5
2C
102
{ACAD_REACTORS
330
2A
102
}
330
2A
100
AcDbProxyObject
 90
      499
 91
      501
 93
      468
310
43519B185D15DA5D1A115919D95CD0140901404333333333333E33F0000000000000F90107409019070040501600405405064090741402480A1B50
1001
ACAD
1000
AcDbSavedByObjectVersion
1070
     0
  0
ACAD_PROXY_OBJECT
  5
2D
102
{ACAD_REACTORS
330
2A
102
}
330
2A
100
AcDbProxyObject
 90
      499
 91
      501
 93
      404
310
41D1DBDD5C985D5910240902404333333333333E33F0000000000000F9010740A9070040501641D405064090741402480A1B50
1001
ACAD
1000
AcDbSavedByObjectVersion
1070
     0
  0
ACAD_PROXY_OBJECT
  5
2E
102
{ACAD_REACTORS
330
2A
102
}
330
2A
100
AcDbProxyObject
 90
      499
 91
      501
 93
      492
310
4411DBDD5C985D5915DA5D1A115919D95CD0340902404333333333333E33F0000000000000F90107409019070040501600405405064090741402480A1B50
1001
ACAD
1000
AcDbSavedByObjectVersion
1070
     0
  0
ACAD_PROXY_OBJECT
  5
31
102
{ACAD_REACTORS
330
2A
102
}
330
2A
100
AcDbProxyObject
 90
      499
 91
      501
 93
      476
310
41921A5919195B90640502408333333333333E33F0000000000000F901079024090700405020000000000001110200405405064090740C02480A0340
1001
ACAD
1000
AcDbSavedByObjectVersion
1070
     0
  0
ACAD_PROXY_OBJECT
  5
3B
102
{ACAD_REACTORS
330
2A
102
}
330
2A
100
AcDbProxyObject
 90
      499
 91
      501
 93
      428
310
42529A5D1D195C93D999914409028333333333333E33F0000000000000F9010790141107004050150A41D405064090741402480A0350
1001
ACAD
1000
AcDbSavedByObjectVersion
1070
     0
  0
ACAD_PROXY_OBJECT
  5
38
102
{ACAD_REACTORS
330
2A
102
}
330
2A
100
AcDbProxyObject
 90
      499
 91
      501
 93
      444
310
42D31A5B995C185D1D195C9B90E409028333333333333E33F0000000000000F9010790141107004050750841D405064090741402483A0350
1001
ACAD
1000
AcDbSavedByObjectVersion
1070
     0
  0
ACAD_PROXY_OBJECT
  5
3C
102
{ACAD_REACTORS
330
2A
102
}
330
2A
100
AcDbProxyObject
 90
      499
 91
      501
 93
      444
310
42D3DD995C9A185B99D3D999915409028333333333333E33F0000000000000F9010790141107004050150941D405064090741402480A0350
1001
ACAD
1000
AcDbSavedByObjectVersion
1070
     0
  0
ACAD_PROXY_OBJECT
  5
33
102
{ACAD_REACTORS
330
2A
102
}
330
2A
100
AcDbProxyObject
 90
      499
 91
      501
 93
      428
310
425499585B1A5CDD1A58D08409038333333333333E33F0000000000000F9010740A907004050150800405405064090740C02480A1B40
1001
ACAD
1000
AcDbSavedByObjectVersion
1070
     0
  0
ACAD_PROXY_OBJECT
  5
42
102
{ACAD_REACTORS
330
2A
102
}
330
2A
100
AcDbProxyObject
 90
      499
 91
      501
 93
      420
310
4194DA1859195911B40902404333333333333E33F0000000000000F9010740A41107004050150800405405064090840C02480A0B40
1001
ACAD
1000
AcDbSavedByObjectVersion
1070
     0
  0
ACAD_PROXY_OBJECT
  5
41
102
{ACAD_REACTORS
330
2A
102
}
330
2A
100
AcDbProxyObject
 90
      499
 91
      501
 93
      516
310
4454DA18591959081DDA5D1A08195919D95CD1A40902404333333333333E33F0000000000000F901074090142907004050250800405405064090740C02480A0B40
1001
ACAD
1000
AcDbSavedByObjectVersion
1070
     0
  0
ACAD_PROXY_OBJECT
  5
3E
102
{ACAD_REACTORS
330
2A
102
}
330
2A
100
AcDbProxyObject
 90
      499
 91
      501
 93
      532
310
4394DA1859195CC81BD98811DC985E5174090240C333333333333E33F0000000000000F901079024090741D01000000000000111010841D405064090740C02480A0340
1001
ACAD
1000
AcDbSavedByObjectVersion
1070
     0
  0
ACAD_PROXY_OBJECT
  5
3F
102
{ACAD_REACTORS
330
2A
102
}
330
2A
100
AcDbProxyObject
 90
      499
 91
      501
 93
      476
310
41D4DAD95D18DA1E51840502408333333333333E33F0000000000000F901079024090741D01000000000000111010B41D405064090741802480A0340
1001
ACAD
1000
AcDbSavedByObjectVersion
1070
     0
  0
ACAD_PROXY_OBJECT
  5
37
102
{ACAD_REACTORS
330
2A
102
}
330
2A
100
AcDbProxyObject
 90
      499
 91
      501
 93
      412
310
41D51A1A58DAD95B90D409028333333333333E33F0000000000000F9010790141107004050150C41D405064090741402480A0350
1001
ACAD
1000
AcDbSavedByObjectVersion
1070
     0
  0
ACAD_PROXY_OBJECT
  5
30
102
{ACAD_REACTORS
330
2A
102
}
330
2A
100
AcDbProxyObject
 90
      499
 91
      501
 93
      420
310
4255DA5C99599C985B595059028333333333333E33F0000000000000F90107901411070040501600405405064090740C02480A0340
1001
ACAD
1000
AcDbSavedByObjectVersion
1070
     0
  0
ACAD_PROXY_OBJECT
  5
40
102
{ACAD_REACTORS
330
2A
102
}
330
2A
100
AcDbProxyObject
 90
      499
 91
      501
 93
      404
310
41560B54985E51940902404000000000000E03F0000000000000F9010740501907004050150841D405064090740C02480A1B40
1001
ACAD
1000
AcDbSavedByObjectVersion
1070
     0
  0
XRECORD
  5
4FF
102
{ACAD_REACTORS
330
4F5
102
}
330
4F5
100
AcDbXrecord
340
0
  0
XRECORD
  5
4FE
102
{ACAD_REACTORS
330
4F5
102
}
330
4F5
100
AcDbXrecord
 90
        0
  0
XRECORD
  5
515
102
{ACAD_REACTORS
330
4F5
102
}
330
4F5
100
AcDbXrecord
1000
DSTYLE
1002
{
1070
   340
340
11
1002
}
  0
XRECORD
  5
500
102
{ACAD_REACTORS
330
4F5
102
}
330
4F5
100
AcDbXrecord
  1
{7fc913a5-da4e-40af-b254-05b08ea58ab4}
  0
XRECORD
  5
4F8
102
{ACAD_REACTORS
330
4F5
102
}
330
4F5
100
AcDbXrecord
  1

  0
XRECORD
  5
4FD
102
{ACAD_REACTORS
330
4F5
102
}
330
4F5
100
AcDbXrecord
 90
        4
  0
XRECORD
  5
4FA
102
{ACAD_REACTORS
330
4F5
102
}
330
4F5
100
AcDbXrecord
340
1A
  0
XRECORD
  5
4FC
102
{ACAD_REACTORS
330
4F5
102
}
330
4F5
100
AcDbXrecord
 90
    10781
  0
XRECORD
  5
4FB
102
{ACAD_REACTORS
330
4F5
102
}
330
4F5
100
AcDbXrecord
340
19
  0
XRECORD
  5
502
102
{ACAD_REACTORS
330
4F5
102
}
330
4F5
100
AcDbXrecord
 40
0.0
  0
XRECORD
  5
505
102
{ACAD_REACTORS
330
4F5
102
}
330
4F5
100
AcDbXrecord
340
0
  0
XRECORD
  5
50B
102
{ACAD_REACTORS
330
4F5
102
}
330
4F5
100
AcDbXrecord
 10
0.0
 20
0.0
 30
0.0
  0
XRECORD
  5
507
102
{ACAD_REACTORS
330
4F5
102
}
330
4F5
100
AcDbXrecord
 10
0.0
 20
0.0
 30
0.0
  0
XRECORD
  5
50A
102
{ACAD_REACTORS
330
4F5
102
}
330
4F5
100
AcDbXrecord
 10
0.0
 20
0.0
 30
0.0
  0
XRECORD
  5
508
102
{ACAD_REACTORS
330
4F5
102
}
330
4F5
100
AcDbXrecord
 10
0.0
 20
0.0
 30
0.0
  0
XRECORD
  5
509
102
{ACAD_REACTORS
330
4F5
102
}
330
4F5
100
AcDbXrecord
 10
0.0
 20
0.0
 30
0.0
  0
XRECORD
  5
506
102
{ACAD_REACTORS
330
4F5
102
}
330
4F5
100
AcDbXrecord
 10
0.0
 20
0.0
 30
0.0
  0
XRECORD
  5
503
102
{ACAD_REACTORS
330
4F5
102
}
330
4F5
100
AcDbXrecord
340
0
  0
XRECORD
  5
504
102
{ACAD_REACTORS
330
4F5
102
}
330
4F5
100
AcDbXrecord
 70
     0
  0
XRECORD
  5
4F9
102
{ACAD_REACTORS
330
4F5
102
}
330
4F5
100
AcDbXrecord
  1

  0
XRECORD
  5
4F6
102
{ACAD_REACTORS
330
4F5
102
}
330
4F5
100
AcDbXrecord
 90
        1
  0
XRECORD
  5
4F7
102
{ACAD_REACTORS
330
4F5
102
}
330
4F5
100
AcDbXrecord
 90
       70
  0
XRECORD
  5
50E
102
{ACAD_REACTORS
330
4F5
102
}
330
4F5
100
AcDbXrecord
340
0
  0
XRECORD
  5
514
102
{ACAD_REACTORS
330
4F5
102
}
330
4F5
100
AcDbXrecord
 10
0.0
 20
0.0
 30
0.0
  0
XRECORD
  5
510
102
{ACAD_REACTORS
330
4F5
102
}
330
4F5
100
AcDbXrecord
 10
0.0
 20
0.0
 30
0.0
  0
XRECORD
  5
513
102
{ACAD_REACTORS
330
4F5
102
}
330
4F5
100
AcDbXrecord
 10
0.0
 20
0.0
 30
0.0
  0
XRECORD
  5
511
102
{ACAD_REACTORS
330
4F5
102
}
330
4F5
100
AcDbXrecord
 10
0.0
 20
0.0
 30
0.0
  0
XRECORD
  5
512
102
{ACAD_REACTORS
330
4F5
102
}
330
4F5
100
AcDbXrecord
 10
0.0
 20
0.0
 30
0.0
  0
XRECORD
  5
50F
102
{ACAD_REACTORS
330
4F5
102
}
330
4F5
100
AcDbXrecord
 10
0.0
 20
0.0
 30
0.0
  0
XRECORD
  5
50C
102
{ACAD_REACTORS
330
4F5
102
}
330
4F5
100
AcDbXrecord
340
0
  0
XRECORD
  5
50D
102
{ACAD_REACTORS
330
4F5
102
}
330
4F5
100
AcDbXrecord
 70
     0
  0
XRECORD
  5
501
102
{ACAD_REACTORS
330
4F5
102
}
330
4F5
100
AcDbXrecord
  1
{FAEB1C32-E019-11D5-929B-00C0DF256EC4}
  0
DICTIONARYVAR
  5
523
102
{ACAD_REACTORS
330
516
102
}
330
516
100
DictionaryVariables
280
     0
  1
1:1
  0
DICTIONARYVAR
  5
51D
102
{ACAD_REACTORS
330
516
102
}
330
516
100
DictionaryVariables
280
     0
  1
3.500000
  0
DICTIONARYVAR
  5
51E
102
{ACAD_REACTORS
330
516
102
}
330
516
100
DictionaryVariables
280
     0
  1
acadiso.lin
  0
DICTIONARYVAR
  5
518
102
{ACAD_REACTORS
330
516
102
}
330
516
100
DictionaryVariables
280
     0
  1
Standard
  0
DICTIONARYVAR
  5
517
102
{ACAD_REACTORS
330
516
102
}
330
516
100
DictionaryVariables
280
     0
  1
Standard
  0
DICTIONARYVAR
  5
51F
102
{ACAD_REACTORS
330
516
102
}
330
516
100
DictionaryVariables
280
     0
  1
2
  0
DICTIONARYVAR
  5
520
102
{ACAD_REACTORS
330
516
102
}
330
516
100
DictionaryVariables
280
     0
  1
1
  0
DICTIONARYVAR
  5
524
102
{ACAD_REACTORS
330
516
102
}
330
516
100
DictionaryVariables
280
     0
  1
1
  0
DICTIONARYVAR
  5
51A
102
{ACAD_REACTORS
330
516
102
}
330
516
100
DictionaryVariables
280
     0
  1
80.000000
  0
DICTIONARYVAR
  5
519
102
{ACAD_REACTORS
330
516
102
}
330
516
100
DictionaryVariables
280
     0
  1
5.000000
  0
DICTIONARY
  5
527
330
45
100
AcDbDictionary
280
     1
  3
ACAD_XREC_ROUNDTRIP
360
528
  0
DICTIONARY
  5
525
330
44
100
AcDbDictionary
280
     1
  3
ACAD_XREC_ROUNDTRIP
360
526
  0
DICTIONARY
  5
529
330
46
100
AcDbDictionary
280
     1
  3
ACAD_XREC_ROUNDTRIP
360
52A
  0
XRECORD
  5
528
102
{ACAD_REACTORS
330
527
102
}
330
527
100
AcDbXrecord
102
MATERIAL
148
0.0
149
0.0
149
0.0
 93
        0
 94
      127
282
     0
 72
     1
 77
     1
171
     1
175
     1
179
     1
273
     0
  0
XRECORD
  5
526
102
{ACAD_REACTORS
330
525
102
}
330
525
100
AcDbXrecord
102
MATERIAL
148
0.0
149
0.0
149
0.0
 93
        0
 94
      127
282
     0
 72
     1
 77
     1
171
     1
175
     1
179
     1
273
     0
  0
XRECORD
  5
52A
102
{ACAD_REACTORS
330
529
102
}
330
529
100
AcDbXrecord
102
MATERIAL
148
0.0
149
0.0
149
0.0
 93
        0
 94
      127
282
     0
 72
     1
 77
     1
171
     1
175
     1
179
     1
273
     0
  0
ENDSEC
  0
EOF
