  0
SECTION
  2
HEADER
  9
$ACADVER
  1
AC1014
  9
$ACADMAINTVER
 70
     9
  9
$DWGCODEPAGE
  3
ANSI_932
  9
$INSBASE
 10
0.0
 20
0.0
 30
0.0
  9
$EXTMIN
 10
40.0
 20
40.0
 30
0.0
  9
$EXTMAX
 10
1640.0
 20
1148.0
 30
0.0
  9
$LIMMIN
 10
0.0
 20
0.0
  9
$LIMMAX
 10
420.0
 20
297.0
  9
$ORTHOMODE
 70
     0
  9
$REGENMODE
 70
     1
  9
$FILLMODE
 70
     1
  9
$QTEXTMODE
 70
     0
  9
$MIRRTEXT
 70
     1
  9
$DRAGMODE
 70
     2
  9
$LTSCALE
 40
1.0
  9
$OSMODE
 70
    37
  9
$ATTMODE
 70
     1
  9
$TEXTSIZE
 40
2.5
  9
$TRACEWID
 40
1.0
  9
$TEXTSTYLE
  7
STANDARD
  9
$CLAYER
  8
Ｓ_１_１
  9
$CELTYPE
  6
BYLAYER
  9
$CECOLOR
 62
   256
  9
$CELTSCALE
 40
1.0
  9
$DELOBJ
 70
     1
  9
$DISPSILH
 70
     0
  9
$DIMSCALE
 40
1.0
  9
$DIMASZ
 40
2.5
  9
$DIMEXO
 40
0.625
  9
$DIMDLI
 40
3.75
  9
$DIMRND
 40
0.0
  9
$DIMDLE
 40
0.0
  9
$DIMEXE
 40
1.25
  9
$DIMTP
 40
0.0
  9
$DIMTM
 40
0.0
  9
$DIMTXT
 40
2.5
  9
$DIMCEN
 40
2.5
  9
$DIMTSZ
 40
0.0
  9
$DIMTOL
 70
     0
  9
$DIMLIM
 70
     0
  9
$DIMTIH
 70
     0
  9
$DIMTOH
 70
     0
  9
$DIMSE1
 70
     0
  9
$DIMSE2
 70
     0
  9
$DIMTAD
 70
     1
  9
$DIMZIN
 70
     8
  9
$DIMBLK
  1

  9
$DIMASO
 70
     1
  9
$DIMSHO
 70
     1
  9
$DIMPOST
  1

  9
$DIMAPOST
  1

  9
$DIMALT
 70
     0
  9
$DIMALTD
 70
     3
  9
$DIMALTF
 40
0.03937007874016
  9
$DIMLFAC
 40
1.0
  9
$DIMTOFL
 70
     1
  9
$DIMTVP
 40
0.0
  9
$DIMTIX
 70
     0
  9
$DIMSOXD
 70
     0
  9
$DIMSAH
 70
     0
  9
$DIMBLK1
  1

  9
$DIMBLK2
  1

  9
$DIMSTYLE
  2
ISO-25
  9
$DIMCLRD
 70
     0
  9
$DIMCLRE
 70
     0
  9
$DIMCLRT
 70
     0
  9
$DIMTFAC
 40
1.0
  9
$DIMGAP
 40
0.625
  9
$DIMJUST
 70
     0
  9
$DIMSD1
 70
     0
  9
$DIMSD2
 70
     0
  9
$DIMTOLJ
 70
     0
  9
$DIMTZIN
 70
     8
  9
$DIMALTZ
 70
     0
  9
$DIMALTTZ
 70
     0
  9
$DIMFIT
 70
     3
  9
$DIMUPT
 70
     0
  9
$DIMUNIT
 70
     2
  9
$DIMDEC
 70
     2
  9
$DIMTDEC
 70
     2
  9
$DIMALTU
 70
     2
  9
$DIMALTTD
 70
     3
  9
$DIMTXSTY
  7
STANDARD
  9
$DIMAUNIT
 70
     0
  9
$LUNITS
 70
     2
  9
$LUPREC
 70
     4
  9
$SKETCHINC
 40
1.0
  9
$FILLETRAD
 40
10.0
  9
$AUNITS
 70
     0
  9
$AUPREC
 70
     0
  9
$MENU
  1
.
  9
$ELEVATION
 40
0.0
  9
$PELEVATION
 40
0.0
  9
$THICKNESS
 40
0.0
  9
$LIMCHECK
 70
     0
  9
$CHAMFERA
 40
0.0
  9
$CHAMFERB
 40
0.0
  9
$CHAMFERC
 40
0.0
  9
$CHAMFERD
 40
0.0
  9
$SKPOLY
 70
     0
  9
$TDCREATE
 40
2459585.497345498
  9
$TDUPDATE
 40
2459585.497346354
  9
$TDINDWG
 40
0.0000000116
  9
$TDUSRTIMER
 40
0.0000000116
  9
$USRTIMER
 70
     1
  9
$ANGBASE
 50
0.0
  9
$ANGDIR
 70
     0
  9
$PDMODE
 70
     0
  9
$PDSIZE
 40
0.0
  9
$PLINEWID
 40
0.0
  9
$COORDS
 70
     1
  9
$SPLFRAME
 70
     0
  9
$SPLINETYPE
 70
     6
  9
$SPLINESEGS
 70
     8
  9
$ATTDIA
 70
     0
  9
$ATTREQ
 70
     1
  9
$HANDLING
 70
     1
  9
$HANDSEED
  5
670
  9
$SURFTAB1
 70
     6
  9
$SURFTAB2
 70
     6
  9
$SURFTYPE
 70
     6
  9
$SURFU
 70
     6
  9
$SURFV
 70
     6
  9
$UCSNAME
  2

  9
$UCSORG
 10
0.0
 20
0.0
 30
0.0
  9
$UCSXDIR
 10
1.0
 20
0.0
 30
0.0
  9
$UCSYDIR
 10
0.0
 20
1.0
 30
0.0
  9
$PUCSNAME
  2

  9
$PUCSORG
 10
0.0
 20
0.0
 30
0.0
  9
$PUCSXDIR
 10
1.0
 20
0.0
 30
0.0
  9
$PUCSYDIR
 10
0.0
 20
1.0
 30
0.0
  9
$USERI1
 70
     0
  9
$USERI2
 70
     0
  9
$USERI3
 70
     0
  9
$USERI4
 70
     0
  9
$USERI5
 70
     0
  9
$USERR1
 40
0.0
  9
$USERR2
 40
0.0
  9
$USERR3
 40
0.0
  9
$USERR4
 40
0.0
  9
$USERR5
 40
0.0
  9
$WORLDVIEW
 70
     1
  9
$SHADEDGE
 70
     3
  9
$SHADEDIF
 70
    70
  9
$TILEMODE
 70
     1
  9
$MAXACTVP
 70
    64
  9
$PINSBASE
 10
0.0
 20
0.0
 30
0.0
  9
$PLIMCHECK
 70
     0
  9
$PEXTMIN
 10
1.000000000000000E+20
 20
1.000000000000000E+20
 30
1.000000000000000E+20
  9
$PEXTMAX
 10
-1.000000000000000E+20
 20
-1.000000000000000E+20
 30
-1.000000000000000E+20
  9
$PLIMMIN
 10
0.0
 20
0.0
  9
$PLIMMAX
 10
420.0
 20
297.0
  9
$UNITMODE
 70
     0
  9
$VISRETAIN
 70
     1
  9
$PLINEGEN
 70
     0
  9
$PSLTSCALE
 70
     1
  9
$TREEDEPTH
 70
  3020
  9
$PICKSTYLE
 70
     1
  9
$CMLSTYLE
  2
STANDARD
  9
$CMLJUST
 70
     0
  9
$CMLSCALE
 40
20.0
  9
$PROXYGRAPHICS
 70
     1
  9
$MEASUREMENT
 70
     1
  0
ENDSEC
  0
SECTION
  2
CLASSES
  0
CLASS
  1
ACDBDICTIONARYWDFLT
  2
AcDbDictionaryWithDefault
  3
ObjectDBX Classes
 90
        0
280
     0
281
     0
  0
CLASS
  1
VISUALSTYLE
  2
AcDbVisualStyle
  3
ObjectDBX Classes
 90
     4095
280
     0
281
     0
  0
CLASS
  1
MATERIAL
  2
AcDbMaterial
  3
ObjectDBX Classes
 90
     1153
280
     0
281
     0
  0
CLASS
  1
SCALE
  2
AcDbScale
  3
ObjectDBX Classes
 90
     1153
280
     0
281
     0
  0
CLASS
  1
TABLESTYLE
  2
AcDbTableStyle
  3
ObjectDBX Classes
 90
     4095
280
     0
281
     0
  0
CLASS
  1
MLEADERSTYLE
  2
AcDbMLeaderStyle
  3
ACDB_MLEADERSTYLE_CLASS
 90
     4095
280
     0
281
     0
  0
CLASS
  1
SUN
  2
AcDbSun
  3
SCENEOE
 90
     1153
280
     0
281
     0
  0
CLASS
  1
DICTIONARYVAR
  2
AcDbDictionaryVar
  3
ObjectDBX Classes
 90
        0
280
     0
281
     0
  0
CLASS
  1
XRECORD
  2
AcDbXrecord
  3
ObjectDBX Classes
 90
        0
280
     0
281
     0
  0
CLASS
  1
LWPOLYLINE
  2
AcDbPolyline
  3
ObjectDBX Classes
 90
        0
280
     0
281
     1
  0
CLASS
  1
HATCH
  2
AcDbHatch
  3
ObjectDBX Classes
 90
        0
280
     0
281
     1
  0
CLASS
  1
ACDBPLACEHOLDER
  2
AcDbPlaceHolder
  3
ObjectDBX Classes
 90
        0
280
     0
281
     0
  0
CLASS
  1
LAYOUT
  2
AcDbLayout
  3
ObjectDBX Classes
 90
        0
280
     0
281
     0
  0
ENDSEC
  0
SECTION
  2
TABLES
  0
TABLE
  2
VPORT
  5
8
102
{ACAD_XDICTIONARY
360
665
102
}
330
0
100
AcDbSymbolTable
 70
     1
  0
VPORT
  5
29
330
8
100
AcDbSymbolTableRecord
100
AcDbViewportTableRecord
  2
*ACTIVE
 70
     0
 10
0.0
 20
0.0
 11
1.0
 21
1.0
 12
840.0
 22
594.0
 13
0.0
 23
0.0
 14
10.0
 24
10.0
 15
10.0
 25
10.0
 16
0.0
 26
0.0
 36
1.0
 17
0.0
 27
0.0
 37
0.0
 40
1108.0
 41
1.444043321299639
 42
50.0
 43
0.0
 44
0.0
 50
0.0
 51
0.0
 71
     0
 72
  1000
 73
     1
 74
     3
 75
     0
 76
     0
 77
     0
 78
     0
  0
ENDTAB
  0
TABLE
  2
LTYPE
  5
5
330
0
100
AcDbSymbolTable
 70
     7
  0
LTYPE
  5
14
330
5
100
AcDbSymbolTableRecord
100
AcDbLinetypeTableRecord
  2
BYBLOCK
 70
     0
  3

 72
    65
 73
     0
 40
0.0
  0
LTYPE
  5
15
330
5
100
AcDbSymbolTableRecord
100
AcDbLinetypeTableRecord
  2
BYLAYER
 70
     0
  3

 72
    65
 73
     0
 40
0.0
  0
LTYPE
  5
16
330
5
100
AcDbSymbolTableRecord
100
AcDbLinetypeTableRecord
  2
CONTINUOUS
 70
     0
  3
Solid line
 72
    65
 73
     0
 40
0.0
  0
LTYPE
  5
6E
330
5
100
AcDbSymbolTableRecord
100
AcDbLinetypeTableRecord
  2
EXLTYPE0
 70
     0
  3
破線
 72
    65
 73
     2
 40
4.0
 49
3.0
 74
     0
 49
-1.0
 74
     0
  0
LTYPE
  5
6F
330
5
100
AcDbSymbolTableRecord
100
AcDbLinetypeTableRecord
  2
EXLTYPE1
 70
     0
  3
点線
 72
    65
 73
     2
 40
2.0
 49
1.0
 74
     0
 49
-1.0
 74
     0
  0
LTYPE
  5
70
330
5
100
AcDbSymbolTableRecord
100
AcDbLinetypeTableRecord
  2
EXLTYPE2
 70
     0
  3
一点鎖線
 72
    65
 73
     4
 40
13.0
 49
10.0
 74
     0
 49
-1.0
 74
     0
 49
1.0
 74
     0
 49
-1.0
 74
     0
  0
LTYPE
  5
71
330
5
100
AcDbSymbolTableRecord
100
AcDbLinetypeTableRecord
  2
EXLTYPE3
 70
     0
  3
二点鎖線
 72
    65
 73
     6
 40
15.0
 49
10.0
 74
     0
 49
-1.0
 74
     0
 49
1.0
 74
     0
 49
-1.0
 74
     0
 49
1.0
 74
     0
 49
-1.0
 74
     0
  0
LTYPE
  5
72
330
5
100
AcDbSymbolTableRecord
100
AcDbLinetypeTableRecord
  2
EXLTYPE4
 70
     0
  3
一点鎖線2
 72
    65
 73
     4
 40
3.5
 49
2.0
 74
     0
 49
-0.5
 74
     0
 49
0.5
 74
     0
 49
-0.5
 74
     0
  0
LTYPE
  5
73
330
5
100
AcDbSymbolTableRecord
100
AcDbLinetypeTableRecord
  2
EXLTYPE5
 70
     0
  3
二点鎖線2
 72
    65
 73
     6
 40
4.5
 49
2.0
 74
     0
 49
-0.5
 74
     0
 49
0.5
 74
     0
 49
-0.5
 74
     0
 49
0.5
 74
     0
 49
-0.5
 74
     0
  0
ENDTAB
  0
TABLE
  2
LAYER
  5
2
330
0
100
AcDbSymbolTable
 70
     4
  0
LAYER
  5
10
330
2
100
AcDbSymbolTableRecord
100
AcDbLayerTableRecord
  2
0
 70
     0
 62
     7
  6
CONTINUOUS
  0
LAYER
  5
76
330
2
100
AcDbSymbolTableRecord
100
AcDbLayerTableRecord
  2
図面枠
 70
     4
 62
     7
  6
CONTINUOUS
  0
LAYER
  5
77
330
2
100
AcDbSymbolTableRecord
100
AcDbLayerTableRecord
  2
Ｓ_１_１
 70
     0
 62
     7
  6
CONTINUOUS
  0
LAYER
  5
163
330
2
100
AcDbSymbolTableRecord
100
AcDbLayerTableRecord
  2
DEFPOINTS
 70
     0
 62
     7
  6
CONTINUOUS
  0
ENDTAB
  0
TABLE
  2
STYLE
  5
3
330
0
100
AcDbSymbolTable
 70
     5
  0
STYLE
  5
11
330
3
100
AcDbSymbolTableRecord
100
AcDbTextStyleTableRecord
  2
STANDARD
 70
     0
 40
0.0
 41
1.0
 50
0.0
 71
     0
 42
2.5
  3
monotxt
  4
extfont
  0
STYLE
  5
74
330
3
100
AcDbSymbolTableRecord
100
AcDbTextStyleTableRecord
  2
EXCADSTD
 70
     0
 40
0.0
 41
1.0
 50
0.0
 71
     0
 42
2.5
  3
monotxt
  4
extfont
  0
STYLE
  5
75
330
3
100
AcDbSymbolTableRecord
100
AcDbTextStyleTableRecord
  2
EXCADVERT
 70
     4
 40
0.0
 41
1.0
 50
0.0
 71
     0
 42
2.5
  3
monotxt
  4
extfont
  0
STYLE
  5
D9
330
3
100
AcDbSymbolTableRecord
100
AcDbTextStyleTableRecord
  2
EXCADTTF1
 70
     0
 40
0.0
 41
1.0
 50
0.0
 71
     0
 42
2.5
  3
msgothic.ttc
  4

1001
ACAD
1000
MS Gothic
1071
    32817
  0
STYLE
  5
161
330
3
100
AcDbSymbolTableRecord
100
AcDbTextStyleTableRecord
  2
EXCADDIM1
 70
     0
 40
0.0
 41
1.0
 50
0.0
 71
     0
 42
2.5
  3
msgothic.ttc
  4

1001
ACAD
1000
MS Gothic
1071
    32817
  0
ENDTAB
  0
TABLE
  2
VIEW
  5
6
330
0
100
AcDbSymbolTable
 70
     0
  0
ENDTAB
  0
TABLE
  2
UCS
  5
7
330
0
100
AcDbSymbolTable
 70
     0
  0
ENDTAB
  0
TABLE
  2
APPID
  5
9
330
0
100
AcDbSymbolTable
 70
     2
  0
APPID
  5
12
330
9
100
AcDbSymbolTableRecord
100
AcDbRegAppTableRecord
  2
ACAD
 70
     0
  0
APPID
  5
66F
330
9
100
AcDbSymbolTableRecord
100
AcDbRegAppTableRecord
  2
ACAD_MLEADERVER
 70
     0
  0
ENDTAB
  0
TABLE
  2
DIMSTYLE
  5
A
330
0
100
AcDbSymbolTable
 70
     1
  0
DIMSTYLE
105
27
102
{ACAD_REACTORS
330
162
330
170
330
17D
330
18A
330
197
330
1A4
330
1B3
330
1C2
330
1CF
330
1DC
330
1EC
330
1F9
330
206
330
213
330
227
330
234
330
241
330
24E
330
25B
330
269
102
}
330
A
100
AcDbSymbolTableRecord
100
AcDbDimStyleTableRecord
  2
ISO-25
 70
     0
  3

  4

  5

  6

  7

 40
1.0
 41
2.5
 42
0.625
 43
3.75
 44
1.25
 45
0.0
 46
0.0
 47
0.0
 48
0.0
140
2.5
141
2.5
142
0.0
143
0.03937007874016
144
1.0
145
0.0
146
1.0
147
0.625
 71
     0
 72
     0
 73
     0
 74
     0
 75
     0
 76
     0
 77
     1
 78
     8
170
     0
171
     3
172
     1
173
     0
174
     0
175
     0
176
     0
177
     0
178
     0
270
     2
271
     2
272
     2
273
     2
274
     3
340
11
275
     0
280
     0
281
     0
282
     0
283
     0
284
     8
285
     0
286
     0
287
     5
288
     0
  0
ENDTAB
  0
TABLE
  2
BLOCK_RECORD
  5
1
330
0
100
AcDbSymbolTable
 70
    34
  0
BLOCK_RECORD
  5
1F
330
1
100
AcDbSymbolTableRecord
100
AcDbBlockTableRecord
  2
*MODEL_SPACE
  0
BLOCK_RECORD
  5
1B
330
1
100
AcDbSymbolTableRecord
100
AcDbBlockTableRecord
  2
*PAPER_SPACE
  0
BLOCK_RECORD
  5
78
330
1
100
AcDbSymbolTableRecord
100
AcDbBlockTableRecord
  2
EX_NORM
  0
BLOCK_RECORD
  5
7B
330
1
100
AcDbSymbolTableRecord
100
AcDbBlockTableRecord
  2
EX_BNORM
  0
BLOCK_RECORD
  5
7E
330
1
100
AcDbSymbolTableRecord
100
AcDbBlockTableRecord
  2
EX_BCIR
  0
BLOCK_RECORD
  5
81
330
1
100
AcDbSymbolTableRecord
100
AcDbBlockTableRecord
  2
EX_RCIVIL
  0
BLOCK_RECORD
  5
84
330
1
100
AcDbSymbolTableRecord
100
AcDbBlockTableRecord
  2
EX_SLANT
  0
BLOCK_RECORD
  5
87
330
1
100
AcDbSymbolTableRecord
100
AcDbBlockTableRecord
  2
EX_NONE
  0
BLOCK_RECORD
  5
8A
330
1
100
AcDbSymbolTableRecord
100
AcDbBlockTableRecord
  2
EX_CIVIL
  0
BLOCK_RECORD
  5
8D
330
1
100
AcDbSymbolTableRecord
100
AcDbBlockTableRecord
  2
EX_WCIR
  0
BLOCK_RECORD
  5
90
330
1
100
AcDbSymbolTableRecord
100
AcDbBlockTableRecord
  2
EX_WCIR2
  0
BLOCK_RECORD
  5
93
330
1
100
AcDbSymbolTableRecord
100
AcDbBlockTableRecord
  2
EX_WNORM
  0
BLOCK_RECORD
  5
96
330
1
100
AcDbSymbolTableRecord
100
AcDbBlockTableRecord
  2
EX_NNORM
  0
BLOCK_RECORD
  5
99
330
1
100
AcDbSymbolTableRecord
100
AcDbBlockTableRecord
  2
EX_BBOX
  0
BLOCK_RECORD
  5
9C
330
1
100
AcDbSymbolTableRecord
100
AcDbBlockTableRecord
  2
EX_WBOX
  0
BLOCK_RECORD
  5
9F
330
1
100
AcDbSymbolTableRecord
100
AcDbBlockTableRecord
  2
EX_INTEGRAL
  0
BLOCK_RECORD
  5
164
330
1
100
AcDbSymbolTableRecord
100
AcDbBlockTableRecord
  2
*D15
  0
BLOCK_RECORD
  5
171
330
1
100
AcDbSymbolTableRecord
100
AcDbBlockTableRecord
  2
*D16
  0
BLOCK_RECORD
  5
17E
330
1
100
AcDbSymbolTableRecord
100
AcDbBlockTableRecord
  2
*D17
  0
BLOCK_RECORD
  5
18B
330
1
100
AcDbSymbolTableRecord
100
AcDbBlockTableRecord
  2
*D18
  0
BLOCK_RECORD
  5
198
330
1
100
AcDbSymbolTableRecord
100
AcDbBlockTableRecord
  2
*D19
  0
BLOCK_RECORD
  5
1A5
330
1
100
AcDbSymbolTableRecord
100
AcDbBlockTableRecord
  2
*D20
  0
BLOCK_RECORD
  5
1B4
330
1
100
AcDbSymbolTableRecord
100
AcDbBlockTableRecord
  2
*D21
  0
BLOCK_RECORD
  5
1C3
330
1
100
AcDbSymbolTableRecord
100
AcDbBlockTableRecord
  2
*D22
  0
BLOCK_RECORD
  5
1D0
330
1
100
AcDbSymbolTableRecord
100
AcDbBlockTableRecord
  2
*D23
  0
BLOCK_RECORD
  5
1DD
330
1
100
AcDbSymbolTableRecord
100
AcDbBlockTableRecord
  2
*D24
  0
BLOCK_RECORD
  5
1ED
330
1
100
AcDbSymbolTableRecord
100
AcDbBlockTableRecord
  2
*D25
  0
BLOCK_RECORD
  5
1FA
330
1
100
AcDbSymbolTableRecord
100
AcDbBlockTableRecord
  2
*D26
  0
BLOCK_RECORD
  5
207
330
1
100
AcDbSymbolTableRecord
100
AcDbBlockTableRecord
  2
*D27
  0
BLOCK_RECORD
  5
214
330
1
100
AcDbSymbolTableRecord
100
AcDbBlockTableRecord
  2
*D28
  0
BLOCK_RECORD
  5
228
330
1
100
AcDbSymbolTableRecord
100
AcDbBlockTableRecord
  2
*D29
  0
BLOCK_RECORD
  5
235
330
1
100
AcDbSymbolTableRecord
100
AcDbBlockTableRecord
  2
*D30
  0
BLOCK_RECORD
  5
242
330
1
100
AcDbSymbolTableRecord
100
AcDbBlockTableRecord
  2
*D31
  0
BLOCK_RECORD
  5
24F
330
1
100
AcDbSymbolTableRecord
100
AcDbBlockTableRecord
  2
*D32
  0
BLOCK_RECORD
  5
25C
330
1
100
AcDbSymbolTableRecord
100
AcDbBlockTableRecord
  2
*D33
  0
BLOCK_RECORD
  5
26A
330
1
100
AcDbSymbolTableRecord
100
AcDbBlockTableRecord
  2
*D34
  0
ENDTAB
  0
ENDSEC
  0
SECTION
  2
BLOCKS
  0
BLOCK
  5
20
330
1F
100
AcDbEntity
  8
0
100
AcDbBlockBegin
  2
*MODEL_SPACE
 70
     0
 10
0.0
 20
0.0
 30
0.0
  3
*MODEL_SPACE
  1

  0
ENDBLK
  5
21
330
1F
100
AcDbEntity
  8
0
100
AcDbBlockEnd
  0
BLOCK
  5
1C
330
1B
100
AcDbEntity
 67
     1
  8
0
100
AcDbBlockBegin
  2
*PAPER_SPACE
 70
     0
 10
0.0
 20
0.0
 30
0.0
  3
*PAPER_SPACE
  1

  0
ENDBLK
  5
1D
330
1B
100
AcDbEntity
 67
     1
  8
0
100
AcDbBlockEnd
  0
BLOCK
  5
79
330
78
100
AcDbEntity
  8
0
100
AcDbBlockBegin
  2
EX_NORM
 70
     0
 10
0.0
 20
0.0
 30
0.0
  3
EX_NORM
  1

  0
LINE
  5
A2
330
78
100
AcDbEntity
  8
0
  6
CONTINUOUS
 62
     0
100
AcDbLine
 10
0.0
 20
0.0
 30
0.0
 11
-1.0
 21
0.0
 31
0.0
  0
LINE
  5
A3
330
78
100
AcDbEntity
  8
0
  6
CONTINUOUS
 62
     0
100
AcDbLine
 10
0.0
 20
0.0
 30
0.0
 11
-1.0
 21
0.166666667
 31
0.0
  0
LINE
  5
A4
330
78
100
AcDbEntity
  8
0
  6
CONTINUOUS
 62
     0
100
AcDbLine
 10
0.0
 20
0.0
 30
0.0
 11
-1.0
 21
-0.166666667
 31
0.0
  0
ENDBLK
  5
7A
330
78
100
AcDbEntity
  8
0
100
AcDbBlockEnd
  0
BLOCK
  5
7C
330
7B
100
AcDbEntity
  8
0
100
AcDbBlockBegin
  2
EX_BNORM
 70
     0
 10
0.0
 20
0.0
 30
0.0
  3
EX_BNORM
  1

  0
LINE
  5
A5
330
7B
100
AcDbEntity
  8
0
  6
CONTINUOUS
 62
     0
100
AcDbLine
 10
0.0
 20
0.0
 30
0.0
 11
-1.0
 21
0.0
 31
0.0
  0
LINE
  5
A6
330
7B
100
AcDbEntity
  8
0
  6
CONTINUOUS
 62
     0
100
AcDbLine
 10
0.0
 20
0.0
 30
0.0
 11
-1.0
 21
0.166666667
 31
0.0
  0
LINE
  5
A7
330
7B
100
AcDbEntity
  8
0
  6
CONTINUOUS
 62
     0
100
AcDbLine
 10
0.0
 20
0.0
 30
0.0
 11
-1.0
 21
-0.166666667
 31
0.0
  0
LINE
  5
A8
330
7B
100
AcDbEntity
  8
0
  6
CONTINUOUS
 62
     0
100
AcDbLine
 10
0.0
 20
0.0
 30
0.0
 11
-1.0
 21
0.083333333
 31
0.0
  0
LINE
  5
A9
330
7B
100
AcDbEntity
  8
0
  6
CONTINUOUS
 62
     0
100
AcDbLine
 10
0.0
 20
0.0
 30
0.0
 11
-1.0
 21
-0.083333333
 31
0.0
  0
LINE
  5
AA
330
7B
100
AcDbEntity
  8
0
  6
CONTINUOUS
 62
     0
100
AcDbLine
 10
-1.0
 20
0.166666667
 30
0.0
 11
-1.0
 21
-0.166666667
 31
0.0
  0
ENDBLK
  5
7D
330
7B
100
AcDbEntity
  8
0
100
AcDbBlockEnd
  0
BLOCK
  5
7F
330
7E
100
AcDbEntity
  8
0
100
AcDbBlockBegin
  2
EX_BCIR
 70
     0
 10
0.0
 20
0.0
 30
0.0
  3
EX_BCIR
  1

  0
LINE
  5
AB
330
7E
100
AcDbEntity
  8
0
  6
CONTINUOUS
 62
     0
100
AcDbLine
 10
0.0
 20
0.0
 30
0.0
 11
-1.0
 21
0.0
 31
0.0
  0
CIRCLE
  5
AC
330
7E
100
AcDbEntity
  8
0
  6
CONTINUOUS
 62
     0
100
AcDbCircle
 10
0.0
 20
0.0
 30
0.0
 40
0.5
  0
CIRCLE
  5
AD
330
7E
100
AcDbEntity
  8
0
  6
CONTINUOUS
 62
     0
100
AcDbCircle
 10
0.0
 20
0.0
 30
0.0
 40
0.25
  0
ENDBLK
  5
80
330
7E
100
AcDbEntity
  8
0
100
AcDbBlockEnd
  0
BLOCK
  5
82
330
81
100
AcDbEntity
  8
0
100
AcDbBlockBegin
  2
EX_RCIVIL
 70
     0
 10
0.0
 20
0.0
 30
0.0
  3
EX_RCIVIL
  1

  0
LINE
  5
AE
330
81
100
AcDbEntity
  8
0
  6
CONTINUOUS
 62
     0
100
AcDbLine
 10
0.0
 20
0.0
 30
0.0
 11
-1.0
 21
0.0
 31
0.0
  0
LINE
  5
AF
330
81
100
AcDbEntity
  8
0
  6
CONTINUOUS
 62
     0
100
AcDbLine
 10
-1.0
 20
-0.25
 30
0.0
 11
0.0
 21
-0.25
 31
0.0
  0
LINE
  5
B0
330
81
100
AcDbEntity
  8
0
  6
CONTINUOUS
 62
     0
100
AcDbLine
 10
-1.0
 20
-0.125
 30
0.0
 11
0.0
 21
-0.125
 31
0.0
  0
ENDBLK
  5
83
330
81
100
AcDbEntity
  8
0
100
AcDbBlockEnd
  0
BLOCK
  5
85
330
84
100
AcDbEntity
  8
0
100
AcDbBlockBegin
  2
EX_SLANT
 70
     0
 10
0.0
 20
0.0
 30
0.0
  3
EX_SLANT
  1

  0
LINE
  5
B1
330
84
100
AcDbEntity
  8
0
  6
CONTINUOUS
 62
     0
100
AcDbLine
 10
0.0
 20
0.0
 30
0.0
 11
-1.0
 21
0.0
 31
0.0
  0
LINE
  5
B2
330
84
100
AcDbEntity
  8
0
  6
CONTINUOUS
 62
     0
100
AcDbLine
 10
0.707106781
 20
0.707106781
 30
0.0
 11
-0.707106781
 21
-0.707106781
 31
0.0
  0
ENDBLK
  5
86
330
84
100
AcDbEntity
  8
0
100
AcDbBlockEnd
  0
BLOCK
  5
88
330
87
100
AcDbEntity
  8
0
100
AcDbBlockBegin
  2
EX_NONE
 70
     0
 10
0.0
 20
0.0
 30
0.0
  3
EX_NONE
  1

  0
LINE
  5
B3
330
87
100
AcDbEntity
  8
0
  6
CONTINUOUS
 62
     0
100
AcDbLine
 10
0.0
 20
0.0
 30
0.0
 11
-1.0
 21
0.0
 31
0.0
  0
ENDBLK
  5
89
330
87
100
AcDbEntity
  8
0
100
AcDbBlockEnd
  0
BLOCK
  5
8B
330
8A
100
AcDbEntity
  8
0
100
AcDbBlockBegin
  2
EX_CIVIL
 70
     0
 10
0.0
 20
0.0
 30
0.0
  3
EX_CIVIL
  1

  0
LINE
  5
B4
330
8A
100
AcDbEntity
  8
0
  6
CONTINUOUS
 62
     0
100
AcDbLine
 10
0.0
 20
0.0
 30
0.0
 11
-1.0
 21
0.0
 31
0.0
  0
LINE
  5
B5
330
8A
100
AcDbEntity
  8
0
  6
CONTINUOUS
 62
     0
100
AcDbLine
 10
-1.0
 20
0.25
 30
0.0
 11
0.0
 21
0.25
 31
0.0
  0
LINE
  5
B6
330
8A
100
AcDbEntity
  8
0
  6
CONTINUOUS
 62
     0
100
AcDbLine
 10
-1.0
 20
0.125
 30
0.0
 11
0.0
 21
0.125
 31
0.0
  0
ENDBLK
  5
8C
330
8A
100
AcDbEntity
  8
0
100
AcDbBlockEnd
  0
BLOCK
  5
8E
330
8D
100
AcDbEntity
  8
0
100
AcDbBlockBegin
  2
EX_WCIR
 70
     0
 10
0.0
 20
0.0
 30
0.0
  3
EX_WCIR
  1

  0
LINE
  5
B7
330
8D
100
AcDbEntity
  8
0
  6
CONTINUOUS
 62
     0
100
AcDbLine
 10
0.0
 20
0.0
 30
0.0
 11
-1.0
 21
0.0
 31
0.0
  0
CIRCLE
  5
B8
330
8D
100
AcDbEntity
  8
0
  6
CONTINUOUS
 62
     0
100
AcDbCircle
 10
0.0
 20
0.0
 30
0.0
 40
0.5
  0
ENDBLK
  5
8F
330
8D
100
AcDbEntity
  8
0
100
AcDbBlockEnd
  0
BLOCK
  5
91
330
90
100
AcDbEntity
  8
0
100
AcDbBlockBegin
  2
EX_WCIR2
 70
     0
 10
0.0
 20
0.0
 30
0.0
  3
EX_WCIR2
  1

  0
LINE
  5
B9
330
90
100
AcDbEntity
  8
0
  6
CONTINUOUS
 62
     0
100
AcDbLine
 10
-0.5
 20
0.0
 30
0.0
 11
-1.0
 21
0.0
 31
0.0
  0
CIRCLE
  5
BA
330
90
100
AcDbEntity
  8
0
  6
CONTINUOUS
 62
     0
100
AcDbCircle
 10
0.0
 20
0.0
 30
0.0
 40
0.5
  0
ENDBLK
  5
92
330
90
100
AcDbEntity
  8
0
100
AcDbBlockEnd
  0
BLOCK
  5
94
330
93
100
AcDbEntity
  8
0
100
AcDbBlockBegin
  2
EX_WNORM
 70
     0
 10
0.0
 20
0.0
 30
0.0
  3
EX_WNORM
  1

  0
LINE
  5
BB
330
93
100
AcDbEntity
  8
0
  6
CONTINUOUS
 62
     0
100
AcDbLine
 10
-1.0
 20
0.0
 30
0.0
 11
-1.0
 21
0.0
 31
0.0
  0
LINE
  5
BC
330
93
100
AcDbEntity
  8
0
  6
CONTINUOUS
 62
     0
100
AcDbLine
 10
0.0
 20
0.0
 30
0.0
 11
-1.0
 21
0.166666667
 31
0.0
  0
LINE
  5
BD
330
93
100
AcDbEntity
  8
0
  6
CONTINUOUS
 62
     0
100
AcDbLine
 10
0.0
 20
0.0
 30
0.0
 11
-1.0
 21
-0.166666667
 31
0.0
  0
LINE
  5
BE
330
93
100
AcDbEntity
  8
0
  6
CONTINUOUS
 62
     0
100
AcDbLine
 10
-1.0
 20
0.166666667
 30
0.0
 11
-1.0
 21
-0.166666667
 31
0.0
  0
ENDBLK
  5
95
330
93
100
AcDbEntity
  8
0
100
AcDbBlockEnd
  0
BLOCK
  5
97
330
96
100
AcDbEntity
  8
0
100
AcDbBlockBegin
  2
EX_NNORM
 70
     0
 10
0.0
 20
0.0
 30
0.0
  3
EX_NNORM
  1

  0
LINE
  5
BF
330
96
100
AcDbEntity
  8
0
  6
CONTINUOUS
 62
     0
100
AcDbLine
 10
0.0
 20
0.0
 30
0.0
 11
-1.0
 21
0.0
 31
0.0
  0
LINE
  5
C0
330
96
100
AcDbEntity
  8
0
  6
CONTINUOUS
 62
     0
100
AcDbLine
 10
0.0
 20
0.0
 30
0.0
 11
-1.0
 21
0.166666667
 31
0.0
  0
LINE
  5
C1
330
96
100
AcDbEntity
  8
0
  6
CONTINUOUS
 62
     0
100
AcDbLine
 10
0.0
 20
0.0
 30
0.0
 11
-1.0
 21
-0.166666667
 31
0.0
  0
LINE
  5
C2
330
96
100
AcDbEntity
  8
0
  6
CONTINUOUS
 62
     0
100
AcDbLine
 10
-1.0
 20
0.166666667
 30
0.0
 11
-1.0
 21
-0.166666667
 31
0.0
  0
ENDBLK
  5
98
330
96
100
AcDbEntity
  8
0
100
AcDbBlockEnd
  0
BLOCK
  5
9A
330
99
100
AcDbEntity
  8
0
100
AcDbBlockBegin
  2
EX_BBOX
 70
     0
 10
0.0
 20
0.0
 30
0.0
  3
EX_BBOX
  1

  0
LINE
  5
C3
330
99
100
AcDbEntity
  8
0
  6
CONTINUOUS
 62
     0
100
AcDbLine
 10
0.0
 20
0.0
 30
0.0
 11
-1.0
 21
0.0
 31
0.0
  0
LINE
  5
C4
330
99
100
AcDbEntity
  8
0
  6
CONTINUOUS
 62
     0
100
AcDbLine
 10
-0.5
 20
0.5
 30
0.0
 11
0.5
 21
0.5
 31
0.0
  0
LINE
  5
C5
330
99
100
AcDbEntity
  8
0
  6
CONTINUOUS
 62
     0
100
AcDbLine
 10
0.5
 20
0.5
 30
0.0
 11
0.5
 21
-0.5
 31
0.0
  0
LINE
  5
C6
330
99
100
AcDbEntity
  8
0
  6
CONTINUOUS
 62
     0
100
AcDbLine
 10
0.5
 20
-0.5
 30
0.0
 11
-0.5
 21
-0.5
 31
0.0
  0
LINE
  5
C7
330
99
100
AcDbEntity
  8
0
  6
CONTINUOUS
 62
     0
100
AcDbLine
 10
-0.5
 20
-0.5
 30
0.0
 11
-0.5
 21
0.5
 31
0.0
  0
LINE
  5
C8
330
99
100
AcDbEntity
  8
0
  6
CONTINUOUS
 62
     0
100
AcDbLine
 10
-0.25
 20
0.25
 30
0.0
 11
0.25
 21
0.25
 31
0.0
  0
LINE
  5
C9
330
99
100
AcDbEntity
  8
0
  6
CONTINUOUS
 62
     0
100
AcDbLine
 10
0.25
 20
0.25
 30
0.0
 11
0.25
 21
-0.25
 31
0.0
  0
LINE
  5
CA
330
99
100
AcDbEntity
  8
0
  6
CONTINUOUS
 62
     0
100
AcDbLine
 10
0.25
 20
-0.25
 30
0.0
 11
-0.25
 21
-0.25
 31
0.0
  0
LINE
  5
CB
330
99
100
AcDbEntity
  8
0
  6
CONTINUOUS
 62
     0
100
AcDbLine
 10
-0.25
 20
-0.25
 30
0.0
 11
-0.25
 21
0.25
 31
0.0
  0
ENDBLK
  5
9B
330
99
100
AcDbEntity
  8
0
100
AcDbBlockEnd
  0
BLOCK
  5
9D
330
9C
100
AcDbEntity
  8
0
100
AcDbBlockBegin
  2
EX_WBOX
 70
     0
 10
0.0
 20
0.0
 30
0.0
  3
EX_WBOX
  1

  0
LINE
  5
CC
330
9C
100
AcDbEntity
  8
0
  6
CONTINUOUS
 62
     0
100
AcDbLine
 10
-0.5
 20
0.0
 30
0.0
 11
-1.0
 21
0.0
 31
0.0
  0
LINE
  5
CD
330
9C
100
AcDbEntity
  8
0
  6
CONTINUOUS
 62
     0
100
AcDbLine
 10
-0.5
 20
0.5
 30
0.0
 11
0.5
 21
0.5
 31
0.0
  0
LINE
  5
CE
330
9C
100
AcDbEntity
  8
0
  6
CONTINUOUS
 62
     0
100
AcDbLine
 10
0.5
 20
0.5
 30
0.0
 11
0.5
 21
-0.5
 31
0.0
  0
LINE
  5
CF
330
9C
100
AcDbEntity
  8
0
  6
CONTINUOUS
 62
     0
100
AcDbLine
 10
0.5
 20
-0.5
 30
0.0
 11
-0.5
 21
-0.5
 31
0.0
  0
LINE
  5
D0
330
9C
100
AcDbEntity
  8
0
  6
CONTINUOUS
 62
     0
100
AcDbLine
 10
-0.5
 20
-0.5
 30
0.0
 11
-0.5
 21
0.5
 31
0.0
  0
ENDBLK
  5
9E
330
9C
100
AcDbEntity
  8
0
100
AcDbBlockEnd
  0
BLOCK
  5
A0
330
9F
100
AcDbEntity
  8
0
100
AcDbBlockBegin
  2
EX_INTEGRAL
 70
     0
 10
0.0
 20
0.0
 30
0.0
  3
EX_INTEGRAL
  1

  0
LINE
  5
D1
330
9F
100
AcDbEntity
  8
0
  6
CONTINUOUS
 62
     0
100
AcDbLine
 10
0.0
 20
0.0
 30
0.0
 11
-1.0
 21
0.0
 31
0.0
  0
ARC
  5
D2
330
9F
100
AcDbEntity
  8
0
  6
CONTINUOUS
 62
     0
100
AcDbCircle
 10
0.542115
 20
0.164992
 30
0.0
 40
0.56667
100
AcDbArc
 50
73.07249033629006
 51
196.9275130221199
  0
ARC
  5
D3
330
9F
100
AcDbEntity
  8
0
  6
CONTINUOUS
 62
     0
100
AcDbCircle
 10
-0.542115
 20
-0.164992
 30
0.0
 40
0.56667
100
AcDbArc
 50
253.0724869220464
 51
16.9275130559125
  0
ENDBLK
  5
A1
330
9F
100
AcDbEntity
  8
0
100
AcDbBlockEnd
  0
BLOCK
  5
165
330
164
100
AcDbEntity
  8
0
100
AcDbBlockBegin
  2
*D15
 70
     1
 10
0.0
 20
0.0
 30
0.0
  3
*D15
  1

  0
LINE
  5
167
330
164
100
AcDbEntity
  8
Ｓ_１_１
  6
CONTINUOUS
 62
     2
100
AcDbLine
 10
504.00000178818
 20
338.00000113248
 30
0.0
 11
408.5
 21
338.0000011324801
 31
0.0
  0
LINE
  5
168
330
164
100
AcDbEntity
  8
Ｓ_１_１
  6
CONTINUOUS
 62
     2
100
AcDbLine
 10
504.00000178818
 20
363.99999421834
 30
0.0
 11
408.5
 21
363.9999942183401
 31
0.0
  0
LINE
  5
169
330
164
100
AcDbEntity
  8
Ｓ_１_１
  6
CONTINUOUS
 62
     2
100
AcDbLine
 10
412.5
 20
350.0000011324801
 30
0.0
 11
412.5
 21
351.9999942183401
 31
0.0
  0
INSERT
  5
16A
330
164
100
AcDbEntity
  8
Ｓ_１_１
 62
     2
100
AcDbBlockReference
  2
EX_NORM
 10
412.5
 20
338.0000011324801
 30
0.0
 41
12.0
 42
12.0
 43
12.0
 50
270.0
  0
INSERT
  5
16B
330
164
100
AcDbEntity
  8
Ｓ_１_１
 62
     2
100
AcDbBlockReference
  2
EX_BCIR
 10
412.5
 20
363.9999942183401
 30
0.0
 41
12.0
 42
12.0
 43
12.0
 50
90.0
  0
MTEXT
  5
16C
330
164
100
AcDbEntity
  8
Ｓ_１_１
 62
     2
100
AcDbMText
 10
401.5
 20
350.99999767541
 30
0.0
 40
13.85161662817552
 41
0.0
 71
     5
 72
     1
  1
26
  7
EXCADDIM1
 11
0.0
 21
1.0
 31
0.0
  0
POINT
  5
16D
330
164
100
AcDbEntity
  8
DEFPOINTS
 62
     0
100
AcDbPoint
 10
510.00000178818
 20
338.00000113248
 30
0.0
  0
POINT
  5
16E
330
164
100
AcDbEntity
  8
DEFPOINTS
 62
     0
100
AcDbPoint
 10
510.00000178818
 20
363.99999421834
 30
0.0
  0
POINT
  5
16F
330
164
100
AcDbEntity
  8
DEFPOINTS
 62
     0
100
AcDbPoint
 10
412.5
 20
363.9999942183401
 30
0.0
  0
ENDBLK
  5
166
330
164
100
AcDbEntity
  8
0
100
AcDbBlockEnd
  0
BLOCK
  5
172
330
171
100
AcDbEntity
  8
0
100
AcDbBlockBegin
  2
*D16
 70
     1
 10
0.0
 20
0.0
 30
0.0
  3
*D16
  1

  0
LINE
  5
174
330
171
100
AcDbEntity
  8
Ｓ_１_１
  6
CONTINUOUS
 62
     2
100
AcDbLine
 10
505.00000178818
 20
395.99999946355
 30
0.0
 11
408.5
 21
395.9999994635501
 31
0.0
  0
LINE
  5
175
330
171
100
AcDbEntity
  8
Ｓ_１_１
  6
CONTINUOUS
 62
     2
100
AcDbLine
 10
504.00000178818
 20
363.99999421834
 30
0.0
 11
408.5
 21
363.9999942183401
 31
0.0
  0
LINE
  5
176
330
171
100
AcDbEntity
  8
Ｓ_１_１
  6
CONTINUOUS
 62
     2
100
AcDbLine
 10
412.5
 20
383.9999994635501
 30
0.0
 11
412.5
 21
375.9999942183401
 31
0.0
  0
INSERT
  5
177
330
171
100
AcDbEntity
  8
Ｓ_１_１
 62
     2
100
AcDbBlockReference
  2
EX_NORM
 10
412.5
 20
395.9999994635501
 30
0.0
 41
12.0
 42
12.0
 43
12.0
 50
90.0
  0
INSERT
  5
178
330
171
100
AcDbEntity
  8
Ｓ_１_１
 62
     2
100
AcDbBlockReference
  2
EX_BCIR
 10
412.5
 20
363.9999942183401
 30
0.0
 41
12.0
 42
12.0
 43
12.0
 50
270.0
  0
MTEXT
  5
179
330
171
100
AcDbEntity
  8
Ｓ_１_１
 62
     2
100
AcDbMText
 10
401.5
 20
379.999996840945
 30
0.0
 40
13.85161662817552
 41
0.0
 71
     5
 72
     1
  1
32
  7
EXCADDIM1
 11
0.0
 21
1.0
 31
0.0
  0
POINT
  5
17A
330
171
100
AcDbEntity
  8
DEFPOINTS
 62
     0
100
AcDbPoint
 10
511.00000178818
 20
395.99999946355
 30
0.0
  0
POINT
  5
17B
330
171
100
AcDbEntity
  8
DEFPOINTS
 62
     0
100
AcDbPoint
 10
510.00000178818
 20
363.99999421834
 30
0.0
  0
POINT
  5
17C
330
171
100
AcDbEntity
  8
DEFPOINTS
 62
     0
100
AcDbPoint
 10
412.5
 20
363.9999942183401
 30
0.0
  0
ENDBLK
  5
173
330
171
100
AcDbEntity
  8
0
100
AcDbBlockEnd
  0
BLOCK
  5
17F
330
17E
100
AcDbEntity
  8
0
100
AcDbBlockBegin
  2
*D17
 70
     1
 10
0.0
 20
0.0
 30
0.0
  3
*D17
  1

  0
LINE
  5
181
330
17E
100
AcDbEntity
  8
Ｓ_１_１
  6
CONTINUOUS
 62
     2
100
AcDbLine
 10
504.00000178818
 20
338.00000113248
 30
0.0
 11
381.0
 21
338.0000011324801
 31
0.0
  0
LINE
  5
182
330
17E
100
AcDbEntity
  8
Ｓ_１_１
  6
CONTINUOUS
 62
     2
100
AcDbLine
 10
505.00000178818
 20
395.99999946355
 30
0.0
 11
381.0
 21
395.9999994635501
 31
0.0
  0
LINE
  5
183
330
17E
100
AcDbEntity
  8
Ｓ_１_１
  6
CONTINUOUS
 62
     2
100
AcDbLine
 10
385.0
 20
350.0000011324801
 30
0.0
 11
385.0
 21
383.9999994635501
 31
0.0
  0
INSERT
  5
184
330
17E
100
AcDbEntity
  8
Ｓ_１_１
 62
     2
100
AcDbBlockReference
  2
EX_NORM
 10
385.0
 20
338.0000011324801
 30
0.0
 41
12.0
 42
12.0
 43
12.0
 50
270.0
  0
INSERT
  5
185
330
17E
100
AcDbEntity
  8
Ｓ_１_１
 62
     2
100
AcDbBlockReference
  2
EX_NORM
 10
385.0
 20
395.9999994635501
 30
0.0
 41
12.0
 42
12.0
 43
12.0
 50
90.0
  0
MTEXT
  5
186
330
17E
100
AcDbEntity
  8
Ｓ_１_１
 62
     2
100
AcDbMText
 10
374.0
 20
367.000000298015
 30
0.0
 40
13.85161662817552
 41
0.0
 71
     5
 72
     1
  1
58
  7
EXCADDIM1
 11
0.0
 21
1.0
 31
0.0
  0
POINT
  5
187
330
17E
100
AcDbEntity
  8
DEFPOINTS
 62
     0
100
AcDbPoint
 10
510.00000178818
 20
338.00000113248
 30
0.0
  0
POINT
  5
188
330
17E
100
AcDbEntity
  8
DEFPOINTS
 62
     0
100
AcDbPoint
 10
511.00000178818
 20
395.99999946355
 30
0.0
  0
POINT
  5
189
330
17E
100
AcDbEntity
  8
DEFPOINTS
 62
     0
100
AcDbPoint
 10
385.0
 20
395.9999994635501
 30
0.0
  0
ENDBLK
  5
180
330
17E
100
AcDbEntity
  8
0
100
AcDbBlockEnd
  0
BLOCK
  5
18C
330
18B
100
AcDbEntity
  8
0
100
AcDbBlockBegin
  2
*D18
 70
     1
 10
0.0
 20
0.0
 30
0.0
  3
*D18
  1

  0
LINE
  5
18E
330
18B
100
AcDbEntity
  8
Ｓ_１_１
  6
CONTINUOUS
 62
     2
100
AcDbLine
 10
504.00000178818
 20
338.00000113248
 30
0.0
 11
381.0
 21
338.0000011324801
 31
0.0
  0
LINE
  5
18F
330
18B
100
AcDbEntity
  8
Ｓ_１_１
  6
CONTINUOUS
 62
     2
100
AcDbLine
 10
595.99997570048
 20
220.0
 30
0.0
 11
381.0
 21
220.0
 31
0.0
  0
LINE
  5
190
330
18B
100
AcDbEntity
  8
Ｓ_１_１
  6
CONTINUOUS
 62
     2
100
AcDbLine
 10
385.0
 20
326.0000011324801
 30
0.0
 11
385.0
 21
232.0
 31
0.0
  0
INSERT
  5
191
330
18B
100
AcDbEntity
  8
Ｓ_１_１
 62
     2
100
AcDbBlockReference
  2
EX_NORM
 10
385.0
 20
338.0000011324801
 30
0.0
 41
12.0
 42
12.0
 43
12.0
 50
90.0
  0
INSERT
  5
192
330
18B
100
AcDbEntity
  8
Ｓ_１_１
 62
     2
100
AcDbBlockReference
  2
EX_NORM
 10
385.0
 20
220.0
 30
0.0
 41
12.0
 42
12.0
 43
12.0
 50
270.0
  0
MTEXT
  5
193
330
18B
100
AcDbEntity
  8
Ｓ_１_１
 62
     2
100
AcDbMText
 10
374.0
 20
279.00000056624
 30
0.0
 40
13.85161662817552
 41
0.0
 71
     5
 72
     1
  1
118
  7
EXCADDIM1
 11
0.0
 21
1.0
 31
0.0
  0
POINT
  5
194
330
18B
100
AcDbEntity
  8
DEFPOINTS
 62
     0
100
AcDbPoint
 10
510.00000178818
 20
338.00000113248
 30
0.0
  0
POINT
  5
195
330
18B
100
AcDbEntity
  8
DEFPOINTS
 62
     0
100
AcDbPoint
 10
601.99997570048
 20
220.0
 30
0.0
  0
POINT
  5
196
330
18B
100
AcDbEntity
  8
DEFPOINTS
 62
     0
100
AcDbPoint
 10
385.0
 20
220.0
 30
0.0
  0
ENDBLK
  5
18D
330
18B
100
AcDbEntity
  8
0
100
AcDbBlockEnd
  0
BLOCK
  5
199
330
198
100
AcDbEntity
  8
0
100
AcDbBlockBegin
  2
*D19
 70
     1
 10
0.0
 20
0.0
 30
0.0
  3
*D19
  1

  0
LINE
  5
19B
330
198
100
AcDbEntity
  8
Ｓ_１_１
  6
CONTINUOUS
 62
     2
100
AcDbLine
 10
595.99997570048
 20
220.0
 30
0.0
 11
353.5
 21
220.0
 31
0.0
  0
LINE
  5
19C
330
198
100
AcDbEntity
  8
Ｓ_１_１
  6
CONTINUOUS
 62
     2
100
AcDbLine
 10
505.00000178818
 20
395.99999946355
 30
0.0
 11
353.5
 21
395.9999994635501
 31
0.0
  0
LINE
  5
19D
330
198
100
AcDbEntity
  8
Ｓ_１_１
  6
CONTINUOUS
 62
     2
100
AcDbLine
 10
357.5
 20
232.0
 30
0.0
 11
357.5
 21
383.9999994635501
 31
0.0
  0
INSERT
  5
19E
330
198
100
AcDbEntity
  8
Ｓ_１_１
 62
     2
100
AcDbBlockReference
  2
EX_NORM
 10
357.5
 20
220.0
 30
0.0
 41
12.0
 42
12.0
 43
12.0
 50
270.0
  0
INSERT
  5
19F
330
198
100
AcDbEntity
  8
Ｓ_１_１
 62
     2
100
AcDbBlockReference
  2
EX_NORM
 10
357.5
 20
395.9999994635501
 30
0.0
 41
12.0
 42
12.0
 43
12.0
 50
90.0
  0
MTEXT
  5
1A0
330
198
100
AcDbEntity
  8
Ｓ_１_１
 62
     2
100
AcDbMText
 10
346.5
 20
307.999999731775
 30
0.0
 40
13.85161662817552
 41
0.0
 71
     5
 72
     1
  1
176
  7
EXCADDIM1
 11
0.0
 21
1.0
 31
0.0
  0
POINT
  5
1A1
330
198
100
AcDbEntity
  8
DEFPOINTS
 62
     0
100
AcDbPoint
 10
601.99997570048
 20
220.0
 30
0.0
  0
POINT
  5
1A2
330
198
100
AcDbEntity
  8
DEFPOINTS
 62
     0
100
AcDbPoint
 10
511.00000178818
 20
395.99999946355
 30
0.0
  0
POINT
  5
1A3
330
198
100
AcDbEntity
  8
DEFPOINTS
 62
     0
100
AcDbPoint
 10
357.5
 20
395.9999994635501
 30
0.0
  0
ENDBLK
  5
19A
330
198
100
AcDbEntity
  8
0
100
AcDbBlockEnd
  0
BLOCK
  5
1A6
330
1A5
100
AcDbEntity
  8
0
100
AcDbBlockBegin
  2
*D20
 70
     1
 10
0.0
 20
0.0
 30
0.0
  3
*D20
  1

  0
LINE
  5
1A8
330
1A5
100
AcDbEntity
  8
Ｓ_１_１
  6
CONTINUOUS
 62
     2
100
AcDbLine
 10
533.63751733307
 20
281.99999776482
 30
0.0
 11
463.5
 21
281.99999776482
 31
0.0
  0
LINE
  5
1A9
330
1A5
100
AcDbEntity
  8
Ｓ_１_１
  6
CONTINUOUS
 62
     2
100
AcDbLine
 10
533.63751733307
 20
301.99999731778
 30
0.0
 11
463.5
 21
301.99999731778
 31
0.0
  0
LINE
  5
1AA
330
1A5
100
AcDbEntity
  8
Ｓ_１_１
  6
CONTINUOUS
 62
     2
100
AcDbLine
 10
467.5
 20
281.99999776482
 30
0.0
 11
467.5
 21
301.99999731778
 31
0.0
  0
LINE
  5
1AB
330
1A5
100
AcDbEntity
  8
Ｓ_１_１
  6
CONTINUOUS
 62
     2
100
AcDbLine
 10
467.5
 20
269.99999776482
 30
0.0
 11
467.5
 21
257.99999776482
 31
0.0
  0
LINE
  5
1AC
330
1A5
100
AcDbEntity
  8
Ｓ_１_１
  6
CONTINUOUS
 62
     2
100
AcDbLine
 10
467.5
 20
313.99999731778
 30
0.0
 11
467.5
 21
325.99999731778
 31
0.0
  0
INSERT
  5
1AD
330
1A5
100
AcDbEntity
  8
Ｓ_１_１
 62
     2
100
AcDbBlockReference
  2
EX_NORM
 10
467.5
 20
281.99999776482
 30
0.0
 41
12.0
 42
12.0
 43
12.0
 50
90.0
  0
INSERT
  5
1AE
330
1A5
100
AcDbEntity
  8
Ｓ_１_１
 62
     2
100
AcDbBlockReference
  2
EX_NORM
 10
467.5
 20
301.99999731778
 30
0.0
 41
12.0
 42
12.0
 43
12.0
 50
270.0
  0
MTEXT
  5
1AF
330
1A5
100
AcDbEntity
  8
Ｓ_１_１
 62
     2
100
AcDbMText
 10
456.5000000000001
 20
251.9999977648199
 30
0.0
 40
13.85161662817552
 41
0.0
 71
     5
 72
     1
  1
%%c20
  7
EXCADDIM1
 11
0.0
 21
1.0
 31
0.0
  0
POINT
  5
1B0
330
1A5
100
AcDbEntity
  8
DEFPOINTS
 62
     0
100
AcDbPoint
 10
539.63751733307
 20
281.99999776482
 30
0.0
  0
POINT
  5
1B1
330
1A5
100
AcDbEntity
  8
DEFPOINTS
 62
     0
100
AcDbPoint
 10
539.63751733307
 20
301.99999731778
 30
0.0
  0
POINT
  5
1B2
330
1A5
100
AcDbEntity
  8
DEFPOINTS
 62
     0
100
AcDbPoint
 10
467.5
 20
301.99999731778
 30
0.0
  0
ENDBLK
  5
1A7
330
1A5
100
AcDbEntity
  8
0
100
AcDbBlockEnd
  0
BLOCK
  5
1B5
330
1B4
100
AcDbEntity
  8
0
100
AcDbBlockBegin
  2
*D21
 70
     1
 10
0.0
 20
0.0
 30
0.0
  3
*D21
  1

  0
LINE
  5
1B7
330
1B4
100
AcDbEntity
  8
Ｓ_１_１
  6
CONTINUOUS
 62
     2
100
AcDbLine
 10
834.00002429952
 20
220.0
 30
0.0
 11
994.0
 21
220.0
 31
0.0
  0
LINE
  5
1B8
330
1B4
100
AcDbEntity
  8
Ｓ_１_１
  6
CONTINUOUS
 62
     2
100
AcDbLine
 10
924.9343199724
 20
243.9997241503
 30
0.0
 11
994.0
 21
243.9997241503
 31
0.0
  0
LINE
  5
1B9
330
1B4
100
AcDbEntity
  8
Ｓ_１_１
  6
CONTINUOUS
 62
     2
100
AcDbLine
 10
990.0
 20
220.0
 30
0.0
 11
990.0
 21
243.9997241503
 31
0.0
  0
LINE
  5
1BA
330
1B4
100
AcDbEntity
  8
Ｓ_１_１
  6
CONTINUOUS
 62
     2
100
AcDbLine
 10
990.0
 20
208.0
 30
0.0
 11
990.0
 21
196.0
 31
0.0
  0
LINE
  5
1BB
330
1B4
100
AcDbEntity
  8
Ｓ_１_１
  6
CONTINUOUS
 62
     2
100
AcDbLine
 10
990.0
 20
255.9997241503
 30
0.0
 11
990.0
 21
267.9997241503
 31
0.0
  0
INSERT
  5
1BC
330
1B4
100
AcDbEntity
  8
Ｓ_１_１
 62
     2
100
AcDbBlockReference
  2
EX_NORM
 10
990.0
 20
220.0
 30
0.0
 41
12.0
 42
12.0
 43
12.0
 50
90.0
  0
INSERT
  5
1BD
330
1B4
100
AcDbEntity
  8
Ｓ_１_１
 62
     2
100
AcDbBlockReference
  2
EX_NORM
 10
990.0
 20
243.9997241503
 30
0.0
 41
12.0
 42
12.0
 43
12.0
 50
270.0
  0
MTEXT
  5
1BE
330
1B4
100
AcDbEntity
  8
Ｓ_１_１
 62
     2
100
AcDbMText
 10
979.0
 20
198.9999999999998
 30
0.0
 40
13.85161662817552
 41
0.0
 71
     5
 72
     1
  1
24
  7
EXCADDIM1
 11
0.0
 21
1.0
 31
0.0
  0
POINT
  5
1BF
330
1B4
100
AcDbEntity
  8
DEFPOINTS
 62
     0
100
AcDbPoint
 10
828.00002429952
 20
220.0
 30
0.0
  0
POINT
  5
1C0
330
1B4
100
AcDbEntity
  8
DEFPOINTS
 62
     0
100
AcDbPoint
 10
918.9343199724
 20
243.9997241503
 30
0.0
  0
POINT
  5
1C1
330
1B4
100
AcDbEntity
  8
DEFPOINTS
 62
     0
100
AcDbPoint
 10
990.0
 20
243.9997241503
 30
0.0
  0
ENDBLK
  5
1B6
330
1B4
100
AcDbEntity
  8
0
100
AcDbBlockEnd
  0
BLOCK
  5
1C4
330
1C3
100
AcDbEntity
  8
0
100
AcDbBlockBegin
  2
*D22
 70
     1
 10
0.0
 20
0.0
 30
0.0
  3
*D22
  1

  0
LINE
  5
1C6
330
1C3
100
AcDbEntity
  8
Ｓ_１_１
  6
CONTINUOUS
 62
     2
100
AcDbLine
 10
834.00002429952
 20
220.0
 30
0.0
 11
1021.5
 21
220.0
 31
0.0
  0
LINE
  5
1C7
330
1C3
100
AcDbEntity
  8
Ｓ_１_１
  6
CONTINUOUS
 62
     2
100
AcDbLine
 10
867.9999845235
 20
266.9999988079
 30
0.0
 11
1021.5
 21
266.9999988079
 31
0.0
  0
LINE
  5
1C8
330
1C3
100
AcDbEntity
  8
Ｓ_１_１
  6
CONTINUOUS
 62
     2
100
AcDbLine
 10
1017.5
 20
232.0
 30
0.0
 11
1017.5
 21
254.9999988079
 31
0.0
  0
INSERT
  5
1C9
330
1C3
100
AcDbEntity
  8
Ｓ_１_１
 62
     2
100
AcDbBlockReference
  2
EX_NORM
 10
1017.5
 20
220.0
 30
0.0
 41
12.0
 42
12.0
 43
12.0
 50
270.0
  0
INSERT
  5
1CA
330
1C3
100
AcDbEntity
  8
Ｓ_１_１
 62
     2
100
AcDbBlockReference
  2
EX_NORM
 10
1017.5
 20
266.9999988079
 30
0.0
 41
12.0
 42
12.0
 43
12.0
 50
90.0
  0
MTEXT
  5
1CB
330
1C3
100
AcDbEntity
  8
Ｓ_１_１
 62
     2
100
AcDbMText
 10
1006.5
 20
243.49999940395
 30
0.0
 40
13.85161662817552
 41
0.0
 71
     5
 72
     1
  1
47
  7
EXCADDIM1
 11
0.0
 21
1.0
 31
0.0
  0
POINT
  5
1CC
330
1C3
100
AcDbEntity
  8
DEFPOINTS
 62
     0
100
AcDbPoint
 10
828.00002429952
 20
220.0
 30
0.0
  0
POINT
  5
1CD
330
1C3
100
AcDbEntity
  8
DEFPOINTS
 62
     0
100
AcDbPoint
 10
861.9999845235
 20
266.9999988079
 30
0.0
  0
POINT
  5
1CE
330
1C3
100
AcDbEntity
  8
DEFPOINTS
 62
     0
100
AcDbPoint
 10
1017.5
 20
266.9999988079
 30
0.0
  0
ENDBLK
  5
1C5
330
1C3
100
AcDbEntity
  8
0
100
AcDbBlockEnd
  0
BLOCK
  5
1D1
330
1D0
100
AcDbEntity
  8
0
100
AcDbBlockBegin
  2
*D23
 70
     1
 10
0.0
 20
0.0
 30
0.0
  3
*D23
  1

  0
LINE
  5
1D3
330
1D0
100
AcDbEntity
  8
Ｓ_１_１
  6
CONTINUOUS
 62
     2
100
AcDbLine
 10
867.9999845235
 20
266.9999988079
 30
0.0
 11
1021.5
 21
266.9999988079
 31
0.0
  0
LINE
  5
1D4
330
1D0
100
AcDbEntity
  8
Ｓ_１_１
  6
CONTINUOUS
 62
     2
100
AcDbLine
 10
925.9999982119
 20
349.99999564885
 30
0.0
 11
1021.5
 21
349.99999564885
 31
0.0
  0
LINE
  5
1D5
330
1D0
100
AcDbEntity
  8
Ｓ_１_１
  6
CONTINUOUS
 62
     2
100
AcDbLine
 10
1017.5
 20
278.9999988079
 30
0.0
 11
1017.5
 21
337.99999564885
 31
0.0
  0
INSERT
  5
1D6
330
1D0
100
AcDbEntity
  8
Ｓ_１_１
 62
     2
100
AcDbBlockReference
  2
EX_NORM
 10
1017.5
 20
266.9999988079
 30
0.0
 41
12.0
 42
12.0
 43
12.0
 50
270.0
  0
INSERT
  5
1D7
330
1D0
100
AcDbEntity
  8
Ｓ_１_１
 62
     2
100
AcDbBlockReference
  2
EX_NORM
 10
1017.5
 20
349.99999564885
 30
0.0
 41
12.0
 42
12.0
 43
12.0
 50
90.0
  0
MTEXT
  5
1D8
330
1D0
100
AcDbEntity
  8
Ｓ_１_１
 62
     2
100
AcDbMText
 10
1006.5
 20
308.499997228375
 30
0.0
 40
13.85161662817552
 41
0.0
 71
     5
 72
     1
  1
83
  7
EXCADDIM1
 11
0.0
 21
1.0
 31
0.0
  0
POINT
  5
1D9
330
1D0
100
AcDbEntity
  8
DEFPOINTS
 62
     0
100
AcDbPoint
 10
861.9999845235
 20
266.9999988079
 30
0.0
  0
POINT
  5
1DA
330
1D0
100
AcDbEntity
  8
DEFPOINTS
 62
     0
100
AcDbPoint
 10
919.9999982119
 20
349.99999564885
 30
0.0
  0
POINT
  5
1DB
330
1D0
100
AcDbEntity
  8
DEFPOINTS
 62
     0
100
AcDbPoint
 10
1017.5
 20
349.99999564885
 30
0.0
  0
ENDBLK
  5
1D2
330
1D0
100
AcDbEntity
  8
0
100
AcDbBlockEnd
  0
BLOCK
  5
1DE
330
1DD
100
AcDbEntity
  8
0
100
AcDbBlockBegin
  2
*D24
 70
     1
 10
0.0
 20
0.0
 30
0.0
  3
*D24
  1

  0
LINE
  5
1E0
330
1DD
100
AcDbEntity
  8
Ｓ_１_１
  6
CONTINUOUS
 62
     2
100
AcDbLine
 10
977.744809461931
 20
387.7482081511253
 30
0.0
 11
1023.999535815287
 21
386.1329575142356
 31
0.0
  0
LINE
  5
1E1
330
1DD
100
AcDbEntity
  8
Ｓ_１_１
  6
CONTINUOUS
 62
     2
100
AcDbLine
 10
924.9999982119
 20
395.9999994635477
 30
0.0
 11
1024.171765673162
 21
395.9999994635477
 31
0.0
  0
ARC
  5
1E2
330
1DD
100
AcDbEntity
  8
Ｓ_１_１
  6
CONTINUOUS
 62
     2
100
AcDbCircle
 10
741.4444234016764
 20
395.9999994635477
 30
0.0
 40
278.7273422714859
100
AcDbArc
 50
353.0661283546301
 51
355.5330641773149
  0
ARC
  5
1E3
330
1DD
100
AcDbEntity
  8
Ｓ_１_１
  6
CONTINUOUS
 62
     2
100
AcDbCircle
 10
741.4444234016764
 20
395.9999994635477
 30
0.0
 40
278.7273422714859
100
AcDbArc
 50
2.466935822684795
 51
4.93387164536959
  0
ARC
  5
1E4
330
1DD
100
AcDbEntity
  8
Ｓ_１_１
  6
CONTINUOUS
 62
     2
100
AcDbCircle
 10
741.4444234016764
 20
395.9999994635477
 30
0.0
 40
278.7273422714859
100
AcDbArc
 50
357.9999999999997
 51
0.0
  0
INSERT
  5
1E5
330
1DD
100
AcDbEntity
  8
Ｓ_１_１
 62
     2
100
AcDbBlockReference
  2
EX_NORM
 10
1020.001972507211
 20
386.2725555010456
 30
0.0
 41
12.0
 42
12.0
 43
12.0
 50
86.7665320886573
  0
INSERT
  5
1E6
330
1DD
100
AcDbEntity
  8
Ｓ_１_１
 62
     2
100
AcDbBlockReference
  2
EX_NORM
 10
1020.171765673162
 20
395.9999994635477
 30
0.0
 41
12.0
 42
12.0
 43
12.0
 50
271.2334679113424
  0
MTEXT
  5
1E7
330
1DD
100
AcDbEntity
  8
Ｓ_１_１
 62
     2
100
AcDbMText
 10
1007.546320377717
 20
366.5430779423513
 30
0.0
 40
13.85161662817552
 41
0.0
 71
     5
 72
     1
  1
2%%d
  7
EXCADDIM1
 11
0.1100258243004781
 21
0.9939287288266702
 31
0.0
  0
POINT
  5
1E8
330
1DD
100
AcDbEntity
  8
DEFPOINTS
 62
     0
100
AcDbPoint
 10
741.4444234016764
 20
395.9999994635477
 30
0.0
  0
POINT
  5
1E9
330
1DD
100
AcDbEntity
  8
DEFPOINTS
 62
     0
100
AcDbPoint
 10
971.7484644998165
 20
387.9576051313404
 30
0.0
  0
POINT
  5
1EA
330
1DD
100
AcDbEntity
  8
DEFPOINTS
 62
     0
100
AcDbPoint
 10
918.9999982119
 20
395.9999994635477
 30
0.0
  0
POINT
  5
1EB
330
1DD
100
AcDbEntity
  8
DEFPOINTS
 62
     0
100
AcDbPoint
 10
1020.152898062958
 20
392.7569327501016
 30
0.0
  0
ENDBLK
  5
1DF
330
1DD
100
AcDbEntity
  8
0
100
AcDbBlockEnd
  0
BLOCK
  5
1EE
330
1ED
100
AcDbEntity
  8
0
100
AcDbBlockBegin
  2
*D25
 70
     1
 10
0.0
 20
0.0
 30
0.0
  3
*D25
  1

  0
LINE
  5
1F0
330
1ED
100
AcDbEntity
  8
Ｓ_１_１
  6
CONTINUOUS
 62
     2
100
AcDbLine
 10
834.00002429952
 20
220.0
 30
0.0
 11
1049.0
 21
220.0
 31
0.0
  0
LINE
  5
1F1
330
1ED
100
AcDbEntity
  8
Ｓ_１_１
  6
CONTINUOUS
 62
     2
100
AcDbLine
 10
925.9999982119
 20
349.99999564885
 30
0.0
 11
1049.0
 21
349.99999564885
 31
0.0
  0
LINE
  5
1F2
330
1ED
100
AcDbEntity
  8
Ｓ_１_１
  6
CONTINUOUS
 62
     2
100
AcDbLine
 10
1045.0
 20
232.0
 30
0.0
 11
1045.0
 21
337.99999564885
 31
0.0
  0
INSERT
  5
1F3
330
1ED
100
AcDbEntity
  8
Ｓ_１_１
 62
     2
100
AcDbBlockReference
  2
EX_NORM
 10
1045.0
 20
220.0
 30
0.0
 41
12.0
 42
12.0
 43
12.0
 50
270.0
  0
INSERT
  5
1F4
330
1ED
100
AcDbEntity
  8
Ｓ_１_１
 62
     2
100
AcDbBlockReference
  2
EX_NORM
 10
1045.0
 20
349.99999564885
 30
0.0
 41
12.0
 42
12.0
 43
12.0
 50
90.0
  0
MTEXT
  5
1F5
330
1ED
100
AcDbEntity
  8
Ｓ_１_１
 62
     2
100
AcDbMText
 10
1034.0
 20
284.999997824425
 30
0.0
 40
13.85161662817552
 41
0.0
 71
     5
 72
     1
  1
130
  7
EXCADDIM1
 11
0.0
 21
1.0
 31
0.0
  0
POINT
  5
1F6
330
1ED
100
AcDbEntity
  8
DEFPOINTS
 62
     0
100
AcDbPoint
 10
828.00002429952
 20
220.0
 30
0.0
  0
POINT
  5
1F7
330
1ED
100
AcDbEntity
  8
DEFPOINTS
 62
     0
100
AcDbPoint
 10
919.9999982119
 20
349.99999564885
 30
0.0
  0
POINT
  5
1F8
330
1ED
100
AcDbEntity
  8
DEFPOINTS
 62
     0
100
AcDbPoint
 10
1045.0
 20
349.99999564885
 30
0.0
  0
ENDBLK
  5
1EF
330
1ED
100
AcDbEntity
  8
0
100
AcDbBlockEnd
  0
BLOCK
  5
1FB
330
1FA
100
AcDbEntity
  8
0
100
AcDbBlockBegin
  2
*D26
 70
     1
 10
0.0
 20
0.0
 30
0.0
  3
*D26
  1

  0
LINE
  5
1FD
330
1FA
100
AcDbEntity
  8
Ｓ_１_１
  6
CONTINUOUS
 62
     2
100
AcDbLine
 10
830.0001309724003
 20
216.0001070100001
 30
0.0
 11
830.0001309724003
 21
161.0
 31
0.0
  0
LINE
  5
1FE
330
1FA
100
AcDbEntity
  8
Ｓ_１_１
  6
CONTINUOUS
 62
     2
100
AcDbLine
 10
600.0000004843004
 20
216.0001070100001
 30
0.0
 11
600.0000004843004
 21
161.0
 31
0.0
  0
LINE
  5
1FF
330
1FA
100
AcDbEntity
  8
Ｓ_１_１
  6
CONTINUOUS
 62
     2
100
AcDbLine
 10
818.0001309724003
 20
165.0
 30
0.0
 11
612.0000004843004
 21
165.0
 31
0.0
  0
INSERT
  5
200
330
1FA
100
AcDbEntity
  8
Ｓ_１_１
 62
     2
100
AcDbBlockReference
  2
EX_NORM
 10
830.0001309724003
 20
165.0
 30
0.0
 41
12.0
 42
12.0
 43
12.0
  0
INSERT
  5
201
330
1FA
100
AcDbEntity
  8
Ｓ_１_１
 62
     2
100
AcDbBlockReference
  2
EX_NORM
 10
600.0000004843004
 20
165.0
 30
0.0
 41
12.0
 42
12.0
 43
12.0
 50
180.0
  0
MTEXT
  5
202
330
1FA
100
AcDbEntity
  8
Ｓ_１_１
 62
     2
100
AcDbMText
 10
715.0000657283504
 20
176.0
 30
0.0
 40
13.85161662817552
 41
0.0
 71
     5
 72
     1
  1
%%c230
  7
EXCADDIM1
  0
POINT
  5
203
330
1FA
100
AcDbEntity
  8
DEFPOINTS
 62
     0
100
AcDbPoint
 10
830.0001309724003
 20
222.0001070100001
 30
0.0
  0
POINT
  5
204
330
1FA
100
AcDbEntity
  8
DEFPOINTS
 62
     0
100
AcDbPoint
 10
600.0000004843004
 20
222.0001070100001
 30
0.0
  0
POINT
  5
205
330
1FA
100
AcDbEntity
  8
DEFPOINTS
 62
     0
100
AcDbPoint
 10
600.0000004843004
 20
165.0
 30
0.0
  0
ENDBLK
  5
1FC
330
1FA
100
AcDbEntity
  8
0
100
AcDbBlockEnd
  0
BLOCK
  5
208
330
207
100
AcDbEntity
  8
0
100
AcDbBlockBegin
  2
*D27
 70
     1
 10
0.0
 20
0.0
 30
0.0
  3
*D27
  1

  0
LINE
  5
20A
330
207
100
AcDbEntity
  8
Ｓ_１_１
  6
CONTINUOUS
 62
     2
100
AcDbLine
 10
830.0001309724
 20
216.00010701
 30
0.0
 11
830.0001309724
 21
161.0
 31
0.0
  0
LINE
  5
20B
330
207
100
AcDbEntity
  8
Ｓ_１_１
  6
CONTINUOUS
 62
     2
100
AcDbLine
 10
915.3623899724
 20
225.9997241503
 30
0.0
 11
915.3623899724
 21
161.0
 31
0.0
  0
LINE
  5
20C
330
207
100
AcDbEntity
  8
Ｓ_１_１
  6
CONTINUOUS
 62
     2
100
AcDbLine
 10
842.0001309724
 20
165.0
 30
0.0
 11
903.3623899724
 21
165.0
 31
0.0
  0
INSERT
  5
20D
330
207
100
AcDbEntity
  8
Ｓ_１_１
 62
     2
100
AcDbBlockReference
  2
EX_NORM
 10
830.0001309724
 20
165.0
 30
0.0
 41
12.0
 42
12.0
 43
12.0
 50
180.0
  0
INSERT
  5
20E
330
207
100
AcDbEntity
  8
Ｓ_１_１
 62
     2
100
AcDbBlockReference
  2
EX_NORM
 10
915.3623899724
 20
165.0
 30
0.0
 41
12.0
 42
12.0
 43
12.0
  0
MTEXT
  5
20F
330
207
100
AcDbEntity
  8
Ｓ_１_１
 62
     2
100
AcDbMText
 10
872.6812604724
 20
176.0
 30
0.0
 40
13.85161662817552
 41
0.0
 71
     5
 72
     1
  1
(85)
  7
EXCADDIM1
  0
POINT
  5
210
330
207
100
AcDbEntity
  8
DEFPOINTS
 62
     0
100
AcDbPoint
 10
830.0001309724
 20
222.00010701
 30
0.0
  0
POINT
  5
211
330
207
100
AcDbEntity
  8
DEFPOINTS
 62
     0
100
AcDbPoint
 10
915.3623899724
 20
231.9997241503
 30
0.0
  0
POINT
  5
212
330
207
100
AcDbEntity
  8
DEFPOINTS
 62
     0
100
AcDbPoint
 10
915.3623899724
 20
165.0
 30
0.0
  0
ENDBLK
  5
209
330
207
100
AcDbEntity
  8
0
100
AcDbBlockEnd
  0
BLOCK
  5
215
330
214
100
AcDbEntity
  8
0
100
AcDbBlockBegin
  2
*D28
 70
     1
 10
0.0
 20
0.0
 30
0.0
  3
*D28
  1

  0
LINE
  5
217
330
214
100
AcDbEntity
  8
Ｓ_１_１
  6
CONTINUOUS
 62
     2
100
AcDbLine
 10
565.0000011921
 20
344.00000113248
 30
0.0
 11
565.0000011921
 21
444.0
 31
0.0
  0
LINE
  5
218
330
214
100
AcDbEntity
  8
Ｓ_１_１
  6
CONTINUOUS
 62
     2
100
AcDbLine
 10
864.9999990315
 20
353.99999542522
 30
0.0
 11
864.9999990315
 21
444.0
 31
0.0
  0
LINE
  5
219
330
214
100
AcDbEntity
  8
Ｓ_１_１
  6
CONTINUOUS
 62
     2
100
AcDbLine
 10
577.0000011921
 20
440.0
 30
0.0
 11
852.9999990315
 21
440.0
 31
0.0
  0
INSERT
  5
21A
330
214
100
AcDbEntity
  8
Ｓ_１_１
 62
     2
100
AcDbBlockReference
  2
EX_NORM
 10
565.0000011921
 20
440.0
 30
0.0
 41
12.0
 42
12.0
 43
12.0
 50
180.0
  0
INSERT
  5
21B
330
214
100
AcDbEntity
  8
Ｓ_１_１
 62
     2
100
AcDbBlockReference
  2
EX_NORM
 10
864.9999990315
 20
440.0
 30
0.0
 41
12.0
 42
12.0
 43
12.0
  0
MTEXT
  5
21C
330
214
100
AcDbEntity
  8
Ｓ_１_１
 62
     2
100
AcDbMText
 10
715.0000001118
 20
451.0
 30
0.0
 40
13.85161662817552
 41
0.0
 71
     5
 72
     1
  1
%%c300
  7
EXCADDIM1
  0
POINT
  5
21D
330
214
100
AcDbEntity
  8
DEFPOINTS
 62
     0
100
AcDbPoint
 10
565.0000011921
 20
338.00000113248
 30
0.0
  0
POINT
  5
21E
330
214
100
AcDbEntity
  8
DEFPOINTS
 62
     0
100
AcDbPoint
 10
864.9999990315
 20
347.99999542522
 30
0.0
  0
POINT
  5
21F
330
214
100
AcDbEntity
  8
DEFPOINTS
 62
     0
100
AcDbPoint
 10
864.9999990315
 20
440.0
 30
0.0
  0
ENDBLK
  5
216
330
214
100
AcDbEntity
  8
0
100
AcDbBlockEnd
  0
BLOCK
  5
229
330
228
100
AcDbEntity
  8
0
100
AcDbBlockBegin
  2
*D29
 70
     1
 10
0.0
 20
0.0
 30
0.0
  3
*D29
  1

  0
LINE
  5
22B
330
228
100
AcDbEntity
  8
Ｓ_１_１
  6
CONTINUOUS
 62
     2
100
AcDbLine
 10
482.0
 20
659.000031
 30
0.0
 11
482.0
 21
518.5
 31
0.0
  0
LINE
  5
22C
330
228
100
AcDbEntity
  8
Ｓ_１_１
  6
CONTINUOUS
 62
     2
100
AcDbLine
 10
510.0
 20
660.0
 30
0.0
 11
510.0
 21
518.5
 31
0.0
  0
LINE
  5
22D
330
228
100
AcDbEntity
  8
Ｓ_１_１
  6
CONTINUOUS
 62
     2
100
AcDbLine
 10
494.0
 20
522.5
 30
0.0
 11
498.0
 21
522.5
 31
0.0
  0
INSERT
  5
22E
330
228
100
AcDbEntity
  8
Ｓ_１_１
 62
     2
100
AcDbBlockReference
  2
EX_NORM
 10
482.0
 20
522.5
 30
0.0
 41
12.0
 42
12.0
 43
12.0
 50
180.0
  0
INSERT
  5
22F
330
228
100
AcDbEntity
  8
Ｓ_１_１
 62
     2
100
AcDbBlockReference
  2
EX_NORM
 10
510.0
 20
522.5
 30
0.0
 41
12.0
 42
12.0
 43
12.0
  0
MTEXT
  5
230
330
228
100
AcDbEntity
  8
Ｓ_１_１
 62
     2
100
AcDbMText
 10
416.0000000000001
 20
533.5
 30
0.0
 40
13.85161662817552
 41
0.0
 71
     5
 72
     1
  1
28（移動量）
  7
EXCADDIM1
  0
POINT
  5
231
330
228
100
AcDbEntity
  8
DEFPOINTS
 62
     0
100
AcDbPoint
 10
482.0
 20
665.000031
 30
0.0
  0
POINT
  5
232
330
228
100
AcDbEntity
  8
DEFPOINTS
 62
     0
100
AcDbPoint
 10
510.0
 20
666.0
 30
0.0
  0
POINT
  5
233
330
228
100
AcDbEntity
  8
DEFPOINTS
 62
     0
100
AcDbPoint
 10
510.0
 20
522.5
 30
0.0
  0
ENDBLK
  5
22A
330
228
100
AcDbEntity
  8
0
100
AcDbBlockEnd
  0
BLOCK
  5
236
330
235
100
AcDbEntity
  8
0
100
AcDbBlockBegin
  2
*D30
 70
     1
 10
0.0
 20
0.0
 30
0.0
  3
*D30
  1

  0
LINE
  5
238
330
235
100
AcDbEntity
  8
Ｓ_１_１
  6
CONTINUOUS
 62
     2
100
AcDbLine
 10
510.0
 20
659.000031
 30
0.0
 11
510.0
 21
518.5
 31
0.0
  0
LINE
  5
239
330
235
100
AcDbEntity
  8
Ｓ_１_１
  6
CONTINUOUS
 62
     2
100
AcDbLine
 10
920.0
 20
659.000031
 30
0.0
 11
920.0
 21
518.5
 31
0.0
  0
LINE
  5
23A
330
235
100
AcDbEntity
  8
Ｓ_１_１
  6
CONTINUOUS
 62
     2
100
AcDbLine
 10
522.0
 20
522.5
 30
0.0
 11
908.0
 21
522.5
 31
0.0
  0
INSERT
  5
23B
330
235
100
AcDbEntity
  8
Ｓ_１_１
 62
     2
100
AcDbBlockReference
  2
EX_NORM
 10
510.0
 20
522.5
 30
0.0
 41
12.0
 42
12.0
 43
12.0
 50
180.0
  0
INSERT
  5
23C
330
235
100
AcDbEntity
  8
Ｓ_１_１
 62
     2
100
AcDbBlockReference
  2
EX_NORM
 10
920.0
 20
522.5
 30
0.0
 41
12.0
 42
12.0
 43
12.0
  0
MTEXT
  5
23D
330
235
100
AcDbEntity
  8
Ｓ_１_１
 62
     2
100
AcDbMText
 10
715.0
 20
533.5
 30
0.0
 40
13.85161662817552
 41
0.0
 71
     5
 72
     1
  1
410
  7
EXCADDIM1
  0
POINT
  5
23E
330
235
100
AcDbEntity
  8
DEFPOINTS
 62
     0
100
AcDbPoint
 10
510.0
 20
665.000031
 30
0.0
  0
POINT
  5
23F
330
235
100
AcDbEntity
  8
DEFPOINTS
 62
     0
100
AcDbPoint
 10
920.0
 20
665.000031
 30
0.0
  0
POINT
  5
240
330
235
100
AcDbEntity
  8
DEFPOINTS
 62
     0
100
AcDbPoint
 10
920.0
 20
522.5
 30
0.0
  0
ENDBLK
  5
237
330
235
100
AcDbEntity
  8
0
100
AcDbBlockEnd
  0
BLOCK
  5
243
330
242
100
AcDbEntity
  8
0
100
AcDbBlockBegin
  2
*D31
 70
     1
 10
0.0
 20
0.0
 30
0.0
  3
*D31
  1

  0
LINE
  5
245
330
242
100
AcDbEntity
  8
Ｓ_１_１
  6
CONTINUOUS
 62
     2
100
AcDbLine
 10
920.0
 20
659.000031
 30
0.0
 11
920.0
 21
518.5
 31
0.0
  0
LINE
  5
246
330
242
100
AcDbEntity
  8
Ｓ_１_１
  6
CONTINUOUS
 62
     2
100
AcDbLine
 10
948.0
 20
659.000031
 30
0.0
 11
948.0
 21
518.5
 31
0.0
  0
LINE
  5
247
330
242
100
AcDbEntity
  8
Ｓ_１_１
  6
CONTINUOUS
 62
     2
100
AcDbLine
 10
932.0
 20
522.5
 30
0.0
 11
936.0
 21
522.5
 31
0.0
  0
INSERT
  5
248
330
242
100
AcDbEntity
  8
Ｓ_１_１
 62
     2
100
AcDbBlockReference
  2
EX_NORM
 10
920.0
 20
522.5
 30
0.0
 41
12.0
 42
12.0
 43
12.0
 50
180.0
  0
INSERT
  5
249
330
242
100
AcDbEntity
  8
Ｓ_１_１
 62
     2
100
AcDbBlockReference
  2
EX_NORM
 10
948.0
 20
522.5
 30
0.0
 41
12.0
 42
12.0
 43
12.0
  0
MTEXT
  5
24A
330
242
100
AcDbEntity
  8
Ｓ_１_１
 62
     2
100
AcDbMText
 10
1014.0
 20
533.5
 30
0.0
 40
13.85161662817552
 41
0.0
 71
     5
 72
     1
  1
28（移動量）
  7
EXCADDIM1
  0
POINT
  5
24B
330
242
100
AcDbEntity
  8
DEFPOINTS
 62
     0
100
AcDbPoint
 10
920.0
 20
665.000031
 30
0.0
  0
POINT
  5
24C
330
242
100
AcDbEntity
  8
DEFPOINTS
 62
     0
100
AcDbPoint
 10
948.0
 20
665.000031
 30
0.0
  0
POINT
  5
24D
330
242
100
AcDbEntity
  8
DEFPOINTS
 62
     0
100
AcDbPoint
 10
948.0
 20
522.5
 30
0.0
  0
ENDBLK
  5
244
330
242
100
AcDbEntity
  8
0
100
AcDbBlockEnd
  0
BLOCK
  5
250
330
24F
100
AcDbEntity
  8
0
100
AcDbBlockBegin
  2
*D32
 70
     1
 10
0.0
 20
0.0
 30
0.0
  3
*D32
  1

  0
LINE
  5
252
330
24F
100
AcDbEntity
  8
Ｓ_１_１
  6
CONTINUOUS
 62
     2
100
AcDbLine
 10
584.0
 20
585.000031
 30
0.0
 11
408.5
 21
585.000031
 31
0.0
  0
LINE
  5
253
330
24F
100
AcDbEntity
  8
Ｓ_１_１
  6
CONTINUOUS
 62
     2
100
AcDbLine
 10
584.0
 20
954.999969
 30
0.0
 11
408.5
 21
954.999969
 31
0.0
  0
LINE
  5
254
330
24F
100
AcDbEntity
  8
Ｓ_１_１
  6
CONTINUOUS
 62
     2
100
AcDbLine
 10
412.5
 20
597.000031
 30
0.0
 11
412.5
 21
942.999969
 31
0.0
  0
INSERT
  5
255
330
24F
100
AcDbEntity
  8
Ｓ_１_１
 62
     2
100
AcDbBlockReference
  2
EX_NORM
 10
412.5
 20
585.000031
 30
0.0
 41
12.0
 42
12.0
 43
12.0
 50
270.0
  0
INSERT
  5
256
330
24F
100
AcDbEntity
  8
Ｓ_１_１
 62
     2
100
AcDbBlockReference
  2
EX_NORM
 10
412.5
 20
954.999969
 30
0.0
 41
12.0
 42
12.0
 43
12.0
 50
90.0
  0
MTEXT
  5
257
330
24F
100
AcDbEntity
  8
Ｓ_１_１
 62
     2
100
AcDbMText
 10
401.5000000000001
 20
770.0
 30
0.0
 40
13.85161662817552
 41
0.0
 71
     5
 72
     1
  1
370
  7
EXCADDIM1
 11
0.0
 21
1.0
 31
0.0
  0
POINT
  5
258
330
24F
100
AcDbEntity
  8
DEFPOINTS
 62
     0
100
AcDbPoint
 10
590.0
 20
585.000031
 30
0.0
  0
POINT
  5
259
330
24F
100
AcDbEntity
  8
DEFPOINTS
 62
     0
100
AcDbPoint
 10
590.0
 20
954.999969
 30
0.0
  0
POINT
  5
25A
330
24F
100
AcDbEntity
  8
DEFPOINTS
 62
     0
100
AcDbPoint
 10
412.5
 20
954.999969
 30
0.0
  0
ENDBLK
  5
251
330
24F
100
AcDbEntity
  8
0
100
AcDbBlockEnd
  0
BLOCK
  5
25D
330
25C
100
AcDbEntity
  8
0
100
AcDbBlockBegin
  2
*D33
 70
     1
 10
0.0
 20
0.0
 30
0.0
  3
*D33
  1

  0
LINE
  5
25F
330
25C
100
AcDbEntity
  8
Ｓ_１_１
  6
CONTINUOUS
 62
     2
100
AcDbLine
 10
721.0
 20
617.0
 30
0.0
 11
1021.5
 21
616.9999999999999
 31
0.0
  0
LINE
  5
260
330
25C
100
AcDbEntity
  8
Ｓ_１_１
  6
CONTINUOUS
 62
     2
100
AcDbLine
 10
721.0
 20
923.0
 30
0.0
 11
1021.5
 21
922.9999999999999
 31
0.0
  0
LINE
  5
261
330
25C
100
AcDbEntity
  8
Ｓ_１_１
  6
CONTINUOUS
 62
     2
100
AcDbLine
 10
1017.5
 20
628.9999999999999
 30
0.0
 11
1017.5
 21
910.9999999999999
 31
0.0
  0
INSERT
  5
262
330
25C
100
AcDbEntity
  8
Ｓ_１_１
 62
     2
100
AcDbBlockReference
  2
EX_NORM
 10
1017.5
 20
616.9999999999999
 30
0.0
 41
12.0
 42
12.0
 43
12.0
 50
270.0
  0
INSERT
  5
263
330
25C
100
AcDbEntity
  8
Ｓ_１_１
 62
     2
100
AcDbBlockReference
  2
EX_NORM
 10
1017.5
 20
922.9999999999999
 30
0.0
 41
12.0
 42
12.0
 43
12.0
 50
90.0
  0
MTEXT
  5
264
330
25C
100
AcDbEntity
  8
Ｓ_１_１
 62
     2
100
AcDbMText
 10
1006.5
 20
770.0
 30
0.0
 40
13.85161662817552
 41
0.0
 71
     5
 72
     1
  1
306
  7
EXCADDIM1
 11
0.0
 21
1.0
 31
0.0
  0
POINT
  5
265
330
25C
100
AcDbEntity
  8
DEFPOINTS
 62
     0
100
AcDbPoint
 10
715.0
 20
617.0
 30
0.0
  0
POINT
  5
266
330
25C
100
AcDbEntity
  8
DEFPOINTS
 62
     0
100
AcDbPoint
 10
715.0
 20
923.0
 30
0.0
  0
POINT
  5
267
330
25C
100
AcDbEntity
  8
DEFPOINTS
 62
     0
100
AcDbPoint
 10
1017.5
 20
922.9999999999999
 30
0.0
  0
ENDBLK
  5
25E
330
25C
100
AcDbEntity
  8
0
100
AcDbBlockEnd
  0
BLOCK
  5
26B
330
26A
100
AcDbEntity
  8
0
100
AcDbBlockBegin
  2
*D34
 70
     1
 10
0.0
 20
0.0
 30
0.0
  3
*D34
  1

  0
LINE
  5
26D
330
26A
100
AcDbEntity
  8
Ｓ_１_１
  6
CONTINUOUS
 62
     2
100
AcDbLine
 10
765.2294734194966
 20
799.0000000000016
 30
0.0
 11
664.7705265805034
 21
740.9999999999984
 31
0.0
  0
MTEXT
  5
26E
330
26A
100
AcDbEntity
  8
Ｓ_１_１
 62
     2
100
AcDbMText
 10
736.4261008749497
 20
795.0720710300086
 30
0.0
 40
13.85161662817552
 41
0.0
 71
     5
 72
     1
  1
%%c140
  7
EXCADDIM1
 11
0.8660254037844227
 21
0.5000000000000275
 31
0.0
  0
INSERT
  5
26F
330
26A
100
AcDbEntity
  8
Ｓ_１_１
 62
     2
100
AcDbBlockReference
  2
EX_NORM
 10
654.3782217350904
 20
734.9999999999981
 30
0.0
 41
12.0
 42
12.0
 43
12.0
 50
210.0000000000018
  0
INSERT
  5
270
330
26A
100
AcDbEntity
  8
Ｓ_１_１
 62
     2
100
AcDbBlockReference
  2
EX_NORM
 10
775.6217782649096
 20
805.0000000000019
 30
0.0
 41
12.0
 42
12.0
 43
12.0
 50
30.00000000000182
  0
POINT
  5
271
330
26A
100
AcDbEntity
  8
DEFPOINTS
 62
     0
100
AcDbPoint
 10
775.6217782649096
 20
805.0000000000019
 30
0.0
  0
POINT
  5
272
330
26A
100
AcDbEntity
  8
DEFPOINTS
 62
     0
100
AcDbPoint
 10
654.3782217350904
 20
734.9999999999981
 30
0.0
  0
ENDBLK
  5
26C
330
26A
100
AcDbEntity
  8
0
100
AcDbBlockEnd
  0
ENDSEC
  0
SECTION
  2
ENTITIES
  0
LINE
  5
D4
330
1F
100
AcDbEntity
  8
図面枠
  6
CONTINUOUS
 62
     5
100
AcDbLine
 10
40.0
 20
40.0
 30
0.0
 11
1640.0
 21
40.0
 31
0.0
  0
LINE
  5
D5
330
1F
100
AcDbEntity
  8
図面枠
  6
CONTINUOUS
 62
     5
100
AcDbLine
 10
1640.0
 20
40.0
 30
0.0
 11
1640.0
 21
1148.0
 31
0.0
  0
LINE
  5
D6
330
1F
100
AcDbEntity
  8
図面枠
  6
CONTINUOUS
 62
     5
100
AcDbLine
 10
1640.0
 20
1148.0
 30
0.0
 11
40.00000000000021
 21
1148.0
 31
0.0
  0
LINE
  5
D7
330
1F
100
AcDbEntity
  8
図面枠
  6
CONTINUOUS
 62
     5
100
AcDbLine
 10
40.00000000000021
 20
1148.0
 30
0.0
 11
40.0
 21
40.0
 31
0.0
  0
LINE
  5
D8
330
1F
100
AcDbEntity
  8
図面枠
  6
CONTINUOUS
 62
     3
100
AcDbLine
 10
60.00000000000006
 20
1128.0
 30
0.0
 11
60.00000000000006
 21
1092.0
 31
0.0
  0
TEXT
  5
DA
330
1F
100
AcDbEntity
  8
図面枠
  6
CONTINUOUS
 62
     4
100
AcDbText
 10
1548.0
 20
1085.53125
 30
0.0
 40
13.85161662817552
  1
kN
 41
0.9992307692307693
  7
EXCADTTF1
 72
     5
 11
1566.0
 21
1085.53125
 31
0.0
100
AcDbText
  0
LINE
  5
DB
330
1F
100
AcDbEntity
  8
図面枠
  6
CONTINUOUS
 62
     3
100
AcDbLine
 10
1620.0
 20
96.0
 30
0.0
 11
1620.0
 21
60.0
 31
0.0
  0
TEXT
  5
DC
330
1F
100
AcDbEntity
  8
図面枠
  6
CONTINUOUS
 62
     4
100
AcDbText
 10
1548.0
 20
917.53125
 30
0.0
 40
13.85161662817552
  1
cm
 41
0.9992307692307693
  7
EXCADTTF1
 72
     5
 11
1566.0
 21
917.53125
 31
0.0
100
AcDbText
  0
TEXT
  5
DD
330
1F
100
AcDbEntity
  8
図面枠
  6
CONTINUOUS
 62
     4
100
AcDbText
 10
1560.6
 20
926.0390626341105
 30
0.0
 40
6.23322704234795
  1
2
 41
0.9992308398189645
  7
EXCADTTF1
 72
     5
 11
1564.65
 21
926.0390626341105
 31
0.0
100
AcDbText
  0
TEXT
  5
DE
330
1F
100
AcDbEntity
  8
図面枠
  6
CONTINUOUS
 62
     4
100
AcDbText
 10
1548.0
 20
1013.53125
 30
0.0
 40
13.85161662817552
  1
mm
 41
0.9992307692307693
  7
EXCADTTF1
 72
     5
 11
1566.0
 21
1013.53125
 31
0.0
100
AcDbText
  0
TEXT
  5
DF
330
1F
100
AcDbEntity
  8
図面枠
  6
CONTINUOUS
 62
     4
100
AcDbText
 10
1548.0
 20
1037.53125
 30
0.0
 40
13.85161662817552
  1
mm
 41
0.9992307692307693
  7
EXCADTTF1
 72
     5
 11
1566.0
 21
1037.53125
 31
0.0
100
AcDbText
  0
TEXT
  5
E0
330
1F
100
AcDbEntity
  8
図面枠
  6
CONTINUOUS
 62
     4
100
AcDbText
 10
1548.0
 20
1061.53125
 30
0.0
 40
13.85161662817552
  1
mm
 41
0.9992307692307693
  7
EXCADTTF1
 72
     5
 11
1566.0
 21
1061.53125
 31
0.0
100
AcDbText
  0
TEXT
  5
E1
330
1F
100
AcDbEntity
  8
図面枠
  6
CONTINUOUS
 62
     4
100
AcDbText
 10
1548.0
 20
893.53125
 30
0.0
 40
13.85161662817552
  1
MPa
 41
0.9992307692307694
  7
EXCADTTF1
 72
     5
 11
1575.0
 21
893.53125
 31
0.0
100
AcDbText
  0
TEXT
  5
E2
330
1F
100
AcDbEntity
  8
図面枠
  6
CONTINUOUS
 62
     4
100
AcDbText
 10
1548.0
 20
941.53125
 30
0.0
 40
13.85161662817552
  1
mm
 41
0.9992307692307693
  7
EXCADTTF1
 72
     5
 11
1566.0
 21
941.53125
 31
0.0
100
AcDbText
  0
TEXT
  5
E3
330
1F
100
AcDbEntity
  8
図面枠
  6
CONTINUOUS
 62
     4
100
AcDbText
 10
1548.0
 20
965.53125
 30
0.0
 40
13.85161662817552
  1
mm
 41
0.9992307692307693
  7
EXCADTTF1
 72
     5
 11
1566.0
 21
965.53125
 31
0.0
100
AcDbText
  0
TEXT
  5
E4
330
1F
100
AcDbEntity
  8
図面枠
  6
CONTINUOUS
 62
     4
100
AcDbText
 10
1548.0
 20
989.53125
 30
0.0
 40
13.85161662817552
  1
mm
 41
0.9992307692307693
  7
EXCADTTF1
 72
     5
 11
1566.0
 21
989.53125
 31
0.0
100
AcDbText
  0
TEXT
  5
E5
330
1F
100
AcDbEntity
  8
図面枠
  6
CONTINUOUS
 62
     4
100
AcDbText
 10
1548.0
 20
821.53125
 30
0.0
 40
13.85161662817552
  1
kg
 41
0.9992307692307693
  7
EXCADTTF1
 72
     5
 11
1566.0
 21
821.53125
 31
0.0
100
AcDbText
  0
TEXT
  5
E6
330
1F
100
AcDbEntity
  8
図面枠
  6
CONTINUOUS
 62
     4
100
AcDbText
 10
1548.0
 20
845.53125
 30
0.0
 40
13.85161662817552
  1
kg
 41
0.9992307692307693
  7
EXCADTTF1
 72
     5
 11
1566.0
 21
845.53125
 31
0.0
100
AcDbText
  0
TEXT
  5
E7
330
1F
100
AcDbEntity
  8
図面枠
  6
CONTINUOUS
 62
     4
100
AcDbText
 10
1384.0
 20
845.53125
 30
0.0
 40
13.85161662817552
  1
ジャッキ
 41
0.9992307692307693
  7
EXCADTTF1
 72
     5
 11
1456.0
 21
845.53125
 31
0.0
100
AcDbText
  0
TEXT
  5
E8
330
1F
100
AcDbEntity
  8
図面枠
  6
CONTINUOUS
 62
     4
100
AcDbText
 10
1384.0
 20
821.53125
 30
0.0
 40
13.85161662817552
  1
プレート
 41
0.9992307692307693
  7
EXCADTTF1
 72
     5
 11
1456.0
 21
821.53125
 31
0.0
100
AcDbText
  0
LINE
  5
E9
330
1F
100
AcDbEntity
  8
図面枠
  6
CONTINUOUS
 62
     2
100
AcDbLine
 10
1380.0
 20
864.0
 30
0.0
 11
1380.0
 21
816.0
 31
0.0
  0
LINE
  5
EA
330
1F
100
AcDbEntity
  8
図面枠
  6
CONTINUOUS
 62
     2
100
AcDbLine
 10
1380.0
 20
840.0
 30
0.0
 11
1620.0
 21
840.0
 31
0.0
  0
LINE
  5
EB
330
1F
100
AcDbEntity
  8
図面枠
  6
CONTINUOUS
 62
     2
100
AcDbLine
 10
1460.0
 20
1104.0
 30
0.0
 11
1460.0
 21
816.0
 31
0.0
  0
LINE
  5
EC
330
1F
100
AcDbEntity
  8
図面枠
  6
CONTINUOUS
 62
     3
100
AcDbLine
 10
1620.0
 20
1128.0
 30
0.0
 11
1620.0
 21
768.0
 31
0.0
  0
TEXT
  5
ED
330
1F
100
AcDbEntity
  8
図面枠
  6
CONTINUOUS
 62
     4
100
AcDbText
 10
1228.0
 20
1085.53125
 30
0.0
 40
13.85161662817552
  1
能力
 41
0.9992307692307693
  7
EXCADTTF1
 72
     5
 11
1264.0
 21
1085.53125
 31
0.0
100
AcDbText
  0
TEXT
  5
EE
330
1F
100
AcDbEntity
  8
図面枠
  6
CONTINUOUS
 62
     4
100
AcDbText
 10
1228.0
 20
1013.53125
 30
0.0
 40
13.85161662817552
  1
ジャッキ機械高
 41
0.9992307692307691
  7
EXCADTTF1
 72
     5
 11
1354.0
 21
1013.53125
 31
0.0
100
AcDbText
  0
TEXT
  5
EF
330
1F
100
AcDbEntity
  8
図面枠
  6
CONTINUOUS
 62
     4
100
AcDbText
 10
1228.0
 20
1037.53125
 30
0.0
 40
13.85161662817552
  1
最低機械高
 41
0.9992307692307693
  7
EXCADTTF1
 72
     5
 11
1318.0
 21
1037.53125
 31
0.0
100
AcDbText
  0
TEXT
  5
F0
330
1F
100
AcDbEntity
  8
図面枠
  6
CONTINUOUS
 62
     4
100
AcDbText
 10
1228.0
 20
1061.53125
 30
0.0
 40
13.85161662817552
  1
ストローク
 41
0.9992307692307693
  7
EXCADTTF1
 72
     5
 11
1318.0
 21
1061.53125
 31
0.0
100
AcDbText
  0
TEXT
  5
F1
330
1F
100
AcDbEntity
  8
図面枠
  6
CONTINUOUS
 62
     4
100
AcDbText
 10
1228.0
 20
893.53125
 30
0.0
 40
13.85161662817552
  1
最高使用圧力
 41
0.9992307692307693
  7
EXCADTTF1
 72
     5
 11
1336.0
 21
893.53125
 31
0.0
100
AcDbText
  0
TEXT
  5
F2
330
1F
100
AcDbEntity
  8
図面枠
  6
CONTINUOUS
 62
     4
100
AcDbText
 10
1228.0
 20
917.53125
 30
0.0
 40
13.85161662817552
  1
受圧面積
 41
0.9992307692307693
  7
EXCADTTF1
 72
     5
 11
1300.0
 21
917.53125
 31
0.0
100
AcDbText
  0
TEXT
  5
F3
330
1F
100
AcDbEntity
  8
図面枠
  6
CONTINUOUS
 62
     4
100
AcDbText
 10
1228.0
 20
941.53125
 30
0.0
 40
13.85161662817552
  1
ピストン径
 41
0.9992307692307693
  7
EXCADTTF1
 72
     5
 11
1318.0
 21
941.53125
 31
0.0
100
AcDbText
  0
TEXT
  5
F4
330
1F
100
AcDbEntity
  8
図面枠
  6
CONTINUOUS
 62
     4
100
AcDbText
 10
1228.0
 20
965.53125
 30
0.0
 40
13.85161662817552
  1
ロッド径
 41
0.9992307692307693
  7
EXCADTTF1
 72
     5
 11
1300.0
 21
965.53125
 31
0.0
100
AcDbText
  0
TEXT
  5
F5
330
1F
100
AcDbEntity
  8
図面枠
  6
CONTINUOUS
 62
     4
100
AcDbText
 10
1228.0
 20
989.53125
 30
0.0
 40
13.85161662817552
  1
シリンダ外径
 41
0.9992307692307693
  7
EXCADTTF1
 72
     5
 11
1336.0
 21
989.53125
 31
0.0
100
AcDbText
  0
TEXT
  5
F6
330
1F
100
AcDbEntity
  8
図面枠
  6
CONTINUOUS
 62
     4
100
AcDbText
 10
1228.0
 20
797.53125
 30
0.0
 40
13.85161662817552
  1
備考
 41
0.9992307692307693
  7
EXCADTTF1
 72
     5
 11
1264.0
 21
797.53125
 31
0.0
100
AcDbText
  0
TEXT
  5
F7
330
1F
100
AcDbEntity
  8
図面枠
  6
CONTINUOUS
 62
     4
100
AcDbText
 10
1228.0
 20
845.53125
 30
0.0
 40
13.85161662817552
  1
重量
 41
0.9992307692307693
  7
EXCADTTF1
 72
     5
 11
1264.0
 21
845.53125
 31
0.0
100
AcDbText
  0
TEXT
  5
F8
330
1F
100
AcDbEntity
  8
図面枠
  6
CONTINUOUS
 62
     4
100
AcDbText
 10
1228.0
 20
869.53125
 30
0.0
 40
13.85161662817552
  1
所要油量
 41
0.9992307692307693
  7
EXCADTTF1
 72
     5
 11
1300.0
 21
869.53125
 31
0.0
100
AcDbText
  0
LINE
  5
F9
330
1F
100
AcDbEntity
  8
図面枠
  6
CONTINUOUS
 62
     3
100
AcDbLine
 10
1220.0
 20
1128.0
 30
0.0
 11
1220.0
 21
768.0
 31
0.0
  0
TEXT
  5
FA
330
1F
100
AcDbEntity
  8
図面枠
  6
CONTINUOUS
 62
     4
100
AcDbText
 10
1375.0
 20
1109.53125
 30
0.0
 40
13.85161662817552
  1
仕　　　様
 41
0.9992307692307693
  7
EXCADTTF1
 72
     5
 11
1465.0
 21
1109.53125
 31
0.0
100
AcDbText
  0
LINE
  5
FB
330
1F
100
AcDbEntity
  8
図面枠
  6
CONTINUOUS
 62
     3
100
AcDbLine
 10
1220.0
 20
1128.0
 30
0.0
 11
1620.0
 21
1128.0
 31
0.0
  0
LINE
  5
FC
330
1F
100
AcDbEntity
  8
図面枠
  6
CONTINUOUS
 62
     3
100
AcDbLine
 10
1220.0
 20
768.0
 30
0.0
 11
1620.0
 21
768.0
 31
0.0
  0
LINE
  5
FD
330
1F
100
AcDbEntity
  8
図面枠
  6
CONTINUOUS
 62
     3
100
AcDbLine
 10
1220.0
 20
1104.0
 30
0.0
 11
1620.0
 21
1104.0
 31
0.0
  0
LINE
  5
FE
330
1F
100
AcDbEntity
  8
図面枠
  6
CONTINUOUS
 62
     2
100
AcDbLine
 10
1220.0
 20
1080.0
 30
0.0
 11
1620.0
 21
1080.0
 31
0.0
  0
LINE
  5
FF
330
1F
100
AcDbEntity
  8
図面枠
  6
CONTINUOUS
 62
     2
100
AcDbLine
 10
1220.0
 20
1056.0
 30
0.0
 11
1620.0
 21
1056.0
 31
0.0
  0
LINE
  5
100
330
1F
100
AcDbEntity
  8
図面枠
  6
CONTINUOUS
 62
     2
100
AcDbLine
 10
1220.0
 20
1032.0
 30
0.0
 11
1620.0
 21
1032.0
 31
0.0
  0
LINE
  5
101
330
1F
100
AcDbEntity
  8
図面枠
  6
CONTINUOUS
 62
     2
100
AcDbLine
 10
1220.0
 20
1008.0
 30
0.0
 11
1620.0
 21
1008.0
 31
0.0
  0
LINE
  5
102
330
1F
100
AcDbEntity
  8
図面枠
  6
CONTINUOUS
 62
     2
100
AcDbLine
 10
1220.0
 20
960.0
 30
0.0
 11
1620.0
 21
960.0
 31
0.0
  0
LINE
  5
103
330
1F
100
AcDbEntity
  8
図面枠
  6
CONTINUOUS
 62
     2
100
AcDbLine
 10
1220.0
 20
936.0
 30
0.0
 11
1620.0
 21
936.0
 31
0.0
  0
LINE
  5
104
330
1F
100
AcDbEntity
  8
図面枠
  6
CONTINUOUS
 62
     2
100
AcDbLine
 10
1220.0
 20
912.0
 30
0.0
 11
1620.0
 21
912.0
 31
0.0
  0
LINE
  5
105
330
1F
100
AcDbEntity
  8
図面枠
  6
CONTINUOUS
 62
     2
100
AcDbLine
 10
1220.0
 20
984.0
 30
0.0
 11
1620.0
 21
984.0
 31
0.0
  0
LINE
  5
106
330
1F
100
AcDbEntity
  8
図面枠
  6
CONTINUOUS
 62
     2
100
AcDbLine
 10
1220.0
 20
888.0
 30
0.0
 11
1620.0
 21
888.0
 31
0.0
  0
LINE
  5
107
330
1F
100
AcDbEntity
  8
図面枠
  6
CONTINUOUS
 62
     2
100
AcDbLine
 10
1220.0
 20
864.0
 30
0.0
 11
1620.0
 21
864.0
 31
0.0
  0
LINE
  5
108
330
1F
100
AcDbEntity
  8
図面枠
  6
CONTINUOUS
 62
     2
100
AcDbLine
 10
1220.0
 20
816.0
 30
0.0
 11
1620.0
 21
816.0
 31
0.0
  0
LINE
  5
109
330
1F
100
AcDbEntity
  8
図面枠
  6
CONTINUOUS
 62
     2
100
AcDbLine
 10
1540.0
 20
1104.0
 30
0.0
 11
1540.0
 21
816.0
 31
0.0
  0
TEXT
  5
10A
330
1F
100
AcDbEntity
  8
図面枠
  6
CONTINUOUS
 62
     4
100
AcDbText
 10
1180.0
 20
708.53125
 30
0.0
 40
13.85161662817552
  1
※）①ストロークエンドからの加圧はおやめ下さい。
 41
0.9992307692307697
  7
EXCADTTF1
 72
     5
 11
1612.0
 21
708.53125
 31
0.0
100
AcDbText
  0
TEXT
  5
10B
330
1F
100
AcDbEntity
  8
図面枠
  6
CONTINUOUS
 62
     4
100
AcDbText
 10
1180.0
 20
690.53125
 30
0.0
 40
13.85161662817552
  1
　　
 41
0.9992307692307693
  7
EXCADTTF1
 72
     5
 11
1216.0
 21
690.53125
 31
0.0
100
AcDbText
  0
TEXT
  5
10C
330
1F
100
AcDbEntity
  8
図面枠
  6
CONTINUOUS
 62
     4
100
AcDbText
 10
1180.0
 20
672.53125
 30
0.0
 40
13.85161662817552
  1
　　②ストロークエンドにて安全ナットをロック
 41
0.9992307692307697
  7
EXCADTTF1
 72
     5
 11
1576.0
 21
672.53125
 31
0.0
100
AcDbText
  0
TEXT
  5
10D
330
1F
100
AcDbEntity
  8
図面枠
  6
CONTINUOUS
 62
     4
100
AcDbText
 10
1180.0
 20
654.53125
 30
0.0
 40
13.85161662817552
  1
　　　した場合、解放が困難になる場合があります。
 41
0.9992307692307697
  7
EXCADTTF1
 72
     5
 11
1612.0
 21
654.53125
 31
0.0
100
AcDbText
  0
TEXT
  5
10E
330
1F
100
AcDbEntity
  8
図面枠
  6
CONTINUOUS
 62
     4
100
AcDbText
 10
1180.0
 20
618.53125
 30
0.0
 40
13.85161662817552
  1
　　③出荷時にストロークエンド使用が出来ないよう
 41
0.9992307692307697
  7
EXCADTTF1
 72
     5
 11
1612.0
 21
618.53125
 31
0.0
100
AcDbText
  0
TEXT
  5
10F
330
1F
100
AcDbEntity
  8
図面枠
  6
CONTINUOUS
 62
     4
100
AcDbText
 10
1180.0
 20
600.53125
 30
0.0
 40
13.85161662817552
  1
　　　手動ポンプの油量を調整させていただく場合が
 41
0.9992307692307697
  7
EXCADTTF1
 72
     5
 11
1612.0
 21
600.53125
 31
0.0
100
AcDbText
  0
TEXT
  5
110
330
1F
100
AcDbEntity
  8
図面枠
  6
CONTINUOUS
 62
     4
100
AcDbText
 10
1180.0
 20
582.53125
 30
0.0
 40
13.85161662817552
  1
　　　あります。
 41
0.9992307692307693
  7
EXCADTTF1
 72
     5
 11
1324.0
 21
582.53125
 31
0.0
100
AcDbText
  0
TEXT
  5
111
330
1F
100
AcDbEntity
  8
図面枠
  6
CONTINUOUS
 62
     4
100
AcDbText
 10
1548.0
 20
869.53125
 30
0.0
 40
13.85161662817552
  1
L
 41
0.9992307692307693
  7
EXCADTTF1
 72
     5
 11
1557.0
 21
869.53125
 31
0.0
100
AcDbText
  0
TEXT
  5
112
330
1F
100
AcDbEntity
  8
図面枠
  6
CONTINUOUS
 62
     4
100
AcDbText
 10
1496.0
 20
1085.53125
 30
0.0
 40
13.85161662817552
  1
1500
 41
0.9992307692307693
  7
EXCADTTF1
 72
     5
 11
1532.0
 21
1085.53125
 31
0.0
100
AcDbText
  0
TEXT
  5
113
330
1F
100
AcDbEntity
  8
図面枠
  6
CONTINUOUS
 62
     4
100
AcDbText
 10
1514.0
 20
1061.53125
 30
0.0
 40
13.85161662817552
  1
30
 41
0.9992307692307693
  7
EXCADTTF1
 72
     5
 11
1532.0
 21
1061.53125
 31
0.0
100
AcDbText
  0
TEXT
  5
114
330
1F
100
AcDbEntity
  8
図面枠
  6
CONTINUOUS
 62
     4
100
AcDbText
 10
1505.08
 20
1037.53125
 30
0.0
 40
13.85161662817552
  1
176
 41
0.9992307692307694
  7
EXCADTTF1
 72
     5
 11
1532.08
 21
1037.53125
 31
0.0
100
AcDbText
  0
TEXT
  5
115
330
1F
100
AcDbEntity
  8
図面枠
  6
CONTINUOUS
 62
     4
100
AcDbText
 10
1505.08
 20
1013.53125
 30
0.0
 40
13.85161662817552
  1
130
 41
0.9992307692307694
  7
EXCADTTF1
 72
     5
 11
1532.08
 21
1013.53125
 31
0.0
100
AcDbText
  0
TEXT
  5
116
330
1F
100
AcDbEntity
  8
図面枠
  6
CONTINUOUS
 62
     4
100
AcDbText
 10
1505.08
 20
989.53125
 30
0.0
 40
13.85161662817552
  1
230
 41
0.9992307692307694
  7
EXCADTTF1
 72
     5
 11
1532.08
 21
989.53125
 31
0.0
100
AcDbText
  0
TEXT
  5
117
330
1F
100
AcDbEntity
  8
図面枠
  6
CONTINUOUS
 62
     4
100
AcDbText
 10
1505.0
 20
965.53125
 30
0.0
 40
13.85161662817552
  1
140
 41
0.9992307692307694
  7
EXCADTTF1
 72
     5
 11
1532.0
 21
965.53125
 31
0.0
100
AcDbText
  0
TEXT
  5
118
330
1F
100
AcDbEntity
  8
図面枠
  6
CONTINUOUS
 62
     4
100
AcDbText
 10
1505.0
 20
941.53125
 30
0.0
 40
13.85161662817552
  1
175
 41
0.9992307692307694
  7
EXCADTTF1
 72
     5
 11
1532.0
 21
941.53125
 31
0.0
100
AcDbText
  0
TEXT
  5
119
330
1F
100
AcDbEntity
  8
図面枠
  6
CONTINUOUS
 62
     4
100
AcDbText
 10
1487.0
 20
917.53125
 30
0.0
 40
13.85161662817552
  1
240.5
 41
0.9992307692307693
  7
EXCADTTF1
 72
     5
 11
1532.0
 21
917.53125
 31
0.0
100
AcDbText
  0
TEXT
  5
11A
330
1F
100
AcDbEntity
  8
図面枠
  6
CONTINUOUS
 62
     4
100
AcDbText
 10
1496.04
 20
893.53125
 30
0.0
 40
13.85161662817552
  1
62.5
 41
0.9992307692307693
  7
EXCADTTF1
 72
     5
 11
1532.04
 21
893.53125
 31
0.0
100
AcDbText
  0
TEXT
  5
11B
330
1F
100
AcDbEntity
  8
図面枠
  6
CONTINUOUS
 62
     4
100
AcDbText
 10
1496.0
 20
869.53125
 30
0.0
 40
13.85161662817552
  1
0.72
 41
0.9992307692307693
  7
EXCADTTF1
 72
     5
 11
1532.0
 21
869.53125
 31
0.0
100
AcDbText
  0
TEXT
  5
11C
330
1F
100
AcDbEntity
  8
図面枠
  6
CONTINUOUS
 62
     4
100
AcDbText
 10
1496.0
 20
845.53125
 30
0.0
 40
13.85161662817552
  1
約60
 41
0.9992307692307693
  7
EXCADTTF1
 72
     5
 11
1532.0
 21
845.53125
 31
0.0
100
AcDbText
  0
TEXT
  5
11D
330
1F
100
AcDbEntity
  8
図面枠
  6
CONTINUOUS
 62
     4
100
AcDbText
 10
1496.0
 20
821.53125
 30
0.0
 40
13.85161662817552
  1
約55
 41
0.9992307692307693
  7
EXCADTTF1
 72
     5
 11
1532.0
 21
821.53125
 31
0.0
100
AcDbText
  0
TEXT
  5
11E
330
1F
100
AcDbEntity
  8
図面枠
  6
CONTINUOUS
 62
     4
100
AcDbText
 10
1228.0
 20
773.53125
 30
0.0
 40
13.85161662817552
  1
可動ヘッドは、±28mm移動可能
 41
0.9992307692307694
  7
EXCADTTF1
 72
     5
 11
1480.0
 21
773.53125
 31
0.0
100
AcDbText
  0
TEXT
  5
11F
330
1F
100
AcDbEntity
  8
図面枠
  6
CONTINUOUS
 62
     4
100
AcDbText
 10
72.00000000000013
 20
1101.375
 30
0.0
 40
18.46882217090069
  1
1500kN30ストローク補修用油圧ジャッキ（ユニバーサルヘッド付）
 41
0.999230769230769
  7
EXCADTTF1
 72
     5
 11
792.0000000000001
 21
1101.375
 31
0.0
100
AcDbText
  0
LINE
  5
120
330
1F
100
AcDbEntity
  8
図面枠
  6
CONTINUOUS
 62
     3
100
AcDbLine
 10
792.0000000000002
 20
1128.0
 30
0.0
 11
792.0000000000002
 21
1092.0
 31
0.0
  0
LINE
  5
121
330
1F
100
AcDbEntity
  8
図面枠
  6
CONTINUOUS
 62
     3
100
AcDbLine
 10
60.00000000000006
 20
1128.0
 30
0.0
 11
792.0000000000002
 21
1128.0
 31
0.0
  0
LINE
  5
122
330
1F
100
AcDbEntity
  8
図面枠
  6
CONTINUOUS
 62
     3
100
AcDbLine
 10
60.00000000000006
 20
1092.0
 30
0.0
 11
792.0
 21
1092.0
 31
0.0
  0
LINE
  5
123
330
1F
100
AcDbEntity
  8
図面枠
  6
CONTINUOUS
 62
     3
100
AcDbLine
 10
1476.0
 20
96.0
 30
0.0
 11
1476.0
 21
60.0
 31
0.0
  0
TEXT
  5
124
330
1F
100
AcDbEntity
  8
図面枠
  6
CONTINUOUS
 62
     4
100
AcDbText
 10
1488.0
 20
69.375
 30
0.0
 40
18.46882217090069
  1
MJ-15030-U
 41
0.9992307692307694
  7
EXCADTTF1
 72
     5
 11
1608.0
 21
69.375
 31
0.0
100
AcDbText
  0
LINE
  5
125
330
1F
100
AcDbEntity
  8
図面枠
  6
CONTINUOUS
 62
     3
100
AcDbLine
 10
1476.0
 20
96.0
 30
0.0
 11
1620.0
 21
96.0
 31
0.0
  0
LINE
  5
126
330
1F
100
AcDbEntity
  8
図面枠
  6
CONTINUOUS
 62
     3
100
AcDbLine
 10
1476.0
 20
60.0
 30
0.0
 11
1620.0
 21
60.0
 31
0.0
  0
LINE
  5
127
330
1F
100
AcDbEntity
  8
Ｓ_１_１
  6
CONTINUOUS
 62
     3
100
AcDbLine
 10
590.0
 20
585.0000310000001
 30
0.0
 11
590.4142135623699
 21
586.0000310000001
 31
0.0
  0
LINE
  5
128
330
1F
100
AcDbEntity
  8
Ｓ_１_１
  6
CONTINUOUS
 62
     3
100
AcDbLine
 10
511.0
 20
665.4142445623702
 30
0.0
 11
510.0
 21
665.0000310000001
 31
0.0
  0
LINE
  5
129
330
1F
100
AcDbEntity
  8
Ｓ_１_１
  6
CONTINUOUS
 62
     3
100
AcDbLine
 10
511.0
 20
874.5857554376302
 30
0.0
 11
510.0
 21
874.9999690000001
 31
0.0
  0
LINE
  5
12A
330
1F
100
AcDbEntity
  8
Ｓ_１_１
  6
CONTINUOUS
 62
     3
100
AcDbLine
 10
590.4142135623699
 20
953.9999690000002
 30
0.0
 11
590.0
 21
954.9999690000002
 31
0.0
  0
LINE
  5
12B
330
1F
100
AcDbEntity
  8
Ｓ_１_１
  6
CONTINUOUS
 62
     3
100
AcDbLine
 10
839.58578643763
 20
953.9999690000002
 30
0.0
 11
840.0
 21
954.9999690000002
 31
0.0
  0
LINE
  5
12C
330
1F
100
AcDbEntity
  8
Ｓ_１_１
  6
CONTINUOUS
 62
     3
100
AcDbLine
 10
919.0
 20
874.5857554376302
 30
0.0
 11
920.0
 21
874.9999690000001
 31
0.0
  0
LINE
  5
12D
330
1F
100
AcDbEntity
  8
Ｓ_１_１
  6
CONTINUOUS
 62
     3
100
AcDbLine
 10
919.0
 20
665.4142445623702
 30
0.0
 11
920.0
 21
665.0000310000001
 31
0.0
  0
LINE
  5
12E
330
1F
100
AcDbEntity
  8
Ｓ_１_１
  6
CONTINUOUS
 62
     3
100
AcDbLine
 10
840.0
 20
585.0000310000001
 30
0.0
 11
839.58578643763
 21
586.0000310000001
 31
0.0
  0
LINE
  5
12F
330
1F
100
AcDbEntity
  8
Ｓ_１_１
  6
CONTINUOUS
 62
     3
100
AcDbLine
 10
589.9999999999997
 20
585.0000310000004
 30
0.0
 11
839.9999999999999
 21
585.0000310000004
 31
0.0
  0
LINE
  5
130
330
1F
100
AcDbEntity
  8
Ｓ_１_１
  6
CONTINUOUS
 62
     3
100
AcDbLine
 10
919.9999999999999
 20
665.0000310000004
 30
0.0
 11
839.9999999999999
 21
585.0000310000004
 31
0.0
  0
LINE
  5
131
330
1F
100
AcDbEntity
  8
Ｓ_１_１
  6
CONTINUOUS
 62
     3
100
AcDbLine
 10
918.9999999999999
 20
665.4142445623735
 30
0.0
 11
839.5857864376269
 21
586.0000310000004
 31
0.0
  0
LINE
  5
132
330
1F
100
AcDbEntity
  8
Ｓ_１_１
  6
CONTINUOUS
 62
     3
100
AcDbLine
 10
590.4142135623727
 20
586.0000310000004
 30
0.0
 11
839.5857864376269
 21
586.0000310000004
 31
0.0
  0
LINE
  5
133
330
1F
100
AcDbEntity
  8
Ｓ_１_１
  6
CONTINUOUS
 62
     3
100
AcDbLine
 10
919.9999999999999
 20
874.9999690000005
 30
0.0
 11
839.9999999999998
 21
954.9999690000008
 31
0.0
  0
LINE
  5
134
330
1F
100
AcDbEntity
  8
Ｓ_１_１
  6
CONTINUOUS
 62
     3
100
AcDbLine
 10
919.9999999999999
 20
665.0000310000004
 30
0.0
 11
919.9999999999999
 21
874.9999690000005
 31
0.0
  0
LINE
  5
135
330
1F
100
AcDbEntity
  8
Ｓ_１_１
  6
CONTINUOUS
 62
     3
100
AcDbLine
 10
918.9999999999999
 20
874.5857554376274
 30
0.0
 11
918.9999999999999
 21
665.4142445623735
 31
0.0
  0
LINE
  5
136
330
1F
100
AcDbEntity
  8
Ｓ_１_１
  6
CONTINUOUS
 62
     3
100
AcDbLine
 10
918.9999999999999
 20
874.5857554376274
 30
0.0
 11
839.5857864376271
 21
953.9999690000009
 31
0.0
  0
LINE
  5
137
330
1F
100
AcDbEntity
  8
Ｓ_１_１
  6
CONTINUOUS
 62
     3
100
AcDbLine
 10
589.9999999999995
 20
954.9999690000005
 30
0.0
 11
839.9999999999998
 21
954.9999690000008
 31
0.0
  0
LINE
  5
138
330
1F
100
AcDbEntity
  8
Ｓ_１_１
  6
CONTINUOUS
 62
     3
100
AcDbLine
 10
590.4142135623724
 20
953.9999690000005
 30
0.0
 11
839.5857864376271
 21
953.9999690000009
 31
0.0
  0
LINE
  5
139
330
1F
100
AcDbEntity
  8
Ｓ_１_１
  6
CONTINUOUS
 62
     3
100
AcDbLine
 10
510.9999999999998
 20
874.5857554376274
 30
0.0
 11
510.9999999999998
 21
665.4142445623735
 31
0.0
  0
LINE
  5
13A
330
1F
100
AcDbEntity
  8
Ｓ_１_１
  6
CONTINUOUS
 62
     3
100
AcDbLine
 10
510.9999999999998
 20
874.5857554376274
 30
0.0
 11
590.4142135623724
 21
953.9999690000005
 31
0.0
  0
LINE
  5
13B
330
1F
100
AcDbEntity
  8
Ｓ_１_１
  6
CONTINUOUS
 62
     3
100
AcDbLine
 10
509.9999999999998
 20
874.9999690000005
 30
0.0
 11
589.9999999999995
 21
954.9999690000005
 31
0.0
  0
LINE
  5
13C
330
1F
100
AcDbEntity
  8
Ｓ_１_１
  6
CONTINUOUS
 62
     3
100
AcDbLine
 10
509.9999999999998
 20
665.0000310000004
 30
0.0
 11
509.9999999999998
 21
874.9999690000005
 31
0.0
  0
LINE
  5
13D
330
1F
100
AcDbEntity
  8
Ｓ_１_１
  6
CONTINUOUS
 62
     3
100
AcDbLine
 10
510.9999999999998
 20
665.4142445623735
 30
0.0
 11
590.4142135623727
 21
586.0000310000004
 31
0.0
  0
LINE
  5
13E
330
1F
100
AcDbEntity
  8
Ｓ_１_１
  6
CONTINUOUS
 62
     3
100
AcDbLine
 10
509.9999999999998
 20
665.0000310000004
 30
0.0
 11
589.9999999999997
 21
585.0000310000004
 31
0.0
  0
LINE
  5
13F
330
1F
100
AcDbEntity
  8
Ｓ_１_１
  6
CONTINUOUS
 62
     3
100
AcDbLine
 10
546.7085859722497
 20
587.5664505592367
 30
0.0
 11
532.5664505592365
 21
601.7085859722499
 31
0.0
  0
LINE
  5
140
330
1F
100
AcDbEntity
  8
Ｓ_１_１
  6
CONTINUOUS
 62
     3
100
AcDbLine
 10
532.5664505592365
 20
598.8801588475036
 30
0.0
 11
532.5664505592365
 21
601.7085859722498
 31
0.0
  0
LINE
  5
141
330
1F
100
AcDbEntity
  8
Ｓ_１_１
  6
CONTINUOUS
 62
     3
100
AcDbLine
 10
532.5664505592365
 20
598.8801588475036
 30
0.0
 11
543.880158847503
 21
587.566450559237
 31
0.0
  0
LINE
  5
142
330
1F
100
AcDbEntity
  8
Ｓ_１_１
  6
CONTINUOUS
 62
     3
100
AcDbLine
 10
546.7085859722492
 20
587.566450559237
 30
0.0
 11
543.880158847503
 21
587.566450559237
 31
0.0
  0
LINE
  5
143
330
1F
100
AcDbEntity
  8
Ｓ_１_１
  6
CONTINUOUS
 62
     3
100
AcDbLine
 10
532.5664505592365
 20
601.7085859722497
 30
0.0
 11
552.9289477934933
 21
622.0710832065066
 31
0.0
  0
LINE
  5
144
330
1F
100
AcDbEntity
  8
Ｓ_１_１
  6
CONTINUOUS
 62
     3
100
AcDbLine
 10
546.7085859722492
 20
587.566450559237
 30
0.0
 11
567.071083206506
 21
607.9289477934939
 31
0.0
  0
LINE
  5
145
330
1F
100
AcDbEntity
  8
Ｓ_１_１
  6
CONTINUOUS
 62
     3
100
AcDbLine
 10
883.2914140277501
 20
587.5664505592366
 30
0.0
 11
897.4335494407633
 21
601.7085859722499
 31
0.0
  0
LINE
  5
146
330
1F
100
AcDbEntity
  8
Ｓ_１_１
  6
CONTINUOUS
 62
     3
100
AcDbLine
 10
897.4335494407634
 20
598.8801588475035
 30
0.0
 11
897.4335494407634
 21
601.7085859722497
 31
0.0
  0
LINE
  5
147
330
1F
100
AcDbEntity
  8
Ｓ_１_１
  6
CONTINUOUS
 62
     3
100
AcDbLine
 10
897.4335494407634
 20
598.8801588475035
 30
0.0
 11
886.1198411524967
 21
587.566450559237
 31
0.0
  0
LINE
  5
148
330
1F
100
AcDbEntity
  8
Ｓ_１_１
  6
CONTINUOUS
 62
     3
100
AcDbLine
 10
883.2914140277505
 20
587.566450559237
 30
0.0
 11
886.1198411524967
 21
587.566450559237
 31
0.0
  0
LINE
  5
149
330
1F
100
AcDbEntity
  8
Ｓ_１_１
  6
CONTINUOUS
 62
     3
100
AcDbLine
 10
897.4335494407634
 20
601.7085859722497
 30
0.0
 11
877.0710522065065
 21
622.0710832065065
 31
0.0
  0
LINE
  5
14A
330
1F
100
AcDbEntity
  8
Ｓ_１_１
  6
CONTINUOUS
 62
     3
100
AcDbLine
 10
883.2914140277505
 20
587.566450559237
 30
0.0
 11
862.9289167934937
 21
607.9289477934938
 31
0.0
  0
LINE
  5
14B
330
1F
100
AcDbEntity
  8
Ｓ_１_１
  6
CONTINUOUS
 62
     3
100
AcDbLine
 10
546.7085859722497
 20
952.4335494407641
 30
0.0
 11
532.5664505592365
 21
938.2914140277508
 31
0.0
  0
LINE
  5
14C
330
1F
100
AcDbEntity
  8
Ｓ_１_１
  6
CONTINUOUS
 62
     3
100
AcDbLine
 10
532.5664505592363
 20
941.1198411524971
 30
0.0
 11
532.5664505592363
 21
938.2914140277509
 31
0.0
  0
LINE
  5
14D
330
1F
100
AcDbEntity
  8
Ｓ_１_１
  6
CONTINUOUS
 62
     3
100
AcDbLine
 10
532.5664505592363
 20
941.1198411524971
 30
0.0
 11
543.8801588475028
 21
952.4335494407637
 31
0.0
  0
LINE
  5
14E
330
1F
100
AcDbEntity
  8
Ｓ_１_１
  6
CONTINUOUS
 62
     3
100
AcDbLine
 10
546.708585972249
 20
952.4335494407637
 30
0.0
 11
543.8801588475028
 21
952.4335494407637
 31
0.0
  0
LINE
  5
14F
330
1F
100
AcDbEntity
  8
Ｓ_１_１
  6
CONTINUOUS
 62
     3
100
AcDbLine
 10
532.5664505592363
 20
938.291414027751
 30
0.0
 11
552.9289477934933
 21
917.9289167934942
 31
0.0
  0
LINE
  5
150
330
1F
100
AcDbEntity
  8
Ｓ_１_１
  6
CONTINUOUS
 62
     3
100
AcDbLine
 10
546.708585972249
 20
952.4335494407637
 30
0.0
 11
567.0710832065059
 21
932.0710522065068
 31
0.0
  0
LINE
  5
151
330
1F
100
AcDbEntity
  8
Ｓ_１_１
  6
CONTINUOUS
 62
     3
100
AcDbLine
 10
883.29141402775
 20
952.4335494407643
 30
0.0
 11
897.4335494407632
 21
938.2914140277511
 31
0.0
  0
LINE
  5
152
330
1F
100
AcDbEntity
  8
Ｓ_１_１
  6
CONTINUOUS
 62
     3
100
AcDbLine
 10
897.4335494407633
 20
941.1198411524973
 30
0.0
 11
897.4335494407633
 21
938.2914140277511
 31
0.0
  0
LINE
  5
153
330
1F
100
AcDbEntity
  8
Ｓ_１_１
  6
CONTINUOUS
 62
     3
100
AcDbLine
 10
897.4335494407633
 20
941.1198411524973
 30
0.0
 11
886.1198411524966
 21
952.433549440764
 31
0.0
  0
LINE
  5
154
330
1F
100
AcDbEntity
  8
Ｓ_１_１
  6
CONTINUOUS
 62
     3
100
AcDbLine
 10
883.2914140277504
 20
952.433549440764
 30
0.0
 11
886.1198411524966
 21
952.433549440764
 31
0.0
  0
LINE
  5
155
330
1F
100
AcDbEntity
  8
Ｓ_１_１
  6
CONTINUOUS
 62
     3
100
AcDbLine
 10
897.4335494407633
 20
938.2914140277512
 30
0.0
 11
877.0710522065065
 21
917.9289167934944
 31
0.0
  0
LINE
  5
156
330
1F
100
AcDbEntity
  8
Ｓ_１_１
  6
CONTINUOUS
 62
     3
100
AcDbLine
 10
883.2914140277504
 20
952.433549440764
 30
0.0
 11
862.9289167934936
 21
932.071052206507
 31
0.0
  0
ARC
  5
157
330
1F
100
AcDbEntity
  8
Ｓ_１_１
  6
EXLTYPE0
 62
     2
100
AcDbCircle
 10
689.9999999999998
 20
770.0000000000001
 30
0.0
 40
152.9999999999997
100
AcDbArc
 50
89.99999999999996
 51
269.9999999999999
  0
LINE
  5
158
330
1F
100
AcDbEntity
  8
Ｓ_１_１
  6
EXLTYPE0
 62
     2
100
AcDbLine
 10
740.0
 20
923.0000000000003
 30
0.0
 11
689.9999999999998
 21
923.0000000000003
 31
0.0
  0
ARC
  5
159
330
1F
100
AcDbEntity
  8
Ｓ_１_１
  6
EXLTYPE0
 62
     2
100
AcDbCircle
 10
740.0
 20
770.0000000000001
 30
0.0
 40
152.9999999999997
100
AcDbArc
 50
270.0000000000002
 51
90.00000000000001
  0
LINE
  5
15A
330
1F
100
AcDbEntity
  8
Ｓ_１_１
  6
EXLTYPE0
 62
     2
100
AcDbLine
 10
740.0000000000001
 20
617.0000000000006
 30
0.0
 11
690.0
 21
617.0000000000006
 31
0.0
  0
CIRCLE
  5
15B
330
1F
100
AcDbEntity
  8
Ｓ_１_１
  6
EXLTYPE0
 62
     2
100
AcDbCircle
 10
715.0
 20
770.0000000000001
 30
0.0
 40
150.0
  0
LINE
  5
15C
330
1F
100
AcDbEntity
  8
Ｓ_１_１
  6
EXLTYPE2
 62
     1
100
AcDbLine
 10
534.8645178977692
 20
589.8645178977692
 30
0.0
 11
562.6558097539701
 21
617.6558097539701
 31
0.0
  0
LINE
  5
15D
330
1F
100
AcDbEntity
  8
Ｓ_１_１
  6
EXLTYPE2
 62
     1
100
AcDbLine
 10
895.1354821022305
 20
589.8645178977692
 30
0.0
 11
867.3441902460297
 21
617.65580975397
 31
0.0
  0
LINE
  5
15E
330
1F
100
AcDbEntity
  8
Ｓ_１_１
  6
EXLTYPE2
 62
     1
100
AcDbLine
 10
534.8645178977692
 20
950.1354821022314
 30
0.0
 11
562.65580975397
 21
922.3441902460307
 31
0.0
  0
LINE
  5
15F
330
1F
100
AcDbEntity
  8
Ｓ_１_１
  6
EXLTYPE2
 62
     1
100
AcDbLine
 10
895.1354821022304
 20
950.1354821022317
 30
0.0
 11
867.3441902460296
 21
922.344190246031
 31
0.0
  0
LINE
  5
160
330
1F
100
AcDbEntity
  8
Ｓ_１_１
  6
EXLTYPE2
 62
     1
100
AcDbLine
 10
714.9999999999998
 20
976.1
 30
0.0
 11
714.9999999999998
 21
566.0000000000002
 31
0.0
  0
DIMENSION
  5
162
330
1F
100
AcDbEntity
  8
Ｓ_１_１
  6
CONTINUOUS
 62
     2
100
AcDbDimension
  2
*D15
 10
412.5
 20
363.9999942183401
 30
0.0
 11
401.5
 21
350.99999767541
 31
0.0
 70
   160
  3
ISO-25
100
AcDbAlignedDimension
 13
510.00000178818
 23
338.00000113248
 33
0.0
 14
510.00000178818
 24
363.99999421834
 34
0.0
 50
90.0
100
AcDbRotatedDimension
1001
ACAD
1000
DSTYLE
1002
{
1070
   270
1070
     2
1070
     6
1000
EX_NORM
1070
     7
1000
EX_BCIR
1070
    41
1040
12.0
1070
    42
1040
6.0
1070
    44
1040
4.0
1070
    73
1070
     0
1070
    74
1070
     0
1070
    75
1070
     0
1070
    76
1070
     0
1070
    77
1070
     1
1070
    78
1070
     8
1070
   140
1040
13.85161662817552
1070
   147
1040
0.0
1070
   173
1070
     1
1070
   176
1070
     2
1070
   177
1070
     2
1070
   178
1070
     2
1070
   271
1070
     2
1070
   277
1070
     2
1070
   279
1070
     2
1070
   280
1070
     0
1070
   287
1070
     5
1070
   340
1005
161
1002
}
  0
DIMENSION
  5
170
330
1F
100
AcDbEntity
  8
Ｓ_１_１
  6
CONTINUOUS
 62
     2
100
AcDbDimension
  2
*D16
 10
412.5
 20
363.9999942183401
 30
0.0
 11
401.5
 21
379.999996840945
 31
0.0
 70
   160
  3
ISO-25
100
AcDbAlignedDimension
 13
511.00000178818
 23
395.99999946355
 33
0.0
 14
510.00000178818
 24
363.99999421834
 34
0.0
 50
90.0
100
AcDbRotatedDimension
1001
ACAD
1000
DSTYLE
1002
{
1070
   270
1070
     2
1070
     6
1000
EX_NORM
1070
     7
1000
EX_BCIR
1070
    41
1040
12.0
1070
    42
1040
6.0
1070
    44
1040
4.0
1070
    73
1070
     0
1070
    74
1070
     0
1070
    75
1070
     0
1070
    76
1070
     0
1070
    77
1070
     1
1070
    78
1070
     8
1070
   140
1040
13.85161662817552
1070
   147
1040
0.0
1070
   173
1070
     1
1070
   176
1070
     2
1070
   177
1070
     2
1070
   178
1070
     2
1070
   271
1070
     2
1070
   277
1070
     2
1070
   279
1070
     2
1070
   280
1070
     0
1070
   287
1070
     5
1070
   340
1005
161
1002
}
  0
DIMENSION
  5
17D
330
1F
100
AcDbEntity
  8
Ｓ_１_１
  6
CONTINUOUS
 62
     2
100
AcDbDimension
  2
*D17
 10
385.0
 20
395.9999994635501
 30
0.0
 11
374.0
 21
367.000000298015
 31
0.0
 70
   160
  3
ISO-25
100
AcDbAlignedDimension
 13
510.00000178818
 23
338.00000113248
 33
0.0
 14
511.00000178818
 24
395.99999946355
 34
0.0
 50
90.0
100
AcDbRotatedDimension
1001
ACAD
1000
DSTYLE
1002
{
1070
   270
1070
     2
1070
     6
1000
EX_NORM
1070
     7
1000
EX_NORM
1070
    41
1040
12.0
1070
    42
1040
6.0
1070
    44
1040
4.0
1070
    73
1070
     0
1070
    74
1070
     0
1070
    75
1070
     0
1070
    76
1070
     0
1070
    77
1070
     1
1070
    78
1070
     8
1070
   140
1040
13.85161662817552
1070
   147
1040
0.0
1070
   173
1070
     1
1070
   176
1070
     2
1070
   177
1070
     2
1070
   178
1070
     2
1070
   271
1070
     2
1070
   277
1070
     2
1070
   279
1070
     2
1070
   280
1070
     0
1070
   287
1070
     5
1070
   340
1005
161
1002
}
  0
DIMENSION
  5
18A
330
1F
100
AcDbEntity
  8
Ｓ_１_１
  6
CONTINUOUS
 62
     2
100
AcDbDimension
  2
*D18
 10
385.0
 20
220.0
 30
0.0
 11
374.0
 21
279.00000056624
 31
0.0
 70
   160
  3
ISO-25
100
AcDbAlignedDimension
 13
510.00000178818
 23
338.00000113248
 33
0.0
 14
601.99997570048
 24
220.0
 34
0.0
 50
90.0
100
AcDbRotatedDimension
1001
ACAD
1000
DSTYLE
1002
{
1070
   270
1070
     2
1070
     6
1000
EX_NORM
1070
     7
1000
EX_NORM
1070
    41
1040
12.0
1070
    42
1040
6.0
1070
    44
1040
4.0
1070
    73
1070
     0
1070
    74
1070
     0
1070
    75
1070
     0
1070
    76
1070
     0
1070
    77
1070
     1
1070
    78
1070
     8
1070
   140
1040
13.85161662817552
1070
   147
1040
0.0
1070
   173
1070
     1
1070
   176
1070
     2
1070
   177
1070
     2
1070
   178
1070
     2
1070
   271
1070
     2
1070
   277
1070
     2
1070
   279
1070
     2
1070
   280
1070
     0
1070
   287
1070
     5
1070
   340
1005
161
1002
}
  0
DIMENSION
  5
197
330
1F
100
AcDbEntity
  8
Ｓ_１_１
  6
CONTINUOUS
 62
     2
100
AcDbDimension
  2
*D19
 10
357.5
 20
395.9999994635501
 30
0.0
 11
346.5
 21
307.999999731775
 31
0.0
 70
   160
  3
ISO-25
100
AcDbAlignedDimension
 13
601.99997570048
 23
220.0
 33
0.0
 14
511.00000178818
 24
395.99999946355
 34
0.0
 50
90.0
100
AcDbRotatedDimension
1001
ACAD
1000
DSTYLE
1002
{
1070
   270
1070
     2
1070
     6
1000
EX_NORM
1070
     7
1000
EX_NORM
1070
    41
1040
12.0
1070
    42
1040
6.0
1070
    44
1040
4.0
1070
    73
1070
     0
1070
    74
1070
     0
1070
    75
1070
     0
1070
    76
1070
     0
1070
    77
1070
     1
1070
    78
1070
     8
1070
   140
1040
13.85161662817552
1070
   147
1040
0.0
1070
   173
1070
     1
1070
   176
1070
     2
1070
   177
1070
     2
1070
   178
1070
     2
1070
   271
1070
     2
1070
   277
1070
     2
1070
   279
1070
     2
1070
   280
1070
     0
1070
   287
1070
     5
1070
   340
1005
161
1002
}
  0
DIMENSION
  5
1A4
330
1F
100
AcDbEntity
  8
Ｓ_１_１
  6
CONTINUOUS
 62
     2
100
AcDbDimension
  2
*D20
 10
467.5
 20
301.99999731778
 30
0.0
 11
456.5000000000001
 21
251.9999977648199
 31
0.0
 70
   160
  1
%%c20
  3
ISO-25
100
AcDbAlignedDimension
 13
539.63751733307
 23
281.99999776482
 33
0.0
 14
539.63751733307
 24
301.99999731778
 34
0.0
 50
90.0
100
AcDbRotatedDimension
1001
ACAD
1000
DSTYLE
1002
{
1070
   270
1070
     2
1070
     6
1000
EX_NORM
1070
     7
1000
EX_NORM
1070
    41
1040
12.0
1070
    42
1040
6.0
1070
    44
1040
4.0
1070
    73
1070
     0
1070
    74
1070
     0
1070
    75
1070
     0
1070
    76
1070
     0
1070
    77
1070
     1
1070
    78
1070
     8
1070
   140
1040
13.85161662817552
1070
   147
1040
0.0
1070
   173
1070
     1
1070
   176
1070
     2
1070
   177
1070
     2
1070
   178
1070
     2
1070
   271
1070
     2
1070
   277
1070
     2
1070
   279
1070
     2
1070
   280
1070
     1
1070
   287
1070
     5
1070
   340
1005
161
1002
}
  0
DIMENSION
  5
1B3
330
1F
100
AcDbEntity
  8
Ｓ_１_１
  6
CONTINUOUS
 62
     2
100
AcDbDimension
  2
*D21
 10
990.0
 20
243.9997241503
 30
0.0
 11
979.0
 21
198.9999999999998
 31
0.0
 70
   160
  3
ISO-25
100
AcDbAlignedDimension
 13
828.00002429952
 23
220.0
 33
0.0
 14
918.9343199724
 24
243.9997241503
 34
0.0
 50
90.0
100
AcDbRotatedDimension
1001
ACAD
1000
DSTYLE
1002
{
1070
   270
1070
     2
1070
     6
1000
EX_NORM
1070
     7
1000
EX_NORM
1070
    41
1040
12.0
1070
    42
1040
6.0
1070
    44
1040
4.0
1070
    73
1070
     0
1070
    74
1070
     0
1070
    75
1070
     0
1070
    76
1070
     0
1070
    77
1070
     1
1070
    78
1070
     8
1070
   140
1040
13.85161662817552
1070
   147
1040
0.0
1070
   173
1070
     1
1070
   176
1070
     2
1070
   177
1070
     2
1070
   178
1070
     2
1070
   271
1070
     2
1070
   277
1070
     2
1070
   279
1070
     2
1070
   280
1070
     1
1070
   287
1070
     5
1070
   340
1005
161
1002
}
  0
DIMENSION
  5
1C2
330
1F
100
AcDbEntity
  8
Ｓ_１_１
  6
CONTINUOUS
 62
     2
100
AcDbDimension
  2
*D22
 10
1017.5
 20
266.9999988079
 30
0.0
 11
1006.5
 21
243.49999940395
 31
0.0
 70
   160
  3
ISO-25
100
AcDbAlignedDimension
 13
828.00002429952
 23
220.0
 33
0.0
 14
861.9999845235
 24
266.9999988079
 34
0.0
 50
90.0
100
AcDbRotatedDimension
1001
ACAD
1000
DSTYLE
1002
{
1070
   270
1070
     2
1070
     6
1000
EX_NORM
1070
     7
1000
EX_NORM
1070
    41
1040
12.0
1070
    42
1040
6.0
1070
    44
1040
4.0
1070
    73
1070
     0
1070
    74
1070
     0
1070
    75
1070
     0
1070
    76
1070
     0
1070
    77
1070
     1
1070
    78
1070
     8
1070
   140
1040
13.85161662817552
1070
   147
1040
0.0
1070
   173
1070
     1
1070
   176
1070
     2
1070
   177
1070
     2
1070
   178
1070
     2
1070
   271
1070
     2
1070
   277
1070
     2
1070
   279
1070
     2
1070
   280
1070
     0
1070
   287
1070
     5
1070
   340
1005
161
1002
}
  0
DIMENSION
  5
1CF
330
1F
100
AcDbEntity
  8
Ｓ_１_１
  6
CONTINUOUS
 62
     2
100
AcDbDimension
  2
*D23
 10
1017.5
 20
349.99999564885
 30
0.0
 11
1006.5
 21
308.499997228375
 31
0.0
 70
   160
  3
ISO-25
100
AcDbAlignedDimension
 13
861.9999845235
 23
266.9999988079
 33
0.0
 14
919.9999982119
 24
349.99999564885
 34
0.0
 50
90.0
100
AcDbRotatedDimension
1001
ACAD
1000
DSTYLE
1002
{
1070
   270
1070
     2
1070
     6
1000
EX_NORM
1070
     7
1000
EX_NORM
1070
    41
1040
12.0
1070
    42
1040
6.0
1070
    44
1040
4.0
1070
    73
1070
     0
1070
    74
1070
     0
1070
    75
1070
     0
1070
    76
1070
     0
1070
    77
1070
     1
1070
    78
1070
     8
1070
   140
1040
13.85161662817552
1070
   147
1040
0.0
1070
   173
1070
     1
1070
   176
1070
     2
1070
   177
1070
     2
1070
   178
1070
     2
1070
   271
1070
     2
1070
   277
1070
     2
1070
   279
1070
     2
1070
   280
1070
     0
1070
   287
1070
     5
1070
   340
1005
161
1002
}
  0
DIMENSION
  5
1DC
330
1F
100
AcDbEntity
  8
Ｓ_１_１
  6
CONTINUOUS
 62
     2
100
AcDbDimension
  2
*D24
 10
1020.152898062958
 20
392.7569327501016
 30
0.0
 11
1007.546320377717
 21
366.5430779423513
 31
0.0
 70
   165
  3
ISO-25
100
AcDb3PointAngularDimension
 13
971.7484644998165
 23
387.9576051313404
 33
0.0
 14
918.9999982119
 24
395.9999994635477
 34
0.0
 15
741.4444234016764
 25
395.9999994635477
 35
0.0
1001
ACAD
1000
DSTYLE
1002
{
1070
   270
1070
     2
1070
     6
1000
EX_NORM
1070
     7
1000
EX_NORM
1070
    41
1040
12.0
1070
    42
1040
5.999999999999972
1070
    44
1040
3.999999999999957
1070
    73
1070
     0
1070
    74
1070
     0
1070
    75
1070
     0
1070
    76
1070
     0
1070
    77
1070
     1
1070
    78
1070
     8
1070
    79
1070
     2
1070
   140
1040
13.85161662817552
1070
   147
1040
0.0
1070
   173
1070
     1
1070
   176
1070
     2
1070
   177
1070
     2
1070
   178
1070
     2
1070
   179
1070
     2
1070
   271
1070
     2
1070
   277
1070
     2
1070
   279
1070
     2
1070
   280
1070
     1
1070
   287
1070
     5
1070
   340
1005
161
1002
}
  0
DIMENSION
  5
1EC
330
1F
100
AcDbEntity
  8
Ｓ_１_１
  6
CONTINUOUS
 62
     2
100
AcDbDimension
  2
*D25
 10
1045.0
 20
349.99999564885
 30
0.0
 11
1034.0
 21
284.999997824425
 31
0.0
 70
   160
  3
ISO-25
100
AcDbAlignedDimension
 13
828.00002429952
 23
220.0
 33
0.0
 14
919.9999982119
 24
349.99999564885
 34
0.0
 50
90.0
100
AcDbRotatedDimension
1001
ACAD
1000
DSTYLE
1002
{
1070
   270
1070
     2
1070
     6
1000
EX_NORM
1070
     7
1000
EX_NORM
1070
    41
1040
12.0
1070
    42
1040
6.0
1070
    44
1040
4.0
1070
    73
1070
     0
1070
    74
1070
     0
1070
    75
1070
     0
1070
    76
1070
     0
1070
    77
1070
     1
1070
    78
1070
     8
1070
   140
1040
13.85161662817552
1070
   147
1040
0.0
1070
   173
1070
     1
1070
   176
1070
     2
1070
   177
1070
     2
1070
   178
1070
     2
1070
   271
1070
     2
1070
   277
1070
     2
1070
   279
1070
     2
1070
   280
1070
     0
1070
   287
1070
     5
1070
   340
1005
161
1002
}
  0
DIMENSION
  5
1F9
330
1F
100
AcDbEntity
  8
Ｓ_１_１
  6
CONTINUOUS
 62
     2
100
AcDbDimension
  2
*D26
 10
600.0000004843004
 20
165.0
 30
0.0
 11
715.0000657283504
 21
176.0
 31
0.0
 70
   160
  1
%%c230
  3
ISO-25
100
AcDbAlignedDimension
 13
830.0001309724003
 23
222.0001070100001
 33
0.0
 14
600.0000004843004
 24
222.0001070100001
 34
0.0
100
AcDbRotatedDimension
1001
ACAD
1000
DSTYLE
1002
{
1070
   270
1070
     2
1070
     6
1000
EX_NORM
1070
     7
1000
EX_NORM
1070
    41
1040
12.0
1070
    42
1040
6.0
1070
    44
1040
4.0
1070
    73
1070
     0
1070
    74
1070
     0
1070
    75
1070
     0
1070
    76
1070
     0
1070
    77
1070
     1
1070
    78
1070
     8
1070
   140
1040
13.85161662817552
1070
   147
1040
0.0
1070
   173
1070
     1
1070
   176
1070
     2
1070
   177
1070
     2
1070
   178
1070
     2
1070
   271
1070
     2
1070
   277
1070
     2
1070
   279
1070
     2
1070
   280
1070
     0
1070
   287
1070
     5
1070
   340
1005
161
1002
}
  0
DIMENSION
  5
206
330
1F
100
AcDbEntity
  8
Ｓ_１_１
  6
CONTINUOUS
 62
     2
100
AcDbDimension
  2
*D27
 10
915.3623899724
 20
165.0
 30
0.0
 11
872.6812604724
 21
176.0
 31
0.0
 70
   160
  1
(<>)
  3
ISO-25
100
AcDbAlignedDimension
 13
830.0001309724
 23
222.00010701
 33
0.0
 14
915.3623899724
 24
231.9997241503
 34
0.0
100
AcDbRotatedDimension
1001
ACAD
1000
DSTYLE
1002
{
1070
   270
1070
     2
1070
     6
1000
EX_NORM
1070
     7
1000
EX_NORM
1070
    41
1040
12.0
1070
    42
1040
6.0
1070
    44
1040
4.0
1070
    73
1070
     0
1070
    74
1070
     0
1070
    75
1070
     0
1070
    76
1070
     0
1070
    77
1070
     1
1070
    78
1070
     0
1070
   140
1040
13.85161662817552
1070
   147
1040
0.0
1070
   173
1070
     1
1070
   176
1070
     2
1070
   177
1070
     2
1070
   178
1070
     2
1070
   271
1070
     0
1070
   277
1070
     2
1070
   279
1070
     2
1070
   280
1070
     0
1070
   287
1070
     5
1070
   340
1005
161
1002
}
  0
DIMENSION
  5
213
330
1F
100
AcDbEntity
  8
Ｓ_１_１
  6
CONTINUOUS
 62
     2
100
AcDbDimension
  2
*D28
 10
864.9999990315
 20
440.0
 30
0.0
 11
715.0000001118
 21
451.0
 31
0.0
 70
   160
  1
%%c300
  3
ISO-25
100
AcDbAlignedDimension
 13
565.0000011921
 23
338.00000113248
 33
0.0
 14
864.9999990315
 24
347.99999542522
 34
0.0
100
AcDbRotatedDimension
1001
ACAD
1000
DSTYLE
1002
{
1070
   270
1070
     2
1070
     6
1000
EX_NORM
1070
     7
1000
EX_NORM
1070
    41
1040
12.0
1070
    42
1040
6.0
1070
    44
1040
4.0
1070
    73
1070
     0
1070
    74
1070
     0
1070
    75
1070
     0
1070
    76
1070
     0
1070
    77
1070
     1
1070
    78
1070
     8
1070
   140
1040
13.85161662817552
1070
   147
1040
0.0
1070
   173
1070
     1
1070
   176
1070
     2
1070
   177
1070
     2
1070
   178
1070
     2
1070
   271
1070
     2
1070
   277
1070
     2
1070
   279
1070
     2
1070
   280
1070
     0
1070
   287
1070
     5
1070
   340
1005
161
1002
}
  0
LINE
  5
220
330
1F
100
AcDbEntity
  8
Ｓ_１_１
  6
EXLTYPE3
 62
     2
100
AcDbLine
 10
947.9999999999999
 20
665.0000310000004
 30
0.0
 11
947.9999999999999
 21
874.9999690000005
 31
0.0
  0
LINE
  5
221
330
1F
100
AcDbEntity
  8
Ｓ_１_１
  6
EXLTYPE3
 62
     2
100
AcDbLine
 10
947.9999999999999
 20
665.0000310000004
 30
0.0
 11
867.9999999999999
 21
585.0000310000004
 31
0.0
  0
LINE
  5
222
330
1F
100
AcDbEntity
  8
Ｓ_１_１
  6
EXLTYPE3
 62
     2
100
AcDbLine
 10
947.9999999999999
 20
874.9999690000005
 30
0.0
 11
867.9999999999998
 21
954.9999690000008
 31
0.0
  0
LINE
  5
223
330
1F
100
AcDbEntity
  8
Ｓ_１_１
  6
EXLTYPE3
 62
     2
100
AcDbLine
 10
481.9999999999998
 20
874.9999690000005
 30
0.0
 11
561.9999999999995
 21
954.9999690000005
 31
0.0
  0
LINE
  5
224
330
1F
100
AcDbEntity
  8
Ｓ_１_１
  6
EXLTYPE3
 62
     2
100
AcDbLine
 10
481.9999999999998
 20
665.0000310000004
 30
0.0
 11
481.9999999999998
 21
874.9999690000005
 31
0.0
  0
LINE
  5
225
330
1F
100
AcDbEntity
  8
Ｓ_１_１
  6
EXLTYPE3
 62
     2
100
AcDbLine
 10
481.9999999999998
 20
665.0000310000004
 30
0.0
 11
561.9999999999997
 21
585.0000310000004
 31
0.0
  0
LINE
  5
226
330
1F
100
AcDbEntity
  8
Ｓ_１_１
  6
EXLTYPE2
 62
     1
100
AcDbLine
 10
467.5
 20
770.0000000000003
 30
0.0
 11
962.5
 21
770.0000000000005
 31
0.0
  0
DIMENSION
  5
227
330
1F
100
AcDbEntity
  8
Ｓ_１_１
  6
CONTINUOUS
 62
     2
100
AcDbDimension
  2
*D29
 10
510.0
 20
522.5
 30
0.0
 11
416.0000000000001
 21
533.5
 31
0.0
 70
   160
  1
28（移動量）
  3
ISO-25
100
AcDbAlignedDimension
 13
482.0
 23
665.000031
 33
0.0
 14
510.0
 24
666.0
 34
0.0
100
AcDbRotatedDimension
1001
ACAD
1000
DSTYLE
1002
{
1070
   270
1070
     2
1070
     6
1000
EX_NORM
1070
     7
1000
EX_NORM
1070
    41
1040
12.0
1070
    42
1040
6.0
1070
    44
1040
4.0
1070
    73
1070
     0
1070
    74
1070
     0
1070
    75
1070
     0
1070
    76
1070
     0
1070
    77
1070
     1
1070
    78
1070
     8
1070
   140
1040
13.85161662817552
1070
   147
1040
0.0
1070
   173
1070
     1
1070
   176
1070
     2
1070
   177
1070
     2
1070
   178
1070
     2
1070
   271
1070
     2
1070
   277
1070
     2
1070
   279
1070
     2
1070
   280
1070
     1
1070
   287
1070
     5
1070
   340
1005
161
1002
}
  0
DIMENSION
  5
234
330
1F
100
AcDbEntity
  8
Ｓ_１_１
  6
CONTINUOUS
 62
     2
100
AcDbDimension
  2
*D30
 10
920.0
 20
522.5
 30
0.0
 11
715.0
 21
533.5
 31
0.0
 70
   160
  3
ISO-25
100
AcDbAlignedDimension
 13
510.0
 23
665.000031
 33
0.0
 14
920.0
 24
665.000031
 34
0.0
100
AcDbRotatedDimension
1001
ACAD
1000
DSTYLE
1002
{
1070
   270
1070
     2
1070
     6
1000
EX_NORM
1070
     7
1000
EX_NORM
1070
    41
1040
12.0
1070
    42
1040
6.0
1070
    44
1040
4.0
1070
    73
1070
     0
1070
    74
1070
     0
1070
    75
1070
     0
1070
    76
1070
     0
1070
    77
1070
     1
1070
    78
1070
     8
1070
   140
1040
13.85161662817552
1070
   147
1040
0.0
1070
   173
1070
     1
1070
   176
1070
     2
1070
   177
1070
     2
1070
   178
1070
     2
1070
   271
1070
     2
1070
   277
1070
     2
1070
   279
1070
     2
1070
   280
1070
     0
1070
   287
1070
     5
1070
   340
1005
161
1002
}
  0
DIMENSION
  5
241
330
1F
100
AcDbEntity
  8
Ｓ_１_１
  6
CONTINUOUS
 62
     2
100
AcDbDimension
  2
*D31
 10
948.0
 20
522.5
 30
0.0
 11
1014.0
 21
533.5
 31
0.0
 70
   160
  1
28（移動量）
  3
ISO-25
100
AcDbAlignedDimension
 13
920.0
 23
665.000031
 33
0.0
 14
948.0
 24
665.000031
 34
0.0
100
AcDbRotatedDimension
1001
ACAD
1000
DSTYLE
1002
{
1070
   270
1070
     2
1070
     6
1000
EX_NORM
1070
     7
1000
EX_NORM
1070
    41
1040
12.0
1070
    42
1040
6.0
1070
    44
1040
4.0
1070
    73
1070
     0
1070
    74
1070
     0
1070
    75
1070
     0
1070
    76
1070
     0
1070
    77
1070
     1
1070
    78
1070
     8
1070
   140
1040
13.85161662817552
1070
   147
1040
0.0
1070
   173
1070
     1
1070
   176
1070
     2
1070
   177
1070
     2
1070
   178
1070
     2
1070
   271
1070
     2
1070
   277
1070
     2
1070
   279
1070
     2
1070
   280
1070
     2
1070
   287
1070
     5
1070
   340
1005
161
1002
}
  0
DIMENSION
  5
24E
330
1F
100
AcDbEntity
  8
Ｓ_１_１
  6
CONTINUOUS
 62
     2
100
AcDbDimension
  2
*D32
 10
412.5
 20
954.999969
 30
0.0
 11
401.5000000000001
 21
770.0
 31
0.0
 70
   160
  3
ISO-25
100
AcDbAlignedDimension
 13
590.0
 23
585.000031
 33
0.0
 14
590.0
 24
954.999969
 34
0.0
 50
90.0
100
AcDbRotatedDimension
1001
ACAD
1000
DSTYLE
1002
{
1070
   270
1070
     2
1070
     6
1000
EX_NORM
1070
     7
1000
EX_NORM
1070
    41
1040
12.0
1070
    42
1040
6.0
1070
    44
1040
4.0
1070
    73
1070
     0
1070
    74
1070
     0
1070
    75
1070
     0
1070
    76
1070
     0
1070
    77
1070
     1
1070
    78
1070
     8
1070
   140
1040
13.85161662817552
1070
   147
1040
0.0
1070
   173
1070
     1
1070
   176
1070
     2
1070
   177
1070
     2
1070
   178
1070
     2
1070
   271
1070
     2
1070
   277
1070
     2
1070
   279
1070
     2
1070
   280
1070
     0
1070
   287
1070
     5
1070
   340
1005
161
1002
}
  0
DIMENSION
  5
25B
330
1F
100
AcDbEntity
  8
Ｓ_１_１
  6
CONTINUOUS
 62
     2
100
AcDbDimension
  2
*D33
 10
1017.5
 20
922.9999999999999
 30
0.0
 11
1006.5
 21
770.0
 31
0.0
 70
   160
  3
ISO-25
100
AcDbAlignedDimension
 13
715.0
 23
617.0
 33
0.0
 14
715.0
 24
923.0
 34
0.0
 50
90.0
100
AcDbRotatedDimension
1001
ACAD
1000
DSTYLE
1002
{
1070
   270
1070
     2
1070
     6
1000
EX_NORM
1070
     7
1000
EX_NORM
1070
    41
1040
12.0
1070
    42
1040
6.0
1070
    44
1040
4.0
1070
    73
1070
     0
1070
    74
1070
     0
1070
    75
1070
     0
1070
    76
1070
     0
1070
    77
1070
     1
1070
    78
1070
     8
1070
   140
1040
13.85161662817552
1070
   147
1040
0.0
1070
   173
1070
     1
1070
   176
1070
     2
1070
   177
1070
     2
1070
   178
1070
     2
1070
   271
1070
     2
1070
   277
1070
     2
1070
   279
1070
     2
1070
   280
1070
     0
1070
   287
1070
     5
1070
   340
1005
161
1002
}
  0
CIRCLE
  5
268
330
1F
100
AcDbEntity
  8
Ｓ_１_１
  6
EXLTYPE0
 62
     2
100
AcDbCircle
 10
715.0
 20
770.0
 30
0.0
 40
70.0
  0
DIMENSION
  5
269
330
1F
100
AcDbEntity
  8
Ｓ_１_１
  6
CONTINUOUS
 62
     2
100
AcDbDimension
  2
*D34
 10
654.3782217350904
 20
734.9999999999981
 30
0.0
 11
736.4261008749497
 21
795.0720710300086
 31
0.0
 70
   163
  3
ISO-25
100
AcDbDiametricDimension
 15
775.6217782649096
 25
805.0000000000019
 35
0.0
 40
0.0
1001
ACAD
1000
DSTYLE
1002
{
1070
   270
1070
     2
1070
     6
1000
EX_NORM
1070
     7
1000
EX_NORM
1070
    41
1040
12.0
1070
    73
1070
     0
1070
    74
1070
     0
1070
    77
1070
     1
1070
    78
1070
     8
1070
   140
1040
13.85161662817552
1070
   147
1040
0.0
1070
   173
1070
     1
1070
   176
1070
     2
1070
   177
1070
     2
1070
   178
1070
     2
1070
   271
1070
     2
1070
   277
1070
     2
1070
   279
1070
     2
1070
   280
1070
     0
1070
   287
1070
     5
1070
   340
1005
161
1002
}
  0
LEADER
  5
273
330
1F
100
AcDbEntity
  8
Ｓ_１_１
  6
CONTINUOUS
 62
     2
100
AcDbLeader
  3
ISO-25
 76
     3
 10
892.0000000000011
 20
395.9999994635477
 30
0.0
 10
936.38431765386
 20
472.87589269931
 30
0.0
 10
1106.26743371482
 20
472.87589269931
 30
0.0
1001
ACAD
1000
DSTYLE
1002
{
1070
     5
1000
EX_NORM
1070
    41
1040
12.0
1070
   341
1005
78
1002
}
  0
TEXT
  5
274
330
1F
100
AcDbEntity
  8
Ｓ_１_１
  6
CONTINUOUS
 62
     4
100
AcDbText
 10
944.2674337148201
 20
477.40714269931
 30
0.0
 40
13.85161662817552
  1
ユニバーサルヘッド
 41
0.9992307692307693
  7
EXCADTTF1
 72
     5
 11
1106.26743371482
 21
477.40714269931
 31
0.0
100
AcDbText
  0
LINE
  5
275
330
1F
100
AcDbEntity
  8
Ｓ_１_１
  6
CONTINUOUS
 62
     3
100
AcDbLine
 10
729.6969389312018
 20
260.9999988078999
 30
0.0
 11
700.3030610687982
 21
260.9999988078999
 31
0.0
  0
LINE
  5
276
330
1F
100
AcDbEntity
  8
Ｓ_１_１
  6
CONTINUOUS
 62
     3
100
AcDbLine
 10
830.0001309724003
 20
260.9999988078999
 30
0.0
 11
744.8496233468276
 21
260.9999988078999
 31
0.0
  0
LINE
  5
277
330
1F
100
AcDbEntity
  8
Ｓ_１_１
  6
CONTINUOUS
 62
     3
100
AcDbLine
 10
743.2897076612471
 20
270.0000138217104
 30
0.0
 11
864.9999990315
 21
270.0000138217104
 31
0.0
  0
LINE
  5
278
330
1F
100
AcDbEntity
  8
Ｓ_１_１
  6
CONTINUOUS
 62
     3
100
AcDbLine
 10
706.0000169189987
 20
270.0000138217104
 30
0.0
 11
723.9999830810013
 21
270.0000138217104
 31
0.0
  0
LINE
  5
279
330
1F
100
AcDbEntity
  8
Ｓ_１_１
  6
CONTINUOUS
 62
     3
100
AcDbLine
 10
743.8444106335269
 20
266.9999988079002
 30
0.0
 11
861.9999772465
 21
266.9999988079003
 31
0.0
  0
LINE
  5
27A
330
1F
100
AcDbEntity
  8
Ｓ_１_１
  6
CONTINUOUS
 62
     3
100
AcDbLine
 10
702.9999982565655
 20
266.9999988079002
 30
0.0
 11
727.0000017434345
 21
266.9999988079002
 31
0.0
  0
LINE
  5
27B
330
1F
100
AcDbEntity
  8
Ｓ_１_１
  6
CONTINUOUS
 62
     3
100
AcDbLine
 10
564.9999787864
 20
270.0000138217104
 30
0.0
 11
686.7102923387529
 21
270.0000138217104
 31
0.0
  0
LINE
  5
27C
330
1F
100
AcDbEntity
  8
Ｓ_１_１
  6
CONTINUOUS
 62
     3
100
AcDbLine
 10
567.9999932943999
 20
266.9999988079002
 30
0.0
 11
686.1555893664731
 21
266.9999988079002
 31
0.0
  0
LINE
  5
27D
330
1F
100
AcDbEntity
  8
Ｓ_１_１
  6
CONTINUOUS
 62
     3
100
AcDbLine
 10
685.1503766531724
 20
260.9999988078999
 30
0.0
 11
600.0000004843004
 21
260.9999988078999
 31
0.0
  0
LINE
  5
27E
330
1F
100
AcDbEntity
  8
Ｓ_１_１
  6
CONTINUOUS
 62
     3
100
AcDbLine
 10
734.6666433207126
 20
316.6363647688438
 30
0.0
 11
744.4999649810691
 21
263.4545465870253
 31
0.0
  0
LINE
  5
27F
330
1F
100
AcDbEntity
  8
Ｓ_１_１
  6
CONTINUOUS
 62
     3
100
AcDbLine
 10
695.3333566792874
 20
316.6363647688438
 30
0.0
 11
685.5000350189309
 21
263.4545465870253
 31
0.0
  0
ARC
  5
280
330
1F
100
AcDbEntity
  8
Ｓ_１_１
  6
CONTINUOUS
 62
     3
100
AcDbCircle
 10
715.0
 20
258.00000113248
 30
0.0
 40
30.0
100
AcDbArc
 50
169.5243183036102
 51
10.47568169638974
  0
ARC
  5
281
330
1F
100
AcDbEntity
  8
Ｓ_１_１
  6
CONTINUOUS
 62
     3
100
AcDbCircle
 10
715.0
 20
313.0000011324801
 30
0.0
 40
20.0
100
AcDbArc
 50
10.47568169638991
 51
169.5243183036101
  0
CIRCLE
  5
282
330
1F
100
AcDbEntity
  8
Ｓ_１_１
  6
CONTINUOUS
 62
     3
100
AcDbCircle
 10
715.0
 20
258.00000113248
 30
0.0
 40
15.0
  0
LINE
  5
283
330
1F
100
AcDbEntity
  8
Ｓ_１_１
  6
CONTINUOUS
 62
     3
100
AcDbLine
 10
511.0000017881807
 20
395.9999994635476
 30
0.0
 11
510.0000017881807
 21
394.9999994635476
 31
0.0
  0
LINE
  5
284
330
1F
100
AcDbEntity
  8
Ｓ_１_１
  6
CONTINUOUS
 62
     3
100
AcDbLine
 10
510.0000017881807
 20
394.9999994635476
 30
0.0
 11
510.0000017881807
 21
363.9999942183389
 31
0.0
  0
LINE
  5
285
330
1F
100
AcDbEntity
  8
Ｓ_１_１
  6
CONTINUOUS
 62
     3
100
AcDbLine
 10
919.999998211902
 20
394.9999994635476
 30
0.0
 11
918.999998211902
 21
395.9999994635476
 31
0.0
  0
LINE
  5
286
330
1F
100
AcDbEntity
  8
Ｓ_１_１
  6
CONTINUOUS
 62
     3
100
AcDbLine
 10
919.999998211902
 20
394.9999994635476
 30
0.0
 11
919.999998211902
 21
363.9999942183389
 31
0.0
  0
LINE
  5
287
330
1F
100
AcDbEntity
  8
Ｓ_１_１
  6
CONTINUOUS
 62
     3
100
AcDbLine
 10
915.50000000003
 20
336.0000011324802
 30
0.0
 11
915.50000000003
 21
338.0000011324802
 31
0.0
  0
LINE
  5
288
330
1F
100
AcDbEntity
  8
Ｓ_１_１
  6
CONTINUOUS
 62
     3
100
AcDbLine
 10
915.50000000003
 20
336.0000011324802
 30
0.0
 11
894.5000000000305
 21
336.0000011324802
 31
0.0
  0
LINE
  5
289
330
1F
100
AcDbEntity
  8
Ｓ_１_１
  6
CONTINUOUS
 62
     3
100
AcDbLine
 10
894.5000000000305
 20
336.0000011324802
 30
0.0
 11
894.5000000000305
 21
338.0000011324802
 31
0.0
  0
LINE
  5
28A
330
1F
100
AcDbEntity
  8
Ｓ_１_１
  6
CONTINUOUS
 62
     3
100
AcDbLine
 10
897.6623040249196
 20
329.0000011324802
 30
0.0
 11
912.3376959750199
 21
329.0000011324802
 31
0.0
  0
ARC
  5
28B
330
1F
100
AcDbEntity
  8
Ｓ_１_１
  6
CONTINUOUS
 62
     3
100
AcDbCircle
 10
904.9999999999695
 20
341.5416677991381
 30
0.0
 40
12.54166666665784
100
AcDbArc
 50
246.964968236204
 51
293.0350317637971
  0
LINE
  5
28C
330
1F
100
AcDbEntity
  8
Ｓ_１_１
  6
CONTINUOUS
 62
     3
100
AcDbLine
 10
895.2320853379897
 20
330.0000011324802
 30
0.0
 11
895.2320853379897
 21
336.0000011324802
 31
0.0
  0
LINE
  5
28D
330
1F
100
AcDbEntity
  8
Ｓ_１_１
  6
CONTINUOUS
 62
     3
100
AcDbLine
 10
914.7679146619498
 20
330.0000011324802
 30
0.0
 11
914.7679146619498
 21
336.0000011324802
 31
0.0
  0
LINE
  5
28E
330
1F
100
AcDbEntity
  8
Ｓ_１_１
  6
CONTINUOUS
 62
     3
100
AcDbLine
 10
897.6623040249196
 20
329.0000011324802
 30
0.0
 11
895.2320853379797
 21
330.0000011324802
 31
0.0
  0
ARC
  5
28F
330
1F
100
AcDbEntity
  8
Ｓ_１_１
  6
CONTINUOUS
 62
     3
100
AcDbCircle
 10
897.6623040249146
 20
332.4529825656442
 30
0.0
 40
3.452981433164086
100
AcDbArc
 50
270.0
 51
314.7329210741512
  0
ARC
  5
290
330
1F
100
AcDbEntity
  8
Ｓ_１_１
  6
CONTINUOUS
 62
     3
100
AcDbCircle
 10
912.3376959750249
 20
332.4529825656442
 30
0.0
 40
3.452981433164086
100
AcDbArc
 50
225.2670789258489
 51
270.0
  0
LINE
  5
291
330
1F
100
AcDbEntity
  8
Ｓ_１_１
  6
CONTINUOUS
 62
     3
100
AcDbLine
 10
912.3376959750199
 20
329.0000011324802
 30
0.0
 11
914.7679146619598
 21
330.0000011324802
 31
0.0
  0
LINE
  5
292
330
1F
100
AcDbEntity
  8
Ｓ_１_１
  6
CONTINUOUS
 62
     3
100
AcDbLine
 10
900.0925227118596
 20
330.0000011324802
 30
0.0
 11
900.0925227118596
 21
336.0000011324802
 31
0.0
  0
LINE
  5
293
330
1F
100
AcDbEntity
  8
Ｓ_１_１
  6
CONTINUOUS
 62
     3
100
AcDbLine
 10
909.9074772880795
 20
330.0000011324802
 30
0.0
 11
909.9074772880795
 21
336.0000011324802
 31
0.0
  0
LINE
  5
294
330
1F
100
AcDbEntity
  8
Ｓ_１_１
  6
CONTINUOUS
 62
     3
100
AcDbLine
 10
514.4999999999698
 20
336.0000011324802
 30
0.0
 11
514.4999999999698
 21
338.0000011324802
 31
0.0
  0
LINE
  5
295
330
1F
100
AcDbEntity
  8
Ｓ_１_１
  6
CONTINUOUS
 62
     3
100
AcDbLine
 10
514.4999999999698
 20
336.0000011324802
 30
0.0
 11
535.4999999999693
 21
336.0000011324802
 31
0.0
  0
LINE
  5
296
330
1F
100
AcDbEntity
  8
Ｓ_１_１
  6
CONTINUOUS
 62
     3
100
AcDbLine
 10
535.4999999999693
 20
336.0000011324802
 30
0.0
 11
535.4999999999693
 21
338.0000011324802
 31
0.0
  0
LINE
  5
297
330
1F
100
AcDbEntity
  8
Ｓ_１_１
  6
CONTINUOUS
 62
     3
100
AcDbLine
 10
532.3376959750801
 20
329.0000011324802
 30
0.0
 11
517.6623040249799
 21
329.0000011324802
 31
0.0
  0
ARC
  5
298
330
1F
100
AcDbEntity
  8
Ｓ_１_１
  6
CONTINUOUS
 62
     3
100
AcDbCircle
 10
525.0000000000302
 20
341.5416677991381
 30
0.0
 40
12.54166666665784
100
AcDbArc
 50
246.9649682362036
 51
293.0350317637964
  0
LINE
  5
299
330
1F
100
AcDbEntity
  8
Ｓ_１_１
  6
CONTINUOUS
 62
     3
100
AcDbLine
 10
534.7679146620101
 20
330.0000011324802
 30
0.0
 11
534.7679146620101
 21
336.0000011324802
 31
0.0
  0
LINE
  5
29A
330
1F
100
AcDbEntity
  8
Ｓ_１_１
  6
CONTINUOUS
 62
     3
100
AcDbLine
 10
515.23208533805
 20
330.0000011324802
 30
0.0
 11
515.23208533805
 21
336.0000011324802
 31
0.0
  0
LINE
  5
29B
330
1F
100
AcDbEntity
  8
Ｓ_１_１
  6
CONTINUOUS
 62
     3
100
AcDbLine
 10
532.3376959750801
 20
329.0000011324802
 30
0.0
 11
534.7679146620201
 21
330.0000011324802
 31
0.0
  0
ARC
  5
29C
330
1F
100
AcDbEntity
  8
Ｓ_１_１
  6
CONTINUOUS
 62
     3
100
AcDbCircle
 10
532.3376959750851
 20
332.4529825656442
 30
0.0
 40
3.452981433164086
100
AcDbArc
 50
225.2670789258488
 51
270.0000000000006
  0
ARC
  5
29D
330
1F
100
AcDbEntity
  8
Ｓ_１_１
  6
CONTINUOUS
 62
     3
100
AcDbCircle
 10
517.6623040249749
 20
332.4529825656442
 30
0.0
 40
3.452981433164086
100
AcDbArc
 50
270.0
 51
314.7329210741512
  0
LINE
  5
29E
330
1F
100
AcDbEntity
  8
Ｓ_１_１
  6
CONTINUOUS
 62
     3
100
AcDbLine
 10
517.6623040249799
 20
329.0000011324802
 30
0.0
 11
515.23208533804
 21
330.0000011324802
 31
0.0
  0
LINE
  5
29F
330
1F
100
AcDbEntity
  8
Ｓ_１_１
  6
CONTINUOUS
 62
     3
100
AcDbLine
 10
529.9074772881402
 20
330.0000011324802
 30
0.0
 11
529.9074772881402
 21
336.0000011324802
 31
0.0
  0
LINE
  5
2A0
330
1F
100
AcDbEntity
  8
Ｓ_１_１
  6
CONTINUOUS
 62
     3
100
AcDbLine
 10
520.0925227119203
 20
330.0000011324802
 30
0.0
 11
520.0925227119203
 21
336.0000011324802
 31
0.0
  0
LINE
  5
2A1
330
1F
100
AcDbEntity
  8
Ｓ_１_１
  6
CONTINUOUS
 62
     3
100
AcDbLine
 10
654.49999999994
 20
336.0000011324802
 30
0.0
 11
654.49999999994
 21
338.0000011324802
 31
0.0
  0
LINE
  5
2A2
330
1F
100
AcDbEntity
  8
Ｓ_１_１
  6
CONTINUOUS
 62
     3
100
AcDbLine
 10
654.49999999994
 20
336.0000011324802
 30
0.0
 11
675.4999999999395
 21
336.0000011324802
 31
0.0
  0
LINE
  5
2A3
330
1F
100
AcDbEntity
  8
Ｓ_１_１
  6
CONTINUOUS
 62
     3
100
AcDbLine
 10
675.4999999999395
 20
336.0000011324802
 30
0.0
 11
675.4999999999395
 21
338.0000011324802
 31
0.0
  0
LINE
  5
2A4
330
1F
100
AcDbEntity
  8
Ｓ_１_１
  6
CONTINUOUS
 62
     3
100
AcDbLine
 10
672.3376959750503
 20
329.0000011324802
 30
0.0
 11
657.6623040249501
 21
329.0000011324802
 31
0.0
  0
ARC
  5
2A5
330
1F
100
AcDbEntity
  8
Ｓ_１_１
  6
CONTINUOUS
 62
     3
100
AcDbCircle
 10
665.0000000000005
 20
341.5416677991381
 30
0.0
 40
12.54166666665784
100
AcDbArc
 50
246.9649682362036
 51
293.0350317637964
  0
LINE
  5
2A6
330
1F
100
AcDbEntity
  8
Ｓ_１_１
  6
CONTINUOUS
 62
     3
100
AcDbLine
 10
674.7679146619803
 20
330.0000011324802
 30
0.0
 11
674.7679146619803
 21
336.0000011324802
 31
0.0
  0
LINE
  5
2A7
330
1F
100
AcDbEntity
  8
Ｓ_１_１
  6
CONTINUOUS
 62
     3
100
AcDbLine
 10
655.2320853380202
 20
330.0000011324802
 30
0.0
 11
655.2320853380202
 21
336.0000011324802
 31
0.0
  0
LINE
  5
2A8
330
1F
100
AcDbEntity
  8
Ｓ_１_１
  6
CONTINUOUS
 62
     3
100
AcDbLine
 10
672.3376959750503
 20
329.0000011324802
 30
0.0
 11
674.7679146619903
 21
330.0000011324802
 31
0.0
  0
ARC
  5
2A9
330
1F
100
AcDbEntity
  8
Ｓ_１_１
  6
CONTINUOUS
 62
     3
100
AcDbCircle
 10
672.3376959750553
 20
332.4529825656442
 30
0.0
 40
3.452981433164086
100
AcDbArc
 50
225.2670789258488
 51
270.0000000000006
  0
ARC
  5
2AA
330
1F
100
AcDbEntity
  8
Ｓ_１_１
  6
CONTINUOUS
 62
     3
100
AcDbCircle
 10
657.6623040249451
 20
332.4529825656442
 30
0.0
 40
3.452981433164086
100
AcDbArc
 50
270.0
 51
314.7329210741512
  0
LINE
  5
2AB
330
1F
100
AcDbEntity
  8
Ｓ_１_１
  6
CONTINUOUS
 62
     3
100
AcDbLine
 10
657.6623040249501
 20
329.0000011324802
 30
0.0
 11
655.2320853380102
 21
330.0000011324802
 31
0.0
  0
LINE
  5
2AC
330
1F
100
AcDbEntity
  8
Ｓ_１_１
  6
CONTINUOUS
 62
     3
100
AcDbLine
 10
669.9074772881104
 20
330.0000011324802
 30
0.0
 11
669.9074772881104
 21
336.0000011324802
 31
0.0
  0
LINE
  5
2AD
330
1F
100
AcDbEntity
  8
Ｓ_１_１
  6
CONTINUOUS
 62
     3
100
AcDbLine
 10
660.0925227118905
 20
330.0000011324802
 30
0.0
 11
660.0925227118905
 21
336.0000011324802
 31
0.0
  0
LINE
  5
2AE
330
1F
100
AcDbEntity
  8
Ｓ_１_１
  6
CONTINUOUS
 62
     3
100
AcDbLine
 10
604.4999999999397
 20
336.0000011324802
 30
0.0
 11
604.4999999999397
 21
338.0000011324802
 31
0.0
  0
LINE
  5
2AF
330
1F
100
AcDbEntity
  8
Ｓ_１_１
  6
CONTINUOUS
 62
     3
100
AcDbLine
 10
604.4999999999397
 20
336.0000011324802
 30
0.0
 11
625.4999999999393
 21
336.0000011324802
 31
0.0
  0
LINE
  5
2B0
330
1F
100
AcDbEntity
  8
Ｓ_１_１
  6
CONTINUOUS
 62
     3
100
AcDbLine
 10
625.4999999999393
 20
336.0000011324802
 30
0.0
 11
625.4999999999393
 21
338.0000011324802
 31
0.0
  0
LINE
  5
2B1
330
1F
100
AcDbEntity
  8
Ｓ_１_１
  6
CONTINUOUS
 62
     3
100
AcDbLine
 10
622.3376959750501
 20
329.0000011324802
 30
0.0
 11
607.6623040249499
 21
329.0000011324802
 31
0.0
  0
ARC
  5
2B2
330
1F
100
AcDbEntity
  8
Ｓ_１_１
  6
CONTINUOUS
 62
     3
100
AcDbCircle
 10
615.0000000000002
 20
341.5416677991381
 30
0.0
 40
12.54166666665784
100
AcDbArc
 50
246.9649682362036
 51
293.0350317637964
  0
LINE
  5
2B3
330
1F
100
AcDbEntity
  8
Ｓ_１_１
  6
CONTINUOUS
 62
     3
100
AcDbLine
 10
624.7679146619801
 20
330.0000011324802
 30
0.0
 11
624.7679146619801
 21
336.0000011324802
 31
0.0
  0
LINE
  5
2B4
330
1F
100
AcDbEntity
  8
Ｓ_１_１
  6
CONTINUOUS
 62
     3
100
AcDbLine
 10
605.2320853380199
 20
330.0000011324802
 30
0.0
 11
605.2320853380199
 21
336.0000011324802
 31
0.0
  0
LINE
  5
2B5
330
1F
100
AcDbEntity
  8
Ｓ_１_１
  6
CONTINUOUS
 62
     3
100
AcDbLine
 10
622.3376959750501
 20
329.0000011324802
 30
0.0
 11
624.7679146619901
 21
330.0000011324802
 31
0.0
  0
ARC
  5
2B6
330
1F
100
AcDbEntity
  8
Ｓ_１_１
  6
CONTINUOUS
 62
     3
100
AcDbCircle
 10
622.3376959750551
 20
332.4529825656442
 30
0.0
 40
3.452981433164086
100
AcDbArc
 50
225.2670789258488
 51
270.0000000000006
  0
ARC
  5
2B7
330
1F
100
AcDbEntity
  8
Ｓ_１_１
  6
CONTINUOUS
 62
     3
100
AcDbCircle
 10
607.6623040249449
 20
332.4529825656442
 30
0.0
 40
3.452981433164086
100
AcDbArc
 50
270.0
 51
314.7329210741512
  0
LINE
  5
2B8
330
1F
100
AcDbEntity
  8
Ｓ_１_１
  6
CONTINUOUS
 62
     3
100
AcDbLine
 10
607.6623040249499
 20
329.0000011324802
 30
0.0
 11
605.2320853380099
 21
330.0000011324802
 31
0.0
  0
LINE
  5
2B9
330
1F
100
AcDbEntity
  8
Ｓ_１_１
  6
CONTINUOUS
 62
     3
100
AcDbLine
 10
619.9074772881102
 20
330.0000011324802
 30
0.0
 11
619.9074772881102
 21
336.0000011324802
 31
0.0
  0
LINE
  5
2BA
330
1F
100
AcDbEntity
  8
Ｓ_１_１
  6
CONTINUOUS
 62
     3
100
AcDbLine
 10
610.0925227118903
 20
330.0000011324802
 30
0.0
 11
610.0925227118903
 21
336.0000011324802
 31
0.0
  0
LINE
  5
2BB
330
1F
100
AcDbEntity
  8
Ｓ_１_１
  6
CONTINUOUS
 62
     3
100
AcDbLine
 10
919.999998211902
 20
363.9999942183389
 30
0.0
 11
919.999998211902
 21
363.2111863493814
 31
0.0
  0
LINE
  5
2BC
330
1F
100
AcDbEntity
  8
Ｓ_１_１
  6
CONTINUOUS
 62
     3
100
AcDbLine
 10
523.5239827633318
 20
363.9999942183389
 30
0.0
 11
510.0000017881807
 21
363.9999942183389
 31
0.0
  0
POLYLINE
  5
2BD
330
1F
100
AcDbEntity
  8
Ｓ_１_１
  6
CONTINUOUS
 62
     3
100
AcDb2dPolyline
 66
     1
 10
0.0
 20
0.0
 30
0.0
 70
   128
  0
VERTEX
  5
2BE
330
2BD
100
AcDbEntity
  8
Ｓ_１_１
  6
CONTINUOUS
 62
     3
100
AcDbVertex
100
AcDb2dVertex
 10
590.0000000000414
 20
364.2902539372338
 30
0.0
  0
VERTEX
  5
2BF
330
2BD
100
AcDbEntity
  8
Ｓ_１_１
  6
CONTINUOUS
 62
     3
100
AcDbVertex
100
AcDb2dVertex
 10
585.2525496483263
 20
364.4670860171212
 30
0.0
  0
VERTEX
  5
2C0
330
2BD
100
AcDbEntity
  8
Ｓ_１_１
  6
CONTINUOUS
 62
     3
100
AcDbVertex
100
AcDb2dVertex
 10
580.5045777559694
 20
364.6135346293344
 30
0.0
  0
VERTEX
  5
2C1
330
2BD
100
AcDbEntity
  8
Ｓ_１_１
  6
CONTINUOUS
 62
     3
100
AcDbVertex
100
AcDb2dVertex
 10
575.7561886310991
 20
364.7295848727121
 30
0.0
  0
VERTEX
  5
2C2
330
2BD
100
AcDbEntity
  8
Ｓ_１_１
  6
CONTINUOUS
 62
     3
100
AcDbVertex
100
AcDb2dVertex
 10
571.0074716806826
 20
364.8152367472543
 30
0.0
  0
VERTEX
  5
2C3
330
2BD
100
AcDbEntity
  8
Ｓ_１_１
  6
CONTINUOUS
 62
     3
100
AcDbVertex
100
AcDb2dVertex
 10
566.2585312128481
 20
364.8705051541223
 30
0.0
  0
VERTEX
  5
2C4
330
2BD
100
AcDbEntity
  8
Ｓ_１_１
  6
CONTINUOUS
 62
     3
100
AcDbVertex
100
AcDb2dVertex
 10
561.5094566345629
 20
364.8953602909936
 30
0.0
  0
VERTEX
  5
2C5
330
2BD
100
AcDbEntity
  8
Ｓ_１_１
  6
CONTINUOUS
 62
     3
100
AcDbVertex
100
AcDb2dVertex
 10
556.7603671551165
 20
364.8898170590295
 30
0.0
  0
VERTEX
  5
2C6
330
2BD
100
AcDbEntity
  8
Ｓ_１_１
  6
CONTINUOUS
 62
     3
100
AcDbVertex
100
AcDb2dVertex
 10
552.0113372803148
 20
364.8538903593911
 30
0.0
  0
VERTEX
  5
2C7
330
2BD
100
AcDbEntity
  8
Ｓ_１_１
  6
CONTINUOUS
 62
     3
100
AcDbVertex
100
AcDb2dVertex
 10
547.2624564171251
 20
364.7875503897561
 30
0.0
  0
VERTEX
  5
2C8
330
2BD
100
AcDbEntity
  8
Ｓ_１_１
  6
CONTINUOUS
 62
     3
100
AcDbVertex
100
AcDb2dVertex
 10
542.5138586759981
 20
364.6908269524469
 30
0.0
  0
VERTEX
  5
2C9
330
2BD
100
AcDbEntity
  8
Ｓ_１_１
  6
CONTINUOUS
 62
     3
100
AcDbVertex
100
AcDb2dVertex
 10
537.7656036615786
 20
364.5637051463021
 30
0.0
  0
VERTEX
  5
2CA
330
2BD
100
AcDbEntity
  8
Ｓ_１_１
  6
CONTINUOUS
 62
     3
100
AcDbVertex
100
AcDb2dVertex
 10
533.017810583156
 20
364.406184971322
 30
0.0
  0
VERTEX
  5
2CB
330
2BD
100
AcDbEntity
  8
Ｓ_１_１
  6
CONTINUOUS
 62
     3
100
AcDbVertex
100
AcDb2dVertex
 10
528.2705688476976
 20
364.2182813286676
 30
0.0
  0
VERTEX
  5
2CC
330
2BD
100
AcDbEntity
  8
Ｓ_１_１
  6
CONTINUOUS
 62
     3
100
AcDbVertex
100
AcDb2dVertex
 10
523.5239827633318
 20
363.9999942183389
 30
0.0
  0
SEQEND
  5
2CD
330
2BD
100
AcDbEntity
  8
Ｓ_１_１
  6
CONTINUOUS
 62
     3
  0
LINE
  5
2CE
330
1F
100
AcDbEntity
  8
Ｓ_１_１
  6
CONTINUOUS
 62
     3
100
AcDbLine
 10
919.999998211902
 20
363.2111863493814
 30
0.0
 11
919.999998211902
 21
349.9999956488504
 31
0.0
  0
LINE
  5
2CF
330
1F
100
AcDbEntity
  8
Ｓ_１_１
  6
CONTINUOUS
 62
     3
100
AcDbLine
 10
590.0000000000414
 20
364.2902539372338
 30
0.0
 11
590.0000000000414
 21
349.9999956488504
 31
0.0
  0
LINE
  5
2D0
330
1F
100
AcDbEntity
  8
Ｓ_１_１
  6
CONTINUOUS
 62
     3
100
AcDbLine
 10
510.0000017881807
 20
363.2111863493814
 30
0.0
 11
510.0000017881807
 21
363.9999942183389
 31
0.0
  0
POLYLINE
  5
2D1
330
1F
100
AcDbEntity
  8
Ｓ_１_１
  6
CONTINUOUS
 62
     3
100
AcDb2dPolyline
 66
     1
 10
0.0
 20
0.0
 30
0.0
 70
   128
  0
VERTEX
  5
2D2
330
2D1
100
AcDbEntity
  8
Ｓ_１_１
  6
CONTINUOUS
 62
     3
100
AcDbVertex
100
AcDb2dVertex
 10
510.0000017881807
 20
363.2111863493814
 30
0.0
  0
VERTEX
  5
2D3
330
2D1
100
AcDbEntity
  8
Ｓ_１_１
  6
CONTINUOUS
 62
     3
100
AcDbVertex
100
AcDb2dVertex
 10
514.7023761272844
 20
363.513486206521
 30
0.0
  0
VERTEX
  5
2D4
330
2D1
100
AcDbEntity
  8
Ｓ_１_１
  6
CONTINUOUS
 62
     3
100
AcDbVertex
100
AcDb2dVertex
 10
519.405659437221
 20
363.7859539389505
 30
0.0
  0
VERTEX
  5
2D5
330
2D1
100
AcDbEntity
  8
Ｓ_１_１
  6
CONTINUOUS
 62
     3
100
AcDbVertex
100
AcDb2dVertex
 10
524.1097772121843
 20
364.0285895466699
 30
0.0
  0
VERTEX
  5
2D6
330
2D1
100
AcDbEntity
  8
Ｓ_１_１
  6
CONTINUOUS
 62
     3
100
AcDbVertex
100
AcDb2dVertex
 10
528.8145953417238
 20
364.2413632273568
 30
0.0
  0
VERTEX
  5
2D7
330
2D1
100
AcDbEntity
  8
Ｓ_１_１
  6
CONTINUOUS
 62
     3
100
AcDbVertex
100
AcDb2dVertex
 10
533.5200542211946
 20
364.4242898821725
 30
0.0
  0
VERTEX
  5
2D8
330
2D1
100
AcDbEntity
  8
Ｓ_１_１
  6
CONTINUOUS
 62
     3
100
AcDbVertex
100
AcDb2dVertex
 10
538.2260495424684
 20
364.5773546099557
 30
0.0
  0
VERTEX
  5
2D9
330
2D1
100
AcDbEntity
  8
Ｓ_１_１
  6
CONTINUOUS
 62
     3
100
AcDbVertex
100
AcDb2dVertex
 10
542.9324769974169
 20
364.7005723118676
 30
0.0
  0
VERTEX
  5
2DA
330
2D1
100
AcDbEntity
  8
Ｓ_１_１
  6
CONTINUOUS
 62
     3
100
AcDbVertex
100
AcDb2dVertex
 10
547.6392471790728
 20
364.7939280867471
 30
0.0
  0
VERTEX
  5
2DB
330
2D1
100
AcDbEntity
  8
Ｓ_１_１
  6
CONTINUOUS
 62
     3
100
AcDbVertex
100
AcDb2dVertex
 10
552.3462557793077
 20
364.8574219345941
 30
0.0
  0
VERTEX
  5
2DC
330
2D1
100
AcDbEntity
  8
Ｓ_１_１
  6
CONTINUOUS
 62
     3
100
AcDbVertex
100
AcDb2dVertex
 10
557.0534282923159
 20
364.8910389542474
 30
0.0
  0
VERTEX
  5
2DD
330
2D1
100
AcDbEntity
  8
Ｓ_１_１
  6
CONTINUOUS
 62
     3
100
AcDbVertex
100
AcDb2dVertex
 10
561.7606604099688
 20
364.8948089480294
 30
0.0
  0
VERTEX
  5
2DE
330
2D1
100
AcDbEntity
  8
Ｓ_１_１
  6
CONTINUOUS
 62
     3
100
AcDbVertex
100
AcDb2dVertex
 10
566.4678627252993
 20
364.8687021136178
 30
0.0
  0
VERTEX
  5
2DF
330
2D1
100
AcDbEntity
  8
Ｓ_１_１
  6
CONTINUOUS
 62
     3
100
AcDbVertex
100
AcDb2dVertex
 10
571.174930930179
 20
364.8127333521737
 30
0.0
  0
VERTEX
  5
2E0
330
2D1
100
AcDbEntity
  8
Ｓ_１_１
  6
CONTINUOUS
 62
     3
100
AcDbVertex
100
AcDb2dVertex
 10
575.8817756176409
 20
364.7269026636972
 30
0.0
  0
VERTEX
  5
2E1
330
2D1
100
AcDbEntity
  8
Ｓ_１_１
  6
CONTINUOUS
 62
     3
100
AcDbVertex
100
AcDb2dVertex
 10
580.5882924795565
 20
364.6112100481881
 30
0.0
  0
VERTEX
  5
2E2
330
2D1
100
AcDbEntity
  8
Ｓ_１_１
  6
CONTINUOUS
 62
     3
100
AcDbVertex
100
AcDb2dVertex
 10
585.2944070101198
 20
364.4656704068078
 30
0.0
  0
VERTEX
  5
2E3
330
2D1
100
AcDbEntity
  8
Ｓ_１_１
  6
CONTINUOUS
 62
     3
100
AcDbVertex
100
AcDb2dVertex
 10
590.0000000000414
 20
364.2902539372338
 30
0.0
  0
SEQEND
  5
2E4
330
2D1
100
AcDbEntity
  8
Ｓ_１_１
  6
CONTINUOUS
 62
     3
  0
LINE
  5
2E5
330
1F
100
AcDbEntity
  8
Ｓ_１_１
  6
CONTINUOUS
 62
     3
100
AcDbLine
 10
510.0000017881807
 20
349.9999956488504
 30
0.0
 11
510.0000017881807
 21
363.2111863493814
 31
0.0
  0
LINE
  5
2E6
330
1F
100
AcDbEntity
  8
Ｓ_１_１
  6
CONTINUOUS
 62
     3
100
AcDbLine
 10
919.999998211902
 20
349.9999956488504
 30
0.0
 11
919.999998211902
 21
338.0000011324776
 31
0.0
  0
LINE
  5
2E7
330
1F
100
AcDbEntity
  8
Ｓ_１_１
  6
CONTINUOUS
 62
     3
100
AcDbLine
 10
590.0000000000414
 20
349.9999956488504
 30
0.0
 11
590.0000000000414
 21
338.0000011324777
 31
0.0
  0
LINE
  5
2E8
330
1F
100
AcDbEntity
  8
Ｓ_１_１
  6
CONTINUOUS
 62
     3
100
AcDbLine
 10
510.0000017881807
 20
338.0000011324777
 30
0.0
 11
510.0000017881807
 21
349.9999956488504
 31
0.0
  0
LINE
  5
2E9
330
1F
100
AcDbEntity
  8
Ｓ_１_１
  6
CONTINUOUS
 62
     3
100
AcDbLine
 10
565.0000011921
 20
269.9999841343002
 30
0.0
 11
567.9999932897005
 21
266.9999915308994
 31
0.0
  0
LINE
  5
2EA
330
1F
100
AcDbEntity
  8
Ｓ_１_１
  6
CONTINUOUS
 62
     3
100
AcDbLine
 10
830.0001309724003
 20
222.0001070100001
 30
0.0
 11
600.0000004843004
 21
222.0001070100001
 31
0.0
  0
LINE
  5
2EB
330
1F
100
AcDbEntity
  8
Ｓ_１_１
  6
CONTINUOUS
 62
     3
100
AcDbLine
 10
830.0001309724003
 20
260.9999988078999
 30
0.0
 11
830.0001309724003
 21
222.0001070100001
 31
0.0
  0
LINE
  5
2EC
330
1F
100
AcDbEntity
  8
Ｓ_１_１
  6
CONTINUOUS
 62
     3
100
AcDbLine
 10
827.0000071898007
 20
260.9999988078999
 30
0.0
 11
827.0000071898007
 21
266.9999988079002
 31
0.0
  0
LINE
  5
2ED
330
1F
100
AcDbEntity
  8
Ｓ_１_１
  6
CONTINUOUS
 62
     3
100
AcDbLine
 10
600.0000004843002
 20
260.9999988078999
 30
0.0
 11
600.0000004843002
 21
221.9999755533003
 31
0.0
  0
LINE
  5
2EE
330
1F
100
AcDbEntity
  8
Ｓ_１_１
  6
CONTINUOUS
 62
     3
100
AcDbLine
 10
602.9999928102
 20
260.9999988078999
 30
0.0
 11
602.9999928102
 21
266.9999988079002
 31
0.0
  0
LINE
  5
2EF
330
1F
100
AcDbEntity
  8
Ｓ_１_１
  6
CONTINUOUS
 62
     3
100
AcDbLine
 10
864.9999693441002
 20
269.9999841343
 30
0.0
 11
861.9999772465001
 21
266.9999915308994
 31
0.0
  0
LINE
  5
2F0
330
1F
100
AcDbEntity
  8
Ｓ_１_１
  6
CONTINUOUS
 62
     3
100
AcDbLine
 10
602.0000080838001
 20
219.9999999999994
 30
0.0
 11
828.0000242995202
 21
219.9999999999994
 31
0.0
  0
LINE
  5
2F1
330
1F
100
AcDbEntity
  8
Ｓ_１_１
  6
CONTINUOUS
 62
     3
100
AcDbLine
 10
830.0001309724
 20
222.0001070100001
 30
0.0
 11
828.0001182580002
 21
220.0000939585001
 31
0.0
  0
LINE
  5
2F2
330
1F
100
AcDbEntity
  8
Ｓ_１_１
  6
CONTINUOUS
 62
     3
100
AcDbLine
 10
599.9998690276002
 20
222.0001070100001
 30
0.0
 11
601.9998817420001
 21
220.0000939585001
 31
0.0
  0
LINE
  5
2F3
330
1F
100
AcDbEntity
  8
Ｓ_１_１
  6
CONTINUOUS
 62
     3
100
AcDbLine
 10
590.4142135623699
 20
395.9999994635501
 30
0.0
 11
590.00000000004
 21
394.9999994635501
 31
0.0
  0
LINE
  5
2F4
330
1F
100
AcDbEntity
  8
Ｓ_１_１
  6
CONTINUOUS
 62
     3
100
AcDbLine
 10
590.0000000000414
 20
394.9999994635533
 30
0.0
 11
590.0000000000414
 21
364.2902539372338
 31
0.0
  0
POLYLINE
  5
2F5
330
1F
100
AcDbEntity
  8
Ｓ_１_１
  6
CONTINUOUS
 62
     3
100
AcDb2dPolyline
 66
     1
 10
0.0
 20
0.0
 30
0.0
 70
   128
  0
VERTEX
  5
2F6
330
2F5
100
AcDbEntity
  8
Ｓ_１_１
  6
CONTINUOUS
 62
     3
100
AcDbVertex
100
AcDb2dVertex
 10
884.0657138824056
 20
287.4501086473359
 30
0.0
  0
VERTEX
  5
2F7
330
2F5
100
AcDbEntity
  8
Ｓ_１_１
  6
CONTINUOUS
 62
     3
100
AcDbVertex
100
AcDb2dVertex
 10
884.2442893981527
 20
286.9864850938214
 30
0.0
  0
VERTEX
  5
2F8
330
2F5
100
AcDbEntity
  8
Ｓ_１_１
  6
CONTINUOUS
 62
     3
100
AcDbVertex
100
AcDb2dVertex
 10
884.4398969411443
 20
286.5368388295068
 30
0.0
  0
VERTEX
  5
2F9
330
2F5
100
AcDbEntity
  8
Ｓ_１_１
  6
CONTINUOUS
 62
     3
100
AcDbVertex
100
AcDb2dVertex
 10
884.6520298718999
 20
286.102417826642
 30
0.0
  0
VERTEX
  5
2FA
330
2F5
100
AcDbEntity
  8
Ｓ_１_１
  6
CONTINUOUS
 62
     3
100
AcDbVertex
100
AcDb2dVertex
 10
884.8800772428106
 20
285.6844328045739
 30
0.0
  0
VERTEX
  5
2FB
330
2F5
100
AcDbEntity
  8
Ｓ_１_１
  6
CONTINUOUS
 62
     3
100
AcDbVertex
100
AcDb2dVertex
 10
885.1233983039449
 20
285.2840497791661
 30
0.0
  0
VERTEX
  5
2FC
330
2F5
100
AcDbEntity
  8
Ｓ_１_１
  6
CONTINUOUS
 62
     3
100
AcDbVertex
100
AcDb2dVertex
 10
885.3813225030492
 20
284.9023863375081
 30
0.0
  0
VERTEX
  5
2FD
330
2F5
100
AcDbEntity
  8
Ｓ_１_１
  6
CONTINUOUS
 62
     3
100
AcDbVertex
100
AcDb2dVertex
 10
885.6531345843862
 20
284.5405079126252
 30
0.0
  0
VERTEX
  5
2FE
330
2F5
100
AcDbEntity
  8
Ｓ_１_１
  6
CONTINUOUS
 62
     3
100
AcDbVertex
100
AcDb2dVertex
 10
885.9380596875737
 20
284.1994166076078
 30
0.0
  0
VERTEX
  5
2FF
330
2F5
100
AcDbEntity
  8
Ｓ_１_１
  6
CONTINUOUS
 62
     3
100
AcDbVertex
100
AcDb2dVertex
 10
886.235337853391
 20
283.8800698220624
 30
0.0
  0
VERTEX
  5
300
330
2F5
100
AcDbEntity
  8
Ｓ_１_１
  6
CONTINUOUS
 62
     3
100
AcDbVertex
100
AcDb2dVertex
 10
886.5441048144887
 20
283.5833504497899
 30
0.0
  0
VERTEX
  5
301
330
2F5
100
AcDbEntity
  8
Ｓ_１_１
  6
CONTINUOUS
 62
     3
100
AcDbVertex
100
AcDb2dVertex
 10
886.8635112046788
 20
283.3100929558171
 30
0.0
  0
VERTEX
  5
302
330
2F5
100
AcDbEntity
  8
Ｓ_１_１
  6
CONTINUOUS
 62
     3
100
AcDbVertex
100
AcDb2dVertex
 10
887.1926778554509
 20
283.061057299365
 30
0.0
  0
VERTEX
  5
303
330
2F5
100
AcDbEntity
  8
Ｓ_１_１
  6
CONTINUOUS
 62
     3
100
AcDbVertex
100
AcDb2dVertex
 10
887.530680894811
 20
282.8369326591386
 30
0.0
  0
VERTEX
  5
304
330
2F5
100
AcDbEntity
  8
Ｓ_１_１
  6
CONTINUOUS
 62
     3
100
AcDbVertex
100
AcDb2dVertex
 10
887.8765666484426
 20
282.6383486091985
 30
0.0
  0
VERTEX
  5
305
330
2F5
100
AcDbEntity
  8
Ｓ_１_１
  6
CONTINUOUS
 62
     3
100
AcDbVertex
100
AcDb2dVertex
 10
888.2293814420293
 20
282.4658602177991
 30
0.0
  0
VERTEX
  5
306
330
2F5
100
AcDbEntity
  8
Ｓ_１_１
  6
CONTINUOUS
 62
     3
100
AcDbVertex
100
AcDb2dVertex
 10
888.5881567000936
 20
282.3199405968084
 30
0.0
  0
VERTEX
  5
307
330
2F5
100
AcDbEntity
  8
Ｓ_１_１
  6
CONTINUOUS
 62
     3
100
AcDbVertex
100
AcDb2dVertex
 10
888.951864242513
 20
282.2010032534494
 30
0.0
  0
VERTEX
  5
308
330
2F5
100
AcDbEntity
  8
Ｓ_１_１
  6
CONTINUOUS
 62
     3
100
AcDbVertex
100
AcDb2dVertex
 10
889.3195056914876
 20
282.1093760132684
 30
0.0
  0
VERTEX
  5
309
330
2F5
100
AcDbEntity
  8
Ｓ_１_１
  6
CONTINUOUS
 62
     3
100
AcDbVertex
100
AcDb2dVertex
 10
889.690052866895
 20
282.045315921296
 30
0.0
  0
VERTEX
  5
30A
330
2F5
100
AcDbEntity
  8
Ｓ_１_１
  6
CONTINUOUS
 62
     3
100
AcDbVertex
100
AcDb2dVertex
 10
890.0624775886129
 20
282.0090017914666
 30
0.0
  0
VERTEX
  5
30B
330
2F5
100
AcDbEntity
  8
Ｓ_１_１
  6
CONTINUOUS
 62
     3
100
AcDbVertex
100
AcDb2dVertex
 10
890.4357367753576
 20
282.0005342066182
 30
0.0
  0
VERTEX
  5
30C
330
2F5
100
AcDbEntity
  8
Ｓ_１_１
  6
CONTINUOUS
 62
     3
100
AcDbVertex
100
AcDb2dVertex
 10
890.8088022470067
 20
282.0199392437829
 30
0.0
  0
VERTEX
  5
30D
330
2F5
100
AcDbEntity
  8
Ｓ_１_１
  6
CONTINUOUS
 62
     3
100
AcDbVertex
100
AcDb2dVertex
 10
891.1806160211156
 20
282.0671572983159
 30
0.0
  0
VERTEX
  5
30E
330
2F5
100
AcDbEntity
  8
Ｓ_１_１
  6
CONTINUOUS
 62
     3
100
AcDbVertex
100
AcDb2dVertex
 10
891.5501350164006
 20
282.1420617103471
 30
0.0
  0
VERTEX
  5
30F
330
2F5
100
AcDbEntity
  8
Ｓ_１_１
  6
CONTINUOUS
 62
     3
100
AcDbVertex
100
AcDb2dVertex
 10
891.9163608550618
 20
282.2444438636197
 30
0.0
  0
VERTEX
  5
310
330
2F5
100
AcDbEntity
  8
Ｓ_１_１
  6
CONTINUOUS
 62
     3
100
AcDbVertex
100
AcDb2dVertex
 10
892.2782504558156
 20
282.3740131854905
 30
0.0
  0
VERTEX
  5
311
330
2F5
100
AcDbEntity
  8
Ｓ_１_１
  6
CONTINUOUS
 62
     3
100
AcDbVertex
100
AcDb2dVertex
 10
892.634805440862
 20
282.5304120480909
 30
0.0
  0
VERTEX
  5
312
330
2F5
100
AcDbEntity
  8
Ｓ_１_１
  6
CONTINUOUS
 62
     3
100
AcDbVertex
100
AcDb2dVertex
 10
892.985027432401
 20
282.7132045924558
 30
0.0
  0
VERTEX
  5
313
330
2F5
100
AcDbEntity
  8
Ｓ_１_１
  6
CONTINUOUS
 62
     3
100
AcDbVertex
100
AcDb2dVertex
 10
893.3279329537938
 20
282.9218804538144
 30
0.0
  0
VERTEX
  5
314
330
2F5
100
AcDbEntity
  8
Ｓ_１_１
  6
CONTINUOUS
 62
     3
100
AcDbVertex
100
AcDb2dVertex
 10
893.6625683307241
 20
283.1558622121705
 30
0.0
  0
VERTEX
  5
315
330
2F5
100
AcDbEntity
  8
Ｓ_１_１
  6
CONTINUOUS
 62
     3
100
AcDbVertex
100
AcDb2dVertex
 10
893.9880245923589
 20
283.4144904911412
 30
0.0
  0
VERTEX
  5
316
330
2F5
100
AcDbEntity
  8
Ｓ_１_１
  6
CONTINUOUS
 62
     3
100
AcDbVertex
100
AcDb2dVertex
 10
894.3033629655431
 20
283.6970500349893
 30
0.0
  0
VERTEX
  5
317
330
2F5
100
AcDbEntity
  8
Ｓ_１_１
  6
CONTINUOUS
 62
     3
100
AcDbVertex
100
AcDb2dVertex
 10
894.6077191829274
 20
284.0027510821714
 30
0.0
  0
VERTEX
  5
318
330
2F5
100
AcDbEntity
  8
Ｓ_１_１
  6
CONTINUOUS
 62
     3
100
AcDbVertex
100
AcDb2dVertex
 10
894.9002438783239
 20
284.3307405412091
 30
0.0
  0
VERTEX
  5
319
330
2F5
100
AcDbEntity
  8
Ｓ_１_１
  6
CONTINUOUS
 62
     3
100
AcDbVertex
100
AcDb2dVertex
 10
895.1801174878667
 20
284.6801057159795
 30
0.0
  0
VERTEX
  5
31A
330
2F5
100
AcDbEntity
  8
Ｓ_１_１
  6
CONTINUOUS
 62
     3
100
AcDbVertex
100
AcDb2dVertex
 10
895.4465651511739
 20
285.0498743057145
 30
0.0
  0
VERTEX
  5
31B
330
2F5
100
AcDbEntity
  8
Ｓ_１_１
  6
CONTINUOUS
 62
     3
100
AcDbVertex
100
AcDb2dVertex
 10
895.6988418101857
 20
285.4390144050016
 30
0.0
  0
VERTEX
  5
31C
330
2F5
100
AcDbEntity
  8
Ｓ_１_１
  6
CONTINUOUS
 62
     3
100
AcDbVertex
100
AcDb2dVertex
 10
895.9362471103261
 20
285.8464382290734
 30
0.0
  0
VERTEX
  5
31D
330
2F5
100
AcDbEntity
  8
Ｓ_１_１
  6
CONTINUOUS
 62
     3
100
AcDbVertex
100
AcDb2dVertex
 10
896.1581104993413
 20
286.2710170149697
 30
0.0
  0
VERTEX
  5
31E
330
2F5
100
AcDbEntity
  8
Ｓ_１_１
  6
CONTINUOUS
 62
     3
100
AcDbVertex
100
AcDb2dVertex
 10
896.3638359307836
 20
286.7115623950853
 30
0.0
  0
VERTEX
  5
31F
330
2F5
100
AcDbEntity
  8
Ｓ_１_１
  6
CONTINUOUS
 62
     3
100
AcDbVertex
100
AcDb2dVertex
 10
896.5528273582051
 20
287.1668450236215
 30
0.0
  0
VERTEX
  5
320
330
2F5
100
AcDbEntity
  8
Ｓ_１_１
  6
CONTINUOUS
 62
     3
100
AcDbVertex
100
AcDb2dVertex
 10
896.7245632409642
 20
287.6356020271672
 30
0.0
  0
VERTEX
  5
321
330
2F5
100
AcDbEntity
  8
Ｓ_１_１
  6
CONTINUOUS
 62
     3
100
AcDbVertex
100
AcDb2dVertex
 10
896.8785667419027
 20
288.1165221035375
 30
0.0
  0
VERTEX
  5
322
330
2F5
100
AcDbEntity
  8
Ｓ_１_１
  6
CONTINUOUS
 62
     3
100
AcDbVertex
100
AcDb2dVertex
 10
897.0144057273458
 20
288.6082641482247
 30
0.0
  0
VERTEX
  5
323
330
2F5
100
AcDbEntity
  8
Ｓ_１_１
  6
CONTINUOUS
 62
     3
100
AcDbVertex
100
AcDb2dVertex
 10
897.1317076682637
 20
289.1094609796895
 30
0.0
  0
VERTEX
  5
324
330
2F5
100
AcDbEntity
  8
Ｓ_１_１
  6
CONTINUOUS
 62
     3
100
AcDbVertex
100
AcDb2dVertex
 10
897.2301447391103
 20
289.6187156140699
 30
0.0
  0
VERTEX
  5
325
330
2F5
100
AcDbEntity
  8
Ｓ_１_１
  6
CONTINUOUS
 62
     3
100
AcDbVertex
100
AcDb2dVertex
 10
897.3094338178228
 20
290.1346049904718
 30
0.0
  0
VERTEX
  5
326
330
2F5
100
AcDbEntity
  8
Ｓ_１_１
  6
CONTINUOUS
 62
     3
100
AcDbVertex
100
AcDb2dVertex
 10
897.3693662881444
 20
290.6556948721303
 30
0.0
  0
VERTEX
  5
327
330
2F5
100
AcDbEntity
  8
Ｓ_１_１
  6
CONTINUOUS
 62
     3
100
AcDbVertex
100
AcDb2dVertex
 10
897.4097633361409
 20
291.1805323958291
 30
0.0
  0
VERTEX
  5
328
330
2F5
100
AcDbEntity
  8
Ｓ_１_１
  6
CONTINUOUS
 62
     3
100
AcDbVertex
100
AcDb2dVertex
 10
897.430520653684
 20
291.7076497971906
 30
0.0
  0
VERTEX
  5
329
330
2F5
100
AcDbEntity
  8
Ｓ_１_１
  6
CONTINUOUS
 62
     3
100
AcDbVertex
100
AcDb2dVertex
 10
897.4315935372899
 20
292.2355867624177
 30
0.0
  0
VERTEX
  5
32A
330
2F5
100
AcDbEntity
  8
Ｓ_１_１
  6
CONTINUOUS
 62
     3
100
AcDbVertex
100
AcDb2dVertex
 10
897.4129372834752
 20
292.762864351262
 30
0.0
  0
VERTEX
  5
32B
330
2F5
100
AcDbEntity
  8
Ｓ_１_１
  6
CONTINUOUS
 62
     3
100
AcDbVertex
100
AcDb2dVertex
 10
897.3746562003682
 20
293.2880185246362
 30
0.0
  0
VERTEX
  5
32C
330
2F5
100
AcDbEntity
  8
Ｓ_１_１
  6
CONTINUOUS
 62
     3
100
AcDbVertex
100
AcDb2dVertex
 10
897.3168098926137
 20
293.8095815181626
 30
0.0
  0
VERTEX
  5
32D
330
2F5
100
AcDbEntity
  8
Ｓ_１_１
  6
CONTINUOUS
 62
     3
100
AcDbVertex
100
AcDb2dVertex
 10
897.2395920753072
 20
294.326100468625
 30
0.0
  0
VERTEX
  5
32E
330
2F5
100
AcDbEntity
  8
Ｓ_１_１
  6
CONTINUOUS
 62
     3
100
AcDbVertex
100
AcDb2dVertex
 10
897.1431964635442
 20
294.836137413968
 30
0.0
  0
VERTEX
  5
32F
330
2F5
100
AcDbEntity
  8
Ｓ_１_１
  6
CONTINUOUS
 62
     3
100
AcDbVertex
100
AcDb2dVertex
 10
897.0279061793874
 20
295.3382692932977
 30
0.0
  0
VERTEX
  5
330
330
2F5
100
AcDbEntity
  8
Ｓ_１_１
  6
CONTINUOUS
 62
     3
100
AcDbVertex
100
AcDb2dVertex
 10
896.8940490483831
 20
295.8310953974618
 30
0.0
  0
VERTEX
  5
331
330
2F5
100
AcDbEntity
  8
Ｓ_１_１
  6
CONTINUOUS
 62
     3
100
AcDbVertex
100
AcDb2dVertex
 10
896.7419826983999
 20
296.3132373690499
 30
0.0
  0
VERTEX
  5
332
330
2F5
100
AcDbEntity
  8
Ｓ_１_１
  6
CONTINUOUS
 62
     3
100
AcDbVertex
100
AcDb2dVertex
 10
896.5721243619512
 20
296.7833690047158
 30
0.0
  0
VERTEX
  5
333
330
2F5
100
AcDbEntity
  8
Ｓ_１_１
  6
CONTINUOUS
 62
     3
100
AcDbVertex
100
AcDb2dVertex
 10
896.3849657773565
 20
297.2401641011132
 30
0.0
  0
VERTEX
  5
334
330
2F5
100
AcDbEntity
  8
Ｓ_１_１
  6
CONTINUOUS
 62
     3
100
AcDbVertex
100
AcDb2dVertex
 10
896.1810284852575
 20
297.6823486089601
 30
0.0
  0
VERTEX
  5
335
330
2F5
100
AcDbEntity
  8
Ｓ_１_１
  6
CONTINUOUS
 62
     3
100
AcDbVertex
100
AcDb2dVertex
 10
895.9608638286184
 20
298.1087006330384
 30
0.0
  0
VERTEX
  5
336
330
2F5
100
AcDbEntity
  8
Ｓ_１_１
  6
CONTINUOUS
 62
     3
100
AcDbVertex
100
AcDb2dVertex
 10
895.7250976562093
 20
298.5180280804528
 30
0.0
  0
VERTEX
  5
337
330
2F5
100
AcDbEntity
  8
Ｓ_１_１
  6
CONTINUOUS
 62
     3
100
AcDbVertex
100
AcDb2dVertex
 10
895.4743856191228
 20
298.9091835617913
 30
0.0
  0
VERTEX
  5
338
330
2F5
100
AcDbEntity
  8
Ｓ_１_１
  6
CONTINUOUS
 62
     3
100
AcDbVertex
100
AcDb2dVertex
 10
895.209428071935
 20
299.2810867428674
 30
0.0
  0
VERTEX
  5
339
330
2F5
100
AcDbEntity
  8
Ｓ_１_１
  6
CONTINUOUS
 62
     3
100
AcDbVertex
100
AcDb2dVertex
 10
894.9309551715444
 20
299.6326945423974
 30
0.0
  0
VERTEX
  5
33A
330
2F5
100
AcDbEntity
  8
Ｓ_１_１
  6
CONTINUOUS
 62
     3
100
AcDbVertex
100
AcDb2dVertex
 10
894.6397566794942
 20
299.9630309343232
 30
0.0
  0
VERTEX
  5
33B
330
2F5
100
AcDbEntity
  8
Ｓ_１_１
  6
CONTINUOUS
 62
     3
100
AcDbVertex
100
AcDb2dVertex
 10
894.336637258489
 20
300.2711720466508
 30
0.0
  0
VERTEX
  5
33C
330
2F5
100
AcDbEntity
  8
Ｓ_１_１
  6
CONTINUOUS
 62
     3
100
AcDbVertex
100
AcDb2dVertex
 10
894.0224313735555
 20
300.5562536120309
 30
0.0
  0
VERTEX
  5
33D
330
2F5
100
AcDbEntity
  8
Ｓ_１_１
  6
CONTINUOUS
 62
     3
100
AcDbVertex
100
AcDb2dVertex
 10
893.6980330943654
 20
300.8174933195008
 30
0.0
  0
VERTEX
  5
33E
330
2F5
100
AcDbEntity
  8
Ｓ_１_１
  6
CONTINUOUS
 62
     3
100
AcDbVertex
100
AcDb2dVertex
 10
893.3643364905904
 20
301.0541610121621
 30
0.0
  0
VERTEX
  5
33F
330
2F5
100
AcDbEntity
  8
Ｓ_１_１
  6
CONTINUOUS
 62
     3
100
AcDbVertex
100
AcDb2dVertex
 10
893.0222654342244
 20
301.265586137761
 30
0.0
  0
VERTEX
  5
340
330
2F5
100
AcDbEntity
  8
Ｓ_１_１
  6
CONTINUOUS
 62
     3
100
AcDbVertex
100
AcDb2dVertex
 10
892.6727885007451
 20
301.451187551011
 30
0.0
  0
VERTEX
  5
341
330
2F5
100
AcDbEntity
  8
Ｓ_１_１
  6
CONTINUOUS
 62
     3
100
AcDbVertex
100
AcDb2dVertex
 10
892.3168742656301
 20
301.6104511618508
 30
0.0
  0
VERTEX
  5
342
330
2F5
100
AcDbEntity
  8
Ｓ_１_１
  6
CONTINUOUS
 62
     3
100
AcDbVertex
100
AcDb2dVertex
 10
891.9555062055181
 20
301.7429224848642
 30
0.0
  0
VERTEX
  5
343
330
2F5
100
AcDbEntity
  8
Ｓ_１_１
  6
CONTINUOUS
 62
     3
100
AcDbVertex
100
AcDb2dVertex
 10
891.5896975993703
 20
301.8482438921823
 30
0.0
  0
VERTEX
  5
344
330
2F5
100
AcDbEntity
  8
Ｓ_１_１
  6
CONTINUOUS
 62
     3
100
AcDbVertex
100
AcDb2dVertex
 10
891.2204766273092
 20
301.9261099100007
 30
0.0
  0
VERTEX
  5
345
330
2F5
100
AcDbEntity
  8
Ｓ_１_１
  6
CONTINUOUS
 62
     3
100
AcDbVertex
100
AcDb2dVertex
 10
890.8488565682958
 20
301.9763119220628
 30
0.0
  0
VERTEX
  5
346
330
2F5
100
AcDbEntity
  8
Ｓ_１_１
  6
CONTINUOUS
 62
     3
100
AcDbVertex
100
AcDb2dVertex
 10
890.475895404775
 20
301.9987158179177
 30
0.0
  0
VERTEX
  5
347
330
2F5
100
AcDbEntity
  8
Ｓ_１_１
  6
CONTINUOUS
 62
     3
100
AcDbVertex
100
AcDb2dVertex
 10
890.1026064157079
 20
301.993239641179
 30
0.0
  0
VERTEX
  5
348
330
2F5
100
AcDbEntity
  8
Ｓ_１_１
  6
CONTINUOUS
 62
     3
100
AcDbVertex
100
AcDb2dVertex
 10
889.7300326823781
 20
301.9599206447496
 30
0.0
  0
VERTEX
  5
349
330
2F5
100
AcDbEntity
  8
Ｓ_１_１
  6
CONTINUOUS
 62
     3
100
AcDbVertex
100
AcDb2dVertex
 10
889.3592321872304
 20
301.898840785016
 30
0.0
  0
VERTEX
  5
34A
330
2F5
100
AcDbEntity
  8
Ｓ_１_１
  6
CONTINUOUS
 62
     3
100
AcDbVertex
100
AcDb2dVertex
 10
888.9912331103872
 20
301.8101639747514
 30
0.0
  0
VERTEX
  5
34B
330
2F5
100
AcDbEntity
  8
Ｓ_１_１
  6
CONTINUOUS
 62
     3
100
AcDbVertex
100
AcDb2dVertex
 10
888.6270487308095
 20
301.6941509842767
 30
0.0
  0
VERTEX
  5
34C
330
2F5
100
AcDbEntity
  8
Ｓ_１_１
  6
CONTINUOUS
 62
     3
100
AcDbVertex
100
AcDb2dVertex
 10
888.2677072286199
 20
301.5511147379769
 30
0.0
  0
VERTEX
  5
34D
330
2F5
100
AcDbEntity
  8
Ｓ_１_１
  6
CONTINUOUS
 62
     3
100
AcDbVertex
100
AcDb2dVertex
 10
887.914192080457
 20
301.3814575672044
 30
0.0
  0
VERTEX
  5
34E
330
2F5
100
AcDbEntity
  8
Ｓ_１_１
  6
CONTINUOUS
 62
     3
100
AcDbVertex
100
AcDb2dVertex
 10
887.5675165652822
 20
301.1856563091172
 30
0.0
  0
VERTEX
  5
34F
330
2F5
100
AcDbEntity
  8
Ｓ_１_１
  6
CONTINUOUS
 62
     3
100
AcDbVertex
100
AcDb2dVertex
 10
887.2286194562505
 20
300.9642474055184
 30
0.0
  0
VERTEX
  5
350
330
2F5
100
AcDbEntity
  8
Ｓ_１_１
  6
CONTINUOUS
 62
     3
100
AcDbVertex
100
AcDb2dVertex
 10
886.8984544276784
 20
300.7178567051782
 30
0.0
  0
VERTEX
  5
351
330
2F5
100
AcDbEntity
  8
Ｓ_１_１
  6
CONTINUOUS
 62
     3
100
AcDbVertex
100
AcDb2dVertex
 10
886.5779602527211
 20
300.4471696615113
 30
0.0
  0
VERTEX
  5
352
330
2F5
100
AcDbEntity
  8
Ｓ_１_１
  6
CONTINUOUS
 62
     3
100
AcDbVertex
100
AcDb2dVertex
 10
886.2680011987279
 20
300.1529387831582
 30
0.0
  0
VERTEX
  5
353
330
2F5
100
AcDbEntity
  8
Ｓ_１_１
  6
CONTINUOUS
 62
     3
100
AcDbVertex
100
AcDb2dVertex
 10
885.9694564342092
 20
299.8359836339845
 30
0.0
  0
VERTEX
  5
354
330
2F5
100
AcDbEntity
  8
Ｓ_１_１
  6
CONTINUOUS
 62
     3
100
AcDbVertex
100
AcDb2dVertex
 10
885.6831604241918
 20
299.4971833825006
 30
0.0
  0
VERTEX
  5
355
330
2F5
100
AcDbEntity
  8
Ｓ_１_１
  6
CONTINUOUS
 62
     3
100
AcDbVertex
100
AcDb2dVertex
 10
885.409902930219
 20
299.1374917030229
 30
0.0
  0
VERTEX
  5
356
330
2F5
100
AcDbEntity
  8
Ｓ_１_１
  6
CONTINUOUS
 62
     3
100
AcDbVertex
100
AcDb2dVertex
 10
885.1504439115117
 20
298.7579069733514
 30
0.0
  0
VERTEX
  5
357
330
2F5
100
AcDbEntity
  8
Ｓ_１_１
  6
CONTINUOUS
 62
     3
100
AcDbVertex
100
AcDb2dVertex
 10
884.9055135249685
 20
298.3594871759309
 30
0.0
  0
VERTEX
  5
358
330
2F5
100
AcDbEntity
  8
Ｓ_１_１
  6
CONTINUOUS
 62
     3
100
AcDbVertex
100
AcDb2dVertex
 10
884.6757972240041
 20
297.9433424472703
 30
0.0
  0
VERTEX
  5
359
330
2F5
100
AcDbEntity
  8
Ｓ_１_１
  6
CONTINUOUS
 62
     3
100
AcDbVertex
100
AcDb2dVertex
 10
884.46193575855
 20
297.5106276273622
 30
0.0
  0
VERTEX
  5
35A
330
2F5
100
AcDbEntity
  8
Ｓ_１_１
  6
CONTINUOUS
 62
     3
100
AcDbVertex
100
AcDb2dVertex
 10
884.2645102738927
 20
297.0625571608438
 30
0.0
  0
VERTEX
  5
35B
330
2F5
100
AcDbEntity
  8
Ｓ_１_１
  6
CONTINUOUS
 62
     3
100
AcDbVertex
100
AcDb2dVertex
 10
884.0840870141576
 20
296.6003752946748
 30
0.0
  0
VERTEX
  5
35C
330
2F5
100
AcDbEntity
  8
Ｓ_１_１
  6
CONTINUOUS
 62
     3
100
AcDbVertex
100
AcDb2dVertex
 10
883.9211577176641
 20
296.1253784298791
 30
0.0
  0
VERTEX
  5
35D
330
2F5
100
AcDbEntity
  8
Ｓ_１_１
  6
CONTINUOUS
 62
     3
100
AcDbVertex
100
AcDb2dVertex
 10
883.7761843204091
 20
295.6388778686418
 30
0.0
  0
VERTEX
  5
35E
330
2F5
100
AcDbEntity
  8
Ｓ_１_１
  6
CONTINUOUS
 62
     3
100
AcDbVertex
100
AcDb2dVertex
 10
883.649569153745
 20
295.1422296166314
 30
0.0
  0
VERTEX
  5
35F
330
2F5
100
AcDbEntity
  8
Ｓ_１_１
  6
CONTINUOUS
 62
     3
100
AcDbVertex
100
AcDb2dVertex
 10
883.5416698455404
 20
294.6368269324197
 30
0.0
  0
VERTEX
  5
360
330
2F5
100
AcDbEntity
  8
Ｓ_１_１
  6
CONTINUOUS
 62
     3
100
AcDbVertex
100
AcDb2dVertex
 10
883.4527695178579
 20
294.1240779757394
 30
0.0
  0
VERTEX
  5
361
330
2F5
100
AcDbEntity
  8
Ｓ_１_１
  6
CONTINUOUS
 62
     3
100
AcDbVertex
100
AcDb2dVertex
 10
883.383136391599
 20
293.6054058074845
 30
0.0
  0
VERTEX
  5
362
330
2F5
100
AcDbEntity
  8
Ｓ_１_１
  6
CONTINUOUS
 62
     3
100
AcDbVertex
100
AcDb2dVertex
 10
883.3329492806981
 20
293.0822632908715
 30
0.0
  0
VERTEX
  5
363
330
2F5
100
AcDbEntity
  8
Ｓ_１_１
  6
CONTINUOUS
 62
     3
100
AcDbVertex
100
AcDb2dVertex
 10
883.3023571967672
 20
292.5561032891168
 30
0.0
  0
VERTEX
  5
364
330
2F5
100
AcDbEntity
  8
Ｓ_１_１
  6
CONTINUOUS
 62
     3
100
AcDbVertex
100
AcDb2dVertex
 10
883.2914346456121
 20
292.0283898413076
 30
0.0
  0
VERTEX
  5
365
330
2F5
100
AcDbEntity
  8
Ｓ_１_１
  6
CONTINUOUS
 62
     3
100
AcDbVertex
100
AcDb2dVertex
 10
883.3002412318776
 20
291.5005981624021
 30
0.0
  0
VERTEX
  5
366
330
2F5
100
AcDbEntity
  8
Ｓ_１_１
  6
CONTINUOUS
 62
     3
100
AcDbVertex
100
AcDb2dVertex
 10
883.3287173509191
 20
290.9741997420682
 30
0.0
  0
VERTEX
  5
367
330
2F5
100
AcDbEntity
  8
Ｓ_１_１
  6
CONTINUOUS
 62
     3
100
AcDbVertex
100
AcDb2dVertex
 10
883.3768033980916
 20
290.4506586193933
 30
0.0
  0
VERTEX
  5
368
330
2F5
100
AcDbEntity
  8
Ｓ_１_１
  6
CONTINUOUS
 62
     3
100
AcDbVertex
100
AcDb2dVertex
 10
883.4443503617833
 20
289.9314388334645
 30
0.0
  0
VERTEX
  5
369
330
2F5
100
AcDbEntity
  8
Ｓ_１_１
  6
CONTINUOUS
 62
     3
100
AcDbVertex
100
AcDb2dVertex
 10
883.5311794280599
 20
289.4179820716275
 30
0.0
  0
VERTEX
  5
36A
330
2F5
100
AcDbEntity
  8
Ｓ_１_１
  6
CONTINUOUS
 62
     3
100
AcDbVertex
100
AcDb2dVertex
 10
883.6370670795034
 20
288.9117225706472
 30
0.0
  0
VERTEX
  5
36B
330
2F5
100
AcDbEntity
  8
Ｓ_１_１
  6
CONTINUOUS
 62
     3
100
AcDbVertex
100
AcDb2dVertex
 10
883.7616854905675
 20
288.4140684902562
 30
0.0
  0
VERTEX
  5
36C
330
2F5
100
AcDbEntity
  8
Ｓ_１_１
  6
CONTINUOUS
 62
     3
100
AcDbVertex
100
AcDb2dVertex
 10
883.9046919345449
 20
287.9264130890264
 30
0.0
  0
VERTEX
  5
36D
330
2F5
100
AcDbEntity
  8
Ｓ_１_１
  6
CONTINUOUS
 62
     3
100
AcDbVertex
100
AcDb2dVertex
 10
884.0657138824056
 20
287.4501086473359
 30
0.0
  0
SEQEND
  5
36E
330
2F5
100
AcDbEntity
  8
Ｓ_１_１
  6
CONTINUOUS
 62
     3
  0
POLYLINE
  5
36F
330
1F
100
AcDbEntity
  8
Ｓ_１_１
  6
CONTINUOUS
 62
     3
100
AcDb2dPolyline
 66
     1
 10
0.0
 20
0.0
 30
0.0
 70
   128
  0
VERTEX
  5
370
330
36F
100
AcDbEntity
  8
Ｓ_１_１
  6
CONTINUOUS
 62
     3
100
AcDbVertex
100
AcDb2dVertex
 10
886.7392802238057
 20
288.3600853085412
 30
0.0
  0
VERTEX
  5
371
330
36F
100
AcDbEntity
  8
Ｓ_１_１
  6
CONTINUOUS
 62
     3
100
AcDbVertex
100
AcDb2dVertex
 10
886.5969145297597
 20
288.7844517528905
 30
0.0
  0
VERTEX
  5
372
330
36F
100
AcDbEntity
  8
Ｓ_１_１
  6
CONTINUOUS
 62
     3
100
AcDbVertex
100
AcDb2dVertex
 10
886.4724004268239
 20
289.2198972105874
 30
0.0
  0
VERTEX
  5
373
330
36F
100
AcDbEntity
  8
Ｓ_１_１
  6
CONTINUOUS
 62
     3
100
AcDbVertex
100
AcDb2dVertex
 10
886.366170048673
 20
289.6649278402223
 30
0.0
  0
VERTEX
  5
374
330
36F
100
AcDbEntity
  8
Ｓ_１_１
  6
CONTINUOUS
 62
     3
100
AcDbVertex
100
AcDb2dVertex
 10
886.2785959243367
 20
290.1180088221921
 30
0.0
  0
VERTEX
  5
375
330
36F
100
AcDbEntity
  8
Ｓ_１_１
  6
CONTINUOUS
 62
     3
100
AcDbVertex
100
AcDb2dVertex
 10
886.2099760770391
 20
290.5775792598619
 30
0.0
  0
VERTEX
  5
376
330
36F
100
AcDbEntity
  8
Ｓ_１_１
  6
CONTINUOUS
 62
     3
100
AcDbVertex
100
AcDb2dVertex
 10
886.1605489253591
 20
291.0420484542741
 30
0.0
  0
VERTEX
  5
377
330
36F
100
AcDbEntity
  8
Ｓ_１_１
  6
CONTINUOUS
 62
     3
100
AcDbVertex
100
AcDb2dVertex
 10
886.1304634809087
 20
291.5098219811811
 30
0.0
  0
VERTEX
  5
378
330
36F
100
AcDbEntity
  8
Ｓ_１_１
  6
CONTINUOUS
 62
     3
100
AcDbVertex
100
AcDb2dVertex
 10
886.1198538541387
 20
291.9792867898835
 30
0.0
  0
VERTEX
  5
379
330
36F
100
AcDbEntity
  8
Ｓ_１_１
  6
CONTINUOUS
 62
     3
100
AcDbVertex
100
AcDb2dVertex
 10
886.1287498473714
 20
292.4488223791017
 30
0.0
  0
VERTEX
  5
37A
330
36F
100
AcDbEntity
  8
Ｓ_１_１
  6
CONTINUOUS
 62
     3
100
AcDbVertex
100
AcDb2dVertex
 10
886.1571067571233
 20
292.9168082475557
 30
0.0
  0
VERTEX
  5
37B
330
36F
100
AcDbEntity
  8
Ｓ_１_１
  6
CONTINUOUS
 62
     3
100
AcDbVertex
100
AcDb2dVertex
 10
886.2048351764272
 20
293.3816350698365
 30
0.0
  0
VERTEX
  5
37C
330
36F
100
AcDbEntity
  8
Ｓ_１_１
  6
CONTINUOUS
 62
     3
100
AcDbVertex
100
AcDb2dVertex
 10
886.2717860936712
 20
293.841700971116
 30
0.0
  0
VERTEX
  5
37D
330
36F
100
AcDbEntity
  8
Ｓ_１_１
  6
CONTINUOUS
 62
     3
100
AcDbVertex
100
AcDb2dVertex
 10
886.3576912879537
 20
294.2954189777269
 30
0.0
  0
VERTEX
  5
37E
330
36F
100
AcDbEntity
  8
Ｓ_１_１
  6
CONTINUOUS
 62
     3
100
AcDbVertex
100
AcDb2dVertex
 10
886.4622974395345
 20
294.7412244677438
 30
0.0
  0
VERTEX
  5
37F
330
36F
100
AcDbEntity
  8
Ｓ_１_１
  6
CONTINUOUS
 62
     3
100
AcDbVertex
100
AcDb2dVertex
 10
886.5852171182225
 20
295.1775751709832
 30
0.0
  0
VERTEX
  5
380
330
36F
100
AcDbEntity
  8
Ｓ_１_１
  6
CONTINUOUS
 62
     3
100
AcDbVertex
100
AcDb2dVertex
 10
886.7260181903432
 20
295.6029735207452
 30
0.0
  0
VERTEX
  5
381
330
36F
100
AcDbEntity
  8
Ｓ_１_１
  6
CONTINUOUS
 62
     3
100
AcDbVertex
100
AcDb2dVertex
 10
886.8842387198995
 20
296.0159517526521
 30
0.0
  0
VERTEX
  5
382
330
36F
100
AcDbEntity
  8
Ｓ_１_１
  6
CONTINUOUS
 62
     3
100
AcDbVertex
100
AcDb2dVertex
 10
887.0593273639272
 20
296.4150868058099
 30
0.0
  0
VERTEX
  5
383
330
36F
100
AcDbEntity
  8
Ｓ_１_１
  6
CONTINUOUS
 62
     3
100
AcDbVertex
100
AcDb2dVertex
 10
887.2506880759786
 20
296.7990077733888
 30
0.0
  0
VERTEX
  5
384
330
36F
100
AcDbEntity
  8
Ｓ_１_１
  6
CONTINUOUS
 62
     3
100
AcDbVertex
100
AcDb2dVertex
 10
887.4576354026387
 20
297.1663810014619
 30
0.0
  0
VERTEX
  5
385
330
36F
100
AcDbEntity
  8
Ｓ_１_１
  6
CONTINUOUS
 62
     3
100
AcDbVertex
100
AcDb2dVertex
 10
887.6794838904927
 20
297.5159398913278
 30
0.0
  0
VERTEX
  5
386
330
36F
100
AcDbEntity
  8
Ｓ_１_１
  6
CONTINUOUS
 62
     3
100
AcDbVertex
100
AcDb2dVertex
 10
887.9154437779973
 20
297.8464923500909
 30
0.0
  0
VERTEX
  5
387
330
36F
100
AcDbEntity
  8
Ｓ_１_１
  6
CONTINUOUS
 62
     3
100
AcDbVertex
100
AcDb2dVertex
 10
888.164710402448
 20
298.1568835377587
 30
0.0
  0
VERTEX
  5
388
330
36F
100
AcDbEntity
  8
Ｓ_１_１
  6
CONTINUOUS
 62
     3
100
AcDbVertex
100
AcDb2dVertex
 10
888.4264492988179
 20
298.4460554718866
 30
0.0
  0
VERTEX
  5
389
330
36F
100
AcDbEntity
  8
Ｓ_１_１
  6
CONTINUOUS
 62
     3
100
AcDbVertex
100
AcDb2dVertex
 10
888.6997216939519
 20
298.7130023240937
 30
0.0
  0
VERTEX
  5
38A
330
36F
100
AcDbEntity
  8
Ｓ_１_１
  6
CONTINUOUS
 62
     3
100
AcDbVertex
100
AcDb2dVertex
 10
888.9836037158559
 20
298.9568151235475
 30
0.0
  0
VERTEX
  5
38B
330
36F
100
AcDbEntity
  8
Ｓ_１_１
  6
CONTINUOUS
 62
     3
100
AcDbVertex
100
AcDb2dVertex
 10
889.2771118878911
 20
299.1766445040597
 30
0.0
  0
VERTEX
  5
38C
330
36F
100
AcDbEntity
  8
Ｓ_１_１
  6
CONTINUOUS
 62
     3
100
AcDbVertex
100
AcDb2dVertex
 10
889.5792478322576
 20
299.3717305064096
 30
0.0
  0
VERTEX
  5
38D
330
36F
100
AcDbEntity
  8
Ｓ_１_１
  6
CONTINUOUS
 62
     3
100
AcDbVertex
100
AcDb2dVertex
 10
889.8889386653493
 20
299.5414025783433
 30
0.0
  0
VERTEX
  5
38E
330
36F
100
AcDbEntity
  8
Ｓ_１_１
  6
CONTINUOUS
 62
     3
100
AcDbVertex
100
AcDb2dVertex
 10
890.205156207044
 20
299.685087025155
 30
0.0
  0
VERTEX
  5
38F
330
36F
100
AcDbEntity
  8
Ｓ_１_１
  6
CONTINUOUS
 62
     3
100
AcDbVertex
100
AcDb2dVertex
 10
890.526782870252
 20
299.8022697567834
 30
0.0
  0
VERTEX
  5
390
330
36F
100
AcDbEntity
  8
Ｓ_１_１
  6
CONTINUOUS
 62
     3
100
AcDbVertex
100
AcDb2dVertex
 10
890.852715969045
 20
299.8925633430375
 30
0.0
  0
VERTEX
  5
391
330
36F
100
AcDbEntity
  8
Ｓ_１_１
  6
CONTINUOUS
 62
     3
100
AcDbVertex
100
AcDb2dVertex
 10
891.1818379163335
 20
299.9556474089517
 30
0.0
  0
VERTEX
  5
392
330
36F
100
AcDbEntity
  8
Ｓ_１_１
  6
CONTINUOUS
 62
     3
100
AcDbVertex
100
AcDb2dVertex
 10
891.5130162238668
 20
299.9913058876886
 30
0.0
  0
VERTEX
  5
393
330
36F
100
AcDbEntity
  8
Ｓ_１_１
  6
CONTINUOUS
 62
     3
100
AcDbVertex
100
AcDb2dVertex
 10
891.8450886010717
 20
299.999412119378
 30
0.0
  0
VERTEX
  5
394
330
36F
100
AcDbEntity
  8
Ｓ_１_１
  6
CONTINUOUS
 62
     3
100
AcDbVertex
100
AcDb2dVertex
 10
892.1769374608587
 20
299.9799512028588
 30
0.0
  0
VERTEX
  5
395
330
36F
100
AcDbEntity
  8
Ｓ_１_１
  6
CONTINUOUS
 62
     3
100
AcDbVertex
100
AcDb2dVertex
 10
892.5074005126546
 20
299.9329752921952
 30
0.0
  0
VERTEX
  5
396
330
36F
100
AcDbEntity
  8
Ｓ_１_１
  6
CONTINUOUS
 62
     3
100
AcDbVertex
100
AcDb2dVertex
 10
892.8353452682088
 20
299.8586557507409
 30
0.0
  0
VERTEX
  5
397
330
36F
100
AcDbEntity
  8
Ｓ_１_１
  6
CONTINUOUS
 62
     3
100
AcDbVertex
100
AcDb2dVertex
 10
893.1596392392705
 20
299.7572458982362
 30
0.0
  0
VERTEX
  5
398
330
36F
100
AcDbEntity
  8
Ｓ_１_１
  6
CONTINUOUS
 62
     3
100
AcDbVertex
100
AcDb2dVertex
 10
893.4791797399114
 20
299.6290959119691
 30
0.0
  0
VERTEX
  5
399
330
36F
100
AcDbEntity
  8
Ｓ_１_１
  6
CONTINUOUS
 62
     3
100
AcDbVertex
100
AcDb2dVertex
 10
893.7928342818807
 20
299.4746453761949
 30
0.0
  0
VERTEX
  5
39A
330
36F
100
AcDbEntity
  8
Ｓ_１_１
  6
CONTINUOUS
 62
     3
100
AcDbVertex
100
AcDb2dVertex
 10
894.0995448827337
 20
299.2944307327165
 30
0.0
  0
VERTEX
  5
39B
330
36F
100
AcDbEntity
  8
Ｓ_１_１
  6
CONTINUOUS
 62
     3
100
AcDbVertex
100
AcDb2dVertex
 10
894.3982535600255
 20
299.0890703797235
 30
0.0
  0
VERTEX
  5
39C
330
36F
100
AcDbEntity
  8
Ｓ_１_１
  6
CONTINUOUS
 62
     3
100
AcDbVertex
100
AcDb2dVertex
 10
894.6879172324727
 20
298.8592646717919
 30
0.0
  0
VERTEX
  5
39D
330
36F
100
AcDbEntity
  8
Ｓ_１_１
  6
CONTINUOUS
 62
     3
100
AcDbVertex
100
AcDb2dVertex
 10
894.9675524234365
 20
298.605825722207
 30
0.0
  0
VERTEX
  5
39E
330
36F
100
AcDbEntity
  8
Ｓ_１_１
  6
CONTINUOUS
 62
     3
100
AcDbVertex
100
AcDb2dVertex
 10
895.236175656278
 20
298.3296028971566
 30
0.0
  0
VERTEX
  5
39F
330
36F
100
AcDbEntity
  8
Ｓ_１_１
  6
CONTINUOUS
 62
     3
100
AcDbVertex
100
AcDb2dVertex
 10
895.4928928613256
 20
298.0315722226991
 30
0.0
  0
VERTEX
  5
3A0
330
36F
100
AcDbEntity
  8
Ｓ_１_１
  6
CONTINUOUS
 62
     3
100
AcDbVertex
100
AcDb2dVertex
 10
895.7367801665853
 20
297.7127395272149
 30
0.0
  0
VERTEX
  5
3A1
330
36F
100
AcDbEntity
  8
Ｓ_１_１
  6
CONTINUOUS
 62
     3
100
AcDbVertex
100
AcDb2dVertex
 10
895.9670180081914
 20
297.3742223977937
 30
0.0
  0
VERTEX
  5
3A2
330
36F
100
AcDbEntity
  8
Ｓ_１_１
  6
CONTINUOUS
 62
     3
100
AcDbVertex
100
AcDb2dVertex
 10
896.1828315257619
 20
297.0171756744279
 30
0.0
  0
VERTEX
  5
3A3
330
36F
100
AcDbEntity
  8
Ｓ_１_１
  6
CONTINUOUS
 62
     3
100
AcDbVertex
100
AcDb2dVertex
 10
896.3834309577535
 20
296.6428287029161
 30
0.0
  0
VERTEX
  5
3A4
330
36F
100
AcDbEntity
  8
Ｓ_１_１
  6
CONTINUOUS
 62
     3
100
AcDbVertex
100
AcDb2dVertex
 10
896.5681606530736
 20
296.2524853348626
 30
0.0
  0
VERTEX
  5
3A5
330
36F
100
AcDbEntity
  8
Ｓ_１_１
  6
CONTINUOUS
 62
     3
100
AcDbVertex
100
AcDb2dVertex
 10
896.736379861791
 20
295.8474792241944
 30
0.0
  0
VERTEX
  5
3A6
330
36F
100
AcDbEntity
  8
Ｓ_１_１
  6
CONTINUOUS
 62
     3
100
AcDbVertex
100
AcDb2dVertex
 10
896.8874925374578
 20
295.4292110800637
 30
0.0
  0
VERTEX
  5
3A7
330
36F
100
AcDbEntity
  8
Ｓ_１_１
  6
CONTINUOUS
 62
     3
100
AcDbVertex
100
AcDb2dVertex
 10
897.0209920405935
 20
294.9991188645257
 30
0.0
  0
VERTEX
  5
3A8
330
36F
100
AcDbEntity
  8
Ｓ_１_１
  6
CONTINUOUS
 62
     3
100
AcDbVertex
100
AcDb2dVertex
 10
897.136416435201
 20
294.5586852431192
 30
0.0
  0
VERTEX
  5
3A9
330
36F
100
AcDbEntity
  8
Ｓ_１_１
  6
CONTINUOUS
 62
     3
100
AcDbVertex
100
AcDb2dVertex
 10
897.233348488767
 20
294.1094375848664
 30
0.0
  0
VERTEX
  5
3AA
330
36F
100
AcDbEntity
  8
Ｓ_１_１
  6
CONTINUOUS
 62
     3
100
AcDbVertex
100
AcDb2dVertex
 10
897.3114901780675
 20
293.6529181599511
 30
0.0
  0
VERTEX
  5
3AB
330
36F
100
AcDbEntity
  8
Ｓ_１_１
  6
CONTINUOUS
 62
     3
100
AcDbVertex
100
AcDb2dVertex
 10
897.3705434798787
 20
293.1906990408792
 30
0.0
  0
VERTEX
  5
3AC
330
36F
100
AcDbEntity
  8
Ｓ_１_１
  6
CONTINUOUS
 62
     3
100
AcDbVertex
100
AcDb2dVertex
 10
897.4103146791051
 20
292.7243746518983
 30
0.0
  0
VERTEX
  5
3AD
330
36F
100
AcDbEntity
  8
Ｓ_１_１
  6
CONTINUOUS
 62
     3
100
AcDbVertex
100
AcDb2dVertex
 10
897.4306547641347
 20
292.2555543184175
 30
0.0
  0
VERTEX
  5
3AE
330
36F
100
AcDbEntity
  8
Ｓ_１_１
  6
CONTINUOUS
 62
     3
100
AcDbVertex
100
AcDb2dVertex
 10
897.431519031484
 20
291.7858510911359
 30
0.0
  0
VERTEX
  5
3AF
330
36F
100
AcDbEntity
  8
Ｓ_１_１
  6
CONTINUOUS
 62
     3
100
AcDbVertex
100
AcDb2dVertex
 10
897.4128925799916
 20
291.3168891966237
 30
0.0
  0
VERTEX
  5
3B0
330
36F
100
AcDbEntity
  8
Ｓ_１_１
  6
CONTINUOUS
 62
     3
100
AcDbVertex
100
AcDb2dVertex
 10
897.3748201131414
 20
290.8502779602899
 30
0.0
  0
VERTEX
  5
3B1
330
36F
100
AcDbEntity
  8
Ｓ_１_１
  6
CONTINUOUS
 62
     3
100
AcDbVertex
100
AcDb2dVertex
 10
897.3174655437062
 20
290.3876341581239
 30
0.0
  0
VERTEX
  5
3B2
330
36F
100
AcDbEntity
  8
Ｓ_１_１
  6
CONTINUOUS
 62
     3
100
AcDbVertex
100
AcDb2dVertex
 10
897.2410076856206
 20
289.9305447637929
 30
0.0
  0
VERTEX
  5
3B3
330
36F
100
AcDbEntity
  8
Ｓ_１_１
  6
CONTINUOUS
 62
     3
100
AcDbVertex
100
AcDb2dVertex
 10
897.1456998586248
 20
289.4805930256738
 30
0.0
  0
VERTEX
  5
3B4
330
36F
100
AcDbEntity
  8
Ｓ_１_１
  6
CONTINUOUS
 62
     3
100
AcDbVertex
100
AcDb2dVertex
 10
897.0318996905874
 20
289.0393249392404
 30
0.0
  0
VERTEX
  5
3B5
330
36F
100
AcDbEntity
  8
Ｓ_１_１
  6
CONTINUOUS
 62
     3
100
AcDbVertex
100
AcDb2dVertex
 10
896.8999797105382
 20
288.6082604229344
 30
0.0
  0
VERTEX
  5
3B6
330
36F
100
AcDbEntity
  8
Ｓ_１_１
  6
CONTINUOUS
 62
     3
100
AcDbVertex
100
AcDb2dVertex
 10
896.7504018544744
 20
288.1888933181657
 30
0.0
  0
VERTEX
  5
3B7
330
36F
100
AcDbEntity
  8
Ｓ_１_１
  6
CONTINUOUS
 62
     3
100
AcDbVertex
100
AcDb2dVertex
 10
896.5836727618764
 20
287.782657861699
 30
0.0
  0
VERTEX
  5
3B8
330
36F
100
AcDbEntity
  8
Ｓ_１_１
  6
CONTINUOUS
 62
     3
100
AcDbVertex
100
AcDb2dVertex
 10
896.4003735780309
 20
287.3909659385575
 30
0.0
  0
VERTEX
  5
3B9
330
36F
100
AcDbEntity
  8
Ｓ_１_１
  6
CONTINUOUS
 62
     3
100
AcDbVertex
100
AcDb2dVertex
 10
896.201130151708
 20
287.0151586532487
 30
0.0
  0
VERTEX
  5
3BA
330
36F
100
AcDbEntity
  8
Ｓ_１_１
  6
CONTINUOUS
 62
     3
100
AcDbVertex
100
AcDb2dVertex
 10
895.9866428374837
 20
286.6565361320867
 30
0.0
  0
VERTEX
  5
3BB
330
36F
100
AcDbEntity
  8
Ｓ_１_１
  6
CONTINUOUS
 62
     3
100
AcDbVertex
100
AcDb2dVertex
 10
895.7576417922567
 20
286.3163314461602
 30
0.0
  0
VERTEX
  5
3BC
330
36F
100
AcDbEntity
  8
Ｓ_１_１
  6
CONTINUOUS
 62
     3
100
AcDbVertex
100
AcDb2dVertex
 10
895.5149167775701
 20
285.9957217872037
 30
0.0
  0
VERTEX
  5
3BD
330
36F
100
AcDbEntity
  8
Ｓ_１_１
  6
CONTINUOUS
 62
     3
100
AcDbVertex
100
AcDb2dVertex
 10
895.2593022584508
 20
285.6958098411454
 30
0.0
  0
VERTEX
  5
3BE
330
36F
100
AcDbEntity
  8
Ｓ_１_１
  6
CONTINUOUS
 62
     3
100
AcDbVertex
100
AcDb2dVertex
 10
894.9916923045705
 20
285.4176312386884
 30
0.0
  0
VERTEX
  5
3BF
330
36F
100
AcDbEntity
  8
Ｓ_１_１
  6
CONTINUOUS
 62
     3
100
AcDbVertex
100
AcDb2dVertex
 10
894.712995886762
 20
285.162139654149
 30
0.0
  0
VERTEX
  5
3C0
330
36F
100
AcDbEntity
  8
Ｓ_１_１
  6
CONTINUOUS
 62
     3
100
AcDbVertex
100
AcDb2dVertex
 10
894.4241666793416
 20
284.9302254319085
 30
0.0
  0
VERTEX
  5
3C1
330
36F
100
AcDbEntity
  8
Ｓ_１_１
  6
CONTINUOUS
 62
     3
100
AcDbVertex
100
AcDb2dVertex
 10
894.1262179612706
 20
284.7226783335103
 30
0.0
  0
VERTEX
  5
3C2
330
36F
100
AcDbEntity
  8
Ｓ_１_１
  6
CONTINUOUS
 62
     3
100
AcDbVertex
100
AcDb2dVertex
 10
893.8201779126714
 20
284.540217339982
 30
0.0
  0
VERTEX
  5
3C3
330
36F
100
AcDbEntity
  8
Ｓ_１_１
  6
CONTINUOUS
 62
     3
100
AcDbVertex
100
AcDb2dVertex
 10
893.5070896148275
 20
284.3834720253839
 30
0.0
  0
VERTEX
  5
3C4
330
36F
100
AcDbEntity
  8
Ｓ_１_１
  6
CONTINUOUS
 62
     3
100
AcDbVertex
100
AcDb2dVertex
 10
893.1880259513448
 20
284.2529825568093
 30
0.0
  0
VERTEX
  5
3C5
330
36F
100
AcDbEntity
  8
Ｓ_１_１
  6
CONTINUOUS
 62
     3
100
AcDbVertex
100
AcDb2dVertex
 10
892.8641045093129
 20
284.1491996943845
 30
0.0
  0
VERTEX
  5
3C6
330
36F
100
AcDbEntity
  8
Ｓ_１_１
  6
CONTINUOUS
 62
     3
100
AcDbVertex
100
AcDb2dVertex
 10
892.5364428758214
 20
284.0724773406877
 30
0.0
  0
VERTEX
  5
3C7
330
36F
100
AcDbEntity
  8
Ｓ_１_１
  6
CONTINUOUS
 62
     3
100
AcDbVertex
100
AcDb2dVertex
 10
892.2061437367986
 20
284.0230874419107
 30
0.0
  0
VERTEX
  5
3C8
330
36F
100
AcDbEntity
  8
Ｓ_１_１
  6
CONTINUOUS
 62
     3
100
AcDbVertex
100
AcDb2dVertex
 10
891.8743842839788
 20
284.0011939108266
 30
0.0
  0
VERTEX
  5
3C9
330
36F
100
AcDbEntity
  8
Ｓ_１_１
  6
CONTINUOUS
 62
     3
100
AcDbVertex
100
AcDb2dVertex
 10
891.5422672032903
 20
284.0068712532415
 30
0.0
  0
VERTEX
  5
3CA
330
36F
100
AcDbEntity
  8
Ｓ_１_１
  6
CONTINUOUS
 62
     3
100
AcDbVertex
100
AcDb2dVertex
 10
891.2109696864675
 20
284.040104567994
 30
0.0
  0
VERTEX
  5
3CB
330
36F
100
AcDbEntity
  8
Ｓ_１_１
  6
CONTINUOUS
 62
     3
100
AcDbVertex
100
AcDb2dVertex
 10
890.8816242217611
 20
284.1007783710851
 30
0.0
  0
VERTEX
  5
3CC
330
36F
100
AcDbEntity
  8
Ｓ_１_１
  6
CONTINUOUS
 62
     3
100
AcDbVertex
100
AcDb2dVertex
 10
890.5553632974218
 20
284.1886803209676
 30
0.0
  0
VERTEX
  5
3CD
330
36F
100
AcDbEntity
  8
Ｓ_１_１
  6
CONTINUOUS
 62
     3
100
AcDbVertex
100
AcDb2dVertex
 10
890.2333194017003
 20
284.3035086691274
 30
0.0
  0
VERTEX
  5
3CE
330
36F
100
AcDbEntity
  8
Ｓ_１_１
  6
CONTINUOUS
 62
     3
100
AcDbVertex
100
AcDb2dVertex
 10
889.9165803193639
 20
284.4448722600831
 30
0.0
  0
VERTEX
  5
3CF
330
36F
100
AcDbEntity
  8
Ｓ_１_１
  6
CONTINUOUS
 62
     3
100
AcDbVertex
100
AcDb2dVertex
 10
889.606263637502
 20
284.6122756302251
 30
0.0
  0
VERTEX
  5
3D0
330
36F
100
AcDbEntity
  8
Ｓ_１_１
  6
CONTINUOUS
 62
     3
100
AcDbVertex
100
AcDb2dVertex
 10
889.3034273385595
 20
284.8051488101377
 30
0.0
  0
VERTEX
  5
3D1
330
36F
100
AcDbEntity
  8
Ｓ_１_１
  6
CONTINUOUS
 62
     3
100
AcDbVertex
100
AcDb2dVertex
 10
889.0091145038198
 20
285.0228249728574
 30
0.0
  0
VERTEX
  5
3D2
330
36F
100
AcDbEntity
  8
Ｓ_１_１
  6
CONTINUOUS
 62
     3
100
AcDbVertex
100
AcDb2dVertex
 10
888.7243384122442
 20
285.264551609744
 30
0.0
  0
VERTEX
  5
3D3
330
36F
100
AcDbEntity
  8
Ｓ_１_１
  6
CONTINUOUS
 62
     3
100
AcDbVertex
100
AcDb2dVertex
 10
888.4500974416326
 20
285.5294942557706
 30
0.0
  0
VERTEX
  5
3D4
330
36F
100
AcDbEntity
  8
Ｓ_１_１
  6
CONTINUOUS
 62
     3
100
AcDbVertex
100
AcDb2dVertex
 10
888.1873154639791
 20
285.8167439401044
 30
0.0
  0
VERTEX
  5
3D5
330
36F
100
AcDbEntity
  8
Ｓ_１_１
  6
CONTINUOUS
 62
     3
100
AcDbVertex
100
AcDb2dVertex
 10
887.9369014501165
 20
286.125309735526
 30
0.0
  0
VERTEX
  5
3D6
330
36F
100
AcDbEntity
  8
Ｓ_１_１
  6
CONTINUOUS
 62
     3
100
AcDbVertex
100
AcDb2dVertex
 10
887.6997345685552
 20
286.45412620901
 30
0.0
  0
VERTEX
  5
3D7
330
36F
100
AcDbEntity
  8
Ｓ_１_１
  6
CONTINUOUS
 62
     3
100
AcDbVertex
100
AcDb2dVertex
 10
887.4766045808385
 20
286.8020608723058
 30
0.0
  0
VERTEX
  5
3D8
330
36F
100
AcDbEntity
  8
Ｓ_１_１
  6
CONTINUOUS
 62
     3
100
AcDbVertex
100
AcDb2dVertex
 10
887.2683161496709
 20
287.1679141819371
 30
0.0
  0
VERTEX
  5
3D9
330
36F
100
AcDbEntity
  8
Ｓ_１_１
  6
CONTINUOUS
 62
     3
100
AcDbVertex
100
AcDb2dVertex
 10
887.0755696296285
 20
287.5504232644929
 30
0.0
  0
VERTEX
  5
3DA
330
36F
100
AcDbEntity
  8
Ｓ_１_１
  6
CONTINUOUS
 62
     3
100
AcDbVertex
100
AcDb2dVertex
 10
886.8990206718038
 20
287.9482730924977
 30
0.0
  0
VERTEX
  5
3DB
330
36F
100
AcDbEntity
  8
Ｓ_１_１
  6
CONTINUOUS
 62
     3
100
AcDbVertex
100
AcDb2dVertex
 10
886.7392802238057
 20
288.3600853085412
 30
0.0
  0
SEQEND
  5
3DC
330
36F
100
AcDbEntity
  8
Ｓ_１_１
  6
CONTINUOUS
 62
     3
  0
LINE
  5
3DD
330
1F
100
AcDbEntity
  8
Ｓ_１_１
  6
CONTINUOUS
 62
     3
100
AcDbLine
 10
890.3624826669286
 20
281.9999977648152
 30
0.0
 11
821.0660183429311
 21
281.9999977648152
 31
0.0
  0
LINE
  5
3DE
330
1F
100
AcDbEntity
  8
Ｓ_１_１
  6
CONTINUOUS
 62
     3
100
AcDbLine
 10
821.0660183429311
 20
301.9999973177804
 30
0.0
 11
890.3624826669286
 21
301.9999973177804
 31
0.0
  0
POLYLINE
  5
3DF
330
1F
100
AcDbEntity
  8
Ｓ_１_１
  6
CONTINUOUS
 62
     3
100
AcDb2dPolyline
 66
     1
 10
0.0
 20
0.0
 30
0.0
 70
   128
  0
VERTEX
  5
3E0
330
3DF
100
AcDbEntity
  8
Ｓ_１_１
  6
CONTINUOUS
 62
     3
100
AcDbVertex
100
AcDb2dVertex
 10
814.7692495584081
 20
287.4501086473359
 30
0.0
  0
VERTEX
  5
3E1
330
3DF
100
AcDbEntity
  8
Ｓ_１_１
  6
CONTINUOUS
 62
     3
100
AcDbVertex
100
AcDb2dVertex
 10
814.608235061128
 20
287.9264130890264
 30
0.0
  0
VERTEX
  5
3E2
330
3DF
100
AcDbEntity
  8
Ｓ_１_１
  6
CONTINUOUS
 62
     3
100
AcDbVertex
100
AcDb2dVertex
 10
814.4652137159894
 20
288.4140684902562
 30
0.0
  0
VERTEX
  5
3E3
330
3DF
100
AcDbEntity
  8
Ｓ_１_１
  6
CONTINUOUS
 62
     3
100
AcDbVertex
100
AcDb2dVertex
 10
814.3405953049253
 20
288.9117225706472
 30
0.0
  0
VERTEX
  5
3E4
330
3DF
100
AcDbEntity
  8
Ｓ_１_１
  6
CONTINUOUS
 62
     3
100
AcDbVertex
100
AcDb2dVertex
 10
814.234722554643
 20
289.4179820716275
 30
0.0
  0
VERTEX
  5
3E5
330
3DF
100
AcDbEntity
  8
Ｓ_１_１
  6
CONTINUOUS
 62
     3
100
AcDbVertex
100
AcDb2dVertex
 10
814.1478860377858
 20
289.9314388334645
 30
0.0
  0
VERTEX
  5
3E6
330
3DF
100
AcDbEntity
  8
Ｓ_１_１
  6
CONTINUOUS
 62
     3
100
AcDbVertex
100
AcDb2dVertex
 10
814.0803316235135
 20
290.4506586193933
 30
0.0
  0
VERTEX
  5
3E7
330
3DF
100
AcDbEntity
  8
Ｓ_１_１
  6
CONTINUOUS
 62
     3
100
AcDbVertex
100
AcDb2dVertex
 10
814.0322530269216
 20
290.9741997420682
 30
0.0
  0
VERTEX
  5
3E8
330
3DF
100
AcDbEntity
  8
Ｓ_１_１
  6
CONTINUOUS
 62
     3
100
AcDbVertex
100
AcDb2dVertex
 10
814.0037694572995
 20
291.5005981624021
 30
0.0
  0
VERTEX
  5
3E9
330
3DF
100
AcDbEntity
  8
Ｓ_１_１
  6
CONTINUOUS
 62
     3
100
AcDbVertex
100
AcDb2dVertex
 10
813.9949777721952
 20
292.0283898413076
 30
0.0
  0
VERTEX
  5
3EA
330
3DF
100
AcDbEntity
  8
Ｓ_１_１
  6
CONTINUOUS
 62
     3
100
AcDbVertex
100
AcDb2dVertex
 10
814.0058928727697
 20
292.5561032891168
 30
0.0
  0
VERTEX
  5
3EB
330
3DF
100
AcDbEntity
  8
Ｓ_１_１
  6
CONTINUOUS
 62
     3
100
AcDbVertex
100
AcDb2dVertex
 10
814.0364849567006
 20
293.0822632908715
 30
0.0
  0
VERTEX
  5
3EC
330
3DF
100
AcDbEntity
  8
Ｓ_１_１
  6
CONTINUOUS
 62
     3
100
AcDbVertex
100
AcDb2dVertex
 10
814.0866646170209
 20
293.6054058074845
 30
0.0
  0
VERTEX
  5
3ED
330
3DF
100
AcDbEntity
  8
Ｓ_１_１
  6
CONTINUOUS
 62
     3
100
AcDbVertex
100
AcDb2dVertex
 10
814.1563051938604
 20
294.1240779757394
 30
0.0
  0
VERTEX
  5
3EE
330
3DF
100
AcDbEntity
  8
Ｓ_１_１
  6
CONTINUOUS
 62
     3
100
AcDbVertex
100
AcDb2dVertex
 10
814.2451980709623
 20
294.6368269324197
 30
0.0
  0
VERTEX
  5
3EF
330
3DF
100
AcDbEntity
  8
Ｓ_１_１
  6
CONTINUOUS
 62
     3
100
AcDbVertex
100
AcDb2dVertex
 10
814.3531048297475
 20
295.1422296166314
 30
0.0
  0
VERTEX
  5
3F0
330
3DF
100
AcDbEntity
  8
Ｓ_１_１
  6
CONTINUOUS
 62
     3
100
AcDbVertex
100
AcDb2dVertex
 10
814.4797199964116
 20
295.6388778686418
 30
0.0
  0
VERTEX
  5
3F1
330
3DF
100
AcDbEntity
  8
Ｓ_１_１
  6
CONTINUOUS
 62
     3
100
AcDbVertex
100
AcDb2dVertex
 10
814.6246933936666
 20
296.1253784298791
 30
0.0
  0
VERTEX
  5
3F2
330
3DF
100
AcDbEntity
  8
Ｓ_１_１
  6
CONTINUOUS
 62
     3
100
AcDbVertex
100
AcDb2dVertex
 10
814.7876226901601
 20
296.6003752946748
 30
0.0
  0
VERTEX
  5
3F3
330
3DF
100
AcDbEntity
  8
Ｓ_１_１
  6
CONTINUOUS
 62
     3
100
AcDbVertex
100
AcDb2dVertex
 10
814.9680459498952
 20
297.0625571608438
 30
0.0
  0
VERTEX
  5
3F4
330
3DF
100
AcDbEntity
  8
Ｓ_１_１
  6
CONTINUOUS
 62
     3
100
AcDbVertex
100
AcDb2dVertex
 10
815.1654639839719
 20
297.5106276273622
 30
0.0
  0
VERTEX
  5
3F5
330
3DF
100
AcDbEntity
  8
Ｓ_１_１
  6
CONTINUOUS
 62
     3
100
AcDbVertex
100
AcDb2dVertex
 10
815.3793329000066
 20
297.9433424472703
 30
0.0
  0
VERTEX
  5
3F6
330
3DF
100
AcDbEntity
  8
Ｓ_１_１
  6
CONTINUOUS
 62
     3
100
AcDbVertex
100
AcDb2dVertex
 10
815.609049200971
 20
298.3594871759309
 30
0.0
  0
VERTEX
  5
3F7
330
3DF
100
AcDbEntity
  8
Ｓ_１_１
  6
CONTINUOUS
 62
     3
100
AcDbVertex
100
AcDb2dVertex
 10
815.8539795875142
 20
298.7579069733514
 30
0.0
  0
VERTEX
  5
3F8
330
3DF
100
AcDbEntity
  8
Ｓ_１_１
  6
CONTINUOUS
 62
     3
100
AcDbVertex
100
AcDb2dVertex
 10
816.1134311556409
 20
299.1374917030229
 30
0.0
  0
VERTEX
  5
3F9
330
3DF
100
AcDbEntity
  8
Ｓ_１_１
  6
CONTINUOUS
 62
     3
100
AcDbVertex
100
AcDb2dVertex
 10
816.3866886496137
 20
299.4971833825006
 30
0.0
  0
VERTEX
  5
3FA
330
3DF
100
AcDbEntity
  8
Ｓ_１_１
  6
CONTINUOUS
 62
     3
100
AcDbVertex
100
AcDb2dVertex
 10
816.6729921102117
 20
299.8359836339845
 30
0.0
  0
VERTEX
  5
3FB
330
3DF
100
AcDbEntity
  8
Ｓ_１_１
  6
CONTINUOUS
 62
     3
100
AcDbVertex
100
AcDb2dVertex
 10
816.9715368747304
 20
300.1529387831582
 30
0.0
  0
VERTEX
  5
3FC
330
3DF
100
AcDbEntity
  8
Ｓ_１_１
  6
CONTINUOUS
 62
     3
100
AcDbVertex
100
AcDb2dVertex
 10
817.281488478143
 20
300.4471696615113
 30
0.0
  0
VERTEX
  5
3FD
330
3DF
100
AcDbEntity
  8
Ｓ_１_１
  6
CONTINUOUS
 62
     3
100
AcDbVertex
100
AcDb2dVertex
 10
817.6019975542615
 20
300.7178567051782
 30
0.0
  0
VERTEX
  5
3FE
330
3DF
100
AcDbEntity
  8
Ｓ_１_１
  6
CONTINUOUS
 62
     3
100
AcDbVertex
100
AcDb2dVertex
 10
817.932155132253
 20
300.9642474055184
 30
0.0
  0
VERTEX
  5
3FF
330
3DF
100
AcDbEntity
  8
Ｓ_１_１
  6
CONTINUOUS
 62
     3
100
AcDbVertex
100
AcDb2dVertex
 10
818.2710447907041
 20
301.1856563091172
 30
0.0
  0
VERTEX
  5
400
330
3DF
100
AcDbEntity
  8
Ｓ_１_１
  6
CONTINUOUS
 62
     3
100
AcDbVertex
100
AcDb2dVertex
 10
818.6177277564595
 20
301.3814575672044
 30
0.0
  0
VERTEX
  5
401
330
3DF
100
AcDbEntity
  8
Ｓ_１_１
  6
CONTINUOUS
 62
     3
100
AcDbVertex
100
AcDb2dVertex
 10
818.9712354540418
 20
301.5511147379769
 30
0.0
  0
VERTEX
  5
402
330
3DF
100
AcDbEntity
  8
Ｓ_１_１
  6
CONTINUOUS
 62
     3
100
AcDbVertex
100
AcDb2dVertex
 10
819.330584406812
 20
301.6941509842767
 30
0.0
  0
VERTEX
  5
403
330
3DF
100
AcDbEntity
  8
Ｓ_１_１
  6
CONTINUOUS
 62
     3
100
AcDbVertex
100
AcDb2dVertex
 10
819.6947687863897
 20
301.8101639747514
 30
0.0
  0
VERTEX
  5
404
330
3DF
100
AcDbEntity
  8
Ｓ_１_１
  6
CONTINUOUS
 62
     3
100
AcDbVertex
100
AcDb2dVertex
 10
820.0627678632329
 20
301.898840785016
 30
0.0
  0
VERTEX
  5
405
330
3DF
100
AcDbEntity
  8
Ｓ_１_１
  6
CONTINUOUS
 62
     3
100
AcDbVertex
100
AcDb2dVertex
 10
820.4335758089612
 20
301.9599206447496
 30
0.0
  0
VERTEX
  5
406
330
3DF
100
AcDbEntity
  8
Ｓ_１_１
  6
CONTINUOUS
 62
     3
100
AcDbVertex
100
AcDb2dVertex
 10
820.8061346411298
 20
301.993239641179
 30
0.0
  0
VERTEX
  5
407
330
3DF
100
AcDbEntity
  8
Ｓ_１_１
  6
CONTINUOUS
 62
     3
100
AcDbVertex
100
AcDb2dVertex
 10
821.0660183429311
 20
301.9999973177804
 30
0.0
  0
SEQEND
  5
408
330
3DF
100
AcDbEntity
  8
Ｓ_１_１
  6
CONTINUOUS
 62
     3
  0
ARC
  5
409
330
1F
100
AcDbEntity
  8
Ｓ_１_１
  6
CONTINUOUS
 62
     3
100
AcDbCircle
 10
821.8301733379315
 20
289.245393509782
 30
0.0
 40
7.28558112696363
100
AcDbArc
 50
194.2655393285168
 51
263.9794051192213
  0
ARC
  5
40A
330
1F
100
AcDbEntity
  8
Ｓ_１_１
  6
CONTINUOUS
 62
     3
100
AcDbCircle
 10
608.1698266620692
 20
289.245393509782
 30
0.0
 40
7.28558112696363
100
AcDbArc
 50
276.0205948807786
 51
345.7344606714832
  0
POLYLINE
  5
40B
330
1F
100
AcDbEntity
  8
Ｓ_１_１
  6
CONTINUOUS
 62
     3
100
AcDb2dPolyline
 66
     1
 10
0.0
 20
0.0
 30
0.0
 70
   128
  0
VERTEX
  5
40C
330
40B
100
AcDbEntity
  8
Ｓ_１_１
  6
CONTINUOUS
 62
     3
100
AcDbVertex
100
AcDb2dVertex
 10
615.2307504415926
 20
287.4501086473359
 30
0.0
  0
VERTEX
  5
40D
330
40B
100
AcDbEntity
  8
Ｓ_１_１
  6
CONTINUOUS
 62
     3
100
AcDbVertex
100
AcDb2dVertex
 10
615.3917649388727
 20
287.9264130890264
 30
0.0
  0
VERTEX
  5
40E
330
40B
100
AcDbEntity
  8
Ｓ_１_１
  6
CONTINUOUS
 62
     3
100
AcDbVertex
100
AcDb2dVertex
 10
615.5347862840113
 20
288.4140684902562
 30
0.0
  0
VERTEX
  5
40F
330
40B
100
AcDbEntity
  8
Ｓ_１_１
  6
CONTINUOUS
 62
     3
100
AcDbVertex
100
AcDb2dVertex
 10
615.6594046950754
 20
288.9117225706472
 30
0.0
  0
VERTEX
  5
410
330
40B
100
AcDbEntity
  8
Ｓ_１_１
  6
CONTINUOUS
 62
     3
100
AcDbVertex
100
AcDb2dVertex
 10
615.7652774453577
 20
289.4179820716275
 30
0.0
  0
VERTEX
  5
411
330
40B
100
AcDbEntity
  8
Ｓ_１_１
  6
CONTINUOUS
 62
     3
100
AcDbVertex
100
AcDb2dVertex
 10
615.8521139622148
 20
289.9314388334645
 30
0.0
  0
VERTEX
  5
412
330
40B
100
AcDbEntity
  8
Ｓ_１_１
  6
CONTINUOUS
 62
     3
100
AcDbVertex
100
AcDb2dVertex
 10
615.9196683764872
 20
290.4506586193933
 30
0.0
  0
VERTEX
  5
413
330
40B
100
AcDbEntity
  8
Ｓ_１_１
  6
CONTINUOUS
 62
     3
100
AcDbVertex
100
AcDb2dVertex
 10
615.9677469730791
 20
290.9741997420682
 30
0.0
  0
VERTEX
  5
414
330
40B
100
AcDbEntity
  8
Ｓ_１_１
  6
CONTINUOUS
 62
     3
100
AcDbVertex
100
AcDb2dVertex
 10
615.9962305427011
 20
291.5005981624021
 30
0.0
  0
VERTEX
  5
415
330
40B
100
AcDbEntity
  8
Ｓ_１_１
  6
CONTINUOUS
 62
     3
100
AcDbVertex
100
AcDb2dVertex
 10
616.0050222278055
 20
292.0283898413076
 30
0.0
  0
VERTEX
  5
416
330
40B
100
AcDbEntity
  8
Ｓ_１_１
  6
CONTINUOUS
 62
     3
100
AcDbVertex
100
AcDb2dVertex
 10
615.994107127231
 20
292.5561032891168
 30
0.0
  0
VERTEX
  5
417
330
40B
100
AcDbEntity
  8
Ｓ_１_１
  6
CONTINUOUS
 62
     3
100
AcDbVertex
100
AcDb2dVertex
 10
615.9635150433
 20
293.0822632908715
 30
0.0
  0
VERTEX
  5
418
330
40B
100
AcDbEntity
  8
Ｓ_１_１
  6
CONTINUOUS
 62
     3
100
AcDbVertex
100
AcDb2dVertex
 10
615.9133353829798
 20
293.6054058074845
 30
0.0
  0
VERTEX
  5
419
330
40B
100
AcDbEntity
  8
Ｓ_１_１
  6
CONTINUOUS
 62
     3
100
AcDbVertex
100
AcDb2dVertex
 10
615.8436948061403
 20
294.1240779757394
 30
0.0
  0
VERTEX
  5
41A
330
40B
100
AcDbEntity
  8
Ｓ_１_１
  6
CONTINUOUS
 62
     3
100
AcDbVertex
100
AcDb2dVertex
 10
615.7548019290384
 20
294.6368269324197
 30
0.0
  0
VERTEX
  5
41B
330
40B
100
AcDbEntity
  8
Ｓ_１_１
  6
CONTINUOUS
 62
     3
100
AcDbVertex
100
AcDb2dVertex
 10
615.6468951702532
 20
295.1422296166314
 30
0.0
  0
VERTEX
  5
41C
330
40B
100
AcDbEntity
  8
Ｓ_１_１
  6
CONTINUOUS
 62
     3
100
AcDbVertex
100
AcDb2dVertex
 10
615.520280003589
 20
295.6388778686418
 30
0.0
  0
VERTEX
  5
41D
330
40B
100
AcDbEntity
  8
Ｓ_１_１
  6
CONTINUOUS
 62
     3
100
AcDbVertex
100
AcDb2dVertex
 10
615.3753066063341
 20
296.1253784298791
 30
0.0
  0
VERTEX
  5
41E
330
40B
100
AcDbEntity
  8
Ｓ_１_１
  6
CONTINUOUS
 62
     3
100
AcDbVertex
100
AcDb2dVertex
 10
615.2123773098406
 20
296.6003752946748
 30
0.0
  0
VERTEX
  5
41F
330
40B
100
AcDbEntity
  8
Ｓ_１_１
  6
CONTINUOUS
 62
     3
100
AcDbVertex
100
AcDb2dVertex
 10
615.0319540501055
 20
297.0625571608438
 30
0.0
  0
VERTEX
  5
420
330
40B
100
AcDbEntity
  8
Ｓ_１_１
  6
CONTINUOUS
 62
     3
100
AcDbVertex
100
AcDb2dVertex
 10
614.8345360160288
 20
297.5106276273622
 30
0.0
  0
VERTEX
  5
421
330
40B
100
AcDbEntity
  8
Ｓ_１_１
  6
CONTINUOUS
 62
     3
100
AcDbVertex
100
AcDb2dVertex
 10
614.6206670999941
 20
297.9433424472703
 30
0.0
  0
VERTEX
  5
422
330
40B
100
AcDbEntity
  8
Ｓ_１_１
  6
CONTINUOUS
 62
     3
100
AcDbVertex
100
AcDb2dVertex
 10
614.3909507990297
 20
298.3594871759309
 30
0.0
  0
VERTEX
  5
423
330
40B
100
AcDbEntity
  8
Ｓ_１_１
  6
CONTINUOUS
 62
     3
100
AcDbVertex
100
AcDb2dVertex
 10
614.1460204124865
 20
298.7579069733514
 30
0.0
  0
VERTEX
  5
424
330
40B
100
AcDbEntity
  8
Ｓ_１_１
  6
CONTINUOUS
 62
     3
100
AcDbVertex
100
AcDb2dVertex
 10
613.8865688443598
 20
299.1374917030229
 30
0.0
  0
VERTEX
  5
425
330
40B
100
AcDbEntity
  8
Ｓ_１_１
  6
CONTINUOUS
 62
     3
100
AcDbVertex
100
AcDb2dVertex
 10
613.613311350387
 20
299.4971833825006
 30
0.0
  0
VERTEX
  5
426
330
40B
100
AcDbEntity
  8
Ｓ_１_１
  6
CONTINUOUS
 62
     3
100
AcDbVertex
100
AcDb2dVertex
 10
613.327007889789
 20
299.8359836339845
 30
0.0
  0
VERTEX
  5
427
330
40B
100
AcDbEntity
  8
Ｓ_１_１
  6
CONTINUOUS
 62
     3
100
AcDbVertex
100
AcDb2dVertex
 10
613.0284631252703
 20
300.1529387831582
 30
0.0
  0
VERTEX
  5
428
330
40B
100
AcDbEntity
  8
Ｓ_１_１
  6
CONTINUOUS
 62
     3
100
AcDbVertex
100
AcDb2dVertex
 10
612.7185115218576
 20
300.4471696615113
 30
0.0
  0
VERTEX
  5
429
330
40B
100
AcDbEntity
  8
Ｓ_１_１
  6
CONTINUOUS
 62
     3
100
AcDbVertex
100
AcDb2dVertex
 10
612.3980024457392
 20
300.7178567051782
 30
0.0
  0
VERTEX
  5
42A
330
40B
100
AcDbEntity
  8
Ｓ_１_１
  6
CONTINUOUS
 62
     3
100
AcDbVertex
100
AcDb2dVertex
 10
612.0678448677477
 20
300.9642474055184
 30
0.0
  0
VERTEX
  5
42B
330
40B
100
AcDbEntity
  8
Ｓ_１_１
  6
CONTINUOUS
 62
     3
100
AcDbVertex
100
AcDb2dVertex
 10
611.7289552092966
 20
301.1856563091172
 30
0.0
  0
VERTEX
  5
42C
330
40B
100
AcDbEntity
  8
Ｓ_１_１
  6
CONTINUOUS
 62
     3
100
AcDbVertex
100
AcDb2dVertex
 10
611.3822722435411
 20
301.3814575672044
 30
0.0
  0
VERTEX
  5
42D
330
40B
100
AcDbEntity
  8
Ｓ_１_１
  6
CONTINUOUS
 62
     3
100
AcDbVertex
100
AcDb2dVertex
 10
611.0287645459589
 20
301.5511147379769
 30
0.0
  0
VERTEX
  5
42E
330
40B
100
AcDbEntity
  8
Ｓ_１_１
  6
CONTINUOUS
 62
     3
100
AcDbVertex
100
AcDb2dVertex
 10
610.6694155931887
 20
301.6941509842767
 30
0.0
  0
VERTEX
  5
42F
330
40B
100
AcDbEntity
  8
Ｓ_１_１
  6
CONTINUOUS
 62
     3
100
AcDbVertex
100
AcDb2dVertex
 10
610.305231213611
 20
301.8101639747514
 30
0.0
  0
VERTEX
  5
430
330
40B
100
AcDbEntity
  8
Ｓ_１_１
  6
CONTINUOUS
 62
     3
100
AcDbVertex
100
AcDb2dVertex
 10
609.9372321367678
 20
301.898840785016
 30
0.0
  0
VERTEX
  5
431
330
40B
100
AcDbEntity
  8
Ｓ_１_１
  6
CONTINUOUS
 62
     3
100
AcDbVertex
100
AcDb2dVertex
 10
609.5664241910395
 20
301.9599206447496
 30
0.0
  0
VERTEX
  5
432
330
40B
100
AcDbEntity
  8
Ｓ_１_１
  6
CONTINUOUS
 62
     3
100
AcDbVertex
100
AcDb2dVertex
 10
609.1938653588709
 20
301.993239641179
 30
0.0
  0
VERTEX
  5
433
330
40B
100
AcDbEntity
  8
Ｓ_１_１
  6
CONTINUOUS
 62
     3
100
AcDbVertex
100
AcDb2dVertex
 10
608.9339816570696
 20
301.9999973177804
 30
0.0
  0
SEQEND
  5
434
330
40B
100
AcDbEntity
  8
Ｓ_１_１
  6
CONTINUOUS
 62
     3
  0
LINE
  5
435
330
1F
100
AcDbEntity
  8
Ｓ_１_１
  6
CONTINUOUS
 62
     3
100
AcDbLine
 10
539.6375173330721
 20
281.9999977648152
 30
0.0
 11
608.9339816570696
 21
281.9999977648152
 31
0.0
  0
LINE
  5
436
330
1F
100
AcDbEntity
  8
Ｓ_１_１
  6
CONTINUOUS
 62
     3
100
AcDbLine
 10
608.9339816570696
 20
301.9999973177804
 30
0.0
 11
539.6375173330721
 21
301.9999973177804
 31
0.0
  0
POLYLINE
  5
437
330
1F
100
AcDbEntity
  8
Ｓ_１_１
  6
CONTINUOUS
 62
     3
100
AcDb2dPolyline
 66
     1
 10
0.0
 20
0.0
 30
0.0
 70
   128
  0
VERTEX
  5
438
330
437
100
AcDbEntity
  8
Ｓ_１_１
  6
CONTINUOUS
 62
     3
100
AcDbVertex
100
AcDb2dVertex
 10
545.9342861175951
 20
287.4501086473359
 30
0.0
  0
VERTEX
  5
439
330
437
100
AcDbEntity
  8
Ｓ_１_１
  6
CONTINUOUS
 62
     3
100
AcDbVertex
100
AcDb2dVertex
 10
545.755710601848
 20
286.9864850938214
 30
0.0
  0
VERTEX
  5
43A
330
437
100
AcDbEntity
  8
Ｓ_１_１
  6
CONTINUOUS
 62
     3
100
AcDbVertex
100
AcDb2dVertex
 10
545.5601030588564
 20
286.5368388295068
 30
0.0
  0
VERTEX
  5
43B
330
437
100
AcDbEntity
  8
Ｓ_１_１
  6
CONTINUOUS
 62
     3
100
AcDbVertex
100
AcDb2dVertex
 10
545.3479701281008
 20
286.102417826642
 30
0.0
  0
VERTEX
  5
43C
330
437
100
AcDbEntity
  8
Ｓ_１_１
  6
CONTINUOUS
 62
     3
100
AcDbVertex
100
AcDb2dVertex
 10
545.1199227571901
 20
285.6844328045739
 30
0.0
  0
VERTEX
  5
43D
330
437
100
AcDbEntity
  8
Ｓ_１_１
  6
CONTINUOUS
 62
     3
100
AcDbVertex
100
AcDb2dVertex
 10
544.8766016960558
 20
285.2840497791661
 30
0.0
  0
VERTEX
  5
43E
330
437
100
AcDbEntity
  8
Ｓ_１_１
  6
CONTINUOUS
 62
     3
100
AcDbVertex
100
AcDb2dVertex
 10
544.6186774969515
 20
284.9023863375081
 30
0.0
  0
VERTEX
  5
43F
330
437
100
AcDbEntity
  8
Ｓ_１_１
  6
CONTINUOUS
 62
     3
100
AcDbVertex
100
AcDb2dVertex
 10
544.3468654156145
 20
284.5405079126252
 30
0.0
  0
VERTEX
  5
440
330
437
100
AcDbEntity
  8
Ｓ_１_１
  6
CONTINUOUS
 62
     3
100
AcDbVertex
100
AcDb2dVertex
 10
544.0619403124269
 20
284.1994166076078
 30
0.0
  0
VERTEX
  5
441
330
437
100
AcDbEntity
  8
Ｓ_１_１
  6
CONTINUOUS
 62
     3
100
AcDbVertex
100
AcDb2dVertex
 10
543.7646621466097
 20
283.8800698220624
 30
0.0
  0
VERTEX
  5
442
330
437
100
AcDbEntity
  8
Ｓ_１_１
  6
CONTINUOUS
 62
     3
100
AcDbVertex
100
AcDb2dVertex
 10
543.455895185512
 20
283.5833504497899
 30
0.0
  0
VERTEX
  5
443
330
437
100
AcDbEntity
  8
Ｓ_１_１
  6
CONTINUOUS
 62
     3
100
AcDbVertex
100
AcDb2dVertex
 10
543.1364887953218
 20
283.3100929558171
 30
0.0
  0
VERTEX
  5
444
330
437
100
AcDbEntity
  8
Ｓ_１_１
  6
CONTINUOUS
 62
     3
100
AcDbVertex
100
AcDb2dVertex
 10
542.8073221445497
 20
283.061057299365
 30
0.0
  0
VERTEX
  5
445
330
437
100
AcDbEntity
  8
Ｓ_１_１
  6
CONTINUOUS
 62
     3
100
AcDbVertex
100
AcDb2dVertex
 10
542.4693191051897
 20
282.8369326591386
 30
0.0
  0
VERTEX
  5
446
330
437
100
AcDbEntity
  8
Ｓ_１_１
  6
CONTINUOUS
 62
     3
100
AcDbVertex
100
AcDb2dVertex
 10
542.1234333515581
 20
282.6383486091985
 30
0.0
  0
VERTEX
  5
447
330
437
100
AcDbEntity
  8
Ｓ_１_１
  6
CONTINUOUS
 62
     3
100
AcDbVertex
100
AcDb2dVertex
 10
541.7706185579714
 20
282.4658602177991
 30
0.0
  0
VERTEX
  5
448
330
437
100
AcDbEntity
  8
Ｓ_１_１
  6
CONTINUOUS
 62
     3
100
AcDbVertex
100
AcDb2dVertex
 10
541.4118432999071
 20
282.3199405968084
 30
0.0
  0
VERTEX
  5
449
330
437
100
AcDbEntity
  8
Ｓ_１_１
  6
CONTINUOUS
 62
     3
100
AcDbVertex
100
AcDb2dVertex
 10
541.0481357574877
 20
282.2010032534494
 30
0.0
  0
VERTEX
  5
44A
330
437
100
AcDbEntity
  8
Ｓ_１_１
  6
CONTINUOUS
 62
     3
100
AcDbVertex
100
AcDb2dVertex
 10
540.6804943085131
 20
282.1093760132684
 30
0.0
  0
VERTEX
  5
44B
330
437
100
AcDbEntity
  8
Ｓ_１_１
  6
CONTINUOUS
 62
     3
100
AcDbVertex
100
AcDb2dVertex
 10
540.3099471331057
 20
282.045315921296
 30
0.0
  0
VERTEX
  5
44C
330
437
100
AcDbEntity
  8
Ｓ_１_１
  6
CONTINUOUS
 62
     3
100
AcDbVertex
100
AcDb2dVertex
 10
539.9375224113878
 20
282.0090017914666
 30
0.0
  0
VERTEX
  5
44D
330
437
100
AcDbEntity
  8
Ｓ_１_１
  6
CONTINUOUS
 62
     3
100
AcDbVertex
100
AcDb2dVertex
 10
539.5642632246431
 20
282.0005342066182
 30
0.0
  0
VERTEX
  5
44E
330
437
100
AcDbEntity
  8
Ｓ_１_１
  6
CONTINUOUS
 62
     3
100
AcDbVertex
100
AcDb2dVertex
 10
539.191197752994
 20
282.0199392437829
 30
0.0
  0
VERTEX
  5
44F
330
437
100
AcDbEntity
  8
Ｓ_１_１
  6
CONTINUOUS
 62
     3
100
AcDbVertex
100
AcDb2dVertex
 10
538.8193839788851
 20
282.0671572983159
 30
0.0
  0
VERTEX
  5
450
330
437
100
AcDbEntity
  8
Ｓ_１_１
  6
CONTINUOUS
 62
     3
100
AcDbVertex
100
AcDb2dVertex
 10
538.4498649836
 20
282.1420617103471
 30
0.0
  0
VERTEX
  5
451
330
437
100
AcDbEntity
  8
Ｓ_１_１
  6
CONTINUOUS
 62
     3
100
AcDbVertex
100
AcDb2dVertex
 10
538.0836391449388
 20
282.2444438636197
 30
0.0
  0
VERTEX
  5
452
330
437
100
AcDbEntity
  8
Ｓ_１_１
  6
CONTINUOUS
 62
     3
100
AcDbVertex
100
AcDb2dVertex
 10
537.7217495441851
 20
282.3740131854905
 30
0.0
  0
VERTEX
  5
453
330
437
100
AcDbEntity
  8
Ｓ_１_１
  6
CONTINUOUS
 62
     3
100
AcDbVertex
100
AcDb2dVertex
 10
537.3651945591387
 20
282.5304120480909
 30
0.0
  0
VERTEX
  5
454
330
437
100
AcDbEntity
  8
Ｓ_１_１
  6
CONTINUOUS
 62
     3
100
AcDbVertex
100
AcDb2dVertex
 10
537.0149725675997
 20
282.7132045924558
 30
0.0
  0
VERTEX
  5
455
330
437
100
AcDbEntity
  8
Ｓ_１_１
  6
CONTINUOUS
 62
     3
100
AcDbVertex
100
AcDb2dVertex
 10
536.6720670462068
 20
282.9218804538144
 30
0.0
  0
VERTEX
  5
456
330
437
100
AcDbEntity
  8
Ｓ_１_１
  6
CONTINUOUS
 62
     3
100
AcDbVertex
100
AcDb2dVertex
 10
536.3374316692766
 20
283.1558622121705
 30
0.0
  0
VERTEX
  5
457
330
437
100
AcDbEntity
  8
Ｓ_１_１
  6
CONTINUOUS
 62
     3
100
AcDbVertex
100
AcDb2dVertex
 10
536.0119754076418
 20
283.4144904911412
 30
0.0
  0
VERTEX
  5
458
330
437
100
AcDbEntity
  8
Ｓ_１_１
  6
CONTINUOUS
 62
     3
100
AcDbVertex
100
AcDb2dVertex
 10
535.6966370344576
 20
283.6970500349893
 30
0.0
  0
VERTEX
  5
459
330
437
100
AcDbEntity
  8
Ｓ_１_１
  6
CONTINUOUS
 62
     3
100
AcDbVertex
100
AcDb2dVertex
 10
535.3922808170732
 20
284.0027510821714
 30
0.0
  0
VERTEX
  5
45A
330
437
100
AcDbEntity
  8
Ｓ_１_１
  6
CONTINUOUS
 62
     3
100
AcDbVertex
100
AcDb2dVertex
 10
535.0997561216768
 20
284.3307405412091
 30
0.0
  0
VERTEX
  5
45B
330
437
100
AcDbEntity
  8
Ｓ_１_１
  6
CONTINUOUS
 62
     3
100
AcDbVertex
100
AcDb2dVertex
 10
534.819882512134
 20
284.6801057159795
 30
0.0
  0
VERTEX
  5
45C
330
437
100
AcDbEntity
  8
Ｓ_１_１
  6
CONTINUOUS
 62
     3
100
AcDbVertex
100
AcDb2dVertex
 10
534.5534348488268
 20
285.0498743057145
 30
0.0
  0
VERTEX
  5
45D
330
437
100
AcDbEntity
  8
Ｓ_１_１
  6
CONTINUOUS
 62
     3
100
AcDbVertex
100
AcDb2dVertex
 10
534.3011581898149
 20
285.4390144050016
 30
0.0
  0
VERTEX
  5
45E
330
437
100
AcDbEntity
  8
Ｓ_１_１
  6
CONTINUOUS
 62
     3
100
AcDbVertex
100
AcDb2dVertex
 10
534.0637528896746
 20
285.8464382290734
 30
0.0
  0
VERTEX
  5
45F
330
437
100
AcDbEntity
  8
Ｓ_１_１
  6
CONTINUOUS
 62
     3
100
AcDbVertex
100
AcDb2dVertex
 10
533.8418895006594
 20
286.2710170149697
 30
0.0
  0
VERTEX
  5
460
330
437
100
AcDbEntity
  8
Ｓ_１_１
  6
CONTINUOUS
 62
     3
100
AcDbVertex
100
AcDb2dVertex
 10
533.6361640692171
 20
286.7115623950853
 30
0.0
  0
VERTEX
  5
461
330
437
100
AcDbEntity
  8
Ｓ_１_１
  6
CONTINUOUS
 62
     3
100
AcDbVertex
100
AcDb2dVertex
 10
533.4471726417955
 20
287.1668450236215
 30
0.0
  0
VERTEX
  5
462
330
437
100
AcDbEntity
  8
Ｓ_１_１
  6
CONTINUOUS
 62
     3
100
AcDbVertex
100
AcDb2dVertex
 10
533.2754367590364
 20
287.6356020271672
 30
0.0
  0
VERTEX
  5
463
330
437
100
AcDbEntity
  8
Ｓ_１_１
  6
CONTINUOUS
 62
     3
100
AcDbVertex
100
AcDb2dVertex
 10
533.121433258098
 20
288.1165221035375
 30
0.0
  0
VERTEX
  5
464
330
437
100
AcDbEntity
  8
Ｓ_１_１
  6
CONTINUOUS
 62
     3
100
AcDbVertex
100
AcDb2dVertex
 10
532.9855942726549
 20
288.6082641482247
 30
0.0
  0
VERTEX
  5
465
330
437
100
AcDbEntity
  8
Ｓ_１_１
  6
CONTINUOUS
 62
     3
100
AcDbVertex
100
AcDb2dVertex
 10
532.8682923317369
 20
289.1094609796895
 30
0.0
  0
VERTEX
  5
466
330
437
100
AcDbEntity
  8
Ｓ_１_１
  6
CONTINUOUS
 62
     3
100
AcDbVertex
100
AcDb2dVertex
 10
532.7698552608904
 20
289.6187156140699
 30
0.0
  0
VERTEX
  5
467
330
437
100
AcDbEntity
  8
Ｓ_１_１
  6
CONTINUOUS
 62
     3
100
AcDbVertex
100
AcDb2dVertex
 10
532.6905661821779
 20
290.1346049904718
 30
0.0
  0
VERTEX
  5
468
330
437
100
AcDbEntity
  8
Ｓ_１_１
  6
CONTINUOUS
 62
     3
100
AcDbVertex
100
AcDb2dVertex
 10
532.6306337118563
 20
290.6556948721303
 30
0.0
  0
VERTEX
  5
469
330
437
100
AcDbEntity
  8
Ｓ_１_１
  6
CONTINUOUS
 62
     3
100
AcDbVertex
100
AcDb2dVertex
 10
532.5902366638597
 20
291.1805323958291
 30
0.0
  0
VERTEX
  5
46A
330
437
100
AcDbEntity
  8
Ｓ_１_１
  6
CONTINUOUS
 62
     3
100
AcDbVertex
100
AcDb2dVertex
 10
532.5694793463167
 20
291.7076497971906
 30
0.0
  0
VERTEX
  5
46B
330
437
100
AcDbEntity
  8
Ｓ_１_１
  6
CONTINUOUS
 62
     3
100
AcDbVertex
100
AcDb2dVertex
 10
532.5684064627108
 20
292.2355867624177
 30
0.0
  0
VERTEX
  5
46C
330
437
100
AcDbEntity
  8
Ｓ_１_１
  6
CONTINUOUS
 62
     3
100
AcDbVertex
100
AcDb2dVertex
 10
532.5870627165255
 20
292.762864351262
 30
0.0
  0
VERTEX
  5
46D
330
437
100
AcDbEntity
  8
Ｓ_１_１
  6
CONTINUOUS
 62
     3
100
AcDbVertex
100
AcDb2dVertex
 10
532.6253437996324
 20
293.2880185246362
 30
0.0
  0
VERTEX
  5
46E
330
437
100
AcDbEntity
  8
Ｓ_１_１
  6
CONTINUOUS
 62
     3
100
AcDbVertex
100
AcDb2dVertex
 10
532.683190107387
 20
293.8095815181626
 30
0.0
  0
VERTEX
  5
46F
330
437
100
AcDbEntity
  8
Ｓ_１_１
  6
CONTINUOUS
 62
     3
100
AcDbVertex
100
AcDb2dVertex
 10
532.7604079246935
 20
294.326100468625
 30
0.0
  0
VERTEX
  5
470
330
437
100
AcDbEntity
  8
Ｓ_１_１
  6
CONTINUOUS
 62
     3
100
AcDbVertex
100
AcDb2dVertex
 10
532.8568035364565
 20
294.836137413968
 30
0.0
  0
VERTEX
  5
471
330
437
100
AcDbEntity
  8
Ｓ_１_１
  6
CONTINUOUS
 62
     3
100
AcDbVertex
100
AcDb2dVertex
 10
532.9720938206133
 20
295.3382692932977
 30
0.0
  0
VERTEX
  5
472
330
437
100
AcDbEntity
  8
Ｓ_１_１
  6
CONTINUOUS
 62
     3
100
AcDbVertex
100
AcDb2dVertex
 10
533.1059509516176
 20
295.8310953974618
 30
0.0
  0
VERTEX
  5
473
330
437
100
AcDbEntity
  8
Ｓ_１_１
  6
CONTINUOUS
 62
     3
100
AcDbVertex
100
AcDb2dVertex
 10
533.2580173016008
 20
296.3132373690499
 30
0.0
  0
VERTEX
  5
474
330
437
100
AcDbEntity
  8
Ｓ_１_１
  6
CONTINUOUS
 62
     3
100
AcDbVertex
100
AcDb2dVertex
 10
533.4278756380495
 20
296.7833690047158
 30
0.0
  0
VERTEX
  5
475
330
437
100
AcDbEntity
  8
Ｓ_１_１
  6
CONTINUOUS
 62
     3
100
AcDbVertex
100
AcDb2dVertex
 10
533.6150342226442
 20
297.2401641011132
 30
0.0
  0
VERTEX
  5
476
330
437
100
AcDbEntity
  8
Ｓ_１_１
  6
CONTINUOUS
 62
     3
100
AcDbVertex
100
AcDb2dVertex
 10
533.8189715147432
 20
297.6823486089601
 30
0.0
  0
VERTEX
  5
477
330
437
100
AcDbEntity
  8
Ｓ_１_１
  6
CONTINUOUS
 62
     3
100
AcDbVertex
100
AcDb2dVertex
 10
534.0391361713823
 20
298.1087006330384
 30
0.0
  0
VERTEX
  5
478
330
437
100
AcDbEntity
  8
Ｓ_１_１
  6
CONTINUOUS
 62
     3
100
AcDbVertex
100
AcDb2dVertex
 10
534.2749023437914
 20
298.5180280804528
 30
0.0
  0
VERTEX
  5
479
330
437
100
AcDbEntity
  8
Ｓ_１_１
  6
CONTINUOUS
 62
     3
100
AcDbVertex
100
AcDb2dVertex
 10
534.5256143808779
 20
298.9091835617913
 30
0.0
  0
VERTEX
  5
47A
330
437
100
AcDbEntity
  8
Ｓ_１_１
  6
CONTINUOUS
 62
     3
100
AcDbVertex
100
AcDb2dVertex
 10
534.7905719280657
 20
299.2810867428674
 30
0.0
  0
VERTEX
  5
47B
330
437
100
AcDbEntity
  8
Ｓ_１_１
  6
CONTINUOUS
 62
     3
100
AcDbVertex
100
AcDb2dVertex
 10
535.0690448284563
 20
299.6326945423974
 30
0.0
  0
VERTEX
  5
47C
330
437
100
AcDbEntity
  8
Ｓ_１_１
  6
CONTINUOUS
 62
     3
100
AcDbVertex
100
AcDb2dVertex
 10
535.3602433205065
 20
299.9630309343232
 30
0.0
  0
VERTEX
  5
47D
330
437
100
AcDbEntity
  8
Ｓ_１_１
  6
CONTINUOUS
 62
     3
100
AcDbVertex
100
AcDb2dVertex
 10
535.6633627415117
 20
300.2711720466508
 30
0.0
  0
VERTEX
  5
47E
330
437
100
AcDbEntity
  8
Ｓ_１_１
  6
CONTINUOUS
 62
     3
100
AcDbVertex
100
AcDb2dVertex
 10
535.9775686264452
 20
300.5562536120309
 30
0.0
  0
VERTEX
  5
47F
330
437
100
AcDbEntity
  8
Ｓ_１_１
  6
CONTINUOUS
 62
     3
100
AcDbVertex
100
AcDb2dVertex
 10
536.3019669056353
 20
300.8174933195008
 30
0.0
  0
VERTEX
  5
480
330
437
100
AcDbEntity
  8
Ｓ_１_１
  6
CONTINUOUS
 62
     3
100
AcDbVertex
100
AcDb2dVertex
 10
536.6356635094103
 20
301.0541610121621
 30
0.0
  0
VERTEX
  5
481
330
437
100
AcDbEntity
  8
Ｓ_１_１
  6
CONTINUOUS
 62
     3
100
AcDbVertex
100
AcDb2dVertex
 10
536.9777345657762
 20
301.265586137761
 30
0.0
  0
VERTEX
  5
482
330
437
100
AcDbEntity
  8
Ｓ_１_１
  6
CONTINUOUS
 62
     3
100
AcDbVertex
100
AcDb2dVertex
 10
537.3272114992556
 20
301.451187551011
 30
0.0
  0
VERTEX
  5
483
330
437
100
AcDbEntity
  8
Ｓ_１_１
  6
CONTINUOUS
 62
     3
100
AcDbVertex
100
AcDb2dVertex
 10
537.6831257343706
 20
301.6104511618508
 30
0.0
  0
VERTEX
  5
484
330
437
100
AcDbEntity
  8
Ｓ_１_１
  6
CONTINUOUS
 62
     3
100
AcDbVertex
100
AcDb2dVertex
 10
538.0444937944826
 20
301.7429224848642
 30
0.0
  0
VERTEX
  5
485
330
437
100
AcDbEntity
  8
Ｓ_１_１
  6
CONTINUOUS
 62
     3
100
AcDbVertex
100
AcDb2dVertex
 10
538.4103024006304
 20
301.8482438921823
 30
0.0
  0
VERTEX
  5
486
330
437
100
AcDbEntity
  8
Ｓ_１_１
  6
CONTINUOUS
 62
     3
100
AcDbVertex
100
AcDb2dVertex
 10
538.7795233726915
 20
301.9261099100007
 30
0.0
  0
VERTEX
  5
487
330
437
100
AcDbEntity
  8
Ｓ_１_１
  6
CONTINUOUS
 62
     3
100
AcDbVertex
100
AcDb2dVertex
 10
539.1511434317049
 20
301.9763119220628
 30
0.0
  0
VERTEX
  5
488
330
437
100
AcDbEntity
  8
Ｓ_１_１
  6
CONTINUOUS
 62
     3
100
AcDbVertex
100
AcDb2dVertex
 10
539.5241045952257
 20
301.9987158179177
 30
0.0
  0
VERTEX
  5
489
330
437
100
AcDbEntity
  8
Ｓ_１_１
  6
CONTINUOUS
 62
     3
100
AcDbVertex
100
AcDb2dVertex
 10
539.8973935842928
 20
301.993239641179
 30
0.0
  0
VERTEX
  5
48A
330
437
100
AcDbEntity
  8
Ｓ_１_１
  6
CONTINUOUS
 62
     3
100
AcDbVertex
100
AcDb2dVertex
 10
540.2699673176226
 20
301.9599206447496
 30
0.0
  0
VERTEX
  5
48B
330
437
100
AcDbEntity
  8
Ｓ_１_１
  6
CONTINUOUS
 62
     3
100
AcDbVertex
100
AcDb2dVertex
 10
540.6407678127703
 20
301.898840785016
 30
0.0
  0
VERTEX
  5
48C
330
437
100
AcDbEntity
  8
Ｓ_１_１
  6
CONTINUOUS
 62
     3
100
AcDbVertex
100
AcDb2dVertex
 10
541.0087668896135
 20
301.8101639747514
 30
0.0
  0
VERTEX
  5
48D
330
437
100
AcDbEntity
  8
Ｓ_１_１
  6
CONTINUOUS
 62
     3
100
AcDbVertex
100
AcDb2dVertex
 10
541.3729512691912
 20
301.6941509842767
 30
0.0
  0
VERTEX
  5
48E
330
437
100
AcDbEntity
  8
Ｓ_１_１
  6
CONTINUOUS
 62
     3
100
AcDbVertex
100
AcDb2dVertex
 10
541.7322927713808
 20
301.5511147379769
 30
0.0
  0
VERTEX
  5
48F
330
437
100
AcDbEntity
  8
Ｓ_１_１
  6
CONTINUOUS
 62
     3
100
AcDbVertex
100
AcDb2dVertex
 10
542.0858079195436
 20
301.3814575672044
 30
0.0
  0
VERTEX
  5
490
330
437
100
AcDbEntity
  8
Ｓ_１_１
  6
CONTINUOUS
 62
     3
100
AcDbVertex
100
AcDb2dVertex
 10
542.4324834347185
 20
301.1856563091172
 30
0.0
  0
VERTEX
  5
491
330
437
100
AcDbEntity
  8
Ｓ_１_１
  6
CONTINUOUS
 62
     3
100
AcDbVertex
100
AcDb2dVertex
 10
542.7713805437502
 20
300.9642474055184
 30
0.0
  0
VERTEX
  5
492
330
437
100
AcDbEntity
  8
Ｓ_１_１
  6
CONTINUOUS
 62
     3
100
AcDbVertex
100
AcDb2dVertex
 10
543.1015455723223
 20
300.7178567051782
 30
0.0
  0
VERTEX
  5
493
330
437
100
AcDbEntity
  8
Ｓ_１_１
  6
CONTINUOUS
 62
     3
100
AcDbVertex
100
AcDb2dVertex
 10
543.4220397472795
 20
300.4471696615113
 30
0.0
  0
VERTEX
  5
494
330
437
100
AcDbEntity
  8
Ｓ_１_１
  6
CONTINUOUS
 62
     3
100
AcDbVertex
100
AcDb2dVertex
 10
543.7319988012728
 20
300.1529387831582
 30
0.0
  0
VERTEX
  5
495
330
437
100
AcDbEntity
  8
Ｓ_１_１
  6
CONTINUOUS
 62
     3
100
AcDbVertex
100
AcDb2dVertex
 10
544.0305435657915
 20
299.8359836339845
 30
0.0
  0
VERTEX
  5
496
330
437
100
AcDbEntity
  8
Ｓ_１_１
  6
CONTINUOUS
 62
     3
100
AcDbVertex
100
AcDb2dVertex
 10
544.3168395758089
 20
299.4971833825006
 30
0.0
  0
VERTEX
  5
497
330
437
100
AcDbEntity
  8
Ｓ_１_１
  6
CONTINUOUS
 62
     3
100
AcDbVertex
100
AcDb2dVertex
 10
544.5900970697817
 20
299.1374917030229
 30
0.0
  0
VERTEX
  5
498
330
437
100
AcDbEntity
  8
Ｓ_１_１
  6
CONTINUOUS
 62
     3
100
AcDbVertex
100
AcDb2dVertex
 10
544.849556088489
 20
298.7579069733514
 30
0.0
  0
VERTEX
  5
499
330
437
100
AcDbEntity
  8
Ｓ_１_１
  6
CONTINUOUS
 62
     3
100
AcDbVertex
100
AcDb2dVertex
 10
545.0944864750322
 20
298.3594871759309
 30
0.0
  0
VERTEX
  5
49A
330
437
100
AcDbEntity
  8
Ｓ_１_１
  6
CONTINUOUS
 62
     3
100
AcDbVertex
100
AcDb2dVertex
 10
545.3242027759966
 20
297.9433424472703
 30
0.0
  0
VERTEX
  5
49B
330
437
100
AcDbEntity
  8
Ｓ_１_１
  6
CONTINUOUS
 62
     3
100
AcDbVertex
100
AcDb2dVertex
 10
545.5380642414507
 20
297.5106276273622
 30
0.0
  0
VERTEX
  5
49C
330
437
100
AcDbEntity
  8
Ｓ_１_１
  6
CONTINUOUS
 62
     3
100
AcDbVertex
100
AcDb2dVertex
 10
545.735489726108
 20
297.0625571608438
 30
0.0
  0
VERTEX
  5
49D
330
437
100
AcDbEntity
  8
Ｓ_１_１
  6
CONTINUOUS
 62
     3
100
AcDbVertex
100
AcDb2dVertex
 10
545.9159129858431
 20
296.6003752946748
 30
0.0
  0
VERTEX
  5
49E
330
437
100
AcDbEntity
  8
Ｓ_１_１
  6
CONTINUOUS
 62
     3
100
AcDbVertex
100
AcDb2dVertex
 10
546.0788422823366
 20
296.1253784298791
 30
0.0
  0
VERTEX
  5
49F
330
437
100
AcDbEntity
  8
Ｓ_１_１
  6
CONTINUOUS
 62
     3
100
AcDbVertex
100
AcDb2dVertex
 10
546.2238156795916
 20
295.6388778686418
 30
0.0
  0
VERTEX
  5
4A0
330
437
100
AcDbEntity
  8
Ｓ_１_１
  6
CONTINUOUS
 62
     3
100
AcDbVertex
100
AcDb2dVertex
 10
546.3504308462557
 20
295.1422296166314
 30
0.0
  0
VERTEX
  5
4A1
330
437
100
AcDbEntity
  8
Ｓ_１_１
  6
CONTINUOUS
 62
     3
100
AcDbVertex
100
AcDb2dVertex
 10
546.4583301544603
 20
294.6368269324197
 30
0.0
  0
VERTEX
  5
4A2
330
437
100
AcDbEntity
  8
Ｓ_１_１
  6
CONTINUOUS
 62
     3
100
AcDbVertex
100
AcDb2dVertex
 10
546.5472304821428
 20
294.1240779757394
 30
0.0
  0
VERTEX
  5
4A3
330
437
100
AcDbEntity
  8
Ｓ_１_１
  6
CONTINUOUS
 62
     3
100
AcDbVertex
100
AcDb2dVertex
 10
546.6168636084017
 20
293.6054058074845
 30
0.0
  0
VERTEX
  5
4A4
330
437
100
AcDbEntity
  8
Ｓ_１_１
  6
CONTINUOUS
 62
     3
100
AcDbVertex
100
AcDb2dVertex
 10
546.6670507193026
 20
293.0822632908715
 30
0.0
  0
VERTEX
  5
4A5
330
437
100
AcDbEntity
  8
Ｓ_１_１
  6
CONTINUOUS
 62
     3
100
AcDbVertex
100
AcDb2dVertex
 10
546.6976428032335
 20
292.5561032891168
 30
0.0
  0
VERTEX
  5
4A6
330
437
100
AcDbEntity
  8
Ｓ_１_１
  6
CONTINUOUS
 62
     3
100
AcDbVertex
100
AcDb2dVertex
 10
546.7085653543886
 20
292.0283898413076
 30
0.0
  0
VERTEX
  5
4A7
330
437
100
AcDbEntity
  8
Ｓ_１_１
  6
CONTINUOUS
 62
     3
100
AcDbVertex
100
AcDb2dVertex
 10
546.699758768123
 20
291.5005981624021
 30
0.0
  0
VERTEX
  5
4A8
330
437
100
AcDbEntity
  8
Ｓ_１_１
  6
CONTINUOUS
 62
     3
100
AcDbVertex
100
AcDb2dVertex
 10
546.6712826490816
 20
290.9741997420682
 30
0.0
  0
VERTEX
  5
4A9
330
437
100
AcDbEntity
  8
Ｓ_１_１
  6
CONTINUOUS
 62
     3
100
AcDbVertex
100
AcDb2dVertex
 10
546.6231966019091
 20
290.4506586193933
 30
0.0
  0
VERTEX
  5
4AA
330
437
100
AcDbEntity
  8
Ｓ_１_１
  6
CONTINUOUS
 62
     3
100
AcDbVertex
100
AcDb2dVertex
 10
546.5556496382173
 20
289.9314388334645
 30
0.0
  0
VERTEX
  5
4AB
330
437
100
AcDbEntity
  8
Ｓ_１_１
  6
CONTINUOUS
 62
     3
100
AcDbVertex
100
AcDb2dVertex
 10
546.4688205719408
 20
289.4179820716275
 30
0.0
  0
VERTEX
  5
4AC
330
437
100
AcDbEntity
  8
Ｓ_１_１
  6
CONTINUOUS
 62
     3
100
AcDbVertex
100
AcDb2dVertex
 10
546.3629329204973
 20
288.9117225706472
 30
0.0
  0
VERTEX
  5
4AD
330
437
100
AcDbEntity
  8
Ｓ_１_１
  6
CONTINUOUS
 62
     3
100
AcDbVertex
100
AcDb2dVertex
 10
546.2383145094332
 20
288.4140684902562
 30
0.0
  0
VERTEX
  5
4AE
330
437
100
AcDbEntity
  8
Ｓ_１_１
  6
CONTINUOUS
 62
     3
100
AcDbVertex
100
AcDb2dVertex
 10
546.0953080654558
 20
287.9264130890264
 30
0.0
  0
VERTEX
  5
4AF
330
437
100
AcDbEntity
  8
Ｓ_１_１
  6
CONTINUOUS
 62
     3
100
AcDbVertex
100
AcDb2dVertex
 10
545.9342861175951
 20
287.4501086473359
 30
0.0
  0
SEQEND
  5
4B0
330
437
100
AcDbEntity
  8
Ｓ_１_１
  6
CONTINUOUS
 62
     3
  0
POLYLINE
  5
4B1
330
1F
100
AcDbEntity
  8
Ｓ_１_１
  6
CONTINUOUS
 62
     3
100
AcDb2dPolyline
 66
     1
 10
0.0
 20
0.0
 30
0.0
 70
   128
  0
VERTEX
  5
4B2
330
4B1
100
AcDbEntity
  8
Ｓ_１_１
  6
CONTINUOUS
 62
     3
100
AcDbVertex
100
AcDb2dVertex
 10
543.260719776195
 20
288.3600853085412
 30
0.0
  0
VERTEX
  5
4B3
330
4B1
100
AcDbEntity
  8
Ｓ_１_１
  6
CONTINUOUS
 62
     3
100
AcDbVertex
100
AcDb2dVertex
 10
543.403085470241
 20
288.7844517528905
 30
0.0
  0
VERTEX
  5
4B4
330
4B1
100
AcDbEntity
  8
Ｓ_１_１
  6
CONTINUOUS
 62
     3
100
AcDbVertex
100
AcDb2dVertex
 10
543.5275995731768
 20
289.2198972105874
 30
0.0
  0
VERTEX
  5
4B5
330
4B1
100
AcDbEntity
  8
Ｓ_１_１
  6
CONTINUOUS
 62
     3
100
AcDbVertex
100
AcDb2dVertex
 10
543.6338299513277
 20
289.6649278402223
 30
0.0
  0
VERTEX
  5
4B6
330
4B1
100
AcDbEntity
  8
Ｓ_１_１
  6
CONTINUOUS
 62
     3
100
AcDbVertex
100
AcDb2dVertex
 10
543.7214040756639
 20
290.1180088221921
 30
0.0
  0
VERTEX
  5
4B7
330
4B1
100
AcDbEntity
  8
Ｓ_１_１
  6
CONTINUOUS
 62
     3
100
AcDbVertex
100
AcDb2dVertex
 10
543.7900239229616
 20
290.5775792598619
 30
0.0
  0
VERTEX
  5
4B8
330
4B1
100
AcDbEntity
  8
Ｓ_１_１
  6
CONTINUOUS
 62
     3
100
AcDbVertex
100
AcDb2dVertex
 10
543.8394510746416
 20
291.0420484542741
 30
0.0
  0
VERTEX
  5
4B9
330
4B1
100
AcDbEntity
  8
Ｓ_１_１
  6
CONTINUOUS
 62
     3
100
AcDbVertex
100
AcDb2dVertex
 10
543.869536519092
 20
291.5098219811811
 30
0.0
  0
VERTEX
  5
4BA
330
4B1
100
AcDbEntity
  8
Ｓ_１_１
  6
CONTINUOUS
 62
     3
100
AcDbVertex
100
AcDb2dVertex
 10
543.880146145862
 20
291.9792867898835
 30
0.0
  0
VERTEX
  5
4BB
330
4B1
100
AcDbEntity
  8
Ｓ_１_１
  6
CONTINUOUS
 62
     3
100
AcDbVertex
100
AcDb2dVertex
 10
543.8712501526293
 20
292.4488223791017
 30
0.0
  0
VERTEX
  5
4BC
330
4B1
100
AcDbEntity
  8
Ｓ_１_１
  6
CONTINUOUS
 62
     3
100
AcDbVertex
100
AcDb2dVertex
 10
543.8428932428774
 20
292.9168082475557
 30
0.0
  0
VERTEX
  5
4BD
330
4B1
100
AcDbEntity
  8
Ｓ_１_１
  6
CONTINUOUS
 62
     3
100
AcDbVertex
100
AcDb2dVertex
 10
543.7951648235735
 20
293.3816350698365
 30
0.0
  0
VERTEX
  5
4BE
330
4B1
100
AcDbEntity
  8
Ｓ_１_１
  6
CONTINUOUS
 62
     3
100
AcDbVertex
100
AcDb2dVertex
 10
543.7282139063295
 20
293.841700971116
 30
0.0
  0
VERTEX
  5
4BF
330
4B1
100
AcDbEntity
  8
Ｓ_１_１
  6
CONTINUOUS
 62
     3
100
AcDbVertex
100
AcDb2dVertex
 10
543.642308712047
 20
294.2954189777269
 30
0.0
  0
VERTEX
  5
4C0
330
4B1
100
AcDbEntity
  8
Ｓ_１_１
  6
CONTINUOUS
 62
     3
100
AcDbVertex
100
AcDb2dVertex
 10
543.5377025604662
 20
294.7412244677438
 30
0.0
  0
VERTEX
  5
4C1
330
4B1
100
AcDbEntity
  8
Ｓ_１_１
  6
CONTINUOUS
 62
     3
100
AcDbVertex
100
AcDb2dVertex
 10
543.4147828817781
 20
295.1775751709832
 30
0.0
  0
VERTEX
  5
4C2
330
4B1
100
AcDbEntity
  8
Ｓ_１_１
  6
CONTINUOUS
 62
     3
100
AcDbVertex
100
AcDb2dVertex
 10
543.2739818096575
 20
295.6029735207452
 30
0.0
  0
VERTEX
  5
4C3
330
4B1
100
AcDbEntity
  8
Ｓ_１_１
  6
CONTINUOUS
 62
     3
100
AcDbVertex
100
AcDb2dVertex
 10
543.1157612801012
 20
296.0159517526521
 30
0.0
  0
VERTEX
  5
4C4
330
4B1
100
AcDbEntity
  8
Ｓ_１_１
  6
CONTINUOUS
 62
     3
100
AcDbVertex
100
AcDb2dVertex
 10
542.9406726360735
 20
296.4150868058099
 30
0.0
  0
VERTEX
  5
4C5
330
4B1
100
AcDbEntity
  8
Ｓ_１_１
  6
CONTINUOUS
 62
     3
100
AcDbVertex
100
AcDb2dVertex
 10
542.7493119240221
 20
296.7990077733888
 30
0.0
  0
VERTEX
  5
4C6
330
4B1
100
AcDbEntity
  8
Ｓ_１_１
  6
CONTINUOUS
 62
     3
100
AcDbVertex
100
AcDb2dVertex
 10
542.5423645973619
 20
297.1663810014619
 30
0.0
  0
VERTEX
  5
4C7
330
4B1
100
AcDbEntity
  8
Ｓ_１_１
  6
CONTINUOUS
 62
     3
100
AcDbVertex
100
AcDb2dVertex
 10
542.3205161095079
 20
297.5159398913278
 30
0.0
  0
VERTEX
  5
4C8
330
4B1
100
AcDbEntity
  8
Ｓ_１_１
  6
CONTINUOUS
 62
     3
100
AcDbVertex
100
AcDb2dVertex
 10
542.0845562220034
 20
297.8464923500909
 30
0.0
  0
VERTEX
  5
4C9
330
4B1
100
AcDbEntity
  8
Ｓ_１_１
  6
CONTINUOUS
 62
     3
100
AcDbVertex
100
AcDb2dVertex
 10
541.8352895975527
 20
298.1568835377587
 30
0.0
  0
VERTEX
  5
4CA
330
4B1
100
AcDbEntity
  8
Ｓ_１_１
  6
CONTINUOUS
 62
     3
100
AcDbVertex
100
AcDb2dVertex
 10
541.5735507011827
 20
298.4460554718866
 30
0.0
  0
VERTEX
  5
4CB
330
4B1
100
AcDbEntity
  8
Ｓ_１_１
  6
CONTINUOUS
 62
     3
100
AcDbVertex
100
AcDb2dVertex
 10
541.3002783060488
 20
298.7130023240937
 30
0.0
  0
VERTEX
  5
4CC
330
4B1
100
AcDbEntity
  8
Ｓ_１_１
  6
CONTINUOUS
 62
     3
100
AcDbVertex
100
AcDb2dVertex
 10
541.0163962841448
 20
298.9568151235475
 30
0.0
  0
VERTEX
  5
4CD
330
4B1
100
AcDbEntity
  8
Ｓ_１_１
  6
CONTINUOUS
 62
     3
100
AcDbVertex
100
AcDb2dVertex
 10
540.7228881121096
 20
299.1766445040597
 30
0.0
  0
VERTEX
  5
4CE
330
4B1
100
AcDbEntity
  8
Ｓ_１_１
  6
CONTINUOUS
 62
     3
100
AcDbVertex
100
AcDb2dVertex
 10
540.4207521677431
 20
299.3717305064096
 30
0.0
  0
VERTEX
  5
4CF
330
4B1
100
AcDbEntity
  8
Ｓ_１_１
  6
CONTINUOUS
 62
     3
100
AcDbVertex
100
AcDb2dVertex
 10
540.1110613346514
 20
299.5414025783433
 30
0.0
  0
VERTEX
  5
4D0
330
4B1
100
AcDbEntity
  8
Ｓ_１_１
  6
CONTINUOUS
 62
     3
100
AcDbVertex
100
AcDb2dVertex
 10
539.7948437929567
 20
299.685087025155
 30
0.0
  0
VERTEX
  5
4D1
330
4B1
100
AcDbEntity
  8
Ｓ_１_１
  6
CONTINUOUS
 62
     3
100
AcDbVertex
100
AcDb2dVertex
 10
539.4732171297487
 20
299.8022697567834
 30
0.0
  0
VERTEX
  5
4D2
330
4B1
100
AcDbEntity
  8
Ｓ_１_１
  6
CONTINUOUS
 62
     3
100
AcDbVertex
100
AcDb2dVertex
 10
539.1472840309557
 20
299.8925633430375
 30
0.0
  0
VERTEX
  5
4D3
330
4B1
100
AcDbEntity
  8
Ｓ_１_１
  6
CONTINUOUS
 62
     3
100
AcDbVertex
100
AcDb2dVertex
 10
538.8181620836672
 20
299.9556474089517
 30
0.0
  0
VERTEX
  5
4D4
330
4B1
100
AcDbEntity
  8
Ｓ_１_１
  6
CONTINUOUS
 62
     3
100
AcDbVertex
100
AcDb2dVertex
 10
538.4869837761339
 20
299.9913058876886
 30
0.0
  0
VERTEX
  5
4D5
330
4B1
100
AcDbEntity
  8
Ｓ_１_１
  6
CONTINUOUS
 62
     3
100
AcDbVertex
100
AcDb2dVertex
 10
538.154911398929
 20
299.999412119378
 30
0.0
  0
VERTEX
  5
4D6
330
4B1
100
AcDbEntity
  8
Ｓ_１_１
  6
CONTINUOUS
 62
     3
100
AcDbVertex
100
AcDb2dVertex
 10
537.823062539142
 20
299.9799512028588
 30
0.0
  0
VERTEX
  5
4D7
330
4B1
100
AcDbEntity
  8
Ｓ_１_１
  6
CONTINUOUS
 62
     3
100
AcDbVertex
100
AcDb2dVertex
 10
537.4925994873461
 20
299.9329752921952
 30
0.0
  0
VERTEX
  5
4D8
330
4B1
100
AcDbEntity
  8
Ｓ_１_１
  6
CONTINUOUS
 62
     3
100
AcDbVertex
100
AcDb2dVertex
 10
537.1646547317919
 20
299.8586557507409
 30
0.0
  0
VERTEX
  5
4D9
330
4B1
100
AcDbEntity
  8
Ｓ_１_１
  6
CONTINUOUS
 62
     3
100
AcDbVertex
100
AcDb2dVertex
 10
536.8403607607302
 20
299.7572458982362
 30
0.0
  0
VERTEX
  5
4DA
330
4B1
100
AcDbEntity
  8
Ｓ_１_１
  6
CONTINUOUS
 62
     3
100
AcDbVertex
100
AcDb2dVertex
 10
536.5208202600893
 20
299.6290959119691
 30
0.0
  0
VERTEX
  5
4DB
330
4B1
100
AcDbEntity
  8
Ｓ_１_１
  6
CONTINUOUS
 62
     3
100
AcDbVertex
100
AcDb2dVertex
 10
536.20716571812
 20
299.4746453761949
 30
0.0
  0
VERTEX
  5
4DC
330
4B1
100
AcDbEntity
  8
Ｓ_１_１
  6
CONTINUOUS
 62
     3
100
AcDbVertex
100
AcDb2dVertex
 10
535.900455117267
 20
299.2944307327165
 30
0.0
  0
VERTEX
  5
4DD
330
4B1
100
AcDbEntity
  8
Ｓ_１_１
  6
CONTINUOUS
 62
     3
100
AcDbVertex
100
AcDb2dVertex
 10
535.6017464399752
 20
299.0890703797235
 30
0.0
  0
VERTEX
  5
4DE
330
4B1
100
AcDbEntity
  8
Ｓ_１_１
  6
CONTINUOUS
 62
     3
100
AcDbVertex
100
AcDb2dVertex
 10
535.312082767528
 20
298.8592646717919
 30
0.0
  0
VERTEX
  5
4DF
330
4B1
100
AcDbEntity
  8
Ｓ_１_１
  6
CONTINUOUS
 62
     3
100
AcDbVertex
100
AcDb2dVertex
 10
535.0324475765642
 20
298.605825722207
 30
0.0
  0
VERTEX
  5
4E0
330
4B1
100
AcDbEntity
  8
Ｓ_１_１
  6
CONTINUOUS
 62
     3
100
AcDbVertex
100
AcDb2dVertex
 10
534.7638243437227
 20
298.3296028971566
 30
0.0
  0
VERTEX
  5
4E1
330
4B1
100
AcDbEntity
  8
Ｓ_１_１
  6
CONTINUOUS
 62
     3
100
AcDbVertex
100
AcDb2dVertex
 10
534.5071071386751
 20
298.0315722226991
 30
0.0
  0
VERTEX
  5
4E2
330
4B1
100
AcDbEntity
  8
Ｓ_１_１
  6
CONTINUOUS
 62
     3
100
AcDbVertex
100
AcDb2dVertex
 10
534.2632198334154
 20
297.7127395272149
 30
0.0
  0
VERTEX
  5
4E3
330
4B1
100
AcDbEntity
  8
Ｓ_１_１
  6
CONTINUOUS
 62
     3
100
AcDbVertex
100
AcDb2dVertex
 10
534.0329819918093
 20
297.3742223977937
 30
0.0
  0
VERTEX
  5
4E4
330
4B1
100
AcDbEntity
  8
Ｓ_１_１
  6
CONTINUOUS
 62
     3
100
AcDbVertex
100
AcDb2dVertex
 10
533.8171684742388
 20
297.0171756744279
 30
0.0
  0
VERTEX
  5
4E5
330
4B1
100
AcDbEntity
  8
Ｓ_１_１
  6
CONTINUOUS
 62
     3
100
AcDbVertex
100
AcDb2dVertex
 10
533.6165690422472
 20
296.6428287029161
 30
0.0
  0
VERTEX
  5
4E6
330
4B1
100
AcDbEntity
  8
Ｓ_１_１
  6
CONTINUOUS
 62
     3
100
AcDbVertex
100
AcDb2dVertex
 10
533.4318393469271
 20
296.2524853348626
 30
0.0
  0
VERTEX
  5
4E7
330
4B1
100
AcDbEntity
  8
Ｓ_１_１
  6
CONTINUOUS
 62
     3
100
AcDbVertex
100
AcDb2dVertex
 10
533.2636201382097
 20
295.8474792241944
 30
0.0
  0
VERTEX
  5
4E8
330
4B1
100
AcDbEntity
  8
Ｓ_１_１
  6
CONTINUOUS
 62
     3
100
AcDbVertex
100
AcDb2dVertex
 10
533.1125074625429
 20
295.4292110800637
 30
0.0
  0
VERTEX
  5
4E9
330
4B1
100
AcDbEntity
  8
Ｓ_１_１
  6
CONTINUOUS
 62
     3
100
AcDbVertex
100
AcDb2dVertex
 10
532.9790079594072
 20
294.9991188645257
 30
0.0
  0
VERTEX
  5
4EA
330
4B1
100
AcDbEntity
  8
Ｓ_１_１
  6
CONTINUOUS
 62
     3
100
AcDbVertex
100
AcDb2dVertex
 10
532.8635835647997
 20
294.5586852431192
 30
0.0
  0
VERTEX
  5
4EB
330
4B1
100
AcDbEntity
  8
Ｓ_１_１
  6
CONTINUOUS
 62
     3
100
AcDbVertex
100
AcDb2dVertex
 10
532.7666515112337
 20
294.1094375848664
 30
0.0
  0
VERTEX
  5
4EC
330
4B1
100
AcDbEntity
  8
Ｓ_１_１
  6
CONTINUOUS
 62
     3
100
AcDbVertex
100
AcDb2dVertex
 10
532.6885098219332
 20
293.6529181599511
 30
0.0
  0
VERTEX
  5
4ED
330
4B1
100
AcDbEntity
  8
Ｓ_１_１
  6
CONTINUOUS
 62
     3
100
AcDbVertex
100
AcDb2dVertex
 10
532.629456520122
 20
293.1906990408792
 30
0.0
  0
VERTEX
  5
4EE
330
4B1
100
AcDbEntity
  8
Ｓ_１_１
  6
CONTINUOUS
 62
     3
100
AcDbVertex
100
AcDb2dVertex
 10
532.5896853208956
 20
292.7243746518983
 30
0.0
  0
VERTEX
  5
4EF
330
4B1
100
AcDbEntity
  8
Ｓ_１_１
  6
CONTINUOUS
 62
     3
100
AcDbVertex
100
AcDb2dVertex
 10
532.569345235866
 20
292.2555543184175
 30
0.0
  0
VERTEX
  5
4F0
330
4B1
100
AcDbEntity
  8
Ｓ_１_１
  6
CONTINUOUS
 62
     3
100
AcDbVertex
100
AcDb2dVertex
 10
532.5684809685167
 20
291.7858510911359
 30
0.0
  0
VERTEX
  5
4F1
330
4B1
100
AcDbEntity
  8
Ｓ_１_１
  6
CONTINUOUS
 62
     3
100
AcDbVertex
100
AcDb2dVertex
 10
532.587107420009
 20
291.3168891966237
 30
0.0
  0
VERTEX
  5
4F2
330
4B1
100
AcDbEntity
  8
Ｓ_１_１
  6
CONTINUOUS
 62
     3
100
AcDbVertex
100
AcDb2dVertex
 10
532.6251798868593
 20
290.8502779602899
 30
0.0
  0
VERTEX
  5
4F3
330
4B1
100
AcDbEntity
  8
Ｓ_１_１
  6
CONTINUOUS
 62
     3
100
AcDbVertex
100
AcDb2dVertex
 10
532.6825344562944
 20
290.3876341581239
 30
0.0
  0
VERTEX
  5
4F4
330
4B1
100
AcDbEntity
  8
Ｓ_１_１
  6
CONTINUOUS
 62
     3
100
AcDbVertex
100
AcDb2dVertex
 10
532.7589923143801
 20
289.9305447637929
 30
0.0
  0
VERTEX
  5
4F5
330
4B1
100
AcDbEntity
  8
Ｓ_１_１
  6
CONTINUOUS
 62
     3
100
AcDbVertex
100
AcDb2dVertex
 10
532.8543001413759
 20
289.4805930256738
 30
0.0
  0
VERTEX
  5
4F6
330
4B1
100
AcDbEntity
  8
Ｓ_１_１
  6
CONTINUOUS
 62
     3
100
AcDbVertex
100
AcDb2dVertex
 10
532.9681003094133
 20
289.0393249392404
 30
0.0
  0
VERTEX
  5
4F7
330
4B1
100
AcDbEntity
  8
Ｓ_１_１
  6
CONTINUOUS
 62
     3
100
AcDbVertex
100
AcDb2dVertex
 10
533.1000202894625
 20
288.6082604229344
 30
0.0
  0
VERTEX
  5
4F8
330
4B1
100
AcDbEntity
  8
Ｓ_１_１
  6
CONTINUOUS
 62
     3
100
AcDbVertex
100
AcDb2dVertex
 10
533.2495981455263
 20
288.1888933181657
 30
0.0
  0
VERTEX
  5
4F9
330
4B1
100
AcDbEntity
  8
Ｓ_１_１
  6
CONTINUOUS
 62
     3
100
AcDbVertex
100
AcDb2dVertex
 10
533.4163272381243
 20
287.782657861699
 30
0.0
  0
VERTEX
  5
4FA
330
4B1
100
AcDbEntity
  8
Ｓ_１_１
  6
CONTINUOUS
 62
     3
100
AcDbVertex
100
AcDb2dVertex
 10
533.5996264219698
 20
287.3909659385575
 30
0.0
  0
VERTEX
  5
4FB
330
4B1
100
AcDbEntity
  8
Ｓ_１_１
  6
CONTINUOUS
 62
     3
100
AcDbVertex
100
AcDb2dVertex
 10
533.7988698482927
 20
287.0151586532487
 30
0.0
  0
VERTEX
  5
4FC
330
4B1
100
AcDbEntity
  8
Ｓ_１_１
  6
CONTINUOUS
 62
     3
100
AcDbVertex
100
AcDb2dVertex
 10
534.013357162517
 20
286.6565361320867
 30
0.0
  0
VERTEX
  5
4FD
330
4B1
100
AcDbEntity
  8
Ｓ_１_１
  6
CONTINUOUS
 62
     3
100
AcDbVertex
100
AcDb2dVertex
 10
534.242358207744
 20
286.3163314461602
 30
0.0
  0
VERTEX
  5
4FE
330
4B1
100
AcDbEntity
  8
Ｓ_１_１
  6
CONTINUOUS
 62
     3
100
AcDbVertex
100
AcDb2dVertex
 10
534.4850832224306
 20
285.9957217872037
 30
0.0
  0
VERTEX
  5
4FF
330
4B1
100
AcDbEntity
  8
Ｓ_１_１
  6
CONTINUOUS
 62
     3
100
AcDbVertex
100
AcDb2dVertex
 10
534.7406977415499
 20
285.6958098411454
 30
0.0
  0
VERTEX
  5
500
330
4B1
100
AcDbEntity
  8
Ｓ_１_１
  6
CONTINUOUS
 62
     3
100
AcDbVertex
100
AcDb2dVertex
 10
535.0083076954302
 20
285.4176312386884
 30
0.0
  0
VERTEX
  5
501
330
4B1
100
AcDbEntity
  8
Ｓ_１_１
  6
CONTINUOUS
 62
     3
100
AcDbVertex
100
AcDb2dVertex
 10
535.2870041132387
 20
285.162139654149
 30
0.0
  0
VERTEX
  5
502
330
4B1
100
AcDbEntity
  8
Ｓ_１_１
  6
CONTINUOUS
 62
     3
100
AcDbVertex
100
AcDb2dVertex
 10
535.5758333206591
 20
284.9302254319085
 30
0.0
  0
VERTEX
  5
503
330
4B1
100
AcDbEntity
  8
Ｓ_１_１
  6
CONTINUOUS
 62
     3
100
AcDbVertex
100
AcDb2dVertex
 10
535.87378203873
 20
284.7226783335103
 30
0.0
  0
VERTEX
  5
504
330
4B1
100
AcDbEntity
  8
Ｓ_１_１
  6
CONTINUOUS
 62
     3
100
AcDbVertex
100
AcDb2dVertex
 10
536.1798220873293
 20
284.540217339982
 30
0.0
  0
VERTEX
  5
505
330
4B1
100
AcDbEntity
  8
Ｓ_１_１
  6
CONTINUOUS
 62
     3
100
AcDbVertex
100
AcDb2dVertex
 10
536.4929103851732
 20
284.3834720253839
 30
0.0
  0
VERTEX
  5
506
330
4B1
100
AcDbEntity
  8
Ｓ_１_１
  6
CONTINUOUS
 62
     3
100
AcDbVertex
100
AcDb2dVertex
 10
536.8119740486559
 20
284.2529825568093
 30
0.0
  0
VERTEX
  5
507
330
4B1
100
AcDbEntity
  8
Ｓ_１_１
  6
CONTINUOUS
 62
     3
100
AcDbVertex
100
AcDb2dVertex
 10
537.1358954906877
 20
284.1491996943845
 30
0.0
  0
VERTEX
  5
508
330
4B1
100
AcDbEntity
  8
Ｓ_１_１
  6
CONTINUOUS
 62
     3
100
AcDbVertex
100
AcDb2dVertex
 10
537.4635571241793
 20
284.0724773406877
 30
0.0
  0
VERTEX
  5
509
330
4B1
100
AcDbEntity
  8
Ｓ_１_１
  6
CONTINUOUS
 62
     3
100
AcDbVertex
100
AcDb2dVertex
 10
537.7938562632021
 20
284.0230874419107
 30
0.0
  0
VERTEX
  5
50A
330
4B1
100
AcDbEntity
  8
Ｓ_１_１
  6
CONTINUOUS
 62
     3
100
AcDbVertex
100
AcDb2dVertex
 10
538.1256157160219
 20
284.0011939108266
 30
0.0
  0
VERTEX
  5
50B
330
4B1
100
AcDbEntity
  8
Ｓ_１_１
  6
CONTINUOUS
 62
     3
100
AcDbVertex
100
AcDb2dVertex
 10
538.4577327967104
 20
284.0068712532415
 30
0.0
  0
VERTEX
  5
50C
330
4B1
100
AcDbEntity
  8
Ｓ_１_１
  6
CONTINUOUS
 62
     3
100
AcDbVertex
100
AcDb2dVertex
 10
538.7890303135332
 20
284.040104567994
 30
0.0
  0
VERTEX
  5
50D
330
4B1
100
AcDbEntity
  8
Ｓ_１_１
  6
CONTINUOUS
 62
     3
100
AcDbVertex
100
AcDb2dVertex
 10
539.1183757782396
 20
284.1007783710851
 30
0.0
  0
VERTEX
  5
50E
330
4B1
100
AcDbEntity
  8
Ｓ_１_１
  6
CONTINUOUS
 62
     3
100
AcDbVertex
100
AcDb2dVertex
 10
539.4446367025789
 20
284.1886803209676
 30
0.0
  0
VERTEX
  5
50F
330
4B1
100
AcDbEntity
  8
Ｓ_１_１
  6
CONTINUOUS
 62
     3
100
AcDbVertex
100
AcDb2dVertex
 10
539.7666805983004
 20
284.3035086691274
 30
0.0
  0
VERTEX
  5
510
330
4B1
100
AcDbEntity
  8
Ｓ_１_１
  6
CONTINUOUS
 62
     3
100
AcDbVertex
100
AcDb2dVertex
 10
540.0834196806368
 20
284.4448722600831
 30
0.0
  0
VERTEX
  5
511
330
4B1
100
AcDbEntity
  8
Ｓ_１_１
  6
CONTINUOUS
 62
     3
100
AcDbVertex
100
AcDb2dVertex
 10
540.3937363624987
 20
284.6122756302251
 30
0.0
  0
VERTEX
  5
512
330
4B1
100
AcDbEntity
  8
Ｓ_１_１
  6
CONTINUOUS
 62
     3
100
AcDbVertex
100
AcDb2dVertex
 10
540.6965726614412
 20
284.8051488101377
 30
0.0
  0
VERTEX
  5
513
330
4B1
100
AcDbEntity
  8
Ｓ_１_１
  6
CONTINUOUS
 62
     3
100
AcDbVertex
100
AcDb2dVertex
 10
540.9908854961809
 20
285.0228249728574
 30
0.0
  0
VERTEX
  5
514
330
4B1
100
AcDbEntity
  8
Ｓ_１_１
  6
CONTINUOUS
 62
     3
100
AcDbVertex
100
AcDb2dVertex
 10
541.2756615877565
 20
285.264551609744
 30
0.0
  0
VERTEX
  5
515
330
4B1
100
AcDbEntity
  8
Ｓ_１_１
  6
CONTINUOUS
 62
     3
100
AcDbVertex
100
AcDb2dVertex
 10
541.5499025583681
 20
285.5294942557706
 30
0.0
  0
VERTEX
  5
516
330
4B1
100
AcDbEntity
  8
Ｓ_１_１
  6
CONTINUOUS
 62
     3
100
AcDbVertex
100
AcDb2dVertex
 10
541.8126845360216
 20
285.8167439401044
 30
0.0
  0
VERTEX
  5
517
330
4B1
100
AcDbEntity
  8
Ｓ_１_１
  6
CONTINUOUS
 62
     3
100
AcDbVertex
100
AcDb2dVertex
 10
542.0630985498842
 20
286.125309735526
 30
0.0
  0
VERTEX
  5
518
330
4B1
100
AcDbEntity
  8
Ｓ_１_１
  6
CONTINUOUS
 62
     3
100
AcDbVertex
100
AcDb2dVertex
 10
542.3002654314455
 20
286.45412620901
 30
0.0
  0
VERTEX
  5
519
330
4B1
100
AcDbEntity
  8
Ｓ_１_１
  6
CONTINUOUS
 62
     3
100
AcDbVertex
100
AcDb2dVertex
 10
542.5233954191622
 20
286.8020608723058
 30
0.0
  0
VERTEX
  5
51A
330
4B1
100
AcDbEntity
  8
Ｓ_１_１
  6
CONTINUOUS
 62
     3
100
AcDbVertex
100
AcDb2dVertex
 10
542.7316838503298
 20
287.1679141819371
 30
0.0
  0
VERTEX
  5
51B
330
4B1
100
AcDbEntity
  8
Ｓ_１_１
  6
CONTINUOUS
 62
     3
100
AcDbVertex
100
AcDb2dVertex
 10
542.9244303703722
 20
287.5504232644929
 30
0.0
  0
VERTEX
  5
51C
330
4B1
100
AcDbEntity
  8
Ｓ_１_１
  6
CONTINUOUS
 62
     3
100
AcDbVertex
100
AcDb2dVertex
 10
543.1009793281969
 20
287.9482730924977
 30
0.0
  0
VERTEX
  5
51D
330
4B1
100
AcDbEntity
  8
Ｓ_１_１
  6
CONTINUOUS
 62
     3
100
AcDbVertex
100
AcDb2dVertex
 10
543.260719776195
 20
288.3600853085412
 30
0.0
  0
SEQEND
  5
51E
330
4B1
100
AcDbEntity
  8
Ｓ_１_１
  6
CONTINUOUS
 62
     3
  0
LINE
  5
51F
330
1F
100
AcDbEntity
  8
Ｓ_１_１
  6
CONTINUOUS
 62
     3
100
AcDbLine
 10
565.0000011921
 20
338.0000011324776
 30
0.0
 11
565.0000011921
 21
301.9999973177804
 31
0.0
  0
LINE
  5
520
330
1F
100
AcDbEntity
  8
Ｓ_１_１
  6
CONTINUOUS
 62
     3
100
AcDbLine
 10
565.0000011921
 20
281.9999977648152
 30
0.0
 11
565.0000011921
 21
270.0000138217104
 31
0.0
  0
LINE
  5
521
330
1F
100
AcDbEntity
  8
Ｓ_１_１
  6
CONTINUOUS
 62
     3
100
AcDbLine
 10
864.9999990315
 20
281.9999977648151
 30
0.0
 11
864.9999990315
 21
269.9999841343
 31
0.0
  0
CIRCLE
  5
522
330
1F
100
AcDbEntity
  8
Ｓ_１_１
  6
CONTINUOUS
 62
     3
100
AcDbCircle
 10
605.0
 20
380.9999994635449
 30
0.0
 40
4.25
  0
CIRCLE
  5
523
330
1F
100
AcDbEntity
  8
Ｓ_１_１
  6
CONTINUOUS
 62
     3
100
AcDbCircle
 10
605.0
 20
380.9999994635449
 30
0.0
 40
5.0
  0
CIRCLE
  5
524
330
1F
100
AcDbEntity
  8
Ｓ_１_１
  6
CONTINUOUS
 62
     3
100
AcDbCircle
 10
640.0000000000001
 20
357.9999956488498
 30
0.0
 40
4.25
  0
CIRCLE
  5
525
330
1F
100
AcDbEntity
  8
Ｓ_１_１
  6
CONTINUOUS
 62
     3
100
AcDbCircle
 10
640.0000000000001
 20
357.9999956488498
 30
0.0
 40
5.0
  0
CIRCLE
  5
526
330
1F
100
AcDbEntity
  8
Ｓ_１_１
  6
CONTINUOUS
 62
     3
100
AcDbCircle
 10
714.99999999996
 20
313.0000011324802
 30
0.0
 40
7.000000000000004
  0
CIRCLE
  5
527
330
1F
100
AcDbEntity
  8
Ｓ_１_１
  6
CONTINUOUS
 62
     3
100
AcDbCircle
 10
714.99999999996
 20
313.0000011324802
 30
0.0
 40
8.0
  0
POLYLINE
  5
528
330
1F
100
AcDbEntity
  8
Ｓ_１_１
  6
CONTINUOUS
 62
     3
100
AcDb2dPolyline
 66
     1
 10
0.0
 20
0.0
 30
0.0
 70
   128
  0
VERTEX
  5
529
330
528
100
AcDbEntity
  8
Ｓ_１_１
  6
CONTINUOUS
 62
     3
100
AcDbVertex
100
AcDb2dVertex
 10
710.3811978464428
 20
313.0000011324802
 30
0.0
  0
VERTEX
  5
52A
330
528
100
AcDbEntity
  8
Ｓ_１_１
  6
CONTINUOUS
 62
     3
100
AcDbVertex
100
AcDb2dVertex
 10
712.6905989232014
 20
309.00000113248
 30
0.0
  0
VERTEX
  5
52B
330
528
100
AcDbEntity
  8
Ｓ_１_１
  6
CONTINUOUS
 62
     3
100
AcDbVertex
100
AcDb2dVertex
 10
717.3094010767186
 20
309.00000113248
 30
0.0
  0
VERTEX
  5
52C
330
528
100
AcDbEntity
  8
Ｓ_１_１
  6
CONTINUOUS
 62
     3
100
AcDbVertex
100
AcDb2dVertex
 10
719.6188021534767
 20
313.0000011324802
 30
0.0
  0
VERTEX
  5
52D
330
528
100
AcDbEntity
  8
Ｓ_１_１
  6
CONTINUOUS
 62
     3
100
AcDbVertex
100
AcDb2dVertex
 10
717.3094010767186
 20
317.0000011324802
 30
0.0
  0
VERTEX
  5
52E
330
528
100
AcDbEntity
  8
Ｓ_１_１
  6
CONTINUOUS
 62
     3
100
AcDbVertex
100
AcDb2dVertex
 10
712.6905989232014
 20
317.0000011324802
 30
0.0
  0
VERTEX
  5
52F
330
528
100
AcDbEntity
  8
Ｓ_１_１
  6
CONTINUOUS
 62
     3
100
AcDbVertex
100
AcDb2dVertex
 10
710.3811978464428
 20
313.0000011324802
 30
0.0
  0
SEQEND
  5
530
330
528
100
AcDbEntity
  8
Ｓ_１_１
  6
CONTINUOUS
 62
     3
  0
ARC
  5
531
330
1F
100
AcDbEntity
  8
Ｓ_１_１
  6
CONTINUOUS
 62
     3
100
AcDbCircle
 10
843.4229519724001
 20
243.9997241503
 30
0.0
 40
21.93943800000001
100
AcDbArc
 50
346.8265280000001
 51
13.17349099999998
  0
ARC
  5
532
330
1F
100
AcDbEntity
  8
Ｓ_１_１
  6
CONTINUOUS
 62
     3
100
AcDbCircle
 10
874.8018279724001
 20
243.9997241503
 30
0.0
 40
21.93943800000001
100
AcDbArc
 50
166.826469
 51
193.1734590000002
  0
ARC
  5
533
330
1F
100
AcDbEntity
  8
Ｓ_１_１
  6
CONTINUOUS
 62
     3
100
AcDbCircle
 10
841.7296529724001
 20
253.0930011503
 30
0.0
 40
5.367246000000002
100
AcDbArc
 50
145.615863
 51
214.3841470000001
  0
ARC
  5
534
330
1F
100
AcDbEntity
  8
Ｓ_１_１
  6
CONTINUOUS
 62
     3
100
AcDbCircle
 10
856.4245999724001
 20
243.9997091503
 30
0.0
 40
20.062197
100
AcDbArc
 50
162.4119950000001
 51
197.587879
  0
ARC
  5
535
330
1F
100
AcDbEntity
  8
Ｓ_１_１
  6
CONTINUOUS
 62
     3
100
AcDbCircle
 10
839.9951559724
 20
253.0930011503
 30
0.0
 40
5.367246000000002
100
AcDbArc
 50
325.6158000000001
 51
34.384084
  0
ARC
  5
536
330
1F
100
AcDbEntity
  8
Ｓ_１_１
  6
CONTINUOUS
 62
     3
100
AcDbCircle
 10
839.9951559724
 20
234.9064321503
 30
0.0
 40
5.367246000000002
100
AcDbArc
 50
325.6158820000001
 51
34.38416600000002
  0
ARC
  5
537
330
1F
100
AcDbEntity
  8
Ｓ_１_１
  6
CONTINUOUS
 62
     3
100
AcDbCircle
 10
825.3001799724
 20
243.9997091503
 30
0.0
 40
20.062197
100
AcDbArc
 50
342.412067
 51
17.58795099999999
  0
ARC
  5
538
330
1F
100
AcDbEntity
  8
Ｓ_１_１
  6
CONTINUOUS
 62
     3
100
AcDbCircle
 10
841.7296529724001
 20
234.9064321503
 30
0.0
 40
5.367246000000002
100
AcDbArc
 50
145.615781
 51
214.3840650000001
  0
LINE
  5
539
330
1F
100
AcDbEntity
  8
Ｓ_１_１
  6
CONTINUOUS
 62
     3
100
AcDbLine
 10
852.8623739724001
 20
255.9997241503
 30
0.0
 11
852.8623739724001
 21
231.9997241503
 31
0.0
  0
LINE
  5
53A
330
1F
100
AcDbEntity
  8
Ｓ_１_１
  6
CONTINUOUS
 62
     3
100
AcDbLine
 10
853.4397369724002
 20
238.9997241503
 30
0.0
 11
853.4397369724002
 21
230.9997241503
 31
0.0
  0
LINE
  5
53B
330
1F
100
AcDbEntity
  8
Ｓ_１_１
  6
CONTINUOUS
 62
     3
100
AcDbLine
 10
864.7850429724001
 20
238.9997241503
 30
0.0
 11
864.7850429724001
 21
230.9997241503
 31
0.0
  0
LINE
  5
53C
330
1F
100
AcDbEntity
  8
Ｓ_１_１
  6
CONTINUOUS
 62
     3
100
AcDbLine
 10
853.4397369724002
 20
256.9997091503
 30
0.0
 11
853.4397369724002
 21
248.9997241503
 31
0.0
  0
LINE
  5
53D
330
1F
100
AcDbEntity
  8
Ｓ_１_１
  6
CONTINUOUS
 62
     3
100
AcDbLine
 10
864.7850429724001
 20
256.9997091503
 30
0.0
 11
864.7850429724001
 21
248.9997241503
 31
0.0
  0
LINE
  5
53E
330
1F
100
AcDbEntity
  8
Ｓ_１_１
  6
CONTINUOUS
 62
     3
100
AcDbLine
 10
880.9397369724002
 20
256.9997091503
 30
0.0
 11
880.9397369724002
 21
230.9997241503
 31
0.0
  0
LINE
  5
53F
330
1F
100
AcDbEntity
  8
Ｓ_１_１
  6
CONTINUOUS
 62
     3
100
AcDbLine
 10
880.9397439724
 20
256.9997131503
 30
0.0
 11
880.3623949724001
 21
255.9997161503001
 31
0.0
  0
LINE
  5
540
330
1F
100
AcDbEntity
  8
Ｓ_１_１
  6
CONTINUOUS
 62
     3
100
AcDbLine
 10
865.3623909724001
 20
231.9997221503
 30
0.0
 11
864.7850369724001
 21
230.9997141503001
 31
0.0
  0
LINE
  5
541
330
1F
100
AcDbEntity
  8
Ｓ_１_１
  6
CONTINUOUS
 62
     3
100
AcDbLine
 10
853.4397389724002
 20
256.9997161503001
 30
0.0
 11
852.8623939724
 21
255.9997251502999
 31
0.0
  0
LINE
  5
542
330
1F
100
AcDbEntity
  8
Ｓ_１_１
  6
CONTINUOUS
 62
     3
100
AcDbLine
 10
880.3623949724001
 20
231.9997221503
 30
0.0
 11
880.9397419724
 21
230.9997281503
 31
0.0
  0
LINE
  5
543
330
1F
100
AcDbEntity
  8
Ｓ_１_１
  6
CONTINUOUS
 62
     3
100
AcDbLine
 10
864.7850509724001
 20
256.9997141503001
 30
0.0
 11
865.3623979724
 21
255.9997201503
 31
0.0
  0
LINE
  5
544
330
1F
100
AcDbEntity
  8
Ｓ_１_１
  6
CONTINUOUS
 62
     3
100
AcDbLine
 10
852.8623899724
 20
231.9997191502999
 30
0.0
 11
853.4397369724002
 21
230.9997251502999
 31
0.0
  0
LINE
  5
545
330
1F
100
AcDbEntity
  8
Ｓ_１_１
  6
CONTINUOUS
 62
     3
100
AcDbLine
 10
864.7850429724001
 20
238.9997241503
 30
0.0
 11
853.4397369724002
 21
238.9997241503
 31
0.0
  0
LINE
  5
546
330
1F
100
AcDbEntity
  8
Ｓ_１_１
  6
CONTINUOUS
 62
     3
100
AcDbLine
 10
864.7850429724001
 20
248.9997241503
 30
0.0
 11
853.4397369724002
 21
248.9997241503
 31
0.0
  0
LINE
  5
547
330
1F
100
AcDbEntity
  8
Ｓ_１_１
  6
CONTINUOUS
 62
     3
100
AcDbLine
 10
888.5441039724001
 20
242.2497221503
 30
0.0
 11
888.3623849724002
 21
242.1448061503
 31
0.0
  0
LINE
  5
548
330
1F
100
AcDbEntity
  8
Ｓ_１_１
  6
CONTINUOUS
 62
     3
100
AcDbLine
 10
888.3623899724
 20
242.2497241503
 30
0.0
 11
888.3623899724
 21
227.9997091503
 31
0.0
  0
LINE
  5
549
330
1F
100
AcDbEntity
  8
Ｓ_１_１
  6
CONTINUOUS
 62
     3
100
AcDbLine
 10
887.8623899724
 20
242.2497241503
 30
0.0
 11
887.8623899724
 21
228.4997241503
 31
0.0
  0
LINE
  5
54A
330
1F
100
AcDbEntity
  8
Ｓ_１_１
  6
CONTINUOUS
 62
     3
100
AcDbLine
 10
891.3623899724
 20
245.7497241503
 30
0.0
 11
891.3623899724
 21
242.2497241503
 31
0.0
  0
LINE
  5
54B
330
1F
100
AcDbEntity
  8
Ｓ_１_１
  6
CONTINUOUS
 62
     3
100
AcDbLine
 10
891.3623899724
 20
245.7497241503
 30
0.0
 11
887.8623899724
 21
245.7497241503
 31
0.0
  0
LINE
  5
54C
330
1F
100
AcDbEntity
  8
Ｓ_１_１
  6
CONTINUOUS
 62
     3
100
AcDbLine
 10
891.3623899724
 20
242.2497241503
 30
0.0
 11
887.8623899724
 21
242.2497241503
 31
0.0
  0
LINE
  5
54D
330
1F
100
AcDbEntity
  8
Ｓ_１_１
  6
CONTINUOUS
 62
     3
100
AcDbLine
 10
885.3623889724001
 20
259.4997151502999
 30
0.0
 11
884.8623899724
 21
258.9997161503001
 31
0.0
  0
LINE
  5
54E
330
1F
100
AcDbEntity
  8
Ｓ_１_１
  6
CONTINUOUS
 62
     3
100
AcDbLine
 10
886.3623799724
 20
259.4997261503
 30
0.0
 11
886.8623909724001
 21
258.9997141503001
 31
0.0
  0
LINE
  5
54F
330
1F
100
AcDbEntity
  8
Ｓ_１_１
  6
CONTINUOUS
 62
     3
100
AcDbLine
 10
884.8624079724
 20
228.9997011503
 30
0.0
 11
885.3623979724
 21
228.4997121503001
 31
0.0
  0
LINE
  5
550
330
1F
100
AcDbEntity
  8
Ｓ_１_１
  6
CONTINUOUS
 62
     3
100
AcDbLine
 10
886.8623879724
 20
228.9997231502999
 30
0.0
 11
886.3623849724002
 21
228.4997201503
 31
0.0
  0
LINE
  5
551
330
1F
100
AcDbEntity
  8
Ｓ_１_１
  6
CONTINUOUS
 62
     3
100
AcDbLine
 10
884.8623899724
 20
230.9997241503
 30
0.0
 11
884.8623899724
 21
228.9997241503
 31
0.0
  0
LINE
  5
552
330
1F
100
AcDbEntity
  8
Ｓ_１_１
  6
CONTINUOUS
 62
     3
100
AcDbLine
 10
886.8623899724
 20
230.9997241503
 30
0.0
 11
886.8623899724
 21
228.9997241503
 31
0.0
  0
LINE
  5
553
330
1F
100
AcDbEntity
  8
Ｓ_１_１
  6
CONTINUOUS
 62
     3
100
AcDbLine
 10
886.8623899724
 20
258.9997241503
 30
0.0
 11
886.8623899724
 21
256.9997091503
 31
0.0
  0
LINE
  5
554
330
1F
100
AcDbEntity
  8
Ｓ_１_１
  6
CONTINUOUS
 62
     3
100
AcDbLine
 10
884.8623899724
 20
258.9997241503
 30
0.0
 11
884.8623899724
 21
256.9997091503
 31
0.0
  0
LINE
  5
555
330
1F
100
AcDbEntity
  8
Ｓ_１_１
  6
CONTINUOUS
 62
     3
100
AcDbLine
 10
886.3623899724
 20
259.4997091503
 30
0.0
 11
885.3623899724
 21
259.4997091503
 31
0.0
  0
LINE
  5
556
330
1F
100
AcDbEntity
  8
Ｓ_１_１
  6
CONTINUOUS
 62
     3
100
AcDbLine
 10
886.3623899724
 20
228.4997241503
 30
0.0
 11
885.3623899724
 21
228.4997241503
 31
0.0
  0
LINE
  5
557
330
1F
100
AcDbEntity
  8
Ｓ_１_１
  6
CONTINUOUS
 62
     3
100
AcDbLine
 10
888.3623709724002
 20
245.8546451502999
 30
0.0
 11
888.5441239724
 21
245.7497111503
 31
0.0
  0
LINE
  5
558
330
1F
100
AcDbEntity
  8
Ｓ_１_１
  6
CONTINUOUS
 62
     3
100
AcDbLine
 10
911.8623899724
 20
259.9997241503
 30
0.0
 11
911.8623899724
 21
227.9997091503
 31
0.0
  0
LINE
  5
559
330
1F
100
AcDbEntity
  8
Ｓ_１_１
  6
CONTINUOUS
 62
     3
100
AcDbLine
 10
904.3623899724
 20
259.9997241503
 30
0.0
 11
904.3623899724
 21
227.9997091503
 31
0.0
  0
LINE
  5
55A
330
1F
100
AcDbEntity
  8
Ｓ_１_１
  6
CONTINUOUS
 62
     3
100
AcDbLine
 10
888.3623899724
 20
259.9997241503
 30
0.0
 11
888.3623899724
 21
245.7497241503
 31
0.0
  0
LINE
  5
55B
330
1F
100
AcDbEntity
  8
Ｓ_１_１
  6
CONTINUOUS
 62
     3
100
AcDbLine
 10
895.3623899724
 20
227.9997091503
 30
0.0
 11
895.3623899724
 21
259.9997241503
 31
0.0
  0
LINE
  5
55C
330
1F
100
AcDbEntity
  8
Ｓ_１_１
  6
CONTINUOUS
 62
     3
100
AcDbLine
 10
887.8623839724
 20
228.4997271502999
 30
0.0
 11
888.3623949724001
 21
227.9997161503001
 31
0.0
  0
LINE
  5
55D
330
1F
100
AcDbEntity
  8
Ｓ_１_１
  6
CONTINUOUS
 62
     3
100
AcDbLine
 10
888.3623959724
 20
259.9997051503
 30
0.0
 11
887.8624039724
 21
259.4997121503001
 31
0.0
  0
LINE
  5
55E
330
1F
100
AcDbEntity
  8
Ｓ_１_１
  6
CONTINUOUS
 62
     3
100
AcDbLine
 10
895.3623899724
 20
227.9997091503
 30
0.0
 11
888.3623899724
 21
227.9997091503
 31
0.0
  0
LINE
  5
55F
330
1F
100
AcDbEntity
  8
Ｓ_１_１
  6
CONTINUOUS
 62
     3
100
AcDbLine
 10
895.3623899724
 20
259.9997241503
 30
0.0
 11
888.3623899724
 21
259.9997241503
 31
0.0
  0
LINE
  5
560
330
1F
100
AcDbEntity
  8
Ｓ_１_１
  6
CONTINUOUS
 62
     3
100
AcDbLine
 10
904.3623879724
 20
259.9997231502999
 30
0.0
 11
903.8623879724
 21
259.4997231502999
 31
0.0
  0
LINE
  5
561
330
1F
100
AcDbEntity
  8
Ｓ_１_１
  6
CONTINUOUS
 62
     3
100
AcDbLine
 10
895.8623909724001
 20
228.4997201503
 30
0.0
 11
895.3623909724001
 21
227.9997191502999
 31
0.0
  0
LINE
  5
562
330
1F
100
AcDbEntity
  8
Ｓ_１_１
  6
CONTINUOUS
 62
     3
100
AcDbLine
 10
903.8623939724
 20
228.4997181503001
 30
0.0
 11
904.3623829724002
 21
227.9997281503
 31
0.0
  0
LINE
  5
563
330
1F
100
AcDbEntity
  8
Ｓ_１_１
  6
CONTINUOUS
 62
     3
100
AcDbLine
 10
895.3623919724
 20
259.9997171502999
 30
0.0
 11
895.8623819724
 21
259.4997271502999
 31
0.0
  0
LINE
  5
564
330
1F
100
AcDbEntity
  8
Ｓ_１_１
  6
CONTINUOUS
 62
     3
100
AcDbLine
 10
903.8623899724
 20
259.4997091503
 30
0.0
 11
903.8623899724
 21
228.4997241503
 31
0.0
  0
LINE
  5
565
330
1F
100
AcDbEntity
  8
Ｓ_１_１
  6
CONTINUOUS
 62
     3
100
AcDbLine
 10
895.8623899724
 20
259.4997091503
 30
0.0
 11
895.8623899724
 21
228.4997241503
 31
0.0
  0
LINE
  5
566
330
1F
100
AcDbEntity
  8
Ｓ_１_１
  6
CONTINUOUS
 62
     3
100
AcDbLine
 10
903.8623899724
 20
228.4997241503
 30
0.0
 11
895.8623899724
 21
228.4997241503
 31
0.0
  0
LINE
  5
567
330
1F
100
AcDbEntity
  8
Ｓ_１_１
  6
CONTINUOUS
 62
     3
100
AcDbLine
 10
903.8623899724
 20
259.4997091503
 30
0.0
 11
895.8623899724
 21
259.4997091503
 31
0.0
  0
LINE
  5
568
330
1F
100
AcDbEntity
  8
Ｓ_１_１
  6
CONTINUOUS
 62
     3
100
AcDbLine
 10
914.8624059724
 20
230.9997131503
 30
0.0
 11
911.8624069724001
 21
227.9997141503001
 31
0.0
  0
LINE
  5
569
330
1F
100
AcDbEntity
  8
Ｓ_１_１
  6
CONTINUOUS
 62
     3
100
AcDbLine
 10
914.8623979724
 20
256.9997321503
 30
0.0
 11
911.8624159724002
 21
259.9997141503001
 31
0.0
  0
LINE
  5
56A
330
1F
100
AcDbEntity
  8
Ｓ_１_１
  6
CONTINUOUS
 62
     3
100
AcDbLine
 10
880.3623899724
 20
255.9997241503
 30
0.0
 11
865.3623739724001
 21
255.9997241503
 31
0.0
  0
LINE
  5
56B
330
1F
100
AcDbEntity
  8
Ｓ_１_１
  6
CONTINUOUS
 62
     3
100
AcDbLine
 10
880.3623899724
 20
231.9997241503
 30
0.0
 11
865.3623739724001
 21
231.9997241503
 31
0.0
  0
LINE
  5
56C
330
1F
100
AcDbEntity
  8
Ｓ_１_１
  6
CONTINUOUS
 62
     3
100
AcDbLine
 10
914.8623899724
 20
256.9997091503
 30
0.0
 11
914.8623899724
 21
230.9997241503
 31
0.0
  0
LINE
  5
56D
330
1F
100
AcDbEntity
  8
Ｓ_１_１
  6
CONTINUOUS
 62
     3
100
AcDbLine
 10
911.8623899724
 20
227.9997091503
 30
0.0
 11
904.3623899724
 21
227.9997091503
 31
0.0
  0
LINE
  5
56E
330
1F
100
AcDbEntity
  8
Ｓ_１_１
  6
CONTINUOUS
 62
     3
100
AcDbLine
 10
911.8623899724
 20
259.9997241503
 30
0.0
 11
904.3623899724
 21
259.9997241503
 31
0.0
  0
LINE
  5
56F
330
1F
100
AcDbEntity
  8
Ｓ_１_１
  6
CONTINUOUS
 62
     3
100
AcDbLine
 10
864.7850429724001
 20
230.9997241503
 30
0.0
 11
853.4397369724002
 21
230.9997241503
 31
0.0
  0
LINE
  5
570
330
1F
100
AcDbEntity
  8
Ｓ_１_１
  6
CONTINUOUS
 62
     3
100
AcDbLine
 10
864.7850429724001
 20
256.9997091503
 30
0.0
 11
853.4397369724002
 21
256.9997091503
 31
0.0
  0
LINE
  5
571
330
1F
100
AcDbEntity
  8
Ｓ_１_１
  6
CONTINUOUS
 62
     3
100
AcDbLine
 10
915.3623899724
 20
231.9997241503
 30
0.0
 11
914.8623899724
 21
231.9997241503
 31
0.0
  0
LINE
  5
572
330
1F
100
AcDbEntity
  8
Ｓ_１_１
  6
CONTINUOUS
 62
     3
100
AcDbLine
 10
915.3623899724
 20
255.9997241503
 30
0.0
 11
914.8623899724
 21
255.9997241503
 31
0.0
  0
LINE
  5
573
330
1F
100
AcDbEntity
  8
Ｓ_１_１
  6
CONTINUOUS
 62
     3
100
AcDbLine
 10
887.8623899724
 20
256.9997091503
 30
0.0
 11
880.9397369724002
 21
256.9997091503
 31
0.0
  0
LINE
  5
574
330
1F
100
AcDbEntity
  8
Ｓ_１_１
  6
CONTINUOUS
 62
     3
100
AcDbLine
 10
887.8623899724
 20
230.9997241503
 30
0.0
 11
880.9397369724002
 21
230.9997241503
 31
0.0
  0
LINE
  5
575
330
1F
100
AcDbEntity
  8
Ｓ_１_１
  6
CONTINUOUS
 62
     3
100
AcDbLine
 10
887.8623899724
 20
259.4997091503
 30
0.0
 11
887.8623899724
 21
245.7497241503
 31
0.0
  0
LINE
  5
576
330
1F
100
AcDbEntity
  8
Ｓ_１_１
  6
CONTINUOUS
 62
     3
100
AcDbLine
 10
880.3623899724
 20
255.9997091503
 30
0.0
 11
880.3623899724
 21
231.9997241503
 31
0.0
  0
LINE
  5
577
330
1F
100
AcDbEntity
  8
Ｓ_１_１
  6
CONTINUOUS
 62
     3
100
AcDbLine
 10
865.3623739724001
 20
255.9997241503
 30
0.0
 11
865.3623739724001
 21
231.9997241503
 31
0.0
  0
LINE
  5
578
330
1F
100
AcDbEntity
  8
Ｓ_１_１
  6
CONTINUOUS
 62
     3
100
AcDbLine
 10
915.3623899724
 20
255.9997241503
 30
0.0
 11
915.3623899724
 21
231.9997241503
 31
0.0
  0
LINE
  5
579
330
1F
100
AcDbEntity
  8
Ｓ_１_１
  6
CONTINUOUS
 62
     3
100
AcDbLine
 10
852.8623899724
 20
251.1796051503001
 30
0.0
 11
846.7246469724
 21
251.5632141503
 31
0.0
  0
LINE
  5
57A
330
1F
100
AcDbEntity
  8
Ｓ_１_１
  6
CONTINUOUS
 62
     3
100
AcDbLine
 10
845.3623939724
 20
252.3497061503
 30
0.0
 11
846.7246499724001
 21
251.5632071502999
 31
0.0
  0
LINE
  5
57B
330
1F
100
AcDbEntity
  8
Ｓ_１_１
  6
CONTINUOUS
 62
     3
100
AcDbLine
 10
852.8624089724001
 20
251.8809671503001
 30
0.0
 11
845.3623639724001
 21
252.3497191503001
 31
0.0
  0
LINE
  5
57C
330
1F
100
AcDbEntity
  8
Ｓ_１_１
  6
CONTINUOUS
 62
     3
100
AcDbLine
 10
846.7246609724
 20
236.4362341503
 30
0.0
 11
845.3623779724
 21
235.6497201502999
 31
0.0
  0
LINE
  5
57D
330
1F
100
AcDbEntity
  8
Ｓ_１_１
  6
CONTINUOUS
 62
     3
100
AcDbLine
 10
852.8623949724001
 20
236.1184731503
 30
0.0
 11
845.3623809724002
 21
235.6497221502999
 31
0.0
  0
LINE
  5
57E
330
1F
100
AcDbEntity
  8
Ｓ_１_１
  6
CONTINUOUS
 62
     3
100
AcDbLine
 10
852.8623769724002
 20
236.8198351503
 30
0.0
 11
846.7246639724001
 21
236.4362281503001
 31
0.0
  0
LINE
  5
57F
330
1F
100
AcDbEntity
  8
Ｓ_１_１
  6
CONTINUOUS
 62
     3
100
AcDbLine
 10
846.7246489724
 20
252.2645861503
 30
0.0
 11
846.7246489724
 21
235.7348621503
 31
0.0
  0
LINE
  5
580
330
1F
100
AcDbEntity
  8
Ｓ_１_１
  6
CONTINUOUS
 62
     3
100
AcDbLine
 10
835.0001069724001
 20
236.4362421503
 30
0.0
 11
836.3623889724001
 21
235.6497271503
 31
0.0
  0
LINE
  5
581
330
1F
100
AcDbEntity
  8
Ｓ_１_１
  6
CONTINUOUS
 62
     3
100
AcDbLine
 10
830.0001039724
 20
236.0473611502999
 30
0.0
 11
836.3623839724
 21
235.6497191503
 31
0.0
  0
LINE
  5
582
330
1F
100
AcDbEntity
  8
Ｓ_１_１
  6
CONTINUOUS
 62
     3
100
AcDbLine
 10
830.0001219724002
 20
236.7487231503
 30
0.0
 11
835.0001309724
 21
236.4362221503001
 31
0.0
  0
LINE
  5
583
330
1F
100
AcDbEntity
  8
Ｓ_１_１
  6
CONTINUOUS
 62
     3
100
AcDbLine
 10
836.3623959724
 20
252.3497211503001
 30
0.0
 11
835.0001259724002
 21
251.5632151502999
 31
0.0
  0
LINE
  5
584
330
1F
100
AcDbEntity
  8
Ｓ_１_１
  6
CONTINUOUS
 62
     3
100
AcDbLine
 10
835.0001309724
 20
252.2645861503
 30
0.0
 11
835.0001309724
 21
235.7348621503
 31
0.0
  0
LINE
  5
585
330
1F
100
AcDbEntity
  8
Ｓ_１_１
  6
CONTINUOUS
 62
     3
100
AcDbLine
 10
830.0001209724
 20
251.9520811502999
 30
0.0
 11
836.3623709724
 21
252.3497211503001
 31
0.0
  0
LINE
  5
586
330
1F
100
AcDbEntity
  8
Ｓ_１_１
  6
CONTINUOUS
 62
     3
100
AcDbLine
 10
830.0001089724001
 20
251.2507171502999
 30
0.0
 11
835.0001179724
 21
251.5632181503
 31
0.0
  0
LINE
  5
587
330
1F
100
AcDbEntity
  8
Ｓ_１_１
  6
CONTINUOUS
 62
     3
100
AcDbLine
 10
836.3623839724
 20
254.4997331502999
 30
0.0
 11
837.3002049724
 21
256.1240931502999
 31
0.0
  0
LINE
  5
588
330
1F
100
AcDbEntity
  8
Ｓ_１_１
  6
CONTINUOUS
 62
     3
100
AcDbLine
 10
845.3623889724001
 20
254.4997321503
 30
0.0
 11
844.4245709724
 21
256.1240861503001
 31
0.0
  0
LINE
  5
589
330
1F
100
AcDbEntity
  8
Ｓ_１_１
  6
CONTINUOUS
 62
     3
100
AcDbLine
 10
836.3623849724002
 20
233.4997071503
 30
0.0
 11
837.3002029724
 21
231.8753531502999
 31
0.0
  0
LINE
  5
58A
330
1F
100
AcDbEntity
  8
Ｓ_１_１
  6
CONTINUOUS
 62
     3
100
AcDbLine
 10
845.3623869724001
 20
233.4997071503
 30
0.0
 11
844.4245679724002
 21
231.8753511502999
 31
0.0
  0
LINE
  5
58B
330
1F
100
AcDbEntity
  8
Ｓ_１_１
  6
CONTINUOUS
 62
     3
100
AcDbLine
 10
844.4245689724
 20
231.8753501503001
 30
0.0
 11
837.3002099724001
 21
231.8753501503001
 31
0.0
  0
LINE
  5
58C
330
1F
100
AcDbEntity
  8
Ｓ_１_１
  6
CONTINUOUS
 62
     3
100
AcDbLine
 10
844.4245689724
 20
256.1240681503001
 30
0.0
 11
837.3002099724001
 21
256.1240681503001
 31
0.0
  0
LINE
  5
58D
330
1F
100
AcDbEntity
  8
Ｓ_１_１
  6
CONTINUOUS
 62
     3
100
AcDbLine
 10
844.4245689724
 20
250.0618881503
 30
0.0
 11
837.3002099724001
 21
250.0618881503
 31
0.0
  0
LINE
  5
58E
330
1F
100
AcDbEntity
  8
Ｓ_１_１
  6
CONTINUOUS
 62
     3
100
AcDbLine
 10
844.4245689724
 20
237.9375291503001
 30
0.0
 11
837.3002099724001
 21
237.9375291503001
 31
0.0
  0
LINE
  5
58F
330
1F
100
AcDbEntity
  8
Ｓ_１_１
  6
CONTINUOUS
 62
     3
100
AcDbLine
 10
845.3623739724001
 20
254.4997241503
 30
0.0
 11
845.3623739724001
 21
233.4997091503
 31
0.0
  0
LINE
  5
590
330
1F
100
AcDbEntity
  8
Ｓ_１_１
  6
CONTINUOUS
 62
     3
100
AcDbLine
 10
836.3624049724001
 20
254.4997241503
 30
0.0
 11
836.3624049724001
 21
233.4997091503
 31
0.0
  0
LINE
  5
591
330
1F
100
AcDbEntity
  8
Ｓ_１_１
  6
EXLTYPE2
 62
     1
100
AcDbLine
 10
681.06161950794
 20
258.00000113248
 30
0.0
 11
748.4116195079399
 21
258.00000113248
 31
0.0
  0
LINE
  5
592
330
1F
100
AcDbEntity
  8
Ｓ_１_１
  6
EXLTYPE2
 62
     1
100
AcDbLine
 10
904.9999999999698
 20
326.02248308792
 30
0.0
 11
904.9999999999698
 21
362.02248308792
 31
0.0
  0
LINE
  5
593
330
1F
100
AcDbEntity
  8
Ｓ_１_１
  6
EXLTYPE2
 62
     1
100
AcDbLine
 10
665.0000000000007
 20
362.02248308792
 30
0.0
 11
665.0000000000007
 21
326.02248308792
 31
0.0
  0
LINE
  5
594
330
1F
100
AcDbEntity
  8
Ｓ_１_１
  6
EXLTYPE2
 62
     1
100
AcDbLine
 10
615.0000000000009
 20
362.02248308792
 30
0.0
 11
615.0000000000009
 21
326.02248308792
 31
0.0
  0
LINE
  5
595
330
1F
100
AcDbEntity
  8
Ｓ_１_１
  6
EXLTYPE2
 62
     1
100
AcDbLine
 10
525.0000000000302
 20
326.02248308792
 30
0.0
 11
525.0000000000302
 21
362.02248308792
 31
0.0
  0
LINE
  5
596
330
1F
100
AcDbEntity
  8
Ｓ_１_１
  6
EXLTYPE2
 62
     1
100
AcDbLine
 10
715.0000000000003
 20
403.49999701984
 30
0.0
 11
715.0000000000003
 21
213.2999970198399
 31
0.0
  0
LINE
  5
597
330
1F
100
AcDbEntity
  8
Ｓ_１_１
  6
EXLTYPE2
 62
     1
100
AcDbLine
 10
902.91161950794
 20
291.9999985844
 30
0.0
 11
806.0116195079399
 21
291.9999985844
 31
0.0
  0
LINE
  5
598
330
1F
100
AcDbEntity
  8
Ｓ_１_１
  6
EXLTYPE2
 62
     1
100
AcDbLine
 10
527.0883804920607
 20
291.9999985844
 30
0.0
 11
623.9883804920606
 21
291.9999985844
 31
0.0
  0
LINE
  5
599
330
1F
100
AcDbEntity
  8
Ｓ_１_１
  6
EXLTYPE2
 62
     1
100
AcDbLine
 10
714.99999999996
 20
303.1000011324803
 30
0.0
 11
714.99999999996
 21
323.1000011324801
 31
0.0
  0
LINE
  5
59A
330
1F
100
AcDbEntity
  8
Ｓ_１_１
  6
EXLTYPE2
 62
     1
100
AcDbLine
 10
726.61991792956
 20
313.0000011324802
 30
0.0
 11
704.1999179295597
 21
313.0000011324802
 31
0.0
  0
LINE
  5
59B
330
1F
100
AcDbEntity
  8
Ｓ_１_１
  6
EXLTYPE2
 62
     1
100
AcDbLine
 10
918.9343199724001
 20
243.9997241503
 30
0.0
 11
815.4178859724
 21
243.9997241503
 31
0.0
  0
LINE
  5
59C
330
1F
100
AcDbEntity
  8
Ｓ_１_１
  6
EXLTYPE2
 62
     1
100
AcDbLine
 10
613.0
 20
380.9999994635451
 30
0.0
 11
597.0
 21
380.9999994635451
 31
0.0
  0
LINE
  5
59D
330
1F
100
AcDbEntity
  8
Ｓ_１_１
  6
EXLTYPE2
 62
     1
100
AcDbLine
 10
605.0000000000002
 20
388.99999946354
 30
0.0
 11
605.0000000000002
 21
372.99999946354
 31
0.0
  0
LINE
  5
59E
330
1F
100
AcDbEntity
  8
Ｓ_１_１
  6
EXLTYPE2
 62
     1
100
AcDbLine
 10
648.0
 20
357.9999956488551
 30
0.0
 11
632.0
 21
357.9999956488551
 31
0.0
  0
LINE
  5
59F
330
1F
100
AcDbEntity
  8
Ｓ_１_１
  6
EXLTYPE2
 62
     1
100
AcDbLine
 10
640.0000000000002
 20
365.99999564885
 30
0.0
 11
640.0000000000002
 21
349.99999564885
 31
0.0
  0
POLYLINE
  5
5A0
330
1F
100
AcDbEntity
  8
Ｓ_１_１
  6
CONTINUOUS
 62
     3
100
AcDb2dPolyline
 66
     1
 10
0.0
 20
0.0
 30
0.0
 70
   128
  0
VERTEX
  5
5A1
330
5A0
100
AcDbEntity
  8
Ｓ_１_１
  6
CONTINUOUS
 62
     3
100
AcDbVertex
100
AcDb2dVertex
 10
712.6050768308277
 20
338.0000011324776
 30
0.0
  0
VERTEX
  5
5A2
330
5A0
100
AcDbEntity
  8
Ｓ_１_１
  6
CONTINUOUS
 62
     3
100
AcDbVertex
100
AcDb2dVertex
 10
712.983119
 20
338.7672574635461
 30
0.0
  0
VERTEX
  5
5A3
330
5A0
100
AcDbEntity
  8
Ｓ_１_１
  6
CONTINUOUS
 62
     3
100
AcDbVertex
100
AcDb2dVertex
 10
713.433715
 20
339.6315344635461
 30
0.0
  0
VERTEX
  5
5A4
330
5A0
100
AcDbEntity
  8
Ｓ_１_１
  6
CONTINUOUS
 62
     3
100
AcDbVertex
100
AcDb2dVertex
 10
713.903447
 20
340.4855024635461
 30
0.0
  0
VERTEX
  5
5A5
330
5A0
100
AcDbEntity
  8
Ｓ_１_１
  6
CONTINUOUS
 62
     3
100
AcDbVertex
100
AcDb2dVertex
 10
714.391953
 20
341.3295174635462
 30
0.0
  0
VERTEX
  5
5A6
330
5A0
100
AcDbEntity
  8
Ｓ_１_１
  6
CONTINUOUS
 62
     3
100
AcDbVertex
100
AcDb2dVertex
 10
714.898871
 20
342.1639354635461
 30
0.0
  0
VERTEX
  5
5A7
330
5A0
100
AcDbEntity
  8
Ｓ_１_１
  6
CONTINUOUS
 62
     3
100
AcDbVertex
100
AcDb2dVertex
 10
715.423841
 20
342.9891134635461
 30
0.0
  0
VERTEX
  5
5A8
330
5A0
100
AcDbEntity
  8
Ｓ_１_１
  6
CONTINUOUS
 62
     3
100
AcDbVertex
100
AcDb2dVertex
 10
715.966501
 20
343.8054074635461
 30
0.0
  0
VERTEX
  5
5A9
330
5A0
100
AcDbEntity
  8
Ｓ_１_１
  6
CONTINUOUS
 62
     3
100
AcDbVertex
100
AcDb2dVertex
 10
716.52649
 20
344.6131744635461
 30
0.0
  0
VERTEX
  5
5AA
330
5A0
100
AcDbEntity
  8
Ｓ_１_１
  6
CONTINUOUS
 62
     3
100
AcDbVertex
100
AcDb2dVertex
 10
717.103446
 20
345.4127694635461
 30
0.0
  0
VERTEX
  5
5AB
330
5A0
100
AcDbEntity
  8
Ｓ_１_１
  6
CONTINUOUS
 62
     3
100
AcDbVertex
100
AcDb2dVertex
 10
717.697009
 20
346.2045494635461
 30
0.0
  0
VERTEX
  5
5AC
330
5A0
100
AcDbEntity
  8
Ｓ_１_１
  6
CONTINUOUS
 62
     3
100
AcDbVertex
100
AcDb2dVertex
 10
718.306817
 20
346.9888704635462
 30
0.0
  0
VERTEX
  5
5AD
330
5A0
100
AcDbEntity
  8
Ｓ_１_１
  6
CONTINUOUS
 62
     3
100
AcDbVertex
100
AcDb2dVertex
 10
718.932508
 20
347.7660894635461
 30
0.0
  0
VERTEX
  5
5AE
330
5A0
100
AcDbEntity
  8
Ｓ_１_１
  6
CONTINUOUS
 62
     3
100
AcDbVertex
100
AcDb2dVertex
 10
719.573723
 20
348.5365614635461
 30
0.0
  0
VERTEX
  5
5AF
330
5A0
100
AcDbEntity
  8
Ｓ_１_１
  6
CONTINUOUS
 62
     3
100
AcDbVertex
100
AcDb2dVertex
 10
720.230099
 20
349.3006434635461
 30
0.0
  0
VERTEX
  5
5B0
330
5A0
100
AcDbEntity
  8
Ｓ_１_１
  6
CONTINUOUS
 62
     3
100
AcDbVertex
100
AcDb2dVertex
 10
720.871077
 20
350.0244294635461
 30
0.0
  0
VERTEX
  5
5B1
330
5A0
100
AcDbEntity
  8
Ｓ_１_１
  6
CONTINUOUS
 62
     3
100
AcDbVertex
100
AcDb2dVertex
 10
721.525765
 20
350.7398134635461
 30
0.0
  0
VERTEX
  5
5B2
330
5A0
100
AcDbEntity
  8
Ｓ_１_１
  6
CONTINUOUS
 62
     3
100
AcDbVertex
100
AcDb2dVertex
 10
722.194364
 20
351.4439014635461
 30
0.0
  0
VERTEX
  5
5B3
330
5A0
100
AcDbEntity
  8
Ｓ_１_１
  6
CONTINUOUS
 62
     3
100
AcDbVertex
100
AcDb2dVertex
 10
722.877077
 20
352.1337984635461
 30
0.0
  0
VERTEX
  5
5B4
330
5A0
100
AcDbEntity
  8
Ｓ_１_１
  6
CONTINUOUS
 62
     3
100
AcDbVertex
100
AcDb2dVertex
 10
723.574105
 20
352.8066114635461
 30
0.0
  0
VERTEX
  5
5B5
330
5A0
100
AcDbEntity
  8
Ｓ_１_１
  6
CONTINUOUS
 62
     3
100
AcDbVertex
100
AcDb2dVertex
 10
724.285649
 20
353.4594454635461
 30
0.0
  0
VERTEX
  5
5B6
330
5A0
100
AcDbEntity
  8
Ｓ_１_１
  6
CONTINUOUS
 62
     3
100
AcDbVertex
100
AcDb2dVertex
 10
725.0119119999999
 20
354.0894044635461
 30
0.0
  0
VERTEX
  5
5B7
330
5A0
100
AcDbEntity
  8
Ｓ_１_１
  6
CONTINUOUS
 62
     3
100
AcDbVertex
100
AcDb2dVertex
 10
725.753095
 20
354.6935954635461
 30
0.0
  0
VERTEX
  5
5B8
330
5A0
100
AcDbEntity
  8
Ｓ_１_１
  6
CONTINUOUS
 62
     3
100
AcDbVertex
100
AcDb2dVertex
 10
726.5094
 20
355.2691224635461
 30
0.0
  0
VERTEX
  5
5B9
330
5A0
100
AcDbEntity
  8
Ｓ_１_１
  6
CONTINUOUS
 62
     3
100
AcDbVertex
100
AcDb2dVertex
 10
727.281029
 20
355.8130924635461
 30
0.0
  0
VERTEX
  5
5BA
330
5A0
100
AcDbEntity
  8
Ｓ_１_１
  6
CONTINUOUS
 62
     3
100
AcDbVertex
100
AcDb2dVertex
 10
728.068183
 20
356.3226104635461
 30
0.0
  0
VERTEX
  5
5BB
330
5A0
100
AcDbEntity
  8
Ｓ_１_１
  6
CONTINUOUS
 62
     3
100
AcDbVertex
100
AcDb2dVertex
 10
728.8710639999999
 20
356.7947804635461
 30
0.0
  0
VERTEX
  5
5BC
330
5A0
100
AcDbEntity
  8
Ｓ_１_１
  6
CONTINUOUS
 62
     3
100
AcDbVertex
100
AcDb2dVertex
 10
729.689874
 20
357.2267104635461
 30
0.0
  0
VERTEX
  5
5BD
330
5A0
100
AcDbEntity
  8
Ｓ_１_１
  6
CONTINUOUS
 62
     3
100
AcDbVertex
100
AcDb2dVertex
 10
730.524814
 20
357.6155044635461
 30
0.0
  0
VERTEX
  5
5BE
330
5A0
100
AcDbEntity
  8
Ｓ_１_１
  6
CONTINUOUS
 62
     3
100
AcDbVertex
100
AcDb2dVertex
 10
731.376086
 20
357.9582674635461
 30
0.0
  0
VERTEX
  5
5BF
330
5A0
100
AcDbEntity
  8
Ｓ_１_１
  6
CONTINUOUS
 62
     3
100
AcDbVertex
100
AcDb2dVertex
 10
732.243893
 20
358.2521054635461
 30
0.0
  0
VERTEX
  5
5C0
330
5A0
100
AcDbEntity
  8
Ｓ_１_１
  6
CONTINUOUS
 62
     3
100
AcDbVertex
100
AcDb2dVertex
 10
732.847859
 20
358.4242534635461
 30
0.0
  0
VERTEX
  5
5C1
330
5A0
100
AcDbEntity
  8
Ｓ_１_１
  6
CONTINUOUS
 62
     3
100
AcDbVertex
100
AcDb2dVertex
 10
733.458979
 20
358.5747524635461
 30
0.0
  0
VERTEX
  5
5C2
330
5A0
100
AcDbEntity
  8
Ｓ_１_１
  6
CONTINUOUS
 62
     3
100
AcDbVertex
100
AcDb2dVertex
 10
734.076551
 20
358.7062664635461
 30
0.0
  0
VERTEX
  5
5C3
330
5A0
100
AcDbEntity
  8
Ｓ_１_１
  6
CONTINUOUS
 62
     3
100
AcDbVertex
100
AcDb2dVertex
 10
734.699874
 20
358.8214614635461
 30
0.0
  0
VERTEX
  5
5C4
330
5A0
100
AcDbEntity
  8
Ｓ_１_１
  6
CONTINUOUS
 62
     3
100
AcDbVertex
100
AcDb2dVertex
 10
735.328247
 20
358.9230014635461
 30
0.0
  0
VERTEX
  5
5C5
330
5A0
100
AcDbEntity
  8
Ｓ_１_１
  6
CONTINUOUS
 62
     3
100
AcDbVertex
100
AcDb2dVertex
 10
735.96097
 20
359.0135534635461
 30
0.0
  0
VERTEX
  5
5C6
330
5A0
100
AcDbEntity
  8
Ｓ_１_１
  6
CONTINUOUS
 62
     3
100
AcDbVertex
100
AcDb2dVertex
 10
736.597342
 20
359.0957824635461
 30
0.0
  0
VERTEX
  5
5C7
330
5A0
100
AcDbEntity
  8
Ｓ_１_１
  6
CONTINUOUS
 62
     3
100
AcDbVertex
100
AcDb2dVertex
 10
737.236661
 20
359.1723524635461
 30
0.0
  0
VERTEX
  5
5C8
330
5A0
100
AcDbEntity
  8
Ｓ_１_１
  6
CONTINUOUS
 62
     3
100
AcDbVertex
100
AcDb2dVertex
 10
737.878227
 20
359.2459294635461
 30
0.0
  0
VERTEX
  5
5C9
330
5A0
100
AcDbEntity
  8
Ｓ_１_１
  6
CONTINUOUS
 62
     3
100
AcDbVertex
100
AcDb2dVertex
 10
738.521338
 20
359.3191784635461
 30
0.0
  0
VERTEX
  5
5CA
330
5A0
100
AcDbEntity
  8
Ｓ_１_１
  6
CONTINUOUS
 62
     3
100
AcDbVertex
100
AcDb2dVertex
 10
739.165295
 20
359.3947654635462
 30
0.0
  0
VERTEX
  5
5CB
330
5A0
100
AcDbEntity
  8
Ｓ_１_１
  6
CONTINUOUS
 62
     3
100
AcDbVertex
100
AcDb2dVertex
 10
739.809397
 20
359.4753554635461
 30
0.0
  0
VERTEX
  5
5CC
330
5A0
100
AcDbEntity
  8
Ｓ_１_１
  6
CONTINUOUS
 62
     3
100
AcDbVertex
100
AcDb2dVertex
 10
740.452941
 20
359.5636124635461
 30
0.0
  0
VERTEX
  5
5CD
330
5A0
100
AcDbEntity
  8
Ｓ_１_１
  6
CONTINUOUS
 62
     3
100
AcDbVertex
100
AcDb2dVertex
 10
741.095228
 20
359.6622034635461
 30
0.0
  0
VERTEX
  5
5CE
330
5A0
100
AcDbEntity
  8
Ｓ_１_１
  6
CONTINUOUS
 62
     3
100
AcDbVertex
100
AcDb2dVertex
 10
741.735557
 20
359.7737934635461
 30
0.0
  0
VERTEX
  5
5CF
330
5A0
100
AcDbEntity
  8
Ｓ_１_１
  6
CONTINUOUS
 62
     3
100
AcDbVertex
100
AcDb2dVertex
 10
742.3732259999999
 20
359.9010464635461
 30
0.0
  0
VERTEX
  5
5D0
330
5A0
100
AcDbEntity
  8
Ｓ_１_１
  6
CONTINUOUS
 62
     3
100
AcDbVertex
100
AcDb2dVertex
 10
742.926788
 20
360.0265924635461
 30
0.0
  0
VERTEX
  5
5D1
330
5A0
100
AcDbEntity
  8
Ｓ_１_１
  6
CONTINUOUS
 62
     3
100
AcDbVertex
100
AcDb2dVertex
 10
743.477541
 20
360.1658504635461
 30
0.0
  0
VERTEX
  5
5D2
330
5A0
100
AcDbEntity
  8
Ｓ_１_１
  6
CONTINUOUS
 62
     3
100
AcDbVertex
100
AcDb2dVertex
 10
744.025236
 20
360.3185884635461
 30
0.0
  0
VERTEX
  5
5D3
330
5A0
100
AcDbEntity
  8
Ｓ_１_１
  6
CONTINUOUS
 62
     3
100
AcDbVertex
100
AcDb2dVertex
 10
744.569621
 20
360.4845704635461
 30
0.0
  0
VERTEX
  5
5D4
330
5A0
100
AcDbEntity
  8
Ｓ_１_１
  6
CONTINUOUS
 62
     3
100
AcDbVertex
100
AcDb2dVertex
 10
745.110445
 20
360.6635634635461
 30
0.0
  0
VERTEX
  5
5D5
330
5A0
100
AcDbEntity
  8
Ｓ_１_１
  6
CONTINUOUS
 62
     3
100
AcDbVertex
100
AcDb2dVertex
 10
745.647456
 20
360.8553334635461
 30
0.0
  0
VERTEX
  5
5D6
330
5A0
100
AcDbEntity
  8
Ｓ_１_１
  6
CONTINUOUS
 62
     3
100
AcDbVertex
100
AcDb2dVertex
 10
746.180405
 20
361.0596454635461
 30
0.0
  0
VERTEX
  5
5D7
330
5A0
100
AcDbEntity
  8
Ｓ_１_１
  6
CONTINUOUS
 62
     3
100
AcDbVertex
100
AcDb2dVertex
 10
746.70904
 20
361.2762664635461
 30
0.0
  0
VERTEX
  5
5D8
330
5A0
100
AcDbEntity
  8
Ｓ_１_１
  6
CONTINUOUS
 62
     3
100
AcDbVertex
100
AcDb2dVertex
 10
747.233109
 20
361.5049624635461
 30
0.0
  0
VERTEX
  5
5D9
330
5A0
100
AcDbEntity
  8
Ｓ_１_１
  6
CONTINUOUS
 62
     3
100
AcDbVertex
100
AcDb2dVertex
 10
747.752363
 20
361.7454984635461
 30
0.0
  0
VERTEX
  5
5DA
330
5A0
100
AcDbEntity
  8
Ｓ_１_１
  6
CONTINUOUS
 62
     3
100
AcDbVertex
100
AcDb2dVertex
 10
748.2665489999999
 20
361.9976414635461
 30
0.0
  0
VERTEX
  5
5DB
330
5A0
100
AcDbEntity
  8
Ｓ_１_１
  6
CONTINUOUS
 62
     3
100
AcDbVertex
100
AcDb2dVertex
 10
748.775417
 20
362.2611564635461
 30
0.0
  0
VERTEX
  5
5DC
330
5A0
100
AcDbEntity
  8
Ｓ_１_１
  6
CONTINUOUS
 62
     3
100
AcDbVertex
100
AcDb2dVertex
 10
749.278715
 20
362.5358094635461
 30
0.0
  0
VERTEX
  5
5DD
330
5A0
100
AcDbEntity
  8
Ｓ_１_１
  6
CONTINUOUS
 62
     3
100
AcDbVertex
100
AcDb2dVertex
 10
749.776193
 20
362.8213674635462
 30
0.0
  0
VERTEX
  5
5DE
330
5A0
100
AcDbEntity
  8
Ｓ_１_１
  6
CONTINUOUS
 62
     3
100
AcDbVertex
100
AcDb2dVertex
 10
750.2676
 20
363.1175954635461
 30
0.0
  0
VERTEX
  5
5DF
330
5A0
100
AcDbEntity
  8
Ｓ_１_１
  6
CONTINUOUS
 62
     3
100
AcDbVertex
100
AcDb2dVertex
 10
750.752685
 20
363.4242594635462
 30
0.0
  0
VERTEX
  5
5E0
330
5A0
100
AcDbEntity
  8
Ｓ_１_１
  6
CONTINUOUS
 62
     3
100
AcDbVertex
100
AcDb2dVertex
 10
751.231196
 20
363.7411264635462
 30
0.0
  0
VERTEX
  5
5E1
330
5A0
100
AcDbEntity
  8
Ｓ_１_１
  6
CONTINUOUS
 62
     3
100
AcDbVertex
100
AcDb2dVertex
 10
751.7028819999999
 20
364.0679614635461
 30
0.0
  0
VERTEX
  5
5E2
330
5A0
100
AcDbEntity
  8
Ｓ_１_１
  6
CONTINUOUS
 62
     3
100
AcDbVertex
100
AcDb2dVertex
 10
752.167493
 20
364.4045294635461
 30
0.0
  0
VERTEX
  5
5E3
330
5A0
100
AcDbEntity
  8
Ｓ_１_１
  6
CONTINUOUS
 62
     3
100
AcDbVertex
100
AcDb2dVertex
 10
752.624777
 20
364.7505984635461
 30
0.0
  0
VERTEX
  5
5E4
330
5A0
100
AcDbEntity
  8
Ｓ_１_１
  6
CONTINUOUS
 62
     3
100
AcDbVertex
100
AcDb2dVertex
 10
753.074484
 20
365.1059334635461
 30
0.0
  0
VERTEX
  5
5E5
330
5A0
100
AcDbEntity
  8
Ｓ_１_１
  6
CONTINUOUS
 62
     3
100
AcDbVertex
100
AcDb2dVertex
 10
753.516362
 20
365.4703004635461
 30
0.0
  0
VERTEX
  5
5E6
330
5A0
100
AcDbEntity
  8
Ｓ_１_１
  6
CONTINUOUS
 62
     3
100
AcDbVertex
100
AcDb2dVertex
 10
753.95016
 20
365.8434654635461
 30
0.0
  0
VERTEX
  5
5E7
330
5A0
100
AcDbEntity
  8
Ｓ_１_１
  6
CONTINUOUS
 62
     3
100
AcDbVertex
100
AcDb2dVertex
 10
754.375628
 20
366.2251934635461
 30
0.0
  0
VERTEX
  5
5E8
330
5A0
100
AcDbEntity
  8
Ｓ_１_１
  6
CONTINUOUS
 62
     3
100
AcDbVertex
100
AcDb2dVertex
 10
754.792514
 20
366.6152514635461
 30
0.0
  0
VERTEX
  5
5E9
330
5A0
100
AcDbEntity
  8
Ｓ_１_１
  6
CONTINUOUS
 62
     3
100
AcDbVertex
100
AcDb2dVertex
 10
755.200567
 20
367.0134054635461
 30
0.0
  0
VERTEX
  5
5EA
330
5A0
100
AcDbEntity
  8
Ｓ_１_１
  6
CONTINUOUS
 62
     3
100
AcDbVertex
100
AcDb2dVertex
 10
755.599536
 20
367.4194214635461
 30
0.0
  0
VERTEX
  5
5EB
330
5A0
100
AcDbEntity
  8
Ｓ_１_１
  6
CONTINUOUS
 62
     3
100
AcDbVertex
100
AcDb2dVertex
 10
755.98917
 20
367.8330654635461
 30
0.0
  0
VERTEX
  5
5EC
330
5A0
100
AcDbEntity
  8
Ｓ_１_１
  6
CONTINUOUS
 62
     3
100
AcDbVertex
100
AcDb2dVertex
 10
756.3692179999999
 20
368.2541024635461
 30
0.0
  0
VERTEX
  5
5ED
330
5A0
100
AcDbEntity
  8
Ｓ_１_１
  6
CONTINUOUS
 62
     3
100
AcDbVertex
100
AcDb2dVertex
 10
756.739429
 20
368.6822984635461
 30
0.0
  0
VERTEX
  5
5EE
330
5A0
100
AcDbEntity
  8
Ｓ_１_１
  6
CONTINUOUS
 62
     3
100
AcDbVertex
100
AcDb2dVertex
 10
757.099553
 20
369.1174204635461
 30
0.0
  0
VERTEX
  5
5EF
330
5A0
100
AcDbEntity
  8
Ｓ_１_１
  6
CONTINUOUS
 62
     3
100
AcDbVertex
100
AcDb2dVertex
 10
757.449337
 20
369.5592344635461
 30
0.0
  0
VERTEX
  5
5F0
330
5A0
100
AcDbEntity
  8
Ｓ_１_１
  6
CONTINUOUS
 62
     3
100
AcDbVertex
100
AcDb2dVertex
 10
757.754594
 20
369.9615254635461
 30
0.0
  0
VERTEX
  5
5F1
330
5A0
100
AcDbEntity
  8
Ｓ_１_１
  6
CONTINUOUS
 62
     3
100
AcDbVertex
100
AcDb2dVertex
 10
758.05187
 20
370.3686854635461
 30
0.0
  0
VERTEX
  5
5F2
330
5A0
100
AcDbEntity
  8
Ｓ_１_１
  6
CONTINUOUS
 62
     3
100
AcDbVertex
100
AcDb2dVertex
 10
758.341724
 20
370.7803774635461
 30
0.0
  0
VERTEX
  5
5F3
330
5A0
100
AcDbEntity
  8
Ｓ_１_１
  6
CONTINUOUS
 62
     3
100
AcDbVertex
100
AcDb2dVertex
 10
758.624716
 20
371.1962614635461
 30
0.0
  0
VERTEX
  5
5F4
330
5A0
100
AcDbEntity
  8
Ｓ_１_１
  6
CONTINUOUS
 62
     3
100
AcDbVertex
100
AcDb2dVertex
 10
758.901409
 20
371.6159994635461
 30
0.0
  0
VERTEX
  5
5F5
330
5A0
100
AcDbEntity
  8
Ｓ_１_１
  6
CONTINUOUS
 62
     3
100
AcDbVertex
100
AcDb2dVertex
 10
759.172362
 20
372.0392514635461
 30
0.0
  0
VERTEX
  5
5F6
330
5A0
100
AcDbEntity
  8
Ｓ_１_１
  6
CONTINUOUS
 62
     3
100
AcDbVertex
100
AcDb2dVertex
 10
759.438135
 20
372.4656814635462
 30
0.0
  0
VERTEX
  5
5F7
330
5A0
100
AcDbEntity
  8
Ｓ_１_１
  6
CONTINUOUS
 62
     3
100
AcDbVertex
100
AcDb2dVertex
 10
759.699289
 20
372.8949474635461
 30
0.0
  0
VERTEX
  5
5F8
330
5A0
100
AcDbEntity
  8
Ｓ_１_１
  6
CONTINUOUS
 62
     3
100
AcDbVertex
100
AcDb2dVertex
 10
759.956386
 20
373.3267134635461
 30
0.0
  0
VERTEX
  5
5F9
330
5A0
100
AcDbEntity
  8
Ｓ_１_１
  6
CONTINUOUS
 62
     3
100
AcDbVertex
100
AcDb2dVertex
 10
760.209984
 20
373.7606394635461
 30
0.0
  0
VERTEX
  5
5FA
330
5A0
100
AcDbEntity
  8
Ｓ_１_１
  6
CONTINUOUS
 62
     3
100
AcDbVertex
100
AcDb2dVertex
 10
760.460645
 20
374.1963874635461
 30
0.0
  0
VERTEX
  5
5FB
330
5A0
100
AcDbEntity
  8
Ｓ_１_１
  6
CONTINUOUS
 62
     3
100
AcDbVertex
100
AcDb2dVertex
 10
760.708929
 20
374.6336174635461
 30
0.0
  0
VERTEX
  5
5FC
330
5A0
100
AcDbEntity
  8
Ｓ_１_１
  6
CONTINUOUS
 62
     3
100
AcDbVertex
100
AcDb2dVertex
 10
760.955398
 20
375.0719924635461
 30
0.0
  0
VERTEX
  5
5FD
330
5A0
100
AcDbEntity
  8
Ｓ_１_１
  6
CONTINUOUS
 62
     3
100
AcDbVertex
100
AcDb2dVertex
 10
761.20061
 20
375.5111724635461
 30
0.0
  0
VERTEX
  5
5FE
330
5A0
100
AcDbEntity
  8
Ｓ_１_１
  6
CONTINUOUS
 62
     3
100
AcDbVertex
100
AcDb2dVertex
 10
761.445128
 20
375.9508194635461
 30
0.0
  0
VERTEX
  5
5FF
330
5A0
100
AcDbEntity
  8
Ｓ_１_１
  6
CONTINUOUS
 62
     3
100
AcDbVertex
100
AcDb2dVertex
 10
761.68951
 20
376.3905944635461
 30
0.0
  0
VERTEX
  5
600
330
5A0
100
AcDbEntity
  8
Ｓ_１_１
  6
CONTINUOUS
 62
     3
100
AcDbVertex
100
AcDb2dVertex
 10
762.151559
 20
377.2201124635461
 30
0.0
  0
VERTEX
  5
601
330
5A0
100
AcDbEntity
  8
Ｓ_１_１
  6
CONTINUOUS
 62
     3
100
AcDbVertex
100
AcDb2dVertex
 10
762.614377
 20
378.0492394635461
 30
0.0
  0
VERTEX
  5
602
330
5A0
100
AcDbEntity
  8
Ｓ_１_１
  6
CONTINUOUS
 62
     3
100
AcDbVertex
100
AcDb2dVertex
 10
763.077218
 20
378.8783354635461
 30
0.0
  0
VERTEX
  5
603
330
5A0
100
AcDbEntity
  8
Ｓ_１_１
  6
CONTINUOUS
 62
     3
100
AcDbVertex
100
AcDb2dVertex
 10
763.5393339999999
 20
379.7077614635461
 30
0.0
  0
VERTEX
  5
604
330
5A0
100
AcDbEntity
  8
Ｓ_１_１
  6
CONTINUOUS
 62
     3
100
AcDbVertex
100
AcDb2dVertex
 10
763.9999799999999
 20
380.5378774635461
 30
0.0
  0
VERTEX
  5
605
330
5A0
100
AcDbEntity
  8
Ｓ_１_１
  6
CONTINUOUS
 62
     3
100
AcDbVertex
100
AcDb2dVertex
 10
764.458408
 20
381.3690444635461
 30
0.0
  0
VERTEX
  5
606
330
5A0
100
AcDbEntity
  8
Ｓ_１_１
  6
CONTINUOUS
 62
     3
100
AcDbVertex
100
AcDb2dVertex
 10
764.913871
 20
382.2016224635461
 30
0.0
  0
VERTEX
  5
607
330
5A0
100
AcDbEntity
  8
Ｓ_１_１
  6
CONTINUOUS
 62
     3
100
AcDbVertex
100
AcDb2dVertex
 10
765.365623
 20
383.0359714635462
 30
0.0
  0
VERTEX
  5
608
330
5A0
100
AcDbEntity
  8
Ｓ_１_１
  6
CONTINUOUS
 62
     3
100
AcDbVertex
100
AcDb2dVertex
 10
765.812917
 20
383.8724524635461
 30
0.0
  0
VERTEX
  5
609
330
5A0
100
AcDbEntity
  8
Ｓ_１_１
  6
CONTINUOUS
 62
     3
100
AcDbVertex
100
AcDb2dVertex
 10
766.255005
 20
384.7114254635461
 30
0.0
  0
VERTEX
  5
60A
330
5A0
100
AcDbEntity
  8
Ｓ_１_１
  6
CONTINUOUS
 62
     3
100
AcDbVertex
100
AcDb2dVertex
 10
766.691142
 20
385.5532514635461
 30
0.0
  0
VERTEX
  5
60B
330
5A0
100
AcDbEntity
  8
Ｓ_１_１
  6
CONTINUOUS
 62
     3
100
AcDbVertex
100
AcDb2dVertex
 10
767.120579
 20
386.3982894635461
 30
0.0
  0
VERTEX
  5
60C
330
5A0
100
AcDbEntity
  8
Ｓ_１_１
  6
CONTINUOUS
 62
     3
100
AcDbVertex
100
AcDb2dVertex
 10
767.542571
 20
387.2469014635461
 30
0.0
  0
VERTEX
  5
60D
330
5A0
100
AcDbEntity
  8
Ｓ_１_１
  6
CONTINUOUS
 62
     3
100
AcDbVertex
100
AcDb2dVertex
 10
767.956371
 20
388.0994464635461
 30
0.0
  0
VERTEX
  5
60E
330
5A0
100
AcDbEntity
  8
Ｓ_１_１
  6
CONTINUOUS
 62
     3
100
AcDbVertex
100
AcDb2dVertex
 10
768.361231
 20
388.9562854635461
 30
0.0
  0
VERTEX
  5
60F
330
5A0
100
AcDbEntity
  8
Ｓ_１_１
  6
CONTINUOUS
 62
     3
100
AcDbVertex
100
AcDb2dVertex
 10
768.756405
 20
389.8177794635461
 30
0.0
  0
VERTEX
  5
610
330
5A0
100
AcDbEntity
  8
Ｓ_１_１
  6
CONTINUOUS
 62
     3
100
AcDbVertex
100
AcDb2dVertex
 10
768.931908
 20
390.2093294635461
 30
0.0
  0
VERTEX
  5
611
330
5A0
100
AcDbEntity
  8
Ｓ_１_１
  6
CONTINUOUS
 62
     3
100
AcDbVertex
100
AcDb2dVertex
 10
769.105332
 20
390.6018654635461
 30
0.0
  0
VERTEX
  5
612
330
5A0
100
AcDbEntity
  8
Ｓ_１_１
  6
CONTINUOUS
 62
     3
100
AcDbVertex
100
AcDb2dVertex
 10
769.276736
 20
390.9953484635461
 30
0.0
  0
VERTEX
  5
613
330
5A0
100
AcDbEntity
  8
Ｓ_１_１
  6
CONTINUOUS
 62
     3
100
AcDbVertex
100
AcDb2dVertex
 10
769.446178
 20
391.3897354635461
 30
0.0
  0
VERTEX
  5
614
330
5A0
100
AcDbEntity
  8
Ｓ_１_１
  6
CONTINUOUS
 62
     3
100
AcDbVertex
100
AcDb2dVertex
 10
769.613716
 20
391.7849864635461
 30
0.0
  0
VERTEX
  5
615
330
5A0
100
AcDbEntity
  8
Ｓ_１_１
  6
CONTINUOUS
 62
     3
100
AcDbVertex
100
AcDb2dVertex
 10
769.779409
 20
392.1810604635461
 30
0.0
  0
VERTEX
  5
616
330
5A0
100
AcDbEntity
  8
Ｓ_１_１
  6
CONTINUOUS
 62
     3
100
AcDbVertex
100
AcDb2dVertex
 10
769.943315
 20
392.5779164635461
 30
0.0
  0
VERTEX
  5
617
330
5A0
100
AcDbEntity
  8
Ｓ_１_１
  6
CONTINUOUS
 62
     3
100
AcDbVertex
100
AcDb2dVertex
 10
770.105492
 20
392.9755134635461
 30
0.0
  0
VERTEX
  5
618
330
5A0
100
AcDbEntity
  8
Ｓ_１_１
  6
CONTINUOUS
 62
     3
100
AcDbVertex
100
AcDb2dVertex
 10
770.265998
 20
393.3738094635461
 30
0.0
  0
VERTEX
  5
619
330
5A0
100
AcDbEntity
  8
Ｓ_１_１
  6
CONTINUOUS
 62
     3
100
AcDbVertex
100
AcDb2dVertex
 10
770.424891
 20
393.7727654635461
 30
0.0
  0
VERTEX
  5
61A
330
5A0
100
AcDbEntity
  8
Ｓ_１_１
  6
CONTINUOUS
 62
     3
100
AcDbVertex
100
AcDb2dVertex
 10
770.582231
 20
394.1723384635461
 30
0.0
  0
VERTEX
  5
61B
330
5A0
100
AcDbEntity
  8
Ｓ_１_１
  6
CONTINUOUS
 62
     3
100
AcDbVertex
100
AcDb2dVertex
 10
770.738074
 20
394.5724884635461
 30
0.0
  0
VERTEX
  5
61C
330
5A0
100
AcDbEntity
  8
Ｓ_１_１
  6
CONTINUOUS
 62
     3
100
AcDbVertex
100
AcDb2dVertex
 10
770.89248
 20
394.9731754635461
 30
0.0
  0
VERTEX
  5
61D
330
5A0
100
AcDbEntity
  8
Ｓ_１_１
  6
CONTINUOUS
 62
     3
100
AcDbVertex
100
AcDb2dVertex
 10
771.0455059999999
 20
395.3743564635461
 30
0.0
  0
VERTEX
  5
61E
330
5A0
100
AcDbEntity
  8
Ｓ_１_１
  6
CONTINUOUS
 62
     3
100
AcDbVertex
100
AcDb2dVertex
 10
771.19721
 20
395.7759914635461
 30
0.0
  0
VERTEX
  5
61F
330
5A0
100
AcDbEntity
  8
Ｓ_１_１
  6
CONTINUOUS
 62
     3
100
AcDbVertex
100
AcDb2dVertex
 10
771.2810313634596
 20
395.9999994635476
 30
0.0
  0
SEQEND
  5
620
330
5A0
100
AcDbEntity
  8
Ｓ_１_１
  6
CONTINUOUS
 62
     3
  0
LINE
  5
621
330
1F
100
AcDbEntity
  8
Ｓ_１_１
  6
CONTINUOUS
 62
     3
100
AcDbLine
 10
770.9027117144246
 20
394.9999994635501
 30
0.0
 11
510.0000017881807
 21
394.9999994635501
 31
0.0
  0
LINE
  5
622
330
1F
100
AcDbEntity
  8
Ｓ_１_１
  6
CONTINUOUS
 62
     3
100
AcDbLine
 10
510.0000017881807
 20
349.9999956488504
 30
0.0
 11
720.8494386460169
 21
349.9999956488504
 31
0.0
  0
ARC
  5
623
330
1F
100
AcDbEntity
  8
Ｓ_１_１
  6
CONTINUOUS
 62
     3
100
AcDbCircle
 10
715.0000000000414
 20
-1119.000002562937
 30
0.0
 40
1488.547950185012
100
AcDbArc
 50
88.38446380019704
 51
94.81705451191513
  0
LINE
  5
624
330
1F
100
AcDbEntity
  8
Ｓ_１_１
  6
CONTINUOUS
 62
     3
100
AcDbLine
 10
511.00000178818
 20
395.9999994635476
 30
0.0
 11
918.9999982119
 21
395.9999994635477
 31
0.0
  0
LINE
  5
625
330
1F
100
AcDbEntity
  8
Ｓ_１_１
  6
CONTINUOUS
 62
     3
100
AcDbLine
 10
712.6050768308277
 20
338.0000011324776
 30
0.0
 11
510.0000017881807
 21
338.0000011324777
 31
0.0
  0
LINE
  5
626
330
1F
100
AcDbEntity
  8
Ｓ_１_１
  6
CONTINUOUS
 62
     3
100
AcDbLine
 10
919.999998211902
 20
338.0000011324776
 30
0.0
 11
864.9999990315
 21
338.0000011324776
 31
0.0
  0
ARC
  5
627
330
1F
100
AcDbEntity
  8
Ｓ_１_１
  6
CONTINUOUS
 62
     3
100
AcDbCircle
 10
714.9999999999613
 20
-1119.000002562941
 30
0.0
 40
1500.0
100
AcDbArc
 50
82.14499386552973
 51
88.13505517721362
  0
LINE
  5
628
330
1F
100
AcDbEntity
  8
Ｓ_１_１
  6
CONTINUOUS
 62
     3
100
AcDbLine
 10
720.8494386460169
 20
349.9999956488504
 30
0.0
 11
919.999998211902
 21
349.9999956488504
 31
0.0
  0
LINE
  5
629
330
1F
100
AcDbEntity
  8
Ｓ_１_１
  6
CONTINUOUS
 62
     3
100
AcDbLine
 10
862.9999988078648
 20
349.9999956488535
 30
0.0
 11
864.9999988078648
 21
347.9999956488535
 31
0.0
  0
LINE
  5
62A
330
1F
100
AcDbEntity
  8
Ｓ_１_１
  6
CONTINUOUS
 62
     3
100
AcDbLine
 10
864.9999990315
 20
347.9999954252183
 30
0.0
 11
864.9999990315
 21
301.9999973177804
 31
0.0
  0
LINE
  5
62B
330
1F
100
AcDbEntity
  8
Ｓ_１_１
  6
CONTINUOUS
 62
     3
100
AcDbLine
 10
864.9999990315
 20
347.99999542522
 30
0.0
 11
719.127173102969
 21
347.99999542522
 31
0.0
  0
LINE
  5
62C
330
1F
100
AcDbEntity
  8
Ｓ_１_１
  6
CONTINUOUS
 62
     3
100
AcDbLine
 10
892.9999999999984
 20
338.0000011324752
 30
0.0
 11
892.9999999999984
 21
349.9999956488479
 31
0.0
  0
LINE
  5
62D
330
1F
100
AcDbEntity
  8
Ｓ_１_１
  6
EXLTYPE3
 62
     2
100
AcDbLine
 10
458.2515355001849
 20
387.9576051313409
 30
0.0
 11
457.2870441698683
 21
386.9233148076194
 31
0.0
  0
LINE
  5
62E
330
1F
100
AcDbEntity
  8
Ｓ_１_１
  6
EXLTYPE3
 62
     2
100
AcDbLine
 10
457.2870441698683
 20
386.9233148076194
 30
0.0
 11
458.368928750701
 21
355.9421939280139
 31
0.0
  0
LINE
  5
62F
330
1F
100
AcDbEntity
  8
Ｓ_１_１
  6
EXLTYPE3
 62
     2
100
AcDbLine
 10
471.8846712820477
 20
356.4141740574607
 30
0.0
 11
458.368928750701
 21
355.9421939280139
 31
0.0
  0
LINE
  5
630
330
1F
100
AcDbEntity
  8
Ｓ_１_１
  6
EXLTYPE3
 62
     2
100
AcDbLine
 10
458.2515355001842
 20
387.9576051313409
 30
0.0
 11
549.7850966235251
 21
391.1540275200882
 31
0.0
  0
LINE
  5
631
330
1F
100
AcDbEntity
  8
Ｓ_１_１
  6
EXLTYPE3
 62
     2
100
AcDbLine
 10
971.7484644998158
 20
387.9576051313408
 30
0.0
 11
972.7129558301324
 21
386.9233148076193
 31
0.0
  0
LINE
  5
632
330
1F
100
AcDbEntity
  8
Ｓ_１_１
  6
EXLTYPE3
 62
     2
100
AcDbLine
 10
972.7129558301324
 20
386.9233148076193
 30
0.0
 11
971.6310712492997
 21
355.9421939280139
 31
0.0
  0
LINE
  5
633
330
1F
100
AcDbEntity
  8
Ｓ_１_１
  6
EXLTYPE3
 62
     2
100
AcDbLine
 10
958.1153287179529
 20
356.4141740574607
 30
0.0
 11
971.6310712492997
 21
355.9421939280139
 31
0.0
  0
LINE
  5
634
330
1F
100
AcDbEntity
  8
Ｓ_１_１
  6
EXLTYPE3
 62
     2
100
AcDbLine
 10
971.7484644998165
 20
387.9576051313408
 30
0.0
 11
880.2149033764756
 21
391.1540275200881
 31
0.0
  0
LEADER
  5
635
330
1F
100
AcDbEntity
  8
Ｓ_１_１
  6
CONTINUOUS
 62
     2
100
AcDbLeader
  3
ISO-25
 76
     3
 10
900.28945520865
 20
369.51194491631
 30
0.0
 10
968.98875514617
 20
438.21124485383
 30
0.0
 10
1062.8
 20
438.21124485383
 30
0.0
1001
ACAD
1000
DSTYLE
1002
{
1070
     5
1000
EX_NORM
1070
    41
1040
12.0
1070
   341
1005
78
1002
}
  0
TEXT
  5
636
330
1F
100
AcDbEntity
  8
Ｓ_１_１
  6
CONTINUOUS
 62
     4
100
AcDbText
 10
972.8
 20
442.74249485383
 30
0.0
 40
13.85161662817552
  1
可動ヘッド
 41
0.9992307692307693
  7
EXCADTTF1
 72
     5
 11
1062.8
 21
442.74249485383
 31
0.0
100
AcDbText
  0
LEADER
  5
637
330
1F
100
AcDbEntity
  8
Ｓ_１_１
  6
CONTINUOUS
 62
     2
100
AcDbLeader
  3
ISO-25
 76
     3
 10
565.0000011921
 20
320.8
 30
0.0
 10
499.02245126322
 20
435.07646863573
 30
0.0
 10
404.4
 20
435.07646863573
 30
0.0
1001
ACAD
1000
DSTYLE
1002
{
1070
     5
1000
EX_NORM
1070
    41
1040
12.0
1070
   341
1005
78
1002
}
  0
TEXT
  5
638
330
1F
100
AcDbEntity
  8
Ｓ_１_１
  6
CONTINUOUS
 62
     4
100
AcDbText
 10
404.4
 20
439.60771863573
 30
0.0
 40
13.85161662817552
  1
安全ナット
 41
0.9992307692307693
  7
EXCADTTF1
 72
     5
 11
494.4
 21
439.60771863573
 31
0.0
100
AcDbText
  0
ENDSEC
  0
SECTION
  2
OBJECTS
  0
DICTIONARY
  5
C
330
0
100
AcDbDictionary
  3
ACAD_GROUP
350
D
  3
ACAD_LAYOUT
350
1A
  3
ACAD_MATERIAL
350
43
  3
ACAD_MLEADERSTYLE
350
6B
  3
ACAD_MLINESTYLE
350
17
  3
ACAD_PLOTSETTINGS
350
19
  3
ACAD_SCALELIST
350
47
  3
ACAD_VISUALSTYLE
350
2A
  3
ACDBHEADERROUNDTRIPXREC
350
639
  3
ACDBVARIABLEDICTIONARY
350
65A
  0
DICTIONARY
  5
665
330
8
100
AcDbDictionary
280
     1
  3
ACAD_XREC_ROUNDTRIP
360
666
  0
DICTIONARY
  5
D
102
{ACAD_REACTORS
330
C
102
}
330
C
100
AcDbDictionary
  0
DICTIONARY
  5
1A
102
{ACAD_REACTORS
330
C
102
}
330
C
100
AcDbDictionary
  0
DICTIONARY
  5
43
102
{ACAD_REACTORS
330
C
102
}
330
C
100
AcDbDictionary
  3
BYBLOCK
350
45
  3
BYLAYER
350
44
  3
GLOBAL
350
46
  0
DICTIONARY
  5
6B
102
{ACAD_REACTORS
330
C
102
}
330
C
100
AcDbDictionary
  3
STANDARD
350
6C
  0
DICTIONARY
  5
17
102
{ACAD_REACTORS
330
C
102
}
330
C
100
AcDbDictionary
  3
STANDARD
350
18
  0
DICTIONARY
  5
19
102
{ACAD_REACTORS
330
C
102
}
330
C
100
AcDbDictionary
  0
DICTIONARY
  5
47
102
{ACAD_REACTORS
330
C
102
}
330
C
100
AcDbDictionary
  3
A0
350
48
  3
A1
350
49
  3
A2
350
4A
  3
A3
350
4B
  3
A4
350
4C
  3
A5
350
4D
  3
A6
350
4E
  3
A7
350
4F
  3
A8
350
50
  3
A9
350
51
  3
B0
350
52
  3
B1
350
53
  3
B2
350
54
  3
B3
350
55
  3
B4
350
56
  3
B5
350
57
  3
B6
350
58
  3
B7
350
59
  3
B8
350
5A
  3
B9
350
5B
  3
C0
350
5C
  3
C1
350
5D
  3
C2
350
5E
  3
C3
350
5F
  3
C4
350
60
  3
C5
350
61
  3
C6
350
62
  3
C7
350
63
  3
C8
350
64
  3
C9
350
65
  3
D0
350
66
  3
D1
350
67
  3
D2
350
68
  0
DICTIONARY
  5
2A
102
{ACAD_REACTORS
330
C
102
}
330
C
100
AcDbDictionary
  3
2DWIREFRAME
350
2F
  3
BASIC
350
32
  3
BRIGHTEN
350
36
  3
COLORCHANGE
350
3A
  3
CONCEPTUAL
350
34
  3
DIM
350
35
  3
EDGECOLOROFF
350
3D
  3
FACEPATTERN
350
39
  3
FLAT
350
2B
  3
FLATWITHEDGES
350
2C
  3
GOURAUD
350
2D
  3
GOURAUDWITHEDGES
350
2E
  3
HIDDEN
350
31
  3
JITTEROFF
350
3B
  3
LINEPATTERN
350
38
  3
OVERHANGOFF
350
3C
  3
REALISTIC
350
33
  3
SHADED
350
42
  3
SHADED_WITH_EDGES
350
41
  3
SHADES_OF_GRAY
350
3E
  3
SKETCHY
350
3F
  3
THICKEN
350
37
  3
WIREFRAME
350
30
  3
X-RAY
350
40
  0
DICTIONARY
  5
639
102
{ACAD_REACTORS
330
C
102
}
330
C
100
AcDbDictionary
  3
CEPSNID
350
643
  3
CEPSNTYPE
350
642
  3
DIMSTYLEDATA
350
659
  3
FINGERPRINTGUID
350
644
  3
HYPERLINKBASE
350
63C
  3
INSUNITS
350
641
  3
LAYOUTDICT
350
63E
  3
LWETCUNION
350
640
  3
PLOTSETDICT
350
63F
  3
PSVPSCALE
350
646
  3
PUCSBASE
350
649
  3
PUCSORGBACK
350
64F
  3
PUCSORGBOTTOM
350
64B
  3
PUCSORGFRONT
350
64E
  3
PUCSORGLEFT
350
64C
  3
PUCSORGRIGHT
350
64D
  3
PUCSORGTOP
350
64A
  3
PUCSORTHOREF
350
647
  3
PUCSORTHOVIEW
350
648
  3
STYLESHEET
350
63D
  3
TSTACKALIGN
350
63A
  3
TSTACKSIZE
350
63B
  3
UCSBASE
350
652
  3
UCSORGBACK
350
658
  3
UCSORGBOTTOM
350
654
  3
UCSORGFRONT
350
657
  3
UCSORGLEFT
350
655
  3
UCSORGRIGHT
350
656
  3
UCSORGTOP
350
653
  3
UCSORTHOREF
350
650
  3
UCSORTHOVIEW
350
651
  3
VERSIONGUID
350
645
  0
DICTIONARY
  5
65A
102
{ACAD_REACTORS
330
C
102
}
330
C
100
AcDbDictionary
  3
CANNOSCALE
350
667
  3
CENTEREXE
350
661
  3
CENTERLTYPEFILE
350
662
  3
CMLEADERSTYLE
350
65C
  3
CTABLESTYLE
350
65B
  3
DIMASSOC
350
663
  3
HIDETEXT
350
664
  3
MSLTSCALE
350
668
  3
PSOLHEIGHT
350
65E
  3
PSOLWIDTH
350
65D
  0
XRECORD
  5
666
102
{ACAD_REACTORS
330
665
102
}
330
665
100
AcDbXrecord
102
VTR_0.000_0.000_1.000_1.000_VISUALSTYLE
340
2F
102
VTR_0.000_0.000_1.000_1.000_GRIDDISPLAY
 70
     3
102
VTR_0.000_0.000_1.000_1.000_GRIDMAJOR
 70
     5
102
VTR_0.000_0.000_1.000_1.000_DEFAULTLIGHTING
280
     1
102
VTR_0.000_0.000_1.000_1.000_DEFAULTLIGHTINGTYPE
 70
     1
102
VTR_0.000_0.000_1.000_1.000_BRIGHTNESS
141
0.0
102
VTR_0.000_0.000_1.000_1.000_CONTRAST
142
0.0
  0
MATERIAL
  5
45
102
{ACAD_REACTORS
330
43
102
}
102
{ACAD_XDICTIONARY
360
66B
102
}
330
43
100
AcDbMaterial
  1
BYBLOCK
  0
MATERIAL
  5
44
102
{ACAD_REACTORS
330
43
102
}
102
{ACAD_XDICTIONARY
360
669
102
}
330
43
100
AcDbMaterial
  1
BYLAYER
  0
MATERIAL
  5
46
102
{ACAD_REACTORS
330
43
102
}
102
{ACAD_XDICTIONARY
360
66D
102
}
330
43
100
AcDbMaterial
  1
GLOBAL
  0
ACAD_PROXY_OBJECT
  5
6C
102
{ACAD_REACTORS
330
6B
102
}
330
6B
100
AcDbProxyObject
 90
      499
 91
      505
 93
      610
310
40901902A4063FBFFFFFE0000000000000020400000000000020404214DD185B99185C990000000000000104090141901A00000000000004100000000000000041025764000000000000039000
340
14
340
0
340
11
340
0
 94
        0
1001
ACAD_MLEADERVER
1070
     2
  0
MLINESTYLE
  5
18
102
{ACAD_REACTORS
330
17
102
}
330
17
100
AcDbMlineStyle
  2
Standard
 70
     0
  3

 62
   256
 51
90.0
 52
90.0
 71
     2
 49
0.5
 62
   256
  6
BYLAYER
 49
-0.5
 62
   256
  6
BYLAYER
  0
ACAD_PROXY_OBJECT
  5
48
102
{ACAD_REACTORS
330
47
102
}
330
47
100
AcDbProxyObject
 90
      499
 91
      503
 93
       41
310
903313A31580
  0
ACAD_PROXY_OBJECT
  5
49
102
{ACAD_REACTORS
330
47
102
}
330
47
100
AcDbProxyObject
 90
      499
 91
      503
 93
      105
310
903313A324000000000000004000
  0
ACAD_PROXY_OBJECT
  5
4A
102
{ACAD_REACTORS
330
47
102
}
330
47
100
AcDbProxyObject
 90
      499
 91
      503
 93
      105
310
903313A344000000000000104000
  0
ACAD_PROXY_OBJECT
  5
4B
102
{ACAD_REACTORS
330
47
102
}
330
47
100
AcDbProxyObject
 90
      499
 91
      503
 93
      105
310
903313A354000000000000144000
  0
ACAD_PROXY_OBJECT
  5
4C
102
{ACAD_REACTORS
330
47
102
}
330
47
100
AcDbProxyObject
 90
      499
 91
      503
 93
      105
310
903313A384000000000000204000
  0
ACAD_PROXY_OBJECT
  5
4D
102
{ACAD_REACTORS
330
47
102
}
330
47
100
AcDbProxyObject
 90
      499
 91
      503
 93
      113
310
904313A31304000000000000244000
  0
ACAD_PROXY_OBJECT
  5
4E
102
{ACAD_REACTORS
330
47
102
}
330
47
100
AcDbProxyObject
 90
      499
 91
      503
 93
      113
310
904313A31364000000000000304000
  0
ACAD_PROXY_OBJECT
  5
4F
102
{ACAD_REACTORS
330
47
102
}
330
47
100
AcDbProxyObject
 90
      499
 91
      503
 93
      113
310
904313A32304000000000000344000
  0
ACAD_PROXY_OBJECT
  5
50
102
{ACAD_REACTORS
330
47
102
}
330
47
100
AcDbProxyObject
 90
      499
 91
      503
 93
      113
310
904313A333040000000000003E4000
  0
ACAD_PROXY_OBJECT
  5
51
102
{ACAD_REACTORS
330
47
102
}
330
47
100
AcDbProxyObject
 90
      499
 91
      503
 93
      113
310
904313A34304000000000000444000
  0
ACAD_PROXY_OBJECT
  5
52
102
{ACAD_REACTORS
330
47
102
}
330
47
100
AcDbProxyObject
 90
      499
 91
      503
 93
      113
310
904313A35304000000000000494000
  0
ACAD_PROXY_OBJECT
  5
53
102
{ACAD_REACTORS
330
47
102
}
330
47
100
AcDbProxyObject
 90
      499
 91
      503
 93
      121
310
905313A3130304000000000000594000
  0
ACAD_PROXY_OBJECT
  5
54
102
{ACAD_REACTORS
330
47
102
}
330
47
100
AcDbProxyObject
 90
      499
 91
      503
 93
      105
310
903323A310000000000000010100
  0
ACAD_PROXY_OBJECT
  5
55
102
{ACAD_REACTORS
330
47
102
}
330
47
100
AcDbProxyObject
 90
      499
 91
      503
 93
      105
310
903343A310000000000000410100
  0
ACAD_PROXY_OBJECT
  5
56
102
{ACAD_REACTORS
330
47
102
}
330
47
100
AcDbProxyObject
 90
      499
 91
      503
 93
      105
310
903383A310000000000000810100
  0
ACAD_PROXY_OBJECT
  5
57
102
{ACAD_REACTORS
330
47
102
}
330
47
100
AcDbProxyObject
 90
      499
 91
      503
 93
      113
310
90431303A310000000000000910100
  0
ACAD_PROXY_OBJECT
  5
58
102
{ACAD_REACTORS
330
47
102
}
330
47
100
AcDbProxyObject
 90
      499
 91
      503
 93
      121
310
9053130303A310000000000001650100
  0
ACAD_PROXY_OBJECT
  5
59
102
{ACAD_REACTORS
330
47
102
}
330
47
100
AcDbProxyObject
 90
      499
 91
      503
 93
      257
310
90E312F31323822203D2031272D3022000000000000200FC000000000000284000
  0
ACAD_PROXY_OBJECT
  5
5A
102
{ACAD_REACTORS
330
47
102
}
330
47
100
AcDbProxyObject
 90
      499
 91
      503
 93
      249
310
90D312F363422203D2031272D3022000000000000240FC000000000000284000
  0
ACAD_PROXY_OBJECT
  5
5B
102
{ACAD_REACTORS
330
47
102
}
330
47
100
AcDbProxyObject
 90
      499
 91
      503
 93
      249
310
90D312F333222203D2031272D3022000000000000280FC000000000000284000
  0
ACAD_PROXY_OBJECT
  5
5C
102
{ACAD_REACTORS
330
47
102
}
330
47
100
AcDbProxyObject
 90
      499
 91
      503
 93
      249
310
90D312F313622203D2031272D30220000000000002C0FC000000000000284000
  0
ACAD_PROXY_OBJECT
  5
5D
102
{ACAD_REACTORS
330
47
102
}
330
47
100
AcDbProxyObject
 90
      499
 91
      503
 93
      249
310
90D332F333222203D2031272D30220000000000002E0FC000000000000284000
  0
ACAD_PROXY_OBJECT
  5
5E
102
{ACAD_REACTORS
330
47
102
}
330
47
100
AcDbProxyObject
 90
      499
 91
      503
 93
      241
310
90C312F3822203D2031272D3022000000000000300FC000000000000284000
  0
ACAD_PROXY_OBJECT
  5
5F
102
{ACAD_REACTORS
330
47
102
}
330
47
100
AcDbProxyObject
 90
      499
 91
      503
 93
      249
310
90D332F313622203D2031272D3022000000000000320FC000000000000284000
  0
ACAD_PROXY_OBJECT
  5
60
102
{ACAD_REACTORS
330
47
102
}
330
47
100
AcDbProxyObject
 90
      499
 91
      503
 93
      241
310
90C312F3422203D2031272D3022000000000000340FC000000000000284000
  0
ACAD_PROXY_OBJECT
  5
61
102
{ACAD_REACTORS
330
47
102
}
330
47
100
AcDbProxyObject
 90
      499
 91
      503
 93
      241
310
90C332F3822203D2031272D3022000000000000360FC000000000000284000
  0
ACAD_PROXY_OBJECT
  5
62
102
{ACAD_REACTORS
330
47
102
}
330
47
100
AcDbProxyObject
 90
      499
 91
      503
 93
      241
310
90C312F3222203D2031272D3022000000000000380FC000000000000284000
  0
ACAD_PROXY_OBJECT
  5
63
102
{ACAD_REACTORS
330
47
102
}
330
47
100
AcDbProxyObject
 90
      499
 91
      503
 93
      241
310
90C332F3422203D2031272D30220000000000003A0FC000000000000284000
  0
ACAD_PROXY_OBJECT
  5
64
102
{ACAD_REACTORS
330
47
102
}
330
47
100
AcDbProxyObject
 90
      499
 91
      503
 93
      161
310
90A3122203D2031272D30224000000000000284000
  0
ACAD_PROXY_OBJECT
  5
65
102
{ACAD_REACTORS
330
47
102
}
330
47
100
AcDbProxyObject
 90
      499
 91
      503
 93
      257
310
90E312D312F3222203D2031272D30220000000000003E0FC000000000000284000
  0
ACAD_PROXY_OBJECT
  5
66
102
{ACAD_REACTORS
330
47
102
}
330
47
100
AcDbProxyObject
 90
      499
 91
      503
 93
      225
310
90A3322203D2031272D302200000000000002100000000000000284000
  0
ACAD_PROXY_OBJECT
  5
67
102
{ACAD_REACTORS
330
47
102
}
330
47
100
AcDbProxyObject
 90
      499
 91
      503
 93
      225
310
90A3622203D2031272D302200000000000006100000000000000284000
  0
ACAD_PROXY_OBJECT
  5
68
102
{ACAD_REACTORS
330
47
102
}
330
47
100
AcDbProxyObject
 90
      499
 91
      503
 93
      249
310
90D31272D3022203D2031272D30220000000000000A100000000000000284000
  0
ACAD_PROXY_OBJECT
  5
2F
102
{ACAD_REACTORS
330
2A
102
}
330
2A
100
AcDbProxyObject
 90
      499
 91
      501
 93
      436
310
42CC9915DA5C99599C985B595049028333333333333E33F0000000000000F90107901411070040501600405405064090741402480A0340
1001
ACAD
1000
AcDbSavedByObjectVersion
1070
     0
  0
ACAD_PROXY_OBJECT
  5
32
102
{ACAD_REACTORS
330
2A
102
}
330
2A
100
AcDbProxyObject
 90
      499
 91
      501
 93
      388
310
4150985CDA58D07406404333333333333E33F0000000000000F90107A41107004050150841D405064090741402480A0350
1001
ACAD
1000
AcDbSavedByObjectVersion
1070
     0
  0
ACAD_PROXY_OBJECT
  5
36
102
{ACAD_REACTORS
330
2A
102
}
330
2A
100
AcDbProxyObject
 90
      499
 91
      501
 93
      428
310
42109C9A59DA1D195B90C409028333333333333E33F0000000000000F9010790141107004050150841D405064090741402480A029950
1001
ACAD
1000
AcDbSavedByObjectVersion
1070
     0
  0
ACAD_PROXY_OBJECT
  5
3A
102
{ACAD_REACTORS
330
2A
102
}
330
2A
100
AcDbProxyObject
 90
      499
 91
      501
 93
      452
310
42D0DBDB1BDC90DA185B99D95104090240C333333333333E33F0000000000000F90108901411070040501508421405064090741402480A0350
1001
ACAD
1000
AcDbSavedByObjectVersion
1070
     0
  0
ACAD_PROXY_OBJECT
  5
34
102
{ACAD_REACTORS
330
2A
102
}
330
2A
100
AcDbProxyObject
 90
      499
 91
      501
 93
      500
310
4290DBDB98D95C1D1D585B10940D028333333333333E33F0000000000000F90107902409070040501000000000018199010841D405064090740C02480A0340
1001
ACAD
1000
AcDbSavedByObjectVersion
1070
     0
  0
ACAD_PROXY_OBJECT
  5
35
102
{ACAD_REACTORS
330
2A
102
}
330
2A
100
AcDbProxyObject
 90
      499
 91
      501
 93
      412
310
40D11A5B50B409028333333333333E33F0000000000000F9010790141107004050150841D405064090741402480A02677FFFFFD0
1001
ACAD
1000
AcDbSavedByObjectVersion
1070
     0
  0
ACAD_PROXY_OBJECT
  5
3D
102
{ACAD_REACTORS
330
2A
102
}
330
2A
100
AcDbProxyObject
 90
      499
 91
      501
 93
      452
310
43115919D950DBDB1BDC93D999916409028333333333333E33F0000000000000F9010790141107004050150841D405064090741402480A0350
1001
ACAD
1000
AcDbSavedByObjectVersion
1070
     0
  0
ACAD_PROXY_OBJECT
  5
39
102
{ACAD_REACTORS
330
2A
102
}
330
2A
100
AcDbProxyObject
 90
      499
 91
      501
 93
      444
310
42D19858D95C185D1D195C9B90F409028333333333333E33F0000000000000F9010790141107004050150841D405064090741402480A0350
1001
ACAD
1000
AcDbSavedByObjectVersion
1070
     0
  0
ACAD_PROXY_OBJECT
  5
2B
102
{ACAD_REACTORS
330
2A
102
}
330
2A
100
AcDbProxyObject
 90
      499
 91
      501
 93
      380
310
41119B185D240901404333333333333E33F0000000000000F9010740A907004050150841D405064090741402480A1B50
1001
ACAD
1000
AcDbSavedByObjectVersion
1070
     0
  0
ACAD_PROXY_OBJECT
  5
2C
102
{ACAD_REACTORS
330
2A
102
}
330
2A
100
AcDbProxyObject
 90
      499
 91
      501
 93
      468
310
43519B185D15DA5D1A115919D95CD0140901404333333333333E33F0000000000000F90107409019070040501600405405064090741402480A1B50
1001
ACAD
1000
AcDbSavedByObjectVersion
1070
     0
  0
ACAD_PROXY_OBJECT
  5
2D
102
{ACAD_REACTORS
330
2A
102
}
330
2A
100
AcDbProxyObject
 90
      499
 91
      501
 93
      404
310
41D1DBDD5C985D5910240902404333333333333E33F0000000000000F9010740A9070040501641D405064090741402480A1B50
1001
ACAD
1000
AcDbSavedByObjectVersion
1070
     0
  0
ACAD_PROXY_OBJECT
  5
2E
102
{ACAD_REACTORS
330
2A
102
}
330
2A
100
AcDbProxyObject
 90
      499
 91
      501
 93
      492
310
4411DBDD5C985D5915DA5D1A115919D95CD0340902404333333333333E33F0000000000000F90107409019070040501600405405064090741402480A1B50
1001
ACAD
1000
AcDbSavedByObjectVersion
1070
     0
  0
ACAD_PROXY_OBJECT
  5
31
102
{ACAD_REACTORS
330
2A
102
}
330
2A
100
AcDbProxyObject
 90
      499
 91
      501
 93
      476
310
41921A5919195B90640502408333333333333E33F0000000000000F901079024090700405020000000000001110200405405064090740C02480A0340
1001
ACAD
1000
AcDbSavedByObjectVersion
1070
     0
  0
ACAD_PROXY_OBJECT
  5
3B
102
{ACAD_REACTORS
330
2A
102
}
330
2A
100
AcDbProxyObject
 90
      499
 91
      501
 93
      428
310
42529A5D1D195C93D999914409028333333333333E33F0000000000000F9010790141107004050150A41D405064090741402480A0350
1001
ACAD
1000
AcDbSavedByObjectVersion
1070
     0
  0
ACAD_PROXY_OBJECT
  5
38
102
{ACAD_REACTORS
330
2A
102
}
330
2A
100
AcDbProxyObject
 90
      499
 91
      501
 93
      444
310
42D31A5B995C185D1D195C9B90E409028333333333333E33F0000000000000F9010790141107004050750841D405064090741402483A0350
1001
ACAD
1000
AcDbSavedByObjectVersion
1070
     0
  0
ACAD_PROXY_OBJECT
  5
3C
102
{ACAD_REACTORS
330
2A
102
}
330
2A
100
AcDbProxyObject
 90
      499
 91
      501
 93
      444
310
42D3DD995C9A185B99D3D999915409028333333333333E33F0000000000000F9010790141107004050150941D405064090741402480A0350
1001
ACAD
1000
AcDbSavedByObjectVersion
1070
     0
  0
ACAD_PROXY_OBJECT
  5
33
102
{ACAD_REACTORS
330
2A
102
}
330
2A
100
AcDbProxyObject
 90
      499
 91
      501
 93
      428
310
425499585B1A5CDD1A58D08409038333333333333E33F0000000000000F9010740A907004050150800405405064090740C02480A1B40
1001
ACAD
1000
AcDbSavedByObjectVersion
1070
     0
  0
ACAD_PROXY_OBJECT
  5
42
102
{ACAD_REACTORS
330
2A
102
}
330
2A
100
AcDbProxyObject
 90
      499
 91
      501
 93
      420
310
4194DA1859195911B40902404333333333333E33F0000000000000F9010740A41107004050150800405405064090840C02480A0B40
1001
ACAD
1000
AcDbSavedByObjectVersion
1070
     0
  0
ACAD_PROXY_OBJECT
  5
41
102
{ACAD_REACTORS
330
2A
102
}
330
2A
100
AcDbProxyObject
 90
      499
 91
      501
 93
      516
310
4454DA18591959081DDA5D1A08195919D95CD1A40902404333333333333E33F0000000000000F901074090142907004050250800405405064090740C02480A0B40
1001
ACAD
1000
AcDbSavedByObjectVersion
1070
     0
  0
ACAD_PROXY_OBJECT
  5
3E
102
{ACAD_REACTORS
330
2A
102
}
330
2A
100
AcDbProxyObject
 90
      499
 91
      501
 93
      532
310
4394DA1859195CC81BD98811DC985E5174090240C333333333333E33F0000000000000F901079024090741D01000000000000111010841D405064090740C02480A0340
1001
ACAD
1000
AcDbSavedByObjectVersion
1070
     0
  0
ACAD_PROXY_OBJECT
  5
3F
102
{ACAD_REACTORS
330
2A
102
}
330
2A
100
AcDbProxyObject
 90
      499
 91
      501
 93
      476
310
41D4DAD95D18DA1E51840502408333333333333E33F0000000000000F901079024090741D01000000000000111010B41D405064090741802480A0340
1001
ACAD
1000
AcDbSavedByObjectVersion
1070
     0
  0
ACAD_PROXY_OBJECT
  5
37
102
{ACAD_REACTORS
330
2A
102
}
330
2A
100
AcDbProxyObject
 90
      499
 91
      501
 93
      412
310
41D51A1A58DAD95B90D409028333333333333E33F0000000000000F9010790141107004050150C41D405064090741402480A0350
1001
ACAD
1000
AcDbSavedByObjectVersion
1070
     0
  0
ACAD_PROXY_OBJECT
  5
30
102
{ACAD_REACTORS
330
2A
102
}
330
2A
100
AcDbProxyObject
 90
      499
 91
      501
 93
      420
310
4255DA5C99599C985B595059028333333333333E33F0000000000000F90107901411070040501600405405064090740C02480A0340
1001
ACAD
1000
AcDbSavedByObjectVersion
1070
     0
  0
ACAD_PROXY_OBJECT
  5
40
102
{ACAD_REACTORS
330
2A
102
}
330
2A
100
AcDbProxyObject
 90
      499
 91
      501
 93
      404
310
41560B54985E51940902404000000000000E03F0000000000000F9010740501907004050150841D405064090740C02480A1B40
1001
ACAD
1000
AcDbSavedByObjectVersion
1070
     0
  0
XRECORD
  5
643
102
{ACAD_REACTORS
330
639
102
}
330
639
100
AcDbXrecord
340
0
  0
XRECORD
  5
642
102
{ACAD_REACTORS
330
639
102
}
330
639
100
AcDbXrecord
 90
        0
  0
XRECORD
  5
659
102
{ACAD_REACTORS
330
639
102
}
330
639
100
AcDbXrecord
1000
DSTYLE
1002
{
1070
   340
340
11
1002
}
  0
XRECORD
  5
644
102
{ACAD_REACTORS
330
639
102
}
330
639
100
AcDbXrecord
  1
{f25f7e49-f017-4ea5-af13-2a69cdccccf7}
  0
XRECORD
  5
63C
102
{ACAD_REACTORS
330
639
102
}
330
639
100
AcDbXrecord
  1

  0
XRECORD
  5
641
102
{ACAD_REACTORS
330
639
102
}
330
639
100
AcDbXrecord
 90
        4
  0
XRECORD
  5
63E
102
{ACAD_REACTORS
330
639
102
}
330
639
100
AcDbXrecord
340
1A
  0
XRECORD
  5
640
102
{ACAD_REACTORS
330
639
102
}
330
639
100
AcDbXrecord
 90
    10781
  0
XRECORD
  5
63F
102
{ACAD_REACTORS
330
639
102
}
330
639
100
AcDbXrecord
340
19
  0
XRECORD
  5
646
102
{ACAD_REACTORS
330
639
102
}
330
639
100
AcDbXrecord
 40
0.0
  0
XRECORD
  5
649
102
{ACAD_REACTORS
330
639
102
}
330
639
100
AcDbXrecord
340
0
  0
XRECORD
  5
64F
102
{ACAD_REACTORS
330
639
102
}
330
639
100
AcDbXrecord
 10
0.0
 20
0.0
 30
0.0
  0
XRECORD
  5
64B
102
{ACAD_REACTORS
330
639
102
}
330
639
100
AcDbXrecord
 10
0.0
 20
0.0
 30
0.0
  0
XRECORD
  5
64E
102
{ACAD_REACTORS
330
639
102
}
330
639
100
AcDbXrecord
 10
0.0
 20
0.0
 30
0.0
  0
XRECORD
  5
64C
102
{ACAD_REACTORS
330
639
102
}
330
639
100
AcDbXrecord
 10
0.0
 20
0.0
 30
0.0
  0
XRECORD
  5
64D
102
{ACAD_REACTORS
330
639
102
}
330
639
100
AcDbXrecord
 10
0.0
 20
0.0
 30
0.0
  0
XRECORD
  5
64A
102
{ACAD_REACTORS
330
639
102
}
330
639
100
AcDbXrecord
 10
0.0
 20
0.0
 30
0.0
  0
XRECORD
  5
647
102
{ACAD_REACTORS
330
639
102
}
330
639
100
AcDbXrecord
340
0
  0
XRECORD
  5
648
102
{ACAD_REACTORS
330
639
102
}
330
639
100
AcDbXrecord
 70
     0
  0
XRECORD
  5
63D
102
{ACAD_REACTORS
330
639
102
}
330
639
100
AcDbXrecord
  1

  0
XRECORD
  5
63A
102
{ACAD_REACTORS
330
639
102
}
330
639
100
AcDbXrecord
 90
        1
  0
XRECORD
  5
63B
102
{ACAD_REACTORS
330
639
102
}
330
639
100
AcDbXrecord
 90
       70
  0
XRECORD
  5
652
102
{ACAD_REACTORS
330
639
102
}
330
639
100
AcDbXrecord
340
0
  0
XRECORD
  5
658
102
{ACAD_REACTORS
330
639
102
}
330
639
100
AcDbXrecord
 10
0.0
 20
0.0
 30
0.0
  0
XRECORD
  5
654
102
{ACAD_REACTORS
330
639
102
}
330
639
100
AcDbXrecord
 10
0.0
 20
0.0
 30
0.0
  0
XRECORD
  5
657
102
{ACAD_REACTORS
330
639
102
}
330
639
100
AcDbXrecord
 10
0.0
 20
0.0
 30
0.0
  0
XRECORD
  5
655
102
{ACAD_REACTORS
330
639
102
}
330
639
100
AcDbXrecord
 10
0.0
 20
0.0
 30
0.0
  0
XRECORD
  5
656
102
{ACAD_REACTORS
330
639
102
}
330
639
100
AcDbXrecord
 10
0.0
 20
0.0
 30
0.0
  0
XRECORD
  5
653
102
{ACAD_REACTORS
330
639
102
}
330
639
100
AcDbXrecord
 10
0.0
 20
0.0
 30
0.0
  0
XRECORD
  5
650
102
{ACAD_REACTORS
330
639
102
}
330
639
100
AcDbXrecord
340
0
  0
XRECORD
  5
651
102
{ACAD_REACTORS
330
639
102
}
330
639
100
AcDbXrecord
 70
     0
  0
XRECORD
  5
645
102
{ACAD_REACTORS
330
639
102
}
330
639
100
AcDbXrecord
  1
{FAEB1C32-E019-11D5-929B-00C0DF256EC4}
  0
DICTIONARYVAR
  5
667
102
{ACAD_REACTORS
330
65A
102
}
330
65A
100
DictionaryVariables
280
     0
  1
1:1
  0
DICTIONARYVAR
  5
661
102
{ACAD_REACTORS
330
65A
102
}
330
65A
100
DictionaryVariables
280
     0
  1
3.500000
  0
DICTIONARYVAR
  5
662
102
{ACAD_REACTORS
330
65A
102
}
330
65A
100
DictionaryVariables
280
     0
  1
acadiso.lin
  0
DICTIONARYVAR
  5
65C
102
{ACAD_REACTORS
330
65A
102
}
330
65A
100
DictionaryVariables
280
     0
  1
Standard
  0
DICTIONARYVAR
  5
65B
102
{ACAD_REACTORS
330
65A
102
}
330
65A
100
DictionaryVariables
280
     0
  1
Standard
  0
DICTIONARYVAR
  5
663
102
{ACAD_REACTORS
330
65A
102
}
330
65A
100
DictionaryVariables
280
     0
  1
2
  0
DICTIONARYVAR
  5
664
102
{ACAD_REACTORS
330
65A
102
}
330
65A
100
DictionaryVariables
280
     0
  1
1
  0
DICTIONARYVAR
  5
668
102
{ACAD_REACTORS
330
65A
102
}
330
65A
100
DictionaryVariables
280
     0
  1
1
  0
DICTIONARYVAR
  5
65E
102
{ACAD_REACTORS
330
65A
102
}
330
65A
100
DictionaryVariables
280
     0
  1
80.000000
  0
DICTIONARYVAR
  5
65D
102
{ACAD_REACTORS
330
65A
102
}
330
65A
100
DictionaryVariables
280
     0
  1
5.000000
  0
DICTIONARY
  5
66B
330
45
100
AcDbDictionary
280
     1
  3
ACAD_XREC_ROUNDTRIP
360
66C
  0
DICTIONARY
  5
669
330
44
100
AcDbDictionary
280
     1
  3
ACAD_XREC_ROUNDTRIP
360
66A
  0
DICTIONARY
  5
66D
330
46
100
AcDbDictionary
280
     1
  3
ACAD_XREC_ROUNDTRIP
360
66E
  0
XRECORD
  5
66C
102
{ACAD_REACTORS
330
66B
102
}
330
66B
100
AcDbXrecord
102
MATERIAL
148
0.0
149
0.0
149
0.0
 93
        0
 94
      127
282
     0
 72
     1
 77
     1
171
     1
175
     1
179
     1
273
     0
  0
XRECORD
  5
66A
102
{ACAD_REACTORS
330
669
102
}
330
669
100
AcDbXrecord
102
MATERIAL
148
0.0
149
0.0
149
0.0
 93
        0
 94
      127
282
     0
 72
     1
 77
     1
171
     1
175
     1
179
     1
273
     0
  0
XRECORD
  5
66E
102
{ACAD_REACTORS
330
66D
102
}
330
66D
100
AcDbXrecord
102
MATERIAL
148
0.0
149
0.0
149
0.0
 93
        0
 94
      127
282
     0
 72
     1
 77
     1
171
     1
175
     1
179
     1
273
     0
  0
ENDSEC
  0
EOF
