  0
SECTION
  2
HEADER
  9
$ACADVER
  1
AC1014
  9
$ACADMAINTVER
 70
     9
  9
$DWGCODEPAGE
  3
ANSI_932
  9
$INSBASE
 10
0.0
 20
0.0
 30
0.0
  9
$EXTMIN
 10
30.0
 20
30.0
 30
0.0
  9
$EXTMAX
 10
1230.0
 20
861.0
 30
0.0
  9
$LIMMIN
 10
0.0
 20
0.0
  9
$LIMMAX
 10
420.0
 20
297.0
  9
$ORTHOMODE
 70
     0
  9
$REGENMODE
 70
     1
  9
$FILLMODE
 70
     1
  9
$QTEXTMODE
 70
     0
  9
$MIRRTEXT
 70
     1
  9
$DRAGMODE
 70
     2
  9
$LTSCALE
 40
1.0
  9
$OSMODE
 70
    37
  9
$ATTMODE
 70
     1
  9
$TEXTSIZE
 40
2.5
  9
$TRACEWID
 40
1.0
  9
$TEXTSTYLE
  7
STANDARD
  9
$CLAYER
  8
Ｓ_１_１
  9
$CELTYPE
  6
BYLAYER
  9
$CECOLOR
 62
   256
  9
$CELTSCALE
 40
1.0
  9
$DELOBJ
 70
     1
  9
$DISPSILH
 70
     0
  9
$DIMSCALE
 40
1.0
  9
$DIMASZ
 40
2.5
  9
$DIMEXO
 40
0.625
  9
$DIMDLI
 40
3.75
  9
$DIMRND
 40
0.0
  9
$DIMDLE
 40
0.0
  9
$DIMEXE
 40
1.25
  9
$DIMTP
 40
0.0
  9
$DIMTM
 40
0.0
  9
$DIMTXT
 40
2.5
  9
$DIMCEN
 40
2.5
  9
$DIMTSZ
 40
0.0
  9
$DIMTOL
 70
     0
  9
$DIMLIM
 70
     0
  9
$DIMTIH
 70
     0
  9
$DIMTOH
 70
     0
  9
$DIMSE1
 70
     0
  9
$DIMSE2
 70
     0
  9
$DIMTAD
 70
     1
  9
$DIMZIN
 70
     8
  9
$DIMBLK
  1

  9
$DIMASO
 70
     1
  9
$DIMSHO
 70
     1
  9
$DIMPOST
  1

  9
$DIMAPOST
  1

  9
$DIMALT
 70
     0
  9
$DIMALTD
 70
     3
  9
$DIMALTF
 40
0.03937007874016
  9
$DIMLFAC
 40
1.0
  9
$DIMTOFL
 70
     1
  9
$DIMTVP
 40
0.0
  9
$DIMTIX
 70
     0
  9
$DIMSOXD
 70
     0
  9
$DIMSAH
 70
     0
  9
$DIMBLK1
  1

  9
$DIMBLK2
  1

  9
$DIMSTYLE
  2
ISO-25
  9
$DIMCLRD
 70
     0
  9
$DIMCLRE
 70
     0
  9
$DIMCLRT
 70
     0
  9
$DIMTFAC
 40
1.0
  9
$DIMGAP
 40
0.625
  9
$DIMJUST
 70
     0
  9
$DIMSD1
 70
     0
  9
$DIMSD2
 70
     0
  9
$DIMTOLJ
 70
     0
  9
$DIMTZIN
 70
     8
  9
$DIMALTZ
 70
     0
  9
$DIMALTTZ
 70
     0
  9
$DIMFIT
 70
     3
  9
$DIMUPT
 70
     0
  9
$DIMUNIT
 70
     2
  9
$DIMDEC
 70
     2
  9
$DIMTDEC
 70
     2
  9
$DIMALTU
 70
     2
  9
$DIMALTTD
 70
     3
  9
$DIMTXSTY
  7
STANDARD
  9
$DIMAUNIT
 70
     0
  9
$LUNITS
 70
     2
  9
$LUPREC
 70
     4
  9
$SKETCHINC
 40
1.0
  9
$FILLETRAD
 40
10.0
  9
$AUNITS
 70
     0
  9
$AUPREC
 70
     0
  9
$MENU
  1
.
  9
$ELEVATION
 40
0.0
  9
$PELEVATION
 40
0.0
  9
$THICKNESS
 40
0.0
  9
$LIMCHECK
 70
     0
  9
$CHAMFERA
 40
0.0
  9
$CHAMFERB
 40
0.0
  9
$CHAMFERC
 40
0.0
  9
$CHAMFERD
 40
0.0
  9
$SKPOLY
 70
     0
  9
$TDCREATE
 40
2459585.49737919
  9
$TDUPDATE
 40
2459585.497380752
  9
$TDINDWG
 40
0.0000000116
  9
$TDUSRTIMER
 40
0.0000000116
  9
$USRTIMER
 70
     1
  9
$ANGBASE
 50
0.0
  9
$ANGDIR
 70
     0
  9
$PDMODE
 70
     0
  9
$PDSIZE
 40
0.0
  9
$PLINEWID
 40
0.0
  9
$COORDS
 70
     1
  9
$SPLFRAME
 70
     0
  9
$SPLINETYPE
 70
     6
  9
$SPLINESEGS
 70
     8
  9
$ATTDIA
 70
     0
  9
$ATTREQ
 70
     1
  9
$HANDLING
 70
     1
  9
$HANDSEED
  5
520
  9
$SURFTAB1
 70
     6
  9
$SURFTAB2
 70
     6
  9
$SURFTYPE
 70
     6
  9
$SURFU
 70
     6
  9
$SURFV
 70
     6
  9
$UCSNAME
  2

  9
$UCSORG
 10
0.0
 20
0.0
 30
0.0
  9
$UCSXDIR
 10
1.0
 20
0.0
 30
0.0
  9
$UCSYDIR
 10
0.0
 20
1.0
 30
0.0
  9
$PUCSNAME
  2

  9
$PUCSORG
 10
0.0
 20
0.0
 30
0.0
  9
$PUCSXDIR
 10
1.0
 20
0.0
 30
0.0
  9
$PUCSYDIR
 10
0.0
 20
1.0
 30
0.0
  9
$USERI1
 70
     0
  9
$USERI2
 70
     0
  9
$USERI3
 70
     0
  9
$USERI4
 70
     0
  9
$USERI5
 70
     0
  9
$USERR1
 40
0.0
  9
$USERR2
 40
0.0
  9
$USERR3
 40
0.0
  9
$USERR4
 40
0.0
  9
$USERR5
 40
0.0
  9
$WORLDVIEW
 70
     1
  9
$SHADEDGE
 70
     3
  9
$SHADEDIF
 70
    70
  9
$TILEMODE
 70
     1
  9
$MAXACTVP
 70
    64
  9
$PINSBASE
 10
0.0
 20
0.0
 30
0.0
  9
$PLIMCHECK
 70
     0
  9
$PEXTMIN
 10
1.000000000000000E+20
 20
1.000000000000000E+20
 30
1.000000000000000E+20
  9
$PEXTMAX
 10
-1.000000000000000E+20
 20
-1.000000000000000E+20
 30
-1.000000000000000E+20
  9
$PLIMMIN
 10
0.0
 20
0.0
  9
$PLIMMAX
 10
420.0
 20
297.0
  9
$UNITMODE
 70
     0
  9
$VISRETAIN
 70
     1
  9
$PLINEGEN
 70
     0
  9
$PSLTSCALE
 70
     1
  9
$TREEDEPTH
 70
  3020
  9
$PICKSTYLE
 70
     1
  9
$CMLSTYLE
  2
STANDARD
  9
$CMLJUST
 70
     0
  9
$CMLSCALE
 40
20.0
  9
$PROXYGRAPHICS
 70
     1
  9
$MEASUREMENT
 70
     1
  0
ENDSEC
  0
SECTION
  2
CLASSES
  0
CLASS
  1
ACDBDICTIONARYWDFLT
  2
AcDbDictionaryWithDefault
  3
ObjectDBX Classes
 90
        0
280
     0
281
     0
  0
CLASS
  1
VISUALSTYLE
  2
AcDbVisualStyle
  3
ObjectDBX Classes
 90
     4095
280
     0
281
     0
  0
CLASS
  1
MATERIAL
  2
AcDbMaterial
  3
ObjectDBX Classes
 90
     1153
280
     0
281
     0
  0
CLASS
  1
SCALE
  2
AcDbScale
  3
ObjectDBX Classes
 90
     1153
280
     0
281
     0
  0
CLASS
  1
TABLESTYLE
  2
AcDbTableStyle
  3
ObjectDBX Classes
 90
     4095
280
     0
281
     0
  0
CLASS
  1
MLEADERSTYLE
  2
AcDbMLeaderStyle
  3
ACDB_MLEADERSTYLE_CLASS
 90
     4095
280
     0
281
     0
  0
CLASS
  1
SUN
  2
AcDbSun
  3
SCENEOE
 90
     1153
280
     0
281
     0
  0
CLASS
  1
DICTIONARYVAR
  2
AcDbDictionaryVar
  3
ObjectDBX Classes
 90
        0
280
     0
281
     0
  0
CLASS
  1
XRECORD
  2
AcDbXrecord
  3
ObjectDBX Classes
 90
        0
280
     0
281
     0
  0
CLASS
  1
LWPOLYLINE
  2
AcDbPolyline
  3
ObjectDBX Classes
 90
        0
280
     0
281
     1
  0
CLASS
  1
HATCH
  2
AcDbHatch
  3
ObjectDBX Classes
 90
        0
280
     0
281
     1
  0
CLASS
  1
ACDBPLACEHOLDER
  2
AcDbPlaceHolder
  3
ObjectDBX Classes
 90
        0
280
     0
281
     0
  0
CLASS
  1
LAYOUT
  2
AcDbLayout
  3
ObjectDBX Classes
 90
        0
280
     0
281
     0
  0
ENDSEC
  0
SECTION
  2
TABLES
  0
TABLE
  2
VPORT
  5
8
102
{ACAD_XDICTIONARY
360
515
102
}
330
0
100
AcDbSymbolTable
 70
     1
  0
VPORT
  5
29
330
8
100
AcDbSymbolTableRecord
100
AcDbViewportTableRecord
  2
*ACTIVE
 70
     0
 10
0.0
 20
0.0
 11
1.0
 21
1.0
 12
630.0
 22
445.5
 13
0.0
 23
0.0
 14
10.0
 24
10.0
 15
10.0
 25
10.0
 16
0.0
 26
0.0
 36
1.0
 17
0.0
 27
0.0
 37
0.0
 40
831.0
 41
1.444043321299639
 42
50.0
 43
0.0
 44
0.0
 50
0.0
 51
0.0
 71
     0
 72
  1000
 73
     1
 74
     3
 75
     0
 76
     0
 77
     0
 78
     0
  0
ENDTAB
  0
TABLE
  2
LTYPE
  5
5
330
0
100
AcDbSymbolTable
 70
     7
  0
LTYPE
  5
14
330
5
100
AcDbSymbolTableRecord
100
AcDbLinetypeTableRecord
  2
BYBLOCK
 70
     0
  3

 72
    65
 73
     0
 40
0.0
  0
LTYPE
  5
15
330
5
100
AcDbSymbolTableRecord
100
AcDbLinetypeTableRecord
  2
BYLAYER
 70
     0
  3

 72
    65
 73
     0
 40
0.0
  0
LTYPE
  5
16
330
5
100
AcDbSymbolTableRecord
100
AcDbLinetypeTableRecord
  2
CONTINUOUS
 70
     0
  3
Solid line
 72
    65
 73
     0
 40
0.0
  0
LTYPE
  5
6E
330
5
100
AcDbSymbolTableRecord
100
AcDbLinetypeTableRecord
  2
EXLTYPE0
 70
     0
  3
破線
 72
    65
 73
     2
 40
4.0
 49
3.0
 74
     0
 49
-1.0
 74
     0
  0
LTYPE
  5
6F
330
5
100
AcDbSymbolTableRecord
100
AcDbLinetypeTableRecord
  2
EXLTYPE1
 70
     0
  3
点線
 72
    65
 73
     2
 40
2.0
 49
1.0
 74
     0
 49
-1.0
 74
     0
  0
LTYPE
  5
70
330
5
100
AcDbSymbolTableRecord
100
AcDbLinetypeTableRecord
  2
EXLTYPE2
 70
     0
  3
一点鎖線
 72
    65
 73
     4
 40
13.0
 49
10.0
 74
     0
 49
-1.0
 74
     0
 49
1.0
 74
     0
 49
-1.0
 74
     0
  0
LTYPE
  5
71
330
5
100
AcDbSymbolTableRecord
100
AcDbLinetypeTableRecord
  2
EXLTYPE3
 70
     0
  3
二点鎖線
 72
    65
 73
     6
 40
15.0
 49
10.0
 74
     0
 49
-1.0
 74
     0
 49
1.0
 74
     0
 49
-1.0
 74
     0
 49
1.0
 74
     0
 49
-1.0
 74
     0
  0
LTYPE
  5
72
330
5
100
AcDbSymbolTableRecord
100
AcDbLinetypeTableRecord
  2
EXLTYPE4
 70
     0
  3
一点鎖線2
 72
    65
 73
     4
 40
3.5
 49
2.0
 74
     0
 49
-0.5
 74
     0
 49
0.5
 74
     0
 49
-0.5
 74
     0
  0
LTYPE
  5
73
330
5
100
AcDbSymbolTableRecord
100
AcDbLinetypeTableRecord
  2
EXLTYPE5
 70
     0
  3
二点鎖線2
 72
    65
 73
     6
 40
4.5
 49
2.0
 74
     0
 49
-0.5
 74
     0
 49
0.5
 74
     0
 49
-0.5
 74
     0
 49
0.5
 74
     0
 49
-0.5
 74
     0
  0
ENDTAB
  0
TABLE
  2
LAYER
  5
2
330
0
100
AcDbSymbolTable
 70
     4
  0
LAYER
  5
10
330
2
100
AcDbSymbolTableRecord
100
AcDbLayerTableRecord
  2
0
 70
     0
 62
     7
  6
CONTINUOUS
  0
LAYER
  5
76
330
2
100
AcDbSymbolTableRecord
100
AcDbLayerTableRecord
  2
図面枠
 70
     4
 62
     7
  6
CONTINUOUS
  0
LAYER
  5
77
330
2
100
AcDbSymbolTableRecord
100
AcDbLayerTableRecord
  2
Ｓ_１_１
 70
     0
 62
     7
  6
CONTINUOUS
  0
LAYER
  5
123
330
2
100
AcDbSymbolTableRecord
100
AcDbLayerTableRecord
  2
DEFPOINTS
 70
     0
 62
     7
  6
CONTINUOUS
  0
ENDTAB
  0
TABLE
  2
STYLE
  5
3
330
0
100
AcDbSymbolTable
 70
     5
  0
STYLE
  5
11
330
3
100
AcDbSymbolTableRecord
100
AcDbTextStyleTableRecord
  2
STANDARD
 70
     0
 40
0.0
 41
1.0
 50
0.0
 71
     0
 42
2.5
  3
monotxt
  4
extfont
  0
STYLE
  5
74
330
3
100
AcDbSymbolTableRecord
100
AcDbTextStyleTableRecord
  2
EXCADSTD
 70
     0
 40
0.0
 41
1.0
 50
0.0
 71
     0
 42
2.5
  3
monotxt
  4
extfont
  0
STYLE
  5
75
330
3
100
AcDbSymbolTableRecord
100
AcDbTextStyleTableRecord
  2
EXCADVERT
 70
     4
 40
0.0
 41
1.0
 50
0.0
 71
     0
 42
2.5
  3
monotxt
  4
extfont
  0
STYLE
  5
DA
330
3
100
AcDbSymbolTableRecord
100
AcDbTextStyleTableRecord
  2
EXCADTTF1
 70
     0
 40
0.0
 41
1.0
 50
0.0
 71
     0
 42
2.5
  3
msgothic.ttc
  4

1001
ACAD
1000
MS Gothic
1071
    32817
  0
STYLE
  5
121
330
3
100
AcDbSymbolTableRecord
100
AcDbTextStyleTableRecord
  2
EXCADDIM1
 70
     0
 40
0.0
 41
1.0
 50
0.0
 71
     0
 42
2.5
  3
msgothic.ttc
  4

1001
ACAD
1000
MS Gothic
1071
    32817
  0
ENDTAB
  0
TABLE
  2
VIEW
  5
6
330
0
100
AcDbSymbolTable
 70
     0
  0
ENDTAB
  0
TABLE
  2
UCS
  5
7
330
0
100
AcDbSymbolTable
 70
     0
  0
ENDTAB
  0
TABLE
  2
APPID
  5
9
330
0
100
AcDbSymbolTable
 70
     2
  0
APPID
  5
12
330
9
100
AcDbSymbolTableRecord
100
AcDbRegAppTableRecord
  2
ACAD
 70
     0
  0
APPID
  5
51F
330
9
100
AcDbSymbolTableRecord
100
AcDbRegAppTableRecord
  2
ACAD_MLEADERVER
 70
     0
  0
ENDTAB
  0
TABLE
  2
DIMSTYLE
  5
A
330
0
100
AcDbSymbolTable
 70
     1
  0
DIMSTYLE
105
27
102
{ACAD_REACTORS
330
122
330
130
330
13B
330
148
330
155
330
162
330
16F
330
17C
330
188
330
194
330
1A1
330
1AE
330
1BC
330
1CB
330
3DA
330
3EB
330
3F8
330
4C5
102
}
330
A
100
AcDbSymbolTableRecord
100
AcDbDimStyleTableRecord
  2
ISO-25
 70
     0
  3

  4

  5

  6

  7

 40
1.0
 41
2.5
 42
0.625
 43
3.75
 44
1.25
 45
0.0
 46
0.0
 47
0.0
 48
0.0
140
2.5
141
2.5
142
0.0
143
0.03937007874016
144
1.0
145
0.0
146
1.0
147
0.625
 71
     0
 72
     0
 73
     0
 74
     0
 75
     0
 76
     0
 77
     1
 78
     8
170
     0
171
     3
172
     1
173
     0
174
     0
175
     0
176
     0
177
     0
178
     0
270
     2
271
     2
272
     2
273
     2
274
     3
340
11
275
     0
280
     0
281
     0
282
     0
283
     0
284
     8
285
     0
286
     0
287
     5
288
     0
  0
ENDTAB
  0
TABLE
  2
BLOCK_RECORD
  5
1
330
0
100
AcDbSymbolTable
 70
    32
  0
BLOCK_RECORD
  5
1F
330
1
100
AcDbSymbolTableRecord
100
AcDbBlockTableRecord
  2
*MODEL_SPACE
  0
BLOCK_RECORD
  5
1B
330
1
100
AcDbSymbolTableRecord
100
AcDbBlockTableRecord
  2
*PAPER_SPACE
  0
BLOCK_RECORD
  5
78
330
1
100
AcDbSymbolTableRecord
100
AcDbBlockTableRecord
  2
EX_NORM
  0
BLOCK_RECORD
  5
7B
330
1
100
AcDbSymbolTableRecord
100
AcDbBlockTableRecord
  2
EX_BNORM
  0
BLOCK_RECORD
  5
7E
330
1
100
AcDbSymbolTableRecord
100
AcDbBlockTableRecord
  2
EX_BCIR
  0
BLOCK_RECORD
  5
81
330
1
100
AcDbSymbolTableRecord
100
AcDbBlockTableRecord
  2
EX_RCIVIL
  0
BLOCK_RECORD
  5
84
330
1
100
AcDbSymbolTableRecord
100
AcDbBlockTableRecord
  2
EX_SLANT
  0
BLOCK_RECORD
  5
87
330
1
100
AcDbSymbolTableRecord
100
AcDbBlockTableRecord
  2
EX_NONE
  0
BLOCK_RECORD
  5
8A
330
1
100
AcDbSymbolTableRecord
100
AcDbBlockTableRecord
  2
EX_CIVIL
  0
BLOCK_RECORD
  5
8D
330
1
100
AcDbSymbolTableRecord
100
AcDbBlockTableRecord
  2
EX_WCIR
  0
BLOCK_RECORD
  5
90
330
1
100
AcDbSymbolTableRecord
100
AcDbBlockTableRecord
  2
EX_WCIR2
  0
BLOCK_RECORD
  5
93
330
1
100
AcDbSymbolTableRecord
100
AcDbBlockTableRecord
  2
EX_WNORM
  0
BLOCK_RECORD
  5
96
330
1
100
AcDbSymbolTableRecord
100
AcDbBlockTableRecord
  2
EX_NNORM
  0
BLOCK_RECORD
  5
99
330
1
100
AcDbSymbolTableRecord
100
AcDbBlockTableRecord
  2
EX_BBOX
  0
BLOCK_RECORD
  5
9C
330
1
100
AcDbSymbolTableRecord
100
AcDbBlockTableRecord
  2
EX_WBOX
  0
BLOCK_RECORD
  5
9F
330
1
100
AcDbSymbolTableRecord
100
AcDbBlockTableRecord
  2
EX_INTEGRAL
  0
BLOCK_RECORD
  5
124
330
1
100
AcDbSymbolTableRecord
100
AcDbBlockTableRecord
  2
*D15
  0
BLOCK_RECORD
  5
131
330
1
100
AcDbSymbolTableRecord
100
AcDbBlockTableRecord
  2
*D16
  0
BLOCK_RECORD
  5
13C
330
1
100
AcDbSymbolTableRecord
100
AcDbBlockTableRecord
  2
*D17
  0
BLOCK_RECORD
  5
149
330
1
100
AcDbSymbolTableRecord
100
AcDbBlockTableRecord
  2
*D18
  0
BLOCK_RECORD
  5
156
330
1
100
AcDbSymbolTableRecord
100
AcDbBlockTableRecord
  2
*D19
  0
BLOCK_RECORD
  5
163
330
1
100
AcDbSymbolTableRecord
100
AcDbBlockTableRecord
  2
*D20
  0
BLOCK_RECORD
  5
170
330
1
100
AcDbSymbolTableRecord
100
AcDbBlockTableRecord
  2
*D21
  0
BLOCK_RECORD
  5
17D
330
1
100
AcDbSymbolTableRecord
100
AcDbBlockTableRecord
  2
*D22
  0
BLOCK_RECORD
  5
189
330
1
100
AcDbSymbolTableRecord
100
AcDbBlockTableRecord
  2
*D23
  0
BLOCK_RECORD
  5
195
330
1
100
AcDbSymbolTableRecord
100
AcDbBlockTableRecord
  2
*D24
  0
BLOCK_RECORD
  5
1A2
330
1
100
AcDbSymbolTableRecord
100
AcDbBlockTableRecord
  2
*D25
  0
BLOCK_RECORD
  5
1AF
330
1
100
AcDbSymbolTableRecord
100
AcDbBlockTableRecord
  2
*D26
  0
BLOCK_RECORD
  5
1BD
330
1
100
AcDbSymbolTableRecord
100
AcDbBlockTableRecord
  2
*D27
  0
BLOCK_RECORD
  5
1CC
330
1
100
AcDbSymbolTableRecord
100
AcDbBlockTableRecord
  2
*D28
  0
BLOCK_RECORD
  5
3DB
330
1
100
AcDbSymbolTableRecord
100
AcDbBlockTableRecord
  2
*D29
  0
BLOCK_RECORD
  5
3EC
330
1
100
AcDbSymbolTableRecord
100
AcDbBlockTableRecord
  2
*D30
  0
BLOCK_RECORD
  5
3F9
330
1
100
AcDbSymbolTableRecord
100
AcDbBlockTableRecord
  2
*D31
  0
BLOCK_RECORD
  5
4C6
330
1
100
AcDbSymbolTableRecord
100
AcDbBlockTableRecord
  2
*D32
  0
ENDTAB
  0
ENDSEC
  0
SECTION
  2
BLOCKS
  0
BLOCK
  5
20
330
1F
100
AcDbEntity
  8
0
100
AcDbBlockBegin
  2
*MODEL_SPACE
 70
     0
 10
0.0
 20
0.0
 30
0.0
  3
*MODEL_SPACE
  1

  0
ENDBLK
  5
21
330
1F
100
AcDbEntity
  8
0
100
AcDbBlockEnd
  0
BLOCK
  5
1C
330
1B
100
AcDbEntity
 67
     1
  8
0
100
AcDbBlockBegin
  2
*PAPER_SPACE
 70
     0
 10
0.0
 20
0.0
 30
0.0
  3
*PAPER_SPACE
  1

  0
ENDBLK
  5
1D
330
1B
100
AcDbEntity
 67
     1
  8
0
100
AcDbBlockEnd
  0
BLOCK
  5
79
330
78
100
AcDbEntity
  8
0
100
AcDbBlockBegin
  2
EX_NORM
 70
     0
 10
0.0
 20
0.0
 30
0.0
  3
EX_NORM
  1

  0
LINE
  5
A2
330
78
100
AcDbEntity
  8
0
  6
CONTINUOUS
 62
     0
100
AcDbLine
 10
0.0
 20
0.0
 30
0.0
 11
-1.0
 21
0.0
 31
0.0
  0
LINE
  5
A3
330
78
100
AcDbEntity
  8
0
  6
CONTINUOUS
 62
     0
100
AcDbLine
 10
0.0
 20
0.0
 30
0.0
 11
-1.0
 21
0.166666667
 31
0.0
  0
LINE
  5
A4
330
78
100
AcDbEntity
  8
0
  6
CONTINUOUS
 62
     0
100
AcDbLine
 10
0.0
 20
0.0
 30
0.0
 11
-1.0
 21
-0.166666667
 31
0.0
  0
ENDBLK
  5
7A
330
78
100
AcDbEntity
  8
0
100
AcDbBlockEnd
  0
BLOCK
  5
7C
330
7B
100
AcDbEntity
  8
0
100
AcDbBlockBegin
  2
EX_BNORM
 70
     0
 10
0.0
 20
0.0
 30
0.0
  3
EX_BNORM
  1

  0
LINE
  5
A5
330
7B
100
AcDbEntity
  8
0
  6
CONTINUOUS
 62
     0
100
AcDbLine
 10
0.0
 20
0.0
 30
0.0
 11
-1.0
 21
0.0
 31
0.0
  0
LINE
  5
A6
330
7B
100
AcDbEntity
  8
0
  6
CONTINUOUS
 62
     0
100
AcDbLine
 10
0.0
 20
0.0
 30
0.0
 11
-1.0
 21
0.166666667
 31
0.0
  0
LINE
  5
A7
330
7B
100
AcDbEntity
  8
0
  6
CONTINUOUS
 62
     0
100
AcDbLine
 10
0.0
 20
0.0
 30
0.0
 11
-1.0
 21
-0.166666667
 31
0.0
  0
LINE
  5
A8
330
7B
100
AcDbEntity
  8
0
  6
CONTINUOUS
 62
     0
100
AcDbLine
 10
0.0
 20
0.0
 30
0.0
 11
-1.0
 21
0.083333333
 31
0.0
  0
LINE
  5
A9
330
7B
100
AcDbEntity
  8
0
  6
CONTINUOUS
 62
     0
100
AcDbLine
 10
0.0
 20
0.0
 30
0.0
 11
-1.0
 21
-0.083333333
 31
0.0
  0
LINE
  5
AA
330
7B
100
AcDbEntity
  8
0
  6
CONTINUOUS
 62
     0
100
AcDbLine
 10
-1.0
 20
0.166666667
 30
0.0
 11
-1.0
 21
-0.166666667
 31
0.0
  0
ENDBLK
  5
7D
330
7B
100
AcDbEntity
  8
0
100
AcDbBlockEnd
  0
BLOCK
  5
7F
330
7E
100
AcDbEntity
  8
0
100
AcDbBlockBegin
  2
EX_BCIR
 70
     0
 10
0.0
 20
0.0
 30
0.0
  3
EX_BCIR
  1

  0
LINE
  5
AB
330
7E
100
AcDbEntity
  8
0
  6
CONTINUOUS
 62
     0
100
AcDbLine
 10
0.0
 20
0.0
 30
0.0
 11
-1.0
 21
0.0
 31
0.0
  0
CIRCLE
  5
AC
330
7E
100
AcDbEntity
  8
0
  6
CONTINUOUS
 62
     0
100
AcDbCircle
 10
0.0
 20
0.0
 30
0.0
 40
0.5
  0
CIRCLE
  5
AD
330
7E
100
AcDbEntity
  8
0
  6
CONTINUOUS
 62
     0
100
AcDbCircle
 10
0.0
 20
0.0
 30
0.0
 40
0.25
  0
ENDBLK
  5
80
330
7E
100
AcDbEntity
  8
0
100
AcDbBlockEnd
  0
BLOCK
  5
82
330
81
100
AcDbEntity
  8
0
100
AcDbBlockBegin
  2
EX_RCIVIL
 70
     0
 10
0.0
 20
0.0
 30
0.0
  3
EX_RCIVIL
  1

  0
LINE
  5
AE
330
81
100
AcDbEntity
  8
0
  6
CONTINUOUS
 62
     0
100
AcDbLine
 10
0.0
 20
0.0
 30
0.0
 11
-1.0
 21
0.0
 31
0.0
  0
LINE
  5
AF
330
81
100
AcDbEntity
  8
0
  6
CONTINUOUS
 62
     0
100
AcDbLine
 10
-1.0
 20
-0.25
 30
0.0
 11
0.0
 21
-0.25
 31
0.0
  0
LINE
  5
B0
330
81
100
AcDbEntity
  8
0
  6
CONTINUOUS
 62
     0
100
AcDbLine
 10
-1.0
 20
-0.125
 30
0.0
 11
0.0
 21
-0.125
 31
0.0
  0
ENDBLK
  5
83
330
81
100
AcDbEntity
  8
0
100
AcDbBlockEnd
  0
BLOCK
  5
85
330
84
100
AcDbEntity
  8
0
100
AcDbBlockBegin
  2
EX_SLANT
 70
     0
 10
0.0
 20
0.0
 30
0.0
  3
EX_SLANT
  1

  0
LINE
  5
B1
330
84
100
AcDbEntity
  8
0
  6
CONTINUOUS
 62
     0
100
AcDbLine
 10
0.0
 20
0.0
 30
0.0
 11
-1.0
 21
0.0
 31
0.0
  0
LINE
  5
B2
330
84
100
AcDbEntity
  8
0
  6
CONTINUOUS
 62
     0
100
AcDbLine
 10
0.707106781
 20
0.707106781
 30
0.0
 11
-0.707106781
 21
-0.707106781
 31
0.0
  0
ENDBLK
  5
86
330
84
100
AcDbEntity
  8
0
100
AcDbBlockEnd
  0
BLOCK
  5
88
330
87
100
AcDbEntity
  8
0
100
AcDbBlockBegin
  2
EX_NONE
 70
     0
 10
0.0
 20
0.0
 30
0.0
  3
EX_NONE
  1

  0
LINE
  5
B3
330
87
100
AcDbEntity
  8
0
  6
CONTINUOUS
 62
     0
100
AcDbLine
 10
0.0
 20
0.0
 30
0.0
 11
-1.0
 21
0.0
 31
0.0
  0
ENDBLK
  5
89
330
87
100
AcDbEntity
  8
0
100
AcDbBlockEnd
  0
BLOCK
  5
8B
330
8A
100
AcDbEntity
  8
0
100
AcDbBlockBegin
  2
EX_CIVIL
 70
     0
 10
0.0
 20
0.0
 30
0.0
  3
EX_CIVIL
  1

  0
LINE
  5
B4
330
8A
100
AcDbEntity
  8
0
  6
CONTINUOUS
 62
     0
100
AcDbLine
 10
0.0
 20
0.0
 30
0.0
 11
-1.0
 21
0.0
 31
0.0
  0
LINE
  5
B5
330
8A
100
AcDbEntity
  8
0
  6
CONTINUOUS
 62
     0
100
AcDbLine
 10
-1.0
 20
0.25
 30
0.0
 11
0.0
 21
0.25
 31
0.0
  0
LINE
  5
B6
330
8A
100
AcDbEntity
  8
0
  6
CONTINUOUS
 62
     0
100
AcDbLine
 10
-1.0
 20
0.125
 30
0.0
 11
0.0
 21
0.125
 31
0.0
  0
ENDBLK
  5
8C
330
8A
100
AcDbEntity
  8
0
100
AcDbBlockEnd
  0
BLOCK
  5
8E
330
8D
100
AcDbEntity
  8
0
100
AcDbBlockBegin
  2
EX_WCIR
 70
     0
 10
0.0
 20
0.0
 30
0.0
  3
EX_WCIR
  1

  0
LINE
  5
B7
330
8D
100
AcDbEntity
  8
0
  6
CONTINUOUS
 62
     0
100
AcDbLine
 10
0.0
 20
0.0
 30
0.0
 11
-1.0
 21
0.0
 31
0.0
  0
CIRCLE
  5
B8
330
8D
100
AcDbEntity
  8
0
  6
CONTINUOUS
 62
     0
100
AcDbCircle
 10
0.0
 20
0.0
 30
0.0
 40
0.5
  0
ENDBLK
  5
8F
330
8D
100
AcDbEntity
  8
0
100
AcDbBlockEnd
  0
BLOCK
  5
91
330
90
100
AcDbEntity
  8
0
100
AcDbBlockBegin
  2
EX_WCIR2
 70
     0
 10
0.0
 20
0.0
 30
0.0
  3
EX_WCIR2
  1

  0
LINE
  5
B9
330
90
100
AcDbEntity
  8
0
  6
CONTINUOUS
 62
     0
100
AcDbLine
 10
-0.5
 20
0.0
 30
0.0
 11
-1.0
 21
0.0
 31
0.0
  0
CIRCLE
  5
BA
330
90
100
AcDbEntity
  8
0
  6
CONTINUOUS
 62
     0
100
AcDbCircle
 10
0.0
 20
0.0
 30
0.0
 40
0.5
  0
ENDBLK
  5
92
330
90
100
AcDbEntity
  8
0
100
AcDbBlockEnd
  0
BLOCK
  5
94
330
93
100
AcDbEntity
  8
0
100
AcDbBlockBegin
  2
EX_WNORM
 70
     0
 10
0.0
 20
0.0
 30
0.0
  3
EX_WNORM
  1

  0
LINE
  5
BB
330
93
100
AcDbEntity
  8
0
  6
CONTINUOUS
 62
     0
100
AcDbLine
 10
-1.0
 20
0.0
 30
0.0
 11
-1.0
 21
0.0
 31
0.0
  0
LINE
  5
BC
330
93
100
AcDbEntity
  8
0
  6
CONTINUOUS
 62
     0
100
AcDbLine
 10
0.0
 20
0.0
 30
0.0
 11
-1.0
 21
0.166666667
 31
0.0
  0
LINE
  5
BD
330
93
100
AcDbEntity
  8
0
  6
CONTINUOUS
 62
     0
100
AcDbLine
 10
0.0
 20
0.0
 30
0.0
 11
-1.0
 21
-0.166666667
 31
0.0
  0
LINE
  5
BE
330
93
100
AcDbEntity
  8
0
  6
CONTINUOUS
 62
     0
100
AcDbLine
 10
-1.0
 20
0.166666667
 30
0.0
 11
-1.0
 21
-0.166666667
 31
0.0
  0
ENDBLK
  5
95
330
93
100
AcDbEntity
  8
0
100
AcDbBlockEnd
  0
BLOCK
  5
97
330
96
100
AcDbEntity
  8
0
100
AcDbBlockBegin
  2
EX_NNORM
 70
     0
 10
0.0
 20
0.0
 30
0.0
  3
EX_NNORM
  1

  0
LINE
  5
BF
330
96
100
AcDbEntity
  8
0
  6
CONTINUOUS
 62
     0
100
AcDbLine
 10
0.0
 20
0.0
 30
0.0
 11
-1.0
 21
0.0
 31
0.0
  0
LINE
  5
C0
330
96
100
AcDbEntity
  8
0
  6
CONTINUOUS
 62
     0
100
AcDbLine
 10
0.0
 20
0.0
 30
0.0
 11
-1.0
 21
0.166666667
 31
0.0
  0
LINE
  5
C1
330
96
100
AcDbEntity
  8
0
  6
CONTINUOUS
 62
     0
100
AcDbLine
 10
0.0
 20
0.0
 30
0.0
 11
-1.0
 21
-0.166666667
 31
0.0
  0
LINE
  5
C2
330
96
100
AcDbEntity
  8
0
  6
CONTINUOUS
 62
     0
100
AcDbLine
 10
-1.0
 20
0.166666667
 30
0.0
 11
-1.0
 21
-0.166666667
 31
0.0
  0
ENDBLK
  5
98
330
96
100
AcDbEntity
  8
0
100
AcDbBlockEnd
  0
BLOCK
  5
9A
330
99
100
AcDbEntity
  8
0
100
AcDbBlockBegin
  2
EX_BBOX
 70
     0
 10
0.0
 20
0.0
 30
0.0
  3
EX_BBOX
  1

  0
LINE
  5
C3
330
99
100
AcDbEntity
  8
0
  6
CONTINUOUS
 62
     0
100
AcDbLine
 10
0.0
 20
0.0
 30
0.0
 11
-1.0
 21
0.0
 31
0.0
  0
LINE
  5
C4
330
99
100
AcDbEntity
  8
0
  6
CONTINUOUS
 62
     0
100
AcDbLine
 10
-0.5
 20
0.5
 30
0.0
 11
0.5
 21
0.5
 31
0.0
  0
LINE
  5
C5
330
99
100
AcDbEntity
  8
0
  6
CONTINUOUS
 62
     0
100
AcDbLine
 10
0.5
 20
0.5
 30
0.0
 11
0.5
 21
-0.5
 31
0.0
  0
LINE
  5
C6
330
99
100
AcDbEntity
  8
0
  6
CONTINUOUS
 62
     0
100
AcDbLine
 10
0.5
 20
-0.5
 30
0.0
 11
-0.5
 21
-0.5
 31
0.0
  0
LINE
  5
C7
330
99
100
AcDbEntity
  8
0
  6
CONTINUOUS
 62
     0
100
AcDbLine
 10
-0.5
 20
-0.5
 30
0.0
 11
-0.5
 21
0.5
 31
0.0
  0
LINE
  5
C8
330
99
100
AcDbEntity
  8
0
  6
CONTINUOUS
 62
     0
100
AcDbLine
 10
-0.25
 20
0.25
 30
0.0
 11
0.25
 21
0.25
 31
0.0
  0
LINE
  5
C9
330
99
100
AcDbEntity
  8
0
  6
CONTINUOUS
 62
     0
100
AcDbLine
 10
0.25
 20
0.25
 30
0.0
 11
0.25
 21
-0.25
 31
0.0
  0
LINE
  5
CA
330
99
100
AcDbEntity
  8
0
  6
CONTINUOUS
 62
     0
100
AcDbLine
 10
0.25
 20
-0.25
 30
0.0
 11
-0.25
 21
-0.25
 31
0.0
  0
LINE
  5
CB
330
99
100
AcDbEntity
  8
0
  6
CONTINUOUS
 62
     0
100
AcDbLine
 10
-0.25
 20
-0.25
 30
0.0
 11
-0.25
 21
0.25
 31
0.0
  0
ENDBLK
  5
9B
330
99
100
AcDbEntity
  8
0
100
AcDbBlockEnd
  0
BLOCK
  5
9D
330
9C
100
AcDbEntity
  8
0
100
AcDbBlockBegin
  2
EX_WBOX
 70
     0
 10
0.0
 20
0.0
 30
0.0
  3
EX_WBOX
  1

  0
LINE
  5
CC
330
9C
100
AcDbEntity
  8
0
  6
CONTINUOUS
 62
     0
100
AcDbLine
 10
-0.5
 20
0.0
 30
0.0
 11
-1.0
 21
0.0
 31
0.0
  0
LINE
  5
CD
330
9C
100
AcDbEntity
  8
0
  6
CONTINUOUS
 62
     0
100
AcDbLine
 10
-0.5
 20
0.5
 30
0.0
 11
0.5
 21
0.5
 31
0.0
  0
LINE
  5
CE
330
9C
100
AcDbEntity
  8
0
  6
CONTINUOUS
 62
     0
100
AcDbLine
 10
0.5
 20
0.5
 30
0.0
 11
0.5
 21
-0.5
 31
0.0
  0
LINE
  5
CF
330
9C
100
AcDbEntity
  8
0
  6
CONTINUOUS
 62
     0
100
AcDbLine
 10
0.5
 20
-0.5
 30
0.0
 11
-0.5
 21
-0.5
 31
0.0
  0
LINE
  5
D0
330
9C
100
AcDbEntity
  8
0
  6
CONTINUOUS
 62
     0
100
AcDbLine
 10
-0.5
 20
-0.5
 30
0.0
 11
-0.5
 21
0.5
 31
0.0
  0
ENDBLK
  5
9E
330
9C
100
AcDbEntity
  8
0
100
AcDbBlockEnd
  0
BLOCK
  5
A0
330
9F
100
AcDbEntity
  8
0
100
AcDbBlockBegin
  2
EX_INTEGRAL
 70
     0
 10
0.0
 20
0.0
 30
0.0
  3
EX_INTEGRAL
  1

  0
LINE
  5
D1
330
9F
100
AcDbEntity
  8
0
  6
CONTINUOUS
 62
     0
100
AcDbLine
 10
0.0
 20
0.0
 30
0.0
 11
-1.0
 21
0.0
 31
0.0
  0
ARC
  5
D2
330
9F
100
AcDbEntity
  8
0
  6
CONTINUOUS
 62
     0
100
AcDbCircle
 10
0.542115
 20
0.164992
 30
0.0
 40
0.56667
100
AcDbArc
 50
73.07249033629006
 51
196.9275130221199
  0
ARC
  5
D3
330
9F
100
AcDbEntity
  8
0
  6
CONTINUOUS
 62
     0
100
AcDbCircle
 10
-0.542115
 20
-0.164992
 30
0.0
 40
0.56667
100
AcDbArc
 50
253.0724869220464
 51
16.9275130559125
  0
ENDBLK
  5
A1
330
9F
100
AcDbEntity
  8
0
100
AcDbBlockEnd
  0
BLOCK
  5
125
330
124
100
AcDbEntity
  8
0
100
AcDbBlockBegin
  2
*D15
 70
     1
 10
0.0
 20
0.0
 30
0.0
  3
*D15
  1

  0
LINE
  5
127
330
124
100
AcDbEntity
  8
Ｓ_１_１
  6
CONTINUOUS
 62
     2
100
AcDbLine
 10
964.4999939999997
 20
299.999999999996
 30
0.0
 11
1183.0
 21
299.999999999996
 31
0.0
  0
LINE
  5
128
330
124
100
AcDbEntity
  8
Ｓ_１_１
  6
CONTINUOUS
 62
     2
100
AcDbLine
 10
989.499994
 20
129.999999999996
 30
0.0
 11
1183.0
 21
129.999999999996
 31
0.0
  0
LINE
  5
129
330
124
100
AcDbEntity
  8
Ｓ_１_１
  6
CONTINUOUS
 62
     2
100
AcDbLine
 10
1180.0
 20
290.999999999996
 30
0.0
 11
1180.0
 21
138.999999999996
 31
0.0
  0
INSERT
  5
12A
330
124
100
AcDbEntity
  8
Ｓ_１_１
 62
     2
100
AcDbBlockReference
  2
EX_NORM
 10
1180.0
 20
299.999999999996
 30
0.0
 41
9.0
 42
9.0
 43
9.0
 50
90.0
  0
INSERT
  5
12B
330
124
100
AcDbEntity
  8
Ｓ_１_１
 62
     2
100
AcDbBlockReference
  2
EX_NORM
 10
1180.0
 20
129.999999999996
 30
0.0
 41
9.0
 42
9.0
 43
9.0
 50
270.0
  0
MTEXT
  5
12C
330
124
100
AcDbEntity
  8
Ｓ_１_１
 62
     2
100
AcDbMText
 10
1171.75
 20
214.9999999999956
 30
0.0
 40
10.38871247113164
 41
0.0
 71
     5
 72
     1
  1
170
  7
EXCADDIM1
 11
0.0
 21
1.0
 31
0.0
  0
POINT
  5
12D
330
124
100
AcDbEntity
  8
DEFPOINTS
 62
     0
100
AcDbPoint
 10
959.9999939999997
 20
299.999999999996
 30
0.0
  0
POINT
  5
12E
330
124
100
AcDbEntity
  8
DEFPOINTS
 62
     0
100
AcDbPoint
 10
984.999994
 20
129.999999999996
 30
0.0
  0
POINT
  5
12F
330
124
100
AcDbEntity
  8
DEFPOINTS
 62
     0
100
AcDbPoint
 10
1180.0
 20
129.999999999996
 30
0.0
  0
ENDBLK
  5
126
330
124
100
AcDbEntity
  8
0
100
AcDbBlockEnd
  0
BLOCK
  5
132
330
131
100
AcDbEntity
  8
0
100
AcDbBlockBegin
  2
*D16
 70
     1
 10
0.0
 20
0.0
 30
0.0
  3
*D16
  1

  0
LINE
  5
134
330
131
100
AcDbEntity
  8
Ｓ_１_１
  6
CONTINUOUS
 62
     2
100
AcDbLine
 10
976.0
 20
60.00000000000023
 30
0.0
 11
943.9999999999998
 21
60.00000000000023
 31
0.0
  0
INSERT
  5
135
330
131
100
AcDbEntity
  8
Ｓ_１_１
 62
     2
100
AcDbBlockReference
  2
EX_NORM
 10
985.0
 20
60.00000000000023
 30
0.0
 41
9.0
 42
9.0
 43
9.0
  0
INSERT
  5
136
330
131
100
AcDbEntity
  8
Ｓ_１_１
 62
     2
100
AcDbBlockReference
  2
EX_NORM
 10
934.9999999999998
 20
60.00000000000023
 30
0.0
 41
9.0
 42
9.0
 43
9.0
 50
180.0
  0
MTEXT
  5
137
330
131
100
AcDbEntity
  8
Ｓ_１_１
 62
     2
100
AcDbMText
 10
960.0
 20
68.24999999999997
 30
0.0
 40
10.38871247113164
 41
0.0
 71
     5
 72
     1
  1
50
  7
EXCADDIM1
  0
POINT
  5
138
330
131
100
AcDbEntity
  8
DEFPOINTS
 62
     0
100
AcDbPoint
 10
985.0
 20
129.999997999996
 30
0.0
  0
POINT
  5
139
330
131
100
AcDbEntity
  8
DEFPOINTS
 62
     0
100
AcDbPoint
 10
934.9999999999998
 20
129.999997999996
 30
0.0
  0
POINT
  5
13A
330
131
100
AcDbEntity
  8
DEFPOINTS
 62
     0
100
AcDbPoint
 10
934.9999999999998
 20
60.00000000000023
 30
0.0
  0
ENDBLK
  5
133
330
131
100
AcDbEntity
  8
0
100
AcDbBlockEnd
  0
BLOCK
  5
13D
330
13C
100
AcDbEntity
  8
0
100
AcDbBlockBegin
  2
*D17
 70
     1
 10
0.0
 20
0.0
 30
0.0
  3
*D17
  1

  0
LINE
  5
13F
330
13C
100
AcDbEntity
  8
Ｓ_１_１
  6
CONTINUOUS
 62
     2
100
AcDbLine
 10
631.0
 20
775.4999989999358
 30
0.0
 11
631.0
 21
537.0000000000006
 31
0.0
  0
LINE
  5
140
330
13C
100
AcDbEntity
  8
Ｓ_１_１
  6
CONTINUOUS
 62
     2
100
AcDbLine
 10
169.0
 20
775.4999989999358
 30
0.0
 11
169.0
 21
537.0000000000006
 31
0.0
  0
LINE
  5
141
330
13C
100
AcDbEntity
  8
Ｓ_１_１
  6
CONTINUOUS
 62
     2
100
AcDbLine
 10
622.0
 20
540.0000000000005
 30
0.0
 11
178.0
 21
540.0000000000005
 31
0.0
  0
INSERT
  5
142
330
13C
100
AcDbEntity
  8
Ｓ_１_１
 62
     2
100
AcDbBlockReference
  2
EX_NORM
 10
631.0
 20
540.0000000000005
 30
0.0
 41
9.0
 42
9.0
 43
9.0
  0
INSERT
  5
143
330
13C
100
AcDbEntity
  8
Ｓ_１_１
 62
     2
100
AcDbBlockReference
  2
EX_NORM
 10
169.0
 20
540.0000000000005
 30
0.0
 41
9.0
 42
9.0
 43
9.0
 50
180.0
  0
MTEXT
  5
144
330
13C
100
AcDbEntity
  8
Ｓ_１_１
 62
     2
100
AcDbMText
 10
400.0000000000005
 20
548.25
 30
0.0
 40
10.38871247113164
 41
0.0
 71
     5
 72
     1
  1
462
  7
EXCADDIM1
  0
POINT
  5
145
330
13C
100
AcDbEntity
  8
DEFPOINTS
 62
     0
100
AcDbPoint
 10
631.0
 20
779.9999989999358
 30
0.0
  0
POINT
  5
146
330
13C
100
AcDbEntity
  8
DEFPOINTS
 62
     0
100
AcDbPoint
 10
169.0
 20
779.9999989999358
 30
0.0
  0
POINT
  5
147
330
13C
100
AcDbEntity
  8
DEFPOINTS
 62
     0
100
AcDbPoint
 10
169.0
 20
540.0000000000005
 30
0.0
  0
ENDBLK
  5
13E
330
13C
100
AcDbEntity
  8
0
100
AcDbBlockEnd
  0
BLOCK
  5
14A
330
149
100
AcDbEntity
  8
0
100
AcDbBlockBegin
  2
*D18
 70
     1
 10
0.0
 20
0.0
 30
0.0
  3
*D18
  1

  0
LINE
  5
14C
330
149
100
AcDbEntity
  8
Ｓ_１_１
  6
CONTINUOUS
 62
     2
100
AcDbLine
 10
245.0000109999999
 20
361.4999999999959
 30
0.0
 11
245.000011
 21
483.0
 31
0.0
  0
LINE
  5
14D
330
149
100
AcDbEntity
  8
Ｓ_１_１
  6
CONTINUOUS
 62
     2
100
AcDbLine
 10
555.0000109999999
 20
361.4999999999959
 30
0.0
 11
555.0000109999999
 21
483.0
 31
0.0
  0
LINE
  5
14E
330
149
100
AcDbEntity
  8
Ｓ_１_１
  6
CONTINUOUS
 62
     2
100
AcDbLine
 10
254.000011
 20
480.0
 30
0.0
 11
546.0000109999999
 21
480.0
 31
0.0
  0
INSERT
  5
14F
330
149
100
AcDbEntity
  8
Ｓ_１_１
 62
     2
100
AcDbBlockReference
  2
EX_NORM
 10
245.000011
 20
480.0
 30
0.0
 41
9.0
 42
9.0
 43
9.0
 50
180.0
  0
INSERT
  5
150
330
149
100
AcDbEntity
  8
Ｓ_１_１
 62
     2
100
AcDbBlockReference
  2
EX_NORM
 10
555.0000109999999
 20
480.0
 30
0.0
 41
9.0
 42
9.0
 43
9.0
  0
MTEXT
  5
151
330
149
100
AcDbEntity
  8
Ｓ_１_１
 62
     2
100
AcDbMText
 10
400.0000109999997
 20
488.25
 30
0.0
 40
10.38871247113164
 41
0.0
 71
     5
 72
     1
  1
%%c310
  7
EXCADDIM1
  0
POINT
  5
152
330
149
100
AcDbEntity
  8
DEFPOINTS
 62
     0
100
AcDbPoint
 10
245.0000109999999
 20
356.9999999999959
 30
0.0
  0
POINT
  5
153
330
149
100
AcDbEntity
  8
DEFPOINTS
 62
     0
100
AcDbPoint
 10
555.0000109999999
 20
356.9999999999959
 30
0.0
  0
POINT
  5
154
330
149
100
AcDbEntity
  8
DEFPOINTS
 62
     0
100
AcDbPoint
 10
555.0000109999999
 20
480.0
 30
0.0
  0
ENDBLK
  5
14B
330
149
100
AcDbEntity
  8
0
100
AcDbBlockEnd
  0
BLOCK
  5
157
330
156
100
AcDbEntity
  8
0
100
AcDbBlockBegin
  2
*D19
 70
     1
 10
0.0
 20
0.0
 30
0.0
  3
*D19
  1

  0
LINE
  5
159
330
156
100
AcDbEntity
  8
Ｓ_１_１
  6
CONTINUOUS
 62
     2
100
AcDbLine
 10
300.000011
 20
364.5000009999959
 30
0.0
 11
300.000011
 21
443.0
 31
0.0
  0
LINE
  5
15A
330
156
100
AcDbEntity
  8
Ｓ_１_１
  6
CONTINUOUS
 62
     2
100
AcDbLine
 10
500.0000109999999
 20
364.5000009999959
 30
0.0
 11
500.0000109999999
 21
443.0
 31
0.0
  0
LINE
  5
15B
330
156
100
AcDbEntity
  8
Ｓ_１_１
  6
CONTINUOUS
 62
     2
100
AcDbLine
 10
309.000011
 20
440.0
 30
0.0
 11
491.0000109999999
 21
440.0
 31
0.0
  0
INSERT
  5
15C
330
156
100
AcDbEntity
  8
Ｓ_１_１
 62
     2
100
AcDbBlockReference
  2
EX_NORM
 10
300.000011
 20
440.0
 30
0.0
 41
9.0
 42
9.0
 43
9.0
 50
180.0
  0
INSERT
  5
15D
330
156
100
AcDbEntity
  8
Ｓ_１_１
 62
     2
100
AcDbBlockReference
  2
EX_NORM
 10
500.0000109999999
 20
440.0
 30
0.0
 41
9.0
 42
9.0
 43
9.0
  0
MTEXT
  5
15E
330
156
100
AcDbEntity
  8
Ｓ_１_１
 62
     2
100
AcDbMText
 10
400.0000109999999
 20
448.25
 30
0.0
 40
10.38871247113164
 41
0.0
 71
     5
 72
     1
  1
Tr200×6
  7
EXCADDIM1
  0
POINT
  5
15F
330
156
100
AcDbEntity
  8
DEFPOINTS
 62
     0
100
AcDbPoint
 10
300.000011
 20
360.0000009999959
 30
0.0
  0
POINT
  5
160
330
156
100
AcDbEntity
  8
DEFPOINTS
 62
     0
100
AcDbPoint
 10
500.0000109999999
 20
360.0000009999959
 30
0.0
  0
POINT
  5
161
330
156
100
AcDbEntity
  8
DEFPOINTS
 62
     0
100
AcDbPoint
 10
500.0000109999999
 20
440.0
 30
0.0
  0
ENDBLK
  5
158
330
156
100
AcDbEntity
  8
0
100
AcDbBlockEnd
  0
BLOCK
  5
164
330
163
100
AcDbEntity
  8
0
100
AcDbBlockBegin
  2
*D20
 70
     1
 10
0.0
 20
0.0
 30
0.0
  3
*D20
  1

  0
LINE
  5
166
330
163
100
AcDbEntity
  8
Ｓ_１_１
  6
CONTINUOUS
 62
     2
100
AcDbLine
 10
560.0000109999999
 20
118.499998999996
 30
0.0
 11
560.0000109999999
 21
57.00000000000023
 31
0.0
  0
LINE
  5
167
330
163
100
AcDbEntity
  8
Ｓ_１_１
  6
CONTINUOUS
 62
     2
100
AcDbLine
 10
240.0000109999999
 20
118.499998999996
 30
0.0
 11
240.0000109999999
 21
57.00000000000023
 31
0.0
  0
LINE
  5
168
330
163
100
AcDbEntity
  8
Ｓ_１_１
  6
CONTINUOUS
 62
     2
100
AcDbLine
 10
551.0000109999999
 20
60.00000000000023
 30
0.0
 11
249.0000109999999
 21
60.00000000000023
 31
0.0
  0
INSERT
  5
169
330
163
100
AcDbEntity
  8
Ｓ_１_１
 62
     2
100
AcDbBlockReference
  2
EX_NORM
 10
560.0000109999999
 20
60.00000000000023
 30
0.0
 41
9.0
 42
9.0
 43
9.0
  0
INSERT
  5
16A
330
163
100
AcDbEntity
  8
Ｓ_１_１
 62
     2
100
AcDbBlockReference
  2
EX_NORM
 10
240.0000109999999
 20
60.00000000000023
 30
0.0
 41
9.0
 42
9.0
 43
9.0
 50
180.0
  0
MTEXT
  5
16B
330
163
100
AcDbEntity
  8
Ｓ_１_１
 62
     2
100
AcDbMText
 10
400.0000109999999
 20
68.25000000000003
 30
0.0
 40
10.38871247113164
 41
0.0
 71
     5
 72
     1
  1
%%c320
  7
EXCADDIM1
  0
POINT
  5
16C
330
163
100
AcDbEntity
  8
DEFPOINTS
 62
     0
100
AcDbPoint
 10
560.0000109999999
 20
122.999998999996
 30
0.0
  0
POINT
  5
16D
330
163
100
AcDbEntity
  8
DEFPOINTS
 62
     0
100
AcDbPoint
 10
240.0000109999999
 20
122.999998999996
 30
0.0
  0
POINT
  5
16E
330
163
100
AcDbEntity
  8
DEFPOINTS
 62
     0
100
AcDbPoint
 10
240.0000109999999
 20
60.00000000000023
 30
0.0
  0
ENDBLK
  5
165
330
163
100
AcDbEntity
  8
0
100
AcDbBlockEnd
  0
BLOCK
  5
171
330
170
100
AcDbEntity
  8
0
100
AcDbBlockBegin
  2
*D21
 70
     1
 10
0.0
 20
0.0
 30
0.0
  3
*D21
  1

  0
LINE
  5
173
330
170
100
AcDbEntity
  8
Ｓ_１_１
  6
CONTINUOUS
 62
     2
100
AcDbLine
 10
238.5000129999999
 20
119.999999999996
 30
0.0
 11
117.0
 21
119.999999999996
 31
0.0
  0
LINE
  5
174
330
170
100
AcDbEntity
  8
Ｓ_１_１
  6
CONTINUOUS
 62
     2
100
AcDbLine
 10
273.4999979999999
 20
399.9999999999959
 30
0.0
 11
117.0
 21
399.9999999999959
 31
0.0
  0
LINE
  5
175
330
170
100
AcDbEntity
  8
Ｓ_１_１
  6
CONTINUOUS
 62
     2
100
AcDbLine
 10
120.0
 20
128.999999999996
 30
0.0
 11
120.0
 21
390.9999999999959
 31
0.0
  0
INSERT
  5
176
330
170
100
AcDbEntity
  8
Ｓ_１_１
 62
     2
100
AcDbBlockReference
  2
EX_NORM
 10
120.0
 20
119.999999999996
 30
0.0
 41
9.0
 42
9.0
 43
9.0
 50
270.0
  0
INSERT
  5
177
330
170
100
AcDbEntity
  8
Ｓ_１_１
 62
     2
100
AcDbBlockReference
  2
EX_NORM
 10
120.0
 20
399.9999999999959
 30
0.0
 41
9.0
 42
9.0
 43
9.0
 50
90.0
  0
MTEXT
  5
178
330
170
100
AcDbEntity
  8
Ｓ_１_１
 62
     2
100
AcDbMText
 10
111.7500000000001
 20
259.9999999999959
 30
0.0
 40
10.38871247113164
 41
0.0
 71
     5
 72
     1
  1
280
  7
EXCADDIM1
 11
5.075305255429290E-17
 21
1.0
 31
0.0
  0
POINT
  5
179
330
170
100
AcDbEntity
  8
DEFPOINTS
 62
     0
100
AcDbPoint
 10
243.0000129999999
 20
119.999999999996
 30
0.0
  0
POINT
  5
17A
330
170
100
AcDbEntity
  8
DEFPOINTS
 62
     0
100
AcDbPoint
 10
277.9999979999999
 20
399.9999999999959
 30
0.0
  0
POINT
  5
17B
330
170
100
AcDbEntity
  8
DEFPOINTS
 62
     0
100
AcDbPoint
 10
120.0
 20
399.9999999999959
 30
0.0
  0
ENDBLK
  5
172
330
170
100
AcDbEntity
  8
0
100
AcDbBlockEnd
  0
BLOCK
  5
17E
330
17D
100
AcDbEntity
  8
0
100
AcDbBlockBegin
  2
*D22
 70
     1
 10
0.0
 20
0.0
 30
0.0
  3
*D22
  1

  0
LINE
  5
180
330
17D
100
AcDbEntity
  8
Ｓ_１_１
  6
CONTINUOUS
 62
     2
100
AcDbLine
 10
273.499999
 20
399.9999999999959
 30
0.0
 11
136.9999999999998
 21
399.9999999999959
 31
0.0
  0
LINE
  5
181
330
17D
100
AcDbEntity
  8
Ｓ_１_１
  6
CONTINUOUS
 62
     2
100
AcDbLine
 10
139.9999999999998
 20
368.9999999999959
 30
0.0
 11
139.9999999999998
 21
390.9999999999959
 31
0.0
  0
INSERT
  5
182
330
17D
100
AcDbEntity
  8
Ｓ_１_１
 62
     2
100
AcDbBlockReference
  2
EX_NORM
 10
139.9999999999998
 20
359.9999999999959
 30
0.0
 41
9.0
 42
9.0
 43
9.0
 50
270.0
  0
INSERT
  5
183
330
17D
100
AcDbEntity
  8
Ｓ_１_１
 62
     2
100
AcDbBlockReference
  2
EX_NORM
 10
139.9999999999998
 20
399.9999999999959
 30
0.0
 41
9.0
 42
9.0
 43
9.0
 50
90.0
  0
MTEXT
  5
184
330
17D
100
AcDbEntity
  8
Ｓ_１_１
 62
     2
100
AcDbMText
 10
131.7500000000002
 20
379.9999999999956
 30
0.0
 40
10.38871247113164
 41
0.0
 71
     5
 72
     1
  1
40
  7
EXCADDIM1
 11
0.0
 21
1.0
 31
0.0
  0
POINT
  5
185
330
17D
100
AcDbEntity
  8
DEFPOINTS
 62
     0
100
AcDbPoint
 10
238.000014
 20
359.9999999999959
 30
0.0
  0
POINT
  5
186
330
17D
100
AcDbEntity
  8
DEFPOINTS
 62
     0
100
AcDbPoint
 10
277.999999
 20
399.9999999999959
 30
0.0
  0
POINT
  5
187
330
17D
100
AcDbEntity
  8
DEFPOINTS
 62
     0
100
AcDbPoint
 10
139.9999999999998
 20
399.9999999999959
 30
0.0
  0
ENDBLK
  5
17F
330
17D
100
AcDbEntity
  8
0
100
AcDbBlockEnd
  0
BLOCK
  5
18A
330
189
100
AcDbEntity
  8
0
100
AcDbBlockBegin
  2
*D23
 70
     1
 10
0.0
 20
0.0
 30
0.0
  3
*D23
  1

  0
LINE
  5
18C
330
189
100
AcDbEntity
  8
Ｓ_１_１
  6
CONTINUOUS
 62
     2
100
AcDbLine
 10
243.500014
 20
359.9999999999959
 30
0.0
 11
136.9999999999997
 21
359.9999999999959
 31
0.0
  0
LINE
  5
18D
330
189
100
AcDbEntity
  8
Ｓ_１_１
  6
CONTINUOUS
 62
     2
100
AcDbLine
 10
139.9999999999997
 20
313.999999999996
 30
0.0
 11
139.9999999999997
 21
350.9999999999959
 31
0.0
  0
INSERT
  5
18E
330
189
100
AcDbEntity
  8
Ｓ_１_１
 62
     2
100
AcDbBlockReference
  2
EX_NORM
 10
139.9999999999997
 20
304.999999999996
 30
0.0
 41
9.0
 42
9.0
 43
9.0
 50
270.0
  0
INSERT
  5
18F
330
189
100
AcDbEntity
  8
Ｓ_１_１
 62
     2
100
AcDbBlockReference
  2
EX_NORM
 10
139.9999999999997
 20
359.9999999999959
 30
0.0
 41
9.0
 42
9.0
 43
9.0
 50
90.0
  0
MTEXT
  5
190
330
189
100
AcDbEntity
  8
Ｓ_１_１
 62
     2
100
AcDbMText
 10
131.75
 20
332.4999999999958
 30
0.0
 40
10.38871247113164
 41
0.0
 71
     5
 72
     1
  1
55
  7
EXCADDIM1
 11
0.0
 21
1.0
 31
0.0
  0
POINT
  5
191
330
189
100
AcDbEntity
  8
DEFPOINTS
 62
     0
100
AcDbPoint
 10
233.000014
 20
304.999999999996
 30
0.0
  0
POINT
  5
192
330
189
100
AcDbEntity
  8
DEFPOINTS
 62
     0
100
AcDbPoint
 10
248.000014
 20
359.9999999999959
 30
0.0
  0
POINT
  5
193
330
189
100
AcDbEntity
  8
DEFPOINTS
 62
     0
100
AcDbPoint
 10
139.9999999999997
 20
359.9999999999959
 30
0.0
  0
ENDBLK
  5
18B
330
189
100
AcDbEntity
  8
0
100
AcDbBlockEnd
  0
BLOCK
  5
196
330
195
100
AcDbEntity
  8
0
100
AcDbBlockBegin
  2
*D24
 70
     1
 10
0.0
 20
0.0
 30
0.0
  3
*D24
  1

  0
LINE
  5
198
330
195
100
AcDbEntity
  8
Ｓ_１_１
  6
CONTINUOUS
 62
     2
100
AcDbLine
 10
238.500014
 20
119.999999999996
 30
0.0
 11
137.0
 21
119.999999999996
 31
0.0
  0
LINE
  5
199
330
195
100
AcDbEntity
  8
Ｓ_１_１
  6
CONTINUOUS
 62
     2
100
AcDbLine
 10
238.500014
 20
304.999999999996
 30
0.0
 11
137.0
 21
304.999999999996
 31
0.0
  0
LINE
  5
19A
330
195
100
AcDbEntity
  8
Ｓ_１_１
  6
CONTINUOUS
 62
     2
100
AcDbLine
 10
140.0
 20
128.999999999996
 30
0.0
 11
140.0
 21
295.999999999996
 31
0.0
  0
INSERT
  5
19B
330
195
100
AcDbEntity
  8
Ｓ_１_１
 62
     2
100
AcDbBlockReference
  2
EX_NORM
 10
140.0
 20
119.999999999996
 30
0.0
 41
9.0
 42
9.0
 43
9.0
 50
270.0
  0
INSERT
  5
19C
330
195
100
AcDbEntity
  8
Ｓ_１_１
 62
     2
100
AcDbBlockReference
  2
EX_NORM
 10
140.0
 20
304.999999999996
 30
0.0
 41
9.0
 42
9.0
 43
9.0
 50
90.0
  0
MTEXT
  5
19D
330
195
100
AcDbEntity
  8
Ｓ_１_１
 62
     2
100
AcDbMText
 10
131.7500000000001
 20
212.4999999999959
 30
0.0
 40
10.38871247113164
 41
0.0
 71
     5
 72
     1
  1
185
  7
EXCADDIM1
 11
0.0
 21
1.0
 31
0.0
  0
POINT
  5
19E
330
195
100
AcDbEntity
  8
DEFPOINTS
 62
     0
100
AcDbPoint
 10
243.000014
 20
119.999999999996
 30
0.0
  0
POINT
  5
19F
330
195
100
AcDbEntity
  8
DEFPOINTS
 62
     0
100
AcDbPoint
 10
243.000014
 20
304.999999999996
 30
0.0
  0
POINT
  5
1A0
330
195
100
AcDbEntity
  8
DEFPOINTS
 62
     0
100
AcDbPoint
 10
140.0
 20
304.999999999996
 30
0.0
  0
ENDBLK
  5
197
330
195
100
AcDbEntity
  8
0
100
AcDbBlockEnd
  0
BLOCK
  5
1A3
330
1A2
100
AcDbEntity
  8
0
100
AcDbBlockBegin
  2
*D25
 70
     1
 10
0.0
 20
0.0
 30
0.0
  3
*D25
  1

  0
LINE
  5
1A5
330
1A2
100
AcDbEntity
  8
Ｓ_１_１
  6
CONTINUOUS
 62
     2
100
AcDbLine
 10
274.9999999999999
 20
401.4999999999999
 30
0.0
 11
274.9999999999999
 21
462.9999999999999
 31
0.0
  0
LINE
  5
1A6
330
1A2
100
AcDbEntity
  8
Ｓ_１_１
  6
CONTINUOUS
 62
     2
100
AcDbLine
 10
524.9999999999998
 20
401.4999999999999
 30
0.0
 11
524.9999999999998
 21
462.9999999999999
 31
0.0
  0
LINE
  5
1A7
330
1A2
100
AcDbEntity
  8
Ｓ_１_１
  6
CONTINUOUS
 62
     2
100
AcDbLine
 10
283.9999999999999
 20
459.9999999999999
 30
0.0
 11
515.9999999999998
 21
459.9999999999999
 31
0.0
  0
INSERT
  5
1A8
330
1A2
100
AcDbEntity
  8
Ｓ_１_１
 62
     2
100
AcDbBlockReference
  2
EX_NORM
 10
274.9999999999999
 20
459.9999999999999
 30
0.0
 41
9.0
 42
9.0
 43
9.0
 50
180.0
  0
INSERT
  5
1A9
330
1A2
100
AcDbEntity
  8
Ｓ_１_１
 62
     2
100
AcDbBlockReference
  2
EX_NORM
 10
524.9999999999998
 20
459.9999999999999
 30
0.0
 41
9.0
 42
9.0
 43
9.0
  0
MTEXT
  5
1AA
330
1A2
100
AcDbEntity
  8
Ｓ_１_１
 62
     2
100
AcDbMText
 10
399.9999999999998
 20
468.2499999999999
 30
0.0
 40
10.38871247113164
 41
0.0
 71
     5
 72
     1
  1
%%c250
  7
EXCADDIM1
  0
POINT
  5
1AB
330
1A2
100
AcDbEntity
  8
DEFPOINTS
 62
     0
100
AcDbPoint
 10
274.9999999999999
 20
396.9999999999999
 30
0.0
  0
POINT
  5
1AC
330
1A2
100
AcDbEntity
  8
DEFPOINTS
 62
     0
100
AcDbPoint
 10
524.9999999999998
 20
396.9999999999999
 30
0.0
  0
POINT
  5
1AD
330
1A2
100
AcDbEntity
  8
DEFPOINTS
 62
     0
100
AcDbPoint
 10
524.9999999999998
 20
459.9999999999999
 30
0.0
  0
ENDBLK
  5
1A4
330
1A2
100
AcDbEntity
  8
0
100
AcDbBlockEnd
  0
BLOCK
  5
1B0
330
1AF
100
AcDbEntity
  8
0
100
AcDbBlockBegin
  2
*D26
 70
     1
 10
0.0
 20
0.0
 30
0.0
  3
*D26
  1

  0
LINE
  5
1B2
330
1AF
100
AcDbEntity
  8
Ｓ_１_１
  6
CONTINUOUS
 62
     2
100
AcDbLine
 10
1121.49999999997
 20
120.0
 30
0.0
 11
1187.299990177155
 21
120.0
 31
0.0
  0
LINE
  5
1B3
330
1AF
100
AcDbEntity
  8
Ｓ_１_１
  6
CONTINUOUS
 62
     2
100
AcDbLine
 10
1180.0
 20
129.9999999999999
 30
0.0
 11
1180.0
 21
120.0
 31
0.0
  0
LINE
  5
1B4
330
1AF
100
AcDbEntity
  8
Ｓ_１_１
  6
CONTINUOUS
 62
     2
100
AcDbLine
 10
1180.0
 20
138.9999999999999
 30
0.0
 11
1180.0
 21
147.9999999999999
 31
0.0
  0
LINE
  5
1B5
330
1AF
100
AcDbEntity
  8
Ｓ_１_１
  6
CONTINUOUS
 62
     2
100
AcDbLine
 10
1180.0
 20
111.0
 30
0.0
 11
1180.0
 21
102.0
 31
0.0
  0
INSERT
  5
1B6
330
1AF
100
AcDbEntity
  8
Ｓ_１_１
 62
     2
100
AcDbBlockReference
  2
EX_NORM
 10
1180.0
 20
129.9999999999999
 30
0.0
 41
9.0
 42
9.0
 43
9.0
 50
270.0
  0
INSERT
  5
1B7
330
1AF
100
AcDbEntity
  8
Ｓ_１_１
 62
     2
100
AcDbBlockReference
  2
EX_NORM
 10
1180.0
 20
120.0
 30
0.0
 41
9.0
 42
9.0
 43
9.0
 50
90.0
  0
MTEXT
  5
1B8
330
1AF
100
AcDbEntity
  8
Ｓ_１_１
 62
     2
100
AcDbMText
 10
1171.75
 20
104.2499999999996
 30
0.0
 40
10.38871247113164
 41
0.0
 71
     5
 72
     1
  1
10
  7
EXCADDIM1
 11
0.0
 21
1.0
 31
0.0
  0
POINT
  5
1B9
330
1AF
100
AcDbEntity
  8
DEFPOINTS
 62
     0
100
AcDbPoint
 10
984.9999999999994
 20
129.9999999999999
 30
0.0
  0
POINT
  5
1BA
330
1AF
100
AcDbEntity
  8
DEFPOINTS
 62
     0
100
AcDbPoint
 10
1116.99999999997
 20
120.0
 30
0.0
  0
POINT
  5
1BB
330
1AF
100
AcDbEntity
  8
DEFPOINTS
 62
     0
100
AcDbPoint
 10
1180.0
 20
120.0
 30
0.0
  0
ENDBLK
  5
1B1
330
1AF
100
AcDbEntity
  8
0
100
AcDbBlockEnd
  0
BLOCK
  5
1BE
330
1BD
100
AcDbEntity
  8
0
100
AcDbBlockBegin
  2
*D27
 70
     1
 10
0.0
 20
0.0
 30
0.0
  3
*D27
  1

  0
LINE
  5
1C0
330
1BD
100
AcDbEntity
  8
Ｓ_１_１
  6
CONTINUOUS
 62
     2
100
AcDbLine
 10
984.9999999999994
 20
125.4999999999999
 30
0.0
 11
984.9999999999994
 21
57.0
 31
0.0
  0
LINE
  5
1C1
330
1BD
100
AcDbEntity
  8
Ｓ_１_１
  6
CONTINUOUS
 62
     2
100
AcDbLine
 10
1001.0
 20
135.4999999999999
 30
0.0
 11
1001.0
 21
57.0
 31
0.0
  0
LINE
  5
1C2
330
1BD
100
AcDbEntity
  8
Ｓ_１_１
  6
CONTINUOUS
 62
     2
100
AcDbLine
 10
984.9999999999994
 20
60.0
 30
0.0
 11
1001.0
 21
60.0
 31
0.0
  0
LINE
  5
1C3
330
1BD
100
AcDbEntity
  8
Ｓ_１_１
  6
CONTINUOUS
 62
     2
100
AcDbLine
 10
975.9999999999994
 20
60.0
 30
0.0
 11
966.9999999999994
 21
60.0
 31
0.0
  0
LINE
  5
1C4
330
1BD
100
AcDbEntity
  8
Ｓ_１_１
  6
CONTINUOUS
 62
     2
100
AcDbLine
 10
1010.0
 20
60.0
 30
0.0
 11
1019.0
 21
60.0
 31
0.0
  0
INSERT
  5
1C5
330
1BD
100
AcDbEntity
  8
Ｓ_１_１
 62
     2
100
AcDbBlockReference
  2
EX_NORM
 10
984.9999999999994
 20
60.0
 30
0.0
 41
9.0
 42
9.0
 43
9.0
  0
INSERT
  5
1C6
330
1BD
100
AcDbEntity
  8
Ｓ_１_１
 62
     2
100
AcDbBlockReference
  2
EX_NORM
 10
1001.0
 20
60.0
 30
0.0
 41
9.0
 42
9.0
 43
9.0
 50
180.0
  0
MTEXT
  5
1C7
330
1BD
100
AcDbEntity
  8
Ｓ_１_１
 62
     2
100
AcDbMText
 10
1016.75
 20
68.25
 30
0.0
 40
10.38871247113164
 41
0.0
 71
     5
 72
     1
  1
16
  7
EXCADDIM1
  0
POINT
  5
1C8
330
1BD
100
AcDbEntity
  8
DEFPOINTS
 62
     0
100
AcDbPoint
 10
984.9999999999994
 20
129.9999999999999
 30
0.0
  0
POINT
  5
1C9
330
1BD
100
AcDbEntity
  8
DEFPOINTS
 62
     0
100
AcDbPoint
 10
1001.0
 20
139.9999999999999
 30
0.0
  0
POINT
  5
1CA
330
1BD
100
AcDbEntity
  8
DEFPOINTS
 62
     0
100
AcDbPoint
 10
1001.0
 20
60.0
 30
0.0
  0
ENDBLK
  5
1BF
330
1BD
100
AcDbEntity
  8
0
100
AcDbBlockEnd
  0
BLOCK
  5
1CD
330
1CC
100
AcDbEntity
  8
0
100
AcDbBlockBegin
  2
*D28
 70
     1
 10
0.0
 20
0.0
 30
0.0
  3
*D28
  1

  0
LINE
  5
1CF
330
1CC
100
AcDbEntity
  8
Ｓ_１_１
  6
CONTINUOUS
 62
     2
100
AcDbLine
 10
918.9999999999994
 20
135.4999999999999
 30
0.0
 11
918.9999999999994
 21
57.0
 31
0.0
  0
LINE
  5
1D0
330
1CC
100
AcDbEntity
  8
Ｓ_１_１
  6
CONTINUOUS
 62
     2
100
AcDbLine
 10
934.9999999999998
 20
125.4999999999999
 30
0.0
 11
934.9999999999998
 21
57.0
 31
0.0
  0
LINE
  5
1D1
330
1CC
100
AcDbEntity
  8
Ｓ_１_１
  6
CONTINUOUS
 62
     2
100
AcDbLine
 10
918.9999999999994
 20
60.0
 30
0.0
 11
934.9999999999998
 21
60.0
 31
0.0
  0
LINE
  5
1D2
330
1CC
100
AcDbEntity
  8
Ｓ_１_１
  6
CONTINUOUS
 62
     2
100
AcDbLine
 10
909.9999999999994
 20
60.0
 30
0.0
 11
900.9999999999994
 21
60.0
 31
0.0
  0
LINE
  5
1D3
330
1CC
100
AcDbEntity
  8
Ｓ_１_１
  6
CONTINUOUS
 62
     2
100
AcDbLine
 10
943.9999999999998
 20
60.0
 30
0.0
 11
952.9999999999998
 21
60.0
 31
0.0
  0
INSERT
  5
1D4
330
1CC
100
AcDbEntity
  8
Ｓ_１_１
 62
     2
100
AcDbBlockReference
  2
EX_NORM
 10
918.9999999999994
 20
60.0
 30
0.0
 41
9.0
 42
9.0
 43
9.0
  0
INSERT
  5
1D5
330
1CC
100
AcDbEntity
  8
Ｓ_１_１
 62
     2
100
AcDbBlockReference
  2
EX_NORM
 10
934.9999999999998
 20
60.0
 30
0.0
 41
9.0
 42
9.0
 43
9.0
 50
180.0
  0
MTEXT
  5
1D6
330
1CC
100
AcDbEntity
  8
Ｓ_１_１
 62
     2
100
AcDbMText
 10
903.2499999999994
 20
68.25
 30
0.0
 40
10.38871247113164
 41
0.0
 71
     5
 72
     1
  1
16
  7
EXCADDIM1
  0
POINT
  5
1D7
330
1CC
100
AcDbEntity
  8
DEFPOINTS
 62
     0
100
AcDbPoint
 10
918.9999999999994
 20
139.9999999999999
 30
0.0
  0
POINT
  5
1D8
330
1CC
100
AcDbEntity
  8
DEFPOINTS
 62
     0
100
AcDbPoint
 10
934.9999999999998
 20
129.9999999999999
 30
0.0
  0
POINT
  5
1D9
330
1CC
100
AcDbEntity
  8
DEFPOINTS
 62
     0
100
AcDbPoint
 10
934.9999999999998
 20
60.0
 30
0.0
  0
ENDBLK
  5
1CE
330
1CC
100
AcDbEntity
  8
0
100
AcDbBlockEnd
  0
BLOCK
  5
3DC
330
3DB
100
AcDbEntity
  8
0
100
AcDbBlockBegin
  2
*D29
 70
     1
 10
0.0
 20
0.0
 30
0.0
  3
*D29
  1

  0
LINE
  5
3DE
330
3DB
100
AcDbEntity
  8
Ｓ_１_１
  6
CONTINUOUS
 62
     2
100
AcDbLine
 10
706.10294578211
 20
220.00000107257
 30
0.0
 11
677.0
 21
220.00000107257
 31
0.0
  0
LINE
  5
3DF
330
3DB
100
AcDbEntity
  8
Ｓ_１_１
  6
CONTINUOUS
 62
     2
100
AcDbLine
 10
680.0
 20
211.00000107257
 30
0.0
 11
680.0
 21
129.0
 31
0.0
  0
INSERT
  5
3E0
330
3DB
100
AcDbEntity
  8
Ｓ_１_１
 62
     2
100
AcDbBlockReference
  2
EX_NORM
 10
680.0
 20
220.00000107257
 30
0.0
 41
9.0
 42
9.0
 43
9.0
 50
90.0
  0
INSERT
  5
3E1
330
3DB
100
AcDbEntity
  8
Ｓ_１_１
 62
     2
100
AcDbBlockReference
  2
EX_NORM
 10
680.0
 20
120.0
 30
0.0
 41
9.0
 42
9.0
 43
9.0
 50
270.0
  0
MTEXT
  5
3E2
330
3DB
100
AcDbEntity
  8
Ｓ_１_１
 62
     2
100
AcDbMText
 10
671.75
 20
170.0000005362849
 30
0.0
 40
10.38871247113164
 41
0.0
 71
     5
 72
     1
  1
100
  7
EXCADDIM1
 11
0.0
 21
1.0
 31
0.0
  0
POINT
  5
3E3
330
3DB
100
AcDbEntity
  8
DEFPOINTS
 62
     0
100
AcDbPoint
 10
710.60294578211
 20
220.00000107257
 30
0.0
  0
POINT
  5
3E4
330
3DB
100
AcDbEntity
  8
DEFPOINTS
 62
     0
100
AcDbPoint
 10
802.9999999999999
 20
120.0
 30
0.0
  0
POINT
  5
3E5
330
3DB
100
AcDbEntity
  8
DEFPOINTS
 62
     0
100
AcDbPoint
 10
680.0
 20
120.0
 30
0.0
  0
ENDBLK
  5
3DD
330
3DB
100
AcDbEntity
  8
0
100
AcDbBlockEnd
  0
BLOCK
  5
3ED
330
3EC
100
AcDbEntity
  8
0
100
AcDbBlockBegin
  2
*D30
 70
     1
 10
0.0
 20
0.0
 30
0.0
  3
*D30
  1

  0
LINE
  5
3EF
330
3EC
100
AcDbEntity
  8
Ｓ_１_１
  6
CONTINUOUS
 62
     2
100
AcDbLine
 10
554.1879109756935
 20
559.7968413295056
 30
0.0
 11
571.2535046310303
 21
535.4246475028768
 31
0.0
  0
ARC
  5
3F0
330
3EC
100
AcDbEntity
  8
Ｓ_１_１
  6
CONTINUOUS
 62
     2
100
AcDbCircle
 10
400.0000033572873
 20
779.9999966427081
 30
0.0
 40
297.3213702038195
100
AcDbArc
 50
306.7344250026648
 51
313.2655747058579
  0
INSERT
  5
3F1
330
3EC
100
AcDbEntity
  8
Ｓ_１_１
 62
     2
100
AcDbBlockReference
  2
EX_NORM
 10
570.5365340908005
 20
536.4485875618855
 30
0.0
 41
9.0
 42
9.0
 43
9.0
 50
215.8672123555938
  0
INSERT
  5
3F2
330
3EC
100
AcDbEntity
  8
Ｓ_１_１
 62
     2
100
AcDbBlockReference
  2
EX_NORM
 10
610.2379604200839
 20
569.7620395799113
 30
0.0
 41
9.0
 42
9.0
 43
9.0
 50
44.13278735292898
  0
MTEXT
  5
3F3
330
3EC
100
AcDbEntity
  8
Ｓ_１_１
 62
     2
100
AcDbMText
 10
585.8114978761505
 20
558.5584793606497
 30
0.0
 40
10.38871247113164
 41
0.0
 71
     5
 72
     1
  1
10%%d
  7
EXCADDIM1
 11
0.7660444447539844
 21
0.6427876077380149
 31
0.0
  0
POINT
  5
3F4
330
3EC
100
AcDbEntity
  8
DEFPOINTS
 62
     0
100
AcDbPoint
 10
400.0000033572873
 20
779.9999966427081
 30
0.0
  0
POINT
  5
3F5
330
3EC
100
AcDbEntity
  8
DEFPOINTS
 62
     0
100
AcDbPoint
 10
551.6068170308663
 20
563.4830255419367
 30
0.0
  0
POINT
  5
3F6
330
3EC
100
AcDbEntity
  8
DEFPOINTS
 62
     0
100
AcDbPoint
 10
610.2379604200838
 20
569.7620395799114
 30
0.0
  0
POINT
  5
3F7
330
3EC
100
AcDbEntity
  8
DEFPOINTS
 62
     0
100
AcDbPoint
 10
584.4092686792299
 20
546.7764557140572
 30
0.0
  0
ENDBLK
  5
3EE
330
3EC
100
AcDbEntity
  8
0
100
AcDbBlockEnd
  0
BLOCK
  5
3FA
330
3F9
100
AcDbEntity
  8
0
100
AcDbBlockBegin
  2
*D31
 70
     1
 10
0.0
 20
0.0
 30
0.0
  3
*D31
  1

  0
LINE
  5
3FC
330
3F9
100
AcDbEntity
  8
Ｓ_１_１
  6
CONTINUOUS
 62
     2
100
AcDbLine
 10
588.7896998751473
 20
591.2103001248483
 30
0.0
 11
612.3592807636425
 21
567.6407192363532
 31
0.0
  0
LINE
  5
3FD
330
3F9
100
AcDbEntity
  8
Ｓ_１_１
  6
CONTINUOUS
 62
     2
100
AcDbLine
 10
620.2454613731372
 20
625.7824674222262
 30
0.0
 11
646.0088680963448
 21
607.7427357464182
 31
0.0
  0
ARC
  5
3FE
330
3F9
100
AcDbEntity
  8
Ｓ_１_１
  6
CONTINUOUS
 62
     2
100
AcDbCircle
 10
399.9999986618602
 20
780.0000013381351
 30
0.0
 40
297.3213768441543
100
AcDbArc
 50
316.7344252554029
 51
323.2655746278188
  0
INSERT
  5
3FF
330
3F9
100
AcDbEntity
  8
Ｓ_１_１
 62
     2
100
AcDbBlockReference
  2
EX_NORM
 10
610.2379604200828
 20
569.7620395799129
 30
0.0
 41
9.0
 42
9.0
 43
9.0
 50
225.8672126277015
  0
INSERT
  5
400
330
3F9
100
AcDbEntity
  8
Ｓ_１_１
 62
     2
100
AcDbBlockReference
  2
EX_NORM
 10
643.5514119669849
 20
609.4634650604801
 30
0.0
 41
9.0
 42
9.0
 43
9.0
 50
54.1327872555202
  0
MTEXT
  5
401
330
3F9
100
AcDbEntity
  8
Ｓ_１_１
 62
     2
100
AcDbMText
 10
621.4415203687192
 20
594.188501762017
 30
0.0
 40
10.38871247113164
 41
0.0
 71
     5
 72
     1
  1
10%%d
  7
EXCADDIM1
 11
0.6427876104672023
 21
0.766044442463924
 31
0.0
  0
POINT
  5
402
330
3F9
100
AcDbEntity
  8
DEFPOINTS
 62
     0
100
AcDbPoint
 10
399.9999986618602
 20
780.0000013381351
 30
0.0
  0
POINT
  5
403
330
3F9
100
AcDbEntity
  8
DEFPOINTS
 62
     0
100
AcDbPoint
 10
585.6077193598078
 20
594.3922806401879
 30
0.0
  0
POINT
  5
404
330
3F9
100
AcDbEntity
  8
DEFPOINTS
 62
     0
100
AcDbPoint
 10
616.5592771790974
 20
628.3635613933191
 30
0.0
  0
POINT
  5
405
330
3F9
100
AcDbEntity
  8
DEFPOINTS
 62
     0
100
AcDbPoint
 10
622.1065212460489
 20
582.341979102601
 30
0.0
  0
ENDBLK
  5
3FB
330
3F9
100
AcDbEntity
  8
0
100
AcDbBlockEnd
  0
BLOCK
  5
4C7
330
4C6
100
AcDbEntity
  8
0
100
AcDbBlockBegin
  2
*D32
 70
     1
 10
0.0
 20
0.0
 30
0.0
  3
*D32
  1

  0
LINE
  5
4C9
330
4C6
100
AcDbEntity
  8
Ｓ_１_１
  6
CONTINUOUS
 62
     2
100
AcDbLine
 10
798.4999999999999
 20
120.0
 30
0.0
 11
657.0
 21
120.0
 31
0.0
  0
LINE
  5
4CA
330
4C6
100
AcDbEntity
  8
Ｓ_１_１
  6
CONTINUOUS
 62
     2
100
AcDbLine
 10
697.2
 20
235.0
 30
0.0
 11
657.0
 21
235.0
 31
0.0
  0
LINE
  5
4CB
330
4C6
100
AcDbEntity
  8
Ｓ_１_１
  6
CONTINUOUS
 62
     2
100
AcDbLine
 10
660.0
 20
129.0
 30
0.0
 11
660.0
 21
226.0
 31
0.0
  0
INSERT
  5
4CC
330
4C6
100
AcDbEntity
  8
Ｓ_１_１
 62
     2
100
AcDbBlockReference
  2
EX_NORM
 10
660.0
 20
120.0
 30
0.0
 41
9.0
 42
9.0
 43
9.0
 50
270.0
  0
INSERT
  5
4CD
330
4C6
100
AcDbEntity
  8
Ｓ_１_１
 62
     2
100
AcDbBlockReference
  2
EX_NORM
 10
660.0
 20
235.0
 30
0.0
 41
9.0
 42
9.0
 43
9.0
 50
90.0
  0
MTEXT
  5
4CE
330
4C6
100
AcDbEntity
  8
Ｓ_１_１
 62
     2
100
AcDbMText
 10
651.75
 20
177.5
 30
0.0
 40
10.38871247113164
 41
0.0
 71
     5
 72
     1
  1
115
  7
EXCADDIM1
 11
0.0
 21
1.0
 31
0.0
  0
POINT
  5
4CF
330
4C6
100
AcDbEntity
  8
DEFPOINTS
 62
     0
100
AcDbPoint
 10
802.9999999999999
 20
120.0
 30
0.0
  0
POINT
  5
4D0
330
4C6
100
AcDbEntity
  8
DEFPOINTS
 62
     0
100
AcDbPoint
 10
701.7
 20
235.0
 30
0.0
  0
POINT
  5
4D1
330
4C6
100
AcDbEntity
  8
DEFPOINTS
 62
     0
100
AcDbPoint
 10
660.0
 20
235.0
 30
0.0
  0
ENDBLK
  5
4C8
330
4C6
100
AcDbEntity
  8
0
100
AcDbBlockEnd
  0
ENDSEC
  0
SECTION
  2
ENTITIES
  0
LINE
  5
D4
330
1F
100
AcDbEntity
  8
図面枠
  6
CONTINUOUS
 62
     5
100
AcDbLine
 10
30.0
 20
30.0
 30
0.0
 11
1230.0
 21
30.0
 31
0.0
  0
LINE
  5
D5
330
1F
100
AcDbEntity
  8
図面枠
  6
CONTINUOUS
 62
     5
100
AcDbLine
 10
1230.0
 20
30.0
 30
0.0
 11
1230.0
 21
861.0
 31
0.0
  0
LINE
  5
D6
330
1F
100
AcDbEntity
  8
図面枠
  6
CONTINUOUS
 62
     5
100
AcDbLine
 10
1230.0
 20
861.0
 30
0.0
 11
30.00000000000016
 21
861.0
 31
0.0
  0
LINE
  5
D7
330
1F
100
AcDbEntity
  8
図面枠
  6
CONTINUOUS
 62
     5
100
AcDbLine
 10
30.00000000000016
 20
861.0
 30
0.0
 11
30.0
 21
30.0
 31
0.0
  0
LINE
  5
D8
330
1F
100
AcDbEntity
  8
図面枠
  6
CONTINUOUS
 62
     3
100
AcDbLine
 10
45.00000000000006
 20
846.0
 30
0.0
 11
45.00000000000006
 21
819.0
 31
0.0
  0
LINE
  5
D9
330
1F
100
AcDbEntity
  8
図面枠
  6
CONTINUOUS
 62
     3
100
AcDbLine
 10
1215.000000000003
 20
72.0
 30
0.0
 11
1215.000000000003
 21
45.0
 31
0.0
  0
TEXT
  5
DB
330
1F
100
AcDbEntity
  8
図面枠
  6
CONTINUOUS
 62
     4
100
AcDbText
 10
921.0
 20
814.1484375
 30
0.0
 40
10.38871247113164
  1
能力
 41
0.999230769230769
  7
EXCADTTF1
 72
     5
 11
948.0
 21
814.1484375
 31
0.0
100
AcDbText
  0
LINE
  5
DC
330
1F
100
AcDbEntity
  8
図面枠
  6
CONTINUOUS
 62
     3
100
AcDbLine
 10
915.0
 20
846.0
 30
0.0
 11
1215.0
 21
846.0
 31
0.0
  0
TEXT
  5
DD
330
1F
100
AcDbEntity
  8
図面枠
  6
CONTINUOUS
 62
     4
100
AcDbText
 10
1161.0
 20
814.1484375
 30
0.0
 40
10.38871247113164
  1
kN
 41
0.999230769230769
  7
EXCADTTF1
 72
     5
 11
1174.5
 21
814.1484375
 31
0.0
100
AcDbText
  0
TEXT
  5
DE
330
1F
100
AcDbEntity
  8
図面枠
  6
CONTINUOUS
 62
     4
100
AcDbText
 10
1122.0
 20
814.1484375
 30
0.0
 40
10.38871247113164
  1
3000
 41
0.999230769230769
  7
EXCADTTF1
 72
     5
 11
1149.0
 21
814.1484375
 31
0.0
100
AcDbText
  0
TEXT
  5
DF
330
1F
100
AcDbEntity
  8
図面枠
  6
CONTINUOUS
 62
     4
100
AcDbText
 10
1032.06
 20
832.1484375
 30
0.0
 40
10.38871247113164
  1
仕　　　様
 41
0.9992307692307689
  7
EXCADTTF1
 72
     5
 11
1099.56
 21
832.1484375
 31
0.0
100
AcDbText
  0
LINE
  5
E0
330
1F
100
AcDbEntity
  8
図面枠
  6
CONTINUOUS
 62
     3
100
AcDbLine
 10
915.0
 20
828.0
 30
0.0
 11
1215.0
 21
828.0
 31
0.0
  0
TEXT
  5
E1
330
1F
100
AcDbEntity
  8
図面枠
  6
CONTINUOUS
 62
     4
100
AcDbText
 10
1161.0
 20
688.1484375
 30
0.0
 40
10.38871247113164
  1
cm
 41
0.999230769230769
  7
EXCADTTF1
 72
     5
 11
1174.5
 21
688.1484375
 31
0.0
100
AcDbText
  0
TEXT
  5
E2
330
1F
100
AcDbEntity
  8
図面枠
  6
CONTINUOUS
 62
     4
100
AcDbText
 10
1170.45
 20
694.5292969420552
 30
0.0
 40
4.674920098289698
  1
2
 41
0.9992308790346205
  7
EXCADTTF1
 72
     5
 11
1173.4875
 21
694.5292969420552
 31
0.0
100
AcDbText
  0
TEXT
  5
E3
330
1F
100
AcDbEntity
  8
図面枠
  6
CONTINUOUS
 62
     4
100
AcDbText
 10
921.0
 20
778.1484375
 30
0.0
 40
10.38871247113164
  1
最低機械高
 41
0.9992307692307689
  7
EXCADTTF1
 72
     5
 11
988.5
 21
778.1484375
 31
0.0
100
AcDbText
  0
TEXT
  5
E4
330
1F
100
AcDbEntity
  8
図面枠
  6
CONTINUOUS
 62
     4
100
AcDbText
 10
921.0
 20
796.1484375
 30
0.0
 40
10.38871247113164
  1
ストローク
 41
0.9992307692307689
  7
EXCADTTF1
 72
     5
 11
988.5
 21
796.1484375
 31
0.0
100
AcDbText
  0
TEXT
  5
E5
330
1F
100
AcDbEntity
  8
図面枠
  6
CONTINUOUS
 62
     4
100
AcDbText
 10
921.0
 20
688.1484375
 30
0.0
 40
10.38871247113164
  1
受圧面積
 41
0.999230769230769
  7
EXCADTTF1
 72
     5
 11
975.0
 21
688.1484375
 31
0.0
100
AcDbText
  0
TEXT
  5
E6
330
1F
100
AcDbEntity
  8
図面枠
  6
CONTINUOUS
 62
     4
100
AcDbText
 10
1161.0
 20
796.1484375
 30
0.0
 40
10.38871247113164
  1
mm
 41
0.999230769230769
  7
EXCADTTF1
 72
     5
 11
1174.5
 21
796.1484375
 31
0.0
100
AcDbText
  0
TEXT
  5
E7
330
1F
100
AcDbEntity
  8
図面枠
  6
CONTINUOUS
 62
     4
100
AcDbText
 10
1161.0
 20
778.1484375
 30
0.0
 40
10.38871247113164
  1
mm
 41
0.999230769230769
  7
EXCADTTF1
 72
     5
 11
1174.5
 21
778.1484375
 31
0.0
100
AcDbText
  0
TEXT
  5
E8
330
1F
100
AcDbEntity
  8
図面枠
  6
CONTINUOUS
 62
     4
100
AcDbText
 10
1161.0
 20
760.1484375
 30
0.0
 40
10.38871247113164
  1
mm
 41
0.999230769230769
  7
EXCADTTF1
 72
     5
 11
1174.5
 21
760.1484375
 31
0.0
100
AcDbText
  0
TEXT
  5
E9
330
1F
100
AcDbEntity
  8
図面枠
  6
CONTINUOUS
 62
     4
100
AcDbText
 10
1161.0
 20
742.1484375
 30
0.0
 40
10.38871247113164
  1
mm
 41
0.999230769230769
  7
EXCADTTF1
 72
     5
 11
1174.5
 21
742.1484375
 31
0.0
100
AcDbText
  0
TEXT
  5
EA
330
1F
100
AcDbEntity
  8
図面枠
  6
CONTINUOUS
 62
     4
100
AcDbText
 10
1161.0
 20
724.1484375
 30
0.0
 40
10.38871247113164
  1
mm
 41
0.999230769230769
  7
EXCADTTF1
 72
     5
 11
1174.5
 21
724.1484375
 31
0.0
100
AcDbText
  0
TEXT
  5
EB
330
1F
100
AcDbEntity
  8
図面枠
  6
CONTINUOUS
 62
     4
100
AcDbText
 10
1161.0
 20
706.1484375
 30
0.0
 40
10.38871247113164
  1
mm
 41
0.999230769230769
  7
EXCADTTF1
 72
     5
 11
1174.5
 21
706.1484375
 31
0.0
100
AcDbText
  0
TEXT
  5
EC
330
1F
100
AcDbEntity
  8
図面枠
  6
CONTINUOUS
 62
     4
100
AcDbText
 10
1161.0
 20
670.1484375
 30
0.0
 40
10.38871247113164
  1
MPa
 41
0.999230769230769
  7
EXCADTTF1
 72
     5
 11
1181.25
 21
670.1484375
 31
0.0
100
AcDbText
  0
TEXT
  5
ED
330
1F
100
AcDbEntity
  8
図面枠
  6
CONTINUOUS
 62
     4
100
AcDbText
 10
1135.5
 20
796.1484375
 30
0.0
 40
10.38871247113164
  1
50
 41
0.999230769230769
  7
EXCADTTF1
 72
     5
 11
1149.0
 21
796.1484375
 31
0.0
100
AcDbText
  0
TEXT
  5
EE
330
1F
100
AcDbEntity
  8
図面枠
  6
CONTINUOUS
 62
     4
100
AcDbText
 10
921.0
 20
760.1484375
 30
0.0
 40
10.38871247113164
  1
シリンダ外径
 41
0.9992307692307689
  7
EXCADTTF1
 72
     5
 11
1002.0
 21
760.1484375
 31
0.0
100
AcDbText
  0
TEXT
  5
EF
330
1F
100
AcDbEntity
  8
図面枠
  6
CONTINUOUS
 62
     4
100
AcDbText
 10
921.0
 20
742.1484375
 30
0.0
 40
10.38871247113164
  1
押しピストン径
 41
0.9992307692307688
  7
EXCADTTF1
 72
     5
 11
1015.5
 21
742.1484375
 31
0.0
100
AcDbText
  0
TEXT
  5
F0
330
1F
100
AcDbEntity
  8
図面枠
  6
CONTINUOUS
 62
     4
100
AcDbText
 10
921.0
 20
724.1484375
 30
0.0
 40
10.38871247113164
  1
戻しピストン径
 41
0.9992307692307688
  7
EXCADTTF1
 72
     5
 11
1015.5
 21
724.1484375
 31
0.0
100
AcDbText
  0
TEXT
  5
F1
330
1F
100
AcDbEntity
  8
図面枠
  6
CONTINUOUS
 62
     4
100
AcDbText
 10
921.0
 20
706.1484375
 30
0.0
 40
10.38871247113164
  1
インナーロッド径
 41
0.9992307692307688
  7
EXCADTTF1
 72
     5
 11
1029.0
 21
706.1484375
 31
0.0
100
AcDbText
  0
TEXT
  5
F2
330
1F
100
AcDbEntity
  8
図面枠
  6
CONTINUOUS
 62
     4
100
AcDbText
 10
921.0
 20
670.1484375
 30
0.0
 40
10.38871247113164
  1
最高使用圧力
 41
0.9992307692307689
  7
EXCADTTF1
 72
     5
 11
1002.0
 21
670.1484375
 31
0.0
100
AcDbText
  0
TEXT
  5
F3
330
1F
100
AcDbEntity
  8
図面枠
  6
CONTINUOUS
 62
     4
100
AcDbText
 10
1128.75
 20
742.1484375
 30
0.0
 40
10.38871247113164
  1
250
 41
0.999230769230769
  7
EXCADTTF1
 72
     5
 11
1149.0
 21
742.1484375
 31
0.0
100
AcDbText
  0
TEXT
  5
F4
330
1F
100
AcDbEntity
  8
図面枠
  6
CONTINUOUS
 62
     4
100
AcDbText
 10
1115.25
 20
688.1484375
 30
0.0
 40
10.38871247113164
  1
478.3
 41
0.9992307692307689
  7
EXCADTTF1
 72
     5
 11
1149.0
 21
688.1484375
 31
0.0
100
AcDbText
  0
TEXT
  5
F5
330
1F
100
AcDbEntity
  8
図面枠
  6
CONTINUOUS
 62
     4
100
AcDbText
 10
1128.78
 20
760.1484375
 30
0.0
 40
10.38871247113164
  1
320
 41
0.999230769230769
  7
EXCADTTF1
 72
     5
 11
1149.03
 21
760.1484375
 31
0.0
100
AcDbText
  0
TEXT
  5
F6
330
1F
100
AcDbEntity
  8
図面枠
  6
CONTINUOUS
 62
     4
100
AcDbText
 10
1128.78
 20
778.1484375
 30
0.0
 40
10.38871247113164
  1
280
 41
0.999230769230769
  7
EXCADTTF1
 72
     5
 11
1149.03
 21
778.1484375
 31
0.0
100
AcDbText
  0
TEXT
  5
F7
330
1F
100
AcDbEntity
  8
図面枠
  6
CONTINUOUS
 62
     4
100
AcDbText
 10
1134.78
 20
724.1484375
 30
0.0
 40
10.38871247113164
  1
60
 41
0.999230769230769
  7
EXCADTTF1
 72
     5
 11
1148.28
 21
724.1484375
 31
0.0
100
AcDbText
  0
TEXT
  5
F8
330
1F
100
AcDbEntity
  8
図面枠
  6
CONTINUOUS
 62
     4
100
AcDbText
 10
1135.65
 20
706.1484375
 30
0.0
 40
10.38871247113164
  1
40
 41
0.999230769230769
  7
EXCADTTF1
 72
     5
 11
1149.15
 21
706.1484375
 31
0.0
100
AcDbText
  0
TEXT
  5
F9
330
1F
100
AcDbEntity
  8
図面枠
  6
CONTINUOUS
 62
     4
100
AcDbText
 10
1122.03
 20
670.4484375000001
 30
0.0
 40
10.38871247113164
  1
62.7
 41
0.999230769230769
  7
EXCADTTF1
 72
     5
 11
1149.03
 21
670.4484375000001
 31
0.0
100
AcDbText
  0
LINE
  5
FA
330
1F
100
AcDbEntity
  8
図面枠
  6
CONTINUOUS
 62
     2
100
AcDbLine
 10
915.0
 20
810.0
 30
0.0
 11
1215.0
 21
810.0
 31
0.0
  0
LINE
  5
FB
330
1F
100
AcDbEntity
  8
図面枠
  6
CONTINUOUS
 62
     2
100
AcDbLine
 10
915.0
 20
792.0
 30
0.0
 11
1215.0
 21
792.0
 31
0.0
  0
LINE
  5
FC
330
1F
100
AcDbEntity
  8
図面枠
  6
CONTINUOUS
 62
     2
100
AcDbLine
 10
915.0
 20
774.0
 30
0.0
 11
1215.0
 21
774.0
 31
0.0
  0
LINE
  5
FD
330
1F
100
AcDbEntity
  8
図面枠
  6
CONTINUOUS
 62
     2
100
AcDbLine
 10
915.0
 20
756.0
 30
0.0
 11
1215.0
 21
756.0
 31
0.0
  0
LINE
  5
FE
330
1F
100
AcDbEntity
  8
図面枠
  6
CONTINUOUS
 62
     2
100
AcDbLine
 10
915.0
 20
738.0
 30
0.0
 11
1215.0
 21
738.0
 31
0.0
  0
LINE
  5
FF
330
1F
100
AcDbEntity
  8
図面枠
  6
CONTINUOUS
 62
     2
100
AcDbLine
 10
915.0
 20
720.0
 30
0.0
 11
1215.0
 21
720.0
 31
0.0
  0
LINE
  5
100
330
1F
100
AcDbEntity
  8
図面枠
  6
CONTINUOUS
 62
     2
100
AcDbLine
 10
915.0
 20
702.0
 30
0.0
 11
1215.0
 21
702.0
 31
0.0
  0
LINE
  5
101
330
1F
100
AcDbEntity
  8
図面枠
  6
CONTINUOUS
 62
     2
100
AcDbLine
 10
915.0
 20
684.0
 30
0.0
 11
1215.0
 21
684.0
 31
0.0
  0
TEXT
  5
102
330
1F
100
AcDbEntity
  8
図面枠
  6
CONTINUOUS
 62
     4
100
AcDbText
 10
921.0
 20
634.1484375
 30
0.0
 40
10.38871247113164
  1
重量
 41
0.999230769230769
  7
EXCADTTF1
 72
     5
 11
948.0
 21
634.1484375
 31
0.0
100
AcDbText
  0
TEXT
  5
103
330
1F
100
AcDbEntity
  8
図面枠
  6
CONTINUOUS
 62
     4
100
AcDbText
 10
921.0
 20
652.1484375
 30
0.0
 40
10.38871247113164
  1
所要油量
 41
0.999230769230769
  7
EXCADTTF1
 72
     5
 11
975.0
 21
652.1484375
 31
0.0
100
AcDbText
  0
TEXT
  5
104
330
1F
100
AcDbEntity
  8
図面枠
  6
CONTINUOUS
 62
     4
100
AcDbText
 10
1161.0
 20
634.1484375
 30
0.0
 40
10.38871247113164
  1
kg
 41
0.999230769230769
  7
EXCADTTF1
 72
     5
 11
1174.5
 21
634.1484375
 31
0.0
100
AcDbText
  0
LINE
  5
105
330
1F
100
AcDbEntity
  8
図面枠
  6
CONTINUOUS
 62
     2
100
AcDbLine
 10
915.0
 20
666.0
 30
0.0
 11
1215.0
 21
666.0
 31
0.0
  0
LINE
  5
106
330
1F
100
AcDbEntity
  8
図面枠
  6
CONTINUOUS
 62
     2
100
AcDbLine
 10
915.0
 20
630.0
 30
0.0
 11
1215.0
 21
630.0
 31
0.0
  0
LINE
  5
107
330
1F
100
AcDbEntity
  8
図面枠
  6
CONTINUOUS
 62
     3
100
AcDbLine
 10
915.0
 20
594.0
 30
0.0
 11
1215.0
 21
594.0
 31
0.0
  0
TEXT
  5
108
330
1F
100
AcDbEntity
  8
図面枠
  6
CONTINUOUS
 62
     4
100
AcDbText
 10
921.0
 20
598.1484375
 30
0.0
 40
10.38871247113164
  1
ユニバーサルヘッド振り角は、±3°(±5%%%)
 41
0.9992307692307688
  7
EXCADTTF1
 72
     5
 11
1184.25
 21
598.1484375
 31
0.0
100
AcDbText
  0
TEXT
  5
109
330
1F
100
AcDbEntity
  8
図面枠
  6
CONTINUOUS
 62
     4
100
AcDbText
 10
921.0
 20
616.1484375
 30
0.0
 40
10.38871247113164
  1
備考
 41
0.999230769230769
  7
EXCADTTF1
 72
     5
 11
948.0
 21
616.1484375
 31
0.0
100
AcDbText
  0
LINE
  5
10A
330
1F
100
AcDbEntity
  8
図面枠
  6
CONTINUOUS
 62
     3
100
AcDbLine
 10
915.0
 20
846.0
 30
0.0
 11
915.0
 21
594.0
 31
0.0
  0
LINE
  5
10B
330
1F
100
AcDbEntity
  8
図面枠
  6
CONTINUOUS
 62
     3
100
AcDbLine
 10
1215.0
 20
846.0
 30
0.0
 11
1215.0
 21
594.0
 31
0.0
  0
LINE
  5
10C
330
1F
100
AcDbEntity
  8
図面枠
  6
CONTINUOUS
 62
     2
100
AcDbLine
 10
1155.0
 20
828.0
 30
0.0
 11
1155.0
 21
630.0
 31
0.0
  0
LINE
  5
10D
330
1F
100
AcDbEntity
  8
図面枠
  6
CONTINUOUS
 62
     2
100
AcDbLine
 10
1095.0
 20
828.0
 30
0.0
 11
1095.0
 21
630.0
 31
0.0
  0
LINE
  5
10E
330
1F
100
AcDbEntity
  8
図面枠
  6
CONTINUOUS
 62
     2
100
AcDbLine
 10
915.0
 20
648.0
 30
0.0
 11
1215.0
 21
648.0
 31
0.0
  0
TEXT
  5
10F
330
1F
100
AcDbEntity
  8
図面枠
  6
CONTINUOUS
 62
     4
100
AcDbText
 10
884.9999999999999
 20
558.3984375
 30
0.0
 40
10.38871247113164
  1
※）①ストロークエンドからの加圧はおやめ下さい。
 41
0.9992307692307695
  7
EXCADTTF1
 72
     5
 11
1209.0
 21
558.3984375
 31
0.0
100
AcDbText
  0
TEXT
  5
110
330
1F
100
AcDbEntity
  8
図面枠
  6
CONTINUOUS
 62
     4
100
AcDbText
 10
884.9999999999999
 20
544.8984375
 30
0.0
 40
10.38871247113164
  1
　　
 41
0.999230769230769
  7
EXCADTTF1
 72
     5
 11
911.9999999999999
 21
544.8984375
 31
0.0
100
AcDbText
  0
TEXT
  5
111
330
1F
100
AcDbEntity
  8
図面枠
  6
CONTINUOUS
 62
     4
100
AcDbText
 10
884.9999999999999
 20
531.3984375
 30
0.0
 40
10.38871247113164
  1
　　②ストロークエンドにて安全ナットをロック
 41
0.9992307692307694
  7
EXCADTTF1
 72
     5
 11
1182.0
 21
531.3984375
 31
0.0
100
AcDbText
  0
TEXT
  5
112
330
1F
100
AcDbEntity
  8
図面枠
  6
CONTINUOUS
 62
     4
100
AcDbText
 10
884.9999999999999
 20
517.8984375
 30
0.0
 40
10.38871247113164
  1
　　　した場合、解放が困難になる場合があります。
 41
0.9992307692307695
  7
EXCADTTF1
 72
     5
 11
1209.0
 21
517.8984375
 31
0.0
100
AcDbText
  0
TEXT
  5
113
330
1F
100
AcDbEntity
  8
図面枠
  6
CONTINUOUS
 62
     4
100
AcDbText
 10
884.9999999999999
 20
490.8984375
 30
0.0
 40
10.38871247113164
  1
　　③出荷時にストロークエンド使用が出来ないよう
 41
0.9992307692307695
  7
EXCADTTF1
 72
     5
 11
1209.0
 21
490.8984375
 31
0.0
100
AcDbText
  0
TEXT
  5
114
330
1F
100
AcDbEntity
  8
図面枠
  6
CONTINUOUS
 62
     4
100
AcDbText
 10
884.9999999999999
 20
477.3984375
 30
0.0
 40
10.38871247113164
  1
　　　手動ポンプの油量を調整させていただく場合が
 41
0.9992307692307695
  7
EXCADTTF1
 72
     5
 11
1209.0
 21
477.3984375
 31
0.0
100
AcDbText
  0
TEXT
  5
115
330
1F
100
AcDbEntity
  8
図面枠
  6
CONTINUOUS
 62
     4
100
AcDbText
 10
884.9999999999999
 20
463.8984375
 30
0.0
 40
10.38871247113164
  1
　　　あります。
 41
0.9992307692307688
  7
EXCADTTF1
 72
     5
 11
992.9999999999999
 21
463.8984375
 31
0.0
100
AcDbText
  0
TEXT
  5
116
330
1F
100
AcDbEntity
  8
図面枠
  6
CONTINUOUS
 62
     4
100
AcDbText
 10
1161.0
 20
652.1484375
 30
0.0
 40
10.38871247113164
  1
L
 41
0.999230769230769
  7
EXCADTTF1
 72
     5
 11
1167.75
 21
652.1484375
 31
0.0
100
AcDbText
  0
TEXT
  5
117
330
1F
100
AcDbEntity
  8
図面枠
  6
CONTINUOUS
 62
     4
100
AcDbText
 10
1129.2
 20
652.1484375
 30
0.0
 40
10.38871247113164
  1
2.4
 41
0.999230769230769
  7
EXCADTTF1
 72
     5
 11
1149.45
 21
652.1484375
 31
0.0
100
AcDbText
  0
TEXT
  5
118
330
1F
100
AcDbEntity
  8
図面枠
  6
CONTINUOUS
 62
     4
100
AcDbText
 10
54.00000000000006
 20
826.03125
 30
0.0
 40
13.85161662817552
  1
3000kN50ストローク補修用油圧ジャッキ（タイプC ユニバーサルヘッド付）
 41
0.9992307692307699
  7
EXCADTTF1
 72
     5
 11
666.0
 21
826.03125
 31
0.0
100
AcDbText
  0
LINE
  5
119
330
1F
100
AcDbEntity
  8
図面枠
  6
CONTINUOUS
 62
     3
100
AcDbLine
 10
675.0000000000001
 20
846.0
 30
0.0
 11
675.0000000000001
 21
819.0
 31
0.0
  0
LINE
  5
11A
330
1F
100
AcDbEntity
  8
図面枠
  6
CONTINUOUS
 62
     3
100
AcDbLine
 10
45.00000000000006
 20
846.0
 30
0.0
 11
675.0000000000001
 21
846.0
 31
0.0
  0
LINE
  5
11B
330
1F
100
AcDbEntity
  8
図面枠
  6
CONTINUOUS
 62
     3
100
AcDbLine
 10
45.00000000000005
 20
819.0
 30
0.0
 11
675.0000000000001
 21
819.0
 31
0.0
  0
LINE
  5
11C
330
1F
100
AcDbEntity
  8
図面枠
  6
CONTINUOUS
 62
     3
100
AcDbLine
 10
1098.0
 20
72.0
 30
0.0
 11
1098.0
 21
45.0
 31
0.0
  0
TEXT
  5
11D
330
1F
100
AcDbEntity
  8
図面枠
  6
CONTINUOUS
 62
     4
100
AcDbText
 10
1107.0
 20
52.03125
 30
0.0
 40
13.85161662817552
  1
MJ-30050-UC
 41
0.9992307692307693
  7
EXCADTTF1
 72
     5
 11
1206.0
 21
52.03125
 31
0.0
100
AcDbText
  0
LINE
  5
11E
330
1F
100
AcDbEntity
  8
図面枠
  6
CONTINUOUS
 62
     3
100
AcDbLine
 10
1098.0
 20
72.0
 30
0.0
 11
1215.000000000003
 21
72.0
 31
0.0
  0
LINE
  5
11F
330
1F
100
AcDbEntity
  8
図面枠
  6
CONTINUOUS
 62
     3
100
AcDbLine
 10
1098.0
 20
45.0
 30
0.0
 11
1215.000000000003
 21
45.0
 31
0.0
  0
TEXT
  5
120
330
1F
100
AcDbEntity
  8
図面枠
  6
CONTINUOUS
 62
     4
100
AcDbText
 10
1116.6
 20
633.8484375
 30
0.0
 40
10.38871247113164
  1
約155
 41
0.9992307692307689
  7
EXCADTTF1
 72
     5
 11
1150.35
 21
633.8484375
 31
0.0
100
AcDbText
  0
DIMENSION
  5
122
330
1F
100
AcDbEntity
  8
Ｓ_１_１
  6
CONTINUOUS
 62
     2
100
AcDbDimension
  2
*D15
 10
1180.0
 20
129.999999999996
 30
0.0
 11
1171.75
 21
214.9999999999956
 31
0.0
 70
   160
  3
ISO-25
100
AcDbAlignedDimension
 13
959.9999939999997
 23
299.999999999996
 33
0.0
 14
984.999994
 24
129.999999999996
 34
0.0
 50
90.0
100
AcDbRotatedDimension
1001
ACAD
1000
DSTYLE
1002
{
1070
   270
1070
     2
1070
     6
1000
EX_NORM
1070
     7
1000
EX_NORM
1070
    41
1040
9.0
1070
    42
1040
4.5
1070
    44
1040
3.0
1070
    73
1070
     0
1070
    74
1070
     0
1070
    75
1070
     0
1070
    76
1070
     0
1070
    77
1070
     1
1070
    78
1070
     8
1070
   140
1040
10.38871247113164
1070
   147
1040
0.0
1070
   173
1070
     1
1070
   176
1070
     2
1070
   177
1070
     2
1070
   178
1070
     2
1070
   271
1070
     2
1070
   277
1070
     2
1070
   279
1070
     2
1070
   280
1070
     0
1070
   287
1070
     5
1070
   340
1005
121
1002
}
  0
DIMENSION
  5
130
330
1F
100
AcDbEntity
  8
Ｓ_１_１
  6
CONTINUOUS
 62
     2
100
AcDbDimension
  2
*D16
 10
934.9999999999998
 20
60.00000000000023
 30
0.0
 11
960.0
 21
68.24999999999997
 31
0.0
 70
   160
  3
ISO-25
100
AcDbAlignedDimension
 13
985.0
 23
129.999997999996
 33
0.0
 14
934.9999999999998
 24
129.999997999996
 34
0.0
100
AcDbRotatedDimension
1001
ACAD
1000
DSTYLE
1002
{
1070
   270
1070
     2
1070
     6
1000
EX_NORM
1070
     7
1000
EX_NORM
1070
    41
1040
9.0
1070
    42
1040
0.0
1070
    44
1040
0.0
1070
    73
1070
     0
1070
    74
1070
     0
1070
    75
1070
     1
1070
    76
1070
     1
1070
    77
1070
     1
1070
    78
1070
     8
1070
   140
1040
10.38871247113164
1070
   147
1040
0.0
1070
   173
1070
     1
1070
   176
1070
     2
1070
   177
1070
     2
1070
   178
1070
     2
1070
   271
1070
     2
1070
   277
1070
     2
1070
   279
1070
     2
1070
   280
1070
     0
1070
   287
1070
     5
1070
   340
1005
121
1002
}
  0
DIMENSION
  5
13B
330
1F
100
AcDbEntity
  8
Ｓ_１_１
  6
CONTINUOUS
 62
     2
100
AcDbDimension
  2
*D17
 10
169.0
 20
540.0000000000005
 30
0.0
 11
400.0000000000005
 21
548.25
 31
0.0
 70
   160
  1
462
  3
ISO-25
100
AcDbAlignedDimension
 13
631.0
 23
779.9999989999358
 33
0.0
 14
169.0
 24
779.9999989999358
 34
0.0
100
AcDbRotatedDimension
1001
ACAD
1000
DSTYLE
1002
{
1070
   270
1070
     2
1070
     6
1000
EX_NORM
1070
     7
1000
EX_NORM
1070
    41
1040
9.0
1070
    42
1040
4.5
1070
    44
1040
2.999999999999886
1070
    73
1070
     0
1070
    74
1070
     0
1070
    75
1070
     0
1070
    76
1070
     0
1070
    77
1070
     1
1070
    78
1070
     8
1070
   140
1040
10.38871247113164
1070
   147
1040
0.0
1070
   173
1070
     1
1070
   176
1070
     2
1070
   177
1070
     2
1070
   178
1070
     2
1070
   271
1070
     2
1070
   277
1070
     2
1070
   279
1070
     2
1070
   280
1070
     0
1070
   287
1070
     5
1070
   340
1005
121
1002
}
  0
DIMENSION
  5
148
330
1F
100
AcDbEntity
  8
Ｓ_１_１
  6
CONTINUOUS
 62
     2
100
AcDbDimension
  2
*D18
 10
555.0000109999999
 20
480.0
 30
0.0
 11
400.0000109999997
 21
488.25
 31
0.0
 70
   160
  1
%%c310
  3
ISO-25
100
AcDbAlignedDimension
 13
245.0000109999999
 23
356.9999999999959
 33
0.0
 14
555.0000109999999
 24
356.9999999999959
 34
0.0
100
AcDbRotatedDimension
1001
ACAD
1000
DSTYLE
1002
{
1070
   270
1070
     2
1070
     6
1000
EX_NORM
1070
     7
1000
EX_NORM
1070
    41
1040
9.0
1070
    42
1040
4.5
1070
    44
1040
3.0
1070
    73
1070
     0
1070
    74
1070
     0
1070
    75
1070
     0
1070
    76
1070
     0
1070
    77
1070
     1
1070
    78
1070
     8
1070
   140
1040
10.38871247113164
1070
   147
1040
0.0
1070
   173
1070
     1
1070
   176
1070
     2
1070
   177
1070
     2
1070
   178
1070
     2
1070
   271
1070
     2
1070
   277
1070
     2
1070
   279
1070
     2
1070
   280
1070
     0
1070
   287
1070
     5
1070
   340
1005
121
1002
}
  0
DIMENSION
  5
155
330
1F
100
AcDbEntity
  8
Ｓ_１_１
  6
CONTINUOUS
 62
     2
100
AcDbDimension
  2
*D19
 10
500.0000109999999
 20
440.0
 30
0.0
 11
400.0000109999999
 21
448.25
 31
0.0
 70
   160
  1
Tr200×6
  3
ISO-25
100
AcDbAlignedDimension
 13
300.000011
 23
360.0000009999959
 33
0.0
 14
500.0000109999999
 24
360.0000009999959
 34
0.0
100
AcDbRotatedDimension
1001
ACAD
1000
DSTYLE
1002
{
1070
   270
1070
     2
1070
     6
1000
EX_NORM
1070
     7
1000
EX_NORM
1070
    41
1040
9.0
1070
    42
1040
4.5
1070
    44
1040
3.0
1070
    73
1070
     0
1070
    74
1070
     0
1070
    75
1070
     0
1070
    76
1070
     0
1070
    77
1070
     1
1070
    78
1070
     8
1070
   140
1040
10.38871247113164
1070
   147
1040
0.0
1070
   173
1070
     1
1070
   176
1070
     2
1070
   177
1070
     2
1070
   178
1070
     2
1070
   271
1070
     2
1070
   277
1070
     2
1070
   279
1070
     2
1070
   280
1070
     0
1070
   287
1070
     5
1070
   340
1005
121
1002
}
  0
DIMENSION
  5
162
330
1F
100
AcDbEntity
  8
Ｓ_１_１
  6
CONTINUOUS
 62
     2
100
AcDbDimension
  2
*D20
 10
240.0000109999999
 20
60.00000000000023
 30
0.0
 11
400.0000109999999
 21
68.25000000000003
 31
0.0
 70
   160
  1
%%c320
  3
ISO-25
100
AcDbAlignedDimension
 13
560.0000109999999
 23
122.999998999996
 33
0.0
 14
240.0000109999999
 24
122.999998999996
 34
0.0
100
AcDbRotatedDimension
1001
ACAD
1000
DSTYLE
1002
{
1070
   270
1070
     2
1070
     6
1000
EX_NORM
1070
     7
1000
EX_NORM
1070
    41
1040
9.0
1070
    42
1040
4.5
1070
    44
1040
3.0
1070
    73
1070
     0
1070
    74
1070
     0
1070
    75
1070
     0
1070
    76
1070
     0
1070
    77
1070
     1
1070
    78
1070
     8
1070
   140
1040
10.38871247113164
1070
   147
1040
0.0
1070
   173
1070
     1
1070
   176
1070
     2
1070
   177
1070
     2
1070
   178
1070
     2
1070
   271
1070
     2
1070
   277
1070
     2
1070
   279
1070
     2
1070
   280
1070
     0
1070
   287
1070
     5
1070
   340
1005
121
1002
}
  0
DIMENSION
  5
16F
330
1F
100
AcDbEntity
  8
Ｓ_１_１
  6
CONTINUOUS
 62
     2
100
AcDbDimension
  2
*D21
 10
120.0
 20
399.9999999999959
 30
0.0
 11
111.7500000000001
 21
259.9999999999959
 31
0.0
 70
   160
  1
280
  3
ISO-25
100
AcDbAlignedDimension
 13
243.0000129999999
 23
119.999999999996
 33
0.0
 14
277.9999979999999
 24
399.9999999999959
 34
0.0
 50
90.0
100
AcDbRotatedDimension
1001
ACAD
1000
DSTYLE
1002
{
1070
   270
1070
     2
1070
     6
1000
EX_NORM
1070
     7
1000
EX_NORM
1070
    41
1040
9.0
1070
    42
1040
4.5
1070
    44
1040
3.0
1070
    73
1070
     0
1070
    74
1070
     0
1070
    75
1070
     0
1070
    76
1070
     0
1070
    77
1070
     1
1070
    78
1070
     8
1070
   140
1040
10.38871247113164
1070
   147
1040
0.0
1070
   173
1070
     1
1070
   176
1070
     2
1070
   177
1070
     2
1070
   178
1070
     2
1070
   271
1070
     2
1070
   277
1070
     2
1070
   279
1070
     2
1070
   280
1070
     0
1070
   287
1070
     5
1070
   340
1005
121
1002
}
  0
DIMENSION
  5
17C
330
1F
100
AcDbEntity
  8
Ｓ_１_１
  6
CONTINUOUS
 62
     2
100
AcDbDimension
  2
*D22
 10
139.9999999999998
 20
399.9999999999959
 30
0.0
 11
131.7500000000002
 21
379.9999999999956
 31
0.0
 70
   160
  3
ISO-25
100
AcDbAlignedDimension
 13
238.000014
 23
359.9999999999959
 33
0.0
 14
277.999999
 24
399.9999999999959
 34
0.0
 50
90.0
100
AcDbRotatedDimension
1001
ACAD
1000
DSTYLE
1002
{
1070
   270
1070
     2
1070
     6
1000
EX_NORM
1070
     7
1000
EX_NORM
1070
    41
1040
9.0
1070
    42
1040
4.5
1070
    44
1040
3.0
1070
    73
1070
     0
1070
    74
1070
     0
1070
    75
1070
     1
1070
    76
1070
     0
1070
    77
1070
     1
1070
    78
1070
     8
1070
   140
1040
10.38871247113164
1070
   147
1040
0.0
1070
   173
1070
     1
1070
   176
1070
     2
1070
   177
1070
     2
1070
   178
1070
     2
1070
   271
1070
     2
1070
   277
1070
     2
1070
   279
1070
     2
1070
   280
1070
     0
1070
   287
1070
     5
1070
   340
1005
121
1002
}
  0
DIMENSION
  5
188
330
1F
100
AcDbEntity
  8
Ｓ_１_１
  6
CONTINUOUS
 62
     2
100
AcDbDimension
  2
*D23
 10
139.9999999999997
 20
359.9999999999959
 30
0.0
 11
131.75
 21
332.4999999999958
 31
0.0
 70
   160
  3
ISO-25
100
AcDbAlignedDimension
 13
233.000014
 23
304.999999999996
 33
0.0
 14
248.000014
 24
359.9999999999959
 34
0.0
 50
90.0
100
AcDbRotatedDimension
1001
ACAD
1000
DSTYLE
1002
{
1070
   270
1070
     2
1070
     6
1000
EX_NORM
1070
     7
1000
EX_NORM
1070
    41
1040
9.0
1070
    42
1040
4.5
1070
    44
1040
3.0
1070
    73
1070
     0
1070
    74
1070
     0
1070
    75
1070
     1
1070
    76
1070
     0
1070
    77
1070
     1
1070
    78
1070
     8
1070
   140
1040
10.38871247113164
1070
   147
1040
0.0
1070
   173
1070
     1
1070
   176
1070
     2
1070
   177
1070
     2
1070
   178
1070
     2
1070
   271
1070
     2
1070
   277
1070
     2
1070
   279
1070
     2
1070
   280
1070
     0
1070
   287
1070
     5
1070
   340
1005
121
1002
}
  0
DIMENSION
  5
194
330
1F
100
AcDbEntity
  8
Ｓ_１_１
  6
CONTINUOUS
 62
     2
100
AcDbDimension
  2
*D24
 10
140.0
 20
304.999999999996
 30
0.0
 11
131.7500000000001
 21
212.4999999999959
 31
0.0
 70
   160
  3
ISO-25
100
AcDbAlignedDimension
 13
243.000014
 23
119.999999999996
 33
0.0
 14
243.000014
 24
304.999999999996
 34
0.0
 50
90.0
100
AcDbRotatedDimension
1001
ACAD
1000
DSTYLE
1002
{
1070
   270
1070
     2
1070
     6
1000
EX_NORM
1070
     7
1000
EX_NORM
1070
    41
1040
9.0
1070
    42
1040
4.5
1070
    44
1040
3.0
1070
    73
1070
     0
1070
    74
1070
     0
1070
    75
1070
     0
1070
    76
1070
     0
1070
    77
1070
     1
1070
    78
1070
     8
1070
   140
1040
10.38871247113164
1070
   147
1040
0.0
1070
   173
1070
     1
1070
   176
1070
     2
1070
   177
1070
     2
1070
   178
1070
     2
1070
   271
1070
     2
1070
   277
1070
     2
1070
   279
1070
     2
1070
   280
1070
     0
1070
   287
1070
     5
1070
   340
1005
121
1002
}
  0
DIMENSION
  5
1A1
330
1F
100
AcDbEntity
  8
Ｓ_１_１
  6
CONTINUOUS
 62
     2
100
AcDbDimension
  2
*D25
 10
524.9999999999998
 20
459.9999999999999
 30
0.0
 11
399.9999999999998
 21
468.2499999999999
 31
0.0
 70
   160
  1
%%c250
  3
ISO-25
100
AcDbAlignedDimension
 13
274.9999999999999
 23
396.9999999999999
 33
0.0
 14
524.9999999999998
 24
396.9999999999999
 34
0.0
100
AcDbRotatedDimension
1001
ACAD
1000
DSTYLE
1002
{
1070
   270
1070
     2
1070
     6
1000
EX_NORM
1070
     7
1000
EX_NORM
1070
    41
1040
9.0
1070
    42
1040
4.5
1070
    44
1040
3.0
1070
    73
1070
     0
1070
    74
1070
     0
1070
    75
1070
     0
1070
    76
1070
     0
1070
    77
1070
     1
1070
    78
1070
     8
1070
   140
1040
10.38871247113164
1070
   147
1040
0.0
1070
   173
1070
     1
1070
   176
1070
     2
1070
   177
1070
     2
1070
   178
1070
     2
1070
   271
1070
     2
1070
   277
1070
     2
1070
   279
1070
     2
1070
   280
1070
     0
1070
   287
1070
     5
1070
   340
1005
121
1002
}
  0
DIMENSION
  5
1AE
330
1F
100
AcDbEntity
  8
Ｓ_１_１
  6
CONTINUOUS
 62
     2
100
AcDbDimension
  2
*D26
 10
1180.0
 20
120.0
 30
0.0
 11
1171.75
 21
104.2499999999996
 31
0.0
 70
   160
  3
ISO-25
100
AcDbAlignedDimension
 13
984.9999999999994
 23
129.9999999999999
 33
0.0
 14
1116.99999999997
 24
120.0
 34
0.0
 50
90.0
100
AcDbRotatedDimension
1001
ACAD
1000
DSTYLE
1002
{
1070
   270
1070
     2
1070
     6
1000
EX_NORM
1070
     7
1000
EX_NORM
1070
    41
1040
9.0
1070
    42
1040
4.5
1070
    44
1040
7.299990177154541
1070
    73
1070
     0
1070
    74
1070
     0
1070
    75
1070
     1
1070
    76
1070
     0
1070
    77
1070
     1
1070
    78
1070
     8
1070
   140
1040
10.38871247113164
1070
   147
1040
0.0
1070
   173
1070
     1
1070
   176
1070
     2
1070
   177
1070
     2
1070
   178
1070
     2
1070
   271
1070
     2
1070
   277
1070
     2
1070
   279
1070
     2
1070
   280
1070
     2
1070
   287
1070
     5
1070
   340
1005
121
1002
}
  0
DIMENSION
  5
1BC
330
1F
100
AcDbEntity
  8
Ｓ_１_１
  6
CONTINUOUS
 62
     2
100
AcDbDimension
  2
*D27
 10
1001.0
 20
60.0
 30
0.0
 11
1016.75
 21
68.25
 31
0.0
 70
   160
  3
ISO-25
100
AcDbAlignedDimension
 13
984.9999999999994
 23
129.9999999999999
 33
0.0
 14
1001.0
 24
139.9999999999999
 34
0.0
100
AcDbRotatedDimension
1001
ACAD
1000
DSTYLE
1002
{
1070
   270
1070
     2
1070
     6
1000
EX_NORM
1070
     7
1000
EX_NORM
1070
    41
1040
9.0
1070
    42
1040
4.5
1070
    44
1040
3.0
1070
    73
1070
     0
1070
    74
1070
     0
1070
    75
1070
     0
1070
    76
1070
     0
1070
    77
1070
     1
1070
    78
1070
     8
1070
   140
1040
10.38871247113164
1070
   147
1040
0.0
1070
   173
1070
     1
1070
   176
1070
     2
1070
   177
1070
     2
1070
   178
1070
     2
1070
   271
1070
     2
1070
   277
1070
     2
1070
   279
1070
     2
1070
   280
1070
     2
1070
   287
1070
     5
1070
   340
1005
121
1002
}
  0
DIMENSION
  5
1CB
330
1F
100
AcDbEntity
  8
Ｓ_１_１
  6
CONTINUOUS
 62
     2
100
AcDbDimension
  2
*D28
 10
934.9999999999998
 20
60.0
 30
0.0
 11
903.2499999999994
 21
68.25
 31
0.0
 70
   160
  1
16
  3
ISO-25
100
AcDbAlignedDimension
 13
918.9999999999994
 23
139.9999999999999
 33
0.0
 14
934.9999999999998
 24
129.9999999999999
 34
0.0
100
AcDbRotatedDimension
1001
ACAD
1000
DSTYLE
1002
{
1070
   270
1070
     2
1070
     6
1000
EX_NORM
1070
     7
1000
EX_NORM
1070
    41
1040
9.0
1070
    42
1040
4.5
1070
    44
1040
3.0
1070
    73
1070
     0
1070
    74
1070
     0
1070
    75
1070
     0
1070
    76
1070
     0
1070
    77
1070
     1
1070
    78
1070
     8
1070
   140
1040
10.38871247113164
1070
   147
1040
0.0
1070
   173
1070
     1
1070
   176
1070
     2
1070
   177
1070
     2
1070
   178
1070
     2
1070
   271
1070
     2
1070
   277
1070
     2
1070
   279
1070
     2
1070
   280
1070
     1
1070
   287
1070
     5
1070
   340
1005
121
1002
}
  0
POINT
  5
1DA
330
1F
100
AcDbEntity
  8
Ｓ_１_１
  6
CONTINUOUS
 62
   160
100
AcDbPoint
 10
212.0
 20
779.9999999999359
 30
0.0
  0
LINE
  5
1DB
330
1F
100
AcDbEntity
  8
Ｓ_１_１
  6
EXLTYPE2
 62
     1
100
AcDbLine
 10
399.9999999999999
 20
779.9999999999359
 30
0.0
 11
150.0
 21
779.9999999999359
 31
0.0
  0
LINE
  5
1DC
330
1F
100
AcDbEntity
  8
Ｓ_１_１
  6
EXLTYPE2
 62
     1
100
AcDbLine
 10
399.9999999999999
 20
779.9999999999359
 30
0.0
 11
650.0
 21
779.9999999999359
 31
0.0
  0
LINE
  5
1DD
330
1F
100
AcDbEntity
  8
Ｓ_１_１
  6
EXLTYPE2
 62
     1
100
AcDbLine
 10
399.9999999999999
 20
609.9999999999359
 30
0.0
 11
399.9999999999999
 21
789.9999999999359
 31
0.0
  0
LINE
  5
1DE
330
1F
100
AcDbEntity
  8
Ｓ_１_１
  6
EXLTYPE2
 62
     1
100
AcDbLine
 10
263.167987
 20
700.9999999999359
 30
0.0
 11
290.934647
 21
717.031088999936
 31
0.0
  0
ARC
  5
1DF
330
1F
100
AcDbEntity
  8
Ｓ_１_１
  6
EXLTYPE2
 62
     1
100
AcDbCircle
 10
399.9999999999999
 20
779.9999999999359
 30
0.0
 40
55.00000000000003
100
AcDbArc
 50
180.0
 51
0.0
  0
ARC
  5
1E0
330
1F
100
AcDbEntity
  8
Ｓ_１_１
  6
EXLTYPE2
 62
     1
100
AcDbCircle
 10
399.9999999999999
 20
779.9999999999359
 30
0.0
 40
85.0
100
AcDbArc
 50
180.0
 51
0.0
  0
ARC
  5
1E1
330
1F
100
AcDbEntity
  8
Ｓ_１_１
  6
EXLTYPE2
 62
     1
100
AcDbCircle
 10
399.9999999999999
 20
779.9999999999359
 30
0.0
 40
115.0000000000001
100
AcDbArc
 50
180.0
 51
0.0
  0
ARC
  5
1E2
330
1F
100
AcDbEntity
  8
Ｓ_１_１
  6
EXLTYPE2
 62
     1
100
AcDbCircle
 10
399.9999999999999
 20
779.9999999999359
 30
0.0
 40
100.0000000000001
100
AcDbArc
 50
180.0
 51
0.0
  0
ARC
  5
1E3
330
1F
100
AcDbEntity
  8
Ｓ_１_１
  6
EXLTYPE2
 62
     1
100
AcDbCircle
 10
399.9999999999999
 20
779.9999999999359
 30
0.0
 40
25.00000000000002
100
AcDbArc
 50
180.0
 51
0.0
  0
LINE
  5
1E4
330
1F
100
AcDbEntity
  8
Ｓ_１_１
  6
EXLTYPE2
 62
     1
100
AcDbLine
 10
227.0
 20
736.9999999999359
 30
0.0
 11
227.0
 21
756.9999999999359
 31
0.0
  0
ARC
  5
1E5
330
1F
100
AcDbEntity
  8
Ｓ_１_１
  6
EXLTYPE2
 62
     1
100
AcDbCircle
 10
210.0
 20
779.9999999999359
 30
0.0
 40
33.0
100
AcDbArc
 50
180.0
 51
270.0000000000002
  0
LINE
  5
1E6
330
1F
100
AcDbEntity
  8
Ｓ_１_１
  6
EXLTYPE2
 62
     1
100
AcDbLine
 10
210.0
 20
746.9999999999359
 30
0.0
 11
240.0
 21
746.9999999999359
 31
0.0
  0
LINE
  5
1E7
330
1F
100
AcDbEntity
  8
Ｓ_１_１
  6
EXLTYPE0
 62
     2
100
AcDbLine
 10
240.253326
 20
770.9999999999359
 30
0.0
 11
212.0
 21
770.9999999999359
 31
0.0
  0
ARC
  5
1E8
330
1F
100
AcDbEntity
  8
Ｓ_１_１
  6
EXLTYPE0
 62
     2
100
AcDbCircle
 10
227.0
 20
746.9999999999359
 30
0.0
 40
8.0
100
AcDbArc
 50
90.00000000000001
 51
270.0000000000002
  0
LINE
  5
1E9
330
1F
100
AcDbEntity
  8
Ｓ_１_１
  6
CONTINUOUS
 62
     3
100
AcDbLine
 10
542.296687
 20
693.1809199999359
 30
0.0
 11
530.2515820000001
 21
675.978726999936
 31
0.0
  0
LINE
  5
1EA
330
1F
100
AcDbEntity
  8
Ｓ_１_１
  6
CONTINUOUS
 62
     3
100
AcDbLine
 10
549.6690550000001
 20
688.0187319999359
 30
0.0
 11
537.6239499999999
 21
670.816538999936
 31
0.0
  0
LINE
  5
1EB
330
1F
100
AcDbEntity
  8
Ｓ_１_１
  6
CONTINUOUS
 62
     3
100
AcDbLine
 10
539.400627
 20
674.992735999936
 30
0.0
 11
533.568264
 21
679.0766009999359
 31
0.0
  0
LINE
  5
1EC
330
1F
100
AcDbEntity
  8
Ｓ_１_１
  6
CONTINUOUS
 62
     3
100
AcDbLine
 10
546.352373
 20
684.920858999936
 30
0.0
 11
540.5200110000001
 21
689.0047229999359
 31
0.0
  0
LINE
  5
1ED
330
1F
100
AcDbEntity
  8
Ｓ_１_１
  6
CONTINUOUS
 62
     3
100
AcDbLine
 10
549.828246
 20
689.884920999936
 30
0.0
 11
543.9958839999999
 21
693.9687849999359
 31
0.0
  0
LINE
  5
1EE
330
1F
100
AcDbEntity
  8
Ｓ_１_１
  6
CONTINUOUS
 62
     3
100
AcDbLine
 10
535.9247539999999
 20
670.0286749999359
 30
0.0
 11
530.0923909999999
 21
674.1125389999361
 31
0.0
  0
LINE
  5
1EF
330
1F
100
AcDbEntity
  8
Ｓ_１_１
  6
CONTINUOUS
 62
     3
100
AcDbLine
 10
537.6239499999999
 20
670.816538999936
 30
0.0
 11
535.9247539999999
 21
670.0286749999359
 31
0.0
  0
LINE
  5
1F0
330
1F
100
AcDbEntity
  8
Ｓ_１_１
  6
CONTINUOUS
 62
     3
100
AcDbLine
 10
530.2515820000001
 20
675.978726999936
 30
0.0
 11
530.0923909999999
 21
674.1125389999361
 31
0.0
  0
LINE
  5
1F1
330
1F
100
AcDbEntity
  8
Ｓ_１_１
  6
CONTINUOUS
 62
     3
100
AcDbLine
 10
549.6690550000001
 20
688.0187319999359
 30
0.0
 11
549.828246
 21
689.884920999936
 31
0.0
  0
LINE
  5
1F2
330
1F
100
AcDbEntity
  8
Ｓ_１_１
  6
CONTINUOUS
 62
     3
100
AcDbLine
 10
542.296687
 20
693.1809199999359
 30
0.0
 11
543.9958839999999
 21
693.9687849999359
 31
0.0
  0
LINE
  5
1F3
330
1F
100
AcDbEntity
  8
Ｓ_１_１
  6
CONTINUOUS
 62
     3
100
AcDbLine
 10
535.081426
 20
694.2503149999359
 30
0.0
 11
539.496326
 21
691.552676999936
 31
0.0
  0
LINE
  5
1F4
330
1F
100
AcDbEntity
  8
Ｓ_１_１
  6
CONTINUOUS
 62
     3
100
AcDbLine
 10
535.456842
 20
694.844587999936
 30
0.0
 11
541.063498
 21
691.419742999936
 31
0.0
  0
LINE
  5
1F5
330
1F
100
AcDbEntity
  8
Ｓ_１_１
  6
CONTINUOUS
 62
     3
100
AcDbLine
 10
539.897829
 20
692.1260839999359
 30
0.0
 11
530.4223460000001
 21
678.593691999936
 31
0.0
  0
LINE
  5
1F6
330
1F
100
AcDbEntity
  8
Ｓ_１_１
  6
CONTINUOUS
 62
     3
100
AcDbLine
 10
541.063498
 20
691.419742999936
 30
0.0
 11
539.496326
 21
691.552676999936
 31
0.0
  0
LINE
  5
1F7
330
1F
100
AcDbEntity
  8
Ｓ_１_１
  6
CONTINUOUS
 62
     3
100
AcDbLine
 10
526.7789150000001
 20
682.3930999999359
 30
0.0
 11
530.82385
 21
679.167097999936
 31
0.0
  0
LINE
  5
1F8
330
1F
100
AcDbEntity
  8
Ｓ_１_１
  6
CONTINUOUS
 62
     3
100
AcDbLine
 10
526.3488809999999
 20
681.8370719999359
 30
0.0
 11
531.4847709999999
 21
677.7399039999359
 31
0.0
  0
LINE
  5
1F9
330
1F
100
AcDbEntity
  8
Ｓ_１_１
  6
CONTINUOUS
 62
     3
100
AcDbLine
 10
530.82385
 20
679.167097999936
 30
0.0
 11
531.4847709999999
 21
677.7399039999359
 31
0.0
  0
LINE
  5
1FA
330
1F
100
AcDbEntity
  8
Ｓ_１_１
  6
CONTINUOUS
 62
     3
100
AcDbLine
 10
549.4982910000001
 20
685.403767999936
 30
0.0
 11
540.0228079999999
 21
671.8713759999359
 31
0.0
  0
LINE
  5
1FB
330
1F
100
AcDbEntity
  8
Ｓ_１_１
  6
CONTINUOUS
 62
     3
100
AcDbLine
 10
545.6718639999999
 20
669.2343009999361
 30
0.0
 11
540.4243120000001
 21
672.444782999936
 31
0.0
  0
LINE
  5
1FC
330
1F
100
AcDbEntity
  8
Ｓ_１_１
  6
CONTINUOUS
 62
     3
100
AcDbLine
 10
545.2703610000001
 20
668.6608949999359
 30
0.0
 11
538.8571400000001
 21
672.5777159999359
 31
0.0
  0
LINE
  5
1FD
330
1F
100
AcDbEntity
  8
Ｓ_１_１
  6
CONTINUOUS
 62
     3
100
AcDbLine
 10
540.4243120000001
 20
672.444782999936
 30
0.0
 11
538.8571400000001
 21
672.5777159999359
 31
0.0
  0
LINE
  5
1FE
330
1F
100
AcDbEntity
  8
Ｓ_１_１
  6
CONTINUOUS
 62
     3
100
AcDbLine
 10
554.3099259999999
 20
681.5707309999359
 30
0.0
 11
548.435866
 21
686.2575559999359
 31
0.0
  0
LINE
  5
1FF
330
1F
100
AcDbEntity
  8
Ｓ_１_１
  6
CONTINUOUS
 62
     3
100
AcDbLine
 10
548.435866
 20
686.2575559999359
 30
0.0
 11
549.0967880000001
 21
684.8303609999359
 31
0.0
  0
LINE
  5
200
330
1F
100
AcDbEntity
  8
Ｓ_１_１
  6
CONTINUOUS
 62
     3
100
AcDbLine
 10
553.908422
 20
680.997323999936
 30
0.0
 11
549.0967880000001
 21
684.8303609999359
 31
0.0
  0
LINE
  5
201
330
1F
100
AcDbEntity
  8
Ｓ_１_１
  6
CONTINUOUS
 62
     3
100
AcDbLine
 10
607.8700630000001
 20
649.097109999936
 30
0.0
 11
594.104229
 21
629.4374609999359
 31
0.0
  0
LINE
  5
202
330
1F
100
AcDbEntity
  8
Ｓ_１_１
  6
CONTINUOUS
 62
     3
100
AcDbLine
 10
566.9124609999999
 20
677.7759319999359
 30
0.0
 11
553.1466270000001
 21
658.116282999936
 31
0.0
  0
LINE
  5
203
330
1F
100
AcDbEntity
  8
Ｓ_１_１
  6
CONTINUOUS
 62
     3
100
AcDbLine
 10
579.199742
 20
669.172284999936
 30
0.0
 11
565.4339070000001
 21
649.512635999936
 31
0.0
  0
LINE
  5
204
330
1F
100
AcDbEntity
  8
Ｓ_１_１
  6
CONTINUOUS
 62
     3
100
AcDbLine
 10
587.3508999999999
 20
667.7374939999361
 30
0.0
 11
579.4642240000001
 21
656.474152999936
 31
0.0
  0
LINE
  5
205
330
1F
100
AcDbEntity
  8
Ｓ_１_１
  6
CONTINUOUS
 62
     3
100
AcDbLine
 10
571.0039710000001
 20
644.391660999936
 30
0.0
 11
565.335439
 21
648.360809999936
 31
0.0
  0
LINE
  5
206
330
1F
100
AcDbEntity
  8
Ｓ_１_１
  6
CONTINUOUS
 62
     3
100
AcDbLine
 10
585.916958
 20
665.689613999936
 30
0.0
 11
580.2484260000001
 21
669.658762999936
 31
0.0
  0
LINE
  5
207
330
1F
100
AcDbEntity
  8
Ｓ_１_１
  6
CONTINUOUS
 62
     3
100
AcDbLine
 10
607.8700630000001
 20
649.097109999936
 30
0.0
 11
607.4604870000001
 21
649.3838979999359
 31
0.0
  0
LINE
  5
208
330
1F
100
AcDbEntity
  8
Ｓ_１_１
  6
CONTINUOUS
 62
     3
100
AcDbLine
 10
594.104229
 20
629.4374609999359
 30
0.0
 11
593.694653
 21
629.724248999936
 31
0.0
  0
LINE
  5
209
330
1F
100
AcDbEntity
  8
Ｓ_１_１
  6
CONTINUOUS
 62
     3
100
AcDbLine
 10
567.010929
 20
678.9277579999359
 30
0.0
 11
557.721745
 21
685.432114999936
 31
0.0
  0
LINE
  5
20A
330
1F
100
AcDbEntity
  8
Ｓ_１_１
  6
CONTINUOUS
 62
     3
100
AcDbLine
 10
552.0979420000001
 20
657.6298049999359
 30
0.0
 11
542.8087579999999
 21
664.1341619999359
 31
0.0
  0
LINE
  5
20B
330
1F
100
AcDbEntity
  8
Ｓ_１_１
  6
CONTINUOUS
 62
     3
100
AcDbLine
 10
607.297337
 20
654.381235999936
 30
0.0
 11
601.1536960000001
 21
658.6830589999361
 31
0.0
  0
LINE
  5
20C
330
1F
100
AcDbEntity
  8
Ｓ_１_１
  6
CONTINUOUS
 62
     3
100
AcDbLine
 10
588.9428909999999
 20
628.168369999936
 30
0.0
 11
582.7992509999999
 21
632.4701939999359
 31
0.0
  0
LINE
  5
20D
330
1F
100
AcDbEntity
  8
Ｓ_１_１
  6
CONTINUOUS
 62
     3
100
AcDbLine
 10
608.034064
 20
650.203049999936
 30
0.0
 11
593.1210759999999
 21
628.905096999936
 31
0.0
  0
LINE
  5
20E
330
1F
100
AcDbEntity
  8
Ｓ_１_１
  6
CONTINUOUS
 62
     3
100
AcDbLine
 10
565.4339070000001
 20
649.512635999936
 30
0.0
 11
553.1466270000001
 21
658.116282999936
 31
0.0
  0
LINE
  5
20F
330
1F
100
AcDbEntity
  8
Ｓ_１_１
  6
CONTINUOUS
 62
     3
100
AcDbLine
 10
579.199742
 20
669.172284999936
 30
0.0
 11
566.9124609999999
 21
677.7759319999359
 31
0.0
  0
LINE
  5
210
330
1F
100
AcDbEntity
  8
Ｓ_１_１
  6
CONTINUOUS
 62
     3
100
AcDbLine
 10
608.034064
 20
650.203049999936
 30
0.0
 11
607.297337
 21
654.381235999936
 31
0.0
  0
LINE
  5
211
330
1F
100
AcDbEntity
  8
Ｓ_１_１
  6
CONTINUOUS
 62
     3
100
AcDbLine
 10
593.1210759999999
 20
628.905096999936
 30
0.0
 11
588.9428909999999
 21
628.168369999936
 31
0.0
  0
LINE
  5
212
330
1F
100
AcDbEntity
  8
Ｓ_１_１
  6
CONTINUOUS
 62
     3
100
AcDbLine
 10
600.457332
 20
658.5602709999359
 30
0.0
 11
593.9041159999999
 21
663.148882999936
 31
0.0
  0
LINE
  5
213
330
1F
100
AcDbEntity
  8
Ｓ_１_１
  6
CONTINUOUS
 62
     3
100
AcDbLine
 10
582.676463
 20
633.166557999936
 30
0.0
 11
576.1232460000001
 21
637.7551689999359
 31
0.0
  0
LINE
  5
214
330
1F
100
AcDbEntity
  8
Ｓ_１_１
  6
CONTINUOUS
 62
     3
100
AcDbLine
 10
593.9041159999999
 20
663.148882999936
 30
0.0
 11
576.1232460000001
 21
637.7551689999359
 31
0.0
  0
LINE
  5
215
330
1F
100
AcDbEntity
  8
Ｓ_１_１
  6
CONTINUOUS
 62
     3
100
AcDbLine
 10
600.457332
 20
658.5602709999359
 30
0.0
 11
582.676463
 21
633.166557999936
 31
0.0
  0
LINE
  5
216
330
1F
100
AcDbEntity
  8
Ｓ_１_１
  6
CONTINUOUS
 62
     3
100
AcDbLine
 10
593.781328
 20
663.8452469999361
 30
0.0
 11
593.9041159999999
 21
663.148882999936
 31
0.0
  0
LINE
  5
217
330
1F
100
AcDbEntity
  8
Ｓ_１_１
  6
CONTINUOUS
 62
     3
100
AcDbLine
 10
582.676463
 20
633.166557999936
 30
0.0
 11
582.7992509999999
 21
632.4701939999359
 31
0.0
  0
LINE
  5
218
330
1F
100
AcDbEntity
  8
Ｓ_１_１
  6
CONTINUOUS
 62
     3
100
AcDbLine
 10
576.1232460000001
 20
637.7551689999359
 30
0.0
 11
575.426882
 21
637.632380999936
 31
0.0
  0
LINE
  5
219
330
1F
100
AcDbEntity
  8
Ｓ_１_１
  6
CONTINUOUS
 62
     3
100
AcDbLine
 10
601.1536960000001
 20
658.6830589999361
 30
0.0
 11
600.457332
 21
658.5602709999359
 31
0.0
  0
LINE
  5
21A
330
1F
100
AcDbEntity
  8
Ｓ_１_１
  6
CONTINUOUS
 62
     3
100
AcDbLine
 10
593.781328
 20
663.8452469999361
 30
0.0
 11
588.047264
 21
667.860281999936
 31
0.0
  0
LINE
  5
21B
330
1F
100
AcDbEntity
  8
Ｓ_１_１
  6
CONTINUOUS
 62
     3
100
AcDbLine
 10
575.426882
 20
637.632380999936
 30
0.0
 11
569.692818
 21
641.6474159999359
 31
0.0
  0
LINE
  5
21C
330
1F
100
AcDbEntity
  8
Ｓ_１_１
  6
CONTINUOUS
 62
     3
100
AcDbLine
 10
588.047264
 20
667.860281999936
 30
0.0
 11
587.3508999999999
 21
667.7374939999361
 31
0.0
  0
LINE
  5
21D
330
1F
100
AcDbEntity
  8
Ｓ_１_１
  6
CONTINUOUS
 62
     3
100
AcDbLine
 10
569.5700300000001
 20
642.3437809999359
 30
0.0
 11
569.692818
 21
641.6474159999359
 31
0.0
  0
LINE
  5
21E
330
1F
100
AcDbEntity
  8
Ｓ_１_１
  6
CONTINUOUS
 62
     3
100
AcDbLine
 10
575.426882
 20
637.632380999936
 30
0.0
 11
593.781328
 21
663.8452469999361
 31
0.0
  0
LINE
  5
21F
330
1F
100
AcDbEntity
  8
Ｓ_１_１
  6
CONTINUOUS
 62
     3
100
AcDbLine
 10
588.047264
 20
667.860281999936
 30
0.0
 11
579.8738000000001
 21
656.1873649999359
 31
0.0
  0
LINE
  5
220
330
1F
100
AcDbEntity
  8
Ｓ_１_１
  6
CONTINUOUS
 62
     3
100
AcDbLine
 10
601.1536960000001
 20
658.6830589999361
 30
0.0
 11
582.7992509999999
 21
632.4701939999359
 31
0.0
  0
LINE
  5
221
330
1F
100
AcDbEntity
  8
Ｓ_１_１
  6
CONTINUOUS
 62
     3
100
AcDbLine
 10
607.297337
 20
654.381235999936
 30
0.0
 11
588.9428909999999
 21
628.168369999936
 31
0.0
  0
LINE
  5
222
330
1F
100
AcDbEntity
  8
Ｓ_１_１
  6
CONTINUOUS
 62
     3
100
AcDbLine
 10
568.341302
 20
643.204144999936
 30
0.0
 11
567.52215
 21
643.7777219999359
 31
0.0
  0
LINE
  5
223
330
1F
100
AcDbEntity
  8
Ｓ_１_１
  6
CONTINUOUS
 62
     3
100
AcDbLine
 10
586.122171
 20
668.5978589999361
 30
0.0
 11
585.303019
 21
669.1714349999361
 31
0.0
  0
LINE
  5
224
330
1F
100
AcDbEntity
  8
Ｓ_１_１
  6
CONTINUOUS
 62
     3
100
AcDbLine
 10
584.606655
 20
669.048646999936
 30
0.0
 11
583.4595019999999
 21
667.4103429999359
 31
0.0
  0
LINE
  5
225
330
1F
100
AcDbEntity
  8
Ｓ_１_１
  6
CONTINUOUS
 62
     3
100
AcDbLine
 10
586.2449590000001
 20
667.901494999936
 30
0.0
 11
585.097806
 21
666.263189999936
 31
0.0
  0
LINE
  5
226
330
1F
100
AcDbEntity
  8
Ｓ_１_１
  6
CONTINUOUS
 62
     3
100
AcDbLine
 10
570.1848190000001
 20
644.965236999936
 30
0.0
 11
569.037666
 21
643.3269329999359
 31
0.0
  0
LINE
  5
227
330
1F
100
AcDbEntity
  8
Ｓ_１_１
  6
CONTINUOUS
 62
     3
100
AcDbLine
 10
568.546515
 20
646.1123899999359
 30
0.0
 11
567.3993620000001
 21
644.474085999936
 31
0.0
  0
LINE
  5
228
330
1F
100
AcDbEntity
  8
Ｓ_１_１
  6
CONTINUOUS
 62
     3
100
AcDbLine
 10
569.037666
 20
643.3269329999359
 30
0.0
 11
568.341302
 21
643.204144999936
 31
0.0
  0
LINE
  5
229
330
1F
100
AcDbEntity
  8
Ｓ_１_１
  6
CONTINUOUS
 62
     3
100
AcDbLine
 10
567.3993620000001
 20
644.474085999936
 30
0.0
 11
567.52215
 21
643.7777219999359
 31
0.0
  0
LINE
  5
22A
330
1F
100
AcDbEntity
  8
Ｓ_１_１
  6
CONTINUOUS
 62
     3
100
AcDbLine
 10
586.122171
 20
668.5978589999361
 30
0.0
 11
586.2449590000001
 21
667.901494999936
 31
0.0
  0
LINE
  5
22B
330
1F
100
AcDbEntity
  8
Ｓ_１_１
  6
CONTINUOUS
 62
     3
100
AcDbLine
 10
585.303019
 20
669.1714349999361
 30
0.0
 11
584.606655
 21
669.048646999936
 31
0.0
  0
LINE
  5
22C
330
1F
100
AcDbEntity
  8
Ｓ_１_１
  6
CONTINUOUS
 62
     3
100
AcDbLine
 10
580.323738
 20
651.5996039999359
 30
0.0
 11
577.4567059999999
 21
653.6071209999359
 31
0.0
  0
LINE
  5
22D
330
1F
100
AcDbEntity
  8
Ｓ_１_１
  6
CONTINUOUS
 62
     3
100
AcDbLine
 10
582.3312559999999
 20
654.466635999936
 30
0.0
 11
579.4642240000001
 21
656.474152999936
 31
0.0
  0
LINE
  5
22E
330
1F
100
AcDbEntity
  8
Ｓ_１_１
  6
CONTINUOUS
 62
     3
100
AcDbLine
 10
582.3312559999999
 20
654.466635999936
 30
0.0
 11
580.323738
 21
651.5996039999359
 31
0.0
  0
LINE
  5
22F
330
1F
100
AcDbEntity
  8
Ｓ_１_１
  6
CONTINUOUS
 62
     3
100
AcDbLine
 10
577.4567059999999
 20
653.6071209999359
 30
0.0
 11
569.5700300000001
 21
642.3437809999359
 31
0.0
  0
LINE
  5
230
330
1F
100
AcDbEntity
  8
Ｓ_１_１
  6
CONTINUOUS
 62
     3
100
AcDbLine
 10
577.866282
 20
653.320332999936
 30
0.0
 11
569.692818
 21
641.6474159999359
 31
0.0
  0
LINE
  5
231
330
1F
100
AcDbEntity
  8
Ｓ_１_１
  6
CONTINUOUS
 62
     3
100
AcDbLine
 10
562.4223179999999
 20
672.3745419999359
 30
0.0
 11
553.1331339999999
 21
678.8788989999359
 31
0.0
  0
LINE
  5
232
330
1F
100
AcDbEntity
  8
Ｓ_１_１
  6
CONTINUOUS
 62
     3
100
AcDbLine
 10
556.686553
 20
664.1830209999359
 30
0.0
 11
547.397369
 21
670.687377999936
 31
0.0
  0
LINE
  5
233
330
1F
100
AcDbEntity
  8
Ｓ_１_１
  6
CONTINUOUS
 62
     3
100
AcDbLine
 10
542.907226
 20
665.285987999936
 30
0.0
 11
542.8087579999999
 21
664.1341619999359
 31
0.0
  0
LINE
  5
234
330
1F
100
AcDbEntity
  8
Ｓ_１_１
  6
CONTINUOUS
 62
     3
100
AcDbLine
 10
567.010929
 20
678.9277579999359
 30
0.0
 11
566.9124609999999
 21
677.7759319999359
 31
0.0
  0
LINE
  5
235
330
1F
100
AcDbEntity
  8
Ｓ_１_１
  6
CONTINUOUS
 62
     3
100
AcDbLine
 10
565.4339070000001
 20
649.512635999936
 30
0.0
 11
565.335439
 21
648.360809999936
 31
0.0
  0
LINE
  5
236
330
1F
100
AcDbEntity
  8
Ｓ_１_１
  6
CONTINUOUS
 62
     3
100
AcDbLine
 10
557.721745
 20
685.432114999936
 30
0.0
 11
556.6730600000001
 21
684.9456369999359
 31
0.0
  0
LINE
  5
237
330
1F
100
AcDbEntity
  8
Ｓ_１_１
  6
CONTINUOUS
 62
     3
100
AcDbLine
 10
553.1466270000001
 20
658.116282999936
 30
0.0
 11
552.0979420000001
 21
657.6298049999359
 31
0.0
  0
LINE
  5
238
330
1F
100
AcDbEntity
  8
Ｓ_１_１
  6
CONTINUOUS
 62
     3
100
AcDbLine
 10
580.2484260000001
 20
669.658762999936
 30
0.0
 11
579.199742
 21
669.172284999936
 31
0.0
  0
LINE
  5
239
330
1F
100
AcDbEntity
  8
Ｓ_１_１
  6
CONTINUOUS
 62
     3
100
AcDbLine
 10
580.2484260000001
 20
669.658762999936
 30
0.0
 11
565.335439
 21
648.360809999936
 31
0.0
  0
LINE
  5
23A
330
1F
100
AcDbEntity
  8
Ｓ_１_１
  6
CONTINUOUS
 62
     3
100
AcDbLine
 10
567.010929
 20
678.9277579999359
 30
0.0
 11
562.4223179999999
 21
672.3745419999359
 31
0.0
  0
LINE
  5
23B
330
1F
100
AcDbEntity
  8
Ｓ_１_１
  6
CONTINUOUS
 62
     3
100
AcDbLine
 10
557.721745
 20
685.432114999936
 30
0.0
 11
553.1331339999999
 21
678.8788989999359
 31
0.0
  0
LINE
  5
23C
330
1F
100
AcDbEntity
  8
Ｓ_１_１
  6
CONTINUOUS
 62
     3
100
AcDbLine
 10
556.686553
 20
664.1830209999359
 30
0.0
 11
552.0979420000001
 21
657.6298049999359
 31
0.0
  0
LINE
  5
23D
330
1F
100
AcDbEntity
  8
Ｓ_１_１
  6
CONTINUOUS
 62
     3
100
AcDbLine
 10
547.397369
 20
670.687377999936
 30
0.0
 11
542.8087579999999
 21
664.1341619999359
 31
0.0
  0
LINE
  5
23E
330
1F
100
AcDbEntity
  8
Ｓ_１_１
  6
CONTINUOUS
 62
     3
100
AcDbLine
 10
556.6730600000001
 20
684.9456369999359
 30
0.0
 11
542.907226
 21
665.285987999936
 31
0.0
  0
ARC
  5
23F
330
1F
100
AcDbEntity
  8
Ｓ_１_１
  6
CONTINUOUS
 62
     3
100
AcDbCircle
 10
535.4587750000001
 20
674.053903999936
 30
0.0
 40
5.366704
100
AcDbArc
 50
110.626012
 51
179.3739880000002
  0
ARC
  5
240
330
1F
100
AcDbEntity
  8
Ｓ_１_１
  6
CONTINUOUS
 62
     3
100
AcDbCircle
 10
527.2143719999999
 20
690.9235379999359
 30
0.0
 40
20.057299
100
AcDbArc
 50
307.414155
 51
342.5858450000003
  0
ARC
  5
241
330
1F
100
AcDbEntity
  8
Ｓ_１_１
  6
CONTINUOUS
 62
     3
100
AcDbCircle
 10
534.0379559999999
 20
675.048771999936
 30
0.0
 40
5.362963000000002
100
AcDbArc
 50
290.598669
 51
359.4013310000003
  0
ARC
  5
242
330
1F
100
AcDbEntity
  8
Ｓ_１_１
  6
CONTINUOUS
 62
     3
100
AcDbCircle
 10
544.465576
 20
689.940955999936
 30
0.0
 40
5.362963000000002
100
AcDbArc
 50
290.598669
 51
359.4013310000003
  0
ARC
  5
243
330
1F
100
AcDbEntity
  8
Ｓ_１_１
  6
CONTINUOUS
 62
     3
100
AcDbCircle
 10
552.709979
 20
673.0713219999359
 30
0.0
 40
20.061621
100
AcDbArc
 50
127.418067
 51
162.5819330000001
  0
ARC
  5
244
330
1F
100
AcDbEntity
  8
Ｓ_１_１
  6
CONTINUOUS
 62
     3
100
AcDbCircle
 10
545.8863940000001
 20
688.946087999936
 30
0.0
 40
5.366704
100
AcDbArc
 50
110.626012
 51
179.3739880000002
  0
ARC
  5
245
330
1F
100
AcDbEntity
  8
Ｓ_１_１
  6
CONTINUOUS
 62
     3
100
AcDbCircle
 10
567.763735
 20
662.530567999936
 30
0.0
 40
21.939061
100
AcDbArc
 50
131.8262970000001
 51
158.173703
  0
ARC
  5
246
330
1F
100
AcDbEntity
  8
Ｓ_１_１
  6
CONTINUOUS
 62
     3
100
AcDbCircle
 10
542.059665
 20
680.528751999936
 30
0.0
 40
21.93464800000001
100
AcDbArc
 50
311.8235980000001
 51
338.1764020000002
  0
LINE
  5
247
330
1F
100
AcDbEntity
  8
Ｓ_１_１
  6
CONTINUOUS
 62
     3
100
AcDbLine
 10
155.0
 20
789.9999999999359
 30
0.0
 11
155.0
 21
769.9999999999358
 31
0.0
  0
LINE
  5
248
330
1F
100
AcDbEntity
  8
Ｓ_１_１
  6
CONTINUOUS
 62
     3
100
AcDbLine
 10
160.0
 20
789.9999999999359
 30
0.0
 11
160.0
 21
769.9999999999358
 31
0.0
  0
LINE
  5
249
330
1F
100
AcDbEntity
  8
Ｓ_１_１
  6
CONTINUOUS
 62
     3
100
AcDbLine
 10
640.0
 20
789.9999999999359
 30
0.0
 11
640.0
 21
769.9999999999358
 31
0.0
  0
LINE
  5
24A
330
1F
100
AcDbEntity
  8
Ｓ_１_１
  6
CONTINUOUS
 62
     3
100
AcDbLine
 10
645.0
 20
789.9999999999359
 30
0.0
 11
645.0
 21
769.9999999999358
 31
0.0
  0
ARC
  5
24B
330
1F
100
AcDbEntity
  8
Ｓ_１_１
  6
CONTINUOUS
 62
     3
100
AcDbCircle
 10
399.9999999999999
 20
779.9999999999359
 30
0.0
 40
157.0
100
AcDbArc
 50
180.0
 51
270.0000000000002
  0
ARC
  5
24C
330
1F
100
AcDbEntity
  8
Ｓ_１_１
  6
CONTINUOUS
 62
     3
100
AcDbCircle
 10
399.9999999999999
 20
779.9999999999359
 30
0.0
 40
152.0
100
AcDbArc
 50
180.0
 51
270.0000000000002
  0
ARC
  5
24D
330
1F
100
AcDbEntity
  8
Ｓ_１_１
  6
CONTINUOUS
 62
     3
100
AcDbCircle
 10
399.9999999999999
 20
779.9999999999359
 30
0.0
 40
155.0
100
AcDbArc
 50
180.0
 51
270.0000000000002
  0
ARC
  5
24E
330
1F
100
AcDbEntity
  8
Ｓ_１_１
  6
CONTINUOUS
 62
     3
100
AcDbCircle
 10
399.9999999999999
 20
779.9999999999359
 30
0.0
 40
39.0
100
AcDbArc
 50
180.0
 51
0.0
  0
ARC
  5
24F
330
1F
100
AcDbEntity
  8
Ｓ_１_１
  6
CONTINUOUS
 62
     3
100
AcDbCircle
 10
424.9999999999999
 20
779.9999999999359
 30
0.0
 40
2.5
100
AcDbArc
 50
180.0
 51
0.0
  0
ARC
  5
250
330
1F
100
AcDbEntity
  8
Ｓ_１_１
  6
CONTINUOUS
 62
     3
100
AcDbCircle
 10
424.9999999999999
 20
779.9999999999359
 30
0.0
 40
3.000000000000002
100
AcDbArc
 50
180.0
 51
0.0
  0
ARC
  5
251
330
1F
100
AcDbEntity
  8
Ｓ_１_１
  6
CONTINUOUS
 62
     3
100
AcDbCircle
 10
424.9999999999999
 20
779.9999999999359
 30
0.0
 40
4.0
100
AcDbArc
 50
180.0
 51
0.0
  0
ARC
  5
252
330
1F
100
AcDbEntity
  8
Ｓ_１_１
  6
CONTINUOUS
 62
     3
100
AcDbCircle
 10
500.0
 20
779.9999999999359
 30
0.0
 40
5.125
100
AcDbArc
 50
180.0
 51
0.0
  0
ARC
  5
253
330
1F
100
AcDbEntity
  8
Ｓ_１_１
  6
CONTINUOUS
 62
     3
100
AcDbCircle
 10
500.0
 20
779.9999999999359
 30
0.0
 40
6.000000000000004
100
AcDbArc
 50
180.0
 51
0.0
  0
ARC
  5
254
330
1F
100
AcDbEntity
  8
Ｓ_１_１
  6
CONTINUOUS
 62
     3
100
AcDbCircle
 10
500.0
 20
779.9999999999359
 30
0.0
 40
7.125000000000004
100
AcDbArc
 50
180.0
 51
0.0
  0
ARC
  5
255
330
1F
100
AcDbEntity
  8
Ｓ_１_１
  6
CONTINUOUS
 62
     3
100
AcDbCircle
 10
399.9999999999999
 20
679.9999999999359
 30
0.0
 40
5.125
100
AcDbArc
 50
90.00000000000001
 51
270.0000000000002
  0
ARC
  5
256
330
1F
100
AcDbEntity
  8
Ｓ_１_１
  6
CONTINUOUS
 62
     3
100
AcDbCircle
 10
399.9999999999999
 20
679.9999999999359
 30
0.0
 40
6.000000000000004
100
AcDbArc
 50
90.00000000000001
 51
270.0000000000002
  0
ARC
  5
257
330
1F
100
AcDbEntity
  8
Ｓ_１_１
  6
CONTINUOUS
 62
     3
100
AcDbCircle
 10
399.9999999999999
 20
679.9999999999359
 30
0.0
 40
7.125000000000004
100
AcDbArc
 50
90.00000000000001
 51
270.0000000000002
  0
ARC
  5
258
330
1F
100
AcDbEntity
  8
Ｓ_１_１
  6
CONTINUOUS
 62
     3
100
AcDbCircle
 10
399.9999999999999
 20
679.9999999999359
 30
0.0
 40
5.125
100
AcDbArc
 50
270.0000000000002
 51
90.00000000000001
  0
ARC
  5
259
330
1F
100
AcDbEntity
  8
Ｓ_１_１
  6
CONTINUOUS
 62
     3
100
AcDbCircle
 10
399.9999999999999
 20
679.9999999999359
 30
0.0
 40
6.000000000000004
100
AcDbArc
 50
270.0000000000002
 51
90.00000000000001
  0
ARC
  5
25A
330
1F
100
AcDbEntity
  8
Ｓ_１_１
  6
CONTINUOUS
 62
     3
100
AcDbCircle
 10
399.9999999999999
 20
679.9999999999359
 30
0.0
 40
7.125000000000004
100
AcDbArc
 50
270.0000000000002
 51
90.00000000000001
  0
ARC
  5
25B
330
1F
100
AcDbEntity
  8
Ｓ_１_１
  6
CONTINUOUS
 62
     3
100
AcDbCircle
 10
375.0
 20
779.9999999999359
 30
0.0
 40
2.5
100
AcDbArc
 50
180.0
 51
0.0
  0
ARC
  5
25C
330
1F
100
AcDbEntity
  8
Ｓ_１_１
  6
CONTINUOUS
 62
     3
100
AcDbCircle
 10
375.0
 20
779.9999999999359
 30
0.0
 40
3.000000000000002
100
AcDbArc
 50
180.0
 51
0.0
  0
ARC
  5
25D
330
1F
100
AcDbEntity
  8
Ｓ_１_１
  6
CONTINUOUS
 62
     3
100
AcDbCircle
 10
375.0
 20
779.9999999999359
 30
0.0
 40
4.0
100
AcDbArc
 50
180.0
 51
0.0
  0
ARC
  5
25E
330
1F
100
AcDbEntity
  8
Ｓ_１_１
  6
CONTINUOUS
 62
     3
100
AcDbCircle
 10
300.0
 20
779.9999999999359
 30
0.0
 40
5.125
100
AcDbArc
 50
180.0
 51
0.0
  0
ARC
  5
25F
330
1F
100
AcDbEntity
  8
Ｓ_１_１
  6
CONTINUOUS
 62
     3
100
AcDbCircle
 10
300.0
 20
779.9999999999359
 30
0.0
 40
6.000000000000004
100
AcDbArc
 50
180.0
 51
0.0
  0
ARC
  5
260
330
1F
100
AcDbEntity
  8
Ｓ_１_１
  6
CONTINUOUS
 62
     3
100
AcDbCircle
 10
300.0
 20
779.9999999999359
 30
0.0
 40
7.125000000000004
100
AcDbArc
 50
180.0
 51
0.0
  0
ARC
  5
261
330
1F
100
AcDbEntity
  8
Ｓ_１_１
  6
CONTINUOUS
 62
     3
100
AcDbCircle
 10
399.9999999999999
 20
779.9999999999359
 30
0.0
 40
38.0
100
AcDbArc
 50
180.0
 51
0.0
  0
ARC
  5
262
330
1F
100
AcDbEntity
  8
Ｓ_１_１
  6
CONTINUOUS
 62
     3
100
AcDbCircle
 10
399.9999999999999
 20
779.9999999999359
 30
0.0
 40
40.0
100
AcDbArc
 50
180.0
 51
0.0
  0
ARC
  5
263
330
1F
100
AcDbEntity
  8
Ｓ_１_１
  6
CONTINUOUS
 62
     3
100
AcDbCircle
 10
399.9999999999999
 20
779.9999999999359
 30
0.0
 40
53.00000000000004
100
AcDbArc
 50
180.0
 51
0.0
  0
ARC
  5
264
330
1F
100
AcDbEntity
  8
Ｓ_１_１
  6
CONTINUOUS
 62
     3
100
AcDbCircle
 10
399.9999999999999
 20
779.9999999999359
 30
0.0
 40
57.00000000000004
100
AcDbArc
 50
180.0
 51
0.0
  0
ARC
  5
265
330
1F
100
AcDbEntity
  8
Ｓ_１_１
  6
CONTINUOUS
 62
     3
100
AcDbCircle
 10
399.9999999999999
 20
779.9999999999359
 30
0.0
 40
83.0
100
AcDbArc
 50
180.0
 51
0.0
  0
ARC
  5
266
330
1F
100
AcDbEntity
  8
Ｓ_１_１
  6
CONTINUOUS
 62
     3
100
AcDbCircle
 10
399.9999999999999
 20
779.9999999999359
 30
0.0
 40
87.0
100
AcDbArc
 50
180.0
 51
0.0
  0
ARC
  5
267
330
1F
100
AcDbEntity
  8
Ｓ_１_１
  6
CONTINUOUS
 62
     3
100
AcDbCircle
 10
399.9999999999999
 20
779.9999999999359
 30
0.0
 40
113.0000000000001
100
AcDbArc
 50
180.0
 51
0.0
  0
ARC
  5
268
330
1F
100
AcDbEntity
  8
Ｓ_１_１
  6
CONTINUOUS
 62
     3
100
AcDbCircle
 10
399.9999999999999
 20
779.9999999999359
 30
0.0
 40
117.0000000000001
100
AcDbArc
 50
180.0
 51
0.0
  0
ARC
  5
269
330
1F
100
AcDbEntity
  8
Ｓ_１_１
  6
CONTINUOUS
 62
     3
100
AcDbCircle
 10
399.9999999999999
 20
779.9999999999359
 30
0.0
 40
122.0000000000001
100
AcDbArc
 50
180.0
 51
0.0
  0
ARC
  5
26A
330
1F
100
AcDbEntity
  8
Ｓ_１_１
  6
CONTINUOUS
 62
     3
100
AcDbCircle
 10
399.9999999999999
 20
779.9999999999359
 30
0.0
 40
125.0000110000001
100
AcDbArc
 50
180.0
 51
0.0
  0
ARC
  5
26B
330
1F
100
AcDbEntity
  8
Ｓ_１_１
  6
CONTINUOUS
 62
     3
100
AcDbCircle
 10
210.0
 20
779.9999999999359
 30
0.0
 40
25.00000000000002
100
AcDbArc
 50
180.0
 51
270.0000000000002
  0
ARC
  5
26C
330
1F
100
AcDbEntity
  8
Ｓ_１_１
  6
CONTINUOUS
 62
     3
100
AcDbCircle
 10
210.0
 20
779.9999999999359
 30
0.0
 40
41.0
100
AcDbArc
 50
180.0
 51
270.0000000000002
  0
LINE
  5
26D
330
1F
100
AcDbEntity
  8
Ｓ_１_１
  6
CONTINUOUS
 62
     3
100
AcDbLine
 10
210.0
 20
738.9999999999359
 30
0.0
 11
227.0
 21
738.9999999999359
 31
0.0
  0
LINE
  5
26E
330
1F
100
AcDbEntity
  8
Ｓ_１_１
  6
CONTINUOUS
 62
     3
100
AcDbLine
 10
210.0
 20
754.9999999999359
 30
0.0
 11
212.0
 21
754.9999999999359
 31
0.0
  0
ARC
  5
26F
330
1F
100
AcDbEntity
  8
Ｓ_１_１
  6
CONTINUOUS
 62
     3
100
AcDbCircle
 10
227.0
 20
746.9999999999359
 30
0.0
 40
8.0
100
AcDbArc
 50
270.0000000000002
 51
90.00000000000001
  0
LINE
  5
270
330
1F
100
AcDbEntity
  8
Ｓ_１_１
  6
CONTINUOUS
 62
     3
100
AcDbLine
 10
212.0
 20
779.9999999999359
 30
0.0
 11
212.0
 21
754.9999999999359
 31
0.0
  0
LINE
  5
271
330
1F
100
AcDbEntity
  8
Ｓ_１_１
  6
CONTINUOUS
 62
     3
100
AcDbLine
 10
241.9651940000001
 20
754.9999999999359
 30
0.0
 11
212.0
 21
754.9999999999359
 31
0.0
  0
LINE
  5
272
330
1F
100
AcDbEntity
  8
Ｓ_１_１
  6
CONTINUOUS
 62
     3
100
AcDbLine
 10
208.8
 20
764.9999999999359
 30
0.0
 11
212.0
 21
764.9999999999359
 31
0.0
  0
LINE
  5
273
330
1F
100
AcDbEntity
  8
Ｓ_１_１
  6
CONTINUOUS
 62
     3
100
AcDbLine
 10
198.8
 20
773.9999999999359
 30
0.0
 11
198.8
 21
779.9999999999359
 31
0.0
  0
ARC
  5
274
330
1F
100
AcDbEntity
  8
Ｓ_１_１
  6
CONTINUOUS
 62
     3
100
AcDbCircle
 10
212.7451570000001
 20
773.9999999999359
 30
0.0
 40
13.94515700000001
100
AcDbArc
 50
154.516138
 51
205.483862
  0
LINE
  5
275
330
1F
100
AcDbEntity
  8
Ｓ_１_１
  6
CONTINUOUS
 62
     3
100
AcDbLine
 10
208.8
 20
767.9999999999359
 30
0.0
 11
200.1567730000001
 21
767.9999999999359
 31
0.0
  0
LINE
  5
276
330
1F
100
AcDbEntity
  8
Ｓ_１_１
  6
CONTINUOUS
 62
     3
100
AcDbLine
 10
208.8
 20
764.9999999999359
 30
0.0
 11
208.8
 21
779.9999999999359
 31
0.0
  0
LINE
  5
277
330
1F
100
AcDbEntity
  8
Ｓ_１_１
  6
EXLTYPE2
 62
     1
100
AcDbLine
 10
585.6077193598078
 20
594.3922806401879
 30
0.0
 11
400.0000000000277
 21
779.9999999999676
 31
0.0
  0
LINE
  5
278
330
1F
100
AcDbEntity
  8
Ｓ_１_１
  6
EXLTYPE2
 62
     1
100
AcDbLine
 10
465.9612903765299
 20
685.79751504406
 30
0.0
 11
551.6068170308665
 21
563.483025541937
 31
0.0
  0
LINE
  5
279
330
1F
100
AcDbEntity
  8
Ｓ_１_１
  6
EXLTYPE2
 62
     1
100
AcDbLine
 10
494.2024849999999
 20
714.0387099999359
 30
0.0
 11
616.5592771790973
 21
628.3635613933188
 31
0.0
  0
POINT
  5
27A
330
1F
100
AcDbEntity
  8
Ｓ_１_１
  6
CONTINUOUS
 62
   160
100
AcDbPoint
 10
212.0000109999999
 20
209.999999999996
 30
0.0
  0
POINT
  5
27B
330
1F
100
AcDbEntity
  8
Ｓ_１_１
  6
CONTINUOUS
 62
   160
100
AcDbPoint
 10
212.0000109999999
 20
149.999999999996
 30
0.0
  0
POINT
  5
27C
330
1F
100
AcDbEntity
  8
Ｓ_１_１
  6
CONTINUOUS
 62
   160
100
AcDbPoint
 10
588.0000109999999
 20
149.999999999996
 30
0.0
  0
POINT
  5
27D
330
1F
100
AcDbEntity
  8
Ｓ_１_１
  6
CONTINUOUS
 62
   160
100
AcDbPoint
 10
588.0000109999999
 20
209.999999999996
 30
0.0
  0
LINE
  5
27E
330
1F
100
AcDbEntity
  8
Ｓ_１_１
  6
EXLTYPE2
 62
     1
100
AcDbLine
 10
399.9999999999999
 20
109.999999999996
 30
0.0
 11
399.9999999999999
 21
409.999999999996
 31
0.0
  0
LINE
  5
27F
330
1F
100
AcDbEntity
  8
Ｓ_１_１
  6
EXLTYPE2
 62
     1
100
AcDbLine
 10
491.707325
 20
216.668999999996
 30
0.0
 11
491.707325
 21
253.330999999996
 31
0.0
  0
LINE
  5
280
330
1F
100
AcDbEntity
  8
Ｓ_１_１
  6
EXLTYPE2
 62
     1
100
AcDbLine
 10
508.4667639999998
 20
234.999999999996
 30
0.0
 11
474.947886
 21
234.999999999996
 31
0.0
  0
LINE
  5
281
330
1F
100
AcDbEntity
  8
Ｓ_１_１
  6
EXLTYPE2
 62
     1
100
AcDbLine
 10
530.8868389999998
 20
201.668999999996
 30
0.0
 11
530.8868389999998
 21
238.330999999996
 31
0.0
  0
LINE
  5
282
330
1F
100
AcDbEntity
  8
Ｓ_１_１
  6
EXLTYPE2
 62
     1
100
AcDbLine
 10
545.6614209999998
 20
219.9999999999959
 30
0.0
 11
516.1122579999999
 21
219.9999999999959
 31
0.0
  0
LINE
  5
283
330
1F
100
AcDbEntity
  8
Ｓ_１_１
  6
EXLTYPE2
 62
     1
100
AcDbLine
 10
465.0000109999999
 20
164.0414519999961
 30
0.0
 11
465.0000109999999
 21
114.999999999996
 31
0.0
  0
LINE
  5
284
330
1F
100
AcDbEntity
  8
Ｓ_１_１
  6
EXLTYPE2
 62
     1
100
AcDbLine
 10
335.000011
 20
164.0414519999961
 30
0.0
 11
335.000011
 21
114.999999999996
 31
0.0
  0
LINE
  5
285
330
1F
100
AcDbEntity
  8
Ｓ_１_１
  6
EXLTYPE2
 62
     1
100
AcDbLine
 10
533.8288879999998
 20
317.499999999996
 30
0.0
 11
533.8288879999998
 21
347.499999999996
 31
0.0
  0
LINE
  5
286
330
1F
100
AcDbEntity
  8
Ｓ_１_１
  6
EXLTYPE2
 62
     1
100
AcDbLine
 10
383.5000109999999
 20
332.499999999996
 30
0.0
 11
416.5000109999999
 21
332.499999999996
 31
0.0
  0
LINE
  5
287
330
1F
100
AcDbEntity
  8
Ｓ_１_１
  6
EXLTYPE2
 62
     1
100
AcDbLine
 10
266.1711349999999
 20
317.499999999996
 30
0.0
 11
266.1711349999999
 21
347.499999999996
 31
0.0
  0
LINE
  5
288
330
1F
100
AcDbEntity
  8
Ｓ_１_１
  6
EXLTYPE2
 62
     1
100
AcDbLine
 10
280.051826
 20
332.499999999996
 30
0.0
 11
242.0000109999999
 21
332.499999999996
 31
0.0
  0
LINE
  5
289
330
1F
100
AcDbEntity
  8
Ｓ_１_１
  6
EXLTYPE2
 62
     1
100
AcDbLine
 10
344.9999999999999
 20
394.999999999996
 30
0.0
 11
344.9999999999999
 21
402.999999999996
 31
0.0
  0
LINE
  5
28A
330
1F
100
AcDbEntity
  8
Ｓ_１_１
  6
EXLTYPE2
 62
     1
100
AcDbLine
 10
314.9999999999999
 20
394.999999999996
 30
0.0
 11
314.9999999999999
 21
402.999999999996
 31
0.0
  0
LINE
  5
28B
330
1F
100
AcDbEntity
  8
Ｓ_１_１
  6
EXLTYPE2
 62
     1
100
AcDbLine
 10
299.9999999999999
 20
369.041079999996
 30
0.0
 11
299.9999999999999
 21
402.999999999996
 31
0.0
  0
LINE
  5
28C
330
1F
100
AcDbEntity
  8
Ｓ_１_１
  6
EXLTYPE2
 62
     1
100
AcDbLine
 10
284.9999999999999
 20
394.999999999996
 30
0.0
 11
284.9999999999999
 21
402.999999999996
 31
0.0
  0
LINE
  5
28D
330
1F
100
AcDbEntity
  8
Ｓ_１_１
  6
EXLTYPE2
 62
     1
100
AcDbLine
 10
514.9999999999998
 20
394.999999999996
 30
0.0
 11
514.9999999999998
 21
402.999999999996
 31
0.0
  0
LINE
  5
28E
330
1F
100
AcDbEntity
  8
Ｓ_１_１
  6
EXLTYPE2
 62
     1
100
AcDbLine
 10
499.9999999999999
 20
369.041079999996
 30
0.0
 11
499.9999999999999
 21
402.999999999996
 31
0.0
  0
LINE
  5
28F
330
1F
100
AcDbEntity
  8
Ｓ_１_１
  6
EXLTYPE2
 62
     1
100
AcDbLine
 10
484.9999999999999
 20
394.999999999996
 30
0.0
 11
484.9999999999999
 21
402.999999999996
 31
0.0
  0
LINE
  5
290
330
1F
100
AcDbEntity
  8
Ｓ_１_１
  6
EXLTYPE2
 62
     1
100
AcDbLine
 10
454.9999999999999
 20
394.999999999996
 30
0.0
 11
454.9999999999999
 21
402.999999999996
 31
0.0
  0
LINE
  5
291
330
1F
100
AcDbEntity
  8
Ｓ_１_１
  6
EXLTYPE2
 62
     1
100
AcDbLine
 10
184.7650090000001
 20
298.301174999996
 30
0.0
 11
169.235014
 21
285.698823999996
 31
0.0
  0
LINE
  5
292
330
1F
100
AcDbEntity
  8
Ｓ_１_１
  6
EXLTYPE2
 62
     1
100
AcDbLine
 10
168.8084830000001
 20
302.094496999996
 30
0.0
 11
222.9770070000001
 21
241.342115999996
 31
0.0
  0
ARC
  5
293
330
1F
100
AcDbEntity
  8
Ｓ_１_１
  6
EXLTYPE2
 62
     1
100
AcDbCircle
 10
209.0000109999999
 20
229.999999999996
 30
0.0
 40
18.0
100
AcDbArc
 50
0.0
 51
39.05879500000002
  0
LINE
  5
294
330
1F
100
AcDbEntity
  8
Ｓ_１_１
  6
EXLTYPE2
 62
     1
100
AcDbLine
 10
193.8000109999999
 20
149.999999999996
 30
0.0
 11
246.9652050000001
 21
149.999999999996
 31
0.0
  0
LINE
  5
295
330
1F
100
AcDbEntity
  8
Ｓ_１_１
  6
EXLTYPE2
 62
     1
100
AcDbLine
 10
193.8000109999999
 20
209.999999999996
 30
0.0
 11
246.9652050000001
 21
209.999999999996
 31
0.0
  0
LINE
  5
296
330
1F
100
AcDbEntity
  8
Ｓ_１_１
  6
EXLTYPE2
 62
     1
100
AcDbLine
 10
227.0000109999999
 20
229.999999999996
 30
0.0
 11
227.0000109999999
 21
134.999999999996
 31
0.0
  0
LINE
  5
297
330
1F
100
AcDbEntity
  8
Ｓ_１_１
  6
EXLTYPE2
 62
     1
100
AcDbLine
 10
573.0000109999999
 20
229.999999999996
 30
0.0
 11
573.0000109999999
 21
134.999999999996
 31
0.0
  0
LINE
  5
298
330
1F
100
AcDbEntity
  8
Ｓ_１_１
  6
EXLTYPE2
 62
     1
100
AcDbLine
 10
606.2000109999999
 20
209.999999999996
 30
0.0
 11
553.0348179999999
 21
209.999999999996
 31
0.0
  0
LINE
  5
299
330
1F
100
AcDbEntity
  8
Ｓ_１_１
  6
EXLTYPE2
 62
     1
100
AcDbLine
 10
606.2000109999999
 20
149.999999999996
 30
0.0
 11
553.0348179999999
 21
149.999999999996
 31
0.0
  0
ARC
  5
29A
330
1F
100
AcDbEntity
  8
Ｓ_１_１
  6
EXLTYPE2
 62
     1
100
AcDbCircle
 10
591.0000109999999
 20
229.999999999996
 30
0.0
 40
18.0
100
AcDbArc
 50
140.9412050000001
 51
180.0
  0
LINE
  5
29B
330
1F
100
AcDbEntity
  8
Ｓ_１_１
  6
EXLTYPE2
 62
     1
100
AcDbLine
 10
631.1915389999999
 20
302.094496999996
 30
0.0
 11
577.0230159999999
 21
241.342115999996
 31
0.0
  0
LINE
  5
29C
330
1F
100
AcDbEntity
  8
Ｓ_１_１
  6
EXLTYPE2
 62
     1
100
AcDbLine
 10
615.2350139999999
 20
298.301174999996
 30
0.0
 11
630.765009
 21
285.698823999996
 31
0.0
  0
LINE
  5
29D
330
1F
100
AcDbEntity
  8
Ｓ_１_１
  6
EXLTYPE0
 62
     2
100
AcDbLine
 10
240.000011
 20
229.999999999996
 30
0.0
 11
240.000011
 21
129.999999999996
 31
0.0
  0
ARC
  5
29E
330
1F
100
AcDbEntity
  8
Ｓ_１_１
  6
EXLTYPE0
 62
     2
100
AcDbCircle
 10
177.000011
 20
291.999999999996
 30
0.0
 40
8.0
100
AcDbArc
 50
228.0346440000001
 51
39.05879500000002
  0
ARC
  5
29F
330
1F
100
AcDbEntity
  8
Ｓ_１_１
  6
EXLTYPE0
 62
     2
100
AcDbCircle
 10
623.0000109999999
 20
291.999999999996
 30
0.0
 40
8.0
100
AcDbArc
 50
140.9412050000001
 51
311.9653560000003
  0
LINE
  5
2A0
330
1F
100
AcDbEntity
  8
Ｓ_１_１
  6
EXLTYPE0
 62
     2
100
AcDbLine
 10
560.0000109999999
 20
229.999999999996
 30
0.0
 11
560.0000109999999
 21
129.999999999996
 31
0.0
  0
LINE
  5
2A1
330
1F
100
AcDbEntity
  8
Ｓ_１_１
  6
CONTINUOUS
 62
     3
100
AcDbLine
 10
240.000011
 20
229.999999999996
 30
0.0
 11
240.000011
 21
301.999999999996
 31
0.0
  0
LINE
  5
2A2
330
1F
100
AcDbEntity
  8
Ｓ_１_１
  6
CONTINUOUS
 62
     3
100
AcDbLine
 10
560.0000109999999
 20
229.999999999996
 30
0.0
 11
560.0000109999999
 21
301.999999999996
 31
0.0
  0
ELLIPSE
  5
2A3
330
1F
100
AcDbEntity
  8
Ｓ_１_１
  6
CONTINUOUS
 62
     3
100
AcDbEllipse
 10
491.707325
 20
234.999999999996
 30
0.0
 11
-1.530379872554494E-15
 21
-8.331000000000024
 31
0.0
210
0.0
220
0.0
230
1.0
 40
0.8113599999999995
 41
0.0
 42
6.283185307179586
  0
ELLIPSE
  5
2A4
330
1F
100
AcDbEntity
  8
Ｓ_１_１
  6
CONTINUOUS
 62
     3
100
AcDbEllipse
 10
491.6721799999999
 20
234.999999999996
 30
0.0
 11
-1.373135223543974E-15
 21
-7.475000000000025
 31
0.0
210
0.0
220
0.0
230
1.0
 40
0.8185550000000005
 41
0.0
 42
6.283185307179586
  0
ELLIPSE
  5
2A5
330
1F
100
AcDbEntity
  8
Ｓ_１_１
  6
CONTINUOUS
 62
     3
100
AcDbEllipse
 10
530.8868389999998
 20
219.9999999999959
 30
0.0
 11
-1.530379872554494E-15
 21
-8.331000000000024
 31
0.0
210
0.0
220
0.0
230
1.0
 40
0.5731099999999996
 41
0.0
 42
6.283185307179586
  0
ELLIPSE
  5
2A6
330
1F
100
AcDbEntity
  8
Ｓ_１_１
  6
CONTINUOUS
 62
     3
100
AcDbEllipse
 10
530.9214359999999
 20
219.9999999999959
 30
0.0
 11
-1.373135223543974E-15
 21
-7.475000000000025
 31
0.0
210
0.0
220
0.0
230
1.0
 40
0.5731580000000005
 41
0.0
 42
6.283185307179586
  0
LINE
  5
2A7
330
1F
100
AcDbEntity
  8
Ｓ_１_１
  6
CONTINUOUS
 62
     3
100
AcDbLine
 10
243.000011
 20
304.999999999996
 30
0.0
 11
240.000011
 21
301.999999999996
 31
0.0
  0
LINE
  5
2A8
330
1F
100
AcDbEntity
  8
Ｓ_１_１
  6
CONTINUOUS
 62
     3
100
AcDbLine
 10
243.000011
 20
119.999999999996
 30
0.0
 11
240.000011
 21
122.999999999996
 31
0.0
  0
LINE
  5
2A9
330
1F
100
AcDbEntity
  8
Ｓ_１_１
  6
CONTINUOUS
 62
     3
100
AcDbLine
 10
240.000011
 20
122.999999999996
 30
0.0
 11
240.000011
 21
129.999999999996
 31
0.0
  0
LINE
  5
2AA
330
1F
100
AcDbEntity
  8
Ｓ_１_１
  6
CONTINUOUS
 62
     3
100
AcDbLine
 10
560.0000109999999
 20
122.999999999996
 30
0.0
 11
560.0000109999999
 21
129.999999999996
 31
0.0
  0
LINE
  5
2AB
330
1F
100
AcDbEntity
  8
Ｓ_１_１
  6
CONTINUOUS
 62
     3
100
AcDbLine
 10
557.0000109999999
 20
119.999999999996
 30
0.0
 11
560.0000109999999
 21
122.999999999996
 31
0.0
  0
LINE
  5
2AC
330
1F
100
AcDbEntity
  8
Ｓ_１_１
  6
CONTINUOUS
 62
     3
100
AcDbLine
 10
557.0000109999999
 20
304.999999999996
 30
0.0
 11
560.0000109999999
 21
301.999999999996
 31
0.0
  0
LINE
  5
2AD
330
1F
100
AcDbEntity
  8
Ｓ_１_１
  6
CONTINUOUS
 62
     3
100
AcDbLine
 10
300.000011
 20
359.999999999996
 30
0.0
 11
303.000011
 21
362.999999999996
 31
0.0
  0
LINE
  5
2AE
330
1F
100
AcDbEntity
  8
Ｓ_１_１
  6
CONTINUOUS
 62
     3
100
AcDbLine
 10
303.000011
 20
359.999999999996
 30
0.0
 11
303.000011
 21
362.999999999996
 31
0.0
  0
LINE
  5
2AF
330
1F
100
AcDbEntity
  8
Ｓ_１_１
  6
CONTINUOUS
 62
     3
100
AcDbLine
 10
497.0000109999999
 20
359.999999999996
 30
0.0
 11
497.0000109999999
 21
362.999999999996
 31
0.0
  0
LINE
  5
2B0
330
1F
100
AcDbEntity
  8
Ｓ_１_１
  6
CONTINUOUS
 62
     3
100
AcDbLine
 10
500.000011
 20
359.999999999996
 30
0.0
 11
497.0000109999999
 21
362.999999999996
 31
0.0
  0
ELLIPSE
  5
2B1
330
1F
100
AcDbEntity
  8
Ｓ_１_１
  6
CONTINUOUS
 62
     3
100
AcDbEllipse
 10
533.8288879999998
 20
332.499999999996
 30
0.0
 11
-4.402854003765995E-15
 21
11.50000000000001
 31
0.0
210
0.0
220
0.0
230
1.0
 40
0.5231419999999999
 41
0.0
 42
6.283185307179586
  0
ELLIPSE
  5
2B2
330
1F
100
AcDbEntity
  8
Ｓ_１_１
  6
CONTINUOUS
 62
     3
100
AcDbEllipse
 10
532.5018979999998
 20
332.499999999996
 30
0.0
 11
-4.019997133873297E-15
 21
10.5
 31
0.0
210
0.0
220
0.0
230
1.0
 40
0.5
 41
2.80994177503251
 42
6.614836185736864
  0
CIRCLE
  5
2B3
330
1F
100
AcDbEntity
  8
Ｓ_１_１
  6
CONTINUOUS
 62
     3
100
AcDbCircle
 10
400.0000109999999
 20
332.499999999996
 30
0.0
 40
11.50000000000001
  0
CIRCLE
  5
2B4
330
1F
100
AcDbEntity
  8
Ｓ_１_１
  6
CONTINUOUS
 62
     3
100
AcDbCircle
 10
400.0000109999999
 20
332.499999999996
 30
0.0
 40
10.5
  0
ELLIPSE
  5
2B5
330
1F
100
AcDbEntity
  8
Ｓ_１_１
  6
CONTINUOUS
 62
     3
100
AcDbEllipse
 10
266.1711349999999
 20
332.499999999996
 30
0.0
 11
-4.402854003765995E-15
 21
11.50000000000001
 31
0.0
210
0.0
220
0.0
230
1.0
 40
0.5231419999999999
 41
0.0
 42
6.283185307179586
  0
ELLIPSE
  5
2B6
330
1F
100
AcDbEntity
  8
Ｓ_１_１
  6
CONTINUOUS
 62
     3
100
AcDbEllipse
 10
267.498125
 20
332.499999999996
 30
0.0
 11
-4.019997133873297E-15
 21
10.5
 31
0.0
210
0.0
220
0.0
230
1.0
 40
0.5
 41
5.95153442862231
 42
9.756428839326663
  0
LINE
  5
2B7
330
1F
100
AcDbEntity
  8
Ｓ_１_１
  6
CONTINUOUS
 62
     3
100
AcDbLine
 10
245.0000109999999
 20
307.999999999996
 30
0.0
 11
248.0000109999999
 21
304.999999999996
 31
0.0
  0
LINE
  5
2B8
330
1F
100
AcDbEntity
  8
Ｓ_１_１
  6
CONTINUOUS
 62
     3
100
AcDbLine
 10
248.0000109999999
 20
359.999999999996
 30
0.0
 11
245.0000109999999
 21
356.999999999996
 31
0.0
  0
LINE
  5
2B9
330
1F
100
AcDbEntity
  8
Ｓ_１_１
  6
CONTINUOUS
 62
     3
100
AcDbLine
 10
245.0000109999999
 20
307.999999999996
 30
0.0
 11
245.0000109999999
 21
356.999999999996
 31
0.0
  0
LINE
  5
2BA
330
1F
100
AcDbEntity
  8
Ｓ_１_１
  6
CONTINUOUS
 62
     3
100
AcDbLine
 10
555.0000109999999
 20
307.999999999996
 30
0.0
 11
555.0000109999999
 21
356.999999999996
 31
0.0
  0
LINE
  5
2BB
330
1F
100
AcDbEntity
  8
Ｓ_１_１
  6
CONTINUOUS
 62
     3
100
AcDbLine
 10
552.0000109999999
 20
359.999999999996
 30
0.0
 11
555.0000109999999
 21
356.999999999996
 31
0.0
  0
LINE
  5
2BC
330
1F
100
AcDbEntity
  8
Ｓ_１_１
  6
CONTINUOUS
 62
     3
100
AcDbLine
 10
555.0000109999999
 20
307.999999999996
 30
0.0
 11
552.0000109999999
 21
304.999999999996
 31
0.0
  0
LINE
  5
2BD
330
1F
100
AcDbEntity
  8
Ｓ_１_１
  6
CONTINUOUS
 62
     3
100
AcDbLine
 10
277.9999999999999
 20
399.999999999996
 30
0.0
 11
274.9999999999999
 21
396.999999999996
 31
0.0
  0
LINE
  5
2BE
330
1F
100
AcDbEntity
  8
Ｓ_１_１
  6
CONTINUOUS
 62
     3
100
AcDbLine
 10
274.9999999999999
 20
372.999999999996
 30
0.0
 11
274.9999999999999
 21
396.999999999996
 31
0.0
  0
ARC
  5
2BF
330
1F
100
AcDbEntity
  8
Ｓ_１_１
  6
CONTINUOUS
 62
     3
100
AcDbCircle
 10
399.9999999999999
 20
459.999999999996
 30
0.0
 40
130.0
100
AcDbArc
 50
225.047464
 51
228.258302
  0
ARC
  5
2C0
330
1F
100
AcDbEntity
  8
Ｓ_１_１
  6
CONTINUOUS
 62
     3
100
AcDbCircle
 10
399.9999999999999
 20
459.999999999996
 30
0.0
 40
130.0
100
AcDbArc
 50
311.741698
 51
314.9525360000001
  0
LINE
  5
2C1
330
1F
100
AcDbEntity
  8
Ｓ_１_１
  6
CONTINUOUS
 62
     3
100
AcDbLine
 10
521.9999999999998
 20
399.999999999996
 30
0.0
 11
524.9999999999998
 21
396.999999999996
 31
0.0
  0
LINE
  5
2C2
330
1F
100
AcDbEntity
  8
Ｓ_１_１
  6
CONTINUOUS
 62
     3
100
AcDbLine
 10
274.9999999999999
 20
372.999999999996
 30
0.0
 11
277.9999999999999
 21
369.999999999996
 31
0.0
  0
LINE
  5
2C3
330
1F
100
AcDbEntity
  8
Ｓ_１_１
  6
CONTINUOUS
 62
     3
100
AcDbLine
 10
308.1523000000001
 20
367.999999999996
 30
0.0
 11
277.9999999999999
 21
369.999999999996
 31
0.0
  0
LINE
  5
2C4
330
1F
100
AcDbEntity
  8
Ｓ_１_１
  6
CONTINUOUS
 62
     3
100
AcDbLine
 10
524.9999999999998
 20
372.999999999996
 30
0.0
 11
524.9999999999998
 21
396.999999999996
 31
0.0
  0
LINE
  5
2C5
330
1F
100
AcDbEntity
  8
Ｓ_１_１
  6
CONTINUOUS
 62
     3
100
AcDbLine
 10
524.9999999999998
 20
372.999999999996
 30
0.0
 11
521.9999999999998
 21
369.999999999996
 31
0.0
  0
LINE
  5
2C6
330
1F
100
AcDbEntity
  8
Ｓ_１_１
  6
CONTINUOUS
 62
     3
100
AcDbLine
 10
491.8477
 20
367.999999999996
 30
0.0
 11
521.9999999999998
 21
369.999999999996
 31
0.0
  0
LINE
  5
2C7
330
1F
100
AcDbEntity
  8
Ｓ_１_１
  6
CONTINUOUS
 62
     3
100
AcDbLine
 10
558.0348179999999
 20
129.999999999996
 30
0.0
 11
558.0348179999999
 21
229.999999999996
 31
0.0
  0
LINE
  5
2C8
330
1F
100
AcDbEntity
  8
Ｓ_１_１
  6
CONTINUOUS
 62
     3
100
AcDbLine
 10
241.9652050000001
 20
129.999999999996
 30
0.0
 11
241.9652050000001
 21
229.999999999996
 31
0.0
  0
LINE
  5
2C9
330
1F
100
AcDbEntity
  8
Ｓ_１_１
  6
CONTINUOUS
 62
     3
100
AcDbLine
 10
170.788013
 20
286.959059999996
 30
0.0
 11
216.765009
 21
236.301174999996
 31
0.0
  0
LINE
  5
2CA
330
1F
100
AcDbEntity
  8
Ｓ_１_１
  6
CONTINUOUS
 62
     3
100
AcDbLine
 10
183.2120100000001
 20
297.040939999996
 30
0.0
 11
229.1890050000001
 21
246.3830559999959
 31
0.0
  0
ARC
  5
2CB
330
1F
100
AcDbEntity
  8
Ｓ_１_１
  6
CONTINUOUS
 62
     3
100
AcDbCircle
 10
209.0000109999999
 20
229.999999999996
 30
0.0
 40
26.00000000000001
100
AcDbArc
 50
0.0
 51
39.05879500000002
  0
ARC
  5
2CC
330
1F
100
AcDbEntity
  8
Ｓ_１_１
  6
CONTINUOUS
 62
     3
100
AcDbCircle
 10
209.0000109999999
 20
229.999999999996
 30
0.0
 40
10.0
100
AcDbArc
 50
0.0
 51
39.05879500000002
  0
LINE
  5
2CD
330
1F
100
AcDbEntity
  8
Ｓ_１_１
  6
CONTINUOUS
 62
     3
100
AcDbLine
 10
219.000011
 20
229.999999999996
 30
0.0
 11
212.0000109999999
 21
229.999999999996
 31
0.0
  0
LINE
  5
2CE
330
1F
100
AcDbEntity
  8
Ｓ_１_１
  6
CONTINUOUS
 62
     3
100
AcDbLine
 10
212.0000109999999
 20
229.999999999996
 30
0.0
 11
212.0000109999999
 21
129.999999999996
 31
0.0
  0
LINE
  5
2CF
330
1F
100
AcDbEntity
  8
Ｓ_１_１
  6
CONTINUOUS
 62
     3
100
AcDbLine
 10
235.000011
 20
139.999999999996
 30
0.0
 11
219.000011
 21
139.999999999996
 31
0.0
  0
ARC
  5
2D0
330
1F
100
AcDbEntity
  8
Ｓ_１_１
  6
CONTINUOUS
 62
     3
100
AcDbCircle
 10
177.000011
 20
291.999999999996
 30
0.0
 40
8.0
100
AcDbArc
 50
39.05879500000002
 51
219.0587950000001
  0
LINE
  5
2D1
330
1F
100
AcDbEntity
  8
Ｓ_１_１
  6
CONTINUOUS
 62
     3
100
AcDbLine
 10
219.000011
 20
229.999999999996
 30
0.0
 11
219.000011
 21
139.999999999996
 31
0.0
  0
LINE
  5
2D2
330
1F
100
AcDbEntity
  8
Ｓ_１_１
  6
CONTINUOUS
 62
     3
100
AcDbLine
 10
235.000011
 20
229.999999999996
 30
0.0
 11
235.000011
 21
139.999999999996
 31
0.0
  0
LINE
  5
2D3
330
1F
100
AcDbEntity
  8
Ｓ_１_１
  6
CONTINUOUS
 62
     3
100
AcDbLine
 10
241.9652050000001
 20
129.999999999996
 30
0.0
 11
212.0000109999999
 21
129.999999999996
 31
0.0
  0
LINE
  5
2D4
330
1F
100
AcDbEntity
  8
Ｓ_１_１
  6
CONTINUOUS
 62
     3
100
AcDbLine
 10
241.9652050000001
 20
229.999999999996
 30
0.0
 11
235.000011
 21
229.999999999996
 31
0.0
  0
LINE
  5
2D5
330
1F
100
AcDbEntity
  8
Ｓ_１_１
  6
CONTINUOUS
 62
     3
100
AcDbLine
 10
558.0348179999999
 20
229.999999999996
 30
0.0
 11
565.0000109999999
 21
229.999999999996
 31
0.0
  0
LINE
  5
2D6
330
1F
100
AcDbEntity
  8
Ｓ_１_１
  6
CONTINUOUS
 62
     3
100
AcDbLine
 10
558.0348179999999
 20
129.999999999996
 30
0.0
 11
588.0000109999999
 21
129.999999999996
 31
0.0
  0
LINE
  5
2D7
330
1F
100
AcDbEntity
  8
Ｓ_１_１
  6
CONTINUOUS
 62
     3
100
AcDbLine
 10
565.0000109999999
 20
229.999999999996
 30
0.0
 11
565.0000109999999
 21
139.999999999996
 31
0.0
  0
LINE
  5
2D8
330
1F
100
AcDbEntity
  8
Ｓ_１_１
  6
CONTINUOUS
 62
     3
100
AcDbLine
 10
581.0000109999999
 20
229.999999999996
 30
0.0
 11
581.0000109999999
 21
139.999999999996
 31
0.0
  0
ARC
  5
2D9
330
1F
100
AcDbEntity
  8
Ｓ_１_１
  6
CONTINUOUS
 62
     3
100
AcDbCircle
 10
623.0000109999999
 20
291.999999999996
 30
0.0
 40
8.0
100
AcDbArc
 50
320.941205
 51
140.9412050000001
  0
LINE
  5
2DA
330
1F
100
AcDbEntity
  8
Ｓ_１_１
  6
CONTINUOUS
 62
     3
100
AcDbLine
 10
565.0000109999999
 20
139.999999999996
 30
0.0
 11
581.0000109999999
 21
139.999999999996
 31
0.0
  0
LINE
  5
2DB
330
1F
100
AcDbEntity
  8
Ｓ_１_１
  6
CONTINUOUS
 62
     3
100
AcDbLine
 10
588.0000109999999
 20
229.999999999996
 30
0.0
 11
588.0000109999999
 21
129.999999999996
 31
0.0
  0
LINE
  5
2DC
330
1F
100
AcDbEntity
  8
Ｓ_１_１
  6
CONTINUOUS
 62
     3
100
AcDbLine
 10
581.0000109999999
 20
229.999999999996
 30
0.0
 11
588.0000109999999
 21
229.999999999996
 31
0.0
  0
ARC
  5
2DD
330
1F
100
AcDbEntity
  8
Ｓ_１_１
  6
CONTINUOUS
 62
     3
100
AcDbCircle
 10
591.0000109999999
 20
229.999999999996
 30
0.0
 40
10.0
100
AcDbArc
 50
140.9412050000001
 51
180.0
  0
ARC
  5
2DE
330
1F
100
AcDbEntity
  8
Ｓ_１_１
  6
CONTINUOUS
 62
     3
100
AcDbCircle
 10
591.0000109999999
 20
229.999999999996
 30
0.0
 40
26.00000000000001
100
AcDbArc
 50
140.9412050000001
 51
180.0
  0
LINE
  5
2DF
330
1F
100
AcDbEntity
  8
Ｓ_１_１
  6
CONTINUOUS
 62
     3
100
AcDbLine
 10
616.7880129999999
 20
297.040939999996
 30
0.0
 11
570.8110169999998
 21
246.3830559999959
 31
0.0
  0
LINE
  5
2E0
330
1F
100
AcDbEntity
  8
Ｓ_１_１
  6
CONTINUOUS
 62
     3
100
AcDbLine
 10
629.21201
 20
286.959059999996
 30
0.0
 11
583.2350139999999
 21
236.301174999996
 31
0.0
  0
LINE
  5
2E1
330
1F
100
AcDbEntity
  8
Ｓ_１_１
  6
CONTINUOUS
 62
     3
100
AcDbLine
 10
208.8000109999999
 20
224.999999999996
 30
0.0
 11
212.0000109999999
 21
224.999999999996
 31
0.0
  0
LINE
  5
2E2
330
1F
100
AcDbEntity
  8
Ｓ_１_１
  6
CONTINUOUS
 62
     3
100
AcDbLine
 10
208.8000109999999
 20
194.9999999999959
 30
0.0
 11
212.0000109999999
 21
194.9999999999959
 31
0.0
  0
ARC
  5
2E3
330
1F
100
AcDbEntity
  8
Ｓ_１_１
  6
CONTINUOUS
 62
     3
100
AcDbCircle
 10
203.896566
 20
220.387499999996
 30
0.0
 40
5.096555
100
AcDbArc
 50
137.204756
 51
222.7952440000001
  0
LINE
  5
2E4
330
1F
100
AcDbEntity
  8
Ｓ_１_１
  6
CONTINUOUS
 62
     3
100
AcDbLine
 10
208.8000109999999
 20
216.924999999996
 30
0.0
 11
200.1567840000001
 21
216.924999999996
 31
0.0
  0
LINE
  5
2E5
330
1F
100
AcDbEntity
  8
Ｓ_１_１
  6
CONTINUOUS
 62
     3
100
AcDbLine
 10
208.8000109999999
 20
223.849999999996
 30
0.0
 11
200.1567840000001
 21
223.849999999996
 31
0.0
  0
LINE
  5
2E6
330
1F
100
AcDbEntity
  8
Ｓ_１_１
  6
CONTINUOUS
 62
     3
100
AcDbLine
 10
198.8000109999999
 20
199.6124999999961
 30
0.0
 11
198.8000109999999
 21
220.387499999996
 31
0.0
  0
ARC
  5
2E7
330
1F
100
AcDbEntity
  8
Ｓ_１_１
  6
CONTINUOUS
 62
     3
100
AcDbCircle
 10
217.151072
 20
209.999999999996
 30
0.0
 40
18.351061
100
AcDbArc
 50
157.829604
 51
202.1703960000001
  0
ARC
  5
2E8
330
1F
100
AcDbEntity
  8
Ｓ_１_１
  6
CONTINUOUS
 62
     3
100
AcDbCircle
 10
203.896566
 20
199.6124999999961
 30
0.0
 40
5.096555
100
AcDbArc
 50
137.204756
 51
222.7952440000001
  0
LINE
  5
2E9
330
1F
100
AcDbEntity
  8
Ｓ_１_１
  6
CONTINUOUS
 62
     3
100
AcDbLine
 10
208.8000109999999
 20
203.074999999996
 30
0.0
 11
200.1567840000001
 21
203.074999999996
 31
0.0
  0
LINE
  5
2EA
330
1F
100
AcDbEntity
  8
Ｓ_１_１
  6
CONTINUOUS
 62
     3
100
AcDbLine
 10
208.8000109999999
 20
196.149999999996
 30
0.0
 11
200.1567840000001
 21
196.149999999996
 31
0.0
  0
LINE
  5
2EB
330
1F
100
AcDbEntity
  8
Ｓ_１_１
  6
CONTINUOUS
 62
     3
100
AcDbLine
 10
208.8000109999999
 20
194.9999999999959
 30
0.0
 11
208.8000109999999
 21
224.999999999996
 31
0.0
  0
LINE
  5
2EC
330
1F
100
AcDbEntity
  8
Ｓ_１_１
  6
CONTINUOUS
 62
     3
100
AcDbLine
 10
208.8000109999999
 20
134.999999999996
 30
0.0
 11
208.8000109999999
 21
164.9999999999959
 31
0.0
  0
LINE
  5
2ED
330
1F
100
AcDbEntity
  8
Ｓ_１_１
  6
CONTINUOUS
 62
     3
100
AcDbLine
 10
208.8000109999999
 20
136.149999999996
 30
0.0
 11
200.1567840000001
 21
136.149999999996
 31
0.0
  0
LINE
  5
2EE
330
1F
100
AcDbEntity
  8
Ｓ_１_１
  6
CONTINUOUS
 62
     3
100
AcDbLine
 10
208.8000109999999
 20
143.074999999996
 30
0.0
 11
200.1567840000001
 21
143.074999999996
 31
0.0
  0
ARC
  5
2EF
330
1F
100
AcDbEntity
  8
Ｓ_１_１
  6
CONTINUOUS
 62
     3
100
AcDbCircle
 10
203.896566
 20
139.612499999996
 30
0.0
 40
5.096555
100
AcDbArc
 50
137.204756
 51
222.7952440000001
  0
ARC
  5
2F0
330
1F
100
AcDbEntity
  8
Ｓ_１_１
  6
CONTINUOUS
 62
     3
100
AcDbCircle
 10
217.151072
 20
149.999999999996
 30
0.0
 40
18.351061
100
AcDbArc
 50
157.829604
 51
202.1703960000001
  0
LINE
  5
2F1
330
1F
100
AcDbEntity
  8
Ｓ_１_１
  6
CONTINUOUS
 62
     3
100
AcDbLine
 10
198.8000109999999
 20
139.612499999996
 30
0.0
 11
198.8000109999999
 21
160.387499999996
 31
0.0
  0
LINE
  5
2F2
330
1F
100
AcDbEntity
  8
Ｓ_１_１
  6
CONTINUOUS
 62
     3
100
AcDbLine
 10
208.8000109999999
 20
163.849999999996
 30
0.0
 11
200.1567840000001
 21
163.849999999996
 31
0.0
  0
LINE
  5
2F3
330
1F
100
AcDbEntity
  8
Ｓ_１_１
  6
CONTINUOUS
 62
     3
100
AcDbLine
 10
208.8000109999999
 20
156.9249999999961
 30
0.0
 11
200.1567840000001
 21
156.9249999999961
 31
0.0
  0
ARC
  5
2F4
330
1F
100
AcDbEntity
  8
Ｓ_１_１
  6
CONTINUOUS
 62
     3
100
AcDbCircle
 10
203.896566
 20
160.387499999996
 30
0.0
 40
5.096555
100
AcDbArc
 50
137.204756
 51
222.7952440000001
  0
LINE
  5
2F5
330
1F
100
AcDbEntity
  8
Ｓ_１_１
  6
CONTINUOUS
 62
     3
100
AcDbLine
 10
208.8000109999999
 20
134.999999999996
 30
0.0
 11
212.0000109999999
 21
134.999999999996
 31
0.0
  0
LINE
  5
2F6
330
1F
100
AcDbEntity
  8
Ｓ_１_１
  6
CONTINUOUS
 62
     3
100
AcDbLine
 10
208.8000109999999
 20
164.9999999999959
 30
0.0
 11
212.0000109999999
 21
164.9999999999959
 31
0.0
  0
LINE
  5
2F7
330
1F
100
AcDbEntity
  8
Ｓ_１_１
  6
CONTINUOUS
 62
     3
100
AcDbLine
 10
591.2000109999999
 20
164.9999999999959
 30
0.0
 11
588.0000109999999
 21
164.9999999999959
 31
0.0
  0
LINE
  5
2F8
330
1F
100
AcDbEntity
  8
Ｓ_１_１
  6
CONTINUOUS
 62
     3
100
AcDbLine
 10
591.2000109999999
 20
134.999999999996
 30
0.0
 11
588.0000109999999
 21
134.999999999996
 31
0.0
  0
ARC
  5
2F9
330
1F
100
AcDbEntity
  8
Ｓ_１_１
  6
CONTINUOUS
 62
     3
100
AcDbCircle
 10
596.1034559999998
 20
160.387499999996
 30
0.0
 40
5.096555
100
AcDbArc
 50
317.2047560000003
 51
42.79524399999999
  0
LINE
  5
2FA
330
1F
100
AcDbEntity
  8
Ｓ_１_１
  6
CONTINUOUS
 62
     3
100
AcDbLine
 10
591.2000109999999
 20
156.9249999999961
 30
0.0
 11
599.8432379999999
 21
156.9249999999961
 31
0.0
  0
LINE
  5
2FB
330
1F
100
AcDbEntity
  8
Ｓ_１_１
  6
CONTINUOUS
 62
     3
100
AcDbLine
 10
591.2000109999999
 20
163.849999999996
 30
0.0
 11
599.8432379999999
 21
163.849999999996
 31
0.0
  0
LINE
  5
2FC
330
1F
100
AcDbEntity
  8
Ｓ_１_１
  6
CONTINUOUS
 62
     3
100
AcDbLine
 10
601.2000109999999
 20
139.612499999996
 30
0.0
 11
601.2000109999999
 21
160.387499999996
 31
0.0
  0
ARC
  5
2FD
330
1F
100
AcDbEntity
  8
Ｓ_１_１
  6
CONTINUOUS
 62
     3
100
AcDbCircle
 10
582.8489499999998
 20
149.999999999996
 30
0.0
 40
18.351061
100
AcDbArc
 50
337.8296040000002
 51
22.17039600000001
  0
ARC
  5
2FE
330
1F
100
AcDbEntity
  8
Ｓ_１_１
  6
CONTINUOUS
 62
     3
100
AcDbCircle
 10
596.1034559999998
 20
139.612499999996
 30
0.0
 40
5.096555
100
AcDbArc
 50
317.2047560000003
 51
42.79524399999999
  0
LINE
  5
2FF
330
1F
100
AcDbEntity
  8
Ｓ_１_１
  6
CONTINUOUS
 62
     3
100
AcDbLine
 10
591.2000109999999
 20
143.074999999996
 30
0.0
 11
599.8432379999999
 21
143.074999999996
 31
0.0
  0
LINE
  5
300
330
1F
100
AcDbEntity
  8
Ｓ_１_１
  6
CONTINUOUS
 62
     3
100
AcDbLine
 10
591.2000109999999
 20
136.149999999996
 30
0.0
 11
599.8432379999999
 21
136.149999999996
 31
0.0
  0
LINE
  5
301
330
1F
100
AcDbEntity
  8
Ｓ_１_１
  6
CONTINUOUS
 62
     3
100
AcDbLine
 10
591.2000109999999
 20
134.999999999996
 30
0.0
 11
591.2000109999999
 21
164.9999999999959
 31
0.0
  0
LINE
  5
302
330
1F
100
AcDbEntity
  8
Ｓ_１_１
  6
CONTINUOUS
 62
     3
100
AcDbLine
 10
591.2000109999999
 20
194.9999999999959
 30
0.0
 11
591.2000109999999
 21
224.999999999996
 31
0.0
  0
LINE
  5
303
330
1F
100
AcDbEntity
  8
Ｓ_１_１
  6
CONTINUOUS
 62
     3
100
AcDbLine
 10
591.2000109999999
 20
196.149999999996
 30
0.0
 11
599.8432379999999
 21
196.149999999996
 31
0.0
  0
LINE
  5
304
330
1F
100
AcDbEntity
  8
Ｓ_１_１
  6
CONTINUOUS
 62
     3
100
AcDbLine
 10
591.2000109999999
 20
203.074999999996
 30
0.0
 11
599.8432379999999
 21
203.074999999996
 31
0.0
  0
ARC
  5
305
330
1F
100
AcDbEntity
  8
Ｓ_１_１
  6
CONTINUOUS
 62
     3
100
AcDbCircle
 10
596.1034559999998
 20
199.6124999999961
 30
0.0
 40
5.096555
100
AcDbArc
 50
317.2047560000003
 51
42.79524399999999
  0
ARC
  5
306
330
1F
100
AcDbEntity
  8
Ｓ_１_１
  6
CONTINUOUS
 62
     3
100
AcDbCircle
 10
582.8489499999998
 20
209.999999999996
 30
0.0
 40
18.351061
100
AcDbArc
 50
337.8296040000002
 51
22.17039600000001
  0
LINE
  5
307
330
1F
100
AcDbEntity
  8
Ｓ_１_１
  6
CONTINUOUS
 62
     3
100
AcDbLine
 10
601.2000109999999
 20
199.6124999999961
 30
0.0
 11
601.2000109999999
 21
220.387499999996
 31
0.0
  0
LINE
  5
308
330
1F
100
AcDbEntity
  8
Ｓ_１_１
  6
CONTINUOUS
 62
     3
100
AcDbLine
 10
591.2000109999999
 20
223.849999999996
 30
0.0
 11
599.8432379999999
 21
223.849999999996
 31
0.0
  0
LINE
  5
309
330
1F
100
AcDbEntity
  8
Ｓ_１_１
  6
CONTINUOUS
 62
     3
100
AcDbLine
 10
591.2000109999999
 20
216.924999999996
 30
0.0
 11
599.8432379999999
 21
216.924999999996
 31
0.0
  0
ARC
  5
30A
330
1F
100
AcDbEntity
  8
Ｓ_１_１
  6
CONTINUOUS
 62
     3
100
AcDbCircle
 10
596.1034559999998
 20
220.387499999996
 30
0.0
 40
5.096555
100
AcDbArc
 50
317.2047560000003
 51
42.79524399999999
  0
LINE
  5
30B
330
1F
100
AcDbEntity
  8
Ｓ_１_１
  6
CONTINUOUS
 62
     3
100
AcDbLine
 10
591.2000109999999
 20
194.9999999999959
 30
0.0
 11
588.0000109999999
 21
194.9999999999959
 31
0.0
  0
LINE
  5
30C
330
1F
100
AcDbEntity
  8
Ｓ_１_１
  6
CONTINUOUS
 62
     3
100
AcDbLine
 10
591.2000109999999
 20
224.999999999996
 30
0.0
 11
588.0000109999999
 21
224.999999999996
 31
0.0
  0
LINE
  5
30D
330
1F
100
AcDbEntity
  8
Ｓ_１_１
  6
EXLTYPE2
 62
     1
100
AcDbLine
 10
519.9481969999999
 20
332.499999999996
 30
0.0
 11
559.8000109999998
 21
332.499999999996
 31
0.0
  0
LINE
  5
30E
330
1F
100
AcDbEntity
  8
Ｓ_１_１
  6
CONTINUOUS
 62
     3
100
AcDbLine
 10
802.9999999999999
 20
304.999999999996
 30
0.0
 11
799.9999999999999
 21
301.999999999996
 31
0.0
  0
LINE
  5
30F
330
1F
100
AcDbEntity
  8
Ｓ_１_１
  6
CONTINUOUS
 62
     3
100
AcDbLine
 10
805.0
 20
307.999999999996
 30
0.0
 11
805.0
 21
356.999999999996
 31
0.0
  0
LINE
  5
310
330
1F
100
AcDbEntity
  8
Ｓ_１_１
  6
CONTINUOUS
 62
     3
100
AcDbLine
 10
799.9999999999999
 20
122.999999999996
 30
0.0
 11
799.9999999999999
 21
301.999999999996
 31
0.0
  0
LINE
  5
311
330
1F
100
AcDbEntity
  8
Ｓ_１_１
  6
CONTINUOUS
 62
     3
100
AcDbLine
 10
838.0
 20
399.999999999996
 30
0.0
 11
835.0
 21
396.999999999996
 31
0.0
  0
LINE
  5
312
330
1F
100
AcDbEntity
  8
Ｓ_１_１
  6
CONTINUOUS
 62
     3
100
AcDbLine
 10
835.0
 20
372.999999999996
 30
0.0
 11
835.0
 21
396.999999999996
 31
0.0
  0
ARC
  5
313
330
1F
100
AcDbEntity
  8
Ｓ_１_１
  6
CONTINUOUS
 62
     3
100
AcDbCircle
 10
960.0
 20
459.999999999996
 30
0.0
 40
130.0
100
AcDbArc
 50
225.047464
 51
228.258302
  0
LINE
  5
314
330
1F
100
AcDbEntity
  8
Ｓ_１_１
  6
CONTINUOUS
 62
     3
100
AcDbLine
 10
835.0
 20
372.999999999996
 30
0.0
 11
838.0
 21
369.999999999996
 31
0.0
  0
LINE
  5
315
330
1F
100
AcDbEntity
  8
Ｓ_１_１
  6
CONTINUOUS
 62
     3
100
AcDbLine
 10
868.1523
 20
367.999999999996
 30
0.0
 11
838.0
 21
369.999999999996
 31
0.0
  0
LINE
  5
316
330
1F
100
AcDbEntity
  8
Ｓ_１_１
  6
CONTINUOUS
 62
     3
100
AcDbLine
 10
1051.8477
 20
367.999999999996
 30
0.0
 11
1082.0
 21
369.999999999996
 31
0.0
  0
LINE
  5
317
330
1F
100
AcDbEntity
  8
Ｓ_１_１
  6
CONTINUOUS
 62
     3
100
AcDbLine
 10
1085.0
 20
372.999999999996
 30
0.0
 11
1082.0
 21
369.999999999996
 31
0.0
  0
ARC
  5
318
330
1F
100
AcDbEntity
  8
Ｓ_１_１
  6
CONTINUOUS
 62
     3
100
AcDbCircle
 10
960.0
 20
459.999999999996
 30
0.0
 40
130.0
100
AcDbArc
 50
311.741698
 51
314.9525360000001
  0
LINE
  5
319
330
1F
100
AcDbEntity
  8
Ｓ_１_１
  6
CONTINUOUS
 62
     3
100
AcDbLine
 10
1085.0
 20
372.999999999996
 30
0.0
 11
1085.0
 21
396.999999999996
 31
0.0
  0
LINE
  5
31A
330
1F
100
AcDbEntity
  8
Ｓ_１_１
  6
CONTINUOUS
 62
     3
100
AcDbLine
 10
1082.0
 20
399.999999999996
 30
0.0
 11
1085.0
 21
396.999999999996
 31
0.0
  0
LINE
  5
31B
330
1F
100
AcDbEntity
  8
Ｓ_１_１
  6
CONTINUOUS
 62
     3
100
AcDbLine
 10
805.0
 20
307.999999999996
 30
0.0
 11
808.0
 21
304.999999999996
 31
0.0
  0
LINE
  5
31C
330
1F
100
AcDbEntity
  8
Ｓ_１_１
  6
CONTINUOUS
 62
     3
100
AcDbLine
 10
808.0
 20
359.999999999996
 30
0.0
 11
805.0
 21
356.999999999996
 31
0.0
  0
ARC
  5
31D
330
1F
100
AcDbEntity
  8
Ｓ_１_１
  6
CONTINUOUS
 62
     3
100
AcDbCircle
 10
960.0
 20
332.499999999996
 30
0.0
 40
10.406524
100
AcDbArc
 50
90.00000000000001
 51
270.0000000000002
  0
ARC
  5
31E
330
1F
100
AcDbEntity
  8
Ｓ_１_１
  6
CONTINUOUS
 62
     3
100
AcDbCircle
 10
960.0
 20
332.499999999996
 30
0.0
 40
10.0
100
AcDbArc
 50
90.00000000000001
 51
270.0000000000002
  0
ARC
  5
31F
330
1F
100
AcDbEntity
  8
Ｓ_１_１
  6
CONTINUOUS
 62
     3
100
AcDbCircle
 10
960.0
 20
332.499999999996
 30
0.0
 40
8.75
100
AcDbArc
 50
90.00000000000001
 51
270.0000000000002
  0
ELLIPSE
  5
320
330
1F
100
AcDbEntity
  8
Ｓ_１_１
  6
CONTINUOUS
 62
     3
100
AcDbEllipse
 10
882.733862
 20
332.499999999996
 30
0.0
 11
-4.785710873658653E-15
 21
12.49999999999991
 31
0.0
210
0.0
220
0.0
230
1.0
 40
0.8336210000000002
 41
0.0
 42
6.283185307179586
  0
ELLIPSE
  5
321
330
1F
100
AcDbEntity
  8
Ｓ_１_１
  6
CONTINUOUS
 62
     3
100
AcDbEllipse
 10
883.5
 20
332.499999999996
 30
0.0
 11
-4.019997133873288E-15
 21
10.49999999999998
 31
0.0
210
0.0
220
0.0
230
1.0
 40
0.8660249999999998
 41
0.0
 42
6.283185307179586
  0
ELLIPSE
  5
322
330
1F
100
AcDbEntity
  8
Ｓ_１_１
  6
CONTINUOUS
 62
     3
100
AcDbEllipse
 10
1036.5
 20
332.499999999996
 30
0.0
 11
-4.019997133873288E-15
 21
10.49999999999998
 31
0.0
210
0.0
220
0.0
230
1.0
 40
0.8660249999999998
 41
0.0
 42
6.283185307179586
  0
ELLIPSE
  5
323
330
1F
100
AcDbEntity
  8
Ｓ_１_１
  6
CONTINUOUS
 62
     3
100
AcDbEllipse
 10
1037.266138
 20
332.499999999996
 30
0.0
 11
-4.785710873658653E-15
 21
12.49999999999991
 31
0.0
210
0.0
220
0.0
230
1.0
 40
0.8336210000000002
 41
0.0
 42
6.283185307179586
  0
ARC
  5
324
330
1F
100
AcDbEntity
  8
Ｓ_１_１
  6
CONTINUOUS
 62
     3
100
AcDbCircle
 10
960.0
 20
332.499999999996
 30
0.0
 40
8.75
100
AcDbArc
 50
270.0000000000002
 51
90.00000000000001
  0
ARC
  5
325
330
1F
100
AcDbEntity
  8
Ｓ_１_１
  6
CONTINUOUS
 62
     3
100
AcDbCircle
 10
960.0
 20
332.499999999996
 30
0.0
 40
10.0
100
AcDbArc
 50
270.0000000000002
 51
90.00000000000001
  0
ARC
  5
326
330
1F
100
AcDbEntity
  8
Ｓ_１_１
  6
CONTINUOUS
 62
     3
100
AcDbCircle
 10
960.0
 20
332.499999999996
 30
0.0
 40
10.406524
100
AcDbArc
 50
270.0000000000002
 51
90.00000000000001
  0
LINE
  5
327
330
1F
100
AcDbEntity
  8
Ｓ_１_１
  6
CONTINUOUS
 62
     3
100
AcDbLine
 10
1115.0
 20
307.999999999996
 30
0.0
 11
1115.0
 21
356.999999999996
 31
0.0
  0
LINE
  5
328
330
1F
100
AcDbEntity
  8
Ｓ_１_１
  6
CONTINUOUS
 62
     3
100
AcDbLine
 10
1112.0
 20
359.999999999996
 30
0.0
 11
1115.0
 21
356.999999999996
 31
0.0
  0
LINE
  5
329
330
1F
100
AcDbEntity
  8
Ｓ_１_１
  6
CONTINUOUS
 62
     3
100
AcDbLine
 10
1115.0
 20
307.999999999996
 30
0.0
 11
1112.0
 21
304.999999999996
 31
0.0
  0
LINE
  5
32A
330
1F
100
AcDbEntity
  8
Ｓ_１_１
  6
CONTINUOUS
 62
     3
100
AcDbLine
 10
1057.000012
 20
359.999999999996
 30
0.0
 11
1057.000012
 21
362.999999999996
 31
0.0
  0
LINE
  5
32B
330
1F
100
AcDbEntity
  8
Ｓ_１_１
  6
CONTINUOUS
 62
     3
100
AcDbLine
 10
863.0000119999999
 20
359.999999999996
 30
0.0
 11
863.0000119999999
 21
362.999999999996
 31
0.0
  0
LINE
  5
32C
330
1F
100
AcDbEntity
  8
Ｓ_１_１
  6
CONTINUOUS
 62
     3
100
AcDbLine
 10
860.0000119999999
 20
359.999999999996
 30
0.0
 11
863.0000119999999
 21
362.999999999996
 31
0.0
  0
LINE
  5
32D
330
1F
100
AcDbEntity
  8
Ｓ_１_１
  6
CONTINUOUS
 62
     3
100
AcDbLine
 10
1060.000012
 20
359.999999999996
 30
0.0
 11
1057.000012
 21
362.999999999996
 31
0.0
  0
LINE
  5
32E
330
1F
100
AcDbEntity
  8
Ｓ_１_１
  6
CONTINUOUS
 62
     3
100
AcDbLine
 10
1117.0
 20
304.999999999996
 30
0.0
 11
1120.0
 21
301.999999999996
 31
0.0
  0
LINE
  5
32F
330
1F
100
AcDbEntity
  8
Ｓ_１_１
  6
EXLTYPE2
 62
     1
100
AcDbLine
 10
904.9999999999999
 20
394.999999999996
 30
0.0
 11
904.9999999999999
 21
402.999999999996
 31
0.0
  0
LINE
  5
330
330
1F
100
AcDbEntity
  8
Ｓ_１_１
  6
EXLTYPE2
 62
     1
100
AcDbLine
 10
874.9999999999999
 20
394.999999999996
 30
0.0
 11
874.9999999999999
 21
402.999999999996
 31
0.0
  0
LINE
  5
331
330
1F
100
AcDbEntity
  8
Ｓ_１_１
  6
EXLTYPE2
 62
     1
100
AcDbLine
 10
859.9999999999999
 20
369.041079999996
 30
0.0
 11
859.9999999999999
 21
402.999999999996
 31
0.0
  0
LINE
  5
332
330
1F
100
AcDbEntity
  8
Ｓ_１_１
  6
EXLTYPE2
 62
     1
100
AcDbLine
 10
844.9999999999999
 20
394.999999999996
 30
0.0
 11
844.9999999999999
 21
402.999999999996
 31
0.0
  0
LINE
  5
333
330
1F
100
AcDbEntity
  8
Ｓ_１_１
  6
EXLTYPE2
 62
     1
100
AcDbLine
 10
1075.0
 20
394.999999999996
 30
0.0
 11
1075.0
 21
402.999999999996
 31
0.0
  0
LINE
  5
334
330
1F
100
AcDbEntity
  8
Ｓ_１_１
  6
EXLTYPE2
 62
     1
100
AcDbLine
 10
1060.0
 20
369.041079999996
 30
0.0
 11
1060.0
 21
402.999999999996
 31
0.0
  0
LINE
  5
335
330
1F
100
AcDbEntity
  8
Ｓ_１_１
  6
EXLTYPE2
 62
     1
100
AcDbLine
 10
1045.0
 20
394.999999999996
 30
0.0
 11
1045.0
 21
402.999999999996
 31
0.0
  0
LINE
  5
336
330
1F
100
AcDbEntity
  8
Ｓ_１_１
  6
EXLTYPE2
 62
     1
100
AcDbLine
 10
1015.0
 20
394.999999999996
 30
0.0
 11
1015.0
 21
402.999999999996
 31
0.0
  0
LINE
  5
337
330
1F
100
AcDbEntity
  8
Ｓ_１_１
  6
EXLTYPE2
 62
     1
100
AcDbLine
 10
840.051815
 20
332.499999999996
 30
0.0
 11
802.0
 21
332.499999999996
 31
0.0
  0
LINE
  5
338
330
1F
100
AcDbEntity
  8
Ｓ_１_１
  6
EXLTYPE2
 62
     1
100
AcDbLine
 10
882.733862
 20
349.999999999996
 30
0.0
 11
882.733862
 21
314.999999999996
 31
0.0
  0
LINE
  5
339
330
1F
100
AcDbEntity
  8
Ｓ_１_１
  6
EXLTYPE2
 62
     1
100
AcDbLine
 10
867.3136059999998
 20
332.499999999996
 30
0.0
 11
898.154119
 21
332.499999999996
 31
0.0
  0
LINE
  5
33A
330
1F
100
AcDbEntity
  8
Ｓ_１_１
  6
EXLTYPE2
 62
     1
100
AcDbLine
 10
960.0
 20
332.499999999996
 30
0.0
 11
944.593476
 21
332.499999999996
 31
0.0
  0
LINE
  5
33B
330
1F
100
AcDbEntity
  8
Ｓ_１_１
  6
EXLTYPE2
 62
     1
100
AcDbLine
 10
960.0
 20
332.499999999996
 30
0.0
 11
975.4065249999999
 21
332.499999999996
 31
0.0
  0
LINE
  5
33C
330
1F
100
AcDbEntity
  8
Ｓ_１_１
  6
EXLTYPE2
 62
     1
100
AcDbLine
 10
1052.686395
 20
332.499999999996
 30
0.0
 11
1021.845882
 21
332.499999999996
 31
0.0
  0
LINE
  5
33D
330
1F
100
AcDbEntity
  8
Ｓ_１_１
  6
EXLTYPE2
 62
     1
100
AcDbLine
 10
1037.266138
 20
349.999999999996
 30
0.0
 11
1037.266138
 21
314.999999999996
 31
0.0
  0
LINE
  5
33E
330
1F
100
AcDbEntity
  8
Ｓ_１_１
  6
EXLTYPE2
 62
     1
100
AcDbLine
 10
1079.948186
 20
332.499999999996
 30
0.0
 11
1118.0
 21
332.499999999996
 31
0.0
  0
CIRCLE
  5
33F
330
1F
100
AcDbEntity
  8
Ｓ_１_１
  6
CONTINUOUS
 62
     3
100
AcDbCircle
 10
960.0
 20
149.999999999996
 30
0.0
 40
15.00000000000001
  0
CIRCLE
  5
340
330
1F
100
AcDbEntity
  8
Ｓ_１_１
  6
CONTINUOUS
 62
     3
100
AcDbCircle
 10
960.0
 20
149.999999999996
 30
0.0
 40
12.00000000000001
  0
LINE
  5
341
330
1F
100
AcDbEntity
  8
Ｓ_１_１
  6
CONTINUOUS
 62
     3
100
AcDbLine
 10
960.0
 20
136.143591999996
 30
0.0
 11
972.0
 21
143.0717959999961
 31
0.0
  0
LINE
  5
342
330
1F
100
AcDbEntity
  8
Ｓ_１_１
  6
CONTINUOUS
 62
     3
100
AcDbLine
 10
948.0
 20
143.0717959999961
 30
0.0
 11
960.0
 21
136.143591999996
 31
0.0
  0
LINE
  5
343
330
1F
100
AcDbEntity
  8
Ｓ_１_１
  6
CONTINUOUS
 62
     3
100
AcDbLine
 10
948.0
 20
156.9282039999961
 30
0.0
 11
948.0
 21
143.0717959999961
 31
0.0
  0
LINE
  5
344
330
1F
100
AcDbEntity
  8
Ｓ_１_１
  6
CONTINUOUS
 62
     3
100
AcDbLine
 10
960.0
 20
163.856407999996
 30
0.0
 11
948.0
 21
156.9282039999961
 31
0.0
  0
LINE
  5
345
330
1F
100
AcDbEntity
  8
Ｓ_１_１
  6
CONTINUOUS
 62
     3
100
AcDbLine
 10
972.0
 20
156.9282039999961
 30
0.0
 11
960.0
 21
163.856407999996
 31
0.0
  0
LINE
  5
346
330
1F
100
AcDbEntity
  8
Ｓ_１_１
  6
CONTINUOUS
 62
     3
100
AcDbLine
 10
972.0
 20
156.9282039999961
 30
0.0
 11
972.0
 21
143.0717959999961
 31
0.0
  0
LINE
  5
347
330
1F
100
AcDbEntity
  8
Ｓ_１_１
  6
CONTINUOUS
 62
     3
100
AcDbLine
 10
972.0
 20
216.9282039999961
 30
0.0
 11
972.0
 21
203.0717959999961
 31
0.0
  0
LINE
  5
348
330
1F
100
AcDbEntity
  8
Ｓ_１_１
  6
CONTINUOUS
 62
     3
100
AcDbLine
 10
972.0
 20
216.9282039999961
 30
0.0
 11
960.0
 21
223.856407999996
 31
0.0
  0
LINE
  5
349
330
1F
100
AcDbEntity
  8
Ｓ_１_１
  6
CONTINUOUS
 62
     3
100
AcDbLine
 10
960.0
 20
223.856407999996
 30
0.0
 11
948.0
 21
216.9282039999961
 31
0.0
  0
LINE
  5
34A
330
1F
100
AcDbEntity
  8
Ｓ_１_１
  6
CONTINUOUS
 62
     3
100
AcDbLine
 10
948.0
 20
216.9282039999961
 30
0.0
 11
948.0
 21
203.0717959999961
 31
0.0
  0
LINE
  5
34B
330
1F
100
AcDbEntity
  8
Ｓ_１_１
  6
CONTINUOUS
 62
     3
100
AcDbLine
 10
948.0
 20
203.0717959999961
 30
0.0
 11
960.0
 21
196.143591999996
 31
0.0
  0
LINE
  5
34C
330
1F
100
AcDbEntity
  8
Ｓ_１_１
  6
CONTINUOUS
 62
     3
100
AcDbLine
 10
960.0
 20
196.143591999996
 30
0.0
 11
972.0
 21
203.0717959999961
 31
0.0
  0
CIRCLE
  5
34D
330
1F
100
AcDbEntity
  8
Ｓ_１_１
  6
CONTINUOUS
 62
     3
100
AcDbCircle
 10
960.0
 20
209.999999999996
 30
0.0
 40
12.00000000000001
  0
CIRCLE
  5
34E
330
1F
100
AcDbEntity
  8
Ｓ_１_１
  6
CONTINUOUS
 62
     3
100
AcDbCircle
 10
960.0
 20
209.999999999996
 30
0.0
 40
15.00000000000001
  0
LINE
  5
34F
330
1F
100
AcDbEntity
  8
Ｓ_１_１
  6
CONTINUOUS
 62
     3
100
AcDbLine
 10
988.0
 20
234.999999999996
 30
0.0
 11
997.9999999999999
 21
234.999999999996
 31
0.0
  0
LINE
  5
350
330
1F
100
AcDbEntity
  8
Ｓ_１_１
  6
CONTINUOUS
 62
     3
100
AcDbLine
 10
931.9999999999999
 20
234.999999999996
 30
0.0
 11
922.0
 21
234.999999999996
 31
0.0
  0
LINE
  5
351
330
1F
100
AcDbEntity
  8
Ｓ_１_１
  6
CONTINUOUS
 62
     3
100
AcDbLine
 10
1001.0
 20
139.999999999996
 30
0.0
 11
985.0
 21
139.999999999996
 31
0.0
  0
LINE
  5
352
330
1F
100
AcDbEntity
  8
Ｓ_１_１
  6
CONTINUOUS
 62
     3
100
AcDbLine
 10
1001.0
 20
258.999999999996
 30
0.0
 11
1001.0
 21
139.999999999996
 31
0.0
  0
LINE
  5
353
330
1F
100
AcDbEntity
  8
Ｓ_１_１
  6
CONTINUOUS
 62
     3
100
AcDbLine
 10
919.0
 20
139.999999999996
 30
0.0
 11
934.9999999999999
 21
139.999999999996
 31
0.0
  0
LINE
  5
354
330
1F
100
AcDbEntity
  8
Ｓ_１_１
  6
CONTINUOUS
 62
     3
100
AcDbLine
 10
985.0
 20
129.999999999996
 30
0.0
 11
960.0
 21
129.999999999996
 31
0.0
  0
LINE
  5
355
330
1F
100
AcDbEntity
  8
Ｓ_１_１
  6
CONTINUOUS
 62
     3
100
AcDbLine
 10
985.0
 20
229.999999999996
 30
0.0
 11
960.0
 21
229.999999999996
 31
0.0
  0
ARC
  5
356
330
1F
100
AcDbEntity
  8
Ｓ_１_１
  6
CONTINUOUS
 62
     3
100
AcDbCircle
 10
960.0
 20
258.999999999996
 30
0.0
 40
41.0
100
AcDbArc
 50
0.0
 51
180.0
  0
ARC
  5
357
330
1F
100
AcDbEntity
  8
Ｓ_１_１
  6
CONTINUOUS
 62
     3
100
AcDbCircle
 10
960.0
 20
258.999999999996
 30
0.0
 40
25.00000000000002
100
AcDbArc
 50
0.0
 51
180.0
  0
LINE
  5
358
330
1F
100
AcDbEntity
  8
Ｓ_１_１
  6
CONTINUOUS
 62
     3
100
AcDbLine
 10
985.0
 20
258.999999999996
 30
0.0
 11
985.0
 21
129.999999999996
 31
0.0
  0
LINE
  5
359
330
1F
100
AcDbEntity
  8
Ｓ_１_１
  6
CONTINUOUS
 62
     3
100
AcDbLine
 10
919.0
 20
258.999999999996
 30
0.0
 11
919.0
 21
139.999999999996
 31
0.0
  0
LINE
  5
35A
330
1F
100
AcDbEntity
  8
Ｓ_１_１
  6
CONTINUOUS
 62
     3
100
AcDbLine
 10
934.9999999999999
 20
129.999999999996
 30
0.0
 11
960.0
 21
129.999999999996
 31
0.0
  0
LINE
  5
35B
330
1F
100
AcDbEntity
  8
Ｓ_１_１
  6
CONTINUOUS
 62
     3
100
AcDbLine
 10
934.9999999999999
 20
258.999999999996
 30
0.0
 11
934.9999999999999
 21
129.999999999996
 31
0.0
  0
LINE
  5
35C
330
1F
100
AcDbEntity
  8
Ｓ_１_１
  6
CONTINUOUS
 62
     3
100
AcDbLine
 10
934.9999999999999
 20
229.999999999996
 30
0.0
 11
960.0
 21
229.999999999996
 31
0.0
  0
LINE
  5
35D
330
1F
100
AcDbEntity
  8
Ｓ_１_１
  6
CONTINUOUS
 62
     3
100
AcDbLine
 10
1120.0
 20
122.999999999996
 30
0.0
 11
1120.0
 21
301.999999999996
 31
0.0
  0
LINE
  5
35E
330
1F
100
AcDbEntity
  8
Ｓ_１_１
  6
CONTINUOUS
 62
     3
100
AcDbLine
 10
1117.0
 20
119.999999999996
 30
0.0
 11
1120.0
 21
122.999999999996
 31
0.0
  0
LINE
  5
35F
330
1F
100
AcDbEntity
  8
Ｓ_１_１
  6
EXLTYPE2
 62
     1
100
AcDbLine
 10
933.0
 20
149.999999999996
 30
0.0
 11
987.0
 21
149.999999999996
 31
0.0
  0
LINE
  5
360
330
1F
100
AcDbEntity
  8
Ｓ_１_１
  6
EXLTYPE2
 62
     1
100
AcDbLine
 10
933.0
 20
209.999999999996
 30
0.0
 11
987.0
 21
209.999999999996
 31
0.0
  0
LINE
  5
361
330
1F
100
AcDbEntity
  8
Ｓ_１_１
  6
EXLTYPE2
 62
     1
100
AcDbLine
 10
993.0
 20
258.999999999996
 30
0.0
 11
993.0
 21
134.999999999996
 31
0.0
  0
LINE
  5
362
330
1F
100
AcDbEntity
  8
Ｓ_１_１
  6
EXLTYPE2
 62
     1
100
AcDbLine
 10
927.0
 20
258.999999999996
 30
0.0
 11
927.0
 21
134.999999999996
 31
0.0
  0
ARC
  5
363
330
1F
100
AcDbEntity
  8
Ｓ_１_１
  6
EXLTYPE2
 62
     1
100
AcDbCircle
 10
960.0
 20
258.999999999996
 30
0.0
 40
33.0
100
AcDbArc
 50
0.0
 51
180.0
  0
POINT
  5
364
330
1F
100
AcDbEntity
  8
Ｓ_１_１
  6
CONTINUOUS
 62
   160
100
AcDbPoint
 10
960.0
 20
149.999999999996
 30
0.0
  0
POINT
  5
365
330
1F
100
AcDbEntity
  8
Ｓ_１_１
  6
CONTINUOUS
 62
   160
100
AcDbPoint
 10
960.0
 20
209.999999999996
 30
0.0
  0
LINE
  5
366
330
1F
100
AcDbEntity
  8
Ｓ_１_１
  6
CONTINUOUS
 62
     3
100
AcDbLine
 10
802.9999999999999
 20
119.999999999996
 30
0.0
 11
799.9999999999999
 21
122.999999999996
 31
0.0
  0
LEADER
  5
367
330
1F
100
AcDbEntity
  8
Ｓ_１_１
  6
CONTINUOUS
 62
     2
100
AcDbLeader
  3
ISO-25
 76
     3
 10
965.2032619999982
 20
341.5123141490894
 30
0.0
 10
1015.65372940156
 20
428.89508695419
 30
0.0
 10
1115.4
 20
428.89508695419
 30
0.0
1001
ACAD
1000
DSTYLE
1002
{
1070
     5
1000
EX_NORM
1070
    41
1040
9.0
1070
   341
1005
78
1002
}
  0
LINE
  5
368
330
1F
100
AcDbEntity
  8
Ｓ_１_１
  6
EXLTYPE2
 62
     1
100
AcDbLine
 10
960.0
 20
109.2
 30
0.0
 11
960.0
 21
412.2
 31
0.0
  0
LINE
  5
369
330
1F
100
AcDbEntity
  8
Ｓ_１_１
  6
EXLTYPE2
 62
     1
100
AcDbLine
 10
710.602945782106
 20
220.0000010725724
 30
0.0
 11
805.1029457623094
 21
219.9999999387808
 31
0.0
  0
LINE
  5
36A
330
1F
100
AcDbEntity
  8
Ｓ_１_１
  6
CONTINUOUS
 62
     3
100
AcDbLine
 10
784.339747902701
 20
227.5203325758711
 30
0.0
 11
784.3397472542463
 21
227.5203329525468
 31
0.0
  0
LINE
  5
36B
330
1F
100
AcDbEntity
  8
Ｓ_１_１
  6
CONTINUOUS
 62
     3
100
AcDbLine
 10
785.6997477116499
 20
226.7303326259257
 30
0.0
 11
785.6997480309408
 21
226.7303326059167
 31
0.0
  0
LINE
  5
36C
330
1F
100
AcDbEntity
  8
Ｓ_１_１
  6
CONTINUOUS
 62
     3
100
AcDbLine
 10
785.6997480309408
 20
226.7303326059167
 30
0.0
 11
785.6997477116499
 21
226.7303327913871
 31
0.0
  0
LINE
  5
36D
330
1F
100
AcDbEntity
  8
Ｓ_１_１
  6
CONTINUOUS
 62
     3
100
AcDbLine
 10
778.1997480549809
 20
227.9003330539726
 30
0.0
 11
783.1421904490612
 21
227.5944488754753
 31
0.0
  0
LINE
  5
36E
330
1F
100
AcDbEntity
  8
Ｓ_１_１
  6
CONTINUOUS
 62
     3
100
AcDbLine
 10
776.9428865907249
 20
227.1800008550528
 30
0.0
 11
776.942886230476
 21
227.1800008327573
 31
0.0
  0
LINE
  5
36F
330
1F
100
AcDbEntity
  8
Ｓ_１_１
  6
CONTINUOUS
 62
     3
100
AcDbLine
 10
778.1997473145801
 20
227.2003328777889
 30
0.0
 11
778.1997476844974
 21
227.2003328546074
 31
0.0
  0
LINE
  5
370
330
1F
100
AcDbEntity
  8
Ｓ_１_１
  6
CONTINUOUS
 62
     3
100
AcDbLine
 10
796.0597480071212
 20
227.5203331040015
 30
0.0
 11
796.0597473829707
 21
227.5203330650198
 31
0.0
  0
LINE
  5
371
330
1F
100
AcDbEntity
  8
Ｓ_１_１
  6
CONTINUOUS
 62
     3
100
AcDbLine
 10
794.6997474269145
 20
226.7303327087418
 30
0.0
 11
794.6997474269145
 21
226.7303328742295
 31
0.0
  0
ARC
  5
372
330
1F
100
AcDbEntity
  8
Ｓ_１_１
  6
CONTINUOUS
 62
     3
100
AcDbCircle
 10
789.3302323203552
 20
225.9903329377515
 30
0.0
 40
5.366704
100
AcDbArc
 50
325.6260120000001
 51
325.626013992702
  0
LINE
  5
373
330
1F
100
AcDbEntity
  8
Ｓ_１_１
  6
CONTINUOUS
 62
     3
100
AcDbLine
 10
786.6397472900106
 20
229.0203330861551
 30
0.0
 11
786.6397484533346
 21
229.0203330861551
 31
0.0
  0
ARC
  5
374
330
1F
100
AcDbEntity
  8
Ｓ_１_１
  6
CONTINUOUS
 62
     3
100
AcDbCircle
 10
805.7596764440138
 20
235.0803328226767
 30
0.0
 40
20.057299
100
AcDbArc
 50
197.5858437816306
 51
197.5858450000001
  0
ARC
  5
375
330
1F
100
AcDbEntity
  8
Ｓ_１_１
  6
CONTINUOUS
 62
     3
100
AcDbCircle
 10
791.064730558121
 20
225.9903325494538
 30
0.0
 40
5.362963000000002
100
AcDbArc
 50
214.4013267442002
 51
214.4013310000001
  0
LINE
  5
376
330
1F
100
AcDbEntity
  8
Ｓ_１_１
  6
CONTINUOUS
 62
     3
100
AcDbLine
 10
786.6397481645924
 20
222.9603329479046
 30
0.0
 11
786.6397475577039
 21
222.9603329479046
 31
0.0
  0
ARC
  5
377
330
1F
100
AcDbEntity
  8
Ｓ_１_１
  6
CONTINUOUS
 62
     3
100
AcDbCircle
 10
772.0635511002284
 20
224.6953334006743
 30
0.0
 40
6.137798999999999
100
AcDbArc
 50
31.49851955125744
 51
34.36998299999999
  0
LINE
  5
378
330
1F
100
AcDbEntity
  8
Ｓ_１_１
  6
CONTINUOUS
 62
     3
100
AcDbLine
 10
776.3628861174651
 20
228.1603334537941
 30
0.0
 11
777.1297478417227
 21
228.1603335150596
 31
0.0
  0
LINE
  5
379
330
1F
100
AcDbEntity
  8
Ｓ_１_１
  6
CONTINUOUS
 62
     3
100
AcDbLine
 10
777.1297478932179
 20
221.23033307239
 30
0.0
 11
777.1297482478794
 21
221.2303336855898
 31
0.0
  0
ARC
  5
37A
330
1F
100
AcDbEntity
  8
Ｓ_１_１
  6
CONTINUOUS
 62
     3
100
AcDbCircle
 10
772.0635511002284
 20
224.6953334006743
 30
0.0
 40
6.137798999999999
100
AcDbArc
 50
325.6300170000002
 51
325.6300227858251
  0
LINE
  5
37B
330
1F
100
AcDbEntity
  8
Ｓ_１_１
  6
CONTINUOUS
 62
     3
100
AcDbLine
 10
776.942886423901
 20
227.8800002120846
 30
0.0
 11
784.442885747533
 21
228.3500007295322
 31
0.0
  0
LINE
  5
37C
330
1F
100
AcDbEntity
  8
Ｓ_１_１
  6
CONTINUOUS
 62
     3
100
AcDbLine
 10
772.2697475422956
 20
221.2303326841189
 30
0.0
 11
772.2697479386975
 21
221.2303319987508
 31
0.0
  0
LINE
  5
37D
330
1F
100
AcDbEntity
  8
Ｓ_１_１
  6
CONTINUOUS
 62
     3
100
AcDbLine
 10
749.4428858700765
 20
208.0000006065789
 30
0.0
 11
749.4428863383389
 21
232.0000008576293
 31
0.0
  0
LINE
  5
37E
330
1F
100
AcDbEntity
  8
Ｓ_１_１
  6
CONTINUOUS
 62
     3
100
AcDbLine
 10
733.1997483480484
 20
231.5803329864845
 30
0.0
 11
733.1997479839808
 21
231.5803333505522
 31
0.0
  0
ARC
  5
37F
330
1F
100
AcDbEntity
  8
Ｓ_１_１
  6
CONTINUOUS
 62
     3
100
AcDbCircle
 10
786.3800577410752
 20
220.0000004590917
 30
0.0
 40
21.93464800000001
100
AcDbArc
 50
166.8235980000001
 51
193.1764020000001
  0
ARC
  5
380
330
1F
100
AcDbEntity
  8
Ｓ_１_１
  6
CONTINUOUS
 62
     3
100
AcDbCircle
 10
755.0011820145176
 20
220.0000008058634
 30
0.0
 40
21.939061
100
AcDbArc
 50
346.826297
 51
13.17370300000003
  0
ARC
  5
381
330
1F
100
AcDbEntity
  8
Ｓ_１_１
  6
CONTINUOUS
 62
     3
100
AcDbCircle
 10
788.0733704442346
 20
210.9100008845232
 30
0.0
 40
5.366704
100
AcDbArc
 50
325.6260120000001
 51
34.37398800000003
  0
ARC
  5
382
330
1F
100
AcDbEntity
  8
Ｓ_１_１
  6
CONTINUOUS
 62
     3
100
AcDbCircle
 10
773.3784251319182
 20
220.0000003385942
 30
0.0
 40
20.061621
100
AcDbArc
 50
342.4180670000002
 51
17.58193299999999
  0
ARC
  5
383
330
1F
100
AcDbEntity
  8
Ｓ_１_１
  6
CONTINUOUS
 62
     3
100
AcDbCircle
 10
789.8078692555769
 20
210.910000453669
 30
0.0
 40
5.362963000000002
100
AcDbArc
 50
145.5986690000001
 51
214.4013310000001
  0
ARC
  5
384
330
1F
100
AcDbEntity
  8
Ｓ_１_１
  6
CONTINUOUS
 62
     3
100
AcDbCircle
 10
789.8078696674415
 20
229.0900005404197
 30
0.0
 40
5.362963000000002
100
AcDbArc
 50
145.5986690000001
 51
214.4013310000001
  0
ARC
  5
385
330
1F
100
AcDbEntity
  8
Ｓ_１_１
  6
CONTINUOUS
 62
     3
100
AcDbCircle
 10
804.502814160606
 20
220.0000005127723
 30
0.0
 40
20.057299
100
AcDbArc
 50
162.414155
 51
197.5858450000001
  0
ARC
  5
386
330
1F
100
AcDbEntity
  8
Ｓ_１_１
  6
CONTINUOUS
 62
     3
100
AcDbCircle
 10
788.0733700369472
 20
229.0900003976975
 30
0.0
 40
5.366704
100
AcDbArc
 50
325.6260120000001
 51
34.37398800000003
  0
LINE
  5
387
330
1F
100
AcDbEntity
  8
Ｓ_１_１
  6
CONTINUOUS
 62
     3
100
AcDbLine
 10
776.9428865108949
 20
208.0000010548622
 30
0.0
 11
776.9428861600056
 21
232.0000007323362
 31
0.0
  0
LINE
  5
388
330
1F
100
AcDbEntity
  8
Ｓ_１_１
  6
CONTINUOUS
 62
     3
100
AcDbLine
 10
776.362886369948
 20
225.0000008511875
 30
0.0
 11
776.3628861711262
 21
233.0000002794361
 31
0.0
  0
LINE
  5
389
330
1F
100
AcDbEntity
  8
Ｓ_１_１
  6
CONTINUOUS
 62
     3
100
AcDbLine
 10
765.0228863977563
 20
225.0000011291938
 30
0.0
 11
765.0228861989347
 21
233.0000005574424
 31
0.0
  0
LINE
  5
38A
330
1F
100
AcDbEntity
  8
Ｓ_１_１
  6
CONTINUOUS
 62
     3
100
AcDbLine
 10
776.362886366933
 20
207.0000006015057
 30
0.0
 11
776.3628861681112
 21
215.0000000297543
 31
0.0
  0
LINE
  5
38B
330
1F
100
AcDbEntity
  8
Ｓ_１_１
  6
CONTINUOUS
 62
     3
100
AcDbLine
 10
765.0228863947416
 20
207.0000008795121
 30
0.0
 11
765.0228861959199
 21
215.0000003077606
 31
0.0
  0
LINE
  5
38C
330
1F
100
AcDbEntity
  8
Ｓ_１_１
  6
CONTINUOUS
 62
     3
100
AcDbLine
 10
748.8628865452665
 20
207.0000007267988
 30
0.0
 11
748.8628863494596
 21
233.0000004047291
 31
0.0
  0
LINE
  5
38D
330
1F
100
AcDbEntity
  8
Ｓ_１_１
  6
CONTINUOUS
 62
     3
100
AcDbLine
 10
748.8628865452665
 20
207.0000007267988
 30
0.0
 11
749.4428858700765
 21
208.0000006065789
 31
0.0
  0
LINE
  5
38E
330
1F
100
AcDbEntity
  8
Ｓ_１_１
  6
CONTINUOUS
 62
     3
100
AcDbLine
 10
764.4428860549726
 20
232.0000001040859
 30
0.0
 11
765.0228861989347
 21
233.0000005574424
 31
0.0
  0
LINE
  5
38F
330
1F
100
AcDbEntity
  8
Ｓ_１_１
  6
CONTINUOUS
 62
     3
100
AcDbLine
 10
776.362886366933
 20
207.0000006015057
 30
0.0
 11
776.9428865108949
 21
208.0000010548622
 31
0.0
  0
LINE
  5
390
330
1F
100
AcDbEntity
  8
Ｓ_１_１
  6
CONTINUOUS
 62
     3
100
AcDbLine
 10
749.4428863383389
 20
232.0000008576293
 30
0.0
 11
748.8628863494596
 21
233.0000004047291
 31
0.0
  0
LINE
  5
391
330
1F
100
AcDbEntity
  8
Ｓ_１_１
  6
CONTINUOUS
 62
     3
100
AcDbLine
 10
765.0228863947416
 20
207.0000008795121
 30
0.0
 11
764.442886405862
 21
208.0000004266119
 31
0.0
  0
LINE
  5
392
330
1F
100
AcDbEntity
  8
Ｓ_１_１
  6
CONTINUOUS
 62
     3
100
AcDbLine
 10
776.9428861600056
 20
232.0000007323362
 30
0.0
 11
776.3628861711262
 21
233.0000002794361
 31
0.0
  0
LINE
  5
393
330
1F
100
AcDbEntity
  8
Ｓ_１_１
  6
CONTINUOUS
 62
     3
100
AcDbLine
 10
765.0228863977563
 20
225.0000011291938
 30
0.0
 11
776.362886369948
 21
225.0000008511875
 31
0.0
  0
LINE
  5
394
330
1F
100
AcDbEntity
  8
Ｓ_１_１
  6
CONTINUOUS
 62
     3
100
AcDbLine
 10
765.0228861959199
 20
215.0000003077606
 30
0.0
 11
776.3628861681112
 21
215.0000000297543
 31
0.0
  0
LINE
  5
395
330
1F
100
AcDbEntity
  8
Ｓ_１_１
  6
CONTINUOUS
 62
     3
100
AcDbLine
 10
741.4428862176862
 20
221.7500007281665
 30
0.0
 11
741.4428858275271
 21
236.0000009052956
 31
0.0
  0
LINE
  5
396
330
1F
100
AcDbEntity
  8
Ｓ_１_１
  6
CONTINUOUS
 62
     3
100
AcDbLine
 10
741.942886074406
 20
221.7500008941838
 30
0.0
 11
741.942886423841
 21
235.500000395441
 31
0.0
  0
LINE
  5
397
330
1F
100
AcDbEntity
  8
Ｓ_１_１
  6
CONTINUOUS
 62
     3
100
AcDbLine
 10
738.4428860276075
 20
218.2500004070217
 30
0.0
 11
738.4428865037901
 21
221.7500005512143
 31
0.0
  0
LINE
  5
398
330
1F
100
AcDbEntity
  8
Ｓ_１_１
  6
CONTINUOUS
 62
     3
100
AcDbLine
 10
738.4428860276075
 20
218.2500004070217
 30
0.0
 11
741.9428855982235
 21
218.2500007499913
 31
0.0
  0
LINE
  5
399
330
1F
100
AcDbEntity
  8
Ｓ_１_１
  6
CONTINUOUS
 62
     3
100
AcDbLine
 10
738.4428865037901
 20
221.7500005512143
 30
0.0
 11
741.942886074406
 21
221.7500008941838
 31
0.0
  0
LINE
  5
39A
330
1F
100
AcDbEntity
  8
Ｓ_１_１
  6
CONTINUOUS
 62
     3
100
AcDbLine
 10
744.4428864986935
 20
204.5000010140931
 30
0.0
 11
744.9428861893962
 21
205.0000010368304
 31
0.0
  0
LINE
  5
39B
330
1F
100
AcDbEntity
  8
Ｓ_１_１
  6
CONTINUOUS
 62
     3
100
AcDbLine
 10
743.4428867852537
 20
204.5000006820582
 30
0.0
 11
742.9428867625163
 21
205.0000003727609
 31
0.0
  0
LINE
  5
39C
330
1F
100
AcDbEntity
  8
Ｓ_１_１
  6
CONTINUOUS
 62
     3
100
AcDbLine
 10
744.9428863037544
 20
235.0000007156732
 30
0.0
 11
744.4428862810171
 21
235.5000004063759
 31
0.0
  0
LINE
  5
39D
330
1F
100
AcDbEntity
  8
Ｓ_１_１
  6
CONTINUOUS
 62
     3
100
AcDbLine
 10
742.9428863032981
 20
235.0000008707558
 30
0.0
 11
743.4428859940008
 21
235.5000008934932
 31
0.0
  0
LINE
  5
39E
330
1F
100
AcDbEntity
  8
Ｓ_１_１
  6
CONTINUOUS
 62
     3
100
AcDbLine
 10
744.9428861486717
 20
233.0000007152171
 30
0.0
 11
744.9428863037544
 21
235.0000007156732
 31
0.0
  0
LINE
  5
39F
330
1F
100
AcDbEntity
  8
Ｓ_１_１
  6
CONTINUOUS
 62
     3
100
AcDbLine
 10
742.9428861482156
 20
233.0000008702996
 30
0.0
 11
742.9428863032981
 21
235.0000008707558
 31
0.0
  0
LINE
  5
3A0
330
1F
100
AcDbEntity
  8
Ｓ_１_１
  6
CONTINUOUS
 62
     3
100
AcDbLine
 10
742.9428867625163
 20
205.0000003727609
 30
0.0
 11
742.9428863440223
 21
207.0000011923693
 31
0.0
  0
LINE
  5
3A1
330
1F
100
AcDbEntity
  8
Ｓ_１_１
  6
CONTINUOUS
 62
     3
100
AcDbLine
 10
744.9428861893962
 20
205.0000010368304
 30
0.0
 11
744.9428863444787
 21
207.0000010372867
 31
0.0
  0
LINE
  5
3A2
330
1F
100
AcDbEntity
  8
Ｓ_１_１
  6
CONTINUOUS
 62
     3
100
AcDbLine
 10
743.4428867852537
 20
204.5000006820582
 30
0.0
 11
744.4428864986935
 21
204.5000010140931
 31
0.0
  0
LINE
  5
3A3
330
1F
100
AcDbEntity
  8
Ｓ_１_１
  6
CONTINUOUS
 62
     3
100
AcDbLine
 10
743.4428859940008
 20
235.5000008934932
 30
0.0
 11
744.4428862810171
 21
235.5000004063759
 31
0.0
  0
LINE
  5
3A4
330
1F
100
AcDbEntity
  8
Ｓ_１_１
  6
CONTINUOUS
 62
     3
100
AcDbLine
 10
717.9428863109085
 20
204.0000002219724
 30
0.0
 11
717.942886006773
 21
236.0000007204236
 31
0.0
  0
LINE
  5
3A5
330
1F
100
AcDbEntity
  8
Ｓ_１_１
  6
CONTINUOUS
 62
     3
100
AcDbLine
 10
725.4428867015893
 20
204.0000008283532
 30
0.0
 11
725.4428861518779
 21
235.9999999340759
 31
0.0
  0
LINE
  5
3A6
330
1F
100
AcDbEntity
  8
Ｓ_１_１
  6
CONTINUOUS
 62
     3
100
AcDbLine
 10
741.4428861316628
 20
204.0000004068446
 30
0.0
 11
741.4428857415037
 21
218.2500005839739
 31
0.0
  0
LINE
  5
3A7
330
1F
100
AcDbEntity
  8
Ｓ_１_１
  6
CONTINUOUS
 62
     3
100
AcDbLine
 10
734.4428861127185
 20
236.0000010385087
 30
0.0
 11
734.4428864168542
 21
204.0000005400576
 31
0.0
  0
LINE
  5
3A8
330
1F
100
AcDbEntity
  8
Ｓ_１_１
  6
CONTINUOUS
 62
     3
100
AcDbLine
 10
741.942886423841
 20
235.500000395441
 30
0.0
 11
741.4428858275271
 21
236.0000009052956
 31
0.0
  0
LINE
  5
3A9
330
1F
100
AcDbEntity
  8
Ｓ_１_１
  6
CONTINUOUS
 62
     3
100
AcDbLine
 10
741.4428861316628
 20
204.0000004068446
 30
0.0
 11
741.9428858223653
 21
204.5000004295819
 31
0.0
  0
LINE
  5
3AA
330
1F
100
AcDbEntity
  8
Ｓ_１_１
  6
CONTINUOUS
 62
     3
100
AcDbLine
 10
734.4428861127185
 20
236.0000010385087
 30
0.0
 11
741.4428858275271
 21
236.0000009052956
 31
0.0
  0
LINE
  5
3AB
330
1F
100
AcDbEntity
  8
Ｓ_１_１
  6
CONTINUOUS
 62
     3
100
AcDbLine
 10
734.4428864168542
 20
204.0000005400576
 30
0.0
 11
741.4428861316628
 21
204.0000004068446
 31
0.0
  0
LINE
  5
3AC
330
1F
100
AcDbEntity
  8
Ｓ_１_１
  6
CONTINUOUS
 62
     3
100
AcDbLine
 10
725.4428867015893
 20
204.0000008283532
 30
0.0
 11
725.9428863922917
 21
204.5000008510905
 31
0.0
  0
LINE
  5
3AD
330
1F
100
AcDbEntity
  8
Ｓ_１_１
  6
CONTINUOUS
 62
     3
100
AcDbLine
 10
733.9428864220158
 20
235.5000010157714
 30
0.0
 11
734.4428861127185
 21
236.0000010385087
 31
0.0
  0
LINE
  5
3AE
330
1F
100
AcDbEntity
  8
Ｓ_１_１
  6
CONTINUOUS
 62
     3
100
AcDbLine
 10
725.9428861746153
 20
235.5000002433733
 30
0.0
 11
725.4428861518779
 21
235.9999999340759
 31
0.0
  0
LINE
  5
3AF
330
1F
100
AcDbEntity
  8
Ｓ_１_１
  6
CONTINUOUS
 62
     3
100
AcDbLine
 10
734.4428864168542
 20
204.0000005400576
 30
0.0
 11
733.9428863941168
 21
204.5000002307602
 31
0.0
  0
LINE
  5
3B0
330
1F
100
AcDbEntity
  8
Ｓ_１_１
  6
CONTINUOUS
 62
     3
100
AcDbLine
 10
725.9428863922917
 20
204.5000008510905
 30
0.0
 11
725.9428861746153
 21
235.5000002433733
 31
0.0
  0
LINE
  5
3B1
330
1F
100
AcDbEntity
  8
Ｓ_１_１
  6
CONTINUOUS
 62
     3
100
AcDbLine
 10
733.9428863941168
 20
204.5000002307602
 30
0.0
 11
733.9428864220158
 21
235.5000010157714
 31
0.0
  0
LINE
  5
3B2
330
1F
100
AcDbEntity
  8
Ｓ_１_１
  6
CONTINUOUS
 62
     3
100
AcDbLine
 10
725.9428861746153
 20
235.5000002433733
 30
0.0
 11
733.9428864220158
 21
235.5000010157714
 31
0.0
  0
LINE
  5
3B3
330
1F
100
AcDbEntity
  8
Ｓ_１_１
  6
CONTINUOUS
 62
     3
100
AcDbLine
 10
725.9428863922917
 20
204.5000008510905
 30
0.0
 11
733.9428863941168
 21
204.5000002307602
 31
0.0
  0
LINE
  5
3B4
330
1F
100
AcDbEntity
  8
Ｓ_１_１
  6
CONTINUOUS
 62
     3
100
AcDbLine
 10
714.9428864698291
 20
233.0000008295752
 30
0.0
 11
717.942886006773
 21
236.0000007204236
 31
0.0
  0
LINE
  5
3B5
330
1F
100
AcDbEntity
  8
Ｓ_１_１
  6
CONTINUOUS
 62
     3
100
AcDbLine
 10
714.9428858464839
 20
207.0000005780685
 30
0.0
 11
717.9428863109085
 21
204.0000002219724
 31
0.0
  0
LINE
  5
3B6
330
1F
100
AcDbEntity
  8
Ｓ_１_１
  6
CONTINUOUS
 62
     3
100
AcDbLine
 10
749.4428858700765
 20
208.0000006065789
 30
0.0
 11
764.442886405862
 21
208.0000004266119
 31
0.0
  0
LINE
  5
3B7
330
1F
100
AcDbEntity
  8
Ｓ_１_１
  6
CONTINUOUS
 62
     3
100
AcDbLine
 10
749.4428863383389
 20
232.0000008576293
 30
0.0
 11
764.4428860549726
 21
232.0000001040859
 31
0.0
  0
LINE
  5
3B8
330
1F
100
AcDbEntity
  8
Ｓ_１_１
  6
CONTINUOUS
 62
     3
100
AcDbLine
 10
714.9428858464839
 20
207.0000005780685
 30
0.0
 11
714.9428864698291
 21
233.0000008295752
 31
0.0
  0
LINE
  5
3B9
330
1F
100
AcDbEntity
  8
Ｓ_１_１
  6
CONTINUOUS
 62
     3
100
AcDbLine
 10
717.942886006773
 20
236.0000007204236
 30
0.0
 11
725.4428861518779
 21
235.9999999340759
 31
0.0
  0
LINE
  5
3BA
330
1F
100
AcDbEntity
  8
Ｓ_１_１
  6
CONTINUOUS
 62
     3
100
AcDbLine
 10
717.9428863109085
 20
204.0000002219724
 30
0.0
 11
725.4428867015893
 21
204.0000008283532
 31
0.0
  0
LINE
  5
3BB
330
1F
100
AcDbEntity
  8
Ｓ_１_１
  6
CONTINUOUS
 62
     3
100
AcDbLine
 10
765.0228861989347
 20
233.0000005574424
 30
0.0
 11
776.3628861711262
 21
233.0000002794361
 31
0.0
  0
LINE
  5
3BC
330
1F
100
AcDbEntity
  8
Ｓ_１_１
  6
CONTINUOUS
 62
     3
100
AcDbLine
 10
765.0228863947416
 20
207.0000008795121
 30
0.0
 11
776.362886366933
 21
207.0000006015057
 31
0.0
  0
LINE
  5
3BD
330
1F
100
AcDbEntity
  8
Ｓ_１_１
  6
CONTINUOUS
 62
     3
100
AcDbLine
 10
714.4428861259917
 20
232.0000003765416
 30
0.0
 11
714.9428859827117
 21
232.0000005425589
 31
0.0
  0
LINE
  5
3BE
330
1F
100
AcDbEntity
  8
Ｓ_１_１
  6
CONTINUOUS
 62
     3
100
AcDbLine
 10
714.4428864768813
 20
208.0000006990674
 30
0.0
 11
714.9428863336011
 21
208.0000008650848
 31
0.0
  0
LINE
  5
3BF
330
1F
100
AcDbEntity
  8
Ｓ_１_１
  6
CONTINUOUS
 62
     3
100
AcDbLine
 10
741.9428866305825
 20
207.0000008603346
 30
0.0
 11
748.8628865452665
 21
207.0000007267988
 31
0.0
  0
LINE
  5
3C0
330
1F
100
AcDbEntity
  8
Ｓ_１_１
  6
CONTINUOUS
 62
     3
100
AcDbLine
 10
741.9428864347756
 20
233.0000005382649
 30
0.0
 11
748.8628863494596
 21
233.0000004047291
 31
0.0
  0
LINE
  5
3C1
330
1F
100
AcDbEntity
  8
Ｓ_１_１
  6
CONTINUOUS
 62
     3
100
AcDbLine
 10
741.9428858223653
 20
204.5000004295819
 30
0.0
 11
741.9428855982235
 21
218.2500007499913
 31
0.0
  0
LINE
  5
3C2
330
1F
100
AcDbEntity
  8
Ｓ_１_１
  6
CONTINUOUS
 62
     3
100
AcDbLine
 10
764.442886405862
 20
208.0000004266119
 30
0.0
 11
764.4428860549726
 21
232.0000001040859
 31
0.0
  0
LINE
  5
3C3
330
1F
100
AcDbEntity
  8
Ｓ_１_１
  6
CONTINUOUS
 62
     3
100
AcDbLine
 10
714.4428864768813
 20
208.0000006990674
 30
0.0
 11
714.4428861259917
 21
232.0000003765416
 31
0.0
  0
LINE
  5
3C4
330
1F
100
AcDbEntity
  8
Ｓ_１_１
  6
CONTINUOUS
 62
     3
100
AcDbLine
 10
776.9428860801756
 20
212.8200009321456
 30
0.0
 11
783.0828856105077
 21
212.4400007205059
 31
0.0
  0
LINE
  5
3C5
330
1F
100
AcDbEntity
  8
Ｓ_１_１
  6
CONTINUOUS
 62
     3
100
AcDbLine
 10
784.4428866400012
 20
211.6500003041228
 30
0.0
 11
783.0828856105077
 21
212.4400007205059
 31
0.0
  0
LINE
  5
3C6
330
1F
100
AcDbEntity
  8
Ｓ_１_１
  6
CONTINUOUS
 62
     3
100
AcDbLine
 10
776.9428860014241
 20
212.1200001823854
 30
0.0
 11
784.4428866400012
 21
211.6500003041228
 31
0.0
  0
LINE
  5
3C7
330
1F
100
AcDbEntity
  8
Ｓ_１_１
  6
CONTINUOUS
 62
     3
100
AcDbLine
 10
783.0828863635669
 20
227.5600001373266
 30
0.0
 11
784.442885747533
 21
228.3500007295322
 31
0.0
  0
LINE
  5
3C8
330
1F
100
AcDbEntity
  8
Ｓ_１_１
  6
CONTINUOUS
 62
     3
100
AcDbLine
 10
783.0828863509081
 20
211.740000544322
 30
0.0
 11
783.0828864423185
 21
228.2600008870869
 31
0.0
  0
LINE
  5
3C9
330
1F
100
AcDbEntity
  8
Ｓ_１_１
  6
CONTINUOUS
 62
     3
100
AcDbLine
 10
794.802885918715
 20
227.5600008440057
 30
0.0
 11
793.4428862819499
 21
228.350001014813
 31
0.0
  0
LINE
  5
3CA
330
1F
100
AcDbEntity
  8
Ｓ_１_１
  6
CONTINUOUS
 62
     3
100
AcDbLine
 10
800.0000000952648
 20
227.9396229555086
 30
0.0
 11
793.4428862819499
 21
228.350001014813
 31
0.0
  0
LINE
  5
3CB
330
1F
100
AcDbEntity
  8
Ｓ_１_１
  6
CONTINUOUS
 62
     3
100
AcDbLine
 10
799.9666614238023
 20
227.2374941133969
 30
0.0
 11
794.802885918715
 21
227.5600008440057
 31
0.0
  0
LINE
  5
3CC
330
1F
100
AcDbEntity
  8
Ｓ_１_１
  6
CONTINUOUS
 62
     3
100
AcDbLine
 10
793.4428857816897
 20
211.6500008349792
 30
0.0
 11
794.802885739232
 21
212.4400006080328
 31
0.0
  0
LINE
  5
3CD
330
1F
100
AcDbEntity
  8
Ｓ_１_１
  6
CONTINUOUS
 62
     3
100
AcDbLine
 10
794.8028864796327
 20
211.7400004318491
 30
0.0
 11
794.8028865710428
 21
228.2600007746139
 31
0.0
  0
LINE
  5
3CE
330
1F
100
AcDbEntity
  8
Ｓ_１_１
  6
CONTINUOUS
 62
     3
100
AcDbLine
 10
799.9999998958697
 20
212.0603778201826
 30
0.0
 11
793.4428857816897
 21
211.6500008349792
 31
0.0
  0
LINE
  5
3CF
330
1F
100
AcDbEntity
  8
Ｓ_１_１
  6
CONTINUOUS
 62
     3
100
AcDbLine
 10
799.9666616901685
 20
212.7625075344274
 30
0.0
 11
794.802885739232
 21
212.4400006080328
 31
0.0
  0
LINE
  5
3D0
330
1F
100
AcDbEntity
  8
Ｓ_１_１
  6
CONTINUOUS
 62
     3
100
AcDbLine
 10
793.4428861187885
 20
209.5000009431072
 30
0.0
 11
792.5028862216144
 21
207.8800003578151
 31
0.0
  0
LINE
  5
3D1
330
1F
100
AcDbEntity
  8
Ｓ_１_１
  6
CONTINUOUS
 62
     3
100
AcDbLine
 10
784.4428864035235
 20
209.5000012314028
 30
0.0
 11
785.3828868066187
 21
207.880000490544
 31
0.0
  0
LINE
  5
3D2
330
1F
100
AcDbEntity
  8
Ｓ_１_１
  6
CONTINUOUS
 62
     3
100
AcDbLine
 10
793.442885944851
 20
230.5000009066852
 30
0.0
 11
792.5028861153324
 21
232.1200008283919
 31
0.0
  0
LINE
  5
3D3
330
1F
100
AcDbEntity
  8
Ｓ_１_１
  6
CONTINUOUS
 62
     3
100
AcDbLine
 10
784.4428862295862
 20
230.5000011949807
 30
0.0
 11
785.3828858811845
 21
232.1200003875444
 31
0.0
  0
LINE
  5
3D4
330
1F
100
AcDbEntity
  8
Ｓ_１_１
  6
CONTINUOUS
 62
     3
100
AcDbLine
 10
785.3828858811845
 20
232.1200003875444
 30
0.0
 11
792.5028861153324
 21
232.1200008283919
 31
0.0
  0
LINE
  5
3D5
330
1F
100
AcDbEntity
  8
Ｓ_１_１
  6
CONTINUOUS
 62
     3
100
AcDbLine
 10
785.3828868066187
 20
207.880000490544
 30
0.0
 11
792.5028862216144
 21
207.8800003578151
 31
0.0
  0
LINE
  5
3D6
330
1F
100
AcDbEntity
  8
Ｓ_１_１
  6
CONTINUOUS
 62
     3
100
AcDbLine
 10
785.382886288472
 20
213.9400008743701
 30
0.0
 11
792.5028857034677
 21
213.9400007416411
 31
0.0
  0
LINE
  5
3D7
330
1F
100
AcDbEntity
  8
Ｓ_１_１
  6
CONTINUOUS
 62
     3
100
AcDbLine
 10
785.382885825755
 20
226.0600008228703
 30
0.0
 11
792.5028866334791
 21
226.0600004445658
 31
0.0
  0
LINE
  5
3D8
330
1F
100
AcDbEntity
  8
Ｓ_１_１
  6
CONTINUOUS
 62
     3
100
AcDbLine
 10
784.4428864035235
 20
209.5000012314028
 30
0.0
 11
784.4428862295862
 21
230.5000011949807
 31
0.0
  0
LINE
  5
3D9
330
1F
100
AcDbEntity
  8
Ｓ_１_１
  6
CONTINUOUS
 62
     3
100
AcDbLine
 10
793.4428861187885
 20
209.5000009431072
 30
0.0
 11
793.442885944851
 21
230.5000009066852
 31
0.0
  0
DIMENSION
  5
3DA
330
1F
100
AcDbEntity
  8
Ｓ_１_１
  6
CONTINUOUS
 62
     2
100
AcDbDimension
  2
*D29
 10
680.0
 20
120.0
 30
0.0
 11
671.75
 21
170.0000005362849
 31
0.0
 70
   160
  3
ISO-25
100
AcDbAlignedDimension
 13
710.60294578211
 23
220.00000107257
 33
0.0
 14
802.9999999999999
 24
120.0
 34
0.0
 50
90.0
100
AcDbRotatedDimension
1001
ACAD
1000
DSTYLE
1002
{
1070
   270
1070
     2
1070
     6
1000
EX_NORM
1070
     7
1000
EX_NORM
1070
    41
1040
9.0
1070
    42
1040
4.5
1070
    44
1040
3.0
1070
    73
1070
     0
1070
    74
1070
     0
1070
    75
1070
     0
1070
    76
1070
     1
1070
    77
1070
     1
1070
    78
1070
     8
1070
   140
1040
10.38871247113164
1070
   147
1040
0.0
1070
   173
1070
     1
1070
   176
1070
     2
1070
   177
1070
     2
1070
   178
1070
     2
1070
   271
1070
     2
1070
   277
1070
     2
1070
   279
1070
     2
1070
   280
1070
     0
1070
   287
1070
     5
1070
   340
1005
121
1002
}
  0
LEADER
  5
3E6
330
1F
100
AcDbEntity
  8
Ｓ_１_１
  6
CONTINUOUS
 62
     2
100
AcDbLeader
  3
ISO-25
 76
     2
 10
944.1338162272183
 20
278.3200469069867
 30
0.0
 10
975.2444342963644
 20
240.4370493942208
 30
0.0
1001
ACAD
1000
DSTYLE
1002
{
1070
     5
1000
EX_NORM
1070
    41
1040
9.0
1070
   341
1005
78
1002
}
  0
TEXT
  5
3E7
330
1F
100
AcDbEntity
  8
Ｓ_１_１
  6
CONTINUOUS
 62
     2
100
AcDbText
 10
962.9674225620515
 20
260.741451807437
 30
0.0
 40
10.38871247113164
  1
R
 50
309.3938340485362
 41
0.9992307692307626
  7
EXCADTTF1
 72
     5
 11
967.2512921807025
 21
255.5250391425496
 31
0.0
100
AcDbText
  0
TEXT
  5
3E8
330
1F
100
AcDbEntity
  8
Ｓ_１_１
  6
CONTINUOUS
 62
     2
100
AcDbText
 10
967.2512921807025
 20
255.5250391425496
 30
0.0
 40
10.38871247113164
  1
25
 50
309.3938340485364
 41
0.9992307692307696
  7
EXCADTTF1
 72
     5
 11
975.8190314180047
 21
245.0922138127747
 31
0.0
100
AcDbText
  0
TEXT
  5
3E9
330
1F
100
AcDbEntity
  8
Ｓ_１_１
  6
CONTINUOUS
 62
     4
100
AcDbText
 10
580.6799999999997
 20
370.3401834105899
 30
0.0
 40
10.38871247113164
  1
6-22キリ深25
 41
0.9992307692307689
  7
EXCADTTF1
 72
     5
 11
661.6799999999997
 21
370.3401834105899
 31
0.0
100
AcDbText
  0
TEXT
  5
3EA
330
1F
100
AcDbEntity
  8
Ｓ_１_１
  6
CONTINUOUS
 62
     4
100
AcDbText
 10
1027.19999999997
 20
432.29352445419
 30
0.0
 40
10.38871247113164
  1
2-M16ネジ深25
 41
0.999230769230769
  7
EXCADTTF1
 72
     5
 11
1114.94999999997
 21
432.29352445419
 31
0.0
100
AcDbText
  0
DIMENSION
  5
3EB
330
1F
100
AcDbEntity
  8
Ｓ_１_１
  6
CONTINUOUS
 62
     2
100
AcDbDimension
  2
*D30
 10
584.4092686792299
 20
546.7764557140572
 30
0.0
 11
585.8114978761505
 21
558.5584793606497
 31
0.0
 70
   165
  3
ISO-25
100
AcDb3PointAngularDimension
 13
551.6068170308663
 23
563.4830255419367
 33
0.0
 14
610.2379604200838
 24
569.7620395799114
 34
0.0
 15
400.0000033572873
 25
779.9999966427081
 35
0.0
1001
ACAD
1000
DSTYLE
1002
{
1070
   270
1070
     2
1070
     6
1000
EX_NORM
1070
     7
1000
EX_NORM
1070
    41
1040
9.0
1070
    42
1040
4.5
1070
    73
1070
     0
1070
    74
1070
     0
1070
    75
1070
     0
1070
    76
1070
     1
1070
    77
1070
     1
1070
    78
1070
     8
1070
    79
1070
     2
1070
   140
1040
10.38871247113164
1070
   147
1040
0.0
1070
   173
1070
     1
1070
   176
1070
     2
1070
   177
1070
     2
1070
   178
1070
     2
1070
   179
1070
     2
1070
   271
1070
     2
1070
   277
1070
     2
1070
   279
1070
     2
1070
   280
1070
     0
1070
   287
1070
     5
1070
   340
1005
121
1002
}
  0
DIMENSION
  5
3F8
330
1F
100
AcDbEntity
  8
Ｓ_１_１
  6
CONTINUOUS
 62
     2
100
AcDbDimension
  2
*D31
 10
622.1065212460489
 20
582.341979102601
 30
0.0
 11
621.4415203687192
 21
594.188501762017
 31
0.0
 70
   165
  3
ISO-25
100
AcDb3PointAngularDimension
 13
585.6077193598078
 23
594.3922806401879
 33
0.0
 14
616.5592771790974
 24
628.3635613933191
 34
0.0
 15
399.9999986618602
 25
780.0000013381351
 35
0.0
1001
ACAD
1000
DSTYLE
1002
{
1070
   270
1070
     2
1070
     6
1000
EX_NORM
1070
     7
1000
EX_NORM
1070
    41
1040
9.0
1070
    42
1040
4.500000000000114
1070
    44
1040
3.000000000000024
1070
    73
1070
     0
1070
    74
1070
     0
1070
    75
1070
     0
1070
    76
1070
     0
1070
    77
1070
     1
1070
    78
1070
     8
1070
    79
1070
     2
1070
   140
1040
10.38871247113164
1070
   147
1040
0.0
1070
   173
1070
     1
1070
   176
1070
     2
1070
   177
1070
     2
1070
   178
1070
     2
1070
   179
1070
     2
1070
   271
1070
     2
1070
   277
1070
     2
1070
   279
1070
     2
1070
   280
1070
     0
1070
   287
1070
     5
1070
   340
1005
121
1002
}
  0
TEXT
  5
406
330
1F
100
AcDbEntity
  8
Ｓ_１_１
  6
CONTINUOUS
 62
     4
100
AcDbText
 10
580.7403697843797
 20
392.5094411949699
 30
0.0
 40
10.38871247113164
  1
安全ナット
 41
0.9992307692307689
  7
EXCADTTF1
 72
     5
 11
648.2403697843797
 21
392.5094411949699
 31
0.0
100
AcDbText
  0
LEADER
  5
407
330
1F
100
AcDbEntity
  8
Ｓ_１_１
  6
CONTINUOUS
 62
     2
100
AcDbLeader
  3
ISO-25
 76
     3
 10
539.1596302156199
 20
337.8307422156199
 30
0.0
 10
568.2706339105898
 20
366.9417459105899
 30
0.0
 10
661.8
 20
366.9417459105899
 30
0.0
1001
ACAD
1000
DSTYLE
1002
{
1070
     5
1000
EX_NORM
1070
    41
1040
9.0
1070
   341
1005
78
1002
}
  0
LEADER
  5
408
330
1F
100
AcDbEntity
  8
Ｓ_１_１
  6
CONTINUOUS
 62
     2
100
AcDbLeader
  3
ISO-25
 76
     3
 10
539.2199999999999
 20
359.9999999999999
 30
0.0
 10
568.3310036949698
 20
389.11100369497
 30
0.0
 10
647.4
 20
389.11100369497
 30
0.0
1001
ACAD
1000
DSTYLE
1002
{
1070
     5
1000
EX_NORM
1070
    41
1040
9.0
1070
   341
1005
78
1002
}
  0
LINE
  5
409
330
1F
100
AcDbEntity
  8
Ｓ_１_１
  6
CONTINUOUS
 62
     3
100
AcDbLine
 10
522.0
 20
399.999999999996
 30
0.0
 11
277.9999999999999
 21
399.999999999996
 31
0.0
  0
LINE
  5
40A
330
1F
100
AcDbEntity
  8
Ｓ_１_１
  6
CONTINUOUS
 62
     3
100
AcDbLine
 10
274.9999999999999
 20
396.999999999996
 30
0.0
 11
524.9999999999998
 21
396.999999999996
 31
0.0
  0
LINE
  5
40B
330
1F
100
AcDbEntity
  8
Ｓ_１_１
  6
CONTINUOUS
 62
     3
100
AcDbLine
 10
274.9999999999999
 20
372.999999999996
 30
0.0
 11
524.9999999999998
 21
372.9999999999961
 31
0.0
  0
LINE
  5
40C
330
1F
100
AcDbEntity
  8
Ｓ_１_１
  6
CONTINUOUS
 62
     3
100
AcDbLine
 10
308.1523000000001
 20
367.999999999996
 30
0.0
 11
491.84770002747
 21
367.9999999999961
 31
0.0
  0
LINE
  5
40D
330
1F
100
AcDbEntity
  8
Ｓ_１_１
  6
CONTINUOUS
 62
     3
100
AcDbLine
 10
552.000011
 20
359.999999999996
 30
0.0
 11
248.0000109999999
 21
359.999999999996
 31
0.0
  0
LINE
  5
40E
330
1F
100
AcDbEntity
  8
Ｓ_１_１
  6
CONTINUOUS
 62
     3
100
AcDbLine
 10
497.000011
 20
362.999999999996
 30
0.0
 11
303.000011
 21
362.999999999996
 31
0.0
  0
LINE
  5
40F
330
1F
100
AcDbEntity
  8
Ｓ_１_１
  6
CONTINUOUS
 62
     3
100
AcDbLine
 10
557.000011
 20
304.999999999996
 30
0.0
 11
243.000011
 21
304.999999999996
 31
0.0
  0
LINE
  5
410
330
1F
100
AcDbEntity
  8
Ｓ_１_１
  6
CONTINUOUS
 62
     3
100
AcDbLine
 10
240.000011
 20
301.999999999996
 30
0.0
 11
560.0000109999999
 21
301.9999999999961
 31
0.0
  0
LINE
  5
411
330
1F
100
AcDbEntity
  8
Ｓ_１_１
  6
CONTINUOUS
 62
     3
100
AcDbLine
 10
240.000011
 20
122.999999999996
 30
0.0
 11
560.000011
 21
122.9999999999961
 31
0.0
  0
LINE
  5
412
330
1F
100
AcDbEntity
  8
Ｓ_１_１
  6
CONTINUOUS
 62
     3
100
AcDbLine
 10
557.000011
 20
119.999999999996
 30
0.0
 11
243.000011
 21
119.999999999996
 31
0.0
  0
LINE
  5
413
330
1F
100
AcDbEntity
  8
Ｓ_１_１
  6
CONTINUOUS
 62
     3
100
AcDbLine
 10
245.000011
 20
357.0
 30
0.0
 11
555.0000109999999
 21
357.0000000000001
 31
0.0
  0
LINE
  5
414
330
1F
100
AcDbEntity
  8
Ｓ_１_１
  6
CONTINUOUS
 62
     3
100
AcDbLine
 10
245.000011
 20
308.0
 30
0.0
 11
555.0000109999999
 21
308.0000000000001
 31
0.0
  0
LINE
  5
415
330
1F
100
AcDbEntity
  8
Ｓ_１_１
  6
CONTINUOUS
 62
     3
100
AcDbLine
 10
805.0
 20
357.0
 30
0.0
 11
1115.0
 21
357.0000000000001
 31
0.0
  0
LINE
  5
416
330
1F
100
AcDbEntity
  8
Ｓ_１_１
  6
CONTINUOUS
 62
     3
100
AcDbLine
 10
805.0
 20
308.0
 30
0.0
 11
1115.0
 21
308.0000000000001
 31
0.0
  0
LINE
  5
417
330
1F
100
AcDbEntity
  8
Ｓ_１_１
  6
CONTINUOUS
 62
     3
100
AcDbLine
 10
838.0
 20
399.999999999996
 30
0.0
 11
1082.0
 21
399.999999999996
 31
0.0
  0
LINE
  5
418
330
1F
100
AcDbEntity
  8
Ｓ_１_１
  6
CONTINUOUS
 62
     3
100
AcDbLine
 10
1085.0
 20
396.999999999996
 30
0.0
 11
835.0
 21
396.999999999996
 31
0.0
  0
LINE
  5
419
330
1F
100
AcDbEntity
  8
Ｓ_１_１
  6
CONTINUOUS
 62
     3
100
AcDbLine
 10
1085.0
 20
372.999999999996
 30
0.0
 11
835.0
 21
372.999999999996
 31
0.0
  0
LINE
  5
41A
330
1F
100
AcDbEntity
  8
Ｓ_１_１
  6
CONTINUOUS
 62
     3
100
AcDbLine
 10
1082.0
 20
369.999999999996
 30
0.0
 11
837.9999999999998
 21
369.999999999996
 31
0.0
  0
LINE
  5
41B
330
1F
100
AcDbEntity
  8
Ｓ_１_１
  6
CONTINUOUS
 62
     3
100
AcDbLine
 10
1051.8477
 20
367.999999999996
 30
0.0
 11
868.1522999743597
 21
367.999999999996
 31
0.0
  0
LINE
  5
41C
330
1F
100
AcDbEntity
  8
Ｓ_１_１
  6
CONTINUOUS
 62
     3
100
AcDbLine
 10
863.0000119999999
 20
362.999999999996
 30
0.0
 11
1057.000012
 21
362.999999999996
 31
0.0
  0
LINE
  5
41D
330
1F
100
AcDbEntity
  8
Ｓ_１_１
  6
CONTINUOUS
 62
     3
100
AcDbLine
 10
808.0
 20
359.999999999996
 30
0.0
 11
1112.0
 21
359.999999999996
 31
0.0
  0
LINE
  5
41E
330
1F
100
AcDbEntity
  8
Ｓ_１_１
  6
CONTINUOUS
 62
     3
100
AcDbLine
 10
802.9999999999999
 20
304.999999999996
 30
0.0
 11
1117.0
 21
304.999999999996
 31
0.0
  0
LINE
  5
41F
330
1F
100
AcDbEntity
  8
Ｓ_１_１
  6
CONTINUOUS
 62
     3
100
AcDbLine
 10
1120.0
 20
301.999999999996
 30
0.0
 11
799.9999999999999
 21
301.999999999996
 31
0.0
  0
LINE
  5
420
330
1F
100
AcDbEntity
  8
Ｓ_１_１
  6
CONTINUOUS
 62
     3
100
AcDbLine
 10
1120.0
 20
122.999999999996
 30
0.0
 11
799.9999999999999
 21
122.9999999999959
 31
0.0
  0
LINE
  5
421
330
1F
100
AcDbEntity
  8
Ｓ_１_１
  6
CONTINUOUS
 62
     3
100
AcDbLine
 10
802.9999999999999
 20
119.999999999996
 30
0.0
 11
1117.0
 21
119.999999999996
 31
0.0
  0
LINE
  5
422
330
1F
100
AcDbEntity
  8
Ｓ_１_１
  6
CONTINUOUS
 62
     3
100
AcDbLine
 10
504.8417316500197
 20
650.3201280885926
 30
0.0
 11
495.4214831406963
 21
643.7239990705556
 31
0.0
  0
LINE
  5
423
330
1F
100
AcDbEntity
  8
Ｓ_１_１
  6
CONTINUOUS
 62
     3
100
AcDbLine
 10
495.4214831406963
 20
643.7239990705556
 30
0.0
 11
486.0012346313727
 21
637.1278700525186
 31
0.0
  0
LINE
  5
424
330
1F
100
AcDbEntity
  8
Ｓ_１_１
  6
CONTINUOUS
 62
     3
100
AcDbLine
 10
523.7697540496042
 20
623.288110627056
 30
0.0
 11
514.3495055402808
 21
616.6919816090189
 31
0.0
  0
LINE
  5
425
330
1F
100
AcDbEntity
  8
Ｓ_１_１
  6
CONTINUOUS
 62
     3
100
AcDbLine
 10
514.3495055402808
 20
616.6919816090189
 30
0.0
 11
504.9292570309572
 21
610.0958525909818
 31
0.0
  0
LINE
  5
426
330
1F
100
AcDbEntity
  8
Ｓ_１_１
  6
CONTINUOUS
 62
     3
100
AcDbLine
 10
504.9292568036535
 20
610.0958505290009
 30
0.0
 11
503.5365282049671
 21
610.3414262183542
 31
0.0
  0
LINE
  5
427
330
1F
100
AcDbEntity
  8
Ｓ_１_１
  6
CONTINUOUS
 62
     3
100
AcDbLine
 10
485.7556577497372
 20
635.735142019338
 30
0.0
 11
486.0012333561431
 21
637.1278701484206
 31
0.0
  0
LINE
  5
428
330
1F
100
AcDbEntity
  8
Ｓ_１_１
  6
CONTINUOUS
 62
     3
100
AcDbLine
 10
506.2344601347356
 20
650.074552390974
 30
0.0
 11
504.841731525432
 21
650.3201279610703
 31
0.0
  0
LINE
  5
429
330
1F
100
AcDbEntity
  8
Ｓ_１_１
  6
CONTINUOUS
 62
     3
100
AcDbLine
 10
523.7697545512988
 20
623.2881104133717
 30
0.0
 11
524.0153300404368
 21
624.6808385631324
 31
0.0
  0
LINE
  5
42A
330
1F
100
AcDbEntity
  8
Ｓ_１_１
  6
CONTINUOUS
 62
     3
100
AcDbLine
 10
524.0153296575421
 20
624.680839107696
 30
0.0
 11
503.5365285503173
 21
610.3414281989197
 31
0.0
  0
LINE
  5
42B
330
1F
100
AcDbEntity
  8
Ｓ_１_１
  6
CONTINUOUS
 62
     3
100
AcDbLine
 10
506.2344601306598
 20
650.0745524806547
 30
0.0
 11
485.7556590234348
 21
635.7351415718786
 31
0.0
  0
LINE
  5
42C
330
1F
100
AcDbEntity
  8
Ｓ_１_１
  6
CONTINUOUS
 62
     3
100
AcDbLine
 10
508.3606940563213
 20
610.8355436224391
 30
0.0
 11
521.9010455283899
 21
620.3165997931903
 31
0.0
  0
LINE
  5
42D
330
1F
100
AcDbEntity
  8
Ｓ_１_１
  6
CONTINUOUS
 62
     3
100
AcDbLine
 10
524.5327275252578
 20
614.6665739513523
 30
0.0
 11
521.3265132527779
 21
619.9143226121571
 31
0.0
  0
LINE
  5
42E
330
1F
100
AcDbEntity
  8
Ｓ_１_１
  6
CONTINUOUS
 62
     3
100
AcDbLine
 10
525.1072665189366
 20
615.068848511779
 30
0.0
 11
521.1894135561461
 21
621.4813648401911
 31
0.0
  0
LINE
  5
42F
330
1F
100
AcDbEntity
  8
Ｓ_１_１
  6
CONTINUOUS
 62
     3
100
AcDbLine
 10
521.3265124370259
 20
619.9142976254697
 30
0.0
 11
521.1894143786983
 21
621.4813410006565
 31
0.0
  0
LINE
  5
430
330
1F
100
AcDbEntity
  8
Ｓ_１_１
  6
CONTINUOUS
 62
     3
100
AcDbLine
 10
512.1953884845966
 20
606.0278395303947
 30
0.0
 11
507.5095594228074
 21
611.9026510491352
 31
0.0
  0
LINE
  5
431
330
1F
100
AcDbEntity
  8
Ｓ_１_１
  6
CONTINUOUS
 62
     3
100
AcDbLine
 10
507.5095840831941
 20
611.9026402387083
 30
0.0
 11
508.9352180528876
 21
611.2378552919836
 31
0.0
  0
LINE
  5
432
330
1F
100
AcDbEntity
  8
Ｓ_１_１
  6
CONTINUOUS
 62
     3
100
AcDbLine
 10
512.7699002763071
 20
606.4301389916834
 30
0.0
 11
508.9352014225709
 21
611.2378546342817
 31
0.0
  0
LINE
  5
433
330
1F
100
AcDbEntity
  8
Ｓ_１_１
  6
CONTINUOUS
 62
     3
100
AcDbLine
 10
487.8699374185237
 20
640.0993768713475
 30
0.0
 11
501.4102888905923
 21
649.5804330420988
 31
0.0
  0
LINE
  5
434
330
1F
100
AcDbEntity
  8
Ｓ_１_１
  6
CONTINUOUS
 62
     3
100
AcDbLine
 10
488.5815646390055
 20
638.9346133802256
 30
0.0
 11
488.444465761526
 21
640.5016561818361
 31
0.0
  0
LINE
  5
435
330
1F
100
AcDbEntity
  8
Ｓ_１_１
  6
CONTINUOUS
 62
     3
100
AcDbLine
 10
500.8357654625023
 20
649.1781571730689
 30
0.0
 11
502.2614002513479
 21
648.5133727999205
 31
0.0
  0
ARC
  5
436
330
1F
100
AcDbEntity
  8
Ｓ_１_１
  6
CONTINUOUS
 62
     3
100
AcDbCircle
 10
510.6352768508797
 20
603.878047823894
 30
0.0
 40
6.133925000000001
100
AcDbArc
 50
270.6154380000004
 51
339.3845830000004
  0
ARC
  5
437
330
1F
100
AcDbEntity
  8
Ｓ_１_１
  6
CONTINUOUS
 62
     3
100
AcDbCircle
 10
509.5153322894249
 20
623.595923524918
 30
0.0
 40
22.927938
100
AcDbArc
 50
287.4118579999999
 51
322.5881660000001
  0
ARC
  5
438
330
1F
100
AcDbEntity
  8
Ｓ_１_１
  6
CONTINUOUS
 62
     3
100
AcDbCircle
 10
530.6824841521526
 20
611.4845791950794
 30
0.0
 40
6.133925000000001
100
AcDbArc
 50
90.61540199999916
 51
159.3845609999998
  0
ARC
  5
439
330
1F
100
AcDbEntity
  8
Ｓ_１_１
  6
CONTINUOUS
 62
     3
100
AcDbCircle
 10
547.5747931212653
 20
577.0868909805396
 30
0.0
 40
1.0
100
AcDbArc
 50
304.9999779999953
 51
34.99997499999757
  0
ARC
  5
43A
330
1F
100
AcDbEntity
  8
Ｓ_１_１
  6
CONTINUOUS
 62
     3
100
AcDbCircle
 10
527.6610555583862
 20
615.7996264187805
 30
0.0
 40
6.133925000000001
100
AcDbArc
 50
270.6153689999998
 51
339.3845139999989
  0
ARC
  5
43B
330
1F
100
AcDbEntity
  8
Ｓ_１_１
  6
CONTINUOUS
 62
     3
100
AcDbCircle
 10
531.8022636128197
 20
591.7668869790133
 30
0.0
 40
22.927942
100
AcDbArc
 50
107.4118210000002
 51
142.5881150000001
  0
ARC
  5
43C
330
1F
100
AcDbEntity
  8
Ｓ_１_１
  6
CONTINUOUS
 62
     3
100
AcDbCircle
 10
513.6567054446461
 20
599.563000600193
 30
0.0
 40
6.133925000000001
100
AcDbArc
 50
90.61541599999978
 51
159.3845739999999
  0
ARC
  5
43D
330
1F
100
AcDbEntity
  8
Ｓ_１_１
  6
CONTINUOUS
 62
     3
100
AcDbCircle
 10
540.2024492972263
 20
571.9247202606737
 30
0.0
 40
1.0
100
AcDbArc
 50
214.9999970000024
 51
304.9999780000018
  0
LINE
  5
43E
330
1F
100
AcDbEntity
  8
Ｓ_１_１
  6
CONTINUOUS
 62
     3
100
AcDbLine
 10
546.8381108800636
 20
572.9085878212009
 30
0.0
 11
544.38068014091
 21
571.1878762930173
 31
0.0
  0
LINE
  5
43F
330
1F
100
AcDbEntity
  8
Ｓ_１_１
  6
CONTINUOUS
 62
     3
100
AcDbLine
 10
528.4812102066371
 20
617.4312043287894
 30
0.0
 11
508.821585718263
 21
603.6653870636577
 31
0.0
  0
LINE
  5
440
330
1F
100
AcDbEntity
  8
Ｓ_１_１
  6
CONTINUOUS
 62
     3
100
AcDbLine
 10
548.3939697401158
 20
577.6604846241838
 30
0.0
 11
543.2319217656068
 21
585.0326531496861
 31
0.0
  0
LINE
  5
441
330
1F
100
AcDbEntity
  8
Ｓ_１_１
  6
CONTINUOUS
 62
     3
100
AcDbLine
 10
543.2319217656068
 20
585.0326531496861
 30
0.0
 11
534.2212247038667
 21
578.7232951425317
 31
0.0
  0
LINE
  5
442
330
1F
100
AcDbEntity
  8
Ｓ_１_１
  6
CONTINUOUS
 62
     3
100
AcDbLine
 10
544.0912464724643
 20
589.9073677168622
 30
0.0
 11
542.9441635760875
 21
591.5455718688908
 31
0.0
  0
LINE
  5
443
330
1F
100
AcDbEntity
  8
Ｓ_１_１
  6
CONTINUOUS
 62
     3
100
AcDbLine
 10
529.3465350689761
 20
579.5830096434131
 30
0.0
 11
528.1994521725992
 21
581.2212137954417
 31
0.0
  0
LINE
  5
444
330
1F
100
AcDbEntity
  8
Ｓ_１_１
  6
CONTINUOUS
 62
     3
100
AcDbLine
 10
537.0439991787119
 20
603.8946892294516
 30
0.0
 11
518.61307818221
 21
590.9892194115532
 31
0.0
  0
LINE
  5
445
330
1F
100
AcDbEntity
  8
Ｓ_１_１
  6
CONTINUOUS
 62
     3
100
AcDbLine
 10
517.9167139418898
 20
591.1120072155222
 30
0.0
 11
513.041314232906
 21
598.0747995919787
 31
0.0
  0
LINE
  5
446
330
1F
100
AcDbEntity
  8
Ｓ_１_１
  6
CONTINUOUS
 62
     3
100
AcDbLine
 10
537.1668115572423
 20
604.5910706770647
 30
0.0
 11
532.2914118482585
 21
611.5538630535212
 31
0.0
  0
LINE
  5
447
330
1F
100
AcDbEntity
  8
Ｓ_１_１
  6
CONTINUOUS
 62
     3
100
AcDbLine
 10
530.6166468992458
 20
617.6179635138103
 30
0.0
 11
528.481249948262
 21
617.43114059808
 31
0.0
  0
LINE
  5
448
330
1F
100
AcDbEntity
  8
Ｓ_１_１
  6
CONTINUOUS
 62
     3
100
AcDbLine
 10
512.8366955730326
 20
597.9312908959303
 30
0.0
 11
510.7011762301926
 21
597.7444579685249
 31
0.0
  0
LINE
  5
449
330
1F
100
AcDbEntity
  8
Ｓ_１_１
  6
CONTINUOUS
 62
     3
100
AcDbLine
 10
508.8216054654375
 20
603.6653606052164
 30
0.0
 11
507.9156997597477
 21
601.722640474766
 31
0.0
  0
LINE
  5
44A
330
1F
100
AcDbEntity
  8
Ｓ_１_１
  6
CONTINUOUS
 62
     3
100
AcDbLine
 10
533.4022254526961
 20
613.6397328509489
 30
0.0
 11
532.4963197470063
 21
611.6970127204986
 31
0.0
  0
LINE
  5
44B
330
1F
100
AcDbEntity
  8
Ｓ_１_１
  6
CONTINUOUS
 62
     3
100
AcDbLine
 10
510.7010934737358
 20
597.7445587225263
 30
0.0
 11
507.9156210336262
 21
601.722625635704
 31
0.0
  0
LINE
  5
44C
330
1F
100
AcDbEntity
  8
Ｓ_１_１
  6
CONTINUOUS
 62
     3
100
AcDbLine
 10
516.3763361137622
 20
601.7184064002421
 30
0.0
 11
513.5908636736527
 21
605.6964733134198
 31
0.0
  0
LINE
  5
44D
330
1F
100
AcDbEntity
  8
Ｓ_１_１
  6
CONTINUOUS
 62
     3
100
AcDbLine
 10
527.726796819254
 20
609.6660845483805
 30
0.0
 11
524.9413243791444
 21
613.6441514615581
 31
0.0
  0
LINE
  5
44E
330
1F
100
AcDbEntity
  8
Ｓ_１_１
  6
CONTINUOUS
 62
     3
100
AcDbLine
 10
533.4021017148361
 20
613.6399758179056
 30
0.0
 11
530.6166292747265
 21
617.6180427310832
 31
0.0
  0
LINE
  5
44F
330
1F
100
AcDbEntity
  8
Ｓ_１_１
  6
CONTINUOUS
 62
     3
100
AcDbLine
 10
532.4961752847693
 20
611.6972399553158
 30
0.0
 11
512.8365507963952
 21
597.931422690184
 31
0.0
  0
LINE
  5
450
330
1F
100
AcDbEntity
  8
Ｓ_１_１
  6
CONTINUOUS
 62
     3
100
AcDbLine
 10
548.148509510267
 20
576.2675390631516
 30
0.0
 11
540.776165686228
 21
571.1053683432856
 31
0.0
  0
LINE
  5
451
330
1F
100
AcDbEntity
  8
Ｓ_１_１
  6
CONTINUOUS
 62
     3
100
AcDbLine
 10
544.380902900142
 20
571.1878039858625
 30
0.0
 11
541.5953832660806
 21
571.6789662526406
 31
0.0
  0
LINE
  5
452
330
1F
100
AcDbEntity
  8
Ｓ_１_１
  6
CONTINUOUS
 62
     3
100
AcDbLine
 10
547.3295312188367
 20
575.6940073810634
 30
0.0
 11
546.8383900715614
 21
572.9086075216513
 31
0.0
  0
LINE
  5
453
330
1F
100
AcDbEntity
  8
Ｓ_１_１
  6
CONTINUOUS
 62
     3
100
AcDbLine
 10
539.994661617989
 20
593.1427810646501
 30
0.0
 11
527.7073809536544
 21
584.5391345193846
 31
0.0
  0
LINE
  5
454
330
1F
100
AcDbEntity
  8
Ｓ_１_１
  6
CONTINUOUS
 62
     3
100
AcDbLine
 10
540.8550962488407
 20
591.9139530616673
 30
0.0
 11
528.5678155845062
 21
583.3103065164019
 31
0.0
  0
LINE
  5
455
330
1F
100
AcDbEntity
  8
Ｓ_１_１
  6
CONTINUOUS
 62
     3
100
AcDbLine
 10
544.0912464724643
 20
589.9073677168622
 30
0.0
 11
529.3465350689761
 21
579.5830096434131
 31
0.0
  0
LINE
  5
456
330
1F
100
AcDbEntity
  8
Ｓ_１_１
  6
CONTINUOUS
 62
     3
100
AcDbLine
 10
525.6184281853448
 20
584.9072980581929
 30
0.0
 11
520.4561702818602
 21
592.2797663933432
 31
0.0
  0
LINE
  5
457
330
1F
100
AcDbEntity
  8
Ｓ_１_１
  6
CONTINUOUS
 62
     3
100
AcDbLine
 10
540.363139588833
 20
595.2316561316419
 30
0.0
 11
535.2008816853483
 21
602.6041244667922
 31
0.0
  0
LINE
  5
458
330
1F
100
AcDbEntity
  8
Ｓ_１_１
  6
CONTINUOUS
 62
     3
100
AcDbLine
 10
542.9442927599353
 20
591.5456366881282
 30
0.0
 11
540.8551827526569
 21
591.9140038660947
 31
0.0
  0
LINE
  5
459
330
1F
100
AcDbEntity
  8
Ｓ_１_１
  6
CONTINUOUS
 62
     3
100
AcDbLine
 10
528.5678474507109
 20
583.3103202839363
 30
0.0
 11
528.1995127711501
 21
581.2213905122086
 31
0.0
  0
LINE
  5
45A
330
1F
100
AcDbEntity
  8
Ｓ_１_１
  6
CONTINUOUS
 62
     3
100
AcDbLine
 10
542.9441635760875
 20
591.5455718688908
 30
0.0
 11
528.1994521725992
 21
581.2212137954417
 31
0.0
  0
LINE
  5
45B
330
1F
100
AcDbEntity
  8
Ｓ_１_１
  6
CONTINUOUS
 62
     3
100
AcDbLine
 10
540.3631822722649
 20
595.2316457333411
 30
0.0
 11
539.9948475927042
 21
593.1427159616134
 31
0.0
  0
LINE
  5
45C
330
1F
100
AcDbEntity
  8
Ｓ_１_１
  6
CONTINUOUS
 62
     3
100
AcDbLine
 10
527.7075698701765
 20
584.5391227487561
 30
0.0
 11
525.6184596173227
 21
584.907488533994
 31
0.0
  0
LINE
  5
45D
330
1F
100
AcDbEntity
  8
Ｓ_１_１
  6
CONTINUOUS
 62
     3
100
AcDbLine
 10
537.1668115572423
 20
604.5910706770647
 30
0.0
 11
517.9167139418898
 21
591.1120072155222
 31
0.0
  0
LINE
  5
45E
330
1F
100
AcDbEntity
  8
Ｓ_１_１
  6
CONTINUOUS
 62
     3
100
AcDbLine
 10
540.363139588833
 20
595.2316561316419
 30
0.0
 11
525.6184281853448
 21
584.9072980581929
 31
0.0
  0
LINE
  5
45F
330
1F
100
AcDbEntity
  8
Ｓ_１_１
  6
CONTINUOUS
 62
     3
100
AcDbLine
 10
540.8550962488407
 20
591.9139530616673
 30
0.0
 11
539.994661617989
 21
593.1427810646501
 31
0.0
  0
LINE
  5
460
330
1F
100
AcDbEntity
  8
Ｓ_１_１
  6
CONTINUOUS
 62
     3
100
AcDbLine
 10
528.5678155845062
 20
583.3103065164019
 30
0.0
 11
527.7073809536544
 21
584.5391345193846
 31
0.0
  0
LINE
  5
461
330
1F
100
AcDbEntity
  8
Ｓ_１_１
  6
CONTINUOUS
 62
     3
100
AcDbLine
 10
518.6132144223255
 20
590.9892061589707
 30
0.0
 11
517.9169245701913
 21
591.1119801282802
 31
0.0
  0
LINE
  5
462
330
1F
100
AcDbEntity
  8
Ｓ_１_１
  6
CONTINUOUS
 62
     3
100
AcDbLine
 10
537.1669006145398
 20
604.5910219451683
 30
0.0
 11
537.0441441686237
 21
603.8947907524807
 31
0.0
  0
LINE
  5
463
330
1F
100
AcDbEntity
  8
Ｓ_１_１
  6
CONTINUOUS
 62
     3
100
AcDbLine
 10
544.0914379475686
 20
589.9072197902435
 30
0.0
 11
543.2319198817272
 21
585.0326506098044
 31
0.0
  0
LINE
  5
464
330
1F
100
AcDbEntity
  8
Ｓ_１_１
  6
CONTINUOUS
 62
     3
100
AcDbLine
 10
534.2212254048925
 20
578.7235556583823
 30
0.0
 11
529.3467155382019
 21
579.5830639836247
 31
0.0
  0
LINE
  5
465
330
1F
100
AcDbEntity
  8
Ｓ_１_１
  6
CONTINUOUS
 62
     3
100
AcDbLine
 10
539.3832726783758
 20
571.3511266170294
 30
0.0
 11
534.2212247038667
 21
578.7232951425317
 31
0.0
  0
LINE
  5
466
330
1F
100
AcDbEntity
  8
Ｓ_１_１
  6
CONTINUOUS
 62
     3
100
AcDbLine
 10
467.1847440248193
 20
598.6213487703574
 30
0.0
 11
463.0889838033743
 21
595.7534665886021
 31
0.0
  0
LINE
  5
467
330
1F
100
AcDbEntity
  8
Ｓ_１_１
  6
CONTINUOUS
 62
     3
100
AcDbLine
 10
462.3093443158353
 20
605.5841411468137
 30
0.0
 11
458.2135840943904
 21
602.7162589650585
 31
0.0
  0
LINE
  5
468
330
1F
100
AcDbEntity
  8
Ｓ_１_１
  6
CONTINUOUS
 62
     3
100
AcDbLine
 10
461.8791619885721
 20
606.1985051800305
 30
0.0
 11
458.3977658003439
 21
603.7608053255385
 31
0.0
  0
LINE
  5
469
330
1F
100
AcDbEntity
  8
Ｓ_１_１
  6
CONTINUOUS
 62
     3
100
AcDbLine
 10
467.6149263520826
 20
598.0069847371406
 30
0.0
 11
464.1335301638544
 21
595.5692848826486
 31
0.0
  0
LINE
  5
46A
330
1F
100
AcDbEntity
  8
Ｓ_１_１
  6
CONTINUOUS
 62
     3
100
AcDbLine
 10
458.2135840943904
 20
602.7162589650585
 30
0.0
 11
463.0889838033743
 21
595.7534665886021
 31
0.0
  0
LINE
  5
46B
330
1F
100
AcDbEntity
  8
Ｓ_１_１
  6
CONTINUOUS
 62
     3
100
AcDbLine
 10
458.3977658003439
 20
603.7608053255385
 30
0.0
 11
464.1335301638544
 21
595.5692848826486
 31
0.0
  0
LINE
  5
46C
330
1F
100
AcDbEntity
  8
Ｓ_１_１
  6
CONTINUOUS
 62
     3
100
AcDbLine
 10
458.3977643504721
 20
603.7608029369561
 30
0.0
 11
458.2135831476569
 21
602.7162591725611
 31
0.0
  0
LINE
  5
46D
330
1F
100
AcDbEntity
  8
Ｓ_１_１
  6
CONTINUOUS
 62
     3
100
AcDbLine
 10
463.0889835585376
 20
595.7534640668085
 30
0.0
 11
464.1335301405042
 21
595.5692823672513
 31
0.0
  0
LINE
  5
46E
330
1F
100
AcDbEntity
  8
Ｓ_１_１
  6
CONTINUOUS
 62
     3
100
AcDbLine
 10
470.4811084803503
 20
606.1177800130429
 30
0.0
 11
476.2168728438607
 21
597.926259570153
 31
0.0
  0
LINE
  5
46F
330
1F
100
AcDbEntity
  8
Ｓ_１_１
  6
CONTINUOUS
 62
     3
100
AcDbLine
 10
464.7453441168399
 20
614.3093004559328
 30
0.0
 11
470.4811084803503
 21
606.1177800130429
 31
0.0
  0
LINE
  5
470
330
1F
100
AcDbEntity
  8
Ｓ_１_１
  6
CONTINUOUS
 62
     3
100
AcDbLine
 10
476.2168720764672
 20
597.9262597054652
 30
0.0
 11
474.8241435070856
 21
598.1718353895798
 31
0.0
  0
LINE
  5
471
330
1F
100
AcDbEntity
  8
Ｓ_１_１
  6
CONTINUOUS
 62
     3
100
AcDbLine
 10
464.4997683905847
 20
612.9165716475588
 30
0.0
 11
464.7453439970723
 21
614.3092997766993
 31
0.0
  0
LINE
  5
472
330
1F
100
AcDbEntity
  8
Ｓ_１_１
  6
CONTINUOUS
 62
     3
100
AcDbLine
 10
464.4997686239613
 20
612.9165718109709
 30
0.0
 11
469.6619564360612
 21
605.5442035766919
 31
0.0
  0
LINE
  5
473
330
1F
100
AcDbEntity
  8
Ｓ_１_１
  6
CONTINUOUS
 62
     3
100
AcDbLine
 10
469.6619564360612
 20
605.5442035766919
 30
0.0
 11
474.8241439821936
 21
598.171835722254
 31
0.0
  0
LINE
  5
474
330
1F
100
AcDbEntity
  8
Ｓ_１_１
  6
CONTINUOUS
 62
     3
100
AcDbLine
 10
500.3818581503863
 20
614.8467644425091
 30
0.0
 11
476.2168728438607
 21
597.926259570153
 31
0.0
  0
LINE
  5
475
330
1F
100
AcDbEntity
  8
Ｓ_１_１
  6
CONTINUOUS
 62
     3
100
AcDbLine
 10
469.0445170280095
 20
595.9653208610371
 30
0.0
 11
471.0151735923449
 21
594.8943787491637
 31
0.0
  0
LINE
  5
476
330
1F
100
AcDbEntity
  8
Ｓ_１_１
  6
CONTINUOUS
 62
     3
100
AcDbLine
 10
460.4495725861917
 20
608.2401712819434
 30
0.0
 11
460.1172204269544
 21
610.4582664881494
 31
0.0
  0
LINE
  5
477
330
1F
100
AcDbEntity
  8
Ｓ_１_１
  6
CONTINUOUS
 62
     3
100
AcDbLine
 10
473.9594281790688
 20
599.4067779136817
 30
0.0
 11
474.2917803383058
 21
597.1886827074761
 31
0.0
  0
LINE
  5
478
330
1F
100
AcDbEntity
  8
Ｓ_１_１
  6
CONTINUOUS
 62
     3
100
AcDbLine
 10
465.3644854889928
 20
611.6816307835326
 30
0.0
 11
463.3938292038319
 21
612.7525727435765
 31
0.0
  0
LINE
  5
479
330
1F
100
AcDbEntity
  8
Ｓ_１_１
  6
CONTINUOUS
 62
     3
100
AcDbLine
 10
463.3938282464374
 20
612.7525715610863
 30
0.0
 11
460.1172200692814
 21
610.458265815682
 31
0.0
  0
LINE
  5
47A
330
1F
100
AcDbEntity
  8
Ｓ_１_１
  6
CONTINUOUS
 62
     3
100
AcDbLine
 10
474.2917805371072
 20
597.1886827195954
 30
0.0
 11
471.0151723599512
 21
594.8943769741912
 31
0.0
  0
LINE
  5
47B
330
1F
100
AcDbEntity
  8
Ｓ_１_１
  6
CONTINUOUS
 62
     3
100
AcDbLine
 10
464.7470441703273
 20
602.1027449585855
 30
0.0
 11
469.0445161995962
 21
595.9653188459553
 31
0.0
  0
LINE
  5
47C
330
1F
100
AcDbEntity
  8
Ｓ_１_１
  6
CONTINUOUS
 62
     3
100
AcDbLine
 10
460.4495721410585
 20
608.2401710712159
 30
0.0
 11
464.7470441703273
 21
602.1027449585855
 31
0.0
  0
ARC
  5
47D
330
1F
100
AcDbEntity
  8
Ｓ_１_１
  6
CONTINUOUS
 62
     3
100
AcDbCircle
 10
456.9309684143758
 20
596.6298697950501
 30
0.0
 40
15.5416666667
100
AcDbArc
 50
14.33451635430017
 51
14.33452389044768
  0
ARC
  5
47E
330
1F
100
AcDbEntity
  8
Ｓ_１_１
  6
CONTINUOUS
 62
     3
100
AcDbCircle
 10
477.4780321920129
 20
611.0170787402272
 30
0.0
 40
15.5416666667
100
AcDbArc
 50
235.665476109553
 51
235.6654784093996
  0
ARC
  5
47F
330
1F
100
AcDbEntity
  8
Ｓ_１_１
  6
CONTINUOUS
 62
     3
100
AcDbCircle
 10
456.9309684143758
 20
596.6298697950501
 30
0.0
 40
15.5416666667
100
AcDbArc
 50
17.81263240281456
 51
52.1873680951786
  0
ARC
  5
480
330
1F
100
AcDbEntity
  8
Ｓ_１_１
  6
CONTINUOUS
 62
     3
100
AcDbCircle
 10
456.9309684143758
 20
596.6298697950501
 30
0.0
 40
15.5416666667
100
AcDbArc
 50
55.66547865603564
 51
55.66548000330017
  0
ARC
  5
481
330
1F
100
AcDbEntity
  8
Ｓ_１_１
  6
CONTINUOUS
 62
     3
100
AcDbCircle
 10
477.4780321920129
 20
611.0170787402272
 30
0.0
 40
15.5416666667
100
AcDbArc
 50
197.8126319048212
 51
232.1873675971855
  0
LINE
  5
482
330
1F
100
AcDbEntity
  8
Ｓ_１_１
  6
CONTINUOUS
 62
     3
100
AcDbLine
 10
467.9497277683512
 20
598.7388533966017
 30
0.0
 11
471.7275982107586
 21
601.384146758755
 31
0.0
  0
LINE
  5
483
330
1F
100
AcDbEntity
  8
Ｓ_１_１
  6
CONTINUOUS
 62
     3
100
AcDbLine
 10
462.6814023543076
 20
606.262801905129
 30
0.0
 11
466.4592727313199
 21
608.9080952214922
 31
0.0
  0
ARC
  5
484
330
1F
100
AcDbEntity
  8
Ｓ_１_１
  6
CONTINUOUS
 62
     3
100
AcDbCircle
 10
465.3644825052202
 20
611.6816324050487
 30
0.0
 40
6.000000000001596
100
AcDbArc
 50
215.0000417559226
 51
243.9021840779136
  0
ARC
  5
485
330
1F
100
AcDbEntity
  8
Ｓ_１_１
  6
CONTINUOUS
 62
     3
100
AcDbCircle
 10
460.4495727475468
 20
608.2401702050608
 30
0.0
 40
6.000000000001596
100
AcDbArc
 50
6.097863618812353
 51
35.00004175588576
  0
ARC
  5
486
330
1F
100
AcDbEntity
  8
Ｓ_１_１
  6
CONTINUOUS
 62
     3
100
AcDbCircle
 10
469.0445159211133
 20
595.96531924367
 30
0.0
 40
6.000000000000005
100
AcDbArc
 50
34.99999201726115
 51
63.90214402666206
  0
ARC
  5
487
330
1F
100
AcDbEntity
  8
Ｓ_１_１
  6
CONTINUOUS
 62
     3
100
AcDbCircle
 10
473.9594281868472
 20
599.4067778617764
 30
0.0
 40
6.000000000001596
100
AcDbArc
 50
186.0978559733465
 51
215.0
  0
LINE
  5
488
330
1F
100
AcDbEntity
  8
Ｓ_１_１
  6
CONTINUOUS
 62
     3
100
AcDbLine
 10
488.9103294233655
 20
631.229805328289
 30
0.0
 11
464.7453441168399
 21
614.3093004559328
 31
0.0
  0
LINE
  5
489
330
1F
100
AcDbEntity
  8
Ｓ_１_１
  6
EXLTYPE2
 62
     1
100
AcDbLine
 10
516.2562661601107
 20
638.1698904831493
 30
0.0
 11
459.8227543285811
 21
598.6547200910653
 31
0.0
  0
LINE
  5
48A
330
1F
100
AcDbEntity
  8
Ｓ_１_１
  6
CONTINUOUS
 62
     3
100
AcDbLine
 10
506.2344601306598
 20
650.0745524806547
 30
0.0
 11
524.0153296575421
 21
624.680839107696
 31
0.0
  0
LINE
  5
48B
330
1F
100
AcDbEntity
  8
Ｓ_１_１
  6
CONTINUOUS
 62
     3
100
AcDbLine
 10
485.7556590234349
 20
635.7351415718784
 30
0.0
 11
503.5365285503173
 21
610.3414281989197
 31
0.0
  0
LINE
  5
48C
330
1F
100
AcDbEntity
  8
Ｓ_１_１
  6
CONTINUOUS
 62
     3
100
AcDbLine
 10
485.1550646931188
 20
644.5429405415572
 30
0.0
 11
488.5815532448019
 21
638.9346627783241
 31
0.0
  0
LINE
  5
48D
330
1F
100
AcDbEntity
  8
Ｓ_１_１
  6
CONTINUOUS
 62
     3
100
AcDbLine
 10
485.7469369297478
 20
644.9168300372576
 30
0.0
 11
488.4444625639429
 21
640.5016746960323
 31
0.0
  0
LINE
  5
48E
330
1F
100
AcDbEntity
  8
Ｓ_１_１
  6
CONTINUOUS
 62
     3
100
AcDbLine
 10
497.6094753985408
 20
653.2230686897735
 30
0.0
 11
500.8357635803227
 21
649.178142426632
 31
0.0
  0
LINE
  5
48F
330
1F
100
AcDbEntity
  8
Ｓ_１_１
  6
CONTINUOUS
 62
     3
100
AcDbLine
 10
498.163248785211
 20
653.651368871883
 30
0.0
 11
502.2613853417607
 21
648.5133696847627
 31
0.0
  0
LINE
  5
490
330
1F
100
AcDbEntity
  8
Ｓ_１_１
  6
CONTINUOUS
 62
     3
100
AcDbLine
 10
793.6377239999908
 20
235.0
 30
0.0
 11
793.6377239999908
 21
246.5
 31
0.0
  0
LINE
  5
491
330
1F
100
AcDbEntity
  8
Ｓ_１_１
  6
CONTINUOUS
 62
     3
100
AcDbLine
 10
792.6377239999908
 20
247.5
 30
0.0
 11
777.1377239999908
 21
247.5
 31
0.0
  0
LINE
  5
492
330
1F
100
AcDbEntity
  8
Ｓ_１_１
  6
CONTINUOUS
 62
     3
100
AcDbLine
 10
761.6377239999908
 20
247.5
 30
0.0
 11
777.1377239999908
 21
247.5
 31
0.0
  0
LINE
  5
493
330
1F
100
AcDbEntity
  8
Ｓ_１_１
  6
CONTINUOUS
 62
     3
100
AcDbLine
 10
760.6377224412911
 20
246.5000013689
 30
0.0
 11
761.6377225756912
 21
247.5000014189
 31
0.0
  0
LINE
  5
494
330
1F
100
AcDbEntity
  8
Ｓ_１_１
  6
CONTINUOUS
 62
     3
100
AcDbLine
 10
792.6377250970911
 20
247.5000007866997
 30
0.0
 11
793.6377248099909
 21
246.5000009895998
 31
0.0
  0
LINE
  5
495
330
1F
100
AcDbEntity
  8
Ｓ_１_１
  6
CONTINUOUS
 62
     3
100
AcDbLine
 10
753.1377209999798
 20
242.8812499999999
 30
0.0
 11
760.6377659999798
 21
243.350003
 31
0.0
  0
LINE
  5
496
330
1F
100
AcDbEntity
  8
Ｓ_１_１
  6
CONTINUOUS
 62
     3
100
AcDbLine
 10
760.6377429999799
 20
243.3499890000001
 30
0.0
 11
759.2754729999799
 21
242.5634829999999
 31
0.0
  0
LINE
  5
497
330
1F
100
AcDbEntity
  8
Ｓ_１_１
  6
CONTINUOUS
 62
     3
100
AcDbLine
 10
753.1377389999799
 20
242.1798880000001
 30
0.0
 11
759.2754819999799
 21
242.5634970000001
 31
0.0
  0
LINE
  5
498
330
1F
100
AcDbEntity
  8
Ｓ_１_１
  6
CONTINUOUS
 62
     3
100
AcDbLine
 10
800.0000149999998
 20
242.2509890000001
 30
0.0
 11
795.000005
 21
242.56349
 31
0.0
  0
LINE
  5
499
330
1F
100
AcDbEntity
  8
Ｓ_１_１
  6
CONTINUOUS
 62
     3
100
AcDbLine
 10
800.0000029999999
 20
242.9523530000001
 30
0.0
 11
793.637752
 21
243.349993
 31
0.0
  0
LINE
  5
49A
330
1F
100
AcDbEntity
  8
Ｓ_１_１
  6
CONTINUOUS
 62
     3
100
AcDbLine
 10
793.6377049999999
 20
243.3500120000001
 30
0.0
 11
794.9999879999999
 21
242.563498
 31
0.0
  0
ARC
  5
49B
330
1F
100
AcDbEntity
  8
Ｓ_１_１
  6
CONTINUOUS
 62
     3
100
AcDbCircle
 10
752.2715579999815
 20
245.3922884999897
 30
0.0
 40
6.133925000000001
100
AcDbArc
 50
145.6154380000004
 51
214.3845830000003
  0
ARC
  5
49C
330
1F
100
AcDbEntity
  8
Ｓ_１_１
  6
CONTINUOUS
 62
     3
100
AcDbCircle
 10
709.1378909999814
 20
230.4999844999902
 30
0.0
 40
1.0
100
AcDbArc
 50
179.9999779999953
 51
269.9999749999977
  0
ARC
  5
49D
330
1F
100
AcDbEntity
  8
Ｓ_１_１
  6
CONTINUOUS
 62
     3
100
AcDbCircle
 10
747.0038579999816
 20
245.3922884999897
 30
0.0
 40
6.133925000000001
100
AcDbArc
 50
325.6154159999999
 51
34.38457399999984
  0
ARC
  5
49E
330
1F
100
AcDbEntity
  8
Ｓ_１_１
  6
CONTINUOUS
 62
     3
100
AcDbCircle
 10
709.1378909999814
 20
239.4999544999896
 30
0.0
 40
1.0
100
AcDbArc
 50
89.99999700000235
 51
179.9999780000017
  0
LINE
  5
49F
330
1F
100
AcDbEntity
  8
Ｓ_１_１
  6
CONTINUOUS
 62
     3
100
AcDbLine
 10
706.1377689999815
 20
233.5000154999898
 30
0.0
 11
706.1377689999815
 21
236.4999844999898
 31
0.0
  0
LINE
  5
4A0
330
1F
100
AcDbEntity
  8
Ｓ_１_１
  6
CONTINUOUS
 62
     3
100
AcDbLine
 10
721.6378909999814
 20
243.9999844999898
 30
0.0
 11
723.6377689999815
 21
243.9999844999898
 31
0.0
  0
LINE
  5
4A1
330
1F
100
AcDbEntity
  8
Ｓ_１_１
  6
CONTINUOUS
 62
     3
100
AcDbLine
 10
737.6377689999815
 20
246.7499844999897
 30
0.0
 11
746.1377689999815
 21
246.7499844999897
 31
0.0
  0
LINE
  5
4A2
330
1F
100
AcDbEntity
  8
Ｓ_１_１
  6
CONTINUOUS
 62
     3
100
AcDbLine
 10
746.1375779999814
 20
246.9999114999896
 30
0.0
 11
747.2094169999816
 21
248.8563894999897
 31
0.0
  0
LINE
  5
4A3
330
1F
100
AcDbEntity
  8
Ｓ_１_１
  6
CONTINUOUS
 62
     3
100
AcDbLine
 10
753.1376139999813
 20
246.9999534999897
 30
0.0
 11
752.0658369999812
 21
248.8563264999898
 31
0.0
  0
LINE
  5
4A4
330
1F
100
AcDbEntity
  8
Ｓ_１_１
  6
CONTINUOUS
 62
     3
100
AcDbLine
 10
747.2095469999815
 20
248.8563994999895
 30
0.0
 11
752.0658699999815
 21
248.8563994999895
 31
0.0
  0
LINE
  5
4A5
330
1F
100
AcDbEntity
  8
Ｓ_１_１
  6
CONTINUOUS
 62
     3
100
AcDbLine
 10
747.2095469999815
 20
241.9282074999896
 30
0.0
 11
752.0658699999815
 21
241.9282074999896
 31
0.0
  0
LINE
  5
4A6
330
1F
100
AcDbEntity
  8
Ｓ_１_１
  6
CONTINUOUS
 62
     3
100
AcDbLine
 10
708.1376469999811
 20
230.4999844999902
 30
0.0
 11
708.1376469999811
 21
239.4999544999896
 31
0.0
  0
LINE
  5
4A7
330
1F
100
AcDbEntity
  8
Ｓ_１_１
  6
CONTINUOUS
 62
     3
100
AcDbLine
 10
706.1375819999814
 20
236.4998434999898
 30
0.0
 11
708.1376269999812
 21
238.4998884999895
 31
0.0
  0
LINE
  5
4A8
330
1F
100
AcDbEntity
  8
Ｓ_１_１
  6
CONTINUOUS
 62
     3
100
AcDbLine
 10
708.1375839999816
 20
231.4998164999902
 30
0.0
 11
706.1376249999814
 21
233.4997754999895
 31
0.0
  0
LINE
  5
4A9
330
1F
100
AcDbEntity
  8
Ｓ_１_１
  6
CONTINUOUS
 62
     3
100
AcDbLine
 10
728.1376469999816
 20
243.9999844999898
 30
0.0
 11
737.1377689999815
 21
243.9999844999898
 31
0.0
  0
LINE
  5
4AA
330
1F
100
AcDbEntity
  8
Ｓ_１_１
  6
CONTINUOUS
 62
     3
100
AcDbLine
 10
725.1377619999814
 20
242.4999504999896
 30
0.0
 11
723.6378789999815
 21
243.9998334999895
 31
0.0
  0
LINE
  5
4AB
330
1F
100
AcDbEntity
  8
Ｓ_１_１
  6
CONTINUOUS
 62
     3
100
AcDbLine
 10
726.6377729999815
 20
242.4998364999897
 30
0.0
 11
728.1377849999815
 21
243.9998494999895
 31
0.0
  0
LINE
  5
4AC
330
1F
100
AcDbEntity
  8
Ｓ_１_１
  6
CONTINUOUS
 62
     3
100
AcDbLine
 10
725.1377689999815
 20
242.4999844999898
 30
0.0
 11
726.6378909999814
 21
242.4999844999898
 31
0.0
  0
LINE
  5
4AD
330
1F
100
AcDbEntity
  8
Ｓ_１_１
  6
CONTINUOUS
 62
     3
100
AcDbLine
 10
737.1376799999814
 20
246.2498804999896
 30
0.0
 11
737.6376259999813
 21
246.7498274999898
 31
0.0
  0
LINE
  5
4AE
330
1F
100
AcDbEntity
  8
Ｓ_１_１
  6
CONTINUOUS
 62
     3
100
AcDbLine
 10
718.1378599999814
 20
240.4998344999899
 30
0.0
 11
721.6378319999815
 21
243.9998054999896
 31
0.0
  0
LINE
  5
4AF
330
1F
100
AcDbEntity
  8
Ｓ_１_１
  6
CONTINUOUS
 62
     3
100
AcDbLine
 10
709.1378909999814
 20
240.4999844999898
 30
0.0
 11
718.1376469999816
 21
240.4999844999898
 31
0.0
  0
LINE
  5
4B0
330
1F
100
AcDbEntity
  8
Ｓ_１_１
  6
EXLTYPE2
 62
     1
100
AcDbLine
 10
777.1377239999908
 20
248.0
 30
0.0
 11
777.1377239999908
 21
222.0
 31
0.0
  0
LINE
  5
4B1
330
1F
100
AcDbEntity
  8
Ｓ_１_１
  6
CONTINUOUS
 62
     3
100
AcDbLine
 10
794.9999959999999
 20
243.264862
 30
0.0
 11
794.9999959999999
 21
228.2525490439597
 31
0.0
  0
LINE
  5
4B2
330
1F
100
AcDbEntity
  8
Ｓ_１_１
  6
CONTINUOUS
 62
     3
100
AcDbLine
 10
793.6377239999906
 20
228.3378070638027
 30
0.0
 11
793.6377239999908
 21
235.0
 31
0.0
  0
LINE
  5
4B3
330
1F
100
AcDbEntity
  8
Ｓ_１_１
  6
CONTINUOUS
 62
     3
100
AcDbLine
 10
792.6377239999907
 20
231.887620613279
 30
0.0
 11
792.6377239999908
 21
247.5
 31
0.0
  0
LINE
  5
4B4
330
1F
100
AcDbEntity
  8
Ｓ_１_１
  6
CONTINUOUS
 62
     3
100
AcDbLine
 10
709.1378909999814
 20
229.4999544999901
 30
0.0
 11
714.4428861625433
 21
229.4999545775512
 31
0.0
  0
LINE
  5
4B5
330
1F
100
AcDbEntity
  8
Ｓ_１_１
  6
CONTINUOUS
 62
     3
100
AcDbLine
 10
718.1376469999816
 20
236.0000007000036
 30
0.0
 11
718.1376469999816
 21
240.4999844999898
 31
0.0
  0
LINE
  5
4B6
330
1F
100
AcDbEntity
  8
Ｓ_１_１
  6
CONTINUOUS
 62
     3
100
AcDbLine
 10
721.6378909999814
 20
236.00000012334
 30
0.0
 11
721.6378909999814
 21
243.9999844999898
 31
0.0
  0
LINE
  5
4B7
330
1F
100
AcDbEntity
  8
Ｓ_１_１
  6
CONTINUOUS
 62
     3
100
AcDbLine
 10
723.6377689999815
 20
236.00000012334
 30
0.0
 11
723.6377689999815
 21
243.9999844999898
 31
0.0
  0
LINE
  5
4B8
330
1F
100
AcDbEntity
  8
Ｓ_１_１
  6
CONTINUOUS
 62
     3
100
AcDbLine
 10
725.1377689999815
 20
235.9999999660663
 30
0.0
 11
725.1377689999815
 21
242.4999844999898
 31
0.0
  0
LINE
  5
4B9
330
1F
100
AcDbEntity
  8
Ｓ_１_１
  6
CONTINUOUS
 62
     3
100
AcDbLine
 10
726.6378909999814
 20
235.50000045528
 30
0.0
 11
726.6378909999814
 21
242.4999844999898
 31
0.0
  0
LINE
  5
4BA
330
1F
100
AcDbEntity
  8
Ｓ_１_１
  6
CONTINUOUS
 62
     3
100
AcDbLine
 10
728.1376469999816
 20
235.5000004552769
 30
0.0
 11
728.1376469999816
 21
243.9999844999898
 31
0.0
  0
LINE
  5
4BB
330
1F
100
AcDbEntity
  8
Ｓ_１_１
  6
CONTINUOUS
 62
     3
100
AcDbLine
 10
737.1377689999815
 20
236.0000009872239
 30
0.0
 11
737.1377689999815
 21
246.2499844999898
 31
0.0
  0
LINE
  5
4BC
330
1F
100
AcDbEntity
  8
Ｓ_１_１
  6
CONTINUOUS
 62
     3
100
AcDbLine
 10
737.6377689999815
 20
236.0000009777087
 30
0.0
 11
737.6377689999815
 21
246.7499844999897
 31
0.0
  0
LINE
  5
4BD
330
1F
100
AcDbEntity
  8
Ｓ_１_１
  6
CONTINUOUS
 62
     3
100
AcDbLine
 10
746.1377689999815
 20
233.0000004573159
 30
0.0
 11
746.1377689999815
 21
246.9999544999896
 31
0.0
  0
LINE
  5
4BE
330
1F
100
AcDbEntity
  8
Ｓ_１_１
  6
CONTINUOUS
 62
     3
100
AcDbLine
 10
753.1376469999816
 20
232.0000006720184
 30
0.0
 11
753.1376469999816
 21
246.9999544999896
 31
0.0
  0
LINE
  5
4BF
330
1F
100
AcDbEntity
  8
Ｓ_１_１
  6
CONTINUOUS
 62
     3
100
AcDbLine
 10
759.2754519999799
 20
243.264862
 30
0.0
 11
759.2754519999799
 21
232.0000003636782
 31
0.0
  0
LINE
  5
4C0
330
1F
100
AcDbEntity
  8
Ｓ_１_１
  6
CONTINUOUS
 62
     3
100
AcDbLine
 10
760.6377239999908
 20
232.0000002952428
 30
0.0
 11
760.6377239999908
 21
246.5
 31
0.0
  0
LINE
  5
4C1
330
1F
100
AcDbEntity
  8
Ｓ_１_１
  6
CONTINUOUS
 62
     3
100
AcDbLine
 10
761.6377239999908
 20
232.0000002450066
 30
0.0
 11
761.6377239999908
 21
247.5
 31
0.0
  0
ARC
  5
4C2
330
1F
100
AcDbEntity
  8
Ｓ_１_１
  6
CONTINUOUS
 62
     3
100
AcDbCircle
 10
769.0658699999815
 20
234.9999844999898
 30
0.0
 40
22.927938
100
AcDbArc
 50
162.411858
 51
185.0042207544935
  0
ARC
  5
4C3
330
1F
100
AcDbEntity
  8
Ｓ_１_１
  6
CONTINUOUS
 62
     3
100
AcDbCircle
 10
730.2097909999814
 20
234.9999844999898
 30
0.0
 40
22.927942
100
AcDbArc
 50
352.4816330013445
 51
17.58811500000014
  0
LINE
  5
4C4
330
1F
100
AcDbEntity
  8
Ｓ_１_１
  6
EXLTYPE2
 62
     1
100
AcDbLine
 10
804.6
 20
234.999999999996
 30
0.0
 11
701.7
 21
234.999999999996
 31
0.0
  0
DIMENSION
  5
4C5
330
1F
100
AcDbEntity
  8
Ｓ_１_１
  6
CONTINUOUS
 62
     2
100
AcDbDimension
  2
*D32
 10
660.0
 20
235.0
 30
0.0
 11
651.75
 21
177.5
 31
0.0
 70
   160
  3
ISO-25
100
AcDbAlignedDimension
 13
802.9999999999999
 23
120.0
 33
0.0
 14
701.7
 24
235.0
 34
0.0
 50
90.0
100
AcDbRotatedDimension
1001
ACAD
1000
DSTYLE
1002
{
1070
   270
1070
     2
1070
     6
1000
EX_NORM
1070
     7
1000
EX_NORM
1070
    41
1040
9.0
1070
    42
1040
4.5
1070
    44
1040
3.0
1070
    73
1070
     0
1070
    74
1070
     0
1070
    75
1070
     0
1070
    76
1070
     0
1070
    77
1070
     1
1070
    78
1070
     8
1070
   140
1040
10.38871247113164
1070
   147
1040
0.0
1070
   173
1070
     1
1070
   176
1070
     2
1070
   177
1070
     2
1070
   178
1070
     2
1070
   271
1070
     2
1070
   277
1070
     2
1070
   279
1070
     2
1070
   280
1070
     0
1070
   287
1070
     5
1070
   340
1005
121
1002
}
  0
POINT
  5
4D2
330
1F
100
AcDbEntity
  8
Ｓ_１_１
  6
CONTINUOUS
 62
   160
100
AcDbPoint
 10
588.0000000000001
 20
779.9999999999355
 30
0.0
  0
LINE
  5
4D3
330
1F
100
AcDbEntity
  8
Ｓ_１_１
  6
EXLTYPE2
 62
     1
100
AcDbLine
 10
573.0
 20
736.9999999999357
 30
0.0
 11
573.0000000000001
 21
756.9999999999357
 31
0.0
  0
ARC
  5
4D4
330
1F
100
AcDbEntity
  8
Ｓ_１_１
  6
EXLTYPE2
 62
     1
100
AcDbCircle
 10
590.0000000000001
 20
779.9999999999355
 30
0.0
 40
33.0
100
AcDbArc
 50
269.9999999999998
 51
0.0
  0
LINE
  5
4D5
330
1F
100
AcDbEntity
  8
Ｓ_１_１
  6
EXLTYPE2
 62
     1
100
AcDbLine
 10
590.0
 20
746.9999999999357
 30
0.0
 11
560.0
 21
746.9999999999357
 31
0.0
  0
LINE
  5
4D6
330
1F
100
AcDbEntity
  8
Ｓ_１_１
  6
EXLTYPE0
 62
     2
100
AcDbLine
 10
559.7466740000001
 20
770.9999999999355
 30
0.0
 11
588.0000000000001
 21
770.9999999999355
 31
0.0
  0
ARC
  5
4D7
330
1F
100
AcDbEntity
  8
Ｓ_１_１
  6
EXLTYPE0
 62
     2
100
AcDbCircle
 10
573.0
 20
746.9999999999357
 30
0.0
 40
8.0
100
AcDbArc
 50
270.0
 51
89.99999999999916
  0
ARC
  5
4D8
330
1F
100
AcDbEntity
  8
Ｓ_１_１
  6
CONTINUOUS
 62
     3
100
AcDbCircle
 10
590.0000000000001
 20
779.9999999999355
 30
0.0
 40
25.00000000000002
100
AcDbArc
 50
269.9999999999998
 51
0.0
  0
ARC
  5
4D9
330
1F
100
AcDbEntity
  8
Ｓ_１_１
  6
CONTINUOUS
 62
     3
100
AcDbCircle
 10
590.0000000000001
 20
779.9999999999355
 30
0.0
 40
41.0
100
AcDbArc
 50
269.9999999999999
 51
0.0
  0
LINE
  5
4DA
330
1F
100
AcDbEntity
  8
Ｓ_１_１
  6
CONTINUOUS
 62
     3
100
AcDbLine
 10
590.0
 20
738.9999999999357
 30
0.0
 11
573.0
 21
738.9999999999357
 31
0.0
  0
LINE
  5
4DB
330
1F
100
AcDbEntity
  8
Ｓ_１_１
  6
CONTINUOUS
 62
     3
100
AcDbLine
 10
590.0000000000001
 20
754.9999999999357
 30
0.0
 11
588.0000000000001
 21
754.9999999999357
 31
0.0
  0
ARC
  5
4DC
330
1F
100
AcDbEntity
  8
Ｓ_１_１
  6
CONTINUOUS
 62
     3
100
AcDbCircle
 10
573.0
 20
746.9999999999357
 30
0.0
 40
8.0
100
AcDbArc
 50
89.99999999999916
 51
270.0
  0
LINE
  5
4DD
330
1F
100
AcDbEntity
  8
Ｓ_１_１
  6
CONTINUOUS
 62
     3
100
AcDbLine
 10
588.0000000000001
 20
779.9999999999355
 30
0.0
 11
588.0000000000001
 21
754.9999999999357
 31
0.0
  0
LINE
  5
4DE
330
1F
100
AcDbEntity
  8
Ｓ_１_１
  6
CONTINUOUS
 62
     3
100
AcDbLine
 10
558.034806
 20
754.9999999999357
 30
0.0
 11
588.0000000000001
 21
754.9999999999357
 31
0.0
  0
LINE
  5
4DF
330
1F
100
AcDbEntity
  8
Ｓ_１_１
  6
CONTINUOUS
 62
     3
100
AcDbLine
 10
591.2000000000002
 20
764.9999999999357
 30
0.0
 11
588.0000000000001
 21
764.9999999999357
 31
0.0
  0
LINE
  5
4E0
330
1F
100
AcDbEntity
  8
Ｓ_１_１
  6
CONTINUOUS
 62
     3
100
AcDbLine
 10
601.2000000000002
 20
773.9999999999355
 30
0.0
 11
601.2000000000002
 21
779.9999999999355
 31
0.0
  0
ARC
  5
4E1
330
1F
100
AcDbEntity
  8
Ｓ_１_１
  6
CONTINUOUS
 62
     3
100
AcDbCircle
 10
587.254843
 20
773.9999999999355
 30
0.0
 40
13.94515700000001
100
AcDbArc
 50
334.5161380000001
 51
25.48386200000016
  0
LINE
  5
4E2
330
1F
100
AcDbEntity
  8
Ｓ_１_１
  6
CONTINUOUS
 62
     3
100
AcDbLine
 10
591.2000000000002
 20
767.9999999999357
 30
0.0
 11
599.843227
 21
767.9999999999357
 31
0.0
  0
LINE
  5
4E3
330
1F
100
AcDbEntity
  8
Ｓ_１_１
  6
CONTINUOUS
 62
     3
100
AcDbLine
 10
591.2000000000002
 20
764.9999999999357
 30
0.0
 11
591.2000000000002
 21
779.9999999999355
 31
0.0
  0
ARC
  5
4E4
330
1F
100
AcDbEntity
  8
Ｓ_１_１
  6
CONTINUOUS
 62
     3
100
AcDbCircle
 10
399.9999999999999
 20
779.9999999999359
 30
0.0
 40
152.0
100
AcDbArc
 50
270.0000000000002
 51
0.0
  0
ARC
  5
4E5
330
1F
100
AcDbEntity
  8
Ｓ_１_１
  6
CONTINUOUS
 62
     3
100
AcDbCircle
 10
399.9999999999999
 20
779.9999999999359
 30
0.0
 40
155.0
100
AcDbArc
 50
270.0000000000002
 51
0.0
  0
ARC
  5
4E6
330
1F
100
AcDbEntity
  8
Ｓ_１_１
  6
CONTINUOUS
 62
     3
100
AcDbCircle
 10
399.9999999999999
 20
779.9999999999359
 30
0.0
 40
160.0
100
AcDbArc
 50
180.0
 51
0.0
  0
ARC
  5
4E7
330
1F
100
AcDbEntity
  8
Ｓ_１_１
  6
CONTINUOUS
 62
     3
100
AcDbCircle
 10
399.9999999999999
 20
779.9999999999359
 30
0.0
 40
157.0
100
AcDbArc
 50
270.0000000000002
 51
0.0
  0
LINE
  5
4E8
330
1F
100
AcDbEntity
  8
Ｓ_１_１
  6
EXLTYPE2
 62
     1
100
AcDbLine
 10
536.832013
 20
700.9999999999357
 30
0.0
 11
509.065353
 21
717.0310889999358
 31
0.0
  0
ENDSEC
  0
SECTION
  2
OBJECTS
  0
DICTIONARY
  5
C
330
0
100
AcDbDictionary
  3
ACAD_GROUP
350
D
  3
ACAD_LAYOUT
350
1A
  3
ACAD_MATERIAL
350
43
  3
ACAD_MLEADERSTYLE
350
6B
  3
ACAD_MLINESTYLE
350
17
  3
ACAD_PLOTSETTINGS
350
19
  3
ACAD_SCALELIST
350
47
  3
ACAD_VISUALSTYLE
350
2A
  3
ACDBHEADERROUNDTRIPXREC
350
4E9
  3
ACDBVARIABLEDICTIONARY
350
50A
  0
DICTIONARY
  5
515
330
8
100
AcDbDictionary
280
     1
  3
ACAD_XREC_ROUNDTRIP
360
516
  0
DICTIONARY
  5
D
102
{ACAD_REACTORS
330
C
102
}
330
C
100
AcDbDictionary
  0
DICTIONARY
  5
1A
102
{ACAD_REACTORS
330
C
102
}
330
C
100
AcDbDictionary
  0
DICTIONARY
  5
43
102
{ACAD_REACTORS
330
C
102
}
330
C
100
AcDbDictionary
  3
BYBLOCK
350
45
  3
BYLAYER
350
44
  3
GLOBAL
350
46
  0
DICTIONARY
  5
6B
102
{ACAD_REACTORS
330
C
102
}
330
C
100
AcDbDictionary
  3
STANDARD
350
6C
  0
DICTIONARY
  5
17
102
{ACAD_REACTORS
330
C
102
}
330
C
100
AcDbDictionary
  3
STANDARD
350
18
  0
DICTIONARY
  5
19
102
{ACAD_REACTORS
330
C
102
}
330
C
100
AcDbDictionary
  0
DICTIONARY
  5
47
102
{ACAD_REACTORS
330
C
102
}
330
C
100
AcDbDictionary
  3
A0
350
48
  3
A1
350
49
  3
A2
350
4A
  3
A3
350
4B
  3
A4
350
4C
  3
A5
350
4D
  3
A6
350
4E
  3
A7
350
4F
  3
A8
350
50
  3
A9
350
51
  3
B0
350
52
  3
B1
350
53
  3
B2
350
54
  3
B3
350
55
  3
B4
350
56
  3
B5
350
57
  3
B6
350
58
  3
B7
350
59
  3
B8
350
5A
  3
B9
350
5B
  3
C0
350
5C
  3
C1
350
5D
  3
C2
350
5E
  3
C3
350
5F
  3
C4
350
60
  3
C5
350
61
  3
C6
350
62
  3
C7
350
63
  3
C8
350
64
  3
C9
350
65
  3
D0
350
66
  3
D1
350
67
  3
D2
350
68
  0
DICTIONARY
  5
2A
102
{ACAD_REACTORS
330
C
102
}
330
C
100
AcDbDictionary
  3
2DWIREFRAME
350
2F
  3
BASIC
350
32
  3
BRIGHTEN
350
36
  3
COLORCHANGE
350
3A
  3
CONCEPTUAL
350
34
  3
DIM
350
35
  3
EDGECOLOROFF
350
3D
  3
FACEPATTERN
350
39
  3
FLAT
350
2B
  3
FLATWITHEDGES
350
2C
  3
GOURAUD
350
2D
  3
GOURAUDWITHEDGES
350
2E
  3
HIDDEN
350
31
  3
JITTEROFF
350
3B
  3
LINEPATTERN
350
38
  3
OVERHANGOFF
350
3C
  3
REALISTIC
350
33
  3
SHADED
350
42
  3
SHADED_WITH_EDGES
350
41
  3
SHADES_OF_GRAY
350
3E
  3
SKETCHY
350
3F
  3
THICKEN
350
37
  3
WIREFRAME
350
30
  3
X-RAY
350
40
  0
DICTIONARY
  5
4E9
102
{ACAD_REACTORS
330
C
102
}
330
C
100
AcDbDictionary
  3
CEPSNID
350
4F3
  3
CEPSNTYPE
350
4F2
  3
DIMSTYLEDATA
350
509
  3
FINGERPRINTGUID
350
4F4
  3
HYPERLINKBASE
350
4EC
  3
INSUNITS
350
4F1
  3
LAYOUTDICT
350
4EE
  3
LWETCUNION
350
4F0
  3
PLOTSETDICT
350
4EF
  3
PSVPSCALE
350
4F6
  3
PUCSBASE
350
4F9
  3
PUCSORGBACK
350
4FF
  3
PUCSORGBOTTOM
350
4FB
  3
PUCSORGFRONT
350
4FE
  3
PUCSORGLEFT
350
4FC
  3
PUCSORGRIGHT
350
4FD
  3
PUCSORGTOP
350
4FA
  3
PUCSORTHOREF
350
4F7
  3
PUCSORTHOVIEW
350
4F8
  3
STYLESHEET
350
4ED
  3
TSTACKALIGN
350
4EA
  3
TSTACKSIZE
350
4EB
  3
UCSBASE
350
502
  3
UCSORGBACK
350
508
  3
UCSORGBOTTOM
350
504
  3
UCSORGFRONT
350
507
  3
UCSORGLEFT
350
505
  3
UCSORGRIGHT
350
506
  3
UCSORGTOP
350
503
  3
UCSORTHOREF
350
500
  3
UCSORTHOVIEW
350
501
  3
VERSIONGUID
350
4F5
  0
DICTIONARY
  5
50A
102
{ACAD_REACTORS
330
C
102
}
330
C
100
AcDbDictionary
  3
CANNOSCALE
350
517
  3
CENTEREXE
350
511
  3
CENTERLTYPEFILE
350
512
  3
CMLEADERSTYLE
350
50C
  3
CTABLESTYLE
350
50B
  3
DIMASSOC
350
513
  3
HIDETEXT
350
514
  3
MSLTSCALE
350
518
  3
PSOLHEIGHT
350
50E
  3
PSOLWIDTH
350
50D
  0
XRECORD
  5
516
102
{ACAD_REACTORS
330
515
102
}
330
515
100
AcDbXrecord
102
VTR_0.000_0.000_1.000_1.000_VISUALSTYLE
340
2F
102
VTR_0.000_0.000_1.000_1.000_GRIDDISPLAY
 70
     3
102
VTR_0.000_0.000_1.000_1.000_GRIDMAJOR
 70
     5
102
VTR_0.000_0.000_1.000_1.000_DEFAULTLIGHTING
280
     1
102
VTR_0.000_0.000_1.000_1.000_DEFAULTLIGHTINGTYPE
 70
     1
102
VTR_0.000_0.000_1.000_1.000_BRIGHTNESS
141
0.0
102
VTR_0.000_0.000_1.000_1.000_CONTRAST
142
0.0
  0
MATERIAL
  5
45
102
{ACAD_REACTORS
330
43
102
}
102
{ACAD_XDICTIONARY
360
51B
102
}
330
43
100
AcDbMaterial
  1
BYBLOCK
  0
MATERIAL
  5
44
102
{ACAD_REACTORS
330
43
102
}
102
{ACAD_XDICTIONARY
360
519
102
}
330
43
100
AcDbMaterial
  1
BYLAYER
  0
MATERIAL
  5
46
102
{ACAD_REACTORS
330
43
102
}
102
{ACAD_XDICTIONARY
360
51D
102
}
330
43
100
AcDbMaterial
  1
GLOBAL
  0
ACAD_PROXY_OBJECT
  5
6C
102
{ACAD_REACTORS
330
6B
102
}
330
6B
100
AcDbProxyObject
 90
      499
 91
      505
 93
      610
310
40901902A4063FBFFFFFE0000000000000020400000000000020404214DD185B99185C990000000000000104090141901A00000000000004100000000000000041025764000000000000039000
340
14
340
0
340
11
340
0
 94
        0
1001
ACAD_MLEADERVER
1070
     2
  0
MLINESTYLE
  5
18
102
{ACAD_REACTORS
330
17
102
}
330
17
100
AcDbMlineStyle
  2
Standard
 70
     0
  3

 62
   256
 51
90.0
 52
90.0
 71
     2
 49
0.5
 62
   256
  6
BYLAYER
 49
-0.5
 62
   256
  6
BYLAYER
  0
ACAD_PROXY_OBJECT
  5
48
102
{ACAD_REACTORS
330
47
102
}
330
47
100
AcDbProxyObject
 90
      499
 91
      503
 93
       41
310
903313A31580
  0
ACAD_PROXY_OBJECT
  5
49
102
{ACAD_REACTORS
330
47
102
}
330
47
100
AcDbProxyObject
 90
      499
 91
      503
 93
      105
310
903313A324000000000000004000
  0
ACAD_PROXY_OBJECT
  5
4A
102
{ACAD_REACTORS
330
47
102
}
330
47
100
AcDbProxyObject
 90
      499
 91
      503
 93
      105
310
903313A344000000000000104000
  0
ACAD_PROXY_OBJECT
  5
4B
102
{ACAD_REACTORS
330
47
102
}
330
47
100
AcDbProxyObject
 90
      499
 91
      503
 93
      105
310
903313A354000000000000144000
  0
ACAD_PROXY_OBJECT
  5
4C
102
{ACAD_REACTORS
330
47
102
}
330
47
100
AcDbProxyObject
 90
      499
 91
      503
 93
      105
310
903313A384000000000000204000
  0
ACAD_PROXY_OBJECT
  5
4D
102
{ACAD_REACTORS
330
47
102
}
330
47
100
AcDbProxyObject
 90
      499
 91
      503
 93
      113
310
904313A31304000000000000244000
  0
ACAD_PROXY_OBJECT
  5
4E
102
{ACAD_REACTORS
330
47
102
}
330
47
100
AcDbProxyObject
 90
      499
 91
      503
 93
      113
310
904313A31364000000000000304000
  0
ACAD_PROXY_OBJECT
  5
4F
102
{ACAD_REACTORS
330
47
102
}
330
47
100
AcDbProxyObject
 90
      499
 91
      503
 93
      113
310
904313A32304000000000000344000
  0
ACAD_PROXY_OBJECT
  5
50
102
{ACAD_REACTORS
330
47
102
}
330
47
100
AcDbProxyObject
 90
      499
 91
      503
 93
      113
310
904313A333040000000000003E4000
  0
ACAD_PROXY_OBJECT
  5
51
102
{ACAD_REACTORS
330
47
102
}
330
47
100
AcDbProxyObject
 90
      499
 91
      503
 93
      113
310
904313A34304000000000000444000
  0
ACAD_PROXY_OBJECT
  5
52
102
{ACAD_REACTORS
330
47
102
}
330
47
100
AcDbProxyObject
 90
      499
 91
      503
 93
      113
310
904313A35304000000000000494000
  0
ACAD_PROXY_OBJECT
  5
53
102
{ACAD_REACTORS
330
47
102
}
330
47
100
AcDbProxyObject
 90
      499
 91
      503
 93
      121
310
905313A3130304000000000000594000
  0
ACAD_PROXY_OBJECT
  5
54
102
{ACAD_REACTORS
330
47
102
}
330
47
100
AcDbProxyObject
 90
      499
 91
      503
 93
      105
310
903323A310000000000000010100
  0
ACAD_PROXY_OBJECT
  5
55
102
{ACAD_REACTORS
330
47
102
}
330
47
100
AcDbProxyObject
 90
      499
 91
      503
 93
      105
310
903343A310000000000000410100
  0
ACAD_PROXY_OBJECT
  5
56
102
{ACAD_REACTORS
330
47
102
}
330
47
100
AcDbProxyObject
 90
      499
 91
      503
 93
      105
310
903383A310000000000000810100
  0
ACAD_PROXY_OBJECT
  5
57
102
{ACAD_REACTORS
330
47
102
}
330
47
100
AcDbProxyObject
 90
      499
 91
      503
 93
      113
310
90431303A310000000000000910100
  0
ACAD_PROXY_OBJECT
  5
58
102
{ACAD_REACTORS
330
47
102
}
330
47
100
AcDbProxyObject
 90
      499
 91
      503
 93
      121
310
9053130303A310000000000001650100
  0
ACAD_PROXY_OBJECT
  5
59
102
{ACAD_REACTORS
330
47
102
}
330
47
100
AcDbProxyObject
 90
      499
 91
      503
 93
      257
310
90E312F31323822203D2031272D3022000000000000200FC000000000000284000
  0
ACAD_PROXY_OBJECT
  5
5A
102
{ACAD_REACTORS
330
47
102
}
330
47
100
AcDbProxyObject
 90
      499
 91
      503
 93
      249
310
90D312F363422203D2031272D3022000000000000240FC000000000000284000
  0
ACAD_PROXY_OBJECT
  5
5B
102
{ACAD_REACTORS
330
47
102
}
330
47
100
AcDbProxyObject
 90
      499
 91
      503
 93
      249
310
90D312F333222203D2031272D3022000000000000280FC000000000000284000
  0
ACAD_PROXY_OBJECT
  5
5C
102
{ACAD_REACTORS
330
47
102
}
330
47
100
AcDbProxyObject
 90
      499
 91
      503
 93
      249
310
90D312F313622203D2031272D30220000000000002C0FC000000000000284000
  0
ACAD_PROXY_OBJECT
  5
5D
102
{ACAD_REACTORS
330
47
102
}
330
47
100
AcDbProxyObject
 90
      499
 91
      503
 93
      249
310
90D332F333222203D2031272D30220000000000002E0FC000000000000284000
  0
ACAD_PROXY_OBJECT
  5
5E
102
{ACAD_REACTORS
330
47
102
}
330
47
100
AcDbProxyObject
 90
      499
 91
      503
 93
      241
310
90C312F3822203D2031272D3022000000000000300FC000000000000284000
  0
ACAD_PROXY_OBJECT
  5
5F
102
{ACAD_REACTORS
330
47
102
}
330
47
100
AcDbProxyObject
 90
      499
 91
      503
 93
      249
310
90D332F313622203D2031272D3022000000000000320FC000000000000284000
  0
ACAD_PROXY_OBJECT
  5
60
102
{ACAD_REACTORS
330
47
102
}
330
47
100
AcDbProxyObject
 90
      499
 91
      503
 93
      241
310
90C312F3422203D2031272D3022000000000000340FC000000000000284000
  0
ACAD_PROXY_OBJECT
  5
61
102
{ACAD_REACTORS
330
47
102
}
330
47
100
AcDbProxyObject
 90
      499
 91
      503
 93
      241
310
90C332F3822203D2031272D3022000000000000360FC000000000000284000
  0
ACAD_PROXY_OBJECT
  5
62
102
{ACAD_REACTORS
330
47
102
}
330
47
100
AcDbProxyObject
 90
      499
 91
      503
 93
      241
310
90C312F3222203D2031272D3022000000000000380FC000000000000284000
  0
ACAD_PROXY_OBJECT
  5
63
102
{ACAD_REACTORS
330
47
102
}
330
47
100
AcDbProxyObject
 90
      499
 91
      503
 93
      241
310
90C332F3422203D2031272D30220000000000003A0FC000000000000284000
  0
ACAD_PROXY_OBJECT
  5
64
102
{ACAD_REACTORS
330
47
102
}
330
47
100
AcDbProxyObject
 90
      499
 91
      503
 93
      161
310
90A3122203D2031272D30224000000000000284000
  0
ACAD_PROXY_OBJECT
  5
65
102
{ACAD_REACTORS
330
47
102
}
330
47
100
AcDbProxyObject
 90
      499
 91
      503
 93
      257
310
90E312D312F3222203D2031272D30220000000000003E0FC000000000000284000
  0
ACAD_PROXY_OBJECT
  5
66
102
{ACAD_REACTORS
330
47
102
}
330
47
100
AcDbProxyObject
 90
      499
 91
      503
 93
      225
310
90A3322203D2031272D302200000000000002100000000000000284000
  0
ACAD_PROXY_OBJECT
  5
67
102
{ACAD_REACTORS
330
47
102
}
330
47
100
AcDbProxyObject
 90
      499
 91
      503
 93
      225
310
90A3622203D2031272D302200000000000006100000000000000284000
  0
ACAD_PROXY_OBJECT
  5
68
102
{ACAD_REACTORS
330
47
102
}
330
47
100
AcDbProxyObject
 90
      499
 91
      503
 93
      249
310
90D31272D3022203D2031272D30220000000000000A100000000000000284000
  0
ACAD_PROXY_OBJECT
  5
2F
102
{ACAD_REACTORS
330
2A
102
}
330
2A
100
AcDbProxyObject
 90
      499
 91
      501
 93
      436
310
42CC9915DA5C99599C985B595049028333333333333E33F0000000000000F90107901411070040501600405405064090741402480A0340
1001
ACAD
1000
AcDbSavedByObjectVersion
1070
     0
  0
ACAD_PROXY_OBJECT
  5
32
102
{ACAD_REACTORS
330
2A
102
}
330
2A
100
AcDbProxyObject
 90
      499
 91
      501
 93
      388
310
4150985CDA58D07406404333333333333E33F0000000000000F90107A41107004050150841D405064090741402480A0350
1001
ACAD
1000
AcDbSavedByObjectVersion
1070
     0
  0
ACAD_PROXY_OBJECT
  5
36
102
{ACAD_REACTORS
330
2A
102
}
330
2A
100
AcDbProxyObject
 90
      499
 91
      501
 93
      428
310
42109C9A59DA1D195B90C409028333333333333E33F0000000000000F9010790141107004050150841D405064090741402480A029950
1001
ACAD
1000
AcDbSavedByObjectVersion
1070
     0
  0
ACAD_PROXY_OBJECT
  5
3A
102
{ACAD_REACTORS
330
2A
102
}
330
2A
100
AcDbProxyObject
 90
      499
 91
      501
 93
      452
310
42D0DBDB1BDC90DA185B99D95104090240C333333333333E33F0000000000000F90108901411070040501508421405064090741402480A0350
1001
ACAD
1000
AcDbSavedByObjectVersion
1070
     0
  0
ACAD_PROXY_OBJECT
  5
34
102
{ACAD_REACTORS
330
2A
102
}
330
2A
100
AcDbProxyObject
 90
      499
 91
      501
 93
      500
310
4290DBDB98D95C1D1D585B10940D028333333333333E33F0000000000000F90107902409070040501000000000018199010841D405064090740C02480A0340
1001
ACAD
1000
AcDbSavedByObjectVersion
1070
     0
  0
ACAD_PROXY_OBJECT
  5
35
102
{ACAD_REACTORS
330
2A
102
}
330
2A
100
AcDbProxyObject
 90
      499
 91
      501
 93
      412
310
40D11A5B50B409028333333333333E33F0000000000000F9010790141107004050150841D405064090741402480A02677FFFFFD0
1001
ACAD
1000
AcDbSavedByObjectVersion
1070
     0
  0
ACAD_PROXY_OBJECT
  5
3D
102
{ACAD_REACTORS
330
2A
102
}
330
2A
100
AcDbProxyObject
 90
      499
 91
      501
 93
      452
310
43115919D950DBDB1BDC93D999916409028333333333333E33F0000000000000F9010790141107004050150841D405064090741402480A0350
1001
ACAD
1000
AcDbSavedByObjectVersion
1070
     0
  0
ACAD_PROXY_OBJECT
  5
39
102
{ACAD_REACTORS
330
2A
102
}
330
2A
100
AcDbProxyObject
 90
      499
 91
      501
 93
      444
310
42D19858D95C185D1D195C9B90F409028333333333333E33F0000000000000F9010790141107004050150841D405064090741402480A0350
1001
ACAD
1000
AcDbSavedByObjectVersion
1070
     0
  0
ACAD_PROXY_OBJECT
  5
2B
102
{ACAD_REACTORS
330
2A
102
}
330
2A
100
AcDbProxyObject
 90
      499
 91
      501
 93
      380
310
41119B185D240901404333333333333E33F0000000000000F9010740A907004050150841D405064090741402480A1B50
1001
ACAD
1000
AcDbSavedByObjectVersion
1070
     0
  0
ACAD_PROXY_OBJECT
  5
2C
102
{ACAD_REACTORS
330
2A
102
}
330
2A
100
AcDbProxyObject
 90
      499
 91
      501
 93
      468
310
43519B185D15DA5D1A115919D95CD0140901404333333333333E33F0000000000000F90107409019070040501600405405064090741402480A1B50
1001
ACAD
1000
AcDbSavedByObjectVersion
1070
     0
  0
ACAD_PROXY_OBJECT
  5
2D
102
{ACAD_REACTORS
330
2A
102
}
330
2A
100
AcDbProxyObject
 90
      499
 91
      501
 93
      404
310
41D1DBDD5C985D5910240902404333333333333E33F0000000000000F9010740A9070040501641D405064090741402480A1B50
1001
ACAD
1000
AcDbSavedByObjectVersion
1070
     0
  0
ACAD_PROXY_OBJECT
  5
2E
102
{ACAD_REACTORS
330
2A
102
}
330
2A
100
AcDbProxyObject
 90
      499
 91
      501
 93
      492
310
4411DBDD5C985D5915DA5D1A115919D95CD0340902404333333333333E33F0000000000000F90107409019070040501600405405064090741402480A1B50
1001
ACAD
1000
AcDbSavedByObjectVersion
1070
     0
  0
ACAD_PROXY_OBJECT
  5
31
102
{ACAD_REACTORS
330
2A
102
}
330
2A
100
AcDbProxyObject
 90
      499
 91
      501
 93
      476
310
41921A5919195B90640502408333333333333E33F0000000000000F901079024090700405020000000000001110200405405064090740C02480A0340
1001
ACAD
1000
AcDbSavedByObjectVersion
1070
     0
  0
ACAD_PROXY_OBJECT
  5
3B
102
{ACAD_REACTORS
330
2A
102
}
330
2A
100
AcDbProxyObject
 90
      499
 91
      501
 93
      428
310
42529A5D1D195C93D999914409028333333333333E33F0000000000000F9010790141107004050150A41D405064090741402480A0350
1001
ACAD
1000
AcDbSavedByObjectVersion
1070
     0
  0
ACAD_PROXY_OBJECT
  5
38
102
{ACAD_REACTORS
330
2A
102
}
330
2A
100
AcDbProxyObject
 90
      499
 91
      501
 93
      444
310
42D31A5B995C185D1D195C9B90E409028333333333333E33F0000000000000F9010790141107004050750841D405064090741402483A0350
1001
ACAD
1000
AcDbSavedByObjectVersion
1070
     0
  0
ACAD_PROXY_OBJECT
  5
3C
102
{ACAD_REACTORS
330
2A
102
}
330
2A
100
AcDbProxyObject
 90
      499
 91
      501
 93
      444
310
42D3DD995C9A185B99D3D999915409028333333333333E33F0000000000000F9010790141107004050150941D405064090741402480A0350
1001
ACAD
1000
AcDbSavedByObjectVersion
1070
     0
  0
ACAD_PROXY_OBJECT
  5
33
102
{ACAD_REACTORS
330
2A
102
}
330
2A
100
AcDbProxyObject
 90
      499
 91
      501
 93
      428
310
425499585B1A5CDD1A58D08409038333333333333E33F0000000000000F9010740A907004050150800405405064090740C02480A1B40
1001
ACAD
1000
AcDbSavedByObjectVersion
1070
     0
  0
ACAD_PROXY_OBJECT
  5
42
102
{ACAD_REACTORS
330
2A
102
}
330
2A
100
AcDbProxyObject
 90
      499
 91
      501
 93
      420
310
4194DA1859195911B40902404333333333333E33F0000000000000F9010740A41107004050150800405405064090840C02480A0B40
1001
ACAD
1000
AcDbSavedByObjectVersion
1070
     0
  0
ACAD_PROXY_OBJECT
  5
41
102
{ACAD_REACTORS
330
2A
102
}
330
2A
100
AcDbProxyObject
 90
      499
 91
      501
 93
      516
310
4454DA18591959081DDA5D1A08195919D95CD1A40902404333333333333E33F0000000000000F901074090142907004050250800405405064090740C02480A0B40
1001
ACAD
1000
AcDbSavedByObjectVersion
1070
     0
  0
ACAD_PROXY_OBJECT
  5
3E
102
{ACAD_REACTORS
330
2A
102
}
330
2A
100
AcDbProxyObject
 90
      499
 91
      501
 93
      532
310
4394DA1859195CC81BD98811DC985E5174090240C333333333333E33F0000000000000F901079024090741D01000000000000111010841D405064090740C02480A0340
1001
ACAD
1000
AcDbSavedByObjectVersion
1070
     0
  0
ACAD_PROXY_OBJECT
  5
3F
102
{ACAD_REACTORS
330
2A
102
}
330
2A
100
AcDbProxyObject
 90
      499
 91
      501
 93
      476
310
41D4DAD95D18DA1E51840502408333333333333E33F0000000000000F901079024090741D01000000000000111010B41D405064090741802480A0340
1001
ACAD
1000
AcDbSavedByObjectVersion
1070
     0
  0
ACAD_PROXY_OBJECT
  5
37
102
{ACAD_REACTORS
330
2A
102
}
330
2A
100
AcDbProxyObject
 90
      499
 91
      501
 93
      412
310
41D51A1A58DAD95B90D409028333333333333E33F0000000000000F9010790141107004050150C41D405064090741402480A0350
1001
ACAD
1000
AcDbSavedByObjectVersion
1070
     0
  0
ACAD_PROXY_OBJECT
  5
30
102
{ACAD_REACTORS
330
2A
102
}
330
2A
100
AcDbProxyObject
 90
      499
 91
      501
 93
      420
310
4255DA5C99599C985B595059028333333333333E33F0000000000000F90107901411070040501600405405064090740C02480A0340
1001
ACAD
1000
AcDbSavedByObjectVersion
1070
     0
  0
ACAD_PROXY_OBJECT
  5
40
102
{ACAD_REACTORS
330
2A
102
}
330
2A
100
AcDbProxyObject
 90
      499
 91
      501
 93
      404
310
41560B54985E51940902404000000000000E03F0000000000000F9010740501907004050150841D405064090740C02480A1B40
1001
ACAD
1000
AcDbSavedByObjectVersion
1070
     0
  0
XRECORD
  5
4F3
102
{ACAD_REACTORS
330
4E9
102
}
330
4E9
100
AcDbXrecord
340
0
  0
XRECORD
  5
4F2
102
{ACAD_REACTORS
330
4E9
102
}
330
4E9
100
AcDbXrecord
 90
        0
  0
XRECORD
  5
509
102
{ACAD_REACTORS
330
4E9
102
}
330
4E9
100
AcDbXrecord
1000
DSTYLE
1002
{
1070
   340
340
11
1002
}
  0
XRECORD
  5
4F4
102
{ACAD_REACTORS
330
4E9
102
}
330
4E9
100
AcDbXrecord
  1
{2e3b2c45-bd63-4be4-8b67-8e90a423b7c7}
  0
XRECORD
  5
4EC
102
{ACAD_REACTORS
330
4E9
102
}
330
4E9
100
AcDbXrecord
  1

  0
XRECORD
  5
4F1
102
{ACAD_REACTORS
330
4E9
102
}
330
4E9
100
AcDbXrecord
 90
        4
  0
XRECORD
  5
4EE
102
{ACAD_REACTORS
330
4E9
102
}
330
4E9
100
AcDbXrecord
340
1A
  0
XRECORD
  5
4F0
102
{ACAD_REACTORS
330
4E9
102
}
330
4E9
100
AcDbXrecord
 90
    10781
  0
XRECORD
  5
4EF
102
{ACAD_REACTORS
330
4E9
102
}
330
4E9
100
AcDbXrecord
340
19
  0
XRECORD
  5
4F6
102
{ACAD_REACTORS
330
4E9
102
}
330
4E9
100
AcDbXrecord
 40
0.0
  0
XRECORD
  5
4F9
102
{ACAD_REACTORS
330
4E9
102
}
330
4E9
100
AcDbXrecord
340
0
  0
XRECORD
  5
4FF
102
{ACAD_REACTORS
330
4E9
102
}
330
4E9
100
AcDbXrecord
 10
0.0
 20
0.0
 30
0.0
  0
XRECORD
  5
4FB
102
{ACAD_REACTORS
330
4E9
102
}
330
4E9
100
AcDbXrecord
 10
0.0
 20
0.0
 30
0.0
  0
XRECORD
  5
4FE
102
{ACAD_REACTORS
330
4E9
102
}
330
4E9
100
AcDbXrecord
 10
0.0
 20
0.0
 30
0.0
  0
XRECORD
  5
4FC
102
{ACAD_REACTORS
330
4E9
102
}
330
4E9
100
AcDbXrecord
 10
0.0
 20
0.0
 30
0.0
  0
XRECORD
  5
4FD
102
{ACAD_REACTORS
330
4E9
102
}
330
4E9
100
AcDbXrecord
 10
0.0
 20
0.0
 30
0.0
  0
XRECORD
  5
4FA
102
{ACAD_REACTORS
330
4E9
102
}
330
4E9
100
AcDbXrecord
 10
0.0
 20
0.0
 30
0.0
  0
XRECORD
  5
4F7
102
{ACAD_REACTORS
330
4E9
102
}
330
4E9
100
AcDbXrecord
340
0
  0
XRECORD
  5
4F8
102
{ACAD_REACTORS
330
4E9
102
}
330
4E9
100
AcDbXrecord
 70
     0
  0
XRECORD
  5
4ED
102
{ACAD_REACTORS
330
4E9
102
}
330
4E9
100
AcDbXrecord
  1

  0
XRECORD
  5
4EA
102
{ACAD_REACTORS
330
4E9
102
}
330
4E9
100
AcDbXrecord
 90
        1
  0
XRECORD
  5
4EB
102
{ACAD_REACTORS
330
4E9
102
}
330
4E9
100
AcDbXrecord
 90
       70
  0
XRECORD
  5
502
102
{ACAD_REACTORS
330
4E9
102
}
330
4E9
100
AcDbXrecord
340
0
  0
XRECORD
  5
508
102
{ACAD_REACTORS
330
4E9
102
}
330
4E9
100
AcDbXrecord
 10
0.0
 20
0.0
 30
0.0
  0
XRECORD
  5
504
102
{ACAD_REACTORS
330
4E9
102
}
330
4E9
100
AcDbXrecord
 10
0.0
 20
0.0
 30
0.0
  0
XRECORD
  5
507
102
{ACAD_REACTORS
330
4E9
102
}
330
4E9
100
AcDbXrecord
 10
0.0
 20
0.0
 30
0.0
  0
XRECORD
  5
505
102
{ACAD_REACTORS
330
4E9
102
}
330
4E9
100
AcDbXrecord
 10
0.0
 20
0.0
 30
0.0
  0
XRECORD
  5
506
102
{ACAD_REACTORS
330
4E9
102
}
330
4E9
100
AcDbXrecord
 10
0.0
 20
0.0
 30
0.0
  0
XRECORD
  5
503
102
{ACAD_REACTORS
330
4E9
102
}
330
4E9
100
AcDbXrecord
 10
0.0
 20
0.0
 30
0.0
  0
XRECORD
  5
500
102
{ACAD_REACTORS
330
4E9
102
}
330
4E9
100
AcDbXrecord
340
0
  0
XRECORD
  5
501
102
{ACAD_REACTORS
330
4E9
102
}
330
4E9
100
AcDbXrecord
 70
     0
  0
XRECORD
  5
4F5
102
{ACAD_REACTORS
330
4E9
102
}
330
4E9
100
AcDbXrecord
  1
{FAEB1C32-E019-11D5-929B-00C0DF256EC4}
  0
DICTIONARYVAR
  5
517
102
{ACAD_REACTORS
330
50A
102
}
330
50A
100
DictionaryVariables
280
     0
  1
1:1
  0
DICTIONARYVAR
  5
511
102
{ACAD_REACTORS
330
50A
102
}
330
50A
100
DictionaryVariables
280
     0
  1
3.500000
  0
DICTIONARYVAR
  5
512
102
{ACAD_REACTORS
330
50A
102
}
330
50A
100
DictionaryVariables
280
     0
  1
acadiso.lin
  0
DICTIONARYVAR
  5
50C
102
{ACAD_REACTORS
330
50A
102
}
330
50A
100
DictionaryVariables
280
     0
  1
Standard
  0
DICTIONARYVAR
  5
50B
102
{ACAD_REACTORS
330
50A
102
}
330
50A
100
DictionaryVariables
280
     0
  1
Standard
  0
DICTIONARYVAR
  5
513
102
{ACAD_REACTORS
330
50A
102
}
330
50A
100
DictionaryVariables
280
     0
  1
2
  0
DICTIONARYVAR
  5
514
102
{ACAD_REACTORS
330
50A
102
}
330
50A
100
DictionaryVariables
280
     0
  1
1
  0
DICTIONARYVAR
  5
518
102
{ACAD_REACTORS
330
50A
102
}
330
50A
100
DictionaryVariables
280
     0
  1
1
  0
DICTIONARYVAR
  5
50E
102
{ACAD_REACTORS
330
50A
102
}
330
50A
100
DictionaryVariables
280
     0
  1
80.000000
  0
DICTIONARYVAR
  5
50D
102
{ACAD_REACTORS
330
50A
102
}
330
50A
100
DictionaryVariables
280
     0
  1
5.000000
  0
DICTIONARY
  5
51B
330
45
100
AcDbDictionary
280
     1
  3
ACAD_XREC_ROUNDTRIP
360
51C
  0
DICTIONARY
  5
519
330
44
100
AcDbDictionary
280
     1
  3
ACAD_XREC_ROUNDTRIP
360
51A
  0
DICTIONARY
  5
51D
330
46
100
AcDbDictionary
280
     1
  3
ACAD_XREC_ROUNDTRIP
360
51E
  0
XRECORD
  5
51C
102
{ACAD_REACTORS
330
51B
102
}
330
51B
100
AcDbXrecord
102
MATERIAL
148
0.0
149
0.0
149
0.0
 93
        0
 94
      127
282
     0
 72
     1
 77
     1
171
     1
175
     1
179
     1
273
     0
  0
XRECORD
  5
51A
102
{ACAD_REACTORS
330
519
102
}
330
519
100
AcDbXrecord
102
MATERIAL
148
0.0
149
0.0
149
0.0
 93
        0
 94
      127
282
     0
 72
     1
 77
     1
171
     1
175
     1
179
     1
273
     0
  0
XRECORD
  5
51E
102
{ACAD_REACTORS
330
51D
102
}
330
51D
100
AcDbXrecord
102
MATERIAL
148
0.0
149
0.0
149
0.0
 93
        0
 94
      127
282
     0
 72
     1
 77
     1
171
     1
175
     1
179
     1
273
     0
  0
ENDSEC
  0
EOF
