  0
SECTION
  2
HEADER
  9
$ACADVER
  1
AC1014
  9
$ACADMAINTVER
 70
     9
  9
$DWGCODEPAGE
  3
ANSI_932
  9
$INSBASE
 10
0.0
 20
0.0
 30
0.0
  9
$EXTMIN
 10
60.0
 20
60.0
 30
0.0
  9
$EXTMAX
 10
2460.0
 20
1722.0
 30
0.0
  9
$LIMMIN
 10
0.0
 20
0.0
  9
$LIMMAX
 10
420.0
 20
297.0
  9
$ORTHOMODE
 70
     0
  9
$REGENMODE
 70
     1
  9
$FILLMODE
 70
     1
  9
$QTEXTMODE
 70
     0
  9
$MIRRTEXT
 70
     1
  9
$DRAGMODE
 70
     2
  9
$LTSCALE
 40
1.0
  9
$OSMODE
 70
    37
  9
$ATTMODE
 70
     1
  9
$TEXTSIZE
 40
2.5
  9
$TRACEWID
 40
1.0
  9
$TEXTSTYLE
  7
STANDARD
  9
$CLAYER
  8
Ｓ_１_１
  9
$CELTYPE
  6
BYLAYER
  9
$CECOLOR
 62
   256
  9
$CELTSCALE
 40
1.0
  9
$DELOBJ
 70
     1
  9
$DISPSILH
 70
     0
  9
$DIMSCALE
 40
1.0
  9
$DIMASZ
 40
2.5
  9
$DIMEXO
 40
0.625
  9
$DIMDLI
 40
3.75
  9
$DIMRND
 40
0.0
  9
$DIMDLE
 40
0.0
  9
$DIMEXE
 40
1.25
  9
$DIMTP
 40
0.0
  9
$DIMTM
 40
0.0
  9
$DIMTXT
 40
2.5
  9
$DIMCEN
 40
2.5
  9
$DIMTSZ
 40
0.0
  9
$DIMTOL
 70
     0
  9
$DIMLIM
 70
     0
  9
$DIMTIH
 70
     0
  9
$DIMTOH
 70
     0
  9
$DIMSE1
 70
     0
  9
$DIMSE2
 70
     0
  9
$DIMTAD
 70
     1
  9
$DIMZIN
 70
     8
  9
$DIMBLK
  1

  9
$DIMASO
 70
     1
  9
$DIMSHO
 70
     1
  9
$DIMPOST
  1

  9
$DIMAPOST
  1

  9
$DIMALT
 70
     0
  9
$DIMALTD
 70
     3
  9
$DIMALTF
 40
0.03937007874016
  9
$DIMLFAC
 40
1.0
  9
$DIMTOFL
 70
     1
  9
$DIMTVP
 40
0.0
  9
$DIMTIX
 70
     0
  9
$DIMSOXD
 70
     0
  9
$DIMSAH
 70
     0
  9
$DIMBLK1
  1

  9
$DIMBLK2
  1

  9
$DIMSTYLE
  2
ISO-25
  9
$DIMCLRD
 70
     0
  9
$DIMCLRE
 70
     0
  9
$DIMCLRT
 70
     0
  9
$DIMTFAC
 40
1.0
  9
$DIMGAP
 40
0.625
  9
$DIMJUST
 70
     0
  9
$DIMSD1
 70
     0
  9
$DIMSD2
 70
     0
  9
$DIMTOLJ
 70
     0
  9
$DIMTZIN
 70
     8
  9
$DIMALTZ
 70
     0
  9
$DIMALTTZ
 70
     0
  9
$DIMFIT
 70
     3
  9
$DIMUPT
 70
     0
  9
$DIMUNIT
 70
     2
  9
$DIMDEC
 70
     2
  9
$DIMTDEC
 70
     2
  9
$DIMALTU
 70
     2
  9
$DIMALTTD
 70
     3
  9
$DIMTXSTY
  7
STANDARD
  9
$DIMAUNIT
 70
     0
  9
$LUNITS
 70
     2
  9
$LUPREC
 70
     4
  9
$SKETCHINC
 40
1.0
  9
$FILLETRAD
 40
10.0
  9
$AUNITS
 70
     0
  9
$AUPREC
 70
     0
  9
$MENU
  1
.
  9
$ELEVATION
 40
0.0
  9
$PELEVATION
 40
0.0
  9
$THICKNESS
 40
0.0
  9
$LIMCHECK
 70
     0
  9
$CHAMFERA
 40
0.0
  9
$CHAMFERB
 40
0.0
  9
$CHAMFERC
 40
0.0
  9
$CHAMFERD
 40
0.0
  9
$SKPOLY
 70
     0
  9
$TDCREATE
 40
2459585.497386944
  9
$TDUPDATE
 40
2459585.497389062
  9
$TDINDWG
 40
0.0000000116
  9
$TDUSRTIMER
 40
0.0000000116
  9
$USRTIMER
 70
     1
  9
$ANGBASE
 50
0.0
  9
$ANGDIR
 70
     0
  9
$PDMODE
 70
     0
  9
$PDSIZE
 40
0.0
  9
$PLINEWID
 40
0.0
  9
$COORDS
 70
     1
  9
$SPLFRAME
 70
     0
  9
$SPLINETYPE
 70
     6
  9
$SPLINESEGS
 70
     8
  9
$ATTDIA
 70
     0
  9
$ATTREQ
 70
     1
  9
$HANDLING
 70
     1
  9
$HANDSEED
  5
40E
  9
$SURFTAB1
 70
     6
  9
$SURFTAB2
 70
     6
  9
$SURFTYPE
 70
     6
  9
$SURFU
 70
     6
  9
$SURFV
 70
     6
  9
$UCSNAME
  2

  9
$UCSORG
 10
0.0
 20
0.0
 30
0.0
  9
$UCSXDIR
 10
1.0
 20
0.0
 30
0.0
  9
$UCSYDIR
 10
0.0
 20
1.0
 30
0.0
  9
$PUCSNAME
  2

  9
$PUCSORG
 10
0.0
 20
0.0
 30
0.0
  9
$PUCSXDIR
 10
1.0
 20
0.0
 30
0.0
  9
$PUCSYDIR
 10
0.0
 20
1.0
 30
0.0
  9
$USERI1
 70
     0
  9
$USERI2
 70
     0
  9
$USERI3
 70
     0
  9
$USERI4
 70
     0
  9
$USERI5
 70
     0
  9
$USERR1
 40
0.0
  9
$USERR2
 40
0.0
  9
$USERR3
 40
0.0
  9
$USERR4
 40
0.0
  9
$USERR5
 40
0.0
  9
$WORLDVIEW
 70
     1
  9
$SHADEDGE
 70
     3
  9
$SHADEDIF
 70
    70
  9
$TILEMODE
 70
     1
  9
$MAXACTVP
 70
    64
  9
$PINSBASE
 10
0.0
 20
0.0
 30
0.0
  9
$PLIMCHECK
 70
     0
  9
$PEXTMIN
 10
1.000000000000000E+20
 20
1.000000000000000E+20
 30
1.000000000000000E+20
  9
$PEXTMAX
 10
-1.000000000000000E+20
 20
-1.000000000000000E+20
 30
-1.000000000000000E+20
  9
$PLIMMIN
 10
0.0
 20
0.0
  9
$PLIMMAX
 10
420.0
 20
297.0
  9
$UNITMODE
 70
     0
  9
$VISRETAIN
 70
     1
  9
$PLINEGEN
 70
     0
  9
$PSLTSCALE
 70
     1
  9
$TREEDEPTH
 70
  3020
  9
$PICKSTYLE
 70
     1
  9
$CMLSTYLE
  2
STANDARD
  9
$CMLJUST
 70
     0
  9
$CMLSCALE
 40
20.0
  9
$PROXYGRAPHICS
 70
     1
  9
$MEASUREMENT
 70
     1
  0
ENDSEC
  0
SECTION
  2
CLASSES
  0
CLASS
  1
ACDBDICTIONARYWDFLT
  2
AcDbDictionaryWithDefault
  3
ObjectDBX Classes
 90
        0
280
     0
281
     0
  0
CLASS
  1
VISUALSTYLE
  2
AcDbVisualStyle
  3
ObjectDBX Classes
 90
     4095
280
     0
281
     0
  0
CLASS
  1
MATERIAL
  2
AcDbMaterial
  3
ObjectDBX Classes
 90
     1153
280
     0
281
     0
  0
CLASS
  1
SCALE
  2
AcDbScale
  3
ObjectDBX Classes
 90
     1153
280
     0
281
     0
  0
CLASS
  1
TABLESTYLE
  2
AcDbTableStyle
  3
ObjectDBX Classes
 90
     4095
280
     0
281
     0
  0
CLASS
  1
MLEADERSTYLE
  2
AcDbMLeaderStyle
  3
ACDB_MLEADERSTYLE_CLASS
 90
     4095
280
     0
281
     0
  0
CLASS
  1
SUN
  2
AcDbSun
  3
SCENEOE
 90
     1153
280
     0
281
     0
  0
CLASS
  1
DICTIONARYVAR
  2
AcDbDictionaryVar
  3
ObjectDBX Classes
 90
        0
280
     0
281
     0
  0
CLASS
  1
XRECORD
  2
AcDbXrecord
  3
ObjectDBX Classes
 90
        0
280
     0
281
     0
  0
CLASS
  1
LWPOLYLINE
  2
AcDbPolyline
  3
ObjectDBX Classes
 90
        0
280
     0
281
     1
  0
CLASS
  1
HATCH
  2
AcDbHatch
  3
ObjectDBX Classes
 90
        0
280
     0
281
     1
  0
CLASS
  1
ACDBPLACEHOLDER
  2
AcDbPlaceHolder
  3
ObjectDBX Classes
 90
        0
280
     0
281
     0
  0
CLASS
  1
LAYOUT
  2
AcDbLayout
  3
ObjectDBX Classes
 90
        0
280
     0
281
     0
  0
ENDSEC
  0
SECTION
  2
TABLES
  0
TABLE
  2
VPORT
  5
8
102
{ACAD_XDICTIONARY
360
403
102
}
330
0
100
AcDbSymbolTable
 70
     1
  0
VPORT
  5
29
330
8
100
AcDbSymbolTableRecord
100
AcDbViewportTableRecord
  2
*ACTIVE
 70
     0
 10
0.0
 20
0.0
 11
1.0
 21
1.0
 12
1260.0
 22
891.0
 13
0.0
 23
0.0
 14
10.0
 24
10.0
 15
10.0
 25
10.0
 16
0.0
 26
0.0
 36
1.0
 17
0.0
 27
0.0
 37
0.0
 40
1662.0
 41
1.444043321299639
 42
50.0
 43
0.0
 44
0.0
 50
0.0
 51
0.0
 71
     0
 72
  1000
 73
     1
 74
     3
 75
     0
 76
     0
 77
     0
 78
     0
  0
ENDTAB
  0
TABLE
  2
LTYPE
  5
5
330
0
100
AcDbSymbolTable
 70
     7
  0
LTYPE
  5
14
330
5
100
AcDbSymbolTableRecord
100
AcDbLinetypeTableRecord
  2
BYBLOCK
 70
     0
  3

 72
    65
 73
     0
 40
0.0
  0
LTYPE
  5
15
330
5
100
AcDbSymbolTableRecord
100
AcDbLinetypeTableRecord
  2
BYLAYER
 70
     0
  3

 72
    65
 73
     0
 40
0.0
  0
LTYPE
  5
16
330
5
100
AcDbSymbolTableRecord
100
AcDbLinetypeTableRecord
  2
CONTINUOUS
 70
     0
  3
Solid line
 72
    65
 73
     0
 40
0.0
  0
LTYPE
  5
6E
330
5
100
AcDbSymbolTableRecord
100
AcDbLinetypeTableRecord
  2
EXLTYPE0
 70
     0
  3
破線
 72
    65
 73
     2
 40
4.0
 49
3.0
 74
     0
 49
-1.0
 74
     0
  0
LTYPE
  5
6F
330
5
100
AcDbSymbolTableRecord
100
AcDbLinetypeTableRecord
  2
EXLTYPE1
 70
     0
  3
点線
 72
    65
 73
     2
 40
2.0
 49
1.0
 74
     0
 49
-1.0
 74
     0
  0
LTYPE
  5
70
330
5
100
AcDbSymbolTableRecord
100
AcDbLinetypeTableRecord
  2
EXLTYPE2
 70
     0
  3
一点鎖線
 72
    65
 73
     4
 40
13.0
 49
10.0
 74
     0
 49
-1.0
 74
     0
 49
1.0
 74
     0
 49
-1.0
 74
     0
  0
LTYPE
  5
71
330
5
100
AcDbSymbolTableRecord
100
AcDbLinetypeTableRecord
  2
EXLTYPE3
 70
     0
  3
二点鎖線
 72
    65
 73
     6
 40
15.0
 49
10.0
 74
     0
 49
-1.0
 74
     0
 49
1.0
 74
     0
 49
-1.0
 74
     0
 49
1.0
 74
     0
 49
-1.0
 74
     0
  0
LTYPE
  5
72
330
5
100
AcDbSymbolTableRecord
100
AcDbLinetypeTableRecord
  2
EXLTYPE4
 70
     0
  3
一点鎖線2
 72
    65
 73
     4
 40
3.5
 49
2.0
 74
     0
 49
-0.5
 74
     0
 49
0.5
 74
     0
 49
-0.5
 74
     0
  0
LTYPE
  5
73
330
5
100
AcDbSymbolTableRecord
100
AcDbLinetypeTableRecord
  2
EXLTYPE5
 70
     0
  3
二点鎖線2
 72
    65
 73
     6
 40
4.5
 49
2.0
 74
     0
 49
-0.5
 74
     0
 49
0.5
 74
     0
 49
-0.5
 74
     0
 49
0.5
 74
     0
 49
-0.5
 74
     0
  0
ENDTAB
  0
TABLE
  2
LAYER
  5
2
330
0
100
AcDbSymbolTable
 70
     4
  0
LAYER
  5
10
330
2
100
AcDbSymbolTableRecord
100
AcDbLayerTableRecord
  2
0
 70
     0
 62
     7
  6
CONTINUOUS
  0
LAYER
  5
76
330
2
100
AcDbSymbolTableRecord
100
AcDbLayerTableRecord
  2
図面枠
 70
     4
 62
     7
  6
CONTINUOUS
  0
LAYER
  5
77
330
2
100
AcDbSymbolTableRecord
100
AcDbLayerTableRecord
  2
Ｓ_１_１
 70
     0
 62
     7
  6
CONTINUOUS
  0
LAYER
  5
129
330
2
100
AcDbSymbolTableRecord
100
AcDbLayerTableRecord
  2
DEFPOINTS
 70
     0
 62
     7
  6
CONTINUOUS
  0
ENDTAB
  0
TABLE
  2
STYLE
  5
3
330
0
100
AcDbSymbolTable
 70
     5
  0
STYLE
  5
11
330
3
100
AcDbSymbolTableRecord
100
AcDbTextStyleTableRecord
  2
STANDARD
 70
     0
 40
0.0
 41
1.0
 50
0.0
 71
     0
 42
2.5
  3
monotxt
  4
extfont
  0
STYLE
  5
74
330
3
100
AcDbSymbolTableRecord
100
AcDbTextStyleTableRecord
  2
EXCADSTD
 70
     0
 40
0.0
 41
1.0
 50
0.0
 71
     0
 42
2.5
  3
monotxt
  4
extfont
  0
STYLE
  5
75
330
3
100
AcDbSymbolTableRecord
100
AcDbTextStyleTableRecord
  2
EXCADVERT
 70
     4
 40
0.0
 41
1.0
 50
0.0
 71
     0
 42
2.5
  3
monotxt
  4
extfont
  0
STYLE
  5
D9
330
3
100
AcDbSymbolTableRecord
100
AcDbTextStyleTableRecord
  2
EXCADTTF1
 70
     0
 40
0.0
 41
1.0
 50
0.0
 71
     0
 42
2.5
  3
msgothic.ttc
  4

1001
ACAD
1000
MS Gothic
1071
    32817
  0
STYLE
  5
127
330
3
100
AcDbSymbolTableRecord
100
AcDbTextStyleTableRecord
  2
EXCADDIM1
 70
     0
 40
0.0
 41
1.0
 50
0.0
 71
     0
 42
2.5
  3
msgothic.ttc
  4

1001
ACAD
1000
MS Gothic
1071
    32817
  0
ENDTAB
  0
TABLE
  2
VIEW
  5
6
330
0
100
AcDbSymbolTable
 70
     0
  0
ENDTAB
  0
TABLE
  2
UCS
  5
7
330
0
100
AcDbSymbolTable
 70
     0
  0
ENDTAB
  0
TABLE
  2
APPID
  5
9
330
0
100
AcDbSymbolTable
 70
     2
  0
APPID
  5
12
330
9
100
AcDbSymbolTableRecord
100
AcDbRegAppTableRecord
  2
ACAD
 70
     0
  0
APPID
  5
40D
330
9
100
AcDbSymbolTableRecord
100
AcDbRegAppTableRecord
  2
ACAD_MLEADERVER
 70
     0
  0
ENDTAB
  0
TABLE
  2
DIMSTYLE
  5
A
330
0
100
AcDbSymbolTable
 70
     1
  0
DIMSTYLE
105
27
102
{ACAD_REACTORS
330
128
330
136
330
140
330
14D
330
159
330
166
330
173
330
180
330
18C
330
197
330
1A4
330
1B0
330
1BF
330
1CB
330
1D7
330
1E3
330
1F0
330
1FB
330
208
330
217
330
22B
330
238
330
245
330
252
330
25F
330
3B5
330
3C4
102
}
330
A
100
AcDbSymbolTableRecord
100
AcDbDimStyleTableRecord
  2
ISO-25
 70
     0
  3

  4

  5

  6

  7

 40
1.0
 41
2.5
 42
0.625
 43
3.75
 44
1.25
 45
0.0
 46
0.0
 47
0.0
 48
0.0
140
2.5
141
2.5
142
0.0
143
0.03937007874016
144
1.0
145
0.0
146
1.0
147
0.625
 71
     0
 72
     0
 73
     0
 74
     0
 75
     0
 76
     0
 77
     1
 78
     8
170
     0
171
     3
172
     1
173
     0
174
     0
175
     0
176
     0
177
     0
178
     0
270
     2
271
     2
272
     2
273
     2
274
     3
340
11
275
     0
280
     0
281
     0
282
     0
283
     0
284
     8
285
     0
286
     0
287
     5
288
     0
  0
ENDTAB
  0
TABLE
  2
BLOCK_RECORD
  5
1
330
0
100
AcDbSymbolTable
 70
    41
  0
BLOCK_RECORD
  5
1F
330
1
100
AcDbSymbolTableRecord
100
AcDbBlockTableRecord
  2
*MODEL_SPACE
  0
BLOCK_RECORD
  5
1B
330
1
100
AcDbSymbolTableRecord
100
AcDbBlockTableRecord
  2
*PAPER_SPACE
  0
BLOCK_RECORD
  5
78
330
1
100
AcDbSymbolTableRecord
100
AcDbBlockTableRecord
  2
EX_NORM
  0
BLOCK_RECORD
  5
7B
330
1
100
AcDbSymbolTableRecord
100
AcDbBlockTableRecord
  2
EX_BNORM
  0
BLOCK_RECORD
  5
7E
330
1
100
AcDbSymbolTableRecord
100
AcDbBlockTableRecord
  2
EX_BCIR
  0
BLOCK_RECORD
  5
81
330
1
100
AcDbSymbolTableRecord
100
AcDbBlockTableRecord
  2
EX_RCIVIL
  0
BLOCK_RECORD
  5
84
330
1
100
AcDbSymbolTableRecord
100
AcDbBlockTableRecord
  2
EX_SLANT
  0
BLOCK_RECORD
  5
87
330
1
100
AcDbSymbolTableRecord
100
AcDbBlockTableRecord
  2
EX_NONE
  0
BLOCK_RECORD
  5
8A
330
1
100
AcDbSymbolTableRecord
100
AcDbBlockTableRecord
  2
EX_CIVIL
  0
BLOCK_RECORD
  5
8D
330
1
100
AcDbSymbolTableRecord
100
AcDbBlockTableRecord
  2
EX_WCIR
  0
BLOCK_RECORD
  5
90
330
1
100
AcDbSymbolTableRecord
100
AcDbBlockTableRecord
  2
EX_WCIR2
  0
BLOCK_RECORD
  5
93
330
1
100
AcDbSymbolTableRecord
100
AcDbBlockTableRecord
  2
EX_WNORM
  0
BLOCK_RECORD
  5
96
330
1
100
AcDbSymbolTableRecord
100
AcDbBlockTableRecord
  2
EX_NNORM
  0
BLOCK_RECORD
  5
99
330
1
100
AcDbSymbolTableRecord
100
AcDbBlockTableRecord
  2
EX_BBOX
  0
BLOCK_RECORD
  5
9C
330
1
100
AcDbSymbolTableRecord
100
AcDbBlockTableRecord
  2
EX_WBOX
  0
BLOCK_RECORD
  5
9F
330
1
100
AcDbSymbolTableRecord
100
AcDbBlockTableRecord
  2
EX_INTEGRAL
  0
BLOCK_RECORD
  5
12A
330
1
100
AcDbSymbolTableRecord
100
AcDbBlockTableRecord
  2
*D15
  0
BLOCK_RECORD
  5
137
330
1
100
AcDbSymbolTableRecord
100
AcDbBlockTableRecord
  2
*D16
  0
BLOCK_RECORD
  5
141
330
1
100
AcDbSymbolTableRecord
100
AcDbBlockTableRecord
  2
*D17
  0
BLOCK_RECORD
  5
14E
330
1
100
AcDbSymbolTableRecord
100
AcDbBlockTableRecord
  2
*D18
  0
BLOCK_RECORD
  5
15A
330
1
100
AcDbSymbolTableRecord
100
AcDbBlockTableRecord
  2
*D19
  0
BLOCK_RECORD
  5
167
330
1
100
AcDbSymbolTableRecord
100
AcDbBlockTableRecord
  2
*D20
  0
BLOCK_RECORD
  5
174
330
1
100
AcDbSymbolTableRecord
100
AcDbBlockTableRecord
  2
*D21
  0
BLOCK_RECORD
  5
181
330
1
100
AcDbSymbolTableRecord
100
AcDbBlockTableRecord
  2
*D22
  0
BLOCK_RECORD
  5
18D
330
1
100
AcDbSymbolTableRecord
100
AcDbBlockTableRecord
  2
*D23
  0
BLOCK_RECORD
  5
198
330
1
100
AcDbSymbolTableRecord
100
AcDbBlockTableRecord
  2
*D24
  0
BLOCK_RECORD
  5
1A5
330
1
100
AcDbSymbolTableRecord
100
AcDbBlockTableRecord
  2
*D25
  0
BLOCK_RECORD
  5
1B1
330
1
100
AcDbSymbolTableRecord
100
AcDbBlockTableRecord
  2
*D26
  0
BLOCK_RECORD
  5
1C0
330
1
100
AcDbSymbolTableRecord
100
AcDbBlockTableRecord
  2
*D27
  0
BLOCK_RECORD
  5
1CC
330
1
100
AcDbSymbolTableRecord
100
AcDbBlockTableRecord
  2
*D28
  0
BLOCK_RECORD
  5
1D8
330
1
100
AcDbSymbolTableRecord
100
AcDbBlockTableRecord
  2
*D29
  0
BLOCK_RECORD
  5
1E4
330
1
100
AcDbSymbolTableRecord
100
AcDbBlockTableRecord
  2
*D30
  0
BLOCK_RECORD
  5
1F1
330
1
100
AcDbSymbolTableRecord
100
AcDbBlockTableRecord
  2
*D31
  0
BLOCK_RECORD
  5
1FC
330
1
100
AcDbSymbolTableRecord
100
AcDbBlockTableRecord
  2
*D32
  0
BLOCK_RECORD
  5
209
330
1
100
AcDbSymbolTableRecord
100
AcDbBlockTableRecord
  2
*D33
  0
BLOCK_RECORD
  5
218
330
1
100
AcDbSymbolTableRecord
100
AcDbBlockTableRecord
  2
*D34
  0
BLOCK_RECORD
  5
22C
330
1
100
AcDbSymbolTableRecord
100
AcDbBlockTableRecord
  2
*D35
  0
BLOCK_RECORD
  5
239
330
1
100
AcDbSymbolTableRecord
100
AcDbBlockTableRecord
  2
*D36
  0
BLOCK_RECORD
  5
246
330
1
100
AcDbSymbolTableRecord
100
AcDbBlockTableRecord
  2
*D37
  0
BLOCK_RECORD
  5
253
330
1
100
AcDbSymbolTableRecord
100
AcDbBlockTableRecord
  2
*D38
  0
BLOCK_RECORD
  5
260
330
1
100
AcDbSymbolTableRecord
100
AcDbBlockTableRecord
  2
*D39
  0
BLOCK_RECORD
  5
3B6
330
1
100
AcDbSymbolTableRecord
100
AcDbBlockTableRecord
  2
*D40
  0
BLOCK_RECORD
  5
3C5
330
1
100
AcDbSymbolTableRecord
100
AcDbBlockTableRecord
  2
*D41
  0
ENDTAB
  0
ENDSEC
  0
SECTION
  2
BLOCKS
  0
BLOCK
  5
20
330
1F
100
AcDbEntity
  8
0
100
AcDbBlockBegin
  2
*MODEL_SPACE
 70
     0
 10
0.0
 20
0.0
 30
0.0
  3
*MODEL_SPACE
  1

  0
ENDBLK
  5
21
330
1F
100
AcDbEntity
  8
0
100
AcDbBlockEnd
  0
BLOCK
  5
1C
330
1B
100
AcDbEntity
 67
     1
  8
0
100
AcDbBlockBegin
  2
*PAPER_SPACE
 70
     0
 10
0.0
 20
0.0
 30
0.0
  3
*PAPER_SPACE
  1

  0
ENDBLK
  5
1D
330
1B
100
AcDbEntity
 67
     1
  8
0
100
AcDbBlockEnd
  0
BLOCK
  5
79
330
78
100
AcDbEntity
  8
0
100
AcDbBlockBegin
  2
EX_NORM
 70
     0
 10
0.0
 20
0.0
 30
0.0
  3
EX_NORM
  1

  0
LINE
  5
A2
330
78
100
AcDbEntity
  8
0
  6
CONTINUOUS
 62
     0
100
AcDbLine
 10
0.0
 20
0.0
 30
0.0
 11
-1.0
 21
0.0
 31
0.0
  0
LINE
  5
A3
330
78
100
AcDbEntity
  8
0
  6
CONTINUOUS
 62
     0
100
AcDbLine
 10
0.0
 20
0.0
 30
0.0
 11
-1.0
 21
0.166666667
 31
0.0
  0
LINE
  5
A4
330
78
100
AcDbEntity
  8
0
  6
CONTINUOUS
 62
     0
100
AcDbLine
 10
0.0
 20
0.0
 30
0.0
 11
-1.0
 21
-0.166666667
 31
0.0
  0
ENDBLK
  5
7A
330
78
100
AcDbEntity
  8
0
100
AcDbBlockEnd
  0
BLOCK
  5
7C
330
7B
100
AcDbEntity
  8
0
100
AcDbBlockBegin
  2
EX_BNORM
 70
     0
 10
0.0
 20
0.0
 30
0.0
  3
EX_BNORM
  1

  0
LINE
  5
A5
330
7B
100
AcDbEntity
  8
0
  6
CONTINUOUS
 62
     0
100
AcDbLine
 10
0.0
 20
0.0
 30
0.0
 11
-1.0
 21
0.0
 31
0.0
  0
LINE
  5
A6
330
7B
100
AcDbEntity
  8
0
  6
CONTINUOUS
 62
     0
100
AcDbLine
 10
0.0
 20
0.0
 30
0.0
 11
-1.0
 21
0.166666667
 31
0.0
  0
LINE
  5
A7
330
7B
100
AcDbEntity
  8
0
  6
CONTINUOUS
 62
     0
100
AcDbLine
 10
0.0
 20
0.0
 30
0.0
 11
-1.0
 21
-0.166666667
 31
0.0
  0
LINE
  5
A8
330
7B
100
AcDbEntity
  8
0
  6
CONTINUOUS
 62
     0
100
AcDbLine
 10
0.0
 20
0.0
 30
0.0
 11
-1.0
 21
0.083333333
 31
0.0
  0
LINE
  5
A9
330
7B
100
AcDbEntity
  8
0
  6
CONTINUOUS
 62
     0
100
AcDbLine
 10
0.0
 20
0.0
 30
0.0
 11
-1.0
 21
-0.083333333
 31
0.0
  0
LINE
  5
AA
330
7B
100
AcDbEntity
  8
0
  6
CONTINUOUS
 62
     0
100
AcDbLine
 10
-1.0
 20
0.166666667
 30
0.0
 11
-1.0
 21
-0.166666667
 31
0.0
  0
ENDBLK
  5
7D
330
7B
100
AcDbEntity
  8
0
100
AcDbBlockEnd
  0
BLOCK
  5
7F
330
7E
100
AcDbEntity
  8
0
100
AcDbBlockBegin
  2
EX_BCIR
 70
     0
 10
0.0
 20
0.0
 30
0.0
  3
EX_BCIR
  1

  0
LINE
  5
AB
330
7E
100
AcDbEntity
  8
0
  6
CONTINUOUS
 62
     0
100
AcDbLine
 10
0.0
 20
0.0
 30
0.0
 11
-1.0
 21
0.0
 31
0.0
  0
CIRCLE
  5
AC
330
7E
100
AcDbEntity
  8
0
  6
CONTINUOUS
 62
     0
100
AcDbCircle
 10
0.0
 20
0.0
 30
0.0
 40
0.5
  0
CIRCLE
  5
AD
330
7E
100
AcDbEntity
  8
0
  6
CONTINUOUS
 62
     0
100
AcDbCircle
 10
0.0
 20
0.0
 30
0.0
 40
0.25
  0
ENDBLK
  5
80
330
7E
100
AcDbEntity
  8
0
100
AcDbBlockEnd
  0
BLOCK
  5
82
330
81
100
AcDbEntity
  8
0
100
AcDbBlockBegin
  2
EX_RCIVIL
 70
     0
 10
0.0
 20
0.0
 30
0.0
  3
EX_RCIVIL
  1

  0
LINE
  5
AE
330
81
100
AcDbEntity
  8
0
  6
CONTINUOUS
 62
     0
100
AcDbLine
 10
0.0
 20
0.0
 30
0.0
 11
-1.0
 21
0.0
 31
0.0
  0
LINE
  5
AF
330
81
100
AcDbEntity
  8
0
  6
CONTINUOUS
 62
     0
100
AcDbLine
 10
-1.0
 20
-0.25
 30
0.0
 11
0.0
 21
-0.25
 31
0.0
  0
LINE
  5
B0
330
81
100
AcDbEntity
  8
0
  6
CONTINUOUS
 62
     0
100
AcDbLine
 10
-1.0
 20
-0.125
 30
0.0
 11
0.0
 21
-0.125
 31
0.0
  0
ENDBLK
  5
83
330
81
100
AcDbEntity
  8
0
100
AcDbBlockEnd
  0
BLOCK
  5
85
330
84
100
AcDbEntity
  8
0
100
AcDbBlockBegin
  2
EX_SLANT
 70
     0
 10
0.0
 20
0.0
 30
0.0
  3
EX_SLANT
  1

  0
LINE
  5
B1
330
84
100
AcDbEntity
  8
0
  6
CONTINUOUS
 62
     0
100
AcDbLine
 10
0.0
 20
0.0
 30
0.0
 11
-1.0
 21
0.0
 31
0.0
  0
LINE
  5
B2
330
84
100
AcDbEntity
  8
0
  6
CONTINUOUS
 62
     0
100
AcDbLine
 10
0.707106781
 20
0.707106781
 30
0.0
 11
-0.707106781
 21
-0.707106781
 31
0.0
  0
ENDBLK
  5
86
330
84
100
AcDbEntity
  8
0
100
AcDbBlockEnd
  0
BLOCK
  5
88
330
87
100
AcDbEntity
  8
0
100
AcDbBlockBegin
  2
EX_NONE
 70
     0
 10
0.0
 20
0.0
 30
0.0
  3
EX_NONE
  1

  0
LINE
  5
B3
330
87
100
AcDbEntity
  8
0
  6
CONTINUOUS
 62
     0
100
AcDbLine
 10
0.0
 20
0.0
 30
0.0
 11
-1.0
 21
0.0
 31
0.0
  0
ENDBLK
  5
89
330
87
100
AcDbEntity
  8
0
100
AcDbBlockEnd
  0
BLOCK
  5
8B
330
8A
100
AcDbEntity
  8
0
100
AcDbBlockBegin
  2
EX_CIVIL
 70
     0
 10
0.0
 20
0.0
 30
0.0
  3
EX_CIVIL
  1

  0
LINE
  5
B4
330
8A
100
AcDbEntity
  8
0
  6
CONTINUOUS
 62
     0
100
AcDbLine
 10
0.0
 20
0.0
 30
0.0
 11
-1.0
 21
0.0
 31
0.0
  0
LINE
  5
B5
330
8A
100
AcDbEntity
  8
0
  6
CONTINUOUS
 62
     0
100
AcDbLine
 10
-1.0
 20
0.25
 30
0.0
 11
0.0
 21
0.25
 31
0.0
  0
LINE
  5
B6
330
8A
100
AcDbEntity
  8
0
  6
CONTINUOUS
 62
     0
100
AcDbLine
 10
-1.0
 20
0.125
 30
0.0
 11
0.0
 21
0.125
 31
0.0
  0
ENDBLK
  5
8C
330
8A
100
AcDbEntity
  8
0
100
AcDbBlockEnd
  0
BLOCK
  5
8E
330
8D
100
AcDbEntity
  8
0
100
AcDbBlockBegin
  2
EX_WCIR
 70
     0
 10
0.0
 20
0.0
 30
0.0
  3
EX_WCIR
  1

  0
LINE
  5
B7
330
8D
100
AcDbEntity
  8
0
  6
CONTINUOUS
 62
     0
100
AcDbLine
 10
0.0
 20
0.0
 30
0.0
 11
-1.0
 21
0.0
 31
0.0
  0
CIRCLE
  5
B8
330
8D
100
AcDbEntity
  8
0
  6
CONTINUOUS
 62
     0
100
AcDbCircle
 10
0.0
 20
0.0
 30
0.0
 40
0.5
  0
ENDBLK
  5
8F
330
8D
100
AcDbEntity
  8
0
100
AcDbBlockEnd
  0
BLOCK
  5
91
330
90
100
AcDbEntity
  8
0
100
AcDbBlockBegin
  2
EX_WCIR2
 70
     0
 10
0.0
 20
0.0
 30
0.0
  3
EX_WCIR2
  1

  0
LINE
  5
B9
330
90
100
AcDbEntity
  8
0
  6
CONTINUOUS
 62
     0
100
AcDbLine
 10
-0.5
 20
0.0
 30
0.0
 11
-1.0
 21
0.0
 31
0.0
  0
CIRCLE
  5
BA
330
90
100
AcDbEntity
  8
0
  6
CONTINUOUS
 62
     0
100
AcDbCircle
 10
0.0
 20
0.0
 30
0.0
 40
0.5
  0
ENDBLK
  5
92
330
90
100
AcDbEntity
  8
0
100
AcDbBlockEnd
  0
BLOCK
  5
94
330
93
100
AcDbEntity
  8
0
100
AcDbBlockBegin
  2
EX_WNORM
 70
     0
 10
0.0
 20
0.0
 30
0.0
  3
EX_WNORM
  1

  0
LINE
  5
BB
330
93
100
AcDbEntity
  8
0
  6
CONTINUOUS
 62
     0
100
AcDbLine
 10
-1.0
 20
0.0
 30
0.0
 11
-1.0
 21
0.0
 31
0.0
  0
LINE
  5
BC
330
93
100
AcDbEntity
  8
0
  6
CONTINUOUS
 62
     0
100
AcDbLine
 10
0.0
 20
0.0
 30
0.0
 11
-1.0
 21
0.166666667
 31
0.0
  0
LINE
  5
BD
330
93
100
AcDbEntity
  8
0
  6
CONTINUOUS
 62
     0
100
AcDbLine
 10
0.0
 20
0.0
 30
0.0
 11
-1.0
 21
-0.166666667
 31
0.0
  0
LINE
  5
BE
330
93
100
AcDbEntity
  8
0
  6
CONTINUOUS
 62
     0
100
AcDbLine
 10
-1.0
 20
0.166666667
 30
0.0
 11
-1.0
 21
-0.166666667
 31
0.0
  0
ENDBLK
  5
95
330
93
100
AcDbEntity
  8
0
100
AcDbBlockEnd
  0
BLOCK
  5
97
330
96
100
AcDbEntity
  8
0
100
AcDbBlockBegin
  2
EX_NNORM
 70
     0
 10
0.0
 20
0.0
 30
0.0
  3
EX_NNORM
  1

  0
LINE
  5
BF
330
96
100
AcDbEntity
  8
0
  6
CONTINUOUS
 62
     0
100
AcDbLine
 10
0.0
 20
0.0
 30
0.0
 11
-1.0
 21
0.0
 31
0.0
  0
LINE
  5
C0
330
96
100
AcDbEntity
  8
0
  6
CONTINUOUS
 62
     0
100
AcDbLine
 10
0.0
 20
0.0
 30
0.0
 11
-1.0
 21
0.166666667
 31
0.0
  0
LINE
  5
C1
330
96
100
AcDbEntity
  8
0
  6
CONTINUOUS
 62
     0
100
AcDbLine
 10
0.0
 20
0.0
 30
0.0
 11
-1.0
 21
-0.166666667
 31
0.0
  0
LINE
  5
C2
330
96
100
AcDbEntity
  8
0
  6
CONTINUOUS
 62
     0
100
AcDbLine
 10
-1.0
 20
0.166666667
 30
0.0
 11
-1.0
 21
-0.166666667
 31
0.0
  0
ENDBLK
  5
98
330
96
100
AcDbEntity
  8
0
100
AcDbBlockEnd
  0
BLOCK
  5
9A
330
99
100
AcDbEntity
  8
0
100
AcDbBlockBegin
  2
EX_BBOX
 70
     0
 10
0.0
 20
0.0
 30
0.0
  3
EX_BBOX
  1

  0
LINE
  5
C3
330
99
100
AcDbEntity
  8
0
  6
CONTINUOUS
 62
     0
100
AcDbLine
 10
0.0
 20
0.0
 30
0.0
 11
-1.0
 21
0.0
 31
0.0
  0
LINE
  5
C4
330
99
100
AcDbEntity
  8
0
  6
CONTINUOUS
 62
     0
100
AcDbLine
 10
-0.5
 20
0.5
 30
0.0
 11
0.5
 21
0.5
 31
0.0
  0
LINE
  5
C5
330
99
100
AcDbEntity
  8
0
  6
CONTINUOUS
 62
     0
100
AcDbLine
 10
0.5
 20
0.5
 30
0.0
 11
0.5
 21
-0.5
 31
0.0
  0
LINE
  5
C6
330
99
100
AcDbEntity
  8
0
  6
CONTINUOUS
 62
     0
100
AcDbLine
 10
0.5
 20
-0.5
 30
0.0
 11
-0.5
 21
-0.5
 31
0.0
  0
LINE
  5
C7
330
99
100
AcDbEntity
  8
0
  6
CONTINUOUS
 62
     0
100
AcDbLine
 10
-0.5
 20
-0.5
 30
0.0
 11
-0.5
 21
0.5
 31
0.0
  0
LINE
  5
C8
330
99
100
AcDbEntity
  8
0
  6
CONTINUOUS
 62
     0
100
AcDbLine
 10
-0.25
 20
0.25
 30
0.0
 11
0.25
 21
0.25
 31
0.0
  0
LINE
  5
C9
330
99
100
AcDbEntity
  8
0
  6
CONTINUOUS
 62
     0
100
AcDbLine
 10
0.25
 20
0.25
 30
0.0
 11
0.25
 21
-0.25
 31
0.0
  0
LINE
  5
CA
330
99
100
AcDbEntity
  8
0
  6
CONTINUOUS
 62
     0
100
AcDbLine
 10
0.25
 20
-0.25
 30
0.0
 11
-0.25
 21
-0.25
 31
0.0
  0
LINE
  5
CB
330
99
100
AcDbEntity
  8
0
  6
CONTINUOUS
 62
     0
100
AcDbLine
 10
-0.25
 20
-0.25
 30
0.0
 11
-0.25
 21
0.25
 31
0.0
  0
ENDBLK
  5
9B
330
99
100
AcDbEntity
  8
0
100
AcDbBlockEnd
  0
BLOCK
  5
9D
330
9C
100
AcDbEntity
  8
0
100
AcDbBlockBegin
  2
EX_WBOX
 70
     0
 10
0.0
 20
0.0
 30
0.0
  3
EX_WBOX
  1

  0
LINE
  5
CC
330
9C
100
AcDbEntity
  8
0
  6
CONTINUOUS
 62
     0
100
AcDbLine
 10
-0.5
 20
0.0
 30
0.0
 11
-1.0
 21
0.0
 31
0.0
  0
LINE
  5
CD
330
9C
100
AcDbEntity
  8
0
  6
CONTINUOUS
 62
     0
100
AcDbLine
 10
-0.5
 20
0.5
 30
0.0
 11
0.5
 21
0.5
 31
0.0
  0
LINE
  5
CE
330
9C
100
AcDbEntity
  8
0
  6
CONTINUOUS
 62
     0
100
AcDbLine
 10
0.5
 20
0.5
 30
0.0
 11
0.5
 21
-0.5
 31
0.0
  0
LINE
  5
CF
330
9C
100
AcDbEntity
  8
0
  6
CONTINUOUS
 62
     0
100
AcDbLine
 10
0.5
 20
-0.5
 30
0.0
 11
-0.5
 21
-0.5
 31
0.0
  0
LINE
  5
D0
330
9C
100
AcDbEntity
  8
0
  6
CONTINUOUS
 62
     0
100
AcDbLine
 10
-0.5
 20
-0.5
 30
0.0
 11
-0.5
 21
0.5
 31
0.0
  0
ENDBLK
  5
9E
330
9C
100
AcDbEntity
  8
0
100
AcDbBlockEnd
  0
BLOCK
  5
A0
330
9F
100
AcDbEntity
  8
0
100
AcDbBlockBegin
  2
EX_INTEGRAL
 70
     0
 10
0.0
 20
0.0
 30
0.0
  3
EX_INTEGRAL
  1

  0
LINE
  5
D1
330
9F
100
AcDbEntity
  8
0
  6
CONTINUOUS
 62
     0
100
AcDbLine
 10
0.0
 20
0.0
 30
0.0
 11
-1.0
 21
0.0
 31
0.0
  0
ARC
  5
D2
330
9F
100
AcDbEntity
  8
0
  6
CONTINUOUS
 62
     0
100
AcDbCircle
 10
0.542115
 20
0.164992
 30
0.0
 40
0.56667
100
AcDbArc
 50
73.07249033629006
 51
196.9275130221199
  0
ARC
  5
D3
330
9F
100
AcDbEntity
  8
0
  6
CONTINUOUS
 62
     0
100
AcDbCircle
 10
-0.542115
 20
-0.164992
 30
0.0
 40
0.56667
100
AcDbArc
 50
253.0724869220464
 51
16.9275130559125
  0
ENDBLK
  5
A1
330
9F
100
AcDbEntity
  8
0
100
AcDbBlockEnd
  0
BLOCK
  5
12B
330
12A
100
AcDbEntity
  8
0
100
AcDbBlockBegin
  2
*D15
 70
     1
 10
0.0
 20
0.0
 30
0.0
  3
*D15
  1

  0
LINE
  5
12D
330
12A
100
AcDbEntity
  8
Ｓ_１_１
  6
CONTINUOUS
 62
     2
100
AcDbLine
 10
1370.362315
 20
278.900027
 30
0.0
 11
1370.362315
 21
169.0000000000002
 31
0.0
  0
LINE
  5
12E
330
12A
100
AcDbEntity
  8
Ｓ_１_１
  6
CONTINUOUS
 62
     2
100
AcDbLine
 10
1284.999997
 20
238.900004
 30
0.0
 11
1284.999997
 21
169.0000000000002
 31
0.0
  0
LINE
  5
12F
330
12A
100
AcDbEntity
  8
Ｓ_１_１
  6
CONTINUOUS
 62
     2
100
AcDbLine
 10
1352.362315
 20
175.0000000000002
 30
0.0
 11
1302.999997
 21
175.0000000000002
 31
0.0
  0
INSERT
  5
130
330
12A
100
AcDbEntity
  8
Ｓ_１_１
 62
     2
100
AcDbBlockReference
  2
EX_NORM
 10
1370.362315
 20
175.0000000000002
 30
0.0
 41
18.0
 42
18.0
 43
18.0
  0
INSERT
  5
131
330
12A
100
AcDbEntity
  8
Ｓ_１_１
 62
     2
100
AcDbBlockReference
  2
EX_NORM
 10
1284.999997
 20
175.0000000000002
 30
0.0
 41
18.0
 42
18.0
 43
18.0
 50
180.0
  0
MTEXT
  5
132
330
12A
100
AcDbEntity
  8
Ｓ_１_１
 62
     2
100
AcDbMText
 10
1327.681156
 20
191.5000000000001
 30
0.0
 40
20.77742494226328
 41
0.0
 71
     5
 72
     1
  1
(85)
  7
EXCADDIM1
  0
POINT
  5
133
330
12A
100
AcDbEntity
  8
DEFPOINTS
 62
     0
100
AcDbPoint
 10
1370.362315
 20
287.900027
 30
0.0
  0
POINT
  5
134
330
12A
100
AcDbEntity
  8
DEFPOINTS
 62
     0
100
AcDbPoint
 10
1284.999997
 20
247.900004
 30
0.0
  0
POINT
  5
135
330
12A
100
AcDbEntity
  8
DEFPOINTS
 62
     0
100
AcDbPoint
 10
1284.999997
 20
175.0000000000002
 30
0.0
  0
ENDBLK
  5
12C
330
12A
100
AcDbEntity
  8
0
100
AcDbBlockEnd
  0
BLOCK
  5
138
330
137
100
AcDbEntity
  8
0
100
AcDbBlockBegin
  2
*D16
 70
     1
 10
0.0
 20
0.0
 30
0.0
  3
*D16
  1

  0
LINE
  5
13A
330
137
100
AcDbEntity
  8
Ｓ_１_１
  6
CONTINUOUS
 62
     2
100
AcDbLine
 10
1180.647255847827
 20
1147.943166540242
 30
0.0
 11
989.3528151521729
 21
1022.056643459758
 31
0.0
  0
MTEXT
  5
13B
330
137
100
AcDbEntity
  8
Ｓ_１_１
 62
     2
100
AcDbMText
 10
1075.929607411888
 20
1098.783131556159
 30
0.0
 40
20.77742494226328
 41
0.0
 71
     5
 72
     1
  1
　　　　%%c265
  7
EXCADDIM1
 11
0.835347064009621
 21
0.5497229144309941
 31
0.0
  0
INSERT
  5
13C
330
137
100
AcDbEntity
  8
Ｓ_１_１
 62
     2
100
AcDbBlockReference
  2
EX_NORM
 10
974.3165679999997
 20
1012.161631
 30
0.0
 41
18.0
 42
18.0
 43
18.0
 50
213.3480058190906
  0
INSERT
  5
13D
330
137
100
AcDbEntity
  8
Ｓ_１_１
 62
     2
100
AcDbBlockReference
  2
EX_NORM
 10
1195.683503
 20
1157.838179
 30
0.0
 41
18.0
 42
18.0
 43
18.0
 50
33.34800581909059
  0
POINT
  5
13E
330
137
100
AcDbEntity
  8
DEFPOINTS
 62
     0
100
AcDbPoint
 10
1195.683503
 20
1157.838179
 30
0.0
  0
POINT
  5
13F
330
137
100
AcDbEntity
  8
DEFPOINTS
 62
     0
100
AcDbPoint
 10
974.3165679999997
 20
1012.161631
 30
0.0
  0
ENDBLK
  5
139
330
137
100
AcDbEntity
  8
0
100
AcDbBlockEnd
  0
BLOCK
  5
142
330
141
100
AcDbEntity
  8
0
100
AcDbBlockBegin
  2
*D17
 70
     1
 10
0.0
 20
0.0
 30
0.0
  3
*D17
  1

  0
LINE
  5
144
330
141
100
AcDbEntity
  8
Ｓ_１_１
  6
CONTINUOUS
 62
     2
100
AcDbLine
 10
1389.500038
 20
504.8999900000001
 30
0.0
 11
1577.49997985363
 21
504.89999
 31
0.0
  0
LINE
  5
145
330
141
100
AcDbEntity
  8
Ｓ_１_１
  6
CONTINUOUS
 62
     2
100
AcDbLine
 10
1390.499946
 20
444.8999909999999
 30
0.0
 11
1577.49997985363
 21
444.8999909999998
 31
0.0
  0
LINE
  5
146
330
141
100
AcDbEntity
  8
Ｓ_１_１
  6
CONTINUOUS
 62
     2
100
AcDbLine
 10
1572.5
 20
489.89999
 30
0.0
 11
1572.5
 21
459.8999909999998
 31
0.0
  0
INSERT
  5
147
330
141
100
AcDbEntity
  8
Ｓ_１_１
 62
     2
100
AcDbBlockReference
  2
EX_NORM
 10
1572.5
 20
504.89999
 30
0.0
 41
15.0
 42
15.0
 43
15.0
 50
90.0
  0
INSERT
  5
148
330
141
100
AcDbEntity
  8
Ｓ_１_１
 62
     2
100
AcDbBlockReference
  2
EX_NORM
 10
1572.5
 20
444.8999909999998
 30
0.0
 41
15.0
 42
15.0
 43
15.0
 50
270.0
  0
MTEXT
  5
149
330
141
100
AcDbEntity
  8
Ｓ_１_１
 62
     2
100
AcDbMText
 10
1556.500000059605
 20
474.8999904999994
 30
0.0
 40
20.77742494226328
 41
0.0
 71
     5
 72
     1
  1
60
  7
EXCADDIM1
 11
0.0
 21
1.0
 31
0.0
  0
POINT
  5
14A
330
141
100
AcDbEntity
  8
DEFPOINTS
 62
     0
100
AcDbPoint
 10
1382.000038
 20
504.8999900000001
 30
0.0
  0
POINT
  5
14B
330
141
100
AcDbEntity
  8
DEFPOINTS
 62
     0
100
AcDbPoint
 10
1382.999946
 20
444.8999909999999
 30
0.0
  0
POINT
  5
14C
330
141
100
AcDbEntity
  8
DEFPOINTS
 62
     0
100
AcDbPoint
 10
1572.5
 20
444.8999909999998
 30
0.0
  0
ENDBLK
  5
143
330
141
100
AcDbEntity
  8
0
100
AcDbBlockEnd
  0
BLOCK
  5
14F
330
14E
100
AcDbEntity
  8
0
100
AcDbBlockBegin
  2
*D18
 70
     1
 10
0.0
 20
0.0
 30
0.0
  3
*D18
  1

  0
LINE
  5
151
330
14E
100
AcDbEntity
  8
Ｓ_１_１
  6
CONTINUOUS
 62
     2
100
AcDbLine
 10
792.500083
 20
454.8999909999998
 30
0.0
 11
553.9999999999997
 21
454.8999909999998
 31
0.0
  0
LINE
  5
152
330
14E
100
AcDbEntity
  8
Ｓ_１_１
  6
CONTINUOUS
 62
     2
100
AcDbLine
 10
559.9999999999999
 20
472.8999909999998
 30
0.0
 11
559.9999999999999
 21
486.8999900000001
 31
0.0
  0
INSERT
  5
153
330
14E
100
AcDbEntity
  8
Ｓ_１_１
 62
     2
100
AcDbBlockReference
  2
EX_NORM
 10
559.9999999999999
 20
454.8999909999998
 30
0.0
 41
18.0
 42
18.0
 43
18.0
 50
270.0
  0
INSERT
  5
154
330
14E
100
AcDbEntity
  8
Ｓ_１_１
 62
     2
100
AcDbBlockReference
  2
EX_NORM
 10
559.9999999999999
 20
504.8999900000001
 30
0.0
 41
18.0
 42
18.0
 43
18.0
 50
90.0
  0
MTEXT
  5
155
330
14E
100
AcDbEntity
  8
Ｓ_１_１
 62
     2
100
AcDbMText
 10
543.5
 20
479.8999904999998
 30
0.0
 40
20.77742494226328
 41
0.0
 71
     5
 72
     1
  1
50
  7
EXCADDIM1
 11
0.0
 21
1.0
 31
0.0
  0
POINT
  5
156
330
14E
100
AcDbEntity
  8
DEFPOINTS
 62
     0
100
AcDbPoint
 10
805.0000839999999
 20
454.8999909999998
 30
0.0
  0
POINT
  5
157
330
14E
100
AcDbEntity
  8
DEFPOINTS
 62
     0
100
AcDbPoint
 10
788.0001139999999
 20
504.8999900000001
 30
0.0
  0
POINT
  5
158
330
14E
100
AcDbEntity
  8
DEFPOINTS
 62
     0
100
AcDbPoint
 10
559.9999999999999
 20
504.8999900000001
 30
0.0
  0
ENDBLK
  5
150
330
14E
100
AcDbEntity
  8
0
100
AcDbBlockEnd
  0
BLOCK
  5
15B
330
15A
100
AcDbEntity
  8
0
100
AcDbBlockBegin
  2
*D19
 70
     1
 10
0.0
 20
0.0
 30
0.0
  3
*D19
  1

  0
LINE
  5
15D
330
15A
100
AcDbEntity
  8
Ｓ_１_１
  6
CONTINUOUS
 62
     2
100
AcDbLine
 10
560.0000000000001
 20
262.9000130000001
 30
0.0
 11
560.0000000000001
 21
436.8999909999998
 31
0.0
  0
INSERT
  5
15E
330
15A
100
AcDbEntity
  8
Ｓ_１_１
 62
     2
100
AcDbBlockReference
  2
EX_NORM
 10
560.0000000000001
 20
244.9000130000001
 30
0.0
 41
18.0
 42
18.0
 43
18.0
 50
270.0
  0
INSERT
  5
15F
330
15A
100
AcDbEntity
  8
Ｓ_１_１
 62
     2
100
AcDbBlockReference
  2
EX_NORM
 10
560.0000000000001
 20
454.8999909999998
 30
0.0
 41
18.0
 42
18.0
 43
18.0
 50
90.0
  0
MTEXT
  5
160
330
15A
100
AcDbEntity
  8
Ｓ_１_１
 62
     2
100
AcDbMText
 10
543.5000000000002
 20
349.9000019999998
 30
0.0
 40
20.77742494226328
 41
0.0
 71
     5
 72
     1
  1
210
  7
EXCADDIM1
 11
0.0
 21
1.0
 31
0.0
  0
POINT
  5
161
330
15A
100
AcDbEntity
  8
DEFPOINTS
 62
     0
100
AcDbPoint
 10
888.0001139999997
 20
244.9000130000001
 30
0.0
  0
POINT
  5
162
330
15A
100
AcDbEntity
  8
DEFPOINTS
 62
     0
100
AcDbPoint
 10
805.0000839999999
 20
454.8999909999998
 30
0.0
  0
POINT
  5
163
330
15A
100
AcDbEntity
  8
DEFPOINTS
 62
     0
100
AcDbPoint
 10
560.0000000000001
 20
454.8999909999998
 30
0.0
  0
ENDBLK
  5
15C
330
15A
100
AcDbEntity
  8
0
100
AcDbBlockEnd
  0
BLOCK
  5
168
330
167
100
AcDbEntity
  8
0
100
AcDbBlockBegin
  2
*D20
 70
     1
 10
0.0
 20
0.0
 30
0.0
  3
*D20
  1

  0
LINE
  5
16A
330
167
100
AcDbEntity
  8
Ｓ_１_１
  6
CONTINUOUS
 62
     2
100
AcDbLine
 10
1381.434167
 20
299.9000119999999
 30
0.0
 11
1474.99997985363
 21
299.9000119999999
 31
0.0
  0
LINE
  5
16B
330
167
100
AcDbEntity
  8
Ｓ_１_１
  6
CONTINUOUS
 62
     2
100
AcDbLine
 10
1289.50004
 20
244.9000130000001
 30
0.0
 11
1474.99997985363
 21
244.9000130000001
 31
0.0
  0
LINE
  5
16C
330
167
100
AcDbEntity
  8
Ｓ_１_１
  6
CONTINUOUS
 62
     2
100
AcDbLine
 10
1470.0
 20
284.9000119999999
 30
0.0
 11
1470.0
 21
259.9000130000001
 31
0.0
  0
INSERT
  5
16D
330
167
100
AcDbEntity
  8
Ｓ_１_１
 62
     2
100
AcDbBlockReference
  2
EX_NORM
 10
1470.0
 20
299.9000119999999
 30
0.0
 41
15.0
 42
15.0
 43
15.0
 50
90.0
  0
INSERT
  5
16E
330
167
100
AcDbEntity
  8
Ｓ_１_１
 62
     2
100
AcDbBlockReference
  2
EX_NORM
 10
1470.0
 20
244.9000130000001
 30
0.0
 41
15.0
 42
15.0
 43
15.0
 50
270.0
  0
MTEXT
  5
16F
330
167
100
AcDbEntity
  8
Ｓ_１_１
 62
     2
100
AcDbMText
 10
1454.000000059605
 20
272.4000124999997
 30
0.0
 40
20.77742494226328
 41
0.0
 71
     5
 72
     1
  1
55
  7
EXCADDIM1
 11
0.0
 21
1.0
 31
0.0
  0
POINT
  5
170
330
167
100
AcDbEntity
  8
DEFPOINTS
 62
     0
100
AcDbPoint
 10
1373.934167
 20
299.9000119999999
 30
0.0
  0
POINT
  5
171
330
167
100
AcDbEntity
  8
DEFPOINTS
 62
     0
100
AcDbPoint
 10
1282.00004
 20
244.9000130000001
 30
0.0
  0
POINT
  5
172
330
167
100
AcDbEntity
  8
DEFPOINTS
 62
     0
100
AcDbPoint
 10
1470.0
 20
244.9000130000001
 30
0.0
  0
ENDBLK
  5
169
330
167
100
AcDbEntity
  8
0
100
AcDbBlockEnd
  0
BLOCK
  5
175
330
174
100
AcDbEntity
  8
0
100
AcDbBlockBegin
  2
*D21
 70
     1
 10
0.0
 20
0.0
 30
0.0
  3
*D21
  1

  0
LINE
  5
177
330
174
100
AcDbEntity
  8
Ｓ_１_１
  6
CONTINUOUS
 62
     2
100
AcDbLine
 10
879.0001149999997
 20
244.9000130000001
 30
0.0
 11
519.0
 21
244.9000130000001
 31
0.0
  0
LINE
  5
178
330
174
100
AcDbEntity
  8
Ｓ_１_１
  6
CONTINUOUS
 62
     2
100
AcDbLine
 10
779.0001149999999
 20
504.8999900000001
 30
0.0
 11
519.0
 21
504.8999900000001
 31
0.0
  0
LINE
  5
179
330
174
100
AcDbEntity
  8
Ｓ_１_１
  6
CONTINUOUS
 62
     2
100
AcDbLine
 10
525.0
 20
262.9000130000001
 30
0.0
 11
525.0
 21
486.8999900000001
 31
0.0
  0
INSERT
  5
17A
330
174
100
AcDbEntity
  8
Ｓ_１_１
 62
     2
100
AcDbBlockReference
  2
EX_NORM
 10
525.0
 20
244.9000130000001
 30
0.0
 41
18.0
 42
18.0
 43
18.0
 50
270.0
  0
INSERT
  5
17B
330
174
100
AcDbEntity
  8
Ｓ_１_１
 62
     2
100
AcDbBlockReference
  2
EX_NORM
 10
525.0
 20
504.8999900000001
 30
0.0
 41
18.0
 42
18.0
 43
18.0
 50
90.0
  0
MTEXT
  5
17C
330
174
100
AcDbEntity
  8
Ｓ_１_１
 62
     2
100
AcDbMText
 10
508.5
 20
374.9000014999999
 30
0.0
 40
20.77742494226328
 41
0.0
 71
     5
 72
     1
  1
260
  7
EXCADDIM1
 11
0.0
 21
1.0
 31
0.0
  0
POINT
  5
17D
330
174
100
AcDbEntity
  8
DEFPOINTS
 62
     0
100
AcDbPoint
 10
888.0001149999997
 20
244.9000130000001
 30
0.0
  0
POINT
  5
17E
330
174
100
AcDbEntity
  8
DEFPOINTS
 62
     0
100
AcDbPoint
 10
788.0001149999999
 20
504.8999900000001
 30
0.0
  0
POINT
  5
17F
330
174
100
AcDbEntity
  8
DEFPOINTS
 62
     0
100
AcDbPoint
 10
525.0
 20
504.8999900000001
 30
0.0
  0
ENDBLK
  5
176
330
174
100
AcDbEntity
  8
0
100
AcDbBlockEnd
  0
BLOCK
  5
182
330
181
100
AcDbEntity
  8
0
100
AcDbBlockBegin
  2
*D22
 70
     1
 10
0.0
 20
0.0
 30
0.0
  3
*D22
  1

  0
LINE
  5
184
330
181
100
AcDbEntity
  8
Ｓ_１_１
  6
CONTINUOUS
 62
     2
100
AcDbLine
 10
836.0000829999997
 20
334.899992
 30
0.0
 11
591.4999999999991
 21
334.899992
 31
0.0
  0
LINE
  5
185
330
181
100
AcDbEntity
  8
Ｓ_１_１
  6
CONTINUOUS
 62
     2
100
AcDbLine
 10
597.4999999999991
 20
262.9000130000001
 30
0.0
 11
597.4999999999991
 21
316.899992
 31
0.0
  0
INSERT
  5
186
330
181
100
AcDbEntity
  8
Ｓ_１_１
 62
     2
100
AcDbBlockReference
  2
EX_NORM
 10
597.4999999999991
 20
244.9000130000001
 30
0.0
 41
18.0
 42
18.0
 43
18.0
 50
270.0
  0
INSERT
  5
187
330
181
100
AcDbEntity
  8
Ｓ_１_１
 62
     2
100
AcDbBlockReference
  2
EX_NORM
 10
597.4999999999991
 20
334.899992
 30
0.0
 41
18.0
 42
18.0
 43
18.0
 50
90.0
  0
MTEXT
  5
188
330
181
100
AcDbEntity
  8
Ｓ_１_１
 62
     2
100
AcDbMText
 10
580.9999999999991
 20
289.9000025
 30
0.0
 40
20.77742494226328
 41
0.0
 71
     5
 72
     1
  1
90
  7
EXCADDIM1
 11
0.0
 21
1.0
 31
0.0
  0
POINT
  5
189
330
181
100
AcDbEntity
  8
DEFPOINTS
 62
     0
100
AcDbPoint
 10
888.0001139999997
 20
244.9000130000001
 30
0.0
  0
POINT
  5
18A
330
181
100
AcDbEntity
  8
DEFPOINTS
 62
     0
100
AcDbPoint
 10
845.0000829999997
 20
334.899992
 30
0.0
  0
POINT
  5
18B
330
181
100
AcDbEntity
  8
DEFPOINTS
 62
     0
100
AcDbPoint
 10
597.4999999999991
 20
334.899992
 30
0.0
  0
ENDBLK
  5
183
330
181
100
AcDbEntity
  8
0
100
AcDbBlockEnd
  0
BLOCK
  5
18E
330
18D
100
AcDbEntity
  8
0
100
AcDbBlockBegin
  2
*D23
 70
     1
 10
0.0
 20
0.0
 30
0.0
  3
*D23
  1

  0
LINE
  5
190
330
18D
100
AcDbEntity
  8
Ｓ_１_１
  6
CONTINUOUS
 62
     2
100
AcDbLine
 10
597.5000000000013
 20
352.899992
 30
0.0
 11
597.5000000000013
 21
426.8999909999999
 31
0.0
  0
INSERT
  5
191
330
18D
100
AcDbEntity
  8
Ｓ_１_１
 62
     2
100
AcDbBlockReference
  2
EX_NORM
 10
597.5000000000013
 20
334.899992
 30
0.0
 41
18.0
 42
18.0
 43
18.0
 50
270.0
  0
INSERT
  5
192
330
18D
100
AcDbEntity
  8
Ｓ_１_１
 62
     2
100
AcDbBlockReference
  2
EX_NORM
 10
597.5000000000013
 20
444.8999909999999
 30
0.0
 41
18.0
 42
18.0
 43
18.0
 50
90.0
  0
MTEXT
  5
193
330
18D
100
AcDbEntity
  8
Ｓ_１_１
 62
     2
100
AcDbMText
 10
581.0000000000014
 20
389.8999914999998
 30
0.0
 40
20.77742494226328
 41
0.0
 71
     5
 72
     1
  1
110
  7
EXCADDIM1
 11
0.0
 21
1.0
 31
0.0
  0
POINT
  5
194
330
18D
100
AcDbEntity
  8
DEFPOINTS
 62
     0
100
AcDbPoint
 10
845.0000829999997
 20
334.899992
 30
0.0
  0
POINT
  5
195
330
18D
100
AcDbEntity
  8
DEFPOINTS
 62
     0
100
AcDbPoint
 10
786.9999
 20
444.8999909999999
 30
0.0
  0
POINT
  5
196
330
18D
100
AcDbEntity
  8
DEFPOINTS
 62
     0
100
AcDbPoint
 10
597.5000000000013
 20
444.8999909999999
 30
0.0
  0
ENDBLK
  5
18F
330
18D
100
AcDbEntity
  8
0
100
AcDbBlockEnd
  0
BLOCK
  5
199
330
198
100
AcDbEntity
  8
0
100
AcDbBlockBegin
  2
*D24
 70
     1
 10
0.0
 20
0.0
 30
0.0
  3
*D24
  1

  0
LINE
  5
19B
330
198
100
AcDbEntity
  8
Ｓ_１_１
  6
CONTINUOUS
 62
     2
100
AcDbLine
 10
835.0000799999999
 20
462.3999890000001
 30
0.0
 11
835.0000799999999
 21
564.9999798536301
 31
0.0
  0
LINE
  5
19C
330
198
100
AcDbEntity
  8
Ｓ_１_１
  6
CONTINUOUS
 62
     2
100
AcDbLine
 10
1334.999996
 20
462.3999890000001
 30
0.0
 11
1334.999996
 21
564.9999798536301
 31
0.0
  0
LINE
  5
19D
330
198
100
AcDbEntity
  8
Ｓ_１_１
  6
CONTINUOUS
 62
     2
100
AcDbLine
 10
853.0000799999999
 20
560.0
 30
0.0
 11
1316.999996
 21
560.0
 31
0.0
  0
INSERT
  5
19E
330
198
100
AcDbEntity
  8
Ｓ_１_１
 62
     2
100
AcDbBlockReference
  2
EX_NORM
 10
835.0000799999999
 20
560.0
 30
0.0
 41
18.0
 42
18.0
 43
18.0
 50
180.0
  0
INSERT
  5
19F
330
198
100
AcDbEntity
  8
Ｓ_１_１
 62
     2
100
AcDbBlockReference
  2
EX_NORM
 10
1334.999996
 20
560.0
 30
0.0
 41
18.0
 42
18.0
 43
18.0
  0
MTEXT
  5
1A0
330
198
100
AcDbEntity
  8
Ｓ_１_１
 62
     2
100
AcDbMText
 10
1085.000038
 20
576.5
 30
0.0
 40
20.77742494226328
 41
0.0
 71
     5
 72
     1
  1
%%c500
  7
EXCADDIM1
  0
POINT
  5
1A1
330
198
100
AcDbEntity
  8
DEFPOINTS
 62
     0
100
AcDbPoint
 10
835.0000799999999
 20
454.8999890000001
 30
0.0
  0
POINT
  5
1A2
330
198
100
AcDbEntity
  8
DEFPOINTS
 62
     0
100
AcDbPoint
 10
1334.999996
 20
454.8999890000001
 30
0.0
  0
POINT
  5
1A3
330
198
100
AcDbEntity
  8
DEFPOINTS
 62
     0
100
AcDbPoint
 10
1334.999996
 20
560.0
 30
0.0
  0
ENDBLK
  5
19A
330
198
100
AcDbEntity
  8
0
100
AcDbBlockEnd
  0
BLOCK
  5
1A6
330
1A5
100
AcDbEntity
  8
0
100
AcDbBlockBegin
  2
*D25
 70
     1
 10
0.0
 20
0.0
 30
0.0
  3
*D25
  1

  0
LINE
  5
1A8
330
1A5
100
AcDbEntity
  8
Ｓ_１_１
  6
CONTINUOUS
 62
     2
100
AcDbLine
 10
885.0000789999998
 20
238.900004
 30
0.0
 11
885.0000789999998
 21
169.0000000000001
 31
0.0
  0
LINE
  5
1A9
330
1A5
100
AcDbEntity
  8
Ｓ_１_１
  6
CONTINUOUS
 62
     2
100
AcDbLine
 10
1266.999997
 20
175.0000000000001
 30
0.0
 11
903.0000789999998
 21
175.0000000000001
 31
0.0
  0
INSERT
  5
1AA
330
1A5
100
AcDbEntity
  8
Ｓ_１_１
 62
     2
100
AcDbBlockReference
  2
EX_NORM
 10
1284.999997
 20
175.0000000000001
 30
0.0
 41
18.0
 42
18.0
 43
18.0
  0
INSERT
  5
1AB
330
1A5
100
AcDbEntity
  8
Ｓ_１_１
 62
     2
100
AcDbBlockReference
  2
EX_NORM
 10
885.0000789999998
 20
175.0000000000001
 30
0.0
 41
18.0
 42
18.0
 43
18.0
 50
180.0
  0
MTEXT
  5
1AC
330
1A5
100
AcDbEntity
  8
Ｓ_１_１
 62
     2
100
AcDbMText
 10
1085.000038
 20
191.5000000000001
 30
0.0
 40
20.77742494226328
 41
0.0
 71
     5
 72
     1
  1
%%c400
  7
EXCADDIM1
  0
POINT
  5
1AD
330
1A5
100
AcDbEntity
  8
DEFPOINTS
 62
     0
100
AcDbPoint
 10
1284.999997
 20
247.900004
 30
0.0
  0
POINT
  5
1AE
330
1A5
100
AcDbEntity
  8
DEFPOINTS
 62
     0
100
AcDbPoint
 10
885.0000789999998
 20
247.900004
 30
0.0
  0
POINT
  5
1AF
330
1A5
100
AcDbEntity
  8
DEFPOINTS
 62
     0
100
AcDbPoint
 10
885.0000789999998
 20
175.0000000000001
 30
0.0
  0
ENDBLK
  5
1A7
330
1A5
100
AcDbEntity
  8
0
100
AcDbBlockEnd
  0
BLOCK
  5
1B2
330
1B1
100
AcDbEntity
  8
0
100
AcDbBlockBegin
  2
*D26
 70
     1
 10
0.0
 20
0.0
 30
0.0
  3
*D26
  1

  0
LINE
  5
1B4
330
1B1
100
AcDbEntity
  8
Ｓ_１_１
  6
CONTINUOUS
 62
     2
100
AcDbLine
 10
1387.500068
 20
1354.999996
 30
0.0
 11
1614.999979853629
 21
1354.999996
 31
0.0
  0
LINE
  5
1B5
330
1B1
100
AcDbEntity
  8
Ｓ_１_１
  6
CONTINUOUS
 62
     2
100
AcDbLine
 10
1387.500007
 20
815.0000039999998
 30
0.0
 11
1614.999979853629
 21
815.0000039999998
 31
0.0
  0
LINE
  5
1B6
330
1B1
100
AcDbEntity
  8
Ｓ_１_１
  6
CONTINUOUS
 62
     2
100
AcDbLine
 10
1610.0
 20
1336.999996
 30
0.0
 11
1610.0
 21
833.0000039999998
 31
0.0
  0
INSERT
  5
1B7
330
1B1
100
AcDbEntity
  8
Ｓ_１_１
 62
     2
100
AcDbBlockReference
  2
EX_NORM
 10
1610.0
 20
1354.999996
 30
0.0
 41
18.0
 42
18.0
 43
18.0
 50
90.0
  0
INSERT
  5
1B8
330
1B1
100
AcDbEntity
  8
Ｓ_１_１
 62
     2
100
AcDbBlockReference
  2
EX_NORM
 10
1610.0
 20
815.0000039999998
 30
0.0
 41
18.0
 42
18.0
 43
18.0
 50
270.0
  0
MTEXT
  5
1B9
330
1B1
100
AcDbEntity
  8
Ｓ_１_１
 62
     2
100
AcDbMText
 10
1593.5
 20
1084.999999999999
 30
0.0
 40
20.77742494226328
 41
0.0
 71
     5
 72
     1
  1
540
  7
EXCADDIM1
 11
0.0
 21
1.0
 31
0.0
  0
POINT
  5
1BA
330
1B1
100
AcDbEntity
  8
DEFPOINTS
 62
     0
100
AcDbPoint
 10
1380.000068
 20
1354.999996
 30
0.0
  0
POINT
  5
1BB
330
1B1
100
AcDbEntity
  8
DEFPOINTS
 62
     0
100
AcDbPoint
 10
1380.000007
 20
815.0000039999998
 30
0.0
  0
POINT
  5
1BC
330
1B1
100
AcDbEntity
  8
DEFPOINTS
 62
     0
100
AcDbPoint
 10
1610.0
 20
815.0000039999998
 30
0.0
  0
ENDBLK
  5
1B3
330
1B1
100
AcDbEntity
  8
0
100
AcDbBlockEnd
  0
BLOCK
  5
1C1
330
1C0
100
AcDbEntity
  8
0
100
AcDbBlockBegin
  2
*D27
 70
     1
 10
0.0
 20
0.0
 30
0.0
  3
*D27
  1

  0
LINE
  5
1C3
330
1C0
100
AcDbEntity
  8
Ｓ_１_１
  6
CONTINUOUS
 62
     2
100
AcDbLine
 10
1472.499992
 20
990.0000009999999
 30
0.0
 11
1579.999979853632
 21
990.0000009999999
 31
0.0
  0
LINE
  5
1C4
330
1C0
100
AcDbEntity
  8
Ｓ_１_１
  6
CONTINUOUS
 62
     2
100
AcDbLine
 10
1575.000000000003
 20
975.0000009999999
 30
0.0
 11
1575.000000000003
 21
855.0000029999999
 31
0.0
  0
INSERT
  5
1C5
330
1C0
100
AcDbEntity
  8
Ｓ_１_１
 62
     2
100
AcDbBlockReference
  2
EX_NORM
 10
1575.000000000003
 20
990.0000009999999
 30
0.0
 41
15.0
 42
15.0
 43
15.0
 50
90.0
  0
INSERT
  5
1C6
330
1C0
100
AcDbEntity
  8
Ｓ_１_１
 62
     2
100
AcDbBlockReference
  2
EX_NORM
 10
1575.000000000003
 20
840.0000029999999
 30
0.0
 41
15.0
 42
15.0
 43
15.0
 50
270.0
  0
MTEXT
  5
1C7
330
1C0
100
AcDbEntity
  8
Ｓ_１_１
 62
     2
100
AcDbMText
 10
1559.000000059607
 20
915.0000019999998
 30
0.0
 40
20.77742494226328
 41
0.0
 71
     5
 72
     1
  1
150
  7
EXCADDIM1
 11
0.0
 21
1.0
 31
0.0
  0
POINT
  5
1C8
330
1C0
100
AcDbEntity
  8
DEFPOINTS
 62
     0
100
AcDbPoint
 10
1464.999992
 20
990.0000009999999
 30
0.0
  0
POINT
  5
1C9
330
1C0
100
AcDbEntity
  8
DEFPOINTS
 62
     0
100
AcDbPoint
 10
1464.999992
 20
840.0000029999999
 30
0.0
  0
POINT
  5
1CA
330
1C0
100
AcDbEntity
  8
DEFPOINTS
 62
     0
100
AcDbPoint
 10
1575.000000000003
 20
840.0000029999999
 30
0.0
  0
ENDBLK
  5
1C2
330
1C0
100
AcDbEntity
  8
0
100
AcDbBlockEnd
  0
BLOCK
  5
1CD
330
1CC
100
AcDbEntity
  8
0
100
AcDbBlockBegin
  2
*D28
 70
     1
 10
0.0
 20
0.0
 30
0.0
  3
*D28
  1

  0
LINE
  5
1CF
330
1CC
100
AcDbEntity
  8
Ｓ_１_１
  6
CONTINUOUS
 62
     2
100
AcDbLine
 10
1473.999992
 20
1179.999998
 30
0.0
 11
1581.00000000001
 21
1179.999998
 31
0.0
  0
LINE
  5
1D0
330
1CC
100
AcDbEntity
  8
Ｓ_１_１
  6
CONTINUOUS
 62
     2
100
AcDbLine
 10
1575.00000000001
 20
1161.999998
 30
0.0
 11
1575.00000000001
 21
1008.000001
 31
0.0
  0
INSERT
  5
1D1
330
1CC
100
AcDbEntity
  8
Ｓ_１_１
 62
     2
100
AcDbBlockReference
  2
EX_NORM
 10
1575.00000000001
 20
1179.999998
 30
0.0
 41
18.0
 42
18.0
 43
18.0
 50
90.0
  0
INSERT
  5
1D2
330
1CC
100
AcDbEntity
  8
Ｓ_１_１
 62
     2
100
AcDbBlockReference
  2
EX_NORM
 10
1575.00000000001
 20
990.0000009999999
 30
0.0
 41
18.0
 42
18.0
 43
18.0
 50
270.0
  0
MTEXT
  5
1D3
330
1CC
100
AcDbEntity
  8
Ｓ_１_１
 62
     2
100
AcDbMText
 10
1558.500000000011
 20
1084.9999995
 30
0.0
 40
20.77742494226328
 41
0.0
 71
     5
 72
     1
  1
190
  7
EXCADDIM1
 11
0.0
 21
1.0
 31
0.0
  0
POINT
  5
1D4
330
1CC
100
AcDbEntity
  8
DEFPOINTS
 62
     0
100
AcDbPoint
 10
1464.999992
 20
1179.999998
 30
0.0
  0
POINT
  5
1D5
330
1CC
100
AcDbEntity
  8
DEFPOINTS
 62
     0
100
AcDbPoint
 10
1464.999992
 20
990.0000009999999
 30
0.0
  0
POINT
  5
1D6
330
1CC
100
AcDbEntity
  8
DEFPOINTS
 62
     0
100
AcDbPoint
 10
1575.00000000001
 20
990.0000009999999
 30
0.0
  0
ENDBLK
  5
1CE
330
1CC
100
AcDbEntity
  8
0
100
AcDbBlockEnd
  0
BLOCK
  5
1D9
330
1D8
100
AcDbEntity
  8
0
100
AcDbBlockBegin
  2
*D29
 70
     1
 10
0.0
 20
0.0
 30
0.0
  3
*D29
  1

  0
LINE
  5
1DB
330
1D8
100
AcDbEntity
  8
Ｓ_１_１
  6
CONTINUOUS
 62
     2
100
AcDbLine
 10
1575.000000000016
 20
1311.999996
 30
0.0
 11
1575.000000000016
 21
1197.999998
 31
0.0
  0
INSERT
  5
1DC
330
1D8
100
AcDbEntity
  8
Ｓ_１_１
 62
     2
100
AcDbBlockReference
  2
EX_NORM
 10
1575.000000000016
 20
1329.999996
 30
0.0
 41
18.0
 42
18.0
 43
18.0
 50
90.0
  0
INSERT
  5
1DD
330
1D8
100
AcDbEntity
  8
Ｓ_１_１
 62
     2
100
AcDbBlockReference
  2
EX_NORM
 10
1575.000000000016
 20
1179.999998
 30
0.0
 41
18.0
 42
18.0
 43
18.0
 50
270.0
  0
MTEXT
  5
1DE
330
1D8
100
AcDbEntity
  8
Ｓ_１_１
 62
     2
100
AcDbMText
 10
1558.500000000016
 20
1254.999997
 30
0.0
 40
20.77742494226328
 41
0.0
 71
     5
 72
     1
  1
150
  7
EXCADDIM1
 11
0.0
 21
1.0
 31
0.0
  0
POINT
  5
1DF
330
1D8
100
AcDbEntity
  8
DEFPOINTS
 62
     0
100
AcDbPoint
 10
1464.999992
 20
1329.999996
 30
0.0
  0
POINT
  5
1E0
330
1D8
100
AcDbEntity
  8
DEFPOINTS
 62
     0
100
AcDbPoint
 10
1464.999992
 20
1179.999998
 30
0.0
  0
POINT
  5
1E1
330
1D8
100
AcDbEntity
  8
DEFPOINTS
 62
     0
100
AcDbPoint
 10
1575.000000000016
 20
1179.999998
 30
0.0
  0
ENDBLK
  5
1DA
330
1D8
100
AcDbEntity
  8
0
100
AcDbBlockEnd
  0
BLOCK
  5
1E5
330
1E4
100
AcDbEntity
  8
0
100
AcDbBlockBegin
  2
*D30
 70
     1
 10
0.0
 20
0.0
 30
0.0
  3
*D30
  1

  0
LINE
  5
1E7
330
1E4
100
AcDbEntity
  8
Ｓ_１_１
  6
CONTINUOUS
 62
     2
100
AcDbLine
 10
817.5000829999998
 20
885.000003
 30
0.0
 11
625.0000201463699
 21
885.000003
 31
0.0
  0
LINE
  5
1E8
330
1E4
100
AcDbEntity
  8
Ｓ_１_１
  6
CONTINUOUS
 62
     2
100
AcDbLine
 10
817.5000829999998
 20
1284.999997
 30
0.0
 11
625.0000201463699
 21
1284.999997
 31
0.0
  0
LINE
  5
1E9
330
1E4
100
AcDbEntity
  8
Ｓ_１_１
  6
CONTINUOUS
 62
     2
100
AcDbLine
 10
630.0
 20
903.000003
 30
0.0
 11
630.0
 21
1266.999997
 31
0.0
  0
INSERT
  5
1EA
330
1E4
100
AcDbEntity
  8
Ｓ_１_１
 62
     2
100
AcDbBlockReference
  2
EX_NORM
 10
630.0
 20
885.000003
 30
0.0
 41
18.0
 42
18.0
 43
18.0
 50
270.0
  0
INSERT
  5
1EB
330
1E4
100
AcDbEntity
  8
Ｓ_１_１
 62
     2
100
AcDbBlockReference
  2
EX_NORM
 10
630.0
 20
1284.999997
 30
0.0
 41
18.0
 42
18.0
 43
18.0
 50
90.0
  0
MTEXT
  5
1EC
330
1E4
100
AcDbEntity
  8
Ｓ_１_１
 62
     2
100
AcDbMText
 10
613.5000000000005
 20
1085.0
 30
0.0
 40
20.77742494226328
 41
0.0
 71
     5
 72
     1
  1
400
  7
EXCADDIM1
 11
0.0
 21
1.0
 31
0.0
  0
POINT
  5
1ED
330
1E4
100
AcDbEntity
  8
DEFPOINTS
 62
     0
100
AcDbPoint
 10
825.0000829999998
 20
885.000003
 30
0.0
  0
POINT
  5
1EE
330
1E4
100
AcDbEntity
  8
DEFPOINTS
 62
     0
100
AcDbPoint
 10
825.0000829999998
 20
1284.999997
 30
0.0
  0
POINT
  5
1EF
330
1E4
100
AcDbEntity
  8
DEFPOINTS
 62
     0
100
AcDbPoint
 10
630.0
 20
1284.999997
 30
0.0
  0
ENDBLK
  5
1E6
330
1E4
100
AcDbEntity
  8
0
100
AcDbBlockEnd
  0
BLOCK
  5
1F2
330
1F1
100
AcDbEntity
  8
0
100
AcDbBlockBegin
  2
*D31
 70
     1
 10
0.0
 20
0.0
 30
0.0
  3
*D31
  1

  0
LINE
  5
1F4
330
1F1
100
AcDbEntity
  8
Ｓ_１_１
  6
CONTINUOUS
 62
     2
100
AcDbLine
 10
1374.999995
 20
664.9999999998868
 30
0.0
 11
794.9999279999998
 21
664.9999999998868
 31
0.0
  0
INSERT
  5
1F5
330
1F1
100
AcDbEntity
  8
Ｓ_１_１
 62
     2
100
AcDbBlockReference
  2
EX_NORM
 10
1389.999995
 20
664.9999999998868
 30
0.0
 41
15.0
 42
15.0
 43
15.0
  0
INSERT
  5
1F6
330
1F1
100
AcDbEntity
  8
Ｓ_１_１
 62
     2
100
AcDbBlockReference
  2
EX_NORM
 10
779.9999279999998
 20
664.9999999998868
 30
0.0
 41
15.0
 42
15.0
 43
15.0
 50
180.0
  0
MTEXT
  5
1F7
330
1F1
100
AcDbEntity
  8
Ｓ_１_１
 62
     2
100
AcDbMText
 10
1084.999961499993
 20
680.9999999402899
 30
0.0
 40
20.77742494226328
 41
0.0
 71
     5
 72
     1
  1
610
  7
EXCADDIM1
  0
POINT
  5
1F8
330
1F1
100
AcDbEntity
  8
DEFPOINTS
 62
     0
100
AcDbPoint
 10
1389.999995
 20
825.0000059999999
 30
0.0
  0
POINT
  5
1F9
330
1F1
100
AcDbEntity
  8
DEFPOINTS
 62
     0
100
AcDbPoint
 10
779.9999279999998
 20
825.0000059999999
 30
0.0
  0
POINT
  5
1FA
330
1F1
100
AcDbEntity
  8
DEFPOINTS
 62
     0
100
AcDbPoint
 10
779.9999279999998
 20
664.9999999998868
 30
0.0
  0
ENDBLK
  5
1F3
330
1F1
100
AcDbEntity
  8
0
100
AcDbBlockEnd
  0
BLOCK
  5
1FD
330
1FC
100
AcDbEntity
  8
0
100
AcDbBlockBegin
  2
*D32
 70
     1
 10
0.0
 20
0.0
 30
0.0
  3
*D32
  1

  0
LINE
  5
1FF
330
1FC
100
AcDbEntity
  8
Ｓ_１_１
  6
CONTINUOUS
 62
     2
100
AcDbLine
 10
1575.000000000017
 20
1354.999996
 30
0.0
 11
1575.000000000017
 21
1329.999996
 31
0.0
  0
LINE
  5
200
330
1FC
100
AcDbEntity
  8
Ｓ_１_１
  6
CONTINUOUS
 62
     2
100
AcDbLine
 10
1575.000000000017
 20
1369.999996
 30
0.0
 11
1575.000000000017
 21
1384.999996
 31
0.0
  0
LINE
  5
201
330
1FC
100
AcDbEntity
  8
Ｓ_１_１
  6
CONTINUOUS
 62
     2
100
AcDbLine
 10
1575.000000000017
 20
1314.999996
 30
0.0
 11
1575.000000000017
 21
1299.999996
 31
0.0
  0
INSERT
  5
202
330
1FC
100
AcDbEntity
  8
Ｓ_１_１
 62
     2
100
AcDbBlockReference
  2
EX_NORM
 10
1575.000000000017
 20
1354.999996
 30
0.0
 41
15.0
 42
15.0
 43
15.0
 50
270.0
  0
INSERT
  5
203
330
1FC
100
AcDbEntity
  8
Ｓ_１_１
 62
     2
100
AcDbBlockReference
  2
EX_NORM
 10
1575.000000000017
 20
1329.999996
 30
0.0
 41
15.0
 42
15.0
 43
15.0
 50
90.0
  0
MTEXT
  5
204
330
1FC
100
AcDbEntity
  8
Ｓ_１_１
 62
     2
100
AcDbMText
 10
1558.999980032464
 20
1383.499995999999
 30
0.0
 40
20.77742494226328
 41
0.0
 71
     5
 72
     1
  1
25
  7
EXCADDIM1
 11
0.0
 21
1.0
 31
0.0
  0
POINT
  5
205
330
1FC
100
AcDbEntity
  8
DEFPOINTS
 62
     0
100
AcDbPoint
 10
1409.999998
 20
1354.999996
 30
0.0
  0
POINT
  5
206
330
1FC
100
AcDbEntity
  8
DEFPOINTS
 62
     0
100
AcDbPoint
 10
1472.499992
 20
1329.999996
 30
0.0
  0
POINT
  5
207
330
1FC
100
AcDbEntity
  8
DEFPOINTS
 62
     0
100
AcDbPoint
 10
1575.000000000017
 20
1329.999996
 30
0.0
  0
ENDBLK
  5
1FE
330
1FC
100
AcDbEntity
  8
0
100
AcDbBlockEnd
  0
BLOCK
  5
20A
330
209
100
AcDbEntity
  8
0
100
AcDbBlockBegin
  2
*D33
 70
     1
 10
0.0
 20
0.0
 30
0.0
  3
*D33
  1

  0
LINE
  5
20C
330
209
100
AcDbEntity
  8
Ｓ_１_１
  6
CONTINUOUS
 62
     2
100
AcDbLine
 10
1574.999999999995
 20
815.0000039999998
 30
0.0
 11
1574.999999999995
 21
840.0000029999999
 31
0.0
  0
LINE
  5
20D
330
209
100
AcDbEntity
  8
Ｓ_１_１
  6
CONTINUOUS
 62
     2
100
AcDbLine
 10
1574.999999999995
 20
800.0000039999998
 30
0.0
 11
1574.999999999995
 21
785.0000039999998
 31
0.0
  0
LINE
  5
20E
330
209
100
AcDbEntity
  8
Ｓ_１_１
  6
CONTINUOUS
 62
     2
100
AcDbLine
 10
1574.999999999995
 20
855.0000029999999
 30
0.0
 11
1574.999999999995
 21
870.0000029999999
 31
0.0
  0
INSERT
  5
20F
330
209
100
AcDbEntity
  8
Ｓ_１_１
 62
     2
100
AcDbBlockReference
  2
EX_NORM
 10
1574.999999999995
 20
815.0000039999998
 30
0.0
 41
15.0
 42
15.0
 43
15.0
 50
90.0
  0
INSERT
  5
210
330
209
100
AcDbEntity
  8
Ｓ_１_１
 62
     2
100
AcDbBlockReference
  2
EX_NORM
 10
1574.999999999995
 20
840.0000029999999
 30
0.0
 41
15.0
 42
15.0
 43
15.0
 50
270.0
  0
MTEXT
  5
211
330
209
100
AcDbEntity
  8
Ｓ_１_１
 62
     2
100
AcDbMText
 10
1558.999980032441
 20
786.5000039999977
 30
0.0
 40
20.77742494226328
 41
0.0
 71
     5
 72
     1
  1
25
  7
EXCADDIM1
 11
0.0
 21
1.0
 31
0.0
  0
POINT
  5
212
330
209
100
AcDbEntity
  8
DEFPOINTS
 62
     0
100
AcDbPoint
 10
1409.999981
 20
815.0000039999998
 30
0.0
  0
POINT
  5
213
330
209
100
AcDbEntity
  8
DEFPOINTS
 62
     0
100
AcDbPoint
 10
1472.499992
 20
840.0000029999999
 30
0.0
  0
POINT
  5
214
330
209
100
AcDbEntity
  8
DEFPOINTS
 62
     0
100
AcDbPoint
 10
1574.999999999995
 20
840.0000029999999
 30
0.0
  0
ENDBLK
  5
20B
330
209
100
AcDbEntity
  8
0
100
AcDbBlockEnd
  0
BLOCK
  5
219
330
218
100
AcDbEntity
  8
0
100
AcDbBlockBegin
  2
*D34
 70
     1
 10
0.0
 20
0.0
 30
0.0
  3
*D34
  1

  0
LINE
  5
21B
330
218
100
AcDbEntity
  8
Ｓ_１_１
  6
CONTINUOUS
 62
     2
100
AcDbLine
 10
779.5000349999997
 20
444.8999909999999
 30
0.0
 11
592.5000201463741
 21
444.8999909999999
 31
0.0
  0
LINE
  5
21C
330
218
100
AcDbEntity
  8
Ｓ_１_１
  6
CONTINUOUS
 62
     2
100
AcDbLine
 10
597.5000000000042
 20
454.8999909999998
 30
0.0
 11
597.5000000000042
 21
444.8999909999999
 31
0.0
  0
LINE
  5
21D
330
218
100
AcDbEntity
  8
Ｓ_１_１
  6
CONTINUOUS
 62
     2
100
AcDbLine
 10
597.5000000000042
 20
469.8999909999998
 30
0.0
 11
597.5000000000042
 21
484.8999909999998
 31
0.0
  0
LINE
  5
21E
330
218
100
AcDbEntity
  8
Ｓ_１_１
  6
CONTINUOUS
 62
     2
100
AcDbLine
 10
597.5000000000042
 20
429.8999909999999
 30
0.0
 11
597.5000000000042
 21
414.8999909999999
 31
0.0
  0
INSERT
  5
21F
330
218
100
AcDbEntity
  8
Ｓ_１_１
 62
     2
100
AcDbBlockReference
  2
EX_NORM
 10
597.5000000000042
 20
454.8999909999998
 30
0.0
 41
15.0
 42
15.0
 43
15.0
 50
270.0
  0
INSERT
  5
220
330
218
100
AcDbEntity
  8
Ｓ_１_１
 62
     2
100
AcDbBlockReference
  2
EX_NORM
 10
597.5000000000042
 20
444.8999909999999
 30
0.0
 41
15.0
 42
15.0
 43
15.0
 50
90.0
  0
MTEXT
  5
221
330
218
100
AcDbEntity
  8
Ｓ_１_１
 62
     2
100
AcDbMText
 10
581.4999800324492
 20
483.3999909999999
 30
0.0
 40
20.77742494226328
 41
0.0
 71
     5
 72
     1
  1
10
  7
EXCADDIM1
 11
0.0
 21
1.0
 31
0.0
  0
POINT
  5
222
330
218
100
AcDbEntity
  8
DEFPOINTS
 62
     0
100
AcDbPoint
 10
805.0000799999999
 20
454.8999909999998
 30
0.0
  0
POINT
  5
223
330
218
100
AcDbEntity
  8
DEFPOINTS
 62
     0
100
AcDbPoint
 10
787.0000349999997
 20
444.8999909999999
 30
0.0
  0
POINT
  5
224
330
218
100
AcDbEntity
  8
DEFPOINTS
 62
     0
100
AcDbPoint
 10
597.5000000000042
 20
444.8999909999999
 30
0.0
  0
ENDBLK
  5
21A
330
218
100
AcDbEntity
  8
0
100
AcDbBlockEnd
  0
BLOCK
  5
22D
330
22C
100
AcDbEntity
  8
0
100
AcDbBlockBegin
  2
*D35
 70
     1
 10
0.0
 20
0.0
 30
0.0
  3
*D35
  1

  0
LINE
  5
22F
330
22C
100
AcDbEntity
  8
Ｓ_１_１
  6
CONTINUOUS
 62
     2
100
AcDbLine
 10
1076.0
 20
1339.999996
 30
0.0
 11
588.9999999999994
 21
1339.999996
 31
0.0
  0
LINE
  5
230
330
22C
100
AcDbEntity
  8
Ｓ_１_１
  6
CONTINUOUS
 62
     2
100
AcDbLine
 10
1076.0
 20
830.0000029999998
 30
0.0
 11
588.9999999999994
 21
830.0000029999999
 31
0.0
  0
LINE
  5
231
330
22C
100
AcDbEntity
  8
Ｓ_１_１
  6
CONTINUOUS
 62
     2
100
AcDbLine
 10
594.9999999999998
 20
1321.999996
 30
0.0
 11
594.9999999999998
 21
848.0000029999999
 31
0.0
  0
INSERT
  5
232
330
22C
100
AcDbEntity
  8
Ｓ_１_１
 62
     2
100
AcDbBlockReference
  2
EX_NORM
 10
594.9999999999998
 20
1339.999996
 30
0.0
 41
18.0
 42
18.0
 43
18.0
 50
90.0
  0
INSERT
  5
233
330
22C
100
AcDbEntity
  8
Ｓ_１_１
 62
     2
100
AcDbBlockReference
  2
EX_NORM
 10
594.9999999999998
 20
830.0000029999999
 30
0.0
 41
18.0
 42
18.0
 43
18.0
 50
270.0
  0
MTEXT
  5
234
330
22C
100
AcDbEntity
  8
Ｓ_１_１
 62
     2
100
AcDbMText
 10
578.5000000000001
 20
1084.9999995
 30
0.0
 40
20.77742494226328
 41
0.0
 71
     5
 72
     1
  1
510
  7
EXCADDIM1
 11
0.0
 21
1.0
 31
0.0
  0
POINT
  5
235
330
22C
100
AcDbEntity
  8
DEFPOINTS
 62
     0
100
AcDbPoint
 10
1085.0
 20
1339.999996
 30
0.0
  0
POINT
  5
236
330
22C
100
AcDbEntity
  8
DEFPOINTS
 62
     0
100
AcDbPoint
 10
1085.0
 20
830.0000029999998
 30
0.0
  0
POINT
  5
237
330
22C
100
AcDbEntity
  8
DEFPOINTS
 62
     0
100
AcDbPoint
 10
594.9999999999998
 20
830.0000029999999
 30
0.0
  0
ENDBLK
  5
22E
330
22C
100
AcDbEntity
  8
0
100
AcDbBlockEnd
  0
BLOCK
  5
23A
330
239
100
AcDbEntity
  8
0
100
AcDbBlockBegin
  2
*D36
 70
     1
 10
0.0
 20
0.0
 30
0.0
  3
*D36
  1

  0
LINE
  5
23C
330
239
100
AcDbEntity
  8
Ｓ_１_１
  6
CONTINUOUS
 62
     2
100
AcDbLine
 10
835.0000799999999
 20
1293.999997
 30
0.0
 11
835.0000799999999
 21
1511.0
 31
0.0
  0
LINE
  5
23D
330
239
100
AcDbEntity
  8
Ｓ_１_１
  6
CONTINUOUS
 62
     2
100
AcDbLine
 10
1334.999996
 20
1293.999997
 30
0.0
 11
1334.999996
 21
1511.0
 31
0.0
  0
LINE
  5
23E
330
239
100
AcDbEntity
  8
Ｓ_１_１
  6
CONTINUOUS
 62
     2
100
AcDbLine
 10
853.0000799999999
 20
1505.0
 30
0.0
 11
1316.999996
 21
1505.0
 31
0.0
  0
INSERT
  5
23F
330
239
100
AcDbEntity
  8
Ｓ_１_１
 62
     2
100
AcDbBlockReference
  2
EX_NORM
 10
835.0000799999999
 20
1505.0
 30
0.0
 41
18.0
 42
18.0
 43
18.0
 50
180.0
  0
INSERT
  5
240
330
239
100
AcDbEntity
  8
Ｓ_１_１
 62
     2
100
AcDbBlockReference
  2
EX_NORM
 10
1334.999996
 20
1505.0
 30
0.0
 41
18.0
 42
18.0
 43
18.0
  0
MTEXT
  5
241
330
239
100
AcDbEntity
  8
Ｓ_１_１
 62
     2
100
AcDbMText
 10
1085.000038
 20
1521.5
 30
0.0
 40
20.77742494226328
 41
0.0
 71
     5
 72
     1
  1
500
  7
EXCADDIM1
  0
POINT
  5
242
330
239
100
AcDbEntity
  8
DEFPOINTS
 62
     0
100
AcDbPoint
 10
835.0000799999999
 20
1284.999997
 30
0.0
  0
POINT
  5
243
330
239
100
AcDbEntity
  8
DEFPOINTS
 62
     0
100
AcDbPoint
 10
1334.999996
 20
1284.999997
 30
0.0
  0
POINT
  5
244
330
239
100
AcDbEntity
  8
DEFPOINTS
 62
     0
100
AcDbPoint
 10
1334.999996
 20
1505.0
 30
0.0
  0
ENDBLK
  5
23B
330
239
100
AcDbEntity
  8
0
100
AcDbBlockEnd
  0
BLOCK
  5
247
330
246
100
AcDbEntity
  8
0
100
AcDbBlockBegin
  2
*D37
 70
     1
 10
0.0
 20
0.0
 30
0.0
  3
*D37
  1

  0
LINE
  5
249
330
246
100
AcDbEntity
  8
Ｓ_１_１
  6
CONTINUOUS
 62
     2
100
AcDbLine
 10
735.0000803455
 20
340.899992
 30
0.0
 11
735.0000803455
 21
169.0
 31
0.0
  0
LINE
  5
24A
330
246
100
AcDbEntity
  8
Ｓ_１_１
  6
CONTINUOUS
 62
     2
100
AcDbLine
 10
835.0000799999999
 20
340.899992
 30
0.0
 11
835.0000799999999
 21
169.0
 31
0.0
  0
LINE
  5
24B
330
246
100
AcDbEntity
  8
Ｓ_１_１
  6
CONTINUOUS
 62
     2
100
AcDbLine
 10
753.0000803455
 20
175.0
 30
0.0
 11
817.0000799999999
 21
175.0
 31
0.0
  0
INSERT
  5
24C
330
246
100
AcDbEntity
  8
Ｓ_１_１
 62
     2
100
AcDbBlockReference
  2
EX_NORM
 10
735.0000803455
 20
175.0
 30
0.0
 41
18.0
 42
18.0
 43
18.0
 50
180.0
  0
INSERT
  5
24D
330
246
100
AcDbEntity
  8
Ｓ_１_１
 62
     2
100
AcDbBlockReference
  2
EX_NORM
 10
835.0000799999999
 20
175.0
 30
0.0
 41
18.0
 42
18.0
 43
18.0
  0
MTEXT
  5
24E
330
246
100
AcDbEntity
  8
Ｓ_１_１
 62
     2
100
AcDbMText
 10
785.0000801727499
 20
191.5
 30
0.0
 40
20.77742494226328
 41
0.0
 71
     5
 72
     1
  1
100
  7
EXCADDIM1
  0
POINT
  5
24F
330
246
100
AcDbEntity
  8
DEFPOINTS
 62
     0
100
AcDbPoint
 10
735.0000803455
 20
349.899992
 30
0.0
  0
POINT
  5
250
330
246
100
AcDbEntity
  8
DEFPOINTS
 62
     0
100
AcDbPoint
 10
835.0000799999999
 20
349.899992
 30
0.0
  0
POINT
  5
251
330
246
100
AcDbEntity
  8
DEFPOINTS
 62
     0
100
AcDbPoint
 10
835.0000799999999
 20
175.0
 30
0.0
  0
ENDBLK
  5
248
330
246
100
AcDbEntity
  8
0
100
AcDbBlockEnd
  0
BLOCK
  5
254
330
253
100
AcDbEntity
  8
0
100
AcDbBlockBegin
  2
*D38
 70
     1
 10
0.0
 20
0.0
 30
0.0
  3
*D38
  1

  0
LINE
  5
256
330
253
100
AcDbEntity
  8
Ｓ_１_１
  6
CONTINUOUS
 62
     2
100
AcDbLine
 10
675.9074244142009
 20
1326.499997000001
 30
0.0
 11
675.9074244142009
 21
1546.0
 31
0.0
  0
LINE
  5
257
330
253
100
AcDbEntity
  8
Ｓ_１_１
  6
CONTINUOUS
 62
     2
100
AcDbLine
 10
1494.0925755858
 20
1326.499997
 30
0.0
 11
1494.0925755858
 21
1546.0
 31
0.0
  0
LINE
  5
258
330
253
100
AcDbEntity
  8
Ｓ_１_１
  6
CONTINUOUS
 62
     2
100
AcDbLine
 10
693.9074244142009
 20
1540.0
 30
0.0
 11
1476.0925755858
 21
1540.0
 31
0.0
  0
INSERT
  5
259
330
253
100
AcDbEntity
  8
Ｓ_１_１
 62
     2
100
AcDbBlockReference
  2
EX_NORM
 10
675.9074244142009
 20
1540.0
 30
0.0
 41
18.0
 42
18.0
 43
18.0
 50
180.0
  0
INSERT
  5
25A
330
253
100
AcDbEntity
  8
Ｓ_１_１
 62
     2
100
AcDbBlockReference
  2
EX_NORM
 10
1494.0925755858
 20
1540.0
 30
0.0
 41
18.0
 42
18.0
 43
18.0
  0
MTEXT
  5
25B
330
253
100
AcDbEntity
  8
Ｓ_１_１
 62
     2
100
AcDbMText
 10
1085.000000000001
 20
1556.5
 30
0.0
 40
20.77742494226328
 41
0.0
 71
     5
 72
     1
  1
818.19
  7
EXCADDIM1
  0
POINT
  5
25C
330
253
100
AcDbEntity
  8
DEFPOINTS
 62
     0
100
AcDbPoint
 10
675.9074244142009
 20
1317.499997000001
 30
0.0
  0
POINT
  5
25D
330
253
100
AcDbEntity
  8
DEFPOINTS
 62
     0
100
AcDbPoint
 10
1494.0925755858
 20
1317.499997
 30
0.0
  0
POINT
  5
25E
330
253
100
AcDbEntity
  8
DEFPOINTS
 62
     0
100
AcDbPoint
 10
1494.0925755858
 20
1540.0
 30
0.0
  0
ENDBLK
  5
255
330
253
100
AcDbEntity
  8
0
100
AcDbBlockEnd
  0
BLOCK
  5
261
330
260
100
AcDbEntity
  8
0
100
AcDbBlockBegin
  2
*D39
 70
     1
 10
0.0
 20
0.0
 30
0.0
  3
*D39
  1

  0
LINE
  5
263
330
260
100
AcDbEntity
  8
Ｓ_１_１
  6
CONTINUOUS
 62
     2
100
AcDbLine
 10
1026.000077
 20
1447.499994
 30
0.0
 11
553.9999999999995
 21
1447.499994
 31
0.0
  0
LINE
  5
264
330
260
100
AcDbEntity
  8
Ｓ_１_１
  6
CONTINUOUS
 62
     2
100
AcDbLine
 10
1026.000077
 20
722.500005
 30
0.0
 11
553.9999999999995
 21
722.5000050000001
 31
0.0
  0
LINE
  5
265
330
260
100
AcDbEntity
  8
Ｓ_１_１
  6
CONTINUOUS
 62
     2
100
AcDbLine
 10
559.9999999999999
 20
1429.499994
 30
0.0
 11
559.9999999999999
 21
740.5000050000001
 31
0.0
  0
INSERT
  5
266
330
260
100
AcDbEntity
  8
Ｓ_１_１
 62
     2
100
AcDbBlockReference
  2
EX_NORM
 10
559.9999999999999
 20
1447.499994
 30
0.0
 41
18.0
 42
18.0
 43
18.0
 50
90.0
  0
INSERT
  5
267
330
260
100
AcDbEntity
  8
Ｓ_１_１
 62
     2
100
AcDbBlockReference
  2
EX_NORM
 10
559.9999999999999
 20
722.5000050000001
 30
0.0
 41
18.0
 42
18.0
 43
18.0
 50
270.0
  0
MTEXT
  5
268
330
260
100
AcDbEntity
  8
Ｓ_１_１
 62
     2
100
AcDbMText
 10
543.5000000000002
 20
1084.9999995
 30
0.0
 40
20.77742494226328
 41
0.0
 71
     5
 72
     1
  1
725
  7
EXCADDIM1
 11
0.0
 21
1.0
 31
0.0
  0
POINT
  5
269
330
260
100
AcDbEntity
  8
DEFPOINTS
 62
     0
100
AcDbPoint
 10
1035.000077
 20
1447.499994
 30
0.0
  0
POINT
  5
26A
330
260
100
AcDbEntity
  8
DEFPOINTS
 62
     0
100
AcDbPoint
 10
1035.000077
 20
722.500005
 30
0.0
  0
POINT
  5
26B
330
260
100
AcDbEntity
  8
DEFPOINTS
 62
     0
100
AcDbPoint
 10
559.9999999999999
 20
722.5000050000001
 30
0.0
  0
ENDBLK
  5
262
330
260
100
AcDbEntity
  8
0
100
AcDbBlockEnd
  0
BLOCK
  5
3B7
330
3B6
100
AcDbEntity
  8
0
100
AcDbBlockBegin
  2
*D40
 70
     1
 10
0.0
 20
0.0
 30
0.0
  3
*D40
  1

  0
LINE
  5
3B9
330
3B6
100
AcDbEntity
  8
Ｓ_１_１
  6
CONTINUOUS
 62
     2
100
AcDbLine
 10
779.9999279999998
 20
816.00013
 30
0.0
 11
779.9999279999998
 21
659.0
 31
0.0
  0
LINE
  5
3BA
330
3B6
100
AcDbEntity
  8
Ｓ_１_１
  6
CONTINUOUS
 62
     2
100
AcDbLine
 10
744.999928
 20
816.0000959999899
 30
0.0
 11
744.999928
 21
659.0
 31
0.0
  0
LINE
  5
3BB
330
3B6
100
AcDbEntity
  8
Ｓ_１_１
  6
CONTINUOUS
 62
     2
100
AcDbLine
 10
779.9999279999998
 20
665.0
 30
0.0
 11
744.999928
 21
665.0
 31
0.0
  0
LINE
  5
3BC
330
3B6
100
AcDbEntity
  8
Ｓ_１_１
  6
CONTINUOUS
 62
     2
100
AcDbLine
 10
797.9999279999998
 20
665.0
 30
0.0
 11
815.9999279999998
 21
665.0
 31
0.0
  0
LINE
  5
3BD
330
3B6
100
AcDbEntity
  8
Ｓ_１_１
  6
CONTINUOUS
 62
     2
100
AcDbLine
 10
726.999928
 20
665.0
 30
0.0
 11
708.999928
 21
665.0
 31
0.0
  0
INSERT
  5
3BE
330
3B6
100
AcDbEntity
  8
Ｓ_１_１
 62
     2
100
AcDbBlockReference
  2
EX_NORM
 10
779.9999279999998
 20
665.0
 30
0.0
 41
18.0
 42
18.0
 43
18.0
 50
180.0
  0
INSERT
  5
3BF
330
3B6
100
AcDbEntity
  8
Ｓ_１_１
 62
     2
100
AcDbBlockReference
  2
EX_NORM
 10
744.999928
 20
665.0
 30
0.0
 41
18.0
 42
18.0
 43
18.0
  0
MTEXT
  5
3C0
330
3B6
100
AcDbEntity
  8
Ｓ_１_１
 62
     2
100
AcDbMText
 10
645.9999280000003
 20
681.4999999999999
 30
0.0
 40
20.77742494226328
 41
0.0
 71
     5
 72
     1
  1
35（移動量）
  7
EXCADDIM1
  0
POINT
  5
3C1
330
3B6
100
AcDbEntity
  8
DEFPOINTS
 62
     0
100
AcDbPoint
 10
779.9999279999998
 20
825.00013
 30
0.0
  0
POINT
  5
3C2
330
3B6
100
AcDbEntity
  8
DEFPOINTS
 62
     0
100
AcDbPoint
 10
744.999928
 20
825.0000959999899
 30
0.0
  0
POINT
  5
3C3
330
3B6
100
AcDbEntity
  8
DEFPOINTS
 62
     0
100
AcDbPoint
 10
744.999928
 20
665.0
 30
0.0
  0
ENDBLK
  5
3B8
330
3B6
100
AcDbEntity
  8
0
100
AcDbBlockEnd
  0
BLOCK
  5
3C6
330
3C5
100
AcDbEntity
  8
0
100
AcDbBlockBegin
  2
*D41
 70
     1
 10
0.0
 20
0.0
 30
0.0
  3
*D41
  1

  0
LINE
  5
3C8
330
3C5
100
AcDbEntity
  8
Ｓ_１_１
  6
CONTINUOUS
 62
     2
100
AcDbLine
 10
1389.999995
 20
816.0000509999999
 30
0.0
 11
1389.999995
 21
659.0
 31
0.0
  0
LINE
  5
3C9
330
3C5
100
AcDbEntity
  8
Ｓ_１_１
  6
CONTINUOUS
 62
     2
100
AcDbLine
 10
1424.999995
 20
816.000019
 30
0.0
 11
1424.999995
 21
659.0
 31
0.0
  0
LINE
  5
3CA
330
3C5
100
AcDbEntity
  8
Ｓ_１_１
  6
CONTINUOUS
 62
     2
100
AcDbLine
 10
1389.999995
 20
665.0
 30
0.0
 11
1424.999995
 21
665.0
 31
0.0
  0
LINE
  5
3CB
330
3C5
100
AcDbEntity
  8
Ｓ_１_１
  6
CONTINUOUS
 62
     2
100
AcDbLine
 10
1371.999995
 20
665.0
 30
0.0
 11
1353.999995
 21
665.0
 31
0.0
  0
LINE
  5
3CC
330
3C5
100
AcDbEntity
  8
Ｓ_１_１
  6
CONTINUOUS
 62
     2
100
AcDbLine
 10
1442.999995
 20
665.0
 30
0.0
 11
1460.999995
 21
665.0
 31
0.0
  0
INSERT
  5
3CD
330
3C5
100
AcDbEntity
  8
Ｓ_１_１
 62
     2
100
AcDbBlockReference
  2
EX_NORM
 10
1389.999995
 20
665.0
 30
0.0
 41
18.0
 42
18.0
 43
18.0
  0
INSERT
  5
3CE
330
3C5
100
AcDbEntity
  8
Ｓ_１_１
 62
     2
100
AcDbBlockReference
  2
EX_NORM
 10
1424.999995
 20
665.0
 30
0.0
 41
18.0
 42
18.0
 43
18.0
 50
180.0
  0
MTEXT
  5
3CF
330
3C5
100
AcDbEntity
  8
Ｓ_１_１
 62
     2
100
AcDbMText
 10
1523.999995
 20
681.5
 30
0.0
 40
20.77742494226328
 41
0.0
 71
     5
 72
     1
  1
35（移動量）
  7
EXCADDIM1
  0
POINT
  5
3D0
330
3C5
100
AcDbEntity
  8
DEFPOINTS
 62
     0
100
AcDbPoint
 10
1389.999995
 20
825.0000509999999
 30
0.0
  0
POINT
  5
3D1
330
3C5
100
AcDbEntity
  8
DEFPOINTS
 62
     0
100
AcDbPoint
 10
1424.999995
 20
825.000019
 30
0.0
  0
POINT
  5
3D2
330
3C5
100
AcDbEntity
  8
DEFPOINTS
 62
     0
100
AcDbPoint
 10
1424.999995
 20
665.0
 30
0.0
  0
ENDBLK
  5
3C7
330
3C5
100
AcDbEntity
  8
0
100
AcDbBlockEnd
  0
ENDSEC
  0
SECTION
  2
ENTITIES
  0
LINE
  5
D4
330
1F
100
AcDbEntity
  8
図面枠
  6
CONTINUOUS
 62
     5
100
AcDbLine
 10
60.0
 20
60.0
 30
0.0
 11
2460.0
 21
60.0
 31
0.0
  0
LINE
  5
D5
330
1F
100
AcDbEntity
  8
図面枠
  6
CONTINUOUS
 62
     5
100
AcDbLine
 10
2460.0
 20
60.0
 30
0.0
 11
2460.0
 21
1722.0
 31
0.0
  0
LINE
  5
D6
330
1F
100
AcDbEntity
  8
図面枠
  6
CONTINUOUS
 62
     5
100
AcDbLine
 10
2460.0
 20
1722.0
 30
0.0
 11
60.00000000000031
 21
1722.0
 31
0.0
  0
LINE
  5
D7
330
1F
100
AcDbEntity
  8
図面枠
  6
CONTINUOUS
 62
     5
100
AcDbLine
 10
60.00000000000031
 20
1722.0
 30
0.0
 11
60.0
 21
60.0
 31
0.0
  0
LINE
  5
D8
330
1F
100
AcDbEntity
  8
図面枠
  6
CONTINUOUS
 62
     3
100
AcDbLine
 10
90.0000000000001
 20
1692.0
 30
0.0
 11
90.0000000000001
 21
1638.0
 31
0.0
  0
TEXT
  5
DA
330
1F
100
AcDbEntity
  8
図面枠
  6
CONTINUOUS
 62
     4
100
AcDbText
 10
2322.0
 20
1628.296875
 30
0.0
 40
20.77742494226328
  1
kN
 41
0.999230769230769
  7
EXCADTTF1
 72
     5
 11
2349.0
 21
1628.296875
 31
0.0
100
AcDbText
  0
TEXT
  5
DB
330
1F
100
AcDbEntity
  8
図面枠
  6
CONTINUOUS
 62
     4
100
AcDbText
 10
2244.0
 20
1628.296875
 30
0.0
 40
20.77742494226328
  1
5000
 41
0.999230769230769
  7
EXCADTTF1
 72
     5
 11
2298.0
 21
1628.296875
 31
0.0
100
AcDbText
  0
LINE
  5
DC
330
1F
100
AcDbEntity
  8
図面枠
  6
CONTINUOUS
 62
     3
100
AcDbLine
 10
2250.0
 20
144.0
 30
0.0
 11
2250.0
 21
90.0
 31
0.0
  0
LINE
  5
DD
330
1F
100
AcDbEntity
  8
図面枠
  6
CONTINUOUS
 62
     3
100
AcDbLine
 10
2250.0
 20
144.0
 30
0.0
 11
2430.0
 21
144.0
 31
0.0
  0
LINE
  5
DE
330
1F
100
AcDbEntity
  8
図面枠
  6
CONTINUOUS
 62
     3
100
AcDbLine
 10
2250.0
 20
90.0
 30
0.0
 11
2430.0
 21
90.0
 31
0.0
  0
LINE
  5
DF
330
1F
100
AcDbEntity
  8
図面枠
  6
CONTINUOUS
 62
     3
100
AcDbLine
 10
2430.0
 20
144.0
 30
0.0
 11
2430.0
 21
90.0
 31
0.0
  0
TEXT
  5
E0
330
1F
100
AcDbEntity
  8
図面枠
  6
CONTINUOUS
 62
     4
100
AcDbText
 10
2268.0
 20
104.0625
 30
0.0
 40
27.70323325635104
  1
MJ-50050
 41
0.9992307692307693
  7
EXCADTTF1
 72
     5
 11
2412.0
 21
104.0625
 31
0.0
100
AcDbText
  0
TEXT
  5
E1
330
1F
100
AcDbEntity
  8
図面枠
  6
CONTINUOUS
 62
     4
100
AcDbText
 10
2322.0
 20
1376.296875
 30
0.0
 40
20.77742494226328
  1
cm
 41
0.999230769230769
  7
EXCADTTF1
 72
     5
 11
2349.0
 21
1376.296875
 31
0.0
100
AcDbText
  0
TEXT
  5
E2
330
1F
100
AcDbEntity
  8
図面枠
  6
CONTINUOUS
 62
     4
100
AcDbText
 10
2340.900000000001
 20
1389.05859388411
 30
0.0
 40
9.349840196579397
  1
2
 41
0.9992308790346205
  7
EXCADTTF1
 72
     5
 11
2346.975
 21
1389.05859388411
 31
0.0
100
AcDbText
  0
TEXT
  5
E3
330
1F
100
AcDbEntity
  8
図面枠
  6
CONTINUOUS
 62
     4
100
AcDbText
 10
2322.0
 20
1520.296875
 30
0.0
 40
20.77742494226328
  1
mm
 41
0.999230769230769
  7
EXCADTTF1
 72
     5
 11
2349.0
 21
1520.296875
 31
0.0
100
AcDbText
  0
TEXT
  5
E4
330
1F
100
AcDbEntity
  8
図面枠
  6
CONTINUOUS
 62
     4
100
AcDbText
 10
2322.0
 20
1556.296875
 30
0.0
 40
20.77742494226328
  1
mm
 41
0.999230769230769
  7
EXCADTTF1
 72
     5
 11
2349.0
 21
1556.296875
 31
0.0
100
AcDbText
  0
TEXT
  5
E5
330
1F
100
AcDbEntity
  8
図面枠
  6
CONTINUOUS
 62
     4
100
AcDbText
 10
2322.0
 20
1592.296875
 30
0.0
 40
20.77742494226328
  1
mm
 41
0.999230769230769
  7
EXCADTTF1
 72
     5
 11
2349.0
 21
1592.296875
 31
0.0
100
AcDbText
  0
TEXT
  5
E6
330
1F
100
AcDbEntity
  8
図面枠
  6
CONTINUOUS
 62
     4
100
AcDbText
 10
2322.0
 20
1340.296875
 30
0.0
 40
20.77742494226328
  1
MPa
 41
0.999230769230769
  7
EXCADTTF1
 72
     5
 11
2362.5
 21
1340.296875
 31
0.0
100
AcDbText
  0
TEXT
  5
E7
330
1F
100
AcDbEntity
  8
図面枠
  6
CONTINUOUS
 62
     4
100
AcDbText
 10
2322.0
 20
1412.296875
 30
0.0
 40
20.77742494226328
  1
mm
 41
0.999230769230769
  7
EXCADTTF1
 72
     5
 11
2349.0
 21
1412.296875
 31
0.0
100
AcDbText
  0
TEXT
  5
E8
330
1F
100
AcDbEntity
  8
図面枠
  6
CONTINUOUS
 62
     4
100
AcDbText
 10
2322.0
 20
1448.296875
 30
0.0
 40
20.77742494226328
  1
mm
 41
0.999230769230769
  7
EXCADTTF1
 72
     5
 11
2349.0
 21
1448.296875
 31
0.0
100
AcDbText
  0
TEXT
  5
E9
330
1F
100
AcDbEntity
  8
図面枠
  6
CONTINUOUS
 62
     4
100
AcDbText
 10
2322.0
 20
1484.296875
 30
0.0
 40
20.77742494226328
  1
mm
 41
0.999230769230769
  7
EXCADTTF1
 72
     5
 11
2349.0
 21
1484.296875
 31
0.0
100
AcDbText
  0
TEXT
  5
EA
330
1F
100
AcDbEntity
  8
図面枠
  6
CONTINUOUS
 62
     4
100
AcDbText
 10
2271.0
 20
1592.296875
 30
0.0
 40
20.77742494226328
  1
50
 41
0.999230769230769
  7
EXCADTTF1
 72
     5
 11
2298.0
 21
1592.296875
 31
0.0
100
AcDbText
  0
TEXT
  5
EB
330
1F
100
AcDbEntity
  8
図面枠
  6
CONTINUOUS
 62
     4
100
AcDbText
 10
2257.62
 20
1556.296875
 30
0.0
 40
20.77742494226328
  1
260
 41
0.999230769230769
  7
EXCADTTF1
 72
     5
 11
2298.12
 21
1556.296875
 31
0.0
100
AcDbText
  0
TEXT
  5
EC
330
1F
100
AcDbEntity
  8
図面枠
  6
CONTINUOUS
 62
     4
100
AcDbText
 10
2257.62
 20
1520.296875
 30
0.0
 40
20.77742494226328
  1
210
 41
0.999230769230769
  7
EXCADTTF1
 72
     5
 11
2298.12
 21
1520.296875
 31
0.0
100
AcDbText
  0
TEXT
  5
ED
330
1F
100
AcDbEntity
  8
図面枠
  6
CONTINUOUS
 62
     4
100
AcDbText
 10
2257.62
 20
1484.296875
 30
0.0
 40
20.77742494226328
  1
400
 41
0.999230769230769
  7
EXCADTTF1
 72
     5
 11
2298.12
 21
1484.296875
 31
0.0
100
AcDbText
  0
TEXT
  5
EE
330
1F
100
AcDbEntity
  8
図面枠
  6
CONTINUOUS
 62
     4
100
AcDbText
 10
2257.5
 20
1448.296875
 30
0.0
 40
20.77742494226328
  1
265
 41
0.999230769230769
  7
EXCADTTF1
 72
     5
 11
2298.0
 21
1448.296875
 31
0.0
100
AcDbText
  0
TEXT
  5
EF
330
1F
100
AcDbEntity
  8
図面枠
  6
CONTINUOUS
 62
     4
100
AcDbText
 10
2257.5
 20
1412.296875
 30
0.0
 40
20.77742494226328
  1
315
 41
0.999230769230769
  7
EXCADTTF1
 72
     5
 11
2298.0
 21
1412.296875
 31
0.0
100
AcDbText
  0
TEXT
  5
F0
330
1F
100
AcDbEntity
  8
図面枠
  6
CONTINUOUS
 62
     4
100
AcDbText
 10
2230.5
 20
1376.296875
 30
0.0
 40
20.77742494226328
  1
779.3
 41
0.9992307692307689
  7
EXCADTTF1
 72
     5
 11
2298.0
 21
1376.296875
 31
0.0
100
AcDbText
  0
TEXT
  5
F1
330
1F
100
AcDbEntity
  8
図面枠
  6
CONTINUOUS
 62
     4
100
AcDbText
 10
2322.0
 20
1232.296875
 30
0.0
 40
20.77742494226328
  1
kg
 41
0.999230769230769
  7
EXCADTTF1
 72
     5
 11
2349.0
 21
1232.296875
 31
0.0
100
AcDbText
  0
TEXT
  5
F2
330
1F
100
AcDbEntity
  8
図面枠
  6
CONTINUOUS
 62
     4
100
AcDbText
 10
2322.0
 20
1268.296875
 30
0.0
 40
20.77742494226328
  1
kg
 41
0.999230769230769
  7
EXCADTTF1
 72
     5
 11
2349.0
 21
1268.296875
 31
0.0
100
AcDbText
  0
TEXT
  5
F3
330
1F
100
AcDbEntity
  8
図面枠
  6
CONTINUOUS
 62
     4
100
AcDbText
 10
2076.0
 20
1268.296875
 30
0.0
 40
20.77742494226328
  1
ジャッキ
 41
0.999230769230769
  7
EXCADTTF1
 72
     5
 11
2184.0
 21
1268.296875
 31
0.0
100
AcDbText
  0
TEXT
  5
F4
330
1F
100
AcDbEntity
  8
図面枠
  6
CONTINUOUS
 62
     4
100
AcDbText
 10
2076.0
 20
1232.296875
 30
0.0
 40
20.77742494226328
  1
プレート
 41
0.999230769230769
  7
EXCADTTF1
 72
     5
 11
2184.0
 21
1232.296875
 31
0.0
100
AcDbText
  0
LINE
  5
F5
330
1F
100
AcDbEntity
  8
図面枠
  6
CONTINUOUS
 62
     2
100
AcDbLine
 10
2070.0
 20
1260.0
 30
0.0
 11
2430.0
 21
1260.0
 31
0.0
  0
LINE
  5
F6
330
1F
100
AcDbEntity
  8
図面枠
  6
CONTINUOUS
 62
     2
100
AcDbLine
 10
2070.0
 20
1296.0
 30
0.0
 11
2070.0
 21
1224.0
 31
0.0
  0
TEXT
  5
F7
330
1F
100
AcDbEntity
  8
図面枠
  6
CONTINUOUS
 62
     4
100
AcDbText
 10
2230.5
 20
1232.296875
 30
0.0
 40
20.77742494226328
  1
約145
 41
0.9992307692307689
  7
EXCADTTF1
 72
     5
 11
2298.0
 21
1232.296875
 31
0.0
100
AcDbText
  0
LINE
  5
F8
330
1F
100
AcDbEntity
  8
図面枠
  6
CONTINUOUS
 62
     2
100
AcDbLine
 10
2190.0
 20
1656.0
 30
0.0
 11
2190.0
 21
1224.0
 31
0.0
  0
LINE
  5
F9
330
1F
100
AcDbEntity
  8
図面枠
  6
CONTINUOUS
 62
     2
100
AcDbLine
 10
2310.0
 20
1656.0
 30
0.0
 11
2310.0
 21
1224.0
 31
0.0
  0
LINE
  5
FA
330
1F
100
AcDbEntity
  8
図面枠
  6
CONTINUOUS
 62
     3
100
AcDbLine
 10
2430.0
 20
1692.0
 30
0.0
 11
2430.0
 21
1152.0
 31
0.0
  0
TEXT
  5
FB
330
1F
100
AcDbEntity
  8
図面枠
  6
CONTINUOUS
 62
     4
100
AcDbText
 10
108.0000000000002
 20
1652.0625
 30
0.0
 40
27.70323325635104
  1
5000kN50ストローク補修用油圧ジャッキ
 41
0.9992307692307695
  7
EXCADTTF1
 72
     5
 11
756.0000000000002
 21
1652.0625
 31
0.0
100
AcDbText
  0
LINE
  5
FC
330
1F
100
AcDbEntity
  8
図面枠
  6
CONTINUOUS
 62
     3
100
AcDbLine
 10
774.0000000000003
 20
1692.0
 30
0.0
 11
774.0000000000003
 21
1638.0
 31
0.0
  0
LINE
  5
FD
330
1F
100
AcDbEntity
  8
図面枠
  6
CONTINUOUS
 62
     3
100
AcDbLine
 10
90.0000000000001
 20
1692.0
 30
0.0
 11
774.0000000000003
 21
1692.0
 31
0.0
  0
LINE
  5
FE
330
1F
100
AcDbEntity
  8
図面枠
  6
CONTINUOUS
 62
     3
100
AcDbLine
 10
90.0000000000001
 20
1638.0
 30
0.0
 11
774.0000000000003
 21
1638.0
 31
0.0
  0
TEXT
  5
FF
330
1F
100
AcDbEntity
  8
図面枠
  6
CONTINUOUS
 62
     4
100
AcDbText
 10
2244.06
 20
1340.296875
 30
0.0
 40
20.77742494226328
  1
64.2
 41
0.999230769230769
  7
EXCADTTF1
 72
     5
 11
2298.06
 21
1340.296875
 31
0.0
100
AcDbText
  0
TEXT
  5
100
330
1F
100
AcDbEntity
  8
図面枠
  6
CONTINUOUS
 62
     4
100
AcDbText
 10
1842.0
 20
1628.296875
 30
0.0
 40
20.77742494226328
  1
能力
 41
0.999230769230769
  7
EXCADTTF1
 72
     5
 11
1896.0
 21
1628.296875
 31
0.0
100
AcDbText
  0
TEXT
  5
101
330
1F
100
AcDbEntity
  8
図面枠
  6
CONTINUOUS
 62
     4
100
AcDbText
 10
1842.0
 20
1520.296875
 30
0.0
 40
20.77742494226328
  1
ジャッキ機械高
 41
0.9992307692307688
  7
EXCADTTF1
 72
     5
 11
2031.0
 21
1520.296875
 31
0.0
100
AcDbText
  0
TEXT
  5
102
330
1F
100
AcDbEntity
  8
図面枠
  6
CONTINUOUS
 62
     4
100
AcDbText
 10
1842.0
 20
1556.296875
 30
0.0
 40
20.77742494226328
  1
最低機械高
 41
0.9992307692307689
  7
EXCADTTF1
 72
     5
 11
1977.0
 21
1556.296875
 31
0.0
100
AcDbText
  0
TEXT
  5
103
330
1F
100
AcDbEntity
  8
図面枠
  6
CONTINUOUS
 62
     4
100
AcDbText
 10
1842.0
 20
1340.296875
 30
0.0
 40
20.77742494226328
  1
最高使用圧力
 41
0.9992307692307689
  7
EXCADTTF1
 72
     5
 11
2004.0
 21
1340.296875
 31
0.0
100
AcDbText
  0
TEXT
  5
104
330
1F
100
AcDbEntity
  8
図面枠
  6
CONTINUOUS
 62
     4
100
AcDbText
 10
1842.0
 20
1376.296875
 30
0.0
 40
20.77742494226328
  1
受圧面積
 41
0.999230769230769
  7
EXCADTTF1
 72
     5
 11
1950.0
 21
1376.296875
 31
0.0
100
AcDbText
  0
TEXT
  5
105
330
1F
100
AcDbEntity
  8
図面枠
  6
CONTINUOUS
 62
     4
100
AcDbText
 10
1842.0
 20
1412.296875
 30
0.0
 40
20.77742494226328
  1
ピストン径
 41
0.9992307692307689
  7
EXCADTTF1
 72
     5
 11
1977.0
 21
1412.296875
 31
0.0
100
AcDbText
  0
TEXT
  5
106
330
1F
100
AcDbEntity
  8
図面枠
  6
CONTINUOUS
 62
     4
100
AcDbText
 10
1842.0
 20
1448.296875
 30
0.0
 40
20.77742494226328
  1
ロッド径
 41
0.999230769230769
  7
EXCADTTF1
 72
     5
 11
1950.0
 21
1448.296875
 31
0.0
100
AcDbText
  0
TEXT
  5
107
330
1F
100
AcDbEntity
  8
図面枠
  6
CONTINUOUS
 62
     4
100
AcDbText
 10
1842.0
 20
1484.296875
 30
0.0
 40
20.77742494226328
  1
シリンダ外径
 41
0.9992307692307689
  7
EXCADTTF1
 72
     5
 11
2004.0
 21
1484.296875
 31
0.0
100
AcDbText
  0
TEXT
  5
108
330
1F
100
AcDbEntity
  8
図面枠
  6
CONTINUOUS
 62
     4
100
AcDbText
 10
1842.0
 20
1196.296875
 30
0.0
 40
20.77742494226328
  1
備考
 41
0.999230769230769
  7
EXCADTTF1
 72
     5
 11
1896.0
 21
1196.296875
 31
0.0
100
AcDbText
  0
TEXT
  5
109
330
1F
100
AcDbEntity
  8
図面枠
  6
CONTINUOUS
 62
     4
100
AcDbText
 10
1842.0
 20
1268.296875
 30
0.0
 40
20.77742494226328
  1
重量
 41
0.999230769230769
  7
EXCADTTF1
 72
     5
 11
1896.0
 21
1268.296875
 31
0.0
100
AcDbText
  0
TEXT
  5
10A
330
1F
100
AcDbEntity
  8
図面枠
  6
CONTINUOUS
 62
     4
100
AcDbText
 10
1842.0
 20
1304.296875
 30
0.0
 40
20.77742494226328
  1
所要油量
 41
0.999230769230769
  7
EXCADTTF1
 72
     5
 11
1950.0
 21
1304.296875
 31
0.0
100
AcDbText
  0
LINE
  5
10B
330
1F
100
AcDbEntity
  8
図面枠
  6
CONTINUOUS
 62
     3
100
AcDbLine
 10
1830.0
 20
1692.0
 30
0.0
 11
1830.0
 21
1152.0
 31
0.0
  0
TEXT
  5
10C
330
1F
100
AcDbEntity
  8
図面枠
  6
CONTINUOUS
 62
     4
100
AcDbText
 10
1842.0
 20
1592.296875
 30
0.0
 40
20.77742494226328
  1
ストローク　※
 41
0.9992307692307688
  7
EXCADTTF1
 72
     5
 11
2031.0
 21
1592.296875
 31
0.0
100
AcDbText
  0
TEXT
  5
10D
330
1F
100
AcDbEntity
  8
図面枠
  6
CONTINUOUS
 62
     4
100
AcDbText
 10
2062.5
 20
1664.296875
 30
0.0
 40
20.77742494226328
  1
仕　　　様
 41
0.9992307692307689
  7
EXCADTTF1
 72
     5
 11
2197.5
 21
1664.296875
 31
0.0
100
AcDbText
  0
LINE
  5
10E
330
1F
100
AcDbEntity
  8
図面枠
  6
CONTINUOUS
 62
     3
100
AcDbLine
 10
1830.0
 20
1152.0
 30
0.0
 11
2430.0
 21
1152.0
 31
0.0
  0
LINE
  5
10F
330
1F
100
AcDbEntity
  8
図面枠
  6
CONTINUOUS
 62
     3
100
AcDbLine
 10
1830.0
 20
1692.0
 30
0.0
 11
2430.0
 21
1692.0
 31
0.0
  0
LINE
  5
110
330
1F
100
AcDbEntity
  8
図面枠
  6
CONTINUOUS
 62
     3
100
AcDbLine
 10
1830.0
 20
1656.0
 30
0.0
 11
2430.0
 21
1656.0
 31
0.0
  0
LINE
  5
111
330
1F
100
AcDbEntity
  8
図面枠
  6
CONTINUOUS
 62
     2
100
AcDbLine
 10
1830.0
 20
1620.0
 30
0.0
 11
2430.0
 21
1620.0
 31
0.0
  0
LINE
  5
112
330
1F
100
AcDbEntity
  8
図面枠
  6
CONTINUOUS
 62
     2
100
AcDbLine
 10
1830.0
 20
1584.0
 30
0.0
 11
2430.0
 21
1584.0
 31
0.0
  0
LINE
  5
113
330
1F
100
AcDbEntity
  8
図面枠
  6
CONTINUOUS
 62
     2
100
AcDbLine
 10
1830.0
 20
1548.0
 30
0.0
 11
2430.0
 21
1548.0
 31
0.0
  0
LINE
  5
114
330
1F
100
AcDbEntity
  8
図面枠
  6
CONTINUOUS
 62
     2
100
AcDbLine
 10
1830.0
 20
1512.0
 30
0.0
 11
2430.0
 21
1512.0
 31
0.0
  0
LINE
  5
115
330
1F
100
AcDbEntity
  8
図面枠
  6
CONTINUOUS
 62
     2
100
AcDbLine
 10
1830.0
 20
1440.0
 30
0.0
 11
2430.0
 21
1440.0
 31
0.0
  0
LINE
  5
116
330
1F
100
AcDbEntity
  8
図面枠
  6
CONTINUOUS
 62
     2
100
AcDbLine
 10
1830.0
 20
1404.0
 30
0.0
 11
2430.0
 21
1404.0
 31
0.0
  0
LINE
  5
117
330
1F
100
AcDbEntity
  8
図面枠
  6
CONTINUOUS
 62
     2
100
AcDbLine
 10
1830.0
 20
1368.0
 30
0.0
 11
2430.0
 21
1368.0
 31
0.0
  0
LINE
  5
118
330
1F
100
AcDbEntity
  8
図面枠
  6
CONTINUOUS
 62
     2
100
AcDbLine
 10
1830.0
 20
1476.0
 30
0.0
 11
2430.0
 21
1476.0
 31
0.0
  0
LINE
  5
119
330
1F
100
AcDbEntity
  8
図面枠
  6
CONTINUOUS
 62
     2
100
AcDbLine
 10
1830.0
 20
1296.0
 30
0.0
 11
2430.0
 21
1296.0
 31
0.0
  0
LINE
  5
11A
330
1F
100
AcDbEntity
  8
図面枠
  6
CONTINUOUS
 62
     2
100
AcDbLine
 10
1830.0
 20
1224.0
 30
0.0
 11
2430.0
 21
1224.0
 31
0.0
  0
LINE
  5
11B
330
1F
100
AcDbEntity
  8
図面枠
  6
CONTINUOUS
 62
     2
100
AcDbLine
 10
1830.0
 20
1332.0
 30
0.0
 11
2430.0
 21
1332.0
 31
0.0
  0
TEXT
  5
11C
330
1F
100
AcDbEntity
  8
図面枠
  6
CONTINUOUS
 62
     4
100
AcDbText
 10
1770.0
 20
1050.796875
 30
0.0
 40
20.77742494226328
  1
※）①ストロークエンドからの加圧はおやめ下さい。
 41
0.9992307692307695
  7
EXCADTTF1
 72
     5
 11
2418.0
 21
1050.796875
 31
0.0
100
AcDbText
  0
TEXT
  5
11D
330
1F
100
AcDbEntity
  8
図面枠
  6
CONTINUOUS
 62
     4
100
AcDbText
 10
1770.0
 20
1023.796875
 30
0.0
 40
20.77742494226328
  1
　　
 41
0.999230769230769
  7
EXCADTTF1
 72
     5
 11
1824.0
 21
1023.796875
 31
0.0
100
AcDbText
  0
TEXT
  5
11E
330
1F
100
AcDbEntity
  8
図面枠
  6
CONTINUOUS
 62
     4
100
AcDbText
 10
1770.0
 20
996.796875
 30
0.0
 40
20.77742494226328
  1
　　②ストロークエンドにて安全ナットをロック
 41
0.9992307692307694
  7
EXCADTTF1
 72
     5
 11
2364.0
 21
996.796875
 31
0.0
100
AcDbText
  0
TEXT
  5
11F
330
1F
100
AcDbEntity
  8
図面枠
  6
CONTINUOUS
 62
     4
100
AcDbText
 10
1770.0
 20
969.796875
 30
0.0
 40
20.77742494226328
  1
　　　した場合、解放が困難になる場合があります。
 41
0.9992307692307695
  7
EXCADTTF1
 72
     5
 11
2418.0
 21
969.796875
 31
0.0
100
AcDbText
  0
TEXT
  5
120
330
1F
100
AcDbEntity
  8
図面枠
  6
CONTINUOUS
 62
     4
100
AcDbText
 10
1770.0
 20
915.796875
 30
0.0
 40
20.77742494226328
  1
　　③出荷時にストロークエンド使用が出来ないよう
 41
0.9992307692307695
  7
EXCADTTF1
 72
     5
 11
2418.0
 21
915.796875
 31
0.0
100
AcDbText
  0
TEXT
  5
121
330
1F
100
AcDbEntity
  8
図面枠
  6
CONTINUOUS
 62
     4
100
AcDbText
 10
1770.0
 20
888.796875
 30
0.0
 40
20.77742494226328
  1
　　　手動ポンプの油量を調整させていただく場合が
 41
0.9992307692307695
  7
EXCADTTF1
 72
     5
 11
2418.0
 21
888.796875
 31
0.0
100
AcDbText
  0
TEXT
  5
122
330
1F
100
AcDbEntity
  8
図面枠
  6
CONTINUOUS
 62
     4
100
AcDbText
 10
1770.0
 20
861.796875
 30
0.0
 40
20.77742494226328
  1
　　　あります。
 41
0.9992307692307688
  7
EXCADTTF1
 72
     5
 11
1986.0
 21
861.796875
 31
0.0
100
AcDbText
  0
TEXT
  5
123
330
1F
100
AcDbEntity
  8
図面枠
  6
CONTINUOUS
 62
     4
100
AcDbText
 10
2322.0
 20
1304.296875
 30
0.0
 40
20.77742494226328
  1
L
 41
0.999230769230769
  7
EXCADTTF1
 72
     5
 11
2335.5
 21
1304.296875
 31
0.0
100
AcDbText
  0
TEXT
  5
124
330
1F
100
AcDbEntity
  8
図面枠
  6
CONTINUOUS
 62
     4
100
AcDbText
 10
2257.5
 20
1304.296875
 30
0.0
 40
20.77742494226328
  1
3.9
 41
0.999230769230769
  7
EXCADTTF1
 72
     5
 11
2298.0
 21
1304.296875
 31
0.0
100
AcDbText
  0
TEXT
  5
125
330
1F
100
AcDbEntity
  8
図面枠
  6
CONTINUOUS
 62
     4
100
AcDbText
 10
1842.0
 20
1160.296875
 30
0.0
 40
20.77742494226328
  1
可動ヘッドは、±35mm移動可能
 41
0.9992307692307688
  7
EXCADTTF1
 72
     5
 11
2220.0
 21
1160.296875
 31
0.0
100
AcDbText
  0
TEXT
  5
126
330
1F
100
AcDbEntity
  8
図面枠
  6
CONTINUOUS
 62
     4
100
AcDbText
 10
2230.5
 20
1268.296875
 30
0.0
 40
20.77742494226328
  1
約260
 41
0.9992307692307689
  7
EXCADTTF1
 72
     5
 11
2298.0
 21
1268.296875
 31
0.0
100
AcDbText
  0
DIMENSION
  5
128
330
1F
100
AcDbEntity
  8
Ｓ_１_１
  6
CONTINUOUS
 62
     2
100
AcDbDimension
  2
*D15
 10
1284.999997
 20
175.0000000000002
 30
0.0
 11
1327.681156
 21
191.5000000000001
 31
0.0
 70
   160
  1
(85)
  3
ISO-25
100
AcDbAlignedDimension
 13
1370.362315
 23
287.900027
 33
0.0
 14
1284.999997
 24
247.900004
 34
0.0
100
AcDbRotatedDimension
1001
ACAD
1000
DSTYLE
1002
{
1070
   270
1070
     2
1070
     6
1000
EX_NORM
1070
     7
1000
EX_NORM
1070
    41
1040
18.0
1070
    42
1040
9.0
1070
    44
1040
6.0
1070
    73
1070
     0
1070
    74
1070
     0
1070
    75
1070
     0
1070
    76
1070
     0
1070
    77
1070
     1
1070
    78
1070
     8
1070
   140
1040
20.77742494226328
1070
   147
1040
0.0
1070
   173
1070
     1
1070
   176
1070
     2
1070
   177
1070
     2
1070
   178
1070
     2
1070
   271
1070
     2
1070
   277
1070
     2
1070
   279
1070
     2
1070
   280
1070
     0
1070
   287
1070
     5
1070
   340
1005
127
1002
}
  0
DIMENSION
  5
136
330
1F
100
AcDbEntity
  8
Ｓ_１_１
  6
CONTINUOUS
 62
     2
100
AcDbDimension
  2
*D16
 10
974.3165679999997
 20
1012.161631
 30
0.0
 11
1075.929607411888
 21
1098.783131556159
 31
0.0
 70
   163
  1
　　　　%%c265
  3
ISO-25
100
AcDbDiametricDimension
 15
1195.683503
 25
1157.838179
 35
0.0
 40
0.0
1001
ACAD
1000
DSTYLE
1002
{
1070
   270
1070
     2
1070
     6
1000
EX_NORM
1070
     7
1000
EX_NORM
1070
    41
1040
18.0
1070
    73
1070
     0
1070
    74
1070
     0
1070
    77
1070
     1
1070
    78
1070
     8
1070
   140
1040
20.77742494226328
1070
   147
1040
0.0
1070
   173
1070
     1
1070
   176
1070
     2
1070
   177
1070
     2
1070
   178
1070
     2
1070
   271
1070
     2
1070
   277
1070
     2
1070
   279
1070
     2
1070
   280
1070
     0
1070
   287
1070
     5
1070
   340
1005
127
1002
}
  0
DIMENSION
  5
140
330
1F
100
AcDbEntity
  8
Ｓ_１_１
  6
CONTINUOUS
 62
     2
100
AcDbDimension
  2
*D17
 10
1572.5
 20
444.8999909999998
 30
0.0
 11
1556.500000059605
 21
474.8999904999994
 31
0.0
 70
   160
  3
ISO-25
100
AcDbAlignedDimension
 13
1382.000038
 23
504.8999900000001
 33
0.0
 14
1382.999946
 24
444.8999909999999
 34
0.0
 50
90.0
100
AcDbRotatedDimension
1001
ACAD
1000
DSTYLE
1002
{
1070
   270
1070
     2
1070
     6
1000
EX_NORM
1070
     7
1000
EX_NORM
1070
    41
1040
15.0
1070
    42
1040
7.5
1070
    44
1040
4.999979853630066
1070
    73
1070
     0
1070
    74
1070
     0
1070
    75
1070
     0
1070
    76
1070
     0
1070
    77
1070
     1
1070
    78
1070
     8
1070
   140
1040
20.77742494226328
1070
   147
1040
0.0
1070
   173
1070
     1
1070
   176
1070
     2
1070
   177
1070
     2
1070
   178
1070
     2
1070
   271
1070
     2
1070
   277
1070
     2
1070
   279
1070
     2
1070
   280
1070
     0
1070
   287
1070
     5
1070
   340
1005
127
1002
}
  0
DIMENSION
  5
14D
330
1F
100
AcDbEntity
  8
Ｓ_１_１
  6
CONTINUOUS
 62
     2
100
AcDbDimension
  2
*D18
 10
559.9999999999999
 20
504.8999900000001
 30
0.0
 11
543.5
 21
479.8999904999998
 31
0.0
 70
   160
  3
ISO-25
100
AcDbAlignedDimension
 13
805.0000839999999
 23
454.8999909999998
 33
0.0
 14
788.0001139999999
 24
504.8999900000001
 34
0.0
 50
90.0
100
AcDbRotatedDimension
1001
ACAD
1000
DSTYLE
1002
{
1070
   270
1070
     2
1070
     6
1000
EX_NORM
1070
     7
1000
EX_NORM
1070
    41
1040
18.0
1070
    42
1040
12.50000099999988
1070
    44
1040
6.000000000000227
1070
    73
1070
     0
1070
    74
1070
     0
1070
    75
1070
     0
1070
    76
1070
     1
1070
    77
1070
     1
1070
    78
1070
     8
1070
   140
1040
20.77742494226328
1070
   147
1040
0.0
1070
   173
1070
     1
1070
   176
1070
     2
1070
   177
1070
     2
1070
   178
1070
     2
1070
   271
1070
     2
1070
   277
1070
     2
1070
   279
1070
     2
1070
   280
1070
     0
1070
   287
1070
     5
1070
   340
1005
127
1002
}
  0
DIMENSION
  5
159
330
1F
100
AcDbEntity
  8
Ｓ_１_１
  6
CONTINUOUS
 62
     2
100
AcDbDimension
  2
*D19
 10
560.0000000000001
 20
454.8999909999998
 30
0.0
 11
543.5000000000002
 21
349.9000019999998
 31
0.0
 70
   160
  3
ISO-25
100
AcDbAlignedDimension
 13
888.0001139999997
 23
244.9000130000001
 33
0.0
 14
805.0000839999999
 24
454.8999909999998
 34
0.0
 50
90.0
100
AcDbRotatedDimension
1001
ACAD
1000
DSTYLE
1002
{
1070
   270
1070
     2
1070
     6
1000
EX_NORM
1070
     7
1000
EX_NORM
1070
    41
1040
18.0
1070
    42
1040
0.0
1070
    44
1040
0.0
1070
    73
1070
     0
1070
    74
1070
     0
1070
    75
1070
     1
1070
    76
1070
     1
1070
    77
1070
     1
1070
    78
1070
     8
1070
   140
1040
20.77742494226328
1070
   147
1040
0.0
1070
   173
1070
     1
1070
   176
1070
     2
1070
   177
1070
     2
1070
   178
1070
     2
1070
   271
1070
     2
1070
   277
1070
     2
1070
   279
1070
     2
1070
   280
1070
     0
1070
   287
1070
     5
1070
   340
1005
127
1002
}
  0
LINE
  5
164
330
1F
100
AcDbEntity
  8
Ｓ_１_１
  6
CONTINUOUS
 62
     2
100
AcDbLine
 10
779.4999
 20
444.8999909999999
 30
0.0
 11
589.89022
 21
444.8999909999999
 31
0.0
  0
LINE
  5
165
330
1F
100
AcDbEntity
  8
Ｓ_１_１
  6
CONTINUOUS
 62
     2
100
AcDbLine
 10
792.500083
 20
454.8999909999998
 30
0.0
 11
589.89022
 21
454.8999909999998
 31
0.0
  0
DIMENSION
  5
166
330
1F
100
AcDbEntity
  8
Ｓ_１_１
  6
CONTINUOUS
 62
     2
100
AcDbDimension
  2
*D20
 10
1470.0
 20
244.9000130000001
 30
0.0
 11
1454.000000059605
 21
272.4000124999997
 31
0.0
 70
   160
  3
ISO-25
100
AcDbAlignedDimension
 13
1373.934167
 23
299.9000119999999
 33
0.0
 14
1282.00004
 24
244.9000130000001
 34
0.0
 50
90.0
100
AcDbRotatedDimension
1001
ACAD
1000
DSTYLE
1002
{
1070
   270
1070
     2
1070
     6
1000
EX_NORM
1070
     7
1000
EX_NORM
1070
    41
1040
15.0
1070
    42
1040
7.5
1070
    44
1040
4.999979853630066
1070
    73
1070
     0
1070
    74
1070
     0
1070
    75
1070
     0
1070
    76
1070
     0
1070
    77
1070
     1
1070
    78
1070
     8
1070
   140
1040
20.77742494226328
1070
   147
1040
0.0
1070
   173
1070
     1
1070
   176
1070
     2
1070
   177
1070
     2
1070
   178
1070
     2
1070
   271
1070
     2
1070
   277
1070
     2
1070
   279
1070
     2
1070
   280
1070
     0
1070
   287
1070
     5
1070
   340
1005
127
1002
}
  0
DIMENSION
  5
173
330
1F
100
AcDbEntity
  8
Ｓ_１_１
  6
CONTINUOUS
 62
     2
100
AcDbDimension
  2
*D21
 10
525.0
 20
504.8999900000001
 30
0.0
 11
508.5
 21
374.9000014999999
 31
0.0
 70
   160
  3
ISO-25
100
AcDbAlignedDimension
 13
888.0001149999997
 23
244.9000130000001
 33
0.0
 14
788.0001149999999
 24
504.8999900000001
 34
0.0
 50
90.0
100
AcDbRotatedDimension
1001
ACAD
1000
DSTYLE
1002
{
1070
   270
1070
     2
1070
     6
1000
EX_NORM
1070
     7
1000
EX_NORM
1070
    41
1040
18.0
1070
    42
1040
9.0
1070
    44
1040
6.0
1070
    73
1070
     0
1070
    74
1070
     0
1070
    75
1070
     0
1070
    76
1070
     0
1070
    77
1070
     1
1070
    78
1070
     8
1070
   140
1040
20.77742494226328
1070
   147
1040
0.0
1070
   173
1070
     1
1070
   176
1070
     2
1070
   177
1070
     2
1070
   178
1070
     2
1070
   271
1070
     2
1070
   277
1070
     2
1070
   279
1070
     2
1070
   280
1070
     0
1070
   287
1070
     5
1070
   340
1005
127
1002
}
  0
DIMENSION
  5
180
330
1F
100
AcDbEntity
  8
Ｓ_１_１
  6
CONTINUOUS
 62
     2
100
AcDbDimension
  2
*D22
 10
597.4999999999991
 20
334.899992
 30
0.0
 11
580.9999999999991
 21
289.9000025
 31
0.0
 70
   160
  3
ISO-25
100
AcDbAlignedDimension
 13
888.0001139999997
 23
244.9000130000001
 33
0.0
 14
845.0000829999997
 24
334.899992
 34
0.0
 50
90.0
100
AcDbRotatedDimension
1001
ACAD
1000
DSTYLE
1002
{
1070
   270
1070
     2
1070
     6
1000
EX_NORM
1070
     7
1000
EX_NORM
1070
    41
1040
18.0
1070
    42
1040
9.0
1070
    44
1040
6.0
1070
    73
1070
     0
1070
    74
1070
     0
1070
    75
1070
     1
1070
    76
1070
     0
1070
    77
1070
     1
1070
    78
1070
     8
1070
   140
1040
20.77742494226328
1070
   147
1040
0.0
1070
   173
1070
     1
1070
   176
1070
     2
1070
   177
1070
     2
1070
   178
1070
     2
1070
   271
1070
     2
1070
   277
1070
     2
1070
   279
1070
     2
1070
   280
1070
     0
1070
   287
1070
     5
1070
   340
1005
127
1002
}
  0
DIMENSION
  5
18C
330
1F
100
AcDbEntity
  8
Ｓ_１_１
  6
CONTINUOUS
 62
     2
100
AcDbDimension
  2
*D23
 10
597.5000000000013
 20
444.8999909999999
 30
0.0
 11
581.0000000000014
 21
389.8999914999998
 31
0.0
 70
   160
  3
ISO-25
100
AcDbAlignedDimension
 13
845.0000829999997
 23
334.899992
 33
0.0
 14
786.9999
 24
444.8999909999999
 34
0.0
 50
90.0
100
AcDbRotatedDimension
1001
ACAD
1000
DSTYLE
1002
{
1070
   270
1070
     2
1070
     6
1000
EX_NORM
1070
     7
1000
EX_NORM
1070
    41
1040
18.0
1070
    42
1040
0.0
1070
    44
1040
0.0
1070
    73
1070
     0
1070
    74
1070
     0
1070
    75
1070
     1
1070
    76
1070
     1
1070
    77
1070
     1
1070
    78
1070
     8
1070
   140
1040
20.77742494226328
1070
   147
1040
0.0
1070
   173
1070
     1
1070
   176
1070
     2
1070
   177
1070
     2
1070
   178
1070
     2
1070
   271
1070
     2
1070
   277
1070
     2
1070
   279
1070
     2
1070
   280
1070
     0
1070
   287
1070
     5
1070
   340
1005
127
1002
}
  0
DIMENSION
  5
197
330
1F
100
AcDbEntity
  8
Ｓ_１_１
  6
CONTINUOUS
 62
     2
100
AcDbDimension
  2
*D24
 10
1334.999996
 20
560.0
 30
0.0
 11
1085.000038
 21
576.5
 31
0.0
 70
   160
  1
%%c500
  3
ISO-25
100
AcDbAlignedDimension
 13
835.0000799999999
 23
454.8999890000001
 33
0.0
 14
1334.999996
 24
454.8999890000001
 34
0.0
100
AcDbRotatedDimension
1001
ACAD
1000
DSTYLE
1002
{
1070
   270
1070
     2
1070
     6
1000
EX_NORM
1070
     7
1000
EX_NORM
1070
    41
1040
18.0
1070
    42
1040
7.5
1070
    44
1040
4.999979853630066
1070
    73
1070
     0
1070
    74
1070
     0
1070
    75
1070
     0
1070
    76
1070
     0
1070
    77
1070
     1
1070
    78
1070
     8
1070
   140
1040
20.77742494226328
1070
   147
1040
0.0
1070
   173
1070
     1
1070
   176
1070
     2
1070
   177
1070
     2
1070
   178
1070
     2
1070
   271
1070
     2
1070
   277
1070
     2
1070
   279
1070
     2
1070
   280
1070
     0
1070
   287
1070
     5
1070
   340
1005
127
1002
}
  0
DIMENSION
  5
1A4
330
1F
100
AcDbEntity
  8
Ｓ_１_１
  6
CONTINUOUS
 62
     2
100
AcDbDimension
  2
*D25
 10
885.0000789999998
 20
175.0000000000001
 30
0.0
 11
1085.000038
 21
191.5000000000001
 31
0.0
 70
   160
  1
%%c400
  3
ISO-25
100
AcDbAlignedDimension
 13
1284.999997
 23
247.900004
 33
0.0
 14
885.0000789999998
 24
247.900004
 34
0.0
100
AcDbRotatedDimension
1001
ACAD
1000
DSTYLE
1002
{
1070
   270
1070
     2
1070
     6
1000
EX_NORM
1070
     7
1000
EX_NORM
1070
    41
1040
18.0
1070
    42
1040
9.0
1070
    44
1040
6.0
1070
    73
1070
     0
1070
    74
1070
     0
1070
    75
1070
     1
1070
    76
1070
     0
1070
    77
1070
     1
1070
    78
1070
     8
1070
   140
1040
20.77742494226328
1070
   147
1040
0.0
1070
   173
1070
     1
1070
   176
1070
     2
1070
   177
1070
     2
1070
   178
1070
     2
1070
   271
1070
     2
1070
   277
1070
     2
1070
   279
1070
     2
1070
   280
1070
     0
1070
   287
1070
     5
1070
   340
1005
127
1002
}
  0
DIMENSION
  5
1B0
330
1F
100
AcDbEntity
  8
Ｓ_１_１
  6
CONTINUOUS
 62
     2
100
AcDbDimension
  2
*D26
 10
1610.0
 20
815.0000039999998
 30
0.0
 11
1593.5
 21
1084.999999999999
 31
0.0
 70
   160
  3
ISO-25
100
AcDbAlignedDimension
 13
1380.000068
 23
1354.999996
 33
0.0
 14
1380.000007
 24
815.0000039999998
 34
0.0
 50
90.0
100
AcDbRotatedDimension
1001
ACAD
1000
DSTYLE
1002
{
1070
   270
1070
     2
1070
     6
1000
EX_NORM
1070
     7
1000
EX_NORM
1070
    41
1040
18.0
1070
    42
1040
7.5
1070
    44
1040
4.999979853629839
1070
    73
1070
     0
1070
    74
1070
     0
1070
    75
1070
     0
1070
    76
1070
     0
1070
    77
1070
     1
1070
    78
1070
     8
1070
   140
1040
20.77742494226328
1070
   147
1040
0.0
1070
   173
1070
     1
1070
   176
1070
     2
1070
   177
1070
     2
1070
   178
1070
     2
1070
   271
1070
     2
1070
   277
1070
     2
1070
   279
1070
     2
1070
   280
1070
     0
1070
   287
1070
     5
1070
   340
1005
127
1002
}
  0
LINE
  5
1BD
330
1F
100
AcDbEntity
  8
Ｓ_１_１
  6
CONTINUOUS
 62
     2
100
AcDbLine
 10
1472.499992
 20
840.000003
 30
0.0
 11
1599.890205
 21
840.000003
 31
0.0
  0
LINE
  5
1BE
330
1F
100
AcDbEntity
  8
Ｓ_１_１
  6
CONTINUOUS
 62
     2
100
AcDbLine
 10
1387.499992
 20
815.0000039999999
 30
0.0
 11
1599.890205
 21
815.0000039999999
 31
0.0
  0
DIMENSION
  5
1BF
330
1F
100
AcDbEntity
  8
Ｓ_１_１
  6
CONTINUOUS
 62
     2
100
AcDbDimension
  2
*D27
 10
1575.000000000003
 20
840.0000029999999
 30
0.0
 11
1559.000000059607
 21
915.0000019999998
 31
0.0
 70
   160
  3
ISO-25
100
AcDbAlignedDimension
 13
1464.999992
 23
990.0000009999999
 33
0.0
 14
1464.999992
 24
840.0000029999999
 34
0.0
 50
90.0
100
AcDbRotatedDimension
1001
ACAD
1000
DSTYLE
1002
{
1070
   270
1070
     2
1070
     6
1000
EX_NORM
1070
     7
1000
EX_NORM
1070
    41
1040
15.0
1070
    42
1040
7.5
1070
    44
1040
4.999979853629839
1070
    73
1070
     0
1070
    74
1070
     0
1070
    75
1070
     0
1070
    76
1070
     1
1070
    77
1070
     1
1070
    78
1070
     8
1070
   140
1040
20.77742494226328
1070
   147
1040
0.0
1070
   173
1070
     1
1070
   176
1070
     2
1070
   177
1070
     2
1070
   178
1070
     2
1070
   271
1070
     2
1070
   277
1070
     2
1070
   279
1070
     2
1070
   280
1070
     0
1070
   287
1070
     5
1070
   340
1005
127
1002
}
  0
DIMENSION
  5
1CB
330
1F
100
AcDbEntity
  8
Ｓ_１_１
  6
CONTINUOUS
 62
     2
100
AcDbDimension
  2
*D28
 10
1575.00000000001
 20
990.0000009999999
 30
0.0
 11
1558.500000000011
 21
1084.9999995
 31
0.0
 70
   160
  3
ISO-25
100
AcDbAlignedDimension
 13
1464.999992
 23
1179.999998
 33
0.0
 14
1464.999992
 24
990.0000009999999
 34
0.0
 50
90.0
100
AcDbRotatedDimension
1001
ACAD
1000
DSTYLE
1002
{
1070
   270
1070
     2
1070
     6
1000
EX_NORM
1070
     7
1000
EX_NORM
1070
    41
1040
18.0
1070
    42
1040
9.0
1070
    44
1040
5.999999999999545
1070
    73
1070
     0
1070
    74
1070
     0
1070
    75
1070
     0
1070
    76
1070
     1
1070
    77
1070
     1
1070
    78
1070
     8
1070
   140
1040
20.77742494226328
1070
   147
1040
0.0
1070
   173
1070
     1
1070
   176
1070
     2
1070
   177
1070
     2
1070
   178
1070
     2
1070
   271
1070
     2
1070
   277
1070
     2
1070
   279
1070
     2
1070
   280
1070
     0
1070
   287
1070
     5
1070
   340
1005
127
1002
}
  0
DIMENSION
  5
1D7
330
1F
100
AcDbEntity
  8
Ｓ_１_１
  6
CONTINUOUS
 62
     2
100
AcDbDimension
  2
*D29
 10
1575.000000000016
 20
1179.999998
 30
0.0
 11
1558.500000000016
 21
1254.999997
 31
0.0
 70
   160
  3
ISO-25
100
AcDbAlignedDimension
 13
1464.999992
 23
1329.999996
 33
0.0
 14
1464.999992
 24
1179.999998
 34
0.0
 50
90.0
100
AcDbRotatedDimension
1001
ACAD
1000
DSTYLE
1002
{
1070
   270
1070
     2
1070
     6
1000
EX_NORM
1070
     7
1000
EX_NORM
1070
    41
1040
18.0
1070
    42
1040
0.0
1070
    44
1040
0.0
1070
    73
1070
     0
1070
    74
1070
     0
1070
    75
1070
     1
1070
    76
1070
     1
1070
    77
1070
     1
1070
    78
1070
     8
1070
   140
1040
20.77742494226328
1070
   147
1040
0.0
1070
   173
1070
     1
1070
   176
1070
     2
1070
   177
1070
     2
1070
   178
1070
     2
1070
   271
1070
     2
1070
   277
1070
     2
1070
   279
1070
     2
1070
   280
1070
     0
1070
   287
1070
     5
1070
   340
1005
127
1002
}
  0
LINE
  5
1E2
330
1F
100
AcDbEntity
  8
Ｓ_１_１
  6
CONTINUOUS
 62
     2
100
AcDbLine
 10
1472.499992
 20
1329.999996
 30
0.0
 11
1599.890205
 21
1329.999996
 31
0.0
  0
DIMENSION
  5
1E3
330
1F
100
AcDbEntity
  8
Ｓ_１_１
  6
CONTINUOUS
 62
     2
100
AcDbDimension
  2
*D30
 10
630.0
 20
1284.999997
 30
0.0
 11
613.5000000000005
 21
1085.0
 31
0.0
 70
   160
  3
ISO-25
100
AcDbAlignedDimension
 13
825.0000829999998
 23
885.000003
 33
0.0
 14
825.0000829999998
 24
1284.999997
 34
0.0
 50
90.0
100
AcDbRotatedDimension
1001
ACAD
1000
DSTYLE
1002
{
1070
   270
1070
     2
1070
     6
1000
EX_NORM
1070
     7
1000
EX_NORM
1070
    41
1040
18.0
1070
    42
1040
7.5
1070
    44
1040
4.999979853630066
1070
    73
1070
     0
1070
    74
1070
     0
1070
    75
1070
     0
1070
    76
1070
     0
1070
    77
1070
     1
1070
    78
1070
     8
1070
   140
1040
20.77742494226328
1070
   147
1040
0.0
1070
   173
1070
     1
1070
   176
1070
     2
1070
   177
1070
     2
1070
   178
1070
     2
1070
   271
1070
     2
1070
   277
1070
     2
1070
   279
1070
     2
1070
   280
1070
     0
1070
   287
1070
     5
1070
   340
1005
127
1002
}
  0
DIMENSION
  5
1F0
330
1F
100
AcDbEntity
  8
Ｓ_１_１
  6
CONTINUOUS
 62
     2
100
AcDbDimension
  2
*D31
 10
779.9999279999998
 20
664.9999999998868
 30
0.0
 11
1084.999961499993
 21
680.9999999402899
 31
0.0
 70
   160
  1
610
  3
ISO-25
100
AcDbAlignedDimension
 13
1389.999995
 23
825.0000059999999
 33
0.0
 14
779.9999279999998
 24
825.0000059999999
 34
0.0
100
AcDbRotatedDimension
1001
ACAD
1000
DSTYLE
1002
{
1070
   270
1070
     2
1070
     6
1000
EX_NORM
1070
     7
1000
EX_NORM
1070
    41
1040
15.0
1070
    42
1040
0.0
1070
    44
1040
0.0
1070
    73
1070
     0
1070
    74
1070
     0
1070
    75
1070
     1
1070
    76
1070
     1
1070
    77
1070
     1
1070
    78
1070
     8
1070
   140
1040
20.77742494226328
1070
   147
1040
0.0
1070
   173
1070
     1
1070
   176
1070
     2
1070
   177
1070
     2
1070
   178
1070
     2
1070
   271
1070
     2
1070
   277
1070
     2
1070
   279
1070
     2
1070
   280
1070
     0
1070
   287
1070
     5
1070
   340
1005
127
1002
}
  0
DIMENSION
  5
1FB
330
1F
100
AcDbEntity
  8
Ｓ_１_１
  6
CONTINUOUS
 62
     2
100
AcDbDimension
  2
*D32
 10
1575.000000000017
 20
1329.999996
 30
0.0
 11
1558.999980032464
 21
1383.499995999999
 31
0.0
 70
   160
  1
25
  3
ISO-25
100
AcDbAlignedDimension
 13
1409.999998
 23
1354.999996
 33
0.0
 14
1472.499992
 24
1329.999996
 34
0.0
 50
90.0
100
AcDbRotatedDimension
1001
ACAD
1000
DSTYLE
1002
{
1070
   270
1070
     2
1070
     6
1000
EX_NORM
1070
     7
1000
EX_NORM
1070
    41
1040
15.0
1070
    42
1040
0.0
1070
    44
1040
0.0
1070
    73
1070
     0
1070
    74
1070
     0
1070
    75
1070
     1
1070
    76
1070
     1
1070
    77
1070
     1
1070
    78
1070
     8
1070
   140
1040
20.77742494226328
1070
   147
1040
0.0
1070
   173
1070
     1
1070
   176
1070
     2
1070
   177
1070
     2
1070
   178
1070
     2
1070
   271
1070
     2
1070
   277
1070
     2
1070
   279
1070
     2
1070
   280
1070
     1
1070
   287
1070
     5
1070
   340
1005
127
1002
}
  0
DIMENSION
  5
208
330
1F
100
AcDbEntity
  8
Ｓ_１_１
  6
CONTINUOUS
 62
     2
100
AcDbDimension
  2
*D33
 10
1574.999999999995
 20
840.0000029999999
 30
0.0
 11
1558.999980032441
 21
786.5000039999977
 31
0.0
 70
   160
  1
25
  3
ISO-25
100
AcDbAlignedDimension
 13
1409.999981
 23
815.0000039999998
 33
0.0
 14
1472.499992
 24
840.0000029999999
 34
0.0
 50
90.0
100
AcDbRotatedDimension
1001
ACAD
1000
DSTYLE
1002
{
1070
   270
1070
     2
1070
     6
1000
EX_NORM
1070
     7
1000
EX_NORM
1070
    41
1040
15.0
1070
    42
1040
0.0
1070
    44
1040
0.0
1070
    73
1070
     0
1070
    74
1070
     0
1070
    75
1070
     1
1070
    76
1070
     1
1070
    77
1070
     1
1070
    78
1070
     8
1070
   140
1040
20.77742494226328
1070
   147
1040
0.0
1070
   173
1070
     1
1070
   176
1070
     2
1070
   177
1070
     2
1070
   178
1070
     2
1070
   271
1070
     2
1070
   277
1070
     2
1070
   279
1070
     2
1070
   280
1070
     1
1070
   287
1070
     5
1070
   340
1005
127
1002
}
  0
LINE
  5
215
330
1F
100
AcDbEntity
  8
Ｓ_１_１
  6
CONTINUOUS
 62
     2
100
AcDbLine
 10
1389.999994999999
 20
817.5000509999998
 30
0.0
 11
1389.999994999992
 21
657.5000201460147
 31
0.0
  0
LINE
  5
216
330
1F
100
AcDbEntity
  8
Ｓ_１_１
  6
CONTINUOUS
 62
     2
100
AcDbLine
 10
779.9999279999995
 20
817.5001299999999
 30
0.0
 11
779.9999279999923
 21
657.5000201463267
 31
0.0
  0
DIMENSION
  5
217
330
1F
100
AcDbEntity
  8
Ｓ_１_１
  6
CONTINUOUS
 62
     2
100
AcDbDimension
  2
*D34
 10
597.5000000000042
 20
444.8999909999999
 30
0.0
 11
581.4999800324492
 21
483.3999909999999
 31
0.0
 70
   160
  1
10
  3
ISO-25
100
AcDbAlignedDimension
 13
805.0000799999999
 23
454.8999909999998
 33
0.0
 14
787.0000349999997
 24
444.8999909999999
 34
0.0
 50
90.0
100
AcDbRotatedDimension
1001
ACAD
1000
DSTYLE
1002
{
1070
   270
1070
     2
1070
     6
1000
EX_NORM
1070
     7
1000
EX_NORM
1070
    41
1040
15.0
1070
    42
1040
7.5
1070
    44
1040
4.999979853630066
1070
    73
1070
     0
1070
    74
1070
     0
1070
    75
1070
     1
1070
    76
1070
     0
1070
    77
1070
     1
1070
    78
1070
     8
1070
   140
1040
20.77742494226328
1070
   147
1040
0.0
1070
   173
1070
     1
1070
   176
1070
     2
1070
   177
1070
     2
1070
   178
1070
     2
1070
   271
1070
     2
1070
   277
1070
     2
1070
   279
1070
     2
1070
   280
1070
     1
1070
   287
1070
     5
1070
   340
1005
127
1002
}
  0
TEXT
  5
225
330
1F
100
AcDbEntity
  8
Ｓ_１_１
  6
CONTINUOUS
 62
     4
100
AcDbText
 10
1423.90440345024
 20
566.7968750000002
 30
0.0
 40
20.77742494226328
  1
可動ヘッド
 41
0.9992307692307689
  7
EXCADTTF1
 72
     5
 11
1558.90440345024
 21
566.7968750000002
 31
0.0
100
AcDbText
  0
LEADER
  5
226
330
1F
100
AcDbEntity
  8
Ｓ_１_１
  6
CONTINUOUS
 62
     2
100
AcDbLeader
  3
ISO-25
 76
     3
 10
1357.2
 20
504.89999
 30
0.0
 10
1435.0
 20
560.0000000000002
 30
0.0
 10
1547.80880690048
 20
560.0000000000002
 30
0.0
1001
ACAD
1000
DSTYLE
1002
{
1070
     5
1000
EX_NORM
1070
    41
1040
18.0
1070
   341
1005
78
1002
}
  0
TEXT
  5
227
330
1F
100
AcDbEntity
  8
Ｓ_１_１
  6
CONTINUOUS
 62
     4
100
AcDbText
 10
1458.76415600002
 20
391.7968749999999
 30
0.0
 40
20.77742494226328
  1
安全ナット
 41
0.9992307692307689
  7
EXCADTTF1
 72
     5
 11
1593.76415600002
 21
391.7968749999999
 31
0.0
100
AcDbText
  0
LEADER
  5
228
330
1F
100
AcDbEntity
  8
Ｓ_１_１
  6
CONTINUOUS
 62
     2
100
AcDbLeader
  3
ISO-25
 76
     3
 10
1334.999996
 20
437.55357148418
 30
0.0
 10
1470.0
 20
384.9999999999999
 30
0.0
 10
1582.52831200004
 20
384.9999999999999
 30
0.0
1001
ACAD
1000
DSTYLE
1002
{
1070
     5
1000
EX_NORM
1070
    41
1040
18.0
1070
   341
1005
78
1002
}
  0
LEADER
  5
229
330
1F
100
AcDbEntity
  8
Ｓ_１_１
  6
CONTINUOUS
 62
     2
100
AcDbLeader
  3
ISO-25
 76
     3
 10
1340.9037311719
 20
1290.3986923072
 30
0.0
 10
1540.0
 20
1505.0
 30
0.0
 10
1720.0
 20
1505.0
 30
0.0
1001
ACAD
1000
DSTYLE
1002
{
1070
     5
1000
EX_NORM
1070
    41
1040
15.0
1070
   341
1005
78
1002
}
  0
TEXT
  5
22A
330
1F
100
AcDbEntity
  8
Ｓ_１_１
  6
CONTINUOUS
 62
     4
100
AcDbText
 10
1544.5
 20
1511.296874940395
 30
0.0
 40
20.77742494226328
  1
4-M16ネジ深30
 41
0.999230769230769
  7
EXCADTTF1
 72
     5
 11
1720.0
 21
1511.296874940395
 31
0.0
100
AcDbText
  0
DIMENSION
  5
22B
330
1F
100
AcDbEntity
  8
Ｓ_１_１
  6
CONTINUOUS
 62
     2
100
AcDbDimension
  2
*D35
 10
594.9999999999998
 20
830.0000029999999
 30
0.0
 11
578.5000000000001
 21
1084.9999995
 31
0.0
 70
   160
  3
ISO-25
100
AcDbAlignedDimension
 13
1085.0
 23
1339.999996
 33
0.0
 14
1085.0
 24
830.0000029999998
 34
0.0
 50
90.0
100
AcDbRotatedDimension
1001
ACAD
1000
DSTYLE
1002
{
1070
   270
1070
     2
1070
     6
1000
EX_NORM
1070
     7
1000
EX_NORM
1070
    41
1040
18.0
1070
    42
1040
9.0
1070
    44
1040
6.000000000000341
1070
    73
1070
     0
1070
    74
1070
     0
1070
    75
1070
     0
1070
    76
1070
     0
1070
    77
1070
     1
1070
    78
1070
     8
1070
   140
1040
20.77742494226328
1070
   147
1040
0.0
1070
   173
1070
     1
1070
   176
1070
     2
1070
   177
1070
     2
1070
   178
1070
     2
1070
   271
1070
     2
1070
   277
1070
     2
1070
   279
1070
     2
1070
   280
1070
     0
1070
   287
1070
     5
1070
   340
1005
127
1002
}
  0
DIMENSION
  5
238
330
1F
100
AcDbEntity
  8
Ｓ_１_１
  6
CONTINUOUS
 62
     2
100
AcDbDimension
  2
*D36
 10
1334.999996
 20
1505.0
 30
0.0
 11
1085.000038
 21
1521.5
 31
0.0
 70
   160
  3
ISO-25
100
AcDbAlignedDimension
 13
835.0000799999999
 23
1284.999997
 33
0.0
 14
1334.999996
 24
1284.999997
 34
0.0
100
AcDbRotatedDimension
1001
ACAD
1000
DSTYLE
1002
{
1070
   270
1070
     2
1070
     6
1000
EX_NORM
1070
     7
1000
EX_NORM
1070
    41
1040
18.0
1070
    42
1040
9.0
1070
    44
1040
6.0
1070
    73
1070
     0
1070
    74
1070
     0
1070
    75
1070
     0
1070
    76
1070
     0
1070
    77
1070
     1
1070
    78
1070
     8
1070
   140
1040
20.77742494226328
1070
   147
1040
0.0
1070
   173
1070
     1
1070
   176
1070
     2
1070
   177
1070
     2
1070
   178
1070
     2
1070
   271
1070
     2
1070
   277
1070
     2
1070
   279
1070
     2
1070
   280
1070
     0
1070
   287
1070
     5
1070
   340
1005
127
1002
}
  0
DIMENSION
  5
245
330
1F
100
AcDbEntity
  8
Ｓ_１_１
  6
CONTINUOUS
 62
     2
100
AcDbDimension
  2
*D37
 10
835.0000799999999
 20
175.0
 30
0.0
 11
785.0000801727499
 21
191.5
 31
0.0
 70
   160
  3
ISO-25
100
AcDbAlignedDimension
 13
735.0000803455
 23
349.899992
 33
0.0
 14
835.0000799999999
 24
349.899992
 34
0.0
100
AcDbRotatedDimension
1001
ACAD
1000
DSTYLE
1002
{
1070
   270
1070
     2
1070
     6
1000
EX_NORM
1070
     7
1000
EX_NORM
1070
    41
1040
18.0
1070
    42
1040
9.0
1070
    44
1040
6.0
1070
    73
1070
     0
1070
    74
1070
     0
1070
    75
1070
     0
1070
    76
1070
     0
1070
    77
1070
     1
1070
    78
1070
     8
1070
   140
1040
20.77742494226328
1070
   147
1040
0.0
1070
   173
1070
     1
1070
   176
1070
     2
1070
   177
1070
     2
1070
   178
1070
     2
1070
   271
1070
     2
1070
   277
1070
     2
1070
   279
1070
     2
1070
   280
1070
     0
1070
   287
1070
     5
1070
   340
1005
127
1002
}
  0
DIMENSION
  5
252
330
1F
100
AcDbEntity
  8
Ｓ_１_１
  6
CONTINUOUS
 62
     2
100
AcDbDimension
  2
*D38
 10
1494.0925755858
 20
1540.0
 30
0.0
 11
1085.000000000001
 21
1556.5
 31
0.0
 70
   160
  3
ISO-25
100
AcDbAlignedDimension
 13
675.9074244142009
 23
1317.499997000001
 33
0.0
 14
1494.0925755858
 24
1317.499997
 34
0.0
100
AcDbRotatedDimension
1001
ACAD
1000
DSTYLE
1002
{
1070
   270
1070
     2
1070
     6
1000
EX_NORM
1070
     7
1000
EX_NORM
1070
    41
1040
18.0
1070
    42
1040
9.0
1070
    44
1040
6.0
1070
    73
1070
     0
1070
    74
1070
     0
1070
    75
1070
     0
1070
    76
1070
     0
1070
    77
1070
     1
1070
    78
1070
     8
1070
   140
1040
20.77742494226328
1070
   147
1040
0.0
1070
   173
1070
     1
1070
   176
1070
     2
1070
   177
1070
     2
1070
   178
1070
     2
1070
   271
1070
     2
1070
   277
1070
     2
1070
   279
1070
     2
1070
   280
1070
     0
1070
   287
1070
     5
1070
   340
1005
127
1002
}
  0
DIMENSION
  5
25F
330
1F
100
AcDbEntity
  8
Ｓ_１_１
  6
CONTINUOUS
 62
     2
100
AcDbDimension
  2
*D39
 10
559.9999999999999
 20
722.5000050000001
 30
0.0
 11
543.5000000000002
 21
1084.9999995
 31
0.0
 70
   160
  3
ISO-25
100
AcDbAlignedDimension
 13
1035.000077
 23
1447.499994
 33
0.0
 14
1035.000077
 24
722.500005
 34
0.0
 50
90.0
100
AcDbRotatedDimension
1001
ACAD
1000
DSTYLE
1002
{
1070
   270
1070
     2
1070
     6
1000
EX_NORM
1070
     7
1000
EX_NORM
1070
    41
1040
18.0
1070
    42
1040
9.0
1070
    44
1040
6.000000000000341
1070
    73
1070
     0
1070
    74
1070
     0
1070
    75
1070
     0
1070
    76
1070
     0
1070
    77
1070
     1
1070
    78
1070
     8
1070
   140
1040
20.77742494226328
1070
   147
1040
0.0
1070
   173
1070
     1
1070
   176
1070
     2
1070
   177
1070
     2
1070
   178
1070
     2
1070
   271
1070
     2
1070
   277
1070
     2
1070
   279
1070
     2
1070
   280
1070
     0
1070
   287
1070
     5
1070
   340
1005
127
1002
}
  0
ARC
  5
26C
330
1F
100
AcDbEntity
  8
Ｓ_１_１
  6
CONTINUOUS
 62
     3
100
AcDbCircle
 10
704.9999290000001
 20
1204.999998
 30
0.0
 40
37.499999
100
AcDbArc
 50
179.999991
 51
180.0
  0
ARC
  5
26D
330
1F
100
AcDbEntity
  8
Ｓ_１_１
  6
CONTINUOUS
 62
     3
100
AcDbCircle
 10
1456.5925755858
 20
865.000003
 30
0.0
 40
12.5
100
AcDbArc
 50
270.0
 51
0.0
  0
LINE
  5
26E
330
1F
100
AcDbEntity
  8
Ｓ_１_１
  6
CONTINUOUS
 62
     3
100
AcDbLine
 10
1469.0925755858
 20
865.000003
 30
0.0
 11
1469.0925755858
 21
965.0000009999999
 31
0.0
  0
LINE
  5
26F
330
1F
100
AcDbEntity
  8
Ｓ_１_１
  6
CONTINUOUS
 62
     3
100
AcDbLine
 10
1456.5925755858
 20
852.5000029999999
 30
0.0
 11
1389.999995
 21
852.5000029999999
 31
0.0
  0
ARC
  5
270
330
1F
100
AcDbEntity
  8
Ｓ_１_１
  6
CONTINUOUS
 62
     3
100
AcDbCircle
 10
1456.5925755858
 20
965.0000009999999
 30
0.0
 40
12.5
100
AcDbArc
 50
0.0
 51
90.00000000000001
  0
LINE
  5
271
330
1F
100
AcDbEntity
  8
Ｓ_１_１
  6
CONTINUOUS
 62
     3
100
AcDbLine
 10
1456.5925755858
 20
977.500001
 30
0.0
 11
1389.999995
 21
977.500001
 31
0.0
  0
LINE
  5
272
330
1F
100
AcDbEntity
  8
Ｓ_１_１
  6
CONTINUOUS
 62
     3
100
AcDbLine
 10
1379.999995
 20
815.0000039999999
 30
0.0
 11
790.0000799999999
 21
815.0000039999999
 31
0.0
  0
LINE
  5
273
330
1F
100
AcDbEntity
  8
Ｓ_１_１
  6
CONTINUOUS
 62
     3
100
AcDbLine
 10
1380.000072
 20
1354.999996
 30
0.0
 11
789.999928
 21
1354.999996
 31
0.0
  0
LINE
  5
274
330
1F
100
AcDbEntity
  8
Ｓ_１_１
  6
CONTINUOUS
 62
     3
100
AcDbLine
 10
779.9999520000001
 20
825.000106
 30
0.0
 11
790.0000709999999
 21
814.9999879999999
 31
0.0
  0
LINE
  5
275
330
1F
100
AcDbEntity
  8
Ｓ_１_１
  6
CONTINUOUS
 62
     3
100
AcDbLine
 10
779.9999279999998
 20
1344.999996
 30
0.0
 11
779.9999279999998
 21
825.000003
 31
0.0
  0
LINE
  5
276
330
1F
100
AcDbEntity
  8
Ｓ_１_１
  6
CONTINUOUS
 62
     3
100
AcDbLine
 10
789.9999540000001
 20
1355.00005
 30
0.0
 11
779.999943
 21
1345.000039
 31
0.0
  0
LINE
  5
277
330
1F
100
AcDbEntity
  8
Ｓ_１_１
  6
CONTINUOUS
 62
     3
100
AcDbLine
 10
1379.999985
 20
815.00004
 30
0.0
 11
1389.999982
 21
825.0000379999999
 31
0.0
  0
LINE
  5
278
330
1F
100
AcDbEntity
  8
Ｓ_１_１
  6
CONTINUOUS
 62
     3
100
AcDbLine
 10
1389.999995
 20
1344.999996
 30
0.0
 11
1389.999995
 21
825.000003
 31
0.0
  0
LINE
  5
279
330
1F
100
AcDbEntity
  8
Ｓ_１_１
  6
CONTINUOUS
 62
     3
100
AcDbLine
 10
1380.000088
 20
1354.999982
 30
0.0
 11
1389.999991
 21
1345.000079
 31
0.0
  0
LINE
  5
27A
330
1F
100
AcDbEntity
  8
Ｓ_１_１
  6
CONTINUOUS
 62
     3
100
AcDbLine
 10
760.0000809999999
 20
1022.5
 30
0.0
 11
779.9999279999998
 21
1022.5
 31
0.0
  0
LINE
  5
27B
330
1F
100
AcDbEntity
  8
Ｓ_１_１
  6
CONTINUOUS
 62
     3
100
AcDbLine
 10
722.4999290000001
 20
1035.0
 30
0.0
 11
722.4999290000001
 21
1134.999999
 31
0.0
  0
LINE
  5
27C
330
1F
100
AcDbEntity
  8
Ｓ_１_１
  6
CONTINUOUS
 62
     3
100
AcDbLine
 10
747.5000809999999
 20
1035.0
 30
0.0
 11
747.5000809999999
 21
1134.999999
 31
0.0
  0
LINE
  5
27D
330
1F
100
AcDbEntity
  8
Ｓ_１_１
  6
CONTINUOUS
 62
     3
100
AcDbLine
 10
760.0000809999999
 20
1147.499999
 30
0.0
 11
779.9999279999998
 21
1147.499999
 31
0.0
  0
LINE
  5
27E
330
1F
100
AcDbEntity
  8
Ｓ_１_１
  6
CONTINUOUS
 62
     3
100
AcDbLine
 10
1147.499999
 20
1409.999995
 30
0.0
 11
1147.499999
 21
1354.999996
 31
0.0
  0
LINE
  5
27F
330
1F
100
AcDbEntity
  8
Ｓ_１_１
  6
CONTINUOUS
 62
     3
100
AcDbLine
 10
1134.999999
 20
1447.499994
 30
0.0
 11
1035.000077
 21
1447.499994
 31
0.0
  0
LINE
  5
280
330
1F
100
AcDbEntity
  8
Ｓ_１_１
  6
CONTINUOUS
 62
     3
100
AcDbLine
 10
1134.999999
 20
1422.499995
 30
0.0
 11
1035.000077
 21
1422.499995
 31
0.0
  0
LINE
  5
281
330
1F
100
AcDbEntity
  8
Ｓ_１_１
  6
CONTINUOUS
 62
     3
100
AcDbLine
 10
1022.500077
 20
1409.999995
 30
0.0
 11
1022.500077
 21
1354.999996
 31
0.0
  0
LINE
  5
282
330
1F
100
AcDbEntity
  8
Ｓ_１_１
  6
CONTINUOUS
 62
     3
100
AcDbLine
 10
997.5000769999998
 20
1409.999995
 30
0.0
 11
997.5000769999998
 21
1354.999996
 31
0.0
  0
LINE
  5
283
330
1F
100
AcDbEntity
  8
Ｓ_１_１
  6
CONTINUOUS
 62
     3
100
AcDbLine
 10
1172.499998
 20
1409.999995
 30
0.0
 11
1172.499998
 21
1354.999996
 31
0.0
  0
LINE
  5
284
330
1F
100
AcDbEntity
  8
Ｓ_１_１
  6
CONTINUOUS
 62
     3
100
AcDbLine
 10
1147.499999
 20
760.000004
 30
0.0
 11
1147.499999
 21
815.0000039999999
 31
0.0
  0
LINE
  5
285
330
1F
100
AcDbEntity
  8
Ｓ_１_１
  6
CONTINUOUS
 62
     3
100
AcDbLine
 10
1134.999999
 20
722.500005
 30
0.0
 11
1035.000077
 21
722.500005
 31
0.0
  0
LINE
  5
286
330
1F
100
AcDbEntity
  8
Ｓ_１_１
  6
CONTINUOUS
 62
     3
100
AcDbLine
 10
1134.999999
 20
747.500005
 30
0.0
 11
1035.000077
 21
747.500005
 31
0.0
  0
LINE
  5
287
330
1F
100
AcDbEntity
  8
Ｓ_１_１
  6
CONTINUOUS
 62
     3
100
AcDbLine
 10
1022.500077
 20
760.000004
 30
0.0
 11
1022.500077
 21
815.0000039999999
 31
0.0
  0
LINE
  5
288
330
1F
100
AcDbEntity
  8
Ｓ_１_１
  6
CONTINUOUS
 62
     3
100
AcDbLine
 10
997.5000769999998
 20
760.000004
 30
0.0
 11
997.5000769999998
 21
815.0000039999999
 31
0.0
  0
LINE
  5
289
330
1F
100
AcDbEntity
  8
Ｓ_１_１
  6
CONTINUOUS
 62
     3
100
AcDbLine
 10
1172.499998
 20
760.000004
 30
0.0
 11
1172.499998
 21
815.0000039999999
 31
0.0
  0
LINE
  5
28A
330
1F
100
AcDbEntity
  8
Ｓ_１_１
  6
CONTINUOUS
 62
     3
100
AcDbLine
 10
1409.999995
 20
1147.499999
 30
0.0
 11
1389.999995
 21
1147.499999
 31
0.0
  0
LINE
  5
28B
330
1F
100
AcDbEntity
  8
Ｓ_１_１
  6
CONTINUOUS
 62
     3
100
AcDbLine
 10
1447.499994
 20
1134.999999
 30
0.0
 11
1447.499994
 21
1035.0
 31
0.0
  0
LINE
  5
28C
330
1F
100
AcDbEntity
  8
Ｓ_１_１
  6
CONTINUOUS
 62
     3
100
AcDbLine
 10
1422.499995
 20
1134.999999
 30
0.0
 11
1422.499995
 21
1035.0
 31
0.0
  0
LINE
  5
28D
330
1F
100
AcDbEntity
  8
Ｓ_１_１
  6
CONTINUOUS
 62
     3
100
AcDbLine
 10
1409.999995
 20
1022.5
 30
0.0
 11
1389.999995
 21
1022.5
 31
0.0
  0
ARC
  5
28E
330
1F
100
AcDbEntity
  8
Ｓ_１_１
  6
CONTINUOUS
 62
     3
100
AcDbCircle
 10
760.0000809999999
 20
1035.0
 30
0.0
 40
12.50000000000001
100
AcDbArc
 50
179.999991
 51
270.0000010000001
  0
ARC
  5
28F
330
1F
100
AcDbEntity
  8
Ｓ_１_１
  6
CONTINUOUS
 62
     3
100
AcDbCircle
 10
760.0000809999999
 20
1035.0
 30
0.0
 40
37.499999
100
AcDbArc
 50
179.999991
 51
240.073581
  0
ARC
  5
290
330
1F
100
AcDbEntity
  8
Ｓ_１_１
  6
CONTINUOUS
 62
     3
100
AcDbCircle
 10
760.0000809999999
 20
1134.999999
 30
0.0
 40
12.50000000000001
100
AcDbArc
 50
90.000003
 51
180.000005
  0
ARC
  5
291
330
1F
100
AcDbEntity
  8
Ｓ_１_１
  6
CONTINUOUS
 62
     3
100
AcDbCircle
 10
760.0000809999999
 20
1134.999999
 30
0.0
 40
37.499999
100
AcDbArc
 50
119.926429
 51
180.000005
  0
ARC
  5
292
330
1F
100
AcDbEntity
  8
Ｓ_１_１
  6
CONTINUOUS
 62
     3
100
AcDbCircle
 10
1134.999999
 20
1409.999995
 30
0.0
 40
12.50000000000001
100
AcDbArc
 50
0.0
 51
90.000003
  0
ARC
  5
293
330
1F
100
AcDbEntity
  8
Ｓ_１_１
  6
CONTINUOUS
 62
     3
100
AcDbCircle
 10
1134.999999
 20
1409.999995
 30
0.0
 40
37.499999
100
AcDbArc
 50
0.0
 51
90.000003
  0
ARC
  5
294
330
1F
100
AcDbEntity
  8
Ｓ_１_１
  6
CONTINUOUS
 62
     3
100
AcDbCircle
 10
1035.000077
 20
1409.999995
 30
0.0
 40
12.50000000000001
100
AcDbArc
 50
90.000003
 51
180.000005
  0
ARC
  5
295
330
1F
100
AcDbEntity
  8
Ｓ_１_１
  6
CONTINUOUS
 62
     3
100
AcDbCircle
 10
1035.000077
 20
1409.999995
 30
0.0
 40
37.499999
100
AcDbArc
 50
90.000003
 51
180.000005
  0
CIRCLE
  5
296
330
1F
100
AcDbEntity
  8
Ｓ_１_１
  6
CONTINUOUS
 62
     3
100
AcDbCircle
 10
835.0000799999999
 20
1284.999997
 30
0.0
 40
8.0
  0
CIRCLE
  5
297
330
1F
100
AcDbEntity
  8
Ｓ_１_１
  6
CONTINUOUS
 62
     3
100
AcDbCircle
 10
835.0000799999999
 20
1284.999997
 30
0.0
 40
6.000000000000004
  0
CIRCLE
  5
298
330
1F
100
AcDbEntity
  8
Ｓ_１_１
  6
CONTINUOUS
 62
     3
100
AcDbCircle
 10
835.0000799999999
 20
885.000003
 30
0.0
 40
8.0
  0
CIRCLE
  5
299
330
1F
100
AcDbEntity
  8
Ｓ_１_１
  6
CONTINUOUS
 62
     3
100
AcDbCircle
 10
835.0000799999999
 20
885.000003
 30
0.0
 40
6.000000000000004
  0
CIRCLE
  5
29A
330
1F
100
AcDbEntity
  8
Ｓ_１_１
  6
CONTINUOUS
 62
     3
100
AcDbCircle
 10
1334.999996
 20
885.000003
 30
0.0
 40
8.0
  0
CIRCLE
  5
29B
330
1F
100
AcDbEntity
  8
Ｓ_１_１
  6
CONTINUOUS
 62
     3
100
AcDbCircle
 10
1334.999996
 20
885.000003
 30
0.0
 40
6.000000000000004
  0
CIRCLE
  5
29C
330
1F
100
AcDbEntity
  8
Ｓ_１_１
  6
CONTINUOUS
 62
     3
100
AcDbCircle
 10
1334.999996
 20
1284.999997
 30
0.0
 40
8.0
  0
CIRCLE
  5
29D
330
1F
100
AcDbEntity
  8
Ｓ_１_１
  6
CONTINUOUS
 62
     3
100
AcDbCircle
 10
1334.999996
 20
1284.999997
 30
0.0
 40
6.000000000000004
  0
ARC
  5
29E
330
1F
100
AcDbEntity
  8
Ｓ_１_１
  6
CONTINUOUS
 62
     3
100
AcDbCircle
 10
1035.000077
 20
760.000004
 30
0.0
 40
37.499999
100
AcDbArc
 50
179.999991
 51
270.0000010000001
  0
ARC
  5
29F
330
1F
100
AcDbEntity
  8
Ｓ_１_１
  6
CONTINUOUS
 62
     3
100
AcDbCircle
 10
1134.999999
 20
760.000004
 30
0.0
 40
12.50000000000001
100
AcDbArc
 50
269.999997
 51
0.0
  0
ARC
  5
2A0
330
1F
100
AcDbEntity
  8
Ｓ_１_１
  6
CONTINUOUS
 62
     3
100
AcDbCircle
 10
1134.999999
 20
760.000004
 30
0.0
 40
37.499999
100
AcDbArc
 50
269.999997
 51
0.0
  0
ARC
  5
2A1
330
1F
100
AcDbEntity
  8
Ｓ_１_１
  6
CONTINUOUS
 62
     3
100
AcDbCircle
 10
1035.000077
 20
760.000004
 30
0.0
 40
12.50000000000001
100
AcDbArc
 50
179.999991
 51
270.0000010000001
  0
ARC
  5
2A2
330
1F
100
AcDbEntity
  8
Ｓ_１_１
  6
CONTINUOUS
 62
     3
100
AcDbCircle
 10
1409.999995
 20
1035.0
 30
0.0
 40
37.499999
100
AcDbArc
 50
299.926437
 51
0.0
  0
ARC
  5
2A3
330
1F
100
AcDbEntity
  8
Ｓ_１_１
  6
CONTINUOUS
 62
     3
100
AcDbCircle
 10
1409.999995
 20
1134.999999
 30
0.0
 40
12.50000000000001
100
AcDbArc
 50
0.0
 51
90.000003
  0
ARC
  5
2A4
330
1F
100
AcDbEntity
  8
Ｓ_１_１
  6
CONTINUOUS
 62
     3
100
AcDbCircle
 10
1409.999995
 20
1134.999999
 30
0.0
 40
37.499999
100
AcDbArc
 50
0.0
 51
60.07356299999999
  0
ARC
  5
2A5
330
1F
100
AcDbEntity
  8
Ｓ_１_１
  6
CONTINUOUS
 62
     3
100
AcDbCircle
 10
1409.999995
 20
1035.0
 30
0.0
 40
12.50000000000001
100
AcDbArc
 50
269.999997
 51
0.0
  0
LINE
  5
2A6
330
1F
100
AcDbEntity
  8
Ｓ_１_１
  6
EXLTYPE0
 62
     2
100
AcDbLine
 10
1055.000077
 20
830.0000029999999
 30
0.0
 11
1114.999999
 21
830.0000029999999
 31
0.0
  0
LINE
  5
2A7
330
1F
100
AcDbEntity
  8
Ｓ_１_１
  6
EXLTYPE0
 62
     2
100
AcDbLine
 10
1055.000077
 20
1339.999996
 30
0.0
 11
1114.999999
 21
1339.999996
 31
0.0
  0
LINE
  5
2A8
330
1F
100
AcDbEntity
  8
Ｓ_１_１
  6
EXLTYPE0
 62
     2
100
AcDbLine
 10
779.9999279999998
 20
1172.499998
 30
0.0
 11
850.81261
 21
1172.499998
 31
0.0
  0
LINE
  5
2A9
330
1F
100
AcDbEntity
  8
Ｓ_１_１
  6
EXLTYPE0
 62
     2
100
AcDbLine
 10
815.00008
 20
1147.499999
 30
0.0
 11
842.9384649999998
 21
1147.499999
 31
0.0
  0
LINE
  5
2AA
330
1F
100
AcDbEntity
  8
Ｓ_１_１
  6
EXLTYPE0
 62
     2
100
AcDbLine
 10
815.00008
 20
1022.5
 30
0.0
 11
842.9384649999998
 21
1022.5
 31
0.0
  0
LINE
  5
2AB
330
1F
100
AcDbEntity
  8
Ｓ_１_１
  6
EXLTYPE0
 62
     2
100
AcDbLine
 10
779.9999279999998
 20
997.5000009999999
 30
0.0
 11
850.81261
 21
997.5000009999999
 31
0.0
  0
LINE
  5
2AC
330
1F
100
AcDbEntity
  8
Ｓ_１_１
  6
EXLTYPE0
 62
     2
100
AcDbLine
 10
997.5000769999998
 20
1354.999996
 30
0.0
 11
997.5000769999998
 21
1319.187389
 31
0.0
  0
LINE
  5
2AD
330
1F
100
AcDbEntity
  8
Ｓ_１_１
  6
EXLTYPE0
 62
     2
100
AcDbLine
 10
1022.500077
 20
1354.999996
 30
0.0
 11
1022.500077
 21
1327.061458
 31
0.0
  0
LINE
  5
2AE
330
1F
100
AcDbEntity
  8
Ｓ_１_１
  6
EXLTYPE0
 62
     2
100
AcDbLine
 10
1147.499999
 20
1354.999996
 30
0.0
 11
1147.499999
 21
1327.061458
 31
0.0
  0
LINE
  5
2AF
330
1F
100
AcDbEntity
  8
Ｓ_１_１
  6
EXLTYPE0
 62
     2
100
AcDbLine
 10
1172.499998
 20
1354.999996
 30
0.0
 11
1172.499998
 21
1319.187389
 31
0.0
  0
LINE
  5
2B0
330
1F
100
AcDbEntity
  8
Ｓ_１_１
  6
EXLTYPE0
 62
     2
100
AcDbLine
 10
997.5000769999998
 20
815.0000039999999
 30
0.0
 11
997.5000769999998
 21
850.8125339999998
 31
0.0
  0
LINE
  5
2B1
330
1F
100
AcDbEntity
  8
Ｓ_１_１
  6
EXLTYPE0
 62
     2
100
AcDbLine
 10
1022.500077
 20
815.0000039999999
 30
0.0
 11
1022.500077
 21
842.938541
 31
0.0
  0
LINE
  5
2B2
330
1F
100
AcDbEntity
  8
Ｓ_１_１
  6
EXLTYPE0
 62
     2
100
AcDbLine
 10
1147.499999
 20
815.0000039999999
 30
0.0
 11
1147.499999
 21
842.938541
 31
0.0
  0
LINE
  5
2B3
330
1F
100
AcDbEntity
  8
Ｓ_１_１
  6
EXLTYPE0
 62
     2
100
AcDbLine
 10
1172.499998
 20
815.0000039999999
 30
0.0
 11
1172.499998
 21
850.8125339999998
 31
0.0
  0
LINE
  5
2B4
330
1F
100
AcDbEntity
  8
Ｓ_１_１
  6
EXLTYPE0
 62
     2
100
AcDbLine
 10
1389.999995
 20
997.5000009999999
 30
0.0
 11
1319.187466
 21
997.5000009999999
 31
0.0
  0
LINE
  5
2B5
330
1F
100
AcDbEntity
  8
Ｓ_１_１
  6
EXLTYPE0
 62
     2
100
AcDbLine
 10
1389.999995
 20
1022.5
 30
0.0
 11
1327.061535
 21
1022.5
 31
0.0
  0
LINE
  5
2B6
330
1F
100
AcDbEntity
  8
Ｓ_１_１
  6
EXLTYPE0
 62
     2
100
AcDbLine
 10
1389.999995
 20
1147.499999
 30
0.0
 11
1327.061535
 21
1147.499999
 31
0.0
  0
LINE
  5
2B7
330
1F
100
AcDbEntity
  8
Ｓ_１_１
  6
EXLTYPE0
 62
     2
100
AcDbLine
 10
1389.999995
 20
1172.499998
 30
0.0
 11
1319.187466
 21
1172.499998
 31
0.0
  0
LINE
  5
2B8
330
1F
100
AcDbEntity
  8
Ｓ_１_１
  6
EXLTYPE0
 62
     2
100
AcDbLine
 10
779.9999279999998
 20
1022.5
 30
0.0
 11
815.00008
 21
1022.5
 31
0.0
  0
LINE
  5
2B9
330
1F
100
AcDbEntity
  8
Ｓ_１_１
  6
EXLTYPE0
 62
     2
100
AcDbLine
 10
779.9999279999998
 20
1147.499999
 30
0.0
 11
815.00008
 21
1147.499999
 31
0.0
  0
CIRCLE
  5
2BA
330
1F
100
AcDbEntity
  8
Ｓ_１_１
  6
EXLTYPE0
 62
     2
100
AcDbCircle
 10
1085.0
 20
1085.0
 30
0.0
 40
249.999996
  0
ARC
  5
2BB
330
1F
100
AcDbEntity
  8
Ｓ_１_１
  6
EXLTYPE0
 62
     2
100
AcDbCircle
 10
1055.000077
 20
1085.0
 30
0.0
 40
254.999996
100
AcDbArc
 50
90.000003
 51
270.0000010000001
  0
ARC
  5
2BC
330
1F
100
AcDbEntity
  8
Ｓ_１_１
  6
EXLTYPE0
 62
     2
100
AcDbCircle
 10
1114.999999
 20
1085.0
 30
0.0
 40
254.999996
100
AcDbArc
 50
269.999997
 51
90.000003
  0
CIRCLE
  5
2BD
330
1F
100
AcDbEntity
  8
Ｓ_１_１
  6
EXLTYPE0
 62
     2
100
AcDbCircle
 10
1085.0
 20
1085.0
 30
0.0
 40
132.499998
  0
LINE
  5
2BE
330
1F
100
AcDbEntity
  8
Ｓ_１_１
  6
EXLTYPE2
 62
     1
100
AcDbLine
 10
760.0000809999999
 20
1010.000001
 30
0.0
 11
848.1995420000001
 21
1010.000001
 31
0.0
  0
LINE
  5
2BF
330
1F
100
AcDbEntity
  8
Ｓ_１_１
  6
EXLTYPE2
 62
     1
100
AcDbLine
 10
734.9999290000001
 20
1035.0
 30
0.0
 11
734.9999290000001
 21
1134.999999
 31
0.0
  0
LINE
  5
2C0
330
1F
100
AcDbEntity
  8
Ｓ_１_１
  6
EXLTYPE2
 62
     1
100
AcDbLine
 10
760.0000809999999
 20
1159.999998
 30
0.0
 11
849.599536
 21
1159.999998
 31
0.0
  0
LINE
  5
2C1
330
1F
100
AcDbEntity
  8
Ｓ_１_１
  6
EXLTYPE2
 62
     1
100
AcDbLine
 10
1159.999999
 20
1409.999995
 30
0.0
 11
1159.999999
 21
1321.800381
 31
0.0
  0
LINE
  5
2C2
330
1F
100
AcDbEntity
  8
Ｓ_１_１
  6
EXLTYPE2
 62
     1
100
AcDbLine
 10
1134.999999
 20
1434.999994
 30
0.0
 11
1035.000077
 21
1434.999994
 31
0.0
  0
LINE
  5
2C3
330
1F
100
AcDbEntity
  8
Ｓ_１_１
  6
EXLTYPE2
 62
     1
100
AcDbLine
 10
1010.000077
 20
1409.999995
 30
0.0
 11
1010.000077
 21
1320.400387
 31
0.0
  0
LINE
  5
2C4
330
1F
100
AcDbEntity
  8
Ｓ_１_１
  6
EXLTYPE2
 62
     1
100
AcDbLine
 10
845.00008
 20
885.000003
 30
0.0
 11
825.00008
 21
885.000003
 31
0.0
  0
LINE
  5
2C5
330
1F
100
AcDbEntity
  8
Ｓ_１_１
  6
EXLTYPE2
 62
     1
100
AcDbLine
 10
835.0000799999999
 20
895.000002
 30
0.0
 11
835.0000799999999
 21
875.0000029999999
 31
0.0
  0
LINE
  5
2C6
330
1F
100
AcDbEntity
  8
Ｓ_１_１
  6
EXLTYPE2
 62
     1
100
AcDbLine
 10
1344.999996
 20
885.000003
 30
0.0
 11
1324.999996
 21
885.000003
 31
0.0
  0
LINE
  5
2C7
330
1F
100
AcDbEntity
  8
Ｓ_１_１
  6
EXLTYPE2
 62
     1
100
AcDbLine
 10
1334.999996
 20
895.000002
 30
0.0
 11
1334.999996
 21
875.0000029999999
 31
0.0
  0
LINE
  5
2C8
330
1F
100
AcDbEntity
  8
Ｓ_１_１
  6
EXLTYPE2
 62
     1
100
AcDbLine
 10
1344.999996
 20
1284.999997
 30
0.0
 11
1324.999996
 21
1284.999997
 31
0.0
  0
LINE
  5
2C9
330
1F
100
AcDbEntity
  8
Ｓ_１_１
  6
EXLTYPE2
 62
     1
100
AcDbLine
 10
1334.999996
 20
1294.999996
 30
0.0
 11
1334.999996
 21
1274.999997
 31
0.0
  0
LINE
  5
2CA
330
1F
100
AcDbEntity
  8
Ｓ_１_１
  6
EXLTYPE2
 62
     1
100
AcDbLine
 10
845.00008
 20
1284.999997
 30
0.0
 11
825.00008
 21
1284.999997
 31
0.0
  0
LINE
  5
2CB
330
1F
100
AcDbEntity
  8
Ｓ_１_１
  6
EXLTYPE2
 62
     1
100
AcDbLine
 10
835.0000799999999
 20
1294.999996
 30
0.0
 11
835.0000799999999
 21
1274.999997
 31
0.0
  0
LINE
  5
2CC
330
1F
100
AcDbEntity
  8
Ｓ_１_１
  6
EXLTYPE2
 62
     1
100
AcDbLine
 10
1159.999999
 20
760.000004
 30
0.0
 11
1159.999999
 21
848.199619
 31
0.0
  0
LINE
  5
2CD
330
1F
100
AcDbEntity
  8
Ｓ_１_１
  6
EXLTYPE2
 62
     1
100
AcDbLine
 10
1134.999999
 20
735.000005
 30
0.0
 11
1035.000077
 21
735.000005
 31
0.0
  0
LINE
  5
2CE
330
1F
100
AcDbEntity
  8
Ｓ_１_１
  6
EXLTYPE2
 62
     1
100
AcDbLine
 10
1010.000077
 20
760.000004
 30
0.0
 11
1010.000077
 21
849.599612
 31
0.0
  0
LINE
  5
2CF
330
1F
100
AcDbEntity
  8
Ｓ_１_１
  6
EXLTYPE2
 62
     1
100
AcDbLine
 10
1409.999995
 20
1159.999998
 30
0.0
 11
1321.800457
 21
1159.999998
 31
0.0
  0
LINE
  5
2D0
330
1F
100
AcDbEntity
  8
Ｓ_１_１
  6
EXLTYPE2
 62
     1
100
AcDbLine
 10
1434.999995
 20
1134.999999
 30
0.0
 11
1434.999995
 21
1035.0
 31
0.0
  0
LINE
  5
2D1
330
1F
100
AcDbEntity
  8
Ｓ_１_１
  6
EXLTYPE2
 62
     1
100
AcDbLine
 10
1409.999995
 20
1010.000001
 30
0.0
 11
1320.400387
 21
1010.000001
 31
0.0
  0
ARC
  5
2D2
330
1F
100
AcDbEntity
  8
Ｓ_１_１
  6
EXLTYPE2
 62
     1
100
AcDbCircle
 10
760.0000809999999
 20
1035.0
 30
0.0
 40
25.00000000000002
100
AcDbArc
 50
179.999991
 51
270.0000010000001
  0
ARC
  5
2D3
330
1F
100
AcDbEntity
  8
Ｓ_１_１
  6
EXLTYPE2
 62
     1
100
AcDbCircle
 10
760.0000809999999
 20
1134.999999
 30
0.0
 40
25.00000000000002
100
AcDbArc
 50
90.000003
 51
180.000005
  0
ARC
  5
2D4
330
1F
100
AcDbEntity
  8
Ｓ_１_１
  6
EXLTYPE2
 62
     1
100
AcDbCircle
 10
1134.999999
 20
1409.999995
 30
0.0
 40
25.00000000000002
100
AcDbArc
 50
0.0
 51
90.000003
  0
ARC
  5
2D5
330
1F
100
AcDbEntity
  8
Ｓ_１_１
  6
EXLTYPE2
 62
     1
100
AcDbCircle
 10
1035.000077
 20
1409.999995
 30
0.0
 40
25.00000000000002
100
AcDbArc
 50
90.000003
 51
180.000005
  0
ARC
  5
2D6
330
1F
100
AcDbEntity
  8
Ｓ_１_１
  6
EXLTYPE2
 62
     1
100
AcDbCircle
 10
1134.999999
 20
760.000004
 30
0.0
 40
25.00000000000002
100
AcDbArc
 50
269.999997
 51
0.0
  0
ARC
  5
2D7
330
1F
100
AcDbEntity
  8
Ｓ_１_１
  6
EXLTYPE2
 62
     1
100
AcDbCircle
 10
1035.000077
 20
760.000004
 30
0.0
 40
25.00000000000002
100
AcDbArc
 50
179.999991
 51
270.0000010000001
  0
ARC
  5
2D8
330
1F
100
AcDbEntity
  8
Ｓ_１_１
  6
EXLTYPE2
 62
     1
100
AcDbCircle
 10
1409.999995
 20
1134.999999
 30
0.0
 40
25.00000000000002
100
AcDbArc
 50
0.0
 51
90.000003
  0
ARC
  5
2D9
330
1F
100
AcDbEntity
  8
Ｓ_１_１
  6
EXLTYPE2
 62
     1
100
AcDbCircle
 10
1409.999995
 20
1035.0
 30
0.0
 40
25.00000000000002
100
AcDbArc
 50
269.999997
 51
0.0
  0
LINE
  5
2DA
330
1F
100
AcDbEntity
  8
Ｓ_１_１
  6
EXLTYPE2
 62
     1
100
AcDbLine
 10
1085.0
 20
1361.41769
 30
0.0
 11
1085.0
 21
809.1999999999999
 31
0.0
  0
LINE
  5
2DB
330
1F
100
AcDbEntity
  8
Ｓ_１_１
  6
CONTINUOUS
 62
     3
100
AcDbLine
 10
1284.999997
 20
334.899992
 30
0.0
 11
1284.999997
 21
247.9000049999999
 31
0.0
  0
LINE
  5
2DC
330
1F
100
AcDbEntity
  8
Ｓ_１_１
  6
CONTINUOUS
 62
     3
100
AcDbLine
 10
1281.99999
 20
244.900063
 30
0.0
 11
1284.999929
 21
247.9000009999999
 31
0.0
  0
LINE
  5
2DD
330
1F
100
AcDbEntity
  8
Ｓ_１_１
  6
CONTINUOUS
 62
     3
100
AcDbLine
 10
888.0000379999999
 20
244.900008
 30
0.0
 11
885.0000460000001
 21
247.9000009999999
 31
0.0
  0
LINE
  5
2DE
330
1F
100
AcDbEntity
  8
Ｓ_１_１
  6
CONTINUOUS
 62
     3
100
AcDbLine
 10
885.0000789999998
 20
334.899992
 30
0.0
 11
885.0000789999998
 21
247.9000049999999
 31
0.0
  0
LINE
  5
2DF
330
1F
100
AcDbEntity
  8
Ｓ_１_１
  6
CONTINUOUS
 62
     3
100
AcDbLine
 10
1281.000058
 20
326.9
 30
0.0
 11
889.000018
 21
326.9
 31
0.0
  0
LINE
  5
2E0
330
1F
100
AcDbEntity
  8
Ｓ_１_１
  6
CONTINUOUS
 62
     3
100
AcDbLine
 10
1281.000058
 20
334.899992
 30
0.0
 11
1281.000058
 21
326.9
 31
0.0
  0
LINE
  5
2E1
330
1F
100
AcDbEntity
  8
Ｓ_１_１
  6
CONTINUOUS
 62
     3
100
AcDbLine
 10
1334.999996
 20
444.8999909999999
 30
0.0
 11
1334.999996
 21
344.899992
 31
0.0
  0
LINE
  5
2E2
330
1F
100
AcDbEntity
  8
Ｓ_１_１
  6
CONTINUOUS
 62
     3
100
AcDbLine
 10
1324.999996
 20
334.899974
 30
0.0
 11
1335.000006
 21
344.8999849999999
 31
0.0
  0
LINE
  5
2E3
330
1F
100
AcDbEntity
  8
Ｓ_１_１
  6
CONTINUOUS
 62
     3
100
AcDbLine
 10
1291.362301
 20
310.400023
 30
0.0
 11
1291.362301
 21
289.4000009999999
 31
0.0
  0
LINE
  5
2E4
330
1F
100
AcDbEntity
  8
Ｓ_１_１
  6
CONTINUOUS
 62
     3
100
AcDbLine
 10
1300.362316
 20
310.400023
 30
0.0
 11
1300.362316
 21
289.4000009999999
 31
0.0
  0
LINE
  5
2E5
330
1F
100
AcDbEntity
  8
Ｓ_１_１
  6
CONTINUOUS
 62
     3
100
AcDbLine
 10
1299.424435
 20
293.8378289999999
 30
0.0
 11
1292.300107
 21
293.8378289999999
 31
0.0
  0
LINE
  5
2E6
330
1F
100
AcDbEntity
  8
Ｓ_１_１
  6
CONTINUOUS
 62
     3
100
AcDbLine
 10
1299.424435
 20
305.9621759999999
 30
0.0
 11
1292.300107
 21
305.9621759999999
 31
0.0
  0
LINE
  5
2E7
330
1F
100
AcDbEntity
  8
Ｓ_１_１
  6
CONTINUOUS
 62
     3
100
AcDbLine
 10
1299.424435
 20
312.0243589999999
 30
0.0
 11
1292.300107
 21
312.0243589999999
 31
0.0
  0
LINE
  5
2E8
330
1F
100
AcDbEntity
  8
Ｓ_１_１
  6
CONTINUOUS
 62
     3
100
AcDbLine
 10
1299.424435
 20
287.775626
 30
0.0
 11
1292.300107
 21
287.775626
 31
0.0
  0
LINE
  5
2E9
330
1F
100
AcDbEntity
  8
Ｓ_１_１
  6
CONTINUOUS
 62
     3
100
AcDbLine
 10
1300.362279
 20
289.3999909999999
 30
0.0
 11
1299.424457
 21
287.77563
 31
0.0
  0
LINE
  5
2EA
330
1F
100
AcDbEntity
  8
Ｓ_１_１
  6
CONTINUOUS
 62
     3
100
AcDbLine
 10
1291.362274
 20
289.4000029999999
 30
0.0
 11
1292.300076
 21
287.775675
 31
0.0
  0
LINE
  5
2EB
330
1F
100
AcDbEntity
  8
Ｓ_１_１
  6
CONTINUOUS
 62
     3
100
AcDbLine
 10
1300.362269
 20
310.4000399999999
 30
0.0
 11
1299.424467
 21
312.024368
 31
0.0
  0
LINE
  5
2EC
330
1F
100
AcDbEntity
  8
Ｓ_１_１
  6
CONTINUOUS
 62
     3
100
AcDbLine
 10
1291.362217
 20
310.4000669999999
 30
0.0
 11
1292.300038
 21
312.0244269999999
 31
0.0
  0
LINE
  5
2ED
330
1F
100
AcDbEntity
  8
Ｓ_１_１
  6
CONTINUOUS
 62
     3
100
AcDbLine
 10
1285.000026
 20
307.1510050000001
 30
0.0
 11
1290.000036
 21
307.4635059999999
 31
0.0
  0
LINE
  5
2EE
330
1F
100
AcDbEntity
  8
Ｓ_１_１
  6
CONTINUOUS
 62
     3
100
AcDbLine
 10
1284.999992
 20
307.852385
 30
0.0
 11
1291.362242
 21
308.250026
 31
0.0
  0
LINE
  5
2EF
330
1F
100
AcDbEntity
  8
Ｓ_１_１
  6
CONTINUOUS
 62
     3
100
AcDbLine
 10
1289.999997
 20
307.4635079999999
 30
0.0
 11
1289.999997
 21
292.3365359999999
 31
0.0
  0
LINE
  5
2F0
330
1F
100
AcDbEntity
  8
Ｓ_１_１
  6
CONTINUOUS
 62
     3
100
AcDbLine
 10
1291.362263
 20
308.2500220000001
 30
0.0
 11
1289.999981
 21
307.4635079999999
 31
0.0
  0
LINE
  5
2F1
330
1F
100
AcDbEntity
  8
Ｓ_１_１
  6
CONTINUOUS
 62
     3
100
AcDbLine
 10
1285.000024
 20
292.6490339999999
 30
0.0
 11
1289.999958
 21
292.3365379999999
 31
0.0
  0
LINE
  5
2F2
330
1F
100
AcDbEntity
  8
Ｓ_１_１
  6
CONTINUOUS
 62
     3
100
AcDbLine
 10
1284.999991
 20
291.947673
 30
0.0
 11
1291.362241
 21
291.5500329999999
 31
0.0
  0
LINE
  5
2F3
330
1F
100
AcDbEntity
  8
Ｓ_１_１
  6
CONTINUOUS
 62
     3
100
AcDbLine
 10
1289.999969
 20
292.3365009999999
 30
0.0
 11
1291.362252
 21
291.549987
 31
0.0
  0
LINE
  5
2F4
330
1F
100
AcDbEntity
  8
Ｓ_１_１
  6
CONTINUOUS
 62
     3
100
AcDbLine
 10
1301.724545
 20
308.1648779999999
 30
0.0
 11
1301.724545
 21
291.635165
 31
0.0
  0
LINE
  5
2F5
330
1F
100
AcDbEntity
  8
Ｓ_１_１
  6
CONTINUOUS
 62
     3
100
AcDbLine
 10
1307.862294
 20
292.7201349999999
 30
0.0
 11
1301.72452
 21
292.3365239999999
 31
0.0
  0
LINE
  5
2F6
330
1F
100
AcDbEntity
  8
Ｓ_１_１
  6
CONTINUOUS
 62
     3
100
AcDbLine
 10
1307.862251
 20
292.0187689999999
 30
0.0
 11
1300.362237
 21
291.5500189999999
 31
0.0
  0
LINE
  5
2F7
330
1F
100
AcDbEntity
  8
Ｓ_１_１
  6
CONTINUOUS
 62
     3
100
AcDbLine
 10
1301.724589
 20
292.336553
 30
0.0
 11
1300.36224
 21
291.550001
 31
0.0
  0
LINE
  5
2F8
330
1F
100
AcDbEntity
  8
Ｓ_１_１
  6
CONTINUOUS
 62
     3
100
AcDbLine
 10
1307.862248
 20
307.781251
 30
0.0
 11
1300.362234
 21
308.2500019999999
 31
0.0
  0
LINE
  5
2F9
330
1F
100
AcDbEntity
  8
Ｓ_１_１
  6
CONTINUOUS
 62
     3
100
AcDbLine
 10
1300.362228
 20
308.250009
 30
0.0
 11
1301.724511
 21
307.463494
 31
0.0
  0
LINE
  5
2FA
330
1F
100
AcDbEntity
  8
Ｓ_１_１
  6
CONTINUOUS
 62
     3
100
AcDbLine
 10
1307.862291
 20
307.0798859999999
 30
0.0
 11
1301.724517
 21
307.463496
 31
0.0
  0
LINE
  5
2FB
330
1F
100
AcDbEntity
  8
Ｓ_１_１
  6
CONTINUOUS
 62
     3
100
AcDbLine
 10
1370.362315
 20
311.9
 30
0.0
 11
1370.362315
 21
287.9000239999999
 31
0.0
  0
LINE
  5
2FC
330
1F
100
AcDbEntity
  8
Ｓ_１_１
  6
CONTINUOUS
 62
     3
100
AcDbLine
 10
1320.362316
 20
311.900039
 30
0.0
 11
1320.362316
 21
287.9000239999999
 31
0.0
  0
LINE
  5
2FD
330
1F
100
AcDbEntity
  8
Ｓ_１_１
  6
CONTINUOUS
 62
     3
100
AcDbLine
 10
1335.362316
 20
311.9
 30
0.0
 11
1335.362316
 21
287.9000239999999
 31
0.0
  0
LINE
  5
2FE
330
1F
100
AcDbEntity
  8
Ｓ_１_１
  6
CONTINUOUS
 62
     3
100
AcDbLine
 10
1342.862316
 20
315.400023
 30
0.0
 11
1342.862316
 21
301.650023
 31
0.0
  0
LINE
  5
2FF
330
1F
100
AcDbEntity
  8
Ｓ_１_１
  6
CONTINUOUS
 62
     3
100
AcDbLine
 10
1342.862316
 20
286.9000009999999
 30
0.0
 11
1335.939632
 21
286.9000009999999
 31
0.0
  0
LINE
  5
300
330
1F
100
AcDbEntity
  8
Ｓ_１_１
  6
CONTINUOUS
 62
     3
100
AcDbLine
 10
1342.862316
 20
312.900023
 30
0.0
 11
1335.939632
 21
312.900023
 31
0.0
  0
LINE
  5
301
330
1F
100
AcDbEntity
  8
Ｓ_１_１
  6
CONTINUOUS
 62
     3
100
AcDbLine
 10
1370.362315
 20
311.9
 30
0.0
 11
1369.862209
 21
311.9
 31
0.0
  0
LINE
  5
302
330
1F
100
AcDbEntity
  8
Ｓ_１_１
  6
CONTINUOUS
 62
     3
100
AcDbLine
 10
1370.362315
 20
287.9000239999999
 30
0.0
 11
1369.862209
 21
287.9000239999999
 31
0.0
  0
LINE
  5
303
330
1F
100
AcDbEntity
  8
Ｓ_１_１
  6
CONTINUOUS
 62
     3
100
AcDbLine
 10
1319.784924
 20
312.900023
 30
0.0
 11
1308.439633
 21
312.900023
 31
0.0
  0
LINE
  5
304
330
1F
100
AcDbEntity
  8
Ｓ_１_１
  6
CONTINUOUS
 62
     3
100
AcDbLine
 10
1319.784924
 20
286.9000009999999
 30
0.0
 11
1308.439633
 21
286.9000009999999
 31
0.0
  0
LINE
  5
305
330
1F
100
AcDbEntity
  8
Ｓ_１_１
  6
CONTINUOUS
 62
     3
100
AcDbLine
 10
1366.862254
 20
315.9000159999999
 30
0.0
 11
1359.362255
 21
315.9000159999999
 31
0.0
  0
LINE
  5
306
330
1F
100
AcDbEntity
  8
Ｓ_１_１
  6
CONTINUOUS
 62
     3
100
AcDbLine
 10
1366.862254
 20
283.900008
 30
0.0
 11
1359.362255
 21
283.900008
 31
0.0
  0
LINE
  5
307
330
1F
100
AcDbEntity
  8
Ｓ_１_１
  6
CONTINUOUS
 62
     3
100
AcDbLine
 10
1369.862209
 20
312.900023
 30
0.0
 11
1369.862209
 21
286.9000009999999
 31
0.0
  0
LINE
  5
308
330
1F
100
AcDbEntity
  8
Ｓ_１_１
  6
CONTINUOUS
 62
     3
100
AcDbLine
 10
1335.362316
 20
287.9000239999999
 30
0.0
 11
1320.362316
 21
287.9000239999999
 31
0.0
  0
LINE
  5
309
330
1F
100
AcDbEntity
  8
Ｓ_１_１
  6
CONTINUOUS
 62
     3
100
AcDbLine
 10
1335.362316
 20
311.9
 30
0.0
 11
1320.362316
 21
311.9
 31
0.0
  0
LINE
  5
30A
330
1F
100
AcDbEntity
  8
Ｓ_１_１
  6
CONTINUOUS
 62
     3
100
AcDbLine
 10
1369.862313
 20
312.900027
 30
0.0
 11
1366.862321
 21
315.9000199999999
 31
0.0
  0
LINE
  5
30B
330
1F
100
AcDbEntity
  8
Ｓ_１_１
  6
CONTINUOUS
 62
     3
100
AcDbLine
 10
1369.862286
 20
286.8999949999999
 30
0.0
 11
1366.862294
 21
283.900002
 31
0.0
  0
LINE
  5
30C
330
1F
100
AcDbEntity
  8
Ｓ_１_１
  6
CONTINUOUS
 62
     3
100
AcDbLine
 10
1358.8623
 20
315.400023
 30
0.0
 11
1350.86227
 21
315.400023
 31
0.0
  0
LINE
  5
30D
330
1F
100
AcDbEntity
  8
Ｓ_１_１
  6
CONTINUOUS
 62
     3
100
AcDbLine
 10
1358.8623
 20
284.4000009999999
 30
0.0
 11
1350.86227
 21
284.4000009999999
 31
0.0
  0
LINE
  5
30E
330
1F
100
AcDbEntity
  8
Ｓ_１_１
  6
CONTINUOUS
 62
     3
100
AcDbLine
 10
1350.86227
 20
315.400023
 30
0.0
 11
1350.86227
 21
284.4000009999999
 31
0.0
  0
LINE
  5
30F
330
1F
100
AcDbEntity
  8
Ｓ_１_１
  6
CONTINUOUS
 62
     3
100
AcDbLine
 10
1358.8623
 20
315.400023
 30
0.0
 11
1358.8623
 21
284.4000009999999
 31
0.0
  0
LINE
  5
310
330
1F
100
AcDbEntity
  8
Ｓ_１_１
  6
CONTINUOUS
 62
     3
100
AcDbLine
 10
1350.362249
 20
315.9000179999999
 30
0.0
 11
1350.862239
 21
315.4000279999999
 31
0.0
  0
LINE
  5
311
330
1F
100
AcDbEntity
  8
Ｓ_１_１
  6
CONTINUOUS
 62
     3
100
AcDbLine
 10
1358.862208
 20
284.4000419999999
 30
0.0
 11
1359.362252
 21
283.8999989999999
 31
0.0
  0
LINE
  5
312
330
1F
100
AcDbEntity
  8
Ｓ_１_１
  6
CONTINUOUS
 62
     3
100
AcDbLine
 10
1350.862221
 20
284.4000379999999
 30
0.0
 11
1350.362232
 21
283.900049
 31
0.0
  0
LINE
  5
313
330
1F
100
AcDbEntity
  8
Ｓ_１_１
  6
CONTINUOUS
 62
     3
100
AcDbLine
 10
1359.362262
 20
315.900041
 30
0.0
 11
1358.862245
 21
315.4000239999999
 31
0.0
  0
LINE
  5
314
330
1F
100
AcDbEntity
  8
Ｓ_１_１
  6
CONTINUOUS
 62
     3
100
AcDbLine
 10
1350.362316
 20
315.9000159999999
 30
0.0
 11
1343.36227
 21
315.9000159999999
 31
0.0
  0
LINE
  5
315
330
1F
100
AcDbEntity
  8
Ｓ_１_１
  6
CONTINUOUS
 62
     3
100
AcDbLine
 10
1350.362316
 20
283.900008
 30
0.0
 11
1343.36227
 21
283.900008
 31
0.0
  0
LINE
  5
316
330
1F
100
AcDbEntity
  8
Ｓ_１_１
  6
CONTINUOUS
 62
     3
100
AcDbLine
 10
1343.362239
 20
315.9000130000001
 30
0.0
 11
1342.862249
 21
315.400023
 31
0.0
  0
LINE
  5
317
330
1F
100
AcDbEntity
  8
Ｓ_１_１
  6
CONTINUOUS
 62
     3
100
AcDbLine
 10
1342.862266
 20
284.3999889999999
 30
0.0
 11
1343.362202
 21
283.900053
 31
0.0
  0
LINE
  5
318
330
1F
100
AcDbEntity
  8
Ｓ_１_１
  6
CONTINUOUS
 62
     3
100
AcDbLine
 10
1350.362316
 20
283.900008
 30
0.0
 11
1350.362316
 21
315.9000159999999
 31
0.0
  0
LINE
  5
319
330
1F
100
AcDbEntity
  8
Ｓ_１_１
  6
CONTINUOUS
 62
     3
100
AcDbLine
 10
1343.36227
 20
315.9000159999999
 30
0.0
 11
1343.36227
 21
301.650023
 31
0.0
  0
LINE
  5
31A
330
1F
100
AcDbEntity
  8
Ｓ_１_１
  6
CONTINUOUS
 62
     3
100
AcDbLine
 10
1359.362255
 20
315.9000159999999
 30
0.0
 11
1359.362255
 21
283.900008
 31
0.0
  0
LINE
  5
31B
330
1F
100
AcDbEntity
  8
Ｓ_１_１
  6
CONTINUOUS
 62
     3
100
AcDbLine
 10
1366.862254
 20
315.9000159999999
 30
0.0
 11
1366.862254
 21
283.900008
 31
0.0
  0
LINE
  5
31C
330
1F
100
AcDbEntity
  8
Ｓ_１_１
  6
CONTINUOUS
 62
     3
100
AcDbLine
 10
1343.362267
 20
301.754904
 30
0.0
 11
1343.544033
 21
301.649961
 31
0.0
  0
LINE
  5
31D
330
1F
100
AcDbEntity
  8
Ｓ_１_１
  6
CONTINUOUS
 62
     3
100
AcDbLine
 10
1341.362301
 20
284.4000009999999
 30
0.0
 11
1340.362316
 21
284.4000009999999
 31
0.0
  0
LINE
  5
31E
330
1F
100
AcDbEntity
  8
Ｓ_１_１
  6
CONTINUOUS
 62
     3
100
AcDbLine
 10
1341.362301
 20
315.400023
 30
0.0
 11
1340.362316
 21
315.400023
 31
0.0
  0
LINE
  5
31F
330
1F
100
AcDbEntity
  8
Ｓ_１_１
  6
CONTINUOUS
 62
     3
100
AcDbLine
 10
1339.862209
 20
314.9000119999999
 30
0.0
 11
1339.862209
 21
312.900023
 31
0.0
  0
LINE
  5
320
330
1F
100
AcDbEntity
  8
Ｓ_１_１
  6
CONTINUOUS
 62
     3
100
AcDbLine
 10
1341.862255
 20
314.9000119999999
 30
0.0
 11
1341.862255
 21
312.900023
 31
0.0
  0
LINE
  5
321
330
1F
100
AcDbEntity
  8
Ｓ_１_１
  6
CONTINUOUS
 62
     3
100
AcDbLine
 10
1341.862255
 20
286.9000009999999
 30
0.0
 11
1341.862255
 21
284.9000119999999
 31
0.0
  0
LINE
  5
322
330
1F
100
AcDbEntity
  8
Ｓ_１_１
  6
CONTINUOUS
 62
     3
100
AcDbLine
 10
1339.862209
 20
286.9000009999999
 30
0.0
 11
1339.862209
 21
284.9000119999999
 31
0.0
  0
LINE
  5
323
330
1F
100
AcDbEntity
  8
Ｓ_１_１
  6
CONTINUOUS
 62
     3
100
AcDbLine
 10
1341.862295
 20
284.9000089999998
 30
0.0
 11
1341.362305
 21
284.400019
 31
0.0
  0
LINE
  5
324
330
1F
100
AcDbEntity
  8
Ｓ_１_１
  6
CONTINUOUS
 62
     3
100
AcDbLine
 10
1339.862336
 20
284.9000089999998
 30
0.0
 11
1340.362326
 21
284.400019
 31
0.0
  0
LINE
  5
325
330
1F
100
AcDbEntity
  8
Ｓ_１_１
  6
CONTINUOUS
 62
     3
100
AcDbLine
 10
1341.362278
 20
315.4000029999999
 30
0.0
 11
1341.862268
 21
314.9000130000001
 31
0.0
  0
LINE
  5
326
330
1F
100
AcDbEntity
  8
Ｓ_１_１
  6
CONTINUOUS
 62
     3
100
AcDbLine
 10
1340.362245
 20
315.4000569999999
 30
0.0
 11
1339.862228
 21
314.9000399999999
 31
0.0
  0
LINE
  5
327
330
1F
100
AcDbEntity
  8
Ｓ_１_１
  6
CONTINUOUS
 62
     3
100
AcDbLine
 10
1346.362301
 20
298.1500009999999
 30
0.0
 11
1342.862316
 21
298.1500009999999
 31
0.0
  0
LINE
  5
328
330
1F
100
AcDbEntity
  8
Ｓ_１_１
  6
CONTINUOUS
 62
     3
100
AcDbLine
 10
1346.362301
 20
301.650023
 30
0.0
 11
1342.862316
 21
301.650023
 31
0.0
  0
LINE
  5
329
330
1F
100
AcDbEntity
  8
Ｓ_１_１
  6
CONTINUOUS
 62
     3
100
AcDbLine
 10
1346.362301
 20
301.650023
 30
0.0
 11
1346.362301
 21
298.1500009999999
 31
0.0
  0
LINE
  5
32A
330
1F
100
AcDbEntity
  8
Ｓ_１_１
  6
CONTINUOUS
 62
     3
100
AcDbLine
 10
1342.862316
 20
298.1500009999999
 30
0.0
 11
1342.862316
 21
284.4000009999999
 31
0.0
  0
LINE
  5
32B
330
1F
100
AcDbEntity
  8
Ｓ_１_１
  6
CONTINUOUS
 62
     3
100
AcDbLine
 10
1343.36227
 20
298.1500009999999
 30
0.0
 11
1343.36227
 21
283.900008
 31
0.0
  0
LINE
  5
32C
330
1F
100
AcDbEntity
  8
Ｓ_１_１
  6
CONTINUOUS
 62
     3
100
AcDbLine
 10
1343.543979
 20
298.15001
 30
0.0
 11
1343.362279
 21
298.0451059999999
 31
0.0
  0
LINE
  5
32D
330
1F
100
AcDbEntity
  8
Ｓ_１_１
  6
CONTINUOUS
 62
     3
100
AcDbLine
 10
1319.784924
 20
304.9000119999999
 30
0.0
 11
1308.439633
 21
304.9000119999999
 31
0.0
  0
LINE
  5
32E
330
1F
100
AcDbEntity
  8
Ｓ_１_１
  6
CONTINUOUS
 62
     3
100
AcDbLine
 10
1319.784924
 20
294.9000119999999
 30
0.0
 11
1308.439633
 21
294.9000119999999
 31
0.0
  0
LINE
  5
32F
330
1F
100
AcDbEntity
  8
Ｓ_１_１
  6
CONTINUOUS
 62
     3
100
AcDbLine
 10
1307.862297
 20
287.900019
 30
0.0
 11
1308.439651
 21
286.9000109999998
 31
0.0
  0
LINE
  5
330
330
1F
100
AcDbEntity
  8
Ｓ_１_１
  6
CONTINUOUS
 62
     3
100
AcDbLine
 10
1319.784943
 20
312.900023
 30
0.0
 11
1320.362298
 21
311.9000150000001
 31
0.0
  0
LINE
  5
331
330
1F
100
AcDbEntity
  8
Ｓ_１_１
  6
CONTINUOUS
 62
     3
100
AcDbLine
 10
1335.362288
 20
287.9000139999999
 30
0.0
 11
1335.939642
 21
286.9000069999998
 31
0.0
  0
LINE
  5
332
330
1F
100
AcDbEntity
  8
Ｓ_１_１
  6
CONTINUOUS
 62
     3
100
AcDbLine
 10
1308.439596
 20
312.900021
 30
0.0
 11
1307.862261
 21
311.900047
 31
0.0
  0
LINE
  5
333
330
1F
100
AcDbEntity
  8
Ｓ_１_１
  6
CONTINUOUS
 62
     3
100
AcDbLine
 10
1320.362328
 20
287.9000119999999
 30
0.0
 11
1319.784973
 21
286.900004
 31
0.0
  0
LINE
  5
334
330
1F
100
AcDbEntity
  8
Ｓ_１_１
  6
CONTINUOUS
 62
     3
100
AcDbLine
 10
1335.939653
 20
312.8999869999999
 30
0.0
 11
1335.362299
 21
311.89998
 31
0.0
  0
LINE
  5
335
330
1F
100
AcDbEntity
  8
Ｓ_１_１
  6
CONTINUOUS
 62
     3
100
AcDbLine
 10
1335.939632
 20
312.900023
 30
0.0
 11
1335.939632
 21
286.9000009999999
 31
0.0
  0
LINE
  5
336
330
1F
100
AcDbEntity
  8
Ｓ_１_１
  6
CONTINUOUS
 62
     3
100
AcDbLine
 10
1319.784924
 20
312.900023
 30
0.0
 11
1319.784924
 21
304.9000119999999
 31
0.0
  0
LINE
  5
337
330
1F
100
AcDbEntity
  8
Ｓ_１_１
  6
CONTINUOUS
 62
     3
100
AcDbLine
 10
1308.439633
 20
312.900023
 30
0.0
 11
1308.439633
 21
304.9000119999999
 31
0.0
  0
LINE
  5
338
330
1F
100
AcDbEntity
  8
Ｓ_１_１
  6
CONTINUOUS
 62
     3
100
AcDbLine
 10
1319.784924
 20
294.9000119999999
 30
0.0
 11
1319.784924
 21
286.9000009999999
 31
0.0
  0
LINE
  5
339
330
1F
100
AcDbEntity
  8
Ｓ_１_１
  6
CONTINUOUS
 62
     3
100
AcDbLine
 10
1308.439633
 20
294.9000119999999
 30
0.0
 11
1308.439633
 21
286.9000009999999
 31
0.0
  0
LINE
  5
33A
330
1F
100
AcDbEntity
  8
Ｓ_１_１
  6
CONTINUOUS
 62
     3
100
AcDbLine
 10
1307.862316
 20
311.900039
 30
0.0
 11
1307.862316
 21
287.9000239999999
 31
0.0
  0
LINE
  5
33B
330
1F
100
AcDbEntity
  8
Ｓ_１_１
  6
CONTINUOUS
 62
     3
100
AcDbLine
 10
835.0000799999999
 20
444.8999909999999
 30
0.0
 11
835.0000799999999
 21
344.9000109999998
 31
0.0
  0
LINE
  5
33C
330
1F
100
AcDbEntity
  8
Ｓ_１_１
  6
CONTINUOUS
 62
     3
100
AcDbLine
 10
845.0000059999999
 20
334.9000539999998
 30
0.0
 11
835.000049
 21
344.9000119999999
 31
0.0
  0
LINE
  5
33D
330
1F
100
AcDbEntity
  8
Ｓ_１_１
  6
CONTINUOUS
 62
     3
100
AcDbLine
 10
889.000018
 20
334.899992
 30
0.0
 11
889.000018
 21
326.9
 31
0.0
  0
LINE
  5
33E
330
1F
100
AcDbEntity
  8
Ｓ_１_１
  6
CONTINUOUS
 62
     3
100
AcDbLine
 10
1434.999995
 20
349.899992
 30
0.0
 11
1334.999996
 21
349.899992
 31
0.0
  0
LINE
  5
33F
330
1F
100
AcDbEntity
  8
Ｓ_１_１
  6
CONTINUOUS
 62
     3
100
AcDbLine
 10
1434.999995
 20
374.899992
 30
0.0
 11
1334.999996
 21
374.899992
 31
0.0
  0
LINE
  5
340
330
1F
100
AcDbEntity
  8
Ｓ_１_１
  6
CONTINUOUS
 62
     3
100
AcDbLine
 10
735.0000809999999
 20
349.899992
 30
0.0
 11
835.0000799999999
 21
349.899992
 31
0.0
  0
LINE
  5
341
330
1F
100
AcDbEntity
  8
Ｓ_１_１
  6
CONTINUOUS
 62
     3
100
AcDbLine
 10
735.0000809999999
 20
374.899992
 30
0.0
 11
835.0000799999999
 21
374.899992
 31
0.0
  0
LINE
  5
342
330
1F
100
AcDbEntity
  8
Ｓ_１_１
  6
CONTINUOUS
 62
     3
100
AcDbLine
 10
889.0000829999999
 20
326.900025
 30
0.0
 11
885.0000870000001
 21
319.971829
 31
0.0
  0
LINE
  5
343
330
1F
100
AcDbEntity
  8
Ｓ_１_１
  6
CONTINUOUS
 62
     3
100
AcDbLine
 10
1281.000015
 20
326.8999989999999
 30
0.0
 11
1285.000031
 21
319.9717689999999
 31
0.0
  0
LINE
  5
344
330
1F
100
AcDbEntity
  8
Ｓ_１_１
  6
CONTINUOUS
 62
     3
100
AcDbLine
 10
1334.999996
 20
344.899992
 30
0.0
 11
835.0000799999999
 21
344.899992
 31
0.0
  0
LINE
  5
345
330
1F
100
AcDbEntity
  8
Ｓ_１_１
  6
CONTINUOUS
 62
     3
100
AcDbLine
 10
885.0000789999998
 20
247.9000049999999
 30
0.0
 11
1284.999997
 21
247.9000049999999
 31
0.0
  0
ARC
  5
346
330
1F
100
AcDbEntity
  8
Ｓ_１_１
  6
CONTINUOUS
 62
     3
100
AcDbCircle
 10
1296.729504
 20
290.806747
 30
0.0
 40
5.367246000000002
100
AcDbArc
 50
145.615781
 51
214.3840650000001
  0
ARC
  5
347
330
1F
100
AcDbEntity
  8
Ｓ_１_１
  6
CONTINUOUS
 62
     3
100
AcDbCircle
 10
1280.300061
 20
299.8999929999999
 30
0.0
 40
20.062196
100
AcDbArc
 50
342.412067
 51
17.58795099999999
  0
ARC
  5
348
330
1F
100
AcDbEntity
  8
Ｓ_１_１
  6
CONTINUOUS
 62
     3
100
AcDbCircle
 10
1294.995038
 20
290.806747
 30
0.0
 40
5.367246000000002
100
AcDbArc
 50
325.6158820000001
 51
34.38416600000002
  0
ARC
  5
349
330
1F
100
AcDbEntity
  8
Ｓ_１_１
  6
CONTINUOUS
 62
     3
100
AcDbCircle
 10
1294.995038
 20
308.9933159999999
 30
0.0
 40
5.367246000000002
100
AcDbArc
 50
325.6158000000001
 51
34.384084
  0
ARC
  5
34A
330
1F
100
AcDbEntity
  8
Ｓ_１_１
  6
CONTINUOUS
 62
     3
100
AcDbCircle
 10
1311.424481
 20
299.8999929999999
 30
0.0
 40
20.062196
100
AcDbArc
 50
162.4119950000001
 51
197.587879
  0
ARC
  5
34B
330
1F
100
AcDbEntity
  8
Ｓ_１_１
  6
CONTINUOUS
 62
     3
100
AcDbCircle
 10
1296.729504
 20
308.9933159999999
 30
0.0
 40
5.367246000000002
100
AcDbArc
 50
145.615863
 51
214.3841470000001
  0
ARC
  5
34C
330
1F
100
AcDbEntity
  8
Ｓ_１_１
  6
CONTINUOUS
 62
     3
100
AcDbCircle
 10
1329.801708
 20
299.9000119999999
 30
0.0
 40
21.939437
100
AcDbArc
 50
166.826469
 51
193.1734590000002
  0
ARC
  5
34D
330
1F
100
AcDbEntity
  8
Ｓ_１_１
  6
CONTINUOUS
 62
     3
100
AcDbCircle
 10
1298.422848
 20
299.9000119999999
 30
0.0
 40
21.939437
100
AcDbArc
 50
346.8265280000001
 51
13.17349099999998
  0
ARC
  5
34E
330
1F
100
AcDbEntity
  8
Ｓ_１_１
  6
CONTINUOUS
 62
     3
100
AcDbCircle
 10
1481.59263
 20
449.0180709999998
 30
0.0
 40
12.50000000000001
100
AcDbArc
 50
255.0000000000002
 51
74.99999900000003
  0
ARC
  5
34F
330
1F
100
AcDbEntity
  8
Ｓ_１_１
  6
CONTINUOUS
 62
     3
100
AcDbCircle
 10
1434.999995
 20
362.399992
 30
0.0
 40
12.50000000000001
100
AcDbArc
 50
269.999997
 51
90.000003
  0
ARC
  5
350
330
1F
100
AcDbEntity
  8
Ｓ_１_１
  6
CONTINUOUS
 62
     3
100
AcDbCircle
 10
735.0000809999999
 20
362.399992
 30
0.0
 40
12.50000000000001
100
AcDbArc
 50
90.000003
 51
270.0000010000001
  0
ARC
  5
351
330
1F
100
AcDbEntity
  8
Ｓ_１_１
  6
CONTINUOUS
 62
     3
100
AcDbCircle
 10
688.4073699999999
 20
449.0180709999998
 30
0.0
 40
12.50000000000001
100
AcDbArc
 50
105.0
 51
284.9999980000001
  0
LINE
  5
352
330
1F
100
AcDbEntity
  8
Ｓ_１_１
  6
EXLTYPE0
 62
     2
100
AcDbLine
 10
1334.999996
 20
444.8999909999999
 30
0.0
 11
1334.999996
 21
454.8999909999998
 31
0.0
  0
LINE
  5
353
330
1F
100
AcDbEntity
  8
Ｓ_１_１
  6
EXLTYPE0
 62
     2
100
AcDbLine
 10
835.0000799999999
 20
444.8999909999999
 30
0.0
 11
835.0000799999999
 21
454.8999909999998
 31
0.0
  0
ARC
  5
354
330
1F
100
AcDbEntity
  8
Ｓ_１_１
  6
EXLTYPE0
 62
     2
100
AcDbCircle
 10
1481.59263
 20
449.0180709999998
 30
0.0
 40
12.50000000000001
100
AcDbArc
 50
74.99999900000003
 51
255.000004
  0
ARC
  5
355
330
1F
100
AcDbEntity
  8
Ｓ_１_１
  6
EXLTYPE0
 62
     2
100
AcDbCircle
 10
1434.999995
 20
362.399992
 30
0.0
 40
12.50000000000001
100
AcDbArc
 50
90.000003
 51
270.0000010000001
  0
ARC
  5
356
330
1F
100
AcDbEntity
  8
Ｓ_１_１
  6
EXLTYPE0
 62
     2
100
AcDbCircle
 10
735.0000809999999
 20
362.399992
 30
0.0
 40
12.50000000000001
100
AcDbArc
 50
269.999997
 51
90.000003
  0
ARC
  5
357
330
1F
100
AcDbEntity
  8
Ｓ_１_１
  6
EXLTYPE0
 62
     2
100
AcDbCircle
 10
688.4073699999999
 20
449.0180709999998
 30
0.0
 40
12.50000000000001
100
AcDbArc
 50
285.0000010000003
 51
105.0
  0
LINE
  5
358
330
1F
100
AcDbEntity
  8
Ｓ_１_１
  6
EXLTYPE2
 62
     1
100
AcDbLine
 10
1373.934169
 20
299.9000119999999
 30
0.0
 11
1279.685208
 21
299.9000119999999
 31
0.0
  0
LINE
  5
359
330
1F
100
AcDbEntity
  8
Ｓ_１_１
  6
EXLTYPE2
 62
     1
100
AcDbLine
 10
1486.387692
 20
466.9137089999998
 30
0.0
 11
1476.95014
 21
431.6922879999998
 31
0.0
  0
LINE
  5
35A
330
1F
100
AcDbEntity
  8
Ｓ_１_１
  6
EXLTYPE2
 62
     1
100
AcDbLine
 10
1449.899057
 20
362.399992
 30
0.0
 11
1331.280514
 21
362.399992
 31
0.0
  0
LINE
  5
35B
330
1F
100
AcDbEntity
  8
Ｓ_１_１
  6
EXLTYPE2
 62
     1
100
AcDbLine
 10
1434.999995
 20
377.399992
 30
0.0
 11
1434.999995
 21
347.399992
 31
0.0
  0
LINE
  5
35C
330
1F
100
AcDbEntity
  8
Ｓ_１_１
  6
EXLTYPE2
 62
     1
100
AcDbLine
 10
720.101095
 20
362.399992
 30
0.0
 11
838.7195619999999
 21
362.399992
 31
0.0
  0
LINE
  5
35D
330
1F
100
AcDbEntity
  8
Ｓ_１_１
  6
EXLTYPE2
 62
     1
100
AcDbLine
 10
735.0000809999999
 20
377.399992
 30
0.0
 11
735.0000809999999
 21
347.399992
 31
0.0
  0
LINE
  5
35E
330
1F
100
AcDbEntity
  8
Ｓ_１_１
  6
EXLTYPE2
 62
     1
100
AcDbLine
 10
683.6123890000001
 20
466.9137539999998
 30
0.0
 11
693.0499480000001
 21
431.6923049999999
 31
0.0
  0
LINE
  5
35F
330
1F
100
AcDbEntity
  8
Ｓ_１_１
  6
EXLTYPE2
 62
     1
100
AcDbLine
 10
1085.0
 20
511.500013
 30
0.0
 11
1085.0
 21
234.300013
 31
0.0
  0
LINE
  5
360
330
1F
100
AcDbEntity
  8
Ｓ_１_１
  6
CONTINUOUS
 62
     3
100
AcDbLine
 10
1386.999995
 20
504.8999900000001
 30
0.0
 11
1389.999995
 21
501.8999900000001
 31
0.0
  0
LINE
  5
361
330
1F
100
AcDbEntity
  8
Ｓ_１_１
  6
CONTINUOUS
 62
     3
100
AcDbLine
 10
1389.999995
 20
447.8999909999999
 30
0.0
 11
1389.999995
 21
501.8999900000001
 31
0.0
  0
LINE
  5
362
330
1F
100
AcDbEntity
  8
Ｓ_１_１
  6
CONTINUOUS
 62
     3
100
AcDbLine
 10
1386.999995
 20
444.8999909999999
 30
0.0
 11
1389.999995
 21
447.8999909999999
 31
0.0
  0
LINE
  5
363
330
1F
100
AcDbEntity
  8
Ｓ_１_１
  6
CONTINUOUS
 62
     3
100
AcDbLine
 10
782.9999279999998
 20
504.8999900000001
 30
0.0
 11
779.9999279999998
 21
501.8999900000001
 31
0.0
  0
LINE
  5
364
330
1F
100
AcDbEntity
  8
Ｓ_１_１
  6
CONTINUOUS
 62
     3
100
AcDbLine
 10
779.9999279999998
 20
447.8999909999999
 30
0.0
 11
779.9999279999998
 21
501.8999900000001
 31
0.0
  0
LINE
  5
365
330
1F
100
AcDbEntity
  8
Ｓ_１_１
  6
CONTINUOUS
 62
     3
100
AcDbLine
 10
779.9999279999998
 20
447.8999909999999
 30
0.0
 11
782.9999279999998
 21
444.8999909999999
 31
0.0
  0
LINE
  5
366
330
1F
100
AcDbEntity
  8
Ｓ_１_１
  6
CONTINUOUS
 62
     3
100
AcDbLine
 10
1484.827814
 20
461.0921639999998
 30
0.0
 11
1389.999995
 21
486.5012022482144
 31
0.0
  0
LINE
  5
367
330
1F
100
AcDbEntity
  8
Ｓ_１_１
  6
CONTINUOUS
 62
     3
100
AcDbLine
 10
1478.357338
 20
436.9440189999999
 30
0.0
 11
1389.999995
 21
460.6192982916746
 31
0.0
  0
LINE
  5
368
330
1F
100
AcDbEntity
  8
Ｓ_１_１
  6
CONTINUOUS
 62
     3
100
AcDbLine
 10
685.1722689999999
 20
461.0921989999998
 30
0.0
 11
779.9999279999998
 21
486.5011939586579
 31
0.0
  0
LINE
  5
369
330
1F
100
AcDbEntity
  8
Ｓ_１_１
  6
CONTINUOUS
 62
     3
100
AcDbLine
 10
691.6427450000001
 20
436.9440539999999
 30
0.0
 11
779.9999279999998
 21
460.6192900036443
 31
0.0
  0
LINE
  5
36A
330
1F
100
AcDbEntity
  8
Ｓ_１_１
  6
EXLTYPE2
 62
     1
100
AcDbLine
 10
671.869477
 20
444.5867749999999
 30
0.0
 11
784.4284917025609
 21
474.7468725947425
 31
0.0
  0
LINE
  5
36B
330
1F
100
AcDbEntity
  8
Ｓ_１_１
  6
EXLTYPE2
 62
     1
100
AcDbLine
 10
1498.130606
 20
444.5867399999998
 30
0.0
 11
1384.888395977566
 21
474.9298982842508
 31
0.0
  0
LINE
  5
36C
330
1F
100
AcDbEntity
  8
Ｓ_１_１
  6
CONTINUOUS
 62
     3
100
AcDbLine
 10
707.1574244141999
 20
827.5000030000008
 30
0.0
 11
780.0000049999996
 21
827.5000030000004
 31
0.0
  0
LINE
  5
36D
330
1F
100
AcDbEntity
  8
Ｓ_１_１
  6
EXLTYPE2
 62
     1
100
AcDbLine
 10
1456.5925755858
 20
840.0000029999999
 30
0.0
 11
1389.999995
 21
840.0000029999999
 31
0.0
  0
ARC
  5
36E
330
1F
100
AcDbEntity
  8
Ｓ_１_１
  6
EXLTYPE2
 62
     1
100
AcDbCircle
 10
1456.5925755858
 20
865.0000029999998
 30
0.0
 40
25.0
100
AcDbArc
 50
270.0
 51
0.0
  0
LINE
  5
36F
330
1F
100
AcDbEntity
  8
Ｓ_１_１
  6
EXLTYPE2
 62
     1
100
AcDbLine
 10
1456.5925755858
 20
990.0000009999999
 30
0.0
 11
1389.999995
 21
990.0000009999999
 31
0.0
  0
LINE
  5
370
330
1F
100
AcDbEntity
  8
Ｓ_１_１
  6
EXLTYPE2
 62
     1
100
AcDbLine
 10
1481.5925755858
 20
865.0000029999998
 30
0.0
 11
1481.5925755858
 21
965.0000009999999
 31
0.0
  0
ARC
  5
371
330
1F
100
AcDbEntity
  8
Ｓ_１_１
  6
EXLTYPE2
 62
     1
100
AcDbCircle
 10
1456.5925755858
 20
965.0000009999999
 30
0.0
 40
25.0
100
AcDbArc
 50
0.0
 51
90.00000000000001
  0
ARC
  5
372
330
1F
100
AcDbEntity
  8
Ｓ_１_１
  6
CONTINUOUS
 62
     3
100
AcDbCircle
 10
1456.5925755858
 20
965.0000009999999
 30
0.0
 40
37.5
100
AcDbArc
 50
0.0
 51
90.00000000000001
  0
LINE
  5
373
330
1F
100
AcDbEntity
  8
Ｓ_１_１
  6
CONTINUOUS
 62
     3
100
AcDbLine
 10
1494.0925755858
 20
965.0000009999999
 30
0.0
 11
1494.0925755858
 21
865.0000029999998
 31
0.0
  0
ARC
  5
374
330
1F
100
AcDbEntity
  8
Ｓ_１_１
  6
CONTINUOUS
 62
     3
100
AcDbCircle
 10
1456.5925755858
 20
865.0000029999998
 30
0.0
 40
37.5
100
AcDbArc
 50
270.0
 51
0.0
  0
LINE
  5
375
330
1F
100
AcDbEntity
  8
Ｓ_１_１
  6
CONTINUOUS
 62
     3
100
AcDbLine
 10
1456.5925755858
 20
827.5000029999998
 30
0.0
 11
1389.999995
 21
827.5000029999998
 31
0.0
  0
LINE
  5
376
330
1F
100
AcDbEntity
  8
Ｓ_１_１
  6
CONTINUOUS
 62
     3
100
AcDbLine
 10
1389.999995
 20
1002.500001
 30
0.0
 11
1456.5925755858
 21
1002.500001
 31
0.0
  0
LINE
  5
377
330
1F
100
AcDbEntity
  8
Ｓ_１_１
  6
CONTINUOUS
 62
     3
100
AcDbLine
 10
1456.5925755858
 20
1317.499997
 30
0.0
 11
1389.999995
 21
1317.499997
 31
0.0
  0
LINE
  5
378
330
1F
100
AcDbEntity
  8
Ｓ_１_１
  6
EXLTYPE2
 62
     1
100
AcDbLine
 10
1456.5925755858
 20
1329.999997
 30
0.0
 11
1389.999995
 21
1329.999997
 31
0.0
  0
LINE
  5
379
330
1F
100
AcDbEntity
  8
Ｓ_１_１
  6
EXLTYPE2
 62
     1
100
AcDbLine
 10
1456.5925755858
 20
1179.999999
 30
0.0
 11
1389.999995
 21
1179.999999
 31
0.0
  0
LINE
  5
37A
330
1F
100
AcDbEntity
  8
Ｓ_１_１
  6
CONTINUOUS
 62
     3
100
AcDbLine
 10
1456.5925755858
 20
1342.499997
 30
0.0
 11
1389.999995
 21
1342.499997
 31
0.0
  0
LINE
  5
37B
330
1F
100
AcDbEntity
  8
Ｓ_１_１
  6
CONTINUOUS
 62
     3
100
AcDbLine
 10
1389.999995
 20
1167.499999
 30
0.0
 11
1456.5925755858
 21
1167.499999
 31
0.0
  0
ARC
  5
37C
330
1F
100
AcDbEntity
  8
Ｓ_１_１
  6
CONTINUOUS
 62
     3
100
AcDbCircle
 10
1456.5925755858
 20
1304.999997
 30
0.0
 40
12.5
100
AcDbArc
 50
0.0
 51
90.00000000000001
  0
ARC
  5
37D
330
1F
100
AcDbEntity
  8
Ｓ_１_１
  6
EXLTYPE2
 62
     1
100
AcDbCircle
 10
1456.5925755858
 20
1304.999997
 30
0.0
 40
25.0
100
AcDbArc
 50
0.0
 51
90.00000000000001
  0
ARC
  5
37E
330
1F
100
AcDbEntity
  8
Ｓ_１_１
  6
CONTINUOUS
 62
     3
100
AcDbCircle
 10
1456.5925755858
 20
1304.999997
 30
0.0
 40
37.5
100
AcDbArc
 50
0.0
 51
90.00000000000001
  0
ARC
  5
37F
330
1F
100
AcDbEntity
  8
Ｓ_１_１
  6
CONTINUOUS
 62
     3
100
AcDbCircle
 10
1456.5925755858
 20
1204.999999
 30
0.0
 40
12.5
100
AcDbArc
 50
270.0
 51
0.0
  0
ARC
  5
380
330
1F
100
AcDbEntity
  8
Ｓ_１_１
  6
EXLTYPE2
 62
     1
100
AcDbCircle
 10
1456.5925755858
 20
1204.999999
 30
0.0
 40
25.0
100
AcDbArc
 50
270.0
 51
0.0
  0
ARC
  5
381
330
1F
100
AcDbEntity
  8
Ｓ_１_１
  6
CONTINUOUS
 62
     3
100
AcDbCircle
 10
1456.5925755858
 20
1204.999999
 30
0.0
 40
37.5
100
AcDbArc
 50
270.0
 51
0.0
  0
LINE
  5
382
330
1F
100
AcDbEntity
  8
Ｓ_１_１
  6
CONTINUOUS
 62
     3
100
AcDbLine
 10
1469.0925755858
 20
1304.999997
 30
0.0
 11
1469.0925755858
 21
1204.999999
 31
0.0
  0
LINE
  5
383
330
1F
100
AcDbEntity
  8
Ｓ_１_１
  6
EXLTYPE2
 62
     1
100
AcDbLine
 10
1481.5925755858
 20
1304.999997
 30
0.0
 11
1481.5925755858
 21
1204.999999
 31
0.0
  0
LINE
  5
384
330
1F
100
AcDbEntity
  8
Ｓ_１_１
  6
CONTINUOUS
 62
     3
100
AcDbLine
 10
1494.0925755858
 20
1204.999999
 30
0.0
 11
1494.0925755858
 21
1304.999997
 31
0.0
  0
LINE
  5
385
330
1F
100
AcDbEntity
  8
Ｓ_１_１
  6
CONTINUOUS
 62
     3
100
AcDbLine
 10
1456.5925755858
 20
1192.499999
 30
0.0
 11
1389.999995
 21
1192.499999
 31
0.0
  0
ARC
  5
386
330
1F
100
AcDbEntity
  8
Ｓ_１_１
  6
CONTINUOUS
 62
     3
100
AcDbCircle
 10
713.4074244142
 20
1304.999997
 30
0.0
 40
12.5
100
AcDbArc
 50
90.00000000000001
 51
180.0
  0
ARC
  5
387
330
1F
100
AcDbEntity
  8
Ｓ_１_１
  6
EXLTYPE2
 62
     1
100
AcDbCircle
 10
713.4074244142
 20
1304.999997
 30
0.0
 40
25.0
100
AcDbArc
 50
90.00000000000001
 51
180.0
  0
ARC
  5
388
330
1F
100
AcDbEntity
  8
Ｓ_１_１
  6
CONTINUOUS
 62
     3
100
AcDbCircle
 10
713.4074244142
 20
1304.999997
 30
0.0
 40
37.5
100
AcDbArc
 50
90.00000000000001
 51
180.0
  0
ARC
  5
389
330
1F
100
AcDbEntity
  8
Ｓ_１_１
  6
CONTINUOUS
 62
     3
100
AcDbCircle
 10
713.4074244142
 20
1204.999999
 30
0.0
 40
12.5
100
AcDbArc
 50
180.0
 51
270.0
  0
ARC
  5
38A
330
1F
100
AcDbEntity
  8
Ｓ_１_１
  6
EXLTYPE2
 62
     1
100
AcDbCircle
 10
713.4074244142
 20
1204.999999
 30
0.0
 40
25.0
100
AcDbArc
 50
180.0
 51
270.0
  0
ARC
  5
38B
330
1F
100
AcDbEntity
  8
Ｓ_１_１
  6
CONTINUOUS
 62
     3
100
AcDbCircle
 10
713.4074244142
 20
1204.999999
 30
0.0
 40
37.5
100
AcDbArc
 50
180.0
 51
270.0
  0
LINE
  5
38C
330
1F
100
AcDbEntity
  8
Ｓ_１_１
  6
CONTINUOUS
 62
     3
100
AcDbLine
 10
700.9074244142
 20
1304.999997
 30
0.0
 11
700.9074244142
 21
1204.999999
 31
0.0
  0
LINE
  5
38D
330
1F
100
AcDbEntity
  8
Ｓ_１_１
  6
EXLTYPE2
 62
     1
100
AcDbLine
 10
688.4074244142
 20
1304.999997
 30
0.0
 11
688.4074244142
 21
1204.999999
 31
0.0
  0
LINE
  5
38E
330
1F
100
AcDbEntity
  8
Ｓ_１_１
  6
CONTINUOUS
 62
     3
100
AcDbLine
 10
675.9074244142
 20
1204.999999
 30
0.0
 11
675.9074244142
 21
1304.999997
 31
0.0
  0
LINE
  5
38F
330
1F
100
AcDbEntity
  8
Ｓ_１_１
  6
CONTINUOUS
 62
     3
100
AcDbLine
 10
713.4074244142
 20
1192.499999
 30
0.0
 11
780.0000049999999
 21
1192.499999
 31
0.0
  0
LINE
  5
390
330
1F
100
AcDbEntity
  8
Ｓ_１_１
  6
CONTINUOUS
 62
     3
100
AcDbLine
 10
713.4074244142
 20
1317.499997
 30
0.0
 11
780.0000049999999
 21
1317.499997
 31
0.0
  0
LINE
  5
391
330
1F
100
AcDbEntity
  8
Ｓ_１_１
  6
EXLTYPE2
 62
     1
100
AcDbLine
 10
713.4074244142
 20
1329.999997
 30
0.0
 11
780.0000049999999
 21
1329.999997
 31
0.0
  0
LINE
  5
392
330
1F
100
AcDbEntity
  8
Ｓ_１_１
  6
CONTINUOUS
 62
     3
100
AcDbLine
 10
713.4074244142
 20
1342.499997
 30
0.0
 11
780.0000049999999
 21
1342.499997
 31
0.0
  0
LINE
  5
393
330
1F
100
AcDbEntity
  8
Ｓ_１_１
  6
EXLTYPE2
 62
     1
100
AcDbLine
 10
713.4074244142
 20
1179.999999
 30
0.0
 11
780.0000049999999
 21
1179.999999
 31
0.0
  0
LINE
  5
394
330
1F
100
AcDbEntity
  8
Ｓ_１_１
  6
CONTINUOUS
 62
     3
100
AcDbLine
 10
780.0000049999999
 20
1167.499999
 30
0.0
 11
713.4074244142
 21
1167.499999
 31
0.0
  0
ARC
  5
395
330
1F
100
AcDbEntity
  8
Ｓ_１_１
  6
CONTINUOUS
 62
     3
100
AcDbCircle
 10
713.4074244141999
 20
865.0000030000001
 30
0.0
 40
12.5
100
AcDbArc
 50
180.0
 51
270.0
  0
LINE
  5
396
330
1F
100
AcDbEntity
  8
Ｓ_１_１
  6
CONTINUOUS
 62
     3
100
AcDbLine
 10
700.9074244141999
 20
865.0000030000001
 30
0.0
 11
700.9074244141999
 21
965.0000010000001
 31
0.0
  0
ARC
  5
397
330
1F
100
AcDbEntity
  8
Ｓ_１_１
  6
CONTINUOUS
 62
     3
100
AcDbCircle
 10
713.4074244141999
 20
965.0000010000001
 30
0.0
 40
12.5
100
AcDbArc
 50
90.00000000000001
 51
180.0
  0
ARC
  5
398
330
1F
100
AcDbEntity
  8
Ｓ_１_１
  6
EXLTYPE2
 62
     1
100
AcDbCircle
 10
713.4074244141999
 20
865.000003
 30
0.0
 40
25.0
100
AcDbArc
 50
180.0
 51
270.0
  0
LINE
  5
399
330
1F
100
AcDbEntity
  8
Ｓ_１_１
  6
EXLTYPE2
 62
     1
100
AcDbLine
 10
688.4074244141999
 20
865.0000029999998
 30
0.0
 11
688.4074244141999
 21
965.0000009999999
 31
0.0
  0
ARC
  5
39A
330
1F
100
AcDbEntity
  8
Ｓ_１_１
  6
EXLTYPE2
 62
     1
100
AcDbCircle
 10
713.4074244141999
 20
965.0000009999999
 30
0.0
 40
25.0
100
AcDbArc
 50
90.00000000000001
 51
180.0
  0
ARC
  5
39B
330
1F
100
AcDbEntity
  8
Ｓ_１_１
  6
CONTINUOUS
 62
     3
100
AcDbCircle
 10
713.4074244141999
 20
965.0000009999999
 30
0.0
 40
37.5
100
AcDbArc
 50
90.00000000000001
 51
180.0
  0
LINE
  5
39C
330
1F
100
AcDbEntity
  8
Ｓ_１_１
  6
CONTINUOUS
 62
     3
100
AcDbLine
 10
675.9074244141999
 20
965.0000009999999
 30
0.0
 11
675.9074244141999
 21
865.0000029999998
 31
0.0
  0
ARC
  5
39D
330
1F
100
AcDbEntity
  8
Ｓ_１_１
  6
CONTINUOUS
 62
     3
100
AcDbCircle
 10
713.4074244141999
 20
865.0000029999998
 30
0.0
 40
37.5
100
AcDbArc
 50
180.0
 51
270.0
  0
LINE
  5
39E
330
1F
100
AcDbEntity
  8
Ｓ_１_１
  6
CONTINUOUS
 62
     3
100
AcDbLine
 10
713.4074244141999
 20
852.5000030000001
 30
0.0
 11
780.0000049999996
 21
852.5000030000001
 31
0.0
  0
LINE
  5
39F
330
1F
100
AcDbEntity
  8
Ｓ_１_１
  6
CONTINUOUS
 62
     3
100
AcDbLine
 10
713.4074244141999
 20
977.5000010000001
 30
0.0
 11
780.0000049999996
 21
977.5000010000001
 31
0.0
  0
LINE
  5
3A0
330
1F
100
AcDbEntity
  8
Ｓ_１_１
  6
CONTINUOUS
 62
     2
100
AcDbLine
 10
782.5000079999998
 20
815.0000040000001
 30
0.0
 11
570.109795
 21
815.0000040000001
 31
0.0
  0
LINE
  5
3A1
330
1F
100
AcDbEntity
  8
Ｓ_１_１
  6
CONTINUOUS
 62
     2
100
AcDbLine
 10
782.4999929999998
 20
815.0000039999999
 30
0.0
 11
555.0000201463703
 21
815.0000039999999
 31
0.0
  0
LINE
  5
3A2
330
1F
100
AcDbEntity
  8
Ｓ_１_１
  6
EXLTYPE2
 62
     1
100
AcDbLine
 10
713.4074244141999
 20
840.000003
 30
0.0
 11
780.0000049999996
 21
840.000003
 31
0.0
  0
LINE
  5
3A3
330
1F
100
AcDbEntity
  8
Ｓ_１_１
  6
EXLTYPE2
 62
     1
100
AcDbLine
 10
713.4074244141999
 20
990.000001
 30
0.0
 11
780.0000049999996
 21
990.0000009999999
 31
0.0
  0
LINE
  5
3A4
330
1F
100
AcDbEntity
  8
Ｓ_１_１
  6
CONTINUOUS
 62
     3
100
AcDbLine
 10
780.0000049999996
 20
1002.500001
 30
0.0
 11
713.4074244141999
 21
1002.500001
 31
0.0
  0
LINE
  5
3A5
330
1F
100
AcDbEntity
  8
Ｓ_１_１
  6
EXLTYPE2
 62
     1
100
AcDbLine
 10
1400.0
 20
1085.0
 30
0.0
 11
769.9999999999999
 21
1085.0
 31
0.0
  0
LINE
  5
3A6
330
1F
100
AcDbEntity
  8
Ｓ_１_１
  6
EXLTYPE0
 62
     2
100
AcDbLine
 10
800.00008
 20
454.8999909999998
 30
0.0
 11
800.00008
 21
446.8999979999999
 31
0.0
  0
LINE
  5
3A7
330
1F
100
AcDbEntity
  8
Ｓ_１_１
  6
EXLTYPE0
 62
     2
100
AcDbLine
 10
800.0000749999999
 20
446.9000269999998
 30
0.0
 11
798.000008
 21
444.8999599999998
 31
0.0
  0
LINE
  5
3A8
330
1F
100
AcDbEntity
  8
Ｓ_１_１
  6
EXLTYPE0
 62
     2
100
AcDbLine
 10
800.00008
 20
446.8999979999999
 30
0.0
 11
835.0000799999999
 21
446.8999979999999
 31
0.0
  0
LINE
  5
3A9
330
1F
100
AcDbEntity
  8
Ｓ_１_１
  6
EXLTYPE0
 62
     2
100
AcDbLine
 10
1369.999996
 20
454.8999909999998
 30
0.0
 11
1369.999996
 21
446.8999979999999
 31
0.0
  0
LINE
  5
3AA
330
1F
100
AcDbEntity
  8
Ｓ_１_１
  6
EXLTYPE0
 62
     2
100
AcDbLine
 10
1369.99998
 20
446.8999999999999
 30
0.0
 11
1371.999993
 21
444.8999869999999
 31
0.0
  0
LINE
  5
3AB
330
1F
100
AcDbEntity
  8
Ｓ_１_１
  6
EXLTYPE0
 62
     2
100
AcDbLine
 10
800.00008
 20
454.8999909999998
 30
0.0
 11
1369.999996
 21
454.8999909999998
 31
0.0
  0
LINE
  5
3AC
330
1F
100
AcDbEntity
  8
Ｓ_１_１
  6
EXLTYPE0
 62
     2
100
AcDbLine
 10
1369.999996
 20
446.8999979999999
 30
0.0
 11
1334.999996
 21
446.8999979999999
 31
0.0
  0
LINE
  5
3AD
330
1F
100
AcDbEntity
  8
Ｓ_１_１
  6
EXLTYPE3
 62
     2
100
AcDbLine
 10
744.9999280000001
 20
1344.999996
 30
0.0
 11
744.9999280000001
 21
1237.457578
 31
0.0
  0
LINE
  5
3AE
330
1F
100
AcDbEntity
  8
Ｓ_１_１
  6
EXLTYPE3
 62
     2
100
AcDbLine
 10
754.999948
 20
1355.000076
 30
0.0
 11
744.9999510000001
 21
1345.000078
 31
0.0
  0
LINE
  5
3AF
330
1F
100
AcDbEntity
  8
Ｓ_１_１
  6
EXLTYPE3
 62
     2
100
AcDbLine
 10
744.9999280000001
 20
924.5495619999999
 30
0.0
 11
744.9999280000001
 21
825.000003
 31
0.0
  0
LINE
  5
3B0
330
1F
100
AcDbEntity
  8
Ｓ_１_１
  6
EXLTYPE3
 62
     2
100
AcDbLine
 10
745.0000270000002
 20
824.999997
 30
0.0
 11
755.000038
 21
814.9999869999999
 31
0.0
  0
LINE
  5
3B1
330
1F
100
AcDbEntity
  8
Ｓ_１_１
  6
EXLTYPE3
 62
     2
100
AcDbLine
 10
1424.999995
 20
920.674593
 30
0.0
 11
1424.999995
 21
825.000003
 31
0.0
  0
LINE
  5
3B2
330
1F
100
AcDbEntity
  8
Ｓ_１_１
  6
EXLTYPE3
 62
     2
100
AcDbLine
 10
1414.999991
 20
815.0000139999999
 30
0.0
 11
1424.999988
 21
825.000012
 31
0.0
  0
LINE
  5
3B3
330
1F
100
AcDbEntity
  8
Ｓ_１_１
  6
EXLTYPE3
 62
     2
100
AcDbLine
 10
1415.000067
 20
1354.999927
 30
0.0
 11
1424.999969
 21
1345.000024
 31
0.0
  0
LINE
  5
3B4
330
1F
100
AcDbEntity
  8
Ｓ_１_１
  6
EXLTYPE3
 62
     2
100
AcDbLine
 10
1424.999995
 20
1344.999996
 30
0.0
 11
1424.999995
 21
1241.618344
 31
0.0
  0
DIMENSION
  5
3B5
330
1F
100
AcDbEntity
  8
Ｓ_１_１
  6
CONTINUOUS
 62
     2
100
AcDbDimension
  2
*D40
 10
744.999928
 20
665.0
 30
0.0
 11
645.9999280000003
 21
681.4999999999999
 31
0.0
 70
   160
  1
35（移動量）
  3
ISO-25
100
AcDbAlignedDimension
 13
779.9999279999998
 23
825.00013
 33
0.0
 14
744.999928
 24
825.0000959999899
 34
0.0
100
AcDbRotatedDimension
1001
ACAD
1000
DSTYLE
1002
{
1070
   270
1070
     2
1070
     6
1000
EX_NORM
1070
     7
1000
EX_NORM
1070
    41
1040
18.0
1070
    42
1040
9.0
1070
    44
1040
6.0
1070
    73
1070
     0
1070
    74
1070
     0
1070
    75
1070
     0
1070
    76
1070
     0
1070
    77
1070
     1
1070
    78
1070
     8
1070
   140
1040
20.77742494226328
1070
   147
1040
0.0
1070
   173
1070
     1
1070
   176
1070
     2
1070
   177
1070
     2
1070
   178
1070
     2
1070
   271
1070
     2
1070
   277
1070
     2
1070
   279
1070
     2
1070
   280
1070
     2
1070
   287
1070
     5
1070
   340
1005
127
1002
}
  0
DIMENSION
  5
3C4
330
1F
100
AcDbEntity
  8
Ｓ_１_１
  6
CONTINUOUS
 62
     2
100
AcDbDimension
  2
*D41
 10
1424.999995
 20
665.0
 30
0.0
 11
1523.999995
 21
681.5
 31
0.0
 70
   160
  1
35（移動量）
  3
ISO-25
100
AcDbAlignedDimension
 13
1389.999995
 23
825.0000509999999
 33
0.0
 14
1424.999995
 24
825.000019
 34
0.0
100
AcDbRotatedDimension
1001
ACAD
1000
DSTYLE
1002
{
1070
   270
1070
     2
1070
     6
1000
EX_NORM
1070
     7
1000
EX_NORM
1070
    41
1040
18.0
1070
    42
1040
9.0
1070
    44
1040
6.0
1070
    73
1070
     0
1070
    74
1070
     0
1070
    75
1070
     0
1070
    76
1070
     0
1070
    77
1070
     1
1070
    78
1070
     8
1070
   140
1040
20.77742494226328
1070
   147
1040
0.0
1070
   173
1070
     1
1070
   176
1070
     2
1070
   177
1070
     2
1070
   178
1070
     2
1070
   271
1070
     2
1070
   277
1070
     2
1070
   279
1070
     2
1070
   280
1070
     2
1070
   287
1070
     5
1070
   340
1005
127
1002
}
  0
LINE
  5
3D3
330
1F
100
AcDbEntity
  8
Ｓ_１_１
  6
CONTINUOUS
 62
     3
100
AcDbLine
 10
1282.000043
 20
244.9000130000001
 30
0.0
 11
888.0000379999999
 21
244.900013
 31
0.0
  0
LINE
  5
3D4
330
1F
100
AcDbEntity
  8
Ｓ_１_１
  6
CONTINUOUS
 62
     3
100
AcDbLine
 10
1324.999996
 20
334.899992
 30
0.0
 11
845.0000059999999
 21
334.8999919999999
 31
0.0
  0
LINE
  5
3D5
330
1F
100
AcDbEntity
  8
Ｓ_１_１
  6
CONTINUOUS
 62
     3
100
AcDbLine
 10
1386.999995
 20
444.8999909999999
 30
0.0
 11
782.9999279999998
 21
444.8999909999998
 31
0.0
  0
LINE
  5
3D6
330
1F
100
AcDbEntity
  8
Ｓ_１_１
  6
CONTINUOUS
 62
     3
100
AcDbLine
 10
1386.999995
 20
504.8999900000001
 30
0.0
 11
782.9999279999998
 21
504.89999
 31
0.0
  0
ENDSEC
  0
SECTION
  2
OBJECTS
  0
DICTIONARY
  5
C
330
0
100
AcDbDictionary
  3
ACAD_GROUP
350
D
  3
ACAD_LAYOUT
350
1A
  3
ACAD_MATERIAL
350
43
  3
ACAD_MLEADERSTYLE
350
6B
  3
ACAD_MLINESTYLE
350
17
  3
ACAD_PLOTSETTINGS
350
19
  3
ACAD_SCALELIST
350
47
  3
ACAD_VISUALSTYLE
350
2A
  3
ACDBHEADERROUNDTRIPXREC
350
3D7
  3
ACDBVARIABLEDICTIONARY
350
3F8
  0
DICTIONARY
  5
403
330
8
100
AcDbDictionary
280
     1
  3
ACAD_XREC_ROUNDTRIP
360
404
  0
DICTIONARY
  5
D
102
{ACAD_REACTORS
330
C
102
}
330
C
100
AcDbDictionary
  0
DICTIONARY
  5
1A
102
{ACAD_REACTORS
330
C
102
}
330
C
100
AcDbDictionary
  0
DICTIONARY
  5
43
102
{ACAD_REACTORS
330
C
102
}
330
C
100
AcDbDictionary
  3
BYBLOCK
350
45
  3
BYLAYER
350
44
  3
GLOBAL
350
46
  0
DICTIONARY
  5
6B
102
{ACAD_REACTORS
330
C
102
}
330
C
100
AcDbDictionary
  3
STANDARD
350
6C
  0
DICTIONARY
  5
17
102
{ACAD_REACTORS
330
C
102
}
330
C
100
AcDbDictionary
  3
STANDARD
350
18
  0
DICTIONARY
  5
19
102
{ACAD_REACTORS
330
C
102
}
330
C
100
AcDbDictionary
  0
DICTIONARY
  5
47
102
{ACAD_REACTORS
330
C
102
}
330
C
100
AcDbDictionary
  3
A0
350
48
  3
A1
350
49
  3
A2
350
4A
  3
A3
350
4B
  3
A4
350
4C
  3
A5
350
4D
  3
A6
350
4E
  3
A7
350
4F
  3
A8
350
50
  3
A9
350
51
  3
B0
350
52
  3
B1
350
53
  3
B2
350
54
  3
B3
350
55
  3
B4
350
56
  3
B5
350
57
  3
B6
350
58
  3
B7
350
59
  3
B8
350
5A
  3
B9
350
5B
  3
C0
350
5C
  3
C1
350
5D
  3
C2
350
5E
  3
C3
350
5F
  3
C4
350
60
  3
C5
350
61
  3
C6
350
62
  3
C7
350
63
  3
C8
350
64
  3
C9
350
65
  3
D0
350
66
  3
D1
350
67
  3
D2
350
68
  0
DICTIONARY
  5
2A
102
{ACAD_REACTORS
330
C
102
}
330
C
100
AcDbDictionary
  3
2DWIREFRAME
350
2F
  3
BASIC
350
32
  3
BRIGHTEN
350
36
  3
COLORCHANGE
350
3A
  3
CONCEPTUAL
350
34
  3
DIM
350
35
  3
EDGECOLOROFF
350
3D
  3
FACEPATTERN
350
39
  3
FLAT
350
2B
  3
FLATWITHEDGES
350
2C
  3
GOURAUD
350
2D
  3
GOURAUDWITHEDGES
350
2E
  3
HIDDEN
350
31
  3
JITTEROFF
350
3B
  3
LINEPATTERN
350
38
  3
OVERHANGOFF
350
3C
  3
REALISTIC
350
33
  3
SHADED
350
42
  3
SHADED_WITH_EDGES
350
41
  3
SHADES_OF_GRAY
350
3E
  3
SKETCHY
350
3F
  3
THICKEN
350
37
  3
WIREFRAME
350
30
  3
X-RAY
350
40
  0
DICTIONARY
  5
3D7
102
{ACAD_REACTORS
330
C
102
}
330
C
100
AcDbDictionary
  3
CEPSNID
350
3E1
  3
CEPSNTYPE
350
3E0
  3
DIMSTYLEDATA
350
3F7
  3
FINGERPRINTGUID
350
3E2
  3
HYPERLINKBASE
350
3DA
  3
INSUNITS
350
3DF
  3
LAYOUTDICT
350
3DC
  3
LWETCUNION
350
3DE
  3
PLOTSETDICT
350
3DD
  3
PSVPSCALE
350
3E4
  3
PUCSBASE
350
3E7
  3
PUCSORGBACK
350
3ED
  3
PUCSORGBOTTOM
350
3E9
  3
PUCSORGFRONT
350
3EC
  3
PUCSORGLEFT
350
3EA
  3
PUCSORGRIGHT
350
3EB
  3
PUCSORGTOP
350
3E8
  3
PUCSORTHOREF
350
3E5
  3
PUCSORTHOVIEW
350
3E6
  3
STYLESHEET
350
3DB
  3
TSTACKALIGN
350
3D8
  3
TSTACKSIZE
350
3D9
  3
UCSBASE
350
3F0
  3
UCSORGBACK
350
3F6
  3
UCSORGBOTTOM
350
3F2
  3
UCSORGFRONT
350
3F5
  3
UCSORGLEFT
350
3F3
  3
UCSORGRIGHT
350
3F4
  3
UCSORGTOP
350
3F1
  3
UCSORTHOREF
350
3EE
  3
UCSORTHOVIEW
350
3EF
  3
VERSIONGUID
350
3E3
  0
DICTIONARY
  5
3F8
102
{ACAD_REACTORS
330
C
102
}
330
C
100
AcDbDictionary
  3
CANNOSCALE
350
405
  3
CENTEREXE
350
3FF
  3
CENTERLTYPEFILE
350
400
  3
CMLEADERSTYLE
350
3FA
  3
CTABLESTYLE
350
3F9
  3
DIMASSOC
350
401
  3
HIDETEXT
350
402
  3
MSLTSCALE
350
406
  3
PSOLHEIGHT
350
3FC
  3
PSOLWIDTH
350
3FB
  0
XRECORD
  5
404
102
{ACAD_REACTORS
330
403
102
}
330
403
100
AcDbXrecord
102
VTR_0.000_0.000_1.000_1.000_VISUALSTYLE
340
2F
102
VTR_0.000_0.000_1.000_1.000_GRIDDISPLAY
 70
     3
102
VTR_0.000_0.000_1.000_1.000_GRIDMAJOR
 70
     5
102
VTR_0.000_0.000_1.000_1.000_DEFAULTLIGHTING
280
     1
102
VTR_0.000_0.000_1.000_1.000_DEFAULTLIGHTINGTYPE
 70
     1
102
VTR_0.000_0.000_1.000_1.000_BRIGHTNESS
141
0.0
102
VTR_0.000_0.000_1.000_1.000_CONTRAST
142
0.0
  0
MATERIAL
  5
45
102
{ACAD_REACTORS
330
43
102
}
102
{ACAD_XDICTIONARY
360
409
102
}
330
43
100
AcDbMaterial
  1
BYBLOCK
  0
MATERIAL
  5
44
102
{ACAD_REACTORS
330
43
102
}
102
{ACAD_XDICTIONARY
360
407
102
}
330
43
100
AcDbMaterial
  1
BYLAYER
  0
MATERIAL
  5
46
102
{ACAD_REACTORS
330
43
102
}
102
{ACAD_XDICTIONARY
360
40B
102
}
330
43
100
AcDbMaterial
  1
GLOBAL
  0
ACAD_PROXY_OBJECT
  5
6C
102
{ACAD_REACTORS
330
6B
102
}
330
6B
100
AcDbProxyObject
 90
      499
 91
      505
 93
      610
310
40901902A4063FBFFFFFE0000000000000020400000000000020404214DD185B99185C990000000000000104090141901A00000000000004100000000000000041025764000000000000039000
340
14
340
0
340
11
340
0
 94
        0
1001
ACAD_MLEADERVER
1070
     2
  0
MLINESTYLE
  5
18
102
{ACAD_REACTORS
330
17
102
}
330
17
100
AcDbMlineStyle
  2
Standard
 70
     0
  3

 62
   256
 51
90.0
 52
90.0
 71
     2
 49
0.5
 62
   256
  6
BYLAYER
 49
-0.5
 62
   256
  6
BYLAYER
  0
ACAD_PROXY_OBJECT
  5
48
102
{ACAD_REACTORS
330
47
102
}
330
47
100
AcDbProxyObject
 90
      499
 91
      503
 93
       41
310
903313A31580
  0
ACAD_PROXY_OBJECT
  5
49
102
{ACAD_REACTORS
330
47
102
}
330
47
100
AcDbProxyObject
 90
      499
 91
      503
 93
      105
310
903313A324000000000000004000
  0
ACAD_PROXY_OBJECT
  5
4A
102
{ACAD_REACTORS
330
47
102
}
330
47
100
AcDbProxyObject
 90
      499
 91
      503
 93
      105
310
903313A344000000000000104000
  0
ACAD_PROXY_OBJECT
  5
4B
102
{ACAD_REACTORS
330
47
102
}
330
47
100
AcDbProxyObject
 90
      499
 91
      503
 93
      105
310
903313A354000000000000144000
  0
ACAD_PROXY_OBJECT
  5
4C
102
{ACAD_REACTORS
330
47
102
}
330
47
100
AcDbProxyObject
 90
      499
 91
      503
 93
      105
310
903313A384000000000000204000
  0
ACAD_PROXY_OBJECT
  5
4D
102
{ACAD_REACTORS
330
47
102
}
330
47
100
AcDbProxyObject
 90
      499
 91
      503
 93
      113
310
904313A31304000000000000244000
  0
ACAD_PROXY_OBJECT
  5
4E
102
{ACAD_REACTORS
330
47
102
}
330
47
100
AcDbProxyObject
 90
      499
 91
      503
 93
      113
310
904313A31364000000000000304000
  0
ACAD_PROXY_OBJECT
  5
4F
102
{ACAD_REACTORS
330
47
102
}
330
47
100
AcDbProxyObject
 90
      499
 91
      503
 93
      113
310
904313A32304000000000000344000
  0
ACAD_PROXY_OBJECT
  5
50
102
{ACAD_REACTORS
330
47
102
}
330
47
100
AcDbProxyObject
 90
      499
 91
      503
 93
      113
310
904313A333040000000000003E4000
  0
ACAD_PROXY_OBJECT
  5
51
102
{ACAD_REACTORS
330
47
102
}
330
47
100
AcDbProxyObject
 90
      499
 91
      503
 93
      113
310
904313A34304000000000000444000
  0
ACAD_PROXY_OBJECT
  5
52
102
{ACAD_REACTORS
330
47
102
}
330
47
100
AcDbProxyObject
 90
      499
 91
      503
 93
      113
310
904313A35304000000000000494000
  0
ACAD_PROXY_OBJECT
  5
53
102
{ACAD_REACTORS
330
47
102
}
330
47
100
AcDbProxyObject
 90
      499
 91
      503
 93
      121
310
905313A3130304000000000000594000
  0
ACAD_PROXY_OBJECT
  5
54
102
{ACAD_REACTORS
330
47
102
}
330
47
100
AcDbProxyObject
 90
      499
 91
      503
 93
      105
310
903323A310000000000000010100
  0
ACAD_PROXY_OBJECT
  5
55
102
{ACAD_REACTORS
330
47
102
}
330
47
100
AcDbProxyObject
 90
      499
 91
      503
 93
      105
310
903343A310000000000000410100
  0
ACAD_PROXY_OBJECT
  5
56
102
{ACAD_REACTORS
330
47
102
}
330
47
100
AcDbProxyObject
 90
      499
 91
      503
 93
      105
310
903383A310000000000000810100
  0
ACAD_PROXY_OBJECT
  5
57
102
{ACAD_REACTORS
330
47
102
}
330
47
100
AcDbProxyObject
 90
      499
 91
      503
 93
      113
310
90431303A310000000000000910100
  0
ACAD_PROXY_OBJECT
  5
58
102
{ACAD_REACTORS
330
47
102
}
330
47
100
AcDbProxyObject
 90
      499
 91
      503
 93
      121
310
9053130303A310000000000001650100
  0
ACAD_PROXY_OBJECT
  5
59
102
{ACAD_REACTORS
330
47
102
}
330
47
100
AcDbProxyObject
 90
      499
 91
      503
 93
      257
310
90E312F31323822203D2031272D3022000000000000200FC000000000000284000
  0
ACAD_PROXY_OBJECT
  5
5A
102
{ACAD_REACTORS
330
47
102
}
330
47
100
AcDbProxyObject
 90
      499
 91
      503
 93
      249
310
90D312F363422203D2031272D3022000000000000240FC000000000000284000
  0
ACAD_PROXY_OBJECT
  5
5B
102
{ACAD_REACTORS
330
47
102
}
330
47
100
AcDbProxyObject
 90
      499
 91
      503
 93
      249
310
90D312F333222203D2031272D3022000000000000280FC000000000000284000
  0
ACAD_PROXY_OBJECT
  5
5C
102
{ACAD_REACTORS
330
47
102
}
330
47
100
AcDbProxyObject
 90
      499
 91
      503
 93
      249
310
90D312F313622203D2031272D30220000000000002C0FC000000000000284000
  0
ACAD_PROXY_OBJECT
  5
5D
102
{ACAD_REACTORS
330
47
102
}
330
47
100
AcDbProxyObject
 90
      499
 91
      503
 93
      249
310
90D332F333222203D2031272D30220000000000002E0FC000000000000284000
  0
ACAD_PROXY_OBJECT
  5
5E
102
{ACAD_REACTORS
330
47
102
}
330
47
100
AcDbProxyObject
 90
      499
 91
      503
 93
      241
310
90C312F3822203D2031272D3022000000000000300FC000000000000284000
  0
ACAD_PROXY_OBJECT
  5
5F
102
{ACAD_REACTORS
330
47
102
}
330
47
100
AcDbProxyObject
 90
      499
 91
      503
 93
      249
310
90D332F313622203D2031272D3022000000000000320FC000000000000284000
  0
ACAD_PROXY_OBJECT
  5
60
102
{ACAD_REACTORS
330
47
102
}
330
47
100
AcDbProxyObject
 90
      499
 91
      503
 93
      241
310
90C312F3422203D2031272D3022000000000000340FC000000000000284000
  0
ACAD_PROXY_OBJECT
  5
61
102
{ACAD_REACTORS
330
47
102
}
330
47
100
AcDbProxyObject
 90
      499
 91
      503
 93
      241
310
90C332F3822203D2031272D3022000000000000360FC000000000000284000
  0
ACAD_PROXY_OBJECT
  5
62
102
{ACAD_REACTORS
330
47
102
}
330
47
100
AcDbProxyObject
 90
      499
 91
      503
 93
      241
310
90C312F3222203D2031272D3022000000000000380FC000000000000284000
  0
ACAD_PROXY_OBJECT
  5
63
102
{ACAD_REACTORS
330
47
102
}
330
47
100
AcDbProxyObject
 90
      499
 91
      503
 93
      241
310
90C332F3422203D2031272D30220000000000003A0FC000000000000284000
  0
ACAD_PROXY_OBJECT
  5
64
102
{ACAD_REACTORS
330
47
102
}
330
47
100
AcDbProxyObject
 90
      499
 91
      503
 93
      161
310
90A3122203D2031272D30224000000000000284000
  0
ACAD_PROXY_OBJECT
  5
65
102
{ACAD_REACTORS
330
47
102
}
330
47
100
AcDbProxyObject
 90
      499
 91
      503
 93
      257
310
90E312D312F3222203D2031272D30220000000000003E0FC000000000000284000
  0
ACAD_PROXY_OBJECT
  5
66
102
{ACAD_REACTORS
330
47
102
}
330
47
100
AcDbProxyObject
 90
      499
 91
      503
 93
      225
310
90A3322203D2031272D302200000000000002100000000000000284000
  0
ACAD_PROXY_OBJECT
  5
67
102
{ACAD_REACTORS
330
47
102
}
330
47
100
AcDbProxyObject
 90
      499
 91
      503
 93
      225
310
90A3622203D2031272D302200000000000006100000000000000284000
  0
ACAD_PROXY_OBJECT
  5
68
102
{ACAD_REACTORS
330
47
102
}
330
47
100
AcDbProxyObject
 90
      499
 91
      503
 93
      249
310
90D31272D3022203D2031272D30220000000000000A100000000000000284000
  0
ACAD_PROXY_OBJECT
  5
2F
102
{ACAD_REACTORS
330
2A
102
}
330
2A
100
AcDbProxyObject
 90
      499
 91
      501
 93
      436
310
42CC9915DA5C99599C985B595049028333333333333E33F0000000000000F90107901411070040501600405405064090741402480A0340
1001
ACAD
1000
AcDbSavedByObjectVersion
1070
     0
  0
ACAD_PROXY_OBJECT
  5
32
102
{ACAD_REACTORS
330
2A
102
}
330
2A
100
AcDbProxyObject
 90
      499
 91
      501
 93
      388
310
4150985CDA58D07406404333333333333E33F0000000000000F90107A41107004050150841D405064090741402480A0350
1001
ACAD
1000
AcDbSavedByObjectVersion
1070
     0
  0
ACAD_PROXY_OBJECT
  5
36
102
{ACAD_REACTORS
330
2A
102
}
330
2A
100
AcDbProxyObject
 90
      499
 91
      501
 93
      428
310
42109C9A59DA1D195B90C409028333333333333E33F0000000000000F9010790141107004050150841D405064090741402480A029950
1001
ACAD
1000
AcDbSavedByObjectVersion
1070
     0
  0
ACAD_PROXY_OBJECT
  5
3A
102
{ACAD_REACTORS
330
2A
102
}
330
2A
100
AcDbProxyObject
 90
      499
 91
      501
 93
      452
310
42D0DBDB1BDC90DA185B99D95104090240C333333333333E33F0000000000000F90108901411070040501508421405064090741402480A0350
1001
ACAD
1000
AcDbSavedByObjectVersion
1070
     0
  0
ACAD_PROXY_OBJECT
  5
34
102
{ACAD_REACTORS
330
2A
102
}
330
2A
100
AcDbProxyObject
 90
      499
 91
      501
 93
      500
310
4290DBDB98D95C1D1D585B10940D028333333333333E33F0000000000000F90107902409070040501000000000018199010841D405064090740C02480A0340
1001
ACAD
1000
AcDbSavedByObjectVersion
1070
     0
  0
ACAD_PROXY_OBJECT
  5
35
102
{ACAD_REACTORS
330
2A
102
}
330
2A
100
AcDbProxyObject
 90
      499
 91
      501
 93
      412
310
40D11A5B50B409028333333333333E33F0000000000000F9010790141107004050150841D405064090741402480A02677FFFFFD0
1001
ACAD
1000
AcDbSavedByObjectVersion
1070
     0
  0
ACAD_PROXY_OBJECT
  5
3D
102
{ACAD_REACTORS
330
2A
102
}
330
2A
100
AcDbProxyObject
 90
      499
 91
      501
 93
      452
310
43115919D950DBDB1BDC93D999916409028333333333333E33F0000000000000F9010790141107004050150841D405064090741402480A0350
1001
ACAD
1000
AcDbSavedByObjectVersion
1070
     0
  0
ACAD_PROXY_OBJECT
  5
39
102
{ACAD_REACTORS
330
2A
102
}
330
2A
100
AcDbProxyObject
 90
      499
 91
      501
 93
      444
310
42D19858D95C185D1D195C9B90F409028333333333333E33F0000000000000F9010790141107004050150841D405064090741402480A0350
1001
ACAD
1000
AcDbSavedByObjectVersion
1070
     0
  0
ACAD_PROXY_OBJECT
  5
2B
102
{ACAD_REACTORS
330
2A
102
}
330
2A
100
AcDbProxyObject
 90
      499
 91
      501
 93
      380
310
41119B185D240901404333333333333E33F0000000000000F9010740A907004050150841D405064090741402480A1B50
1001
ACAD
1000
AcDbSavedByObjectVersion
1070
     0
  0
ACAD_PROXY_OBJECT
  5
2C
102
{ACAD_REACTORS
330
2A
102
}
330
2A
100
AcDbProxyObject
 90
      499
 91
      501
 93
      468
310
43519B185D15DA5D1A115919D95CD0140901404333333333333E33F0000000000000F90107409019070040501600405405064090741402480A1B50
1001
ACAD
1000
AcDbSavedByObjectVersion
1070
     0
  0
ACAD_PROXY_OBJECT
  5
2D
102
{ACAD_REACTORS
330
2A
102
}
330
2A
100
AcDbProxyObject
 90
      499
 91
      501
 93
      404
310
41D1DBDD5C985D5910240902404333333333333E33F0000000000000F9010740A9070040501641D405064090741402480A1B50
1001
ACAD
1000
AcDbSavedByObjectVersion
1070
     0
  0
ACAD_PROXY_OBJECT
  5
2E
102
{ACAD_REACTORS
330
2A
102
}
330
2A
100
AcDbProxyObject
 90
      499
 91
      501
 93
      492
310
4411DBDD5C985D5915DA5D1A115919D95CD0340902404333333333333E33F0000000000000F90107409019070040501600405405064090741402480A1B50
1001
ACAD
1000
AcDbSavedByObjectVersion
1070
     0
  0
ACAD_PROXY_OBJECT
  5
31
102
{ACAD_REACTORS
330
2A
102
}
330
2A
100
AcDbProxyObject
 90
      499
 91
      501
 93
      476
310
41921A5919195B90640502408333333333333E33F0000000000000F901079024090700405020000000000001110200405405064090740C02480A0340
1001
ACAD
1000
AcDbSavedByObjectVersion
1070
     0
  0
ACAD_PROXY_OBJECT
  5
3B
102
{ACAD_REACTORS
330
2A
102
}
330
2A
100
AcDbProxyObject
 90
      499
 91
      501
 93
      428
310
42529A5D1D195C93D999914409028333333333333E33F0000000000000F9010790141107004050150A41D405064090741402480A0350
1001
ACAD
1000
AcDbSavedByObjectVersion
1070
     0
  0
ACAD_PROXY_OBJECT
  5
38
102
{ACAD_REACTORS
330
2A
102
}
330
2A
100
AcDbProxyObject
 90
      499
 91
      501
 93
      444
310
42D31A5B995C185D1D195C9B90E409028333333333333E33F0000000000000F9010790141107004050750841D405064090741402483A0350
1001
ACAD
1000
AcDbSavedByObjectVersion
1070
     0
  0
ACAD_PROXY_OBJECT
  5
3C
102
{ACAD_REACTORS
330
2A
102
}
330
2A
100
AcDbProxyObject
 90
      499
 91
      501
 93
      444
310
42D3DD995C9A185B99D3D999915409028333333333333E33F0000000000000F9010790141107004050150941D405064090741402480A0350
1001
ACAD
1000
AcDbSavedByObjectVersion
1070
     0
  0
ACAD_PROXY_OBJECT
  5
33
102
{ACAD_REACTORS
330
2A
102
}
330
2A
100
AcDbProxyObject
 90
      499
 91
      501
 93
      428
310
425499585B1A5CDD1A58D08409038333333333333E33F0000000000000F9010740A907004050150800405405064090740C02480A1B40
1001
ACAD
1000
AcDbSavedByObjectVersion
1070
     0
  0
ACAD_PROXY_OBJECT
  5
42
102
{ACAD_REACTORS
330
2A
102
}
330
2A
100
AcDbProxyObject
 90
      499
 91
      501
 93
      420
310
4194DA1859195911B40902404333333333333E33F0000000000000F9010740A41107004050150800405405064090840C02480A0B40
1001
ACAD
1000
AcDbSavedByObjectVersion
1070
     0
  0
ACAD_PROXY_OBJECT
  5
41
102
{ACAD_REACTORS
330
2A
102
}
330
2A
100
AcDbProxyObject
 90
      499
 91
      501
 93
      516
310
4454DA18591959081DDA5D1A08195919D95CD1A40902404333333333333E33F0000000000000F901074090142907004050250800405405064090740C02480A0B40
1001
ACAD
1000
AcDbSavedByObjectVersion
1070
     0
  0
ACAD_PROXY_OBJECT
  5
3E
102
{ACAD_REACTORS
330
2A
102
}
330
2A
100
AcDbProxyObject
 90
      499
 91
      501
 93
      532
310
4394DA1859195CC81BD98811DC985E5174090240C333333333333E33F0000000000000F901079024090741D01000000000000111010841D405064090740C02480A0340
1001
ACAD
1000
AcDbSavedByObjectVersion
1070
     0
  0
ACAD_PROXY_OBJECT
  5
3F
102
{ACAD_REACTORS
330
2A
102
}
330
2A
100
AcDbProxyObject
 90
      499
 91
      501
 93
      476
310
41D4DAD95D18DA1E51840502408333333333333E33F0000000000000F901079024090741D01000000000000111010B41D405064090741802480A0340
1001
ACAD
1000
AcDbSavedByObjectVersion
1070
     0
  0
ACAD_PROXY_OBJECT
  5
37
102
{ACAD_REACTORS
330
2A
102
}
330
2A
100
AcDbProxyObject
 90
      499
 91
      501
 93
      412
310
41D51A1A58DAD95B90D409028333333333333E33F0000000000000F9010790141107004050150C41D405064090741402480A0350
1001
ACAD
1000
AcDbSavedByObjectVersion
1070
     0
  0
ACAD_PROXY_OBJECT
  5
30
102
{ACAD_REACTORS
330
2A
102
}
330
2A
100
AcDbProxyObject
 90
      499
 91
      501
 93
      420
310
4255DA5C99599C985B595059028333333333333E33F0000000000000F90107901411070040501600405405064090740C02480A0340
1001
ACAD
1000
AcDbSavedByObjectVersion
1070
     0
  0
ACAD_PROXY_OBJECT
  5
40
102
{ACAD_REACTORS
330
2A
102
}
330
2A
100
AcDbProxyObject
 90
      499
 91
      501
 93
      404
310
41560B54985E51940902404000000000000E03F0000000000000F9010740501907004050150841D405064090740C02480A1B40
1001
ACAD
1000
AcDbSavedByObjectVersion
1070
     0
  0
XRECORD
  5
3E1
102
{ACAD_REACTORS
330
3D7
102
}
330
3D7
100
AcDbXrecord
340
0
  0
XRECORD
  5
3E0
102
{ACAD_REACTORS
330
3D7
102
}
330
3D7
100
AcDbXrecord
 90
        0
  0
XRECORD
  5
3F7
102
{ACAD_REACTORS
330
3D7
102
}
330
3D7
100
AcDbXrecord
1000
DSTYLE
1002
{
1070
   340
340
11
1002
}
  0
XRECORD
  5
3E2
102
{ACAD_REACTORS
330
3D7
102
}
330
3D7
100
AcDbXrecord
  1
{9c609548-1580-4160-b0a5-98cdf724445d}
  0
XRECORD
  5
3DA
102
{ACAD_REACTORS
330
3D7
102
}
330
3D7
100
AcDbXrecord
  1

  0
XRECORD
  5
3DF
102
{ACAD_REACTORS
330
3D7
102
}
330
3D7
100
AcDbXrecord
 90
        4
  0
XRECORD
  5
3DC
102
{ACAD_REACTORS
330
3D7
102
}
330
3D7
100
AcDbXrecord
340
1A
  0
XRECORD
  5
3DE
102
{ACAD_REACTORS
330
3D7
102
}
330
3D7
100
AcDbXrecord
 90
    10781
  0
XRECORD
  5
3DD
102
{ACAD_REACTORS
330
3D7
102
}
330
3D7
100
AcDbXrecord
340
19
  0
XRECORD
  5
3E4
102
{ACAD_REACTORS
330
3D7
102
}
330
3D7
100
AcDbXrecord
 40
0.0
  0
XRECORD
  5
3E7
102
{ACAD_REACTORS
330
3D7
102
}
330
3D7
100
AcDbXrecord
340
0
  0
XRECORD
  5
3ED
102
{ACAD_REACTORS
330
3D7
102
}
330
3D7
100
AcDbXrecord
 10
0.0
 20
0.0
 30
0.0
  0
XRECORD
  5
3E9
102
{ACAD_REACTORS
330
3D7
102
}
330
3D7
100
AcDbXrecord
 10
0.0
 20
0.0
 30
0.0
  0
XRECORD
  5
3EC
102
{ACAD_REACTORS
330
3D7
102
}
330
3D7
100
AcDbXrecord
 10
0.0
 20
0.0
 30
0.0
  0
XRECORD
  5
3EA
102
{ACAD_REACTORS
330
3D7
102
}
330
3D7
100
AcDbXrecord
 10
0.0
 20
0.0
 30
0.0
  0
XRECORD
  5
3EB
102
{ACAD_REACTORS
330
3D7
102
}
330
3D7
100
AcDbXrecord
 10
0.0
 20
0.0
 30
0.0
  0
XRECORD
  5
3E8
102
{ACAD_REACTORS
330
3D7
102
}
330
3D7
100
AcDbXrecord
 10
0.0
 20
0.0
 30
0.0
  0
XRECORD
  5
3E5
102
{ACAD_REACTORS
330
3D7
102
}
330
3D7
100
AcDbXrecord
340
0
  0
XRECORD
  5
3E6
102
{ACAD_REACTORS
330
3D7
102
}
330
3D7
100
AcDbXrecord
 70
     0
  0
XRECORD
  5
3DB
102
{ACAD_REACTORS
330
3D7
102
}
330
3D7
100
AcDbXrecord
  1

  0
XRECORD
  5
3D8
102
{ACAD_REACTORS
330
3D7
102
}
330
3D7
100
AcDbXrecord
 90
        1
  0
XRECORD
  5
3D9
102
{ACAD_REACTORS
330
3D7
102
}
330
3D7
100
AcDbXrecord
 90
       70
  0
XRECORD
  5
3F0
102
{ACAD_REACTORS
330
3D7
102
}
330
3D7
100
AcDbXrecord
340
0
  0
XRECORD
  5
3F6
102
{ACAD_REACTORS
330
3D7
102
}
330
3D7
100
AcDbXrecord
 10
0.0
 20
0.0
 30
0.0
  0
XRECORD
  5
3F2
102
{ACAD_REACTORS
330
3D7
102
}
330
3D7
100
AcDbXrecord
 10
0.0
 20
0.0
 30
0.0
  0
XRECORD
  5
3F5
102
{ACAD_REACTORS
330
3D7
102
}
330
3D7
100
AcDbXrecord
 10
0.0
 20
0.0
 30
0.0
  0
XRECORD
  5
3F3
102
{ACAD_REACTORS
330
3D7
102
}
330
3D7
100
AcDbXrecord
 10
0.0
 20
0.0
 30
0.0
  0
XRECORD
  5
3F4
102
{ACAD_REACTORS
330
3D7
102
}
330
3D7
100
AcDbXrecord
 10
0.0
 20
0.0
 30
0.0
  0
XRECORD
  5
3F1
102
{ACAD_REACTORS
330
3D7
102
}
330
3D7
100
AcDbXrecord
 10
0.0
 20
0.0
 30
0.0
  0
XRECORD
  5
3EE
102
{ACAD_REACTORS
330
3D7
102
}
330
3D7
100
AcDbXrecord
340
0
  0
XRECORD
  5
3EF
102
{ACAD_REACTORS
330
3D7
102
}
330
3D7
100
AcDbXrecord
 70
     0
  0
XRECORD
  5
3E3
102
{ACAD_REACTORS
330
3D7
102
}
330
3D7
100
AcDbXrecord
  1
{FAEB1C32-E019-11D5-929B-00C0DF256EC4}
  0
DICTIONARYVAR
  5
405
102
{ACAD_REACTORS
330
3F8
102
}
330
3F8
100
DictionaryVariables
280
     0
  1
1:1
  0
DICTIONARYVAR
  5
3FF
102
{ACAD_REACTORS
330
3F8
102
}
330
3F8
100
DictionaryVariables
280
     0
  1
3.500000
  0
DICTIONARYVAR
  5
400
102
{ACAD_REACTORS
330
3F8
102
}
330
3F8
100
DictionaryVariables
280
     0
  1
acadiso.lin
  0
DICTIONARYVAR
  5
3FA
102
{ACAD_REACTORS
330
3F8
102
}
330
3F8
100
DictionaryVariables
280
     0
  1
Standard
  0
DICTIONARYVAR
  5
3F9
102
{ACAD_REACTORS
330
3F8
102
}
330
3F8
100
DictionaryVariables
280
     0
  1
Standard
  0
DICTIONARYVAR
  5
401
102
{ACAD_REACTORS
330
3F8
102
}
330
3F8
100
DictionaryVariables
280
     0
  1
2
  0
DICTIONARYVAR
  5
402
102
{ACAD_REACTORS
330
3F8
102
}
330
3F8
100
DictionaryVariables
280
     0
  1
1
  0
DICTIONARYVAR
  5
406
102
{ACAD_REACTORS
330
3F8
102
}
330
3F8
100
DictionaryVariables
280
     0
  1
1
  0
DICTIONARYVAR
  5
3FC
102
{ACAD_REACTORS
330
3F8
102
}
330
3F8
100
DictionaryVariables
280
     0
  1
80.000000
  0
DICTIONARYVAR
  5
3FB
102
{ACAD_REACTORS
330
3F8
102
}
330
3F8
100
DictionaryVariables
280
     0
  1
5.000000
  0
DICTIONARY
  5
409
330
45
100
AcDbDictionary
280
     1
  3
ACAD_XREC_ROUNDTRIP
360
40A
  0
DICTIONARY
  5
407
330
44
100
AcDbDictionary
280
     1
  3
ACAD_XREC_ROUNDTRIP
360
408
  0
DICTIONARY
  5
40B
330
46
100
AcDbDictionary
280
     1
  3
ACAD_XREC_ROUNDTRIP
360
40C
  0
XRECORD
  5
40A
102
{ACAD_REACTORS
330
409
102
}
330
409
100
AcDbXrecord
102
MATERIAL
148
0.0
149
0.0
149
0.0
 93
        0
 94
      127
282
     0
 72
     1
 77
     1
171
     1
175
     1
179
     1
273
     0
  0
XRECORD
  5
408
102
{ACAD_REACTORS
330
407
102
}
330
407
100
AcDbXrecord
102
MATERIAL
148
0.0
149
0.0
149
0.0
 93
        0
 94
      127
282
     0
 72
     1
 77
     1
171
     1
175
     1
179
     1
273
     0
  0
XRECORD
  5
40C
102
{ACAD_REACTORS
330
40B
102
}
330
40B
100
AcDbXrecord
102
MATERIAL
148
0.0
149
0.0
149
0.0
 93
        0
 94
      127
282
     0
 72
     1
 77
     1
171
     1
175
     1
179
     1
273
     0
  0
ENDSEC
  0
EOF
