  0
SECTION
  2
HEADER
  9
$ACADVER
  1
AC1014
  9
$ACADMAINTVER
 70
     9
  9
$DWGCODEPAGE
  3
ANSI_932
  9
$INSBASE
 10
0.0
 20
0.0
 30
0.0
  9
$EXTMIN
 10
50.0
 20
50.0
 30
0.0
  9
$EXTMAX
 10
2050.0
 20
1435.0
 30
0.0
  9
$LIMMIN
 10
0.0
 20
0.0
  9
$LIMMAX
 10
420.0
 20
297.0
  9
$ORTHOMODE
 70
     0
  9
$REGENMODE
 70
     1
  9
$FILLMODE
 70
     1
  9
$QTEXTMODE
 70
     0
  9
$MIRRTEXT
 70
     1
  9
$DRAGMODE
 70
     2
  9
$LTSCALE
 40
1.0
  9
$OSMODE
 70
    37
  9
$ATTMODE
 70
     1
  9
$TEXTSIZE
 40
2.5
  9
$TRACEWID
 40
1.0
  9
$TEXTSTYLE
  7
STANDARD
  9
$CLAYER
  8
Ｓ_１_１
  9
$CELTYPE
  6
BYLAYER
  9
$CECOLOR
 62
   256
  9
$CELTSCALE
 40
1.0
  9
$DELOBJ
 70
     1
  9
$DISPSILH
 70
     0
  9
$DIMSCALE
 40
1.0
  9
$DIMASZ
 40
2.5
  9
$DIMEXO
 40
0.625
  9
$DIMDLI
 40
3.75
  9
$DIMRND
 40
0.0
  9
$DIMDLE
 40
0.0
  9
$DIMEXE
 40
1.25
  9
$DIMTP
 40
0.0
  9
$DIMTM
 40
0.0
  9
$DIMTXT
 40
2.5
  9
$DIMCEN
 40
2.5
  9
$DIMTSZ
 40
0.0
  9
$DIMTOL
 70
     0
  9
$DIMLIM
 70
     0
  9
$DIMTIH
 70
     0
  9
$DIMTOH
 70
     0
  9
$DIMSE1
 70
     0
  9
$DIMSE2
 70
     0
  9
$DIMTAD
 70
     1
  9
$DIMZIN
 70
     8
  9
$DIMBLK
  1

  9
$DIMASO
 70
     1
  9
$DIMSHO
 70
     1
  9
$DIMPOST
  1

  9
$DIMAPOST
  1

  9
$DIMALT
 70
     0
  9
$DIMALTD
 70
     3
  9
$DIMALTF
 40
0.03937007874016
  9
$DIMLFAC
 40
1.0
  9
$DIMTOFL
 70
     1
  9
$DIMTVP
 40
0.0
  9
$DIMTIX
 70
     0
  9
$DIMSOXD
 70
     0
  9
$DIMSAH
 70
     0
  9
$DIMBLK1
  1

  9
$DIMBLK2
  1

  9
$DIMSTYLE
  2
ISO-25
  9
$DIMCLRD
 70
     0
  9
$DIMCLRE
 70
     0
  9
$DIMCLRT
 70
     0
  9
$DIMTFAC
 40
1.0
  9
$DIMGAP
 40
0.625
  9
$DIMJUST
 70
     0
  9
$DIMSD1
 70
     0
  9
$DIMSD2
 70
     0
  9
$DIMTOLJ
 70
     0
  9
$DIMTZIN
 70
     8
  9
$DIMALTZ
 70
     0
  9
$DIMALTTZ
 70
     0
  9
$DIMFIT
 70
     3
  9
$DIMUPT
 70
     0
  9
$DIMUNIT
 70
     2
  9
$DIMDEC
 70
     2
  9
$DIMTDEC
 70
     2
  9
$DIMALTU
 70
     2
  9
$DIMALTTD
 70
     3
  9
$DIMTXSTY
  7
STANDARD
  9
$DIMAUNIT
 70
     0
  9
$LUNITS
 70
     2
  9
$LUPREC
 70
     4
  9
$SKETCHINC
 40
1.0
  9
$FILLETRAD
 40
10.0
  9
$AUNITS
 70
     0
  9
$AUPREC
 70
     0
  9
$MENU
  1
.
  9
$ELEVATION
 40
0.0
  9
$PELEVATION
 40
0.0
  9
$THICKNESS
 40
0.0
  9
$LIMCHECK
 70
     0
  9
$CHAMFERA
 40
0.0
  9
$CHAMFERB
 40
0.0
  9
$CHAMFERC
 40
0.0
  9
$CHAMFERD
 40
0.0
  9
$SKPOLY
 70
     0
  9
$TDCREATE
 40
2459585.49739125
  9
$TDUPDATE
 40
2459585.497392651
  9
$TDINDWG
 40
0.0000000116
  9
$TDUSRTIMER
 40
0.0000000116
  9
$USRTIMER
 70
     1
  9
$ANGBASE
 50
0.0
  9
$ANGDIR
 70
     0
  9
$PDMODE
 70
     0
  9
$PDSIZE
 40
0.0
  9
$PLINEWID
 40
0.0
  9
$COORDS
 70
     1
  9
$SPLFRAME
 70
     0
  9
$SPLINETYPE
 70
     6
  9
$SPLINESEGS
 70
     8
  9
$ATTDIA
 70
     0
  9
$ATTREQ
 70
     1
  9
$HANDLING
 70
     1
  9
$HANDSEED
  5
7EE
  9
$SURFTAB1
 70
     6
  9
$SURFTAB2
 70
     6
  9
$SURFTYPE
 70
     6
  9
$SURFU
 70
     6
  9
$SURFV
 70
     6
  9
$UCSNAME
  2

  9
$UCSORG
 10
0.0
 20
0.0
 30
0.0
  9
$UCSXDIR
 10
1.0
 20
0.0
 30
0.0
  9
$UCSYDIR
 10
0.0
 20
1.0
 30
0.0
  9
$PUCSNAME
  2

  9
$PUCSORG
 10
0.0
 20
0.0
 30
0.0
  9
$PUCSXDIR
 10
1.0
 20
0.0
 30
0.0
  9
$PUCSYDIR
 10
0.0
 20
1.0
 30
0.0
  9
$USERI1
 70
     0
  9
$USERI2
 70
     0
  9
$USERI3
 70
     0
  9
$USERI4
 70
     0
  9
$USERI5
 70
     0
  9
$USERR1
 40
0.0
  9
$USERR2
 40
0.0
  9
$USERR3
 40
0.0
  9
$USERR4
 40
0.0
  9
$USERR5
 40
0.0
  9
$WORLDVIEW
 70
     1
  9
$SHADEDGE
 70
     3
  9
$SHADEDIF
 70
    70
  9
$TILEMODE
 70
     1
  9
$MAXACTVP
 70
    64
  9
$PINSBASE
 10
0.0
 20
0.0
 30
0.0
  9
$PLIMCHECK
 70
     0
  9
$PEXTMIN
 10
1.000000000000000E+20
 20
1.000000000000000E+20
 30
1.000000000000000E+20
  9
$PEXTMAX
 10
-1.000000000000000E+20
 20
-1.000000000000000E+20
 30
-1.000000000000000E+20
  9
$PLIMMIN
 10
0.0
 20
0.0
  9
$PLIMMAX
 10
420.0
 20
297.0
  9
$UNITMODE
 70
     0
  9
$VISRETAIN
 70
     1
  9
$PLINEGEN
 70
     0
  9
$PSLTSCALE
 70
     1
  9
$TREEDEPTH
 70
  3020
  9
$PICKSTYLE
 70
     1
  9
$CMLSTYLE
  2
STANDARD
  9
$CMLJUST
 70
     0
  9
$CMLSCALE
 40
20.0
  9
$PROXYGRAPHICS
 70
     1
  9
$MEASUREMENT
 70
     1
  0
ENDSEC
  0
SECTION
  2
CLASSES
  0
CLASS
  1
ACDBDICTIONARYWDFLT
  2
AcDbDictionaryWithDefault
  3
ObjectDBX Classes
 90
        0
280
     0
281
     0
  0
CLASS
  1
VISUALSTYLE
  2
AcDbVisualStyle
  3
ObjectDBX Classes
 90
     4095
280
     0
281
     0
  0
CLASS
  1
MATERIAL
  2
AcDbMaterial
  3
ObjectDBX Classes
 90
     1153
280
     0
281
     0
  0
CLASS
  1
SCALE
  2
AcDbScale
  3
ObjectDBX Classes
 90
     1153
280
     0
281
     0
  0
CLASS
  1
TABLESTYLE
  2
AcDbTableStyle
  3
ObjectDBX Classes
 90
     4095
280
     0
281
     0
  0
CLASS
  1
MLEADERSTYLE
  2
AcDbMLeaderStyle
  3
ACDB_MLEADERSTYLE_CLASS
 90
     4095
280
     0
281
     0
  0
CLASS
  1
SUN
  2
AcDbSun
  3
SCENEOE
 90
     1153
280
     0
281
     0
  0
CLASS
  1
DICTIONARYVAR
  2
AcDbDictionaryVar
  3
ObjectDBX Classes
 90
        0
280
     0
281
     0
  0
CLASS
  1
XRECORD
  2
AcDbXrecord
  3
ObjectDBX Classes
 90
        0
280
     0
281
     0
  0
CLASS
  1
LWPOLYLINE
  2
AcDbPolyline
  3
ObjectDBX Classes
 90
        0
280
     0
281
     1
  0
CLASS
  1
HATCH
  2
AcDbHatch
  3
ObjectDBX Classes
 90
        0
280
     0
281
     1
  0
CLASS
  1
ACDBPLACEHOLDER
  2
AcDbPlaceHolder
  3
ObjectDBX Classes
 90
        0
280
     0
281
     0
  0
CLASS
  1
LAYOUT
  2
AcDbLayout
  3
ObjectDBX Classes
 90
        0
280
     0
281
     0
  0
ENDSEC
  0
SECTION
  2
TABLES
  0
TABLE
  2
VPORT
  5
8
102
{ACAD_XDICTIONARY
360
7E3
102
}
330
0
100
AcDbSymbolTable
 70
     1
  0
VPORT
  5
29
330
8
100
AcDbSymbolTableRecord
100
AcDbViewportTableRecord
  2
*ACTIVE
 70
     0
 10
0.0
 20
0.0
 11
1.0
 21
1.0
 12
1050.0
 22
742.5
 13
0.0
 23
0.0
 14
10.0
 24
10.0
 15
10.0
 25
10.0
 16
0.0
 26
0.0
 36
1.0
 17
0.0
 27
0.0
 37
0.0
 40
1385.0
 41
1.444043321299639
 42
50.0
 43
0.0
 44
0.0
 50
0.0
 51
0.0
 71
     0
 72
  1000
 73
     1
 74
     3
 75
     0
 76
     0
 77
     0
 78
     0
  0
ENDTAB
  0
TABLE
  2
LTYPE
  5
5
330
0
100
AcDbSymbolTable
 70
     7
  0
LTYPE
  5
14
330
5
100
AcDbSymbolTableRecord
100
AcDbLinetypeTableRecord
  2
BYBLOCK
 70
     0
  3

 72
    65
 73
     0
 40
0.0
  0
LTYPE
  5
15
330
5
100
AcDbSymbolTableRecord
100
AcDbLinetypeTableRecord
  2
BYLAYER
 70
     0
  3

 72
    65
 73
     0
 40
0.0
  0
LTYPE
  5
16
330
5
100
AcDbSymbolTableRecord
100
AcDbLinetypeTableRecord
  2
CONTINUOUS
 70
     0
  3
Solid line
 72
    65
 73
     0
 40
0.0
  0
LTYPE
  5
6E
330
5
100
AcDbSymbolTableRecord
100
AcDbLinetypeTableRecord
  2
EXLTYPE0
 70
     0
  3
破線
 72
    65
 73
     2
 40
4.0
 49
3.0
 74
     0
 49
-1.0
 74
     0
  0
LTYPE
  5
6F
330
5
100
AcDbSymbolTableRecord
100
AcDbLinetypeTableRecord
  2
EXLTYPE1
 70
     0
  3
点線
 72
    65
 73
     2
 40
2.0
 49
1.0
 74
     0
 49
-1.0
 74
     0
  0
LTYPE
  5
70
330
5
100
AcDbSymbolTableRecord
100
AcDbLinetypeTableRecord
  2
EXLTYPE2
 70
     0
  3
一点鎖線
 72
    65
 73
     4
 40
13.0
 49
10.0
 74
     0
 49
-1.0
 74
     0
 49
1.0
 74
     0
 49
-1.0
 74
     0
  0
LTYPE
  5
71
330
5
100
AcDbSymbolTableRecord
100
AcDbLinetypeTableRecord
  2
EXLTYPE3
 70
     0
  3
二点鎖線
 72
    65
 73
     6
 40
15.0
 49
10.0
 74
     0
 49
-1.0
 74
     0
 49
1.0
 74
     0
 49
-1.0
 74
     0
 49
1.0
 74
     0
 49
-1.0
 74
     0
  0
LTYPE
  5
72
330
5
100
AcDbSymbolTableRecord
100
AcDbLinetypeTableRecord
  2
EXLTYPE4
 70
     0
  3
一点鎖線2
 72
    65
 73
     4
 40
3.5
 49
2.0
 74
     0
 49
-0.5
 74
     0
 49
0.5
 74
     0
 49
-0.5
 74
     0
  0
LTYPE
  5
73
330
5
100
AcDbSymbolTableRecord
100
AcDbLinetypeTableRecord
  2
EXLTYPE5
 70
     0
  3
二点鎖線2
 72
    65
 73
     6
 40
4.5
 49
2.0
 74
     0
 49
-0.5
 74
     0
 49
0.5
 74
     0
 49
-0.5
 74
     0
 49
0.5
 74
     0
 49
-0.5
 74
     0
  0
ENDTAB
  0
TABLE
  2
LAYER
  5
2
330
0
100
AcDbSymbolTable
 70
     4
  0
LAYER
  5
10
330
2
100
AcDbSymbolTableRecord
100
AcDbLayerTableRecord
  2
0
 70
     0
 62
     7
  6
CONTINUOUS
  0
LAYER
  5
76
330
2
100
AcDbSymbolTableRecord
100
AcDbLayerTableRecord
  2
図面枠
 70
     4
 62
     7
  6
CONTINUOUS
  0
LAYER
  5
77
330
2
100
AcDbSymbolTableRecord
100
AcDbLayerTableRecord
  2
Ｓ_１_１
 70
     0
 62
     7
  6
CONTINUOUS
  0
LAYER
  5
123
330
2
100
AcDbSymbolTableRecord
100
AcDbLayerTableRecord
  2
DEFPOINTS
 70
     0
 62
     7
  6
CONTINUOUS
  0
ENDTAB
  0
TABLE
  2
STYLE
  5
3
330
0
100
AcDbSymbolTable
 70
     5
  0
STYLE
  5
11
330
3
100
AcDbSymbolTableRecord
100
AcDbTextStyleTableRecord
  2
STANDARD
 70
     0
 40
0.0
 41
1.0
 50
0.0
 71
     0
 42
2.5
  3
monotxt
  4
extfont
  0
STYLE
  5
74
330
3
100
AcDbSymbolTableRecord
100
AcDbTextStyleTableRecord
  2
EXCADSTD
 70
     0
 40
0.0
 41
1.0
 50
0.0
 71
     0
 42
2.5
  3
monotxt
  4
extfont
  0
STYLE
  5
75
330
3
100
AcDbSymbolTableRecord
100
AcDbTextStyleTableRecord
  2
EXCADVERT
 70
     4
 40
0.0
 41
1.0
 50
0.0
 71
     0
 42
2.5
  3
monotxt
  4
extfont
  0
STYLE
  5
D9
330
3
100
AcDbSymbolTableRecord
100
AcDbTextStyleTableRecord
  2
EXCADTTF1
 70
     0
 40
0.0
 41
1.0
 50
0.0
 71
     0
 42
2.5
  3
msgothic.ttc
  4

1001
ACAD
1000
MS Gothic
1071
    32817
  0
STYLE
  5
121
330
3
100
AcDbSymbolTableRecord
100
AcDbTextStyleTableRecord
  2
EXCADDIM1
 70
     0
 40
0.0
 41
1.0
 50
0.0
 71
     0
 42
2.5
  3
msgothic.ttc
  4

1001
ACAD
1000
MS Gothic
1071
    32817
  0
ENDTAB
  0
TABLE
  2
VIEW
  5
6
330
0
100
AcDbSymbolTable
 70
     0
  0
ENDTAB
  0
TABLE
  2
UCS
  5
7
330
0
100
AcDbSymbolTable
 70
     0
  0
ENDTAB
  0
TABLE
  2
APPID
  5
9
330
0
100
AcDbSymbolTable
 70
     2
  0
APPID
  5
12
330
9
100
AcDbSymbolTableRecord
100
AcDbRegAppTableRecord
  2
ACAD
 70
     0
  0
APPID
  5
7ED
330
9
100
AcDbSymbolTableRecord
100
AcDbRegAppTableRecord
  2
ACAD_MLEADERVER
 70
     0
  0
ENDTAB
  0
TABLE
  2
DIMSTYLE
  5
A
330
0
100
AcDbSymbolTable
 70
     1
  0
DIMSTYLE
105
27
102
{ACAD_REACTORS
330
122
330
131
330
13D
330
149
330
154
330
161
330
16E
330
17B
330
188
330
195
330
1A1
330
1AE
330
7A5
102
}
330
A
100
AcDbSymbolTableRecord
100
AcDbDimStyleTableRecord
  2
ISO-25
 70
     0
  3

  4

  5

  6

  7

 40
1.0
 41
2.5
 42
0.625
 43
3.75
 44
1.25
 45
0.0
 46
0.0
 47
0.0
 48
0.0
140
2.5
141
2.5
142
0.0
143
0.03937007874016
144
1.0
145
0.0
146
1.0
147
0.625
 71
     0
 72
     0
 73
     0
 74
     0
 75
     0
 76
     0
 77
     1
 78
     8
170
     0
171
     3
172
     1
173
     0
174
     0
175
     0
176
     0
177
     0
178
     0
270
     2
271
     2
272
     2
273
     2
274
     3
340
11
275
     0
280
     0
281
     0
282
     0
283
     0
284
     8
285
     0
286
     0
287
     5
288
     0
  0
ENDTAB
  0
TABLE
  2
BLOCK_RECORD
  5
1
330
0
100
AcDbSymbolTable
 70
    27
  0
BLOCK_RECORD
  5
1F
330
1
100
AcDbSymbolTableRecord
100
AcDbBlockTableRecord
  2
*MODEL_SPACE
  0
BLOCK_RECORD
  5
1B
330
1
100
AcDbSymbolTableRecord
100
AcDbBlockTableRecord
  2
*PAPER_SPACE
  0
BLOCK_RECORD
  5
78
330
1
100
AcDbSymbolTableRecord
100
AcDbBlockTableRecord
  2
EX_NORM
  0
BLOCK_RECORD
  5
7B
330
1
100
AcDbSymbolTableRecord
100
AcDbBlockTableRecord
  2
EX_BNORM
  0
BLOCK_RECORD
  5
7E
330
1
100
AcDbSymbolTableRecord
100
AcDbBlockTableRecord
  2
EX_BCIR
  0
BLOCK_RECORD
  5
81
330
1
100
AcDbSymbolTableRecord
100
AcDbBlockTableRecord
  2
EX_RCIVIL
  0
BLOCK_RECORD
  5
84
330
1
100
AcDbSymbolTableRecord
100
AcDbBlockTableRecord
  2
EX_SLANT
  0
BLOCK_RECORD
  5
87
330
1
100
AcDbSymbolTableRecord
100
AcDbBlockTableRecord
  2
EX_NONE
  0
BLOCK_RECORD
  5
8A
330
1
100
AcDbSymbolTableRecord
100
AcDbBlockTableRecord
  2
EX_CIVIL
  0
BLOCK_RECORD
  5
8D
330
1
100
AcDbSymbolTableRecord
100
AcDbBlockTableRecord
  2
EX_WCIR
  0
BLOCK_RECORD
  5
90
330
1
100
AcDbSymbolTableRecord
100
AcDbBlockTableRecord
  2
EX_WCIR2
  0
BLOCK_RECORD
  5
93
330
1
100
AcDbSymbolTableRecord
100
AcDbBlockTableRecord
  2
EX_WNORM
  0
BLOCK_RECORD
  5
96
330
1
100
AcDbSymbolTableRecord
100
AcDbBlockTableRecord
  2
EX_NNORM
  0
BLOCK_RECORD
  5
99
330
1
100
AcDbSymbolTableRecord
100
AcDbBlockTableRecord
  2
EX_BBOX
  0
BLOCK_RECORD
  5
9C
330
1
100
AcDbSymbolTableRecord
100
AcDbBlockTableRecord
  2
EX_WBOX
  0
BLOCK_RECORD
  5
9F
330
1
100
AcDbSymbolTableRecord
100
AcDbBlockTableRecord
  2
EX_INTEGRAL
  0
BLOCK_RECORD
  5
124
330
1
100
AcDbSymbolTableRecord
100
AcDbBlockTableRecord
  2
*D15
  0
BLOCK_RECORD
  5
132
330
1
100
AcDbSymbolTableRecord
100
AcDbBlockTableRecord
  2
*D16
  0
BLOCK_RECORD
  5
13E
330
1
100
AcDbSymbolTableRecord
100
AcDbBlockTableRecord
  2
*D17
  0
BLOCK_RECORD
  5
14A
330
1
100
AcDbSymbolTableRecord
100
AcDbBlockTableRecord
  2
*D18
  0
BLOCK_RECORD
  5
155
330
1
100
AcDbSymbolTableRecord
100
AcDbBlockTableRecord
  2
*D19
  0
BLOCK_RECORD
  5
162
330
1
100
AcDbSymbolTableRecord
100
AcDbBlockTableRecord
  2
*D20
  0
BLOCK_RECORD
  5
16F
330
1
100
AcDbSymbolTableRecord
100
AcDbBlockTableRecord
  2
*D21
  0
BLOCK_RECORD
  5
17C
330
1
100
AcDbSymbolTableRecord
100
AcDbBlockTableRecord
  2
*D22
  0
BLOCK_RECORD
  5
189
330
1
100
AcDbSymbolTableRecord
100
AcDbBlockTableRecord
  2
*D23
  0
BLOCK_RECORD
  5
196
330
1
100
AcDbSymbolTableRecord
100
AcDbBlockTableRecord
  2
*D24
  0
BLOCK_RECORD
  5
1A2
330
1
100
AcDbSymbolTableRecord
100
AcDbBlockTableRecord
  2
*D25
  0
BLOCK_RECORD
  5
1AF
330
1
100
AcDbSymbolTableRecord
100
AcDbBlockTableRecord
  2
*D26
  0
BLOCK_RECORD
  5
7A6
330
1
100
AcDbSymbolTableRecord
100
AcDbBlockTableRecord
  2
*D27
  0
ENDTAB
  0
ENDSEC
  0
SECTION
  2
BLOCKS
  0
BLOCK
  5
20
330
1F
100
AcDbEntity
  8
0
100
AcDbBlockBegin
  2
*MODEL_SPACE
 70
     0
 10
0.0
 20
0.0
 30
0.0
  3
*MODEL_SPACE
  1

  0
ENDBLK
  5
21
330
1F
100
AcDbEntity
  8
0
100
AcDbBlockEnd
  0
BLOCK
  5
1C
330
1B
100
AcDbEntity
 67
     1
  8
0
100
AcDbBlockBegin
  2
*PAPER_SPACE
 70
     0
 10
0.0
 20
0.0
 30
0.0
  3
*PAPER_SPACE
  1

  0
ENDBLK
  5
1D
330
1B
100
AcDbEntity
 67
     1
  8
0
100
AcDbBlockEnd
  0
BLOCK
  5
79
330
78
100
AcDbEntity
  8
0
100
AcDbBlockBegin
  2
EX_NORM
 70
     0
 10
0.0
 20
0.0
 30
0.0
  3
EX_NORM
  1

  0
LINE
  5
A2
330
78
100
AcDbEntity
  8
0
  6
CONTINUOUS
 62
     0
100
AcDbLine
 10
0.0
 20
0.0
 30
0.0
 11
-1.0
 21
0.0
 31
0.0
  0
LINE
  5
A3
330
78
100
AcDbEntity
  8
0
  6
CONTINUOUS
 62
     0
100
AcDbLine
 10
0.0
 20
0.0
 30
0.0
 11
-1.0
 21
0.166666667
 31
0.0
  0
LINE
  5
A4
330
78
100
AcDbEntity
  8
0
  6
CONTINUOUS
 62
     0
100
AcDbLine
 10
0.0
 20
0.0
 30
0.0
 11
-1.0
 21
-0.166666667
 31
0.0
  0
ENDBLK
  5
7A
330
78
100
AcDbEntity
  8
0
100
AcDbBlockEnd
  0
BLOCK
  5
7C
330
7B
100
AcDbEntity
  8
0
100
AcDbBlockBegin
  2
EX_BNORM
 70
     0
 10
0.0
 20
0.0
 30
0.0
  3
EX_BNORM
  1

  0
LINE
  5
A5
330
7B
100
AcDbEntity
  8
0
  6
CONTINUOUS
 62
     0
100
AcDbLine
 10
0.0
 20
0.0
 30
0.0
 11
-1.0
 21
0.0
 31
0.0
  0
LINE
  5
A6
330
7B
100
AcDbEntity
  8
0
  6
CONTINUOUS
 62
     0
100
AcDbLine
 10
0.0
 20
0.0
 30
0.0
 11
-1.0
 21
0.166666667
 31
0.0
  0
LINE
  5
A7
330
7B
100
AcDbEntity
  8
0
  6
CONTINUOUS
 62
     0
100
AcDbLine
 10
0.0
 20
0.0
 30
0.0
 11
-1.0
 21
-0.166666667
 31
0.0
  0
LINE
  5
A8
330
7B
100
AcDbEntity
  8
0
  6
CONTINUOUS
 62
     0
100
AcDbLine
 10
0.0
 20
0.0
 30
0.0
 11
-1.0
 21
0.083333333
 31
0.0
  0
LINE
  5
A9
330
7B
100
AcDbEntity
  8
0
  6
CONTINUOUS
 62
     0
100
AcDbLine
 10
0.0
 20
0.0
 30
0.0
 11
-1.0
 21
-0.083333333
 31
0.0
  0
LINE
  5
AA
330
7B
100
AcDbEntity
  8
0
  6
CONTINUOUS
 62
     0
100
AcDbLine
 10
-1.0
 20
0.166666667
 30
0.0
 11
-1.0
 21
-0.166666667
 31
0.0
  0
ENDBLK
  5
7D
330
7B
100
AcDbEntity
  8
0
100
AcDbBlockEnd
  0
BLOCK
  5
7F
330
7E
100
AcDbEntity
  8
0
100
AcDbBlockBegin
  2
EX_BCIR
 70
     0
 10
0.0
 20
0.0
 30
0.0
  3
EX_BCIR
  1

  0
LINE
  5
AB
330
7E
100
AcDbEntity
  8
0
  6
CONTINUOUS
 62
     0
100
AcDbLine
 10
0.0
 20
0.0
 30
0.0
 11
-1.0
 21
0.0
 31
0.0
  0
CIRCLE
  5
AC
330
7E
100
AcDbEntity
  8
0
  6
CONTINUOUS
 62
     0
100
AcDbCircle
 10
0.0
 20
0.0
 30
0.0
 40
0.5
  0
CIRCLE
  5
AD
330
7E
100
AcDbEntity
  8
0
  6
CONTINUOUS
 62
     0
100
AcDbCircle
 10
0.0
 20
0.0
 30
0.0
 40
0.25
  0
ENDBLK
  5
80
330
7E
100
AcDbEntity
  8
0
100
AcDbBlockEnd
  0
BLOCK
  5
82
330
81
100
AcDbEntity
  8
0
100
AcDbBlockBegin
  2
EX_RCIVIL
 70
     0
 10
0.0
 20
0.0
 30
0.0
  3
EX_RCIVIL
  1

  0
LINE
  5
AE
330
81
100
AcDbEntity
  8
0
  6
CONTINUOUS
 62
     0
100
AcDbLine
 10
0.0
 20
0.0
 30
0.0
 11
-1.0
 21
0.0
 31
0.0
  0
LINE
  5
AF
330
81
100
AcDbEntity
  8
0
  6
CONTINUOUS
 62
     0
100
AcDbLine
 10
-1.0
 20
-0.25
 30
0.0
 11
0.0
 21
-0.25
 31
0.0
  0
LINE
  5
B0
330
81
100
AcDbEntity
  8
0
  6
CONTINUOUS
 62
     0
100
AcDbLine
 10
-1.0
 20
-0.125
 30
0.0
 11
0.0
 21
-0.125
 31
0.0
  0
ENDBLK
  5
83
330
81
100
AcDbEntity
  8
0
100
AcDbBlockEnd
  0
BLOCK
  5
85
330
84
100
AcDbEntity
  8
0
100
AcDbBlockBegin
  2
EX_SLANT
 70
     0
 10
0.0
 20
0.0
 30
0.0
  3
EX_SLANT
  1

  0
LINE
  5
B1
330
84
100
AcDbEntity
  8
0
  6
CONTINUOUS
 62
     0
100
AcDbLine
 10
0.0
 20
0.0
 30
0.0
 11
-1.0
 21
0.0
 31
0.0
  0
LINE
  5
B2
330
84
100
AcDbEntity
  8
0
  6
CONTINUOUS
 62
     0
100
AcDbLine
 10
0.707106781
 20
0.707106781
 30
0.0
 11
-0.707106781
 21
-0.707106781
 31
0.0
  0
ENDBLK
  5
86
330
84
100
AcDbEntity
  8
0
100
AcDbBlockEnd
  0
BLOCK
  5
88
330
87
100
AcDbEntity
  8
0
100
AcDbBlockBegin
  2
EX_NONE
 70
     0
 10
0.0
 20
0.0
 30
0.0
  3
EX_NONE
  1

  0
LINE
  5
B3
330
87
100
AcDbEntity
  8
0
  6
CONTINUOUS
 62
     0
100
AcDbLine
 10
0.0
 20
0.0
 30
0.0
 11
-1.0
 21
0.0
 31
0.0
  0
ENDBLK
  5
89
330
87
100
AcDbEntity
  8
0
100
AcDbBlockEnd
  0
BLOCK
  5
8B
330
8A
100
AcDbEntity
  8
0
100
AcDbBlockBegin
  2
EX_CIVIL
 70
     0
 10
0.0
 20
0.0
 30
0.0
  3
EX_CIVIL
  1

  0
LINE
  5
B4
330
8A
100
AcDbEntity
  8
0
  6
CONTINUOUS
 62
     0
100
AcDbLine
 10
0.0
 20
0.0
 30
0.0
 11
-1.0
 21
0.0
 31
0.0
  0
LINE
  5
B5
330
8A
100
AcDbEntity
  8
0
  6
CONTINUOUS
 62
     0
100
AcDbLine
 10
-1.0
 20
0.25
 30
0.0
 11
0.0
 21
0.25
 31
0.0
  0
LINE
  5
B6
330
8A
100
AcDbEntity
  8
0
  6
CONTINUOUS
 62
     0
100
AcDbLine
 10
-1.0
 20
0.125
 30
0.0
 11
0.0
 21
0.125
 31
0.0
  0
ENDBLK
  5
8C
330
8A
100
AcDbEntity
  8
0
100
AcDbBlockEnd
  0
BLOCK
  5
8E
330
8D
100
AcDbEntity
  8
0
100
AcDbBlockBegin
  2
EX_WCIR
 70
     0
 10
0.0
 20
0.0
 30
0.0
  3
EX_WCIR
  1

  0
LINE
  5
B7
330
8D
100
AcDbEntity
  8
0
  6
CONTINUOUS
 62
     0
100
AcDbLine
 10
0.0
 20
0.0
 30
0.0
 11
-1.0
 21
0.0
 31
0.0
  0
CIRCLE
  5
B8
330
8D
100
AcDbEntity
  8
0
  6
CONTINUOUS
 62
     0
100
AcDbCircle
 10
0.0
 20
0.0
 30
0.0
 40
0.5
  0
ENDBLK
  5
8F
330
8D
100
AcDbEntity
  8
0
100
AcDbBlockEnd
  0
BLOCK
  5
91
330
90
100
AcDbEntity
  8
0
100
AcDbBlockBegin
  2
EX_WCIR2
 70
     0
 10
0.0
 20
0.0
 30
0.0
  3
EX_WCIR2
  1

  0
LINE
  5
B9
330
90
100
AcDbEntity
  8
0
  6
CONTINUOUS
 62
     0
100
AcDbLine
 10
-0.5
 20
0.0
 30
0.0
 11
-1.0
 21
0.0
 31
0.0
  0
CIRCLE
  5
BA
330
90
100
AcDbEntity
  8
0
  6
CONTINUOUS
 62
     0
100
AcDbCircle
 10
0.0
 20
0.0
 30
0.0
 40
0.5
  0
ENDBLK
  5
92
330
90
100
AcDbEntity
  8
0
100
AcDbBlockEnd
  0
BLOCK
  5
94
330
93
100
AcDbEntity
  8
0
100
AcDbBlockBegin
  2
EX_WNORM
 70
     0
 10
0.0
 20
0.0
 30
0.0
  3
EX_WNORM
  1

  0
LINE
  5
BB
330
93
100
AcDbEntity
  8
0
  6
CONTINUOUS
 62
     0
100
AcDbLine
 10
-1.0
 20
0.0
 30
0.0
 11
-1.0
 21
0.0
 31
0.0
  0
LINE
  5
BC
330
93
100
AcDbEntity
  8
0
  6
CONTINUOUS
 62
     0
100
AcDbLine
 10
0.0
 20
0.0
 30
0.0
 11
-1.0
 21
0.166666667
 31
0.0
  0
LINE
  5
BD
330
93
100
AcDbEntity
  8
0
  6
CONTINUOUS
 62
     0
100
AcDbLine
 10
0.0
 20
0.0
 30
0.0
 11
-1.0
 21
-0.166666667
 31
0.0
  0
LINE
  5
BE
330
93
100
AcDbEntity
  8
0
  6
CONTINUOUS
 62
     0
100
AcDbLine
 10
-1.0
 20
0.166666667
 30
0.0
 11
-1.0
 21
-0.166666667
 31
0.0
  0
ENDBLK
  5
95
330
93
100
AcDbEntity
  8
0
100
AcDbBlockEnd
  0
BLOCK
  5
97
330
96
100
AcDbEntity
  8
0
100
AcDbBlockBegin
  2
EX_NNORM
 70
     0
 10
0.0
 20
0.0
 30
0.0
  3
EX_NNORM
  1

  0
LINE
  5
BF
330
96
100
AcDbEntity
  8
0
  6
CONTINUOUS
 62
     0
100
AcDbLine
 10
0.0
 20
0.0
 30
0.0
 11
-1.0
 21
0.0
 31
0.0
  0
LINE
  5
C0
330
96
100
AcDbEntity
  8
0
  6
CONTINUOUS
 62
     0
100
AcDbLine
 10
0.0
 20
0.0
 30
0.0
 11
-1.0
 21
0.166666667
 31
0.0
  0
LINE
  5
C1
330
96
100
AcDbEntity
  8
0
  6
CONTINUOUS
 62
     0
100
AcDbLine
 10
0.0
 20
0.0
 30
0.0
 11
-1.0
 21
-0.166666667
 31
0.0
  0
LINE
  5
C2
330
96
100
AcDbEntity
  8
0
  6
CONTINUOUS
 62
     0
100
AcDbLine
 10
-1.0
 20
0.166666667
 30
0.0
 11
-1.0
 21
-0.166666667
 31
0.0
  0
ENDBLK
  5
98
330
96
100
AcDbEntity
  8
0
100
AcDbBlockEnd
  0
BLOCK
  5
9A
330
99
100
AcDbEntity
  8
0
100
AcDbBlockBegin
  2
EX_BBOX
 70
     0
 10
0.0
 20
0.0
 30
0.0
  3
EX_BBOX
  1

  0
LINE
  5
C3
330
99
100
AcDbEntity
  8
0
  6
CONTINUOUS
 62
     0
100
AcDbLine
 10
0.0
 20
0.0
 30
0.0
 11
-1.0
 21
0.0
 31
0.0
  0
LINE
  5
C4
330
99
100
AcDbEntity
  8
0
  6
CONTINUOUS
 62
     0
100
AcDbLine
 10
-0.5
 20
0.5
 30
0.0
 11
0.5
 21
0.5
 31
0.0
  0
LINE
  5
C5
330
99
100
AcDbEntity
  8
0
  6
CONTINUOUS
 62
     0
100
AcDbLine
 10
0.5
 20
0.5
 30
0.0
 11
0.5
 21
-0.5
 31
0.0
  0
LINE
  5
C6
330
99
100
AcDbEntity
  8
0
  6
CONTINUOUS
 62
     0
100
AcDbLine
 10
0.5
 20
-0.5
 30
0.0
 11
-0.5
 21
-0.5
 31
0.0
  0
LINE
  5
C7
330
99
100
AcDbEntity
  8
0
  6
CONTINUOUS
 62
     0
100
AcDbLine
 10
-0.5
 20
-0.5
 30
0.0
 11
-0.5
 21
0.5
 31
0.0
  0
LINE
  5
C8
330
99
100
AcDbEntity
  8
0
  6
CONTINUOUS
 62
     0
100
AcDbLine
 10
-0.25
 20
0.25
 30
0.0
 11
0.25
 21
0.25
 31
0.0
  0
LINE
  5
C9
330
99
100
AcDbEntity
  8
0
  6
CONTINUOUS
 62
     0
100
AcDbLine
 10
0.25
 20
0.25
 30
0.0
 11
0.25
 21
-0.25
 31
0.0
  0
LINE
  5
CA
330
99
100
AcDbEntity
  8
0
  6
CONTINUOUS
 62
     0
100
AcDbLine
 10
0.25
 20
-0.25
 30
0.0
 11
-0.25
 21
-0.25
 31
0.0
  0
LINE
  5
CB
330
99
100
AcDbEntity
  8
0
  6
CONTINUOUS
 62
     0
100
AcDbLine
 10
-0.25
 20
-0.25
 30
0.0
 11
-0.25
 21
0.25
 31
0.0
  0
ENDBLK
  5
9B
330
99
100
AcDbEntity
  8
0
100
AcDbBlockEnd
  0
BLOCK
  5
9D
330
9C
100
AcDbEntity
  8
0
100
AcDbBlockBegin
  2
EX_WBOX
 70
     0
 10
0.0
 20
0.0
 30
0.0
  3
EX_WBOX
  1

  0
LINE
  5
CC
330
9C
100
AcDbEntity
  8
0
  6
CONTINUOUS
 62
     0
100
AcDbLine
 10
-0.5
 20
0.0
 30
0.0
 11
-1.0
 21
0.0
 31
0.0
  0
LINE
  5
CD
330
9C
100
AcDbEntity
  8
0
  6
CONTINUOUS
 62
     0
100
AcDbLine
 10
-0.5
 20
0.5
 30
0.0
 11
0.5
 21
0.5
 31
0.0
  0
LINE
  5
CE
330
9C
100
AcDbEntity
  8
0
  6
CONTINUOUS
 62
     0
100
AcDbLine
 10
0.5
 20
0.5
 30
0.0
 11
0.5
 21
-0.5
 31
0.0
  0
LINE
  5
CF
330
9C
100
AcDbEntity
  8
0
  6
CONTINUOUS
 62
     0
100
AcDbLine
 10
0.5
 20
-0.5
 30
0.0
 11
-0.5
 21
-0.5
 31
0.0
  0
LINE
  5
D0
330
9C
100
AcDbEntity
  8
0
  6
CONTINUOUS
 62
     0
100
AcDbLine
 10
-0.5
 20
-0.5
 30
0.0
 11
-0.5
 21
0.5
 31
0.0
  0
ENDBLK
  5
9E
330
9C
100
AcDbEntity
  8
0
100
AcDbBlockEnd
  0
BLOCK
  5
A0
330
9F
100
AcDbEntity
  8
0
100
AcDbBlockBegin
  2
EX_INTEGRAL
 70
     0
 10
0.0
 20
0.0
 30
0.0
  3
EX_INTEGRAL
  1

  0
LINE
  5
D1
330
9F
100
AcDbEntity
  8
0
  6
CONTINUOUS
 62
     0
100
AcDbLine
 10
0.0
 20
0.0
 30
0.0
 11
-1.0
 21
0.0
 31
0.0
  0
ARC
  5
D2
330
9F
100
AcDbEntity
  8
0
  6
CONTINUOUS
 62
     0
100
AcDbCircle
 10
0.542115
 20
0.164992
 30
0.0
 40
0.56667
100
AcDbArc
 50
73.07249033629006
 51
196.9275130221199
  0
ARC
  5
D3
330
9F
100
AcDbEntity
  8
0
  6
CONTINUOUS
 62
     0
100
AcDbCircle
 10
-0.542115
 20
-0.164992
 30
0.0
 40
0.56667
100
AcDbArc
 50
253.0724869220464
 51
16.9275130559125
  0
ENDBLK
  5
A1
330
9F
100
AcDbEntity
  8
0
100
AcDbBlockEnd
  0
BLOCK
  5
125
330
124
100
AcDbEntity
  8
0
100
AcDbBlockBegin
  2
*D15
 70
     1
 10
0.0
 20
0.0
 30
0.0
  3
*D15
  1

  0
LINE
  5
127
330
124
100
AcDbEntity
  8
Ｓ_１_１
  6
CONTINUOUS
 62
     2
100
AcDbLine
 10
752.8454721386415
 20
855.2986620724892
 30
0.0
 11
761.9482719867779
 21
803.6741312985492
 31
0.0
  0
ARC
  5
128
330
124
100
AcDbEntity
  8
Ｓ_１_１
  6
CONTINUOUS
 62
     2
100
AcDbCircle
 10
699.9999614999999
 20
1155.0003731661
 30
0.0
 40
351.7460180533807
100
AcDbArc
 50
272.4435272615215
 51
277.5564727148655
  0
INSERT
  5
129
330
124
100
AcDbEntity
  8
Ｓ_１_１
 62
     2
100
AcDbBlockReference
  2
EX_NORM
 10
699.9999467757632
 20
803.2543551127195
 30
0.0
 41
15.0
 42
15.0
 43
15.0
 50
181.221762431548
  0
INSERT
  5
12A
330
124
100
AcDbEntity
  8
Ｓ_１_１
 62
     2
100
AcDbBlockReference
  2
EX_NORM
 10
761.0800308943502
 20
808.5981700276232
 30
0.0
 41
15.0
 42
15.0
 43
15.0
 50
8.778237544838998
  0
MTEXT
  5
12B
330
124
100
AcDbEntity
  8
Ｓ_１_１
 62
     2
100
AcDbMText
 10
729.4582554298099
 20
818.2905319991299
 30
0.0
 40
17.3145207852194
 41
0.0
 71
     5
 72
     1
  1
10%%d
  7
EXCADDIM1
 11
0.9961946981097052
 21
0.08715574254237979
 31
0.0
  0
POINT
  5
12C
330
124
100
AcDbEntity
  8
DEFPOINTS
 62
     0
100
AcDbPoint
 10
699.9999614999999
 20
1155.0003731661
 30
0.0
  0
POINT
  5
12D
330
124
100
AcDbEntity
  8
DEFPOINTS
 62
     0
100
AcDbPoint
 10
699.9999467757632
 20
803.2543551127196
 30
0.0
  0
POINT
  5
12E
330
124
100
AcDbEntity
  8
DEFPOINTS
 62
     0
100
AcDbPoint
 10
751.5431105
 20
862.6847201661001
 30
0.0
  0
POINT
  5
12F
330
124
100
AcDbEntity
  8
DEFPOINTS
 62
     0
100
AcDbPoint
 10
720.4521685916404
 20
803.849453415788
 30
0.0
  0
ENDBLK
  5
126
330
124
100
AcDbEntity
  8
0
100
AcDbBlockEnd
  0
BLOCK
  5
133
330
132
100
AcDbEntity
  8
0
100
AcDbBlockBegin
  2
*D16
 70
     1
 10
0.0
 20
0.0
 30
0.0
  3
*D16
  1

  0
LINE
  5
135
330
132
100
AcDbEntity
  8
Ｓ_１_１
  6
CONTINUOUS
 62
     2
100
AcDbLine
 10
497.4999665000002
 20
550.0000329999999
 30
0.0
 11
344.9999615
 21
550.0000329999999
 31
0.0
  0
LINE
  5
136
330
132
100
AcDbEntity
  8
Ｓ_１_１
  6
CONTINUOUS
 62
     2
100
AcDbLine
 10
349.9999615
 20
565.0000329999999
 30
0.0
 11
349.9999615
 21
590.0000329999998
 31
0.0
  0
INSERT
  5
137
330
132
100
AcDbEntity
  8
Ｓ_１_１
 62
     2
100
AcDbBlockReference
  2
EX_NORM
 10
349.9999615
 20
550.0000329999999
 30
0.0
 41
15.0
 42
15.0
 43
15.0
 50
270.0
  0
INSERT
  5
138
330
132
100
AcDbEntity
  8
Ｓ_１_１
 62
     2
100
AcDbBlockReference
  2
EX_NORM
 10
349.9999615
 20
605.0000329999998
 30
0.0
 41
15.0
 42
15.0
 43
15.0
 50
90.0
  0
MTEXT
  5
139
330
132
100
AcDbEntity
  8
Ｓ_１_１
 62
     2
100
AcDbMText
 10
336.2499615000002
 20
577.5000329999998
 30
0.0
 40
17.3145207852194
 41
0.0
 71
     5
 72
     1
  1
55
  7
EXCADDIM1
 11
0.0
 21
1.0
 31
0.0
  0
POINT
  5
13A
330
132
100
AcDbEntity
  8
DEFPOINTS
 62
     0
100
AcDbPoint
 10
504.9999665000002
 20
550.0000329999999
 30
0.0
  0
POINT
  5
13B
330
132
100
AcDbEntity
  8
DEFPOINTS
 62
     0
100
AcDbPoint
 10
502.9999975
 20
605.0000329999998
 30
0.0
  0
POINT
  5
13C
330
132
100
AcDbEntity
  8
DEFPOINTS
 62
     0
100
AcDbPoint
 10
349.9999615
 20
605.0000329999998
 30
0.0
  0
ENDBLK
  5
134
330
132
100
AcDbEntity
  8
0
100
AcDbBlockEnd
  0
BLOCK
  5
13F
330
13E
100
AcDbEntity
  8
0
100
AcDbBlockBegin
  2
*D17
 70
     1
 10
0.0
 20
0.0
 30
0.0
  3
*D17
  1

  0
LINE
  5
141
330
13E
100
AcDbEntity
  8
Ｓ_１_１
  6
CONTINUOUS
 62
     2
100
AcDbLine
 10
490.4999975
 20
484.999996
 30
0.0
 11
344.9999615000002
 21
484.9999960000001
 31
0.0
  0
LINE
  5
142
330
13E
100
AcDbEntity
  8
Ｓ_１_１
  6
CONTINUOUS
 62
     2
100
AcDbLine
 10
349.9999615000002
 20
499.9999960000001
 30
0.0
 11
349.9999615000002
 21
535.0000329999999
 31
0.0
  0
INSERT
  5
143
330
13E
100
AcDbEntity
  8
Ｓ_１_１
 62
     2
100
AcDbBlockReference
  2
EX_NORM
 10
349.9999615000002
 20
484.9999960000001
 30
0.0
 41
15.0
 42
15.0
 43
15.0
 50
270.0
  0
INSERT
  5
144
330
13E
100
AcDbEntity
  8
Ｓ_１_１
 62
     2
100
AcDbBlockReference
  2
EX_NORM
 10
349.9999615000002
 20
550.0000329999999
 30
0.0
 41
15.0
 42
15.0
 43
15.0
 50
90.0
  0
MTEXT
  5
145
330
13E
100
AcDbEntity
  8
Ｓ_１_１
 62
     2
100
AcDbMText
 10
336.2499615000002
 20
517.5000144999999
 30
0.0
 40
17.3145207852194
 41
0.0
 71
     5
 72
     1
  1
65
  7
EXCADDIM1
 11
0.0
 21
1.0
 31
0.0
  0
POINT
  5
146
330
13E
100
AcDbEntity
  8
DEFPOINTS
 62
     0
100
AcDbPoint
 10
497.9999975
 20
484.999996
 30
0.0
  0
POINT
  5
147
330
13E
100
AcDbEntity
  8
DEFPOINTS
 62
     0
100
AcDbPoint
 10
504.9999665000002
 20
550.0000329999999
 30
0.0
  0
POINT
  5
148
330
13E
100
AcDbEntity
  8
DEFPOINTS
 62
     0
100
AcDbPoint
 10
349.9999615000002
 20
550.0000329999999
 30
0.0
  0
ENDBLK
  5
140
330
13E
100
AcDbEntity
  8
0
100
AcDbBlockEnd
  0
BLOCK
  5
14B
330
14A
100
AcDbEntity
  8
0
100
AcDbBlockBegin
  2
*D18
 70
     1
 10
0.0
 20
0.0
 30
0.0
  3
*D18
  1

  0
LINE
  5
14D
330
14A
100
AcDbEntity
  8
Ｓ_１_１
  6
CONTINUOUS
 62
     2
100
AcDbLine
 10
349.9999615000002
 20
259.9999999999999
 30
0.0
 11
349.9999615000002
 21
469.9999960000001
 31
0.0
  0
INSERT
  5
14E
330
14A
100
AcDbEntity
  8
Ｓ_１_１
 62
     2
100
AcDbBlockReference
  2
EX_NORM
 10
349.9999615000002
 20
244.9999999999999
 30
0.0
 41
15.0
 42
15.0
 43
15.0
 50
270.0
  0
INSERT
  5
14F
330
14A
100
AcDbEntity
  8
Ｓ_１_１
 62
     2
100
AcDbBlockReference
  2
EX_NORM
 10
349.9999615000002
 20
484.9999960000001
 30
0.0
 41
15.0
 42
15.0
 43
15.0
 50
90.0
  0
MTEXT
  5
150
330
14A
100
AcDbEntity
  8
Ｓ_１_１
 62
     2
100
AcDbMText
 10
336.2499615000002
 20
364.9999979999999
 30
0.0
 40
17.3145207852194
 41
0.0
 71
     5
 72
     1
  1
240
  7
EXCADDIM1
 11
0.0
 21
1.0
 31
0.0
  0
POINT
  5
151
330
14A
100
AcDbEntity
  8
DEFPOINTS
 62
     0
100
AcDbPoint
 10
497.9999975
 20
244.9999999999999
 30
0.0
  0
POINT
  5
152
330
14A
100
AcDbEntity
  8
DEFPOINTS
 62
     0
100
AcDbPoint
 10
497.9999975
 20
484.999996
 30
0.0
  0
POINT
  5
153
330
14A
100
AcDbEntity
  8
DEFPOINTS
 62
     0
100
AcDbPoint
 10
349.9999615000002
 20
484.9999960000001
 30
0.0
  0
ENDBLK
  5
14C
330
14A
100
AcDbEntity
  8
0
100
AcDbBlockEnd
  0
BLOCK
  5
156
330
155
100
AcDbEntity
  8
0
100
AcDbBlockBegin
  2
*D19
 70
     1
 10
0.0
 20
0.0
 30
0.0
  3
*D19
  1

  0
LINE
  5
158
330
155
100
AcDbEntity
  8
Ｓ_１_１
  6
CONTINUOUS
 62
     2
100
AcDbLine
 10
904.9999585000002
 20
240.499993
 30
0.0
 11
904.9999585000002
 21
168.427201
 31
0.0
  0
LINE
  5
159
330
155
100
AcDbEntity
  8
Ｓ_１_１
  6
CONTINUOUS
 62
     2
100
AcDbLine
 10
494.9999645000003
 20
240.499993
 30
0.0
 11
494.9999645000003
 21
168.427201
 31
0.0
  0
LINE
  5
15A
330
155
100
AcDbEntity
  8
Ｓ_１_１
  6
CONTINUOUS
 62
     2
100
AcDbLine
 10
889.9999585000002
 20
173.427201
 30
0.0
 11
509.9999645000003
 21
173.427201
 31
0.0
  0
INSERT
  5
15B
330
155
100
AcDbEntity
  8
Ｓ_１_１
 62
     2
100
AcDbBlockReference
  2
EX_NORM
 10
904.9999585000002
 20
173.427201
 30
0.0
 41
15.0
 42
15.0
 43
15.0
  0
INSERT
  5
15C
330
155
100
AcDbEntity
  8
Ｓ_１_１
 62
     2
100
AcDbBlockReference
  2
EX_NORM
 10
494.9999645000003
 20
173.427201
 30
0.0
 41
15.0
 42
15.0
 43
15.0
 50
180.0
  0
MTEXT
  5
15D
330
155
100
AcDbEntity
  8
Ｓ_１_１
 62
     2
100
AcDbMText
 10
699.9999615000002
 20
187.177201
 30
0.0
 40
17.3145207852194
 41
0.0
 71
     5
 72
     1
  1
%%c410
  7
EXCADDIM1
  0
POINT
  5
15E
330
155
100
AcDbEntity
  8
DEFPOINTS
 62
     0
100
AcDbPoint
 10
904.9999585000002
 20
247.999993
 30
0.0
  0
POINT
  5
15F
330
155
100
AcDbEntity
  8
DEFPOINTS
 62
     0
100
AcDbPoint
 10
494.9999645000003
 20
247.999993
 30
0.0
  0
POINT
  5
160
330
155
100
AcDbEntity
  8
DEFPOINTS
 62
     0
100
AcDbPoint
 10
494.9999645000003
 20
173.427201
 30
0.0
  0
ENDBLK
  5
157
330
155
100
AcDbEntity
  8
0
100
AcDbBlockEnd
  0
BLOCK
  5
163
330
162
100
AcDbEntity
  8
0
100
AcDbBlockBegin
  2
*D20
 70
     1
 10
0.0
 20
0.0
 30
0.0
  3
*D20
  1

  0
LINE
  5
165
330
162
100
AcDbEntity
  8
Ｓ_１_１
  6
CONTINUOUS
 62
     2
100
AcDbLine
 10
499.9999645000003
 20
609.5
 30
0.0
 11
499.9999645000003
 21
740.0000000000002
 31
0.0
  0
LINE
  5
166
330
162
100
AcDbEntity
  8
Ｓ_１_１
  6
CONTINUOUS
 62
     2
100
AcDbLine
 10
899.9999585000002
 20
609.5
 30
0.0
 11
899.9999585000002
 21
740.0000000000002
 31
0.0
  0
LINE
  5
167
330
162
100
AcDbEntity
  8
Ｓ_１_１
  6
CONTINUOUS
 62
     2
100
AcDbLine
 10
514.9999645000003
 20
735.0000000000002
 30
0.0
 11
884.9999585000002
 21
735.0000000000002
 31
0.0
  0
INSERT
  5
168
330
162
100
AcDbEntity
  8
Ｓ_１_１
 62
     2
100
AcDbBlockReference
  2
EX_NORM
 10
499.9999645000003
 20
735.0000000000002
 30
0.0
 41
15.0
 42
15.0
 43
15.0
 50
180.0
  0
INSERT
  5
169
330
162
100
AcDbEntity
  8
Ｓ_１_１
 62
     2
100
AcDbBlockReference
  2
EX_NORM
 10
899.9999585000002
 20
735.0000000000002
 30
0.0
 41
15.0
 42
15.0
 43
15.0
  0
MTEXT
  5
16A
330
162
100
AcDbEntity
  8
Ｓ_１_１
 62
     2
100
AcDbMText
 10
699.9999614999998
 20
748.7500000000002
 30
0.0
 40
17.3145207852194
 41
0.0
 71
     5
 72
     1
  1
%%c400
  7
EXCADDIM1
  0
POINT
  5
16B
330
162
100
AcDbEntity
  8
DEFPOINTS
 62
     0
100
AcDbPoint
 10
499.9999645000003
 20
602.0
 30
0.0
  0
POINT
  5
16C
330
162
100
AcDbEntity
  8
DEFPOINTS
 62
     0
100
AcDbPoint
 10
899.9999585000002
 20
602.0
 30
0.0
  0
POINT
  5
16D
330
162
100
AcDbEntity
  8
DEFPOINTS
 62
     0
100
AcDbPoint
 10
899.9999585000002
 20
735.0000000000002
 30
0.0
  0
ENDBLK
  5
164
330
162
100
AcDbEntity
  8
0
100
AcDbBlockEnd
  0
BLOCK
  5
170
330
16F
100
AcDbEntity
  8
0
100
AcDbBlockBegin
  2
*D21
 70
     1
 10
0.0
 20
0.0
 30
0.0
  3
*D21
  1

  0
LINE
  5
172
330
16F
100
AcDbEntity
  8
Ｓ_１_１
  6
CONTINUOUS
 62
     2
100
AcDbLine
 10
567.4999635
 20
553.5000000557575
 30
0.0
 11
567.4999635
 21
705.0
 31
0.0
  0
LINE
  5
173
330
16F
100
AcDbEntity
  8
Ｓ_１_１
  6
CONTINUOUS
 62
     2
100
AcDbLine
 10
832.4999595000003
 20
553.5000000557575
 30
0.0
 11
832.4999595000003
 21
705.0
 31
0.0
  0
LINE
  5
174
330
16F
100
AcDbEntity
  8
Ｓ_１_１
  6
CONTINUOUS
 62
     2
100
AcDbLine
 10
582.4999635
 20
700.0
 30
0.0
 11
817.4999595000003
 21
700.0
 31
0.0
  0
INSERT
  5
175
330
16F
100
AcDbEntity
  8
Ｓ_１_１
 62
     2
100
AcDbBlockReference
  2
EX_NORM
 10
567.4999635
 20
700.0
 30
0.0
 41
15.0
 42
15.0
 43
15.0
 50
180.0
  0
INSERT
  5
176
330
16F
100
AcDbEntity
  8
Ｓ_１_１
 62
     2
100
AcDbBlockReference
  2
EX_NORM
 10
832.4999595000003
 20
700.0
 30
0.0
 41
15.0
 42
15.0
 43
15.0
  0
MTEXT
  5
177
330
16F
100
AcDbEntity
  8
Ｓ_１_１
 62
     2
100
AcDbMText
 10
699.9999615000002
 20
713.75
 30
0.0
 40
17.3145207852194
 41
0.0
 71
     5
 72
     1
  1
Tr265×6
  7
EXCADDIM1
  0
POINT
  5
178
330
16F
100
AcDbEntity
  8
DEFPOINTS
 62
     0
100
AcDbPoint
 10
567.4999635
 20
551.000016
 30
0.0
  0
POINT
  5
179
330
16F
100
AcDbEntity
  8
DEFPOINTS
 62
     0
100
AcDbPoint
 10
832.4999595000003
 20
551.000016
 30
0.0
  0
POINT
  5
17A
330
16F
100
AcDbEntity
  8
DEFPOINTS
 62
     0
100
AcDbPoint
 10
832.4999595000003
 20
700.0
 30
0.0
  0
ENDBLK
  5
171
330
16F
100
AcDbEntity
  8
0
100
AcDbBlockEnd
  0
BLOCK
  5
17D
330
17C
100
AcDbEntity
  8
0
100
AcDbBlockBegin
  2
*D22
 70
     1
 10
0.0
 20
0.0
 30
0.0
  3
*D22
  1

  0
LINE
  5
17F
330
17C
100
AcDbEntity
  8
Ｓ_１_１
  6
CONTINUOUS
 62
     2
100
AcDbLine
 10
490.4999975
 20
244.9999999999999
 30
0.0
 11
309.9999615000001
 21
244.9999999999999
 31
0.0
  0
LINE
  5
180
330
17C
100
AcDbEntity
  8
Ｓ_１_１
  6
CONTINUOUS
 62
     2
100
AcDbLine
 10
495.4999975
 20
605.0000329999998
 30
0.0
 11
309.9999615000001
 21
605.0000329999998
 31
0.0
  0
LINE
  5
181
330
17C
100
AcDbEntity
  8
Ｓ_１_１
  6
CONTINUOUS
 62
     2
100
AcDbLine
 10
314.9999615000001
 20
259.9999999999999
 30
0.0
 11
314.9999615000001
 21
590.0000329999998
 31
0.0
  0
INSERT
  5
182
330
17C
100
AcDbEntity
  8
Ｓ_１_１
 62
     2
100
AcDbBlockReference
  2
EX_NORM
 10
314.9999615000001
 20
244.9999999999999
 30
0.0
 41
15.0
 42
15.0
 43
15.0
 50
270.0
  0
INSERT
  5
183
330
17C
100
AcDbEntity
  8
Ｓ_１_１
 62
     2
100
AcDbBlockReference
  2
EX_NORM
 10
314.9999615000001
 20
605.0000329999998
 30
0.0
 41
15.0
 42
15.0
 43
15.0
 50
90.0
  0
MTEXT
  5
184
330
17C
100
AcDbEntity
  8
Ｓ_１_１
 62
     2
100
AcDbMText
 10
301.2499615000002
 20
425.0000164999998
 30
0.0
 40
17.3145207852194
 41
0.0
 71
     5
 72
     1
  1
360
  7
EXCADDIM1
 11
0.0
 21
1.0
 31
0.0
  0
POINT
  5
185
330
17C
100
AcDbEntity
  8
DEFPOINTS
 62
     0
100
AcDbPoint
 10
497.9999975
 20
244.9999999999999
 30
0.0
  0
POINT
  5
186
330
17C
100
AcDbEntity
  8
DEFPOINTS
 62
     0
100
AcDbPoint
 10
502.9999975
 20
605.0000329999998
 30
0.0
  0
POINT
  5
187
330
17C
100
AcDbEntity
  8
DEFPOINTS
 62
     0
100
AcDbPoint
 10
314.9999615000001
 20
605.0000329999998
 30
0.0
  0
ENDBLK
  5
17E
330
17C
100
AcDbEntity
  8
0
100
AcDbBlockEnd
  0
BLOCK
  5
18A
330
189
100
AcDbEntity
  8
0
100
AcDbBlockBegin
  2
*D23
 70
     1
 10
0.0
 20
0.0
 30
0.0
  3
*D23
  1

  0
LINE
  5
18C
330
189
100
AcDbEntity
  8
Ｓ_１_１
  6
CONTINUOUS
 62
     2
100
AcDbLine
 10
761.2676725
 20
344.999998
 30
0.0
 11
1019.9999615
 21
344.999998
 31
0.0
  0
LINE
  5
18D
330
189
100
AcDbEntity
  8
Ｓ_１_１
  6
CONTINUOUS
 62
     2
100
AcDbLine
 10
909.5000025000002
 20
244.9999999999999
 30
0.0
 11
1019.9999615
 21
244.9999999999999
 31
0.0
  0
LINE
  5
18E
330
189
100
AcDbEntity
  8
Ｓ_１_１
  6
CONTINUOUS
 62
     2
100
AcDbLine
 10
1014.9999615
 20
329.999998
 30
0.0
 11
1014.9999615
 21
259.9999999999999
 31
0.0
  0
INSERT
  5
18F
330
189
100
AcDbEntity
  8
Ｓ_１_１
 62
     2
100
AcDbBlockReference
  2
EX_NORM
 10
1014.9999615
 20
344.999998
 30
0.0
 41
15.0
 42
15.0
 43
15.0
 50
90.0
  0
INSERT
  5
190
330
189
100
AcDbEntity
  8
Ｓ_１_１
 62
     2
100
AcDbBlockReference
  2
EX_NORM
 10
1014.9999615
 20
244.9999999999999
 30
0.0
 41
15.0
 42
15.0
 43
15.0
 50
270.0
  0
MTEXT
  5
191
330
189
100
AcDbEntity
  8
Ｓ_１_１
 62
     2
100
AcDbMText
 10
1001.2499615
 20
294.9999989999998
 30
0.0
 40
17.3145207852194
 41
0.0
 71
     5
 72
     1
  1
100
  7
EXCADDIM1
 11
0.0
 21
1.0
 31
0.0
  0
POINT
  5
192
330
189
100
AcDbEntity
  8
DEFPOINTS
 62
     0
100
AcDbPoint
 10
753.7676725
 20
344.999998
 30
0.0
  0
POINT
  5
193
330
189
100
AcDbEntity
  8
DEFPOINTS
 62
     0
100
AcDbPoint
 10
902.0000025000002
 20
244.9999999999999
 30
0.0
  0
POINT
  5
194
330
189
100
AcDbEntity
  8
DEFPOINTS
 62
     0
100
AcDbPoint
 10
1014.9999615
 20
244.9999999999999
 30
0.0
  0
ENDBLK
  5
18B
330
189
100
AcDbEntity
  8
0
100
AcDbBlockEnd
  0
BLOCK
  5
197
330
196
100
AcDbEntity
  8
0
100
AcDbBlockBegin
  2
*D24
 70
     1
 10
0.0
 20
0.0
 30
0.0
  3
*D24
  1

  0
LINE
  5
199
330
196
100
AcDbEntity
  8
Ｓ_１_１
  6
CONTINUOUS
 62
     2
100
AcDbLine
 10
638.7322665
 20
394.999998
 30
0.0
 11
379.9999615
 21
394.9999980000001
 31
0.0
  0
LINE
  5
19A
330
196
100
AcDbEntity
  8
Ｓ_１_１
  6
CONTINUOUS
 62
     2
100
AcDbLine
 10
384.9999615
 20
259.9999999999999
 30
0.0
 11
384.9999615
 21
379.9999980000001
 31
0.0
  0
INSERT
  5
19B
330
196
100
AcDbEntity
  8
Ｓ_１_１
 62
     2
100
AcDbBlockReference
  2
EX_NORM
 10
384.9999615
 20
244.9999999999999
 30
0.0
 41
15.0
 42
15.0
 43
15.0
 50
270.0
  0
INSERT
  5
19C
330
196
100
AcDbEntity
  8
Ｓ_１_１
 62
     2
100
AcDbBlockReference
  2
EX_NORM
 10
384.9999615
 20
394.9999980000001
 30
0.0
 41
15.0
 42
15.0
 43
15.0
 50
90.0
  0
MTEXT
  5
19D
330
196
100
AcDbEntity
  8
Ｓ_１_１
 62
     2
100
AcDbMText
 10
371.2499615000002
 20
319.9999989999998
 30
0.0
 40
17.3145207852194
 41
0.0
 71
     5
 72
     1
  1
150
  7
EXCADDIM1
 11
0.0
 21
1.0
 31
0.0
  0
POINT
  5
19E
330
196
100
AcDbEntity
  8
DEFPOINTS
 62
     0
100
AcDbPoint
 10
497.9999965000002
 20
244.9999999999999
 30
0.0
  0
POINT
  5
19F
330
196
100
AcDbEntity
  8
DEFPOINTS
 62
     0
100
AcDbPoint
 10
646.2322665
 20
394.999998
 30
0.0
  0
POINT
  5
1A0
330
196
100
AcDbEntity
  8
DEFPOINTS
 62
     0
100
AcDbPoint
 10
384.9999615
 20
394.9999980000001
 30
0.0
  0
ENDBLK
  5
198
330
196
100
AcDbEntity
  8
0
100
AcDbBlockEnd
  0
BLOCK
  5
1A3
330
1A2
100
AcDbEntity
  8
0
100
AcDbBlockBegin
  2
*D25
 70
     1
 10
0.0
 20
0.0
 30
0.0
  3
*D25
  1

  0
LINE
  5
1A5
330
1A2
100
AcDbEntity
  8
Ｓ_１_１
  6
CONTINUOUS
 62
     2
100
AcDbLine
 10
409.9999665000002
 20
1162.5001431661
 30
0.0
 11
409.9999665000003
 21
1230.0
 31
0.0
  0
LINE
  5
1A6
330
1A2
100
AcDbEntity
  8
Ｓ_１_１
  6
CONTINUOUS
 62
     2
100
AcDbLine
 10
989.9999575000004
 20
1162.5001431661
 30
0.0
 11
989.9999575000004
 21
1230.0
 31
0.0
  0
LINE
  5
1A7
330
1A2
100
AcDbEntity
  8
Ｓ_１_１
  6
CONTINUOUS
 62
     2
100
AcDbLine
 10
424.9999665000003
 20
1225.0
 30
0.0
 11
974.9999575000004
 21
1225.0
 31
0.0
  0
INSERT
  5
1A8
330
1A2
100
AcDbEntity
  8
Ｓ_１_１
 62
     2
100
AcDbBlockReference
  2
EX_NORM
 10
409.9999665000003
 20
1225.0
 30
0.0
 41
15.0
 42
15.0
 43
15.0
 50
180.0
  0
INSERT
  5
1A9
330
1A2
100
AcDbEntity
  8
Ｓ_１_１
 62
     2
100
AcDbBlockReference
  2
EX_NORM
 10
989.9999575000004
 20
1225.0
 30
0.0
 41
15.0
 42
15.0
 43
15.0
  0
MTEXT
  5
1AA
330
1A2
100
AcDbEntity
  8
Ｓ_１_１
 62
     2
100
AcDbMText
 10
699.9999620000003
 20
1238.75
 30
0.0
 40
17.3145207852194
 41
0.0
 71
     5
 72
     1
  1
580
  7
EXCADDIM1
  0
POINT
  5
1AB
330
1A2
100
AcDbEntity
  8
DEFPOINTS
 62
     0
100
AcDbPoint
 10
409.9999665000002
 20
1155.0001431661
 30
0.0
  0
POINT
  5
1AC
330
1A2
100
AcDbEntity
  8
DEFPOINTS
 62
     0
100
AcDbPoint
 10
989.9999575000004
 20
1155.0001431661
 30
0.0
  0
POINT
  5
1AD
330
1A2
100
AcDbEntity
  8
DEFPOINTS
 62
     0
100
AcDbPoint
 10
989.9999575000004
 20
1225.0
 30
0.0
  0
ENDBLK
  5
1A4
330
1A2
100
AcDbEntity
  8
0
100
AcDbBlockEnd
  0
BLOCK
  5
1B0
330
1AF
100
AcDbEntity
  8
0
100
AcDbBlockBegin
  2
*D26
 70
     1
 10
0.0
 20
0.0
 30
0.0
  3
*D26
  1

  0
LINE
  5
1B2
330
1AF
100
AcDbEntity
  8
Ｓ_１_１
  6
CONTINUOUS
 62
     2
100
AcDbLine
 10
1295.4999585
 20
244.9999999999999
 30
0.0
 11
1219.9999615
 21
244.9999999999999
 31
0.0
  0
LINE
  5
1B3
330
1AF
100
AcDbEntity
  8
Ｓ_１_１
  6
CONTINUOUS
 62
     2
100
AcDbLine
 10
1472.4999275
 20
424.999997
 30
0.0
 11
1219.9999615
 21
424.9999970000001
 31
0.0
  0
LINE
  5
1B4
330
1AF
100
AcDbEntity
  8
Ｓ_１_１
  6
CONTINUOUS
 62
     2
100
AcDbLine
 10
1224.9999615
 20
259.9999999999999
 30
0.0
 11
1224.9999615
 21
409.9999970000001
 31
0.0
  0
INSERT
  5
1B5
330
1AF
100
AcDbEntity
  8
Ｓ_１_１
 62
     2
100
AcDbBlockReference
  2
EX_NORM
 10
1224.9999615
 20
244.9999999999999
 30
0.0
 41
15.0
 42
15.0
 43
15.0
 50
270.0
  0
INSERT
  5
1B6
330
1AF
100
AcDbEntity
  8
Ｓ_１_１
 62
     2
100
AcDbBlockReference
  2
EX_NORM
 10
1224.9999615
 20
424.9999970000001
 30
0.0
 41
15.0
 42
15.0
 43
15.0
 50
90.0
  0
MTEXT
  5
1B7
330
1AF
100
AcDbEntity
  8
Ｓ_１_１
 62
     2
100
AcDbMText
 10
1211.2499615
 20
334.9999984999998
 30
0.0
 40
17.3145207852194
 41
0.0
 71
     5
 72
     1
  1
180
  7
EXCADDIM1
 11
0.0
 21
1.0
 31
0.0
  0
POINT
  5
1B8
330
1AF
100
AcDbEntity
  8
DEFPOINTS
 62
     0
100
AcDbPoint
 10
1302.9999585
 20
244.9999999999999
 30
0.0
  0
POINT
  5
1B9
330
1AF
100
AcDbEntity
  8
DEFPOINTS
 62
     0
100
AcDbPoint
 10
1479.9999275
 20
424.999997
 30
0.0
  0
POINT
  5
1BA
330
1AF
100
AcDbEntity
  8
DEFPOINTS
 62
     0
100
AcDbPoint
 10
1224.9999615
 20
424.9999970000001
 30
0.0
  0
ENDBLK
  5
1B1
330
1AF
100
AcDbEntity
  8
0
100
AcDbBlockEnd
  0
BLOCK
  5
7A7
330
7A6
100
AcDbEntity
  8
0
100
AcDbBlockBegin
  2
*D27
 70
     1
 10
0.0
 20
0.0
 30
0.0
  3
*D27
  1

  0
LINE
  5
7A9
330
7A6
100
AcDbEntity
  8
Ｓ_１_１
  6
CONTINUOUS
 62
     2
100
AcDbLine
 10
645.9771458179496
 20
848.6213985102285
 30
0.0
 11
638.0517282308862
 21
803.6741234396809
 31
0.0
  0
LINE
  5
7AA
330
7A6
100
AcDbEntity
  8
Ｓ_１_１
  6
CONTINUOUS
 62
     2
100
AcDbLine
 10
699.9999614999995
 20
932.5001471661
 30
0.0
 11
699.9999614999991
 21
798.2543551127197
 31
0.0
  0
ARC
  5
7AB
330
7A6
100
AcDbEntity
  8
Ｓ_１_１
  6
CONTINUOUS
 62
     2
100
AcDbCircle
 10
699.9999614999999
 20
1154.999999999962
 30
0.0
 40
351.7456448872418
100
AcDbArc
 50
262.4435319030496
 51
267.5564677473249
  0
INSERT
  5
7AC
330
7A6
100
AcDbEntity
  8
Ｓ_１_１
 62
     2
100
AcDbBlockReference
  2
EX_NORM
 10
638.9199691492679
 20
808.5981621994439
 30
0.0
 41
15.0
 42
15.0
 43
15.0
 50
171.2217657767122
  0
INSERT
  5
7AD
330
7A6
100
AcDbEntity
  8
Ｓ_１_１
 62
     2
100
AcDbBlockReference
  2
EX_NORM
 10
699.9999614999991
 20
803.2543551127198
 30
0.0
 41
15.0
 42
15.0
 43
15.0
 50
358.7782338736624
  0
MTEXT
  5
7AE
330
7A6
100
AcDbEntity
  8
Ｓ_１_１
 62
     2
100
AcDbMText
 10
670.5416989970587
 20
818.2905306750697
 30
0.0
 40
17.3145207852194
 41
0.0
 71
     5
 72
     1
  1
10%%d
  7
EXCADDIM1
 11
0.9961946978258284
 21
-0.08715574578710551
 31
0.0
  0
POINT
  5
7AF
330
7A6
100
AcDbEntity
  8
DEFPOINTS
 62
     0
100
AcDbPoint
 10
699.9999614999999
 20
1154.999999999962
 30
0.0
  0
POINT
  5
7B0
330
7A6
100
AcDbEntity
  8
DEFPOINTS
 62
     0
100
AcDbPoint
 10
647.2795071955221
 20
856.0074566498729
 30
0.0
  0
POINT
  5
7B1
330
7A6
100
AcDbEntity
  8
DEFPOINTS
 62
     0
100
AcDbPoint
 10
699.9999614999995
 20
940.0001471661
 30
0.0
  0
POINT
  5
7B2
330
7A6
100
AcDbEntity
  8
DEFPOINTS
 62
     0
100
AcDbPoint
 10
659.164783132929
 20
805.6327334953975
 30
0.0
  0
ENDBLK
  5
7A8
330
7A6
100
AcDbEntity
  8
0
100
AcDbBlockEnd
  0
ENDSEC
  0
SECTION
  2
ENTITIES
  0
LINE
  5
D4
330
1F
100
AcDbEntity
  8
図面枠
  6
CONTINUOUS
 62
     5
100
AcDbLine
 10
50.0
 20
50.0
 30
0.0
 11
2050.0
 21
50.0
 31
0.0
  0
LINE
  5
D5
330
1F
100
AcDbEntity
  8
図面枠
  6
CONTINUOUS
 62
     5
100
AcDbLine
 10
2050.0
 20
50.0
 30
0.0
 11
2050.0
 21
1435.0
 31
0.0
  0
LINE
  5
D6
330
1F
100
AcDbEntity
  8
図面枠
  6
CONTINUOUS
 62
     5
100
AcDbLine
 10
2050.0
 20
1435.0
 30
0.0
 11
50.00000000000026
 21
1435.0
 31
0.0
  0
LINE
  5
D7
330
1F
100
AcDbEntity
  8
図面枠
  6
CONTINUOUS
 62
     5
100
AcDbLine
 10
50.00000000000026
 20
1435.0
 30
0.0
 11
50.0
 21
50.0
 31
0.0
  0
LINE
  5
D8
330
1F
100
AcDbEntity
  8
図面枠
  6
CONTINUOUS
 62
     3
100
AcDbLine
 10
75.00000000000007
 20
1410.0
 30
0.0
 11
75.00000000000007
 21
1365.0
 31
0.0
  0
TEXT
  5
DA
330
1F
100
AcDbEntity
  8
図面枠
  6
CONTINUOUS
 62
     4
100
AcDbText
 10
90.00000000000016
 20
1376.71875
 30
0.0
 40
23.08602771362587
  1
5000kN75ストローク補修用油圧ジャッキ
 41
0.9992307692307691
  7
EXCADTTF1
 72
     5
 11
630.0000000000001
 21
1376.71875
 31
0.0
100
AcDbText
  0
LINE
  5
DB
330
1F
100
AcDbEntity
  8
図面枠
  6
CONTINUOUS
 62
     3
100
AcDbLine
 10
645.0000000000003
 20
1410.0
 30
0.0
 11
645.0000000000003
 21
1365.0
 31
0.0
  0
LINE
  5
DC
330
1F
100
AcDbEntity
  8
図面枠
  6
CONTINUOUS
 62
     3
100
AcDbLine
 10
75.00000000000007
 20
1365.0
 30
0.0
 11
645.0000000000003
 21
1365.0
 31
0.0
  0
LINE
  5
DD
330
1F
100
AcDbEntity
  8
図面枠
  6
CONTINUOUS
 62
     3
100
AcDbLine
 10
75.00000000000007
 20
1410.0
 30
0.0
 11
645.0000000000003
 21
1410.0
 31
0.0
  0
LINE
  5
DE
330
1F
100
AcDbEntity
  8
図面枠
  6
CONTINUOUS
 62
     3
100
AcDbLine
 10
2025.0
 20
120.0
 30
0.0
 11
2025.0
 21
75.0
 31
0.0
  0
LINE
  5
DF
330
1F
100
AcDbEntity
  8
図面枠
  6
CONTINUOUS
 62
     3
100
AcDbLine
 10
1845.0
 20
120.0
 30
0.0
 11
1845.0
 21
75.0
 31
0.0
  0
LINE
  5
E0
330
1F
100
AcDbEntity
  8
図面枠
  6
CONTINUOUS
 62
     3
100
AcDbLine
 10
1845.0
 20
120.0
 30
0.0
 11
2025.0
 21
120.0
 31
0.0
  0
LINE
  5
E1
330
1F
100
AcDbEntity
  8
図面枠
  6
CONTINUOUS
 62
     3
100
AcDbLine
 10
1845.0
 20
74.99999999999999
 30
0.0
 11
2025.0
 21
75.0
 31
0.0
  0
TEXT
  5
E2
330
1F
100
AcDbEntity
  8
図面枠
  6
CONTINUOUS
 62
     4
100
AcDbText
 10
1860.0
 20
86.71875
 30
0.0
 40
23.08602771362587
  1
MJ-50075-U
 41
0.9992307692307693
  7
EXCADTTF1
 72
     5
 11
2010.0
 21
86.71875
 31
0.0
100
AcDbText
  0
TEXT
  5
E3
330
1F
100
AcDbEntity
  8
図面枠
  6
CONTINUOUS
 62
     4
100
AcDbText
 10
1935.0
 20
1356.9140625
 30
0.0
 40
17.3145207852194
  1
kN
 41
0.999230769230769
  7
EXCADTTF1
 72
     5
 11
1957.5
 21
1356.9140625
 31
0.0
100
AcDbText
  0
TEXT
  5
E4
330
1F
100
AcDbEntity
  8
図面枠
  6
CONTINUOUS
 62
     4
100
AcDbText
 10
1935.0
 20
1266.9140625
 30
0.0
 40
17.3145207852194
  1
mm
 41
0.999230769230769
  7
EXCADTTF1
 72
     5
 11
1957.5
 21
1266.9140625
 31
0.0
100
AcDbText
  0
TEXT
  5
E5
330
1F
100
AcDbEntity
  8
図面枠
  6
CONTINUOUS
 62
     4
100
AcDbText
 10
1935.0
 20
1296.9140625
 30
0.0
 40
17.3145207852194
  1
mm
 41
0.999230769230769
  7
EXCADTTF1
 72
     5
 11
1957.5
 21
1296.9140625
 31
0.0
100
AcDbText
  0
TEXT
  5
E6
330
1F
100
AcDbEntity
  8
図面枠
  6
CONTINUOUS
 62
     4
100
AcDbText
 10
1935.0
 20
1326.9140625
 30
0.0
 40
17.3145207852194
  1
mm
 41
0.999230769230769
  7
EXCADTTF1
 72
     5
 11
1957.5
 21
1326.9140625
 31
0.0
100
AcDbText
  0
TEXT
  5
E7
330
1F
100
AcDbEntity
  8
図面枠
  6
CONTINUOUS
 62
     4
100
AcDbText
 10
1935.0
 20
1116.9140625
 30
0.0
 40
17.3145207852194
  1
MPa
 41
0.9992307692307689
  7
EXCADTTF1
 72
     5
 11
1968.75
 21
1116.9140625
 31
0.0
100
AcDbText
  0
TEXT
  5
E8
330
1F
100
AcDbEntity
  8
図面枠
  6
CONTINUOUS
 62
     4
100
AcDbText
 10
1935.0
 20
1176.9140625
 30
0.0
 40
17.3145207852194
  1
mm
 41
0.999230769230769
  7
EXCADTTF1
 72
     5
 11
1957.5
 21
1176.9140625
 31
0.0
100
AcDbText
  0
TEXT
  5
E9
330
1F
100
AcDbEntity
  8
図面枠
  6
CONTINUOUS
 62
     4
100
AcDbText
 10
1935.0
 20
1206.9140625
 30
0.0
 40
17.3145207852194
  1
mm
 41
0.999230769230769
  7
EXCADTTF1
 72
     5
 11
1957.5
 21
1206.9140625
 31
0.0
100
AcDbText
  0
TEXT
  5
EA
330
1F
100
AcDbEntity
  8
図面枠
  6
CONTINUOUS
 62
     4
100
AcDbText
 10
1935.0
 20
1236.9140625
 30
0.0
 40
17.3145207852194
  1
mm
 41
0.999230769230769
  7
EXCADTTF1
 72
     5
 11
1957.5
 21
1236.9140625
 31
0.0
100
AcDbText
  0
TEXT
  5
EB
330
1F
100
AcDbEntity
  8
図面枠
  6
CONTINUOUS
 62
     4
100
AcDbText
 10
1935.0
 20
1056.9140625
 30
0.0
 40
17.3145207852194
  1
kg
 41
0.999230769230769
  7
EXCADTTF1
 72
     5
 11
1957.5
 21
1056.9140625
 31
0.0
100
AcDbText
  0
LINE
  5
EC
330
1F
100
AcDbEntity
  8
図面枠
  6
CONTINUOUS
 62
     3
100
AcDbLine
 10
2025.0
 20
1410.0
 30
0.0
 11
2025.0
 21
990.0
 31
0.0
  0
LINE
  5
ED
330
1F
100
AcDbEntity
  8
図面枠
  6
CONTINUOUS
 62
     2
100
AcDbLine
 10
1925.0
 20
1380.0
 30
0.0
 11
1925.0
 21
1050.0
 31
0.0
  0
TEXT
  5
EE
330
1F
100
AcDbEntity
  8
図面枠
  6
CONTINUOUS
 62
     4
100
AcDbText
 10
1870.0
 20
1356.9140625
 30
0.0
 40
17.3145207852194
  1
5000
 41
0.999230769230769
  7
EXCADTTF1
 72
     5
 11
1915.0
 21
1356.9140625
 31
0.0
100
AcDbText
  0
TEXT
  5
EF
330
1F
100
AcDbEntity
  8
図面枠
  6
CONTINUOUS
 62
     4
100
AcDbText
 10
1892.5
 20
1326.9140625
 30
0.0
 40
17.3145207852194
  1
75
 41
0.999230769230769
  7
EXCADTTF1
 72
     5
 11
1915.0
 21
1326.9140625
 31
0.0
100
AcDbText
  0
TEXT
  5
F0
330
1F
100
AcDbEntity
  8
図面枠
  6
CONTINUOUS
 62
     4
100
AcDbText
 10
1881.25
 20
1296.9140625
 30
0.0
 40
17.3145207852194
  1
360
 41
0.9992307692307689
  7
EXCADTTF1
 72
     5
 11
1915.0
 21
1296.9140625
 31
0.0
100
AcDbText
  0
TEXT
  5
F1
330
1F
100
AcDbEntity
  8
図面枠
  6
CONTINUOUS
 62
     4
100
AcDbText
 10
1881.25
 20
1266.9140625
 30
0.0
 40
17.3145207852194
  1
410
 41
0.9992307692307689
  7
EXCADTTF1
 72
     5
 11
1915.0
 21
1266.9140625
 31
0.0
100
AcDbText
  0
TEXT
  5
F2
330
1F
100
AcDbEntity
  8
図面枠
  6
CONTINUOUS
 62
     4
100
AcDbText
 10
1881.25
 20
1236.9140625
 30
0.0
 40
17.3145207852194
  1
325
 41
0.9992307692307689
  7
EXCADTTF1
 72
     5
 11
1915.0
 21
1236.9140625
 31
0.0
100
AcDbText
  0
TEXT
  5
F3
330
1F
100
AcDbEntity
  8
図面枠
  6
CONTINUOUS
 62
     4
100
AcDbText
 10
1881.25
 20
1206.9140625
 30
0.0
 40
17.3145207852194
  1
150
 41
0.9992307692307689
  7
EXCADTTF1
 72
     5
 11
1915.0
 21
1206.9140625
 31
0.0
100
AcDbText
  0
TEXT
  5
F4
330
1F
100
AcDbEntity
  8
図面枠
  6
CONTINUOUS
 62
     4
100
AcDbText
 10
1881.25
 20
1176.9140625
 30
0.0
 40
17.3145207852194
  1
105
 41
0.9992307692307689
  7
EXCADTTF1
 72
     5
 11
1915.0
 21
1176.9140625
 31
0.0
100
AcDbText
  0
TEXT
  5
F5
330
1F
100
AcDbEntity
  8
図面枠
  6
CONTINUOUS
 62
     4
100
AcDbText
 10
1870.05
 20
1116.9140625
 30
0.0
 40
17.3145207852194
  1
67.3
 41
0.999230769230769
  7
EXCADTTF1
 72
     5
 11
1915.05
 21
1116.9140625
 31
0.0
100
AcDbText
  0
LINE
  5
F6
330
1F
100
AcDbEntity
  8
図面枠
  6
CONTINUOUS
 62
     2
100
AcDbLine
 10
1825.0
 20
1380.0
 30
0.0
 11
1825.0
 21
1050.0
 31
0.0
  0
TEXT
  5
F7
330
1F
100
AcDbEntity
  8
図面枠
  6
CONTINUOUS
 62
     4
100
AcDbText
 10
1935.0
 20
1146.9140625
 30
0.0
 40
17.3145207852194
  1
cm
 41
0.999230769230769
  7
EXCADTTF1
 72
     5
 11
1957.5
 21
1146.9140625
 31
0.0
100
AcDbText
  0
TEXT
  5
F8
330
1F
100
AcDbEntity
  8
図面枠
  6
CONTINUOUS
 62
     4
100
AcDbText
 10
1950.75
 20
1157.54882825911
 30
0.0
 40
7.791533619463674
  1
2
 41
0.9992308633483801
  7
EXCADTTF1
 72
     5
 11
1955.8125
 21
1157.54882825911
 31
0.0
100
AcDbText
  0
TEXT
  5
F9
330
1F
100
AcDbEntity
  8
図面枠
  6
CONTINUOUS
 62
     4
100
AcDbText
 10
1881.25
 20
1146.9140625
 30
0.0
 40
17.3145207852194
  1
743
 41
0.9992307692307689
  7
EXCADTTF1
 72
     5
 11
1915.0
 21
1146.9140625
 31
0.0
100
AcDbText
  0
TEXT
  5
FA
330
1F
100
AcDbEntity
  8
図面枠
  6
CONTINUOUS
 62
     4
100
AcDbText
 10
1535.0
 20
1356.9140625
 30
0.0
 40
17.3145207852194
  1
能力
 41
0.999230769230769
  7
EXCADTTF1
 72
     5
 11
1580.0
 21
1356.9140625
 31
0.0
100
AcDbText
  0
TEXT
  5
FB
330
1F
100
AcDbEntity
  8
図面枠
  6
CONTINUOUS
 62
     4
100
AcDbText
 10
1535.0
 20
1296.9140625
 30
0.0
 40
17.3145207852194
  1
最低機械高
 41
0.9992307692307691
  7
EXCADTTF1
 72
     5
 11
1647.5
 21
1296.9140625
 31
0.0
100
AcDbText
  0
TEXT
  5
FC
330
1F
100
AcDbEntity
  8
図面枠
  6
CONTINUOUS
 62
     4
100
AcDbText
 10
1535.0
 20
1326.9140625
 30
0.0
 40
17.3145207852194
  1
ストローク
 41
0.9992307692307691
  7
EXCADTTF1
 72
     5
 11
1647.5
 21
1326.9140625
 31
0.0
100
AcDbText
  0
TEXT
  5
FD
330
1F
100
AcDbEntity
  8
図面枠
  6
CONTINUOUS
 62
     4
100
AcDbText
 10
1535.0
 20
1116.9140625
 30
0.0
 40
17.3145207852194
  1
最高使用圧力
 41
0.9992307692307691
  7
EXCADTTF1
 72
     5
 11
1670.0
 21
1116.9140625
 31
0.0
100
AcDbText
  0
TEXT
  5
FE
330
1F
100
AcDbEntity
  8
図面枠
  6
CONTINUOUS
 62
     4
100
AcDbText
 10
1535.0
 20
1146.9140625
 30
0.0
 40
17.3145207852194
  1
受圧面積
 41
0.999230769230769
  7
EXCADTTF1
 72
     5
 11
1625.0
 21
1146.9140625
 31
0.0
100
AcDbText
  0
TEXT
  5
FF
330
1F
100
AcDbEntity
  8
図面枠
  6
CONTINUOUS
 62
     4
100
AcDbText
 10
1535.0
 20
1266.9140625
 30
0.0
 40
17.3145207852194
  1
シリンダ外径
 41
0.9992307692307691
  7
EXCADTTF1
 72
     5
 11
1670.0
 21
1266.9140625
 31
0.0
100
AcDbText
  0
TEXT
  5
100
330
1F
100
AcDbEntity
  8
図面枠
  6
CONTINUOUS
 62
     4
100
AcDbText
 10
1535.0
 20
1236.9140625
 30
0.0
 40
17.3145207852194
  1
押しピストン径
 41
0.9992307692307693
  7
EXCADTTF1
 72
     5
 11
1692.5
 21
1236.9140625
 31
0.0
100
AcDbText
  0
TEXT
  5
101
330
1F
100
AcDbEntity
  8
図面枠
  6
CONTINUOUS
 62
     4
100
AcDbText
 10
1535.0
 20
1206.9140625
 30
0.0
 40
17.3145207852194
  1
戻しピストン径
 41
0.9992307692307693
  7
EXCADTTF1
 72
     5
 11
1692.5
 21
1206.9140625
 31
0.0
100
AcDbText
  0
TEXT
  5
102
330
1F
100
AcDbEntity
  8
図面枠
  6
CONTINUOUS
 62
     4
100
AcDbText
 10
1535.0
 20
1176.9140625
 30
0.0
 40
17.3145207852194
  1
インナーロッド径
 41
0.9992307692307693
  7
EXCADTTF1
 72
     5
 11
1715.0
 21
1176.9140625
 31
0.0
100
AcDbText
  0
TEXT
  5
103
330
1F
100
AcDbEntity
  8
図面枠
  6
CONTINUOUS
 62
     4
100
AcDbText
 10
1535.0
 20
1056.9140625
 30
0.0
 40
17.3145207852194
  1
重量
 41
0.999230769230769
  7
EXCADTTF1
 72
     5
 11
1580.0
 21
1056.9140625
 31
0.0
100
AcDbText
  0
TEXT
  5
104
330
1F
100
AcDbEntity
  8
図面枠
  6
CONTINUOUS
 62
     4
100
AcDbText
 10
1535.0
 20
1086.9140625
 30
0.0
 40
17.3145207852194
  1
所要油量
 41
0.999230769230769
  7
EXCADTTF1
 72
     5
 11
1625.0
 21
1086.9140625
 31
0.0
100
AcDbText
  0
TEXT
  5
105
330
1F
100
AcDbEntity
  8
図面枠
  6
CONTINUOUS
 62
     4
100
AcDbText
 10
1535.0
 20
1026.9140625
 30
0.0
 40
17.3145207852194
  1
備考
 41
0.999230769230769
  7
EXCADTTF1
 72
     5
 11
1580.0
 21
1026.9140625
 31
0.0
100
AcDbText
  0
LINE
  5
106
330
1F
100
AcDbEntity
  8
図面枠
  6
CONTINUOUS
 62
     3
100
AcDbLine
 10
1525.0
 20
1410.0
 30
0.0
 11
1525.0
 21
990.0
 31
0.0
  0
TEXT
  5
107
330
1F
100
AcDbEntity
  8
図面枠
  6
CONTINUOUS
 62
     4
100
AcDbText
 10
1535.0
 20
996.9140625
 30
0.0
 40
17.3145207852194
  1
ユニバーサルヘッド振り角は、±3゜(±5%%%）
 41
0.9992307692307688
  7
EXCADTTF1
 72
     5
 11
1985.0
 21
996.9140625
 31
0.0
100
AcDbText
  0
TEXT
  5
108
330
1F
100
AcDbEntity
  8
図面枠
  6
CONTINUOUS
 62
     4
100
AcDbText
 10
1718.75
 20
1386.9140625
 30
0.0
 40
17.3145207852194
  1
仕　　　様
 41
0.9992307692307691
  7
EXCADTTF1
 72
     5
 11
1831.25
 21
1386.9140625
 31
0.0
100
AcDbText
  0
LINE
  5
109
330
1F
100
AcDbEntity
  8
図面枠
  6
CONTINUOUS
 62
     3
100
AcDbLine
 10
1525.0
 20
990.0
 30
0.0
 11
2025.0
 21
990.0
 31
0.0
  0
LINE
  5
10A
330
1F
100
AcDbEntity
  8
図面枠
  6
CONTINUOUS
 62
     3
100
AcDbLine
 10
1525.0
 20
1410.0
 30
0.0
 11
2025.0
 21
1410.0
 31
0.0
  0
LINE
  5
10B
330
1F
100
AcDbEntity
  8
図面枠
  6
CONTINUOUS
 62
     3
100
AcDbLine
 10
1525.0
 20
1380.0
 30
0.0
 11
2025.0
 21
1380.0
 31
0.0
  0
LINE
  5
10C
330
1F
100
AcDbEntity
  8
図面枠
  6
CONTINUOUS
 62
     2
100
AcDbLine
 10
1525.0
 20
1350.0
 30
0.0
 11
2025.0
 21
1350.0
 31
0.0
  0
LINE
  5
10D
330
1F
100
AcDbEntity
  8
図面枠
  6
CONTINUOUS
 62
     2
100
AcDbLine
 10
1525.0
 20
1320.0
 30
0.0
 11
2025.0
 21
1320.0
 31
0.0
  0
LINE
  5
10E
330
1F
100
AcDbEntity
  8
図面枠
  6
CONTINUOUS
 62
     2
100
AcDbLine
 10
1525.0
 20
1290.0
 30
0.0
 11
2025.0
 21
1290.0
 31
0.0
  0
LINE
  5
10F
330
1F
100
AcDbEntity
  8
図面枠
  6
CONTINUOUS
 62
     2
100
AcDbLine
 10
1525.0
 20
1260.0
 30
0.0
 11
2025.0
 21
1260.0
 31
0.0
  0
LINE
  5
110
330
1F
100
AcDbEntity
  8
図面枠
  6
CONTINUOUS
 62
     2
100
AcDbLine
 10
1525.0
 20
1200.0
 30
0.0
 11
2025.0
 21
1200.0
 31
0.0
  0
LINE
  5
111
330
1F
100
AcDbEntity
  8
図面枠
  6
CONTINUOUS
 62
     2
100
AcDbLine
 10
1525.0
 20
1170.0
 30
0.0
 11
2025.0
 21
1170.0
 31
0.0
  0
LINE
  5
112
330
1F
100
AcDbEntity
  8
図面枠
  6
CONTINUOUS
 62
     2
100
AcDbLine
 10
1525.0
 20
1140.0
 30
0.0
 11
2025.0
 21
1140.0
 31
0.0
  0
LINE
  5
113
330
1F
100
AcDbEntity
  8
図面枠
  6
CONTINUOUS
 62
     2
100
AcDbLine
 10
1525.0
 20
1230.0
 30
0.0
 11
2025.0
 21
1230.0
 31
0.0
  0
LINE
  5
114
330
1F
100
AcDbEntity
  8
図面枠
  6
CONTINUOUS
 62
     2
100
AcDbLine
 10
1525.0
 20
1110.0
 30
0.0
 11
2025.0
 21
1110.0
 31
0.0
  0
LINE
  5
115
330
1F
100
AcDbEntity
  8
図面枠
  6
CONTINUOUS
 62
     2
100
AcDbLine
 10
1525.0
 20
1080.0
 30
0.0
 11
2025.0
 21
1080.0
 31
0.0
  0
LINE
  5
116
330
1F
100
AcDbEntity
  8
図面枠
  6
CONTINUOUS
 62
     2
100
AcDbLine
 10
1525.0
 20
1050.0
 30
0.0
 11
2025.0
 21
1050.0
 31
0.0
  0
TEXT
  5
117
330
1F
100
AcDbEntity
  8
図面枠
  6
CONTINUOUS
 62
     4
100
AcDbText
 10
1475.0
 20
905.6640625
 30
0.0
 40
17.3145207852194
  1
※）①ストロークエンドからの加圧はおやめ下さい。
 41
0.9992307692307688
  7
EXCADTTF1
 72
     5
 11
2015.0
 21
905.6640625
 31
0.0
100
AcDbText
  0
TEXT
  5
118
330
1F
100
AcDbEntity
  8
図面枠
  6
CONTINUOUS
 62
     4
100
AcDbText
 10
1475.0
 20
883.1640625
 30
0.0
 40
17.3145207852194
  1
　　
 41
0.999230769230769
  7
EXCADTTF1
 72
     5
 11
1520.0
 21
883.1640625
 31
0.0
100
AcDbText
  0
TEXT
  5
119
330
1F
100
AcDbEntity
  8
図面枠
  6
CONTINUOUS
 62
     4
100
AcDbText
 10
1475.0
 20
860.6640625
 30
0.0
 40
17.3145207852194
  1
　　②ストロークエンドにて安全ナットをロック
 41
0.9992307692307687
  7
EXCADTTF1
 72
     5
 11
1970.0
 21
860.6640625
 31
0.0
100
AcDbText
  0
TEXT
  5
11A
330
1F
100
AcDbEntity
  8
図面枠
  6
CONTINUOUS
 62
     4
100
AcDbText
 10
1475.0
 20
838.1640625
 30
0.0
 40
17.3145207852194
  1
　　　した場合、解放が困難になる場合があります。
 41
0.9992307692307688
  7
EXCADTTF1
 72
     5
 11
2015.0
 21
838.1640625
 31
0.0
100
AcDbText
  0
TEXT
  5
11B
330
1F
100
AcDbEntity
  8
図面枠
  6
CONTINUOUS
 62
     4
100
AcDbText
 10
1475.0
 20
793.1640625
 30
0.0
 40
17.3145207852194
  1
　　③出荷時にストロークエンド使用が出来ないよう
 41
0.9992307692307688
  7
EXCADTTF1
 72
     5
 11
2015.0
 21
793.1640625
 31
0.0
100
AcDbText
  0
TEXT
  5
11C
330
1F
100
AcDbEntity
  8
図面枠
  6
CONTINUOUS
 62
     4
100
AcDbText
 10
1475.0
 20
770.6640625
 30
0.0
 40
17.3145207852194
  1
　　　手動ポンプの油量を調整させていただく場合が
 41
0.9992307692307688
  7
EXCADTTF1
 72
     5
 11
2015.0
 21
770.6640625
 31
0.0
100
AcDbText
  0
TEXT
  5
11D
330
1F
100
AcDbEntity
  8
図面枠
  6
CONTINUOUS
 62
     4
100
AcDbText
 10
1475.0
 20
748.1640625
 30
0.0
 40
17.3145207852194
  1
　　　あります。
 41
0.9992307692307693
  7
EXCADTTF1
 72
     5
 11
1655.0
 21
748.1640625
 31
0.0
100
AcDbText
  0
TEXT
  5
11E
330
1F
100
AcDbEntity
  8
図面枠
  6
CONTINUOUS
 62
     4
100
AcDbText
 10
1935.0
 20
1086.9140625
 30
0.0
 40
17.3145207852194
  1
L
 41
0.999230769230769
  7
EXCADTTF1
 72
     5
 11
1946.25
 21
1086.9140625
 31
0.0
100
AcDbText
  0
TEXT
  5
11F
330
1F
100
AcDbEntity
  8
図面枠
  6
CONTINUOUS
 62
     4
100
AcDbText
 10
1881.25
 20
1086.9140625
 30
0.0
 40
17.3145207852194
  1
5.6
 41
0.9992307692307689
  7
EXCADTTF1
 72
     5
 11
1915.0
 21
1086.9140625
 31
0.0
100
AcDbText
  0
TEXT
  5
120
330
1F
100
AcDbEntity
  8
図面枠
  6
CONTINUOUS
 62
     4
100
AcDbText
 10
1858.75
 20
1056.9140625
 30
0.0
 40
17.3145207852194
  1
約330
 41
0.9992307692307691
  7
EXCADTTF1
 72
     5
 11
1915.0
 21
1056.9140625
 31
0.0
100
AcDbText
  0
DIMENSION
  5
122
330
1F
100
AcDbEntity
  8
Ｓ_１_１
  6
CONTINUOUS
 62
     2
100
AcDbDimension
  2
*D15
 10
720.4521685916404
 20
803.849453415788
 30
0.0
 11
729.4582554298099
 21
818.2905319991299
 31
0.0
 70
   165
  3
ISO-25
100
AcDb3PointAngularDimension
 13
699.9999467757632
 23
803.2543551127196
 33
0.0
 14
751.5431105
 24
862.6847201661001
 34
0.0
 15
699.9999614999999
 25
1155.0003731661
 35
0.0
1001
ACAD
1000
DSTYLE
1002
{
1070
   270
1070
     2
1070
     6
1000
EX_NORM
1070
     7
1000
EX_NORM
1070
    41
1040
15.0
1070
    42
1040
7.500000000000057
1070
    44
1040
4.999999999999998
1070
    73
1070
     0
1070
    74
1070
     0
1070
    75
1070
     1
1070
    76
1070
     0
1070
    77
1070
     1
1070
    78
1070
     8
1070
    79
1070
     2
1070
   140
1040
17.3145207852194
1070
   147
1040
0.0
1070
   173
1070
     1
1070
   176
1070
     2
1070
   177
1070
     2
1070
   178
1070
     2
1070
   179
1070
     2
1070
   271
1070
     2
1070
   277
1070
     2
1070
   279
1070
     2
1070
   280
1070
     0
1070
   287
1070
     5
1070
   340
1005
121
1002
}
  0
LINE
  5
130
330
1F
100
AcDbEntity
  8
Ｓ_１_１
  6
CONTINUOUS
 62
     2
100
AcDbLine
 10
699.9999521860462
 20
932.5001491660998
 30
0.0
 11
699.9999465664504
 21
798.2543532169282
 31
0.0
  0
DIMENSION
  5
131
330
1F
100
AcDbEntity
  8
Ｓ_１_１
  6
CONTINUOUS
 62
     2
100
AcDbDimension
  2
*D16
 10
349.9999615
 20
605.0000329999998
 30
0.0
 11
336.2499615000002
 21
577.5000329999998
 31
0.0
 70
   160
  3
ISO-25
100
AcDbAlignedDimension
 13
504.9999665000002
 23
550.0000329999999
 33
0.0
 14
502.9999975
 24
605.0000329999998
 34
0.0
 50
90.0
100
AcDbRotatedDimension
1001
ACAD
1000
DSTYLE
1002
{
1070
   270
1070
     2
1070
     6
1000
EX_NORM
1070
     7
1000
EX_NORM
1070
    41
1040
15.0
1070
    42
1040
7.5
1070
    44
1040
5.0
1070
    73
1070
     0
1070
    74
1070
     0
1070
    75
1070
     0
1070
    76
1070
     1
1070
    77
1070
     1
1070
    78
1070
     8
1070
   140
1040
17.3145207852194
1070
   147
1040
0.0
1070
   173
1070
     1
1070
   176
1070
     2
1070
   177
1070
     2
1070
   178
1070
     2
1070
   271
1070
     2
1070
   277
1070
     2
1070
   279
1070
     2
1070
   280
1070
     0
1070
   287
1070
     5
1070
   340
1005
121
1002
}
  0
DIMENSION
  5
13D
330
1F
100
AcDbEntity
  8
Ｓ_１_１
  6
CONTINUOUS
 62
     2
100
AcDbDimension
  2
*D17
 10
349.9999615000002
 20
550.0000329999999
 30
0.0
 11
336.2499615000002
 21
517.5000144999999
 31
0.0
 70
   160
  3
ISO-25
100
AcDbAlignedDimension
 13
497.9999975
 23
484.999996
 33
0.0
 14
504.9999665000002
 24
550.0000329999999
 34
0.0
 50
90.0
100
AcDbRotatedDimension
1001
ACAD
1000
DSTYLE
1002
{
1070
   270
1070
     2
1070
     6
1000
EX_NORM
1070
     7
1000
EX_NORM
1070
    41
1040
15.0
1070
    42
1040
7.5
1070
    44
1040
5.0
1070
    73
1070
     0
1070
    74
1070
     0
1070
    75
1070
     0
1070
    76
1070
     1
1070
    77
1070
     1
1070
    78
1070
     8
1070
   140
1040
17.3145207852194
1070
   147
1040
0.0
1070
   173
1070
     1
1070
   176
1070
     2
1070
   177
1070
     2
1070
   178
1070
     2
1070
   271
1070
     2
1070
   277
1070
     2
1070
   279
1070
     2
1070
   280
1070
     0
1070
   287
1070
     5
1070
   340
1005
121
1002
}
  0
DIMENSION
  5
149
330
1F
100
AcDbEntity
  8
Ｓ_１_１
  6
CONTINUOUS
 62
     2
100
AcDbDimension
  2
*D18
 10
349.9999615000002
 20
484.9999960000001
 30
0.0
 11
336.2499615000002
 21
364.9999979999999
 31
0.0
 70
   160
  3
ISO-25
100
AcDbAlignedDimension
 13
497.9999975
 23
244.9999999999999
 33
0.0
 14
497.9999975
 24
484.999996
 34
0.0
 50
90.0
100
AcDbRotatedDimension
1001
ACAD
1000
DSTYLE
1002
{
1070
   270
1070
     2
1070
     6
1000
EX_NORM
1070
     7
1000
EX_NORM
1070
    41
1040
15.0
1070
    42
1040
0.0
1070
    44
1040
0.0
1070
    73
1070
     0
1070
    74
1070
     0
1070
    75
1070
     1
1070
    76
1070
     1
1070
    77
1070
     1
1070
    78
1070
     8
1070
   140
1040
17.3145207852194
1070
   147
1040
0.0
1070
   173
1070
     1
1070
   176
1070
     2
1070
   177
1070
     2
1070
   178
1070
     2
1070
   271
1070
     2
1070
   277
1070
     2
1070
   279
1070
     2
1070
   280
1070
     0
1070
   287
1070
     5
1070
   340
1005
121
1002
}
  0
DIMENSION
  5
154
330
1F
100
AcDbEntity
  8
Ｓ_１_１
  6
CONTINUOUS
 62
     2
100
AcDbDimension
  2
*D19
 10
494.9999645000003
 20
173.427201
 30
0.0
 11
699.9999615000002
 21
187.177201
 31
0.0
 70
   160
  1
%%c410
  3
ISO-25
100
AcDbAlignedDimension
 13
904.9999585000002
 23
247.999993
 33
0.0
 14
494.9999645000003
 24
247.999993
 34
0.0
100
AcDbRotatedDimension
1001
ACAD
1000
DSTYLE
1002
{
1070
   270
1070
     2
1070
     6
1000
EX_NORM
1070
     7
1000
EX_NORM
1070
    41
1040
15.0
1070
    42
1040
7.5
1070
    44
1040
5.0
1070
    73
1070
     0
1070
    74
1070
     0
1070
    75
1070
     0
1070
    76
1070
     0
1070
    77
1070
     1
1070
    78
1070
     8
1070
   140
1040
17.3145207852194
1070
   147
1040
0.0
1070
   173
1070
     1
1070
   176
1070
     2
1070
   177
1070
     2
1070
   178
1070
     2
1070
   271
1070
     2
1070
   277
1070
     2
1070
   279
1070
     2
1070
   280
1070
     0
1070
   287
1070
     5
1070
   340
1005
121
1002
}
  0
DIMENSION
  5
161
330
1F
100
AcDbEntity
  8
Ｓ_１_１
  6
CONTINUOUS
 62
     2
100
AcDbDimension
  2
*D20
 10
899.9999585000002
 20
735.0000000000002
 30
0.0
 11
699.9999614999998
 21
748.7500000000002
 31
0.0
 70
   160
  1
%%c400
  3
ISO-25
100
AcDbAlignedDimension
 13
499.9999645000003
 23
602.0
 33
0.0
 14
899.9999585000002
 24
602.0
 34
0.0
100
AcDbRotatedDimension
1001
ACAD
1000
DSTYLE
1002
{
1070
   270
1070
     2
1070
     6
1000
EX_NORM
1070
     7
1000
EX_NORM
1070
    41
1040
15.0
1070
    42
1040
7.5
1070
    44
1040
5.0
1070
    73
1070
     0
1070
    74
1070
     0
1070
    75
1070
     0
1070
    76
1070
     0
1070
    77
1070
     1
1070
    78
1070
     8
1070
   140
1040
17.3145207852194
1070
   147
1040
0.0
1070
   173
1070
     1
1070
   176
1070
     2
1070
   177
1070
     2
1070
   178
1070
     2
1070
   271
1070
     2
1070
   277
1070
     2
1070
   279
1070
     2
1070
   280
1070
     0
1070
   287
1070
     5
1070
   340
1005
121
1002
}
  0
DIMENSION
  5
16E
330
1F
100
AcDbEntity
  8
Ｓ_１_１
  6
CONTINUOUS
 62
     2
100
AcDbDimension
  2
*D21
 10
832.4999595000003
 20
700.0
 30
0.0
 11
699.9999615000002
 21
713.75
 31
0.0
 70
   160
  1
Tr265×6
  3
ISO-25
100
AcDbAlignedDimension
 13
567.4999635
 23
551.000016
 33
0.0
 14
832.4999595000003
 24
551.000016
 34
0.0
100
AcDbRotatedDimension
1001
ACAD
1000
DSTYLE
1002
{
1070
   270
1070
     2
1070
     6
1000
EX_NORM
1070
     7
1000
EX_NORM
1070
    41
1040
15.0
1070
    42
1040
2.499984055757523
1070
    44
1040
5.0
1070
    73
1070
     0
1070
    74
1070
     0
1070
    75
1070
     0
1070
    76
1070
     0
1070
    77
1070
     1
1070
    78
1070
     8
1070
   140
1040
17.3145207852194
1070
   147
1040
0.0
1070
   173
1070
     1
1070
   176
1070
     2
1070
   177
1070
     2
1070
   178
1070
     2
1070
   271
1070
     2
1070
   277
1070
     2
1070
   279
1070
     2
1070
   280
1070
     0
1070
   287
1070
     5
1070
   340
1005
121
1002
}
  0
DIMENSION
  5
17B
330
1F
100
AcDbEntity
  8
Ｓ_１_１
  6
CONTINUOUS
 62
     2
100
AcDbDimension
  2
*D22
 10
314.9999615000001
 20
605.0000329999998
 30
0.0
 11
301.2499615000002
 21
425.0000164999998
 31
0.0
 70
   160
  3
ISO-25
100
AcDbAlignedDimension
 13
497.9999975
 23
244.9999999999999
 33
0.0
 14
502.9999975
 24
605.0000329999998
 34
0.0
 50
90.0
100
AcDbRotatedDimension
1001
ACAD
1000
DSTYLE
1002
{
1070
   270
1070
     2
1070
     6
1000
EX_NORM
1070
     7
1000
EX_NORM
1070
    41
1040
15.0
1070
    42
1040
7.5
1070
    44
1040
5.0
1070
    73
1070
     0
1070
    74
1070
     0
1070
    75
1070
     0
1070
    76
1070
     0
1070
    77
1070
     1
1070
    78
1070
     8
1070
   140
1040
17.3145207852194
1070
   147
1040
0.0
1070
   173
1070
     1
1070
   176
1070
     2
1070
   177
1070
     2
1070
   178
1070
     2
1070
   271
1070
     2
1070
   277
1070
     2
1070
   279
1070
     2
1070
   280
1070
     0
1070
   287
1070
     5
1070
   340
1005
121
1002
}
  0
DIMENSION
  5
188
330
1F
100
AcDbEntity
  8
Ｓ_１_１
  6
CONTINUOUS
 62
     2
100
AcDbDimension
  2
*D23
 10
1014.9999615
 20
244.9999999999999
 30
0.0
 11
1001.2499615
 21
294.9999989999998
 31
0.0
 70
   160
  3
ISO-25
100
AcDbAlignedDimension
 13
753.7676725
 23
344.999998
 33
0.0
 14
902.0000025000002
 24
244.9999999999999
 34
0.0
 50
90.0
100
AcDbRotatedDimension
1001
ACAD
1000
DSTYLE
1002
{
1070
   270
1070
     2
1070
     6
1000
EX_NORM
1070
     7
1000
EX_NORM
1070
    41
1040
15.0
1070
    42
1040
7.5
1070
    44
1040
5.0
1070
    73
1070
     0
1070
    74
1070
     0
1070
    75
1070
     0
1070
    76
1070
     0
1070
    77
1070
     1
1070
    78
1070
     8
1070
   140
1040
17.3145207852194
1070
   147
1040
0.0
1070
   173
1070
     1
1070
   176
1070
     2
1070
   177
1070
     2
1070
   178
1070
     2
1070
   271
1070
     2
1070
   277
1070
     2
1070
   279
1070
     2
1070
   280
1070
     0
1070
   287
1070
     5
1070
   340
1005
121
1002
}
  0
DIMENSION
  5
195
330
1F
100
AcDbEntity
  8
Ｓ_１_１
  6
CONTINUOUS
 62
     2
100
AcDbDimension
  2
*D24
 10
384.9999615
 20
394.9999980000001
 30
0.0
 11
371.2499615000002
 21
319.9999989999998
 31
0.0
 70
   160
  3
ISO-25
100
AcDbAlignedDimension
 13
497.9999965000002
 23
244.9999999999999
 33
0.0
 14
646.2322665
 24
394.999998
 34
0.0
 50
90.0
100
AcDbRotatedDimension
1001
ACAD
1000
DSTYLE
1002
{
1070
   270
1070
     2
1070
     6
1000
EX_NORM
1070
     7
1000
EX_NORM
1070
    41
1040
15.0
1070
    42
1040
7.5
1070
    44
1040
5.0
1070
    73
1070
     0
1070
    74
1070
     0
1070
    75
1070
     1
1070
    76
1070
     0
1070
    77
1070
     1
1070
    78
1070
     8
1070
   140
1040
17.3145207852194
1070
   147
1040
0.0
1070
   173
1070
     1
1070
   176
1070
     2
1070
   177
1070
     2
1070
   178
1070
     2
1070
   271
1070
     2
1070
   277
1070
     2
1070
   279
1070
     2
1070
   280
1070
     0
1070
   287
1070
     5
1070
   340
1005
121
1002
}
  0
DIMENSION
  5
1A1
330
1F
100
AcDbEntity
  8
Ｓ_１_１
  6
CONTINUOUS
 62
     2
100
AcDbDimension
  2
*D25
 10
989.9999575000004
 20
1225.0
 30
0.0
 11
699.9999620000003
 21
1238.75
 31
0.0
 70
   160
  3
ISO-25
100
AcDbAlignedDimension
 13
409.9999665000002
 23
1155.0001431661
 33
0.0
 14
989.9999575000004
 24
1155.0001431661
 34
0.0
100
AcDbRotatedDimension
1001
ACAD
1000
DSTYLE
1002
{
1070
   270
1070
     2
1070
     6
1000
EX_NORM
1070
     7
1000
EX_NORM
1070
    41
1040
15.0
1070
    42
1040
7.5
1070
    44
1040
5.0
1070
    73
1070
     0
1070
    74
1070
     0
1070
    75
1070
     0
1070
    76
1070
     0
1070
    77
1070
     1
1070
    78
1070
     8
1070
   140
1040
17.3145207852194
1070
   147
1040
0.0
1070
   173
1070
     1
1070
   176
1070
     2
1070
   177
1070
     2
1070
   178
1070
     2
1070
   271
1070
     2
1070
   277
1070
     2
1070
   279
1070
     2
1070
   280
1070
     0
1070
   287
1070
     5
1070
   340
1005
121
1002
}
  0
DIMENSION
  5
1AE
330
1F
100
AcDbEntity
  8
Ｓ_１_１
  6
CONTINUOUS
 62
     2
100
AcDbDimension
  2
*D26
 10
1224.9999615
 20
424.9999970000001
 30
0.0
 11
1211.2499615
 21
334.9999984999998
 31
0.0
 70
   160
  3
ISO-25
100
AcDbAlignedDimension
 13
1302.9999585
 23
244.9999999999999
 33
0.0
 14
1479.9999275
 24
424.999997
 34
0.0
 50
90.0
100
AcDbRotatedDimension
1001
ACAD
1000
DSTYLE
1002
{
1070
   270
1070
     2
1070
     6
1000
EX_NORM
1070
     7
1000
EX_NORM
1070
    41
1040
15.0
1070
    42
1040
7.5
1070
    44
1040
5.0
1070
    73
1070
     0
1070
    74
1070
     0
1070
    75
1070
     0
1070
    76
1070
     0
1070
    77
1070
     1
1070
    78
1070
     8
1070
   140
1040
17.3145207852194
1070
   147
1040
0.0
1070
   173
1070
     1
1070
   176
1070
     2
1070
   177
1070
     2
1070
   178
1070
     2
1070
   271
1070
     2
1070
   277
1070
     2
1070
   279
1070
     2
1070
   280
1070
     0
1070
   287
1070
     5
1070
   340
1005
121
1002
}
  0
LEADER
  5
1BB
330
1F
100
AcDbEntity
  8
Ｓ_１_１
  6
CONTINUOUS
 62
     2
100
AcDbLeader
  3
ISO-25
 76
     3
 10
976.6085549074
 20
453.01498695142
 30
0.0
 10
1014.9999615
 20
525.0
 30
0.0
 10
1189.9999615
 20
525.0
 30
0.0
1001
ACAD
1000
DSTYLE
1002
{
1070
     5
1000
EX_NORM
1070
    41
1040
15.0
1070
   341
1005
78
1002
}
  0
TEXT
  5
1BC
330
1F
100
AcDbEntity
  8
Ｓ_１_１
  6
CONTINUOUS
 62
     4
100
AcDbText
 10
1023.6249615
 20
530.6640625
 30
0.0
 40
17.3145207852194
  1
2-M20アイボルト
 41
0.9992307692307694
  7
EXCADTTF1
 72
     5
 11
1192.3749615
 21
530.6640625
 31
0.0
100
AcDbText
  0
LEADER
  5
1BD
330
1F
100
AcDbEntity
  8
Ｓ_１_１
  6
CONTINUOUS
 62
     2
100
AcDbLeader
  3
ISO-25
 76
     3
 10
1511.357032246
 20
525.21929982419
 30
0.0
 10
1609.9999615
 20
665.0
 30
0.0
 10
1784.9999615
 20
665.0
 30
0.0
1001
ACAD
1000
DSTYLE
1002
{
1070
     5
1000
EX_NORM
1070
    41
1040
15.0
1070
   341
1005
78
1002
}
  0
TEXT
  5
1BE
330
1F
100
AcDbEntity
  8
Ｓ_１_１
  6
CONTINUOUS
 62
     4
100
AcDbText
 10
1637.8749615
 20
670.6640625
 30
0.0
 40
17.3145207852194
  1
2-M20ネジ深35
 41
0.9992307692307691
  7
EXCADTTF1
 72
     5
 11
1784.1249615
 21
670.6640625
 31
0.0
100
AcDbText
  0
LEADER
  5
1BF
330
1F
100
AcDbEntity
  8
Ｓ_１_１
  6
CONTINUOUS
 62
     2
100
AcDbLeader
  3
ISO-25
 76
     3
 10
710.14377238685
 20
527.14899080215
 30
0.0
 10
944.9999615000002
 20
665.0
 30
0.0
 10
1045.9999615
 20
665.0
 30
0.0
1001
ACAD
1000
DSTYLE
1002
{
1070
     5
1000
EX_NORM
1070
    41
1040
15.0
1070
   341
1005
78
1002
}
  0
TEXT
  5
1C0
330
1F
100
AcDbEntity
  8
Ｓ_１_１
  6
CONTINUOUS
 62
     4
100
AcDbText
 10
955.9999615000002
 20
670.6640625
 30
0.0
 40
17.3145207852194
  1
6-26キリ
 41
0.999230769230769
  7
EXCADTTF1
 72
     5
 11
1045.9999615
 21
670.6640625
 31
0.0
100
AcDbText
  0
POINT
  5
1C1
330
1F
100
AcDbEntity
  8
Ｓ_１_１
  6
CONTINUOUS
 62
   160
100
AcDbPoint
 10
699.9999614999999
 20
1155.0001441661
 30
0.0
  0
ARC
  5
1C2
330
1F
100
AcDbEntity
  8
Ｓ_１_１
  6
EXLTYPE2
 62
     1
100
AcDbCircle
 10
699.9999614999999
 20
1155.0001441661
 30
0.0
 40
179.999997
100
AcDbArc
 50
179.999991
 51
0.0
  0
ARC
  5
1C3
330
1F
100
AcDbEntity
  8
Ｓ_１_１
  6
EXLTYPE2
 62
     1
100
AcDbCircle
 10
699.9999614999999
 20
1155.0001441661
 30
0.0
 40
154.999998
100
AcDbArc
 50
179.999991
 51
0.0
  0
ARC
  5
1C4
330
1F
100
AcDbEntity
  8
Ｓ_１_１
  6
EXLTYPE2
 62
     1
100
AcDbCircle
 10
699.9999614999999
 20
1155.0001441661
 30
0.0
 40
129.999998
100
AcDbArc
 50
179.999991
 51
0.0
  0
ARC
  5
1C5
330
1F
100
AcDbEntity
  8
Ｓ_１_１
  6
EXLTYPE2
 62
     1
100
AcDbCircle
 10
699.9999614999999
 20
1155.0001441661
 30
0.0
 40
79.999999
100
AcDbArc
 50
179.999991
 51
0.0
  0
ARC
  5
1C6
330
1F
100
AcDbEntity
  8
Ｓ_１_１
  6
EXLTYPE2
 62
     1
100
AcDbCircle
 10
699.9999614999999
 20
1155.0001441661
 30
0.0
 40
34.99999900000001
100
AcDbArc
 50
179.999991
 51
0.0
  0
LINE
  5
1C7
330
1F
100
AcDbEntity
  8
Ｓ_１_１
  6
EXLTYPE2
 62
     1
100
AcDbLine
 10
699.9999614999999
 20
1165.0001441661
 30
0.0
 11
699.9999614999999
 21
940.0001471661
 31
0.0
  0
LINE
  5
1C8
330
1F
100
AcDbEntity
  8
Ｓ_１_１
  6
EXLTYPE2
 62
     1
100
AcDbLine
 10
726.4813535
 20
1004.8169731661
 30
0.0
 11
751.5431055
 21
862.6847201661
 31
0.0
  0
LINE
  5
1C9
330
1F
100
AcDbEntity
  8
Ｓ_１_１
  6
EXLTYPE2
 62
     1
100
AcDbLine
 10
326.0000285
 20
1155.0001441661
 30
0.0
 11
1073.9999715
 21
1155.0001441661
 31
0.0
  0
LINE
  5
1CA
330
1F
100
AcDbEntity
  8
Ｓ_１_１
  6
EXLTYPE2
 62
     1
100
AcDbLine
 10
513.8045615
 20
1047.5000651661
 30
0.0
 11
542.3834255
 21
1064.0000801661
 31
0.0
  0
LINE
  5
1CB
330
1F
100
AcDbEntity
  8
Ｓ_１_１
  6
EXLTYPE2
 62
     1
100
AcDbLine
 10
886.1955275000003
 20
1047.5001241661
 30
0.0
 11
857.6166635000001
 21
1064.0001391661
 31
0.0
  0
ARC
  5
1CC
330
1F
100
AcDbEntity
  8
Ｓ_１_１
  6
EXLTYPE0
 62
     2
100
AcDbCircle
 10
417.9999965000001
 20
1155.0001441661
 30
0.0
 40
8.0
100
AcDbArc
 50
269.999997
 51
0.0
  0
ARC
  5
1CD
330
1F
100
AcDbEntity
  8
Ｓ_１_１
  6
EXLTYPE0
 62
     2
100
AcDbCircle
 10
982.0000035000002
 20
1155.0001441661
 30
0.0
 40
8.0
100
AcDbArc
 50
180.0000090000001
 51
269.999997
  0
LINE
  5
1CE
330
1F
100
AcDbEntity
  8
Ｓ_１_１
  6
EXLTYPE0
 62
     2
100
AcDbLine
 10
467.0600205
 20
1147.0001291661
 30
0.0
 11
466.0000215000001
 21
1155.0001251661
 31
0.0
  0
LINE
  5
1CF
330
1F
100
AcDbEntity
  8
Ｓ_１_１
  6
EXLTYPE0
 62
     2
100
AcDbLine
 10
932.9400705000002
 20
1147.0001531661
 30
0.0
 11
934.0000695
 21
1155.0001501661
 31
0.0
  0
ARC
  5
1D0
330
1F
100
AcDbEntity
  8
Ｓ_１_１
  6
CONTINUOUS
 62
     3
100
AcDbCircle
 10
737.9287335
 20
939.8956241661
 30
0.0
 40
21.934647
100
AcDbArc
 50
266.8235980000001
 51
293.1764000000001
  0
ARC
  5
1D1
330
1F
100
AcDbEntity
  8
Ｓ_１_１
  6
CONTINUOUS
 62
     3
100
AcDbCircle
 10
743.3774945000001
 20
908.9934491661
 30
0.0
 40
21.93906
100
AcDbArc
 50
86.82630000000003
 51
113.173701
  0
ARC
  5
1D2
330
1F
100
AcDbEntity
  8
Ｓ_１_１
  6
CONTINUOUS
 62
     3
100
AcDbCircle
 10
746.5865705
 20
943.1417031660999
 30
0.0
 40
5.366704
100
AcDbArc
 50
65.62601500000004
 51
134.373986
  0
ARC
  5
1D3
330
1F
100
AcDbEntity
  8
Ｓ_１_１
  6
CONTINUOUS
 62
     3
100
AcDbCircle
 10
740.1864235000002
 20
927.0915171661
 30
0.0
 40
20.061621
100
AcDbArc
 50
82.41806899999997
 51
117.581925
  0
ARC
  5
1D4
330
1F
100
AcDbEntity
  8
Ｓ_１_１
  6
CONTINUOUS
 62
     3
100
AcDbCircle
 10
746.2853615
 20
944.8498481661
 30
0.0
 40
5.362963000000002
100
AcDbArc
 50
245.598669
 51
314.4013330000002
  0
ARC
  5
1D5
330
1F
100
AcDbEntity
  8
Ｓ_１_１
  6
CONTINUOUS
 62
     3
100
AcDbCircle
 10
728.3816145
 20
941.6928811660998
 30
0.0
 40
5.362963000000002
100
AcDbArc
 50
245.598669
 51
314.4013330000002
  0
ARC
  5
1D6
330
1F
100
AcDbEntity
  8
Ｓ_１_１
  6
CONTINUOUS
 62
     3
100
AcDbCircle
 10
734.7817605000001
 20
957.7430671660998
 30
0.0
 40
20.057299
100
AcDbArc
 50
262.414157
 51
297.5858470000003
  0
ARC
  5
1D7
330
1F
100
AcDbEntity
  8
Ｓ_１_１
  6
CONTINUOUS
 62
     3
100
AcDbCircle
 10
728.6826705
 20
939.9847361661
 30
0.0
 40
5.366704
100
AcDbArc
 50
65.62601500000004
 51
134.373986
  0
ARC
  5
1D8
330
1F
100
AcDbEntity
  8
Ｓ_１_１
  6
CONTINUOUS
 62
     3
100
AcDbCircle
 10
699.9999614999999
 20
1155.0001441661
 30
0.0
 40
204.999997
100
AcDbArc
 50
179.999991
 51
0.0
  0
ARC
  5
1D9
330
1F
100
AcDbEntity
  8
Ｓ_１_１
  6
CONTINUOUS
 62
     3
100
AcDbCircle
 10
699.9999614999999
 20
1155.0001441661
 30
0.0
 40
202.000005
100
AcDbArc
 50
179.999991
 51
0.0
  0
ARC
  5
1DA
330
1F
100
AcDbEntity
  8
Ｓ_１_１
  6
CONTINUOUS
 62
     3
100
AcDbCircle
 10
854.9999595
 20
1155.0001441661
 30
0.0
 40
9.0
100
AcDbArc
 50
179.999991
 51
0.0
  0
ARC
  5
1DB
330
1F
100
AcDbEntity
  8
Ｓ_１_１
  6
CONTINUOUS
 62
     3
100
AcDbCircle
 10
854.9999595
 20
1155.0001441661
 30
0.0
 40
8.0
100
AcDbArc
 50
179.999991
 51
0.0
  0
ARC
  5
1DC
330
1F
100
AcDbEntity
  8
Ｓ_１_１
  6
CONTINUOUS
 62
     3
100
AcDbCircle
 10
854.9999595
 20
1155.0001441661
 30
0.0
 40
7.000000000000004
100
AcDbArc
 50
179.999991
 51
0.0
  0
CIRCLE
  5
1DD
330
1F
100
AcDbEntity
  8
Ｓ_１_１
  6
CONTINUOUS
 62
     3
100
AcDbCircle
 10
699.9999614999999
 20
1000.0001461661
 30
0.0
 40
9.0
  0
CIRCLE
  5
1DE
330
1F
100
AcDbEntity
  8
Ｓ_１_１
  6
CONTINUOUS
 62
     3
100
AcDbCircle
 10
699.9999614999999
 20
1000.0001461661
 30
0.0
 40
8.0
  0
CIRCLE
  5
1DF
330
1F
100
AcDbEntity
  8
Ｓ_１_１
  6
CONTINUOUS
 62
     3
100
AcDbCircle
 10
699.9999614999999
 20
1000.0001461661
 30
0.0
 40
7.000000000000004
  0
ARC
  5
1E0
330
1F
100
AcDbEntity
  8
Ｓ_１_１
  6
CONTINUOUS
 62
     3
100
AcDbCircle
 10
544.9999645000001
 20
1155.0001441661
 30
0.0
 40
9.0
100
AcDbArc
 50
179.999991
 51
0.0
  0
ARC
  5
1E1
330
1F
100
AcDbEntity
  8
Ｓ_１_１
  6
CONTINUOUS
 62
     3
100
AcDbCircle
 10
544.9999645000001
 20
1155.0001441661
 30
0.0
 40
8.0
100
AcDbArc
 50
179.999991
 51
0.0
  0
ARC
  5
1E2
330
1F
100
AcDbEntity
  8
Ｓ_１_１
  6
CONTINUOUS
 62
     3
100
AcDbCircle
 10
544.9999645000001
 20
1155.0001441661
 30
0.0
 40
7.000000000000004
100
AcDbArc
 50
179.999991
 51
0.0
  0
ARC
  5
1E3
330
1F
100
AcDbEntity
  8
Ｓ_１_１
  6
CONTINUOUS
 62
     3
100
AcDbCircle
 10
699.9999614999999
 20
1155.0001441661
 30
0.0
 40
78.00000100000005
100
AcDbArc
 50
179.999991
 51
0.0
  0
ARC
  5
1E4
330
1F
100
AcDbEntity
  8
Ｓ_１_１
  6
CONTINUOUS
 62
     3
100
AcDbCircle
 10
699.9999614999999
 20
1155.0001441661
 30
0.0
 40
81.999997
100
AcDbArc
 50
179.999991
 51
0.0
  0
ARC
  5
1E5
330
1F
100
AcDbEntity
  8
Ｓ_１_１
  6
CONTINUOUS
 62
     3
100
AcDbCircle
 10
699.9999614999999
 20
1155.0001441661
 30
0.0
 40
128.0
100
AcDbArc
 50
179.999991
 51
0.0
  0
ARC
  5
1E6
330
1F
100
AcDbEntity
  8
Ｓ_１_１
  6
CONTINUOUS
 62
     3
100
AcDbCircle
 10
699.9999614999999
 20
1155.0001441661
 30
0.0
 40
131.999996
100
AcDbArc
 50
179.999991
 51
0.0
  0
ARC
  5
1E7
330
1F
100
AcDbEntity
  8
Ｓ_１_１
  6
CONTINUOUS
 62
     3
100
AcDbCircle
 10
699.9999614999999
 20
1155.0001441661
 30
0.0
 40
177.9999900000001
100
AcDbArc
 50
179.999991
 51
0.0
  0
ARC
  5
1E8
330
1F
100
AcDbEntity
  8
Ｓ_１_１
  6
CONTINUOUS
 62
     3
100
AcDbCircle
 10
699.9999614999999
 20
1155.0001441661
 30
0.0
 40
182.000005
100
AcDbArc
 50
179.999991
 51
0.0
  0
ARC
  5
1E9
330
1F
100
AcDbEntity
  8
Ｓ_１_１
  6
CONTINUOUS
 62
     3
100
AcDbCircle
 10
699.9999614999999
 20
1155.0001441661
 30
0.0
 40
46.999997
100
AcDbArc
 50
179.999991
 51
0.0
  0
ARC
  5
1EA
330
1F
100
AcDbEntity
  8
Ｓ_１_１
  6
CONTINUOUS
 62
     3
100
AcDbCircle
 10
699.9999614999999
 20
1155.0001441661
 30
0.0
 40
48.000001
100
AcDbArc
 50
179.999991
 51
0.0
  0
ARC
  5
1EB
330
1F
100
AcDbEntity
  8
Ｓ_１_１
  6
CONTINUOUS
 62
     3
100
AcDbCircle
 10
699.9999614999999
 20
1155.0001441661
 30
0.0
 40
49.999999
100
AcDbArc
 50
179.999991
 51
0.0
  0
ARC
  5
1EC
330
1F
100
AcDbEntity
  8
Ｓ_１_１
  6
CONTINUOUS
 62
     3
100
AcDbCircle
 10
699.9999614999999
 20
1155.0001441661
 30
0.0
 40
197.000005
100
AcDbArc
 50
179.999991
 51
0.0
  0
ARC
  5
1ED
330
1F
100
AcDbEntity
  8
Ｓ_１_１
  6
CONTINUOUS
 62
     3
100
AcDbCircle
 10
734.9999614999999
 20
1155.0001441661
 30
0.0
 40
7.000000000000004
100
AcDbArc
 50
179.999991
 51
0.0
  0
ARC
  5
1EE
330
1F
100
AcDbEntity
  8
Ｓ_１_１
  6
CONTINUOUS
 62
     3
100
AcDbCircle
 10
734.9999614999999
 20
1155.0001441661
 30
0.0
 40
5.0
100
AcDbArc
 50
179.999991
 51
0.0
  0
ARC
  5
1EF
330
1F
100
AcDbEntity
  8
Ｓ_１_１
  6
CONTINUOUS
 62
     3
100
AcDbCircle
 10
664.9999625000002
 20
1155.0001441661
 30
0.0
 40
7.000000000000004
100
AcDbArc
 50
179.999991
 51
0.0
  0
ARC
  5
1F0
330
1F
100
AcDbEntity
  8
Ｓ_１_１
  6
CONTINUOUS
 62
     3
100
AcDbCircle
 10
664.9999625000002
 20
1155.0001441661
 30
0.0
 40
5.0
100
AcDbArc
 50
180.0000090000001
 51
0.0
  0
ARC
  5
1F1
330
1F
100
AcDbEntity
  8
Ｓ_１_１
  6
CONTINUOUS
 62
     3
100
AcDbCircle
 10
699.9999614999999
 20
1155.0001441661
 30
0.0
 40
199.999997
100
AcDbArc
 50
179.999991
 51
0.0
  0
ARC
  5
1F2
330
1F
100
AcDbEntity
  8
Ｓ_１_１
  6
CONTINUOUS
 62
     3
100
AcDbCircle
 10
487.8379475
 20
1142.1751321661
 30
0.0
 40
6.837922000000002
100
AcDbArc
 50
141.3038820000001
 51
218.696128
  0
ARC
  5
1F3
330
1F
100
AcDbEntity
  8
Ｓ_１_１
  6
CONTINUOUS
 62
     3
100
AcDbCircle
 10
506.0999705
 20
1155.0001441661
 30
0.0
 40
25.100021
100
AcDbArc
 50
180.0000090000001
 51
199.915693
  0
ARC
  5
1F4
330
1F
100
AcDbEntity
  8
Ｓ_１_１
  6
CONTINUOUS
 62
     3
100
AcDbCircle
 10
478.5187945000001
 20
1144.9989231661
 30
0.0
 40
2.001177
100
AcDbArc
 50
0.0336869999999811
 51
89.96631600000002
  0
ARC
  5
1F5
330
1F
100
AcDbEntity
  8
Ｓ_１_１
  6
CONTINUOUS
 62
     3
100
AcDbCircle
 10
469.7907675
 20
1141.5083231661
 30
0.0
 40
1.99747
100
AcDbArc
 50
187.426979
 51
260.178923
  0
ARC
  5
1F6
330
1F
100
AcDbEntity
  8
Ｓ_１_１
  6
CONTINUOUS
 62
     3
100
AcDbCircle
 10
417.9999965000001
 20
1155.0001441661
 30
0.0
 40
8.0
100
AcDbArc
 50
180.0000090000001
 51
269.999997
  0
ARC
  5
1F7
330
1F
100
AcDbEntity
  8
Ｓ_１_１
  6
CONTINUOUS
 62
     3
100
AcDbCircle
 10
982.0000035000002
 20
1155.0001441661
 30
0.0
 40
8.0
100
AcDbArc
 50
269.999997
 51
0.0
  0
ARC
  5
1F8
330
1F
100
AcDbEntity
  8
Ｓ_１_１
  6
CONTINUOUS
 62
     3
100
AcDbCircle
 10
930.2093095000001
 20
1141.5083231661
 30
0.0
 40
1.99747
100
AcDbArc
 50
279.821079
 51
352.5730260000003
  0
ARC
  5
1F9
330
1F
100
AcDbEntity
  8
Ｓ_１_１
  6
CONTINUOUS
 62
     3
100
AcDbCircle
 10
921.4812055000001
 20
1144.9989231661
 30
0.0
 40
2.001177
100
AcDbArc
 50
90.03368900000001
 51
179.9663190000001
  0
ARC
  5
1FA
330
1F
100
AcDbEntity
  8
Ｓ_１_１
  6
CONTINUOUS
 62
     3
100
AcDbCircle
 10
893.8999525
 20
1155.0001441661
 30
0.0
 40
25.100021
100
AcDbArc
 50
340.0843060000001
 51
0.0
  0
ARC
  5
1FB
330
1F
100
AcDbEntity
  8
Ｓ_１_１
  6
CONTINUOUS
 62
     3
100
AcDbCircle
 10
912.1620525
 20
1142.1751321661
 30
0.0
 40
6.837922000000002
100
AcDbArc
 50
321.3038770000001
 51
38.69612300000002
  0
LINE
  5
1FC
330
1F
100
AcDbEntity
  8
Ｓ_１_１
  6
CONTINUOUS
 62
     3
100
AcDbLine
 10
751.3851485000001
 20
932.6856041661
 30
0.0
 11
727.7497485
 21
928.5180451661
 31
0.0
  0
LINE
  5
1FD
330
1F
100
AcDbEntity
  8
Ｓ_１_１
  6
CONTINUOUS
 62
     3
100
AcDbLine
 10
734.7440855
 20
929.1624021660999
 30
0.0
 11
726.8656695000001
 21
927.7732251660998
 31
0.0
  0
LINE
  5
1FE
330
1F
100
AcDbEntity
  8
Ｓ_１_１
  6
CONTINUOUS
 62
     3
100
AcDbLine
 10
736.7132605
 20
917.9946561661001
 30
0.0
 11
728.8348445
 21
916.6054781660998
 31
0.0
  0
LINE
  5
1FF
330
1F
100
AcDbEntity
  8
Ｓ_１_１
  6
CONTINUOUS
 62
     3
100
AcDbLine
 10
752.4706555000001
 20
932.2880751660998
 30
0.0
 11
744.5921635
 21
930.8988841661
 31
0.0
  0
LINE
  5
200
330
1F
100
AcDbEntity
  8
Ｓ_１_１
  6
CONTINUOUS
 62
     3
100
AcDbLine
 10
754.4398305000001
 20
921.1203281661
 30
0.0
 11
746.5613385
 21
919.7311381661001
 31
0.0
  0
LINE
  5
201
330
1F
100
AcDbEntity
  8
Ｓ_１_１
  6
CONTINUOUS
 62
     3
100
AcDbLine
 10
757.2459805
 20
905.2058621660999
 30
0.0
 11
731.6409945000001
 21
900.6910121660999
 31
0.0
  0
LINE
  5
202
330
1F
100
AcDbEntity
  8
Ｓ_１_１
  6
CONTINUOUS
 62
     3
100
AcDbLine
 10
757.2460075
 20
905.2058191660999
 30
0.0
 11
756.1605045
 21
905.6033521661
 31
0.0
  0
LINE
  5
203
330
1F
100
AcDbEntity
  8
Ｓ_１_１
  6
CONTINUOUS
 62
     3
100
AcDbLine
 10
729.9203244999999
 20
916.2079221660999
 30
0.0
 11
728.8348215
 21
916.6054551661
 31
0.0
  0
LINE
  5
204
330
1F
100
AcDbEntity
  8
Ｓ_１_１
  6
CONTINUOUS
 62
     3
100
AcDbLine
 10
752.4706375
 20
932.2880681661
 30
0.0
 11
751.3851335
 21
932.6856011660999
 31
0.0
  0
LINE
  5
205
330
1F
100
AcDbEntity
  8
Ｓ_１_１
  6
CONTINUOUS
 62
     3
100
AcDbLine
 10
732.5250475000001
 20
901.4357641661
 30
0.0
 11
731.6409715000001
 21
900.6909411661
 31
0.0
  0
LINE
  5
206
330
1F
100
AcDbEntity
  8
Ｓ_１_１
  6
CONTINUOUS
 62
     3
100
AcDbLine
 10
754.4397995
 20
921.1203521660998
 30
0.0
 11
753.5556655000001
 21
920.3754801660998
 31
0.0
  0
LINE
  5
207
330
1F
100
AcDbEntity
  8
Ｓ_１_１
  6
CONTINUOUS
 62
     3
100
AcDbLine
 10
727.7497035
 20
928.5180841660999
 30
0.0
 11
726.8655695000001
 21
927.7732121661
 31
0.0
  0
LINE
  5
208
330
1F
100
AcDbEntity
  8
Ｓ_１_１
  6
CONTINUOUS
 62
     3
100
AcDbLine
 10
736.7132605
 20
917.9946561661001
 30
0.0
 11
734.7440855
 21
929.1624021660999
 31
0.0
  0
LINE
  5
209
330
1F
100
AcDbEntity
  8
Ｓ_１_１
  6
CONTINUOUS
 62
     3
100
AcDbLine
 10
746.5613385
 20
919.7311381661001
 30
0.0
 11
744.5921635
 21
930.8988841661
 31
0.0
  0
LINE
  5
20A
330
1F
100
AcDbEntity
  8
Ｓ_１_１
  6
CONTINUOUS
 62
     3
100
AcDbLine
 10
744.0398045000001
 20
895.1599891660999
 30
0.0
 11
743.9100155
 21
895.3199531660999
 31
0.0
  0
LINE
  5
20B
330
1F
100
AcDbEntity
  8
Ｓ_１_１
  6
CONTINUOUS
 62
     3
100
AcDbLine
 10
744.0085455
 20
895.3373121661
 30
0.0
 11
729.9750045
 21
892.8628201660999
 31
0.0
  0
LINE
  5
20C
330
1F
100
AcDbEntity
  8
Ｓ_１_１
  6
CONTINUOUS
 62
     3
100
AcDbLine
 10
743.9217285000001
 20
895.8296711660998
 30
0.0
 11
730.3806225
 21
893.4420091661
 31
0.0
  0
LINE
  5
20D
330
1F
100
AcDbEntity
  8
Ｓ_１_１
  6
CONTINUOUS
 62
     3
100
AcDbLine
 10
747.9763065000001
 20
892.9906251660999
 30
0.0
 11
744.5294944999998
 21
892.3828591660999
 31
0.0
  0
LINE
  5
20E
330
1F
100
AcDbEntity
  8
Ｓ_１_１
  6
CONTINUOUS
 62
     3
100
AcDbLine
 10
747.9763065000001
 20
892.9906251660999
 30
0.0
 11
747.3685405
 21
896.4374371661
 31
0.0
  0
LINE
  5
20F
330
1F
100
AcDbEntity
  8
Ｓ_１_１
  6
CONTINUOUS
 62
     3
100
AcDbLine
 10
744.5294944999998
 20
892.3828591660999
 30
0.0
 11
743.9217285000001
 21
895.8296711660998
 31
0.0
  0
LINE
  5
210
330
1F
100
AcDbEntity
  8
Ｓ_１_１
  6
CONTINUOUS
 62
     3
100
AcDbLine
 10
760.4755635
 20
901.2870951660998
 30
0.0
 11
759.8963475000002
 21
901.6926661660998
 31
0.0
  0
LINE
  5
211
330
1F
100
AcDbEntity
  8
Ｓ_１_１
  6
CONTINUOUS
 62
     3
100
AcDbLine
 10
760.6492085
 20
900.3023071660999
 30
0.0
 11
760.2435935
 21
899.7230291660999
 31
0.0
  0
LINE
  5
212
330
1F
100
AcDbEntity
  8
Ｓ_１_１
  6
CONTINUOUS
 62
     3
100
AcDbLine
 10
730.3520835
 20
896.4832161661
 30
0.0
 11
729.9465125
 21
895.9039991661001
 31
0.0
  0
LINE
  5
213
330
1F
100
AcDbEntity
  8
Ｓ_１_１
  6
CONTINUOUS
 62
     3
100
AcDbLine
 10
730.6993735
 20
894.5136401661
 30
0.0
 11
730.1201575000001
 21
894.9192121660999
 31
0.0
  0
LINE
  5
214
330
1F
100
AcDbEntity
  8
Ｓ_１_１
  6
CONTINUOUS
 62
     3
100
AcDbLine
 10
732.3216915000002
 20
896.8305821660999
 30
0.0
 11
730.3520315
 21
896.4832781660999
 31
0.0
  0
LINE
  5
215
330
1F
100
AcDbEntity
  8
Ｓ_１_１
  6
CONTINUOUS
 62
     3
100
AcDbLine
 10
732.6689965
 20
894.8609221661
 30
0.0
 11
730.6993355000001
 21
894.5136171661
 31
0.0
  0
LINE
  5
216
330
1F
100
AcDbEntity
  8
Ｓ_１_１
  6
CONTINUOUS
 62
     3
100
AcDbLine
 10
760.2435675
 20
899.7230631660998
 30
0.0
 11
758.2739825
 21
899.3757721661001
 31
0.0
  0
LINE
  5
217
330
1F
100
AcDbEntity
  8
Ｓ_１_１
  6
CONTINUOUS
 62
     3
100
AcDbLine
 10
759.8962635000001
 20
901.6927231661
 30
0.0
 11
757.9266785000001
 21
901.3454321661
 31
0.0
  0
LINE
  5
218
330
1F
100
AcDbEntity
  8
Ｓ_１_１
  6
CONTINUOUS
 62
     3
100
AcDbLine
 10
760.6491724999998
 20
900.3023261660999
 30
0.0
 11
760.4755265
 21
901.2871191661
 31
0.0
  0
LINE
  5
219
330
1F
100
AcDbEntity
  8
Ｓ_１_１
  6
CONTINUOUS
 62
     3
100
AcDbLine
 10
730.1201475000001
 20
894.9192351661
 30
0.0
 11
729.9465025000001
 21
895.9040281660998
 31
0.0
  0
LINE
  5
21A
330
1F
100
AcDbEntity
  8
Ｓ_１_１
  6
CONTINUOUS
 62
     3
100
AcDbLine
 10
747.5538615000002
 20
895.9624001661001
 30
0.0
 11
747.4866355
 21
895.7677651660999
 31
0.0
  0
LINE
  5
21B
330
1F
100
AcDbEntity
  8
Ｓ_１_１
  6
CONTINUOUS
 62
     3
100
AcDbLine
 10
765.5695655000001
 20
875.2765151660999
 30
0.0
 11
734.0557475
 21
869.7197781660999
 31
0.0
  0
LINE
  5
21C
330
1F
100
AcDbEntity
  8
Ｓ_１_１
  6
CONTINUOUS
 62
     3
100
AcDbLine
 10
764.2672035000002
 20
882.6625731661
 30
0.0
 11
732.7533865000001
 21
877.1058361661
 31
0.0
  0
LINE
  5
21D
330
1F
100
AcDbEntity
  8
Ｓ_１_１
  6
CONTINUOUS
 62
     3
100
AcDbLine
 10
761.4888225000001
 20
898.4195571660998
 30
0.0
 11
747.4553575000001
 21
895.9450781660998
 31
0.0
  0
LINE
  5
21E
330
1F
100
AcDbEntity
  8
Ｓ_１_１
  6
CONTINUOUS
 62
     3
100
AcDbLine
 10
731.1905495
 20
885.9691211661
 30
0.0
 11
762.7043675000001
 21
891.5258581661
 31
0.0
  0
LINE
  5
21F
330
1F
100
AcDbEntity
  8
Ｓ_１_１
  6
CONTINUOUS
 62
     3
100
AcDbLine
 10
730.3805805
 20
893.4419681661001
 30
0.0
 11
729.9750085
 21
892.8627521661
 31
0.0
  0
LINE
  5
220
330
1F
100
AcDbEntity
  8
Ｓ_１_１
  6
CONTINUOUS
 62
     3
100
AcDbLine
 10
761.4888475000001
 20
898.4194921660999
 30
0.0
 11
760.9096315
 21
898.8250631660999
 31
0.0
  0
LINE
  5
221
330
1F
100
AcDbEntity
  8
Ｓ_１_１
  6
CONTINUOUS
 62
     3
100
AcDbLine
 10
731.1905495
 20
885.9691211661
 30
0.0
 11
729.9750045
 21
892.8628201660999
 31
0.0
  0
LINE
  5
222
330
1F
100
AcDbEntity
  8
Ｓ_１_１
  6
CONTINUOUS
 62
     3
100
AcDbLine
 10
762.7043675000001
 20
891.5258581661
 30
0.0
 11
761.4888225000001
 21
898.4195571660998
 31
0.0
  0
LINE
  5
223
330
1F
100
AcDbEntity
  8
Ｓ_１_１
  6
CONTINUOUS
 62
     3
100
AcDbLine
 10
764.2672805000001
 20
882.6625291661
 30
0.0
 11
763.6879395
 21
883.0681881661
 31
0.0
  0
LINE
  5
224
330
1F
100
AcDbEntity
  8
Ｓ_１_１
  6
CONTINUOUS
 62
     3
100
AcDbLine
 10
731.7698185
 20
885.5635181661
 30
0.0
 11
731.1906025
 21
885.9690891661
 31
0.0
  0
LINE
  5
225
330
1F
100
AcDbEntity
  8
Ｓ_１_１
  6
CONTINUOUS
 62
     3
100
AcDbLine
 10
733.1590125
 20
877.6850051661
 30
0.0
 11
732.7534415
 21
877.1057891661
 31
0.0
  0
LINE
  5
226
330
1F
100
AcDbEntity
  8
Ｓ_１_１
  6
CONTINUOUS
 62
     3
100
AcDbLine
 10
762.7044415000001
 20
891.5258291660999
 30
0.0
 11
762.2988695
 21
890.9466131661
 31
0.0
  0
LINE
  5
227
330
1F
100
AcDbEntity
  8
Ｓ_１_１
  6
CONTINUOUS
 62
     3
100
AcDbLine
 10
763.6880155
 20
883.0681911661
 30
0.0
 11
733.1589905
 21
877.6851001660999
 31
0.0
  0
LINE
  5
228
330
1F
100
AcDbEntity
  8
Ｓ_１_１
  6
CONTINUOUS
 62
     3
100
AcDbLine
 10
762.2988245
 20
890.9466831661001
 30
0.0
 11
731.7697995
 21
885.5635921661
 31
0.0
  0
LINE
  5
229
330
1F
100
AcDbEntity
  8
Ｓ_１_１
  6
CONTINUOUS
 62
     3
100
AcDbLine
 10
733.1589905
 20
877.6851001660999
 30
0.0
 11
731.7697995
 21
885.5635921661
 31
0.0
  0
LINE
  5
22A
330
1F
100
AcDbEntity
  8
Ｓ_１_１
  6
CONTINUOUS
 62
     3
100
AcDbLine
 10
763.6880155
 20
883.0681911661
 30
0.0
 11
762.2988245
 21
890.9466831661001
 31
0.0
  0
LINE
  5
22B
330
1F
100
AcDbEntity
  8
Ｓ_１_１
  6
CONTINUOUS
 62
     3
100
AcDbLine
 10
737.5311525000001
 20
867.2863021661
 30
0.0
 11
734.0557314999999
 21
869.7198191660999
 31
0.0
  0
LINE
  5
22C
330
1F
100
AcDbEntity
  8
Ｓ_１_１
  6
CONTINUOUS
 62
     3
100
AcDbLine
 10
763.1360985
 20
871.8012011661
 30
0.0
 11
765.5695714999999
 21
875.2765591661
 31
0.0
  0
LINE
  5
22D
330
1F
100
AcDbEntity
  8
Ｓ_１_１
  6
CONTINUOUS
 62
     3
100
AcDbLine
 10
756.1604735
 20
905.6033921660999
 30
0.0
 11
753.5557515000002
 21
920.3755081661001
 31
0.0
  0
LINE
  5
22E
330
1F
100
AcDbEntity
  8
Ｓ_１_１
  6
CONTINUOUS
 62
     3
100
AcDbLine
 10
732.5250735000001
 20
901.4358331660999
 30
0.0
 11
729.9203505
 21
916.2079491661001
 31
0.0
  0
LINE
  5
22F
330
1F
100
AcDbEntity
  8
Ｓ_１_１
  6
CONTINUOUS
 62
     3
100
AcDbLine
 10
763.1361235
 20
871.8012001661
 30
0.0
 11
737.5311374999999
 21
867.2863501661
 31
0.0
  0
LINE
  5
230
330
1F
100
AcDbEntity
  8
Ｓ_１_１
  6
CONTINUOUS
 62
     3
100
AcDbLine
 10
734.0557475
 20
869.7197781660999
 30
0.0
 11
732.7533865000001
 21
877.1058361661
 31
0.0
  0
LINE
  5
231
330
1F
100
AcDbEntity
  8
Ｓ_１_１
  6
CONTINUOUS
 62
     3
100
AcDbLine
 10
765.5695655000001
 20
875.2765151660999
 30
0.0
 11
764.2672035000002
 21
882.6625731661
 31
0.0
  0
LINE
  5
232
330
1F
100
AcDbEntity
  8
Ｓ_１_１
  6
CONTINUOUS
 62
     3
100
AcDbLine
 10
728.8348445
 20
916.6054781660998
 30
0.0
 11
726.8656695000001
 21
927.7732251660998
 31
0.0
  0
LINE
  5
233
330
1F
100
AcDbEntity
  8
Ｓ_１_１
  6
CONTINUOUS
 62
     3
100
AcDbLine
 10
754.4398305000001
 20
921.1203281661
 30
0.0
 11
752.4706555000001
 21
932.2880751660998
 31
0.0
  0
LINE
  5
234
330
1F
100
AcDbEntity
  8
Ｓ_１_１
  6
CONTINUOUS
 62
     3
100
AcDbLine
 10
738.6027595000002
 20
866.9675621660999
 30
0.0
 11
738.5159305
 21
867.4599961660999
 31
0.0
  0
LINE
  5
235
330
1F
100
AcDbEntity
  8
Ｓ_１_１
  6
CONTINUOUS
 62
     3
100
AcDbLine
 10
762.2381605000002
 20
871.1351211660999
 30
0.0
 11
762.1513305
 21
871.6275551660999
 31
0.0
  0
LINE
  5
236
330
1F
100
AcDbEntity
  8
Ｓ_１_１
  6
CONTINUOUS
 62
     3
100
AcDbLine
 10
758.4476275000001
 20
898.3909791661
 30
0.0
 11
757.2459805
 21
905.2058621660999
 31
0.0
  0
LINE
  5
237
330
1F
100
AcDbEntity
  8
Ｓ_１_１
  6
CONTINUOUS
 62
     3
100
AcDbLine
 10
732.8426414999999
 20
893.8761291660999
 30
0.0
 11
731.6409945000001
 21
900.6910121660999
 31
0.0
  0
LINE
  5
238
330
1F
100
AcDbEntity
  8
Ｓ_１_１
  6
CONTINUOUS
 62
     3
100
AcDbLine
 10
760.9096474999999
 20
898.8250991660999
 30
0.0
 11
747.3685405
 21
896.4374371661
 31
0.0
  0
LINE
  5
239
330
1F
100
AcDbEntity
  8
Ｓ_１_１
  6
CONTINUOUS
 62
     3
100
AcDbLine
 10
756.1604735
 20
905.6033921660999
 30
0.0
 11
732.5250735000001
 21
901.4358331660999
 31
0.0
  0
LINE
  5
23A
330
1F
100
AcDbEntity
  8
Ｓ_１_１
  6
CONTINUOUS
 62
     3
100
AcDbLine
 10
753.5557515000002
 20
920.3755081661001
 30
0.0
 11
729.9203505
 21
916.2079491661001
 31
0.0
  0
LINE
  5
23B
330
1F
100
AcDbEntity
  8
Ｓ_１_１
  6
CONTINUOUS
 62
     3
100
AcDbLine
 10
762.2381605000002
 20
871.1351211660999
 30
0.0
 11
738.6027595000002
 21
866.9675621660999
 31
0.0
  0
LINE
  5
23C
330
1F
100
AcDbEntity
  8
Ｓ_１_１
  6
CONTINUOUS
 62
     3
100
AcDbLine
 10
746.6383385
 20
931.8486031660998
 30
0.0
 11
745.9463665
 21
937.9612951661
 31
0.0
  0
LINE
  5
23D
330
1F
100
AcDbEntity
  8
Ｓ_１_１
  6
CONTINUOUS
 62
     3
100
AcDbLine
 10
746.4881195000002
 20
939.4377751661
 30
0.0
 11
745.9462825
 21
937.9612551660998
 31
0.0
  0
LINE
  5
23E
330
1F
100
AcDbEntity
  8
Ｓ_１_１
  6
CONTINUOUS
 62
     3
100
AcDbLine
 10
747.3276855
 20
931.9702191660999
 30
0.0
 11
746.4881825000001
 21
939.4379041661
 31
0.0
  0
LINE
  5
23F
330
1F
100
AcDbEntity
  8
Ｓ_１_１
  6
CONTINUOUS
 62
     3
100
AcDbLine
 10
731.0559985000001
 20
935.3357831660999
 30
0.0
 11
730.0418885
 21
936.5378801661001
 31
0.0
  0
LINE
  5
240
330
1F
100
AcDbEntity
  8
Ｓ_１_１
  6
CONTINUOUS
 62
     3
100
AcDbLine
 10
731.8071075000001
 20
929.2335191661
 30
0.0
 11
730.0419015000001
 21
936.5379001661
 31
0.0
  0
LINE
  5
241
330
1F
100
AcDbEntity
  8
Ｓ_１_１
  6
CONTINUOUS
 62
     3
100
AcDbLine
 10
732.4965315000001
 20
929.3551011661
 30
0.0
 11
731.0561085
 21
935.3358211661
 31
0.0
  0
LINE
  5
242
330
1F
100
AcDbEntity
  8
Ｓ_１_１
  6
CONTINUOUS
 62
     3
100
AcDbLine
 10
746.6357654999999
 20
938.0828631661001
 30
0.0
 11
730.3667375000001
 21
935.2141941660998
 31
0.0
  0
LINE
  5
243
330
1F
100
AcDbEntity
  8
Ｓ_１_１
  6
CONTINUOUS
 62
     3
100
AcDbLine
 10
729.0208875
 20
946.8776191660999
 30
0.0
 11
728.4790515000001
 21
945.4010991660999
 31
0.0
  0
LINE
  5
244
330
1F
100
AcDbEntity
  8
Ｓ_１_１
  6
CONTINUOUS
 62
     3
100
AcDbLine
 10
727.7494744999999
 20
951.8869871660997
 30
0.0
 11
728.4791305
 21
945.4011831660998
 31
0.0
  0
LINE
  5
245
330
1F
100
AcDbEntity
  8
Ｓ_１_１
  6
CONTINUOUS
 62
     3
100
AcDbLine
 10
728.4458915000001
 20
951.9833271660998
 30
0.0
 11
729.0209375000001
 21
946.8777461660998
 31
0.0
  0
LINE
  5
246
330
1F
100
AcDbEntity
  8
Ｓ_１_１
  6
CONTINUOUS
 62
     3
100
AcDbLine
 10
744.9253575000001
 20
948.3010851660999
 30
0.0
 11
743.9111495000001
 21
949.5033001660997
 31
0.0
  0
LINE
  5
247
330
1F
100
AcDbEntity
  8
Ｓ_１_１
  6
CONTINUOUS
 62
     3
100
AcDbLine
 10
744.6006005
 20
949.6248561660998
 30
0.0
 11
728.3315725000001
 21
946.7561871660998
 31
0.0
  0
LINE
  5
248
330
1F
100
AcDbEntity
  8
Ｓ_１_１
  6
CONTINUOUS
 62
     3
100
AcDbLine
 10
743.3927895
 20
954.6451841660999
 30
0.0
 11
744.9253955
 21
948.3010391660998
 31
0.0
  0
LINE
  5
249
330
1F
100
AcDbEntity
  8
Ｓ_１_１
  6
CONTINUOUS
 62
     3
100
AcDbLine
 10
742.7054055
 20
954.4976221660997
 30
0.0
 11
743.9112685000001
 21
949.5031941660998
 31
0.0
  0
LINE
  5
24A
330
1F
100
AcDbEntity
  8
Ｓ_１_１
  6
CONTINUOUS
 62
     3
100
AcDbLine
 10
747.0426534999999
 20
948.6744831660999
 30
0.0
 11
748.8013195
 21
948.0300571660998
 31
0.0
  0
LINE
  5
24B
330
1F
100
AcDbEntity
  8
Ｓ_１_１
  6
CONTINUOUS
 62
     3
100
AcDbLine
 10
748.6055915000001
 20
939.8111561661
 30
0.0
 11
750.0377315
 21
941.0181691660998
 31
0.0
  0
LINE
  5
24C
330
1F
100
AcDbEntity
  8
Ｓ_１_１
  6
CONTINUOUS
 62
     3
100
AcDbLine
 10
726.3617325000001
 20
945.0278811660999
 30
0.0
 11
724.9295924999999
 21
943.8208691660998
 31
0.0
  0
LINE
  5
24D
330
1F
100
AcDbEntity
  8
Ｓ_１_１
  6
CONTINUOUS
 62
     3
100
AcDbLine
 10
727.9246214999998
 20
936.1645491661
 30
0.0
 11
726.1659565
 21
936.8089761660999
 31
0.0
  0
LINE
  5
24E
330
1F
100
AcDbEntity
  8
Ｓ_１_１
  6
CONTINUOUS
 62
     3
100
AcDbLine
 10
726.1659675
 20
936.8090001661
 30
0.0
 11
724.9295955
 21
943.8208121660998
 31
0.0
  0
LINE
  5
24F
330
1F
100
AcDbEntity
  8
Ｓ_１_１
  6
CONTINUOUS
 62
     3
100
AcDbLine
 10
750.0376675000001
 20
941.0182251660999
 30
0.0
 11
748.8012955
 21
948.0300371660999
 31
0.0
  0
LINE
  5
250
330
1F
100
AcDbEntity
  8
Ｓ_１_１
  6
CONTINUOUS
 62
     3
100
AcDbLine
 10
744.0697795
 20
939.9659261661
 30
0.0
 11
742.8334085
 21
946.9777371660998
 31
0.0
  0
LINE
  5
251
330
1F
100
AcDbEntity
  8
Ｓ_１_１
  6
CONTINUOUS
 62
     3
100
AcDbLine
 10
732.1339295000001
 20
937.8613131661001
 30
0.0
 11
730.8975585
 21
944.8731251660997
 31
0.0
  0
LINE
  5
252
330
1F
100
AcDbEntity
  8
Ｓ_１_１
  6
CONTINUOUS
 62
     3
100
AcDbLine
 10
748.6055604999999
 20
939.8111871660999
 30
0.0
 11
727.9246135
 21
936.1645781661
 31
0.0
  0
LINE
  5
253
330
1F
100
AcDbEntity
  8
Ｓ_１_１
  6
CONTINUOUS
 62
     3
100
AcDbLine
 10
747.0427245
 20
948.6744721660998
 30
0.0
 11
726.3617775000001
 21
945.0278631660999
 31
0.0
  0
LINE
  5
254
330
1F
100
AcDbEntity
  8
Ｓ_１_１
  6
CONTINUOUS
 62
     3
100
AcDbLine
 10
1063.9999715
 20
1145.0001441661
 30
0.0
 11
1063.9999715
 21
1165.0001441661
 31
0.0
  0
LINE
  5
255
330
1F
100
AcDbEntity
  8
Ｓ_１_１
  6
CONTINUOUS
 62
     3
100
AcDbLine
 10
1068.9999715
 20
1145.0001441661
 30
0.0
 11
1068.9999715
 21
1165.0001441661
 31
0.0
  0
LINE
  5
256
330
1F
100
AcDbEntity
  8
Ｓ_１_１
  6
CONTINUOUS
 62
     3
100
AcDbLine
 10
336.0000285
 20
1145.0001441661
 30
0.0
 11
336.0000285
 21
1165.0001441661
 31
0.0
  0
LINE
  5
257
330
1F
100
AcDbEntity
  8
Ｓ_１_１
  6
CONTINUOUS
 62
     3
100
AcDbLine
 10
331.0000285
 20
1145.0001441661
 30
0.0
 11
331.0000285
 21
1165.0001441661
 31
0.0
  0
LINE
  5
258
330
1F
100
AcDbEntity
  8
Ｓ_１_１
  6
CONTINUOUS
 62
     3
100
AcDbLine
 10
495.1783405
 20
1146.4501101661
 30
0.0
 11
482.5011855000001
 21
1146.4501101661
 31
0.0
  0
LINE
  5
259
330
1F
100
AcDbEntity
  8
Ｓ_１_１
  6
CONTINUOUS
 62
     3
100
AcDbLine
 10
495.7145345000001
 20
1137.9001531661
 30
0.0
 11
482.5011855000001
 21
1137.9001531661
 31
0.0
  0
LINE
  5
25A
330
1F
100
AcDbEntity
  8
Ｓ_１_１
  6
CONTINUOUS
 62
     3
100
AcDbLine
 10
480.9999825000001
 20
1137.5000791661
 30
0.0
 11
469.4499345
 21
1139.5400881661
 31
0.0
  0
LINE
  5
25B
330
1F
100
AcDbEntity
  8
Ｓ_１_１
  6
CONTINUOUS
 62
     3
100
AcDbLine
 10
481.0000265
 20
1137.5001441661
 30
0.0
 11
481.0000265
 21
1155.0001441661
 31
0.0
  0
LINE
  5
25C
330
1F
100
AcDbEntity
  8
Ｓ_１_１
  6
CONTINUOUS
 62
     3
100
AcDbLine
 10
467.8099645000001
 20
1141.2500651661
 30
0.0
 11
467.0599525000001
 21
1147.0001551661
 31
0.0
  0
LINE
  5
25D
330
1F
100
AcDbEntity
  8
Ｓ_１_１
  6
CONTINUOUS
 62
     3
100
AcDbLine
 10
417.9999965000001
 20
1147.0001131661
 30
0.0
 11
478.5200155000001
 21
1147.0001131661
 31
0.0
  0
LINE
  5
25E
330
1F
100
AcDbEntity
  8
Ｓ_１_１
  6
CONTINUOUS
 62
     3
100
AcDbLine
 10
982.0000035000002
 20
1147.0001131661
 30
0.0
 11
921.4799845000001
 21
1147.0001131661
 31
0.0
  0
LINE
  5
25F
330
1F
100
AcDbEntity
  8
Ｓ_１_１
  6
CONTINUOUS
 62
     3
100
AcDbLine
 10
932.1900585
 20
1141.2501321661
 30
0.0
 11
932.9400605000001
 21
1147.0001471661
 31
0.0
  0
LINE
  5
260
330
1F
100
AcDbEntity
  8
Ｓ_１_１
  6
CONTINUOUS
 62
     3
100
AcDbLine
 10
918.9999735
 20
1137.5001441661
 30
0.0
 11
918.9999735
 21
1155.0001441661
 31
0.0
  0
LINE
  5
261
330
1F
100
AcDbEntity
  8
Ｓ_１_１
  6
CONTINUOUS
 62
     3
100
AcDbLine
 10
919.0000005000002
 20
1137.5000311661
 30
0.0
 11
930.5500475
 21
1139.5400391661
 31
0.0
  0
LINE
  5
262
330
1F
100
AcDbEntity
  8
Ｓ_１_１
  6
CONTINUOUS
 62
     3
100
AcDbLine
 10
904.2855425000001
 20
1137.9001531661
 30
0.0
 11
917.4988905000001
 21
1137.9001531661
 31
0.0
  0
LINE
  5
263
330
1F
100
AcDbEntity
  8
Ｓ_１_１
  6
CONTINUOUS
 62
     3
100
AcDbLine
 10
904.8215835
 20
1146.4501101661
 30
0.0
 11
917.4988905000001
 21
1146.4501101661
 31
0.0
  0
LINE
  5
264
330
1F
100
AcDbEntity
  8
Ｓ_１_１
  6
EXLTYPE2
 62
     1
100
AcDbLine
 10
854.9999595
 20
570.9585139999999
 30
0.0
 11
854.9999595
 21
610.0000319999999
 31
0.0
  0
LINE
  5
265
330
1F
100
AcDbEntity
  8
Ｓ_１_１
  6
EXLTYPE2
 62
     1
100
AcDbLine
 10
829.9999595
 20
597.9999869999999
 30
0.0
 11
829.9999595
 21
610.0000319999999
 31
0.0
  0
LINE
  5
266
330
1F
100
AcDbEntity
  8
Ｓ_１_１
  6
EXLTYPE2
 62
     1
100
AcDbLine
 10
879.9999595
 20
597.9999869999999
 30
0.0
 11
879.9999595
 21
610.0000319999999
 31
0.0
  0
LINE
  5
267
330
1F
100
AcDbEntity
  8
Ｓ_１_１
  6
EXLTYPE2
 62
     1
100
AcDbLine
 10
779.9999605000002
 20
597.9999869999999
 30
0.0
 11
779.9999605000002
 21
610.0000319999999
 31
0.0
  0
LINE
  5
268
330
1F
100
AcDbEntity
  8
Ｓ_１_１
  6
EXLTYPE2
 62
     1
100
AcDbLine
 10
684.9999625000002
 20
665.0000319999999
 30
0.0
 11
714.9999614999999
 21
665.0000319999999
 31
0.0
  0
LINE
  5
269
330
1F
100
AcDbEntity
  8
Ｓ_１_１
  6
EXLTYPE2
 62
     1
100
AcDbLine
 10
619.9999635
 20
597.9999869999999
 30
0.0
 11
619.9999635
 21
610.0000319999999
 31
0.0
  0
LINE
  5
26A
330
1F
100
AcDbEntity
  8
Ｓ_１_１
  6
EXLTYPE2
 62
     1
100
AcDbLine
 10
519.9999645000001
 20
597.9999869999999
 30
0.0
 11
519.9999645000001
 21
610.0000319999999
 31
0.0
  0
LINE
  5
26B
330
1F
100
AcDbEntity
  8
Ｓ_１_１
  6
EXLTYPE2
 62
     1
100
AcDbLine
 10
569.9999635
 20
597.9999869999999
 30
0.0
 11
569.9999635
 21
610.0000319999999
 31
0.0
  0
LINE
  5
26C
330
1F
100
AcDbEntity
  8
Ｓ_１_１
  6
EXLTYPE2
 62
     1
100
AcDbLine
 10
544.9999645000001
 20
570.9585139999999
 30
0.0
 11
544.9999645000001
 21
610.0000319999999
 31
0.0
  0
LINE
  5
26D
330
1F
100
AcDbEntity
  8
Ｓ_１_１
  6
EXLTYPE2
 62
     1
100
AcDbLine
 10
735.5805585000002
 20
326.669005
 30
0.0
 11
735.5805585000002
 21
363.3309919999999
 31
0.0
  0
LINE
  5
26E
330
1F
100
AcDbEntity
  8
Ｓ_１_１
  6
EXLTYPE2
 62
     1
100
AcDbLine
 10
717.3934555
 20
344.999998
 30
0.0
 11
753.7678135
 21
344.999998
 31
0.0
  0
LINE
  5
26F
330
1F
100
AcDbEntity
  8
Ｓ_１_１
  6
EXLTYPE2
 62
     1
100
AcDbLine
 10
682.6066215
 20
394.999998
 30
0.0
 11
646.2322624999999
 21
394.999998
 31
0.0
  0
LINE
  5
270
330
1F
100
AcDbEntity
  8
Ｓ_１_１
  6
EXLTYPE2
 62
     1
100
AcDbLine
 10
664.4193655
 20
376.6690039999999
 30
0.0
 11
664.4193655
 21
413.330991
 31
0.0
  0
LINE
  5
271
330
1F
100
AcDbEntity
  8
Ｓ_１_１
  6
EXLTYPE2
 62
     1
100
AcDbLine
 10
527.1612195000001
 20
540.4999879999999
 30
0.0
 11
527.1612195000001
 21
494.499966
 31
0.0
  0
LINE
  5
272
330
1F
100
AcDbEntity
  8
Ｓ_１_１
  6
EXLTYPE2
 62
     1
100
AcDbLine
 10
677.0000845000001
 20
517.499996
 30
0.0
 11
722.9999925000001
 21
517.499996
 31
0.0
  0
LINE
  5
273
330
1F
100
AcDbEntity
  8
Ｓ_１_１
  6
EXLTYPE2
 62
     1
100
AcDbLine
 10
872.8387805000001
 20
540.4999879999999
 30
0.0
 11
872.8387805000001
 21
494.499966
 31
0.0
  0
LINE
  5
274
330
1F
100
AcDbEntity
  8
Ｓ_１_１
  6
EXLTYPE2
 62
     1
100
AcDbLine
 10
399.9993565000001
 20
424.999997
 30
0.0
 11
530.2000075
 21
424.999997
 31
0.0
  0
LINE
  5
275
330
1F
100
AcDbEntity
  8
Ｓ_１_１
  6
EXLTYPE2
 62
     1
100
AcDbLine
 10
909.9999585000002
 20
517.499996
 30
0.0
 11
856.3387655
 21
517.499996
 31
0.0
  0
LINE
  5
276
330
1F
100
AcDbEntity
  8
Ｓ_１_１
  6
EXLTYPE2
 62
     1
100
AcDbLine
 10
489.9999655
 20
517.499996
 30
0.0
 11
543.6611584999999
 21
517.499996
 31
0.0
  0
LINE
  5
277
330
1F
100
AcDbEntity
  8
Ｓ_１_１
  6
EXLTYPE2
 62
     1
100
AcDbLine
 10
1000.0007205
 20
424.999997
 30
0.0
 11
869.7999925
 21
424.999997
 31
0.0
  0
LINE
  5
278
330
1F
100
AcDbEntity
  8
Ｓ_１_１
  6
EXLTYPE2
 62
     1
100
AcDbLine
 10
446.0029255000001
 20
374.9984339999999
 30
0.0
 11
446.0029255000001
 21
474.998394
 31
0.0
  0
LINE
  5
279
330
1F
100
AcDbEntity
  8
Ｓ_１_１
  6
EXLTYPE2
 62
     1
100
AcDbLine
 10
953.9971505
 20
374.9984339999999
 30
0.0
 11
953.9971505
 21
474.998394
 31
0.0
  0
POLYLINE
  5
27A
330
1F
100
AcDbEntity
  8
Ｓ_１_１
  6
CONTINUOUS
 62
     3
100
AcDb2dPolyline
 66
     1
 10
0.0
 20
0.0
 30
0.0
 70
   128
  0
VERTEX
  5
27B
330
27A
100
AcDbEntity
  8
Ｓ_１_１
  6
CONTINUOUS
 62
     3
100
AcDbVertex
100
AcDb2dVertex
 10
735.5805585000002
 20
336.669005
 30
0.0
  0
VERTEX
  5
27C
330
27A
100
AcDbEntity
  8
Ｓ_１_１
  6
CONTINUOUS
 62
     3
100
AcDbVertex
100
AcDb2dVertex
 10
736.2941175
 20
336.700707
 30
0.0
  0
VERTEX
  5
27D
330
27A
100
AcDbEntity
  8
Ｓ_１_１
  6
CONTINUOUS
 62
     3
100
AcDbVertex
100
AcDb2dVertex
 10
737.0022475
 20
336.7955709999999
 30
0.0
  0
VERTEX
  5
27E
330
27A
100
AcDbEntity
  8
Ｓ_１_１
  6
CONTINUOUS
 62
     3
100
AcDbVertex
100
AcDb2dVertex
 10
737.6995565000001
 20
336.9528759999999
 30
0.0
  0
VERTEX
  5
27F
330
27A
100
AcDbEntity
  8
Ｓ_１_１
  6
CONTINUOUS
 62
     3
100
AcDbVertex
100
AcDb2dVertex
 10
738.3807385000001
 20
337.171425
 30
0.0
  0
VERTEX
  5
280
330
27A
100
AcDbEntity
  8
Ｓ_１_１
  6
CONTINUOUS
 62
     3
100
AcDbVertex
100
AcDb2dVertex
 10
739.0406095
 20
337.449554
 30
0.0
  0
VERTEX
  5
281
330
27A
100
AcDbEntity
  8
Ｓ_１_１
  6
CONTINUOUS
 62
     3
100
AcDbVertex
100
AcDb2dVertex
 10
739.6741485000001
 20
337.7851459999999
 30
0.0
  0
VERTEX
  5
282
330
27A
100
AcDbEntity
  8
Ｓ_１_１
  6
CONTINUOUS
 62
     3
100
AcDbVertex
100
AcDb2dVertex
 10
740.2765315
 20
338.1756479999999
 30
0.0
  0
VERTEX
  5
283
330
27A
100
AcDbEntity
  8
Ｓ_１_１
  6
CONTINUOUS
 62
     3
100
AcDbVertex
100
AcDb2dVertex
 10
740.8431755
 20
338.6180869999999
 30
0.0
  0
VERTEX
  5
284
330
27A
100
AcDbEntity
  8
Ｓ_１_１
  6
CONTINUOUS
 62
     3
100
AcDbVertex
100
AcDb2dVertex
 10
741.3697685000001
 20
339.1090959999999
 30
0.0
  0
VERTEX
  5
285
330
27A
100
AcDbEntity
  8
Ｓ_１_１
  6
CONTINUOUS
 62
     3
100
AcDbVertex
100
AcDb2dVertex
 10
741.8523015
 20
339.644939
 30
0.0
  0
VERTEX
  5
286
330
27A
100
AcDbEntity
  8
Ｓ_１_１
  6
CONTINUOUS
 62
     3
100
AcDbVertex
100
AcDb2dVertex
 10
742.2871035
 20
340.2215369999999
 30
0.0
  0
VERTEX
  5
287
330
27A
100
AcDbEntity
  8
Ｓ_１_１
  6
CONTINUOUS
 62
     3
100
AcDbVertex
100
AcDb2dVertex
 10
742.6708635000001
 20
340.8345019999999
 30
0.0
  0
VERTEX
  5
288
330
27A
100
AcDbEntity
  8
Ｓ_１_１
  6
CONTINUOUS
 62
     3
100
AcDbVertex
100
AcDb2dVertex
 10
743.0006625
 20
341.479168
 30
0.0
  0
VERTEX
  5
289
330
27A
100
AcDbEntity
  8
Ｓ_１_１
  6
CONTINUOUS
 62
     3
100
AcDbVertex
100
AcDb2dVertex
 10
743.2739905
 20
342.150631
 30
0.0
  0
VERTEX
  5
28A
330
27A
100
AcDbEntity
  8
Ｓ_１_１
  6
CONTINUOUS
 62
     3
100
AcDbVertex
100
AcDb2dVertex
 10
743.4887665
 20
342.8437779999999
 30
0.0
  0
VERTEX
  5
28B
330
27A
100
AcDbEntity
  8
Ｓ_１_１
  6
CONTINUOUS
 62
     3
100
AcDbVertex
100
AcDb2dVertex
 10
743.6433565000001
 20
343.5533359999999
 30
0.0
  0
VERTEX
  5
28C
330
27A
100
AcDbEntity
  8
Ｓ_１_１
  6
CONTINUOUS
 62
     3
100
AcDbVertex
100
AcDb2dVertex
 10
743.7365835
 20
344.2739039999999
 30
0.0
  0
VERTEX
  5
28D
330
27A
100
AcDbEntity
  8
Ｓ_１_１
  6
CONTINUOUS
 62
     3
100
AcDbVertex
100
AcDb2dVertex
 10
743.7677375
 20
344.999998
 30
0.0
  0
VERTEX
  5
28E
330
27A
100
AcDbEntity
  8
Ｓ_１_１
  6
CONTINUOUS
 62
     3
100
AcDbVertex
100
AcDb2dVertex
 10
743.7365835
 20
345.7260919999999
 30
0.0
  0
VERTEX
  5
28F
330
27A
100
AcDbEntity
  8
Ｓ_１_１
  6
CONTINUOUS
 62
     3
100
AcDbVertex
100
AcDb2dVertex
 10
743.6433565000001
 20
346.4466599999999
 30
0.0
  0
VERTEX
  5
290
330
27A
100
AcDbEntity
  8
Ｓ_１_１
  6
CONTINUOUS
 62
     3
100
AcDbVertex
100
AcDb2dVertex
 10
743.4887665
 20
347.156218
 30
0.0
  0
VERTEX
  5
291
330
27A
100
AcDbEntity
  8
Ｓ_１_１
  6
CONTINUOUS
 62
     3
100
AcDbVertex
100
AcDb2dVertex
 10
743.2739905
 20
347.8493659999999
 30
0.0
  0
VERTEX
  5
292
330
27A
100
AcDbEntity
  8
Ｓ_１_１
  6
CONTINUOUS
 62
     3
100
AcDbVertex
100
AcDb2dVertex
 10
743.0006625
 20
348.5208279999999
 30
0.0
  0
VERTEX
  5
293
330
27A
100
AcDbEntity
  8
Ｓ_１_１
  6
CONTINUOUS
 62
     3
100
AcDbVertex
100
AcDb2dVertex
 10
742.6708635000001
 20
349.1654949999999
 30
0.0
  0
VERTEX
  5
294
330
27A
100
AcDbEntity
  8
Ｓ_１_１
  6
CONTINUOUS
 62
     3
100
AcDbVertex
100
AcDb2dVertex
 10
742.2871035
 20
349.77846
 30
0.0
  0
VERTEX
  5
295
330
27A
100
AcDbEntity
  8
Ｓ_１_１
  6
CONTINUOUS
 62
     3
100
AcDbVertex
100
AcDb2dVertex
 10
741.8523015
 20
350.3550579999999
 30
0.0
  0
VERTEX
  5
296
330
27A
100
AcDbEntity
  8
Ｓ_１_１
  6
CONTINUOUS
 62
     3
100
AcDbVertex
100
AcDb2dVertex
 10
741.3697685000001
 20
350.8908999999999
 30
0.0
  0
VERTEX
  5
297
330
27A
100
AcDbEntity
  8
Ｓ_１_１
  6
CONTINUOUS
 62
     3
100
AcDbVertex
100
AcDb2dVertex
 10
740.8431755
 20
351.3819099999999
 30
0.0
  0
VERTEX
  5
298
330
27A
100
AcDbEntity
  8
Ｓ_１_１
  6
CONTINUOUS
 62
     3
100
AcDbVertex
100
AcDb2dVertex
 10
740.2765315
 20
351.8243489999999
 30
0.0
  0
VERTEX
  5
299
330
27A
100
AcDbEntity
  8
Ｓ_１_１
  6
CONTINUOUS
 62
     3
100
AcDbVertex
100
AcDb2dVertex
 10
739.6741485000001
 20
352.2148499999999
 30
0.0
  0
VERTEX
  5
29A
330
27A
100
AcDbEntity
  8
Ｓ_１_１
  6
CONTINUOUS
 62
     3
100
AcDbVertex
100
AcDb2dVertex
 10
739.0406095
 20
352.550443
 30
0.0
  0
VERTEX
  5
29B
330
27A
100
AcDbEntity
  8
Ｓ_１_１
  6
CONTINUOUS
 62
     3
100
AcDbVertex
100
AcDb2dVertex
 10
738.3807385000001
 20
352.828571
 30
0.0
  0
VERTEX
  5
29C
330
27A
100
AcDbEntity
  8
Ｓ_１_１
  6
CONTINUOUS
 62
     3
100
AcDbVertex
100
AcDb2dVertex
 10
737.6995565000001
 20
353.0471199999999
 30
0.0
  0
VERTEX
  5
29D
330
27A
100
AcDbEntity
  8
Ｓ_１_１
  6
CONTINUOUS
 62
     3
100
AcDbVertex
100
AcDb2dVertex
 10
737.0022475
 20
353.2044249999999
 30
0.0
  0
VERTEX
  5
29E
330
27A
100
AcDbEntity
  8
Ｓ_１_１
  6
CONTINUOUS
 62
     3
100
AcDbVertex
100
AcDb2dVertex
 10
736.2941175
 20
353.2992899999999
 30
0.0
  0
VERTEX
  5
29F
330
27A
100
AcDbEntity
  8
Ｓ_１_１
  6
CONTINUOUS
 62
     3
100
AcDbVertex
100
AcDb2dVertex
 10
735.5805585000002
 20
353.3309919999999
 30
0.0
  0
VERTEX
  5
2A0
330
27A
100
AcDbEntity
  8
Ｓ_１_１
  6
CONTINUOUS
 62
     3
100
AcDbVertex
100
AcDb2dVertex
 10
734.8669985
 20
353.2992899999999
 30
0.0
  0
VERTEX
  5
2A1
330
27A
100
AcDbEntity
  8
Ｓ_１_１
  6
CONTINUOUS
 62
     3
100
AcDbVertex
100
AcDb2dVertex
 10
734.1588695000002
 20
353.2044249999999
 30
0.0
  0
VERTEX
  5
2A2
330
27A
100
AcDbEntity
  8
Ｓ_１_１
  6
CONTINUOUS
 62
     3
100
AcDbVertex
100
AcDb2dVertex
 10
733.4615605
 20
353.0471199999999
 30
0.0
  0
VERTEX
  5
2A3
330
27A
100
AcDbEntity
  8
Ｓ_１_１
  6
CONTINUOUS
 62
     3
100
AcDbVertex
100
AcDb2dVertex
 10
732.7803785
 20
352.828571
 30
0.0
  0
VERTEX
  5
2A4
330
27A
100
AcDbEntity
  8
Ｓ_１_１
  6
CONTINUOUS
 62
     3
100
AcDbVertex
100
AcDb2dVertex
 10
732.1205065
 20
352.550443
 30
0.0
  0
VERTEX
  5
2A5
330
27A
100
AcDbEntity
  8
Ｓ_１_１
  6
CONTINUOUS
 62
     3
100
AcDbVertex
100
AcDb2dVertex
 10
731.4869685
 20
352.2148499999999
 30
0.0
  0
VERTEX
  5
2A6
330
27A
100
AcDbEntity
  8
Ｓ_１_１
  6
CONTINUOUS
 62
     3
100
AcDbVertex
100
AcDb2dVertex
 10
730.8845855000001
 20
351.8243489999999
 30
0.0
  0
VERTEX
  5
2A7
330
27A
100
AcDbEntity
  8
Ｓ_１_１
  6
CONTINUOUS
 62
     3
100
AcDbVertex
100
AcDb2dVertex
 10
730.3179405
 20
351.3819099999999
 30
0.0
  0
VERTEX
  5
2A8
330
27A
100
AcDbEntity
  8
Ｓ_１_１
  6
CONTINUOUS
 62
     3
100
AcDbVertex
100
AcDb2dVertex
 10
729.7913485
 20
350.8908999999999
 30
0.0
  0
VERTEX
  5
2A9
330
27A
100
AcDbEntity
  8
Ｓ_１_１
  6
CONTINUOUS
 62
     3
100
AcDbVertex
100
AcDb2dVertex
 10
729.3088144999999
 20
350.3550579999999
 30
0.0
  0
VERTEX
  5
2AA
330
27A
100
AcDbEntity
  8
Ｓ_１_１
  6
CONTINUOUS
 62
     3
100
AcDbVertex
100
AcDb2dVertex
 10
728.8740135000002
 20
349.77846
 30
0.0
  0
VERTEX
  5
2AB
330
27A
100
AcDbEntity
  8
Ｓ_１_１
  6
CONTINUOUS
 62
     3
100
AcDbVertex
100
AcDb2dVertex
 10
728.4902525000001
 20
349.1654949999999
 30
0.0
  0
VERTEX
  5
2AC
330
27A
100
AcDbEntity
  8
Ｓ_１_１
  6
CONTINUOUS
 62
     3
100
AcDbVertex
100
AcDb2dVertex
 10
728.1604535
 20
348.5208279999999
 30
0.0
  0
VERTEX
  5
2AD
330
27A
100
AcDbEntity
  8
Ｓ_１_１
  6
CONTINUOUS
 62
     3
100
AcDbVertex
100
AcDb2dVertex
 10
727.8871265000001
 20
347.8493659999999
 30
0.0
  0
VERTEX
  5
2AE
330
27A
100
AcDbEntity
  8
Ｓ_１_１
  6
CONTINUOUS
 62
     3
100
AcDbVertex
100
AcDb2dVertex
 10
727.6723505000001
 20
347.156218
 30
0.0
  0
VERTEX
  5
2AF
330
27A
100
AcDbEntity
  8
Ｓ_１_１
  6
CONTINUOUS
 62
     3
100
AcDbVertex
100
AcDb2dVertex
 10
727.5177605
 20
346.4466599999999
 30
0.0
  0
VERTEX
  5
2B0
330
27A
100
AcDbEntity
  8
Ｓ_１_１
  6
CONTINUOUS
 62
     3
100
AcDbVertex
100
AcDb2dVertex
 10
727.4245335000002
 20
345.7260919999999
 30
0.0
  0
VERTEX
  5
2B1
330
27A
100
AcDbEntity
  8
Ｓ_１_１
  6
CONTINUOUS
 62
     3
100
AcDbVertex
100
AcDb2dVertex
 10
727.3933785
 20
344.999998
 30
0.0
  0
VERTEX
  5
2B2
330
27A
100
AcDbEntity
  8
Ｓ_１_１
  6
CONTINUOUS
 62
     3
100
AcDbVertex
100
AcDb2dVertex
 10
727.4245335000002
 20
344.2739039999999
 30
0.0
  0
VERTEX
  5
2B3
330
27A
100
AcDbEntity
  8
Ｓ_１_１
  6
CONTINUOUS
 62
     3
100
AcDbVertex
100
AcDb2dVertex
 10
727.5177605
 20
343.5533359999999
 30
0.0
  0
VERTEX
  5
2B4
330
27A
100
AcDbEntity
  8
Ｓ_１_１
  6
CONTINUOUS
 62
     3
100
AcDbVertex
100
AcDb2dVertex
 10
727.6723505000001
 20
342.8437779999999
 30
0.0
  0
VERTEX
  5
2B5
330
27A
100
AcDbEntity
  8
Ｓ_１_１
  6
CONTINUOUS
 62
     3
100
AcDbVertex
100
AcDb2dVertex
 10
727.8871265000001
 20
342.150631
 30
0.0
  0
VERTEX
  5
2B6
330
27A
100
AcDbEntity
  8
Ｓ_１_１
  6
CONTINUOUS
 62
     3
100
AcDbVertex
100
AcDb2dVertex
 10
728.1604535
 20
341.479168
 30
0.0
  0
VERTEX
  5
2B7
330
27A
100
AcDbEntity
  8
Ｓ_１_１
  6
CONTINUOUS
 62
     3
100
AcDbVertex
100
AcDb2dVertex
 10
728.4902525000001
 20
340.8345019999999
 30
0.0
  0
VERTEX
  5
2B8
330
27A
100
AcDbEntity
  8
Ｓ_１_１
  6
CONTINUOUS
 62
     3
100
AcDbVertex
100
AcDb2dVertex
 10
728.8740135000002
 20
340.2215369999999
 30
0.0
  0
VERTEX
  5
2B9
330
27A
100
AcDbEntity
  8
Ｓ_１_１
  6
CONTINUOUS
 62
     3
100
AcDbVertex
100
AcDb2dVertex
 10
729.3088144999999
 20
339.644939
 30
0.0
  0
VERTEX
  5
2BA
330
27A
100
AcDbEntity
  8
Ｓ_１_１
  6
CONTINUOUS
 62
     3
100
AcDbVertex
100
AcDb2dVertex
 10
729.7913485
 20
339.1090959999999
 30
0.0
  0
VERTEX
  5
2BB
330
27A
100
AcDbEntity
  8
Ｓ_１_１
  6
CONTINUOUS
 62
     3
100
AcDbVertex
100
AcDb2dVertex
 10
730.3179405
 20
338.6180869999999
 30
0.0
  0
VERTEX
  5
2BC
330
27A
100
AcDbEntity
  8
Ｓ_１_１
  6
CONTINUOUS
 62
     3
100
AcDbVertex
100
AcDb2dVertex
 10
730.8845855000001
 20
338.1756479999999
 30
0.0
  0
VERTEX
  5
2BD
330
27A
100
AcDbEntity
  8
Ｓ_１_１
  6
CONTINUOUS
 62
     3
100
AcDbVertex
100
AcDb2dVertex
 10
731.4869685
 20
337.7851459999999
 30
0.0
  0
VERTEX
  5
2BE
330
27A
100
AcDbEntity
  8
Ｓ_１_１
  6
CONTINUOUS
 62
     3
100
AcDbVertex
100
AcDb2dVertex
 10
732.1205065
 20
337.449554
 30
0.0
  0
VERTEX
  5
2BF
330
27A
100
AcDbEntity
  8
Ｓ_１_１
  6
CONTINUOUS
 62
     3
100
AcDbVertex
100
AcDb2dVertex
 10
732.7803785
 20
337.171425
 30
0.0
  0
VERTEX
  5
2C0
330
27A
100
AcDbEntity
  8
Ｓ_１_１
  6
CONTINUOUS
 62
     3
100
AcDbVertex
100
AcDb2dVertex
 10
733.4615605
 20
336.9528759999999
 30
0.0
  0
VERTEX
  5
2C1
330
27A
100
AcDbEntity
  8
Ｓ_１_１
  6
CONTINUOUS
 62
     3
100
AcDbVertex
100
AcDb2dVertex
 10
734.1588695000002
 20
336.7955709999999
 30
0.0
  0
VERTEX
  5
2C2
330
27A
100
AcDbEntity
  8
Ｓ_１_１
  6
CONTINUOUS
 62
     3
100
AcDbVertex
100
AcDb2dVertex
 10
734.8669985
 20
336.700707
 30
0.0
  0
VERTEX
  5
2C3
330
27A
100
AcDbEntity
  8
Ｓ_１_１
  6
CONTINUOUS
 62
     3
100
AcDbVertex
100
AcDb2dVertex
 10
735.5805585000002
 20
336.669005
 30
0.0
  0
SEQEND
  5
2C4
330
27A
100
AcDbEntity
  8
Ｓ_１_１
  6
CONTINUOUS
 62
     3
  0
POLYLINE
  5
2C5
330
1F
100
AcDbEntity
  8
Ｓ_１_１
  6
CONTINUOUS
 62
     3
100
AcDb2dPolyline
 66
     1
 10
0.0
 20
0.0
 30
0.0
 70
   128
  0
VERTEX
  5
2C6
330
2C5
100
AcDbEntity
  8
Ｓ_１_１
  6
CONTINUOUS
 62
     3
100
AcDbVertex
100
AcDb2dVertex
 10
735.5881875000001
 20
337.524985
 30
0.0
  0
VERTEX
  5
2C7
330
2C5
100
AcDbEntity
  8
Ｓ_１_１
  6
CONTINUOUS
 62
     3
100
AcDbVertex
100
AcDb2dVertex
 10
736.2306314999998
 20
337.5534289999999
 30
0.0
  0
VERTEX
  5
2C8
330
2C5
100
AcDbEntity
  8
Ｓ_１_１
  6
CONTINUOUS
 62
     3
100
AcDbVertex
100
AcDb2dVertex
 10
736.8681855000001
 20
337.638547
 30
0.0
  0
VERTEX
  5
2C9
330
2C5
100
AcDbEntity
  8
Ｓ_１_１
  6
CONTINUOUS
 62
     3
100
AcDbVertex
100
AcDb2dVertex
 10
737.4959985000002
 20
337.779689
 30
0.0
  0
VERTEX
  5
2CA
330
2C5
100
AcDbEntity
  8
Ｓ_１_１
  6
CONTINUOUS
 62
     3
100
AcDbVertex
100
AcDb2dVertex
 10
738.1092915
 20
337.9757819999999
 30
0.0
  0
VERTEX
  5
2CB
330
2C5
100
AcDbEntity
  8
Ｓ_１_１
  6
CONTINUOUS
 62
     3
100
AcDbVertex
100
AcDb2dVertex
 10
738.7033985000002
 20
338.2253329999999
 30
0.0
  0
VERTEX
  5
2CC
330
2C5
100
AcDbEntity
  8
Ｓ_１_１
  6
CONTINUOUS
 62
     3
100
AcDbVertex
100
AcDb2dVertex
 10
739.2737955000001
 20
338.5264439999999
 30
0.0
  0
VERTEX
  5
2CD
330
2C5
100
AcDbEntity
  8
Ｓ_１_１
  6
CONTINUOUS
 62
     3
100
AcDbVertex
100
AcDb2dVertex
 10
739.8161435000001
 20
338.8768219999999
 30
0.0
  0
VERTEX
  5
2CE
330
2C5
100
AcDbEntity
  8
Ｓ_１_１
  6
CONTINUOUS
 62
     3
100
AcDbVertex
100
AcDb2dVertex
 10
740.3263135000001
 20
339.2738009999999
 30
0.0
  0
VERTEX
  5
2CF
330
2C5
100
AcDbEntity
  8
Ｓ_１_１
  6
CONTINUOUS
 62
     3
100
AcDbVertex
100
AcDb2dVertex
 10
740.8004245000001
 20
339.7143599999999
 30
0.0
  0
VERTEX
  5
2D0
330
2C5
100
AcDbEntity
  8
Ｓ_１_１
  6
CONTINUOUS
 62
     3
100
AcDbVertex
100
AcDb2dVertex
 10
741.2348665
 20
340.1951449999999
 30
0.0
  0
VERTEX
  5
2D1
330
2C5
100
AcDbEntity
  8
Ｓ_１_１
  6
CONTINUOUS
 62
     3
100
AcDbVertex
100
AcDb2dVertex
 10
741.6263345000001
 20
340.7124979999999
 30
0.0
  0
VERTEX
  5
2D2
330
2C5
100
AcDbEntity
  8
Ｓ_１_１
  6
CONTINUOUS
 62
     3
100
AcDbVertex
100
AcDb2dVertex
 10
741.9718475
 20
341.262482
 30
0.0
  0
VERTEX
  5
2D3
330
2C5
100
AcDbEntity
  8
Ｓ_１_１
  6
CONTINUOUS
 62
     3
100
AcDbVertex
100
AcDb2dVertex
 10
742.2687775
 20
341.8409099999998
 30
0.0
  0
VERTEX
  5
2D4
330
2C5
100
AcDbEntity
  8
Ｓ_１_１
  6
CONTINUOUS
 62
     3
100
AcDbVertex
100
AcDb2dVertex
 10
742.5148644999999
 20
342.4433799999999
 30
0.0
  0
VERTEX
  5
2D5
330
2C5
100
AcDbEntity
  8
Ｓ_１_１
  6
CONTINUOUS
 62
     3
100
AcDbVertex
100
AcDb2dVertex
 10
742.7082355000001
 20
343.065308
 30
0.0
  0
VERTEX
  5
2D6
330
2C5
100
AcDbEntity
  8
Ｓ_１_１
  6
CONTINUOUS
 62
     3
100
AcDbVertex
100
AcDb2dVertex
 10
742.8474185000001
 20
343.7019599999998
 30
0.0
  0
VERTEX
  5
2D7
330
2C5
100
AcDbEntity
  8
Ｓ_１_１
  6
CONTINUOUS
 62
     3
100
AcDbVertex
100
AcDb2dVertex
 10
742.9313535
 20
344.34849
 30
0.0
  0
VERTEX
  5
2D8
330
2C5
100
AcDbEntity
  8
Ｓ_１_１
  6
CONTINUOUS
 62
     3
100
AcDbVertex
100
AcDb2dVertex
 10
742.9594035
 20
344.9999789999999
 30
0.0
  0
VERTEX
  5
2D9
330
2C5
100
AcDbEntity
  8
Ｓ_１_１
  6
CONTINUOUS
 62
     3
100
AcDbVertex
100
AcDb2dVertex
 10
742.9313535
 20
345.651468
 30
0.0
  0
VERTEX
  5
2DA
330
2C5
100
AcDbEntity
  8
Ｓ_１_１
  6
CONTINUOUS
 62
     3
100
AcDbVertex
100
AcDb2dVertex
 10
742.8474185000001
 20
346.297998
 30
0.0
  0
VERTEX
  5
2DB
330
2C5
100
AcDbEntity
  8
Ｓ_１_１
  6
CONTINUOUS
 62
     3
100
AcDbVertex
100
AcDb2dVertex
 10
742.7082355000001
 20
346.9346499999999
 30
0.0
  0
VERTEX
  5
2DC
330
2C5
100
AcDbEntity
  8
Ｓ_１_１
  6
CONTINUOUS
 62
     3
100
AcDbVertex
100
AcDb2dVertex
 10
742.5148644999999
 20
347.5565779999999
 30
0.0
  0
VERTEX
  5
2DD
330
2C5
100
AcDbEntity
  8
Ｓ_１_１
  6
CONTINUOUS
 62
     3
100
AcDbVertex
100
AcDb2dVertex
 10
742.2687775
 20
348.159048
 30
0.0
  0
VERTEX
  5
2DE
330
2C5
100
AcDbEntity
  8
Ｓ_１_１
  6
CONTINUOUS
 62
     3
100
AcDbVertex
100
AcDb2dVertex
 10
741.9718475
 20
348.737476
 30
0.0
  0
VERTEX
  5
2DF
330
2C5
100
AcDbEntity
  8
Ｓ_１_１
  6
CONTINUOUS
 62
     3
100
AcDbVertex
100
AcDb2dVertex
 10
741.6263345000001
 20
349.28746
 30
0.0
  0
VERTEX
  5
2E0
330
2C5
100
AcDbEntity
  8
Ｓ_１_１
  6
CONTINUOUS
 62
     3
100
AcDbVertex
100
AcDb2dVertex
 10
741.2348665
 20
349.804813
 30
0.0
  0
VERTEX
  5
2E1
330
2C5
100
AcDbEntity
  8
Ｓ_１_１
  6
CONTINUOUS
 62
     3
100
AcDbVertex
100
AcDb2dVertex
 10
740.8004245000001
 20
350.2855989999999
 30
0.0
  0
VERTEX
  5
2E2
330
2C5
100
AcDbEntity
  8
Ｓ_１_１
  6
CONTINUOUS
 62
     3
100
AcDbVertex
100
AcDb2dVertex
 10
740.3263135000001
 20
350.7261569999999
 30
0.0
  0
VERTEX
  5
2E3
330
2C5
100
AcDbEntity
  8
Ｓ_１_１
  6
CONTINUOUS
 62
     3
100
AcDbVertex
100
AcDb2dVertex
 10
739.8161435000001
 20
351.1231359999999
 30
0.0
  0
VERTEX
  5
2E4
330
2C5
100
AcDbEntity
  8
Ｓ_１_１
  6
CONTINUOUS
 62
     3
100
AcDbVertex
100
AcDb2dVertex
 10
739.2737955000001
 20
351.473514
 30
0.0
  0
VERTEX
  5
2E5
330
2C5
100
AcDbEntity
  8
Ｓ_１_１
  6
CONTINUOUS
 62
     3
100
AcDbVertex
100
AcDb2dVertex
 10
738.7033985000002
 20
351.774625
 30
0.0
  0
VERTEX
  5
2E6
330
2C5
100
AcDbEntity
  8
Ｓ_１_１
  6
CONTINUOUS
 62
     3
100
AcDbVertex
100
AcDb2dVertex
 10
738.1092915
 20
352.0241759999999
 30
0.0
  0
VERTEX
  5
2E7
330
2C5
100
AcDbEntity
  8
Ｓ_１_１
  6
CONTINUOUS
 62
     3
100
AcDbVertex
100
AcDb2dVertex
 10
737.4959985000002
 20
352.2202689999999
 30
0.0
  0
VERTEX
  5
2E8
330
2C5
100
AcDbEntity
  8
Ｓ_１_１
  6
CONTINUOUS
 62
     3
100
AcDbVertex
100
AcDb2dVertex
 10
736.8681855000001
 20
352.361412
 30
0.0
  0
VERTEX
  5
2E9
330
2C5
100
AcDbEntity
  8
Ｓ_１_１
  6
CONTINUOUS
 62
     3
100
AcDbVertex
100
AcDb2dVertex
 10
736.2306314999998
 20
352.4465289999999
 30
0.0
  0
VERTEX
  5
2EA
330
2C5
100
AcDbEntity
  8
Ｓ_１_１
  6
CONTINUOUS
 62
     3
100
AcDbVertex
100
AcDb2dVertex
 10
735.5881875000001
 20
352.474974
 30
0.0
  0
VERTEX
  5
2EB
330
2C5
100
AcDbEntity
  8
Ｓ_１_１
  6
CONTINUOUS
 62
     3
100
AcDbVertex
100
AcDb2dVertex
 10
734.9457435
 20
352.4465289999999
 30
0.0
  0
VERTEX
  5
2EC
330
2C5
100
AcDbEntity
  8
Ｓ_１_１
  6
CONTINUOUS
 62
     3
100
AcDbVertex
100
AcDb2dVertex
 10
734.3081895000001
 20
352.361412
 30
0.0
  0
VERTEX
  5
2ED
330
2C5
100
AcDbEntity
  8
Ｓ_１_１
  6
CONTINUOUS
 62
     3
100
AcDbVertex
100
AcDb2dVertex
 10
733.6803765
 20
352.2202689999999
 30
0.0
  0
VERTEX
  5
2EE
330
2C5
100
AcDbEntity
  8
Ｓ_１_１
  6
CONTINUOUS
 62
     3
100
AcDbVertex
100
AcDb2dVertex
 10
733.0670834999999
 20
352.0241759999999
 30
0.0
  0
VERTEX
  5
2EF
330
2C5
100
AcDbEntity
  8
Ｓ_１_１
  6
CONTINUOUS
 62
     3
100
AcDbVertex
100
AcDb2dVertex
 10
732.4729775
 20
351.774625
 30
0.0
  0
VERTEX
  5
2F0
330
2C5
100
AcDbEntity
  8
Ｓ_１_１
  6
CONTINUOUS
 62
     3
100
AcDbVertex
100
AcDb2dVertex
 10
731.9025795000001
 20
351.473514
 30
0.0
  0
VERTEX
  5
2F1
330
2C5
100
AcDbEntity
  8
Ｓ_１_１
  6
CONTINUOUS
 62
     3
100
AcDbVertex
100
AcDb2dVertex
 10
731.3602325
 20
351.1231359999999
 30
0.0
  0
VERTEX
  5
2F2
330
2C5
100
AcDbEntity
  8
Ｓ_１_１
  6
CONTINUOUS
 62
     3
100
AcDbVertex
100
AcDb2dVertex
 10
730.8500615
 20
350.7261569999999
 30
0.0
  0
VERTEX
  5
2F3
330
2C5
100
AcDbEntity
  8
Ｓ_１_１
  6
CONTINUOUS
 62
     3
100
AcDbVertex
100
AcDb2dVertex
 10
730.3759514999999
 20
350.2855989999999
 30
0.0
  0
VERTEX
  5
2F4
330
2C5
100
AcDbEntity
  8
Ｓ_１_１
  6
CONTINUOUS
 62
     3
100
AcDbVertex
100
AcDb2dVertex
 10
729.9415084999999
 20
349.804813
 30
0.0
  0
VERTEX
  5
2F5
330
2C5
100
AcDbEntity
  8
Ｓ_１_１
  6
CONTINUOUS
 62
     3
100
AcDbVertex
100
AcDb2dVertex
 10
729.5500415
 20
349.28746
 30
0.0
  0
VERTEX
  5
2F6
330
2C5
100
AcDbEntity
  8
Ｓ_１_１
  6
CONTINUOUS
 62
     3
100
AcDbVertex
100
AcDb2dVertex
 10
729.2045275000002
 20
348.737476
 30
0.0
  0
VERTEX
  5
2F7
330
2C5
100
AcDbEntity
  8
Ｓ_１_１
  6
CONTINUOUS
 62
     3
100
AcDbVertex
100
AcDb2dVertex
 10
728.9075975
 20
348.159048
 30
0.0
  0
VERTEX
  5
2F8
330
2C5
100
AcDbEntity
  8
Ｓ_１_１
  6
CONTINUOUS
 62
     3
100
AcDbVertex
100
AcDb2dVertex
 10
728.6615105
 20
347.5565779999999
 30
0.0
  0
VERTEX
  5
2F9
330
2C5
100
AcDbEntity
  8
Ｓ_１_１
  6
CONTINUOUS
 62
     3
100
AcDbVertex
100
AcDb2dVertex
 10
728.4681405
 20
346.9346499999999
 30
0.0
  0
VERTEX
  5
2FA
330
2C5
100
AcDbEntity
  8
Ｓ_１_１
  6
CONTINUOUS
 62
     3
100
AcDbVertex
100
AcDb2dVertex
 10
728.3289575
 20
346.297998
 30
0.0
  0
VERTEX
  5
2FB
330
2C5
100
AcDbEntity
  8
Ｓ_１_１
  6
CONTINUOUS
 62
     3
100
AcDbVertex
100
AcDb2dVertex
 10
728.2450215
 20
345.651468
 30
0.0
  0
VERTEX
  5
2FC
330
2C5
100
AcDbEntity
  8
Ｓ_１_１
  6
CONTINUOUS
 62
     3
100
AcDbVertex
100
AcDb2dVertex
 10
728.2169715000001
 20
344.9999789999999
 30
0.0
  0
VERTEX
  5
2FD
330
2C5
100
AcDbEntity
  8
Ｓ_１_１
  6
CONTINUOUS
 62
     3
100
AcDbVertex
100
AcDb2dVertex
 10
728.2450215
 20
344.34849
 30
0.0
  0
VERTEX
  5
2FE
330
2C5
100
AcDbEntity
  8
Ｓ_１_１
  6
CONTINUOUS
 62
     3
100
AcDbVertex
100
AcDb2dVertex
 10
728.3289575
 20
343.7019599999998
 30
0.0
  0
VERTEX
  5
2FF
330
2C5
100
AcDbEntity
  8
Ｓ_１_１
  6
CONTINUOUS
 62
     3
100
AcDbVertex
100
AcDb2dVertex
 10
728.4681405
 20
343.065308
 30
0.0
  0
VERTEX
  5
300
330
2C5
100
AcDbEntity
  8
Ｓ_１_１
  6
CONTINUOUS
 62
     3
100
AcDbVertex
100
AcDb2dVertex
 10
728.6615105
 20
342.4433799999999
 30
0.0
  0
VERTEX
  5
301
330
2C5
100
AcDbEntity
  8
Ｓ_１_１
  6
CONTINUOUS
 62
     3
100
AcDbVertex
100
AcDb2dVertex
 10
728.9075975
 20
341.8409099999998
 30
0.0
  0
VERTEX
  5
302
330
2C5
100
AcDbEntity
  8
Ｓ_１_１
  6
CONTINUOUS
 62
     3
100
AcDbVertex
100
AcDb2dVertex
 10
729.2045275000002
 20
341.262482
 30
0.0
  0
VERTEX
  5
303
330
2C5
100
AcDbEntity
  8
Ｓ_１_１
  6
CONTINUOUS
 62
     3
100
AcDbVertex
100
AcDb2dVertex
 10
729.5500415
 20
340.7124979999999
 30
0.0
  0
VERTEX
  5
304
330
2C5
100
AcDbEntity
  8
Ｓ_１_１
  6
CONTINUOUS
 62
     3
100
AcDbVertex
100
AcDb2dVertex
 10
729.9415084999999
 20
340.1951449999999
 30
0.0
  0
VERTEX
  5
305
330
2C5
100
AcDbEntity
  8
Ｓ_１_１
  6
CONTINUOUS
 62
     3
100
AcDbVertex
100
AcDb2dVertex
 10
730.3759514999999
 20
339.7143599999999
 30
0.0
  0
VERTEX
  5
306
330
2C5
100
AcDbEntity
  8
Ｓ_１_１
  6
CONTINUOUS
 62
     3
100
AcDbVertex
100
AcDb2dVertex
 10
730.8500615
 20
339.2738009999999
 30
0.0
  0
VERTEX
  5
307
330
2C5
100
AcDbEntity
  8
Ｓ_１_１
  6
CONTINUOUS
 62
     3
100
AcDbVertex
100
AcDb2dVertex
 10
731.3602325
 20
338.8768219999999
 30
0.0
  0
VERTEX
  5
308
330
2C5
100
AcDbEntity
  8
Ｓ_１_１
  6
CONTINUOUS
 62
     3
100
AcDbVertex
100
AcDb2dVertex
 10
731.9025795000001
 20
338.5264439999999
 30
0.0
  0
VERTEX
  5
309
330
2C5
100
AcDbEntity
  8
Ｓ_１_１
  6
CONTINUOUS
 62
     3
100
AcDbVertex
100
AcDb2dVertex
 10
732.4729775
 20
338.2253329999999
 30
0.0
  0
VERTEX
  5
30A
330
2C5
100
AcDbEntity
  8
Ｓ_１_１
  6
CONTINUOUS
 62
     3
100
AcDbVertex
100
AcDb2dVertex
 10
733.0670834999999
 20
337.9757819999999
 30
0.0
  0
VERTEX
  5
30B
330
2C5
100
AcDbEntity
  8
Ｓ_１_１
  6
CONTINUOUS
 62
     3
100
AcDbVertex
100
AcDb2dVertex
 10
733.6803765
 20
337.779689
 30
0.0
  0
VERTEX
  5
30C
330
2C5
100
AcDbEntity
  8
Ｓ_１_１
  6
CONTINUOUS
 62
     3
100
AcDbVertex
100
AcDb2dVertex
 10
734.3081895000001
 20
337.638547
 30
0.0
  0
VERTEX
  5
30D
330
2C5
100
AcDbEntity
  8
Ｓ_１_１
  6
CONTINUOUS
 62
     3
100
AcDbVertex
100
AcDb2dVertex
 10
734.9457435
 20
337.5534289999999
 30
0.0
  0
VERTEX
  5
30E
330
2C5
100
AcDbEntity
  8
Ｓ_１_１
  6
CONTINUOUS
 62
     3
100
AcDbVertex
100
AcDb2dVertex
 10
735.5881875000001
 20
337.524985
 30
0.0
  0
SEQEND
  5
30F
330
2C5
100
AcDbEntity
  8
Ｓ_１_１
  6
CONTINUOUS
 62
     3
  0
POLYLINE
  5
310
330
1F
100
AcDbEntity
  8
Ｓ_１_１
  6
CONTINUOUS
 62
     3
100
AcDb2dPolyline
 66
     1
 10
0.0
 20
0.0
 30
0.0
 70
   128
  0
VERTEX
  5
311
330
310
100
AcDbEntity
  8
Ｓ_１_１
  6
CONTINUOUS
 62
     3
100
AcDbVertex
100
AcDb2dVertex
 10
664.4118885000001
 20
387.5249839999999
 30
0.0
  0
VERTEX
  5
312
330
310
100
AcDbEntity
  8
Ｓ_１_１
  6
CONTINUOUS
 62
     3
100
AcDbVertex
100
AcDb2dVertex
 10
665.0543324999999
 20
387.5534289999999
 30
0.0
  0
VERTEX
  5
313
330
310
100
AcDbEntity
  8
Ｓ_１_１
  6
CONTINUOUS
 62
     3
100
AcDbVertex
100
AcDb2dVertex
 10
665.6918865000001
 20
387.6385459999999
 30
0.0
  0
VERTEX
  5
314
330
310
100
AcDbEntity
  8
Ｓ_１_１
  6
CONTINUOUS
 62
     3
100
AcDbVertex
100
AcDb2dVertex
 10
666.3196995
 20
387.779688
 30
0.0
  0
VERTEX
  5
315
330
310
100
AcDbEntity
  8
Ｓ_１_１
  6
CONTINUOUS
 62
     3
100
AcDbVertex
100
AcDb2dVertex
 10
666.9329925000001
 20
387.9757809999999
 30
0.0
  0
VERTEX
  5
316
330
310
100
AcDbEntity
  8
Ｓ_１_１
  6
CONTINUOUS
 62
     3
100
AcDbVertex
100
AcDb2dVertex
 10
667.5270995
 20
388.225333
 30
0.0
  0
VERTEX
  5
317
330
310
100
AcDbEntity
  8
Ｓ_１_１
  6
CONTINUOUS
 62
     3
100
AcDbVertex
100
AcDb2dVertex
 10
668.0974965000001
 20
388.526443
 30
0.0
  0
VERTEX
  5
318
330
310
100
AcDbEntity
  8
Ｓ_１_１
  6
CONTINUOUS
 62
     3
100
AcDbVertex
100
AcDb2dVertex
 10
668.6398445000001
 20
388.8768209999999
 30
0.0
  0
VERTEX
  5
319
330
310
100
AcDbEntity
  8
Ｓ_１_１
  6
CONTINUOUS
 62
     3
100
AcDbVertex
100
AcDb2dVertex
 10
669.1500145000001
 20
389.2738
 30
0.0
  0
VERTEX
  5
31A
330
310
100
AcDbEntity
  8
Ｓ_１_１
  6
CONTINUOUS
 62
     3
100
AcDbVertex
100
AcDb2dVertex
 10
669.6241255000001
 20
389.7143589999999
 30
0.0
  0
VERTEX
  5
31B
330
310
100
AcDbEntity
  8
Ｓ_１_１
  6
CONTINUOUS
 62
     3
100
AcDbVertex
100
AcDb2dVertex
 10
670.0585675
 20
390.1951449999999
 30
0.0
  0
VERTEX
  5
31C
330
310
100
AcDbEntity
  8
Ｓ_１_１
  6
CONTINUOUS
 62
     3
100
AcDbVertex
100
AcDb2dVertex
 10
670.4500355000001
 20
390.712498
 30
0.0
  0
VERTEX
  5
31D
330
310
100
AcDbEntity
  8
Ｓ_１_１
  6
CONTINUOUS
 62
     3
100
AcDbVertex
100
AcDb2dVertex
 10
670.7955485
 20
391.262481
 30
0.0
  0
VERTEX
  5
31E
330
310
100
AcDbEntity
  8
Ｓ_１_１
  6
CONTINUOUS
 62
     3
100
AcDbVertex
100
AcDb2dVertex
 10
671.0924785000001
 20
391.840909
 30
0.0
  0
VERTEX
  5
31F
330
310
100
AcDbEntity
  8
Ｓ_１_１
  6
CONTINUOUS
 62
     3
100
AcDbVertex
100
AcDb2dVertex
 10
671.3385655
 20
392.44338
 30
0.0
  0
VERTEX
  5
320
330
310
100
AcDbEntity
  8
Ｓ_１_１
  6
CONTINUOUS
 62
     3
100
AcDbVertex
100
AcDb2dVertex
 10
671.5319365000001
 20
393.065307
 30
0.0
  0
VERTEX
  5
321
330
310
100
AcDbEntity
  8
Ｓ_１_１
  6
CONTINUOUS
 62
     3
100
AcDbVertex
100
AcDb2dVertex
 10
671.6711195000001
 20
393.701959
 30
0.0
  0
VERTEX
  5
322
330
310
100
AcDbEntity
  8
Ｓ_１_１
  6
CONTINUOUS
 62
     3
100
AcDbVertex
100
AcDb2dVertex
 10
671.7550545
 20
394.34849
 30
0.0
  0
VERTEX
  5
323
330
310
100
AcDbEntity
  8
Ｓ_１_１
  6
CONTINUOUS
 62
     3
100
AcDbVertex
100
AcDb2dVertex
 10
671.7831045
 20
394.9999779999999
 30
0.0
  0
VERTEX
  5
324
330
310
100
AcDbEntity
  8
Ｓ_１_１
  6
CONTINUOUS
 62
     3
100
AcDbVertex
100
AcDb2dVertex
 10
671.7550545
 20
395.6514669999999
 30
0.0
  0
VERTEX
  5
325
330
310
100
AcDbEntity
  8
Ｓ_１_１
  6
CONTINUOUS
 62
     3
100
AcDbVertex
100
AcDb2dVertex
 10
671.6711195000001
 20
396.297998
 30
0.0
  0
VERTEX
  5
326
330
310
100
AcDbEntity
  8
Ｓ_１_１
  6
CONTINUOUS
 62
     3
100
AcDbVertex
100
AcDb2dVertex
 10
671.5319365000001
 20
396.9346490000001
 30
0.0
  0
VERTEX
  5
327
330
310
100
AcDbEntity
  8
Ｓ_１_１
  6
CONTINUOUS
 62
     3
100
AcDbVertex
100
AcDb2dVertex
 10
671.3385655
 20
397.556577
 30
0.0
  0
VERTEX
  5
328
330
310
100
AcDbEntity
  8
Ｓ_１_１
  6
CONTINUOUS
 62
     3
100
AcDbVertex
100
AcDb2dVertex
 10
671.0924785000001
 20
398.159048
 30
0.0
  0
VERTEX
  5
329
330
310
100
AcDbEntity
  8
Ｓ_１_１
  6
CONTINUOUS
 62
     3
100
AcDbVertex
100
AcDb2dVertex
 10
670.7955485
 20
398.737476
 30
0.0
  0
VERTEX
  5
32A
330
310
100
AcDbEntity
  8
Ｓ_１_１
  6
CONTINUOUS
 62
     3
100
AcDbVertex
100
AcDb2dVertex
 10
670.4500355000001
 20
399.287459
 30
0.0
  0
VERTEX
  5
32B
330
310
100
AcDbEntity
  8
Ｓ_１_１
  6
CONTINUOUS
 62
     3
100
AcDbVertex
100
AcDb2dVertex
 10
670.0585675
 20
399.804812
 30
0.0
  0
VERTEX
  5
32C
330
310
100
AcDbEntity
  8
Ｓ_１_１
  6
CONTINUOUS
 62
     3
100
AcDbVertex
100
AcDb2dVertex
 10
669.6241255000001
 20
400.2855979999999
 30
0.0
  0
VERTEX
  5
32D
330
310
100
AcDbEntity
  8
Ｓ_１_１
  6
CONTINUOUS
 62
     3
100
AcDbVertex
100
AcDb2dVertex
 10
669.1500145000001
 20
400.7261559999999
 30
0.0
  0
VERTEX
  5
32E
330
310
100
AcDbEntity
  8
Ｓ_１_１
  6
CONTINUOUS
 62
     3
100
AcDbVertex
100
AcDb2dVertex
 10
668.6398445000001
 20
401.1231359999999
 30
0.0
  0
VERTEX
  5
32F
330
310
100
AcDbEntity
  8
Ｓ_１_１
  6
CONTINUOUS
 62
     3
100
AcDbVertex
100
AcDb2dVertex
 10
668.0974965000001
 20
401.473514
 30
0.0
  0
VERTEX
  5
330
330
310
100
AcDbEntity
  8
Ｓ_１_１
  6
CONTINUOUS
 62
     3
100
AcDbVertex
100
AcDb2dVertex
 10
667.5270995
 20
401.774624
 30
0.0
  0
VERTEX
  5
331
330
310
100
AcDbEntity
  8
Ｓ_１_１
  6
CONTINUOUS
 62
     3
100
AcDbVertex
100
AcDb2dVertex
 10
666.9329925000001
 20
402.0241759999999
 30
0.0
  0
VERTEX
  5
332
330
310
100
AcDbEntity
  8
Ｓ_１_１
  6
CONTINUOUS
 62
     3
100
AcDbVertex
100
AcDb2dVertex
 10
666.3196995
 20
402.2202689999999
 30
0.0
  0
VERTEX
  5
333
330
310
100
AcDbEntity
  8
Ｓ_１_１
  6
CONTINUOUS
 62
     3
100
AcDbVertex
100
AcDb2dVertex
 10
665.6918865000001
 20
402.361411
 30
0.0
  0
VERTEX
  5
334
330
310
100
AcDbEntity
  8
Ｓ_１_１
  6
CONTINUOUS
 62
     3
100
AcDbVertex
100
AcDb2dVertex
 10
665.0543324999999
 20
402.4465279999999
 30
0.0
  0
VERTEX
  5
335
330
310
100
AcDbEntity
  8
Ｓ_１_１
  6
CONTINUOUS
 62
     3
100
AcDbVertex
100
AcDb2dVertex
 10
664.4118885000001
 20
402.474973
 30
0.0
  0
VERTEX
  5
336
330
310
100
AcDbEntity
  8
Ｓ_１_１
  6
CONTINUOUS
 62
     3
100
AcDbVertex
100
AcDb2dVertex
 10
663.7694445000001
 20
402.4465279999999
 30
0.0
  0
VERTEX
  5
337
330
310
100
AcDbEntity
  8
Ｓ_１_１
  6
CONTINUOUS
 62
     3
100
AcDbVertex
100
AcDb2dVertex
 10
663.1318904999998
 20
402.361411
 30
0.0
  0
VERTEX
  5
338
330
310
100
AcDbEntity
  8
Ｓ_１_１
  6
CONTINUOUS
 62
     3
100
AcDbVertex
100
AcDb2dVertex
 10
662.5040775
 20
402.2202689999999
 30
0.0
  0
VERTEX
  5
339
330
310
100
AcDbEntity
  8
Ｓ_１_１
  6
CONTINUOUS
 62
     3
100
AcDbVertex
100
AcDb2dVertex
 10
661.8907844999999
 20
402.0241759999999
 30
0.0
  0
VERTEX
  5
33A
330
310
100
AcDbEntity
  8
Ｓ_１_１
  6
CONTINUOUS
 62
     3
100
AcDbVertex
100
AcDb2dVertex
 10
661.2966785
 20
401.774624
 30
0.0
  0
VERTEX
  5
33B
330
310
100
AcDbEntity
  8
Ｓ_１_１
  6
CONTINUOUS
 62
     3
100
AcDbVertex
100
AcDb2dVertex
 10
660.7262805000001
 20
401.473514
 30
0.0
  0
VERTEX
  5
33C
330
310
100
AcDbEntity
  8
Ｓ_１_１
  6
CONTINUOUS
 62
     3
100
AcDbVertex
100
AcDb2dVertex
 10
660.1839335000001
 20
401.1231359999999
 30
0.0
  0
VERTEX
  5
33D
330
310
100
AcDbEntity
  8
Ｓ_１_１
  6
CONTINUOUS
 62
     3
100
AcDbVertex
100
AcDb2dVertex
 10
659.6737625
 20
400.7261559999999
 30
0.0
  0
VERTEX
  5
33E
330
310
100
AcDbEntity
  8
Ｓ_１_１
  6
CONTINUOUS
 62
     3
100
AcDbVertex
100
AcDb2dVertex
 10
659.1996525
 20
400.2855979999999
 30
0.0
  0
VERTEX
  5
33F
330
310
100
AcDbEntity
  8
Ｓ_１_１
  6
CONTINUOUS
 62
     3
100
AcDbVertex
100
AcDb2dVertex
 10
658.7652095
 20
399.804812
 30
0.0
  0
VERTEX
  5
340
330
310
100
AcDbEntity
  8
Ｓ_１_１
  6
CONTINUOUS
 62
     3
100
AcDbVertex
100
AcDb2dVertex
 10
658.3737425
 20
399.287459
 30
0.0
  0
VERTEX
  5
341
330
310
100
AcDbEntity
  8
Ｓ_１_１
  6
CONTINUOUS
 62
     3
100
AcDbVertex
100
AcDb2dVertex
 10
658.0282285
 20
398.737476
 30
0.0
  0
VERTEX
  5
342
330
310
100
AcDbEntity
  8
Ｓ_１_１
  6
CONTINUOUS
 62
     3
100
AcDbVertex
100
AcDb2dVertex
 10
657.7312985
 20
398.159048
 30
0.0
  0
VERTEX
  5
343
330
310
100
AcDbEntity
  8
Ｓ_１_１
  6
CONTINUOUS
 62
     3
100
AcDbVertex
100
AcDb2dVertex
 10
657.4852115
 20
397.556577
 30
0.0
  0
VERTEX
  5
344
330
310
100
AcDbEntity
  8
Ｓ_１_１
  6
CONTINUOUS
 62
     3
100
AcDbVertex
100
AcDb2dVertex
 10
657.2918415
 20
396.9346490000001
 30
0.0
  0
VERTEX
  5
345
330
310
100
AcDbEntity
  8
Ｓ_１_１
  6
CONTINUOUS
 62
     3
100
AcDbVertex
100
AcDb2dVertex
 10
657.1526585
 20
396.297998
 30
0.0
  0
VERTEX
  5
346
330
310
100
AcDbEntity
  8
Ｓ_１_１
  6
CONTINUOUS
 62
     3
100
AcDbVertex
100
AcDb2dVertex
 10
657.0687225
 20
395.6514669999999
 30
0.0
  0
VERTEX
  5
347
330
310
100
AcDbEntity
  8
Ｓ_１_１
  6
CONTINUOUS
 62
     3
100
AcDbVertex
100
AcDb2dVertex
 10
657.0406725000001
 20
394.9999779999999
 30
0.0
  0
VERTEX
  5
348
330
310
100
AcDbEntity
  8
Ｓ_１_１
  6
CONTINUOUS
 62
     3
100
AcDbVertex
100
AcDb2dVertex
 10
657.0687225
 20
394.34849
 30
0.0
  0
VERTEX
  5
349
330
310
100
AcDbEntity
  8
Ｓ_１_１
  6
CONTINUOUS
 62
     3
100
AcDbVertex
100
AcDb2dVertex
 10
657.1526585
 20
393.701959
 30
0.0
  0
VERTEX
  5
34A
330
310
100
AcDbEntity
  8
Ｓ_１_１
  6
CONTINUOUS
 62
     3
100
AcDbVertex
100
AcDb2dVertex
 10
657.2918415
 20
393.065307
 30
0.0
  0
VERTEX
  5
34B
330
310
100
AcDbEntity
  8
Ｓ_１_１
  6
CONTINUOUS
 62
     3
100
AcDbVertex
100
AcDb2dVertex
 10
657.4852115
 20
392.44338
 30
0.0
  0
VERTEX
  5
34C
330
310
100
AcDbEntity
  8
Ｓ_１_１
  6
CONTINUOUS
 62
     3
100
AcDbVertex
100
AcDb2dVertex
 10
657.7312985
 20
391.840909
 30
0.0
  0
VERTEX
  5
34D
330
310
100
AcDbEntity
  8
Ｓ_１_１
  6
CONTINUOUS
 62
     3
100
AcDbVertex
100
AcDb2dVertex
 10
658.0282285
 20
391.262481
 30
0.0
  0
VERTEX
  5
34E
330
310
100
AcDbEntity
  8
Ｓ_１_１
  6
CONTINUOUS
 62
     3
100
AcDbVertex
100
AcDb2dVertex
 10
658.3737425
 20
390.712498
 30
0.0
  0
VERTEX
  5
34F
330
310
100
AcDbEntity
  8
Ｓ_１_１
  6
CONTINUOUS
 62
     3
100
AcDbVertex
100
AcDb2dVertex
 10
658.7652095
 20
390.1951449999999
 30
0.0
  0
VERTEX
  5
350
330
310
100
AcDbEntity
  8
Ｓ_１_１
  6
CONTINUOUS
 62
     3
100
AcDbVertex
100
AcDb2dVertex
 10
659.1996525
 20
389.7143589999999
 30
0.0
  0
VERTEX
  5
351
330
310
100
AcDbEntity
  8
Ｓ_１_１
  6
CONTINUOUS
 62
     3
100
AcDbVertex
100
AcDb2dVertex
 10
659.6737625
 20
389.2738
 30
0.0
  0
VERTEX
  5
352
330
310
100
AcDbEntity
  8
Ｓ_１_１
  6
CONTINUOUS
 62
     3
100
AcDbVertex
100
AcDb2dVertex
 10
660.1839335000001
 20
388.8768209999999
 30
0.0
  0
VERTEX
  5
353
330
310
100
AcDbEntity
  8
Ｓ_１_１
  6
CONTINUOUS
 62
     3
100
AcDbVertex
100
AcDb2dVertex
 10
660.7262805000001
 20
388.526443
 30
0.0
  0
VERTEX
  5
354
330
310
100
AcDbEntity
  8
Ｓ_１_１
  6
CONTINUOUS
 62
     3
100
AcDbVertex
100
AcDb2dVertex
 10
661.2966785
 20
388.225333
 30
0.0
  0
VERTEX
  5
355
330
310
100
AcDbEntity
  8
Ｓ_１_１
  6
CONTINUOUS
 62
     3
100
AcDbVertex
100
AcDb2dVertex
 10
661.8907844999999
 20
387.9757809999999
 30
0.0
  0
VERTEX
  5
356
330
310
100
AcDbEntity
  8
Ｓ_１_１
  6
CONTINUOUS
 62
     3
100
AcDbVertex
100
AcDb2dVertex
 10
662.5040775
 20
387.779688
 30
0.0
  0
VERTEX
  5
357
330
310
100
AcDbEntity
  8
Ｓ_１_１
  6
CONTINUOUS
 62
     3
100
AcDbVertex
100
AcDb2dVertex
 10
663.1318904999998
 20
387.6385459999999
 30
0.0
  0
VERTEX
  5
358
330
310
100
AcDbEntity
  8
Ｓ_１_１
  6
CONTINUOUS
 62
     3
100
AcDbVertex
100
AcDb2dVertex
 10
663.7694445000001
 20
387.5534289999999
 30
0.0
  0
VERTEX
  5
359
330
310
100
AcDbEntity
  8
Ｓ_１_１
  6
CONTINUOUS
 62
     3
100
AcDbVertex
100
AcDb2dVertex
 10
664.4118885000001
 20
387.5249839999999
 30
0.0
  0
SEQEND
  5
35A
330
310
100
AcDbEntity
  8
Ｓ_１_１
  6
CONTINUOUS
 62
     3
  0
POLYLINE
  5
35B
330
1F
100
AcDbEntity
  8
Ｓ_１_１
  6
CONTINUOUS
 62
     3
100
AcDb2dPolyline
 66
     1
 10
0.0
 20
0.0
 30
0.0
 70
   128
  0
VERTEX
  5
35C
330
35B
100
AcDbEntity
  8
Ｓ_１_１
  6
CONTINUOUS
 62
     3
100
AcDbVertex
100
AcDb2dVertex
 10
664.4193655
 20
386.669004
 30
0.0
  0
VERTEX
  5
35D
330
35B
100
AcDbEntity
  8
Ｓ_１_１
  6
CONTINUOUS
 62
     3
100
AcDbVertex
100
AcDb2dVertex
 10
665.1329254999999
 20
386.700706
 30
0.0
  0
VERTEX
  5
35E
330
35B
100
AcDbEntity
  8
Ｓ_１_１
  6
CONTINUOUS
 62
     3
100
AcDbVertex
100
AcDb2dVertex
 10
665.8410545
 20
386.7955709999999
 30
0.0
  0
VERTEX
  5
35F
330
35B
100
AcDbEntity
  8
Ｓ_１_１
  6
CONTINUOUS
 62
     3
100
AcDbVertex
100
AcDb2dVertex
 10
666.5383634999998
 20
386.952876
 30
0.0
  0
VERTEX
  5
360
330
35B
100
AcDbEntity
  8
Ｓ_１_１
  6
CONTINUOUS
 62
     3
100
AcDbVertex
100
AcDb2dVertex
 10
667.2195455
 20
387.1714239999999
 30
0.0
  0
VERTEX
  5
361
330
35B
100
AcDbEntity
  8
Ｓ_１_１
  6
CONTINUOUS
 62
     3
100
AcDbVertex
100
AcDb2dVertex
 10
667.8794175000002
 20
387.4495529999999
 30
0.0
  0
VERTEX
  5
362
330
35B
100
AcDbEntity
  8
Ｓ_１_１
  6
CONTINUOUS
 62
     3
100
AcDbVertex
100
AcDb2dVertex
 10
668.5129555
 20
387.785145
 30
0.0
  0
VERTEX
  5
363
330
35B
100
AcDbEntity
  8
Ｓ_１_１
  6
CONTINUOUS
 62
     3
100
AcDbVertex
100
AcDb2dVertex
 10
669.1153385000001
 20
388.175647
 30
0.0
  0
VERTEX
  5
364
330
35B
100
AcDbEntity
  8
Ｓ_１_１
  6
CONTINUOUS
 62
     3
100
AcDbVertex
100
AcDb2dVertex
 10
669.6819835
 20
388.6180859999999
 30
0.0
  0
VERTEX
  5
365
330
35B
100
AcDbEntity
  8
Ｓ_１_１
  6
CONTINUOUS
 62
     3
100
AcDbVertex
100
AcDb2dVertex
 10
670.2085755000002
 20
389.109096
 30
0.0
  0
VERTEX
  5
366
330
35B
100
AcDbEntity
  8
Ｓ_１_１
  6
CONTINUOUS
 62
     3
100
AcDbVertex
100
AcDb2dVertex
 10
670.6911084999999
 20
389.6449379999999
 30
0.0
  0
VERTEX
  5
367
330
35B
100
AcDbEntity
  8
Ｓ_１_１
  6
CONTINUOUS
 62
     3
100
AcDbVertex
100
AcDb2dVertex
 10
671.1259105
 20
390.221536
 30
0.0
  0
VERTEX
  5
368
330
35B
100
AcDbEntity
  8
Ｓ_１_１
  6
CONTINUOUS
 62
     3
100
AcDbVertex
100
AcDb2dVertex
 10
671.5096705
 20
390.8345009999999
 30
0.0
  0
VERTEX
  5
369
330
35B
100
AcDbEntity
  8
Ｓ_１_１
  6
CONTINUOUS
 62
     3
100
AcDbVertex
100
AcDb2dVertex
 10
671.8394695000001
 20
391.479168
 30
0.0
  0
VERTEX
  5
36A
330
35B
100
AcDbEntity
  8
Ｓ_１_１
  6
CONTINUOUS
 62
     3
100
AcDbVertex
100
AcDb2dVertex
 10
672.1127974999999
 20
392.15063
 30
0.0
  0
VERTEX
  5
36B
330
35B
100
AcDbEntity
  8
Ｓ_１_１
  6
CONTINUOUS
 62
     3
100
AcDbVertex
100
AcDb2dVertex
 10
672.3275735000001
 20
392.8437779999999
 30
0.0
  0
VERTEX
  5
36C
330
35B
100
AcDbEntity
  8
Ｓ_１_１
  6
CONTINUOUS
 62
     3
100
AcDbVertex
100
AcDb2dVertex
 10
672.4821634999998
 20
393.5533359999999
 30
0.0
  0
VERTEX
  5
36D
330
35B
100
AcDbEntity
  8
Ｓ_１_１
  6
CONTINUOUS
 62
     3
100
AcDbVertex
100
AcDb2dVertex
 10
672.5753905
 20
394.2739039999999
 30
0.0
  0
VERTEX
  5
36E
330
35B
100
AcDbEntity
  8
Ｓ_１_１
  6
CONTINUOUS
 62
     3
100
AcDbVertex
100
AcDb2dVertex
 10
672.6065445
 20
394.999998
 30
0.0
  0
VERTEX
  5
36F
330
35B
100
AcDbEntity
  8
Ｓ_１_１
  6
CONTINUOUS
 62
     3
100
AcDbVertex
100
AcDb2dVertex
 10
672.5753905
 20
395.726091
 30
0.0
  0
VERTEX
  5
370
330
35B
100
AcDbEntity
  8
Ｓ_１_１
  6
CONTINUOUS
 62
     3
100
AcDbVertex
100
AcDb2dVertex
 10
672.4821634999998
 20
396.446659
 30
0.0
  0
VERTEX
  5
371
330
35B
100
AcDbEntity
  8
Ｓ_１_１
  6
CONTINUOUS
 62
     3
100
AcDbVertex
100
AcDb2dVertex
 10
672.3275735000001
 20
397.156217
 30
0.0
  0
VERTEX
  5
372
330
35B
100
AcDbEntity
  8
Ｓ_１_１
  6
CONTINUOUS
 62
     3
100
AcDbVertex
100
AcDb2dVertex
 10
672.1127974999999
 20
397.849365
 30
0.0
  0
VERTEX
  5
373
330
35B
100
AcDbEntity
  8
Ｓ_１_１
  6
CONTINUOUS
 62
     3
100
AcDbVertex
100
AcDb2dVertex
 10
671.8394695000001
 20
398.5208279999999
 30
0.0
  0
VERTEX
  5
374
330
35B
100
AcDbEntity
  8
Ｓ_１_１
  6
CONTINUOUS
 62
     3
100
AcDbVertex
100
AcDb2dVertex
 10
671.5096705
 20
399.165494
 30
0.0
  0
VERTEX
  5
375
330
35B
100
AcDbEntity
  8
Ｓ_１_１
  6
CONTINUOUS
 62
     3
100
AcDbVertex
100
AcDb2dVertex
 10
671.1259105
 20
399.7784589999999
 30
0.0
  0
VERTEX
  5
376
330
35B
100
AcDbEntity
  8
Ｓ_１_１
  6
CONTINUOUS
 62
     3
100
AcDbVertex
100
AcDb2dVertex
 10
670.6911084999999
 20
400.355057
 30
0.0
  0
VERTEX
  5
377
330
35B
100
AcDbEntity
  8
Ｓ_１_１
  6
CONTINUOUS
 62
     3
100
AcDbVertex
100
AcDb2dVertex
 10
670.2085755000002
 20
400.8908999999999
 30
0.0
  0
VERTEX
  5
378
330
35B
100
AcDbEntity
  8
Ｓ_１_１
  6
CONTINUOUS
 62
     3
100
AcDbVertex
100
AcDb2dVertex
 10
669.6819835
 20
401.381909
 30
0.0
  0
VERTEX
  5
379
330
35B
100
AcDbEntity
  8
Ｓ_１_１
  6
CONTINUOUS
 62
     3
100
AcDbVertex
100
AcDb2dVertex
 10
669.1153385000001
 20
401.8243479999999
 30
0.0
  0
VERTEX
  5
37A
330
35B
100
AcDbEntity
  8
Ｓ_１_１
  6
CONTINUOUS
 62
     3
100
AcDbVertex
100
AcDb2dVertex
 10
668.5129555
 20
402.21485
 30
0.0
  0
VERTEX
  5
37B
330
35B
100
AcDbEntity
  8
Ｓ_１_１
  6
CONTINUOUS
 62
     3
100
AcDbVertex
100
AcDb2dVertex
 10
667.8794175000002
 20
402.550442
 30
0.0
  0
VERTEX
  5
37C
330
35B
100
AcDbEntity
  8
Ｓ_１_１
  6
CONTINUOUS
 62
     3
100
AcDbVertex
100
AcDb2dVertex
 10
667.2195455
 20
402.828571
 30
0.0
  0
VERTEX
  5
37D
330
35B
100
AcDbEntity
  8
Ｓ_１_１
  6
CONTINUOUS
 62
     3
100
AcDbVertex
100
AcDb2dVertex
 10
666.5383634999998
 20
403.047119
 30
0.0
  0
VERTEX
  5
37E
330
35B
100
AcDbEntity
  8
Ｓ_１_１
  6
CONTINUOUS
 62
     3
100
AcDbVertex
100
AcDb2dVertex
 10
665.8410545
 20
403.2044249999999
 30
0.0
  0
VERTEX
  5
37F
330
35B
100
AcDbEntity
  8
Ｓ_１_１
  6
CONTINUOUS
 62
     3
100
AcDbVertex
100
AcDb2dVertex
 10
665.1329254999999
 20
403.299289
 30
0.0
  0
VERTEX
  5
380
330
35B
100
AcDbEntity
  8
Ｓ_１_１
  6
CONTINUOUS
 62
     3
100
AcDbVertex
100
AcDb2dVertex
 10
664.4193655
 20
403.330991
 30
0.0
  0
VERTEX
  5
381
330
35B
100
AcDbEntity
  8
Ｓ_１_１
  6
CONTINUOUS
 62
     3
100
AcDbVertex
100
AcDb2dVertex
 10
663.7058055000001
 20
403.299289
 30
0.0
  0
VERTEX
  5
382
330
35B
100
AcDbEntity
  8
Ｓ_１_１
  6
CONTINUOUS
 62
     3
100
AcDbVertex
100
AcDb2dVertex
 10
662.9976765
 20
403.2044249999999
 30
0.0
  0
VERTEX
  5
383
330
35B
100
AcDbEntity
  8
Ｓ_１_１
  6
CONTINUOUS
 62
     3
100
AcDbVertex
100
AcDb2dVertex
 10
662.3003675000001
 20
403.047119
 30
0.0
  0
VERTEX
  5
384
330
35B
100
AcDbEntity
  8
Ｓ_１_１
  6
CONTINUOUS
 62
     3
100
AcDbVertex
100
AcDb2dVertex
 10
661.6191855000001
 20
402.828571
 30
0.0
  0
VERTEX
  5
385
330
35B
100
AcDbEntity
  8
Ｓ_１_１
  6
CONTINUOUS
 62
     3
100
AcDbVertex
100
AcDb2dVertex
 10
660.9593135000001
 20
402.550442
 30
0.0
  0
VERTEX
  5
386
330
35B
100
AcDbEntity
  8
Ｓ_１_１
  6
CONTINUOUS
 62
     3
100
AcDbVertex
100
AcDb2dVertex
 10
660.3257755000001
 20
402.21485
 30
0.0
  0
VERTEX
  5
387
330
35B
100
AcDbEntity
  8
Ｓ_１_１
  6
CONTINUOUS
 62
     3
100
AcDbVertex
100
AcDb2dVertex
 10
659.7233925000002
 20
401.8243479999999
 30
0.0
  0
VERTEX
  5
388
330
35B
100
AcDbEntity
  8
Ｓ_１_１
  6
CONTINUOUS
 62
     3
100
AcDbVertex
100
AcDb2dVertex
 10
659.1567475
 20
401.381909
 30
0.0
  0
VERTEX
  5
389
330
35B
100
AcDbEntity
  8
Ｓ_１_１
  6
CONTINUOUS
 62
     3
100
AcDbVertex
100
AcDb2dVertex
 10
658.6301555000001
 20
400.8908999999999
 30
0.0
  0
VERTEX
  5
38A
330
35B
100
AcDbEntity
  8
Ｓ_１_１
  6
CONTINUOUS
 62
     3
100
AcDbVertex
100
AcDb2dVertex
 10
658.1476225
 20
400.355057
 30
0.0
  0
VERTEX
  5
38B
330
35B
100
AcDbEntity
  8
Ｓ_１_１
  6
CONTINUOUS
 62
     3
100
AcDbVertex
100
AcDb2dVertex
 10
657.7128205
 20
399.7784589999999
 30
0.0
  0
VERTEX
  5
38C
330
35B
100
AcDbEntity
  8
Ｓ_１_１
  6
CONTINUOUS
 62
     3
100
AcDbVertex
100
AcDb2dVertex
 10
657.3290605000001
 20
399.165494
 30
0.0
  0
VERTEX
  5
38D
330
35B
100
AcDbEntity
  8
Ｓ_１_１
  6
CONTINUOUS
 62
     3
100
AcDbVertex
100
AcDb2dVertex
 10
656.9992614999999
 20
398.5208279999999
 30
0.0
  0
VERTEX
  5
38E
330
35B
100
AcDbEntity
  8
Ｓ_１_１
  6
CONTINUOUS
 62
     3
100
AcDbVertex
100
AcDb2dVertex
 10
656.7259335
 20
397.849365
 30
0.0
  0
VERTEX
  5
38F
330
35B
100
AcDbEntity
  8
Ｓ_１_１
  6
CONTINUOUS
 62
     3
100
AcDbVertex
100
AcDb2dVertex
 10
656.5111575
 20
397.156217
 30
0.0
  0
VERTEX
  5
390
330
35B
100
AcDbEntity
  8
Ｓ_１_１
  6
CONTINUOUS
 62
     3
100
AcDbVertex
100
AcDb2dVertex
 10
656.3565675000001
 20
396.446659
 30
0.0
  0
VERTEX
  5
391
330
35B
100
AcDbEntity
  8
Ｓ_１_１
  6
CONTINUOUS
 62
     3
100
AcDbVertex
100
AcDb2dVertex
 10
656.2633405
 20
395.726091
 30
0.0
  0
VERTEX
  5
392
330
35B
100
AcDbEntity
  8
Ｓ_１_１
  6
CONTINUOUS
 62
     3
100
AcDbVertex
100
AcDb2dVertex
 10
656.2321864999999
 20
394.999998
 30
0.0
  0
VERTEX
  5
393
330
35B
100
AcDbEntity
  8
Ｓ_１_１
  6
CONTINUOUS
 62
     3
100
AcDbVertex
100
AcDb2dVertex
 10
656.2633405
 20
394.2739039999999
 30
0.0
  0
VERTEX
  5
394
330
35B
100
AcDbEntity
  8
Ｓ_１_１
  6
CONTINUOUS
 62
     3
100
AcDbVertex
100
AcDb2dVertex
 10
656.3565675000001
 20
393.5533359999999
 30
0.0
  0
VERTEX
  5
395
330
35B
100
AcDbEntity
  8
Ｓ_１_１
  6
CONTINUOUS
 62
     3
100
AcDbVertex
100
AcDb2dVertex
 10
656.5111575
 20
392.8437779999999
 30
0.0
  0
VERTEX
  5
396
330
35B
100
AcDbEntity
  8
Ｓ_１_１
  6
CONTINUOUS
 62
     3
100
AcDbVertex
100
AcDb2dVertex
 10
656.7259335
 20
392.15063
 30
0.0
  0
VERTEX
  5
397
330
35B
100
AcDbEntity
  8
Ｓ_１_１
  6
CONTINUOUS
 62
     3
100
AcDbVertex
100
AcDb2dVertex
 10
656.9992614999999
 20
391.479168
 30
0.0
  0
VERTEX
  5
398
330
35B
100
AcDbEntity
  8
Ｓ_１_１
  6
CONTINUOUS
 62
     3
100
AcDbVertex
100
AcDb2dVertex
 10
657.3290605000001
 20
390.8345009999999
 30
0.0
  0
VERTEX
  5
399
330
35B
100
AcDbEntity
  8
Ｓ_１_１
  6
CONTINUOUS
 62
     3
100
AcDbVertex
100
AcDb2dVertex
 10
657.7128205
 20
390.221536
 30
0.0
  0
VERTEX
  5
39A
330
35B
100
AcDbEntity
  8
Ｓ_１_１
  6
CONTINUOUS
 62
     3
100
AcDbVertex
100
AcDb2dVertex
 10
658.1476225
 20
389.6449379999999
 30
0.0
  0
VERTEX
  5
39B
330
35B
100
AcDbEntity
  8
Ｓ_１_１
  6
CONTINUOUS
 62
     3
100
AcDbVertex
100
AcDb2dVertex
 10
658.6301555000001
 20
389.109096
 30
0.0
  0
VERTEX
  5
39C
330
35B
100
AcDbEntity
  8
Ｓ_１_１
  6
CONTINUOUS
 62
     3
100
AcDbVertex
100
AcDb2dVertex
 10
659.1567475
 20
388.6180859999999
 30
0.0
  0
VERTEX
  5
39D
330
35B
100
AcDbEntity
  8
Ｓ_１_１
  6
CONTINUOUS
 62
     3
100
AcDbVertex
100
AcDb2dVertex
 10
659.7233925000002
 20
388.175647
 30
0.0
  0
VERTEX
  5
39E
330
35B
100
AcDbEntity
  8
Ｓ_１_１
  6
CONTINUOUS
 62
     3
100
AcDbVertex
100
AcDb2dVertex
 10
660.3257755000001
 20
387.785145
 30
0.0
  0
VERTEX
  5
39F
330
35B
100
AcDbEntity
  8
Ｓ_１_１
  6
CONTINUOUS
 62
     3
100
AcDbVertex
100
AcDb2dVertex
 10
660.9593135000001
 20
387.4495529999999
 30
0.0
  0
VERTEX
  5
3A0
330
35B
100
AcDbEntity
  8
Ｓ_１_１
  6
CONTINUOUS
 62
     3
100
AcDbVertex
100
AcDb2dVertex
 10
661.6191855000001
 20
387.1714239999999
 30
0.0
  0
VERTEX
  5
3A1
330
35B
100
AcDbEntity
  8
Ｓ_１_１
  6
CONTINUOUS
 62
     3
100
AcDbVertex
100
AcDb2dVertex
 10
662.3003675000001
 20
386.952876
 30
0.0
  0
VERTEX
  5
3A2
330
35B
100
AcDbEntity
  8
Ｓ_１_１
  6
CONTINUOUS
 62
     3
100
AcDbVertex
100
AcDb2dVertex
 10
662.9976765
 20
386.7955709999999
 30
0.0
  0
VERTEX
  5
3A3
330
35B
100
AcDbEntity
  8
Ｓ_１_１
  6
CONTINUOUS
 62
     3
100
AcDbVertex
100
AcDb2dVertex
 10
663.7058055000001
 20
386.700706
 30
0.0
  0
VERTEX
  5
3A4
330
35B
100
AcDbEntity
  8
Ｓ_１_１
  6
CONTINUOUS
 62
     3
100
AcDbVertex
100
AcDb2dVertex
 10
664.4193655
 20
386.669004
 30
0.0
  0
SEQEND
  5
3A5
330
35B
100
AcDbEntity
  8
Ｓ_１_１
  6
CONTINUOUS
 62
     3
  0
POLYLINE
  5
3A6
330
1F
100
AcDbEntity
  8
Ｓ_１_１
  6
CONTINUOUS
 62
     3
100
AcDb2dPolyline
 66
     1
 10
0.0
 20
0.0
 30
0.0
 70
   128
  0
VERTEX
  5
3A7
330
3A6
100
AcDbEntity
  8
Ｓ_１_１
  6
CONTINUOUS
 62
     3
100
AcDbVertex
100
AcDb2dVertex
 10
527.1612195000001
 20
530.4999879999999
 30
0.0
  0
VERTEX
  5
3A8
330
3A6
100
AcDbEntity
  8
Ｓ_１_１
  6
CONTINUOUS
 62
     3
100
AcDbVertex
100
AcDb2dVertex
 10
526.5947125000001
 20
530.450519
 30
0.0
  0
VERTEX
  5
3A9
330
3A6
100
AcDbEntity
  8
Ｓ_１_１
  6
CONTINUOUS
 62
     3
100
AcDbVertex
100
AcDb2dVertex
 10
526.0325165
 20
530.3024879999999
 30
0.0
  0
VERTEX
  5
3AA
330
3A6
100
AcDbEntity
  8
Ｓ_１_１
  6
CONTINUOUS
 62
     3
100
AcDbVertex
100
AcDb2dVertex
 10
525.4789115
 20
530.057023
 30
0.0
  0
VERTEX
  5
3AB
330
3A6
100
AcDbEntity
  8
Ｓ_１_１
  6
CONTINUOUS
 62
     3
100
AcDbVertex
100
AcDb2dVertex
 10
524.9381095
 20
529.7159909999999
 30
0.0
  0
VERTEX
  5
3AC
330
3A6
100
AcDbEntity
  8
Ｓ_１_１
  6
CONTINUOUS
 62
     3
100
AcDbVertex
100
AcDb2dVertex
 10
524.4142265000002
 20
529.281988
 30
0.0
  0
VERTEX
  5
3AD
330
3A6
100
AcDbEntity
  8
Ｓ_１_１
  6
CONTINUOUS
 62
     3
100
AcDbVertex
100
AcDb2dVertex
 10
523.9112495
 20
528.7583169999999
 30
0.0
  0
VERTEX
  5
3AE
330
3A6
100
AcDbEntity
  8
Ｓ_１_１
  6
CONTINUOUS
 62
     3
100
AcDbVertex
100
AcDb2dVertex
 10
523.4330075000001
 20
528.148962
 30
0.0
  0
VERTEX
  5
3AF
330
3A6
100
AcDbEntity
  8
Ｓ_１_１
  6
CONTINUOUS
 62
     3
100
AcDbVertex
100
AcDb2dVertex
 10
522.9831395
 20
527.4585629999999
 30
0.0
  0
VERTEX
  5
3B0
330
3A6
100
AcDbEntity
  8
Ｓ_１_１
  6
CONTINUOUS
 62
     3
100
AcDbVertex
100
AcDb2dVertex
 10
522.5650685000002
 20
526.692373
 30
0.0
  0
VERTEX
  5
3B1
330
3A6
100
AcDbEntity
  8
Ｓ_１_１
  6
CONTINUOUS
 62
     3
100
AcDbVertex
100
AcDb2dVertex
 10
522.1819775
 20
525.856223
 30
0.0
  0
VERTEX
  5
3B2
330
3A6
100
AcDbEntity
  8
Ｓ_１_１
  6
CONTINUOUS
 62
     3
100
AcDbVertex
100
AcDb2dVertex
 10
521.8367815
 20
524.956477
 30
0.0
  0
VERTEX
  5
3B3
330
3A6
100
AcDbEntity
  8
Ｓ_１_１
  6
CONTINUOUS
 62
     3
100
AcDbVertex
100
AcDb2dVertex
 10
521.5321075
 20
523.9999819999999
 30
0.0
  0
VERTEX
  5
3B4
330
3A6
100
AcDbEntity
  8
Ｓ_１_１
  6
CONTINUOUS
 62
     3
100
AcDbVertex
100
AcDb2dVertex
 10
521.2702745
 20
522.994019
 30
0.0
  0
VERTEX
  5
3B5
330
3A6
100
AcDbEntity
  8
Ｓ_１_１
  6
CONTINUOUS
 62
     3
100
AcDbVertex
100
AcDb2dVertex
 10
521.0532745000002
 20
521.946242
 30
0.0
  0
VERTEX
  5
3B6
330
3A6
100
AcDbEntity
  8
Ｓ_１_１
  6
CONTINUOUS
 62
     3
100
AcDbVertex
100
AcDb2dVertex
 10
520.8827605
 20
520.8646269999999
 30
0.0
  0
VERTEX
  5
3B7
330
3A6
100
AcDbEntity
  8
Ｓ_１_１
  6
CONTINUOUS
 62
     3
100
AcDbVertex
100
AcDb2dVertex
 10
520.7600295000001
 20
519.757405
 30
0.0
  0
VERTEX
  5
3B8
330
3A6
100
AcDbEntity
  8
Ｓ_１_１
  6
CONTINUOUS
 62
     3
100
AcDbVertex
100
AcDb2dVertex
 10
520.6860144999999
 20
518.6330019999999
 30
0.0
  0
VERTEX
  5
3B9
330
3A6
100
AcDbEntity
  8
Ｓ_１_１
  6
CONTINUOUS
 62
     3
100
AcDbVertex
100
AcDb2dVertex
 10
520.6612805000001
 20
517.499977
 30
0.0
  0
VERTEX
  5
3BA
330
3A6
100
AcDbEntity
  8
Ｓ_１_１
  6
CONTINUOUS
 62
     3
100
AcDbVertex
100
AcDb2dVertex
 10
520.6860144999999
 20
516.366951
 30
0.0
  0
VERTEX
  5
3BB
330
3A6
100
AcDbEntity
  8
Ｓ_１_１
  6
CONTINUOUS
 62
     3
100
AcDbVertex
100
AcDb2dVertex
 10
520.7600295000001
 20
515.2425479999999
 30
0.0
  0
VERTEX
  5
3BC
330
3A6
100
AcDbEntity
  8
Ｓ_１_１
  6
CONTINUOUS
 62
     3
100
AcDbVertex
100
AcDb2dVertex
 10
520.8827605
 20
514.135326
 30
0.0
  0
VERTEX
  5
3BD
330
3A6
100
AcDbEntity
  8
Ｓ_１_１
  6
CONTINUOUS
 62
     3
100
AcDbVertex
100
AcDb2dVertex
 10
521.0532745000002
 20
513.0537109999999
 30
0.0
  0
VERTEX
  5
3BE
330
3A6
100
AcDbEntity
  8
Ｓ_１_１
  6
CONTINUOUS
 62
     3
100
AcDbVertex
100
AcDb2dVertex
 10
521.2702745
 20
512.0059339999999
 30
0.0
  0
VERTEX
  5
3BF
330
3A6
100
AcDbEntity
  8
Ｓ_１_１
  6
CONTINUOUS
 62
     3
100
AcDbVertex
100
AcDb2dVertex
 10
521.5321075
 20
510.999971
 30
0.0
  0
VERTEX
  5
3C0
330
3A6
100
AcDbEntity
  8
Ｓ_１_１
  6
CONTINUOUS
 62
     3
100
AcDbVertex
100
AcDb2dVertex
 10
521.8367815
 20
510.0434759999999
 30
0.0
  0
VERTEX
  5
3C1
330
3A6
100
AcDbEntity
  8
Ｓ_１_１
  6
CONTINUOUS
 62
     3
100
AcDbVertex
100
AcDb2dVertex
 10
522.1819775
 20
509.14373
 30
0.0
  0
VERTEX
  5
3C2
330
3A6
100
AcDbEntity
  8
Ｓ_１_１
  6
CONTINUOUS
 62
     3
100
AcDbVertex
100
AcDb2dVertex
 10
522.5650685000002
 20
508.307581
 30
0.0
  0
VERTEX
  5
3C3
330
3A6
100
AcDbEntity
  8
Ｓ_１_１
  6
CONTINUOUS
 62
     3
100
AcDbVertex
100
AcDb2dVertex
 10
522.9831395
 20
507.54139
 30
0.0
  0
VERTEX
  5
3C4
330
3A6
100
AcDbEntity
  8
Ｓ_１_１
  6
CONTINUOUS
 62
     3
100
AcDbVertex
100
AcDb2dVertex
 10
523.4330075000001
 20
506.8509909999999
 30
0.0
  0
VERTEX
  5
3C5
330
3A6
100
AcDbEntity
  8
Ｓ_１_１
  6
CONTINUOUS
 62
     3
100
AcDbVertex
100
AcDb2dVertex
 10
523.9112495
 20
506.241637
 30
0.0
  0
VERTEX
  5
3C6
330
3A6
100
AcDbEntity
  8
Ｓ_１_１
  6
CONTINUOUS
 62
     3
100
AcDbVertex
100
AcDb2dVertex
 10
524.4142265000002
 20
505.7179649999999
 30
0.0
  0
VERTEX
  5
3C7
330
3A6
100
AcDbEntity
  8
Ｓ_１_１
  6
CONTINUOUS
 62
     3
100
AcDbVertex
100
AcDb2dVertex
 10
524.9381095
 20
505.283962
 30
0.0
  0
VERTEX
  5
3C8
330
3A6
100
AcDbEntity
  8
Ｓ_１_１
  6
CONTINUOUS
 62
     3
100
AcDbVertex
100
AcDb2dVertex
 10
525.4789115
 20
504.94293
 30
0.0
  0
VERTEX
  5
3C9
330
3A6
100
AcDbEntity
  8
Ｓ_１_１
  6
CONTINUOUS
 62
     3
100
AcDbVertex
100
AcDb2dVertex
 10
526.0325165
 20
504.697465
 30
0.0
  0
VERTEX
  5
3CA
330
3A6
100
AcDbEntity
  8
Ｓ_１_１
  6
CONTINUOUS
 62
     3
100
AcDbVertex
100
AcDb2dVertex
 10
526.5947125000001
 20
504.5494339999999
 30
0.0
  0
VERTEX
  5
3CB
330
3A6
100
AcDbEntity
  8
Ｓ_１_１
  6
CONTINUOUS
 62
     3
100
AcDbVertex
100
AcDb2dVertex
 10
527.1612195000001
 20
504.499965
 30
0.0
  0
VERTEX
  5
3CC
330
3A6
100
AcDbEntity
  8
Ｓ_１_１
  6
CONTINUOUS
 62
     3
100
AcDbVertex
100
AcDb2dVertex
 10
527.7277265000001
 20
504.5494339999999
 30
0.0
  0
VERTEX
  5
3CD
330
3A6
100
AcDbEntity
  8
Ｓ_１_１
  6
CONTINUOUS
 62
     3
100
AcDbVertex
100
AcDb2dVertex
 10
528.2899215000001
 20
504.697465
 30
0.0
  0
VERTEX
  5
3CE
330
3A6
100
AcDbEntity
  8
Ｓ_１_１
  6
CONTINUOUS
 62
     3
100
AcDbVertex
100
AcDb2dVertex
 10
528.8435275
 20
504.94293
 30
0.0
  0
VERTEX
  5
3CF
330
3A6
100
AcDbEntity
  8
Ｓ_１_１
  6
CONTINUOUS
 62
     3
100
AcDbVertex
100
AcDb2dVertex
 10
529.3843295
 20
505.283962
 30
0.0
  0
VERTEX
  5
3D0
330
3A6
100
AcDbEntity
  8
Ｓ_１_１
  6
CONTINUOUS
 62
     3
100
AcDbVertex
100
AcDb2dVertex
 10
529.9082125000001
 20
505.7179649999999
 30
0.0
  0
VERTEX
  5
3D1
330
3A6
100
AcDbEntity
  8
Ｓ_１_１
  6
CONTINUOUS
 62
     3
100
AcDbVertex
100
AcDb2dVertex
 10
530.4111885000001
 20
506.241637
 30
0.0
  0
VERTEX
  5
3D2
330
3A6
100
AcDbEntity
  8
Ｓ_１_１
  6
CONTINUOUS
 62
     3
100
AcDbVertex
100
AcDb2dVertex
 10
530.8894315000001
 20
506.8509909999999
 30
0.0
  0
VERTEX
  5
3D3
330
3A6
100
AcDbEntity
  8
Ｓ_１_１
  6
CONTINUOUS
 62
     3
100
AcDbVertex
100
AcDb2dVertex
 10
531.3392995
 20
507.54139
 30
0.0
  0
VERTEX
  5
3D4
330
3A6
100
AcDbEntity
  8
Ｓ_１_１
  6
CONTINUOUS
 62
     3
100
AcDbVertex
100
AcDb2dVertex
 10
531.7573705000001
 20
508.307581
 30
0.0
  0
VERTEX
  5
3D5
330
3A6
100
AcDbEntity
  8
Ｓ_１_１
  6
CONTINUOUS
 62
     3
100
AcDbVertex
100
AcDb2dVertex
 10
532.1404615
 20
509.14373
 30
0.0
  0
VERTEX
  5
3D6
330
3A6
100
AcDbEntity
  8
Ｓ_１_１
  6
CONTINUOUS
 62
     3
100
AcDbVertex
100
AcDb2dVertex
 10
532.4856575
 20
510.0434759999999
 30
0.0
  0
VERTEX
  5
3D7
330
3A6
100
AcDbEntity
  8
Ｓ_１_１
  6
CONTINUOUS
 62
     3
100
AcDbVertex
100
AcDb2dVertex
 10
532.7903315
 20
510.999971
 30
0.0
  0
VERTEX
  5
3D8
330
3A6
100
AcDbEntity
  8
Ｓ_１_１
  6
CONTINUOUS
 62
     3
100
AcDbVertex
100
AcDb2dVertex
 10
533.0521645
 20
512.0059339999999
 30
0.0
  0
VERTEX
  5
3D9
330
3A6
100
AcDbEntity
  8
Ｓ_１_１
  6
CONTINUOUS
 62
     3
100
AcDbVertex
100
AcDb2dVertex
 10
533.2691635
 20
513.0537109999999
 30
0.0
  0
VERTEX
  5
3DA
330
3A6
100
AcDbEntity
  8
Ｓ_１_１
  6
CONTINUOUS
 62
     3
100
AcDbVertex
100
AcDb2dVertex
 10
533.4396785
 20
514.135326
 30
0.0
  0
VERTEX
  5
3DB
330
3A6
100
AcDbEntity
  8
Ｓ_１_１
  6
CONTINUOUS
 62
     3
100
AcDbVertex
100
AcDb2dVertex
 10
533.5624095
 20
515.2425479999999
 30
0.0
  0
VERTEX
  5
3DC
330
3A6
100
AcDbEntity
  8
Ｓ_１_１
  6
CONTINUOUS
 62
     3
100
AcDbVertex
100
AcDb2dVertex
 10
533.6364235
 20
516.366951
 30
0.0
  0
VERTEX
  5
3DD
330
3A6
100
AcDbEntity
  8
Ｓ_１_１
  6
CONTINUOUS
 62
     3
100
AcDbVertex
100
AcDb2dVertex
 10
533.6611584999999
 20
517.499977
 30
0.0
  0
VERTEX
  5
3DE
330
3A6
100
AcDbEntity
  8
Ｓ_１_１
  6
CONTINUOUS
 62
     3
100
AcDbVertex
100
AcDb2dVertex
 10
533.6364235
 20
518.6330019999999
 30
0.0
  0
VERTEX
  5
3DF
330
3A6
100
AcDbEntity
  8
Ｓ_１_１
  6
CONTINUOUS
 62
     3
100
AcDbVertex
100
AcDb2dVertex
 10
533.5624095
 20
519.757405
 30
0.0
  0
VERTEX
  5
3E0
330
3A6
100
AcDbEntity
  8
Ｓ_１_１
  6
CONTINUOUS
 62
     3
100
AcDbVertex
100
AcDb2dVertex
 10
533.4396785
 20
520.8646269999999
 30
0.0
  0
VERTEX
  5
3E1
330
3A6
100
AcDbEntity
  8
Ｓ_１_１
  6
CONTINUOUS
 62
     3
100
AcDbVertex
100
AcDb2dVertex
 10
533.2691635
 20
521.946242
 30
0.0
  0
VERTEX
  5
3E2
330
3A6
100
AcDbEntity
  8
Ｓ_１_１
  6
CONTINUOUS
 62
     3
100
AcDbVertex
100
AcDb2dVertex
 10
533.0521645
 20
522.994019
 30
0.0
  0
VERTEX
  5
3E3
330
3A6
100
AcDbEntity
  8
Ｓ_１_１
  6
CONTINUOUS
 62
     3
100
AcDbVertex
100
AcDb2dVertex
 10
532.7903315
 20
523.9999819999999
 30
0.0
  0
VERTEX
  5
3E4
330
3A6
100
AcDbEntity
  8
Ｓ_１_１
  6
CONTINUOUS
 62
     3
100
AcDbVertex
100
AcDb2dVertex
 10
532.4856575
 20
524.956477
 30
0.0
  0
VERTEX
  5
3E5
330
3A6
100
AcDbEntity
  8
Ｓ_１_１
  6
CONTINUOUS
 62
     3
100
AcDbVertex
100
AcDb2dVertex
 10
532.1404615
 20
525.856223
 30
0.0
  0
VERTEX
  5
3E6
330
3A6
100
AcDbEntity
  8
Ｓ_１_１
  6
CONTINUOUS
 62
     3
100
AcDbVertex
100
AcDb2dVertex
 10
531.7573705000001
 20
526.692373
 30
0.0
  0
VERTEX
  5
3E7
330
3A6
100
AcDbEntity
  8
Ｓ_１_１
  6
CONTINUOUS
 62
     3
100
AcDbVertex
100
AcDb2dVertex
 10
531.3392995
 20
527.4585629999999
 30
0.0
  0
VERTEX
  5
3E8
330
3A6
100
AcDbEntity
  8
Ｓ_１_１
  6
CONTINUOUS
 62
     3
100
AcDbVertex
100
AcDb2dVertex
 10
530.8894315000001
 20
528.148962
 30
0.0
  0
VERTEX
  5
3E9
330
3A6
100
AcDbEntity
  8
Ｓ_１_１
  6
CONTINUOUS
 62
     3
100
AcDbVertex
100
AcDb2dVertex
 10
530.4111885000001
 20
528.7583169999999
 30
0.0
  0
VERTEX
  5
3EA
330
3A6
100
AcDbEntity
  8
Ｓ_１_１
  6
CONTINUOUS
 62
     3
100
AcDbVertex
100
AcDb2dVertex
 10
529.9082125000001
 20
529.281988
 30
0.0
  0
VERTEX
  5
3EB
330
3A6
100
AcDbEntity
  8
Ｓ_１_１
  6
CONTINUOUS
 62
     3
100
AcDbVertex
100
AcDb2dVertex
 10
529.3843295
 20
529.7159909999999
 30
0.0
  0
VERTEX
  5
3EC
330
3A6
100
AcDbEntity
  8
Ｓ_１_１
  6
CONTINUOUS
 62
     3
100
AcDbVertex
100
AcDb2dVertex
 10
528.8435275
 20
530.057023
 30
0.0
  0
VERTEX
  5
3ED
330
3A6
100
AcDbEntity
  8
Ｓ_１_１
  6
CONTINUOUS
 62
     3
100
AcDbVertex
100
AcDb2dVertex
 10
528.2899215000001
 20
530.3024879999999
 30
0.0
  0
VERTEX
  5
3EE
330
3A6
100
AcDbEntity
  8
Ｓ_１_１
  6
CONTINUOUS
 62
     3
100
AcDbVertex
100
AcDb2dVertex
 10
527.7277265000001
 20
530.450519
 30
0.0
  0
VERTEX
  5
3EF
330
3A6
100
AcDbEntity
  8
Ｓ_１_１
  6
CONTINUOUS
 62
     3
100
AcDbVertex
100
AcDb2dVertex
 10
527.1612195000001
 20
530.4999879999999
 30
0.0
  0
SEQEND
  5
3F0
330
3A6
100
AcDbEntity
  8
Ｓ_１_１
  6
CONTINUOUS
 62
     3
  0
POLYLINE
  5
3F1
330
1F
100
AcDbEntity
  8
Ｓ_１_１
  6
CONTINUOUS
 62
     3
100
AcDb2dPolyline
 66
     1
 10
0.0
 20
0.0
 30
0.0
 70
   128
  0
VERTEX
  5
3F2
330
3F1
100
AcDbEntity
  8
Ｓ_１_１
  6
CONTINUOUS
 62
     3
100
AcDbVertex
100
AcDb2dVertex
 10
872.8387805000001
 20
530.4999879999999
 30
0.0
  0
VERTEX
  5
3F3
330
3F1
100
AcDbEntity
  8
Ｓ_１_１
  6
CONTINUOUS
 62
     3
100
AcDbVertex
100
AcDb2dVertex
 10
872.2722675000001
 20
530.450519
 30
0.0
  0
VERTEX
  5
3F4
330
3F1
100
AcDbEntity
  8
Ｓ_１_１
  6
CONTINUOUS
 62
     3
100
AcDbVertex
100
AcDb2dVertex
 10
871.7100645000002
 20
530.3024879999999
 30
0.0
  0
VERTEX
  5
3F5
330
3F1
100
AcDbEntity
  8
Ｓ_１_１
  6
CONTINUOUS
 62
     3
100
AcDbVertex
100
AcDb2dVertex
 10
871.1564535000002
 20
530.057023
 30
0.0
  0
VERTEX
  5
3F6
330
3F1
100
AcDbEntity
  8
Ｓ_１_１
  6
CONTINUOUS
 62
     3
100
AcDbVertex
100
AcDb2dVertex
 10
870.6156445
 20
529.7159909999999
 30
0.0
  0
VERTEX
  5
3F7
330
3F1
100
AcDbEntity
  8
Ｓ_１_１
  6
CONTINUOUS
 62
     3
100
AcDbVertex
100
AcDb2dVertex
 10
870.0917555000001
 20
529.281988
 30
0.0
  0
VERTEX
  5
3F8
330
3F1
100
AcDbEntity
  8
Ｓ_１_１
  6
CONTINUOUS
 62
     3
100
AcDbVertex
100
AcDb2dVertex
 10
869.5887735
 20
528.7583169999999
 30
0.0
  0
VERTEX
  5
3F9
330
3F1
100
AcDbEntity
  8
Ｓ_１_１
  6
CONTINUOUS
 62
     3
100
AcDbVertex
100
AcDb2dVertex
 10
869.1105255000002
 20
528.148962
 30
0.0
  0
VERTEX
  5
3FA
330
3F1
100
AcDbEntity
  8
Ｓ_１_１
  6
CONTINUOUS
 62
     3
100
AcDbVertex
100
AcDb2dVertex
 10
868.6606515
 20
527.4585629999999
 30
0.0
  0
VERTEX
  5
3FB
330
3F1
100
AcDbEntity
  8
Ｓ_１_１
  6
CONTINUOUS
 62
     3
100
AcDbVertex
100
AcDb2dVertex
 10
868.2425755
 20
526.692373
 30
0.0
  0
VERTEX
  5
3FC
330
3F1
100
AcDbEntity
  8
Ｓ_１_１
  6
CONTINUOUS
 62
     3
100
AcDbVertex
100
AcDb2dVertex
 10
867.8594805000001
 20
525.856223
 30
0.0
  0
VERTEX
  5
3FD
330
3F1
100
AcDbEntity
  8
Ｓ_１_１
  6
CONTINUOUS
 62
     3
100
AcDbVertex
100
AcDb2dVertex
 10
867.5142805000002
 20
524.956477
 30
0.0
  0
VERTEX
  5
3FE
330
3F1
100
AcDbEntity
  8
Ｓ_１_１
  6
CONTINUOUS
 62
     3
100
AcDbVertex
100
AcDb2dVertex
 10
867.2096025
 20
523.9999819999999
 30
0.0
  0
VERTEX
  5
3FF
330
3F1
100
AcDbEntity
  8
Ｓ_１_１
  6
CONTINUOUS
 62
     3
100
AcDbVertex
100
AcDb2dVertex
 10
866.9477665000001
 20
522.994019
 30
0.0
  0
VERTEX
  5
400
330
3F1
100
AcDbEntity
  8
Ｓ_１_１
  6
CONTINUOUS
 62
     3
100
AcDbVertex
100
AcDb2dVertex
 10
866.7307645
 20
521.946242
 30
0.0
  0
VERTEX
  5
401
330
3F1
100
AcDbEntity
  8
Ｓ_１_１
  6
CONTINUOUS
 62
     3
100
AcDbVertex
100
AcDb2dVertex
 10
866.5602485000001
 20
520.8646269999999
 30
0.0
  0
VERTEX
  5
402
330
3F1
100
AcDbEntity
  8
Ｓ_１_１
  6
CONTINUOUS
 62
     3
100
AcDbVertex
100
AcDb2dVertex
 10
866.4375155000001
 20
519.757405
 30
0.0
  0
VERTEX
  5
403
330
3F1
100
AcDbEntity
  8
Ｓ_１_１
  6
CONTINUOUS
 62
     3
100
AcDbVertex
100
AcDb2dVertex
 10
866.3635005
 20
518.6330019999999
 30
0.0
  0
VERTEX
  5
404
330
3F1
100
AcDbEntity
  8
Ｓ_１_１
  6
CONTINUOUS
 62
     3
100
AcDbVertex
100
AcDb2dVertex
 10
866.3387655
 20
517.499977
 30
0.0
  0
VERTEX
  5
405
330
3F1
100
AcDbEntity
  8
Ｓ_１_１
  6
CONTINUOUS
 62
     3
100
AcDbVertex
100
AcDb2dVertex
 10
866.3635005
 20
516.366951
 30
0.0
  0
VERTEX
  5
406
330
3F1
100
AcDbEntity
  8
Ｓ_１_１
  6
CONTINUOUS
 62
     3
100
AcDbVertex
100
AcDb2dVertex
 10
866.4375155000001
 20
515.2425479999999
 30
0.0
  0
VERTEX
  5
407
330
3F1
100
AcDbEntity
  8
Ｓ_１_１
  6
CONTINUOUS
 62
     3
100
AcDbVertex
100
AcDb2dVertex
 10
866.5602485000001
 20
514.135326
 30
0.0
  0
VERTEX
  5
408
330
3F1
100
AcDbEntity
  8
Ｓ_１_１
  6
CONTINUOUS
 62
     3
100
AcDbVertex
100
AcDb2dVertex
 10
866.7307645
 20
513.0537109999999
 30
0.0
  0
VERTEX
  5
409
330
3F1
100
AcDbEntity
  8
Ｓ_１_１
  6
CONTINUOUS
 62
     3
100
AcDbVertex
100
AcDb2dVertex
 10
866.9477665000001
 20
512.0059339999999
 30
0.0
  0
VERTEX
  5
40A
330
3F1
100
AcDbEntity
  8
Ｓ_１_１
  6
CONTINUOUS
 62
     3
100
AcDbVertex
100
AcDb2dVertex
 10
867.2096025
 20
510.999971
 30
0.0
  0
VERTEX
  5
40B
330
3F1
100
AcDbEntity
  8
Ｓ_１_１
  6
CONTINUOUS
 62
     3
100
AcDbVertex
100
AcDb2dVertex
 10
867.5142805000002
 20
510.0434759999999
 30
0.0
  0
VERTEX
  5
40C
330
3F1
100
AcDbEntity
  8
Ｓ_１_１
  6
CONTINUOUS
 62
     3
100
AcDbVertex
100
AcDb2dVertex
 10
867.8594805000001
 20
509.14373
 30
0.0
  0
VERTEX
  5
40D
330
3F1
100
AcDbEntity
  8
Ｓ_１_１
  6
CONTINUOUS
 62
     3
100
AcDbVertex
100
AcDb2dVertex
 10
868.2425755
 20
508.307581
 30
0.0
  0
VERTEX
  5
40E
330
3F1
100
AcDbEntity
  8
Ｓ_１_１
  6
CONTINUOUS
 62
     3
100
AcDbVertex
100
AcDb2dVertex
 10
868.6606515
 20
507.54139
 30
0.0
  0
VERTEX
  5
40F
330
3F1
100
AcDbEntity
  8
Ｓ_１_１
  6
CONTINUOUS
 62
     3
100
AcDbVertex
100
AcDb2dVertex
 10
869.1105255000002
 20
506.8509909999999
 30
0.0
  0
VERTEX
  5
410
330
3F1
100
AcDbEntity
  8
Ｓ_１_１
  6
CONTINUOUS
 62
     3
100
AcDbVertex
100
AcDb2dVertex
 10
869.5887735
 20
506.241637
 30
0.0
  0
VERTEX
  5
411
330
3F1
100
AcDbEntity
  8
Ｓ_１_１
  6
CONTINUOUS
 62
     3
100
AcDbVertex
100
AcDb2dVertex
 10
870.0917555000001
 20
505.7179649999999
 30
0.0
  0
VERTEX
  5
412
330
3F1
100
AcDbEntity
  8
Ｓ_１_１
  6
CONTINUOUS
 62
     3
100
AcDbVertex
100
AcDb2dVertex
 10
870.6156445
 20
505.283962
 30
0.0
  0
VERTEX
  5
413
330
3F1
100
AcDbEntity
  8
Ｓ_１_１
  6
CONTINUOUS
 62
     3
100
AcDbVertex
100
AcDb2dVertex
 10
871.1564535000002
 20
504.94293
 30
0.0
  0
VERTEX
  5
414
330
3F1
100
AcDbEntity
  8
Ｓ_１_１
  6
CONTINUOUS
 62
     3
100
AcDbVertex
100
AcDb2dVertex
 10
871.7100645000002
 20
504.697465
 30
0.0
  0
VERTEX
  5
415
330
3F1
100
AcDbEntity
  8
Ｓ_１_１
  6
CONTINUOUS
 62
     3
100
AcDbVertex
100
AcDb2dVertex
 10
872.2722675000001
 20
504.5494339999999
 30
0.0
  0
VERTEX
  5
416
330
3F1
100
AcDbEntity
  8
Ｓ_１_１
  6
CONTINUOUS
 62
     3
100
AcDbVertex
100
AcDb2dVertex
 10
872.8387805000001
 20
504.499965
 30
0.0
  0
VERTEX
  5
417
330
3F1
100
AcDbEntity
  8
Ｓ_１_１
  6
CONTINUOUS
 62
     3
100
AcDbVertex
100
AcDb2dVertex
 10
873.4052945
 20
504.5494339999999
 30
0.0
  0
VERTEX
  5
418
330
3F1
100
AcDbEntity
  8
Ｓ_１_１
  6
CONTINUOUS
 62
     3
100
AcDbVertex
100
AcDb2dVertex
 10
873.9674965
 20
504.697465
 30
0.0
  0
VERTEX
  5
419
330
3F1
100
AcDbEntity
  8
Ｓ_１_１
  6
CONTINUOUS
 62
     3
100
AcDbVertex
100
AcDb2dVertex
 10
874.5211085
 20
504.94293
 30
0.0
  0
VERTEX
  5
41A
330
3F1
100
AcDbEntity
  8
Ｓ_１_１
  6
CONTINUOUS
 62
     3
100
AcDbVertex
100
AcDb2dVertex
 10
875.0619165000002
 20
505.283962
 30
0.0
  0
VERTEX
  5
41B
330
3F1
100
AcDbEntity
  8
Ｓ_１_１
  6
CONTINUOUS
 62
     3
100
AcDbVertex
100
AcDb2dVertex
 10
875.5858055
 20
505.7179649999999
 30
0.0
  0
VERTEX
  5
41C
330
3F1
100
AcDbEntity
  8
Ｓ_１_１
  6
CONTINUOUS
 62
     3
100
AcDbVertex
100
AcDb2dVertex
 10
876.0887885000001
 20
506.241637
 30
0.0
  0
VERTEX
  5
41D
330
3F1
100
AcDbEntity
  8
Ｓ_１_１
  6
CONTINUOUS
 62
     3
100
AcDbVertex
100
AcDb2dVertex
 10
876.5670365
 20
506.8509909999999
 30
0.0
  0
VERTEX
  5
41E
330
3F1
100
AcDbEntity
  8
Ｓ_１_１
  6
CONTINUOUS
 62
     3
100
AcDbVertex
100
AcDb2dVertex
 10
877.0169095
 20
507.54139
 30
0.0
  0
VERTEX
  5
41F
330
3F1
100
AcDbEntity
  8
Ｓ_１_１
  6
CONTINUOUS
 62
     3
100
AcDbVertex
100
AcDb2dVertex
 10
877.4349855000003
 20
508.307581
 30
0.0
  0
VERTEX
  5
420
330
3F1
100
AcDbEntity
  8
Ｓ_１_１
  6
CONTINUOUS
 62
     3
100
AcDbVertex
100
AcDb2dVertex
 10
877.8180815
 20
509.14373
 30
0.0
  0
VERTEX
  5
421
330
3F1
100
AcDbEntity
  8
Ｓ_１_１
  6
CONTINUOUS
 62
     3
100
AcDbVertex
100
AcDb2dVertex
 10
878.1632815000002
 20
510.0434759999999
 30
0.0
  0
VERTEX
  5
422
330
3F1
100
AcDbEntity
  8
Ｓ_１_１
  6
CONTINUOUS
 62
     3
100
AcDbVertex
100
AcDb2dVertex
 10
878.4679585
 20
510.999971
 30
0.0
  0
VERTEX
  5
423
330
3F1
100
AcDbEntity
  8
Ｓ_１_１
  6
CONTINUOUS
 62
     3
100
AcDbVertex
100
AcDb2dVertex
 10
878.7297955
 20
512.0059339999999
 30
0.0
  0
VERTEX
  5
424
330
3F1
100
AcDbEntity
  8
Ｓ_１_１
  6
CONTINUOUS
 62
     3
100
AcDbVertex
100
AcDb2dVertex
 10
878.9467975000002
 20
513.0537109999999
 30
0.0
  0
VERTEX
  5
425
330
3F1
100
AcDbEntity
  8
Ｓ_１_１
  6
CONTINUOUS
 62
     3
100
AcDbVertex
100
AcDb2dVertex
 10
879.1173135
 20
514.135326
 30
0.0
  0
VERTEX
  5
426
330
3F1
100
AcDbEntity
  8
Ｓ_１_１
  6
CONTINUOUS
 62
     3
100
AcDbVertex
100
AcDb2dVertex
 10
879.2400465
 20
515.2425479999999
 30
0.0
  0
VERTEX
  5
427
330
3F1
100
AcDbEntity
  8
Ｓ_１_１
  6
CONTINUOUS
 62
     3
100
AcDbVertex
100
AcDb2dVertex
 10
879.3140615000001
 20
516.366951
 30
0.0
  0
VERTEX
  5
428
330
3F1
100
AcDbEntity
  8
Ｓ_１_１
  6
CONTINUOUS
 62
     3
100
AcDbVertex
100
AcDb2dVertex
 10
879.3387955
 20
517.499977
 30
0.0
  0
VERTEX
  5
429
330
3F1
100
AcDbEntity
  8
Ｓ_１_１
  6
CONTINUOUS
 62
     3
100
AcDbVertex
100
AcDb2dVertex
 10
879.3140615000001
 20
518.6330019999999
 30
0.0
  0
VERTEX
  5
42A
330
3F1
100
AcDbEntity
  8
Ｓ_１_１
  6
CONTINUOUS
 62
     3
100
AcDbVertex
100
AcDb2dVertex
 10
879.2400465
 20
519.757405
 30
0.0
  0
VERTEX
  5
42B
330
3F1
100
AcDbEntity
  8
Ｓ_１_１
  6
CONTINUOUS
 62
     3
100
AcDbVertex
100
AcDb2dVertex
 10
879.1173135
 20
520.8646269999999
 30
0.0
  0
VERTEX
  5
42C
330
3F1
100
AcDbEntity
  8
Ｓ_１_１
  6
CONTINUOUS
 62
     3
100
AcDbVertex
100
AcDb2dVertex
 10
878.9467975000002
 20
521.946242
 30
0.0
  0
VERTEX
  5
42D
330
3F1
100
AcDbEntity
  8
Ｓ_１_１
  6
CONTINUOUS
 62
     3
100
AcDbVertex
100
AcDb2dVertex
 10
878.7297955
 20
522.994019
 30
0.0
  0
VERTEX
  5
42E
330
3F1
100
AcDbEntity
  8
Ｓ_１_１
  6
CONTINUOUS
 62
     3
100
AcDbVertex
100
AcDb2dVertex
 10
878.4679585
 20
523.9999819999999
 30
0.0
  0
VERTEX
  5
42F
330
3F1
100
AcDbEntity
  8
Ｓ_１_１
  6
CONTINUOUS
 62
     3
100
AcDbVertex
100
AcDb2dVertex
 10
878.1632815000002
 20
524.956477
 30
0.0
  0
VERTEX
  5
430
330
3F1
100
AcDbEntity
  8
Ｓ_１_１
  6
CONTINUOUS
 62
     3
100
AcDbVertex
100
AcDb2dVertex
 10
877.8180815
 20
525.856223
 30
0.0
  0
VERTEX
  5
431
330
3F1
100
AcDbEntity
  8
Ｓ_１_１
  6
CONTINUOUS
 62
     3
100
AcDbVertex
100
AcDb2dVertex
 10
877.4349855000003
 20
526.692373
 30
0.0
  0
VERTEX
  5
432
330
3F1
100
AcDbEntity
  8
Ｓ_１_１
  6
CONTINUOUS
 62
     3
100
AcDbVertex
100
AcDb2dVertex
 10
877.0169095
 20
527.4585629999999
 30
0.0
  0
VERTEX
  5
433
330
3F1
100
AcDbEntity
  8
Ｓ_１_１
  6
CONTINUOUS
 62
     3
100
AcDbVertex
100
AcDb2dVertex
 10
876.5670365
 20
528.148962
 30
0.0
  0
VERTEX
  5
434
330
3F1
100
AcDbEntity
  8
Ｓ_１_１
  6
CONTINUOUS
 62
     3
100
AcDbVertex
100
AcDb2dVertex
 10
876.0887885000001
 20
528.7583169999999
 30
0.0
  0
VERTEX
  5
435
330
3F1
100
AcDbEntity
  8
Ｓ_１_１
  6
CONTINUOUS
 62
     3
100
AcDbVertex
100
AcDb2dVertex
 10
875.5858055
 20
529.281988
 30
0.0
  0
VERTEX
  5
436
330
3F1
100
AcDbEntity
  8
Ｓ_１_１
  6
CONTINUOUS
 62
     3
100
AcDbVertex
100
AcDb2dVertex
 10
875.0619165000002
 20
529.7159909999999
 30
0.0
  0
VERTEX
  5
437
330
3F1
100
AcDbEntity
  8
Ｓ_１_１
  6
CONTINUOUS
 62
     3
100
AcDbVertex
100
AcDb2dVertex
 10
874.5211085
 20
530.057023
 30
0.0
  0
VERTEX
  5
438
330
3F1
100
AcDbEntity
  8
Ｓ_１_１
  6
CONTINUOUS
 62
     3
100
AcDbVertex
100
AcDb2dVertex
 10
873.9674965
 20
530.3024879999999
 30
0.0
  0
VERTEX
  5
439
330
3F1
100
AcDbEntity
  8
Ｓ_１_１
  6
CONTINUOUS
 62
     3
100
AcDbVertex
100
AcDb2dVertex
 10
873.4052945
 20
530.450519
 30
0.0
  0
VERTEX
  5
43A
330
3F1
100
AcDbEntity
  8
Ｓ_１_１
  6
CONTINUOUS
 62
     3
100
AcDbVertex
100
AcDb2dVertex
 10
872.8387805000001
 20
530.4999879999999
 30
0.0
  0
SEQEND
  5
43B
330
3F1
100
AcDbEntity
  8
Ｓ_１_１
  6
CONTINUOUS
 62
     3
  0
POLYLINE
  5
43C
330
1F
100
AcDbEntity
  8
Ｓ_１_１
  6
CONTINUOUS
 62
     3
100
AcDb2dPolyline
 66
     1
 10
0.0
 20
0.0
 30
0.0
 70
   128
  0
VERTEX
  5
43D
330
43C
100
AcDbEntity
  8
Ｓ_１_１
  6
CONTINUOUS
 62
     3
100
AcDbVertex
100
AcDb2dVertex
 10
872.8387805000001
 20
531.499973
 30
0.0
  0
VERTEX
  5
43E
330
43C
100
AcDbEntity
  8
Ｓ_１_１
  6
CONTINUOUS
 62
     3
100
AcDbVertex
100
AcDb2dVertex
 10
872.2286895000002
 20
531.446698
 30
0.0
  0
VERTEX
  5
43F
330
43C
100
AcDbEntity
  8
Ｓ_１_１
  6
CONTINUOUS
 62
     3
100
AcDbVertex
100
AcDb2dVertex
 10
871.6232425
 20
531.287281
 30
0.0
  0
VERTEX
  5
440
330
43C
100
AcDbEntity
  8
Ｓ_１_１
  6
CONTINUOUS
 62
     3
100
AcDbVertex
100
AcDb2dVertex
 10
871.0270455000001
 20
531.022934
 30
0.0
  0
VERTEX
  5
441
330
43C
100
AcDbEntity
  8
Ｓ_１_１
  6
CONTINUOUS
 62
     3
100
AcDbVertex
100
AcDb2dVertex
 10
870.4446375000001
 20
530.65567
 30
0.0
  0
VERTEX
  5
442
330
43C
100
AcDbEntity
  8
Ｓ_１_１
  6
CONTINUOUS
 62
     3
100
AcDbVertex
100
AcDb2dVertex
 10
869.8804495000002
 20
530.188282
 30
0.0
  0
VERTEX
  5
443
330
43C
100
AcDbEntity
  8
Ｓ_１_１
  6
CONTINUOUS
 62
     3
100
AcDbVertex
100
AcDb2dVertex
 10
869.3387765000001
 20
529.624329
 30
0.0
  0
VERTEX
  5
444
330
43C
100
AcDbEntity
  8
Ｓ_１_１
  6
CONTINUOUS
 62
     3
100
AcDbVertex
100
AcDb2dVertex
 10
868.8237415
 20
528.9681019999999
 30
0.0
  0
VERTEX
  5
445
330
43C
100
AcDbEntity
  8
Ｓ_１_１
  6
CONTINUOUS
 62
     3
100
AcDbVertex
100
AcDb2dVertex
 10
868.3392625
 20
528.2245959999999
 30
0.0
  0
VERTEX
  5
446
330
43C
100
AcDbEntity
  8
Ｓ_１_１
  6
CONTINUOUS
 62
     3
100
AcDbVertex
100
AcDb2dVertex
 10
867.8890275
 20
527.399469
 30
0.0
  0
VERTEX
  5
447
330
43C
100
AcDbEntity
  8
Ｓ_１_１
  6
CONTINUOUS
 62
     3
100
AcDbVertex
100
AcDb2dVertex
 10
867.4764635
 20
526.4990009999999
 30
0.0
  0
VERTEX
  5
448
330
43C
100
AcDbEntity
  8
Ｓ_１_１
  6
CONTINUOUS
 62
     3
100
AcDbVertex
100
AcDb2dVertex
 10
867.1047105000002
 20
525.530044
 30
0.0
  0
VERTEX
  5
449
330
43C
100
AcDbEntity
  8
Ｓ_１_１
  6
CONTINUOUS
 62
     3
100
AcDbVertex
100
AcDb2dVertex
 10
866.7765965000001
 20
524.499975
 30
0.0
  0
VERTEX
  5
44A
330
43C
100
AcDbEntity
  8
Ｓ_１_１
  6
CONTINUOUS
 62
     3
100
AcDbVertex
100
AcDb2dVertex
 10
866.4946195000001
 20
523.4166309999999
 30
0.0
  0
VERTEX
  5
44B
330
43C
100
AcDbEntity
  8
Ｓ_１_１
  6
CONTINUOUS
 62
     3
100
AcDbVertex
100
AcDb2dVertex
 10
866.2609255000001
 20
522.2882569999999
 30
0.0
  0
VERTEX
  5
44C
330
43C
100
AcDbEntity
  8
Ｓ_１_１
  6
CONTINUOUS
 62
     3
100
AcDbVertex
100
AcDb2dVertex
 10
866.0772925
 20
521.123442
 30
0.0
  0
VERTEX
  5
44D
330
43C
100
AcDbEntity
  8
Ｓ_１_１
  6
CONTINUOUS
 62
     3
100
AcDbVertex
100
AcDb2dVertex
 10
865.9451195
 20
519.9310499999999
 30
0.0
  0
VERTEX
  5
44E
330
43C
100
AcDbEntity
  8
Ｓ_１_１
  6
CONTINUOUS
 62
     3
100
AcDbVertex
100
AcDb2dVertex
 10
865.8654105000002
 20
518.720157
 30
0.0
  0
VERTEX
  5
44F
330
43C
100
AcDbEntity
  8
Ｓ_１_１
  6
CONTINUOUS
 62
     3
100
AcDbVertex
100
AcDb2dVertex
 10
865.8387735
 20
517.499977
 30
0.0
  0
VERTEX
  5
450
330
43C
100
AcDbEntity
  8
Ｓ_１_１
  6
CONTINUOUS
 62
     3
100
AcDbVertex
100
AcDb2dVertex
 10
865.8654105000002
 20
516.2797969999999
 30
0.0
  0
VERTEX
  5
451
330
43C
100
AcDbEntity
  8
Ｓ_１_１
  6
CONTINUOUS
 62
     3
100
AcDbVertex
100
AcDb2dVertex
 10
865.9451195
 20
515.068903
 30
0.0
  0
VERTEX
  5
452
330
43C
100
AcDbEntity
  8
Ｓ_１_１
  6
CONTINUOUS
 62
     3
100
AcDbVertex
100
AcDb2dVertex
 10
866.0772925
 20
513.8765109999999
 30
0.0
  0
VERTEX
  5
453
330
43C
100
AcDbEntity
  8
Ｓ_１_１
  6
CONTINUOUS
 62
     3
100
AcDbVertex
100
AcDb2dVertex
 10
866.2609255000001
 20
512.711696
 30
0.0
  0
VERTEX
  5
454
330
43C
100
AcDbEntity
  8
Ｓ_１_１
  6
CONTINUOUS
 62
     3
100
AcDbVertex
100
AcDb2dVertex
 10
866.4946195000001
 20
511.583323
 30
0.0
  0
VERTEX
  5
455
330
43C
100
AcDbEntity
  8
Ｓ_１_１
  6
CONTINUOUS
 62
     3
100
AcDbVertex
100
AcDb2dVertex
 10
866.7765965000001
 20
510.4999789999999
 30
0.0
  0
VERTEX
  5
456
330
43C
100
AcDbEntity
  8
Ｓ_１_１
  6
CONTINUOUS
 62
     3
100
AcDbVertex
100
AcDb2dVertex
 10
867.1047105000002
 20
509.4699089999999
 30
0.0
  0
VERTEX
  5
457
330
43C
100
AcDbEntity
  8
Ｓ_１_１
  6
CONTINUOUS
 62
     3
100
AcDbVertex
100
AcDb2dVertex
 10
867.4764635
 20
508.500953
 30
0.0
  0
VERTEX
  5
458
330
43C
100
AcDbEntity
  8
Ｓ_１_１
  6
CONTINUOUS
 62
     3
100
AcDbVertex
100
AcDb2dVertex
 10
867.8890275
 20
507.6004849999999
 30
0.0
  0
VERTEX
  5
459
330
43C
100
AcDbEntity
  8
Ｓ_１_１
  6
CONTINUOUS
 62
     3
100
AcDbVertex
100
AcDb2dVertex
 10
868.3392625
 20
506.775357
 30
0.0
  0
VERTEX
  5
45A
330
43C
100
AcDbEntity
  8
Ｓ_１_１
  6
CONTINUOUS
 62
     3
100
AcDbVertex
100
AcDb2dVertex
 10
868.8237415
 20
506.031851
 30
0.0
  0
VERTEX
  5
45B
330
43C
100
AcDbEntity
  8
Ｓ_１_１
  6
CONTINUOUS
 62
     3
100
AcDbVertex
100
AcDb2dVertex
 10
869.3387765000001
 20
505.3756239999999
 30
0.0
  0
VERTEX
  5
45C
330
43C
100
AcDbEntity
  8
Ｓ_１_１
  6
CONTINUOUS
 62
     3
100
AcDbVertex
100
AcDb2dVertex
 10
869.8804495000002
 20
504.8116709999999
 30
0.0
  0
VERTEX
  5
45D
330
43C
100
AcDbEntity
  8
Ｓ_１_１
  6
CONTINUOUS
 62
     3
100
AcDbVertex
100
AcDb2dVertex
 10
870.4446375000001
 20
504.3442839999999
 30
0.0
  0
VERTEX
  5
45E
330
43C
100
AcDbEntity
  8
Ｓ_１_１
  6
CONTINUOUS
 62
     3
100
AcDbVertex
100
AcDb2dVertex
 10
871.0270455000001
 20
503.9770189999999
 30
0.0
  0
VERTEX
  5
45F
330
43C
100
AcDbEntity
  8
Ｓ_１_１
  6
CONTINUOUS
 62
     3
100
AcDbVertex
100
AcDb2dVertex
 10
871.6232425
 20
503.7126720000001
 30
0.0
  0
VERTEX
  5
460
330
43C
100
AcDbEntity
  8
Ｓ_１_１
  6
CONTINUOUS
 62
     3
100
AcDbVertex
100
AcDb2dVertex
 10
872.2286895000002
 20
503.5532549999999
 30
0.0
  0
VERTEX
  5
461
330
43C
100
AcDbEntity
  8
Ｓ_１_１
  6
CONTINUOUS
 62
     3
100
AcDbVertex
100
AcDb2dVertex
 10
872.8387805000001
 20
503.4999809999999
 30
0.0
  0
VERTEX
  5
462
330
43C
100
AcDbEntity
  8
Ｓ_１_１
  6
CONTINUOUS
 62
     3
100
AcDbVertex
100
AcDb2dVertex
 10
873.4488715000001
 20
503.5532549999999
 30
0.0
  0
VERTEX
  5
463
330
43C
100
AcDbEntity
  8
Ｓ_１_１
  6
CONTINUOUS
 62
     3
100
AcDbVertex
100
AcDb2dVertex
 10
874.0543195000001
 20
503.7126720000001
 30
0.0
  0
VERTEX
  5
464
330
43C
100
AcDbEntity
  8
Ｓ_１_１
  6
CONTINUOUS
 62
     3
100
AcDbVertex
100
AcDb2dVertex
 10
874.6505155000001
 20
503.9770189999999
 30
0.0
  0
VERTEX
  5
465
330
43C
100
AcDbEntity
  8
Ｓ_１_１
  6
CONTINUOUS
 62
     3
100
AcDbVertex
100
AcDb2dVertex
 10
875.2329245
 20
504.3442839999999
 30
0.0
  0
VERTEX
  5
466
330
43C
100
AcDbEntity
  8
Ｓ_１_１
  6
CONTINUOUS
 62
     3
100
AcDbVertex
100
AcDb2dVertex
 10
875.7971115000001
 20
504.8116709999999
 30
0.0
  0
VERTEX
  5
467
330
43C
100
AcDbEntity
  8
Ｓ_１_１
  6
CONTINUOUS
 62
     3
100
AcDbVertex
100
AcDb2dVertex
 10
876.3387845000001
 20
505.3756239999999
 30
0.0
  0
VERTEX
  5
468
330
43C
100
AcDbEntity
  8
Ｓ_１_１
  6
CONTINUOUS
 62
     3
100
AcDbVertex
100
AcDb2dVertex
 10
876.8538205000001
 20
506.031851
 30
0.0
  0
VERTEX
  5
469
330
43C
100
AcDbEntity
  8
Ｓ_１_１
  6
CONTINUOUS
 62
     3
100
AcDbVertex
100
AcDb2dVertex
 10
877.3382985000001
 20
506.775357
 30
0.0
  0
VERTEX
  5
46A
330
43C
100
AcDbEntity
  8
Ｓ_１_１
  6
CONTINUOUS
 62
     3
100
AcDbVertex
100
AcDb2dVertex
 10
877.7885335
 20
507.6004849999999
 30
0.0
  0
VERTEX
  5
46B
330
43C
100
AcDbEntity
  8
Ｓ_１_１
  6
CONTINUOUS
 62
     3
100
AcDbVertex
100
AcDb2dVertex
 10
878.2010975
 20
508.500953
 30
0.0
  0
VERTEX
  5
46C
330
43C
100
AcDbEntity
  8
Ｓ_１_１
  6
CONTINUOUS
 62
     3
100
AcDbVertex
100
AcDb2dVertex
 10
878.5728515
 20
509.4699089999999
 30
0.0
  0
VERTEX
  5
46D
330
43C
100
AcDbEntity
  8
Ｓ_１_１
  6
CONTINUOUS
 62
     3
100
AcDbVertex
100
AcDb2dVertex
 10
878.9009655000001
 20
510.4999789999999
 30
0.0
  0
VERTEX
  5
46E
330
43C
100
AcDbEntity
  8
Ｓ_１_１
  6
CONTINUOUS
 62
     3
100
AcDbVertex
100
AcDb2dVertex
 10
879.1829425
 20
511.583323
 30
0.0
  0
VERTEX
  5
46F
330
43C
100
AcDbEntity
  8
Ｓ_１_１
  6
CONTINUOUS
 62
     3
100
AcDbVertex
100
AcDb2dVertex
 10
879.4166365000001
 20
512.711696
 30
0.0
  0
VERTEX
  5
470
330
43C
100
AcDbEntity
  8
Ｓ_１_１
  6
CONTINUOUS
 62
     3
100
AcDbVertex
100
AcDb2dVertex
 10
879.6002685
 20
513.8765109999999
 30
0.0
  0
VERTEX
  5
471
330
43C
100
AcDbEntity
  8
Ｓ_１_１
  6
CONTINUOUS
 62
     3
100
AcDbVertex
100
AcDb2dVertex
 10
879.7324425
 20
515.068903
 30
0.0
  0
VERTEX
  5
472
330
43C
100
AcDbEntity
  8
Ｓ_１_１
  6
CONTINUOUS
 62
     3
100
AcDbVertex
100
AcDb2dVertex
 10
879.8121515000003
 20
516.2797969999999
 30
0.0
  0
VERTEX
  5
473
330
43C
100
AcDbEntity
  8
Ｓ_１_１
  6
CONTINUOUS
 62
     3
100
AcDbVertex
100
AcDb2dVertex
 10
879.8387885000001
 20
517.499977
 30
0.0
  0
VERTEX
  5
474
330
43C
100
AcDbEntity
  8
Ｓ_１_１
  6
CONTINUOUS
 62
     3
100
AcDbVertex
100
AcDb2dVertex
 10
879.8121515000003
 20
518.720157
 30
0.0
  0
VERTEX
  5
475
330
43C
100
AcDbEntity
  8
Ｓ_１_１
  6
CONTINUOUS
 62
     3
100
AcDbVertex
100
AcDb2dVertex
 10
879.7324425
 20
519.9310499999999
 30
0.0
  0
VERTEX
  5
476
330
43C
100
AcDbEntity
  8
Ｓ_１_１
  6
CONTINUOUS
 62
     3
100
AcDbVertex
100
AcDb2dVertex
 10
879.6002685
 20
521.123442
 30
0.0
  0
VERTEX
  5
477
330
43C
100
AcDbEntity
  8
Ｓ_１_１
  6
CONTINUOUS
 62
     3
100
AcDbVertex
100
AcDb2dVertex
 10
879.4166365000001
 20
522.2882569999999
 30
0.0
  0
VERTEX
  5
478
330
43C
100
AcDbEntity
  8
Ｓ_１_１
  6
CONTINUOUS
 62
     3
100
AcDbVertex
100
AcDb2dVertex
 10
879.1829425
 20
523.4166309999999
 30
0.0
  0
VERTEX
  5
479
330
43C
100
AcDbEntity
  8
Ｓ_１_１
  6
CONTINUOUS
 62
     3
100
AcDbVertex
100
AcDb2dVertex
 10
878.9009655000001
 20
524.499975
 30
0.0
  0
VERTEX
  5
47A
330
43C
100
AcDbEntity
  8
Ｓ_１_１
  6
CONTINUOUS
 62
     3
100
AcDbVertex
100
AcDb2dVertex
 10
878.5728515
 20
525.530044
 30
0.0
  0
VERTEX
  5
47B
330
43C
100
AcDbEntity
  8
Ｓ_１_１
  6
CONTINUOUS
 62
     3
100
AcDbVertex
100
AcDb2dVertex
 10
878.2010975
 20
526.4990009999999
 30
0.0
  0
VERTEX
  5
47C
330
43C
100
AcDbEntity
  8
Ｓ_１_１
  6
CONTINUOUS
 62
     3
100
AcDbVertex
100
AcDb2dVertex
 10
877.7885335
 20
527.399469
 30
0.0
  0
VERTEX
  5
47D
330
43C
100
AcDbEntity
  8
Ｓ_１_１
  6
CONTINUOUS
 62
     3
100
AcDbVertex
100
AcDb2dVertex
 10
877.3382985000001
 20
528.2245959999999
 30
0.0
  0
VERTEX
  5
47E
330
43C
100
AcDbEntity
  8
Ｓ_１_１
  6
CONTINUOUS
 62
     3
100
AcDbVertex
100
AcDb2dVertex
 10
876.8538205000001
 20
528.9681019999999
 30
0.0
  0
VERTEX
  5
47F
330
43C
100
AcDbEntity
  8
Ｓ_１_１
  6
CONTINUOUS
 62
     3
100
AcDbVertex
100
AcDb2dVertex
 10
876.3387845000001
 20
529.624329
 30
0.0
  0
VERTEX
  5
480
330
43C
100
AcDbEntity
  8
Ｓ_１_１
  6
CONTINUOUS
 62
     3
100
AcDbVertex
100
AcDb2dVertex
 10
875.7971115000001
 20
530.188282
 30
0.0
  0
VERTEX
  5
481
330
43C
100
AcDbEntity
  8
Ｓ_１_１
  6
CONTINUOUS
 62
     3
100
AcDbVertex
100
AcDb2dVertex
 10
875.2329245
 20
530.65567
 30
0.0
  0
VERTEX
  5
482
330
43C
100
AcDbEntity
  8
Ｓ_１_１
  6
CONTINUOUS
 62
     3
100
AcDbVertex
100
AcDb2dVertex
 10
874.6505155000001
 20
531.022934
 30
0.0
  0
VERTEX
  5
483
330
43C
100
AcDbEntity
  8
Ｓ_１_１
  6
CONTINUOUS
 62
     3
100
AcDbVertex
100
AcDb2dVertex
 10
874.0543195000001
 20
531.287281
 30
0.0
  0
VERTEX
  5
484
330
43C
100
AcDbEntity
  8
Ｓ_１_１
  6
CONTINUOUS
 62
     3
100
AcDbVertex
100
AcDb2dVertex
 10
873.4488715000001
 20
531.446698
 30
0.0
  0
VERTEX
  5
485
330
43C
100
AcDbEntity
  8
Ｓ_１_１
  6
CONTINUOUS
 62
     3
100
AcDbVertex
100
AcDb2dVertex
 10
872.8387805000001
 20
531.499973
 30
0.0
  0
SEQEND
  5
486
330
43C
100
AcDbEntity
  8
Ｓ_１_１
  6
CONTINUOUS
 62
     3
  0
POLYLINE
  5
487
330
1F
100
AcDbEntity
  8
Ｓ_１_１
  6
CONTINUOUS
 62
     3
100
AcDb2dPolyline
 66
     1
 10
0.0
 20
0.0
 30
0.0
 70
   128
  0
VERTEX
  5
488
330
487
100
AcDbEntity
  8
Ｓ_１_１
  6
CONTINUOUS
 62
     3
100
AcDbVertex
100
AcDb2dVertex
 10
527.1612195000001
 20
531.499973
 30
0.0
  0
VERTEX
  5
489
330
487
100
AcDbEntity
  8
Ｓ_１_１
  6
CONTINUOUS
 62
     3
100
AcDbVertex
100
AcDb2dVertex
 10
526.5511315
 20
531.446698
 30
0.0
  0
VERTEX
  5
48A
330
487
100
AcDbEntity
  8
Ｓ_１_１
  6
CONTINUOUS
 62
     3
100
AcDbVertex
100
AcDb2dVertex
 10
525.9456875
 20
531.287281
 30
0.0
  0
VERTEX
  5
48B
330
487
100
AcDbEntity
  8
Ｓ_１_１
  6
CONTINUOUS
 62
     3
100
AcDbVertex
100
AcDb2dVertex
 10
525.3494935
 20
531.022934
 30
0.0
  0
VERTEX
  5
48C
330
487
100
AcDbEntity
  8
Ｓ_１_１
  6
CONTINUOUS
 62
     3
100
AcDbVertex
100
AcDb2dVertex
 10
524.7670885000001
 20
530.65567
 30
0.0
  0
VERTEX
  5
48D
330
487
100
AcDbEntity
  8
Ｓ_１_１
  6
CONTINUOUS
 62
     3
100
AcDbVertex
100
AcDb2dVertex
 10
524.2029045
 20
530.188282
 30
0.0
  0
VERTEX
  5
48E
330
487
100
AcDbEntity
  8
Ｓ_１_１
  6
CONTINUOUS
 62
     3
100
AcDbVertex
100
AcDb2dVertex
 10
523.6612345
 20
529.624329
 30
0.0
  0
VERTEX
  5
48F
330
487
100
AcDbEntity
  8
Ｓ_１_１
  6
CONTINUOUS
 62
     3
100
AcDbVertex
100
AcDb2dVertex
 10
523.1462015000001
 20
528.9681019999999
 30
0.0
  0
VERTEX
  5
490
330
487
100
AcDbEntity
  8
Ｓ_１_１
  6
CONTINUOUS
 62
     3
100
AcDbVertex
100
AcDb2dVertex
 10
522.6617255
 20
528.2245959999999
 30
0.0
  0
VERTEX
  5
491
330
487
100
AcDbEntity
  8
Ｓ_１_１
  6
CONTINUOUS
 62
     3
100
AcDbVertex
100
AcDb2dVertex
 10
522.2114935000001
 20
527.399469
 30
0.0
  0
VERTEX
  5
492
330
487
100
AcDbEntity
  8
Ｓ_１_１
  6
CONTINUOUS
 62
     3
100
AcDbVertex
100
AcDb2dVertex
 10
521.7989315000001
 20
526.4990009999999
 30
0.0
  0
VERTEX
  5
493
330
487
100
AcDbEntity
  8
Ｓ_１_１
  6
CONTINUOUS
 62
     3
100
AcDbVertex
100
AcDb2dVertex
 10
521.4271805
 20
525.530044
 30
0.0
  0
VERTEX
  5
494
330
487
100
AcDbEntity
  8
Ｓ_１_１
  6
CONTINUOUS
 62
     3
100
AcDbVertex
100
AcDb2dVertex
 10
521.0990685
 20
524.499975
 30
0.0
  0
VERTEX
  5
495
330
487
100
AcDbEntity
  8
Ｓ_１_１
  6
CONTINUOUS
 62
     3
100
AcDbVertex
100
AcDb2dVertex
 10
520.8170925000001
 20
523.4166309999999
 30
0.0
  0
VERTEX
  5
496
330
487
100
AcDbEntity
  8
Ｓ_１_１
  6
CONTINUOUS
 62
     3
100
AcDbVertex
100
AcDb2dVertex
 10
520.5833995000002
 20
522.2882569999999
 30
0.0
  0
VERTEX
  5
497
330
487
100
AcDbEntity
  8
Ｓ_１_１
  6
CONTINUOUS
 62
     3
100
AcDbVertex
100
AcDb2dVertex
 10
520.3997685
 20
521.123442
 30
0.0
  0
VERTEX
  5
498
330
487
100
AcDbEntity
  8
Ｓ_１_１
  6
CONTINUOUS
 62
     3
100
AcDbVertex
100
AcDb2dVertex
 10
520.2675955000001
 20
519.9310499999999
 30
0.0
  0
VERTEX
  5
499
330
487
100
AcDbEntity
  8
Ｓ_１_１
  6
CONTINUOUS
 62
     3
100
AcDbVertex
100
AcDb2dVertex
 10
520.1878865
 20
518.720157
 30
0.0
  0
VERTEX
  5
49A
330
487
100
AcDbEntity
  8
Ｓ_１_１
  6
CONTINUOUS
 62
     3
100
AcDbVertex
100
AcDb2dVertex
 10
520.1612495
 20
517.499977
 30
0.0
  0
VERTEX
  5
49B
330
487
100
AcDbEntity
  8
Ｓ_１_１
  6
CONTINUOUS
 62
     3
100
AcDbVertex
100
AcDb2dVertex
 10
520.1878865
 20
516.2797969999999
 30
0.0
  0
VERTEX
  5
49C
330
487
100
AcDbEntity
  8
Ｓ_１_１
  6
CONTINUOUS
 62
     3
100
AcDbVertex
100
AcDb2dVertex
 10
520.2675955000001
 20
515.068903
 30
0.0
  0
VERTEX
  5
49D
330
487
100
AcDbEntity
  8
Ｓ_１_１
  6
CONTINUOUS
 62
     3
100
AcDbVertex
100
AcDb2dVertex
 10
520.3997685
 20
513.8765109999999
 30
0.0
  0
VERTEX
  5
49E
330
487
100
AcDbEntity
  8
Ｓ_１_１
  6
CONTINUOUS
 62
     3
100
AcDbVertex
100
AcDb2dVertex
 10
520.5833995000002
 20
512.711696
 30
0.0
  0
VERTEX
  5
49F
330
487
100
AcDbEntity
  8
Ｓ_１_１
  6
CONTINUOUS
 62
     3
100
AcDbVertex
100
AcDb2dVertex
 10
520.8170925000001
 20
511.583323
 30
0.0
  0
VERTEX
  5
4A0
330
487
100
AcDbEntity
  8
Ｓ_１_１
  6
CONTINUOUS
 62
     3
100
AcDbVertex
100
AcDb2dVertex
 10
521.0990685
 20
510.4999789999999
 30
0.0
  0
VERTEX
  5
4A1
330
487
100
AcDbEntity
  8
Ｓ_１_１
  6
CONTINUOUS
 62
     3
100
AcDbVertex
100
AcDb2dVertex
 10
521.4271805
 20
509.4699089999999
 30
0.0
  0
VERTEX
  5
4A2
330
487
100
AcDbEntity
  8
Ｓ_１_１
  6
CONTINUOUS
 62
     3
100
AcDbVertex
100
AcDb2dVertex
 10
521.7989315000001
 20
508.500953
 30
0.0
  0
VERTEX
  5
4A3
330
487
100
AcDbEntity
  8
Ｓ_１_１
  6
CONTINUOUS
 62
     3
100
AcDbVertex
100
AcDb2dVertex
 10
522.2114935000001
 20
507.6004849999999
 30
0.0
  0
VERTEX
  5
4A4
330
487
100
AcDbEntity
  8
Ｓ_１_１
  6
CONTINUOUS
 62
     3
100
AcDbVertex
100
AcDb2dVertex
 10
522.6617255
 20
506.775357
 30
0.0
  0
VERTEX
  5
4A5
330
487
100
AcDbEntity
  8
Ｓ_１_１
  6
CONTINUOUS
 62
     3
100
AcDbVertex
100
AcDb2dVertex
 10
523.1462015000001
 20
506.031851
 30
0.0
  0
VERTEX
  5
4A6
330
487
100
AcDbEntity
  8
Ｓ_１_１
  6
CONTINUOUS
 62
     3
100
AcDbVertex
100
AcDb2dVertex
 10
523.6612345
 20
505.3756239999999
 30
0.0
  0
VERTEX
  5
4A7
330
487
100
AcDbEntity
  8
Ｓ_１_１
  6
CONTINUOUS
 62
     3
100
AcDbVertex
100
AcDb2dVertex
 10
524.2029045
 20
504.8116709999999
 30
0.0
  0
VERTEX
  5
4A8
330
487
100
AcDbEntity
  8
Ｓ_１_１
  6
CONTINUOUS
 62
     3
100
AcDbVertex
100
AcDb2dVertex
 10
524.7670885000001
 20
504.3442839999999
 30
0.0
  0
VERTEX
  5
4A9
330
487
100
AcDbEntity
  8
Ｓ_１_１
  6
CONTINUOUS
 62
     3
100
AcDbVertex
100
AcDb2dVertex
 10
525.3494935
 20
503.9770189999999
 30
0.0
  0
VERTEX
  5
4AA
330
487
100
AcDbEntity
  8
Ｓ_１_１
  6
CONTINUOUS
 62
     3
100
AcDbVertex
100
AcDb2dVertex
 10
525.9456875
 20
503.7126720000001
 30
0.0
  0
VERTEX
  5
4AB
330
487
100
AcDbEntity
  8
Ｓ_１_１
  6
CONTINUOUS
 62
     3
100
AcDbVertex
100
AcDb2dVertex
 10
526.5511315
 20
503.5532549999999
 30
0.0
  0
VERTEX
  5
4AC
330
487
100
AcDbEntity
  8
Ｓ_１_１
  6
CONTINUOUS
 62
     3
100
AcDbVertex
100
AcDb2dVertex
 10
527.1612195000001
 20
503.4999809999999
 30
0.0
  0
VERTEX
  5
4AD
330
487
100
AcDbEntity
  8
Ｓ_１_１
  6
CONTINUOUS
 62
     3
100
AcDbVertex
100
AcDb2dVertex
 10
527.7713065000002
 20
503.5532549999999
 30
0.0
  0
VERTEX
  5
4AE
330
487
100
AcDbEntity
  8
Ｓ_１_１
  6
CONTINUOUS
 62
     3
100
AcDbVertex
100
AcDb2dVertex
 10
528.3767515000001
 20
503.7126720000001
 30
0.0
  0
VERTEX
  5
4AF
330
487
100
AcDbEntity
  8
Ｓ_１_１
  6
CONTINUOUS
 62
     3
100
AcDbVertex
100
AcDb2dVertex
 10
528.9729445000002
 20
503.9770189999999
 30
0.0
  0
VERTEX
  5
4B0
330
487
100
AcDbEntity
  8
Ｓ_１_１
  6
CONTINUOUS
 62
     3
100
AcDbVertex
100
AcDb2dVertex
 10
529.5553495
 20
504.3442839999999
 30
0.0
  0
VERTEX
  5
4B1
330
487
100
AcDbEntity
  8
Ｓ_１_１
  6
CONTINUOUS
 62
     3
100
AcDbVertex
100
AcDb2dVertex
 10
530.1195345
 20
504.8116709999999
 30
0.0
  0
VERTEX
  5
4B2
330
487
100
AcDbEntity
  8
Ｓ_１_１
  6
CONTINUOUS
 62
     3
100
AcDbVertex
100
AcDb2dVertex
 10
530.6612045
 20
505.3756239999999
 30
0.0
  0
VERTEX
  5
4B3
330
487
100
AcDbEntity
  8
Ｓ_１_１
  6
CONTINUOUS
 62
     3
100
AcDbVertex
100
AcDb2dVertex
 10
531.1762365000001
 20
506.031851
 30
0.0
  0
VERTEX
  5
4B4
330
487
100
AcDbEntity
  8
Ｓ_１_１
  6
CONTINUOUS
 62
     3
100
AcDbVertex
100
AcDb2dVertex
 10
531.6607125000002
 20
506.775357
 30
0.0
  0
VERTEX
  5
4B5
330
487
100
AcDbEntity
  8
Ｓ_１_１
  6
CONTINUOUS
 62
     3
100
AcDbVertex
100
AcDb2dVertex
 10
532.1109455
 20
507.6004849999999
 30
0.0
  0
VERTEX
  5
4B6
330
487
100
AcDbEntity
  8
Ｓ_１_１
  6
CONTINUOUS
 62
     3
100
AcDbVertex
100
AcDb2dVertex
 10
532.5235065
 20
508.500953
 30
0.0
  0
VERTEX
  5
4B7
330
487
100
AcDbEntity
  8
Ｓ_１_１
  6
CONTINUOUS
 62
     3
100
AcDbVertex
100
AcDb2dVertex
 10
532.8952585000001
 20
509.4699089999999
 30
0.0
  0
VERTEX
  5
4B8
330
487
100
AcDbEntity
  8
Ｓ_１_１
  6
CONTINUOUS
 62
     3
100
AcDbVertex
100
AcDb2dVertex
 10
533.2233705
 20
510.4999789999999
 30
0.0
  0
VERTEX
  5
4B9
330
487
100
AcDbEntity
  8
Ｓ_１_１
  6
CONTINUOUS
 62
     3
100
AcDbVertex
100
AcDb2dVertex
 10
533.5053465
 20
511.583323
 30
0.0
  0
VERTEX
  5
4BA
330
487
100
AcDbEntity
  8
Ｓ_１_１
  6
CONTINUOUS
 62
     3
100
AcDbVertex
100
AcDb2dVertex
 10
533.7390385
 20
512.711696
 30
0.0
  0
VERTEX
  5
4BB
330
487
100
AcDbEntity
  8
Ｓ_１_１
  6
CONTINUOUS
 62
     3
100
AcDbVertex
100
AcDb2dVertex
 10
533.9226705
 20
513.8765109999999
 30
0.0
  0
VERTEX
  5
4BC
330
487
100
AcDbEntity
  8
Ｓ_１_１
  6
CONTINUOUS
 62
     3
100
AcDbVertex
100
AcDb2dVertex
 10
534.0548435
 20
515.068903
 30
0.0
  0
VERTEX
  5
4BD
330
487
100
AcDbEntity
  8
Ｓ_１_１
  6
CONTINUOUS
 62
     3
100
AcDbVertex
100
AcDb2dVertex
 10
534.1345515000002
 20
516.2797969999999
 30
0.0
  0
VERTEX
  5
4BE
330
487
100
AcDbEntity
  8
Ｓ_１_１
  6
CONTINUOUS
 62
     3
100
AcDbVertex
100
AcDb2dVertex
 10
534.1611885000001
 20
517.499977
 30
0.0
  0
VERTEX
  5
4BF
330
487
100
AcDbEntity
  8
Ｓ_１_１
  6
CONTINUOUS
 62
     3
100
AcDbVertex
100
AcDb2dVertex
 10
534.1345515000002
 20
518.720157
 30
0.0
  0
VERTEX
  5
4C0
330
487
100
AcDbEntity
  8
Ｓ_１_１
  6
CONTINUOUS
 62
     3
100
AcDbVertex
100
AcDb2dVertex
 10
534.0548435
 20
519.9310499999999
 30
0.0
  0
VERTEX
  5
4C1
330
487
100
AcDbEntity
  8
Ｓ_１_１
  6
CONTINUOUS
 62
     3
100
AcDbVertex
100
AcDb2dVertex
 10
533.9226705
 20
521.123442
 30
0.0
  0
VERTEX
  5
4C2
330
487
100
AcDbEntity
  8
Ｓ_１_１
  6
CONTINUOUS
 62
     3
100
AcDbVertex
100
AcDb2dVertex
 10
533.7390385
 20
522.2882569999999
 30
0.0
  0
VERTEX
  5
4C3
330
487
100
AcDbEntity
  8
Ｓ_１_１
  6
CONTINUOUS
 62
     3
100
AcDbVertex
100
AcDb2dVertex
 10
533.5053465
 20
523.4166309999999
 30
0.0
  0
VERTEX
  5
4C4
330
487
100
AcDbEntity
  8
Ｓ_１_１
  6
CONTINUOUS
 62
     3
100
AcDbVertex
100
AcDb2dVertex
 10
533.2233705
 20
524.499975
 30
0.0
  0
VERTEX
  5
4C5
330
487
100
AcDbEntity
  8
Ｓ_１_１
  6
CONTINUOUS
 62
     3
100
AcDbVertex
100
AcDb2dVertex
 10
532.8952585000001
 20
525.530044
 30
0.0
  0
VERTEX
  5
4C6
330
487
100
AcDbEntity
  8
Ｓ_１_１
  6
CONTINUOUS
 62
     3
100
AcDbVertex
100
AcDb2dVertex
 10
532.5235065
 20
526.4990009999999
 30
0.0
  0
VERTEX
  5
4C7
330
487
100
AcDbEntity
  8
Ｓ_１_１
  6
CONTINUOUS
 62
     3
100
AcDbVertex
100
AcDb2dVertex
 10
532.1109455
 20
527.399469
 30
0.0
  0
VERTEX
  5
4C8
330
487
100
AcDbEntity
  8
Ｓ_１_１
  6
CONTINUOUS
 62
     3
100
AcDbVertex
100
AcDb2dVertex
 10
531.6607125000002
 20
528.2245959999999
 30
0.0
  0
VERTEX
  5
4C9
330
487
100
AcDbEntity
  8
Ｓ_１_１
  6
CONTINUOUS
 62
     3
100
AcDbVertex
100
AcDb2dVertex
 10
531.1762365000001
 20
528.9681019999999
 30
0.0
  0
VERTEX
  5
4CA
330
487
100
AcDbEntity
  8
Ｓ_１_１
  6
CONTINUOUS
 62
     3
100
AcDbVertex
100
AcDb2dVertex
 10
530.6612045
 20
529.624329
 30
0.0
  0
VERTEX
  5
4CB
330
487
100
AcDbEntity
  8
Ｓ_１_１
  6
CONTINUOUS
 62
     3
100
AcDbVertex
100
AcDb2dVertex
 10
530.1195345
 20
530.188282
 30
0.0
  0
VERTEX
  5
4CC
330
487
100
AcDbEntity
  8
Ｓ_１_１
  6
CONTINUOUS
 62
     3
100
AcDbVertex
100
AcDb2dVertex
 10
529.5553495
 20
530.65567
 30
0.0
  0
VERTEX
  5
4CD
330
487
100
AcDbEntity
  8
Ｓ_１_１
  6
CONTINUOUS
 62
     3
100
AcDbVertex
100
AcDb2dVertex
 10
528.9729445000002
 20
531.022934
 30
0.0
  0
VERTEX
  5
4CE
330
487
100
AcDbEntity
  8
Ｓ_１_１
  6
CONTINUOUS
 62
     3
100
AcDbVertex
100
AcDb2dVertex
 10
528.3767515000001
 20
531.287281
 30
0.0
  0
VERTEX
  5
4CF
330
487
100
AcDbEntity
  8
Ｓ_１_１
  6
CONTINUOUS
 62
     3
100
AcDbVertex
100
AcDb2dVertex
 10
527.7713065000002
 20
531.446698
 30
0.0
  0
VERTEX
  5
4D0
330
487
100
AcDbEntity
  8
Ｓ_１_１
  6
CONTINUOUS
 62
     3
100
AcDbVertex
100
AcDb2dVertex
 10
527.1612195000001
 20
531.499973
 30
0.0
  0
SEQEND
  5
4D1
330
487
100
AcDbEntity
  8
Ｓ_１_１
  6
CONTINUOUS
 62
     3
  0
ARC
  5
4D2
330
1F
100
AcDbEntity
  8
Ｓ_１_１
  6
CONTINUOUS
 62
     3
100
AcDbCircle
 10
902.0000045
 20
247.9999919999999
 30
0.0
 40
3.000000000000003
100
AcDbArc
 50
269.999997
 51
0.0
  0
ARC
  5
4D3
330
1F
100
AcDbEntity
  8
Ｓ_１_１
  6
CONTINUOUS
 62
     3
100
AcDbCircle
 10
699.9999614999999
 20
665.0000319999999
 30
0.0
 40
159.999998
100
AcDbArc
 50
316.567462
 51
319.92798
  0
ARC
  5
4D4
330
1F
100
AcDbEntity
  8
Ｓ_１_１
  6
CONTINUOUS
 62
     3
100
AcDbCircle
 10
699.9999614999999
 20
665.0000319999999
 30
0.0
 40
159.999998
100
AcDbArc
 50
220.0720180000002
 51
223.4325400000001
  0
ARC
  5
4D5
330
1F
100
AcDbEntity
  8
Ｓ_１_１
  6
CONTINUOUS
 62
     3
100
AcDbCircle
 10
497.9999955
 20
247.9999919999999
 30
0.0
 40
3.000000000000003
100
AcDbArc
 50
179.999991
 51
270.0000010000001
  0
ARC
  5
4D6
330
1F
100
AcDbEntity
  8
Ｓ_１_１
  6
CONTINUOUS
 62
     3
100
AcDbCircle
 10
487.8379475
 20
437.8250089999999
 30
0.0
 40
6.837922000000002
100
AcDbArc
 50
141.3038820000001
 51
218.696128
  0
ARC
  5
4D7
330
1F
100
AcDbEntity
  8
Ｓ_１_１
  6
CONTINUOUS
 62
     3
100
AcDbCircle
 10
506.0999705
 20
424.999997
 30
0.0
 40
25.100021
100
AcDbArc
 50
160.084307
 51
199.9156890000001
  0
ARC
  5
4D8
330
1F
100
AcDbEntity
  8
Ｓ_１_１
  6
CONTINUOUS
 62
     3
100
AcDbCircle
 10
487.8379475
 20
412.174985
 30
0.0
 40
6.837922000000002
100
AcDbArc
 50
141.3038820000001
 51
218.696128
  0
CIRCLE
  5
4D9
330
1F
100
AcDbEntity
  8
Ｓ_１_１
  6
CONTINUOUS
 62
     3
100
AcDbCircle
 10
446.0000265
 20
424.999997
 30
0.0
 40
20.0
  0
ARC
  5
4DA
330
1F
100
AcDbEntity
  8
Ｓ_１_１
  6
CONTINUOUS
 62
     3
100
AcDbCircle
 10
446.0009425
 20
424.998433
 30
0.0
 40
36.00157200000002
100
AcDbArc
 50
90.00138199999999
 51
327.7547690000004
  0
ARC
  5
4DB
330
1F
100
AcDbEntity
  8
Ｓ_１_１
  6
CONTINUOUS
 62
     3
100
AcDbCircle
 10
446.0029255000001
 20
424.998433
 30
0.0
 40
36.00157200000002
100
AcDbArc
 50
32.25114900000002
 51
90.004538
  0
ARC
  5
4DC
330
1F
100
AcDbEntity
  8
Ｓ_１_１
  6
CONTINUOUS
 62
     3
100
AcDbCircle
 10
479.8299825000001
 20
403.64887
 30
0.0
 40
4.001078000000003
100
AcDbArc
 50
80.06906500000002
 51
147.6467510000001
  0
ARC
  5
4DD
330
1F
100
AcDbEntity
  8
Ｓ_１_１
  6
CONTINUOUS
 62
     3
100
AcDbCircle
 10
479.8299825000001
 20
446.351124
 30
0.0
 40
4.001078000000003
100
AcDbArc
 50
212.3532490000001
 51
279.9309350000002
  0
ARC
  5
4DE
330
1F
100
AcDbEntity
  8
Ｓ_１_１
  6
CONTINUOUS
 62
     3
100
AcDbCircle
 10
469.7907675
 20
411.5081759999999
 30
0.0
 40
1.99747
100
AcDbArc
 50
187.426979
 51
260.178923
  0
ARC
  5
4DF
330
1F
100
AcDbEntity
  8
Ｓ_１_１
  6
CONTINUOUS
 62
     3
100
AcDbCircle
 10
469.7907675
 20
438.4917799999999
 30
0.0
 40
1.99747
100
AcDbArc
 50
99.82107700000003
 51
172.5730210000001
  0
ARC
  5
4E0
330
1F
100
AcDbEntity
  8
Ｓ_１_１
  6
CONTINUOUS
 62
     3
100
AcDbCircle
 10
930.2093095000001
 20
438.4917799999999
 30
0.0
 40
1.99747
100
AcDbArc
 50
7.426973999999981
 51
80.17892100000003
  0
ARC
  5
4E1
330
1F
100
AcDbEntity
  8
Ｓ_１_１
  6
CONTINUOUS
 62
     3
100
AcDbCircle
 10
930.2093095000001
 20
411.5081759999999
 30
0.0
 40
1.99747
100
AcDbArc
 50
279.821079
 51
352.5730260000003
  0
ARC
  5
4E2
330
1F
100
AcDbEntity
  8
Ｓ_１_１
  6
CONTINUOUS
 62
     3
100
AcDbCircle
 10
920.1700175
 20
446.351124
 30
0.0
 40
4.001078000000003
100
AcDbArc
 50
260.0690660000002
 51
327.6467570000001
  0
ARC
  5
4E3
330
1F
100
AcDbEntity
  8
Ｓ_１_１
  6
CONTINUOUS
 62
     3
100
AcDbCircle
 10
920.1700175
 20
403.64887
 30
0.0
 40
4.001078000000003
100
AcDbArc
 50
32.35324300000002
 51
99.930934
  0
ARC
  5
4E4
330
1F
100
AcDbEntity
  8
Ｓ_１_１
  6
CONTINUOUS
 62
     3
100
AcDbCircle
 10
953.9971505
 20
424.998433
 30
0.0
 40
36.00157200000002
100
AcDbArc
 50
89.99546
 51
147.7488490000001
  0
ARC
  5
4E5
330
1F
100
AcDbEntity
  8
Ｓ_１_１
  6
CONTINUOUS
 62
     3
100
AcDbCircle
 10
953.9991345
 20
424.998433
 30
0.0
 40
36.00157200000002
100
AcDbArc
 50
212.2452220000001
 51
89.998616
  0
CIRCLE
  5
4E6
330
1F
100
AcDbEntity
  8
Ｓ_１_１
  6
CONTINUOUS
 62
     3
100
AcDbCircle
 10
953.9999735
 20
424.999997
 30
0.0
 40
20.0
  0
ARC
  5
4E7
330
1F
100
AcDbEntity
  8
Ｓ_１_１
  6
CONTINUOUS
 62
     3
100
AcDbCircle
 10
912.1620525
 20
412.174985
 30
0.0
 40
6.837922000000002
100
AcDbArc
 50
321.3038770000001
 51
38.69612300000002
  0
ARC
  5
4E8
330
1F
100
AcDbEntity
  8
Ｓ_１_１
  6
CONTINUOUS
 62
     3
100
AcDbCircle
 10
893.8999525
 20
424.999997
 30
0.0
 40
25.100021
100
AcDbArc
 50
340.0843060000001
 51
19.91569400000003
  0
ARC
  5
4E9
330
1F
100
AcDbEntity
  8
Ｓ_１_１
  6
CONTINUOUS
 62
     3
100
AcDbCircle
 10
912.1620525
 20
437.8250089999999
 30
0.0
 40
6.837922000000002
100
AcDbArc
 50
321.3038770000001
 51
38.69612300000002
  0
CIRCLE
  5
4EA
330
1F
100
AcDbEntity
  8
Ｓ_１_１
  6
CONTINUOUS
 62
     3
100
AcDbCircle
 10
699.9999614999999
 20
517.499996
 30
0.0
 40
12.999999
  0
CIRCLE
  5
4EB
330
1F
100
AcDbEntity
  8
Ｓ_１_１
  6
CONTINUOUS
 62
     3
100
AcDbCircle
 10
699.9999614999999
 20
517.499996
 30
0.0
 40
14.00000000000001
  0
LINE
  5
4EC
330
1F
100
AcDbEntity
  8
Ｓ_１_１
  6
CONTINUOUS
 62
     3
100
AcDbLine
 10
899.9999765000001
 20
489.9999869999999
 30
0.0
 11
894.9999975
 21
485.000009
 31
0.0
  0
LINE
  5
4ED
330
1F
100
AcDbEntity
  8
Ｓ_１_１
  6
CONTINUOUS
 62
     3
100
AcDbLine
 10
900.0000035000002
 20
544.999965
 30
0.0
 11
894.9999975
 21
549.99997
 31
0.0
  0
LINE
  5
4EE
330
1F
100
AcDbEntity
  8
Ｓ_１_１
  6
CONTINUOUS
 62
     3
100
AcDbLine
 10
897.0000105
 20
604.999975
 30
0.0
 11
899.9999495000001
 21
602.0000359999999
 31
0.0
  0
LINE
  5
4EF
330
1F
100
AcDbEntity
  8
Ｓ_１_１
  6
CONTINUOUS
 62
     3
100
AcDbLine
 10
900.0000035000002
 20
574.999997
 30
0.0
 11
889.9999925000001
 21
564.9999859999999
 31
0.0
  0
LINE
  5
4F0
330
1F
100
AcDbEntity
  8
Ｓ_１_１
  6
CONTINUOUS
 62
     3
100
AcDbLine
 10
899.9999585000002
 20
602.000002
 30
0.0
 11
899.9999585000002
 21
575.0000329999999
 31
0.0
  0
LINE
  5
4F1
330
1F
100
AcDbEntity
  8
Ｓ_１_１
  6
CONTINUOUS
 62
     3
100
AcDbLine
 10
832.5000125
 20
550.999976
 30
0.0
 11
828.4999865000001
 21
555.000002
 31
0.0
  0
LINE
  5
4F2
330
1F
100
AcDbEntity
  8
Ｓ_１_１
  6
CONTINUOUS
 62
     3
100
AcDbLine
 10
829.4999295000002
 20
553.999972
 30
0.0
 11
829.4999295000002
 21
550.0000329999999
 31
0.0
  0
LINE
  5
4F3
330
1F
100
AcDbEntity
  8
Ｓ_１_１
  6
CONTINUOUS
 62
     3
100
AcDbLine
 10
832.4999595
 20
551.000018
 30
0.0
 11
832.4999595
 21
550.0000329999999
 31
0.0
  0
LINE
  5
4F4
330
1F
100
AcDbEntity
  8
Ｓ_１_１
  6
CONTINUOUS
 62
     3
100
AcDbLine
 10
904.9999585000002
 20
481.999966
 30
0.0
 11
904.9999585000002
 21
247.9999919999999
 31
0.0
  0
LINE
  5
4F5
330
1F
100
AcDbEntity
  8
Ｓ_１_１
  6
CONTINUOUS
 62
     3
100
AcDbLine
 10
904.9999545
 20
482.000016
 30
0.0
 11
902.0000155000002
 21
484.999955
 31
0.0
  0
LINE
  5
4F6
330
1F
100
AcDbEntity
  8
Ｓ_１_１
  6
CONTINUOUS
 62
     3
100
AcDbLine
 10
890.0000115000001
 20
565.000002
 30
0.0
 11
822.4378005
 21
562.000004
 31
0.0
  0
LINE
  5
4F7
330
1F
100
AcDbEntity
  8
Ｓ_１_１
  6
CONTINUOUS
 62
     3
100
AcDbLine
 10
894.9999585000002
 20
550.0000329999999
 30
0.0
 11
504.9999645000001
 21
550.0000329999999
 31
0.0
  0
LINE
  5
4F8
330
1F
100
AcDbEntity
  8
Ｓ_１_１
  6
CONTINUOUS
 62
     3
100
AcDbLine
 10
510.0000015000002
 20
565.0000239999999
 30
0.0
 11
577.5622125000001
 21
562.0000259999999
 31
0.0
  0
LINE
  5
4F9
330
1F
100
AcDbEntity
  8
Ｓ_１_１
  6
CONTINUOUS
 62
     3
100
AcDbLine
 10
897.0000045
 20
605.0000329999999
 30
0.0
 11
502.9999955
 21
605.0000329999999
 31
0.0
  0
LINE
  5
4FA
330
1F
100
AcDbEntity
  8
Ｓ_１_１
  6
CONTINUOUS
 62
     3
100
AcDbLine
 10
828.5000215000002
 20
555.0000329999999
 30
0.0
 11
571.5000555
 21
555.0000329999999
 31
0.0
  0
LINE
  5
4FB
330
1F
100
AcDbEntity
  8
Ｓ_１_１
  6
CONTINUOUS
 62
     3
100
AcDbLine
 10
499.9999645000001
 20
545.0000329999999
 30
0.0
 11
899.9999585000002
 21
545.0000329999999
 31
0.0
  0
LINE
  5
4FC
330
1F
100
AcDbEntity
  8
Ｓ_１_１
  6
CONTINUOUS
 62
     3
100
AcDbLine
 10
499.9999645000001
 20
489.999996
 30
0.0
 11
899.9999585000002
 21
489.999996
 31
0.0
  0
LINE
  5
4FD
330
1F
100
AcDbEntity
  8
Ｓ_１_１
  6
CONTINUOUS
 62
     3
100
AcDbLine
 10
567.4999635
 20
551.000018
 30
0.0
 11
832.4999595
 21
551.000018
 31
0.0
  0
LINE
  5
4FE
330
1F
100
AcDbEntity
  8
Ｓ_１_１
  6
CONTINUOUS
 62
     3
100
AcDbLine
 10
499.9999645000001
 20
602.000002
 30
0.0
 11
899.9999585000002
 21
602.000002
 31
0.0
  0
LINE
  5
4FF
330
1F
100
AcDbEntity
  8
Ｓ_１_１
  6
CONTINUOUS
 62
     3
100
AcDbLine
 10
499.9999645000001
 20
575.0000329999999
 30
0.0
 11
899.9999585000002
 21
575.0000329999999
 31
0.0
  0
LINE
  5
500
330
1F
100
AcDbEntity
  8
Ｓ_１_１
  6
CONTINUOUS
 62
     3
100
AcDbLine
 10
509.9999645000001
 20
565.0000329999999
 30
0.0
 11
889.9999595
 21
565.0000329999999
 31
0.0
  0
LINE
  5
501
330
1F
100
AcDbEntity
  8
Ｓ_１_１
  6
CONTINUOUS
 62
     3
100
AcDbLine
 10
494.9999645000001
 20
481.999966
 30
0.0
 11
904.9999585000002
 21
481.999966
 31
0.0
  0
LINE
  5
502
330
1F
100
AcDbEntity
  8
Ｓ_１_１
  6
CONTINUOUS
 62
     3
100
AcDbLine
 10
902.0000045
 20
484.999996
 30
0.0
 11
497.9999955
 21
484.999996
 31
0.0
  0
LINE
  5
503
330
1F
100
AcDbEntity
  8
Ｓ_１_１
  6
CONTINUOUS
 62
     3
100
AcDbLine
 10
497.9999955
 20
244.9999999999999
 30
0.0
 11
902.0000045
 21
244.9999999999999
 31
0.0
  0
LINE
  5
504
330
1F
100
AcDbEntity
  8
Ｓ_１_１
  6
CONTINUOUS
 62
     3
100
AcDbLine
 10
577.5622195
 20
562.000003
 30
0.0
 11
822.4377045
 21
562.000003
 31
0.0
  0
LINE
  5
505
330
1F
100
AcDbEntity
  8
Ｓ_１_１
  6
CONTINUOUS
 62
     3
100
AcDbLine
 10
495.0000845000001
 20
481.9999349999999
 30
0.0
 11
498.0000775
 21
484.999928
 31
0.0
  0
LINE
  5
506
330
1F
100
AcDbEntity
  8
Ｓ_１_１
  6
CONTINUOUS
 62
     3
100
AcDbLine
 10
494.9999645000001
 20
481.999966
 30
0.0
 11
494.9999645000001
 21
247.9999919999999
 31
0.0
  0
LINE
  5
507
330
1F
100
AcDbEntity
  8
Ｓ_１_１
  6
CONTINUOUS
 62
     3
100
AcDbLine
 10
567.4999635
 20
551.000018
 30
0.0
 11
567.4999635
 21
550.0000329999999
 31
0.0
  0
LINE
  5
508
330
1F
100
AcDbEntity
  8
Ｓ_１_１
  6
CONTINUOUS
 62
     3
100
AcDbLine
 10
570.4999945000001
 20
553.999972
 30
0.0
 11
570.4999945000001
 21
550.0000329999999
 31
0.0
  0
LINE
  5
509
330
1F
100
AcDbEntity
  8
Ｓ_１_１
  6
CONTINUOUS
 62
     3
100
AcDbLine
 10
567.5000535
 20
550.999976
 30
0.0
 11
571.5000255000001
 21
554.9999479999999
 31
0.0
  0
LINE
  5
50A
330
1F
100
AcDbEntity
  8
Ｓ_１_１
  6
CONTINUOUS
 62
     3
100
AcDbLine
 10
499.9999645000001
 20
602.000002
 30
0.0
 11
499.9999645000001
 21
575.0000329999999
 31
0.0
  0
LINE
  5
50B
330
1F
100
AcDbEntity
  8
Ｓ_１_１
  6
CONTINUOUS
 62
     3
100
AcDbLine
 10
500.0000365
 20
575.0000239999999
 30
0.0
 11
510.0000465000002
 21
565.000013
 31
0.0
  0
LINE
  5
50C
330
1F
100
AcDbEntity
  8
Ｓ_１_１
  6
CONTINUOUS
 62
     3
100
AcDbLine
 10
503.0000825000001
 20
604.9999479999999
 30
0.0
 11
500.0000905000001
 21
601.999955
 31
0.0
  0
LINE
  5
50D
330
1F
100
AcDbEntity
  8
Ｓ_１_１
  6
CONTINUOUS
 62
     3
100
AcDbLine
 10
499.9999645000001
 20
489.999996
 30
0.0
 11
499.9999645000001
 21
545.0000329999999
 31
0.0
  0
LINE
  5
50E
330
1F
100
AcDbEntity
  8
Ｓ_１_１
  6
CONTINUOUS
 62
     3
100
AcDbLine
 10
500.0000365
 20
544.9999919999999
 30
0.0
 11
505.0000415000001
 21
549.999997
 31
0.0
  0
LINE
  5
50F
330
1F
100
AcDbEntity
  8
Ｓ_１_１
  6
CONTINUOUS
 62
     3
100
AcDbLine
 10
499.9999825000001
 20
489.9999869999999
 30
0.0
 11
504.9999875
 21
484.9999819999999
 31
0.0
  0
LINE
  5
510
330
1F
100
AcDbEntity
  8
Ｓ_１_１
  6
CONTINUOUS
 62
     3
100
AcDbLine
 10
899.9999585000002
 20
489.999996
 30
0.0
 11
899.9999585000002
 21
545.0000329999999
 31
0.0
  0
LINE
  5
511
330
1F
100
AcDbEntity
  8
Ｓ_１_１
  6
CONTINUOUS
 62
     3
100
AcDbLine
 10
494.9999645000001
 20
442.0999879999999
 30
0.0
 11
482.5011855000001
 21
442.0999879999999
 31
0.0
  0
LINE
  5
512
330
1F
100
AcDbEntity
  8
Ｓ_１_１
  6
CONTINUOUS
 62
     3
100
AcDbLine
 10
494.9999645000001
 20
433.549992
 30
0.0
 11
482.5011855000001
 21
433.549992
 31
0.0
  0
LINE
  5
513
330
1F
100
AcDbEntity
  8
Ｓ_１_１
  6
CONTINUOUS
 62
     3
100
AcDbLine
 10
494.9999645000001
 20
407.900006
 30
0.0
 11
482.5011855000001
 21
407.900006
 31
0.0
  0
LINE
  5
514
330
1F
100
AcDbEntity
  8
Ｓ_１_１
  6
CONTINUOUS
 62
     3
100
AcDbLine
 10
494.9999645000001
 20
416.450002
 30
0.0
 11
482.5011855000001
 21
416.450002
 31
0.0
  0
LINE
  5
515
330
1F
100
AcDbEntity
  8
Ｓ_１_１
  6
CONTINUOUS
 62
     3
100
AcDbLine
 10
481.0000265
 20
407.499997
 30
0.0
 11
481.0000265
 21
442.499997
 31
0.0
  0
LINE
  5
516
330
1F
100
AcDbEntity
  8
Ｓ_１_１
  6
CONTINUOUS
 62
     3
100
AcDbLine
 10
467.9999955
 20
410.62
 30
0.0
 11
467.9999955
 21
439.379994
 31
0.0
  0
LINE
  5
517
330
1F
100
AcDbEntity
  8
Ｓ_１_１
  6
CONTINUOUS
 62
     3
100
AcDbLine
 10
481.0000935000002
 20
442.4999789999999
 30
0.0
 11
469.4500465
 21
440.459971
 31
0.0
  0
LINE
  5
518
330
1F
100
AcDbEntity
  8
Ｓ_１_１
  6
CONTINUOUS
 62
     3
100
AcDbLine
 10
481.0000075000002
 20
407.4999939999999
 30
0.0
 11
469.4499595000001
 21
409.540002
 31
0.0
  0
LINE
  5
519
330
1F
100
AcDbEntity
  8
Ｓ_１_１
  6
CONTINUOUS
 62
     3
100
AcDbLine
 10
467.8099705000001
 20
411.250006
 30
0.0
 11
465.9999675
 21
425.000024
 31
0.0
  0
LINE
  5
51A
330
1F
100
AcDbEntity
  8
Ｓ_１_１
  6
CONTINUOUS
 62
     3
100
AcDbLine
 10
466.0000235000001
 20
424.9999889999999
 30
0.0
 11
467.8100235000001
 21
438.7499869999999
 31
0.0
  0
LINE
  5
51B
330
1F
100
AcDbEntity
  8
Ｓ_１_１
  6
CONTINUOUS
 62
     3
100
AcDbLine
 10
904.9999585000002
 20
442.0999879999999
 30
0.0
 11
917.4988905000001
 21
442.0999879999999
 31
0.0
  0
LINE
  5
51C
330
1F
100
AcDbEntity
  8
Ｓ_１_１
  6
CONTINUOUS
 62
     3
100
AcDbLine
 10
904.9999585000002
 20
433.549992
 30
0.0
 11
917.4988905000001
 21
433.549992
 31
0.0
  0
LINE
  5
51D
330
1F
100
AcDbEntity
  8
Ｓ_１_１
  6
CONTINUOUS
 62
     3
100
AcDbLine
 10
904.9999585000002
 20
407.900006
 30
0.0
 11
917.4988905000001
 21
407.900006
 31
0.0
  0
LINE
  5
51E
330
1F
100
AcDbEntity
  8
Ｓ_１_１
  6
CONTINUOUS
 62
     3
100
AcDbLine
 10
904.9999585000002
 20
416.450002
 30
0.0
 11
917.4988905000001
 21
416.450002
 31
0.0
  0
LINE
  5
51F
330
1F
100
AcDbEntity
  8
Ｓ_１_１
  6
CONTINUOUS
 62
     3
100
AcDbLine
 10
933.9999955
 20
424.9999769999999
 30
0.0
 11
932.1899935
 21
438.7499949999999
 31
0.0
  0
LINE
  5
520
330
1F
100
AcDbEntity
  8
Ｓ_１_１
  6
CONTINUOUS
 62
     3
100
AcDbLine
 10
932.1899705
 20
411.250009
 30
0.0
 11
933.9999685000001
 21
424.9999879999999
 31
0.0
  0
LINE
  5
521
330
1F
100
AcDbEntity
  8
Ｓ_１_１
  6
CONTINUOUS
 62
     3
100
AcDbLine
 10
918.9999615
 20
407.5000199999999
 30
0.0
 11
930.5500095000002
 21
409.5400290000001
 31
0.0
  0
LINE
  5
522
330
1F
100
AcDbEntity
  8
Ｓ_１_１
  6
CONTINUOUS
 62
     3
100
AcDbLine
 10
919.0000395000001
 20
442.500001
 30
0.0
 11
930.5499365
 21
440.460019
 31
0.0
  0
LINE
  5
523
330
1F
100
AcDbEntity
  8
Ｓ_１_１
  6
CONTINUOUS
 62
     3
100
AcDbLine
 10
932.0000045
 20
410.62
 30
0.0
 11
932.0000045
 21
439.379994
 31
0.0
  0
LINE
  5
524
330
1F
100
AcDbEntity
  8
Ｓ_１_１
  6
CONTINUOUS
 62
     3
100
AcDbLine
 10
918.9999735
 20
407.499997
 30
0.0
 11
918.9999735
 21
442.499997
 31
0.0
  0
LINE
  5
525
330
1F
100
AcDbEntity
  8
Ｓ_１_１
  6
EXLTYPE2
 62
     1
100
AcDbLine
 10
699.9999614999999
 20
675.0000309999999
 30
0.0
 11
699.9999614999999
 21
229.9999999999999
 31
0.0
  0
LINE
  5
526
330
1F
100
AcDbEntity
  8
Ｓ_１_１
  6
EXLTYPE2
 62
     1
100
AcDbLine
 10
1504.9999615
 20
695.0000309999999
 30
0.0
 11
1504.9999615
 21
199.9999999999999
 31
0.0
  0
LINE
  5
527
330
1F
100
AcDbEntity
  8
Ｓ_１_１
  6
EXLTYPE2
 62
     1
100
AcDbLine
 10
1654.9999585
 20
274.999999
 30
0.0
 11
1654.9999585
 21
234.9999999999999
 31
0.0
  0
LINE
  5
528
330
1F
100
AcDbEntity
  8
Ｓ_１_１
  6
EXLTYPE2
 62
     1
100
AcDbLine
 10
1674.9999585
 20
517.499996
 30
0.0
 11
1714.9999575
 21
517.499996
 31
0.0
  0
LINE
  5
529
330
1F
100
AcDbEntity
  8
Ｓ_１_１
  6
EXLTYPE2
 62
     1
100
AcDbLine
 10
1604.9999595
 20
536.7399929999999
 30
0.0
 11
1604.9999595
 21
498.2599980000001
 31
0.0
  0
LINE
  5
52A
330
1F
100
AcDbEntity
  8
Ｓ_１_１
  6
EXLTYPE2
 62
     1
100
AcDbLine
 10
1588.4880805
 20
517.499996
 30
0.0
 11
1621.5118005
 21
517.499996
 31
0.0
  0
LINE
  5
52B
330
1F
100
AcDbEntity
  8
Ｓ_１_１
  6
EXLTYPE2
 62
     1
100
AcDbLine
 10
1504.9999615
 20
517.499996
 30
0.0
 11
1529.9999605
 21
517.499996
 31
0.0
  0
LINE
  5
52C
330
1F
100
AcDbEntity
  8
Ｓ_１_１
  6
EXLTYPE2
 62
     1
100
AcDbLine
 10
1479.9999235
 20
424.999997
 30
0.0
 11
1529.9999605
 21
424.999997
 31
0.0
  0
LINE
  5
52D
330
1F
100
AcDbEntity
  8
Ｓ_１_１
  6
EXLTYPE2
 62
     1
100
AcDbLine
 10
1684.9999585
 20
597.9999869999999
 30
0.0
 11
1684.9999585
 21
610.0000319999999
 31
0.0
  0
LINE
  5
52E
330
1F
100
AcDbEntity
  8
Ｓ_１_１
  6
EXLTYPE2
 62
     1
100
AcDbLine
 10
1634.9999595
 20
597.9999869999999
 30
0.0
 11
1634.9999595
 21
610.0000319999999
 31
0.0
  0
LINE
  5
52F
330
1F
100
AcDbEntity
  8
Ｓ_１_１
  6
EXLTYPE2
 62
     1
100
AcDbLine
 10
1584.9999595
 20
597.9999869999999
 30
0.0
 11
1584.9999595
 21
610.0000319999999
 31
0.0
  0
LINE
  5
530
330
1F
100
AcDbEntity
  8
Ｓ_１_１
  6
EXLTYPE2
 62
     1
100
AcDbLine
 10
1659.9999585
 20
570.9585139999999
 30
0.0
 11
1659.9999585
 21
610.0000319999999
 31
0.0
  0
LINE
  5
531
330
1F
100
AcDbEntity
  8
Ｓ_１_１
  6
EXLTYPE2
 62
     1
100
AcDbLine
 10
1349.9999255
 20
570.9585139999999
 30
0.0
 11
1349.9999255
 21
610.0000319999999
 31
0.0
  0
LINE
  5
532
330
1F
100
AcDbEntity
  8
Ｓ_１_１
  6
EXLTYPE2
 62
     1
100
AcDbLine
 10
1424.9999245
 20
597.9999869999999
 30
0.0
 11
1424.9999245
 21
610.0000319999999
 31
0.0
  0
LINE
  5
533
330
1F
100
AcDbEntity
  8
Ｓ_１_１
  6
EXLTYPE2
 62
     1
100
AcDbLine
 10
1374.9999245
 20
597.9999869999999
 30
0.0
 11
1374.9999245
 21
610.0000319999999
 31
0.0
  0
LINE
  5
534
330
1F
100
AcDbEntity
  8
Ｓ_１_１
  6
EXLTYPE2
 62
     1
100
AcDbLine
 10
1324.9999255
 20
597.9999869999999
 30
0.0
 11
1324.9999255
 21
610.0000319999999
 31
0.0
  0
LINE
  5
535
330
1F
100
AcDbEntity
  8
Ｓ_１_１
  6
EXLTYPE2
 62
     1
100
AcDbLine
 10
1489.9999235
 20
665.0000319999999
 30
0.0
 11
1519.9999605
 21
665.0000319999999
 31
0.0
  0
LINE
  5
536
330
1F
100
AcDbEntity
  8
Ｓ_１_１
  6
EXLTYPE2
 62
     1
100
AcDbLine
 10
1303.2886525
 20
358.3309919999999
 30
0.0
 11
1303.2886525
 21
331.669005
 31
0.0
  0
LINE
  5
537
330
1F
100
AcDbEntity
  8
Ｓ_１_１
  6
EXLTYPE2
 62
     1
100
AcDbLine
 10
1296.8351765
 20
344.999998
 30
0.0
 11
1309.7420525
 21
344.999998
 31
0.0
  0
LINE
  5
538
330
1F
100
AcDbEntity
  8
Ｓ_１_１
  6
EXLTYPE2
 62
     1
100
AcDbLine
 10
1296.8351765
 20
394.999998
 30
0.0
 11
1309.7420525
 21
394.999998
 31
0.0
  0
LINE
  5
539
330
1F
100
AcDbEntity
  8
Ｓ_１_１
  6
EXLTYPE2
 62
     1
100
AcDbLine
 10
1504.9999615
 20
517.499996
 30
0.0
 11
1479.9999235
 21
517.499996
 31
0.0
  0
LINE
  5
53A
330
1F
100
AcDbEntity
  8
Ｓ_１_１
  6
EXLTYPE2
 62
     1
100
AcDbLine
 10
1421.5118415
 20
517.499996
 30
0.0
 11
1388.4880835
 21
517.499996
 31
0.0
  0
LINE
  5
53B
330
1F
100
AcDbEntity
  8
Ｓ_１_１
  6
EXLTYPE2
 62
     1
100
AcDbLine
 10
1404.9999245
 20
536.7399929999999
 30
0.0
 11
1404.9999245
 21
498.2599980000001
 31
0.0
  0
LINE
  5
53C
330
1F
100
AcDbEntity
  8
Ｓ_１_１
  6
EXLTYPE2
 62
     1
100
AcDbLine
 10
1334.9999255
 20
517.499996
 30
0.0
 11
1294.9999265
 21
517.499996
 31
0.0
  0
LINE
  5
53D
330
1F
100
AcDbEntity
  8
Ｓ_１_１
  6
EXLTYPE2
 62
     1
100
AcDbLine
 10
1354.9999255
 20
274.999999
 30
0.0
 11
1354.9999255
 21
234.9999999999999
 31
0.0
  0
POLYLINE
  5
53E
330
1F
100
AcDbEntity
  8
Ｓ_１_１
  6
CONTINUOUS
 62
     3
100
AcDb2dPolyline
 66
     1
 10
0.0
 20
0.0
 30
0.0
 70
   128
  0
VERTEX
  5
53F
330
53E
100
AcDbEntity
  8
Ｓ_１_１
  6
CONTINUOUS
 62
     3
100
AcDbVertex
100
AcDb2dVertex
 10
1604.9999405
 20
503.4599639999999
 30
0.0
  0
VERTEX
  5
540
330
53E
100
AcDbEntity
  8
Ｓ_１_１
  6
CONTINUOUS
 62
     3
100
AcDbVertex
100
AcDb2dVertex
 10
1606.0500975
 20
503.513391
 30
0.0
  0
VERTEX
  5
541
330
53E
100
AcDbEntity
  8
Ｓ_１_１
  6
CONTINUOUS
 62
     3
100
AcDbVertex
100
AcDb2dVertex
 10
1607.0922615
 20
503.673264
 30
0.0
  0
VERTEX
  5
542
330
53E
100
AcDbEntity
  8
Ｓ_１_１
  6
CONTINUOUS
 62
     3
100
AcDbVertex
100
AcDb2dVertex
 10
1608.1185025
 20
503.938367
 30
0.0
  0
VERTEX
  5
543
330
53E
100
AcDbEntity
  8
Ｓ_１_１
  6
CONTINUOUS
 62
     3
100
AcDbVertex
100
AcDb2dVertex
 10
1609.1210085
 20
504.3066819999999
 30
0.0
  0
VERTEX
  5
544
330
53E
100
AcDbEntity
  8
Ｓ_１_１
  6
CONTINUOUS
 62
     3
100
AcDbVertex
100
AcDb2dVertex
 10
1610.0921515
 20
504.775406
 30
0.0
  0
VERTEX
  5
545
330
53E
100
AcDbEntity
  8
Ｓ_１_１
  6
CONTINUOUS
 62
     3
100
AcDbVertex
100
AcDb2dVertex
 10
1611.0245395
 20
505.340972
 30
0.0
  0
VERTEX
  5
546
330
53E
100
AcDbEntity
  8
Ｓ_１_１
  6
CONTINUOUS
 62
     3
100
AcDbVertex
100
AcDb2dVertex
 10
1611.9110765
 20
505.999075
 30
0.0
  0
VERTEX
  5
547
330
53E
100
AcDbEntity
  8
Ｓ_１_１
  6
CONTINUOUS
 62
     3
100
AcDbVertex
100
AcDb2dVertex
 10
1612.7450155
 20
506.7447079999999
 30
0.0
  0
VERTEX
  5
548
330
53E
100
AcDbEntity
  8
Ｓ_１_１
  6
CONTINUOUS
 62
     3
100
AcDbVertex
100
AcDb2dVertex
 10
1613.5200105
 20
507.572194
 30
0.0
  0
VERTEX
  5
549
330
53E
100
AcDbEntity
  8
Ｓ_１_１
  6
CONTINUOUS
 62
     3
100
AcDbVertex
100
AcDb2dVertex
 10
1614.2301615
 20
508.475238
 30
0.0
  0
VERTEX
  5
54A
330
53E
100
AcDbEntity
  8
Ｓ_１_１
  6
CONTINUOUS
 62
     3
100
AcDbVertex
100
AcDb2dVertex
 10
1614.8700655
 20
509.446965
 30
0.0
  0
VERTEX
  5
54B
330
53E
100
AcDbEntity
  8
Ｓ_１_１
  6
CONTINUOUS
 62
     3
100
AcDbVertex
100
AcDb2dVertex
 10
1615.4348525
 20
510.47998
 30
0.0
  0
VERTEX
  5
54C
330
53E
100
AcDbEntity
  8
Ｓ_１_１
  6
CONTINUOUS
 62
     3
100
AcDbVertex
100
AcDb2dVertex
 10
1615.9202225
 20
511.566422
 30
0.0
  0
VERTEX
  5
54D
330
53E
100
AcDbEntity
  8
Ｓ_１_１
  6
CONTINUOUS
 62
     3
100
AcDbVertex
100
AcDb2dVertex
 10
1616.3224825
 20
512.6980219999999
 30
0.0
  0
VERTEX
  5
54E
330
53E
100
AcDbEntity
  8
Ｓ_１_１
  6
CONTINUOUS
 62
     3
100
AcDbVertex
100
AcDb2dVertex
 10
1616.6385725
 20
513.8661679999999
 30
0.0
  0
VERTEX
  5
54F
330
53E
100
AcDbEntity
  8
Ｓ_１_１
  6
CONTINUOUS
 62
     3
100
AcDbVertex
100
AcDb2dVertex
 10
1616.8660845
 20
515.06197
 30
0.0
  0
VERTEX
  5
550
330
53E
100
AcDbEntity
  8
Ｓ_１_１
  6
CONTINUOUS
 62
     3
100
AcDbVertex
100
AcDb2dVertex
 10
1617.0032875
 20
516.2763259999999
 30
0.0
  0
VERTEX
  5
551
330
53E
100
AcDbEntity
  8
Ｓ_１_１
  6
CONTINUOUS
 62
     3
100
AcDbVertex
100
AcDb2dVertex
 10
1617.0491385
 20
517.499996
 30
0.0
  0
VERTEX
  5
552
330
53E
100
AcDbEntity
  8
Ｓ_１_１
  6
CONTINUOUS
 62
     3
100
AcDbVertex
100
AcDb2dVertex
 10
1617.0032875
 20
518.723665
 30
0.0
  0
VERTEX
  5
553
330
53E
100
AcDbEntity
  8
Ｓ_１_１
  6
CONTINUOUS
 62
     3
100
AcDbVertex
100
AcDb2dVertex
 10
1616.8660845
 20
519.9380219999999
 30
0.0
  0
VERTEX
  5
554
330
53E
100
AcDbEntity
  8
Ｓ_１_１
  6
CONTINUOUS
 62
     3
100
AcDbVertex
100
AcDb2dVertex
 10
1616.6385725
 20
521.133823
 30
0.0
  0
VERTEX
  5
555
330
53E
100
AcDbEntity
  8
Ｓ_１_１
  6
CONTINUOUS
 62
     3
100
AcDbVertex
100
AcDb2dVertex
 10
1616.3224825
 20
522.301969
 30
0.0
  0
VERTEX
  5
556
330
53E
100
AcDbEntity
  8
Ｓ_１_１
  6
CONTINUOUS
 62
     3
100
AcDbVertex
100
AcDb2dVertex
 10
1615.9202225
 20
523.4335689999999
 30
0.0
  0
VERTEX
  5
557
330
53E
100
AcDbEntity
  8
Ｓ_１_１
  6
CONTINUOUS
 62
     3
100
AcDbVertex
100
AcDb2dVertex
 10
1615.4348525
 20
524.520011
 30
0.0
  0
VERTEX
  5
558
330
53E
100
AcDbEntity
  8
Ｓ_１_１
  6
CONTINUOUS
 62
     3
100
AcDbVertex
100
AcDb2dVertex
 10
1614.8700655
 20
525.5530269999999
 30
0.0
  0
VERTEX
  5
559
330
53E
100
AcDbEntity
  8
Ｓ_１_１
  6
CONTINUOUS
 62
     3
100
AcDbVertex
100
AcDb2dVertex
 10
1614.2301615
 20
526.5247539999999
 30
0.0
  0
VERTEX
  5
55A
330
53E
100
AcDbEntity
  8
Ｓ_１_１
  6
CONTINUOUS
 62
     3
100
AcDbVertex
100
AcDb2dVertex
 10
1613.5200105
 20
527.4277969999999
 30
0.0
  0
VERTEX
  5
55B
330
53E
100
AcDbEntity
  8
Ｓ_１_１
  6
CONTINUOUS
 62
     3
100
AcDbVertex
100
AcDb2dVertex
 10
1612.7450155
 20
528.255284
 30
0.0
  0
VERTEX
  5
55C
330
53E
100
AcDbEntity
  8
Ｓ_１_１
  6
CONTINUOUS
 62
     3
100
AcDbVertex
100
AcDb2dVertex
 10
1611.9110765
 20
529.000916
 30
0.0
  0
VERTEX
  5
55D
330
53E
100
AcDbEntity
  8
Ｓ_１_１
  6
CONTINUOUS
 62
     3
100
AcDbVertex
100
AcDb2dVertex
 10
1611.0245395
 20
529.659019
 30
0.0
  0
VERTEX
  5
55E
330
53E
100
AcDbEntity
  8
Ｓ_１_１
  6
CONTINUOUS
 62
     3
100
AcDbVertex
100
AcDb2dVertex
 10
1610.0921515
 20
530.2245849999999
 30
0.0
  0
VERTEX
  5
55F
330
53E
100
AcDbEntity
  8
Ｓ_１_１
  6
CONTINUOUS
 62
     3
100
AcDbVertex
100
AcDb2dVertex
 10
1609.1210085
 20
530.693309
 30
0.0
  0
VERTEX
  5
560
330
53E
100
AcDbEntity
  8
Ｓ_１_１
  6
CONTINUOUS
 62
     3
100
AcDbVertex
100
AcDb2dVertex
 10
1608.1185025
 20
531.0616239999999
 30
0.0
  0
VERTEX
  5
561
330
53E
100
AcDbEntity
  8
Ｓ_１_１
  6
CONTINUOUS
 62
     3
100
AcDbVertex
100
AcDb2dVertex
 10
1607.0922615
 20
531.326727
 30
0.0
  0
VERTEX
  5
562
330
53E
100
AcDbEntity
  8
Ｓ_１_１
  6
CONTINUOUS
 62
     3
100
AcDbVertex
100
AcDb2dVertex
 10
1606.0500975
 20
531.4866
 30
0.0
  0
VERTEX
  5
563
330
53E
100
AcDbEntity
  8
Ｓ_１_１
  6
CONTINUOUS
 62
     3
100
AcDbVertex
100
AcDb2dVertex
 10
1604.9999405
 20
531.540027
 30
0.0
  0
VERTEX
  5
564
330
53E
100
AcDbEntity
  8
Ｓ_１_１
  6
CONTINUOUS
 62
     3
100
AcDbVertex
100
AcDb2dVertex
 10
1603.9497835
 20
531.4866
 30
0.0
  0
VERTEX
  5
565
330
53E
100
AcDbEntity
  8
Ｓ_１_１
  6
CONTINUOUS
 62
     3
100
AcDbVertex
100
AcDb2dVertex
 10
1602.9076195
 20
531.326727
 30
0.0
  0
VERTEX
  5
566
330
53E
100
AcDbEntity
  8
Ｓ_１_１
  6
CONTINUOUS
 62
     3
100
AcDbVertex
100
AcDb2dVertex
 10
1601.8813785
 20
531.0616239999999
 30
0.0
  0
VERTEX
  5
567
330
53E
100
AcDbEntity
  8
Ｓ_１_１
  6
CONTINUOUS
 62
     3
100
AcDbVertex
100
AcDb2dVertex
 10
1600.8788725
 20
530.693309
 30
0.0
  0
VERTEX
  5
568
330
53E
100
AcDbEntity
  8
Ｓ_１_１
  6
CONTINUOUS
 62
     3
100
AcDbVertex
100
AcDb2dVertex
 10
1599.9077295
 20
530.2245849999999
 30
0.0
  0
VERTEX
  5
569
330
53E
100
AcDbEntity
  8
Ｓ_１_１
  6
CONTINUOUS
 62
     3
100
AcDbVertex
100
AcDb2dVertex
 10
1598.9753415
 20
529.659019
 30
0.0
  0
VERTEX
  5
56A
330
53E
100
AcDbEntity
  8
Ｓ_１_１
  6
CONTINUOUS
 62
     3
100
AcDbVertex
100
AcDb2dVertex
 10
1598.0888045
 20
529.000916
 30
0.0
  0
VERTEX
  5
56B
330
53E
100
AcDbEntity
  8
Ｓ_１_１
  6
CONTINUOUS
 62
     3
100
AcDbVertex
100
AcDb2dVertex
 10
1597.2548655
 20
528.255284
 30
0.0
  0
VERTEX
  5
56C
330
53E
100
AcDbEntity
  8
Ｓ_１_１
  6
CONTINUOUS
 62
     3
100
AcDbVertex
100
AcDb2dVertex
 10
1596.4798705
 20
527.4277969999999
 30
0.0
  0
VERTEX
  5
56D
330
53E
100
AcDbEntity
  8
Ｓ_１_１
  6
CONTINUOUS
 62
     3
100
AcDbVertex
100
AcDb2dVertex
 10
1595.7697195
 20
526.5247539999999
 30
0.0
  0
VERTEX
  5
56E
330
53E
100
AcDbEntity
  8
Ｓ_１_１
  6
CONTINUOUS
 62
     3
100
AcDbVertex
100
AcDb2dVertex
 10
1595.1298155
 20
525.5530269999999
 30
0.0
  0
VERTEX
  5
56F
330
53E
100
AcDbEntity
  8
Ｓ_１_１
  6
CONTINUOUS
 62
     3
100
AcDbVertex
100
AcDb2dVertex
 10
1594.5650295
 20
524.520011
 30
0.0
  0
VERTEX
  5
570
330
53E
100
AcDbEntity
  8
Ｓ_１_１
  6
CONTINUOUS
 62
     3
100
AcDbVertex
100
AcDb2dVertex
 10
1594.0796585
 20
523.4335689999999
 30
0.0
  0
VERTEX
  5
571
330
53E
100
AcDbEntity
  8
Ｓ_１_１
  6
CONTINUOUS
 62
     3
100
AcDbVertex
100
AcDb2dVertex
 10
1593.6773985
 20
522.301969
 30
0.0
  0
VERTEX
  5
572
330
53E
100
AcDbEntity
  8
Ｓ_１_１
  6
CONTINUOUS
 62
     3
100
AcDbVertex
100
AcDb2dVertex
 10
1593.3613095
 20
521.133823
 30
0.0
  0
VERTEX
  5
573
330
53E
100
AcDbEntity
  8
Ｓ_１_１
  6
CONTINUOUS
 62
     3
100
AcDbVertex
100
AcDb2dVertex
 10
1593.1337965
 20
519.9380219999999
 30
0.0
  0
VERTEX
  5
574
330
53E
100
AcDbEntity
  8
Ｓ_１_１
  6
CONTINUOUS
 62
     3
100
AcDbVertex
100
AcDb2dVertex
 10
1592.9965935
 20
518.723665
 30
0.0
  0
VERTEX
  5
575
330
53E
100
AcDbEntity
  8
Ｓ_１_１
  6
CONTINUOUS
 62
     3
100
AcDbVertex
100
AcDb2dVertex
 10
1592.9507425
 20
517.499996
 30
0.0
  0
VERTEX
  5
576
330
53E
100
AcDbEntity
  8
Ｓ_１_１
  6
CONTINUOUS
 62
     3
100
AcDbVertex
100
AcDb2dVertex
 10
1592.9965935
 20
516.2763259999999
 30
0.0
  0
VERTEX
  5
577
330
53E
100
AcDbEntity
  8
Ｓ_１_１
  6
CONTINUOUS
 62
     3
100
AcDbVertex
100
AcDb2dVertex
 10
1593.1337965
 20
515.06197
 30
0.0
  0
VERTEX
  5
578
330
53E
100
AcDbEntity
  8
Ｓ_１_１
  6
CONTINUOUS
 62
     3
100
AcDbVertex
100
AcDb2dVertex
 10
1593.3613095
 20
513.8661679999999
 30
0.0
  0
VERTEX
  5
579
330
53E
100
AcDbEntity
  8
Ｓ_１_１
  6
CONTINUOUS
 62
     3
100
AcDbVertex
100
AcDb2dVertex
 10
1593.6773985
 20
512.6980219999999
 30
0.0
  0
VERTEX
  5
57A
330
53E
100
AcDbEntity
  8
Ｓ_１_１
  6
CONTINUOUS
 62
     3
100
AcDbVertex
100
AcDb2dVertex
 10
1594.0796585
 20
511.566422
 30
0.0
  0
VERTEX
  5
57B
330
53E
100
AcDbEntity
  8
Ｓ_１_１
  6
CONTINUOUS
 62
     3
100
AcDbVertex
100
AcDb2dVertex
 10
1594.5650295
 20
510.47998
 30
0.0
  0
VERTEX
  5
57C
330
53E
100
AcDbEntity
  8
Ｓ_１_１
  6
CONTINUOUS
 62
     3
100
AcDbVertex
100
AcDb2dVertex
 10
1595.1298155
 20
509.446965
 30
0.0
  0
VERTEX
  5
57D
330
53E
100
AcDbEntity
  8
Ｓ_１_１
  6
CONTINUOUS
 62
     3
100
AcDbVertex
100
AcDb2dVertex
 10
1595.7697195
 20
508.475238
 30
0.0
  0
VERTEX
  5
57E
330
53E
100
AcDbEntity
  8
Ｓ_１_１
  6
CONTINUOUS
 62
     3
100
AcDbVertex
100
AcDb2dVertex
 10
1596.4798705
 20
507.572194
 30
0.0
  0
VERTEX
  5
57F
330
53E
100
AcDbEntity
  8
Ｓ_１_１
  6
CONTINUOUS
 62
     3
100
AcDbVertex
100
AcDb2dVertex
 10
1597.2548655
 20
506.7447079999999
 30
0.0
  0
VERTEX
  5
580
330
53E
100
AcDbEntity
  8
Ｓ_１_１
  6
CONTINUOUS
 62
     3
100
AcDbVertex
100
AcDb2dVertex
 10
1598.0888045
 20
505.999075
 30
0.0
  0
VERTEX
  5
581
330
53E
100
AcDbEntity
  8
Ｓ_１_１
  6
CONTINUOUS
 62
     3
100
AcDbVertex
100
AcDb2dVertex
 10
1598.9753415
 20
505.340972
 30
0.0
  0
VERTEX
  5
582
330
53E
100
AcDbEntity
  8
Ｓ_１_１
  6
CONTINUOUS
 62
     3
100
AcDbVertex
100
AcDb2dVertex
 10
1599.9077295
 20
504.775406
 30
0.0
  0
VERTEX
  5
583
330
53E
100
AcDbEntity
  8
Ｓ_１_１
  6
CONTINUOUS
 62
     3
100
AcDbVertex
100
AcDb2dVertex
 10
1600.8788725
 20
504.3066819999999
 30
0.0
  0
VERTEX
  5
584
330
53E
100
AcDbEntity
  8
Ｓ_１_１
  6
CONTINUOUS
 62
     3
100
AcDbVertex
100
AcDb2dVertex
 10
1601.8813785
 20
503.938367
 30
0.0
  0
VERTEX
  5
585
330
53E
100
AcDbEntity
  8
Ｓ_１_１
  6
CONTINUOUS
 62
     3
100
AcDbVertex
100
AcDb2dVertex
 10
1602.9076195
 20
503.673264
 30
0.0
  0
VERTEX
  5
586
330
53E
100
AcDbEntity
  8
Ｓ_１_１
  6
CONTINUOUS
 62
     3
100
AcDbVertex
100
AcDb2dVertex
 10
1603.9497835
 20
503.513391
 30
0.0
  0
VERTEX
  5
587
330
53E
100
AcDbEntity
  8
Ｓ_１_１
  6
CONTINUOUS
 62
     3
100
AcDbVertex
100
AcDb2dVertex
 10
1604.9999405
 20
503.4599639999999
 30
0.0
  0
SEQEND
  5
588
330
53E
100
AcDbEntity
  8
Ｓ_１_１
  6
CONTINUOUS
 62
     3
  0
POLYLINE
  5
589
330
1F
100
AcDbEntity
  8
Ｓ_１_１
  6
CONTINUOUS
 62
     3
100
AcDb2dPolyline
 66
     1
 10
0.0
 20
0.0
 30
0.0
 70
   128
  0
VERTEX
  5
58A
330
589
100
AcDbEntity
  8
Ｓ_１_１
  6
CONTINUOUS
 62
     3
100
AcDbVertex
100
AcDb2dVertex
 10
1604.9999405
 20
504.499984
 30
0.0
  0
VERTEX
  5
58B
330
589
100
AcDbEntity
  8
Ｓ_１_１
  6
CONTINUOUS
 62
     3
100
AcDbVertex
100
AcDb2dVertex
 10
1605.9723085
 20
504.549453
 30
0.0
  0
VERTEX
  5
58C
330
589
100
AcDbEntity
  8
Ｓ_１_１
  6
CONTINUOUS
 62
     3
100
AcDbVertex
100
AcDb2dVertex
 10
1606.9372765
 20
504.6974839999999
 30
0.0
  0
VERTEX
  5
58D
330
589
100
AcDbEntity
  8
Ｓ_１_１
  6
CONTINUOUS
 62
     3
100
AcDbVertex
100
AcDb2dVertex
 10
1607.8875005
 20
504.942949
 30
0.0
  0
VERTEX
  5
58E
330
589
100
AcDbEntity
  8
Ｓ_１_１
  6
CONTINUOUS
 62
     3
100
AcDbVertex
100
AcDb2dVertex
 10
1608.8157475
 20
505.2839809999999
 30
0.0
  0
VERTEX
  5
58F
330
589
100
AcDbEntity
  8
Ｓ_１_１
  6
CONTINUOUS
 62
     3
100
AcDbVertex
100
AcDb2dVertex
 10
1609.7149545
 20
505.7179840000001
 30
0.0
  0
VERTEX
  5
590
330
589
100
AcDbEntity
  8
Ｓ_１_１
  6
CONTINUOUS
 62
     3
100
AcDbVertex
100
AcDb2dVertex
 10
1610.5782775
 20
506.241656
 30
0.0
  0
VERTEX
  5
591
330
589
100
AcDbEntity
  8
Ｓ_１_１
  6
CONTINUOUS
 62
     3
100
AcDbVertex
100
AcDb2dVertex
 10
1611.3991455
 20
506.85101
 30
0.0
  0
VERTEX
  5
592
330
589
100
AcDbEntity
  8
Ｓ_１_１
  6
CONTINUOUS
 62
     3
100
AcDbVertex
100
AcDb2dVertex
 10
1612.1713115
 20
507.5414089999999
 30
0.0
  0
VERTEX
  5
593
330
589
100
AcDbEntity
  8
Ｓ_１_１
  6
CONTINUOUS
 62
     3
100
AcDbVertex
100
AcDb2dVertex
 10
1612.8888995
 20
508.3076
 30
0.0
  0
VERTEX
  5
594
330
589
100
AcDbEntity
  8
Ｓ_１_１
  6
CONTINUOUS
 62
     3
100
AcDbVertex
100
AcDb2dVertex
 10
1613.5464485
 20
509.14375
 30
0.0
  0
VERTEX
  5
595
330
589
100
AcDbEntity
  8
Ｓ_１_１
  6
CONTINUOUS
 62
     3
100
AcDbVertex
100
AcDb2dVertex
 10
1614.1389525
 20
510.043496
 30
0.0
  0
VERTEX
  5
596
330
589
100
AcDbEntity
  8
Ｓ_１_１
  6
CONTINUOUS
 62
     3
100
AcDbVertex
100
AcDb2dVertex
 10
1614.6619035
 20
510.99999
 30
0.0
  0
VERTEX
  5
597
330
589
100
AcDbEntity
  8
Ｓ_１_１
  6
CONTINUOUS
 62
     3
100
AcDbVertex
100
AcDb2dVertex
 10
1615.1113205
 20
512.005954
 30
0.0
  0
VERTEX
  5
598
330
589
100
AcDbEntity
  8
Ｓ_１_１
  6
CONTINUOUS
 62
     3
100
AcDbVertex
100
AcDb2dVertex
 10
1615.4837845
 20
513.05373
 30
0.0
  0
VERTEX
  5
599
330
589
100
AcDbEntity
  8
Ｓ_１_１
  6
CONTINUOUS
 62
     3
100
AcDbVertex
100
AcDb2dVertex
 10
1615.7764595
 20
514.1353449999999
 30
0.0
  0
VERTEX
  5
59A
330
589
100
AcDbEntity
  8
Ｓ_１_１
  6
CONTINUOUS
 62
     3
100
AcDbVertex
100
AcDb2dVertex
 10
1615.9871185
 20
515.242567
 30
0.0
  0
VERTEX
  5
59B
330
589
100
AcDbEntity
  8
Ｓ_１_１
  6
CONTINUOUS
 62
     3
100
AcDbVertex
100
AcDb2dVertex
 10
1616.1141595
 20
516.3669699999999
 30
0.0
  0
VERTEX
  5
59C
330
589
100
AcDbEntity
  8
Ｓ_１_１
  6
CONTINUOUS
 62
     3
100
AcDbVertex
100
AcDb2dVertex
 10
1616.1566135
 20
517.499996
 30
0.0
  0
VERTEX
  5
59D
330
589
100
AcDbEntity
  8
Ｓ_１_１
  6
CONTINUOUS
 62
     3
100
AcDbVertex
100
AcDb2dVertex
 10
1616.1141595
 20
518.633021
 30
0.0
  0
VERTEX
  5
59E
330
589
100
AcDbEntity
  8
Ｓ_１_１
  6
CONTINUOUS
 62
     3
100
AcDbVertex
100
AcDb2dVertex
 10
1615.9871185
 20
519.7574239999999
 30
0.0
  0
VERTEX
  5
59F
330
589
100
AcDbEntity
  8
Ｓ_１_１
  6
CONTINUOUS
 62
     3
100
AcDbVertex
100
AcDb2dVertex
 10
1615.7764595
 20
520.864646
 30
0.0
  0
VERTEX
  5
5A0
330
589
100
AcDbEntity
  8
Ｓ_１_１
  6
CONTINUOUS
 62
     3
100
AcDbVertex
100
AcDb2dVertex
 10
1615.4837845
 20
521.9462609999999
 30
0.0
  0
VERTEX
  5
5A1
330
589
100
AcDbEntity
  8
Ｓ_１_１
  6
CONTINUOUS
 62
     3
100
AcDbVertex
100
AcDb2dVertex
 10
1615.1113205
 20
522.9940379999999
 30
0.0
  0
VERTEX
  5
5A2
330
589
100
AcDbEntity
  8
Ｓ_１_１
  6
CONTINUOUS
 62
     3
100
AcDbVertex
100
AcDb2dVertex
 10
1614.6619035
 20
524.000001
 30
0.0
  0
VERTEX
  5
5A3
330
589
100
AcDbEntity
  8
Ｓ_１_１
  6
CONTINUOUS
 62
     3
100
AcDbVertex
100
AcDb2dVertex
 10
1614.1389525
 20
524.9564959999999
 30
0.0
  0
VERTEX
  5
5A4
330
589
100
AcDbEntity
  8
Ｓ_１_１
  6
CONTINUOUS
 62
     3
100
AcDbVertex
100
AcDb2dVertex
 10
1613.5464485
 20
525.856242
 30
0.0
  0
VERTEX
  5
5A5
330
589
100
AcDbEntity
  8
Ｓ_１_１
  6
CONTINUOUS
 62
     3
100
AcDbVertex
100
AcDb2dVertex
 10
1612.8888995
 20
526.6923919999999
 30
0.0
  0
VERTEX
  5
5A6
330
589
100
AcDbEntity
  8
Ｓ_１_１
  6
CONTINUOUS
 62
     3
100
AcDbVertex
100
AcDb2dVertex
 10
1612.1713115
 20
527.458582
 30
0.0
  0
VERTEX
  5
5A7
330
589
100
AcDbEntity
  8
Ｓ_１_１
  6
CONTINUOUS
 62
     3
100
AcDbVertex
100
AcDb2dVertex
 10
1611.3991455
 20
528.1489809999999
 30
0.0
  0
VERTEX
  5
5A8
330
589
100
AcDbEntity
  8
Ｓ_１_１
  6
CONTINUOUS
 62
     3
100
AcDbVertex
100
AcDb2dVertex
 10
1610.5782775
 20
528.758336
 30
0.0
  0
VERTEX
  5
5A9
330
589
100
AcDbEntity
  8
Ｓ_１_１
  6
CONTINUOUS
 62
     3
100
AcDbVertex
100
AcDb2dVertex
 10
1609.7149545
 20
529.2820069999999
 30
0.0
  0
VERTEX
  5
5AA
330
589
100
AcDbEntity
  8
Ｓ_１_１
  6
CONTINUOUS
 62
     3
100
AcDbVertex
100
AcDb2dVertex
 10
1608.8157475
 20
529.71601
 30
0.0
  0
VERTEX
  5
5AB
330
589
100
AcDbEntity
  8
Ｓ_１_１
  6
CONTINUOUS
 62
     3
100
AcDbVertex
100
AcDb2dVertex
 10
1607.8875005
 20
530.0570419999999
 30
0.0
  0
VERTEX
  5
5AC
330
589
100
AcDbEntity
  8
Ｓ_１_１
  6
CONTINUOUS
 62
     3
100
AcDbVertex
100
AcDb2dVertex
 10
1606.9372765
 20
530.302508
 30
0.0
  0
VERTEX
  5
5AD
330
589
100
AcDbEntity
  8
Ｓ_１_１
  6
CONTINUOUS
 62
     3
100
AcDbVertex
100
AcDb2dVertex
 10
1605.9723085
 20
530.4505379999999
 30
0.0
  0
VERTEX
  5
5AE
330
589
100
AcDbEntity
  8
Ｓ_１_１
  6
CONTINUOUS
 62
     3
100
AcDbVertex
100
AcDb2dVertex
 10
1604.9999405
 20
530.500007
 30
0.0
  0
VERTEX
  5
5AF
330
589
100
AcDbEntity
  8
Ｓ_１_１
  6
CONTINUOUS
 62
     3
100
AcDbVertex
100
AcDb2dVertex
 10
1604.0275725
 20
530.4505379999999
 30
0.0
  0
VERTEX
  5
5B0
330
589
100
AcDbEntity
  8
Ｓ_１_１
  6
CONTINUOUS
 62
     3
100
AcDbVertex
100
AcDb2dVertex
 10
1603.0626045
 20
530.302508
 30
0.0
  0
VERTEX
  5
5B1
330
589
100
AcDbEntity
  8
Ｓ_１_１
  6
CONTINUOUS
 62
     3
100
AcDbVertex
100
AcDb2dVertex
 10
1602.1123815
 20
530.0570419999999
 30
0.0
  0
VERTEX
  5
5B2
330
589
100
AcDbEntity
  8
Ｓ_１_１
  6
CONTINUOUS
 62
     3
100
AcDbVertex
100
AcDb2dVertex
 10
1601.1841335
 20
529.71601
 30
0.0
  0
VERTEX
  5
5B3
330
589
100
AcDbEntity
  8
Ｓ_１_１
  6
CONTINUOUS
 62
     3
100
AcDbVertex
100
AcDb2dVertex
 10
1600.2849265
 20
529.2820069999999
 30
0.0
  0
VERTEX
  5
5B4
330
589
100
AcDbEntity
  8
Ｓ_１_１
  6
CONTINUOUS
 62
     3
100
AcDbVertex
100
AcDb2dVertex
 10
1599.4216035
 20
528.758336
 30
0.0
  0
VERTEX
  5
5B5
330
589
100
AcDbEntity
  8
Ｓ_１_１
  6
CONTINUOUS
 62
     3
100
AcDbVertex
100
AcDb2dVertex
 10
1598.6007355
 20
528.1489809999999
 30
0.0
  0
VERTEX
  5
5B6
330
589
100
AcDbEntity
  8
Ｓ_１_１
  6
CONTINUOUS
 62
     3
100
AcDbVertex
100
AcDb2dVertex
 10
1597.8285695
 20
527.458582
 30
0.0
  0
VERTEX
  5
5B7
330
589
100
AcDbEntity
  8
Ｓ_１_１
  6
CONTINUOUS
 62
     3
100
AcDbVertex
100
AcDb2dVertex
 10
1597.1109815
 20
526.6923919999999
 30
0.0
  0
VERTEX
  5
5B8
330
589
100
AcDbEntity
  8
Ｓ_１_１
  6
CONTINUOUS
 62
     3
100
AcDbVertex
100
AcDb2dVertex
 10
1596.4534325
 20
525.856242
 30
0.0
  0
VERTEX
  5
5B9
330
589
100
AcDbEntity
  8
Ｓ_１_１
  6
CONTINUOUS
 62
     3
100
AcDbVertex
100
AcDb2dVertex
 10
1595.8609285
 20
524.9564959999999
 30
0.0
  0
VERTEX
  5
5BA
330
589
100
AcDbEntity
  8
Ｓ_１_１
  6
CONTINUOUS
 62
     3
100
AcDbVertex
100
AcDb2dVertex
 10
1595.3379785
 20
524.000001
 30
0.0
  0
VERTEX
  5
5BB
330
589
100
AcDbEntity
  8
Ｓ_１_１
  6
CONTINUOUS
 62
     3
100
AcDbVertex
100
AcDb2dVertex
 10
1594.8885605
 20
522.9940379999999
 30
0.0
  0
VERTEX
  5
5BC
330
589
100
AcDbEntity
  8
Ｓ_１_１
  6
CONTINUOUS
 62
     3
100
AcDbVertex
100
AcDb2dVertex
 10
1594.5160975
 20
521.9462609999999
 30
0.0
  0
VERTEX
  5
5BD
330
589
100
AcDbEntity
  8
Ｓ_１_１
  6
CONTINUOUS
 62
     3
100
AcDbVertex
100
AcDb2dVertex
 10
1594.2234215
 20
520.864646
 30
0.0
  0
VERTEX
  5
5BE
330
589
100
AcDbEntity
  8
Ｓ_１_１
  6
CONTINUOUS
 62
     3
100
AcDbVertex
100
AcDb2dVertex
 10
1594.0127625
 20
519.7574239999999
 30
0.0
  0
VERTEX
  5
5BF
330
589
100
AcDbEntity
  8
Ｓ_１_１
  6
CONTINUOUS
 62
     3
100
AcDbVertex
100
AcDb2dVertex
 10
1593.8857215
 20
518.633021
 30
0.0
  0
VERTEX
  5
5C0
330
589
100
AcDbEntity
  8
Ｓ_１_１
  6
CONTINUOUS
 62
     3
100
AcDbVertex
100
AcDb2dVertex
 10
1593.8432675
 20
517.499996
 30
0.0
  0
VERTEX
  5
5C1
330
589
100
AcDbEntity
  8
Ｓ_１_１
  6
CONTINUOUS
 62
     3
100
AcDbVertex
100
AcDb2dVertex
 10
1593.8857215
 20
516.3669699999999
 30
0.0
  0
VERTEX
  5
5C2
330
589
100
AcDbEntity
  8
Ｓ_１_１
  6
CONTINUOUS
 62
     3
100
AcDbVertex
100
AcDb2dVertex
 10
1594.0127625
 20
515.242567
 30
0.0
  0
VERTEX
  5
5C3
330
589
100
AcDbEntity
  8
Ｓ_１_１
  6
CONTINUOUS
 62
     3
100
AcDbVertex
100
AcDb2dVertex
 10
1594.2234215
 20
514.1353449999999
 30
0.0
  0
VERTEX
  5
5C4
330
589
100
AcDbEntity
  8
Ｓ_１_１
  6
CONTINUOUS
 62
     3
100
AcDbVertex
100
AcDb2dVertex
 10
1594.5160975
 20
513.05373
 30
0.0
  0
VERTEX
  5
5C5
330
589
100
AcDbEntity
  8
Ｓ_１_１
  6
CONTINUOUS
 62
     3
100
AcDbVertex
100
AcDb2dVertex
 10
1594.8885605
 20
512.005954
 30
0.0
  0
VERTEX
  5
5C6
330
589
100
AcDbEntity
  8
Ｓ_１_１
  6
CONTINUOUS
 62
     3
100
AcDbVertex
100
AcDb2dVertex
 10
1595.3379785
 20
510.99999
 30
0.0
  0
VERTEX
  5
5C7
330
589
100
AcDbEntity
  8
Ｓ_１_１
  6
CONTINUOUS
 62
     3
100
AcDbVertex
100
AcDb2dVertex
 10
1595.8609285
 20
510.043496
 30
0.0
  0
VERTEX
  5
5C8
330
589
100
AcDbEntity
  8
Ｓ_１_１
  6
CONTINUOUS
 62
     3
100
AcDbVertex
100
AcDb2dVertex
 10
1596.4534325
 20
509.14375
 30
0.0
  0
VERTEX
  5
5C9
330
589
100
AcDbEntity
  8
Ｓ_１_１
  6
CONTINUOUS
 62
     3
100
AcDbVertex
100
AcDb2dVertex
 10
1597.1109815
 20
508.3076
 30
0.0
  0
VERTEX
  5
5CA
330
589
100
AcDbEntity
  8
Ｓ_１_１
  6
CONTINUOUS
 62
     3
100
AcDbVertex
100
AcDb2dVertex
 10
1597.8285695
 20
507.5414089999999
 30
0.0
  0
VERTEX
  5
5CB
330
589
100
AcDbEntity
  8
Ｓ_１_１
  6
CONTINUOUS
 62
     3
100
AcDbVertex
100
AcDb2dVertex
 10
1598.6007355
 20
506.85101
 30
0.0
  0
VERTEX
  5
5CC
330
589
100
AcDbEntity
  8
Ｓ_１_１
  6
CONTINUOUS
 62
     3
100
AcDbVertex
100
AcDb2dVertex
 10
1599.4216035
 20
506.241656
 30
0.0
  0
VERTEX
  5
5CD
330
589
100
AcDbEntity
  8
Ｓ_１_１
  6
CONTINUOUS
 62
     3
100
AcDbVertex
100
AcDb2dVertex
 10
1600.2849265
 20
505.7179840000001
 30
0.0
  0
VERTEX
  5
5CE
330
589
100
AcDbEntity
  8
Ｓ_１_１
  6
CONTINUOUS
 62
     3
100
AcDbVertex
100
AcDb2dVertex
 10
1601.1841335
 20
505.2839809999999
 30
0.0
  0
VERTEX
  5
5CF
330
589
100
AcDbEntity
  8
Ｓ_１_１
  6
CONTINUOUS
 62
     3
100
AcDbVertex
100
AcDb2dVertex
 10
1602.1123815
 20
504.942949
 30
0.0
  0
VERTEX
  5
5D0
330
589
100
AcDbEntity
  8
Ｓ_１_１
  6
CONTINUOUS
 62
     3
100
AcDbVertex
100
AcDb2dVertex
 10
1603.0626045
 20
504.6974839999999
 30
0.0
  0
VERTEX
  5
5D1
330
589
100
AcDbEntity
  8
Ｓ_１_１
  6
CONTINUOUS
 62
     3
100
AcDbVertex
100
AcDb2dVertex
 10
1604.0275725
 20
504.549453
 30
0.0
  0
VERTEX
  5
5D2
330
589
100
AcDbEntity
  8
Ｓ_１_１
  6
CONTINUOUS
 62
     3
100
AcDbVertex
100
AcDb2dVertex
 10
1604.9999405
 20
504.499984
 30
0.0
  0
SEQEND
  5
5D3
330
589
100
AcDbEntity
  8
Ｓ_１_１
  6
CONTINUOUS
 62
     3
  0
POLYLINE
  5
5D4
330
1F
100
AcDbEntity
  8
Ｓ_１_１
  6
CONTINUOUS
 62
     3
100
AcDb2dPolyline
 66
     1
 10
0.0
 20
0.0
 30
0.0
 70
   128
  0
VERTEX
  5
5D5
330
5D4
100
AcDbEntity
  8
Ｓ_１_１
  6
CONTINUOUS
 62
     3
100
AcDbVertex
100
AcDb2dVertex
 10
1303.2886525
 20
353.3309919999999
 30
0.0
  0
VERTEX
  5
5D6
330
5D4
100
AcDbEntity
  8
Ｓ_１_１
  6
CONTINUOUS
 62
     3
100
AcDbVertex
100
AcDb2dVertex
 10
1303.1619775
 20
353.2992899999999
 30
0.0
  0
VERTEX
  5
5D7
330
5D4
100
AcDbEntity
  8
Ｓ_１_１
  6
CONTINUOUS
 62
     3
100
AcDbVertex
100
AcDb2dVertex
 10
1303.0362655
 20
353.2044249999999
 30
0.0
  0
VERTEX
  5
5D8
330
5D4
100
AcDbEntity
  8
Ｓ_１_１
  6
CONTINUOUS
 62
     3
100
AcDbVertex
100
AcDb2dVertex
 10
1302.9124755
 20
353.0471199999999
 30
0.0
  0
VERTEX
  5
5D9
330
5D4
100
AcDbEntity
  8
Ｓ_１_１
  6
CONTINUOUS
 62
     3
100
AcDbVertex
100
AcDb2dVertex
 10
1302.7915475
 20
352.828571
 30
0.0
  0
VERTEX
  5
5DA
330
5D4
100
AcDbEntity
  8
Ｓ_１_１
  6
CONTINUOUS
 62
     3
100
AcDbVertex
100
AcDb2dVertex
 10
1302.6744035
 20
352.550443
 30
0.0
  0
VERTEX
  5
5DB
330
5D4
100
AcDbEntity
  8
Ｓ_１_１
  6
CONTINUOUS
 62
     3
100
AcDbVertex
100
AcDb2dVertex
 10
1302.5619335
 20
352.2148499999999
 30
0.0
  0
VERTEX
  5
5DC
330
5D4
100
AcDbEntity
  8
Ｓ_１_１
  6
CONTINUOUS
 62
     3
100
AcDbVertex
100
AcDb2dVertex
 10
1302.4549955
 20
351.8243489999999
 30
0.0
  0
VERTEX
  5
5DD
330
5D4
100
AcDbEntity
  8
Ｓ_１_１
  6
CONTINUOUS
 62
     3
100
AcDbVertex
100
AcDb2dVertex
 10
1302.3544005
 20
351.3819099999999
 30
0.0
  0
VERTEX
  5
5DE
330
5D4
100
AcDbEntity
  8
Ｓ_１_１
  6
CONTINUOUS
 62
     3
100
AcDbVertex
100
AcDb2dVertex
 10
1302.2609175
 20
350.8908999999999
 30
0.0
  0
VERTEX
  5
5DF
330
5D4
100
AcDbEntity
  8
Ｓ_１_１
  6
CONTINUOUS
 62
     3
100
AcDbVertex
100
AcDb2dVertex
 10
1302.1752545
 20
350.3550579999999
 30
0.0
  0
VERTEX
  5
5E0
330
5D4
100
AcDbEntity
  8
Ｓ_１_１
  6
CONTINUOUS
 62
     3
100
AcDbVertex
100
AcDb2dVertex
 10
1302.0980665
 20
349.77846
 30
0.0
  0
VERTEX
  5
5E1
330
5D4
100
AcDbEntity
  8
Ｓ_１_１
  6
CONTINUOUS
 62
     3
100
AcDbVertex
100
AcDb2dVertex
 10
1302.0299385
 20
349.1654949999999
 30
0.0
  0
VERTEX
  5
5E2
330
5D4
100
AcDbEntity
  8
Ｓ_１_１
  6
CONTINUOUS
 62
     3
100
AcDbVertex
100
AcDb2dVertex
 10
1301.9713905
 20
348.5208279999999
 30
0.0
  0
VERTEX
  5
5E3
330
5D4
100
AcDbEntity
  8
Ｓ_１_１
  6
CONTINUOUS
 62
     3
100
AcDbVertex
100
AcDb2dVertex
 10
1301.9228685
 20
347.8493659999999
 30
0.0
  0
VERTEX
  5
5E4
330
5D4
100
AcDbEntity
  8
Ｓ_１_１
  6
CONTINUOUS
 62
     3
100
AcDbVertex
100
AcDb2dVertex
 10
1301.8847395
 20
347.156218
 30
0.0
  0
VERTEX
  5
5E5
330
5D4
100
AcDbEntity
  8
Ｓ_１_１
  6
CONTINUOUS
 62
     3
100
AcDbVertex
100
AcDb2dVertex
 10
1301.8572955
 20
346.4466599999999
 30
0.0
  0
VERTEX
  5
5E6
330
5D4
100
AcDbEntity
  8
Ｓ_１_１
  6
CONTINUOUS
 62
     3
100
AcDbVertex
100
AcDb2dVertex
 10
1301.8407455
 20
345.7260919999999
 30
0.0
  0
VERTEX
  5
5E7
330
5D4
100
AcDbEntity
  8
Ｓ_１_１
  6
CONTINUOUS
 62
     3
100
AcDbVertex
100
AcDb2dVertex
 10
1301.8352155
 20
344.999998
 30
0.0
  0
VERTEX
  5
5E8
330
5D4
100
AcDbEntity
  8
Ｓ_１_１
  6
CONTINUOUS
 62
     3
100
AcDbVertex
100
AcDb2dVertex
 10
1301.8407455
 20
344.2739039999999
 30
0.0
  0
VERTEX
  5
5E9
330
5D4
100
AcDbEntity
  8
Ｓ_１_１
  6
CONTINUOUS
 62
     3
100
AcDbVertex
100
AcDb2dVertex
 10
1301.8572955
 20
343.5533359999999
 30
0.0
  0
VERTEX
  5
5EA
330
5D4
100
AcDbEntity
  8
Ｓ_１_１
  6
CONTINUOUS
 62
     3
100
AcDbVertex
100
AcDb2dVertex
 10
1301.8847395
 20
342.8437779999999
 30
0.0
  0
VERTEX
  5
5EB
330
5D4
100
AcDbEntity
  8
Ｓ_１_１
  6
CONTINUOUS
 62
     3
100
AcDbVertex
100
AcDb2dVertex
 10
1301.9228685
 20
342.150631
 30
0.0
  0
VERTEX
  5
5EC
330
5D4
100
AcDbEntity
  8
Ｓ_１_１
  6
CONTINUOUS
 62
     3
100
AcDbVertex
100
AcDb2dVertex
 10
1301.9713905
 20
341.479168
 30
0.0
  0
VERTEX
  5
5ED
330
5D4
100
AcDbEntity
  8
Ｓ_１_１
  6
CONTINUOUS
 62
     3
100
AcDbVertex
100
AcDb2dVertex
 10
1302.0299385
 20
340.8345019999999
 30
0.0
  0
VERTEX
  5
5EE
330
5D4
100
AcDbEntity
  8
Ｓ_１_１
  6
CONTINUOUS
 62
     3
100
AcDbVertex
100
AcDb2dVertex
 10
1302.0980665
 20
340.2215369999999
 30
0.0
  0
VERTEX
  5
5EF
330
5D4
100
AcDbEntity
  8
Ｓ_１_１
  6
CONTINUOUS
 62
     3
100
AcDbVertex
100
AcDb2dVertex
 10
1302.1752545
 20
339.644939
 30
0.0
  0
VERTEX
  5
5F0
330
5D4
100
AcDbEntity
  8
Ｓ_１_１
  6
CONTINUOUS
 62
     3
100
AcDbVertex
100
AcDb2dVertex
 10
1302.2609175
 20
339.1090959999999
 30
0.0
  0
VERTEX
  5
5F1
330
5D4
100
AcDbEntity
  8
Ｓ_１_１
  6
CONTINUOUS
 62
     3
100
AcDbVertex
100
AcDb2dVertex
 10
1302.3544005
 20
338.6180869999999
 30
0.0
  0
VERTEX
  5
5F2
330
5D4
100
AcDbEntity
  8
Ｓ_１_１
  6
CONTINUOUS
 62
     3
100
AcDbVertex
100
AcDb2dVertex
 10
1302.4549955
 20
338.1756479999999
 30
0.0
  0
VERTEX
  5
5F3
330
5D4
100
AcDbEntity
  8
Ｓ_１_１
  6
CONTINUOUS
 62
     3
100
AcDbVertex
100
AcDb2dVertex
 10
1302.5619335
 20
337.7851459999999
 30
0.0
  0
VERTEX
  5
5F4
330
5D4
100
AcDbEntity
  8
Ｓ_１_１
  6
CONTINUOUS
 62
     3
100
AcDbVertex
100
AcDb2dVertex
 10
1302.6744035
 20
337.449554
 30
0.0
  0
VERTEX
  5
5F5
330
5D4
100
AcDbEntity
  8
Ｓ_１_１
  6
CONTINUOUS
 62
     3
100
AcDbVertex
100
AcDb2dVertex
 10
1302.7915475
 20
337.171425
 30
0.0
  0
VERTEX
  5
5F6
330
5D4
100
AcDbEntity
  8
Ｓ_１_１
  6
CONTINUOUS
 62
     3
100
AcDbVertex
100
AcDb2dVertex
 10
1302.9124755
 20
336.9528759999999
 30
0.0
  0
VERTEX
  5
5F7
330
5D4
100
AcDbEntity
  8
Ｓ_１_１
  6
CONTINUOUS
 62
     3
100
AcDbVertex
100
AcDb2dVertex
 10
1303.0362655
 20
336.7955709999999
 30
0.0
  0
VERTEX
  5
5F8
330
5D4
100
AcDbEntity
  8
Ｓ_１_１
  6
CONTINUOUS
 62
     3
100
AcDbVertex
100
AcDb2dVertex
 10
1303.1619775
 20
336.700707
 30
0.0
  0
VERTEX
  5
5F9
330
5D4
100
AcDbEntity
  8
Ｓ_１_１
  6
CONTINUOUS
 62
     3
100
AcDbVertex
100
AcDb2dVertex
 10
1303.2886525
 20
336.669005
 30
0.0
  0
VERTEX
  5
5FA
330
5D4
100
AcDbEntity
  8
Ｓ_１_１
  6
CONTINUOUS
 62
     3
100
AcDbVertex
100
AcDb2dVertex
 10
1303.4153285
 20
336.700707
 30
0.0
  0
VERTEX
  5
5FB
330
5D4
100
AcDbEntity
  8
Ｓ_１_１
  6
CONTINUOUS
 62
     3
100
AcDbVertex
100
AcDb2dVertex
 10
1303.5410395
 20
336.7955709999999
 30
0.0
  0
VERTEX
  5
5FC
330
5D4
100
AcDbEntity
  8
Ｓ_１_１
  6
CONTINUOUS
 62
     3
100
AcDbVertex
100
AcDb2dVertex
 10
1303.6648305
 20
336.9528759999999
 30
0.0
  0
VERTEX
  5
5FD
330
5D4
100
AcDbEntity
  8
Ｓ_１_１
  6
CONTINUOUS
 62
     3
100
AcDbVertex
100
AcDb2dVertex
 10
1303.7857575
 20
337.171425
 30
0.0
  0
VERTEX
  5
5FE
330
5D4
100
AcDbEntity
  8
Ｓ_１_１
  6
CONTINUOUS
 62
     3
100
AcDbVertex
100
AcDb2dVertex
 10
1303.9029025
 20
337.449554
 30
0.0
  0
VERTEX
  5
5FF
330
5D4
100
AcDbEntity
  8
Ｓ_１_１
  6
CONTINUOUS
 62
     3
100
AcDbVertex
100
AcDb2dVertex
 10
1304.0153715
 20
337.7851459999999
 30
0.0
  0
VERTEX
  5
600
330
5D4
100
AcDbEntity
  8
Ｓ_１_１
  6
CONTINUOUS
 62
     3
100
AcDbVertex
100
AcDb2dVertex
 10
1304.1223105
 20
338.1756479999999
 30
0.0
  0
VERTEX
  5
601
330
5D4
100
AcDbEntity
  8
Ｓ_１_１
  6
CONTINUOUS
 62
     3
100
AcDbVertex
100
AcDb2dVertex
 10
1304.2229045
 20
338.6180869999999
 30
0.0
  0
VERTEX
  5
602
330
5D4
100
AcDbEntity
  8
Ｓ_１_１
  6
CONTINUOUS
 62
     3
100
AcDbVertex
100
AcDb2dVertex
 10
1304.3163885
 20
339.1090959999999
 30
0.0
  0
VERTEX
  5
603
330
5D4
100
AcDbEntity
  8
Ｓ_１_１
  6
CONTINUOUS
 62
     3
100
AcDbVertex
100
AcDb2dVertex
 10
1304.4020505
 20
339.644939
 30
0.0
  0
VERTEX
  5
604
330
5D4
100
AcDbEntity
  8
Ｓ_１_１
  6
CONTINUOUS
 62
     3
100
AcDbVertex
100
AcDb2dVertex
 10
1304.4792395
 20
340.2215369999999
 30
0.0
  0
VERTEX
  5
605
330
5D4
100
AcDbEntity
  8
Ｓ_１_１
  6
CONTINUOUS
 62
     3
100
AcDbVertex
100
AcDb2dVertex
 10
1304.5473665
 20
340.8345019999999
 30
0.0
  0
VERTEX
  5
606
330
5D4
100
AcDbEntity
  8
Ｓ_１_１
  6
CONTINUOUS
 62
     3
100
AcDbVertex
100
AcDb2dVertex
 10
1304.6059145
 20
341.479168
 30
0.0
  0
VERTEX
  5
607
330
5D4
100
AcDbEntity
  8
Ｓ_１_１
  6
CONTINUOUS
 62
     3
100
AcDbVertex
100
AcDb2dVertex
 10
1304.6544375
 20
342.150631
 30
0.0
  0
VERTEX
  5
608
330
5D4
100
AcDbEntity
  8
Ｓ_１_１
  6
CONTINUOUS
 62
     3
100
AcDbVertex
100
AcDb2dVertex
 10
1304.6925655
 20
342.8437779999999
 30
0.0
  0
VERTEX
  5
609
330
5D4
100
AcDbEntity
  8
Ｓ_１_１
  6
CONTINUOUS
 62
     3
100
AcDbVertex
100
AcDb2dVertex
 10
1304.7200095
 20
343.5533359999999
 30
0.0
  0
VERTEX
  5
60A
330
5D4
100
AcDbEntity
  8
Ｓ_１_１
  6
CONTINUOUS
 62
     3
100
AcDbVertex
100
AcDb2dVertex
 10
1304.7365595
 20
344.2739039999999
 30
0.0
  0
VERTEX
  5
60B
330
5D4
100
AcDbEntity
  8
Ｓ_１_１
  6
CONTINUOUS
 62
     3
100
AcDbVertex
100
AcDb2dVertex
 10
1304.7420905
 20
344.999998
 30
0.0
  0
VERTEX
  5
60C
330
5D4
100
AcDbEntity
  8
Ｓ_１_１
  6
CONTINUOUS
 62
     3
100
AcDbVertex
100
AcDb2dVertex
 10
1304.7365595
 20
345.7260919999999
 30
0.0
  0
VERTEX
  5
60D
330
5D4
100
AcDbEntity
  8
Ｓ_１_１
  6
CONTINUOUS
 62
     3
100
AcDbVertex
100
AcDb2dVertex
 10
1304.7200095
 20
346.4466599999999
 30
0.0
  0
VERTEX
  5
60E
330
5D4
100
AcDbEntity
  8
Ｓ_１_１
  6
CONTINUOUS
 62
     3
100
AcDbVertex
100
AcDb2dVertex
 10
1304.6925655
 20
347.156218
 30
0.0
  0
VERTEX
  5
60F
330
5D4
100
AcDbEntity
  8
Ｓ_１_１
  6
CONTINUOUS
 62
     3
100
AcDbVertex
100
AcDb2dVertex
 10
1304.6544375
 20
347.8493659999999
 30
0.0
  0
VERTEX
  5
610
330
5D4
100
AcDbEntity
  8
Ｓ_１_１
  6
CONTINUOUS
 62
     3
100
AcDbVertex
100
AcDb2dVertex
 10
1304.6059145
 20
348.5208279999999
 30
0.0
  0
VERTEX
  5
611
330
5D4
100
AcDbEntity
  8
Ｓ_１_１
  6
CONTINUOUS
 62
     3
100
AcDbVertex
100
AcDb2dVertex
 10
1304.5473665
 20
349.1654949999999
 30
0.0
  0
VERTEX
  5
612
330
5D4
100
AcDbEntity
  8
Ｓ_１_１
  6
CONTINUOUS
 62
     3
100
AcDbVertex
100
AcDb2dVertex
 10
1304.4792395
 20
349.77846
 30
0.0
  0
VERTEX
  5
613
330
5D4
100
AcDbEntity
  8
Ｓ_１_１
  6
CONTINUOUS
 62
     3
100
AcDbVertex
100
AcDb2dVertex
 10
1304.4020505
 20
350.3550579999999
 30
0.0
  0
VERTEX
  5
614
330
5D4
100
AcDbEntity
  8
Ｓ_１_１
  6
CONTINUOUS
 62
     3
100
AcDbVertex
100
AcDb2dVertex
 10
1304.3163885
 20
350.8908999999999
 30
0.0
  0
VERTEX
  5
615
330
5D4
100
AcDbEntity
  8
Ｓ_１_１
  6
CONTINUOUS
 62
     3
100
AcDbVertex
100
AcDb2dVertex
 10
1304.2229045
 20
351.3819099999999
 30
0.0
  0
VERTEX
  5
616
330
5D4
100
AcDbEntity
  8
Ｓ_１_１
  6
CONTINUOUS
 62
     3
100
AcDbVertex
100
AcDb2dVertex
 10
1304.1223105
 20
351.8243489999999
 30
0.0
  0
VERTEX
  5
617
330
5D4
100
AcDbEntity
  8
Ｓ_１_１
  6
CONTINUOUS
 62
     3
100
AcDbVertex
100
AcDb2dVertex
 10
1304.0153715
 20
352.2148499999999
 30
0.0
  0
VERTEX
  5
618
330
5D4
100
AcDbEntity
  8
Ｓ_１_１
  6
CONTINUOUS
 62
     3
100
AcDbVertex
100
AcDb2dVertex
 10
1303.9029025
 20
352.550443
 30
0.0
  0
VERTEX
  5
619
330
5D4
100
AcDbEntity
  8
Ｓ_１_１
  6
CONTINUOUS
 62
     3
100
AcDbVertex
100
AcDb2dVertex
 10
1303.7857575
 20
352.828571
 30
0.0
  0
VERTEX
  5
61A
330
5D4
100
AcDbEntity
  8
Ｓ_１_１
  6
CONTINUOUS
 62
     3
100
AcDbVertex
100
AcDb2dVertex
 10
1303.6648305
 20
353.0471199999999
 30
0.0
  0
VERTEX
  5
61B
330
5D4
100
AcDbEntity
  8
Ｓ_１_１
  6
CONTINUOUS
 62
     3
100
AcDbVertex
100
AcDb2dVertex
 10
1303.5410395
 20
353.2044249999999
 30
0.0
  0
VERTEX
  5
61C
330
5D4
100
AcDbEntity
  8
Ｓ_１_１
  6
CONTINUOUS
 62
     3
100
AcDbVertex
100
AcDb2dVertex
 10
1303.4153285
 20
353.2992899999999
 30
0.0
  0
VERTEX
  5
61D
330
5D4
100
AcDbEntity
  8
Ｓ_１_１
  6
CONTINUOUS
 62
     3
100
AcDbVertex
100
AcDb2dVertex
 10
1303.2886525
 20
353.3309919999999
 30
0.0
  0
SEQEND
  5
61E
330
5D4
100
AcDbEntity
  8
Ｓ_１_１
  6
CONTINUOUS
 62
     3
  0
POLYLINE
  5
61F
330
1F
100
AcDbEntity
  8
Ｓ_１_１
  6
CONTINUOUS
 62
     3
100
AcDb2dPolyline
 66
     1
 10
0.0
 20
0.0
 30
0.0
 70
   128
  0
VERTEX
  5
620
330
61F
100
AcDbEntity
  8
Ｓ_１_１
  6
CONTINUOUS
 62
     3
100
AcDbVertex
100
AcDb2dVertex
 10
1303.2484455
 20
352.474974
 30
0.0
  0
VERTEX
  5
621
330
61F
100
AcDbEntity
  8
Ｓ_１_１
  6
CONTINUOUS
 62
     3
100
AcDbVertex
100
AcDb2dVertex
 10
1303.1353815
 20
352.4465289999999
 30
0.0
  0
VERTEX
  5
622
330
61F
100
AcDbEntity
  8
Ｓ_１_１
  6
CONTINUOUS
 62
     3
100
AcDbVertex
100
AcDb2dVertex
 10
1303.0231785
 20
352.361412
 30
0.0
  0
VERTEX
  5
623
330
61F
100
AcDbEntity
  8
Ｓ_１_１
  6
CONTINUOUS
 62
     3
100
AcDbVertex
100
AcDb2dVertex
 10
1302.9126895
 20
352.2202689999999
 30
0.0
  0
VERTEX
  5
624
330
61F
100
AcDbEntity
  8
Ｓ_１_１
  6
CONTINUOUS
 62
     3
100
AcDbVertex
100
AcDb2dVertex
 10
1302.8047555
 20
352.0241759999999
 30
0.0
  0
VERTEX
  5
625
330
61F
100
AcDbEntity
  8
Ｓ_１_１
  6
CONTINUOUS
 62
     3
100
AcDbVertex
100
AcDb2dVertex
 10
1302.7001985
 20
351.774625
 30
0.0
  0
VERTEX
  5
626
330
61F
100
AcDbEntity
  8
Ｓ_１_１
  6
CONTINUOUS
 62
     3
100
AcDbVertex
100
AcDb2dVertex
 10
1302.5998135
 20
351.473514
 30
0.0
  0
VERTEX
  5
627
330
61F
100
AcDbEntity
  8
Ｓ_１_１
  6
CONTINUOUS
 62
     3
100
AcDbVertex
100
AcDb2dVertex
 10
1302.5043655
 20
351.1231359999999
 30
0.0
  0
VERTEX
  5
628
330
61F
100
AcDbEntity
  8
Ｓ_１_１
  6
CONTINUOUS
 62
     3
100
AcDbVertex
100
AcDb2dVertex
 10
1302.4145805
 20
350.7261569999999
 30
0.0
  0
VERTEX
  5
629
330
61F
100
AcDbEntity
  8
Ｓ_１_１
  6
CONTINUOUS
 62
     3
100
AcDbVertex
100
AcDb2dVertex
 10
1302.3311415
 20
350.2855989999999
 30
0.0
  0
VERTEX
  5
62A
330
61F
100
AcDbEntity
  8
Ｓ_１_１
  6
CONTINUOUS
 62
     3
100
AcDbVertex
100
AcDb2dVertex
 10
1302.2546835
 20
349.804813
 30
0.0
  0
VERTEX
  5
62B
330
61F
100
AcDbEntity
  8
Ｓ_１_１
  6
CONTINUOUS
 62
     3
100
AcDbVertex
100
AcDb2dVertex
 10
1302.1857895
 20
349.28746
 30
0.0
  0
VERTEX
  5
62C
330
61F
100
AcDbEntity
  8
Ｓ_１_１
  6
CONTINUOUS
 62
     3
100
AcDbVertex
100
AcDb2dVertex
 10
1302.1249825
 20
348.737476
 30
0.0
  0
VERTEX
  5
62D
330
61F
100
AcDbEntity
  8
Ｓ_１_１
  6
CONTINUOUS
 62
     3
100
AcDbVertex
100
AcDb2dVertex
 10
1302.0727255
 20
348.159048
 30
0.0
  0
VERTEX
  5
62E
330
61F
100
AcDbEntity
  8
Ｓ_１_１
  6
CONTINUOUS
 62
     3
100
AcDbVertex
100
AcDb2dVertex
 10
1302.0294165
 20
347.5565779999999
 30
0.0
  0
VERTEX
  5
62F
330
61F
100
AcDbEntity
  8
Ｓ_１_１
  6
CONTINUOUS
 62
     3
100
AcDbVertex
100
AcDb2dVertex
 10
1301.9953845
 20
346.9346499999999
 30
0.0
  0
VERTEX
  5
630
330
61F
100
AcDbEntity
  8
Ｓ_１_１
  6
CONTINUOUS
 62
     3
100
AcDbVertex
100
AcDb2dVertex
 10
1301.9708905
 20
346.297998
 30
0.0
  0
VERTEX
  5
631
330
61F
100
AcDbEntity
  8
Ｓ_１_１
  6
CONTINUOUS
 62
     3
100
AcDbVertex
100
AcDb2dVertex
 10
1301.9561185
 20
345.651468
 30
0.0
  0
VERTEX
  5
632
330
61F
100
AcDbEntity
  8
Ｓ_１_１
  6
CONTINUOUS
 62
     3
100
AcDbVertex
100
AcDb2dVertex
 10
1301.9511815
 20
344.9999789999999
 30
0.0
  0
VERTEX
  5
633
330
61F
100
AcDbEntity
  8
Ｓ_１_１
  6
CONTINUOUS
 62
     3
100
AcDbVertex
100
AcDb2dVertex
 10
1301.9561185
 20
344.34849
 30
0.0
  0
VERTEX
  5
634
330
61F
100
AcDbEntity
  8
Ｓ_１_１
  6
CONTINUOUS
 62
     3
100
AcDbVertex
100
AcDb2dVertex
 10
1301.9708905
 20
343.7019599999998
 30
0.0
  0
VERTEX
  5
635
330
61F
100
AcDbEntity
  8
Ｓ_１_１
  6
CONTINUOUS
 62
     3
100
AcDbVertex
100
AcDb2dVertex
 10
1301.9953845
 20
343.065308
 30
0.0
  0
VERTEX
  5
636
330
61F
100
AcDbEntity
  8
Ｓ_１_１
  6
CONTINUOUS
 62
     3
100
AcDbVertex
100
AcDb2dVertex
 10
1302.0294165
 20
342.4433799999999
 30
0.0
  0
VERTEX
  5
637
330
61F
100
AcDbEntity
  8
Ｓ_１_１
  6
CONTINUOUS
 62
     3
100
AcDbVertex
100
AcDb2dVertex
 10
1302.0727255
 20
341.8409099999998
 30
0.0
  0
VERTEX
  5
638
330
61F
100
AcDbEntity
  8
Ｓ_１_１
  6
CONTINUOUS
 62
     3
100
AcDbVertex
100
AcDb2dVertex
 10
1302.1249825
 20
341.262482
 30
0.0
  0
VERTEX
  5
639
330
61F
100
AcDbEntity
  8
Ｓ_１_１
  6
CONTINUOUS
 62
     3
100
AcDbVertex
100
AcDb2dVertex
 10
1302.1857895
 20
340.7124979999999
 30
0.0
  0
VERTEX
  5
63A
330
61F
100
AcDbEntity
  8
Ｓ_１_１
  6
CONTINUOUS
 62
     3
100
AcDbVertex
100
AcDb2dVertex
 10
1302.2546835
 20
340.1951449999999
 30
0.0
  0
VERTEX
  5
63B
330
61F
100
AcDbEntity
  8
Ｓ_１_１
  6
CONTINUOUS
 62
     3
100
AcDbVertex
100
AcDb2dVertex
 10
1302.3311415
 20
339.7143599999999
 30
0.0
  0
VERTEX
  5
63C
330
61F
100
AcDbEntity
  8
Ｓ_１_１
  6
CONTINUOUS
 62
     3
100
AcDbVertex
100
AcDb2dVertex
 10
1302.4145805
 20
339.2738009999999
 30
0.0
  0
VERTEX
  5
63D
330
61F
100
AcDbEntity
  8
Ｓ_１_１
  6
CONTINUOUS
 62
     3
100
AcDbVertex
100
AcDb2dVertex
 10
1302.5043655
 20
338.8768219999999
 30
0.0
  0
VERTEX
  5
63E
330
61F
100
AcDbEntity
  8
Ｓ_１_１
  6
CONTINUOUS
 62
     3
100
AcDbVertex
100
AcDb2dVertex
 10
1302.5998135
 20
338.5264439999999
 30
0.0
  0
VERTEX
  5
63F
330
61F
100
AcDbEntity
  8
Ｓ_１_１
  6
CONTINUOUS
 62
     3
100
AcDbVertex
100
AcDb2dVertex
 10
1302.7001985
 20
338.2253329999999
 30
0.0
  0
VERTEX
  5
640
330
61F
100
AcDbEntity
  8
Ｓ_１_１
  6
CONTINUOUS
 62
     3
100
AcDbVertex
100
AcDb2dVertex
 10
1302.8047555
 20
337.9757819999999
 30
0.0
  0
VERTEX
  5
641
330
61F
100
AcDbEntity
  8
Ｓ_１_１
  6
CONTINUOUS
 62
     3
100
AcDbVertex
100
AcDb2dVertex
 10
1302.9126895
 20
337.779689
 30
0.0
  0
VERTEX
  5
642
330
61F
100
AcDbEntity
  8
Ｓ_１_１
  6
CONTINUOUS
 62
     3
100
AcDbVertex
100
AcDb2dVertex
 10
1303.0231785
 20
337.638547
 30
0.0
  0
VERTEX
  5
643
330
61F
100
AcDbEntity
  8
Ｓ_１_１
  6
CONTINUOUS
 62
     3
100
AcDbVertex
100
AcDb2dVertex
 10
1303.1353815
 20
337.5534289999999
 30
0.0
  0
VERTEX
  5
644
330
61F
100
AcDbEntity
  8
Ｓ_１_１
  6
CONTINUOUS
 62
     3
100
AcDbVertex
100
AcDb2dVertex
 10
1303.2484455
 20
337.524985
 30
0.0
  0
VERTEX
  5
645
330
61F
100
AcDbEntity
  8
Ｓ_１_１
  6
CONTINUOUS
 62
     3
100
AcDbVertex
100
AcDb2dVertex
 10
1303.3615095
 20
337.5534289999999
 30
0.0
  0
VERTEX
  5
646
330
61F
100
AcDbEntity
  8
Ｓ_１_１
  6
CONTINUOUS
 62
     3
100
AcDbVertex
100
AcDb2dVertex
 10
1303.4737135
 20
337.638547
 30
0.0
  0
VERTEX
  5
647
330
61F
100
AcDbEntity
  8
Ｓ_１_１
  6
CONTINUOUS
 62
     3
100
AcDbVertex
100
AcDb2dVertex
 10
1303.5842025
 20
337.779689
 30
0.0
  0
VERTEX
  5
648
330
61F
100
AcDbEntity
  8
Ｓ_１_１
  6
CONTINUOUS
 62
     3
100
AcDbVertex
100
AcDb2dVertex
 10
1303.6921365
 20
337.9757819999999
 30
0.0
  0
VERTEX
  5
649
330
61F
100
AcDbEntity
  8
Ｓ_１_１
  6
CONTINUOUS
 62
     3
100
AcDbVertex
100
AcDb2dVertex
 10
1303.7966935
 20
338.2253329999999
 30
0.0
  0
VERTEX
  5
64A
330
61F
100
AcDbEntity
  8
Ｓ_１_１
  6
CONTINUOUS
 62
     3
100
AcDbVertex
100
AcDb2dVertex
 10
1303.8970775
 20
338.5264439999999
 30
0.0
  0
VERTEX
  5
64B
330
61F
100
AcDbEntity
  8
Ｓ_１_１
  6
CONTINUOUS
 62
     3
100
AcDbVertex
100
AcDb2dVertex
 10
1303.9925255
 20
338.8768219999999
 30
0.0
  0
VERTEX
  5
64C
330
61F
100
AcDbEntity
  8
Ｓ_１_１
  6
CONTINUOUS
 62
     3
100
AcDbVertex
100
AcDb2dVertex
 10
1304.0823115
 20
339.2738009999999
 30
0.0
  0
VERTEX
  5
64D
330
61F
100
AcDbEntity
  8
Ｓ_１_１
  6
CONTINUOUS
 62
     3
100
AcDbVertex
100
AcDb2dVertex
 10
1304.1657505
 20
339.7143599999999
 30
0.0
  0
VERTEX
  5
64E
330
61F
100
AcDbEntity
  8
Ｓ_１_１
  6
CONTINUOUS
 62
     3
100
AcDbVertex
100
AcDb2dVertex
 10
1304.2422075
 20
340.1951449999999
 30
0.0
  0
VERTEX
  5
64F
330
61F
100
AcDbEntity
  8
Ｓ_１_１
  6
CONTINUOUS
 62
     3
100
AcDbVertex
100
AcDb2dVertex
 10
1304.3111025
 20
340.7124979999999
 30
0.0
  0
VERTEX
  5
650
330
61F
100
AcDbEntity
  8
Ｓ_１_１
  6
CONTINUOUS
 62
     3
100
AcDbVertex
100
AcDb2dVertex
 10
1304.3719095
 20
341.262482
 30
0.0
  0
VERTEX
  5
651
330
61F
100
AcDbEntity
  8
Ｓ_１_１
  6
CONTINUOUS
 62
     3
100
AcDbVertex
100
AcDb2dVertex
 10
1304.4241665
 20
341.8409099999998
 30
0.0
  0
VERTEX
  5
652
330
61F
100
AcDbEntity
  8
Ｓ_１_１
  6
CONTINUOUS
 62
     3
100
AcDbVertex
100
AcDb2dVertex
 10
1304.4674755
 20
342.4433799999999
 30
0.0
  0
VERTEX
  5
653
330
61F
100
AcDbEntity
  8
Ｓ_１_１
  6
CONTINUOUS
 62
     3
100
AcDbVertex
100
AcDb2dVertex
 10
1304.5015065
 20
343.065308
 30
0.0
  0
VERTEX
  5
654
330
61F
100
AcDbEntity
  8
Ｓ_１_１
  6
CONTINUOUS
 62
     3
100
AcDbVertex
100
AcDb2dVertex
 10
1304.5260015
 20
343.7019599999998
 30
0.0
  0
VERTEX
  5
655
330
61F
100
AcDbEntity
  8
Ｓ_１_１
  6
CONTINUOUS
 62
     3
100
AcDbVertex
100
AcDb2dVertex
 10
1304.5407735
 20
344.34849
 30
0.0
  0
VERTEX
  5
656
330
61F
100
AcDbEntity
  8
Ｓ_１_１
  6
CONTINUOUS
 62
     3
100
AcDbVertex
100
AcDb2dVertex
 10
1304.5457095
 20
344.9999789999999
 30
0.0
  0
VERTEX
  5
657
330
61F
100
AcDbEntity
  8
Ｓ_１_１
  6
CONTINUOUS
 62
     3
100
AcDbVertex
100
AcDb2dVertex
 10
1304.5407735
 20
345.651468
 30
0.0
  0
VERTEX
  5
658
330
61F
100
AcDbEntity
  8
Ｓ_１_１
  6
CONTINUOUS
 62
     3
100
AcDbVertex
100
AcDb2dVertex
 10
1304.5260015
 20
346.297998
 30
0.0
  0
VERTEX
  5
659
330
61F
100
AcDbEntity
  8
Ｓ_１_１
  6
CONTINUOUS
 62
     3
100
AcDbVertex
100
AcDb2dVertex
 10
1304.5015065
 20
346.9346499999999
 30
0.0
  0
VERTEX
  5
65A
330
61F
100
AcDbEntity
  8
Ｓ_１_１
  6
CONTINUOUS
 62
     3
100
AcDbVertex
100
AcDb2dVertex
 10
1304.4674755
 20
347.5565779999999
 30
0.0
  0
VERTEX
  5
65B
330
61F
100
AcDbEntity
  8
Ｓ_１_１
  6
CONTINUOUS
 62
     3
100
AcDbVertex
100
AcDb2dVertex
 10
1304.4241665
 20
348.159048
 30
0.0
  0
VERTEX
  5
65C
330
61F
100
AcDbEntity
  8
Ｓ_１_１
  6
CONTINUOUS
 62
     3
100
AcDbVertex
100
AcDb2dVertex
 10
1304.3719095
 20
348.737476
 30
0.0
  0
VERTEX
  5
65D
330
61F
100
AcDbEntity
  8
Ｓ_１_１
  6
CONTINUOUS
 62
     3
100
AcDbVertex
100
AcDb2dVertex
 10
1304.3111025
 20
349.28746
 30
0.0
  0
VERTEX
  5
65E
330
61F
100
AcDbEntity
  8
Ｓ_１_１
  6
CONTINUOUS
 62
     3
100
AcDbVertex
100
AcDb2dVertex
 10
1304.2422075
 20
349.804813
 30
0.0
  0
VERTEX
  5
65F
330
61F
100
AcDbEntity
  8
Ｓ_１_１
  6
CONTINUOUS
 62
     3
100
AcDbVertex
100
AcDb2dVertex
 10
1304.1657505
 20
350.2855989999999
 30
0.0
  0
VERTEX
  5
660
330
61F
100
AcDbEntity
  8
Ｓ_１_１
  6
CONTINUOUS
 62
     3
100
AcDbVertex
100
AcDb2dVertex
 10
1304.0823115
 20
350.7261569999999
 30
0.0
  0
VERTEX
  5
661
330
61F
100
AcDbEntity
  8
Ｓ_１_１
  6
CONTINUOUS
 62
     3
100
AcDbVertex
100
AcDb2dVertex
 10
1303.9925255
 20
351.1231359999999
 30
0.0
  0
VERTEX
  5
662
330
61F
100
AcDbEntity
  8
Ｓ_１_１
  6
CONTINUOUS
 62
     3
100
AcDbVertex
100
AcDb2dVertex
 10
1303.8970775
 20
351.473514
 30
0.0
  0
VERTEX
  5
663
330
61F
100
AcDbEntity
  8
Ｓ_１_１
  6
CONTINUOUS
 62
     3
100
AcDbVertex
100
AcDb2dVertex
 10
1303.7966935
 20
351.774625
 30
0.0
  0
VERTEX
  5
664
330
61F
100
AcDbEntity
  8
Ｓ_１_１
  6
CONTINUOUS
 62
     3
100
AcDbVertex
100
AcDb2dVertex
 10
1303.6921365
 20
352.0241759999999
 30
0.0
  0
VERTEX
  5
665
330
61F
100
AcDbEntity
  8
Ｓ_１_１
  6
CONTINUOUS
 62
     3
100
AcDbVertex
100
AcDb2dVertex
 10
1303.5842025
 20
352.2202689999999
 30
0.0
  0
VERTEX
  5
666
330
61F
100
AcDbEntity
  8
Ｓ_１_１
  6
CONTINUOUS
 62
     3
100
AcDbVertex
100
AcDb2dVertex
 10
1303.4737135
 20
352.361412
 30
0.0
  0
VERTEX
  5
667
330
61F
100
AcDbEntity
  8
Ｓ_１_１
  6
CONTINUOUS
 62
     3
100
AcDbVertex
100
AcDb2dVertex
 10
1303.3615095
 20
352.4465289999999
 30
0.0
  0
VERTEX
  5
668
330
61F
100
AcDbEntity
  8
Ｓ_１_１
  6
CONTINUOUS
 62
     3
100
AcDbVertex
100
AcDb2dVertex
 10
1303.2484455
 20
352.474974
 30
0.0
  0
SEQEND
  5
669
330
61F
100
AcDbEntity
  8
Ｓ_１_１
  6
CONTINUOUS
 62
     3
  0
POLYLINE
  5
66A
330
1F
100
AcDbEntity
  8
Ｓ_１_１
  6
CONTINUOUS
 62
     3
100
AcDb2dPolyline
 66
     1
 10
0.0
 20
0.0
 30
0.0
 70
   128
  0
VERTEX
  5
66B
330
66A
100
AcDbEntity
  8
Ｓ_１_１
  6
CONTINUOUS
 62
     3
100
AcDbVertex
100
AcDb2dVertex
 10
1404.9999625
 20
530.500007
 30
0.0
  0
VERTEX
  5
66C
330
66A
100
AcDbEntity
  8
Ｓ_１_１
  6
CONTINUOUS
 62
     3
100
AcDbVertex
100
AcDb2dVertex
 10
1404.0275965
 20
530.4505379999999
 30
0.0
  0
VERTEX
  5
66D
330
66A
100
AcDbEntity
  8
Ｓ_１_１
  6
CONTINUOUS
 62
     3
100
AcDbVertex
100
AcDb2dVertex
 10
1403.0626295
 20
530.302508
 30
0.0
  0
VERTEX
  5
66E
330
66A
100
AcDbEntity
  8
Ｓ_１_１
  6
CONTINUOUS
 62
     3
100
AcDbVertex
100
AcDb2dVertex
 10
1402.1124085
 20
530.0570419999999
 30
0.0
  0
VERTEX
  5
66F
330
66A
100
AcDbEntity
  8
Ｓ_１_１
  6
CONTINUOUS
 62
     3
100
AcDbVertex
100
AcDb2dVertex
 10
1401.1841625
 20
529.71601
 30
0.0
  0
VERTEX
  5
670
330
66A
100
AcDbEntity
  8
Ｓ_１_１
  6
CONTINUOUS
 62
     3
100
AcDbVertex
100
AcDb2dVertex
 10
1400.2849565
 20
529.2820069999999
 30
0.0
  0
VERTEX
  5
671
330
66A
100
AcDbEntity
  8
Ｓ_１_１
  6
CONTINUOUS
 62
     3
100
AcDbVertex
100
AcDb2dVertex
 10
1399.4216355
 20
528.758336
 30
0.0
  0
VERTEX
  5
672
330
66A
100
AcDbEntity
  8
Ｓ_１_１
  6
CONTINUOUS
 62
     3
100
AcDbVertex
100
AcDb2dVertex
 10
1398.6007685
 20
528.1489809999999
 30
0.0
  0
VERTEX
  5
673
330
66A
100
AcDbEntity
  8
Ｓ_１_１
  6
CONTINUOUS
 62
     3
100
AcDbVertex
100
AcDb2dVertex
 10
1397.8286035
 20
527.458582
 30
0.0
  0
VERTEX
  5
674
330
66A
100
AcDbEntity
  8
Ｓ_１_１
  6
CONTINUOUS
 62
     3
100
AcDbVertex
100
AcDb2dVertex
 10
1397.1110165
 20
526.6923919999999
 30
0.0
  0
VERTEX
  5
675
330
66A
100
AcDbEntity
  8
Ｓ_１_１
  6
CONTINUOUS
 62
     3
100
AcDbVertex
100
AcDb2dVertex
 10
1396.4534695
 20
525.856242
 30
0.0
  0
VERTEX
  5
676
330
66A
100
AcDbEntity
  8
Ｓ_１_１
  6
CONTINUOUS
 62
     3
100
AcDbVertex
100
AcDb2dVertex
 10
1395.8609665
 20
524.9564959999999
 30
0.0
  0
VERTEX
  5
677
330
66A
100
AcDbEntity
  8
Ｓ_１_１
  6
CONTINUOUS
 62
     3
100
AcDbVertex
100
AcDb2dVertex
 10
1395.3380165
 20
524.000001
 30
0.0
  0
VERTEX
  5
678
330
66A
100
AcDbEntity
  8
Ｓ_１_１
  6
CONTINUOUS
 62
     3
100
AcDbVertex
100
AcDb2dVertex
 10
1394.8886005
 20
522.9940379999999
 30
0.0
  0
VERTEX
  5
679
330
66A
100
AcDbEntity
  8
Ｓ_１_１
  6
CONTINUOUS
 62
     3
100
AcDbVertex
100
AcDb2dVertex
 10
1394.5161365
 20
521.9462609999999
 30
0.0
  0
VERTEX
  5
67A
330
66A
100
AcDbEntity
  8
Ｓ_１_１
  6
CONTINUOUS
 62
     3
100
AcDbVertex
100
AcDb2dVertex
 10
1394.2234625
 20
520.864646
 30
0.0
  0
VERTEX
  5
67B
330
66A
100
AcDbEntity
  8
Ｓ_１_１
  6
CONTINUOUS
 62
     3
100
AcDbVertex
100
AcDb2dVertex
 10
1394.0128035
 20
519.7574239999999
 30
0.0
  0
VERTEX
  5
67C
330
66A
100
AcDbEntity
  8
Ｓ_１_１
  6
CONTINUOUS
 62
     3
100
AcDbVertex
100
AcDb2dVertex
 10
1393.8857625
 20
518.633021
 30
0.0
  0
VERTEX
  5
67D
330
66A
100
AcDbEntity
  8
Ｓ_１_１
  6
CONTINUOUS
 62
     3
100
AcDbVertex
100
AcDb2dVertex
 10
1393.8433085
 20
517.499996
 30
0.0
  0
VERTEX
  5
67E
330
66A
100
AcDbEntity
  8
Ｓ_１_１
  6
CONTINUOUS
 62
     3
100
AcDbVertex
100
AcDb2dVertex
 10
1393.8857625
 20
516.3669699999999
 30
0.0
  0
VERTEX
  5
67F
330
66A
100
AcDbEntity
  8
Ｓ_１_１
  6
CONTINUOUS
 62
     3
100
AcDbVertex
100
AcDb2dVertex
 10
1394.0128035
 20
515.242567
 30
0.0
  0
VERTEX
  5
680
330
66A
100
AcDbEntity
  8
Ｓ_１_１
  6
CONTINUOUS
 62
     3
100
AcDbVertex
100
AcDb2dVertex
 10
1394.2234625
 20
514.1353449999999
 30
0.0
  0
VERTEX
  5
681
330
66A
100
AcDbEntity
  8
Ｓ_１_１
  6
CONTINUOUS
 62
     3
100
AcDbVertex
100
AcDb2dVertex
 10
1394.5161365
 20
513.05373
 30
0.0
  0
VERTEX
  5
682
330
66A
100
AcDbEntity
  8
Ｓ_１_１
  6
CONTINUOUS
 62
     3
100
AcDbVertex
100
AcDb2dVertex
 10
1394.8886005
 20
512.005954
 30
0.0
  0
VERTEX
  5
683
330
66A
100
AcDbEntity
  8
Ｓ_１_１
  6
CONTINUOUS
 62
     3
100
AcDbVertex
100
AcDb2dVertex
 10
1395.3380165
 20
510.99999
 30
0.0
  0
VERTEX
  5
684
330
66A
100
AcDbEntity
  8
Ｓ_１_１
  6
CONTINUOUS
 62
     3
100
AcDbVertex
100
AcDb2dVertex
 10
1395.8609665
 20
510.043496
 30
0.0
  0
VERTEX
  5
685
330
66A
100
AcDbEntity
  8
Ｓ_１_１
  6
CONTINUOUS
 62
     3
100
AcDbVertex
100
AcDb2dVertex
 10
1396.4534695
 20
509.14375
 30
0.0
  0
VERTEX
  5
686
330
66A
100
AcDbEntity
  8
Ｓ_１_１
  6
CONTINUOUS
 62
     3
100
AcDbVertex
100
AcDb2dVertex
 10
1397.1110165
 20
508.3076
 30
0.0
  0
VERTEX
  5
687
330
66A
100
AcDbEntity
  8
Ｓ_１_１
  6
CONTINUOUS
 62
     3
100
AcDbVertex
100
AcDb2dVertex
 10
1397.8286035
 20
507.5414089999999
 30
0.0
  0
VERTEX
  5
688
330
66A
100
AcDbEntity
  8
Ｓ_１_１
  6
CONTINUOUS
 62
     3
100
AcDbVertex
100
AcDb2dVertex
 10
1398.6007685
 20
506.85101
 30
0.0
  0
VERTEX
  5
689
330
66A
100
AcDbEntity
  8
Ｓ_１_１
  6
CONTINUOUS
 62
     3
100
AcDbVertex
100
AcDb2dVertex
 10
1399.4216355
 20
506.241656
 30
0.0
  0
VERTEX
  5
68A
330
66A
100
AcDbEntity
  8
Ｓ_１_１
  6
CONTINUOUS
 62
     3
100
AcDbVertex
100
AcDb2dVertex
 10
1400.2849565
 20
505.7179840000001
 30
0.0
  0
VERTEX
  5
68B
330
66A
100
AcDbEntity
  8
Ｓ_１_１
  6
CONTINUOUS
 62
     3
100
AcDbVertex
100
AcDb2dVertex
 10
1401.1841625
 20
505.2839809999999
 30
0.0
  0
VERTEX
  5
68C
330
66A
100
AcDbEntity
  8
Ｓ_１_１
  6
CONTINUOUS
 62
     3
100
AcDbVertex
100
AcDb2dVertex
 10
1402.1124085
 20
504.942949
 30
0.0
  0
VERTEX
  5
68D
330
66A
100
AcDbEntity
  8
Ｓ_１_１
  6
CONTINUOUS
 62
     3
100
AcDbVertex
100
AcDb2dVertex
 10
1403.0626295
 20
504.6974839999999
 30
0.0
  0
VERTEX
  5
68E
330
66A
100
AcDbEntity
  8
Ｓ_１_１
  6
CONTINUOUS
 62
     3
100
AcDbVertex
100
AcDb2dVertex
 10
1404.0275965
 20
504.549453
 30
0.0
  0
VERTEX
  5
68F
330
66A
100
AcDbEntity
  8
Ｓ_１_１
  6
CONTINUOUS
 62
     3
100
AcDbVertex
100
AcDb2dVertex
 10
1404.9999625
 20
504.499984
 30
0.0
  0
VERTEX
  5
690
330
66A
100
AcDbEntity
  8
Ｓ_１_１
  6
CONTINUOUS
 62
     3
100
AcDbVertex
100
AcDb2dVertex
 10
1405.9723295
 20
504.549453
 30
0.0
  0
VERTEX
  5
691
330
66A
100
AcDbEntity
  8
Ｓ_１_１
  6
CONTINUOUS
 62
     3
100
AcDbVertex
100
AcDb2dVertex
 10
1406.9372955
 20
504.6974839999999
 30
0.0
  0
VERTEX
  5
692
330
66A
100
AcDbEntity
  8
Ｓ_１_１
  6
CONTINUOUS
 62
     3
100
AcDbVertex
100
AcDb2dVertex
 10
1407.8875175
 20
504.942949
 30
0.0
  0
VERTEX
  5
693
330
66A
100
AcDbEntity
  8
Ｓ_１_１
  6
CONTINUOUS
 62
     3
100
AcDbVertex
100
AcDb2dVertex
 10
1408.8157635
 20
505.2839809999999
 30
0.0
  0
VERTEX
  5
694
330
66A
100
AcDbEntity
  8
Ｓ_１_１
  6
CONTINUOUS
 62
     3
100
AcDbVertex
100
AcDb2dVertex
 10
1409.7149685
 20
505.7179840000001
 30
0.0
  0
VERTEX
  5
695
330
66A
100
AcDbEntity
  8
Ｓ_１_１
  6
CONTINUOUS
 62
     3
100
AcDbVertex
100
AcDb2dVertex
 10
1410.5782895
 20
506.241656
 30
0.0
  0
VERTEX
  5
696
330
66A
100
AcDbEntity
  8
Ｓ_１_１
  6
CONTINUOUS
 62
     3
100
AcDbVertex
100
AcDb2dVertex
 10
1411.3991565
 20
506.85101
 30
0.0
  0
VERTEX
  5
697
330
66A
100
AcDbEntity
  8
Ｓ_１_１
  6
CONTINUOUS
 62
     3
100
AcDbVertex
100
AcDb2dVertex
 10
1412.1713215
 20
507.5414089999999
 30
0.0
  0
VERTEX
  5
698
330
66A
100
AcDbEntity
  8
Ｓ_１_１
  6
CONTINUOUS
 62
     3
100
AcDbVertex
100
AcDb2dVertex
 10
1412.8889085
 20
508.3076
 30
0.0
  0
VERTEX
  5
699
330
66A
100
AcDbEntity
  8
Ｓ_１_１
  6
CONTINUOUS
 62
     3
100
AcDbVertex
100
AcDb2dVertex
 10
1413.5464555
 20
509.14375
 30
0.0
  0
VERTEX
  5
69A
330
66A
100
AcDbEntity
  8
Ｓ_１_１
  6
CONTINUOUS
 62
     3
100
AcDbVertex
100
AcDb2dVertex
 10
1414.1389585
 20
510.043496
 30
0.0
  0
VERTEX
  5
69B
330
66A
100
AcDbEntity
  8
Ｓ_１_１
  6
CONTINUOUS
 62
     3
100
AcDbVertex
100
AcDb2dVertex
 10
1414.6619085
 20
510.99999
 30
0.0
  0
VERTEX
  5
69C
330
66A
100
AcDbEntity
  8
Ｓ_１_１
  6
CONTINUOUS
 62
     3
100
AcDbVertex
100
AcDb2dVertex
 10
1415.1113255
 20
512.005954
 30
0.0
  0
VERTEX
  5
69D
330
66A
100
AcDbEntity
  8
Ｓ_１_１
  6
CONTINUOUS
 62
     3
100
AcDbVertex
100
AcDb2dVertex
 10
1415.4837885
 20
513.05373
 30
0.0
  0
VERTEX
  5
69E
330
66A
100
AcDbEntity
  8
Ｓ_１_１
  6
CONTINUOUS
 62
     3
100
AcDbVertex
100
AcDb2dVertex
 10
1415.7764635
 20
514.1353449999999
 30
0.0
  0
VERTEX
  5
69F
330
66A
100
AcDbEntity
  8
Ｓ_１_１
  6
CONTINUOUS
 62
     3
100
AcDbVertex
100
AcDb2dVertex
 10
1415.9871225
 20
515.242567
 30
0.0
  0
VERTEX
  5
6A0
330
66A
100
AcDbEntity
  8
Ｓ_１_１
  6
CONTINUOUS
 62
     3
100
AcDbVertex
100
AcDb2dVertex
 10
1416.1141625
 20
516.3669699999999
 30
0.0
  0
VERTEX
  5
6A1
330
66A
100
AcDbEntity
  8
Ｓ_１_１
  6
CONTINUOUS
 62
     3
100
AcDbVertex
100
AcDb2dVertex
 10
1416.1566165
 20
517.499996
 30
0.0
  0
VERTEX
  5
6A2
330
66A
100
AcDbEntity
  8
Ｓ_１_１
  6
CONTINUOUS
 62
     3
100
AcDbVertex
100
AcDb2dVertex
 10
1416.1141625
 20
518.633021
 30
0.0
  0
VERTEX
  5
6A3
330
66A
100
AcDbEntity
  8
Ｓ_１_１
  6
CONTINUOUS
 62
     3
100
AcDbVertex
100
AcDb2dVertex
 10
1415.9871225
 20
519.7574239999999
 30
0.0
  0
VERTEX
  5
6A4
330
66A
100
AcDbEntity
  8
Ｓ_１_１
  6
CONTINUOUS
 62
     3
100
AcDbVertex
100
AcDb2dVertex
 10
1415.7764635
 20
520.864646
 30
0.0
  0
VERTEX
  5
6A5
330
66A
100
AcDbEntity
  8
Ｓ_１_１
  6
CONTINUOUS
 62
     3
100
AcDbVertex
100
AcDb2dVertex
 10
1415.4837885
 20
521.9462609999999
 30
0.0
  0
VERTEX
  5
6A6
330
66A
100
AcDbEntity
  8
Ｓ_１_１
  6
CONTINUOUS
 62
     3
100
AcDbVertex
100
AcDb2dVertex
 10
1415.1113255
 20
522.9940379999999
 30
0.0
  0
VERTEX
  5
6A7
330
66A
100
AcDbEntity
  8
Ｓ_１_１
  6
CONTINUOUS
 62
     3
100
AcDbVertex
100
AcDb2dVertex
 10
1414.6619085
 20
524.000001
 30
0.0
  0
VERTEX
  5
6A8
330
66A
100
AcDbEntity
  8
Ｓ_１_１
  6
CONTINUOUS
 62
     3
100
AcDbVertex
100
AcDb2dVertex
 10
1414.1389585
 20
524.9564959999999
 30
0.0
  0
VERTEX
  5
6A9
330
66A
100
AcDbEntity
  8
Ｓ_１_１
  6
CONTINUOUS
 62
     3
100
AcDbVertex
100
AcDb2dVertex
 10
1413.5464555
 20
525.856242
 30
0.0
  0
VERTEX
  5
6AA
330
66A
100
AcDbEntity
  8
Ｓ_１_１
  6
CONTINUOUS
 62
     3
100
AcDbVertex
100
AcDb2dVertex
 10
1412.8889085
 20
526.6923919999999
 30
0.0
  0
VERTEX
  5
6AB
330
66A
100
AcDbEntity
  8
Ｓ_１_１
  6
CONTINUOUS
 62
     3
100
AcDbVertex
100
AcDb2dVertex
 10
1412.1713215
 20
527.458582
 30
0.0
  0
VERTEX
  5
6AC
330
66A
100
AcDbEntity
  8
Ｓ_１_１
  6
CONTINUOUS
 62
     3
100
AcDbVertex
100
AcDb2dVertex
 10
1411.3991565
 20
528.1489809999999
 30
0.0
  0
VERTEX
  5
6AD
330
66A
100
AcDbEntity
  8
Ｓ_１_１
  6
CONTINUOUS
 62
     3
100
AcDbVertex
100
AcDb2dVertex
 10
1410.5782895
 20
528.758336
 30
0.0
  0
VERTEX
  5
6AE
330
66A
100
AcDbEntity
  8
Ｓ_１_１
  6
CONTINUOUS
 62
     3
100
AcDbVertex
100
AcDb2dVertex
 10
1409.7149685
 20
529.2820069999999
 30
0.0
  0
VERTEX
  5
6AF
330
66A
100
AcDbEntity
  8
Ｓ_１_１
  6
CONTINUOUS
 62
     3
100
AcDbVertex
100
AcDb2dVertex
 10
1408.8157635
 20
529.71601
 30
0.0
  0
VERTEX
  5
6B0
330
66A
100
AcDbEntity
  8
Ｓ_１_１
  6
CONTINUOUS
 62
     3
100
AcDbVertex
100
AcDb2dVertex
 10
1407.8875175
 20
530.0570419999999
 30
0.0
  0
VERTEX
  5
6B1
330
66A
100
AcDbEntity
  8
Ｓ_１_１
  6
CONTINUOUS
 62
     3
100
AcDbVertex
100
AcDb2dVertex
 10
1406.9372955
 20
530.302508
 30
0.0
  0
VERTEX
  5
6B2
330
66A
100
AcDbEntity
  8
Ｓ_１_１
  6
CONTINUOUS
 62
     3
100
AcDbVertex
100
AcDb2dVertex
 10
1405.9723295
 20
530.4505379999999
 30
0.0
  0
VERTEX
  5
6B3
330
66A
100
AcDbEntity
  8
Ｓ_１_１
  6
CONTINUOUS
 62
     3
100
AcDbVertex
100
AcDb2dVertex
 10
1404.9999625
 20
530.500007
 30
0.0
  0
SEQEND
  5
6B4
330
66A
100
AcDbEntity
  8
Ｓ_１_１
  6
CONTINUOUS
 62
     3
  0
POLYLINE
  5
6B5
330
1F
100
AcDbEntity
  8
Ｓ_１_１
  6
CONTINUOUS
 62
     3
100
AcDb2dPolyline
 66
     1
 10
0.0
 20
0.0
 30
0.0
 70
   128
  0
VERTEX
  5
6B6
330
6B5
100
AcDbEntity
  8
Ｓ_１_１
  6
CONTINUOUS
 62
     3
100
AcDbVertex
100
AcDb2dVertex
 10
1404.9999625
 20
531.540027
 30
0.0
  0
VERTEX
  5
6B7
330
6B5
100
AcDbEntity
  8
Ｓ_１_１
  6
CONTINUOUS
 62
     3
100
AcDbVertex
100
AcDb2dVertex
 10
1403.9498045
 20
531.4866
 30
0.0
  0
VERTEX
  5
6B8
330
6B5
100
AcDbEntity
  8
Ｓ_１_１
  6
CONTINUOUS
 62
     3
100
AcDbVertex
100
AcDb2dVertex
 10
1402.9076385
 20
531.326727
 30
0.0
  0
VERTEX
  5
6B9
330
6B5
100
AcDbEntity
  8
Ｓ_１_１
  6
CONTINUOUS
 62
     3
100
AcDbVertex
100
AcDb2dVertex
 10
1401.8813955
 20
531.0616239999999
 30
0.0
  0
VERTEX
  5
6BA
330
6B5
100
AcDbEntity
  8
Ｓ_１_１
  6
CONTINUOUS
 62
     3
100
AcDbVertex
100
AcDb2dVertex
 10
1400.8788875
 20
530.693309
 30
0.0
  0
VERTEX
  5
6BB
330
6B5
100
AcDbEntity
  8
Ｓ_１_１
  6
CONTINUOUS
 62
     3
100
AcDbVertex
100
AcDb2dVertex
 10
1399.9077435
 20
530.2245849999999
 30
0.0
  0
VERTEX
  5
6BC
330
6B5
100
AcDbEntity
  8
Ｓ_１_１
  6
CONTINUOUS
 62
     3
100
AcDbVertex
100
AcDb2dVertex
 10
1398.9753545
 20
529.659019
 30
0.0
  0
VERTEX
  5
6BD
330
6B5
100
AcDbEntity
  8
Ｓ_１_１
  6
CONTINUOUS
 62
     3
100
AcDbVertex
100
AcDb2dVertex
 10
1398.0888155
 20
529.000916
 30
0.0
  0
VERTEX
  5
6BE
330
6B5
100
AcDbEntity
  8
Ｓ_１_１
  6
CONTINUOUS
 62
     3
100
AcDbVertex
100
AcDb2dVertex
 10
1397.2548755
 20
528.255284
 30
0.0
  0
VERTEX
  5
6BF
330
6B5
100
AcDbEntity
  8
Ｓ_１_１
  6
CONTINUOUS
 62
     3
100
AcDbVertex
100
AcDb2dVertex
 10
1396.4798795
 20
527.4277969999999
 30
0.0
  0
VERTEX
  5
6C0
330
6B5
100
AcDbEntity
  8
Ｓ_１_１
  6
CONTINUOUS
 62
     3
100
AcDbVertex
100
AcDb2dVertex
 10
1395.7697265
 20
526.5247539999999
 30
0.0
  0
VERTEX
  5
6C1
330
6B5
100
AcDbEntity
  8
Ｓ_１_１
  6
CONTINUOUS
 62
     3
100
AcDbVertex
100
AcDb2dVertex
 10
1395.1298215
 20
525.5530269999999
 30
0.0
  0
VERTEX
  5
6C2
330
6B5
100
AcDbEntity
  8
Ｓ_１_１
  6
CONTINUOUS
 62
     3
100
AcDbVertex
100
AcDb2dVertex
 10
1394.5650345
 20
524.520011
 30
0.0
  0
VERTEX
  5
6C3
330
6B5
100
AcDbEntity
  8
Ｓ_１_１
  6
CONTINUOUS
 62
     3
100
AcDbVertex
100
AcDb2dVertex
 10
1394.0796635
 20
523.4335689999999
 30
0.0
  0
VERTEX
  5
6C4
330
6B5
100
AcDbEntity
  8
Ｓ_１_１
  6
CONTINUOUS
 62
     3
100
AcDbVertex
100
AcDb2dVertex
 10
1393.6774025
 20
522.301969
 30
0.0
  0
VERTEX
  5
6C5
330
6B5
100
AcDbEntity
  8
Ｓ_１_１
  6
CONTINUOUS
 62
     3
100
AcDbVertex
100
AcDb2dVertex
 10
1393.3613125
 20
521.133823
 30
0.0
  0
VERTEX
  5
6C6
330
6B5
100
AcDbEntity
  8
Ｓ_１_１
  6
CONTINUOUS
 62
     3
100
AcDbVertex
100
AcDb2dVertex
 10
1393.1338005
 20
519.9380219999999
 30
0.0
  0
VERTEX
  5
6C7
330
6B5
100
AcDbEntity
  8
Ｓ_１_１
  6
CONTINUOUS
 62
     3
100
AcDbVertex
100
AcDb2dVertex
 10
1392.9965965
 20
518.723665
 30
0.0
  0
VERTEX
  5
6C8
330
6B5
100
AcDbEntity
  8
Ｓ_１_１
  6
CONTINUOUS
 62
     3
100
AcDbVertex
100
AcDb2dVertex
 10
1392.9507455
 20
517.499996
 30
0.0
  0
VERTEX
  5
6C9
330
6B5
100
AcDbEntity
  8
Ｓ_１_１
  6
CONTINUOUS
 62
     3
100
AcDbVertex
100
AcDb2dVertex
 10
1392.9965965
 20
516.2763259999999
 30
0.0
  0
VERTEX
  5
6CA
330
6B5
100
AcDbEntity
  8
Ｓ_１_１
  6
CONTINUOUS
 62
     3
100
AcDbVertex
100
AcDb2dVertex
 10
1393.1338005
 20
515.06197
 30
0.0
  0
VERTEX
  5
6CB
330
6B5
100
AcDbEntity
  8
Ｓ_１_１
  6
CONTINUOUS
 62
     3
100
AcDbVertex
100
AcDb2dVertex
 10
1393.3613125
 20
513.8661679999999
 30
0.0
  0
VERTEX
  5
6CC
330
6B5
100
AcDbEntity
  8
Ｓ_１_１
  6
CONTINUOUS
 62
     3
100
AcDbVertex
100
AcDb2dVertex
 10
1393.6774025
 20
512.6980219999999
 30
0.0
  0
VERTEX
  5
6CD
330
6B5
100
AcDbEntity
  8
Ｓ_１_１
  6
CONTINUOUS
 62
     3
100
AcDbVertex
100
AcDb2dVertex
 10
1394.0796635
 20
511.566422
 30
0.0
  0
VERTEX
  5
6CE
330
6B5
100
AcDbEntity
  8
Ｓ_１_１
  6
CONTINUOUS
 62
     3
100
AcDbVertex
100
AcDb2dVertex
 10
1394.5650345
 20
510.47998
 30
0.0
  0
VERTEX
  5
6CF
330
6B5
100
AcDbEntity
  8
Ｓ_１_１
  6
CONTINUOUS
 62
     3
100
AcDbVertex
100
AcDb2dVertex
 10
1395.1298215
 20
509.446965
 30
0.0
  0
VERTEX
  5
6D0
330
6B5
100
AcDbEntity
  8
Ｓ_１_１
  6
CONTINUOUS
 62
     3
100
AcDbVertex
100
AcDb2dVertex
 10
1395.7697265
 20
508.475238
 30
0.0
  0
VERTEX
  5
6D1
330
6B5
100
AcDbEntity
  8
Ｓ_１_１
  6
CONTINUOUS
 62
     3
100
AcDbVertex
100
AcDb2dVertex
 10
1396.4798795
 20
507.572194
 30
0.0
  0
VERTEX
  5
6D2
330
6B5
100
AcDbEntity
  8
Ｓ_１_１
  6
CONTINUOUS
 62
     3
100
AcDbVertex
100
AcDb2dVertex
 10
1397.2548755
 20
506.7447079999999
 30
0.0
  0
VERTEX
  5
6D3
330
6B5
100
AcDbEntity
  8
Ｓ_１_１
  6
CONTINUOUS
 62
     3
100
AcDbVertex
100
AcDb2dVertex
 10
1398.0888155
 20
505.999075
 30
0.0
  0
VERTEX
  5
6D4
330
6B5
100
AcDbEntity
  8
Ｓ_１_１
  6
CONTINUOUS
 62
     3
100
AcDbVertex
100
AcDb2dVertex
 10
1398.9753545
 20
505.340972
 30
0.0
  0
VERTEX
  5
6D5
330
6B5
100
AcDbEntity
  8
Ｓ_１_１
  6
CONTINUOUS
 62
     3
100
AcDbVertex
100
AcDb2dVertex
 10
1399.9077435
 20
504.775406
 30
0.0
  0
VERTEX
  5
6D6
330
6B5
100
AcDbEntity
  8
Ｓ_１_１
  6
CONTINUOUS
 62
     3
100
AcDbVertex
100
AcDb2dVertex
 10
1400.8788875
 20
504.3066819999999
 30
0.0
  0
VERTEX
  5
6D7
330
6B5
100
AcDbEntity
  8
Ｓ_１_１
  6
CONTINUOUS
 62
     3
100
AcDbVertex
100
AcDb2dVertex
 10
1401.8813955
 20
503.938367
 30
0.0
  0
VERTEX
  5
6D8
330
6B5
100
AcDbEntity
  8
Ｓ_１_１
  6
CONTINUOUS
 62
     3
100
AcDbVertex
100
AcDb2dVertex
 10
1402.9076385
 20
503.673264
 30
0.0
  0
VERTEX
  5
6D9
330
6B5
100
AcDbEntity
  8
Ｓ_１_１
  6
CONTINUOUS
 62
     3
100
AcDbVertex
100
AcDb2dVertex
 10
1403.9498045
 20
503.513391
 30
0.0
  0
VERTEX
  5
6DA
330
6B5
100
AcDbEntity
  8
Ｓ_１_１
  6
CONTINUOUS
 62
     3
100
AcDbVertex
100
AcDb2dVertex
 10
1404.9999625
 20
503.4599639999999
 30
0.0
  0
VERTEX
  5
6DB
330
6B5
100
AcDbEntity
  8
Ｓ_１_１
  6
CONTINUOUS
 62
     3
100
AcDbVertex
100
AcDb2dVertex
 10
1406.0501215
 20
503.513391
 30
0.0
  0
VERTEX
  5
6DC
330
6B5
100
AcDbEntity
  8
Ｓ_１_１
  6
CONTINUOUS
 62
     3
100
AcDbVertex
100
AcDb2dVertex
 10
1407.0922875
 20
503.673264
 30
0.0
  0
VERTEX
  5
6DD
330
6B5
100
AcDbEntity
  8
Ｓ_１_１
  6
CONTINUOUS
 62
     3
100
AcDbVertex
100
AcDb2dVertex
 10
1408.1185295
 20
503.938367
 30
0.0
  0
VERTEX
  5
6DE
330
6B5
100
AcDbEntity
  8
Ｓ_１_１
  6
CONTINUOUS
 62
     3
100
AcDbVertex
100
AcDb2dVertex
 10
1409.1210375
 20
504.3066819999999
 30
0.0
  0
VERTEX
  5
6DF
330
6B5
100
AcDbEntity
  8
Ｓ_１_１
  6
CONTINUOUS
 62
     3
100
AcDbVertex
100
AcDb2dVertex
 10
1410.0921815
 20
504.775406
 30
0.0
  0
VERTEX
  5
6E0
330
6B5
100
AcDbEntity
  8
Ｓ_１_１
  6
CONTINUOUS
 62
     3
100
AcDbVertex
100
AcDb2dVertex
 10
1411.0245715
 20
505.340972
 30
0.0
  0
VERTEX
  5
6E1
330
6B5
100
AcDbEntity
  8
Ｓ_１_１
  6
CONTINUOUS
 62
     3
100
AcDbVertex
100
AcDb2dVertex
 10
1411.9111095
 20
505.999075
 30
0.0
  0
VERTEX
  5
6E2
330
6B5
100
AcDbEntity
  8
Ｓ_１_１
  6
CONTINUOUS
 62
     3
100
AcDbVertex
100
AcDb2dVertex
 10
1412.7450505
 20
506.7447079999999
 30
0.0
  0
VERTEX
  5
6E3
330
6B5
100
AcDbEntity
  8
Ｓ_１_１
  6
CONTINUOUS
 62
     3
100
AcDbVertex
100
AcDb2dVertex
 10
1413.5200455
 20
507.572194
 30
0.0
  0
VERTEX
  5
6E4
330
6B5
100
AcDbEntity
  8
Ｓ_１_１
  6
CONTINUOUS
 62
     3
100
AcDbVertex
100
AcDb2dVertex
 10
1414.2301985
 20
508.475238
 30
0.0
  0
VERTEX
  5
6E5
330
6B5
100
AcDbEntity
  8
Ｓ_１_１
  6
CONTINUOUS
 62
     3
100
AcDbVertex
100
AcDb2dVertex
 10
1414.8701035
 20
509.446965
 30
0.0
  0
VERTEX
  5
6E6
330
6B5
100
AcDbEntity
  8
Ｓ_１_１
  6
CONTINUOUS
 62
     3
100
AcDbVertex
100
AcDb2dVertex
 10
1415.4348905
 20
510.47998
 30
0.0
  0
VERTEX
  5
6E7
330
6B5
100
AcDbEntity
  8
Ｓ_１_１
  6
CONTINUOUS
 62
     3
100
AcDbVertex
100
AcDb2dVertex
 10
1415.9202615
 20
511.566422
 30
0.0
  0
VERTEX
  5
6E8
330
6B5
100
AcDbEntity
  8
Ｓ_１_１
  6
CONTINUOUS
 62
     3
100
AcDbVertex
100
AcDb2dVertex
 10
1416.3225225
 20
512.6980219999999
 30
0.0
  0
VERTEX
  5
6E9
330
6B5
100
AcDbEntity
  8
Ｓ_１_１
  6
CONTINUOUS
 62
     3
100
AcDbVertex
100
AcDb2dVertex
 10
1416.6386125
 20
513.8661679999999
 30
0.0
  0
VERTEX
  5
6EA
330
6B5
100
AcDbEntity
  8
Ｓ_１_１
  6
CONTINUOUS
 62
     3
100
AcDbVertex
100
AcDb2dVertex
 10
1416.8661245
 20
515.06197
 30
0.0
  0
VERTEX
  5
6EB
330
6B5
100
AcDbEntity
  8
Ｓ_１_１
  6
CONTINUOUS
 62
     3
100
AcDbVertex
100
AcDb2dVertex
 10
1417.0033285
 20
516.2763259999999
 30
0.0
  0
VERTEX
  5
6EC
330
6B5
100
AcDbEntity
  8
Ｓ_１_１
  6
CONTINUOUS
 62
     3
100
AcDbVertex
100
AcDb2dVertex
 10
1417.0491795
 20
517.499996
 30
0.0
  0
VERTEX
  5
6ED
330
6B5
100
AcDbEntity
  8
Ｓ_１_１
  6
CONTINUOUS
 62
     3
100
AcDbVertex
100
AcDb2dVertex
 10
1417.0033285
 20
518.723665
 30
0.0
  0
VERTEX
  5
6EE
330
6B5
100
AcDbEntity
  8
Ｓ_１_１
  6
CONTINUOUS
 62
     3
100
AcDbVertex
100
AcDb2dVertex
 10
1416.8661245
 20
519.9380219999999
 30
0.0
  0
VERTEX
  5
6EF
330
6B5
100
AcDbEntity
  8
Ｓ_１_１
  6
CONTINUOUS
 62
     3
100
AcDbVertex
100
AcDb2dVertex
 10
1416.6386125
 20
521.133823
 30
0.0
  0
VERTEX
  5
6F0
330
6B5
100
AcDbEntity
  8
Ｓ_１_１
  6
CONTINUOUS
 62
     3
100
AcDbVertex
100
AcDb2dVertex
 10
1416.3225225
 20
522.301969
 30
0.0
  0
VERTEX
  5
6F1
330
6B5
100
AcDbEntity
  8
Ｓ_１_１
  6
CONTINUOUS
 62
     3
100
AcDbVertex
100
AcDb2dVertex
 10
1415.9202615
 20
523.4335689999999
 30
0.0
  0
VERTEX
  5
6F2
330
6B5
100
AcDbEntity
  8
Ｓ_１_１
  6
CONTINUOUS
 62
     3
100
AcDbVertex
100
AcDb2dVertex
 10
1415.4348905
 20
524.520011
 30
0.0
  0
VERTEX
  5
6F3
330
6B5
100
AcDbEntity
  8
Ｓ_１_１
  6
CONTINUOUS
 62
     3
100
AcDbVertex
100
AcDb2dVertex
 10
1414.8701035
 20
525.5530269999999
 30
0.0
  0
VERTEX
  5
6F4
330
6B5
100
AcDbEntity
  8
Ｓ_１_１
  6
CONTINUOUS
 62
     3
100
AcDbVertex
100
AcDb2dVertex
 10
1414.2301985
 20
526.5247539999999
 30
0.0
  0
VERTEX
  5
6F5
330
6B5
100
AcDbEntity
  8
Ｓ_１_１
  6
CONTINUOUS
 62
     3
100
AcDbVertex
100
AcDb2dVertex
 10
1413.5200455
 20
527.4277969999999
 30
0.0
  0
VERTEX
  5
6F6
330
6B5
100
AcDbEntity
  8
Ｓ_１_１
  6
CONTINUOUS
 62
     3
100
AcDbVertex
100
AcDb2dVertex
 10
1412.7450505
 20
528.255284
 30
0.0
  0
VERTEX
  5
6F7
330
6B5
100
AcDbEntity
  8
Ｓ_１_１
  6
CONTINUOUS
 62
     3
100
AcDbVertex
100
AcDb2dVertex
 10
1411.9111095
 20
529.000916
 30
0.0
  0
VERTEX
  5
6F8
330
6B5
100
AcDbEntity
  8
Ｓ_１_１
  6
CONTINUOUS
 62
     3
100
AcDbVertex
100
AcDb2dVertex
 10
1411.0245715
 20
529.659019
 30
0.0
  0
VERTEX
  5
6F9
330
6B5
100
AcDbEntity
  8
Ｓ_１_１
  6
CONTINUOUS
 62
     3
100
AcDbVertex
100
AcDb2dVertex
 10
1410.0921815
 20
530.2245849999999
 30
0.0
  0
VERTEX
  5
6FA
330
6B5
100
AcDbEntity
  8
Ｓ_１_１
  6
CONTINUOUS
 62
     3
100
AcDbVertex
100
AcDb2dVertex
 10
1409.1210375
 20
530.693309
 30
0.0
  0
VERTEX
  5
6FB
330
6B5
100
AcDbEntity
  8
Ｓ_１_１
  6
CONTINUOUS
 62
     3
100
AcDbVertex
100
AcDb2dVertex
 10
1408.1185295
 20
531.0616239999999
 30
0.0
  0
VERTEX
  5
6FC
330
6B5
100
AcDbEntity
  8
Ｓ_１_１
  6
CONTINUOUS
 62
     3
100
AcDbVertex
100
AcDb2dVertex
 10
1407.0922875
 20
531.326727
 30
0.0
  0
VERTEX
  5
6FD
330
6B5
100
AcDbEntity
  8
Ｓ_１_１
  6
CONTINUOUS
 62
     3
100
AcDbVertex
100
AcDb2dVertex
 10
1406.0501215
 20
531.4866
 30
0.0
  0
VERTEX
  5
6FE
330
6B5
100
AcDbEntity
  8
Ｓ_１_１
  6
CONTINUOUS
 62
     3
100
AcDbVertex
100
AcDb2dVertex
 10
1404.9999625
 20
531.540027
 30
0.0
  0
SEQEND
  5
6FF
330
6B5
100
AcDbEntity
  8
Ｓ_１_１
  6
CONTINUOUS
 62
     3
  0
ARC
  5
700
330
1F
100
AcDbEntity
  8
Ｓ_１_１
  6
CONTINUOUS
 62
     3
100
AcDbCircle
 10
1504.9999615
 20
424.999997
 30
0.0
 40
20.0
100
AcDbArc
 50
293.5781790000003
 51
66.42182099999998
  0
ARC
  5
701
330
1F
100
AcDbEntity
  8
Ｓ_１_１
  6
CONTINUOUS
 62
     3
100
AcDbCircle
 10
1504.9999615
 20
424.999997
 30
0.0
 40
14.37999900000001
100
AcDbArc
 50
303.8022490000001
 51
56.19775100000001
  0
ARC
  5
702
330
1F
100
AcDbEntity
  8
Ｓ_１_１
  6
CONTINUOUS
 62
     3
100
AcDbCircle
 10
1504.9999615
 20
452.9999889999999
 30
0.0
 40
8.0
100
AcDbArc
 50
0.0
 51
180.000005
  0
ARC
  5
703
330
1F
100
AcDbEntity
  8
Ｓ_１_１
  6
CONTINUOUS
 62
     3
100
AcDbCircle
 10
1504.9999615
 20
424.999997
 30
0.0
 40
17.5
100
AcDbArc
 50
297.2028920000001
 51
62.79710799999999
  0
ARC
  5
704
330
1F
100
AcDbEntity
  8
Ｓ_１_１
  6
CONTINUOUS
 62
     3
100
AcDbCircle
 10
1706.9999655
 20
247.9999919999999
 30
0.0
 40
3.000000000000003
100
AcDbArc
 50
269.999997
 51
0.0
  0
ARC
  5
705
330
1F
100
AcDbEntity
  8
Ｓ_１_１
  6
CONTINUOUS
 62
     3
100
AcDbCircle
 10
1504.9999615
 20
665.0000319999999
 30
0.0
 40
159.999998
100
AcDbArc
 50
316.567462
 51
319.92798
  0
ARC
  5
706
330
1F
100
AcDbEntity
  8
Ｓ_１_１
  6
CONTINUOUS
 62
     3
100
AcDbCircle
 10
1504.9999615
 20
665.0000319999999
 30
0.0
 40
159.999998
100
AcDbArc
 50
220.0720180000002
 51
223.4325400000001
  0
ARC
  5
707
330
1F
100
AcDbEntity
  8
Ｓ_１_１
  6
CONTINUOUS
 62
     3
100
AcDbCircle
 10
1302.9999565
 20
247.9999919999999
 30
0.0
 40
3.000000000000003
100
AcDbArc
 50
179.999991
 51
270.0000010000001
  0
ARC
  5
708
330
1F
100
AcDbEntity
  8
Ｓ_１_１
  6
CONTINUOUS
 62
     3
100
AcDbCircle
 10
1504.9999615
 20
424.999997
 30
0.0
 40
17.5
100
AcDbArc
 50
117.202891
 51
242.7971060000002
  0
ARC
  5
709
330
1F
100
AcDbEntity
  8
Ｓ_１_１
  6
CONTINUOUS
 62
     3
100
AcDbCircle
 10
1504.9999615
 20
396.996839
 30
0.0
 40
8.0
100
AcDbArc
 50
179.999991
 51
0.0
  0
ARC
  5
70A
330
1F
100
AcDbEntity
  8
Ｓ_１_１
  6
CONTINUOUS
 62
     3
100
AcDbCircle
 10
1504.9999615
 20
424.999997
 30
0.0
 40
14.37999900000001
100
AcDbArc
 50
123.802247
 51
236.1977500000003
  0
ARC
  5
70B
330
1F
100
AcDbEntity
  8
Ｓ_１_１
  6
CONTINUOUS
 62
     3
100
AcDbCircle
 10
1504.9999615
 20
424.999997
 30
0.0
 40
20.0
100
AcDbArc
 50
113.578178
 51
246.4218320000001
  0
CIRCLE
  5
70C
330
1F
100
AcDbEntity
  8
Ｓ_１_１
  6
CONTINUOUS
 62
     3
100
AcDbCircle
 10
1504.9999615
 20
517.499996
 30
0.0
 40
20.0
  0
CIRCLE
  5
70D
330
1F
100
AcDbEntity
  8
Ｓ_１_１
  6
CONTINUOUS
 62
     3
100
AcDbCircle
 10
1504.9999615
 20
517.499996
 30
0.0
 40
10.0
  0
CIRCLE
  5
70E
330
1F
100
AcDbEntity
  8
Ｓ_１_１
  6
CONTINUOUS
 62
     3
100
AcDbCircle
 10
1504.9999615
 20
517.499996
 30
0.0
 40
8.75
  0
LINE
  5
70F
330
1F
100
AcDbEntity
  8
Ｓ_１_１
  6
CONTINUOUS
 62
     3
100
AcDbLine
 10
1512.9999535
 20
452.9999889999999
 30
0.0
 11
1512.9999535
 21
396.996839
 31
0.0
  0
LINE
  5
710
330
1F
100
AcDbEntity
  8
Ｓ_１_１
  6
CONTINUOUS
 62
     3
100
AcDbLine
 10
1709.9999695
 20
481.999962
 30
0.0
 11
1706.9999225
 21
485.000009
 31
0.0
  0
LINE
  5
711
330
1F
100
AcDbEntity
  8
Ｓ_１_１
  6
CONTINUOUS
 62
     3
100
AcDbLine
 10
1709.9999585
 20
481.999966
 30
0.0
 11
1709.9999585
 21
247.9999919999999
 31
0.0
  0
LINE
  5
712
330
1F
100
AcDbEntity
  8
Ｓ_１_１
  6
CONTINUOUS
 62
     3
100
AcDbLine
 10
1637.4999595
 20
551.000018
 30
0.0
 11
1637.4999595
 21
550.0000329999999
 31
0.0
  0
LINE
  5
713
330
1F
100
AcDbEntity
  8
Ｓ_１_１
  6
CONTINUOUS
 62
     3
100
AcDbLine
 10
1634.4999665
 20
553.999972
 30
0.0
 11
1634.4999665
 21
550.0000329999999
 31
0.0
  0
LINE
  5
714
330
1F
100
AcDbEntity
  8
Ｓ_１_１
  6
CONTINUOUS
 62
     3
100
AcDbLine
 10
1637.4999735
 20
550.999976
 30
0.0
 11
1633.4999475
 21
555.000002
 31
0.0
  0
LINE
  5
715
330
1F
100
AcDbEntity
  8
Ｓ_１_１
  6
CONTINUOUS
 62
     3
100
AcDbLine
 10
1704.9999585
 20
602.000002
 30
0.0
 11
1704.9999585
 21
575.0000329999999
 31
0.0
  0
LINE
  5
716
330
1F
100
AcDbEntity
  8
Ｓ_１_１
  6
CONTINUOUS
 62
     3
100
AcDbLine
 10
1704.9999635
 20
574.999997
 30
0.0
 11
1694.9999535
 21
564.9999859999999
 31
0.0
  0
LINE
  5
717
330
1F
100
AcDbEntity
  8
Ｓ_１_１
  6
CONTINUOUS
 62
     3
100
AcDbLine
 10
1701.9999715
 20
604.999975
 30
0.0
 11
1704.9999635
 21
601.9999819999999
 31
0.0
  0
LINE
  5
718
330
1F
100
AcDbEntity
  8
Ｓ_１_１
  6
CONTINUOUS
 62
     3
100
AcDbLine
 10
1694.9999315
 20
564.999998
 30
0.0
 11
1627.4376825
 21
561.999999
 31
0.0
  0
LINE
  5
719
330
1F
100
AcDbEntity
  8
Ｓ_１_１
  6
CONTINUOUS
 62
     3
100
AcDbLine
 10
1704.9999585
 20
545.0000329999999
 30
0.0
 11
1704.9999585
 21
517.499996
 31
0.0
  0
LINE
  5
71A
330
1F
100
AcDbEntity
  8
Ｓ_１_１
  6
CONTINUOUS
 62
     3
100
AcDbLine
 10
1704.9999635
 20
544.999965
 30
0.0
 11
1699.9999585
 21
549.99997
 31
0.0
  0
LINE
  5
71B
330
1F
100
AcDbEntity
  8
Ｓ_１_１
  6
CONTINUOUS
 62
     3
100
AcDbLine
 10
1704.9999365
 20
489.9999869999999
 30
0.0
 11
1699.9999315
 21
484.9999819999999
 31
0.0
  0
LINE
  5
71C
330
1F
100
AcDbEntity
  8
Ｓ_１_１
  6
CONTINUOUS
 62
     3
100
AcDbLine
 10
1704.9999585
 20
517.499996
 30
0.0
 11
1704.9999585
 21
489.999996
 31
0.0
  0
LINE
  5
71D
330
1F
100
AcDbEntity
  8
Ｓ_１_１
  6
CONTINUOUS
 62
     3
100
AcDbLine
 10
1304.9999255
 20
517.499996
 30
0.0
 11
1304.9999255
 21
489.999996
 31
0.0
  0
LINE
  5
71E
330
1F
100
AcDbEntity
  8
Ｓ_１_１
  6
CONTINUOUS
 62
     3
100
AcDbLine
 10
1304.9999425
 20
489.9999869999999
 30
0.0
 11
1309.9999485
 21
484.9999819999999
 31
0.0
  0
LINE
  5
71F
330
1F
100
AcDbEntity
  8
Ｓ_１_１
  6
CONTINUOUS
 62
     3
100
AcDbLine
 10
1304.9999695
 20
544.999965
 30
0.0
 11
1309.9999755
 21
549.99997
 31
0.0
  0
LINE
  5
720
330
1F
100
AcDbEntity
  8
Ｓ_１_１
  6
CONTINUOUS
 62
     3
100
AcDbLine
 10
1304.9999255
 20
545.0000329999999
 30
0.0
 11
1304.9999255
 21
517.499996
 31
0.0
  0
LINE
  5
721
330
1F
100
AcDbEntity
  8
Ｓ_１_１
  6
CONTINUOUS
 62
     3
100
AcDbLine
 10
1699.9999585
 20
550.0000329999999
 30
0.0
 11
1309.9999255
 21
550.0000329999999
 31
0.0
  0
LINE
  5
722
330
1F
100
AcDbEntity
  8
Ｓ_１_１
  6
CONTINUOUS
 62
     3
100
AcDbLine
 10
1314.9999585
 20
564.9999879999999
 30
0.0
 11
1382.5622455
 21
561.9999869999999
 31
0.0
  0
LINE
  5
723
330
1F
100
AcDbEntity
  8
Ｓ_１_１
  6
CONTINUOUS
 62
     3
100
AcDbLine
 10
1307.9999625
 20
604.999975
 30
0.0
 11
1304.9999695
 21
601.9999819999999
 31
0.0
  0
LINE
  5
724
330
1F
100
AcDbEntity
  8
Ｓ_１_１
  6
CONTINUOUS
 62
     3
100
AcDbLine
 10
1304.9999565
 20
574.9999829999999
 30
0.0
 11
1314.9999675
 21
564.999972
 31
0.0
  0
LINE
  5
725
330
1F
100
AcDbEntity
  8
Ｓ_１_１
  6
CONTINUOUS
 62
     3
100
AcDbLine
 10
1304.9999255
 20
602.000002
 30
0.0
 11
1304.9999255
 21
575.0000329999999
 31
0.0
  0
LINE
  5
726
330
1F
100
AcDbEntity
  8
Ｓ_１_１
  6
CONTINUOUS
 62
     3
100
AcDbLine
 10
1701.9999655
 20
605.0000329999999
 30
0.0
 11
1307.9999565
 21
605.0000329999999
 31
0.0
  0
LINE
  5
727
330
1F
100
AcDbEntity
  8
Ｓ_１_１
  6
CONTINUOUS
 62
     3
100
AcDbLine
 10
1372.4999375
 20
551.000007
 30
0.0
 11
1376.4999365
 21
555.000006
 31
0.0
  0
LINE
  5
728
330
1F
100
AcDbEntity
  8
Ｓ_１_１
  6
CONTINUOUS
 62
     3
100
AcDbLine
 10
1375.4999555
 20
553.999972
 30
0.0
 11
1375.4999555
 21
550.0000329999999
 31
0.0
  0
LINE
  5
729
330
1F
100
AcDbEntity
  8
Ｓ_１_１
  6
CONTINUOUS
 62
     3
100
AcDbLine
 10
1372.4999245
 20
551.000018
 30
0.0
 11
1372.4999245
 21
550.0000329999999
 31
0.0
  0
LINE
  5
72A
330
1F
100
AcDbEntity
  8
Ｓ_１_１
  6
CONTINUOUS
 62
     3
100
AcDbLine
 10
1633.4999435
 20
555.0000329999999
 30
0.0
 11
1376.4999405
 21
555.0000329999999
 31
0.0
  0
LINE
  5
72B
330
1F
100
AcDbEntity
  8
Ｓ_１_１
  6
CONTINUOUS
 62
     3
100
AcDbLine
 10
1304.9999255
 20
545.0000329999999
 30
0.0
 11
1704.9999585
 21
545.0000329999999
 31
0.0
  0
LINE
  5
72C
330
1F
100
AcDbEntity
  8
Ｓ_１_１
  6
CONTINUOUS
 62
     3
100
AcDbLine
 10
1304.9999255
 20
489.999996
 30
0.0
 11
1704.9999585
 21
489.999996
 31
0.0
  0
LINE
  5
72D
330
1F
100
AcDbEntity
  8
Ｓ_１_１
  6
CONTINUOUS
 62
     3
100
AcDbLine
 10
1372.4999245
 20
551.000018
 30
0.0
 11
1637.4999595
 21
551.000018
 31
0.0
  0
LINE
  5
72E
330
1F
100
AcDbEntity
  8
Ｓ_１_１
  6
CONTINUOUS
 62
     3
100
AcDbLine
 10
1304.9999255
 20
602.000002
 30
0.0
 11
1704.9999585
 21
602.000002
 31
0.0
  0
LINE
  5
72F
330
1F
100
AcDbEntity
  8
Ｓ_１_１
  6
CONTINUOUS
 62
     3
100
AcDbLine
 10
1304.9999255
 20
575.0000329999999
 30
0.0
 11
1704.9999585
 21
575.0000329999999
 31
0.0
  0
LINE
  5
730
330
1F
100
AcDbEntity
  8
Ｓ_１_１
  6
CONTINUOUS
 62
     3
100
AcDbLine
 10
1314.9999255
 20
565.0000329999999
 30
0.0
 11
1694.9999585
 21
565.0000329999999
 31
0.0
  0
LINE
  5
731
330
1F
100
AcDbEntity
  8
Ｓ_１_１
  6
CONTINUOUS
 62
     3
100
AcDbLine
 10
1299.9999265
 20
481.999966
 30
0.0
 11
1709.9999585
 21
481.999966
 31
0.0
  0
LINE
  5
732
330
1F
100
AcDbEntity
  8
Ｓ_１_１
  6
CONTINUOUS
 62
     3
100
AcDbLine
 10
1706.9999655
 20
484.999996
 30
0.0
 11
1302.9999565
 21
484.999996
 31
0.0
  0
LINE
  5
733
330
1F
100
AcDbEntity
  8
Ｓ_１_１
  6
CONTINUOUS
 62
     3
100
AcDbLine
 10
1299.9999265
 20
481.999966
 30
0.0
 11
1299.9999265
 21
247.9999919999999
 31
0.0
  0
LINE
  5
734
330
1F
100
AcDbEntity
  8
Ｓ_１_１
  6
CONTINUOUS
 62
     3
100
AcDbLine
 10
1302.9999565
 20
244.9999999999999
 30
0.0
 11
1706.9999655
 21
244.9999999999999
 31
0.0
  0
LINE
  5
735
330
1F
100
AcDbEntity
  8
Ｓ_１_１
  6
CONTINUOUS
 62
     3
100
AcDbLine
 10
1299.9999785
 20
481.9999759999999
 30
0.0
 11
1302.9999705
 21
484.999968
 31
0.0
  0
LINE
  5
736
330
1F
100
AcDbEntity
  8
Ｓ_１_１
  6
CONTINUOUS
 62
     3
100
AcDbLine
 10
1382.5621805
 20
562.000003
 30
0.0
 11
1627.4377035
 21
562.000003
 31
0.0
  0
LINE
  5
737
330
1F
100
AcDbEntity
  8
Ｓ_１_１
  6
CONTINUOUS
 62
     3
100
AcDbLine
 10
1496.9999685
 20
452.9999889999999
 30
0.0
 11
1496.9999685
 21
396.996839
 31
0.0
  0
LEADER
  5
738
330
1F
100
AcDbEntity
  8
Ｓ_１_１
  6
CONTINUOUS
 62
     2
100
AcDbLeader
  3
ISO-25
 76
     3
 10
899.9999585
 20
532.4999999999999
 30
0.0
 10
963.4999615
 20
584.5
 30
0.0
 10
1084.4999615
 20
584.5
 30
0.0
1001
ACAD
1000
DSTYLE
1002
{
1070
     5
1000
EX_NORM
1070
    41
1040
15.0
1070
   341
1005
78
1002
}
  0
TEXT
  5
739
330
1F
100
AcDbEntity
  8
Ｓ_１_１
  6
CONTINUOUS
 62
     4
100
AcDbText
 10
971.5203282843797
 20
591.7750661949699
 30
0.0
 40
17.3145207852194
  1
安全ナット
 41
0.9992307692307691
  7
EXCADTTF1
 72
     5
 11
1084.02032828438
 21
591.7750661949699
 31
0.0
100
AcDbText
  0
LINE
  5
73A
330
1F
100
AcDbEntity
  8
Ｓ_１_１
  6
CONTINUOUS
 62
     3
100
AcDbLine
 10
674.6226000266399
 20
944.8519778938947
 30
0.0
 11
663.2973108669995
 21
946.8489319370644
 31
0.0
  0
LINE
  5
73B
330
1F
100
AcDbEntity
  8
Ｓ_１_１
  6
CONTINUOUS
 62
     3
100
AcDbLine
 10
663.2973108669995
 20
946.8489319370644
 30
0.0
 11
651.9720217073592
 21
948.8458859802341
 31
0.0
  0
LINE
  5
73C
330
1F
100
AcDbEntity
  8
Ｓ_１_１
  6
CONTINUOUS
 62
     3
100
AcDbLine
 10
668.8922101636311
 20
912.3533220444917
 30
0.0
 11
657.5669210039908
 21
914.3502760876614
 31
0.0
  0
LINE
  5
73D
330
1F
100
AcDbEntity
  8
Ｓ_１_１
  6
CONTINUOUS
 62
     3
100
AcDbLine
 10
657.5669210039908
 20
914.3502760876614
 30
0.0
 11
646.2416318443504
 21
916.3472301308311
 31
0.0
  0
LINE
  5
73E
330
1F
100
AcDbEntity
  8
Ｓ_１_１
  6
CONTINUOUS
 62
     3
100
AcDbLine
 10
646.2416302255817
 20
916.3472288335186
 30
0.0
 11
645.4304706243344
 21
917.5056849052385
 31
0.0
  0
LINE
  5
73F
330
1F
100
AcDbEntity
  8
Ｓ_１_１
  6
CONTINUOUS
 62
     3
100
AcDbLine
 10
650.8135651924415
 20
948.0347276219305
 30
0.0
 11
651.9720208734486
 21
948.8458869497706
 31
0.0
  0
LINE
  5
740
330
1F
100
AcDbEntity
  8
Ｓ_１_１
  6
CONTINUOUS
 62
     3
100
AcDbLine
 10
675.4337595414535
 20
943.6935218969195
 30
0.0
 11
674.6225998483712
 21
944.8519778918195
 31
0.0
  0
LINE
  5
741
330
1F
100
AcDbEntity
  8
Ｓ_１_１
  6
CONTINUOUS
 62
     3
100
AcDbLine
 10
668.8922103672852
 20
912.3533215386426
 30
0.0
 11
670.0506659799933
 21
913.1644809640251
 31
0.0
  0
LINE
  5
742
330
1F
100
AcDbEntity
  8
Ｓ_１_１
  6
CONTINUOUS
 62
     3
100
AcDbLine
 10
670.0506660943104
 20
913.1644816198371
 30
0.0
 11
645.4304722690052
 21
917.5056860615103
 31
0.0
  0
LINE
  5
743
330
1F
100
AcDbEntity
  8
Ｓ_１_１
  6
CONTINUOUS
 62
     3
100
AcDbLine
 10
675.4337596019852
 20
943.6935219632155
 30
0.0
 11
650.81356577668
 21
948.0347264048887
 31
0.0
  0
LINE
  5
744
330
1F
100
AcDbEntity
  8
Ｓ_１_１
  6
CONTINUOUS
 62
     3
100
AcDbLine
 10
649.1910647785263
 20
914.4438782853081
 30
0.0
 11
665.4696582352238
 21
911.573523050908
 31
0.0
  0
LINE
  5
745
330
1F
100
AcDbEntity
  8
Ｓ_１_１
  6
CONTINUOUS
 62
     3
100
AcDbLine
 10
663.3353668344929
 20
905.7174712783531
 30
0.0
 11
664.7789496445029
 21
911.6953257963786
 31
0.0
  0
LINE
  5
746
330
1F
100
AcDbEntity
  8
Ｓ_１_１
  6
CONTINUOUS
 62
     3
100
AcDbLine
 10
664.0260783225558
 20
905.5956619294433
 30
0.0
 11
665.7900717051645
 21
912.9003361074139
 31
0.0
  0
LINE
  5
747
330
1F
100
AcDbEntity
  8
Ｓ_１_１
  6
CONTINUOUS
 62
     3
100
AcDbLine
 10
664.7789313994231
 20
911.6953087049461
 30
0.0
 11
665.7900554297001
 21
912.9003186686851
 31
0.0
  0
LINE
  5
748
330
1F
100
AcDbEntity
  8
Ｓ_１_１
  6
CONTINUOUS
 62
     3
100
AcDbLine
 10
648.503043047115
 20
908.3327796858733
 30
0.0
 11
649.3437806051372
 21
915.8002802540398
 31
0.0
  0
LINE
  5
749
330
1F
100
AcDbEntity
  8
Ｓ_１_１
  6
CONTINUOUS
 62
     3
100
AcDbLine
 10
649.3437903985376
 20
915.8002551723871
 30
0.0
 11
649.881791902138
 21
914.3221057810669
 31
0.0
  0
LINE
  5
74A
330
1F
100
AcDbEntity
  8
Ｓ_１_１
  6
CONTINUOUS
 62
     3
100
AcDbLine
 10
649.1937529080502
 20
908.2110071792283
 30
0.0
 11
649.881779677663
 21
914.3221170754113
 31
0.0
  0
LINE
  5
74B
330
1F
100
AcDbEntity
  8
Ｓ_１_１
  6
CONTINUOUS
 62
     3
100
AcDbLine
 10
655.3945667421119
 20
949.6256861893535
 30
0.0
 11
671.6731601988093
 21
946.7553309549534
 31
0.0
  0
LINE
  5
74C
330
1F
100
AcDbEntity
  8
Ｓ_１_１
  6
CONTINUOUS
 62
     3
100
AcDbLine
 10
655.0741510123407
 20
948.298877593023
 30
0.0
 11
656.0852740578101
 21
949.5038877304103
 31
0.0
  0
LINE
  5
74D
330
1F
100
AcDbEntity
  8
Ｓ_１_１
  6
CONTINUOUS
 62
     3
100
AcDbLine
 10
670.9824587919577
 20
946.8771283720076
 30
0.0
 11
671.5204612803658
 21
945.3989788070392
 31
0.0
  0
ARC
  5
74E
330
1F
100
AcDbEntity
  8
Ｓ_１_１
  6
CONTINUOUS
 62
     3
100
AcDbCircle
 10
645.8797452377007
 20
907.9158129076774
 30
0.0
 40
6.133925000000002
100
AcDbArc
 50
225.6154380000004
 51
294.3845830000004
  0
ARC
  5
74F
330
1F
100
AcDbEntity
  8
Ｓ_１_１
  6
CONTINUOUS
 62
     3
100
AcDbCircle
 10
659.0304684625303
 20
922.6503769204226
 30
0.0
 40
22.927938
100
AcDbArc
 50
242.4118580000001
 51
277.5881660000002
  0
ARC
  5
750
330
1F
100
AcDbEntity
  8
Ｓ_１_１
  6
CONTINUOUS
 62
     3
100
AcDbCircle
 10
665.4338913781564
 20
899.1189265949682
 30
0.0
 40
6.133925000000002
100
AcDbArc
 50
45.61540199999911
 51
114.3845609999998
  0
ARC
  5
751
330
1F
100
AcDbEntity
  8
Ｓ_１_１
  6
CONTINUOUS
 62
     3
100
AcDbCircle
 10
653.0557190064727
 20
862.8514217793686
 30
0.0
 40
1.0
100
AcDbArc
 50
259.9999779999953
 51
349.9999749999977
  0
ARC
  5
752
330
1F
100
AcDbEntity
  8
Ｓ_１_１
  6
CONTINUOUS
 62
     3
100
AcDbCircle
 10
666.3486178836525
 20
904.3065983955105
 30
0.0
 40
6.133925000000002
100
AcDbArc
 50
225.6153689999997
 51
294.384513999999
  0
ARC
  5
753
330
1F
100
AcDbEntity
  8
Ｓ_１_１
  6
CONTINUOUS
 62
     3
100
AcDbCircle
 10
652.283181152898
 20
884.3846090695675
 30
0.0
 40
22.927942
100
AcDbArc
 50
62.41182100000018
 51
97.58811500000023
  0
ARC
  5
754
330
1F
100
AcDbEntity
  8
Ｓ_１_１
  6
CONTINUOUS
 62
     3
100
AcDbCircle
 10
644.9650187322046
 20
902.7281411071351
 30
0.0
 40
6.133925000000002
100
AcDbArc
 50
45.61541599999979
 51
114.3845739999999
  0
ARC
  5
755
330
1F
100
AcDbEntity
  8
Ｓ_１_１
  6
CONTINUOUS
 62
     3
100
AcDbCircle
 10
644.192478773596
 20
864.4142501689255
 30
0.0
 40
1.0
100
AcDbArc
 50
169.9999970000023
 51
259.9999780000018
  0
LINE
  5
756
330
1F
100
AcDbEntity
  8
Ｓ_１_１
  6
CONTINUOUS
 62
     3
100
AcDbLine
 10
649.5802995003178
 20
860.4178282898804
 30
0.0
 11
646.6259067703215
 21
860.9387674397876
 31
0.0
  0
LINE
  5
757
330
1F
100
AcDbEntity
  8
Ｓ_１_１
  6
CONTINUOUS
 62
     3
100
AcDbLine
 10
668.0822546012539
 20
904.8803612863122
 30
0.0
 11
644.4468980731941
 21
909.047912340873
 31
0.0
  0
LINE
  5
758
330
1F
100
AcDbEntity
  8
Ｓ_１_１
  6
CONTINUOUS
 62
     3
100
AcDbLine
 10
654.0405563037177
 20
862.6777683922563
 30
0.0
 11
655.6033475325646
 21
871.5407978762746
 31
0.0
  0
LINE
  5
759
330
1F
100
AcDbEntity
  8
Ｓ_１_１
  6
CONTINUOUS
 62
     3
100
AcDbLine
 10
655.6033475325646
 20
871.5407978762746
 30
0.0
 11
644.7704327051981
 21
873.4509330400562
 31
0.0
  0
LINE
  5
75A
330
1F
100
AcDbEntity
  8
Ｓ_１_１
  6
CONTINUOUS
 62
     3
100
AcDbLine
 10
659.6579255868239
 20
874.3801072756135
 30
0.0
 11
660.0052007570802
 21
876.3496026350921
 31
0.0
  0
LINE
  5
75B
330
1F
100
AcDbEntity
  8
Ｓ_１_１
  6
CONTINUOUS
 62
     3
100
AcDbLine
 10
641.931416561645
 20
877.5057690905246
 30
0.0
 11
642.2786917319011
 21
879.4752644500034
 31
0.0
  0
LINE
  5
75C
330
1F
100
AcDbEntity
  8
Ｓ_１_１
  6
CONTINUOUS
 62
     3
100
AcDbLine
 10
664.5652991289015
 20
889.2537935179129
 30
0.0
 11
642.4071246861272
 21
893.1608775154186
 31
0.0
  0
LINE
  5
75D
330
1F
100
AcDbEntity
  8
Ｓ_１_１
  6
CONTINUOUS
 62
     3
100
AcDbLine
 10
642.0015448984547
 20
893.7401054807583
 30
0.0
 11
643.4775544086235
 21
902.1109713813621
 31
0.0
  0
LINE
  5
75E
330
1F
100
AcDbEntity
  8
Ｓ_１_１
  6
CONTINUOUS
 62
     3
100
AcDbLine
 10
665.1445566384738
 20
889.6593680961402
 30
0.0
 11
666.6205661486428
 21
898.0302339967438
 31
0.0
  0
LINE
  5
75F
330
1F
100
AcDbEntity
  8
Ｓ_１_１
  6
CONTINUOUS
 62
     3
100
AcDbLine
 10
669.7242950535692
 20
903.5024382063513
 30
0.0
 11
668.0822376384095
 21
904.880288120323
 31
0.0
  0
LINE
  5
760
330
1F
100
AcDbEntity
  8
Ｓ_１_１
  6
CONTINUOUS
 62
     3
100
AcDbLine
 10
643.2313911945347
 20
902.1541826511808
 30
0.0
 11
641.5892401559402
 21
903.5321120299407
 31
0.0
  0
LINE
  5
761
330
1F
100
AcDbEntity
  8
Ｓ_１_１
  6
CONTINUOUS
 62
     3
100
AcDbLine
 10
644.4468933276119
 20
909.0478796685688
 30
0.0
 11
642.4326106818139
 21
908.3147411579887
 31
0.0
  0
LINE
  5
762
330
1F
100
AcDbEntity
  8
Ｓ_１_１
  6
CONTINUOUS
 62
     3
100
AcDbLine
 10
668.8809626594082
 20
898.7197028428451
 30
0.0
 11
666.8666800136102
 21
897.986564332265
 31
0.0
  0
LINE
  5
763
330
1F
100
AcDbEntity
  8
Ｓ_１_１
  6
CONTINUOUS
 62
     3
100
AcDbLine
 10
641.5892528821261
 20
903.5322417914301
 30
0.0
 11
642.4325445212381
 21
908.3147863329617
 31
0.0
  0
LINE
  5
764
330
1F
100
AcDbEntity
  8
Ｓ_１_１
  6
CONTINUOUS
 62
     3
100
AcDbLine
 10
648.412190078083
 20
902.3291738761037
 30
0.0
 11
649.255481717195
 21
907.1117184176351
 31
0.0
  0
LINE
  5
765
330
1F
100
AcDbEntity
  8
Ｓ_１_１
  6
CONTINUOUS
 62
     3
100
AcDbLine
 10
662.0580349257644
 20
899.9230432548958
 30
0.0
 11
662.9013265648764
 21
904.7055877964273
 31
0.0
  0
LINE
  5
766
330
1F
100
AcDbEntity
  8
Ｓ_１_１
  6
CONTINUOUS
 62
     3
100
AcDbLine
 10
668.8810469671109
 20
898.7199621423076
 30
0.0
 11
669.7243386062229
 21
903.5025066838392
 31
0.0
  0
LINE
  5
767
330
1F
100
AcDbEntity
  8
Ｓ_１_１
  6
CONTINUOUS
 62
     3
100
AcDbLine
 10
666.866738542663
 20
897.9868271617725
 30
0.0
 11
643.2313820146032
 21
902.1543782163334
 31
0.0
  0
LINE
  5
768
330
1F
100
AcDbEntity
  8
Ｓ_１_１
  6
CONTINUOUS
 62
     3
100
AcDbLine
 10
652.8820284586504
 20
861.8663737332645
 30
0.0
 11
644.0187882257737
 21
863.4292021228214
 31
0.0
  0
LINE
  5
769
330
1F
100
AcDbEntity
  8
Ｓ_１_１
  6
CONTINUOUS
 62
     3
100
AcDbLine
 10
646.6260131560055
 20
860.9385587963448
 30
0.0
 11
645.0036575031341
 21
863.2555227882197
 31
0.0
  0
LINE
  5
76A
330
1F
100
AcDbEntity
  8
Ｓ_１_１
  6
CONTINUOUS
 62
     3
100
AcDbLine
 10
651.8973752135056
 20
862.0399306951495
 30
0.0
 11
649.5805108488412
 21
860.4176448020013
 31
0.0
  0
LINE
  5
76B
330
1F
100
AcDbEntity
  8
Ｓ_１_１
  6
CONTINUOUS
 62
     3
100
AcDbLine
 10
659.0489853746807
 20
879.5646129240814
 30
0.0
 11
644.2768690794978
 21
882.1693355890853
 31
0.0
  0
LINE
  5
76C
330
1F
100
AcDbEntity
  8
Ｓ_１_１
  6
CONTINUOUS
 62
     3
100
AcDbLine
 10
658.7884919231025
 20
878.0872811480174
 30
0.0
 11
644.01637562792
 21
880.6920038130212
 31
0.0
  0
LINE
  5
76D
330
1F
100
AcDbEntity
  8
Ｓ_１_１
  6
CONTINUOUS
 62
     3
100
AcDbLine
 10
659.6579255868239
 20
874.3801072756135
 30
0.0
 11
641.931416561645
 21
877.5057690905246
 31
0.0
  0
LINE
  5
76E
330
1F
100
AcDbEntity
  8
Ｓ_１_１
  6
CONTINUOUS
 62
     3
100
AcDbLine
 10
643.0600873463246
 20
883.9067791920124
 30
0.0
 11
644.6229421304048
 21
892.7701691156682
 31
0.0
  0
LINE
  5
76F
330
1F
100
AcDbEntity
  8
Ｓ_１_１
  6
CONTINUOUS
 62
     3
100
AcDbLine
 10
660.7865963715036
 20
880.7811173771013
 30
0.0
 11
662.3494511555837
 21
889.6445073007569
 31
0.0
  0
LINE
  5
770
330
1F
100
AcDbEntity
  8
Ｓ_１_１
  6
CONTINUOUS
 62
     3
100
AcDbLine
 10
660.0053379379771
 20
876.3495571224396
 30
0.0
 11
658.7885890146927
 21
878.0872559047375
 31
0.0
  0
LINE
  5
771
330
1F
100
AcDbEntity
  8
Ｓ_１_１
  6
CONTINUOUS
 62
     3
100
AcDbLine
 10
644.0164078958464
 20
880.6919910153289
 30
0.0
 11
642.2788595391717
 21
879.4753465579812
 31
0.0
  0
LINE
  5
772
330
1F
100
AcDbEntity
  8
Ｓ_１_１
  6
CONTINUOUS
 62
     3
100
AcDbLine
 10
660.0052007570802
 20
876.3496026350921
 30
0.0
 11
642.2786917319011
 21
879.4752644500034
 31
0.0
  0
LINE
  5
773
330
1F
100
AcDbEntity
  8
Ｓ_１_１
  6
CONTINUOUS
 62
     3
100
AcDbLine
 10
660.7866192005389
 20
880.781079842648
 30
0.0
 11
659.049070843864
 21
879.5644353853004
 31
0.0
  0
LINE
  5
774
330
1F
100
AcDbEntity
  8
Ｓ_１_１
  6
CONTINUOUS
 62
     3
100
AcDbLine
 10
644.2769943405606
 20
882.1691936818402
 30
0.0
 11
643.0602442588201
 21
883.9068916529783
 31
0.0
  0
LINE
  5
775
330
1F
100
AcDbEntity
  8
Ｓ_１_１
  6
CONTINUOUS
 62
     3
100
AcDbLine
 10
665.1445566384738
 20
889.6593680961402
 30
0.0
 11
642.0015448984547
 21
893.7401054807583
 31
0.0
  0
LINE
  5
776
330
1F
100
AcDbEntity
  8
Ｓ_１_１
  6
CONTINUOUS
 62
     3
100
AcDbLine
 10
660.7865963715036
 20
880.7811173771013
 30
0.0
 11
643.0600873463246
 21
883.9067791920124
 31
0.0
  0
LINE
  5
777
330
1F
100
AcDbEntity
  8
Ｓ_１_１
  6
CONTINUOUS
 62
     3
100
AcDbLine
 10
658.7884919231025
 20
878.0872811480174
 30
0.0
 11
659.0489853746807
 21
879.5646129240814
 31
0.0
  0
LINE
  5
778
330
1F
100
AcDbEntity
  8
Ｓ_１_１
  6
CONTINUOUS
 62
     3
100
AcDbLine
 10
644.01637562792
 20
880.6920038130212
 30
0.0
 11
644.2768690794978
 21
882.1693355890853
 31
0.0
  0
LINE
  5
779
330
1F
100
AcDbEntity
  8
Ｓ_１_１
  6
CONTINUOUS
 62
     3
100
AcDbLine
 10
642.407211651446
 20
893.1607718081182
 30
0.0
 11
642.0016746815824
 21
893.7399373904856
 31
0.0
  0
LINE
  5
77A
330
1F
100
AcDbEntity
  8
Ｓ_１_１
  6
CONTINUOUS
 62
     3
100
AcDbLine
 10
665.1445851528383
 20
889.6592706644668
 30
0.0
 11
664.5654734398736
 21
889.2537627821855
 31
0.0
  0
LINE
  5
77B
330
1F
100
AcDbEntity
  8
Ｓ_１_１
  6
CONTINUOUS
 62
     3
100
AcDbLine
 10
659.6579563802534
 20
874.3798672823539
 30
0.0
 11
655.6033444044931
 21
871.540797412411
 31
0.0
  0
LINE
  5
77C
330
1F
100
AcDbEntity
  8
Ｓ_１_１
  6
CONTINUOUS
 62
     3
100
AcDbLine
 10
644.7706174134228
 20
873.4511167568807
 30
0.0
 11
641.9315825969904
 21
877.5056799038435
 31
0.0
  0
LINE
  5
77D
330
1F
100
AcDbEntity
  8
Ｓ_１_１
  6
CONTINUOUS
 62
     3
100
AcDbLine
 10
643.2076414763511
 20
864.5879035560378
 30
0.0
 11
644.7704327051981
 21
873.4509330400562
 31
0.0
  0
LINE
  5
77E
330
1F
100
AcDbEntity
  8
Ｓ_１_１
  6
CONTINUOUS
 62
     3
100
AcDbLine
 10
611.4385312828119
 20
934.9229317677407
 30
0.0
 11
606.5144925177508
 21
935.7911726560753
 31
0.0
  0
LINE
  5
77F
330
1F
100
AcDbEntity
  8
Ｓ_１_１
  6
CONTINUOUS
 62
     3
100
AcDbLine
 10
612.9145407929808
 20
943.2937976683445
 30
0.0
 11
607.9905020279198
 21
944.1620385566791
 31
0.0
  0
LINE
  5
780
330
1F
100
AcDbEntity
  8
Ｓ_１_１
  6
CONTINUOUS
 62
     3
100
AcDbLine
 10
613.044776926231
 20
944.0324034831036
 30
0.0
 11
608.8593439759292
 21
944.7704082381881
 31
0.0
  0
LINE
  5
781
330
1F
100
AcDbEntity
  8
Ｓ_１_１
  6
CONTINUOUS
 62
     3
100
AcDbLine
 10
611.3082951495617
 20
934.1843259529816
 30
0.0
 11
607.1228621992598
 21
934.922330708066
 31
0.0
  0
LINE
  5
782
330
1F
100
AcDbEntity
  8
Ｓ_１_１
  6
CONTINUOUS
 62
     3
100
AcDbLine
 10
607.9905020279198
 20
944.1620385566791
 30
0.0
 11
606.5144925177508
 21
935.7911726560753
 31
0.0
  0
LINE
  5
783
330
1F
100
AcDbEntity
  8
Ｓ_１_１
  6
CONTINUOUS
 62
     3
100
AcDbLine
 10
608.8593439759292
 20
944.7704082381881
 30
0.0
 11
607.1228621992598
 21
934.922330708066
 31
0.0
  0
LINE
  5
784
330
1F
100
AcDbEntity
  8
Ｓ_１_１
  6
CONTINUOUS
 62
     3
100
AcDbLine
 10
608.8593412617321
 20
944.7704075744193
 30
0.0
 11
607.9905015052045
 21
944.1620393728473
 31
0.0
  0
LINE
  5
785
330
1F
100
AcDbEntity
  8
Ｓ_１_１
  6
CONTINUOUS
 62
     3
100
AcDbLine
 10
606.5144905614478
 20
935.7911710460237
 30
0.0
 11
607.1228604040942
 21
934.9223289459226
 31
0.0
  0
LINE
  5
786
330
1F
100
AcDbEntity
  8
Ｓ_１_１
  6
CONTINUOUS
 62
     3
100
AcDbLine
 10
619.0701903089819
 20
937.892827474374
 30
0.0
 11
617.3337085323125
 21
928.044749944252
 31
0.0
  0
LINE
  5
787
330
1F
100
AcDbEntity
  8
Ｓ_１_１
  6
CONTINUOUS
 62
     3
100
AcDbLine
 10
620.8066720856511
 20
947.7409050044963
 30
0.0
 11
619.0701903089819
 21
937.892827474374
 31
0.0
  0
LINE
  5
788
330
1F
100
AcDbEntity
  8
Ｓ_１_１
  6
CONTINUOUS
 62
     3
100
AcDbLine
 10
617.3337080853635
 20
928.0447505825613
 30
0.0
 11
616.5225485011335
 21
929.2032066298552
 31
0.0
  0
LINE
  5
789
330
1F
100
AcDbEntity
  8
Ｓ_１_１
  6
CONTINUOUS
 62
     3
100
AcDbLine
 10
619.6482158395663
 20
946.9297452810708
 30
0.0
 11
620.806671520672
 21
947.740904608894
 31
0.0
  0
LINE
  5
78A
330
1F
100
AcDbEntity
  8
Ｓ_１_１
  6
CONTINUOUS
 62
     3
100
AcDbLine
 10
619.6482161201382
 20
946.9297452315984
 30
0.0
 11
618.0853825559695
 21
938.0664756520409
 31
0.0
  0
LINE
  5
78B
330
1F
100
AcDbEntity
  8
Ｓ_１_１
  6
CONTINUOUS
 62
     3
100
AcDbLine
 10
618.0853825559695
 20
938.0664756520409
 30
0.0
 11
616.5225490723218
 21
929.2032065291393
 31
0.0
  0
LINE
  5
78C
330
1F
100
AcDbEntity
  8
Ｓ_１_１
  6
CONTINUOUS
 62
     3
100
AcDbLine
 10
646.385537246173
 20
922.9221287030774
 30
0.0
 11
617.3337085323125
 21
928.044749944252
 31
0.0
  0
LINE
  5
78D
330
1F
100
AcDbEntity
  8
Ｓ_１_１
  6
CONTINUOUS
 62
     3
100
AcDbLine
 10
610.8754940391343
 20
931.7297783200162
 30
0.0
 11
611.5116882296018
 21
929.5790432704208
 31
0.0
  0
LINE
  5
78E
330
1F
100
AcDbEntity
  8
Ｓ_１_１
  6
CONTINUOUS
 62
     3
100
AcDbLine
 10
613.4775805110767
 20
946.4869517894206
 30
0.0
 11
614.8110022071636
 21
948.290390416585
 31
0.0
  0
LINE
  5
78F
330
1F
100
AcDbEntity
  8
Ｓ_１_１
  6
CONTINUOUS
 62
     3
100
AcDbLine
 10
616.7843386620649
 20
930.68788893526
 30
0.0
 11
615.4509169659781
 21
928.8844503080963
 31
0.0
  0
LINE
  5
790
330
1F
100
AcDbEntity
  8
Ｓ_１_１
  6
CONTINUOUS
 62
     3
100
AcDbLine
 10
619.3864281043411
 20
945.4450628976612
 30
0.0
 11
618.7502340039202
 21
947.5957976424905
 31
0.0
  0
LINE
  5
791
330
1F
100
AcDbEntity
  8
Ｓ_１_１
  6
CONTINUOUS
 62
     3
100
AcDbLine
 10
618.7502324907932
 20
947.5957974833238
 30
0.0
 11
614.8110014787444
 21
948.2903901939916
 31
0.0
  0
LINE
  5
792
330
1F
100
AcDbEntity
  8
Ｓ_１_１
  6
CONTINUOUS
 62
     3
100
AcDbLine
 10
615.4509171151216
 20
928.884450176092
 30
0.0
 11
611.5116861030727
 21
929.5790428867597
 31
0.0
  0
LINE
  5
793
330
1F
100
AcDbEntity
  8
Ｓ_１_１
  6
CONTINUOUS
 62
     3
100
AcDbLine
 10
612.1765360378963
 20
939.1083647180426
 30
0.0
 11
610.8754920284796
 21
931.7297774809148
 31
0.0
  0
LINE
  5
794
330
1F
100
AcDbEntity
  8
Ｓ_１_１
  6
CONTINUOUS
 62
     3
100
AcDbLine
 10
613.477580047313
 20
946.4869519551703
 30
0.0
 11
612.1765360378963
 21
939.1083647180426
 31
0.0
  0
ARC
  5
795
330
1F
100
AcDbEntity
  8
Ｓ_１_１
  6
CONTINUOUS
 62
     3
100
AcDbCircle
 10
602.7798287278719
 20
940.7652577466204
 30
0.0
 40
15.5416666667
100
AcDbArc
 50
329.3345163543003
 51
329.3345238904478
  0
ARC
  5
796
330
1F
100
AcDbEntity
  8
Ｓ_１_１
  6
CONTINUOUS
 62
     3
100
AcDbCircle
 10
627.4820898659941
 20
936.4095826234632
 30
0.0
 40
15.5416666667
100
AcDbArc
 50
190.665476109553
 51
190.6654784093997
  0
ARC
  5
797
330
1F
100
AcDbEntity
  8
Ｓ_１_１
  6
CONTINUOUS
 62
     3
100
AcDbCircle
 10
602.7798287278719
 20
940.7652577466204
 30
0.0
 40
15.5416666667
100
AcDbArc
 50
332.8126324028146
 51
7.187368095178672
  0
ARC
  5
798
330
1F
100
AcDbEntity
  8
Ｓ_１_１
  6
CONTINUOUS
 62
     3
100
AcDbCircle
 10
602.7798287278719
 20
940.7652577466204
 30
0.0
 40
15.5416666667
100
AcDbArc
 50
10.66547865603571
 51
10.66548000330019
  0
ARC
  5
799
330
1F
100
AcDbEntity
  8
Ｓ_１_１
  6
CONTINUOUS
 62
     3
100
AcDbCircle
 10
627.4820898659941
 20
936.4095826234632
 30
0.0
 40
15.5416666667
100
AcDbArc
 50
152.8126319048212
 51
187.1873675971855
  0
LINE
  5
79A
330
1F
100
AcDbEntity
  8
Ｓ_１_１
  6
CONTINUOUS
 62
     3
100
AcDbLine
 10
612.062544793399
 20
934.46509489323
 30
0.0
 11
616.6044074762758
 21
933.664241959566
 31
0.0
  0
LINE
  5
79B
330
1F
100
AcDbEntity
  8
Ｓ_１_１
  6
CONTINUOUS
 62
     3
100
AcDbLine
 10
613.6575111793093
 20
943.5105985306758
 30
0.0
 11
618.1993737835663
 21
942.7097456108744
 31
0.0
  0
ARC
  5
79C
330
1F
100
AcDbEntity
  8
Ｓ_１_１
  6
CONTINUOUS
 62
     3
100
AcDbCircle
 10
619.3864271410804
 20
945.4450661540922
 30
0.0
 40
6.000000000001596
100
AcDbArc
 50
170.0000417559227
 51
198.9021840779137
  0
ARC
  5
79D
330
1F
100
AcDbEntity
  8
Ｓ_１_１
  6
CONTINUOUS
 62
     3
100
AcDbCircle
 10
613.477579863701
 20
946.4869509138543
 30
0.0
 40
6.000000000001596
100
AcDbArc
 50
321.0978636188123
 51
350.0000417558858
  0
ARC
  5
79E
330
1F
100
AcDbEntity
  8
Ｓ_１_１
  6
CONTINUOUS
 62
     3
100
AcDbCircle
 10
610.8754921127893
 20
931.7297779590588
 30
0.0
 40
6.000000000000006
100
AcDbArc
 50
349.9999920172611
 51
18.90214402666208
  0
ARC
  5
79F
330
1F
100
AcDbEntity
  8
Ｓ_１_１
  6
CONTINUOUS
 62
     3
100
AcDbCircle
 10
616.7843386308625
 20
930.6878888930572
 30
0.0
 40
6.000000000001596
100
AcDbArc
 50
141.0978559733464
 51
170.0
  0
LINE
  5
7A0
330
1F
100
AcDbEntity
  8
Ｓ_１_１
  6
CONTINUOUS
 62
     3
100
AcDbLine
 10
649.8585007995117
 20
942.6182837633218
 30
0.0
 11
620.8066720856511
 21
947.7409050044963
 31
0.0
  0
LINE
  5
7A1
330
1F
100
AcDbEntity
  8
Ｓ_１_１
  6
EXLTYPE2
 62
     1
100
AcDbLine
 10
674.1023793789765
 20
928.1891677338845
 30
0.0
 11
606.2564155327461
 21
940.152241692146
 31
0.0
  0
LINE
  5
7A2
330
1F
100
AcDbEntity
  8
Ｓ_１_１
  6
CONTINUOUS
 62
     3
100
AcDbLine
 10
675.4337596019852
 20
943.6935219632155
 30
0.0
 11
670.0506660943104
 21
913.1644816198371
 31
0.0
  0
LINE
  5
7A3
330
1F
100
AcDbEntity
  8
Ｓ_１_１
  6
CONTINUOUS
 62
     3
100
AcDbLine
 10
650.81356577668
 20
948.0347264048887
 30
0.0
 11
645.4304722690052
 21
917.5056860615103
 31
0.0
  0
LINE
  5
7A4
330
1F
100
AcDbEntity
  8
Ｓ_１_１
  6
EXLTYPE2
 62
     1
100
AcDbLine
 10
699.9999975
 20
1155.0002041661
 30
0.0
 11
647.2795071955221
 21
856.007456649873
 31
0.0
  0
DIMENSION
  5
7A5
330
1F
100
AcDbEntity
  8
Ｓ_１_１
  6
CONTINUOUS
 62
     2
100
AcDbDimension
  2
*D27
 10
659.164783132929
 20
805.6327334953975
 30
0.0
 11
670.5416989970587
 21
818.2905306750697
 31
0.0
 70
   165
  3
ISO-25
100
AcDb3PointAngularDimension
 13
647.2795071955221
 23
856.0074566498729
 33
0.0
 14
699.9999614999995
 24
940.0001471661
 34
0.0
 15
699.9999614999999
 25
1154.999999999962
 35
0.0
1001
ACAD
1000
DSTYLE
1002
{
1070
   270
1070
     2
1070
     6
1000
EX_NORM
1070
     7
1000
EX_NORM
1070
    41
1040
15.0
1070
    42
1040
7.5
1070
    44
1040
5.000000000000062
1070
    73
1070
     0
1070
    74
1070
     0
1070
    75
1070
     0
1070
    76
1070
     0
1070
    77
1070
     1
1070
    78
1070
     8
1070
    79
1070
     2
1070
   140
1040
17.3145207852194
1070
   147
1040
0.0
1070
   173
1070
     1
1070
   176
1070
     2
1070
   177
1070
     2
1070
   178
1070
     2
1070
   179
1070
     2
1070
   271
1070
     2
1070
   277
1070
     2
1070
   279
1070
     2
1070
   280
1070
     0
1070
   287
1070
     5
1070
   340
1005
121
1002
}
  0
LINE
  5
7B3
330
1F
100
AcDbEntity
  8
Ｓ_１_１
  6
CONTINUOUS
 62
     3
100
AcDbLine
 10
656.6067736818909
 20
954.6453837510242
 30
0.0
 11
655.0741778851524
 21
948.298920579672
 31
0.0
  0
LINE
  5
7B4
330
1F
100
AcDbEntity
  8
Ｓ_１_１
  6
CONTINUOUS
 62
     3
100
AcDbLine
 10
657.2913817843141
 20
954.4983337287152
 30
0.0
 11
656.0852848882911
 21
949.5039030829566
 31
0.0
  0
LINE
  5
7B5
330
1F
100
AcDbEntity
  8
Ｓ_１_１
  6
CONTINUOUS
 62
     3
100
AcDbLine
 10
671.5572840843331
 20
951.9828718185768
 30
0.0
 11
670.9824470337501
 21
946.877119275604
 31
0.0
  0
LINE
  5
7B6
330
1F
100
AcDbEntity
  8
Ｓ_１_１
  6
CONTINUOUS
 62
     3
100
AcDbLine
 10
672.2508992894249
 20
951.8869040352957
 30
0.0
 11
671.5204485349464
 21
945.3989871469602
 31
0.0
  0
ENDSEC
  0
SECTION
  2
OBJECTS
  0
DICTIONARY
  5
C
330
0
100
AcDbDictionary
  3
ACAD_GROUP
350
D
  3
ACAD_LAYOUT
350
1A
  3
ACAD_MATERIAL
350
43
  3
ACAD_MLEADERSTYLE
350
6B
  3
ACAD_MLINESTYLE
350
17
  3
ACAD_PLOTSETTINGS
350
19
  3
ACAD_SCALELIST
350
47
  3
ACAD_VISUALSTYLE
350
2A
  3
ACDBHEADERROUNDTRIPXREC
350
7B7
  3
ACDBVARIABLEDICTIONARY
350
7D8
  0
DICTIONARY
  5
7E3
330
8
100
AcDbDictionary
280
     1
  3
ACAD_XREC_ROUNDTRIP
360
7E4
  0
DICTIONARY
  5
D
102
{ACAD_REACTORS
330
C
102
}
330
C
100
AcDbDictionary
  0
DICTIONARY
  5
1A
102
{ACAD_REACTORS
330
C
102
}
330
C
100
AcDbDictionary
  0
DICTIONARY
  5
43
102
{ACAD_REACTORS
330
C
102
}
330
C
100
AcDbDictionary
  3
BYBLOCK
350
45
  3
BYLAYER
350
44
  3
GLOBAL
350
46
  0
DICTIONARY
  5
6B
102
{ACAD_REACTORS
330
C
102
}
330
C
100
AcDbDictionary
  3
STANDARD
350
6C
  0
DICTIONARY
  5
17
102
{ACAD_REACTORS
330
C
102
}
330
C
100
AcDbDictionary
  3
STANDARD
350
18
  0
DICTIONARY
  5
19
102
{ACAD_REACTORS
330
C
102
}
330
C
100
AcDbDictionary
  0
DICTIONARY
  5
47
102
{ACAD_REACTORS
330
C
102
}
330
C
100
AcDbDictionary
  3
A0
350
48
  3
A1
350
49
  3
A2
350
4A
  3
A3
350
4B
  3
A4
350
4C
  3
A5
350
4D
  3
A6
350
4E
  3
A7
350
4F
  3
A8
350
50
  3
A9
350
51
  3
B0
350
52
  3
B1
350
53
  3
B2
350
54
  3
B3
350
55
  3
B4
350
56
  3
B5
350
57
  3
B6
350
58
  3
B7
350
59
  3
B8
350
5A
  3
B9
350
5B
  3
C0
350
5C
  3
C1
350
5D
  3
C2
350
5E
  3
C3
350
5F
  3
C4
350
60
  3
C5
350
61
  3
C6
350
62
  3
C7
350
63
  3
C8
350
64
  3
C9
350
65
  3
D0
350
66
  3
D1
350
67
  3
D2
350
68
  0
DICTIONARY
  5
2A
102
{ACAD_REACTORS
330
C
102
}
330
C
100
AcDbDictionary
  3
2DWIREFRAME
350
2F
  3
BASIC
350
32
  3
BRIGHTEN
350
36
  3
COLORCHANGE
350
3A
  3
CONCEPTUAL
350
34
  3
DIM
350
35
  3
EDGECOLOROFF
350
3D
  3
FACEPATTERN
350
39
  3
FLAT
350
2B
  3
FLATWITHEDGES
350
2C
  3
GOURAUD
350
2D
  3
GOURAUDWITHEDGES
350
2E
  3
HIDDEN
350
31
  3
JITTEROFF
350
3B
  3
LINEPATTERN
350
38
  3
OVERHANGOFF
350
3C
  3
REALISTIC
350
33
  3
SHADED
350
42
  3
SHADED_WITH_EDGES
350
41
  3
SHADES_OF_GRAY
350
3E
  3
SKETCHY
350
3F
  3
THICKEN
350
37
  3
WIREFRAME
350
30
  3
X-RAY
350
40
  0
DICTIONARY
  5
7B7
102
{ACAD_REACTORS
330
C
102
}
330
C
100
AcDbDictionary
  3
CEPSNID
350
7C1
  3
CEPSNTYPE
350
7C0
  3
DIMSTYLEDATA
350
7D7
  3
FINGERPRINTGUID
350
7C2
  3
HYPERLINKBASE
350
7BA
  3
INSUNITS
350
7BF
  3
LAYOUTDICT
350
7BC
  3
LWETCUNION
350
7BE
  3
PLOTSETDICT
350
7BD
  3
PSVPSCALE
350
7C4
  3
PUCSBASE
350
7C7
  3
PUCSORGBACK
350
7CD
  3
PUCSORGBOTTOM
350
7C9
  3
PUCSORGFRONT
350
7CC
  3
PUCSORGLEFT
350
7CA
  3
PUCSORGRIGHT
350
7CB
  3
PUCSORGTOP
350
7C8
  3
PUCSORTHOREF
350
7C5
  3
PUCSORTHOVIEW
350
7C6
  3
STYLESHEET
350
7BB
  3
TSTACKALIGN
350
7B8
  3
TSTACKSIZE
350
7B9
  3
UCSBASE
350
7D0
  3
UCSORGBACK
350
7D6
  3
UCSORGBOTTOM
350
7D2
  3
UCSORGFRONT
350
7D5
  3
UCSORGLEFT
350
7D3
  3
UCSORGRIGHT
350
7D4
  3
UCSORGTOP
350
7D1
  3
UCSORTHOREF
350
7CE
  3
UCSORTHOVIEW
350
7CF
  3
VERSIONGUID
350
7C3
  0
DICTIONARY
  5
7D8
102
{ACAD_REACTORS
330
C
102
}
330
C
100
AcDbDictionary
  3
CANNOSCALE
350
7E5
  3
CENTEREXE
350
7DF
  3
CENTERLTYPEFILE
350
7E0
  3
CMLEADERSTYLE
350
7DA
  3
CTABLESTYLE
350
7D9
  3
DIMASSOC
350
7E1
  3
HIDETEXT
350
7E2
  3
MSLTSCALE
350
7E6
  3
PSOLHEIGHT
350
7DC
  3
PSOLWIDTH
350
7DB
  0
XRECORD
  5
7E4
102
{ACAD_REACTORS
330
7E3
102
}
330
7E3
100
AcDbXrecord
102
VTR_0.000_0.000_1.000_1.000_VISUALSTYLE
340
2F
102
VTR_0.000_0.000_1.000_1.000_GRIDDISPLAY
 70
     3
102
VTR_0.000_0.000_1.000_1.000_GRIDMAJOR
 70
     5
102
VTR_0.000_0.000_1.000_1.000_DEFAULTLIGHTING
280
     1
102
VTR_0.000_0.000_1.000_1.000_DEFAULTLIGHTINGTYPE
 70
     1
102
VTR_0.000_0.000_1.000_1.000_BRIGHTNESS
141
0.0
102
VTR_0.000_0.000_1.000_1.000_CONTRAST
142
0.0
  0
MATERIAL
  5
45
102
{ACAD_REACTORS
330
43
102
}
102
{ACAD_XDICTIONARY
360
7E9
102
}
330
43
100
AcDbMaterial
  1
BYBLOCK
  0
MATERIAL
  5
44
102
{ACAD_REACTORS
330
43
102
}
102
{ACAD_XDICTIONARY
360
7E7
102
}
330
43
100
AcDbMaterial
  1
BYLAYER
  0
MATERIAL
  5
46
102
{ACAD_REACTORS
330
43
102
}
102
{ACAD_XDICTIONARY
360
7EB
102
}
330
43
100
AcDbMaterial
  1
GLOBAL
  0
ACAD_PROXY_OBJECT
  5
6C
102
{ACAD_REACTORS
330
6B
102
}
330
6B
100
AcDbProxyObject
 90
      499
 91
      505
 93
      610
310
40901902A4063FBFFFFFE0000000000000020400000000000020404214DD185B99185C990000000000000104090141901A00000000000004100000000000000041025764000000000000039000
340
14
340
0
340
11
340
0
 94
        0
1001
ACAD_MLEADERVER
1070
     2
  0
MLINESTYLE
  5
18
102
{ACAD_REACTORS
330
17
102
}
330
17
100
AcDbMlineStyle
  2
Standard
 70
     0
  3

 62
   256
 51
90.0
 52
90.0
 71
     2
 49
0.5
 62
   256
  6
BYLAYER
 49
-0.5
 62
   256
  6
BYLAYER
  0
ACAD_PROXY_OBJECT
  5
48
102
{ACAD_REACTORS
330
47
102
}
330
47
100
AcDbProxyObject
 90
      499
 91
      503
 93
       41
310
903313A31580
  0
ACAD_PROXY_OBJECT
  5
49
102
{ACAD_REACTORS
330
47
102
}
330
47
100
AcDbProxyObject
 90
      499
 91
      503
 93
      105
310
903313A324000000000000004000
  0
ACAD_PROXY_OBJECT
  5
4A
102
{ACAD_REACTORS
330
47
102
}
330
47
100
AcDbProxyObject
 90
      499
 91
      503
 93
      105
310
903313A344000000000000104000
  0
ACAD_PROXY_OBJECT
  5
4B
102
{ACAD_REACTORS
330
47
102
}
330
47
100
AcDbProxyObject
 90
      499
 91
      503
 93
      105
310
903313A354000000000000144000
  0
ACAD_PROXY_OBJECT
  5
4C
102
{ACAD_REACTORS
330
47
102
}
330
47
100
AcDbProxyObject
 90
      499
 91
      503
 93
      105
310
903313A384000000000000204000
  0
ACAD_PROXY_OBJECT
  5
4D
102
{ACAD_REACTORS
330
47
102
}
330
47
100
AcDbProxyObject
 90
      499
 91
      503
 93
      113
310
904313A31304000000000000244000
  0
ACAD_PROXY_OBJECT
  5
4E
102
{ACAD_REACTORS
330
47
102
}
330
47
100
AcDbProxyObject
 90
      499
 91
      503
 93
      113
310
904313A31364000000000000304000
  0
ACAD_PROXY_OBJECT
  5
4F
102
{ACAD_REACTORS
330
47
102
}
330
47
100
AcDbProxyObject
 90
      499
 91
      503
 93
      113
310
904313A32304000000000000344000
  0
ACAD_PROXY_OBJECT
  5
50
102
{ACAD_REACTORS
330
47
102
}
330
47
100
AcDbProxyObject
 90
      499
 91
      503
 93
      113
310
904313A333040000000000003E4000
  0
ACAD_PROXY_OBJECT
  5
51
102
{ACAD_REACTORS
330
47
102
}
330
47
100
AcDbProxyObject
 90
      499
 91
      503
 93
      113
310
904313A34304000000000000444000
  0
ACAD_PROXY_OBJECT
  5
52
102
{ACAD_REACTORS
330
47
102
}
330
47
100
AcDbProxyObject
 90
      499
 91
      503
 93
      113
310
904313A35304000000000000494000
  0
ACAD_PROXY_OBJECT
  5
53
102
{ACAD_REACTORS
330
47
102
}
330
47
100
AcDbProxyObject
 90
      499
 91
      503
 93
      121
310
905313A3130304000000000000594000
  0
ACAD_PROXY_OBJECT
  5
54
102
{ACAD_REACTORS
330
47
102
}
330
47
100
AcDbProxyObject
 90
      499
 91
      503
 93
      105
310
903323A310000000000000010100
  0
ACAD_PROXY_OBJECT
  5
55
102
{ACAD_REACTORS
330
47
102
}
330
47
100
AcDbProxyObject
 90
      499
 91
      503
 93
      105
310
903343A310000000000000410100
  0
ACAD_PROXY_OBJECT
  5
56
102
{ACAD_REACTORS
330
47
102
}
330
47
100
AcDbProxyObject
 90
      499
 91
      503
 93
      105
310
903383A310000000000000810100
  0
ACAD_PROXY_OBJECT
  5
57
102
{ACAD_REACTORS
330
47
102
}
330
47
100
AcDbProxyObject
 90
      499
 91
      503
 93
      113
310
90431303A310000000000000910100
  0
ACAD_PROXY_OBJECT
  5
58
102
{ACAD_REACTORS
330
47
102
}
330
47
100
AcDbProxyObject
 90
      499
 91
      503
 93
      121
310
9053130303A310000000000001650100
  0
ACAD_PROXY_OBJECT
  5
59
102
{ACAD_REACTORS
330
47
102
}
330
47
100
AcDbProxyObject
 90
      499
 91
      503
 93
      257
310
90E312F31323822203D2031272D3022000000000000200FC000000000000284000
  0
ACAD_PROXY_OBJECT
  5
5A
102
{ACAD_REACTORS
330
47
102
}
330
47
100
AcDbProxyObject
 90
      499
 91
      503
 93
      249
310
90D312F363422203D2031272D3022000000000000240FC000000000000284000
  0
ACAD_PROXY_OBJECT
  5
5B
102
{ACAD_REACTORS
330
47
102
}
330
47
100
AcDbProxyObject
 90
      499
 91
      503
 93
      249
310
90D312F333222203D2031272D3022000000000000280FC000000000000284000
  0
ACAD_PROXY_OBJECT
  5
5C
102
{ACAD_REACTORS
330
47
102
}
330
47
100
AcDbProxyObject
 90
      499
 91
      503
 93
      249
310
90D312F313622203D2031272D30220000000000002C0FC000000000000284000
  0
ACAD_PROXY_OBJECT
  5
5D
102
{ACAD_REACTORS
330
47
102
}
330
47
100
AcDbProxyObject
 90
      499
 91
      503
 93
      249
310
90D332F333222203D2031272D30220000000000002E0FC000000000000284000
  0
ACAD_PROXY_OBJECT
  5
5E
102
{ACAD_REACTORS
330
47
102
}
330
47
100
AcDbProxyObject
 90
      499
 91
      503
 93
      241
310
90C312F3822203D2031272D3022000000000000300FC000000000000284000
  0
ACAD_PROXY_OBJECT
  5
5F
102
{ACAD_REACTORS
330
47
102
}
330
47
100
AcDbProxyObject
 90
      499
 91
      503
 93
      249
310
90D332F313622203D2031272D3022000000000000320FC000000000000284000
  0
ACAD_PROXY_OBJECT
  5
60
102
{ACAD_REACTORS
330
47
102
}
330
47
100
AcDbProxyObject
 90
      499
 91
      503
 93
      241
310
90C312F3422203D2031272D3022000000000000340FC000000000000284000
  0
ACAD_PROXY_OBJECT
  5
61
102
{ACAD_REACTORS
330
47
102
}
330
47
100
AcDbProxyObject
 90
      499
 91
      503
 93
      241
310
90C332F3822203D2031272D3022000000000000360FC000000000000284000
  0
ACAD_PROXY_OBJECT
  5
62
102
{ACAD_REACTORS
330
47
102
}
330
47
100
AcDbProxyObject
 90
      499
 91
      503
 93
      241
310
90C312F3222203D2031272D3022000000000000380FC000000000000284000
  0
ACAD_PROXY_OBJECT
  5
63
102
{ACAD_REACTORS
330
47
102
}
330
47
100
AcDbProxyObject
 90
      499
 91
      503
 93
      241
310
90C332F3422203D2031272D30220000000000003A0FC000000000000284000
  0
ACAD_PROXY_OBJECT
  5
64
102
{ACAD_REACTORS
330
47
102
}
330
47
100
AcDbProxyObject
 90
      499
 91
      503
 93
      161
310
90A3122203D2031272D30224000000000000284000
  0
ACAD_PROXY_OBJECT
  5
65
102
{ACAD_REACTORS
330
47
102
}
330
47
100
AcDbProxyObject
 90
      499
 91
      503
 93
      257
310
90E312D312F3222203D2031272D30220000000000003E0FC000000000000284000
  0
ACAD_PROXY_OBJECT
  5
66
102
{ACAD_REACTORS
330
47
102
}
330
47
100
AcDbProxyObject
 90
      499
 91
      503
 93
      225
310
90A3322203D2031272D302200000000000002100000000000000284000
  0
ACAD_PROXY_OBJECT
  5
67
102
{ACAD_REACTORS
330
47
102
}
330
47
100
AcDbProxyObject
 90
      499
 91
      503
 93
      225
310
90A3622203D2031272D302200000000000006100000000000000284000
  0
ACAD_PROXY_OBJECT
  5
68
102
{ACAD_REACTORS
330
47
102
}
330
47
100
AcDbProxyObject
 90
      499
 91
      503
 93
      249
310
90D31272D3022203D2031272D30220000000000000A100000000000000284000
  0
ACAD_PROXY_OBJECT
  5
2F
102
{ACAD_REACTORS
330
2A
102
}
330
2A
100
AcDbProxyObject
 90
      499
 91
      501
 93
      436
310
42CC9915DA5C99599C985B595049028333333333333E33F0000000000000F90107901411070040501600405405064090741402480A0340
1001
ACAD
1000
AcDbSavedByObjectVersion
1070
     0
  0
ACAD_PROXY_OBJECT
  5
32
102
{ACAD_REACTORS
330
2A
102
}
330
2A
100
AcDbProxyObject
 90
      499
 91
      501
 93
      388
310
4150985CDA58D07406404333333333333E33F0000000000000F90107A41107004050150841D405064090741402480A0350
1001
ACAD
1000
AcDbSavedByObjectVersion
1070
     0
  0
ACAD_PROXY_OBJECT
  5
36
102
{ACAD_REACTORS
330
2A
102
}
330
2A
100
AcDbProxyObject
 90
      499
 91
      501
 93
      428
310
42109C9A59DA1D195B90C409028333333333333E33F0000000000000F9010790141107004050150841D405064090741402480A029950
1001
ACAD
1000
AcDbSavedByObjectVersion
1070
     0
  0
ACAD_PROXY_OBJECT
  5
3A
102
{ACAD_REACTORS
330
2A
102
}
330
2A
100
AcDbProxyObject
 90
      499
 91
      501
 93
      452
310
42D0DBDB1BDC90DA185B99D95104090240C333333333333E33F0000000000000F90108901411070040501508421405064090741402480A0350
1001
ACAD
1000
AcDbSavedByObjectVersion
1070
     0
  0
ACAD_PROXY_OBJECT
  5
34
102
{ACAD_REACTORS
330
2A
102
}
330
2A
100
AcDbProxyObject
 90
      499
 91
      501
 93
      500
310
4290DBDB98D95C1D1D585B10940D028333333333333E33F0000000000000F90107902409070040501000000000018199010841D405064090740C02480A0340
1001
ACAD
1000
AcDbSavedByObjectVersion
1070
     0
  0
ACAD_PROXY_OBJECT
  5
35
102
{ACAD_REACTORS
330
2A
102
}
330
2A
100
AcDbProxyObject
 90
      499
 91
      501
 93
      412
310
40D11A5B50B409028333333333333E33F0000000000000F9010790141107004050150841D405064090741402480A02677FFFFFD0
1001
ACAD
1000
AcDbSavedByObjectVersion
1070
     0
  0
ACAD_PROXY_OBJECT
  5
3D
102
{ACAD_REACTORS
330
2A
102
}
330
2A
100
AcDbProxyObject
 90
      499
 91
      501
 93
      452
310
43115919D950DBDB1BDC93D999916409028333333333333E33F0000000000000F9010790141107004050150841D405064090741402480A0350
1001
ACAD
1000
AcDbSavedByObjectVersion
1070
     0
  0
ACAD_PROXY_OBJECT
  5
39
102
{ACAD_REACTORS
330
2A
102
}
330
2A
100
AcDbProxyObject
 90
      499
 91
      501
 93
      444
310
42D19858D95C185D1D195C9B90F409028333333333333E33F0000000000000F9010790141107004050150841D405064090741402480A0350
1001
ACAD
1000
AcDbSavedByObjectVersion
1070
     0
  0
ACAD_PROXY_OBJECT
  5
2B
102
{ACAD_REACTORS
330
2A
102
}
330
2A
100
AcDbProxyObject
 90
      499
 91
      501
 93
      380
310
41119B185D240901404333333333333E33F0000000000000F9010740A907004050150841D405064090741402480A1B50
1001
ACAD
1000
AcDbSavedByObjectVersion
1070
     0
  0
ACAD_PROXY_OBJECT
  5
2C
102
{ACAD_REACTORS
330
2A
102
}
330
2A
100
AcDbProxyObject
 90
      499
 91
      501
 93
      468
310
43519B185D15DA5D1A115919D95CD0140901404333333333333E33F0000000000000F90107409019070040501600405405064090741402480A1B50
1001
ACAD
1000
AcDbSavedByObjectVersion
1070
     0
  0
ACAD_PROXY_OBJECT
  5
2D
102
{ACAD_REACTORS
330
2A
102
}
330
2A
100
AcDbProxyObject
 90
      499
 91
      501
 93
      404
310
41D1DBDD5C985D5910240902404333333333333E33F0000000000000F9010740A9070040501641D405064090741402480A1B50
1001
ACAD
1000
AcDbSavedByObjectVersion
1070
     0
  0
ACAD_PROXY_OBJECT
  5
2E
102
{ACAD_REACTORS
330
2A
102
}
330
2A
100
AcDbProxyObject
 90
      499
 91
      501
 93
      492
310
4411DBDD5C985D5915DA5D1A115919D95CD0340902404333333333333E33F0000000000000F90107409019070040501600405405064090741402480A1B50
1001
ACAD
1000
AcDbSavedByObjectVersion
1070
     0
  0
ACAD_PROXY_OBJECT
  5
31
102
{ACAD_REACTORS
330
2A
102
}
330
2A
100
AcDbProxyObject
 90
      499
 91
      501
 93
      476
310
41921A5919195B90640502408333333333333E33F0000000000000F901079024090700405020000000000001110200405405064090740C02480A0340
1001
ACAD
1000
AcDbSavedByObjectVersion
1070
     0
  0
ACAD_PROXY_OBJECT
  5
3B
102
{ACAD_REACTORS
330
2A
102
}
330
2A
100
AcDbProxyObject
 90
      499
 91
      501
 93
      428
310
42529A5D1D195C93D999914409028333333333333E33F0000000000000F9010790141107004050150A41D405064090741402480A0350
1001
ACAD
1000
AcDbSavedByObjectVersion
1070
     0
  0
ACAD_PROXY_OBJECT
  5
38
102
{ACAD_REACTORS
330
2A
102
}
330
2A
100
AcDbProxyObject
 90
      499
 91
      501
 93
      444
310
42D31A5B995C185D1D195C9B90E409028333333333333E33F0000000000000F9010790141107004050750841D405064090741402483A0350
1001
ACAD
1000
AcDbSavedByObjectVersion
1070
     0
  0
ACAD_PROXY_OBJECT
  5
3C
102
{ACAD_REACTORS
330
2A
102
}
330
2A
100
AcDbProxyObject
 90
      499
 91
      501
 93
      444
310
42D3DD995C9A185B99D3D999915409028333333333333E33F0000000000000F9010790141107004050150941D405064090741402480A0350
1001
ACAD
1000
AcDbSavedByObjectVersion
1070
     0
  0
ACAD_PROXY_OBJECT
  5
33
102
{ACAD_REACTORS
330
2A
102
}
330
2A
100
AcDbProxyObject
 90
      499
 91
      501
 93
      428
310
425499585B1A5CDD1A58D08409038333333333333E33F0000000000000F9010740A907004050150800405405064090740C02480A1B40
1001
ACAD
1000
AcDbSavedByObjectVersion
1070
     0
  0
ACAD_PROXY_OBJECT
  5
42
102
{ACAD_REACTORS
330
2A
102
}
330
2A
100
AcDbProxyObject
 90
      499
 91
      501
 93
      420
310
4194DA1859195911B40902404333333333333E33F0000000000000F9010740A41107004050150800405405064090840C02480A0B40
1001
ACAD
1000
AcDbSavedByObjectVersion
1070
     0
  0
ACAD_PROXY_OBJECT
  5
41
102
{ACAD_REACTORS
330
2A
102
}
330
2A
100
AcDbProxyObject
 90
      499
 91
      501
 93
      516
310
4454DA18591959081DDA5D1A08195919D95CD1A40902404333333333333E33F0000000000000F901074090142907004050250800405405064090740C02480A0B40
1001
ACAD
1000
AcDbSavedByObjectVersion
1070
     0
  0
ACAD_PROXY_OBJECT
  5
3E
102
{ACAD_REACTORS
330
2A
102
}
330
2A
100
AcDbProxyObject
 90
      499
 91
      501
 93
      532
310
4394DA1859195CC81BD98811DC985E5174090240C333333333333E33F0000000000000F901079024090741D01000000000000111010841D405064090740C02480A0340
1001
ACAD
1000
AcDbSavedByObjectVersion
1070
     0
  0
ACAD_PROXY_OBJECT
  5
3F
102
{ACAD_REACTORS
330
2A
102
}
330
2A
100
AcDbProxyObject
 90
      499
 91
      501
 93
      476
310
41D4DAD95D18DA1E51840502408333333333333E33F0000000000000F901079024090741D01000000000000111010B41D405064090741802480A0340
1001
ACAD
1000
AcDbSavedByObjectVersion
1070
     0
  0
ACAD_PROXY_OBJECT
  5
37
102
{ACAD_REACTORS
330
2A
102
}
330
2A
100
AcDbProxyObject
 90
      499
 91
      501
 93
      412
310
41D51A1A58DAD95B90D409028333333333333E33F0000000000000F9010790141107004050150C41D405064090741402480A0350
1001
ACAD
1000
AcDbSavedByObjectVersion
1070
     0
  0
ACAD_PROXY_OBJECT
  5
30
102
{ACAD_REACTORS
330
2A
102
}
330
2A
100
AcDbProxyObject
 90
      499
 91
      501
 93
      420
310
4255DA5C99599C985B595059028333333333333E33F0000000000000F90107901411070040501600405405064090740C02480A0340
1001
ACAD
1000
AcDbSavedByObjectVersion
1070
     0
  0
ACAD_PROXY_OBJECT
  5
40
102
{ACAD_REACTORS
330
2A
102
}
330
2A
100
AcDbProxyObject
 90
      499
 91
      501
 93
      404
310
41560B54985E51940902404000000000000E03F0000000000000F9010740501907004050150841D405064090740C02480A1B40
1001
ACAD
1000
AcDbSavedByObjectVersion
1070
     0
  0
XRECORD
  5
7C1
102
{ACAD_REACTORS
330
7B7
102
}
330
7B7
100
AcDbXrecord
340
0
  0
XRECORD
  5
7C0
102
{ACAD_REACTORS
330
7B7
102
}
330
7B7
100
AcDbXrecord
 90
        0
  0
XRECORD
  5
7D7
102
{ACAD_REACTORS
330
7B7
102
}
330
7B7
100
AcDbXrecord
1000
DSTYLE
1002
{
1070
   340
340
11
1002
}
  0
XRECORD
  5
7C2
102
{ACAD_REACTORS
330
7B7
102
}
330
7B7
100
AcDbXrecord
  1
{a1ca6f91-2a3d-460b-a30e-43318abfc189}
  0
XRECORD
  5
7BA
102
{ACAD_REACTORS
330
7B7
102
}
330
7B7
100
AcDbXrecord
  1

  0
XRECORD
  5
7BF
102
{ACAD_REACTORS
330
7B7
102
}
330
7B7
100
AcDbXrecord
 90
        4
  0
XRECORD
  5
7BC
102
{ACAD_REACTORS
330
7B7
102
}
330
7B7
100
AcDbXrecord
340
1A
  0
XRECORD
  5
7BE
102
{ACAD_REACTORS
330
7B7
102
}
330
7B7
100
AcDbXrecord
 90
    10781
  0
XRECORD
  5
7BD
102
{ACAD_REACTORS
330
7B7
102
}
330
7B7
100
AcDbXrecord
340
19
  0
XRECORD
  5
7C4
102
{ACAD_REACTORS
330
7B7
102
}
330
7B7
100
AcDbXrecord
 40
0.0
  0
XRECORD
  5
7C7
102
{ACAD_REACTORS
330
7B7
102
}
330
7B7
100
AcDbXrecord
340
0
  0
XRECORD
  5
7CD
102
{ACAD_REACTORS
330
7B7
102
}
330
7B7
100
AcDbXrecord
 10
0.0
 20
0.0
 30
0.0
  0
XRECORD
  5
7C9
102
{ACAD_REACTORS
330
7B7
102
}
330
7B7
100
AcDbXrecord
 10
0.0
 20
0.0
 30
0.0
  0
XRECORD
  5
7CC
102
{ACAD_REACTORS
330
7B7
102
}
330
7B7
100
AcDbXrecord
 10
0.0
 20
0.0
 30
0.0
  0
XRECORD
  5
7CA
102
{ACAD_REACTORS
330
7B7
102
}
330
7B7
100
AcDbXrecord
 10
0.0
 20
0.0
 30
0.0
  0
XRECORD
  5
7CB
102
{ACAD_REACTORS
330
7B7
102
}
330
7B7
100
AcDbXrecord
 10
0.0
 20
0.0
 30
0.0
  0
XRECORD
  5
7C8
102
{ACAD_REACTORS
330
7B7
102
}
330
7B7
100
AcDbXrecord
 10
0.0
 20
0.0
 30
0.0
  0
XRECORD
  5
7C5
102
{ACAD_REACTORS
330
7B7
102
}
330
7B7
100
AcDbXrecord
340
0
  0
XRECORD
  5
7C6
102
{ACAD_REACTORS
330
7B7
102
}
330
7B7
100
AcDbXrecord
 70
     0
  0
XRECORD
  5
7BB
102
{ACAD_REACTORS
330
7B7
102
}
330
7B7
100
AcDbXrecord
  1

  0
XRECORD
  5
7B8
102
{ACAD_REACTORS
330
7B7
102
}
330
7B7
100
AcDbXrecord
 90
        1
  0
XRECORD
  5
7B9
102
{ACAD_REACTORS
330
7B7
102
}
330
7B7
100
AcDbXrecord
 90
       70
  0
XRECORD
  5
7D0
102
{ACAD_REACTORS
330
7B7
102
}
330
7B7
100
AcDbXrecord
340
0
  0
XRECORD
  5
7D6
102
{ACAD_REACTORS
330
7B7
102
}
330
7B7
100
AcDbXrecord
 10
0.0
 20
0.0
 30
0.0
  0
XRECORD
  5
7D2
102
{ACAD_REACTORS
330
7B7
102
}
330
7B7
100
AcDbXrecord
 10
0.0
 20
0.0
 30
0.0
  0
XRECORD
  5
7D5
102
{ACAD_REACTORS
330
7B7
102
}
330
7B7
100
AcDbXrecord
 10
0.0
 20
0.0
 30
0.0
  0
XRECORD
  5
7D3
102
{ACAD_REACTORS
330
7B7
102
}
330
7B7
100
AcDbXrecord
 10
0.0
 20
0.0
 30
0.0
  0
XRECORD
  5
7D4
102
{ACAD_REACTORS
330
7B7
102
}
330
7B7
100
AcDbXrecord
 10
0.0
 20
0.0
 30
0.0
  0
XRECORD
  5
7D1
102
{ACAD_REACTORS
330
7B7
102
}
330
7B7
100
AcDbXrecord
 10
0.0
 20
0.0
 30
0.0
  0
XRECORD
  5
7CE
102
{ACAD_REACTORS
330
7B7
102
}
330
7B7
100
AcDbXrecord
340
0
  0
XRECORD
  5
7CF
102
{ACAD_REACTORS
330
7B7
102
}
330
7B7
100
AcDbXrecord
 70
     0
  0
XRECORD
  5
7C3
102
{ACAD_REACTORS
330
7B7
102
}
330
7B7
100
AcDbXrecord
  1
{FAEB1C32-E019-11D5-929B-00C0DF256EC4}
  0
DICTIONARYVAR
  5
7E5
102
{ACAD_REACTORS
330
7D8
102
}
330
7D8
100
DictionaryVariables
280
     0
  1
1:1
  0
DICTIONARYVAR
  5
7DF
102
{ACAD_REACTORS
330
7D8
102
}
330
7D8
100
DictionaryVariables
280
     0
  1
3.500000
  0
DICTIONARYVAR
  5
7E0
102
{ACAD_REACTORS
330
7D8
102
}
330
7D8
100
DictionaryVariables
280
     0
  1
acadiso.lin
  0
DICTIONARYVAR
  5
7DA
102
{ACAD_REACTORS
330
7D8
102
}
330
7D8
100
DictionaryVariables
280
     0
  1
Standard
  0
DICTIONARYVAR
  5
7D9
102
{ACAD_REACTORS
330
7D8
102
}
330
7D8
100
DictionaryVariables
280
     0
  1
Standard
  0
DICTIONARYVAR
  5
7E1
102
{ACAD_REACTORS
330
7D8
102
}
330
7D8
100
DictionaryVariables
280
     0
  1
2
  0
DICTIONARYVAR
  5
7E2
102
{ACAD_REACTORS
330
7D8
102
}
330
7D8
100
DictionaryVariables
280
     0
  1
1
  0
DICTIONARYVAR
  5
7E6
102
{ACAD_REACTORS
330
7D8
102
}
330
7D8
100
DictionaryVariables
280
     0
  1
1
  0
DICTIONARYVAR
  5
7DC
102
{ACAD_REACTORS
330
7D8
102
}
330
7D8
100
DictionaryVariables
280
     0
  1
80.000000
  0
DICTIONARYVAR
  5
7DB
102
{ACAD_REACTORS
330
7D8
102
}
330
7D8
100
DictionaryVariables
280
     0
  1
5.000000
  0
DICTIONARY
  5
7E9
330
45
100
AcDbDictionary
280
     1
  3
ACAD_XREC_ROUNDTRIP
360
7EA
  0
DICTIONARY
  5
7E7
330
44
100
AcDbDictionary
280
     1
  3
ACAD_XREC_ROUNDTRIP
360
7E8
  0
DICTIONARY
  5
7EB
330
46
100
AcDbDictionary
280
     1
  3
ACAD_XREC_ROUNDTRIP
360
7EC
  0
XRECORD
  5
7EA
102
{ACAD_REACTORS
330
7E9
102
}
330
7E9
100
AcDbXrecord
102
MATERIAL
148
0.0
149
0.0
149
0.0
 93
        0
 94
      127
282
     0
 72
     1
 77
     1
171
     1
175
     1
179
     1
273
     0
  0
XRECORD
  5
7E8
102
{ACAD_REACTORS
330
7E7
102
}
330
7E7
100
AcDbXrecord
102
MATERIAL
148
0.0
149
0.0
149
0.0
 93
        0
 94
      127
282
     0
 72
     1
 77
     1
171
     1
175
     1
179
     1
273
     0
  0
XRECORD
  5
7EC
102
{ACAD_REACTORS
330
7EB
102
}
330
7EB
100
AcDbXrecord
102
MATERIAL
148
0.0
149
0.0
149
0.0
 93
        0
 94
      127
282
     0
 72
     1
 77
     1
171
     1
175
     1
179
     1
273
     0
  0
ENDSEC
  0
EOF
