  0
SECTION
  2
HEADER
  9
$ACADVER
  1
AC1014
  9
$ACADMAINTVER
 70
     9
  9
$DWGCODEPAGE
  3
ANSI_932
  9
$INSBASE
 10
0.0
 20
0.0
 30
0.0
  9
$EXTMIN
 10
50.0
 20
50.0
 30
0.0
  9
$EXTMAX
 10
2050.0
 20
1435.0
 30
0.0
  9
$LIMMIN
 10
0.0
 20
0.0
  9
$LIMMAX
 10
420.0
 20
297.0
  9
$ORTHOMODE
 70
     0
  9
$REGENMODE
 70
     1
  9
$FILLMODE
 70
     1
  9
$QTEXTMODE
 70
     0
  9
$MIRRTEXT
 70
     1
  9
$DRAGMODE
 70
     2
  9
$LTSCALE
 40
1.0
  9
$OSMODE
 70
    37
  9
$ATTMODE
 70
     1
  9
$TEXTSIZE
 40
2.5
  9
$TRACEWID
 40
1.0
  9
$TEXTSTYLE
  7
STANDARD
  9
$CLAYER
  8
Ｓ_１_１
  9
$CELTYPE
  6
BYLAYER
  9
$CECOLOR
 62
   256
  9
$CELTSCALE
 40
1.0
  9
$DELOBJ
 70
     1
  9
$DISPSILH
 70
     0
  9
$DIMSCALE
 40
1.0
  9
$DIMASZ
 40
2.5
  9
$DIMEXO
 40
0.625
  9
$DIMDLI
 40
3.75
  9
$DIMRND
 40
0.0
  9
$DIMDLE
 40
0.0
  9
$DIMEXE
 40
1.25
  9
$DIMTP
 40
0.0
  9
$DIMTM
 40
0.0
  9
$DIMTXT
 40
2.5
  9
$DIMCEN
 40
2.5
  9
$DIMTSZ
 40
0.0
  9
$DIMTOL
 70
     0
  9
$DIMLIM
 70
     0
  9
$DIMTIH
 70
     0
  9
$DIMTOH
 70
     0
  9
$DIMSE1
 70
     0
  9
$DIMSE2
 70
     0
  9
$DIMTAD
 70
     1
  9
$DIMZIN
 70
     8
  9
$DIMBLK
  1

  9
$DIMASO
 70
     1
  9
$DIMSHO
 70
     1
  9
$DIMPOST
  1

  9
$DIMAPOST
  1

  9
$DIMALT
 70
     0
  9
$DIMALTD
 70
     3
  9
$DIMALTF
 40
0.03937007874016
  9
$DIMLFAC
 40
1.0
  9
$DIMTOFL
 70
     1
  9
$DIMTVP
 40
0.0
  9
$DIMTIX
 70
     0
  9
$DIMSOXD
 70
     0
  9
$DIMSAH
 70
     0
  9
$DIMBLK1
  1

  9
$DIMBLK2
  1

  9
$DIMSTYLE
  2
ISO-25
  9
$DIMCLRD
 70
     0
  9
$DIMCLRE
 70
     0
  9
$DIMCLRT
 70
     0
  9
$DIMTFAC
 40
1.0
  9
$DIMGAP
 40
0.625
  9
$DIMJUST
 70
     0
  9
$DIMSD1
 70
     0
  9
$DIMSD2
 70
     0
  9
$DIMTOLJ
 70
     0
  9
$DIMTZIN
 70
     8
  9
$DIMALTZ
 70
     0
  9
$DIMALTTZ
 70
     0
  9
$DIMFIT
 70
     3
  9
$DIMUPT
 70
     0
  9
$DIMUNIT
 70
     2
  9
$DIMDEC
 70
     2
  9
$DIMTDEC
 70
     2
  9
$DIMALTU
 70
     2
  9
$DIMALTTD
 70
     3
  9
$DIMTXSTY
  7
STANDARD
  9
$DIMAUNIT
 70
     0
  9
$LUNITS
 70
     2
  9
$LUPREC
 70
     4
  9
$SKETCHINC
 40
1.0
  9
$FILLETRAD
 40
10.0
  9
$AUNITS
 70
     0
  9
$AUPREC
 70
     0
  9
$MENU
  1
.
  9
$ELEVATION
 40
0.0
  9
$PELEVATION
 40
0.0
  9
$THICKNESS
 40
0.0
  9
$LIMCHECK
 70
     0
  9
$CHAMFERA
 40
0.0
  9
$CHAMFERB
 40
0.0
  9
$CHAMFERC
 40
0.0
  9
$CHAMFERD
 40
0.0
  9
$SKPOLY
 70
     0
  9
$TDCREATE
 40
2459585.497399005
  9
$TDUPDATE
 40
2459585.497400683
  9
$TDINDWG
 40
0.0000000116
  9
$TDUSRTIMER
 40
0.0000000116
  9
$USRTIMER
 70
     1
  9
$ANGBASE
 50
0.0
  9
$ANGDIR
 70
     0
  9
$PDMODE
 70
     0
  9
$PDSIZE
 40
0.0
  9
$PLINEWID
 40
0.0
  9
$COORDS
 70
     1
  9
$SPLFRAME
 70
     0
  9
$SPLINETYPE
 70
     6
  9
$SPLINESEGS
 70
     8
  9
$ATTDIA
 70
     0
  9
$ATTREQ
 70
     1
  9
$HANDLING
 70
     1
  9
$HANDSEED
  5
4D1
  9
$SURFTAB1
 70
     6
  9
$SURFTAB2
 70
     6
  9
$SURFTYPE
 70
     6
  9
$SURFU
 70
     6
  9
$SURFV
 70
     6
  9
$UCSNAME
  2

  9
$UCSORG
 10
0.0
 20
0.0
 30
0.0
  9
$UCSXDIR
 10
1.0
 20
0.0
 30
0.0
  9
$UCSYDIR
 10
0.0
 20
1.0
 30
0.0
  9
$PUCSNAME
  2

  9
$PUCSORG
 10
0.0
 20
0.0
 30
0.0
  9
$PUCSXDIR
 10
1.0
 20
0.0
 30
0.0
  9
$PUCSYDIR
 10
0.0
 20
1.0
 30
0.0
  9
$USERI1
 70
     0
  9
$USERI2
 70
     0
  9
$USERI3
 70
     0
  9
$USERI4
 70
     0
  9
$USERI5
 70
     0
  9
$USERR1
 40
0.0
  9
$USERR2
 40
0.0
  9
$USERR3
 40
0.0
  9
$USERR4
 40
0.0
  9
$USERR5
 40
0.0
  9
$WORLDVIEW
 70
     1
  9
$SHADEDGE
 70
     3
  9
$SHADEDIF
 70
    70
  9
$TILEMODE
 70
     1
  9
$MAXACTVP
 70
    64
  9
$PINSBASE
 10
0.0
 20
0.0
 30
0.0
  9
$PLIMCHECK
 70
     0
  9
$PEXTMIN
 10
1.000000000000000E+20
 20
1.000000000000000E+20
 30
1.000000000000000E+20
  9
$PEXTMAX
 10
-1.000000000000000E+20
 20
-1.000000000000000E+20
 30
-1.000000000000000E+20
  9
$PLIMMIN
 10
0.0
 20
0.0
  9
$PLIMMAX
 10
420.0
 20
297.0
  9
$UNITMODE
 70
     0
  9
$VISRETAIN
 70
     1
  9
$PLINEGEN
 70
     0
  9
$PSLTSCALE
 70
     1
  9
$TREEDEPTH
 70
  3020
  9
$PICKSTYLE
 70
     1
  9
$CMLSTYLE
  2
STANDARD
  9
$CMLJUST
 70
     0
  9
$CMLSCALE
 40
20.0
  9
$PROXYGRAPHICS
 70
     1
  9
$MEASUREMENT
 70
     1
  0
ENDSEC
  0
SECTION
  2
CLASSES
  0
CLASS
  1
ACDBDICTIONARYWDFLT
  2
AcDbDictionaryWithDefault
  3
ObjectDBX Classes
 90
        0
280
     0
281
     0
  0
CLASS
  1
VISUALSTYLE
  2
AcDbVisualStyle
  3
ObjectDBX Classes
 90
     4095
280
     0
281
     0
  0
CLASS
  1
MATERIAL
  2
AcDbMaterial
  3
ObjectDBX Classes
 90
     1153
280
     0
281
     0
  0
CLASS
  1
SCALE
  2
AcDbScale
  3
ObjectDBX Classes
 90
     1153
280
     0
281
     0
  0
CLASS
  1
TABLESTYLE
  2
AcDbTableStyle
  3
ObjectDBX Classes
 90
     4095
280
     0
281
     0
  0
CLASS
  1
MLEADERSTYLE
  2
AcDbMLeaderStyle
  3
ACDB_MLEADERSTYLE_CLASS
 90
     4095
280
     0
281
     0
  0
CLASS
  1
SUN
  2
AcDbSun
  3
SCENEOE
 90
     1153
280
     0
281
     0
  0
CLASS
  1
DICTIONARYVAR
  2
AcDbDictionaryVar
  3
ObjectDBX Classes
 90
        0
280
     0
281
     0
  0
CLASS
  1
XRECORD
  2
AcDbXrecord
  3
ObjectDBX Classes
 90
        0
280
     0
281
     0
  0
CLASS
  1
LWPOLYLINE
  2
AcDbPolyline
  3
ObjectDBX Classes
 90
        0
280
     0
281
     1
  0
CLASS
  1
HATCH
  2
AcDbHatch
  3
ObjectDBX Classes
 90
        0
280
     0
281
     1
  0
CLASS
  1
ACDBPLACEHOLDER
  2
AcDbPlaceHolder
  3
ObjectDBX Classes
 90
        0
280
     0
281
     0
  0
CLASS
  1
LAYOUT
  2
AcDbLayout
  3
ObjectDBX Classes
 90
        0
280
     0
281
     0
  0
ENDSEC
  0
SECTION
  2
TABLES
  0
TABLE
  2
VPORT
  5
8
102
{ACAD_XDICTIONARY
360
4C6
102
}
330
0
100
AcDbSymbolTable
 70
     1
  0
VPORT
  5
29
330
8
100
AcDbSymbolTableRecord
100
AcDbViewportTableRecord
  2
*ACTIVE
 70
     0
 10
0.0
 20
0.0
 11
1.0
 21
1.0
 12
1050.0
 22
742.5
 13
0.0
 23
0.0
 14
10.0
 24
10.0
 15
10.0
 25
10.0
 16
0.0
 26
0.0
 36
1.0
 17
0.0
 27
0.0
 37
0.0
 40
1385.0
 41
1.444043321299639
 42
50.0
 43
0.0
 44
0.0
 50
0.0
 51
0.0
 71
     0
 72
  1000
 73
     1
 74
     3
 75
     0
 76
     0
 77
     0
 78
     0
  0
ENDTAB
  0
TABLE
  2
LTYPE
  5
5
330
0
100
AcDbSymbolTable
 70
     8
  0
LTYPE
  5
14
330
5
100
AcDbSymbolTableRecord
100
AcDbLinetypeTableRecord
  2
BYBLOCK
 70
     0
  3

 72
    65
 73
     0
 40
0.0
  0
LTYPE
  5
15
330
5
100
AcDbSymbolTableRecord
100
AcDbLinetypeTableRecord
  2
BYLAYER
 70
     0
  3

 72
    65
 73
     0
 40
0.0
  0
LTYPE
  5
16
330
5
100
AcDbSymbolTableRecord
100
AcDbLinetypeTableRecord
  2
CONTINUOUS
 70
     0
  3
Solid line
 72
    65
 73
     0
 40
0.0
  0
LTYPE
  5
6E
330
5
100
AcDbSymbolTableRecord
100
AcDbLinetypeTableRecord
  2
EXLTYPE0
 70
     0
  3
破線
 72
    65
 73
     2
 40
4.0
 49
3.0
 74
     0
 49
-1.0
 74
     0
  0
LTYPE
  5
6F
330
5
100
AcDbSymbolTableRecord
100
AcDbLinetypeTableRecord
  2
EXLTYPE1
 70
     0
  3
点線
 72
    65
 73
     2
 40
2.0
 49
1.0
 74
     0
 49
-1.0
 74
     0
  0
LTYPE
  5
70
330
5
100
AcDbSymbolTableRecord
100
AcDbLinetypeTableRecord
  2
EXLTYPE2
 70
     0
  3
一点鎖線
 72
    65
 73
     4
 40
13.0
 49
10.0
 74
     0
 49
-1.0
 74
     0
 49
1.0
 74
     0
 49
-1.0
 74
     0
  0
LTYPE
  5
71
330
5
100
AcDbSymbolTableRecord
100
AcDbLinetypeTableRecord
  2
EXLTYPE3
 70
     0
  3
二点鎖線
 72
    65
 73
     6
 40
15.0
 49
10.0
 74
     0
 49
-1.0
 74
     0
 49
1.0
 74
     0
 49
-1.0
 74
     0
 49
1.0
 74
     0
 49
-1.0
 74
     0
  0
LTYPE
  5
72
330
5
100
AcDbSymbolTableRecord
100
AcDbLinetypeTableRecord
  2
EXLTYPE4
 70
     0
  3
一点鎖線2
 72
    65
 73
     4
 40
3.5
 49
2.0
 74
     0
 49
-0.5
 74
     0
 49
0.5
 74
     0
 49
-0.5
 74
     0
  0
LTYPE
  5
73
330
5
100
AcDbSymbolTableRecord
100
AcDbLinetypeTableRecord
  2
EXLTYPE5
 70
     0
  3
二点鎖線2
 72
    65
 73
     6
 40
4.5
 49
2.0
 74
     0
 49
-0.5
 74
     0
 49
0.5
 74
     0
 49
-0.5
 74
     0
 49
0.5
 74
     0
 49
-0.5
 74
     0
  0
LTYPE
  5
74
330
5
100
AcDbSymbolTableRecord
100
AcDbLinetypeTableRecord
  2
EXLTYPE6
 70
     0
  3
一点鎖線4
 72
    65
 73
     4
 40
33.0
 49
30.0
 74
     0
 49
-1.0
 74
     0
 49
1.0
 74
     0
 49
-1.0
 74
     0
  0
ENDTAB
  0
TABLE
  2
LAYER
  5
2
330
0
100
AcDbSymbolTable
 70
     4
  0
LAYER
  5
10
330
2
100
AcDbSymbolTableRecord
100
AcDbLayerTableRecord
  2
0
 70
     0
 62
     7
  6
CONTINUOUS
  0
LAYER
  5
77
330
2
100
AcDbSymbolTableRecord
100
AcDbLayerTableRecord
  2
図面枠
 70
     4
 62
     7
  6
CONTINUOUS
  0
LAYER
  5
78
330
2
100
AcDbSymbolTableRecord
100
AcDbLayerTableRecord
  2
Ｓ_１_１
 70
     0
 62
     7
  6
CONTINUOUS
  0
LAYER
  5
1D5
330
2
100
AcDbSymbolTableRecord
100
AcDbLayerTableRecord
  2
DEFPOINTS
 70
     0
 62
     7
  6
CONTINUOUS
  0
ENDTAB
  0
TABLE
  2
STYLE
  5
3
330
0
100
AcDbSymbolTable
 70
     5
  0
STYLE
  5
11
330
3
100
AcDbSymbolTableRecord
100
AcDbTextStyleTableRecord
  2
STANDARD
 70
     0
 40
0.0
 41
1.0
 50
0.0
 71
     0
 42
2.5
  3
monotxt
  4
extfont
  0
STYLE
  5
75
330
3
100
AcDbSymbolTableRecord
100
AcDbTextStyleTableRecord
  2
EXCADSTD
 70
     0
 40
0.0
 41
1.0
 50
0.0
 71
     0
 42
2.5
  3
monotxt
  4
extfont
  0
STYLE
  5
76
330
3
100
AcDbSymbolTableRecord
100
AcDbTextStyleTableRecord
  2
EXCADVERT
 70
     4
 40
0.0
 41
1.0
 50
0.0
 71
     0
 42
2.5
  3
monotxt
  4
extfont
  0
STYLE
  5
D9
330
3
100
AcDbSymbolTableRecord
100
AcDbTextStyleTableRecord
  2
EXCADTTF1
 70
     0
 40
0.0
 41
1.0
 50
0.0
 71
     0
 42
2.5
  3
msgothic.ttc
  4

1001
ACAD
1000
MS Gothic
1071
    32817
  0
STYLE
  5
1D3
330
3
100
AcDbSymbolTableRecord
100
AcDbTextStyleTableRecord
  2
EXCADDIM1
 70
     0
 40
0.0
 41
1.0
 50
0.0
 71
     0
 42
2.5
  3
msgothic.ttc
  4

1001
ACAD
1000
MS Gothic
1071
    32817
  0
ENDTAB
  0
TABLE
  2
VIEW
  5
6
330
0
100
AcDbSymbolTable
 70
     0
  0
ENDTAB
  0
TABLE
  2
UCS
  5
7
330
0
100
AcDbSymbolTable
 70
     0
  0
ENDTAB
  0
TABLE
  2
APPID
  5
9
330
0
100
AcDbSymbolTable
 70
     2
  0
APPID
  5
12
330
9
100
AcDbSymbolTableRecord
100
AcDbRegAppTableRecord
  2
ACAD
 70
     0
  0
APPID
  5
4D0
330
9
100
AcDbSymbolTableRecord
100
AcDbRegAppTableRecord
  2
ACAD_MLEADERVER
 70
     0
  0
ENDTAB
  0
TABLE
  2
DIMSTYLE
  5
A
330
0
100
AcDbSymbolTable
 70
     1
  0
DIMSTYLE
105
27
102
{ACAD_REACTORS
330
1D4
330
1E2
330
1EF
330
1FC
330
209
330
216
330
223
330
233
330
240
330
24D
330
3B3
330
3C0
330
3CD
330
3DA
102
}
330
A
100
AcDbSymbolTableRecord
100
AcDbDimStyleTableRecord
  2
ISO-25
 70
     0
  3

  4

  5

  6

  7

 40
1.0
 41
2.5
 42
0.625
 43
3.75
 44
1.25
 45
0.0
 46
0.0
 47
0.0
 48
0.0
140
2.5
141
2.5
142
0.0
143
0.03937007874016
144
1.0
145
0.0
146
1.0
147
0.625
 71
     0
 72
     0
 73
     0
 74
     0
 75
     0
 76
     0
 77
     1
 78
     8
170
     0
171
     3
172
     1
173
     0
174
     0
175
     0
176
     0
177
     0
178
     0
270
     2
271
     2
272
     2
273
     2
274
     3
340
11
275
     0
280
     0
281
     0
282
     0
283
     0
284
     8
285
     0
286
     0
287
     5
288
     0
  0
ENDTAB
  0
TABLE
  2
BLOCK_RECORD
  5
1
330
0
100
AcDbSymbolTable
 70
    28
  0
BLOCK_RECORD
  5
1F
330
1
100
AcDbSymbolTableRecord
100
AcDbBlockTableRecord
  2
*MODEL_SPACE
  0
BLOCK_RECORD
  5
1B
330
1
100
AcDbSymbolTableRecord
100
AcDbBlockTableRecord
  2
*PAPER_SPACE
  0
BLOCK_RECORD
  5
79
330
1
100
AcDbSymbolTableRecord
100
AcDbBlockTableRecord
  2
EX_NORM
  0
BLOCK_RECORD
  5
7C
330
1
100
AcDbSymbolTableRecord
100
AcDbBlockTableRecord
  2
EX_BNORM
  0
BLOCK_RECORD
  5
7F
330
1
100
AcDbSymbolTableRecord
100
AcDbBlockTableRecord
  2
EX_BCIR
  0
BLOCK_RECORD
  5
82
330
1
100
AcDbSymbolTableRecord
100
AcDbBlockTableRecord
  2
EX_RCIVIL
  0
BLOCK_RECORD
  5
85
330
1
100
AcDbSymbolTableRecord
100
AcDbBlockTableRecord
  2
EX_SLANT
  0
BLOCK_RECORD
  5
88
330
1
100
AcDbSymbolTableRecord
100
AcDbBlockTableRecord
  2
EX_NONE
  0
BLOCK_RECORD
  5
8B
330
1
100
AcDbSymbolTableRecord
100
AcDbBlockTableRecord
  2
EX_CIVIL
  0
BLOCK_RECORD
  5
8E
330
1
100
AcDbSymbolTableRecord
100
AcDbBlockTableRecord
  2
EX_WCIR
  0
BLOCK_RECORD
  5
91
330
1
100
AcDbSymbolTableRecord
100
AcDbBlockTableRecord
  2
EX_WCIR2
  0
BLOCK_RECORD
  5
94
330
1
100
AcDbSymbolTableRecord
100
AcDbBlockTableRecord
  2
EX_WNORM
  0
BLOCK_RECORD
  5
97
330
1
100
AcDbSymbolTableRecord
100
AcDbBlockTableRecord
  2
EX_NNORM
  0
BLOCK_RECORD
  5
9A
330
1
100
AcDbSymbolTableRecord
100
AcDbBlockTableRecord
  2
EX_BBOX
  0
BLOCK_RECORD
  5
9D
330
1
100
AcDbSymbolTableRecord
100
AcDbBlockTableRecord
  2
EX_WBOX
  0
BLOCK_RECORD
  5
A0
330
1
100
AcDbSymbolTableRecord
100
AcDbBlockTableRecord
  2
EX_INTEGRAL
  0
BLOCK_RECORD
  5
1D6
330
1
100
AcDbSymbolTableRecord
100
AcDbBlockTableRecord
  2
*D15
  0
BLOCK_RECORD
  5
1E3
330
1
100
AcDbSymbolTableRecord
100
AcDbBlockTableRecord
  2
*D16
  0
BLOCK_RECORD
  5
1F0
330
1
100
AcDbSymbolTableRecord
100
AcDbBlockTableRecord
  2
*D17
  0
BLOCK_RECORD
  5
1FD
330
1
100
AcDbSymbolTableRecord
100
AcDbBlockTableRecord
  2
*D18
  0
BLOCK_RECORD
  5
20A
330
1
100
AcDbSymbolTableRecord
100
AcDbBlockTableRecord
  2
*D19
  0
BLOCK_RECORD
  5
217
330
1
100
AcDbSymbolTableRecord
100
AcDbBlockTableRecord
  2
*D20
  0
BLOCK_RECORD
  5
224
330
1
100
AcDbSymbolTableRecord
100
AcDbBlockTableRecord
  2
*D21
  0
BLOCK_RECORD
  5
234
330
1
100
AcDbSymbolTableRecord
100
AcDbBlockTableRecord
  2
*D22
  0
BLOCK_RECORD
  5
241
330
1
100
AcDbSymbolTableRecord
100
AcDbBlockTableRecord
  2
*D23
  0
BLOCK_RECORD
  5
24E
330
1
100
AcDbSymbolTableRecord
100
AcDbBlockTableRecord
  2
*D24
  0
BLOCK_RECORD
  5
3B4
330
1
100
AcDbSymbolTableRecord
100
AcDbBlockTableRecord
  2
*D25
  0
BLOCK_RECORD
  5
3C1
330
1
100
AcDbSymbolTableRecord
100
AcDbBlockTableRecord
  2
*D26
  0
BLOCK_RECORD
  5
3CE
330
1
100
AcDbSymbolTableRecord
100
AcDbBlockTableRecord
  2
*D27
  0
BLOCK_RECORD
  5
3DB
330
1
100
AcDbSymbolTableRecord
100
AcDbBlockTableRecord
  2
*D28
  0
ENDTAB
  0
ENDSEC
  0
SECTION
  2
BLOCKS
  0
BLOCK
  5
20
330
1F
100
AcDbEntity
  8
0
100
AcDbBlockBegin
  2
*MODEL_SPACE
 70
     0
 10
0.0
 20
0.0
 30
0.0
  3
*MODEL_SPACE
  1

  0
ENDBLK
  5
21
330
1F
100
AcDbEntity
  8
0
100
AcDbBlockEnd
  0
BLOCK
  5
1C
330
1B
100
AcDbEntity
 67
     1
  8
0
100
AcDbBlockBegin
  2
*PAPER_SPACE
 70
     0
 10
0.0
 20
0.0
 30
0.0
  3
*PAPER_SPACE
  1

  0
ENDBLK
  5
1D
330
1B
100
AcDbEntity
 67
     1
  8
0
100
AcDbBlockEnd
  0
BLOCK
  5
7A
330
79
100
AcDbEntity
  8
0
100
AcDbBlockBegin
  2
EX_NORM
 70
     0
 10
0.0
 20
0.0
 30
0.0
  3
EX_NORM
  1

  0
LINE
  5
A3
330
79
100
AcDbEntity
  8
0
  6
CONTINUOUS
 62
     0
100
AcDbLine
 10
0.0
 20
0.0
 30
0.0
 11
-1.0
 21
0.0
 31
0.0
  0
LINE
  5
A4
330
79
100
AcDbEntity
  8
0
  6
CONTINUOUS
 62
     0
100
AcDbLine
 10
0.0
 20
0.0
 30
0.0
 11
-1.0
 21
0.166666667
 31
0.0
  0
LINE
  5
A5
330
79
100
AcDbEntity
  8
0
  6
CONTINUOUS
 62
     0
100
AcDbLine
 10
0.0
 20
0.0
 30
0.0
 11
-1.0
 21
-0.166666667
 31
0.0
  0
ENDBLK
  5
7B
330
79
100
AcDbEntity
  8
0
100
AcDbBlockEnd
  0
BLOCK
  5
7D
330
7C
100
AcDbEntity
  8
0
100
AcDbBlockBegin
  2
EX_BNORM
 70
     0
 10
0.0
 20
0.0
 30
0.0
  3
EX_BNORM
  1

  0
LINE
  5
A6
330
7C
100
AcDbEntity
  8
0
  6
CONTINUOUS
 62
     0
100
AcDbLine
 10
0.0
 20
0.0
 30
0.0
 11
-1.0
 21
0.0
 31
0.0
  0
LINE
  5
A7
330
7C
100
AcDbEntity
  8
0
  6
CONTINUOUS
 62
     0
100
AcDbLine
 10
0.0
 20
0.0
 30
0.0
 11
-1.0
 21
0.166666667
 31
0.0
  0
LINE
  5
A8
330
7C
100
AcDbEntity
  8
0
  6
CONTINUOUS
 62
     0
100
AcDbLine
 10
0.0
 20
0.0
 30
0.0
 11
-1.0
 21
-0.166666667
 31
0.0
  0
LINE
  5
A9
330
7C
100
AcDbEntity
  8
0
  6
CONTINUOUS
 62
     0
100
AcDbLine
 10
0.0
 20
0.0
 30
0.0
 11
-1.0
 21
0.083333333
 31
0.0
  0
LINE
  5
AA
330
7C
100
AcDbEntity
  8
0
  6
CONTINUOUS
 62
     0
100
AcDbLine
 10
0.0
 20
0.0
 30
0.0
 11
-1.0
 21
-0.083333333
 31
0.0
  0
LINE
  5
AB
330
7C
100
AcDbEntity
  8
0
  6
CONTINUOUS
 62
     0
100
AcDbLine
 10
-1.0
 20
0.166666667
 30
0.0
 11
-1.0
 21
-0.166666667
 31
0.0
  0
ENDBLK
  5
7E
330
7C
100
AcDbEntity
  8
0
100
AcDbBlockEnd
  0
BLOCK
  5
80
330
7F
100
AcDbEntity
  8
0
100
AcDbBlockBegin
  2
EX_BCIR
 70
     0
 10
0.0
 20
0.0
 30
0.0
  3
EX_BCIR
  1

  0
LINE
  5
AC
330
7F
100
AcDbEntity
  8
0
  6
CONTINUOUS
 62
     0
100
AcDbLine
 10
0.0
 20
0.0
 30
0.0
 11
-1.0
 21
0.0
 31
0.0
  0
CIRCLE
  5
AD
330
7F
100
AcDbEntity
  8
0
  6
CONTINUOUS
 62
     0
100
AcDbCircle
 10
0.0
 20
0.0
 30
0.0
 40
0.5
  0
CIRCLE
  5
AE
330
7F
100
AcDbEntity
  8
0
  6
CONTINUOUS
 62
     0
100
AcDbCircle
 10
0.0
 20
0.0
 30
0.0
 40
0.25
  0
ENDBLK
  5
81
330
7F
100
AcDbEntity
  8
0
100
AcDbBlockEnd
  0
BLOCK
  5
83
330
82
100
AcDbEntity
  8
0
100
AcDbBlockBegin
  2
EX_RCIVIL
 70
     0
 10
0.0
 20
0.0
 30
0.0
  3
EX_RCIVIL
  1

  0
LINE
  5
AF
330
82
100
AcDbEntity
  8
0
  6
CONTINUOUS
 62
     0
100
AcDbLine
 10
0.0
 20
0.0
 30
0.0
 11
-1.0
 21
0.0
 31
0.0
  0
LINE
  5
B0
330
82
100
AcDbEntity
  8
0
  6
CONTINUOUS
 62
     0
100
AcDbLine
 10
-1.0
 20
-0.25
 30
0.0
 11
0.0
 21
-0.25
 31
0.0
  0
LINE
  5
B1
330
82
100
AcDbEntity
  8
0
  6
CONTINUOUS
 62
     0
100
AcDbLine
 10
-1.0
 20
-0.125
 30
0.0
 11
0.0
 21
-0.125
 31
0.0
  0
ENDBLK
  5
84
330
82
100
AcDbEntity
  8
0
100
AcDbBlockEnd
  0
BLOCK
  5
86
330
85
100
AcDbEntity
  8
0
100
AcDbBlockBegin
  2
EX_SLANT
 70
     0
 10
0.0
 20
0.0
 30
0.0
  3
EX_SLANT
  1

  0
LINE
  5
B2
330
85
100
AcDbEntity
  8
0
  6
CONTINUOUS
 62
     0
100
AcDbLine
 10
0.0
 20
0.0
 30
0.0
 11
-1.0
 21
0.0
 31
0.0
  0
LINE
  5
B3
330
85
100
AcDbEntity
  8
0
  6
CONTINUOUS
 62
     0
100
AcDbLine
 10
0.707106781
 20
0.707106781
 30
0.0
 11
-0.707106781
 21
-0.707106781
 31
0.0
  0
ENDBLK
  5
87
330
85
100
AcDbEntity
  8
0
100
AcDbBlockEnd
  0
BLOCK
  5
89
330
88
100
AcDbEntity
  8
0
100
AcDbBlockBegin
  2
EX_NONE
 70
     0
 10
0.0
 20
0.0
 30
0.0
  3
EX_NONE
  1

  0
LINE
  5
B4
330
88
100
AcDbEntity
  8
0
  6
CONTINUOUS
 62
     0
100
AcDbLine
 10
0.0
 20
0.0
 30
0.0
 11
-1.0
 21
0.0
 31
0.0
  0
ENDBLK
  5
8A
330
88
100
AcDbEntity
  8
0
100
AcDbBlockEnd
  0
BLOCK
  5
8C
330
8B
100
AcDbEntity
  8
0
100
AcDbBlockBegin
  2
EX_CIVIL
 70
     0
 10
0.0
 20
0.0
 30
0.0
  3
EX_CIVIL
  1

  0
LINE
  5
B5
330
8B
100
AcDbEntity
  8
0
  6
CONTINUOUS
 62
     0
100
AcDbLine
 10
0.0
 20
0.0
 30
0.0
 11
-1.0
 21
0.0
 31
0.0
  0
LINE
  5
B6
330
8B
100
AcDbEntity
  8
0
  6
CONTINUOUS
 62
     0
100
AcDbLine
 10
-1.0
 20
0.25
 30
0.0
 11
0.0
 21
0.25
 31
0.0
  0
LINE
  5
B7
330
8B
100
AcDbEntity
  8
0
  6
CONTINUOUS
 62
     0
100
AcDbLine
 10
-1.0
 20
0.125
 30
0.0
 11
0.0
 21
0.125
 31
0.0
  0
ENDBLK
  5
8D
330
8B
100
AcDbEntity
  8
0
100
AcDbBlockEnd
  0
BLOCK
  5
8F
330
8E
100
AcDbEntity
  8
0
100
AcDbBlockBegin
  2
EX_WCIR
 70
     0
 10
0.0
 20
0.0
 30
0.0
  3
EX_WCIR
  1

  0
LINE
  5
B8
330
8E
100
AcDbEntity
  8
0
  6
CONTINUOUS
 62
     0
100
AcDbLine
 10
0.0
 20
0.0
 30
0.0
 11
-1.0
 21
0.0
 31
0.0
  0
CIRCLE
  5
B9
330
8E
100
AcDbEntity
  8
0
  6
CONTINUOUS
 62
     0
100
AcDbCircle
 10
0.0
 20
0.0
 30
0.0
 40
0.5
  0
ENDBLK
  5
90
330
8E
100
AcDbEntity
  8
0
100
AcDbBlockEnd
  0
BLOCK
  5
92
330
91
100
AcDbEntity
  8
0
100
AcDbBlockBegin
  2
EX_WCIR2
 70
     0
 10
0.0
 20
0.0
 30
0.0
  3
EX_WCIR2
  1

  0
LINE
  5
BA
330
91
100
AcDbEntity
  8
0
  6
CONTINUOUS
 62
     0
100
AcDbLine
 10
-0.5
 20
0.0
 30
0.0
 11
-1.0
 21
0.0
 31
0.0
  0
CIRCLE
  5
BB
330
91
100
AcDbEntity
  8
0
  6
CONTINUOUS
 62
     0
100
AcDbCircle
 10
0.0
 20
0.0
 30
0.0
 40
0.5
  0
ENDBLK
  5
93
330
91
100
AcDbEntity
  8
0
100
AcDbBlockEnd
  0
BLOCK
  5
95
330
94
100
AcDbEntity
  8
0
100
AcDbBlockBegin
  2
EX_WNORM
 70
     0
 10
0.0
 20
0.0
 30
0.0
  3
EX_WNORM
  1

  0
LINE
  5
BC
330
94
100
AcDbEntity
  8
0
  6
CONTINUOUS
 62
     0
100
AcDbLine
 10
-1.0
 20
0.0
 30
0.0
 11
-1.0
 21
0.0
 31
0.0
  0
LINE
  5
BD
330
94
100
AcDbEntity
  8
0
  6
CONTINUOUS
 62
     0
100
AcDbLine
 10
0.0
 20
0.0
 30
0.0
 11
-1.0
 21
0.166666667
 31
0.0
  0
LINE
  5
BE
330
94
100
AcDbEntity
  8
0
  6
CONTINUOUS
 62
     0
100
AcDbLine
 10
0.0
 20
0.0
 30
0.0
 11
-1.0
 21
-0.166666667
 31
0.0
  0
LINE
  5
BF
330
94
100
AcDbEntity
  8
0
  6
CONTINUOUS
 62
     0
100
AcDbLine
 10
-1.0
 20
0.166666667
 30
0.0
 11
-1.0
 21
-0.166666667
 31
0.0
  0
ENDBLK
  5
96
330
94
100
AcDbEntity
  8
0
100
AcDbBlockEnd
  0
BLOCK
  5
98
330
97
100
AcDbEntity
  8
0
100
AcDbBlockBegin
  2
EX_NNORM
 70
     0
 10
0.0
 20
0.0
 30
0.0
  3
EX_NNORM
  1

  0
LINE
  5
C0
330
97
100
AcDbEntity
  8
0
  6
CONTINUOUS
 62
     0
100
AcDbLine
 10
0.0
 20
0.0
 30
0.0
 11
-1.0
 21
0.0
 31
0.0
  0
LINE
  5
C1
330
97
100
AcDbEntity
  8
0
  6
CONTINUOUS
 62
     0
100
AcDbLine
 10
0.0
 20
0.0
 30
0.0
 11
-1.0
 21
0.166666667
 31
0.0
  0
LINE
  5
C2
330
97
100
AcDbEntity
  8
0
  6
CONTINUOUS
 62
     0
100
AcDbLine
 10
0.0
 20
0.0
 30
0.0
 11
-1.0
 21
-0.166666667
 31
0.0
  0
LINE
  5
C3
330
97
100
AcDbEntity
  8
0
  6
CONTINUOUS
 62
     0
100
AcDbLine
 10
-1.0
 20
0.166666667
 30
0.0
 11
-1.0
 21
-0.166666667
 31
0.0
  0
ENDBLK
  5
99
330
97
100
AcDbEntity
  8
0
100
AcDbBlockEnd
  0
BLOCK
  5
9B
330
9A
100
AcDbEntity
  8
0
100
AcDbBlockBegin
  2
EX_BBOX
 70
     0
 10
0.0
 20
0.0
 30
0.0
  3
EX_BBOX
  1

  0
LINE
  5
C4
330
9A
100
AcDbEntity
  8
0
  6
CONTINUOUS
 62
     0
100
AcDbLine
 10
0.0
 20
0.0
 30
0.0
 11
-1.0
 21
0.0
 31
0.0
  0
LINE
  5
C5
330
9A
100
AcDbEntity
  8
0
  6
CONTINUOUS
 62
     0
100
AcDbLine
 10
-0.5
 20
0.5
 30
0.0
 11
0.5
 21
0.5
 31
0.0
  0
LINE
  5
C6
330
9A
100
AcDbEntity
  8
0
  6
CONTINUOUS
 62
     0
100
AcDbLine
 10
0.5
 20
0.5
 30
0.0
 11
0.5
 21
-0.5
 31
0.0
  0
LINE
  5
C7
330
9A
100
AcDbEntity
  8
0
  6
CONTINUOUS
 62
     0
100
AcDbLine
 10
0.5
 20
-0.5
 30
0.0
 11
-0.5
 21
-0.5
 31
0.0
  0
LINE
  5
C8
330
9A
100
AcDbEntity
  8
0
  6
CONTINUOUS
 62
     0
100
AcDbLine
 10
-0.5
 20
-0.5
 30
0.0
 11
-0.5
 21
0.5
 31
0.0
  0
LINE
  5
C9
330
9A
100
AcDbEntity
  8
0
  6
CONTINUOUS
 62
     0
100
AcDbLine
 10
-0.25
 20
0.25
 30
0.0
 11
0.25
 21
0.25
 31
0.0
  0
LINE
  5
CA
330
9A
100
AcDbEntity
  8
0
  6
CONTINUOUS
 62
     0
100
AcDbLine
 10
0.25
 20
0.25
 30
0.0
 11
0.25
 21
-0.25
 31
0.0
  0
LINE
  5
CB
330
9A
100
AcDbEntity
  8
0
  6
CONTINUOUS
 62
     0
100
AcDbLine
 10
0.25
 20
-0.25
 30
0.0
 11
-0.25
 21
-0.25
 31
0.0
  0
LINE
  5
CC
330
9A
100
AcDbEntity
  8
0
  6
CONTINUOUS
 62
     0
100
AcDbLine
 10
-0.25
 20
-0.25
 30
0.0
 11
-0.25
 21
0.25
 31
0.0
  0
ENDBLK
  5
9C
330
9A
100
AcDbEntity
  8
0
100
AcDbBlockEnd
  0
BLOCK
  5
9E
330
9D
100
AcDbEntity
  8
0
100
AcDbBlockBegin
  2
EX_WBOX
 70
     0
 10
0.0
 20
0.0
 30
0.0
  3
EX_WBOX
  1

  0
LINE
  5
CD
330
9D
100
AcDbEntity
  8
0
  6
CONTINUOUS
 62
     0
100
AcDbLine
 10
-0.5
 20
0.0
 30
0.0
 11
-1.0
 21
0.0
 31
0.0
  0
LINE
  5
CE
330
9D
100
AcDbEntity
  8
0
  6
CONTINUOUS
 62
     0
100
AcDbLine
 10
-0.5
 20
0.5
 30
0.0
 11
0.5
 21
0.5
 31
0.0
  0
LINE
  5
CF
330
9D
100
AcDbEntity
  8
0
  6
CONTINUOUS
 62
     0
100
AcDbLine
 10
0.5
 20
0.5
 30
0.0
 11
0.5
 21
-0.5
 31
0.0
  0
LINE
  5
D0
330
9D
100
AcDbEntity
  8
0
  6
CONTINUOUS
 62
     0
100
AcDbLine
 10
0.5
 20
-0.5
 30
0.0
 11
-0.5
 21
-0.5
 31
0.0
  0
LINE
  5
D1
330
9D
100
AcDbEntity
  8
0
  6
CONTINUOUS
 62
     0
100
AcDbLine
 10
-0.5
 20
-0.5
 30
0.0
 11
-0.5
 21
0.5
 31
0.0
  0
ENDBLK
  5
9F
330
9D
100
AcDbEntity
  8
0
100
AcDbBlockEnd
  0
BLOCK
  5
A1
330
A0
100
AcDbEntity
  8
0
100
AcDbBlockBegin
  2
EX_INTEGRAL
 70
     0
 10
0.0
 20
0.0
 30
0.0
  3
EX_INTEGRAL
  1

  0
LINE
  5
D2
330
A0
100
AcDbEntity
  8
0
  6
CONTINUOUS
 62
     0
100
AcDbLine
 10
0.0
 20
0.0
 30
0.0
 11
-1.0
 21
0.0
 31
0.0
  0
ARC
  5
D3
330
A0
100
AcDbEntity
  8
0
  6
CONTINUOUS
 62
     0
100
AcDbCircle
 10
0.542115
 20
0.164992
 30
0.0
 40
0.56667
100
AcDbArc
 50
73.07249033629006
 51
196.9275130221199
  0
ARC
  5
D4
330
A0
100
AcDbEntity
  8
0
  6
CONTINUOUS
 62
     0
100
AcDbCircle
 10
-0.542115
 20
-0.164992
 30
0.0
 40
0.56667
100
AcDbArc
 50
253.0724869220464
 51
16.9275130559125
  0
ENDBLK
  5
A2
330
A0
100
AcDbEntity
  8
0
100
AcDbBlockEnd
  0
BLOCK
  5
1D7
330
1D6
100
AcDbEntity
  8
0
100
AcDbBlockBegin
  2
*D15
 70
     1
 10
0.0
 20
0.0
 30
0.0
  3
*D15
  1

  0
LINE
  5
1D9
330
1D6
100
AcDbEntity
  8
Ｓ_１_１
  6
CONTINUOUS
 62
     2
100
AcDbLine
 10
924.9999359616343
 20
235.4998366897035
 30
0.0
 11
924.9999359616343
 21
115.0
 31
0.0
  0
LINE
  5
1DA
330
1D6
100
AcDbEntity
  8
Ｓ_１_１
  6
CONTINUOUS
 62
     2
100
AcDbLine
 10
435.0000632376899
 20
235.4997059018365
 30
0.0
 11
435.0000632376899
 21
115.0
 31
0.0
  0
LINE
  5
1DB
330
1D6
100
AcDbEntity
  8
Ｓ_１_１
  6
CONTINUOUS
 62
     2
100
AcDbLine
 10
909.9999359616343
 20
120.0
 30
0.0
 11
450.0000632376899
 21
120.0
 31
0.0
  0
INSERT
  5
1DC
330
1D6
100
AcDbEntity
  8
Ｓ_１_１
 62
     2
100
AcDbBlockReference
  2
EX_NORM
 10
924.9999359616343
 20
120.0
 30
0.0
 41
15.0
 42
15.0
 43
15.0
  0
INSERT
  5
1DD
330
1D6
100
AcDbEntity
  8
Ｓ_１_１
 62
     2
100
AcDbBlockReference
  2
EX_NORM
 10
435.0000632376899
 20
120.0
 30
0.0
 41
15.0
 42
15.0
 43
15.0
 50
180.0
  0
MTEXT
  5
1DE
330
1D6
100
AcDbEntity
  8
Ｓ_１_１
 62
     2
100
AcDbMText
 10
679.999999599662
 20
133.75
 30
0.0
 40
17.3145207852194
 41
0.0
 71
     5
 72
     1
  1
%%c490
  7
EXCADDIM1
  0
POINT
  5
1DF
330
1D6
100
AcDbEntity
  8
DEFPOINTS
 62
     0
100
AcDbPoint
 10
924.9999359616343
 20
242.9998366897035
 30
0.0
  0
POINT
  5
1E0
330
1D6
100
AcDbEntity
  8
DEFPOINTS
 62
     0
100
AcDbPoint
 10
435.0000632376899
 20
242.9997059018365
 30
0.0
  0
POINT
  5
1E1
330
1D6
100
AcDbEntity
  8
DEFPOINTS
 62
     0
100
AcDbPoint
 10
435.0000632376899
 20
120.0
 30
0.0
  0
ENDBLK
  5
1D8
330
1D6
100
AcDbEntity
  8
0
100
AcDbBlockEnd
  0
BLOCK
  5
1E4
330
1E3
100
AcDbEntity
  8
0
100
AcDbBlockBegin
  2
*D16
 70
     1
 10
0.0
 20
0.0
 30
0.0
  3
*D16
  1

  0
LINE
  5
1E6
330
1E3
100
AcDbEntity
  8
Ｓ_１_１
  6
CONTINUOUS
 62
     2
100
AcDbLine
 10
850.0003146240493
 20
585.4998018994133
 30
0.0
 11
850.0003146240493
 21
725.0
 31
0.0
  0
LINE
  5
1E7
330
1E3
100
AcDbEntity
  8
Ｓ_１_１
  6
CONTINUOUS
 62
     2
100
AcDbLine
 10
509.9995951591222
 20
585.4997111484331
 30
0.0
 11
509.9995951591222
 21
725.0
 31
0.0
  0
LINE
  5
1E8
330
1E3
100
AcDbEntity
  8
Ｓ_１_１
  6
CONTINUOUS
 62
     2
100
AcDbLine
 10
835.0003146240493
 20
720.0
 30
0.0
 11
524.9995951591222
 21
720.0
 31
0.0
  0
INSERT
  5
1E9
330
1E3
100
AcDbEntity
  8
Ｓ_１_１
 62
     2
100
AcDbBlockReference
  2
EX_NORM
 10
850.0003146240493
 20
720.0
 30
0.0
 41
15.0
 42
15.0
 43
15.0
  0
INSERT
  5
1EA
330
1E3
100
AcDbEntity
  8
Ｓ_１_１
 62
     2
100
AcDbBlockReference
  2
EX_NORM
 10
509.9995951591222
 20
720.0
 30
0.0
 41
15.0
 42
15.0
 43
15.0
 50
180.0
  0
MTEXT
  5
1EB
330
1E3
100
AcDbEntity
  8
Ｓ_１_１
 62
     2
100
AcDbMText
 10
679.9999548915857
 20
733.75
 30
0.0
 40
17.3145207852194
 41
0.0
 71
     5
 72
     1
  1
Tr340×10
  7
EXCADDIM1
  0
POINT
  5
1EC
330
1E3
100
AcDbEntity
  8
DEFPOINTS
 62
     0
100
AcDbPoint
 10
850.0003146240493
 20
577.9998018994133
 30
0.0
  0
POINT
  5
1ED
330
1E3
100
AcDbEntity
  8
DEFPOINTS
 62
     0
100
AcDbPoint
 10
509.9995951591222
 20
577.9997111484331
 30
0.0
  0
POINT
  5
1EE
330
1E3
100
AcDbEntity
  8
DEFPOINTS
 62
     0
100
AcDbPoint
 10
509.9995951591222
 20
720.0
 30
0.0
  0
ENDBLK
  5
1E5
330
1E3
100
AcDbEntity
  8
0
100
AcDbBlockEnd
  0
BLOCK
  5
1F1
330
1F0
100
AcDbEntity
  8
0
100
AcDbBlockBegin
  2
*D17
 70
     1
 10
0.0
 20
0.0
 30
0.0
  3
*D17
  1

  0
LINE
  5
1F3
330
1F0
100
AcDbEntity
  8
Ｓ_１_１
  6
CONTINUOUS
 62
     2
100
AcDbLine
 10
878.9999461957217
 20
643.5039317314074
 30
0.0
 11
878.9999461957217
 21
765.0
 31
0.0
  0
LINE
  5
1F4
330
1F0
100
AcDbEntity
  8
Ｓ_１_１
  6
CONTINUOUS
 62
     2
100
AcDbLine
 10
480.9999481052894
 20
643.5038249657744
 30
0.0
 11
480.9999481052894
 21
765.0
 31
0.0
  0
LINE
  5
1F5
330
1F0
100
AcDbEntity
  8
Ｓ_１_１
  6
CONTINUOUS
 62
     2
100
AcDbLine
 10
863.9999461957217
 20
760.0
 30
0.0
 11
495.9999481052894
 21
760.0
 31
0.0
  0
INSERT
  5
1F6
330
1F0
100
AcDbEntity
  8
Ｓ_１_１
 62
     2
100
AcDbBlockReference
  2
EX_NORM
 10
878.9999461957217
 20
760.0
 30
0.0
 41
15.0
 42
15.0
 43
15.0
  0
INSERT
  5
1F7
330
1F0
100
AcDbEntity
  8
Ｓ_１_１
 62
     2
100
AcDbBlockReference
  2
EX_NORM
 10
480.9999481052894
 20
760.0
 30
0.0
 41
15.0
 42
15.0
 43
15.0
 50
180.0
  0
MTEXT
  5
1F8
330
1F0
100
AcDbEntity
  8
Ｓ_１_１
 62
     2
100
AcDbMText
 10
679.9999471505056
 20
773.75
 30
0.0
 40
17.3145207852194
 41
0.0
 71
     5
 72
     1
  1
%%c398
  7
EXCADDIM1
  0
POINT
  5
1F9
330
1F0
100
AcDbEntity
  8
DEFPOINTS
 62
     0
100
AcDbPoint
 10
878.9999461957217
 20
636.0039317314074
 30
0.0
  0
POINT
  5
1FA
330
1F0
100
AcDbEntity
  8
DEFPOINTS
 62
     0
100
AcDbPoint
 10
480.9999481052894
 20
636.0038249657744
 30
0.0
  0
POINT
  5
1FB
330
1F0
100
AcDbEntity
  8
DEFPOINTS
 62
     0
100
AcDbPoint
 10
480.9999481052894
 20
760.0
 30
0.0
  0
ENDBLK
  5
1F2
330
1F0
100
AcDbEntity
  8
0
100
AcDbBlockEnd
  0
BLOCK
  5
1FE
330
1FD
100
AcDbEntity
  8
0
100
AcDbBlockBegin
  2
*D18
 70
     1
 10
0.0
 20
0.0
 30
0.0
  3
*D18
  1

  0
LINE
  5
200
330
1FD
100
AcDbEntity
  8
Ｓ_１_１
  6
CONTINUOUS
 62
     2
100
AcDbLine
 10
430.50008356939
 20
240.00000000001
 30
0.0
 11
315.0
 21
240.0000000000101
 31
0.0
  0
LINE
  5
201
330
1FD
100
AcDbEntity
  8
Ｓ_１_１
  6
CONTINUOUS
 62
     2
100
AcDbLine
 10
430.49993425465
 20
502.99975869388
 30
0.0
 11
315.0
 21
502.99975869388
 31
0.0
  0
LINE
  5
202
330
1FD
100
AcDbEntity
  8
Ｓ_１_１
  6
CONTINUOUS
 62
     2
100
AcDbLine
 10
320.0
 20
255.0000000000101
 30
0.0
 11
320.0
 21
487.99975869388
 31
0.0
  0
INSERT
  5
203
330
1FD
100
AcDbEntity
  8
Ｓ_１_１
 62
     2
100
AcDbBlockReference
  2
EX_NORM
 10
320.0
 20
240.0000000000101
 30
0.0
 41
15.0
 42
15.0
 43
15.0
 50
270.0
  0
INSERT
  5
204
330
1FD
100
AcDbEntity
  8
Ｓ_１_１
 62
     2
100
AcDbBlockReference
  2
EX_NORM
 10
320.0
 20
502.99975869388
 30
0.0
 41
15.0
 42
15.0
 43
15.0
 50
90.0
  0
MTEXT
  5
205
330
1FD
100
AcDbEntity
  8
Ｓ_１_１
 62
     2
100
AcDbMText
 10
306.25
 20
371.4998793469449
 30
0.0
 40
17.3145207852194
 41
0.0
 71
     5
 72
     1
  1
263
  7
EXCADDIM1
 11
0.0
 21
1.0
 31
0.0
  0
POINT
  5
206
330
1FD
100
AcDbEntity
  8
DEFPOINTS
 62
     0
100
AcDbPoint
 10
438.00008356939
 20
240.00000000001
 30
0.0
  0
POINT
  5
207
330
1FD
100
AcDbEntity
  8
DEFPOINTS
 62
     0
100
AcDbPoint
 10
437.99993425465
 20
502.99975869388
 30
0.0
  0
POINT
  5
208
330
1FD
100
AcDbEntity
  8
DEFPOINTS
 62
     0
100
AcDbPoint
 10
320.0
 20
502.99975869388
 30
0.0
  0
ENDBLK
  5
1FF
330
1FD
100
AcDbEntity
  8
0
100
AcDbBlockEnd
  0
BLOCK
  5
20B
330
20A
100
AcDbEntity
  8
0
100
AcDbBlockBegin
  2
*D19
 70
     1
 10
0.0
 20
0.0
 30
0.0
  3
*D19
  1

  0
LINE
  5
20D
330
20A
100
AcDbEntity
  8
Ｓ_１_１
  6
CONTINUOUS
 62
     2
100
AcDbLine
 10
430.49993425465
 20
502.99975869388
 30
0.0
 11
315.0
 21
502.99975869388
 31
0.0
  0
LINE
  5
20E
330
20A
100
AcDbEntity
  8
Ｓ_１_１
  6
CONTINUOUS
 62
     2
100
AcDbLine
 10
442.99997541561
 20
572.99968992772
 30
0.0
 11
315.0
 21
572.99968992772
 31
0.0
  0
LINE
  5
20F
330
20A
100
AcDbEntity
  8
Ｓ_１_１
  6
CONTINUOUS
 62
     2
100
AcDbLine
 10
320.0
 20
517.99975869388
 30
0.0
 11
320.0
 21
557.99968992772
 31
0.0
  0
INSERT
  5
210
330
20A
100
AcDbEntity
  8
Ｓ_１_１
 62
     2
100
AcDbBlockReference
  2
EX_NORM
 10
320.0
 20
502.99975869388
 30
0.0
 41
15.0
 42
15.0
 43
15.0
 50
270.0
  0
INSERT
  5
211
330
20A
100
AcDbEntity
  8
Ｓ_１_１
 62
     2
100
AcDbBlockReference
  2
EX_NORM
 10
320.0
 20
572.99968992772
 30
0.0
 41
15.0
 42
15.0
 43
15.0
 50
90.0
  0
MTEXT
  5
212
330
20A
100
AcDbEntity
  8
Ｓ_１_１
 62
     2
100
AcDbMText
 10
306.25
 20
537.9997243108
 30
0.0
 40
17.3145207852194
 41
0.0
 71
     5
 72
     1
  1
70
  7
EXCADDIM1
 11
0.0
 21
1.0
 31
0.0
  0
POINT
  5
213
330
20A
100
AcDbEntity
  8
DEFPOINTS
 62
     0
100
AcDbPoint
 10
437.99993425465
 20
502.99975869388
 30
0.0
  0
POINT
  5
214
330
20A
100
AcDbEntity
  8
DEFPOINTS
 62
     0
100
AcDbPoint
 10
450.49997541561
 20
572.99968992772
 30
0.0
  0
POINT
  5
215
330
20A
100
AcDbEntity
  8
DEFPOINTS
 62
     0
100
AcDbPoint
 10
320.0
 20
572.99968992772
 30
0.0
  0
ENDBLK
  5
20C
330
20A
100
AcDbEntity
  8
0
100
AcDbBlockEnd
  0
BLOCK
  5
218
330
217
100
AcDbEntity
  8
0
100
AcDbBlockBegin
  2
*D20
 70
     1
 10
0.0
 20
0.0
 30
0.0
  3
*D20
  1

  0
LINE
  5
21A
330
217
100
AcDbEntity
  8
Ｓ_１_１
  6
CONTINUOUS
 62
     2
100
AcDbLine
 10
442.99997541561
 20
572.99968992772
 30
0.0
 11
315.0
 21
572.99968992772
 31
0.0
  0
LINE
  5
21B
330
217
100
AcDbEntity
  8
Ｓ_１_１
  6
CONTINUOUS
 62
     2
100
AcDbLine
 10
475.50000065126
 20
638.00393173141
 30
0.0
 11
315.0
 21
638.00393173141
 31
0.0
  0
LINE
  5
21C
330
217
100
AcDbEntity
  8
Ｓ_１_１
  6
CONTINUOUS
 62
     2
100
AcDbLine
 10
320.0
 20
587.99968992772
 30
0.0
 11
320.0
 21
623.00393173141
 31
0.0
  0
INSERT
  5
21D
330
217
100
AcDbEntity
  8
Ｓ_１_１
 62
     2
100
AcDbBlockReference
  2
EX_NORM
 10
320.0
 20
572.99968992772
 30
0.0
 41
15.0
 42
15.0
 43
15.0
 50
270.0
  0
INSERT
  5
21E
330
217
100
AcDbEntity
  8
Ｓ_１_１
 62
     2
100
AcDbBlockReference
  2
EX_NORM
 10
320.0
 20
638.00393173141
 30
0.0
 41
15.0
 42
15.0
 43
15.0
 50
90.0
  0
MTEXT
  5
21F
330
217
100
AcDbEntity
  8
Ｓ_１_１
 62
     2
100
AcDbMText
 10
306.25
 20
605.5018108295649
 30
0.0
 40
17.3145207852194
 41
0.0
 71
     5
 72
     1
  1
65
  7
EXCADDIM1
 11
0.0
 21
1.0
 31
0.0
  0
POINT
  5
220
330
217
100
AcDbEntity
  8
DEFPOINTS
 62
     0
100
AcDbPoint
 10
450.49997541561
 20
572.99968992772
 30
0.0
  0
POINT
  5
221
330
217
100
AcDbEntity
  8
DEFPOINTS
 62
     0
100
AcDbPoint
 10
483.00000065126
 20
638.00393173141
 30
0.0
  0
POINT
  5
222
330
217
100
AcDbEntity
  8
DEFPOINTS
 62
     0
100
AcDbPoint
 10
320.0
 20
638.00393173141
 30
0.0
  0
ENDBLK
  5
219
330
217
100
AcDbEntity
  8
0
100
AcDbBlockEnd
  0
BLOCK
  5
225
330
224
100
AcDbEntity
  8
0
100
AcDbBlockBegin
  2
*D21
 70
     1
 10
0.0
 20
0.0
 30
0.0
  3
*D21
  1

  0
LINE
  5
227
330
224
100
AcDbEntity
  8
Ｓ_１_１
  6
CONTINUOUS
 62
     2
100
AcDbLine
 10
430.50008356939
 20
240.00000000001
 30
0.0
 11
275.0
 21
240.00000000001
 31
0.0
  0
LINE
  5
228
330
224
100
AcDbEntity
  8
Ｓ_１_１
  6
CONTINUOUS
 62
     2
100
AcDbLine
 10
475.50000065126
 20
638.00393173141
 30
0.0
 11
275.0
 21
638.00393173141
 31
0.0
  0
LINE
  5
229
330
224
100
AcDbEntity
  8
Ｓ_１_１
  6
CONTINUOUS
 62
     2
100
AcDbLine
 10
280.0
 20
255.00000000001
 30
0.0
 11
280.0
 21
623.00393173141
 31
0.0
  0
INSERT
  5
22A
330
224
100
AcDbEntity
  8
Ｓ_１_１
 62
     2
100
AcDbBlockReference
  2
EX_NORM
 10
280.0
 20
240.00000000001
 30
0.0
 41
15.0
 42
15.0
 43
15.0
 50
270.0
  0
INSERT
  5
22B
330
224
100
AcDbEntity
  8
Ｓ_１_１
 62
     2
100
AcDbBlockReference
  2
EX_NORM
 10
280.0
 20
638.00393173141
 30
0.0
 41
15.0
 42
15.0
 43
15.0
 50
90.0
  0
MTEXT
  5
22C
330
224
100
AcDbEntity
  8
Ｓ_１_１
 62
     2
100
AcDbMText
 10
266.25
 20
439.00196586571
 30
0.0
 40
17.3145207852194
 41
0.0
 71
     5
 72
     1
  1
398
  7
EXCADDIM1
 11
0.0
 21
1.0
 31
0.0
  0
POINT
  5
22D
330
224
100
AcDbEntity
  8
DEFPOINTS
 62
     0
100
AcDbPoint
 10
438.00008356939
 20
240.00000000001
 30
0.0
  0
POINT
  5
22E
330
224
100
AcDbEntity
  8
DEFPOINTS
 62
     0
100
AcDbPoint
 10
483.00000065126
 20
638.00393173141
 30
0.0
  0
POINT
  5
22F
330
224
100
AcDbEntity
  8
DEFPOINTS
 62
     0
100
AcDbPoint
 10
280.0
 20
638.00393173141
 30
0.0
  0
ENDBLK
  5
226
330
224
100
AcDbEntity
  8
0
100
AcDbBlockEnd
  0
BLOCK
  5
235
330
234
100
AcDbEntity
  8
0
100
AcDbBlockBegin
  2
*D22
 70
     1
 10
0.0
 20
0.0
 30
0.0
  3
*D22
  1

  0
LINE
  5
237
330
234
100
AcDbEntity
  8
Ｓ_１_１
  6
CONTINUOUS
 62
     2
100
AcDbLine
 10
929.49985183209
 20
239.99999999999
 30
0.0
 11
1045.0
 21
239.99999999999
 31
0.0
  0
LINE
  5
238
330
234
100
AcDbEntity
  8
Ｓ_１_１
  6
CONTINUOUS
 62
     2
100
AcDbLine
 10
709.99994512251
 20
324.9996697651899
 30
0.0
 11
1045.0
 21
324.9996697651899
 31
0.0
  0
LINE
  5
239
330
234
100
AcDbEntity
  8
Ｓ_１_１
  6
CONTINUOUS
 62
     2
100
AcDbLine
 10
1040.0
 20
254.99999999999
 30
0.0
 11
1040.0
 21
309.9996697651899
 31
0.0
  0
INSERT
  5
23A
330
234
100
AcDbEntity
  8
Ｓ_１_１
 62
     2
100
AcDbBlockReference
  2
EX_NORM
 10
1040.0
 20
239.99999999999
 30
0.0
 41
15.0
 42
15.0
 43
15.0
 50
270.0
  0
INSERT
  5
23B
330
234
100
AcDbEntity
  8
Ｓ_１_１
 62
     2
100
AcDbBlockReference
  2
EX_NORM
 10
1040.0
 20
324.9996697651899
 30
0.0
 41
15.0
 42
15.0
 43
15.0
 50
90.0
  0
MTEXT
  5
23C
330
234
100
AcDbEntity
  8
Ｓ_１_１
 62
     2
100
AcDbMText
 10
1026.25
 20
282.4998348825899
 30
0.0
 40
17.3145207852194
 41
0.0
 71
     5
 72
     1
  1
85
  7
EXCADDIM1
 11
0.0
 21
1.0
 31
0.0
  0
POINT
  5
23D
330
234
100
AcDbEntity
  8
DEFPOINTS
 62
     0
100
AcDbPoint
 10
921.99985183209
 20
239.99999999999
 30
0.0
  0
POINT
  5
23E
330
234
100
AcDbEntity
  8
DEFPOINTS
 62
     0
100
AcDbPoint
 10
702.49994512251
 20
324.9996697651899
 30
0.0
  0
POINT
  5
23F
330
234
100
AcDbEntity
  8
DEFPOINTS
 62
     0
100
AcDbPoint
 10
1040.0
 20
324.9996697651899
 30
0.0
  0
ENDBLK
  5
236
330
234
100
AcDbEntity
  8
0
100
AcDbBlockEnd
  0
BLOCK
  5
242
330
241
100
AcDbEntity
  8
0
100
AcDbBlockBegin
  2
*D23
 70
     1
 10
0.0
 20
0.0
 30
0.0
  3
*D23
  1

  0
LINE
  5
244
330
241
100
AcDbEntity
  8
Ｓ_１_１
  6
CONTINUOUS
 62
     2
100
AcDbLine
 10
709.99994512251
 20
324.9996697651899
 30
0.0
 11
1045.0
 21
324.9996697651899
 31
0.0
  0
LINE
  5
245
330
241
100
AcDbEntity
  8
Ｓ_１_１
  6
CONTINUOUS
 62
     2
100
AcDbLine
 10
750.49999799824
 20
399.99963740787
 30
0.0
 11
1045.0
 21
399.99963740787
 31
0.0
  0
LINE
  5
246
330
241
100
AcDbEntity
  8
Ｓ_１_１
  6
CONTINUOUS
 62
     2
100
AcDbLine
 10
1040.0
 20
339.9996697651899
 30
0.0
 11
1040.0
 21
384.99963740787
 31
0.0
  0
INSERT
  5
247
330
241
100
AcDbEntity
  8
Ｓ_１_１
 62
     2
100
AcDbBlockReference
  2
EX_NORM
 10
1040.0
 20
324.9996697651899
 30
0.0
 41
15.0
 42
15.0
 43
15.0
 50
270.0
  0
INSERT
  5
248
330
241
100
AcDbEntity
  8
Ｓ_１_１
 62
     2
100
AcDbBlockReference
  2
EX_NORM
 10
1040.0
 20
399.99963740787
 30
0.0
 41
15.0
 42
15.0
 43
15.0
 50
90.0
  0
MTEXT
  5
249
330
241
100
AcDbEntity
  8
Ｓ_１_１
 62
     2
100
AcDbMText
 10
1026.25
 20
362.49965358653
 30
0.0
 40
17.3145207852194
 41
0.0
 71
     5
 72
     1
  1
75
  7
EXCADDIM1
 11
0.0
 21
1.0
 31
0.0
  0
POINT
  5
24A
330
241
100
AcDbEntity
  8
DEFPOINTS
 62
     0
100
AcDbPoint
 10
702.49994512251
 20
324.9996697651899
 30
0.0
  0
POINT
  5
24B
330
241
100
AcDbEntity
  8
DEFPOINTS
 62
     0
100
AcDbPoint
 10
742.99999799824
 20
399.99963740787
 30
0.0
  0
POINT
  5
24C
330
241
100
AcDbEntity
  8
DEFPOINTS
 62
     0
100
AcDbPoint
 10
1040.0
 20
399.99963740787
 30
0.0
  0
ENDBLK
  5
243
330
241
100
AcDbEntity
  8
0
100
AcDbBlockEnd
  0
BLOCK
  5
24F
330
24E
100
AcDbEntity
  8
0
100
AcDbBlockBegin
  2
*D24
 70
     1
 10
0.0
 20
0.0
 30
0.0
  3
*D24
  1

  0
LINE
  5
251
330
24E
100
AcDbEntity
  8
Ｓ_１_１
  6
CONTINUOUS
 62
     2
100
AcDbLine
 10
1270.5002030455
 20
239.99993540681
 30
0.0
 11
1115.0000668776
 21
239.99993540681
 31
0.0
  0
LINE
  5
252
330
24E
100
AcDbEntity
  8
Ｓ_１_１
  6
CONTINUOUS
 62
     2
100
AcDbLine
 10
1492.5000284531
 20
437.9998927760201
 30
0.0
 11
1115.0000668776
 21
437.9998927760201
 31
0.0
  0
LINE
  5
253
330
24E
100
AcDbEntity
  8
Ｓ_１_１
  6
CONTINUOUS
 62
     2
100
AcDbLine
 10
1120.0000668776
 20
254.99993540681
 30
0.0
 11
1120.0000668776
 21
422.9998927760201
 31
0.0
  0
INSERT
  5
254
330
24E
100
AcDbEntity
  8
Ｓ_１_１
 62
     2
100
AcDbBlockReference
  2
EX_NORM
 10
1120.0000668776
 20
239.99993540681
 30
0.0
 41
15.0
 42
15.0
 43
15.0
 50
270.0
  0
INSERT
  5
255
330
24E
100
AcDbEntity
  8
Ｓ_１_１
 62
     2
100
AcDbBlockReference
  2
EX_NORM
 10
1120.0000668776
 20
437.9998927760201
 30
0.0
 41
15.0
 42
15.0
 43
15.0
 50
90.0
  0
MTEXT
  5
256
330
24E
100
AcDbEntity
  8
Ｓ_１_１
 62
     2
100
AcDbMText
 10
1106.2500668776
 20
338.9999140914151
 30
0.0
 40
17.3145207852194
 41
0.0
 71
     5
 72
     1
  1
198
  7
EXCADDIM1
 11
0.0
 21
1.0
 31
0.0
  0
POINT
  5
257
330
24E
100
AcDbEntity
  8
DEFPOINTS
 62
     0
100
AcDbPoint
 10
1278.0002030455
 20
239.99993540681
 30
0.0
  0
POINT
  5
258
330
24E
100
AcDbEntity
  8
DEFPOINTS
 62
     0
100
AcDbPoint
 10
1500.0000284531
 20
437.9998927760201
 30
0.0
  0
POINT
  5
259
330
24E
100
AcDbEntity
  8
DEFPOINTS
 62
     0
100
AcDbPoint
 10
1120.0000668776
 20
437.9998927760201
 30
0.0
  0
ENDBLK
  5
250
330
24E
100
AcDbEntity
  8
0
100
AcDbBlockEnd
  0
BLOCK
  5
3B5
330
3B4
100
AcDbEntity
  8
0
100
AcDbBlockBegin
  2
*D25
 70
     1
 10
0.0
 20
0.0
 30
0.0
  3
*D25
  1

  0
LINE
  5
3B7
330
3B4
100
AcDbEntity
  8
Ｓ_１_１
  6
CONTINUOUS
 62
     2
100
AcDbLine
 10
440.0002092050801
 20
1222.49992783
 30
0.0
 11
440.0002092050801
 21
875.0
 31
0.0
  0
LINE
  5
3B8
330
3B4
100
AcDbEntity
  8
Ｓ_１_１
  6
CONTINUOUS
 62
     2
100
AcDbLine
 10
919.99979079492
 20
1222.49992783
 30
0.0
 11
919.99979079492
 21
875.0
 31
0.0
  0
LINE
  5
3B9
330
3B4
100
AcDbEntity
  8
Ｓ_１_１
  6
CONTINUOUS
 62
     2
100
AcDbLine
 10
455.0002092050801
 20
880.0
 30
0.0
 11
904.99979079492
 21
880.0
 31
0.0
  0
INSERT
  5
3BA
330
3B4
100
AcDbEntity
  8
Ｓ_１_１
 62
     2
100
AcDbBlockReference
  2
EX_NORM
 10
440.0002092050801
 20
880.0
 30
0.0
 41
15.0
 42
15.0
 43
15.0
 50
180.0
  0
INSERT
  5
3BB
330
3B4
100
AcDbEntity
  8
Ｓ_１_１
 62
     2
100
AcDbBlockReference
  2
EX_NORM
 10
919.99979079492
 20
880.0
 30
0.0
 41
15.0
 42
15.0
 43
15.0
  0
MTEXT
  5
3BC
330
3B4
100
AcDbEntity
  8
Ｓ_１_１
 62
     2
100
AcDbMText
 10
680.0
 20
893.75
 30
0.0
 40
17.3145207852194
 41
0.0
 71
     5
 72
     1
  1
480
  7
EXCADDIM1
  0
POINT
  5
3BD
330
3B4
100
AcDbEntity
  8
DEFPOINTS
 62
     0
100
AcDbPoint
 10
440.0002092050801
 20
1229.99992783
 30
0.0
  0
POINT
  5
3BE
330
3B4
100
AcDbEntity
  8
DEFPOINTS
 62
     0
100
AcDbPoint
 10
919.99979079492
 20
1229.99992783
 30
0.0
  0
POINT
  5
3BF
330
3B4
100
AcDbEntity
  8
DEFPOINTS
 62
     0
100
AcDbPoint
 10
919.99979079492
 20
880.0
 30
0.0
  0
ENDBLK
  5
3B6
330
3B4
100
AcDbEntity
  8
0
100
AcDbBlockEnd
  0
BLOCK
  5
3C2
330
3C1
100
AcDbEntity
  8
0
100
AcDbBlockBegin
  2
*D26
 70
     1
 10
0.0
 20
0.0
 30
0.0
  3
*D26
  1

  0
LINE
  5
3C4
330
3C1
100
AcDbEntity
  8
Ｓ_１_１
  6
CONTINUOUS
 62
     2
100
AcDbLine
 10
364.00022240366
 20
1264.4996519348
 30
0.0
 11
364.00022240366
 21
835.0
 31
0.0
  0
LINE
  5
3C5
330
3C1
100
AcDbEntity
  8
Ｓ_１_１
  6
CONTINUOUS
 62
     2
100
AcDbLine
 10
995.99977759634
 20
1264.4996519348
 30
0.0
 11
995.99977759634
 21
835.0
 31
0.0
  0
LINE
  5
3C6
330
3C1
100
AcDbEntity
  8
Ｓ_１_１
  6
CONTINUOUS
 62
     2
100
AcDbLine
 10
379.00022240366
 20
840.0
 30
0.0
 11
980.99977759634
 21
840.0
 31
0.0
  0
INSERT
  5
3C7
330
3C1
100
AcDbEntity
  8
Ｓ_１_１
 62
     2
100
AcDbBlockReference
  2
EX_NORM
 10
364.00022240366
 20
840.0
 30
0.0
 41
15.0
 42
15.0
 43
15.0
 50
180.0
  0
INSERT
  5
3C8
330
3C1
100
AcDbEntity
  8
Ｓ_１_１
 62
     2
100
AcDbBlockReference
  2
EX_NORM
 10
995.99977759634
 20
840.0
 30
0.0
 41
15.0
 42
15.0
 43
15.0
  0
MTEXT
  5
3C9
330
3C1
100
AcDbEntity
  8
Ｓ_１_１
 62
     2
100
AcDbMText
 10
680.0
 20
853.75
 30
0.0
 40
17.3145207852194
 41
0.0
 71
     5
 72
     1
  1
632
  7
EXCADDIM1
  0
POINT
  5
3CA
330
3C1
100
AcDbEntity
  8
DEFPOINTS
 62
     0
100
AcDbPoint
 10
364.00022240366
 20
1271.9996519348
 30
0.0
  0
POINT
  5
3CB
330
3C1
100
AcDbEntity
  8
DEFPOINTS
 62
     0
100
AcDbPoint
 10
995.99977759634
 20
1271.9996519348
 30
0.0
  0
POINT
  5
3CC
330
3C1
100
AcDbEntity
  8
DEFPOINTS
 62
     0
100
AcDbPoint
 10
995.99977759634
 20
840.0
 30
0.0
  0
ENDBLK
  5
3C3
330
3C1
100
AcDbEntity
  8
0
100
AcDbBlockEnd
  0
BLOCK
  5
3CF
330
3CE
100
AcDbEntity
  8
0
100
AcDbBlockBegin
  2
*D27
 70
     1
 10
0.0
 20
0.0
 30
0.0
  3
*D27
  1

  0
LINE
  5
3D1
330
3CE
100
AcDbEntity
  8
Ｓ_１_１
  6
CONTINUOUS
 62
     2
100
AcDbLine
 10
440.0002092050801
 20
1222.49992783
 30
0.0
 11
440.0002092050801
 21
875.0
 31
0.0
  0
LINE
  5
3D2
330
3CE
100
AcDbEntity
  8
Ｓ_１_１
  6
CONTINUOUS
 62
     2
100
AcDbLine
 10
364.00022240366
 20
1264.4996519348
 30
0.0
 11
364.00022240366
 21
875.0
 31
0.0
  0
LINE
  5
3D3
330
3CE
100
AcDbEntity
  8
Ｓ_１_１
  6
CONTINUOUS
 62
     2
100
AcDbLine
 10
425.0002092050801
 20
880.0
 30
0.0
 11
379.00022240366
 21
880.0
 31
0.0
  0
INSERT
  5
3D4
330
3CE
100
AcDbEntity
  8
Ｓ_１_１
 62
     2
100
AcDbBlockReference
  2
EX_NORM
 10
440.0002092050801
 20
880.0
 30
0.0
 41
15.0
 42
15.0
 43
15.0
  0
INSERT
  5
3D5
330
3CE
100
AcDbEntity
  8
Ｓ_１_１
 62
     2
100
AcDbBlockReference
  2
EX_NORM
 10
364.00022240366
 20
880.0
 30
0.0
 41
15.0
 42
15.0
 43
15.0
 50
180.0
  0
MTEXT
  5
3D6
330
3CE
100
AcDbEntity
  8
Ｓ_１_１
 62
     2
100
AcDbMText
 10
402.0002158043702
 20
893.75
 30
0.0
 40
17.3145207852194
 41
0.0
 71
     5
 72
     1
  1
76
  7
EXCADDIM1
  0
POINT
  5
3D7
330
3CE
100
AcDbEntity
  8
DEFPOINTS
 62
     0
100
AcDbPoint
 10
440.0002092050801
 20
1229.99992783
 30
0.0
  0
POINT
  5
3D8
330
3CE
100
AcDbEntity
  8
DEFPOINTS
 62
     0
100
AcDbPoint
 10
364.00022240366
 20
1271.9996519348
 30
0.0
  0
POINT
  5
3D9
330
3CE
100
AcDbEntity
  8
DEFPOINTS
 62
     0
100
AcDbPoint
 10
364.00022240366
 20
880.0
 30
0.0
  0
ENDBLK
  5
3D0
330
3CE
100
AcDbEntity
  8
0
100
AcDbBlockEnd
  0
BLOCK
  5
3DC
330
3DB
100
AcDbEntity
  8
0
100
AcDbBlockBegin
  2
*D28
 70
     1
 10
0.0
 20
0.0
 30
0.0
  3
*D28
  1

  0
LINE
  5
3DE
330
3DB
100
AcDbEntity
  8
Ｓ_１_１
  6
CONTINUOUS
 62
     2
100
AcDbLine
 10
919.99979079492
 20
1222.49992783
 30
0.0
 11
919.99979079492
 21
875.0
 31
0.0
  0
LINE
  5
3DF
330
3DB
100
AcDbEntity
  8
Ｓ_１_１
  6
CONTINUOUS
 62
     2
100
AcDbLine
 10
995.99977759634
 20
1264.4996519348
 30
0.0
 11
995.99977759634
 21
875.0
 31
0.0
  0
LINE
  5
3E0
330
3DB
100
AcDbEntity
  8
Ｓ_１_１
  6
CONTINUOUS
 62
     2
100
AcDbLine
 10
934.99979079492
 20
880.0
 30
0.0
 11
980.99977759634
 21
880.0
 31
0.0
  0
INSERT
  5
3E1
330
3DB
100
AcDbEntity
  8
Ｓ_１_１
 62
     2
100
AcDbBlockReference
  2
EX_NORM
 10
919.99979079492
 20
880.0
 30
0.0
 41
15.0
 42
15.0
 43
15.0
 50
180.0
  0
INSERT
  5
3E2
330
3DB
100
AcDbEntity
  8
Ｓ_１_１
 62
     2
100
AcDbBlockReference
  2
EX_NORM
 10
995.99977759634
 20
880.0
 30
0.0
 41
15.0
 42
15.0
 43
15.0
  0
MTEXT
  5
3E3
330
3DB
100
AcDbEntity
  8
Ｓ_１_１
 62
     2
100
AcDbMText
 10
957.99978419563
 20
893.75
 30
0.0
 40
17.3145207852194
 41
0.0
 71
     5
 72
     1
  1
76
  7
EXCADDIM1
  0
POINT
  5
3E4
330
3DB
100
AcDbEntity
  8
DEFPOINTS
 62
     0
100
AcDbPoint
 10
919.99979079492
 20
1229.99992783
 30
0.0
  0
POINT
  5
3E5
330
3DB
100
AcDbEntity
  8
DEFPOINTS
 62
     0
100
AcDbPoint
 10
995.99977759634
 20
1271.9996519348
 30
0.0
  0
POINT
  5
3E6
330
3DB
100
AcDbEntity
  8
DEFPOINTS
 62
     0
100
AcDbPoint
 10
995.99977759634
 20
880.0
 30
0.0
  0
ENDBLK
  5
3DD
330
3DB
100
AcDbEntity
  8
0
100
AcDbBlockEnd
  0
ENDSEC
  0
SECTION
  2
ENTITIES
  0
LINE
  5
D5
330
1F
100
AcDbEntity
  8
図面枠
  6
CONTINUOUS
 62
     5
100
AcDbLine
 10
50.0
 20
50.0
 30
0.0
 11
2050.0
 21
50.0
 31
0.0
  0
LINE
  5
D6
330
1F
100
AcDbEntity
  8
図面枠
  6
CONTINUOUS
 62
     5
100
AcDbLine
 10
2050.0
 20
50.0
 30
0.0
 11
2050.0
 21
1435.0
 31
0.0
  0
LINE
  5
D7
330
1F
100
AcDbEntity
  8
図面枠
  6
CONTINUOUS
 62
     5
100
AcDbLine
 10
2050.0
 20
1435.0
 30
0.0
 11
50.00000000000026
 21
1435.0
 31
0.0
  0
LINE
  5
D8
330
1F
100
AcDbEntity
  8
図面枠
  6
CONTINUOUS
 62
     5
100
AcDbLine
 10
50.00000000000026
 20
1435.0
 30
0.0
 11
50.0
 21
50.0
 31
0.0
  0
TEXT
  5
DA
330
1F
100
AcDbEntity
  8
図面枠
  6
CONTINUOUS
 62
     4
100
AcDbText
 10
1935.0
 20
1356.9140625
 30
0.0
 40
17.3145207852194
  1
kN
 41
0.999230769230769
  7
EXCADTTF1
 72
     5
 11
1957.5
 21
1356.9140625
 31
0.0
100
AcDbText
  0
LINE
  5
DB
330
1F
100
AcDbEntity
  8
図面枠
  6
CONTINUOUS
 62
     3
100
AcDbLine
 10
75.00000000000009
 20
1410.0
 30
0.0
 11
75.00000000000009
 21
1365.0
 31
0.0
  0
LINE
  5
DC
330
1F
100
AcDbEntity
  8
図面枠
  6
CONTINUOUS
 62
     3
100
AcDbLine
 10
75.00000000000009
 20
1410.0
 30
0.0
 11
549.5000076293945
 21
1410.0
 31
0.0
  0
LINE
  5
DD
330
1F
100
AcDbEntity
  8
図面枠
  6
CONTINUOUS
 62
     3
100
AcDbLine
 10
75.00000000000009
 20
1365.0
 30
0.0
 11
549.5000076293945
 21
1365.0
 31
0.0
  0
LINE
  5
DE
330
1F
100
AcDbEntity
  8
図面枠
  6
CONTINUOUS
 62
     3
100
AcDbLine
 10
639.5000076293946
 20
1410.0
 30
0.0
 11
639.5000076293946
 21
1365.0
 31
0.0
  0
LINE
  5
DF
330
1F
100
AcDbEntity
  8
図面枠
  6
CONTINUOUS
 62
     3
100
AcDbLine
 10
549.5000076294
 20
1410.0
 30
0.0
 11
639.5000076294
 21
1410.0
 31
0.0
  0
LINE
  5
E0
330
1F
100
AcDbEntity
  8
図面枠
  6
CONTINUOUS
 62
     3
100
AcDbLine
 10
549.5000076294
 20
1365.0
 30
0.0
 11
639.5000076294
 21
1365.0
 31
0.0
  0
LINE
  5
E1
330
1F
100
AcDbEntity
  8
図面枠
  6
CONTINUOUS
 62
     3
100
AcDbLine
 10
1844.5000076294
 20
120.0
 30
0.0
 11
1844.5000076294
 21
75.0
 31
0.0
  0
LINE
  5
E2
330
1F
100
AcDbEntity
  8
図面枠
  6
CONTINUOUS
 62
     3
100
AcDbLine
 10
2025.000000000005
 20
120.0
 30
0.0
 11
2025.000000000005
 21
75.0
 31
0.0
  0
LINE
  5
E3
330
1F
100
AcDbEntity
  8
図面枠
  6
CONTINUOUS
 62
     3
100
AcDbLine
 10
1844.5000076294
 20
120.0
 30
0.0
 11
2025.000000000005
 21
120.0
 31
0.0
  0
LINE
  5
E4
330
1F
100
AcDbEntity
  8
図面枠
  6
CONTINUOUS
 62
     3
100
AcDbLine
 10
1844.5000076294
 20
75.0
 30
0.0
 11
2025.000000000005
 21
75.0
 31
0.0
  0
TEXT
  5
E5
330
1F
100
AcDbEntity
  8
図面枠
  6
CONTINUOUS
 62
     4
100
AcDbText
 10
1935.0
 20
1326.9140625
 30
0.0
 40
17.3145207852194
  1
mm
 41
0.999230769230769
  7
EXCADTTF1
 72
     5
 11
1957.5
 21
1326.9140625
 31
0.0
100
AcDbText
  0
TEXT
  5
E6
330
1F
100
AcDbEntity
  8
図面枠
  6
CONTINUOUS
 62
     4
100
AcDbText
 10
1935.0
 20
1296.9140625
 30
0.0
 40
17.3145207852194
  1
mm
 41
0.999230769230769
  7
EXCADTTF1
 72
     5
 11
1957.5
 21
1296.9140625
 31
0.0
100
AcDbText
  0
TEXT
  5
E7
330
1F
100
AcDbEntity
  8
図面枠
  6
CONTINUOUS
 62
     4
100
AcDbText
 10
1935.0
 20
1266.9140625
 30
0.0
 40
17.3145207852194
  1
mm
 41
0.999230769230769
  7
EXCADTTF1
 72
     5
 11
1957.5
 21
1266.9140625
 31
0.0
100
AcDbText
  0
TEXT
  5
E8
330
1F
100
AcDbEntity
  8
図面枠
  6
CONTINUOUS
 62
     4
100
AcDbText
 10
1935.0
 20
1236.9140625
 30
0.0
 40
17.3145207852194
  1
mm
 41
0.999230769230769
  7
EXCADTTF1
 72
     5
 11
1957.5
 21
1236.9140625
 31
0.0
100
AcDbText
  0
TEXT
  5
E9
330
1F
100
AcDbEntity
  8
図面枠
  6
CONTINUOUS
 62
     4
100
AcDbText
 10
1935.0
 20
1206.9140625
 30
0.0
 40
17.3145207852194
  1
cm
 41
0.999230769230769
  7
EXCADTTF1
 72
     5
 11
1957.5
 21
1206.9140625
 31
0.0
100
AcDbText
  0
TEXT
  5
EA
330
1F
100
AcDbEntity
  8
図面枠
  6
CONTINUOUS
 62
     4
100
AcDbText
 10
1950.75
 20
1217.54882825911
 30
0.0
 40
7.791533619463674
  1
2
 41
0.9992308633483801
  7
EXCADTTF1
 72
     5
 11
1955.8125
 21
1217.54882825911
 31
0.0
100
AcDbText
  0
TEXT
  5
EB
330
1F
100
AcDbEntity
  8
図面枠
  6
CONTINUOUS
 62
     4
100
AcDbText
 10
1535.0
 20
1356.9140625
 30
0.0
 40
17.3145207852194
  1
能力
 41
0.999230769230769
  7
EXCADTTF1
 72
     5
 11
1580.0
 21
1356.9140625
 31
0.0
100
AcDbText
  0
TEXT
  5
EC
330
1F
100
AcDbEntity
  8
図面枠
  6
CONTINUOUS
 62
     4
100
AcDbText
 10
1535.0
 20
1296.9140625
 30
0.0
 40
17.3145207852194
  1
最低機械高
 41
0.9992307692307691
  7
EXCADTTF1
 72
     5
 11
1647.5
 21
1296.9140625
 31
0.0
100
AcDbText
  0
TEXT
  5
ED
330
1F
100
AcDbEntity
  8
図面枠
  6
CONTINUOUS
 62
     4
100
AcDbText
 10
1535.0
 20
1326.9140625
 30
0.0
 40
17.3145207852194
  1
ストローク
 41
0.9992307692307691
  7
EXCADTTF1
 72
     5
 11
1647.5
 21
1326.9140625
 31
0.0
100
AcDbText
  0
TEXT
  5
EE
330
1F
100
AcDbEntity
  8
図面枠
  6
CONTINUOUS
 62
     4
100
AcDbText
 10
1535.0
 20
1266.9140625
 30
0.0
 40
17.3145207852194
  1
シリンダ外径
 41
0.9992307692307691
  7
EXCADTTF1
 72
     5
 11
1670.0
 21
1266.9140625
 31
0.0
100
AcDbText
  0
TEXT
  5
EF
330
1F
100
AcDbEntity
  8
図面枠
  6
CONTINUOUS
 62
     4
100
AcDbText
 10
1535.0
 20
1236.9140625
 30
0.0
 40
17.3145207852194
  1
押しピストン径
 41
0.9992307692307693
  7
EXCADTTF1
 72
     5
 11
1692.5
 21
1236.9140625
 31
0.0
100
AcDbText
  0
TEXT
  5
F0
330
1F
100
AcDbEntity
  8
図面枠
  6
CONTINUOUS
 62
     4
100
AcDbText
 10
1719.25
 20
1386.9140625
 30
0.0
 40
17.3145207852194
  1
仕　　　様
 41
0.9992307692307691
  7
EXCADTTF1
 72
     5
 11
1831.75
 21
1386.9140625
 31
0.0
100
AcDbText
  0
LINE
  5
F1
330
1F
100
AcDbEntity
  8
図面枠
  6
CONTINUOUS
 62
     3
100
AcDbLine
 10
1525.0
 20
1410.0
 30
0.0
 11
2025.0
 21
1410.0
 31
0.0
  0
LINE
  5
F2
330
1F
100
AcDbEntity
  8
図面枠
  6
CONTINUOUS
 62
     2
100
AcDbLine
 10
1525.0
 20
1350.0
 30
0.0
 11
2025.0
 21
1350.0
 31
0.0
  0
LINE
  5
F3
330
1F
100
AcDbEntity
  8
図面枠
  6
CONTINUOUS
 62
     2
100
AcDbLine
 10
1525.0
 20
1320.0
 30
0.0
 11
2025.0
 21
1320.0
 31
0.0
  0
LINE
  5
F4
330
1F
100
AcDbEntity
  8
図面枠
  6
CONTINUOUS
 62
     2
100
AcDbLine
 10
1525.0
 20
1290.0
 30
0.0
 11
2025.0
 21
1290.0
 31
0.0
  0
LINE
  5
F5
330
1F
100
AcDbEntity
  8
図面枠
  6
CONTINUOUS
 62
     2
100
AcDbLine
 10
1525.0
 20
1260.0
 30
0.0
 11
2025.0
 21
1260.0
 31
0.0
  0
LINE
  5
F6
330
1F
100
AcDbEntity
  8
図面枠
  6
CONTINUOUS
 62
     2
100
AcDbLine
 10
1525.0
 20
1230.0
 30
0.0
 11
2025.0
 21
1230.0
 31
0.0
  0
LINE
  5
F7
330
1F
100
AcDbEntity
  8
図面枠
  6
CONTINUOUS
 62
     3
100
AcDbLine
 10
1525.0
 20
1380.0
 30
0.0
 11
2025.0
 21
1380.0
 31
0.0
  0
TEXT
  5
F8
330
1F
100
AcDbEntity
  8
図面枠
  6
CONTINUOUS
 62
     4
100
AcDbText
 10
90.00000000000009
 20
1376.71875
 30
0.0
 40
23.08602771362587
  1
7500kN50ストローク補修用油圧ジャッキ
 41
0.9992307692307691
  7
EXCADTTF1
 72
     5
 11
630.0000000000001
 21
1376.71875
 31
0.0
100
AcDbText
  0
TEXT
  5
F9
330
1F
100
AcDbEntity
  8
図面枠
  6
CONTINUOUS
 62
     4
100
AcDbText
 10
1870.0
 20
1356.9140625
 30
0.0
 40
17.3145207852194
  1
7500
 41
0.999230769230769
  7
EXCADTTF1
 72
     5
 11
1915.0
 21
1356.9140625
 31
0.0
100
AcDbText
  0
TEXT
  5
FA
330
1F
100
AcDbEntity
  8
図面枠
  6
CONTINUOUS
 62
     4
100
AcDbText
 10
1892.5
 20
1326.9140625
 30
0.0
 40
17.3145207852194
  1
50
 41
0.999230769230769
  7
EXCADTTF1
 72
     5
 11
1915.0
 21
1326.9140625
 31
0.0
100
AcDbText
  0
TEXT
  5
FB
330
1F
100
AcDbEntity
  8
図面枠
  6
CONTINUOUS
 62
     4
100
AcDbText
 10
1881.3
 20
1296.9140625
 30
0.0
 40
17.3145207852194
  1
398
 41
0.9992307692307689
  7
EXCADTTF1
 72
     5
 11
1915.05
 21
1296.9140625
 31
0.0
100
AcDbText
  0
TEXT
  5
FC
330
1F
100
AcDbEntity
  8
図面枠
  6
CONTINUOUS
 62
     4
100
AcDbText
 10
1881.3
 20
1266.9140625
 30
0.0
 40
17.3145207852194
  1
490
 41
0.9992307692307689
  7
EXCADTTF1
 72
     5
 11
1915.05
 21
1266.9140625
 31
0.0
100
AcDbText
  0
TEXT
  5
FD
330
1F
100
AcDbEntity
  8
図面枠
  6
CONTINUOUS
 62
     4
100
AcDbText
 10
1881.25
 20
1236.9140625
 30
0.0
 40
17.3145207852194
  1
390
 41
0.9992307692307689
  7
EXCADTTF1
 72
     5
 11
1915.0
 21
1236.9140625
 31
0.0
100
AcDbText
  0
TEXT
  5
FE
330
1F
100
AcDbEntity
  8
図面枠
  6
CONTINUOUS
 62
     4
100
AcDbText
 10
1935.0
 20
1116.9140625
 30
0.0
 40
17.3145207852194
  1
kg
 41
0.999230769230769
  7
EXCADTTF1
 72
     5
 11
1957.5
 21
1116.9140625
 31
0.0
100
AcDbText
  0
TEXT
  5
FF
330
1F
100
AcDbEntity
  8
図面枠
  6
CONTINUOUS
 62
     4
100
AcDbText
 10
1935.0
 20
1146.9140625
 30
0.0
 40
17.3145207852194
  1
L
 41
0.999230769230769
  7
EXCADTTF1
 72
     5
 11
1946.25
 21
1146.9140625
 31
0.0
100
AcDbText
  0
TEXT
  5
100
330
1F
100
AcDbEntity
  8
図面枠
  6
CONTINUOUS
 62
     4
100
AcDbText
 10
1935.0
 20
1176.9140625
 30
0.0
 40
17.3145207852194
  1
MPa
 41
0.9992307692307689
  7
EXCADTTF1
 72
     5
 11
1968.75
 21
1176.9140625
 31
0.0
100
AcDbText
  0
LINE
  5
101
330
1F
100
AcDbEntity
  8
図面枠
  6
CONTINUOUS
 62
     2
100
AcDbLine
 10
1525.0
 20
1140.0
 30
0.0
 11
2025.0
 21
1140.0
 31
0.0
  0
LINE
  5
102
330
1F
100
AcDbEntity
  8
図面枠
  6
CONTINUOUS
 62
     2
100
AcDbLine
 10
1525.0
 20
1170.0
 30
0.0
 11
2025.0
 21
1170.0
 31
0.0
  0
LINE
  5
103
330
1F
100
AcDbEntity
  8
図面枠
  6
CONTINUOUS
 62
     2
100
AcDbLine
 10
1525.0
 20
1110.0
 30
0.0
 11
2025.0
 21
1110.0
 31
0.0
  0
LINE
  5
104
330
1F
100
AcDbEntity
  8
図面枠
  6
CONTINUOUS
 62
     2
100
AcDbLine
 10
1525.0
 20
1200.0
 30
0.0
 11
2025.0
 21
1200.0
 31
0.0
  0
LINE
  5
105
330
1F
100
AcDbEntity
  8
図面枠
  6
CONTINUOUS
 62
     3
100
AcDbLine
 10
1525.0
 20
1050.0
 30
0.0
 11
2025.0
 21
1050.0
 31
0.0
  0
TEXT
  5
106
330
1F
100
AcDbEntity
  8
図面枠
  6
CONTINUOUS
 62
     4
100
AcDbText
 10
1535.0
 20
1056.9140625
 30
0.0
 40
17.3145207852194
  1
ユニバーサルヘッド振り角は、±3°(±5%%%)
 41
0.9992307692307688
  7
EXCADTTF1
 72
     5
 11
1973.75
 21
1056.9140625
 31
0.0
100
AcDbText
  0
TEXT
  5
107
330
1F
100
AcDbEntity
  8
図面枠
  6
CONTINUOUS
 62
     4
100
AcDbText
 10
1535.0
 20
1086.9140625
 30
0.0
 40
17.3145207852194
  1
備考
 41
0.999230769230769
  7
EXCADTTF1
 72
     5
 11
1580.0
 21
1086.9140625
 31
0.0
100
AcDbText
  0
TEXT
  5
108
330
1F
100
AcDbEntity
  8
図面枠
  6
CONTINUOUS
 62
     4
100
AcDbText
 10
1535.0
 20
1146.9140625
 30
0.0
 40
17.3145207852194
  1
所要油量
 41
0.999230769230769
  7
EXCADTTF1
 72
     5
 11
1625.0
 21
1146.9140625
 31
0.0
100
AcDbText
  0
TEXT
  5
109
330
1F
100
AcDbEntity
  8
図面枠
  6
CONTINUOUS
 62
     4
100
AcDbText
 10
1535.0
 20
1116.9140625
 30
0.0
 40
17.3145207852194
  1
重量
 41
0.999230769230769
  7
EXCADTTF1
 72
     5
 11
1580.0
 21
1116.9140625
 31
0.0
100
AcDbText
  0
TEXT
  5
10A
330
1F
100
AcDbEntity
  8
図面枠
  6
CONTINUOUS
 62
     4
100
AcDbText
 10
1535.0
 20
1176.9140625
 30
0.0
 40
17.3145207852194
  1
最高使用圧力
 41
0.9992307692307691
  7
EXCADTTF1
 72
     5
 11
1670.0
 21
1176.9140625
 31
0.0
100
AcDbText
  0
TEXT
  5
10B
330
1F
100
AcDbEntity
  8
図面枠
  6
CONTINUOUS
 62
     4
100
AcDbText
 10
1535.0
 20
1206.9140625
 30
0.0
 40
17.3145207852194
  1
受圧面積
 41
0.999230769230769
  7
EXCADTTF1
 72
     5
 11
1625.0
 21
1206.9140625
 31
0.0
100
AcDbText
  0
TEXT
  5
10C
330
1F
100
AcDbEntity
  8
図面枠
  6
CONTINUOUS
 62
     4
100
AcDbText
 10
1475.0
 20
965.6640625
 30
0.0
 40
17.3145207852194
  1
※）①ストロークエンドからの加圧はおやめ下さい。
 41
0.9992307692307688
  7
EXCADTTF1
 72
     5
 11
2015.0
 21
965.6640625
 31
0.0
100
AcDbText
  0
TEXT
  5
10D
330
1F
100
AcDbEntity
  8
図面枠
  6
CONTINUOUS
 62
     4
100
AcDbText
 10
1475.0
 20
943.1640625
 30
0.0
 40
17.3145207852194
  1
　　
 41
0.999230769230769
  7
EXCADTTF1
 72
     5
 11
1520.0
 21
943.1640625
 31
0.0
100
AcDbText
  0
TEXT
  5
10E
330
1F
100
AcDbEntity
  8
図面枠
  6
CONTINUOUS
 62
     4
100
AcDbText
 10
1475.0
 20
920.6640625
 30
0.0
 40
17.3145207852194
  1
　　②ストロークエンドにて安全ナットをロック
 41
0.9992307692307687
  7
EXCADTTF1
 72
     5
 11
1970.0
 21
920.6640625
 31
0.0
100
AcDbText
  0
TEXT
  5
10F
330
1F
100
AcDbEntity
  8
図面枠
  6
CONTINUOUS
 62
     4
100
AcDbText
 10
1475.0
 20
898.1640625
 30
0.0
 40
17.3145207852194
  1
　　　した場合、解放が困難になる場合があります。
 41
0.9992307692307688
  7
EXCADTTF1
 72
     5
 11
2015.0
 21
898.1640625
 31
0.0
100
AcDbText
  0
TEXT
  5
110
330
1F
100
AcDbEntity
  8
図面枠
  6
CONTINUOUS
 62
     4
100
AcDbText
 10
1475.0
 20
853.1640625
 30
0.0
 40
17.3145207852194
  1
　　③出荷時にストロークエンド使用が出来ないよう
 41
0.9992307692307688
  7
EXCADTTF1
 72
     5
 11
2015.0
 21
853.1640625
 31
0.0
100
AcDbText
  0
TEXT
  5
111
330
1F
100
AcDbEntity
  8
図面枠
  6
CONTINUOUS
 62
     4
100
AcDbText
 10
1475.0
 20
830.6640625
 30
0.0
 40
17.3145207852194
  1
　　　手動ポンプの油量を調整させていただく場合が
 41
0.9992307692307688
  7
EXCADTTF1
 72
     5
 11
2015.0
 21
830.6640625
 31
0.0
100
AcDbText
  0
TEXT
  5
112
330
1F
100
AcDbEntity
  8
図面枠
  6
CONTINUOUS
 62
     4
100
AcDbText
 10
1475.0
 20
808.1640625
 30
0.0
 40
17.3145207852194
  1
　　　あります。
 41
0.9992307692307693
  7
EXCADTTF1
 72
     5
 11
1655.0
 21
808.1640625
 31
0.0
100
AcDbText
  0
LINE
  5
113
330
1F
100
AcDbEntity
  8
図面枠
  6
CONTINUOUS
 62
     3
100
AcDbLine
 10
1525.0
 20
1410.0
 30
0.0
 11
1525.0
 21
1050.0
 31
0.0
  0
LINE
  5
114
330
1F
100
AcDbEntity
  8
図面枠
  6
CONTINUOUS
 62
     3
100
AcDbLine
 10
2025.0
 20
1410.0
 30
0.0
 11
2025.0
 21
1050.0
 31
0.0
  0
LINE
  5
115
330
1F
100
AcDbEntity
  8
図面枠
  6
CONTINUOUS
 62
     2
100
AcDbLine
 10
1825.0
 20
1380.0
 30
0.0
 11
1825.0
 21
1110.0
 31
0.0
  0
LINE
  5
116
330
1F
100
AcDbEntity
  8
図面枠
  6
CONTINUOUS
 62
     2
100
AcDbLine
 10
1925.0
 20
1380.0
 30
0.0
 11
1925.0
 21
1110.0
 31
0.0
  0
TEXT
  5
117
330
1F
100
AcDbEntity
  8
図面枠
  6
CONTINUOUS
 62
     4
100
AcDbText
 10
1849.5
 20
1206.9140625
 30
0.0
 40
17.3145207852194
  1
1194.6
 41
0.9992307692307691
  7
EXCADTTF1
 72
     5
 11
1917.0
 21
1206.9140625
 31
0.0
100
AcDbText
  0
TEXT
  5
118
330
1F
100
AcDbEntity
  8
図面枠
  6
CONTINUOUS
 62
     4
100
AcDbText
 10
1872.0
 20
1176.9140625
 30
0.0
 40
17.3145207852194
  1
62.8
 41
0.999230769230769
  7
EXCADTTF1
 72
     5
 11
1917.0
 21
1176.9140625
 31
0.0
100
AcDbText
  0
TEXT
  5
119
330
1F
100
AcDbEntity
  8
図面枠
  6
CONTINUOUS
 62
     4
100
AcDbText
 10
1882.0
 20
1146.9140625
 30
0.0
 40
17.3145207852194
  1
6.0
 41
0.9992307692307689
  7
EXCADTTF1
 72
     5
 11
1915.75
 21
1146.9140625
 31
0.0
100
AcDbText
  0
TEXT
  5
11A
330
1F
100
AcDbEntity
  8
図面枠
  6
CONTINUOUS
 62
     4
100
AcDbText
 10
1861.0
 20
1116.4140625
 30
0.0
 40
17.3145207852194
  1
約500
 41
0.9992307692307691
  7
EXCADTTF1
 72
     5
 11
1917.25
 21
1116.4140625
 31
0.0
100
AcDbText
  0
TEXT
  5
11B
330
1F
100
AcDbEntity
  8
図面枠
  6
CONTINUOUS
 62
     4
100
AcDbText
 10
1859.5000076294
 20
86.71875
 30
0.0
 40
23.08602771362587
  1
MJ-75050-U
 41
0.9992307692307693
  7
EXCADTTF1
 72
     5
 11
2009.5000076294
 21
86.71875
 31
0.0
100
AcDbText
  0
ARC
  5
11C
330
1F
100
AcDbEntity
  8
Ｓ_１_１
  6
CONTINUOUS
 62
     3
100
AcDbCircle
 10
679.9999598412867
 20
538.0000075182879
 30
0.0
 40
17.5
100
AcDbArc
 50
90.0000068035628
 51
270.0000068035604
  0
LINE
  5
11D
330
1F
100
AcDbEntity
  8
Ｓ_１_１
  6
CONTINUOUS
 62
     3
100
AcDbLine
 10
438.0001481679426
 20
239.9999354068202
 30
0.0
 11
435.0000632377039
 21
242.9997712957724
 31
0.0
  0
LINE
  5
11E
330
1F
100
AcDbEntity
  8
Ｓ_１_１
  6
CONTINUOUS
 62
     3
100
AcDbLine
 10
438.0000779696063
 20
502.9999024148399
 30
0.0
 11
435.000118360743
 21
499.9998174845684
 31
0.0
  0
LINE
  5
11F
330
1F
100
AcDbEntity
  8
Ｓ_１_１
  6
CONTINUOUS
 62
     3
100
AcDbLine
 10
447.4999600473295
 20
505.9998653601204
 30
0.0
 11
450.5002924174235
 21
502.9999057513232
 31
0.0
  0
LINE
  5
120
330
1F
100
AcDbEntity
  8
Ｓ_１_１
  6
CONTINUOUS
 62
     3
100
AcDbLine
 10
447.4999429647903
 20
569.9999033008835
 30
0.0
 11
447.4999600473295
 21
505.9998653601204
 31
0.0
  0
LINE
  5
121
330
1F
100
AcDbEntity
  8
Ｓ_１_１
  6
CONTINUOUS
 62
     3
100
AcDbLine
 10
447.4999600473022
 20
505.9998653601208
 30
0.0
 11
447.4999429647908
 21
569.9999033008835
 31
0.0
  0
LINE
  5
122
330
1F
100
AcDbEntity
  8
Ｓ_１_１
  6
CONTINUOUS
 62
     3
100
AcDbLine
 10
450.5001500135097
 20
572.9998645113092
 30
0.0
 11
447.4999429647903
 21
569.9999033008835
 31
0.0
  0
LINE
  5
123
330
1F
100
AcDbEntity
  8
Ｓ_１_１
  6
CONTINUOUS
 62
     3
100
AcDbLine
 10
509.9995951590779
 20
577.9997565239225
 30
0.0
 11
509.9995964936231
 21
572.9998498209261
 31
0.0
  0
LINE
  5
124
330
1F
100
AcDbEntity
  8
Ｓ_１_１
  6
CONTINUOUS
 62
     3
100
AcDbLine
 10
509.9995951590779
 20
577.9997565239225
 30
0.0
 11
514.9995938245072
 21
582.9997578584928
 31
0.0
  0
LINE
  5
125
330
1F
100
AcDbEntity
  8
Ｓ_１_１
  6
CONTINUOUS
 62
     3
100
AcDbLine
 10
514.9995938245036
 20
582.999757858493
 30
0.0
 11
514.9995938245036
 21
572.9998485864294
 31
0.0
  0
LINE
  5
126
330
1F
100
AcDbEntity
  8
Ｓ_１_１
  6
CONTINUOUS
 62
     3
100
AcDbLine
 10
440.000118360743
 20
499.9998174845684
 30
0.0
 11
440.000118360743
 21
499.9998164121359
 31
0.0
  0
ARC
  5
127
330
1F
100
AcDbEntity
  8
Ｓ_１_１
  6
CONTINUOUS
 62
     3
100
AcDbCircle
 10
679.9999402107326
 20
688.0039320022909
 30
0.0
 40
180.0
100
AcDbArc
 50
211.8619871311096
 51
215.6869685882236
  0
ARC
  5
128
330
1F
100
AcDbEntity
  8
Ｓ_１_１
  6
CONTINUOUS
 62
     3
100
AcDbCircle
 10
679.9999606183385
 20
538.0000075182879
 30
0.0
 40
17.5
100
AcDbArc
 50
270.0000084894899
 51
90.00000848948784
  0
LINE
  5
129
330
1F
100
AcDbEntity
  8
Ｓ_１_１
  6
CONTINUOUS
 62
     3
100
AcDbLine
 10
921.9998518320901
 20
239.9999999999888
 30
0.0
 11
924.9999359616302
 21
242.9998366897059
 31
0.0
  0
LINE
  5
12A
330
1F
100
AcDbEntity
  8
Ｓ_１_１
  6
CONTINUOUS
 62
     3
100
AcDbLine
 10
921.999851832031
 20
502.9999670080178
 30
0.0
 11
924.9998122416594
 21
499.999882878478
 31
0.0
  0
LINE
  5
12B
330
1F
100
AcDbEntity
  8
Ｓ_１_１
  6
CONTINUOUS
 62
     3
100
AcDbLine
 10
912.4999689535764
 20
505.9999274176459
 30
0.0
 11
909.4996373842139
 21
502.9999670080181
 31
0.0
  0
LINE
  5
12C
330
1F
100
AcDbEntity
  8
Ｓ_１_１
  6
CONTINUOUS
 62
     3
100
AcDbLine
 10
912.4999689536037
 20
569.9999653584114
 30
0.0
 11
912.4999689535764
 21
505.9999274176459
 31
0.0
  0
LINE
  5
12D
330
1F
100
AcDbEntity
  8
Ｓ_１_１
  6
CONTINUOUS
 62
     3
100
AcDbLine
 10
912.4999689536032
 20
505.9999274176464
 30
0.0
 11
912.4999689536032
 21
569.9999653584114
 31
0.0
  0
LINE
  5
12E
330
1F
100
AcDbEntity
  8
Ｓ_１_１
  6
CONTINUOUS
 62
     3
100
AcDbLine
 10
909.4997611041529
 20
572.9999257680395
 30
0.0
 11
912.4999689536037
 21
569.9999653584114
 31
0.0
  0
LINE
  5
12F
330
1F
100
AcDbEntity
  8
Ｓ_１_１
  6
CONTINUOUS
 62
     3
100
AcDbLine
 10
850.0003146240454
 20
577.9998018994129
 30
0.0
 11
850.0003146240454
 21
572.9998951964162
 31
0.0
  0
LINE
  5
130
330
1F
100
AcDbEntity
  8
Ｓ_１_１
  6
CONTINUOUS
 62
     3
100
AcDbLine
 10
850.0003146240454
 20
577.9998018994129
 30
0.0
 11
845.0003146240454
 21
582.9998018994129
 31
0.0
  0
LINE
  5
131
330
1F
100
AcDbEntity
  8
Ｓ_１_１
  6
CONTINUOUS
 62
     3
100
AcDbLine
 10
845.000314624049
 20
582.9998018994131
 30
0.0
 11
845.0003172931654
 21
572.9998926273497
 31
0.0
  0
LINE
  5
132
330
1F
100
AcDbEntity
  8
Ｓ_１_１
  6
CONTINUOUS
 62
     3
100
AcDbLine
 10
919.9998122416594
 20
499.9998815439076
 30
0.0
 11
919.9998122416599
 21
499.9998804714751
 31
0.0
  0
ARC
  5
133
330
1F
100
AcDbEntity
  8
Ｓ_１_１
  6
CONTINUOUS
 62
     3
100
AcDbCircle
 10
679.9999402107326
 20
688.0039320022909
 30
0.0
 40
180.0
100
AcDbArc
 50
324.3130467048269
 51
328.138028161941
  0
ARC
  5
134
330
1F
100
AcDbEntity
  8
Ｓ_１_１
  6
CONTINUOUS
 62
     3
100
AcDbCircle
 10
679.9999598412771
 20
538.0000075182879
 30
0.0
 40
10.0
100
AcDbArc
 50
270.0000098726545
 51
270.0000068035602
  0
LINE
  5
135
330
1F
100
AcDbEntity
  8
Ｓ_１_１
  6
CONTINUOUS
 62
     3
100
AcDbLine
 10
413.0001035143457
 20
454.0000121320465
 30
0.0
 11
413.0000416543905
 21
471.999898309728
 31
0.0
  0
LINE
  5
136
330
1F
100
AcDbEntity
  8
Ｓ_１_１
  6
CONTINUOUS
 62
     3
100
AcDbLine
 10
412.0000754711662
 20
469.999842223368
 30
0.0
 11
413.0000416543905
 21
471.999898309728
 31
0.0
  0
LINE
  5
137
330
1F
100
AcDbEntity
  8
Ｓ_１_１
  6
CONTINUOUS
 62
     3
100
AcDbLine
 10
412.0000754711662
 20
455.9998207785835
 30
0.0
 11
413.0001035143457
 21
454.0000121320465
 31
0.0
  0
LINE
  5
138
330
1F
100
AcDbEntity
  8
Ｓ_１_１
  6
CONTINUOUS
 62
     3
100
AcDbLine
 10
413.0001035143457
 20
454.0000121320465
 30
0.0
 11
424.0001026895468
 21
454.0000121320465
 31
0.0
  0
LINE
  5
139
330
1F
100
AcDbEntity
  8
Ｓ_１_１
  6
CONTINUOUS
 62
     3
100
AcDbLine
 10
412.0000754711662
 20
469.999842223368
 30
0.0
 11
412.0000754711662
 21
455.9998207785835
 31
0.0
  0
LINE
  5
13A
330
1F
100
AcDbEntity
  8
Ｓ_１_１
  6
CONTINUOUS
 62
     3
100
AcDbLine
 10
413.0000416543905
 20
471.999898309728
 30
0.0
 11
424.0000408295912
 21
471.999898309728
 31
0.0
  0
LINE
  5
13B
330
1F
100
AcDbEntity
  8
Ｓ_１_１
  6
CONTINUOUS
 62
     3
100
AcDbLine
 10
413.0001035143457
 20
421.9999807896685
 30
0.0
 11
413.0001035143457
 21
404.0000946119875
 31
0.0
  0
LINE
  5
13C
330
1F
100
AcDbEntity
  8
Ｓ_１_１
  6
CONTINUOUS
 62
     3
100
AcDbLine
 10
412.0000754711662
 20
405.9999032585245
 30
0.0
 11
413.0001035143457
 21
404.0000946119875
 31
0.0
  0
LINE
  5
13D
330
1F
100
AcDbEntity
  8
Ｓ_１_１
  6
CONTINUOUS
 62
     3
100
AcDbLine
 10
394.0000655735728
 20
407.9999593448844
 30
0.0
 11
412.0000754711662
 21
407.9998356249729
 31
0.0
  0
LINE
  5
13E
330
1F
100
AcDbEntity
  8
Ｓ_１_１
  6
CONTINUOUS
 62
     3
100
AcDbLine
 10
412.0000754711662
 20
419.999924703309
 30
0.0
 11
413.0001035143457
 21
421.9999807896685
 31
0.0
  0
LINE
  5
13F
330
1F
100
AcDbEntity
  8
Ｓ_１_１
  6
CONTINUOUS
 62
     3
100
AcDbLine
 10
424.0001026895468
 20
398.0000500728192
 30
0.0
 11
424.0001026895468
 21
477.9999428488959
 31
0.0
  0
LINE
  5
140
330
1F
100
AcDbEntity
  8
Ｓ_１_１
  6
CONTINUOUS
 62
     3
100
AcDbLine
 10
440.0001183607353
 20
398.0000500728192
 30
0.0
 11
440.0001183607353
 21
477.9999428488959
 31
0.0
  0
LINE
  5
141
330
1F
100
AcDbEntity
  8
Ｓ_１_１
  6
CONTINUOUS
 62
     3
100
AcDbLine
 10
424.0001026895468
 20
398.0000500728192
 30
0.0
 11
440.0001183607353
 21
398.0000500728192
 31
0.0
  0
LINE
  5
142
330
1F
100
AcDbEntity
  8
Ｓ_１_１
  6
CONTINUOUS
 62
     3
100
AcDbLine
 10
424.0001026895468
 20
477.9999428488959
 30
0.0
 11
440.0001183607353
 21
477.9999428488959
 31
0.0
  0
LINE
  5
143
330
1F
100
AcDbEntity
  8
Ｓ_１_１
  6
CONTINUOUS
 62
     3
100
AcDbLine
 10
413.0001035143457
 20
421.9999807896685
 30
0.0
 11
424.0000408295912
 21
421.9999807896685
 31
0.0
  0
LINE
  5
144
330
1F
100
AcDbEntity
  8
Ｓ_１_１
  6
CONTINUOUS
 62
     3
100
AcDbLine
 10
412.0000754711662
 20
405.9999032585245
 30
0.0
 11
412.0000754711662
 21
419.999924703309
 31
0.0
  0
LINE
  5
145
330
1F
100
AcDbEntity
  8
Ｓ_１_１
  6
CONTINUOUS
 62
     3
100
AcDbLine
 10
413.0001035143457
 20
404.0000946119875
 30
0.0
 11
424.0000408295912
 21
403.9998471721646
 31
0.0
  0
LINE
  5
146
330
1F
100
AcDbEntity
  8
Ｓ_１_１
  6
CONTINUOUS
 62
     3
100
AcDbLine
 10
394.0001274335293
 20
468.0000335768311
 30
0.0
 11
412.0000754711662
 21
467.9997861370081
 31
0.0
  0
CIRCLE
  5
147
330
1F
100
AcDbEntity
  8
Ｓ_１_１
  6
CONTINUOUS
 62
     3
100
AcDbCircle
 10
394.0000655735728
 20
437.9999346009019
 30
0.0
 40
15.00000019331237
  0
ARC
  5
148
330
1F
100
AcDbEntity
  8
Ｓ_１_１
  6
CONTINUOUS
 62
     3
100
AcDbCircle
 10
394.0000655735728
 20
437.9999346009019
 30
0.0
 40
30.00000038662474
100
AcDbArc
 50
90.00000000000001
 51
270.000015258789
  0
LINE
  5
149
330
1F
100
AcDbEntity
  8
Ｓ_１_１
  6
CONTINUOUS
 62
     3
100
AcDbLine
 10
440.0001183607336
 20
477.9999428488959
 30
0.0
 11
440.0001136420481
 21
477.9999428488959
 31
0.0
  0
LINE
  5
14A
330
1F
100
AcDbEntity
  8
Ｓ_１_１
  6
CONTINUOUS
 62
     3
100
AcDbLine
 10
435.0001136420663
 20
477.9999404895423
 30
0.0
 11
435.0001183607426
 21
499.9998174845684
 31
0.0
  0
LINE
  5
14B
330
1F
100
AcDbEntity
  8
Ｓ_１_１
  6
CONTINUOUS
 62
     3
100
AcDbLine
 10
435.0000632377039
 20
242.9997712957724
 30
0.0
 11
435.0000964831695
 21
398.0000477134691
 31
0.0
  0
LINE
  5
14C
330
1F
100
AcDbEntity
  8
Ｓ_１_１
  6
CONTINUOUS
 62
     3
100
AcDbLine
 10
946.9998393660519
 20
454.0000833980716
 30
0.0
 11
946.9998964215841
 21
471.9999695757688
 31
0.0
  0
LINE
  5
14D
330
1F
100
AcDbEntity
  8
Ｓ_１_１
  6
CONTINUOUS
 62
     3
100
AcDbLine
 10
947.9998631386513
 20
469.9999137563141
 30
0.0
 11
946.9998964215841
 21
471.9999695757688
 31
0.0
  0
LINE
  5
14E
330
1F
100
AcDbEntity
  8
Ｓ_１_１
  6
CONTINUOUS
 62
     3
100
AcDbLine
 10
947.9998668754541
 20
455.99989231153
 30
0.0
 11
946.9998393660519
 21
454.0000833980716
 31
0.0
  0
LINE
  5
14F
330
1F
100
AcDbEntity
  8
Ｓ_１_１
  6
CONTINUOUS
 62
     3
100
AcDbLine
 10
946.9998393660519
 20
454.0000833980716
 30
0.0
 11
935.9998401908508
 21
454.0000804620168
 31
0.0
  0
LINE
  5
150
330
1F
100
AcDbEntity
  8
Ｓ_１_１
  6
CONTINUOUS
 62
     3
100
AcDbLine
 10
947.9998631386513
 20
469.9999137563141
 30
0.0
 11
947.9998668754541
 21
455.99989231153
 31
0.0
  0
LINE
  5
151
330
1F
100
AcDbEntity
  8
Ｓ_１_１
  6
CONTINUOUS
 62
     3
100
AcDbLine
 10
946.9998964215841
 20
471.9999695757688
 30
0.0
 11
935.9998972463834
 21
471.9999666397141
 31
0.0
  0
LINE
  5
152
330
1F
100
AcDbEntity
  8
Ｓ_１_１
  6
CONTINUOUS
 62
     3
100
AcDbLine
 10
946.9998479073109
 20
422.0000520556947
 30
0.0
 11
946.9998527117339
 21
404.0001658780142
 31
0.0
  0
LINE
  5
153
330
1F
100
AcDbEntity
  8
Ｓ_１_１
  6
CONTINUOUS
 62
     3
100
AcDbLine
 10
947.9998802211364
 20
405.9999747914727
 30
0.0
 11
946.9998527117339
 21
404.0001658780142
 31
0.0
  0
LINE
  5
154
330
1F
100
AcDbEntity
  8
Ｓ_１_１
  6
CONTINUOUS
 62
     3
100
AcDbLine
 10
965.9998895848861
 20
408.0000356822887
 30
0.0
 11
947.9998796873264
 21
407.9999071579211
 31
0.0
  0
LINE
  5
155
330
1F
100
AcDbEntity
  8
Ｓ_１_１
  6
CONTINUOUS
 62
     3
100
AcDbLine
 10
947.9998764843333
 20
419.9999962362568
 30
0.0
 11
946.9998479073109
 21
422.0000520556947
 31
0.0
  0
LINE
  5
156
330
1F
100
AcDbEntity
  8
Ｓ_１_１
  6
CONTINUOUS
 62
     3
100
AcDbLine
 10
935.9998551380297
 20
398.0001184027914
 30
0.0
 11
935.9998337849313
 21
478.0000111788654
 31
0.0
  0
LINE
  5
157
330
1F
100
AcDbEntity
  8
Ｓ_１_１
  6
CONTINUOUS
 62
     3
100
AcDbLine
 10
919.9998394668416
 20
398.000114132162
 30
0.0
 11
919.9998181137437
 21
478.0000069082359
 31
0.0
  0
LINE
  5
158
330
1F
100
AcDbEntity
  8
Ｓ_１_１
  6
CONTINUOUS
 62
     3
100
AcDbLine
 10
935.9998551380297
 20
398.0001184027914
 30
0.0
 11
919.9998394668416
 21
398.000114132162
 31
0.0
  0
LINE
  5
159
330
1F
100
AcDbEntity
  8
Ｓ_１_１
  6
CONTINUOUS
 62
     3
100
AcDbLine
 10
935.9998337849313
 20
478.0000111788654
 30
0.0
 11
919.9998181137437
 21
478.0000069082359
 31
0.0
  0
LINE
  5
15A
330
1F
100
AcDbEntity
  8
Ｓ_１_１
  6
CONTINUOUS
 62
     3
100
AcDbLine
 10
946.9998479073109
 20
422.0000520556947
 30
0.0
 11
935.9999105920658
 21
422.0000491196565
 31
0.0
  0
LINE
  5
15B
330
1F
100
AcDbEntity
  8
Ｓ_１_１
  6
CONTINUOUS
 62
     3
100
AcDbLine
 10
947.9998802211364
 20
405.9999747914727
 30
0.0
 11
947.9998764843333
 21
419.9999962362568
 31
0.0
  0
LINE
  5
15C
330
1F
100
AcDbEntity
  8
Ｓ_１_１
  6
CONTINUOUS
 62
     3
100
AcDbLine
 10
946.9998527117339
 20
404.0001658780142
 30
0.0
 11
935.9999153965549
 21
403.9999155021531
 31
0.0
  0
LINE
  5
15D
330
1F
100
AcDbEntity
  8
Ｓ_１_１
  6
CONTINUOUS
 62
     3
100
AcDbLine
 10
965.9998117100647
 20
468.0001099142169
 30
0.0
 11
947.9998636724943
 21
467.9998576699542
 31
0.0
  0
CIRCLE
  5
15E
330
1F
100
AcDbEntity
  8
Ｓ_１_１
  6
CONTINUOUS
 62
     3
100
AcDbCircle
 10
965.99988157747
 20
438.0000109383053
 30
0.0
 40
15.00000019331237
  0
ARC
  5
15F
330
1F
100
AcDbEntity
  8
Ｓ_１_１
  6
CONTINUOUS
 62
     3
100
AcDbCircle
 10
965.99988157747
 20
438.0000109383053
 30
0.0
 40
30.00000038662474
100
AcDbArc
 50
270.0000000342616
 51
90.00001529305048
  0
LINE
  5
160
330
1F
100
AcDbEntity
  8
Ｓ_１_１
  6
CONTINUOUS
 62
     3
100
AcDbLine
 10
919.9998181137455
 20
478.0000069082359
 30
0.0
 11
919.9998228324309
 21
478.0000069082371
 31
0.0
  0
LINE
  5
161
330
1F
100
AcDbEntity
  8
Ｓ_１_１
  6
CONTINUOUS
 62
     3
100
AcDbLine
 10
924.9998228324132
 20
478.000005883454
 30
0.0
 11
924.9998122416599
 21
499.999882878478
 31
0.0
  0
LINE
  5
162
330
1F
100
AcDbEntity
  8
Ｓ_１_１
  6
CONTINUOUS
 62
     3
100
AcDbLine
 10
924.9999359616302
 20
242.9998366897059
 30
0.0
 11
924.999861344408
 21
398.0001131073881
 31
0.0
  0
CIRCLE
  5
163
330
1F
100
AcDbEntity
  8
Ｓ_１_１
  6
CONTINUOUS
 62
     3
100
AcDbCircle
 10
679.9999715737579
 20
452.9998787291915
 30
0.0
 40
6.5
  0
POLYLINE
  5
164
330
1F
100
AcDbEntity
  8
Ｓ_１_１
  6
CONTINUOUS
 62
     3
100
AcDb2dPolyline
 66
     1
 10
0.0
 20
0.0
 30
0.0
 70
   128
  0
VERTEX
  5
165
330
164
100
AcDbEntity
  8
Ｓ_１_１
  6
CONTINUOUS
 62
     3
100
AcDbVertex
100
AcDb2dVertex
 10
679.9999552949257
 20
460.5054322286335
 30
0.0
  0
VERTEX
  5
166
330
164
100
AcDbEntity
  8
Ｓ_１_１
  6
CONTINUOUS
 62
     3
100
AcDbVertex
100
AcDb2dVertex
 10
673.4999634343618
 20
456.7526413810305
 30
0.0
  0
VERTEX
  5
167
330
164
100
AcDbEntity
  8
Ｓ_１_１
  6
CONTINUOUS
 62
     3
100
AcDbVertex
100
AcDb2dVertex
 10
673.4999797131937
 20
449.2470878815884
 30
0.0
  0
VERTEX
  5
168
330
164
100
AcDbEntity
  8
Ｓ_１_１
  6
CONTINUOUS
 62
     3
100
AcDbVertex
100
AcDb2dVertex
 10
679.99998785259
 20
445.4943252297494
 30
0.0
  0
VERTEX
  5
169
330
164
100
AcDbEntity
  8
Ｓ_１_１
  6
CONTINUOUS
 62
     3
100
AcDbVertex
100
AcDb2dVertex
 10
686.4999797131538
 20
449.2471160773528
 30
0.0
  0
VERTEX
  5
16A
330
164
100
AcDbEntity
  8
Ｓ_１_１
  6
CONTINUOUS
 62
     3
100
AcDbVertex
100
AcDb2dVertex
 10
686.4999634343219
 20
456.7526695767947
 30
0.0
  0
VERTEX
  5
16B
330
164
100
AcDbEntity
  8
Ｓ_１_１
  6
CONTINUOUS
 62
     3
100
AcDbVertex
100
AcDb2dVertex
 10
679.9999552949257
 20
460.5054322286335
 30
0.0
  0
SEQEND
  5
16C
330
164
100
AcDbEntity
  8
Ｓ_１_１
  6
CONTINUOUS
 62
     3
  0
ELLIPSE
  5
16D
330
1F
100
AcDbEntity
  8
Ｓ_１_１
  6
CONTINUOUS
 62
     3
100
AcDbEllipse
 10
842.98813290575
 20
537.99975052894
 30
0.0
 11
-3.828568698926950E-15
 21
10.0
 31
0.0
210
0.0
220
0.0
230
1.0
 40
0.7213610060607645
 41
0.0
 42
6.283185307179586
  0
ELLIPSE
  5
16E
330
1F
100
AcDbEntity
  8
Ｓ_１_１
  6
CONTINUOUS
 62
     3
100
AcDbEllipse
 10
842.98813290575
 20
537.99975052894
 30
0.0
 11
-6.699995223122162E-15
 21
17.5
 31
0.0
210
0.0
220
0.0
230
1.0
 40
0.7510007207788715
 41
0.0
 42
6.283185307179586
  0
ELLIPSE
  5
16F
330
1F
100
AcDbEntity
  8
Ｓ_１_１
  6
CONTINUOUS
 62
     3
100
AcDbEllipse
 10
517.0118613050702
 20
537.99992017
 30
0.0
 11
-1.836970198721030E-15
 21
-10.0
 31
0.0
210
0.0
220
0.0
230
1.0
 40
0.7213610060607645
 41
0.0
 42
6.283185307179586
  0
ELLIPSE
  5
170
330
1F
100
AcDbEntity
  8
Ｓ_１_１
  6
CONTINUOUS
 62
     3
100
AcDbEllipse
 10
517.0118613050702
 20
537.99992017
 30
0.0
 11
-3.214697847761802E-15
 21
-17.5
 31
0.0
210
0.0
220
0.0
230
1.0
 40
0.7510007207788715
 41
0.0
 42
6.283185307179586
  0
CIRCLE
  5
171
330
1F
100
AcDbEntity
  8
Ｓ_１_１
  6
CONTINUOUS
 62
     3
100
AcDbCircle
 10
679.99994512251
 20
324.99966976519
 30
0.0
 40
4.08024285287689
  0
CIRCLE
  5
172
330
1F
100
AcDbEntity
  8
Ｓ_１_１
  6
CONTINUOUS
 62
     3
100
AcDbCircle
 10
679.99994512251
 20
324.99966976519
 30
0.0
 40
8.229790712720781
  0
CIRCLE
  5
173
330
1F
100
AcDbEntity
  8
Ｓ_１_１
  6
CONTINUOUS
 62
     3
100
AcDbCircle
 10
679.99994512251
 20
324.99966976519
 30
0.0
 40
11.99981217257995
  0
CIRCLE
  5
174
330
1F
100
AcDbEntity
  8
Ｓ_１_１
  6
CONTINUOUS
 62
     3
100
AcDbCircle
 10
679.99994512251
 20
324.99966976519
 30
0.0
 40
10.85001912216322
  0
CIRCLE
  5
175
330
1F
100
AcDbEntity
  8
Ｓ_１_１
  6
CONTINUOUS
 62
     3
100
AcDbCircle
 10
679.99994512251
 20
324.99966976519
 30
0.0
 40
15.99956756487146
  0
LINE
  5
176
330
1F
100
AcDbEntity
  8
Ｓ_１_１
  6
CONTINUOUS
 62
     3
100
AcDbLine
 10
874.0068034606168
 20
595.1944002902355
 30
0.0
 11
878.9999502986982
 21
600.4560850055086
 31
0.0
  0
LINE
  5
177
330
1F
100
AcDbEntity
  8
Ｓ_１_１
  6
CONTINUOUS
 62
     3
100
AcDbLine
 10
878.9999502986982
 20
600.4560850055086
 30
0.0
 11
878.999946195724
 21
636.003931731406
 31
0.0
  0
LINE
  5
178
330
1F
100
AcDbEntity
  8
Ｓ_１_１
  6
CONTINUOUS
 62
     3
100
AcDbLine
 10
876.9999459648818
 20
638.003931731406
 30
0.0
 11
878.999946195724
 21
636.003931731406
 31
0.0
  0
LINE
  5
179
330
1F
100
AcDbEntity
  8
Ｓ_１_１
  6
CONTINUOUS
 62
     3
100
AcDbLine
 10
874.0068034606168
 20
595.1944002902355
 30
0.0
 11
832.8779423166882
 21
592.98647848931
 31
0.0
  0
LINE
  5
17A
330
1F
100
AcDbEntity
  8
Ｓ_１_１
  6
CONTINUOUS
 62
     3
100
AcDbLine
 10
485.9931017330266
 20
595.1943482401607
 30
0.0
 11
480.9999534905276
 21
600.4560316226923
 31
0.0
  0
LINE
  5
17B
330
1F
100
AcDbEntity
  8
Ｓ_１_１
  6
CONTINUOUS
 62
     3
100
AcDbLine
 10
480.9999534905276
 20
600.4560316226923
 30
0.0
 11
480.9999481052812
 21
636.0038783485895
 31
0.0
  0
LINE
  5
17C
330
1F
100
AcDbEntity
  8
Ｓ_１_１
  6
CONTINUOUS
 62
     3
100
AcDbLine
 10
482.9999478022949
 20
638.0038788824177
 30
0.0
 11
480.9999481052812
 21
636.0038783485895
 31
0.0
  0
LINE
  5
17D
330
1F
100
AcDbEntity
  8
Ｓ_１_１
  6
CONTINUOUS
 62
     3
100
AcDbLine
 10
485.9931017330266
 20
595.1943482401607
 30
0.0
 11
527.1219634662791
 21
592.9864376840214
 31
0.0
  0
CIRCLE
  5
17E
330
1F
100
AcDbEntity
  8
Ｓ_１_１
  6
CONTINUOUS
 62
     3
100
AcDbCircle
 10
680.0000121713614
 20
399.999620592289
 30
0.0
 40
1.594053378199988
  0
CIRCLE
  5
17F
330
1F
100
AcDbEntity
  8
Ｓ_１_１
  6
CONTINUOUS
 62
     3
100
AcDbCircle
 10
680.0000121713614
 20
399.999620592289
 30
0.0
 40
5.593913829399979
  0
CIRCLE
  5
180
330
1F
100
AcDbEntity
  8
Ｓ_１_１
  6
CONTINUOUS
 62
     3
100
AcDbCircle
 10
680.0000121713614
 20
399.999620592289
 30
0.0
 40
9.09391382939998
  0
CIRCLE
  5
181
330
1F
100
AcDbEntity
  8
Ｓ_１_１
  6
CONTINUOUS
 62
     3
100
AcDbCircle
 10
680.0000121713614
 20
399.999620592289
 30
0.0
 40
11.84406099090006
  0
ARC
  5
182
330
1F
100
AcDbEntity
  8
Ｓ_１_１
  6
CONTINUOUS
 62
     3
100
AcDbCircle
 10
724.5000101715298
 20
407.4920458231453
 30
0.0
 40
6.000000000001596
100
AcDbArc
 50
331.0978712663966
 51
0.0000152930503339
  0
ARC
  5
183
330
1F
100
AcDbEntity
  8
Ｓ_１_１
  6
CONTINUOUS
 62
     3
100
AcDbCircle
 10
730.5000101715297
 20
407.4920474246298
 30
0.0
 40
6.000000000000006
100
AcDbArc
 50
180.0000073103115
 51
208.9021593197143
  0
ARC
  5
184
330
1F
100
AcDbEntity
  8
Ｓ_１_１
  6
CONTINUOUS
 62
     3
100
AcDbCircle
 10
730.5000141711907
 20
392.5072212901305
 30
0.0
 40
6.000000000001596
100
AcDbArc
 50
151.0978789118643
 51
180.0000570489382
  0
ARC
  5
185
330
1F
100
AcDbEntity
  8
Ｓ_１_１
  6
CONTINUOUS
 62
     3
100
AcDbCircle
 10
724.5000141711921
 20
392.5072153159761
 30
0.0
 40
6.000000000001596
100
AcDbArc
 50
0.0000570489729581
 51
28.90219937096298
  0
LINE
  5
186
330
1F
100
AcDbEntity
  8
Ｓ_１_１
  6
CONTINUOUS
 62
     3
100
AcDbLine
 10
729.8059774751147
 20
395.4071112624723
 30
0.0
 11
725.1940493192237
 21
395.4071100314837
 31
0.0
  0
LINE
  5
187
330
1F
100
AcDbEntity
  8
Ｓ_１_１
  6
CONTINUOUS
 62
     3
100
AcDbLine
 10
729.8059750634134
 20
404.5921563808821
 30
0.0
 11
725.1940468276896
 21
404.5921551498934
 31
0.0
  0
ARC
  5
188
330
1F
100
AcDbEntity
  8
Ｓ_１_１
  6
CONTINUOUS
 62
     3
100
AcDbCircle
 10
714.9583455046607
 20
399.9996299231606
 30
0.0
 40
15.5416666667
100
AcDbArc
 50
342.8126471978719
 51
17.18738289023581
  0
ARC
  5
189
330
1F
100
AcDbEntity
  8
Ｓ_１_１
  6
CONTINUOUS
 62
     3
100
AcDbCircle
 10
740.0416788380599
 20
399.9996366182554
 30
0.0
 40
15.5416666667
100
AcDbArc
 50
200.6654939490858
 51
200.6654952963505
  0
ARC
  5
18A
330
1F
100
AcDbEntity
  8
Ｓ_１_１
  6
CONTINUOUS
 62
     3
100
AcDbCircle
 10
740.0416788380599
 20
399.9996366182554
 30
0.0
 40
15.5416666667
100
AcDbArc
 50
162.8126476958656
 51
197.1873833882293
  0
ARC
  5
18B
330
1F
100
AcDbEntity
  8
Ｓ_１_１
  6
CONTINUOUS
 62
     3
100
AcDbCircle
 10
714.9583455046607
 20
399.9996299231606
 30
0.0
 40
15.5416666667
100
AcDbArc
 50
20.66549140260292
 51
20.66549370245047
  0
ARC
  5
18C
330
1F
100
AcDbEntity
  8
Ｓ_１_１
  6
CONTINUOUS
 62
     3
100
AcDbCircle
 10
740.0416788380599
 20
399.9996366182554
 30
0.0
 40
15.5416666667
100
AcDbArc
 50
159.3345316473505
 51
159.3345391834976
  0
LINE
  5
18D
330
1F
100
AcDbEntity
  8
Ｓ_１_１
  6
CONTINUOUS
 62
     3
100
AcDbLine
 10
730.500014171191
 20
392.5072202327503
 30
0.0
 11
730.5000121713603
 21
399.9996340714502
 31
0.0
  0
LINE
  5
18E
330
1F
100
AcDbEntity
  8
Ｓ_１_１
  6
CONTINUOUS
 62
     3
100
AcDbLine
 10
730.5000121713603
 20
399.9996340714502
 30
0.0
 11
730.5000101715294
 21
407.4920479101499
 31
0.0
  0
LINE
  5
18F
330
1F
100
AcDbEntity
  8
Ｓ_１_１
  6
CONTINUOUS
 62
     3
100
AcDbLine
 10
725.5000096356766
 20
409.4996327368794
 30
0.0
 11
729.5000096356765
 21
409.4996338045357
 31
0.0
  0
LINE
  5
190
330
1F
100
AcDbEntity
  8
Ｓ_１_１
  6
CONTINUOUS
 62
     3
100
AcDbLine
 10
725.5000147070442
 20
390.4996327368801
 30
0.0
 11
729.500014707044
 21
390.4996338045364
 31
0.0
  0
LINE
  5
191
330
1F
100
AcDbEntity
  8
Ｓ_１_１
  6
CONTINUOUS
 62
     3
100
AcDbLine
 10
724.5000126570911
 20
392.5072183556657
 30
0.0
 11
725.5000132445443
 21
390.4996323173795
 31
0.0
  0
LINE
  5
192
330
1F
100
AcDbEntity
  8
Ｓ_１_１
  6
CONTINUOUS
 62
     3
100
AcDbLine
 10
724.5000101481296
 20
407.4920457761654
 30
0.0
 11
725.5000098054766
 21
409.4996326327794
 31
0.0
  0
LINE
  5
193
330
1F
100
AcDbEntity
  8
Ｓ_１_１
  6
CONTINUOUS
 62
     3
100
AcDbLine
 10
730.5000136856908
 20
392.5072203154504
 30
0.0
 11
729.500014028344
 21
390.4996334588361
 31
0.0
  0
LINE
  5
194
330
1F
100
AcDbEntity
  8
Ｓ_１_１
  6
CONTINUOUS
 62
     3
100
AcDbLine
 10
730.5000083371298
 20
407.4920467346494
 30
0.0
 11
729.5000076080768
 21
409.4996330574351
 31
0.0
  0
LINE
  5
195
330
1F
100
AcDbEntity
  8
Ｓ_１_１
  6
CONTINUOUS
 62
     3
100
AcDbLine
 10
724.5000121713605
 20
399.9996324699657
 30
0.0
 11
724.500009769134
 21
408.9996318056654
 31
0.0
  0
LINE
  5
196
330
1F
100
AcDbEntity
  8
Ｓ_１_１
  6
CONTINUOUS
 62
     3
100
AcDbLine
 10
724.500014573587
 20
390.9996326705659
 30
0.0
 11
724.5000121713605
 21
399.9996324699657
 31
0.0
  0
LINE
  5
197
330
1F
100
AcDbEntity
  8
Ｓ_１_１
  6
CONTINUOUS
 62
     3
100
AcDbLine
 10
724.500014858487
 20
390.999632670566
 30
0.0
 11
723.5000153282011
 21
389.999632690752
 31
0.0
  0
LINE
  5
198
330
1F
100
AcDbEntity
  8
Ｓ_１_１
  6
CONTINUOUS
 62
     3
100
AcDbLine
 10
723.5000100532196
 20
409.9996316520513
 30
0.0
 11
724.500010349134
 21
408.9996318056656
 31
0.0
  0
LINE
  5
199
330
1F
100
AcDbEntity
  8
Ｓ_１_１
  6
CONTINUOUS
 62
     3
100
AcDbLine
 10
723.5000148405013
 20
389.999632203052
 30
0.0
 11
723.5000121713605
 21
399.9996322030516
 31
0.0
  0
LINE
  5
19A
330
1F
100
AcDbEntity
  8
Ｓ_１_１
  6
CONTINUOUS
 62
     3
100
AcDbLine
 10
723.5000121713605
 20
399.9996322030516
 30
0.0
 11
723.5000095022197
 21
409.9996322030512
 31
0.0
  0
LINE
  5
19B
330
1F
100
AcDbEntity
  8
Ｓ_１_１
  6
CONTINUOUS
 62
     3
100
AcDbLine
 10
735.5000126839747
 20
404.2496373313209
 30
0.0
 11
734.7500122986892
 21
404.9996372529353
 31
0.0
  0
LINE
  5
19C
330
1F
100
AcDbEntity
  8
Ｓ_１_１
  6
CONTINUOUS
 62
     3
100
AcDbLine
 10
734.7500160636301
 20
394.9996363308361
 30
0.0
 11
735.500013962245
 21
395.7496346930209
 31
0.0
  0
LINE
  5
19D
330
1F
100
AcDbEntity
  8
Ｓ_１_１
  6
CONTINUOUS
 62
     3
100
AcDbLine
 10
734.7500135059304
 20
394.9996352058353
 30
0.0
 11
734.7500108367897
 21
404.9996352058349
 31
0.0
  0
LINE
  5
19E
330
1F
100
AcDbEntity
  8
Ｓ_１_１
  6
CONTINUOUS
 62
     3
100
AcDbLine
 10
735.5000133057448
 20
395.7496354060207
 30
0.0
 11
735.5000110369753
 21
404.2496354060204
 31
0.0
  0
LINE
  5
19F
330
1F
100
AcDbEntity
  8
Ｓ_１_１
  6
CONTINUOUS
 62
     3
100
AcDbLine
 10
730.5000108367899
 20
404.99963407145
 30
0.0
 11
734.7500108367897
 21
404.9996352058349
 31
0.0
  0
LINE
  5
1A0
330
1F
100
AcDbEntity
  8
Ｓ_１_１
  6
CONTINUOUS
 62
     3
100
AcDbLine
 10
730.5000135059307
 20
394.9996340714504
 30
0.0
 11
734.7500135059304
 21
394.9996352058353
 31
0.0
  0
LINE
  5
1A1
330
1F
100
AcDbEntity
  8
Ｓ_１_１
  6
CONTINUOUS
 62
     3
100
AcDbLine
 10
730.5000133057451
 20
395.7496340714503
 30
0.0
 11
735.5000133057448
 21
395.7496354060207
 31
0.0
  0
LINE
  5
1A2
330
1F
100
AcDbEntity
  8
Ｓ_１_１
  6
CONTINUOUS
 62
     3
100
AcDbLine
 10
730.5000110369755
 20
404.24963407145
 30
0.0
 11
735.5000110369753
 21
404.2496354060204
 31
0.0
  0
LINE
  5
1A3
330
1F
100
AcDbEntity
  8
Ｓ_１_１
  6
CONTINUOUS
 62
     3
100
AcDbLine
 10
692.5000095022202
 20
409.9996239287147
 30
0.0
 11
723.5000095022197
 21
409.9996322030512
 31
0.0
  0
LINE
  5
1A4
330
1F
100
AcDbEntity
  8
Ｓ_１_１
  6
CONTINUOUS
 62
     3
100
AcDbLine
 10
692.500014840502
 20
389.9996239287154
 30
0.0
 11
723.5000148405013
 21
389.999632203052
 31
0.0
  0
LINE
  5
1A5
330
1F
100
AcDbEntity
  8
Ｓ_１_１
  6
CONTINUOUS
 62
     3
100
AcDbLine
 10
692.5000138718349
 20
412.499623928718
 30
0.0
 11
668.5000134516357
 21
412.4996175227799
 31
0.0
  0
LINE
  5
1A6
330
1F
100
AcDbEntity
  8
Ｓ_１_１
  6
CONTINUOUS
 62
     3
100
AcDbLine
 10
692.5000205446869
 20
387.4996239287188
 30
0.0
 11
668.5000201244876
 21
387.4996175227808
 31
0.0
  0
LINE
  5
1A7
330
1F
100
AcDbEntity
  8
Ｓ_１_１
  6
CONTINUOUS
 62
     3
100
AcDbLine
 10
692.5000177520925
 20
397.9621457656936
 30
0.0
 11
692.5000205446869
 21
387.4996239287188
 31
0.0
  0
POLYLINE
  5
1A8
330
1F
100
AcDbEntity
  8
Ｓ_１_１
  6
CONTINUOUS
 62
     3
100
AcDb2dPolyline
 66
     1
 10
0.0
 20
0.0
 30
0.0
 70
   128
  0
VERTEX
  5
1A9
330
1A8
100
AcDbEntity
  8
Ｓ_１_１
  6
CONTINUOUS
 62
     3
100
AcDbVertex
100
AcDb2dVertex
 10
693.67635577415
 20
399.9996242426977
 30
0.0
  0
VERTEX
  5
1AA
330
1A8
100
AcDbEntity
  8
Ｓ_１_１
  6
CONTINUOUS
 62
     3
100
AcDbVertex
100
AcDb2dVertex
 10
686.8381871341023
 20
388.1555614265937
 30
0.0
  0
VERTEX
  5
1AB
330
1A8
100
AcDbEntity
  8
Ｓ_１_１
  6
CONTINUOUS
 62
     3
100
AcDbVertex
100
AcDb2dVertex
 10
673.1618435313138
 20
388.155557776185
 30
0.0
  0
VERTEX
  5
1AC
330
1A8
100
AcDbEntity
  8
Ｓ_１_１
  6
CONTINUOUS
 62
     3
100
AcDbVertex
100
AcDb2dVertex
 10
666.3236685685727
 20
399.9996169418803
 30
0.0
  0
VERTEX
  5
1AD
330
1A8
100
AcDbEntity
  8
Ｓ_１_１
  6
CONTINUOUS
 62
     3
100
AcDbVertex
100
AcDb2dVertex
 10
673.1618372086203
 20
411.8436797579843
 30
0.0
  0
VERTEX
  5
1AE
330
1A8
100
AcDbEntity
  8
Ｓ_１_１
  6
CONTINUOUS
 62
     3
100
AcDbVertex
100
AcDb2dVertex
 10
686.8381808114091
 20
411.843683408393
 30
0.0
  0
VERTEX
  5
1AF
330
1A8
100
AcDbEntity
  8
Ｓ_１_１
  6
CONTINUOUS
 62
     3
100
AcDbVertex
100
AcDb2dVertex
 10
693.67635577415
 20
399.9996242426977
 30
0.0
  0
SEQEND
  5
1B0
330
1A8
100
AcDbEntity
  8
Ｓ_１_１
  6
CONTINUOUS
 62
     3
  0
LINE
  5
1B1
330
1F
100
AcDbEntity
  8
Ｓ_１_１
  6
CONTINUOUS
 62
     3
100
AcDbLine
 10
692.5000138718349
 20
412.499623928718
 30
0.0
 11
692.5000166644293
 21
402.0371020917392
 31
0.0
  0
LINE
  5
1B2
330
1F
100
AcDbEntity
  8
Ｓ_１_１
  6
CONTINUOUS
 62
     3
100
AcDbLine
 10
668.5000177942064
 20
396.2300718316618
 30
0.0
 11
668.5000201244876
 21
387.4996175227808
 31
0.0
  0
LINE
  5
1B3
330
1F
100
AcDbEntity
  8
Ｓ_１_１
  6
CONTINUOUS
 62
     3
100
AcDbLine
 10
668.5000134516357
 20
412.4996175227799
 30
0.0
 11
668.5000157819169
 21
403.7691632138948
 31
0.0
  0
LINE
  5
1B4
330
1F
100
AcDbEntity
  8
Ｓ_１_１
  6
CONTINUOUS
 62
     3
100
AcDbLine
 10
924.9999359616343
 20
242.9998366897035
 30
0.0
 11
435.0000632376899
 21
242.9997059018365
 31
0.0
  0
LINE
  5
1B5
330
1F
100
AcDbEntity
  8
Ｓ_１_１
  6
CONTINUOUS
 62
     3
100
AcDbLine
 10
438.0001481679101
 20
240.0000000000132
 30
0.0
 11
921.9998518320901
 21
239.9999999999888
 31
0.0
  0
LINE
  5
1B6
330
1F
100
AcDbEntity
  8
Ｓ_１_１
  6
CONTINUOUS
 62
     3
100
AcDbLine
 10
924.999812241659
 20
499.999882878478
 30
0.0
 11
435.0001183607285
 21
499.9997520906588
 31
0.0
  0
LINE
  5
1B7
330
1F
100
AcDbEntity
  8
Ｓ_１_１
  6
CONTINUOUS
 62
     3
100
AcDbLine
 10
921.999851832031
 20
502.9999670080178
 30
0.0
 11
438.0000779696721
 21
502.9997586939426
 31
0.0
  0
LINE
  5
1B8
330
1F
100
AcDbEntity
  8
Ｓ_１_１
  6
CONTINUOUS
 62
     3
100
AcDbLine
 10
912.499968953602
 20
505.9999274176735
 30
0.0
 11
447.4999600473461
 21
505.9998033024206
 31
0.0
  0
LINE
  5
1B9
330
1F
100
AcDbEntity
  8
Ｓ_１_１
  6
CONTINUOUS
 62
     3
100
AcDbLine
 10
912.4999689536005
 20
569.9999653584109
 30
0.0
 11
447.4999429648074
 21
569.9998412433549
 31
0.0
  0
LINE
  5
1BA
330
1F
100
AcDbEntity
  8
Ｓ_１_１
  6
CONTINUOUS
 62
     3
100
AcDbLine
 10
450.5001500136
 20
572.9996899278083
 30
0.0
 11
909.4997611041529
 21
572.9999257680395
 31
0.0
  0
LINE
  5
1BB
330
1F
100
AcDbEntity
  8
Ｓ_１_１
  6
CONTINUOUS
 62
     3
100
AcDbLine
 10
850.0003146240493
 20
577.9998018994133
 30
0.0
 11
509.9995951591222
 21
577.9997111484331
 31
0.0
  0
LINE
  5
1BC
330
1F
100
AcDbEntity
  8
Ｓ_１_１
  6
CONTINUOUS
 62
     3
100
AcDbLine
 10
845.0003146240454
 20
582.9998018994129
 30
0.0
 11
514.9995938245102
 21
582.9998018994118
 31
0.0
  0
LINE
  5
1BD
330
1F
100
AcDbEntity
  8
Ｓ_１_１
  6
CONTINUOUS
 62
     3
100
AcDbLine
 10
832.8779423166836
 20
592.9864784893095
 30
0.0
 11
527.1219888277922
 21
592.9863968787395
 31
0.0
  0
LINE
  5
1BE
330
1F
100
AcDbEntity
  8
Ｓ_１_１
  6
CONTINUOUS
 62
     3
100
AcDbLine
 10
874.0068034606196
 20
595.1944002902358
 30
0.0
 11
485.9931511266623
 21
595.1942961900995
 31
0.0
  0
LINE
  5
1BF
330
1F
100
AcDbEntity
  8
Ｓ_１_１
  6
CONTINUOUS
 62
     3
100
AcDbLine
 10
878.9999502987024
 20
600.4560850055072
 30
0.0
 11
480.9999534905357
 21
600.4559782398746
 31
0.0
  0
LINE
  5
1C0
330
1F
100
AcDbEntity
  8
Ｓ_１_１
  6
CONTINUOUS
 62
     3
100
AcDbLine
 10
878.9999461957217
 20
636.0039317314074
 30
0.0
 11
480.9999481052894
 21
636.0038249657744
 31
0.0
  0
LINE
  5
1C1
330
1F
100
AcDbEntity
  8
Ｓ_１_１
  6
CONTINUOUS
 62
     3
100
AcDbLine
 10
876.9999459648818
 20
638.003931731406
 30
0.0
 11
482.9999478023101
 21
638.0039317314063
 31
0.0
  0
LINE
  5
1C2
330
1F
100
AcDbEntity
  8
Ｓ_１_１
  6
EXLTYPE2
 62
     1
100
AcDbLine
 10
686.1447987809371
 20
538.0000082479962
 30
0.0
 11
658.2496538801767
 21
538.0000082479962
 31
0.0
  0
LINE
  5
1C3
330
1F
100
AcDbEntity
  8
Ｓ_１_１
  6
EXLTYPE2
 62
     1
100
AcDbLine
 10
673.855121678688
 20
538.0000066078524
 30
0.0
 11
701.7502665794475
 21
538.0000140534594
 31
0.0
  0
LINE
  5
1C4
330
1F
100
AcDbEntity
  8
Ｓ_１_１
  6
EXLTYPE2
 62
     1
100
AcDbLine
 10
869.3173897068484
 20
538.0000082479842
 30
0.0
 11
917.3916068072492
 21
538.0000082479842
 31
0.0
  0
LINE
  5
1C5
330
1F
100
AcDbEntity
  8
Ｓ_１_１
  6
EXLTYPE2
 62
     1
100
AcDbLine
 10
965.9998922540029
 20
398.0001264102239
 30
0.0
 11
965.9998709009045
 21
478.0000191862978
 31
0.0
  0
LINE
  5
1C6
330
1F
100
AcDbEntity
  8
Ｓ_１_１
  6
EXLTYPE2
 62
     1
100
AcDbLine
 10
951.4649637689447
 20
413.0000482987005
 30
0.0
 11
919.99983546315
 21
413.0000399002145
 31
0.0
  0
LINE
  5
1C7
330
1F
100
AcDbEntity
  8
Ｓ_１_１
  6
EXLTYPE2
 62
     1
100
AcDbLine
 10
951.4649504232295
 20
463.0000895386692
 30
0.0
 11
919.9998221174349
 21
463.0000811401834
 31
0.0
  0
LINE
  5
1C8
330
1F
100
AcDbEntity
  8
Ｓ_１_１
  6
EXLTYPE2
 62
     1
100
AcDbLine
 10
919.9998287903063
 20
438.00001093831
 30
0.0
 11
1006.59994008561
 21
438.00001093831
 31
0.0
  0
LINE
  5
1C9
330
1F
100
AcDbEntity
  8
Ｓ_１_１
  6
EXLTYPE2
 62
     1
100
AcDbLine
 10
842.98813290575
 20
516.02701272689
 30
0.0
 11
842.98813290575
 21
561.32701272689
 31
0.0
  0
LINE
  5
1CA
330
1F
100
AcDbEntity
  8
Ｓ_１_１
  6
EXLTYPE2
 62
     1
100
AcDbLine
 10
824.372634170297
 20
537.9997883343344
 30
0.0
 11
861.8726344133004
 21
537.9998176514471
 31
0.0
  0
LINE
  5
1CB
330
1F
100
AcDbEntity
  8
Ｓ_１_１
  6
EXLTYPE2
 62
     1
100
AcDbLine
 10
517.0118613050702
 20
559.97265797205
 30
0.0
 11
517.0118613050702
 21
514.6726579720503
 31
0.0
  0
LINE
  5
1CC
330
1F
100
AcDbEntity
  8
Ｓ_１_１
  6
EXLTYPE2
 62
     1
100
AcDbLine
 10
535.6273600405232
 20
537.9998823646056
 30
0.0
 11
498.1273597975198
 21
537.9998530474932
 31
0.0
  0
LINE
  5
1CD
330
1F
100
AcDbEntity
  8
Ｓ_１_１
  6
EXLTYPE2
 62
     1
100
AcDbLine
 10
394.0000655735728
 20
403.9
 30
0.0
 11
394.0000655735728
 21
471.9000000000001
 31
0.0
  0
LINE
  5
1CE
330
1F
100
AcDbEntity
  8
Ｓ_１_１
  6
EXLTYPE2
 62
     1
100
AcDbLine
 10
447.5999400856101
 20
437.9999346009001
 30
0.0
 11
356.0999400856101
 21
437.9999346009001
 31
0.0
  0
LINE
  5
1CF
330
1F
100
AcDbEntity
  8
Ｓ_１_１
  6
EXLTYPE2
 62
     1
100
AcDbLine
 10
479.599937656704
 20
537.9999547583959
 30
0.0
 11
442.6083136523846
 21
537.9999448848105
 31
0.0
  0
LINE
  5
1D0
330
1F
100
AcDbEntity
  8
Ｓ_１_１
  6
EXLTYPE2
 62
     1
100
AcDbLine
 10
408.5349900549397
 20
412.9999758408724
 30
0.0
 11
449.0999400856101
 21
412.9999758408724
 31
0.0
  0
LINE
  5
1D1
330
1F
100
AcDbEntity
  8
Ｓ_１_１
  6
EXLTYPE2
 62
     1
100
AcDbLine
 10
408.5349900549397
 20
463.0000170808428
 30
0.0
 11
448.5999400856102
 21
463.0000170808428
 31
0.0
  0
LINE
  5
1D2
330
1F
100
AcDbEntity
  8
Ｓ_１_１
  6
EXLTYPE2
 62
     1
100
AcDbLine
 10
679.999945122477
 20
651.1999940745079
 30
0.0
 11
680.0000019455865
 21
225.4217116897181
 31
0.0
  0
DIMENSION
  5
1D4
330
1F
100
AcDbEntity
  8
Ｓ_１_１
  6
CONTINUOUS
 62
     2
100
AcDbDimension
  2
*D15
 10
435.0000632376899
 20
120.0
 30
0.0
 11
679.999999599662
 21
133.75
 31
0.0
 70
   160
  1
%%c490
  3
ISO-25
100
AcDbAlignedDimension
 13
924.9999359616343
 23
242.9998366897035
 33
0.0
 14
435.0000632376899
 24
242.9997059018365
 34
0.0
100
AcDbRotatedDimension
1001
ACAD
1000
DSTYLE
1002
{
1070
   270
1070
     2
1070
     6
1000
EX_NORM
1070
     7
1000
EX_NORM
1070
    41
1040
15.0
1070
    42
1040
7.5
1070
    44
1040
5.0
1070
    73
1070
     0
1070
    74
1070
     0
1070
    75
1070
     0
1070
    76
1070
     0
1070
    77
1070
     1
1070
    78
1070
     8
1070
   140
1040
17.3145207852194
1070
   147
1040
0.0
1070
   173
1070
     1
1070
   176
1070
     2
1070
   177
1070
     2
1070
   178
1070
     2
1070
   271
1070
     2
1070
   277
1070
     2
1070
   279
1070
     2
1070
   280
1070
     0
1070
   287
1070
     5
1070
   340
1005
1D3
1002
}
  0
DIMENSION
  5
1E2
330
1F
100
AcDbEntity
  8
Ｓ_１_１
  6
CONTINUOUS
 62
     2
100
AcDbDimension
  2
*D16
 10
509.9995951591222
 20
720.0
 30
0.0
 11
679.9999548915857
 21
733.75
 31
0.0
 70
   160
  1
Tr340×10
  3
ISO-25
100
AcDbAlignedDimension
 13
850.0003146240493
 23
577.9998018994133
 33
0.0
 14
509.9995951591222
 24
577.9997111484331
 34
0.0
100
AcDbRotatedDimension
1001
ACAD
1000
DSTYLE
1002
{
1070
   270
1070
     2
1070
     6
1000
EX_NORM
1070
     7
1000
EX_NORM
1070
    41
1040
15.0
1070
    42
1040
7.5
1070
    44
1040
5.0
1070
    73
1070
     0
1070
    74
1070
     0
1070
    75
1070
     0
1070
    76
1070
     0
1070
    77
1070
     1
1070
    78
1070
     8
1070
   140
1040
17.3145207852194
1070
   147
1040
0.0
1070
   173
1070
     1
1070
   176
1070
     2
1070
   177
1070
     2
1070
   178
1070
     2
1070
   271
1070
     2
1070
   277
1070
     2
1070
   279
1070
     2
1070
   280
1070
     0
1070
   287
1070
     5
1070
   340
1005
1D3
1002
}
  0
DIMENSION
  5
1EF
330
1F
100
AcDbEntity
  8
Ｓ_１_１
  6
CONTINUOUS
 62
     2
100
AcDbDimension
  2
*D17
 10
480.9999481052894
 20
760.0
 30
0.0
 11
679.9999471505056
 21
773.75
 31
0.0
 70
   160
  1
%%c398
  3
ISO-25
100
AcDbAlignedDimension
 13
878.9999461957217
 23
636.0039317314074
 33
0.0
 14
480.9999481052894
 24
636.0038249657744
 34
0.0
100
AcDbRotatedDimension
1001
ACAD
1000
DSTYLE
1002
{
1070
   270
1070
     2
1070
     6
1000
EX_NORM
1070
     7
1000
EX_NORM
1070
    41
1040
15.0
1070
    42
1040
7.5
1070
    44
1040
5.0
1070
    73
1070
     0
1070
    74
1070
     0
1070
    75
1070
     0
1070
    76
1070
     0
1070
    77
1070
     1
1070
    78
1070
     8
1070
   140
1040
17.3145207852194
1070
   147
1040
0.0
1070
   173
1070
     1
1070
   176
1070
     2
1070
   177
1070
     2
1070
   178
1070
     2
1070
   271
1070
     2
1070
   277
1070
     2
1070
   279
1070
     2
1070
   280
1070
     0
1070
   287
1070
     5
1070
   340
1005
1D3
1002
}
  0
DIMENSION
  5
1FC
330
1F
100
AcDbEntity
  8
Ｓ_１_１
  6
CONTINUOUS
 62
     2
100
AcDbDimension
  2
*D18
 10
320.0
 20
502.99975869388
 30
0.0
 11
306.25
 21
371.4998793469449
 31
0.0
 70
   160
  3
ISO-25
100
AcDbAlignedDimension
 13
438.00008356939
 23
240.00000000001
 33
0.0
 14
437.99993425465
 24
502.99975869388
 34
0.0
 50
90.0
100
AcDbRotatedDimension
1001
ACAD
1000
DSTYLE
1002
{
1070
   270
1070
     2
1070
     6
1000
EX_NORM
1070
     7
1000
EX_NORM
1070
    41
1040
15.0
1070
    42
1040
7.5
1070
    44
1040
5.0
1070
    73
1070
     0
1070
    74
1070
     0
1070
    75
1070
     0
1070
    76
1070
     0
1070
    77
1070
     1
1070
    78
1070
     8
1070
   140
1040
17.3145207852194
1070
   147
1040
0.0
1070
   173
1070
     1
1070
   176
1070
     2
1070
   177
1070
     2
1070
   178
1070
     2
1070
   271
1070
     2
1070
   277
1070
     2
1070
   279
1070
     2
1070
   280
1070
     0
1070
   287
1070
     5
1070
   340
1005
1D3
1002
}
  0
DIMENSION
  5
209
330
1F
100
AcDbEntity
  8
Ｓ_１_１
  6
CONTINUOUS
 62
     2
100
AcDbDimension
  2
*D19
 10
320.0
 20
572.99968992772
 30
0.0
 11
306.25
 21
537.9997243108
 31
0.0
 70
   160
  3
ISO-25
100
AcDbAlignedDimension
 13
437.99993425465
 23
502.99975869388
 33
0.0
 14
450.49997541561
 24
572.99968992772
 34
0.0
 50
90.0
100
AcDbRotatedDimension
1001
ACAD
1000
DSTYLE
1002
{
1070
   270
1070
     2
1070
     6
1000
EX_NORM
1070
     7
1000
EX_NORM
1070
    41
1040
15.0
1070
    42
1040
7.5
1070
    44
1040
5.0
1070
    73
1070
     0
1070
    74
1070
     0
1070
    75
1070
     0
1070
    76
1070
     0
1070
    77
1070
     1
1070
    78
1070
     8
1070
   140
1040
17.3145207852194
1070
   147
1040
0.0
1070
   173
1070
     1
1070
   176
1070
     2
1070
   177
1070
     2
1070
   178
1070
     2
1070
   271
1070
     2
1070
   277
1070
     2
1070
   279
1070
     2
1070
   280
1070
     0
1070
   287
1070
     5
1070
   340
1005
1D3
1002
}
  0
DIMENSION
  5
216
330
1F
100
AcDbEntity
  8
Ｓ_１_１
  6
CONTINUOUS
 62
     2
100
AcDbDimension
  2
*D20
 10
320.0
 20
638.00393173141
 30
0.0
 11
306.25
 21
605.5018108295649
 31
0.0
 70
   160
  3
ISO-25
100
AcDbAlignedDimension
 13
450.49997541561
 23
572.99968992772
 33
0.0
 14
483.00000065126
 24
638.00393173141
 34
0.0
 50
90.0
100
AcDbRotatedDimension
1001
ACAD
1000
DSTYLE
1002
{
1070
   270
1070
     2
1070
     6
1000
EX_NORM
1070
     7
1000
EX_NORM
1070
    41
1040
15.0
1070
    42
1040
7.5
1070
    44
1040
5.0
1070
    73
1070
     0
1070
    74
1070
     0
1070
    75
1070
     0
1070
    76
1070
     0
1070
    77
1070
     1
1070
    78
1070
     8
1070
   140
1040
17.3145207852194
1070
   147
1040
0.0
1070
   173
1070
     1
1070
   176
1070
     2
1070
   177
1070
     2
1070
   178
1070
     2
1070
   271
1070
     2
1070
   277
1070
     2
1070
   279
1070
     2
1070
   280
1070
     0
1070
   287
1070
     5
1070
   340
1005
1D3
1002
}
  0
DIMENSION
  5
223
330
1F
100
AcDbEntity
  8
Ｓ_１_１
  6
CONTINUOUS
 62
     2
100
AcDbDimension
  2
*D21
 10
280.0
 20
638.00393173141
 30
0.0
 11
266.25
 21
439.00196586571
 31
0.0
 70
   160
  3
ISO-25
100
AcDbAlignedDimension
 13
438.00008356939
 23
240.00000000001
 33
0.0
 14
483.00000065126
 24
638.00393173141
 34
0.0
 50
90.0
100
AcDbRotatedDimension
1001
ACAD
1000
DSTYLE
1002
{
1070
   270
1070
     2
1070
     6
1000
EX_NORM
1070
     7
1000
EX_NORM
1070
    41
1040
15.0
1070
    42
1040
7.5
1070
    44
1040
5.0
1070
    73
1070
     0
1070
    74
1070
     0
1070
    75
1070
     0
1070
    76
1070
     0
1070
    77
1070
     1
1070
    78
1070
     8
1070
   140
1040
17.3145207852194
1070
   147
1040
0.0
1070
   173
1070
     1
1070
   176
1070
     2
1070
   177
1070
     2
1070
   178
1070
     2
1070
   271
1070
     2
1070
   277
1070
     2
1070
   279
1070
     2
1070
   280
1070
     0
1070
   287
1070
     5
1070
   340
1005
1D3
1002
}
  0
LINE
  5
230
330
1F
100
AcDbEntity
  8
Ｓ_１_１
  6
EXLTYPE2
 62
     1
100
AcDbLine
 10
663.3998940561619
 20
399.9996161614837
 30
0.0
 11
742.9999979982412
 21
399.9996374078722
 31
0.0
  0
LINE
  5
231
330
1F
100
AcDbEntity
  8
Ｓ_１_１
  6
EXLTYPE2
 62
     1
100
AcDbLine
 10
689.9999715736695
 20
452.9999212392042
 30
0.0
 11
669.9999715738503
 21
452.9999212392042
 31
0.0
  0
LINE
  5
232
330
1F
100
AcDbEntity
  8
Ｓ_１_１
  6
EXLTYPE2
 62
     1
100
AcDbLine
 10
702.49994512251
 20
324.9996697651899
 30
0.0
 11
657.49994512251
 21
324.9996697651899
 31
0.0
  0
DIMENSION
  5
233
330
1F
100
AcDbEntity
  8
Ｓ_１_１
  6
CONTINUOUS
 62
     2
100
AcDbDimension
  2
*D22
 10
1040.0
 20
324.9996697651899
 30
0.0
 11
1026.25
 21
282.4998348825899
 31
0.0
 70
   160
  3
ISO-25
100
AcDbAlignedDimension
 13
921.99985183209
 23
239.99999999999
 33
0.0
 14
702.49994512251
 24
324.9996697651899
 34
0.0
 50
90.0
100
AcDbRotatedDimension
1001
ACAD
1000
DSTYLE
1002
{
1070
   270
1070
     2
1070
     6
1000
EX_NORM
1070
     7
1000
EX_NORM
1070
    41
1040
15.0
1070
    42
1040
7.5
1070
    44
1040
5.0
1070
    73
1070
     0
1070
    74
1070
     0
1070
    75
1070
     0
1070
    76
1070
     0
1070
    77
1070
     1
1070
    78
1070
     8
1070
   140
1040
17.3145207852194
1070
   147
1040
0.0
1070
   173
1070
     1
1070
   176
1070
     2
1070
   177
1070
     2
1070
   178
1070
     2
1070
   271
1070
     2
1070
   277
1070
     2
1070
   279
1070
     2
1070
   280
1070
     0
1070
   287
1070
     5
1070
   340
1005
1D3
1002
}
  0
DIMENSION
  5
240
330
1F
100
AcDbEntity
  8
Ｓ_１_１
  6
CONTINUOUS
 62
     2
100
AcDbDimension
  2
*D23
 10
1040.0
 20
399.99963740787
 30
0.0
 11
1026.25
 21
362.49965358653
 31
0.0
 70
   160
  3
ISO-25
100
AcDbAlignedDimension
 13
702.49994512251
 23
324.9996697651899
 33
0.0
 14
742.99999799824
 24
399.99963740787
 34
0.0
 50
90.0
100
AcDbRotatedDimension
1001
ACAD
1000
DSTYLE
1002
{
1070
   270
1070
     2
1070
     6
1000
EX_NORM
1070
     7
1000
EX_NORM
1070
    41
1040
15.0
1070
    42
1040
7.5
1070
    44
1040
5.0
1070
    73
1070
     0
1070
    74
1070
     0
1070
    75
1070
     0
1070
    76
1070
     0
1070
    77
1070
     1
1070
    78
1070
     8
1070
   140
1040
17.3145207852194
1070
   147
1040
0.0
1070
   173
1070
     1
1070
   176
1070
     2
1070
   177
1070
     2
1070
   178
1070
     2
1070
   271
1070
     2
1070
   277
1070
     2
1070
   279
1070
     2
1070
   280
1070
     0
1070
   287
1070
     5
1070
   340
1005
1D3
1002
}
  0
DIMENSION
  5
24D
330
1F
100
AcDbEntity
  8
Ｓ_１_１
  6
CONTINUOUS
 62
     2
100
AcDbDimension
  2
*D24
 10
1120.0000668776
 20
437.9998927760201
 30
0.0
 11
1106.2500668776
 21
338.9999140914151
 31
0.0
 70
   160
  3
ISO-25
100
AcDbAlignedDimension
 13
1278.0002030455
 23
239.99993540681
 33
0.0
 14
1500.0000284531
 24
437.9998927760201
 34
0.0
 50
90.0
100
AcDbRotatedDimension
1001
ACAD
1000
DSTYLE
1002
{
1070
   270
1070
     2
1070
     6
1000
EX_NORM
1070
     7
1000
EX_NORM
1070
    41
1040
15.0
1070
    42
1040
7.5
1070
    44
1040
5.0
1070
    73
1070
     0
1070
    74
1070
     0
1070
    75
1070
     0
1070
    76
1070
     0
1070
    77
1070
     1
1070
    78
1070
     8
1070
   140
1040
17.3145207852194
1070
   147
1040
0.0
1070
   173
1070
     1
1070
   176
1070
     2
1070
   177
1070
     2
1070
   178
1070
     2
1070
   271
1070
     2
1070
   277
1070
     2
1070
   279
1070
     2
1070
   280
1070
     0
1070
   287
1070
     5
1070
   340
1005
1D3
1002
}
  0
LINE
  5
25A
330
1F
100
AcDbEntity
  8
Ｓ_１_１
  6
CONTINUOUS
 62
     3
100
AcDbLine
 10
1278.000203045532
 20
239.999935406809
 30
0.0
 11
1275.000118115293
 21
242.9997712957613
 31
0.0
  0
LINE
  5
25B
330
1F
100
AcDbEntity
  8
Ｓ_１_１
  6
CONTINUOUS
 62
     3
100
AcDbLine
 10
1278.000132847196
 20
502.9999024148287
 30
0.0
 11
1275.000173238333
 21
499.9998174845573
 31
0.0
  0
ARC
  5
25C
330
1F
100
AcDbEntity
  8
Ｓ_１_１
  6
CONTINUOUS
 62
     3
100
AcDbCircle
 10
1520.000015495928
 20
538.0000075182763
 30
0.0
 40
10.0
100
AcDbArc
 50
270.0000084894909
 51
90.00000848948697
  0
ARC
  5
25D
330
1F
100
AcDbEntity
  8
Ｓ_１_１
  6
CONTINUOUS
 62
     3
100
AcDbCircle
 10
1520.000015495928
 20
538.0000075182763
 30
0.0
 40
17.5
100
AcDbArc
 50
270.0000084894903
 51
90.00000848948726
  0
LINE
  5
25E
330
1F
100
AcDbEntity
  8
Ｓ_１_１
  6
CONTINUOUS
 62
     3
100
AcDbLine
 10
1761.99990670968
 20
239.9999999999768
 30
0.0
 11
1764.999990839219
 21
242.9998366896938
 31
0.0
  0
LINE
  5
25F
330
1F
100
AcDbEntity
  8
Ｓ_１_１
  6
CONTINUOUS
 62
     3
100
AcDbLine
 10
1761.999906709621
 20
502.9999670080058
 30
0.0
 11
1764.99986711925
 21
499.9998828784661
 31
0.0
  0
LINE
  5
260
330
1F
100
AcDbEntity
  8
Ｓ_１_１
  6
CONTINUOUS
 62
     3
100
AcDbLine
 10
1752.500023831166
 20
505.9999274176339
 30
0.0
 11
1749.499692261804
 21
502.9999670080058
 31
0.0
  0
LINE
  5
261
330
1F
100
AcDbEntity
  8
Ｓ_１_１
  6
CONTINUOUS
 62
     3
100
AcDbLine
 10
1752.500023831194
 20
569.9999653583993
 30
0.0
 11
1752.500023831166
 21
505.9999274176339
 31
0.0
  0
LINE
  5
262
330
1F
100
AcDbEntity
  8
Ｓ_１_１
  6
CONTINUOUS
 62
     3
100
AcDbLine
 10
1752.500023831193
 20
505.9999274176344
 30
0.0
 11
1752.500023831193
 21
569.9999653583993
 31
0.0
  0
LINE
  5
263
330
1F
100
AcDbEntity
  8
Ｓ_１_１
  6
CONTINUOUS
 62
     3
100
AcDbLine
 10
1749.499815981742
 20
572.9999257680274
 30
0.0
 11
1752.500023831194
 21
569.9999653583993
 31
0.0
  0
LINE
  5
264
330
1F
100
AcDbEntity
  8
Ｓ_１_１
  6
CONTINUOUS
 62
     3
100
AcDbLine
 10
1715.006858338207
 20
595.1944002902237
 30
0.0
 11
1720.000005176288
 21
600.4560850054966
 31
0.0
  0
LINE
  5
265
330
1F
100
AcDbEntity
  8
Ｓ_１_１
  6
CONTINUOUS
 62
     3
100
AcDbLine
 10
1720.000005176288
 20
600.4560850054966
 30
0.0
 11
1720.000001073314
 21
636.003931731394
 31
0.0
  0
LINE
  5
266
330
1F
100
AcDbEntity
  8
Ｓ_１_１
  6
CONTINUOUS
 62
     3
100
AcDbLine
 10
1718.000000842472
 20
638.003931731394
 30
0.0
 11
1720.000001073314
 21
636.003931731394
 31
0.0
  0
LINE
  5
267
330
1F
100
AcDbEntity
  8
Ｓ_１_１
  6
CONTINUOUS
 62
     3
100
AcDbLine
 10
1690.000369501635
 20
577.9998018994008
 30
0.0
 11
1690.000369501635
 21
572.9998951964042
 31
0.0
  0
LINE
  5
268
330
1F
100
AcDbEntity
  8
Ｓ_１_１
  6
CONTINUOUS
 62
     3
100
AcDbLine
 10
1690.000369501635
 20
577.9998018994008
 30
0.0
 11
1685.000369501635
 21
582.9998018994008
 31
0.0
  0
LINE
  5
269
330
1F
100
AcDbEntity
  8
Ｓ_１_１
  6
CONTINUOUS
 62
     3
100
AcDbLine
 10
1685.000369501639
 20
582.9998018994011
 30
0.0
 11
1685.000372170755
 21
572.9998926273379
 31
0.0
  0
LINE
  5
26A
330
1F
100
AcDbEntity
  8
Ｓ_１_１
  6
CONTINUOUS
 62
     3
100
AcDbLine
 10
1759.999867119249
 20
499.9998815438955
 30
0.0
 11
1759.99986711925
 21
499.999880471463
 31
0.0
  0
LINE
  5
26B
330
1F
100
AcDbEntity
  8
Ｓ_１_１
  6
CONTINUOUS
 62
     3
100
AcDbLine
 10
1715.006858338207
 20
595.1944002902237
 30
0.0
 11
1672.877997194278
 21
592.986478489298
 31
0.0
  0
ARC
  5
26C
330
1F
100
AcDbEntity
  8
Ｓ_１_１
  6
CONTINUOUS
 62
     3
100
AcDbCircle
 10
1519.999995088323
 20
688.0039320022793
 30
0.0
 40
180.0
100
AcDbArc
 50
324.3130467048269
 51
328.1380281619408
  0
LINE
  5
26D
330
1F
100
AcDbEntity
  8
Ｓ_１_１
  6
CONTINUOUS
 62
     3
100
AcDbLine
 10
1570.000023114838
 20
477.9999143697674
 30
0.0
 11
1570.000033791387
 21
398.0000215936904
 31
0.0
  0
LINE
  5
26E
330
1F
100
AcDbEntity
  8
Ｓ_１_１
  6
CONTINUOUS
 62
     3
100
AcDbLine
 10
1528.000024449397
 20
467.9999938873111
 30
0.0
 11
1528.000032456846
 21
407.999795935358
 31
0.0
  0
LINE
  5
26F
330
1F
100
AcDbEntity
  8
Ｓ_１_１
  6
CONTINUOUS
 62
     3
100
AcDbLine
 10
1528.000032456846
 20
407.999795935358
 30
0.0
 11
1520.000032456846
 21
407.9997938000453
 31
0.0
  0
LINE
  5
270
330
1F
100
AcDbEntity
  8
Ｓ_１_１
  6
CONTINUOUS
 62
     3
100
AcDbLine
 10
1528.000024449397
 20
467.999993887311
 30
0.0
 11
1520.000024449397
 21
467.9999917519984
 31
0.0
  0
CIRCLE
  5
271
330
1F
100
AcDbEntity
  8
Ｓ_１_１
  6
CONTINUOUS
 62
     3
100
AcDbCircle
 10
1555.000041451837
 20
412.9999433580349
 30
0.0
 40
9.0
  0
CIRCLE
  5
272
330
1F
100
AcDbEntity
  8
Ｓ_１_１
  6
CONTINUOUS
 62
     3
100
AcDbCircle
 10
1555.000041451837
 20
412.9999433580349
 30
0.0
 40
8.0
  0
CIRCLE
  5
273
330
1F
100
AcDbEntity
  8
Ｓ_１_１
  6
CONTINUOUS
 62
     3
100
AcDbCircle
 10
1555.000041451837
 20
412.9999433580349
 30
0.0
 40
5.0
  0
POLYLINE
  5
274
330
1F
100
AcDbEntity
  8
Ｓ_１_１
  6
CONTINUOUS
 62
     3
100
AcDb2dPolyline
 66
     1
 10
0.0
 20
0.0
 30
0.0
 70
   128
  0
VERTEX
  5
275
330
274
100
AcDbEntity
  8
Ｓ_１_１
  6
CONTINUOUS
 62
     3
100
AcDbVertex
100
AcDb2dVertex
 10
1555.000031122257
 20
417.9999433580242
 30
0.0
  0
VERTEX
  5
276
330
274
100
AcDbEntity
  8
Ｓ_１_１
  6
CONTINUOUS
 62
     3
100
AcDbVertex
100
AcDb2dVertex
 10
1559.33016330596
 20
415.4999523037087
 30
0.0
  0
VERTEX
  5
277
330
274
100
AcDbEntity
  8
Ｓ_１_１
  6
CONTINUOUS
 62
     3
100
AcDbVertex
100
AcDb2dVertex
 10
1559.33017363554
 20
410.4999523037193
 30
0.0
  0
VERTEX
  5
278
330
274
100
AcDbEntity
  8
Ｓ_１_１
  6
CONTINUOUS
 62
     3
100
AcDbVertex
100
AcDb2dVertex
 10
1555.000051781418
 20
407.9999433580454
 30
0.0
  0
VERTEX
  5
279
330
274
100
AcDbEntity
  8
Ｓ_１_１
  6
CONTINUOUS
 62
     3
100
AcDbVertex
100
AcDb2dVertex
 10
1550.669919597715
 20
410.499934412361
 30
0.0
  0
VERTEX
  5
27A
330
274
100
AcDbEntity
  8
Ｓ_１_１
  6
CONTINUOUS
 62
     3
100
AcDbVertex
100
AcDb2dVertex
 10
1550.669909268134
 20
415.4999344123503
 30
0.0
  0
VERTEX
  5
27B
330
274
100
AcDbEntity
  8
Ｓ_１_１
  6
CONTINUOUS
 62
     3
100
AcDbVertex
100
AcDb2dVertex
 10
1555.000031122257
 20
417.9999433580242
 30
0.0
  0
SEQEND
  5
27C
330
274
100
AcDbEntity
  8
Ｓ_１_１
  6
CONTINUOUS
 62
     3
  0
CIRCLE
  5
27D
330
1F
100
AcDbEntity
  8
Ｓ_１_１
  6
CONTINUOUS
 62
     3
100
AcDbCircle
 10
1555.000034778979
 20
462.9999845980048
 30
0.0
 40
9.0
  0
CIRCLE
  5
27E
330
1F
100
AcDbEntity
  8
Ｓ_１_１
  6
CONTINUOUS
 62
     3
100
AcDbCircle
 10
1555.000034778979
 20
462.9999845980048
 30
0.0
 40
8.0
  0
CIRCLE
  5
27F
330
1F
100
AcDbEntity
  8
Ｓ_１_１
  6
CONTINUOUS
 62
     3
100
AcDbCircle
 10
1555.000034778979
 20
462.9999845980048
 30
0.0
 40
5.0
  0
POLYLINE
  5
280
330
1F
100
AcDbEntity
  8
Ｓ_１_１
  6
CONTINUOUS
 62
     3
100
AcDb2dPolyline
 66
     1
 10
0.0
 20
0.0
 30
0.0
 70
   128
  0
VERTEX
  5
281
330
280
100
AcDbEntity
  8
Ｓ_１_１
  6
CONTINUOUS
 62
     3
100
AcDbVertex
100
AcDb2dVertex
 10
1555.000024641571
 20
467.9999845979953
 30
0.0
  0
VERTEX
  5
282
330
280
100
AcDbEntity
  8
Ｓ_１_１
  6
CONTINUOUS
 62
     3
100
AcDbVertex
100
AcDb2dVertex
 10
1559.330156825275
 20
465.4999935436798
 30
0.0
  0
VERTEX
  5
283
330
280
100
AcDbEntity
  8
Ｓ_１_１
  6
CONTINUOUS
 62
     3
100
AcDbVertex
100
AcDb2dVertex
 10
1559.330167154856
 20
460.4999935436903
 30
0.0
  0
VERTEX
  5
284
330
280
100
AcDbEntity
  8
Ｓ_１_１
  6
CONTINUOUS
 62
     3
100
AcDbVertex
100
AcDb2dVertex
 10
1555.000045300732
 20
457.9999845980166
 30
0.0
  0
VERTEX
  5
285
330
280
100
AcDbEntity
  8
Ｓ_１_１
  6
CONTINUOUS
 62
     3
100
AcDbVertex
100
AcDb2dVertex
 10
1550.669913117029
 20
460.499975652332
 30
0.0
  0
VERTEX
  5
286
330
280
100
AcDbEntity
  8
Ｓ_１_１
  6
CONTINUOUS
 62
     3
100
AcDbVertex
100
AcDb2dVertex
 10
1550.669902787449
 20
465.4999756523213
 30
0.0
  0
VERTEX
  5
287
330
280
100
AcDbEntity
  8
Ｓ_１_１
  6
CONTINUOUS
 62
     3
100
AcDbVertex
100
AcDb2dVertex
 10
1555.000024641571
 20
467.9999845979953
 30
0.0
  0
SEQEND
  5
288
330
280
100
AcDbEntity
  8
Ｓ_１_１
  6
CONTINUOUS
 62
     3
  0
LINE
  5
289
330
1F
100
AcDbEntity
  8
Ｓ_１_１
  6
CONTINUOUS
 62
     3
100
AcDbLine
 10
1764.999990839219
 20
242.9998366896938
 30
0.0
 11
1764.99986711925
 21
499.9998828784661
 31
0.0
  0
LINE
  5
28A
330
1F
100
AcDbEntity
  8
Ｓ_１_１
  6
CONTINUOUS
 62
     3
100
AcDbLine
 10
1275.000163769446
 20
446.4999007532761
 30
0.0
 11
1275.000160299563
 21
459.4999007532758
 31
0.0
  0
ARC
  5
28B
330
1F
100
AcDbEntity
  8
Ｓ_１_１
  6
CONTINUOUS
 62
     3
100
AcDbCircle
 10
1283.833495367817
 20
452.9999031110171
 30
0.0
 40
14.3333333333137
100
AcDbArc
 50
164.8218363550901
 51
195.178194231011
  0
ARC
  5
28C
330
1F
100
AcDbEntity
  8
Ｓ_１_１
  6
CONTINUOUS
 62
     3
100
AcDbCircle
 10
1271.636972299515
 20
447.8735114807282
 30
0.0
 40
2.136808896706097
100
AcDbArc
 50
139.9966079616839
 51
180.0000152930511
  0
LINE
  5
28D
330
1F
100
AcDbEntity
  8
Ｓ_１_１
  6
CONTINUOUS
 62
     3
100
AcDbLine
 10
1275.000163769446
 20
446.4999007532762
 30
0.0
 11
1270.000163769443
 21
446.4998994187059
 31
0.0
  0
LINE
  5
28E
330
1F
100
AcDbEntity
  8
Ｓ_１_１
  6
CONTINUOUS
 62
     3
100
AcDbLine
 10
1269.50016340281
 20
447.8735109103787
 30
0.0
 11
1270.000163769446
 21
446.4998994187058
 31
0.0
  0
LINE
  5
28F
330
1F
100
AcDbEntity
  8
Ｓ_１_１
  6
CONTINUOUS
 62
     3
100
AcDbLine
 10
1275.000163036173
 20
449.2471240035462
 30
0.0
 11
1270.000163036171
 21
449.2471226689763
 31
0.0
  0
ARC
  5
290
330
1F
100
AcDbEntity
  8
Ｓ_１_１
  6
CONTINUOUS
 62
     3
100
AcDbCircle
 10
1271.636969562905
 20
458.1262882304577
 30
0.0
 40
2.136808896706097
100
AcDbArc
 50
180.0000152930405
 51
220.0034226244175
  0
LINE
  5
291
330
1F
100
AcDbEntity
  8
Ｓ_１_１
  6
CONTINUOUS
 62
     3
100
AcDbLine
 10
1269.500160666199
 20
458.1262876601183
 30
0.0
 11
1270.000160299563
 21
459.4998994187053
 31
0.0
  0
LINE
  5
292
330
1F
100
AcDbEntity
  8
Ｓ_１_１
  6
CONTINUOUS
 62
     3
100
AcDbLine
 10
1269.50016340281
 20
447.8735109103833
 30
0.0
 11
1269.500160666199
 21
458.1262876601183
 31
0.0
  0
LINE
  5
293
330
1F
100
AcDbEntity
  8
Ｓ_１_１
  6
CONTINUOUS
 62
     3
100
AcDbLine
 10
1275.000161032835
 20
456.7526775030058
 30
0.0
 11
1270.000161032835
 21
456.7526761684355
 31
0.0
  0
LINE
  5
294
330
1F
100
AcDbEntity
  8
Ｓ_１_１
  6
CONTINUOUS
 62
     3
100
AcDbLine
 10
1275.000160299563
 20
459.4999007532758
 30
0.0
 11
1270.000160299563
 21
459.4998994187054
 31
0.0
  0
ELLIPSE
  5
295
330
1F
100
AcDbEntity
  8
Ｓ_１_１
  6
CONTINUOUS
 62
     3
100
AcDbEllipse
 10
1682.988119069072
 20
537.9999636738085
 30
0.0
 11
2.669140817640886E-6
 21
-9.999999999999643
 31
0.0
210
0.0
220
0.0
230
1.0
 40
0.7213610060607647
 41
0.0
 42
6.283185307179586
  0
ELLIPSE
  5
296
330
1F
100
AcDbEntity
  8
Ｓ_１_１
  6
CONTINUOUS
 62
     3
100
AcDbEllipse
 10
1682.988119069072
 20
537.9999636738085
 30
0.0
 11
4.670996430871552E-6
 21
-17.49999999999937
 31
0.0
210
0.0
220
0.0
230
1.0
 40
0.7510007207788716
 41
0.0
 42
6.283185307179586
  0
LINE
  5
297
330
1F
100
AcDbEntity
  8
Ｓ_１_１
  6
CONTINUOUS
 62
     3
100
AcDbLine
 10
1251.70023866774
 20
312.9997221871918
 30
0.0
 11
1251.700232261802
 21
336.9997221871909
 31
0.0
  0
LINE
  5
298
330
1F
100
AcDbEntity
  8
Ｓ_１_１
  6
CONTINUOUS
 62
     3
100
AcDbLine
 10
1251.122841552
 20
329.9997220330769
 30
0.0
 11
1251.122839416688
 21
337.9997220330766
 31
0.0
  0
LINE
  5
299
330
1F
100
AcDbEntity
  8
Ｓ_１_１
  6
CONTINUOUS
 62
     3
100
AcDbLine
 10
1239.777626708301
 20
329.9997190048792
 30
0.0
 11
1239.777624572988
 21
337.999719004879
 31
0.0
  0
LINE
  5
29A
330
1F
100
AcDbEntity
  8
Ｓ_１_１
  6
CONTINUOUS
 62
     3
100
AcDbLine
 10
1251.122846356454
 20
311.9997220330776
 30
0.0
 11
1251.122844221141
 21
319.9997220330773
 31
0.0
  0
LINE
  5
29B
330
1F
100
AcDbEntity
  8
Ｓ_１_１
  6
CONTINUOUS
 62
     3
100
AcDbLine
 10
1239.777631512754
 20
311.99971900488
 30
0.0
 11
1239.777629377441
 21
319.9997190048797
 31
0.0
  0
LINE
  5
29C
330
1F
100
AcDbEntity
  8
Ｓ_１_１
  6
CONTINUOUS
 62
     3
100
AcDbLine
 10
1223.622846356455
 20
311.9997146929404
 30
0.0
 11
1223.622839416689
 21
337.9997146929394
 31
0.0
  0
LINE
  5
29D
330
1F
100
AcDbEntity
  8
Ｓ_１_１
  6
CONTINUOUS
 62
     3
100
AcDbLine
 10
1223.622765316944
 20
311.9997566545186
 30
0.0
 11
1224.20015762811
 21
312.999830071933
 31
0.0
  0
LINE
  5
29E
330
1F
100
AcDbEntity
  8
Ｓ_１_１
  6
CONTINUOUS
 62
     3
100
AcDbLine
 10
1239.200132602551
 20
336.9999116707382
 30
0.0
 11
1239.777402843474
 21
337.99977365602
 31
0.0
  0
LINE
  5
29F
330
1F
100
AcDbEntity
  8
Ｓ_１_１
  6
CONTINUOUS
 62
     3
100
AcDbLine
 10
1251.122716235235
 20
311.9997919045426
 30
0.0
 11
1251.700108546401
 21
312.9998653219571
 31
0.0
  0
LINE
  5
2A0
330
1F
100
AcDbEntity
  8
Ｓ_１_１
  6
CONTINUOUS
 62
     3
100
AcDbLine
 10
1224.200130465333
 20
336.9999751799263
 30
0.0
 11
1223.622798655428
 21
337.9999425731284
 31
0.0
  0
LINE
  5
2A1
330
1F
100
AcDbEntity
  8
Ｓ_１_１
  6
CONTINUOUS
 62
     3
100
AcDbLine
 10
1239.777370774609
 20
311.9998884190106
 30
0.0
 11
1239.200038964703
 21
312.9998558122126
 31
0.0
  0
LINE
  5
2A2
330
1F
100
AcDbEntity
  8
Ｓ_１_１
  6
CONTINUOUS
 62
     3
100
AcDbLine
 10
1251.699897206568
 20
336.9998482754015
 30
0.0
 11
1251.122565396663
 21
337.9998156686035
 31
0.0
  0
LINE
  5
2A3
330
1F
100
AcDbEntity
  8
Ｓ_１_１
  6
CONTINUOUS
 62
     3
100
AcDbLine
 10
1239.777626708301
 20
329.9997190048792
 30
0.0
 11
1251.122841552
 21
329.9997220330769
 31
0.0
  0
LINE
  5
2A4
330
1F
100
AcDbEntity
  8
Ｓ_１_１
  6
CONTINUOUS
 62
     3
100
AcDbLine
 10
1239.777629377441
 20
319.9997190048797
 30
0.0
 11
1251.122844221141
 21
319.9997220330773
 31
0.0
  0
LINE
  5
2A5
330
1F
100
AcDbEntity
  8
Ｓ_１_１
  6
CONTINUOUS
 62
     3
100
AcDbLine
 10
1216.018277688146
 20
326.7498144774742
 30
0.0
 11
1216.200109175124
 21
326.8547949885079
 31
0.0
  0
LINE
  5
2A6
330
1F
100
AcDbEntity
  8
Ｓ_１_１
  6
CONTINUOUS
 62
     3
100
AcDbLine
 10
1216.200234997673
 20
326.7497127117413
 30
0.0
 11
1216.200231194147
 21
340.9997127117408
 31
0.0
  0
LINE
  5
2A7
330
1F
100
AcDbEntity
  8
Ｓ_１_１
  6
CONTINUOUS
 62
     3
100
AcDbLine
 10
1216.700234997673
 20
326.7497128451983
 30
0.0
 11
1216.700231327604
 21
340.4997128451979
 31
0.0
  0
LINE
  5
2A8
330
1F
100
AcDbEntity
  8
Ｓ_１_１
  6
CONTINUOUS
 62
     3
100
AcDbLine
 10
1213.200113861572
 20
323.2497119109667
 30
0.0
 11
1213.200112927373
 21
326.7497119109665
 31
0.0
  0
LINE
  5
2A9
330
1F
100
AcDbEntity
  8
Ｓ_１_１
  6
CONTINUOUS
 62
     3
100
AcDbLine
 10
1213.200113861572
 20
323.2497119109667
 30
0.0
 11
1216.700235931872
 21
323.2497128451985
 31
0.0
  0
LINE
  5
2AA
330
1F
100
AcDbEntity
  8
Ｓ_１_１
  6
CONTINUOUS
 62
     3
100
AcDbLine
 10
1213.200112927373
 20
326.7497119109665
 30
0.0
 11
1216.700234997673
 21
326.7497128451983
 31
0.0
  0
LINE
  5
2AB
330
1F
100
AcDbEntity
  8
Ｓ_１_１
  6
CONTINUOUS
 62
     3
100
AcDbLine
 10
1219.200170382707
 20
309.4998388386655
 30
0.0
 11
1219.700116832064
 21
309.9997855550084
 31
0.0
  0
LINE
  5
2AC
330
1F
100
AcDbEntity
  8
Ｓ_１_１
  6
CONTINUOUS
 62
     3
100
AcDbLine
 10
1218.200234058595
 20
309.4998817301688
 30
0.0
 11
1217.700244183941
 21
309.9998713379144
 31
0.0
  0
LINE
  5
2AD
330
1F
100
AcDbEntity
  8
Ｓ_１_１
  6
CONTINUOUS
 62
     3
100
AcDbLine
 10
1219.700195141398
 20
339.9999468778303
 30
0.0
 11
1219.200291583467
 21
340.4998501687993
 31
0.0
  0
LINE
  5
2AE
330
1F
100
AcDbEntity
  8
Ｓ_１_１
  6
CONTINUOUS
 62
     3
100
AcDbLine
 10
1217.700149859822
 20
339.99986002719
 30
0.0
 11
1218.200268942633
 21
340.4999793770793
 31
0.0
  0
LINE
  5
2AF
330
1F
100
AcDbEntity
  8
Ｓ_１_１
  6
CONTINUOUS
 62
     3
100
AcDbLine
 10
1219.700109924589
 20
337.9997136459076
 30
0.0
 11
1219.700109390761
 21
339.9997136459075
 31
0.0
  0
LINE
  5
2B0
330
1F
100
AcDbEntity
  8
Ｓ_１_１
  6
CONTINUOUS
 62
     3
100
AcDbLine
 10
1217.700109924589
 20
337.9997131120795
 30
0.0
 11
1217.700109390761
 21
339.9997131120794
 31
0.0
  0
LINE
  5
2B1
330
1F
100
AcDbEntity
  8
Ｓ_１_１
  6
CONTINUOUS
 62
     3
100
AcDbLine
 10
1217.700117398183
 20
309.9997131120805
 30
0.0
 11
1217.700116864355
 21
311.9997131120804
 31
0.0
  0
LINE
  5
2B2
330
1F
100
AcDbEntity
  8
Ｓ_１_１
  6
CONTINUOUS
 62
     3
100
AcDbLine
 10
1219.700117398183
 20
309.9997136459086
 30
0.0
 11
1219.700116864355
 21
311.9997136459086
 31
0.0
  0
LINE
  5
2B3
330
1F
100
AcDbEntity
  8
Ｓ_１_１
  6
CONTINUOUS
 62
     3
100
AcDbLine
 10
1218.20011753164
 20
309.4997132455375
 30
0.0
 11
1219.20023960194
 21
309.4997135124842
 31
0.0
  0
LINE
  5
2B4
330
1F
100
AcDbEntity
  8
Ｓ_１_１
  6
CONTINUOUS
 62
     3
100
AcDbLine
 10
1218.200109257304
 20
340.4997132455364
 30
0.0
 11
1219.200231327604
 21
340.4997135124831
 31
0.0
  0
LINE
  5
2B5
330
1F
100
AcDbEntity
  8
Ｓ_１_１
  6
CONTINUOUS
 62
     3
100
AcDbLine
 10
1216.200135570814
 20
323.1450251764148
 30
0.0
 11
1216.018383314906
 21
323.2499598140025
 31
0.0
  0
LINE
  5
2B6
330
1F
100
AcDbEntity
  8
Ｓ_１_１
  6
CONTINUOUS
 62
     3
100
AcDbLine
 10
1192.700117665033
 20
308.9999505798285
 30
0.0
 11
1192.700109123848
 21
340.9997064392272
 31
0.0
  0
LINE
  5
2B7
330
1F
100
AcDbEntity
  8
Ｓ_１_１
  6
CONTINUOUS
 62
     3
100
AcDbLine
 10
1200.200117665033
 20
308.9999525816841
 30
0.0
 11
1200.200109123847
 21
340.9997084410829
 31
0.0
  0
LINE
  5
2B8
330
1F
100
AcDbEntity
  8
Ｓ_１_１
  6
CONTINUOUS
 62
     3
100
AcDbLine
 10
1216.200239735333
 20
308.999956852342
 30
0.0
 11
1216.200235931872
 21
323.2497127117415
 31
0.0
  0
LINE
  5
2B9
330
1F
100
AcDbEntity
  8
Ｓ_１_１
  6
CONTINUOUS
 62
     3
100
AcDbLine
 10
1209.200231194147
 20
340.9997108433422
 30
0.0
 11
1209.200239735333
 21
308.9999549839434
 31
0.0
  0
LINE
  5
2BA
330
1F
100
AcDbEntity
  8
Ｓ_１_１
  6
CONTINUOUS
 62
     3
100
AcDbLine
 10
1216.700155703798
 20
340.5001084117775
 30
0.0
 11
1216.200208987456
 21
341.0000549033348
 31
0.0
  0
LINE
  5
2BB
330
1F
100
AcDbEntity
  8
Ｓ_１_１
  6
CONTINUOUS
 62
     3
100
AcDbLine
 10
1216.200190257031
 20
308.9999618830287
 30
0.0
 11
1216.700309339842
 21
309.5000812750175
 31
0.0
  0
LINE
  5
2BC
330
1F
100
AcDbEntity
  8
Ｓ_１_１
  6
CONTINUOUS
 62
     3
100
AcDbLine
 10
1209.200231194147
 20
340.9997108433422
 30
0.0
 11
1216.200231194147
 21
340.9997127117408
 31
0.0
  0
LINE
  5
2BD
330
1F
100
AcDbEntity
  8
Ｓ_１_１
  6
CONTINUOUS
 62
     3
100
AcDbLine
 10
1209.200239735333
 20
308.9999549839434
 30
0.0
 11
1216.200239735333
 21
308.999956852342
 31
0.0
  0
LINE
  5
2BE
330
1F
100
AcDbEntity
  8
Ｓ_１_１
  6
CONTINUOUS
 62
     3
100
AcDbLine
 10
1200.200172597232
 20
308.9999569380988
 30
0.0
 11
1200.700291680043
 21
309.5000763299876
 31
0.0
  0
LINE
  5
2BF
330
1F
100
AcDbEntity
  8
Ｓ_１_１
  6
CONTINUOUS
 62
     3
100
AcDbLine
 10
1208.700290929114
 20
340.5000482808009
 30
0.0
 11
1209.200237378471
 21
340.9999950392438
 31
0.0
  0
LINE
  5
2C0
330
1F
100
AcDbEntity
  8
Ｓ_１_１
  6
CONTINUOUS
 62
     3
100
AcDbLine
 10
1200.699965410545
 20
340.4999321820018
 30
0.0
 11
1200.200018694202
 21
340.9998786735586
 31
0.0
  0
LINE
  5
2C1
330
1F
100
AcDbEntity
  8
Ｓ_１_１
  6
CONTINUOUS
 62
     3
100
AcDbLine
 10
1209.200014241239
 20
308.9999316935834
 30
0.0
 11
1208.699981208173
 21
309.4999645019174
 31
0.0
  0
LINE
  5
2C2
330
1F
100
AcDbEntity
  8
Ｓ_１_１
  6
CONTINUOUS
 62
     3
100
AcDbLine
 10
1200.700117531641
 20
309.4997085745411
 30
0.0
 11
1200.700109257304
 21
340.49970857454
 31
0.0
  0
LINE
  5
2C3
330
1F
100
AcDbEntity
  8
Ｓ_１_１
  6
CONTINUOUS
 62
     3
100
AcDbLine
 10
1208.700239601941
 20
309.4997107098864
 30
0.0
 11
1208.700231327604
 21
340.4997107098852
 31
0.0
  0
LINE
  5
2C4
330
1F
100
AcDbEntity
  8
Ｓ_１_１
  6
CONTINUOUS
 62
     3
100
AcDbLine
 10
1200.700109257304
 20
340.49970857454
 30
0.0
 11
1208.700231327604
 21
340.4997107098852
 31
0.0
  0
LINE
  5
2C5
330
1F
100
AcDbEntity
  8
Ｓ_１_１
  6
CONTINUOUS
 62
     3
100
AcDbLine
 10
1200.700117531641
 20
309.4997085745411
 30
0.0
 11
1208.700239601941
 21
309.4997107098864
 31
0.0
  0
LINE
  5
2C6
330
1F
100
AcDbEntity
  8
Ｓ_１_１
  6
CONTINUOUS
 62
     3
100
AcDbLine
 10
1189.700250144251
 20
337.9998504305225
 30
0.0
 11
1192.700101474049
 21
340.9997033616253
 31
0.0
  0
LINE
  5
2C7
330
1F
100
AcDbEntity
  8
Ｓ_１_１
  6
CONTINUOUS
 62
     3
100
AcDbLine
 10
1189.700213925602
 20
311.9999091459119
 30
0.0
 11
1192.700239490351
 21
308.9998851826609
 31
0.0
  0
LINE
  5
2C8
330
1F
100
AcDbEntity
  8
Ｓ_１_１
  6
CONTINUOUS
 62
     3
100
AcDbLine
 10
1224.200238667741
 20
312.9997148470545
 30
0.0
 11
1239.20023866774
 21
312.9997188507657
 31
0.0
  0
LINE
  5
2C9
330
1F
100
AcDbEntity
  8
Ｓ_１_１
  6
CONTINUOUS
 62
     3
100
AcDbLine
 10
1224.200232261803
 20
336.9997148470536
 30
0.0
 11
1239.200232261803
 21
336.9997188507649
 31
0.0
  0
LINE
  5
2CA
330
1F
100
AcDbEntity
  8
Ｓ_１_１
  6
CONTINUOUS
 62
     3
100
AcDbLine
 10
1189.700116864356
 20
311.9997056384861
 30
0.0
 11
1189.70010992459
 21
337.9997056384852
 31
0.0
  0
LINE
  5
2CB
330
1F
100
AcDbEntity
  8
Ｓ_１_１
  6
CONTINUOUS
 62
     3
100
AcDbLine
 10
1192.700109123848
 20
340.9997064392272
 30
0.0
 11
1200.200109123847
 21
340.9997084410829
 31
0.0
  0
LINE
  5
2CC
330
1F
100
AcDbEntity
  8
Ｓ_１_１
  6
CONTINUOUS
 62
     3
100
AcDbLine
 10
1192.700117665033
 20
308.9999505798285
 30
0.0
 11
1200.200117665033
 21
308.9999525816841
 31
0.0
  0
LINE
  5
2CD
330
1F
100
AcDbEntity
  8
Ｓ_１_１
  6
CONTINUOUS
 62
     3
100
AcDbLine
 10
1239.777624572988
 20
337.999719004879
 30
0.0
 11
1251.122839416688
 21
337.9997220330766
 31
0.0
  0
LINE
  5
2CE
330
1F
100
AcDbEntity
  8
Ｓ_１_１
  6
CONTINUOUS
 62
     3
100
AcDbLine
 10
1239.777631512754
 20
311.99971900488
 30
0.0
 11
1251.122846356454
 21
311.9997220330776
 31
0.0
  0
LINE
  5
2CF
330
1F
100
AcDbEntity
  8
Ｓ_１_１
  6
CONTINUOUS
 62
     3
100
AcDbLine
 10
1189.200232261804
 20
336.9997055050608
 30
0.0
 11
1189.700110191504
 21
336.9997056384852
 31
0.0
  0
LINE
  5
2D0
330
1F
100
AcDbEntity
  8
Ｓ_１_１
  6
CONTINUOUS
 62
     3
100
AcDbLine
 10
1189.200238667742
 20
312.9997055050616
 30
0.0
 11
1189.700116597442
 21
312.9997056384861
 31
0.0
  0
LINE
  5
2D1
330
1F
100
AcDbEntity
  8
Ｓ_１_１
  6
CONTINUOUS
 62
     3
100
AcDbLine
 10
1216.700238934655
 20
311.9997128451989
 30
0.0
 11
1223.622846356455
 21
311.9997146929404
 31
0.0
  0
LINE
  5
2D2
330
1F
100
AcDbEntity
  8
Ｓ_１_１
  6
CONTINUOUS
 62
     3
100
AcDbLine
 10
1216.700231994889
 20
337.999712845198
 30
0.0
 11
1223.622839416689
 21
337.9997146929394
 31
0.0
  0
LINE
  5
2D3
330
1F
100
AcDbEntity
  8
Ｓ_１_１
  6
CONTINUOUS
 62
     3
100
AcDbLine
 10
1216.700239601941
 20
309.499712845199
 30
0.0
 11
1216.700235931872
 21
323.2497128451985
 31
0.0
  0
LINE
  5
2D4
330
1F
100
AcDbEntity
  8
Ｓ_１_１
  6
CONTINUOUS
 62
     3
100
AcDbLine
 10
1224.200238667741
 20
312.9997148470545
 30
0.0
 11
1224.200232261803
 21
336.9997148470536
 31
0.0
  0
LINE
  5
2D5
330
1F
100
AcDbEntity
  8
Ｓ_１_１
  6
CONTINUOUS
 62
     3
100
AcDbLine
 10
1239.20023866774
 20
312.9997188507657
 30
0.0
 11
1239.200232261803
 21
336.9997188507649
 31
0.0
  0
LINE
  5
2D6
330
1F
100
AcDbEntity
  8
Ｓ_１_１
  6
CONTINUOUS
 62
     3
100
AcDbLine
 10
1189.200238667742
 20
312.9997055050616
 30
0.0
 11
1189.200232261804
 21
336.9997055050608
 31
0.0
  0
ARC
  5
2D7
330
1F
100
AcDbEntity
  8
Ｓ_１_１
  6
CONTINUOUS
 62
     3
100
AcDbCircle
 10
1229.760660269472
 20
324.9997163312098
 30
0.0
 40
21.93943595890001
100
AcDbArc
 50
346.8264903325503
 51
13.17348060305025
  0
ARC
  5
2D8
330
1F
100
AcDbEntity
  8
Ｓ_１_１
  6
CONTINUOUS
 62
     3
100
AcDbCircle
 10
1261.13956651947
 20
324.9997247066817
 30
0.0
 40
21.93943595890001
100
AcDbArc
 50
166.8265431528503
 51
193.1735061025502
  0
LINE
  5
2D9
330
1F
100
AcDbEntity
  8
Ｓ_１_１
  6
CONTINUOUS
 62
     3
100
AcDbLine
 10
1268.637662015205
 20
335.4999787439793
 30
0.0
 11
1267.699859200749
 21
337.1243063534665
 31
0.0
  0
ARC
  5
2DA
330
1F
100
AcDbEntity
  8
Ｓ_１_１
  6
CONTINUOUS
 62
     3
100
AcDbCircle
 10
1263.270627381451
 20
334.0929869941422
 30
0.0
 40
5.3672456741
100
AcDbArc
 50
325.6157954877511
 51
34.38408324025046
  0
LINE
  5
2DB
330
1F
100
AcDbEntity
  8
Ｓ_１_１
  6
CONTINUOUS
 62
     3
100
AcDbLine
 10
1268.637698040768
 20
314.4997267079883
 30
0.0
 11
1268.637692435572
 21
335.4997267079876
 31
0.0
  0
ARC
  5
2DC
330
1F
100
AcDbEntity
  8
Ｓ_１_１
  6
CONTINUOUS
 62
     3
100
AcDbCircle
 10
1248.575561449171
 20
324.9997213531219
 30
0.0
 40
20.0621948242
100
AcDbArc
 50
342.4120161286504
 51
17.58790016555004
  0
ARC
  5
2DD
330
1F
100
AcDbEntity
  8
Ｓ_１_１
  6
CONTINUOUS
 62
     3
100
AcDbCircle
 10
1263.270632235625
 20
315.9067076973429
 30
0.0
 40
5.3672456741
100
AcDbArc
 50
325.6158774500514
 51
34.38416520254986
  0
LINE
  5
2DE
330
1F
100
AcDbEntity
  8
Ｓ_１_１
  6
CONTINUOUS
 62
     3
100
AcDbLine
 10
1268.637857879677
 20
314.500066407131
 30
0.0
 11
1267.699872827518
 21
312.8754211486694
 31
0.0
  0
LINE
  5
2DF
330
1F
100
AcDbEntity
  8
Ｓ_１_１
  6
CONTINUOUS
 62
     3
100
AcDbLine
 10
1268.63769296144
 20
333.5295517389276
 30
0.0
 11
1270.205170914121
 21
332.6245684788408
 31
0.0
  0
LINE
  5
2E0
330
1F
100
AcDbEntity
  8
Ｓ_１_１
  6
CONTINUOUS
 62
     3
100
AcDbLine
 10
1268.6376975149
 20
316.4699016770483
 30
0.0
 11
1270.205174984479
 21
317.3748857739005
 31
0.0
  0
LINE
  5
2E1
330
1F
100
AcDbEntity
  8
Ｓ_１_１
  6
CONTINUOUS
 62
     3
100
AcDbLine
 10
1270.205174984477
 20
317.3748857739001
 30
0.0
 11
1270.205170914122
 21
332.6245684788408
 31
0.0
  0
LINE
  5
2E2
330
1F
100
AcDbEntity
  8
Ｓ_１_１
  6
CONTINUOUS
 62
     3
100
AcDbLine
 10
1258.062524836205
 20
335.4999759213263
 30
0.0
 11
1259.000326783549
 21
337.1243040314387
 31
0.0
  0
ARC
  5
2E3
330
1F
100
AcDbEntity
  8
Ｓ_１_１
  6
CONTINUOUS
 62
     3
100
AcDbCircle
 10
1263.42956022105
 20
334.0929870365637
 30
0.0
 40
5.3672456741
100
AcDbArc
 50
145.6159473458507
 51
214.3842350983504
  0
LINE
  5
2E4
330
1F
100
AcDbEntity
  8
Ｓ_１_１
  6
CONTINUOUS
 62
     3
100
AcDbLine
 10
1258.062500021168
 20
314.499723885319
 30
0.0
 11
1258.062494415972
 21
335.4997238853183
 31
0.0
  0
ARC
  5
2E5
330
1F
100
AcDbEntity
  8
Ｓ_１_１
  6
CONTINUOUS
 62
     3
100
AcDbCircle
 10
1278.124631007569
 20
324.9997292401848
 30
0.0
 40
20.0621948242
100
AcDbArc
 50
162.4121304205507
 51
197.5880144574505
  0
ARC
  5
2E6
330
1F
100
AcDbEntity
  8
Ｓ_１_１
  6
CONTINUOUS
 62
     3
100
AcDbCircle
 10
1263.429565075224
 20
315.9067077397643
 30
0.0
 40
5.3672456741
100
AcDbArc
 50
145.6158653835513
 51
214.3841531360501
  0
LINE
  5
2E7
330
1F
100
AcDbEntity
  8
Ｓ_１_１
  6
CONTINUOUS
 62
     3
100
AcDbLine
 10
1258.062340182078
 20
314.5000635843764
 30
0.0
 11
1259.000326101518
 21
312.8754188266379
 31
0.0
  0
LINE
  5
2E8
330
1F
100
AcDbEntity
  8
Ｓ_１_１
  6
CONTINUOUS
 62
     3
100
AcDbLine
 10
1258.06249494184
 20
333.5295489162583
 30
0.0
 11
1256.495017472264
 21
332.6245648194079
 31
0.0
  0
LINE
  5
2E9
330
1F
100
AcDbEntity
  8
Ｓ_１_１
  6
CONTINUOUS
 62
     3
100
AcDbLine
 10
1258.062499495301
 20
316.469898854379
 30
0.0
 11
1256.495021542616
 21
317.3748821144675
 31
0.0
  0
LINE
  5
2EA
330
1F
100
AcDbEntity
  8
Ｓ_１_１
  6
CONTINUOUS
 62
     3
100
AcDbLine
 10
1256.495021542617
 20
317.3748821144671
 30
0.0
 11
1256.495017472262
 21
332.6245648194079
 31
0.0
  0
LINE
  5
2EB
330
1F
100
AcDbEntity
  8
Ｓ_１_１
  6
CONTINUOUS
 62
     3
100
AcDbLine
 10
1251.700233241109
 20
333.3307265382792
 30
0.0
 11
1258.06249494184
 21
333.5295489162626
 31
0.0
  0
LINE
  5
2EC
330
1F
100
AcDbEntity
  8
Ｓ_１_１
  6
CONTINUOUS
 62
     3
100
AcDbLine
 10
1251.700233469587
 20
332.4747265382791
 30
0.0
 11
1258.062495170318
 21
332.6735489162626
 31
0.0
  0
LINE
  5
2ED
330
1F
100
AcDbEntity
  8
Ｓ_１_１
  6
CONTINUOUS
 62
     3
100
AcDbLine
 10
1251.700237459955
 20
317.5247178360055
 30
0.0
 11
1258.062499266822
 21
317.3258988543766
 31
0.0
  0
LINE
  5
2EE
330
1F
100
AcDbEntity
  8
Ｓ_１_１
  6
CONTINUOUS
 62
     3
100
AcDbLine
 10
1251.700237688433
 20
316.6687178360056
 30
0.0
 11
1258.062499495301
 21
316.4698988543767
 31
0.0
  0
LINE
  5
2EF
330
1F
100
AcDbEntity
  8
Ｓ_１_１
  6
CONTINUOUS
 62
     3
100
AcDbLine
 10
1259.000129542377
 20
337.1242358542863
 30
0.0
 11
1267.700069931667
 21
337.1242381764229
 31
0.0
  0
LINE
  5
2F0
330
1F
100
AcDbEntity
  8
Ｓ_１_１
  6
CONTINUOUS
 62
     3
100
AcDbLine
 10
1259.000216143539
 20
331.0619799950093
 30
0.0
 11
1267.700071549769
 21
331.0619823171232
 31
0.0
  0
LINE
  5
2F1
330
1F
100
AcDbEntity
  8
Ｓ_１_１
  6
CONTINUOUS
 62
     3
100
AcDbLine
 10
1259.000166490717
 20
318.9377124167955
 30
0.0
 11
1267.700074785907
 21
318.9377147389235
 31
0.0
  0
LINE
  5
2F2
330
1F
100
AcDbEntity
  8
Ｓ_１_１
  6
CONTINUOUS
 62
     3
100
AcDbLine
 10
1259.000326101443
 20
312.8757006981381
 30
0.0
 11
1267.700076403943
 21
312.8757030202239
 31
0.0
  0
LINE
  5
2F3
330
1F
100
AcDbEntity
  8
Ｓ_１_１
  6
CONTINUOUS
 62
     3
100
AcDbLine
 10
1275.000094233186
 20
332.4747284062026
 30
0.0
 11
1268.637693189918
 21
332.6735517389318
 31
0.0
  0
LINE
  5
2F4
330
1F
100
AcDbEntity
  8
Ｓ_１_１
  6
CONTINUOUS
 62
     3
100
AcDbLine
 10
1275.000098223551
 20
317.5247284062039
 30
0.0
 11
1268.637697286422
 21
317.3259016770459
 31
0.0
  0
LINE
  5
2F5
330
1F
100
AcDbEntity
  8
Ｓ_１_１
  6
CONTINUOUS
 62
     3
100
AcDbLine
 10
1275.000118115293
 20
242.9997712957613
 30
0.0
 11
1275.000189839484
 21
499.9998340864017
 31
0.0
  0
ARC
  5
2F6
330
1F
100
AcDbEntity
  8
Ｓ_１_１
  6
CONTINUOUS
 62
     3
100
AcDbCircle
 10
1520.000014718877
 20
538.0000075182763
 30
0.0
 40
10.0
100
AcDbArc
 50
90.00000680356283
 51
270.0000068035589
  0
ARC
  5
2F7
330
1F
100
AcDbEntity
  8
Ｓ_１_１
  6
CONTINUOUS
 62
     3
100
AcDbCircle
 10
1520.000014718877
 20
538.0000075182763
 30
0.0
 40
17.5
100
AcDbArc
 50
90.00000680356273
 51
270.0000068035597
  0
LINE
  5
2F8
330
1F
100
AcDbEntity
  8
Ｓ_１_１
  6
CONTINUOUS
 62
     3
100
AcDbLine
 10
1278.000203045531
 20
239.9999354068094
 30
0.0
 11
1275.000118115293
 21
242.9997712957617
 31
0.0
  0
LINE
  5
2F9
330
1F
100
AcDbEntity
  8
Ｓ_１_１
  6
CONTINUOUS
 62
     3
100
AcDbLine
 10
1287.500014924919
 20
505.9998653601097
 30
0.0
 11
1290.500347295013
 21
502.9999057513123
 31
0.0
  0
LINE
  5
2FA
330
1F
100
AcDbEntity
  8
Ｓ_１_１
  6
CONTINUOUS
 62
     3
100
AcDbLine
 10
1287.499997842381
 20
569.9999033008728
 30
0.0
 11
1287.500014924919
 21
505.9998653601097
 31
0.0
  0
LINE
  5
2FB
330
1F
100
AcDbEntity
  8
Ｓ_１_１
  6
CONTINUOUS
 62
     3
100
AcDbLine
 10
1287.500014924892
 20
505.9998653601099
 30
0.0
 11
1287.499997842381
 21
569.9999033008728
 31
0.0
  0
LINE
  5
2FC
330
1F
100
AcDbEntity
  8
Ｓ_１_１
  6
CONTINUOUS
 62
     3
100
AcDbLine
 10
1290.5002048911
 20
572.9998645112985
 30
0.0
 11
1287.499997842381
 21
569.9999033008728
 31
0.0
  0
LINE
  5
2FD
330
1F
100
AcDbEntity
  8
Ｓ_１_１
  6
CONTINUOUS
 62
     3
100
AcDbLine
 10
1324.993156610617
 20
595.1943482401498
 30
0.0
 11
1320.000008368118
 21
600.4560316226814
 31
0.0
  0
LINE
  5
2FE
330
1F
100
AcDbEntity
  8
Ｓ_１_１
  6
CONTINUOUS
 62
     3
100
AcDbLine
 10
1320.000008368118
 20
600.4560316226814
 30
0.0
 11
1320.000002982871
 21
636.0038783485786
 31
0.0
  0
LINE
  5
2FF
330
1F
100
AcDbEntity
  8
Ｓ_１_１
  6
CONTINUOUS
 62
     3
100
AcDbLine
 10
1322.000002679886
 20
638.0038788824068
 30
0.0
 11
1320.000002982871
 21
636.0038783485786
 31
0.0
  0
LINE
  5
300
330
1F
100
AcDbEntity
  8
Ｓ_１_１
  6
CONTINUOUS
 62
     3
100
AcDbLine
 10
1349.999650036668
 20
577.9997565239116
 30
0.0
 11
1349.999651371214
 21
572.9998498209152
 31
0.0
  0
LINE
  5
301
330
1F
100
AcDbEntity
  8
Ｓ_１_１
  6
CONTINUOUS
 62
     3
100
AcDbLine
 10
1349.999650036668
 20
577.9997565239116
 30
0.0
 11
1354.999648702097
 21
582.9997578584819
 31
0.0
  0
LINE
  5
302
330
1F
100
AcDbEntity
  8
Ｓ_１_１
  6
CONTINUOUS
 62
     3
100
AcDbLine
 10
1354.999648702094
 20
582.9997578584821
 30
0.0
 11
1354.999648702094
 21
572.9998485864185
 31
0.0
  0
LINE
  5
303
330
1F
100
AcDbEntity
  8
Ｓ_１_１
  6
CONTINUOUS
 62
     3
100
AcDbLine
 10
1280.000173238333
 20
499.9998174845575
 30
0.0
 11
1280.000173238333
 21
499.999816412125
 31
0.0
  0
LINE
  5
304
330
1F
100
AcDbEntity
  8
Ｓ_１_１
  6
CONTINUOUS
 62
     3
100
AcDbLine
 10
1324.993156610617
 20
595.1943482401498
 30
0.0
 11
1367.122018343869
 21
592.9864376840103
 31
0.0
  0
ARC
  5
305
330
1F
100
AcDbEntity
  8
Ｓ_１_１
  6
CONTINUOUS
 62
     3
100
AcDbCircle
 10
1519.999995088323
 20
688.0039320022793
 30
0.0
 40
180.0
100
AcDbArc
 50
211.8619871311094
 51
215.6869685882234
  0
LINE
  5
306
330
1F
100
AcDbEntity
  8
Ｓ_１_１
  6
CONTINUOUS
 62
     3
100
AcDbLine
 10
1470.000023114839
 20
477.9999010240635
 30
0.0
 11
1470.000033791387
 21
398.0000082479865
 31
0.0
  0
LINE
  5
307
330
1F
100
AcDbEntity
  8
Ｓ_１_１
  6
CONTINUOUS
 62
     3
100
AcDbLine
 10
1512.000024449397
 20
467.9999917519985
 30
0.0
 11
1512.000032456846
 21
407.9997938000453
 31
0.0
  0
LINE
  5
308
330
1F
100
AcDbEntity
  8
Ｓ_１_１
  6
CONTINUOUS
 62
     3
100
AcDbLine
 10
1512.000032456846
 20
407.9997938000453
 30
0.0
 11
1520.000032456846
 21
407.9997938000453
 31
0.0
  0
LINE
  5
309
330
1F
100
AcDbEntity
  8
Ｓ_１_１
  6
CONTINUOUS
 62
     3
100
AcDbLine
 10
1512.000024449397
 20
467.9999917519984
 30
0.0
 11
1520.000024449397
 21
467.9999917519984
 31
0.0
  0
CIRCLE
  5
30A
330
1F
100
AcDbEntity
  8
Ｓ_１_１
  6
CONTINUOUS
 62
     3
100
AcDbCircle
 10
1485.000022127246
 20
412.9999340160396
 30
0.0
 40
9.0
  0
CIRCLE
  5
30B
330
1F
100
AcDbEntity
  8
Ｓ_１_１
  6
CONTINUOUS
 62
     3
100
AcDbCircle
 10
1485.000022127246
 20
412.9999340160396
 30
0.0
 40
8.0
  0
CIRCLE
  5
30C
330
1F
100
AcDbEntity
  8
Ｓ_１_１
  6
CONTINUOUS
 62
     3
100
AcDbCircle
 10
1485.000022127246
 20
412.9999340160396
 30
0.0
 40
5.0
  0
POLYLINE
  5
30D
330
1F
100
AcDbEntity
  8
Ｓ_１_１
  6
CONTINUOUS
 62
     3
100
AcDb2dPolyline
 66
     1
 10
0.0
 20
0.0
 30
0.0
 70
   128
  0
VERTEX
  5
30E
330
30D
100
AcDbEntity
  8
Ｓ_１_１
  6
CONTINUOUS
 62
     3
100
AcDbVertex
100
AcDb2dVertex
 10
1485.000031122256
 20
417.9999340160314
 30
0.0
  0
VERTEX
  5
30F
330
30D
100
AcDbEntity
  8
Ｓ_１_１
  6
CONTINUOUS
 62
     3
100
AcDbVertex
100
AcDb2dVertex
 10
1480.669899605836
 20
415.4999418059428
 30
0.0
  0
VERTEX
  5
310
330
30D
100
AcDbEntity
  8
Ｓ_１_１
  6
CONTINUOUS
 62
     3
100
AcDbVertex
100
AcDb2dVertex
 10
1480.669890610826
 20
410.4999418059509
 30
0.0
  0
VERTEX
  5
311
330
30D
100
AcDbEntity
  8
Ｓ_１_１
  6
CONTINUOUS
 62
     3
100
AcDbVertex
100
AcDb2dVertex
 10
1485.000013132236
 20
407.9999340160476
 30
0.0
  0
VERTEX
  5
312
330
30D
100
AcDbEntity
  8
Ｓ_１_１
  6
CONTINUOUS
 62
     3
100
AcDbVertex
100
AcDb2dVertex
 10
1489.330144648656
 20
410.4999262261362
 30
0.0
  0
VERTEX
  5
313
330
30D
100
AcDbEntity
  8
Ｓ_１_１
  6
CONTINUOUS
 62
     3
100
AcDbVertex
100
AcDb2dVertex
 10
1489.330153643667
 20
415.4999262261282
 30
0.0
  0
VERTEX
  5
314
330
30D
100
AcDbEntity
  8
Ｓ_１_１
  6
CONTINUOUS
 62
     3
100
AcDbVertex
100
AcDb2dVertex
 10
1485.000031122256
 20
417.9999340160314
 30
0.0
  0
SEQEND
  5
315
330
30D
100
AcDbEntity
  8
Ｓ_１_１
  6
CONTINUOUS
 62
     3
  0
CIRCLE
  5
316
330
1F
100
AcDbEntity
  8
Ｓ_１_１
  6
CONTINUOUS
 62
     3
100
AcDbCircle
 10
1485.000015454389
 20
462.9999752560095
 30
0.0
 40
9.0
  0
CIRCLE
  5
317
330
1F
100
AcDbEntity
  8
Ｓ_１_１
  6
CONTINUOUS
 62
     3
100
AcDbCircle
 10
1485.000015454389
 20
462.9999752560095
 30
0.0
 40
8.0
  0
CIRCLE
  5
318
330
1F
100
AcDbEntity
  8
Ｓ_１_１
  6
CONTINUOUS
 62
     3
100
AcDbCircle
 10
1485.000015454389
 20
462.9999752560095
 30
0.0
 40
5.0
  0
POLYLINE
  5
319
330
1F
100
AcDbEntity
  8
Ｓ_１_１
  6
CONTINUOUS
 62
     3
100
AcDb2dPolyline
 66
     1
 10
0.0
 20
0.0
 30
0.0
 70
   128
  0
VERTEX
  5
31A
330
319
100
AcDbEntity
  8
Ｓ_１_１
  6
CONTINUOUS
 62
     3
100
AcDbVertex
100
AcDb2dVertex
 10
1485.000024257226
 20
467.9999752560025
 30
0.0
  0
VERTEX
  5
31B
330
319
100
AcDbEntity
  8
Ｓ_１_１
  6
CONTINUOUS
 62
     3
100
AcDbVertex
100
AcDb2dVertex
 10
1480.669892740806
 20
465.4999830459138
 30
0.0
  0
VERTEX
  5
31C
330
319
100
AcDbEntity
  8
Ｓ_１_１
  6
CONTINUOUS
 62
     3
100
AcDbVertex
100
AcDb2dVertex
 10
1480.669883745796
 20
460.4999830459219
 30
0.0
  0
VERTEX
  5
31D
330
319
100
AcDbEntity
  8
Ｓ_１_１
  6
CONTINUOUS
 62
     3
100
AcDbVertex
100
AcDb2dVertex
 10
1485.000006267206
 20
457.9999752560186
 30
0.0
  0
VERTEX
  5
31E
330
319
100
AcDbEntity
  8
Ｓ_１_１
  6
CONTINUOUS
 62
     3
100
AcDbVertex
100
AcDb2dVertex
 10
1489.330137783626
 20
460.4999674661071
 30
0.0
  0
VERTEX
  5
31F
330
319
100
AcDbEntity
  8
Ｓ_１_１
  6
CONTINUOUS
 62
     3
100
AcDbVertex
100
AcDb2dVertex
 10
1489.330146778636
 20
465.4999674660991
 30
0.0
  0
VERTEX
  5
320
330
319
100
AcDbEntity
  8
Ｓ_１_１
  6
CONTINUOUS
 62
     3
100
AcDbVertex
100
AcDb2dVertex
 10
1485.000024257226
 20
467.9999752560025
 30
0.0
  0
SEQEND
  5
321
330
319
100
AcDbEntity
  8
Ｓ_１_１
  6
CONTINUOUS
 62
     3
  0
ELLIPSE
  5
322
330
1F
100
AcDbEntity
  8
Ｓ_１_１
  6
CONTINUOUS
 62
     3
100
AcDbEllipse
 10
1357.01191114575
 20
537.9999201699891
 30
0.0
 11
6.123233995736766E-16
 21
10.0
 31
0.0
210
0.0
220
0.0
230
1.0
 40
0.7213610060607647
 41
0.0
 42
6.283185307179586
  0
ELLIPSE
  5
323
330
1F
100
AcDbEntity
  8
Ｓ_１_１
  6
CONTINUOUS
 62
     3
100
AcDbEllipse
 10
1357.01191114575
 20
537.9999201699891
 30
0.0
 11
1.071565949253934E-15
 21
17.5
 31
0.0
210
0.0
220
0.0
230
1.0
 40
0.7510007207788716
 41
0.0
 42
6.283185307179586
  0
LINE
  5
324
330
1F
100
AcDbEntity
  8
Ｓ_１_１
  6
CONTINUOUS
 62
     3
100
AcDbLine
 10
1278.000203045512
 20
240.0000000000019
 30
0.0
 11
1761.99990670968
 21
239.9999999999768
 31
0.0
  0
LINE
  5
325
330
1F
100
AcDbEntity
  8
Ｓ_１_１
  6
CONTINUOUS
 62
     3
100
AcDbLine
 10
1764.999990839224
 20
242.9998366896915
 30
0.0
 11
1275.000118115275
 21
242.9997059018254
 31
0.0
  0
LINE
  5
326
330
1F
100
AcDbEntity
  8
Ｓ_１_１
  6
CONTINUOUS
 62
     3
100
AcDbLine
 10
1570.000023114838
 20
477.9999143697674
 30
0.0
 11
1470.000023114841
 21
477.9998876783593
 31
0.0
  0
LINE
  5
327
330
1F
100
AcDbEntity
  8
Ｓ_１_１
  6
CONTINUOUS
 62
     3
100
AcDbLine
 10
1570.000033791387
 20
398.0000215936904
 30
0.0
 11
1470.000033791389
 21
397.9999949022823
 31
0.0
  0
LINE
  5
328
330
1F
100
AcDbEntity
  8
Ｓ_１_１
  6
CONTINUOUS
 62
     3
100
AcDbLine
 10
1764.999867119249
 20
499.9998828784661
 30
0.0
 11
1275.000189839461
 21
499.999752090652
 31
0.0
  0
LINE
  5
329
330
1F
100
AcDbEntity
  8
Ｓ_１_１
  6
CONTINUOUS
 62
     3
100
AcDbLine
 10
1761.999906709621
 20
502.9999670080058
 30
0.0
 11
1278.000132847279
 21
502.9997586939315
 31
0.0
  0
LINE
  5
32A
330
1F
100
AcDbEntity
  8
Ｓ_１_１
  6
CONTINUOUS
 62
     3
100
AcDbLine
 10
1752.500023831192
 20
505.9999274176616
 30
0.0
 11
1287.500014924936
 21
505.9998033024162
 31
0.0
  0
LINE
  5
32B
330
1F
100
AcDbEntity
  8
Ｓ_１_１
  6
CONTINUOUS
 62
     3
100
AcDbLine
 10
1752.500023831191
 20
569.9999653583989
 30
0.0
 11
1287.499997842397
 21
569.9998412431491
 31
0.0
  0
LINE
  5
32C
330
1F
100
AcDbEntity
  8
Ｓ_１_１
  6
CONTINUOUS
 62
     3
100
AcDbLine
 10
1290.500204891232
 20
572.9996899277974
 30
0.0
 11
1749.499815981742
 21
572.9999257680274
 31
0.0
  0
LINE
  5
32D
330
1F
100
AcDbEntity
  8
Ｓ_１_１
  6
CONTINUOUS
 62
     3
100
AcDbLine
 10
1690.000369501639
 20
577.9998018994013
 30
0.0
 11
1349.999650036714
 21
577.9997111484217
 31
0.0
  0
LINE
  5
32E
330
1F
100
AcDbEntity
  8
Ｓ_１_１
  6
CONTINUOUS
 62
     3
100
AcDbLine
 10
1685.000369501635
 20
582.9998018994008
 30
0.0
 11
1354.999648702132
 21
582.9998018993999
 31
0.0
  0
LINE
  5
32F
330
1F
100
AcDbEntity
  8
Ｓ_１_１
  6
CONTINUOUS
 62
     3
100
AcDbLine
 10
1715.00685833821
 20
595.1944002902239
 30
0.0
 11
1324.993206004253
 21
595.1942961900879
 31
0.0
  0
LINE
  5
330
330
1F
100
AcDbEntity
  8
Ｓ_１_１
  6
CONTINUOUS
 62
     3
100
AcDbLine
 10
1672.877997194274
 20
592.9864784892975
 30
0.0
 11
1367.122043705383
 21
592.9863968787281
 31
0.0
  0
LINE
  5
331
330
1F
100
AcDbEntity
  8
Ｓ_１_１
  6
CONTINUOUS
 62
     3
100
AcDbLine
 10
1720.000001073312
 20
636.0039317313954
 30
0.0
 11
1320.000002982879
 21
636.0038249657632
 31
0.0
  0
LINE
  5
332
330
1F
100
AcDbEntity
  8
Ｓ_１_１
  6
CONTINUOUS
 62
     3
100
AcDbLine
 10
1718.000000842472
 20
638.003931731394
 30
0.0
 11
1322.000002679856
 21
638.0039317313949
 31
0.0
  0
LINE
  5
333
330
1F
100
AcDbEntity
  8
Ｓ_１_１
  6
CONTINUOUS
 62
     3
100
AcDbLine
 10
1720.000005176292
 20
600.4560850054952
 30
0.0
 11
1320.000008368126
 21
600.4559782398635
 31
0.0
  0
LINE
  5
334
330
1F
100
AcDbEntity
  8
Ｓ_１_１
  6
CONTINUOUS
 62
     3
100
AcDbLine
 10
1274.999966232891
 20
333.3307265382792
 30
0.0
 11
1268.63770453216
 21
333.5295489162626
 31
0.0
  0
LINE
  5
335
330
1F
100
AcDbEntity
  8
Ｓ_１_１
  6
CONTINUOUS
 62
     3
100
AcDbLine
 10
1274.999961785566
 20
316.6687178360056
 30
0.0
 11
1268.637699978699
 21
316.4698988543767
 31
0.0
  0
LINE
  5
336
330
1F
100
AcDbEntity
  8
Ｓ_１_１
  6
CONTINUOUS
 62
     3
100
AcDbLine
 10
1233.350167963687
 20
387.4995537144751
 30
0.0
 11
1232.350166635173
 21
388.4995545934607
 31
0.0
  0
LINE
  5
337
330
1F
100
AcDbEntity
  8
Ｓ_１_１
  6
CONTINUOUS
 62
     3
100
AcDbLine
 10
1264.350158594734
 20
412.4995605456101
 30
0.0
 11
1264.350165267586
 21
387.499560545611
 31
0.0
  0
LINE
  5
338
330
1F
100
AcDbEntity
  8
Ｓ_１_１
  6
CONTINUOUS
 62
     3
100
AcDbLine
 10
1265.350158228648
 20
411.499563330824
 30
0.0
 11
1264.350159513234
 21
412.4995614281103
 31
0.0
  0
LINE
  5
339
330
1F
100
AcDbEntity
  8
Ｓ_１_１
  6
CONTINUOUS
 62
     3
100
AcDbLine
 10
1264.350158594734
 20
412.4995605456101
 30
0.0
 11
1248.850158594735
 21
412.4995564084418
 31
0.0
  0
LINE
  5
33A
330
1F
100
AcDbEntity
  8
Ｓ_１_１
  6
CONTINUOUS
 62
     3
100
AcDbLine
 10
1233.350165267587
 20
387.4995522712744
 30
0.0
 11
1248.850165267587
 21
387.4995564084427
 31
0.0
  0
LINE
  5
33B
330
1F
100
AcDbEntity
  8
Ｓ_１_１
  6
CONTINUOUS
 62
     3
100
AcDbLine
 10
1265.35016193116
 20
399.9995608125246
 30
0.0
 11
1265.350165000672
 21
388.499560812525
 31
0.0
  0
LINE
  5
33C
330
1F
100
AcDbEntity
  8
Ｓ_１_１
  6
CONTINUOUS
 62
     3
100
AcDbLine
 10
1265.350158861648
 20
411.4995608125242
 30
0.0
 11
1265.35016193116
 21
399.9995608125246
 31
0.0
  0
LINE
  5
33D
330
1F
100
AcDbEntity
  8
Ｓ_１_１
  6
CONTINUOUS
 62
     3
100
AcDbLine
 10
1233.350160363635
 20
412.499554544674
 30
0.0
 11
1232.350159568949
 21
411.4995531318597
 31
0.0
  0
LINE
  5
33E
330
1F
100
AcDbEntity
  8
Ｓ_１_１
  6
CONTINUOUS
 62
     3
100
AcDbLine
 10
1233.350158594735
 20
412.4995522712735
 30
0.0
 11
1233.350165267587
 21
387.4995522712744
 31
0.0
  0
LINE
  5
33F
330
1F
100
AcDbEntity
  8
Ｓ_１_１
  6
CONTINUOUS
 62
     3
100
AcDbLine
 10
1233.350158594735
 20
412.4995522712735
 30
0.0
 11
1248.850158594735
 21
412.4995564084418
 31
0.0
  0
LINE
  5
340
330
1F
100
AcDbEntity
  8
Ｓ_１_１
  6
CONTINUOUS
 62
     3
100
AcDbLine
 10
1265.350165294972
 20
388.4995620107251
 30
0.0
 11
1264.350164415986
 21
387.4995606822108
 31
0.0
  0
LINE
  5
341
330
1F
100
AcDbEntity
  8
Ｓ_１_１
  6
CONTINUOUS
 62
     3
100
AcDbLine
 10
1232.35015886165
 20
411.4995520043595
 30
0.0
 11
1232.350161931161
 21
399.9995520043599
 31
0.0
  0
LINE
  5
342
330
1F
100
AcDbEntity
  8
Ｓ_１_１
  6
CONTINUOUS
 62
     3
100
AcDbLine
 10
1232.350161931161
 20
399.9995520043599
 30
0.0
 11
1232.350165000673
 21
388.4995520043603
 31
0.0
  0
LINE
  5
343
330
1F
100
AcDbEntity
  8
Ｓ_１_１
  6
CONTINUOUS
 62
     3
100
AcDbLine
 10
1264.350165267586
 20
387.499560545611
 30
0.0
 11
1248.850165267587
 21
387.4995564084427
 31
0.0
  0
LINE
  5
344
330
1F
100
AcDbEntity
  8
Ｓ_１_１
  6
CONTINUOUS
 62
     3
100
AcDbLine
 10
1175.7000402863
 20
398.4056280911345
 30
0.0
 11
1175.700039485558
 21
401.4056280911345
 31
0.0
  0
LINE
  5
345
330
1F
100
AcDbEntity
  8
Ｓ_１_１
  6
CONTINUOUS
 62
     3
100
AcDbLine
 10
1178.700038417836
 20
405.4058730324761
 30
0.0
 11
1187.700160488136
 21
405.4058754347355
 31
0.0
  0
LINE
  5
346
330
1F
100
AcDbEntity
  8
Ｓ_１_１
  6
CONTINUOUS
 62
     3
100
AcDbLine
 10
1187.699924029459
 20
405.4054175910722
 30
0.0
 11
1191.199894442066
 21
408.9053901670643
 31
0.0
  0
LINE
  5
347
330
1F
100
AcDbEntity
  8
Ｓ_１_１
  6
CONTINUOUS
 62
     3
100
AcDbLine
 10
1191.200019241152
 20
390.9056434552969
 30
0.0
 11
1187.700133276984
 21
394.4055278462282
 31
0.0
  0
LINE
  5
348
330
1F
100
AcDbEntity
  8
Ｓ_１_１
  6
CONTINUOUS
 62
     3
100
AcDbLine
 10
1207.200080659785
 20
388.1555737682386
 30
0.0
 11
1206.700041894421
 21
388.6556008441715
 31
0.0
  0
LINE
  5
349
330
1F
100
AcDbEntity
  8
Ｓ_１_１
  6
CONTINUOUS
 62
     3
100
AcDbLine
 10
1206.699966985813
 20
411.1553811823517
 30
0.0
 11
1207.19991343517
 21
411.655327898595
 31
0.0
  0
LINE
  5
34A
330
1F
100
AcDbEntity
  8
Ｓ_１_１
  6
CONTINUOUS
 62
     3
100
AcDbLine
 10
1194.700159954373
 20
407.4056331625344
 30
0.0
 11
1196.200037884073
 21
407.4056335628729
 31
0.0
  0
LINE
  5
34B
330
1F
100
AcDbEntity
  8
Ｓ_１_１
  6
CONTINUOUS
 62
     3
100
AcDbLine
 10
1194.700163958084
 20
392.4056331625349
 30
0.0
 11
1196.200041887784
 21
392.4056335628734
 31
0.0
  0
LINE
  5
34C
330
1F
100
AcDbEntity
  8
Ｓ_１_１
  6
CONTINUOUS
 62
     3
100
AcDbLine
 10
1197.700164358455
 20
390.9056339632772
 30
0.0
 11
1197.700159554002
 21
408.9056339632766
 31
0.0
  0
LINE
  5
34D
330
1F
100
AcDbEntity
  8
Ｓ_１_１
  6
CONTINUOUS
 62
     3
100
AcDbLine
 10
1207.200165092469
 20
388.1556364989612
 30
0.0
 11
1207.200158819923
 21
411.6558806395598
 31
0.0
  0
LINE
  5
34E
330
1F
100
AcDbEntity
  8
Ｓ_１_１
  6
CONTINUOUS
 62
     3
100
AcDbLine
 10
1196.200137795317
 20
407.4054655839994
 30
0.0
 11
1197.700149776943
 21
408.9054784928746
 31
0.0
  0
LINE
  5
34F
330
1F
100
AcDbEntity
  8
Ｓ_１_１
  6
CONTINUOUS
 62
     3
100
AcDbLine
 10
1197.700015625852
 20
390.9056449163377
 30
0.0
 11
1196.200002843478
 21
392.405657024363
 31
0.0
  0
LINE
  5
350
330
1F
100
AcDbEntity
  8
Ｓ_１_１
  6
CONTINUOUS
 62
     3
100
AcDbLine
 10
1193.200042288155
 20
390.9056327621312
 30
0.0
 11
1193.200037483702
 21
408.9056327621306
 31
0.0
  0
LINE
  5
351
330
1F
100
AcDbEntity
  8
Ｓ_１_１
  6
CONTINUOUS
 62
     3
100
AcDbLine
 10
1194.69998702688
 20
407.4056085056885
 30
0.0
 11
1193.199974244505
 21
408.9056206137138
 31
0.0
  0
LINE
  5
352
330
1F
100
AcDbEntity
  8
Ｓ_１_１
  6
CONTINUOUS
 62
     3
100
AcDbLine
 10
1193.200031687667
 20
390.9055867099278
 30
0.0
 11
1194.700043669293
 21
392.405599618703
 31
0.0
  0
LINE
  5
353
330
1F
100
AcDbEntity
  8
Ｓ_１_１
  6
CONTINUOUS
 62
     3
100
AcDbLine
 10
1197.700164358455
 20
390.9056339632772
 30
0.0
 11
1206.700042288155
 21
390.9056363654714
 31
0.0
  0
LINE
  5
354
330
1F
100
AcDbEntity
  8
Ｓ_１_１
  6
CONTINUOUS
 62
     3
100
AcDbLine
 10
1197.700159554002
 20
408.9056339632766
 30
0.0
 11
1206.700037483701
 21
408.9056363654707
 31
0.0
  0
LINE
  5
355
330
1F
100
AcDbEntity
  8
Ｓ_１_１
  6
CONTINUOUS
 62
     3
100
AcDbLine
 10
1191.200042288155
 20
390.9056322283031
 30
0.0
 11
1191.200037483702
 21
408.9056322283025
 31
0.0
  0
LINE
  5
356
330
1F
100
AcDbEntity
  8
Ｓ_１_１
  6
CONTINUOUS
 62
     3
100
AcDbLine
 10
1194.700163958084
 20
392.4056331625349
 30
0.0
 11
1194.700159954373
 21
407.4056331625344
 31
0.0
  0
LINE
  5
357
330
1F
100
AcDbEntity
  8
Ｓ_１_１
  6
CONTINUOUS
 62
     3
100
AcDbLine
 10
1196.200041887784
 20
392.4056335628734
 30
0.0
 11
1196.200037884073
 21
407.4056335628729
 31
0.0
  0
LINE
  5
358
330
1F
100
AcDbEntity
  8
Ｓ_１_１
  6
CONTINUOUS
 62
     3
100
AcDbLine
 10
1177.700048032567
 20
396.4054818637646
 30
0.0
 11
1175.700002217227
 21
398.4055266114245
 31
0.0
  0
LINE
  5
359
330
1F
100
AcDbEntity
  8
Ｓ_１_１
  6
CONTINUOUS
 62
     3
100
AcDbLine
 10
1175.699828783025
 20
401.405378741878
 30
0.0
 11
1177.699787214007
 21
403.4053382404957
 31
0.0
  0
LINE
  5
35A
330
1F
100
AcDbEntity
  8
Ｓ_１_１
  6
CONTINUOUS
 62
     3
100
AcDbLine
 10
1177.700163157278
 20
395.4058727655949
 30
0.0
 11
1177.700160755116
 21
404.4056286249952
 31
0.0
  0
LINE
  5
35B
330
1F
100
AcDbEntity
  8
Ｓ_１_１
  6
CONTINUOUS
 62
     3
100
AcDbLine
 10
1215.700043088832
 20
387.9058829082977
 30
0.0
 11
1215.700036682959
 21
411.9056387676974
 31
0.0
  0
LINE
  5
35C
330
1F
100
AcDbEntity
  8
Ｓ_１_１
  6
CONTINUOUS
 62
     3
100
AcDbLine
 10
1216.771820928108
 20
386.0491937412707
 30
0.0
 11
1221.628388310908
 21
386.049195037557
 31
0.0
  0
LINE
  5
35D
330
1F
100
AcDbEntity
  8
Ｓ_１_１
  6
CONTINUOUS
 62
     3
100
AcDbLine
 10
1216.771819078803
 20
392.977660538171
 30
0.0
 11
1221.628264391303
 21
392.9776618344246
 31
0.0
  0
LINE
  5
35E
330
1F
100
AcDbEntity
  8
Ｓ_１_１
  6
CONTINUOUS
 62
     3
100
AcDbLine
 10
1216.771815380322
 20
406.8341058506705
 30
0.0
 11
1221.628260692822
 21
406.8341071469241
 31
0.0
  0
LINE
  5
35F
330
1F
100
AcDbEntity
  8
Ｓ_１_１
  6
CONTINUOUS
 62
     3
100
AcDbLine
 10
1216.771813531147
 20
413.7620843662697
 30
0.0
 11
1221.628258843647
 21
413.7620856625234
 31
0.0
  0
LINE
  5
360
330
1F
100
AcDbEntity
  8
Ｓ_１_１
  6
CONTINUOUS
 62
     3
100
AcDbLine
 10
1216.771779905219
 20
386.0491537300595
 30
0.0
 11
1215.700002065927
 21
387.9055262244873
 31
0.0
  0
LINE
  5
361
330
1F
100
AcDbEntity
  8
Ｓ_１_１
  6
CONTINUOUS
 62
     3
100
AcDbLine
 10
1222.700033818764
 20
411.9056173107957
 30
0.0
 11
1221.628255979472
 21
413.7619898052226
 31
0.0
  0
LINE
  5
362
330
1F
100
AcDbEntity
  8
Ｓ_１_１
  6
CONTINUOUS
 62
     3
100
AcDbLine
 10
1215.700115670488
 20
411.9055281109187
 30
0.0
 11
1216.771892518696
 21
413.7619011774905
 31
0.0
  0
LINE
  5
363
330
1F
100
AcDbEntity
  8
Ｓ_１_１
  6
CONTINUOUS
 62
     3
100
AcDbLine
 10
1221.628277670925
 20
386.0491287300267
 30
0.0
 11
1222.700054519133
 21
387.9055017965004
 31
0.0
  0
LINE
  5
364
330
1F
100
AcDbEntity
  8
Ｓ_１_１
  6
CONTINUOUS
 62
     3
100
AcDbLine
 10
1207.200165092469
 20
388.1556364989612
 30
0.0
 11
1215.700043022168
 21
388.1556387676983
 31
0.0
  0
LINE
  5
365
330
1F
100
AcDbEntity
  8
Ｓ_１_１
  6
CONTINUOUS
 62
     3
100
AcDbLine
 10
1207.200158819923
 20
411.6558806395598
 30
0.0
 11
1215.700036749622
 21
411.6558829082969
 31
0.0
  0
LINE
  5
366
330
1F
100
AcDbEntity
  8
Ｓ_１_１
  6
CONTINUOUS
 62
     3
100
AcDbLine
 10
1206.700042888712
 20
388.6556363654715
 30
0.0
 11
1206.700036883145
 21
411.1556363654706
 31
0.0
  0
LINE
  5
367
330
1F
100
AcDbEntity
  8
Ｓ_１_１
  6
CONTINUOUS
 62
     3
100
AcDbLine
 10
1191.200037483702
 20
408.9056322283025
 30
0.0
 11
1193.200037483702
 21
408.9056327621306
 31
0.0
  0
LINE
  5
368
330
1F
100
AcDbEntity
  8
Ｓ_１_１
  6
CONTINUOUS
 62
     3
100
AcDbLine
 10
1191.200042288155
 20
390.9056322283031
 30
0.0
 11
1193.200042288155
 21
390.9056327621312
 31
0.0
  0
LINE
  5
369
330
1F
100
AcDbEntity
  8
Ｓ_１_１
  6
CONTINUOUS
 62
     3
100
AcDbLine
 10
1187.700163424256
 20
394.4056312941363
 30
0.0
 11
1187.700160488136
 21
405.4058754347355
 31
0.0
  0
LINE
  5
36A
330
1F
100
AcDbEntity
  8
Ｓ_１_１
  6
CONTINUOUS
 62
     3
100
AcDbLine
 10
1178.700041353957
 20
394.405628891877
 30
0.0
 11
1187.700163424256
 21
394.4056312941363
 31
0.0
  0
LINE
  5
36B
330
1F
100
AcDbEntity
  8
Ｓ_１_１
  6
CONTINUOUS
 62
     3
100
AcDbLine
 10
1222.700165159132
 20
387.9058847767289
 30
0.0
 11
1222.700158753259
 21
411.9056406361285
 31
0.0
  0
ARC
  5
36C
330
1F
100
AcDbEntity
  8
Ｓ_１_１
  6
CONTINUOUS
 62
     3
100
AcDbCircle
 10
1178.700038684816
 20
404.4056288918766
 30
0.0
 40
1.0
100
AcDbArc
 50
90.00001278855827
 51
179.9999904767488
  0
ARC
  5
36D
330
1F
100
AcDbEntity
  8
Ｓ_１_１
  6
CONTINUOUS
 62
     3
100
AcDbCircle
 10
1216.566125979167
 20
410.2979729832692
 30
0.0
 40
6.1339254379
100
AcDbArc
 50
325.615426657551
 51
34.38458867424951
  0
ARC
  5
36E
330
1F
100
AcDbEntity
  8
Ｓ_１_１
  6
CONTINUOUS
 62
     3
100
AcDbCircle
 10
1199.772183440528
 20
399.9056345163286
 30
0.0
 40
22.92794227600001
100
AcDbArc
 50
342.4118385436506
 51
17.58813239195015
  0
ARC
  5
36F
330
1F
100
AcDbEntity
  8
Ｓ_１_１
  6
CONTINUOUS
 62
     3
100
AcDbCircle
 10
1221.834075862823
 20
389.5135505612581
 30
0.0
 40
6.1339254379
100
AcDbArc
 50
145.6153838552502
 51
214.3845356266499
  0
ARC
  5
370
330
1F
100
AcDbEntity
  8
Ｓ_１_１
  6
CONTINUOUS
 62
     3
100
AcDbCircle
 10
1178.700041086977
 20
395.4058730324764
 30
0.0
 40
1.0
100
AcDbArc
 50
179.9999904767488
 51
269.9999929812436
  0
ARC
  5
371
330
1F
100
AcDbEntity
  8
Ｓ_１_１
  6
CONTINUOUS
 62
     3
100
AcDbCircle
 10
1216.566131526823
 20
389.5135491551695
 30
0.0
 40
6.1339254379
100
AcDbArc
 50
325.6154129971507
 51
34.3845750139499
  0
ARC
  5
372
330
1F
100
AcDbEntity
  8
Ｓ_１_１
  6
CONTINUOUS
 62
     3
100
AcDbCircle
 10
1238.628018401527
 20
399.9056448874983
 30
0.0
 40
22.9279384613
100
AcDbArc
 50
162.4118708733504
 51
197.5881783820502
  0
ARC
  5
373
330
1F
100
AcDbEntity
  8
Ｓ_１_１
  6
CONTINUOUS
 62
     3
100
AcDbCircle
 10
1221.834070315167
 20
410.2979743893577
 30
0.0
 40
6.1339254379
100
AcDbArc
 50
145.6154521570501
 51
214.3846039285503
  0
LINE
  5
374
330
1F
100
AcDbEntity
  8
Ｓ_１_１
  6
CONTINUOUS
 62
     3
100
AcDbLine
 10
1269.35015988885
 20
407.6511243801808
 30
0.0
 11
1267.782681936161
 21
408.5561076402723
 31
0.0
  0
LINE
  5
375
330
1F
100
AcDbEntity
  8
Ｓ_１_１
  6
CONTINUOUS
 62
     3
100
AcDbLine
 10
1267.782681936158
 20
408.5561076402688
 30
0.0
 11
1267.782686503883
 21
391.4430152833277
 31
0.0
  0
LINE
  5
376
330
1F
100
AcDbEntity
  8
Ｓ_１_１
  6
CONTINUOUS
 62
     3
100
AcDbLine
 10
1267.782686503883
 20
391.4430152833294
 30
0.0
 11
1269.35016397347
 21
392.3479993801814
 31
0.0
  0
LINE
  5
377
330
1F
100
AcDbEntity
  8
Ｓ_１_１
  6
CONTINUOUS
 62
     3
100
AcDbLine
 10
1269.35015988885
 20
407.6511243801812
 30
0.0
 11
1269.35016397347
 21
392.3479993801827
 31
0.0
  0
LINE
  5
378
330
1F
100
AcDbEntity
  8
Ｓ_１_１
  6
CONTINUOUS
 62
     3
100
AcDbLine
 10
1228.350159888852
 20
407.6511134367034
 30
0.0
 11
1229.917637358436
 21
408.5560975335588
 31
0.0
  0
LINE
  5
379
330
1F
100
AcDbEntity
  8
Ｓ_１_１
  6
CONTINUOUS
 62
     3
100
AcDbLine
 10
1229.917637358439
 20
408.5560975335552
 30
0.0
 11
1229.917641926164
 21
391.4430051766141
 31
0.0
  0
LINE
  5
37A
330
1F
100
AcDbEntity
  8
Ｓ_１_１
  6
CONTINUOUS
 62
     3
100
AcDbLine
 10
1229.917641926164
 20
391.4430051766158
 30
0.0
 11
1228.350163973471
 21
392.3479884367039
 31
0.0
  0
LINE
  5
37B
330
1F
100
AcDbEntity
  8
Ｓ_１_１
  6
CONTINUOUS
 62
     3
100
AcDbLine
 10
1228.350159888852
 20
407.6511134367037
 30
0.0
 11
1228.350163973472
 21
392.3479884367053
 31
0.0
  0
LINE
  5
37C
330
1F
100
AcDbEntity
  8
Ｓ_１_１
  6
CONTINUOUS
 62
     3
100
AcDbLine
 10
1222.700159707501
 20
408.3305494286392
 30
0.0
 11
1232.350159627009
 21
408.6321145043602
 31
0.0
  0
LINE
  5
37D
330
1F
100
AcDbEntity
  8
Ｓ_１_１
  6
CONTINUOUS
 62
     3
100
AcDbLine
 10
1222.700159935979
 20
407.4745494286393
 30
0.0
 11
1228.350159888852
 21
407.6511134367037
 31
0.0
  0
LINE
  5
37E
330
1F
100
AcDbEntity
  8
Ｓ_１_１
  6
CONTINUOUS
 62
     3
100
AcDbLine
 10
1222.700163926345
 20
392.5245494286406
 30
0.0
 11
1228.350163973472
 21
392.3479884367053
 31
0.0
  0
LINE
  5
37F
330
1F
100
AcDbEntity
  8
Ｓ_１_１
  6
CONTINUOUS
 62
     3
100
AcDbLine
 10
1222.700164154823
 20
391.6685494286407
 30
0.0
 11
1232.350164235314
 21
391.3669895043617
 31
0.0
  0
LINE
  5
380
330
1F
100
AcDbEntity
  8
Ｓ_１_１
  6
CONTINUOUS
 62
     3
100
AcDbLine
 10
1275.000159935976
 20
407.4745633882458
 30
0.0
 11
1269.35015988885
 21
407.6511243801812
 31
0.0
  0
LINE
  5
381
330
1F
100
AcDbEntity
  8
Ｓ_１_１
  6
CONTINUOUS
 62
     3
100
AcDbLine
 10
1275.000163926341
 20
392.5245633882471
 30
0.0
 11
1269.35016397347
 21
392.3479993801827
 31
0.0
  0
CIRCLE
  5
382
330
1F
100
AcDbEntity
  8
Ｓ_１_１
  6
CONTINUOUS
 62
     3
100
AcDbCircle
 10
1248.850161931161
 20
399.9995564084423
 30
0.0
 40
4.25
  0
CIRCLE
  5
383
330
1F
100
AcDbEntity
  8
Ｓ_１_１
  6
CONTINUOUS
 62
     3
100
AcDbCircle
 10
1248.850161931161
 20
399.9995564084423
 30
0.0
 40
5.0
  0
CIRCLE
  5
384
330
1F
100
AcDbEntity
  8
Ｓ_１_１
  6
CONTINUOUS
 62
     3
100
AcDbCircle
 10
1248.850161931161
 20
399.9995564084423
 30
0.0
 40
10.0
  0
CIRCLE
  5
385
330
1F
100
AcDbEntity
  8
Ｓ_１_１
  6
CONTINUOUS
 62
     3
100
AcDbCircle
 10
1248.850161931161
 20
399.9995564084423
 30
0.0
 40
9.014237562572454
  0
CIRCLE
  5
386
330
1F
100
AcDbEntity
  8
Ｓ_１_１
  6
CONTINUOUS
 62
     3
100
AcDbCircle
 10
1248.850161931161
 20
399.9995564084423
 30
0.0
 40
8.0
  0
POLYLINE
  5
387
330
1F
100
AcDbEntity
  8
Ｓ_１_１
  6
CONTINUOUS
 62
     3
100
AcDb2dPolyline
 66
     1
 10
0.0
 20
0.0
 30
0.0
 70
   128
  0
VERTEX
  5
388
330
387
100
AcDbEntity
  8
Ｓ_１_１
  6
CONTINUOUS
 62
     3
100
AcDbVertex
100
AcDb2dVertex
 10
1258.087766238194
 20
399.9995588740759
 30
0.0
  0
VERTEX
  5
389
330
387
100
AcDbEntity
  8
Ｓ_１_１
  6
CONTINUOUS
 62
     3
100
AcDbVertex
100
AcDb2dVertex
 10
1253.468966219979
 20
391.9995576412595
 30
0.0
  0
VERTEX
  5
38A
330
387
100
AcDbEntity
  8
Ｓ_１_１
  6
CONTINUOUS
 62
     3
100
AcDbVertex
100
AcDb2dVertex
 10
1244.231361912945
 20
391.999555175626
 30
0.0
  0
VERTEX
  5
38B
330
387
100
AcDbEntity
  8
Ｓ_１_１
  6
CONTINUOUS
 62
     3
100
AcDbVertex
100
AcDb2dVertex
 10
1239.612557624127
 20
399.999553942809
 30
0.0
  0
VERTEX
  5
38C
330
387
100
AcDbEntity
  8
Ｓ_１_１
  6
CONTINUOUS
 62
     3
100
AcDbVertex
100
AcDb2dVertex
 10
1244.231357642343
 20
407.9995551756255
 30
0.0
  0
VERTEX
  5
38D
330
387
100
AcDbEntity
  8
Ｓ_１_１
  6
CONTINUOUS
 62
     3
100
AcDbVertex
100
AcDb2dVertex
 10
1253.468961949377
 20
407.9995576412588
 30
0.0
  0
VERTEX
  5
38E
330
387
100
AcDbEntity
  8
Ｓ_１_１
  6
CONTINUOUS
 62
     3
100
AcDbVertex
100
AcDb2dVertex
 10
1258.087766238194
 20
399.9995588740759
 30
0.0
  0
SEQEND
  5
38F
330
387
100
AcDbEntity
  8
Ｓ_１_１
  6
CONTINUOUS
 62
     3
  0
CIRCLE
  5
390
330
1F
100
AcDbEntity
  8
Ｓ_１_１
  6
CONTINUOUS
 62
     3
100
AcDbCircle
 10
1248.850161931161
 20
399.9995564084423
 30
0.0
 40
2.852931278995302
  0
POLYLINE
  5
391
330
1F
100
AcDbEntity
  8
Ｓ_１_１
  6
CONTINUOUS
 62
     3
100
AcDb2dPolyline
 66
     1
 10
0.0
 20
0.0
 30
0.0
 70
   128
  0
VERTEX
  5
392
330
391
100
AcDbEntity
  8
Ｓ_１_１
  6
CONTINUOUS
 62
     3
100
AcDbVertex
100
AcDb2dVertex
 10
1252.144443214981
 20
399.9995572877209
 30
0.0
  0
VERTEX
  5
393
330
391
100
AcDbEntity
  8
Ｓ_１_１
  6
CONTINUOUS
 62
     3
100
AcDbVertex
100
AcDb2dVertex
 10
1250.497303334549
 20
397.1466255690817
 30
0.0
  0
VERTEX
  5
394
330
391
100
AcDbEntity
  8
Ｓ_１_１
  6
CONTINUOUS
 62
     3
100
AcDbVertex
100
AcDb2dVertex
 10
1247.203022050728
 20
397.1466246898031
 30
0.0
  0
VERTEX
  5
395
330
391
100
AcDbEntity
  8
Ｓ_１_１
  6
CONTINUOUS
 62
     3
100
AcDbVertex
100
AcDb2dVertex
 10
1245.55588064734
 20
399.9995555291639
 30
0.0
  0
VERTEX
  5
396
330
391
100
AcDbEntity
  8
Ｓ_１_１
  6
CONTINUOUS
 62
     3
100
AcDbVertex
100
AcDb2dVertex
 10
1247.203020527773
 20
402.8524872478032
 30
0.0
  0
VERTEX
  5
397
330
391
100
AcDbEntity
  8
Ｓ_１_１
  6
CONTINUOUS
 62
     3
100
AcDbVertex
100
AcDb2dVertex
 10
1250.497301811594
 20
402.8524881270816
 30
0.0
  0
VERTEX
  5
398
330
391
100
AcDbEntity
  8
Ｓ_１_１
  6
CONTINUOUS
 62
     3
100
AcDbVertex
100
AcDb2dVertex
 10
1252.144443214981
 20
399.9995572877209
 30
0.0
  0
SEQEND
  5
399
330
391
100
AcDbEntity
  8
Ｓ_１_１
  6
CONTINUOUS
 62
     3
  0
LINE
  5
39A
330
1F
100
AcDbEntity
  8
Ｓ_１_１
  6
CONTINUOUS
 62
     3
100
AcDbLine
 10
1275.000159707498
 20
408.3305633882458
 30
0.0
 11
1265.350159627008
 21
408.6321233125249
 31
0.0
  0
LINE
  5
39B
330
1F
100
AcDbEntity
  8
Ｓ_１_１
  6
CONTINUOUS
 62
     3
100
AcDbLine
 10
1275.000164154821
 20
391.6685633882472
 30
0.0
 11
1265.350164235313
 21
391.3669983125263
 31
0.0
  0
LINE
  5
39C
330
1F
100
AcDbEntity
  8
Ｓ_１_１
  6
EXLTYPE2
 62
     1
100
AcDbLine
 10
1709.317444584438
 20
538.0000082479722
 30
0.0
 11
1757.391661684839
 21
538.0000082479721
 31
0.0
  0
LINE
  5
39D
330
1F
100
AcDbEntity
  8
Ｓ_１_１
  6
EXLTYPE2
 62
     1
100
AcDbLine
 10
1566.589791445693
 20
412.9999464515026
 30
0.0
 11
1543.749791445694
 21
412.999940355185
 31
0.0
  0
LINE
  5
39E
330
1F
100
AcDbEntity
  8
Ｓ_１_１
  6
EXLTYPE2
 62
     1
100
AcDbLine
 10
1566.789778099977
 20
462.9999877448542
 30
0.0
 11
1543.349778099979
 21
462.9999814883881
 31
0.0
  0
LINE
  5
39F
330
1F
100
AcDbEntity
  8
Ｓ_１_１
  6
EXLTYPE2
 62
     1
100
AcDbLine
 10
1555.000030273463
 20
424.3599884003675
 30
0.0
 11
1555.000033284254
 21
401.7999877918038
 31
0.0
  0
LINE
  5
3A0
330
1F
100
AcDbEntity
  8
Ｓ_１_１
  6
EXLTYPE2
 62
     1
100
AcDbLine
 10
1555.000023408434
 20
475.7999876316539
 30
0.0
 11
1555.000026686138
 21
451.2399885818685
 31
0.0
  0
LINE
  5
3A1
330
1F
100
AcDbEntity
  8
Ｓ_１_１
  6
EXLTYPE2
 62
     1
100
AcDbLine
 10
1682.988113204239
 20
559.9727014758578
 30
0.0
 11
1682.988125295447
 21
514.6727014758595
 31
0.0
  0
LINE
  5
3A2
330
1F
100
AcDbEntity
  8
Ｓ_１_１
  6
EXLTYPE2
 62
     1
100
AcDbLine
 10
1664.37262033363
 20
537.9999208996753
 30
0.0
 11
1701.87262057664
 21
537.999901591841
 31
0.0
  0
LINE
  5
3A3
330
1F
100
AcDbEntity
  8
Ｓ_１_１
  6
EXLTYPE2
 62
     1
100
AcDbLine
 10
1330.682585630374
 20
537.999957716485
 30
0.0
 11
1282.608368529975
 21
537.9999448847996
 31
0.0
  0
LINE
  5
3A4
330
1F
100
AcDbEntity
  8
Ｓ_１_１
  6
EXLTYPE2
 62
     1
100
AcDbLine
 10
1473.41027213339
 20
412.9999340160398
 30
0.0
 11
1496.25027213339
 21
412.9999340160398
 31
0.0
  0
LINE
  5
3A5
330
1F
100
AcDbEntity
  8
Ｓ_１_１
  6
EXLTYPE2
 62
     1
100
AcDbLine
 10
1473.21027213339
 20
462.9999752560104
 30
0.0
 11
1496.65027213339
 21
462.9999752560103
 31
0.0
  0
LINE
  5
3A6
330
1F
100
AcDbEntity
  8
Ｓ_１_１
  6
EXLTYPE2
 62
     1
100
AcDbLine
 10
1485.000030273464
 20
424.3599790583748
 30
0.0
 11
1485.000033284255
 21
401.799978449811
 31
0.0
  0
LINE
  5
3A7
330
1F
100
AcDbEntity
  8
Ｓ_１_１
  6
EXLTYPE2
 62
     1
100
AcDbLine
 10
1485.000023408434
 20
475.7999782896611
 30
0.0
 11
1485.000026686138
 21
451.2399792398758
 31
0.0
  0
LINE
  5
3A8
330
1F
100
AcDbEntity
  8
Ｓ_１_１
  6
EXLTYPE2
 62
     1
100
AcDbLine
 10
1357.01191114575
 20
559.9726579720391
 30
0.0
 11
1357.01191114575
 21
514.6726579720391
 31
0.0
  0
LINE
  5
3A9
330
1F
100
AcDbEntity
  8
Ｓ_１_１
  6
EXLTYPE2
 62
     1
100
AcDbLine
 10
1375.627409881203
 20
537.9998823645944
 30
0.0
 11
1338.1274096382
 21
537.999853047482
 31
0.0
  0
LINE
  5
3AA
330
1F
100
AcDbEntity
  8
Ｓ_１_１
  6
EXLTYPE2
 62
     1
100
AcDbLine
 10
1520.000000000053
 20
651.2001008401296
 30
0.0
 11
1520.000056823176
 21
225.4217116897065
 31
0.0
  0
LINE
  5
3AB
330
1F
100
AcDbEntity
  8
Ｓ_１_１
  6
EXLTYPE2
 62
     1
100
AcDbLine
 10
1175.700039859535
 20
400.0045138432945
 30
0.0
 11
1175.700039885929
 21
399.9056280911345
 31
0.0
  0
LINE
  5
3AC
330
1F
100
AcDbEntity
  8
Ｓ_１_１
  6
EXLTYPE2
 62
     1
100
AcDbLine
 10
1175.700039833141
 20
400.1033995954546
 30
0.0
 11
1175.700039885929
 21
399.9056280911345
 31
0.0
  0
LINE
  5
3AD
330
1F
100
AcDbEntity
  8
Ｓ_１_１
  6
EXLTYPE2
 62
     1
100
AcDbLine
 10
1177.700162010207
 20
399.7034001293152
 30
0.0
 11
1177.700161956197
 21
399.9057506952952
 31
0.0
  0
LINE
  5
3AE
330
1F
100
AcDbEntity
  8
Ｓ_１_１
  6
EXLTYPE2
 62
     1
100
AcDbLine
 10
1248.850157687227
 20
415.8995564084519
 30
0.0
 11
1248.850165956185
 21
384.919707111933
 31
0.0
  0
LINE
  5
3AF
330
1F
100
AcDbEntity
  8
Ｓ_１_１
  6
EXLTYPE2
 62
     1
100
AcDbLine
 10
1288.500165054077
 20
399.9995669915809
 30
0.0
 11
1169.900054450263
 21
399.9995353355264
 31
0.0
  0
LINE
  5
3B0
330
1F
100
AcDbEntity
  8
Ｓ_１_１
  6
EXLTYPE2
 62
     1
100
AcDbLine
 10
1288.500185072618
 20
324.9997320095598
 30
0.0
 11
1182.199968952273
 21
324.9997036365259
 31
0.0
  0
LINE
  5
3B1
330
1F
100
AcDbEntity
  8
Ｓ_１_１
  6
EXLTYPE2
 62
     1
100
AcDbLine
 10
1288.500150907564
 20
452.9999043566147
 30
0.0
 11
1267.075162034505
 21
452.9998986379834
 31
0.0
  0
LINE
  5
3B2
330
1F
100
AcDbEntity
  8
Ｓ_１_１
  6
EXLTYPE2
 62
     1
100
AcDbLine
 10
1540.000028453099
 20
437.9998927760201
 30
0.0
 11
1500.000028453101
 21
437.9998927760201
 31
0.0
  0
DIMENSION
  5
3B3
330
1F
100
AcDbEntity
  8
Ｓ_１_１
  6
CONTINUOUS
 62
     2
100
AcDbDimension
  2
*D25
 10
919.99979079492
 20
880.0
 30
0.0
 11
680.0
 21
893.75
 31
0.0
 70
   160
  3
ISO-25
100
AcDbAlignedDimension
 13
440.0002092050801
 23
1229.99992783
 33
0.0
 14
919.99979079492
 24
1229.99992783
 34
0.0
100
AcDbRotatedDimension
1001
ACAD
1000
DSTYLE
1002
{
1070
   270
1070
     2
1070
     6
1000
EX_NORM
1070
     7
1000
EX_NORM
1070
    41
1040
15.0
1070
    42
1040
7.5
1070
    44
1040
5.0
1070
    73
1070
     0
1070
    74
1070
     0
1070
    75
1070
     0
1070
    76
1070
     0
1070
    77
1070
     1
1070
    78
1070
     8
1070
   140
1040
17.3145207852194
1070
   147
1040
0.0
1070
   173
1070
     1
1070
   176
1070
     2
1070
   177
1070
     2
1070
   178
1070
     2
1070
   271
1070
     2
1070
   277
1070
     2
1070
   279
1070
     2
1070
   280
1070
     0
1070
   287
1070
     5
1070
   340
1005
1D3
1002
}
  0
DIMENSION
  5
3C0
330
1F
100
AcDbEntity
  8
Ｓ_１_１
  6
CONTINUOUS
 62
     2
100
AcDbDimension
  2
*D26
 10
995.99977759634
 20
840.0
 30
0.0
 11
680.0
 21
853.75
 31
0.0
 70
   160
  3
ISO-25
100
AcDbAlignedDimension
 13
364.00022240366
 23
1271.9996519348
 33
0.0
 14
995.99977759634
 24
1271.9996519348
 34
0.0
100
AcDbRotatedDimension
1001
ACAD
1000
DSTYLE
1002
{
1070
   270
1070
     2
1070
     6
1000
EX_NORM
1070
     7
1000
EX_NORM
1070
    41
1040
15.0
1070
    42
1040
7.5
1070
    44
1040
5.0
1070
    73
1070
     0
1070
    74
1070
     0
1070
    75
1070
     0
1070
    76
1070
     0
1070
    77
1070
     1
1070
    78
1070
     8
1070
   140
1040
17.3145207852194
1070
   147
1040
0.0
1070
   173
1070
     1
1070
   176
1070
     2
1070
   177
1070
     2
1070
   178
1070
     2
1070
   271
1070
     2
1070
   277
1070
     2
1070
   279
1070
     2
1070
   280
1070
     0
1070
   287
1070
     5
1070
   340
1005
1D3
1002
}
  0
DIMENSION
  5
3CD
330
1F
100
AcDbEntity
  8
Ｓ_１_１
  6
CONTINUOUS
 62
     2
100
AcDbDimension
  2
*D27
 10
364.00022240366
 20
880.0
 30
0.0
 11
402.0002158043702
 21
893.75
 31
0.0
 70
   160
  3
ISO-25
100
AcDbAlignedDimension
 13
440.0002092050801
 23
1229.99992783
 33
0.0
 14
364.00022240366
 24
1271.9996519348
 34
0.0
100
AcDbRotatedDimension
1001
ACAD
1000
DSTYLE
1002
{
1070
   270
1070
     2
1070
     6
1000
EX_NORM
1070
     7
1000
EX_NORM
1070
    41
1040
15.0
1070
    42
1040
7.5
1070
    44
1040
5.0
1070
    73
1070
     0
1070
    74
1070
     0
1070
    75
1070
     0
1070
    76
1070
     0
1070
    77
1070
     1
1070
    78
1070
     8
1070
   140
1040
17.3145207852194
1070
   147
1040
0.0
1070
   173
1070
     1
1070
   176
1070
     2
1070
   177
1070
     2
1070
   178
1070
     2
1070
   271
1070
     2
1070
   277
1070
     2
1070
   279
1070
     2
1070
   280
1070
     0
1070
   287
1070
     5
1070
   340
1005
1D3
1002
}
  0
DIMENSION
  5
3DA
330
1F
100
AcDbEntity
  8
Ｓ_１_１
  6
CONTINUOUS
 62
     2
100
AcDbDimension
  2
*D28
 10
995.99977759634
 20
880.0
 30
0.0
 11
957.99978419563
 21
893.75
 31
0.0
 70
   160
  3
ISO-25
100
AcDbAlignedDimension
 13
919.99979079492
 23
1229.99992783
 33
0.0
 14
995.99977759634
 24
1271.9996519348
 34
0.0
100
AcDbRotatedDimension
1001
ACAD
1000
DSTYLE
1002
{
1070
   270
1070
     2
1070
     6
1000
EX_NORM
1070
     7
1000
EX_NORM
1070
    41
1040
15.0
1070
    42
1040
7.5
1070
    44
1040
5.0
1070
    73
1070
     0
1070
    74
1070
     0
1070
    75
1070
     0
1070
    76
1070
     0
1070
    77
1070
     1
1070
    78
1070
     8
1070
   140
1040
17.3145207852194
1070
   147
1040
0.0
1070
   173
1070
     1
1070
   176
1070
     2
1070
   177
1070
     2
1070
   178
1070
     2
1070
   271
1070
     2
1070
   277
1070
     2
1070
   279
1070
     2
1070
   280
1070
     0
1070
   287
1070
     5
1070
   340
1005
1D3
1002
}
  0
LINE
  5
3E7
330
1F
100
AcDbEntity
  8
Ｓ_１_１
  6
CONTINUOUS
 62
     3
100
AcDbLine
 10
685.1960816254442
 20
1270.999933191233
 30
0.0
 11
690.3924725506715
 21
1279.999999999985
 31
0.0
  0
LINE
  5
3E8
330
1F
100
AcDbEntity
  8
Ｓ_１_１
  6
CONTINUOUS
 62
     3
100
AcDbLine
 10
674.803918374547
 20
1270.999933191233
 30
0.0
 11
685.1960816254442
 21
1270.999933191233
 31
0.0
  0
LINE
  5
3E9
330
1F
100
AcDbEntity
  8
Ｓ_１_１
  6
CONTINUOUS
 62
     3
100
AcDbLine
 10
669.6076202392535
 20
1279.999999999985
 30
0.0
 11
674.803918374547
 21
1270.999933191233
 31
0.0
  0
LINE
  5
3EA
330
1F
100
AcDbEntity
  8
Ｓ_１_１
  6
CONTINUOUS
 62
     3
100
AcDbLine
 10
413.0001943586906
 20
1235.999910509249
 30
0.0
 11
413.0001943586906
 21
1253.999920406842
 31
0.0
  0
LINE
  5
3EB
330
1F
100
AcDbEntity
  8
Ｓ_１_１
  6
CONTINUOUS
 62
     3
100
AcDbLine
 10
412.0002281754666
 20
1251.99974060057
 30
0.0
 11
413.0001943586906
 21
1253.999920406842
 31
0.0
  0
LINE
  5
3EC
330
1F
100
AcDbEntity
  8
Ｓ_１_１
  6
CONTINUOUS
 62
     3
100
AcDbLine
 10
412.0002281754666
 20
1237.999873805675
 30
0.0
 11
413.0001943586906
 21
1235.999910509249
 31
0.0
  0
LINE
  5
3ED
330
1F
100
AcDbEntity
  8
Ｓ_１_１
  6
CONTINUOUS
 62
     3
100
AcDbLine
 10
413.0001943586906
 20
1235.999910509249
 30
0.0
 11
423.9999460940687
 21
1236.000065159138
 31
0.0
  0
LINE
  5
3EE
330
1F
100
AcDbEntity
  8
Ｓ_１_１
  6
CONTINUOUS
 62
     3
100
AcDbLine
 10
412.0002281754666
 20
1251.99974060057
 30
0.0
 11
412.0002281754666
 21
1237.999873805675
 31
0.0
  0
LINE
  5
3EF
330
1F
100
AcDbEntity
  8
Ｓ_１_１
  6
CONTINUOUS
 62
     3
100
AcDbLine
 10
413.0001943586906
 20
1253.999920406842
 30
0.0
 11
424.0001935338913
 21
1254.000075056731
 31
0.0
  0
LINE
  5
3F0
330
1F
100
AcDbEntity
  8
Ｓ_１_１
  6
CONTINUOUS
 62
     3
100
AcDbLine
 10
364.0001811619002
 20
1271.999651934634
 30
0.0
 11
424.0001935338913
 21
1271.999961234412
 31
0.0
  0
LINE
  5
3F1
330
1F
100
AcDbEntity
  8
Ｓ_１_１
  6
CONTINUOUS
 62
     3
100
AcDbLine
 10
424.0001935338913
 20
1229.999989689992
 30
0.0
 11
440.0002092050802
 21
1229.999927830036
 31
0.0
  0
LINE
  5
3F2
330
1F
100
AcDbEntity
  8
Ｓ_１_１
  6
CONTINUOUS
 62
     3
100
AcDbLine
 10
946.9998056413099
 20
1235.999910509249
 30
0.0
 11
946.9998056413099
 21
1253.999920406842
 31
0.0
  0
LINE
  5
3F3
330
1F
100
AcDbEntity
  8
Ｓ_１_１
  6
CONTINUOUS
 62
     3
100
AcDbLine
 10
947.9997718245338
 20
1251.99974060057
 30
0.0
 11
946.9998056413099
 21
1253.999920406842
 31
0.0
  0
LINE
  5
3F4
330
1F
100
AcDbEntity
  8
Ｓ_１_１
  6
CONTINUOUS
 62
     3
100
AcDbLine
 10
947.9997718245338
 20
1237.999873805675
 30
0.0
 11
946.9998056413099
 21
1235.999910509249
 31
0.0
  0
LINE
  5
3F5
330
1F
100
AcDbEntity
  8
Ｓ_１_１
  6
CONTINUOUS
 62
     3
100
AcDbLine
 10
946.9998056413099
 20
1235.999910509249
 30
0.0
 11
936.0000539059317
 21
1236.000065159138
 31
0.0
  0
LINE
  5
3F6
330
1F
100
AcDbEntity
  8
Ｓ_１_１
  6
CONTINUOUS
 62
     3
100
AcDbLine
 10
947.9997718245338
 20
1251.99974060057
 30
0.0
 11
947.9997718245338
 21
1237.999873805675
 31
0.0
  0
LINE
  5
3F7
330
1F
100
AcDbEntity
  8
Ｓ_１_１
  6
CONTINUOUS
 62
     3
100
AcDbLine
 10
946.9998056413099
 20
1253.999920406842
 30
0.0
 11
935.9998064661092
 21
1254.000075056731
 31
0.0
  0
LINE
  5
3F8
330
1F
100
AcDbEntity
  8
Ｓ_１_１
  6
CONTINUOUS
 62
     3
100
AcDbLine
 10
995.9998188381003
 20
1271.999651934634
 30
0.0
 11
935.9998064661092
 21
1271.999961234412
 31
0.0
  0
LINE
  5
3F9
330
1F
100
AcDbEntity
  8
Ｓ_１_１
  6
CONTINUOUS
 62
     3
100
AcDbLine
 10
935.9998064661092
 20
1229.999989689992
 30
0.0
 11
919.9997907949203
 21
1229.999927830036
 31
0.0
  0
LINE
  5
3FA
330
1F
100
AcDbEntity
  8
Ｓ_１_１
  6
CONTINUOUS
 62
     3
100
AcDbLine
 10
667.5000014432001
 20
993.3501809711801
 30
0.0
 11
668.5000025891001
 21
992.3501799095801
 31
0.0
  0
LINE
  5
3FB
330
1F
100
AcDbEntity
  8
Ｓ_１_１
  6
CONTINUOUS
 62
     3
100
AcDbLine
 10
692.5
 20
1024.35017827508
 30
0.0
 11
667.5
 21
1024.35017827508
 31
0.0
  0
LINE
  5
3FC
330
1F
100
AcDbEntity
  8
Ｓ_１_１
  6
CONTINUOUS
 62
     3
100
AcDbLine
 10
691.5000025183
 20
1025.35017764208
 30
0.0
 11
692.5000008825
 21
1024.35017919358
 31
0.0
  0
LINE
  5
3FD
330
1F
100
AcDbEntity
  8
Ｓ_１_１
  6
CONTINUOUS
 62
     3
100
AcDbLine
 10
692.5
 20
1024.35017827508
 30
0.0
 11
692.5
 21
1008.85017827508
 31
0.0
  0
LINE
  5
3FE
330
1F
100
AcDbEntity
  8
Ｓ_１_１
  6
CONTINUOUS
 62
     3
100
AcDbLine
 10
667.5
 20
993.3501782750801
 30
0.0
 11
667.5
 21
1008.85017827508
 31
0.0
  0
LINE
  5
3FF
330
1F
100
AcDbEntity
  8
Ｓ_１_１
  6
CONTINUOUS
 62
     3
100
AcDbLine
 10
680.0
 20
1025.35017827508
 30
0.0
 11
668.5
 21
1025.35017827508
 31
0.0
  0
LINE
  5
400
330
1F
100
AcDbEntity
  8
Ｓ_１_１
  6
CONTINUOUS
 62
     3
100
AcDbLine
 10
691.5
 20
1025.35017827508
 30
0.0
 11
680.0
 21
1025.35017827508
 31
0.0
  0
LINE
  5
401
330
1F
100
AcDbEntity
  8
Ｓ_１_１
  6
CONTINUOUS
 62
     3
100
AcDbLine
 10
692.5000022734
 20
993.35018004398
 30
0.0
 11
691.5000011275001
 21
992.35017898238
 31
0.0
  0
LINE
  5
402
330
1F
100
AcDbEntity
  8
Ｓ_１_１
  6
CONTINUOUS
 62
     3
100
AcDbLine
 10
692.5
 20
993.3501782750801
 30
0.0
 11
667.5
 21
993.3501782750801
 31
0.0
  0
LINE
  5
403
330
1F
100
AcDbEntity
  8
Ｓ_１_１
  6
CONTINUOUS
 62
     3
100
AcDbLine
 10
692.5
 20
993.3501782750801
 30
0.0
 11
692.5
 21
1008.85017827508
 31
0.0
  0
LINE
  5
404
330
1F
100
AcDbEntity
  8
Ｓ_１_１
  6
CONTINUOUS
 62
     3
100
AcDbLine
 10
668.5000011982002
 20
1025.35017856938
 30
0.0
 11
667.5000001366002
 21
1024.35017742348
 31
0.0
  0
LINE
  5
405
330
1F
100
AcDbEntity
  8
Ｓ_１_１
  6
CONTINUOUS
 62
     3
100
AcDbLine
 10
691.5
 20
992.3501782750801
 30
0.0
 11
680.0
 21
992.3501782750801
 31
0.0
  0
LINE
  5
406
330
1F
100
AcDbEntity
  8
Ｓ_１_１
  6
CONTINUOUS
 62
     3
100
AcDbLine
 10
680.0
 20
992.3501782750801
 30
0.0
 11
668.5
 21
992.3501782750801
 31
0.0
  0
LINE
  5
407
330
1F
100
AcDbEntity
  8
Ｓ_１_１
  6
CONTINUOUS
 62
     3
100
AcDbLine
 10
667.5
 20
1024.35017827508
 30
0.0
 11
667.5
 21
1008.85017827508
 31
0.0
  0
LINE
  5
408
330
1F
100
AcDbEntity
  8
Ｓ_１_１
  6
CONTINUOUS
 62
     3
100
AcDbLine
 10
678.4060912074901
 20
935.7000562047801
 30
0.0
 11
681.4060912074901
 21
935.7000562047801
 31
0.0
  0
LINE
  5
409
330
1F
100
AcDbEntity
  8
Ｓ_１_１
  6
CONTINUOUS
 62
     3
100
AcDbLine
 10
685.4063353480897
 20
938.70005620478
 30
0.0
 11
685.4063353480897
 21
947.7001782750802
 31
0.0
  0
LINE
  5
40A
330
1F
100
AcDbEntity
  8
Ｓ_１_１
  6
CONTINUOUS
 62
     3
100
AcDbLine
 10
685.4058775044896
 20
947.6999418162803
 30
0.0
 11
688.9058491462902
 21
951.1999131630799
 31
0.0
  0
LINE
  5
40B
330
1F
100
AcDbEntity
  8
Ｓ_１_１
  6
CONTINUOUS
 62
     3
100
AcDbLine
 10
670.90610243449
 20
951.20003315778
 30
0.0
 11
674.40598775959
 21
947.7001481277802
 31
0.0
  0
LINE
  5
40C
330
1F
100
AcDbEntity
  8
Ｓ_１_１
  6
CONTINUOUS
 62
     3
100
AcDbLine
 10
668.1560284767901
 20
967.2000938423798
 30
0.0
 11
668.6560556861904
 21
966.70005521048
 31
0.0
  0
LINE
  5
40D
330
1F
100
AcDbEntity
  8
Ｓ_１_１
  6
CONTINUOUS
 62
     3
100
AcDbLine
 10
691.1558360243898
 20
966.6999863073801
 30
0.0
 11
691.6557826071903
 21
967.1999328901802
 31
0.0
  0
LINE
  5
40E
330
1F
100
AcDbEntity
  8
Ｓ_１_１
  6
CONTINUOUS
 62
     3
100
AcDbLine
 10
687.4060912074901
 20
954.7001782750802
 30
0.0
 11
687.4060912074901
 21
956.20005620478
 31
0.0
  0
LINE
  5
40F
330
1F
100
AcDbEntity
  8
Ｓ_１_１
  6
CONTINUOUS
 62
     3
100
AcDbLine
 10
672.4060912074901
 20
954.7001782750802
 30
0.0
 11
672.4060912074901
 21
956.20005620478
 31
0.0
  0
LINE
  5
410
330
1F
100
AcDbEntity
  8
Ｓ_１_１
  6
CONTINUOUS
 62
     3
100
AcDbLine
 10
670.9060912074901
 20
957.7001782750802
 30
0.0
 11
688.9060912074901
 21
957.7001782750802
 31
0.0
  0
LINE
  5
411
330
1F
100
AcDbEntity
  8
Ｓ_１_１
  6
CONTINUOUS
 62
     3
100
AcDbLine
 10
668.1560912074901
 20
967.2001782750802
 30
0.0
 11
691.6563353480897
 21
967.2001782750802
 31
0.0
  0
LINE
  5
412
330
1F
100
AcDbEntity
  8
Ｓ_１_１
  6
CONTINUOUS
 62
     3
100
AcDbLine
 10
687.4059232285899
 20
956.2001561159799
 30
0.0
 11
688.9059357370907
 21
957.7001684979799
 31
0.0
  0
LINE
  5
413
330
1F
100
AcDbEntity
  8
Ｓ_１_１
  6
CONTINUOUS
 62
     3
100
AcDbLine
 10
670.9061021605903
 20
957.7000295424799
 30
0.0
 11
672.4061146689901
 21
956.2000171604803
 31
0.0
  0
LINE
  5
414
330
1F
100
AcDbEntity
  8
Ｓ_１_１
  6
CONTINUOUS
 62
     3
100
AcDbLine
 10
670.9060912074901
 20
953.2000562047801
 30
0.0
 11
688.9060912074901
 21
953.2000562047801
 31
0.0
  0
LINE
  5
415
330
1F
100
AcDbEntity
  8
Ｓ_１_１
  6
CONTINUOUS
 62
     3
100
AcDbLine
 10
687.4060665506904
 20
954.7000053475803
 30
0.0
 11
688.9060790590902
 21
953.1999929655802
 31
0.0
  0
LINE
  5
416
330
1F
100
AcDbEntity
  8
Ｓ_１_１
  6
CONTINUOUS
 62
     3
100
AcDbLine
 10
670.9060451552896
 20
953.20004560428
 30
0.0
 11
672.4060576636903
 21
954.7000579862801
 31
0.0
  0
LINE
  5
417
330
1F
100
AcDbEntity
  8
Ｓ_１_１
  6
CONTINUOUS
 62
     3
100
AcDbLine
 10
670.9060912074901
 20
957.7001782750802
 30
0.0
 11
670.9060912074901
 21
966.70005620478
 31
0.0
  0
LINE
  5
418
330
1F
100
AcDbEntity
  8
Ｓ_１_１
  6
CONTINUOUS
 62
     3
100
AcDbLine
 10
688.9060912074901
 20
957.7001782750802
 30
0.0
 11
688.9060912074901
 21
966.70005620478
 31
0.0
  0
LINE
  5
419
330
1F
100
AcDbEntity
  8
Ｓ_１_１
  6
CONTINUOUS
 62
     3
100
AcDbLine
 10
670.9060912074901
 20
951.20005620478
 30
0.0
 11
688.9060912074901
 21
951.20005620478
 31
0.0
  0
LINE
  5
41A
330
1F
100
AcDbEntity
  8
Ｓ_１_１
  6
CONTINUOUS
 62
     3
100
AcDbLine
 10
672.4060912074901
 20
954.7001782750802
 30
0.0
 11
687.4060912074901
 21
954.7001782750802
 31
0.0
  0
LINE
  5
41B
330
1F
100
AcDbEntity
  8
Ｓ_１_１
  6
CONTINUOUS
 62
     3
100
AcDbLine
 10
672.4060912074901
 20
956.20005620478
 30
0.0
 11
687.4060912074901
 21
956.20005620478
 31
0.0
  0
LINE
  5
41C
330
1F
100
AcDbEntity
  8
Ｓ_１_１
  6
CONTINUOUS
 62
     3
100
AcDbLine
 10
676.4059444462899
 20
937.7000634171799
 30
0.0
 11
678.4059897277903
 21
935.7000181356797
 31
0.0
  0
LINE
  5
41D
330
1F
100
AcDbEntity
  8
Ｓ_１_１
  6
CONTINUOUS
 62
     3
100
AcDbLine
 10
681.4058418582899
 20
935.6998455021802
 30
0.0
 11
683.4058008230904
 21
937.6998044669798
 31
0.0
  0
LINE
  5
41E
330
1F
100
AcDbEntity
  8
Ｓ_１_１
  6
CONTINUOUS
 62
     3
100
AcDbLine
 10
675.4063353480897
 20
937.7001782750802
 30
0.0
 11
684.4060912074901
 21
937.7001782750802
 31
0.0
  0
LINE
  5
41F
330
1F
100
AcDbEntity
  8
Ｓ_１_１
  6
CONTINUOUS
 62
     3
100
AcDbLine
 10
667.9063353480897
 20
975.7000562047801
 30
0.0
 11
691.9060912074901
 21
975.7000562047801
 31
0.0
  0
LINE
  5
420
330
1F
100
AcDbEntity
  8
Ｓ_１_１
  6
CONTINUOUS
 62
     3
100
AcDbLine
 10
666.0496458949901
 20
976.7718335484801
 30
0.0
 11
666.0496458949901
 21
981.6284009312802
 31
0.0
  0
LINE
  5
421
330
1F
100
AcDbEntity
  8
Ｓ_１_１
  6
CONTINUOUS
 62
     3
100
AcDbLine
 10
672.9781126918906
 20
976.7718335484801
 30
0.0
 11
672.9781126918906
 21
981.62827886098
 31
0.0
  0
LINE
  5
422
330
1F
100
AcDbEntity
  8
Ｓ_１_１
  6
CONTINUOUS
 62
     3
100
AcDbLine
 10
686.8345580043906
 20
976.7718335484801
 30
0.0
 11
686.8345580043906
 21
981.62827886098
 31
0.0
  0
LINE
  5
423
330
1F
100
AcDbEntity
  8
Ｓ_１_１
  6
CONTINUOUS
 62
     3
100
AcDbLine
 10
693.7625365199901
 20
976.7718335484801
 30
0.0
 11
693.7625365199901
 21
981.62827886098
 31
0.0
  0
LINE
  5
424
330
1F
100
AcDbEntity
  8
Ｓ_１_１
  6
CONTINUOUS
 62
     3
100
AcDbLine
 10
666.0496058837898
 20
976.77179252558
 30
0.0
 11
667.9059786642902
 21
975.70001518178
 31
0.0
  0
LINE
  5
425
330
1F
100
AcDbEntity
  8
Ｓ_１_１
  6
CONTINUOUS
 62
     3
100
AcDbLine
 10
691.9060678821907
 20
982.7000533405798
 30
0.0
 11
693.7624406626901
 21
981.6282759967797
 31
0.0
  0
LINE
  5
426
330
1F
100
AcDbEntity
  8
Ｓ_１_１
  6
CONTINUOUS
 62
     3
100
AcDbLine
 10
691.9059805506904
 20
975.7001351922798
 30
0.0
 11
693.7623533311898
 21
976.7719125359798
 31
0.0
  0
LINE
  5
427
330
1F
100
AcDbEntity
  8
Ｓ_１_１
  6
CONTINUOUS
 62
     3
100
AcDbLine
 10
666.0495795874895
 20
981.6282902912798
 30
0.0
 11
667.9059523678907
 21
982.7000676349797
 31
0.0
  0
LINE
  5
428
330
1F
100
AcDbEntity
  8
Ｓ_１_１
  6
CONTINUOUS
 62
     3
100
AcDbLine
 10
668.1560912074901
 20
967.2001782750802
 30
0.0
 11
668.1560912074901
 21
975.7000562047801
 31
0.0
  0
LINE
  5
429
330
1F
100
AcDbEntity
  8
Ｓ_１_１
  6
CONTINUOUS
 62
     3
100
AcDbLine
 10
691.6563353480897
 20
967.2001782750802
 30
0.0
 11
691.6563353480897
 21
975.7000562047801
 31
0.0
  0
LINE
  5
42A
330
1F
100
AcDbEntity
  8
Ｓ_１_１
  6
CONTINUOUS
 62
     3
100
AcDbLine
 10
668.6560912074901
 20
966.70005620478
 30
0.0
 11
691.1560912074901
 21
966.70005620478
 31
0.0
  0
LINE
  5
42B
330
1F
100
AcDbEntity
  8
Ｓ_１_１
  6
CONTINUOUS
 62
     3
100
AcDbLine
 10
688.9060912074901
 20
951.20005620478
 30
0.0
 11
688.9060912074901
 21
953.2000562047801
 31
0.0
  0
LINE
  5
42C
330
1F
100
AcDbEntity
  8
Ｓ_１_１
  6
CONTINUOUS
 62
     3
100
AcDbLine
 10
670.9060912074901
 20
951.20005620478
 30
0.0
 11
670.9060912074901
 21
953.2000562047801
 31
0.0
  0
LINE
  5
42D
330
1F
100
AcDbEntity
  8
Ｓ_１_１
  6
CONTINUOUS
 62
     3
100
AcDbLine
 10
674.4060912074901
 20
947.7001782750802
 30
0.0
 11
685.4063353480897
 21
947.7001782750802
 31
0.0
  0
LINE
  5
42E
330
1F
100
AcDbEntity
  8
Ｓ_１_１
  6
CONTINUOUS
 62
     3
100
AcDbLine
 10
674.4060912074901
 20
938.70005620478
 30
0.0
 11
674.4060912074901
 21
947.7001782750802
 31
0.0
  0
LINE
  5
42F
330
1F
100
AcDbEntity
  8
Ｓ_１_１
  6
CONTINUOUS
 62
     3
100
AcDbLine
 10
667.9063353480897
 20
982.7001782750802
 30
0.0
 11
691.9060912074901
 21
982.7001782750802
 31
0.0
  0
ARC
  5
430
330
1F
100
AcDbEntity
  8
Ｓ_１_１
  6
CONTINUOUS
 62
     3
100
AcDbCircle
 10
684.4060912074901
 20
938.70005620478
 30
0.0
 40
1.0
100
AcDbArc
 50
270.0000248163001
 51
0.0000025044999933
  0
ARC
  5
431
330
1F
100
AcDbEntity
  8
Ｓ_１_１
  6
CONTINUOUS
 62
     3
100
AcDbCircle
 10
690.2984251918906
 20
976.5661450718798
 30
0.0
 40
6.1339254379
100
AcDbArc
 50
55.61542661880004
 51
124.3845886355002
  0
ARC
  5
432
330
1F
100
AcDbEntity
  8
Ｓ_１_１
  6
CONTINUOUS
 62
     3
100
AcDbCircle
 10
679.9060912074901
 20
959.7721997593798
 30
0.0
 40
22.92794227600001
100
AcDbArc
 50
72.41188290110003
 51
107.5881767494
  0
ARC
  5
433
330
1F
100
AcDbEntity
  8
Ｓ_１_１
  6
CONTINUOUS
 62
     3
100
AcDbCircle
 10
669.5140013637902
 20
981.8340894078801
 30
0.0
 40
6.1339254379
100
AcDbArc
 50
235.6154796664003
 51
304.3846314378002
  0
ARC
  5
434
330
1F
100
AcDbEntity
  8
Ｓ_１_１
  6
CONTINUOUS
 62
     3
100
AcDbCircle
 10
675.4063353480897
 20
938.70005620478
 30
0.0
 40
1.0
100
AcDbArc
 50
180.0000223118002
 51
270.0000248163001
  0
ARC
  5
435
330
1F
100
AcDbEntity
  8
Ｓ_１_１
  6
CONTINUOUS
 62
     3
100
AcDbCircle
 10
669.5140013637902
 20
976.5661450718798
 30
0.0
 40
6.1339254379
100
AcDbArc
 50
55.61544027910016
 51
124.3846022959
  0
ARC
  5
436
330
1F
100
AcDbEntity
  8
Ｓ_１_１
  6
CONTINUOUS
 62
     3
100
AcDbCircle
 10
679.9060912074901
 20
998.62803472038
 30
0.0
 40
22.9279384613
100
AcDbArc
 50
252.4118369110002
 51
287.5881444197001
  0
ARC
  5
437
330
1F
100
AcDbEntity
  8
Ｓ_１_１
  6
CONTINUOUS
 62
     3
100
AcDbCircle
 10
690.2984251918906
 20
981.8340894078801
 30
0.0
 40
6.1339254379
100
AcDbArc
 50
235.6154113645002
 51
304.3845631360001
  0
LINE
  5
438
330
1F
100
AcDbEntity
  8
Ｓ_１_１
  6
CONTINUOUS
 62
     3
100
AcDbLine
 10
687.6515625000002
 20
1029.35017827508
 30
0.0
 11
688.5565461784736
 21
1027.782700563943
 31
0.0
  0
LINE
  5
439
330
1F
100
AcDbEntity
  8
Ｓ_１_１
  6
CONTINUOUS
 62
     3
100
AcDbLine
 10
688.5565461784702
 20
1027.78270056394
 30
0.0
 11
671.4434538215285
 21
1027.78270056394
 31
0.0
  0
LINE
  5
43A
330
1F
100
AcDbEntity
  8
Ｓ_１_１
  6
CONTINUOUS
 62
     3
100
AcDbLine
 10
671.44345382153
 20
1027.78270056394
 30
0.0
 11
672.3484375000002
 21
1029.35017827508
 31
0.0
  0
LINE
  5
43B
330
1F
100
AcDbEntity
  8
Ｓ_１_１
  6
CONTINUOUS
 62
     3
100
AcDbLine
 10
687.6515625000005
 20
1029.35017827508
 30
0.0
 11
672.3484375000013
 21
1029.35017827508
 31
0.0
  0
LINE
  5
43C
330
1F
100
AcDbEntity
  8
Ｓ_１_１
  6
CONTINUOUS
 62
     3
100
AcDbLine
 10
687.6515625000002
 20
988.3501782750801
 30
0.0
 11
688.5565461784736
 21
989.9176559862168
 31
0.0
  0
LINE
  5
43D
330
1F
100
AcDbEntity
  8
Ｓ_１_１
  6
CONTINUOUS
 62
     3
100
AcDbLine
 10
688.5565461784702
 20
989.9176559862201
 30
0.0
 11
671.4434538215285
 21
989.9176559862201
 31
0.0
  0
LINE
  5
43E
330
1F
100
AcDbEntity
  8
Ｓ_１_１
  6
CONTINUOUS
 62
     3
100
AcDbLine
 10
671.44345382153
 20
989.9176559862201
 30
0.0
 11
672.3484375000002
 21
988.3501782750801
 31
0.0
  0
LINE
  5
43F
330
1F
100
AcDbEntity
  8
Ｓ_１_１
  6
CONTINUOUS
 62
     3
100
AcDbLine
 10
687.6515625000005
 20
988.3501782750803
 30
0.0
 11
672.3484375000013
 21
988.3501782750803
 31
0.0
  0
LINE
  5
440
330
1F
100
AcDbEntity
  8
Ｓ_１_１
  6
CONTINUOUS
 62
     3
100
AcDbLine
 10
688.3310000000006
 20
982.7001782750802
 30
0.0
 11
688.6325625000006
 21
992.35017827508
 31
0.0
  0
LINE
  5
441
330
1F
100
AcDbEntity
  8
Ｓ_１_１
  6
CONTINUOUS
 62
     3
100
AcDbLine
 10
687.4750000000006
 20
982.7001782750802
 30
0.0
 11
687.6515625000005
 21
988.3501782750803
 31
0.0
  0
LINE
  5
442
330
1F
100
AcDbEntity
  8
Ｓ_１_１
  6
CONTINUOUS
 62
     3
100
AcDbLine
 10
672.5250000000015
 20
982.7001782750802
 30
0.0
 11
672.3484375000013
 21
988.3501782750803
 31
0.0
  0
LINE
  5
443
330
1F
100
AcDbEntity
  8
Ｓ_１_１
  6
CONTINUOUS
 62
     3
100
AcDbLine
 10
671.6690000000015
 20
982.7001782750802
 30
0.0
 11
671.3674375000016
 21
992.35017827508
 31
0.0
  0
LINE
  5
444
330
1F
100
AcDbEntity
  8
Ｓ_１_１
  6
CONTINUOUS
 62
     3
100
AcDbLine
 10
688.3310000000006
 20
1035.000178275079
 30
0.0
 11
688.6325625000006
 21
1025.35017827508
 31
0.0
  0
LINE
  5
445
330
1F
100
AcDbEntity
  8
Ｓ_１_１
  6
CONTINUOUS
 62
     3
100
AcDbLine
 10
671.6690000000015
 20
1035.000178275079
 30
0.0
 11
671.3674375000016
 21
1025.35017827508
 31
0.0
  0
LINE
  5
446
330
1F
100
AcDbEntity
  8
Ｓ_１_１
  6
CONTINUOUS
 62
     3
100
AcDbLine
 10
687.4750000000006
 20
1035.000178275079
 30
0.0
 11
687.6515625000005
 21
1029.35017827508
 31
0.0
  0
LINE
  5
447
330
1F
100
AcDbEntity
  8
Ｓ_１_１
  6
CONTINUOUS
 62
     3
100
AcDbLine
 10
672.5250000000015
 20
1035.000178275079
 30
0.0
 11
672.3484375000013
 21
1029.35017827508
 31
0.0
  0
ARC
  5
448
330
1F
100
AcDbEntity
  8
Ｓ_１_１
  6
CONTINUOUS
 62
     3
100
AcDbCircle
 10
635.4999999999995
 20
1016.34259162826
 30
0.0
 40
6.000000000001595
100
AcDbArc
 50
180.0
 51
208.9021440266538
  0
ARC
  5
449
330
1F
100
AcDbEntity
  8
Ｓ_１_１
  6
CONTINUOUS
 62
     3
100
AcDbCircle
 10
629.4999999999995
 20
1016.34259162826
 30
0.0
 40
6.000000000000005
100
AcDbArc
 50
331.0978559733359
 51
0.0000079827388924
  0
ARC
  5
44A
330
1F
100
AcDbEntity
  8
Ｓ_１_１
  6
CONTINUOUS
 62
     3
100
AcDbCircle
 10
629.4999999999995
 20
1001.35776549376
 30
0.0
 40
6.000000000001595
100
AcDbArc
 50
359.9999582441122
 51
28.90213638118608
  0
ARC
  5
44B
330
1F
100
AcDbEntity
  8
Ｓ_１_１
  6
CONTINUOUS
 62
     3
100
AcDbCircle
 10
635.4999999999995
 20
1001.35776112109
 30
0.0
 40
6.000000000001595
100
AcDbArc
 50
151.0978159220867
 51
179.9999582440774
  0
LINE
  5
44C
330
1F
100
AcDbEntity
  8
Ｓ_１_１
  6
CONTINUOUS
 62
     3
100
AcDbLine
 10
630.1940359220541
 20
1004.25765565135
 30
0.0
 11
634.8059640779452
 21
1004.25765565135
 31
0.0
  0
LINE
  5
44D
330
1F
100
AcDbEntity
  8
Ｓ_１_１
  6
CONTINUOUS
 62
     3
100
AcDbLine
 10
630.1940358821375
 20
1013.44270076976
 30
0.0
 11
634.8059641178615
 21
1013.44270076976
 31
0.0
  0
ARC
  5
44E
330
1F
100
AcDbEntity
  8
Ｓ_１_１
  6
CONTINUOUS
 62
     3
100
AcDbCircle
 10
645.0416666666997
 20
1008.85017827508
 30
0.0
 40
15.5416666667
100
AcDbArc
 50
162.8126324028145
 51
197.1873680951785
  0
ARC
  5
44F
330
1F
100
AcDbEntity
  8
Ｓ_１_１
  6
CONTINUOUS
 62
     3
100
AcDbCircle
 10
619.9583333332996
 20
1008.85017827508
 30
0.0
 40
15.5416666667
100
AcDbArc
 50
339.3345199966998
 51
339.3345213439644
  0
ARC
  5
450
330
1F
100
AcDbEntity
  8
Ｓ_１_１
  6
CONTINUOUS
 62
     3
100
AcDbCircle
 10
619.9583333332996
 20
1008.85017827508
 30
0.0
 40
15.5416666667
100
AcDbArc
 50
342.8126319048212
 51
17.18736759718473
  0
ARC
  5
451
330
1F
100
AcDbEntity
  8
Ｓ_１_１
  6
CONTINUOUS
 62
     3
100
AcDbCircle
 10
645.0416666666997
 20
1008.85017827508
 30
0.0
 40
15.5416666667
100
AcDbArc
 50
159.3345215905999
 51
159.3345238904474
  0
ARC
  5
452
330
1F
100
AcDbEntity
  8
Ｓ_１_１
  6
CONTINUOUS
 62
     3
100
AcDbCircle
 10
619.9583333332996
 20
1008.85017827508
 30
0.0
 40
15.5416666667
100
AcDbArc
 50
20.66547610955265
 51
20.66548364569987
  0
LINE
  5
453
330
1F
100
AcDbEntity
  8
Ｓ_１_１
  6
CONTINUOUS
 62
     3
100
AcDbLine
 10
629.4999999999995
 20
1001.35776443638
 30
0.0
 11
629.4999999999995
 21
1008.85017827508
 31
0.0
  0
LINE
  5
454
330
1F
100
AcDbEntity
  8
Ｓ_１_１
  6
CONTINUOUS
 62
     3
100
AcDbLine
 10
629.4999999999995
 20
1008.85017827508
 30
0.0
 11
629.4999999999995
 21
1016.34259211378
 31
0.0
  0
LINE
  5
455
330
1F
100
AcDbEntity
  8
Ｓ_１_１
  6
CONTINUOUS
 62
     3
100
AcDbLine
 10
634.4999999999995
 20
1018.35017827508
 30
0.0
 11
630.4999999999995
 21
1018.35017827508
 31
0.0
  0
LINE
  5
456
330
1F
100
AcDbEntity
  8
Ｓ_１_１
  6
CONTINUOUS
 62
     3
100
AcDbLine
 10
634.4999999999995
 20
999.3501782750801
 30
0.0
 11
630.4999999999995
 21
999.3501782750801
 31
0.0
  0
LINE
  5
457
330
1F
100
AcDbEntity
  8
Ｓ_１_１
  6
CONTINUOUS
 62
     3
100
AcDbLine
 10
635.5000015140997
 20
1001.35776416078
 30
0.0
 11
634.5000014624995
 21
999.35017785558
 31
0.0
  0
LINE
  5
458
330
1F
100
AcDbEntity
  8
Ｓ_１_１
  6
CONTINUOUS
 62
     3
100
AcDbLine
 10
635.5000000233997
 20
1016.34259158128
 30
0.0
 11
634.4999998301996
 21
1018.35017817098
 31
0.0
  0
LINE
  5
459
330
1F
100
AcDbEntity
  8
Ｓ_１_１
  6
CONTINUOUS
 62
     3
100
AcDbLine
 10
629.5000004854996
 20
1001.35776451908
 30
0.0
 11
630.5000006786997
 21
999.35017792938
 31
0.0
  0
LINE
  5
45A
330
1F
100
AcDbEntity
  8
Ｓ_１_１
  6
CONTINUOUS
 62
     3
100
AcDbLine
 10
629.5000018343997
 20
1016.34259093828
 30
0.0
 11
630.5000020275995
 21
1018.35017752798
 31
0.0
  0
LINE
  5
45B
330
1F
100
AcDbEntity
  8
Ｓ_１_１
  6
CONTINUOUS
 62
     3
100
AcDbLine
 10
635.4999999999995
 20
1008.85017827508
 30
0.0
 11
635.4999999999995
 21
1017.85017761078
 31
0.0
  0
LINE
  5
45C
330
1F
100
AcDbEntity
  8
Ｓ_１_１
  6
CONTINUOUS
 62
     3
100
AcDbLine
 10
635.4999999999995
 20
999.8501784756801
 30
0.0
 11
635.4999999999995
 21
1008.85017827508
 31
0.0
  0
LINE
  5
45D
330
1F
100
AcDbEntity
  8
Ｓ_１_１
  6
CONTINUOUS
 62
     3
100
AcDbLine
 10
635.4999997150996
 20
999.8501784756801
 30
0.0
 11
636.4999995122996
 21
998.85017876278
 31
0.0
  0
LINE
  5
45E
330
1F
100
AcDbEntity
  8
Ｓ_１_１
  6
CONTINUOUS
 62
     3
100
AcDbLine
 10
636.4999994489997
 20
1018.85017772408
 30
0.0
 11
635.4999994199995
 21
1017.85017761078
 31
0.0
  0
LINE
  5
45F
330
1F
100
AcDbEntity
  8
Ｓ_１_１
  6
CONTINUOUS
 62
     3
100
AcDbLine
 10
636.4999999999995
 20
998.8501782750802
 30
0.0
 11
636.4999999999995
 21
1008.85017827508
 31
0.0
  0
LINE
  5
460
330
1F
100
AcDbEntity
  8
Ｓ_１_１
  6
CONTINUOUS
 62
     3
100
AcDbLine
 10
636.4999999999995
 20
1008.85017827508
 30
0.0
 11
636.4999999999995
 21
1018.85017827508
 31
0.0
  0
LINE
  5
461
330
1F
100
AcDbEntity
  8
Ｓ_１_１
  6
CONTINUOUS
 62
     3
100
AcDbLine
 10
624.4999983529997
 20
1013.10018020038
 30
0.0
 11
625.2499985380996
 21
1013.85018032218
 31
0.0
  0
LINE
  5
462
330
1F
100
AcDbEntity
  8
Ｓ_１_１
  6
CONTINUOUS
 62
     3
100
AcDbLine
 10
625.2499974422997
 20
1003.85017940008
 30
0.0
 11
624.4999993434997
 21
1004.60017756208
 31
0.0
  0
LINE
  5
463
330
1F
100
AcDbEntity
  8
Ｓ_１_１
  6
CONTINUOUS
 62
     3
100
AcDbLine
 10
625.2499999999995
 20
1003.85017827508
 30
0.0
 11
625.2499999999995
 21
1013.85017827508
 31
0.0
  0
LINE
  5
464
330
1F
100
AcDbEntity
  8
Ｓ_１_１
  6
CONTINUOUS
 62
     3
100
AcDbLine
 10
624.4999999999995
 20
1004.60017827508
 30
0.0
 11
624.4999999999995
 21
1013.10017827508
 31
0.0
  0
LINE
  5
465
330
1F
100
AcDbEntity
  8
Ｓ_１_１
  6
CONTINUOUS
 62
     3
100
AcDbLine
 10
629.4999999999995
 20
1013.85017827508
 30
0.0
 11
625.2499999999995
 21
1013.85017827508
 31
0.0
  0
LINE
  5
466
330
1F
100
AcDbEntity
  8
Ｓ_１_１
  6
CONTINUOUS
 62
     3
100
AcDbLine
 10
629.4999999999995
 20
1003.85017827508
 30
0.0
 11
625.2499999999995
 21
1003.85017827508
 31
0.0
  0
LINE
  5
467
330
1F
100
AcDbEntity
  8
Ｓ_１_１
  6
CONTINUOUS
 62
     3
100
AcDbLine
 10
629.4999999999995
 20
1004.60017827508
 30
0.0
 11
624.4999999999995
 21
1004.60017827508
 31
0.0
  0
LINE
  5
468
330
1F
100
AcDbEntity
  8
Ｓ_１_１
  6
CONTINUOUS
 62
     3
100
AcDbLine
 10
629.4999999999995
 20
1013.10017827508
 30
0.0
 11
624.4999999999995
 21
1013.10017827508
 31
0.0
  0
LINE
  5
469
330
1F
100
AcDbEntity
  8
Ｓ_１_１
  6
CONTINUOUS
 62
     3
100
AcDbLine
 10
667.5
 20
1018.85017827508
 30
0.0
 11
636.4999999999995
 21
1018.85017827508
 31
0.0
  0
LINE
  5
46A
330
1F
100
AcDbEntity
  8
Ｓ_１_１
  6
CONTINUOUS
 62
     3
100
AcDbLine
 10
667.5
 20
998.8501782750802
 30
0.0
 11
636.4999999999995
 21
998.8501782750802
 31
0.0
  0
CIRCLE
  5
46B
330
1F
100
AcDbEntity
  8
Ｓ_１_１
  6
CONTINUOUS
 62
     3
100
AcDbCircle
 10
680.0000000000002
 20
1104.99999999998
 30
0.0
 40
8.0
  0
CIRCLE
  5
46C
330
1F
100
AcDbEntity
  8
Ｓ_１_１
  6
CONTINUOUS
 62
     3
100
AcDbCircle
 10
680.0000000000002
 20
1104.99999999998
 30
0.0
 40
6.601755479567888
  0
LINE
  5
46D
330
1F
100
AcDbEntity
  8
Ｓ_１_１
  6
CONTINUOUS
 62
     3
100
AcDbLine
 10
364.0001811619002
 20
1279.99999999998
 30
0.0
 11
364.0001811619002
 21
1271.999651934634
 31
0.0
  0
LINE
  5
46E
330
1F
100
AcDbEntity
  8
Ｓ_１_１
  6
CONTINUOUS
 62
     3
100
AcDbLine
 10
424.0001935338913
 20
1279.99999999998
 30
0.0
 11
424.0001935338913
 21
1229.999989689992
 31
0.0
  0
LINE
  5
46F
330
1F
100
AcDbEntity
  8
Ｓ_１_１
  6
CONTINUOUS
 62
     3
100
AcDbLine
 10
935.9998064661092
 20
1280.0
 30
0.0
 11
935.9998064661092
 21
1229.999989689992
 31
0.0
  0
LINE
  5
470
330
1F
100
AcDbEntity
  8
Ｓ_１_１
  6
CONTINUOUS
 62
     3
100
AcDbLine
 10
995.9998188381003
 20
1280.0
 30
0.0
 11
995.9998188381003
 21
1271.999651934634
 31
0.0
  0
ARC
  5
471
330
1F
100
AcDbEntity
  8
Ｓ_１_１
  6
CONTINUOUS
 62
     3
100
AcDbCircle
 10
680.0000000000002
 20
1279.99999999998
 30
0.0
 40
244.9998217249001
100
AcDbArc
 50
180.0
 51
0.0000000000036096
  0
ARC
  5
472
330
1F
100
AcDbEntity
  8
Ｓ_１_１
  6
CONTINUOUS
 62
     3
100
AcDbCircle
 10
680.0000000000002
 20
1279.99999999998
 30
0.0
 40
241.9998621160002
100
AcDbArc
 50
180.0
 51
0.0000000000036096
  0
ARC
  5
473
330
1F
100
AcDbEntity
  8
Ｓ_１_１
  6
CONTINUOUS
 62
     3
100
AcDbCircle
 10
680.0000000000002
 20
1279.99999999998
 30
0.0
 40
232.4999971208001
100
AcDbArc
 50
180.0
 51
0.0000000000036669
  0
ARC
  5
474
330
1F
100
AcDbEntity
  8
Ｓ_１_１
  6
CONTINUOUS
 62
     3
100
AcDbCircle
 10
680.0000000000002
 20
1279.99999999998
 30
0.0
 40
52.50000741240001
100
AcDbArc
 50
180.0
 51
0.0000000000037242
  0
ARC
  5
475
330
1F
100
AcDbEntity
  8
Ｓ_１_１
  6
CONTINUOUS
 62
     3
100
AcDbCircle
 10
680.0000000000002
 20
1279.99999999998
 30
0.0
 40
47.50000741240001
100
AcDbArc
 50
180.0
 51
0.0000000000035523
  0
ARC
  5
476
330
1F
100
AcDbEntity
  8
Ｓ_１_１
  6
CONTINUOUS
 62
     3
100
AcDbCircle
 10
679.9999999999957
 20
1279.999999999985
 30
0.0
 40
15.00000019331237
100
AcDbArc
 50
180.0000000000173
 51
0.0000000000025783
  0
ARC
  5
477
330
1F
100
AcDbEntity
  8
Ｓ_１_１
  6
CONTINUOUS
 62
     3
100
AcDbCircle
 10
679.9999999999957
 20
1279.999999999985
 30
0.0
 40
13.00000113409919
100
AcDbArc
 50
180.0000000000201
 51
0.0000000000029794
  0
ARC
  5
478
330
1F
100
AcDbEntity
  8
Ｓ_１_１
  6
CONTINUOUS
 62
     3
100
AcDbCircle
 10
680.0000000000002
 20
1279.99999999998
 30
0.0
 40
30.00000669849987
100
AcDbArc
 50
180.0
 51
0.000000000003495
  0
ARC
  5
479
330
1F
100
AcDbEntity
  8
Ｓ_１_１
  6
CONTINUOUS
 62
     3
100
AcDbCircle
 10
680.0000000000002
 20
1279.99999999998
 30
0.0
 40
32.00005491129991
100
AcDbArc
 50
180.0
 51
0.0000000000036669
  0
ARC
  5
47A
330
1F
100
AcDbEntity
  8
Ｓ_１_１
  6
CONTINUOUS
 62
     3
100
AcDbCircle
 10
680.0000000000002
 20
1279.99999999998
 30
0.0
 40
102.4999979898516
100
AcDbArc
 50
180.0
 51
0.0000000000036669
  0
ARC
  5
47B
330
1F
100
AcDbEntity
  8
Ｓ_１_１
  6
CONTINUOUS
 62
     3
100
AcDbCircle
 10
680.0000000000002
 20
1279.99999999998
 30
0.0
 40
97.49999798985162
100
AcDbArc
 50
180.0
 51
0.0000000000036096
  0
ARC
  5
47C
330
1F
100
AcDbEntity
  8
Ｓ_１_１
  6
CONTINUOUS
 62
     3
100
AcDbCircle
 10
680.0000000000002
 20
1279.99999999998
 30
0.0
 40
197.9999922833001
100
AcDbArc
 50
180.0
 51
0.0000000000036096
  0
ARC
  5
47D
330
1F
100
AcDbEntity
  8
Ｓ_１_１
  6
CONTINUOUS
 62
     3
100
AcDbCircle
 10
680.0000000000002
 20
1279.99999999998
 30
0.0
 40
199.9999919803001
100
AcDbArc
 50
180.0
 51
0.0000000000036669
  0
ARC
  5
47E
330
1F
100
AcDbEntity
  8
Ｓ_１_１
  6
CONTINUOUS
 62
     3
100
AcDbCircle
 10
680.0000000000002
 20
1279.99999999998
 30
0.0
 40
229.4997900721
100
AcDbArc
 50
180.0
 51
0.0000000000036096
  0
ARC
  5
47F
330
1F
100
AcDbEntity
  8
Ｓ_１_１
  6
CONTINUOUS
 62
     3
100
AcDbCircle
 10
680.0000000000002
 20
1279.99999999998
 30
0.0
 40
152.5000052770999
100
AcDbArc
 50
180.0
 51
0.0000000000036096
  0
ARC
  5
480
330
1F
100
AcDbEntity
  8
Ｓ_１_１
  6
CONTINUOUS
 62
     3
100
AcDbCircle
 10
680.0000000000002
 20
1279.99999999998
 30
0.0
 40
147.5000052770999
100
AcDbArc
 50
180.0
 51
0.0000000000036096
  0
ARC
  5
481
330
1F
100
AcDbEntity
  8
Ｓ_１_１
  6
CONTINUOUS
 62
     3
100
AcDbCircle
 10
505.0000000000003
 20
1279.99999999998
 30
0.0
 40
8.0
100
AcDbArc
 50
180.0
 51
0.0
  0
ARC
  5
482
330
1F
100
AcDbEntity
  8
Ｓ_１_１
  6
CONTINUOUS
 62
     3
100
AcDbCircle
 10
505.0000000000003
 20
1279.99999999998
 30
0.0
 40
6.601755479567888
100
AcDbArc
 50
180.0
 51
0.0
  0
ARC
  5
483
330
1F
100
AcDbEntity
  8
Ｓ_１_１
  6
CONTINUOUS
 62
     3
100
AcDbCircle
 10
855.0000000000002
 20
1279.99999999998
 30
0.0
 40
6.601755479567888
100
AcDbArc
 50
180.0
 51
0.0000000000079641
  0
ARC
  5
484
330
1F
100
AcDbEntity
  8
Ｓ_１_１
  6
CONTINUOUS
 62
     3
100
AcDbCircle
 10
855.0000000000002
 20
1279.99999999998
 30
0.0
 40
8.0
100
AcDbArc
 50
180.0
 51
0.000000000008136
  0
LINE
  5
485
330
1F
100
AcDbEntity
  8
Ｓ_１_１
  6
EXLTYPE2
 62
     1
100
AcDbLine
 10
410.3481343396872
 20
1244.999977318001
 30
0.0
 11
450.1495409222114
 21
1244.999783959194
 31
0.0
  0
LINE
  5
486
330
1F
100
AcDbEntity
  8
Ｓ_１_１
  6
EXLTYPE2
 62
     1
100
AcDbLine
 10
949.6518656603132
 20
1244.999977318001
 30
0.0
 11
909.8504590777891
 21
1244.999783959194
 31
0.0
  0
LINE
  5
487
330
1F
100
AcDbEntity
  8
Ｓ_１_１
  6
EXLTYPE2
 62
     1
100
AcDbLine
 10
680.0049769596501
 20
935.7000562047801
 30
0.0
 11
679.9060912074901
 21
935.7000562047801
 31
0.0
  0
LINE
  5
488
330
1F
100
AcDbEntity
  8
Ｓ_１_１
  6
EXLTYPE2
 62
     1
100
AcDbLine
 10
680.10386271181
 20
935.7000562047801
 30
0.0
 11
679.9060912074901
 21
935.7000562047801
 31
0.0
  0
LINE
  5
489
330
1F
100
AcDbEntity
  8
Ｓ_１_１
  6
EXLTYPE2
 62
     1
100
AcDbLine
 10
679.70386271181
 20
937.7001782750802
 30
0.0
 11
679.90621327779
 21
937.7001782750802
 31
0.0
  0
LINE
  5
48A
330
1F
100
AcDbEntity
  8
Ｓ_１_１
  6
EXLTYPE2
 62
     1
100
AcDbLine
 10
655.4999999999995
 20
1012.23600820058
 30
0.0
 11
655.4999999999995
 21
1020.27837995048
 31
0.0
  0
LINE
  5
48B
330
1F
100
AcDbEntity
  8
Ｓ_１_１
  6
EXLTYPE2
 62
     1
100
AcDbLine
 10
695.9000000000103
 20
1008.85017827508
 30
0.0
 11
622.5000000000102
 21
1008.85017827508
 31
0.0
  0
LINE
  5
48C
330
1F
100
AcDbEntity
  8
Ｓ_１_１
  6
EXLTYPE2
 62
     1
100
AcDbLine
 10
515.5976754099736
 20
1115.597675410066
 30
0.0
 11
531.5500274555939
 21
1131.550027455686
 31
0.0
  0
LINE
  5
48D
330
1F
100
AcDbEntity
  8
Ｓ_１_１
  6
EXLTYPE2
 62
     1
100
AcDbLine
 10
844.4023245899149
 20
1115.597675409953
 30
0.0
 11
830.3000274555941
 21
1129.699972544274
 31
0.0
  0
LINE
  5
48E
330
1F
100
AcDbEntity
  8
Ｓ_１_１
  6
EXLTYPE2
 62
     1
100
AcDbLine
 10
394.0001564179199
 20
1260.15462432035
 30
0.0
 11
394.0001564179199
 21
1279.99999999998
 31
0.0
  0
LINE
  5
48F
330
1F
100
AcDbEntity
  8
Ｓ_１_１
  6
EXLTYPE2
 62
     1
100
AcDbLine
 10
965.9998435820805
 20
1260.15462432035
 30
0.0
 11
965.9998435820805
 21
1280.0
 31
0.0
  0
LINE
  5
490
330
1F
100
AcDbEntity
  8
Ｓ_１_１
  6
EXLTYPE2
 62
     1
100
AcDbLine
 10
680.0000000000002
 20
928.49999999998
 30
0.0
 11
680.0000000000002
 21
1280.0
 31
0.0
  0
ARC
  5
491
330
1F
100
AcDbEntity
  8
Ｓ_１_１
  6
EXLTYPE2
 62
     1
100
AcDbCircle
 10
680.0000000000002
 20
1279.99999999998
 30
0.0
 40
50.00000741240001
100
AcDbArc
 50
180.0
 51
0.0000000000036669
  0
ARC
  5
492
330
1F
100
AcDbEntity
  8
Ｓ_１_１
  6
EXLTYPE2
 62
     1
100
AcDbCircle
 10
680.0000000000002
 20
1279.99999999998
 30
0.0
 40
99.99999798985162
100
AcDbArc
 50
180.0
 51
0.0000000000036669
  0
ARC
  5
493
330
1F
100
AcDbEntity
  8
Ｓ_１_１
  6
EXLTYPE2
 62
     1
100
AcDbCircle
 10
680.0000000000002
 20
1279.99999999998
 30
0.0
 40
150.0000052770999
100
AcDbArc
 50
180.0
 51
0.0000000000036669
  0
ARC
  5
494
330
1F
100
AcDbEntity
  8
Ｓ_１_１
  6
EXLTYPE2
 62
     1
100
AcDbCircle
 10
680.0000000000002
 20
1279.99999999998
 30
0.0
 40
175.0
100
AcDbArc
 50
180.0
 51
0.0000000000036669
  0
LINE
  5
495
330
1F
100
AcDbEntity
  8
Ｓ_１_１
  6
EXLTYPE2
 62
     1
100
AcDbLine
 10
350.0
 20
1279.99999999998
 30
0.0
 11
1010.0
 21
1279.99999999998
 31
0.0
  0
LEADER
  5
496
330
1F
100
AcDbEntity
  8
Ｓ_１_１
  6
CONTINUOUS
 62
     2
100
AcDbLeader
  3
ISO-25
 76
     3
 10
842.98813290575
 20
547.99975052894
 30
0.0
 10
935.24419118841
 20
640.25580881159
 30
0.0
 10
1083.0
 20
640.25580881159
 30
0.0
1001
ACAD
1000
DSTYLE
1002
{
1070
     5
1000
EX_NORM
1070
    41
1040
15.0
1070
   341
1005
79
1002
}
  0
TEXT
  5
497
330
1F
100
AcDbEntity
  8
Ｓ_１_１
  6
CONTINUOUS
 62
     4
100
AcDbText
 10
948.0
 20
645.91987131159
 30
0.0
 40
17.3145207852194
  1
8-20キリ深30
 41
0.9992307692307691
  7
EXCADTTF1
 72
     5
 11
1083.0
 21
645.91987131159
 31
0.0
100
AcDbText
  0
LEADER
  5
498
330
1F
100
AcDbEntity
  8
Ｓ_１_１
  6
CONTINUOUS
 62
     2
100
AcDbLeader
  3
ISO-25
 76
     3
 10
912.4999689536
 20
550.0
 30
0.0
 10
963.4233859970601
 20
579.4006485381
 30
0.0
 10
1090.0
 20
579.4006485381
 30
0.0
1001
ACAD
1000
DSTYLE
1002
{
1070
     5
1000
EX_NORM
1070
    41
1040
15.0
1070
   341
1005
79
1002
}
  0
TEXT
  5
499
330
1F
100
AcDbEntity
  8
Ｓ_１_１
  6
CONTINUOUS
 62
     4
100
AcDbText
 10
977.5
 20
585.0647110381
 30
0.0
 40
17.3145207852194
  1
安全ナット
 41
0.9992307692307691
  7
EXCADTTF1
 72
     5
 11
1090.0
 21
585.0647110381
 31
0.0
100
AcDbText
  0
ENDSEC
  0
SECTION
  2
OBJECTS
  0
DICTIONARY
  5
C
330
0
100
AcDbDictionary
  3
ACAD_GROUP
350
D
  3
ACAD_LAYOUT
350
1A
  3
ACAD_MATERIAL
350
43
  3
ACAD_MLEADERSTYLE
350
6B
  3
ACAD_MLINESTYLE
350
17
  3
ACAD_PLOTSETTINGS
350
19
  3
ACAD_SCALELIST
350
47
  3
ACAD_VISUALSTYLE
350
2A
  3
ACDBHEADERROUNDTRIPXREC
350
49A
  3
ACDBVARIABLEDICTIONARY
350
4BB
  0
DICTIONARY
  5
4C6
330
8
100
AcDbDictionary
280
     1
  3
ACAD_XREC_ROUNDTRIP
360
4C7
  0
DICTIONARY
  5
D
102
{ACAD_REACTORS
330
C
102
}
330
C
100
AcDbDictionary
  0
DICTIONARY
  5
1A
102
{ACAD_REACTORS
330
C
102
}
330
C
100
AcDbDictionary
  0
DICTIONARY
  5
43
102
{ACAD_REACTORS
330
C
102
}
330
C
100
AcDbDictionary
  3
BYBLOCK
350
45
  3
BYLAYER
350
44
  3
GLOBAL
350
46
  0
DICTIONARY
  5
6B
102
{ACAD_REACTORS
330
C
102
}
330
C
100
AcDbDictionary
  3
STANDARD
350
6C
  0
DICTIONARY
  5
17
102
{ACAD_REACTORS
330
C
102
}
330
C
100
AcDbDictionary
  3
STANDARD
350
18
  0
DICTIONARY
  5
19
102
{ACAD_REACTORS
330
C
102
}
330
C
100
AcDbDictionary
  0
DICTIONARY
  5
47
102
{ACAD_REACTORS
330
C
102
}
330
C
100
AcDbDictionary
  3
A0
350
48
  3
A1
350
49
  3
A2
350
4A
  3
A3
350
4B
  3
A4
350
4C
  3
A5
350
4D
  3
A6
350
4E
  3
A7
350
4F
  3
A8
350
50
  3
A9
350
51
  3
B0
350
52
  3
B1
350
53
  3
B2
350
54
  3
B3
350
55
  3
B4
350
56
  3
B5
350
57
  3
B6
350
58
  3
B7
350
59
  3
B8
350
5A
  3
B9
350
5B
  3
C0
350
5C
  3
C1
350
5D
  3
C2
350
5E
  3
C3
350
5F
  3
C4
350
60
  3
C5
350
61
  3
C6
350
62
  3
C7
350
63
  3
C8
350
64
  3
C9
350
65
  3
D0
350
66
  3
D1
350
67
  3
D2
350
68
  0
DICTIONARY
  5
2A
102
{ACAD_REACTORS
330
C
102
}
330
C
100
AcDbDictionary
  3
2DWIREFRAME
350
2F
  3
BASIC
350
32
  3
BRIGHTEN
350
36
  3
COLORCHANGE
350
3A
  3
CONCEPTUAL
350
34
  3
DIM
350
35
  3
EDGECOLOROFF
350
3D
  3
FACEPATTERN
350
39
  3
FLAT
350
2B
  3
FLATWITHEDGES
350
2C
  3
GOURAUD
350
2D
  3
GOURAUDWITHEDGES
350
2E
  3
HIDDEN
350
31
  3
JITTEROFF
350
3B
  3
LINEPATTERN
350
38
  3
OVERHANGOFF
350
3C
  3
REALISTIC
350
33
  3
SHADED
350
42
  3
SHADED_WITH_EDGES
350
41
  3
SHADES_OF_GRAY
350
3E
  3
SKETCHY
350
3F
  3
THICKEN
350
37
  3
WIREFRAME
350
30
  3
X-RAY
350
40
  0
DICTIONARY
  5
49A
102
{ACAD_REACTORS
330
C
102
}
330
C
100
AcDbDictionary
  3
CEPSNID
350
4A4
  3
CEPSNTYPE
350
4A3
  3
DIMSTYLEDATA
350
4BA
  3
FINGERPRINTGUID
350
4A5
  3
HYPERLINKBASE
350
49D
  3
INSUNITS
350
4A2
  3
LAYOUTDICT
350
49F
  3
LWETCUNION
350
4A1
  3
PLOTSETDICT
350
4A0
  3
PSVPSCALE
350
4A7
  3
PUCSBASE
350
4AA
  3
PUCSORGBACK
350
4B0
  3
PUCSORGBOTTOM
350
4AC
  3
PUCSORGFRONT
350
4AF
  3
PUCSORGLEFT
350
4AD
  3
PUCSORGRIGHT
350
4AE
  3
PUCSORGTOP
350
4AB
  3
PUCSORTHOREF
350
4A8
  3
PUCSORTHOVIEW
350
4A9
  3
STYLESHEET
350
49E
  3
TSTACKALIGN
350
49B
  3
TSTACKSIZE
350
49C
  3
UCSBASE
350
4B3
  3
UCSORGBACK
350
4B9
  3
UCSORGBOTTOM
350
4B5
  3
UCSORGFRONT
350
4B8
  3
UCSORGLEFT
350
4B6
  3
UCSORGRIGHT
350
4B7
  3
UCSORGTOP
350
4B4
  3
UCSORTHOREF
350
4B1
  3
UCSORTHOVIEW
350
4B2
  3
VERSIONGUID
350
4A6
  0
DICTIONARY
  5
4BB
102
{ACAD_REACTORS
330
C
102
}
330
C
100
AcDbDictionary
  3
CANNOSCALE
350
4C8
  3
CENTEREXE
350
4C2
  3
CENTERLTYPEFILE
350
4C3
  3
CMLEADERSTYLE
350
4BD
  3
CTABLESTYLE
350
4BC
  3
DIMASSOC
350
4C4
  3
HIDETEXT
350
4C5
  3
MSLTSCALE
350
4C9
  3
PSOLHEIGHT
350
4BF
  3
PSOLWIDTH
350
4BE
  0
XRECORD
  5
4C7
102
{ACAD_REACTORS
330
4C6
102
}
330
4C6
100
AcDbXrecord
102
VTR_0.000_0.000_1.000_1.000_VISUALSTYLE
340
2F
102
VTR_0.000_0.000_1.000_1.000_GRIDDISPLAY
 70
     3
102
VTR_0.000_0.000_1.000_1.000_GRIDMAJOR
 70
     5
102
VTR_0.000_0.000_1.000_1.000_DEFAULTLIGHTING
280
     1
102
VTR_0.000_0.000_1.000_1.000_DEFAULTLIGHTINGTYPE
 70
     1
102
VTR_0.000_0.000_1.000_1.000_BRIGHTNESS
141
0.0
102
VTR_0.000_0.000_1.000_1.000_CONTRAST
142
0.0
  0
MATERIAL
  5
45
102
{ACAD_REACTORS
330
43
102
}
102
{ACAD_XDICTIONARY
360
4CC
102
}
330
43
100
AcDbMaterial
  1
BYBLOCK
  0
MATERIAL
  5
44
102
{ACAD_REACTORS
330
43
102
}
102
{ACAD_XDICTIONARY
360
4CA
102
}
330
43
100
AcDbMaterial
  1
BYLAYER
  0
MATERIAL
  5
46
102
{ACAD_REACTORS
330
43
102
}
102
{ACAD_XDICTIONARY
360
4CE
102
}
330
43
100
AcDbMaterial
  1
GLOBAL
  0
ACAD_PROXY_OBJECT
  5
6C
102
{ACAD_REACTORS
330
6B
102
}
330
6B
100
AcDbProxyObject
 90
      499
 91
      505
 93
      610
310
40901902A4063FBFFFFFE0000000000000020400000000000020404214DD185B99185C990000000000000104090141901A00000000000004100000000000000041025764000000000000039000
340
14
340
0
340
11
340
0
 94
        0
1001
ACAD_MLEADERVER
1070
     2
  0
MLINESTYLE
  5
18
102
{ACAD_REACTORS
330
17
102
}
330
17
100
AcDbMlineStyle
  2
Standard
 70
     0
  3

 62
   256
 51
90.0
 52
90.0
 71
     2
 49
0.5
 62
   256
  6
BYLAYER
 49
-0.5
 62
   256
  6
BYLAYER
  0
ACAD_PROXY_OBJECT
  5
48
102
{ACAD_REACTORS
330
47
102
}
330
47
100
AcDbProxyObject
 90
      499
 91
      503
 93
       41
310
903313A31580
  0
ACAD_PROXY_OBJECT
  5
49
102
{ACAD_REACTORS
330
47
102
}
330
47
100
AcDbProxyObject
 90
      499
 91
      503
 93
      105
310
903313A324000000000000004000
  0
ACAD_PROXY_OBJECT
  5
4A
102
{ACAD_REACTORS
330
47
102
}
330
47
100
AcDbProxyObject
 90
      499
 91
      503
 93
      105
310
903313A344000000000000104000
  0
ACAD_PROXY_OBJECT
  5
4B
102
{ACAD_REACTORS
330
47
102
}
330
47
100
AcDbProxyObject
 90
      499
 91
      503
 93
      105
310
903313A354000000000000144000
  0
ACAD_PROXY_OBJECT
  5
4C
102
{ACAD_REACTORS
330
47
102
}
330
47
100
AcDbProxyObject
 90
      499
 91
      503
 93
      105
310
903313A384000000000000204000
  0
ACAD_PROXY_OBJECT
  5
4D
102
{ACAD_REACTORS
330
47
102
}
330
47
100
AcDbProxyObject
 90
      499
 91
      503
 93
      113
310
904313A31304000000000000244000
  0
ACAD_PROXY_OBJECT
  5
4E
102
{ACAD_REACTORS
330
47
102
}
330
47
100
AcDbProxyObject
 90
      499
 91
      503
 93
      113
310
904313A31364000000000000304000
  0
ACAD_PROXY_OBJECT
  5
4F
102
{ACAD_REACTORS
330
47
102
}
330
47
100
AcDbProxyObject
 90
      499
 91
      503
 93
      113
310
904313A32304000000000000344000
  0
ACAD_PROXY_OBJECT
  5
50
102
{ACAD_REACTORS
330
47
102
}
330
47
100
AcDbProxyObject
 90
      499
 91
      503
 93
      113
310
904313A333040000000000003E4000
  0
ACAD_PROXY_OBJECT
  5
51
102
{ACAD_REACTORS
330
47
102
}
330
47
100
AcDbProxyObject
 90
      499
 91
      503
 93
      113
310
904313A34304000000000000444000
  0
ACAD_PROXY_OBJECT
  5
52
102
{ACAD_REACTORS
330
47
102
}
330
47
100
AcDbProxyObject
 90
      499
 91
      503
 93
      113
310
904313A35304000000000000494000
  0
ACAD_PROXY_OBJECT
  5
53
102
{ACAD_REACTORS
330
47
102
}
330
47
100
AcDbProxyObject
 90
      499
 91
      503
 93
      121
310
905313A3130304000000000000594000
  0
ACAD_PROXY_OBJECT
  5
54
102
{ACAD_REACTORS
330
47
102
}
330
47
100
AcDbProxyObject
 90
      499
 91
      503
 93
      105
310
903323A310000000000000010100
  0
ACAD_PROXY_OBJECT
  5
55
102
{ACAD_REACTORS
330
47
102
}
330
47
100
AcDbProxyObject
 90
      499
 91
      503
 93
      105
310
903343A310000000000000410100
  0
ACAD_PROXY_OBJECT
  5
56
102
{ACAD_REACTORS
330
47
102
}
330
47
100
AcDbProxyObject
 90
      499
 91
      503
 93
      105
310
903383A310000000000000810100
  0
ACAD_PROXY_OBJECT
  5
57
102
{ACAD_REACTORS
330
47
102
}
330
47
100
AcDbProxyObject
 90
      499
 91
      503
 93
      113
310
90431303A310000000000000910100
  0
ACAD_PROXY_OBJECT
  5
58
102
{ACAD_REACTORS
330
47
102
}
330
47
100
AcDbProxyObject
 90
      499
 91
      503
 93
      121
310
9053130303A310000000000001650100
  0
ACAD_PROXY_OBJECT
  5
59
102
{ACAD_REACTORS
330
47
102
}
330
47
100
AcDbProxyObject
 90
      499
 91
      503
 93
      257
310
90E312F31323822203D2031272D3022000000000000200FC000000000000284000
  0
ACAD_PROXY_OBJECT
  5
5A
102
{ACAD_REACTORS
330
47
102
}
330
47
100
AcDbProxyObject
 90
      499
 91
      503
 93
      249
310
90D312F363422203D2031272D3022000000000000240FC000000000000284000
  0
ACAD_PROXY_OBJECT
  5
5B
102
{ACAD_REACTORS
330
47
102
}
330
47
100
AcDbProxyObject
 90
      499
 91
      503
 93
      249
310
90D312F333222203D2031272D3022000000000000280FC000000000000284000
  0
ACAD_PROXY_OBJECT
  5
5C
102
{ACAD_REACTORS
330
47
102
}
330
47
100
AcDbProxyObject
 90
      499
 91
      503
 93
      249
310
90D312F313622203D2031272D30220000000000002C0FC000000000000284000
  0
ACAD_PROXY_OBJECT
  5
5D
102
{ACAD_REACTORS
330
47
102
}
330
47
100
AcDbProxyObject
 90
      499
 91
      503
 93
      249
310
90D332F333222203D2031272D30220000000000002E0FC000000000000284000
  0
ACAD_PROXY_OBJECT
  5
5E
102
{ACAD_REACTORS
330
47
102
}
330
47
100
AcDbProxyObject
 90
      499
 91
      503
 93
      241
310
90C312F3822203D2031272D3022000000000000300FC000000000000284000
  0
ACAD_PROXY_OBJECT
  5
5F
102
{ACAD_REACTORS
330
47
102
}
330
47
100
AcDbProxyObject
 90
      499
 91
      503
 93
      249
310
90D332F313622203D2031272D3022000000000000320FC000000000000284000
  0
ACAD_PROXY_OBJECT
  5
60
102
{ACAD_REACTORS
330
47
102
}
330
47
100
AcDbProxyObject
 90
      499
 91
      503
 93
      241
310
90C312F3422203D2031272D3022000000000000340FC000000000000284000
  0
ACAD_PROXY_OBJECT
  5
61
102
{ACAD_REACTORS
330
47
102
}
330
47
100
AcDbProxyObject
 90
      499
 91
      503
 93
      241
310
90C332F3822203D2031272D3022000000000000360FC000000000000284000
  0
ACAD_PROXY_OBJECT
  5
62
102
{ACAD_REACTORS
330
47
102
}
330
47
100
AcDbProxyObject
 90
      499
 91
      503
 93
      241
310
90C312F3222203D2031272D3022000000000000380FC000000000000284000
  0
ACAD_PROXY_OBJECT
  5
63
102
{ACAD_REACTORS
330
47
102
}
330
47
100
AcDbProxyObject
 90
      499
 91
      503
 93
      241
310
90C332F3422203D2031272D30220000000000003A0FC000000000000284000
  0
ACAD_PROXY_OBJECT
  5
64
102
{ACAD_REACTORS
330
47
102
}
330
47
100
AcDbProxyObject
 90
      499
 91
      503
 93
      161
310
90A3122203D2031272D30224000000000000284000
  0
ACAD_PROXY_OBJECT
  5
65
102
{ACAD_REACTORS
330
47
102
}
330
47
100
AcDbProxyObject
 90
      499
 91
      503
 93
      257
310
90E312D312F3222203D2031272D30220000000000003E0FC000000000000284000
  0
ACAD_PROXY_OBJECT
  5
66
102
{ACAD_REACTORS
330
47
102
}
330
47
100
AcDbProxyObject
 90
      499
 91
      503
 93
      225
310
90A3322203D2031272D302200000000000002100000000000000284000
  0
ACAD_PROXY_OBJECT
  5
67
102
{ACAD_REACTORS
330
47
102
}
330
47
100
AcDbProxyObject
 90
      499
 91
      503
 93
      225
310
90A3622203D2031272D302200000000000006100000000000000284000
  0
ACAD_PROXY_OBJECT
  5
68
102
{ACAD_REACTORS
330
47
102
}
330
47
100
AcDbProxyObject
 90
      499
 91
      503
 93
      249
310
90D31272D3022203D2031272D30220000000000000A100000000000000284000
  0
ACAD_PROXY_OBJECT
  5
2F
102
{ACAD_REACTORS
330
2A
102
}
330
2A
100
AcDbProxyObject
 90
      499
 91
      501
 93
      436
310
42CC9915DA5C99599C985B595049028333333333333E33F0000000000000F90107901411070040501600405405064090741402480A0340
1001
ACAD
1000
AcDbSavedByObjectVersion
1070
     0
  0
ACAD_PROXY_OBJECT
  5
32
102
{ACAD_REACTORS
330
2A
102
}
330
2A
100
AcDbProxyObject
 90
      499
 91
      501
 93
      388
310
4150985CDA58D07406404333333333333E33F0000000000000F90107A41107004050150841D405064090741402480A0350
1001
ACAD
1000
AcDbSavedByObjectVersion
1070
     0
  0
ACAD_PROXY_OBJECT
  5
36
102
{ACAD_REACTORS
330
2A
102
}
330
2A
100
AcDbProxyObject
 90
      499
 91
      501
 93
      428
310
42109C9A59DA1D195B90C409028333333333333E33F0000000000000F9010790141107004050150841D405064090741402480A029950
1001
ACAD
1000
AcDbSavedByObjectVersion
1070
     0
  0
ACAD_PROXY_OBJECT
  5
3A
102
{ACAD_REACTORS
330
2A
102
}
330
2A
100
AcDbProxyObject
 90
      499
 91
      501
 93
      452
310
42D0DBDB1BDC90DA185B99D95104090240C333333333333E33F0000000000000F90108901411070040501508421405064090741402480A0350
1001
ACAD
1000
AcDbSavedByObjectVersion
1070
     0
  0
ACAD_PROXY_OBJECT
  5
34
102
{ACAD_REACTORS
330
2A
102
}
330
2A
100
AcDbProxyObject
 90
      499
 91
      501
 93
      500
310
4290DBDB98D95C1D1D585B10940D028333333333333E33F0000000000000F90107902409070040501000000000018199010841D405064090740C02480A0340
1001
ACAD
1000
AcDbSavedByObjectVersion
1070
     0
  0
ACAD_PROXY_OBJECT
  5
35
102
{ACAD_REACTORS
330
2A
102
}
330
2A
100
AcDbProxyObject
 90
      499
 91
      501
 93
      412
310
40D11A5B50B409028333333333333E33F0000000000000F9010790141107004050150841D405064090741402480A02677FFFFFD0
1001
ACAD
1000
AcDbSavedByObjectVersion
1070
     0
  0
ACAD_PROXY_OBJECT
  5
3D
102
{ACAD_REACTORS
330
2A
102
}
330
2A
100
AcDbProxyObject
 90
      499
 91
      501
 93
      452
310
43115919D950DBDB1BDC93D999916409028333333333333E33F0000000000000F9010790141107004050150841D405064090741402480A0350
1001
ACAD
1000
AcDbSavedByObjectVersion
1070
     0
  0
ACAD_PROXY_OBJECT
  5
39
102
{ACAD_REACTORS
330
2A
102
}
330
2A
100
AcDbProxyObject
 90
      499
 91
      501
 93
      444
310
42D19858D95C185D1D195C9B90F409028333333333333E33F0000000000000F9010790141107004050150841D405064090741402480A0350
1001
ACAD
1000
AcDbSavedByObjectVersion
1070
     0
  0
ACAD_PROXY_OBJECT
  5
2B
102
{ACAD_REACTORS
330
2A
102
}
330
2A
100
AcDbProxyObject
 90
      499
 91
      501
 93
      380
310
41119B185D240901404333333333333E33F0000000000000F9010740A907004050150841D405064090741402480A1B50
1001
ACAD
1000
AcDbSavedByObjectVersion
1070
     0
  0
ACAD_PROXY_OBJECT
  5
2C
102
{ACAD_REACTORS
330
2A
102
}
330
2A
100
AcDbProxyObject
 90
      499
 91
      501
 93
      468
310
43519B185D15DA5D1A115919D95CD0140901404333333333333E33F0000000000000F90107409019070040501600405405064090741402480A1B50
1001
ACAD
1000
AcDbSavedByObjectVersion
1070
     0
  0
ACAD_PROXY_OBJECT
  5
2D
102
{ACAD_REACTORS
330
2A
102
}
330
2A
100
AcDbProxyObject
 90
      499
 91
      501
 93
      404
310
41D1DBDD5C985D5910240902404333333333333E33F0000000000000F9010740A9070040501641D405064090741402480A1B50
1001
ACAD
1000
AcDbSavedByObjectVersion
1070
     0
  0
ACAD_PROXY_OBJECT
  5
2E
102
{ACAD_REACTORS
330
2A
102
}
330
2A
100
AcDbProxyObject
 90
      499
 91
      501
 93
      492
310
4411DBDD5C985D5915DA5D1A115919D95CD0340902404333333333333E33F0000000000000F90107409019070040501600405405064090741402480A1B50
1001
ACAD
1000
AcDbSavedByObjectVersion
1070
     0
  0
ACAD_PROXY_OBJECT
  5
31
102
{ACAD_REACTORS
330
2A
102
}
330
2A
100
AcDbProxyObject
 90
      499
 91
      501
 93
      476
310
41921A5919195B90640502408333333333333E33F0000000000000F901079024090700405020000000000001110200405405064090740C02480A0340
1001
ACAD
1000
AcDbSavedByObjectVersion
1070
     0
  0
ACAD_PROXY_OBJECT
  5
3B
102
{ACAD_REACTORS
330
2A
102
}
330
2A
100
AcDbProxyObject
 90
      499
 91
      501
 93
      428
310
42529A5D1D195C93D999914409028333333333333E33F0000000000000F9010790141107004050150A41D405064090741402480A0350
1001
ACAD
1000
AcDbSavedByObjectVersion
1070
     0
  0
ACAD_PROXY_OBJECT
  5
38
102
{ACAD_REACTORS
330
2A
102
}
330
2A
100
AcDbProxyObject
 90
      499
 91
      501
 93
      444
310
42D31A5B995C185D1D195C9B90E409028333333333333E33F0000000000000F9010790141107004050750841D405064090741402483A0350
1001
ACAD
1000
AcDbSavedByObjectVersion
1070
     0
  0
ACAD_PROXY_OBJECT
  5
3C
102
{ACAD_REACTORS
330
2A
102
}
330
2A
100
AcDbProxyObject
 90
      499
 91
      501
 93
      444
310
42D3DD995C9A185B99D3D999915409028333333333333E33F0000000000000F9010790141107004050150941D405064090741402480A0350
1001
ACAD
1000
AcDbSavedByObjectVersion
1070
     0
  0
ACAD_PROXY_OBJECT
  5
33
102
{ACAD_REACTORS
330
2A
102
}
330
2A
100
AcDbProxyObject
 90
      499
 91
      501
 93
      428
310
425499585B1A5CDD1A58D08409038333333333333E33F0000000000000F9010740A907004050150800405405064090740C02480A1B40
1001
ACAD
1000
AcDbSavedByObjectVersion
1070
     0
  0
ACAD_PROXY_OBJECT
  5
42
102
{ACAD_REACTORS
330
2A
102
}
330
2A
100
AcDbProxyObject
 90
      499
 91
      501
 93
      420
310
4194DA1859195911B40902404333333333333E33F0000000000000F9010740A41107004050150800405405064090840C02480A0B40
1001
ACAD
1000
AcDbSavedByObjectVersion
1070
     0
  0
ACAD_PROXY_OBJECT
  5
41
102
{ACAD_REACTORS
330
2A
102
}
330
2A
100
AcDbProxyObject
 90
      499
 91
      501
 93
      516
310
4454DA18591959081DDA5D1A08195919D95CD1A40902404333333333333E33F0000000000000F901074090142907004050250800405405064090740C02480A0B40
1001
ACAD
1000
AcDbSavedByObjectVersion
1070
     0
  0
ACAD_PROXY_OBJECT
  5
3E
102
{ACAD_REACTORS
330
2A
102
}
330
2A
100
AcDbProxyObject
 90
      499
 91
      501
 93
      532
310
4394DA1859195CC81BD98811DC985E5174090240C333333333333E33F0000000000000F901079024090741D01000000000000111010841D405064090740C02480A0340
1001
ACAD
1000
AcDbSavedByObjectVersion
1070
     0
  0
ACAD_PROXY_OBJECT
  5
3F
102
{ACAD_REACTORS
330
2A
102
}
330
2A
100
AcDbProxyObject
 90
      499
 91
      501
 93
      476
310
41D4DAD95D18DA1E51840502408333333333333E33F0000000000000F901079024090741D01000000000000111010B41D405064090741802480A0340
1001
ACAD
1000
AcDbSavedByObjectVersion
1070
     0
  0
ACAD_PROXY_OBJECT
  5
37
102
{ACAD_REACTORS
330
2A
102
}
330
2A
100
AcDbProxyObject
 90
      499
 91
      501
 93
      412
310
41D51A1A58DAD95B90D409028333333333333E33F0000000000000F9010790141107004050150C41D405064090741402480A0350
1001
ACAD
1000
AcDbSavedByObjectVersion
1070
     0
  0
ACAD_PROXY_OBJECT
  5
30
102
{ACAD_REACTORS
330
2A
102
}
330
2A
100
AcDbProxyObject
 90
      499
 91
      501
 93
      420
310
4255DA5C99599C985B595059028333333333333E33F0000000000000F90107901411070040501600405405064090740C02480A0340
1001
ACAD
1000
AcDbSavedByObjectVersion
1070
     0
  0
ACAD_PROXY_OBJECT
  5
40
102
{ACAD_REACTORS
330
2A
102
}
330
2A
100
AcDbProxyObject
 90
      499
 91
      501
 93
      404
310
41560B54985E51940902404000000000000E03F0000000000000F9010740501907004050150841D405064090740C02480A1B40
1001
ACAD
1000
AcDbSavedByObjectVersion
1070
     0
  0
XRECORD
  5
4A4
102
{ACAD_REACTORS
330
49A
102
}
330
49A
100
AcDbXrecord
340
0
  0
XRECORD
  5
4A3
102
{ACAD_REACTORS
330
49A
102
}
330
49A
100
AcDbXrecord
 90
        0
  0
XRECORD
  5
4BA
102
{ACAD_REACTORS
330
49A
102
}
330
49A
100
AcDbXrecord
1000
DSTYLE
1002
{
1070
   340
340
11
1002
}
  0
XRECORD
  5
4A5
102
{ACAD_REACTORS
330
49A
102
}
330
49A
100
AcDbXrecord
  1
{6c8dc0cb-6fa6-4cd9-be28-93eb8686a77a}
  0
XRECORD
  5
49D
102
{ACAD_REACTORS
330
49A
102
}
330
49A
100
AcDbXrecord
  1

  0
XRECORD
  5
4A2
102
{ACAD_REACTORS
330
49A
102
}
330
49A
100
AcDbXrecord
 90
        4
  0
XRECORD
  5
49F
102
{ACAD_REACTORS
330
49A
102
}
330
49A
100
AcDbXrecord
340
1A
  0
XRECORD
  5
4A1
102
{ACAD_REACTORS
330
49A
102
}
330
49A
100
AcDbXrecord
 90
    10781
  0
XRECORD
  5
4A0
102
{ACAD_REACTORS
330
49A
102
}
330
49A
100
AcDbXrecord
340
19
  0
XRECORD
  5
4A7
102
{ACAD_REACTORS
330
49A
102
}
330
49A
100
AcDbXrecord
 40
0.0
  0
XRECORD
  5
4AA
102
{ACAD_REACTORS
330
49A
102
}
330
49A
100
AcDbXrecord
340
0
  0
XRECORD
  5
4B0
102
{ACAD_REACTORS
330
49A
102
}
330
49A
100
AcDbXrecord
 10
0.0
 20
0.0
 30
0.0
  0
XRECORD
  5
4AC
102
{ACAD_REACTORS
330
49A
102
}
330
49A
100
AcDbXrecord
 10
0.0
 20
0.0
 30
0.0
  0
XRECORD
  5
4AF
102
{ACAD_REACTORS
330
49A
102
}
330
49A
100
AcDbXrecord
 10
0.0
 20
0.0
 30
0.0
  0
XRECORD
  5
4AD
102
{ACAD_REACTORS
330
49A
102
}
330
49A
100
AcDbXrecord
 10
0.0
 20
0.0
 30
0.0
  0
XRECORD
  5
4AE
102
{ACAD_REACTORS
330
49A
102
}
330
49A
100
AcDbXrecord
 10
0.0
 20
0.0
 30
0.0
  0
XRECORD
  5
4AB
102
{ACAD_REACTORS
330
49A
102
}
330
49A
100
AcDbXrecord
 10
0.0
 20
0.0
 30
0.0
  0
XRECORD
  5
4A8
102
{ACAD_REACTORS
330
49A
102
}
330
49A
100
AcDbXrecord
340
0
  0
XRECORD
  5
4A9
102
{ACAD_REACTORS
330
49A
102
}
330
49A
100
AcDbXrecord
 70
     0
  0
XRECORD
  5
49E
102
{ACAD_REACTORS
330
49A
102
}
330
49A
100
AcDbXrecord
  1

  0
XRECORD
  5
49B
102
{ACAD_REACTORS
330
49A
102
}
330
49A
100
AcDbXrecord
 90
        1
  0
XRECORD
  5
49C
102
{ACAD_REACTORS
330
49A
102
}
330
49A
100
AcDbXrecord
 90
       70
  0
XRECORD
  5
4B3
102
{ACAD_REACTORS
330
49A
102
}
330
49A
100
AcDbXrecord
340
0
  0
XRECORD
  5
4B9
102
{ACAD_REACTORS
330
49A
102
}
330
49A
100
AcDbXrecord
 10
0.0
 20
0.0
 30
0.0
  0
XRECORD
  5
4B5
102
{ACAD_REACTORS
330
49A
102
}
330
49A
100
AcDbXrecord
 10
0.0
 20
0.0
 30
0.0
  0
XRECORD
  5
4B8
102
{ACAD_REACTORS
330
49A
102
}
330
49A
100
AcDbXrecord
 10
0.0
 20
0.0
 30
0.0
  0
XRECORD
  5
4B6
102
{ACAD_REACTORS
330
49A
102
}
330
49A
100
AcDbXrecord
 10
0.0
 20
0.0
 30
0.0
  0
XRECORD
  5
4B7
102
{ACAD_REACTORS
330
49A
102
}
330
49A
100
AcDbXrecord
 10
0.0
 20
0.0
 30
0.0
  0
XRECORD
  5
4B4
102
{ACAD_REACTORS
330
49A
102
}
330
49A
100
AcDbXrecord
 10
0.0
 20
0.0
 30
0.0
  0
XRECORD
  5
4B1
102
{ACAD_REACTORS
330
49A
102
}
330
49A
100
AcDbXrecord
340
0
  0
XRECORD
  5
4B2
102
{ACAD_REACTORS
330
49A
102
}
330
49A
100
AcDbXrecord
 70
     0
  0
XRECORD
  5
4A6
102
{ACAD_REACTORS
330
49A
102
}
330
49A
100
AcDbXrecord
  1
{FAEB1C32-E019-11D5-929B-00C0DF256EC4}
  0
DICTIONARYVAR
  5
4C8
102
{ACAD_REACTORS
330
4BB
102
}
330
4BB
100
DictionaryVariables
280
     0
  1
1:1
  0
DICTIONARYVAR
  5
4C2
102
{ACAD_REACTORS
330
4BB
102
}
330
4BB
100
DictionaryVariables
280
     0
  1
3.500000
  0
DICTIONARYVAR
  5
4C3
102
{ACAD_REACTORS
330
4BB
102
}
330
4BB
100
DictionaryVariables
280
     0
  1
acadiso.lin
  0
DICTIONARYVAR
  5
4BD
102
{ACAD_REACTORS
330
4BB
102
}
330
4BB
100
DictionaryVariables
280
     0
  1
Standard
  0
DICTIONARYVAR
  5
4BC
102
{ACAD_REACTORS
330
4BB
102
}
330
4BB
100
DictionaryVariables
280
     0
  1
Standard
  0
DICTIONARYVAR
  5
4C4
102
{ACAD_REACTORS
330
4BB
102
}
330
4BB
100
DictionaryVariables
280
     0
  1
2
  0
DICTIONARYVAR
  5
4C5
102
{ACAD_REACTORS
330
4BB
102
}
330
4BB
100
DictionaryVariables
280
     0
  1
1
  0
DICTIONARYVAR
  5
4C9
102
{ACAD_REACTORS
330
4BB
102
}
330
4BB
100
DictionaryVariables
280
     0
  1
1
  0
DICTIONARYVAR
  5
4BF
102
{ACAD_REACTORS
330
4BB
102
}
330
4BB
100
DictionaryVariables
280
     0
  1
80.000000
  0
DICTIONARYVAR
  5
4BE
102
{ACAD_REACTORS
330
4BB
102
}
330
4BB
100
DictionaryVariables
280
     0
  1
5.000000
  0
DICTIONARY
  5
4CC
330
45
100
AcDbDictionary
280
     1
  3
ACAD_XREC_ROUNDTRIP
360
4CD
  0
DICTIONARY
  5
4CA
330
44
100
AcDbDictionary
280
     1
  3
ACAD_XREC_ROUNDTRIP
360
4CB
  0
DICTIONARY
  5
4CE
330
46
100
AcDbDictionary
280
     1
  3
ACAD_XREC_ROUNDTRIP
360
4CF
  0
XRECORD
  5
4CD
102
{ACAD_REACTORS
330
4CC
102
}
330
4CC
100
AcDbXrecord
102
MATERIAL
148
0.0
149
0.0
149
0.0
 93
        0
 94
      127
282
     0
 72
     1
 77
     1
171
     1
175
     1
179
     1
273
     0
  0
XRECORD
  5
4CB
102
{ACAD_REACTORS
330
4CA
102
}
330
4CA
100
AcDbXrecord
102
MATERIAL
148
0.0
149
0.0
149
0.0
 93
        0
 94
      127
282
     0
 72
     1
 77
     1
171
     1
175
     1
179
     1
273
     0
  0
XRECORD
  5
4CF
102
{ACAD_REACTORS
330
4CE
102
}
330
4CE
100
AcDbXrecord
102
MATERIAL
148
0.0
149
0.0
149
0.0
 93
        0
 94
      127
282
     0
 72
     1
 77
     1
171
     1
175
     1
179
     1
273
     0
  0
ENDSEC
  0
EOF
