  0
SECTION
  2
HEADER
  9
$ACADVER
  1
AC1014
  9
$ACADMAINTVER
 70
     9
  9
$DWGCODEPAGE
  3
ANSI_932
  9
$INSBASE
 10
0.0
 20
0.0
 30
0.0
  9
$EXTMIN
 10
60.0
 20
60.0
 30
0.0
  9
$EXTMAX
 10
2460.0
 20
1722.0
 30
0.0
  9
$LIMMIN
 10
0.0
 20
0.0
  9
$LIMMAX
 10
420.0
 20
297.0
  9
$ORTHOMODE
 70
     0
  9
$REGENMODE
 70
     1
  9
$FILLMODE
 70
     1
  9
$QTEXTMODE
 70
     0
  9
$MIRRTEXT
 70
     1
  9
$DRAGMODE
 70
     2
  9
$LTSCALE
 40
1.0
  9
$OSMODE
 70
    37
  9
$ATTMODE
 70
     1
  9
$TEXTSIZE
 40
2.5
  9
$TRACEWID
 40
1.0
  9
$TEXTSTYLE
  7
STANDARD
  9
$CLAYER
  8
Ｓ_１_１
  9
$CELTYPE
  6
BYLAYER
  9
$CECOLOR
 62
   256
  9
$CELTSCALE
 40
1.0
  9
$DELOBJ
 70
     1
  9
$DISPSILH
 70
     0
  9
$DIMSCALE
 40
1.0
  9
$DIMASZ
 40
2.5
  9
$DIMEXO
 40
0.625
  9
$DIMDLI
 40
3.75
  9
$DIMRND
 40
0.0
  9
$DIMDLE
 40
0.0
  9
$DIMEXE
 40
1.25
  9
$DIMTP
 40
0.0
  9
$DIMTM
 40
0.0
  9
$DIMTXT
 40
2.5
  9
$DIMCEN
 40
2.5
  9
$DIMTSZ
 40
0.0
  9
$DIMTOL
 70
     0
  9
$DIMLIM
 70
     0
  9
$DIMTIH
 70
     0
  9
$DIMTOH
 70
     0
  9
$DIMSE1
 70
     0
  9
$DIMSE2
 70
     0
  9
$DIMTAD
 70
     1
  9
$DIMZIN
 70
     8
  9
$DIMBLK
  1

  9
$DIMASO
 70
     1
  9
$DIMSHO
 70
     1
  9
$DIMPOST
  1

  9
$DIMAPOST
  1

  9
$DIMALT
 70
     0
  9
$DIMALTD
 70
     3
  9
$DIMALTF
 40
0.03937007874016
  9
$DIMLFAC
 40
1.0
  9
$DIMTOFL
 70
     1
  9
$DIMTVP
 40
0.0
  9
$DIMTIX
 70
     0
  9
$DIMSOXD
 70
     0
  9
$DIMSAH
 70
     0
  9
$DIMBLK1
  1

  9
$DIMBLK2
  1

  9
$DIMSTYLE
  2
ISO-25
  9
$DIMCLRD
 70
     0
  9
$DIMCLRE
 70
     0
  9
$DIMCLRT
 70
     0
  9
$DIMTFAC
 40
1.0
  9
$DIMGAP
 40
0.625
  9
$DIMJUST
 70
     0
  9
$DIMSD1
 70
     0
  9
$DIMSD2
 70
     0
  9
$DIMTOLJ
 70
     0
  9
$DIMTZIN
 70
     8
  9
$DIMALTZ
 70
     0
  9
$DIMALTTZ
 70
     0
  9
$DIMFIT
 70
     3
  9
$DIMUPT
 70
     0
  9
$DIMUNIT
 70
     2
  9
$DIMDEC
 70
     2
  9
$DIMTDEC
 70
     2
  9
$DIMALTU
 70
     2
  9
$DIMALTTD
 70
     3
  9
$DIMTXSTY
  7
STANDARD
  9
$DIMAUNIT
 70
     0
  9
$LUNITS
 70
     2
  9
$LUPREC
 70
     4
  9
$SKETCHINC
 40
1.0
  9
$FILLETRAD
 40
10.0
  9
$AUNITS
 70
     0
  9
$AUPREC
 70
     0
  9
$MENU
  1
.
  9
$ELEVATION
 40
0.0
  9
$PELEVATION
 40
0.0
  9
$THICKNESS
 40
0.0
  9
$LIMCHECK
 70
     0
  9
$CHAMFERA
 40
0.0
  9
$CHAMFERB
 40
0.0
  9
$CHAMFERC
 40
0.0
  9
$CHAMFERD
 40
0.0
  9
$SKPOLY
 70
     0
  9
$TDCREATE
 40
2459585.497402245
  9
$TDUPDATE
 40
2459585.497404282
  9
$TDINDWG
 40
0.0000000116
  9
$TDUSRTIMER
 40
0.0000000116
  9
$USRTIMER
 70
     1
  9
$ANGBASE
 50
0.0
  9
$ANGDIR
 70
     0
  9
$PDMODE
 70
     0
  9
$PDSIZE
 40
0.0
  9
$PLINEWID
 40
0.0
  9
$COORDS
 70
     1
  9
$SPLFRAME
 70
     0
  9
$SPLINETYPE
 70
     6
  9
$SPLINESEGS
 70
     8
  9
$ATTDIA
 70
     0
  9
$ATTREQ
 70
     1
  9
$HANDLING
 70
     1
  9
$HANDSEED
  5
539
  9
$SURFTAB1
 70
     6
  9
$SURFTAB2
 70
     6
  9
$SURFTYPE
 70
     6
  9
$SURFU
 70
     6
  9
$SURFV
 70
     6
  9
$UCSNAME
  2

  9
$UCSORG
 10
0.0
 20
0.0
 30
0.0
  9
$UCSXDIR
 10
1.0
 20
0.0
 30
0.0
  9
$UCSYDIR
 10
0.0
 20
1.0
 30
0.0
  9
$PUCSNAME
  2

  9
$PUCSORG
 10
0.0
 20
0.0
 30
0.0
  9
$PUCSXDIR
 10
1.0
 20
0.0
 30
0.0
  9
$PUCSYDIR
 10
0.0
 20
1.0
 30
0.0
  9
$USERI1
 70
     0
  9
$USERI2
 70
     0
  9
$USERI3
 70
     0
  9
$USERI4
 70
     0
  9
$USERI5
 70
     0
  9
$USERR1
 40
0.0
  9
$USERR2
 40
0.0
  9
$USERR3
 40
0.0
  9
$USERR4
 40
0.0
  9
$USERR5
 40
0.0
  9
$WORLDVIEW
 70
     1
  9
$SHADEDGE
 70
     3
  9
$SHADEDIF
 70
    70
  9
$TILEMODE
 70
     1
  9
$MAXACTVP
 70
    64
  9
$PINSBASE
 10
0.0
 20
0.0
 30
0.0
  9
$PLIMCHECK
 70
     0
  9
$PEXTMIN
 10
1.000000000000000E+20
 20
1.000000000000000E+20
 30
1.000000000000000E+20
  9
$PEXTMAX
 10
-1.000000000000000E+20
 20
-1.000000000000000E+20
 30
-1.000000000000000E+20
  9
$PLIMMIN
 10
0.0
 20
0.0
  9
$PLIMMAX
 10
420.0
 20
297.0
  9
$UNITMODE
 70
     0
  9
$VISRETAIN
 70
     1
  9
$PLINEGEN
 70
     0
  9
$PSLTSCALE
 70
     1
  9
$TREEDEPTH
 70
  3020
  9
$PICKSTYLE
 70
     1
  9
$CMLSTYLE
  2
STANDARD
  9
$CMLJUST
 70
     0
  9
$CMLSCALE
 40
20.0
  9
$PROXYGRAPHICS
 70
     1
  9
$MEASUREMENT
 70
     1
  0
ENDSEC
  0
SECTION
  2
CLASSES
  0
CLASS
  1
ACDBDICTIONARYWDFLT
  2
AcDbDictionaryWithDefault
  3
ObjectDBX Classes
 90
        0
280
     0
281
     0
  0
CLASS
  1
VISUALSTYLE
  2
AcDbVisualStyle
  3
ObjectDBX Classes
 90
     4095
280
     0
281
     0
  0
CLASS
  1
MATERIAL
  2
AcDbMaterial
  3
ObjectDBX Classes
 90
     1153
280
     0
281
     0
  0
CLASS
  1
SCALE
  2
AcDbScale
  3
ObjectDBX Classes
 90
     1153
280
     0
281
     0
  0
CLASS
  1
TABLESTYLE
  2
AcDbTableStyle
  3
ObjectDBX Classes
 90
     4095
280
     0
281
     0
  0
CLASS
  1
MLEADERSTYLE
  2
AcDbMLeaderStyle
  3
ACDB_MLEADERSTYLE_CLASS
 90
     4095
280
     0
281
     0
  0
CLASS
  1
SUN
  2
AcDbSun
  3
SCENEOE
 90
     1153
280
     0
281
     0
  0
CLASS
  1
DICTIONARYVAR
  2
AcDbDictionaryVar
  3
ObjectDBX Classes
 90
        0
280
     0
281
     0
  0
CLASS
  1
XRECORD
  2
AcDbXrecord
  3
ObjectDBX Classes
 90
        0
280
     0
281
     0
  0
CLASS
  1
LWPOLYLINE
  2
AcDbPolyline
  3
ObjectDBX Classes
 90
        0
280
     0
281
     1
  0
CLASS
  1
HATCH
  2
AcDbHatch
  3
ObjectDBX Classes
 90
        0
280
     0
281
     1
  0
CLASS
  1
ACDBPLACEHOLDER
  2
AcDbPlaceHolder
  3
ObjectDBX Classes
 90
        0
280
     0
281
     0
  0
CLASS
  1
LAYOUT
  2
AcDbLayout
  3
ObjectDBX Classes
 90
        0
280
     0
281
     0
  0
ENDSEC
  0
SECTION
  2
TABLES
  0
TABLE
  2
VPORT
  5
8
102
{ACAD_XDICTIONARY
360
52E
102
}
330
0
100
AcDbSymbolTable
 70
     1
  0
VPORT
  5
29
330
8
100
AcDbSymbolTableRecord
100
AcDbViewportTableRecord
  2
*ACTIVE
 70
     0
 10
0.0
 20
0.0
 11
1.0
 21
1.0
 12
1260.0
 22
891.0
 13
0.0
 23
0.0
 14
10.0
 24
10.0
 15
10.0
 25
10.0
 16
0.0
 26
0.0
 36
1.0
 17
0.0
 27
0.0
 37
0.0
 40
1662.0
 41
1.444043321299639
 42
50.0
 43
0.0
 44
0.0
 50
0.0
 51
0.0
 71
     0
 72
  1000
 73
     1
 74
     3
 75
     0
 76
     0
 77
     0
 78
     0
  0
ENDTAB
  0
TABLE
  2
LTYPE
  5
5
330
0
100
AcDbSymbolTable
 70
     8
  0
LTYPE
  5
14
330
5
100
AcDbSymbolTableRecord
100
AcDbLinetypeTableRecord
  2
BYBLOCK
 70
     0
  3

 72
    65
 73
     0
 40
0.0
  0
LTYPE
  5
15
330
5
100
AcDbSymbolTableRecord
100
AcDbLinetypeTableRecord
  2
BYLAYER
 70
     0
  3

 72
    65
 73
     0
 40
0.0
  0
LTYPE
  5
16
330
5
100
AcDbSymbolTableRecord
100
AcDbLinetypeTableRecord
  2
CONTINUOUS
 70
     0
  3
Solid line
 72
    65
 73
     0
 40
0.0
  0
LTYPE
  5
6E
330
5
100
AcDbSymbolTableRecord
100
AcDbLinetypeTableRecord
  2
EXLTYPE0
 70
     0
  3
破線
 72
    65
 73
     2
 40
4.0
 49
3.0
 74
     0
 49
-1.0
 74
     0
  0
LTYPE
  5
6F
330
5
100
AcDbSymbolTableRecord
100
AcDbLinetypeTableRecord
  2
EXLTYPE1
 70
     0
  3
点線
 72
    65
 73
     2
 40
2.0
 49
1.0
 74
     0
 49
-1.0
 74
     0
  0
LTYPE
  5
70
330
5
100
AcDbSymbolTableRecord
100
AcDbLinetypeTableRecord
  2
EXLTYPE2
 70
     0
  3
一点鎖線
 72
    65
 73
     4
 40
13.0
 49
10.0
 74
     0
 49
-1.0
 74
     0
 49
1.0
 74
     0
 49
-1.0
 74
     0
  0
LTYPE
  5
71
330
5
100
AcDbSymbolTableRecord
100
AcDbLinetypeTableRecord
  2
EXLTYPE3
 70
     0
  3
二点鎖線
 72
    65
 73
     6
 40
15.0
 49
10.0
 74
     0
 49
-1.0
 74
     0
 49
1.0
 74
     0
 49
-1.0
 74
     0
 49
1.0
 74
     0
 49
-1.0
 74
     0
  0
LTYPE
  5
72
330
5
100
AcDbSymbolTableRecord
100
AcDbLinetypeTableRecord
  2
EXLTYPE4
 70
     0
  3
一点鎖線2
 72
    65
 73
     4
 40
3.5
 49
2.0
 74
     0
 49
-0.5
 74
     0
 49
0.5
 74
     0
 49
-0.5
 74
     0
  0
LTYPE
  5
73
330
5
100
AcDbSymbolTableRecord
100
AcDbLinetypeTableRecord
  2
EXLTYPE5
 70
     0
  3
二点鎖線2
 72
    65
 73
     6
 40
4.5
 49
2.0
 74
     0
 49
-0.5
 74
     0
 49
0.5
 74
     0
 49
-0.5
 74
     0
 49
0.5
 74
     0
 49
-0.5
 74
     0
  0
LTYPE
  5
74
330
5
100
AcDbSymbolTableRecord
100
AcDbLinetypeTableRecord
  2
EXLTYPE6
 70
     0
  3
一点鎖線4
 72
    65
 73
     4
 40
13.0
 49
10.0
 74
     0
 49
-1.0
 74
     0
 49
1.0
 74
     0
 49
-1.0
 74
     0
  0
ENDTAB
  0
TABLE
  2
LAYER
  5
2
330
0
100
AcDbSymbolTable
 70
     4
  0
LAYER
  5
10
330
2
100
AcDbSymbolTableRecord
100
AcDbLayerTableRecord
  2
0
 70
     0
 62
     7
  6
CONTINUOUS
  0
LAYER
  5
77
330
2
100
AcDbSymbolTableRecord
100
AcDbLayerTableRecord
  2
図面枠
 70
     4
 62
     7
  6
CONTINUOUS
  0
LAYER
  5
78
330
2
100
AcDbSymbolTableRecord
100
AcDbLayerTableRecord
  2
Ｓ_１_１
 70
     0
 62
     7
  6
CONTINUOUS
  0
LAYER
  5
192
330
2
100
AcDbSymbolTableRecord
100
AcDbLayerTableRecord
  2
DEFPOINTS
 70
     0
 62
     7
  6
CONTINUOUS
  0
ENDTAB
  0
TABLE
  2
STYLE
  5
3
330
0
100
AcDbSymbolTable
 70
     5
  0
STYLE
  5
11
330
3
100
AcDbSymbolTableRecord
100
AcDbTextStyleTableRecord
  2
STANDARD
 70
     0
 40
0.0
 41
1.0
 50
0.0
 71
     0
 42
2.5
  3
monotxt
  4
extfont
  0
STYLE
  5
75
330
3
100
AcDbSymbolTableRecord
100
AcDbTextStyleTableRecord
  2
EXCADSTD
 70
     0
 40
0.0
 41
1.0
 50
0.0
 71
     0
 42
2.5
  3
monotxt
  4
extfont
  0
STYLE
  5
76
330
3
100
AcDbSymbolTableRecord
100
AcDbTextStyleTableRecord
  2
EXCADVERT
 70
     4
 40
0.0
 41
1.0
 50
0.0
 71
     0
 42
2.5
  3
monotxt
  4
extfont
  0
STYLE
  5
DA
330
3
100
AcDbSymbolTableRecord
100
AcDbTextStyleTableRecord
  2
EXCADTTF1
 70
     0
 40
0.0
 41
1.0
 50
0.0
 71
     0
 42
2.5
  3
msgothic.ttc
  4

1001
ACAD
1000
MS Gothic
1071
    32817
  0
STYLE
  5
190
330
3
100
AcDbSymbolTableRecord
100
AcDbTextStyleTableRecord
  2
EXCADDIM1
 70
     0
 40
0.0
 41
1.0
 50
0.0
 71
     0
 42
2.5
  3
msgothic.ttc
  4

1001
ACAD
1000
MS Gothic
1071
    32817
  0
ENDTAB
  0
TABLE
  2
VIEW
  5
6
330
0
100
AcDbSymbolTable
 70
     0
  0
ENDTAB
  0
TABLE
  2
UCS
  5
7
330
0
100
AcDbSymbolTable
 70
     0
  0
ENDTAB
  0
TABLE
  2
APPID
  5
9
330
0
100
AcDbSymbolTable
 70
     2
  0
APPID
  5
12
330
9
100
AcDbSymbolTableRecord
100
AcDbRegAppTableRecord
  2
ACAD
 70
     0
  0
APPID
  5
538
330
9
100
AcDbSymbolTableRecord
100
AcDbRegAppTableRecord
  2
ACAD_MLEADERVER
 70
     0
  0
ENDTAB
  0
TABLE
  2
DIMSTYLE
  5
A
330
0
100
AcDbSymbolTable
 70
     1
  0
DIMSTYLE
105
27
102
{ACAD_REACTORS
330
191
330
19F
330
1AA
330
1B6
330
1C5
330
1D0
330
1DD
330
1EA
330
1F7
330
207
330
212
330
21E
330
22A
330
237
330
30C
330
48B
102
}
330
A
100
AcDbSymbolTableRecord
100
AcDbDimStyleTableRecord
  2
ISO-25
 70
     0
  3

  4

  5

  6

  7

 40
1.0
 41
2.5
 42
0.625
 43
3.75
 44
1.25
 45
0.0
 46
0.0
 47
0.0
 48
0.0
140
2.5
141
2.5
142
0.0
143
0.03937007874016
144
1.0
145
0.0
146
1.0
147
0.625
 71
     0
 72
     0
 73
     0
 74
     0
 75
     0
 76
     0
 77
     1
 78
     8
170
     0
171
     3
172
     1
173
     0
174
     0
175
     0
176
     0
177
     0
178
     0
270
     2
271
     2
272
     2
273
     2
274
     3
340
11
275
     0
280
     0
281
     0
282
     0
283
     0
284
     8
285
     0
286
     0
287
     5
288
     0
  0
ENDTAB
  0
TABLE
  2
BLOCK_RECORD
  5
1
330
0
100
AcDbSymbolTable
 70
    30
  0
BLOCK_RECORD
  5
1F
330
1
100
AcDbSymbolTableRecord
100
AcDbBlockTableRecord
  2
*MODEL_SPACE
  0
BLOCK_RECORD
  5
1B
330
1
100
AcDbSymbolTableRecord
100
AcDbBlockTableRecord
  2
*PAPER_SPACE
  0
BLOCK_RECORD
  5
79
330
1
100
AcDbSymbolTableRecord
100
AcDbBlockTableRecord
  2
EX_NORM
  0
BLOCK_RECORD
  5
7C
330
1
100
AcDbSymbolTableRecord
100
AcDbBlockTableRecord
  2
EX_BNORM
  0
BLOCK_RECORD
  5
7F
330
1
100
AcDbSymbolTableRecord
100
AcDbBlockTableRecord
  2
EX_BCIR
  0
BLOCK_RECORD
  5
82
330
1
100
AcDbSymbolTableRecord
100
AcDbBlockTableRecord
  2
EX_RCIVIL
  0
BLOCK_RECORD
  5
85
330
1
100
AcDbSymbolTableRecord
100
AcDbBlockTableRecord
  2
EX_SLANT
  0
BLOCK_RECORD
  5
88
330
1
100
AcDbSymbolTableRecord
100
AcDbBlockTableRecord
  2
EX_NONE
  0
BLOCK_RECORD
  5
8B
330
1
100
AcDbSymbolTableRecord
100
AcDbBlockTableRecord
  2
EX_CIVIL
  0
BLOCK_RECORD
  5
8E
330
1
100
AcDbSymbolTableRecord
100
AcDbBlockTableRecord
  2
EX_WCIR
  0
BLOCK_RECORD
  5
91
330
1
100
AcDbSymbolTableRecord
100
AcDbBlockTableRecord
  2
EX_WCIR2
  0
BLOCK_RECORD
  5
94
330
1
100
AcDbSymbolTableRecord
100
AcDbBlockTableRecord
  2
EX_WNORM
  0
BLOCK_RECORD
  5
97
330
1
100
AcDbSymbolTableRecord
100
AcDbBlockTableRecord
  2
EX_NNORM
  0
BLOCK_RECORD
  5
9A
330
1
100
AcDbSymbolTableRecord
100
AcDbBlockTableRecord
  2
EX_BBOX
  0
BLOCK_RECORD
  5
9D
330
1
100
AcDbSymbolTableRecord
100
AcDbBlockTableRecord
  2
EX_WBOX
  0
BLOCK_RECORD
  5
A0
330
1
100
AcDbSymbolTableRecord
100
AcDbBlockTableRecord
  2
EX_INTEGRAL
  0
BLOCK_RECORD
  5
193
330
1
100
AcDbSymbolTableRecord
100
AcDbBlockTableRecord
  2
*D15
  0
BLOCK_RECORD
  5
1A0
330
1
100
AcDbSymbolTableRecord
100
AcDbBlockTableRecord
  2
*D16
  0
BLOCK_RECORD
  5
1AB
330
1
100
AcDbSymbolTableRecord
100
AcDbBlockTableRecord
  2
*D17
  0
BLOCK_RECORD
  5
1B7
330
1
100
AcDbSymbolTableRecord
100
AcDbBlockTableRecord
  2
*D18
  0
BLOCK_RECORD
  5
1C6
330
1
100
AcDbSymbolTableRecord
100
AcDbBlockTableRecord
  2
*D19
  0
BLOCK_RECORD
  5
1D1
330
1
100
AcDbSymbolTableRecord
100
AcDbBlockTableRecord
  2
*D20
  0
BLOCK_RECORD
  5
1DE
330
1
100
AcDbSymbolTableRecord
100
AcDbBlockTableRecord
  2
*D21
  0
BLOCK_RECORD
  5
1EB
330
1
100
AcDbSymbolTableRecord
100
AcDbBlockTableRecord
  2
*D22
  0
BLOCK_RECORD
  5
1F8
330
1
100
AcDbSymbolTableRecord
100
AcDbBlockTableRecord
  2
*D23
  0
BLOCK_RECORD
  5
208
330
1
100
AcDbSymbolTableRecord
100
AcDbBlockTableRecord
  2
*D24
  0
BLOCK_RECORD
  5
213
330
1
100
AcDbSymbolTableRecord
100
AcDbBlockTableRecord
  2
*D25
  0
BLOCK_RECORD
  5
21F
330
1
100
AcDbSymbolTableRecord
100
AcDbBlockTableRecord
  2
*D26
  0
BLOCK_RECORD
  5
22B
330
1
100
AcDbSymbolTableRecord
100
AcDbBlockTableRecord
  2
*D27
  0
BLOCK_RECORD
  5
238
330
1
100
AcDbSymbolTableRecord
100
AcDbBlockTableRecord
  2
*D28
  0
BLOCK_RECORD
  5
30D
330
1
100
AcDbSymbolTableRecord
100
AcDbBlockTableRecord
  2
*D29
  0
BLOCK_RECORD
  5
48C
330
1
100
AcDbSymbolTableRecord
100
AcDbBlockTableRecord
  2
*D30
  0
ENDTAB
  0
ENDSEC
  0
SECTION
  2
BLOCKS
  0
BLOCK
  5
20
330
1F
100
AcDbEntity
  8
0
100
AcDbBlockBegin
  2
*MODEL_SPACE
 70
     0
 10
0.0
 20
0.0
 30
0.0
  3
*MODEL_SPACE
  1

  0
ENDBLK
  5
21
330
1F
100
AcDbEntity
  8
0
100
AcDbBlockEnd
  0
BLOCK
  5
1C
330
1B
100
AcDbEntity
 67
     1
  8
0
100
AcDbBlockBegin
  2
*PAPER_SPACE
 70
     0
 10
0.0
 20
0.0
 30
0.0
  3
*PAPER_SPACE
  1

  0
ENDBLK
  5
1D
330
1B
100
AcDbEntity
 67
     1
  8
0
100
AcDbBlockEnd
  0
BLOCK
  5
7A
330
79
100
AcDbEntity
  8
0
100
AcDbBlockBegin
  2
EX_NORM
 70
     0
 10
0.0
 20
0.0
 30
0.0
  3
EX_NORM
  1

  0
LINE
  5
A3
330
79
100
AcDbEntity
  8
0
  6
CONTINUOUS
 62
     0
100
AcDbLine
 10
0.0
 20
0.0
 30
0.0
 11
-1.0
 21
0.0
 31
0.0
  0
LINE
  5
A4
330
79
100
AcDbEntity
  8
0
  6
CONTINUOUS
 62
     0
100
AcDbLine
 10
0.0
 20
0.0
 30
0.0
 11
-1.0
 21
0.166666667
 31
0.0
  0
LINE
  5
A5
330
79
100
AcDbEntity
  8
0
  6
CONTINUOUS
 62
     0
100
AcDbLine
 10
0.0
 20
0.0
 30
0.0
 11
-1.0
 21
-0.166666667
 31
0.0
  0
ENDBLK
  5
7B
330
79
100
AcDbEntity
  8
0
100
AcDbBlockEnd
  0
BLOCK
  5
7D
330
7C
100
AcDbEntity
  8
0
100
AcDbBlockBegin
  2
EX_BNORM
 70
     0
 10
0.0
 20
0.0
 30
0.0
  3
EX_BNORM
  1

  0
LINE
  5
A6
330
7C
100
AcDbEntity
  8
0
  6
CONTINUOUS
 62
     0
100
AcDbLine
 10
0.0
 20
0.0
 30
0.0
 11
-1.0
 21
0.0
 31
0.0
  0
LINE
  5
A7
330
7C
100
AcDbEntity
  8
0
  6
CONTINUOUS
 62
     0
100
AcDbLine
 10
0.0
 20
0.0
 30
0.0
 11
-1.0
 21
0.166666667
 31
0.0
  0
LINE
  5
A8
330
7C
100
AcDbEntity
  8
0
  6
CONTINUOUS
 62
     0
100
AcDbLine
 10
0.0
 20
0.0
 30
0.0
 11
-1.0
 21
-0.166666667
 31
0.0
  0
LINE
  5
A9
330
7C
100
AcDbEntity
  8
0
  6
CONTINUOUS
 62
     0
100
AcDbLine
 10
0.0
 20
0.0
 30
0.0
 11
-1.0
 21
0.083333333
 31
0.0
  0
LINE
  5
AA
330
7C
100
AcDbEntity
  8
0
  6
CONTINUOUS
 62
     0
100
AcDbLine
 10
0.0
 20
0.0
 30
0.0
 11
-1.0
 21
-0.083333333
 31
0.0
  0
LINE
  5
AB
330
7C
100
AcDbEntity
  8
0
  6
CONTINUOUS
 62
     0
100
AcDbLine
 10
-1.0
 20
0.166666667
 30
0.0
 11
-1.0
 21
-0.166666667
 31
0.0
  0
ENDBLK
  5
7E
330
7C
100
AcDbEntity
  8
0
100
AcDbBlockEnd
  0
BLOCK
  5
80
330
7F
100
AcDbEntity
  8
0
100
AcDbBlockBegin
  2
EX_BCIR
 70
     0
 10
0.0
 20
0.0
 30
0.0
  3
EX_BCIR
  1

  0
LINE
  5
AC
330
7F
100
AcDbEntity
  8
0
  6
CONTINUOUS
 62
     0
100
AcDbLine
 10
0.0
 20
0.0
 30
0.0
 11
-1.0
 21
0.0
 31
0.0
  0
CIRCLE
  5
AD
330
7F
100
AcDbEntity
  8
0
  6
CONTINUOUS
 62
     0
100
AcDbCircle
 10
0.0
 20
0.0
 30
0.0
 40
0.5
  0
CIRCLE
  5
AE
330
7F
100
AcDbEntity
  8
0
  6
CONTINUOUS
 62
     0
100
AcDbCircle
 10
0.0
 20
0.0
 30
0.0
 40
0.25
  0
ENDBLK
  5
81
330
7F
100
AcDbEntity
  8
0
100
AcDbBlockEnd
  0
BLOCK
  5
83
330
82
100
AcDbEntity
  8
0
100
AcDbBlockBegin
  2
EX_RCIVIL
 70
     0
 10
0.0
 20
0.0
 30
0.0
  3
EX_RCIVIL
  1

  0
LINE
  5
AF
330
82
100
AcDbEntity
  8
0
  6
CONTINUOUS
 62
     0
100
AcDbLine
 10
0.0
 20
0.0
 30
0.0
 11
-1.0
 21
0.0
 31
0.0
  0
LINE
  5
B0
330
82
100
AcDbEntity
  8
0
  6
CONTINUOUS
 62
     0
100
AcDbLine
 10
-1.0
 20
-0.25
 30
0.0
 11
0.0
 21
-0.25
 31
0.0
  0
LINE
  5
B1
330
82
100
AcDbEntity
  8
0
  6
CONTINUOUS
 62
     0
100
AcDbLine
 10
-1.0
 20
-0.125
 30
0.0
 11
0.0
 21
-0.125
 31
0.0
  0
ENDBLK
  5
84
330
82
100
AcDbEntity
  8
0
100
AcDbBlockEnd
  0
BLOCK
  5
86
330
85
100
AcDbEntity
  8
0
100
AcDbBlockBegin
  2
EX_SLANT
 70
     0
 10
0.0
 20
0.0
 30
0.0
  3
EX_SLANT
  1

  0
LINE
  5
B2
330
85
100
AcDbEntity
  8
0
  6
CONTINUOUS
 62
     0
100
AcDbLine
 10
0.0
 20
0.0
 30
0.0
 11
-1.0
 21
0.0
 31
0.0
  0
LINE
  5
B3
330
85
100
AcDbEntity
  8
0
  6
CONTINUOUS
 62
     0
100
AcDbLine
 10
0.707106781
 20
0.707106781
 30
0.0
 11
-0.707106781
 21
-0.707106781
 31
0.0
  0
ENDBLK
  5
87
330
85
100
AcDbEntity
  8
0
100
AcDbBlockEnd
  0
BLOCK
  5
89
330
88
100
AcDbEntity
  8
0
100
AcDbBlockBegin
  2
EX_NONE
 70
     0
 10
0.0
 20
0.0
 30
0.0
  3
EX_NONE
  1

  0
LINE
  5
B4
330
88
100
AcDbEntity
  8
0
  6
CONTINUOUS
 62
     0
100
AcDbLine
 10
0.0
 20
0.0
 30
0.0
 11
-1.0
 21
0.0
 31
0.0
  0
ENDBLK
  5
8A
330
88
100
AcDbEntity
  8
0
100
AcDbBlockEnd
  0
BLOCK
  5
8C
330
8B
100
AcDbEntity
  8
0
100
AcDbBlockBegin
  2
EX_CIVIL
 70
     0
 10
0.0
 20
0.0
 30
0.0
  3
EX_CIVIL
  1

  0
LINE
  5
B5
330
8B
100
AcDbEntity
  8
0
  6
CONTINUOUS
 62
     0
100
AcDbLine
 10
0.0
 20
0.0
 30
0.0
 11
-1.0
 21
0.0
 31
0.0
  0
LINE
  5
B6
330
8B
100
AcDbEntity
  8
0
  6
CONTINUOUS
 62
     0
100
AcDbLine
 10
-1.0
 20
0.25
 30
0.0
 11
0.0
 21
0.25
 31
0.0
  0
LINE
  5
B7
330
8B
100
AcDbEntity
  8
0
  6
CONTINUOUS
 62
     0
100
AcDbLine
 10
-1.0
 20
0.125
 30
0.0
 11
0.0
 21
0.125
 31
0.0
  0
ENDBLK
  5
8D
330
8B
100
AcDbEntity
  8
0
100
AcDbBlockEnd
  0
BLOCK
  5
8F
330
8E
100
AcDbEntity
  8
0
100
AcDbBlockBegin
  2
EX_WCIR
 70
     0
 10
0.0
 20
0.0
 30
0.0
  3
EX_WCIR
  1

  0
LINE
  5
B8
330
8E
100
AcDbEntity
  8
0
  6
CONTINUOUS
 62
     0
100
AcDbLine
 10
0.0
 20
0.0
 30
0.0
 11
-1.0
 21
0.0
 31
0.0
  0
CIRCLE
  5
B9
330
8E
100
AcDbEntity
  8
0
  6
CONTINUOUS
 62
     0
100
AcDbCircle
 10
0.0
 20
0.0
 30
0.0
 40
0.5
  0
ENDBLK
  5
90
330
8E
100
AcDbEntity
  8
0
100
AcDbBlockEnd
  0
BLOCK
  5
92
330
91
100
AcDbEntity
  8
0
100
AcDbBlockBegin
  2
EX_WCIR2
 70
     0
 10
0.0
 20
0.0
 30
0.0
  3
EX_WCIR2
  1

  0
LINE
  5
BA
330
91
100
AcDbEntity
  8
0
  6
CONTINUOUS
 62
     0
100
AcDbLine
 10
-0.5
 20
0.0
 30
0.0
 11
-1.0
 21
0.0
 31
0.0
  0
CIRCLE
  5
BB
330
91
100
AcDbEntity
  8
0
  6
CONTINUOUS
 62
     0
100
AcDbCircle
 10
0.0
 20
0.0
 30
0.0
 40
0.5
  0
ENDBLK
  5
93
330
91
100
AcDbEntity
  8
0
100
AcDbBlockEnd
  0
BLOCK
  5
95
330
94
100
AcDbEntity
  8
0
100
AcDbBlockBegin
  2
EX_WNORM
 70
     0
 10
0.0
 20
0.0
 30
0.0
  3
EX_WNORM
  1

  0
LINE
  5
BC
330
94
100
AcDbEntity
  8
0
  6
CONTINUOUS
 62
     0
100
AcDbLine
 10
-1.0
 20
0.0
 30
0.0
 11
-1.0
 21
0.0
 31
0.0
  0
LINE
  5
BD
330
94
100
AcDbEntity
  8
0
  6
CONTINUOUS
 62
     0
100
AcDbLine
 10
0.0
 20
0.0
 30
0.0
 11
-1.0
 21
0.166666667
 31
0.0
  0
LINE
  5
BE
330
94
100
AcDbEntity
  8
0
  6
CONTINUOUS
 62
     0
100
AcDbLine
 10
0.0
 20
0.0
 30
0.0
 11
-1.0
 21
-0.166666667
 31
0.0
  0
LINE
  5
BF
330
94
100
AcDbEntity
  8
0
  6
CONTINUOUS
 62
     0
100
AcDbLine
 10
-1.0
 20
0.166666667
 30
0.0
 11
-1.0
 21
-0.166666667
 31
0.0
  0
ENDBLK
  5
96
330
94
100
AcDbEntity
  8
0
100
AcDbBlockEnd
  0
BLOCK
  5
98
330
97
100
AcDbEntity
  8
0
100
AcDbBlockBegin
  2
EX_NNORM
 70
     0
 10
0.0
 20
0.0
 30
0.0
  3
EX_NNORM
  1

  0
LINE
  5
C0
330
97
100
AcDbEntity
  8
0
  6
CONTINUOUS
 62
     0
100
AcDbLine
 10
0.0
 20
0.0
 30
0.0
 11
-1.0
 21
0.0
 31
0.0
  0
LINE
  5
C1
330
97
100
AcDbEntity
  8
0
  6
CONTINUOUS
 62
     0
100
AcDbLine
 10
0.0
 20
0.0
 30
0.0
 11
-1.0
 21
0.166666667
 31
0.0
  0
LINE
  5
C2
330
97
100
AcDbEntity
  8
0
  6
CONTINUOUS
 62
     0
100
AcDbLine
 10
0.0
 20
0.0
 30
0.0
 11
-1.0
 21
-0.166666667
 31
0.0
  0
LINE
  5
C3
330
97
100
AcDbEntity
  8
0
  6
CONTINUOUS
 62
     0
100
AcDbLine
 10
-1.0
 20
0.166666667
 30
0.0
 11
-1.0
 21
-0.166666667
 31
0.0
  0
ENDBLK
  5
99
330
97
100
AcDbEntity
  8
0
100
AcDbBlockEnd
  0
BLOCK
  5
9B
330
9A
100
AcDbEntity
  8
0
100
AcDbBlockBegin
  2
EX_BBOX
 70
     0
 10
0.0
 20
0.0
 30
0.0
  3
EX_BBOX
  1

  0
LINE
  5
C4
330
9A
100
AcDbEntity
  8
0
  6
CONTINUOUS
 62
     0
100
AcDbLine
 10
0.0
 20
0.0
 30
0.0
 11
-1.0
 21
0.0
 31
0.0
  0
LINE
  5
C5
330
9A
100
AcDbEntity
  8
0
  6
CONTINUOUS
 62
     0
100
AcDbLine
 10
-0.5
 20
0.5
 30
0.0
 11
0.5
 21
0.5
 31
0.0
  0
LINE
  5
C6
330
9A
100
AcDbEntity
  8
0
  6
CONTINUOUS
 62
     0
100
AcDbLine
 10
0.5
 20
0.5
 30
0.0
 11
0.5
 21
-0.5
 31
0.0
  0
LINE
  5
C7
330
9A
100
AcDbEntity
  8
0
  6
CONTINUOUS
 62
     0
100
AcDbLine
 10
0.5
 20
-0.5
 30
0.0
 11
-0.5
 21
-0.5
 31
0.0
  0
LINE
  5
C8
330
9A
100
AcDbEntity
  8
0
  6
CONTINUOUS
 62
     0
100
AcDbLine
 10
-0.5
 20
-0.5
 30
0.0
 11
-0.5
 21
0.5
 31
0.0
  0
LINE
  5
C9
330
9A
100
AcDbEntity
  8
0
  6
CONTINUOUS
 62
     0
100
AcDbLine
 10
-0.25
 20
0.25
 30
0.0
 11
0.25
 21
0.25
 31
0.0
  0
LINE
  5
CA
330
9A
100
AcDbEntity
  8
0
  6
CONTINUOUS
 62
     0
100
AcDbLine
 10
0.25
 20
0.25
 30
0.0
 11
0.25
 21
-0.25
 31
0.0
  0
LINE
  5
CB
330
9A
100
AcDbEntity
  8
0
  6
CONTINUOUS
 62
     0
100
AcDbLine
 10
0.25
 20
-0.25
 30
0.0
 11
-0.25
 21
-0.25
 31
0.0
  0
LINE
  5
CC
330
9A
100
AcDbEntity
  8
0
  6
CONTINUOUS
 62
     0
100
AcDbLine
 10
-0.25
 20
-0.25
 30
0.0
 11
-0.25
 21
0.25
 31
0.0
  0
ENDBLK
  5
9C
330
9A
100
AcDbEntity
  8
0
100
AcDbBlockEnd
  0
BLOCK
  5
9E
330
9D
100
AcDbEntity
  8
0
100
AcDbBlockBegin
  2
EX_WBOX
 70
     0
 10
0.0
 20
0.0
 30
0.0
  3
EX_WBOX
  1

  0
LINE
  5
CD
330
9D
100
AcDbEntity
  8
0
  6
CONTINUOUS
 62
     0
100
AcDbLine
 10
-0.5
 20
0.0
 30
0.0
 11
-1.0
 21
0.0
 31
0.0
  0
LINE
  5
CE
330
9D
100
AcDbEntity
  8
0
  6
CONTINUOUS
 62
     0
100
AcDbLine
 10
-0.5
 20
0.5
 30
0.0
 11
0.5
 21
0.5
 31
0.0
  0
LINE
  5
CF
330
9D
100
AcDbEntity
  8
0
  6
CONTINUOUS
 62
     0
100
AcDbLine
 10
0.5
 20
0.5
 30
0.0
 11
0.5
 21
-0.5
 31
0.0
  0
LINE
  5
D0
330
9D
100
AcDbEntity
  8
0
  6
CONTINUOUS
 62
     0
100
AcDbLine
 10
0.5
 20
-0.5
 30
0.0
 11
-0.5
 21
-0.5
 31
0.0
  0
LINE
  5
D1
330
9D
100
AcDbEntity
  8
0
  6
CONTINUOUS
 62
     0
100
AcDbLine
 10
-0.5
 20
-0.5
 30
0.0
 11
-0.5
 21
0.5
 31
0.0
  0
ENDBLK
  5
9F
330
9D
100
AcDbEntity
  8
0
100
AcDbBlockEnd
  0
BLOCK
  5
A1
330
A0
100
AcDbEntity
  8
0
100
AcDbBlockBegin
  2
EX_INTEGRAL
 70
     0
 10
0.0
 20
0.0
 30
0.0
  3
EX_INTEGRAL
  1

  0
LINE
  5
D2
330
A0
100
AcDbEntity
  8
0
  6
CONTINUOUS
 62
     0
100
AcDbLine
 10
0.0
 20
0.0
 30
0.0
 11
-1.0
 21
0.0
 31
0.0
  0
ARC
  5
D3
330
A0
100
AcDbEntity
  8
0
  6
CONTINUOUS
 62
     0
100
AcDbCircle
 10
0.542115
 20
0.164992
 30
0.0
 40
0.56667
100
AcDbArc
 50
73.07249033629006
 51
196.9275130221199
  0
ARC
  5
D4
330
A0
100
AcDbEntity
  8
0
  6
CONTINUOUS
 62
     0
100
AcDbCircle
 10
-0.542115
 20
-0.164992
 30
0.0
 40
0.56667
100
AcDbArc
 50
253.0724869220464
 51
16.9275130559125
  0
ENDBLK
  5
A2
330
A0
100
AcDbEntity
  8
0
100
AcDbBlockEnd
  0
BLOCK
  5
194
330
193
100
AcDbEntity
  8
0
100
AcDbBlockBegin
  2
*D15
 70
     1
 10
0.0
 20
0.0
 30
0.0
  3
*D15
  1

  0
LINE
  5
196
330
193
100
AcDbEntity
  8
Ｓ_１_１
  6
CONTINUOUS
 62
     2
100
AcDbLine
 10
524.9993421192701
 20
781.9999686576198
 30
0.0
 11
524.9993421192701
 21
886.0
 31
0.0
  0
LINE
  5
197
330
193
100
AcDbEntity
  8
Ｓ_１_１
  6
CONTINUOUS
 62
     2
100
AcDbLine
 10
1074.9993627393
 20
781.9999686576198
 30
0.0
 11
1074.9993627393
 21
886.0
 31
0.0
  0
LINE
  5
198
330
193
100
AcDbEntity
  8
Ｓ_１_１
  6
CONTINUOUS
 62
     2
100
AcDbLine
 10
542.9993421192701
 20
880.0
 30
0.0
 11
1056.9993627393
 21
880.0
 31
0.0
  0
INSERT
  5
199
330
193
100
AcDbEntity
  8
Ｓ_１_１
 62
     2
100
AcDbBlockReference
  2
EX_NORM
 10
524.9993421192701
 20
880.0
 30
0.0
 41
18.0
 42
18.0
 43
18.0
 50
180.0
  0
INSERT
  5
19A
330
193
100
AcDbEntity
  8
Ｓ_１_１
 62
     2
100
AcDbBlockReference
  2
EX_NORM
 10
1074.9993627393
 20
880.0
 30
0.0
 41
18.0
 42
18.0
 43
18.0
  0
MTEXT
  5
19B
330
193
100
AcDbEntity
  8
Ｓ_１_１
 62
     2
100
AcDbMText
 10
799.9993524292851
 20
896.5
 30
0.0
 40
20.77742494226328
 41
0.0
 71
     5
 72
     1
  1
%%c550
  7
EXCADDIM1
  0
POINT
  5
19C
330
193
100
AcDbEntity
  8
DEFPOINTS
 62
     0
100
AcDbPoint
 10
524.9993421192701
 20
772.9999686576198
 30
0.0
  0
POINT
  5
19D
330
193
100
AcDbEntity
  8
DEFPOINTS
 62
     0
100
AcDbPoint
 10
1074.9993627393
 20
772.9999686576198
 30
0.0
  0
POINT
  5
19E
330
193
100
AcDbEntity
  8
DEFPOINTS
 62
     0
100
AcDbPoint
 10
1074.9993627393
 20
880.0
 30
0.0
  0
ENDBLK
  5
195
330
193
100
AcDbEntity
  8
0
100
AcDbBlockEnd
  0
BLOCK
  5
1A1
330
1A0
100
AcDbEntity
  8
0
100
AcDbBlockBegin
  2
*D16
 70
     1
 10
0.0
 20
0.0
 30
0.0
  3
*D16
  1

  0
LINE
  5
1A3
330
1A0
100
AcDbEntity
  8
Ｓ_１_１
  6
CONTINUOUS
 62
     2
100
AcDbLine
 10
399.9999999999999
 20
298.0
 30
0.0
 11
399.9999999999999
 21
552.00009072793
 31
0.0
  0
INSERT
  5
1A4
330
1A0
100
AcDbEntity
  8
Ｓ_１_１
 62
     2
100
AcDbBlockReference
  2
EX_NORM
 10
399.9999999999999
 20
280.0
 30
0.0
 41
18.0
 42
18.0
 43
18.0
 50
270.0
  0
INSERT
  5
1A5
330
1A0
100
AcDbEntity
  8
Ｓ_１_１
 62
     2
100
AcDbBlockReference
  2
EX_NORM
 10
399.9999999999999
 20
570.00009072793
 30
0.0
 41
18.0
 42
18.0
 43
18.0
 50
90.0
  0
MTEXT
  5
1A6
330
1A0
100
AcDbEntity
  8
Ｓ_１_１
 62
     2
100
AcDbMText
 10
383.4999999999999
 20
425.000045363965
 30
0.0
 40
20.77742494226328
 41
0.0
 71
     5
 72
     1
  1
290
  7
EXCADDIM1
 11
0.0
 21
1.0
 31
0.0
  0
POINT
  5
1A7
330
1A0
100
AcDbEntity
  8
DEFPOINTS
 62
     0
100
AcDbPoint
 10
522.9994097528199
 20
279.9999999999999
 30
0.0
  0
POINT
  5
1A8
330
1A0
100
AcDbEntity
  8
DEFPOINTS
 62
     0
100
AcDbPoint
 10
522.9994097528199
 20
570.00009072793
 30
0.0
  0
POINT
  5
1A9
330
1A0
100
AcDbEntity
  8
DEFPOINTS
 62
     0
100
AcDbPoint
 10
399.9999999999999
 20
570.00009072793
 30
0.0
  0
ENDBLK
  5
1A2
330
1A0
100
AcDbEntity
  8
0
100
AcDbBlockEnd
  0
BLOCK
  5
1AC
330
1AB
100
AcDbEntity
  8
0
100
AcDbBlockBegin
  2
*D17
 70
     1
 10
0.0
 20
0.0
 30
0.0
  3
*D17
  1

  0
LINE
  5
1AE
330
1AB
100
AcDbEntity
  8
Ｓ_１_１
  6
CONTINUOUS
 62
     2
100
AcDbLine
 10
513.9994097528199
 20
570.00009072793
 30
0.0
 11
393.9999999999999
 21
570.00009072793
 31
0.0
  0
LINE
  5
1AF
330
1AB
100
AcDbEntity
  8
Ｓ_１_１
  6
CONTINUOUS
 62
     2
100
AcDbLine
 10
399.9999999999999
 20
588.00009072793
 30
0.0
 11
399.9999999999999
 21
652.0001732078699
 31
0.0
  0
INSERT
  5
1B0
330
1AB
100
AcDbEntity
  8
Ｓ_１_１
 62
     2
100
AcDbBlockReference
  2
EX_NORM
 10
399.9999999999999
 20
570.00009072793
 30
0.0
 41
18.0
 42
18.0
 43
18.0
 50
270.0
  0
INSERT
  5
1B1
330
1AB
100
AcDbEntity
  8
Ｓ_１_１
 62
     2
100
AcDbBlockReference
  2
EX_NORM
 10
399.9999999999999
 20
670.0001732078699
 30
0.0
 41
18.0
 42
18.0
 43
18.0
 50
90.0
  0
MTEXT
  5
1B2
330
1AB
100
AcDbEntity
  8
Ｓ_１_１
 62
     2
100
AcDbMText
 10
383.4999999999999
 20
620.0001319679
 30
0.0
 40
20.77742494226328
 41
0.0
 71
     5
 72
     1
  1
100
  7
EXCADDIM1
 11
0.0
 21
1.0
 31
0.0
  0
POINT
  5
1B3
330
1AB
100
AcDbEntity
  8
DEFPOINTS
 62
     0
100
AcDbPoint
 10
522.9994097528199
 20
570.00009072793
 30
0.0
  0
POINT
  5
1B4
330
1AB
100
AcDbEntity
  8
DEFPOINTS
 62
     0
100
AcDbPoint
 10
527.9994262488099
 20
670.0001732078699
 30
0.0
  0
POINT
  5
1B5
330
1AB
100
AcDbEntity
  8
DEFPOINTS
 62
     0
100
AcDbPoint
 10
399.9999999999999
 20
670.0001732078699
 30
0.0
  0
ENDBLK
  5
1AD
330
1AB
100
AcDbEntity
  8
0
100
AcDbBlockEnd
  0
BLOCK
  5
1B8
330
1B7
100
AcDbEntity
  8
0
100
AcDbBlockBegin
  2
*D18
 70
     1
 10
0.0
 20
0.0
 30
0.0
  3
*D18
  1

  0
LINE
  5
1BA
330
1B7
100
AcDbEntity
  8
Ｓ_１_１
  6
CONTINUOUS
 62
     2
100
AcDbLine
 10
518.9994262488099
 20
670.0001732078699
 30
0.0
 11
393.9999999999999
 21
670.0001732078699
 31
0.0
  0
LINE
  5
1BB
330
1B7
100
AcDbEntity
  8
Ｓ_１_１
  6
CONTINUOUS
 62
     2
100
AcDbLine
 10
621.0728913922899
 20
689.9999917519999
 30
0.0
 11
393.9999999999999
 21
689.9999917519999
 31
0.0
  0
LINE
  5
1BC
330
1B7
100
AcDbEntity
  8
Ｓ_１_１
  6
CONTINUOUS
 62
     2
100
AcDbLine
 10
399.9999999999999
 20
670.0001732078699
 30
0.0
 11
399.9999999999999
 21
689.9999917519999
 31
0.0
  0
LINE
  5
1BD
330
1B7
100
AcDbEntity
  8
Ｓ_１_１
  6
CONTINUOUS
 62
     2
100
AcDbLine
 10
399.9999999999999
 20
652.0001732078699
 30
0.0
 11
399.9999999999999
 21
634.0001732078699
 31
0.0
  0
LINE
  5
1BE
330
1B7
100
AcDbEntity
  8
Ｓ_１_１
  6
CONTINUOUS
 62
     2
100
AcDbLine
 10
399.9999999999999
 20
707.9999917519999
 30
0.0
 11
399.9999999999999
 21
725.9999917519999
 31
0.0
  0
INSERT
  5
1BF
330
1B7
100
AcDbEntity
  8
Ｓ_１_１
 62
     2
100
AcDbBlockReference
  2
EX_NORM
 10
399.9999999999999
 20
670.0001732078699
 30
0.0
 41
18.0
 42
18.0
 43
18.0
 50
90.0
  0
INSERT
  5
1C0
330
1B7
100
AcDbEntity
  8
Ｓ_１_１
 62
     2
100
AcDbBlockReference
  2
EX_NORM
 10
399.9999999999999
 20
689.9999917519999
 30
0.0
 41
18.0
 42
18.0
 43
18.0
 50
270.0
  0
MTEXT
  5
1C1
330
1B7
100
AcDbEntity
  8
Ｓ_１_１
 62
     2
100
AcDbMText
 10
383.4999999999999
 20
680.0000824799349
 30
0.0
 40
20.77742494226328
 41
0.0
 71
     5
 72
     1
  1
20
  7
EXCADDIM1
 11
0.0
 21
1.0
 31
0.0
  0
POINT
  5
1C2
330
1B7
100
AcDbEntity
  8
DEFPOINTS
 62
     0
100
AcDbPoint
 10
527.9994262488099
 20
670.0001732078699
 30
0.0
  0
POINT
  5
1C3
330
1B7
100
AcDbEntity
  8
DEFPOINTS
 62
     0
100
AcDbPoint
 10
630.0728913922899
 20
689.9999917519999
 30
0.0
  0
POINT
  5
1C4
330
1B7
100
AcDbEntity
  8
DEFPOINTS
 62
     0
100
AcDbPoint
 10
399.9999999999999
 20
689.9999917519999
 30
0.0
  0
ENDBLK
  5
1B9
330
1B7
100
AcDbEntity
  8
0
100
AcDbBlockEnd
  0
BLOCK
  5
1C7
330
1C6
100
AcDbEntity
  8
0
100
AcDbBlockBegin
  2
*D19
 70
     1
 10
0.0
 20
0.0
 30
0.0
  3
*D19
  1

  0
LINE
  5
1C9
330
1C6
100
AcDbEntity
  8
Ｓ_１_１
  6
CONTINUOUS
 62
     2
100
AcDbLine
 10
399.9999999999999
 20
707.9999917519999
 30
0.0
 11
399.9999999999999
 21
756.9999010240699
 31
0.0
  0
INSERT
  5
1CA
330
1C6
100
AcDbEntity
  8
Ｓ_１_１
 62
     2
100
AcDbBlockReference
  2
EX_NORM
 10
399.9999999999999
 20
689.9999917519999
 30
0.0
 41
18.0
 42
18.0
 43
18.0
 50
270.0
  0
INSERT
  5
1CB
330
1C6
100
AcDbEntity
  8
Ｓ_１_１
 62
     2
100
AcDbBlockReference
  2
EX_NORM
 10
399.9999999999999
 20
774.9999010240699
 30
0.0
 41
18.0
 42
18.0
 43
18.0
 50
90.0
  0
MTEXT
  5
1CC
330
1C6
100
AcDbEntity
  8
Ｓ_１_１
 62
     2
100
AcDbMText
 10
383.5000000000001
 20
732.4999463880349
 30
0.0
 40
20.77742494226328
 41
0.0
 71
     5
 72
     1
  1
85
  7
EXCADDIM1
 11
0.0
 21
1.0
 31
0.0
  0
POINT
  5
1CD
330
1C6
100
AcDbEntity
  8
DEFPOINTS
 62
     0
100
AcDbPoint
 10
630.07286886256
 20
689.9999917519999
 30
0.0
  0
POINT
  5
1CE
330
1C6
100
AcDbEntity
  8
DEFPOINTS
 62
     0
100
AcDbPoint
 10
526.9993982056299
 20
774.9999010240699
 30
0.0
  0
POINT
  5
1CF
330
1C6
100
AcDbEntity
  8
DEFPOINTS
 62
     0
100
AcDbPoint
 10
399.9999999999999
 20
774.9999010240699
 30
0.0
  0
ENDBLK
  5
1C8
330
1C6
100
AcDbEntity
  8
0
100
AcDbBlockEnd
  0
BLOCK
  5
1D2
330
1D1
100
AcDbEntity
  8
0
100
AcDbBlockBegin
  2
*D20
 70
     1
 10
0.0
 20
0.0
 30
0.0
  3
*D20
  1

  0
LINE
  5
1D4
330
1D1
100
AcDbEntity
  8
Ｓ_１_１
  6
CONTINUOUS
 62
     2
100
AcDbLine
 10
513.9994097528199
 20
279.9999999999999
 30
0.0
 11
353.9999999999999
 21
280.0
 31
0.0
  0
LINE
  5
1D5
330
1D1
100
AcDbEntity
  8
Ｓ_１_１
  6
CONTINUOUS
 62
     2
100
AcDbLine
 10
517.9993982056299
 20
774.9999010240699
 30
0.0
 11
354.0
 21
774.9999010240699
 31
0.0
  0
LINE
  5
1D6
330
1D1
100
AcDbEntity
  8
Ｓ_１_１
  6
CONTINUOUS
 62
     2
100
AcDbLine
 10
359.9999999999999
 20
298.0
 30
0.0
 11
360.0
 21
756.9999010240699
 31
0.0
  0
INSERT
  5
1D7
330
1D1
100
AcDbEntity
  8
Ｓ_１_１
 62
     2
100
AcDbBlockReference
  2
EX_NORM
 10
359.9999999999999
 20
280.0
 30
0.0
 41
18.0
 42
18.0
 43
18.0
 50
270.0
  0
INSERT
  5
1D8
330
1D1
100
AcDbEntity
  8
Ｓ_１_１
 62
     2
100
AcDbBlockReference
  2
EX_NORM
 10
360.0
 20
774.9999010240699
 30
0.0
 41
18.0
 42
18.0
 43
18.0
 50
90.0
  0
MTEXT
  5
1D9
330
1D1
100
AcDbEntity
  8
Ｓ_１_１
 62
     2
100
AcDbMText
 10
343.5000000000001
 20
527.499950512035
 30
0.0
 40
20.77742494226328
 41
0.0
 71
     5
 72
     1
  1
495
  7
EXCADDIM1
 11
1.148352125792525E-16
 21
1.0
 31
0.0
  0
POINT
  5
1DA
330
1D1
100
AcDbEntity
  8
DEFPOINTS
 62
     0
100
AcDbPoint
 10
522.9994097528199
 20
279.9999999999999
 30
0.0
  0
POINT
  5
1DB
330
1D1
100
AcDbEntity
  8
DEFPOINTS
 62
     0
100
AcDbPoint
 10
526.9993982056299
 20
774.9999010240699
 30
0.0
  0
POINT
  5
1DC
330
1D1
100
AcDbEntity
  8
DEFPOINTS
 62
     0
100
AcDbPoint
 10
360.0
 20
774.9999010240699
 30
0.0
  0
ENDBLK
  5
1D3
330
1D1
100
AcDbEntity
  8
0
100
AcDbBlockEnd
  0
BLOCK
  5
1DF
330
1DE
100
AcDbEntity
  8
0
100
AcDbBlockBegin
  2
*D21
 70
     1
 10
0.0
 20
0.0
 30
0.0
  3
*D21
  1

  0
LINE
  5
1E1
330
1DE
100
AcDbEntity
  8
Ｓ_１_１
  6
CONTINUOUS
 62
     2
100
AcDbLine
 10
519.9993874832301
 20
273.9999604096299
 30
0.0
 11
519.9993874832301
 21
153.9999999999999
 31
0.0
  0
LINE
  5
1E2
330
1DE
100
AcDbEntity
  8
Ｓ_１_１
  6
CONTINUOUS
 62
     2
100
AcDbLine
 10
1079.9995029552
 20
274.00020784945
 30
0.0
 11
1079.9995029552
 21
153.9999999999999
 31
0.0
  0
LINE
  5
1E3
330
1DE
100
AcDbEntity
  8
Ｓ_１_１
  6
CONTINUOUS
 62
     2
100
AcDbLine
 10
537.9993874832301
 20
159.9999999999999
 30
0.0
 11
1061.9995029552
 21
159.9999999999999
 31
0.0
  0
INSERT
  5
1E4
330
1DE
100
AcDbEntity
  8
Ｓ_１_１
 62
     2
100
AcDbBlockReference
  2
EX_NORM
 10
519.9993874832301
 20
159.9999999999999
 30
0.0
 41
18.0
 42
18.0
 43
18.0
 50
180.0
  0
INSERT
  5
1E5
330
1DE
100
AcDbEntity
  8
Ｓ_１_１
 62
     2
100
AcDbBlockReference
  2
EX_NORM
 10
1079.9995029552
 20
159.9999999999999
 30
0.0
 41
18.0
 42
18.0
 43
18.0
  0
MTEXT
  5
1E6
330
1DE
100
AcDbEntity
  8
Ｓ_１_１
 62
     2
100
AcDbMText
 10
799.9994452192149
 20
176.4999999999999
 30
0.0
 40
20.77742494226328
 41
0.0
 71
     5
 72
     1
  1
%%c560
  7
EXCADDIM1
  0
POINT
  5
1E7
330
1DE
100
AcDbEntity
  8
DEFPOINTS
 62
     0
100
AcDbPoint
 10
519.9993874832301
 20
282.9999604096299
 30
0.0
  0
POINT
  5
1E8
330
1DE
100
AcDbEntity
  8
DEFPOINTS
 62
     0
100
AcDbPoint
 10
1079.9995029552
 20
283.00020784945
 30
0.0
  0
POINT
  5
1E9
330
1DE
100
AcDbEntity
  8
DEFPOINTS
 62
     0
100
AcDbPoint
 10
1079.9995029552
 20
159.9999999999999
 30
0.0
  0
ENDBLK
  5
1E0
330
1DE
100
AcDbEntity
  8
0
100
AcDbBlockEnd
  0
BLOCK
  5
1EC
330
1EB
100
AcDbEntity
  8
0
100
AcDbBlockBegin
  2
*D22
 70
     1
 10
0.0
 20
0.0
 30
0.0
  3
*D22
  1

  0
LINE
  5
1EE
330
1EB
100
AcDbEntity
  8
Ｓ_１_１
  6
CONTINUOUS
 62
     2
100
AcDbLine
 10
1085.9996662654
 20
280.0003711597299
 30
0.0
 11
1206.0
 21
280.0003711597299
 31
0.0
  0
LINE
  5
1EF
330
1EB
100
AcDbEntity
  8
Ｓ_１_１
  6
CONTINUOUS
 62
     2
100
AcDbLine
 10
1200.0
 20
298.0003711597299
 30
0.0
 11
1200.0
 21
387.0004196741199
 31
0.0
  0
INSERT
  5
1F0
330
1EB
100
AcDbEntity
  8
Ｓ_１_１
 62
     2
100
AcDbBlockReference
  2
EX_NORM
 10
1200.0
 20
280.0003711597299
 30
0.0
 41
18.0
 42
18.0
 43
18.0
 50
270.0
  0
INSERT
  5
1F1
330
1EB
100
AcDbEntity
  8
Ｓ_１_１
 62
     2
100
AcDbBlockReference
  2
EX_NORM
 10
1200.0
 20
405.0004196741199
 30
0.0
 41
18.0
 42
18.0
 43
18.0
 50
90.0
  0
MTEXT
  5
1F2
330
1EB
100
AcDbEntity
  8
Ｓ_１_１
 62
     2
100
AcDbMText
 10
1183.5
 20
342.5003954169249
 30
0.0
 40
20.77742494226328
 41
0.0
 71
     5
 72
     1
  1
125
  7
EXCADDIM1
 11
0.0
 21
1.0
 31
0.0
  0
POINT
  5
1F3
330
1EB
100
AcDbEntity
  8
DEFPOINTS
 62
     0
100
AcDbPoint
 10
1076.9996662654
 20
280.0003711597299
 30
0.0
  0
POINT
  5
1F4
330
1EB
100
AcDbEntity
  8
DEFPOINTS
 62
     0
100
AcDbPoint
 10
819.5589653437999
 20
405.0004196741199
 30
0.0
  0
POINT
  5
1F5
330
1EB
100
AcDbEntity
  8
DEFPOINTS
 62
     0
100
AcDbPoint
 10
1200.0
 20
405.0004196741199
 30
0.0
  0
ENDBLK
  5
1ED
330
1EB
100
AcDbEntity
  8
0
100
AcDbBlockEnd
  0
BLOCK
  5
1F9
330
1F8
100
AcDbEntity
  8
0
100
AcDbBlockBegin
  2
*D23
 70
     1
 10
0.0
 20
0.0
 30
0.0
  3
*D23
  1

  0
LINE
  5
1FB
330
1F8
100
AcDbEntity
  8
Ｓ_１_１
  6
CONTINUOUS
 62
     2
100
AcDbLine
 10
518.0089486260189
 20
695.8729965330483
 30
0.0
 11
432.4384664649213
 21
700.3575429400233
 31
0.0
  0
LINE
  5
1FC
330
1F8
100
AcDbEntity
  8
Ｓ_１_１
  6
CONTINUOUS
 62
     2
100
AcDbLine
 10
607.4992480921337
 20
679.9999587600278
 30
0.0
 11
431.9053858502782
 21
679.999958760028
 31
0.0
  0
ARC
  5
1FD
330
1F8
100
AcDbEntity
  8
Ｓ_１_１
  6
CONTINUOUS
 62
     2
100
AcDbCircle
 10
820.885398624644
 20
679.9999587600275
 30
0.0
 40
382.9800127743659
100
AcDbArc
 50
171.6137273917991
 51
174.3068678810499
  0
ARC
  5
1FE
330
1F8
100
AcDbEntity
  8
Ｓ_１_１
  6
CONTINUOUS
 62
     2
100
AcDbCircle
 10
820.885398624644
 20
679.9999587600275
 30
0.0
 40
382.9800127743659
100
AcDbArc
 50
182.6931404892508
 51
185.3862809785016
  0
ARC
  5
1FF
330
1F8
100
AcDbEntity
  8
Ｓ_１_１
  6
CONTINUOUS
 62
     2
100
AcDbCircle
 10
820.885398624644
 20
679.9999587600275
 30
0.0
 40
382.9800127743659
100
AcDbArc
 50
177.0000083703007
 51
179.9999999999999
  0
INSERT
  5
200
330
1F8
100
AcDbEntity
  8
Ｓ_１_１
 62
     2
100
AcDbBlockReference
  2
EX_NORM
 10
438.430243719323
 20
700.0435280779003
 30
0.0
 41
18.0
 42
18.0
 43
18.0
 50
265.6534381256753
  0
INSERT
  5
201
330
1F8
100
AcDbEntity
  8
Ｓ_１_１
 62
     2
100
AcDbBlockReference
  2
EX_NORM
 10
437.9053858502782
 20
679.999958760028
 30
0.0
 41
18.0
 42
18.0
 43
18.0
 50
91.34657024462537
  0
MTEXT
  5
202
330
1F8
100
AcDbEntity
  8
Ｓ_１_１
 62
     2
100
AcDbMText
 10
425.0191542453406
 20
733.6114982569775
 30
0.0
 40
20.77742494226328
 41
0.0
 71
     5
 72
     1
  1
3%%d
  7
EXCADDIM1
 11
0.1342033087578547
 21
0.9909538192662884
 31
0.0
  0
POINT
  5
203
330
1F8
100
AcDbEntity
  8
DEFPOINTS
 62
     0
100
AcDbPoint
 10
820.885398624644
 20
679.9999587600275
 30
0.0
  0
POINT
  5
204
330
1F8
100
AcDbEntity
  8
DEFPOINTS
 62
     0
100
AcDbPoint
 10
526.9966145076214
 20
695.4019742398636
 30
0.0
  0
POINT
  5
205
330
1F8
100
AcDbEntity
  8
DEFPOINTS
 62
     0
100
AcDbPoint
 10
616.4992480921337
 20
679.9999587600278
 30
0.0
  0
POINT
  5
206
330
1F8
100
AcDbEntity
  8
DEFPOINTS
 62
     0
100
AcDbPoint
 10
437.9637152357462
 20
686.6838629534009
 30
0.0
  0
ENDBLK
  5
1FA
330
1F8
100
AcDbEntity
  8
0
100
AcDbBlockEnd
  0
BLOCK
  5
209
330
208
100
AcDbEntity
  8
0
100
AcDbBlockBegin
  2
*D24
 70
     1
 10
0.0
 20
0.0
 30
0.0
  3
*D24
  1

  0
LINE
  5
20B
330
208
100
AcDbEntity
  8
Ｓ_１_１
  6
CONTINUOUS
 62
     2
100
AcDbLine
 10
543.00001128691
 20
1040.0
 30
0.0
 11
1057.00004124
 21
1040.0
 31
0.0
  0
INSERT
  5
20C
330
208
100
AcDbEntity
  8
Ｓ_１_１
 62
     2
100
AcDbBlockReference
  2
EX_NORM
 10
525.00001128691
 20
1040.0
 30
0.0
 41
18.0
 42
18.0
 43
18.0
 50
180.0
  0
INSERT
  5
20D
330
208
100
AcDbEntity
  8
Ｓ_１_１
 62
     2
100
AcDbBlockReference
  2
EX_NORM
 10
1075.00004124
 20
1040.0
 30
0.0
 41
18.0
 42
18.0
 43
18.0
  0
MTEXT
  5
20E
330
208
100
AcDbEntity
  8
Ｓ_１_１
 62
     2
100
AcDbMText
 10
800.000026263455
 20
1056.5
 30
0.0
 40
20.77742494226328
 41
0.0
 71
     5
 72
     1
  1
550
  7
EXCADDIM1
  0
POINT
  5
20F
330
208
100
AcDbEntity
  8
DEFPOINTS
 62
     0
100
AcDbPoint
 10
525.00001128691
 20
1427.3216942341
 30
0.0
  0
POINT
  5
210
330
208
100
AcDbEntity
  8
DEFPOINTS
 62
     0
100
AcDbPoint
 10
1075.00004124
 20
1427.3219684444
 30
0.0
  0
POINT
  5
211
330
208
100
AcDbEntity
  8
DEFPOINTS
 62
     0
100
AcDbPoint
 10
1075.00004124
 20
1040.0
 30
0.0
  0
ENDBLK
  5
20A
330
208
100
AcDbEntity
  8
0
100
AcDbBlockEnd
  0
BLOCK
  5
214
330
213
100
AcDbEntity
  8
0
100
AcDbBlockBegin
  2
*D25
 70
     1
 10
0.0
 20
0.0
 30
0.0
  3
*D25
  1

  0
LINE
  5
216
330
213
100
AcDbEntity
  8
Ｓ_１_１
  6
CONTINUOUS
 62
     2
100
AcDbLine
 10
525.00001128691
 20
1418.3216942341
 30
0.0
 11
525.00001128691
 21
1034.0
 31
0.0
  0
LINE
  5
217
330
213
100
AcDbEntity
  8
Ｓ_１_１
  6
CONTINUOUS
 62
     2
100
AcDbLine
 10
507.00001128691
 20
1040.0
 30
0.0
 11
467.0000956785199
 21
1040.0
 31
0.0
  0
INSERT
  5
218
330
213
100
AcDbEntity
  8
Ｓ_１_１
 62
     2
100
AcDbBlockReference
  2
EX_NORM
 10
525.00001128691
 20
1040.0
 30
0.0
 41
18.0
 42
18.0
 43
18.0
  0
INSERT
  5
219
330
213
100
AcDbEntity
  8
Ｓ_１_１
 62
     2
100
AcDbBlockReference
  2
EX_NORM
 10
449.0000956785199
 20
1040.0
 30
0.0
 41
18.0
 42
18.0
 43
18.0
 50
180.0
  0
MTEXT
  5
21A
330
213
100
AcDbEntity
  8
Ｓ_１_１
 62
     2
100
AcDbMText
 10
487.000053482715
 20
1056.5
 30
0.0
 40
20.77742494226328
 41
0.0
 71
     5
 72
     1
  1
76
  7
EXCADDIM1
  0
POINT
  5
21B
330
213
100
AcDbEntity
  8
DEFPOINTS
 62
     0
100
AcDbPoint
 10
525.00001128691
 20
1427.3216942341
 30
0.0
  0
POINT
  5
21C
330
213
100
AcDbEntity
  8
DEFPOINTS
 62
     0
100
AcDbPoint
 10
449.0000956785199
 20
1471.9996519348
 30
0.0
  0
POINT
  5
21D
330
213
100
AcDbEntity
  8
DEFPOINTS
 62
     0
100
AcDbPoint
 10
449.0000956785199
 20
1040.0
 30
0.0
  0
ENDBLK
  5
215
330
213
100
AcDbEntity
  8
0
100
AcDbBlockEnd
  0
BLOCK
  5
220
330
21F
100
AcDbEntity
  8
0
100
AcDbBlockBegin
  2
*D26
 70
     1
 10
0.0
 20
0.0
 30
0.0
  3
*D26
  1

  0
LINE
  5
222
330
21F
100
AcDbEntity
  8
Ｓ_１_１
  6
CONTINUOUS
 62
     2
100
AcDbLine
 10
1075.00004124
 20
1418.3219684444
 30
0.0
 11
1075.00004124
 21
1034.0
 31
0.0
  0
LINE
  5
223
330
21F
100
AcDbEntity
  8
Ｓ_１_１
  6
CONTINUOUS
 62
     2
100
AcDbLine
 10
1093.00004124
 20
1040.0
 30
0.0
 11
1133.0000527871
 21
1040.0
 31
0.0
  0
INSERT
  5
224
330
21F
100
AcDbEntity
  8
Ｓ_１_１
 62
     2
100
AcDbBlockReference
  2
EX_NORM
 10
1075.00004124
 20
1040.0
 30
0.0
 41
18.0
 42
18.0
 43
18.0
 50
180.0
  0
INSERT
  5
225
330
21F
100
AcDbEntity
  8
Ｓ_１_１
 62
     2
100
AcDbBlockReference
  2
EX_NORM
 10
1151.0000527871
 20
1040.0
 30
0.0
 41
18.0
 42
18.0
 43
18.0
  0
MTEXT
  5
226
330
21F
100
AcDbEntity
  8
Ｓ_１_１
 62
     2
100
AcDbMText
 10
1113.00004701355
 20
1056.5
 30
0.0
 40
20.77742494226328
 41
0.0
 71
     5
 72
     1
  1
76
  7
EXCADDIM1
  0
POINT
  5
227
330
21F
100
AcDbEntity
  8
DEFPOINTS
 62
     0
100
AcDbPoint
 10
1075.00004124
 20
1427.3219684444
 30
0.0
  0
POINT
  5
228
330
21F
100
AcDbEntity
  8
DEFPOINTS
 62
     0
100
AcDbPoint
 10
1151.0000527871
 20
1471.9999612344
 30
0.0
  0
POINT
  5
229
330
21F
100
AcDbEntity
  8
DEFPOINTS
 62
     0
100
AcDbPoint
 10
1151.0000527871
 20
1040.0
 30
0.0
  0
ENDBLK
  5
221
330
21F
100
AcDbEntity
  8
0
100
AcDbBlockEnd
  0
BLOCK
  5
22C
330
22B
100
AcDbEntity
  8
0
100
AcDbBlockBegin
  2
*D27
 70
     1
 10
0.0
 20
0.0
 30
0.0
  3
*D27
  1

  0
LINE
  5
22E
330
22B
100
AcDbEntity
  8
Ｓ_１_１
  6
CONTINUOUS
 62
     2
100
AcDbLine
 10
449.0000956785199
 20
1462.9996519348
 30
0.0
 11
449.00009567852
 21
994.0
 31
0.0
  0
LINE
  5
22F
330
22B
100
AcDbEntity
  8
Ｓ_１_１
  6
CONTINUOUS
 62
     2
100
AcDbLine
 10
1151.0000527871
 20
1462.9999612344
 30
0.0
 11
1151.0000527871
 21
994.0
 31
0.0
  0
LINE
  5
230
330
22B
100
AcDbEntity
  8
Ｓ_１_１
  6
CONTINUOUS
 62
     2
100
AcDbLine
 10
467.00009567852
 20
1000.0
 30
0.0
 11
1133.0000527871
 21
1000.0
 31
0.0
  0
INSERT
  5
231
330
22B
100
AcDbEntity
  8
Ｓ_１_１
 62
     2
100
AcDbBlockReference
  2
EX_NORM
 10
449.00009567852
 20
1000.0
 30
0.0
 41
18.0
 42
18.0
 43
18.0
 50
180.0
  0
INSERT
  5
232
330
22B
100
AcDbEntity
  8
Ｓ_１_１
 62
     2
100
AcDbBlockReference
  2
EX_NORM
 10
1151.0000527871
 20
1000.0
 30
0.0
 41
18.0
 42
18.0
 43
18.0
  0
MTEXT
  5
233
330
22B
100
AcDbEntity
  8
Ｓ_１_１
 62
     2
100
AcDbMText
 10
800.00007423281
 20
1016.5
 30
0.0
 40
20.77742494226328
 41
0.0
 71
     5
 72
     1
  1
702
  7
EXCADDIM1
  0
POINT
  5
234
330
22B
100
AcDbEntity
  8
DEFPOINTS
 62
     0
100
AcDbPoint
 10
449.0000956785199
 20
1471.9996519348
 30
0.0
  0
POINT
  5
235
330
22B
100
AcDbEntity
  8
DEFPOINTS
 62
     0
100
AcDbPoint
 10
1151.0000527871
 20
1471.9999612344
 30
0.0
  0
POINT
  5
236
330
22B
100
AcDbEntity
  8
DEFPOINTS
 62
     0
100
AcDbPoint
 10
1151.0000527871
 20
1000.0
 30
0.0
  0
ENDBLK
  5
22D
330
22B
100
AcDbEntity
  8
0
100
AcDbBlockEnd
  0
BLOCK
  5
239
330
238
100
AcDbEntity
  8
0
100
AcDbBlockBegin
  2
*D28
 70
     1
 10
0.0
 20
0.0
 30
0.0
  3
*D28
  1

  0
LINE
  5
23B
330
238
100
AcDbEntity
  8
Ｓ_１_１
  6
CONTINUOUS
 62
     2
100
AcDbLine
 10
820.9999974551301
 20
1112.0000219484
 30
0.0
 11
1246.0
 21
1112.0000219484
 31
0.0
  0
LINE
  5
23C
330
238
100
AcDbEntity
  8
Ｓ_１_１
  6
CONTINUOUS
 62
     2
100
AcDbLine
 10
1169.0
 20
1480.0
 30
0.0
 11
1246.0
 21
1480.0
 31
0.0
  0
LINE
  5
23D
330
238
100
AcDbEntity
  8
Ｓ_１_１
  6
CONTINUOUS
 62
     2
100
AcDbLine
 10
1240.0
 20
1130.0000219484
 30
0.0
 11
1240.0
 21
1462.0
 31
0.0
  0
INSERT
  5
23E
330
238
100
AcDbEntity
  8
Ｓ_１_１
 62
     2
100
AcDbBlockReference
  2
EX_NORM
 10
1240.0
 20
1112.0000219484
 30
0.0
 41
18.0
 42
18.0
 43
18.0
 50
270.0
  0
INSERT
  5
23F
330
238
100
AcDbEntity
  8
Ｓ_１_１
 62
     2
100
AcDbBlockReference
  2
EX_NORM
 10
1240.0
 20
1480.0
 30
0.0
 41
18.0
 42
18.0
 43
18.0
 50
90.0
  0
MTEXT
  5
240
330
238
100
AcDbEntity
  8
Ｓ_１_１
 62
     2
100
AcDbMText
 10
1223.5
 20
1296.0000109742
 30
0.0
 40
20.77742494226328
 41
0.0
 71
     5
 72
     1
  1
(368)
  7
EXCADDIM1
 11
0.0
 21
1.0
 31
0.0
  0
POINT
  5
241
330
238
100
AcDbEntity
  8
DEFPOINTS
 62
     0
100
AcDbPoint
 10
811.9999974551301
 20
1112.0000219484
 30
0.0
  0
POINT
  5
242
330
238
100
AcDbEntity
  8
DEFPOINTS
 62
     0
100
AcDbPoint
 10
1160.0
 20
1480.0
 30
0.0
  0
POINT
  5
243
330
238
100
AcDbEntity
  8
DEFPOINTS
 62
     0
100
AcDbPoint
 10
1240.0
 20
1480.0
 30
0.0
  0
ENDBLK
  5
23A
330
238
100
AcDbEntity
  8
0
100
AcDbBlockEnd
  0
BLOCK
  5
30E
330
30D
100
AcDbEntity
  8
0
100
AcDbBlockBegin
  2
*D29
 70
     1
 10
0.0
 20
0.0
 30
0.0
  3
*D29
  1

  0
LINE
  5
310
330
30D
100
AcDbEntity
  8
Ｓ_１_１
  6
CONTINUOUS
 62
     2
100
AcDbLine
 10
1593.9994097528
 20
279.99999999934
 30
0.0
 11
1434.0
 21
279.99999999934
 31
0.0
  0
LINE
  5
311
330
30D
100
AcDbEntity
  8
Ｓ_１_１
  6
CONTINUOUS
 62
     2
100
AcDbLine
 10
1848.3383881687
 20
509.99989517823
 30
0.0
 11
1434.0
 21
509.99989517823
 31
0.0
  0
LINE
  5
312
330
30D
100
AcDbEntity
  8
Ｓ_１_１
  6
CONTINUOUS
 62
     2
100
AcDbLine
 10
1440.0
 20
297.99999999934
 30
0.0
 11
1440.0
 21
491.99989517823
 31
0.0
  0
INSERT
  5
313
330
30D
100
AcDbEntity
  8
Ｓ_１_１
 62
     2
100
AcDbBlockReference
  2
EX_NORM
 10
1440.0
 20
279.99999999934
 30
0.0
 41
18.0
 42
18.0
 43
18.0
 50
270.0
  0
INSERT
  5
314
330
30D
100
AcDbEntity
  8
Ｓ_１_１
 62
     2
100
AcDbBlockReference
  2
EX_NORM
 10
1440.0
 20
509.99989517823
 30
0.0
 41
18.0
 42
18.0
 43
18.0
 50
90.0
  0
MTEXT
  5
315
330
30D
100
AcDbEntity
  8
Ｓ_１_１
 62
     2
100
AcDbMText
 10
1423.5
 20
394.999947588785
 30
0.0
 40
20.77742494226328
 41
0.0
 71
     5
 72
     1
  1
230
  7
EXCADDIM1
 11
0.0
 21
1.0
 31
0.0
  0
POINT
  5
316
330
30D
100
AcDbEntity
  8
DEFPOINTS
 62
     0
100
AcDbPoint
 10
1602.9994097528
 20
279.99999999934
 30
0.0
  0
POINT
  5
317
330
30D
100
AcDbEntity
  8
DEFPOINTS
 62
     0
100
AcDbPoint
 10
1857.3383881687
 20
509.99989517823
 30
0.0
  0
POINT
  5
318
330
30D
100
AcDbEntity
  8
DEFPOINTS
 62
     0
100
AcDbPoint
 10
1440.0
 20
509.99989517823
 30
0.0
  0
ENDBLK
  5
30F
330
30D
100
AcDbEntity
  8
0
100
AcDbBlockEnd
  0
BLOCK
  5
48D
330
48C
100
AcDbEntity
  8
0
100
AcDbBlockBegin
  2
*D30
 70
     1
 10
0.0
 20
0.0
 30
0.0
  3
*D30
  1

  0
LINE
  5
48F
330
48C
100
AcDbEntity
  8
Ｓ_１_１
  6
CONTINUOUS
 62
     2
100
AcDbLine
 10
828.5589653438
 20
405.00041967412
 30
0.0
 11
1206.0
 21
405.00041967412
 31
0.0
  0
LINE
  5
490
330
48C
100
AcDbEntity
  8
Ｓ_１_１
  6
CONTINUOUS
 62
     2
100
AcDbLine
 10
868.9999999999999
 20
465.0
 30
0.0
 11
1206.0
 21
465.0
 31
0.0
  0
LINE
  5
491
330
48C
100
AcDbEntity
  8
Ｓ_１_１
  6
CONTINUOUS
 62
     2
100
AcDbLine
 10
1200.0
 20
423.00041967412
 30
0.0
 11
1200.0
 21
447.0
 31
0.0
  0
INSERT
  5
492
330
48C
100
AcDbEntity
  8
Ｓ_１_１
 62
     2
100
AcDbBlockReference
  2
EX_NORM
 10
1200.0
 20
405.00041967412
 30
0.0
 41
18.0
 42
18.0
 43
18.0
 50
270.0
  0
INSERT
  5
493
330
48C
100
AcDbEntity
  8
Ｓ_１_１
 62
     2
100
AcDbBlockReference
  2
EX_NORM
 10
1200.0
 20
465.0
 30
0.0
 41
18.0
 42
18.0
 43
18.0
 50
90.0
  0
MTEXT
  5
494
330
48C
100
AcDbEntity
  8
Ｓ_１_１
 62
     2
100
AcDbMText
 10
1183.5
 20
435.00020983706
 30
0.0
 40
20.77742494226328
 41
0.0
 71
     5
 72
     1
  1
60
  7
EXCADDIM1
 11
0.0
 21
1.0
 31
0.0
  0
POINT
  5
495
330
48C
100
AcDbEntity
  8
DEFPOINTS
 62
     0
100
AcDbPoint
 10
819.5589653438
 20
405.00041967412
 30
0.0
  0
POINT
  5
496
330
48C
100
AcDbEntity
  8
DEFPOINTS
 62
     0
100
AcDbPoint
 10
859.9999999999999
 20
465.0
 30
0.0
  0
POINT
  5
497
330
48C
100
AcDbEntity
  8
DEFPOINTS
 62
     0
100
AcDbPoint
 10
1200.0
 20
465.0
 30
0.0
  0
ENDBLK
  5
48E
330
48C
100
AcDbEntity
  8
0
100
AcDbBlockEnd
  0
ENDSEC
  0
SECTION
  2
ENTITIES
  0
LINE
  5
D5
330
1F
100
AcDbEntity
  8
図面枠
  6
CONTINUOUS
 62
     5
100
AcDbLine
 10
60.0
 20
60.0
 30
0.0
 11
2460.0
 21
60.0
 31
0.0
  0
LINE
  5
D6
330
1F
100
AcDbEntity
  8
図面枠
  6
CONTINUOUS
 62
     5
100
AcDbLine
 10
2460.0
 20
60.0
 30
0.0
 11
2460.0
 21
1722.0
 31
0.0
  0
LINE
  5
D7
330
1F
100
AcDbEntity
  8
図面枠
  6
CONTINUOUS
 62
     5
100
AcDbLine
 10
2460.0
 20
1722.0
 30
0.0
 11
60.00000000000031
 21
1722.0
 31
0.0
  0
LINE
  5
D8
330
1F
100
AcDbEntity
  8
図面枠
  6
CONTINUOUS
 62
     5
100
AcDbLine
 10
60.00000000000031
 20
1722.0
 30
0.0
 11
60.0
 21
60.0
 31
0.0
  0
LINE
  5
D9
330
1F
100
AcDbEntity
  8
図面枠
  6
CONTINUOUS
 62
     3
100
AcDbLine
 10
90.00000000000011
 20
1692.0
 30
0.0
 11
90.00000000000011
 21
1638.0
 31
0.0
  0
TEXT
  5
DB
330
1F
100
AcDbEntity
  8
図面枠
  6
CONTINUOUS
 62
     4
100
AcDbText
 10
108.0000000000001
 20
1652.0625
 30
0.0
 40
27.70323325635104
  1
10000kN50ストローク補修用油圧ジャッキ
 41
0.9992307692307695
  7
EXCADTTF1
 72
     5
 11
774.0000000000001
 21
1652.0625
 31
0.0
100
AcDbText
  0
LINE
  5
DC
330
1F
100
AcDbEntity
  8
図面枠
  6
CONTINUOUS
 62
     3
100
AcDbLine
 10
790.1999816894534
 20
1692.0
 30
0.0
 11
790.1999816894534
 21
1638.0
 31
0.0
  0
LINE
  5
DD
330
1F
100
AcDbEntity
  8
図面枠
  6
CONTINUOUS
 62
     3
100
AcDbLine
 10
90.00000000000011
 20
1638.0
 30
0.0
 11
790.1999816894534
 21
1638.0
 31
0.0
  0
LINE
  5
DE
330
1F
100
AcDbEntity
  8
図面枠
  6
CONTINUOUS
 62
     3
100
AcDbLine
 10
90.00000000000011
 20
1692.0
 30
0.0
 11
790.1999816894534
 21
1692.0
 31
0.0
  0
LINE
  5
DF
330
1F
100
AcDbEntity
  8
図面枠
  6
CONTINUOUS
 62
     3
100
AcDbLine
 10
2196.0
 20
144.0
 30
0.0
 11
2196.0
 21
90.0
 31
0.0
  0
TEXT
  5
E0
330
1F
100
AcDbEntity
  8
図面枠
  6
CONTINUOUS
 62
     4
100
AcDbText
 10
2214.0
 20
104.0625
 30
0.0
 40
27.70323325635104
  1
MJ-100050-U
 41
0.9992307692307693
  7
EXCADTTF1
 72
     5
 11
2412.0
 21
104.0625
 31
0.0
100
AcDbText
  0
LINE
  5
E1
330
1F
100
AcDbEntity
  8
図面枠
  6
CONTINUOUS
 62
     3
100
AcDbLine
 10
2430.0
 20
144.0
 30
0.0
 11
2430.0
 21
90.0
 31
0.0
  0
LINE
  5
E2
330
1F
100
AcDbEntity
  8
図面枠
  6
CONTINUOUS
 62
     3
100
AcDbLine
 10
2196.0
 20
144.0
 30
0.0
 11
2430.0
 21
144.0
 31
0.0
  0
LINE
  5
E3
330
1F
100
AcDbEntity
  8
図面枠
  6
CONTINUOUS
 62
     3
100
AcDbLine
 10
2196.0
 20
90.0
 30
0.0
 11
2430.0
 21
90.0
 31
0.0
  0
TEXT
  5
E4
330
1F
100
AcDbEntity
  8
図面枠
  6
CONTINUOUS
 62
     4
100
AcDbText
 10
1842.0
 20
1628.296875
 30
0.0
 40
20.77742494226328
  1
能力
 41
0.999230769230769
  7
EXCADTTF1
 72
     5
 11
1896.0
 21
1628.296875
 31
0.0
100
AcDbText
  0
LINE
  5
E5
330
1F
100
AcDbEntity
  8
図面枠
  6
CONTINUOUS
 62
     3
100
AcDbLine
 10
1830.0
 20
1692.0
 30
0.0
 11
2430.0
 21
1692.0
 31
0.0
  0
TEXT
  5
E6
330
1F
100
AcDbEntity
  8
図面枠
  6
CONTINUOUS
 62
     4
100
AcDbText
 10
2322.0
 20
1628.296875
 30
0.0
 40
20.77742494226328
  1
kN
 41
0.999230769230769
  7
EXCADTTF1
 72
     5
 11
2349.0
 21
1628.296875
 31
0.0
100
AcDbText
  0
TEXT
  5
E7
330
1F
100
AcDbEntity
  8
図面枠
  6
CONTINUOUS
 62
     4
100
AcDbText
 10
2063.1
 20
1664.296875
 30
0.0
 40
20.77742494226328
  1
仕　　　様
 41
0.9992307692307689
  7
EXCADTTF1
 72
     5
 11
2198.1
 21
1664.296875
 31
0.0
100
AcDbText
  0
TEXT
  5
E8
330
1F
100
AcDbEntity
  8
図面枠
  6
CONTINUOUS
 62
     4
100
AcDbText
 10
2230.5
 20
1628.296875
 30
0.0
 40
20.77742494226328
  1
10000
 41
0.9992307692307689
  7
EXCADTTF1
 72
     5
 11
2298.0
 21
1628.296875
 31
0.0
100
AcDbText
  0
TEXT
  5
E9
330
1F
100
AcDbEntity
  8
図面枠
  6
CONTINUOUS
 62
     4
100
AcDbText
 10
2322.0
 20
1412.296875
 30
0.0
 40
20.77742494226328
  1
cm
 41
0.999230769230769
  7
EXCADTTF1
 72
     5
 11
2349.0
 21
1412.296875
 31
0.0
100
AcDbText
  0
TEXT
  5
EA
330
1F
100
AcDbEntity
  8
図面枠
  6
CONTINUOUS
 62
     4
100
AcDbText
 10
2340.900000000001
 20
1425.05859388411
 30
0.0
 40
9.349840196579397
  1
2
 41
0.9992308790346205
  7
EXCADTTF1
 72
     5
 11
2346.975
 21
1425.05859388411
 31
0.0
100
AcDbText
  0
TEXT
  5
EB
330
1F
100
AcDbEntity
  8
図面枠
  6
CONTINUOUS
 62
     4
100
AcDbText
 10
1842.0
 20
1556.296875
 30
0.0
 40
20.77742494226328
  1
最低機械高
 41
0.9992307692307689
  7
EXCADTTF1
 72
     5
 11
1977.0
 21
1556.296875
 31
0.0
100
AcDbText
  0
TEXT
  5
EC
330
1F
100
AcDbEntity
  8
図面枠
  6
CONTINUOUS
 62
     4
100
AcDbText
 10
1842.0
 20
1592.296875
 30
0.0
 40
20.77742494226328
  1
ストローク
 41
0.9992307692307689
  7
EXCADTTF1
 72
     5
 11
1977.0
 21
1592.296875
 31
0.0
100
AcDbText
  0
TEXT
  5
ED
330
1F
100
AcDbEntity
  8
図面枠
  6
CONTINUOUS
 62
     4
100
AcDbText
 10
2322.0
 20
1592.296875
 30
0.0
 40
20.77742494226328
  1
mm
 41
0.999230769230769
  7
EXCADTTF1
 72
     5
 11
2349.0
 21
1592.296875
 31
0.0
100
AcDbText
  0
TEXT
  5
EE
330
1F
100
AcDbEntity
  8
図面枠
  6
CONTINUOUS
 62
     4
100
AcDbText
 10
2322.0
 20
1556.296875
 30
0.0
 40
20.77742494226328
  1
mm
 41
0.999230769230769
  7
EXCADTTF1
 72
     5
 11
2349.0
 21
1556.296875
 31
0.0
100
AcDbText
  0
TEXT
  5
EF
330
1F
100
AcDbEntity
  8
図面枠
  6
CONTINUOUS
 62
     4
100
AcDbText
 10
2322.0
 20
1520.296875
 30
0.0
 40
20.77742494226328
  1
mm
 41
0.999230769230769
  7
EXCADTTF1
 72
     5
 11
2349.0
 21
1520.296875
 31
0.0
100
AcDbText
  0
TEXT
  5
F0
330
1F
100
AcDbEntity
  8
図面枠
  6
CONTINUOUS
 62
     4
100
AcDbText
 10
2322.0
 20
1484.296875
 30
0.0
 40
20.77742494226328
  1
mm
 41
0.999230769230769
  7
EXCADTTF1
 72
     5
 11
2349.0
 21
1484.296875
 31
0.0
100
AcDbText
  0
TEXT
  5
F1
330
1F
100
AcDbEntity
  8
図面枠
  6
CONTINUOUS
 62
     4
100
AcDbText
 10
1842.0
 20
1520.296875
 30
0.0
 40
20.77742494226328
  1
シリンダ外径
 41
0.9992307692307689
  7
EXCADTTF1
 72
     5
 11
2004.0
 21
1520.296875
 31
0.0
100
AcDbText
  0
TEXT
  5
F2
330
1F
100
AcDbEntity
  8
図面枠
  6
CONTINUOUS
 62
     4
100
AcDbText
 10
2271.0
 20
1592.296875
 30
0.0
 40
20.77742494226328
  1
50
 41
0.999230769230769
  7
EXCADTTF1
 72
     5
 11
2298.0
 21
1592.296875
 31
0.0
100
AcDbText
  0
TEXT
  5
F3
330
1F
100
AcDbEntity
  8
図面枠
  6
CONTINUOUS
 62
     4
100
AcDbText
 10
2257.56
 20
1520.296875
 30
0.0
 40
20.77742494226328
  1
560
 41
0.999230769230769
  7
EXCADTTF1
 72
     5
 11
2298.06
 21
1520.296875
 31
0.0
100
AcDbText
  0
TEXT
  5
F4
330
1F
100
AcDbEntity
  8
図面枠
  6
CONTINUOUS
 62
     4
100
AcDbText
 10
1842.0
 20
1484.296875
 30
0.0
 40
20.77742494226328
  1
ピストン径
 41
0.9992307692307689
  7
EXCADTTF1
 72
     5
 11
1977.0
 21
1484.296875
 31
0.0
100
AcDbText
  0
TEXT
  5
F5
330
1F
100
AcDbEntity
  8
図面枠
  6
CONTINUOUS
 62
     4
100
AcDbText
 10
2257.5
 20
1484.296875
 30
0.0
 40
20.77742494226328
  1
440
 41
0.999230769230769
  7
EXCADTTF1
 72
     5
 11
2298.0
 21
1484.296875
 31
0.0
100
AcDbText
  0
TEXT
  5
F6
330
1F
100
AcDbEntity
  8
図面枠
  6
CONTINUOUS
 62
     4
100
AcDbText
 10
1842.0
 20
1412.296875
 30
0.0
 40
20.77742494226328
  1
受圧面積
 41
0.999230769230769
  7
EXCADTTF1
 72
     5
 11
1950.0
 21
1412.296875
 31
0.0
100
AcDbText
  0
TEXT
  5
F7
330
1F
100
AcDbEntity
  8
図面枠
  6
CONTINUOUS
 62
     4
100
AcDbText
 10
2322.0
 20
1448.296875
 30
0.0
 40
20.77742494226328
  1
mm
 41
0.999230769230769
  7
EXCADTTF1
 72
     5
 11
2349.0
 21
1448.296875
 31
0.0
100
AcDbText
  0
TEXT
  5
F8
330
1F
100
AcDbEntity
  8
図面枠
  6
CONTINUOUS
 62
     4
100
AcDbText
 10
2322.0
 20
1376.296875
 30
0.0
 40
20.77742494226328
  1
MPa
 41
0.999230769230769
  7
EXCADTTF1
 72
     5
 11
2362.5
 21
1376.296875
 31
0.0
100
AcDbText
  0
TEXT
  5
F9
330
1F
100
AcDbEntity
  8
図面枠
  6
CONTINUOUS
 62
     4
100
AcDbText
 10
1842.0
 20
1376.296875
 30
0.0
 40
20.77742494226328
  1
最高使用圧力
 41
0.9992307692307689
  7
EXCADTTF1
 72
     5
 11
2004.0
 21
1376.296875
 31
0.0
100
AcDbText
  0
TEXT
  5
FA
330
1F
100
AcDbEntity
  8
図面枠
  6
CONTINUOUS
 62
     4
100
AcDbText
 10
1842.0
 20
1448.296875
 30
0.0
 40
20.77742494226328
  1
ロッド径
 41
0.999230769230769
  7
EXCADTTF1
 72
     5
 11
1950.0
 21
1448.296875
 31
0.0
100
AcDbText
  0
TEXT
  5
FB
330
1F
100
AcDbEntity
  8
図面枠
  6
CONTINUOUS
 62
     4
100
AcDbText
 10
2259.900000000001
 20
1448.296875
 30
0.0
 40
20.77742494226328
  1
375
 41
0.999230769230769
  7
EXCADTTF1
 72
     5
 11
2300.400000000001
 21
1448.296875
 31
0.0
100
AcDbText
  0
TEXT
  5
FC
330
1F
100
AcDbEntity
  8
図面枠
  6
CONTINUOUS
 62
     4
100
AcDbText
 10
2217.0
 20
1412.296875
 30
0.0
 40
20.77742494226328
  1
1520.5
 41
0.9992307692307689
  7
EXCADTTF1
 72
     5
 11
2298.0
 21
1412.296875
 31
0.0
100
AcDbText
  0
LINE
  5
FD
330
1F
100
AcDbEntity
  8
図面枠
  6
CONTINUOUS
 62
     2
100
AcDbLine
 10
1830.0
 20
1620.0
 30
0.0
 11
2430.0
 21
1620.0
 31
0.0
  0
LINE
  5
FE
330
1F
100
AcDbEntity
  8
図面枠
  6
CONTINUOUS
 62
     2
100
AcDbLine
 10
1830.0
 20
1584.0
 30
0.0
 11
2430.0
 21
1584.0
 31
0.0
  0
LINE
  5
FF
330
1F
100
AcDbEntity
  8
図面枠
  6
CONTINUOUS
 62
     2
100
AcDbLine
 10
1830.0
 20
1548.0
 30
0.0
 11
2430.0
 21
1548.0
 31
0.0
  0
LINE
  5
100
330
1F
100
AcDbEntity
  8
図面枠
  6
CONTINUOUS
 62
     2
100
AcDbLine
 10
1830.0
 20
1512.0
 30
0.0
 11
2430.0
 21
1512.0
 31
0.0
  0
LINE
  5
101
330
1F
100
AcDbEntity
  8
図面枠
  6
CONTINUOUS
 62
     2
100
AcDbLine
 10
1830.0
 20
1476.0
 30
0.0
 11
2430.0
 21
1476.0
 31
0.0
  0
LINE
  5
102
330
1F
100
AcDbEntity
  8
図面枠
  6
CONTINUOUS
 62
     2
100
AcDbLine
 10
1830.0
 20
1440.0
 30
0.0
 11
2430.0
 21
1440.0
 31
0.0
  0
LINE
  5
103
330
1F
100
AcDbEntity
  8
図面枠
  6
CONTINUOUS
 62
     2
100
AcDbLine
 10
1830.0
 20
1404.0
 30
0.0
 11
2430.0
 21
1404.0
 31
0.0
  0
TEXT
  5
104
330
1F
100
AcDbEntity
  8
図面枠
  6
CONTINUOUS
 62
     4
100
AcDbText
 10
1842.0
 20
1304.296875
 30
0.0
 40
20.77742494226328
  1
重量
 41
0.999230769230769
  7
EXCADTTF1
 72
     5
 11
1896.0
 21
1304.296875
 31
0.0
100
AcDbText
  0
TEXT
  5
105
330
1F
100
AcDbEntity
  8
図面枠
  6
CONTINUOUS
 62
     4
100
AcDbText
 10
1842.0
 20
1340.296875
 30
0.0
 40
20.77742494226328
  1
所要油量
 41
0.999230769230769
  7
EXCADTTF1
 72
     5
 11
1950.0
 21
1340.296875
 31
0.0
100
AcDbText
  0
TEXT
  5
106
330
1F
100
AcDbEntity
  8
図面枠
  6
CONTINUOUS
 62
     4
100
AcDbText
 10
2322.0
 20
1304.296875
 30
0.0
 40
20.77742494226328
  1
kg
 41
0.999230769230769
  7
EXCADTTF1
 72
     5
 11
2349.0
 21
1304.296875
 31
0.0
100
AcDbText
  0
TEXT
  5
107
330
1F
100
AcDbEntity
  8
図面枠
  6
CONTINUOUS
 62
     4
100
AcDbText
 10
1842.0
 20
1268.296875
 30
0.0
 40
20.77742494226328
  1
備考
 41
0.999230769230769
  7
EXCADTTF1
 72
     5
 11
1896.0
 21
1268.296875
 31
0.0
100
AcDbText
  0
TEXT
  5
108
330
1F
100
AcDbEntity
  8
図面枠
  6
CONTINUOUS
 62
     4
100
AcDbText
 10
2233.2
 20
1303.696875
 30
0.0
 40
20.77742494226328
  1
約900
 41
0.9992307692307689
  7
EXCADTTF1
 72
     5
 11
2300.7
 21
1303.696875
 31
0.0
100
AcDbText
  0
LINE
  5
109
330
1F
100
AcDbEntity
  8
図面枠
  6
CONTINUOUS
 62
     2
100
AcDbLine
 10
1830.0
 20
1368.0
 30
0.0
 11
2430.0
 21
1368.0
 31
0.0
  0
LINE
  5
10A
330
1F
100
AcDbEntity
  8
図面枠
  6
CONTINUOUS
 62
     2
100
AcDbLine
 10
1830.0
 20
1332.0
 30
0.0
 11
2430.0
 21
1332.0
 31
0.0
  0
LINE
  5
10B
330
1F
100
AcDbEntity
  8
図面枠
  6
CONTINUOUS
 62
     2
100
AcDbLine
 10
1830.0
 20
1296.0
 30
0.0
 11
2430.0
 21
1296.0
 31
0.0
  0
LINE
  5
10C
330
1F
100
AcDbEntity
  8
図面枠
  6
CONTINUOUS
 62
     3
100
AcDbLine
 10
1830.0
 20
1692.0
 30
0.0
 11
1830.0
 21
1224.0
 31
0.0
  0
LINE
  5
10D
330
1F
100
AcDbEntity
  8
図面枠
  6
CONTINUOUS
 62
     2
100
AcDbLine
 10
2190.0
 20
1656.0
 30
0.0
 11
2190.0
 21
1296.0
 31
0.0
  0
LINE
  5
10E
330
1F
100
AcDbEntity
  8
図面枠
  6
CONTINUOUS
 62
     2
100
AcDbLine
 10
2310.0
 20
1656.0
 30
0.0
 11
2310.0
 21
1296.0
 31
0.0
  0
LINE
  5
10F
330
1F
100
AcDbEntity
  8
図面枠
  6
CONTINUOUS
 62
     3
100
AcDbLine
 10
2430.0
 20
1692.0
 30
0.0
 11
2430.0
 21
1224.0
 31
0.0
  0
TEXT
  5
110
330
1F
100
AcDbEntity
  8
図面枠
  6
CONTINUOUS
 62
     4
100
AcDbText
 10
1842.0
 20
1232.296875
 30
0.0
 40
20.77742494226328
  1
ユニバーサルヘッド振り角は、±3°(±5%%%)
 41
0.9992307692307688
  7
EXCADTTF1
 72
     5
 11
2368.5
 21
1232.296875
 31
0.0
100
AcDbText
  0
TEXT
  5
111
330
1F
100
AcDbEntity
  8
図面枠
  6
CONTINUOUS
 62
     4
100
AcDbText
 10
2257.56
 20
1556.296875
 30
0.0
 40
20.77742494226328
  1
495
 41
0.999230769230769
  7
EXCADTTF1
 72
     5
 11
2298.06
 21
1556.296875
 31
0.0
100
AcDbText
  0
LINE
  5
112
330
1F
100
AcDbEntity
  8
図面枠
  6
CONTINUOUS
 62
     3
100
AcDbLine
 10
1830.0
 20
1224.0
 30
0.0
 11
2430.0
 21
1224.0
 31
0.0
  0
LINE
  5
113
330
1F
100
AcDbEntity
  8
図面枠
  6
CONTINUOUS
 62
     3
100
AcDbLine
 10
1830.0
 20
1656.0
 30
0.0
 11
2430.0
 21
1656.0
 31
0.0
  0
TEXT
  5
114
330
1F
100
AcDbEntity
  8
図面枠
  6
CONTINUOUS
 62
     4
100
AcDbText
 10
1770.0
 20
1122.796875
 30
0.0
 40
20.77742494226328
  1
※）①ストロークエンドからの加圧はおやめ下さい。
 41
0.9992307692307695
  7
EXCADTTF1
 72
     5
 11
2418.0
 21
1122.796875
 31
0.0
100
AcDbText
  0
TEXT
  5
115
330
1F
100
AcDbEntity
  8
図面枠
  6
CONTINUOUS
 62
     4
100
AcDbText
 10
1770.0
 20
1095.796875
 30
0.0
 40
20.77742494226328
  1
　　
 41
0.999230769230769
  7
EXCADTTF1
 72
     5
 11
1824.0
 21
1095.796875
 31
0.0
100
AcDbText
  0
TEXT
  5
116
330
1F
100
AcDbEntity
  8
図面枠
  6
CONTINUOUS
 62
     4
100
AcDbText
 10
1770.0
 20
1068.796875
 30
0.0
 40
20.77742494226328
  1
　　②ストロークエンドにて安全ナットをロック
 41
0.9992307692307694
  7
EXCADTTF1
 72
     5
 11
2364.0
 21
1068.796875
 31
0.0
100
AcDbText
  0
TEXT
  5
117
330
1F
100
AcDbEntity
  8
図面枠
  6
CONTINUOUS
 62
     4
100
AcDbText
 10
1770.0
 20
1041.796875
 30
0.0
 40
20.77742494226328
  1
　　　した場合、解放が困難になる場合があります。
 41
0.9992307692307695
  7
EXCADTTF1
 72
     5
 11
2418.0
 21
1041.796875
 31
0.0
100
AcDbText
  0
TEXT
  5
118
330
1F
100
AcDbEntity
  8
図面枠
  6
CONTINUOUS
 62
     4
100
AcDbText
 10
1770.0
 20
987.796875
 30
0.0
 40
20.77742494226328
  1
　　③出荷時にストロークエンド使用が出来ないよう
 41
0.9992307692307695
  7
EXCADTTF1
 72
     5
 11
2418.0
 21
987.796875
 31
0.0
100
AcDbText
  0
TEXT
  5
119
330
1F
100
AcDbEntity
  8
図面枠
  6
CONTINUOUS
 62
     4
100
AcDbText
 10
1770.0
 20
960.796875
 30
0.0
 40
20.77742494226328
  1
　　　手動ポンプの油量を調整させていただく場合が
 41
0.9992307692307695
  7
EXCADTTF1
 72
     5
 11
2418.0
 21
960.796875
 31
0.0
100
AcDbText
  0
TEXT
  5
11A
330
1F
100
AcDbEntity
  8
図面枠
  6
CONTINUOUS
 62
     4
100
AcDbText
 10
1770.0
 20
933.796875
 30
0.0
 40
20.77742494226328
  1
　　　あります。
 41
0.9992307692307688
  7
EXCADTTF1
 72
     5
 11
1986.0
 21
933.796875
 31
0.0
100
AcDbText
  0
TEXT
  5
11B
330
1F
100
AcDbEntity
  8
図面枠
  6
CONTINUOUS
 62
     4
100
AcDbText
 10
2322.0
 20
1340.296875
 30
0.0
 40
20.77742494226328
  1
L
 41
0.999230769230769
  7
EXCADTTF1
 72
     5
 11
2335.5
 21
1340.296875
 31
0.0
100
AcDbText
  0
TEXT
  5
11C
330
1F
100
AcDbEntity
  8
図面枠
  6
CONTINUOUS
 62
     4
100
AcDbText
 10
2258.4
 20
1340.296875
 30
0.0
 40
20.77742494226328
  1
7.6
 41
0.999230769230769
  7
EXCADTTF1
 72
     5
 11
2298.9
 21
1340.296875
 31
0.0
100
AcDbText
  0
TEXT
  5
11D
330
1F
100
AcDbEntity
  8
図面枠
  6
CONTINUOUS
 62
     4
100
AcDbText
 10
2244.9
 20
1376.296875
 30
0.0
 40
20.77742494226328
  1
65.9
 41
0.999230769230769
  7
EXCADTTF1
 72
     5
 11
2298.9
 21
1376.296875
 31
0.0
100
AcDbText
  0
LINE
  5
11E
330
1F
100
AcDbEntity
  8
Ｓ_１_１
  6
CONTINUOUS
 62
     3
100
AcDbLine
 10
787.6369266637366
 20
414.348952784523
 30
0.0
 11
790.651466889587
 21
417.3634930103734
 31
0.0
  0
LINE
  5
11F
330
1F
100
AcDbEntity
  8
Ｓ_１_１
  6
CONTINUOUS
 62
     3
100
AcDbLine
 10
785.7131533258967
 20
411.0109658843099
 30
0.0
 11
793.9894537898002
 21
419.2872663482134
 31
0.0
  0
LINE
  5
120
330
1F
100
AcDbEntity
  8
Ｓ_１_１
  6
CONTINUOUS
 62
     3
100
AcDbLine
 10
784.9927377389726
 20
408.8763367350126
 30
0.0
 11
796.1240829390977
 21
420.0076819351376
 31
0.0
  0
LINE
  5
121
330
1F
100
AcDbEntity
  8
Ｓ_１_１
  6
CONTINUOUS
 62
     3
100
AcDbLine
 10
804.4548951295974
 20
390.1547279415637
 30
0.0
 11
814.8456917325465
 21
400.5455245445128
 31
0.0
  0
LINE
  5
122
330
1F
100
AcDbEntity
  8
Ｓ_１_１
  6
CONTINUOUS
 62
     3
100
AcDbLine
 10
806.7734655504863
 20
391.0590848000799
 30
0.0
 11
813.9413348740298
 21
398.2269541236236
 31
0.0
  0
LINE
  5
123
330
1F
100
AcDbEntity
  8
Ｓ_１_１
  6
CONTINUOUS
 62
     3
100
AcDbLine
 10
785.1589653437999
 20
400.5300344594377
 30
0.0
 11
785.1589653437999
 21
409.4708048888022
 31
0.0
  0
LINE
  5
124
330
1F
100
AcDbEntity
  8
Ｓ_１_１
  6
CONTINUOUS
 62
     3
100
AcDbLine
 10
786.1589653438
 20
398.0242879895809
 30
0.0
 11
786.1589653438
 21
411.976551358659
 31
0.0
  0
LINE
  5
125
330
1F
100
AcDbEntity
  8
Ｓ_１_１
  6
CONTINUOUS
 62
     3
100
AcDbLine
 10
813.1589653438
 20
396.810042105638
 30
0.0
 11
813.1589653438
 21
413.1907972426019
 31
0.0
  0
LINE
  5
126
330
1F
100
AcDbEntity
  8
Ｓ_１_１
  6
CONTINUOUS
 62
     3
100
AcDbLine
 10
814.1589653438
 20
398.6945213220472
 30
0.0
 11
814.1589653438
 21
411.3063180261927
 31
0.0
  0
LINE
  5
127
330
1F
100
AcDbEntity
  8
Ｓ_１_１
  6
CONTINUOUS
 62
     3
100
AcDbLine
 10
815.1589653437999
 20
401.768326955918
 30
0.0
 11
815.1589653437999
 21
408.2325123923218
 31
0.0
  0
LINE
  5
128
330
1F
100
AcDbEntity
  8
Ｓ_１_１
  6
CONTINUOUS
 62
     3
100
AcDbLine
 10
801.1379846635464
 20
417.9505158477208
 30
0.0
 11
803.3264321131159
 21
420.1389632972908
 31
0.0
  0
LINE
  5
129
330
1F
100
AcDbEntity
  8
Ｓ_１_１
  6
CONTINUOUS
 62
     3
100
AcDbLine
 10
808.1589653438
 20
415.0720015913631
 30
0.0
 11
809.9618326391683
 21
416.8748688867313
 31
0.0
  0
LINE
  5
12A
330
1F
100
AcDbEntity
  8
Ｓ_１_１
  6
CONTINUOUS
 62
     3
100
AcDbLine
 10
806.1589653437999
 20
390.7769250427843
 30
0.0
 11
806.1589653437999
 21
393.55196362565
 31
0.0
  0
LINE
  5
12B
330
1F
100
AcDbEntity
  8
Ｓ_１_１
  6
CONTINUOUS
 62
     3
100
AcDbLine
 10
805.1589653438
 20
390.3844787117579
 30
0.0
 11
805.1589653438
 21
393.0678978710237
 31
0.0
  0
LINE
  5
12C
330
1F
100
AcDbEntity
  8
Ｓ_１_１
  6
CONTINUOUS
 62
     3
100
AcDbLine
 10
801.0050830347071
 20
389.5333429714198
 30
0.0
 11
804.1589653438
 21
392.6872252805128
 31
0.0
  0
LINE
  5
12D
330
1F
100
AcDbEntity
  8
Ｓ_１_１
  6
CONTINUOUS
 62
     3
100
AcDbLine
 10
804.1589653438
 20
390.069121642707
 30
0.0
 11
804.1589653438
 21
392.6872252805128
 31
0.0
  0
LINE
  5
12E
330
1F
100
AcDbEntity
  8
Ｓ_１_１
  6
CONTINUOUS
 62
     3
100
AcDbLine
 10
803.1589653437999
 20
389.8260468175405
 30
0.0
 11
803.1589653437999
 21
392.3900692445478
 31
0.0
  0
LINE
  5
12F
330
1F
100
AcDbEntity
  8
Ｓ_１_１
  6
CONTINUOUS
 62
     3
100
AcDbLine
 10
799.5643707079633
 20
389.5068442070493
 30
0.0
 11
802.2550216042908
 21
392.1974951033768
 31
0.0
  0
LINE
  5
130
330
1F
100
AcDbEntity
  8
Ｓ_１_１
  6
CONTINUOUS
 62
     3
100
AcDbLine
 10
802.1589653438
 20
389.651819663757
 30
0.0
 11
802.1589653438
 21
392.1809474289677
 31
0.0
  0
LINE
  5
131
330
1F
100
AcDbEntity
  8
Ｓ_１_１
  6
CONTINUOUS
 62
     3
100
AcDbLine
 10
797.0191538407138
 20
389.7900544645461
 30
0.0
 11
799.2511077311156
 21
392.0220083549476
 31
0.0
  0
LINE
  5
132
330
1F
100
AcDbEntity
  8
Ｓ_１_１
  6
CONTINUOUS
 62
     3
100
AcDbLine
 10
799.1589653438
 20
389.5235558335038
 30
0.0
 11
799.1589653438
 21
392.0276535578636
 31
0.0
  0
LINE
  5
133
330
1F
100
AcDbEntity
  8
Ｓ_１_１
  6
CONTINUOUS
 62
     3
100
AcDbLine
 10
789.5075331552357
 20
393.5921422780526
 30
0.0
 11
791.2769291424393
 21
395.3615382652559
 31
0.0
  0
LINE
  5
134
330
1F
100
AcDbEntity
  8
Ｓ_１_１
  6
CONTINUOUS
 62
     3
100
AcDbLine
 10
800.1589653437999
 20
417.9994477154569
 30
0.0
 11
800.1589653437999
 21
420.4993029775501
 31
0.0
  0
LINE
  5
135
330
1F
100
AcDbEntity
  8
Ｓ_１_１
  6
CONTINUOUS
 62
     3
100
AcDbLine
 10
801.1589653438
 20
417.9486550493302
 30
0.0
 11
801.1589653438
 21
420.45672754391
 31
0.0
  0
LINE
  5
136
330
1F
100
AcDbEntity
  8
Ｓ_１_１
  6
CONTINUOUS
 62
     3
100
AcDbLine
 10
808.1589653438
 20
415.0720015913631
 30
0.0
 11
808.1589653438
 21
418.1788846132693
 31
0.0
  0
LINE
  5
137
330
1F
100
AcDbEntity
  8
Ｓ_１_１
  6
CONTINUOUS
 62
     3
100
AcDbLine
 10
808.9398081587078
 20
414.4386308438978
 30
0.0
 11
810.7079069372284
 21
416.2067296224183
 31
0.0
  0
LINE
  5
138
330
1F
100
AcDbEntity
  8
Ｓ_１_１
  6
CONTINUOUS
 62
     3
100
AcDbLine
 10
802.1589653438
 20
417.8198919192722
 30
0.0
 11
802.1589653438
 21
420.3490196844828
 31
0.0
  0
LINE
  5
139
330
1F
100
AcDbEntity
  8
Ｓ_１_１
  6
CONTINUOUS
 62
     3
100
AcDbLine
 10
802.3820093803106
 20
417.780327002112
 30
0.0
 11
804.4494320501598
 21
419.8477496719614
 31
0.0
  0
LINE
  5
13A
330
1F
100
AcDbEntity
  8
Ｓ_１_１
  6
CONTINUOUS
 62
     3
100
AcDbLine
 10
803.1589653437999
 20
417.610770103692
 30
0.0
 11
803.1589653437999
 21
420.1747925306992
 31
0.0
  0
LINE
  5
13B
330
1F
100
AcDbEntity
  8
Ｓ_１_１
  6
CONTINUOUS
 62
     3
100
AcDbLine
 10
803.5283419521306
 20
417.5124460115589
 30
0.0
 11
805.5053414374079
 21
419.4894454968361
 31
0.0
  0
LINE
  5
13C
330
1F
100
AcDbEntity
  8
Ｓ_１_１
  6
CONTINUOUS
 62
     3
100
AcDbLine
 10
804.5923630041616
 20
417.1622535012169
 30
0.0
 11
806.5009879312078
 21
419.0708784282632
 31
0.0
  0
LINE
  5
13D
330
1F
100
AcDbEntity
  8
Ｓ_１_１
  6
CONTINUOUS
 62
     3
100
AcDbLine
 10
804.1589653438
 20
417.3171971450735
 30
0.0
 11
804.1589653438
 21
419.9317177055328
 31
0.0
  0
LINE
  5
13E
330
1F
100
AcDbEntity
  8
Ｓ_１_１
  6
CONTINUOUS
 62
     3
100
AcDbLine
 10
805.5842534985644
 20
416.739930433247
 30
0.0
 11
807.4413318141233
 21
418.5970087488055
 31
0.0
  0
LINE
  5
13F
330
1F
100
AcDbEntity
  8
Ｓ_１_１
  6
CONTINUOUS
 62
     3
100
AcDbLine
 10
805.1589653438
 20
416.9329414772162
 30
0.0
 11
805.1589653438
 21
419.616360636482
 31
0.0
  0
LINE
  5
140
330
1F
100
AcDbEntity
  8
Ｓ_１_１
  6
CONTINUOUS
 62
     3
100
AcDbLine
 10
806.1589653437999
 20
416.4488757225898
 30
0.0
 11
806.1589653437999
 21
419.2239143054555
 31
0.0
  0
LINE
  5
141
330
1F
100
AcDbEntity
  8
Ｓ_１_１
  6
CONTINUOUS
 62
     3
100
AcDbLine
 10
806.5109547265037
 20
416.2524180988129
 30
0.0
 11
808.329989960152
 21
418.0714533324611
 31
0.0
  0
LINE
  5
142
330
1F
100
AcDbEntity
  8
Ｓ_１_１
  6
CONTINUOUS
 62
     3
100
AcDbLine
 10
807.1589653438
 20
415.8516507197722
 30
0.0
 11
807.1589653438
 21
418.7477782873231
 31
0.0
  0
LINE
  5
143
330
1F
100
AcDbEntity
  8
Ｓ_１_１
  6
CONTINUOUS
 62
     3
100
AcDbLine
 10
807.3772182236144
 20
415.7044680335504
 30
0.0
 11
809.1695613065102
 21
417.4968111164465
 31
0.0
  0
LINE
  5
144
330
1F
100
AcDbEntity
  8
Ｓ_１_１
  6
CONTINUOUS
 62
     3
100
AcDbLine
 10
809.6388814088541
 20
413.723490531671
 30
0.0
 11
811.4082773960572
 21
415.4928865188741
 31
0.0
  0
LINE
  5
145
330
1F
100
AcDbEntity
  8
Ｓ_１_１
  6
CONTINUOUS
 62
     3
100
AcDbLine
 10
809.1589653437999
 20
414.2261095578571
 30
0.0
 11
809.1589653437999
 21
417.5045792806178
 31
0.0
  0
LINE
  5
146
330
1F
100
AcDbEntity
  8
Ｓ_１_１
  6
CONTINUOUS
 62
     3
100
AcDbLine
 10
810.1589653438
 20
413.1118574716543
 30
0.0
 11
810.1589653438
 21
416.7066606069366
 31
0.0
  0
LINE
  5
147
330
1F
100
AcDbEntity
  8
Ｓ_１_１
  6
CONTINUOUS
 62
     3
100
AcDbLine
 10
810.2832765247795
 20
412.953672085223
 30
0.0
 11
812.0628592627886
 21
414.7332548232324
 31
0.0
  0
LINE
  5
148
330
1F
100
AcDbEntity
  8
Ｓ_１_１
  6
CONTINUOUS
 62
     3
100
AcDbLine
 10
810.871850559371
 20
412.1280325574415
 30
0.0
 11
812.6709844207202
 21
413.927166418791
 31
0.0
  0
LINE
  5
149
330
1F
100
AcDbEntity
  8
Ｓ_１_１
  6
CONTINUOUS
 62
     3
100
AcDbLine
 10
811.1589653438
 20
411.6695644810385
 30
0.0
 11
811.1589653438
 21
415.7576565911694
 31
0.0
  0
LINE
  5
14A
330
1F
100
AcDbEntity
  8
Ｓ_１_１
  6
CONTINUOUS
 62
     3
100
AcDbLine
 10
811.4023540442709
 20
411.2443224799682
 30
0.0
 11
813.2313578950524
 21
413.0733263307499
 31
0.0
  0
LINE
  5
14B
330
1F
100
AcDbEntity
  8
Ｓ_１_１
  6
CONTINUOUS
 62
     3
100
AcDbLine
 10
811.8712039401462
 20
410.2989588134704
 30
0.0
 11
813.7419694527684
 21
412.1697243260927
 31
0.0
  0
LINE
  5
14C
330
1F
100
AcDbEntity
  8
Ｓ_１_１
  6
CONTINUOUS
 62
     3
100
AcDbLine
 10
812.1589653437999
 20
409.6003720399634
 30
0.0
 11
812.1589653437999
 21
414.6129227509419
 31
0.0
  0
LINE
  5
14D
330
1F
100
AcDbEntity
  8
Ｓ_１_１
  6
CONTINUOUS
 62
     3
100
AcDbLine
 10
812.2730794819154
 20
409.2866207928668
 30
0.0
 11
814.1999454555153
 21
411.2134867664664
 31
0.0
  0
LINE
  5
14E
330
1F
100
AcDbEntity
  8
Ｓ_１_１
  6
CONTINUOUS
 62
     3
100
AcDbLine
 10
812.6002211239252
 20
408.1995488725032
 30
0.0
 11
814.6013133304385
 21
410.2006410790169
 31
0.0
  0
LINE
  5
14F
330
1F
100
AcDbEntity
  8
Ｓ_１_１
  6
CONTINUOUS
 62
     3
100
AcDbLine
 10
812.8411776010253
 20
407.0262917872302
 30
0.0
 11
814.9406280726552
 21
409.1257422588605
 31
0.0
  0
LINE
  5
150
330
1F
100
AcDbEntity
  8
Ｓ_１_１
  6
CONTINUOUS
 62
     3
100
AcDbLine
 10
812.9784113191627
 20
405.7493119429945
 30
0.0
 11
815.2103652095637
 21
407.9812658333959
 31
0.0
  0
LINE
  5
151
330
1F
100
AcDbEntity
  8
Ｓ_１_１
  6
CONTINUOUS
 62
     3
100
AcDbLine
 10
812.9832087005188
 20
404.3398957619779
 30
0.0
 11
815.3998886259182
 21
406.756575687377
 31
0.0
  0
LINE
  5
152
330
1F
100
AcDbEntity
  8
Ｓ_１_１
  6
CONTINUOUS
 62
     3
100
AcDbLine
 10
812.8029245707334
 20
402.745398069819
 30
0.0
 11
815.4935754670609
 21
405.4360489661465
 31
0.0
  0
LINE
  5
153
330
1F
100
AcDbEntity
  8
Ｓ_１_１
  6
CONTINUOUS
 62
     3
100
AcDbLine
 10
812.1589653437999
 20
395.3879165972979
 30
0.0
 11
812.1589653437999
 21
400.4004673082765
 31
0.0
  0
LINE
  5
154
330
1F
100
AcDbEntity
  8
Ｓ_１_１
  6
CONTINUOUS
 62
     3
100
AcDbLine
 10
812.3186021768133
 20
400.846862113526
 30
0.0
 11
815.4670767026901
 21
403.995336639403
 31
0.0
  0
LINE
  5
155
330
1F
100
AcDbEntity
  8
Ｓ_１_１
  6
CONTINUOUS
 62
     3
100
AcDbLine
 10
811.1589653438
 20
394.2431827570705
 30
0.0
 11
811.1589653438
 21
398.3312748672014
 31
0.0
  0
LINE
  5
156
330
1F
100
AcDbEntity
  8
Ｓ_１_１
  6
CONTINUOUS
 62
     3
100
AcDbLine
 10
811.069077650181
 20
398.1831240245207
 30
0.0
 11
815.2787797051627
 21
402.3928260795024
 31
0.0
  0
LINE
  5
157
330
1F
100
AcDbEntity
  8
Ｓ_１_１
  6
CONTINUOUS
 62
     3
100
AcDbLine
 10
810.1589653438
 20
393.2941787413031
 30
0.0
 11
810.1589653438
 21
396.8889818765856
 31
0.0
  0
LINE
  5
158
330
1F
100
AcDbEntity
  8
Ｓ_１_１
  6
CONTINUOUS
 62
     3
100
AcDbLine
 10
809.1589653437999
 20
392.4962600676221
 30
0.0
 11
809.1589653437999
 21
395.7747297903828
 31
0.0
  0
LINE
  5
159
330
1F
100
AcDbEntity
  8
Ｓ_１_１
  6
CONTINUOUS
 62
     3
100
AcDbLine
 10
808.1589653438
 20
391.8219547349705
 30
0.0
 11
808.1589653438
 21
394.879585493159
 31
0.0
  0
LINE
  5
15A
330
1F
100
AcDbEntity
  8
Ｓ_１_１
  6
CONTINUOUS
 62
     3
100
AcDbLine
 10
802.6075935946078
 20
389.7216399689472
 30
0.0
 11
806.8172956495891
 21
393.931342023929
 31
0.0
  0
LINE
  5
15B
330
1F
100
AcDbEntity
  8
Ｓ_１_１
  6
CONTINUOUS
 62
     3
100
AcDbLine
 10
807.1589653438
 20
391.2530610609167
 30
0.0
 11
807.1589653438
 21
394.1491886284676
 31
0.0
  0
LINE
  5
15C
330
1F
100
AcDbEntity
  8
Ｓ_１_１
  6
CONTINUOUS
 62
     3
100
AcDbLine
 10
798.2438439867327
 20
389.600531048192
 30
0.0
 11
800.6605239121322
 21
392.0172109735909
 31
0.0
  0
LINE
  5
15D
330
1F
100
AcDbEntity
  8
Ｓ_１_１
  6
CONTINUOUS
 62
     3
100
AcDbLine
 10
801.1589653438
 20
389.5441118043299
 30
0.0
 11
801.1589653438
 21
392.0521842989097
 31
0.0
  0
LINE
  5
15E
330
1F
100
AcDbEntity
  8
Ｓ_１_１
  6
CONTINUOUS
 62
     3
100
AcDbLine
 10
800.1589653437999
 20
389.5015363706896
 30
0.0
 11
800.1589653437999
 21
392.0013916327828
 31
0.0
  0
LINE
  5
15F
330
1F
100
AcDbEntity
  8
Ｓ_１_１
  6
CONTINUOUS
 62
     3
100
AcDbLine
 10
795.8746774152496
 20
390.0597916014545
 30
0.0
 11
797.97412788688
 21
392.159242073085
 31
0.0
  0
LINE
  5
160
330
1F
100
AcDbEntity
  8
Ｓ_１_１
  6
CONTINUOUS
 62
     3
100
AcDbLine
 10
798.1589653438
 20
389.6104474509939
 30
0.0
 11
798.1589653438
 21
392.1314418050463
 31
0.0
  0
LINE
  5
161
330
1F
100
AcDbEntity
  8
Ｓ_１_１
  6
CONTINUOUS
 62
     3
100
AcDbLine
 10
794.7997785950934
 20
390.3991063436713
 30
0.0
 11
796.8008708016067
 21
392.4001985501851
 31
0.0
  0
LINE
  5
162
330
1F
100
AcDbEntity
  8
Ｓ_１_１
  6
CONTINUOUS
 62
     3
100
AcDbLine
 10
797.1589653437999
 20
389.7633210094721
 30
0.0
 11
797.1589653437999
 21
392.3146590708953
 31
0.0
  0
LINE
  5
163
330
1F
100
AcDbEntity
  8
Ｓ_１_１
  6
CONTINUOUS
 62
     3
100
AcDbLine
 10
793.7869329076434
 20
390.8004742185948
 30
0.0
 11
795.7137988812433
 21
392.7273401921947
 31
0.0
  0
LINE
  5
164
330
1F
100
AcDbEntity
  8
Ｓ_１_１
  6
CONTINUOUS
 62
     3
100
AcDbLine
 10
796.1589653438
 20
389.9841915723684
 30
0.0
 11
796.1589653438
 21
392.5808201326714
 31
0.0
  0
LINE
  5
165
330
1F
100
AcDbEntity
  8
Ｓ_１_１
  6
CONTINUOUS
 62
     3
100
AcDbLine
 10
795.1589653438
 20
390.2761187708019
 30
0.0
 11
795.1589653438
 21
392.9354131072934
 31
0.0
  0
LINE
  5
166
330
1F
100
AcDbEntity
  8
Ｓ_１_１
  6
CONTINUOUS
 62
     3
100
AcDbLine
 10
792.8306953480173
 20
391.2584502213418
 30
0.0
 11
794.7014608606396
 21
393.1292157339641
 31
0.0
  0
LINE
  5
167
330
1F
100
AcDbEntity
  8
Ｓ_１_１
  6
CONTINUOUS
 62
     3
100
AcDbLine
 10
791.9270933433604
 20
391.7690617790578
 30
0.0
 11
793.756097194142
 21
393.5980656298394
 31
0.0
  0
LINE
  5
168
330
1F
100
AcDbEntity
  8
Ｓ_１_１
  6
CONTINUOUS
 62
     3
100
AcDbLine
 10
794.1589653437999
 20
390.6434364332343
 30
0.0
 11
794.1589653437999
 21
393.3865351325384
 31
0.0
  0
LINE
  5
169
330
1F
100
AcDbEntity
  8
Ｓ_１_１
  6
CONTINUOUS
 62
     3
100
AcDbLine
 10
793.1589653438
 20
391.0921164538601
 30
0.0
 11
793.1589653438
 21
393.94599771579
 31
0.0
  0
LINE
  5
16A
330
1F
100
AcDbEntity
  8
Ｓ_１_１
  6
CONTINUOUS
 62
     3
100
AcDbLine
 10
791.0732532553187
 20
392.3294352533895
 30
0.0
 11
792.8723871166685
 21
394.1285691147392
 31
0.0
  0
LINE
  5
16B
330
1F
100
AcDbEntity
  8
Ｓ_１_１
  6
CONTINUOUS
 62
     3
100
AcDbLine
 10
792.1589653438
 20
391.6303475294263
 30
0.0
 11
792.1589653438
 21
394.6313225330749
 31
0.0
  0
LINE
  5
16C
330
1F
100
AcDbEntity
  8
Ｓ_１_１
  6
CONTINUOUS
 62
     3
100
AcDbLine
 10
790.2671648508776
 20
392.9375604113214
 30
0.0
 11
792.0467475888872
 21
394.7171431493306
 31
0.0
  0
LINE
  5
16D
330
1F
100
AcDbEntity
  8
Ｓ_１_１
  6
CONTINUOUS
 62
     3
100
AcDbLine
 10
788.7936900516919
 20
394.2925127368817
 30
0.0
 11
790.5617888302121
 21
396.060611515402
 31
0.0
  0
LINE
  5
16E
330
1F
100
AcDbEntity
  8
Ｓ_１_１
  6
CONTINUOUS
 62
     3
100
AcDbLine
 10
791.1589653437999
 20
392.2694825584975
 30
0.0
 11
791.1589653437999
 21
395.4696219001638
 31
0.0
  0
LINE
  5
16F
330
1F
100
AcDbEntity
  8
Ｓ_１_１
  6
CONTINUOUS
 62
     3
100
AcDbLine
 10
787.5036085576634
 20
395.8308583675997
 30
0.0
 11
789.2959516405598
 21
397.6232014504957
 31
0.0
  0
LINE
  5
170
330
1F
100
AcDbEntity
  8
Ｓ_１_１
  6
CONTINUOUS
 62
     3
100
AcDbLine
 10
790.1589653438
 20
393.025667462506
 30
0.0
 11
790.1589653438
 21
396.5060664382539
 31
0.0
  0
LINE
  5
171
330
1F
100
AcDbEntity
  8
Ｓ_１_１
  6
CONTINUOUS
 62
     3
100
AcDbLine
 10
788.1255507873789
 20
395.0385870349418
 30
0.0
 11
789.9011825138932
 21
396.814218761456
 31
0.0
  0
LINE
  5
172
330
1F
100
AcDbEntity
  8
Ｓ_１_１
  6
CONTINUOUS
 62
     3
100
AcDbLine
 10
789.1589653438
 20
393.9228467803326
 30
0.0
 11
789.1589653438
 21
397.8260230037868
 31
0.0
  0
LINE
  5
173
330
1F
100
AcDbEntity
  8
Ｓ_１_１
  6
CONTINUOUS
 62
     3
100
AcDbLine
 10
786.9289663416489
 20
396.6704297139581
 30
0.0
 11
788.7480015752972
 21
398.4894649476064
 31
0.0
  0
LINE
  5
174
330
1F
100
AcDbEntity
  8
Ｓ_１_１
  6
CONTINUOUS
 62
     3
100
AcDbLine
 10
786.4034109253048
 20
397.5590878599868
 30
0.0
 11
788.2604892408631
 21
399.4161661755455
 31
0.0
  0
LINE
  5
175
330
1F
100
AcDbEntity
  8
Ｓ_１_１
  6
CONTINUOUS
 62
     3
100
AcDbLine
 10
788.1589653437999
 20
394.99889219554
 30
0.0
 11
788.1589653437999
 21
399.6347977837043
 31
0.0
  0
LINE
  5
176
330
1F
100
AcDbEntity
  8
Ｓ_１_１
  6
CONTINUOUS
 62
     3
100
AcDbLine
 10
785.9295412458468
 20
398.4994317429021
 30
0.0
 11
787.838166172893
 21
400.4080566699486
 31
0.0
  0
LINE
  5
177
330
1F
100
AcDbEntity
  8
Ｓ_１_１
  6
CONTINUOUS
 62
     3
100
AcDbLine
 10
785.510974177274
 20
399.4950782367023
 30
0.0
 11
787.4879736625512
 21
401.4720777219796
 31
0.0
  0
LINE
  5
178
330
1F
100
AcDbEntity
  8
Ｓ_１_１
  6
CONTINUOUS
 62
     3
100
AcDbLine
 10
785.1526700021485
 20
400.5509876239501
 30
0.0
 11
787.2200926719979
 21
402.6184102937996
 31
0.0
  0
LINE
  5
179
330
1F
100
AcDbEntity
  8
Ｓ_１_１
  6
CONTINUOUS
 62
     3
100
AcDbLine
 10
787.1589653438
 20
396.3200693014443
 30
0.0
 11
787.1589653438
 21
402.97364169947
 31
0.0
  0
LINE
  5
17A
330
1F
100
AcDbEntity
  8
Ｓ_１_１
  6
CONTINUOUS
 62
     3
100
AcDbLine
 10
784.8614563768191
 20
401.6739875609939
 30
0.0
 11
787.0499038263893
 21
403.8624350105638
 31
0.0
  0
LINE
  5
17B
330
1F
100
AcDbEntity
  8
Ｓ_１_１
  6
CONTINUOUS
 62
     3
100
AcDbLine
 10
784.646905651311
 20
402.8736503978589
 30
0.0
 11
787.00200533837
 21
405.2287500849178
 31
0.0
  0
LINE
  5
17C
330
1F
100
AcDbEntity
  8
Ｓ_１_１
  6
CONTINUOUS
 62
     3
100
AcDbLine
 10
787.1589653438
 20
407.0271976487699
 30
0.0
 11
787.1589653438
 21
413.6807700467956
 31
0.0
  0
LINE
  5
17D
330
1F
100
AcDbEntity
  8
Ｓ_１_１
  6
CONTINUOUS
 62
     3
100
AcDbLine
 10
784.5228940446732
 20
404.1638523535938
 30
0.0
 11
787.1197255458346
 21
406.7606838547555
 31
0.0
  0
LINE
  5
17E
330
1F
100
AcDbEntity
  8
Ｓ_１_１
  6
CONTINUOUS
 62
     3
100
AcDbLine
 10
784.5106161428452
 20
405.565788014139
 30
0.0
 11
787.493647124072
 21
408.5488189953662
 31
0.0
  0
LINE
  5
17F
330
1F
100
AcDbEntity
  8
Ｓ_１_１
  6
CONTINUOUS
 62
     3
100
AcDbLine
 10
788.1589653437999
 20
410.3660415645355
 30
0.0
 11
788.1589653437999
 21
415.0019471526999
 31
0.0
  0
LINE
  5
180
330
1F
100
AcDbEntity
  8
Ｓ_１_１
  6
CONTINUOUS
 62
     3
100
AcDbLine
 10
789.1589653438
 20
412.1748163444529
 30
0.0
 11
789.1589653438
 21
416.0779925679072
 31
0.0
  0
LINE
  5
181
330
1F
100
AcDbEntity
  8
Ｓ_１_１
  6
CONTINUOUS
 62
     3
100
AcDbLine
 10
784.6451594531485
 20
407.1145448868157
 30
0.0
 11
788.4004152331976
 21
410.8698006668645
 31
0.0
  0
LINE
  5
182
330
1F
100
AcDbEntity
  8
Ｓ_１_１
  6
CONTINUOUS
 62
     3
100
AcDbLine
 10
790.1589653438
 20
413.494772909986
 30
0.0
 11
790.1589653438
 21
416.9751718857339
 31
0.0
  0
LINE
  5
183
330
1F
100
AcDbEntity
  8
Ｓ_１_１
  6
CONTINUOUS
 62
     3
100
AcDbLine
 10
791.1589653437999
 20
414.5312174480761
 30
0.0
 11
791.1589653437999
 21
417.7313567897423
 31
0.0
  0
LINE
  5
184
330
1F
100
AcDbEntity
  8
Ｓ_１_１
  6
CONTINUOUS
 62
     3
100
AcDbLine
 10
792.1589653438
 20
415.369516815165
 30
0.0
 11
792.1589653438
 21
418.3704918188135
 31
0.0
  0
LINE
  5
185
330
1F
100
AcDbEntity
  8
Ｓ_１_１
  6
CONTINUOUS
 62
     3
100
AcDbLine
 10
794.1306190072454
 20
416.6000044409126
 30
0.0
 11
797.8858747872945
 21
420.3552602209614
 31
0.0
  0
LINE
  5
186
330
1F
100
AcDbEntity
  8
Ｓ_１_１
  6
CONTINUOUS
 62
     3
100
AcDbLine
 10
793.1589653438
 20
416.0548416324499
 30
0.0
 11
793.1589653438
 21
418.9087228943798
 31
0.0
  0
LINE
  5
187
330
1F
100
AcDbEntity
  8
Ｓ_１_１
  6
CONTINUOUS
 62
     3
100
AcDbLine
 10
794.1589653437999
 20
416.6143042157015
 30
0.0
 11
794.1589653437999
 21
419.3574029150055
 31
0.0
  0
LINE
  5
188
330
1F
100
AcDbEntity
  8
Ｓ_１_１
  6
CONTINUOUS
 62
     3
100
AcDbLine
 10
795.1589653438
 20
417.0654262409465
 30
0.0
 11
795.1589653438
 21
419.724720577438
 31
0.0
  0
LINE
  5
189
330
1F
100
AcDbEntity
  8
Ｓ_１_１
  6
CONTINUOUS
 62
     3
100
AcDbLine
 10
796.451600678744
 20
417.5067725500378
 30
0.0
 11
799.4346316599712
 21
420.489803531265
 31
0.0
  0
LINE
  5
18A
330
1F
100
AcDbEntity
  8
Ｓ_１_１
  6
CONTINUOUS
 62
     3
100
AcDbLine
 10
796.1589653438
 20
417.4200192155684
 30
0.0
 11
796.1589653438
 21
420.0166477758714
 31
0.0
  0
LINE
  5
18B
330
1F
100
AcDbEntity
  8
Ｓ_１_１
  6
CONTINUOUS
 62
     3
100
AcDbLine
 10
797.1589653437999
 20
417.6861802773445
 30
0.0
 11
797.1589653437999
 21
420.2375183387676
 31
0.0
  0
LINE
  5
18C
330
1F
100
AcDbEntity
  8
Ｓ_１_１
  6
CONTINUOUS
 62
     3
100
AcDbLine
 10
798.2397358193547
 20
417.8806941282754
 30
0.0
 11
800.8365673205162
 21
420.4775256294371
 31
0.0
  0
LINE
  5
18D
330
1F
100
AcDbEntity
  8
Ｓ_１_１
  6
CONTINUOUS
 62
     3
100
AcDbLine
 10
798.1589653438
 20
417.8693975431936
 30
0.0
 11
798.1589653438
 21
420.390391897246
 31
0.0
  0
LINE
  5
18E
330
1F
100
AcDbEntity
  8
Ｓ_１_１
  6
CONTINUOUS
 62
     3
100
AcDbLine
 10
799.7716695891922
 20
417.99841433574
 30
0.0
 11
802.1267692762511
 21
420.3535140227987
 31
0.0
  0
LINE
  5
18F
330
1F
100
AcDbEntity
  8
Ｓ_１_１
  6
CONTINUOUS
 62
     3
100
AcDbLine
 10
799.1589653438
 20
417.9731857903763
 30
0.0
 11
799.1589653438
 21
420.4772835147361
 31
0.0
  0
DIMENSION
  5
191
330
1F
100
AcDbEntity
  8
Ｓ_１_１
  6
CONTINUOUS
 62
     2
100
AcDbDimension
  2
*D15
 10
1074.9993627393
 20
880.0
 30
0.0
 11
799.9993524292851
 21
896.5
 31
0.0
 70
   160
  1
%%c550
  3
ISO-25
100
AcDbAlignedDimension
 13
524.9993421192701
 23
772.9999686576198
 33
0.0
 14
1074.9993627393
 24
772.9999686576198
 34
0.0
100
AcDbRotatedDimension
1001
ACAD
1000
DSTYLE
1002
{
1070
   270
1070
     2
1070
     6
1000
EX_NORM
1070
     7
1000
EX_NORM
1070
    41
1040
18.0
1070
    42
1040
9.0
1070
    44
1040
6.0
1070
    73
1070
     0
1070
    74
1070
     0
1070
    75
1070
     0
1070
    76
1070
     0
1070
    77
1070
     1
1070
    78
1070
     8
1070
   140
1040
20.77742494226328
1070
   147
1040
0.0
1070
   173
1070
     1
1070
   176
1070
     2
1070
   177
1070
     2
1070
   178
1070
     2
1070
   271
1070
     2
1070
   277
1070
     2
1070
   279
1070
     2
1070
   280
1070
     0
1070
   287
1070
     5
1070
   340
1005
190
1002
}
  0
DIMENSION
  5
19F
330
1F
100
AcDbEntity
  8
Ｓ_１_１
  6
CONTINUOUS
 62
     2
100
AcDbDimension
  2
*D16
 10
399.9999999999999
 20
570.00009072793
 30
0.0
 11
383.4999999999999
 21
425.000045363965
 31
0.0
 70
   160
  3
ISO-25
100
AcDbAlignedDimension
 13
522.9994097528199
 23
279.9999999999999
 33
0.0
 14
522.9994097528199
 24
570.00009072793
 34
0.0
 50
90.0
100
AcDbRotatedDimension
1001
ACAD
1000
DSTYLE
1002
{
1070
   270
1070
     2
1070
     6
1000
EX_NORM
1070
     7
1000
EX_NORM
1070
    41
1040
18.0
1070
    42
1040
0.0
1070
    44
1040
0.0
1070
    73
1070
     0
1070
    74
1070
     0
1070
    75
1070
     1
1070
    76
1070
     1
1070
    77
1070
     1
1070
    78
1070
     8
1070
   140
1040
20.77742494226328
1070
   147
1040
0.0
1070
   173
1070
     1
1070
   176
1070
     2
1070
   177
1070
     2
1070
   178
1070
     2
1070
   271
1070
     2
1070
   277
1070
     2
1070
   279
1070
     2
1070
   280
1070
     0
1070
   287
1070
     5
1070
   340
1005
190
1002
}
  0
DIMENSION
  5
1AA
330
1F
100
AcDbEntity
  8
Ｓ_１_１
  6
CONTINUOUS
 62
     2
100
AcDbDimension
  2
*D17
 10
399.9999999999999
 20
670.0001732078699
 30
0.0
 11
383.4999999999999
 21
620.0001319679
 31
0.0
 70
   160
  3
ISO-25
100
AcDbAlignedDimension
 13
522.9994097528199
 23
570.00009072793
 33
0.0
 14
527.9994262488099
 24
670.0001732078699
 34
0.0
 50
90.0
100
AcDbRotatedDimension
1001
ACAD
1000
DSTYLE
1002
{
1070
   270
1070
     2
1070
     6
1000
EX_NORM
1070
     7
1000
EX_NORM
1070
    41
1040
18.0
1070
    42
1040
9.0
1070
    44
1040
6.0
1070
    73
1070
     0
1070
    74
1070
     0
1070
    75
1070
     0
1070
    76
1070
     1
1070
    77
1070
     1
1070
    78
1070
     8
1070
   140
1040
20.77742494226328
1070
   147
1040
0.0
1070
   173
1070
     1
1070
   176
1070
     2
1070
   177
1070
     2
1070
   178
1070
     2
1070
   271
1070
     2
1070
   277
1070
     2
1070
   279
1070
     2
1070
   280
1070
     0
1070
   287
1070
     5
1070
   340
1005
190
1002
}
  0
DIMENSION
  5
1B6
330
1F
100
AcDbEntity
  8
Ｓ_１_１
  6
CONTINUOUS
 62
     2
100
AcDbDimension
  2
*D18
 10
399.9999999999999
 20
689.9999917519999
 30
0.0
 11
383.4999999999999
 21
680.0000824799349
 31
0.0
 70
   160
  3
ISO-25
100
AcDbAlignedDimension
 13
527.9994262488099
 23
670.0001732078699
 33
0.0
 14
630.0728913922899
 24
689.9999917519999
 34
0.0
 50
90.0
100
AcDbRotatedDimension
1001
ACAD
1000
DSTYLE
1002
{
1070
   270
1070
     2
1070
     6
1000
EX_NORM
1070
     7
1000
EX_NORM
1070
    41
1040
18.0
1070
    42
1040
9.0
1070
    44
1040
6.0
1070
    73
1070
     0
1070
    74
1070
     0
1070
    75
1070
     0
1070
    76
1070
     0
1070
    77
1070
     1
1070
    78
1070
     8
1070
   140
1040
20.77742494226328
1070
   147
1040
0.0
1070
   173
1070
     1
1070
   176
1070
     2
1070
   177
1070
     2
1070
   178
1070
     2
1070
   271
1070
     2
1070
   277
1070
     2
1070
   279
1070
     2
1070
   280
1070
     0
1070
   287
1070
     5
1070
   340
1005
190
1002
}
  0
DIMENSION
  5
1C5
330
1F
100
AcDbEntity
  8
Ｓ_１_１
  6
CONTINUOUS
 62
     2
100
AcDbDimension
  2
*D19
 10
399.9999999999999
 20
774.9999010240699
 30
0.0
 11
383.5000000000001
 21
732.4999463880349
 31
0.0
 70
   160
  3
ISO-25
100
AcDbAlignedDimension
 13
630.07286886256
 23
689.9999917519999
 33
0.0
 14
526.9993982056299
 24
774.9999010240699
 34
0.0
 50
90.0
100
AcDbRotatedDimension
1001
ACAD
1000
DSTYLE
1002
{
1070
   270
1070
     2
1070
     6
1000
EX_NORM
1070
     7
1000
EX_NORM
1070
    41
1040
18.0
1070
    42
1040
0.0
1070
    44
1040
0.0
1070
    73
1070
     0
1070
    74
1070
     0
1070
    75
1070
     1
1070
    76
1070
     1
1070
    77
1070
     1
1070
    78
1070
     8
1070
   140
1040
20.77742494226328
1070
   147
1040
0.0
1070
   173
1070
     1
1070
   176
1070
     2
1070
   177
1070
     2
1070
   178
1070
     2
1070
   271
1070
     2
1070
   277
1070
     2
1070
   279
1070
     2
1070
   280
1070
     0
1070
   287
1070
     5
1070
   340
1005
190
1002
}
  0
DIMENSION
  5
1D0
330
1F
100
AcDbEntity
  8
Ｓ_１_１
  6
CONTINUOUS
 62
     2
100
AcDbDimension
  2
*D20
 10
360.0
 20
774.9999010240699
 30
0.0
 11
343.5000000000001
 21
527.499950512035
 31
0.0
 70
   160
  3
ISO-25
100
AcDbAlignedDimension
 13
522.9994097528199
 23
279.9999999999999
 33
0.0
 14
526.9993982056299
 24
774.9999010240699
 34
0.0
 50
90.0
100
AcDbRotatedDimension
1001
ACAD
1000
DSTYLE
1002
{
1070
   270
1070
     2
1070
     6
1000
EX_NORM
1070
     7
1000
EX_NORM
1070
    41
1040
18.0
1070
    42
1040
9.0
1070
    44
1040
6.0
1070
    73
1070
     0
1070
    74
1070
     0
1070
    75
1070
     0
1070
    76
1070
     0
1070
    77
1070
     1
1070
    78
1070
     8
1070
   140
1040
20.77742494226328
1070
   147
1040
0.0
1070
   173
1070
     1
1070
   176
1070
     2
1070
   177
1070
     2
1070
   178
1070
     2
1070
   271
1070
     2
1070
   277
1070
     2
1070
   279
1070
     2
1070
   280
1070
     0
1070
   287
1070
     5
1070
   340
1005
190
1002
}
  0
DIMENSION
  5
1DD
330
1F
100
AcDbEntity
  8
Ｓ_１_１
  6
CONTINUOUS
 62
     2
100
AcDbDimension
  2
*D21
 10
1079.9995029552
 20
159.9999999999999
 30
0.0
 11
799.9994452192149
 21
176.4999999999999
 31
0.0
 70
   160
  1
%%c560
  3
ISO-25
100
AcDbAlignedDimension
 13
519.9993874832301
 23
282.9999604096299
 33
0.0
 14
1079.9995029552
 24
283.00020784945
 34
0.0
100
AcDbRotatedDimension
1001
ACAD
1000
DSTYLE
1002
{
1070
   270
1070
     2
1070
     6
1000
EX_NORM
1070
     7
1000
EX_NORM
1070
    41
1040
18.0
1070
    42
1040
9.0
1070
    44
1040
6.0
1070
    73
1070
     0
1070
    74
1070
     0
1070
    75
1070
     0
1070
    76
1070
     0
1070
    77
1070
     1
1070
    78
1070
     8
1070
   140
1040
20.77742494226328
1070
   147
1040
0.0
1070
   173
1070
     1
1070
   176
1070
     2
1070
   177
1070
     2
1070
   178
1070
     2
1070
   271
1070
     2
1070
   277
1070
     2
1070
   279
1070
     2
1070
   280
1070
     0
1070
   287
1070
     5
1070
   340
1005
190
1002
}
  0
DIMENSION
  5
1EA
330
1F
100
AcDbEntity
  8
Ｓ_１_１
  6
CONTINUOUS
 62
     2
100
AcDbDimension
  2
*D22
 10
1200.0
 20
405.0004196741199
 30
0.0
 11
1183.5
 21
342.5003954169249
 31
0.0
 70
   160
  3
ISO-25
100
AcDbAlignedDimension
 13
1076.9996662654
 23
280.0003711597299
 33
0.0
 14
819.5589653437999
 24
405.0004196741199
 34
0.0
 50
90.0
100
AcDbRotatedDimension
1001
ACAD
1000
DSTYLE
1002
{
1070
   270
1070
     2
1070
     6
1000
EX_NORM
1070
     7
1000
EX_NORM
1070
    41
1040
18.0
1070
    42
1040
9.0
1070
    44
1040
6.0
1070
    73
1070
     0
1070
    74
1070
     0
1070
    75
1070
     0
1070
    76
1070
     1
1070
    77
1070
     1
1070
    78
1070
     8
1070
   140
1040
20.77742494226328
1070
   147
1040
0.0
1070
   173
1070
     1
1070
   176
1070
     2
1070
   177
1070
     2
1070
   178
1070
     2
1070
   271
1070
     2
1070
   277
1070
     2
1070
   279
1070
     2
1070
   280
1070
     0
1070
   287
1070
     5
1070
   340
1005
190
1002
}
  0
LINE
  5
1F6
330
1F
100
AcDbEntity
  8
Ｓ_１_１
  6
CONTINUOUS
 62
     2
100
AcDbLine
 10
828.5589653437999
 20
405.0004196741199
 30
0.0
 11
1206.0
 21
405.0004196741199
 31
0.0
  0
DIMENSION
  5
1F7
330
1F
100
AcDbEntity
  8
Ｓ_１_１
  6
CONTINUOUS
 62
     2
100
AcDbDimension
  2
*D23
 10
437.9637152357462
 20
686.6838629534009
 30
0.0
 11
425.0191542453406
 21
733.6114982569775
 31
0.0
 70
   165
  3
ISO-25
100
AcDb3PointAngularDimension
 13
526.9966145076214
 23
695.4019742398636
 33
0.0
 14
616.4992480921337
 24
679.9999587600278
 34
0.0
 15
820.885398624644
 25
679.9999587600275
 35
0.0
1001
ACAD
1000
DSTYLE
1002
{
1070
   270
1070
     2
1070
     6
1000
EX_NORM
1070
     7
1000
EX_NORM
1070
    41
1040
18.0
1070
    42
1040
8.999999999999943
1070
    44
1040
5.999999999999994
1070
    73
1070
     0
1070
    74
1070
     0
1070
    75
1070
     0
1070
    76
1070
     0
1070
    77
1070
     1
1070
    78
1070
     8
1070
    79
1070
     2
1070
   140
1040
20.77742494226328
1070
   147
1040
0.0
1070
   173
1070
     1
1070
   176
1070
     2
1070
   177
1070
     2
1070
   178
1070
     2
1070
   179
1070
     2
1070
   271
1070
     2
1070
   277
1070
     2
1070
   279
1070
     2
1070
   280
1070
     1
1070
   287
1070
     5
1070
   340
1005
190
1002
}
  0
DIMENSION
  5
207
330
1F
100
AcDbEntity
  8
Ｓ_１_１
  6
CONTINUOUS
 62
     2
100
AcDbDimension
  2
*D24
 10
1075.00004124
 20
1040.0
 30
0.0
 11
800.000026263455
 21
1056.5
 31
0.0
 70
   160
  3
ISO-25
100
AcDbAlignedDimension
 13
525.00001128691
 23
1427.3216942341
 33
0.0
 14
1075.00004124
 24
1427.3219684444
 34
0.0
100
AcDbRotatedDimension
1001
ACAD
1000
DSTYLE
1002
{
1070
   270
1070
     2
1070
     6
1000
EX_NORM
1070
     7
1000
EX_NORM
1070
    41
1040
18.0
1070
    42
1040
0.0
1070
    44
1040
0.0
1070
    73
1070
     0
1070
    74
1070
     0
1070
    75
1070
     1
1070
    76
1070
     1
1070
    77
1070
     1
1070
    78
1070
     8
1070
   140
1040
20.77742494226328
1070
   147
1040
0.0
1070
   173
1070
     1
1070
   176
1070
     2
1070
   177
1070
     2
1070
   178
1070
     2
1070
   271
1070
     2
1070
   277
1070
     2
1070
   279
1070
     2
1070
   280
1070
     0
1070
   287
1070
     5
1070
   340
1005
190
1002
}
  0
DIMENSION
  5
212
330
1F
100
AcDbEntity
  8
Ｓ_１_１
  6
CONTINUOUS
 62
     2
100
AcDbDimension
  2
*D25
 10
449.0000956785199
 20
1040.0
 30
0.0
 11
487.000053482715
 21
1056.5
 31
0.0
 70
   160
  3
ISO-25
100
AcDbAlignedDimension
 13
525.00001128691
 23
1427.3216942341
 33
0.0
 14
449.0000956785199
 24
1471.9996519348
 34
0.0
100
AcDbRotatedDimension
1001
ACAD
1000
DSTYLE
1002
{
1070
   270
1070
     2
1070
     6
1000
EX_NORM
1070
     7
1000
EX_NORM
1070
    41
1040
18.0
1070
    42
1040
9.0
1070
    44
1040
6.0
1070
    73
1070
     0
1070
    74
1070
     0
1070
    75
1070
     0
1070
    76
1070
     1
1070
    77
1070
     1
1070
    78
1070
     8
1070
   140
1040
20.77742494226328
1070
   147
1040
0.0
1070
   173
1070
     1
1070
   176
1070
     2
1070
   177
1070
     2
1070
   178
1070
     2
1070
   271
1070
     2
1070
   277
1070
     2
1070
   279
1070
     2
1070
   280
1070
     0
1070
   287
1070
     5
1070
   340
1005
190
1002
}
  0
DIMENSION
  5
21E
330
1F
100
AcDbEntity
  8
Ｓ_１_１
  6
CONTINUOUS
 62
     2
100
AcDbDimension
  2
*D26
 10
1151.0000527871
 20
1040.0
 30
0.0
 11
1113.00004701355
 21
1056.5
 31
0.0
 70
   160
  3
ISO-25
100
AcDbAlignedDimension
 13
1075.00004124
 23
1427.3219684444
 33
0.0
 14
1151.0000527871
 24
1471.9999612344
 34
0.0
100
AcDbRotatedDimension
1001
ACAD
1000
DSTYLE
1002
{
1070
   270
1070
     2
1070
     6
1000
EX_NORM
1070
     7
1000
EX_NORM
1070
    41
1040
18.0
1070
    42
1040
9.0
1070
    44
1040
6.0
1070
    73
1070
     0
1070
    74
1070
     0
1070
    75
1070
     0
1070
    76
1070
     1
1070
    77
1070
     1
1070
    78
1070
     8
1070
   140
1040
20.77742494226328
1070
   147
1040
0.0
1070
   173
1070
     1
1070
   176
1070
     2
1070
   177
1070
     2
1070
   178
1070
     2
1070
   271
1070
     2
1070
   277
1070
     2
1070
   279
1070
     2
1070
   280
1070
     0
1070
   287
1070
     5
1070
   340
1005
190
1002
}
  0
DIMENSION
  5
22A
330
1F
100
AcDbEntity
  8
Ｓ_１_１
  6
CONTINUOUS
 62
     2
100
AcDbDimension
  2
*D27
 10
1151.0000527871
 20
1000.0
 30
0.0
 11
800.00007423281
 21
1016.5
 31
0.0
 70
   160
  3
ISO-25
100
AcDbAlignedDimension
 13
449.0000956785199
 23
1471.9996519348
 33
0.0
 14
1151.0000527871
 24
1471.9999612344
 34
0.0
100
AcDbRotatedDimension
1001
ACAD
1000
DSTYLE
1002
{
1070
   270
1070
     2
1070
     6
1000
EX_NORM
1070
     7
1000
EX_NORM
1070
    41
1040
18.0
1070
    42
1040
9.0
1070
    44
1040
6.0
1070
    73
1070
     0
1070
    74
1070
     0
1070
    75
1070
     0
1070
    76
1070
     0
1070
    77
1070
     1
1070
    78
1070
     8
1070
   140
1040
20.77742494226328
1070
   147
1040
0.0
1070
   173
1070
     1
1070
   176
1070
     2
1070
   177
1070
     2
1070
   178
1070
     2
1070
   271
1070
     2
1070
   277
1070
     2
1070
   279
1070
     2
1070
   280
1070
     0
1070
   287
1070
     5
1070
   340
1005
190
1002
}
  0
DIMENSION
  5
237
330
1F
100
AcDbEntity
  8
Ｓ_１_１
  6
CONTINUOUS
 62
     2
100
AcDbDimension
  2
*D28
 10
1240.0
 20
1480.0
 30
0.0
 11
1223.5
 21
1296.0000109742
 31
0.0
 70
   160
  1
(368)
  3
ISO-25
100
AcDbAlignedDimension
 13
811.9999974551301
 23
1112.0000219484
 33
0.0
 14
1160.0
 24
1480.0
 34
0.0
 50
90.0
100
AcDbRotatedDimension
1001
ACAD
1000
DSTYLE
1002
{
1070
   270
1070
     2
1070
     6
1000
EX_NORM
1070
     7
1000
EX_NORM
1070
    41
1040
18.0
1070
    42
1040
9.0
1070
    44
1040
6.0
1070
    73
1070
     0
1070
    74
1070
     0
1070
    75
1070
     0
1070
    76
1070
     0
1070
    77
1070
     1
1070
    78
1070
     8
1070
   140
1040
20.77742494226328
1070
   147
1040
0.0
1070
   173
1070
     1
1070
   176
1070
     2
1070
   177
1070
     2
1070
   178
1070
     2
1070
   271
1070
     2
1070
   277
1070
     2
1070
   279
1070
     2
1070
   280
1070
     0
1070
   287
1070
     5
1070
   340
1005
190
1002
}
  0
LINE
  5
244
330
1F
100
AcDbEntity
  8
Ｓ_１_１
  6
CONTINUOUS
 62
     3
100
AcDbLine
 10
2154.999362739251
 20
772.9999686569602
 30
0.0
 11
2154.999362739251
 21
697.5066973705373
 31
0.0
  0
LINE
  5
245
330
1F
100
AcDbEntity
  8
Ｓ_１_１
  6
CONTINUOUS
 62
     3
100
AcDbLine
 10
2152.999306652892
 20
775.0000247433202
 30
0.0
 11
2154.999362739251
 21
772.9999686569602
 31
0.0
  0
LINE
  5
246
330
1F
100
AcDbEntity
  8
Ｓ_１_１
  6
CONTINUOUS
 62
     3
100
AcDbLine
 10
2154.999362739251
 20
667.0002127975852
 30
0.0
 11
2154.999362739251
 21
573.0001748568122
 31
0.0
  0
LINE
  5
247
330
1F
100
AcDbEntity
  8
Ｓ_１_１
  6
CONTINUOUS
 62
     3
100
AcDbLine
 10
2067.499321499281
 20
670.0001732072135
 30
0.0
 11
2067.499321499281
 21
675.9999703065589
 31
0.0
  0
LINE
  5
248
330
1F
100
AcDbEntity
  8
Ｓ_１_１
  6
CONTINUOUS
 62
     3
100
AcDbLine
 10
2067.499321499281
 20
675.9999703065589
 30
0.0
 11
2063.499580486296
 21
680.000082479279
 31
0.0
  0
LINE
  5
249
330
1F
100
AcDbEntity
  8
Ｓ_１_１
  6
CONTINUOUS
 62
     3
100
AcDbLine
 10
2063.499580486296
 20
680.000082479279
 30
0.0
 11
2063.499580486296
 21
670.0001732072135
 31
0.0
  0
LINE
  5
24A
330
1F
100
AcDbEntity
  8
Ｓ_１_１
  6
CONTINUOUS
 62
     3
100
AcDbLine
 10
2049.925774136
 20
689.9999917513435
 30
0.0
 11
2153.002152210853
 21
695.4020979591135
 31
0.0
  0
LINE
  5
24B
330
1F
100
AcDbEntity
  8
Ｓ_１_１
  6
CONTINUOUS
 62
     3
100
AcDbLine
 10
2156.999666265434
 20
280.0003711590717
 30
0.0
 11
2159.999502955151
 21
283.0002078487888
 31
0.0
  0
LINE
  5
24C
330
1F
100
AcDbEntity
  8
Ｓ_１_１
  6
CONTINUOUS
 62
     3
100
AcDbLine
 10
2154.999362739251
 20
697.5066973705373
 30
0.0
 11
2153.002152210853
 21
695.4020979591135
 31
0.0
  0
LINE
  5
24D
330
1F
100
AcDbEntity
  8
Ｓ_１_１
  6
CONTINUOUS
 62
     3
100
AcDbLine
 10
2156.999418825611
 20
570.0003381670952
 30
0.0
 11
2159.999502955151
 21
567.0001303176443
 31
0.0
  0
LINE
  5
24E
330
1F
100
AcDbEntity
  8
Ｓ_１_１
  6
CONTINUOUS
 62
     3
100
AcDbLine
 10
2154.999362739251
 20
573.0001748568122
 30
0.0
 11
2151.999402329623
 21
570.0003381670952
 31
0.0
  0
LINE
  5
24F
330
1F
100
AcDbEntity
  8
Ｓ_１_１
  6
CONTINUOUS
 62
     3
100
AcDbLine
 10
2154.999362739251
 20
667.0002127975852
 30
0.0
 11
2151.999278609712
 21
670.0001732072135
 31
0.0
  0
LINE
  5
250
330
1F
100
AcDbEntity
  8
Ｓ_１_１
  6
CONTINUOUS
 62
     3
100
AcDbLine
 10
1604.999342119266
 20
697.5065736506263
 30
0.0
 11
1606.996614507622
 21
695.4019742392024
 31
0.0
  0
LINE
  5
251
330
1F
100
AcDbEntity
  8
Ｓ_１_１
  6
CONTINUOUS
 62
     3
100
AcDbLine
 10
1604.999342119266
 20
772.9999686569603
 30
0.0
 11
1604.999342119266
 21
697.5065736506263
 31
0.0
  0
LINE
  5
252
330
1F
100
AcDbEntity
  8
Ｓ_１_１
  6
CONTINUOUS
 62
     3
100
AcDbLine
 10
1606.999398205626
 20
774.9999010234083
 30
0.0
 11
1604.999342119266
 21
772.9999686569603
 31
0.0
  0
LINE
  5
253
330
1F
100
AcDbEntity
  8
Ｓ_１_１
  6
CONTINUOUS
 62
     3
100
AcDbLine
 10
1710.072868862563
 20
689.9999917513437
 30
0.0
 11
1606.996614507622
 21
695.4019742392024
 31
0.0
  0
LINE
  5
254
330
1F
100
AcDbEntity
  8
Ｓ_１_１
  6
CONTINUOUS
 62
     3
100
AcDbLine
 10
1602.999409752818
 20
279.999999999338
 30
0.0
 11
1599.999387483234
 21
282.9999604089663
 31
0.0
  0
LINE
  5
255
330
1F
100
AcDbEntity
  8
Ｓ_１_１
  6
CONTINUOUS
 62
     3
100
AcDbLine
 10
1604.999403979222
 20
667.0000890776741
 30
0.0
 11
1604.999403979222
 21
573.0001748568125
 31
0.0
  0
LINE
  5
256
330
1F
100
AcDbEntity
  8
Ｓ_１_１
  6
CONTINUOUS
 62
     3
100
AcDbLine
 10
1692.499507079148
 20
670.0001732072137
 30
0.0
 11
1692.499507079148
 21
675.9998465866479
 31
0.0
  0
LINE
  5
257
330
1F
100
AcDbEntity
  8
Ｓ_１_１
  6
CONTINUOUS
 62
     3
100
AcDbLine
 10
1696.499248092134
 20
679.999958759367
 30
0.0
 11
1696.499248092134
 21
670.0001732072137
 31
0.0
  0
LINE
  5
258
330
1F
100
AcDbEntity
  8
Ｓ_１_１
  6
CONTINUOUS
 62
     3
100
AcDbLine
 10
1692.499507079148
 20
675.9998465866479
 30
0.0
 11
1696.499248092134
 21
679.999958759367
 31
0.0
  0
LINE
  5
259
330
1F
100
AcDbEntity
  8
Ｓ_１_１
  6
CONTINUOUS
 62
     3
100
AcDbLine
 10
1602.999409752818
 20
570.0000907272729
 30
0.0
 11
1599.999387483234
 21
567.0001303176446
 31
0.0
  0
LINE
  5
25A
330
1F
100
AcDbEntity
  8
Ｓ_１_１
  6
CONTINUOUS
 62
     3
100
AcDbLine
 10
1604.999403979222
 20
573.0001748568125
 30
0.0
 11
1607.999426248806
 21
570.0000907272729
 31
0.0
  0
LINE
  5
25B
330
1F
100
AcDbEntity
  8
Ｓ_１_１
  6
CONTINUOUS
 62
     3
100
AcDbLine
 10
1604.999403979222
 20
667.0000890776741
 30
0.0
 11
1607.999426248806
 21
670.0001732072137
 31
0.0
  0
ARC
  5
25C
330
1F
100
AcDbEntity
  8
Ｓ_１_１
  6
CONTINUOUS
 62
     3
100
AcDbCircle
 10
1879.999321499281
 20
775.0000247433202
 30
0.0
 40
189.9999927830053
100
AcDbArc
 50
206.5749816894534
 51
210.0000000000003
  0
ELLIPSE
  5
25D
330
1F
100
AcDbEntity
  8
Ｓ_１_１
  6
CONTINUOUS
 62
     3
100
AcDbEllipse
 10
1735.523477399566
 20
620.0000082473318
 30
0.0
 11
0.4701991679834502
 21
-12.96127301827543
 31
0.0
210
0.0
220
0.0
230
1.0
 40
0.8800000000000002
 41
0.0
 42
6.283185307179586
  0
ELLIPSE
  5
25E
330
1F
100
AcDbEntity
  8
Ｓ_１_１
  6
CONTINUOUS
 62
     3
100
AcDbEllipse
 10
2024.475351178863
 20
620.0000082473318
 30
0.0
 11
0.4701991679834502
 21
-12.96127301827543
 31
0.0
210
0.0
220
0.0
230
1.0
 40
0.8800000000000002
 41
0.0
 42
6.283185307179586
  0
ARC
  5
25F
330
1F
100
AcDbEntity
  8
Ｓ_１_１
  6
CONTINUOUS
 62
     3
100
AcDbCircle
 10
1879.999321499281
 20
775.0000247433202
 30
0.0
 40
189.9999927830053
100
AcDbArc
 50
330.0000152587891
 51
333.4250335693362
  0
LINE
  5
260
330
1F
100
AcDbEntity
  8
Ｓ_１_１
  6
EXLTYPE2
 62
     1
100
AcDbLine
 10
1735.523477399566
 20
637.4722290032444
 30
0.0
 11
1735.523477399566
 21
601.2111601951785
 31
0.0
  0
LINE
  5
261
330
1F
100
AcDbEntity
  8
Ｓ_１_１
  6
EXLTYPE2
 62
     1
100
AcDbLine
 10
1751.102412352586
 20
620.0000082473318
 30
0.0
 11
1720.021434371431
 21
620.0000082473321
 31
0.0
  0
LINE
  5
262
330
1F
100
AcDbEntity
  8
Ｓ_１_１
  6
EXLTYPE2
 62
     1
100
AcDbLine
 10
2024.475351178863
 20
637.4722290032444
 30
0.0
 11
2024.475351178863
 21
601.2112839150889
 31
0.0
  0
LINE
  5
263
330
1F
100
AcDbEntity
  8
Ｓ_１_１
  6
EXLTYPE2
 62
     1
100
AcDbLine
 10
2008.896416225843
 20
620.0002556871543
 30
0.0
 11
2039.977332347043
 21
620.0000082473318
 31
0.0
  0
LINE
  5
264
330
1F
100
AcDbEntity
  8
Ｓ_１_１
  6
EXLTYPE2
 62
     1
100
AcDbLine
 10
1646.221208211433
 20
620.0000082473321
 30
0.0
 11
1594.13023861024
 21
620.0000082473321
 31
0.0
  0
LINE
  5
265
330
1F
100
AcDbEntity
  8
Ｓ_１_１
  6
EXLTYPE2
 62
     1
100
AcDbLine
 10
1879.999321499281
 20
786.3717403920739
 30
0.0
 11
1879.999507079148
 21
265.4218354089663
 31
0.0
  0
CIRCLE
  5
266
330
1F
100
AcDbEntity
  8
Ｓ_１_１
  6
CONTINUOUS
 62
     3
100
AcDbCircle
 10
1844.999344409201
 20
535.0001383262099
 30
0.0
 40
6.99980166385919
  0
CIRCLE
  5
267
330
1F
100
AcDbEntity
  8
Ｓ_１_１
  6
CONTINUOUS
 62
     3
100
AcDbCircle
 10
1844.999344409201
 20
535.0001383262099
 30
0.0
 40
9.000044299740242
  0
LINE
  5
268
330
1F
100
AcDbEntity
  8
Ｓ_１_１
  6
CONTINUOUS
 62
     3
100
AcDbLine
 10
1871.9993755236
 20
539.9999917513398
 30
0.0
 11
1887.9996695646
 21
539.9999917513398
 31
0.0
  0
LINE
  5
269
330
1F
100
AcDbEntity
  8
Ｓ_１_１
  6
CONTINUOUS
 62
     3
100
AcDbLine
 10
1871.9993755236
 20
480.0000412393098
 30
0.0
 11
1887.9996695646
 21
480.0000412393098
 31
0.0
  0
LINE
  5
26A
330
1F
100
AcDbEntity
  8
Ｓ_１_１
  6
CONTINUOUS
 62
     3
100
AcDbLine
 10
1887.9996695646
 20
539.9999917513398
 30
0.0
 11
1887.9996695646
 21
480.0000412393098
 31
0.0
  0
LINE
  5
26B
330
1F
100
AcDbEntity
  8
Ｓ_１_１
  6
CONTINUOUS
 62
     3
100
AcDbLine
 10
1871.999375523601
 20
539.9999946012201
 30
0.0
 11
1871.999375523601
 21
480.0000412393098
 31
0.0
  0
LINE
  5
26C
330
1F
100
AcDbEntity
  8
Ｓ_１_１
  6
CONTINUOUS
 62
     3
100
AcDbLine
 10
1829.999342119301
 20
550.00002474332
 30
0.0
 11
1829.999342119301
 21
470.0000082473299
 31
0.0
  0
LINE
  5
26D
330
1F
100
AcDbEntity
  8
Ｓ_１_１
  6
CONTINUOUS
 62
     3
100
AcDbLine
 10
1929.9993627392
 20
550.00002474332
 30
0.0
 11
1929.9993627392
 21
470.0000082473299
 31
0.0
  0
LINE
  5
26E
330
1F
100
AcDbEntity
  8
Ｓ_１_１
  6
CONTINUOUS
 62
     3
100
AcDbLine
 10
1829.999342119301
 20
470.0000082473299
 30
0.0
 11
1929.9993627392
 21
470.0000082473299
 31
0.0
  0
LINE
  5
26F
330
1F
100
AcDbEntity
  8
Ｓ_１_１
  6
CONTINUOUS
 62
     3
100
AcDbLine
 10
1829.999342119301
 20
550.00002474332
 30
0.0
 11
1929.9993627392
 21
550.00002474332
 31
0.0
  0
POLYLINE
  5
270
330
1F
100
AcDbEntity
  8
Ｓ_１_１
  6
CONTINUOUS
 62
     3
100
AcDb2dPolyline
 66
     1
 10
0.0
 20
0.0
 30
0.0
 70
   128
  0
VERTEX
  5
271
330
270
100
AcDbEntity
  8
Ｓ_１_１
  6
CONTINUOUS
 62
     3
100
AcDbVertex
100
AcDb2dVertex
 10
1844.999335059854
 20
540.7736410180948
 30
0.0
  0
VERTEX
  5
272
330
270
100
AcDbEntity
  8
Ｓ_１_１
  6
CONTINUOUS
 62
     3
100
AcDbVertex
100
AcDb2dVertex
 10
1839.999339734537
 20
537.8868815753808
 30
0.0
  0
VERTEX
  5
273
330
270
100
AcDbEntity
  8
Ｓ_１_１
  6
CONTINUOUS
 62
     3
100
AcDbVertex
100
AcDb2dVertex
 10
1839.999349083884
 20
532.1133788834961
 30
0.0
  0
VERTEX
  5
274
330
270
100
AcDbEntity
  8
Ｓ_１_１
  6
CONTINUOUS
 62
     3
100
AcDbVertex
100
AcDb2dVertex
 10
1844.999353758547
 20
529.2266356343255
 30
0.0
  0
VERTEX
  5
275
330
270
100
AcDbEntity
  8
Ｓ_１_１
  6
CONTINUOUS
 62
     3
100
AcDbVertex
100
AcDb2dVertex
 10
1849.999349083864
 20
532.1133950770393
 30
0.0
  0
VERTEX
  5
276
330
270
100
AcDbEntity
  8
Ｓ_１_１
  6
CONTINUOUS
 62
     3
100
AcDbVertex
100
AcDb2dVertex
 10
1849.999339734517
 20
537.886897768924
 30
0.0
  0
VERTEX
  5
277
330
270
100
AcDbEntity
  8
Ｓ_１_１
  6
CONTINUOUS
 62
     3
100
AcDbVertex
100
AcDb2dVertex
 10
1844.999335059854
 20
540.7736410180948
 30
0.0
  0
SEQEND
  5
278
330
270
100
AcDbEntity
  8
Ｓ_１_１
  6
CONTINUOUS
 62
     3
  0
LINE
  5
279
330
1F
100
AcDbEntity
  8
Ｓ_１_１
  6
EXLTYPE2
 62
     1
100
AcDbLine
 10
1834.778379099301
 20
535.0000989752666
 30
0.0
 11
1856.2183790993
 21
535.0000989752666
 31
0.0
  0
LINE
  5
27A
330
1F
100
AcDbEntity
  8
Ｓ_１_１
  6
EXLTYPE2
 62
     1
100
AcDbLine
 10
1844.999364544887
 20
522.5658230888778
 30
0.0
 11
1844.999326198352
 21
546.2458308617593
 31
0.0
  0
CIRCLE
  5
27B
330
1F
100
AcDbEntity
  8
Ｓ_１_１
  6
CONTINUOUS
 62
     3
100
AcDbCircle
 10
1844.999344409201
 20
485.0000885804899
 30
0.0
 40
6.99980166385919
  0
CIRCLE
  5
27C
330
1F
100
AcDbEntity
  8
Ｓ_１_１
  6
CONTINUOUS
 62
     3
100
AcDbCircle
 10
1844.999344409201
 20
485.0000885804899
 30
0.0
 40
9.000044299740242
  0
POLYLINE
  5
27D
330
1F
100
AcDbEntity
  8
Ｓ_１_１
  6
CONTINUOUS
 62
     3
100
AcDb2dPolyline
 66
     1
 10
0.0
 20
0.0
 30
0.0
 70
   128
  0
VERTEX
  5
27E
330
27D
100
AcDbEntity
  8
Ｓ_１_１
  6
CONTINUOUS
 62
     3
100
AcDbVertex
100
AcDb2dVertex
 10
1844.999335059854
 20
490.7735912723746
 30
0.0
  0
VERTEX
  5
27F
330
27D
100
AcDbEntity
  8
Ｓ_１_１
  6
CONTINUOUS
 62
     3
100
AcDbVertex
100
AcDb2dVertex
 10
1839.999339734537
 20
487.8868318296605
 30
0.0
  0
VERTEX
  5
280
330
27D
100
AcDbEntity
  8
Ｓ_１_１
  6
CONTINUOUS
 62
     3
100
AcDbVertex
100
AcDb2dVertex
 10
1839.999349083884
 20
482.1133291377761
 30
0.0
  0
VERTEX
  5
281
330
27D
100
AcDbEntity
  8
Ｓ_１_１
  6
CONTINUOUS
 62
     3
100
AcDbVertex
100
AcDb2dVertex
 10
1844.999353758547
 20
479.2265858886051
 30
0.0
  0
VERTEX
  5
282
330
27D
100
AcDbEntity
  8
Ｓ_１_１
  6
CONTINUOUS
 62
     3
100
AcDbVertex
100
AcDb2dVertex
 10
1849.999349083864
 20
482.1133453313192
 30
0.0
  0
VERTEX
  5
283
330
27D
100
AcDbEntity
  8
Ｓ_１_１
  6
CONTINUOUS
 62
     3
100
AcDbVertex
100
AcDb2dVertex
 10
1849.999339734517
 20
487.8868480232036
 30
0.0
  0
VERTEX
  5
284
330
27D
100
AcDbEntity
  8
Ｓ_１_１
  6
CONTINUOUS
 62
     3
100
AcDbVertex
100
AcDb2dVertex
 10
1844.999335059854
 20
490.7735912723746
 30
0.0
  0
SEQEND
  5
285
330
27D
100
AcDbEntity
  8
Ｓ_１_１
  6
CONTINUOUS
 62
     3
  0
LINE
  5
286
330
1F
100
AcDbEntity
  8
Ｓ_１_１
  6
EXLTYPE2
 62
     1
100
AcDbLine
 10
1834.778379099301
 20
485.0000492295463
 30
0.0
 11
1856.2183790993
 21
485.0000492295463
 31
0.0
  0
LINE
  5
287
330
1F
100
AcDbEntity
  8
Ｓ_１_１
  6
EXLTYPE2
 62
     1
100
AcDbLine
 10
1844.999364544887
 20
472.5657733431577
 30
0.0
 11
1844.999326198352
 21
496.245781116039
 31
0.0
  0
CIRCLE
  5
288
330
1F
100
AcDbEntity
  8
Ｓ_１_１
  6
CONTINUOUS
 62
     3
100
AcDbCircle
 10
1914.9995458569
 20
535.0001383262099
 30
0.0
 40
6.99980166385919
  0
CIRCLE
  5
289
330
1F
100
AcDbEntity
  8
Ｓ_１_１
  6
CONTINUOUS
 62
     3
100
AcDbCircle
 10
1914.9995458569
 20
535.0001383262099
 30
0.0
 40
9.000044299740242
  0
POLYLINE
  5
28A
330
1F
100
AcDbEntity
  8
Ｓ_１_１
  6
CONTINUOUS
 62
     3
100
AcDb2dPolyline
 66
     1
 10
0.0
 20
0.0
 30
0.0
 70
   128
  0
VERTEX
  5
28B
330
28A
100
AcDbEntity
  8
Ｓ_１_１
  6
CONTINUOUS
 62
     3
100
AcDbVertex
100
AcDb2dVertex
 10
1914.999536507554
 20
540.7736410180948
 30
0.0
  0
VERTEX
  5
28C
330
28A
100
AcDbEntity
  8
Ｓ_１_１
  6
CONTINUOUS
 62
     3
100
AcDbVertex
100
AcDb2dVertex
 10
1909.999541182237
 20
537.8868815753808
 30
0.0
  0
VERTEX
  5
28D
330
28A
100
AcDbEntity
  8
Ｓ_１_１
  6
CONTINUOUS
 62
     3
100
AcDbVertex
100
AcDb2dVertex
 10
1909.999550531584
 20
532.1133788834961
 30
0.0
  0
VERTEX
  5
28E
330
28A
100
AcDbEntity
  8
Ｓ_１_１
  6
CONTINUOUS
 62
     3
100
AcDbVertex
100
AcDb2dVertex
 10
1914.999555206246
 20
529.2266356343255
 30
0.0
  0
VERTEX
  5
28F
330
28A
100
AcDbEntity
  8
Ｓ_１_１
  6
CONTINUOUS
 62
     3
100
AcDbVertex
100
AcDb2dVertex
 10
1919.999550531564
 20
532.1133950770393
 30
0.0
  0
VERTEX
  5
290
330
28A
100
AcDbEntity
  8
Ｓ_１_１
  6
CONTINUOUS
 62
     3
100
AcDbVertex
100
AcDb2dVertex
 10
1919.999541182217
 20
537.886897768924
 30
0.0
  0
VERTEX
  5
291
330
28A
100
AcDbEntity
  8
Ｓ_１_１
  6
CONTINUOUS
 62
     3
100
AcDbVertex
100
AcDb2dVertex
 10
1914.999536507554
 20
540.7736410180948
 30
0.0
  0
SEQEND
  5
292
330
28A
100
AcDbEntity
  8
Ｓ_１_１
  6
CONTINUOUS
 62
     3
  0
LINE
  5
293
330
1F
100
AcDbEntity
  8
Ｓ_１_１
  6
EXLTYPE2
 62
     1
100
AcDbLine
 10
1904.778580547001
 20
535.0000989752666
 30
0.0
 11
1926.218580547
 21
535.0000989752666
 31
0.0
  0
LINE
  5
294
330
1F
100
AcDbEntity
  8
Ｓ_１_１
  6
EXLTYPE2
 62
     1
100
AcDbLine
 10
1914.999565992587
 20
522.5658230888778
 30
0.0
 11
1914.999527646052
 21
546.2458308617593
 31
0.0
  0
CIRCLE
  5
295
330
1F
100
AcDbEntity
  8
Ｓ_１_１
  6
CONTINUOUS
 62
     3
100
AcDbCircle
 10
1914.9995458569
 20
485.0000885804899
 30
0.0
 40
6.99980166385919
  0
CIRCLE
  5
296
330
1F
100
AcDbEntity
  8
Ｓ_１_１
  6
CONTINUOUS
 62
     3
100
AcDbCircle
 10
1914.9995458569
 20
485.0000885804899
 30
0.0
 40
9.000044299740242
  0
POLYLINE
  5
297
330
1F
100
AcDbEntity
  8
Ｓ_１_１
  6
CONTINUOUS
 62
     3
100
AcDb2dPolyline
 66
     1
 10
0.0
 20
0.0
 30
0.0
 70
   128
  0
VERTEX
  5
298
330
297
100
AcDbEntity
  8
Ｓ_１_１
  6
CONTINUOUS
 62
     3
100
AcDbVertex
100
AcDb2dVertex
 10
1914.999536507554
 20
490.7735912723746
 30
0.0
  0
VERTEX
  5
299
330
297
100
AcDbEntity
  8
Ｓ_１_１
  6
CONTINUOUS
 62
     3
100
AcDbVertex
100
AcDb2dVertex
 10
1909.999541182237
 20
487.8868318296605
 30
0.0
  0
VERTEX
  5
29A
330
297
100
AcDbEntity
  8
Ｓ_１_１
  6
CONTINUOUS
 62
     3
100
AcDbVertex
100
AcDb2dVertex
 10
1909.999550531584
 20
482.1133291377761
 30
0.0
  0
VERTEX
  5
29B
330
297
100
AcDbEntity
  8
Ｓ_１_１
  6
CONTINUOUS
 62
     3
100
AcDbVertex
100
AcDb2dVertex
 10
1914.999555206246
 20
479.2265858886051
 30
0.0
  0
VERTEX
  5
29C
330
297
100
AcDbEntity
  8
Ｓ_１_１
  6
CONTINUOUS
 62
     3
100
AcDbVertex
100
AcDb2dVertex
 10
1919.999550531564
 20
482.1133453313192
 30
0.0
  0
VERTEX
  5
29D
330
297
100
AcDbEntity
  8
Ｓ_１_１
  6
CONTINUOUS
 62
     3
100
AcDbVertex
100
AcDb2dVertex
 10
1919.999541182217
 20
487.8868480232036
 30
0.0
  0
VERTEX
  5
29E
330
297
100
AcDbEntity
  8
Ｓ_１_１
  6
CONTINUOUS
 62
     3
100
AcDbVertex
100
AcDb2dVertex
 10
1914.999536507554
 20
490.7735912723746
 30
0.0
  0
SEQEND
  5
29F
330
297
100
AcDbEntity
  8
Ｓ_１_１
  6
CONTINUOUS
 62
     3
  0
LINE
  5
2A0
330
1F
100
AcDbEntity
  8
Ｓ_１_１
  6
EXLTYPE2
 62
     1
100
AcDbLine
 10
1904.778580547001
 20
485.0000492295463
 30
0.0
 11
1926.218580547
 21
485.0000492295463
 31
0.0
  0
LINE
  5
2A1
330
1F
100
AcDbEntity
  8
Ｓ_１_１
  6
EXLTYPE2
 62
     1
100
AcDbLine
 10
1914.999565992587
 20
472.5657733431577
 30
0.0
 11
1914.999527646052
 21
496.245781116039
 31
0.0
  0
LINE
  5
2A2
330
1F
100
AcDbEntity
  8
Ｓ_１_１
  6
CONTINUOUS
 62
     3
100
AcDbLine
 10
2159.999502955151
 20
283.0002078487888
 30
0.0
 11
2159.999502955151
 21
567.0001303176443
 31
0.0
  0
LINE
  5
2A3
330
1F
100
AcDbEntity
  8
Ｓ_１_１
  6
CONTINUOUS
 62
     3
100
AcDbLine
 10
1599.999387483234
 20
282.9999604089663
 30
0.0
 11
1599.999387483235
 21
567.0001303176446
 31
0.0
  0
LINE
  5
2A4
330
1F
100
AcDbEntity
  8
Ｓ_１_１
  6
EXLTYPE2
 62
     1
100
AcDbLine
 10
1886.144180194646
 20
620.0000082473318
 30
0.0
 11
1864.97230107065
 21
620.0000082473318
 31
0.0
  0
LINE
  5
2A5
330
1F
100
AcDbEntity
  8
Ｓ_１_１
  6
EXLTYPE2
 62
     1
100
AcDbLine
 10
1873.854648383783
 20
620.0000082473318
 30
0.0
 11
1895.026465647824
 21
620.0000082473318
 31
0.0
  0
CIRCLE
  5
2A6
330
1F
100
AcDbEntity
  8
Ｓ_１_１
  6
CONTINUOUS
 62
     3
100
AcDbCircle
 10
1879.999380766501
 20
620.0000060583
 30
0.0
 40
13.00000000000001
  0
LINE
  5
2A7
330
1F
100
AcDbEntity
  8
Ｓ_１_１
  6
EXLTYPE2
 62
     1
100
AcDbLine
 10
1654.999507441067
 20
264.4058336664485
 30
0.0
 11
1654.999484072144
 21
330.0058302465976
 31
0.0
  0
LINE
  5
2A8
330
1F
100
AcDbEntity
  8
Ｓ_１_１
  6
EXLTYPE2
 62
     1
100
AcDbLine
 10
2104.999507441039
 20
264.4059939715759
 30
0.0
 11
2104.999484072116
 21
330.0059905517259
 31
0.0
  0
LINE
  5
2A9
330
1F
100
AcDbEntity
  8
Ｓ_１_１
  6
EXLTYPE2
 62
     1
100
AcDbLine
 10
1646.221141166032
 20
619.9998416879978
 30
0.0
 11
1594.130109704896
 21
619.9998045748453
 31
0.0
  0
LINE
  5
2AA
330
1F
100
AcDbEntity
  8
Ｓ_１_１
  6
EXLTYPE2
 62
     1
100
AcDbLine
 10
1508.427466758055
 20
405.0001104458748
 30
0.0
 11
1611.943915758029
 21
405.0001841979521
 31
0.0
  0
ARC
  5
2AB
330
1F
100
AcDbEntity
  8
Ｓ_１_１
  6
CONTINUOUS
 62
     3
100
AcDbCircle
 10
1583.938849758036
 20
405.0001642452604
 30
0.0
 40
21.93943800000001
100
AcDbArc
 50
166.8265708213653
 51
193.1735338213645
  0
ARC
  5
2AC
330
1F
100
AcDbEntity
  8
Ｓ_１_１
  6
CONTINUOUS
 62
     3
100
AcDbCircle
 10
1552.559973758043
 20
405.0001418888397
 30
0.0
 40
21.93943800000001
100
AcDbArc
 50
346.8265138213654
 51
13.17350382136482
  0
ARC
  5
2AD
330
1F
100
AcDbEntity
  8
Ｓ_１_１
  6
CONTINUOUS
 62
     3
100
AcDbCircle
 10
1588.900114428335
 20
416.6915127800017
 30
0.0
 40
6.900722000000004
100
AcDbArc
 50
145.6157938213659
 51
214.3842868213638
  0
ARC
  5
2AE
330
1F
100
AcDbEntity
  8
Ｓ_１_１
  6
CONTINUOUS
 62
     3
100
AcDbCircle
 10
1607.79364675803
 20
405.0001812410216
 30
0.0
 40
25.79423
100
AcDbArc
 50
162.4120898213653
 51
197.5879938213654
  0
ARC
  5
2AF
330
1F
100
AcDbEntity
  8
Ｓ_１_１
  6
CONTINUOUS
 62
     3
100
AcDbCircle
 10
1588.900131087713
 20
393.3088537800078
 30
0.0
 40
6.900722000000004
100
AcDbArc
 50
145.6157938213651
 51
214.3842868213638
  0
ARC
  5
2B0
330
1F
100
AcDbEntity
  8
Ｓ_１_１
  6
CONTINUOUS
 62
     3
100
AcDbCircle
 10
1585.098709087714
 20
393.308851071619
 30
0.0
 40
6.900722000000004
100
AcDbArc
 50
325.6157948213656
 51
34.38428782136431
  0
ARC
  5
2B1
330
1F
100
AcDbEntity
  8
Ｓ_１_１
  6
CONTINUOUS
 62
     3
100
AcDbCircle
 10
1566.205176758041
 20
405.0001516105996
 30
0.0
 40
25.79423
100
AcDbArc
 50
342.4120878213652
 51
17.58799182136497
  0
ARC
  5
2B2
330
1F
100
AcDbEntity
  8
Ｓ_１_１
  6
CONTINUOUS
 62
     3
100
AcDbCircle
 10
1585.098692428335
 20
416.6915100716129
 30
0.0
 40
6.900722000000004
100
AcDbArc
 50
325.6157948213656
 51
34.38428782136356
  0
LINE
  5
2B3
330
1F
100
AcDbEntity
  8
Ｓ_１_１
  6
CONTINUOUS
 62
     3
100
AcDbLine
 10
1593.127898319178
 20
415.4411497921588
 30
0.0
 11
1593.127913196867
 21
394.5592227921644
 31
0.0
  0
LINE
  5
2B4
330
1F
100
AcDbEntity
  8
Ｓ_１_１
  6
CONTINUOUS
 62
     3
100
AcDbLine
 10
1591.999434247121
 20
394.4886869881598
 30
0.0
 11
1593.127898782934
 21
395.140207792154
 31
0.0
  0
LINE
  5
2B5
330
1F
100
AcDbEntity
  8
Ｓ_１_１
  6
CONTINUOUS
 62
     3
100
AcDbLine
 10
1599.999403625167
 20
415.0116736878809
 30
0.0
 11
1591.999395268936
 21
415.5116689881373
 31
0.0
  0
LINE
  5
2B6
330
1F
100
AcDbEntity
  8
Ｓ_１_１
  6
CONTINUOUS
 62
     3
100
AcDbLine
 10
1599.999402039109
 20
414.4306776878796
 30
0.0
 11
1593.127883733127
 21
414.8601427921482
 31
0.0
  0
LINE
  5
2B7
330
1F
100
AcDbEntity
  8
Ｓ_１_１
  6
CONTINUOUS
 62
     3
100
AcDbLine
 10
1591.999407268916
 20
415.511695988146
 30
0.0
 11
1593.127885733108
 21
414.8601697921495
 31
0.0
  0
LINE
  5
2B8
330
1F
100
AcDbEntity
  8
Ｓ_１_１
  6
CONTINUOUS
 62
     3
100
AcDbLine
 10
1599.99939847694
 20
395.5696946878728
 30
0.0
 11
1593.127887782925
 21
395.1402197921465
 31
0.0
  0
LINE
  5
2B9
330
1F
100
AcDbEntity
  8
Ｓ_１_１
  6
CONTINUOUS
 62
     3
100
AcDbLine
 10
1599.999415890881
 20
394.9886996878848
 30
0.0
 11
1591.999401247117
 21
394.4886929881364
 31
0.0
  0
LINE
  5
2BA
330
1F
100
AcDbEntity
  8
Ｓ_１_１
  6
CONTINUOUS
 62
     3
100
AcDbLine
 10
1591.999387139726
 20
418.5001699881325
 30
0.0
 11
1591.999406376342
 21
391.5001699881394
 31
0.0
  0
LINE
  5
2BB
330
1F
100
AcDbEntity
  8
Ｓ_１_１
  6
CONTINUOUS
 62
     3
100
AcDbLine
 10
1580.637132146771
 20
397.4366778928926
 30
0.0
 11
1581.999402707132
 21
396.6501718634657
 31
0.0
  0
LINE
  5
2BC
330
1F
100
AcDbEntity
  8
Ｓ_１_１
  6
CONTINUOUS
 62
     3
100
AcDbLine
 10
1574.49940487346
 20
397.8202885199636
 30
0.0
 11
1580.637148146767
 21
397.4366838929042
 31
0.0
  0
LINE
  5
2BD
330
1F
100
AcDbEntity
  8
Ｓ_１_１
  6
CONTINUOUS
 62
     3
100
AcDbLine
 10
1574.499385642602
 20
412.1800475199532
 30
0.0
 11
1580.637128369292
 21
412.5636608928941
 31
0.0
  0
LINE
  5
2BE
330
1F
100
AcDbEntity
  8
Ｓ_１_１
  6
CONTINUOUS
 62
     3
100
AcDbLine
 10
1580.637146869594
 20
413.2650238929074
 30
0.0
 11
1580.637158646458
 21
396.7353308929117
 31
0.0
  0
LINE
  5
2BF
330
1F
100
AcDbEntity
  8
Ｓ_１_１
  6
CONTINUOUS
 62
     3
100
AcDbLine
 10
1581.999419808924
 20
413.3501778634823
 30
0.0
 11
1580.63713736929
 21
412.5636628929006
 31
0.0
  0
LINE
  5
2C0
330
1F
100
AcDbEntity
  8
Ｓ_１_１
  6
CONTINUOUS
 62
     3
100
AcDbLine
 10
1574.499417373169
 20
397.1189095199721
 30
0.0
 11
1581.999416707136
 21
396.6501648634757
 31
0.0
  0
LINE
  5
2C1
330
1F
100
AcDbEntity
  8
Ｓ_１_１
  6
CONTINUOUS
 62
     3
100
AcDbLine
 10
1583.205187864289
 20
389.4117237225465
 30
0.0
 11
1590.793657864287
 21
389.4117291290826
 31
0.0
  0
LINE
  5
2C2
330
1F
100
AcDbEntity
  8
Ｓ_１_１
  6
CONTINUOUS
 62
     3
100
AcDbLine
 10
1574.499396142893
 20
412.8814265199611
 30
0.0
 11
1581.999409808921
 21
413.350182863475
 31
0.0
  0
LINE
  5
2C3
330
1F
100
AcDbEntity
  8
Ｓ_１_１
  6
CONTINUOUS
 62
     3
100
AcDbLine
 10
1581.999439376345
 20
391.5001608634903
 30
0.0
 11
1583.205205864295
 21
389.4117157225593
 31
0.0
  0
LINE
  5
2C4
330
1F
100
AcDbEntity
  8
Ｓ_１_１
  6
CONTINUOUS
 62
     3
100
AcDbLine
 10
1583.205171204888
 20
412.7944147225404
 30
0.0
 11
1590.793641204886
 21
412.7944201290764
 31
0.0
  0
LINE
  5
2C5
330
1F
100
AcDbEntity
  8
Ｓ_１_１
  6
CONTINUOUS
 62
     3
100
AcDbLine
 10
1581.999387139729
 20
418.5001628634603
 30
0.0
 11
1581.999406376344
 21
391.5001628634671
 31
0.0
  0
LINE
  5
2C6
330
1F
100
AcDbEntity
  8
Ｓ_１_１
  6
CONTINUOUS
 62
     3
100
AcDbLine
 10
1583.205182311162
 20
397.2059437225442
 30
0.0
 11
1590.793652311161
 21
397.2059491290802
 31
0.0
  0
LINE
  5
2C7
330
1F
100
AcDbEntity
  8
Ｓ_１_１
  6
CONTINUOUS
 62
     3
100
AcDbLine
 10
1581.999393139715
 20
418.5001818634643
 30
0.0
 11
1583.205155651767
 21
420.5886277225312
 31
0.0
  0
LINE
  5
2C8
330
1F
100
AcDbEntity
  8
Ｓ_１_１
  6
CONTINUOUS
 62
     3
100
AcDbLine
 10
1574.499405307645
 20
393.0001575199625
 30
0.0
 11
1574.499388208432
 21
417.0001575199564
 31
0.0
  0
LINE
  5
2C9
330
1F
100
AcDbEntity
  8
Ｓ_１_１
  6
CONTINUOUS
 62
     3
100
AcDbLine
 10
1573.922061195702
 20
410.0001571086281
 30
0.0
 11
1573.922055495965
 21
418.000157108626
 31
0.0
  0
LINE
  5
2CA
330
1F
100
AcDbEntity
  8
Ｓ_１_１
  6
CONTINUOUS
 62
     3
100
AcDbLine
 10
1562.576755195705
 20
410.0001490254693
 30
0.0
 11
1562.576749495968
 21
418.0001490254672
 31
0.0
  0
LINE
  5
2CB
330
1F
100
AcDbEntity
  8
Ｓ_１_１
  6
CONTINUOUS
 62
     3
100
AcDbLine
 10
1573.922074020112
 20
392.0001571086328
 30
0.0
 11
1573.922068320374
 21
400.0001571086306
 31
0.0
  0
LINE
  5
2CC
330
1F
100
AcDbEntity
  8
Ｓ_１_１
  6
CONTINUOUS
 62
     3
100
AcDbLine
 10
1562.576768020115
 20
392.0001490254741
 30
0.0
 11
1562.576762320378
 21
400.0001490254718
 31
0.0
  0
LINE
  5
2CD
330
1F
100
AcDbEntity
  8
Ｓ_１_１
  6
CONTINUOUS
 62
     3
100
AcDbLine
 10
1546.422074020119
 20
392.0001375157841
 30
0.0
 11
1546.422055495972
 21
418.0001375157772
 31
0.0
  0
LINE
  5
2CE
330
1F
100
AcDbEntity
  8
Ｓ_１_１
  6
CONTINUOUS
 62
     3
100
AcDbLine
 10
1546.422073020106
 20
392.0001565157827
 30
0.0
 11
1546.999419307643
 21
393.0001509271236
 31
0.0
  0
LINE
  5
2CF
330
1F
100
AcDbEntity
  8
Ｓ_１_１
  6
CONTINUOUS
 62
     3
100
AcDbLine
 10
1561.99940620843
 20
417.000155614129
 30
0.0
 11
1562.576767495947
 21
418.0001770254801
 31
0.0
  0
LINE
  5
2D0
330
1F
100
AcDbEntity
  8
Ｓ_１_１
  6
CONTINUOUS
 62
     3
100
AcDbLine
 10
1573.9220750201
 20
392.0001751086335
 30
0.0
 11
1574.499421307637
 21
393.0001695199741
 31
0.0
  0
LINE
  5
2D1
330
1F
100
AcDbEntity
  8
Ｓ_１_１
  6
CONTINUOUS
 62
     3
100
AcDbLine
 10
1546.999418208428
 20
417.0001529271291
 30
0.0
 11
1546.422071495965
 21
418.0001465157885
 31
0.0
  0
LINE
  5
2D2
330
1F
100
AcDbEntity
  8
Ｓ_１_１
  6
CONTINUOUS
 62
     3
100
AcDbLine
 10
1562.576761020107
 20
392.0001600254687
 30
0.0
 11
1561.999413307645
 21
393.0001536141277
 31
0.0
  0
LINE
  5
2D3
330
1F
100
AcDbEntity
  8
Ｓ_１_１
  6
CONTINUOUS
 62
     3
100
AcDbLine
 10
1574.499397208429
 20
417.0001605199625
 30
0.0
 11
1573.922049495967
 21
418.0001541086218
 31
0.0
  0
LINE
  5
2D4
330
1F
100
AcDbEntity
  8
Ｓ_１_１
  6
CONTINUOUS
 62
     3
100
AcDbLine
 10
1562.576755195705
 20
410.0001490254693
 30
0.0
 11
1573.922061195702
 21
410.0001571086281
 31
0.0
  0
LINE
  5
2D5
330
1F
100
AcDbEntity
  8
Ｓ_１_１
  6
CONTINUOUS
 62
     3
100
AcDbLine
 10
1562.576762320378
 20
400.0001490254718
 30
0.0
 11
1573.922068320374
 21
400.0001571086306
 31
0.0
  0
LINE
  5
2D6
330
1F
100
AcDbEntity
  8
Ｓ_１_１
  6
CONTINUOUS
 62
     3
100
AcDbLine
 10
1538.817699511221
 20
406.7501450979199
 30
0.0
 11
1538.999425436468
 21
406.8550652273939
 31
0.0
  0
LINE
  5
2D7
330
1F
100
AcDbEntity
  8
Ｓ_１_１
  6
CONTINUOUS
 62
     3
100
AcDbLine
 10
1538.99942551123
 20
406.7501322273939
 30
0.0
 11
1538.999415358572
 21
421.0001322273903
 31
0.0
  0
LINE
  5
2D8
330
1F
100
AcDbEntity
  8
Ｓ_１_１
  6
CONTINUOUS
 62
     3
100
AcDbLine
 10
1539.49942551123
 20
406.7501325836275
 30
0.0
 11
1539.499415714805
 21
420.5001325836241
 31
0.0
  0
LINE
  5
2D9
330
1F
100
AcDbEntity
  8
Ｓ_１_１
  6
CONTINUOUS
 62
     3
100
AcDbLine
 10
1535.999428004866
 20
403.2501300899931
 30
0.0
 11
1535.999425511231
 21
406.7501300899922
 31
0.0
  0
LINE
  5
2DA
330
1F
100
AcDbEntity
  8
Ｓ_１_１
  6
CONTINUOUS
 62
     3
100
AcDbLine
 10
1535.999428004866
 20
403.2501300899931
 30
0.0
 11
1539.499428004865
 21
403.2501325836284
 31
0.0
  0
LINE
  5
2DB
330
1F
100
AcDbEntity
  8
Ｓ_１_１
  6
CONTINUOUS
 62
     3
100
AcDbLine
 10
1535.999425511231
 20
406.7501300899922
 30
0.0
 11
1539.49942551123
 21
406.7501325836275
 31
0.0
  0
LINE
  5
2DC
330
1F
100
AcDbEntity
  8
Ｓ_１_１
  6
CONTINUOUS
 62
     3
100
AcDbLine
 10
1541.999450801268
 20
389.5001633648091
 30
0.0
 11
1542.499440445041
 21
390.0001537210351
 31
0.0
  0
LINE
  5
2DD
330
1F
100
AcDbEntity
  8
Ｓ_１_１
  6
CONTINUOUS
 62
     3
100
AcDbLine
 10
1540.999438801276
 20
389.5001516523336
 30
0.0
 11
1540.499438445042
 21
390.0001522960993
 31
0.0
  0
LINE
  5
2DE
330
1F
100
AcDbEntity
  8
Ｓ_１_１
  6
CONTINUOUS
 62
     3
100
AcDbLine
 10
1542.499408071024
 20
420.0001537210197
 30
0.0
 11
1541.999417714799
 21
420.5001423647935
 31
0.0
  0
LINE
  5
2DF
330
1F
100
AcDbEntity
  8
Ｓ_１_１
  6
CONTINUOUS
 62
     3
100
AcDbLine
 10
1540.499417071033
 20
420.000141296092
 30
0.0
 11
1540.999427714791
 21
420.500152652333
 31
0.0
  0
LINE
  5
2E0
330
1F
100
AcDbEntity
  8
Ｓ_１_１
  6
CONTINUOUS
 62
     3
100
AcDbLine
 10
1542.499417495972
 20
418.0001347210264
 30
0.0
 11
1542.499416071038
 21
420.0001347210258
 31
0.0
  0
LINE
  5
2E1
330
1F
100
AcDbEntity
  8
Ｓ_１_１
  6
CONTINUOUS
 62
     3
100
AcDbLine
 10
1540.499417495973
 20
418.000133296092
 30
0.0
 11
1540.499416071038
 21
420.0001332960913
 31
0.0
  0
LINE
  5
2E2
330
1F
100
AcDbEntity
  8
Ｓ_１_１
  6
CONTINUOUS
 62
     3
100
AcDbLine
 10
1540.499437445055
 20
390.000133296099
 30
0.0
 11
1540.499436020121
 21
392.0001332960984
 31
0.0
  0
LINE
  5
2E3
330
1F
100
AcDbEntity
  8
Ｓ_１_１
  6
CONTINUOUS
 62
     3
100
AcDbLine
 10
1542.499437445055
 20
390.0001347210335
 30
0.0
 11
1542.49943602012
 21
392.0001347210329
 31
0.0
  0
LINE
  5
2E4
330
1F
100
AcDbEntity
  8
Ｓ_１_１
  6
CONTINUOUS
 62
     3
100
AcDbLine
 10
1540.999437801289
 20
389.5001336523327
 30
0.0
 11
1541.999437801288
 21
389.5001343647999
 31
0.0
  0
LINE
  5
2E5
330
1F
100
AcDbEntity
  8
Ｓ_１_１
  6
CONTINUOUS
 62
     3
100
AcDbLine
 10
1540.999415714805
 20
420.500133652325
 30
0.0
 11
1541.999415714804
 21
420.5001343647922
 31
0.0
  0
LINE
  5
2E6
330
1F
100
AcDbEntity
  8
Ｓ_１_１
  6
CONTINUOUS
 62
     3
100
AcDbLine
 10
1538.99940207961
 20
403.1452222273761
 30
0.0
 11
1538.817663004853
 21
403.2501490978931
 31
0.0
  0
LINE
  5
2E7
330
1F
100
AcDbEntity
  8
Ｓ_１_１
  6
CONTINUOUS
 62
     3
100
AcDbLine
 10
1515.499408157529
 20
389.0001154843973
 30
0.0
 11
1515.499385358578
 21
421.0001154843891
 31
0.0
  0
LINE
  5
2E8
330
1F
100
AcDbEntity
  8
Ｓ_１_１
  6
CONTINUOUS
 62
     3
100
AcDbLine
 10
1522.999408157527
 20
389.0001208279015
 30
0.0
 11
1522.999385358576
 21
421.0001208278933
 31
0.0
  0
LINE
  5
2E9
330
1F
100
AcDbEntity
  8
Ｓ_１_１
  6
CONTINUOUS
 62
     3
100
AcDbLine
 10
1538.999438157523
 20
389.0001322273984
 30
0.0
 11
1538.999428004865
 21
403.2501322273948
 31
0.0
  0
LINE
  5
2EA
330
1F
100
AcDbEntity
  8
Ｓ_１_１
  6
CONTINUOUS
 62
     3
100
AcDbLine
 10
1531.999415358574
 20
421.0001272401197
 30
0.0
 11
1531.999438157525
 21
389.0001272401278
 31
0.0
  0
LINE
  5
2EB
330
1F
100
AcDbEntity
  8
Ｓ_１_１
  6
CONTINUOUS
 62
     3
100
AcDbLine
 10
1539.499405714789
 20
420.5001555836171
 30
0.0
 11
1538.999404358556
 21
421.0001552273825
 31
0.0
  0
LINE
  5
2EC
330
1F
100
AcDbEntity
  8
Ｓ_１_１
  6
CONTINUOUS
 62
     3
100
AcDbLine
 10
1538.999411157509
 20
389.0001512273788
 30
0.0
 11
1539.499399801283
 21
389.5001415836046
 31
0.0
  0
LINE
  5
2ED
330
1F
100
AcDbEntity
  8
Ｓ_１_１
  6
CONTINUOUS
 62
     3
100
AcDbLine
 10
1531.999415358574
 20
421.0001272401197
 30
0.0
 11
1538.999415358572
 21
421.0001322273903
 31
0.0
  0
LINE
  5
2EE
330
1F
100
AcDbEntity
  8
Ｓ_１_１
  6
CONTINUOUS
 62
     3
100
AcDbLine
 10
1531.999438157525
 20
389.0001272401278
 30
0.0
 11
1538.999438157523
 21
389.0001322273984
 31
0.0
  0
LINE
  5
2EF
330
1F
100
AcDbEntity
  8
Ｓ_１_１
  6
CONTINUOUS
 62
     3
100
AcDbLine
 10
1522.999404157521
 20
389.0001288278985
 30
0.0
 11
1523.49941480128
 21
389.5001401841395
 31
0.0
  0
LINE
  5
2F0
330
1F
100
AcDbEntity
  8
Ｓ_１_１
  6
CONTINUOUS
 62
     3
100
AcDbLine
 10
1531.4993787148
 20
420.5001368838597
 30
0.0
 11
1531.999368358574
 21
421.0001272400863
 31
0.0
  0
LINE
  5
2F1
330
1F
100
AcDbEntity
  8
Ｓ_１_１
  6
CONTINUOUS
 62
     3
100
AcDbLine
 10
1523.499420714785
 20
420.500155184152
 30
0.0
 11
1522.999419358551
 21
421.000155827917
 31
0.0
  0
LINE
  5
2F2
330
1F
100
AcDbEntity
  8
Ｓ_１_１
  6
CONTINUOUS
 62
     3
100
AcDbLine
 10
1531.999440157502
 20
389.0001592401291
 30
0.0
 11
1531.499438801268
 21
389.5001598838945
 31
0.0
  0
LINE
  5
2F3
330
1F
100
AcDbEntity
  8
Ｓ_１_１
  6
CONTINUOUS
 62
     3
100
AcDbLine
 10
1523.499407801293
 20
389.5001211841348
 30
0.0
 11
1523.49938571481
 21
420.5001211841271
 31
0.0
  0
LINE
  5
2F4
330
1F
100
AcDbEntity
  8
Ｓ_１_１
  6
CONTINUOUS
 62
     3
100
AcDbLine
 10
1531.499437801291
 20
389.500126883894
 30
0.0
 11
1531.499415714807
 21
420.5001268838863
 31
0.0
  0
LINE
  5
2F5
330
1F
100
AcDbEntity
  8
Ｓ_１_１
  6
CONTINUOUS
 62
     3
100
AcDbLine
 10
1523.49938571481
 20
420.5001211841271
 30
0.0
 11
1531.499415714807
 21
420.5001268838863
 31
0.0
  0
LINE
  5
2F6
330
1F
100
AcDbEntity
  8
Ｓ_１_１
  6
CONTINUOUS
 62
     3
100
AcDbLine
 10
1523.499407801293
 20
389.5001211841348
 30
0.0
 11
1531.499437801291
 21
389.500126883894
 31
0.0
  0
LINE
  5
2F7
330
1F
100
AcDbEntity
  8
Ｓ_１_１
  6
CONTINUOUS
 62
     3
100
AcDbLine
 10
1512.499409495961
 20
418.0001403470034
 30
0.0
 11
1515.499410358556
 21
421.0001464844068
 31
0.0
  0
LINE
  5
2F8
330
1F
100
AcDbEntity
  8
Ｓ_１_１
  6
CONTINUOUS
 62
     3
100
AcDbLine
 10
1512.499417020121
 20
392.0001233470024
 30
0.0
 11
1515.499412157516
 21
389.0001334844001
 31
0.0
  0
LINE
  5
2F9
330
1F
100
AcDbEntity
  8
Ｓ_１_１
  6
CONTINUOUS
 62
     3
100
AcDbLine
 10
1546.999435307652
 20
393.0001379271351
 30
0.0
 11
1561.999435307648
 21
393.0001486141435
 31
0.0
  0
LINE
  5
2FA
330
1F
100
AcDbEntity
  8
Ｓ_１_１
  6
CONTINUOUS
 62
     3
100
AcDbLine
 10
1546.999418208438
 20
417.000137927129
 30
0.0
 11
1561.999418208435
 21
417.0001486141374
 31
0.0
  0
LINE
  5
2FB
330
1F
100
AcDbEntity
  8
Ｓ_１_１
  6
CONTINUOUS
 62
     3
100
AcDbLine
 10
1512.499406020128
 20
392.0001133469947
 30
0.0
 11
1512.49938749598
 21
418.0001133469883
 31
0.0
  0
LINE
  5
2FC
330
1F
100
AcDbEntity
  8
Ｓ_１_１
  6
CONTINUOUS
 62
     3
100
AcDbLine
 10
1515.499385358578
 20
421.0001154843891
 30
0.0
 11
1522.999385358576
 21
421.0001208278933
 31
0.0
  0
LINE
  5
2FD
330
1F
100
AcDbEntity
  8
Ｓ_１_１
  6
CONTINUOUS
 62
     3
100
AcDbLine
 10
1515.499408157529
 20
389.0001154843973
 30
0.0
 11
1522.999408157527
 21
389.0001208279015
 31
0.0
  0
LINE
  5
2FE
330
1F
100
AcDbEntity
  8
Ｓ_１_１
  6
CONTINUOUS
 62
     3
100
AcDbLine
 10
1562.576749495968
 20
418.0001490254672
 30
0.0
 11
1573.922055495965
 21
418.000157108626
 31
0.0
  0
LINE
  5
2FF
330
1F
100
AcDbEntity
  8
Ｓ_１_１
  6
CONTINUOUS
 62
     3
100
AcDbLine
 10
1562.576768020115
 20
392.0001490254741
 30
0.0
 11
1573.922074020112
 21
392.0001571086328
 31
0.0
  0
LINE
  5
300
330
1F
100
AcDbEntity
  8
Ｓ_１_１
  6
CONTINUOUS
 62
     3
100
AcDbLine
 10
1511.999388208448
 20
417.0001129907547
 30
0.0
 11
1512.499388208448
 21
417.0001133469883
 31
0.0
  0
LINE
  5
301
330
1F
100
AcDbEntity
  8
Ｓ_１_１
  6
CONTINUOUS
 62
     3
100
AcDbLine
 10
1511.999405307661
 20
393.0001129907608
 30
0.0
 11
1512.499405307661
 21
393.0001133469945
 31
0.0
  0
LINE
  5
302
330
1F
100
AcDbEntity
  8
Ｓ_１_１
  6
CONTINUOUS
 62
     3
100
AcDbLine
 10
1539.499436020121
 20
392.0001325836312
 30
0.0
 11
1546.422074020119
 21
392.0001375157841
 31
0.0
  0
LINE
  5
303
330
1F
100
AcDbEntity
  8
Ｓ_１_１
  6
CONTINUOUS
 62
     3
100
AcDbLine
 10
1539.499417495973
 20
418.0001325836247
 30
0.0
 11
1546.422055495972
 21
418.0001375157772
 31
0.0
  0
LINE
  5
304
330
1F
100
AcDbEntity
  8
Ｓ_１_１
  6
CONTINUOUS
 62
     3
100
AcDbLine
 10
1539.499437801289
 20
389.5001325836319
 30
0.0
 11
1539.499428004865
 21
403.2501325836284
 31
0.0
  0
LINE
  5
305
330
1F
100
AcDbEntity
  8
Ｓ_１_１
  6
CONTINUOUS
 62
     3
100
AcDbLine
 10
1546.99943530763
 20
393.0001689271352
 30
0.0
 11
1546.999418208438
 21
417.000137927129
 31
0.0
  0
LINE
  5
306
330
1F
100
AcDbEntity
  8
Ｓ_１_１
  6
CONTINUOUS
 62
     3
100
AcDbLine
 10
1561.999435307648
 20
393.0001486141435
 30
0.0
 11
1561.999418208435
 21
417.0001486141374
 31
0.0
  0
LINE
  5
307
330
1F
100
AcDbEntity
  8
Ｓ_１_１
  6
CONTINUOUS
 62
     3
100
AcDbLine
 10
1511.999405307661
 20
393.0001129907608
 30
0.0
 11
1511.999388208448
 21
417.0001129907547
 31
0.0
  0
LINE
  5
308
330
1F
100
AcDbEntity
  8
Ｓ_１_１
  6
CONTINUOUS
 62
     3
100
AcDbLine
 10
1583.205165651761
 20
420.5886347225381
 30
0.0
 11
1590.79363565176
 21
420.5886401290742
 31
0.0
  0
LINE
  5
309
330
1F
100
AcDbEntity
  8
Ｓ_１_１
  6
CONTINUOUS
 62
     3
100
AcDbLine
 10
1591.999420376336
 20
391.5001779881494
 30
0.0
 11
1590.793657864285
 21
389.4117311290823
 31
0.0
  0
LINE
  5
30A
330
1F
100
AcDbEntity
  8
Ｓ_１_１
  6
CONTINUOUS
 62
     3
100
AcDbLine
 10
1591.999405139718
 20
418.5001819881455
 30
0.0
 11
1590.79363065176
 21
420.5886401290705
 31
0.0
  0
LINE
  5
30B
330
1F
100
AcDbEntity
  8
Ｓ_１_１
  6
EXLTYPE2
 62
     1
100
AcDbLine
 10
1904.61838643781
 20
509.999767332257
 30
0.0
 11
1857.338388168728
 21
509.9998951782314
 31
0.0
  0
DIMENSION
  5
30C
330
1F
100
AcDbEntity
  8
Ｓ_１_１
  6
CONTINUOUS
 62
     2
100
AcDbDimension
  2
*D29
 10
1440.0
 20
509.99989517823
 30
0.0
 11
1423.5
 21
394.999947588785
 31
0.0
 70
   160
  3
ISO-25
100
AcDbAlignedDimension
 13
1602.9994097528
 23
279.99999999934
 33
0.0
 14
1857.3383881687
 24
509.99989517823
 34
0.0
 50
90.0
100
AcDbRotatedDimension
1001
ACAD
1000
DSTYLE
1002
{
1070
   270
1070
     2
1070
     6
1000
EX_NORM
1070
     7
1000
EX_NORM
1070
    41
1040
18.0
1070
    42
1040
9.0
1070
    44
1040
6.0
1070
    73
1070
     0
1070
    74
1070
     0
1070
    75
1070
     0
1070
    76
1070
     0
1070
    77
1070
     1
1070
    78
1070
     8
1070
   140
1040
20.77742494226328
1070
   147
1040
0.0
1070
   173
1070
     1
1070
   176
1070
     2
1070
   177
1070
     2
1070
   178
1070
     2
1070
   271
1070
     2
1070
   277
1070
     2
1070
   279
1070
     2
1070
   280
1070
     0
1070
   287
1070
     5
1070
   340
1005
190
1002
}
  0
LINE
  5
319
330
1F
100
AcDbEntity
  8
Ｓ_１_１
  6
CONTINUOUS
 62
     3
100
AcDbLine
 10
449.0000544367622
 20
1471.999651934635
 30
0.0
 11
509.0000668087532
 21
1471.999961234414
 31
0.0
  0
LINE
  5
31A
330
1F
100
AcDbEntity
  8
Ｓ_１_１
  6
CONTINUOUS
 62
     3
100
AcDbLine
 10
800.0000000000011
 20
1469.60752744931
 30
0.0
 11
809.0001286687087
 21
1474.803887444559
 31
0.0
  0
LINE
  5
31B
330
1F
100
AcDbEntity
  8
Ｓ_１_１
  6
CONTINUOUS
 62
     3
100
AcDbLine
 10
1103.000084129541
 20
1452.000018970372
 30
0.0
 11
1101.99993236645
 21
1453.999827616909
 31
0.0
  0
LINE
  5
31C
330
1F
100
AcDbEntity
  8
Ｓ_１_１
  6
CONTINUOUS
 62
     3
100
AcDbLine
 10
1151.000069283151
 20
1471.999961234414
 30
0.0
 11
1091.000118771116
 21
1472.000084954325
 31
0.0
  0
LINE
  5
31D
330
1F
100
AcDbEntity
  8
Ｓ_１_１
  6
CONTINUOUS
 62
     3
100
AcDbLine
 10
1101.99993236645
 20
1435.999941439228
 30
0.0
 11
1091.000118771116
 21
1435.999941439228
 31
0.0
  0
LINE
  5
31E
330
1F
100
AcDbEntity
  8
Ｓ_１_１
  6
CONTINUOUS
 62
     3
100
AcDbLine
 10
1101.99993236645
 20
1453.999827616909
 30
0.0
 11
1091.000118771116
 21
1453.999827616909
 31
0.0
  0
LINE
  5
31F
330
1F
100
AcDbEntity
  8
Ｓ_１_１
  6
CONTINUOUS
 62
     3
100
AcDbLine
 10
1103.000084129541
 20
1437.999935665632
 30
0.0
 11
1101.99993236645
 21
1435.999941439228
 31
0.0
  0
LINE
  5
320
330
1F
100
AcDbEntity
  8
Ｓ_１_１
  6
CONTINUOUS
 62
     3
100
AcDbLine
 10
498.0000676335526
 20
1435.999879579272
 30
0.0
 11
508.9998193689304
 21
1436.000065159139
 31
0.0
  0
LINE
  5
321
330
1F
100
AcDbEntity
  8
Ｓ_１_１
  6
CONTINUOUS
 62
     3
100
AcDbLine
 10
509.0000668087532
 20
1429.999958760015
 30
0.0
 11
525.0001443398976
 21
1429.999896900059
 31
0.0
  0
LINE
  5
322
330
1F
100
AcDbEntity
  8
Ｓ_１_１
  6
CONTINUOUS
 62
     3
100
AcDbLine
 10
497.0001014503282
 20
1451.999709670594
 30
0.0
 11
497.0001014503282
 21
1437.999873805676
 31
0.0
  0
LINE
  5
323
330
1F
100
AcDbEntity
  8
Ｓ_１_１
  6
CONTINUOUS
 62
     3
100
AcDbLine
 10
498.0000676335526
 20
1453.999889476865
 30
0.0
 11
509.0000668087532
 21
1454.000075056732
 31
0.0
  0
LINE
  5
324
330
1F
100
AcDbEntity
  8
Ｓ_１_１
  6
CONTINUOUS
 62
     3
100
AcDbLine
 10
497.0001014503282
 20
1437.999873805676
 30
0.0
 11
498.0000676335526
 21
1435.999879579272
 31
0.0
  0
LINE
  5
325
330
1F
100
AcDbEntity
  8
Ｓ_１_１
  6
CONTINUOUS
 62
     3
100
AcDbLine
 10
1091.000118771116
 20
1429.999773180148
 30
0.0
 11
1075.000041239971
 21
1429.999958760015
 31
0.0
  0
LINE
  5
326
330
1F
100
AcDbEntity
  8
Ｓ_１_１
  6
CONTINUOUS
 62
     3
100
AcDbLine
 10
497.0001014503282
 20
1451.999709670594
 30
0.0
 11
498.0000676335526
 21
1453.999889476865
 31
0.0
  0
LINE
  5
327
330
1F
100
AcDbEntity
  8
Ｓ_１_１
  6
CONTINUOUS
 62
     3
100
AcDbLine
 10
1103.000084129541
 20
1452.000018970372
 30
0.0
 11
1103.000084129541
 21
1437.999935665632
 31
0.0
  0
LINE
  5
328
330
1F
100
AcDbEntity
  8
Ｓ_１_１
  6
CONTINUOUS
 62
     3
100
AcDbLine
 10
1101.99993236645
 20
1435.999941439228
 30
0.0
 11
1101.99993236645
 21
1453.999827616909
 31
0.0
  0
LINE
  5
329
330
1F
100
AcDbEntity
  8
Ｓ_１_１
  6
CONTINUOUS
 62
     3
100
AcDbLine
 10
791.0000569111603
 20
1474.803887444559
 30
0.0
 11
800.0000000000011
 21
1469.60752744931
 31
0.0
  0
LINE
  5
32A
330
1F
100
AcDbEntity
  8
Ｓ_１_１
  6
CONTINUOUS
 62
     3
100
AcDbLine
 10
498.0000676335526
 20
1435.999879579272
 30
0.0
 11
498.0000676335526
 21
1453.999889476865
 31
0.0
  0
CIRCLE
  5
32B
330
1F
100
AcDbEntity
  8
Ｓ_１_１
  6
CONTINUOUS
 62
     3
100
AcDbCircle
 10
800.0000000000011
 20
1254.999999999986
 30
0.0
 40
10.00000012887491
  0
CIRCLE
  5
32C
330
1F
100
AcDbEntity
  8
Ｓ_１_１
  6
CONTINUOUS
 62
     3
100
AcDbCircle
 10
800.0000000000011
 20
1254.999999999986
 30
0.0
 40
8.500000592824582
  0
ARC
  5
32D
330
1F
100
AcDbEntity
  8
Ｓ_１_１
  6
CONTINUOUS
 62
     3
100
AcDbCircle
 10
800.0000000000011
 20
1479.999999999986
 30
0.0
 40
279.999995876003
100
AcDbArc
 50
190.8440704345703
 51
349.1559448242187
  0
LINE
  5
32E
330
1F
100
AcDbEntity
  8
Ｓ_１_１
  6
EXLTYPE2
 62
     1
100
AcDbLine
 10
1158.719201990077
 20
1479.999999999986
 30
0.0
 11
444.6768786456145
 21
1479.999999999986
 31
0.0
  0
LINE
  5
32F
330
1F
100
AcDbEntity
  8
Ｓ_１_１
  6
EXLTYPE2
 62
     1
100
AcDbLine
 10
495.3480076145492
 20
1445.00000824798
 30
0.0
 11
552.648265941724
 21
1444.999698948202
 31
0.0
  0
LINE
  5
330
330
1F
100
AcDbEntity
  8
Ｓ_１_１
  6
EXLTYPE2
 62
     1
100
AcDbLine
 10
1104.651992385453
 20
1445.00000824798
 30
0.0
 11
1047.351486618456
 21
1445.000193827847
 31
0.0
  0
LINE
  5
331
330
1F
100
AcDbEntity
  8
Ｓ_１_１
  6
EXLTYPE2
 62
     1
100
AcDbLine
 10
800.0000000000149
 20
1108.428083398805
 30
0.0
 11
799.999926247938
 21
1211.944532398778
 31
0.0
  0
ARC
  5
332
330
1F
100
AcDbEntity
  8
Ｓ_１_１
  6
CONTINUOUS
 62
     3
100
AcDbCircle
 10
799.9999462006294
 20
1183.939466398786
 30
0.0
 40
21.93943800000001
100
AcDbArc
 50
256.8265708213654
 51
283.1735338213646
  0
ARC
  5
333
330
1F
100
AcDbEntity
  8
Ｓ_１_１
  6
CONTINUOUS
 62
     3
100
AcDbCircle
 10
799.99996855705
 20
1152.560590398793
 30
0.0
 40
21.93943800000001
100
AcDbArc
 50
76.8265138213654
 51
103.1735038213648
  0
ARC
  5
334
330
1F
100
AcDbEntity
  8
Ｓ_１_１
  6
CONTINUOUS
 62
     3
100
AcDbCircle
 10
788.3085976658883
 20
1188.900731069084
 30
0.0
 40
6.900722000000004
100
AcDbArc
 50
235.615793821366
 51
304.3842868213638
  0
ARC
  5
335
330
1F
100
AcDbEntity
  8
Ｓ_１_１
  6
CONTINUOUS
 62
     3
100
AcDbCircle
 10
799.9999292048685
 20
1207.79426339878
 30
0.0
 40
25.79423
100
AcDbArc
 50
252.4120898213654
 51
287.5879938213656
  0
ARC
  5
336
330
1F
100
AcDbEntity
  8
Ｓ_１_１
  6
CONTINUOUS
 62
     3
100
AcDbCircle
 10
811.6912566658822
 20
1188.900747728463
 30
0.0
 40
6.900722000000004
100
AcDbArc
 50
235.6157938213651
 51
304.3842868213638
  0
ARC
  5
337
330
1F
100
AcDbEntity
  8
Ｓ_１_１
  6
CONTINUOUS
 62
     3
100
AcDbCircle
 10
811.6912593742709
 20
1185.099325728464
 30
0.0
 40
6.900722000000004
100
AcDbArc
 50
55.6157948213657
 51
124.3842878213643
  0
ARC
  5
338
330
1F
100
AcDbEntity
  8
Ｓ_１_１
  6
CONTINUOUS
 62
     3
100
AcDbCircle
 10
799.9999588352903
 20
1166.20579339879
 30
0.0
 40
25.79423
100
AcDbArc
 50
72.41208782136523
 51
107.587991821365
  0
ARC
  5
339
330
1F
100
AcDbEntity
  8
Ｓ_１_１
  6
CONTINUOUS
 62
     3
100
AcDbCircle
 10
788.3086003742768
 20
1185.099309069085
 30
0.0
 40
6.900722000000004
100
AcDbArc
 50
55.6157948213657
 51
124.3842878213636
  0
LINE
  5
33A
330
1F
100
AcDbEntity
  8
Ｓ_１_１
  6
CONTINUOUS
 62
     3
100
AcDbLine
 10
789.5589606537309
 20
1193.128514959928
 30
0.0
 11
810.4408876537254
 21
1193.128529837616
 31
0.0
  0
LINE
  5
33B
330
1F
100
AcDbEntity
  8
Ｓ_１_１
  6
CONTINUOUS
 62
     3
100
AcDbLine
 10
810.5114234577298
 20
1192.000050887871
 30
0.0
 11
809.859902653736
 21
1193.128515423684
 31
0.0
  0
LINE
  5
33C
330
1F
100
AcDbEntity
  8
Ｓ_１_１
  6
CONTINUOUS
 62
     3
100
AcDbLine
 10
789.9884367580089
 20
1200.000020265917
 30
0.0
 11
789.4884414577527
 21
1192.000011909685
 31
0.0
  0
LINE
  5
33D
330
1F
100
AcDbEntity
  8
Ｓ_１_１
  6
CONTINUOUS
 62
     3
100
AcDbLine
 10
790.5694327580104
 20
1200.000018679858
 30
0.0
 11
790.1399676537417
 21
1193.128500373877
 31
0.0
  0
LINE
  5
33E
330
1F
100
AcDbEntity
  8
Ｓ_１_１
  6
CONTINUOUS
 62
     3
100
AcDbLine
 10
789.4884144577439
 20
1192.000023909666
 30
0.0
 11
790.1399406537402
 21
1193.128502373857
 31
0.0
  0
LINE
  5
33F
330
1F
100
AcDbEntity
  8
Ｓ_１_１
  6
CONTINUOUS
 62
     3
100
AcDbLine
 10
809.4304157580173
 20
1200.00001511769
 30
0.0
 11
809.8598906537435
 21
1193.128504423675
 31
0.0
  0
LINE
  5
340
330
1F
100
AcDbEntity
  8
Ｓ_１_１
  6
CONTINUOUS
 62
     3
100
AcDbLine
 10
810.0114107580051
 20
1200.00003253163
 30
0.0
 11
810.5114174577534
 21
1192.000017887867
 31
0.0
  0
LINE
  5
341
330
1F
100
AcDbEntity
  8
Ｓ_１_１
  6
CONTINUOUS
 62
     3
100
AcDbLine
 10
786.4999404577575
 20
1192.000003780476
 30
0.0
 11
813.4999404577507
 21
1192.000023017091
 31
0.0
  0
LINE
  5
342
330
1F
100
AcDbEntity
  8
Ｓ_１_１
  6
CONTINUOUS
 62
     3
100
AcDbLine
 10
807.5634325529973
 20
1180.637748787521
 30
0.0
 11
808.3499385824241
 21
1182.000019347881
 31
0.0
  0
LINE
  5
343
330
1F
100
AcDbEntity
  8
Ｓ_１_１
  6
CONTINUOUS
 62
     3
100
AcDbLine
 10
807.1798219259264
 20
1174.500021514209
 30
0.0
 11
807.5634265529857
 21
1180.637764787517
 31
0.0
  0
LINE
  5
344
330
1F
100
AcDbEntity
  8
Ｓ_１_１
  6
CONTINUOUS
 62
     3
100
AcDbLine
 10
792.8200629259364
 20
1174.500002283352
 30
0.0
 11
792.4364495529959
 21
1180.637745010042
 31
0.0
  0
LINE
  5
345
330
1F
100
AcDbEntity
  8
Ｓ_１_１
  6
CONTINUOUS
 62
     3
100
AcDbLine
 10
791.7350865529825
 20
1180.637763510344
 30
0.0
 11
808.2647795529781
 21
1180.637775287208
 31
0.0
  0
LINE
  5
346
330
1F
100
AcDbEntity
  8
Ｓ_１_１
  6
CONTINUOUS
 62
     3
100
AcDbLine
 10
791.6499325824077
 20
1182.000036449674
 30
0.0
 11
792.4364475529894
 21
1180.63775401004
 31
0.0
  0
LINE
  5
347
330
1F
100
AcDbEntity
  8
Ｓ_１_１
  6
CONTINUOUS
 62
     3
100
AcDbLine
 10
807.8812009259177
 20
1174.500034013919
 30
0.0
 11
808.3499455824142
 21
1182.000033347886
 31
0.0
  0
LINE
  5
348
330
1F
100
AcDbEntity
  8
Ｓ_１_１
  6
CONTINUOUS
 62
     3
100
AcDbLine
 10
815.5883867233435
 20
1183.205804505038
 30
0.0
 11
815.5883813168074
 21
1190.794274505037
 31
0.0
  0
LINE
  5
349
330
1F
100
AcDbEntity
  8
Ｓ_１_１
  6
CONTINUOUS
 62
     3
100
AcDbLine
 10
792.1186839259286
 20
1174.500012783642
 30
0.0
 11
791.6499275824149
 21
1182.000026449671
 31
0.0
  0
LINE
  5
34A
330
1F
100
AcDbEntity
  8
Ｓ_１_１
  6
CONTINUOUS
 62
     3
100
AcDbLine
 10
813.4999495823994
 20
1182.000056017095
 30
0.0
 11
815.5883947233306
 21
1183.205822505045
 31
0.0
  0
LINE
  5
34B
330
1F
100
AcDbEntity
  8
Ｓ_１_１
  6
CONTINUOUS
 62
     3
100
AcDbLine
 10
792.2056957233495
 20
1183.205787845638
 30
0.0
 11
792.2056903168133
 21
1190.794257845635
 31
0.0
  0
LINE
  5
34C
330
1F
100
AcDbEntity
  8
Ｓ_１_１
  6
CONTINUOUS
 62
     3
100
AcDbLine
 10
786.4999475824294
 20
1182.000003780479
 30
0.0
 11
813.4999475824226
 21
1182.000023017094
 31
0.0
  0
LINE
  5
34D
330
1F
100
AcDbEntity
  8
Ｓ_１_１
  6
CONTINUOUS
 62
     3
100
AcDbLine
 10
807.7941667233456
 20
1183.205798951912
 30
0.0
 11
807.7941613168094
 21
1190.79426895191
 31
0.0
  0
LINE
  5
34E
330
1F
100
AcDbEntity
  8
Ｓ_１_１
  6
CONTINUOUS
 62
     3
100
AcDbLine
 10
786.4999285824256
 20
1182.000009780465
 30
0.0
 11
784.4114827233586
 21
1183.205772292516
 31
0.0
  0
LINE
  5
34F
330
1F
100
AcDbEntity
  8
Ｓ_１_１
  6
CONTINUOUS
 62
     3
100
AcDbLine
 10
811.9999529259273
 20
1174.500021948395
 30
0.0
 11
787.9999529259335
 21
1174.500004849182
 31
0.0
  0
LINE
  5
350
330
1F
100
AcDbEntity
  8
Ｓ_１_１
  6
CONTINUOUS
 62
     3
100
AcDbLine
 10
794.9999533372618
 20
1173.922677836452
 30
0.0
 11
786.9999533372637
 21
1173.922672136714
 31
0.0
  0
LINE
  5
351
330
1F
100
AcDbEntity
  8
Ｓ_１_１
  6
CONTINUOUS
 62
     3
100
AcDbLine
 10
794.9999614204205
 20
1162.577371836455
 30
0.0
 11
786.9999614204224
 21
1162.577366136718
 31
0.0
  0
LINE
  5
352
330
1F
100
AcDbEntity
  8
Ｓ_１_１
  6
CONTINUOUS
 62
     3
100
AcDbLine
 10
812.9999533372571
 20
1173.922690660862
 30
0.0
 11
804.9999533372593
 21
1173.922684961124
 31
0.0
  0
LINE
  5
353
330
1F
100
AcDbEntity
  8
Ｓ_１_１
  6
CONTINUOUS
 62
     3
100
AcDbLine
 10
812.9999614204158
 20
1162.577384660865
 30
0.0
 11
804.999961420418
 21
1162.577378961128
 31
0.0
  0
LINE
  5
354
330
1F
100
AcDbEntity
  8
Ｓ_１_１
  6
CONTINUOUS
 62
     3
100
AcDbLine
 10
812.9999729301059
 20
1146.422690660869
 30
0.0
 11
786.9999729301124
 21
1146.422672136721
 31
0.0
  0
LINE
  5
355
330
1F
100
AcDbEntity
  8
Ｓ_１_１
  6
CONTINUOUS
 62
     3
100
AcDbLine
 10
812.9999539301069
 20
1146.422689660856
 30
0.0
 11
811.9999595187662
 21
1147.000035948392
 31
0.0
  0
LINE
  5
356
330
1F
100
AcDbEntity
  8
Ｓ_１_１
  6
CONTINUOUS
 62
     3
100
AcDbLine
 10
787.9999548317606
 20
1162.000022849179
 30
0.0
 11
786.9999334204095
 21
1162.577384136697
 31
0.0
  0
LINE
  5
357
330
1F
100
AcDbEntity
  8
Ｓ_１_１
  6
CONTINUOUS
 62
     3
100
AcDbLine
 10
812.9999353372564
 20
1173.92269166085
 30
0.0
 11
811.9999409259159
 21
1174.500037948386
 31
0.0
  0
LINE
  5
358
330
1F
100
AcDbEntity
  8
Ｓ_１_１
  6
CONTINUOUS
 62
     3
100
AcDbLine
 10
787.9999575187608
 20
1147.000034849178
 30
0.0
 11
786.9999639301012
 21
1146.422688136715
 31
0.0
  0
LINE
  5
359
330
1F
100
AcDbEntity
  8
Ｓ_１_１
  6
CONTINUOUS
 62
     3
100
AcDbLine
 10
812.9999504204213
 20
1162.577377660857
 30
0.0
 11
811.999956831762
 21
1162.000029948395
 31
0.0
  0
LINE
  5
35A
330
1F
100
AcDbEntity
  8
Ｓ_１_１
  6
CONTINUOUS
 62
     3
100
AcDbLine
 10
787.9999499259271
 20
1174.500013849179
 30
0.0
 11
786.999956337268
 21
1173.922666136717
 31
0.0
  0
LINE
  5
35B
330
1F
100
AcDbEntity
  8
Ｓ_１_１
  6
CONTINUOUS
 62
     3
100
AcDbLine
 10
794.9999614204205
 20
1162.577371836455
 30
0.0
 11
794.9999533372618
 21
1173.922677836452
 31
0.0
  0
LINE
  5
35C
330
1F
100
AcDbEntity
  8
Ｓ_１_１
  6
CONTINUOUS
 62
     3
100
AcDbLine
 10
804.999961420418
 20
1162.577378961128
 30
0.0
 11
804.9999533372593
 21
1173.922684961124
 31
0.0
  0
LINE
  5
35D
330
1F
100
AcDbEntity
  8
Ｓ_１_１
  6
CONTINUOUS
 62
     3
100
AcDbLine
 10
798.2499653479699
 20
1138.818316151971
 30
0.0
 11
798.1450452184957
 21
1139.000042077218
 31
0.0
  0
LINE
  5
35E
330
1F
100
AcDbEntity
  8
Ｓ_１_１
  6
CONTINUOUS
 62
     3
100
AcDbLine
 10
798.2499782184958
 20
1139.000042151979
 30
0.0
 11
783.9999782184996
 21
1139.000031999321
 31
0.0
  0
LINE
  5
35F
330
1F
100
AcDbEntity
  8
Ｓ_１_１
  6
CONTINUOUS
 62
     3
100
AcDbLine
 10
798.2499778622622
 20
1139.500042151979
 30
0.0
 11
784.4999778622657
 21
1139.500032355555
 31
0.0
  0
LINE
  5
360
330
1F
100
AcDbEntity
  8
Ｓ_１_１
  6
CONTINUOUS
 62
     3
100
AcDbLine
 10
801.7499803558967
 20
1136.000044645616
 30
0.0
 11
798.2499803558975
 21
1136.00004215198
 31
0.0
  0
LINE
  5
361
330
1F
100
AcDbEntity
  8
Ｓ_１_１
  6
CONTINUOUS
 62
     3
100
AcDbLine
 10
801.7499803558967
 20
1136.000044645616
 30
0.0
 11
801.7499778622614
 21
1139.500044645615
 31
0.0
  0
LINE
  5
362
330
1F
100
AcDbEntity
  8
Ｓ_１_１
  6
CONTINUOUS
 62
     3
100
AcDbLine
 10
798.2499803558975
 20
1136.00004215198
 30
0.0
 11
798.2499778622622
 21
1139.500042151979
 31
0.0
  0
LINE
  5
363
330
1F
100
AcDbEntity
  8
Ｓ_１_１
  6
CONTINUOUS
 62
     3
100
AcDbLine
 10
815.4999470810808
 20
1142.000067442018
 30
0.0
 11
814.9999567248545
 21
1142.500057085791
 31
0.0
  0
LINE
  5
364
330
1F
100
AcDbEntity
  8
Ｓ_１_１
  6
CONTINUOUS
 62
     3
100
AcDbLine
 10
815.4999587935563
 20
1141.000055442026
 30
0.0
 11
814.9999581497904
 21
1140.500055085792
 31
0.0
  0
LINE
  5
365
330
1F
100
AcDbEntity
  8
Ｓ_１_１
  6
CONTINUOUS
 62
     3
100
AcDbLine
 10
784.9999567248701
 20
1142.500024711774
 30
0.0
 11
784.4999680810963
 21
1142.000034355549
 31
0.0
  0
LINE
  5
366
330
1F
100
AcDbEntity
  8
Ｓ_１_１
  6
CONTINUOUS
 62
     3
100
AcDbLine
 10
784.9999691497978
 20
1140.500033711783
 30
0.0
 11
784.4999577935569
 21
1141.000044355541
 31
0.0
  0
LINE
  5
367
330
1F
100
AcDbEntity
  8
Ｓ_１_１
  6
CONTINUOUS
 62
     3
100
AcDbLine
 10
786.9999757248636
 20
1142.500034136722
 30
0.0
 11
784.999975724864
 21
1142.500032711788
 31
0.0
  0
LINE
  5
368
330
1F
100
AcDbEntity
  8
Ｓ_１_１
  6
CONTINUOUS
 62
     3
100
AcDbLine
 10
786.999977149798
 20
1140.500034136723
 30
0.0
 11
784.9999771497985
 21
1140.500032711788
 31
0.0
  0
LINE
  5
369
330
1F
100
AcDbEntity
  8
Ｓ_１_１
  6
CONTINUOUS
 62
     3
100
AcDbLine
 10
814.9999771497907
 20
1140.500054085805
 30
0.0
 11
812.9999771497914
 21
1140.500052660871
 31
0.0
  0
LINE
  5
36A
330
1F
100
AcDbEntity
  8
Ｓ_１_１
  6
CONTINUOUS
 62
     3
100
AcDbLine
 10
814.9999757248562
 20
1142.500054085805
 30
0.0
 11
812.999975724857
 21
1142.50005266087
 31
0.0
  0
LINE
  5
36B
330
1F
100
AcDbEntity
  8
Ｓ_１_１
  6
CONTINUOUS
 62
     3
100
AcDbLine
 10
815.4999767935572
 20
1141.000054442039
 30
0.0
 11
815.4999760810899
 21
1142.000054442038
 31
0.0
  0
LINE
  5
36C
330
1F
100
AcDbEntity
  8
Ｓ_１_１
  6
CONTINUOUS
 62
     3
100
AcDbLine
 10
784.4999767935649
 20
1141.000032355555
 30
0.0
 11
784.4999760810977
 21
1142.000032355554
 31
0.0
  0
LINE
  5
36D
330
1F
100
AcDbEntity
  8
Ｓ_１_１
  6
CONTINUOUS
 62
     3
100
AcDbLine
 10
801.8548882185136
 20
1139.00001872036
 30
0.0
 11
801.7499613479968
 21
1138.818279645603
 31
0.0
  0
LINE
  5
36E
330
1F
100
AcDbEntity
  8
Ｓ_１_１
  6
CONTINUOUS
 62
     3
100
AcDbLine
 10
815.9999949614926
 20
1115.500024798279
 30
0.0
 11
783.9999949615008
 21
1115.500001999328
 31
0.0
  0
LINE
  5
36F
330
1F
100
AcDbEntity
  8
Ｓ_１_１
  6
CONTINUOUS
 62
     3
100
AcDbLine
 10
815.9999896179884
 20
1123.000024798277
 30
0.0
 11
783.9999896179966
 21
1123.000001999326
 31
0.0
  0
LINE
  5
370
330
1F
100
AcDbEntity
  8
Ｓ_１_１
  6
CONTINUOUS
 62
     3
100
AcDbLine
 10
815.9999782184913
 20
1139.000054798273
 30
0.0
 11
801.749978218495
 21
1139.000044645615
 31
0.0
  0
LINE
  5
371
330
1F
100
AcDbEntity
  8
Ｓ_１_１
  6
CONTINUOUS
 62
     3
100
AcDbLine
 10
783.9999832057701
 20
1132.000031999323
 30
0.0
 11
815.9999832057619
 21
1132.000054798275
 31
0.0
  0
LINE
  5
372
330
1F
100
AcDbEntity
  8
Ｓ_１_１
  6
CONTINUOUS
 62
     3
100
AcDbLine
 10
784.499954862273
 20
1139.500022355538
 30
0.0
 11
783.9999552185075
 21
1139.000020999305
 31
0.0
  0
LINE
  5
373
330
1F
100
AcDbEntity
  8
Ｓ_１_１
  6
CONTINUOUS
 62
     3
100
AcDbLine
 10
815.9999592185111
 20
1139.000027798259
 30
0.0
 11
815.4999688622851
 21
1139.500016442033
 31
0.0
  0
LINE
  5
374
330
1F
100
AcDbEntity
  8
Ｓ_１_１
  6
CONTINUOUS
 62
     3
100
AcDbLine
 10
783.9999832057701
 20
1132.000031999323
 30
0.0
 11
783.9999782184996
 21
1139.000031999321
 31
0.0
  0
LINE
  5
375
330
1F
100
AcDbEntity
  8
Ｓ_１_１
  6
CONTINUOUS
 62
     3
100
AcDbLine
 10
815.9999832057619
 20
1132.000054798275
 30
0.0
 11
815.9999782184913
 21
1139.000054798273
 31
0.0
  0
LINE
  5
376
330
1F
100
AcDbEntity
  8
Ｓ_１_１
  6
CONTINUOUS
 62
     3
100
AcDbLine
 10
815.9999816179914
 20
1123.000020798271
 30
0.0
 11
815.4999702617504
 21
1123.500031442029
 31
0.0
  0
LINE
  5
377
330
1F
100
AcDbEntity
  8
Ｓ_１_１
  6
CONTINUOUS
 62
     3
100
AcDbLine
 10
784.4999735620302
 20
1131.49999535555
 30
0.0
 11
783.9999832058036
 21
1131.999984999323
 31
0.0
  0
LINE
  5
378
330
1F
100
AcDbEntity
  8
Ｓ_１_１
  6
CONTINUOUS
 62
     3
100
AcDbLine
 10
784.4999552617378
 20
1123.500037355535
 30
0.0
 11
783.9999546179729
 21
1123.000035999301
 31
0.0
  0
LINE
  5
379
330
1F
100
AcDbEntity
  8
Ｓ_１_１
  6
CONTINUOUS
 62
     3
100
AcDbLine
 10
815.9999512057606
 20
1132.000056798252
 30
0.0
 11
815.4999505619953
 21
1131.500055442018
 31
0.0
  0
LINE
  5
37A
330
1F
100
AcDbEntity
  8
Ｓ_１_１
  6
CONTINUOUS
 62
     3
100
AcDbLine
 10
815.4999892617549
 20
1123.500024442043
 30
0.0
 11
784.4999892617626
 21
1123.500002355559
 31
0.0
  0
LINE
  5
37B
330
1F
100
AcDbEntity
  8
Ｓ_１_１
  6
CONTINUOUS
 62
     3
100
AcDbLine
 10
815.4999835619958
 20
1131.500054442041
 30
0.0
 11
784.4999835620035
 21
1131.500032355557
 31
0.0
  0
LINE
  5
37C
330
1F
100
AcDbEntity
  8
Ｓ_１_１
  6
CONTINUOUS
 62
     3
100
AcDbLine
 10
784.4999892617626
 20
1123.500002355559
 30
0.0
 11
784.4999835620035
 21
1131.500032355557
 31
0.0
  0
LINE
  5
37D
330
1F
100
AcDbEntity
  8
Ｓ_１_１
  6
CONTINUOUS
 62
     3
100
AcDbLine
 10
815.4999892617549
 20
1123.500024442043
 30
0.0
 11
815.4999835619958
 21
1131.500054442041
 31
0.0
  0
LINE
  5
37E
330
1F
100
AcDbEntity
  8
Ｓ_１_１
  6
CONTINUOUS
 62
     3
100
AcDbLine
 10
786.9999700988865
 20
1112.500026136711
 30
0.0
 11
783.9999639614829
 21
1115.500026999306
 31
0.0
  0
LINE
  5
37F
330
1F
100
AcDbEntity
  8
Ｓ_１_１
  6
CONTINUOUS
 62
     3
100
AcDbLine
 10
812.9999870988875
 20
1112.500033660871
 30
0.0
 11
815.9999769614896
 21
1115.500028798266
 31
0.0
  0
LINE
  5
380
330
1F
100
AcDbEntity
  8
Ｓ_１_１
  6
CONTINUOUS
 62
     3
100
AcDbLine
 10
811.9999725187547
 20
1147.000051948402
 30
0.0
 11
811.9999618317463
 21
1162.000051948398
 31
0.0
  0
LINE
  5
381
330
1F
100
AcDbEntity
  8
Ｓ_１_１
  6
CONTINUOUS
 62
     3
100
AcDbLine
 10
787.9999725187608
 20
1147.000034849188
 30
0.0
 11
787.9999618317524
 21
1162.000034849184
 31
0.0
  0
LINE
  5
382
330
1F
100
AcDbEntity
  8
Ｓ_１_１
  6
CONTINUOUS
 62
     3
100
AcDbLine
 10
812.9999970988952
 20
1112.500022660878
 30
0.0
 11
786.9999970989018
 21
1112.50000413673
 31
0.0
  0
LINE
  5
383
330
1F
100
AcDbEntity
  8
Ｓ_１_１
  6
CONTINUOUS
 62
     3
100
AcDbLine
 10
783.9999949615008
 20
1115.500001999328
 30
0.0
 11
783.9999896179966
 21
1123.000001999326
 31
0.0
  0
LINE
  5
384
330
1F
100
AcDbEntity
  8
Ｓ_１_１
  6
CONTINUOUS
 62
     3
100
AcDbLine
 10
815.9999949614926
 20
1115.500024798279
 30
0.0
 11
815.9999896179884
 21
1123.000024798277
 31
0.0
  0
LINE
  5
385
330
1F
100
AcDbEntity
  8
Ｓ_１_１
  6
CONTINUOUS
 62
     3
100
AcDbLine
 10
786.9999614204224
 20
1162.577366136718
 30
0.0
 11
786.9999533372637
 21
1173.922672136714
 31
0.0
  0
LINE
  5
386
330
1F
100
AcDbEntity
  8
Ｓ_１_１
  6
CONTINUOUS
 62
     3
100
AcDbLine
 10
812.9999614204158
 20
1162.577384660865
 30
0.0
 11
812.9999533372571
 21
1173.922690660862
 31
0.0
  0
LINE
  5
387
330
1F
100
AcDbEntity
  8
Ｓ_１_１
  6
CONTINUOUS
 62
     3
100
AcDbLine
 10
787.9999974551351
 20
1112.000004849197
 30
0.0
 11
787.9999970989015
 21
1112.500004849197
 31
0.0
  0
LINE
  5
388
330
1F
100
AcDbEntity
  8
Ｓ_１_１
  6
CONTINUOUS
 62
     3
100
AcDbLine
 10
811.999997455129
 20
1112.000021948411
 30
0.0
 11
811.9999970988954
 21
1112.50002194841
 31
0.0
  0
LINE
  5
389
330
1F
100
AcDbEntity
  8
Ｓ_１_１
  6
CONTINUOUS
 62
     3
100
AcDbLine
 10
812.9999778622587
 20
1139.500052660871
 30
0.0
 11
812.9999729301059
 21
1146.422690660869
 31
0.0
  0
LINE
  5
38A
330
1F
100
AcDbEntity
  8
Ｓ_１_１
  6
CONTINUOUS
 62
     3
100
AcDbLine
 10
786.9999778622653
 20
1139.500034136723
 30
0.0
 11
786.9999729301124
 21
1146.422672136721
 31
0.0
  0
LINE
  5
38B
330
1F
100
AcDbEntity
  8
Ｓ_１_１
  6
CONTINUOUS
 62
     3
100
AcDbLine
 10
815.499977862258
 20
1139.500054442039
 30
0.0
 11
801.7499778622614
 21
1139.500044645615
 31
0.0
  0
LINE
  5
38C
330
1F
100
AcDbEntity
  8
Ｓ_１_１
  6
CONTINUOUS
 62
     3
100
AcDbLine
 10
811.9999415187547
 20
1147.00005194838
 30
0.0
 11
787.9999725187608
 21
1147.000034849188
 31
0.0
  0
LINE
  5
38D
330
1F
100
AcDbEntity
  8
Ｓ_１_１
  6
CONTINUOUS
 62
     3
100
AcDbLine
 10
811.9999618317463
 20
1162.000051948398
 30
0.0
 11
787.9999618317524
 21
1162.000034849184
 31
0.0
  0
LINE
  5
38E
330
1F
100
AcDbEntity
  8
Ｓ_１_１
  6
CONTINUOUS
 62
     3
100
AcDbLine
 10
811.999997455129
 20
1112.000021948411
 30
0.0
 11
787.9999974551351
 21
1112.000004849197
 31
0.0
  0
LINE
  5
38F
330
1F
100
AcDbEntity
  8
Ｓ_１_１
  6
CONTINUOUS
 62
     3
100
AcDbLine
 10
784.4114757233516
 20
1183.205782292511
 30
0.0
 11
784.4114703168157
 21
1190.79425229251
 31
0.0
  0
LINE
  5
390
330
1F
100
AcDbEntity
  8
Ｓ_１_１
  6
CONTINUOUS
 62
     3
100
AcDbLine
 10
813.4999324577407
 20
1192.000037017086
 30
0.0
 11
815.5883793168077
 21
1190.794274505035
 31
0.0
  0
LINE
  5
391
330
1F
100
AcDbEntity
  8
Ｓ_１_１
  6
CONTINUOUS
 62
     3
100
AcDbLine
 10
786.4999284577445
 20
1192.000021780468
 30
0.0
 11
784.4114703168193
 21
1190.79424729251
 31
0.0
  0
LINE
  5
392
330
1F
100
AcDbEntity
  8
Ｓ_１_１
  6
CONTINUOUS
 62
     3
100
AcDbLine
 10
449.0000544367622
 20
1479.999999999986
 30
0.0
 11
449.0000544367622
 21
1471.999651934635
 31
0.0
  0
LINE
  5
393
330
1F
100
AcDbEntity
  8
Ｓ_１_１
  6
CONTINUOUS
 62
     3
100
AcDbLine
 10
509.0000668087532
 20
1479.999999999986
 30
0.0
 11
509.0000668087532
 21
1429.999958760015
 31
0.0
  0
LINE
  5
394
330
1F
100
AcDbEntity
  8
Ｓ_１_１
  6
CONTINUOUS
 62
     3
100
AcDbLine
 10
525.0001443398976
 20
1427.321670119813
 30
0.0
 11
525.0001443398976
 21
1479.999999999986
 31
0.0
  0
ARC
  5
395
330
1F
100
AcDbEntity
  8
Ｓ_１_１
  6
CONTINUOUS
 62
     3
100
AcDbCircle
 10
575.0000000000011
 20
1479.999999999986
 30
0.0
 40
8.500000592824582
100
AcDbArc
 50
180.0
 51
0.0
  0
ARC
  5
396
330
1F
100
AcDbEntity
  8
Ｓ_１_１
  6
CONTINUOUS
 62
     3
100
AcDbCircle
 10
575.0000000000011
 20
1479.999999999986
 30
0.0
 40
10.00000012887491
100
AcDbArc
 50
180.0
 51
0.0
  0
LINE
  5
397
330
1F
100
AcDbEntity
  8
Ｓ_１_１
  6
CONTINUOUS
 62
     3
100
AcDbLine
 10
791.0000569111603
 20
1479.999999999986
 30
0.0
 11
791.0000569111603
 21
1474.803887444559
 31
0.0
  0
LINE
  5
398
330
1F
100
AcDbEntity
  8
Ｓ_１_１
  6
CONTINUOUS
 62
     3
100
AcDbLine
 10
809.0001286687087
 20
1474.803887444559
 30
0.0
 11
809.0001286687087
 21
1479.999999999986
 31
0.0
  0
ARC
  5
399
330
1F
100
AcDbEntity
  8
Ｓ_１_１
  6
CONTINUOUS
 62
     3
100
AcDbCircle
 10
800.0000000000011
 20
1479.999999999986
 30
0.0
 40
13.00000113409919
100
AcDbArc
 50
180.0
 51
0.0
  0
ARC
  5
39A
330
1F
100
AcDbEntity
  8
Ｓ_１_１
  6
CONTINUOUS
 62
     3
100
AcDbCircle
 10
800.0000000000011
 20
1479.999999999986
 30
0.0
 40
15.00000019331237
100
AcDbArc
 50
180.0
 51
0.0
  0
ARC
  5
39B
330
1F
100
AcDbEntity
  8
Ｓ_１_１
  6
CONTINUOUS
 62
     3
100
AcDbCircle
 10
800.0000000000011
 20
1479.999999999986
 30
0.0
 40
24.99999935562546
100
AcDbArc
 50
180.0
 51
0.0
  0
ARC
  5
39C
330
1F
100
AcDbEntity
  8
Ｓ_１_１
  6
CONTINUOUS
 62
     3
100
AcDbCircle
 10
800.0000000000011
 20
1479.999999999986
 30
0.0
 40
27.00000131452407
100
AcDbArc
 50
180.0
 51
0.0
  0
ARC
  5
39D
330
1F
100
AcDbEntity
  8
Ｓ_１_１
  6
CONTINUOUS
 62
     3
100
AcDbCircle
 10
800.0000000000011
 20
1479.999999999986
 30
0.0
 40
48.00000061859956
100
AcDbArc
 50
180.0
 51
0.0
  0
ARC
  5
39E
330
1F
100
AcDbEntity
  8
Ｓ_１_１
  6
CONTINUOUS
 62
     3
100
AcDbCircle
 10
800.0000000000011
 20
1479.999999999986
 30
0.0
 40
52.00000453639677
100
AcDbArc
 50
180.0
 51
0.0
  0
ARC
  5
39F
330
1F
100
AcDbEntity
  8
Ｓ_１_１
  6
EXLTYPE2
 62
     1
100
AcDbCircle
 10
800.0000000000011
 20
1479.999999999986
 30
0.0
 40
49.99999871125092
100
AcDbArc
 50
180.0
 51
0.0
  0
ARC
  5
3A0
330
1F
100
AcDbEntity
  8
Ｓ_１_１
  6
EXLTYPE2
 62
     1
100
AcDbCircle
 10
800.0000000000011
 20
1479.999999999986
 30
0.0
 40
99.99999742250183
100
AcDbArc
 50
180.0
 51
0.0
  0
ARC
  5
3A1
330
1F
100
AcDbEntity
  8
Ｓ_１_１
  6
CONTINUOUS
 62
     3
100
AcDbCircle
 10
800.0000000000011
 20
1479.999999999986
 30
0.0
 40
98.00000319609774
100
AcDbArc
 50
180.0
 51
0.0
  0
ARC
  5
3A2
330
1F
100
AcDbEntity
  8
Ｓ_１_１
  6
CONTINUOUS
 62
     3
100
AcDbCircle
 10
800.0000000000011
 20
1479.999999999986
 30
0.0
 40
101.9999993814005
100
AcDbArc
 50
180.0
 51
0.0
  0
ARC
  5
3A3
330
1F
100
AcDbEntity
  8
Ｓ_１_１
  6
EXLTYPE2
 62
     1
100
AcDbCircle
 10
800.0000000000011
 20
1479.999999999986
 30
0.0
 40
150.0
100
AcDbArc
 50
180.0
 51
0.0
  0
ARC
  5
3A4
330
1F
100
AcDbEntity
  8
Ｓ_１_１
  6
CONTINUOUS
 62
     3
100
AcDbCircle
 10
800.0000000000011
 20
1479.999999999986
 30
0.0
 40
148.0000057735959
100
AcDbArc
 50
180.0
 51
0.0
  0
ARC
  5
3A5
330
1F
100
AcDbEntity
  8
Ｓ_１_１
  6
CONTINUOUS
 62
     3
100
AcDbCircle
 10
800.0000000000011
 20
1479.999999999986
 30
0.0
 40
151.9999942264041
100
AcDbArc
 50
180.0
 51
0.0
  0
ARC
  5
3A6
330
1F
100
AcDbEntity
  8
Ｓ_１_１
  6
CONTINUOUS
 62
     3
100
AcDbCircle
 10
800.0000000000011
 20
1479.999999999986
 30
0.0
 40
198.0000160835885
100
AcDbArc
 50
180.0
 51
0.0
  0
ARC
  5
3A7
330
1F
100
AcDbEntity
  8
Ｓ_１_１
  6
EXLTYPE2
 62
     1
100
AcDbCircle
 10
800.0000000000011
 20
1479.999999999986
 30
0.0
 40
199.9999948450037
100
AcDbArc
 50
180.0
 51
0.0
  0
ARC
  5
3A8
330
1F
100
AcDbEntity
  8
Ｓ_１_１
  6
CONTINUOUS
 62
     3
100
AcDbCircle
 10
800.0000000000011
 20
1479.999999999986
 30
0.0
 40
202.0000045363968
100
AcDbArc
 50
180.0
 51
0.0
  0
ARC
  5
3A9
330
1F
100
AcDbEntity
  8
Ｓ_１_１
  6
EXLTYPE2
 62
     1
100
AcDbCircle
 10
800.0000000000011
 20
1479.999999999986
 30
0.0
 40
225.0000000000001
100
AcDbArc
 50
180.0
 51
0.0
  0
ARC
  5
3AA
330
1F
100
AcDbEntity
  8
Ｓ_１_１
  6
CONTINUOUS
 62
     3
100
AcDbCircle
 10
1025.000000000001
 20
1479.999999999986
 30
0.0
 40
8.500000592824582
100
AcDbArc
 50
180.0
 51
0.0
  0
ARC
  5
3AB
330
1F
100
AcDbEntity
  8
Ｓ_１_１
  6
CONTINUOUS
 62
     3
100
AcDbCircle
 10
1025.000000000001
 20
1479.999999999986
 30
0.0
 40
10.00000012887491
100
AcDbArc
 50
180.0
 51
0.0
  0
ARC
  5
3AC
330
1F
100
AcDbEntity
  8
Ｓ_１_１
  6
CONTINUOUS
 62
     3
100
AcDbCircle
 10
800.0000000000011
 20
1479.999999999986
 30
0.0
 40
252.0000148463895
100
AcDbArc
 50
180.0
 51
0.0
  0
ARC
  5
3AD
330
1F
100
AcDbEntity
  8
Ｓ_１_１
  6
EXLTYPE2
 62
     1
100
AcDbCircle
 10
800.0000000000011
 20
1479.999999999986
 30
0.0
 40
250.0000051549963
100
AcDbArc
 50
180.0
 51
0.0
  0
ARC
  5
3AE
330
1F
100
AcDbEntity
  8
Ｓ_１_１
  6
CONTINUOUS
 62
     3
100
AcDbCircle
 10
800.0000000000011
 20
1479.999999999986
 30
0.0
 40
247.9999954636033
100
AcDbArc
 50
180.0
 51
0.0
  0
ARC
  5
3AF
330
1F
100
AcDbEntity
  8
Ｓ_１_１
  6
CONTINUOUS
 62
     3
100
AcDbCircle
 10
800.0000000000011
 20
1479.999999999986
 30
0.0
 40
270.9999909272065
100
AcDbArc
 50
180.0
 51
0.0
  0
ARC
  5
3B0
330
1F
100
AcDbEntity
  8
Ｓ_１_１
  6
CONTINUOUS
 62
     3
100
AcDbCircle
 10
800.0000000000011
 20
1479.999999999986
 30
0.0
 40
273.0000160835885
100
AcDbArc
 50
180.0
 51
0.0
  0
LINE
  5
3B1
330
1F
100
AcDbEntity
  8
Ｓ_１_１
  6
CONTINUOUS
 62
     3
100
AcDbLine
 10
1075.000041239971
 20
1427.321855699679
 30
0.0
 11
1075.000041239971
 21
1479.999999999986
 31
0.0
  0
LINE
  5
3B2
330
1F
100
AcDbEntity
  8
Ｓ_１_１
  6
CONTINUOUS
 62
     3
100
AcDbLine
 10
1091.000118771116
 20
1479.999999999986
 30
0.0
 11
1091.000118771116
 21
1429.999773180148
 31
0.0
  0
LINE
  5
3B3
330
1F
100
AcDbEntity
  8
Ｓ_１_１
  6
CONTINUOUS
 62
     3
100
AcDbLine
 10
1151.000069283151
 20
1479.999999999986
 30
0.0
 11
1151.000069283151
 21
1471.999961234414
 31
0.0
  0
LINE
  5
3B4
330
1F
100
AcDbEntity
  8
Ｓ_１_１
  6
EXLTYPE2
 62
     1
100
AcDbLine
 10
800.0006785007204
 20
1479.999999999986
 30
0.0
 11
800.0006785007204
 21
1338.38792112815
 31
0.0
  0
LINE
  5
3B5
330
1F
100
AcDbEntity
  8
Ｓ_１_１
  6
EXLTYPE2
 62
     1
100
AcDbLine
 10
800.0000000000011
 20
1189.812906626094
 30
0.0
 11
800.0000000000011
 21
1479.999999999986
 31
0.0
  0
ARC
  5
3B6
330
1F
100
AcDbEntity
  8
Ｓ_１_１
  6
CONTINUOUS
 62
     3
100
AcDbCircle
 10
800.0000000000011
 20
1479.999999999986
 30
0.0
 40
275.0000103099927
100
AcDbArc
 50
180.0
 51
0.0
  0
LINE
  5
3B7
330
1F
100
AcDbEntity
  8
Ｓ_１_１
  6
CONTINUOUS
 62
     3
100
AcDbLine
 10
496.9993610896527
 20
541.999924118453
 30
0.0
 11
497.9993891328322
 21
543.9999802048121
 31
0.0
  0
LINE
  5
3B8
330
1F
100
AcDbEntity
  8
Ｓ_１_１
  6
CONTINUOUS
 62
     3
100
AcDbLine
 10
497.9993891328322
 20
526.0000940271309
 30
0.0
 11
497.9993891328322
 21
543.9999802048121
 31
0.0
  0
LINE
  5
3B9
330
1F
100
AcDbEntity
  8
Ｓ_１_１
  6
CONTINUOUS
 62
     3
100
AcDbLine
 10
1074.999362739251
 20
772.9999686576206
 30
0.0
 11
1074.999362739251
 21
697.5066973711978
 31
0.0
  0
LINE
  5
3BA
330
1F
100
AcDbEntity
  8
Ｓ_１_１
  6
CONTINUOUS
 62
     3
100
AcDbLine
 10
1072.999306652892
 20
775.0000247439806
 30
0.0
 11
1074.999362739251
 21
772.9999686576206
 31
0.0
  0
LINE
  5
3BB
330
1F
100
AcDbEntity
  8
Ｓ_１_１
  6
CONTINUOUS
 62
     3
100
AcDbLine
 10
496.9993610896527
 20
527.9999026736684
 30
0.0
 11
497.9993891328322
 21
526.0000940271309
 31
0.0
  0
LINE
  5
3BC
330
1F
100
AcDbEntity
  8
Ｓ_１_１
  6
CONTINUOUS
 62
     3
100
AcDbLine
 10
497.9993891328322
 20
526.0000940271309
 30
0.0
 11
508.9993883080328
 21
526.0000940271309
 31
0.0
  0
LINE
  5
3BD
330
1F
100
AcDbEntity
  8
Ｓ_１_１
  6
CONTINUOUS
 62
     3
100
AcDbLine
 10
1079.999502955151
 20
550.000148463892
 30
0.0
 11
1079.999502955151
 21
567.0001303183049
 31
0.0
  0
LINE
  5
3BE
330
1F
100
AcDbEntity
  8
Ｓ_１_１
  6
CONTINUOUS
 62
     3
100
AcDbLine
 10
1074.999362739251
 20
667.0002127982457
 30
0.0
 11
1074.999362739251
 21
573.0001748574728
 31
0.0
  0
LINE
  5
3BF
330
1F
100
AcDbEntity
  8
Ｓ_１_１
  6
CONTINUOUS
 62
     3
100
AcDbLine
 10
1079.999502955151
 20
283.0002078494495
 30
0.0
 11
1079.999502955151
 21
470.000379407726
 31
0.0
  0
LINE
  5
3C0
330
1F
100
AcDbEntity
  8
Ｓ_１_１
  6
CONTINUOUS
 62
     3
100
AcDbLine
 10
987.499321499281
 20
670.000173207874
 30
0.0
 11
987.499321499281
 21
675.9999703072194
 31
0.0
  0
LINE
  5
3C1
330
1F
100
AcDbEntity
  8
Ｓ_１_１
  6
CONTINUOUS
 62
     3
100
AcDbLine
 10
1090.999440270396
 20
470.000379407726
 30
0.0
 11
1074.999362739251
 21
470.0000082479922
 31
0.0
  0
LINE
  5
3C2
330
1F
100
AcDbEntity
  8
Ｓ_１_１
  6
CONTINUOUS
 62
     3
100
AcDbLine
 10
1074.999362739251
 20
470.0000082479922
 30
0.0
 11
1074.999486459163
 21
550.000148463892
 31
0.0
  0
LINE
  5
3C3
330
1F
100
AcDbEntity
  8
Ｓ_１_１
  6
CONTINUOUS
 62
     3
100
AcDbLine
 10
1101.999501305552
 20
526.0004651868644
 30
0.0
 11
1101.999501305552
 21
544.0003513645465
 31
0.0
  0
LINE
  5
3C4
330
1F
100
AcDbEntity
  8
Ｓ_１_１
  6
CONTINUOUS
 62
     3
100
AcDbLine
 10
1101.999501305552
 20
526.0004651868644
 30
0.0
 11
1090.999440270396
 21
526.0002177470419
 31
0.0
  0
LINE
  5
3C5
330
1F
100
AcDbEntity
  8
Ｓ_１_１
  6
CONTINUOUS
 62
     3
100
AcDbLine
 10
1102.999529348732
 20
528.0002738334019
 30
0.0
 11
1101.999501305552
 21
526.0004651868644
 31
0.0
  0
LINE
  5
3C6
330
1F
100
AcDbEntity
  8
Ｓ_１_１
  6
CONTINUOUS
 62
     3
100
AcDbLine
 10
1102.999529348732
 20
542.0001715582753
 30
0.0
 11
1101.999501305552
 21
544.0003513645465
 31
0.0
  0
LINE
  5
3C7
330
1F
100
AcDbEntity
  8
Ｓ_１_１
  6
CONTINUOUS
 62
     3
100
AcDbLine
 10
987.499321499281
 20
675.9999703072194
 30
0.0
 11
983.4995804862951
 21
680.0000824799395
 31
0.0
  0
LINE
  5
3C8
330
1F
100
AcDbEntity
  8
Ｓ_１_１
  6
CONTINUOUS
 62
     3
100
AcDbLine
 10
983.4995804862951
 20
680.0000824799395
 30
0.0
 11
983.4995804862951
 21
670.000173207874
 31
0.0
  0
LINE
  5
3C9
330
1F
100
AcDbEntity
  8
Ｓ_１_１
  6
CONTINUOUS
 62
     3
100
AcDbLine
 10
1101.999501305552
 20
544.0003513645465
 30
0.0
 11
1090.999563990307
 21
544.0003513645465
 31
0.0
  0
LINE
  5
3CA
330
1F
100
AcDbEntity
  8
Ｓ_１_１
  6
CONTINUOUS
 62
     3
100
AcDbLine
 10
1102.999529348732
 20
542.0001715582753
 30
0.0
 11
1102.999529348732
 21
528.0002738334019
 31
0.0
  0
LINE
  5
3CB
330
1F
100
AcDbEntity
  8
Ｓ_１_１
  6
CONTINUOUS
 62
     3
100
AcDbLine
 10
1102.999529348732
 20
478.0002325934313
 30
0.0
 11
1101.999501305552
 21
476.0004239468938
 31
0.0
  0
LINE
  5
3CC
330
1F
100
AcDbEntity
  8
Ｓ_１_１
  6
CONTINUOUS
 62
     3
100
AcDbLine
 10
1120.999415526413
 20
540.0002391918265
 30
0.0
 11
1102.999529348732
 21
539.999991752004
 31
0.0
  0
LINE
  5
3CD
330
1F
100
AcDbEntity
  8
Ｓ_１_１
  6
CONTINUOUS
 62
     3
100
AcDbLine
 10
969.9257741359997
 20
689.999991752004
 30
0.0
 11
1073.002152210852
 21
695.402097959774
 31
0.0
  0
LINE
  5
3CE
330
1F
100
AcDbEntity
  8
Ｓ_１_１
  6
CONTINUOUS
 62
     3
100
AcDbLine
 10
1076.999666265434
 20
280.0003711597324
 30
0.0
 11
1079.999502955151
 21
283.0002078494495
 31
0.0
  0
LINE
  5
3CF
330
1F
100
AcDbEntity
  8
Ｓ_１_１
  6
CONTINUOUS
 62
     3
100
AcDbLine
 10
1074.999362739251
 20
697.5066973711978
 30
0.0
 11
1073.002152210852
 21
695.402097959774
 31
0.0
  0
LINE
  5
3D0
330
1F
100
AcDbEntity
  8
Ｓ_１_１
  6
CONTINUOUS
 62
     3
100
AcDbLine
 10
1101.999501305552
 20
494.000310124576
 30
0.0
 11
1101.999501305552
 21
476.0004239468938
 31
0.0
  0
LINE
  5
3D1
330
1F
100
AcDbEntity
  8
Ｓ_１_１
  6
CONTINUOUS
 62
     3
100
AcDbLine
 10
1120.999415526413
 20
480.000041239968
 30
0.0
 11
1102.999405628821
 21
480.000041239968
 31
0.0
  0
LINE
  5
3D2
330
1F
100
AcDbEntity
  8
Ｓ_１_１
  6
CONTINUOUS
 62
     3
100
AcDbLine
 10
1102.999529348732
 20
492.0001303183047
 30
0.0
 11
1101.999501305552
 21
494.000310124576
 31
0.0
  0
LINE
  5
3D3
330
1F
100
AcDbEntity
  8
Ｓ_１_１
  6
CONTINUOUS
 62
     3
100
AcDbLine
 10
1090.999440270396
 20
470.000379407726
 30
0.0
 11
1090.999440270396
 21
550.0003959037144
 31
0.0
  0
LINE
  5
3D4
330
1F
100
AcDbEntity
  8
Ｓ_１_１
  6
CONTINUOUS
 62
     3
100
AcDbLine
 10
1076.999418825611
 20
570.0003381677557
 30
0.0
 11
1079.999502955151
 21
567.0001303183049
 31
0.0
  0
LINE
  5
3D5
330
1F
100
AcDbEntity
  8
Ｓ_１_１
  6
CONTINUOUS
 62
     3
100
AcDbLine
 10
1074.999362739251
 20
573.0001748574728
 30
0.0
 11
1071.999402329623
 21
570.0003381677557
 31
0.0
  0
LINE
  5
3D6
330
1F
100
AcDbEntity
  8
Ｓ_１_１
  6
CONTINUOUS
 62
     3
100
AcDbLine
 10
1074.999362739251
 20
667.0002127982457
 30
0.0
 11
1071.999278609712
 21
670.000173207874
 31
0.0
  0
LINE
  5
3D7
330
1F
100
AcDbEntity
  8
Ｓ_１_１
  6
CONTINUOUS
 62
     3
100
AcDbLine
 10
1090.999440270396
 20
550.0003959037144
 30
0.0
 11
1074.999486459163
 21
550.000148463892
 31
0.0
  0
LINE
  5
3D8
330
1F
100
AcDbEntity
  8
Ｓ_１_１
  6
CONTINUOUS
 62
     3
100
AcDbLine
 10
1101.999501305552
 20
494.000310124576
 30
0.0
 11
1090.999563990307
 21
494.000310124576
 31
0.0
  0
LINE
  5
3D9
330
1F
100
AcDbEntity
  8
Ｓ_１_１
  6
CONTINUOUS
 62
     3
100
AcDbLine
 10
1101.999501305552
 20
476.0004239468938
 30
0.0
 11
1090.999563990307
 21
476.0000527871601
 31
0.0
  0
LINE
  5
3DA
330
1F
100
AcDbEntity
  8
Ｓ_１_１
  6
CONTINUOUS
 62
     3
100
AcDbLine
 10
1102.999529348732
 20
478.0002325934313
 30
0.0
 11
1102.999529348732
 21
492.0001303183047
 31
0.0
  0
LINE
  5
3DB
330
1F
100
AcDbEntity
  8
Ｓ_１_１
  6
CONTINUOUS
 62
     3
100
AcDbLine
 10
524.9993421192662
 20
697.5065736512868
 30
0.0
 11
526.9966145076214
 21
695.401974239863
 31
0.0
  0
LINE
  5
3DC
330
1F
100
AcDbEntity
  8
Ｓ_１_１
  6
CONTINUOUS
 62
     3
100
AcDbLine
 10
524.9993421192662
 20
772.9999686576209
 30
0.0
 11
524.9993421192662
 21
697.5065736512868
 31
0.0
  0
LINE
  5
3DD
330
1F
100
AcDbEntity
  8
Ｓ_１_１
  6
CONTINUOUS
 62
     3
100
AcDbLine
 10
526.999398205626
 20
774.9999010240687
 30
0.0
 11
524.9993421192662
 21
772.9999686576209
 31
0.0
  0
LINE
  5
3DE
330
1F
100
AcDbEntity
  8
Ｓ_１_１
  6
CONTINUOUS
 62
     3
100
AcDbLine
 10
496.9993610896527
 20
477.9999851536091
 30
0.0
 11
497.9993891328322
 21
476.0000527871604
 31
0.0
  0
LINE
  5
3DF
330
1F
100
AcDbEntity
  8
Ｓ_１_１
  6
CONTINUOUS
 62
     3
100
AcDbLine
 10
478.9994130520153
 20
539.9999917520042
 30
0.0
 11
496.9993610896527
 21
539.9999917520042
 31
0.0
  0
LINE
  5
3E0
330
1F
100
AcDbEntity
  8
Ｓ_１_１
  6
CONTINUOUS
 62
     3
100
AcDbLine
 10
630.0728688625622
 20
689.9999917520042
 30
0.0
 11
526.9966145076214
 21
695.401974239863
 31
0.0
  0
LINE
  5
3E1
330
1F
100
AcDbEntity
  8
Ｓ_１_１
  6
CONTINUOUS
 62
     3
100
AcDbLine
 10
522.9994097528174
 20
279.9999999999986
 30
0.0
 11
519.9993874832335
 21
282.999960409627
 31
0.0
  0
LINE
  5
3E2
330
1F
100
AcDbEntity
  8
Ｓ_１_１
  6
CONTINUOUS
 62
     3
100
AcDbLine
 10
497.9993891328322
 20
493.9999389648425
 30
0.0
 11
497.9993891328322
 21
476.0000527871604
 31
0.0
  0
LINE
  5
3E3
330
1F
100
AcDbEntity
  8
Ｓ_１_１
  6
CONTINUOUS
 62
     3
100
AcDbLine
 10
478.9994130520153
 20
480.0000412399682
 30
0.0
 11
496.9993610896527
 21
480.0000412399682
 31
0.0
  0
LINE
  5
3E4
330
1F
100
AcDbEntity
  8
Ｓ_１_１
  6
CONTINUOUS
 62
     3
100
AcDbLine
 10
496.9993610896527
 20
492.000130318305
 30
0.0
 11
497.9993891328322
 21
493.9999389648425
 31
0.0
  0
LINE
  5
3E5
330
1F
100
AcDbEntity
  8
Ｓ_１_１
  6
CONTINUOUS
 62
     3
100
AcDbLine
 10
524.9994039792218
 20
667.0000890783347
 30
0.0
 11
524.9994039792218
 21
573.000174857473
 31
0.0
  0
LINE
  5
3E6
330
1F
100
AcDbEntity
  8
Ｓ_１_１
  6
CONTINUOUS
 62
     3
100
AcDbLine
 10
519.9993874832335
 20
282.999960409627
 30
0.0
 11
519.9993874832335
 21
470.0000082479925
 31
0.0
  0
LINE
  5
3E7
330
1F
100
AcDbEntity
  8
Ｓ_１_１
  6
CONTINUOUS
 62
     3
100
AcDbLine
 10
612.4995070791479
 20
670.0001732078742
 30
0.0
 11
612.4995070791479
 21
675.9998465873084
 31
0.0
  0
LINE
  5
3E8
330
1F
100
AcDbEntity
  8
Ｓ_１_１
  6
CONTINUOUS
 62
     3
100
AcDbLine
 10
616.4992480921337
 20
679.9999587600275
 30
0.0
 11
616.4992480921337
 21
670.0001732078742
 31
0.0
  0
LINE
  5
3E9
330
1F
100
AcDbEntity
  8
Ｓ_１_１
  6
CONTINUOUS
 62
     3
100
AcDbLine
 10
497.9993891328322
 20
543.9999802048121
 30
0.0
 11
508.9993264480772
 21
543.9999802048121
 31
0.0
  0
LINE
  5
3EA
330
1F
100
AcDbEntity
  8
Ｓ_１_１
  6
CONTINUOUS
 62
     3
100
AcDbLine
 10
496.9993610896527
 20
541.999924118453
 30
0.0
 11
496.9993610896527
 21
527.9999026736684
 31
0.0
  0
LINE
  5
3EB
330
1F
100
AcDbEntity
  8
Ｓ_１_１
  6
CONTINUOUS
 62
     3
100
AcDbLine
 10
612.4995070791479
 20
675.9998465873084
 30
0.0
 11
616.4992480921337
 21
679.9999587600275
 31
0.0
  0
LINE
  5
3EC
330
1F
100
AcDbEntity
  8
Ｓ_１_１
  6
CONTINUOUS
 62
     3
100
AcDbLine
 10
508.9993883080328
 20
470.0000082479925
 30
0.0
 11
508.9994501679884
 21
550.0000247439809
 31
0.0
  0
LINE
  5
3ED
330
1F
100
AcDbEntity
  8
Ｓ_１_１
  6
CONTINUOUS
 62
     3
100
AcDbLine
 10
522.9994097528174
 20
570.0000907279334
 30
0.0
 11
519.9993874832335
 21
567.0001303183051
 31
0.0
  0
LINE
  5
3EE
330
1F
100
AcDbEntity
  8
Ｓ_１_１
  6
CONTINUOUS
 62
     3
100
AcDbLine
 10
524.9994039792218
 20
573.000174857473
 30
0.0
 11
527.9994262488058
 21
570.0000907279334
 31
0.0
  0
LINE
  5
3EF
330
1F
100
AcDbEntity
  8
Ｓ_１_１
  6
CONTINUOUS
 62
     3
100
AcDbLine
 10
508.9994501679884
 20
550.0000247439809
 30
0.0
 11
524.9994039792218
 21
550.0000247439809
 31
0.0
  0
LINE
  5
3F0
330
1F
100
AcDbEntity
  8
Ｓ_１_１
  6
CONTINUOUS
 62
     3
100
AcDbLine
 10
497.9993891328322
 20
493.9999389648425
 30
0.0
 11
508.9993264480772
 21
493.9999389648425
 31
0.0
  0
LINE
  5
3F1
330
1F
100
AcDbEntity
  8
Ｓ_１_１
  6
CONTINUOUS
 62
     3
100
AcDbLine
 10
497.9993891328322
 20
476.0000527871604
 30
0.0
 11
508.9993264480772
 21
476.0000527871604
 31
0.0
  0
LINE
  5
3F2
330
1F
100
AcDbEntity
  8
Ｓ_１_１
  6
CONTINUOUS
 62
     3
100
AcDbLine
 10
496.9993610896527
 20
477.9999851536091
 30
0.0
 11
496.9993610896527
 21
492.000130318305
 31
0.0
  0
LINE
  5
3F3
330
1F
100
AcDbEntity
  8
Ｓ_１_１
  6
CONTINUOUS
 62
     3
100
AcDbLine
 10
524.9994039792218
 20
470.0000082479925
 30
0.0
 11
524.9994039792218
 21
550.0000247439809
 31
0.0
  0
LINE
  5
3F4
330
1F
100
AcDbEntity
  8
Ｓ_１_１
  6
CONTINUOUS
 62
     3
100
AcDbLine
 10
519.9993874832335
 20
550.0000247439809
 30
0.0
 11
519.9993874832335
 21
567.0001303183051
 31
0.0
  0
LINE
  5
3F5
330
1F
100
AcDbEntity
  8
Ｓ_１_１
  6
CONTINUOUS
 62
     3
100
AcDbLine
 10
524.9994039792218
 20
667.0000890783347
 30
0.0
 11
527.9994262488058
 21
670.0001732078742
 31
0.0
  0
LINE
  5
3F6
330
1F
100
AcDbEntity
  8
Ｓ_１_１
  6
CONTINUOUS
 62
     3
100
AcDbLine
 10
508.9993883080328
 20
470.0000082479925
 30
0.0
 11
524.9994039792218
 21
470.0000082479925
 31
0.0
  0
ARC
  5
3F7
330
1F
100
AcDbEntity
  8
Ｓ_１_１
  6
CONTINUOUS
 62
     3
100
AcDbCircle
 10
799.999321499281
 20
775.0000247439809
 30
0.0
 40
189.9999927830053
100
AcDbArc
 50
206.5749816894534
 51
210.0000000000002
  0
CIRCLE
  5
3F8
330
1F
100
AcDbEntity
  8
Ｓ_１_１
  6
CONTINUOUS
 62
     3
100
AcDbCircle
 10
478.9994130520153
 20
510.0000164959862
 30
0.0
 40
15.00000019331237
  0
ARC
  5
3F9
330
1F
100
AcDbEntity
  8
Ｓ_１_１
  6
CONTINUOUS
 62
     3
100
AcDbCircle
 10
799.9995070791479
 20
620.0000082479924
 30
0.0
 40
10.00000012887491
100
AcDbArc
 50
90.00000000000001
 51
270.000015258789
  0
ARC
  5
3FA
330
1F
100
AcDbEntity
  8
Ｓ_１_１
  6
CONTINUOUS
 62
     3
100
AcDbCircle
 10
478.9994130520153
 20
510.0000164959862
 30
0.0
 40
30.00000038662474
100
AcDbArc
 50
90.00000000000001
 51
270.000015258789
  0
ELLIPSE
  5
3FB
330
1F
100
AcDbEntity
  8
Ｓ_１_１
  6
CONTINUOUS
 62
     3
100
AcDbEllipse
 10
655.5234773995658
 20
620.0000082479924
 30
0.0
 11
0.4701991679834499
 21
-12.96127301827543
 31
0.0
210
0.0
220
0.0
230
1.0
 40
0.8800000000000006
 41
0.0
 42
6.283185307179586
  0
ARC
  5
3FC
330
1F
100
AcDbEntity
  8
Ｓ_１_１
  6
CONTINUOUS
 62
     3
100
AcDbCircle
 10
799.9995070791479
 20
620.0000082479924
 30
0.0
 40
17.49999974225019
100
AcDbArc
 50
270.0000000000002
 51
90.00000000000001
  0
ARC
  5
3FD
330
1F
100
AcDbEntity
  8
Ｓ_１_１
  6
CONTINUOUS
 62
     3
100
AcDbCircle
 10
799.999321499281
 20
620.0000082479924
 30
0.0
 40
8.500000592824582
100
AcDbArc
 50
270.000015258789
 51
90.00000000000001
  0
ELLIPSE
  5
3FE
330
1F
100
AcDbEntity
  8
Ｓ_１_１
  6
CONTINUOUS
 62
     3
100
AcDbEllipse
 10
944.4753511788626
 20
620.0000082479924
 30
0.0
 11
0.4701991679834499
 21
-12.96127301827543
 31
0.0
210
0.0
220
0.0
230
1.0
 40
0.8800000000000006
 41
0.0
 42
6.283185307179586
  0
CIRCLE
  5
3FF
330
1F
100
AcDbEntity
  8
Ｓ_１_１
  6
CONTINUOUS
 62
     3
100
AcDbCircle
 10
1120.999415526413
 20
510.0002639358084
 30
0.0
 40
15.00000019331237
  0
ARC
  5
400
330
1F
100
AcDbEntity
  8
Ｓ_１_１
  6
CONTINUOUS
 62
     3
100
AcDbCircle
 10
799.999321499281
 20
620.0000082479924
 30
0.0
 40
10.00000012887491
100
AcDbArc
 50
270.000015258789
 51
90.00000000000001
  0
ARC
  5
401
330
1F
100
AcDbEntity
  8
Ｓ_１_１
  6
CONTINUOUS
 62
     3
100
AcDbCircle
 10
1120.999415526413
 20
510.0002639358084
 30
0.0
 40
30.00000038662474
100
AcDbArc
 50
270.000015258789
 51
90.00000000000001
  0
ARC
  5
402
330
1F
100
AcDbEntity
  8
Ｓ_１_１
  6
CONTINUOUS
 62
     3
100
AcDbCircle
 10
799.999321499281
 20
775.0000247439809
 30
0.0
 40
189.9999927830053
100
AcDbArc
 50
330.0000152587891
 51
333.4250335693362
  0
ARC
  5
403
330
1F
100
AcDbEntity
  8
Ｓ_１_１
  6
CONTINUOUS
 62
     3
100
AcDbCircle
 10
799.999321499281
 20
620.0000082479924
 30
0.0
 40
17.49999974225019
100
AcDbArc
 50
90.00000000000001
 51
270.000015258789
  0
ARC
  5
404
330
1F
100
AcDbEntity
  8
Ｓ_１_１
  6
CONTINUOUS
 62
     3
100
AcDbCircle
 10
799.9995070791479
 20
620.0000082479924
 30
0.0
 40
8.500000592824582
100
AcDbArc
 50
90.00000000000001
 51
270.000015258789
  0
LINE
  5
405
330
1F
100
AcDbEntity
  8
Ｓ_１_１
  6
EXLTYPE2
 62
     1
100
AcDbLine
 10
655.5234773995658
 20
637.4722290039049
 30
0.0
 11
655.5234773995658
 21
601.211160195839
 31
0.0
  0
LINE
  5
406
330
1F
100
AcDbEntity
  8
Ｓ_１_１
  6
EXLTYPE2
 62
     1
100
AcDbLine
 10
671.1024123525854
 20
620.0000082479924
 30
0.0
 11
640.0214343714306
 21
620.0000082479926
 31
0.0
  0
LINE
  5
407
330
1F
100
AcDbEntity
  8
Ｓ_１_１
  6
EXLTYPE2
 62
     1
100
AcDbLine
 10
1157.852484110134
 20
510.000016495986
 30
0.0
 11
1066.344288903208
 21
510.0002639358084
 31
0.0
  0
LINE
  5
408
330
1F
100
AcDbEntity
  8
Ｓ_１_１
  6
EXLTYPE2
 62
     1
100
AcDbLine
 10
1106.464429185092
 20
485.0003051757798
 30
0.0
 11
1057.864031301857
 21
485.0000577359563
 31
0.0
  0
LINE
  5
409
330
1F
100
AcDbEntity
  8
Ｓ_１_１
  6
EXLTYPE2
 62
     1
100
AcDbLine
 10
944.4753511788626
 20
637.4722290039049
 30
0.0
 11
944.4753511788626
 21
601.2112839157494
 31
0.0
  0
LINE
  5
40A
330
1F
100
AcDbEntity
  8
Ｓ_１_１
  6
EXLTYPE2
 62
     1
100
AcDbLine
 10
928.8964162258435
 20
620.0002556878148
 30
0.0
 11
959.9773323470426
 21
620.0000082479924
 31
0.0
  0
LINE
  5
40B
330
1F
100
AcDbEntity
  8
Ｓ_１_１
  6
EXLTYPE2
 62
     1
100
AcDbLine
 10
1106.464429185092
 20
535.000222695839
 30
0.0
 11
1057.864031301857
 21
535.000222695839
 31
0.0
  0
LINE
  5
40C
330
1F
100
AcDbEntity
  8
Ｓ_１_１
  6
EXLTYPE2
 62
     1
100
AcDbLine
 10
793.8546483837827
 20
620.0000082479924
 30
0.0
 11
815.0264656478239
 21
620.0000082479924
 31
0.0
  0
LINE
  5
40D
330
1F
100
AcDbEntity
  8
Ｓ_１_１
  6
EXLTYPE2
 62
     1
100
AcDbLine
 10
1033.777620366996
 20
620.0000082479924
 30
0.0
 11
1085.868651828145
 21
620.0000082479924
 31
0.0
  0
LINE
  5
40E
330
1F
100
AcDbEntity
  8
Ｓ_１_１
  6
EXLTYPE2
 62
     1
100
AcDbLine
 10
1120.999539246325
 20
470.000379407726
 30
0.0
 11
1120.999415526413
 21
550.0003959037144
 31
0.0
  0
LINE
  5
40F
330
1F
100
AcDbEntity
  8
Ｓ_１_１
  6
EXLTYPE2
 62
     1
100
AcDbLine
 10
806.1441801946461
 20
620.0000082479924
 30
0.0
 11
784.9723010706492
 21
620.0000082479924
 31
0.0
  0
LINE
  5
410
330
1F
100
AcDbEntity
  8
Ｓ_１_１
  6
EXLTYPE2
 62
     1
100
AcDbLine
 10
566.2212082114324
 20
620.0000082479926
 30
0.0
 11
514.1302386102393
 21
620.0000082479926
 31
0.0
  0
LINE
  5
411
330
1F
100
AcDbEntity
  8
Ｓ_１_１
  6
EXLTYPE2
 62
     1
100
AcDbLine
 10
799.999321499281
 20
786.3717403927346
 30
0.0
 11
799.9995070791479
 21
265.421835409627
 31
0.0
  0
LINE
  5
412
330
1F
100
AcDbEntity
  8
Ｓ_１_１
  6
EXLTYPE2
 62
     1
100
AcDbLine
 10
493.5342756734258
 20
535.0000989759271
 30
0.0
 11
542.134797276572
 21
535.0000989759271
 31
0.0
  0
LINE
  5
413
330
1F
100
AcDbEntity
  8
Ｓ_１_１
  6
EXLTYPE2
 62
     1
100
AcDbLine
 10
478.9994130520153
 20
470.0000082479925
 30
0.0
 11
478.9994130520153
 21
550.0000247439809
 31
0.0
  0
LINE
  5
414
330
1F
100
AcDbEntity
  8
Ｓ_１_１
  6
EXLTYPE2
 62
     1
100
AcDbLine
 10
442.146344468295
 20
510.0000164959862
 30
0.0
 11
533.654601535176
 21
510.0000164959862
 31
0.0
  0
LINE
  5
415
330
1F
100
AcDbEntity
  8
Ｓ_１_１
  6
EXLTYPE2
 62
     1
100
AcDbLine
 10
493.5342756734258
 20
485.0000577359566
 30
0.0
 11
542.134797276572
 21
485.0000577359566
 31
0.0
  0
LINE
  5
416
330
1F
100
AcDbEntity
  8
Ｓ_１_１
  6
EXLTYPE2
 62
     1
100
AcDbLine
 10
800.0000000000005
 20
796.40614880065
 30
0.0
 11
800.0000000000005
 21
256.0000000006499
 31
0.0
  0
CIRCLE
  5
417
330
1F
100
AcDbEntity
  8
Ｓ_１_１
  6
CONTINUOUS
 62
     3
100
AcDbCircle
 10
799.99999999999
 20
405.0004196741199
 30
0.0
 40
12.00000000000001
  0
CIRCLE
  5
418
330
1F
100
AcDbEntity
  8
Ｓ_１_１
  6
CONTINUOUS
 62
     3
100
AcDbCircle
 10
799.99999999999
 20
405.0004196741199
 30
0.0
 40
13.00000000000001
  0
CIRCLE
  5
419
330
1F
100
AcDbEntity
  8
Ｓ_１_１
  6
CONTINUOUS
 62
     3
100
AcDbCircle
 10
799.99999999999
 20
405.0004196741199
 30
0.0
 40
1.5
  0
CIRCLE
  5
41A
330
1F
100
AcDbEntity
  8
Ｓ_１_１
  6
CONTINUOUS
 62
     3
100
AcDbCircle
 10
799.99999999999
 20
405.0004196741199
 30
0.0
 40
3.500000000000002
  0
CIRCLE
  5
41B
330
1F
100
AcDbEntity
  8
Ｓ_１_１
  6
CONTINUOUS
 62
     3
100
AcDbCircle
 10
799.99999999999
 20
405.0004196741199
 30
0.0
 40
4.5
  0
CIRCLE
  5
41C
330
1F
100
AcDbEntity
  8
Ｓ_１_１
  6
CONTINUOUS
 62
     3
100
AcDbCircle
 10
799.99999999999
 20
405.0004196741199
 30
0.0
 40
5.5
  0
CIRCLE
  5
41D
330
1F
100
AcDbEntity
  8
Ｓ_１_１
  6
CONTINUOUS
 62
     3
100
AcDbCircle
 10
799.99999999999
 20
405.0004196741199
 30
0.0
 40
9.0
  0
LINE
  5
41E
330
1F
100
AcDbEntity
  8
Ｓ_１_１
  6
CONTINUOUS
 62
     3
100
AcDbLine
 10
799.9998266143898
 20
422.8982196788201
 30
0.0
 11
784.4999596254897
 21
413.9493671397198
 31
0.0
  0
LINE
  5
41F
330
1F
100
AcDbEntity
  8
Ｓ_１_１
  6
CONTINUOUS
 62
     3
100
AcDbLine
 10
784.4999999999894
 20
413.9493637659201
 30
0.0
 11
784.4999999999894
 21
396.05144506472
 31
0.0
  0
LINE
  5
420
330
1F
100
AcDbEntity
  8
Ｓ_１_１
  6
CONTINUOUS
 62
     3
100
AcDbLine
 10
799.9996782772901
 20
387.1023993368198
 30
0.0
 11
784.4995998563903
 21
396.0513739462202
 31
0.0
  0
LINE
  5
421
330
1F
100
AcDbEntity
  8
Ｓ_１_１
  6
CONTINUOUS
 62
     3
100
AcDbLine
 10
815.4998266143897
 20
396.0514326433198
 30
0.0
 11
799.9999596254896
 21
387.1025801043201
 31
0.0
  0
LINE
  5
422
330
1F
100
AcDbEntity
  8
Ｓ_１_１
  6
CONTINUOUS
 62
     3
100
AcDbLine
 10
815.4999999999895
 20
413.9493637659201
 30
0.0
 11
815.4999999999895
 21
396.05144506472
 31
0.0
  0
LINE
  5
423
330
1F
100
AcDbEntity
  8
Ｓ_１_１
  6
CONTINUOUS
 62
     3
100
AcDbLine
 10
799.9995998563904
 20
422.89816098172
 30
0.0
 11
815.49967827729
 21
413.94918637232
 31
0.0
  0
CIRCLE
  5
424
330
1F
100
AcDbEntity
  8
Ｓ_１_１
  6
CONTINUOUS
 62
     3
100
AcDbCircle
 10
799.99999999999
 20
405.0004196741199
 30
0.0
 40
15.49969850138655
  0
LINE
  5
425
330
1F
100
AcDbEntity
  8
Ｓ_１_１
  6
EXLTYPE2
 62
     1
100
AcDbLine
 10
781.8789653438001
 20
405.0004196741198
 30
0.0
 11
819.5589653438
 21
405.0004196741198
 31
0.0
  0
TEXT
  5
426
330
1F
100
AcDbEntity
  8
Ｓ_１_１
  6
CONTINUOUS
 62
     4
100
AcDbText
 10
995.7
 20
931.40319174722
 30
0.0
 40
20.77742494226328
  1
2-M20ネジ深35
 41
0.999230769230769
  7
EXCADTTF1
 72
     5
 11
1171.2
 21
931.40319174722
 31
0.0
100
AcDbText
  0
LEADER
  5
427
330
1F
100
AcDbEntity
  8
Ｓ_１_１
  6
CONTINUOUS
 62
     2
100
AcDbLeader
  3
ISO-25
 76
     3
 10
806.59953478681
 20
627.51247702574
 30
0.0
 10
978.12674312458
 20
924.60631674722
 30
0.0
 10
1171.2
 20
924.60631674722
 30
0.0
1001
ACAD
1000
DSTYLE
1002
{
1070
     5
1000
EX_NORM
1070
    41
1040
18.0
1070
   341
1005
79
1002
}
  0
TEXT
  5
428
330
1F
100
AcDbEntity
  8
Ｓ_１_１
  6
CONTINUOUS
 62
     4
100
AcDbText
 10
1122.0
 20
781.27766509106
 30
0.0
 40
20.77742494226328
  1
6-26キリ深25
 41
0.9992307692307689
  7
EXCADTTF1
 72
     5
 11
1284.0
 21
781.27766509106
 31
0.0
100
AcDbText
  0
LEADER
  5
429
330
1F
100
AcDbEntity
  8
Ｓ_１_１
  6
CONTINUOUS
 62
     2
100
AcDbLeader
  3
ISO-25
 76
     3
 10
954.5115993779499
 20
626.07317956006
 30
0.0
 10
1102.9192099089
 20
774.48079009106
 30
0.0
 10
1284.0
 20
774.48079009106
 30
0.0
1001
ACAD
1000
DSTYLE
1002
{
1070
     5
1000
EX_NORM
1070
    41
1040
18.0
1070
   341
1005
79
1002
}
  0
TEXT
  5
42A
330
1F
100
AcDbEntity
  8
Ｓ_１_１
  6
CONTINUOUS
 62
     4
100
AcDbText
 10
1149.9993657393
 20
672.1620930000001
 30
0.0
 40
20.77742494226328
  1
安全ナット
 41
0.9992307692307689
  7
EXCADTTF1
 72
     5
 11
1284.9993657393
 21
672.1620930000001
 31
0.0
100
AcDbText
  0
LEADER
  5
42B
330
1F
100
AcDbEntity
  8
Ｓ_１_１
  6
CONTINUOUS
 62
     2
100
AcDbLeader
  3
ISO-25
 76
     3
 10
1074.9993627393
 20
594.6
 30
0.0
 10
1140.9993657393
 20
664.6
 30
0.0
 10
1282.8
 20
664.6
 30
0.0
1001
ACAD
1000
DSTYLE
1002
{
1070
     5
1000
EX_NORM
1070
    41
1040
18.0
1070
   341
1005
79
1002
}
  0
LINE
  5
42C
330
1F
100
AcDbEntity
  8
Ｓ_１_１
  6
CONTINUOUS
 62
     3
100
AcDbLine
 10
1072.999306652892
 20
775.0000247439806
 30
0.0
 11
526.99939820563
 21
775.0000247439815
 31
0.0
  0
LINE
  5
42D
330
1F
100
AcDbEntity
  8
Ｓ_１_１
  6
CONTINUOUS
 62
     3
100
AcDbLine
 10
524.9993421192662
 20
772.9999686576209
 30
0.0
 11
1074.999362739251
 21
772.9999686576206
 31
0.0
  0
LINE
  5
42E
330
1F
100
AcDbEntity
  8
Ｓ_１_１
  6
CONTINUOUS
 62
     3
100
AcDbLine
 10
1074.999362739251
 20
697.5066973711978
 30
0.0
 11
524.9993421192662
 21
697.5064499312366
 31
0.0
  0
LINE
  5
42F
330
1F
100
AcDbEntity
  8
Ｓ_１_１
  6
CONTINUOUS
 62
     3
100
AcDbLine
 10
1073.002152210852
 20
695.402097959774
 30
0.0
 11
526.9989752124786
 21
695.4018505209096
 31
0.0
  0
LINE
  5
430
330
1F
100
AcDbEntity
  8
Ｓ_１_１
  6
CONTINUOUS
 62
     3
100
AcDbLine
 10
969.9257741359997
 20
689.999991752004
 30
0.0
 11
630.0728913922933
 21
689.9999917520045
 31
0.0
  0
LINE
  5
431
330
1F
100
AcDbEntity
  8
Ｓ_１_１
  6
CONTINUOUS
 62
     3
100
AcDbLine
 10
983.4995804862951
 20
680.0000824799395
 30
0.0
 11
616.4992413501311
 21
679.9998350399861
 31
0.0
  0
LINE
  5
432
330
1F
100
AcDbEntity
  8
Ｓ_１_１
  6
CONTINUOUS
 62
     3
100
AcDbLine
 10
987.499321499281
 20
675.9999703072194
 30
0.0
 11
612.4995031204061
 21
675.9997228672721
 31
0.0
  0
LINE
  5
433
330
1F
100
AcDbEntity
  8
Ｓ_１_１
  6
CONTINUOUS
 62
     3
100
AcDbLine
 10
527.99942624881
 20
670.0001732078745
 30
0.0
 11
1071.999278609712
 21
670.000173207874
 31
0.0
  0
LINE
  5
434
330
1F
100
AcDbEntity
  8
Ｓ_１_１
  6
CONTINUOUS
 62
     3
100
AcDbLine
 10
1074.999362739251
 20
667.0002127982457
 30
0.0
 11
524.9994039792218
 21
666.9999653583124
 31
0.0
  0
LINE
  5
435
330
1F
100
AcDbEntity
  8
Ｓ_１_１
  6
CONTINUOUS
 62
     3
100
AcDbLine
 10
1074.999362739251
 20
573.0001748574728
 30
0.0
 11
524.9994039792218
 21
573.0001748574728
 31
0.0
  0
LINE
  5
436
330
1F
100
AcDbEntity
  8
Ｓ_１_１
  6
CONTINUOUS
 62
     3
100
AcDbLine
 10
1076.999418825611
 20
570.0003381677557
 30
0.0
 11
522.999409753041
 21
569.9998432882765
 31
0.0
  0
LINE
  5
437
330
1F
100
AcDbEntity
  8
Ｓ_１_１
  6
CONTINUOUS
 62
     3
100
AcDbLine
 10
1079.999502955151
 20
567.0001303183049
 30
0.0
 11
519.9993874832335
 21
567.0001303183047
 31
0.0
  0
LINE
  5
438
330
1F
100
AcDbEntity
  8
Ｓ_１_１
  6
CONTINUOUS
 62
     3
100
AcDbLine
 10
1079.999502955151
 20
283.0002078494495
 30
0.0
 11
519.9993874832335
 21
282.9997129696952
 31
0.0
  0
LINE
  5
439
330
1F
100
AcDbEntity
  8
Ｓ_１_１
  6
CONTINUOUS
 62
     3
100
AcDbLine
 10
522.99978091962
 20
279.9996288408449
 30
0.0
 11
1076.999666265434
 21
280.0003711597324
 31
0.0
  0
LINE
  5
43A
330
1F
100
AcDbEntity
  8
Ｓ_１_１
  6
CONTINUOUS
 62
     3
100
AcDbLine
 10
1599.999387483234
 20
282.9999604089663
 30
0.0
 11
2159.999502955151
 21
282.9999604089664
 31
0.0
  0
LINE
  5
43B
330
1F
100
AcDbEntity
  8
Ｓ_１_１
  6
CONTINUOUS
 62
     3
100
AcDbLine
 10
2156.9996662654
 20
279.999999999338
 30
0.0
 11
1602.999409752818
 21
279.999999999338
 31
0.0
  0
LINE
  5
43C
330
1F
100
AcDbEntity
  8
Ｓ_１_１
  6
CONTINUOUS
 62
     3
100
AcDbLine
 10
1604.999403979222
 20
573.0001748568125
 30
0.0
 11
2154.999362739251
 21
573.0001748568125
 31
0.0
  0
LINE
  5
43D
330
1F
100
AcDbEntity
  8
Ｓ_１_１
  6
CONTINUOUS
 62
     3
100
AcDbLine
 10
1602.999409752818
 20
570.0000907272729
 30
0.0
 11
2156.9994188256
 21
570.000090727272
 31
0.0
  0
LINE
  5
43E
330
1F
100
AcDbEntity
  8
Ｓ_１_１
  6
CONTINUOUS
 62
     3
100
AcDbLine
 10
1599.999387483234
 20
567.0001303176446
 30
0.0
 11
2159.999502955151
 21
567.0001303176447
 31
0.0
  0
LINE
  5
43F
330
1F
100
AcDbEntity
  8
Ｓ_１_１
  6
CONTINUOUS
 62
     3
100
AcDbLine
 10
1604.999403979222
 20
667.0000890776741
 30
0.0
 11
2154.999362739251
 21
667.0000890776741
 31
0.0
  0
LINE
  5
440
330
1F
100
AcDbEntity
  8
Ｓ_１_１
  6
CONTINUOUS
 62
     3
100
AcDbLine
 10
2151.9992786097
 20
670.0001732072135
 30
0.0
 11
1607.999426248806
 21
670.0001732072137
 31
0.0
  0
LINE
  5
441
330
1F
100
AcDbEntity
  8
Ｓ_１_１
  6
CONTINUOUS
 62
     3
100
AcDbLine
 10
1692.499507079148
 20
675.9998465866479
 30
0.0
 11
2067.4993214993
 21
675.999846586648
 31
0.0
  0
LINE
  5
442
330
1F
100
AcDbEntity
  8
Ｓ_１_１
  6
CONTINUOUS
 62
     3
100
AcDbLine
 10
1696.499248092134
 20
679.999958759367
 30
0.0
 11
2063.4995804863
 21
679.9999587593671
 31
0.0
  0
LINE
  5
443
330
1F
100
AcDbEntity
  8
Ｓ_１_１
  6
CONTINUOUS
 62
     3
100
AcDbLine
 10
1710.072868862563
 20
689.9999917513437
 30
0.0
 11
2049.925751606269
 21
689.9999917513434
 31
0.0
  0
LINE
  5
444
330
1F
100
AcDbEntity
  8
Ｓ_１_１
  6
CONTINUOUS
 62
     3
100
AcDbLine
 10
1606.996614507622
 20
695.4019742392024
 30
0.0
 11
2152.999791538945
 21
695.401974239202
 31
0.0
  0
LINE
  5
445
330
1F
100
AcDbEntity
  8
Ｓ_１_１
  6
CONTINUOUS
 62
     3
100
AcDbLine
 10
1604.999342119266
 20
697.5065736506263
 30
0.0
 11
2154.999362739251
 21
697.5065736506263
 31
0.0
  0
LINE
  5
446
330
1F
100
AcDbEntity
  8
Ｓ_１_１
  6
CONTINUOUS
 62
     3
100
AcDbLine
 10
2154.999362739251
 20
772.9999686569602
 30
0.0
 11
1604.999342119266
 21
772.9999686569603
 31
0.0
  0
LINE
  5
447
330
1F
100
AcDbEntity
  8
Ｓ_１_１
  6
CONTINUOUS
 62
     3
100
AcDbLine
 10
1606.999398205626
 20
774.9999010234083
 30
0.0
 11
2152.999306652844
 21
775.0001484632598
 31
0.0
  0
POLYLINE
  5
448
330
1F
100
AcDbEntity
  8
Ｓ_１_１
  6
CONTINUOUS
 62
     3
100
AcDb2dPolyline
 66
     1
 10
0.0
 20
0.0
 30
0.0
 70
   128
  0
VERTEX
  5
449
330
448
100
AcDbEntity
  8
Ｓ_１_１
  6
CONTINUOUS
 62
     3
100
AcDbVertex
100
AcDb2dVertex
 10
799.999999999996
 20
478.8565765275116
 30
0.0
  0
VERTEX
  5
44A
330
448
100
AcDbEntity
  8
Ｓ_１_１
  6
CONTINUOUS
 62
     3
100
AcDbVertex
100
AcDb2dVertex
 10
811.999999999996
 20
471.9283732972354
 30
0.0
  0
VERTEX
  5
44B
330
448
100
AcDbEntity
  8
Ｓ_１_１
  6
CONTINUOUS
 62
     3
100
AcDbVertex
100
AcDb2dVertex
 10
811.999999999996
 20
458.0719668366847
 30
0.0
  0
VERTEX
  5
44C
330
448
100
AcDbEntity
  8
Ｓ_１_１
  6
CONTINUOUS
 62
     3
100
AcDbVertex
100
AcDb2dVertex
 10
799.999999999996
 20
451.1437636064084
 30
0.0
  0
VERTEX
  5
44D
330
448
100
AcDbEntity
  8
Ｓ_１_１
  6
CONTINUOUS
 62
     3
100
AcDbVertex
100
AcDb2dVertex
 10
787.999999999996
 20
458.0719668366847
 30
0.0
  0
VERTEX
  5
44E
330
448
100
AcDbEntity
  8
Ｓ_１_１
  6
CONTINUOUS
 62
     3
100
AcDbVertex
100
AcDb2dVertex
 10
787.999999999996
 20
471.9283732972354
 30
0.0
  0
VERTEX
  5
44F
330
448
100
AcDbEntity
  8
Ｓ_１_１
  6
CONTINUOUS
 62
     3
100
AcDbVertex
100
AcDb2dVertex
 10
799.999999999996
 20
478.8565765275116
 30
0.0
  0
SEQEND
  5
450
330
448
100
AcDbEntity
  8
Ｓ_１_１
  6
CONTINUOUS
 62
     3
  0
CIRCLE
  5
451
330
1F
100
AcDbEntity
  8
Ｓ_１_１
  6
CONTINUOUS
 62
     3
100
AcDbCircle
 10
799.999999999996
 20
465.00017006696
 30
0.0
 40
12.00000000000102
  0
CIRCLE
  5
452
330
1F
100
AcDbEntity
  8
Ｓ_１_１
  6
CONTINUOUS
 62
     3
100
AcDbCircle
 10
799.999999999996
 20
465.00017006696
 30
0.0
 40
10.72532284355114
  0
CIRCLE
  5
453
330
1F
100
AcDbEntity
  8
Ｓ_１_１
  6
CONTINUOUS
 62
     3
100
AcDbCircle
 10
799.999999999996
 20
465.00017006696
 30
0.0
 40
6.323600530683808
  0
CIRCLE
  5
454
330
1F
100
AcDbEntity
  8
Ｓ_１_１
  6
CONTINUOUS
 62
     3
100
AcDbCircle
 10
799.999999999996
 20
465.00017006696
 30
0.0
 40
4.217842489549019
  0
LINE
  5
455
330
1F
100
AcDbEntity
  8
Ｓ_１_１
  6
CONTINUOUS
 62
     3
100
AcDbLine
 10
848.9999999999905
 20
469.2501700669592
 30
0.0
 11
853.9999999999906
 21
469.2501700669592
 31
0.0
  0
LINE
  5
456
330
1F
100
AcDbEntity
  8
Ｓ_１_１
  6
CONTINUOUS
 62
     3
100
AcDbLine
 10
848.9999999999905
 20
460.7501700669592
 30
0.0
 11
853.9999999999906
 21
460.7501700669592
 31
0.0
  0
LINE
  5
457
330
1F
100
AcDbEntity
  8
Ｓ_１_１
  6
CONTINUOUS
 62
     3
100
AcDbLine
 10
848.9999999999905
 20
460.0001700669592
 30
0.0
 11
853.2499999999906
 21
460.0001700669592
 31
0.0
  0
LINE
  5
458
330
1F
100
AcDbEntity
  8
Ｓ_１_１
  6
CONTINUOUS
 62
     3
100
AcDbLine
 10
848.9999999999905
 20
470.0001700669592
 30
0.0
 11
853.2499999999906
 21
470.0001700669592
 31
0.0
  0
LINE
  5
459
330
1F
100
AcDbEntity
  8
Ｓ_１_１
  6
CONTINUOUS
 62
     3
100
AcDbLine
 10
853.9999999999906
 20
460.7501700669592
 30
0.0
 11
853.9999999999906
 21
469.2501700669592
 31
0.0
  0
LINE
  5
45A
330
1F
100
AcDbEntity
  8
Ｓ_１_１
  6
CONTINUOUS
 62
     3
100
AcDbLine
 10
853.2499999999906
 20
460.0001700669592
 30
0.0
 11
853.2499999999906
 21
470.0001700669592
 31
0.0
  0
LINE
  5
45B
330
1F
100
AcDbEntity
  8
Ｓ_１_１
  6
CONTINUOUS
 62
     3
100
AcDbLine
 10
853.2500025576907
 20
460.0001711919591
 30
0.0
 11
854.0000006564906
 21
460.7501693539591
 31
0.0
  0
LINE
  5
45C
330
1F
100
AcDbEntity
  8
Ｓ_１_１
  6
CONTINUOUS
 62
     3
100
AcDbLine
 10
854.0000016469903
 20
469.250171992259
 30
0.0
 11
853.2500014618905
 21
470.000172114059
 31
0.0
  0
LINE
  5
45D
330
1F
100
AcDbEntity
  8
Ｓ_１_１
  6
CONTINUOUS
 62
     3
100
AcDbLine
 10
841.9999999999906
 20
465.0001700669592
 30
0.0
 11
841.9999999999906
 21
475.0001700669592
 31
0.0
  0
LINE
  5
45E
330
1F
100
AcDbEntity
  8
Ｓ_１_１
  6
CONTINUOUS
 62
     3
100
AcDbLine
 10
841.9999999999906
 20
455.0001700669592
 30
0.0
 11
841.9999999999906
 21
465.0001700669592
 31
0.0
  0
LINE
  5
45F
330
1F
100
AcDbEntity
  8
Ｓ_１_１
  6
CONTINUOUS
 62
     3
100
AcDbLine
 10
842.0000005509906
 20
475.0001695159591
 30
0.0
 11
843.0000005799903
 21
474.0001694026589
 31
0.0
  0
LINE
  5
460
330
1F
100
AcDbEntity
  8
Ｓ_１_１
  6
CONTINUOUS
 62
     3
100
AcDbLine
 10
843.0000002848906
 20
456.0001702675592
 30
0.0
 11
842.0000004876907
 21
455.000170554659
 31
0.0
  0
LINE
  5
461
330
1F
100
AcDbEntity
  8
Ｓ_１_１
  6
CONTINUOUS
 62
     3
100
AcDbLine
 10
842.9999999999905
 20
456.0001702675592
 30
0.0
 11
842.9999999999905
 21
465.0001700669592
 31
0.0
  0
LINE
  5
462
330
1F
100
AcDbEntity
  8
Ｓ_１_１
  6
CONTINUOUS
 62
     3
100
AcDbLine
 10
842.9999999999905
 20
465.0001700669592
 30
0.0
 11
842.9999999999905
 21
474.0001694026589
 31
0.0
  0
LINE
  5
463
330
1F
100
AcDbEntity
  8
Ｓ_１_１
  6
CONTINUOUS
 62
     3
100
AcDbLine
 10
812.4999999999901
 20
475.0001700669592
 30
0.0
 11
841.9999999999906
 21
475.0001700669592
 31
0.0
  0
LINE
  5
464
330
1F
100
AcDbEntity
  8
Ｓ_１_１
  6
CONTINUOUS
 62
     3
100
AcDbLine
 10
848.9999981655907
 20
472.4925827301592
 30
0.0
 11
847.9999979723904
 21
474.5001693198589
 31
0.0
  0
LINE
  5
465
330
1F
100
AcDbEntity
  8
Ｓ_１_１
  6
CONTINUOUS
 62
     3
100
AcDbLine
 10
848.9999995144905
 20
457.5077563109591
 30
0.0
 11
847.9999993212905
 21
455.5001697212589
 31
0.0
  0
LINE
  5
466
330
1F
100
AcDbEntity
  8
Ｓ_１_１
  6
CONTINUOUS
 62
     3
100
AcDbLine
 10
842.9999999765906
 20
472.4925833731592
 30
0.0
 11
844.0000001697905
 21
474.5001699628589
 31
0.0
  0
LINE
  5
467
330
1F
100
AcDbEntity
  8
Ｓ_１_１
  6
CONTINUOUS
 62
     3
100
AcDbLine
 10
842.9999984858905
 20
457.5077559526591
 30
0.0
 11
843.9999985374903
 21
455.5001696474589
 31
0.0
  0
LINE
  5
468
330
1F
100
AcDbEntity
  8
Ｓ_１_１
  6
CONTINUOUS
 62
     3
100
AcDbLine
 10
843.9999999999906
 20
455.5001700669592
 30
0.0
 11
847.9999999999906
 21
455.5001700669592
 31
0.0
  0
LINE
  5
469
330
1F
100
AcDbEntity
  8
Ｓ_１_１
  6
CONTINUOUS
 62
     3
100
AcDbLine
 10
843.9999999999906
 20
474.5001700669592
 30
0.0
 11
847.9999999999906
 21
474.5001700669592
 31
0.0
  0
LINE
  5
46A
330
1F
100
AcDbEntity
  8
Ｓ_１_１
  6
CONTINUOUS
 62
     3
100
AcDbLine
 10
848.9999999999905
 20
465.0001700669592
 30
0.0
 11
848.9999999999905
 21
472.4925839056592
 31
0.0
  0
LINE
  5
46B
330
1F
100
AcDbEntity
  8
Ｓ_１_１
  6
CONTINUOUS
 62
     3
100
AcDbLine
 10
848.9999999999905
 20
457.5077562282592
 30
0.0
 11
848.9999999999905
 21
465.0001700669592
 31
0.0
  0
ARC
  5
46C
330
1F
100
AcDbEntity
  8
Ｓ_１_１
  6
CONTINUOUS
 62
     3
100
AcDbCircle
 10
858.5416666666907
 20
465.0001700669592
 30
0.0
 40
15.5416666667
100
AcDbArc
 50
159.3345163543002
 51
159.3345238904477
  0
ARC
  5
46D
330
1F
100
AcDbEntity
  8
Ｓ_１_１
  6
CONTINUOUS
 62
     3
100
AcDbCircle
 10
833.4583333332904
 20
465.0001700669592
 30
0.0
 40
15.5416666667
100
AcDbArc
 50
20.66547610955293
 51
20.66547840939962
  0
ARC
  5
46E
330
1F
100
AcDbEntity
  8
Ｓ_１_１
  6
CONTINUOUS
 62
     3
100
AcDbCircle
 10
858.5416666666907
 20
465.0001700669592
 30
0.0
 40
15.5416666667
100
AcDbArc
 50
162.8126324028145
 51
197.1873680951787
  0
ARC
  5
46F
330
1F
100
AcDbEntity
  8
Ｓ_１_１
  6
CONTINUOUS
 62
     3
100
AcDbCircle
 10
858.5416666666907
 20
465.0001700669592
 30
0.0
 40
15.5416666667
100
AcDbArc
 50
200.6654786560356
 51
200.6654800033002
  0
ARC
  5
470
330
1F
100
AcDbEntity
  8
Ｓ_１_１
  6
CONTINUOUS
 62
     3
100
AcDbCircle
 10
833.4583333332904
 20
465.0001700669592
 30
0.0
 40
15.5416666667
100
AcDbArc
 50
342.8126319048212
 51
17.18736759718547
  0
LINE
  5
471
330
1F
100
AcDbEntity
  8
Ｓ_１_１
  6
CONTINUOUS
 62
     3
100
AcDbLine
 10
848.3059641178526
 20
469.5926925616392
 30
0.0
 11
843.6940358821286
 21
469.5926925616392
 31
0.0
  0
LINE
  5
472
330
1F
100
AcDbEntity
  8
Ｓ_１_１
  6
CONTINUOUS
 62
     3
100
AcDbLine
 10
848.3059640779362
 20
460.4076474432292
 30
0.0
 11
843.6940359220449
 21
460.4076474432292
 31
0.0
  0
ARC
  5
473
330
1F
100
AcDbEntity
  8
Ｓ_１_１
  6
CONTINUOUS
 62
     3
100
AcDbCircle
 10
842.9999999999905
 20
457.5077529129691
 30
0.0
 40
6.000000000001596
100
AcDbArc
 50
0.0000417559226242
 51
28.90218407791362
  0
ARC
  5
474
330
1F
100
AcDbEntity
  8
Ｓ_１_１
  6
CONTINUOUS
 62
     3
100
AcDbCircle
 10
848.9999999999905
 20
457.5077572856391
 30
0.0
 40
6.000000000001596
100
AcDbArc
 50
151.0978636188124
 51
180.0000417558857
  0
ARC
  5
475
330
1F
100
AcDbEntity
  8
Ｓ_１_１
  6
CONTINUOUS
 62
     3
100
AcDbCircle
 10
848.9999999999905
 20
472.4925834201391
 30
0.0
 40
6.000000000000005
100
AcDbArc
 50
179.9999920172612
 51
208.9021440266621
  0
ARC
  5
476
330
1F
100
AcDbEntity
  8
Ｓ_１_１
  6
CONTINUOUS
 62
     3
100
AcDbCircle
 10
842.9999999999905
 20
472.4925834201391
 30
0.0
 40
6.000000000001596
100
AcDbArc
 50
331.0978559733464
 51
0.0
  0
LINE
  5
477
330
1F
100
AcDbEntity
  8
Ｓ_１_１
  6
CONTINUOUS
 62
     3
100
AcDbLine
 10
812.4999999999901
 20
455.0001700669592
 30
0.0
 11
841.9999999999906
 21
455.0001700669592
 31
0.0
  0
LINE
  5
478
330
1F
100
AcDbEntity
  8
Ｓ_１_１
  6
CONTINUOUS
 62
     3
100
AcDbLine
 10
787.4999999999898
 20
477.50017006696
 30
0.0
 11
787.4999999999898
 21
452.5001700669602
 31
0.0
  0
LINE
  5
479
330
1F
100
AcDbEntity
  8
Ｓ_１_１
  6
CONTINUOUS
 62
     3
100
AcDbLine
 10
812.4999999999899
 20
477.50017006696
 30
0.0
 11
812.4999999999899
 21
452.50017006696
 31
0.0
  0
ARC
  5
47A
330
1F
100
AcDbEntity
  8
Ｓ_１_１
  6
CONTINUOUS
 62
     3
100
AcDbCircle
 10
799.999999999996
 20
465.00017006696
 30
0.0
 40
15.0
100
AcDbArc
 50
56.44269023807936
 51
123.5573097619206
  0
ARC
  5
47B
330
1F
100
AcDbEntity
  8
Ｓ_１_１
  6
CONTINUOUS
 62
     3
100
AcDbCircle
 10
799.999999999996
 20
465.00017006696
 30
0.0
 40
15.0
100
AcDbArc
 50
146.4426902381223
 51
213.5573097618778
  0
ARC
  5
47C
330
1F
100
AcDbEntity
  8
Ｓ_１_１
  6
CONTINUOUS
 62
     3
100
AcDbCircle
 10
799.999999999996
 20
465.00017006696
 30
0.0
 40
15.0
100
AcDbArc
 50
236.4426902380792
 51
303.5573097619207
  0
ARC
  5
47D
330
1F
100
AcDbEntity
  8
Ｓ_１_１
  6
CONTINUOUS
 62
     3
100
AcDbCircle
 10
799.999999999996
 20
465.00017006696
 30
0.0
 40
15.0
100
AcDbArc
 50
326.4426902380361
 51
33.55730976196409
  0
LINE
  5
47E
330
1F
100
AcDbEntity
  8
Ｓ_１_１
  6
CONTINUOUS
 62
     3
100
AcDbLine
 10
787.4999999999898
 20
452.50017006696
 30
0.0
 11
797.6506350946062
 21
452.50017006696
 31
0.0
  0
LINE
  5
47F
330
1F
100
AcDbEntity
  8
Ｓ_１_１
  6
CONTINUOUS
 62
     3
100
AcDbLine
 10
802.3493649053858
 20
452.50017006696
 30
0.0
 11
812.4999999999898
 21
452.50017006696
 31
0.0
  0
LINE
  5
480
330
1F
100
AcDbEntity
  8
Ｓ_１_１
  6
CONTINUOUS
 62
     3
100
AcDbLine
 10
788.4999999999898
 20
453.50017006696
 30
0.0
 11
795.9185842870376
 21
453.50017006696
 31
0.0
  0
LINE
  5
481
330
1F
100
AcDbEntity
  8
Ｓ_１_１
  6
CONTINUOUS
 62
     3
100
AcDbLine
 10
804.0814157129544
 20
453.50017006696
 30
0.0
 11
811.49999999999
 21
453.50017006696
 31
0.0
  0
LINE
  5
482
330
1F
100
AcDbEntity
  8
Ｓ_１_１
  6
CONTINUOUS
 62
     3
100
AcDbLine
 10
788.4999999999898
 20
457.7832917020934
 30
0.0
 11
788.4999999999898
 21
453.50017006696
 31
0.0
  0
LINE
  5
483
330
1F
100
AcDbEntity
  8
Ｓ_１_１
  6
CONTINUOUS
 62
     3
100
AcDbLine
 10
788.4999999999898
 20
476.50017006696
 30
0.0
 11
788.4999999999898
 21
472.2170484318266
 31
0.0
  0
LINE
  5
484
330
1F
100
AcDbEntity
  8
Ｓ_１_１
  6
CONTINUOUS
 62
     3
100
AcDbLine
 10
811.49999999999
 20
476.50017006696
 30
0.0
 11
811.49999999999
 21
472.2170484318337
 31
0.0
  0
LINE
  5
485
330
1F
100
AcDbEntity
  8
Ｓ_１_１
  6
CONTINUOUS
 62
     3
100
AcDbLine
 10
811.49999999999
 20
457.7832917020863
 30
0.0
 11
811.49999999999
 21
453.50017006696
 31
0.0
  0
LINE
  5
486
330
1F
100
AcDbEntity
  8
Ｓ_１_１
  6
CONTINUOUS
 62
     3
100
AcDbLine
 10
788.4999999999898
 20
476.50017006696
 30
0.0
 11
795.9185842870376
 21
476.50017006696
 31
0.0
  0
LINE
  5
487
330
1F
100
AcDbEntity
  8
Ｓ_１_１
  6
CONTINUOUS
 62
     3
100
AcDbLine
 10
787.4999999999898
 20
477.50017006696
 30
0.0
 11
797.6506350946062
 21
477.50017006696
 31
0.0
  0
LINE
  5
488
330
1F
100
AcDbEntity
  8
Ｓ_１_１
  6
CONTINUOUS
 62
     3
100
AcDbLine
 10
802.3493649053858
 20
477.50017006696
 30
0.0
 11
812.4999999999898
 21
477.50017006696
 31
0.0
  0
LINE
  5
489
330
1F
100
AcDbEntity
  8
Ｓ_１_１
  6
CONTINUOUS
 62
     3
100
AcDbLine
 10
804.0814157129544
 20
476.50017006696
 30
0.0
 11
811.49999999999
 21
476.50017006696
 31
0.0
  0
LINE
  5
48A
330
1F
100
AcDbEntity
  8
Ｓ_１_１
  6
EXLTYPE6
 62
     1
100
AcDbLine
 10
780.5331068038845
 20
465.0001700669555
 30
0.0
 11
857.4799999999898
 21
465.0001700669555
 31
0.0
  0
DIMENSION
  5
48B
330
1F
100
AcDbEntity
  8
Ｓ_１_１
  6
CONTINUOUS
 62
     2
100
AcDbDimension
  2
*D30
 10
1200.0
 20
465.0
 30
0.0
 11
1183.5
 21
435.00020983706
 31
0.0
 70
   160
  3
ISO-25
100
AcDbAlignedDimension
 13
819.5589653438
 23
405.00041967412
 33
0.0
 14
859.9999999999999
 24
465.0
 34
0.0
 50
90.0
100
AcDbRotatedDimension
1001
ACAD
1000
DSTYLE
1002
{
1070
   270
1070
     2
1070
     6
1000
EX_NORM
1070
     7
1000
EX_NORM
1070
    41
1040
18.0
1070
    42
1040
9.0
1070
    44
1040
6.0
1070
    73
1070
     0
1070
    74
1070
     0
1070
    75
1070
     0
1070
    76
1070
     0
1070
    77
1070
     1
1070
    78
1070
     8
1070
   140
1040
20.77742494226328
1070
   147
1040
0.0
1070
   173
1070
     1
1070
   176
1070
     2
1070
   177
1070
     2
1070
   178
1070
     2
1070
   271
1070
     2
1070
   277
1070
     2
1070
   279
1070
     2
1070
   280
1070
     0
1070
   287
1070
     5
1070
   340
1005
190
1002
}
  0
LINE
  5
498
330
1F
100
AcDbEntity
  8
Ｓ_１_１
  6
CONTINUOUS
 62
     3
100
AcDbLine
 10
1593.637111483191
 20
453.4998447849899
 30
0.0
 11
1593.637111483191
 21
464.99984478499
 31
0.0
  0
LINE
  5
499
330
1F
100
AcDbEntity
  8
Ｓ_１_１
  6
CONTINUOUS
 62
     3
100
AcDbLine
 10
1593.637111483191
 20
464.99984478499
 30
0.0
 11
1593.637111483191
 21
476.49984478499
 31
0.0
  0
LINE
  5
49A
330
1F
100
AcDbEntity
  8
Ｓ_１_１
  6
CONTINUOUS
 62
     3
100
AcDbLine
 10
1592.637111483191
 20
477.4998447849899
 30
0.0
 11
1577.137111483191
 21
477.4998447849899
 31
0.0
  0
LINE
  5
49B
330
1F
100
AcDbEntity
  8
Ｓ_１_１
  6
CONTINUOUS
 62
     3
100
AcDbLine
 10
1561.637111483191
 20
477.4998447849899
 30
0.0
 11
1577.137111483191
 21
477.4998447849899
 31
0.0
  0
LINE
  5
49C
330
1F
100
AcDbEntity
  8
Ｓ_１_１
  6
CONTINUOUS
 62
     3
100
AcDbLine
 10
1560.637111483191
 20
453.4998447849899
 30
0.0
 11
1560.637111483191
 21
464.99984478499
 31
0.0
  0
LINE
  5
49D
330
1F
100
AcDbEntity
  8
Ｓ_１_１
  6
CONTINUOUS
 62
     3
100
AcDbLine
 10
1560.637111483191
 20
464.99984478499
 30
0.0
 11
1560.637111483191
 21
476.49984478499
 31
0.0
  0
LINE
  5
49E
330
1F
100
AcDbEntity
  8
Ｓ_１_１
  6
CONTINUOUS
 62
     3
100
AcDbLine
 10
1560.637109924491
 20
476.49984615389
 30
0.0
 11
1561.637110058891
 21
477.4998462038899
 31
0.0
  0
LINE
  5
49F
330
1F
100
AcDbEntity
  8
Ｓ_１_１
  6
CONTINUOUS
 62
     3
100
AcDbLine
 10
1592.637112580291
 20
477.4998455716897
 30
0.0
 11
1593.637112293191
 21
476.4998457745898
 31
0.0
  0
LINE
  5
4A0
330
1F
100
AcDbEntity
  8
Ｓ_１_１
  6
CONTINUOUS
 62
     3
100
AcDbLine
 10
1592.63711140739
 20
452.4998448330899
 30
0.0
 11
1593.637111450191
 21
453.49984496019
 31
0.0
  0
LINE
  5
4A1
330
1F
100
AcDbEntity
  8
Ｓ_１_１
  6
CONTINUOUS
 62
     3
100
AcDbLine
 10
1592.63711148319
 20
452.49984478499
 30
0.0
 11
1577.137111483191
 21
452.49984478499
 31
0.0
  0
LINE
  5
4A2
330
1F
100
AcDbEntity
  8
Ｓ_１_１
  6
CONTINUOUS
 62
     3
100
AcDbLine
 10
1560.637111020391
 20
453.4998444965901
 30
0.0
 11
1561.637110817491
 21
452.4998447836899
 31
0.0
  0
LINE
  5
4A3
330
1F
100
AcDbEntity
  8
Ｓ_１_１
  6
CONTINUOUS
 62
     3
100
AcDbLine
 10
1561.637111483191
 20
452.49984478499
 30
0.0
 11
1577.137111483191
 21
452.49984478499
 31
0.0
  0
LINE
  5
4A4
330
1F
100
AcDbEntity
  8
Ｓ_１_１
  6
CONTINUOUS
 62
     3
100
AcDbLine
 10
1561.637111483191
 20
452.49984478499
 30
0.0
 11
1561.637111483191
 21
477.4998447849899
 31
0.0
  0
LINE
  5
4A5
330
1F
100
AcDbEntity
  8
Ｓ_１_１
  6
CONTINUOUS
 62
     3
100
AcDbLine
 10
1592.63711148319
 20
452.49984478499
 30
0.0
 11
1592.637111483191
 21
477.4998447849899
 31
0.0
  0
LINE
  5
4A6
330
1F
100
AcDbEntity
  8
Ｓ_１_１
  6
CONTINUOUS
 62
     3
100
AcDbLine
 10
1559.27483948318
 20
473.26470678499
 30
0.0
 11
1559.27483948318
 21
456.73498978499
 31
0.0
  0
LINE
  5
4A7
330
1F
100
AcDbEntity
  8
Ｓ_１_１
  6
CONTINUOUS
 62
     3
100
AcDbLine
 10
1553.13713848318
 20
457.81996378499
 30
0.0
 11
1559.27485148318
 21
457.43635578499
 31
0.0
  0
LINE
  5
4A8
330
1F
100
AcDbEntity
  8
Ｓ_１_１
  6
CONTINUOUS
 62
     3
100
AcDbLine
 10
1553.13712048318
 20
457.11859378499
 30
0.0
 11
1560.63713448318
 21
456.6498427849901
 31
0.0
  0
LINE
  5
4A9
330
1F
100
AcDbEntity
  8
Ｓ_１_１
  6
CONTINUOUS
 62
     3
100
AcDbLine
 10
1559.27483148318
 20
457.43637078499
 30
0.0
 11
1560.63711448318
 21
456.6498557849901
 31
0.0
  0
LINE
  5
4AA
330
1F
100
AcDbEntity
  8
Ｓ_１_１
  6
CONTINUOUS
 62
     3
100
AcDbLine
 10
1553.13710848318
 20
472.8810947849899
 30
0.0
 11
1560.63715348318
 21
473.3498477849899
 31
0.0
  0
LINE
  5
4AB
330
1F
100
AcDbEntity
  8
Ｓ_１_１
  6
CONTINUOUS
 62
     3
100
AcDbLine
 10
1560.63713048318
 20
473.34983378499
 30
0.0
 11
1559.27486048318
 21
472.5633277849899
 31
0.0
  0
LINE
  5
4AC
330
1F
100
AcDbEntity
  8
Ｓ_１_１
  6
CONTINUOUS
 62
     3
100
AcDbLine
 10
1553.13712648318
 20
472.1797327849901
 30
0.0
 11
1559.27486948318
 21
472.56334178499
 31
0.0
  0
LINE
  5
4AD
330
1F
100
AcDbEntity
  8
Ｓ_１_１
  6
CONTINUOUS
 62
     3
100
AcDbLine
 10
1599.9994024832
 20
472.2508337849901
 30
0.0
 11
1594.9993924832
 21
472.56333478499
 31
0.0
  0
LINE
  5
4AE
330
1F
100
AcDbEntity
  8
Ｓ_１_１
  6
CONTINUOUS
 62
     3
100
AcDbLine
 10
1599.9993904832
 20
472.9521977849901
 30
0.0
 11
1593.6371394832
 21
473.34983778499
 31
0.0
  0
LINE
  5
4AF
330
1F
100
AcDbEntity
  8
Ｓ_１_１
  6
CONTINUOUS
 62
     3
100
AcDbLine
 10
1594.9993834832
 20
473.26470678499
 30
0.0
 11
1594.9993834832
 21
456.73498978499
 31
0.0
  0
LINE
  5
4B0
330
1F
100
AcDbEntity
  8
Ｓ_１_１
  6
CONTINUOUS
 62
     3
100
AcDbLine
 10
1593.6370924832
 20
473.3498567849901
 30
0.0
 11
1594.9993754832
 21
472.56334278499
 31
0.0
  0
LINE
  5
4B1
330
1F
100
AcDbEntity
  8
Ｓ_１_１
  6
CONTINUOUS
 62
     3
100
AcDbLine
 10
1599.9993904832
 20
457.7488587849899
 30
0.0
 11
1594.9993804832
 21
457.43635778499
 31
0.0
  0
LINE
  5
4B2
330
1F
100
AcDbEntity
  8
Ｓ_１_１
  6
CONTINUOUS
 62
     3
100
AcDbLine
 10
1599.9993774832
 20
457.0474947849901
 30
0.0
 11
1593.6371274832
 21
456.6498547849901
 31
0.0
  0
LINE
  5
4B3
330
1F
100
AcDbEntity
  8
Ｓ_１_１
  6
CONTINUOUS
 62
     3
100
AcDbLine
 10
1594.9993914832
 20
457.4363477849901
 30
0.0
 11
1593.6371214832
 21
456.6498407849901
 31
0.0
  0
ARC
  5
4B4
330
1F
100
AcDbEntity
  8
Ｓ_１_１
  6
CONTINUOUS
 62
     3
100
AcDbCircle
 10
1552.270945483181
 20
475.3921332849797
 30
0.0
 40
6.133925000000001
100
AcDbArc
 50
145.6154380000004
 51
214.3845830000003
  0
ARC
  5
4B5
330
1F
100
AcDbEntity
  8
Ｓ_１_１
  6
CONTINUOUS
 62
     3
100
AcDbCircle
 10
1569.065257483182
 20
464.9998292849797
 30
0.0
 40
22.927938
100
AcDbArc
 50
162.411858
 51
197.5881660000002
  0
ARC
  5
4B6
330
1F
100
AcDbEntity
  8
Ｓ_１_１
  6
CONTINUOUS
 62
     3
100
AcDbCircle
 10
1547.003245483182
 20
454.60749528498
 30
0.0
 40
6.133925000000001
100
AcDbArc
 50
325.6154019999991
 51
34.38456099999978
  0
ARC
  5
4B7
330
1F
100
AcDbEntity
  8
Ｓ_１_１
  6
CONTINUOUS
 62
     3
100
AcDbCircle
 10
1509.137278483181
 20
460.4998292849802
 30
0.0
 40
1.0
100
AcDbArc
 50
179.9999779999953
 51
269.9999749999977
  0
ARC
  5
4B8
330
1F
100
AcDbEntity
  8
Ｓ_１_１
  6
CONTINUOUS
 62
     3
100
AcDbCircle
 10
1552.270945483181
 20
454.60749528498
 30
0.0
 40
6.133925000000001
100
AcDbArc
 50
145.6153689999997
 51
214.384513999999
  0
ARC
  5
4B9
330
1F
100
AcDbEntity
  8
Ｓ_１_１
  6
CONTINUOUS
 62
     3
100
AcDbCircle
 10
1530.209178483181
 20
464.9998292849797
 30
0.0
 40
22.927942
100
AcDbArc
 50
342.4118210000002
 51
17.58811500000014
  0
ARC
  5
4BA
330
1F
100
AcDbEntity
  8
Ｓ_１_１
  6
CONTINUOUS
 62
     3
100
AcDbCircle
 10
1547.003245483182
 20
475.3921332849797
 30
0.0
 40
6.133925000000001
100
AcDbArc
 50
325.6154159999999
 51
34.38457399999984
  0
ARC
  5
4BB
330
1F
100
AcDbEntity
  8
Ｓ_１_１
  6
CONTINUOUS
 62
     3
100
AcDbCircle
 10
1509.137278483181
 20
469.4997992849796
 30
0.0
 40
1.0
100
AcDbArc
 50
89.99999700000235
 51
179.9999780000017
  0
LINE
  5
4BC
330
1F
100
AcDbEntity
  8
Ｓ_１_１
  6
CONTINUOUS
 62
     3
100
AcDbLine
 10
1506.137156483182
 20
463.4998602849798
 30
0.0
 11
1506.137156483182
 21
466.4998292849797
 31
0.0
  0
LINE
  5
4BD
330
1F
100
AcDbEntity
  8
Ｓ_１_１
  6
CONTINUOUS
 62
     3
100
AcDbLine
 10
1553.137034483182
 20
452.9998292849802
 30
0.0
 11
1553.137034483182
 21
476.9997992849796
 31
0.0
  0
LINE
  5
4BE
330
1F
100
AcDbEntity
  8
Ｓ_１_１
  6
CONTINUOUS
 62
     3
100
AcDbLine
 10
1509.137278483181
 20
459.49979928498
 30
0.0
 11
1518.137034483182
 21
459.49979928498
 31
0.0
  0
LINE
  5
4BF
330
1F
100
AcDbEntity
  8
Ｓ_１_１
  6
CONTINUOUS
 62
     3
100
AcDbLine
 10
1518.137034483182
 20
459.49979928498
 30
0.0
 11
1518.137034483182
 21
470.4998292849797
 31
0.0
  0
LINE
  5
4C0
330
1F
100
AcDbEntity
  8
Ｓ_１_１
  6
CONTINUOUS
 62
     3
100
AcDbLine
 10
1521.637278483181
 20
455.9998602849802
 30
0.0
 11
1523.637156483182
 21
455.9998602849802
 31
0.0
  0
LINE
  5
4C1
330
1F
100
AcDbEntity
  8
Ｓ_１_１
  6
CONTINUOUS
 62
     3
100
AcDbLine
 10
1521.637278483181
 20
473.9998292849797
 30
0.0
 11
1523.637156483182
 21
473.9998292849797
 31
0.0
  0
LINE
  5
4C2
330
1F
100
AcDbEntity
  8
Ｓ_１_１
  6
CONTINUOUS
 62
     3
100
AcDbLine
 10
1537.137156483182
 20
453.7498292849802
 30
0.0
 11
1537.137156483182
 21
476.2498292849797
 31
0.0
  0
LINE
  5
4C3
330
1F
100
AcDbEntity
  8
Ｓ_１_１
  6
CONTINUOUS
 62
     3
100
AcDbLine
 10
1537.637156483181
 20
476.7498292849797
 30
0.0
 11
1546.137156483182
 21
476.7498292849797
 31
0.0
  0
LINE
  5
4C4
330
1F
100
AcDbEntity
  8
Ｓ_１_１
  6
CONTINUOUS
 62
     3
100
AcDbLine
 10
1537.637156483181
 20
453.24979928498
 30
0.0
 11
1546.137156483182
 21
453.24979928498
 31
0.0
  0
LINE
  5
4C5
330
1F
100
AcDbEntity
  8
Ｓ_１_１
  6
CONTINUOUS
 62
     3
100
AcDbLine
 10
1552.065182483181
 20
451.14346128498
 30
0.0
 11
1553.136959483181
 21
452.9998332849802
 31
0.0
  0
LINE
  5
4C6
330
1F
100
AcDbEntity
  8
Ｓ_１_１
  6
CONTINUOUS
 62
     3
100
AcDbLine
 10
1546.136965483181
 20
476.9997562849795
 30
0.0
 11
1547.208804483181
 21
478.8562342849797
 31
0.0
  0
LINE
  5
4C7
330
1F
100
AcDbEntity
  8
Ｓ_１_１
  6
CONTINUOUS
 62
     3
100
AcDbLine
 10
1553.137001483181
 20
476.9997982849797
 30
0.0
 11
1552.065224483181
 21
478.8561712849797
 31
0.0
  0
LINE
  5
4C8
330
1F
100
AcDbEntity
  8
Ｓ_１_１
  6
CONTINUOUS
 62
     3
100
AcDbLine
 10
1547.208664483182
 20
451.14346828498
 30
0.0
 11
1546.136887483181
 21
452.9998412849802
 31
0.0
  0
LINE
  5
4C9
330
1F
100
AcDbEntity
  8
Ｓ_１_１
  6
CONTINUOUS
 62
     3
100
AcDbLine
 10
1547.208934483182
 20
478.8562442849795
 30
0.0
 11
1552.065257483182
 21
478.8562442849795
 31
0.0
  0
LINE
  5
4CA
330
1F
100
AcDbEntity
  8
Ｓ_１_１
  6
CONTINUOUS
 62
     3
100
AcDbLine
 10
1547.208934483182
 20
471.9280522849796
 30
0.0
 11
1552.065257483182
 21
471.9280522849796
 31
0.0
  0
LINE
  5
4CB
330
1F
100
AcDbEntity
  8
Ｓ_１_１
  6
CONTINUOUS
 62
     3
100
AcDbLine
 10
1547.208934483182
 20
458.0716982849801
 30
0.0
 11
1552.065257483182
 21
458.0716982849801
 31
0.0
  0
LINE
  5
4CC
330
1F
100
AcDbEntity
  8
Ｓ_１_１
  6
CONTINUOUS
 62
     3
100
AcDbLine
 10
1547.208934483182
 20
451.14343028498
 30
0.0
 11
1552.065257483182
 21
451.14343028498
 31
0.0
  0
LINE
  5
4CD
330
1F
100
AcDbEntity
  8
Ｓ_１_１
  6
CONTINUOUS
 62
     3
100
AcDbLine
 10
1546.137156483182
 20
452.9998292849802
 30
0.0
 11
1546.137156483182
 21
476.9997992849796
 31
0.0
  0
LINE
  5
4CE
330
1F
100
AcDbEntity
  8
Ｓ_１_１
  6
CONTINUOUS
 62
     3
100
AcDbLine
 10
1508.137034483181
 20
460.4998292849802
 30
0.0
 11
1508.137034483181
 21
469.4997992849796
 31
0.0
  0
LINE
  5
4CF
330
1F
100
AcDbEntity
  8
Ｓ_１_１
  6
CONTINUOUS
 62
     3
100
AcDbLine
 10
1506.136969483181
 20
466.4996882849797
 30
0.0
 11
1508.137014483181
 21
468.4997332849795
 31
0.0
  0
LINE
  5
4D0
330
1F
100
AcDbEntity
  8
Ｓ_１_１
  6
CONTINUOUS
 62
     3
100
AcDbLine
 10
1508.136971483182
 20
461.4996612849802
 30
0.0
 11
1506.137012483181
 21
463.4996202849795
 31
0.0
  0
LINE
  5
4D1
330
1F
100
AcDbEntity
  8
Ｓ_１_１
  6
CONTINUOUS
 62
     3
100
AcDbLine
 10
1526.637278483181
 20
457.4998292849802
 30
0.0
 11
1526.637278483181
 21
472.4998292849797
 31
0.0
  0
LINE
  5
4D2
330
1F
100
AcDbEntity
  8
Ｓ_１_１
  6
CONTINUOUS
 62
     3
100
AcDbLine
 10
1525.137156483182
 20
457.4998292849802
 30
0.0
 11
1525.137156483182
 21
472.4998292849797
 31
0.0
  0
LINE
  5
4D3
330
1F
100
AcDbEntity
  8
Ｓ_１_１
  6
CONTINUOUS
 62
     3
100
AcDbLine
 10
1521.637278483181
 20
455.9998602849802
 30
0.0
 11
1521.637278483181
 21
473.9998292849797
 31
0.0
  0
LINE
  5
4D4
330
1F
100
AcDbEntity
  8
Ｓ_１_１
  6
CONTINUOUS
 62
     3
100
AcDbLine
 10
1528.137034483182
 20
473.9998292849797
 30
0.0
 11
1537.137156483182
 21
473.9998292849797
 31
0.0
  0
LINE
  5
4D5
330
1F
100
AcDbEntity
  8
Ｓ_１_１
  6
CONTINUOUS
 62
     3
100
AcDbLine
 10
1528.137034483182
 20
455.9998602849802
 30
0.0
 11
1537.137156483182
 21
455.9998602849802
 31
0.0
  0
LINE
  5
4D6
330
1F
100
AcDbEntity
  8
Ｓ_１_１
  6
CONTINUOUS
 62
     3
100
AcDbLine
 10
1523.637135483181
 20
455.99971728498
 30
0.0
 11
1525.137148483182
 21
457.4997292849799
 31
0.0
  0
LINE
  5
4D7
330
1F
100
AcDbEntity
  8
Ｓ_１_１
  6
CONTINUOUS
 62
     3
100
AcDbLine
 10
1525.137149483181
 20
472.4997952849796
 30
0.0
 11
1523.637266483182
 21
473.9996782849796
 31
0.0
  0
LINE
  5
4D8
330
1F
100
AcDbEntity
  8
Ｓ_１_１
  6
CONTINUOUS
 62
     3
100
AcDbLine
 10
1523.637156483182
 20
455.9998602849802
 30
0.0
 11
1523.637156483182
 21
473.9998292849797
 31
0.0
  0
LINE
  5
4D9
330
1F
100
AcDbEntity
  8
Ｓ_１_１
  6
CONTINUOUS
 62
     3
100
AcDbLine
 10
1528.137001483181
 20
455.99983128498
 30
0.0
 11
1526.637118483181
 21
457.4997142849799
 31
0.0
  0
LINE
  5
4DA
330
1F
100
AcDbEntity
  8
Ｓ_１_１
  6
CONTINUOUS
 62
     3
100
AcDbLine
 10
1526.637160483182
 20
472.4996812849797
 30
0.0
 11
1528.137172483182
 21
473.9996942849795
 31
0.0
  0
LINE
  5
4DB
330
1F
100
AcDbEntity
  8
Ｓ_１_１
  6
CONTINUOUS
 62
     3
100
AcDbLine
 10
1537.637156483181
 20
453.24979928498
 30
0.0
 11
1537.637156483181
 21
476.7498292849797
 31
0.0
  0
LINE
  5
4DC
330
1F
100
AcDbEntity
  8
Ｓ_１_１
  6
CONTINUOUS
 62
     3
100
AcDbLine
 10
1528.137034483182
 20
455.9998602849802
 30
0.0
 11
1528.137034483182
 21
473.9998292849797
 31
0.0
  0
LINE
  5
4DD
330
1F
100
AcDbEntity
  8
Ｓ_１_１
  6
CONTINUOUS
 62
     3
100
AcDbLine
 10
1525.137156483182
 20
457.4998292849802
 30
0.0
 11
1526.637278483181
 21
457.4998292849802
 31
0.0
  0
LINE
  5
4DE
330
1F
100
AcDbEntity
  8
Ｓ_１_１
  6
CONTINUOUS
 62
     3
100
AcDbLine
 10
1525.137156483182
 20
472.4998292849797
 30
0.0
 11
1526.637278483181
 21
472.4998292849797
 31
0.0
  0
LINE
  5
4DF
330
1F
100
AcDbEntity
  8
Ｓ_１_１
  6
CONTINUOUS
 62
     3
100
AcDbLine
 10
1537.137067483181
 20
476.2497252849795
 30
0.0
 11
1537.637013483181
 21
476.7496722849798
 31
0.0
  0
LINE
  5
4E0
330
1F
100
AcDbEntity
  8
Ｓ_１_１
  6
CONTINUOUS
 62
     3
100
AcDbLine
 10
1537.637065483182
 20
453.2497542849803
 30
0.0
 11
1537.137156483182
 21
453.7496522849803
 31
0.0
  0
LINE
  5
4E1
330
1F
100
AcDbEntity
  8
Ｓ_１_１
  6
CONTINUOUS
 62
     3
100
AcDbLine
 10
1521.637047483182
 20
455.99978828498
 30
0.0
 11
1518.137033483181
 21
459.4998022849801
 31
0.0
  0
LINE
  5
4E2
330
1F
100
AcDbEntity
  8
Ｓ_１_１
  6
CONTINUOUS
 62
     3
100
AcDbLine
 10
1518.137247483181
 20
470.4996792849798
 30
0.0
 11
1521.637219483182
 21
473.9996502849796
 31
0.0
  0
LINE
  5
4E3
330
1F
100
AcDbEntity
  8
Ｓ_１_１
  6
CONTINUOUS
 62
     3
100
AcDbLine
 10
1509.137278483181
 20
470.4998292849797
 30
0.0
 11
1518.137034483182
 21
470.4998292849797
 31
0.0
  0
CIRCLE
  5
4E4
330
1F
100
AcDbEntity
  8
Ｓ_１_１
  6
CONTINUOUS
 62
     3
100
AcDbCircle
 10
1577.13711148319
 20
464.99984478499
 30
0.0
 40
10.0
  0
POLYLINE
  5
4E5
330
1F
100
AcDbEntity
  8
Ｓ_１_１
  6
CONTINUOUS
 62
     3
100
AcDb2dPolyline
 66
     1
 10
0.0
 20
0.0
 30
0.0
 70
   128
  0
VERTEX
  5
4E6
330
4E5
100
AcDbEntity
  8
Ｓ_１_１
  6
CONTINUOUS
 62
     3
100
AcDbVertex
100
AcDb2dVertex
 10
1567.63711148319
 20
464.99984478499
 30
0.0
  0
VERTEX
  5
4E7
330
4E5
100
AcDbEntity
  8
Ｓ_１_１
  6
CONTINUOUS
 62
     3
100
AcDbVertex
100
AcDb2dVertex
 10
1572.38711148319
 20
456.7726034490378
 30
0.0
  0
VERTEX
  5
4E8
330
4E5
100
AcDbEntity
  8
Ｓ_１_１
  6
CONTINUOUS
 62
     3
100
AcDbVertex
100
AcDb2dVertex
 10
1581.88711148319
 20
456.7726034490378
 30
0.0
  0
VERTEX
  5
4E9
330
4E5
100
AcDbEntity
  8
Ｓ_１_１
  6
CONTINUOUS
 62
     3
100
AcDbVertex
100
AcDb2dVertex
 10
1586.63711148319
 20
464.99984478499
 30
0.0
  0
VERTEX
  5
4EA
330
4E5
100
AcDbEntity
  8
Ｓ_１_１
  6
CONTINUOUS
 62
     3
100
AcDbVertex
100
AcDb2dVertex
 10
1581.88711148319
 20
473.2270861209421
 30
0.0
  0
VERTEX
  5
4EB
330
4E5
100
AcDbEntity
  8
Ｓ_１_１
  6
CONTINUOUS
 62
     3
100
AcDbVertex
100
AcDb2dVertex
 10
1572.38711148319
 20
473.2270861209421
 30
0.0
  0
VERTEX
  5
4EC
330
4E5
100
AcDbEntity
  8
Ｓ_１_１
  6
CONTINUOUS
 62
     3
100
AcDbVertex
100
AcDb2dVertex
 10
1567.63711148319
 20
464.99984478499
 30
0.0
  0
SEQEND
  5
4ED
330
4E5
100
AcDbEntity
  8
Ｓ_１_１
  6
CONTINUOUS
 62
     3
  0
CIRCLE
  5
4EE
330
1F
100
AcDbEntity
  8
Ｓ_１_１
  6
CONTINUOUS
 62
     3
100
AcDbCircle
 10
1577.13711148319
 20
464.99984478499
 30
0.0
 40
8.227241335951572
  0
ARC
  5
4EF
330
1F
100
AcDbEntity
  8
Ｓ_１_１
  6
CONTINUOUS
 62
     3
100
AcDbCircle
 10
1577.13711148319
 20
464.99984478499
 30
0.0
 40
8.999999915700016
100
AcDbArc
 50
186.0835974972829
 51
233.9164025027172
  0
ARC
  5
4F0
330
1F
100
AcDbEntity
  8
Ｓ_１_１
  6
CONTINUOUS
 62
     3
100
AcDbCircle
 10
1577.13711148319
 20
464.99984478499
 30
0.0
 40
8.999999915700016
100
AcDbArc
 50
246.0835974972827
 51
293.9164025027173
  0
ARC
  5
4F1
330
1F
100
AcDbEntity
  8
Ｓ_１_１
  6
CONTINUOUS
 62
     3
100
AcDbCircle
 10
1577.13711148319
 20
464.99984478499
 30
0.0
 40
8.999999915700016
100
AcDbArc
 50
306.0835974972829
 51
353.9164025027171
  0
ARC
  5
4F2
330
1F
100
AcDbEntity
  8
Ｓ_１_１
  6
CONTINUOUS
 62
     3
100
AcDbCircle
 10
1577.13711148319
 20
464.99984478499
 30
0.0
 40
8.999999915700016
100
AcDbArc
 50
6.083597497282877
 51
53.91640250271725
  0
ARC
  5
4F3
330
1F
100
AcDbEntity
  8
Ｓ_１_１
  6
CONTINUOUS
 62
     3
100
AcDbCircle
 10
1577.13711148319
 20
464.99984478499
 30
0.0
 40
8.999999915700016
100
AcDbArc
 50
66.08359749728265
 51
113.9164025027174
  0
ARC
  5
4F4
330
1F
100
AcDbEntity
  8
Ｓ_１_１
  6
CONTINUOUS
 62
     3
100
AcDbCircle
 10
1577.13711148319
 20
464.99984478499
 30
0.0
 40
8.999999915700016
100
AcDbArc
 50
126.0835974972829
 51
173.9164025027172
  0
CIRCLE
  5
4F5
330
1F
100
AcDbEntity
  8
Ｓ_１_１
  6
CONTINUOUS
 62
     3
100
AcDbCircle
 10
1577.13711148319
 20
464.99984478499
 30
0.0
 40
5.0
  0
CIRCLE
  5
4F6
330
1F
100
AcDbEntity
  8
Ｓ_１_１
  6
CONTINUOUS
 62
     3
100
AcDbCircle
 10
1577.13711148319
 20
464.99984478499
 30
0.0
 40
4.25
  0
LINE
  5
4F7
330
1F
100
AcDbEntity
  8
Ｓ_１_１
  6
EXLTYPE2
 62
     1
100
AcDbLine
 10
1577.137111483191
 20
477.99984478499
 30
0.0
 11
1577.137111483191
 21
451.9998447849899
 31
0.0
  0
LINE
  5
4F8
330
1F
100
AcDbEntity
  8
Ｓ_１_１
  6
EXLTYPE2
 62
     1
100
AcDbLine
 10
1502.759995725318
 20
464.999830354982
 30
0.0
 11
1611.943873010192
 21
464.9999081449165
 31
0.0
  0
POLYLINE
  5
4F9
330
1F
100
AcDbEntity
  8
Ｓ_１_１
  6
CONTINUOUS
 62
     3
100
AcDb2dPolyline
 66
     1
 10
0.0
 20
0.0
 30
0.0
 70
   128
  0
VERTEX
  5
4FA
330
4F9
100
AcDbEntity
  8
Ｓ_１_１
  6
CONTINUOUS
 62
     3
100
AcDbVertex
100
AcDb2dVertex
 10
1574.250360137251
 20
464.99983035498
 30
0.0
  0
VERTEX
  5
4FB
330
4F9
100
AcDbEntity
  8
Ｓ_１_１
  6
CONTINUOUS
 62
     3
100
AcDbVertex
100
AcDb2dVertex
 10
1575.693735810226
 20
462.49983035498
 30
0.0
  0
VERTEX
  5
4FC
330
4F9
100
AcDbEntity
  8
Ｓ_１_１
  6
CONTINUOUS
 62
     3
100
AcDbVertex
100
AcDb2dVertex
 10
1578.580487156174
 20
462.49983035498
 30
0.0
  0
VERTEX
  5
4FD
330
4F9
100
AcDbEntity
  8
Ｓ_１_１
  6
CONTINUOUS
 62
     3
100
AcDbVertex
100
AcDb2dVertex
 10
1580.023862829148
 20
464.99983035498
 30
0.0
  0
VERTEX
  5
4FE
330
4F9
100
AcDbEntity
  8
Ｓ_１_１
  6
CONTINUOUS
 62
     3
100
AcDbVertex
100
AcDb2dVertex
 10
1578.580487156174
 20
467.4998303549799
 30
0.0
  0
VERTEX
  5
4FF
330
4F9
100
AcDbEntity
  8
Ｓ_１_１
  6
CONTINUOUS
 62
     3
100
AcDbVertex
100
AcDb2dVertex
 10
1575.693735810226
 20
467.4998303549799
 30
0.0
  0
VERTEX
  5
500
330
4F9
100
AcDbEntity
  8
Ｓ_１_１
  6
CONTINUOUS
 62
     3
100
AcDbVertex
100
AcDb2dVertex
 10
1574.250360137251
 20
464.99983035498
 30
0.0
  0
SEQEND
  5
501
330
4F9
100
AcDbEntity
  8
Ｓ_１_１
  6
CONTINUOUS
 62
     3
  0
ENDSEC
  0
SECTION
  2
OBJECTS
  0
DICTIONARY
  5
C
330
0
100
AcDbDictionary
  3
ACAD_GROUP
350
D
  3
ACAD_LAYOUT
350
1A
  3
ACAD_MATERIAL
350
43
  3
ACAD_MLEADERSTYLE
350
6B
  3
ACAD_MLINESTYLE
350
17
  3
ACAD_PLOTSETTINGS
350
19
  3
ACAD_SCALELIST
350
47
  3
ACAD_VISUALSTYLE
350
2A
  3
ACDBHEADERROUNDTRIPXREC
350
502
  3
ACDBVARIABLEDICTIONARY
350
523
  0
DICTIONARY
  5
52E
330
8
100
AcDbDictionary
280
     1
  3
ACAD_XREC_ROUNDTRIP
360
52F
  0
DICTIONARY
  5
D
102
{ACAD_REACTORS
330
C
102
}
330
C
100
AcDbDictionary
  0
DICTIONARY
  5
1A
102
{ACAD_REACTORS
330
C
102
}
330
C
100
AcDbDictionary
  0
DICTIONARY
  5
43
102
{ACAD_REACTORS
330
C
102
}
330
C
100
AcDbDictionary
  3
BYBLOCK
350
45
  3
BYLAYER
350
44
  3
GLOBAL
350
46
  0
DICTIONARY
  5
6B
102
{ACAD_REACTORS
330
C
102
}
330
C
100
AcDbDictionary
  3
STANDARD
350
6C
  0
DICTIONARY
  5
17
102
{ACAD_REACTORS
330
C
102
}
330
C
100
AcDbDictionary
  3
STANDARD
350
18
  0
DICTIONARY
  5
19
102
{ACAD_REACTORS
330
C
102
}
330
C
100
AcDbDictionary
  0
DICTIONARY
  5
47
102
{ACAD_REACTORS
330
C
102
}
330
C
100
AcDbDictionary
  3
A0
350
48
  3
A1
350
49
  3
A2
350
4A
  3
A3
350
4B
  3
A4
350
4C
  3
A5
350
4D
  3
A6
350
4E
  3
A7
350
4F
  3
A8
350
50
  3
A9
350
51
  3
B0
350
52
  3
B1
350
53
  3
B2
350
54
  3
B3
350
55
  3
B4
350
56
  3
B5
350
57
  3
B6
350
58
  3
B7
350
59
  3
B8
350
5A
  3
B9
350
5B
  3
C0
350
5C
  3
C1
350
5D
  3
C2
350
5E
  3
C3
350
5F
  3
C4
350
60
  3
C5
350
61
  3
C6
350
62
  3
C7
350
63
  3
C8
350
64
  3
C9
350
65
  3
D0
350
66
  3
D1
350
67
  3
D2
350
68
  0
DICTIONARY
  5
2A
102
{ACAD_REACTORS
330
C
102
}
330
C
100
AcDbDictionary
  3
2DWIREFRAME
350
2F
  3
BASIC
350
32
  3
BRIGHTEN
350
36
  3
COLORCHANGE
350
3A
  3
CONCEPTUAL
350
34
  3
DIM
350
35
  3
EDGECOLOROFF
350
3D
  3
FACEPATTERN
350
39
  3
FLAT
350
2B
  3
FLATWITHEDGES
350
2C
  3
GOURAUD
350
2D
  3
GOURAUDWITHEDGES
350
2E
  3
HIDDEN
350
31
  3
JITTEROFF
350
3B
  3
LINEPATTERN
350
38
  3
OVERHANGOFF
350
3C
  3
REALISTIC
350
33
  3
SHADED
350
42
  3
SHADED_WITH_EDGES
350
41
  3
SHADES_OF_GRAY
350
3E
  3
SKETCHY
350
3F
  3
THICKEN
350
37
  3
WIREFRAME
350
30
  3
X-RAY
350
40
  0
DICTIONARY
  5
502
102
{ACAD_REACTORS
330
C
102
}
330
C
100
AcDbDictionary
  3
CEPSNID
350
50C
  3
CEPSNTYPE
350
50B
  3
DIMSTYLEDATA
350
522
  3
FINGERPRINTGUID
350
50D
  3
HYPERLINKBASE
350
505
  3
INSUNITS
350
50A
  3
LAYOUTDICT
350
507
  3
LWETCUNION
350
509
  3
PLOTSETDICT
350
508
  3
PSVPSCALE
350
50F
  3
PUCSBASE
350
512
  3
PUCSORGBACK
350
518
  3
PUCSORGBOTTOM
350
514
  3
PUCSORGFRONT
350
517
  3
PUCSORGLEFT
350
515
  3
PUCSORGRIGHT
350
516
  3
PUCSORGTOP
350
513
  3
PUCSORTHOREF
350
510
  3
PUCSORTHOVIEW
350
511
  3
STYLESHEET
350
506
  3
TSTACKALIGN
350
503
  3
TSTACKSIZE
350
504
  3
UCSBASE
350
51B
  3
UCSORGBACK
350
521
  3
UCSORGBOTTOM
350
51D
  3
UCSORGFRONT
350
520
  3
UCSORGLEFT
350
51E
  3
UCSORGRIGHT
350
51F
  3
UCSORGTOP
350
51C
  3
UCSORTHOREF
350
519
  3
UCSORTHOVIEW
350
51A
  3
VERSIONGUID
350
50E
  0
DICTIONARY
  5
523
102
{ACAD_REACTORS
330
C
102
}
330
C
100
AcDbDictionary
  3
CANNOSCALE
350
530
  3
CENTEREXE
350
52A
  3
CENTERLTYPEFILE
350
52B
  3
CMLEADERSTYLE
350
525
  3
CTABLESTYLE
350
524
  3
DIMASSOC
350
52C
  3
HIDETEXT
350
52D
  3
MSLTSCALE
350
531
  3
PSOLHEIGHT
350
527
  3
PSOLWIDTH
350
526
  0
XRECORD
  5
52F
102
{ACAD_REACTORS
330
52E
102
}
330
52E
100
AcDbXrecord
102
VTR_0.000_0.000_1.000_1.000_VISUALSTYLE
340
2F
102
VTR_0.000_0.000_1.000_1.000_GRIDDISPLAY
 70
     3
102
VTR_0.000_0.000_1.000_1.000_GRIDMAJOR
 70
     5
102
VTR_0.000_0.000_1.000_1.000_DEFAULTLIGHTING
280
     1
102
VTR_0.000_0.000_1.000_1.000_DEFAULTLIGHTINGTYPE
 70
     1
102
VTR_0.000_0.000_1.000_1.000_BRIGHTNESS
141
0.0
102
VTR_0.000_0.000_1.000_1.000_CONTRAST
142
0.0
  0
MATERIAL
  5
45
102
{ACAD_REACTORS
330
43
102
}
102
{ACAD_XDICTIONARY
360
534
102
}
330
43
100
AcDbMaterial
  1
BYBLOCK
  0
MATERIAL
  5
44
102
{ACAD_REACTORS
330
43
102
}
102
{ACAD_XDICTIONARY
360
532
102
}
330
43
100
AcDbMaterial
  1
BYLAYER
  0
MATERIAL
  5
46
102
{ACAD_REACTORS
330
43
102
}
102
{ACAD_XDICTIONARY
360
536
102
}
330
43
100
AcDbMaterial
  1
GLOBAL
  0
ACAD_PROXY_OBJECT
  5
6C
102
{ACAD_REACTORS
330
6B
102
}
330
6B
100
AcDbProxyObject
 90
      499
 91
      505
 93
      610
310
40901902A4063FBFFFFFE0000000000000020400000000000020404214DD185B99185C990000000000000104090141901A00000000000004100000000000000041025764000000000000039000
340
14
340
0
340
11
340
0
 94
        0
1001
ACAD_MLEADERVER
1070
     2
  0
MLINESTYLE
  5
18
102
{ACAD_REACTORS
330
17
102
}
330
17
100
AcDbMlineStyle
  2
Standard
 70
     0
  3

 62
   256
 51
90.0
 52
90.0
 71
     2
 49
0.5
 62
   256
  6
BYLAYER
 49
-0.5
 62
   256
  6
BYLAYER
  0
ACAD_PROXY_OBJECT
  5
48
102
{ACAD_REACTORS
330
47
102
}
330
47
100
AcDbProxyObject
 90
      499
 91
      503
 93
       41
310
903313A31580
  0
ACAD_PROXY_OBJECT
  5
49
102
{ACAD_REACTORS
330
47
102
}
330
47
100
AcDbProxyObject
 90
      499
 91
      503
 93
      105
310
903313A324000000000000004000
  0
ACAD_PROXY_OBJECT
  5
4A
102
{ACAD_REACTORS
330
47
102
}
330
47
100
AcDbProxyObject
 90
      499
 91
      503
 93
      105
310
903313A344000000000000104000
  0
ACAD_PROXY_OBJECT
  5
4B
102
{ACAD_REACTORS
330
47
102
}
330
47
100
AcDbProxyObject
 90
      499
 91
      503
 93
      105
310
903313A354000000000000144000
  0
ACAD_PROXY_OBJECT
  5
4C
102
{ACAD_REACTORS
330
47
102
}
330
47
100
AcDbProxyObject
 90
      499
 91
      503
 93
      105
310
903313A384000000000000204000
  0
ACAD_PROXY_OBJECT
  5
4D
102
{ACAD_REACTORS
330
47
102
}
330
47
100
AcDbProxyObject
 90
      499
 91
      503
 93
      113
310
904313A31304000000000000244000
  0
ACAD_PROXY_OBJECT
  5
4E
102
{ACAD_REACTORS
330
47
102
}
330
47
100
AcDbProxyObject
 90
      499
 91
      503
 93
      113
310
904313A31364000000000000304000
  0
ACAD_PROXY_OBJECT
  5
4F
102
{ACAD_REACTORS
330
47
102
}
330
47
100
AcDbProxyObject
 90
      499
 91
      503
 93
      113
310
904313A32304000000000000344000
  0
ACAD_PROXY_OBJECT
  5
50
102
{ACAD_REACTORS
330
47
102
}
330
47
100
AcDbProxyObject
 90
      499
 91
      503
 93
      113
310
904313A333040000000000003E4000
  0
ACAD_PROXY_OBJECT
  5
51
102
{ACAD_REACTORS
330
47
102
}
330
47
100
AcDbProxyObject
 90
      499
 91
      503
 93
      113
310
904313A34304000000000000444000
  0
ACAD_PROXY_OBJECT
  5
52
102
{ACAD_REACTORS
330
47
102
}
330
47
100
AcDbProxyObject
 90
      499
 91
      503
 93
      113
310
904313A35304000000000000494000
  0
ACAD_PROXY_OBJECT
  5
53
102
{ACAD_REACTORS
330
47
102
}
330
47
100
AcDbProxyObject
 90
      499
 91
      503
 93
      121
310
905313A3130304000000000000594000
  0
ACAD_PROXY_OBJECT
  5
54
102
{ACAD_REACTORS
330
47
102
}
330
47
100
AcDbProxyObject
 90
      499
 91
      503
 93
      105
310
903323A310000000000000010100
  0
ACAD_PROXY_OBJECT
  5
55
102
{ACAD_REACTORS
330
47
102
}
330
47
100
AcDbProxyObject
 90
      499
 91
      503
 93
      105
310
903343A310000000000000410100
  0
ACAD_PROXY_OBJECT
  5
56
102
{ACAD_REACTORS
330
47
102
}
330
47
100
AcDbProxyObject
 90
      499
 91
      503
 93
      105
310
903383A310000000000000810100
  0
ACAD_PROXY_OBJECT
  5
57
102
{ACAD_REACTORS
330
47
102
}
330
47
100
AcDbProxyObject
 90
      499
 91
      503
 93
      113
310
90431303A310000000000000910100
  0
ACAD_PROXY_OBJECT
  5
58
102
{ACAD_REACTORS
330
47
102
}
330
47
100
AcDbProxyObject
 90
      499
 91
      503
 93
      121
310
9053130303A310000000000001650100
  0
ACAD_PROXY_OBJECT
  5
59
102
{ACAD_REACTORS
330
47
102
}
330
47
100
AcDbProxyObject
 90
      499
 91
      503
 93
      257
310
90E312F31323822203D2031272D3022000000000000200FC000000000000284000
  0
ACAD_PROXY_OBJECT
  5
5A
102
{ACAD_REACTORS
330
47
102
}
330
47
100
AcDbProxyObject
 90
      499
 91
      503
 93
      249
310
90D312F363422203D2031272D3022000000000000240FC000000000000284000
  0
ACAD_PROXY_OBJECT
  5
5B
102
{ACAD_REACTORS
330
47
102
}
330
47
100
AcDbProxyObject
 90
      499
 91
      503
 93
      249
310
90D312F333222203D2031272D3022000000000000280FC000000000000284000
  0
ACAD_PROXY_OBJECT
  5
5C
102
{ACAD_REACTORS
330
47
102
}
330
47
100
AcDbProxyObject
 90
      499
 91
      503
 93
      249
310
90D312F313622203D2031272D30220000000000002C0FC000000000000284000
  0
ACAD_PROXY_OBJECT
  5
5D
102
{ACAD_REACTORS
330
47
102
}
330
47
100
AcDbProxyObject
 90
      499
 91
      503
 93
      249
310
90D332F333222203D2031272D30220000000000002E0FC000000000000284000
  0
ACAD_PROXY_OBJECT
  5
5E
102
{ACAD_REACTORS
330
47
102
}
330
47
100
AcDbProxyObject
 90
      499
 91
      503
 93
      241
310
90C312F3822203D2031272D3022000000000000300FC000000000000284000
  0
ACAD_PROXY_OBJECT
  5
5F
102
{ACAD_REACTORS
330
47
102
}
330
47
100
AcDbProxyObject
 90
      499
 91
      503
 93
      249
310
90D332F313622203D2031272D3022000000000000320FC000000000000284000
  0
ACAD_PROXY_OBJECT
  5
60
102
{ACAD_REACTORS
330
47
102
}
330
47
100
AcDbProxyObject
 90
      499
 91
      503
 93
      241
310
90C312F3422203D2031272D3022000000000000340FC000000000000284000
  0
ACAD_PROXY_OBJECT
  5
61
102
{ACAD_REACTORS
330
47
102
}
330
47
100
AcDbProxyObject
 90
      499
 91
      503
 93
      241
310
90C332F3822203D2031272D3022000000000000360FC000000000000284000
  0
ACAD_PROXY_OBJECT
  5
62
102
{ACAD_REACTORS
330
47
102
}
330
47
100
AcDbProxyObject
 90
      499
 91
      503
 93
      241
310
90C312F3222203D2031272D3022000000000000380FC000000000000284000
  0
ACAD_PROXY_OBJECT
  5
63
102
{ACAD_REACTORS
330
47
102
}
330
47
100
AcDbProxyObject
 90
      499
 91
      503
 93
      241
310
90C332F3422203D2031272D30220000000000003A0FC000000000000284000
  0
ACAD_PROXY_OBJECT
  5
64
102
{ACAD_REACTORS
330
47
102
}
330
47
100
AcDbProxyObject
 90
      499
 91
      503
 93
      161
310
90A3122203D2031272D30224000000000000284000
  0
ACAD_PROXY_OBJECT
  5
65
102
{ACAD_REACTORS
330
47
102
}
330
47
100
AcDbProxyObject
 90
      499
 91
      503
 93
      257
310
90E312D312F3222203D2031272D30220000000000003E0FC000000000000284000
  0
ACAD_PROXY_OBJECT
  5
66
102
{ACAD_REACTORS
330
47
102
}
330
47
100
AcDbProxyObject
 90
      499
 91
      503
 93
      225
310
90A3322203D2031272D302200000000000002100000000000000284000
  0
ACAD_PROXY_OBJECT
  5
67
102
{ACAD_REACTORS
330
47
102
}
330
47
100
AcDbProxyObject
 90
      499
 91
      503
 93
      225
310
90A3622203D2031272D302200000000000006100000000000000284000
  0
ACAD_PROXY_OBJECT
  5
68
102
{ACAD_REACTORS
330
47
102
}
330
47
100
AcDbProxyObject
 90
      499
 91
      503
 93
      249
310
90D31272D3022203D2031272D30220000000000000A100000000000000284000
  0
ACAD_PROXY_OBJECT
  5
2F
102
{ACAD_REACTORS
330
2A
102
}
330
2A
100
AcDbProxyObject
 90
      499
 91
      501
 93
      436
310
42CC9915DA5C99599C985B595049028333333333333E33F0000000000000F90107901411070040501600405405064090741402480A0340
1001
ACAD
1000
AcDbSavedByObjectVersion
1070
     0
  0
ACAD_PROXY_OBJECT
  5
32
102
{ACAD_REACTORS
330
2A
102
}
330
2A
100
AcDbProxyObject
 90
      499
 91
      501
 93
      388
310
4150985CDA58D07406404333333333333E33F0000000000000F90107A41107004050150841D405064090741402480A0350
1001
ACAD
1000
AcDbSavedByObjectVersion
1070
     0
  0
ACAD_PROXY_OBJECT
  5
36
102
{ACAD_REACTORS
330
2A
102
}
330
2A
100
AcDbProxyObject
 90
      499
 91
      501
 93
      428
310
42109C9A59DA1D195B90C409028333333333333E33F0000000000000F9010790141107004050150841D405064090741402480A029950
1001
ACAD
1000
AcDbSavedByObjectVersion
1070
     0
  0
ACAD_PROXY_OBJECT
  5
3A
102
{ACAD_REACTORS
330
2A
102
}
330
2A
100
AcDbProxyObject
 90
      499
 91
      501
 93
      452
310
42D0DBDB1BDC90DA185B99D95104090240C333333333333E33F0000000000000F90108901411070040501508421405064090741402480A0350
1001
ACAD
1000
AcDbSavedByObjectVersion
1070
     0
  0
ACAD_PROXY_OBJECT
  5
34
102
{ACAD_REACTORS
330
2A
102
}
330
2A
100
AcDbProxyObject
 90
      499
 91
      501
 93
      500
310
4290DBDB98D95C1D1D585B10940D028333333333333E33F0000000000000F90107902409070040501000000000018199010841D405064090740C02480A0340
1001
ACAD
1000
AcDbSavedByObjectVersion
1070
     0
  0
ACAD_PROXY_OBJECT
  5
35
102
{ACAD_REACTORS
330
2A
102
}
330
2A
100
AcDbProxyObject
 90
      499
 91
      501
 93
      412
310
40D11A5B50B409028333333333333E33F0000000000000F9010790141107004050150841D405064090741402480A02677FFFFFD0
1001
ACAD
1000
AcDbSavedByObjectVersion
1070
     0
  0
ACAD_PROXY_OBJECT
  5
3D
102
{ACAD_REACTORS
330
2A
102
}
330
2A
100
AcDbProxyObject
 90
      499
 91
      501
 93
      452
310
43115919D950DBDB1BDC93D999916409028333333333333E33F0000000000000F9010790141107004050150841D405064090741402480A0350
1001
ACAD
1000
AcDbSavedByObjectVersion
1070
     0
  0
ACAD_PROXY_OBJECT
  5
39
102
{ACAD_REACTORS
330
2A
102
}
330
2A
100
AcDbProxyObject
 90
      499
 91
      501
 93
      444
310
42D19858D95C185D1D195C9B90F409028333333333333E33F0000000000000F9010790141107004050150841D405064090741402480A0350
1001
ACAD
1000
AcDbSavedByObjectVersion
1070
     0
  0
ACAD_PROXY_OBJECT
  5
2B
102
{ACAD_REACTORS
330
2A
102
}
330
2A
100
AcDbProxyObject
 90
      499
 91
      501
 93
      380
310
41119B185D240901404333333333333E33F0000000000000F9010740A907004050150841D405064090741402480A1B50
1001
ACAD
1000
AcDbSavedByObjectVersion
1070
     0
  0
ACAD_PROXY_OBJECT
  5
2C
102
{ACAD_REACTORS
330
2A
102
}
330
2A
100
AcDbProxyObject
 90
      499
 91
      501
 93
      468
310
43519B185D15DA5D1A115919D95CD0140901404333333333333E33F0000000000000F90107409019070040501600405405064090741402480A1B50
1001
ACAD
1000
AcDbSavedByObjectVersion
1070
     0
  0
ACAD_PROXY_OBJECT
  5
2D
102
{ACAD_REACTORS
330
2A
102
}
330
2A
100
AcDbProxyObject
 90
      499
 91
      501
 93
      404
310
41D1DBDD5C985D5910240902404333333333333E33F0000000000000F9010740A9070040501641D405064090741402480A1B50
1001
ACAD
1000
AcDbSavedByObjectVersion
1070
     0
  0
ACAD_PROXY_OBJECT
  5
2E
102
{ACAD_REACTORS
330
2A
102
}
330
2A
100
AcDbProxyObject
 90
      499
 91
      501
 93
      492
310
4411DBDD5C985D5915DA5D1A115919D95CD0340902404333333333333E33F0000000000000F90107409019070040501600405405064090741402480A1B50
1001
ACAD
1000
AcDbSavedByObjectVersion
1070
     0
  0
ACAD_PROXY_OBJECT
  5
31
102
{ACAD_REACTORS
330
2A
102
}
330
2A
100
AcDbProxyObject
 90
      499
 91
      501
 93
      476
310
41921A5919195B90640502408333333333333E33F0000000000000F901079024090700405020000000000001110200405405064090740C02480A0340
1001
ACAD
1000
AcDbSavedByObjectVersion
1070
     0
  0
ACAD_PROXY_OBJECT
  5
3B
102
{ACAD_REACTORS
330
2A
102
}
330
2A
100
AcDbProxyObject
 90
      499
 91
      501
 93
      428
310
42529A5D1D195C93D999914409028333333333333E33F0000000000000F9010790141107004050150A41D405064090741402480A0350
1001
ACAD
1000
AcDbSavedByObjectVersion
1070
     0
  0
ACAD_PROXY_OBJECT
  5
38
102
{ACAD_REACTORS
330
2A
102
}
330
2A
100
AcDbProxyObject
 90
      499
 91
      501
 93
      444
310
42D31A5B995C185D1D195C9B90E409028333333333333E33F0000000000000F9010790141107004050750841D405064090741402483A0350
1001
ACAD
1000
AcDbSavedByObjectVersion
1070
     0
  0
ACAD_PROXY_OBJECT
  5
3C
102
{ACAD_REACTORS
330
2A
102
}
330
2A
100
AcDbProxyObject
 90
      499
 91
      501
 93
      444
310
42D3DD995C9A185B99D3D999915409028333333333333E33F0000000000000F9010790141107004050150941D405064090741402480A0350
1001
ACAD
1000
AcDbSavedByObjectVersion
1070
     0
  0
ACAD_PROXY_OBJECT
  5
33
102
{ACAD_REACTORS
330
2A
102
}
330
2A
100
AcDbProxyObject
 90
      499
 91
      501
 93
      428
310
425499585B1A5CDD1A58D08409038333333333333E33F0000000000000F9010740A907004050150800405405064090740C02480A1B40
1001
ACAD
1000
AcDbSavedByObjectVersion
1070
     0
  0
ACAD_PROXY_OBJECT
  5
42
102
{ACAD_REACTORS
330
2A
102
}
330
2A
100
AcDbProxyObject
 90
      499
 91
      501
 93
      420
310
4194DA1859195911B40902404333333333333E33F0000000000000F9010740A41107004050150800405405064090840C02480A0B40
1001
ACAD
1000
AcDbSavedByObjectVersion
1070
     0
  0
ACAD_PROXY_OBJECT
  5
41
102
{ACAD_REACTORS
330
2A
102
}
330
2A
100
AcDbProxyObject
 90
      499
 91
      501
 93
      516
310
4454DA18591959081DDA5D1A08195919D95CD1A40902404333333333333E33F0000000000000F901074090142907004050250800405405064090740C02480A0B40
1001
ACAD
1000
AcDbSavedByObjectVersion
1070
     0
  0
ACAD_PROXY_OBJECT
  5
3E
102
{ACAD_REACTORS
330
2A
102
}
330
2A
100
AcDbProxyObject
 90
      499
 91
      501
 93
      532
310
4394DA1859195CC81BD98811DC985E5174090240C333333333333E33F0000000000000F901079024090741D01000000000000111010841D405064090740C02480A0340
1001
ACAD
1000
AcDbSavedByObjectVersion
1070
     0
  0
ACAD_PROXY_OBJECT
  5
3F
102
{ACAD_REACTORS
330
2A
102
}
330
2A
100
AcDbProxyObject
 90
      499
 91
      501
 93
      476
310
41D4DAD95D18DA1E51840502408333333333333E33F0000000000000F901079024090741D01000000000000111010B41D405064090741802480A0340
1001
ACAD
1000
AcDbSavedByObjectVersion
1070
     0
  0
ACAD_PROXY_OBJECT
  5
37
102
{ACAD_REACTORS
330
2A
102
}
330
2A
100
AcDbProxyObject
 90
      499
 91
      501
 93
      412
310
41D51A1A58DAD95B90D409028333333333333E33F0000000000000F9010790141107004050150C41D405064090741402480A0350
1001
ACAD
1000
AcDbSavedByObjectVersion
1070
     0
  0
ACAD_PROXY_OBJECT
  5
30
102
{ACAD_REACTORS
330
2A
102
}
330
2A
100
AcDbProxyObject
 90
      499
 91
      501
 93
      420
310
4255DA5C99599C985B595059028333333333333E33F0000000000000F90107901411070040501600405405064090740C02480A0340
1001
ACAD
1000
AcDbSavedByObjectVersion
1070
     0
  0
ACAD_PROXY_OBJECT
  5
40
102
{ACAD_REACTORS
330
2A
102
}
330
2A
100
AcDbProxyObject
 90
      499
 91
      501
 93
      404
310
41560B54985E51940902404000000000000E03F0000000000000F9010740501907004050150841D405064090740C02480A1B40
1001
ACAD
1000
AcDbSavedByObjectVersion
1070
     0
  0
XRECORD
  5
50C
102
{ACAD_REACTORS
330
502
102
}
330
502
100
AcDbXrecord
340
0
  0
XRECORD
  5
50B
102
{ACAD_REACTORS
330
502
102
}
330
502
100
AcDbXrecord
 90
        0
  0
XRECORD
  5
522
102
{ACAD_REACTORS
330
502
102
}
330
502
100
AcDbXrecord
1000
DSTYLE
1002
{
1070
   340
340
11
1002
}
  0
XRECORD
  5
50D
102
{ACAD_REACTORS
330
502
102
}
330
502
100
AcDbXrecord
  1
{73cb4aca-7d76-4e16-9892-ea3787f122f1}
  0
XRECORD
  5
505
102
{ACAD_REACTORS
330
502
102
}
330
502
100
AcDbXrecord
  1

  0
XRECORD
  5
50A
102
{ACAD_REACTORS
330
502
102
}
330
502
100
AcDbXrecord
 90
        4
  0
XRECORD
  5
507
102
{ACAD_REACTORS
330
502
102
}
330
502
100
AcDbXrecord
340
1A
  0
XRECORD
  5
509
102
{ACAD_REACTORS
330
502
102
}
330
502
100
AcDbXrecord
 90
    10781
  0
XRECORD
  5
508
102
{ACAD_REACTORS
330
502
102
}
330
502
100
AcDbXrecord
340
19
  0
XRECORD
  5
50F
102
{ACAD_REACTORS
330
502
102
}
330
502
100
AcDbXrecord
 40
0.0
  0
XRECORD
  5
512
102
{ACAD_REACTORS
330
502
102
}
330
502
100
AcDbXrecord
340
0
  0
XRECORD
  5
518
102
{ACAD_REACTORS
330
502
102
}
330
502
100
AcDbXrecord
 10
0.0
 20
0.0
 30
0.0
  0
XRECORD
  5
514
102
{ACAD_REACTORS
330
502
102
}
330
502
100
AcDbXrecord
 10
0.0
 20
0.0
 30
0.0
  0
XRECORD
  5
517
102
{ACAD_REACTORS
330
502
102
}
330
502
100
AcDbXrecord
 10
0.0
 20
0.0
 30
0.0
  0
XRECORD
  5
515
102
{ACAD_REACTORS
330
502
102
}
330
502
100
AcDbXrecord
 10
0.0
 20
0.0
 30
0.0
  0
XRECORD
  5
516
102
{ACAD_REACTORS
330
502
102
}
330
502
100
AcDbXrecord
 10
0.0
 20
0.0
 30
0.0
  0
XRECORD
  5
513
102
{ACAD_REACTORS
330
502
102
}
330
502
100
AcDbXrecord
 10
0.0
 20
0.0
 30
0.0
  0
XRECORD
  5
510
102
{ACAD_REACTORS
330
502
102
}
330
502
100
AcDbXrecord
340
0
  0
XRECORD
  5
511
102
{ACAD_REACTORS
330
502
102
}
330
502
100
AcDbXrecord
 70
     0
  0
XRECORD
  5
506
102
{ACAD_REACTORS
330
502
102
}
330
502
100
AcDbXrecord
  1

  0
XRECORD
  5
503
102
{ACAD_REACTORS
330
502
102
}
330
502
100
AcDbXrecord
 90
        1
  0
XRECORD
  5
504
102
{ACAD_REACTORS
330
502
102
}
330
502
100
AcDbXrecord
 90
       70
  0
XRECORD
  5
51B
102
{ACAD_REACTORS
330
502
102
}
330
502
100
AcDbXrecord
340
0
  0
XRECORD
  5
521
102
{ACAD_REACTORS
330
502
102
}
330
502
100
AcDbXrecord
 10
0.0
 20
0.0
 30
0.0
  0
XRECORD
  5
51D
102
{ACAD_REACTORS
330
502
102
}
330
502
100
AcDbXrecord
 10
0.0
 20
0.0
 30
0.0
  0
XRECORD
  5
520
102
{ACAD_REACTORS
330
502
102
}
330
502
100
AcDbXrecord
 10
0.0
 20
0.0
 30
0.0
  0
XRECORD
  5
51E
102
{ACAD_REACTORS
330
502
102
}
330
502
100
AcDbXrecord
 10
0.0
 20
0.0
 30
0.0
  0
XRECORD
  5
51F
102
{ACAD_REACTORS
330
502
102
}
330
502
100
AcDbXrecord
 10
0.0
 20
0.0
 30
0.0
  0
XRECORD
  5
51C
102
{ACAD_REACTORS
330
502
102
}
330
502
100
AcDbXrecord
 10
0.0
 20
0.0
 30
0.0
  0
XRECORD
  5
519
102
{ACAD_REACTORS
330
502
102
}
330
502
100
AcDbXrecord
340
0
  0
XRECORD
  5
51A
102
{ACAD_REACTORS
330
502
102
}
330
502
100
AcDbXrecord
 70
     0
  0
XRECORD
  5
50E
102
{ACAD_REACTORS
330
502
102
}
330
502
100
AcDbXrecord
  1
{FAEB1C32-E019-11D5-929B-00C0DF256EC4}
  0
DICTIONARYVAR
  5
530
102
{ACAD_REACTORS
330
523
102
}
330
523
100
DictionaryVariables
280
     0
  1
1:1
  0
DICTIONARYVAR
  5
52A
102
{ACAD_REACTORS
330
523
102
}
330
523
100
DictionaryVariables
280
     0
  1
3.500000
  0
DICTIONARYVAR
  5
52B
102
{ACAD_REACTORS
330
523
102
}
330
523
100
DictionaryVariables
280
     0
  1
acadiso.lin
  0
DICTIONARYVAR
  5
525
102
{ACAD_REACTORS
330
523
102
}
330
523
100
DictionaryVariables
280
     0
  1
Standard
  0
DICTIONARYVAR
  5
524
102
{ACAD_REACTORS
330
523
102
}
330
523
100
DictionaryVariables
280
     0
  1
Standard
  0
DICTIONARYVAR
  5
52C
102
{ACAD_REACTORS
330
523
102
}
330
523
100
DictionaryVariables
280
     0
  1
2
  0
DICTIONARYVAR
  5
52D
102
{ACAD_REACTORS
330
523
102
}
330
523
100
DictionaryVariables
280
     0
  1
1
  0
DICTIONARYVAR
  5
531
102
{ACAD_REACTORS
330
523
102
}
330
523
100
DictionaryVariables
280
     0
  1
1
  0
DICTIONARYVAR
  5
527
102
{ACAD_REACTORS
330
523
102
}
330
523
100
DictionaryVariables
280
     0
  1
80.000000
  0
DICTIONARYVAR
  5
526
102
{ACAD_REACTORS
330
523
102
}
330
523
100
DictionaryVariables
280
     0
  1
5.000000
  0
DICTIONARY
  5
534
330
45
100
AcDbDictionary
280
     1
  3
ACAD_XREC_ROUNDTRIP
360
535
  0
DICTIONARY
  5
532
330
44
100
AcDbDictionary
280
     1
  3
ACAD_XREC_ROUNDTRIP
360
533
  0
DICTIONARY
  5
536
330
46
100
AcDbDictionary
280
     1
  3
ACAD_XREC_ROUNDTRIP
360
537
  0
XRECORD
  5
535
102
{ACAD_REACTORS
330
534
102
}
330
534
100
AcDbXrecord
102
MATERIAL
148
0.0
149
0.0
149
0.0
 93
        0
 94
      127
282
     0
 72
     1
 77
     1
171
     1
175
     1
179
     1
273
     0
  0
XRECORD
  5
533
102
{ACAD_REACTORS
330
532
102
}
330
532
100
AcDbXrecord
102
MATERIAL
148
0.0
149
0.0
149
0.0
 93
        0
 94
      127
282
     0
 72
     1
 77
     1
171
     1
175
     1
179
     1
273
     0
  0
XRECORD
  5
537
102
{ACAD_REACTORS
330
536
102
}
330
536
100
AcDbXrecord
102
MATERIAL
148
0.0
149
0.0
149
0.0
 93
        0
 94
      127
282
     0
 72
     1
 77
     1
171
     1
175
     1
179
     1
273
     0
  0
ENDSEC
  0
EOF
