  0
SECTION
  2
HEADER
  9
$ACADVER
  1
AC1014
  9
$ACADMAINTVER
 70
     9
  9
$DWGCODEPAGE
  3
ANSI_932
  9
$INSBASE
 10
0.0
 20
0.0
 30
0.0
  9
$EXTMIN
 10
80.0
 20
80.0
 30
0.0
  9
$EXTMAX
 10
3280.0
 20
2296.0
 30
0.0
  9
$LIMMIN
 10
0.0
 20
0.0
  9
$LIMMAX
 10
420.0
 20
297.0
  9
$ORTHOMODE
 70
     0
  9
$REGENMODE
 70
     1
  9
$FILLMODE
 70
     1
  9
$QTEXTMODE
 70
     0
  9
$MIRRTEXT
 70
     1
  9
$DRAGMODE
 70
     2
  9
$LTSCALE
 40
1.0
  9
$OSMODE
 70
    37
  9
$ATTMODE
 70
     1
  9
$TEXTSIZE
 40
2.5
  9
$TRACEWID
 40
1.0
  9
$TEXTSTYLE
  7
STANDARD
  9
$CLAYER
  8
Ｓ_１_１
  9
$CELTYPE
  6
BYLAYER
  9
$CECOLOR
 62
   256
  9
$CELTSCALE
 40
1.0
  9
$DELOBJ
 70
     1
  9
$DISPSILH
 70
     0
  9
$DIMSCALE
 40
1.0
  9
$DIMASZ
 40
2.5
  9
$DIMEXO
 40
0.625
  9
$DIMDLI
 40
3.75
  9
$DIMRND
 40
0.0
  9
$DIMDLE
 40
0.0
  9
$DIMEXE
 40
1.25
  9
$DIMTP
 40
0.0
  9
$DIMTM
 40
0.0
  9
$DIMTXT
 40
2.5
  9
$DIMCEN
 40
2.5
  9
$DIMTSZ
 40
0.0
  9
$DIMTOL
 70
     0
  9
$DIMLIM
 70
     0
  9
$DIMTIH
 70
     0
  9
$DIMTOH
 70
     0
  9
$DIMSE1
 70
     0
  9
$DIMSE2
 70
     0
  9
$DIMTAD
 70
     1
  9
$DIMZIN
 70
     8
  9
$DIMBLK
  1

  9
$DIMASO
 70
     1
  9
$DIMSHO
 70
     1
  9
$DIMPOST
  1

  9
$DIMAPOST
  1

  9
$DIMALT
 70
     0
  9
$DIMALTD
 70
     3
  9
$DIMALTF
 40
0.03937007874016
  9
$DIMLFAC
 40
1.0
  9
$DIMTOFL
 70
     1
  9
$DIMTVP
 40
0.0
  9
$DIMTIX
 70
     0
  9
$DIMSOXD
 70
     0
  9
$DIMSAH
 70
     0
  9
$DIMBLK1
  1

  9
$DIMBLK2
  1

  9
$DIMSTYLE
  2
ISO-25
  9
$DIMCLRD
 70
     0
  9
$DIMCLRE
 70
     0
  9
$DIMCLRT
 70
     0
  9
$DIMTFAC
 40
1.0
  9
$DIMGAP
 40
0.625
  9
$DIMJUST
 70
     0
  9
$DIMSD1
 70
     0
  9
$DIMSD2
 70
     0
  9
$DIMTOLJ
 70
     0
  9
$DIMTZIN
 70
     8
  9
$DIMALTZ
 70
     0
  9
$DIMALTTZ
 70
     0
  9
$DIMFIT
 70
     3
  9
$DIMUPT
 70
     0
  9
$DIMUNIT
 70
     2
  9
$DIMDEC
 70
     2
  9
$DIMTDEC
 70
     2
  9
$DIMALTU
 70
     2
  9
$DIMALTTD
 70
     3
  9
$DIMTXSTY
  7
STANDARD
  9
$DIMAUNIT
 70
     0
  9
$LUNITS
 70
     2
  9
$LUPREC
 70
     4
  9
$SKETCHINC
 40
1.0
  9
$FILLETRAD
 40
10.0
  9
$AUNITS
 70
     0
  9
$AUPREC
 70
     0
  9
$MENU
  1
.
  9
$ELEVATION
 40
0.0
  9
$PELEVATION
 40
0.0
  9
$THICKNESS
 40
0.0
  9
$LIMCHECK
 70
     0
  9
$CHAMFERA
 40
0.0
  9
$CHAMFERB
 40
0.0
  9
$CHAMFERC
 40
0.0
  9
$CHAMFERD
 40
0.0
  9
$SKPOLY
 70
     0
  9
$TDCREATE
 40
2459585.49740618
  9
$TDUPDATE
 40
2459585.49740853
  9
$TDINDWG
 40
0.0000000116
  9
$TDUSRTIMER
 40
0.0000000116
  9
$USRTIMER
 70
     1
  9
$ANGBASE
 50
0.0
  9
$ANGDIR
 70
     0
  9
$PDMODE
 70
     0
  9
$PDSIZE
 40
0.0
  9
$PLINEWID
 40
0.0
  9
$COORDS
 70
     1
  9
$SPLFRAME
 70
     0
  9
$SPLINETYPE
 70
     6
  9
$SPLINESEGS
 70
     8
  9
$ATTDIA
 70
     0
  9
$ATTREQ
 70
     1
  9
$HANDLING
 70
     1
  9
$HANDSEED
  5
739
  9
$SURFTAB1
 70
     6
  9
$SURFTAB2
 70
     6
  9
$SURFTYPE
 70
     6
  9
$SURFU
 70
     6
  9
$SURFV
 70
     6
  9
$UCSNAME
  2

  9
$UCSORG
 10
0.0
 20
0.0
 30
0.0
  9
$UCSXDIR
 10
1.0
 20
0.0
 30
0.0
  9
$UCSYDIR
 10
0.0
 20
1.0
 30
0.0
  9
$PUCSNAME
  2

  9
$PUCSORG
 10
0.0
 20
0.0
 30
0.0
  9
$PUCSXDIR
 10
1.0
 20
0.0
 30
0.0
  9
$PUCSYDIR
 10
0.0
 20
1.0
 30
0.0
  9
$USERI1
 70
     0
  9
$USERI2
 70
     0
  9
$USERI3
 70
     0
  9
$USERI4
 70
     0
  9
$USERI5
 70
     0
  9
$USERR1
 40
0.0
  9
$USERR2
 40
0.0
  9
$USERR3
 40
0.0
  9
$USERR4
 40
0.0
  9
$USERR5
 40
0.0
  9
$WORLDVIEW
 70
     1
  9
$SHADEDGE
 70
     3
  9
$SHADEDIF
 70
    70
  9
$TILEMODE
 70
     1
  9
$MAXACTVP
 70
    64
  9
$PINSBASE
 10
0.0
 20
0.0
 30
0.0
  9
$PLIMCHECK
 70
     0
  9
$PEXTMIN
 10
1.000000000000000E+20
 20
1.000000000000000E+20
 30
1.000000000000000E+20
  9
$PEXTMAX
 10
-1.000000000000000E+20
 20
-1.000000000000000E+20
 30
-1.000000000000000E+20
  9
$PLIMMIN
 10
0.0
 20
0.0
  9
$PLIMMAX
 10
420.0
 20
297.0
  9
$UNITMODE
 70
     0
  9
$VISRETAIN
 70
     1
  9
$PLINEGEN
 70
     0
  9
$PSLTSCALE
 70
     1
  9
$TREEDEPTH
 70
  3020
  9
$PICKSTYLE
 70
     1
  9
$CMLSTYLE
  2
STANDARD
  9
$CMLJUST
 70
     0
  9
$CMLSCALE
 40
20.0
  9
$PROXYGRAPHICS
 70
     1
  9
$MEASUREMENT
 70
     1
  0
ENDSEC
  0
SECTION
  2
CLASSES
  0
CLASS
  1
ACDBDICTIONARYWDFLT
  2
AcDbDictionaryWithDefault
  3
ObjectDBX Classes
 90
        0
280
     0
281
     0
  0
CLASS
  1
VISUALSTYLE
  2
AcDbVisualStyle
  3
ObjectDBX Classes
 90
     4095
280
     0
281
     0
  0
CLASS
  1
MATERIAL
  2
AcDbMaterial
  3
ObjectDBX Classes
 90
     1153
280
     0
281
     0
  0
CLASS
  1
SCALE
  2
AcDbScale
  3
ObjectDBX Classes
 90
     1153
280
     0
281
     0
  0
CLASS
  1
TABLESTYLE
  2
AcDbTableStyle
  3
ObjectDBX Classes
 90
     4095
280
     0
281
     0
  0
CLASS
  1
MLEADERSTYLE
  2
AcDbMLeaderStyle
  3
ACDB_MLEADERSTYLE_CLASS
 90
     4095
280
     0
281
     0
  0
CLASS
  1
SUN
  2
AcDbSun
  3
SCENEOE
 90
     1153
280
     0
281
     0
  0
CLASS
  1
DICTIONARYVAR
  2
AcDbDictionaryVar
  3
ObjectDBX Classes
 90
        0
280
     0
281
     0
  0
CLASS
  1
XRECORD
  2
AcDbXrecord
  3
ObjectDBX Classes
 90
        0
280
     0
281
     0
  0
CLASS
  1
LWPOLYLINE
  2
AcDbPolyline
  3
ObjectDBX Classes
 90
        0
280
     0
281
     1
  0
CLASS
  1
HATCH
  2
AcDbHatch
  3
ObjectDBX Classes
 90
        0
280
     0
281
     1
  0
CLASS
  1
ACDBPLACEHOLDER
  2
AcDbPlaceHolder
  3
ObjectDBX Classes
 90
        0
280
     0
281
     0
  0
CLASS
  1
LAYOUT
  2
AcDbLayout
  3
ObjectDBX Classes
 90
        0
280
     0
281
     0
  0
ENDSEC
  0
SECTION
  2
TABLES
  0
TABLE
  2
VPORT
  5
8
102
{ACAD_XDICTIONARY
360
72E
102
}
330
0
100
AcDbSymbolTable
 70
     1
  0
VPORT
  5
29
330
8
100
AcDbSymbolTableRecord
100
AcDbViewportTableRecord
  2
*ACTIVE
 70
     0
 10
0.0
 20
0.0
 11
1.0
 21
1.0
 12
1680.0
 22
1188.0
 13
0.0
 23
0.0
 14
10.0
 24
10.0
 15
10.0
 25
10.0
 16
0.0
 26
0.0
 36
1.0
 17
0.0
 27
0.0
 37
0.0
 40
2216.0
 41
1.444043321299639
 42
50.0
 43
0.0
 44
0.0
 50
0.0
 51
0.0
 71
     0
 72
  1000
 73
     1
 74
     3
 75
     0
 76
     0
 77
     0
 78
     0
  0
ENDTAB
  0
TABLE
  2
LTYPE
  5
5
330
0
100
AcDbSymbolTable
 70
     9
  0
LTYPE
  5
14
330
5
100
AcDbSymbolTableRecord
100
AcDbLinetypeTableRecord
  2
BYBLOCK
 70
     0
  3

 72
    65
 73
     0
 40
0.0
  0
LTYPE
  5
15
330
5
100
AcDbSymbolTableRecord
100
AcDbLinetypeTableRecord
  2
BYLAYER
 70
     0
  3

 72
    65
 73
     0
 40
0.0
  0
LTYPE
  5
16
330
5
100
AcDbSymbolTableRecord
100
AcDbLinetypeTableRecord
  2
CONTINUOUS
 70
     0
  3
Solid line
 72
    65
 73
     0
 40
0.0
  0
LTYPE
  5
6E
330
5
100
AcDbSymbolTableRecord
100
AcDbLinetypeTableRecord
  2
EXLTYPE0
 70
     0
  3
破線
 72
    65
 73
     2
 40
4.0
 49
3.0
 74
     0
 49
-1.0
 74
     0
  0
LTYPE
  5
6F
330
5
100
AcDbSymbolTableRecord
100
AcDbLinetypeTableRecord
  2
EXLTYPE1
 70
     0
  3
点線
 72
    65
 73
     2
 40
2.0
 49
1.0
 74
     0
 49
-1.0
 74
     0
  0
LTYPE
  5
70
330
5
100
AcDbSymbolTableRecord
100
AcDbLinetypeTableRecord
  2
EXLTYPE2
 70
     0
  3
一点鎖線
 72
    65
 73
     4
 40
13.0
 49
10.0
 74
     0
 49
-1.0
 74
     0
 49
1.0
 74
     0
 49
-1.0
 74
     0
  0
LTYPE
  5
71
330
5
100
AcDbSymbolTableRecord
100
AcDbLinetypeTableRecord
  2
EXLTYPE3
 70
     0
  3
二点鎖線
 72
    65
 73
     6
 40
15.0
 49
10.0
 74
     0
 49
-1.0
 74
     0
 49
1.0
 74
     0
 49
-1.0
 74
     0
 49
1.0
 74
     0
 49
-1.0
 74
     0
  0
LTYPE
  5
72
330
5
100
AcDbSymbolTableRecord
100
AcDbLinetypeTableRecord
  2
EXLTYPE4
 70
     0
  3
一点鎖線2
 72
    65
 73
     4
 40
3.5
 49
2.0
 74
     0
 49
-0.5
 74
     0
 49
0.5
 74
     0
 49
-0.5
 74
     0
  0
LTYPE
  5
73
330
5
100
AcDbSymbolTableRecord
100
AcDbLinetypeTableRecord
  2
EXLTYPE5
 70
     0
  3
二点鎖線2
 72
    65
 73
     6
 40
4.5
 49
2.0
 74
     0
 49
-0.5
 74
     0
 49
0.5
 74
     0
 49
-0.5
 74
     0
 49
0.5
 74
     0
 49
-0.5
 74
     0
  0
LTYPE
  5
74
330
5
100
AcDbSymbolTableRecord
100
AcDbLinetypeTableRecord
  2
EXLTYPE6
 70
     0
  3
破線3
 72
    65
 73
     2
 40
2.5
 49
1.5
 74
     0
 49
-1.0
 74
     0
  0
LTYPE
  5
75
330
5
100
AcDbSymbolTableRecord
100
AcDbLinetypeTableRecord
  2
EXLTYPE7
 70
     0
  3
一点鎖線3
 72
    65
 73
     4
 40
33.0
 49
30.0
 74
     0
 49
-1.0
 74
     0
 49
1.0
 74
     0
 49
-1.0
 74
     0
  0
ENDTAB
  0
TABLE
  2
LAYER
  5
2
330
0
100
AcDbSymbolTable
 70
     4
  0
LAYER
  5
10
330
2
100
AcDbSymbolTableRecord
100
AcDbLayerTableRecord
  2
0
 70
     0
 62
     7
  6
CONTINUOUS
  0
LAYER
  5
78
330
2
100
AcDbSymbolTableRecord
100
AcDbLayerTableRecord
  2
図面枠
 70
     4
 62
     7
  6
CONTINUOUS
  0
LAYER
  5
79
330
2
100
AcDbSymbolTableRecord
100
AcDbLayerTableRecord
  2
Ｓ_１_１
 70
     0
 62
     7
  6
CONTINUOUS
  0
LAYER
  5
38A
330
2
100
AcDbSymbolTableRecord
100
AcDbLayerTableRecord
  2
DEFPOINTS
 70
     0
 62
     7
  6
CONTINUOUS
  0
ENDTAB
  0
TABLE
  2
STYLE
  5
3
330
0
100
AcDbSymbolTable
 70
     5
  0
STYLE
  5
11
330
3
100
AcDbSymbolTableRecord
100
AcDbTextStyleTableRecord
  2
STANDARD
 70
     0
 40
0.0
 41
1.0
 50
0.0
 71
     0
 42
2.5
  3
monotxt
  4
extfont
  0
STYLE
  5
76
330
3
100
AcDbSymbolTableRecord
100
AcDbTextStyleTableRecord
  2
EXCADSTD
 70
     0
 40
0.0
 41
1.0
 50
0.0
 71
     0
 42
2.5
  3
monotxt
  4
extfont
  0
STYLE
  5
77
330
3
100
AcDbSymbolTableRecord
100
AcDbTextStyleTableRecord
  2
EXCADVERT
 70
     4
 40
0.0
 41
1.0
 50
0.0
 71
     0
 42
2.5
  3
monotxt
  4
extfont
  0
STYLE
  5
DC
330
3
100
AcDbSymbolTableRecord
100
AcDbTextStyleTableRecord
  2
EXCADTTF1
 70
     0
 40
0.0
 41
1.0
 50
0.0
 71
     0
 42
2.5
  3
msgothic.ttc
  4

1001
ACAD
1000
MS Gothic
1071
    32817
  0
STYLE
  5
388
330
3
100
AcDbSymbolTableRecord
100
AcDbTextStyleTableRecord
  2
EXCADDIM1
 70
     0
 40
0.0
 41
1.0
 50
0.0
 71
     0
 42
2.5
  3
msgothic.ttc
  4

1001
ACAD
1000
MS Gothic
1071
    32817
  0
ENDTAB
  0
TABLE
  2
VIEW
  5
6
330
0
100
AcDbSymbolTable
 70
     0
  0
ENDTAB
  0
TABLE
  2
UCS
  5
7
330
0
100
AcDbSymbolTable
 70
     0
  0
ENDTAB
  0
TABLE
  2
APPID
  5
9
330
0
100
AcDbSymbolTable
 70
     2
  0
APPID
  5
12
330
9
100
AcDbSymbolTableRecord
100
AcDbRegAppTableRecord
  2
ACAD
 70
     0
  0
APPID
  5
738
330
9
100
AcDbSymbolTableRecord
100
AcDbRegAppTableRecord
  2
ACAD_MLEADERVER
 70
     0
  0
ENDTAB
  0
TABLE
  2
DIMSTYLE
  5
A
330
0
100
AcDbSymbolTable
 70
     1
  0
DIMSTYLE
105
27
102
{ACAD_REACTORS
330
389
330
397
330
3A4
330
3B1
330
3BE
330
3E8
330
3F5
330
402
330
40F
330
41C
330
429
330
436
330
444
330
476
330
483
330
673
330
680
330
68D
330
6C0
330
6CF
102
}
330
A
100
AcDbSymbolTableRecord
100
AcDbDimStyleTableRecord
  2
ISO-25
 70
     0
  3

  4

  5

  6

  7

 40
1.0
 41
2.5
 42
0.625
 43
3.75
 44
1.25
 45
0.0
 46
0.0
 47
0.0
 48
0.0
140
2.5
141
2.5
142
0.0
143
0.03937007874016
144
1.0
145
0.0
146
1.0
147
0.625
 71
     0
 72
     0
 73
     0
 74
     0
 75
     0
 76
     0
 77
     1
 78
     8
170
     0
171
     3
172
     1
173
     0
174
     0
175
     0
176
     0
177
     0
178
     0
270
     2
271
     2
272
     2
273
     2
274
     3
340
11
275
     0
280
     0
281
     0
282
     0
283
     0
284
     8
285
     0
286
     0
287
     5
288
     0
  0
ENDTAB
  0
TABLE
  2
BLOCK_RECORD
  5
1
330
0
100
AcDbSymbolTable
 70
    34
  0
BLOCK_RECORD
  5
1F
330
1
100
AcDbSymbolTableRecord
100
AcDbBlockTableRecord
  2
*MODEL_SPACE
  0
BLOCK_RECORD
  5
1B
330
1
100
AcDbSymbolTableRecord
100
AcDbBlockTableRecord
  2
*PAPER_SPACE
  0
BLOCK_RECORD
  5
7A
330
1
100
AcDbSymbolTableRecord
100
AcDbBlockTableRecord
  2
EX_NORM
  0
BLOCK_RECORD
  5
7D
330
1
100
AcDbSymbolTableRecord
100
AcDbBlockTableRecord
  2
EX_BNORM
  0
BLOCK_RECORD
  5
80
330
1
100
AcDbSymbolTableRecord
100
AcDbBlockTableRecord
  2
EX_BCIR
  0
BLOCK_RECORD
  5
83
330
1
100
AcDbSymbolTableRecord
100
AcDbBlockTableRecord
  2
EX_RCIVIL
  0
BLOCK_RECORD
  5
86
330
1
100
AcDbSymbolTableRecord
100
AcDbBlockTableRecord
  2
EX_SLANT
  0
BLOCK_RECORD
  5
89
330
1
100
AcDbSymbolTableRecord
100
AcDbBlockTableRecord
  2
EX_NONE
  0
BLOCK_RECORD
  5
8C
330
1
100
AcDbSymbolTableRecord
100
AcDbBlockTableRecord
  2
EX_CIVIL
  0
BLOCK_RECORD
  5
8F
330
1
100
AcDbSymbolTableRecord
100
AcDbBlockTableRecord
  2
EX_WCIR
  0
BLOCK_RECORD
  5
92
330
1
100
AcDbSymbolTableRecord
100
AcDbBlockTableRecord
  2
EX_WCIR2
  0
BLOCK_RECORD
  5
95
330
1
100
AcDbSymbolTableRecord
100
AcDbBlockTableRecord
  2
EX_WNORM
  0
BLOCK_RECORD
  5
98
330
1
100
AcDbSymbolTableRecord
100
AcDbBlockTableRecord
  2
EX_NNORM
  0
BLOCK_RECORD
  5
9B
330
1
100
AcDbSymbolTableRecord
100
AcDbBlockTableRecord
  2
EX_BBOX
  0
BLOCK_RECORD
  5
9E
330
1
100
AcDbSymbolTableRecord
100
AcDbBlockTableRecord
  2
EX_WBOX
  0
BLOCK_RECORD
  5
A1
330
1
100
AcDbSymbolTableRecord
100
AcDbBlockTableRecord
  2
EX_INTEGRAL
  0
BLOCK_RECORD
  5
38B
330
1
100
AcDbSymbolTableRecord
100
AcDbBlockTableRecord
  2
*D15
  0
BLOCK_RECORD
  5
398
330
1
100
AcDbSymbolTableRecord
100
AcDbBlockTableRecord
  2
*D16
  0
BLOCK_RECORD
  5
3A5
330
1
100
AcDbSymbolTableRecord
100
AcDbBlockTableRecord
  2
*D17
  0
BLOCK_RECORD
  5
3B2
330
1
100
AcDbSymbolTableRecord
100
AcDbBlockTableRecord
  2
*D18
  0
BLOCK_RECORD
  5
3BF
330
1
100
AcDbSymbolTableRecord
100
AcDbBlockTableRecord
  2
*D19
  0
BLOCK_RECORD
  5
3E9
330
1
100
AcDbSymbolTableRecord
100
AcDbBlockTableRecord
  2
*D20
  0
BLOCK_RECORD
  5
3F6
330
1
100
AcDbSymbolTableRecord
100
AcDbBlockTableRecord
  2
*D21
  0
BLOCK_RECORD
  5
403
330
1
100
AcDbSymbolTableRecord
100
AcDbBlockTableRecord
  2
*D22
  0
BLOCK_RECORD
  5
410
330
1
100
AcDbSymbolTableRecord
100
AcDbBlockTableRecord
  2
*D23
  0
BLOCK_RECORD
  5
41D
330
1
100
AcDbSymbolTableRecord
100
AcDbBlockTableRecord
  2
*D24
  0
BLOCK_RECORD
  5
42A
330
1
100
AcDbSymbolTableRecord
100
AcDbBlockTableRecord
  2
*D25
  0
BLOCK_RECORD
  5
437
330
1
100
AcDbSymbolTableRecord
100
AcDbBlockTableRecord
  2
*D26
  0
BLOCK_RECORD
  5
445
330
1
100
AcDbSymbolTableRecord
100
AcDbBlockTableRecord
  2
*D27
  0
BLOCK_RECORD
  5
477
330
1
100
AcDbSymbolTableRecord
100
AcDbBlockTableRecord
  2
*D28
  0
BLOCK_RECORD
  5
484
330
1
100
AcDbSymbolTableRecord
100
AcDbBlockTableRecord
  2
*D29
  0
BLOCK_RECORD
  5
674
330
1
100
AcDbSymbolTableRecord
100
AcDbBlockTableRecord
  2
*D30
  0
BLOCK_RECORD
  5
681
330
1
100
AcDbSymbolTableRecord
100
AcDbBlockTableRecord
  2
*D31
  0
BLOCK_RECORD
  5
68E
330
1
100
AcDbSymbolTableRecord
100
AcDbBlockTableRecord
  2
*D32
  0
BLOCK_RECORD
  5
6C1
330
1
100
AcDbSymbolTableRecord
100
AcDbBlockTableRecord
  2
*D33
  0
BLOCK_RECORD
  5
6D0
330
1
100
AcDbSymbolTableRecord
100
AcDbBlockTableRecord
  2
*D34
  0
ENDTAB
  0
ENDSEC
  0
SECTION
  2
BLOCKS
  0
BLOCK
  5
20
330
1F
100
AcDbEntity
  8
0
100
AcDbBlockBegin
  2
*MODEL_SPACE
 70
     0
 10
0.0
 20
0.0
 30
0.0
  3
*MODEL_SPACE
  1

  0
ENDBLK
  5
21
330
1F
100
AcDbEntity
  8
0
100
AcDbBlockEnd
  0
BLOCK
  5
1C
330
1B
100
AcDbEntity
 67
     1
  8
0
100
AcDbBlockBegin
  2
*PAPER_SPACE
 70
     0
 10
0.0
 20
0.0
 30
0.0
  3
*PAPER_SPACE
  1

  0
ENDBLK
  5
1D
330
1B
100
AcDbEntity
 67
     1
  8
0
100
AcDbBlockEnd
  0
BLOCK
  5
7B
330
7A
100
AcDbEntity
  8
0
100
AcDbBlockBegin
  2
EX_NORM
 70
     0
 10
0.0
 20
0.0
 30
0.0
  3
EX_NORM
  1

  0
LINE
  5
A4
330
7A
100
AcDbEntity
  8
0
  6
CONTINUOUS
 62
     0
100
AcDbLine
 10
0.0
 20
0.0
 30
0.0
 11
-1.0
 21
0.0
 31
0.0
  0
LINE
  5
A5
330
7A
100
AcDbEntity
  8
0
  6
CONTINUOUS
 62
     0
100
AcDbLine
 10
0.0
 20
0.0
 30
0.0
 11
-1.0
 21
0.166666667
 31
0.0
  0
LINE
  5
A6
330
7A
100
AcDbEntity
  8
0
  6
CONTINUOUS
 62
     0
100
AcDbLine
 10
0.0
 20
0.0
 30
0.0
 11
-1.0
 21
-0.166666667
 31
0.0
  0
ENDBLK
  5
7C
330
7A
100
AcDbEntity
  8
0
100
AcDbBlockEnd
  0
BLOCK
  5
7E
330
7D
100
AcDbEntity
  8
0
100
AcDbBlockBegin
  2
EX_BNORM
 70
     0
 10
0.0
 20
0.0
 30
0.0
  3
EX_BNORM
  1

  0
LINE
  5
A7
330
7D
100
AcDbEntity
  8
0
  6
CONTINUOUS
 62
     0
100
AcDbLine
 10
0.0
 20
0.0
 30
0.0
 11
-1.0
 21
0.0
 31
0.0
  0
LINE
  5
A8
330
7D
100
AcDbEntity
  8
0
  6
CONTINUOUS
 62
     0
100
AcDbLine
 10
0.0
 20
0.0
 30
0.0
 11
-1.0
 21
0.166666667
 31
0.0
  0
LINE
  5
A9
330
7D
100
AcDbEntity
  8
0
  6
CONTINUOUS
 62
     0
100
AcDbLine
 10
0.0
 20
0.0
 30
0.0
 11
-1.0
 21
-0.166666667
 31
0.0
  0
LINE
  5
AA
330
7D
100
AcDbEntity
  8
0
  6
CONTINUOUS
 62
     0
100
AcDbLine
 10
0.0
 20
0.0
 30
0.0
 11
-1.0
 21
0.083333333
 31
0.0
  0
LINE
  5
AB
330
7D
100
AcDbEntity
  8
0
  6
CONTINUOUS
 62
     0
100
AcDbLine
 10
0.0
 20
0.0
 30
0.0
 11
-1.0
 21
-0.083333333
 31
0.0
  0
LINE
  5
AC
330
7D
100
AcDbEntity
  8
0
  6
CONTINUOUS
 62
     0
100
AcDbLine
 10
-1.0
 20
0.166666667
 30
0.0
 11
-1.0
 21
-0.166666667
 31
0.0
  0
ENDBLK
  5
7F
330
7D
100
AcDbEntity
  8
0
100
AcDbBlockEnd
  0
BLOCK
  5
81
330
80
100
AcDbEntity
  8
0
100
AcDbBlockBegin
  2
EX_BCIR
 70
     0
 10
0.0
 20
0.0
 30
0.0
  3
EX_BCIR
  1

  0
LINE
  5
AD
330
80
100
AcDbEntity
  8
0
  6
CONTINUOUS
 62
     0
100
AcDbLine
 10
0.0
 20
0.0
 30
0.0
 11
-1.0
 21
0.0
 31
0.0
  0
CIRCLE
  5
AE
330
80
100
AcDbEntity
  8
0
  6
CONTINUOUS
 62
     0
100
AcDbCircle
 10
0.0
 20
0.0
 30
0.0
 40
0.5
  0
CIRCLE
  5
AF
330
80
100
AcDbEntity
  8
0
  6
CONTINUOUS
 62
     0
100
AcDbCircle
 10
0.0
 20
0.0
 30
0.0
 40
0.25
  0
ENDBLK
  5
82
330
80
100
AcDbEntity
  8
0
100
AcDbBlockEnd
  0
BLOCK
  5
84
330
83
100
AcDbEntity
  8
0
100
AcDbBlockBegin
  2
EX_RCIVIL
 70
     0
 10
0.0
 20
0.0
 30
0.0
  3
EX_RCIVIL
  1

  0
LINE
  5
B0
330
83
100
AcDbEntity
  8
0
  6
CONTINUOUS
 62
     0
100
AcDbLine
 10
0.0
 20
0.0
 30
0.0
 11
-1.0
 21
0.0
 31
0.0
  0
LINE
  5
B1
330
83
100
AcDbEntity
  8
0
  6
CONTINUOUS
 62
     0
100
AcDbLine
 10
-1.0
 20
-0.25
 30
0.0
 11
0.0
 21
-0.25
 31
0.0
  0
LINE
  5
B2
330
83
100
AcDbEntity
  8
0
  6
CONTINUOUS
 62
     0
100
AcDbLine
 10
-1.0
 20
-0.125
 30
0.0
 11
0.0
 21
-0.125
 31
0.0
  0
ENDBLK
  5
85
330
83
100
AcDbEntity
  8
0
100
AcDbBlockEnd
  0
BLOCK
  5
87
330
86
100
AcDbEntity
  8
0
100
AcDbBlockBegin
  2
EX_SLANT
 70
     0
 10
0.0
 20
0.0
 30
0.0
  3
EX_SLANT
  1

  0
LINE
  5
B3
330
86
100
AcDbEntity
  8
0
  6
CONTINUOUS
 62
     0
100
AcDbLine
 10
0.0
 20
0.0
 30
0.0
 11
-1.0
 21
0.0
 31
0.0
  0
LINE
  5
B4
330
86
100
AcDbEntity
  8
0
  6
CONTINUOUS
 62
     0
100
AcDbLine
 10
0.707106781
 20
0.707106781
 30
0.0
 11
-0.707106781
 21
-0.707106781
 31
0.0
  0
ENDBLK
  5
88
330
86
100
AcDbEntity
  8
0
100
AcDbBlockEnd
  0
BLOCK
  5
8A
330
89
100
AcDbEntity
  8
0
100
AcDbBlockBegin
  2
EX_NONE
 70
     0
 10
0.0
 20
0.0
 30
0.0
  3
EX_NONE
  1

  0
LINE
  5
B5
330
89
100
AcDbEntity
  8
0
  6
CONTINUOUS
 62
     0
100
AcDbLine
 10
0.0
 20
0.0
 30
0.0
 11
-1.0
 21
0.0
 31
0.0
  0
ENDBLK
  5
8B
330
89
100
AcDbEntity
  8
0
100
AcDbBlockEnd
  0
BLOCK
  5
8D
330
8C
100
AcDbEntity
  8
0
100
AcDbBlockBegin
  2
EX_CIVIL
 70
     0
 10
0.0
 20
0.0
 30
0.0
  3
EX_CIVIL
  1

  0
LINE
  5
B6
330
8C
100
AcDbEntity
  8
0
  6
CONTINUOUS
 62
     0
100
AcDbLine
 10
0.0
 20
0.0
 30
0.0
 11
-1.0
 21
0.0
 31
0.0
  0
LINE
  5
B7
330
8C
100
AcDbEntity
  8
0
  6
CONTINUOUS
 62
     0
100
AcDbLine
 10
-1.0
 20
0.25
 30
0.0
 11
0.0
 21
0.25
 31
0.0
  0
LINE
  5
B8
330
8C
100
AcDbEntity
  8
0
  6
CONTINUOUS
 62
     0
100
AcDbLine
 10
-1.0
 20
0.125
 30
0.0
 11
0.0
 21
0.125
 31
0.0
  0
ENDBLK
  5
8E
330
8C
100
AcDbEntity
  8
0
100
AcDbBlockEnd
  0
BLOCK
  5
90
330
8F
100
AcDbEntity
  8
0
100
AcDbBlockBegin
  2
EX_WCIR
 70
     0
 10
0.0
 20
0.0
 30
0.0
  3
EX_WCIR
  1

  0
LINE
  5
B9
330
8F
100
AcDbEntity
  8
0
  6
CONTINUOUS
 62
     0
100
AcDbLine
 10
0.0
 20
0.0
 30
0.0
 11
-1.0
 21
0.0
 31
0.0
  0
CIRCLE
  5
BA
330
8F
100
AcDbEntity
  8
0
  6
CONTINUOUS
 62
     0
100
AcDbCircle
 10
0.0
 20
0.0
 30
0.0
 40
0.5
  0
ENDBLK
  5
91
330
8F
100
AcDbEntity
  8
0
100
AcDbBlockEnd
  0
BLOCK
  5
93
330
92
100
AcDbEntity
  8
0
100
AcDbBlockBegin
  2
EX_WCIR2
 70
     0
 10
0.0
 20
0.0
 30
0.0
  3
EX_WCIR2
  1

  0
LINE
  5
BB
330
92
100
AcDbEntity
  8
0
  6
CONTINUOUS
 62
     0
100
AcDbLine
 10
-0.5
 20
0.0
 30
0.0
 11
-1.0
 21
0.0
 31
0.0
  0
CIRCLE
  5
BC
330
92
100
AcDbEntity
  8
0
  6
CONTINUOUS
 62
     0
100
AcDbCircle
 10
0.0
 20
0.0
 30
0.0
 40
0.5
  0
ENDBLK
  5
94
330
92
100
AcDbEntity
  8
0
100
AcDbBlockEnd
  0
BLOCK
  5
96
330
95
100
AcDbEntity
  8
0
100
AcDbBlockBegin
  2
EX_WNORM
 70
     0
 10
0.0
 20
0.0
 30
0.0
  3
EX_WNORM
  1

  0
LINE
  5
BD
330
95
100
AcDbEntity
  8
0
  6
CONTINUOUS
 62
     0
100
AcDbLine
 10
-1.0
 20
0.0
 30
0.0
 11
-1.0
 21
0.0
 31
0.0
  0
LINE
  5
BE
330
95
100
AcDbEntity
  8
0
  6
CONTINUOUS
 62
     0
100
AcDbLine
 10
0.0
 20
0.0
 30
0.0
 11
-1.0
 21
0.166666667
 31
0.0
  0
LINE
  5
BF
330
95
100
AcDbEntity
  8
0
  6
CONTINUOUS
 62
     0
100
AcDbLine
 10
0.0
 20
0.0
 30
0.0
 11
-1.0
 21
-0.166666667
 31
0.0
  0
LINE
  5
C0
330
95
100
AcDbEntity
  8
0
  6
CONTINUOUS
 62
     0
100
AcDbLine
 10
-1.0
 20
0.166666667
 30
0.0
 11
-1.0
 21
-0.166666667
 31
0.0
  0
ENDBLK
  5
97
330
95
100
AcDbEntity
  8
0
100
AcDbBlockEnd
  0
BLOCK
  5
99
330
98
100
AcDbEntity
  8
0
100
AcDbBlockBegin
  2
EX_NNORM
 70
     0
 10
0.0
 20
0.0
 30
0.0
  3
EX_NNORM
  1

  0
LINE
  5
C1
330
98
100
AcDbEntity
  8
0
  6
CONTINUOUS
 62
     0
100
AcDbLine
 10
0.0
 20
0.0
 30
0.0
 11
-1.0
 21
0.0
 31
0.0
  0
LINE
  5
C2
330
98
100
AcDbEntity
  8
0
  6
CONTINUOUS
 62
     0
100
AcDbLine
 10
0.0
 20
0.0
 30
0.0
 11
-1.0
 21
0.166666667
 31
0.0
  0
LINE
  5
C3
330
98
100
AcDbEntity
  8
0
  6
CONTINUOUS
 62
     0
100
AcDbLine
 10
0.0
 20
0.0
 30
0.0
 11
-1.0
 21
-0.166666667
 31
0.0
  0
LINE
  5
C4
330
98
100
AcDbEntity
  8
0
  6
CONTINUOUS
 62
     0
100
AcDbLine
 10
-1.0
 20
0.166666667
 30
0.0
 11
-1.0
 21
-0.166666667
 31
0.0
  0
ENDBLK
  5
9A
330
98
100
AcDbEntity
  8
0
100
AcDbBlockEnd
  0
BLOCK
  5
9C
330
9B
100
AcDbEntity
  8
0
100
AcDbBlockBegin
  2
EX_BBOX
 70
     0
 10
0.0
 20
0.0
 30
0.0
  3
EX_BBOX
  1

  0
LINE
  5
C5
330
9B
100
AcDbEntity
  8
0
  6
CONTINUOUS
 62
     0
100
AcDbLine
 10
0.0
 20
0.0
 30
0.0
 11
-1.0
 21
0.0
 31
0.0
  0
LINE
  5
C6
330
9B
100
AcDbEntity
  8
0
  6
CONTINUOUS
 62
     0
100
AcDbLine
 10
-0.5
 20
0.5
 30
0.0
 11
0.5
 21
0.5
 31
0.0
  0
LINE
  5
C7
330
9B
100
AcDbEntity
  8
0
  6
CONTINUOUS
 62
     0
100
AcDbLine
 10
0.5
 20
0.5
 30
0.0
 11
0.5
 21
-0.5
 31
0.0
  0
LINE
  5
C8
330
9B
100
AcDbEntity
  8
0
  6
CONTINUOUS
 62
     0
100
AcDbLine
 10
0.5
 20
-0.5
 30
0.0
 11
-0.5
 21
-0.5
 31
0.0
  0
LINE
  5
C9
330
9B
100
AcDbEntity
  8
0
  6
CONTINUOUS
 62
     0
100
AcDbLine
 10
-0.5
 20
-0.5
 30
0.0
 11
-0.5
 21
0.5
 31
0.0
  0
LINE
  5
CA
330
9B
100
AcDbEntity
  8
0
  6
CONTINUOUS
 62
     0
100
AcDbLine
 10
-0.25
 20
0.25
 30
0.0
 11
0.25
 21
0.25
 31
0.0
  0
LINE
  5
CB
330
9B
100
AcDbEntity
  8
0
  6
CONTINUOUS
 62
     0
100
AcDbLine
 10
0.25
 20
0.25
 30
0.0
 11
0.25
 21
-0.25
 31
0.0
  0
LINE
  5
CC
330
9B
100
AcDbEntity
  8
0
  6
CONTINUOUS
 62
     0
100
AcDbLine
 10
0.25
 20
-0.25
 30
0.0
 11
-0.25
 21
-0.25
 31
0.0
  0
LINE
  5
CD
330
9B
100
AcDbEntity
  8
0
  6
CONTINUOUS
 62
     0
100
AcDbLine
 10
-0.25
 20
-0.25
 30
0.0
 11
-0.25
 21
0.25
 31
0.0
  0
ENDBLK
  5
9D
330
9B
100
AcDbEntity
  8
0
100
AcDbBlockEnd
  0
BLOCK
  5
9F
330
9E
100
AcDbEntity
  8
0
100
AcDbBlockBegin
  2
EX_WBOX
 70
     0
 10
0.0
 20
0.0
 30
0.0
  3
EX_WBOX
  1

  0
LINE
  5
CE
330
9E
100
AcDbEntity
  8
0
  6
CONTINUOUS
 62
     0
100
AcDbLine
 10
-0.5
 20
0.0
 30
0.0
 11
-1.0
 21
0.0
 31
0.0
  0
LINE
  5
CF
330
9E
100
AcDbEntity
  8
0
  6
CONTINUOUS
 62
     0
100
AcDbLine
 10
-0.5
 20
0.5
 30
0.0
 11
0.5
 21
0.5
 31
0.0
  0
LINE
  5
D0
330
9E
100
AcDbEntity
  8
0
  6
CONTINUOUS
 62
     0
100
AcDbLine
 10
0.5
 20
0.5
 30
0.0
 11
0.5
 21
-0.5
 31
0.0
  0
LINE
  5
D1
330
9E
100
AcDbEntity
  8
0
  6
CONTINUOUS
 62
     0
100
AcDbLine
 10
0.5
 20
-0.5
 30
0.0
 11
-0.5
 21
-0.5
 31
0.0
  0
LINE
  5
D2
330
9E
100
AcDbEntity
  8
0
  6
CONTINUOUS
 62
     0
100
AcDbLine
 10
-0.5
 20
-0.5
 30
0.0
 11
-0.5
 21
0.5
 31
0.0
  0
ENDBLK
  5
A0
330
9E
100
AcDbEntity
  8
0
100
AcDbBlockEnd
  0
BLOCK
  5
A2
330
A1
100
AcDbEntity
  8
0
100
AcDbBlockBegin
  2
EX_INTEGRAL
 70
     0
 10
0.0
 20
0.0
 30
0.0
  3
EX_INTEGRAL
  1

  0
LINE
  5
D3
330
A1
100
AcDbEntity
  8
0
  6
CONTINUOUS
 62
     0
100
AcDbLine
 10
0.0
 20
0.0
 30
0.0
 11
-1.0
 21
0.0
 31
0.0
  0
ARC
  5
D4
330
A1
100
AcDbEntity
  8
0
  6
CONTINUOUS
 62
     0
100
AcDbCircle
 10
0.542115
 20
0.164992
 30
0.0
 40
0.56667
100
AcDbArc
 50
73.07249033629006
 51
196.9275130221199
  0
ARC
  5
D5
330
A1
100
AcDbEntity
  8
0
  6
CONTINUOUS
 62
     0
100
AcDbCircle
 10
-0.542115
 20
-0.164992
 30
0.0
 40
0.56667
100
AcDbArc
 50
253.0724869220464
 51
16.9275130559125
  0
ENDBLK
  5
A3
330
A1
100
AcDbEntity
  8
0
100
AcDbBlockEnd
  0
BLOCK
  5
38C
330
38B
100
AcDbEntity
  8
0
100
AcDbBlockBegin
  2
*D15
 70
     1
 10
0.0
 20
0.0
 30
0.0
  3
*D15
  1

  0
LINE
  5
38E
330
38B
100
AcDbEntity
  8
Ｓ_１_１
  6
CONTINUOUS
 62
     2
100
AcDbLine
 10
719.99999999999
 20
1590.5
 30
0.0
 11
719.99999999999
 21
1392.0
 31
0.0
  0
LINE
  5
38F
330
38B
100
AcDbEntity
  8
Ｓ_１_１
  6
CONTINUOUS
 62
     2
100
AcDbLine
 10
1480.0
 20
1590.5
 30
0.0
 11
1480.0
 21
1392.0
 31
0.0
  0
LINE
  5
390
330
38B
100
AcDbEntity
  8
Ｓ_１_１
  6
CONTINUOUS
 62
     2
100
AcDbLine
 10
743.99999999999
 20
1400.0
 30
0.0
 11
1456.0
 21
1400.0
 31
0.0
  0
INSERT
  5
391
330
38B
100
AcDbEntity
  8
Ｓ_１_１
 62
     2
100
AcDbBlockReference
  2
EX_NORM
 10
719.99999999999
 20
1400.0
 30
0.0
 41
24.0
 42
24.0
 43
24.0
 50
180.0
  0
INSERT
  5
392
330
38B
100
AcDbEntity
  8
Ｓ_１_１
 62
     2
100
AcDbBlockReference
  2
EX_NORM
 10
1480.0
 20
1400.0
 30
0.0
 41
24.0
 42
24.0
 43
24.0
  0
MTEXT
  5
393
330
38B
100
AcDbEntity
  8
Ｓ_１_１
 62
     2
100
AcDbMText
 10
1099.999999999995
 20
1422.0
 30
0.0
 40
27.70323325635104
 41
0.0
 71
     5
 72
     1
  1
760
  7
EXCADDIM1
  0
POINT
  5
394
330
38B
100
AcDbEntity
  8
DEFPOINTS
 62
     0
100
AcDbPoint
 10
719.99999999999
 20
1602.5
 30
0.0
  0
POINT
  5
395
330
38B
100
AcDbEntity
  8
DEFPOINTS
 62
     0
100
AcDbPoint
 10
1480.0
 20
1602.5
 30
0.0
  0
POINT
  5
396
330
38B
100
AcDbEntity
  8
DEFPOINTS
 62
     0
100
AcDbPoint
 10
1480.0
 20
1400.0
 30
0.0
  0
ENDBLK
  5
38D
330
38B
100
AcDbEntity
  8
0
100
AcDbBlockEnd
  0
BLOCK
  5
399
330
398
100
AcDbEntity
  8
0
100
AcDbBlockBegin
  2
*D16
 70
     1
 10
0.0
 20
0.0
 30
0.0
  3
*D16
  1

  0
LINE
  5
39B
330
398
100
AcDbEntity
  8
Ｓ_１_１
  6
CONTINUOUS
 62
     2
100
AcDbLine
 10
719.99999999999
 20
1590.5
 30
0.0
 11
719.99999999999
 21
1392.0
 31
0.0
  0
LINE
  5
39C
330
398
100
AcDbEntity
  8
Ｓ_１_１
  6
CONTINUOUS
 62
     2
100
AcDbLine
 10
625.29999999999
 20
1680.3
 30
0.0
 11
625.29999999999
 21
1392.0
 31
0.0
  0
LINE
  5
39D
330
398
100
AcDbEntity
  8
Ｓ_１_１
  6
CONTINUOUS
 62
     2
100
AcDbLine
 10
695.99999999999
 20
1400.0
 30
0.0
 11
649.29999999999
 21
1400.0
 31
0.0
  0
INSERT
  5
39E
330
398
100
AcDbEntity
  8
Ｓ_１_１
 62
     2
100
AcDbBlockReference
  2
EX_NORM
 10
719.99999999999
 20
1400.0
 30
0.0
 41
24.0
 42
24.0
 43
24.0
  0
INSERT
  5
39F
330
398
100
AcDbEntity
  8
Ｓ_１_１
 62
     2
100
AcDbBlockReference
  2
EX_NORM
 10
625.29999999999
 20
1400.0
 30
0.0
 41
24.0
 42
24.0
 43
24.0
 50
180.0
  0
MTEXT
  5
3A0
330
398
100
AcDbEntity
  8
Ｓ_１_１
 62
     2
100
AcDbMText
 10
672.6499999999901
 20
1422.0
 30
0.0
 40
27.70323325635104
 41
0.0
 71
     5
 72
     1
  1
(94.7)
  7
EXCADDIM1
  0
POINT
  5
3A1
330
398
100
AcDbEntity
  8
DEFPOINTS
 62
     0
100
AcDbPoint
 10
719.99999999999
 20
1602.5
 30
0.0
  0
POINT
  5
3A2
330
398
100
AcDbEntity
  8
DEFPOINTS
 62
     0
100
AcDbPoint
 10
625.29999999999
 20
1692.3
 30
0.0
  0
POINT
  5
3A3
330
398
100
AcDbEntity
  8
DEFPOINTS
 62
     0
100
AcDbPoint
 10
625.29999999999
 20
1400.0
 30
0.0
  0
ENDBLK
  5
39A
330
398
100
AcDbEntity
  8
0
100
AcDbBlockEnd
  0
BLOCK
  5
3A6
330
3A5
100
AcDbEntity
  8
0
100
AcDbBlockBegin
  2
*D17
 70
     1
 10
0.0
 20
0.0
 30
0.0
  3
*D17
  1

  0
LINE
  5
3A8
330
3A5
100
AcDbEntity
  8
Ｓ_１_１
  6
CONTINUOUS
 62
     2
100
AcDbLine
 10
1480.0
 20
1590.5
 30
0.0
 11
1480.0
 21
1392.0
 31
0.0
  0
LINE
  5
3A9
330
3A5
100
AcDbEntity
  8
Ｓ_１_１
  6
CONTINUOUS
 62
     2
100
AcDbLine
 10
1574.7
 20
1680.3
 30
0.0
 11
1574.7
 21
1392.0
 31
0.0
  0
LINE
  5
3AA
330
3A5
100
AcDbEntity
  8
Ｓ_１_１
  6
CONTINUOUS
 62
     2
100
AcDbLine
 10
1504.0
 20
1400.0
 30
0.0
 11
1550.7
 21
1400.0
 31
0.0
  0
INSERT
  5
3AB
330
3A5
100
AcDbEntity
  8
Ｓ_１_１
 62
     2
100
AcDbBlockReference
  2
EX_NORM
 10
1480.0
 20
1400.0
 30
0.0
 41
24.0
 42
24.0
 43
24.0
 50
180.0
  0
INSERT
  5
3AC
330
3A5
100
AcDbEntity
  8
Ｓ_１_１
 62
     2
100
AcDbBlockReference
  2
EX_NORM
 10
1574.7
 20
1400.0
 30
0.0
 41
24.0
 42
24.0
 43
24.0
  0
MTEXT
  5
3AD
330
3A5
100
AcDbEntity
  8
Ｓ_１_１
 62
     2
100
AcDbMText
 10
1527.35
 20
1422.0
 30
0.0
 40
27.70323325635104
 41
0.0
 71
     5
 72
     1
  1
(94.7)
  7
EXCADDIM1
  0
POINT
  5
3AE
330
3A5
100
AcDbEntity
  8
DEFPOINTS
 62
     0
100
AcDbPoint
 10
1480.0
 20
1602.5
 30
0.0
  0
POINT
  5
3AF
330
3A5
100
AcDbEntity
  8
DEFPOINTS
 62
     0
100
AcDbPoint
 10
1574.7
 20
1692.3
 30
0.0
  0
POINT
  5
3B0
330
3A5
100
AcDbEntity
  8
DEFPOINTS
 62
     0
100
AcDbPoint
 10
1574.7
 20
1400.0
 30
0.0
  0
ENDBLK
  5
3A7
330
3A5
100
AcDbEntity
  8
0
100
AcDbBlockEnd
  0
BLOCK
  5
3B3
330
3B2
100
AcDbEntity
  8
0
100
AcDbBlockBegin
  2
*D18
 70
     1
 10
0.0
 20
0.0
 30
0.0
  3
*D18
  1

  0
LINE
  5
3B5
330
3B2
100
AcDbEntity
  8
Ｓ_１_１
  6
CONTINUOUS
 62
     2
100
AcDbLine
 10
625.29999999999
 20
1680.3
 30
0.0
 11
625.29999999999
 21
1342.0
 31
0.0
  0
LINE
  5
3B6
330
3B2
100
AcDbEntity
  8
Ｓ_１_１
  6
CONTINUOUS
 62
     2
100
AcDbLine
 10
1574.7
 20
1680.3
 30
0.0
 11
1574.7
 21
1342.0
 31
0.0
  0
LINE
  5
3B7
330
3B2
100
AcDbEntity
  8
Ｓ_１_１
  6
CONTINUOUS
 62
     2
100
AcDbLine
 10
649.29999999999
 20
1350.0
 30
0.0
 11
1550.7
 21
1350.0
 31
0.0
  0
INSERT
  5
3B8
330
3B2
100
AcDbEntity
  8
Ｓ_１_１
 62
     2
100
AcDbBlockReference
  2
EX_NORM
 10
625.29999999999
 20
1350.0
 30
0.0
 41
24.0
 42
24.0
 43
24.0
 50
180.0
  0
INSERT
  5
3B9
330
3B2
100
AcDbEntity
  8
Ｓ_１_１
 62
     2
100
AcDbBlockReference
  2
EX_NORM
 10
1574.7
 20
1350.0
 30
0.0
 41
24.0
 42
24.0
 43
24.0
  0
MTEXT
  5
3BA
330
3B2
100
AcDbEntity
  8
Ｓ_１_１
 62
     2
100
AcDbMText
 10
1099.999999999995
 20
1372.0
 30
0.0
 40
27.70323325635104
 41
0.0
 71
     5
 72
     1
  1
949.4
  7
EXCADDIM1
  0
POINT
  5
3BB
330
3B2
100
AcDbEntity
  8
DEFPOINTS
 62
     0
100
AcDbPoint
 10
625.29999999999
 20
1692.3
 30
0.0
  0
POINT
  5
3BC
330
3B2
100
AcDbEntity
  8
DEFPOINTS
 62
     0
100
AcDbPoint
 10
1574.7
 20
1692.3
 30
0.0
  0
POINT
  5
3BD
330
3B2
100
AcDbEntity
  8
DEFPOINTS
 62
     0
100
AcDbPoint
 10
1574.7
 20
1350.0
 30
0.0
  0
ENDBLK
  5
3B4
330
3B2
100
AcDbEntity
  8
0
100
AcDbBlockEnd
  0
BLOCK
  5
3C0
330
3BF
100
AcDbEntity
  8
0
100
AcDbBlockBegin
  2
*D19
 70
     1
 10
0.0
 20
0.0
 30
0.0
  3
*D19
  1

  0
LINE
  5
3C2
330
3BF
100
AcDbEntity
  8
Ｓ_１_１
  6
CONTINUOUS
 62
     2
100
AcDbLine
 10
787.99999999999
 20
1522.5
 30
0.0
 11
492.0
 21
1522.5
 31
0.0
  0
LINE
  5
3C3
330
3BF
100
AcDbEntity
  8
Ｓ_１_１
  6
CONTINUOUS
 62
     2
100
AcDbLine
 10
500.0
 20
1546.5
 30
0.0
 11
500.0
 21
1926.0
 31
0.0
  0
INSERT
  5
3C4
330
3BF
100
AcDbEntity
  8
Ｓ_１_１
 62
     2
100
AcDbBlockReference
  2
EX_NORM
 10
500.0
 20
1522.5
 30
0.0
 41
24.0
 42
24.0
 43
24.0
 50
270.0
  0
INSERT
  5
3C5
330
3BF
100
AcDbEntity
  8
Ｓ_１_１
 62
     2
100
AcDbBlockReference
  2
EX_NONE
 10
500.0
 20
1950.0
 30
0.0
 41
24.0
 42
24.0
 43
24.0
 50
90.0
  0
MTEXT
  5
3C6
330
3BF
100
AcDbEntity
  8
Ｓ_１_１
 62
     2
100
AcDbMText
 10
478.0000000000001
 20
1736.25
 30
0.0
 40
27.70323325635104
 41
0.0
 71
     5
 72
     1
  1
855
  7
EXCADDIM1
 11
0.0
 21
1.0
 31
0.0
  0
POINT
  5
3C7
330
3BF
100
AcDbEntity
  8
DEFPOINTS
 62
     0
100
AcDbPoint
 10
799.99999999999
 20
1522.5
 30
0.0
  0
POINT
  5
3C8
330
3BF
100
AcDbEntity
  8
DEFPOINTS
 62
     0
100
AcDbPoint
 10
600.0
 20
1950.0
 30
0.0
  0
POINT
  5
3C9
330
3BF
100
AcDbEntity
  8
DEFPOINTS
 62
     0
100
AcDbPoint
 10
500.0
 20
1950.0
 30
0.0
  0
ENDBLK
  5
3C1
330
3BF
100
AcDbEntity
  8
0
100
AcDbBlockEnd
  0
BLOCK
  5
3EA
330
3E9
100
AcDbEntity
  8
0
100
AcDbBlockBegin
  2
*D20
 70
     1
 10
0.0
 20
0.0
 30
0.0
  3
*D20
  1

  0
LINE
  5
3EC
330
3E9
100
AcDbEntity
  8
Ｓ_１_１
  6
CONTINUOUS
 62
     2
100
AcDbLine
 10
759.99999999999
 20
460.0
 30
0.0
 11
759.99999999999
 21
292.0
 31
0.0
  0
LINE
  5
3ED
330
3E9
100
AcDbEntity
  8
Ｓ_１_１
  6
CONTINUOUS
 62
     2
100
AcDbLine
 10
1440.0
 20
460.0
 30
0.0
 11
1440.0
 21
292.0
 31
0.0
  0
LINE
  5
3EE
330
3E9
100
AcDbEntity
  8
Ｓ_１_１
  6
CONTINUOUS
 62
     2
100
AcDbLine
 10
783.99999999999
 20
300.0
 30
0.0
 11
1416.0
 21
300.0
 31
0.0
  0
INSERT
  5
3EF
330
3E9
100
AcDbEntity
  8
Ｓ_１_１
 62
     2
100
AcDbBlockReference
  2
EX_NORM
 10
759.99999999999
 20
300.0
 30
0.0
 41
24.0
 42
24.0
 43
24.0
 50
180.0
  0
INSERT
  5
3F0
330
3E9
100
AcDbEntity
  8
Ｓ_１_１
 62
     2
100
AcDbBlockReference
  2
EX_NORM
 10
1440.0
 20
300.0
 30
0.0
 41
24.0
 42
24.0
 43
24.0
  0
MTEXT
  5
3F1
330
3E9
100
AcDbEntity
  8
Ｓ_１_１
 62
     2
100
AcDbMText
 10
1099.999999999995
 20
322.0
 30
0.0
 40
27.70323325635104
 41
0.0
 71
     5
 72
     1
  1
%%c680
  7
EXCADDIM1
  0
POINT
  5
3F2
330
3E9
100
AcDbEntity
  8
DEFPOINTS
 62
     0
100
AcDbPoint
 10
759.99999999999
 20
472.0
 30
0.0
  0
POINT
  5
3F3
330
3E9
100
AcDbEntity
  8
DEFPOINTS
 62
     0
100
AcDbPoint
 10
1440.0
 20
472.0
 30
0.0
  0
POINT
  5
3F4
330
3E9
100
AcDbEntity
  8
DEFPOINTS
 62
     0
100
AcDbPoint
 10
1440.0
 20
300.0
 30
0.0
  0
ENDBLK
  5
3EB
330
3E9
100
AcDbEntity
  8
0
100
AcDbBlockEnd
  0
BLOCK
  5
3F7
330
3F6
100
AcDbEntity
  8
0
100
AcDbBlockBegin
  2
*D21
 70
     1
 10
0.0
 20
0.0
 30
0.0
  3
*D21
  1

  0
LINE
  5
3F9
330
3F6
100
AcDbEntity
  8
Ｓ_１_１
  6
CONTINUOUS
 62
     2
100
AcDbLine
 10
802.4999999999901
 20
1082.0
 30
0.0
 11
802.4999999999901
 21
1208.0
 31
0.0
  0
LINE
  5
3FA
330
3F6
100
AcDbEntity
  8
Ｓ_１_１
  6
CONTINUOUS
 62
     2
100
AcDbLine
 10
1397.499999999991
 20
1082.0
 30
0.0
 11
1397.499999999991
 21
1208.0
 31
0.0
  0
LINE
  5
3FB
330
3F6
100
AcDbEntity
  8
Ｓ_１_１
  6
CONTINUOUS
 62
     2
100
AcDbLine
 10
826.4999999999901
 20
1200.0
 30
0.0
 11
1373.499999999991
 21
1200.0
 31
0.0
  0
INSERT
  5
3FC
330
3F6
100
AcDbEntity
  8
Ｓ_１_１
 62
     2
100
AcDbBlockReference
  2
EX_NORM
 10
802.4999999999901
 20
1200.0
 30
0.0
 41
24.0
 42
24.0
 43
24.0
 50
180.0
  0
INSERT
  5
3FD
330
3F6
100
AcDbEntity
  8
Ｓ_１_１
 62
     2
100
AcDbBlockReference
  2
EX_NORM
 10
1397.499999999991
 20
1200.0
 30
0.0
 41
24.0
 42
24.0
 43
24.0
  0
MTEXT
  5
3FE
330
3F6
100
AcDbEntity
  8
Ｓ_１_１
 62
     2
100
AcDbMText
 10
1099.99999999999
 20
1222.0
 30
0.0
 40
27.70323325635104
 41
0.0
 71
     5
 72
     1
  1
%%c595
  7
EXCADDIM1
  0
POINT
  5
3FF
330
3F6
100
AcDbEntity
  8
DEFPOINTS
 62
     0
100
AcDbPoint
 10
802.4999999999901
 20
1070.0
 30
0.0
  0
POINT
  5
400
330
3F6
100
AcDbEntity
  8
DEFPOINTS
 62
     0
100
AcDbPoint
 10
1397.499999999991
 20
1070.0
 30
0.0
  0
POINT
  5
401
330
3F6
100
AcDbEntity
  8
DEFPOINTS
 62
     0
100
AcDbPoint
 10
1397.499999999991
 20
1200.0
 30
0.0
  0
ENDBLK
  5
3F8
330
3F6
100
AcDbEntity
  8
0
100
AcDbBlockEnd
  0
BLOCK
  5
404
330
403
100
AcDbEntity
  8
0
100
AcDbBlockBegin
  2
*D22
 70
     1
 10
0.0
 20
0.0
 30
0.0
  3
*D22
  1

  0
LINE
  5
406
330
403
100
AcDbEntity
  8
Ｓ_１_１
  6
CONTINUOUS
 62
     2
100
AcDbLine
 10
710.99999999999
 20
400.0
 30
0.0
 11
542.0
 21
400.0
 31
0.0
  0
LINE
  5
407
330
403
100
AcDbEntity
  8
Ｓ_１_１
  6
CONTINUOUS
 62
     2
100
AcDbLine
 10
710.99999999999
 20
472.0
 30
0.0
 11
542.0
 21
472.0
 31
0.0
  0
LINE
  5
408
330
403
100
AcDbEntity
  8
Ｓ_１_１
  6
CONTINUOUS
 62
     2
100
AcDbLine
 10
550.0
 20
424.0
 30
0.0
 11
550.0
 21
448.0
 31
0.0
  0
INSERT
  5
409
330
403
100
AcDbEntity
  8
Ｓ_１_１
 62
     2
100
AcDbBlockReference
  2
EX_NORM
 10
550.0
 20
400.0
 30
0.0
 41
24.0
 42
24.0
 43
24.0
 50
270.0
  0
INSERT
  5
40A
330
403
100
AcDbEntity
  8
Ｓ_１_１
 62
     2
100
AcDbBlockReference
  2
EX_NORM
 10
550.0
 20
472.0
 30
0.0
 41
24.0
 42
24.0
 43
24.0
 50
90.0
  0
MTEXT
  5
40B
330
403
100
AcDbEntity
  8
Ｓ_１_１
 62
     2
100
AcDbMText
 10
528.0
 20
436.0
 30
0.0
 40
27.70323325635104
 41
0.0
 71
     5
 72
     1
  1
72
  7
EXCADDIM1
 11
0.0
 21
1.0
 31
0.0
  0
POINT
  5
40C
330
403
100
AcDbEntity
  8
DEFPOINTS
 62
     0
100
AcDbPoint
 10
722.99999999999
 20
400.0
 30
0.0
  0
POINT
  5
40D
330
403
100
AcDbEntity
  8
DEFPOINTS
 62
     0
100
AcDbPoint
 10
722.99999999999
 20
472.0
 30
0.0
  0
POINT
  5
40E
330
403
100
AcDbEntity
  8
DEFPOINTS
 62
     0
100
AcDbPoint
 10
550.0
 20
472.0
 30
0.0
  0
ENDBLK
  5
405
330
403
100
AcDbEntity
  8
0
100
AcDbBlockEnd
  0
BLOCK
  5
411
330
410
100
AcDbEntity
  8
0
100
AcDbBlockBegin
  2
*D23
 70
     1
 10
0.0
 20
0.0
 30
0.0
  3
*D23
  1

  0
LINE
  5
413
330
410
100
AcDbEntity
  8
Ｓ_１_１
  6
CONTINUOUS
 62
     2
100
AcDbLine
 10
710.99999999999
 20
472.0
 30
0.0
 11
542.0
 21
472.0000000000001
 31
0.0
  0
LINE
  5
414
330
410
100
AcDbEntity
  8
Ｓ_１_１
  6
CONTINUOUS
 62
     2
100
AcDbLine
 10
752.99999999999
 20
882.0
 30
0.0
 11
542.0
 21
882.0
 31
0.0
  0
LINE
  5
415
330
410
100
AcDbEntity
  8
Ｓ_１_１
  6
CONTINUOUS
 62
     2
100
AcDbLine
 10
550.0
 20
496.0000000000001
 30
0.0
 11
550.0
 21
858.0
 31
0.0
  0
INSERT
  5
416
330
410
100
AcDbEntity
  8
Ｓ_１_１
 62
     2
100
AcDbBlockReference
  2
EX_NORM
 10
550.0
 20
472.0000000000001
 30
0.0
 41
24.0
 42
24.0
 43
24.0
 50
270.0
  0
INSERT
  5
417
330
410
100
AcDbEntity
  8
Ｓ_１_１
 62
     2
100
AcDbBlockReference
  2
EX_NORM
 10
550.0
 20
882.0
 30
0.0
 41
24.0
 42
24.0
 43
24.0
 50
90.0
  0
MTEXT
  5
418
330
410
100
AcDbEntity
  8
Ｓ_１_１
 62
     2
100
AcDbMText
 10
528.0
 20
677.0
 30
0.0
 40
27.70323325635104
 41
0.0
 71
     5
 72
     1
  1
410
  7
EXCADDIM1
 11
0.0
 21
1.0
 31
0.0
  0
POINT
  5
419
330
410
100
AcDbEntity
  8
DEFPOINTS
 62
     0
100
AcDbPoint
 10
722.99999999999
 20
472.0
 30
0.0
  0
POINT
  5
41A
330
410
100
AcDbEntity
  8
DEFPOINTS
 62
     0
100
AcDbPoint
 10
764.99999999999
 20
882.0
 30
0.0
  0
POINT
  5
41B
330
410
100
AcDbEntity
  8
DEFPOINTS
 62
     0
100
AcDbPoint
 10
550.0
 20
882.0
 30
0.0
  0
ENDBLK
  5
412
330
410
100
AcDbEntity
  8
0
100
AcDbBlockEnd
  0
BLOCK
  5
41E
330
41D
100
AcDbEntity
  8
0
100
AcDbBlockBegin
  2
*D24
 70
     1
 10
0.0
 20
0.0
 30
0.0
  3
*D24
  1

  0
LINE
  5
420
330
41D
100
AcDbEntity
  8
Ｓ_１_１
  6
CONTINUOUS
 62
     2
100
AcDbLine
 10
752.99999999999
 20
882.0
 30
0.0
 11
542.0
 21
882.0
 31
0.0
  0
LINE
  5
421
330
41D
100
AcDbEntity
  8
Ｓ_１_１
  6
CONTINUOUS
 62
     2
100
AcDbLine
 10
780.49999999999
 20
992.0
 30
0.0
 11
542.0
 21
992.0
 31
0.0
  0
LINE
  5
422
330
41D
100
AcDbEntity
  8
Ｓ_１_１
  6
CONTINUOUS
 62
     2
100
AcDbLine
 10
550.0
 20
906.0
 30
0.0
 11
550.0
 21
968.0
 31
0.0
  0
INSERT
  5
423
330
41D
100
AcDbEntity
  8
Ｓ_１_１
 62
     2
100
AcDbBlockReference
  2
EX_NORM
 10
550.0
 20
882.0
 30
0.0
 41
24.0
 42
24.0
 43
24.0
 50
270.0
  0
INSERT
  5
424
330
41D
100
AcDbEntity
  8
Ｓ_１_１
 62
     2
100
AcDbBlockReference
  2
EX_NORM
 10
550.0
 20
992.0
 30
0.0
 41
24.0
 42
24.0
 43
24.0
 50
90.0
  0
MTEXT
  5
425
330
41D
100
AcDbEntity
  8
Ｓ_１_１
 62
     2
100
AcDbMText
 10
528.0000000000001
 20
937.0
 30
0.0
 40
27.70323325635104
 41
0.0
 71
     5
 72
     1
  1
110
  7
EXCADDIM1
 11
0.0
 21
1.0
 31
0.0
  0
POINT
  5
426
330
41D
100
AcDbEntity
  8
DEFPOINTS
 62
     0
100
AcDbPoint
 10
764.99999999999
 20
882.0
 30
0.0
  0
POINT
  5
427
330
41D
100
AcDbEntity
  8
DEFPOINTS
 62
     0
100
AcDbPoint
 10
792.49999999999
 20
992.0
 30
0.0
  0
POINT
  5
428
330
41D
100
AcDbEntity
  8
DEFPOINTS
 62
     0
100
AcDbPoint
 10
550.0
 20
992.0
 30
0.0
  0
ENDBLK
  5
41F
330
41D
100
AcDbEntity
  8
0
100
AcDbBlockEnd
  0
BLOCK
  5
42B
330
42A
100
AcDbEntity
  8
0
100
AcDbBlockBegin
  2
*D25
 70
     1
 10
0.0
 20
0.0
 30
0.0
  3
*D25
  1

  0
LINE
  5
42D
330
42A
100
AcDbEntity
  8
Ｓ_１_１
  6
CONTINUOUS
 62
     2
100
AcDbLine
 10
792.49999999999
 20
1072.0
 30
0.0
 11
542.0
 21
1072.0
 31
0.0
  0
LINE
  5
42E
330
42A
100
AcDbEntity
  8
Ｓ_１_１
  6
CONTINUOUS
 62
     2
100
AcDbLine
 10
780.49999999999
 20
992.0
 30
0.0
 11
542.0
 21
992.0
 31
0.0
  0
LINE
  5
42F
330
42A
100
AcDbEntity
  8
Ｓ_１_１
  6
CONTINUOUS
 62
     2
100
AcDbLine
 10
550.0
 20
1048.0
 30
0.0
 11
550.0
 21
1016.0
 31
0.0
  0
INSERT
  5
430
330
42A
100
AcDbEntity
  8
Ｓ_１_１
 62
     2
100
AcDbBlockReference
  2
EX_NORM
 10
550.0
 20
1072.0
 30
0.0
 41
24.0
 42
24.0
 43
24.0
 50
90.0
  0
INSERT
  5
431
330
42A
100
AcDbEntity
  8
Ｓ_１_１
 62
     2
100
AcDbBlockReference
  2
EX_NORM
 10
550.0
 20
992.0
 30
0.0
 41
24.0
 42
24.0
 43
24.0
 50
270.0
  0
MTEXT
  5
432
330
42A
100
AcDbEntity
  8
Ｓ_１_１
 62
     2
100
AcDbMText
 10
528.0000000000001
 20
1032.0
 30
0.0
 40
27.70323325635104
 41
0.0
 71
     5
 72
     1
  1
80
  7
EXCADDIM1
 11
0.0
 21
1.0
 31
0.0
  0
POINT
  5
433
330
42A
100
AcDbEntity
  8
DEFPOINTS
 62
     0
100
AcDbPoint
 10
804.49999999999
 20
1072.0
 30
0.0
  0
POINT
  5
434
330
42A
100
AcDbEntity
  8
DEFPOINTS
 62
     0
100
AcDbPoint
 10
792.49999999999
 20
992.0
 30
0.0
  0
POINT
  5
435
330
42A
100
AcDbEntity
  8
DEFPOINTS
 62
     0
100
AcDbPoint
 10
550.0
 20
992.0
 30
0.0
  0
ENDBLK
  5
42C
330
42A
100
AcDbEntity
  8
0
100
AcDbBlockEnd
  0
BLOCK
  5
438
330
437
100
AcDbEntity
  8
0
100
AcDbBlockBegin
  2
*D26
 70
     1
 10
0.0
 20
0.0
 30
0.0
  3
*D26
  1

  0
LINE
  5
43A
330
437
100
AcDbEntity
  8
Ｓ_１_１
  6
CONTINUOUS
 62
     2
100
AcDbLine
 10
792.49999999999
 20
1072.0
 30
0.0
 11
492.0000000000001
 21
1072.0
 31
0.0
  0
LINE
  5
43B
330
437
100
AcDbEntity
  8
Ｓ_１_１
  6
CONTINUOUS
 62
     2
100
AcDbLine
 10
710.99999999999
 20
400.0
 30
0.0
 11
492.0
 21
400.0
 31
0.0
  0
LINE
  5
43C
330
437
100
AcDbEntity
  8
Ｓ_１_１
  6
CONTINUOUS
 62
     2
100
AcDbLine
 10
500.0000000000001
 20
1048.0
 30
0.0
 11
500.0
 21
424.0
 31
0.0
  0
INSERT
  5
43D
330
437
100
AcDbEntity
  8
Ｓ_１_１
 62
     2
100
AcDbBlockReference
  2
EX_NORM
 10
500.0000000000001
 20
1072.0
 30
0.0
 41
24.0
 42
24.0
 43
24.0
 50
90.0
  0
INSERT
  5
43E
330
437
100
AcDbEntity
  8
Ｓ_１_１
 62
     2
100
AcDbBlockReference
  2
EX_NORM
 10
500.0
 20
400.0
 30
0.0
 41
24.0
 42
24.0
 43
24.0
 50
270.0
  0
MTEXT
  5
43F
330
437
100
AcDbEntity
  8
Ｓ_１_１
 62
     2
100
AcDbMText
 10
478.0000000000001
 20
736.0
 30
0.0
 40
27.70323325635104
 41
0.0
 71
     5
 72
     1
  1
672
  7
EXCADDIM1
 11
8.458842092382145E-17
 21
1.0
 31
0.0
  0
POINT
  5
440
330
437
100
AcDbEntity
  8
DEFPOINTS
 62
     0
100
AcDbPoint
 10
804.49999999999
 20
1072.0
 30
0.0
  0
POINT
  5
441
330
437
100
AcDbEntity
  8
DEFPOINTS
 62
     0
100
AcDbPoint
 10
722.99999999999
 20
400.0
 30
0.0
  0
POINT
  5
442
330
437
100
AcDbEntity
  8
DEFPOINTS
 62
     0
100
AcDbPoint
 10
500.0
 20
400.0
 30
0.0
  0
ENDBLK
  5
439
330
437
100
AcDbEntity
  8
0
100
AcDbBlockEnd
  0
BLOCK
  5
446
330
445
100
AcDbEntity
  8
0
100
AcDbBlockBegin
  2
*D27
 70
     1
 10
0.0
 20
0.0
 30
0.0
  3
*D27
  1

  0
LINE
  5
448
330
445
100
AcDbEntity
  8
Ｓ_１_１
  6
CONTINUOUS
 62
     2
100
AcDbLine
 10
1913.5
 20
400.0
 30
0.0
 11
1792.0
 21
400.0
 31
0.0
  0
LINE
  5
449
330
445
100
AcDbEntity
  8
Ｓ_１_１
  6
CONTINUOUS
 62
     2
100
AcDbLine
 10
2315.3389682165
 20
802.0001366161
 30
0.0
 11
1792.0
 21
802.0001366161
 31
0.0
  0
LINE
  5
44A
330
445
100
AcDbEntity
  8
Ｓ_１_１
  6
CONTINUOUS
 62
     2
100
AcDbLine
 10
1800.0
 20
424.0
 30
0.0
 11
1800.0
 21
778.0001366161
 31
0.0
  0
INSERT
  5
44B
330
445
100
AcDbEntity
  8
Ｓ_１_１
 62
     2
100
AcDbBlockReference
  2
EX_NORM
 10
1800.0
 20
400.0
 30
0.0
 41
24.0
 42
24.0
 43
24.0
 50
270.0
  0
INSERT
  5
44C
330
445
100
AcDbEntity
  8
Ｓ_１_１
 62
     2
100
AcDbBlockReference
  2
EX_NORM
 10
1800.0
 20
802.0001366161
 30
0.0
 41
24.0
 42
24.0
 43
24.0
 50
90.0
  0
MTEXT
  5
44D
330
445
100
AcDbEntity
  8
Ｓ_１_１
 62
     2
100
AcDbMText
 10
1778.0
 20
601.00006830805
 30
0.0
 40
27.70323325635104
 41
0.0
 71
     5
 72
     1
  1
402
  7
EXCADDIM1
 11
0.0
 21
1.0
 31
0.0
  0
POINT
  5
44E
330
445
100
AcDbEntity
  8
DEFPOINTS
 62
     0
100
AcDbPoint
 10
1925.5
 20
400.0
 30
0.0
  0
POINT
  5
44F
330
445
100
AcDbEntity
  8
DEFPOINTS
 62
     0
100
AcDbPoint
 10
2327.3389682165
 20
802.0001366161
 30
0.0
  0
POINT
  5
450
330
445
100
AcDbEntity
  8
DEFPOINTS
 62
     0
100
AcDbPoint
 10
1800.0
 20
802.0001366161
 30
0.0
  0
ENDBLK
  5
447
330
445
100
AcDbEntity
  8
0
100
AcDbBlockEnd
  0
BLOCK
  5
478
330
477
100
AcDbEntity
  8
0
100
AcDbBlockBegin
  2
*D28
 70
     1
 10
0.0
 20
0.0
 30
0.0
  3
*D28
  1

  0
LINE
  5
47A
330
477
100
AcDbEntity
  8
Ｓ_１_１
  6
CONTINUOUS
 62
     2
100
AcDbLine
 10
1489.0
 20
400.0
 30
0.0
 11
1658.0
 21
400.0
 31
0.0
  0
LINE
  5
47B
330
477
100
AcDbEntity
  8
Ｓ_１_１
  6
CONTINUOUS
 62
     2
100
AcDbLine
 10
1127.0
 20
537.0
 30
0.0
 11
1658.0
 21
537.0
 31
0.0
  0
LINE
  5
47C
330
477
100
AcDbEntity
  8
Ｓ_１_１
  6
CONTINUOUS
 62
     2
100
AcDbLine
 10
1650.0
 20
424.0
 30
0.0
 11
1650.0
 21
513.0
 31
0.0
  0
INSERT
  5
47D
330
477
100
AcDbEntity
  8
Ｓ_１_１
 62
     2
100
AcDbBlockReference
  2
EX_NORM
 10
1650.0
 20
400.0
 30
0.0
 41
24.0
 42
24.0
 43
24.0
 50
270.0
  0
INSERT
  5
47E
330
477
100
AcDbEntity
  8
Ｓ_１_１
 62
     2
100
AcDbBlockReference
  2
EX_NORM
 10
1650.0
 20
537.0
 30
0.0
 41
24.0
 42
24.0
 43
24.0
 50
90.0
  0
MTEXT
  5
47F
330
477
100
AcDbEntity
  8
Ｓ_１_１
 62
     2
100
AcDbMText
 10
1628.0
 20
468.5
 30
0.0
 40
27.70323325635104
 41
0.0
 71
     5
 72
     1
  1
137
  7
EXCADDIM1
 11
0.0
 21
1.0
 31
0.0
  0
POINT
  5
480
330
477
100
AcDbEntity
  8
DEFPOINTS
 62
     0
100
AcDbPoint
 10
1477.0
 20
400.0
 30
0.0
  0
POINT
  5
481
330
477
100
AcDbEntity
  8
DEFPOINTS
 62
     0
100
AcDbPoint
 10
1115.0
 20
537.0
 30
0.0
  0
POINT
  5
482
330
477
100
AcDbEntity
  8
DEFPOINTS
 62
     0
100
AcDbPoint
 10
1650.0
 20
537.0
 30
0.0
  0
ENDBLK
  5
479
330
477
100
AcDbEntity
  8
0
100
AcDbBlockEnd
  0
BLOCK
  5
485
330
484
100
AcDbEntity
  8
0
100
AcDbBlockBegin
  2
*D29
 70
     1
 10
0.0
 20
0.0
 30
0.0
  3
*D29
  1

  0
LINE
  5
487
330
484
100
AcDbEntity
  8
Ｓ_１_１
  6
CONTINUOUS
 62
     2
100
AcDbLine
 10
1127.0
 20
537.0
 30
0.0
 11
1658.0
 21
537.0
 31
0.0
  0
LINE
  5
488
330
484
100
AcDbEntity
  8
Ｓ_１_１
  6
CONTINUOUS
 62
     2
100
AcDbLine
 10
1186.0403804067
 20
611.99999999998
 30
0.0
 11
1658.0
 21
611.99999999998
 31
0.0
  0
LINE
  5
489
330
484
100
AcDbEntity
  8
Ｓ_１_１
  6
CONTINUOUS
 62
     2
100
AcDbLine
 10
1650.0
 20
561.0
 30
0.0
 11
1650.0
 21
587.99999999998
 31
0.0
  0
INSERT
  5
48A
330
484
100
AcDbEntity
  8
Ｓ_１_１
 62
     2
100
AcDbBlockReference
  2
EX_NORM
 10
1650.0
 20
537.0
 30
0.0
 41
24.0
 42
24.0
 43
24.0
 50
270.0
  0
INSERT
  5
48B
330
484
100
AcDbEntity
  8
Ｓ_１_１
 62
     2
100
AcDbBlockReference
  2
EX_NORM
 10
1650.0
 20
611.99999999998
 30
0.0
 41
24.0
 42
24.0
 43
24.0
 50
90.0
  0
MTEXT
  5
48C
330
484
100
AcDbEntity
  8
Ｓ_１_１
 62
     2
100
AcDbMText
 10
1628.0
 20
574.49999999999
 30
0.0
 40
27.70323325635104
 41
0.0
 71
     5
 72
     1
  1
75
  7
EXCADDIM1
 11
0.0
 21
1.0
 31
0.0
  0
POINT
  5
48D
330
484
100
AcDbEntity
  8
DEFPOINTS
 62
     0
100
AcDbPoint
 10
1115.0
 20
537.0
 30
0.0
  0
POINT
  5
48E
330
484
100
AcDbEntity
  8
DEFPOINTS
 62
     0
100
AcDbPoint
 10
1174.0403804067
 20
611.99999999998
 30
0.0
  0
POINT
  5
48F
330
484
100
AcDbEntity
  8
DEFPOINTS
 62
     0
100
AcDbPoint
 10
1650.0
 20
611.99999999998
 30
0.0
  0
ENDBLK
  5
486
330
484
100
AcDbEntity
  8
0
100
AcDbBlockEnd
  0
BLOCK
  5
675
330
674
100
AcDbEntity
  8
0
100
AcDbBlockBegin
  2
*D30
 70
     1
 10
0.0
 20
0.0
 30
0.0
  3
*D30
  1

  0
LINE
  5
677
330
674
100
AcDbEntity
  8
Ｓ_１_１
  6
CONTINUOUS
 62
     2
100
AcDbLine
 10
2052.49999999999
 20
1082.0
 30
0.0
 11
2052.49999999999
 21
1208.0
 31
0.0
  0
LINE
  5
678
330
674
100
AcDbEntity
  8
Ｓ_１_１
  6
CONTINUOUS
 62
     2
100
AcDbLine
 10
2647.499999999991
 20
1082.0
 30
0.0
 11
2647.499999999991
 21
1208.0
 31
0.0
  0
LINE
  5
679
330
674
100
AcDbEntity
  8
Ｓ_１_１
  6
CONTINUOUS
 62
     2
100
AcDbLine
 10
2076.49999999999
 20
1200.0
 30
0.0
 11
2623.499999999991
 21
1200.0
 31
0.0
  0
INSERT
  5
67A
330
674
100
AcDbEntity
  8
Ｓ_１_１
 62
     2
100
AcDbBlockReference
  2
EX_NORM
 10
2052.49999999999
 20
1200.0
 30
0.0
 41
24.0
 42
24.0
 43
24.0
 50
180.0
  0
INSERT
  5
67B
330
674
100
AcDbEntity
  8
Ｓ_１_１
 62
     2
100
AcDbBlockReference
  2
EX_NORM
 10
2647.499999999991
 20
1200.0
 30
0.0
 41
24.0
 42
24.0
 43
24.0
  0
MTEXT
  5
67C
330
674
100
AcDbEntity
  8
Ｓ_１_１
 62
     2
100
AcDbMText
 10
2349.99999999999
 20
1222.0
 30
0.0
 40
27.70323325635104
 41
0.0
 71
     5
 72
     1
  1
%%c595
  7
EXCADDIM1
  0
POINT
  5
67D
330
674
100
AcDbEntity
  8
DEFPOINTS
 62
     0
100
AcDbPoint
 10
2052.49999999999
 20
1070.0
 30
0.0
  0
POINT
  5
67E
330
674
100
AcDbEntity
  8
DEFPOINTS
 62
     0
100
AcDbPoint
 10
2647.499999999991
 20
1070.0
 30
0.0
  0
POINT
  5
67F
330
674
100
AcDbEntity
  8
DEFPOINTS
 62
     0
100
AcDbPoint
 10
2647.499999999991
 20
1200.0
 30
0.0
  0
ENDBLK
  5
676
330
674
100
AcDbEntity
  8
0
100
AcDbBlockEnd
  0
BLOCK
  5
682
330
681
100
AcDbEntity
  8
0
100
AcDbBlockBegin
  2
*D31
 70
     1
 10
0.0
 20
0.0
 30
0.0
  3
*D31
  1

  0
LINE
  5
684
330
681
100
AcDbEntity
  8
Ｓ_１_１
  6
CONTINUOUS
 62
     2
100
AcDbLine
 10
2052.5
 20
1082.0
 30
0.0
 11
2052.5
 21
1208.0
 31
0.0
  0
LINE
  5
685
330
681
100
AcDbEntity
  8
Ｓ_１_１
  6
CONTINUOUS
 62
     2
100
AcDbLine
 10
1995.0
 20
1082.0
 30
0.0
 11
1995.0
 21
1208.0
 31
0.0
  0
LINE
  5
686
330
681
100
AcDbEntity
  8
Ｓ_１_１
  6
CONTINUOUS
 62
     2
100
AcDbLine
 10
2028.5
 20
1200.0
 30
0.0
 11
2019.0
 21
1200.0
 31
0.0
  0
INSERT
  5
687
330
681
100
AcDbEntity
  8
Ｓ_１_１
 62
     2
100
AcDbBlockReference
  2
EX_NORM
 10
2052.5
 20
1200.0
 30
0.0
 41
24.0
 42
24.0
 43
24.0
  0
INSERT
  5
688
330
681
100
AcDbEntity
  8
Ｓ_１_１
 62
     2
100
AcDbBlockReference
  2
EX_NORM
 10
1995.0
 20
1200.0
 30
0.0
 41
24.0
 42
24.0
 43
24.0
 50
180.0
  0
MTEXT
  5
689
330
681
100
AcDbEntity
  8
Ｓ_１_１
 62
     2
100
AcDbMText
 10
1935.000000000001
 20
1222.0
 30
0.0
 40
27.70323325635104
 41
0.0
 71
     5
 72
     1
  1
57.5
  7
EXCADDIM1
  0
POINT
  5
68A
330
681
100
AcDbEntity
  8
DEFPOINTS
 62
     0
100
AcDbPoint
 10
2052.5
 20
1070.0
 30
0.0
  0
POINT
  5
68B
330
681
100
AcDbEntity
  8
DEFPOINTS
 62
     0
100
AcDbPoint
 10
1995.0
 20
1070.0
 30
0.0
  0
POINT
  5
68C
330
681
100
AcDbEntity
  8
DEFPOINTS
 62
     0
100
AcDbPoint
 10
1995.0
 20
1200.0
 30
0.0
  0
ENDBLK
  5
683
330
681
100
AcDbEntity
  8
0
100
AcDbBlockEnd
  0
BLOCK
  5
68F
330
68E
100
AcDbEntity
  8
0
100
AcDbBlockBegin
  2
*D32
 70
     1
 10
0.0
 20
0.0
 30
0.0
  3
*D32
  1

  0
LINE
  5
691
330
68E
100
AcDbEntity
  8
Ｓ_１_１
  6
CONTINUOUS
 62
     2
100
AcDbLine
 10
2647.5
 20
1082.0
 30
0.0
 11
2647.5
 21
1208.0
 31
0.0
  0
LINE
  5
692
330
68E
100
AcDbEntity
  8
Ｓ_１_１
  6
CONTINUOUS
 62
     2
100
AcDbLine
 10
2705.0
 20
1082.0
 30
0.0
 11
2705.0
 21
1208.0
 31
0.0
  0
LINE
  5
693
330
68E
100
AcDbEntity
  8
Ｓ_１_１
  6
CONTINUOUS
 62
     2
100
AcDbLine
 10
2671.5
 20
1200.0
 30
0.0
 11
2681.0
 21
1200.0
 31
0.0
  0
INSERT
  5
694
330
68E
100
AcDbEntity
  8
Ｓ_１_１
 62
     2
100
AcDbBlockReference
  2
EX_NORM
 10
2647.5
 20
1200.0
 30
0.0
 41
24.0
 42
24.0
 43
24.0
 50
180.0
  0
INSERT
  5
695
330
68E
100
AcDbEntity
  8
Ｓ_１_１
 62
     2
100
AcDbBlockReference
  2
EX_NORM
 10
2705.0
 20
1200.0
 30
0.0
 41
24.0
 42
24.0
 43
24.0
  0
MTEXT
  5
696
330
68E
100
AcDbEntity
  8
Ｓ_１_１
 62
     2
100
AcDbMText
 10
2765.0
 20
1222.0
 30
0.0
 40
27.70323325635104
 41
0.0
 71
     5
 72
     1
  1
57.5
  7
EXCADDIM1
  0
POINT
  5
697
330
68E
100
AcDbEntity
  8
DEFPOINTS
 62
     0
100
AcDbPoint
 10
2647.5
 20
1070.0
 30
0.0
  0
POINT
  5
698
330
68E
100
AcDbEntity
  8
DEFPOINTS
 62
     0
100
AcDbPoint
 10
2705.0
 20
1070.0
 30
0.0
  0
POINT
  5
699
330
68E
100
AcDbEntity
  8
DEFPOINTS
 62
     0
100
AcDbPoint
 10
2705.0
 20
1200.0
 30
0.0
  0
ENDBLK
  5
690
330
68E
100
AcDbEntity
  8
0
100
AcDbBlockEnd
  0
BLOCK
  5
6C2
330
6C1
100
AcDbEntity
  8
0
100
AcDbBlockBegin
  2
*D33
 70
     1
 10
0.0
 20
0.0
 30
0.0
  3
*D33
  1

  0
LINE
  5
6C4
330
6C1
100
AcDbEntity
  8
Ｓ_１_１
  6
CONTINUOUS
 62
     2
100
AcDbLine
 10
2759.5
 20
447.0
 30
0.0
 11
2908.0
 21
447.0
 31
0.0
  0
LINE
  5
6C5
330
6C1
100
AcDbEntity
  8
Ｓ_１_１
  6
CONTINUOUS
 62
     2
100
AcDbLine
 10
2786.5
 20
400.0
 30
0.0
 11
2908.0
 21
400.0
 31
0.0
  0
LINE
  5
6C6
330
6C1
100
AcDbEntity
  8
Ｓ_１_１
  6
CONTINUOUS
 62
     2
100
AcDbLine
 10
2900.0
 20
447.0
 30
0.0
 11
2900.0
 21
400.0
 31
0.0
  0
LINE
  5
6C7
330
6C1
100
AcDbEntity
  8
Ｓ_１_１
  6
CONTINUOUS
 62
     2
100
AcDbLine
 10
2900.0
 20
471.0
 30
0.0
 11
2900.0
 21
495.0
 31
0.0
  0
LINE
  5
6C8
330
6C1
100
AcDbEntity
  8
Ｓ_１_１
  6
CONTINUOUS
 62
     2
100
AcDbLine
 10
2900.0
 20
376.0
 30
0.0
 11
2900.0
 21
352.0
 31
0.0
  0
INSERT
  5
6C9
330
6C1
100
AcDbEntity
  8
Ｓ_１_１
 62
     2
100
AcDbBlockReference
  2
EX_NORM
 10
2900.0
 20
447.0
 30
0.0
 41
24.0
 42
24.0
 43
24.0
 50
270.0
  0
INSERT
  5
6CA
330
6C1
100
AcDbEntity
  8
Ｓ_１_１
 62
     2
100
AcDbBlockReference
  2
EX_NORM
 10
2900.0
 20
400.0
 30
0.0
 41
24.0
 42
24.0
 43
24.0
 50
90.0
  0
MTEXT
  5
6CB
330
6C1
100
AcDbEntity
  8
Ｓ_１_１
 62
     2
100
AcDbMText
 10
2878.0
 20
423.5
 30
0.0
 40
27.70323325635104
 41
0.0
 71
     5
 72
     1
  1
47
  7
EXCADDIM1
 11
0.0
 21
1.0
 31
0.0
  0
POINT
  5
6CC
330
6C1
100
AcDbEntity
  8
DEFPOINTS
 62
     0
100
AcDbPoint
 10
2747.5
 20
447.0
 30
0.0
  0
POINT
  5
6CD
330
6C1
100
AcDbEntity
  8
DEFPOINTS
 62
     0
100
AcDbPoint
 10
2774.5
 20
400.0
 30
0.0
  0
POINT
  5
6CE
330
6C1
100
AcDbEntity
  8
DEFPOINTS
 62
     0
100
AcDbPoint
 10
2900.0
 20
400.0
 30
0.0
  0
ENDBLK
  5
6C3
330
6C1
100
AcDbEntity
  8
0
100
AcDbBlockEnd
  0
BLOCK
  5
6D1
330
6D0
100
AcDbEntity
  8
0
100
AcDbBlockBegin
  2
*D34
 70
     1
 10
0.0
 20
0.0
 30
0.0
  3
*D34
  1

  0
LINE
  5
6D3
330
6D0
100
AcDbEntity
  8
Ｓ_１_１
  6
CONTINUOUS
 62
     2
100
AcDbLine
 10
2759.5
 20
447.0
 30
0.0
 11
2908.0
 21
447.0
 31
0.0
  0
LINE
  5
6D4
330
6D0
100
AcDbEntity
  8
Ｓ_１_１
  6
CONTINUOUS
 62
     2
100
AcDbLine
 10
2715.0
 20
1072.0
 30
0.0
 11
2908.0
 21
1072.0
 31
0.0
  0
LINE
  5
6D5
330
6D0
100
AcDbEntity
  8
Ｓ_１_１
  6
CONTINUOUS
 62
     2
100
AcDbLine
 10
2900.0
 20
471.0
 30
0.0
 11
2900.0
 21
1048.0
 31
0.0
  0
INSERT
  5
6D6
330
6D0
100
AcDbEntity
  8
Ｓ_１_１
 62
     2
100
AcDbBlockReference
  2
EX_NORM
 10
2900.0
 20
447.0
 30
0.0
 41
24.0
 42
24.0
 43
24.0
 50
270.0
  0
INSERT
  5
6D7
330
6D0
100
AcDbEntity
  8
Ｓ_１_１
 62
     2
100
AcDbBlockReference
  2
EX_NORM
 10
2900.0
 20
1072.0
 30
0.0
 41
24.0
 42
24.0
 43
24.0
 50
90.0
  0
MTEXT
  5
6D8
330
6D0
100
AcDbEntity
  8
Ｓ_１_１
 62
     2
100
AcDbMText
 10
2878.0
 20
759.5
 30
0.0
 40
27.70323325635104
 41
0.0
 71
     5
 72
     1
  1
625
  7
EXCADDIM1
 11
0.0
 21
1.0
 31
0.0
  0
POINT
  5
6D9
330
6D0
100
AcDbEntity
  8
DEFPOINTS
 62
     0
100
AcDbPoint
 10
2747.5
 20
447.0
 30
0.0
  0
POINT
  5
6DA
330
6D0
100
AcDbEntity
  8
DEFPOINTS
 62
     0
100
AcDbPoint
 10
2703.0
 20
1072.0
 30
0.0
  0
POINT
  5
6DB
330
6D0
100
AcDbEntity
  8
DEFPOINTS
 62
     0
100
AcDbPoint
 10
2900.0
 20
1072.0
 30
0.0
  0
ENDBLK
  5
6D2
330
6D0
100
AcDbEntity
  8
0
100
AcDbBlockEnd
  0
ENDSEC
  0
SECTION
  2
ENTITIES
  0
LINE
  5
D6
330
1F
100
AcDbEntity
  8
図面枠
  6
CONTINUOUS
 62
     5
100
AcDbLine
 10
80.0
 20
80.0
 30
0.0
 11
3280.0
 21
80.0
 31
0.0
  0
LINE
  5
D7
330
1F
100
AcDbEntity
  8
図面枠
  6
CONTINUOUS
 62
     5
100
AcDbLine
 10
3280.0
 20
80.0
 30
0.0
 11
3280.0
 21
2296.0
 31
0.0
  0
LINE
  5
D8
330
1F
100
AcDbEntity
  8
図面枠
  6
CONTINUOUS
 62
     5
100
AcDbLine
 10
3280.0
 20
2296.0
 30
0.0
 11
80.00000000000041
 21
2296.0
 31
0.0
  0
LINE
  5
D9
330
1F
100
AcDbEntity
  8
図面枠
  6
CONTINUOUS
 62
     5
100
AcDbLine
 10
80.00000000000041
 20
2296.0
 30
0.0
 11
80.0
 21
80.0
 31
0.0
  0
LINE
  5
DA
330
1F
100
AcDbEntity
  8
図面枠
  6
CONTINUOUS
 62
     3
100
AcDbLine
 10
120.0000000000001
 20
2256.0
 30
0.0
 11
120.0000000000001
 21
2184.0
 31
0.0
  0
LINE
  5
DB
330
1F
100
AcDbEntity
  8
図面枠
  6
CONTINUOUS
 62
     3
100
AcDbLine
 10
3240.0
 20
192.0
 30
0.0
 11
3240.0
 21
120.0
 31
0.0
  0
TEXT
  5
DD
330
1F
100
AcDbEntity
  8
図面枠
  6
CONTINUOUS
 62
     4
100
AcDbText
 10
144.0000000000001
 20
2202.75
 30
0.0
 40
36.93764434180139
  1
15000kN100ストローク補修用油圧ジャッキ
 41
0.9992307692307699
  7
EXCADTTF1
 72
     5
 11
1056.0
 21
2202.75
 31
0.0
100
AcDbText
  0
LINE
  5
DE
330
1F
100
AcDbEntity
  8
図面枠
  6
CONTINUOUS
 62
     3
100
AcDbLine
 10
1077.599975585938
 20
2256.0
 30
0.0
 11
1077.599975585938
 21
2184.0
 31
0.0
  0
LINE
  5
DF
330
1F
100
AcDbEntity
  8
図面枠
  6
CONTINUOUS
 62
     3
100
AcDbLine
 10
120.0000000000001
 20
2256.0
 30
0.0
 11
1077.599975585938
 21
2256.0
 31
0.0
  0
LINE
  5
E0
330
1F
100
AcDbEntity
  8
図面枠
  6
CONTINUOUS
 62
     3
100
AcDbLine
 10
120.0000000000001
 20
2184.0
 30
0.0
 11
1077.599975585938
 21
2184.0
 31
0.0
  0
TEXT
  5
E1
330
1F
100
AcDbEntity
  8
図面枠
  6
CONTINUOUS
 62
     4
100
AcDbText
 10
3096.0
 20
1835.0625
 30
0.0
 40
27.70323325635104
  1
cm
 41
0.9992307692307693
  7
EXCADTTF1
 72
     5
 11
3132.0
 21
1835.0625
 31
0.0
100
AcDbText
  0
TEXT
  5
E2
330
1F
100
AcDbEntity
  8
図面枠
  6
CONTINUOUS
 62
     4
100
AcDbText
 10
3121.2
 20
1852.078125268221
 30
0.0
 40
12.4664540846959
  1
2
 41
0.9992308398189645
  7
EXCADTTF1
 72
     5
 11
3129.3
 21
1852.078125268221
 31
0.0
100
AcDbText
  0
TEXT
  5
E3
330
1F
100
AcDbEntity
  8
図面枠
  6
CONTINUOUS
 62
     4
100
AcDbText
 10
2520.0
 20
2171.0625
 30
0.0
 40
27.70323325635104
  1
能力
 41
0.9992307692307693
  7
EXCADTTF1
 72
     5
 11
2592.0
 21
2171.0625
 31
0.0
100
AcDbText
  0
LINE
  5
E4
330
1F
100
AcDbEntity
  8
図面枠
  6
CONTINUOUS
 62
     3
100
AcDbLine
 10
2504.0
 20
2256.0
 30
0.0
 11
3240.0
 21
2256.0
 31
0.0
  0
LINE
  5
E5
330
1F
100
AcDbEntity
  8
図面枠
  6
CONTINUOUS
 62
     3
100
AcDbLine
 10
2504.0
 20
2208.0
 30
0.0
 11
3240.0
 21
2208.0
 31
0.0
  0
TEXT
  5
E6
330
1F
100
AcDbEntity
  8
図面枠
  6
CONTINUOUS
 62
     4
100
AcDbText
 10
2782.0
 20
2219.0625
 30
0.0
 40
27.70323325635104
  1
仕　　　様
 41
0.9992307692307693
  7
EXCADTTF1
 72
     5
 11
2962.0
 21
2219.0625
 31
0.0
100
AcDbText
  0
TEXT
  5
E7
330
1F
100
AcDbEntity
  8
図面枠
  6
CONTINUOUS
 62
     4
100
AcDbText
 10
3096.0
 20
2171.0625
 30
0.0
 40
27.70323325635104
  1
kN
 41
0.9992307692307693
  7
EXCADTTF1
 72
     5
 11
3132.0
 21
2171.0625
 31
0.0
100
AcDbText
  0
TEXT
  5
E8
330
1F
100
AcDbEntity
  8
図面枠
  6
CONTINUOUS
 62
     4
100
AcDbText
 10
2520.0
 20
2075.0625
 30
0.0
 40
27.70323325635104
  1
最低機械高
 41
0.9992307692307693
  7
EXCADTTF1
 72
     5
 11
2700.0
 21
2075.0625
 31
0.0
100
AcDbText
  0
TEXT
  5
E9
330
1F
100
AcDbEntity
  8
図面枠
  6
CONTINUOUS
 62
     4
100
AcDbText
 10
2520.0
 20
2123.0625
 30
0.0
 40
27.70323325635104
  1
ストローク
 41
0.9992307692307693
  7
EXCADTTF1
 72
     5
 11
2700.0
 21
2123.0625
 31
0.0
100
AcDbText
  0
LINE
  5
EA
330
1F
100
AcDbEntity
  8
図面枠
  6
CONTINUOUS
 62
     2
100
AcDbLine
 10
2504.0
 20
2160.0
 30
0.0
 11
3240.0
 21
2160.0
 31
0.0
  0
LINE
  5
EB
330
1F
100
AcDbEntity
  8
図面枠
  6
CONTINUOUS
 62
     2
100
AcDbLine
 10
2504.0
 20
2112.0
 30
0.0
 11
3240.0
 21
2112.0
 31
0.0
  0
LINE
  5
EC
330
1F
100
AcDbEntity
  8
図面枠
  6
CONTINUOUS
 62
     2
100
AcDbLine
 10
2504.0
 20
2064.0
 30
0.0
 11
3240.0
 21
2064.0
 31
0.0
  0
LINE
  5
ED
330
1F
100
AcDbEntity
  8
図面枠
  6
CONTINUOUS
 62
     2
100
AcDbLine
 10
2504.0
 20
2016.0
 30
0.0
 11
3240.0
 21
2016.0
 31
0.0
  0
TEXT
  5
EE
330
1F
100
AcDbEntity
  8
図面枠
  6
CONTINUOUS
 62
     4
100
AcDbText
 10
3096.0
 20
2027.0625
 30
0.0
 40
27.70323325635104
  1
mm
 41
0.9992307692307693
  7
EXCADTTF1
 72
     5
 11
3132.0
 21
2027.0625
 31
0.0
100
AcDbText
  0
TEXT
  5
EF
330
1F
100
AcDbEntity
  8
図面枠
  6
CONTINUOUS
 62
     4
100
AcDbText
 10
3096.0
 20
2075.0625
 30
0.0
 40
27.70323325635104
  1
mm
 41
0.9992307692307693
  7
EXCADTTF1
 72
     5
 11
3132.0
 21
2075.0625
 31
0.0
100
AcDbText
  0
TEXT
  5
F0
330
1F
100
AcDbEntity
  8
図面枠
  6
CONTINUOUS
 62
     4
100
AcDbText
 10
3096.0
 20
2123.0625
 30
0.0
 40
27.70323325635104
  1
mm
 41
0.9992307692307693
  7
EXCADTTF1
 72
     5
 11
3132.0
 21
2123.0625
 31
0.0
100
AcDbText
  0
TEXT
  5
F1
330
1F
100
AcDbEntity
  8
図面枠
  6
CONTINUOUS
 62
     4
100
AcDbText
 10
2520.0
 20
1787.0625
 30
0.0
 40
27.70323325635104
  1
最高使用圧力
 41
0.9992307692307693
  7
EXCADTTF1
 72
     5
 11
2736.0
 21
1787.0625
 31
0.0
100
AcDbText
  0
TEXT
  5
F2
330
1F
100
AcDbEntity
  8
図面枠
  6
CONTINUOUS
 62
     4
100
AcDbText
 10
2520.0
 20
1835.0625
 30
0.0
 40
27.70323325635104
  1
受圧面積
 41
0.9992307692307693
  7
EXCADTTF1
 72
     5
 11
2664.0
 21
1835.0625
 31
0.0
100
AcDbText
  0
LINE
  5
F3
330
1F
100
AcDbEntity
  8
図面枠
  6
CONTINUOUS
 62
     2
100
AcDbLine
 10
2504.0
 20
1920.0
 30
0.0
 11
3240.0
 21
1920.0
 31
0.0
  0
LINE
  5
F4
330
1F
100
AcDbEntity
  8
図面枠
  6
CONTINUOUS
 62
     2
100
AcDbLine
 10
2504.0
 20
1872.0
 30
0.0
 11
3240.0
 21
1872.0
 31
0.0
  0
LINE
  5
F5
330
1F
100
AcDbEntity
  8
図面枠
  6
CONTINUOUS
 62
     2
100
AcDbLine
 10
2504.0
 20
1824.0
 30
0.0
 11
3240.0
 21
1824.0
 31
0.0
  0
TEXT
  5
F6
330
1F
100
AcDbEntity
  8
図面枠
  6
CONTINUOUS
 62
     4
100
AcDbText
 10
3096.0
 20
1787.0625
 30
0.0
 40
27.70323325635104
  1
MPa
 41
0.9992307692307694
  7
EXCADTTF1
 72
     5
 11
3150.0
 21
1787.0625
 31
0.0
100
AcDbText
  0
TEXT
  5
F7
330
1F
100
AcDbEntity
  8
図面枠
  6
CONTINUOUS
 62
     4
100
AcDbText
 10
3096.0
 20
1883.0625
 30
0.0
 40
27.70323325635104
  1
mm
 41
0.9992307692307693
  7
EXCADTTF1
 72
     5
 11
3132.0
 21
1883.0625
 31
0.0
100
AcDbText
  0
TEXT
  5
F8
330
1F
100
AcDbEntity
  8
図面枠
  6
CONTINUOUS
 62
     4
100
AcDbText
 10
3096.0
 20
1931.0625
 30
0.0
 40
27.70323325635104
  1
mm
 41
0.9992307692307693
  7
EXCADTTF1
 72
     5
 11
3132.0
 21
1931.0625
 31
0.0
100
AcDbText
  0
LINE
  5
F9
330
1F
100
AcDbEntity
  8
図面枠
  6
CONTINUOUS
 62
     2
100
AcDbLine
 10
2504.0
 20
1968.0
 30
0.0
 11
3240.0
 21
1968.0
 31
0.0
  0
TEXT
  5
FA
330
1F
100
AcDbEntity
  8
図面枠
  6
CONTINUOUS
 62
     4
100
AcDbText
 10
3096.0
 20
1979.0625
 30
0.0
 40
27.70323325635104
  1
mm
 41
0.9992307692307693
  7
EXCADTTF1
 72
     5
 11
3132.0
 21
1979.0625
 31
0.0
100
AcDbText
  0
TEXT
  5
FB
330
1F
100
AcDbEntity
  8
図面枠
  6
CONTINUOUS
 62
     4
100
AcDbText
 10
2520.0
 20
2027.0625
 30
0.0
 40
27.70323325635104
  1
シリンダ外径
 41
0.9992307692307693
  7
EXCADTTF1
 72
     5
 11
2736.0
 21
2027.0625
 31
0.0
100
AcDbText
  0
TEXT
  5
FC
330
1F
100
AcDbEntity
  8
図面枠
  6
CONTINUOUS
 62
     4
100
AcDbText
 10
2520.0
 20
1979.0625
 30
0.0
 40
27.70323325635104
  1
押しピストン径
 41
0.9992307692307691
  7
EXCADTTF1
 72
     5
 11
2772.0
 21
1979.0625
 31
0.0
100
AcDbText
  0
TEXT
  5
FD
330
1F
100
AcDbEntity
  8
図面枠
  6
CONTINUOUS
 62
     4
100
AcDbText
 10
2520.0
 20
1931.0625
 30
0.0
 40
27.70323325635104
  1
戻しピストン径
 41
0.9992307692307691
  7
EXCADTTF1
 72
     5
 11
2772.0
 21
1931.0625
 31
0.0
100
AcDbText
  0
TEXT
  5
FE
330
1F
100
AcDbEntity
  8
図面枠
  6
CONTINUOUS
 62
     4
100
AcDbText
 10
2520.0
 20
1883.0625
 30
0.0
 40
27.70323325635104
  1
インナーロッド径
 41
0.9992307692307693
  7
EXCADTTF1
 72
     5
 11
2808.0
 21
1883.0625
 31
0.0
100
AcDbText
  0
TEXT
  5
FF
330
1F
100
AcDbEntity
  8
図面枠
  6
CONTINUOUS
 62
     4
100
AcDbText
 10
2520.0
 20
1691.0625
 30
0.0
 40
27.70323325635104
  1
重量
 41
0.9992307692307693
  7
EXCADTTF1
 72
     5
 11
2592.0
 21
1691.0625
 31
0.0
100
AcDbText
  0
TEXT
  5
100
330
1F
100
AcDbEntity
  8
図面枠
  6
CONTINUOUS
 62
     4
100
AcDbText
 10
2520.0
 20
1739.0625
 30
0.0
 40
27.70323325635104
  1
所要油量
 41
0.9992307692307693
  7
EXCADTTF1
 72
     5
 11
2664.0
 21
1739.0625
 31
0.0
100
AcDbText
  0
LINE
  5
101
330
1F
100
AcDbEntity
  8
図面枠
  6
CONTINUOUS
 62
     2
100
AcDbLine
 10
2504.0
 20
1776.0
 30
0.0
 11
3240.0
 21
1776.0
 31
0.0
  0
LINE
  5
102
330
1F
100
AcDbEntity
  8
図面枠
  6
CONTINUOUS
 62
     2
100
AcDbLine
 10
2504.0
 20
1728.0
 30
0.0
 11
3240.0
 21
1728.0
 31
0.0
  0
TEXT
  5
103
330
1F
100
AcDbEntity
  8
図面枠
  6
CONTINUOUS
 62
     4
100
AcDbText
 10
3096.0
 20
1691.0625
 30
0.0
 40
27.70323325635104
  1
kg
 41
0.9992307692307693
  7
EXCADTTF1
 72
     5
 11
3132.0
 21
1691.0625
 31
0.0
100
AcDbText
  0
TEXT
  5
104
330
1F
100
AcDbEntity
  8
図面枠
  6
CONTINUOUS
 62
     4
100
AcDbText
 10
2974.0
 20
2171.0625
 30
0.0
 40
27.70323325635104
  1
15000
 41
0.9992307692307693
  7
EXCADTTF1
 72
     5
 11
3064.0
 21
2171.0625
 31
0.0
100
AcDbText
  0
TEXT
  5
105
330
1F
100
AcDbEntity
  8
図面枠
  6
CONTINUOUS
 62
     4
100
AcDbText
 10
3010.08
 20
2123.0625
 30
0.0
 40
27.70323325635104
  1
100
 41
0.9992307692307694
  7
EXCADTTF1
 72
     5
 11
3064.08
 21
2123.0625
 31
0.0
100
AcDbText
  0
TEXT
  5
106
330
1F
100
AcDbEntity
  8
図面枠
  6
CONTINUOUS
 62
     4
100
AcDbText
 10
3010.0
 20
2075.0625
 30
0.0
 40
27.70323325635104
  1
672
 41
0.9992307692307694
  7
EXCADTTF1
 72
     5
 11
3064.0
 21
2075.0625
 31
0.0
100
AcDbText
  0
TEXT
  5
107
330
1F
100
AcDbEntity
  8
図面枠
  6
CONTINUOUS
 62
     4
100
AcDbText
 10
3010.0
 20
2027.0625
 30
0.0
 40
27.70323325635104
  1
680
 41
0.9992307692307694
  7
EXCADTTF1
 72
     5
 11
3064.0
 21
2027.0625
 31
0.0
100
AcDbText
  0
TEXT
  5
108
330
1F
100
AcDbEntity
  8
図面枠
  6
CONTINUOUS
 62
     4
100
AcDbText
 10
3010.0
 20
1979.0625
 30
0.0
 40
27.70323325635104
  1
540
 41
0.9992307692307694
  7
EXCADTTF1
 72
     5
 11
3064.0
 21
1979.0625
 31
0.0
100
AcDbText
  0
TEXT
  5
109
330
1F
100
AcDbEntity
  8
図面枠
  6
CONTINUOUS
 62
     4
100
AcDbText
 10
3010.0
 20
1931.0625
 30
0.0
 40
27.70323325635104
  1
200
 41
0.9992307692307694
  7
EXCADTTF1
 72
     5
 11
3064.0
 21
1931.0625
 31
0.0
100
AcDbText
  0
TEXT
  5
10A
330
1F
100
AcDbEntity
  8
図面枠
  6
CONTINUOUS
 62
     4
100
AcDbText
 10
3010.0
 20
1883.0625
 30
0.0
 40
27.70323325635104
  1
120
 41
0.9992307692307694
  7
EXCADTTF1
 72
     5
 11
3064.0
 21
1883.0625
 31
0.0
100
AcDbText
  0
TEXT
  5
10B
330
1F
100
AcDbEntity
  8
図面枠
  6
CONTINUOUS
 62
     4
100
AcDbText
 10
2992.0
 20
1835.0625
 30
0.0
 40
27.70323325635104
  1
2177
 41
0.9992307692307693
  7
EXCADTTF1
 72
     5
 11
3064.0
 21
1835.0625
 31
0.0
100
AcDbText
  0
TEXT
  5
10C
330
1F
100
AcDbEntity
  8
図面枠
  6
CONTINUOUS
 62
     4
100
AcDbText
 10
2992.08
 20
1787.0625
 30
0.0
 40
27.70323325635104
  1
68.9
 41
0.9992307692307693
  7
EXCADTTF1
 72
     5
 11
3064.08
 21
1787.0625
 31
0.0
100
AcDbText
  0
TEXT
  5
10D
330
1F
100
AcDbEntity
  8
図面枠
  6
CONTINUOUS
 62
     4
100
AcDbText
 10
3096.0
 20
1739.0625
 30
0.0
 40
27.70323325635104
  1
L
 41
0.9992307692307693
  7
EXCADTTF1
 72
     5
 11
3114.0
 21
1739.0625
 31
0.0
100
AcDbText
  0
TEXT
  5
10E
330
1F
100
AcDbEntity
  8
図面枠
  6
CONTINUOUS
 62
     4
100
AcDbText
 10
2992.0
 20
1739.0625
 30
0.0
 40
27.70323325635104
  1
21.8
 41
0.9992307692307693
  7
EXCADTTF1
 72
     5
 11
3064.0
 21
1739.0625
 31
0.0
100
AcDbText
  0
TEXT
  5
10F
330
1F
100
AcDbEntity
  8
図面枠
  6
CONTINUOUS
 62
     4
100
AcDbText
 10
2520.0
 20
1595.0625
 30
0.0
 40
27.70323325635104
  1
備考
 41
0.9992307692307693
  7
EXCADTTF1
 72
     5
 11
2592.0
 21
1595.0625
 31
0.0
100
AcDbText
  0
LINE
  5
110
330
1F
100
AcDbEntity
  8
図面枠
  6
CONTINUOUS
 62
     3
100
AcDbLine
 10
2504.0
 20
1536.0
 30
0.0
 11
3240.0
 21
1536.0
 31
0.0
  0
TEXT
  5
111
330
1F
100
AcDbEntity
  8
図面枠
  6
CONTINUOUS
 62
     4
100
AcDbText
 10
2520.0
 20
1547.0625
 30
0.0
 40
27.70323325635104
  1
ユニバーサルヘッド振り角は、±3゜(±5%%%）
 41
0.9992307692307696
  7
EXCADTTF1
 72
     5
 11
3240.0
 21
1547.0625
 31
0.0
100
AcDbText
  0
LINE
  5
112
330
1F
100
AcDbEntity
  8
図面枠
  6
CONTINUOUS
 62
     2
100
AcDbLine
 10
2504.0
 20
1632.0
 30
0.0
 11
3240.0
 21
1632.0
 31
0.0
  0
TEXT
  5
113
330
1F
100
AcDbEntity
  8
図面枠
  6
CONTINUOUS
 62
     4
100
AcDbText
 10
3096.0
 20
1643.0625
 30
0.0
 40
27.70323325635104
  1
kg
 41
0.9992307692307693
  7
EXCADTTF1
 72
     5
 11
3132.0
 21
1643.0625
 31
0.0
100
AcDbText
  0
LINE
  5
114
330
1F
100
AcDbEntity
  8
図面枠
  6
CONTINUOUS
 62
     3
100
AcDbLine
 10
2504.0
 20
2256.0
 30
0.0
 11
2504.0
 21
1536.0
 31
0.0
  0
LINE
  5
115
330
1F
100
AcDbEntity
  8
図面枠
  6
CONTINUOUS
 62
     3
100
AcDbLine
 10
3240.0
 20
2256.0
 30
0.0
 11
3240.0
 21
1536.0
 31
0.0
  0
LINE
  5
116
330
1F
100
AcDbEntity
  8
図面枠
  6
CONTINUOUS
 62
     2
100
AcDbLine
 10
2920.0
 20
2208.0
 30
0.0
 11
2920.0
 21
1632.0
 31
0.0
  0
LINE
  5
117
330
1F
100
AcDbEntity
  8
図面枠
  6
CONTINUOUS
 62
     2
100
AcDbLine
 10
3080.0
 20
2208.0
 30
0.0
 11
3080.0
 21
1632.0
 31
0.0
  0
TEXT
  5
118
330
1F
100
AcDbEntity
  8
図面枠
  6
CONTINUOUS
 62
     4
100
AcDbText
 10
2974.0
 20
1643.0625
 30
0.0
 40
27.70323325635104
  1
約286
 41
0.9992307692307693
  7
EXCADTTF1
 72
     5
 11
3064.0
 21
1643.0625
 31
0.0
100
AcDbText
  0
TEXT
  5
119
330
1F
100
AcDbEntity
  8
図面枠
  6
CONTINUOUS
 62
     4
100
AcDbText
 10
2956.0
 20
1691.0625
 30
0.0
 40
27.70323325635104
  1
約1615
 41
0.9992307692307693
  7
EXCADTTF1
 72
     5
 11
3064.0
 21
1691.0625
 31
0.0
100
AcDbText
  0
TEXT
  5
11A
330
1F
100
AcDbEntity
  8
図面枠
  6
CONTINUOUS
 62
     4
100
AcDbText
 10
2732.0
 20
1691.0625
 30
0.0
 40
27.70323325635104
  1
ジャッキ
 41
0.9992307692307693
  7
EXCADTTF1
 72
     5
 11
2876.0
 21
1691.0625
 31
0.0
100
AcDbText
  0
LINE
  5
11B
330
1F
100
AcDbEntity
  8
図面枠
  6
CONTINUOUS
 62
     2
100
AcDbLine
 10
2712.0
 20
1728.0
 30
0.0
 11
2712.0
 21
1632.0
 31
0.0
  0
TEXT
  5
11C
330
1F
100
AcDbEntity
  8
図面枠
  6
CONTINUOUS
 62
     4
100
AcDbText
 10
2732.0
 20
1643.0625
 30
0.0
 40
27.70323325635104
  1
プレート
 41
0.9992307692307693
  7
EXCADTTF1
 72
     5
 11
2876.0
 21
1643.0625
 31
0.0
100
AcDbText
  0
LINE
  5
11D
330
1F
100
AcDbEntity
  8
図面枠
  6
CONTINUOUS
 62
     2
100
AcDbLine
 10
2712.0
 20
1680.0
 30
0.0
 11
3240.0
 21
1680.0
 31
0.0
  0
LINE
  5
11E
330
1F
100
AcDbEntity
  8
図面枠
  6
CONTINUOUS
 62
     3
100
AcDbLine
 10
2928.0
 20
192.0
 30
0.0
 11
2928.0
 21
120.0
 31
0.0
  0
TEXT
  5
11F
330
1F
100
AcDbEntity
  8
図面枠
  6
CONTINUOUS
 62
     4
100
AcDbText
 10
2952.0
 20
138.75
 30
0.0
 40
36.93764434180139
  1
MJ-150010-U
 41
0.9992307692307695
  7
EXCADTTF1
 72
     5
 11
3216.0
 21
138.75
 31
0.0
100
AcDbText
  0
LINE
  5
120
330
1F
100
AcDbEntity
  8
図面枠
  6
CONTINUOUS
 62
     3
100
AcDbLine
 10
2928.0
 20
192.0
 30
0.0
 11
3240.0
 21
192.0
 31
0.0
  0
LINE
  5
121
330
1F
100
AcDbEntity
  8
図面枠
  6
CONTINUOUS
 62
     3
100
AcDbLine
 10
2928.0
 20
120.0
 30
0.0
 11
3240.0
 21
120.0
 31
0.0
  0
LINE
  5
122
330
1F
100
AcDbEntity
  8
Ｓ_１_１
  6
EXLTYPE2
 62
     1
100
AcDbLine
 10
2349.999999999991
 20
1140.1
 30
0.0
 11
2349.99999999999
 21
380.4199999999998
 31
0.0
  0
LINE
  5
123
330
1F
100
AcDbEntity
  8
Ｓ_１_１
  6
EXLTYPE2
 62
     1
100
AcDbLine
 10
2224.99999999999
 20
401.8199999999995
 30
0.0
 11
2224.99999999999
 21
439.0799999999999
 31
0.0
  0
LINE
  5
124
330
1F
100
AcDbEntity
  8
Ｓ_１_１
  6
CONTINUOUS
 62
     3
100
AcDbLine
 10
2062.29999999998
 20
451.0000000000009
 30
0.0
 11
2014.999999999984
 21
451.0000000000009
 31
0.0
  0
LINE
  5
125
330
1F
100
AcDbEntity
  8
Ｓ_１_１
  6
CONTINUOUS
 62
     3
100
AcDbLine
 10
2134.999999999985
 20
451.0000000000009
 30
0.0
 11
2087.69999999998
 21
451.0000000000009
 31
0.0
  0
LINE
  5
126
330
1F
100
AcDbEntity
  8
Ｓ_１_１
  6
EXLTYPE2
 62
     1
100
AcDbLine
 10
2034.99999999998
 20
401.8199999999995
 30
0.0
 11
2034.99999999998
 21
439.0799999999999
 31
0.0
  0
LINE
  5
127
330
1F
100
AcDbEntity
  8
Ｓ_１_１
  6
EXLTYPE2
 62
     1
100
AcDbLine
 10
2015.55999999998
 20
420.0000000000009
 30
0.0
 11
2053.53999999998
 21
420.0000000000009
 31
0.0
  0
LINE
  5
128
330
1F
100
AcDbEntity
  8
Ｓ_１_１
  6
EXLTYPE2
 62
     1
100
AcDbLine
 10
2114.99999999999
 20
401.8199999999995
 30
0.0
 11
2114.99999999999
 21
439.0799999999999
 31
0.0
  0
LINE
  5
129
330
1F
100
AcDbEntity
  8
Ｓ_１_１
  6
EXLTYPE2
 62
     1
100
AcDbLine
 10
2095.55999999999
 20
420.0000000000009
 30
0.0
 11
2133.53999999999
 21
420.0000000000009
 31
0.0
  0
CIRCLE
  5
12A
330
1F
100
AcDbEntity
  8
Ｓ_１_１
  6
CONTINUOUS
 62
     3
100
AcDbCircle
 10
2114.99999999999
 20
420.0
 30
0.0
 40
15.0
  0
CIRCLE
  5
12B
330
1F
100
AcDbEntity
  8
Ｓ_１_１
  6
CONTINUOUS
 62
     3
100
AcDbCircle
 10
2114.99999999999
 20
420.0
 30
0.0
 40
11.99999999999917
  0
POLYLINE
  5
12C
330
1F
100
AcDbEntity
  8
Ｓ_１_１
  6
CONTINUOUS
 62
     3
100
AcDb2dPolyline
 66
     1
 10
0.0
 20
0.0
 30
0.0
 70
   128
  0
VERTEX
  5
12D
330
12C
100
AcDbEntity
  8
Ｓ_１_１
  6
CONTINUOUS
 62
     3
100
AcDbVertex
100
AcDb2dVertex
 10
2128.856406460541
 20
420.0
 30
0.0
  0
VERTEX
  5
12E
330
12C
100
AcDbEntity
  8
Ｓ_１_１
  6
CONTINUOUS
 62
     3
100
AcDbVertex
100
AcDb2dVertex
 10
2121.928203230265
 20
408.0000000000009
 30
0.0
  0
VERTEX
  5
12F
330
12C
100
AcDbEntity
  8
Ｓ_１_１
  6
CONTINUOUS
 62
     3
100
AcDbVertex
100
AcDb2dVertex
 10
2108.071796769714
 20
408.0000000000009
 30
0.0
  0
VERTEX
  5
130
330
12C
100
AcDbEntity
  8
Ｓ_１_１
  6
CONTINUOUS
 62
     3
100
AcDbVertex
100
AcDb2dVertex
 10
2101.143593539439
 20
420.0
 30
0.0
  0
VERTEX
  5
131
330
12C
100
AcDbEntity
  8
Ｓ_１_１
  6
CONTINUOUS
 62
     3
100
AcDbVertex
100
AcDb2dVertex
 10
2108.071796769714
 20
432.0
 30
0.0
  0
VERTEX
  5
132
330
12C
100
AcDbEntity
  8
Ｓ_１_１
  6
CONTINUOUS
 62
     3
100
AcDbVertex
100
AcDb2dVertex
 10
2121.928203230265
 20
432.0
 30
0.0
  0
VERTEX
  5
133
330
12C
100
AcDbEntity
  8
Ｓ_１_１
  6
CONTINUOUS
 62
     3
100
AcDbVertex
100
AcDb2dVertex
 10
2128.856406460541
 20
420.0
 30
0.0
  0
SEQEND
  5
134
330
12C
100
AcDbEntity
  8
Ｓ_１_１
  6
CONTINUOUS
 62
     3
  0
LINE
  5
135
330
1F
100
AcDbEntity
  8
Ｓ_１_１
  6
EXLTYPE2
 62
     1
100
AcDbLine
 10
2205.55999999999
 20
420.0000000000009
 30
0.0
 11
2243.53999999999
 21
420.0000000000009
 31
0.0
  0
CIRCLE
  5
136
330
1F
100
AcDbEntity
  8
Ｓ_１_１
  6
CONTINUOUS
 62
     3
100
AcDbCircle
 10
2224.99999999999
 20
420.0
 30
0.0
 40
15.0
  0
CIRCLE
  5
137
330
1F
100
AcDbEntity
  8
Ｓ_１_１
  6
CONTINUOUS
 62
     3
100
AcDbCircle
 10
2224.99999999999
 20
420.0
 30
0.0
 40
11.99999999999917
  0
POLYLINE
  5
138
330
1F
100
AcDbEntity
  8
Ｓ_１_１
  6
CONTINUOUS
 62
     3
100
AcDb2dPolyline
 66
     1
 10
0.0
 20
0.0
 30
0.0
 70
   128
  0
VERTEX
  5
139
330
138
100
AcDbEntity
  8
Ｓ_１_１
  6
CONTINUOUS
 62
     3
100
AcDbVertex
100
AcDb2dVertex
 10
2238.856406460541
 20
420.0
 30
0.0
  0
VERTEX
  5
13A
330
138
100
AcDbEntity
  8
Ｓ_１_１
  6
CONTINUOUS
 62
     3
100
AcDbVertex
100
AcDb2dVertex
 10
2231.928203230265
 20
408.0000000000009
 30
0.0
  0
VERTEX
  5
13B
330
138
100
AcDbEntity
  8
Ｓ_１_１
  6
CONTINUOUS
 62
     3
100
AcDbVertex
100
AcDb2dVertex
 10
2218.071796769714
 20
408.0000000000009
 30
0.0
  0
VERTEX
  5
13C
330
138
100
AcDbEntity
  8
Ｓ_１_１
  6
CONTINUOUS
 62
     3
100
AcDbVertex
100
AcDb2dVertex
 10
2211.143593539439
 20
420.0
 30
0.0
  0
VERTEX
  5
13D
330
138
100
AcDbEntity
  8
Ｓ_１_１
  6
CONTINUOUS
 62
     3
100
AcDbVertex
100
AcDb2dVertex
 10
2218.071796769714
 20
432.0
 30
0.0
  0
VERTEX
  5
13E
330
138
100
AcDbEntity
  8
Ｓ_１_１
  6
CONTINUOUS
 62
     3
100
AcDbVertex
100
AcDb2dVertex
 10
2231.928203230265
 20
432.0
 30
0.0
  0
VERTEX
  5
13F
330
138
100
AcDbEntity
  8
Ｓ_１_１
  6
CONTINUOUS
 62
     3
100
AcDbVertex
100
AcDb2dVertex
 10
2238.856406460541
 20
420.0
 30
0.0
  0
SEQEND
  5
140
330
138
100
AcDbEntity
  8
Ｓ_１_１
  6
CONTINUOUS
 62
     3
  0
LINE
  5
141
330
1F
100
AcDbEntity
  8
Ｓ_１_１
  6
EXLTYPE2
 62
     1
100
AcDbLine
 10
2304.99999999999
 20
401.8199999999995
 30
0.0
 11
2304.99999999999
 21
439.0799999999999
 31
0.0
  0
LINE
  5
142
330
1F
100
AcDbEntity
  8
Ｓ_１_１
  6
EXLTYPE2
 62
     1
100
AcDbLine
 10
2285.55999999999
 20
420.0000000000009
 30
0.0
 11
2323.53999999999
 21
420.0000000000009
 31
0.0
  0
LINE
  5
143
330
1F
100
AcDbEntity
  8
Ｓ_１_１
  6
CONTINUOUS
 62
     3
100
AcDbLine
 10
2134.999999999985
 20
404.0000000000007
 30
0.0
 11
2134.999999999984
 21
451.0000000000009
 31
0.0
  0
LINE
  5
144
330
1F
100
AcDbEntity
  8
Ｓ_１_１
  6
CONTINUOUS
 62
     3
100
AcDbLine
 10
2134.999999999985
 20
404.0000000000007
 30
0.0
 11
2014.999999999984
 21
404.0000000000007
 31
0.0
  0
LINE
  5
145
330
1F
100
AcDbEntity
  8
Ｓ_１_１
  6
CONTINUOUS
 62
     3
100
AcDbLine
 10
2204.99999999999
 20
404.0000000000007
 30
0.0
 11
2324.99999999999
 21
403.9999999999998
 31
0.0
  0
LINE
  5
146
330
1F
100
AcDbEntity
  8
Ｓ_１_１
  6
CONTINUOUS
 62
     3
100
AcDbLine
 10
2204.99999999999
 20
404.0000000000007
 30
0.0
 11
2204.99999999999
 21
451.0
 31
0.0
  0
LINE
  5
147
330
1F
100
AcDbEntity
  8
Ｓ_１_１
  6
CONTINUOUS
 62
     3
100
AcDbLine
 10
2204.99999999999
 20
451.0
 30
0.0
 11
2252.29999999999
 21
451.0
 31
0.0
  0
LINE
  5
148
330
1F
100
AcDbEntity
  8
Ｓ_１_１
  6
CONTINUOUS
 62
     3
100
AcDbLine
 10
2277.69999999999
 20
472.6999999999998
 30
0.0
 11
2277.69999999999
 21
427.5
 31
0.0
  0
ELLIPSE
  5
149
330
1F
100
AcDbEntity
  8
Ｓ_１_１
  6
CONTINUOUS
 62
     3
100
AcDbEllipse
 10
2264.99999999998
 20
427.5
 30
0.0
 11
-3.213002489665505E-15
 21
-17.49077090038
 31
0.0
210
0.0
220
0.0
230
1.0
 40
0.7260972127720234
 41
4.71238898038469
 42
7.853981633974484
  0
ELLIPSE
  5
14A
330
1F
100
AcDbEntity
  8
Ｓ_１_１
  6
CONTINUOUS
 62
     3
100
AcDbEllipse
 10
2074.99999999998
 20
427.5
 30
0.0
 11
-3.213002489665505E-15
 21
-17.49077090038
 31
0.0
210
0.0
220
0.0
230
1.0
 40
0.7260972127720234
 41
4.71238898038469
 42
7.853981633974483
  0
LINE
  5
14B
330
1F
100
AcDbEntity
  8
Ｓ_１_１
  6
CONTINUOUS
 62
     3
100
AcDbLine
 10
2252.29999999999
 20
427.5
 30
0.0
 11
2252.29999999999
 21
467.3000000000011
 31
0.0
  0
LINE
  5
14C
330
1F
100
AcDbEntity
  8
Ｓ_１_１
  6
CONTINUOUS
 62
     3
100
AcDbLine
 10
2062.29999999998
 20
427.5
 30
0.0
 11
2062.29999999998
 21
472.6999999999998
 31
0.0
  0
LINE
  5
14D
330
1F
100
AcDbEntity
  8
Ｓ_１_１
  6
CONTINUOUS
 62
     3
100
AcDbLine
 10
2087.69999999998
 20
467.2999999999993
 30
0.0
 11
2087.69999999998
 21
427.5
 31
0.0
  0
LINE
  5
14E
330
1F
100
AcDbEntity
  8
Ｓ_１_１
  6
CONTINUOUS
 62
     3
100
AcDbLine
 10
2247.69999999999
 20
502.6999999999998
 30
0.0
 11
2092.299999999971
 21
502.6999999999998
 31
0.0
  0
LINE
  5
14F
330
1F
100
AcDbEntity
  8
Ｓ_１_１
  6
CONTINUOUS
 62
     3
100
AcDbLine
 10
2097.69999999997
 20
477.3000000000002
 30
0.0
 11
2242.29999999999
 21
477.2999999999993
 31
0.0
  0
ARC
  5
150
330
1F
100
AcDbEntity
  8
Ｓ_１_１
  6
CONTINUOUS
 62
     3
100
AcDbCircle
 10
2097.69999999997
 20
467.3000000000002
 30
0.0
 40
10.0
100
AcDbArc
 50
90.00000000000001
 51
180.0
  0
ARC
  5
151
330
1F
100
AcDbEntity
  8
Ｓ_１_１
  6
CONTINUOUS
 62
     3
100
AcDbCircle
 10
2092.299999999971
 20
472.6999999999998
 30
0.0
 40
30.0
100
AcDbArc
 50
90.00000000000001
 51
180.0
  0
ARC
  5
152
330
1F
100
AcDbEntity
  8
Ｓ_１_１
  6
CONTINUOUS
 62
     3
100
AcDbCircle
 10
2242.29999999999
 20
467.3000000000002
 30
0.0
 40
10.0
100
AcDbArc
 50
0.0
 51
90.00000000000001
  0
ARC
  5
153
330
1F
100
AcDbEntity
  8
Ｓ_１_１
  6
CONTINUOUS
 62
     3
100
AcDbCircle
 10
2247.69999999999
 20
472.6999999999998
 30
0.0
 40
30.0
100
AcDbArc
 50
0.0
 51
90.00000000000001
  0
LINE
  5
154
330
1F
100
AcDbEntity
  8
Ｓ_１_１
  6
CONTINUOUS
 62
     3
100
AcDbLine
 10
2277.699999999989
 20
451.0
 30
0.0
 11
2324.99999999999
 21
451.0
 31
0.0
  0
LINE
  5
155
330
1F
100
AcDbEntity
  8
Ｓ_１_１
  6
CONTINUOUS
 62
     3
100
AcDbLine
 10
2324.99999999999
 20
403.9999999999998
 30
0.0
 11
2324.99999999999
 21
451.0
 31
0.0
  0
LINE
  5
156
330
1F
100
AcDbEntity
  8
Ｓ_１_１
  6
CONTINUOUS
 62
     3
100
AcDbLine
 10
2014.999999999984
 20
404.0000000000007
 30
0.0
 11
2014.999999999984
 21
451.0000000000009
 31
0.0
  0
CIRCLE
  5
157
330
1F
100
AcDbEntity
  8
Ｓ_１_１
  6
CONTINUOUS
 62
     3
100
AcDbCircle
 10
2034.999999999984
 20
420.0000000000009
 30
0.0
 40
15.0
  0
CIRCLE
  5
158
330
1F
100
AcDbEntity
  8
Ｓ_１_１
  6
CONTINUOUS
 62
     3
100
AcDbCircle
 10
2034.999999999984
 20
420.0000000000009
 30
0.0
 40
11.99999999999917
  0
POLYLINE
  5
159
330
1F
100
AcDbEntity
  8
Ｓ_１_１
  6
CONTINUOUS
 62
     3
100
AcDb2dPolyline
 66
     1
 10
0.0
 20
0.0
 30
0.0
 70
   128
  0
VERTEX
  5
15A
330
159
100
AcDbEntity
  8
Ｓ_１_１
  6
CONTINUOUS
 62
     3
100
AcDbVertex
100
AcDb2dVertex
 10
2021.143593539433
 20
420.0000000000009
 30
0.0
  0
VERTEX
  5
15B
330
159
100
AcDbEntity
  8
Ｓ_１_１
  6
CONTINUOUS
 62
     3
100
AcDbVertex
100
AcDb2dVertex
 10
2028.071796769709
 20
408.0000000000009
 30
0.0
  0
VERTEX
  5
15C
330
159
100
AcDbEntity
  8
Ｓ_１_１
  6
CONTINUOUS
 62
     3
100
AcDbVertex
100
AcDb2dVertex
 10
2041.928203230259
 20
408.0000000000009
 30
0.0
  0
VERTEX
  5
15D
330
159
100
AcDbEntity
  8
Ｓ_１_１
  6
CONTINUOUS
 62
     3
100
AcDbVertex
100
AcDb2dVertex
 10
2048.856406460535
 20
420.0000000000009
 30
0.0
  0
VERTEX
  5
15E
330
159
100
AcDbEntity
  8
Ｓ_１_１
  6
CONTINUOUS
 62
     3
100
AcDbVertex
100
AcDb2dVertex
 10
2041.928203230259
 20
432.0000000000009
 30
0.0
  0
VERTEX
  5
15F
330
159
100
AcDbEntity
  8
Ｓ_１_１
  6
CONTINUOUS
 62
     3
100
AcDbVertex
100
AcDb2dVertex
 10
2028.071796769709
 20
432.0000000000009
 30
0.0
  0
VERTEX
  5
160
330
159
100
AcDbEntity
  8
Ｓ_１_１
  6
CONTINUOUS
 62
     3
100
AcDbVertex
100
AcDb2dVertex
 10
2021.143593539433
 20
420.0000000000009
 30
0.0
  0
SEQEND
  5
161
330
159
100
AcDbEntity
  8
Ｓ_１_１
  6
CONTINUOUS
 62
     3
  0
CIRCLE
  5
162
330
1F
100
AcDbEntity
  8
Ｓ_１_１
  6
CONTINUOUS
 62
     3
100
AcDbCircle
 10
2304.99999999999
 20
420.0
 30
0.0
 40
15.0
  0
CIRCLE
  5
163
330
1F
100
AcDbEntity
  8
Ｓ_１_１
  6
CONTINUOUS
 62
     3
100
AcDbCircle
 10
2304.99999999999
 20
420.0
 30
0.0
 40
11.99999999999917
  0
POLYLINE
  5
164
330
1F
100
AcDbEntity
  8
Ｓ_１_１
  6
CONTINUOUS
 62
     3
100
AcDb2dPolyline
 66
     1
 10
0.0
 20
0.0
 30
0.0
 70
   128
  0
VERTEX
  5
165
330
164
100
AcDbEntity
  8
Ｓ_１_１
  6
CONTINUOUS
 62
     3
100
AcDbVertex
100
AcDb2dVertex
 10
2318.856406460541
 20
420.0
 30
0.0
  0
VERTEX
  5
166
330
164
100
AcDbEntity
  8
Ｓ_１_１
  6
CONTINUOUS
 62
     3
100
AcDbVertex
100
AcDb2dVertex
 10
2311.928203230265
 20
408.0000000000009
 30
0.0
  0
VERTEX
  5
167
330
164
100
AcDbEntity
  8
Ｓ_１_１
  6
CONTINUOUS
 62
     3
100
AcDbVertex
100
AcDb2dVertex
 10
2298.071796769714
 20
408.0000000000009
 30
0.0
  0
VERTEX
  5
168
330
164
100
AcDbEntity
  8
Ｓ_１_１
  6
CONTINUOUS
 62
     3
100
AcDbVertex
100
AcDb2dVertex
 10
2291.143593539439
 20
420.0
 30
0.0
  0
VERTEX
  5
169
330
164
100
AcDbEntity
  8
Ｓ_１_１
  6
CONTINUOUS
 62
     3
100
AcDbVertex
100
AcDb2dVertex
 10
2298.071796769714
 20
432.0
 30
0.0
  0
VERTEX
  5
16A
330
164
100
AcDbEntity
  8
Ｓ_１_１
  6
CONTINUOUS
 62
     3
100
AcDbVertex
100
AcDb2dVertex
 10
2311.928203230265
 20
432.0
 30
0.0
  0
VERTEX
  5
16B
330
164
100
AcDbEntity
  8
Ｓ_１_１
  6
CONTINUOUS
 62
     3
100
AcDbVertex
100
AcDb2dVertex
 10
2318.856406460541
 20
420.0
 30
0.0
  0
SEQEND
  5
16C
330
164
100
AcDbEntity
  8
Ｓ_１_１
  6
CONTINUOUS
 62
     3
  0
LINE
  5
16D
330
1F
100
AcDbEntity
  8
Ｓ_１_１
  6
CONTINUOUS
 62
     3
100
AcDbLine
 10
2002.49999999999
 20
400.0000000000034
 30
0.0
 11
2002.49999999999
 21
472.0000000000009
 31
0.0
  0
LINE
  5
16E
330
1F
100
AcDbEntity
  8
Ｓ_１_１
  6
CONTINUOUS
 62
     3
100
AcDbLine
 10
1922.49999999999
 20
403.0000000000034
 30
0.0
 11
1922.49999999999
 21
469.0000000000009
 31
0.0
  0
LINE
  5
16F
330
1F
100
AcDbEntity
  8
Ｓ_１_１
  6
CONTINUOUS
 62
     3
100
AcDbLine
 10
1922.49999999999
 20
469.0000000000009
 30
0.0
 11
1925.49999999999
 21
472.0000000000009
 31
0.0
  0
LINE
  5
170
330
1F
100
AcDbEntity
  8
Ｓ_１_１
  6
CONTINUOUS
 62
     3
100
AcDbLine
 10
1925.49999999999
 20
472.0000000000009
 30
0.0
 11
2062.38829660481
 21
472.0000000000009
 31
0.0
  0
LINE
  5
171
330
1F
100
AcDbEntity
  8
Ｓ_１_１
  6
CONTINUOUS
 62
     3
100
AcDbLine
 10
1922.49999999999
 20
469.0
 30
0.0
 11
2062.29999999998
 21
469.0
 31
0.0
  0
LINE
  5
172
330
1F
100
AcDbEntity
  8
Ｓ_１_１
  6
CONTINUOUS
 62
     3
100
AcDbLine
 10
1922.49999999999
 20
402.9999999999998
 30
0.0
 11
2002.49999999999
 21
402.9999999999998
 31
0.0
  0
LINE
  5
173
330
1F
100
AcDbEntity
  8
Ｓ_１_１
  6
CONTINUOUS
 62
     3
100
AcDbLine
 10
1922.49999999999
 20
403.0000000000034
 30
0.0
 11
1925.49999999999
 21
400.0000000000034
 31
0.0
  0
LINE
  5
174
330
1F
100
AcDbEntity
  8
Ｓ_１_１
  6
EXLTYPE2
 62
     1
100
AcDbLine
 10
2092.58496547403
 20
954.3000000000001
 30
0.0
 11
2092.58496547403
 21
919.4999999999999
 31
0.0
  0
ELLIPSE
  5
175
330
1F
100
AcDbEntity
  8
Ｓ_１_１
  6
CONTINUOUS
 62
     3
100
AcDbEllipse
 10
2092.58496547403
 20
936.9999999999999
 30
0.0
 11
-2.296212748401287E-15
 21
-12.5
 31
0.0
210
0.0
220
0.0
230
1.0
 40
0.519803902718395
 41
0.0
 42
6.283185307179586
  0
LINE
  5
176
330
1F
100
AcDbEntity
  8
Ｓ_１_１
  6
EXLTYPE2
 62
     1
100
AcDbLine
 10
2012.899999999991
 20
936.9999999999981
 30
0.0
 11
2106.99999999999
 21
936.9999999999981
 31
0.0
  0
ARC
  5
177
330
1F
100
AcDbEntity
  8
Ｓ_１_１
  6
CONTINUOUS
 62
     3
100
AcDbCircle
 10
2349.999999999991
 20
936.9999999999999
 30
0.0
 40
12.5
100
AcDbArc
 50
90.00000000000001
 51
270.0
  0
LINE
  5
178
330
1F
100
AcDbEntity
  8
Ｓ_１_１
  6
EXLTYPE2
 62
     1
100
AcDbLine
 10
2310.99999999999
 20
936.9999999999981
 30
0.0
 11
2355.99999999999
 21
936.9999999999981
 31
0.0
  0
LINE
  5
179
330
1F
100
AcDbEntity
  8
Ｓ_１_１
  6
CONTINUOUS
 62
     3
100
AcDbLine
 10
2009.99999999999
 20
472.0000000000009
 30
0.0
 11
2009.999999999991
 21
876.9999999999999
 31
0.0
  0
LINE
  5
17A
330
1F
100
AcDbEntity
  8
Ｓ_１_１
  6
EXLTYPE2
 62
     1
100
AcDbLine
 10
2107.499999999992
 20
1078.3
 30
0.0
 11
2107.499999999992
 21
1062.1
 31
0.0
  0
LINE
  5
17B
330
1F
100
AcDbEntity
  8
Ｓ_１_１
  6
EXLTYPE2
 62
     1
100
AcDbLine
 10
2179.999999999992
 20
1078.3
 30
0.0
 11
2179.999999999992
 21
1062.1
 31
0.0
  0
LINE
  5
17C
330
1F
100
AcDbEntity
  8
Ｓ_１_１
  6
EXLTYPE2
 62
     1
100
AcDbLine
 10
2249.999999999992
 20
1078.3
 30
0.0
 11
2249.999999999992
 21
1062.1
 31
0.0
  0
LINE
  5
17D
330
1F
100
AcDbEntity
  8
Ｓ_１_１
  6
EXLTYPE2
 62
     1
100
AcDbLine
 10
2309.99999999999
 20
751.0999999999952
 30
0.0
 11
2309.99999999999
 21
793.5799999999953
 31
0.0
  0
LINE
  5
17E
330
1F
100
AcDbEntity
  8
Ｓ_１_１
  6
EXLTYPE2
 62
     1
100
AcDbLine
 10
2289.99999999999
 20
771.9999999999958
 30
0.0
 11
2330.49999999999
 21
771.9999999999953
 31
0.0
  0
LINE
  5
17F
330
1F
100
AcDbEntity
  8
Ｓ_１_１
  6
EXLTYPE2
 62
     1
100
AcDbLine
 10
2309.99999999999
 20
852.8999999999995
 30
0.0
 11
2309.99999999999
 21
810.4199999999995
 31
0.0
  0
LINE
  5
180
330
1F
100
AcDbEntity
  8
Ｓ_１_１
  6
EXLTYPE2
 62
     1
100
AcDbLine
 10
2289.99999999999
 20
831.999999999999
 30
0.0
 11
2330.49999999999
 21
831.9999999999994
 31
0.0
  0
LINE
  5
181
330
1F
100
AcDbEntity
  8
Ｓ_１_１
  6
CONTINUOUS
 62
     3
100
AcDbLine
 10
2054.499999999991
 20
1072.0
 30
0.0
 11
2052.49999999999
 21
1069.999999999999
 31
0.0
  0
LINE
  5
182
330
1F
100
AcDbEntity
  8
Ｓ_１_１
  6
CONTINUOUS
 62
     3
100
AcDbLine
 10
2052.49999999999
 20
1002.527519561807
 30
0.0
 11
2052.49999999999
 21
1069.999999999999
 31
0.0
  0
CIRCLE
  5
183
330
1F
100
AcDbEntity
  8
Ｓ_１_１
  6
CONTINUOUS
 62
     3
100
AcDbCircle
 10
2309.99999999999
 20
771.9999999999953
 30
0.0
 40
15.0
  0
CIRCLE
  5
184
330
1F
100
AcDbEntity
  8
Ｓ_１_１
  6
CONTINUOUS
 62
     3
100
AcDbCircle
 10
2309.99999999999
 20
771.9999999999953
 30
0.0
 40
12.00000000000061
  0
POLYLINE
  5
185
330
1F
100
AcDbEntity
  8
Ｓ_１_１
  6
CONTINUOUS
 62
     3
100
AcDb2dPolyline
 66
     1
 10
0.0
 20
0.0
 30
0.0
 70
   128
  0
VERTEX
  5
186
330
185
100
AcDbEntity
  8
Ｓ_１_１
  6
CONTINUOUS
 62
     3
100
AcDbVertex
100
AcDb2dVertex
 10
2323.856406460542
 20
771.9999999999953
 30
0.0
  0
VERTEX
  5
187
330
185
100
AcDbEntity
  8
Ｓ_１_１
  6
CONTINUOUS
 62
     3
100
AcDbVertex
100
AcDb2dVertex
 10
2316.928203230265
 20
759.9999999999953
 30
0.0
  0
VERTEX
  5
188
330
185
100
AcDbEntity
  8
Ｓ_１_１
  6
CONTINUOUS
 62
     3
100
AcDbVertex
100
AcDb2dVertex
 10
2303.071796769715
 20
759.9999999999953
 30
0.0
  0
VERTEX
  5
189
330
185
100
AcDbEntity
  8
Ｓ_１_１
  6
CONTINUOUS
 62
     3
100
AcDbVertex
100
AcDb2dVertex
 10
2296.143593539439
 20
771.9999999999953
 30
0.0
  0
VERTEX
  5
18A
330
185
100
AcDbEntity
  8
Ｓ_１_１
  6
CONTINUOUS
 62
     3
100
AcDbVertex
100
AcDb2dVertex
 10
2303.071796769715
 20
783.9999999999953
 30
0.0
  0
VERTEX
  5
18B
330
185
100
AcDbEntity
  8
Ｓ_１_１
  6
CONTINUOUS
 62
     3
100
AcDbVertex
100
AcDb2dVertex
 10
2316.928203230265
 20
783.9999999999953
 30
0.0
  0
VERTEX
  5
18C
330
185
100
AcDbEntity
  8
Ｓ_１_１
  6
CONTINUOUS
 62
     3
100
AcDbVertex
100
AcDb2dVertex
 10
2323.856406460542
 20
771.9999999999953
 30
0.0
  0
SEQEND
  5
18D
330
185
100
AcDbEntity
  8
Ｓ_１_１
  6
CONTINUOUS
 62
     3
  0
CIRCLE
  5
18E
330
1F
100
AcDbEntity
  8
Ｓ_１_１
  6
CONTINUOUS
 62
     3
100
AcDbCircle
 10
2309.99999999999
 20
831.9999999999994
 30
0.0
 40
15.0
  0
CIRCLE
  5
18F
330
1F
100
AcDbEntity
  8
Ｓ_１_１
  6
CONTINUOUS
 62
     3
100
AcDbCircle
 10
2309.99999999999
 20
831.9999999999994
 30
0.0
 40
12.00000000000061
  0
POLYLINE
  5
190
330
1F
100
AcDbEntity
  8
Ｓ_１_１
  6
CONTINUOUS
 62
     3
100
AcDb2dPolyline
 66
     1
 10
0.0
 20
0.0
 30
0.0
 70
   128
  0
VERTEX
  5
191
330
190
100
AcDbEntity
  8
Ｓ_１_１
  6
CONTINUOUS
 62
     3
100
AcDbVertex
100
AcDb2dVertex
 10
2323.856406460542
 20
831.9999999999994
 30
0.0
  0
VERTEX
  5
192
330
190
100
AcDbEntity
  8
Ｓ_１_１
  6
CONTINUOUS
 62
     3
100
AcDbVertex
100
AcDb2dVertex
 10
2316.928203230265
 20
843.9999999999994
 30
0.0
  0
VERTEX
  5
193
330
190
100
AcDbEntity
  8
Ｓ_１_１
  6
CONTINUOUS
 62
     3
100
AcDbVertex
100
AcDb2dVertex
 10
2303.071796769715
 20
843.9999999999994
 30
0.0
  0
VERTEX
  5
194
330
190
100
AcDbEntity
  8
Ｓ_１_１
  6
CONTINUOUS
 62
     3
100
AcDbVertex
100
AcDb2dVertex
 10
2296.143593539439
 20
831.9999999999994
 30
0.0
  0
VERTEX
  5
195
330
190
100
AcDbEntity
  8
Ｓ_１_１
  6
CONTINUOUS
 62
     3
100
AcDbVertex
100
AcDb2dVertex
 10
2303.071796769715
 20
819.9999999999994
 30
0.0
  0
VERTEX
  5
196
330
190
100
AcDbEntity
  8
Ｓ_１_１
  6
CONTINUOUS
 62
     3
100
AcDbVertex
100
AcDb2dVertex
 10
2316.928203230265
 20
819.9999999999994
 30
0.0
  0
VERTEX
  5
197
330
190
100
AcDbEntity
  8
Ｓ_１_１
  6
CONTINUOUS
 62
     3
100
AcDbVertex
100
AcDb2dVertex
 10
2323.856406460542
 20
831.9999999999994
 30
0.0
  0
SEQEND
  5
198
330
190
100
AcDbEntity
  8
Ｓ_１_１
  6
CONTINUOUS
 62
     3
  0
LINE
  5
199
330
1F
100
AcDbEntity
  8
Ｓ_１_１
  6
CONTINUOUS
 62
     3
100
AcDbLine
 10
2289.99999999999
 20
851.999999999999
 30
0.0
 11
2289.99999999999
 21
751.9999999999994
 31
0.0
  0
LINE
  5
19A
330
1F
100
AcDbEntity
  8
Ｓ_１_１
  6
CONTINUOUS
 62
     3
100
AcDbLine
 10
2341.999999999991
 20
841.9999999999972
 30
0.0
 11
2341.999999999991
 21
761.9999999999976
 31
0.0
  0
LINE
  5
19B
330
1F
100
AcDbEntity
  8
Ｓ_１_１
  6
CONTINUOUS
 62
     3
100
AcDbLine
 10
2349.999999999991
 20
841.9999999999972
 30
0.0
 11
2341.999999999991
 21
841.9999999999972
 31
0.0
  0
LINE
  5
19C
330
1F
100
AcDbEntity
  8
Ｓ_１_１
  6
CONTINUOUS
 62
     3
100
AcDbLine
 10
2349.999999999991
 20
761.9999999999976
 30
0.0
 11
2341.999999999991
 21
761.9999999999976
 31
0.0
  0
LINE
  5
19D
330
1F
100
AcDbEntity
  8
Ｓ_１_１
  6
CONTINUOUS
 62
     3
100
AcDbLine
 10
2022.499999999991
 20
971.9999999999999
 30
0.0
 11
2042.499999999991
 21
991.9999999999999
 31
0.0
  0
LINE
  5
19E
330
1F
100
AcDbEntity
  8
Ｓ_１_１
  6
CONTINUOUS
 62
     3
100
AcDbLine
 10
2022.499999999991
 20
971.9999999999999
 30
0.0
 11
2022.499999999991
 21
883.9999999999994
 31
0.0
  0
LINE
  5
19F
330
1F
100
AcDbEntity
  8
Ｓ_１_１
  6
CONTINUOUS
 62
     3
100
AcDbLine
 10
2057.493147673763
 20
997.2658397805922
 30
0.0
 11
2052.49999999999
 21
1002.527519561807
 31
0.0
  0
LINE
  5
1A0
330
1F
100
AcDbEntity
  8
Ｓ_１_１
  6
CONTINUOUS
 62
     3
100
AcDbLine
 10
2057.493147673763
 20
997.2658397805922
 30
0.0
 11
2157.97135630331
 21
991.9999999999699
 31
0.0
  0
LINE
  5
1A1
330
1F
100
AcDbEntity
  8
Ｓ_１_１
  6
CONTINUOUS
 62
     3
100
AcDbLine
 10
2024.499999999991
 20
881.9999999999994
 30
0.0
 11
2022.499999999991
 21
883.9999999999994
 31
0.0
  0
LINE
  5
1A2
330
1F
100
AcDbEntity
  8
Ｓ_１_１
  6
CONTINUOUS
 62
     3
100
AcDbLine
 10
2014.999999999991
 20
881.9999999999994
 30
0.0
 11
2009.999999999991
 21
876.9999999999994
 31
0.0
  0
LINE
  5
1A3
330
1F
100
AcDbEntity
  8
Ｓ_１_１
  6
EXLTYPE2
 62
     1
100
AcDbLine
 10
2349.999999999991
 20
1140.1
 30
0.0
 11
2349.999999999991
 21
380.4199999999998
 31
0.0
  0
LINE
  5
1A4
330
1F
100
AcDbEntity
  8
Ｓ_１_１
  6
EXLTYPE2
 62
     1
100
AcDbLine
 10
2474.999999999992
 20
401.8199999999995
 30
0.0
 11
2474.999999999992
 21
439.0799999999999
 31
0.0
  0
LINE
  5
1A5
330
1F
100
AcDbEntity
  8
Ｓ_１_１
  6
CONTINUOUS
 62
     3
100
AcDbLine
 10
2637.700000000002
 20
451.0000000000005
 30
0.0
 11
2684.999999999997
 21
451.0000000000005
 31
0.0
  0
LINE
  5
1A6
330
1F
100
AcDbEntity
  8
Ｓ_１_１
  6
CONTINUOUS
 62
     3
100
AcDbLine
 10
2564.999999999996
 20
451.0000000000009
 30
0.0
 11
2612.300000000001
 21
451.0000000000005
 31
0.0
  0
LINE
  5
1A7
330
1F
100
AcDbEntity
  8
Ｓ_１_１
  6
EXLTYPE2
 62
     1
100
AcDbLine
 10
2665.000000000002
 20
401.8199999999993
 30
0.0
 11
2665.000000000002
 21
439.0799999999995
 31
0.0
  0
LINE
  5
1A8
330
1F
100
AcDbEntity
  8
Ｓ_１_１
  6
EXLTYPE2
 62
     1
100
AcDbLine
 10
2684.440000000001
 20
420.0000000000005
 30
0.0
 11
2646.460000000001
 21
420.0000000000005
 31
0.0
  0
LINE
  5
1A9
330
1F
100
AcDbEntity
  8
Ｓ_１_１
  6
EXLTYPE2
 62
     1
100
AcDbLine
 10
2584.999999999992
 20
401.8199999999993
 30
0.0
 11
2584.999999999992
 21
439.0799999999995
 31
0.0
  0
LINE
  5
1AA
330
1F
100
AcDbEntity
  8
Ｓ_１_１
  6
EXLTYPE2
 62
     1
100
AcDbLine
 10
2604.439999999991
 20
420.0000000000005
 30
0.0
 11
2566.459999999991
 21
420.0000000000009
 31
0.0
  0
CIRCLE
  5
1AB
330
1F
100
AcDbEntity
  8
Ｓ_１_１
  6
CONTINUOUS
 62
     3
100
AcDbCircle
 10
2584.999999999992
 20
419.9999999999995
 30
0.0
 40
15.0
  0
CIRCLE
  5
1AC
330
1F
100
AcDbEntity
  8
Ｓ_１_１
  6
CONTINUOUS
 62
     3
100
AcDbCircle
 10
2584.999999999992
 20
419.9999999999995
 30
0.0
 40
11.99999999999917
  0
POLYLINE
  5
1AD
330
1F
100
AcDbEntity
  8
Ｓ_１_１
  6
CONTINUOUS
 62
     3
100
AcDb2dPolyline
 66
     1
 10
0.0
 20
0.0
 30
0.0
 70
   128
  0
VERTEX
  5
1AE
330
1AD
100
AcDbEntity
  8
Ｓ_１_１
  6
CONTINUOUS
 62
     3
100
AcDbVertex
100
AcDb2dVertex
 10
2571.14359353944
 20
420.0
 30
0.0
  0
VERTEX
  5
1AF
330
1AD
100
AcDbEntity
  8
Ｓ_１_１
  6
CONTINUOUS
 62
     3
100
AcDbVertex
100
AcDb2dVertex
 10
2578.071796769716
 20
408.0000000000009
 30
0.0
  0
VERTEX
  5
1B0
330
1AD
100
AcDbEntity
  8
Ｓ_１_１
  6
CONTINUOUS
 62
     3
100
AcDbVertex
100
AcDb2dVertex
 10
2591.928203230267
 20
408.0000000000005
 30
0.0
  0
VERTEX
  5
1B1
330
1AD
100
AcDbEntity
  8
Ｓ_１_１
  6
CONTINUOUS
 62
     3
100
AcDbVertex
100
AcDb2dVertex
 10
2598.856406460543
 20
419.9999999999995
 30
0.0
  0
VERTEX
  5
1B2
330
1AD
100
AcDbEntity
  8
Ｓ_１_１
  6
CONTINUOUS
 62
     3
100
AcDbVertex
100
AcDb2dVertex
 10
2591.928203230267
 20
431.9999999999995
 30
0.0
  0
VERTEX
  5
1B3
330
1AD
100
AcDbEntity
  8
Ｓ_１_１
  6
CONTINUOUS
 62
     3
100
AcDbVertex
100
AcDb2dVertex
 10
2578.071796769716
 20
432.0
 30
0.0
  0
VERTEX
  5
1B4
330
1AD
100
AcDbEntity
  8
Ｓ_１_１
  6
CONTINUOUS
 62
     3
100
AcDbVertex
100
AcDb2dVertex
 10
2571.14359353944
 20
420.0
 30
0.0
  0
SEQEND
  5
1B5
330
1AD
100
AcDbEntity
  8
Ｓ_１_１
  6
CONTINUOUS
 62
     3
  0
LINE
  5
1B6
330
1F
100
AcDbEntity
  8
Ｓ_１_１
  6
EXLTYPE2
 62
     1
100
AcDbLine
 10
2494.439999999991
 20
420.0000000000009
 30
0.0
 11
2456.459999999991
 21
420.0000000000009
 31
0.0
  0
CIRCLE
  5
1B7
330
1F
100
AcDbEntity
  8
Ｓ_１_１
  6
CONTINUOUS
 62
     3
100
AcDbCircle
 10
2474.999999999992
 20
420.0
 30
0.0
 40
15.0
  0
CIRCLE
  5
1B8
330
1F
100
AcDbEntity
  8
Ｓ_１_１
  6
CONTINUOUS
 62
     3
100
AcDbCircle
 10
2474.999999999992
 20
420.0
 30
0.0
 40
11.99999999999917
  0
POLYLINE
  5
1B9
330
1F
100
AcDbEntity
  8
Ｓ_１_１
  6
CONTINUOUS
 62
     3
100
AcDb2dPolyline
 66
     1
 10
0.0
 20
0.0
 30
0.0
 70
   128
  0
VERTEX
  5
1BA
330
1B9
100
AcDbEntity
  8
Ｓ_１_１
  6
CONTINUOUS
 62
     3
100
AcDbVertex
100
AcDb2dVertex
 10
2461.14359353944
 20
420.0
 30
0.0
  0
VERTEX
  5
1BB
330
1B9
100
AcDbEntity
  8
Ｓ_１_１
  6
CONTINUOUS
 62
     3
100
AcDbVertex
100
AcDb2dVertex
 10
2468.071796769716
 20
408.0000000000009
 30
0.0
  0
VERTEX
  5
1BC
330
1B9
100
AcDbEntity
  8
Ｓ_１_１
  6
CONTINUOUS
 62
     3
100
AcDbVertex
100
AcDb2dVertex
 10
2481.928203230267
 20
408.0000000000009
 30
0.0
  0
VERTEX
  5
1BD
330
1B9
100
AcDbEntity
  8
Ｓ_１_１
  6
CONTINUOUS
 62
     3
100
AcDbVertex
100
AcDb2dVertex
 10
2488.856406460543
 20
420.0
 30
0.0
  0
VERTEX
  5
1BE
330
1B9
100
AcDbEntity
  8
Ｓ_１_１
  6
CONTINUOUS
 62
     3
100
AcDbVertex
100
AcDb2dVertex
 10
2481.928203230267
 20
432.0
 30
0.0
  0
VERTEX
  5
1BF
330
1B9
100
AcDbEntity
  8
Ｓ_１_１
  6
CONTINUOUS
 62
     3
100
AcDbVertex
100
AcDb2dVertex
 10
2468.071796769716
 20
432.0
 30
0.0
  0
VERTEX
  5
1C0
330
1B9
100
AcDbEntity
  8
Ｓ_１_１
  6
CONTINUOUS
 62
     3
100
AcDbVertex
100
AcDb2dVertex
 10
2461.14359353944
 20
420.0
 30
0.0
  0
SEQEND
  5
1C1
330
1B9
100
AcDbEntity
  8
Ｓ_１_１
  6
CONTINUOUS
 62
     3
  0
LINE
  5
1C2
330
1F
100
AcDbEntity
  8
Ｓ_１_１
  6
EXLTYPE2
 62
     1
100
AcDbLine
 10
2394.999999999992
 20
401.8199999999995
 30
0.0
 11
2394.999999999992
 21
439.0799999999999
 31
0.0
  0
LINE
  5
1C3
330
1F
100
AcDbEntity
  8
Ｓ_１_１
  6
EXLTYPE2
 62
     1
100
AcDbLine
 10
2414.439999999991
 20
420.0000000000009
 30
0.0
 11
2376.459999999992
 21
420.0000000000009
 31
0.0
  0
LINE
  5
1C4
330
1F
100
AcDbEntity
  8
Ｓ_１_１
  6
CONTINUOUS
 62
     3
100
AcDbLine
 10
2564.999999999996
 20
404.0000000000007
 30
0.0
 11
2564.999999999997
 21
451.0000000000009
 31
0.0
  0
LINE
  5
1C5
330
1F
100
AcDbEntity
  8
Ｓ_１_１
  6
CONTINUOUS
 62
     3
100
AcDbLine
 10
2564.999999999996
 20
404.0000000000007
 30
0.0
 11
2684.999999999997
 21
404.0000000000005
 31
0.0
  0
LINE
  5
1C6
330
1F
100
AcDbEntity
  8
Ｓ_１_１
  6
CONTINUOUS
 62
     3
100
AcDbLine
 10
2494.999999999992
 20
404.0000000000007
 30
0.0
 11
2374.999999999992
 21
403.9999999999998
 31
0.0
  0
LINE
  5
1C7
330
1F
100
AcDbEntity
  8
Ｓ_１_１
  6
CONTINUOUS
 62
     3
100
AcDbLine
 10
2494.999999999992
 20
404.0000000000007
 30
0.0
 11
2494.999999999992
 21
451.0
 31
0.0
  0
LINE
  5
1C8
330
1F
100
AcDbEntity
  8
Ｓ_１_１
  6
CONTINUOUS
 62
     3
100
AcDbLine
 10
2494.999999999992
 20
451.0
 30
0.0
 11
2447.699999999992
 21
451.0
 31
0.0
  0
LINE
  5
1C9
330
1F
100
AcDbEntity
  8
Ｓ_１_１
  6
CONTINUOUS
 62
     3
100
AcDbLine
 10
2422.299999999991
 20
472.6999999999998
 30
0.0
 11
2422.299999999991
 21
427.5
 31
0.0
  0
ELLIPSE
  5
1CA
330
1F
100
AcDbEntity
  8
Ｓ_１_１
  6
CONTINUOUS
 62
     3
100
AcDbEllipse
 10
2435.000000000002
 20
427.5
 30
0.0
 11
-3.213002489665505E-15
 21
-17.49077090038
 31
0.0
210
0.0
220
0.0
230
1.0
 40
0.7260972127720234
 41
4.71238898038469
 42
7.853981633974483
  0
ELLIPSE
  5
1CB
330
1F
100
AcDbEntity
  8
Ｓ_１_１
  6
CONTINUOUS
 62
     3
100
AcDbEllipse
 10
2625.000000000002
 20
427.4999999999995
 30
0.0
 11
-3.213002489665505E-15
 21
-17.49077090038
 31
0.0
210
0.0
220
0.0
230
1.0
 40
0.7260972127720234
 41
4.71238898038469
 42
7.853981633974483
  0
LINE
  5
1CC
330
1F
100
AcDbEntity
  8
Ｓ_１_１
  6
CONTINUOUS
 62
     3
100
AcDbLine
 10
2447.699999999992
 20
427.5
 30
0.0
 11
2447.699999999992
 21
467.3000000000011
 31
0.0
  0
LINE
  5
1CD
330
1F
100
AcDbEntity
  8
Ｓ_１_１
  6
CONTINUOUS
 62
     3
100
AcDbLine
 10
2637.700000000002
 20
427.4999999999995
 30
0.0
 11
2637.700000000002
 21
472.6999999999994
 31
0.0
  0
LINE
  5
1CE
330
1F
100
AcDbEntity
  8
Ｓ_１_１
  6
CONTINUOUS
 62
     3
100
AcDbLine
 10
2612.300000000001
 20
467.2999999999988
 30
0.0
 11
2612.300000000001
 21
427.4999999999995
 31
0.0
  0
LINE
  5
1CF
330
1F
100
AcDbEntity
  8
Ｓ_１_１
  6
CONTINUOUS
 62
     3
100
AcDbLine
 10
2452.299999999991
 20
502.6999999999998
 30
0.0
 11
2607.700000000011
 21
502.6999999999994
 31
0.0
  0
LINE
  5
1D0
330
1F
100
AcDbEntity
  8
Ｓ_１_１
  6
CONTINUOUS
 62
     3
100
AcDbLine
 10
2602.300000000011
 20
477.2999999999997
 30
0.0
 11
2457.699999999992
 21
477.2999999999993
 31
0.0
  0
ARC
  5
1D1
330
1F
100
AcDbEntity
  8
Ｓ_１_１
  6
CONTINUOUS
 62
     3
100
AcDbCircle
 10
2602.300000000011
 20
467.2999999999997
 30
0.0
 40
10.0
100
AcDbArc
 50
0.0
 51
90.00000000000001
  0
ARC
  5
1D2
330
1F
100
AcDbEntity
  8
Ｓ_１_１
  6
CONTINUOUS
 62
     3
100
AcDbCircle
 10
2607.700000000011
 20
472.6999999999994
 30
0.0
 40
30.0
100
AcDbArc
 50
0.0
 51
90.00000000000001
  0
ARC
  5
1D3
330
1F
100
AcDbEntity
  8
Ｓ_１_１
  6
CONTINUOUS
 62
     3
100
AcDbCircle
 10
2457.699999999992
 20
467.3000000000002
 30
0.0
 40
10.0
100
AcDbArc
 50
90.00000000000001
 51
180.0
  0
ARC
  5
1D4
330
1F
100
AcDbEntity
  8
Ｓ_１_１
  6
CONTINUOUS
 62
     3
100
AcDbCircle
 10
2452.299999999991
 20
472.6999999999998
 30
0.0
 40
30.0
100
AcDbArc
 50
90.00000000000001
 51
180.0
  0
LINE
  5
1D5
330
1F
100
AcDbEntity
  8
Ｓ_１_１
  6
CONTINUOUS
 62
     3
100
AcDbLine
 10
2422.299999999992
 20
451.0
 30
0.0
 11
2374.999999999992
 21
451.0
 31
0.0
  0
LINE
  5
1D6
330
1F
100
AcDbEntity
  8
Ｓ_１_１
  6
CONTINUOUS
 62
     3
100
AcDbLine
 10
2374.999999999992
 20
403.9999999999998
 30
0.0
 11
2374.999999999992
 21
451.0
 31
0.0
  0
LINE
  5
1D7
330
1F
100
AcDbEntity
  8
Ｓ_１_１
  6
CONTINUOUS
 62
     3
100
AcDbLine
 10
2684.999999999997
 20
404.0000000000005
 30
0.0
 11
2684.999999999997
 21
451.0000000000005
 31
0.0
  0
CIRCLE
  5
1D8
330
1F
100
AcDbEntity
  8
Ｓ_１_１
  6
CONTINUOUS
 62
     3
100
AcDbCircle
 10
2664.999999999997
 20
420.0000000000005
 30
0.0
 40
15.0
  0
CIRCLE
  5
1D9
330
1F
100
AcDbEntity
  8
Ｓ_１_１
  6
CONTINUOUS
 62
     3
100
AcDbCircle
 10
2664.999999999997
 20
420.0000000000005
 30
0.0
 40
11.99999999999917
  0
POLYLINE
  5
1DA
330
1F
100
AcDbEntity
  8
Ｓ_１_１
  6
CONTINUOUS
 62
     3
100
AcDb2dPolyline
 66
     1
 10
0.0
 20
0.0
 30
0.0
 70
   128
  0
VERTEX
  5
1DB
330
1DA
100
AcDbEntity
  8
Ｓ_１_１
  6
CONTINUOUS
 62
     3
100
AcDbVertex
100
AcDb2dVertex
 10
2678.856406460548
 20
420.0000000000005
 30
0.0
  0
VERTEX
  5
1DC
330
1DA
100
AcDbEntity
  8
Ｓ_１_１
  6
CONTINUOUS
 62
     3
100
AcDbVertex
100
AcDb2dVertex
 10
2671.928203230273
 20
408.0000000000005
 30
0.0
  0
VERTEX
  5
1DD
330
1DA
100
AcDbEntity
  8
Ｓ_１_１
  6
CONTINUOUS
 62
     3
100
AcDbVertex
100
AcDb2dVertex
 10
2658.071796769722
 20
408.0000000000005
 30
0.0
  0
VERTEX
  5
1DE
330
1DA
100
AcDbEntity
  8
Ｓ_１_１
  6
CONTINUOUS
 62
     3
100
AcDbVertex
100
AcDb2dVertex
 10
2651.143593539447
 20
420.0000000000005
 30
0.0
  0
VERTEX
  5
1DF
330
1DA
100
AcDbEntity
  8
Ｓ_１_１
  6
CONTINUOUS
 62
     3
100
AcDbVertex
100
AcDb2dVertex
 10
2658.071796769722
 20
432.0000000000005
 30
0.0
  0
VERTEX
  5
1E0
330
1DA
100
AcDbEntity
  8
Ｓ_１_１
  6
CONTINUOUS
 62
     3
100
AcDbVertex
100
AcDb2dVertex
 10
2671.928203230273
 20
432.0000000000005
 30
0.0
  0
VERTEX
  5
1E1
330
1DA
100
AcDbEntity
  8
Ｓ_１_１
  6
CONTINUOUS
 62
     3
100
AcDbVertex
100
AcDb2dVertex
 10
2678.856406460548
 20
420.0000000000005
 30
0.0
  0
SEQEND
  5
1E2
330
1DA
100
AcDbEntity
  8
Ｓ_１_１
  6
CONTINUOUS
 62
     3
  0
CIRCLE
  5
1E3
330
1F
100
AcDbEntity
  8
Ｓ_１_１
  6
CONTINUOUS
 62
     3
100
AcDbCircle
 10
2394.999999999992
 20
420.0
 30
0.0
 40
15.0
  0
CIRCLE
  5
1E4
330
1F
100
AcDbEntity
  8
Ｓ_１_１
  6
CONTINUOUS
 62
     3
100
AcDbCircle
 10
2394.999999999992
 20
420.0
 30
0.0
 40
11.99999999999917
  0
POLYLINE
  5
1E5
330
1F
100
AcDbEntity
  8
Ｓ_１_１
  6
CONTINUOUS
 62
     3
100
AcDb2dPolyline
 66
     1
 10
0.0
 20
0.0
 30
0.0
 70
   128
  0
VERTEX
  5
1E6
330
1E5
100
AcDbEntity
  8
Ｓ_１_１
  6
CONTINUOUS
 62
     3
100
AcDbVertex
100
AcDb2dVertex
 10
2381.14359353944
 20
420.0
 30
0.0
  0
VERTEX
  5
1E7
330
1E5
100
AcDbEntity
  8
Ｓ_１_１
  6
CONTINUOUS
 62
     3
100
AcDbVertex
100
AcDb2dVertex
 10
2388.071796769716
 20
408.0000000000009
 30
0.0
  0
VERTEX
  5
1E8
330
1E5
100
AcDbEntity
  8
Ｓ_１_１
  6
CONTINUOUS
 62
     3
100
AcDbVertex
100
AcDb2dVertex
 10
2401.928203230267
 20
408.0000000000009
 30
0.0
  0
VERTEX
  5
1E9
330
1E5
100
AcDbEntity
  8
Ｓ_１_１
  6
CONTINUOUS
 62
     3
100
AcDbVertex
100
AcDb2dVertex
 10
2408.856406460543
 20
420.0
 30
0.0
  0
VERTEX
  5
1EA
330
1E5
100
AcDbEntity
  8
Ｓ_１_１
  6
CONTINUOUS
 62
     3
100
AcDbVertex
100
AcDb2dVertex
 10
2401.928203230267
 20
432.0
 30
0.0
  0
VERTEX
  5
1EB
330
1E5
100
AcDbEntity
  8
Ｓ_１_１
  6
CONTINUOUS
 62
     3
100
AcDbVertex
100
AcDb2dVertex
 10
2388.071796769716
 20
432.0
 30
0.0
  0
VERTEX
  5
1EC
330
1E5
100
AcDbEntity
  8
Ｓ_１_１
  6
CONTINUOUS
 62
     3
100
AcDbVertex
100
AcDb2dVertex
 10
2381.14359353944
 20
420.0
 30
0.0
  0
SEQEND
  5
1ED
330
1E5
100
AcDbEntity
  8
Ｓ_１_１
  6
CONTINUOUS
 62
     3
  0
LINE
  5
1EE
330
1F
100
AcDbEntity
  8
Ｓ_１_１
  6
CONTINUOUS
 62
     3
100
AcDbLine
 10
2697.499999999992
 20
400.0000000000032
 30
0.0
 11
2697.499999999992
 21
472.0000000000005
 31
0.0
  0
LINE
  5
1EF
330
1F
100
AcDbEntity
  8
Ｓ_１_１
  6
CONTINUOUS
 62
     3
100
AcDbLine
 10
2777.499999999991
 20
403.0000000000032
 30
0.0
 11
2777.499999999991
 21
469.0000000000005
 31
0.0
  0
LINE
  5
1F0
330
1F
100
AcDbEntity
  8
Ｓ_１_１
  6
CONTINUOUS
 62
     3
100
AcDbLine
 10
2777.499999999991
 20
469.0000000000005
 30
0.0
 11
2774.499999999991
 21
472.0000000000005
 31
0.0
  0
LINE
  5
1F1
330
1F
100
AcDbEntity
  8
Ｓ_１_１
  6
CONTINUOUS
 62
     3
100
AcDbLine
 10
2774.499999999991
 20
472.0000000000005
 30
0.0
 11
2637.61170339517
 21
472.0000000000005
 31
0.0
  0
LINE
  5
1F2
330
1F
100
AcDbEntity
  8
Ｓ_１_１
  6
CONTINUOUS
 62
     3
100
AcDbLine
 10
2777.499999999992
 20
468.9999999999995
 30
0.0
 11
2637.700000000002
 21
468.9999999999995
 31
0.0
  0
LINE
  5
1F3
330
1F
100
AcDbEntity
  8
Ｓ_１_１
  6
CONTINUOUS
 62
     3
100
AcDbLine
 10
2777.499999999992
 20
402.9999999999995
 30
0.0
 11
2697.499999999992
 21
402.9999999999995
 31
0.0
  0
LINE
  5
1F4
330
1F
100
AcDbEntity
  8
Ｓ_１_１
  6
CONTINUOUS
 62
     3
100
AcDbLine
 10
2777.499999999991
 20
403.0000000000032
 30
0.0
 11
2774.499999999991
 21
400.0000000000032
 31
0.0
  0
LINE
  5
1F5
330
1F
100
AcDbEntity
  8
Ｓ_１_１
  6
EXLTYPE2
 62
     1
100
AcDbLine
 10
2607.415034525951
 20
954.3
 30
0.0
 11
2607.415034525951
 21
919.4999999999998
 31
0.0
  0
ELLIPSE
  5
1F6
330
1F
100
AcDbEntity
  8
Ｓ_１_１
  6
CONTINUOUS
 62
     3
100
AcDbEllipse
 10
2607.415034525951
 20
936.9999999999998
 30
0.0
 11
-2.296212748401287E-15
 21
-12.5
 31
0.0
210
0.0
220
0.0
230
1.0
 40
0.519803902718395
 41
0.0
 42
6.283185307179586
  0
LINE
  5
1F7
330
1F
100
AcDbEntity
  8
Ｓ_１_１
  6
EXLTYPE2
 62
     1
100
AcDbLine
 10
2687.09999999999
 20
936.999999999998
 30
0.0
 11
2592.999999999992
 21
936.999999999998
 31
0.0
  0
ARC
  5
1F8
330
1F
100
AcDbEntity
  8
Ｓ_１_１
  6
CONTINUOUS
 62
     3
100
AcDbCircle
 10
2349.999999999991
 20
936.9999999999999
 30
0.0
 40
12.5
100
AcDbArc
 50
270.0
 51
90.00000000000001
  0
LINE
  5
1F9
330
1F
100
AcDbEntity
  8
Ｓ_１_１
  6
EXLTYPE2
 62
     1
100
AcDbLine
 10
2388.999999999992
 20
936.9999999999981
 30
0.0
 11
2343.999999999992
 21
936.9999999999981
 31
0.0
  0
LINE
  5
1FA
330
1F
100
AcDbEntity
  8
Ｓ_１_１
  6
CONTINUOUS
 62
     3
100
AcDbLine
 10
2689.999999999991
 20
472.0000000000005
 30
0.0
 11
2689.999999999991
 21
876.9999999999998
 31
0.0
  0
LINE
  5
1FB
330
1F
100
AcDbEntity
  8
Ｓ_１_１
  6
EXLTYPE2
 62
     1
100
AcDbLine
 10
2592.49999999999
 20
1078.3
 30
0.0
 11
2592.49999999999
 21
1062.1
 31
0.0
  0
LINE
  5
1FC
330
1F
100
AcDbEntity
  8
Ｓ_１_１
  6
EXLTYPE2
 62
     1
100
AcDbLine
 10
2519.99999999999
 20
1078.3
 30
0.0
 11
2519.99999999999
 21
1062.1
 31
0.0
  0
LINE
  5
1FD
330
1F
100
AcDbEntity
  8
Ｓ_１_１
  6
EXLTYPE2
 62
     1
100
AcDbLine
 10
2449.99999999999
 20
1078.3
 30
0.0
 11
2449.99999999999
 21
1062.1
 31
0.0
  0
LINE
  5
1FE
330
1F
100
AcDbEntity
  8
Ｓ_１_１
  6
EXLTYPE2
 62
     1
100
AcDbLine
 10
2389.999999999992
 20
751.0999999999952
 30
0.0
 11
2389.999999999992
 21
793.5799999999953
 31
0.0
  0
LINE
  5
1FF
330
1F
100
AcDbEntity
  8
Ｓ_１_１
  6
EXLTYPE2
 62
     1
100
AcDbLine
 10
2409.999999999992
 20
771.9999999999958
 30
0.0
 11
2369.499999999992
 21
771.9999999999953
 31
0.0
  0
LINE
  5
200
330
1F
100
AcDbEntity
  8
Ｓ_１_１
  6
EXLTYPE2
 62
     1
100
AcDbLine
 10
2389.999999999992
 20
852.8999999999995
 30
0.0
 11
2389.999999999992
 21
810.4199999999995
 31
0.0
  0
LINE
  5
201
330
1F
100
AcDbEntity
  8
Ｓ_１_１
  6
EXLTYPE2
 62
     1
100
AcDbLine
 10
2409.999999999992
 20
831.999999999999
 30
0.0
 11
2369.499999999992
 21
831.9999999999994
 31
0.0
  0
LINE
  5
202
330
1F
100
AcDbEntity
  8
Ｓ_１_１
  6
CONTINUOUS
 62
     3
100
AcDbLine
 10
2645.49999999999
 20
1072.0
 30
0.0
 11
2647.499999999991
 21
1069.999999999999
 31
0.0
  0
LINE
  5
203
330
1F
100
AcDbEntity
  8
Ｓ_１_１
  6
CONTINUOUS
 62
     3
100
AcDbLine
 10
2647.499999999991
 20
1002.527519561807
 30
0.0
 11
2647.499999999991
 21
1069.999999999999
 31
0.0
  0
CIRCLE
  5
204
330
1F
100
AcDbEntity
  8
Ｓ_１_１
  6
CONTINUOUS
 62
     3
100
AcDbCircle
 10
2389.999999999992
 20
771.9999999999953
 30
0.0
 40
15.0
  0
CIRCLE
  5
205
330
1F
100
AcDbEntity
  8
Ｓ_１_１
  6
CONTINUOUS
 62
     3
100
AcDbCircle
 10
2389.999999999992
 20
771.9999999999953
 30
0.0
 40
12.00000000000061
  0
POLYLINE
  5
206
330
1F
100
AcDbEntity
  8
Ｓ_１_１
  6
CONTINUOUS
 62
     3
100
AcDb2dPolyline
 66
     1
 10
0.0
 20
0.0
 30
0.0
 70
   128
  0
VERTEX
  5
207
330
206
100
AcDbEntity
  8
Ｓ_１_１
  6
CONTINUOUS
 62
     3
100
AcDbVertex
100
AcDb2dVertex
 10
2376.14359353944
 20
771.9999999999953
 30
0.0
  0
VERTEX
  5
208
330
206
100
AcDbEntity
  8
Ｓ_１_１
  6
CONTINUOUS
 62
     3
100
AcDbVertex
100
AcDb2dVertex
 10
2383.071796769716
 20
759.9999999999953
 30
0.0
  0
VERTEX
  5
209
330
206
100
AcDbEntity
  8
Ｓ_１_１
  6
CONTINUOUS
 62
     3
100
AcDbVertex
100
AcDb2dVertex
 10
2396.928203230267
 20
759.9999999999953
 30
0.0
  0
VERTEX
  5
20A
330
206
100
AcDbEntity
  8
Ｓ_１_１
  6
CONTINUOUS
 62
     3
100
AcDbVertex
100
AcDb2dVertex
 10
2403.856406460543
 20
771.9999999999953
 30
0.0
  0
VERTEX
  5
20B
330
206
100
AcDbEntity
  8
Ｓ_１_１
  6
CONTINUOUS
 62
     3
100
AcDbVertex
100
AcDb2dVertex
 10
2396.928203230267
 20
783.9999999999953
 30
0.0
  0
VERTEX
  5
20C
330
206
100
AcDbEntity
  8
Ｓ_１_１
  6
CONTINUOUS
 62
     3
100
AcDbVertex
100
AcDb2dVertex
 10
2383.071796769716
 20
783.9999999999953
 30
0.0
  0
VERTEX
  5
20D
330
206
100
AcDbEntity
  8
Ｓ_１_１
  6
CONTINUOUS
 62
     3
100
AcDbVertex
100
AcDb2dVertex
 10
2376.14359353944
 20
771.9999999999953
 30
0.0
  0
SEQEND
  5
20E
330
206
100
AcDbEntity
  8
Ｓ_１_１
  6
CONTINUOUS
 62
     3
  0
CIRCLE
  5
20F
330
1F
100
AcDbEntity
  8
Ｓ_１_１
  6
CONTINUOUS
 62
     3
100
AcDbCircle
 10
2389.999999999992
 20
831.9999999999994
 30
0.0
 40
15.0
  0
CIRCLE
  5
210
330
1F
100
AcDbEntity
  8
Ｓ_１_１
  6
CONTINUOUS
 62
     3
100
AcDbCircle
 10
2389.999999999992
 20
831.9999999999994
 30
0.0
 40
12.00000000000061
  0
POLYLINE
  5
211
330
1F
100
AcDbEntity
  8
Ｓ_１_１
  6
CONTINUOUS
 62
     3
100
AcDb2dPolyline
 66
     1
 10
0.0
 20
0.0
 30
0.0
 70
   128
  0
VERTEX
  5
212
330
211
100
AcDbEntity
  8
Ｓ_１_１
  6
CONTINUOUS
 62
     3
100
AcDbVertex
100
AcDb2dVertex
 10
2376.14359353944
 20
831.9999999999994
 30
0.0
  0
VERTEX
  5
213
330
211
100
AcDbEntity
  8
Ｓ_１_１
  6
CONTINUOUS
 62
     3
100
AcDbVertex
100
AcDb2dVertex
 10
2383.071796769716
 20
843.9999999999994
 30
0.0
  0
VERTEX
  5
214
330
211
100
AcDbEntity
  8
Ｓ_１_１
  6
CONTINUOUS
 62
     3
100
AcDbVertex
100
AcDb2dVertex
 10
2396.928203230267
 20
843.9999999999994
 30
0.0
  0
VERTEX
  5
215
330
211
100
AcDbEntity
  8
Ｓ_１_１
  6
CONTINUOUS
 62
     3
100
AcDbVertex
100
AcDb2dVertex
 10
2403.856406460543
 20
831.9999999999994
 30
0.0
  0
VERTEX
  5
216
330
211
100
AcDbEntity
  8
Ｓ_１_１
  6
CONTINUOUS
 62
     3
100
AcDbVertex
100
AcDb2dVertex
 10
2396.928203230267
 20
819.9999999999994
 30
0.0
  0
VERTEX
  5
217
330
211
100
AcDbEntity
  8
Ｓ_１_１
  6
CONTINUOUS
 62
     3
100
AcDbVertex
100
AcDb2dVertex
 10
2383.071796769716
 20
819.9999999999994
 30
0.0
  0
VERTEX
  5
218
330
211
100
AcDbEntity
  8
Ｓ_１_１
  6
CONTINUOUS
 62
     3
100
AcDbVertex
100
AcDb2dVertex
 10
2376.14359353944
 20
831.9999999999994
 30
0.0
  0
SEQEND
  5
219
330
211
100
AcDbEntity
  8
Ｓ_１_１
  6
CONTINUOUS
 62
     3
  0
LINE
  5
21A
330
1F
100
AcDbEntity
  8
Ｓ_１_１
  6
CONTINUOUS
 62
     3
100
AcDbLine
 10
2409.999999999992
 20
851.999999999999
 30
0.0
 11
2409.999999999992
 21
751.9999999999994
 31
0.0
  0
LINE
  5
21B
330
1F
100
AcDbEntity
  8
Ｓ_１_１
  6
CONTINUOUS
 62
     3
100
AcDbLine
 10
2357.999999999991
 20
841.9999999999972
 30
0.0
 11
2357.999999999991
 21
761.9999999999976
 31
0.0
  0
LINE
  5
21C
330
1F
100
AcDbEntity
  8
Ｓ_１_１
  6
CONTINUOUS
 62
     3
100
AcDbLine
 10
2349.999999999991
 20
841.9999999999972
 30
0.0
 11
2357.999999999991
 21
841.9999999999972
 31
0.0
  0
LINE
  5
21D
330
1F
100
AcDbEntity
  8
Ｓ_１_１
  6
CONTINUOUS
 62
     3
100
AcDbLine
 10
2349.999999999991
 20
761.9999999999976
 30
0.0
 11
2357.999999999991
 21
761.9999999999976
 31
0.0
  0
LINE
  5
21E
330
1F
100
AcDbEntity
  8
Ｓ_１_１
  6
CONTINUOUS
 62
     3
100
AcDbLine
 10
2677.499999999991
 20
971.9999999999998
 30
0.0
 11
2657.499999999991
 21
991.9999999999998
 31
0.0
  0
LINE
  5
21F
330
1F
100
AcDbEntity
  8
Ｓ_１_１
  6
CONTINUOUS
 62
     3
100
AcDbLine
 10
2677.499999999991
 20
971.9999999999998
 30
0.0
 11
2677.499999999991
 21
883.9999999999993
 31
0.0
  0
LINE
  5
220
330
1F
100
AcDbEntity
  8
Ｓ_１_１
  6
CONTINUOUS
 62
     3
100
AcDbLine
 10
2642.506852326218
 20
997.2658397805922
 30
0.0
 11
2647.499999999991
 21
1002.527519561807
 31
0.0
  0
LINE
  5
221
330
1F
100
AcDbEntity
  8
Ｓ_１_１
  6
CONTINUOUS
 62
     3
100
AcDbLine
 10
2642.506852326218
 20
997.2658397805922
 30
0.0
 11
2542.028643696671
 21
991.9999999999698
 31
0.0
  0
LINE
  5
222
330
1F
100
AcDbEntity
  8
Ｓ_１_１
  6
CONTINUOUS
 62
     3
100
AcDbLine
 10
2675.499999999991
 20
881.9999999999993
 30
0.0
 11
2677.499999999991
 21
883.9999999999993
 31
0.0
  0
LINE
  5
223
330
1F
100
AcDbEntity
  8
Ｓ_１_１
  6
CONTINUOUS
 62
     3
100
AcDbLine
 10
2684.999999999991
 20
881.9999999999993
 30
0.0
 11
2689.999999999991
 21
876.9999999999993
 31
0.0
  0
LINE
  5
224
330
1F
100
AcDbEntity
  8
Ｓ_１_１
  6
CONTINUOUS
 62
     3
100
AcDbLine
 10
2774.5
 20
400.0000000000034
 30
0.0
 11
1925.49999999999
 21
400.0000000000034
 31
0.0
  0
LINE
  5
225
330
1F
100
AcDbEntity
  8
Ｓ_１_１
  6
CONTINUOUS
 62
     3
100
AcDbLine
 10
2002.49999999999
 20
402.9999999999998
 30
0.0
 11
2697.499999999992
 21
403.0
 31
0.0
  0
LINE
  5
226
330
1F
100
AcDbEntity
  8
Ｓ_１_１
  6
CONTINUOUS
 62
     3
100
AcDbLine
 10
2277.699999999989
 20
469.0
 30
0.0
 11
2422.299999999991
 21
469.0
 31
0.0
  0
LINE
  5
227
330
1F
100
AcDbEntity
  8
Ｓ_１_１
  6
CONTINUOUS
 62
     3
100
AcDbLine
 10
2277.611703395149
 20
472.0000000000009
 30
0.0
 11
2422.299999999991
 21
472.0000000000009
 31
0.0
  0
LINE
  5
228
330
1F
100
AcDbEntity
  8
Ｓ_１_１
  6
CONTINUOUS
 62
     3
100
AcDbLine
 10
2088.873335850928
 20
472.0000000000009
 30
0.0
 11
2251.126664149032
 21
472.0000000000009
 31
0.0
  0
LINE
  5
229
330
1F
100
AcDbEntity
  8
Ｓ_１_１
  6
CONTINUOUS
 62
     3
100
AcDbLine
 10
2087.845559376576
 20
469.0
 30
0.0
 11
2252.154440623384
 21
469.0
 31
0.0
  0
LINE
  5
22A
330
1F
100
AcDbEntity
  8
Ｓ_１_１
  6
CONTINUOUS
 62
     3
100
AcDbLine
 10
2611.126664149053
 20
472.0000000000005
 30
0.0
 11
2448.873335850949
 21
472.0000000000009
 31
0.0
  0
LINE
  5
22B
330
1F
100
AcDbEntity
  8
Ｓ_１_１
  6
CONTINUOUS
 62
     3
100
AcDbLine
 10
2612.154440623405
 20
468.9999999999995
 30
0.0
 11
2447.845559376598
 21
469.0
 31
0.0
  0
LINE
  5
22C
330
1F
100
AcDbEntity
  8
Ｓ_１_１
  6
CONTINUOUS
 62
     3
100
AcDbLine
 10
2289.99999999999
 20
751.9999999999994
 30
0.0
 11
2409.999999999992
 21
751.9999999999994
 31
0.0
  0
LINE
  5
22D
330
1F
100
AcDbEntity
  8
Ｓ_１_１
  6
CONTINUOUS
 62
     3
100
AcDbLine
 10
2289.99999999999
 20
851.999999999999
 30
0.0
 11
2409.999999999992
 21
851.999999999999
 31
0.0
  0
LINE
  5
22E
330
1F
100
AcDbEntity
  8
Ｓ_１_１
  6
CONTINUOUS
 62
     3
100
AcDbLine
 10
2022.49999999999
 20
883.9999999999999
 30
0.0
 11
2677.499999999991
 21
883.9999999999999
 31
0.0
  0
LINE
  5
22F
330
1F
100
AcDbEntity
  8
Ｓ_１_１
  6
CONTINUOUS
 62
     3
100
AcDbLine
 10
2009.99999999999
 20
876.9999999999999
 30
0.0
 11
2689.999999999991
 21
877.0
 31
0.0
  0
LINE
  5
230
330
1F
100
AcDbEntity
  8
Ｓ_１_１
  6
CONTINUOUS
 62
     3
100
AcDbLine
 10
2014.999999999991
 20
881.9999999999994
 30
0.0
 11
2684.99999999999
 21
881.9999999999995
 31
0.0
  0
LINE
  5
231
330
1F
100
AcDbEntity
  8
Ｓ_１_１
  6
CONTINUOUS
 62
     3
100
AcDbLine
 10
2022.49999999999
 20
971.9999999999999
 30
0.0
 11
2677.499999999991
 21
971.9999999999999
 31
0.0
  0
LINE
  5
232
330
1F
100
AcDbEntity
  8
Ｓ_１_１
  6
CONTINUOUS
 62
     3
100
AcDbLine
 10
2042.499999999991
 20
991.9999999999999
 30
0.0
 11
2657.49999999999
 21
992.0
 31
0.0
  0
LINE
  5
233
330
1F
100
AcDbEntity
  8
Ｓ_１_１
  6
CONTINUOUS
 62
     3
100
AcDbLine
 10
2057.49314767376
 20
997.2658397805999
 30
0.0
 11
2642.506852326365
 21
997.2658397805999
 31
0.0
  0
LINE
  5
234
330
1F
100
AcDbEntity
  8
Ｓ_１_１
  6
CONTINUOUS
 62
     3
100
AcDbLine
 10
2052.49999999999
 20
1002.5275195618
 30
0.0
 11
2647.499999999991
 21
1002.5275195618
 31
0.0
  0
LINE
  5
235
330
1F
100
AcDbEntity
  8
Ｓ_１_１
  6
CONTINUOUS
 62
     3
100
AcDbLine
 10
2052.49999999999
 20
1070.0
 30
0.0
 11
2647.499999999991
 21
1070.0
 31
0.0
  0
LINE
  5
236
330
1F
100
AcDbEntity
  8
Ｓ_１_１
  6
CONTINUOUS
 62
     3
100
AcDbLine
 10
2645.5
 20
1072.0
 30
0.0
 11
2054.499999999991
 21
1072.0
 31
0.0
  0
LINE
  5
237
330
1F
100
AcDbEntity
  8
Ｓ_１_１
  6
EXLTYPE2
 62
     1
100
AcDbLine
 10
2075.0
 20
406.3036995388102
 30
0.0
 11
2075.0
 21
470.0
 31
0.0
  0
ARC
  5
238
330
1F
100
AcDbEntity
  8
Ｓ_１_１
  6
EXLTYPE2
 62
     1
100
AcDbCircle
 10
2095.0
 20
470.0
 30
0.0
 40
20.0
100
AcDbArc
 50
90.00000000000001
 51
180.0
  0
LINE
  5
239
330
1F
100
AcDbEntity
  8
Ｓ_１_１
  6
EXLTYPE2
 62
     1
100
AcDbLine
 10
2245.0
 20
490.0
 30
0.0
 11
2095.0
 21
490.0
 31
0.0
  0
LINE
  5
23A
330
1F
100
AcDbEntity
  8
Ｓ_１_１
  6
EXLTYPE2
 62
     1
100
AcDbLine
 10
2265.0
 20
406.3036995388102
 30
0.0
 11
2265.0
 21
470.0
 31
0.0
  0
ARC
  5
23B
330
1F
100
AcDbEntity
  8
Ｓ_１_１
  6
EXLTYPE2
 62
     1
100
AcDbCircle
 10
2245.0
 20
470.0
 30
0.0
 40
20.0
100
AcDbArc
 50
0.0
 51
90.00000000000001
  0
LINE
  5
23C
330
1F
100
AcDbEntity
  8
Ｓ_１_１
  6
EXLTYPE2
 62
     1
100
AcDbLine
 10
2435.0
 20
406.3036995388102
 30
0.0
 11
2435.0
 21
470.0
 31
0.0
  0
ARC
  5
23D
330
1F
100
AcDbEntity
  8
Ｓ_１_１
  6
EXLTYPE2
 62
     1
100
AcDbCircle
 10
2455.0
 20
470.0
 30
0.0
 40
20.0
100
AcDbArc
 50
90.00000000000001
 51
180.0
  0
ARC
  5
23E
330
1F
100
AcDbEntity
  8
Ｓ_１_１
  6
EXLTYPE2
 62
     1
100
AcDbCircle
 10
2605.0
 20
470.0
 30
0.0
 40
20.0
100
AcDbArc
 50
0.0
 51
90.00000000000001
  0
LINE
  5
23F
330
1F
100
AcDbEntity
  8
Ｓ_１_１
  6
EXLTYPE2
 62
     1
100
AcDbLine
 10
2605.0
 20
490.0
 30
0.0
 11
2455.0
 21
490.0
 31
0.0
  0
LINE
  5
240
330
1F
100
AcDbEntity
  8
Ｓ_１_１
  6
EXLTYPE2
 62
     1
100
AcDbLine
 10
2625.0
 20
406.3036995388102
 30
0.0
 11
2625.0
 21
470.0
 31
0.0
  0
LINE
  5
241
330
1F
100
AcDbEntity
  8
Ｓ_１_１
  6
EXLTYPE2
 62
     1
100
AcDbLine
 10
857.4999999999918
 20
1078.3
 30
0.0
 11
857.4999999999918
 21
1062.1
 31
0.0
  0
LINE
  5
242
330
1F
100
AcDbEntity
  8
Ｓ_１_１
  6
EXLTYPE2
 62
     1
100
AcDbLine
 10
929.9999999999918
 20
1078.3
 30
0.0
 11
929.9999999999918
 21
1062.1
 31
0.0
  0
LINE
  5
243
330
1F
100
AcDbEntity
  8
Ｓ_１_１
  6
EXLTYPE2
 62
     1
100
AcDbLine
 10
999.9999999999918
 20
1078.3
 30
0.0
 11
999.9999999999918
 21
1062.1
 31
0.0
  0
LINE
  5
244
330
1F
100
AcDbEntity
  8
Ｓ_１_１
  6
CONTINUOUS
 62
     3
100
AcDbLine
 10
804.4999999999909
 20
1072.0
 30
0.0
 11
802.49999999999
 21
1069.999999999999
 31
0.0
  0
LINE
  5
245
330
1F
100
AcDbEntity
  8
Ｓ_１_１
  6
CONTINUOUS
 62
     3
100
AcDbLine
 10
802.49999999999
 20
1002.527519561807
 30
0.0
 11
802.49999999999
 21
1069.999999999999
 31
0.0
  0
LINE
  5
246
330
1F
100
AcDbEntity
  8
Ｓ_１_１
  6
CONTINUOUS
 62
     3
100
AcDbLine
 10
772.4999999999907
 20
971.9999999999999
 30
0.0
 11
792.4999999999909
 21
991.9999999999999
 31
0.0
  0
LINE
  5
247
330
1F
100
AcDbEntity
  8
Ｓ_１_１
  6
CONTINUOUS
 62
     3
100
AcDbLine
 10
772.4999999999907
 20
971.9999999999999
 30
0.0
 11
772.4999999999907
 21
883.9999999999994
 31
0.0
  0
LINE
  5
248
330
1F
100
AcDbEntity
  8
Ｓ_１_１
  6
CONTINUOUS
 62
     3
100
AcDbLine
 10
807.4931476737629
 20
997.2658397805922
 30
0.0
 11
802.49999999999
 21
1002.527519561807
 31
0.0
  0
LINE
  5
249
330
1F
100
AcDbEntity
  8
Ｓ_１_１
  6
CONTINUOUS
 62
     3
100
AcDbLine
 10
807.4931476737629
 20
997.2658397805922
 30
0.0
 11
907.9713563033101
 21
991.9999999999699
 31
0.0
  0
LINE
  5
24A
330
1F
100
AcDbEntity
  8
Ｓ_１_１
  6
CONTINUOUS
 62
     3
100
AcDbLine
 10
774.4999999999907
 20
881.9999999999994
 30
0.0
 11
772.4999999999907
 21
883.9999999999994
 31
0.0
  0
LINE
  5
24B
330
1F
100
AcDbEntity
  8
Ｓ_１_１
  6
CONTINUOUS
 62
     3
100
AcDbLine
 10
764.9999999999907
 20
881.9999999999994
 30
0.0
 11
759.9999999999907
 21
876.9999999999994
 31
0.0
  0
LINE
  5
24C
330
1F
100
AcDbEntity
  8
Ｓ_１_１
  6
EXLTYPE2
 62
     1
100
AcDbLine
 10
1342.49999999999
 20
1078.3
 30
0.0
 11
1342.49999999999
 21
1062.1
 31
0.0
  0
LINE
  5
24D
330
1F
100
AcDbEntity
  8
Ｓ_１_１
  6
EXLTYPE2
 62
     1
100
AcDbLine
 10
1269.99999999999
 20
1078.3
 30
0.0
 11
1269.99999999999
 21
1062.1
 31
0.0
  0
LINE
  5
24E
330
1F
100
AcDbEntity
  8
Ｓ_１_１
  6
EXLTYPE2
 62
     1
100
AcDbLine
 10
1199.99999999999
 20
1078.3
 30
0.0
 11
1199.99999999999
 21
1062.1
 31
0.0
  0
LINE
  5
24F
330
1F
100
AcDbEntity
  8
Ｓ_１_１
  6
CONTINUOUS
 62
     3
100
AcDbLine
 10
1395.49999999999
 20
1072.0
 30
0.0
 11
1397.499999999991
 21
1069.999999999999
 31
0.0
  0
LINE
  5
250
330
1F
100
AcDbEntity
  8
Ｓ_１_１
  6
CONTINUOUS
 62
     3
100
AcDbLine
 10
1397.499999999991
 20
1002.527519561807
 30
0.0
 11
1397.499999999991
 21
1069.999999999999
 31
0.0
  0
LINE
  5
251
330
1F
100
AcDbEntity
  8
Ｓ_１_１
  6
CONTINUOUS
 62
     3
100
AcDbLine
 10
1427.499999999991
 20
971.9999999999998
 30
0.0
 11
1407.499999999991
 21
991.9999999999998
 31
0.0
  0
LINE
  5
252
330
1F
100
AcDbEntity
  8
Ｓ_１_１
  6
CONTINUOUS
 62
     3
100
AcDbLine
 10
1427.499999999991
 20
971.9999999999998
 30
0.0
 11
1427.499999999991
 21
883.9999999999993
 31
0.0
  0
LINE
  5
253
330
1F
100
AcDbEntity
  8
Ｓ_１_１
  6
CONTINUOUS
 62
     3
100
AcDbLine
 10
1392.506852326218
 20
997.2658397805922
 30
0.0
 11
1397.499999999991
 21
1002.527519561807
 31
0.0
  0
LINE
  5
254
330
1F
100
AcDbEntity
  8
Ｓ_１_１
  6
CONTINUOUS
 62
     3
100
AcDbLine
 10
1392.506852326218
 20
997.2658397805922
 30
0.0
 11
1292.028643696671
 21
991.9999999999698
 31
0.0
  0
LINE
  5
255
330
1F
100
AcDbEntity
  8
Ｓ_１_１
  6
CONTINUOUS
 62
     3
100
AcDbLine
 10
1425.499999999991
 20
881.9999999999993
 30
0.0
 11
1427.499999999991
 21
883.9999999999993
 31
0.0
  0
LINE
  5
256
330
1F
100
AcDbEntity
  8
Ｓ_１_１
  6
CONTINUOUS
 62
     3
100
AcDbLine
 10
1434.999999999991
 20
881.9999999999993
 30
0.0
 11
1439.999999999991
 21
876.9999999999993
 31
0.0
  0
LINE
  5
257
330
1F
100
AcDbEntity
  8
Ｓ_１_１
  6
CONTINUOUS
 62
     3
100
AcDbLine
 10
772.4999999999898
 20
883.9999999999999
 30
0.0
 11
1427.499999999991
 21
883.9999999999999
 31
0.0
  0
LINE
  5
258
330
1F
100
AcDbEntity
  8
Ｓ_１_１
  6
CONTINUOUS
 62
     3
100
AcDbLine
 10
759.9999999999898
 20
876.9999999999999
 30
0.0
 11
1439.999999999991
 21
877.0
 31
0.0
  0
LINE
  5
259
330
1F
100
AcDbEntity
  8
Ｓ_１_１
  6
CONTINUOUS
 62
     3
100
AcDbLine
 10
764.9999999999907
 20
881.9999999999994
 30
0.0
 11
1434.99999999999
 21
881.9999999999995
 31
0.0
  0
LINE
  5
25A
330
1F
100
AcDbEntity
  8
Ｓ_１_１
  6
CONTINUOUS
 62
     3
100
AcDbLine
 10
772.4999999999898
 20
971.9999999999999
 30
0.0
 11
1427.499999999991
 21
971.9999999999999
 31
0.0
  0
LINE
  5
25B
330
1F
100
AcDbEntity
  8
Ｓ_１_１
  6
CONTINUOUS
 62
     3
100
AcDbLine
 10
792.4999999999909
 20
991.9999999999999
 30
0.0
 11
1407.49999999999
 21
992.0
 31
0.0
  0
LINE
  5
25C
330
1F
100
AcDbEntity
  8
Ｓ_１_１
  6
CONTINUOUS
 62
     3
100
AcDbLine
 10
807.4931476737602
 20
997.2658397805999
 30
0.0
 11
1392.506852326365
 21
997.2658397805999
 31
0.0
  0
LINE
  5
25D
330
1F
100
AcDbEntity
  8
Ｓ_１_１
  6
CONTINUOUS
 62
     3
100
AcDbLine
 10
802.49999999999
 20
1002.5275195618
 30
0.0
 11
1397.499999999991
 21
1002.5275195618
 31
0.0
  0
LINE
  5
25E
330
1F
100
AcDbEntity
  8
Ｓ_１_１
  6
CONTINUOUS
 62
     3
100
AcDbLine
 10
802.49999999999
 20
1070.0
 30
0.0
 11
1397.499999999991
 21
1070.0
 31
0.0
  0
LINE
  5
25F
330
1F
100
AcDbEntity
  8
Ｓ_１_１
  6
CONTINUOUS
 62
     3
100
AcDbLine
 10
1395.5
 20
1072.0
 30
0.0
 11
804.4999999999909
 21
1072.0
 31
0.0
  0
LINE
  5
260
330
1F
100
AcDbEntity
  8
Ｓ_１_１
  6
CONTINUOUS
 62
     3
100
AcDbLine
 10
1433.999999999961
 20
749.0000000000003
 30
0.0
 11
1439.999999999961
 21
749.0000000000003
 31
0.0
  0
LINE
  5
261
330
1F
100
AcDbEntity
  8
Ｓ_１_１
  6
CONTINUOUS
 62
     3
100
AcDbLine
 10
1433.999999999961
 20
749.0000000000003
 30
0.0
 11
1433.999999999961
 21
855.0000000000003
 31
0.0
  0
LINE
  5
262
330
1F
100
AcDbEntity
  8
Ｓ_１_１
  6
CONTINUOUS
 62
     3
100
AcDbLine
 10
1433.999999999961
 20
855.0000000000003
 30
0.0
 11
1439.999999999961
 21
855.0000000000003
 31
0.0
  0
LINE
  5
263
330
1F
100
AcDbEntity
  8
Ｓ_１_１
  6
CONTINUOUS
 62
     3
100
AcDbLine
 10
765.9999999999608
 20
749.0000000000002
 30
0.0
 11
759.9999999999608
 21
749.0000000000002
 31
0.0
  0
LINE
  5
264
330
1F
100
AcDbEntity
  8
Ｓ_１_１
  6
CONTINUOUS
 62
     3
100
AcDbLine
 10
765.9999999999608
 20
749.0000000000002
 30
0.0
 11
765.9999999999608
 21
855.0000000000002
 31
0.0
  0
LINE
  5
265
330
1F
100
AcDbEntity
  8
Ｓ_１_１
  6
CONTINUOUS
 62
     3
100
AcDbLine
 10
765.9999999999608
 20
855.0000000000002
 30
0.0
 11
759.9999999999608
 21
855.0000000000002
 31
0.0
  0
LINE
  5
266
330
1F
100
AcDbEntity
  8
Ｓ_１_１
  6
CONTINUOUS
 62
     3
100
AcDbLine
 10
759.9999999999907
 20
855.0000000000002
 30
0.0
 11
759.9999999999907
 21
876.9999999999999
 31
0.0
  0
LINE
  5
267
330
1F
100
AcDbEntity
  8
Ｓ_１_１
  6
CONTINUOUS
 62
     3
100
AcDbLine
 10
759.9999999999905
 20
472.0000000000009
 30
0.0
 11
759.9999999999907
 21
749.0000000000002
 31
0.0
  0
LINE
  5
268
330
1F
100
AcDbEntity
  8
Ｓ_１_１
  6
CONTINUOUS
 62
     3
100
AcDbLine
 10
1439.999999999991
 20
855.0000000000003
 30
0.0
 11
1439.999999999991
 21
876.9999999999998
 31
0.0
  0
LINE
  5
269
330
1F
100
AcDbEntity
  8
Ｓ_１_１
  6
CONTINUOUS
 62
     3
100
AcDbLine
 10
1439.999999999991
 20
472.0000000000005
 30
0.0
 11
1439.999999999991
 21
749.0000000000003
 31
0.0
  0
LINE
  5
26A
330
1F
100
AcDbEntity
  8
Ｓ_１_１
  6
CONTINUOUS
 62
     3
100
AcDbLine
 10
1434.0
 20
852.0
 30
0.0
 11
1450.0
 21
852.0
 31
0.0
  0
LINE
  5
26B
330
1F
100
AcDbEntity
  8
Ｓ_１_１
  6
CONTINUOUS
 62
     3
100
AcDbLine
 10
1450.0
 20
852.0
 30
0.0
 11
1450.0
 21
752.0000000000002
 31
0.0
  0
LINE
  5
26C
330
1F
100
AcDbEntity
  8
Ｓ_１_１
  6
CONTINUOUS
 62
     3
100
AcDbLine
 10
1434.0
 20
752.0000000000002
 30
0.0
 11
1450.0
 21
752.0000000000002
 31
0.0
  0
LINE
  5
26D
330
1F
100
AcDbEntity
  8
Ｓ_１_１
  6
CONTINUOUS
 62
     3
100
AcDbLine
 10
1434.0
 20
852.0
 30
0.0
 11
1434.0
 21
752.0000000000002
 31
0.0
  0
ARC
  5
26E
330
1F
100
AcDbEntity
  8
Ｓ_１_１
  6
CONTINUOUS
 62
     3
100
AcDbCircle
 10
1490.0
 20
802.0
 30
0.0
 40
40.0
100
AcDbArc
 50
270.0
 51
90.00000000000001
  0
CIRCLE
  5
26F
330
1F
100
AcDbEntity
  8
Ｓ_１_１
  6
CONTINUOUS
 62
     3
100
AcDbCircle
 10
1490.0
 20
802.0
 30
0.0
 40
20.0
  0
LINE
  5
270
330
1F
100
AcDbEntity
  8
Ｓ_１_１
  6
EXLTYPE2
 62
     1
100
AcDbLine
 10
1423.6
 20
802.0
 30
0.0
 11
1540.2
 21
802.0
 31
0.0
  0
LINE
  5
271
330
1F
100
AcDbEntity
  8
Ｓ_１_１
  6
EXLTYPE2
 62
     1
100
AcDbLine
 10
1490.0
 20
756.8
 30
0.0
 11
1490.0
 21
846.4000000000001
 31
0.0
  0
LINE
  5
272
330
1F
100
AcDbEntity
  8
Ｓ_１_１
  6
CONTINUOUS
 62
     3
100
AcDbLine
 10
1461.928203230301
 20
785.8564064606373
 30
0.0
 11
1462.99999999999
 21
784.0000000001476
 31
0.0
  0
LINE
  5
273
330
1F
100
AcDbEntity
  8
Ｓ_１_１
  6
CONTINUOUS
 62
     3
100
AcDbLine
 10
1461.928203230323
 20
785.8564064606
 30
0.0
 11
1452.99999999999
 21
785.8564064606
 31
0.0
  0
LINE
  5
274
330
1F
100
AcDbEntity
  8
Ｓ_１_１
  6
CONTINUOUS
 62
     3
100
AcDbLine
 10
1461.928203230301
 20
758.1435935393631
 30
0.0
 11
1462.99999999999
 21
759.999999999852
 31
0.0
  0
LINE
  5
275
330
1F
100
AcDbEntity
  8
Ｓ_１_１
  6
CONTINUOUS
 62
     3
100
AcDbLine
 10
1461.928203230323
 20
758.1435935393995
 30
0.0
 11
1452.99999999999
 21
758.1435935393995
 31
0.0
  0
LINE
  5
276
330
1F
100
AcDbEntity
  8
Ｓ_１_１
  6
CONTINUOUS
 62
     3
100
AcDbLine
 10
1462.99999999999
 20
784.0000000001476
 30
0.0
 11
1462.99999999999
 21
759.999999999852
 31
0.0
  0
LINE
  5
277
330
1F
100
AcDbEntity
  8
Ｓ_１_１
  6
CONTINUOUS
 62
     3
100
AcDbLine
 10
1461.92820323029
 20
778.9351716606
 30
0.0
 11
1452.99999999999
 21
778.9351716606
 31
0.0
  0
LINE
  5
278
330
1F
100
AcDbEntity
  8
Ｓ_１_１
  6
CONTINUOUS
 62
     3
100
AcDbLine
 10
1461.92820323029
 20
765.0648283393996
 30
0.0
 11
1452.99999999999
 21
765.0648283393996
 31
0.0
  0
ARC
  5
279
330
1F
100
AcDbEntity
  8
Ｓ_１_１
  6
CONTINUOUS
 62
     3
100
AcDbCircle
 10
1440.026729474409
 20
772.0000000000002
 30
0.0
 40
22.97327052558072
100
AcDbArc
 50
342.4294426979601
 51
17.57055730204007
  0
ARC
  5
27A
330
1F
100
AcDbEntity
  8
Ｓ_１_１
  6
CONTINUOUS
 62
     3
100
AcDbCircle
 10
1445.479658399215
 20
785.0617592462606
 30
0.0
 40
17.55248422601882
100
AcDbArc
 50
339.5711529511673
 51
356.532030226222
  0
ARC
  5
27B
330
1F
100
AcDbEntity
  8
Ｓ_１_１
  6
CONTINUOUS
 62
     3
100
AcDbCircle
 10
1445.479658399215
 20
758.9382407537389
 30
0.0
 40
17.55248422601882
100
AcDbArc
 50
3.467969773777771
 51
20.4288470488325
  0
LINE
  5
27C
330
1F
100
AcDbEntity
  8
Ｓ_１_１
  6
CONTINUOUS
 62
     3
100
AcDbLine
 10
1452.99999999999
 20
757.0000000000002
 30
0.0
 11
1449.99999999999
 21
757.0000000000002
 31
0.0
  0
LINE
  5
27D
330
1F
100
AcDbEntity
  8
Ｓ_１_１
  6
CONTINUOUS
 62
     3
100
AcDbLine
 10
1452.99999999999
 20
787.0000000000002
 30
0.0
 11
1452.99999999999
 21
757.0000000000002
 31
0.0
  0
LINE
  5
27E
330
1F
100
AcDbEntity
  8
Ｓ_１_１
  6
CONTINUOUS
 62
     3
100
AcDbLine
 10
1452.99999999999
 20
787.0000000000002
 30
0.0
 11
1449.99999999999
 21
787.0000000000002
 31
0.0
  0
LINE
  5
27F
330
1F
100
AcDbEntity
  8
Ｓ_１_１
  6
CONTINUOUS
 62
     3
100
AcDbLine
 10
1461.928203230301
 20
845.8564064606373
 30
0.0
 11
1462.99999999999
 21
844.0000000001476
 31
0.0
  0
LINE
  5
280
330
1F
100
AcDbEntity
  8
Ｓ_１_１
  6
CONTINUOUS
 62
     3
100
AcDbLine
 10
1461.928203230323
 20
845.8564064606
 30
0.0
 11
1452.99999999999
 21
845.8564064606
 31
0.0
  0
LINE
  5
281
330
1F
100
AcDbEntity
  8
Ｓ_１_１
  6
CONTINUOUS
 62
     3
100
AcDbLine
 10
1461.928203230301
 20
818.1435935393631
 30
0.0
 11
1462.99999999999
 21
819.999999999852
 31
0.0
  0
LINE
  5
282
330
1F
100
AcDbEntity
  8
Ｓ_１_１
  6
CONTINUOUS
 62
     3
100
AcDbLine
 10
1461.928203230323
 20
818.1435935393995
 30
0.0
 11
1452.99999999999
 21
818.1435935393995
 31
0.0
  0
LINE
  5
283
330
1F
100
AcDbEntity
  8
Ｓ_１_１
  6
CONTINUOUS
 62
     3
100
AcDbLine
 10
1462.99999999999
 20
844.0000000001476
 30
0.0
 11
1462.99999999999
 21
819.999999999852
 31
0.0
  0
LINE
  5
284
330
1F
100
AcDbEntity
  8
Ｓ_１_１
  6
CONTINUOUS
 62
     3
100
AcDbLine
 10
1461.92820323029
 20
838.9351716606
 30
0.0
 11
1452.99999999999
 21
838.9351716606
 31
0.0
  0
LINE
  5
285
330
1F
100
AcDbEntity
  8
Ｓ_１_１
  6
CONTINUOUS
 62
     3
100
AcDbLine
 10
1461.92820323029
 20
825.0648283393996
 30
0.0
 11
1452.99999999999
 21
825.0648283393996
 31
0.0
  0
ARC
  5
286
330
1F
100
AcDbEntity
  8
Ｓ_１_１
  6
CONTINUOUS
 62
     3
100
AcDbCircle
 10
1440.026729474409
 20
832.0000000000002
 30
0.0
 40
22.97327052558072
100
AcDbArc
 50
342.4294426979601
 51
17.57055730204007
  0
ARC
  5
287
330
1F
100
AcDbEntity
  8
Ｓ_１_１
  6
CONTINUOUS
 62
     3
100
AcDbCircle
 10
1445.479658399215
 20
845.0617592462606
 30
0.0
 40
17.55248422601882
100
AcDbArc
 50
339.5711529511673
 51
356.532030226222
  0
ARC
  5
288
330
1F
100
AcDbEntity
  8
Ｓ_１_１
  6
CONTINUOUS
 62
     3
100
AcDbCircle
 10
1445.479658399215
 20
818.9382407537389
 30
0.0
 40
17.55248422601882
100
AcDbArc
 50
3.467969773777771
 51
20.4288470488325
  0
LINE
  5
289
330
1F
100
AcDbEntity
  8
Ｓ_１_１
  6
CONTINUOUS
 62
     3
100
AcDbLine
 10
1452.99999999999
 20
817.0000000000002
 30
0.0
 11
1449.99999999999
 21
817.0000000000002
 31
0.0
  0
LINE
  5
28A
330
1F
100
AcDbEntity
  8
Ｓ_１_１
  6
CONTINUOUS
 62
     3
100
AcDbLine
 10
1452.99999999999
 20
847.0000000000002
 30
0.0
 11
1452.99999999999
 21
817.0000000000002
 31
0.0
  0
LINE
  5
28B
330
1F
100
AcDbEntity
  8
Ｓ_１_１
  6
CONTINUOUS
 62
     3
100
AcDbLine
 10
1452.99999999999
 20
847.0000000000002
 30
0.0
 11
1449.99999999999
 21
847.0000000000002
 31
0.0
  0
LINE
  5
28C
330
1F
100
AcDbEntity
  8
Ｓ_１_１
  6
EXLTYPE2
 62
     1
100
AcDbLine
 10
1410.39999999999
 20
832.0000000000002
 30
0.0
 11
1467.39999999999
 21
832.0000000000002
 31
0.0
  0
LINE
  5
28D
330
1F
100
AcDbEntity
  8
Ｓ_１_１
  6
CONTINUOUS
 62
     3
100
AcDbLine
 10
1462.99999999999
 20
842.0
 30
0.0
 11
1490.0
 21
842.0
 31
0.0
  0
LINE
  5
28E
330
1F
100
AcDbEntity
  8
Ｓ_１_１
  6
CONTINUOUS
 62
     3
100
AcDbLine
 10
1462.99999999999
 20
762.0
 30
0.0
 11
1490.0
 21
762.0
 31
0.0
  0
LINE
  5
28F
330
1F
100
AcDbEntity
  8
Ｓ_１_１
  6
EXLTYPE2
 62
     1
100
AcDbLine
 10
1410.39999999999
 20
772.0000000000002
 30
0.0
 11
1467.39999999999
 21
772.0000000000002
 31
0.0
  0
LINE
  5
290
330
1F
100
AcDbEntity
  8
Ｓ_１_１
  6
CONTINUOUS
 62
     3
100
AcDbLine
 10
765.9999999999812
 20
852.0000000000007
 30
0.0
 11
749.9999999999812
 21
852.0000000000007
 31
0.0
  0
LINE
  5
291
330
1F
100
AcDbEntity
  8
Ｓ_１_１
  6
CONTINUOUS
 62
     3
100
AcDbLine
 10
749.9999999999812
 20
852.0000000000007
 30
0.0
 11
749.999999999981
 21
752.0000000000009
 31
0.0
  0
LINE
  5
292
330
1F
100
AcDbEntity
  8
Ｓ_１_１
  6
CONTINUOUS
 62
     3
100
AcDbLine
 10
765.999999999981
 20
752.0000000000009
 30
0.0
 11
749.999999999981
 21
752.0000000000009
 31
0.0
  0
LINE
  5
293
330
1F
100
AcDbEntity
  8
Ｓ_１_１
  6
CONTINUOUS
 62
     3
100
AcDbLine
 10
765.9999999999812
 20
852.0000000000007
 30
0.0
 11
765.999999999981
 21
752.0000000000009
 31
0.0
  0
ARC
  5
294
330
1F
100
AcDbEntity
  8
Ｓ_１_１
  6
CONTINUOUS
 62
     3
100
AcDbCircle
 10
709.9999999999811
 20
802.0000000000008
 30
0.0
 40
40.0
100
AcDbArc
 50
90.00000000000001
 51
270.0
  0
CIRCLE
  5
295
330
1F
100
AcDbEntity
  8
Ｓ_１_１
  6
CONTINUOUS
 62
     3
100
AcDbCircle
 10
709.9999999999811
 20
802.0000000000008
 30
0.0
 40
20.0
  0
LINE
  5
296
330
1F
100
AcDbEntity
  8
Ｓ_１_１
  6
EXLTYPE2
 62
     1
100
AcDbLine
 10
776.3999999999812
 20
802.0000000000007
 30
0.0
 11
659.7999999999813
 21
802.0000000000009
 31
0.0
  0
LINE
  5
297
330
1F
100
AcDbEntity
  8
Ｓ_１_１
  6
EXLTYPE2
 62
     1
100
AcDbLine
 10
709.9999999999808
 20
756.8000000000008
 30
0.0
 11
709.999999999981
 21
846.4000000000009
 31
0.0
  0
LINE
  5
298
330
1F
100
AcDbEntity
  8
Ｓ_１_１
  6
CONTINUOUS
 62
     3
100
AcDbLine
 10
738.0717967696801
 20
785.856406460638
 30
0.0
 11
736.9999999999909
 21
784.0000000001482
 31
0.0
  0
LINE
  5
299
330
1F
100
AcDbEntity
  8
Ｓ_１_１
  6
CONTINUOUS
 62
     3
100
AcDbLine
 10
738.0717967696582
 20
785.8564064606007
 30
0.0
 11
746.9999999999909
 21
785.8564064606007
 31
0.0
  0
LINE
  5
29A
330
1F
100
AcDbEntity
  8
Ｓ_１_１
  6
CONTINUOUS
 62
     3
100
AcDbLine
 10
738.07179676968
 20
758.1435935393638
 30
0.0
 11
736.9999999999908
 21
759.9999999998527
 31
0.0
  0
LINE
  5
29B
330
1F
100
AcDbEntity
  8
Ｓ_１_１
  6
CONTINUOUS
 62
     3
100
AcDbLine
 10
738.0717967696581
 20
758.1435935394002
 30
0.0
 11
746.9999999999908
 21
758.1435935394002
 31
0.0
  0
LINE
  5
29C
330
1F
100
AcDbEntity
  8
Ｓ_１_１
  6
CONTINUOUS
 62
     3
100
AcDbLine
 10
736.9999999999909
 20
784.0000000001482
 30
0.0
 11
736.9999999999908
 21
759.9999999998527
 31
0.0
  0
LINE
  5
29D
330
1F
100
AcDbEntity
  8
Ｓ_１_１
  6
CONTINUOUS
 62
     3
100
AcDbLine
 10
738.071796769691
 20
778.9351716606006
 30
0.0
 11
746.9999999999909
 21
778.9351716606006
 31
0.0
  0
LINE
  5
29E
330
1F
100
AcDbEntity
  8
Ｓ_１_１
  6
CONTINUOUS
 62
     3
100
AcDbLine
 10
738.071796769691
 20
765.0648283394003
 30
0.0
 11
746.9999999999909
 21
765.0648283394003
 31
0.0
  0
ARC
  5
29F
330
1F
100
AcDbEntity
  8
Ｓ_１_１
  6
CONTINUOUS
 62
     3
100
AcDbCircle
 10
759.9732705255719
 20
772.0000000000009
 30
0.0
 40
22.97327052558072
100
AcDbArc
 50
162.42944269796
 51
197.57055730204
  0
ARC
  5
2A0
330
1F
100
AcDbEntity
  8
Ｓ_１_１
  6
CONTINUOUS
 62
     3
100
AcDbCircle
 10
754.5203416007662
 20
785.0617592462613
 30
0.0
 40
17.55248422601882
100
AcDbArc
 50
183.4679697737778
 51
200.4288470488326
  0
ARC
  5
2A1
330
1F
100
AcDbEntity
  8
Ｓ_１_１
  6
CONTINUOUS
 62
     3
100
AcDbCircle
 10
754.5203416007661
 20
758.9382407537396
 30
0.0
 40
17.55248422601882
100
AcDbArc
 50
159.5711529511674
 51
176.5320302262222
  0
LINE
  5
2A2
330
1F
100
AcDbEntity
  8
Ｓ_１_１
  6
CONTINUOUS
 62
     3
100
AcDbLine
 10
746.9999999999908
 20
757.0000000000009
 30
0.0
 11
749.9999999999908
 21
757.0000000000009
 31
0.0
  0
LINE
  5
2A3
330
1F
100
AcDbEntity
  8
Ｓ_１_１
  6
CONTINUOUS
 62
     3
100
AcDbLine
 10
746.9999999999909
 20
787.0000000000009
 30
0.0
 11
746.9999999999908
 21
757.0000000000009
 31
0.0
  0
LINE
  5
2A4
330
1F
100
AcDbEntity
  8
Ｓ_１_１
  6
CONTINUOUS
 62
     3
100
AcDbLine
 10
746.9999999999909
 20
787.0000000000009
 30
0.0
 11
749.9999999999909
 21
787.0000000000009
 31
0.0
  0
LINE
  5
2A5
330
1F
100
AcDbEntity
  8
Ｓ_１_１
  6
CONTINUOUS
 62
     3
100
AcDbLine
 10
738.0717967696802
 20
845.856406460638
 30
0.0
 11
736.9999999999909
 21
844.0000000001482
 31
0.0
  0
LINE
  5
2A6
330
1F
100
AcDbEntity
  8
Ｓ_１_１
  6
CONTINUOUS
 62
     3
100
AcDbLine
 10
738.0717967696584
 20
845.8564064606007
 30
0.0
 11
746.999999999991
 21
845.8564064606007
 31
0.0
  0
LINE
  5
2A7
330
1F
100
AcDbEntity
  8
Ｓ_１_１
  6
CONTINUOUS
 62
     3
100
AcDbLine
 10
738.0717967696801
 20
818.1435935393638
 30
0.0
 11
736.9999999999909
 21
819.9999999998527
 31
0.0
  0
LINE
  5
2A8
330
1F
100
AcDbEntity
  8
Ｓ_１_１
  6
CONTINUOUS
 62
     3
100
AcDbLine
 10
738.0717967696582
 20
818.1435935394002
 30
0.0
 11
746.9999999999909
 21
818.1435935394002
 31
0.0
  0
LINE
  5
2A9
330
1F
100
AcDbEntity
  8
Ｓ_１_１
  6
CONTINUOUS
 62
     3
100
AcDbLine
 10
736.9999999999909
 20
844.0000000001482
 30
0.0
 11
736.9999999999909
 21
819.9999999998527
 31
0.0
  0
LINE
  5
2AA
330
1F
100
AcDbEntity
  8
Ｓ_１_１
  6
CONTINUOUS
 62
     3
100
AcDbLine
 10
738.071796769691
 20
838.9351716606006
 30
0.0
 11
746.9999999999909
 21
838.9351716606006
 31
0.0
  0
LINE
  5
2AB
330
1F
100
AcDbEntity
  8
Ｓ_１_１
  6
CONTINUOUS
 62
     3
100
AcDbLine
 10
738.071796769691
 20
825.0648283394003
 30
0.0
 11
746.9999999999909
 21
825.0648283394003
 31
0.0
  0
ARC
  5
2AC
330
1F
100
AcDbEntity
  8
Ｓ_１_１
  6
CONTINUOUS
 62
     3
100
AcDbCircle
 10
759.9732705255719
 20
832.0000000000009
 30
0.0
 40
22.97327052558072
100
AcDbArc
 50
162.42944269796
 51
197.57055730204
  0
ARC
  5
2AD
330
1F
100
AcDbEntity
  8
Ｓ_１_１
  6
CONTINUOUS
 62
     3
100
AcDbCircle
 10
754.5203416007663
 20
845.0617592462613
 30
0.0
 40
17.55248422601882
100
AcDbArc
 50
183.4679697737778
 51
200.4288470488324
  0
ARC
  5
2AE
330
1F
100
AcDbEntity
  8
Ｓ_１_１
  6
CONTINUOUS
 62
     3
100
AcDbCircle
 10
754.5203416007662
 20
818.9382407537396
 30
0.0
 40
17.55248422601882
100
AcDbArc
 50
159.5711529511675
 51
176.5320302262222
  0
LINE
  5
2AF
330
1F
100
AcDbEntity
  8
Ｓ_１_１
  6
CONTINUOUS
 62
     3
100
AcDbLine
 10
746.9999999999909
 20
817.0000000000009
 30
0.0
 11
749.9999999999909
 21
817.0000000000009
 31
0.0
  0
LINE
  5
2B0
330
1F
100
AcDbEntity
  8
Ｓ_１_１
  6
CONTINUOUS
 62
     3
100
AcDbLine
 10
746.999999999991
 20
847.0000000000009
 30
0.0
 11
746.9999999999909
 21
817.0000000000009
 31
0.0
  0
LINE
  5
2B1
330
1F
100
AcDbEntity
  8
Ｓ_１_１
  6
CONTINUOUS
 62
     3
100
AcDbLine
 10
746.999999999991
 20
847.0000000000009
 30
0.0
 11
749.999999999991
 21
847.0000000000009
 31
0.0
  0
LINE
  5
2B2
330
1F
100
AcDbEntity
  8
Ｓ_１_１
  6
EXLTYPE2
 62
     1
100
AcDbLine
 10
789.5999999999913
 20
832.0000000000009
 30
0.0
 11
732.5999999999913
 21
832.0000000000009
 31
0.0
  0
LINE
  5
2B3
330
1F
100
AcDbEntity
  8
Ｓ_１_１
  6
CONTINUOUS
 62
     3
100
AcDbLine
 10
736.9999999999909
 20
842.0000000000007
 30
0.0
 11
709.9999999999809
 21
842.0000000000008
 31
0.0
  0
LINE
  5
2B4
330
1F
100
AcDbEntity
  8
Ｓ_１_１
  6
CONTINUOUS
 62
     3
100
AcDbLine
 10
736.9999999999909
 20
762.0000000000007
 30
0.0
 11
709.9999999999809
 21
762.0000000000008
 31
0.0
  0
LINE
  5
2B5
330
1F
100
AcDbEntity
  8
Ｓ_１_１
  6
EXLTYPE2
 62
     1
100
AcDbLine
 10
789.5999999999913
 20
772.0000000000009
 30
0.0
 11
732.5999999999913
 21
772.0000000000009
 31
0.0
  0
CIRCLE
  5
2B6
330
1F
100
AcDbEntity
  8
Ｓ_１_１
  6
CONTINUOUS
 62
     3
100
AcDbCircle
 10
1100.0
 20
537.0
 30
0.0
 40
10.47778301676999
  0
CIRCLE
  5
2B7
330
1F
100
AcDbEntity
  8
Ｓ_１_１
  6
CONTINUOUS
 62
     3
100
AcDbCircle
 10
1100.0
 20
537.0
 30
0.0
 40
9.895976381020718
  0
CIRCLE
  5
2B8
330
1F
100
AcDbEntity
  8
Ｓ_１_１
  6
CONTINUOUS
 62
     3
100
AcDbCircle
 10
1100.0
 20
537.0
 30
0.0
 40
9.249999999980616
  0
CIRCLE
  5
2B9
330
1F
100
AcDbEntity
  8
Ｓ_１_１
  6
CONTINUOUS
 62
     3
100
AcDbCircle
 10
1100.0
 20
537.0
 30
0.0
 40
3.999999999999716
  0
ELLIPSE
  5
2BA
330
1F
100
AcDbEntity
  8
Ｓ_１_１
  6
CONTINUOUS
 62
     3
100
AcDbEllipse
 10
1159.0403804068
 20
612.0
 30
0.0
 11
6.415791716823933E-16
 21
10.47778301676999
 31
0.0
210
0.0
220
0.0
230
1.0
 40
0.9848077530126936
 41
0.0
 42
6.283185307179586
  0
ELLIPSE
  5
2BB
330
1F
100
AcDbEntity
  8
Ｓ_１_１
  6
CONTINUOUS
 62
     3
100
AcDbEllipse
 10
1158.936189172
 20
612.0
 30
0.0
 11
-1.814516840116114E-15
 21
-9.87776960878
 31
0.0
210
0.0
220
0.0
230
1.0
 40
0.9848077530228434
 41
0.0
 42
6.283185307179586
  0
ELLIPSE
  5
2BC
330
1F
100
AcDbEntity
  8
Ｓ_１_１
  6
CONTINUOUS
 62
     3
100
AcDbEllipse
 10
1155.3669368633
 20
612.0
 30
0.0
 11
-7.347880794773853E-16
 21
-3.999999999939974
 31
0.0
210
0.0
220
0.0
230
1.0
 40
0.9848077530397739
 41
0.0
 42
6.283185307179586
  0
ELLIPSE
  5
2BD
330
1F
100
AcDbEntity
  8
Ｓ_１_１
  6
CONTINUOUS
 62
     3
100
AcDbEllipse
 10
1156.4356577419
 20
612.0
 30
0.0
 11
-1.699197433811439E-15
 21
-9.249999999969987
 31
0.0
210
0.0
220
0.0
230
1.0
 40
0.9848077530302387
 41
-0.118659402420644
 42
3.260252056010438
  0
LINE
  5
2BE
330
1F
100
AcDbEntity
  8
Ｓ_１_１
  6
EXLTYPE2
 62
     1
100
AcDbLine
 10
1159.0403804067
 20
626.99999999998
 30
0.0
 11
1159.0403804067
 21
596.99999999998
 31
0.0
  0
LINE
  5
2BF
330
1F
100
AcDbEntity
  8
Ｓ_１_１
  6
EXLTYPE2
 62
     1
100
AcDbLine
 10
1144.0403804067
 20
611.99999999998
 30
0.0
 11
1174.0403804067
 21
611.99999999998
 31
0.0
  0
LINE
  5
2C0
330
1F
100
AcDbEntity
  8
Ｓ_１_１
  6
EXLTYPE2
 62
     1
100
AcDbLine
 10
1100.0
 20
1140.1
 30
0.0
 11
1100.0
 21
380.4200000000001
 31
0.0
  0
LINE
  5
2C1
330
1F
100
AcDbEntity
  8
Ｓ_１_１
  6
CONTINUOUS
 62
     3
100
AcDbLine
 10
2713.8772533418
 20
542.0000000000293
 30
0.0
 11
2713.8772533418
 21
550.0000000000293
 31
0.0
  0
LINE
  5
2C2
330
1F
100
AcDbEntity
  8
Ｓ_１_１
  6
CONTINUOUS
 62
     3
100
AcDbLine
 10
2725.2224681855
 20
542.0000000000293
 30
0.0
 11
2725.2224681855
 21
550.0000000000293
 31
0.0
  0
LINE
  5
2C3
330
1F
100
AcDbEntity
  8
Ｓ_１_１
  6
CONTINUOUS
 62
     3
100
AcDbLine
 10
2725.799960422799
 20
549.0001928200293
 30
0.0
 11
2725.222689915
 21
550.0000546512294
 31
0.0
  0
LINE
  5
2C4
330
1F
100
AcDbEntity
  8
Ｓ_１_１
  6
CONTINUOUS
 62
     3
100
AcDbLine
 10
2740.79996256
 20
549.0002603329292
 30
0.0
 11
2741.377294103
 21
550.0002278802292
 31
0.0
  0
LINE
  5
2C5
330
1F
100
AcDbEntity
  8
Ｓ_１_１
  6
CONTINUOUS
 62
     3
100
AcDbLine
 10
2713.300195818799
 20
549.0001260883294
 30
0.0
 11
2713.8775273618
 21
550.0000936356294
 31
0.0
  0
LINE
  5
2C6
330
1F
100
AcDbEntity
  8
Ｓ_１_１
  6
CONTINUOUS
 62
     3
100
AcDbLine
 10
2725.2224681855
 20
542.0000000000293
 30
0.0
 11
2713.8772533418
 21
542.0000000000293
 31
0.0
  0
LINE
  5
2C7
330
1F
100
AcDbEntity
  8
Ｓ_１_１
  6
CONTINUOUS
 62
     3
100
AcDbLine
 10
2748.981818073099
 20
538.7501018143291
 30
0.0
 11
2748.7999865581
 21
538.8550822768295
 31
0.0
  0
LINE
  5
2C8
330
1F
100
AcDbEntity
  8
Ｓ_１_１
  6
CONTINUOUS
 62
     3
100
AcDbLine
 10
2748.7998607636
 20
538.7500000000293
 30
0.0
 11
2748.7998607636
 21
553.0000000000293
 31
0.0
  0
LINE
  5
2C9
330
1F
100
AcDbEntity
  8
Ｓ_１_１
  6
CONTINUOUS
 62
     3
100
AcDbLine
 10
2748.2998607636
 20
538.7500000000293
 30
0.0
 11
2748.2998607636
 21
552.5000000000293
 31
0.0
  0
LINE
  5
2CA
330
1F
100
AcDbEntity
  8
Ｓ_１_１
  6
CONTINUOUS
 62
     3
100
AcDbLine
 10
2751.799982833899
 20
538.7500000000293
 30
0.0
 11
2748.2998607636
 21
538.7500000000293
 31
0.0
  0
LINE
  5
2CB
330
1F
100
AcDbEntity
  8
Ｓ_１_１
  6
CONTINUOUS
 62
     3
100
AcDbLine
 10
2745.2998970832
 20
552.0002332319293
 30
0.0
 11
2745.799800507699
 21
552.5001366563295
 31
0.0
  0
LINE
  5
2CC
330
1F
100
AcDbEntity
  8
Ｓ_１_１
  6
CONTINUOUS
 62
     3
100
AcDbLine
 10
2747.299942364799
 20
552.0001469151291
 30
0.0
 11
2746.799823148499
 21
552.5002661315295
 31
0.0
  0
LINE
  5
2CD
330
1F
100
AcDbEntity
  8
Ｓ_１_１
  6
CONTINUOUS
 62
     3
100
AcDbLine
 10
2745.299982833899
 20
550.0000000000293
 30
0.0
 11
2745.299982833899
 21
552.0000000000293
 31
0.0
  0
LINE
  5
2CE
330
1F
100
AcDbEntity
  8
Ｓ_１_１
  6
CONTINUOUS
 62
     3
100
AcDbLine
 10
2747.299982833899
 20
550.0000000000293
 30
0.0
 11
2747.299982833899
 21
552.0000000000293
 31
0.0
  0
LINE
  5
2CF
330
1F
100
AcDbEntity
  8
Ｓ_１_１
  6
CONTINUOUS
 62
     3
100
AcDbLine
 10
2746.799982833899
 20
552.5000000000293
 30
0.0
 11
2745.7998607636
 21
552.5000000000293
 31
0.0
  0
LINE
  5
2D0
330
1F
100
AcDbEntity
  8
Ｓ_１_１
  6
CONTINUOUS
 62
     3
100
AcDbLine
 10
2748.2999363873
 20
552.5003955666291
 30
0.0
 11
2748.7998829702
 21
553.0003421916292
 31
0.0
  0
LINE
  5
2D1
330
1F
100
AcDbEntity
  8
Ｓ_１_１
  6
CONTINUOUS
 62
     3
100
AcDbLine
 10
2755.7998607636
 20
553.0000000000293
 30
0.0
 11
2748.7998607636
 21
553.0000000000293
 31
0.0
  0
LINE
  5
2D2
330
1F
100
AcDbEntity
  8
Ｓ_１_１
  6
CONTINUOUS
 62
     3
100
AcDbLine
 10
2756.299801162
 20
552.5003375709291
 30
0.0
 11
2755.799854579199
 21
553.0002841959292
 31
0.0
  0
LINE
  5
2D3
330
1F
100
AcDbEntity
  8
Ｓ_１_１
  6
CONTINUOUS
 62
     3
100
AcDbLine
 10
2764.3001266806
 20
552.5002236075295
 30
0.0
 11
2764.8000732635
 21
553.0001702325292
 31
0.0
  0
LINE
  5
2D4
330
1F
100
AcDbEntity
  8
Ｓ_１_１
  6
CONTINUOUS
 62
     3
100
AcDbLine
 10
2764.299982833899
 20
552.5000000000293
 30
0.0
 11
2756.2998607636
 21
552.5000000000293
 31
0.0
  0
LINE
  5
2D5
330
1F
100
AcDbEntity
  8
Ｓ_１_１
  6
CONTINUOUS
 62
     3
100
AcDbLine
 10
2775.2998426142
 20
550.0001447920292
 30
0.0
 11
2772.299990483699
 21
552.9999969224293
 31
0.0
  0
LINE
  5
2D6
330
1F
100
AcDbEntity
  8
Ｓ_１_１
  6
CONTINUOUS
 62
     3
100
AcDbLine
 10
2740.7998607636
 20
549.0000000000293
 30
0.0
 11
2725.7998607636
 21
549.0000000000293
 31
0.0
  0
LINE
  5
2D7
330
1F
100
AcDbEntity
  8
Ｓ_１_１
  6
CONTINUOUS
 62
     3
100
AcDbLine
 10
2772.299982833899
 20
553.0000000000293
 30
0.0
 11
2764.799982833899
 21
553.0000000000293
 31
0.0
  0
LINE
  5
2D8
330
1F
100
AcDbEntity
  8
Ｓ_１_１
  6
CONTINUOUS
 62
     3
100
AcDbLine
 10
2725.2224681855
 20
550.0000000000293
 30
0.0
 11
2713.8772533418
 21
550.0000000000293
 31
0.0
  0
LINE
  5
2D9
330
1F
100
AcDbEntity
  8
Ｓ_１_１
  6
CONTINUOUS
 62
     3
100
AcDbLine
 10
2775.7998607636
 20
549.0000000000293
 30
0.0
 11
2775.299982833899
 21
549.0000000000293
 31
0.0
  0
LINE
  5
2DA
330
1F
100
AcDbEntity
  8
Ｓ_１_１
  6
CONTINUOUS
 62
     3
100
AcDbLine
 10
2748.2998607636
 20
550.0000000000293
 30
0.0
 11
2741.3772533418
 21
550.0000000000293
 31
0.0
  0
LINE
  5
2DB
330
1F
100
AcDbEntity
  8
Ｓ_１_１
  6
CONTINUOUS
 62
     3
100
AcDbLine
 10
2696.3624314105
 20
547.5002520359792
 30
0.0
 11
2697.3002337914
 21
549.1245798957796
 31
0.0
  0
ARC
  5
2DC
330
1F
100
AcDbEntity
  8
Ｓ_１_１
  6
CONTINUOUS
 62
     3
100
AcDbCircle
 10
2701.729466419799
 20
546.0932617186797
 30
0.0
 40
5.3672456741
100
AcDbArc
 50
145.6159320528
 51
214.3842198053001
  0
LINE
  5
2DD
330
1F
100
AcDbEntity
  8
Ｓ_１_１
  6
CONTINUOUS
 62
     3
100
AcDbLine
 10
2696.3624009902
 20
545.5298250309195
 30
0.0
 11
2694.794923279071
 21
544.6248413524511
 31
0.0
  0
LINE
  5
2DE
330
1F
100
AcDbEntity
  8
Ｓ_１_１
  6
CONTINUOUS
 62
     3
100
AcDbLine
 10
2706.937568589501
 20
547.5002520359792
 30
0.0
 11
2705.9997662086
 21
549.1245798957796
 31
0.0
  0
ARC
  5
2DF
330
1F
100
AcDbEntity
  8
Ｓ_１_１
  6
CONTINUOUS
 62
     3
100
AcDbCircle
 10
2701.5705335802
 20
546.0932617186797
 30
0.0
 40
5.3672456741
100
AcDbArc
 50
325.6157801947001
 51
34.3840679471999
  0
LINE
  5
2E0
330
1F
100
AcDbEntity
  8
Ｓ_１_１
  6
CONTINUOUS
 62
     3
100
AcDbLine
 10
2706.9375990098
 20
545.5298250309195
 30
0.0
 11
2708.505076720928
 21
544.6248413524511
 31
0.0
  0
LINE
  5
2E1
330
1F
100
AcDbEntity
  8
Ｓ_１_１
  6
CONTINUOUS
 62
     3
100
AcDbLine
 10
2713.2998607636
 20
545.3310043511176
 30
0.0
 11
2706.9375990098
 21
545.529825030924
 31
0.0
  0
LINE
  5
2E2
330
1F
100
AcDbEntity
  8
Ｓ_１_１
  6
CONTINUOUS
 62
     3
100
AcDbLine
 10
2713.2998607636
 20
544.4750043511174
 30
0.0
 11
2706.9375990098
 21
544.6738250309238
 31
0.0
  0
LINE
  5
2E3
330
1F
100
AcDbEntity
  8
Ｓ_１_１
  6
CONTINUOUS
 62
     3
100
AcDbLine
 10
2705.999963449789
 20
549.1245117186797
 30
0.0
 11
2697.3000230605
 21
549.1245117186797
 31
0.0
  0
LINE
  5
2E4
330
1F
100
AcDbEntity
  8
Ｓ_１_１
  6
CONTINUOUS
 62
     3
100
AcDbLine
 10
2705.99987846673
 20
543.0622558593793
 30
0.0
 11
2697.3000230605
 21
543.0622558593793
 31
0.0
  0
LINE
  5
2E5
330
1F
100
AcDbEntity
  8
Ｓ_１_１
  6
CONTINUOUS
 62
     3
100
AcDbLine
 10
2713.8772533418
 20
531.9999999999498
 30
0.0
 11
2713.8772533418
 21
523.9999999999498
 31
0.0
  0
LINE
  5
2E6
330
1F
100
AcDbEntity
  8
Ｓ_１_１
  6
CONTINUOUS
 62
     3
100
AcDbLine
 10
2725.2224681855
 20
531.9999999999498
 30
0.0
 11
2725.2224681855
 21
523.9999999999498
 31
0.0
  0
LINE
  5
2E7
330
1F
100
AcDbEntity
  8
Ｓ_１_１
  6
CONTINUOUS
 62
     3
100
AcDbLine
 10
2725.799960422799
 20
524.9998071799498
 30
0.0
 11
2725.222689915
 21
523.9999453487496
 31
0.0
  0
LINE
  5
2E8
330
1F
100
AcDbEntity
  8
Ｓ_１_１
  6
CONTINUOUS
 62
     3
100
AcDbLine
 10
2740.79996256
 20
524.9997396670499
 30
0.0
 11
2741.377294103
 21
523.9997721197499
 31
0.0
  0
LINE
  5
2E9
330
1F
100
AcDbEntity
  8
Ｓ_１_１
  6
CONTINUOUS
 62
     3
100
AcDbLine
 10
2713.300195818799
 20
524.9998739116497
 30
0.0
 11
2713.8775273618
 21
523.9999063643497
 31
0.0
  0
LINE
  5
2EA
330
1F
100
AcDbEntity
  8
Ｓ_１_１
  6
CONTINUOUS
 62
     3
100
AcDbLine
 10
2725.2224681855
 20
531.9999999999498
 30
0.0
 11
2713.8772533418
 21
531.9999999999498
 31
0.0
  0
LINE
  5
2EB
330
1F
100
AcDbEntity
  8
Ｓ_１_１
  6
CONTINUOUS
 62
     3
100
AcDbLine
 10
2748.981818073099
 20
535.24989818565
 30
0.0
 11
2748.7999865581
 21
535.1449177231495
 31
0.0
  0
LINE
  5
2EC
330
1F
100
AcDbEntity
  8
Ｓ_１_１
  6
CONTINUOUS
 62
     3
100
AcDbLine
 10
2748.7998607636
 20
535.2499999999498
 30
0.0
 11
2748.7998607636
 21
520.9999999999498
 31
0.0
  0
LINE
  5
2ED
330
1F
100
AcDbEntity
  8
Ｓ_１_１
  6
CONTINUOUS
 62
     3
100
AcDbLine
 10
2748.2998607636
 20
535.2499999999498
 30
0.0
 11
2748.2998607636
 21
521.4999999999498
 31
0.0
  0
LINE
  5
2EE
330
1F
100
AcDbEntity
  8
Ｓ_１_１
  6
CONTINUOUS
 62
     3
100
AcDbLine
 10
2751.799982833899
 20
535.2499999999498
 30
0.0
 11
2748.2998607636
 21
535.2499999999498
 31
0.0
  0
LINE
  5
2EF
330
1F
100
AcDbEntity
  8
Ｓ_１_１
  6
CONTINUOUS
 62
     3
100
AcDbLine
 10
2745.2998970832
 20
521.9997667680498
 30
0.0
 11
2745.799800507699
 21
521.4998633436496
 31
0.0
  0
LINE
  5
2F0
330
1F
100
AcDbEntity
  8
Ｓ_１_１
  6
CONTINUOUS
 62
     3
100
AcDbLine
 10
2747.299942364799
 20
521.99985308485
 30
0.0
 11
2746.799823148499
 21
521.4997338684495
 31
0.0
  0
LINE
  5
2F1
330
1F
100
AcDbEntity
  8
Ｓ_１_１
  6
CONTINUOUS
 62
     3
100
AcDbLine
 10
2745.299982833899
 20
523.9999999999498
 30
0.0
 11
2745.299982833899
 21
521.9999999999498
 31
0.0
  0
LINE
  5
2F2
330
1F
100
AcDbEntity
  8
Ｓ_１_１
  6
CONTINUOUS
 62
     3
100
AcDbLine
 10
2747.299982833899
 20
523.9999999999498
 30
0.0
 11
2747.299982833899
 21
521.9999999999498
 31
0.0
  0
LINE
  5
2F3
330
1F
100
AcDbEntity
  8
Ｓ_１_１
  6
CONTINUOUS
 62
     3
100
AcDbLine
 10
2746.799982833899
 20
521.4999999999498
 30
0.0
 11
2745.7998607636
 21
521.4999999999498
 31
0.0
  0
LINE
  5
2F4
330
1F
100
AcDbEntity
  8
Ｓ_１_１
  6
CONTINUOUS
 62
     3
100
AcDbLine
 10
2748.2999363873
 20
521.49960443335
 30
0.0
 11
2748.7998829702
 21
520.9996578083499
 31
0.0
  0
LINE
  5
2F5
330
1F
100
AcDbEntity
  8
Ｓ_１_１
  6
CONTINUOUS
 62
     3
100
AcDbLine
 10
2755.7998607636
 20
520.9999999999498
 30
0.0
 11
2748.7998607636
 21
520.9999999999498
 31
0.0
  0
LINE
  5
2F6
330
1F
100
AcDbEntity
  8
Ｓ_１_１
  6
CONTINUOUS
 62
     3
100
AcDbLine
 10
2756.299801162
 20
521.49966242905
 30
0.0
 11
2755.799854579199
 21
520.9997158040499
 31
0.0
  0
LINE
  5
2F7
330
1F
100
AcDbEntity
  8
Ｓ_１_１
  6
CONTINUOUS
 62
     3
100
AcDbLine
 10
2764.3001266806
 20
521.4997763924496
 30
0.0
 11
2764.8000732635
 21
520.9998297674499
 31
0.0
  0
LINE
  5
2F8
330
1F
100
AcDbEntity
  8
Ｓ_１_１
  6
CONTINUOUS
 62
     3
100
AcDbLine
 10
2764.299982833899
 20
521.4999999999498
 30
0.0
 11
2756.2998607636
 21
521.4999999999498
 31
0.0
  0
LINE
  5
2F9
330
1F
100
AcDbEntity
  8
Ｓ_１_１
  6
CONTINUOUS
 62
     3
100
AcDbLine
 10
2775.2998426142
 20
523.9998552079498
 30
0.0
 11
2772.299990483699
 21
521.0000030775498
 31
0.0
  0
LINE
  5
2FA
330
1F
100
AcDbEntity
  8
Ｓ_１_１
  6
CONTINUOUS
 62
     3
100
AcDbLine
 10
2740.7998607636
 20
524.9999999999498
 30
0.0
 11
2725.7998607636
 21
524.9999999999498
 31
0.0
  0
LINE
  5
2FB
330
1F
100
AcDbEntity
  8
Ｓ_１_１
  6
CONTINUOUS
 62
     3
100
AcDbLine
 10
2772.299982833899
 20
520.9999999999498
 30
0.0
 11
2764.799982833899
 21
520.9999999999498
 31
0.0
  0
LINE
  5
2FC
330
1F
100
AcDbEntity
  8
Ｓ_１_１
  6
CONTINUOUS
 62
     3
100
AcDbLine
 10
2725.2224681855
 20
523.9999999999498
 30
0.0
 11
2713.8772533418
 21
523.9999999999498
 31
0.0
  0
LINE
  5
2FD
330
1F
100
AcDbEntity
  8
Ｓ_１_１
  6
CONTINUOUS
 62
     3
100
AcDbLine
 10
2775.7998607636
 20
524.9999999999498
 30
0.0
 11
2775.299982833899
 21
524.9999999999498
 31
0.0
  0
LINE
  5
2FE
330
1F
100
AcDbEntity
  8
Ｓ_１_１
  6
CONTINUOUS
 62
     3
100
AcDbLine
 10
2748.2998607636
 20
523.9999999999498
 30
0.0
 11
2741.3772533418
 21
523.9999999999498
 31
0.0
  0
LINE
  5
2FF
330
1F
100
AcDbEntity
  8
Ｓ_１_１
  6
CONTINUOUS
 62
     3
100
AcDbLine
 10
2696.3624314105
 20
526.4997479639999
 30
0.0
 11
2697.3002337914
 21
524.8754201041995
 31
0.0
  0
ARC
  5
300
330
1F
100
AcDbEntity
  8
Ｓ_１_１
  6
CONTINUOUS
 62
     3
100
AcDbCircle
 10
2701.729466419799
 20
527.9067382812993
 30
0.0
 40
5.3672456741
100
AcDbArc
 50
145.6157801946996
 51
214.3840679472004
  0
LINE
  5
301
330
1F
100
AcDbEntity
  8
Ｓ_１_１
  6
CONTINUOUS
 62
     3
100
AcDbLine
 10
2696.3624009902
 20
528.4701749690596
 30
0.0
 11
2694.794923279071
 21
529.375158647528
 31
0.0
  0
LINE
  5
302
330
1F
100
AcDbEntity
  8
Ｓ_１_１
  6
CONTINUOUS
 62
     3
100
AcDbLine
 10
2706.937568589501
 20
526.4997479639999
 30
0.0
 11
2705.9997662086
 21
524.8754201041995
 31
0.0
  0
ARC
  5
303
330
1F
100
AcDbEntity
  8
Ｓ_１_１
  6
CONTINUOUS
 62
     3
100
AcDbCircle
 10
2701.5705335802
 20
527.9067382812993
 30
0.0
 40
5.3672456741
100
AcDbArc
 50
325.6159320528
 51
34.3842198053006
  0
LINE
  5
304
330
1F
100
AcDbEntity
  8
Ｓ_１_１
  6
CONTINUOUS
 62
     3
100
AcDbLine
 10
2706.9375990098
 20
528.4701749690596
 30
0.0
 11
2708.505076720928
 21
529.375158647528
 31
0.0
  0
LINE
  5
305
330
1F
100
AcDbEntity
  8
Ｓ_１_１
  6
CONTINUOUS
 62
     3
100
AcDbLine
 10
2713.2998607636
 20
528.6689956488615
 30
0.0
 11
2706.9375990098
 21
528.470174969055
 31
0.0
  0
LINE
  5
306
330
1F
100
AcDbEntity
  8
Ｓ_１_１
  6
CONTINUOUS
 62
     3
100
AcDbLine
 10
2713.2998607636
 20
529.5249956488617
 30
0.0
 11
2706.9375990098
 21
529.3261749690553
 31
0.0
  0
LINE
  5
307
330
1F
100
AcDbEntity
  8
Ｓ_１_１
  6
CONTINUOUS
 62
     3
100
AcDbLine
 10
2705.999963449789
 20
524.8754882812993
 30
0.0
 11
2697.3000230605
 21
524.8754882812993
 31
0.0
  0
LINE
  5
308
330
1F
100
AcDbEntity
  8
Ｓ_１_１
  6
CONTINUOUS
 62
     3
100
AcDbLine
 10
2705.99987846673
 20
530.9377441405998
 30
0.0
 11
2697.3000230605
 21
530.9377441405998
 31
0.0
  0
LINE
  5
309
330
1F
100
AcDbEntity
  8
Ｓ_１_１
  6
CONTINUOUS
 62
     3
100
AcDbLine
 10
2775.7998607636
 20
524.9999999999502
 30
0.0
 11
2775.7998607636
 21
549.0000000000293
 31
0.0
  0
LINE
  5
30A
330
1F
100
AcDbEntity
  8
Ｓ_１_１
  6
CONTINUOUS
 62
     3
100
AcDbLine
 10
2775.299982833899
 20
523.9999954276493
 30
0.0
 11
2775.299982833899
 21
550.0000000000293
 31
0.0
  0
LINE
  5
30B
330
1F
100
AcDbEntity
  8
Ｓ_１_１
  6
CONTINUOUS
 62
     3
100
AcDbLine
 10
2772.299982833899
 20
520.9999999999498
 30
0.0
 11
2772.299982833899
 21
553.0000000000293
 31
0.0
  0
LINE
  5
30C
330
1F
100
AcDbEntity
  8
Ｓ_１_１
  6
CONTINUOUS
 62
     3
100
AcDbLine
 10
2764.799982833899
 20
520.9999999999498
 30
0.0
 11
2764.799982833899
 21
553.0000000000293
 31
0.0
  0
LINE
  5
30D
330
1F
100
AcDbEntity
  8
Ｓ_１_１
  6
CONTINUOUS
 62
     3
100
AcDbLine
 10
2764.299982833899
 20
521.4999999999498
 30
0.0
 11
2764.299982833899
 21
552.5000000000293
 31
0.0
  0
LINE
  5
30E
330
1F
100
AcDbEntity
  8
Ｓ_１_１
  6
CONTINUOUS
 62
     3
100
AcDbLine
 10
2756.2998607636
 20
521.4999999999498
 30
0.0
 11
2756.2998607636
 21
552.5000000000293
 31
0.0
  0
LINE
  5
30F
330
1F
100
AcDbEntity
  8
Ｓ_１_１
  6
CONTINUOUS
 62
     3
100
AcDbLine
 10
2755.7998607636
 20
553.0000000000293
 30
0.0
 11
2755.7998607636
 21
520.9999999999498
 31
0.0
  0
LINE
  5
310
330
1F
100
AcDbEntity
  8
Ｓ_１_１
  6
CONTINUOUS
 62
     3
100
AcDbLine
 10
2751.799982833899
 20
535.2499999999498
 30
0.0
 11
2751.799982833899
 21
538.7500000000293
 31
0.0
  0
LINE
  5
311
330
1F
100
AcDbEntity
  8
Ｓ_１_１
  6
CONTINUOUS
 62
     3
100
AcDbLine
 10
2740.7998607636
 20
524.9999999999498
 30
0.0
 11
2740.7998607636
 21
549.0000000000293
 31
0.0
  0
LINE
  5
312
330
1F
100
AcDbEntity
  8
Ｓ_１_１
  6
CONTINUOUS
 62
     3
100
AcDbLine
 10
2741.3772533418
 20
523.9999999999498
 30
0.0
 11
2741.3772533418
 21
550.0000000000293
 31
0.0
  0
LINE
  5
313
330
1F
100
AcDbEntity
  8
Ｓ_１_１
  6
CONTINUOUS
 62
     3
100
AcDbLine
 10
2725.7998607636
 20
524.9999999999498
 30
0.0
 11
2725.7998607636
 21
549.0000000000293
 31
0.0
  0
ARC
  5
314
330
1F
100
AcDbEntity
  8
Ｓ_１_１
  6
CONTINUOUS
 62
     3
100
AcDbCircle
 10
2703.860529708899
 20
537.0000000000293
 30
0.0
 40
21.93943595890001
100
AcDbArc
 50
346.8265257460665
 51
13.17347425371949
  0
ARC
  5
315
330
1F
100
AcDbEntity
  8
Ｓ_１_１
  6
CONTINUOUS
 62
     3
100
AcDbCircle
 10
2735.239435958899
 20
537.0000000000293
 30
0.0
 40
21.93943595890001
100
AcDbArc
 50
166.8265346900002
 51
193.1734742539336
  0
LINE
  5
316
330
1F
100
AcDbEntity
  8
Ｓ_１_１
  6
CONTINUOUS
 62
     3
100
AcDbLine
 10
2713.2998607636
 20
524.9998739116502
 30
0.0
 11
2713.2998607636
 21
549.0000000000293
 31
0.0
  0
LINE
  5
317
330
1F
100
AcDbEntity
  8
Ｓ_１_１
  6
CONTINUOUS
 62
     3
100
AcDbLine
 10
2708.50507672093
 20
529.375158647528
 30
0.0
 11
2708.50507672093
 21
544.6248413524506
 31
0.0
  0
LINE
  5
318
330
1F
100
AcDbEntity
  8
Ｓ_１_１
  6
CONTINUOUS
 62
     3
100
AcDbLine
 10
2706.9375990098
 20
526.4998006537146
 30
0.0
 11
2706.9375990098
 21
547.4999999999798
 31
0.0
  0
ARC
  5
319
330
1F
100
AcDbEntity
  8
Ｓ_１_１
  6
CONTINUOUS
 62
     3
100
AcDbCircle
 10
2686.8754652208
 20
536.9999999999798
 30
0.0
 40
20.0621948242
100
AcDbArc
 50
342.4118278305568
 51
17.58788487250017
  0
ARC
  5
31A
330
1F
100
AcDbEntity
  8
Ｓ_１_１
  6
CONTINUOUS
 62
     3
100
AcDbCircle
 10
2716.4245347792
 20
536.9999999999798
 30
0.0
 40
20.0621948242
100
AcDbArc
 50
162.4121151274999
 51
197.5881721694434
  0
LINE
  5
31B
330
1F
100
AcDbEntity
  8
Ｓ_１_１
  6
CONTINUOUS
 62
     3
100
AcDbLine
 10
2696.3624009902
 20
526.4997479639999
 30
0.0
 11
2696.3624009902
 21
547.4999999999798
 31
0.0
  0
LINE
  5
31C
330
1F
100
AcDbEntity
  8
Ｓ_１_１
  6
CONTINUOUS
 62
     3
100
AcDbLine
 10
2694.79492327907
 20
529.375158647528
 30
0.0
 11
2694.79492327907
 21
544.6248413524506
 31
0.0
  0
LINE
  5
31D
330
1F
100
AcDbEntity
  8
Ｓ_１_１
  6
CONTINUOUS
 62
     3
100
AcDbLine
 10
2689.999999999991
 20
545.3309999999797
 30
0.0
 11
2696.3624009902
 21
545.529825030924
 31
0.0
  0
LINE
  5
31E
330
1F
100
AcDbEntity
  8
Ｓ_１_１
  6
CONTINUOUS
 62
     3
100
AcDbLine
 10
2689.999999999991
 20
544.4749999999799
 30
0.0
 11
2696.3624009902
 21
544.6738250309238
 31
0.0
  0
LINE
  5
31F
330
1F
100
AcDbEntity
  8
Ｓ_１_１
  6
CONTINUOUS
 62
     3
100
AcDbLine
 10
2689.999999999991
 20
529.5249999999992
 30
0.0
 11
2696.3624009902
 21
529.3261749690553
 31
0.0
  0
LINE
  5
320
330
1F
100
AcDbEntity
  8
Ｓ_１_１
  6
CONTINUOUS
 62
     3
100
AcDbLine
 10
2689.999999999991
 20
528.6689999999994
 30
0.0
 11
2696.3624009902
 21
528.470174969055
 31
0.0
  0
LINE
  5
321
330
1F
100
AcDbEntity
  8
Ｓ_１_１
  6
CONTINUOUS
 62
     3
100
AcDbLine
 10
2731.649997303973
 20
599.500001443166
 30
0.0
 11
2732.649998365573
 21
600.5000025890656
 31
0.0
  0
LINE
  5
322
330
1F
100
AcDbEntity
  8
Ｓ_１_１
  6
CONTINUOUS
 62
     3
100
AcDbLine
 10
2700.650000000073
 20
624.4999999999654
 30
0.0
 11
2700.650000000073
 21
599.4999999999654
 31
0.0
  0
LINE
  5
323
330
1F
100
AcDbEntity
  8
Ｓ_１_１
  6
CONTINUOUS
 62
     3
100
AcDbLine
 10
2699.650000633073
 20
623.5000025182658
 30
0.0
 11
2700.649999081573
 21
624.5000008824659
 31
0.0
  0
LINE
  5
324
330
1F
100
AcDbEntity
  8
Ｓ_１_１
  6
CONTINUOUS
 62
     3
100
AcDbLine
 10
2699.650000000072
 20
611.9999999999659
 30
0.0
 11
2699.650000000073
 21
600.4999999999654
 31
0.0
  0
LINE
  5
325
330
1F
100
AcDbEntity
  8
Ｓ_１_１
  6
CONTINUOUS
 62
     3
100
AcDbLine
 10
2699.650000000073
 20
623.4999999999659
 30
0.0
 11
2699.650000000072
 21
611.9999999999659
 31
0.0
  0
LINE
  5
326
330
1F
100
AcDbEntity
  8
Ｓ_１_１
  6
CONTINUOUS
 62
     3
100
AcDbLine
 10
2731.649998231173
 20
624.5000022733661
 30
0.0
 11
2732.649999292773
 21
623.500001127466
 31
0.0
  0
LINE
  5
327
330
1F
100
AcDbEntity
  8
Ｓ_１_１
  6
CONTINUOUS
 62
     3
100
AcDbLine
 10
2731.650000000073
 20
624.4999999999654
 30
0.0
 11
2731.650000000073
 21
599.4999999999659
 31
0.0
  0
LINE
  5
328
330
1F
100
AcDbEntity
  8
Ｓ_１_１
  6
CONTINUOUS
 62
     3
100
AcDbLine
 10
2699.649999705773
 20
600.500001198166
 30
0.0
 11
2700.650000851673
 21
599.5000001365659
 31
0.0
  0
LINE
  5
329
330
1F
100
AcDbEntity
  8
Ｓ_１_１
  6
CONTINUOUS
 62
     3
100
AcDbLine
 10
2732.650000000073
 20
623.4999999999654
 30
0.0
 11
2732.650000000072
 21
611.9999999999657
 31
0.0
  0
LINE
  5
32A
330
1F
100
AcDbEntity
  8
Ｓ_１_１
  6
CONTINUOUS
 62
     3
100
AcDbLine
 10
2732.650000000072
 20
611.9999999999657
 30
0.0
 11
2732.650000000073
 21
600.4999999999657
 31
0.0
  0
LINE
  5
32B
330
1F
100
AcDbEntity
  8
Ｓ_１_１
  6
CONTINUOUS
 62
     3
100
AcDbLine
 10
2789.300122070373
 20
610.406091207456
 30
0.0
 11
2789.300122070373
 21
613.4060912074558
 31
0.0
  0
LINE
  5
32C
330
1F
100
AcDbEntity
  8
Ｓ_１_１
  6
CONTINUOUS
 62
     3
100
AcDbLine
 10
2786.300122070373
 20
617.4063353480553
 30
0.0
 11
2777.300000000072
 21
617.4063353480556
 31
0.0
  0
LINE
  5
32D
330
1F
100
AcDbEntity
  8
Ｓ_１_１
  6
CONTINUOUS
 62
     3
100
AcDbLine
 10
2777.300236458872
 20
617.4058775044552
 30
0.0
 11
2773.800265112073
 21
620.9058491462558
 31
0.0
  0
LINE
  5
32E
330
1F
100
AcDbEntity
  8
Ｓ_１_１
  6
CONTINUOUS
 62
     3
100
AcDbLine
 10
2773.800145117374
 20
602.9061024344558
 30
0.0
 11
2777.300030147373
 21
606.4059877595555
 31
0.0
  0
LINE
  5
32F
330
1F
100
AcDbEntity
  8
Ｓ_１_１
  6
CONTINUOUS
 62
     3
100
AcDbLine
 10
2757.800084432773
 20
600.1560284767559
 30
0.0
 11
2758.300123064673
 21
600.6560556861564
 31
0.0
  0
LINE
  5
330
330
1F
100
AcDbEntity
  8
Ｓ_１_１
  6
CONTINUOUS
 62
     3
100
AcDbLine
 10
2758.300191967773
 20
623.1558360243557
 30
0.0
 11
2757.800245384973
 21
623.655782607156
 31
0.0
  0
LINE
  5
331
330
1F
100
AcDbEntity
  8
Ｓ_１_１
  6
CONTINUOUS
 62
     3
100
AcDbLine
 10
2770.300000000072
 20
619.4060912074558
 30
0.0
 11
2768.800122070373
 21
619.406091207456
 31
0.0
  0
LINE
  5
332
330
1F
100
AcDbEntity
  8
Ｓ_１_１
  6
CONTINUOUS
 62
     3
100
AcDbLine
 10
2770.300000000073
 20
604.4060912074558
 30
0.0
 11
2768.800122070373
 21
604.4060912074558
 31
0.0
  0
LINE
  5
333
330
1F
100
AcDbEntity
  8
Ｓ_１_１
  6
CONTINUOUS
 62
     3
100
AcDbLine
 10
2767.300000000072
 20
602.906091207456
 30
0.0
 11
2767.300000000072
 21
620.9060912074556
 31
0.0
  0
LINE
  5
334
330
1F
100
AcDbEntity
  8
Ｓ_１_１
  6
CONTINUOUS
 62
     3
100
AcDbLine
 10
2757.800000000072
 20
600.156091207456
 30
0.0
 11
2757.800000000073
 21
623.6563353480551
 31
0.0
  0
LINE
  5
335
330
1F
100
AcDbEntity
  8
Ｓ_１_１
  6
CONTINUOUS
 62
     3
100
AcDbLine
 10
2768.800022159173
 20
619.4059232285556
 30
0.0
 11
2767.300009777173
 21
620.9059357370563
 31
0.0
  0
LINE
  5
336
330
1F
100
AcDbEntity
  8
Ｓ_１_１
  6
CONTINUOUS
 62
     3
100
AcDbLine
 10
2767.300148732673
 20
602.9061021605562
 30
0.0
 11
2768.800161114673
 21
604.4061146689558
 31
0.0
  0
LINE
  5
337
330
1F
100
AcDbEntity
  8
Ｓ_１_１
  6
CONTINUOUS
 62
     3
100
AcDbLine
 10
2771.800122070373
 20
602.906091207456
 30
0.0
 11
2771.800122070373
 21
620.906091207456
 31
0.0
  0
LINE
  5
338
330
1F
100
AcDbEntity
  8
Ｓ_１_１
  6
CONTINUOUS
 62
     3
100
AcDbLine
 10
2770.300172927572
 20
619.4060665506559
 30
0.0
 11
2771.800185309573
 21
620.9060790590561
 31
0.0
  0
LINE
  5
339
330
1F
100
AcDbEntity
  8
Ｓ_１_１
  6
CONTINUOUS
 62
     3
100
AcDbLine
 10
2771.800132670873
 20
602.9060451552552
 30
0.0
 11
2770.300120288873
 21
604.4060576636562
 31
0.0
  0
LINE
  5
33A
330
1F
100
AcDbEntity
  8
Ｓ_１_１
  6
CONTINUOUS
 62
     3
100
AcDbLine
 10
2767.300000000072
 20
602.906091207456
 30
0.0
 11
2758.300122070373
 21
602.906091207456
 31
0.0
  0
LINE
  5
33B
330
1F
100
AcDbEntity
  8
Ｓ_１_１
  6
CONTINUOUS
 62
     3
100
AcDbLine
 10
2767.300000000072
 20
620.9060912074556
 30
0.0
 11
2758.300122070373
 21
620.9060912074558
 31
0.0
  0
LINE
  5
33C
330
1F
100
AcDbEntity
  8
Ｓ_１_１
  6
CONTINUOUS
 62
     3
100
AcDbLine
 10
2773.800122070373
 20
602.906091207456
 30
0.0
 11
2773.800122070373
 21
620.9060912074556
 31
0.0
  0
LINE
  5
33D
330
1F
100
AcDbEntity
  8
Ｓ_１_１
  6
CONTINUOUS
 62
     3
100
AcDbLine
 10
2770.300000000073
 20
604.4060912074558
 30
0.0
 11
2770.300000000072
 21
619.4060912074558
 31
0.0
  0
LINE
  5
33E
330
1F
100
AcDbEntity
  8
Ｓ_１_１
  6
CONTINUOUS
 62
     3
100
AcDbLine
 10
2768.800122070373
 20
604.4060912074558
 30
0.0
 11
2768.800122070373
 21
619.406091207456
 31
0.0
  0
LINE
  5
33F
330
1F
100
AcDbEntity
  8
Ｓ_１_１
  6
CONTINUOUS
 62
     3
100
AcDbLine
 10
2787.300114857973
 20
608.4059444462557
 30
0.0
 11
2789.300160139474
 21
610.4059897277559
 31
0.0
  0
LINE
  5
340
330
1F
100
AcDbEntity
  8
Ｓ_１_１
  6
CONTINUOUS
 62
     3
100
AcDbLine
 10
2789.300332772973
 20
613.4058418582554
 30
0.0
 11
2787.300373808173
 21
615.4058008230563
 31
0.0
  0
LINE
  5
341
330
1F
100
AcDbEntity
  8
Ｓ_１_１
  6
CONTINUOUS
 62
     3
100
AcDbLine
 10
2787.300000000072
 20
607.4063353480553
 30
0.0
 11
2787.300000000073
 21
616.406091207456
 31
0.0
  0
LINE
  5
342
330
1F
100
AcDbEntity
  8
Ｓ_１_１
  6
CONTINUOUS
 62
     3
100
AcDbLine
 10
2749.300122070373
 20
599.9063353480551
 30
0.0
 11
2749.300122070373
 21
623.9060912074556
 31
0.0
  0
LINE
  5
343
330
1F
100
AcDbEntity
  8
Ｓ_１_１
  6
CONTINUOUS
 62
     3
100
AcDbLine
 10
2748.228344726673
 20
598.0496458949558
 30
0.0
 11
2743.371777343873
 21
598.049645894956
 31
0.0
  0
LINE
  5
344
330
1F
100
AcDbEntity
  8
Ｓ_１_１
  6
CONTINUOUS
 62
     3
100
AcDbLine
 10
2748.228344726673
 20
604.9781126918565
 30
0.0
 11
2743.371899414173
 21
604.978112691856
 31
0.0
  0
LINE
  5
345
330
1F
100
AcDbEntity
  8
Ｓ_１_１
  6
CONTINUOUS
 62
     3
100
AcDbLine
 10
2748.228344726673
 20
618.8345580043563
 30
0.0
 11
2743.371899414173
 21
618.834558004356
 31
0.0
  0
LINE
  5
346
330
1F
100
AcDbEntity
  8
Ｓ_１_１
  6
CONTINUOUS
 62
     3
100
AcDbLine
 10
2748.228344726673
 20
625.7625365199558
 30
0.0
 11
2743.371899414173
 21
625.762536519956
 31
0.0
  0
LINE
  5
347
330
1F
100
AcDbEntity
  8
Ｓ_１_１
  6
CONTINUOUS
 62
     3
100
AcDbLine
 10
2748.228385749573
 20
598.0496058837557
 30
0.0
 11
2749.300163093373
 21
599.9059786642556
 31
0.0
  0
LINE
  5
348
330
1F
100
AcDbEntity
  8
Ｓ_１_１
  6
CONTINUOUS
 62
     3
100
AcDbLine
 10
2742.300124934574
 20
623.9060678821563
 30
0.0
 11
2743.371902278373
 21
625.762440662656
 31
0.0
  0
LINE
  5
349
330
1F
100
AcDbEntity
  8
Ｓ_１_１
  6
CONTINUOUS
 62
     3
100
AcDbLine
 10
2749.300043082873
 20
623.9059805506558
 30
0.0
 11
2748.228265739173
 21
625.7623533311555
 31
0.0
  0
LINE
  5
34A
330
1F
100
AcDbEntity
  8
Ｓ_１_１
  6
CONTINUOUS
 62
     3
100
AcDbLine
 10
2743.371887983873
 20
598.0495795874554
 30
0.0
 11
2742.300110640173
 21
599.9059523678566
 31
0.0
  0
LINE
  5
34B
330
1F
100
AcDbEntity
  8
Ｓ_１_１
  6
CONTINUOUS
 62
     3
100
AcDbLine
 10
2757.800000000072
 20
600.156091207456
 30
0.0
 11
2749.300122070374
 21
600.156091207456
 31
0.0
  0
LINE
  5
34C
330
1F
100
AcDbEntity
  8
Ｓ_１_１
  6
CONTINUOUS
 62
     3
100
AcDbLine
 10
2757.800000000073
 20
623.6563353480551
 30
0.0
 11
2749.300122070373
 21
623.6563353480553
 31
0.0
  0
LINE
  5
34D
330
1F
100
AcDbEntity
  8
Ｓ_１_１
  6
CONTINUOUS
 62
     3
100
AcDbLine
 10
2758.300122070373
 20
600.656091207456
 30
0.0
 11
2758.300122070373
 21
623.1560912074556
 31
0.0
  0
LINE
  5
34E
330
1F
100
AcDbEntity
  8
Ｓ_１_１
  6
CONTINUOUS
 62
     3
100
AcDbLine
 10
2773.800122070373
 20
620.9060912074556
 30
0.0
 11
2771.800122070373
 21
620.906091207456
 31
0.0
  0
LINE
  5
34F
330
1F
100
AcDbEntity
  8
Ｓ_１_１
  6
CONTINUOUS
 62
     3
100
AcDbLine
 10
2773.800122070373
 20
602.906091207456
 30
0.0
 11
2771.800122070373
 21
602.906091207456
 31
0.0
  0
LINE
  5
350
330
1F
100
AcDbEntity
  8
Ｓ_１_１
  6
CONTINUOUS
 62
     3
100
AcDbLine
 10
2777.300000000072
 20
606.4060912074558
 30
0.0
 11
2777.300000000072
 21
617.4063353480556
 31
0.0
  0
LINE
  5
351
330
1F
100
AcDbEntity
  8
Ｓ_１_１
  6
CONTINUOUS
 62
     3
100
AcDbLine
 10
2786.300122070373
 20
606.4060912074556
 30
0.0
 11
2777.300000000072
 21
606.4060912074558
 31
0.0
  0
LINE
  5
352
330
1F
100
AcDbEntity
  8
Ｓ_１_１
  6
CONTINUOUS
 62
     3
100
AcDbLine
 10
2742.300000000072
 20
599.9063353480556
 30
0.0
 11
2742.300000000073
 21
623.906091207456
 31
0.0
  0
ARC
  5
353
330
1F
100
AcDbEntity
  8
Ｓ_１_１
  6
CONTINUOUS
 62
     3
100
AcDbCircle
 10
2786.300122070373
 20
616.4060912074558
 30
0.0
 40
1.0
100
AcDbArc
 50
0.000024816300048
 51
90.00000250450007
  0
ARC
  5
354
330
1F
100
AcDbEntity
  8
Ｓ_１_１
  6
CONTINUOUS
 62
     3
100
AcDbCircle
 10
2748.434033203273
 20
622.2984251918563
 30
0.0
 40
6.1339254379
100
AcDbArc
 50
145.6154266188001
 51
214.3845886355004
  0
ARC
  5
355
330
1F
100
AcDbEntity
  8
Ｓ_１_１
  6
CONTINUOUS
 62
     3
100
AcDbCircle
 10
2765.227978515773
 20
611.9060912074558
 30
0.0
 40
22.92794227600001
100
AcDbArc
 50
162.4118829011001
 51
197.5881767494002
  0
ARC
  5
356
330
1F
100
AcDbEntity
  8
Ｓ_１_１
  6
CONTINUOUS
 62
     3
100
AcDbCircle
 10
2743.166088867273
 20
601.5140013637558
 30
0.0
 40
6.1339254379
100
AcDbArc
 50
325.6154796664003
 51
34.38463143780024
  0
ARC
  5
357
330
1F
100
AcDbEntity
  8
Ｓ_１_１
  6
CONTINUOUS
 62
     3
100
AcDbCircle
 10
2786.300122070373
 20
607.4063353480551
 30
0.0
 40
1.0
100
AcDbArc
 50
270.0000223118001
 51
0.000024816300048
  0
ARC
  5
358
330
1F
100
AcDbEntity
  8
Ｓ_１_１
  6
CONTINUOUS
 62
     3
100
AcDbCircle
 10
2748.434033203273
 20
601.514001363756
 30
0.0
 40
6.1339254379
100
AcDbArc
 50
145.6154402791003
 51
214.3846022959003
  0
ARC
  5
359
330
1F
100
AcDbEntity
  8
Ｓ_１_１
  6
CONTINUOUS
 62
     3
100
AcDbCircle
 10
2726.372143554773
 20
611.9060912074558
 30
0.0
 40
22.9279384613
100
AcDbArc
 50
342.4118369110004
 51
17.58814441970003
  0
ARC
  5
35A
330
1F
100
AcDbEntity
  8
Ｓ_１_１
  6
CONTINUOUS
 62
     3
100
AcDbCircle
 10
2743.166088867273
 20
622.298425191856
 30
0.0
 40
6.1339254379
100
AcDbArc
 50
325.6154113645003
 51
34.38456313600018
  0
LINE
  5
35B
330
1F
100
AcDbEntity
  8
Ｓ_１_１
  6
CONTINUOUS
 62
     3
100
AcDbLine
 10
2695.650000000072
 20
619.6515624999661
 30
0.0
 11
2697.21747771121
 21
620.5565461784395
 31
0.0
  0
LINE
  5
35C
330
1F
100
AcDbEntity
  8
Ｓ_１_１
  6
CONTINUOUS
 62
     3
100
AcDbLine
 10
2697.217477711213
 20
620.5565461784363
 30
0.0
 11
2697.217477711213
 21
603.4434538214944
 31
0.0
  0
LINE
  5
35D
330
1F
100
AcDbEntity
  8
Ｓ_１_１
  6
CONTINUOUS
 62
     3
100
AcDbLine
 10
2697.217477711213
 20
603.4434538214957
 30
0.0
 11
2695.650000000073
 21
604.3484374999662
 31
0.0
  0
LINE
  5
35E
330
1F
100
AcDbEntity
  8
Ｓ_１_１
  6
CONTINUOUS
 62
     3
100
AcDbLine
 10
2695.650000000073
 20
619.6515624999663
 30
0.0
 11
2695.650000000073
 21
604.3484374999675
 31
0.0
  0
LINE
  5
35F
330
1F
100
AcDbEntity
  8
Ｓ_１_１
  6
CONTINUOUS
 62
     3
100
AcDbLine
 10
2736.650000000073
 20
619.6515624999658
 30
0.0
 11
2735.082522288937
 21
620.5565461784392
 31
0.0
  0
LINE
  5
360
330
1F
100
AcDbEntity
  8
Ｓ_１_１
  6
CONTINUOUS
 62
     3
100
AcDbLine
 10
2735.082522288933
 20
620.5565461784361
 30
0.0
 11
2735.082522288933
 21
603.4434538214944
 31
0.0
  0
LINE
  5
361
330
1F
100
AcDbEntity
  8
Ｓ_１_１
  6
CONTINUOUS
 62
     3
100
AcDbLine
 10
2735.082522288933
 20
603.4434538214957
 30
0.0
 11
2736.650000000073
 21
604.3484374999662
 31
0.0
  0
LINE
  5
362
330
1F
100
AcDbEntity
  8
Ｓ_１_１
  6
CONTINUOUS
 62
     3
100
AcDbLine
 10
2736.650000000073
 20
619.6515624999665
 30
0.0
 11
2736.650000000073
 21
604.3484374999673
 31
0.0
  0
LINE
  5
363
330
1F
100
AcDbEntity
  8
Ｓ_１_１
  6
CONTINUOUS
 62
     3
100
AcDbLine
 10
2742.300000000072
 20
620.3309999999663
 30
0.0
 11
2732.650000000073
 21
620.6325624999668
 31
0.0
  0
LINE
  5
364
330
1F
100
AcDbEntity
  8
Ｓ_１_１
  6
CONTINUOUS
 62
     3
100
AcDbLine
 10
2742.300000000073
 20
619.4749999999663
 30
0.0
 11
2736.650000000073
 21
619.6515624999665
 31
0.0
  0
LINE
  5
365
330
1F
100
AcDbEntity
  8
Ｓ_１_１
  6
CONTINUOUS
 62
     3
100
AcDbLine
 10
2742.300000000073
 20
604.5249999999669
 30
0.0
 11
2736.650000000073
 21
604.3484374999673
 31
0.0
  0
LINE
  5
366
330
1F
100
AcDbEntity
  8
Ｓ_１_１
  6
CONTINUOUS
 62
     3
100
AcDbLine
 10
2742.300000000073
 20
603.6689999999676
 30
0.0
 11
2732.650000000073
 21
603.3674374999673
 31
0.0
  0
LINE
  5
367
330
1F
100
AcDbEntity
  8
Ｓ_１_１
  6
EXLTYPE2
 62
     1
100
AcDbLine
 10
2789.300122070373
 20
612.0049769596162
 30
0.0
 11
2789.300122070374
 21
611.9060912074556
 31
0.0
  0
LINE
  5
368
330
1F
100
AcDbEntity
  8
Ｓ_１_１
  6
EXLTYPE2
 62
     1
100
AcDbLine
 10
2789.300122070373
 20
612.103862711776
 30
0.0
 11
2789.300122070374
 21
611.9060912074556
 31
0.0
  0
LINE
  5
369
330
1F
100
AcDbEntity
  8
Ｓ_１_１
  6
EXLTYPE2
 62
     1
100
AcDbLine
 10
2787.300000000073
 20
611.7038627117756
 30
0.0
 11
2787.300000000073
 21
611.9062132777558
 31
0.0
  0
LINE
  5
36A
330
1F
100
AcDbEntity
  8
Ｓ_１_１
  6
EXLTYPE2
 62
     1
100
AcDbLine
 10
2781.44
 20
536.99999771384
 30
0.0
 11
2663.6150365781
 21
536.99999771384
 31
0.0
  0
LINE
  5
36B
330
1F
100
AcDbEntity
  8
Ｓ_１_１
  6
CONTINUOUS
 62
     3
100
AcDbLine
 10
2689.999999999991
 20
619.474999999964
 30
0.0
 11
2695.650000000073
 21
619.6515624999663
 31
0.0
  0
LINE
  5
36C
330
1F
100
AcDbEntity
  8
Ｓ_１_１
  6
CONTINUOUS
 62
     3
100
AcDbLine
 10
2689.999999999991
 20
620.3309999999638
 30
0.0
 11
2699.650000000073
 21
620.6325624999665
 31
0.0
  0
LINE
  5
36D
330
1F
100
AcDbEntity
  8
Ｓ_１_１
  6
CONTINUOUS
 62
     3
100
AcDbLine
 10
2689.999999999991
 20
604.5249999999696
 30
0.0
 11
2695.650000000073
 21
604.3484374999675
 31
0.0
  0
LINE
  5
36E
330
1F
100
AcDbEntity
  8
Ｓ_１_１
  6
CONTINUOUS
 62
     3
100
AcDbLine
 10
2689.999999999991
 20
603.6689999999699
 30
0.0
 11
2699.650000000073
 21
603.3674374999675
 31
0.0
  0
LINE
  5
36F
330
1F
100
AcDbEntity
  8
Ｓ_１_１
  6
EXLTYPE2
 62
     1
100
AcDbLine
 10
2795.92
 20
611.9999999999852
 30
0.0
 11
2663.61503657809
 21
611.9999999999836
 31
0.0
  0
LINE
  5
370
330
1F
100
AcDbEntity
  8
Ｓ_１_１
  6
EXLTYPE0
 62
     2
100
AcDbLine
 10
2426.29999999999
 20
472.7
 30
0.0
 11
2426.29999999999
 21
427.5
 31
0.0
  0
ARC
  5
371
330
1F
100
AcDbEntity
  8
Ｓ_１_１
  6
EXLTYPE0
 62
     2
100
AcDbCircle
 10
2452.29999999998
 20
472.7
 30
0.0
 40
26.0
100
AcDbArc
 50
90.00000000000001
 51
180.0
  0
ARC
  5
372
330
1F
100
AcDbEntity
  8
Ｓ_１_１
  6
EXLTYPE0
 62
     2
100
AcDbCircle
 10
2457.69999999998
 20
467.3000000000009
 30
0.0
 40
14.0
100
AcDbArc
 50
90.00000000000001
 51
180.0
  0
LINE
  5
373
330
1F
100
AcDbEntity
  8
Ｓ_１_１
  6
EXLTYPE0
 62
     2
100
AcDbLine
 10
2443.69999999999
 20
427.5
 30
0.0
 11
2443.69999999999
 21
467.2999999999997
 31
0.0
  0
LINE
  5
374
330
1F
100
AcDbEntity
  8
Ｓ_１_１
  6
EXLTYPE0
 62
     2
100
AcDbLine
 10
2457.69999999998
 20
481.3000000000006
 30
0.0
 11
2602.3
 21
481.3
 31
0.0
  0
LINE
  5
375
330
1F
100
AcDbEntity
  8
Ｓ_１_１
  6
EXLTYPE0
 62
     2
100
AcDbLine
 10
2607.7
 20
498.6999999999998
 30
0.0
 11
2452.29999999998
 21
498.6999999999998
 31
0.0
  0
ARC
  5
376
330
1F
100
AcDbEntity
  8
Ｓ_１_１
  6
EXLTYPE0
 62
     2
100
AcDbCircle
 10
2602.3
 20
467.3000000000009
 30
0.0
 40
14.0
100
AcDbArc
 50
0.0
 51
90.00000000000001
  0
LINE
  5
377
330
1F
100
AcDbEntity
  8
Ｓ_１_１
  6
EXLTYPE0
 62
     2
100
AcDbLine
 10
2616.3
 20
467.3000000000009
 30
0.0
 11
2616.3
 21
427.5
 31
0.0
  0
LINE
  5
378
330
1F
100
AcDbEntity
  8
Ｓ_１_１
  6
EXLTYPE0
 62
     2
100
AcDbLine
 10
2633.7
 20
427.5
 30
0.0
 11
2633.7
 21
472.7
 31
0.0
  0
ARC
  5
379
330
1F
100
AcDbEntity
  8
Ｓ_１_１
  6
EXLTYPE0
 62
     2
100
AcDbCircle
 10
2607.7
 20
472.7
 30
0.0
 40
26.0
100
AcDbArc
 50
0.0
 51
90.00000000000001
  0
LINE
  5
37A
330
1F
100
AcDbEntity
  8
Ｓ_１_１
  6
EXLTYPE0
 62
     2
100
AcDbLine
 10
2066.29999999999
 20
472.7
 30
0.0
 11
2066.29999999999
 21
427.5
 31
0.0
  0
ARC
  5
37B
330
1F
100
AcDbEntity
  8
Ｓ_１_１
  6
EXLTYPE0
 62
     2
100
AcDbCircle
 10
2092.29999999998
 20
472.7
 30
0.0
 40
26.0
100
AcDbArc
 50
90.00000000000001
 51
180.0
  0
ARC
  5
37C
330
1F
100
AcDbEntity
  8
Ｓ_１_１
  6
EXLTYPE0
 62
     2
100
AcDbCircle
 10
2097.69999999998
 20
467.3000000000009
 30
0.0
 40
14.0
100
AcDbArc
 50
90.00000000000001
 51
180.0
  0
LINE
  5
37D
330
1F
100
AcDbEntity
  8
Ｓ_１_１
  6
EXLTYPE0
 62
     2
100
AcDbLine
 10
2083.69999999999
 20
427.5
 30
0.0
 11
2083.69999999999
 21
467.2999999999997
 31
0.0
  0
LINE
  5
37E
330
1F
100
AcDbEntity
  8
Ｓ_１_１
  6
EXLTYPE0
 62
     2
100
AcDbLine
 10
2097.69999999998
 20
481.3000000000006
 30
0.0
 11
2242.3
 21
481.3
 31
0.0
  0
LINE
  5
37F
330
1F
100
AcDbEntity
  8
Ｓ_１_１
  6
EXLTYPE0
 62
     2
100
AcDbLine
 10
2247.7
 20
498.6999999999998
 30
0.0
 11
2092.29999999998
 21
498.6999999999998
 31
0.0
  0
ARC
  5
380
330
1F
100
AcDbEntity
  8
Ｓ_１_１
  6
EXLTYPE0
 62
     2
100
AcDbCircle
 10
2242.3
 20
467.3000000000009
 30
0.0
 40
14.0
100
AcDbArc
 50
0.0
 51
90.00000000000001
  0
LINE
  5
381
330
1F
100
AcDbEntity
  8
Ｓ_１_１
  6
EXLTYPE0
 62
     2
100
AcDbLine
 10
2256.3
 20
467.3000000000009
 30
0.0
 11
2256.3
 21
427.5
 31
0.0
  0
LINE
  5
382
330
1F
100
AcDbEntity
  8
Ｓ_１_１
  6
EXLTYPE0
 62
     2
100
AcDbLine
 10
2273.7
 20
427.5
 30
0.0
 11
2273.7
 21
472.7
 31
0.0
  0
ARC
  5
383
330
1F
100
AcDbEntity
  8
Ｓ_１_１
  6
EXLTYPE0
 62
     2
100
AcDbCircle
 10
2247.7
 20
472.7
 30
0.0
 40
26.0
100
AcDbArc
 50
0.0
 51
90.00000000000001
  0
ELLIPSE
  5
384
330
1F
100
AcDbEntity
  8
Ｓ_１_１
  6
EXLTYPE0
 62
     2
100
AcDbEllipse
 10
2074.99999999999
 20
427.5
 30
0.0
 11
-2.201033201582275E-15
 21
-11.98186667979002
 31
0.0
210
0.0
220
0.0
230
1.0
 40
0.7260972127718918
 41
4.71238898038469
 42
7.853981633974483
  0
ELLIPSE
  5
385
330
1F
100
AcDbEntity
  8
Ｓ_１_１
  6
EXLTYPE0
 62
     2
100
AcDbEllipse
 10
2264.99999999999
 20
427.5
 30
0.0
 11
-2.201033201582275E-15
 21
-11.98186667979002
 31
0.0
210
0.0
220
0.0
230
1.0
 40
0.7260972127718918
 41
4.71238898038469
 42
7.853981633974483
  0
ELLIPSE
  5
386
330
1F
100
AcDbEntity
  8
Ｓ_１_１
  6
EXLTYPE0
 62
     2
100
AcDbEllipse
 10
2434.99999999999
 20
427.5
 30
0.0
 11
-2.201033201582275E-15
 21
-11.98186667979002
 31
0.0
210
0.0
220
0.0
230
1.0
 40
0.7260972127718918
 41
4.71238898038469
 42
7.853981633974483
  0
ELLIPSE
  5
387
330
1F
100
AcDbEntity
  8
Ｓ_１_１
  6
EXLTYPE0
 62
     2
100
AcDbEllipse
 10
2624.99999999999
 20
427.5
 30
0.0
 11
-2.201033201582275E-15
 21
-11.98186667979002
 31
0.0
210
0.0
220
0.0
230
1.0
 40
0.7260972127718918
 41
4.71238898038469
 42
7.853981633974483
  0
DIMENSION
  5
389
330
1F
100
AcDbEntity
  8
Ｓ_１_１
  6
CONTINUOUS
 62
     2
100
AcDbDimension
  2
*D15
 10
1480.0
 20
1400.0
 30
0.0
 11
1099.999999999995
 21
1422.0
 31
0.0
 70
   160
  3
ISO-25
100
AcDbAlignedDimension
 13
719.99999999999
 23
1602.5
 33
0.0
 14
1480.0
 24
1602.5
 34
0.0
100
AcDbRotatedDimension
1001
ACAD
1000
DSTYLE
1002
{
1070
   270
1070
     2
1070
     6
1000
EX_NORM
1070
     7
1000
EX_NORM
1070
    41
1040
24.0
1070
    42
1040
12.0
1070
    44
1040
8.0
1070
    73
1070
     0
1070
    74
1070
     0
1070
    75
1070
     0
1070
    76
1070
     0
1070
    77
1070
     1
1070
    78
1070
     8
1070
   140
1040
27.70323325635104
1070
   147
1040
0.0
1070
   173
1070
     1
1070
   176
1070
     2
1070
   177
1070
     2
1070
   178
1070
     2
1070
   271
1070
     2
1070
   277
1070
     2
1070
   279
1070
     2
1070
   280
1070
     0
1070
   287
1070
     5
1070
   340
1005
388
1002
}
  0
DIMENSION
  5
397
330
1F
100
AcDbEntity
  8
Ｓ_１_１
  6
CONTINUOUS
 62
     2
100
AcDbDimension
  2
*D16
 10
625.29999999999
 20
1400.0
 30
0.0
 11
672.6499999999901
 21
1422.0
 31
0.0
 70
   160
  1
(94.7)
  3
ISO-25
100
AcDbAlignedDimension
 13
719.99999999999
 23
1602.5
 33
0.0
 14
625.29999999999
 24
1692.3
 34
0.0
100
AcDbRotatedDimension
1001
ACAD
1000
DSTYLE
1002
{
1070
   270
1070
     2
1070
     6
1000
EX_NORM
1070
     7
1000
EX_NORM
1070
    41
1040
24.0
1070
    42
1040
12.0
1070
    44
1040
8.0
1070
    73
1070
     0
1070
    74
1070
     0
1070
    75
1070
     0
1070
    76
1070
     0
1070
    77
1070
     1
1070
    78
1070
     8
1070
   140
1040
27.70323325635104
1070
   147
1040
0.0
1070
   173
1070
     1
1070
   176
1070
     2
1070
   177
1070
     2
1070
   178
1070
     2
1070
   271
1070
     2
1070
   277
1070
     2
1070
   279
1070
     2
1070
   280
1070
     0
1070
   287
1070
     5
1070
   340
1005
388
1002
}
  0
DIMENSION
  5
3A4
330
1F
100
AcDbEntity
  8
Ｓ_１_１
  6
CONTINUOUS
 62
     2
100
AcDbDimension
  2
*D17
 10
1574.7
 20
1400.0
 30
0.0
 11
1527.35
 21
1422.0
 31
0.0
 70
   160
  1
(94.7)
  3
ISO-25
100
AcDbAlignedDimension
 13
1480.0
 23
1602.5
 33
0.0
 14
1574.7
 24
1692.3
 34
0.0
100
AcDbRotatedDimension
1001
ACAD
1000
DSTYLE
1002
{
1070
   270
1070
     2
1070
     6
1000
EX_NORM
1070
     7
1000
EX_NORM
1070
    41
1040
24.0
1070
    42
1040
12.0
1070
    44
1040
8.0
1070
    73
1070
     0
1070
    74
1070
     0
1070
    75
1070
     0
1070
    76
1070
     0
1070
    77
1070
     1
1070
    78
1070
     8
1070
   140
1040
27.70323325635104
1070
   147
1040
0.0
1070
   173
1070
     1
1070
   176
1070
     2
1070
   177
1070
     2
1070
   178
1070
     2
1070
   271
1070
     2
1070
   277
1070
     2
1070
   279
1070
     2
1070
   280
1070
     0
1070
   287
1070
     5
1070
   340
1005
388
1002
}
  0
DIMENSION
  5
3B1
330
1F
100
AcDbEntity
  8
Ｓ_１_１
  6
CONTINUOUS
 62
     2
100
AcDbDimension
  2
*D18
 10
1574.7
 20
1350.0
 30
0.0
 11
1099.999999999995
 21
1372.0
 31
0.0
 70
   160
  3
ISO-25
100
AcDbAlignedDimension
 13
625.29999999999
 23
1692.3
 33
0.0
 14
1574.7
 24
1692.3
 34
0.0
100
AcDbRotatedDimension
1001
ACAD
1000
DSTYLE
1002
{
1070
   270
1070
     2
1070
     6
1000
EX_NORM
1070
     7
1000
EX_NORM
1070
    41
1040
24.0
1070
    42
1040
12.0
1070
    44
1040
8.0
1070
    73
1070
     0
1070
    74
1070
     0
1070
    75
1070
     0
1070
    76
1070
     0
1070
    77
1070
     1
1070
    78
1070
     8
1070
   140
1040
27.70323325635104
1070
   147
1040
0.0
1070
   173
1070
     1
1070
   176
1070
     2
1070
   177
1070
     2
1070
   178
1070
     2
1070
   271
1070
     2
1070
   277
1070
     2
1070
   279
1070
     2
1070
   280
1070
     0
1070
   287
1070
     5
1070
   340
1005
388
1002
}
  0
DIMENSION
  5
3BE
330
1F
100
AcDbEntity
  8
Ｓ_１_１
  6
CONTINUOUS
 62
     2
100
AcDbDimension
  2
*D19
 10
500.0
 20
1950.0
 30
0.0
 11
478.0000000000001
 21
1736.25
 31
0.0
 70
   160
  1
855
  3
ISO-25
100
AcDbAlignedDimension
 13
799.99999999999
 23
1522.5
 33
0.0
 14
600.0
 24
1950.0
 34
0.0
 50
90.0
100
AcDbRotatedDimension
1001
ACAD
1000
DSTYLE
1002
{
1070
   270
1070
     2
1070
     6
1000
EX_NORM
1070
     7
1000
EX_NONE
1070
    41
1040
24.0
1070
    42
1040
12.0
1070
    44
1040
8.0
1070
    73
1070
     0
1070
    74
1070
     0
1070
    75
1070
     0
1070
    76
1070
     1
1070
    77
1070
     1
1070
    78
1070
     8
1070
   140
1040
27.70323325635104
1070
   147
1040
0.0
1070
   173
1070
     1
1070
   176
1070
     2
1070
   177
1070
     2
1070
   178
1070
     2
1070
   271
1070
     2
1070
   277
1070
     2
1070
   279
1070
     2
1070
   280
1070
     0
1070
   287
1070
     5
1070
   340
1005
388
1002
}
  0
LINE
  5
3CA
330
1F
100
AcDbEntity
  8
Ｓ_１_１
  6
CONTINUOUS
 62
     3
100
AcDbLine
 10
719.9999999999905
 20
403.0000000000034
 30
0.0
 11
719.9999999999905
 21
469.0000000000009
 31
0.0
  0
LINE
  5
3CB
330
1F
100
AcDbEntity
  8
Ｓ_１_１
  6
CONTINUOUS
 62
     3
100
AcDbLine
 10
719.9999999999905
 20
469.0000000000009
 30
0.0
 11
722.9999999999905
 21
472.0000000000009
 31
0.0
  0
LINE
  5
3CC
330
1F
100
AcDbEntity
  8
Ｓ_１_１
  6
CONTINUOUS
 62
     3
100
AcDbLine
 10
719.9999999999905
 20
403.0000000000034
 30
0.0
 11
722.9999999999905
 21
400.0000000000034
 31
0.0
  0
LINE
  5
3CD
330
1F
100
AcDbEntity
  8
Ｓ_１_１
  6
CONTINUOUS
 62
     3
100
AcDbLine
 10
703.9999999999816
 20
404.0
 30
0.0
 11
719.9999999999716
 21
404.0
 31
0.0
  0
LINE
  5
3CE
330
1F
100
AcDbEntity
  8
Ｓ_１_１
  6
CONTINUOUS
 62
     3
100
AcDbLine
 10
703.9999999999816
 20
451.0
 30
0.0
 11
703.9999999999816
 21
404.0
 31
0.0
  0
LINE
  5
3CF
330
1F
100
AcDbEntity
  8
Ｓ_１_１
  6
CONTINUOUS
 62
     3
100
AcDbLine
 10
703.9999999999816
 20
451.0
 30
0.0
 11
719.9999999999716
 21
451.0
 31
0.0
  0
LINE
  5
3D0
330
1F
100
AcDbEntity
  8
Ｓ_１_１
  6
EXLTYPE2
 62
     1
100
AcDbLine
 10
637.9999999999816
 20
490.0
 30
0.0
 11
708.5640231171715
 21
423.1780084117522
 31
0.0
  0
LINE
  5
3D1
330
1F
100
AcDbEntity
  8
Ｓ_１_１
  6
CONTINUOUS
 62
     3
100
AcDbLine
 10
646.7324191308567
 20
499.2214346022042
 30
0.0
 11
703.9999999999816
 21
444.9907709003814
 31
0.0
  0
ARC
  5
3D2
330
1F
100
AcDbEntity
  8
Ｓ_１_１
  6
CONTINUOUS
 62
     3
100
AcDbCircle
 10
637.9999999999816
 20
490.0
 30
0.0
 40
12.69999999999987
100
AcDbArc
 50
46.56019968692837
 51
226.5601996869287
  0
LINE
  5
3D3
330
1F
100
AcDbEntity
  8
Ｓ_１_１
  6
EXLTYPE2
 62
     1
100
AcDbLine
 10
615.8999999999818
 20
490.0
 30
0.0
 11
661.4999999999816
 21
490.0
 31
0.0
  0
LINE
  5
3D4
330
1F
100
AcDbEntity
  8
Ｓ_１_１
  6
EXLTYPE2
 62
     1
100
AcDbLine
 10
637.9999999999816
 20
510.9000000000001
 30
0.0
 11
637.9999999999816
 21
465.3000000000002
 31
0.0
  0
LINE
  5
3D5
330
1F
100
AcDbEntity
  8
Ｓ_１_１
  6
CONTINUOUS
 62
     3
100
AcDbLine
 10
700.9999999999914
 20
435.0000000000105
 30
0.0
 11
703.9999999999914
 21
435.0000000000105
 31
0.0
  0
LINE
  5
3D6
330
1F
100
AcDbEntity
  8
Ｓ_１_１
  6
CONTINUOUS
 62
     3
100
AcDbLine
 10
700.9999999999914
 20
405.0000000000105
 30
0.0
 11
700.9999999999914
 21
435.0000000000105
 31
0.0
  0
LINE
  5
3D7
330
1F
100
AcDbEntity
  8
Ｓ_１_１
  6
CONTINUOUS
 62
     3
100
AcDbLine
 10
700.9999999999914
 20
405.0000000000105
 30
0.0
 11
703.9999999999914
 21
405.0000000000105
 31
0.0
  0
LINE
  5
3D8
330
1F
100
AcDbEntity
  8
Ｓ_１_１
  6
CONTINUOUS
 62
     3
100
AcDbLine
 10
692.0717967696805
 20
406.1435935393733
 30
0.0
 11
690.9999999999914
 21
407.9999999998627
 31
0.0
  0
LINE
  5
3D9
330
1F
100
AcDbEntity
  8
Ｓ_１_１
  6
CONTINUOUS
 62
     3
100
AcDbLine
 10
692.0717967696587
 20
406.1435935394102
 30
0.0
 11
700.9999999999914
 21
406.1435935394102
 31
0.0
  0
LINE
  5
3DA
330
1F
100
AcDbEntity
  8
Ｓ_１_１
  6
CONTINUOUS
 62
     3
100
AcDbLine
 10
692.0717967696805
 20
433.8564064606476
 30
0.0
 11
690.9999999999914
 21
432.0000000001578
 31
0.0
  0
LINE
  5
3DB
330
1F
100
AcDbEntity
  8
Ｓ_１_１
  6
CONTINUOUS
 62
     3
100
AcDbLine
 10
692.0717967696587
 20
433.8564064606103
 30
0.0
 11
700.9999999999914
 21
433.8564064606103
 31
0.0
  0
LINE
  5
3DC
330
1F
100
AcDbEntity
  8
Ｓ_１_１
  6
CONTINUOUS
 62
     3
100
AcDbLine
 10
690.9999999999914
 20
407.9999999998627
 30
0.0
 11
690.9999999999914
 21
432.0000000001578
 31
0.0
  0
LINE
  5
3DD
330
1F
100
AcDbEntity
  8
Ｓ_１_１
  6
CONTINUOUS
 62
     3
100
AcDbLine
 10
692.0717967696914
 20
413.0648283394107
 30
0.0
 11
700.9999999999914
 21
413.0648283394107
 31
0.0
  0
LINE
  5
3DE
330
1F
100
AcDbEntity
  8
Ｓ_１_１
  6
CONTINUOUS
 62
     3
100
AcDbLine
 10
692.0717967696914
 20
426.9351716606102
 30
0.0
 11
700.9999999999914
 21
426.9351716606102
 31
0.0
  0
ARC
  5
3DF
330
1F
100
AcDbEntity
  8
Ｓ_１_１
  6
CONTINUOUS
 62
     3
100
AcDbCircle
 10
713.9732705255724
 20
420.0000000000105
 30
0.0
 40
22.97327052558072
100
AcDbArc
 50
162.4294426979598
 51
197.57055730204
  0
ARC
  5
3E0
330
1F
100
AcDbEntity
  8
Ｓ_１_１
  6
CONTINUOUS
 62
     3
100
AcDbCircle
 10
708.5203416007666
 20
406.9382407537496
 30
0.0
 40
17.55248422601882
100
AcDbArc
 50
159.5711529511675
 51
176.5320302262214
  0
ARC
  5
3E1
330
1F
100
AcDbEntity
  8
Ｓ_１_１
  6
CONTINUOUS
 62
     3
100
AcDbCircle
 10
708.5203416007666
 20
433.0617592462709
 30
0.0
 40
17.55248422601882
100
AcDbArc
 50
183.4679697737786
 51
200.4288470488326
  0
LINE
  5
3E2
330
1F
100
AcDbEntity
  8
Ｓ_１_１
  6
CONTINUOUS
 62
     3
100
AcDbLine
 10
629.2675808691066
 20
480.778565397796
 30
0.0
 11
690.9999999999914
 21
422.3198351602157
 31
0.0
  0
LINE
  5
3E3
330
1F
100
AcDbEntity
  8
Ｓ_１_１
  6
EXLTYPE2
 62
     1
100
AcDbLine
 10
685.5999999999917
 20
420.0000000000205
 30
0.0
 11
759.1999999999921
 21
420.0000000000205
 31
0.0
  0
LINE
  5
3E4
330
1F
100
AcDbEntity
  8
Ｓ_１_１
  6
CONTINUOUS
 62
     3
100
AcDbLine
 10
719.9999999999716
 20
451.0
 30
0.0
 11
719.9999999999716
 21
404.0
 31
0.0
  0
LINE
  5
3E5
330
1F
100
AcDbEntity
  8
Ｓ_１_１
  6
EXLTYPE0
 62
     2
100
AcDbLine
 10
643.9820509006779
 20
496.3170457511164
 30
0.0
 11
703.9999999999995
 21
439.4818666797887
 31
0.0
  0
CIRCLE
  5
3E6
330
1F
100
AcDbEntity
  8
Ｓ_１_１
  6
EXLTYPE0
 62
     2
100
AcDbCircle
 10
637.9999999999995
 20
490.0
 30
0.0
 40
8.699999999999932
  0
LINE
  5
3E7
330
1F
100
AcDbEntity
  8
Ｓ_１_１
  6
EXLTYPE0
 62
     2
100
AcDbLine
 10
632.0179490993215
 20
483.682954248884
 30
0.0
 11
691.0000000000095
 21
427.828739380808
 31
0.0
  0
DIMENSION
  5
3E8
330
1F
100
AcDbEntity
  8
Ｓ_１_１
  6
CONTINUOUS
 62
     2
100
AcDbDimension
  2
*D20
 10
1440.0
 20
300.0
 30
0.0
 11
1099.999999999995
 21
322.0
 31
0.0
 70
   160
  1
%%c680
  3
ISO-25
100
AcDbAlignedDimension
 13
759.99999999999
 23
472.0
 33
0.0
 14
1440.0
 24
472.0
 34
0.0
100
AcDbRotatedDimension
1001
ACAD
1000
DSTYLE
1002
{
1070
   270
1070
     2
1070
     6
1000
EX_NORM
1070
     7
1000
EX_NORM
1070
    41
1040
24.0
1070
    42
1040
12.0
1070
    44
1040
8.0
1070
    73
1070
     0
1070
    74
1070
     0
1070
    75
1070
     0
1070
    76
1070
     0
1070
    77
1070
     1
1070
    78
1070
     8
1070
   140
1040
27.70323325635104
1070
   147
1040
0.0
1070
   173
1070
     1
1070
   176
1070
     2
1070
   177
1070
     2
1070
   178
1070
     2
1070
   271
1070
     2
1070
   277
1070
     2
1070
   279
1070
     2
1070
   280
1070
     0
1070
   287
1070
     5
1070
   340
1005
388
1002
}
  0
DIMENSION
  5
3F5
330
1F
100
AcDbEntity
  8
Ｓ_１_１
  6
CONTINUOUS
 62
     2
100
AcDbDimension
  2
*D21
 10
1397.499999999991
 20
1200.0
 30
0.0
 11
1099.99999999999
 21
1222.0
 31
0.0
 70
   160
  1
%%c595
  3
ISO-25
100
AcDbAlignedDimension
 13
802.4999999999901
 23
1070.0
 33
0.0
 14
1397.499999999991
 24
1070.0
 34
0.0
100
AcDbRotatedDimension
1001
ACAD
1000
DSTYLE
1002
{
1070
   270
1070
     2
1070
     6
1000
EX_NORM
1070
     7
1000
EX_NORM
1070
    41
1040
24.0
1070
    42
1040
12.0
1070
    44
1040
8.0
1070
    73
1070
     0
1070
    74
1070
     0
1070
    75
1070
     0
1070
    76
1070
     0
1070
    77
1070
     1
1070
    78
1070
     8
1070
   140
1040
27.70323325635104
1070
   147
1040
0.0
1070
   173
1070
     1
1070
   176
1070
     2
1070
   177
1070
     2
1070
   178
1070
     2
1070
   271
1070
     2
1070
   277
1070
     2
1070
   279
1070
     2
1070
   280
1070
     0
1070
   287
1070
     5
1070
   340
1005
388
1002
}
  0
DIMENSION
  5
402
330
1F
100
AcDbEntity
  8
Ｓ_１_１
  6
CONTINUOUS
 62
     2
100
AcDbDimension
  2
*D22
 10
550.0
 20
472.0
 30
0.0
 11
528.0
 21
436.0
 31
0.0
 70
   160
  3
ISO-25
100
AcDbAlignedDimension
 13
722.99999999999
 23
400.0
 33
0.0
 14
722.99999999999
 24
472.0
 34
0.0
 50
90.0
100
AcDbRotatedDimension
1001
ACAD
1000
DSTYLE
1002
{
1070
   270
1070
     2
1070
     6
1000
EX_NORM
1070
     7
1000
EX_NORM
1070
    41
1040
24.0
1070
    42
1040
12.0
1070
    44
1040
8.0
1070
    73
1070
     0
1070
    74
1070
     0
1070
    75
1070
     0
1070
    76
1070
     0
1070
    77
1070
     1
1070
    78
1070
     8
1070
   140
1040
27.70323325635104
1070
   147
1040
0.0
1070
   173
1070
     1
1070
   176
1070
     2
1070
   177
1070
     2
1070
   178
1070
     2
1070
   271
1070
     2
1070
   277
1070
     2
1070
   279
1070
     2
1070
   280
1070
     0
1070
   287
1070
     5
1070
   340
1005
388
1002
}
  0
DIMENSION
  5
40F
330
1F
100
AcDbEntity
  8
Ｓ_１_１
  6
CONTINUOUS
 62
     2
100
AcDbDimension
  2
*D23
 10
550.0
 20
882.0
 30
0.0
 11
528.0
 21
677.0
 31
0.0
 70
   160
  3
ISO-25
100
AcDbAlignedDimension
 13
722.99999999999
 23
472.0
 33
0.0
 14
764.99999999999
 24
882.0
 34
0.0
 50
90.0
100
AcDbRotatedDimension
1001
ACAD
1000
DSTYLE
1002
{
1070
   270
1070
     2
1070
     6
1000
EX_NORM
1070
     7
1000
EX_NORM
1070
    41
1040
24.0
1070
    42
1040
12.0
1070
    44
1040
8.0
1070
    73
1070
     0
1070
    74
1070
     0
1070
    75
1070
     0
1070
    76
1070
     0
1070
    77
1070
     1
1070
    78
1070
     8
1070
   140
1040
27.70323325635104
1070
   147
1040
0.0
1070
   173
1070
     1
1070
   176
1070
     2
1070
   177
1070
     2
1070
   178
1070
     2
1070
   271
1070
     2
1070
   277
1070
     2
1070
   279
1070
     2
1070
   280
1070
     0
1070
   287
1070
     5
1070
   340
1005
388
1002
}
  0
DIMENSION
  5
41C
330
1F
100
AcDbEntity
  8
Ｓ_１_１
  6
CONTINUOUS
 62
     2
100
AcDbDimension
  2
*D24
 10
550.0
 20
992.0
 30
0.0
 11
528.0000000000001
 21
937.0
 31
0.0
 70
   160
  3
ISO-25
100
AcDbAlignedDimension
 13
764.99999999999
 23
882.0
 33
0.0
 14
792.49999999999
 24
992.0
 34
0.0
 50
90.0
100
AcDbRotatedDimension
1001
ACAD
1000
DSTYLE
1002
{
1070
   270
1070
     2
1070
     6
1000
EX_NORM
1070
     7
1000
EX_NORM
1070
    41
1040
24.0
1070
    42
1040
12.0
1070
    44
1040
8.0
1070
    73
1070
     0
1070
    74
1070
     0
1070
    75
1070
     0
1070
    76
1070
     0
1070
    77
1070
     1
1070
    78
1070
     8
1070
   140
1040
27.70323325635104
1070
   147
1040
0.0
1070
   173
1070
     1
1070
   176
1070
     2
1070
   177
1070
     2
1070
   178
1070
     2
1070
   271
1070
     2
1070
   277
1070
     2
1070
   279
1070
     2
1070
   280
1070
     0
1070
   287
1070
     5
1070
   340
1005
388
1002
}
  0
DIMENSION
  5
429
330
1F
100
AcDbEntity
  8
Ｓ_１_１
  6
CONTINUOUS
 62
     2
100
AcDbDimension
  2
*D25
 10
550.0
 20
992.0
 30
0.0
 11
528.0000000000001
 21
1032.0
 31
0.0
 70
   160
  3
ISO-25
100
AcDbAlignedDimension
 13
804.49999999999
 23
1072.0
 33
0.0
 14
792.49999999999
 24
992.0
 34
0.0
 50
90.0
100
AcDbRotatedDimension
1001
ACAD
1000
DSTYLE
1002
{
1070
   270
1070
     2
1070
     6
1000
EX_NORM
1070
     7
1000
EX_NORM
1070
    41
1040
24.0
1070
    42
1040
12.0
1070
    44
1040
8.0
1070
    73
1070
     0
1070
    74
1070
     0
1070
    75
1070
     0
1070
    76
1070
     0
1070
    77
1070
     1
1070
    78
1070
     8
1070
   140
1040
27.70323325635104
1070
   147
1040
0.0
1070
   173
1070
     1
1070
   176
1070
     2
1070
   177
1070
     2
1070
   178
1070
     2
1070
   271
1070
     2
1070
   277
1070
     2
1070
   279
1070
     2
1070
   280
1070
     0
1070
   287
1070
     5
1070
   340
1005
388
1002
}
  0
DIMENSION
  5
436
330
1F
100
AcDbEntity
  8
Ｓ_１_１
  6
CONTINUOUS
 62
     2
100
AcDbDimension
  2
*D26
 10
500.0
 20
400.0
 30
0.0
 11
478.0000000000001
 21
736.0
 31
0.0
 70
   160
  3
ISO-25
100
AcDbAlignedDimension
 13
804.49999999999
 23
1072.0
 33
0.0
 14
722.99999999999
 24
400.0
 34
0.0
 50
90.0
100
AcDbRotatedDimension
1001
ACAD
1000
DSTYLE
1002
{
1070
   270
1070
     2
1070
     6
1000
EX_NORM
1070
     7
1000
EX_NORM
1070
    41
1040
24.0
1070
    42
1040
12.0
1070
    44
1040
8.0
1070
    73
1070
     0
1070
    74
1070
     0
1070
    75
1070
     0
1070
    76
1070
     0
1070
    77
1070
     1
1070
    78
1070
     8
1070
   140
1040
27.70323325635104
1070
   147
1040
0.0
1070
   173
1070
     1
1070
   176
1070
     2
1070
   177
1070
     2
1070
   178
1070
     2
1070
   271
1070
     2
1070
   277
1070
     2
1070
   279
1070
     2
1070
   280
1070
     0
1070
   287
1070
     5
1070
   340
1005
388
1002
}
  0
LINE
  5
443
330
1F
100
AcDbEntity
  8
Ｓ_１_１
  6
EXLTYPE2
 62
     1
100
AcDbLine
 10
2374.61896648554
 20
802.0000087701269
 30
0.0
 11
2327.338968216458
 21
802.0001366161014
 31
0.0
  0
DIMENSION
  5
444
330
1F
100
AcDbEntity
  8
Ｓ_１_１
  6
CONTINUOUS
 62
     2
100
AcDbDimension
  2
*D27
 10
1800.0
 20
802.0001366161
 30
0.0
 11
1778.0
 21
601.00006830805
 31
0.0
 70
   160
  3
ISO-25
100
AcDbAlignedDimension
 13
1925.5
 23
400.0
 33
0.0
 14
2327.3389682165
 24
802.0001366161
 34
0.0
 50
90.0
100
AcDbRotatedDimension
1001
ACAD
1000
DSTYLE
1002
{
1070
   270
1070
     2
1070
     6
1000
EX_NORM
1070
     7
1000
EX_NORM
1070
    41
1040
24.0
1070
    42
1040
12.0
1070
    44
1040
8.0
1070
    73
1070
     0
1070
    74
1070
     0
1070
    75
1070
     0
1070
    76
1070
     0
1070
    77
1070
     1
1070
    78
1070
     8
1070
   140
1040
27.70323325635104
1070
   147
1040
0.0
1070
   173
1070
     1
1070
   176
1070
     2
1070
   177
1070
     2
1070
   178
1070
     2
1070
   271
1070
     2
1070
   277
1070
     2
1070
   279
1070
     2
1070
   280
1070
     0
1070
   287
1070
     5
1070
   340
1005
388
1002
}
  0
LINE
  5
451
330
1F
100
AcDbEntity
  8
Ｓ_１_１
  6
EXLTYPE2
 62
     1
100
AcDbLine
 10
1085.0
 20
537.0
 30
0.0
 11
1115.0
 21
537.0
 31
0.0
  0
LINE
  5
452
330
1F
100
AcDbEntity
  8
Ｓ_１_１
  6
CONTINUOUS
 62
     3
100
AcDbLine
 10
1479.999999999991
 20
403.0000000000032
 30
0.0
 11
1479.999999999991
 21
469.0000000000005
 31
0.0
  0
LINE
  5
453
330
1F
100
AcDbEntity
  8
Ｓ_１_１
  6
CONTINUOUS
 62
     3
100
AcDbLine
 10
1479.999999999991
 20
469.0000000000005
 30
0.0
 11
1476.999999999991
 21
472.0000000000005
 31
0.0
  0
LINE
  5
454
330
1F
100
AcDbEntity
  8
Ｓ_１_１
  6
CONTINUOUS
 62
     3
100
AcDbLine
 10
1479.999999999991
 20
403.0000000000032
 30
0.0
 11
1476.999999999991
 21
400.0000000000032
 31
0.0
  0
LINE
  5
455
330
1F
100
AcDbEntity
  8
Ｓ_１_１
  6
CONTINUOUS
 62
     3
100
AcDbLine
 10
1496.0
 20
404.0
 30
0.0
 11
1480.00000000001
 21
404.0
 31
0.0
  0
LINE
  5
456
330
1F
100
AcDbEntity
  8
Ｓ_１_１
  6
CONTINUOUS
 62
     3
100
AcDbLine
 10
1496.0
 20
451.0
 30
0.0
 11
1496.0
 21
404.0
 31
0.0
  0
LINE
  5
457
330
1F
100
AcDbEntity
  8
Ｓ_１_１
  6
CONTINUOUS
 62
     3
100
AcDbLine
 10
1496.0
 20
451.0
 30
0.0
 11
1480.00000000001
 21
451.0
 31
0.0
  0
LINE
  5
458
330
1F
100
AcDbEntity
  8
Ｓ_１_１
  6
CONTINUOUS
 62
     3
100
AcDbLine
 10
1480.00000000001
 20
451.0
 30
0.0
 11
1480.00000000001
 21
404.0
 31
0.0
  0
LINE
  5
459
330
1F
100
AcDbEntity
  8
Ｓ_１_１
  6
EXLTYPE2
 62
     1
100
AcDbLine
 10
1562.0
 20
490.0
 30
0.0
 11
1491.43597688281
 21
423.1780084117522
 31
0.0
  0
LINE
  5
45A
330
1F
100
AcDbEntity
  8
Ｓ_１_１
  6
CONTINUOUS
 62
     3
100
AcDbLine
 10
1553.267580869125
 20
499.2214346022042
 30
0.0
 11
1496.0
 21
444.9907709003812
 31
0.0
  0
ARC
  5
45B
330
1F
100
AcDbEntity
  8
Ｓ_１_１
  6
CONTINUOUS
 62
     3
100
AcDbCircle
 10
1562.0
 20
490.0
 30
0.0
 40
12.69999999999987
100
AcDbArc
 50
313.4398003130712
 51
133.4398003130714
  0
LINE
  5
45C
330
1F
100
AcDbEntity
  8
Ｓ_１_１
  6
EXLTYPE2
 62
     1
100
AcDbLine
 10
1584.1
 20
490.0
 30
0.0
 11
1538.5
 21
490.0
 31
0.0
  0
LINE
  5
45D
330
1F
100
AcDbEntity
  8
Ｓ_１_１
  6
EXLTYPE2
 62
     1
100
AcDbLine
 10
1562.0
 20
510.9000000000001
 30
0.0
 11
1562.0
 21
465.3
 31
0.0
  0
LINE
  5
45E
330
1F
100
AcDbEntity
  8
Ｓ_１_１
  6
CONTINUOUS
 62
     3
100
AcDbLine
 10
1498.99999999999
 20
435.0000000000102
 30
0.0
 11
1495.99999999999
 21
435.0000000000102
 31
0.0
  0
LINE
  5
45F
330
1F
100
AcDbEntity
  8
Ｓ_１_１
  6
CONTINUOUS
 62
     3
100
AcDbLine
 10
1498.99999999999
 20
405.0000000000102
 30
0.0
 11
1498.99999999999
 21
435.0000000000102
 31
0.0
  0
LINE
  5
460
330
1F
100
AcDbEntity
  8
Ｓ_１_１
  6
CONTINUOUS
 62
     3
100
AcDbLine
 10
1498.99999999999
 20
405.0000000000102
 30
0.0
 11
1495.99999999999
 21
405.0000000000102
 31
0.0
  0
LINE
  5
461
330
1F
100
AcDbEntity
  8
Ｓ_１_１
  6
CONTINUOUS
 62
     3
100
AcDbLine
 10
1507.928203230301
 20
406.1435935393731
 30
0.0
 11
1508.99999999999
 21
407.9999999998624
 31
0.0
  0
LINE
  5
462
330
1F
100
AcDbEntity
  8
Ｓ_１_１
  6
CONTINUOUS
 62
     3
100
AcDbLine
 10
1507.928203230323
 20
406.1435935394099
 30
0.0
 11
1498.99999999999
 21
406.1435935394099
 31
0.0
  0
LINE
  5
463
330
1F
100
AcDbEntity
  8
Ｓ_１_１
  6
CONTINUOUS
 62
     3
100
AcDbLine
 10
1507.928203230301
 20
433.8564064606473
 30
0.0
 11
1508.99999999999
 21
432.0000000001576
 31
0.0
  0
LINE
  5
464
330
1F
100
AcDbEntity
  8
Ｓ_１_１
  6
CONTINUOUS
 62
     3
100
AcDbLine
 10
1507.928203230323
 20
433.8564064606101
 30
0.0
 11
1498.99999999999
 21
433.8564064606101
 31
0.0
  0
LINE
  5
465
330
1F
100
AcDbEntity
  8
Ｓ_１_１
  6
CONTINUOUS
 62
     3
100
AcDbLine
 10
1508.99999999999
 20
407.9999999998624
 30
0.0
 11
1508.99999999999
 21
432.0000000001576
 31
0.0
  0
LINE
  5
466
330
1F
100
AcDbEntity
  8
Ｓ_１_１
  6
CONTINUOUS
 62
     3
100
AcDbLine
 10
1507.92820323029
 20
413.0648283394105
 30
0.0
 11
1498.99999999999
 21
413.0648283394105
 31
0.0
  0
LINE
  5
467
330
1F
100
AcDbEntity
  8
Ｓ_１_１
  6
CONTINUOUS
 62
     3
100
AcDbLine
 10
1507.92820323029
 20
426.93517166061
 30
0.0
 11
1498.99999999999
 21
426.93517166061
 31
0.0
  0
ARC
  5
468
330
1F
100
AcDbEntity
  8
Ｓ_１_１
  6
CONTINUOUS
 62
     3
100
AcDbCircle
 10
1486.026729474409
 20
420.0000000000102
 30
0.0
 40
22.97327052558072
100
AcDbArc
 50
342.4294426979601
 51
17.57055730204007
  0
ARC
  5
469
330
1F
100
AcDbEntity
  8
Ｓ_１_１
  6
CONTINUOUS
 62
     3
100
AcDbCircle
 10
1491.479658399215
 20
406.9382407537494
 30
0.0
 40
17.55248422601882
100
AcDbArc
 50
3.467969773778572
 51
20.4288470488325
  0
ARC
  5
46A
330
1F
100
AcDbEntity
  8
Ｓ_１_１
  6
CONTINUOUS
 62
     3
100
AcDbCircle
 10
1491.479658399215
 20
433.0617592462706
 30
0.0
 40
17.55248422601882
100
AcDbArc
 50
339.5711529511675
 51
356.5320302262215
  0
LINE
  5
46B
330
1F
100
AcDbEntity
  8
Ｓ_１_１
  6
CONTINUOUS
 62
     3
100
AcDbLine
 10
1570.732419130875
 20
480.7785653977958
 30
0.0
 11
1508.99999999999
 21
422.3198351602155
 31
0.0
  0
LINE
  5
46C
330
1F
100
AcDbEntity
  8
Ｓ_１_１
  6
EXLTYPE2
 62
     1
100
AcDbLine
 10
1514.39999999999
 20
420.0000000000202
 30
0.0
 11
1440.799999999989
 21
420.0000000000202
 31
0.0
  0
LINE
  5
46D
330
1F
100
AcDbEntity
  8
Ｓ_１_１
  6
EXLTYPE0
 62
     2
100
AcDbLine
 10
1556.017949099322
 20
496.3170457511162
 30
0.0
 11
1496.0
 21
439.4818666797887
 31
0.0
  0
CIRCLE
  5
46E
330
1F
100
AcDbEntity
  8
Ｓ_１_１
  6
EXLTYPE0
 62
     2
100
AcDbCircle
 10
1562.0
 20
490.0
 30
0.0
 40
8.699999999999932
  0
LINE
  5
46F
330
1F
100
AcDbEntity
  8
Ｓ_１_１
  6
EXLTYPE0
 62
     2
100
AcDbLine
 10
1567.982050900678
 20
483.6829542488838
 30
0.0
 11
1508.99999999999
 21
427.8287393808077
 31
0.0
  0
LINE
  5
470
330
1F
100
AcDbEntity
  8
Ｓ_１_１
  6
CONTINUOUS
 62
     3
100
AcDbLine
 10
1399.999999999992
 20
400.0000000000032
 30
0.0
 11
1399.999999999992
 21
472.0000000000005
 31
0.0
  0
LINE
  5
471
330
1F
100
AcDbEntity
  8
Ｓ_１_１
  6
CONTINUOUS
 62
     3
100
AcDbLine
 10
722.9999999999905
 20
472.0000000000007
 30
0.0
 11
1477.0
 21
472.0000000000008
 31
0.0
  0
LINE
  5
472
330
1F
100
AcDbEntity
  8
Ｓ_１_１
  6
CONTINUOUS
 62
     3
100
AcDbLine
 10
719.9999999999895
 20
468.9999999999998
 30
0.0
 11
1479.999999999991
 21
468.9999999999999
 31
0.0
  0
LINE
  5
473
330
1F
100
AcDbEntity
  8
Ｓ_１_１
  6
CONTINUOUS
 62
     3
100
AcDbLine
 10
719.9999999999716
 20
402.9999999999998
 30
0.0
 11
1479.999999999991
 21
402.9999999999999
 31
0.0
  0
LINE
  5
474
330
1F
100
AcDbEntity
  8
Ｓ_１_１
  6
CONTINUOUS
 62
     3
100
AcDbLine
 10
1477.0
 20
400.0000000000034
 30
0.0
 11
722.9999999999905
 21
400.0000000000034
 31
0.0
  0
LINE
  5
475
330
1F
100
AcDbEntity
  8
Ｓ_１_１
  6
CONTINUOUS
 62
     3
100
AcDbLine
 10
800.000000000008
 20
400.0000000000033
 30
0.0
 11
800.000000000008
 21
472.0000000000006
 31
0.0
  0
DIMENSION
  5
476
330
1F
100
AcDbEntity
  8
Ｓ_１_１
  6
CONTINUOUS
 62
     2
100
AcDbDimension
  2
*D28
 10
1650.0
 20
537.0
 30
0.0
 11
1628.0
 21
468.5
 31
0.0
 70
   160
  3
ISO-25
100
AcDbAlignedDimension
 13
1477.0
 23
400.0
 33
0.0
 14
1115.0
 24
537.0
 34
0.0
 50
90.0
100
AcDbRotatedDimension
1001
ACAD
1000
DSTYLE
1002
{
1070
   270
1070
     2
1070
     6
1000
EX_NORM
1070
     7
1000
EX_NORM
1070
    41
1040
24.0
1070
    42
1040
12.0
1070
    44
1040
8.0
1070
    73
1070
     0
1070
    74
1070
     0
1070
    75
1070
     0
1070
    76
1070
     0
1070
    77
1070
     1
1070
    78
1070
     8
1070
   140
1040
27.70323325635104
1070
   147
1040
0.0
1070
   173
1070
     1
1070
   176
1070
     2
1070
   177
1070
     2
1070
   178
1070
     2
1070
   271
1070
     2
1070
   277
1070
     2
1070
   279
1070
     2
1070
   280
1070
     0
1070
   287
1070
     5
1070
   340
1005
388
1002
}
  0
DIMENSION
  5
483
330
1F
100
AcDbEntity
  8
Ｓ_１_１
  6
CONTINUOUS
 62
     2
100
AcDbDimension
  2
*D29
 10
1650.0
 20
611.99999999998
 30
0.0
 11
1628.0
 21
574.49999999999
 31
0.0
 70
   160
  3
ISO-25
100
AcDbAlignedDimension
 13
1115.0
 23
537.0
 33
0.0
 14
1174.0403804067
 24
611.99999999998
 34
0.0
 50
90.0
100
AcDbRotatedDimension
1001
ACAD
1000
DSTYLE
1002
{
1070
   270
1070
     2
1070
     6
1000
EX_NORM
1070
     7
1000
EX_NORM
1070
    41
1040
24.0
1070
    42
1040
12.0
1070
    44
1040
8.0
1070
    73
1070
     0
1070
    74
1070
     0
1070
    75
1070
     0
1070
    76
1070
     0
1070
    77
1070
     1
1070
    78
1070
     8
1070
   140
1040
27.70323325635104
1070
   147
1040
0.0
1070
   173
1070
     1
1070
   176
1070
     2
1070
   177
1070
     2
1070
   178
1070
     2
1070
   271
1070
     2
1070
   277
1070
     2
1070
   279
1070
     2
1070
   280
1070
     0
1070
   287
1070
     5
1070
   340
1005
388
1002
}
  0
LINE
  5
490
330
1F
100
AcDbEntity
  8
Ｓ_１_１
  6
CONTINUOUS
 62
     3
100
AcDbLine
 10
1105.00000000003
 20
1586.1227466582
 30
0.0
 11
1113.00000000003
 21
1586.1227466582
 31
0.0
  0
LINE
  5
491
330
1F
100
AcDbEntity
  8
Ｓ_１_１
  6
CONTINUOUS
 62
     3
100
AcDbLine
 10
1105.00000000003
 20
1574.7775318145
 30
0.0
 11
1113.00000000003
 21
1574.7775318145
 31
0.0
  0
LINE
  5
492
330
1F
100
AcDbEntity
  8
Ｓ_１_１
  6
CONTINUOUS
 62
     3
100
AcDbLine
 10
1112.000192820029
 20
1574.200039577201
 30
0.0
 11
1113.00005465123
 21
1574.777310085
 31
0.0
  0
LINE
  5
493
330
1F
100
AcDbEntity
  8
Ｓ_１_１
  6
CONTINUOUS
 62
     3
100
AcDbLine
 10
1112.000260332929
 20
1559.20003744
 30
0.0
 11
1113.000227880229
 21
1558.622705897
 31
0.0
  0
LINE
  5
494
330
1F
100
AcDbEntity
  8
Ｓ_１_１
  6
CONTINUOUS
 62
     3
100
AcDbLine
 10
1112.00012608833
 20
1586.699804181201
 30
0.0
 11
1113.00009363563
 21
1586.1224726382
 31
0.0
  0
LINE
  5
495
330
1F
100
AcDbEntity
  8
Ｓ_１_１
  6
CONTINUOUS
 62
     3
100
AcDbLine
 10
1105.00000000003
 20
1574.7775318145
 30
0.0
 11
1105.00000000003
 21
1586.1227466582
 31
0.0
  0
LINE
  5
496
330
1F
100
AcDbEntity
  8
Ｓ_１_１
  6
CONTINUOUS
 62
     3
100
AcDbLine
 10
1101.750101814329
 20
1551.018181926901
 30
0.0
 11
1101.85508227683
 21
1551.2000134419
 31
0.0
  0
LINE
  5
497
330
1F
100
AcDbEntity
  8
Ｓ_１_１
  6
CONTINUOUS
 62
     3
100
AcDbLine
 10
1101.75000000003
 20
1551.2001392364
 30
0.0
 11
1116.00000000003
 21
1551.2001392364
 31
0.0
  0
LINE
  5
498
330
1F
100
AcDbEntity
  8
Ｓ_１_１
  6
CONTINUOUS
 62
     3
100
AcDbLine
 10
1101.75000000003
 20
1551.7001392364
 30
0.0
 11
1115.50000000003
 21
1551.7001392364
 31
0.0
  0
LINE
  5
499
330
1F
100
AcDbEntity
  8
Ｓ_１_１
  6
CONTINUOUS
 62
     3
100
AcDbLine
 10
1101.75000000003
 20
1548.200017166101
 30
0.0
 11
1101.75000000003
 21
1551.7001392364
 31
0.0
  0
LINE
  5
49A
330
1F
100
AcDbEntity
  8
Ｓ_１_１
  6
CONTINUOUS
 62
     3
100
AcDbLine
 10
1115.00023323193
 20
1554.7001029168
 30
0.0
 11
1115.50013665633
 21
1554.200199492301
 31
0.0
  0
LINE
  5
49B
330
1F
100
AcDbEntity
  8
Ｓ_１_１
  6
CONTINUOUS
 62
     3
100
AcDbLine
 10
1115.000146915129
 20
1552.700057635201
 30
0.0
 11
1115.50026613153
 21
1553.200176851501
 31
0.0
  0
LINE
  5
49C
330
1F
100
AcDbEntity
  8
Ｓ_１_１
  6
CONTINUOUS
 62
     3
100
AcDbLine
 10
1113.00000000003
 20
1554.700017166101
 30
0.0
 11
1115.00000000003
 21
1554.700017166101
 31
0.0
  0
LINE
  5
49D
330
1F
100
AcDbEntity
  8
Ｓ_１_１
  6
CONTINUOUS
 62
     3
100
AcDbLine
 10
1113.00000000003
 20
1552.700017166101
 30
0.0
 11
1115.00000000003
 21
1552.700017166101
 31
0.0
  0
LINE
  5
49E
330
1F
100
AcDbEntity
  8
Ｓ_１_１
  6
CONTINUOUS
 62
     3
100
AcDbLine
 10
1115.50000000003
 20
1553.200017166101
 30
0.0
 11
1115.50000000003
 21
1554.2001392364
 31
0.0
  0
LINE
  5
49F
330
1F
100
AcDbEntity
  8
Ｓ_１_１
  6
CONTINUOUS
 62
     3
100
AcDbLine
 10
1115.500395566629
 20
1551.7000636127
 30
0.0
 11
1116.000342191629
 21
1551.2001170298
 31
0.0
  0
LINE
  5
4A0
330
1F
100
AcDbEntity
  8
Ｓ_１_１
  6
CONTINUOUS
 62
     3
100
AcDbLine
 10
1116.00000000003
 20
1544.2001392364
 30
0.0
 11
1116.00000000003
 21
1551.2001392364
 31
0.0
  0
LINE
  5
4A1
330
1F
100
AcDbEntity
  8
Ｓ_１_１
  6
CONTINUOUS
 62
     3
100
AcDbLine
 10
1115.500337570929
 20
1543.700198838
 30
0.0
 11
1116.000284195929
 21
1544.200145420801
 31
0.0
  0
LINE
  5
4A2
330
1F
100
AcDbEntity
  8
Ｓ_１_１
  6
CONTINUOUS
 62
     3
100
AcDbLine
 10
1115.50022360753
 20
1535.6998733194
 30
0.0
 11
1116.000170232529
 21
1535.1999267365
 31
0.0
  0
LINE
  5
4A3
330
1F
100
AcDbEntity
  8
Ｓ_１_１
  6
CONTINUOUS
 62
     3
100
AcDbLine
 10
1115.50000000003
 20
1535.700017166101
 30
0.0
 11
1115.50000000003
 21
1543.7001392364
 31
0.0
  0
LINE
  5
4A4
330
1F
100
AcDbEntity
  8
Ｓ_１_１
  6
CONTINUOUS
 62
     3
100
AcDbLine
 10
1113.000144792029
 20
1524.7001573858
 30
0.0
 11
1115.99999692243
 21
1527.700009516301
 31
0.0
  0
LINE
  5
4A5
330
1F
100
AcDbEntity
  8
Ｓ_１_１
  6
CONTINUOUS
 62
     3
100
AcDbLine
 10
1112.00000000003
 20
1559.2001392364
 30
0.0
 11
1112.00000000003
 21
1574.2001392364
 31
0.0
  0
LINE
  5
4A6
330
1F
100
AcDbEntity
  8
Ｓ_１_１
  6
CONTINUOUS
 62
     3
100
AcDbLine
 10
1116.00000000003
 20
1527.700017166101
 30
0.0
 11
1116.00000000003
 21
1535.200017166101
 31
0.0
  0
LINE
  5
4A7
330
1F
100
AcDbEntity
  8
Ｓ_１_１
  6
CONTINUOUS
 62
     3
100
AcDbLine
 10
1113.00000000003
 20
1574.7775318145
 30
0.0
 11
1113.00000000003
 21
1586.1227466582
 31
0.0
  0
LINE
  5
4A8
330
1F
100
AcDbEntity
  8
Ｓ_１_１
  6
CONTINUOUS
 62
     3
100
AcDbLine
 10
1112.00000000003
 20
1524.2001392364
 30
0.0
 11
1112.00000000003
 21
1524.700017166101
 31
0.0
  0
LINE
  5
4A9
330
1F
100
AcDbEntity
  8
Ｓ_１_１
  6
CONTINUOUS
 62
     3
100
AcDbLine
 10
1113.00000000003
 20
1551.7001392364
 30
0.0
 11
1113.00000000003
 21
1558.6227466582
 31
0.0
  0
LINE
  5
4AA
330
1F
100
AcDbEntity
  8
Ｓ_１_１
  6
CONTINUOUS
 62
     3
100
AcDbLine
 10
1110.500252035979
 20
1603.6375685895
 30
0.0
 11
1112.12457989578
 21
1602.6997662086
 31
0.0
  0
ARC
  5
4AB
330
1F
100
AcDbEntity
  8
Ｓ_１_１
  6
CONTINUOUS
 62
     3
100
AcDbCircle
 10
1109.09326171868
 20
1598.270533580201
 30
0.0
 40
5.3672456741
100
AcDbArc
 50
55.61593205279996
 51
124.3842198053001
  0
LINE
  5
4AC
330
1F
100
AcDbEntity
  8
Ｓ_１_１
  6
CONTINUOUS
 62
     3
100
AcDbLine
 10
1108.52982503092
 20
1603.6375990098
 30
0.0
 11
1107.624841352451
 21
1605.205076720929
 31
0.0
  0
LINE
  5
4AD
330
1F
100
AcDbEntity
  8
Ｓ_１_１
  6
CONTINUOUS
 62
     3
100
AcDbLine
 10
1110.500252035979
 20
1593.062431410499
 30
0.0
 11
1112.12457989578
 21
1594.0002337914
 31
0.0
  0
ARC
  5
4AE
330
1F
100
AcDbEntity
  8
Ｓ_１_１
  6
CONTINUOUS
 62
     3
100
AcDbCircle
 10
1109.09326171868
 20
1598.4294664198
 30
0.0
 40
5.3672456741
100
AcDbArc
 50
235.6157801947001
 51
304.3840679471999
  0
LINE
  5
4AF
330
1F
100
AcDbEntity
  8
Ｓ_１_１
  6
CONTINUOUS
 62
     3
100
AcDbLine
 10
1108.52982503092
 20
1593.0624009902
 30
0.0
 11
1107.624841352451
 21
1591.494923279072
 31
0.0
  0
LINE
  5
4B0
330
1F
100
AcDbEntity
  8
Ｓ_１_１
  6
CONTINUOUS
 62
     3
100
AcDbLine
 10
1108.331004351118
 20
1586.7001392364
 30
0.0
 11
1108.529825030924
 21
1593.0624009902
 31
0.0
  0
LINE
  5
4B1
330
1F
100
AcDbEntity
  8
Ｓ_１_１
  6
CONTINUOUS
 62
     3
100
AcDbLine
 10
1107.475004351118
 20
1586.7001392364
 30
0.0
 11
1107.673825030924
 21
1593.0624009902
 31
0.0
  0
LINE
  5
4B2
330
1F
100
AcDbEntity
  8
Ｓ_１_１
  6
CONTINUOUS
 62
     3
100
AcDbLine
 10
1112.12451171868
 20
1594.000036550211
 30
0.0
 11
1112.12451171868
 21
1602.6999769395
 31
0.0
  0
LINE
  5
4B3
330
1F
100
AcDbEntity
  8
Ｓ_１_１
  6
CONTINUOUS
 62
     3
100
AcDbLine
 10
1106.06225585938
 20
1594.00012153327
 30
0.0
 11
1106.06225585938
 21
1602.6999769395
 31
0.0
  0
LINE
  5
4B4
330
1F
100
AcDbEntity
  8
Ｓ_１_１
  6
CONTINUOUS
 62
     3
100
AcDbLine
 10
1108.330164878029
 20
1610.026723902439
 30
0.0
 11
1108.529825030924
 21
1603.6375990098
 31
0.0
  0
LINE
  5
4B5
330
1F
100
AcDbEntity
  8
Ｓ_１_１
  6
CONTINUOUS
 62
     3
100
AcDbLine
 10
1107.47499999998
 20
1609.999999999999
 30
0.0
 11
1107.673825030924
 21
1603.6375990098
 31
0.0
  0
LINE
  5
4B6
330
1F
100
AcDbEntity
  8
Ｓ_１_１
  6
CONTINUOUS
 62
     3
100
AcDbLine
 10
1153.962731047076
 20
1571.97752174778
 30
0.0
 11
1155.121188290591
 21
1571.166361325946
 31
0.0
  0
LINE
  5
4B7
330
1F
100
AcDbEntity
  8
Ｓ_１_１
  6
CONTINUOUS
 62
     3
100
AcDbLine
 10
1173.199830411604
 20
1606.847763627082
 30
0.0
 11
1148.579636586299
 21
1602.506559185409
 31
0.0
  0
LINE
  5
4B8
330
1F
100
AcDbEntity
  8
Ｓ_１_１
  6
CONTINUOUS
 62
     3
100
AcDbLine
 10
1172.041377070886
 20
1607.658923016342
 30
0.0
 11
1173.199831121201
 21
1606.847764684873
 31
0.0
  0
LINE
  5
4B9
330
1F
100
AcDbEntity
  8
Ｓ_１_１
  6
CONTINUOUS
 62
     3
100
AcDbLine
 10
1173.199830411604
 20
1606.847763627082
 30
0.0
 11
1175.891377165442
 21
1591.583243455393
 31
0.0
  0
LINE
  5
4BA
330
1F
100
AcDbEntity
  8
Ｓ_１_１
  6
CONTINUOUS
 62
     3
100
AcDbLine
 10
1153.962730093974
 20
1571.97751884203
 30
0.0
 11
1151.271183340137
 21
1587.24203901372
 31
0.0
  0
LINE
  5
4BB
330
1F
100
AcDbEntity
  8
Ｓ_１_１
  6
CONTINUOUS
 62
     3
100
AcDbLine
 10
1160.716085321285
 20
1605.661969159258
 30
0.0
 11
1149.390796161644
 21
1603.665015116088
 31
0.0
  0
LINE
  5
4BC
330
1F
100
AcDbEntity
  8
Ｓ_１_１
  6
CONTINUOUS
 62
     3
100
AcDbLine
 10
1172.041374480925
 20
1607.658923202428
 30
0.0
 11
1160.716085321285
 21
1605.661969159258
 31
0.0
  0
LINE
  5
4BD
330
1F
100
AcDbEntity
  8
Ｓ_１_１
  6
CONTINUOUS
 62
     3
100
AcDbLine
 10
1178.582925850975
 20
1576.318725420502
 30
0.0
 11
1177.771765331483
 21
1575.160268245367
 31
0.0
  0
LINE
  5
4BE
330
1F
100
AcDbEntity
  8
Ｓ_１_１
  6
CONTINUOUS
 62
     3
100
AcDbLine
 10
1178.582923919279
 20
1576.318723283704
 30
0.0
 11
1153.962730093974
 21
1571.97751884203
 31
0.0
  0
LINE
  5
4BF
330
1F
100
AcDbEntity
  8
Ｓ_１_１
  6
CONTINUOUS
 62
     3
100
AcDbLine
 10
1178.582923919279
 20
1576.318723283704
 30
0.0
 11
1175.891377165442
 21
1591.583243455393
 31
0.0
  0
LINE
  5
4C0
330
1F
100
AcDbEntity
  8
Ｓ_１_１
  6
CONTINUOUS
 62
     3
100
AcDbLine
 10
1149.390797290537
 20
1603.665015613983
 30
0.0
 11
1148.579636868703
 21
1602.506558370467
 31
0.0
  0
LINE
  5
4C1
330
1F
100
AcDbEntity
  8
Ｓ_１_１
  6
CONTINUOUS
 62
     3
100
AcDbLine
 10
1177.771764343934
 20
1575.160267353025
 30
0.0
 11
1166.446475184293
 21
1573.163313309855
 31
0.0
  0
LINE
  5
4C2
330
1F
100
AcDbEntity
  8
Ｓ_１_１
  6
CONTINUOUS
 62
     3
100
AcDbLine
 10
1166.446475184293
 20
1573.163313309855
 30
0.0
 11
1155.121186024653
 21
1571.166359266685
 31
0.0
  0
LINE
  5
4C3
330
1F
100
AcDbEntity
  8
Ｓ_１_１
  6
CONTINUOUS
 62
     3
100
AcDbLine
 10
1148.579636586299
 20
1602.506559185409
 30
0.0
 11
1151.271183340137
 21
1587.24203901372
 31
0.0
  0
LINE
  5
4C4
330
1F
100
AcDbEntity
  8
Ｓ_１_１
  6
CONTINUOUS
 62
     3
100
AcDbLine
 10
1174.713971909952
 20
1517.097054528749
 30
0.0
 11
1177.668395168989
 21
1517.61799906175
 31
0.0
  0
LINE
  5
4C5
330
1F
100
AcDbEntity
  8
Ｓ_１_１
  6
CONTINUOUS
 62
     3
100
AcDbLine
 10
1181.086922079592
 20
1521.267057426024
 30
0.0
 11
1179.524067283305
 21
1530.130447418912
 31
0.0
  0
LINE
  5
4C6
330
1F
100
AcDbEntity
  8
Ｓ_１_１
  6
CONTINUOUS
 62
     3
100
AcDbLine
 10
1179.523657456017
 20
1530.130135048746
 30
0.0
 11
1182.362693017927
 21
1534.184697663879
 31
0.0
  0
LINE
  5
4C7
330
1F
100
AcDbEntity
  8
Ｓ_１_１
  6
CONTINUOUS
 62
     3
100
AcDbLine
 10
1164.636382067029
 20
1531.059192620619
 30
0.0
 11
1168.690844927345
 21
1528.220227417171
 31
0.0
  0
LINE
  5
4C8
330
1F
100
AcDbEntity
  8
Ｓ_１_１
  6
CONTINUOUS
 62
     3
100
AcDbLine
 10
1159.149706531688
 20
1546.338631100276
 30
0.0
 11
1159.728968001416
 21
1545.933017992471
 31
0.0
  0
LINE
  5
4C9
330
1F
100
AcDbEntity
  8
Ｓ_１_１
  6
CONTINUOUS
 62
     3
100
AcDbLine
 10
1181.886938084443
 20
1549.839995989799
 30
0.0
 11
1182.292474542243
 21
1550.419162073666
 31
0.0
  0
LINE
  5
4CA
330
1F
100
AcDbEntity
  8
Ｓ_１_１
  6
CONTINUOUS
 62
     3
100
AcDbLine
 10
1180.277905114105
 20
1537.371355650761
 30
0.0
 11
1180.01745404489
 21
1538.848447064501
 31
0.0
  0
LINE
  5
4CB
330
1F
100
AcDbEntity
  8
Ｓ_１_１
  6
CONTINUOUS
 62
     3
100
AcDbLine
 10
1165.505788818922
 20
1534.766632985757
 30
0.0
 11
1165.245337749707
 21
1536.243724399498
 31
0.0
  0
LINE
  5
4CC
330
1F
100
AcDbEntity
  8
Ｓ_１_１
  6
CONTINUOUS
 62
     3
100
AcDbLine
 10
1163.507632656403
 20
1537.460583978294
 30
0.0
 11
1181.234172210623
 21
1540.586251176298
 31
0.0
  0
LINE
  5
4CD
330
1F
100
AcDbEntity
  8
Ｓ_１_１
  6
CONTINUOUS
 62
     3
100
AcDbLine
 10
1159.149753647784
 20
1546.338725143326
 30
0.0
 11
1182.292976275126
 21
1550.419499713068
 31
0.0
  0
LINE
  5
4CE
330
1F
100
AcDbEntity
  8
Ｓ_１_１
  6
CONTINUOUS
 62
     3
100
AcDbLine
 10
1180.017271268569
 20
1538.848516288596
 30
0.0
 11
1181.234020799944
 21
1540.586214550582
 31
0.0
  0
LINE
  5
4CF
330
1F
100
AcDbEntity
  8
Ｓ_１_１
  6
CONTINUOUS
 62
     3
100
AcDbLine
 10
1163.507669270246
 20
1537.460439407262
 30
0.0
 11
1165.245367634745
 21
1536.243690022415
 31
0.0
  0
LINE
  5
4D0
330
1F
100
AcDbEntity
  8
Ｓ_１_１
  6
CONTINUOUS
 62
     3
100
AcDbLine
 10
1164.289070653189
 20
1533.028828873961
 30
0.0
 11
1182.015610207409
 21
1536.154496071965
 31
0.0
  0
LINE
  5
4D1
330
1F
100
AcDbEntity
  8
Ｓ_１_１
  6
CONTINUOUS
 62
     3
100
AcDbLine
 10
1180.277910860443
 20
1537.371181068811
 30
0.0
 11
1182.015609224943
 21
1536.154431683963
 31
0.0
  0
LINE
  5
4D2
330
1F
100
AcDbEntity
  8
Ｓ_１_１
  6
CONTINUOUS
 62
     3
100
AcDbLine
 10
1164.289027141383
 20
1533.028810437625
 30
0.0
 11
1165.505776672659
 21
1534.766508699594
 31
0.0
  0
LINE
  5
4D3
330
1F
100
AcDbEntity
  8
Ｓ_１_１
  6
CONTINUOUS
 62
     3
100
AcDbLine
 10
1163.507632656403
 20
1537.460583978294
 30
0.0
 11
1161.944820254686
 21
1546.323733539626
 31
0.0
  0
LINE
  5
4D4
330
1F
100
AcDbEntity
  8
Ｓ_１_１
  6
CONTINUOUS
 62
     3
100
AcDbLine
 10
1181.234172210623
 20
1540.586251176298
 30
0.0
 11
1179.671359808905
 21
1549.44940073763
 31
0.0
  0
LINE
  5
4D5
330
1F
100
AcDbEntity
  8
Ｓ_１_１
  6
CONTINUOUS
 62
     3
100
AcDbLine
 10
1164.636367008523
 20
1531.059213367936
 30
0.0
 11
1182.362906562743
 21
1534.184880565941
 31
0.0
  0
LINE
  5
4D6
330
1F
100
AcDbEntity
  8
Ｓ_１_１
  6
CONTINUOUS
 62
     3
100
AcDbLine
 10
1165.505788818922
 20
1534.766632985757
 30
0.0
 11
1180.277905114105
 21
1537.371355650761
 31
0.0
  0
LINE
  5
4D7
330
1F
100
AcDbEntity
  8
Ｓ_１_１
  6
CONTINUOUS
 62
     3
100
AcDbLine
 10
1165.245337749707
 20
1536.243724399498
 30
0.0
 11
1180.01745404489
 21
1538.848447064501
 31
0.0
  0
LINE
  5
4D8
330
1F
100
AcDbEntity
  8
Ｓ_１_１
  6
CONTINUOUS
 62
     3
100
AcDbLine
 10
1172.396914264606
 20
1518.719355297452
 30
0.0
 11
1174.713878582587
 21
1517.096999416238
 31
0.0
  0
LINE
  5
4D9
330
1F
100
AcDbEntity
  8
Ｓ_１_１
  6
CONTINUOUS
 62
     3
100
AcDbLine
 10
1177.668186196086
 20
1517.617748261162
 30
0.0
 11
1179.290472060682
 21
1519.934612585048
 31
0.0
  0
LINE
  5
4DA
330
1F
100
AcDbEntity
  8
Ｓ_１_１
  6
CONTINUOUS
 62
     3
100
AcDbLine
 10
1171.412471529852
 20
1518.545888112121
 30
0.0
 11
1180.275500875407
 21
1520.108679316553
 31
0.0
  0
LINE
  5
4DB
330
1F
100
AcDbEntity
  8
Ｓ_１_１
  6
CONTINUOUS
 62
     3
100
AcDbLine
 10
1157.427803828202
 20
1554.666101178305
 30
0.0
 11
1181.06294946894
 21
1558.83361504774
 31
0.0
  0
LINE
  5
4DC
330
1F
100
AcDbEntity
  8
Ｓ_１_１
  6
CONTINUOUS
 62
     3
100
AcDbLine
 10
1155.413209477255
 20
1555.399185075859
 30
0.0
 11
1154.569875401516
 21
1560.181970287467
 31
0.0
  0
LINE
  5
4DD
330
1F
100
AcDbEntity
  8
Ｓ_１_１
  6
CONTINUOUS
 62
     3
100
AcDbLine
 10
1162.236417295331
 20
1556.602300709167
 30
0.0
 11
1161.393104416876
 21
1561.384965704996
 31
0.0
  0
LINE
  5
4DE
330
1F
100
AcDbEntity
  8
Ｓ_１_１
  6
CONTINUOUS
 62
     3
100
AcDbLine
 10
1175.88235206827
 20
1559.008447186623
 30
0.0
 11
1175.039039189815
 21
1563.791112182453
 31
0.0
  0
LINE
  5
4DF
330
1F
100
AcDbEntity
  8
Ｓ_１_１
  6
CONTINUOUS
 62
     3
100
AcDbLine
 10
1182.705079023135
 20
1560.211478030773
 30
0.0
 11
1181.86176614468
 21
1564.994143026603
 31
0.0
  0
LINE
  5
4E0
330
1F
100
AcDbEntity
  8
Ｓ_１_１
  6
CONTINUOUS
 62
     3
100
AcDbLine
 10
1155.413177197467
 20
1555.399137728317
 30
0.0
 11
1157.4274596868
 21
1554.665998841044
 31
0.0
  0
LINE
  5
4E1
330
1F
100
AcDbEntity
  8
Ｓ_１_１
  6
CONTINUOUS
 62
     3
100
AcDbLine
 10
1179.847389751699
 20
1565.727262447743
 30
0.0
 11
1181.861672241031
 21
1564.994123560471
 31
0.0
  0
LINE
  5
4E2
330
1F
100
AcDbEntity
  8
Ｓ_１_１
  6
CONTINUOUS
 62
     3
100
AcDbLine
 10
1181.06282677723
 20
1558.833673619891
 30
0.0
 11
1182.704884901349
 21
1560.211524007874
 31
0.0
  0
LINE
  5
4E3
330
1F
100
AcDbEntity
  8
Ｓ_１_１
  6
CONTINUOUS
 62
     3
100
AcDbLine
 10
1154.569829313809
 20
1560.18184981416
 30
0.0
 11
1156.211887437831
 21
1561.559700202125
 31
0.0
  0
LINE
  5
4E4
330
1F
100
AcDbEntity
  8
Ｓ_１_１
  6
CONTINUOUS
 62
     3
100
AcDbLine
 10
1159.149753647784
 20
1546.338725143326
 30
0.0
 11
1157.6737653349
 21
1554.709470828151
 31
0.0
  0
LINE
  5
4E5
330
1F
100
AcDbEntity
  8
Ｓ_１_１
  6
CONTINUOUS
 62
     3
100
AcDbLine
 10
1182.292976275126
 20
1550.419499713068
 30
0.0
 11
1180.816987962242
 21
1558.790245397895
 31
0.0
  0
LINE
  5
4E6
330
1F
100
AcDbEntity
  8
Ｓ_１_１
  6
CONTINUOUS
 62
     3
100
AcDbLine
 10
1159.729002810408
 20
1545.933025139875
 30
0.0
 11
1181.887177253183
 21
1549.84010913738
 31
0.0
  0
LINE
  5
4E7
330
1F
100
AcDbEntity
  8
Ｓ_１_１
  6
CONTINUOUS
 62
     3
100
AcDbLine
 10
1182.362906562743
 20
1534.184880565941
 30
0.0
 11
1182.015610207409
 21
1536.154496071965
 31
0.0
  0
LINE
  5
4E8
330
1F
100
AcDbEntity
  8
Ｓ_１_１
  6
CONTINUOUS
 62
     3
100
AcDbLine
 10
1164.636367008523
 20
1531.059213367936
 30
0.0
 11
1164.289070653189
 21
1533.028828873961
 31
0.0
  0
LINE
  5
4E9
330
1F
100
AcDbEntity
  8
Ｓ_１_１
  6
CONTINUOUS
 62
     3
100
AcDbLine
 10
1168.690941568615
 20
1528.220275070006
 30
0.0
 11
1179.524067283305
 21
1530.130447418912
 31
0.0
  0
LINE
  5
4EA
330
1F
100
AcDbEntity
  8
Ｓ_１_１
  6
CONTINUOUS
 62
     3
100
AcDbLine
 10
1170.253796364902
 20
1519.356885077118
 30
0.0
 11
1168.690941568615
 21
1528.220275070006
 31
0.0
  0
LINE
  5
4EB
330
1F
100
AcDbEntity
  8
Ｓ_１_１
  6
CONTINUOUS
 62
     3
100
AcDbLine
 10
1156.212245387248
 20
1561.559875665168
 30
0.0
 11
1179.847391027986
 21
1565.727389534604
 31
0.0
  0
ARC
  5
4EC
330
1F
100
AcDbEntity
  8
Ｓ_１_１
  6
CONTINUOUS
 62
     3
100
AcDbCircle
 10
1180.101873895025
 20
1521.093366853787
 30
0.0
 40
1.0
100
AcDbArc
 50
280.0000248163
 51
10.00000250450005
  0
ARC
  5
4ED
330
1F
100
AcDbEntity
  8
Ｓ_１_１
  6
CONTINUOUS
 62
     3
100
AcDbCircle
 10
1179.329312759054
 20
1559.407377804952
 30
0.0
 40
6.1339254379
100
AcDbArc
 50
65.61542661880004
 51
134.3845886355004
  0
ARC
  5
4EE
330
1F
100
AcDbEntity
  8
Ｓ_１_１
  6
CONTINUOUS
 62
     3
100
AcDbCircle
 10
1172.011099678678
 20
1541.063960399442
 30
0.0
 40
22.92794227600001
100
AcDbArc
 50
82.4118829011001
 51
117.5881767494002
  0
ARC
  5
4EF
330
1F
100
AcDbEntity
  8
Ｓ_１_１
  6
CONTINUOUS
 62
     3
100
AcDbCircle
 10
1157.945882097251
 20
1560.986112907875
 30
0.0
 40
6.1339254379
100
AcDbArc
 50
245.6154796664003
 51
314.3846314378002
  0
ARC
  5
4F0
330
1F
100
AcDbEntity
  8
Ｓ_１_１
  6
CONTINUOUS
 62
     3
100
AcDbCircle
 10
1171.23884454947
 20
1519.530575649355
 30
0.0
 40
1.0
100
AcDbArc
 50
190.0000223118002
 51
280.0000248163
  0
ARC
  5
4F1
330
1F
100
AcDbEntity
  8
Ｓ_１_１
  6
CONTINUOUS
 62
     3
100
AcDbCircle
 10
1158.860651031249
 20
1555.798200483345
 30
0.0
 40
6.1339254379
100
AcDbArc
 50
65.61544027910028
 51
134.3846022959002
  0
ARC
  5
4F2
330
1F
100
AcDbEntity
  8
Ｓ_１_１
  6
CONTINUOUS
 62
     3
100
AcDbCircle
 10
1165.263854745973
 20
1579.329487918797
 30
0.0
 40
22.9279384613
100
AcDbArc
 50
262.4118369110003
 51
297.5881444197
  0
ARC
  5
4F3
330
1F
100
AcDbEntity
  8
Ｓ_１_１
  6
CONTINUOUS
 62
     3
100
AcDbCircle
 10
1178.414543825056
 20
1564.595290229482
 30
0.0
 40
6.1339254379
100
AcDbArc
 50
245.6154113645003
 51
314.3845631360002
  0
LINE
  5
4F4
330
1F
100
AcDbEntity
  8
Ｓ_１_１
  6
CONTINUOUS
 62
     3
100
AcDbLine
 10
1167.556810683275
 20
1610.929880055737
 30
0.0
 11
1168.720235274257
 21
1609.54336461972
 31
0.0
  0
LINE
  5
4F5
330
1F
100
AcDbEntity
  8
Ｓ_１_１
  6
CONTINUOUS
 62
     3
100
AcDbLine
 10
1168.720235274255
 20
1609.543364619717
 30
0.0
 11
1151.867129243125
 21
1606.571707317688
 31
0.0
  0
LINE
  5
4F6
330
1F
100
AcDbEntity
  8
Ｓ_１_１
  6
CONTINUOUS
 62
     3
100
AcDbLine
 10
1151.867129243126
 20
1606.571707317688
 30
0.0
 11
1152.48617453796
 21
1608.272520286877
 31
0.0
  0
LINE
  5
4F7
330
1F
100
AcDbEntity
  8
Ｓ_１_１
  6
CONTINUOUS
 62
     3
100
AcDbLine
 10
1167.556810683275
 20
1610.929880055736
 30
0.0
 11
1152.486174537961
 21
1608.272520286877
 31
0.0
  0
LINE
  5
4F8
330
1F
100
AcDbEntity
  8
Ｓ_１_１
  6
CONTINUOUS
 62
     3
100
AcDbLine
 10
1174.676385967619
 20
1570.552762182235
 30
0.0
 11
1175.295431262457
 21
1572.253575151422
 31
0.0
  0
LINE
  5
4F9
330
1F
100
AcDbEntity
  8
Ｓ_１_１
  6
CONTINUOUS
 62
     3
100
AcDbLine
 10
1175.295431262453
 20
1572.253575151425
 30
0.0
 11
1158.442325231323
 21
1569.281917849396
 31
0.0
  0
LINE
  5
4FA
330
1F
100
AcDbEntity
  8
Ｓ_１_１
  6
CONTINUOUS
 62
     3
100
AcDbLine
 10
1158.442325231324
 20
1569.281917849396
 30
0.0
 11
1159.605749822304
 21
1567.895402413377
 31
0.0
  0
LINE
  5
4FB
330
1F
100
AcDbEntity
  8
Ｓ_１_１
  6
CONTINUOUS
 62
     3
100
AcDbLine
 10
1174.676385967619
 20
1570.552762182236
 30
0.0
 11
1159.605749822305
 21
1567.895402413377
 31
0.0
  0
LINE
  5
4FC
330
1F
100
AcDbEntity
  8
Ｓ_１_１
  6
CONTINUOUS
 62
     3
100
AcDbLine
 10
1176.326613489125
 20
1565.106581461431
 30
0.0
 11
1174.947889662657
 21
1574.662342056576
 31
0.0
  0
LINE
  5
4FD
330
1F
100
AcDbEntity
  8
Ｓ_１_１
  6
CONTINUOUS
 62
     3
100
AcDbLine
 10
1175.483618052546
 20
1564.957938621348
 30
0.0
 11
1174.676385967619
 21
1570.552762182236
 31
0.0
  0
LINE
  5
4FE
330
1F
100
AcDbEntity
  8
Ｓ_１_１
  6
CONTINUOUS
 62
     3
100
AcDbLine
 10
1160.760742145014
 20
1562.361898365227
 30
0.0
 11
1159.605749822305
 21
1567.895402413377
 31
0.0
  0
LINE
  5
4FF
330
1F
100
AcDbEntity
  8
Ｓ_１_１
  6
CONTINUOUS
 62
     3
100
AcDbLine
 10
1159.917746708436
 20
1562.213255525144
 30
0.0
 11
1157.945060705933
 21
1571.664284563135
 31
0.0
  0
LINE
  5
500
330
1F
100
AcDbEntity
  8
Ｓ_１_１
  6
CONTINUOUS
 62
     3
100
AcDbLine
 10
1167.244813797145
 20
1616.612026943968
 30
0.0
 11
1169.217499799648
 21
1607.160997905979
 31
0.0
  0
LINE
  5
501
330
1F
100
AcDbEntity
  8
Ｓ_１_１
  6
CONTINUOUS
 62
     3
100
AcDbLine
 10
1150.835947016456
 20
1613.718701007682
 30
0.0
 11
1152.214670842924
 21
1604.162940412537
 31
0.0
  0
LINE
  5
502
330
1F
100
AcDbEntity
  8
Ｓ_１_１
  6
CONTINUOUS
 62
     3
100
AcDbLine
 10
1166.401818360566
 20
1616.463384103884
 30
0.0
 11
1167.556810683275
 21
1610.929880055736
 31
0.0
  0
LINE
  5
503
330
1F
100
AcDbEntity
  8
Ｓ_１_１
  6
CONTINUOUS
 62
     3
100
AcDbLine
 10
1151.678942453034
 20
1613.867343847764
 30
0.0
 11
1152.486174537961
 21
1608.272520286877
 31
0.0
  0
LINE
  5
504
330
1F
100
AcDbEntity
  8
Ｓ_１_１
  6
CONTINUOUS
 62
     3
100
AcDbLine
 10
1479.99999999999
 20
1602.50000000001
 30
0.0
 11
1399.99999999999
 21
1522.50000000001
 31
0.0
  0
LINE
  5
505
330
1F
100
AcDbEntity
  8
Ｓ_１_１
  6
CONTINUOUS
 62
     3
100
AcDbLine
 10
1462.928203230301
 20
1923.856406460647
 30
0.0
 11
1463.99999999999
 21
1922.000000000158
 31
0.0
  0
LINE
  5
506
330
1F
100
AcDbEntity
  8
Ｓ_１_１
  6
CONTINUOUS
 62
     3
100
AcDbLine
 10
1462.928203230323
 20
1923.85640646061
 30
0.0
 11
1453.99999999999
 21
1923.85640646061
 31
0.0
  0
LINE
  5
507
330
1F
100
AcDbEntity
  8
Ｓ_１_１
  6
CONTINUOUS
 62
     3
100
AcDbLine
 10
1462.928203230301
 20
1896.143593539373
 30
0.0
 11
1463.99999999999
 21
1897.999999999862
 31
0.0
  0
LINE
  5
508
330
1F
100
AcDbEntity
  8
Ｓ_１_１
  6
CONTINUOUS
 62
     3
100
AcDbLine
 10
1462.928203230323
 20
1896.143593539409
 30
0.0
 11
1453.99999999999
 21
1896.143593539409
 31
0.0
  0
LINE
  5
509
330
1F
100
AcDbEntity
  8
Ｓ_１_１
  6
CONTINUOUS
 62
     3
100
AcDbLine
 10
1463.99999999999
 20
1922.000000000158
 30
0.0
 11
1463.99999999999
 21
1897.999999999862
 31
0.0
  0
LINE
  5
50A
330
1F
100
AcDbEntity
  8
Ｓ_１_１
  6
CONTINUOUS
 62
     3
100
AcDbLine
 10
1462.92820323029
 20
1916.93517166061
 30
0.0
 11
1453.99999999999
 21
1916.93517166061
 31
0.0
  0
LINE
  5
50B
330
1F
100
AcDbEntity
  8
Ｓ_１_１
  6
CONTINUOUS
 62
     3
100
AcDbLine
 10
1462.92820323029
 20
1903.06482833941
 30
0.0
 11
1453.99999999999
 21
1903.06482833941
 31
0.0
  0
ARC
  5
50C
330
1F
100
AcDbEntity
  8
Ｓ_１_１
  6
CONTINUOUS
 62
     3
100
AcDbCircle
 10
1441.026729474409
 20
1910.00000000001
 30
0.0
 40
22.97327052558072
100
AcDbArc
 50
342.4294426979601
 51
17.57055730204007
  0
ARC
  5
50D
330
1F
100
AcDbEntity
  8
Ｓ_１_１
  6
CONTINUOUS
 62
     3
100
AcDbCircle
 10
1446.479658399215
 20
1923.061759246271
 30
0.0
 40
17.55248422601882
100
AcDbArc
 50
339.5711529511673
 51
356.532030226222
  0
ARC
  5
50E
330
1F
100
AcDbEntity
  8
Ｓ_１_１
  6
CONTINUOUS
 62
     3
100
AcDbCircle
 10
1446.479658399215
 20
1896.938240753749
 30
0.0
 40
17.55248422601882
100
AcDbArc
 50
3.467969773777771
 51
20.4288470488325
  0
LINE
  5
50F
330
1F
100
AcDbEntity
  8
Ｓ_１_１
  6
CONTINUOUS
 62
     3
100
AcDbLine
 10
1453.99999999999
 20
1895.00000000001
 30
0.0
 11
1450.99999999999
 21
1895.00000000001
 31
0.0
  0
LINE
  5
510
330
1F
100
AcDbEntity
  8
Ｓ_１_１
  6
CONTINUOUS
 62
     3
100
AcDbLine
 10
1453.99999999999
 20
1925.00000000001
 30
0.0
 11
1453.99999999999
 21
1895.00000000001
 31
0.0
  0
LINE
  5
511
330
1F
100
AcDbEntity
  8
Ｓ_１_１
  6
CONTINUOUS
 62
     3
100
AcDbLine
 10
1453.99999999999
 20
1925.00000000001
 30
0.0
 11
1450.99999999999
 21
1925.00000000001
 31
0.0
  0
LINE
  5
512
330
1F
100
AcDbEntity
  8
Ｓ_１_１
  6
CONTINUOUS
 62
     3
100
AcDbLine
 10
1434.99999999999
 20
1890.000000000009
 30
0.0
 11
1450.99999999999
 21
1890.000000000009
 31
0.0
  0
LINE
  5
513
330
1F
100
AcDbEntity
  8
Ｓ_１_１
  6
CONTINUOUS
 62
     3
100
AcDbLine
 10
1530.99999999999
 20
1937.50000000001
 30
0.0
 11
1450.99999999999
 21
1937.50000000001
 31
0.0
  0
LINE
  5
514
330
1F
100
AcDbEntity
  8
Ｓ_１_１
  6
CONTINUOUS
 62
     3
100
AcDbLine
 10
1479.99999999999
 20
1602.50000000001
 30
0.0
 11
1479.99999999999
 21
1937.50000000001
 31
0.0
  0
LINE
  5
515
330
1F
100
AcDbEntity
  8
Ｓ_１_１
  6
CONTINUOUS
 62
     3
100
AcDbLine
 10
1479.99999999999
 20
1937.50000000001
 30
0.0
 11
1479.99999999999
 21
1890.000000000009
 31
0.0
  0
LINE
  5
516
330
1F
100
AcDbEntity
  8
Ｓ_１_１
  6
CONTINUOUS
 62
     3
100
AcDbLine
 10
1094.99999999995
 20
1586.1227466582
 30
0.0
 11
1086.99999999995
 21
1586.1227466582
 31
0.0
  0
LINE
  5
517
330
1F
100
AcDbEntity
  8
Ｓ_１_１
  6
CONTINUOUS
 62
     3
100
AcDbLine
 10
1094.99999999995
 20
1574.7775318145
 30
0.0
 11
1086.99999999995
 21
1574.7775318145
 31
0.0
  0
LINE
  5
518
330
1F
100
AcDbEntity
  8
Ｓ_１_１
  6
CONTINUOUS
 62
     3
100
AcDbLine
 10
1087.99980717995
 20
1574.200039577201
 30
0.0
 11
1086.99994534875
 21
1574.777310085
 31
0.0
  0
LINE
  5
519
330
1F
100
AcDbEntity
  8
Ｓ_１_１
  6
CONTINUOUS
 62
     3
100
AcDbLine
 10
1087.99973966705
 20
1559.20003744
 30
0.0
 11
1086.99977211975
 21
1558.622705897
 31
0.0
  0
LINE
  5
51A
330
1F
100
AcDbEntity
  8
Ｓ_１_１
  6
CONTINUOUS
 62
     3
100
AcDbLine
 10
1087.99987391165
 20
1586.699804181201
 30
0.0
 11
1086.99990636435
 21
1586.1224726382
 31
0.0
  0
LINE
  5
51B
330
1F
100
AcDbEntity
  8
Ｓ_１_１
  6
CONTINUOUS
 62
     3
100
AcDbLine
 10
1094.99999999995
 20
1574.7775318145
 30
0.0
 11
1094.99999999995
 21
1586.1227466582
 31
0.0
  0
LINE
  5
51C
330
1F
100
AcDbEntity
  8
Ｓ_１_１
  6
CONTINUOUS
 62
     3
100
AcDbLine
 10
1098.24989818565
 20
1551.018181926901
 30
0.0
 11
1098.14491772315
 21
1551.2000134419
 31
0.0
  0
LINE
  5
51D
330
1F
100
AcDbEntity
  8
Ｓ_１_１
  6
CONTINUOUS
 62
     3
100
AcDbLine
 10
1098.24999999995
 20
1551.2001392364
 30
0.0
 11
1083.99999999995
 21
1551.2001392364
 31
0.0
  0
LINE
  5
51E
330
1F
100
AcDbEntity
  8
Ｓ_１_１
  6
CONTINUOUS
 62
     3
100
AcDbLine
 10
1098.24999999995
 20
1551.7001392364
 30
0.0
 11
1084.49999999995
 21
1551.7001392364
 31
0.0
  0
LINE
  5
51F
330
1F
100
AcDbEntity
  8
Ｓ_１_１
  6
CONTINUOUS
 62
     3
100
AcDbLine
 10
1098.24999999995
 20
1548.200017166101
 30
0.0
 11
1098.24999999995
 21
1551.7001392364
 31
0.0
  0
LINE
  5
520
330
1F
100
AcDbEntity
  8
Ｓ_１_１
  6
CONTINUOUS
 62
     3
100
AcDbLine
 10
1084.99976676805
 20
1554.7001029168
 30
0.0
 11
1084.49986334365
 21
1554.200199492301
 31
0.0
  0
LINE
  5
521
330
1F
100
AcDbEntity
  8
Ｓ_１_１
  6
CONTINUOUS
 62
     3
100
AcDbLine
 10
1084.99985308485
 20
1552.700057635201
 30
0.0
 11
1084.49973386845
 21
1553.200176851501
 31
0.0
  0
LINE
  5
522
330
1F
100
AcDbEntity
  8
Ｓ_１_１
  6
CONTINUOUS
 62
     3
100
AcDbLine
 10
1086.99999999995
 20
1554.700017166101
 30
0.0
 11
1084.99999999995
 21
1554.700017166101
 31
0.0
  0
LINE
  5
523
330
1F
100
AcDbEntity
  8
Ｓ_１_１
  6
CONTINUOUS
 62
     3
100
AcDbLine
 10
1086.99999999995
 20
1552.700017166101
 30
0.0
 11
1084.99999999995
 21
1552.700017166101
 31
0.0
  0
LINE
  5
524
330
1F
100
AcDbEntity
  8
Ｓ_１_１
  6
CONTINUOUS
 62
     3
100
AcDbLine
 10
1084.49999999995
 20
1553.200017166101
 30
0.0
 11
1084.49999999995
 21
1554.2001392364
 31
0.0
  0
LINE
  5
525
330
1F
100
AcDbEntity
  8
Ｓ_１_１
  6
CONTINUOUS
 62
     3
100
AcDbLine
 10
1084.49960443335
 20
1551.7000636127
 30
0.0
 11
1083.99965780835
 21
1551.2001170298
 31
0.0
  0
LINE
  5
526
330
1F
100
AcDbEntity
  8
Ｓ_１_１
  6
CONTINUOUS
 62
     3
100
AcDbLine
 10
1083.99999999995
 20
1544.2001392364
 30
0.0
 11
1083.99999999995
 21
1551.2001392364
 31
0.0
  0
LINE
  5
527
330
1F
100
AcDbEntity
  8
Ｓ_１_１
  6
CONTINUOUS
 62
     3
100
AcDbLine
 10
1084.49966242905
 20
1543.700198838
 30
0.0
 11
1083.99971580405
 21
1544.200145420801
 31
0.0
  0
LINE
  5
528
330
1F
100
AcDbEntity
  8
Ｓ_１_１
  6
CONTINUOUS
 62
     3
100
AcDbLine
 10
1084.49977639245
 20
1535.6998733194
 30
0.0
 11
1083.99982976745
 21
1535.1999267365
 31
0.0
  0
LINE
  5
529
330
1F
100
AcDbEntity
  8
Ｓ_１_１
  6
CONTINUOUS
 62
     3
100
AcDbLine
 10
1084.49999999995
 20
1535.700017166101
 30
0.0
 11
1084.49999999995
 21
1543.7001392364
 31
0.0
  0
LINE
  5
52A
330
1F
100
AcDbEntity
  8
Ｓ_１_１
  6
CONTINUOUS
 62
     3
100
AcDbLine
 10
1086.99985520795
 20
1524.7001573858
 30
0.0
 11
1084.00000307755
 21
1527.700009516301
 31
0.0
  0
LINE
  5
52B
330
1F
100
AcDbEntity
  8
Ｓ_１_１
  6
CONTINUOUS
 62
     3
100
AcDbLine
 10
1087.99999999995
 20
1559.2001392364
 30
0.0
 11
1087.99999999995
 21
1574.2001392364
 31
0.0
  0
LINE
  5
52C
330
1F
100
AcDbEntity
  8
Ｓ_１_１
  6
CONTINUOUS
 62
     3
100
AcDbLine
 10
1083.99999999995
 20
1527.700017166101
 30
0.0
 11
1083.99999999995
 21
1535.200017166101
 31
0.0
  0
LINE
  5
52D
330
1F
100
AcDbEntity
  8
Ｓ_１_１
  6
CONTINUOUS
 62
     3
100
AcDbLine
 10
1086.99999999995
 20
1574.7775318145
 30
0.0
 11
1086.99999999995
 21
1586.1227466582
 31
0.0
  0
LINE
  5
52E
330
1F
100
AcDbEntity
  8
Ｓ_１_１
  6
CONTINUOUS
 62
     3
100
AcDbLine
 10
1087.99999999995
 20
1524.2001392364
 30
0.0
 11
1087.99999999995
 21
1524.700017166101
 31
0.0
  0
LINE
  5
52F
330
1F
100
AcDbEntity
  8
Ｓ_１_１
  6
CONTINUOUS
 62
     3
100
AcDbLine
 10
1086.99999999995
 20
1551.7001392364
 30
0.0
 11
1086.99999999995
 21
1558.6227466582
 31
0.0
  0
LINE
  5
530
330
1F
100
AcDbEntity
  8
Ｓ_１_１
  6
CONTINUOUS
 62
     3
100
AcDbLine
 10
1089.499747964
 20
1603.6375685895
 30
0.0
 11
1087.8754201042
 21
1602.6997662086
 31
0.0
  0
ARC
  5
531
330
1F
100
AcDbEntity
  8
Ｓ_１_１
  6
CONTINUOUS
 62
     3
100
AcDbCircle
 10
1090.9067382813
 20
1598.270533580201
 30
0.0
 40
5.3672456741
100
AcDbArc
 50
55.61578019469954
 51
124.3840679472004
  0
LINE
  5
532
330
1F
100
AcDbEntity
  8
Ｓ_１_１
  6
CONTINUOUS
 62
     3
100
AcDbLine
 10
1091.47017496906
 20
1603.6375990098
 30
0.0
 11
1092.375158647528
 21
1605.205076720929
 31
0.0
  0
LINE
  5
533
330
1F
100
AcDbEntity
  8
Ｓ_１_１
  6
CONTINUOUS
 62
     3
100
AcDbLine
 10
1089.499747964
 20
1593.062431410499
 30
0.0
 11
1087.8754201042
 21
1594.0002337914
 31
0.0
  0
ARC
  5
534
330
1F
100
AcDbEntity
  8
Ｓ_１_１
  6
CONTINUOUS
 62
     3
100
AcDbCircle
 10
1090.9067382813
 20
1598.4294664198
 30
0.0
 40
5.3672456741
100
AcDbArc
 50
235.6159320527999
 51
304.3842198053006
  0
LINE
  5
535
330
1F
100
AcDbEntity
  8
Ｓ_１_１
  6
CONTINUOUS
 62
     3
100
AcDbLine
 10
1091.47017496906
 20
1593.0624009902
 30
0.0
 11
1092.375158647528
 21
1591.494923279072
 31
0.0
  0
LINE
  5
536
330
1F
100
AcDbEntity
  8
Ｓ_１_１
  6
CONTINUOUS
 62
     3
100
AcDbLine
 10
1091.668995648862
 20
1586.7001392364
 30
0.0
 11
1091.470174969055
 21
1593.0624009902
 31
0.0
  0
LINE
  5
537
330
1F
100
AcDbEntity
  8
Ｓ_１_１
  6
CONTINUOUS
 62
     3
100
AcDbLine
 10
1092.524995648862
 20
1586.7001392364
 30
0.0
 11
1092.326174969056
 21
1593.0624009902
 31
0.0
  0
LINE
  5
538
330
1F
100
AcDbEntity
  8
Ｓ_１_１
  6
CONTINUOUS
 62
     3
100
AcDbLine
 10
1087.8754882813
 20
1594.000036550211
 30
0.0
 11
1087.8754882813
 21
1602.6999769395
 31
0.0
  0
LINE
  5
539
330
1F
100
AcDbEntity
  8
Ｓ_１_１
  6
CONTINUOUS
 62
     3
100
AcDbLine
 10
1093.9377441406
 20
1594.00012153327
 30
0.0
 11
1093.9377441406
 21
1602.6999769395
 31
0.0
  0
LINE
  5
53A
330
1F
100
AcDbEntity
  8
Ｓ_１_１
  6
CONTINUOUS
 62
     3
100
AcDbLine
 10
1091.669835121951
 20
1610.026723902439
 30
0.0
 11
1091.470174969055
 21
1603.6375990098
 31
0.0
  0
LINE
  5
53B
330
1F
100
AcDbEntity
  8
Ｓ_１_１
  6
CONTINUOUS
 62
     3
100
AcDbLine
 10
1092.524999999999
 20
1609.999999999999
 30
0.0
 11
1092.326174969056
 21
1603.6375990098
 31
0.0
  0
LINE
  5
53C
330
1F
100
AcDbEntity
  8
Ｓ_１_１
  6
CONTINUOUS
 62
     3
100
AcDbLine
 10
719.99999999999
 20
1602.50000000001
 30
0.0
 11
799.99999999999
 21
1522.50000000001
 31
0.0
  0
LINE
  5
53D
330
1F
100
AcDbEntity
  8
Ｓ_１_１
  6
CONTINUOUS
 62
     3
100
AcDbLine
 10
737.0717967696787
 20
1923.856406460647
 30
0.0
 11
735.9999999999895
 21
1922.000000000158
 31
0.0
  0
LINE
  5
53E
330
1F
100
AcDbEntity
  8
Ｓ_１_１
  6
CONTINUOUS
 62
     3
100
AcDbLine
 10
737.0717967696569
 20
1923.85640646061
 30
0.0
 11
745.9999999999895
 21
1923.85640646061
 31
0.0
  0
LINE
  5
53F
330
1F
100
AcDbEntity
  8
Ｓ_１_１
  6
CONTINUOUS
 62
     3
100
AcDbLine
 10
737.0717967696787
 20
1896.143593539373
 30
0.0
 11
735.9999999999895
 21
1897.999999999862
 31
0.0
  0
LINE
  5
540
330
1F
100
AcDbEntity
  8
Ｓ_１_１
  6
CONTINUOUS
 62
     3
100
AcDbLine
 10
737.0717967696569
 20
1896.143593539409
 30
0.0
 11
745.9999999999895
 21
1896.143593539409
 31
0.0
  0
LINE
  5
541
330
1F
100
AcDbEntity
  8
Ｓ_１_１
  6
CONTINUOUS
 62
     3
100
AcDbLine
 10
735.9999999999895
 20
1922.000000000158
 30
0.0
 11
735.9999999999895
 21
1897.999999999862
 31
0.0
  0
LINE
  5
542
330
1F
100
AcDbEntity
  8
Ｓ_１_１
  6
CONTINUOUS
 62
     3
100
AcDbLine
 10
737.0717967696896
 20
1916.93517166061
 30
0.0
 11
745.9999999999895
 21
1916.93517166061
 31
0.0
  0
LINE
  5
543
330
1F
100
AcDbEntity
  8
Ｓ_１_１
  6
CONTINUOUS
 62
     3
100
AcDbLine
 10
737.0717967696896
 20
1903.06482833941
 30
0.0
 11
745.9999999999895
 21
1903.06482833941
 31
0.0
  0
ARC
  5
544
330
1F
100
AcDbEntity
  8
Ｓ_１_１
  6
CONTINUOUS
 62
     3
100
AcDbCircle
 10
758.9732705255706
 20
1910.00000000001
 30
0.0
 40
22.97327052558072
100
AcDbArc
 50
162.4294426979602
 51
197.57055730204
  0
ARC
  5
545
330
1F
100
AcDbEntity
  8
Ｓ_１_１
  6
CONTINUOUS
 62
     3
100
AcDbCircle
 10
753.5203416007648
 20
1923.061759246271
 30
0.0
 40
17.55248422601882
100
AcDbArc
 50
183.4679697737786
 51
200.4288470488326
  0
ARC
  5
546
330
1F
100
AcDbEntity
  8
Ｓ_１_１
  6
CONTINUOUS
 62
     3
100
AcDbCircle
 10
753.5203416007648
 20
1896.938240753749
 30
0.0
 40
17.55248422601882
100
AcDbArc
 50
159.5711529511675
 51
176.532030226223
  0
LINE
  5
547
330
1F
100
AcDbEntity
  8
Ｓ_１_１
  6
CONTINUOUS
 62
     3
100
AcDbLine
 10
745.9999999999895
 20
1895.00000000001
 30
0.0
 11
748.9999999999895
 21
1895.00000000001
 31
0.0
  0
LINE
  5
548
330
1F
100
AcDbEntity
  8
Ｓ_１_１
  6
CONTINUOUS
 62
     3
100
AcDbLine
 10
745.9999999999895
 20
1925.00000000001
 30
0.0
 11
745.9999999999895
 21
1895.00000000001
 31
0.0
  0
LINE
  5
549
330
1F
100
AcDbEntity
  8
Ｓ_１_１
  6
CONTINUOUS
 62
     3
100
AcDbLine
 10
745.9999999999895
 20
1925.00000000001
 30
0.0
 11
748.9999999999895
 21
1925.00000000001
 31
0.0
  0
LINE
  5
54A
330
1F
100
AcDbEntity
  8
Ｓ_１_１
  6
CONTINUOUS
 62
     3
100
AcDbLine
 10
764.9999999999895
 20
1890.000000000009
 30
0.0
 11
748.9999999999895
 21
1890.000000000009
 31
0.0
  0
LINE
  5
54B
330
1F
100
AcDbEntity
  8
Ｓ_１_１
  6
CONTINUOUS
 62
     3
100
AcDbLine
 10
668.9999999999895
 20
1937.50000000001
 30
0.0
 11
748.9999999999895
 21
1937.50000000001
 31
0.0
  0
LINE
  5
54C
330
1F
100
AcDbEntity
  8
Ｓ_１_１
  6
CONTINUOUS
 62
     3
100
AcDbLine
 10
719.99999999999
 20
1602.50000000001
 30
0.0
 11
719.9999999999905
 21
1937.50000000001
 31
0.0
  0
LINE
  5
54D
330
1F
100
AcDbEntity
  8
Ｓ_１_１
  6
CONTINUOUS
 62
     3
100
AcDbLine
 10
719.9999999999895
 20
1937.50000000001
 30
0.0
 11
719.9999999999895
 21
1890.000000000009
 31
0.0
  0
LINE
  5
54E
330
1F
100
AcDbEntity
  8
Ｓ_１_１
  6
CONTINUOUS
 62
     3
100
AcDbLine
 10
1087.99999999995
 20
1524.2001392364
 30
0.0
 11
1112.00000000003
 21
1524.2001392364
 31
0.0
  0
LINE
  5
54F
330
1F
100
AcDbEntity
  8
Ｓ_１_１
  6
CONTINUOUS
 62
     3
100
AcDbLine
 10
1086.99999542765
 20
1524.700017166101
 30
0.0
 11
1113.00000000003
 21
1524.700017166101
 31
0.0
  0
LINE
  5
550
330
1F
100
AcDbEntity
  8
Ｓ_１_１
  6
CONTINUOUS
 62
     3
100
AcDbLine
 10
1083.99999999995
 20
1527.700017166101
 30
0.0
 11
1116.00000000003
 21
1527.700017166101
 31
0.0
  0
LINE
  5
551
330
1F
100
AcDbEntity
  8
Ｓ_１_１
  6
CONTINUOUS
 62
     3
100
AcDbLine
 10
1083.99999999995
 20
1535.200017166101
 30
0.0
 11
1116.00000000003
 21
1535.200017166101
 31
0.0
  0
LINE
  5
552
330
1F
100
AcDbEntity
  8
Ｓ_１_１
  6
CONTINUOUS
 62
     3
100
AcDbLine
 10
1084.49999999995
 20
1535.700017166101
 30
0.0
 11
1115.50000000003
 21
1535.700017166101
 31
0.0
  0
LINE
  5
553
330
1F
100
AcDbEntity
  8
Ｓ_１_１
  6
CONTINUOUS
 62
     3
100
AcDbLine
 10
1084.49999999995
 20
1543.7001392364
 30
0.0
 11
1115.50000000003
 21
1543.7001392364
 31
0.0
  0
LINE
  5
554
330
1F
100
AcDbEntity
  8
Ｓ_１_１
  6
CONTINUOUS
 62
     3
100
AcDbLine
 10
1116.00000000003
 20
1544.2001392364
 30
0.0
 11
1083.99999999995
 21
1544.2001392364
 31
0.0
  0
LINE
  5
555
330
1F
100
AcDbEntity
  8
Ｓ_１_１
  6
CONTINUOUS
 62
     3
100
AcDbLine
 10
1098.24999999995
 20
1548.200017166101
 30
0.0
 11
1101.75000000003
 21
1548.200017166101
 31
0.0
  0
LINE
  5
556
330
1F
100
AcDbEntity
  8
Ｓ_１_１
  6
CONTINUOUS
 62
     3
100
AcDbLine
 10
1087.99999999995
 20
1559.2001392364
 30
0.0
 11
1112.00000000003
 21
1559.2001392364
 31
0.0
  0
LINE
  5
557
330
1F
100
AcDbEntity
  8
Ｓ_１_１
  6
CONTINUOUS
 62
     3
100
AcDbLine
 10
1086.99999999995
 20
1558.6227466582
 30
0.0
 11
1113.00000000003
 21
1558.6227466582
 31
0.0
  0
LINE
  5
558
330
1F
100
AcDbEntity
  8
Ｓ_１_１
  6
CONTINUOUS
 62
     3
100
AcDbLine
 10
1087.99999999995
 20
1574.2001392364
 30
0.0
 11
1112.00000000003
 21
1574.2001392364
 31
0.0
  0
ARC
  5
559
330
1F
100
AcDbEntity
  8
Ｓ_１_１
  6
CONTINUOUS
 62
     3
100
AcDbCircle
 10
1100.00000000003
 20
1596.139470291101
 30
0.0
 40
21.93943595890001
100
AcDbArc
 50
256.8265257460665
 51
283.1734742537195
  0
ARC
  5
55A
330
1F
100
AcDbEntity
  8
Ｓ_１_１
  6
CONTINUOUS
 62
     3
100
AcDbCircle
 10
1100.00000000003
 20
1564.760564041101
 30
0.0
 40
21.93943595890001
100
AcDbArc
 50
76.82653469000017
 51
103.1734742539336
  0
LINE
  5
55B
330
1F
100
AcDbEntity
  8
Ｓ_１_１
  6
CONTINUOUS
 62
     3
100
AcDbLine
 10
1087.99987391165
 20
1586.7001392364
 30
0.0
 11
1112.00000000003
 21
1586.7001392364
 31
0.0
  0
LINE
  5
55C
330
1F
100
AcDbEntity
  8
Ｓ_１_１
  6
CONTINUOUS
 62
     3
100
AcDbLine
 10
1092.375158647528
 20
1591.49492327907
 30
0.0
 11
1107.624841352451
 21
1591.49492327907
 31
0.0
  0
LINE
  5
55D
330
1F
100
AcDbEntity
  8
Ｓ_１_１
  6
CONTINUOUS
 62
     3
100
AcDbLine
 10
1089.499800653715
 20
1593.0624009902
 30
0.0
 11
1110.49999999998
 21
1593.0624009902
 31
0.0
  0
ARC
  5
55E
330
1F
100
AcDbEntity
  8
Ｓ_１_１
  6
CONTINUOUS
 62
     3
100
AcDbCircle
 10
1099.99999999998
 20
1613.1245347792
 30
0.0
 40
20.0621948242
100
AcDbArc
 50
252.4118278305568
 51
287.5878848725001
  0
ARC
  5
55F
330
1F
100
AcDbEntity
  8
Ｓ_１_１
  6
CONTINUOUS
 62
     3
100
AcDbCircle
 10
1099.99999999998
 20
1583.5754652208
 30
0.0
 40
20.0621948242
100
AcDbArc
 50
72.41211512749992
 51
107.5881721694434
  0
LINE
  5
560
330
1F
100
AcDbEntity
  8
Ｓ_１_１
  6
CONTINUOUS
 62
     3
100
AcDbLine
 10
1089.499747964
 20
1603.6375990098
 30
0.0
 11
1110.49999999998
 21
1603.6375990098
 31
0.0
  0
LINE
  5
561
330
1F
100
AcDbEntity
  8
Ｓ_１_１
  6
CONTINUOUS
 62
     3
100
AcDbLine
 10
1092.375158647528
 20
1605.20507672093
 30
0.0
 11
1107.624841352451
 21
1605.20507672093
 31
0.0
  0
ARC
  5
562
330
1F
100
AcDbEntity
  8
Ｓ_１_１
  6
CONTINUOUS
 62
     3
100
AcDbCircle
 10
1099.99999999999
 20
1902.50000000001
 30
0.0
 40
349.999999999999
100
AcDbArc
 50
272.4771185744829
 51
279.0665178542433
  0
ARC
  5
563
330
1F
100
AcDbEntity
  8
Ｓ_１_１
  6
CONTINUOUS
 62
     3
100
AcDbCircle
 10
1099.99999999999
 20
1902.50000000001
 30
0.0
 40
349.999999999999
100
AcDbArc
 50
283.6056003736875
 51
357.9532869023273
  0
LINE
  5
564
330
1F
100
AcDbEntity
  8
Ｓ_１_１
  6
CONTINUOUS
 62
     3
100
AcDbLine
 10
1399.99999999999
 20
1522.50000000001
 30
0.0
 11
1180.869521038134
 21
1522.50000000001
 31
0.0
  0
LINE
  5
565
330
1F
100
AcDbEntity
  8
Ｓ_１_１
  6
CONTINUOUS
 62
     3
100
AcDbLine
 10
1169.699580400529
 20
1522.50000000001
 30
0.0
 11
799.99999999999
 21
1522.50000000001
 31
0.0
  0
LINE
  5
566
330
1F
100
AcDbEntity
  8
Ｓ_１_１
  6
EXLTYPE2
 62
     1
100
AcDbLine
 10
1176.288566994861
 20
1517.374698125909
 30
0.0
 11
1176.19118353947
 21
1517.357526795249
 31
0.0
  0
LINE
  5
567
330
1F
100
AcDbEntity
  8
Ｓ_１_１
  6
EXLTYPE2
 62
     1
100
AcDbLine
 10
1176.38595045025
 20
1517.391869456569
 30
0.0
 11
1176.19118353947
 21
1517.357526795249
 31
0.0
  0
LINE
  5
568
330
1F
100
AcDbEntity
  8
Ｓ_１_１
  6
EXLTYPE2
 62
     1
100
AcDbLine
 10
1175.644709796426
 20
1519.292145907305
 30
0.0
 11
1175.843986202629
 21
1519.327283714336
 31
0.0
  0
LINE
  5
569
330
1F
100
AcDbEntity
  8
Ｓ_１_１
  6
EXLTYPE2
 62
     1
100
AcDbLine
 10
1411.39999999999
 20
1910.00000000001
 30
0.0
 11
1468.39999999999
 21
1910.00000000001
 31
0.0
  0
LINE
  5
56A
330
1F
100
AcDbEntity
  8
Ｓ_１_１
  6
EXLTYPE2
 62
     1
100
AcDbLine
 10
788.5999999999899
 20
1910.00000000001
 30
0.0
 11
731.5999999999899
 21
1910.00000000001
 31
0.0
  0
LINE
  5
56B
330
1F
100
AcDbEntity
  8
Ｓ_１_１
  6
EXLTYPE2
 62
     1
100
AcDbLine
 10
786.6199999999903
 20
1597.50000000001
 30
0.0
 11
834.1399999999903
 21
1597.50000000001
 31
0.0
  0
LINE
  5
56C
330
1F
100
AcDbEntity
  8
Ｓ_１_１
  6
EXLTYPE2
 62
     1
100
AcDbLine
 10
809.9999999999895
 20
1576.02000000001
 30
0.0
 11
809.9999999999895
 21
1621.74000000001
 31
0.0
  0
LINE
  5
56D
330
1F
100
AcDbEntity
  8
Ｓ_１_１
  6
EXLTYPE2
 62
     1
100
AcDbLine
 10
1413.379999999988
 20
1597.500000000009
 30
0.0
 11
1365.859999999987
 21
1597.500000000009
 31
0.0
  0
LINE
  5
56E
330
1F
100
AcDbEntity
  8
Ｓ_１_１
  6
EXLTYPE2
 62
     1
100
AcDbLine
 10
1389.999999999988
 20
1576.02000000001
 30
0.0
 11
1389.999999999988
 21
1621.740000000009
 31
0.0
  0
LINE
  5
56F
330
1F
100
AcDbEntity
  8
Ｓ_１_１
  6
CONTINUOUS
 62
     3
100
AcDbLine
 10
722.9999999999895
 20
1603.74264068713
 30
0.0
 11
722.9999999999905
 21
1937.50000000001
 31
0.0
  0
LINE
  5
570
330
1F
100
AcDbEntity
  8
Ｓ_１_１
  6
CONTINUOUS
 62
     3
100
AcDbLine
 10
722.9999999999895
 20
1603.74264068713
 30
0.0
 11
801.2426406871091
 21
1525.50000000001
 31
0.0
  0
LINE
  5
571
330
1F
100
AcDbEntity
  8
Ｓ_１_１
  6
CONTINUOUS
 62
     3
100
AcDbLine
 10
799.99999999999
 20
1522.50000000001
 30
0.0
 11
801.24264068711
 21
1525.50000000001
 31
0.0
  0
LINE
  5
572
330
1F
100
AcDbEntity
  8
Ｓ_１_１
  6
CONTINUOUS
 62
     3
100
AcDbLine
 10
722.99999999999
 20
1603.74264068711
 30
0.0
 11
719.99999999999
 21
1602.50000000001
 31
0.0
  0
LINE
  5
573
330
1F
100
AcDbEntity
  8
Ｓ_１_１
  6
CONTINUOUS
 62
     3
100
AcDbLine
 10
1476.99999999999
 20
1603.742640687129
 30
0.0
 11
1398.75735931287
 21
1525.50000000001
 31
0.0
  0
LINE
  5
574
330
1F
100
AcDbEntity
  8
Ｓ_１_１
  6
CONTINUOUS
 62
     3
100
AcDbLine
 10
1476.99999999999
 20
1603.742640687129
 30
0.0
 11
1476.99999999999
 21
1937.50000000001
 31
0.0
  0
LINE
  5
575
330
1F
100
AcDbEntity
  8
Ｓ_１_１
  6
CONTINUOUS
 62
     3
100
AcDbLine
 10
1476.99999999999
 20
1603.74264068711
 30
0.0
 11
1479.99999999999
 21
1602.50000000001
 31
0.0
  0
LINE
  5
576
330
1F
100
AcDbEntity
  8
Ｓ_１_１
  6
CONTINUOUS
 62
     3
100
AcDbLine
 10
1398.75735931287
 20
1525.50000000001
 30
0.0
 11
1399.99999999999
 21
1522.50000000001
 31
0.0
  0
LINE
  5
577
330
1F
100
AcDbEntity
  8
Ｓ_１_１
  6
CONTINUOUS
 62
     3
100
AcDbLine
 10
1086.200012593767
 20
1525.50000000001
 30
0.0
 11
801.2426406871091
 21
1525.50000000001
 31
0.0
  0
LINE
  5
578
330
1F
100
AcDbEntity
  8
Ｓ_１_１
  6
CONTINUOUS
 62
     3
100
AcDbLine
 10
1169.170599458404
 20
1525.50000000001
 30
0.0
 11
1113.799987406213
 21
1525.50000000001
 31
0.0
  0
LINE
  5
579
330
1F
100
AcDbEntity
  8
Ｓ_１_１
  6
CONTINUOUS
 62
     3
100
AcDbLine
 10
1398.75735931287
 20
1525.50000000001
 30
0.0
 11
1180.340540096009
 21
1525.50000000001
 31
0.0
  0
ARC
  5
57A
330
1F
100
AcDbEntity
  8
Ｓ_１_１
  6
CONTINUOUS
 62
     3
100
AcDbCircle
 10
1099.99999999999
 20
1902.50000000001
 30
0.0
 40
349.999999999999
100
AcDbArc
 50
182.0467130976727
 51
267.5228814255165
  0
CIRCLE
  5
57B
330
1F
100
AcDbEntity
  8
Ｓ_１_１
  6
CONTINUOUS
 62
     3
100
AcDbCircle
 10
1389.99999999999
 20
1597.50000000001
 30
0.0
 40
12.0
  0
CIRCLE
  5
57C
330
1F
100
AcDbEntity
  8
Ｓ_１_１
  6
CONTINUOUS
 62
     3
100
AcDbCircle
 10
1389.99999999999
 20
1597.50000000001
 30
0.0
 40
9.998499887483153
  0
CIRCLE
  5
57D
330
1F
100
AcDbEntity
  8
Ｓ_１_１
  6
CONTINUOUS
 62
     3
100
AcDbCircle
 10
809.99999999999
 20
1597.50000000001
 30
0.0
 40
12.0
  0
CIRCLE
  5
57E
330
1F
100
AcDbEntity
  8
Ｓ_１_１
  6
CONTINUOUS
 62
     3
100
AcDbCircle
 10
809.99999999999
 20
1597.50000000001
 30
0.0
 40
9.998499887483153
  0
CIRCLE
  5
57F
330
1F
100
AcDbEntity
  8
Ｓ_１_１
  6
CONTINUOUS
 62
     3
100
AcDbCircle
 10
1099.99999999999
 20
1745.00000000001
 30
0.0
 40
10.0
  0
CIRCLE
  5
580
330
1F
100
AcDbEntity
  8
Ｓ_１_１
  6
CONTINUOUS
 62
     3
100
AcDbCircle
 10
1099.99999999999
 20
1745.00000000001
 30
0.0
 40
8.765842800324512
  0
LINE
  5
581
330
1F
100
AcDbEntity
  8
Ｓ_１_１
  6
CONTINUOUS
 62
     3
100
AcDbLine
 10
703.9999999999905
 20
1615.00000000001
 30
0.0
 11
719.99999999999
 21
1615.00000000001
 31
0.0
  0
LINE
  5
582
330
1F
100
AcDbEntity
  8
Ｓ_１_１
  6
CONTINUOUS
 62
     3
100
AcDbLine
 10
700.9999999999905
 20
1650.00000000001
 30
0.0
 11
703.9999999999905
 21
1650.00000000001
 31
0.0
  0
LINE
  5
583
330
1F
100
AcDbEntity
  8
Ｓ_１_１
  6
CONTINUOUS
 62
     3
100
AcDbLine
 10
700.9999999999905
 20
1620.00000000001
 30
0.0
 11
700.9999999999905
 21
1650.00000000001
 31
0.0
  0
LINE
  5
584
330
1F
100
AcDbEntity
  8
Ｓ_１_１
  6
CONTINUOUS
 62
     3
100
AcDbLine
 10
700.9999999999905
 20
1620.00000000001
 30
0.0
 11
703.9999999999905
 21
1620.00000000001
 31
0.0
  0
LINE
  5
585
330
1F
100
AcDbEntity
  8
Ｓ_１_１
  6
CONTINUOUS
 62
     3
100
AcDbLine
 10
692.0717967696792
 20
1621.143593539373
 30
0.0
 11
690.9999999999895
 21
1622.999999999863
 31
0.0
  0
LINE
  5
586
330
1F
100
AcDbEntity
  8
Ｓ_１_１
  6
CONTINUOUS
 62
     3
100
AcDbLine
 10
692.0717967696578
 20
1621.14359353941
 30
0.0
 11
700.9999999999905
 21
1621.14359353941
 31
0.0
  0
LINE
  5
587
330
1F
100
AcDbEntity
  8
Ｓ_１_１
  6
CONTINUOUS
 62
     3
100
AcDbLine
 10
692.0717967696792
 20
1648.856406460648
 30
0.0
 11
690.9999999999895
 21
1647.000000000158
 31
0.0
  0
LINE
  5
588
330
1F
100
AcDbEntity
  8
Ｓ_１_１
  6
CONTINUOUS
 62
     3
100
AcDbLine
 10
692.0717967696578
 20
1648.85640646061
 30
0.0
 11
700.9999999999905
 21
1648.85640646061
 31
0.0
  0
LINE
  5
589
330
1F
100
AcDbEntity
  8
Ｓ_１_１
  6
CONTINUOUS
 62
     3
100
AcDbLine
 10
690.9999999999895
 20
1622.999999999863
 30
0.0
 11
690.9999999999905
 21
1647.000000000158
 31
0.0
  0
LINE
  5
58A
330
1F
100
AcDbEntity
  8
Ｓ_１_１
  6
CONTINUOUS
 62
     3
100
AcDbLine
 10
692.0717967696905
 20
1628.064828339411
 30
0.0
 11
700.9999999999905
 21
1628.064828339411
 31
0.0
  0
LINE
  5
58B
330
1F
100
AcDbEntity
  8
Ｓ_１_１
  6
CONTINUOUS
 62
     3
100
AcDbLine
 10
692.0717967696905
 20
1641.93517166061
 30
0.0
 11
700.9999999999905
 21
1641.93517166061
 31
0.0
  0
ARC
  5
58C
330
1F
100
AcDbEntity
  8
Ｓ_１_１
  6
CONTINUOUS
 62
     3
100
AcDbCircle
 10
713.973270525571
 20
1635.00000000001
 30
0.0
 40
22.97327052558072
100
AcDbArc
 50
162.4294426979602
 51
197.57055730204
  0
ARC
  5
58D
330
1F
100
AcDbEntity
  8
Ｓ_１_１
  6
CONTINUOUS
 62
     3
100
AcDbCircle
 10
708.5203416007648
 20
1621.93824075375
 30
0.0
 40
17.55248422601882
100
AcDbArc
 50
159.5711529511675
 51
176.5320302262215
  0
ARC
  5
58E
330
1F
100
AcDbEntity
  8
Ｓ_１_１
  6
CONTINUOUS
 62
     3
100
AcDbCircle
 10
708.5203416007648
 20
1648.061759246271
 30
0.0
 40
17.55248422601882
100
AcDbArc
 50
183.4679697737786
 51
200.4288470488326
  0
LINE
  5
58F
330
1F
100
AcDbEntity
  8
Ｓ_１_１
  6
CONTINUOUS
 62
     3
100
AcDbLine
 10
703.9999999999905
 20
1925.000000000015
 30
0.0
 11
719.9999999999905
 21
1925.000000000015
 31
0.0
  0
LINE
  5
590
330
1F
100
AcDbEntity
  8
Ｓ_１_１
  6
CONTINUOUS
 62
     3
100
AcDbLine
 10
700.9999999999905
 20
1890.000000000015
 30
0.0
 11
703.9999999999905
 21
1890.000000000015
 31
0.0
  0
LINE
  5
591
330
1F
100
AcDbEntity
  8
Ｓ_１_１
  6
CONTINUOUS
 62
     3
100
AcDbLine
 10
700.9999999999905
 20
1920.000000000015
 30
0.0
 11
700.9999999999905
 21
1890.000000000015
 31
0.0
  0
LINE
  5
592
330
1F
100
AcDbEntity
  8
Ｓ_１_１
  6
CONTINUOUS
 62
     3
100
AcDbLine
 10
700.9999999999905
 20
1920.000000000015
 30
0.0
 11
703.9999999999905
 21
1920.000000000015
 31
0.0
  0
LINE
  5
593
330
1F
100
AcDbEntity
  8
Ｓ_１_１
  6
CONTINUOUS
 62
     3
100
AcDbLine
 10
692.0717967696796
 20
1918.856406460652
 30
0.0
 11
690.99999999999
 21
1917.000000000162
 31
0.0
  0
LINE
  5
594
330
1F
100
AcDbEntity
  8
Ｓ_１_１
  6
CONTINUOUS
 62
     3
100
AcDbLine
 10
692.0717967696578
 20
1918.856406460615
 30
0.0
 11
700.9999999999905
 21
1918.856406460615
 31
0.0
  0
LINE
  5
595
330
1F
100
AcDbEntity
  8
Ｓ_１_１
  6
CONTINUOUS
 62
     3
100
AcDbLine
 10
692.0717967696796
 20
1891.143593539378
 30
0.0
 11
690.99999999999
 21
1892.999999999868
 31
0.0
  0
LINE
  5
596
330
1F
100
AcDbEntity
  8
Ｓ_１_１
  6
CONTINUOUS
 62
     3
100
AcDbLine
 10
692.0717967696578
 20
1891.143593539414
 30
0.0
 11
700.9999999999905
 21
1891.143593539414
 31
0.0
  0
LINE
  5
597
330
1F
100
AcDbEntity
  8
Ｓ_１_１
  6
CONTINUOUS
 62
     3
100
AcDbLine
 10
690.99999999999
 20
1917.000000000162
 30
0.0
 11
690.9999999999905
 21
1892.999999999867
 31
0.0
  0
LINE
  5
598
330
1F
100
AcDbEntity
  8
Ｓ_１_１
  6
CONTINUOUS
 62
     3
100
AcDbLine
 10
692.0717967696905
 20
1911.935171660615
 30
0.0
 11
700.9999999999905
 21
1911.935171660615
 31
0.0
  0
LINE
  5
599
330
1F
100
AcDbEntity
  8
Ｓ_１_１
  6
CONTINUOUS
 62
     3
100
AcDbLine
 10
692.0717967696905
 20
1898.064828339415
 30
0.0
 11
700.9999999999905
 21
1898.064828339415
 31
0.0
  0
ARC
  5
59A
330
1F
100
AcDbEntity
  8
Ｓ_１_１
  6
CONTINUOUS
 62
     3
100
AcDbCircle
 10
713.9732705255715
 20
1905.000000000015
 30
0.0
 40
22.97327052558072
100
AcDbArc
 50
162.4294426979602
 51
197.57055730204
  0
ARC
  5
59B
330
1F
100
AcDbEntity
  8
Ｓ_１_１
  6
CONTINUOUS
 62
     3
100
AcDbCircle
 10
708.5203416007653
 20
1918.061759246275
 30
0.0
 40
17.55248422601882
100
AcDbArc
 50
183.4679697737786
 51
200.4288470488326
  0
ARC
  5
59C
330
1F
100
AcDbEntity
  8
Ｓ_１_１
  6
CONTINUOUS
 62
     3
100
AcDbCircle
 10
708.5203416007653
 20
1891.938240753754
 30
0.0
 40
17.55248422601882
100
AcDbArc
 50
159.5711529511675
 51
176.5320302262215
  0
LINE
  5
59D
330
1F
100
AcDbEntity
  8
Ｓ_１_１
  6
EXLTYPE2
 62
     1
100
AcDbLine
 10
685.5999999999908
 20
1905.000000000015
 30
0.0
 11
759.1999999999903
 21
1905.000000000015
 31
0.0
  0
LINE
  5
59E
330
1F
100
AcDbEntity
  8
Ｓ_１_１
  6
EXLTYPE2
 62
     1
100
AcDbLine
 10
685.5999999999908
 20
1635.00000000001
 30
0.0
 11
759.1999999999903
 21
1635.00000000001
 31
0.0
  0
LINE
  5
59F
330
1F
100
AcDbEntity
  8
Ｓ_１_１
  6
CONTINUOUS
 62
     3
100
AcDbLine
 10
703.9999999999905
 20
1925.000000000015
 30
0.0
 11
703.9999999999905
 21
1865.000000000011
 31
0.0
  0
LINE
  5
5A0
330
1F
100
AcDbEntity
  8
Ｓ_１_１
  6
CONTINUOUS
 62
     3
100
AcDbLine
 10
703.9999999999905
 20
1615.00000000001
 30
0.0
 11
703.9999999999905
 21
1675.00000000001
 31
0.0
  0
LINE
  5
5A1
330
1F
100
AcDbEntity
  8
Ｓ_１_１
  6
CONTINUOUS
 62
     3
100
AcDbLine
 10
703.9999999999905
 20
1735.000000000009
 30
0.0
 11
719.99999999999
 21
1735.000000000009
 31
0.0
  0
LINE
  5
5A2
330
1F
100
AcDbEntity
  8
Ｓ_１_１
  6
CONTINUOUS
 62
     3
100
AcDbLine
 10
700.9999999999905
 20
1700.000000000009
 30
0.0
 11
703.9999999999905
 21
1700.000000000009
 31
0.0
  0
LINE
  5
5A3
330
1F
100
AcDbEntity
  8
Ｓ_１_１
  6
CONTINUOUS
 62
     3
100
AcDbLine
 10
700.9999999999905
 20
1730.000000000009
 30
0.0
 11
700.9999999999905
 21
1700.000000000009
 31
0.0
  0
LINE
  5
5A4
330
1F
100
AcDbEntity
  8
Ｓ_１_１
  6
CONTINUOUS
 62
     3
100
AcDbLine
 10
700.9999999999905
 20
1730.000000000009
 30
0.0
 11
703.9999999999905
 21
1730.000000000009
 31
0.0
  0
LINE
  5
5A5
330
1F
100
AcDbEntity
  8
Ｓ_１_１
  6
CONTINUOUS
 62
     3
100
AcDbLine
 10
692.0717967696792
 20
1728.856406460647
 30
0.0
 11
690.9999999999895
 21
1727.000000000157
 31
0.0
  0
LINE
  5
5A6
330
1F
100
AcDbEntity
  8
Ｓ_１_１
  6
CONTINUOUS
 62
     3
100
AcDbLine
 10
692.0717967696578
 20
1728.856406460609
 30
0.0
 11
700.9999999999905
 21
1728.856406460609
 31
0.0
  0
LINE
  5
5A7
330
1F
100
AcDbEntity
  8
Ｓ_１_１
  6
CONTINUOUS
 62
     3
100
AcDbLine
 10
692.0717967696792
 20
1701.143593539372
 30
0.0
 11
690.9999999999895
 21
1702.999999999862
 31
0.0
  0
LINE
  5
5A8
330
1F
100
AcDbEntity
  8
Ｓ_１_１
  6
CONTINUOUS
 62
     3
100
AcDbLine
 10
692.0717967696578
 20
1701.14359353941
 30
0.0
 11
700.9999999999905
 21
1701.14359353941
 31
0.0
  0
LINE
  5
5A9
330
1F
100
AcDbEntity
  8
Ｓ_１_１
  6
CONTINUOUS
 62
     3
100
AcDbLine
 10
690.9999999999895
 20
1727.000000000157
 30
0.0
 11
690.9999999999905
 21
1702.999999999862
 31
0.0
  0
LINE
  5
5AA
330
1F
100
AcDbEntity
  8
Ｓ_１_１
  6
CONTINUOUS
 62
     3
100
AcDbLine
 10
692.0717967696905
 20
1721.935171660609
 30
0.0
 11
700.9999999999905
 21
1721.935171660609
 31
0.0
  0
LINE
  5
5AB
330
1F
100
AcDbEntity
  8
Ｓ_１_１
  6
CONTINUOUS
 62
     3
100
AcDbLine
 10
692.0717967696905
 20
1708.064828339409
 30
0.0
 11
700.9999999999905
 21
1708.064828339409
 31
0.0
  0
ARC
  5
5AC
330
1F
100
AcDbEntity
  8
Ｓ_１_１
  6
CONTINUOUS
 62
     3
100
AcDbCircle
 10
713.973270525571
 20
1715.000000000009
 30
0.0
 40
22.97327052558072
100
AcDbArc
 50
162.4294426979602
 51
197.57055730204
  0
ARC
  5
5AD
330
1F
100
AcDbEntity
  8
Ｓ_１_１
  6
CONTINUOUS
 62
     3
100
AcDbCircle
 10
708.5203416007648
 20
1728.06175924627
 30
0.0
 40
17.55248422601882
100
AcDbArc
 50
183.4679697737786
 51
200.4288470488326
  0
ARC
  5
5AE
330
1F
100
AcDbEntity
  8
Ｓ_１_１
  6
CONTINUOUS
 62
     3
100
AcDbCircle
 10
708.5203416007648
 20
1701.938240753749
 30
0.0
 40
17.55248422601882
100
AcDbArc
 50
159.5711529511675
 51
176.5320302262215
  0
LINE
  5
5AF
330
1F
100
AcDbEntity
  8
Ｓ_１_１
  6
EXLTYPE2
 62
     1
100
AcDbLine
 10
685.5999999999908
 20
1715.000000000009
 30
0.0
 11
759.1999999999903
 21
1715.000000000009
 31
0.0
  0
LINE
  5
5B0
330
1F
100
AcDbEntity
  8
Ｓ_１_１
  6
CONTINUOUS
 62
     3
100
AcDbLine
 10
703.9999999999905
 20
1735.000000000009
 30
0.0
 11
703.9999999999905
 21
1675.00000000001
 31
0.0
  0
LINE
  5
5B1
330
1F
100
AcDbEntity
  8
Ｓ_１_１
  6
CONTINUOUS
 62
     3
100
AcDbLine
 10
703.9999999999905
 20
1805.000000000008
 30
0.0
 11
719.99999999999
 21
1805.000000000007
 31
0.0
  0
LINE
  5
5B2
330
1F
100
AcDbEntity
  8
Ｓ_１_１
  6
CONTINUOUS
 62
     3
100
AcDbLine
 10
700.9999999999905
 20
1840.000000000007
 30
0.0
 11
703.9999999999905
 21
1840.000000000007
 31
0.0
  0
LINE
  5
5B3
330
1F
100
AcDbEntity
  8
Ｓ_１_１
  6
CONTINUOUS
 62
     3
100
AcDbLine
 10
700.9999999999905
 20
1810.000000000007
 30
0.0
 11
700.9999999999905
 21
1840.000000000007
 31
0.0
  0
LINE
  5
5B4
330
1F
100
AcDbEntity
  8
Ｓ_１_１
  6
CONTINUOUS
 62
     3
100
AcDbLine
 10
700.9999999999905
 20
1810.000000000007
 30
0.0
 11
703.9999999999905
 21
1810.000000000007
 31
0.0
  0
LINE
  5
5B5
330
1F
100
AcDbEntity
  8
Ｓ_１_１
  6
CONTINUOUS
 62
     3
100
AcDbLine
 10
692.0717967696792
 20
1811.14359353937
 30
0.0
 11
690.9999999999895
 21
1812.99999999986
 31
0.0
  0
LINE
  5
5B6
330
1F
100
AcDbEntity
  8
Ｓ_１_１
  6
CONTINUOUS
 62
     3
100
AcDbLine
 10
692.0717967696578
 20
1811.143593539408
 30
0.0
 11
700.9999999999905
 21
1811.143593539408
 31
0.0
  0
LINE
  5
5B7
330
1F
100
AcDbEntity
  8
Ｓ_１_１
  6
CONTINUOUS
 62
     3
100
AcDbLine
 10
692.0717967696796
 20
1838.856406460645
 30
0.0
 11
690.99999999999
 21
1837.000000000155
 31
0.0
  0
LINE
  5
5B8
330
1F
100
AcDbEntity
  8
Ｓ_１_１
  6
CONTINUOUS
 62
     3
100
AcDbLine
 10
692.0717967696578
 20
1838.856406460607
 30
0.0
 11
700.9999999999905
 21
1838.856406460607
 31
0.0
  0
LINE
  5
5B9
330
1F
100
AcDbEntity
  8
Ｓ_１_１
  6
CONTINUOUS
 62
     3
100
AcDbLine
 10
690.9999999999895
 20
1812.99999999986
 30
0.0
 11
690.9999999999905
 21
1837.000000000156
 31
0.0
  0
LINE
  5
5BA
330
1F
100
AcDbEntity
  8
Ｓ_１_１
  6
CONTINUOUS
 62
     3
100
AcDbLine
 10
692.0717967696905
 20
1818.064828339407
 30
0.0
 11
700.9999999999905
 21
1818.064828339407
 31
0.0
  0
LINE
  5
5BB
330
1F
100
AcDbEntity
  8
Ｓ_１_１
  6
CONTINUOUS
 62
     3
100
AcDbLine
 10
692.0717967696905
 20
1831.935171660607
 30
0.0
 11
700.9999999999905
 21
1831.935171660607
 31
0.0
  0
ARC
  5
5BC
330
1F
100
AcDbEntity
  8
Ｓ_１_１
  6
CONTINUOUS
 62
     3
100
AcDbCircle
 10
713.9732705255715
 20
1825.000000000007
 30
0.0
 40
22.97327052558072
100
AcDbArc
 50
162.4294426979602
 51
197.57055730204
  0
ARC
  5
5BD
330
1F
100
AcDbEntity
  8
Ｓ_１_１
  6
CONTINUOUS
 62
     3
100
AcDbCircle
 10
708.5203416007648
 20
1811.938240753747
 30
0.0
 40
17.55248422601882
100
AcDbArc
 50
159.5711529511675
 51
176.5320302262215
  0
ARC
  5
5BE
330
1F
100
AcDbEntity
  8
Ｓ_１_１
  6
CONTINUOUS
 62
     3
100
AcDbCircle
 10
708.5203416007653
 20
1838.061759246268
 30
0.0
 40
17.55248422601882
100
AcDbArc
 50
183.4679697737786
 51
200.4288470488326
  0
LINE
  5
5BF
330
1F
100
AcDbEntity
  8
Ｓ_１_１
  6
EXLTYPE2
 62
     1
100
AcDbLine
 10
685.5999999999908
 20
1825.000000000007
 30
0.0
 11
759.1999999999903
 21
1825.000000000007
 31
0.0
  0
LINE
  5
5C0
330
1F
100
AcDbEntity
  8
Ｓ_１_１
  6
CONTINUOUS
 62
     3
100
AcDbLine
 10
703.9999999999905
 20
1805.000000000008
 30
0.0
 11
703.9999999999905
 21
1865.000000000011
 31
0.0
  0
LINE
  5
5C1
330
1F
100
AcDbEntity
  8
Ｓ_１_１
  6
CONTINUOUS
 62
     3
100
AcDbLine
 10
1495.99999999999
 20
1615.00000000001
 30
0.0
 11
1479.99999999999
 21
1615.00000000001
 31
0.0
  0
LINE
  5
5C2
330
1F
100
AcDbEntity
  8
Ｓ_１_１
  6
CONTINUOUS
 62
     3
100
AcDbLine
 10
1498.99999999999
 20
1650.00000000001
 30
0.0
 11
1495.99999999999
 21
1650.00000000001
 31
0.0
  0
LINE
  5
5C3
330
1F
100
AcDbEntity
  8
Ｓ_１_１
  6
CONTINUOUS
 62
     3
100
AcDbLine
 10
1498.99999999999
 20
1620.00000000001
 30
0.0
 11
1498.99999999999
 21
1650.00000000001
 31
0.0
  0
LINE
  5
5C4
330
1F
100
AcDbEntity
  8
Ｓ_１_１
  6
CONTINUOUS
 62
     3
100
AcDbLine
 10
1498.99999999999
 20
1620.00000000001
 30
0.0
 11
1495.99999999999
 21
1620.00000000001
 31
0.0
  0
LINE
  5
5C5
330
1F
100
AcDbEntity
  8
Ｓ_１_１
  6
CONTINUOUS
 62
     3
100
AcDbLine
 10
1507.928203230301
 20
1621.143593539373
 30
0.0
 11
1508.99999999999
 21
1622.999999999862
 31
0.0
  0
LINE
  5
5C6
330
1F
100
AcDbEntity
  8
Ｓ_１_１
  6
CONTINUOUS
 62
     3
100
AcDbLine
 10
1507.928203230323
 20
1621.14359353941
 30
0.0
 11
1498.99999999999
 21
1621.14359353941
 31
0.0
  0
LINE
  5
5C7
330
1F
100
AcDbEntity
  8
Ｓ_１_１
  6
CONTINUOUS
 62
     3
100
AcDbLine
 10
1507.928203230301
 20
1648.856406460647
 30
0.0
 11
1508.99999999999
 21
1647.000000000158
 31
0.0
  0
LINE
  5
5C8
330
1F
100
AcDbEntity
  8
Ｓ_１_１
  6
CONTINUOUS
 62
     3
100
AcDbLine
 10
1507.928203230323
 20
1648.85640646061
 30
0.0
 11
1498.99999999999
 21
1648.85640646061
 31
0.0
  0
LINE
  5
5C9
330
1F
100
AcDbEntity
  8
Ｓ_１_１
  6
CONTINUOUS
 62
     3
100
AcDbLine
 10
1508.99999999999
 20
1622.999999999862
 30
0.0
 11
1508.99999999999
 21
1647.000000000158
 31
0.0
  0
LINE
  5
5CA
330
1F
100
AcDbEntity
  8
Ｓ_１_１
  6
CONTINUOUS
 62
     3
100
AcDbLine
 10
1507.92820323029
 20
1628.06482833941
 30
0.0
 11
1498.99999999999
 21
1628.06482833941
 31
0.0
  0
LINE
  5
5CB
330
1F
100
AcDbEntity
  8
Ｓ_１_１
  6
CONTINUOUS
 62
     3
100
AcDbLine
 10
1507.92820323029
 20
1641.93517166061
 30
0.0
 11
1498.99999999999
 21
1641.93517166061
 31
0.0
  0
ARC
  5
5CC
330
1F
100
AcDbEntity
  8
Ｓ_１_１
  6
CONTINUOUS
 62
     3
100
AcDbCircle
 10
1486.026729474409
 20
1635.00000000001
 30
0.0
 40
22.97327052558072
100
AcDbArc
 50
342.4294426979601
 51
17.57055730204007
  0
ARC
  5
5CD
330
1F
100
AcDbEntity
  8
Ｓ_１_１
  6
CONTINUOUS
 62
     3
100
AcDbCircle
 10
1491.479658399215
 20
1621.938240753749
 30
0.0
 40
17.55248422601882
100
AcDbArc
 50
3.467969773778572
 51
20.4288470488325
  0
ARC
  5
5CE
330
1F
100
AcDbEntity
  8
Ｓ_１_１
  6
CONTINUOUS
 62
     3
100
AcDbCircle
 10
1491.479658399215
 20
1648.061759246271
 30
0.0
 40
17.55248422601882
100
AcDbArc
 50
339.5711529511675
 51
356.5320302262215
  0
LINE
  5
5CF
330
1F
100
AcDbEntity
  8
Ｓ_１_１
  6
CONTINUOUS
 62
     3
100
AcDbLine
 10
1495.99999999999
 20
1925.000000000015
 30
0.0
 11
1479.99999999999
 21
1925.000000000014
 31
0.0
  0
LINE
  5
5D0
330
1F
100
AcDbEntity
  8
Ｓ_１_１
  6
CONTINUOUS
 62
     3
100
AcDbLine
 10
1498.99999999999
 20
1890.000000000015
 30
0.0
 11
1495.99999999999
 21
1890.000000000015
 31
0.0
  0
LINE
  5
5D1
330
1F
100
AcDbEntity
  8
Ｓ_１_１
  6
CONTINUOUS
 62
     3
100
AcDbLine
 10
1498.99999999999
 20
1920.000000000015
 30
0.0
 11
1498.99999999999
 21
1890.000000000015
 31
0.0
  0
LINE
  5
5D2
330
1F
100
AcDbEntity
  8
Ｓ_１_１
  6
CONTINUOUS
 62
     3
100
AcDbLine
 10
1498.99999999999
 20
1920.000000000015
 30
0.0
 11
1495.99999999999
 21
1920.000000000015
 31
0.0
  0
LINE
  5
5D3
330
1F
100
AcDbEntity
  8
Ｓ_１_１
  6
CONTINUOUS
 62
     3
100
AcDbLine
 10
1507.928203230301
 20
1918.856406460652
 30
0.0
 11
1508.99999999999
 21
1917.000000000162
 31
0.0
  0
LINE
  5
5D4
330
1F
100
AcDbEntity
  8
Ｓ_１_１
  6
CONTINUOUS
 62
     3
100
AcDbLine
 10
1507.928203230323
 20
1918.856406460615
 30
0.0
 11
1498.99999999999
 21
1918.856406460615
 31
0.0
  0
LINE
  5
5D5
330
1F
100
AcDbEntity
  8
Ｓ_１_１
  6
CONTINUOUS
 62
     3
100
AcDbLine
 10
1507.928203230301
 20
1891.143593539378
 30
0.0
 11
1508.99999999999
 21
1892.999999999867
 31
0.0
  0
LINE
  5
5D6
330
1F
100
AcDbEntity
  8
Ｓ_１_１
  6
CONTINUOUS
 62
     3
100
AcDbLine
 10
1507.928203230323
 20
1891.143593539414
 30
0.0
 11
1498.99999999999
 21
1891.143593539414
 31
0.0
  0
LINE
  5
5D7
330
1F
100
AcDbEntity
  8
Ｓ_１_１
  6
CONTINUOUS
 62
     3
100
AcDbLine
 10
1508.99999999999
 20
1917.000000000162
 30
0.0
 11
1508.99999999999
 21
1892.999999999867
 31
0.0
  0
LINE
  5
5D8
330
1F
100
AcDbEntity
  8
Ｓ_１_１
  6
CONTINUOUS
 62
     3
100
AcDbLine
 10
1507.92820323029
 20
1911.935171660615
 30
0.0
 11
1498.99999999999
 21
1911.935171660615
 31
0.0
  0
LINE
  5
5D9
330
1F
100
AcDbEntity
  8
Ｓ_１_１
  6
CONTINUOUS
 62
     3
100
AcDbLine
 10
1507.92820323029
 20
1898.064828339414
 30
0.0
 11
1498.99999999999
 21
1898.064828339414
 31
0.0
  0
ARC
  5
5DA
330
1F
100
AcDbEntity
  8
Ｓ_１_１
  6
CONTINUOUS
 62
     3
100
AcDbCircle
 10
1486.026729474409
 20
1905.000000000015
 30
0.0
 40
22.97327052558072
100
AcDbArc
 50
342.4294426979601
 51
17.57055730204007
  0
ARC
  5
5DB
330
1F
100
AcDbEntity
  8
Ｓ_１_１
  6
CONTINUOUS
 62
     3
100
AcDbCircle
 10
1491.479658399215
 20
1918.061759246275
 30
0.0
 40
17.55248422601882
100
AcDbArc
 50
339.5711529511675
 51
356.5320302262215
  0
ARC
  5
5DC
330
1F
100
AcDbEntity
  8
Ｓ_１_１
  6
CONTINUOUS
 62
     3
100
AcDbCircle
 10
1491.479658399215
 20
1891.938240753753
 30
0.0
 40
17.55248422601882
100
AcDbArc
 50
3.467969773778572
 51
20.4288470488325
  0
LINE
  5
5DD
330
1F
100
AcDbEntity
  8
Ｓ_１_１
  6
EXLTYPE2
 62
     1
100
AcDbLine
 10
1514.39999999999
 20
1905.000000000015
 30
0.0
 11
1440.79999999999
 21
1905.000000000015
 31
0.0
  0
LINE
  5
5DE
330
1F
100
AcDbEntity
  8
Ｓ_１_１
  6
EXLTYPE2
 62
     1
100
AcDbLine
 10
1514.39999999999
 20
1635.00000000001
 30
0.0
 11
1440.79999999999
 21
1635.00000000001
 31
0.0
  0
LINE
  5
5DF
330
1F
100
AcDbEntity
  8
Ｓ_１_１
  6
CONTINUOUS
 62
     3
100
AcDbLine
 10
1495.99999999999
 20
1925.000000000015
 30
0.0
 11
1495.99999999999
 21
1865.000000000011
 31
0.0
  0
LINE
  5
5E0
330
1F
100
AcDbEntity
  8
Ｓ_１_１
  6
CONTINUOUS
 62
     3
100
AcDbLine
 10
1495.99999999999
 20
1615.00000000001
 30
0.0
 11
1495.99999999999
 21
1675.000000000009
 31
0.0
  0
LINE
  5
5E1
330
1F
100
AcDbEntity
  8
Ｓ_１_１
  6
CONTINUOUS
 62
     3
100
AcDbLine
 10
1495.99999999999
 20
1735.000000000009
 30
0.0
 11
1479.99999999999
 21
1735.000000000008
 31
0.0
  0
LINE
  5
5E2
330
1F
100
AcDbEntity
  8
Ｓ_１_１
  6
CONTINUOUS
 62
     3
100
AcDbLine
 10
1498.99999999999
 20
1700.000000000009
 30
0.0
 11
1495.99999999999
 21
1700.000000000009
 31
0.0
  0
LINE
  5
5E3
330
1F
100
AcDbEntity
  8
Ｓ_１_１
  6
CONTINUOUS
 62
     3
100
AcDbLine
 10
1498.99999999999
 20
1730.000000000009
 30
0.0
 11
1498.99999999999
 21
1700.000000000009
 31
0.0
  0
LINE
  5
5E4
330
1F
100
AcDbEntity
  8
Ｓ_１_１
  6
CONTINUOUS
 62
     3
100
AcDbLine
 10
1498.99999999999
 20
1730.000000000009
 30
0.0
 11
1495.99999999999
 21
1730.000000000009
 31
0.0
  0
LINE
  5
5E5
330
1F
100
AcDbEntity
  8
Ｓ_１_１
  6
CONTINUOUS
 62
     3
100
AcDbLine
 10
1507.928203230301
 20
1728.856406460646
 30
0.0
 11
1508.99999999999
 21
1727.000000000157
 31
0.0
  0
LINE
  5
5E6
330
1F
100
AcDbEntity
  8
Ｓ_１_１
  6
CONTINUOUS
 62
     3
100
AcDbLine
 10
1507.928203230323
 20
1728.856406460609
 30
0.0
 11
1498.99999999999
 21
1728.856406460609
 31
0.0
  0
LINE
  5
5E7
330
1F
100
AcDbEntity
  8
Ｓ_１_１
  6
CONTINUOUS
 62
     3
100
AcDbLine
 10
1507.928203230301
 20
1701.143593539372
 30
0.0
 11
1508.99999999999
 21
1702.999999999862
 31
0.0
  0
LINE
  5
5E8
330
1F
100
AcDbEntity
  8
Ｓ_１_１
  6
CONTINUOUS
 62
     3
100
AcDbLine
 10
1507.928203230323
 20
1701.143593539409
 30
0.0
 11
1498.99999999999
 21
1701.143593539409
 31
0.0
  0
LINE
  5
5E9
330
1F
100
AcDbEntity
  8
Ｓ_１_１
  6
CONTINUOUS
 62
     3
100
AcDbLine
 10
1508.99999999999
 20
1727.000000000157
 30
0.0
 11
1508.99999999999
 21
1702.999999999862
 31
0.0
  0
LINE
  5
5EA
330
1F
100
AcDbEntity
  8
Ｓ_１_１
  6
CONTINUOUS
 62
     3
100
AcDbLine
 10
1507.92820323029
 20
1721.935171660609
 30
0.0
 11
1498.99999999999
 21
1721.935171660609
 31
0.0
  0
LINE
  5
5EB
330
1F
100
AcDbEntity
  8
Ｓ_１_１
  6
CONTINUOUS
 62
     3
100
AcDbLine
 10
1507.92820323029
 20
1708.064828339409
 30
0.0
 11
1498.99999999999
 21
1708.064828339409
 31
0.0
  0
ARC
  5
5EC
330
1F
100
AcDbEntity
  8
Ｓ_１_１
  6
CONTINUOUS
 62
     3
100
AcDbCircle
 10
1486.026729474409
 20
1715.000000000009
 30
0.0
 40
22.97327052558072
100
AcDbArc
 50
342.4294426979601
 51
17.57055730204007
  0
ARC
  5
5ED
330
1F
100
AcDbEntity
  8
Ｓ_１_１
  6
CONTINUOUS
 62
     3
100
AcDbCircle
 10
1491.479658399215
 20
1728.06175924627
 30
0.0
 40
17.55248422601882
100
AcDbArc
 50
339.5711529511675
 51
356.5320302262215
  0
ARC
  5
5EE
330
1F
100
AcDbEntity
  8
Ｓ_１_１
  6
CONTINUOUS
 62
     3
100
AcDbCircle
 10
1491.479658399215
 20
1701.938240753748
 30
0.0
 40
17.55248422601882
100
AcDbArc
 50
3.467969773778572
 51
20.4288470488325
  0
LINE
  5
5EF
330
1F
100
AcDbEntity
  8
Ｓ_１_１
  6
EXLTYPE2
 62
     1
100
AcDbLine
 10
1514.39999999999
 20
1715.000000000008
 30
0.0
 11
1440.79999999999
 21
1715.000000000008
 31
0.0
  0
LINE
  5
5F0
330
1F
100
AcDbEntity
  8
Ｓ_１_１
  6
CONTINUOUS
 62
     3
100
AcDbLine
 10
1495.99999999999
 20
1735.000000000009
 30
0.0
 11
1495.99999999999
 21
1675.000000000009
 31
0.0
  0
LINE
  5
5F1
330
1F
100
AcDbEntity
  8
Ｓ_１_１
  6
CONTINUOUS
 62
     3
100
AcDbLine
 10
1495.99999999999
 20
1805.000000000007
 30
0.0
 11
1479.99999999999
 21
1805.000000000007
 31
0.0
  0
LINE
  5
5F2
330
1F
100
AcDbEntity
  8
Ｓ_１_１
  6
CONTINUOUS
 62
     3
100
AcDbLine
 10
1498.99999999999
 20
1840.000000000007
 30
0.0
 11
1495.99999999999
 21
1840.000000000007
 31
0.0
  0
LINE
  5
5F3
330
1F
100
AcDbEntity
  8
Ｓ_１_１
  6
CONTINUOUS
 62
     3
100
AcDbLine
 10
1498.99999999999
 20
1810.000000000007
 30
0.0
 11
1498.99999999999
 21
1840.000000000007
 31
0.0
  0
LINE
  5
5F4
330
1F
100
AcDbEntity
  8
Ｓ_１_１
  6
CONTINUOUS
 62
     3
100
AcDbLine
 10
1498.99999999999
 20
1810.000000000007
 30
0.0
 11
1495.99999999999
 21
1810.000000000007
 31
0.0
  0
LINE
  5
5F5
330
1F
100
AcDbEntity
  8
Ｓ_１_１
  6
CONTINUOUS
 62
     3
100
AcDbLine
 10
1507.928203230301
 20
1811.14359353937
 30
0.0
 11
1508.99999999999
 21
1812.999999999859
 31
0.0
  0
LINE
  5
5F6
330
1F
100
AcDbEntity
  8
Ｓ_１_１
  6
CONTINUOUS
 62
     3
100
AcDbLine
 10
1507.928203230323
 20
1811.143593539407
 30
0.0
 11
1498.99999999999
 21
1811.143593539407
 31
0.0
  0
LINE
  5
5F7
330
1F
100
AcDbEntity
  8
Ｓ_１_１
  6
CONTINUOUS
 62
     3
100
AcDbLine
 10
1507.928203230301
 20
1838.856406460644
 30
0.0
 11
1508.99999999999
 21
1837.000000000155
 31
0.0
  0
LINE
  5
5F8
330
1F
100
AcDbEntity
  8
Ｓ_１_１
  6
CONTINUOUS
 62
     3
100
AcDbLine
 10
1507.928203230323
 20
1838.856406460607
 30
0.0
 11
1498.99999999999
 21
1838.856406460607
 31
0.0
  0
LINE
  5
5F9
330
1F
100
AcDbEntity
  8
Ｓ_１_１
  6
CONTINUOUS
 62
     3
100
AcDbLine
 10
1508.99999999999
 20
1812.999999999859
 30
0.0
 11
1508.99999999999
 21
1837.000000000155
 31
0.0
  0
LINE
  5
5FA
330
1F
100
AcDbEntity
  8
Ｓ_１_１
  6
CONTINUOUS
 62
     3
100
AcDbLine
 10
1507.92820323029
 20
1818.064828339407
 30
0.0
 11
1498.99999999999
 21
1818.064828339407
 31
0.0
  0
LINE
  5
5FB
330
1F
100
AcDbEntity
  8
Ｓ_１_１
  6
CONTINUOUS
 62
     3
100
AcDbLine
 10
1507.92820323029
 20
1831.935171660607
 30
0.0
 11
1498.99999999999
 21
1831.935171660607
 31
0.0
  0
ARC
  5
5FC
330
1F
100
AcDbEntity
  8
Ｓ_１_１
  6
CONTINUOUS
 62
     3
100
AcDbCircle
 10
1486.026729474409
 20
1825.000000000007
 30
0.0
 40
22.97327052558072
100
AcDbArc
 50
342.4294426979601
 51
17.57055730204007
  0
ARC
  5
5FD
330
1F
100
AcDbEntity
  8
Ｓ_１_１
  6
CONTINUOUS
 62
     3
100
AcDbCircle
 10
1491.479658399215
 20
1811.938240753746
 30
0.0
 40
17.55248422601882
100
AcDbArc
 50
3.467969773778572
 51
20.4288470488325
  0
ARC
  5
5FE
330
1F
100
AcDbEntity
  8
Ｓ_１_１
  6
CONTINUOUS
 62
     3
100
AcDbCircle
 10
1491.479658399215
 20
1838.061759246268
 30
0.0
 40
17.55248422601882
100
AcDbArc
 50
339.5711529511675
 51
356.5320302262215
  0
LINE
  5
5FF
330
1F
100
AcDbEntity
  8
Ｓ_１_１
  6
EXLTYPE2
 62
     1
100
AcDbLine
 10
1514.39999999999
 20
1825.000000000007
 30
0.0
 11
1440.79999999999
 21
1825.000000000007
 31
0.0
  0
LINE
  5
600
330
1F
100
AcDbEntity
  8
Ｓ_１_１
  6
CONTINUOUS
 62
     3
100
AcDbLine
 10
1495.99999999999
 20
1805.000000000007
 30
0.0
 11
1495.99999999999
 21
1865.000000000011
 31
0.0
  0
LINE
  5
601
330
1F
100
AcDbEntity
  8
Ｓ_１_１
  6
EXLTYPE2
 62
     1
100
AcDbLine
 10
932.4999999999927
 20
1659.881489732222
 30
0.0
 11
946.2499999999932
 21
1683.697188336293
 31
0.0
  0
LINE
  5
602
330
1F
100
AcDbEntity
  8
Ｓ_１_１
  6
EXLTYPE2
 62
     1
100
AcDbLine
 10
1269.999999999987
 20
1655.551362713299
 30
0.0
 11
1253.749999999987
 21
1683.697188336293
 31
0.0
  0
LINE
  5
603
330
1F
100
AcDbEntity
  8
Ｓ_１_１
  6
CONTINUOUS
 62
     3
100
AcDbLine
 10
660.6999999999894
 20
1852.300000000011
 30
0.0
 11
703.9999999999905
 21
1852.30000000001
 31
0.0
  0
ARC
  5
604
330
1F
100
AcDbEntity
  8
Ｓ_１_１
  6
CONTINUOUS
 62
     3
100
AcDbCircle
 10
660.6999999999894
 20
1842.300000000011
 30
0.0
 40
10.0
100
AcDbArc
 50
89.99999999999939
 51
180.0
  0
ARC
  5
605
330
1F
100
AcDbEntity
  8
Ｓ_１_１
  6
CONTINUOUS
 62
     3
100
AcDbCircle
 10
660.6999999999894
 20
1842.30000000001
 30
0.0
 40
10.0
100
AcDbArc
 50
90.00000000000001
 51
180.0
  0
ARC
  5
606
330
1F
100
AcDbEntity
  8
Ｓ_１_１
  6
EXLTYPE0
 62
     2
100
AcDbCircle
 10
660.6999999999894
 20
1842.30000000001
 30
0.0
 40
14.0
100
AcDbArc
 50
90.00000000000001
 51
180.0
  0
ARC
  5
607
330
1F
100
AcDbEntity
  8
Ｓ_１_１
  6
EXLTYPE2
 62
     1
100
AcDbCircle
 10
657.9999999999895
 20
1845.00000000001
 30
0.0
 40
20.0
100
AcDbArc
 50
90.00000000000001
 51
180.0
  0
ARC
  5
608
330
1F
100
AcDbEntity
  8
Ｓ_１_１
  6
CONTINUOUS
 62
     3
100
AcDbCircle
 10
655.2999999999897
 20
1847.70000000001
 30
0.0
 40
30.0
100
AcDbArc
 50
90.00000000000001
 51
180.0
  0
LINE
  5
609
330
1F
100
AcDbEntity
  8
Ｓ_１_１
  6
CONTINUOUS
 62
     3
100
AcDbLine
 10
650.6999999999894
 20
1842.300000000011
 30
0.0
 11
650.6999999999889
 21
1697.700000000009
 31
0.0
  0
LINE
  5
60A
330
1F
100
AcDbEntity
  8
Ｓ_１_１
  6
EXLTYPE0
 62
     2
100
AcDbLine
 10
646.6999999999894
 20
1697.700000000009
 30
0.0
 11
646.6999999999894
 21
1842.30000000001
 31
0.0
  0
LINE
  5
60B
330
1F
100
AcDbEntity
  8
Ｓ_１_１
  6
EXLTYPE2
 62
     1
100
AcDbLine
 10
657.9999999999895
 20
1865.000000000011
 30
0.0
 11
727.9999999999905
 21
1865.000000000012
 31
0.0
  0
LINE
  5
60C
330
1F
100
AcDbEntity
  8
Ｓ_１_１
  6
EXLTYPE2
 62
     1
100
AcDbLine
 10
637.9999999999905
 20
1845.00000000001
 30
0.0
 11
637.99999999999
 21
1695.00000000001
 31
0.0
  0
LINE
  5
60D
330
1F
100
AcDbEntity
  8
Ｓ_１_１
  6
EXLTYPE0
 62
     2
100
AcDbLine
 10
629.2999999999902
 20
1692.30000000001
 30
0.0
 11
629.2999999999879
 21
1847.700000000009
 31
0.0
  0
LINE
  5
60E
330
1F
100
AcDbEntity
  8
Ｓ_１_１
  6
CONTINUOUS
 62
     3
100
AcDbLine
 10
625.2999999999897
 20
1847.70000000001
 30
0.0
 11
625.2999999999902
 21
1692.30000000001
 31
0.0
  0
LINE
  5
60F
330
1F
100
AcDbEntity
  8
Ｓ_１_１
  6
CONTINUOUS
 62
     3
100
AcDbLine
 10
655.2999999999906
 20
1877.70000000001
 30
0.0
 11
703.9999999999905
 21
1877.70000000001
 31
0.0
  0
LINE
  5
610
330
1F
100
AcDbEntity
  8
Ｓ_１_１
  6
EXLTYPE0
 62
     2
100
AcDbLine
 10
703.9999999999859
 20
1856.30000000001
 30
0.0
 11
660.6999999999894
 21
1856.30000000001
 31
0.0
  0
ARC
  5
611
330
1F
100
AcDbEntity
  8
Ｓ_１_１
  6
CONTINUOUS
 62
     3
100
AcDbCircle
 10
660.6999999999898
 20
1697.700000000009
 30
0.0
 40
10.0
100
AcDbArc
 50
180.0
 51
270.0
  0
ARC
  5
612
330
1F
100
AcDbEntity
  8
Ｓ_１_１
  6
EXLTYPE0
 62
     2
100
AcDbCircle
 10
660.6999999999898
 20
1697.700000000009
 30
0.0
 40
14.0
100
AcDbArc
 50
180.0
 51
270.0
  0
ARC
  5
613
330
1F
100
AcDbEntity
  8
Ｓ_１_１
  6
EXLTYPE2
 62
     1
100
AcDbCircle
 10
657.9999999999905
 20
1695.00000000001
 30
0.0
 40
20.0
100
AcDbArc
 50
180.0
 51
270.0
  0
ARC
  5
614
330
1F
100
AcDbEntity
  8
Ｓ_１_１
  6
EXLTYPE0
 62
     2
100
AcDbCircle
 10
655.2999999999897
 20
1692.30000000001
 30
0.0
 40
26.0
100
AcDbArc
 50
180.0
 51
270.0
  0
ARC
  5
615
330
1F
100
AcDbEntity
  8
Ｓ_１_１
  6
CONTINUOUS
 62
     3
100
AcDbCircle
 10
655.2999999999897
 20
1692.30000000001
 30
0.0
 40
30.0
100
AcDbArc
 50
180.0
 51
270.0
  0
LINE
  5
616
330
1F
100
AcDbEntity
  8
Ｓ_１_１
  6
EXLTYPE0
 62
     2
100
AcDbLine
 10
703.9999999999936
 20
1683.700000000009
 30
0.0
 11
660.6999999999898
 21
1683.700000000009
 31
0.0
  0
LINE
  5
617
330
1F
100
AcDbEntity
  8
Ｓ_１_１
  6
CONTINUOUS
 62
     3
100
AcDbLine
 10
660.6999999999898
 20
1687.700000000009
 30
0.0
 11
703.99999999999
 21
1687.700000000009
 31
0.0
  0
LINE
  5
618
330
1F
100
AcDbEntity
  8
Ｓ_１_１
  6
EXLTYPE0
 62
     2
100
AcDbLine
 10
703.99999999999
 20
1666.30000000001
 30
0.0
 11
655.2999999999897
 21
1666.30000000001
 31
0.0
  0
LINE
  5
619
330
1F
100
AcDbEntity
  8
Ｓ_１_１
  6
CONTINUOUS
 62
     3
100
AcDbLine
 10
655.2999999999897
 20
1662.30000000001
 30
0.0
 11
703.99999999999
 21
1662.30000000001
 31
0.0
  0
LINE
  5
61A
330
1F
100
AcDbEntity
  8
Ｓ_１_１
  6
EXLTYPE2
 62
     1
100
AcDbLine
 10
657.9999999999905
 20
1675.00000000001
 30
0.0
 11
720.99999999999
 21
1675.00000000001
 31
0.0
  0
LINE
  5
61B
330
1F
100
AcDbEntity
  8
Ｓ_１_１
  6
CONTINUOUS
 62
     3
100
AcDbLine
 10
1539.299999999991
 20
1852.30000000001
 30
0.0
 11
1495.99999999999
 21
1852.30000000001
 31
0.0
  0
ARC
  5
61C
330
1F
100
AcDbEntity
  8
Ｓ_１_１
  6
CONTINUOUS
 62
     3
100
AcDbCircle
 10
1539.299999999991
 20
1842.30000000001
 30
0.0
 40
10.0
100
AcDbArc
 50
0.0
 51
90.000000000001
  0
ARC
  5
61D
330
1F
100
AcDbEntity
  8
Ｓ_１_１
  6
CONTINUOUS
 62
     3
100
AcDbCircle
 10
1539.299999999991
 20
1842.30000000001
 30
0.0
 40
10.0
100
AcDbArc
 50
0.0
 51
89.99999999999969
  0
ARC
  5
61E
330
1F
100
AcDbEntity
  8
Ｓ_１_１
  6
EXLTYPE0
 62
     2
100
AcDbCircle
 10
1539.299999999991
 20
1842.30000000001
 30
0.0
 40
14.0
100
AcDbArc
 50
0.0
 51
89.9999999999998
  0
ARC
  5
61F
330
1F
100
AcDbEntity
  8
Ｓ_１_１
  6
EXLTYPE2
 62
     1
100
AcDbCircle
 10
1541.99999999999
 20
1845.000000000009
 30
0.0
 40
20.0
100
AcDbArc
 50
0.0
 51
89.99999999999991
  0
ARC
  5
620
330
1F
100
AcDbEntity
  8
Ｓ_１_１
  6
EXLTYPE0
 62
     2
100
AcDbCircle
 10
1544.69999999999
 20
1847.70000000001
 30
0.0
 40
26.0
100
AcDbArc
 50
0.0
 51
90.00000000000001
  0
ARC
  5
621
330
1F
100
AcDbEntity
  8
Ｓ_１_１
  6
CONTINUOUS
 62
     3
100
AcDbCircle
 10
1544.69999999999
 20
1847.70000000001
 30
0.0
 40
30.0
100
AcDbArc
 50
0.0
 51
90.00000000000001
  0
LINE
  5
622
330
1F
100
AcDbEntity
  8
Ｓ_１_１
  6
CONTINUOUS
 62
     3
100
AcDbLine
 10
1549.299999999991
 20
1842.30000000001
 30
0.0
 11
1549.299999999991
 21
1697.700000000009
 31
0.0
  0
LINE
  5
623
330
1F
100
AcDbEntity
  8
Ｓ_１_１
  6
EXLTYPE0
 62
     2
100
AcDbLine
 10
1553.299999999991
 20
1697.700000000009
 30
0.0
 11
1553.299999999991
 21
1842.30000000001
 31
0.0
  0
LINE
  5
624
330
1F
100
AcDbEntity
  8
Ｓ_１_１
  6
EXLTYPE2
 62
     1
100
AcDbLine
 10
1541.99999999999
 20
1865.000000000011
 30
0.0
 11
1471.99999999999
 21
1865.000000000012
 31
0.0
  0
LINE
  5
625
330
1F
100
AcDbEntity
  8
Ｓ_１_１
  6
EXLTYPE2
 62
     1
100
AcDbLine
 10
1561.99999999999
 20
1845.000000000009
 30
0.0
 11
1561.99999999999
 21
1695.000000000009
 31
0.0
  0
LINE
  5
626
330
1F
100
AcDbEntity
  8
Ｓ_１_１
  6
EXLTYPE0
 62
     2
100
AcDbLine
 10
1570.699999999989
 20
1692.300000000009
 30
0.0
 11
1570.699999999992
 21
1847.700000000009
 31
0.0
  0
LINE
  5
627
330
1F
100
AcDbEntity
  8
Ｓ_１_１
  6
CONTINUOUS
 62
     3
100
AcDbLine
 10
1574.69999999999
 20
1847.70000000001
 30
0.0
 11
1574.699999999989
 21
1692.30000000001
 31
0.0
  0
LINE
  5
628
330
1F
100
AcDbEntity
  8
Ｓ_１_１
  6
CONTINUOUS
 62
     3
100
AcDbLine
 10
1544.699999999989
 20
1877.70000000001
 30
0.0
 11
1495.99999999999
 21
1877.70000000001
 31
0.0
  0
LINE
  5
629
330
1F
100
AcDbEntity
  8
Ｓ_１_１
  6
EXLTYPE0
 62
     2
100
AcDbLine
 10
1495.99999999999
 20
1873.70000000001
 30
0.0
 11
1544.69999999999
 21
1873.70000000001
 31
0.0
  0
LINE
  5
62A
330
1F
100
AcDbEntity
  8
Ｓ_１_１
  6
EXLTYPE0
 62
     2
100
AcDbLine
 10
1495.999999999995
 20
1856.300000000009
 30
0.0
 11
1539.299999999991
 21
1856.300000000009
 31
0.0
  0
ARC
  5
62B
330
1F
100
AcDbEntity
  8
Ｓ_１_１
  6
CONTINUOUS
 62
     3
100
AcDbCircle
 10
1539.29999999999
 20
1697.700000000009
 30
0.0
 40
10.0
100
AcDbArc
 50
270.0
 51
0.0
  0
ARC
  5
62C
330
1F
100
AcDbEntity
  8
Ｓ_１_１
  6
EXLTYPE0
 62
     2
100
AcDbCircle
 10
1539.29999999999
 20
1697.700000000009
 30
0.0
 40
14.0
100
AcDbArc
 50
270.0
 51
0.0
  0
ARC
  5
62D
330
1F
100
AcDbEntity
  8
Ｓ_１_１
  6
EXLTYPE2
 62
     1
100
AcDbCircle
 10
1541.99999999999
 20
1695.000000000009
 30
0.0
 40
20.0
100
AcDbArc
 50
270.0
 51
0.0
  0
ARC
  5
62E
330
1F
100
AcDbEntity
  8
Ｓ_１_１
  6
EXLTYPE0
 62
     2
100
AcDbCircle
 10
1544.69999999999
 20
1692.30000000001
 30
0.0
 40
26.0
100
AcDbArc
 50
270.0
 51
0.0
  0
ARC
  5
62F
330
1F
100
AcDbEntity
  8
Ｓ_１_１
  6
CONTINUOUS
 62
     3
100
AcDbCircle
 10
1544.69999999999
 20
1692.30000000001
 30
0.0
 40
30.0
100
AcDbArc
 50
270.0
 51
0.0
  0
LINE
  5
630
330
1F
100
AcDbEntity
  8
Ｓ_１_１
  6
EXLTYPE0
 62
     2
100
AcDbLine
 10
1495.999999999986
 20
1683.700000000009
 30
0.0
 11
1539.29999999999
 21
1683.700000000009
 31
0.0
  0
LINE
  5
631
330
1F
100
AcDbEntity
  8
Ｓ_１_１
  6
CONTINUOUS
 62
     3
100
AcDbLine
 10
1539.29999999999
 20
1687.700000000009
 30
0.0
 11
1495.99999999999
 21
1687.700000000009
 31
0.0
  0
LINE
  5
632
330
1F
100
AcDbEntity
  8
Ｓ_１_１
  6
EXLTYPE0
 62
     2
100
AcDbLine
 10
1495.99999999999
 20
1666.30000000001
 30
0.0
 11
1544.69999999999
 21
1666.300000000009
 31
0.0
  0
LINE
  5
633
330
1F
100
AcDbEntity
  8
Ｓ_１_１
  6
CONTINUOUS
 62
     3
100
AcDbLine
 10
1544.69999999999
 20
1662.300000000009
 30
0.0
 11
1495.99999999999
 21
1662.30000000001
 31
0.0
  0
LINE
  5
634
330
1F
100
AcDbEntity
  8
Ｓ_１_１
  6
EXLTYPE2
 62
     1
100
AcDbLine
 10
1541.99999999999
 20
1675.000000000009
 30
0.0
 11
1478.99999999999
 21
1675.000000000009
 31
0.0
  0
LINE
  5
635
330
1F
100
AcDbEntity
  8
Ｓ_１_１
  6
EXLTYPE2
 62
     1
100
AcDbLine
 10
1178.8898981311
 20
1502.593154977931
 30
0.0
 11
1154.458679590781
 21
1641.149480516741
 31
0.0
  0
ARC
  5
636
330
1F
100
AcDbEntity
  8
Ｓ_１_１
  6
EXLTYPE0
 62
     2
100
AcDbCircle
 10
655.2999999999897
 20
1847.70000000001
 30
0.0
 40
26.0
100
AcDbArc
 50
90.00000000000001
 51
180.0
  0
LINE
  5
637
330
1F
100
AcDbEntity
  8
Ｓ_１_１
  6
EXLTYPE0
 62
     2
100
AcDbLine
 10
703.9999999999905
 20
1873.70000000001
 30
0.0
 11
655.2999999999897
 21
1873.70000000001
 31
0.0
  0
LINE
  5
638
330
1F
100
AcDbEntity
  8
Ｓ_１_１
  6
EXLTYPE2
 62
     1
100
AcDbLine
 10
600.0000000000002
 20
1950.00000000001
 30
0.0
 11
1600.0
 21
1950.00000000001
 31
0.0
  0
LINE
  5
639
330
1F
100
AcDbEntity
  8
Ｓ_１_１
  6
CONTINUOUS
 62
     3
100
AcDbLine
 10
668.9999999999895
 20
1950.00000000001
 30
0.0
 11
668.9999999999895
 21
1937.50000000001
 31
0.0
  0
LINE
  5
63A
330
1F
100
AcDbEntity
  8
Ｓ_１_１
  6
EXLTYPE1
 62
     2
100
AcDbLine
 10
688.9999999999905
 20
1950.00000000001
 30
0.0
 11
688.9999999999905
 21
1937.50000000001
 31
0.0
  0
LINE
  5
63B
330
1F
100
AcDbEntity
  8
Ｓ_１_１
  6
EXLTYPE1
 62
     2
100
AcDbLine
 10
728.9999999999905
 20
1950.00000000001
 30
0.0
 11
728.9999999999905
 21
1937.50000000001
 31
0.0
  0
LINE
  5
63C
330
1F
100
AcDbEntity
  8
Ｓ_１_１
  6
EXLTYPE2
 62
     1
100
AcDbLine
 10
749.9999999999914
 20
1902.50000000001
 30
0.0
 11
749.9999999999914
 21
1950.00000000001
 31
0.0
  0
LINE
  5
63D
330
1F
100
AcDbEntity
  8
Ｓ_１_１
  6
CONTINUOUS
 62
     3
100
AcDbLine
 10
748.9999999999895
 20
1950.00000000001
 30
0.0
 11
748.9999999999895
 21
1890.000000000009
 31
0.0
  0
ARC
  5
63E
330
1F
100
AcDbEntity
  8
Ｓ_１_１
  6
CONTINUOUS
 62
     3
100
AcDbCircle
 10
894.9999999999905
 20
1950.00000000001
 30
0.0
 40
8.765842800324512
100
AcDbArc
 50
180.0000000000015
 51
0.0
  0
ARC
  5
63F
330
1F
100
AcDbEntity
  8
Ｓ_１_１
  6
CONTINUOUS
 62
     3
100
AcDbCircle
 10
894.9999999999905
 20
1950.00000000001
 30
0.0
 40
10.0
100
AcDbArc
 50
180.0000000000013
 51
0.0
  0
POLYLINE
  5
640
330
1F
100
AcDbEntity
  8
Ｓ_１_１
  6
CONTINUOUS
 62
     3
100
AcDb2dPolyline
 66
     1
 10
0.0
 20
0.0
 30
0.0
 70
   128
  0
VERTEX
  5
641
330
640
100
AcDbEntity
  8
Ｓ_１_１
  6
CONTINUOUS
 62
     3
100
AcDbVertex
100
AcDb2dVertex
 10
1099.99999999999
 20
1938.00000000001
 30
0.0
  0
VERTEX
  5
642
330
640
100
AcDbEntity
  8
Ｓ_１_１
  6
CONTINUOUS
 62
     3
100
AcDbVertex
100
AcDb2dVertex
 10
1093.071796769714
 20
1938.00000000001
 30
0.0
  0
VERTEX
  5
643
330
640
100
AcDbEntity
  8
Ｓ_１_１
  6
CONTINUOUS
 62
     3
100
AcDbVertex
100
AcDb2dVertex
 10
1086.143593539439
 20
1950.00000000001
 30
0.0
  0
SEQEND
  5
644
330
640
100
AcDbEntity
  8
Ｓ_１_１
  6
CONTINUOUS
 62
     3
  0
POLYLINE
  5
645
330
1F
100
AcDbEntity
  8
Ｓ_１_１
  6
CONTINUOUS
 62
     3
100
AcDb2dPolyline
 66
     1
 10
0.0
 20
0.0
 30
0.0
 70
   128
  0
VERTEX
  5
646
330
645
100
AcDbEntity
  8
Ｓ_１_１
  6
CONTINUOUS
 62
     3
100
AcDbVertex
100
AcDb2dVertex
 10
1099.99999999999
 20
1938.00000000001
 30
0.0
  0
VERTEX
  5
647
330
645
100
AcDbEntity
  8
Ｓ_１_１
  6
CONTINUOUS
 62
     3
100
AcDbVertex
100
AcDb2dVertex
 10
1106.928203230266
 20
1938.00000000001
 30
0.0
  0
VERTEX
  5
648
330
645
100
AcDbEntity
  8
Ｓ_１_１
  6
CONTINUOUS
 62
     3
100
AcDbVertex
100
AcDb2dVertex
 10
1113.856406460541
 20
1950.00000000001
 30
0.0
  0
SEQEND
  5
649
330
645
100
AcDbEntity
  8
Ｓ_１_１
  6
CONTINUOUS
 62
     3
  0
ARC
  5
64A
330
1F
100
AcDbEntity
  8
Ｓ_１_１
  6
CONTINUOUS
 62
     3
100
AcDbCircle
 10
1099.99999999999
 20
1950.00000000001
 30
0.0
 40
22.5
100
AcDbArc
 50
180.0000000000006
 51
0.0
  0
ARC
  5
64B
330
1F
100
AcDbEntity
  8
Ｓ_１_１
  6
CONTINUOUS
 62
     3
100
AcDbCircle
 10
1099.99999999999
 20
1950.00000000001
 30
0.0
 40
20.0
100
AcDbArc
 50
180.0000000000006
 51
0.0
  0
ARC
  5
64C
330
1F
100
AcDbEntity
  8
Ｓ_１_１
  6
CONTINUOUS
 62
     3
100
AcDbCircle
 10
1099.99999999999
 20
1950.00000000001
 30
0.0
 40
35.0
100
AcDbArc
 50
180.0000000000004
 51
0.0
  0
ARC
  5
64D
330
1F
100
AcDbEntity
  8
Ｓ_１_１
  6
CONTINUOUS
 62
     3
100
AcDbCircle
 10
1099.99999999999
 20
1950.00000000001
 30
0.0
 40
37.0
100
AcDbArc
 50
180.0000000000004
 51
0.0
  0
ARC
  5
64E
330
1F
100
AcDbEntity
  8
Ｓ_１_１
  6
CONTINUOUS
 62
     3
100
AcDbCircle
 10
1099.99999999999
 20
1950.00000000001
 30
0.0
 40
95.0
100
AcDbArc
 50
180.0000000000002
 51
0.0
  0
ARC
  5
64F
330
1F
100
AcDbEntity
  8
Ｓ_１_１
  6
EXLTYPE2
 62
     1
100
AcDbCircle
 10
1099.99999999999
 20
1950.00000000001
 30
0.0
 40
100.0
100
AcDbArc
 50
180.0000000000002
 51
0.0
  0
ARC
  5
650
330
1F
100
AcDbEntity
  8
Ｓ_１_１
  6
CONTINUOUS
 62
     3
100
AcDbCircle
 10
1099.99999999999
 20
1950.00000000001
 30
0.0
 40
105.0
100
AcDbArc
 50
180.0000000000002
 51
0.0
  0
LINE
  5
651
330
1F
100
AcDbEntity
  8
Ｓ_１_１
  6
EXLTYPE2
 62
     1
100
AcDbLine
 10
1099.99999999999
 20
1497.00000000001
 30
0.0
 11
1099.99999999999
 21
1950.00000000001
 31
0.0
  0
ARC
  5
652
330
1F
100
AcDbEntity
  8
Ｓ_１_１
  6
EXLTYPE2
 62
     1
100
AcDbCircle
 10
1099.99999999999
 20
1950.00000000001
 30
0.0
 40
170.0
100
AcDbArc
 50
180.0000000000001
 51
0.0
  0
ARC
  5
653
330
1F
100
AcDbEntity
  8
Ｓ_１_１
  6
CONTINUOUS
 62
     3
100
AcDbCircle
 10
1099.99999999999
 20
1950.00000000001
 30
0.0
 40
165.0
100
AcDbArc
 50
180.0000000000001
 51
0.0
  0
ARC
  5
654
330
1F
100
AcDbEntity
  8
Ｓ_１_１
  6
CONTINUOUS
 62
     3
100
AcDbCircle
 10
1099.99999999999
 20
1950.00000000001
 30
0.0
 40
175.0
100
AcDbArc
 50
180.0000000000001
 51
0.0
  0
ARC
  5
655
330
1F
100
AcDbEntity
  8
Ｓ_１_１
  6
EXLTYPE2
 62
     1
100
AcDbCircle
 10
1099.99999999999
 20
1950.00000000001
 30
0.0
 40
205.0
100
AcDbArc
 50
180.0
 51
0.0
  0
ARC
  5
656
330
1F
100
AcDbEntity
  8
Ｓ_１_１
  6
CONTINUOUS
 62
     3
100
AcDbCircle
 10
1304.99999999999
 20
1950.00000000001
 30
0.0
 40
8.765842800324512
100
AcDbArc
 50
180.0000000000015
 51
0.0
  0
ARC
  5
657
330
1F
100
AcDbEntity
  8
Ｓ_１_１
  6
CONTINUOUS
 62
     3
100
AcDbCircle
 10
1304.99999999999
 20
1950.00000000001
 30
0.0
 40
10.0
100
AcDbArc
 50
180.0000000000013
 51
0.0
  0
ARC
  5
658
330
1F
100
AcDbEntity
  8
Ｓ_１_１
  6
CONTINUOUS
 62
     3
100
AcDbCircle
 10
1099.99999999999
 20
1950.00000000001
 30
0.0
 40
235.0
100
AcDbArc
 50
180.0
 51
0.0
  0
ARC
  5
659
330
1F
100
AcDbEntity
  8
Ｓ_１_１
  6
EXLTYPE2
 62
     1
100
AcDbCircle
 10
1099.99999999999
 20
1950.00000000001
 30
0.0
 40
240.0
100
AcDbArc
 50
180.0
 51
0.0
  0
ARC
  5
65A
330
1F
100
AcDbEntity
  8
Ｓ_１_１
  6
CONTINUOUS
 62
     3
100
AcDbCircle
 10
1099.99999999999
 20
1950.00000000001
 30
0.0
 40
245.0
100
AcDbArc
 50
180.0
 51
0.0
  0
ARC
  5
65B
330
1F
100
AcDbEntity
  8
Ｓ_１_１
  6
CONTINUOUS
 62
     3
100
AcDbCircle
 10
1099.99999999999
 20
1950.00000000001
 30
0.0
 40
295.4999999999997
100
AcDbArc
 50
180.0
 51
0.0000000000000573
  0
ARC
  5
65C
330
1F
100
AcDbEntity
  8
Ｓ_１_１
  6
CONTINUOUS
 62
     3
100
AcDbCircle
 10
1099.99999999999
 20
1950.00000000001
 30
0.0
 40
297.4999999999997
100
AcDbArc
 50
180.0
 51
0.0000000000000573
  0
ARC
  5
65D
330
1F
100
AcDbEntity
  8
Ｓ_１_１
  6
CONTINUOUS
 62
     3
100
AcDbCircle
 10
1099.99999999999
 20
1950.00000000001
 30
0.0
 40
307.4999999999997
100
AcDbArc
 50
180.0
 51
0.0000000000000573
  0
ARC
  5
65E
330
1F
100
AcDbEntity
  8
Ｓ_１_１
  6
CONTINUOUS
 62
     3
100
AcDbCircle
 10
1099.99999999999
 20
1950.00000000001
 30
0.0
 40
327.5000000000003
100
AcDbArc
 50
180.0
 51
0.0000000000000573
  0
ARC
  5
65F
330
1F
100
AcDbEntity
  8
Ｓ_１_１
  6
CONTINUOUS
 62
     3
100
AcDbCircle
 10
1099.99999999999
 20
1950.00000000001
 30
0.0
 40
334.9999999999997
100
AcDbArc
 50
180.0
 51
0.0000000000000573
  0
ARC
  5
660
330
1F
100
AcDbEntity
  8
Ｓ_１_１
  6
CONTINUOUS
 62
     3
100
AcDbCircle
 10
1099.99999999999
 20
1950.00000000001
 30
0.0
 40
340.0
100
AcDbArc
 50
180.0
 51
0.0
  0
LINE
  5
661
330
1F
100
AcDbEntity
  8
Ｓ_１_１
  6
EXLTYPE2
 62
     1
100
AcDbLine
 10
1449.99999999999
 20
1902.50000000001
 30
0.0
 11
1449.99999999999
 21
1950.00000000001
 31
0.0
  0
LINE
  5
662
330
1F
100
AcDbEntity
  8
Ｓ_１_１
  6
CONTINUOUS
 62
     3
100
AcDbLine
 10
1450.99999999999
 20
1950.00000000001
 30
0.0
 11
1450.99999999999
 21
1890.000000000009
 31
0.0
  0
LINE
  5
663
330
1F
100
AcDbEntity
  8
Ｓ_１_１
  6
EXLTYPE1
 62
     2
100
AcDbLine
 10
1470.99999999999
 20
1950.00000000001
 30
0.0
 11
1470.99999999999
 21
1937.50000000001
 31
0.0
  0
LINE
  5
664
330
1F
100
AcDbEntity
  8
Ｓ_１_１
  6
EXLTYPE2
 62
     1
100
AcDbLine
 10
1490.99999999999
 20
1950.00000000001
 30
0.0
 11
1490.99999999999
 21
1934.10000000001
 31
0.0
  0
LINE
  5
665
330
1F
100
AcDbEntity
  8
Ｓ_１_１
  6
EXLTYPE1
 62
     2
100
AcDbLine
 10
1510.99999999999
 20
1950.00000000001
 30
0.0
 11
1510.99999999999
 21
1937.50000000001
 31
0.0
  0
LINE
  5
666
330
1F
100
AcDbEntity
  8
Ｓ_１_１
  6
CONTINUOUS
 62
     3
100
AcDbLine
 10
1530.99999999999
 20
1950.00000000001
 30
0.0
 11
1530.99999999999
 21
1937.50000000001
 31
0.0
  0
CIRCLE
  5
667
330
1F
100
AcDbEntity
  8
Ｓ_１_１
  6
CONTINUOUS
 62
     3
100
AcDbCircle
 10
1263.75
 20
1666.3766802606
 30
0.0
 40
12.5
  0
ELLIPSE
  5
668
330
1F
100
AcDbEntity
  8
Ｓ_１_１
  6
CONTINUOUS
 62
     3
100
AcDbEllipse
 10
1263.75
 20
937.0
 30
0.0
 11
-4.785710873658686E-15
 21
12.5
 31
0.0
210
0.0
220
0.0
230
1.0
 40
0.8563257023759979
 41
0.0
 42
6.283185307179586
  0
LINE
  5
669
330
1F
100
AcDbEntity
  8
Ｓ_１_１
  6
EXLTYPE2
 62
     1
100
AcDbLine
 10
1437.09999999999
 20
936.999999999998
 30
0.0
 11
1398.16
 21
936.999999999998
 31
0.0
  0
LINE
  5
66A
330
1F
100
AcDbEntity
  8
Ｓ_１_１
  6
EXLTYPE2
 62
     1
100
AcDbLine
 10
1263.75
 20
957.0
 30
0.0
 11
1263.75
 21
917.0
 31
0.0
  0
LINE
  5
66B
330
1F
100
AcDbEntity
  8
Ｓ_１_１
  6
EXLTYPE2
 62
     1
100
AcDbLine
 10
1279.44
 20
937.0
 30
0.0
 11
1243.75
 21
937.0
 31
0.0
  0
ELLIPSE
  5
66C
330
1F
100
AcDbEntity
  8
Ｓ_１_１
  6
CONTINUOUS
 62
     3
100
AcDbEllipse
 10
936.25
 20
937.0
 30
0.0
 11
-4.785710873658686E-15
 21
12.5
 31
0.0
210
0.0
220
0.0
230
1.0
 40
0.856325702375998
 41
0.0
 42
6.283185307179586
  0
LINE
  5
66D
330
1F
100
AcDbEntity
  8
Ｓ_１_１
  6
EXLTYPE2
 62
     1
100
AcDbLine
 10
762.9000000000096
 20
936.9999999999981
 30
0.0
 11
801.8399999999999
 21
936.9999999999981
 31
0.0
  0
LINE
  5
66E
330
1F
100
AcDbEntity
  8
Ｓ_１_１
  6
EXLTYPE2
 62
     1
100
AcDbLine
 10
936.25
 20
957.0
 30
0.0
 11
936.25
 21
917.0
 31
0.0
  0
LINE
  5
66F
330
1F
100
AcDbEntity
  8
Ｓ_１_１
  6
EXLTYPE2
 62
     1
100
AcDbLine
 10
920.56
 20
937.0
 30
0.0
 11
956.25
 21
937.0
 31
0.0
  0
TEXT
  5
670
330
1F
100
AcDbEntity
  8
Ｓ_１_１
  6
CONTINUOUS
 62
     4
100
AcDbText
 10
1511.2
 20
1051.55
 30
0.0
 40
24.62509622786759
  1
安全ナット
 41
0.9992307692307691
  7
EXCADTTF1
 72
     5
 11
1671.2
 21
1051.55
 31
0.0
100
AcDbText
  0
LEADER
  5
671
330
1F
100
AcDbEntity
  8
Ｓ_１_１
  6
CONTINUOUS
 62
     2
100
AcDbLeader
  3
ISO-25
 76
     3
 10
1427.5
 20
972.0
 30
0.0
 10
1498.55
 20
1043.05
 30
0.0
 10
1671.2
 20
1043.05
 30
0.0
1001
ACAD
1000
DSTYLE
1002
{
1070
     5
1000
EX_NORM
1070
    41
1040
24.0
1070
   341
1005
7A
1002
}
  0
LINE
  5
672
330
1F
100
AcDbEntity
  8
Ｓ_１_１
  6
EXLTYPE0
 62
     2
100
AcDbLine
 10
1996.999999999991
 20
1072.0
 30
0.0
 11
1994.99999999999
 21
1069.999999999999
 31
0.0
  0
DIMENSION
  5
673
330
1F
100
AcDbEntity
  8
Ｓ_１_１
  6
CONTINUOUS
 62
     2
100
AcDbDimension
  2
*D30
 10
2647.499999999991
 20
1200.0
 30
0.0
 11
2349.99999999999
 21
1222.0
 31
0.0
 70
   160
  1
%%c595
  3
ISO-25
100
AcDbAlignedDimension
 13
2052.49999999999
 23
1070.0
 33
0.0
 14
2647.499999999991
 24
1070.0
 34
0.0
100
AcDbRotatedDimension
1001
ACAD
1000
DSTYLE
1002
{
1070
   270
1070
     2
1070
     6
1000
EX_NORM
1070
     7
1000
EX_NORM
1070
    41
1040
24.0
1070
    42
1040
12.0
1070
    44
1040
8.0
1070
    73
1070
     0
1070
    74
1070
     0
1070
    75
1070
     0
1070
    76
1070
     0
1070
    77
1070
     1
1070
    78
1070
     8
1070
   140
1040
27.70323325635104
1070
   147
1040
0.0
1070
   173
1070
     1
1070
   176
1070
     2
1070
   177
1070
     2
1070
   178
1070
     2
1070
   271
1070
     2
1070
   277
1070
     2
1070
   279
1070
     2
1070
   280
1070
     0
1070
   287
1070
     5
1070
   340
1005
388
1002
}
  0
DIMENSION
  5
680
330
1F
100
AcDbEntity
  8
Ｓ_１_１
  6
CONTINUOUS
 62
     2
100
AcDbDimension
  2
*D31
 10
1995.0
 20
1200.0
 30
0.0
 11
1935.000000000001
 21
1222.0
 31
0.0
 70
   160
  3
ISO-25
100
AcDbAlignedDimension
 13
2052.5
 23
1070.0
 33
0.0
 14
1995.0
 24
1070.0
 34
0.0
100
AcDbRotatedDimension
1001
ACAD
1000
DSTYLE
1002
{
1070
   270
1070
     2
1070
     6
1000
EX_NORM
1070
     7
1000
EX_NORM
1070
    41
1040
24.0
1070
    42
1040
12.0
1070
    44
1040
8.0
1070
    73
1070
     0
1070
    74
1070
     0
1070
    75
1070
     0
1070
    76
1070
     0
1070
    77
1070
     1
1070
    78
1070
     8
1070
   140
1040
27.70323325635104
1070
   147
1040
0.0
1070
   173
1070
     1
1070
   176
1070
     2
1070
   177
1070
     2
1070
   178
1070
     2
1070
   271
1070
     2
1070
   277
1070
     2
1070
   279
1070
     2
1070
   280
1070
     2
1070
   287
1070
     5
1070
   340
1005
388
1002
}
  0
DIMENSION
  5
68D
330
1F
100
AcDbEntity
  8
Ｓ_１_１
  6
CONTINUOUS
 62
     2
100
AcDbDimension
  2
*D32
 10
2705.0
 20
1200.0
 30
0.0
 11
2765.0
 21
1222.0
 31
0.0
 70
   160
  3
ISO-25
100
AcDbAlignedDimension
 13
2647.5
 23
1070.0
 33
0.0
 14
2705.0
 24
1070.0
 34
0.0
100
AcDbRotatedDimension
1001
ACAD
1000
DSTYLE
1002
{
1070
   270
1070
     2
1070
     6
1000
EX_NORM
1070
     7
1000
EX_NORM
1070
    41
1040
24.0
1070
    42
1040
12.0
1070
    44
1040
8.0
1070
    73
1070
     0
1070
    74
1070
     0
1070
    75
1070
     0
1070
    76
1070
     0
1070
    77
1070
     1
1070
    78
1070
     8
1070
   140
1040
27.70323325635104
1070
   147
1040
0.0
1070
   173
1070
     1
1070
   176
1070
     2
1070
   177
1070
     2
1070
   178
1070
     2
1070
   271
1070
     2
1070
   277
1070
     2
1070
   279
1070
     2
1070
   280
1070
     2
1070
   287
1070
     5
1070
   340
1005
388
1002
}
  0
CIRCLE
  5
69A
330
1F
100
AcDbEntity
  8
Ｓ_１_１
  6
CONTINUOUS
 62
     3
100
AcDbCircle
 10
1100.0
 20
937.0
 30
0.0
 40
30.0
  0
CIRCLE
  5
69B
330
1F
100
AcDbEntity
  8
Ｓ_１_１
  6
CONTINUOUS
 62
     3
100
AcDbCircle
 10
1100.0
 20
937.0
 30
0.0
 40
11.99999999999943
  0
CIRCLE
  5
69C
330
1F
100
AcDbEntity
  8
Ｓ_１_１
  6
CONTINUOUS
 62
     3
100
AcDbCircle
 10
1100.0
 20
937.0
 30
0.0
 40
9.99999999999875
  0
LINE
  5
69D
330
1F
100
AcDbEntity
  8
Ｓ_１_１
  6
EXLTYPE2
 62
     1
100
AcDbLine
 10
1140.0
 20
937.0
 30
0.0
 11
1060.0
 21
937.0
 31
0.0
  0
TEXT
  5
69E
330
1F
100
AcDbEntity
  8
Ｓ_１_１
  6
CONTINUOUS
 62
     4
100
AcDbText
 10
1431.2
 20
1149.3132420726
 30
0.0
 40
24.62509622786759
  1
6-25キリ深35
 41
0.9992307692307691
  7
EXCADTTF1
 72
     5
 11
1623.2
 21
1149.3132420726
 31
0.0
100
AcDbText
  0
LEADER
  5
69F
330
1F
100
AcDbEntity
  8
Ｓ_１_１
  6
CONTINUOUS
 62
     2
100
AcDbLeader
  3
ISO-25
 76
     3
 10
1263.75
 20
949.5
 30
0.0
 10
1374.2047518101
 20
1140.8132420726
 30
0.0
 10
1623.2
 20
1140.8132420726
 30
0.0
1001
ACAD
1000
DSTYLE
1002
{
1070
     5
1000
EX_NORM
1070
    41
1040
24.0
1070
   341
1005
7A
1002
}
  0
TEXT
  5
6A0
330
1F
100
AcDbEntity
  8
Ｓ_１_１
  6
CONTINUOUS
 62
     4
100
AcDbText
 10
1293.6
 20
1263.0386965021
 30
0.0
 40
24.62509622786759
  1
2-M24ネジ深35
 41
0.9992307692307691
  7
EXCADTTF1
 72
     5
 11
1501.6
 21
1263.0386965021
 31
0.0
100
AcDbText
  0
LEADER
  5
6A1
330
1F
100
AcDbEntity
  8
Ｓ_１_１
  6
CONTINUOUS
 62
     2
100
AcDbLeader
  3
ISO-25
 76
     3
 10
1100.0
 20
949.0
 30
0.0
 10
1276.4028486733
 20
1254.5386965021
 30
0.0
 10
1501.6
 20
1254.5386965021
 30
0.0
1001
ACAD
1000
DSTYLE
1002
{
1070
     5
1000
EX_NORM
1070
    41
1040
24.0
1070
   341
1005
7A
1002
}
  0
TEXT
  5
6A2
330
1F
100
AcDbEntity
  8
Ｓ_１_１
  6
CONTINUOUS
 62
     4
100
AcDbText
 10
1542.4
 20
315.98763349561
 30
0.0
 40
24.62509622786759
  1
スライドプレート
 41
0.999230769230769
  7
EXCADTTF1
 72
     5
 11
1798.4
 21
315.98763349561
 31
0.0
100
AcDbText
  0
LEADER
  5
6A3
330
1F
100
AcDbEntity
  8
Ｓ_１_１
  6
CONTINUOUS
 62
     2
100
AcDbLeader
  3
ISO-25
 76
     3
 10
1477.0
 20
400.0
 30
0.0
 10
1530.4120397047
 20
307.48763349561
 30
0.0
 10
1798.4
 20
307.48763349561
 30
0.0
1001
ACAD
1000
DSTYLE
1002
{
1070
     5
1000
EX_NORM
1070
    41
1040
24.0
1070
   341
1005
7A
1002
}
  0
LINE
  5
6A4
330
1F
100
AcDbEntity
  8
Ｓ_１_１
  6
EXLTYPE3
 62
     2
100
AcDbLine
 10
1999.993147673763
 20
997.2658397805922
 30
0.0
 11
1994.99999999999
 21
1002.527519561807
 31
0.0
  0
LINE
  5
6A5
330
1F
100
AcDbEntity
  8
Ｓ_１_１
  6
EXLTYPE3
 62
     2
100
AcDbLine
 10
1994.99999999999
 20
1002.527519561807
 30
0.0
 11
1994.99999999999
 21
1069.999999999999
 31
0.0
  0
LINE
  5
6A6
330
1F
100
AcDbEntity
  8
Ｓ_１_１
  6
EXLTYPE3
 62
     2
100
AcDbLine
 10
1999.993147673963
 20
997.2658397805922
 30
0.0
 11
2025.0
 21
995.9552861833233
 31
0.0
  0
LINE
  5
6A7
330
1F
100
AcDbEntity
  8
Ｓ_１_１
  6
EXLTYPE3
 62
     2
100
AcDbLine
 10
1997.0
 20
1072.0
 30
0.0
 11
2035.0
 21
1072.0
 31
0.0
  0
LINE
  5
6A8
330
1F
100
AcDbEntity
  8
Ｓ_１_１
  6
EXLTYPE3
 62
     2
100
AcDbLine
 10
1957.499999999991
 20
881.9999999999994
 30
0.0
 11
1952.499999999991
 21
876.9999999999994
 31
0.0
  0
LINE
  5
6A9
330
1F
100
AcDbEntity
  8
Ｓ_１_１
  6
EXLTYPE3
 62
     2
100
AcDbLine
 10
1966.999999999991
 20
881.9999999999994
 30
0.0
 11
1964.999999999991
 21
883.9999999999994
 31
0.0
  0
LINE
  5
6AA
330
1F
100
AcDbEntity
  8
Ｓ_１_１
  6
EXLTYPE3
 62
     2
100
AcDbLine
 10
1952.49999999999
 20
472.0000000000009
 30
0.0
 11
1952.499999999991
 21
876.9999999999999
 31
0.0
  0
LINE
  5
6AB
330
1F
100
AcDbEntity
  8
Ｓ_１_１
  6
EXLTYPE3
 62
     2
100
AcDbLine
 10
1957.5
 20
882.0
 30
0.0
 11
1967.0
 21
882.0
 31
0.0
  0
LINE
  5
6AC
330
1F
100
AcDbEntity
  8
Ｓ_１_１
  6
EXLTYPE3
 62
     2
100
AcDbLine
 10
1964.999999999991
 20
971.9999999999999
 30
0.0
 11
1984.999999999991
 21
991.9999999999999
 31
0.0
  0
LINE
  5
6AD
330
1F
100
AcDbEntity
  8
Ｓ_１_１
  6
EXLTYPE3
 62
     2
100
AcDbLine
 10
1985.0
 20
992.0
 30
0.0
 11
2025.0
 21
992.0
 31
0.0
  0
LINE
  5
6AE
330
1F
100
AcDbEntity
  8
Ｓ_１_１
  6
EXLTYPE3
 62
     2
100
AcDbLine
 10
1964.999999999991
 20
971.9999999999999
 30
0.0
 11
1964.999999999991
 21
883.9999999999994
 31
0.0
  0
LINE
  5
6AF
330
1F
100
AcDbEntity
  8
Ｓ_１_１
  6
EXLTYPE3
 62
     2
100
AcDbLine
 10
2734.999999999991
 20
971.9999999999991
 30
0.0
 11
2714.99999999999
 21
991.9999999999991
 31
0.0
  0
LINE
  5
6B0
330
1F
100
AcDbEntity
  8
Ｓ_１_１
  6
EXLTYPE3
 62
     2
100
AcDbLine
 10
2714.999999999981
 20
991.9999999999993
 30
0.0
 11
2674.999999999981
 21
991.9999999999993
 31
0.0
  0
LINE
  5
6B1
330
1F
100
AcDbEntity
  8
Ｓ_１_１
  6
EXLTYPE3
 62
     2
100
AcDbLine
 10
2742.49999999999
 20
881.9999999999986
 30
0.0
 11
2747.49999999999
 21
876.9999999999986
 31
0.0
  0
LINE
  5
6B2
330
1F
100
AcDbEntity
  8
Ｓ_１_１
  6
EXLTYPE3
 62
     2
100
AcDbLine
 10
2732.99999999999
 20
881.9999999999986
 30
0.0
 11
2734.99999999999
 21
883.9999999999986
 31
0.0
  0
LINE
  5
6B3
330
1F
100
AcDbEntity
  8
Ｓ_１_１
  6
EXLTYPE3
 62
     2
100
AcDbLine
 10
2747.49999999999
 20
472.0000000000001
 30
0.0
 11
2747.49999999999
 21
876.9999999999991
 31
0.0
  0
LINE
  5
6B4
330
1F
100
AcDbEntity
  8
Ｓ_１_１
  6
EXLTYPE3
 62
     2
100
AcDbLine
 10
2742.499999999981
 20
881.9999999999992
 30
0.0
 11
2732.999999999981
 21
881.9999999999992
 31
0.0
  0
LINE
  5
6B5
330
1F
100
AcDbEntity
  8
Ｓ_１_１
  6
EXLTYPE3
 62
     2
100
AcDbLine
 10
2734.999999999991
 20
971.9999999999991
 30
0.0
 11
2734.99999999999
 21
883.9999999999986
 31
0.0
  0
LINE
  5
6B6
330
1F
100
AcDbEntity
  8
Ｓ_１_１
  6
EXLTYPE3
 62
     2
100
AcDbLine
 10
2702.999999999991
 20
1071.999999999999
 30
0.0
 11
2704.999999999992
 21
1069.999999999998
 31
0.0
  0
LINE
  5
6B7
330
1F
100
AcDbEntity
  8
Ｓ_１_１
  6
EXLTYPE3
 62
     2
100
AcDbLine
 10
2702.999999999982
 20
1071.999999999999
 30
0.0
 11
2664.999999999982
 21
1071.999999999999
 31
0.0
  0
LINE
  5
6B8
330
1F
100
AcDbEntity
  8
Ｓ_１_１
  6
EXLTYPE3
 62
     2
100
AcDbLine
 10
2700.006852326218
 20
997.2658397805915
 30
0.0
 11
2704.999999999991
 21
1002.527519561807
 31
0.0
  0
LINE
  5
6B9
330
1F
100
AcDbEntity
  8
Ｓ_１_１
  6
EXLTYPE3
 62
     2
100
AcDbLine
 10
2704.999999999991
 20
1002.527519561807
 30
0.0
 11
2704.999999999992
 21
1069.999999999998
 31
0.0
  0
LINE
  5
6BA
330
1F
100
AcDbEntity
  8
Ｓ_１_１
  6
EXLTYPE3
 62
     2
100
AcDbLine
 10
2700.006852326019
 20
997.2658397805915
 30
0.0
 11
2674.999999999981
 21
995.9552861833226
 31
0.0
  0
LINE
  5
6BB
330
1F
100
AcDbEntity
  8
Ｓ_１_１
  6
EXLTYPE0
 62
     2
100
AcDbLine
 10
2747.5
 20
470.0000000000957
 30
0.0
 11
2747.5
 21
446.9999999999997
 31
0.0
  0
LINE
  5
6BC
330
1F
100
AcDbEntity
  8
Ｓ_１_１
  6
EXLTYPE0
 62
     2
100
AcDbLine
 10
2749.499999999952
 20
472.0000000000475
 30
0.0
 11
2747.499999999905
 21
470.0000000000002
 31
0.0
  0
LINE
  5
6BD
330
1F
100
AcDbEntity
  8
Ｓ_１_１
  6
EXLTYPE0
 62
     2
100
AcDbLine
 10
1952.49999999998
 20
470.0000000000965
 30
0.0
 11
1952.49999999998
 21
447.0000000000006
 31
0.0
  0
LINE
  5
6BE
330
1F
100
AcDbEntity
  8
Ｓ_１_１
  6
EXLTYPE0
 62
     2
100
AcDbLine
 10
1950.500000000029
 20
472.0000000000483
 30
0.0
 11
1952.500000000076
 21
470.000000000001
 31
0.0
  0
LINE
  5
6BF
330
1F
100
AcDbEntity
  8
Ｓ_１_１
  6
EXLTYPE0
 62
     2
100
AcDbLine
 10
2747.5
 20
446.9999999999997
 30
0.0
 11
1952.49999999998
 21
446.9999999999997
 31
0.0
  0
DIMENSION
  5
6C0
330
1F
100
AcDbEntity
  8
Ｓ_１_１
  6
CONTINUOUS
 62
     2
100
AcDbDimension
  2
*D33
 10
2900.0
 20
400.0
 30
0.0
 11
2878.0
 21
423.5
 31
0.0
 70
   160
  3
ISO-25
100
AcDbAlignedDimension
 13
2747.5
 23
447.0
 33
0.0
 14
2774.5
 24
400.0
 34
0.0
 50
90.0
100
AcDbRotatedDimension
1001
ACAD
1000
DSTYLE
1002
{
1070
   270
1070
     2
1070
     6
1000
EX_NORM
1070
     7
1000
EX_NORM
1070
    41
1040
24.0
1070
    42
1040
12.0
1070
    44
1040
8.0
1070
    73
1070
     0
1070
    74
1070
     0
1070
    75
1070
     0
1070
    76
1070
     0
1070
    77
1070
     1
1070
    78
1070
     8
1070
   140
1040
27.70323325635104
1070
   147
1040
0.0
1070
   173
1070
     1
1070
   176
1070
     2
1070
   177
1070
     2
1070
   178
1070
     2
1070
   271
1070
     2
1070
   277
1070
     2
1070
   279
1070
     2
1070
   280
1070
     0
1070
   287
1070
     5
1070
   340
1005
388
1002
}
  0
DIMENSION
  5
6CF
330
1F
100
AcDbEntity
  8
Ｓ_１_１
  6
CONTINUOUS
 62
     2
100
AcDbDimension
  2
*D34
 10
2900.0
 20
1072.0
 30
0.0
 11
2878.0
 21
759.5
 31
0.0
 70
   160
  3
ISO-25
100
AcDbAlignedDimension
 13
2747.5
 23
447.0
 33
0.0
 14
2703.0
 24
1072.0
 34
0.0
 50
90.0
100
AcDbRotatedDimension
1001
ACAD
1000
DSTYLE
1002
{
1070
   270
1070
     2
1070
     6
1000
EX_NORM
1070
     7
1000
EX_NORM
1070
    41
1040
24.0
1070
    42
1040
12.0
1070
    44
1040
8.0
1070
    73
1070
     0
1070
    74
1070
     0
1070
    75
1070
     0
1070
    76
1070
     0
1070
    77
1070
     1
1070
    78
1070
     8
1070
   140
1040
27.70323325635104
1070
   147
1040
0.0
1070
   173
1070
     1
1070
   176
1070
     2
1070
   177
1070
     2
1070
   178
1070
     2
1070
   271
1070
     2
1070
   277
1070
     2
1070
   279
1070
     2
1070
   280
1070
     0
1070
   287
1070
     5
1070
   340
1005
388
1002
}
  0
LINE
  5
6DC
330
1F
100
AcDbEntity
  8
Ｓ_１_１
  6
CONTINUOUS
 62
     3
100
AcDbLine
 10
2706.150000000109
 20
599.4999999999699
 30
0.0
 11
2706.150000000109
 21
569.9999999999693
 31
0.0
  0
ARC
  5
6DD
330
1F
100
AcDbEntity
  8
Ｓ_１_１
  6
CONTINUOUS
 62
     3
100
AcDbCircle
 10
2723.642413353289
 20
568.9999999999693
 30
0.0
 40
6.000000000001596
100
AcDbArc
 50
241.0978559733465
 51
270.0
  0
ARC
  5
6DE
330
1F
100
AcDbEntity
  8
Ｓ_１_１
  6
CONTINUOUS
 62
     3
100
AcDbCircle
 10
2723.642413353289
 20
562.9999999999693
 30
0.0
 40
6.000000000000006
100
AcDbArc
 50
89.99999201726119
 51
118.9021440266621
  0
ARC
  5
6DF
330
1F
100
AcDbEntity
  8
Ｓ_１_１
  6
CONTINUOUS
 62
     3
100
AcDbCircle
 10
2708.657587218789
 20
562.9999999999693
 30
0.0
 40
6.000000000001596
100
AcDbArc
 50
61.09786361881239
 51
90.00004175588575
  0
ARC
  5
6E0
330
1F
100
AcDbEntity
  8
Ｓ_１_１
  6
CONTINUOUS
 62
     3
100
AcDbCircle
 10
2708.657582846119
 20
568.9999999999693
 30
0.0
 40
6.000000000001596
100
AcDbArc
 50
270.0000417559226
 51
298.9021840779137
  0
LINE
  5
6E1
330
1F
100
AcDbEntity
  8
Ｓ_１_１
  6
CONTINUOUS
 62
     3
100
AcDbLine
 10
2711.557477376379
 20
563.6940359220237
 30
0.0
 11
2711.557477376379
 21
568.305964077915
 31
0.0
  0
LINE
  5
6E2
330
1F
100
AcDbEntity
  8
Ｓ_１_１
  6
CONTINUOUS
 62
     3
100
AcDbLine
 10
2720.742522494789
 20
563.6940358821073
 30
0.0
 11
2720.742522494789
 21
568.3059641178313
 31
0.0
  0
ARC
  5
6E3
330
1F
100
AcDbEntity
  8
Ｓ_１_１
  6
CONTINUOUS
 62
     3
100
AcDbCircle
 10
2716.150000000109
 20
578.5416666666696
 30
0.0
 40
15.5416666667
100
AcDbArc
 50
252.8126319048212
 51
287.1873675971856
  0
ARC
  5
6E4
330
1F
100
AcDbEntity
  8
Ｓ_１_１
  6
CONTINUOUS
 62
     3
100
AcDbCircle
 10
2716.150000000109
 20
553.4583333332691
 30
0.0
 40
15.5416666667
100
AcDbArc
 50
110.6654786560356
 51
110.6654800033002
  0
ARC
  5
6E5
330
1F
100
AcDbEntity
  8
Ｓ_１_１
  6
CONTINUOUS
 62
     3
100
AcDbCircle
 10
2716.150000000109
 20
553.4583333332691
 30
0.0
 40
15.5416666667
100
AcDbArc
 50
72.81263240281456
 51
107.1873680951786
  0
ARC
  5
6E6
330
1F
100
AcDbEntity
  8
Ｓ_１_１
  6
CONTINUOUS
 62
     3
100
AcDbCircle
 10
2716.150000000109
 20
578.5416666666696
 30
0.0
 40
15.5416666667
100
AcDbArc
 50
290.665476109553
 51
290.6654784093996
  0
ARC
  5
6E7
330
1F
100
AcDbEntity
  8
Ｓ_１_１
  6
CONTINUOUS
 62
     3
100
AcDbCircle
 10
2716.150000000109
 20
553.4583333332691
 30
0.0
 40
15.5416666667
100
AcDbArc
 50
69.3345163543002
 51
69.33452389044773
  0
LINE
  5
6E8
330
1F
100
AcDbEntity
  8
Ｓ_１_１
  6
CONTINUOUS
 62
     3
100
AcDbLine
 10
2708.657586161409
 20
562.9999999999693
 30
0.0
 11
2716.150000000109
 21
562.9999999999693
 31
0.0
  0
LINE
  5
6E9
330
1F
100
AcDbEntity
  8
Ｓ_１_１
  6
CONTINUOUS
 62
     3
100
AcDbLine
 10
2716.150000000109
 20
562.9999999999693
 30
0.0
 11
2723.642413838809
 21
562.9999999999693
 31
0.0
  0
LINE
  5
6EA
330
1F
100
AcDbEntity
  8
Ｓ_１_１
  6
CONTINUOUS
 62
     3
100
AcDbLine
 10
2725.650000000109
 20
567.9999999999693
 30
0.0
 11
2725.650000000109
 21
563.9999999999693
 31
0.0
  0
LINE
  5
6EB
330
1F
100
AcDbEntity
  8
Ｓ_１_１
  6
CONTINUOUS
 62
     3
100
AcDbLine
 10
2706.650000000109
 20
567.9999999999693
 30
0.0
 11
2706.650000000109
 21
563.9999999999693
 31
0.0
  0
LINE
  5
6EC
330
1F
100
AcDbEntity
  8
Ｓ_１_１
  6
CONTINUOUS
 62
     3
100
AcDbLine
 10
2708.657585885809
 20
569.0000015140693
 30
0.0
 11
2706.649999580609
 21
568.0000014624695
 31
0.0
  0
LINE
  5
6ED
330
1F
100
AcDbEntity
  8
Ｓ_１_１
  6
CONTINUOUS
 62
     3
100
AcDbLine
 10
2723.642413306309
 20
569.0000000233692
 30
0.0
 11
2725.649999896009
 21
567.9999998301694
 31
0.0
  0
LINE
  5
6EE
330
1F
100
AcDbEntity
  8
Ｓ_１_１
  6
CONTINUOUS
 62
     3
100
AcDbLine
 10
2708.657586244109
 20
563.0000004854694
 30
0.0
 11
2706.649999654409
 21
564.0000006786693
 31
0.0
  0
LINE
  5
6EF
330
1F
100
AcDbEntity
  8
Ｓ_１_１
  6
CONTINUOUS
 62
     3
100
AcDbLine
 10
2723.642412663309
 20
563.0000018343692
 30
0.0
 11
2725.649999253009
 21
564.0000020275695
 31
0.0
  0
LINE
  5
6F0
330
1F
100
AcDbEntity
  8
Ｓ_１_１
  6
CONTINUOUS
 62
     3
100
AcDbLine
 10
2726.150000000109
 20
599.4999999999699
 30
0.0
 11
2726.150000000109
 21
569.9999999999693
 31
0.0
  0
LINE
  5
6F1
330
1F
100
AcDbEntity
  8
Ｓ_１_１
  6
CONTINUOUS
 62
     3
100
AcDbLine
 10
2716.150000000109
 20
568.9999999999693
 30
0.0
 11
2725.149999335809
 21
568.9999999999693
 31
0.0
  0
LINE
  5
6F2
330
1F
100
AcDbEntity
  8
Ｓ_１_１
  6
CONTINUOUS
 62
     3
100
AcDbLine
 10
2707.150000200709
 20
568.9999999999693
 30
0.0
 11
2716.150000000109
 21
568.9999999999693
 31
0.0
  0
LINE
  5
6F3
330
1F
100
AcDbEntity
  8
Ｓ_１_１
  6
CONTINUOUS
 62
     3
100
AcDbLine
 10
2707.150000200709
 20
568.9999997150692
 30
0.0
 11
2706.150000487809
 21
569.9999995122691
 31
0.0
  0
LINE
  5
6F4
330
1F
100
AcDbEntity
  8
Ｓ_１_１
  6
CONTINUOUS
 62
     3
100
AcDbLine
 10
2726.149999449109
 20
569.9999994489692
 30
0.0
 11
2725.149999335809
 21
568.9999994199695
 31
0.0
  0
LINE
  5
6F5
330
1F
100
AcDbEntity
  8
Ｓ_１_１
  6
CONTINUOUS
 62
     3
100
AcDbLine
 10
2706.150000000109
 20
569.9999999999693
 30
0.0
 11
2716.150000000109
 21
569.9999999999693
 31
0.0
  0
LINE
  5
6F6
330
1F
100
AcDbEntity
  8
Ｓ_１_１
  6
CONTINUOUS
 62
     3
100
AcDbLine
 10
2716.150000000109
 20
569.9999999999693
 30
0.0
 11
2726.150000000109
 21
569.9999999999693
 31
0.0
  0
LINE
  5
6F7
330
1F
100
AcDbEntity
  8
Ｓ_１_１
  6
CONTINUOUS
 62
     3
100
AcDbLine
 10
2720.400001925409
 20
557.9999983529694
 30
0.0
 11
2721.150002047209
 21
558.7499985380693
 31
0.0
  0
LINE
  5
6F8
330
1F
100
AcDbEntity
  8
Ｓ_１_１
  6
CONTINUOUS
 62
     3
100
AcDbLine
 10
2711.150001125109
 20
558.7499974422692
 30
0.0
 11
2711.899999287109
 21
557.9999993434692
 31
0.0
  0
LINE
  5
6F9
330
1F
100
AcDbEntity
  8
Ｓ_１_１
  6
CONTINUOUS
 62
     3
100
AcDbLine
 10
2711.150000000109
 20
558.7499999999693
 30
0.0
 11
2721.150000000109
 21
558.7499999999693
 31
0.0
  0
LINE
  5
6FA
330
1F
100
AcDbEntity
  8
Ｓ_１_１
  6
CONTINUOUS
 62
     3
100
AcDbLine
 10
2711.900000000109
 20
557.9999999999693
 30
0.0
 11
2720.400000000109
 21
557.9999999999693
 31
0.0
  0
LINE
  5
6FB
330
1F
100
AcDbEntity
  8
Ｓ_１_１
  6
CONTINUOUS
 62
     3
100
AcDbLine
 10
2721.150000000109
 20
562.9999999999693
 30
0.0
 11
2721.150000000109
 21
558.7499999999693
 31
0.0
  0
LINE
  5
6FC
330
1F
100
AcDbEntity
  8
Ｓ_１_１
  6
CONTINUOUS
 62
     3
100
AcDbLine
 10
2711.150000000109
 20
562.9999999999693
 30
0.0
 11
2711.150000000109
 21
558.7499999999693
 31
0.0
  0
LINE
  5
6FD
330
1F
100
AcDbEntity
  8
Ｓ_１_１
  6
CONTINUOUS
 62
     3
100
AcDbLine
 10
2711.900000000109
 20
562.9999999999693
 30
0.0
 11
2711.900000000109
 21
557.9999999999693
 31
0.0
  0
LINE
  5
6FE
330
1F
100
AcDbEntity
  8
Ｓ_１_１
  6
CONTINUOUS
 62
     3
100
AcDbLine
 10
2720.400000000109
 20
562.9999999999693
 30
0.0
 11
2720.400000000109
 21
557.9999999999693
 31
0.0
  0
LINE
  5
6FF
330
1F
100
AcDbEntity
  8
Ｓ_１_１
  6
EXLTYPE2
 62
     1
100
AcDbLine
 10
2716.150000000109
 20
625.8811492919698
 30
0.0
 11
2716.150000000109
 21
556.9885520934693
 31
0.0
  0
LINE
  5
700
330
1F
100
AcDbEntity
  8
Ｓ_１_１
  6
CONTINUOUS
 62
     3
100
AcDbLine
 10
2731.650000000073
 20
624.4999999999654
 30
0.0
 11
2700.650000000073
 21
624.4999999999649
 31
0.0
  0
LINE
  5
701
330
1F
100
AcDbEntity
  8
Ｓ_１_１
  6
CONTINUOUS
 62
     3
100
AcDbLine
 10
2731.650000000073
 20
599.4999999999659
 30
0.0
 11
2700.650000000073
 21
599.4999999999653
 31
0.0
  0
ENDSEC
  0
SECTION
  2
OBJECTS
  0
DICTIONARY
  5
C
330
0
100
AcDbDictionary
  3
ACAD_GROUP
350
D
  3
ACAD_LAYOUT
350
1A
  3
ACAD_MATERIAL
350
43
  3
ACAD_MLEADERSTYLE
350
6B
  3
ACAD_MLINESTYLE
350
17
  3
ACAD_PLOTSETTINGS
350
19
  3
ACAD_SCALELIST
350
47
  3
ACAD_VISUALSTYLE
350
2A
  3
ACDBHEADERROUNDTRIPXREC
350
702
  3
ACDBVARIABLEDICTIONARY
350
723
  0
DICTIONARY
  5
72E
330
8
100
AcDbDictionary
280
     1
  3
ACAD_XREC_ROUNDTRIP
360
72F
  0
DICTIONARY
  5
D
102
{ACAD_REACTORS
330
C
102
}
330
C
100
AcDbDictionary
  0
DICTIONARY
  5
1A
102
{ACAD_REACTORS
330
C
102
}
330
C
100
AcDbDictionary
  0
DICTIONARY
  5
43
102
{ACAD_REACTORS
330
C
102
}
330
C
100
AcDbDictionary
  3
BYBLOCK
350
45
  3
BYLAYER
350
44
  3
GLOBAL
350
46
  0
DICTIONARY
  5
6B
102
{ACAD_REACTORS
330
C
102
}
330
C
100
AcDbDictionary
  3
STANDARD
350
6C
  0
DICTIONARY
  5
17
102
{ACAD_REACTORS
330
C
102
}
330
C
100
AcDbDictionary
  3
STANDARD
350
18
  0
DICTIONARY
  5
19
102
{ACAD_REACTORS
330
C
102
}
330
C
100
AcDbDictionary
  0
DICTIONARY
  5
47
102
{ACAD_REACTORS
330
C
102
}
330
C
100
AcDbDictionary
  3
A0
350
48
  3
A1
350
49
  3
A2
350
4A
  3
A3
350
4B
  3
A4
350
4C
  3
A5
350
4D
  3
A6
350
4E
  3
A7
350
4F
  3
A8
350
50
  3
A9
350
51
  3
B0
350
52
  3
B1
350
53
  3
B2
350
54
  3
B3
350
55
  3
B4
350
56
  3
B5
350
57
  3
B6
350
58
  3
B7
350
59
  3
B8
350
5A
  3
B9
350
5B
  3
C0
350
5C
  3
C1
350
5D
  3
C2
350
5E
  3
C3
350
5F
  3
C4
350
60
  3
C5
350
61
  3
C6
350
62
  3
C7
350
63
  3
C8
350
64
  3
C9
350
65
  3
D0
350
66
  3
D1
350
67
  3
D2
350
68
  0
DICTIONARY
  5
2A
102
{ACAD_REACTORS
330
C
102
}
330
C
100
AcDbDictionary
  3
2DWIREFRAME
350
2F
  3
BASIC
350
32
  3
BRIGHTEN
350
36
  3
COLORCHANGE
350
3A
  3
CONCEPTUAL
350
34
  3
DIM
350
35
  3
EDGECOLOROFF
350
3D
  3
FACEPATTERN
350
39
  3
FLAT
350
2B
  3
FLATWITHEDGES
350
2C
  3
GOURAUD
350
2D
  3
GOURAUDWITHEDGES
350
2E
  3
HIDDEN
350
31
  3
JITTEROFF
350
3B
  3
LINEPATTERN
350
38
  3
OVERHANGOFF
350
3C
  3
REALISTIC
350
33
  3
SHADED
350
42
  3
SHADED_WITH_EDGES
350
41
  3
SHADES_OF_GRAY
350
3E
  3
SKETCHY
350
3F
  3
THICKEN
350
37
  3
WIREFRAME
350
30
  3
X-RAY
350
40
  0
DICTIONARY
  5
702
102
{ACAD_REACTORS
330
C
102
}
330
C
100
AcDbDictionary
  3
CEPSNID
350
70C
  3
CEPSNTYPE
350
70B
  3
DIMSTYLEDATA
350
722
  3
FINGERPRINTGUID
350
70D
  3
HYPERLINKBASE
350
705
  3
INSUNITS
350
70A
  3
LAYOUTDICT
350
707
  3
LWETCUNION
350
709
  3
PLOTSETDICT
350
708
  3
PSVPSCALE
350
70F
  3
PUCSBASE
350
712
  3
PUCSORGBACK
350
718
  3
PUCSORGBOTTOM
350
714
  3
PUCSORGFRONT
350
717
  3
PUCSORGLEFT
350
715
  3
PUCSORGRIGHT
350
716
  3
PUCSORGTOP
350
713
  3
PUCSORTHOREF
350
710
  3
PUCSORTHOVIEW
350
711
  3
STYLESHEET
350
706
  3
TSTACKALIGN
350
703
  3
TSTACKSIZE
350
704
  3
UCSBASE
350
71B
  3
UCSORGBACK
350
721
  3
UCSORGBOTTOM
350
71D
  3
UCSORGFRONT
350
720
  3
UCSORGLEFT
350
71E
  3
UCSORGRIGHT
350
71F
  3
UCSORGTOP
350
71C
  3
UCSORTHOREF
350
719
  3
UCSORTHOVIEW
350
71A
  3
VERSIONGUID
350
70E
  0
DICTIONARY
  5
723
102
{ACAD_REACTORS
330
C
102
}
330
C
100
AcDbDictionary
  3
CANNOSCALE
350
730
  3
CENTEREXE
350
72A
  3
CENTERLTYPEFILE
350
72B
  3
CMLEADERSTYLE
350
725
  3
CTABLESTYLE
350
724
  3
DIMASSOC
350
72C
  3
HIDETEXT
350
72D
  3
MSLTSCALE
350
731
  3
PSOLHEIGHT
350
727
  3
PSOLWIDTH
350
726
  0
XRECORD
  5
72F
102
{ACAD_REACTORS
330
72E
102
}
330
72E
100
AcDbXrecord
102
VTR_0.000_0.000_1.000_1.000_VISUALSTYLE
340
2F
102
VTR_0.000_0.000_1.000_1.000_GRIDDISPLAY
 70
     3
102
VTR_0.000_0.000_1.000_1.000_GRIDMAJOR
 70
     5
102
VTR_0.000_0.000_1.000_1.000_DEFAULTLIGHTING
280
     1
102
VTR_0.000_0.000_1.000_1.000_DEFAULTLIGHTINGTYPE
 70
     1
102
VTR_0.000_0.000_1.000_1.000_BRIGHTNESS
141
0.0
102
VTR_0.000_0.000_1.000_1.000_CONTRAST
142
0.0
  0
MATERIAL
  5
45
102
{ACAD_REACTORS
330
43
102
}
102
{ACAD_XDICTIONARY
360
734
102
}
330
43
100
AcDbMaterial
  1
BYBLOCK
  0
MATERIAL
  5
44
102
{ACAD_REACTORS
330
43
102
}
102
{ACAD_XDICTIONARY
360
732
102
}
330
43
100
AcDbMaterial
  1
BYLAYER
  0
MATERIAL
  5
46
102
{ACAD_REACTORS
330
43
102
}
102
{ACAD_XDICTIONARY
360
736
102
}
330
43
100
AcDbMaterial
  1
GLOBAL
  0
ACAD_PROXY_OBJECT
  5
6C
102
{ACAD_REACTORS
330
6B
102
}
330
6B
100
AcDbProxyObject
 90
      499
 91
      505
 93
      610
310
40901902A4063FBFFFFFE0000000000000020400000000000020404214DD185B99185C990000000000000104090141901A00000000000004100000000000000041025764000000000000039000
340
14
340
0
340
11
340
0
 94
        0
1001
ACAD_MLEADERVER
1070
     2
  0
MLINESTYLE
  5
18
102
{ACAD_REACTORS
330
17
102
}
330
17
100
AcDbMlineStyle
  2
Standard
 70
     0
  3

 62
   256
 51
90.0
 52
90.0
 71
     2
 49
0.5
 62
   256
  6
BYLAYER
 49
-0.5
 62
   256
  6
BYLAYER
  0
ACAD_PROXY_OBJECT
  5
48
102
{ACAD_REACTORS
330
47
102
}
330
47
100
AcDbProxyObject
 90
      499
 91
      503
 93
       41
310
903313A31580
  0
ACAD_PROXY_OBJECT
  5
49
102
{ACAD_REACTORS
330
47
102
}
330
47
100
AcDbProxyObject
 90
      499
 91
      503
 93
      105
310
903313A324000000000000004000
  0
ACAD_PROXY_OBJECT
  5
4A
102
{ACAD_REACTORS
330
47
102
}
330
47
100
AcDbProxyObject
 90
      499
 91
      503
 93
      105
310
903313A344000000000000104000
  0
ACAD_PROXY_OBJECT
  5
4B
102
{ACAD_REACTORS
330
47
102
}
330
47
100
AcDbProxyObject
 90
      499
 91
      503
 93
      105
310
903313A354000000000000144000
  0
ACAD_PROXY_OBJECT
  5
4C
102
{ACAD_REACTORS
330
47
102
}
330
47
100
AcDbProxyObject
 90
      499
 91
      503
 93
      105
310
903313A384000000000000204000
  0
ACAD_PROXY_OBJECT
  5
4D
102
{ACAD_REACTORS
330
47
102
}
330
47
100
AcDbProxyObject
 90
      499
 91
      503
 93
      113
310
904313A31304000000000000244000
  0
ACAD_PROXY_OBJECT
  5
4E
102
{ACAD_REACTORS
330
47
102
}
330
47
100
AcDbProxyObject
 90
      499
 91
      503
 93
      113
310
904313A31364000000000000304000
  0
ACAD_PROXY_OBJECT
  5
4F
102
{ACAD_REACTORS
330
47
102
}
330
47
100
AcDbProxyObject
 90
      499
 91
      503
 93
      113
310
904313A32304000000000000344000
  0
ACAD_PROXY_OBJECT
  5
50
102
{ACAD_REACTORS
330
47
102
}
330
47
100
AcDbProxyObject
 90
      499
 91
      503
 93
      113
310
904313A333040000000000003E4000
  0
ACAD_PROXY_OBJECT
  5
51
102
{ACAD_REACTORS
330
47
102
}
330
47
100
AcDbProxyObject
 90
      499
 91
      503
 93
      113
310
904313A34304000000000000444000
  0
ACAD_PROXY_OBJECT
  5
52
102
{ACAD_REACTORS
330
47
102
}
330
47
100
AcDbProxyObject
 90
      499
 91
      503
 93
      113
310
904313A35304000000000000494000
  0
ACAD_PROXY_OBJECT
  5
53
102
{ACAD_REACTORS
330
47
102
}
330
47
100
AcDbProxyObject
 90
      499
 91
      503
 93
      121
310
905313A3130304000000000000594000
  0
ACAD_PROXY_OBJECT
  5
54
102
{ACAD_REACTORS
330
47
102
}
330
47
100
AcDbProxyObject
 90
      499
 91
      503
 93
      105
310
903323A310000000000000010100
  0
ACAD_PROXY_OBJECT
  5
55
102
{ACAD_REACTORS
330
47
102
}
330
47
100
AcDbProxyObject
 90
      499
 91
      503
 93
      105
310
903343A310000000000000410100
  0
ACAD_PROXY_OBJECT
  5
56
102
{ACAD_REACTORS
330
47
102
}
330
47
100
AcDbProxyObject
 90
      499
 91
      503
 93
      105
310
903383A310000000000000810100
  0
ACAD_PROXY_OBJECT
  5
57
102
{ACAD_REACTORS
330
47
102
}
330
47
100
AcDbProxyObject
 90
      499
 91
      503
 93
      113
310
90431303A310000000000000910100
  0
ACAD_PROXY_OBJECT
  5
58
102
{ACAD_REACTORS
330
47
102
}
330
47
100
AcDbProxyObject
 90
      499
 91
      503
 93
      121
310
9053130303A310000000000001650100
  0
ACAD_PROXY_OBJECT
  5
59
102
{ACAD_REACTORS
330
47
102
}
330
47
100
AcDbProxyObject
 90
      499
 91
      503
 93
      257
310
90E312F31323822203D2031272D3022000000000000200FC000000000000284000
  0
ACAD_PROXY_OBJECT
  5
5A
102
{ACAD_REACTORS
330
47
102
}
330
47
100
AcDbProxyObject
 90
      499
 91
      503
 93
      249
310
90D312F363422203D2031272D3022000000000000240FC000000000000284000
  0
ACAD_PROXY_OBJECT
  5
5B
102
{ACAD_REACTORS
330
47
102
}
330
47
100
AcDbProxyObject
 90
      499
 91
      503
 93
      249
310
90D312F333222203D2031272D3022000000000000280FC000000000000284000
  0
ACAD_PROXY_OBJECT
  5
5C
102
{ACAD_REACTORS
330
47
102
}
330
47
100
AcDbProxyObject
 90
      499
 91
      503
 93
      249
310
90D312F313622203D2031272D30220000000000002C0FC000000000000284000
  0
ACAD_PROXY_OBJECT
  5
5D
102
{ACAD_REACTORS
330
47
102
}
330
47
100
AcDbProxyObject
 90
      499
 91
      503
 93
      249
310
90D332F333222203D2031272D30220000000000002E0FC000000000000284000
  0
ACAD_PROXY_OBJECT
  5
5E
102
{ACAD_REACTORS
330
47
102
}
330
47
100
AcDbProxyObject
 90
      499
 91
      503
 93
      241
310
90C312F3822203D2031272D3022000000000000300FC000000000000284000
  0
ACAD_PROXY_OBJECT
  5
5F
102
{ACAD_REACTORS
330
47
102
}
330
47
100
AcDbProxyObject
 90
      499
 91
      503
 93
      249
310
90D332F313622203D2031272D3022000000000000320FC000000000000284000
  0
ACAD_PROXY_OBJECT
  5
60
102
{ACAD_REACTORS
330
47
102
}
330
47
100
AcDbProxyObject
 90
      499
 91
      503
 93
      241
310
90C312F3422203D2031272D3022000000000000340FC000000000000284000
  0
ACAD_PROXY_OBJECT
  5
61
102
{ACAD_REACTORS
330
47
102
}
330
47
100
AcDbProxyObject
 90
      499
 91
      503
 93
      241
310
90C332F3822203D2031272D3022000000000000360FC000000000000284000
  0
ACAD_PROXY_OBJECT
  5
62
102
{ACAD_REACTORS
330
47
102
}
330
47
100
AcDbProxyObject
 90
      499
 91
      503
 93
      241
310
90C312F3222203D2031272D3022000000000000380FC000000000000284000
  0
ACAD_PROXY_OBJECT
  5
63
102
{ACAD_REACTORS
330
47
102
}
330
47
100
AcDbProxyObject
 90
      499
 91
      503
 93
      241
310
90C332F3422203D2031272D30220000000000003A0FC000000000000284000
  0
ACAD_PROXY_OBJECT
  5
64
102
{ACAD_REACTORS
330
47
102
}
330
47
100
AcDbProxyObject
 90
      499
 91
      503
 93
      161
310
90A3122203D2031272D30224000000000000284000
  0
ACAD_PROXY_OBJECT
  5
65
102
{ACAD_REACTORS
330
47
102
}
330
47
100
AcDbProxyObject
 90
      499
 91
      503
 93
      257
310
90E312D312F3222203D2031272D30220000000000003E0FC000000000000284000
  0
ACAD_PROXY_OBJECT
  5
66
102
{ACAD_REACTORS
330
47
102
}
330
47
100
AcDbProxyObject
 90
      499
 91
      503
 93
      225
310
90A3322203D2031272D302200000000000002100000000000000284000
  0
ACAD_PROXY_OBJECT
  5
67
102
{ACAD_REACTORS
330
47
102
}
330
47
100
AcDbProxyObject
 90
      499
 91
      503
 93
      225
310
90A3622203D2031272D302200000000000006100000000000000284000
  0
ACAD_PROXY_OBJECT
  5
68
102
{ACAD_REACTORS
330
47
102
}
330
47
100
AcDbProxyObject
 90
      499
 91
      503
 93
      249
310
90D31272D3022203D2031272D30220000000000000A100000000000000284000
  0
ACAD_PROXY_OBJECT
  5
2F
102
{ACAD_REACTORS
330
2A
102
}
330
2A
100
AcDbProxyObject
 90
      499
 91
      501
 93
      436
310
42CC9915DA5C99599C985B595049028333333333333E33F0000000000000F90107901411070040501600405405064090741402480A0340
1001
ACAD
1000
AcDbSavedByObjectVersion
1070
     0
  0
ACAD_PROXY_OBJECT
  5
32
102
{ACAD_REACTORS
330
2A
102
}
330
2A
100
AcDbProxyObject
 90
      499
 91
      501
 93
      388
310
4150985CDA58D07406404333333333333E33F0000000000000F90107A41107004050150841D405064090741402480A0350
1001
ACAD
1000
AcDbSavedByObjectVersion
1070
     0
  0
ACAD_PROXY_OBJECT
  5
36
102
{ACAD_REACTORS
330
2A
102
}
330
2A
100
AcDbProxyObject
 90
      499
 91
      501
 93
      428
310
42109C9A59DA1D195B90C409028333333333333E33F0000000000000F9010790141107004050150841D405064090741402480A029950
1001
ACAD
1000
AcDbSavedByObjectVersion
1070
     0
  0
ACAD_PROXY_OBJECT
  5
3A
102
{ACAD_REACTORS
330
2A
102
}
330
2A
100
AcDbProxyObject
 90
      499
 91
      501
 93
      452
310
42D0DBDB1BDC90DA185B99D95104090240C333333333333E33F0000000000000F90108901411070040501508421405064090741402480A0350
1001
ACAD
1000
AcDbSavedByObjectVersion
1070
     0
  0
ACAD_PROXY_OBJECT
  5
34
102
{ACAD_REACTORS
330
2A
102
}
330
2A
100
AcDbProxyObject
 90
      499
 91
      501
 93
      500
310
4290DBDB98D95C1D1D585B10940D028333333333333E33F0000000000000F90107902409070040501000000000018199010841D405064090740C02480A0340
1001
ACAD
1000
AcDbSavedByObjectVersion
1070
     0
  0
ACAD_PROXY_OBJECT
  5
35
102
{ACAD_REACTORS
330
2A
102
}
330
2A
100
AcDbProxyObject
 90
      499
 91
      501
 93
      412
310
40D11A5B50B409028333333333333E33F0000000000000F9010790141107004050150841D405064090741402480A02677FFFFFD0
1001
ACAD
1000
AcDbSavedByObjectVersion
1070
     0
  0
ACAD_PROXY_OBJECT
  5
3D
102
{ACAD_REACTORS
330
2A
102
}
330
2A
100
AcDbProxyObject
 90
      499
 91
      501
 93
      452
310
43115919D950DBDB1BDC93D999916409028333333333333E33F0000000000000F9010790141107004050150841D405064090741402480A0350
1001
ACAD
1000
AcDbSavedByObjectVersion
1070
     0
  0
ACAD_PROXY_OBJECT
  5
39
102
{ACAD_REACTORS
330
2A
102
}
330
2A
100
AcDbProxyObject
 90
      499
 91
      501
 93
      444
310
42D19858D95C185D1D195C9B90F409028333333333333E33F0000000000000F9010790141107004050150841D405064090741402480A0350
1001
ACAD
1000
AcDbSavedByObjectVersion
1070
     0
  0
ACAD_PROXY_OBJECT
  5
2B
102
{ACAD_REACTORS
330
2A
102
}
330
2A
100
AcDbProxyObject
 90
      499
 91
      501
 93
      380
310
41119B185D240901404333333333333E33F0000000000000F9010740A907004050150841D405064090741402480A1B50
1001
ACAD
1000
AcDbSavedByObjectVersion
1070
     0
  0
ACAD_PROXY_OBJECT
  5
2C
102
{ACAD_REACTORS
330
2A
102
}
330
2A
100
AcDbProxyObject
 90
      499
 91
      501
 93
      468
310
43519B185D15DA5D1A115919D95CD0140901404333333333333E33F0000000000000F90107409019070040501600405405064090741402480A1B50
1001
ACAD
1000
AcDbSavedByObjectVersion
1070
     0
  0
ACAD_PROXY_OBJECT
  5
2D
102
{ACAD_REACTORS
330
2A
102
}
330
2A
100
AcDbProxyObject
 90
      499
 91
      501
 93
      404
310
41D1DBDD5C985D5910240902404333333333333E33F0000000000000F9010740A9070040501641D405064090741402480A1B50
1001
ACAD
1000
AcDbSavedByObjectVersion
1070
     0
  0
ACAD_PROXY_OBJECT
  5
2E
102
{ACAD_REACTORS
330
2A
102
}
330
2A
100
AcDbProxyObject
 90
      499
 91
      501
 93
      492
310
4411DBDD5C985D5915DA5D1A115919D95CD0340902404333333333333E33F0000000000000F90107409019070040501600405405064090741402480A1B50
1001
ACAD
1000
AcDbSavedByObjectVersion
1070
     0
  0
ACAD_PROXY_OBJECT
  5
31
102
{ACAD_REACTORS
330
2A
102
}
330
2A
100
AcDbProxyObject
 90
      499
 91
      501
 93
      476
310
41921A5919195B90640502408333333333333E33F0000000000000F901079024090700405020000000000001110200405405064090740C02480A0340
1001
ACAD
1000
AcDbSavedByObjectVersion
1070
     0
  0
ACAD_PROXY_OBJECT
  5
3B
102
{ACAD_REACTORS
330
2A
102
}
330
2A
100
AcDbProxyObject
 90
      499
 91
      501
 93
      428
310
42529A5D1D195C93D999914409028333333333333E33F0000000000000F9010790141107004050150A41D405064090741402480A0350
1001
ACAD
1000
AcDbSavedByObjectVersion
1070
     0
  0
ACAD_PROXY_OBJECT
  5
38
102
{ACAD_REACTORS
330
2A
102
}
330
2A
100
AcDbProxyObject
 90
      499
 91
      501
 93
      444
310
42D31A5B995C185D1D195C9B90E409028333333333333E33F0000000000000F9010790141107004050750841D405064090741402483A0350
1001
ACAD
1000
AcDbSavedByObjectVersion
1070
     0
  0
ACAD_PROXY_OBJECT
  5
3C
102
{ACAD_REACTORS
330
2A
102
}
330
2A
100
AcDbProxyObject
 90
      499
 91
      501
 93
      444
310
42D3DD995C9A185B99D3D999915409028333333333333E33F0000000000000F9010790141107004050150941D405064090741402480A0350
1001
ACAD
1000
AcDbSavedByObjectVersion
1070
     0
  0
ACAD_PROXY_OBJECT
  5
33
102
{ACAD_REACTORS
330
2A
102
}
330
2A
100
AcDbProxyObject
 90
      499
 91
      501
 93
      428
310
425499585B1A5CDD1A58D08409038333333333333E33F0000000000000F9010740A907004050150800405405064090740C02480A1B40
1001
ACAD
1000
AcDbSavedByObjectVersion
1070
     0
  0
ACAD_PROXY_OBJECT
  5
42
102
{ACAD_REACTORS
330
2A
102
}
330
2A
100
AcDbProxyObject
 90
      499
 91
      501
 93
      420
310
4194DA1859195911B40902404333333333333E33F0000000000000F9010740A41107004050150800405405064090840C02480A0B40
1001
ACAD
1000
AcDbSavedByObjectVersion
1070
     0
  0
ACAD_PROXY_OBJECT
  5
41
102
{ACAD_REACTORS
330
2A
102
}
330
2A
100
AcDbProxyObject
 90
      499
 91
      501
 93
      516
310
4454DA18591959081DDA5D1A08195919D95CD1A40902404333333333333E33F0000000000000F901074090142907004050250800405405064090740C02480A0B40
1001
ACAD
1000
AcDbSavedByObjectVersion
1070
     0
  0
ACAD_PROXY_OBJECT
  5
3E
102
{ACAD_REACTORS
330
2A
102
}
330
2A
100
AcDbProxyObject
 90
      499
 91
      501
 93
      532
310
4394DA1859195CC81BD98811DC985E5174090240C333333333333E33F0000000000000F901079024090741D01000000000000111010841D405064090740C02480A0340
1001
ACAD
1000
AcDbSavedByObjectVersion
1070
     0
  0
ACAD_PROXY_OBJECT
  5
3F
102
{ACAD_REACTORS
330
2A
102
}
330
2A
100
AcDbProxyObject
 90
      499
 91
      501
 93
      476
310
41D4DAD95D18DA1E51840502408333333333333E33F0000000000000F901079024090741D01000000000000111010B41D405064090741802480A0340
1001
ACAD
1000
AcDbSavedByObjectVersion
1070
     0
  0
ACAD_PROXY_OBJECT
  5
37
102
{ACAD_REACTORS
330
2A
102
}
330
2A
100
AcDbProxyObject
 90
      499
 91
      501
 93
      412
310
41D51A1A58DAD95B90D409028333333333333E33F0000000000000F9010790141107004050150C41D405064090741402480A0350
1001
ACAD
1000
AcDbSavedByObjectVersion
1070
     0
  0
ACAD_PROXY_OBJECT
  5
30
102
{ACAD_REACTORS
330
2A
102
}
330
2A
100
AcDbProxyObject
 90
      499
 91
      501
 93
      420
310
4255DA5C99599C985B595059028333333333333E33F0000000000000F90107901411070040501600405405064090740C02480A0340
1001
ACAD
1000
AcDbSavedByObjectVersion
1070
     0
  0
ACAD_PROXY_OBJECT
  5
40
102
{ACAD_REACTORS
330
2A
102
}
330
2A
100
AcDbProxyObject
 90
      499
 91
      501
 93
      404
310
41560B54985E51940902404000000000000E03F0000000000000F9010740501907004050150841D405064090740C02480A1B40
1001
ACAD
1000
AcDbSavedByObjectVersion
1070
     0
  0
XRECORD
  5
70C
102
{ACAD_REACTORS
330
702
102
}
330
702
100
AcDbXrecord
340
0
  0
XRECORD
  5
70B
102
{ACAD_REACTORS
330
702
102
}
330
702
100
AcDbXrecord
 90
        0
  0
XRECORD
  5
722
102
{ACAD_REACTORS
330
702
102
}
330
702
100
AcDbXrecord
1000
DSTYLE
1002
{
1070
   340
340
11
1002
}
  0
XRECORD
  5
70D
102
{ACAD_REACTORS
330
702
102
}
330
702
100
AcDbXrecord
  1
{ab6a2dac-2a6d-4f7f-b5c3-03a08b85c488}
  0
XRECORD
  5
705
102
{ACAD_REACTORS
330
702
102
}
330
702
100
AcDbXrecord
  1

  0
XRECORD
  5
70A
102
{ACAD_REACTORS
330
702
102
}
330
702
100
AcDbXrecord
 90
        4
  0
XRECORD
  5
707
102
{ACAD_REACTORS
330
702
102
}
330
702
100
AcDbXrecord
340
1A
  0
XRECORD
  5
709
102
{ACAD_REACTORS
330
702
102
}
330
702
100
AcDbXrecord
 90
    10781
  0
XRECORD
  5
708
102
{ACAD_REACTORS
330
702
102
}
330
702
100
AcDbXrecord
340
19
  0
XRECORD
  5
70F
102
{ACAD_REACTORS
330
702
102
}
330
702
100
AcDbXrecord
 40
0.0
  0
XRECORD
  5
712
102
{ACAD_REACTORS
330
702
102
}
330
702
100
AcDbXrecord
340
0
  0
XRECORD
  5
718
102
{ACAD_REACTORS
330
702
102
}
330
702
100
AcDbXrecord
 10
0.0
 20
0.0
 30
0.0
  0
XRECORD
  5
714
102
{ACAD_REACTORS
330
702
102
}
330
702
100
AcDbXrecord
 10
0.0
 20
0.0
 30
0.0
  0
XRECORD
  5
717
102
{ACAD_REACTORS
330
702
102
}
330
702
100
AcDbXrecord
 10
0.0
 20
0.0
 30
0.0
  0
XRECORD
  5
715
102
{ACAD_REACTORS
330
702
102
}
330
702
100
AcDbXrecord
 10
0.0
 20
0.0
 30
0.0
  0
XRECORD
  5
716
102
{ACAD_REACTORS
330
702
102
}
330
702
100
AcDbXrecord
 10
0.0
 20
0.0
 30
0.0
  0
XRECORD
  5
713
102
{ACAD_REACTORS
330
702
102
}
330
702
100
AcDbXrecord
 10
0.0
 20
0.0
 30
0.0
  0
XRECORD
  5
710
102
{ACAD_REACTORS
330
702
102
}
330
702
100
AcDbXrecord
340
0
  0
XRECORD
  5
711
102
{ACAD_REACTORS
330
702
102
}
330
702
100
AcDbXrecord
 70
     0
  0
XRECORD
  5
706
102
{ACAD_REACTORS
330
702
102
}
330
702
100
AcDbXrecord
  1

  0
XRECORD
  5
703
102
{ACAD_REACTORS
330
702
102
}
330
702
100
AcDbXrecord
 90
        1
  0
XRECORD
  5
704
102
{ACAD_REACTORS
330
702
102
}
330
702
100
AcDbXrecord
 90
       70
  0
XRECORD
  5
71B
102
{ACAD_REACTORS
330
702
102
}
330
702
100
AcDbXrecord
340
0
  0
XRECORD
  5
721
102
{ACAD_REACTORS
330
702
102
}
330
702
100
AcDbXrecord
 10
0.0
 20
0.0
 30
0.0
  0
XRECORD
  5
71D
102
{ACAD_REACTORS
330
702
102
}
330
702
100
AcDbXrecord
 10
0.0
 20
0.0
 30
0.0
  0
XRECORD
  5
720
102
{ACAD_REACTORS
330
702
102
}
330
702
100
AcDbXrecord
 10
0.0
 20
0.0
 30
0.0
  0
XRECORD
  5
71E
102
{ACAD_REACTORS
330
702
102
}
330
702
100
AcDbXrecord
 10
0.0
 20
0.0
 30
0.0
  0
XRECORD
  5
71F
102
{ACAD_REACTORS
330
702
102
}
330
702
100
AcDbXrecord
 10
0.0
 20
0.0
 30
0.0
  0
XRECORD
  5
71C
102
{ACAD_REACTORS
330
702
102
}
330
702
100
AcDbXrecord
 10
0.0
 20
0.0
 30
0.0
  0
XRECORD
  5
719
102
{ACAD_REACTORS
330
702
102
}
330
702
100
AcDbXrecord
340
0
  0
XRECORD
  5
71A
102
{ACAD_REACTORS
330
702
102
}
330
702
100
AcDbXrecord
 70
     0
  0
XRECORD
  5
70E
102
{ACAD_REACTORS
330
702
102
}
330
702
100
AcDbXrecord
  1
{FAEB1C32-E019-11D5-929B-00C0DF256EC4}
  0
DICTIONARYVAR
  5
730
102
{ACAD_REACTORS
330
723
102
}
330
723
100
DictionaryVariables
280
     0
  1
1:1
  0
DICTIONARYVAR
  5
72A
102
{ACAD_REACTORS
330
723
102
}
330
723
100
DictionaryVariables
280
     0
  1
3.500000
  0
DICTIONARYVAR
  5
72B
102
{ACAD_REACTORS
330
723
102
}
330
723
100
DictionaryVariables
280
     0
  1
acadiso.lin
  0
DICTIONARYVAR
  5
725
102
{ACAD_REACTORS
330
723
102
}
330
723
100
DictionaryVariables
280
     0
  1
Standard
  0
DICTIONARYVAR
  5
724
102
{ACAD_REACTORS
330
723
102
}
330
723
100
DictionaryVariables
280
     0
  1
Standard
  0
DICTIONARYVAR
  5
72C
102
{ACAD_REACTORS
330
723
102
}
330
723
100
DictionaryVariables
280
     0
  1
2
  0
DICTIONARYVAR
  5
72D
102
{ACAD_REACTORS
330
723
102
}
330
723
100
DictionaryVariables
280
     0
  1
1
  0
DICTIONARYVAR
  5
731
102
{ACAD_REACTORS
330
723
102
}
330
723
100
DictionaryVariables
280
     0
  1
1
  0
DICTIONARYVAR
  5
727
102
{ACAD_REACTORS
330
723
102
}
330
723
100
DictionaryVariables
280
     0
  1
80.000000
  0
DICTIONARYVAR
  5
726
102
{ACAD_REACTORS
330
723
102
}
330
723
100
DictionaryVariables
280
     0
  1
5.000000
  0
DICTIONARY
  5
734
330
45
100
AcDbDictionary
280
     1
  3
ACAD_XREC_ROUNDTRIP
360
735
  0
DICTIONARY
  5
732
330
44
100
AcDbDictionary
280
     1
  3
ACAD_XREC_ROUNDTRIP
360
733
  0
DICTIONARY
  5
736
330
46
100
AcDbDictionary
280
     1
  3
ACAD_XREC_ROUNDTRIP
360
737
  0
XRECORD
  5
735
102
{ACAD_REACTORS
330
734
102
}
330
734
100
AcDbXrecord
102
MATERIAL
148
0.0
149
0.0
149
0.0
 93
        0
 94
      127
282
     0
 72
     1
 77
     1
171
     1
175
     1
179
     1
273
     0
  0
XRECORD
  5
733
102
{ACAD_REACTORS
330
732
102
}
330
732
100
AcDbXrecord
102
MATERIAL
148
0.0
149
0.0
149
0.0
 93
        0
 94
      127
282
     0
 72
     1
 77
     1
171
     1
175
     1
179
     1
273
     0
  0
XRECORD
  5
737
102
{ACAD_REACTORS
330
736
102
}
330
736
100
AcDbXrecord
102
MATERIAL
148
0.0
149
0.0
149
0.0
 93
        0
 94
      127
282
     0
 72
     1
 77
     1
171
     1
175
     1
179
     1
273
     0
  0
ENDSEC
  0
EOF
