  0
SECTION
  2
HEADER
  9
$ACADVER
  1
AC1014
  9
$ACADMAINTVER
 70
     9
  9
$DWGCODEPAGE
  3
ANSI_932
  9
$INSBASE
 10
0.0
 20
0.0
 30
0.0
  9
$EXTMIN
 10
40.0
 20
40.0
 30
0.0
  9
$EXTMAX
 10
1640.0
 20
1148.0
 30
0.0
  9
$LIMMIN
 10
0.0
 20
0.0
  9
$LIMMAX
 10
420.0
 20
297.0
  9
$ORTHOMODE
 70
     0
  9
$REGENMODE
 70
     1
  9
$FILLMODE
 70
     1
  9
$QTEXTMODE
 70
     0
  9
$MIRRTEXT
 70
     1
  9
$DRAGMODE
 70
     2
  9
$LTSCALE
 40
1.0
  9
$OSMODE
 70
    37
  9
$ATTMODE
 70
     1
  9
$TEXTSIZE
 40
2.5
  9
$TRACEWID
 40
1.0
  9
$TEXTSTYLE
  7
STANDARD
  9
$CLAYER
  8
Ｓ_１_１
  9
$CELTYPE
  6
BYLAYER
  9
$CECOLOR
 62
   256
  9
$CELTSCALE
 40
1.0
  9
$DELOBJ
 70
     1
  9
$DISPSILH
 70
     0
  9
$DIMSCALE
 40
1.0
  9
$DIMASZ
 40
2.5
  9
$DIMEXO
 40
0.625
  9
$DIMDLI
 40
3.75
  9
$DIMRND
 40
0.0
  9
$DIMDLE
 40
0.0
  9
$DIMEXE
 40
1.25
  9
$DIMTP
 40
0.0
  9
$DIMTM
 40
0.0
  9
$DIMTXT
 40
2.5
  9
$DIMCEN
 40
2.5
  9
$DIMTSZ
 40
0.0
  9
$DIMTOL
 70
     0
  9
$DIMLIM
 70
     0
  9
$DIMTIH
 70
     0
  9
$DIMTOH
 70
     0
  9
$DIMSE1
 70
     0
  9
$DIMSE2
 70
     0
  9
$DIMTAD
 70
     1
  9
$DIMZIN
 70
     8
  9
$DIMBLK
  1

  9
$DIMASO
 70
     1
  9
$DIMSHO
 70
     1
  9
$DIMPOST
  1

  9
$DIMAPOST
  1

  9
$DIMALT
 70
     0
  9
$DIMALTD
 70
     3
  9
$DIMALTF
 40
0.03937007874016
  9
$DIMLFAC
 40
1.0
  9
$DIMTOFL
 70
     1
  9
$DIMTVP
 40
0.0
  9
$DIMTIX
 70
     0
  9
$DIMSOXD
 70
     0
  9
$DIMSAH
 70
     0
  9
$DIMBLK1
  1

  9
$DIMBLK2
  1

  9
$DIMSTYLE
  2
ISO-25
  9
$DIMCLRD
 70
     0
  9
$DIMCLRE
 70
     0
  9
$DIMCLRT
 70
     0
  9
$DIMTFAC
 40
1.0
  9
$DIMGAP
 40
0.625
  9
$DIMJUST
 70
     0
  9
$DIMSD1
 70
     0
  9
$DIMSD2
 70
     0
  9
$DIMTOLJ
 70
     0
  9
$DIMTZIN
 70
     8
  9
$DIMALTZ
 70
     0
  9
$DIMALTTZ
 70
     0
  9
$DIMFIT
 70
     3
  9
$DIMUPT
 70
     0
  9
$DIMUNIT
 70
     2
  9
$DIMDEC
 70
     2
  9
$DIMTDEC
 70
     2
  9
$DIMALTU
 70
     2
  9
$DIMALTTD
 70
     3
  9
$DIMTXSTY
  7
STANDARD
  9
$DIMAUNIT
 70
     0
  9
$LUNITS
 70
     2
  9
$LUPREC
 70
     4
  9
$SKETCHINC
 40
1.0
  9
$FILLETRAD
 40
10.0
  9
$AUNITS
 70
     0
  9
$AUPREC
 70
     0
  9
$MENU
  1
.
  9
$ELEVATION
 40
0.0
  9
$PELEVATION
 40
0.0
  9
$THICKNESS
 40
0.0
  9
$LIMCHECK
 70
     0
  9
$CHAMFERA
 40
0.0
  9
$CHAMFERB
 40
0.0
  9
$CHAMFERC
 40
0.0
  9
$CHAMFERD
 40
0.0
  9
$SKPOLY
 70
     0
  9
$TDCREATE
 40
2459585.497413403
  9
$TDUPDATE
 40
2459585.497414375
  9
$TDINDWG
 40
0.0000000116
  9
$TDUSRTIMER
 40
0.0000000116
  9
$USRTIMER
 70
     1
  9
$ANGBASE
 50
0.0
  9
$ANGDIR
 70
     0
  9
$PDMODE
 70
     0
  9
$PDSIZE
 40
0.0
  9
$PLINEWID
 40
0.0
  9
$COORDS
 70
     1
  9
$SPLFRAME
 70
     0
  9
$SPLINETYPE
 70
     6
  9
$SPLINESEGS
 70
     8
  9
$ATTDIA
 70
     0
  9
$ATTREQ
 70
     1
  9
$HANDLING
 70
     1
  9
$HANDSEED
  5
5F1
  9
$SURFTAB1
 70
     6
  9
$SURFTAB2
 70
     6
  9
$SURFTYPE
 70
     6
  9
$SURFU
 70
     6
  9
$SURFV
 70
     6
  9
$UCSNAME
  2

  9
$UCSORG
 10
0.0
 20
0.0
 30
0.0
  9
$UCSXDIR
 10
1.0
 20
0.0
 30
0.0
  9
$UCSYDIR
 10
0.0
 20
1.0
 30
0.0
  9
$PUCSNAME
  2

  9
$PUCSORG
 10
0.0
 20
0.0
 30
0.0
  9
$PUCSXDIR
 10
1.0
 20
0.0
 30
0.0
  9
$PUCSYDIR
 10
0.0
 20
1.0
 30
0.0
  9
$USERI1
 70
     0
  9
$USERI2
 70
     0
  9
$USERI3
 70
     0
  9
$USERI4
 70
     0
  9
$USERI5
 70
     0
  9
$USERR1
 40
0.0
  9
$USERR2
 40
0.0
  9
$USERR3
 40
0.0
  9
$USERR4
 40
0.0
  9
$USERR5
 40
0.0
  9
$WORLDVIEW
 70
     1
  9
$SHADEDGE
 70
     3
  9
$SHADEDIF
 70
    70
  9
$TILEMODE
 70
     1
  9
$MAXACTVP
 70
    64
  9
$PINSBASE
 10
0.0
 20
0.0
 30
0.0
  9
$PLIMCHECK
 70
     0
  9
$PEXTMIN
 10
1.000000000000000E+20
 20
1.000000000000000E+20
 30
1.000000000000000E+20
  9
$PEXTMAX
 10
-1.000000000000000E+20
 20
-1.000000000000000E+20
 30
-1.000000000000000E+20
  9
$PLIMMIN
 10
0.0
 20
0.0
  9
$PLIMMAX
 10
420.0
 20
297.0
  9
$UNITMODE
 70
     0
  9
$VISRETAIN
 70
     1
  9
$PLINEGEN
 70
     0
  9
$PSLTSCALE
 70
     1
  9
$TREEDEPTH
 70
  3020
  9
$PICKSTYLE
 70
     1
  9
$CMLSTYLE
  2
STANDARD
  9
$CMLJUST
 70
     0
  9
$CMLSCALE
 40
20.0
  9
$PROXYGRAPHICS
 70
     1
  9
$MEASUREMENT
 70
     1
  0
ENDSEC
  0
SECTION
  2
CLASSES
  0
CLASS
  1
ACDBDICTIONARYWDFLT
  2
AcDbDictionaryWithDefault
  3
ObjectDBX Classes
 90
        0
280
     0
281
     0
  0
CLASS
  1
VISUALSTYLE
  2
AcDbVisualStyle
  3
ObjectDBX Classes
 90
     4095
280
     0
281
     0
  0
CLASS
  1
MATERIAL
  2
AcDbMaterial
  3
ObjectDBX Classes
 90
     1153
280
     0
281
     0
  0
CLASS
  1
SCALE
  2
AcDbScale
  3
ObjectDBX Classes
 90
     1153
280
     0
281
     0
  0
CLASS
  1
TABLESTYLE
  2
AcDbTableStyle
  3
ObjectDBX Classes
 90
     4095
280
     0
281
     0
  0
CLASS
  1
MLEADERSTYLE
  2
AcDbMLeaderStyle
  3
ACDB_MLEADERSTYLE_CLASS
 90
     4095
280
     0
281
     0
  0
CLASS
  1
SUN
  2
AcDbSun
  3
SCENEOE
 90
     1153
280
     0
281
     0
  0
CLASS
  1
DICTIONARYVAR
  2
AcDbDictionaryVar
  3
ObjectDBX Classes
 90
        0
280
     0
281
     0
  0
CLASS
  1
XRECORD
  2
AcDbXrecord
  3
ObjectDBX Classes
 90
        0
280
     0
281
     0
  0
CLASS
  1
LWPOLYLINE
  2
AcDbPolyline
  3
ObjectDBX Classes
 90
        0
280
     0
281
     1
  0
CLASS
  1
HATCH
  2
AcDbHatch
  3
ObjectDBX Classes
 90
        0
280
     0
281
     1
  0
CLASS
  1
ACDBPLACEHOLDER
  2
AcDbPlaceHolder
  3
ObjectDBX Classes
 90
        0
280
     0
281
     0
  0
CLASS
  1
LAYOUT
  2
AcDbLayout
  3
ObjectDBX Classes
 90
        0
280
     0
281
     0
  0
ENDSEC
  0
SECTION
  2
TABLES
  0
TABLE
  2
VPORT
  5
8
102
{ACAD_XDICTIONARY
360
5E6
102
}
330
0
100
AcDbSymbolTable
 70
     1
  0
VPORT
  5
29
330
8
100
AcDbSymbolTableRecord
100
AcDbViewportTableRecord
  2
*ACTIVE
 70
     0
 10
0.0
 20
0.0
 11
1.0
 21
1.0
 12
840.0
 22
594.0
 13
0.0
 23
0.0
 14
10.0
 24
10.0
 15
10.0
 25
10.0
 16
0.0
 26
0.0
 36
1.0
 17
0.0
 27
0.0
 37
0.0
 40
1108.0
 41
1.444043321299639
 42
50.0
 43
0.0
 44
0.0
 50
0.0
 51
0.0
 71
     0
 72
  1000
 73
     1
 74
     3
 75
     0
 76
     0
 77
     0
 78
     0
  0
ENDTAB
  0
TABLE
  2
LTYPE
  5
5
330
0
100
AcDbSymbolTable
 70
     7
  0
LTYPE
  5
14
330
5
100
AcDbSymbolTableRecord
100
AcDbLinetypeTableRecord
  2
BYBLOCK
 70
     0
  3

 72
    65
 73
     0
 40
0.0
  0
LTYPE
  5
15
330
5
100
AcDbSymbolTableRecord
100
AcDbLinetypeTableRecord
  2
BYLAYER
 70
     0
  3

 72
    65
 73
     0
 40
0.0
  0
LTYPE
  5
16
330
5
100
AcDbSymbolTableRecord
100
AcDbLinetypeTableRecord
  2
CONTINUOUS
 70
     0
  3
Solid line
 72
    65
 73
     0
 40
0.0
  0
LTYPE
  5
6E
330
5
100
AcDbSymbolTableRecord
100
AcDbLinetypeTableRecord
  2
EXLTYPE0
 70
     0
  3
破線
 72
    65
 73
     2
 40
4.0
 49
3.0
 74
     0
 49
-1.0
 74
     0
  0
LTYPE
  5
6F
330
5
100
AcDbSymbolTableRecord
100
AcDbLinetypeTableRecord
  2
EXLTYPE1
 70
     0
  3
点線
 72
    65
 73
     2
 40
2.0
 49
1.0
 74
     0
 49
-1.0
 74
     0
  0
LTYPE
  5
70
330
5
100
AcDbSymbolTableRecord
100
AcDbLinetypeTableRecord
  2
EXLTYPE2
 70
     0
  3
一点鎖線
 72
    65
 73
     4
 40
13.0
 49
10.0
 74
     0
 49
-1.0
 74
     0
 49
1.0
 74
     0
 49
-1.0
 74
     0
  0
LTYPE
  5
71
330
5
100
AcDbSymbolTableRecord
100
AcDbLinetypeTableRecord
  2
EXLTYPE3
 70
     0
  3
二点鎖線
 72
    65
 73
     6
 40
15.0
 49
10.0
 74
     0
 49
-1.0
 74
     0
 49
1.0
 74
     0
 49
-1.0
 74
     0
 49
1.0
 74
     0
 49
-1.0
 74
     0
  0
LTYPE
  5
72
330
5
100
AcDbSymbolTableRecord
100
AcDbLinetypeTableRecord
  2
EXLTYPE4
 70
     0
  3
一点鎖線2
 72
    65
 73
     4
 40
3.5
 49
2.0
 74
     0
 49
-0.5
 74
     0
 49
0.5
 74
     0
 49
-0.5
 74
     0
  0
LTYPE
  5
73
330
5
100
AcDbSymbolTableRecord
100
AcDbLinetypeTableRecord
  2
EXLTYPE5
 70
     0
  3
二点鎖線2
 72
    65
 73
     6
 40
4.5
 49
2.0
 74
     0
 49
-0.5
 74
     0
 49
0.5
 74
     0
 49
-0.5
 74
     0
 49
0.5
 74
     0
 49
-0.5
 74
     0
  0
ENDTAB
  0
TABLE
  2
LAYER
  5
2
330
0
100
AcDbSymbolTable
 70
     4
  0
LAYER
  5
10
330
2
100
AcDbSymbolTableRecord
100
AcDbLayerTableRecord
  2
0
 70
     0
 62
     7
  6
CONTINUOUS
  0
LAYER
  5
76
330
2
100
AcDbSymbolTableRecord
100
AcDbLayerTableRecord
  2
図面枠
 70
     4
 62
     7
  6
CONTINUOUS
  0
LAYER
  5
77
330
2
100
AcDbSymbolTableRecord
100
AcDbLayerTableRecord
  2
Ｓ_１_１
 70
     0
 62
     7
  6
CONTINUOUS
  0
LAYER
  5
4BF
330
2
100
AcDbSymbolTableRecord
100
AcDbLayerTableRecord
  2
DEFPOINTS
 70
     0
 62
     7
  6
CONTINUOUS
  0
ENDTAB
  0
TABLE
  2
STYLE
  5
3
330
0
100
AcDbSymbolTable
 70
     5
  0
STYLE
  5
11
330
3
100
AcDbSymbolTableRecord
100
AcDbTextStyleTableRecord
  2
STANDARD
 70
     0
 40
0.0
 41
1.0
 50
0.0
 71
     0
 42
2.5
  3
monotxt
  4
extfont
  0
STYLE
  5
74
330
3
100
AcDbSymbolTableRecord
100
AcDbTextStyleTableRecord
  2
EXCADSTD
 70
     0
 40
0.0
 41
1.0
 50
0.0
 71
     0
 42
2.5
  3
monotxt
  4
extfont
  0
STYLE
  5
75
330
3
100
AcDbSymbolTableRecord
100
AcDbTextStyleTableRecord
  2
EXCADVERT
 70
     4
 40
0.0
 41
1.0
 50
0.0
 71
     0
 42
2.5
  3
monotxt
  4
extfont
  0
STYLE
  5
DB
330
3
100
AcDbSymbolTableRecord
100
AcDbTextStyleTableRecord
  2
EXCADTTF1
 70
     0
 40
0.0
 41
1.0
 50
0.0
 71
     0
 42
2.5
  3
msgothic.ttc
  4

1001
ACAD
1000
MS Gothic
1071
    32817
  0
STYLE
  5
4BD
330
3
100
AcDbSymbolTableRecord
100
AcDbTextStyleTableRecord
  2
EXCADDIM1
 70
     0
 40
0.0
 41
1.0
 50
0.0
 71
     0
 42
2.5
  3
msgothic.ttc
  4

1001
ACAD
1000
MS Gothic
1071
    32817
  0
ENDTAB
  0
TABLE
  2
VIEW
  5
6
330
0
100
AcDbSymbolTable
 70
     0
  0
ENDTAB
  0
TABLE
  2
UCS
  5
7
330
0
100
AcDbSymbolTable
 70
     0
  0
ENDTAB
  0
TABLE
  2
APPID
  5
9
330
0
100
AcDbSymbolTable
 70
     2
  0
APPID
  5
12
330
9
100
AcDbSymbolTableRecord
100
AcDbRegAppTableRecord
  2
ACAD
 70
     0
  0
APPID
  5
5F0
330
9
100
AcDbSymbolTableRecord
100
AcDbRegAppTableRecord
  2
ACAD_MLEADERVER
 70
     0
  0
ENDTAB
  0
TABLE
  2
DIMSTYLE
  5
A
330
0
100
AcDbSymbolTable
 70
     1
  0
DIMSTYLE
105
27
102
{ACAD_REACTORS
330
4BE
330
4CC
330
4D9
330
4F2
330
4FE
330
50A
330
513
330
521
330
53D
330
54C
330
55A
330
567
330
574
330
58D
330
59D
102
}
330
A
100
AcDbSymbolTableRecord
100
AcDbDimStyleTableRecord
  2
ISO-25
 70
     0
  3

  4

  5

  6

  7

 40
1.0
 41
2.5
 42
0.625
 43
3.75
 44
1.25
 45
0.0
 46
0.0
 47
0.0
 48
0.0
140
2.5
141
2.5
142
0.0
143
0.03937007874016
144
1.0
145
0.0
146
1.0
147
0.625
 71
     0
 72
     0
 73
     0
 74
     0
 75
     0
 76
     0
 77
     1
 78
     8
170
     0
171
     3
172
     1
173
     0
174
     0
175
     0
176
     0
177
     0
178
     0
270
     2
271
     2
272
     2
273
     2
274
     3
340
11
275
     0
280
     0
281
     0
282
     0
283
     0
284
     8
285
     0
286
     0
287
     5
288
     0
  0
ENDTAB
  0
TABLE
  2
BLOCK_RECORD
  5
1
330
0
100
AcDbSymbolTable
 70
    29
  0
BLOCK_RECORD
  5
1F
330
1
100
AcDbSymbolTableRecord
100
AcDbBlockTableRecord
  2
*MODEL_SPACE
  0
BLOCK_RECORD
  5
1B
330
1
100
AcDbSymbolTableRecord
100
AcDbBlockTableRecord
  2
*PAPER_SPACE
  0
BLOCK_RECORD
  5
78
330
1
100
AcDbSymbolTableRecord
100
AcDbBlockTableRecord
  2
EX_NORM
  0
BLOCK_RECORD
  5
7B
330
1
100
AcDbSymbolTableRecord
100
AcDbBlockTableRecord
  2
EX_BNORM
  0
BLOCK_RECORD
  5
7E
330
1
100
AcDbSymbolTableRecord
100
AcDbBlockTableRecord
  2
EX_BCIR
  0
BLOCK_RECORD
  5
81
330
1
100
AcDbSymbolTableRecord
100
AcDbBlockTableRecord
  2
EX_RCIVIL
  0
BLOCK_RECORD
  5
84
330
1
100
AcDbSymbolTableRecord
100
AcDbBlockTableRecord
  2
EX_SLANT
  0
BLOCK_RECORD
  5
87
330
1
100
AcDbSymbolTableRecord
100
AcDbBlockTableRecord
  2
EX_NONE
  0
BLOCK_RECORD
  5
8A
330
1
100
AcDbSymbolTableRecord
100
AcDbBlockTableRecord
  2
EX_CIVIL
  0
BLOCK_RECORD
  5
8D
330
1
100
AcDbSymbolTableRecord
100
AcDbBlockTableRecord
  2
EX_WCIR
  0
BLOCK_RECORD
  5
90
330
1
100
AcDbSymbolTableRecord
100
AcDbBlockTableRecord
  2
EX_WCIR2
  0
BLOCK_RECORD
  5
93
330
1
100
AcDbSymbolTableRecord
100
AcDbBlockTableRecord
  2
EX_WNORM
  0
BLOCK_RECORD
  5
96
330
1
100
AcDbSymbolTableRecord
100
AcDbBlockTableRecord
  2
EX_NNORM
  0
BLOCK_RECORD
  5
99
330
1
100
AcDbSymbolTableRecord
100
AcDbBlockTableRecord
  2
EX_BBOX
  0
BLOCK_RECORD
  5
9C
330
1
100
AcDbSymbolTableRecord
100
AcDbBlockTableRecord
  2
EX_WBOX
  0
BLOCK_RECORD
  5
9F
330
1
100
AcDbSymbolTableRecord
100
AcDbBlockTableRecord
  2
EX_INTEGRAL
  0
BLOCK_RECORD
  5
4C0
330
1
100
AcDbSymbolTableRecord
100
AcDbBlockTableRecord
  2
*D15
  0
BLOCK_RECORD
  5
4CD
330
1
100
AcDbSymbolTableRecord
100
AcDbBlockTableRecord
  2
*D16
  0
BLOCK_RECORD
  5
4DA
330
1
100
AcDbSymbolTableRecord
100
AcDbBlockTableRecord
  2
*D17
  0
BLOCK_RECORD
  5
4F3
330
1
100
AcDbSymbolTableRecord
100
AcDbBlockTableRecord
  2
*D18
  0
BLOCK_RECORD
  5
4FF
330
1
100
AcDbSymbolTableRecord
100
AcDbBlockTableRecord
  2
*D19
  0
BLOCK_RECORD
  5
50B
330
1
100
AcDbSymbolTableRecord
100
AcDbBlockTableRecord
  2
*D20
  0
BLOCK_RECORD
  5
514
330
1
100
AcDbSymbolTableRecord
100
AcDbBlockTableRecord
  2
*D21
  0
BLOCK_RECORD
  5
522
330
1
100
AcDbSymbolTableRecord
100
AcDbBlockTableRecord
  2
*D22
  0
BLOCK_RECORD
  5
53E
330
1
100
AcDbSymbolTableRecord
100
AcDbBlockTableRecord
  2
*D23
  0
BLOCK_RECORD
  5
54D
330
1
100
AcDbSymbolTableRecord
100
AcDbBlockTableRecord
  2
*D24
  0
BLOCK_RECORD
  5
55B
330
1
100
AcDbSymbolTableRecord
100
AcDbBlockTableRecord
  2
*D25
  0
BLOCK_RECORD
  5
568
330
1
100
AcDbSymbolTableRecord
100
AcDbBlockTableRecord
  2
*D26
  0
BLOCK_RECORD
  5
575
330
1
100
AcDbSymbolTableRecord
100
AcDbBlockTableRecord
  2
*D27
  0
BLOCK_RECORD
  5
58E
330
1
100
AcDbSymbolTableRecord
100
AcDbBlockTableRecord
  2
*D28
  0
BLOCK_RECORD
  5
59E
330
1
100
AcDbSymbolTableRecord
100
AcDbBlockTableRecord
  2
*D29
  0
ENDTAB
  0
ENDSEC
  0
SECTION
  2
BLOCKS
  0
BLOCK
  5
20
330
1F
100
AcDbEntity
  8
0
100
AcDbBlockBegin
  2
*MODEL_SPACE
 70
     0
 10
0.0
 20
0.0
 30
0.0
  3
*MODEL_SPACE
  1

  0
ENDBLK
  5
21
330
1F
100
AcDbEntity
  8
0
100
AcDbBlockEnd
  0
BLOCK
  5
1C
330
1B
100
AcDbEntity
 67
     1
  8
0
100
AcDbBlockBegin
  2
*PAPER_SPACE
 70
     0
 10
0.0
 20
0.0
 30
0.0
  3
*PAPER_SPACE
  1

  0
ENDBLK
  5
1D
330
1B
100
AcDbEntity
 67
     1
  8
0
100
AcDbBlockEnd
  0
BLOCK
  5
79
330
78
100
AcDbEntity
  8
0
100
AcDbBlockBegin
  2
EX_NORM
 70
     0
 10
0.0
 20
0.0
 30
0.0
  3
EX_NORM
  1

  0
LINE
  5
A2
330
78
100
AcDbEntity
  8
0
  6
CONTINUOUS
 62
     0
100
AcDbLine
 10
0.0
 20
0.0
 30
0.0
 11
-1.0
 21
0.0
 31
0.0
  0
LINE
  5
A3
330
78
100
AcDbEntity
  8
0
  6
CONTINUOUS
 62
     0
100
AcDbLine
 10
0.0
 20
0.0
 30
0.0
 11
-1.0
 21
0.166666667
 31
0.0
  0
LINE
  5
A4
330
78
100
AcDbEntity
  8
0
  6
CONTINUOUS
 62
     0
100
AcDbLine
 10
0.0
 20
0.0
 30
0.0
 11
-1.0
 21
-0.166666667
 31
0.0
  0
ENDBLK
  5
7A
330
78
100
AcDbEntity
  8
0
100
AcDbBlockEnd
  0
BLOCK
  5
7C
330
7B
100
AcDbEntity
  8
0
100
AcDbBlockBegin
  2
EX_BNORM
 70
     0
 10
0.0
 20
0.0
 30
0.0
  3
EX_BNORM
  1

  0
LINE
  5
A5
330
7B
100
AcDbEntity
  8
0
  6
CONTINUOUS
 62
     0
100
AcDbLine
 10
0.0
 20
0.0
 30
0.0
 11
-1.0
 21
0.0
 31
0.0
  0
LINE
  5
A6
330
7B
100
AcDbEntity
  8
0
  6
CONTINUOUS
 62
     0
100
AcDbLine
 10
0.0
 20
0.0
 30
0.0
 11
-1.0
 21
0.166666667
 31
0.0
  0
LINE
  5
A7
330
7B
100
AcDbEntity
  8
0
  6
CONTINUOUS
 62
     0
100
AcDbLine
 10
0.0
 20
0.0
 30
0.0
 11
-1.0
 21
-0.166666667
 31
0.0
  0
LINE
  5
A8
330
7B
100
AcDbEntity
  8
0
  6
CONTINUOUS
 62
     0
100
AcDbLine
 10
0.0
 20
0.0
 30
0.0
 11
-1.0
 21
0.083333333
 31
0.0
  0
LINE
  5
A9
330
7B
100
AcDbEntity
  8
0
  6
CONTINUOUS
 62
     0
100
AcDbLine
 10
0.0
 20
0.0
 30
0.0
 11
-1.0
 21
-0.083333333
 31
0.0
  0
LINE
  5
AA
330
7B
100
AcDbEntity
  8
0
  6
CONTINUOUS
 62
     0
100
AcDbLine
 10
-1.0
 20
0.166666667
 30
0.0
 11
-1.0
 21
-0.166666667
 31
0.0
  0
ENDBLK
  5
7D
330
7B
100
AcDbEntity
  8
0
100
AcDbBlockEnd
  0
BLOCK
  5
7F
330
7E
100
AcDbEntity
  8
0
100
AcDbBlockBegin
  2
EX_BCIR
 70
     0
 10
0.0
 20
0.0
 30
0.0
  3
EX_BCIR
  1

  0
LINE
  5
AB
330
7E
100
AcDbEntity
  8
0
  6
CONTINUOUS
 62
     0
100
AcDbLine
 10
0.0
 20
0.0
 30
0.0
 11
-1.0
 21
0.0
 31
0.0
  0
CIRCLE
  5
AC
330
7E
100
AcDbEntity
  8
0
  6
CONTINUOUS
 62
     0
100
AcDbCircle
 10
0.0
 20
0.0
 30
0.0
 40
0.5
  0
CIRCLE
  5
AD
330
7E
100
AcDbEntity
  8
0
  6
CONTINUOUS
 62
     0
100
AcDbCircle
 10
0.0
 20
0.0
 30
0.0
 40
0.25
  0
ENDBLK
  5
80
330
7E
100
AcDbEntity
  8
0
100
AcDbBlockEnd
  0
BLOCK
  5
82
330
81
100
AcDbEntity
  8
0
100
AcDbBlockBegin
  2
EX_RCIVIL
 70
     0
 10
0.0
 20
0.0
 30
0.0
  3
EX_RCIVIL
  1

  0
LINE
  5
AE
330
81
100
AcDbEntity
  8
0
  6
CONTINUOUS
 62
     0
100
AcDbLine
 10
0.0
 20
0.0
 30
0.0
 11
-1.0
 21
0.0
 31
0.0
  0
LINE
  5
AF
330
81
100
AcDbEntity
  8
0
  6
CONTINUOUS
 62
     0
100
AcDbLine
 10
-1.0
 20
-0.25
 30
0.0
 11
0.0
 21
-0.25
 31
0.0
  0
LINE
  5
B0
330
81
100
AcDbEntity
  8
0
  6
CONTINUOUS
 62
     0
100
AcDbLine
 10
-1.0
 20
-0.125
 30
0.0
 11
0.0
 21
-0.125
 31
0.0
  0
ENDBLK
  5
83
330
81
100
AcDbEntity
  8
0
100
AcDbBlockEnd
  0
BLOCK
  5
85
330
84
100
AcDbEntity
  8
0
100
AcDbBlockBegin
  2
EX_SLANT
 70
     0
 10
0.0
 20
0.0
 30
0.0
  3
EX_SLANT
  1

  0
LINE
  5
B1
330
84
100
AcDbEntity
  8
0
  6
CONTINUOUS
 62
     0
100
AcDbLine
 10
0.0
 20
0.0
 30
0.0
 11
-1.0
 21
0.0
 31
0.0
  0
LINE
  5
B2
330
84
100
AcDbEntity
  8
0
  6
CONTINUOUS
 62
     0
100
AcDbLine
 10
0.707106781
 20
0.707106781
 30
0.0
 11
-0.707106781
 21
-0.707106781
 31
0.0
  0
ENDBLK
  5
86
330
84
100
AcDbEntity
  8
0
100
AcDbBlockEnd
  0
BLOCK
  5
88
330
87
100
AcDbEntity
  8
0
100
AcDbBlockBegin
  2
EX_NONE
 70
     0
 10
0.0
 20
0.0
 30
0.0
  3
EX_NONE
  1

  0
LINE
  5
B3
330
87
100
AcDbEntity
  8
0
  6
CONTINUOUS
 62
     0
100
AcDbLine
 10
0.0
 20
0.0
 30
0.0
 11
-1.0
 21
0.0
 31
0.0
  0
ENDBLK
  5
89
330
87
100
AcDbEntity
  8
0
100
AcDbBlockEnd
  0
BLOCK
  5
8B
330
8A
100
AcDbEntity
  8
0
100
AcDbBlockBegin
  2
EX_CIVIL
 70
     0
 10
0.0
 20
0.0
 30
0.0
  3
EX_CIVIL
  1

  0
LINE
  5
B4
330
8A
100
AcDbEntity
  8
0
  6
CONTINUOUS
 62
     0
100
AcDbLine
 10
0.0
 20
0.0
 30
0.0
 11
-1.0
 21
0.0
 31
0.0
  0
LINE
  5
B5
330
8A
100
AcDbEntity
  8
0
  6
CONTINUOUS
 62
     0
100
AcDbLine
 10
-1.0
 20
0.25
 30
0.0
 11
0.0
 21
0.25
 31
0.0
  0
LINE
  5
B6
330
8A
100
AcDbEntity
  8
0
  6
CONTINUOUS
 62
     0
100
AcDbLine
 10
-1.0
 20
0.125
 30
0.0
 11
0.0
 21
0.125
 31
0.0
  0
ENDBLK
  5
8C
330
8A
100
AcDbEntity
  8
0
100
AcDbBlockEnd
  0
BLOCK
  5
8E
330
8D
100
AcDbEntity
  8
0
100
AcDbBlockBegin
  2
EX_WCIR
 70
     0
 10
0.0
 20
0.0
 30
0.0
  3
EX_WCIR
  1

  0
LINE
  5
B7
330
8D
100
AcDbEntity
  8
0
  6
CONTINUOUS
 62
     0
100
AcDbLine
 10
0.0
 20
0.0
 30
0.0
 11
-1.0
 21
0.0
 31
0.0
  0
CIRCLE
  5
B8
330
8D
100
AcDbEntity
  8
0
  6
CONTINUOUS
 62
     0
100
AcDbCircle
 10
0.0
 20
0.0
 30
0.0
 40
0.5
  0
ENDBLK
  5
8F
330
8D
100
AcDbEntity
  8
0
100
AcDbBlockEnd
  0
BLOCK
  5
91
330
90
100
AcDbEntity
  8
0
100
AcDbBlockBegin
  2
EX_WCIR2
 70
     0
 10
0.0
 20
0.0
 30
0.0
  3
EX_WCIR2
  1

  0
LINE
  5
B9
330
90
100
AcDbEntity
  8
0
  6
CONTINUOUS
 62
     0
100
AcDbLine
 10
-0.5
 20
0.0
 30
0.0
 11
-1.0
 21
0.0
 31
0.0
  0
CIRCLE
  5
BA
330
90
100
AcDbEntity
  8
0
  6
CONTINUOUS
 62
     0
100
AcDbCircle
 10
0.0
 20
0.0
 30
0.0
 40
0.5
  0
ENDBLK
  5
92
330
90
100
AcDbEntity
  8
0
100
AcDbBlockEnd
  0
BLOCK
  5
94
330
93
100
AcDbEntity
  8
0
100
AcDbBlockBegin
  2
EX_WNORM
 70
     0
 10
0.0
 20
0.0
 30
0.0
  3
EX_WNORM
  1

  0
LINE
  5
BB
330
93
100
AcDbEntity
  8
0
  6
CONTINUOUS
 62
     0
100
AcDbLine
 10
-1.0
 20
0.0
 30
0.0
 11
-1.0
 21
0.0
 31
0.0
  0
LINE
  5
BC
330
93
100
AcDbEntity
  8
0
  6
CONTINUOUS
 62
     0
100
AcDbLine
 10
0.0
 20
0.0
 30
0.0
 11
-1.0
 21
0.166666667
 31
0.0
  0
LINE
  5
BD
330
93
100
AcDbEntity
  8
0
  6
CONTINUOUS
 62
     0
100
AcDbLine
 10
0.0
 20
0.0
 30
0.0
 11
-1.0
 21
-0.166666667
 31
0.0
  0
LINE
  5
BE
330
93
100
AcDbEntity
  8
0
  6
CONTINUOUS
 62
     0
100
AcDbLine
 10
-1.0
 20
0.166666667
 30
0.0
 11
-1.0
 21
-0.166666667
 31
0.0
  0
ENDBLK
  5
95
330
93
100
AcDbEntity
  8
0
100
AcDbBlockEnd
  0
BLOCK
  5
97
330
96
100
AcDbEntity
  8
0
100
AcDbBlockBegin
  2
EX_NNORM
 70
     0
 10
0.0
 20
0.0
 30
0.0
  3
EX_NNORM
  1

  0
LINE
  5
BF
330
96
100
AcDbEntity
  8
0
  6
CONTINUOUS
 62
     0
100
AcDbLine
 10
0.0
 20
0.0
 30
0.0
 11
-1.0
 21
0.0
 31
0.0
  0
LINE
  5
C0
330
96
100
AcDbEntity
  8
0
  6
CONTINUOUS
 62
     0
100
AcDbLine
 10
0.0
 20
0.0
 30
0.0
 11
-1.0
 21
0.166666667
 31
0.0
  0
LINE
  5
C1
330
96
100
AcDbEntity
  8
0
  6
CONTINUOUS
 62
     0
100
AcDbLine
 10
0.0
 20
0.0
 30
0.0
 11
-1.0
 21
-0.166666667
 31
0.0
  0
LINE
  5
C2
330
96
100
AcDbEntity
  8
0
  6
CONTINUOUS
 62
     0
100
AcDbLine
 10
-1.0
 20
0.166666667
 30
0.0
 11
-1.0
 21
-0.166666667
 31
0.0
  0
ENDBLK
  5
98
330
96
100
AcDbEntity
  8
0
100
AcDbBlockEnd
  0
BLOCK
  5
9A
330
99
100
AcDbEntity
  8
0
100
AcDbBlockBegin
  2
EX_BBOX
 70
     0
 10
0.0
 20
0.0
 30
0.0
  3
EX_BBOX
  1

  0
LINE
  5
C3
330
99
100
AcDbEntity
  8
0
  6
CONTINUOUS
 62
     0
100
AcDbLine
 10
0.0
 20
0.0
 30
0.0
 11
-1.0
 21
0.0
 31
0.0
  0
LINE
  5
C4
330
99
100
AcDbEntity
  8
0
  6
CONTINUOUS
 62
     0
100
AcDbLine
 10
-0.5
 20
0.5
 30
0.0
 11
0.5
 21
0.5
 31
0.0
  0
LINE
  5
C5
330
99
100
AcDbEntity
  8
0
  6
CONTINUOUS
 62
     0
100
AcDbLine
 10
0.5
 20
0.5
 30
0.0
 11
0.5
 21
-0.5
 31
0.0
  0
LINE
  5
C6
330
99
100
AcDbEntity
  8
0
  6
CONTINUOUS
 62
     0
100
AcDbLine
 10
0.5
 20
-0.5
 30
0.0
 11
-0.5
 21
-0.5
 31
0.0
  0
LINE
  5
C7
330
99
100
AcDbEntity
  8
0
  6
CONTINUOUS
 62
     0
100
AcDbLine
 10
-0.5
 20
-0.5
 30
0.0
 11
-0.5
 21
0.5
 31
0.0
  0
LINE
  5
C8
330
99
100
AcDbEntity
  8
0
  6
CONTINUOUS
 62
     0
100
AcDbLine
 10
-0.25
 20
0.25
 30
0.0
 11
0.25
 21
0.25
 31
0.0
  0
LINE
  5
C9
330
99
100
AcDbEntity
  8
0
  6
CONTINUOUS
 62
     0
100
AcDbLine
 10
0.25
 20
0.25
 30
0.0
 11
0.25
 21
-0.25
 31
0.0
  0
LINE
  5
CA
330
99
100
AcDbEntity
  8
0
  6
CONTINUOUS
 62
     0
100
AcDbLine
 10
0.25
 20
-0.25
 30
0.0
 11
-0.25
 21
-0.25
 31
0.0
  0
LINE
  5
CB
330
99
100
AcDbEntity
  8
0
  6
CONTINUOUS
 62
     0
100
AcDbLine
 10
-0.25
 20
-0.25
 30
0.0
 11
-0.25
 21
0.25
 31
0.0
  0
ENDBLK
  5
9B
330
99
100
AcDbEntity
  8
0
100
AcDbBlockEnd
  0
BLOCK
  5
9D
330
9C
100
AcDbEntity
  8
0
100
AcDbBlockBegin
  2
EX_WBOX
 70
     0
 10
0.0
 20
0.0
 30
0.0
  3
EX_WBOX
  1

  0
LINE
  5
CC
330
9C
100
AcDbEntity
  8
0
  6
CONTINUOUS
 62
     0
100
AcDbLine
 10
-0.5
 20
0.0
 30
0.0
 11
-1.0
 21
0.0
 31
0.0
  0
LINE
  5
CD
330
9C
100
AcDbEntity
  8
0
  6
CONTINUOUS
 62
     0
100
AcDbLine
 10
-0.5
 20
0.5
 30
0.0
 11
0.5
 21
0.5
 31
0.0
  0
LINE
  5
CE
330
9C
100
AcDbEntity
  8
0
  6
CONTINUOUS
 62
     0
100
AcDbLine
 10
0.5
 20
0.5
 30
0.0
 11
0.5
 21
-0.5
 31
0.0
  0
LINE
  5
CF
330
9C
100
AcDbEntity
  8
0
  6
CONTINUOUS
 62
     0
100
AcDbLine
 10
0.5
 20
-0.5
 30
0.0
 11
-0.5
 21
-0.5
 31
0.0
  0
LINE
  5
D0
330
9C
100
AcDbEntity
  8
0
  6
CONTINUOUS
 62
     0
100
AcDbLine
 10
-0.5
 20
-0.5
 30
0.0
 11
-0.5
 21
0.5
 31
0.0
  0
ENDBLK
  5
9E
330
9C
100
AcDbEntity
  8
0
100
AcDbBlockEnd
  0
BLOCK
  5
A0
330
9F
100
AcDbEntity
  8
0
100
AcDbBlockBegin
  2
EX_INTEGRAL
 70
     0
 10
0.0
 20
0.0
 30
0.0
  3
EX_INTEGRAL
  1

  0
LINE
  5
D1
330
9F
100
AcDbEntity
  8
0
  6
CONTINUOUS
 62
     0
100
AcDbLine
 10
0.0
 20
0.0
 30
0.0
 11
-1.0
 21
0.0
 31
0.0
  0
ARC
  5
D2
330
9F
100
AcDbEntity
  8
0
  6
CONTINUOUS
 62
     0
100
AcDbCircle
 10
0.542115
 20
0.164992
 30
0.0
 40
0.56667
100
AcDbArc
 50
73.07249033629006
 51
196.9275130221199
  0
ARC
  5
D3
330
9F
100
AcDbEntity
  8
0
  6
CONTINUOUS
 62
     0
100
AcDbCircle
 10
-0.542115
 20
-0.164992
 30
0.0
 40
0.56667
100
AcDbArc
 50
253.0724869220464
 51
16.9275130559125
  0
ENDBLK
  5
A1
330
9F
100
AcDbEntity
  8
0
100
AcDbBlockEnd
  0
BLOCK
  5
4C1
330
4C0
100
AcDbEntity
  8
0
100
AcDbBlockBegin
  2
*D15
 70
     1
 10
0.0
 20
0.0
 30
0.0
  3
*D15
  1

  0
LINE
  5
4C3
330
4C0
100
AcDbEntity
  8
Ｓ_１_１
  6
CONTINUOUS
 62
     2
100
AcDbLine
 10
170.0
 20
629.0
 30
0.0
 11
170.0
 21
496.0
 31
0.0
  0
LINE
  5
4C4
330
4C0
100
AcDbEntity
  8
Ｓ_１_１
  6
CONTINUOUS
 62
     2
100
AcDbLine
 10
630.0
 20
629.0
 30
0.0
 11
630.0
 21
496.0
 31
0.0
  0
LINE
  5
4C5
330
4C0
100
AcDbEntity
  8
Ｓ_１_１
  6
CONTINUOUS
 62
     2
100
AcDbLine
 10
182.0
 20
500.0
 30
0.0
 11
618.0
 21
500.0
 31
0.0
  0
INSERT
  5
4C6
330
4C0
100
AcDbEntity
  8
Ｓ_１_１
 62
     2
100
AcDbBlockReference
  2
EX_NORM
 10
170.0
 20
500.0
 30
0.0
 41
12.0
 42
12.0
 43
12.0
 50
180.0
  0
INSERT
  5
4C7
330
4C0
100
AcDbEntity
  8
Ｓ_１_１
 62
     2
100
AcDbBlockReference
  2
EX_NORM
 10
630.0
 20
500.0
 30
0.0
 41
12.0
 42
12.0
 43
12.0
  0
MTEXT
  5
4C8
330
4C0
100
AcDbEntity
  8
Ｓ_１_１
 62
     2
100
AcDbMText
 10
400.0000000000001
 20
511.0
 30
0.0
 40
13.85161662817552
 41
0.0
 71
     5
 72
     1
  1
460
  7
EXCADDIM1
  0
POINT
  5
4C9
330
4C0
100
AcDbEntity
  8
DEFPOINTS
 62
     0
100
AcDbPoint
 10
170.0
 20
635.0
 30
0.0
  0
POINT
  5
4CA
330
4C0
100
AcDbEntity
  8
DEFPOINTS
 62
     0
100
AcDbPoint
 10
630.0
 20
635.0
 30
0.0
  0
POINT
  5
4CB
330
4C0
100
AcDbEntity
  8
DEFPOINTS
 62
     0
100
AcDbPoint
 10
630.0
 20
500.0
 30
0.0
  0
ENDBLK
  5
4C2
330
4C0
100
AcDbEntity
  8
0
100
AcDbBlockEnd
  0
BLOCK
  5
4CE
330
4CD
100
AcDbEntity
  8
0
100
AcDbBlockBegin
  2
*D16
 70
     1
 10
0.0
 20
0.0
 30
0.0
  3
*D16
  1

  0
LINE
  5
4D0
330
4CD
100
AcDbEntity
  8
Ｓ_１_１
  6
CONTINUOUS
 62
     2
100
AcDbLine
 10
431.0
 20
607.5
 30
0.0
 11
728.9999999999999
 21
607.5
 31
0.0
  0
LINE
  5
4D1
330
4CD
100
AcDbEntity
  8
Ｓ_１_１
  6
CONTINUOUS
 62
     2
100
AcDbLine
 10
431.0
 20
942.5
 30
0.0
 11
728.9999999999999
 21
942.5
 31
0.0
  0
LINE
  5
4D2
330
4CD
100
AcDbEntity
  8
Ｓ_１_１
  6
CONTINUOUS
 62
     2
100
AcDbLine
 10
725.0
 20
619.5
 30
0.0
 11
725.0
 21
930.5
 31
0.0
  0
INSERT
  5
4D3
330
4CD
100
AcDbEntity
  8
Ｓ_１_１
 62
     2
100
AcDbBlockReference
  2
EX_NORM
 10
725.0
 20
607.5
 30
0.0
 41
12.0
 42
12.0
 43
12.0
 50
270.0
  0
INSERT
  5
4D4
330
4CD
100
AcDbEntity
  8
Ｓ_１_１
 62
     2
100
AcDbBlockReference
  2
EX_NORM
 10
725.0
 20
942.5
 30
0.0
 41
12.0
 42
12.0
 43
12.0
 50
90.0
  0
MTEXT
  5
4D5
330
4CD
100
AcDbEntity
  8
Ｓ_１_１
 62
     2
100
AcDbMText
 10
714.0
 20
775.0
 30
0.0
 40
13.85161662817552
 41
0.0
 71
     5
 72
     1
  1
335
  7
EXCADDIM1
 11
0.0
 21
1.0
 31
0.0
  0
POINT
  5
4D6
330
4CD
100
AcDbEntity
  8
DEFPOINTS
 62
     0
100
AcDbPoint
 10
425.0
 20
607.5
 30
0.0
  0
POINT
  5
4D7
330
4CD
100
AcDbEntity
  8
DEFPOINTS
 62
     0
100
AcDbPoint
 10
425.0
 20
942.5
 30
0.0
  0
POINT
  5
4D8
330
4CD
100
AcDbEntity
  8
DEFPOINTS
 62
     0
100
AcDbPoint
 10
725.0
 20
942.5
 30
0.0
  0
ENDBLK
  5
4CF
330
4CD
100
AcDbEntity
  8
0
100
AcDbBlockEnd
  0
BLOCK
  5
4DB
330
4DA
100
AcDbEntity
  8
0
100
AcDbBlockBegin
  2
*D17
 70
     1
 10
0.0
 20
0.0
 30
0.0
  3
*D17
  1

  0
LINE
  5
4DD
330
4DA
100
AcDbEntity
  8
Ｓ_１_１
  6
CONTINUOUS
 62
     2
100
AcDbLine
 10
566.0
 20
985.0
 30
0.0
 11
753.9999999999995
 21
985.0
 31
0.0
  0
LINE
  5
4DE
330
4DA
100
AcDbEntity
  8
Ｓ_１_１
  6
CONTINUOUS
 62
     2
100
AcDbLine
 10
566.0
 20
565.0
 30
0.0
 11
753.9999999999995
 21
565.0
 31
0.0
  0
LINE
  5
4DF
330
4DA
100
AcDbEntity
  8
Ｓ_１_１
  6
CONTINUOUS
 62
     2
100
AcDbLine
 10
749.9999999999999
 20
973.0
 30
0.0
 11
749.9999999999999
 21
577.0
 31
0.0
  0
INSERT
  5
4E0
330
4DA
100
AcDbEntity
  8
Ｓ_１_１
 62
     2
100
AcDbBlockReference
  2
EX_NORM
 10
749.9999999999999
 20
985.0
 30
0.0
 41
12.0
 42
12.0
 43
12.0
 50
90.0
  0
INSERT
  5
4E1
330
4DA
100
AcDbEntity
  8
Ｓ_１_１
 62
     2
100
AcDbBlockReference
  2
EX_NORM
 10
749.9999999999999
 20
565.0
 30
0.0
 41
12.0
 42
12.0
 43
12.0
 50
270.0
  0
MTEXT
  5
4E2
330
4DA
100
AcDbEntity
  8
Ｓ_１_１
 62
     2
100
AcDbMText
 10
738.9999999999999
 20
775.0
 30
0.0
 40
13.85161662817552
 41
0.0
 71
     5
 72
     1
  1
420
  7
EXCADDIM1
 11
0.0
 21
1.0
 31
0.0
  0
POINT
  5
4E3
330
4DA
100
AcDbEntity
  8
DEFPOINTS
 62
     0
100
AcDbPoint
 10
560.0
 20
985.0
 30
0.0
  0
POINT
  5
4E4
330
4DA
100
AcDbEntity
  8
DEFPOINTS
 62
     0
100
AcDbPoint
 10
560.0
 20
565.0
 30
0.0
  0
POINT
  5
4E5
330
4DA
100
AcDbEntity
  8
DEFPOINTS
 62
     0
100
AcDbPoint
 10
749.9999999999999
 20
565.0
 30
0.0
  0
ENDBLK
  5
4DC
330
4DA
100
AcDbEntity
  8
0
100
AcDbBlockEnd
  0
BLOCK
  5
4F4
330
4F3
100
AcDbEntity
  8
0
100
AcDbBlockBegin
  2
*D18
 70
     1
 10
0.0
 20
0.0
 30
0.0
  3
*D18
  1

  0
LINE
  5
4F6
330
4F3
100
AcDbEntity
  8
Ｓ_１_１
  6
CONTINUOUS
 62
     2
100
AcDbLine
 10
375.0
 20
811.0
 30
0.0
 11
375.0
 21
854.0
 31
0.0
  0
LINE
  5
4F7
330
4F3
100
AcDbEntity
  8
Ｓ_１_１
  6
CONTINUOUS
 62
     2
100
AcDbLine
 10
387.0
 20
850.0
 30
0.0
 11
388.0
 21
850.0
 31
0.0
  0
INSERT
  5
4F8
330
4F3
100
AcDbEntity
  8
Ｓ_１_１
 62
     2
100
AcDbBlockReference
  2
EX_NORM
 10
375.0
 20
850.0
 30
0.0
 41
12.0
 42
12.0
 43
12.0
 50
180.0
  0
INSERT
  5
4F9
330
4F3
100
AcDbEntity
  8
Ｓ_１_１
 62
     2
100
AcDbBlockReference
  2
EX_BCIR
 10
400.0
 20
850.0
 30
0.0
 41
12.0
 42
12.0
 43
12.0
  0
MTEXT
  5
4FA
330
4F3
100
AcDbEntity
  8
Ｓ_１_１
 62
     2
100
AcDbMText
 10
354.0000000000001
 20
861.0
 30
0.0
 40
13.85161662817552
 41
0.0
 71
     5
 72
     1
  1
25
  7
EXCADDIM1
  0
POINT
  5
4FB
330
4F3
100
AcDbEntity
  8
DEFPOINTS
 62
     0
100
AcDbPoint
 10
375.0
 20
805.0
 30
0.0
  0
POINT
  5
4FC
330
4F3
100
AcDbEntity
  8
DEFPOINTS
 62
     0
100
AcDbPoint
 10
400.0
 20
775.0
 30
0.0
  0
POINT
  5
4FD
330
4F3
100
AcDbEntity
  8
DEFPOINTS
 62
     0
100
AcDbPoint
 10
400.0
 20
850.0
 30
0.0
  0
ENDBLK
  5
4F5
330
4F3
100
AcDbEntity
  8
0
100
AcDbBlockEnd
  0
BLOCK
  5
500
330
4FF
100
AcDbEntity
  8
0
100
AcDbBlockBegin
  2
*D19
 70
     1
 10
0.0
 20
0.0
 30
0.0
  3
*D19
  1

  0
LINE
  5
502
330
4FF
100
AcDbEntity
  8
Ｓ_１_１
  6
CONTINUOUS
 62
     2
100
AcDbLine
 10
425.0
 20
811.0
 30
0.0
 11
425.0
 21
854.0
 31
0.0
  0
LINE
  5
503
330
4FF
100
AcDbEntity
  8
Ｓ_１_１
  6
CONTINUOUS
 62
     2
100
AcDbLine
 10
413.0
 20
850.0
 30
0.0
 11
412.0
 21
850.0
 31
0.0
  0
INSERT
  5
504
330
4FF
100
AcDbEntity
  8
Ｓ_１_１
 62
     2
100
AcDbBlockReference
  2
EX_NORM
 10
425.0
 20
850.0
 30
0.0
 41
12.0
 42
12.0
 43
12.0
  0
INSERT
  5
505
330
4FF
100
AcDbEntity
  8
Ｓ_１_１
 62
     2
100
AcDbBlockReference
  2
EX_BCIR
 10
400.0
 20
850.0
 30
0.0
 41
12.0
 42
12.0
 43
12.0
 50
180.0
  0
MTEXT
  5
506
330
4FF
100
AcDbEntity
  8
Ｓ_１_１
 62
     2
100
AcDbMText
 10
446.0000000000003
 20
861.0
 30
0.0
 40
13.85161662817552
 41
0.0
 71
     5
 72
     1
  1
25
  7
EXCADDIM1
  0
POINT
  5
507
330
4FF
100
AcDbEntity
  8
DEFPOINTS
 62
     0
100
AcDbPoint
 10
425.0
 20
805.0
 30
0.0
  0
POINT
  5
508
330
4FF
100
AcDbEntity
  8
DEFPOINTS
 62
     0
100
AcDbPoint
 10
400.0
 20
775.0
 30
0.0
  0
POINT
  5
509
330
4FF
100
AcDbEntity
  8
DEFPOINTS
 62
     0
100
AcDbPoint
 10
400.0
 20
850.0
 30
0.0
  0
ENDBLK
  5
501
330
4FF
100
AcDbEntity
  8
0
100
AcDbBlockEnd
  0
BLOCK
  5
50C
330
50B
100
AcDbEntity
  8
0
100
AcDbBlockBegin
  2
*D20
 70
     1
 10
0.0
 20
0.0
 30
0.0
  3
*D20
  1

  0
LINE
  5
50E
330
50B
100
AcDbEntity
  8
Ｓ_１_１
  6
CONTINUOUS
 62
     2
100
AcDbLine
 10
265.0448955254876
 20
665.044895525492
 30
0.0
 11
375.0000000000003
 21
774.9999999999957
 31
0.0
  0
MTEXT
  5
50F
330
50B
100
AcDbEntity
  8
Ｓ_１_１
 62
     2
100
AcDbMText
 10
308.0016324825729
 20
723.557981668677
 30
0.0
 40
13.85161662817552
 41
0.0
 71
     5
 72
     1
  1
R167.5
  7
EXCADDIM1
 11
0.7071067811865767
 21
0.7071067811865183
 31
0.0
  0
INSERT
  5
510
330
50B
100
AcDbEntity
  8
Ｓ_１_１
 62
     2
100
AcDbBlockReference
  2
EX_NORM
 10
256.5596141512487
 20
656.5596141512539
 30
0.0
 41
12.0
 42
12.0
 43
12.0
 50
224.9999999999976
  0
POINT
  5
511
330
50B
100
AcDbEntity
  8
DEFPOINTS
 62
     0
100
AcDbPoint
 10
256.5596141512487
 20
656.5596141512539
 30
0.0
  0
POINT
  5
512
330
50B
100
AcDbEntity
  8
DEFPOINTS
 62
     0
100
AcDbPoint
 10
375.0000000000003
 20
774.9999999999957
 30
0.0
  0
ENDBLK
  5
50D
330
50B
100
AcDbEntity
  8
0
100
AcDbBlockEnd
  0
BLOCK
  5
515
330
514
100
AcDbEntity
  8
0
100
AcDbBlockBegin
  2
*D21
 70
     1
 10
0.0
 20
0.0
 30
0.0
  3
*D21
  1

  0
LINE
  5
517
330
514
100
AcDbEntity
  8
Ｓ_１_１
  6
CONTINUOUS
 62
     2
100
AcDbLine
 10
534.9551044745107
 20
665.04489552549
 30
0.0
 11
425.0000000000003
 21
774.9999999999959
 31
0.0
  0
MTEXT
  5
518
330
514
100
AcDbEntity
  8
Ｓ_１_１
 62
     2
100
AcDbMText
 10
491.9983675174267
 20
723.5579816686759
 30
0.0
 40
13.85161662817552
 41
0.0
 71
     5
 72
     1
  1
R167.5
  7
EXCADDIM1
 11
0.7071067811865619
 21
-0.7071067811865331
 31
0.0
  0
INSERT
  5
519
330
514
100
AcDbEntity
  8
Ｓ_１_１
 62
     2
100
AcDbBlockReference
  2
EX_NORM
 10
543.4403858487494
 20
656.5596141512516
 30
0.0
 41
12.0
 42
12.0
 43
12.0
 50
315.0000000000011
  0
POINT
  5
51A
330
514
100
AcDbEntity
  8
DEFPOINTS
 62
     0
100
AcDbPoint
 10
543.4403858487494
 20
656.5596141512516
 30
0.0
  0
POINT
  5
51B
330
514
100
AcDbEntity
  8
DEFPOINTS
 62
     0
100
AcDbPoint
 10
425.0000000000003
 20
774.9999999999959
 30
0.0
  0
ENDBLK
  5
516
330
514
100
AcDbEntity
  8
0
100
AcDbBlockEnd
  0
BLOCK
  5
523
330
522
100
AcDbEntity
  8
0
100
AcDbBlockBegin
  2
*D22
 70
     1
 10
0.0
 20
0.0
 30
0.0
  3
*D22
  1

  0
LINE
  5
525
330
522
100
AcDbEntity
  8
Ｓ_１_１
  6
CONTINUOUS
 62
     2
100
AcDbLine
 10
300.0
 20
360.0
 30
0.0
 11
300.0
 21
429.0
 31
0.0
  0
LINE
  5
526
330
522
100
AcDbEntity
  8
Ｓ_１_１
  6
CONTINUOUS
 62
     2
100
AcDbLine
 10
500.0
 20
359.2
 30
0.0
 11
500.0
 21
429.0
 31
0.0
  0
LINE
  5
527
330
522
100
AcDbEntity
  8
Ｓ_１_１
  6
CONTINUOUS
 62
     2
100
AcDbLine
 10
312.0
 20
425.0
 30
0.0
 11
488.0
 21
425.0
 31
0.0
  0
INSERT
  5
528
330
522
100
AcDbEntity
  8
Ｓ_１_１
 62
     2
100
AcDbBlockReference
  2
EX_NORM
 10
300.0
 20
425.0
 30
0.0
 41
12.0
 42
12.0
 43
12.0
 50
180.0
  0
INSERT
  5
529
330
522
100
AcDbEntity
  8
Ｓ_１_１
 62
     2
100
AcDbBlockReference
  2
EX_NORM
 10
500.0
 20
425.0
 30
0.0
 41
12.0
 42
12.0
 43
12.0
  0
MTEXT
  5
52A
330
522
100
AcDbEntity
  8
Ｓ_１_１
 62
     2
100
AcDbMText
 10
400.0
 20
436.0
 30
0.0
 40
13.85161662817552
 41
0.0
 71
     5
 72
     1
  1
200
  7
EXCADDIM1
  0
POINT
  5
52B
330
522
100
AcDbEntity
  8
DEFPOINTS
 62
     0
100
AcDbPoint
 10
300.0
 20
354.0
 30
0.0
  0
POINT
  5
52C
330
522
100
AcDbEntity
  8
DEFPOINTS
 62
     0
100
AcDbPoint
 10
500.0
 20
353.2
 30
0.0
  0
POINT
  5
52D
330
522
100
AcDbEntity
  8
DEFPOINTS
 62
     0
100
AcDbPoint
 10
500.0
 20
425.0
 30
0.0
  0
ENDBLK
  5
524
330
522
100
AcDbEntity
  8
0
100
AcDbBlockEnd
  0
BLOCK
  5
53F
330
53E
100
AcDbEntity
  8
0
100
AcDbBlockBegin
  2
*D23
 70
     1
 10
0.0
 20
0.0
 30
0.0
  3
*D23
  1

  0
LINE
  5
541
330
53E
100
AcDbEntity
  8
Ｓ_１_１
  6
CONTINUOUS
 62
     2
100
AcDbLine
 10
634.0
 20
325.0
 30
0.0
 11
704.0
 21
325.0
 31
0.0
  0
LINE
  5
542
330
53E
100
AcDbEntity
  8
Ｓ_１_１
  6
CONTINUOUS
 62
     2
100
AcDbLine
 10
636.0
 20
337.0
 30
0.0
 11
704.0
 21
337.0
 31
0.0
  0
LINE
  5
543
330
53E
100
AcDbEntity
  8
Ｓ_１_１
  6
CONTINUOUS
 62
     2
100
AcDbLine
 10
700.0
 20
325.0
 30
0.0
 11
700.0
 21
337.0
 31
0.0
  0
LINE
  5
544
330
53E
100
AcDbEntity
  8
Ｓ_１_１
  6
CONTINUOUS
 62
     2
100
AcDbLine
 10
700.0
 20
313.0
 30
0.0
 11
700.0
 21
301.0
 31
0.0
  0
LINE
  5
545
330
53E
100
AcDbEntity
  8
Ｓ_１_１
  6
CONTINUOUS
 62
     2
100
AcDbLine
 10
700.0
 20
349.0
 30
0.0
 11
700.0
 21
361.0
 31
0.0
  0
INSERT
  5
546
330
53E
100
AcDbEntity
  8
Ｓ_１_１
 62
     2
100
AcDbBlockReference
  2
EX_NORM
 10
700.0
 20
325.0
 30
0.0
 41
12.0
 42
12.0
 43
12.0
 50
90.0
  0
INSERT
  5
547
330
53E
100
AcDbEntity
  8
Ｓ_１_１
 62
     2
100
AcDbBlockReference
  2
EX_NORM
 10
700.0
 20
337.0
 30
0.0
 41
12.0
 42
12.0
 43
12.0
 50
270.0
  0
MTEXT
  5
548
330
53E
100
AcDbEntity
  8
Ｓ_１_１
 62
     2
100
AcDbMText
 10
689.0000000000001
 20
303.9999999999998
 30
0.0
 40
13.85161662817552
 41
0.0
 71
     5
 72
     1
  1
12
  7
EXCADDIM1
 11
0.0
 21
1.0
 31
0.0
  0
POINT
  5
549
330
53E
100
AcDbEntity
  8
DEFPOINTS
 62
     0
100
AcDbPoint
 10
628.0
 20
325.0
 30
0.0
  0
POINT
  5
54A
330
53E
100
AcDbEntity
  8
DEFPOINTS
 62
     0
100
AcDbPoint
 10
630.0
 20
337.0
 30
0.0
  0
POINT
  5
54B
330
53E
100
AcDbEntity
  8
DEFPOINTS
 62
     0
100
AcDbPoint
 10
700.0
 20
337.0
 30
0.0
  0
ENDBLK
  5
540
330
53E
100
AcDbEntity
  8
0
100
AcDbBlockEnd
  0
BLOCK
  5
54E
330
54D
100
AcDbEntity
  8
0
100
AcDbBlockBegin
  2
*D24
 70
     1
 10
0.0
 20
0.0
 30
0.0
  3
*D24
  1

  0
LINE
  5
550
330
54D
100
AcDbEntity
  8
Ｓ_１_１
  6
CONTINUOUS
 62
     2
100
AcDbLine
 10
634.0
 20
325.0
 30
0.0
 11
729.0
 21
325.0
 31
0.0
  0
LINE
  5
551
330
54D
100
AcDbEntity
  8
Ｓ_１_１
  6
CONTINUOUS
 62
     2
100
AcDbLine
 10
406.0
 20
372.0
 30
0.0
 11
729.0
 21
371.9999999999999
 31
0.0
  0
LINE
  5
552
330
54D
100
AcDbEntity
  8
Ｓ_１_１
  6
CONTINUOUS
 62
     2
100
AcDbLine
 10
725.0
 20
337.0
 30
0.0
 11
725.0
 21
359.9999999999999
 31
0.0
  0
INSERT
  5
553
330
54D
100
AcDbEntity
  8
Ｓ_１_１
 62
     2
100
AcDbBlockReference
  2
EX_NORM
 10
725.0
 20
325.0
 30
0.0
 41
12.0
 42
12.0
 43
12.0
 50
270.0
  0
INSERT
  5
554
330
54D
100
AcDbEntity
  8
Ｓ_１_１
 62
     2
100
AcDbBlockReference
  2
EX_NORM
 10
725.0
 20
371.9999999999999
 30
0.0
 41
12.0
 42
12.0
 43
12.0
 50
90.0
  0
MTEXT
  5
555
330
54D
100
AcDbEntity
  8
Ｓ_１_１
 62
     2
100
AcDbMText
 10
714.0
 20
348.5
 30
0.0
 40
13.85161662817552
 41
0.0
 71
     5
 72
     1
  1
47
  7
EXCADDIM1
 11
0.0
 21
1.0
 31
0.0
  0
POINT
  5
556
330
54D
100
AcDbEntity
  8
DEFPOINTS
 62
     0
100
AcDbPoint
 10
628.0
 20
325.0
 30
0.0
  0
POINT
  5
557
330
54D
100
AcDbEntity
  8
DEFPOINTS
 62
     0
100
AcDbPoint
 10
400.0
 20
372.0
 30
0.0
  0
POINT
  5
558
330
54D
100
AcDbEntity
  8
DEFPOINTS
 62
     0
100
AcDbPoint
 10
725.0
 20
371.9999999999999
 30
0.0
  0
ENDBLK
  5
54F
330
54D
100
AcDbEntity
  8
0
100
AcDbBlockEnd
  0
BLOCK
  5
55C
330
55B
100
AcDbEntity
  8
0
100
AcDbBlockBegin
  2
*D25
 70
     1
 10
0.0
 20
0.0
 30
0.0
  3
*D25
  1

  0
LINE
  5
55E
330
55B
100
AcDbEntity
  8
Ｓ_１_１
  6
CONTINUOUS
 62
     2
100
AcDbLine
 10
1436.0
 20
335.0
 30
0.0
 11
1504.0
 21
335.0
 31
0.0
  0
LINE
  5
55F
330
55B
100
AcDbEntity
  8
Ｓ_１_１
  6
CONTINUOUS
 62
     2
100
AcDbLine
 10
1434.0
 20
375.0
 30
0.0
 11
1504.0
 21
375.0
 31
0.0
  0
LINE
  5
560
330
55B
100
AcDbEntity
  8
Ｓ_１_１
  6
CONTINUOUS
 62
     2
100
AcDbLine
 10
1500.0
 20
347.0
 30
0.0
 11
1500.0
 21
363.0
 31
0.0
  0
INSERT
  5
561
330
55B
100
AcDbEntity
  8
Ｓ_１_１
 62
     2
100
AcDbBlockReference
  2
EX_NORM
 10
1500.0
 20
335.0
 30
0.0
 41
12.0
 42
12.0
 43
12.0
 50
270.0
  0
INSERT
  5
562
330
55B
100
AcDbEntity
  8
Ｓ_１_１
 62
     2
100
AcDbBlockReference
  2
EX_NORM
 10
1500.0
 20
375.0
 30
0.0
 41
12.0
 42
12.0
 43
12.0
 50
90.0
  0
MTEXT
  5
563
330
55B
100
AcDbEntity
  8
Ｓ_１_１
 62
     2
100
AcDbMText
 10
1489.0
 20
355.0
 30
0.0
 40
13.85161662817552
 41
0.0
 71
     5
 72
     1
  1
40
  7
EXCADDIM1
 11
0.0
 21
1.0
 31
0.0
  0
POINT
  5
564
330
55B
100
AcDbEntity
  8
DEFPOINTS
 62
     0
100
AcDbPoint
 10
1430.0
 20
335.0
 30
0.0
  0
POINT
  5
565
330
55B
100
AcDbEntity
  8
DEFPOINTS
 62
     0
100
AcDbPoint
 10
1428.0
 20
375.0
 30
0.0
  0
POINT
  5
566
330
55B
100
AcDbEntity
  8
DEFPOINTS
 62
     0
100
AcDbPoint
 10
1500.0
 20
375.0
 30
0.0
  0
ENDBLK
  5
55D
330
55B
100
AcDbEntity
  8
0
100
AcDbBlockEnd
  0
BLOCK
  5
569
330
568
100
AcDbEntity
  8
0
100
AcDbBlockBegin
  2
*D26
 70
     1
 10
0.0
 20
0.0
 30
0.0
  3
*D26
  1

  0
LINE
  5
56B
330
568
100
AcDbEntity
  8
Ｓ_１_１
  6
CONTINUOUS
 62
     2
100
AcDbLine
 10
1366.0
 20
564.99999999996
 30
0.0
 11
1529.0
 21
564.99999999996
 31
0.0
  0
LINE
  5
56C
330
568
100
AcDbEntity
  8
Ｓ_１_１
  6
CONTINUOUS
 62
     2
100
AcDbLine
 10
1366.0
 20
985.0
 30
0.0
 11
1529.0
 21
985.0
 31
0.0
  0
LINE
  5
56D
330
568
100
AcDbEntity
  8
Ｓ_１_１
  6
CONTINUOUS
 62
     2
100
AcDbLine
 10
1525.0
 20
576.99999999996
 30
0.0
 11
1525.0
 21
973.0
 31
0.0
  0
INSERT
  5
56E
330
568
100
AcDbEntity
  8
Ｓ_１_１
 62
     2
100
AcDbBlockReference
  2
EX_NORM
 10
1525.0
 20
564.99999999996
 30
0.0
 41
12.0
 42
12.0
 43
12.0
 50
270.0
  0
INSERT
  5
56F
330
568
100
AcDbEntity
  8
Ｓ_１_１
 62
     2
100
AcDbBlockReference
  2
EX_NORM
 10
1525.0
 20
985.0
 30
0.0
 41
12.0
 42
12.0
 43
12.0
 50
90.0
  0
MTEXT
  5
570
330
568
100
AcDbEntity
  8
Ｓ_１_１
 62
     2
100
AcDbMText
 10
1514.0
 20
774.99999999998
 30
0.0
 40
13.85161662817552
 41
0.0
 71
     5
 72
     1
  1
420
  7
EXCADDIM1
 11
0.0
 21
1.0
 31
0.0
  0
POINT
  5
571
330
568
100
AcDbEntity
  8
DEFPOINTS
 62
     0
100
AcDbPoint
 10
1360.0
 20
564.99999999996
 30
0.0
  0
POINT
  5
572
330
568
100
AcDbEntity
  8
DEFPOINTS
 62
     0
100
AcDbPoint
 10
1360.0
 20
985.0
 30
0.0
  0
POINT
  5
573
330
568
100
AcDbEntity
  8
DEFPOINTS
 62
     0
100
AcDbPoint
 10
1525.0
 20
985.0
 30
0.0
  0
ENDBLK
  5
56A
330
568
100
AcDbEntity
  8
0
100
AcDbBlockEnd
  0
BLOCK
  5
576
330
575
100
AcDbEntity
  8
0
100
AcDbBlockBegin
  2
*D27
 70
     1
 10
0.0
 20
0.0
 30
0.0
  3
*D27
  1

  0
LINE
  5
578
330
575
100
AcDbEntity
  8
Ｓ_１_１
  6
CONTINUOUS
 62
     2
100
AcDbLine
 10
970.00000000002
 20
629.0
 30
0.0
 11
970.00000000002
 21
496.0
 31
0.0
  0
LINE
  5
579
330
575
100
AcDbEntity
  8
Ｓ_１_１
  6
CONTINUOUS
 62
     2
100
AcDbLine
 10
1430.0
 20
629.0
 30
0.0
 11
1430.0
 21
496.0
 31
0.0
  0
LINE
  5
57A
330
575
100
AcDbEntity
  8
Ｓ_１_１
  6
CONTINUOUS
 62
     2
100
AcDbLine
 10
982.00000000002
 20
500.0
 30
0.0
 11
1418.0
 21
500.0
 31
0.0
  0
INSERT
  5
57B
330
575
100
AcDbEntity
  8
Ｓ_１_１
 62
     2
100
AcDbBlockReference
  2
EX_NORM
 10
970.00000000002
 20
500.0
 30
0.0
 41
12.0
 42
12.0
 43
12.0
 50
180.0
  0
INSERT
  5
57C
330
575
100
AcDbEntity
  8
Ｓ_１_１
 62
     2
100
AcDbBlockReference
  2
EX_NORM
 10
1430.0
 20
500.0
 30
0.0
 41
12.0
 42
12.0
 43
12.0
  0
MTEXT
  5
57D
330
575
100
AcDbEntity
  8
Ｓ_１_１
 62
     2
100
AcDbMText
 10
1200.00000000001
 20
511.0
 30
0.0
 40
13.85161662817552
 41
0.0
 71
     5
 72
     1
  1
460
  7
EXCADDIM1
  0
POINT
  5
57E
330
575
100
AcDbEntity
  8
DEFPOINTS
 62
     0
100
AcDbPoint
 10
970.00000000002
 20
635.0
 30
0.0
  0
POINT
  5
57F
330
575
100
AcDbEntity
  8
DEFPOINTS
 62
     0
100
AcDbPoint
 10
1430.0
 20
635.0
 30
0.0
  0
POINT
  5
580
330
575
100
AcDbEntity
  8
DEFPOINTS
 62
     0
100
AcDbPoint
 10
1430.0
 20
500.0
 30
0.0
  0
ENDBLK
  5
577
330
575
100
AcDbEntity
  8
0
100
AcDbBlockEnd
  0
BLOCK
  5
58F
330
58E
100
AcDbEntity
  8
0
100
AcDbBlockBegin
  2
*D28
 70
     1
 10
0.0
 20
0.0
 30
0.0
  3
*D28
  1

  0
LINE
  5
591
330
58E
100
AcDbEntity
  8
Ｓ_１_１
  6
CONTINUOUS
 62
     2
100
AcDbLine
 10
1206.0
 20
355.00000000001
 30
0.0
 11
1254.0
 21
355.00000000001
 31
0.0
  0
LINE
  5
592
330
58E
100
AcDbEntity
  8
Ｓ_１_１
  6
CONTINUOUS
 62
     2
100
AcDbLine
 10
1250.0
 20
355.00000000001
 30
0.0
 11
1250.0
 21
375.0
 31
0.0
  0
LINE
  5
593
330
58E
100
AcDbEntity
  8
Ｓ_１_１
  6
CONTINUOUS
 62
     2
100
AcDbLine
 10
1250.0
 20
343.00000000001
 30
0.0
 11
1250.0
 21
331.00000000001
 31
0.0
  0
LINE
  5
594
330
58E
100
AcDbEntity
  8
Ｓ_１_１
  6
CONTINUOUS
 62
     2
100
AcDbLine
 10
1250.0
 20
387.0
 30
0.0
 11
1250.0
 21
399.0
 31
0.0
  0
INSERT
  5
595
330
58E
100
AcDbEntity
  8
Ｓ_１_１
 62
     2
100
AcDbBlockReference
  2
EX_NORM
 10
1250.0
 20
355.00000000001
 30
0.0
 41
12.0
 42
12.0
 43
12.0
 50
90.0
  0
INSERT
  5
596
330
58E
100
AcDbEntity
  8
Ｓ_１_１
 62
     2
100
AcDbBlockReference
  2
EX_NORM
 10
1250.0
 20
375.0
 30
0.0
 41
12.0
 42
12.0
 43
12.0
 50
270.0
  0
MTEXT
  5
597
330
58E
100
AcDbEntity
  8
Ｓ_１_１
 62
     2
100
AcDbMText
 10
1239.0
 20
395.9999999999997
 30
0.0
 40
13.85161662817552
 41
0.0
 71
     5
 72
     1
  1
20
  7
EXCADDIM1
 11
0.0
 21
1.0
 31
0.0
  0
POINT
  5
598
330
58E
100
AcDbEntity
  8
DEFPOINTS
 62
     0
100
AcDbPoint
 10
1200.0
 20
355.00000000001
 30
0.0
  0
POINT
  5
599
330
58E
100
AcDbEntity
  8
DEFPOINTS
 62
     0
100
AcDbPoint
 10
1200.0
 20
375.0
 30
0.0
  0
POINT
  5
59A
330
58E
100
AcDbEntity
  8
DEFPOINTS
 62
     0
100
AcDbPoint
 10
1250.0
 20
375.0
 30
0.0
  0
ENDBLK
  5
590
330
58E
100
AcDbEntity
  8
0
100
AcDbBlockEnd
  0
BLOCK
  5
59F
330
59E
100
AcDbEntity
  8
0
100
AcDbBlockBegin
  2
*D29
 70
     1
 10
0.0
 20
0.0
 30
0.0
  3
*D29
  1

  0
LINE
  5
5A1
330
59E
100
AcDbEntity
  8
Ｓ_１_１
  6
CONTINUOUS
 62
     2
100
AcDbLine
 10
1080.0
 20
374.0
 30
0.0
 11
1080.0
 21
429.0
 31
0.0
  0
LINE
  5
5A2
330
59E
100
AcDbEntity
  8
Ｓ_１_１
  6
CONTINUOUS
 62
     2
100
AcDbLine
 10
1319.9999999999
 20
374.0
 30
0.0
 11
1319.9999999999
 21
429.0
 31
0.0
  0
LINE
  5
5A3
330
59E
100
AcDbEntity
  8
Ｓ_１_１
  6
CONTINUOUS
 62
     2
100
AcDbLine
 10
1092.0
 20
425.0
 30
0.0
 11
1307.9999999999
 21
425.0
 31
0.0
  0
INSERT
  5
5A4
330
59E
100
AcDbEntity
  8
Ｓ_１_１
 62
     2
100
AcDbBlockReference
  2
EX_NORM
 10
1080.0
 20
425.0
 30
0.0
 41
12.0
 42
12.0
 43
12.0
 50
180.0
  0
INSERT
  5
5A5
330
59E
100
AcDbEntity
  8
Ｓ_１_１
 62
     2
100
AcDbBlockReference
  2
EX_NORM
 10
1319.9999999999
 20
425.0
 30
0.0
 41
12.0
 42
12.0
 43
12.0
  0
MTEXT
  5
5A6
330
59E
100
AcDbEntity
  8
Ｓ_１_１
 62
     2
100
AcDbMText
 10
1199.99999999995
 20
436.0
 30
0.0
 40
13.85161662817552
 41
0.0
 71
     5
 72
     1
  1
240
  7
EXCADDIM1
  0
POINT
  5
5A7
330
59E
100
AcDbEntity
  8
DEFPOINTS
 62
     0
100
AcDbPoint
 10
1080.0
 20
368.0
 30
0.0
  0
POINT
  5
5A8
330
59E
100
AcDbEntity
  8
DEFPOINTS
 62
     0
100
AcDbPoint
 10
1319.9999999999
 20
368.0
 30
0.0
  0
POINT
  5
5A9
330
59E
100
AcDbEntity
  8
DEFPOINTS
 62
     0
100
AcDbPoint
 10
1319.9999999999
 20
425.0
 30
0.0
  0
ENDBLK
  5
5A0
330
59E
100
AcDbEntity
  8
0
100
AcDbBlockEnd
  0
ENDSEC
  0
SECTION
  2
ENTITIES
  0
LINE
  5
D4
330
1F
100
AcDbEntity
  8
図面枠
  6
CONTINUOUS
 62
     5
100
AcDbLine
 10
40.0
 20
40.0
 30
0.0
 11
1640.0
 21
40.0
 31
0.0
  0
LINE
  5
D5
330
1F
100
AcDbEntity
  8
図面枠
  6
CONTINUOUS
 62
     5
100
AcDbLine
 10
1640.0
 20
40.0
 30
0.0
 11
1640.0
 21
1148.0
 31
0.0
  0
LINE
  5
D6
330
1F
100
AcDbEntity
  8
図面枠
  6
CONTINUOUS
 62
     5
100
AcDbLine
 10
1640.0
 20
1148.0
 30
0.0
 11
40.00000000000021
 21
1148.0
 31
0.0
  0
LINE
  5
D7
330
1F
100
AcDbEntity
  8
図面枠
  6
CONTINUOUS
 62
     5
100
AcDbLine
 10
40.00000000000021
 20
1148.0
 30
0.0
 11
40.0
 21
40.0
 31
0.0
  0
LINE
  5
D8
330
1F
100
AcDbEntity
  8
図面枠
  6
CONTINUOUS
 62
     3
100
AcDbLine
 10
60.00000000000006
 20
1128.0
 30
0.0
 11
60.00000000000006
 21
1092.0
 31
0.0
  0
LINE
  5
D9
330
1F
100
AcDbEntity
  8
図面枠
  6
CONTINUOUS
 62
     3
100
AcDbLine
 10
1620.0
 20
1128.0
 30
0.0
 11
1620.0
 21
1092.0
 31
0.0
  0
LINE
  5
DA
330
1F
100
AcDbEntity
  8
図面枠
  6
CONTINUOUS
 62
     3
100
AcDbLine
 10
1620.0
 20
92.4
 30
0.0
 11
1620.0
 21
56.4
 31
0.0
  0
TEXT
  5
DC
330
1F
100
AcDbEntity
  8
図面枠
  6
CONTINUOUS
 62
     4
100
AcDbText
 10
72.00000000000013
 20
1101.375
 30
0.0
 40
18.46882217090069
  1
2000kN30ストローク補修用油圧ジャッキ可動プレートB
 41
0.9992307692307695
  7
EXCADTTF1
 72
     5
 11
660.0000000000001
 21
1101.375
 31
0.0
100
AcDbText
  0
LINE
  5
DD
330
1F
100
AcDbEntity
  8
図面枠
  6
CONTINUOUS
 62
     3
100
AcDbLine
 10
672.0000000000003
 20
1128.0
 30
0.0
 11
672.0000000000003
 21
1092.0
 31
0.0
  0
LINE
  5
DE
330
1F
100
AcDbEntity
  8
図面枠
  6
CONTINUOUS
 62
     3
100
AcDbLine
 10
912.0000000000003
 20
1128.0
 30
0.0
 11
912.0000000000003
 21
1092.0
 31
0.0
  0
TEXT
  5
DF
330
1F
100
AcDbEntity
  8
図面枠
  6
CONTINUOUS
 62
     4
100
AcDbText
 10
924.0000000000002
 20
1101.375
 30
0.0
 40
18.46882217090069
  1
2000kN30ストローク補修用油圧ジャッキユニバーサルプレートB
 41
0.9992307692307691
  7
EXCADTTF1
 72
     5
 11
1608.0
 21
1101.375
 31
0.0
100
AcDbText
  0
LINE
  5
E0
330
1F
100
AcDbEntity
  8
図面枠
  6
CONTINUOUS
 62
     3
100
AcDbLine
 10
60.00000000000006
 20
1128.0
 30
0.0
 11
672.0000000000003
 21
1128.0
 31
0.0
  0
LINE
  5
E1
330
1F
100
AcDbEntity
  8
図面枠
  6
CONTINUOUS
 62
     3
100
AcDbLine
 10
60.00000000000006
 20
1092.0
 30
0.0
 11
672.0000000000003
 21
1092.0
 31
0.0
  0
LINE
  5
E2
330
1F
100
AcDbEntity
  8
図面枠
  6
CONTINUOUS
 62
     3
100
AcDbLine
 10
912.0000000000003
 20
1128.0
 30
0.0
 11
1620.0
 21
1128.0
 31
0.0
  0
LINE
  5
E3
330
1F
100
AcDbEntity
  8
図面枠
  6
CONTINUOUS
 62
     3
100
AcDbLine
 10
912.0000000000003
 20
1092.0
 30
0.0
 11
1620.0
 21
1092.0
 31
0.0
  0
LINE
  5
E4
330
1F
100
AcDbEntity
  8
図面枠
  6
CONTINUOUS
 62
     3
100
AcDbLine
 10
1488.0
 20
92.4
 30
0.0
 11
1488.0
 21
56.40000000000001
 31
0.0
  0
TEXT
  5
E5
330
1F
100
AcDbEntity
  8
図面枠
  6
CONTINUOUS
 62
     4
100
AcDbText
 10
1500.0
 20
65.775
 30
0.0
 40
18.46882217090069
  1
MJP-200-B
 41
0.9992307692307694
  7
EXCADTTF1
 72
     5
 11
1608.0
 21
65.775
 31
0.0
100
AcDbText
  0
LINE
  5
E6
330
1F
100
AcDbEntity
  8
図面枠
  6
CONTINUOUS
 62
     3
100
AcDbLine
 10
1488.0
 20
92.4
 30
0.0
 11
1620.0
 21
92.4
 31
0.0
  0
LINE
  5
E7
330
1F
100
AcDbEntity
  8
図面枠
  6
CONTINUOUS
 62
     3
100
AcDbLine
 10
1488.0
 20
56.39999999999999
 30
0.0
 11
1620.0
 21
56.4
 31
0.0
  0
LINE
  5
E8
330
1F
100
AcDbEntity
  8
Ｓ_１_１
  6
CONTINUOUS
 62
     3
100
AcDbLine
 10
741.8199999999999
 20
100.4
 30
0.0
 11
938.18
 21
100.4
 31
0.0
  0
TEXT
  5
E9
330
1F
100
AcDbEntity
  8
Ｓ_１_１
  6
CONTINUOUS
 62
     4
100
AcDbText
 10
741.8199999999999
 20
102.93125
 30
0.0
 40
13.85161662817552
  1
指示無き角隅はC1とする
 41
0.9992307692307693
  7
EXCADTTF1
 72
     5
 11
939.8199999999999
 21
102.93125
 31
0.0
100
AcDbText
  0
LINE
  5
EA
330
1F
100
AcDbEntity
  8
Ｓ_１_１
  6
CONTINUOUS
 62
     2
100
AcDbLine
 10
727.533333333316
 20
1028.921790601456
 30
0.0
 11
745.5333333333156
 21
1028.921790601456
 31
0.0
  0
LINE
  5
EB
330
1F
100
AcDbEntity
  8
Ｓ_１_１
  6
CONTINUOUS
 62
     2
100
AcDbLine
 10
754.5333333333144
 20
1044.510247869577
 30
0.0
 11
736.5333333333169
 21
1013.333333333336
 31
0.0
  0
LINE
  5
EC
330
1F
100
AcDbEntity
  8
Ｓ_１_１
  6
CONTINUOUS
 62
     2
100
AcDbLine
 10
727.533333333316
 20
1028.921790601456
 30
0.0
 11
736.5333333333158
 21
1013.333333333337
 31
0.0
  0
LINE
  5
ED
330
1F
100
AcDbEntity
  8
Ｓ_１_１
  6
CONTINUOUS
 62
     2
100
AcDbLine
 10
754.5333333333156
 20
1044.510247869576
 30
0.0
 11
809.1999999999807
 21
1044.510247869576
 31
0.0
  0
LINE
  5
EE
330
1F
100
AcDbEntity
  8
Ｓ_１_１
  6
CONTINUOUS
 62
     2
100
AcDbLine
 10
834.19999999998
 20
1028.921790601456
 30
0.0
 11
852.1999999999796
 21
1028.921790601456
 31
0.0
  0
LINE
  5
EF
330
1F
100
AcDbEntity
  8
Ｓ_１_１
  6
CONTINUOUS
 62
     2
100
AcDbLine
 10
861.1999999999784
 20
1044.510247869577
 30
0.0
 11
843.1999999999808
 21
1013.333333333336
 31
0.0
  0
LINE
  5
F0
330
1F
100
AcDbEntity
  8
Ｓ_１_１
  6
CONTINUOUS
 62
     2
100
AcDbLine
 10
834.19999999998
 20
1028.921790601456
 30
0.0
 11
843.1999999999798
 21
1013.333333333337
 31
0.0
  0
LINE
  5
F1
330
1F
100
AcDbEntity
  8
Ｓ_１_１
  6
CONTINUOUS
 62
     2
100
AcDbLine
 10
861.1999999999795
 20
1044.510247869576
 30
0.0
 11
923.1999999999779
 21
1044.510247869576
 31
0.0
  0
TEXT
  5
F2
330
1F
100
AcDbEntity
  8
Ｓ_１_１
  6
CONTINUOUS
 62
     4
100
AcDbText
 10
753.999999999982
 20
1027.304583333336
 30
0.0
 40
13.85161662817552
  1
Ra 25
 41
0.9992307692307693
  7
EXCADTTF1
 72
     5
 11
798.999999999982
 21
1027.304583333336
 31
0.0
100
AcDbText
  0
TEXT
  5
F3
330
1F
100
AcDbEntity
  8
Ｓ_１_１
  6
CONTINUOUS
 62
     4
100
AcDbText
 10
867.9999999999792
 20
1027.304583333336
 30
0.0
 40
13.85161662817552
  1
Ra 1.6
 41
0.9992307692307693
  7
EXCADTTF1
 72
     5
 11
921.9999999999792
 21
1027.304583333336
 31
0.0
100
AcDbText
  0
LINE
  5
F4
330
1F
100
AcDbEntity
  8
Ｓ_１_１
  6
CONTINUOUS
 62
     2
100
AcDbLine
 10
961.9999999999758
 20
1044.510247869577
 30
0.0
 11
943.9999999999783
 21
1013.333333333336
 31
0.0
  0
LINE
  5
F5
330
1F
100
AcDbEntity
  8
Ｓ_１_１
  6
CONTINUOUS
 62
     2
100
AcDbLine
 10
934.9999999999774
 20
1028.921790601456
 30
0.0
 11
952.9999999999769
 21
1028.921790601456
 31
0.0
  0
LINE
  5
F6
330
1F
100
AcDbEntity
  8
Ｓ_１_１
  6
CONTINUOUS
 62
     2
100
AcDbLine
 10
961.9999999999769
 20
1044.510247869576
 30
0.0
 11
1023.999999999975
 21
1044.510247869576
 31
0.0
  0
TEXT
  5
F7
330
1F
100
AcDbEntity
  8
Ｓ_１_１
  6
CONTINUOUS
 62
     4
100
AcDbText
 10
968.7999999999765
 20
1027.304583333336
 30
0.0
 40
13.85161662817552
  1
Ra 6.3
 41
0.9992307692307693
  7
EXCADTTF1
 72
     5
 11
1022.799999999977
 21
1027.304583333336
 31
0.0
100
AcDbText
  0
LINE
  5
F8
330
1F
100
AcDbEntity
  8
Ｓ_１_１
  6
CONTINUOUS
 62
     2
100
AcDbLine
 10
934.9999999999774
 20
1028.921790601456
 30
0.0
 11
943.9999999999771
 21
1013.333333333337
 31
0.0
  0
LINE
  5
F9
330
1F
100
AcDbEntity
  8
Ｓ_１_１
  6
CONTINUOUS
 62
     3
100
AcDbLine
 10
725.1999999999828
 20
1013.333333333337
 30
0.0
 11
1041.199999999975
 21
1013.333333333337
 31
0.0
  0
ARC
  5
FA
330
1F
100
AcDbEntity
  8
Ｓ_１_１
  6
CONTINUOUS
 62
     3
100
AcDbCircle
 10
1013.304521637433
 20
1030.327172227755
 30
0.0
 40
24.40934507097855
100
AcDbArc
 50
315.876908170283
 51
45.98045346618366
  0
ARC
  5
FB
330
1F
100
AcDbEntity
  8
Ｓ_１_１
  6
CONTINUOUS
 62
     3
100
AcDbCircle
 10
848.2421450291894
 20
1030.327172227755
 30
0.0
 40
24.40934507097855
100
AcDbArc
 50
134.0195465338163
 51
224.1230918297171
  0
LINE
  5
FC
330
1F
100
AcDbEntity
  8
Ｓ_１_１
  6
EXLTYPE2
 62
     1
100
AcDbLine
 10
379.2180485
 20
200.0000000000001
 30
0.0
 11
420.7819514999999
 21
200.0000000000001
 31
0.0
  0
LINE
  5
FD
330
1F
100
AcDbEntity
  8
Ｓ_１_１
  6
EXLTYPE2
 62
     1
100
AcDbLine
 10
399.9999999999999
 20
389.2190850000002
 30
0.0
 11
399.9999999999999
 21
186.0649370000002
 31
0.0
  0
LINE
  5
FE
330
1F
100
AcDbEntity
  8
Ｓ_１_１
  6
EXLTYPE2
 62
     1
100
AcDbLine
 10
1179.2180485
 20
200.0000000000001
 30
0.0
 11
1220.7819515
 21
200.0000000000001
 31
0.0
  0
LINE
  5
FF
330
1F
100
AcDbEntity
  8
Ｓ_１_１
  6
CONTINUOUS
 62
     3
100
AcDbLine
 10
360.0
 20
150.0
 30
0.0
 11
439.572211
 21
150.0000000000003
 31
0.0
  0
TEXT
  5
100
330
1F
100
AcDbEntity
  8
Ｓ_１_１
  6
CONTINUOUS
 62
     4
100
AcDbText
 10
360.0
 20
152.5312500000001
 30
0.0
 40
13.85161662817552
  1
A-A断面図
 41
0.9992307692307693
  7
EXCADTTF1
 72
     5
 11
441.0
 21
152.5312500000001
 31
0.0
100
AcDbText
  0
TEXT
  5
101
330
1F
100
AcDbEntity
  8
Ｓ_１_１
  6
CONTINUOUS
 62
     4
100
AcDbText
 10
1160.0
 20
152.53125
 30
0.0
 40
13.85161662817552
  1
A-A断面図
 41
0.9992307692307693
  7
EXCADTTF1
 72
     5
 11
1241.0
 21
152.53125
 31
0.0
100
AcDbText
  0
LINE
  5
102
330
1F
100
AcDbEntity
  8
Ｓ_１_１
  6
CONTINUOUS
 62
     3
100
AcDbLine
 10
1160.0
 20
150.0
 30
0.0
 11
1240.0
 21
150.0
 31
0.0
  0
ARC
  5
103
330
1F
100
AcDbEntity
  8
Ｓ_１_１
  6
CONTINUOUS
 62
     3
100
AcDbCircle
 10
399.9999999999992
 20
-1198.0
 30
0.0
 40
1570.0
100
AcDbArc
 50
90.00001863283883
 51
98.42396606579979
  0
ARC
  5
104
330
1F
100
AcDbEntity
  8
Ｓ_１_１
  6
CONTINUOUS
 62
     3
100
AcDbCircle
 10
399.9999999999992
 20
-1198.0
 30
0.0
 40
1570.0
100
AcDbArc
 50
81.57603393420027
 51
90.00001863283883
  0
LINE
  5
105
330
1F
100
AcDbEntity
  8
Ｓ_１_１
  6
CONTINUOUS
 62
     3
100
AcDbLine
 10
239.9999999999995
 20
337.0000000000009
 30
0.0
 11
559.9999999999992
 21
337.0000000000009
 31
0.0
  0
LINE
  5
106
330
1F
100
AcDbEntity
  8
Ｓ_１_１
  6
CONTINUOUS
 62
     3
100
AcDbLine
 10
239.9999999999995
 20
337.0000000000009
 30
0.0
 11
239.9999999999995
 21
349.6433697722491
 31
0.0
  0
LINE
  5
107
330
1F
100
AcDbEntity
  8
Ｓ_１_１
  6
CONTINUOUS
 62
     3
100
AcDbLine
 10
169.9999999999995
 20
337.0000000000009
 30
0.0
 11
239.9999999999995
 21
337.0000000000009
 31
0.0
  0
LINE
  5
108
330
1F
100
AcDbEntity
  8
Ｓ_１_１
  6
CONTINUOUS
 62
     3
100
AcDbLine
 10
169.9999999999995
 20
337.0000000000009
 30
0.0
 11
169.9999999999995
 21
348.7385040788255
 31
0.0
  0
ARC
  5
109
330
1F
100
AcDbEntity
  8
Ｓ_１_１
  6
CONTINUOUS
 62
     3
100
AcDbCircle
 10
214.9987041060842
 20
-424.3042817713817
 30
0.0
 40
774.3513621904958
100
AcDbArc
 50
88.14978341908582
 51
93.33141937553238
  0
LINE
  5
10A
330
1F
100
AcDbEntity
  8
Ｓ_１_１
  6
CONTINUOUS
 62
     3
100
AcDbLine
 10
629.9999999999992
 20
355.0614926653749
 30
0.0
 11
629.9999999999992
 21
348.7385040788255
 31
0.0
  0
LINE
  5
10B
330
1F
100
AcDbEntity
  8
Ｓ_１_１
  6
CONTINUOUS
 62
     3
100
AcDbLine
 10
169.9999999999993
 20
355.0614926653749
 30
0.0
 11
169.9999999999995
 21
348.7385040788255
 31
0.0
  0
LINE
  5
10C
330
1F
100
AcDbEntity
  8
Ｓ_１_１
  6
CONTINUOUS
 62
     3
100
AcDbLine
 10
629.9999999999992
 20
337.0000000000009
 30
0.0
 11
559.9999999999992
 21
337.0000000000009
 31
0.0
  0
LINE
  5
10D
330
1F
100
AcDbEntity
  8
Ｓ_１_１
  6
CONTINUOUS
 62
     3
100
AcDbLine
 10
629.9999999999992
 20
337.0000000000009
 30
0.0
 11
629.9999999999992
 21
348.7385040788255
 31
0.0
  0
POLYLINE
  5
10E
330
1F
100
AcDbEntity
  8
Ｓ_１_１
  6
CONTINUOUS
 62
     3
100
AcDb2dPolyline
 66
     1
 10
0.0
 20
0.0
 30
0.0
 70
   128
  0
VERTEX
  5
10F
330
10E
100
AcDbEntity
  8
Ｓ_１_１
  6
CONTINUOUS
 62
     3
100
AcDbVertex
100
AcDb2dVertex
 10
186.2232461458747
 20
352.000000000203
 30
0.0
  0
VERTEX
  5
110
330
10E
100
AcDbEntity
  8
Ｓ_１_１
  6
CONTINUOUS
 62
     3
100
AcDbVertex
100
AcDb2dVertex
 10
186.2177137558648
 20
351.9991040772847
 30
0.0
  0
VERTEX
  5
111
330
10E
100
AcDbEntity
  8
Ｓ_１_１
  6
CONTINUOUS
 62
     3
100
AcDbVertex
100
AcDb2dVertex
 10
186.2019849661819
 20
351.9965594330806
 30
0.0
  0
VERTEX
  5
112
330
10E
100
AcDbEntity
  8
Ｓ_１_１
  6
CONTINUOUS
 62
     3
100
AcDbVertex
100
AcDb2dVertex
 10
186.1773623473457
 20
351.9925807544162
 30
0.0
  0
VERTEX
  5
113
330
10E
100
AcDbEntity
  8
Ｓ_１_１
  6
CONTINUOUS
 62
     3
100
AcDbVertex
100
AcDb2dVertex
 10
186.1451484698765
 20
351.9873827281178
 30
0.0
  0
VERTEX
  5
114
330
10E
100
AcDbEntity
  8
Ｓ_１_１
  6
CONTINUOUS
 62
     3
100
AcDbVertex
100
AcDb2dVertex
 10
186.1066459042938
 20
351.9811800410106
 30
0.0
  0
VERTEX
  5
115
330
10E
100
AcDbEntity
  8
Ｓ_１_１
  6
CONTINUOUS
 62
     3
100
AcDbVertex
100
AcDb2dVertex
 10
186.063157221118
 20
351.9741873799212
 30
0.0
  0
VERTEX
  5
116
330
10E
100
AcDbEntity
  8
Ｓ_１_１
  6
CONTINUOUS
 62
     3
100
AcDbVertex
100
AcDb2dVertex
 10
186.0159849908688
 20
351.9666194316749
 30
0.0
  0
VERTEX
  5
117
330
10E
100
AcDbEntity
  8
Ｓ_１_１
  6
CONTINUOUS
 62
     3
100
AcDbVertex
100
AcDb2dVertex
 10
185.9664317840663
 20
351.9586908830977
 30
0.0
  0
VERTEX
  5
118
330
10E
100
AcDbEntity
  8
Ｓ_１_１
  6
CONTINUOUS
 62
     3
100
AcDbVertex
100
AcDb2dVertex
 10
185.9158001712303
 20
351.9506164210154
 30
0.0
  0
VERTEX
  5
119
330
10E
100
AcDbEntity
  8
Ｓ_１_１
  6
CONTINUOUS
 62
     3
100
AcDbVertex
100
AcDb2dVertex
 10
185.8653927228809
 20
351.942610732254
 30
0.0
  0
VERTEX
  5
11A
330
10E
100
AcDbEntity
  8
Ｓ_１_１
  6
CONTINUOUS
 62
     3
100
AcDbVertex
100
AcDb2dVertex
 10
185.816512009538
 20
351.9348885036391
 30
0.0
  0
VERTEX
  5
11B
330
10E
100
AcDbEntity
  8
Ｓ_１_１
  6
CONTINUOUS
 62
     3
100
AcDbVertex
100
AcDb2dVertex
 10
185.7693368980246
 20
351.9274871126743
 30
0.0
  0
VERTEX
  5
11C
330
10E
100
AcDbEntity
  8
Ｓ_１_１
  6
CONTINUOUS
 62
     3
100
AcDbVertex
100
AcDb2dVertex
 10
185.7246470342894
 20
351.9205331921705
 30
0.0
  0
VERTEX
  5
11D
330
10E
100
AcDbEntity
  8
Ｓ_１_１
  6
CONTINUOUS
 62
     3
100
AcDbVertex
100
AcDb2dVertex
 10
185.6819924126348
 20
351.9139574116924
 30
0.0
  0
VERTEX
  5
11E
330
10E
100
AcDbEntity
  8
Ｓ_１_１
  6
CONTINUOUS
 62
     3
100
AcDbVertex
100
AcDb2dVertex
 10
185.640923027363
 20
351.9076904408044
 30
0.0
  0
VERTEX
  5
11F
330
10E
100
AcDbEntity
  8
Ｓ_１_１
  6
CONTINUOUS
 62
     3
100
AcDbVertex
100
AcDb2dVertex
 10
185.6009888727766
 20
351.901662949071
 30
0.0
  0
VERTEX
  5
120
330
10E
100
AcDbEntity
  8
Ｓ_１_１
  6
CONTINUOUS
 62
     3
100
AcDbVertex
100
AcDb2dVertex
 10
185.5617399431775
 20
351.8958056060569
 30
0.0
  0
VERTEX
  5
121
330
10E
100
AcDbEntity
  8
Ｓ_１_１
  6
CONTINUOUS
 62
     3
100
AcDbVertex
100
AcDb2dVertex
 10
185.5227262328685
 20
351.8900490813267
 30
0.0
  0
VERTEX
  5
122
330
10E
100
AcDbEntity
  8
Ｓ_１_１
  6
CONTINUOUS
 62
     3
100
AcDbVertex
100
AcDb2dVertex
 10
185.4834977361517
 20
351.8843240444447
 30
0.0
  0
VERTEX
  5
123
330
10E
100
AcDbEntity
  8
Ｓ_１_１
  6
CONTINUOUS
 62
     3
100
AcDbVertex
100
AcDb2dVertex
 10
185.4436044473294
 20
351.8785611649757
 30
0.0
  0
VERTEX
  5
124
330
10E
100
AcDbEntity
  8
Ｓ_１_１
  6
CONTINUOUS
 62
     3
100
AcDbVertex
100
AcDb2dVertex
 10
185.402596360704
 20
351.8726911124842
 30
0.0
  0
VERTEX
  5
125
330
10E
100
AcDbEntity
  8
Ｓ_１_１
  6
CONTINUOUS
 62
     3
100
AcDbVertex
100
AcDb2dVertex
 10
185.3600234705779
 20
351.8666445565348
 30
0.0
  0
VERTEX
  5
126
330
10E
100
AcDbEntity
  8
Ｓ_１_１
  6
CONTINUOUS
 62
     3
100
AcDbVertex
100
AcDb2dVertex
 10
185.2674920149475
 20
351.8536269909067
 30
0.0
  0
VERTEX
  5
127
330
10E
100
AcDbEntity
  8
Ｓ_１_１
  6
CONTINUOUS
 62
     3
100
AcDbVertex
100
AcDb2dVertex
 10
185.1682004556993
 20
351.8398043268364
 30
0.0
  0
VERTEX
  5
128
330
10E
100
AcDbEntity
  8
Ｓ_１_１
  6
CONTINUOUS
 62
     3
100
AcDbVertex
100
AcDb2dVertex
 10
185.0637484783061
 20
351.825391472889
 30
0.0
  0
VERTEX
  5
129
330
10E
100
AcDbEntity
  8
Ｓ_１_１
  6
CONTINUOUS
 62
     3
100
AcDbVertex
100
AcDb2dVertex
 10
184.9557357682411
 20
351.8106033376292
 30
0.0
  0
VERTEX
  5
12A
330
10E
100
AcDbEntity
  8
Ｓ_１_１
  6
CONTINUOUS
 62
     3
100
AcDbVertex
100
AcDb2dVertex
 10
184.8457620109773
 20
351.795654829622
 30
0.0
  0
VERTEX
  5
12B
330
10E
100
AcDbEntity
  8
Ｓ_１_１
  6
CONTINUOUS
 62
     3
100
AcDbVertex
100
AcDb2dVertex
 10
184.7354268919876
 20
351.7807608574323
 30
0.0
  0
VERTEX
  5
12C
330
10E
100
AcDbEntity
  8
Ｓ_１_１
  6
CONTINUOUS
 62
     3
100
AcDbVertex
100
AcDb2dVertex
 10
184.6263300967453
 20
351.7661363296248
 30
0.0
  0
VERTEX
  5
12D
330
10E
100
AcDbEntity
  8
Ｓ_１_１
  6
CONTINUOUS
 62
     3
100
AcDbVertex
100
AcDb2dVertex
 10
184.5200713107232
 20
351.7519961547646
 30
0.0
  0
VERTEX
  5
12E
330
10E
100
AcDbEntity
  8
Ｓ_１_１
  6
CONTINUOUS
 62
     3
100
AcDbVertex
100
AcDb2dVertex
 10
184.4182502193945
 20
351.7385552414166
 30
0.0
  0
VERTEX
  5
12F
330
10E
100
AcDbEntity
  8
Ｓ_１_１
  6
CONTINUOUS
 62
     3
100
AcDbVertex
100
AcDb2dVertex
 10
184.3224665082321
 20
351.7260284981455
 30
0.0
  0
VERTEX
  5
130
330
10E
100
AcDbEntity
  8
Ｓ_１_１
  6
CONTINUOUS
 62
     3
100
AcDbVertex
100
AcDb2dVertex
 10
184.2343198627093
 20
351.7146308335164
 30
0.0
  0
VERTEX
  5
131
330
10E
100
AcDbEntity
  8
Ｓ_１_１
  6
CONTINUOUS
 62
     3
100
AcDbVertex
100
AcDb2dVertex
 10
184.1947171961742
 20
351.709564112864
 30
0.0
  0
VERTEX
  5
132
330
10E
100
AcDbEntity
  8
Ｓ_１_１
  6
CONTINUOUS
 62
     3
100
AcDbVertex
100
AcDb2dVertex
 10
184.1568468573511
 20
351.7047616357412
 30
0.0
  0
VERTEX
  5
133
330
10E
100
AcDbEntity
  8
Ｓ_１_１
  6
CONTINUOUS
 62
     3
100
AcDbVertex
100
AcDb2dVertex
 10
184.1202712182553
 20
351.7001719077458
 30
0.0
  0
VERTEX
  5
134
330
10E
100
AcDbEntity
  8
Ｓ_１_１
  6
CONTINUOUS
 62
     3
100
AcDbVertex
100
AcDb2dVertex
 10
184.0845526509017
 20
351.6957434344748
 30
0.0
  0
VERTEX
  5
135
330
10E
100
AcDbEntity
  8
Ｓ_１_１
  6
CONTINUOUS
 62
     3
100
AcDbVertex
100
AcDb2dVertex
 10
184.0492535273059
 20
351.691424721526
 30
0.0
  0
VERTEX
  5
136
330
10E
100
AcDbEntity
  8
Ｓ_１_１
  6
CONTINUOUS
 62
     3
100
AcDbVertex
100
AcDb2dVertex
 10
184.0139362194829
 20
351.687164274497
 30
0.0
  0
VERTEX
  5
137
330
10E
100
AcDbEntity
  8
Ｓ_１_１
  6
CONTINUOUS
 62
     3
100
AcDbVertex
100
AcDb2dVertex
 10
183.978163099448
 20
351.6829105989851
 30
0.0
  0
VERTEX
  5
138
330
10E
100
AcDbEntity
  8
Ｓ_１_１
  6
CONTINUOUS
 62
     3
100
AcDbVertex
100
AcDb2dVertex
 10
183.9414965392163
 20
351.6786122005881
 30
0.0
  0
VERTEX
  5
139
330
10E
100
AcDbEntity
  8
Ｓ_１_１
  6
CONTINUOUS
 62
     3
100
AcDbVertex
100
AcDb2dVertex
 10
183.9034989108033
 20
351.6742175849031
 30
0.0
  0
VERTEX
  5
13A
330
10E
100
AcDbEntity
  8
Ｓ_１_１
  6
CONTINUOUS
 62
     3
100
AcDbVertex
100
AcDb2dVertex
 10
183.8637325862239
 20
351.669675257528
 30
0.0
  0
VERTEX
  5
13B
330
10E
100
AcDbEntity
  8
Ｓ_１_１
  6
CONTINUOUS
 62
     3
100
AcDbVertex
100
AcDb2dVertex
 10
183.8217599374935
 20
351.6649337240601
 30
0.0
  0
VERTEX
  5
13C
330
10E
100
AcDbEntity
  8
Ｓ_１_１
  6
CONTINUOUS
 62
     3
100
AcDbVertex
100
AcDb2dVertex
 10
183.7570630345541
 20
351.6577079499771
 30
0.0
  0
VERTEX
  5
13D
330
10E
100
AcDbEntity
  8
Ｓ_１_１
  6
CONTINUOUS
 62
     3
100
AcDbVertex
100
AcDb2dVertex
 10
183.6881592920303
 20
351.6500955138553
 30
0.0
  0
VERTEX
  5
13E
330
10E
100
AcDbEntity
  8
Ｓ_１_１
  6
CONTINUOUS
 62
     3
100
AcDbVertex
100
AcDb2dVertex
 10
183.6163125665869
 20
351.6422284870476
 30
0.0
  0
VERTEX
  5
13F
330
10E
100
AcDbEntity
  8
Ｓ_１_１
  6
CONTINUOUS
 62
     3
100
AcDbVertex
100
AcDb2dVertex
 10
183.5427867148884
 20
351.634238940907
 30
0.0
  0
VERTEX
  5
140
330
10E
100
AcDbEntity
  8
Ｓ_１_１
  6
CONTINUOUS
 62
     3
100
AcDbVertex
100
AcDb2dVertex
 10
183.4688455935993
 20
351.6262589467865
 30
0.0
  0
VERTEX
  5
141
330
10E
100
AcDbEntity
  8
Ｓ_１_１
  6
CONTINUOUS
 62
     3
100
AcDbVertex
100
AcDb2dVertex
 10
183.395753059384
 20
351.6184205760387
 30
0.0
  0
VERTEX
  5
142
330
10E
100
AcDbEntity
  8
Ｓ_１_１
  6
CONTINUOUS
 62
     3
100
AcDbVertex
100
AcDb2dVertex
 10
183.3247729689073
 20
351.6108559000166
 30
0.0
  0
VERTEX
  5
143
330
10E
100
AcDbEntity
  8
Ｓ_１_１
  6
CONTINUOUS
 62
     3
100
AcDbVertex
100
AcDb2dVertex
 10
183.2571691788337
 20
351.6036969900734
 30
0.0
  0
VERTEX
  5
144
330
10E
100
AcDbEntity
  8
Ｓ_１_１
  6
CONTINUOUS
 62
     3
100
AcDbVertex
100
AcDb2dVertex
 10
183.1942055458276
 20
351.5970759175617
 30
0.0
  0
VERTEX
  5
145
330
10E
100
AcDbEntity
  8
Ｓ_１_１
  6
CONTINUOUS
 62
     3
100
AcDbVertex
100
AcDb2dVertex
 10
183.1371459265536
 20
351.5911247538343
 30
0.0
  0
VERTEX
  5
146
330
10E
100
AcDbEntity
  8
Ｓ_１_１
  6
CONTINUOUS
 62
     3
100
AcDbVertex
100
AcDb2dVertex
 10
183.0872541776762
 20
351.5859755702445
 30
0.0
  0
VERTEX
  5
147
330
10E
100
AcDbEntity
  8
Ｓ_１_１
  6
CONTINUOUS
 62
     3
100
AcDbVertex
100
AcDb2dVertex
 10
183.0729255074468
 20
351.5845104337994
 30
0.0
  0
VERTEX
  5
148
330
10E
100
AcDbEntity
  8
Ｓ_１_１
  6
CONTINUOUS
 62
     3
100
AcDbVertex
100
AcDb2dVertex
 10
183.0592729855707
 20
351.5831230709546
 30
0.0
  0
VERTEX
  5
149
330
10E
100
AcDbEntity
  8
Ｓ_１_１
  6
CONTINUOUS
 62
     3
100
AcDbVertex
100
AcDb2dVertex
 10
183.0461037760394
 20
351.581794990793
 30
0.0
  0
VERTEX
  5
14A
330
10E
100
AcDbEntity
  8
Ｓ_１_１
  6
CONTINUOUS
 62
     3
100
AcDbVertex
100
AcDb2dVertex
 10
183.0332250428449
 20
351.5805077023973
 30
0.0
  0
VERTEX
  5
14B
330
10E
100
AcDbEntity
  8
Ｓ_１_１
  6
CONTINUOUS
 62
     3
100
AcDbVertex
100
AcDb2dVertex
 10
183.0204439499788
 20
351.5792427148504
 30
0.0
  0
VERTEX
  5
14C
330
10E
100
AcDbEntity
  8
Ｓ_１_１
  6
CONTINUOUS
 62
     3
100
AcDbVertex
100
AcDb2dVertex
 10
183.0075676614327
 20
351.577981537235
 30
0.0
  0
VERTEX
  5
14D
330
10E
100
AcDbEntity
  8
Ｓ_１_１
  6
CONTINUOUS
 62
     3
100
AcDbVertex
100
AcDb2dVertex
 10
182.9944033411982
 20
351.5767056786339
 30
0.0
  0
VERTEX
  5
14E
330
10E
100
AcDbEntity
  8
Ｓ_１_１
  6
CONTINUOUS
 62
     3
100
AcDbVertex
100
AcDb2dVertex
 10
182.980758153267
 20
351.57539664813
 30
0.0
  0
VERTEX
  5
14F
330
10E
100
AcDbEntity
  8
Ｓ_１_１
  6
CONTINUOUS
 62
     3
100
AcDbVertex
100
AcDb2dVertex
 10
182.9664392616309
 20
351.5740359548059
 30
0.0
  0
VERTEX
  5
150
330
10E
100
AcDbEntity
  8
Ｓ_１_１
  6
CONTINUOUS
 62
     3
100
AcDbVertex
100
AcDb2dVertex
 10
182.9512538302814
 20
351.5726051077445
 30
0.0
  0
VERTEX
  5
151
330
10E
100
AcDbEntity
  8
Ｓ_１_１
  6
CONTINUOUS
 62
     3
100
AcDbVertex
100
AcDb2dVertex
 10
182.9350090232103
 20
351.5710856160285
 30
0.0
  0
VERTEX
  5
152
330
10E
100
AcDbEntity
  8
Ｓ_１_１
  6
CONTINUOUS
 62
     3
100
AcDbVertex
100
AcDb2dVertex
 10
182.9010623911148
 20
351.5679374320671
 30
0.0
  0
VERTEX
  5
153
330
10E
100
AcDbEntity
  8
Ｓ_１_１
  6
CONTINUOUS
 62
     3
100
AcDbVertex
100
AcDb2dVertex
 10
182.8634248600279
 20
351.5644775276706
 30
0.0
  0
VERTEX
  5
154
330
10E
100
AcDbEntity
  8
Ｓ_１_１
  6
CONTINUOUS
 62
     3
100
AcDbVertex
100
AcDb2dVertex
 10
182.8228824617629
 20
351.5607772155041
 30
0.0
  0
VERTEX
  5
155
330
10E
100
AcDbEntity
  8
Ｓ_１_１
  6
CONTINUOUS
 62
     3
100
AcDbVertex
100
AcDb2dVertex
 10
182.7802212281333
 20
351.556907808233
 30
0.0
  0
VERTEX
  5
156
330
10E
100
AcDbEntity
  8
Ｓ_１_１
  6
CONTINUOUS
 62
     3
100
AcDbVertex
100
AcDb2dVertex
 10
182.7362271909526
 20
351.5529406185226
 30
0.0
  0
VERTEX
  5
157
330
10E
100
AcDbEntity
  8
Ｓ_１_１
  6
CONTINUOUS
 62
     3
100
AcDbVertex
100
AcDb2dVertex
 10
182.691686382034
 20
351.5489469590382
 30
0.0
  0
VERTEX
  5
158
330
10E
100
AcDbEntity
  8
Ｓ_１_１
  6
CONTINUOUS
 62
     3
100
AcDbVertex
100
AcDb2dVertex
 10
182.6473848331911
 20
351.5449981424452
 30
0.0
  0
VERTEX
  5
159
330
10E
100
AcDbEntity
  8
Ｓ_１_１
  6
CONTINUOUS
 62
     3
100
AcDbVertex
100
AcDb2dVertex
 10
182.6041085762372
 20
351.5411654814088
 30
0.0
  0
VERTEX
  5
15A
330
10E
100
AcDbEntity
  8
Ｓ_１_１
  6
CONTINUOUS
 62
     3
100
AcDbVertex
100
AcDb2dVertex
 10
182.5626436429857
 20
351.5375202885942
 30
0.0
  0
VERTEX
  5
15B
330
10E
100
AcDbEntity
  8
Ｓ_１_１
  6
CONTINUOUS
 62
     3
100
AcDbVertex
100
AcDb2dVertex
 10
182.52377606525
 20
351.5341338766671
 30
0.0
  0
VERTEX
  5
15C
330
10E
100
AcDbEntity
  8
Ｓ_１_１
  6
CONTINUOUS
 62
     3
100
AcDbVertex
100
AcDb2dVertex
 10
182.4882918748436
 20
351.5310775582923
 30
0.0
  0
VERTEX
  5
15D
330
10E
100
AcDbEntity
  8
Ｓ_１_１
  6
CONTINUOUS
 62
     3
100
AcDbVertex
100
AcDb2dVertex
 10
182.4728292122468
 20
351.5297604564181
 30
0.0
  0
VERTEX
  5
15E
330
10E
100
AcDbEntity
  8
Ｓ_１_１
  6
CONTINUOUS
 62
     3
100
AcDbVertex
100
AcDb2dVertex
 10
182.4581262710459
 20
351.5285196716304
 30
0.0
  0
VERTEX
  5
15F
330
10E
100
AcDbEntity
  8
Ｓ_１_１
  6
CONTINUOUS
 62
     3
100
AcDbVertex
100
AcDb2dVertex
 10
182.444005011464
 20
351.5273412390955
 30
0.0
  0
VERTEX
  5
160
330
10E
100
AcDbEntity
  8
Ｓ_１_１
  6
CONTINUOUS
 62
     3
100
AcDbVertex
100
AcDb2dVertex
 10
182.4302873937241
 20
351.5262111939798
 30
0.0
  0
VERTEX
  5
161
330
10E
100
AcDbEntity
  8
Ｓ_１_１
  6
CONTINUOUS
 62
     3
100
AcDbVertex
100
AcDb2dVertex
 10
182.4167953780494
 20
351.5251155714496
 30
0.0
  0
VERTEX
  5
162
330
10E
100
AcDbEntity
  8
Ｓ_１_１
  6
CONTINUOUS
 62
     3
100
AcDbVertex
100
AcDb2dVertex
 10
182.4033509246629
 20
351.5240404066715
 30
0.0
  0
VERTEX
  5
163
330
10E
100
AcDbEntity
  8
Ｓ_１_１
  6
CONTINUOUS
 62
     3
100
AcDbVertex
100
AcDb2dVertex
 10
182.3897759937877
 20
351.5229717348117
 30
0.0
  0
VERTEX
  5
164
330
10E
100
AcDbEntity
  8
Ｓ_１_１
  6
CONTINUOUS
 62
     3
100
AcDbVertex
100
AcDb2dVertex
 10
182.3758925456469
 20
351.5218955910367
 30
0.0
  0
VERTEX
  5
165
330
10E
100
AcDbEntity
  8
Ｓ_１_１
  6
CONTINUOUS
 62
     3
100
AcDbVertex
100
AcDb2dVertex
 10
182.3615225404635
 20
351.5207980105129
 30
0.0
  0
VERTEX
  5
166
330
10E
100
AcDbEntity
  8
Ｓ_１_１
  6
CONTINUOUS
 62
     3
100
AcDbVertex
100
AcDb2dVertex
 10
182.3464879384605
 20
351.5196650284066
 30
0.0
  0
VERTEX
  5
167
330
10E
100
AcDbEntity
  8
Ｓ_１_１
  6
CONTINUOUS
 62
     3
100
AcDbVertex
100
AcDb2dVertex
 10
182.3306106998613
 20
351.5184826798841
 30
0.0
  0
VERTEX
  5
168
330
10E
100
AcDbEntity
  8
Ｓ_１_１
  6
CONTINUOUS
 62
     3
100
AcDbVertex
100
AcDb2dVertex
 10
182.2980250920193
 20
351.5160903781679
 30
0.0
  0
VERTEX
  5
169
330
10E
100
AcDbEntity
  8
Ｓ_１_１
  6
CONTINUOUS
 62
     3
100
AcDbVertex
100
AcDb2dVertex
 10
182.2624764678549
 20
351.5135196832882
 30
0.0
  0
VERTEX
  5
16A
330
10E
100
AcDbEntity
  8
Ｓ_１_１
  6
CONTINUOUS
 62
     3
100
AcDbVertex
100
AcDb2dVertex
 10
182.2246390305297
 20
351.5108178854235
 30
0.0
  0
VERTEX
  5
16B
330
10E
100
AcDbEntity
  8
Ｓ_１_１
  6
CONTINUOUS
 62
     3
100
AcDbVertex
100
AcDb2dVertex
 10
182.1851869832054
 20
351.5080322747526
 30
0.0
  0
VERTEX
  5
16C
330
10E
100
AcDbEntity
  8
Ｓ_１_１
  6
CONTINUOUS
 62
     3
100
AcDbVertex
100
AcDb2dVertex
 10
182.1447945290438
 20
351.5052101414543
 30
0.0
  0
VERTEX
  5
16D
330
10E
100
AcDbEntity
  8
Ｓ_１_１
  6
CONTINUOUS
 62
     3
100
AcDbVertex
100
AcDb2dVertex
 10
182.1041358712065
 20
351.5023987757071
 30
0.0
  0
VERTEX
  5
16E
330
10E
100
AcDbEntity
  8
Ｓ_１_１
  6
CONTINUOUS
 62
     3
100
AcDbVertex
100
AcDb2dVertex
 10
182.0638852128552
 20
351.49964546769
 30
0.0
  0
VERTEX
  5
16F
330
10E
100
AcDbEntity
  8
Ｓ_１_１
  6
CONTINUOUS
 62
     3
100
AcDbVertex
100
AcDb2dVertex
 10
182.0247167571516
 20
351.4969975075813
 30
0.0
  0
VERTEX
  5
170
330
10E
100
AcDbEntity
  8
Ｓ_１_１
  6
CONTINUOUS
 62
     3
100
AcDbVertex
100
AcDb2dVertex
 10
181.9873047072574
 20
351.49450218556
 30
0.0
  0
VERTEX
  5
171
330
10E
100
AcDbEntity
  8
Ｓ_１_１
  6
CONTINUOUS
 62
     3
100
AcDbVertex
100
AcDb2dVertex
 10
181.9523232663343
 20
351.4922067918048
 30
0.0
  0
VERTEX
  5
172
330
10E
100
AcDbEntity
  8
Ｓ_１_１
  6
CONTINUOUS
 62
     3
100
AcDbVertex
100
AcDb2dVertex
 10
181.920446637544
 20
351.4901586164942
 30
0.0
  0
VERTEX
  5
173
330
10E
100
AcDbEntity
  8
Ｓ_１_１
  6
CONTINUOUS
 62
     3
100
AcDbVertex
100
AcDb2dVertex
 10
181.9068780053952
 20
351.4893042911928
 30
0.0
  0
VERTEX
  5
174
330
10E
100
AcDbEntity
  8
Ｓ_１_１
  6
CONTINUOUS
 62
     3
100
AcDbVertex
100
AcDb2dVertex
 10
181.8939645280897
 20
351.4885048478947
 30
0.0
  0
VERTEX
  5
175
330
10E
100
AcDbEntity
  8
Ｓ_１_１
  6
CONTINUOUS
 62
     3
100
AcDbVertex
100
AcDb2dVertex
 10
181.8815498293831
 20
351.4877519238454
 30
0.0
  0
VERTEX
  5
176
330
10E
100
AcDbEntity
  8
Ｓ_１_１
  6
CONTINUOUS
 62
     3
100
AcDbVertex
100
AcDb2dVertex
 10
181.8694775330309
 20
351.4870371562914
 30
0.0
  0
VERTEX
  5
177
330
10E
100
AcDbEntity
  8
Ｓ_１_１
  6
CONTINUOUS
 62
     3
100
AcDbVertex
100
AcDb2dVertex
 10
181.8575912627885
 20
351.4863521824786
 30
0.0
  0
VERTEX
  5
178
330
10E
100
AcDbEntity
  8
Ｓ_１_１
  6
CONTINUOUS
 62
     3
100
AcDbVertex
100
AcDb2dVertex
 10
181.8457346424114
 20
351.4856886396533
 30
0.0
  0
VERTEX
  5
179
330
10E
100
AcDbEntity
  8
Ｓ_１_１
  6
CONTINUOUS
 62
     3
100
AcDbVertex
100
AcDb2dVertex
 10
181.8337512956551
 20
351.4850381650614
 30
0.0
  0
VERTEX
  5
17A
330
10E
100
AcDbEntity
  8
Ｓ_１_１
  6
CONTINUOUS
 62
     3
100
AcDbVertex
100
AcDb2dVertex
 10
181.8214848462751
 20
351.4843923959491
 30
0.0
  0
VERTEX
  5
17B
330
10E
100
AcDbEntity
  8
Ｓ_１_１
  6
CONTINUOUS
 62
     3
100
AcDbVertex
100
AcDb2dVertex
 10
181.8087789180267
 20
351.4837429695624
 30
0.0
  0
VERTEX
  5
17C
330
10E
100
AcDbEntity
  8
Ｓ_１_１
  6
CONTINUOUS
 62
     3
100
AcDbVertex
100
AcDb2dVertex
 10
181.7954771346656
 20
351.4830815231476
 30
0.0
  0
VERTEX
  5
17D
330
10E
100
AcDbEntity
  8
Ｓ_１_１
  6
CONTINUOUS
 62
     3
100
AcDbVertex
100
AcDb2dVertex
 10
181.7814231199472
 20
351.4823996939506
 30
0.0
  0
VERTEX
  5
17E
330
10E
100
AcDbEntity
  8
Ｓ_１_１
  6
CONTINUOUS
 62
     3
100
AcDbVertex
100
AcDb2dVertex
 10
181.7539579058736
 20
351.4811056420112
 30
0.0
  0
VERTEX
  5
17F
330
10E
100
AcDbEntity
  8
Ｓ_１_１
  6
CONTINUOUS
 62
     3
100
AcDbVertex
100
AcDb2dVertex
 10
181.7241017776256
 20
351.4797423591005
 30
0.0
  0
VERTEX
  5
180
330
10E
100
AcDbEntity
  8
Ｓ_１_１
  6
CONTINUOUS
 62
     3
100
AcDbVertex
100
AcDb2dVertex
 10
181.6924113595989
 20
351.4783338652566
 30
0.0
  0
VERTEX
  5
181
330
10E
100
AcDbEntity
  8
Ｓ_１_１
  6
CONTINUOUS
 62
     3
100
AcDbVertex
100
AcDb2dVertex
 10
181.6594432761894
 20
351.4769041805176
 30
0.0
  0
VERTEX
  5
182
330
10E
100
AcDbEntity
  8
Ｓ_１_１
  6
CONTINUOUS
 62
     3
100
AcDbVertex
100
AcDb2dVertex
 10
181.6257541517929
 20
351.4754773249218
 30
0.0
  0
VERTEX
  5
183
330
10E
100
AcDbEntity
  8
Ｓ_１_１
  6
CONTINUOUS
 62
     3
100
AcDbVertex
100
AcDb2dVertex
 10
181.5919006108054
 20
351.4740773185073
 30
0.0
  0
VERTEX
  5
184
330
10E
100
AcDbEntity
  8
Ｓ_１_１
  6
CONTINUOUS
 62
     3
100
AcDbVertex
100
AcDb2dVertex
 10
181.5584392776225
 20
351.4727281813123
 30
0.0
  0
VERTEX
  5
185
330
10E
100
AcDbEntity
  8
Ｓ_１_１
  6
CONTINUOUS
 62
     3
100
AcDbVertex
100
AcDb2dVertex
 10
181.5259267766403
 20
351.471453933375
 30
0.0
  0
VERTEX
  5
186
330
10E
100
AcDbEntity
  8
Ｓ_１_１
  6
CONTINUOUS
 62
     3
100
AcDbVertex
100
AcDb2dVertex
 10
181.4949197322545
 20
351.4702785947335
 30
0.0
  0
VERTEX
  5
187
330
10E
100
AcDbEntity
  8
Ｓ_１_１
  6
CONTINUOUS
 62
     3
100
AcDbVertex
100
AcDb2dVertex
 10
181.4659747688609
 20
351.4692261854261
 30
0.0
  0
VERTEX
  5
188
330
10E
100
AcDbEntity
  8
Ｓ_１_１
  6
CONTINUOUS
 62
     3
100
AcDbVertex
100
AcDb2dVertex
 10
181.4396485108554
 20
351.4683207254909
 30
0.0
  0
VERTEX
  5
189
330
10E
100
AcDbEntity
  8
Ｓ_１_１
  6
CONTINUOUS
 62
     3
100
AcDbVertex
100
AcDb2dVertex
 10
181.4287927667526
 20
351.4679674732201
 30
0.0
  0
VERTEX
  5
18A
330
10E
100
AcDbEntity
  8
Ｓ_１_１
  6
CONTINUOUS
 62
     3
100
AcDbVertex
100
AcDb2dVertex
 10
181.4184509630045
 20
351.4676466386057
 30
0.0
  0
VERTEX
  5
18B
330
10E
100
AcDbEntity
  8
Ｓ_１_１
  6
CONTINUOUS
 62
     3
100
AcDbVertex
100
AcDb2dVertex
 10
181.4084962332144
 20
351.46735613632
 30
0.0
  0
VERTEX
  5
18C
330
10E
100
AcDbEntity
  8
Ｓ_１_１
  6
CONTINUOUS
 62
     3
100
AcDbVertex
100
AcDb2dVertex
 10
181.3988017109852
 20
351.4670938810352
 30
0.0
  0
VERTEX
  5
18D
330
10E
100
AcDbEntity
  8
Ｓ_１_１
  6
CONTINUOUS
 62
     3
100
AcDbVertex
100
AcDb2dVertex
 10
181.3892405299201
 20
351.4668577874239
 30
0.0
  0
VERTEX
  5
18E
330
10E
100
AcDbEntity
  8
Ｓ_１_１
  6
CONTINUOUS
 62
     3
100
AcDbVertex
100
AcDb2dVertex
 10
181.3796858236223
 20
351.4666457701584
 30
0.0
  0
VERTEX
  5
18F
330
10E
100
AcDbEntity
  8
Ｓ_１_１
  6
CONTINUOUS
 62
     3
100
AcDbVertex
100
AcDb2dVertex
 10
181.3700107256947
 20
351.466455743911
 30
0.0
  0
VERTEX
  5
190
330
10E
100
AcDbEntity
  8
Ｓ_１_１
  6
CONTINUOUS
 62
     3
100
AcDbVertex
100
AcDb2dVertex
 10
181.3600883697406
 20
351.4662856233541
 30
0.0
  0
VERTEX
  5
191
330
10E
100
AcDbEntity
  8
Ｓ_１_１
  6
CONTINUOUS
 62
     3
100
AcDbVertex
100
AcDb2dVertex
 10
181.349791889363
 20
351.46613332316
 30
0.0
  0
VERTEX
  5
192
330
10E
100
AcDbEntity
  8
Ｓ_１_１
  6
CONTINUOUS
 62
     3
100
AcDbVertex
100
AcDb2dVertex
 10
181.3389944181651
 20
351.4659967580012
 30
0.0
  0
VERTEX
  5
193
330
10E
100
AcDbEntity
  8
Ｓ_１_１
  6
CONTINUOUS
 62
     3
100
AcDbVertex
100
AcDb2dVertex
 10
181.3275690897499
 20
351.4658738425499
 30
0.0
  0
VERTEX
  5
194
330
10E
100
AcDbEntity
  8
Ｓ_１_１
  6
CONTINUOUS
 62
     3
100
AcDbVertex
100
AcDb2dVertex
 10
181.3056334883341
 20
351.4656857168223
 30
0.0
  0
VERTEX
  5
195
330
10E
100
AcDbEntity
  8
Ｓ_１_１
  6
CONTINUOUS
 62
     3
100
AcDbVertex
100
AcDb2dVertex
 10
181.2817872391076
 20
351.4655354523758
 30
0.0
  0
VERTEX
  5
196
330
10E
100
AcDbEntity
  8
Ｓ_１_１
  6
CONTINUOUS
 62
     3
100
AcDbVertex
100
AcDb2dVertex
 10
181.2564790400375
 20
351.4654247590175
 30
0.0
  0
VERTEX
  5
197
330
10E
100
AcDbEntity
  8
Ｓ_１_１
  6
CONTINUOUS
 62
     3
100
AcDbVertex
100
AcDb2dVertex
 10
181.2301575890907
 20
351.4653553465546
 30
0.0
  0
VERTEX
  5
198
330
10E
100
AcDbEntity
  8
Ｓ_１_１
  6
CONTINUOUS
 62
     3
100
AcDbVertex
100
AcDb2dVertex
 10
181.2032715842341
 20
351.4653289247939
 30
0.0
  0
VERTEX
  5
199
330
10E
100
AcDbEntity
  8
Ｓ_１_１
  6
CONTINUOUS
 62
     3
100
AcDbVertex
100
AcDb2dVertex
 10
181.1762697234347
 20
351.4653472035429
 30
0.0
  0
VERTEX
  5
19A
330
10E
100
AcDbEntity
  8
Ｓ_１_１
  6
CONTINUOUS
 62
     3
100
AcDbVertex
100
AcDb2dVertex
 10
181.1496007046593
 20
351.4654118926086
 30
0.0
  0
VERTEX
  5
19B
330
10E
100
AcDbEntity
  8
Ｓ_１_１
  6
CONTINUOUS
 62
     3
100
AcDbVertex
100
AcDb2dVertex
 10
181.1237132258751
 20
351.4655247017981
 30
0.0
  0
VERTEX
  5
19C
330
10E
100
AcDbEntity
  8
Ｓ_１_１
  6
CONTINUOUS
 62
     3
100
AcDbVertex
100
AcDb2dVertex
 10
181.0990559850488
 20
351.4656873409186
 30
0.0
  0
VERTEX
  5
19D
330
10E
100
AcDbEntity
  8
Ｓ_１_１
  6
CONTINUOUS
 62
     3
100
AcDbVertex
100
AcDb2dVertex
 10
181.0760776801475
 20
351.4659015197771
 30
0.0
  0
VERTEX
  5
19E
330
10E
100
AcDbEntity
  8
Ｓ_１_１
  6
CONTINUOUS
 62
     3
100
AcDbVertex
100
AcDb2dVertex
 10
181.0552270091381
 20
351.4661689481808
 30
0.0
  0
VERTEX
  5
19F
330
10E
100
AcDbEntity
  8
Ｓ_１_１
  6
CONTINUOUS
 62
     3
100
AcDbVertex
100
AcDb2dVertex
 10
181.0470425607166
 20
351.4663008623137
 30
0.0
  0
VERTEX
  5
1A0
330
10E
100
AcDbEntity
  8
Ｓ_１_１
  6
CONTINUOUS
 62
     3
100
AcDbVertex
100
AcDb2dVertex
 10
181.0392334763637
 20
351.4664475766833
 30
0.0
  0
VERTEX
  5
1A1
330
10E
100
AcDbEntity
  8
Ｓ_１_１
  6
CONTINUOUS
 62
     3
100
AcDbVertex
100
AcDb2dVertex
 10
181.0317032282326
 20
351.4666138249373
 30
0.0
  0
VERTEX
  5
1A2
330
10E
100
AcDbEntity
  8
Ｓ_１_１
  6
CONTINUOUS
 62
     3
100
AcDbVertex
100
AcDb2dVertex
 10
181.0243552884766
 20
351.4668043407232
 30
0.0
  0
VERTEX
  5
1A3
330
10E
100
AcDbEntity
  8
Ｓ_１_１
  6
CONTINUOUS
 62
     3
100
AcDbVertex
100
AcDb2dVertex
 10
181.017093129249
 20
351.4670238576886
 30
0.0
  0
VERTEX
  5
1A4
330
10E
100
AcDbEntity
  8
Ｓ_１_１
  6
CONTINUOUS
 62
     3
100
AcDbVertex
100
AcDb2dVertex
 10
181.0098202227032
 20
351.4672771094813
 30
0.0
  0
VERTEX
  5
1A5
330
10E
100
AcDbEntity
  8
Ｓ_１_１
  6
CONTINUOUS
 62
     3
100
AcDbVertex
100
AcDb2dVertex
 10
181.0024400409923
 20
351.4675688297489
 30
0.0
  0
VERTEX
  5
1A6
330
10E
100
AcDbEntity
  8
Ｓ_１_１
  6
CONTINUOUS
 62
     3
100
AcDbVertex
100
AcDb2dVertex
 10
180.9948560562698
 20
351.467903752139
 30
0.0
  0
VERTEX
  5
1A7
330
10E
100
AcDbEntity
  8
Ｓ_１_１
  6
CONTINUOUS
 62
     3
100
AcDbVertex
100
AcDb2dVertex
 10
180.9869717406888
 20
351.4682866102995
 30
0.0
  0
VERTEX
  5
1A8
330
10E
100
AcDbEntity
  8
Ｓ_１_１
  6
CONTINUOUS
 62
     3
100
AcDbVertex
100
AcDb2dVertex
 10
180.9786905664026
 20
351.4687221378775
 30
0.0
  0
VERTEX
  5
1A9
330
10E
100
AcDbEntity
  8
Ｓ_１_１
  6
CONTINUOUS
 62
     3
100
AcDbVertex
100
AcDb2dVertex
 10
180.9699160055647
 20
351.4692150685211
 30
0.0
  0
VERTEX
  5
1AA
330
10E
100
AcDbEntity
  8
Ｓ_１_１
  6
CONTINUOUS
 62
     3
100
AcDbVertex
100
AcDb2dVertex
 10
180.9544614959797
 20
351.4701449522133
 30
0.0
  0
VERTEX
  5
1AB
330
10E
100
AcDbEntity
  8
Ｓ_１_１
  6
CONTINUOUS
 62
     3
100
AcDbVertex
100
AcDb2dVertex
 10
180.937754742895
 20
351.471219295379
 30
0.0
  0
VERTEX
  5
1AC
330
10E
100
AcDbEntity
  8
Ｓ_１_１
  6
CONTINUOUS
 62
     3
100
AcDbVertex
100
AcDb2dVertex
 10
180.920104160635
 20
351.4724181706798
 30
0.0
  0
VERTEX
  5
1AD
330
10E
100
AcDbEntity
  8
Ｓ_１_１
  6
CONTINUOUS
 62
     3
100
AcDbVertex
100
AcDb2dVertex
 10
180.9018181635236
 20
351.4737216507771
 30
0.0
  0
VERTEX
  5
1AE
330
10E
100
AcDbEntity
  8
Ｓ_１_１
  6
CONTINUOUS
 62
     3
100
AcDbVertex
100
AcDb2dVertex
 10
180.8832051658851
 20
351.4751098083323
 30
0.0
  0
VERTEX
  5
1AF
330
10E
100
AcDbEntity
  8
Ｓ_１_１
  6
CONTINUOUS
 62
     3
100
AcDbVertex
100
AcDb2dVertex
 10
180.8645735820434
 20
351.4765627160067
 30
0.0
  0
VERTEX
  5
1B0
330
10E
100
AcDbEntity
  8
Ｓ_１_１
  6
CONTINUOUS
 62
     3
100
AcDbVertex
100
AcDb2dVertex
 10
180.8462318263228
 20
351.4780604464619
 30
0.0
  0
VERTEX
  5
1B1
330
10E
100
AcDbEntity
  8
Ｓ_１_１
  6
CONTINUOUS
 62
     3
100
AcDbVertex
100
AcDb2dVertex
 10
180.8284883130474
 20
351.4795830723592
 30
0.0
  0
VERTEX
  5
1B2
330
10E
100
AcDbEntity
  8
Ｓ_１_１
  6
CONTINUOUS
 62
     3
100
AcDbVertex
100
AcDb2dVertex
 10
180.8116514565414
 20
351.4811106663601
 30
0.0
  0
VERTEX
  5
1B3
330
10E
100
AcDbEntity
  8
Ｓ_１_１
  6
CONTINUOUS
 62
     3
100
AcDbVertex
100
AcDb2dVertex
 10
180.7960296711287
 20
351.4826233011261
 30
0.0
  0
VERTEX
  5
1B4
330
10E
100
AcDbEntity
  8
Ｓ_１_１
  6
CONTINUOUS
 62
     3
100
AcDbVertex
100
AcDb2dVertex
 10
180.7819313711335
 20
351.4841010493183
 30
0.0
  0
VERTEX
  5
1B5
330
10E
100
AcDbEntity
  8
Ｓ_１_１
  6
CONTINUOUS
 62
     3
100
AcDbVertex
100
AcDb2dVertex
 10
180.7768711152478
 20
351.4846692792412
 30
0.0
  0
VERTEX
  5
1B6
330
10E
100
AcDbEntity
  8
Ｓ_１_１
  6
CONTINUOUS
 62
     3
100
AcDbVertex
100
AcDb2dVertex
 10
180.7720320487431
 20
351.4852424711051
 30
0.0
  0
VERTEX
  5
1B7
330
10E
100
AcDbEntity
  8
Ｓ_１_１
  6
CONTINUOUS
 62
     3
100
AcDbVertex
100
AcDb2dVertex
 10
180.7673534897575
 20
351.4858340209725
 30
0.0
  0
VERTEX
  5
1B8
330
10E
100
AcDbEntity
  8
Ｓ_１_１
  6
CONTINUOUS
 62
     3
100
AcDbVertex
100
AcDb2dVertex
 10
180.7627747564292
 20
351.4864573249064
 30
0.0
  0
VERTEX
  5
1B9
330
10E
100
AcDbEntity
  8
Ｓ_１_１
  6
CONTINUOUS
 62
     3
100
AcDbVertex
100
AcDb2dVertex
 10
180.7582351668962
 20
351.4871257789692
 30
0.0
  0
VERTEX
  5
1BA
330
10E
100
AcDbEntity
  8
Ｓ_１_１
  6
CONTINUOUS
 62
     3
100
AcDbVertex
100
AcDb2dVertex
 10
180.7536740392964
 20
351.487852779224
 30
0.0
  0
VERTEX
  5
1BB
330
10E
100
AcDbEntity
  8
Ｓ_１_１
  6
CONTINUOUS
 62
     3
100
AcDbVertex
100
AcDb2dVertex
 10
180.7490306917681
 20
351.4886517217333
 30
0.0
  0
VERTEX
  5
1BC
330
10E
100
AcDbEntity
  8
Ｓ_１_１
  6
CONTINUOUS
 62
     3
100
AcDbVertex
100
AcDb2dVertex
 10
180.7442444424493
 20
351.4895360025597
 30
0.0
  0
VERTEX
  5
1BD
330
10E
100
AcDbEntity
  8
Ｓ_１_１
  6
CONTINUOUS
 62
     3
100
AcDbVertex
100
AcDb2dVertex
 10
180.739254609478
 20
351.4905190177662
 30
0.0
  0
VERTEX
  5
1BE
330
10E
100
AcDbEntity
  8
Ｓ_１_１
  6
CONTINUOUS
 62
     3
100
AcDbVertex
100
AcDb2dVertex
 10
180.7340005109923
 20
351.4916141634154
 30
0.0
  0
VERTEX
  5
1BF
330
10E
100
AcDbEntity
  8
Ｓ_１_１
  6
CONTINUOUS
 62
     3
100
AcDbVertex
100
AcDb2dVertex
 10
180.7284214651303
 20
351.49283483557
 30
0.0
  0
VERTEX
  5
1C0
330
10E
100
AcDbEntity
  8
Ｓ_１_１
  6
CONTINUOUS
 62
     3
100
AcDbVertex
100
AcDb2dVertex
 10
180.7196673140802
 20
351.4948476509277
 30
0.0
  0
VERTEX
  5
1C1
330
10E
100
AcDbEntity
  8
Ｓ_１_１
  6
CONTINUOUS
 62
     3
100
AcDbVertex
100
AcDb2dVertex
 10
180.7102795830727
 20
351.4971154011077
 30
0.0
  0
VERTEX
  5
1C2
330
10E
100
AcDbEntity
  8
Ｓ_１_１
  6
CONTINUOUS
 62
     3
100
AcDbVertex
100
AcDb2dVertex
 10
180.7004398144463
 20
351.4995993738971
 30
0.0
  0
VERTEX
  5
1C3
330
10E
100
AcDbEntity
  8
Ｓ_１_１
  6
CONTINUOUS
 62
     3
100
AcDbVertex
100
AcDb2dVertex
 10
180.6903295505396
 20
351.5022608570823
 30
0.0
  0
VERTEX
  5
1C4
330
10E
100
AcDbEntity
  8
Ｓ_１_１
  6
CONTINUOUS
 62
     3
100
AcDbVertex
100
AcDb2dVertex
 10
180.6801303336912
 20
351.5050611384501
 30
0.0
  0
VERTEX
  5
1C5
330
10E
100
AcDbEntity
  8
Ｓ_１_１
  6
CONTINUOUS
 62
     3
100
AcDbVertex
100
AcDb2dVertex
 10
180.6700237062397
 20
351.5079615057873
 30
0.0
  0
VERTEX
  5
1C6
330
10E
100
AcDbEntity
  8
Ｓ_１_１
  6
CONTINUOUS
 62
     3
100
AcDbVertex
100
AcDb2dVertex
 10
180.6601912105237
 20
351.5109232468803
 30
0.0
  0
VERTEX
  5
1C7
330
10E
100
AcDbEntity
  8
Ｓ_１_１
  6
CONTINUOUS
 62
     3
100
AcDbVertex
100
AcDb2dVertex
 10
180.6508143888817
 20
351.5139076495163
 30
0.0
  0
VERTEX
  5
1C8
330
10E
100
AcDbEntity
  8
Ｓ_１_１
  6
CONTINUOUS
 62
     3
100
AcDbVertex
100
AcDb2dVertex
 10
180.6420747836523
 20
351.5168760014817
 30
0.0
  0
VERTEX
  5
1C9
330
10E
100
AcDbEntity
  8
Ｓ_１_１
  6
CONTINUOUS
 62
     3
100
AcDbVertex
100
AcDb2dVertex
 10
180.6341539371742
 20
351.5197895905632
 30
0.0
  0
VERTEX
  5
1CA
330
10E
100
AcDbEntity
  8
Ｓ_１_１
  6
CONTINUOUS
 62
     3
100
AcDbVertex
100
AcDb2dVertex
 10
180.6272333917859
 20
351.5226097045476
 30
0.0
  0
VERTEX
  5
1CB
330
10E
100
AcDbEntity
  8
Ｓ_１_１
  6
CONTINUOUS
 62
     3
100
AcDbVertex
100
AcDb2dVertex
 10
180.6252559335438
 20
351.5234900884428
 30
0.0
  0
VERTEX
  5
1CC
330
10E
100
AcDbEntity
  8
Ｓ_１_１
  6
CONTINUOUS
 62
     3
100
AcDbVertex
100
AcDb2dVertex
 10
180.6233898911075
 20
351.5243765038063
 30
0.0
  0
VERTEX
  5
1CD
330
10E
100
AcDbEntity
  8
Ｓ_１_１
  6
CONTINUOUS
 62
     3
100
AcDbVertex
100
AcDb2dVertex
 10
180.6216255101219
 20
351.5252885347962
 30
0.0
  0
VERTEX
  5
1CE
330
10E
100
AcDbEntity
  8
Ｓ_１_１
  6
CONTINUOUS
 62
     3
100
AcDbVertex
100
AcDb2dVertex
 10
180.6199530362319
 20
351.5262457655708
 30
0.0
  0
VERTEX
  5
1CF
330
10E
100
AcDbEntity
  8
Ｓ_１_１
  6
CONTINUOUS
 62
     3
100
AcDbVertex
100
AcDb2dVertex
 10
180.6183627150823
 20
351.5272677802884
 30
0.0
  0
VERTEX
  5
1D0
330
10E
100
AcDbEntity
  8
Ｓ_１_１
  6
CONTINUOUS
 62
     3
100
AcDbVertex
100
AcDb2dVertex
 10
180.6168447923181
 20
351.5283741631073
 30
0.0
  0
VERTEX
  5
1D1
330
10E
100
AcDbEntity
  8
Ｓ_１_１
  6
CONTINUOUS
 62
     3
100
AcDbVertex
100
AcDb2dVertex
 10
180.6153895135843
 20
351.5295844981855
 30
0.0
  0
VERTEX
  5
1D2
330
10E
100
AcDbEntity
  8
Ｓ_１_１
  6
CONTINUOUS
 62
     3
100
AcDbVertex
100
AcDb2dVertex
 10
180.6139871245256
 20
351.5309183696814
 30
0.0
  0
VERTEX
  5
1D3
330
10E
100
AcDbEntity
  8
Ｓ_１_１
  6
CONTINUOUS
 62
     3
100
AcDbVertex
100
AcDb2dVertex
 10
180.612627870787
 20
351.5323953617535
 30
0.0
  0
VERTEX
  5
1D4
330
10E
100
AcDbEntity
  8
Ｓ_１_１
  6
CONTINUOUS
 62
     3
100
AcDbVertex
100
AcDb2dVertex
 10
180.6113019980135
 20
351.5340350585596
 30
0.0
  0
VERTEX
  5
1D5
330
10E
100
AcDbEntity
  8
Ｓ_１_１
  6
CONTINUOUS
 62
     3
100
AcDbVertex
100
AcDb2dVertex
 10
180.6099997518498
 20
351.5358570442583
 30
0.0
  0
VERTEX
  5
1D6
330
10E
100
AcDbEntity
  8
Ｓ_１_１
  6
CONTINUOUS
 62
     3
100
AcDbVertex
100
AcDb2dVertex
 10
180.6083832629885
 20
351.5384289960406
 30
0.0
  0
VERTEX
  5
1D7
330
10E
100
AcDbEntity
  8
Ｓ_１_１
  6
CONTINUOUS
 62
     3
100
AcDbVertex
100
AcDb2dVertex
 10
180.6068118892827
 20
351.5412662750444
 30
0.0
  0
VERTEX
  5
1D8
330
10E
100
AcDbEntity
  8
Ｓ_１_１
  6
CONTINUOUS
 62
     3
100
AcDbVertex
100
AcDb2dVertex
 10
180.6053086866422
 20
351.5443131959884
 30
0.0
  0
VERTEX
  5
1D9
330
10E
100
AcDbEntity
  8
Ｓ_１_１
  6
CONTINUOUS
 62
     3
100
AcDbVertex
100
AcDb2dVertex
 10
180.6038967109769
 20
351.5475140735915
 30
0.0
  0
VERTEX
  5
1DA
330
10E
100
AcDbEntity
  8
Ｓ_１_１
  6
CONTINUOUS
 62
     3
100
AcDbVertex
100
AcDb2dVertex
 10
180.6025990181964
 20
351.5508132225721
 30
0.0
  0
VERTEX
  5
1DB
330
10E
100
AcDbEntity
  8
Ｓ_１_１
  6
CONTINUOUS
 62
     3
100
AcDbVertex
100
AcDb2dVertex
 10
180.6014386642107
 20
351.5541549576491
 30
0.0
  0
VERTEX
  5
1DC
330
10E
100
AcDbEntity
  8
Ｓ_１_１
  6
CONTINUOUS
 62
     3
100
AcDbVertex
100
AcDb2dVertex
 10
180.6004387049294
 20
351.5574835935412
 30
0.0
  0
VERTEX
  5
1DD
330
10E
100
AcDbEntity
  8
Ｓ_１_１
  6
CONTINUOUS
 62
     3
100
AcDbVertex
100
AcDb2dVertex
 10
180.5996221962623
 20
351.5607434449671
 30
0.0
  0
VERTEX
  5
1DE
330
10E
100
AcDbEntity
  8
Ｓ_１_１
  6
CONTINUOUS
 62
     3
100
AcDbVertex
100
AcDb2dVertex
 10
180.5990121941193
 20
351.5638788266455
 30
0.0
  0
VERTEX
  5
1DF
330
10E
100
AcDbEntity
  8
Ｓ_１_１
  6
CONTINUOUS
 62
     3
100
AcDbVertex
100
AcDb2dVertex
 10
180.59863175441
 20
351.5668340532951
 30
0.0
  0
VERTEX
  5
1E0
330
10E
100
AcDbEntity
  8
Ｓ_１_１
  6
CONTINUOUS
 62
     3
100
AcDbVertex
100
AcDb2dVertex
 10
180.5985039330443
 20
351.5695534396347
 30
0.0
  0
VERTEX
  5
1E1
330
10E
100
AcDbEntity
  8
Ｓ_１_１
  6
CONTINUOUS
 62
     3
100
AcDbVertex
100
AcDb2dVertex
 10
180.5985630304795
 20
351.571136109354
 30
0.0
  0
VERTEX
  5
1E2
330
10E
100
AcDbEntity
  8
Ｓ_１_１
  6
CONTINUOUS
 62
     3
100
AcDbVertex
100
AcDb2dVertex
 10
180.598731215375
 20
351.5726158382671
 30
0.0
  0
VERTEX
  5
1E3
330
10E
100
AcDbEntity
  8
Ｓ_１_１
  6
CONTINUOUS
 62
     3
100
AcDbVertex
100
AcDb2dVertex
 10
180.599006577848
 20
351.5740070652861
 30
0.0
  0
VERTEX
  5
1E4
330
10E
100
AcDbEntity
  8
Ｓ_１_１
  6
CONTINUOUS
 62
     3
100
AcDbVertex
100
AcDb2dVertex
 10
180.599387208016
 20
351.5753242293226
 30
0.0
  0
VERTEX
  5
1E5
330
10E
100
AcDbEntity
  8
Ｓ_１_１
  6
CONTINUOUS
 62
     3
100
AcDbVertex
100
AcDb2dVertex
 10
180.5998711959962
 20
351.5765817692884
 30
0.0
  0
VERTEX
  5
1E6
330
10E
100
AcDbEntity
  8
Ｓ_１_１
  6
CONTINUOUS
 62
     3
100
AcDbVertex
100
AcDb2dVertex
 10
180.6004566319058
 20
351.5777941240951
 30
0.0
  0
VERTEX
  5
1E7
330
10E
100
AcDbEntity
  8
Ｓ_１_１
  6
CONTINUOUS
 62
     3
100
AcDbVertex
100
AcDb2dVertex
 10
180.6011416058624
 20
351.5789757326547
 30
0.0
  0
VERTEX
  5
1E8
330
10E
100
AcDbEntity
  8
Ｓ_１_１
  6
CONTINUOUS
 62
     3
100
AcDbVertex
100
AcDb2dVertex
 10
180.601924207983
 20
351.5801410338788
 30
0.0
  0
VERTEX
  5
1E9
330
10E
100
AcDbEntity
  8
Ｓ_１_１
  6
CONTINUOUS
 62
     3
100
AcDbVertex
100
AcDb2dVertex
 10
180.602802528385
 20
351.5813044666792
 30
0.0
  0
VERTEX
  5
1EA
330
10E
100
AcDbEntity
  8
Ｓ_１_１
  6
CONTINUOUS
 62
     3
100
AcDbVertex
100
AcDb2dVertex
 10
180.6037746571858
 20
351.5824804699677
 30
0.0
  0
VERTEX
  5
1EB
330
10E
100
AcDbEntity
  8
Ｓ_１_１
  6
CONTINUOUS
 62
     3
100
AcDbVertex
100
AcDb2dVertex
 10
180.6048386845025
 20
351.5836834826559
 30
0.0
  0
VERTEX
  5
1EC
330
10E
100
AcDbEntity
  8
Ｓ_１_１
  6
CONTINUOUS
 62
     3
100
AcDbVertex
100
AcDb2dVertex
 10
180.6089571175114
 20
351.587916243337
 30
0.0
  0
VERTEX
  5
1ED
330
10E
100
AcDbEntity
  8
Ｓ_１_１
  6
CONTINUOUS
 62
     3
100
AcDbVertex
100
AcDb2dVertex
 10
180.6139154189064
 20
351.5925148566336
 30
0.0
  0
VERTEX
  5
1EE
330
10E
100
AcDbEntity
  8
Ｓ_１_１
  6
CONTINUOUS
 62
     3
100
AcDbVertex
100
AcDb2dVertex
 10
180.6195775776367
 20
351.5973956900037
 30
0.0
  0
VERTEX
  5
1EF
330
10E
100
AcDbEntity
  8
Ｓ_１_１
  6
CONTINUOUS
 62
     3
100
AcDbVertex
100
AcDb2dVertex
 10
180.6258075826516
 20
351.6024751109063
 30
0.0
  0
VERTEX
  5
1F0
330
10E
100
AcDbEntity
  8
Ｓ_１_１
  6
CONTINUOUS
 62
     3
100
AcDbVertex
100
AcDb2dVertex
 10
180.6324694229001
 20
351.6076694867993
 30
0.0
  0
VERTEX
  5
1F1
330
10E
100
AcDbEntity
  8
Ｓ_１_１
  6
CONTINUOUS
 62
     3
100
AcDbVertex
100
AcDb2dVertex
 10
180.6394270873315
 20
351.6128951851413
 30
0.0
  0
VERTEX
  5
1F2
330
10E
100
AcDbEntity
  8
Ｓ_１_１
  6
CONTINUOUS
 62
     3
100
AcDbVertex
100
AcDb2dVertex
 10
180.6465445648949
 20
351.6180685733909
 30
0.0
  0
VERTEX
  5
1F3
330
10E
100
AcDbEntity
  8
Ｓ_１_１
  6
CONTINUOUS
 62
     3
100
AcDbVertex
100
AcDb2dVertex
 10
180.6536858445396
 20
351.6231060190065
 30
0.0
  0
VERTEX
  5
1F4
330
10E
100
AcDbEntity
  8
Ｓ_１_１
  6
CONTINUOUS
 62
     3
100
AcDbVertex
100
AcDb2dVertex
 10
180.6607149152147
 20
351.6279238894464
 30
0.0
  0
VERTEX
  5
1F5
330
10E
100
AcDbEntity
  8
Ｓ_１_１
  6
CONTINUOUS
 62
     3
100
AcDbVertex
100
AcDb2dVertex
 10
180.6674957658693
 20
351.6324385521692
 30
0.0
  0
VERTEX
  5
1F6
330
10E
100
AcDbEntity
  8
Ｓ_１_１
  6
CONTINUOUS
 62
     3
100
AcDbVertex
100
AcDb2dVertex
 10
180.6738923854527
 20
351.6365663746332
 30
0.0
  0
VERTEX
  5
1F7
330
10E
100
AcDbEntity
  8
Ｓ_１_１
  6
CONTINUOUS
 62
     3
100
AcDbVertex
100
AcDb2dVertex
 10
180.6782423401355
 20
351.6392882649836
 30
0.0
  0
VERTEX
  5
1F8
330
10E
100
AcDbEntity
  8
Ｓ_１_１
  6
CONTINUOUS
 62
     3
100
AcDbVertex
100
AcDb2dVertex
 10
180.6823635509849
 20
351.6417910110391
 30
0.0
  0
VERTEX
  5
1F9
330
10E
100
AcDbEntity
  8
Ｓ_１_１
  6
CONTINUOUS
 62
     3
100
AcDbVertex
100
AcDb2dVertex
 10
180.6863024957709
 20
351.6441043608427
 30
0.0
  0
VERTEX
  5
1FA
330
10E
100
AcDbEntity
  8
Ｓ_１_１
  6
CONTINUOUS
 62
     3
100
AcDbVertex
100
AcDb2dVertex
 10
180.690105652263
 20
351.646258062438
 30
0.0
  0
VERTEX
  5
1FB
330
10E
100
AcDbEntity
  8
Ｓ_１_１
  6
CONTINUOUS
 62
     3
100
AcDbVertex
100
AcDb2dVertex
 10
180.6938194982311
 20
351.6482818638682
 30
0.0
  0
VERTEX
  5
1FC
330
10E
100
AcDbEntity
  8
Ｓ_１_１
  6
CONTINUOUS
 62
     3
100
AcDbVertex
100
AcDb2dVertex
 10
180.697490511445
 20
351.6502055131766
 30
0.0
  0
VERTEX
  5
1FD
330
10E
100
AcDbEntity
  8
Ｓ_１_１
  6
CONTINUOUS
 62
     3
100
AcDbVertex
100
AcDb2dVertex
 10
180.7011651696744
 20
351.6520587584066
 30
0.0
  0
VERTEX
  5
1FE
330
10E
100
AcDbEntity
  8
Ｓ_１_１
  6
CONTINUOUS
 62
     3
100
AcDbVertex
100
AcDb2dVertex
 10
180.7048899506891
 20
351.6538713476016
 30
0.0
  0
VERTEX
  5
1FF
330
10E
100
AcDbEntity
  8
Ｓ_１_１
  6
CONTINUOUS
 62
     3
100
AcDbVertex
100
AcDb2dVertex
 10
180.7087113322588
 20
351.6556730288048
 30
0.0
  0
VERTEX
  5
200
330
10E
100
AcDbEntity
  8
Ｓ_１_１
  6
CONTINUOUS
 62
     3
100
AcDbVertex
100
AcDb2dVertex
 10
180.7126757921533
 20
351.6574935500596
 30
0.0
  0
VERTEX
  5
201
330
10E
100
AcDbEntity
  8
Ｓ_１_１
  6
CONTINUOUS
 62
     3
100
AcDbVertex
100
AcDb2dVertex
 10
180.7168298081424
 20
351.6593626594093
 30
0.0
  0
VERTEX
  5
202
330
10E
100
AcDbEntity
  8
Ｓ_１_１
  6
CONTINUOUS
 62
     3
100
AcDbVertex
100
AcDb2dVertex
 10
180.7285904316608
 20
351.664524667613
 30
0.0
  0
VERTEX
  5
203
330
10E
100
AcDbEntity
  8
Ｓ_１_１
  6
CONTINUOUS
 62
     3
100
AcDbVertex
100
AcDb2dVertex
 10
180.7416640100277
 20
351.6701099818783
 30
0.0
  0
VERTEX
  5
204
330
10E
100
AcDbEntity
  8
Ｓ_１_１
  6
CONTINUOUS
 62
     3
100
AcDbVertex
100
AcDb2dVertex
 10
180.7557881281071
 20
351.6760190663381
 30
0.0
  0
VERTEX
  5
205
330
10E
100
AcDbEntity
  8
Ｓ_１_１
  6
CONTINUOUS
 62
     3
100
AcDbVertex
100
AcDb2dVertex
 10
180.7707003707631
 20
351.6821523851251
 30
0.0
  0
VERTEX
  5
206
330
10E
100
AcDbEntity
  8
Ｓ_１_１
  6
CONTINUOUS
 62
     3
100
AcDbVertex
100
AcDb2dVertex
 10
180.7861383228599
 20
351.6884104023723
 30
0.0
  0
VERTEX
  5
207
330
10E
100
AcDbEntity
  8
Ｓ_１_１
  6
CONTINUOUS
 62
     3
100
AcDbVertex
100
AcDb2dVertex
 10
180.8018395692616
 20
351.6946935822122
 30
0.0
  0
VERTEX
  5
208
330
10E
100
AcDbEntity
  8
Ｓ_１_１
  6
CONTINUOUS
 62
     3
100
AcDbVertex
100
AcDb2dVertex
 10
180.8175416948323
 20
351.7009023887778
 30
0.0
  0
VERTEX
  5
209
330
10E
100
AcDbEntity
  8
Ｓ_１_１
  6
CONTINUOUS
 62
     3
100
AcDbVertex
100
AcDb2dVertex
 10
180.832982284436
 20
351.7069372862019
 30
0.0
  0
VERTEX
  5
20A
330
10E
100
AcDbEntity
  8
Ｓ_１_１
  6
CONTINUOUS
 62
     3
100
AcDbVertex
100
AcDb2dVertex
 10
180.847898922937
 20
351.7126987386173
 30
0.0
  0
VERTEX
  5
20B
330
10E
100
AcDbEntity
  8
Ｓ_１_１
  6
CONTINUOUS
 62
     3
100
AcDbVertex
100
AcDb2dVertex
 10
180.8620291951993
 20
351.7180872101569
 30
0.0
  0
VERTEX
  5
20C
330
10E
100
AcDbEntity
  8
Ｓ_１_１
  6
CONTINUOUS
 62
     3
100
AcDbVertex
100
AcDb2dVertex
 10
180.8751106860871
 20
351.7230031649534
 30
0.0
  0
VERTEX
  5
20D
330
10E
100
AcDbEntity
  8
Ｓ_１_１
  6
CONTINUOUS
 62
     3
100
AcDbVertex
100
AcDb2dVertex
 10
180.8825671273788
 20
351.7257656158601
 30
0.0
  0
VERTEX
  5
20E
330
10E
100
AcDbEntity
  8
Ｓ_１_１
  6
CONTINUOUS
 62
     3
100
AcDbVertex
100
AcDb2dVertex
 10
180.8896070624389
 20
351.7283402742622
 30
0.0
  0
VERTEX
  5
20F
330
10E
100
AcDbEntity
  8
Ｓ_１_１
  6
CONTINUOUS
 62
     3
100
AcDbVertex
100
AcDb2dVertex
 10
180.8963129375762
 20
351.7307570321138
 30
0.0
  0
VERTEX
  5
210
330
10E
100
AcDbEntity
  8
Ｓ_１_１
  6
CONTINUOUS
 62
     3
100
AcDbVertex
100
AcDb2dVertex
 10
180.9027671990994
 20
351.7330457813695
 30
0.0
  0
VERTEX
  5
211
330
10E
100
AcDbEntity
  8
Ｓ_１_１
  6
CONTINUOUS
 62
     3
100
AcDbVertex
100
AcDb2dVertex
 10
180.9090522933175
 20
351.7352364139834
 30
0.0
  0
VERTEX
  5
212
330
10E
100
AcDbEntity
  8
Ｓ_１_１
  6
CONTINUOUS
 62
     3
100
AcDbVertex
100
AcDb2dVertex
 10
180.9152506665392
 20
351.7373588219104
 30
0.0
  0
VERTEX
  5
213
330
10E
100
AcDbEntity
  8
Ｓ_１_１
  6
CONTINUOUS
 62
     3
100
AcDbVertex
100
AcDb2dVertex
 10
180.9214447650734
 20
351.7394428971044
 30
0.0
  0
VERTEX
  5
214
330
10E
100
AcDbEntity
  8
Ｓ_１_１
  6
CONTINUOUS
 62
     3
100
AcDbVertex
100
AcDb2dVertex
 10
180.9277170352288
 20
351.7415185315201
 30
0.0
  0
VERTEX
  5
215
330
10E
100
AcDbEntity
  8
Ｓ_１_１
  6
CONTINUOUS
 62
     3
100
AcDbVertex
100
AcDb2dVertex
 10
180.9341499233143
 20
351.7436156171117
 30
0.0
  0
VERTEX
  5
216
330
10E
100
AcDbEntity
  8
Ｓ_１_１
  6
CONTINUOUS
 62
     3
100
AcDbVertex
100
AcDb2dVertex
 10
180.9408258756388
 20
351.7457640458335
 30
0.0
  0
VERTEX
  5
217
330
10E
100
AcDbEntity
  8
Ｓ_１_１
  6
CONTINUOUS
 62
     3
100
AcDbVertex
100
AcDb2dVertex
 10
180.9478273385108
 20
351.7479937096402
 30
0.0
  0
VERTEX
  5
218
330
10E
100
AcDbEntity
  8
Ｓ_１_１
  6
CONTINUOUS
 62
     3
100
AcDbVertex
100
AcDb2dVertex
 10
180.96611454447
 20
351.7537414858069
 30
0.0
  0
VERTEX
  5
219
330
10E
100
AcDbEntity
  8
Ｓ_１_１
  6
CONTINUOUS
 62
     3
100
AcDbVertex
100
AcDb2dVertex
 10
180.9863339613358
 20
351.7600072050558
 30
0.0
  0
VERTEX
  5
21A
330
10E
100
AcDbEntity
  8
Ｓ_１_１
  6
CONTINUOUS
 62
     3
100
AcDbVertex
100
AcDb2dVertex
 10
181.0080874490375
 20
351.7666740251974
 30
0.0
  0
VERTEX
  5
21B
330
10E
100
AcDbEntity
  8
Ｓ_１_１
  6
CONTINUOUS
 62
     3
100
AcDbVertex
100
AcDb2dVertex
 10
181.0309768675041
 20
351.7736251040415
 30
0.0
  0
VERTEX
  5
21C
330
10E
100
AcDbEntity
  8
Ｓ_１_１
  6
CONTINUOUS
 62
     3
100
AcDbVertex
100
AcDb2dVertex
 10
181.054604076665
 20
351.7807435993986
 30
0.0
  0
VERTEX
  5
21D
330
10E
100
AcDbEntity
  8
Ｓ_１_１
  6
CONTINUOUS
 62
     3
100
AcDbVertex
100
AcDb2dVertex
 10
181.0785709364495
 20
351.7879126690787
 30
0.0
  0
VERTEX
  5
21E
330
10E
100
AcDbEntity
  8
Ｓ_１_１
  6
CONTINUOUS
 62
     3
100
AcDbVertex
100
AcDb2dVertex
 10
181.1024793067867
 20
351.7950154708922
 30
0.0
  0
VERTEX
  5
21F
330
10E
100
AcDbEntity
  8
Ｓ_１_１
  6
CONTINUOUS
 62
     3
100
AcDbVertex
100
AcDb2dVertex
 10
181.1259310476057
 20
351.8019351626492
 30
0.0
  0
VERTEX
  5
220
330
10E
100
AcDbEntity
  8
Ｓ_１_１
  6
CONTINUOUS
 62
     3
100
AcDbVertex
100
AcDb2dVertex
 10
181.148528018836
 20
351.8085549021601
 30
0.0
  0
VERTEX
  5
221
330
10E
100
AcDbEntity
  8
Ｓ_１_１
  6
CONTINUOUS
 62
     3
100
AcDbVertex
100
AcDb2dVertex
 10
181.1698720804066
 20
351.8147578472348
 30
0.0
  0
VERTEX
  5
222
330
10E
100
AcDbEntity
  8
Ｓ_１_１
  6
CONTINUOUS
 62
     3
100
AcDbVertex
100
AcDb2dVertex
 10
181.1895650922468
 20
351.8204271556839
 30
0.0
  0
VERTEX
  5
223
330
10E
100
AcDbEntity
  8
Ｓ_１_１
  6
CONTINUOUS
 62
     3
100
AcDbVertex
100
AcDb2dVertex
 10
181.2000904444959
 20
351.8234295921688
 30
0.0
  0
VERTEX
  5
224
330
10E
100
AcDbEntity
  8
Ｓ_１_１
  6
CONTINUOUS
 62
     3
100
AcDbVertex
100
AcDb2dVertex
 10
181.2100448304511
 20
351.8262462954602
 30
0.0
  0
VERTEX
  5
225
330
10E
100
AcDbEntity
  8
Ｓ_１_１
  6
CONTINUOUS
 62
     3
100
AcDbVertex
100
AcDb2dVertex
 10
181.2195445300551
 20
351.8289096864457
 30
0.0
  0
VERTEX
  5
226
330
10E
100
AcDbEntity
  8
Ｓ_１_１
  6
CONTINUOUS
 62
     3
100
AcDbVertex
100
AcDb2dVertex
 10
181.2287058232508
 20
351.8314521860126
 30
0.0
  0
VERTEX
  5
227
330
10E
100
AcDbEntity
  8
Ｓ_１_１
  6
CONTINUOUS
 62
     3
100
AcDbVertex
100
AcDb2dVertex
 10
181.237644989981
 20
351.8339062150487
 30
0.0
  0
VERTEX
  5
228
330
10E
100
AcDbEntity
  8
Ｓ_１_１
  6
CONTINUOUS
 62
     3
100
AcDbVertex
100
AcDb2dVertex
 10
181.2464783101884
 20
351.8363041944415
 30
0.0
  0
VERTEX
  5
229
330
10E
100
AcDbEntity
  8
Ｓ_１_１
  6
CONTINUOUS
 62
     3
100
AcDbVertex
100
AcDb2dVertex
 10
181.2553220638158
 20
351.8386785450784
 30
0.0
  0
VERTEX
  5
22A
330
10E
100
AcDbEntity
  8
Ｓ_１_１
  6
CONTINUOUS
 62
     3
100
AcDbVertex
100
AcDb2dVertex
 10
181.264292530806
 20
351.8410616878472
 30
0.0
  0
VERTEX
  5
22B
330
10E
100
AcDbEntity
  8
Ｓ_１_１
  6
CONTINUOUS
 62
     3
100
AcDbVertex
100
AcDb2dVertex
 10
181.2735059911018
 20
351.8434860436352
 30
0.0
  0
VERTEX
  5
22C
330
10E
100
AcDbEntity
  8
Ｓ_１_１
  6
CONTINUOUS
 62
     3
100
AcDbVertex
100
AcDb2dVertex
 10
181.2830787246461
 20
351.8459840333301
 30
0.0
  0
VERTEX
  5
22D
330
10E
100
AcDbEntity
  8
Ｓ_１_１
  6
CONTINUOUS
 62
     3
100
AcDbVertex
100
AcDb2dVertex
 10
181.2931270113814
 20
351.8485880778195
 30
0.0
  0
VERTEX
  5
22E
330
10E
100
AcDbEntity
  8
Ｓ_１_１
  6
CONTINUOUS
 62
     3
100
AcDbVertex
100
AcDb2dVertex
 10
181.3174237857511
 20
351.8548314517419
 30
0.0
  0
VERTEX
  5
22F
330
10E
100
AcDbEntity
  8
Ｓ_１_１
  6
CONTINUOUS
 62
     3
100
AcDbVertex
100
AcDb2dVertex
 10
181.3441697901924
 20
351.8616413854792
 30
0.0
  0
VERTEX
  5
230
330
10E
100
AcDbEntity
  8
Ｓ_１_１
  6
CONTINUOUS
 62
     3
100
AcDbVertex
100
AcDb2dVertex
 10
181.3728985907971
 20
351.8689022388565
 30
0.0
  0
VERTEX
  5
231
330
10E
100
AcDbEntity
  8
Ｓ_１_１
  6
CONTINUOUS
 62
     3
100
AcDbVertex
100
AcDb2dVertex
 10
181.4031437536572
 20
351.8764983716986
 30
0.0
  0
VERTEX
  5
232
330
10E
100
AcDbEntity
  8
Ｓ_１_１
  6
CONTINUOUS
 62
     3
100
AcDbVertex
100
AcDb2dVertex
 10
181.4344388448643
 20
351.8843141438308
 30
0.0
  0
VERTEX
  5
233
330
10E
100
AcDbEntity
  8
Ｓ_１_１
  6
CONTINUOUS
 62
     3
100
AcDbVertex
100
AcDb2dVertex
 10
181.4663174305103
 20
351.8922339150778
 30
0.0
  0
VERTEX
  5
234
330
10E
100
AcDbEntity
  8
Ｓ_１_１
  6
CONTINUOUS
 62
     3
100
AcDbVertex
100
AcDb2dVertex
 10
181.4983130766869
 20
351.9001420452649
 30
0.0
  0
VERTEX
  5
235
330
10E
100
AcDbEntity
  8
Ｓ_１_１
  6
CONTINUOUS
 62
     3
100
AcDbVertex
100
AcDb2dVertex
 10
181.5299593494861
 20
351.9079228942171
 30
0.0
  0
VERTEX
  5
236
330
10E
100
AcDbEntity
  8
Ｓ_１_１
  6
CONTINUOUS
 62
     3
100
AcDbVertex
100
AcDb2dVertex
 10
181.5607898149997
 20
351.9154608217592
 30
0.0
  0
VERTEX
  5
237
330
10E
100
AcDbEntity
  8
Ｓ_１_１
  6
CONTINUOUS
 62
     3
100
AcDbVertex
100
AcDb2dVertex
 10
181.5903380393194
 20
351.9226401877164
 30
0.0
  0
VERTEX
  5
238
330
10E
100
AcDbEntity
  8
Ｓ_１_１
  6
CONTINUOUS
 62
     3
100
AcDbVertex
100
AcDb2dVertex
 10
181.6181375885369
 20
351.9293453519135
 30
0.0
  0
VERTEX
  5
239
330
10E
100
AcDbEntity
  8
Ｓ_１_１
  6
CONTINUOUS
 62
     3
100
AcDbVertex
100
AcDb2dVertex
 10
181.6326121288844
 20
351.9328127133891
 30
0.0
  0
VERTEX
  5
23A
330
10E
100
AcDbEntity
  8
Ｓ_１_１
  6
CONTINUOUS
 62
     3
100
AcDbVertex
100
AcDb2dVertex
 10
181.6465639424632
 20
351.9361351328578
 30
0.0
  0
VERTEX
  5
23B
330
10E
100
AcDbEntity
  8
Ｓ_１_１
  6
CONTINUOUS
 62
     3
100
AcDbVertex
100
AcDb2dVertex
 10
181.6601461743141
 20
351.9393476402842
 30
0.0
  0
VERTEX
  5
23C
330
10E
100
AcDbEntity
  8
Ｓ_１_１
  6
CONTINUOUS
 62
     3
100
AcDbVertex
100
AcDb2dVertex
 10
181.6735119694786
 20
351.942485265633
 30
0.0
  0
VERTEX
  5
23D
330
10E
100
AcDbEntity
  8
Ｓ_１_１
  6
CONTINUOUS
 62
     3
100
AcDbVertex
100
AcDb2dVertex
 10
181.6868144729975
 20
351.9455830388691
 30
0.0
  0
VERTEX
  5
23E
330
10E
100
AcDbEntity
  8
Ｓ_１_１
  6
CONTINUOUS
 62
     3
100
AcDbVertex
100
AcDb2dVertex
 10
181.7002068299121
 20
351.9486759899572
 30
0.0
  0
VERTEX
  5
23F
330
10E
100
AcDbEntity
  8
Ｓ_１_１
  6
CONTINUOUS
 62
     3
100
AcDbVertex
100
AcDb2dVertex
 10
181.7138421852633
 20
351.9517991488618
 30
0.0
  0
VERTEX
  5
240
330
10E
100
AcDbEntity
  8
Ｓ_１_１
  6
CONTINUOUS
 62
     3
100
AcDbVertex
100
AcDb2dVertex
 10
181.7278736840925
 20
351.9549875455479
 30
0.0
  0
VERTEX
  5
241
330
10E
100
AcDbEntity
  8
Ｓ_１_１
  6
CONTINUOUS
 62
     3
100
AcDbVertex
100
AcDb2dVertex
 10
181.7424544714405
 20
351.95827620998
 30
0.0
  0
VERTEX
  5
242
330
10E
100
AcDbEntity
  8
Ｓ_１_１
  6
CONTINUOUS
 62
     3
100
AcDbVertex
100
AcDb2dVertex
 10
181.7577376923485
 20
351.961700172123
 30
0.0
  0
VERTEX
  5
243
330
10E
100
AcDbEntity
  8
Ｓ_１_１
  6
CONTINUOUS
 62
     3
100
AcDbVertex
100
AcDb2dVertex
 10
181.7738764918577
 20
351.9652944619415
 30
0.0
  0
VERTEX
  5
244
330
10E
100
AcDbEntity
  8
Ｓ_１_１
  6
CONTINUOUS
 62
     3
100
AcDbVertex
100
AcDb2dVertex
 10
181.7926395555708
 20
351.969451551542
 30
0.0
  0
VERTEX
  5
245
330
10E
100
AcDbEntity
  8
Ｓ_１_１
  6
CONTINUOUS
 62
     3
100
AcDbVertex
100
AcDb2dVertex
 10
181.8120956849065
 20
351.9737441464232
 30
0.0
  0
VERTEX
  5
246
330
10E
100
AcDbEntity
  8
Ｓ_１_１
  6
CONTINUOUS
 62
     3
100
AcDbVertex
100
AcDb2dVertex
 10
181.8317223329869
 20
351.9780602754471
 30
0.0
  0
VERTEX
  5
247
330
10E
100
AcDbEntity
  8
Ｓ_１_１
  6
CONTINUOUS
 62
     3
100
AcDbVertex
100
AcDb2dVertex
 10
181.8509969529341
 20
351.9822879674756
 30
0.0
  0
VERTEX
  5
248
330
10E
100
AcDbEntity
  8
Ｓ_１_１
  6
CONTINUOUS
 62
     3
100
AcDbVertex
100
AcDb2dVertex
 10
181.8693969978701
 20
351.9863152513706
 30
0.0
  0
VERTEX
  5
249
330
10E
100
AcDbEntity
  8
Ｓ_１_１
  6
CONTINUOUS
 62
     3
100
AcDbVertex
100
AcDb2dVertex
 10
181.8863999209169
 20
351.990030155994
 30
0.0
  0
VERTEX
  5
24A
330
10E
100
AcDbEntity
  8
Ｓ_１_１
  6
CONTINUOUS
 62
     3
100
AcDbVertex
100
AcDb2dVertex
 10
181.9014831751967
 20
351.9933207102076
 30
0.0
  0
VERTEX
  5
24B
330
10E
100
AcDbEntity
  8
Ｓ_１_１
  6
CONTINUOUS
 62
     3
100
AcDbVertex
100
AcDb2dVertex
 10
181.9141242138314
 20
351.9960749428735
 30
0.0
  0
VERTEX
  5
24C
330
10E
100
AcDbEntity
  8
Ｓ_１_１
  6
CONTINUOUS
 62
     3
100
AcDbVertex
100
AcDb2dVertex
 10
181.9238004899432
 20
351.9981808828534
 30
0.0
  0
VERTEX
  5
24D
330
10E
100
AcDbEntity
  8
Ｓ_１_１
  6
CONTINUOUS
 62
     3
100
AcDbVertex
100
AcDb2dVertex
 10
181.9299894566541
 20
351.9995265590093
 30
0.0
  0
VERTEX
  5
24E
330
10E
100
AcDbEntity
  8
Ｓ_１_１
  6
CONTINUOUS
 62
     3
100
AcDbVertex
100
AcDb2dVertex
 10
181.9321685670861
 20
352.000000000203
 30
0.0
  0
SEQEND
  5
24F
330
10E
100
AcDbEntity
  8
Ｓ_１_１
  6
CONTINUOUS
 62
     3
  0
POLYLINE
  5
250
330
1F
100
AcDbEntity
  8
Ｓ_１_１
  6
CONTINUOUS
 62
     3
100
AcDb2dPolyline
 66
     1
 10
0.0
 20
0.0
 30
0.0
 70
   128
  0
VERTEX
  5
251
330
250
100
AcDbEntity
  8
Ｓ_１_１
  6
CONTINUOUS
 62
     3
100
AcDbVertex
100
AcDb2dVertex
 10
181.9321685670861
 20
352.000000000203
 30
0.0
  0
VERTEX
  5
252
330
250
100
AcDbEntity
  8
Ｓ_１_１
  6
CONTINUOUS
 62
     3
100
AcDbVertex
100
AcDb2dVertex
 10
181.9350568073002
 20
352.0005301709742
 30
0.0
  0
VERTEX
  5
253
330
250
100
AcDbEntity
  8
Ｓ_１_１
  6
CONTINUOUS
 62
     3
100
AcDbVertex
100
AcDb2dVertex
 10
181.9432691837915
 20
352.0020367819887
 30
0.0
  0
VERTEX
  5
254
330
250
100
AcDbEntity
  8
Ｓ_１_１
  6
CONTINUOUS
 62
     3
100
AcDbVertex
100
AcDb2dVertex
 10
181.9561271803341
 20
352.0043939812979
 30
0.0
  0
VERTEX
  5
255
330
250
100
AcDbEntity
  8
Ｓ_１_１
  6
CONTINUOUS
 62
     3
100
AcDbVertex
100
AcDb2dVertex
 10
181.9729522807019
 20
352.0074759169527
 30
0.0
  0
VERTEX
  5
256
330
250
100
AcDbEntity
  8
Ｓ_１_１
  6
CONTINUOUS
 62
     3
100
AcDbVertex
100
AcDb2dVertex
 10
181.9930659686686
 20
352.0111567370045
 30
0.0
  0
VERTEX
  5
257
330
250
100
AcDbEntity
  8
Ｓ_１_１
  6
CONTINUOUS
 62
     3
100
AcDbVertex
100
AcDb2dVertex
 10
182.0157897280085
 20
352.0153105895047
 30
0.0
  0
VERTEX
  5
258
330
250
100
AcDbEntity
  8
Ｓ_１_１
  6
CONTINUOUS
 62
     3
100
AcDbVertex
100
AcDb2dVertex
 10
182.0404450424953
 20
352.0198116225042
 30
0.0
  0
VERTEX
  5
259
330
250
100
AcDbEntity
  8
Ｓ_１_１
  6
CONTINUOUS
 62
     3
100
AcDbVertex
100
AcDb2dVertex
 10
182.0663533959028
 20
352.0245339840546
 30
0.0
  0
VERTEX
  5
25A
330
250
100
AcDbEntity
  8
Ｓ_１_１
  6
CONTINUOUS
 62
     3
100
AcDbVertex
100
AcDb2dVertex
 10
182.0928362720052
 20
352.0293518222068
 30
0.0
  0
VERTEX
  5
25B
330
250
100
AcDbEntity
  8
Ｓ_１_１
  6
CONTINUOUS
 62
     3
100
AcDbVertex
100
AcDb2dVertex
 10
182.1192151545762
 20
352.0341392850123
 30
0.0
  0
VERTEX
  5
25C
330
250
100
AcDbEntity
  8
Ｓ_１_１
  6
CONTINUOUS
 62
     3
100
AcDbVertex
100
AcDb2dVertex
 10
182.1448115273897
 20
352.0387705205222
 30
0.0
  0
VERTEX
  5
25D
330
250
100
AcDbEntity
  8
Ｓ_１_１
  6
CONTINUOUS
 62
     3
100
AcDbVertex
100
AcDb2dVertex
 10
182.169867097725
 20
352.0432857513524
 30
0.0
  0
VERTEX
  5
25E
330
250
100
AcDbEntity
  8
Ｓ_１_１
  6
CONTINUOUS
 62
     3
100
AcDbVertex
100
AcDb2dVertex
 10
182.1936005559586
 20
352.0475423976819
 30
0.0
  0
VERTEX
  5
25F
330
250
100
AcDbEntity
  8
Ｓ_１_１
  6
CONTINUOUS
 62
     3
100
AcDbVertex
100
AcDb2dVertex
 10
182.2162478720273
 20
352.0515826927976
 30
0.0
  0
VERTEX
  5
260
330
250
100
AcDbEntity
  8
Ｓ_１_１
  6
CONTINUOUS
 62
     3
100
AcDbVertex
100
AcDb2dVertex
 10
182.2380450158683
 20
352.0554488699867
 30
0.0
  0
VERTEX
  5
261
330
250
100
AcDbEntity
  8
Ｓ_１_１
  6
CONTINUOUS
 62
     3
100
AcDbVertex
100
AcDb2dVertex
 10
182.2592279574184
 20
352.059183162536
 30
0.0
  0
VERTEX
  5
262
330
250
100
AcDbEntity
  8
Ｓ_１_１
  6
CONTINUOUS
 62
     3
100
AcDbVertex
100
AcDb2dVertex
 10
182.2800326666147
 20
352.0628278037325
 30
0.0
  0
VERTEX
  5
263
330
250
100
AcDbEntity
  8
Ｓ_１_１
  6
CONTINUOUS
 62
     3
100
AcDbVertex
100
AcDb2dVertex
 10
182.3006951133939
 20
352.0664250268633
 30
0.0
  0
VERTEX
  5
264
330
250
100
AcDbEntity
  8
Ｓ_１_１
  6
CONTINUOUS
 62
     3
100
AcDbVertex
100
AcDb2dVertex
 10
182.3214512676931
 20
352.0700170652152
 30
0.0
  0
VERTEX
  5
265
330
250
100
AcDbEntity
  8
Ｓ_１_１
  6
CONTINUOUS
 62
     3
100
AcDbVertex
100
AcDb2dVertex
 10
182.3425370994493
 20
352.0736461520755
 30
0.0
  0
VERTEX
  5
266
330
250
100
AcDbEntity
  8
Ｓ_１_１
  6
CONTINUOUS
 62
     3
100
AcDbVertex
100
AcDb2dVertex
 10
182.3641885785994
 20
352.0773545207308
 30
0.0
  0
VERTEX
  5
267
330
250
100
AcDbEntity
  8
Ｓ_１_１
  6
CONTINUOUS
 62
     3
100
AcDbVertex
100
AcDb2dVertex
 10
182.3866416750803
 20
352.0811844044682
 30
0.0
  0
VERTEX
  5
268
330
250
100
AcDbEntity
  8
Ｓ_１_１
  6
CONTINUOUS
 62
     3
100
AcDbVertex
100
AcDb2dVertex
 10
182.43597033023
 20
352.0895568723761
 30
0.0
  0
VERTEX
  5
269
330
250
100
AcDbEntity
  8
Ｓ_１_１
  6
CONTINUOUS
 62
     3
100
AcDbVertex
100
AcDb2dVertex
 10
182.4888426243045
 20
352.0984822808647
 30
0.0
  0
VERTEX
  5
26A
330
250
100
AcDbEntity
  8
Ｓ_１_１
  6
CONTINUOUS
 62
     3
100
AcDbVertex
100
AcDb2dVertex
 10
182.5443939525359
 20
352.1078178770179
 30
0.0
  0
VERTEX
  5
26B
330
250
100
AcDbEntity
  8
Ｓ_１_１
  6
CONTINUOUS
 62
     3
100
AcDbVertex
100
AcDb2dVertex
 10
182.6017597101562
 20
352.1174209079188
 30
0.0
  0
VERTEX
  5
26C
330
250
100
AcDbEntity
  8
Ｓ_１_１
  6
CONTINUOUS
 62
     3
100
AcDbVertex
100
AcDb2dVertex
 10
182.6600752923972
 20
352.1271486206506
 30
0.0
  0
VERTEX
  5
26D
330
250
100
AcDbEntity
  8
Ｓ_１_１
  6
CONTINUOUS
 62
     3
100
AcDbVertex
100
AcDb2dVertex
 10
182.7184760944909
 20
352.136858262297
 30
0.0
  0
VERTEX
  5
26E
330
250
100
AcDbEntity
  8
Ｓ_１_１
  6
CONTINUOUS
 62
     3
100
AcDbVertex
100
AcDb2dVertex
 10
182.7760975116693
 20
352.1464070799412
 30
0.0
  0
VERTEX
  5
26F
330
250
100
AcDbEntity
  8
Ｓ_１_１
  6
CONTINUOUS
 62
     3
100
AcDbVertex
100
AcDb2dVertex
 10
182.8320749391643
 20
352.1556523206665
 30
0.0
  0
VERTEX
  5
270
330
250
100
AcDbEntity
  8
Ｓ_１_１
  6
CONTINUOUS
 62
     3
100
AcDbVertex
100
AcDb2dVertex
 10
182.8855437722078
 20
352.1644512315564
 30
0.0
  0
VERTEX
  5
271
330
250
100
AcDbEntity
  8
Ｓ_１_１
  6
CONTINUOUS
 62
     3
100
AcDbVertex
100
AcDb2dVertex
 10
182.9356394060318
 20
352.1726610596942
 30
0.0
  0
VERTEX
  5
272
330
250
100
AcDbEntity
  8
Ｓ_１_１
  6
CONTINUOUS
 62
     3
100
AcDbVertex
100
AcDb2dVertex
 10
182.9814972358682
 20
352.1801390521633
 30
0.0
  0
VERTEX
  5
273
330
250
100
AcDbEntity
  8
Ｓ_１_１
  6
CONTINUOUS
 62
     3
100
AcDbVertex
100
AcDb2dVertex
 10
183.0033711069578
 20
352.183689225391
 30
0.0
  0
VERTEX
  5
274
330
250
100
AcDbEntity
  8
Ｓ_１_１
  6
CONTINUOUS
 62
     3
100
AcDbVertex
100
AcDb2dVertex
 10
183.0241212634532
 20
352.1870435698117
 30
0.0
  0
VERTEX
  5
275
330
250
100
AcDbEntity
  8
Ｓ_１_１
  6
CONTINUOUS
 62
     3
100
AcDbVertex
100
AcDb2dVertex
 10
183.0439943637356
 20
352.1902411481416
 30
0.0
  0
VERTEX
  5
276
330
250
100
AcDbEntity
  8
Ｓ_１_１
  6
CONTINUOUS
 62
     3
100
AcDbVertex
100
AcDb2dVertex
 10
183.0632370661858
 20
352.1933210230964
 30
0.0
  0
VERTEX
  5
277
330
250
100
AcDbEntity
  8
Ｓ_１_１
  6
CONTINUOUS
 62
     3
100
AcDbVertex
100
AcDb2dVertex
 10
183.0820960291848
 20
352.1963222573917
 30
0.0
  0
VERTEX
  5
278
330
250
100
AcDbEntity
  8
Ｓ_１_１
  6
CONTINUOUS
 62
     3
100
AcDbVertex
100
AcDb2dVertex
 10
183.1008179111137
 20
352.1992839137436
 30
0.0
  0
VERTEX
  5
279
330
250
100
AcDbEntity
  8
Ｓ_１_１
  6
CONTINUOUS
 62
     3
100
AcDbVertex
100
AcDb2dVertex
 10
183.1196493703534
 20
352.2022450548676
 30
0.0
  0
VERTEX
  5
27A
330
250
100
AcDbEntity
  8
Ｓ_１_１
  6
CONTINUOUS
 62
     3
100
AcDbVertex
100
AcDb2dVertex
 10
183.1388370652847
 20
352.2052447434798
 30
0.0
  0
VERTEX
  5
27B
330
250
100
AcDbEntity
  8
Ｓ_１_１
  6
CONTINUOUS
 62
     3
100
AcDbVertex
100
AcDb2dVertex
 10
183.1586276542889
 20
352.2083220422959
 30
0.0
  0
VERTEX
  5
27C
330
250
100
AcDbEntity
  8
Ｓ_１_１
  6
CONTINUOUS
 62
     3
100
AcDbVertex
100
AcDb2dVertex
 10
183.1792677957468
 20
352.2115160140318
 30
0.0
  0
VERTEX
  5
27D
330
250
100
AcDbEntity
  8
Ｓ_１_１
  6
CONTINUOUS
 62
     3
100
AcDbVertex
100
AcDb2dVertex
 10
183.2010041480394
 20
352.2148657214032
 30
0.0
  0
VERTEX
  5
27E
330
250
100
AcDbEntity
  8
Ｓ_１_１
  6
CONTINUOUS
 62
     3
100
AcDbVertex
100
AcDb2dVertex
 10
183.249077968491
 20
352.222237055178
 30
0.0
  0
VERTEX
  5
27F
330
250
100
AcDbEntity
  8
Ｓ_１_１
  6
CONTINUOUS
 62
     3
100
AcDbVertex
100
AcDb2dVertex
 10
183.3016926952102
 20
352.2302619145986
 30
0.0
  0
VERTEX
  5
280
330
250
100
AcDbEntity
  8
Ｓ_１_１
  6
CONTINUOUS
 62
     3
100
AcDbVertex
100
AcDb2dVertex
 10
183.3578400563547
 20
352.238788854332
 30
0.0
  0
VERTEX
  5
281
330
250
100
AcDbEntity
  8
Ｓ_１_１
  6
CONTINUOUS
 62
     3
100
AcDbVertex
100
AcDb2dVertex
 10
183.4165117800821
 20
352.247666429045
 30
0.0
  0
VERTEX
  5
282
330
250
100
AcDbEntity
  8
Ｓ_１_１
  6
CONTINUOUS
 62
     3
100
AcDbVertex
100
AcDb2dVertex
 10
183.4766995945499
 20
352.2567431934048
 30
0.0
  0
VERTEX
  5
283
330
250
100
AcDbEntity
  8
Ｓ_１_１
  6
CONTINUOUS
 62
     3
100
AcDbVertex
100
AcDb2dVertex
 10
183.5373952279159
 20
352.2658677020777
 30
0.0
  0
VERTEX
  5
284
330
250
100
AcDbEntity
  8
Ｓ_１_１
  6
CONTINUOUS
 62
     3
100
AcDbVertex
100
AcDb2dVertex
 10
183.5975904083375
 20
352.2748885097309
 30
0.0
  0
VERTEX
  5
285
330
250
100
AcDbEntity
  8
Ｓ_１_１
  6
CONTINUOUS
 62
     3
100
AcDbVertex
100
AcDb2dVertex
 10
183.6562768639723
 20
352.2836541710309
 30
0.0
  0
VERTEX
  5
286
330
250
100
AcDbEntity
  8
Ｓ_１_１
  6
CONTINUOUS
 62
     3
100
AcDbVertex
100
AcDb2dVertex
 10
183.7124463229781
 20
352.2920132406449
 30
0.0
  0
VERTEX
  5
287
330
250
100
AcDbEntity
  8
Ｓ_１_１
  6
CONTINUOUS
 62
     3
100
AcDbVertex
100
AcDb2dVertex
 10
183.7650905135124
 20
352.2998142732396
 30
0.0
  0
VERTEX
  5
288
330
250
100
AcDbEntity
  8
Ｓ_１_１
  6
CONTINUOUS
 62
     3
100
AcDbVertex
100
AcDb2dVertex
 10
183.8132011637328
 20
352.3069058234817
 30
0.0
  0
VERTEX
  5
289
330
250
100
AcDbEntity
  8
Ｓ_１_１
  6
CONTINUOUS
 62
     3
100
AcDbVertex
100
AcDb2dVertex
 10
183.835269582673
 20
352.3101422819374
 30
0.0
  0
VERTEX
  5
28A
330
250
100
AcDbEntity
  8
Ｓ_１_１
  6
CONTINUOUS
 62
     3
100
AcDbVertex
100
AcDb2dVertex
 10
183.8562073310432
 20
352.313199940335
 30
0.0
  0
VERTEX
  5
28B
330
250
100
AcDbEntity
  8
Ｓ_１_１
  6
CONTINUOUS
 62
     3
100
AcDbVertex
100
AcDb2dVertex
 10
183.876264725496
 20
352.3161145367675
 30
0.0
  0
VERTEX
  5
28C
330
250
100
AcDbEntity
  8
Ｓ_１_１
  6
CONTINUOUS
 62
     3
100
AcDbVertex
100
AcDb2dVertex
 10
183.8956920826844
 20
352.3189218093277
 30
0.0
  0
VERTEX
  5
28D
330
250
100
AcDbEntity
  8
Ｓ_１_１
  6
CONTINUOUS
 62
     3
100
AcDbVertex
100
AcDb2dVertex
 10
183.9147397192611
 20
352.3216574961087
 30
0.0
  0
VERTEX
  5
28E
330
250
100
AcDbEntity
  8
Ｓ_１_１
  6
CONTINUOUS
 62
     3
100
AcDbVertex
100
AcDb2dVertex
 10
183.9336579518791
 20
352.3243573352033
 30
0.0
  0
VERTEX
  5
28F
330
250
100
AcDbEntity
  8
Ｓ_１_１
  6
CONTINUOUS
 62
     3
100
AcDbVertex
100
AcDb2dVertex
 10
183.952697097191
 20
352.3270570647048
 30
0.0
  0
VERTEX
  5
290
330
250
100
AcDbEntity
  8
Ｓ_１_１
  6
CONTINUOUS
 62
     3
100
AcDbVertex
100
AcDb2dVertex
 10
183.9721074718498
 20
352.3297924227059
 30
0.0
  0
VERTEX
  5
291
330
250
100
AcDbEntity
  8
Ｓ_１_１
  6
CONTINUOUS
 62
     3
100
AcDbVertex
100
AcDb2dVertex
 10
183.9921393925081
 20
352.3325991472996
 30
0.0
  0
VERTEX
  5
292
330
250
100
AcDbEntity
  8
Ｓ_１_１
  6
CONTINUOUS
 62
     3
100
AcDbVertex
100
AcDb2dVertex
 10
184.013043175819
 20
352.3355129765789
 30
0.0
  0
VERTEX
  5
293
330
250
100
AcDbEntity
  8
Ｓ_１_１
  6
CONTINUOUS
 62
     3
100
AcDbVertex
100
AcDb2dVertex
 10
184.035069138435
 20
352.3385696486368
 30
0.0
  0
VERTEX
  5
294
330
250
100
AcDbEntity
  8
Ｓ_１_１
  6
CONTINUOUS
 62
     3
100
AcDbVertex
100
AcDb2dVertex
 10
184.0829118628716
 20
352.3451737415213
 30
0.0
  0
VERTEX
  5
295
330
250
100
AcDbEntity
  8
Ｓ_１_１
  6
CONTINUOUS
 62
     3
100
AcDbVertex
100
AcDb2dVertex
 10
184.1352394828107
 20
352.3523563250682
 30
0.0
  0
VERTEX
  5
296
330
250
100
AcDbEntity
  8
Ｓ_１_１
  6
CONTINUOUS
 62
     3
100
AcDbVertex
100
AcDb2dVertex
 10
184.1910638682364
 20
352.359983772967
 30
0.0
  0
VERTEX
  5
297
330
250
100
AcDbEntity
  8
Ｓ_１_１
  6
CONTINUOUS
 62
     3
100
AcDbVertex
100
AcDb2dVertex
 10
184.2493968891328
 20
352.3679224589074
 30
0.0
  0
VERTEX
  5
298
330
250
100
AcDbEntity
  8
Ｓ_１_１
  6
CONTINUOUS
 62
     3
100
AcDbVertex
100
AcDb2dVertex
 10
184.3092504154839
 20
352.376038756579
 30
0.0
  0
VERTEX
  5
299
330
250
100
AcDbEntity
  8
Ｓ_１_１
  6
CONTINUOUS
 62
     3
100
AcDbVertex
100
AcDb2dVertex
 10
184.3696363172739
 20
352.384199039671
 30
0.0
  0
VERTEX
  5
29A
330
250
100
AcDbEntity
  8
Ｓ_１_１
  6
CONTINUOUS
 62
     3
100
AcDbVertex
100
AcDb2dVertex
 10
184.4295664644867
 20
352.3922696818732
 30
0.0
  0
VERTEX
  5
29B
330
250
100
AcDbEntity
  8
Ｓ_１_１
  6
CONTINUOUS
 62
     3
100
AcDbVertex
100
AcDb2dVertex
 10
184.4880527271065
 20
352.4001170568752
 30
0.0
  0
VERTEX
  5
29C
330
250
100
AcDbEntity
  8
Ｓ_１_１
  6
CONTINUOUS
 62
     3
100
AcDbVertex
100
AcDb2dVertex
 10
184.5441069751174
 20
352.4076075383664
 30
0.0
  0
VERTEX
  5
29D
330
250
100
AcDbEntity
  8
Ｓ_１_１
  6
CONTINUOUS
 62
     3
100
AcDbVertex
100
AcDb2dVertex
 10
184.5967410785034
 20
352.4146075000363
 30
0.0
  0
VERTEX
  5
29E
330
250
100
AcDbEntity
  8
Ｓ_１_１
  6
CONTINUOUS
 62
     3
100
AcDbVertex
100
AcDb2dVertex
 10
184.6449669072487
 20
352.4209833155745
 30
0.0
  0
VERTEX
  5
29F
330
250
100
AcDbEntity
  8
Ｓ_１_１
  6
CONTINUOUS
 62
     3
100
AcDbVertex
100
AcDb2dVertex
 10
184.6673745042599
 20
352.4239289728852
 30
0.0
  0
VERTEX
  5
2A0
330
250
100
AcDbEntity
  8
Ｓ_１_１
  6
CONTINUOUS
 62
     3
100
AcDbVertex
100
AcDb2dVertex
 10
184.6886612736538
 20
352.4267138286224
 30
0.0
  0
VERTEX
  5
2A1
330
250
100
AcDbEntity
  8
Ｓ_１_１
  6
CONTINUOUS
 62
     3
100
AcDbVertex
100
AcDb2dVertex
 10
184.7090799391898
 20
352.4293699576643
 30
0.0
  0
VERTEX
  5
2A2
330
250
100
AcDbEntity
  8
Ｓ_１_１
  6
CONTINUOUS
 62
     3
100
AcDbVertex
100
AcDb2dVertex
 10
184.7288832246274
 20
352.4319294348895
 30
0.0
  0
VERTEX
  5
2A3
330
250
100
AcDbEntity
  8
Ｓ_１_１
  6
CONTINUOUS
 62
     3
100
AcDbVertex
100
AcDb2dVertex
 10
184.748323853726
 20
352.4344243351758
 30
0.0
  0
VERTEX
  5
2A4
330
250
100
AcDbEntity
  8
Ｓ_１_１
  6
CONTINUOUS
 62
     3
100
AcDbVertex
100
AcDb2dVertex
 10
184.7676545502452
 20
352.4368867334014
 30
0.0
  0
VERTEX
  5
2A5
330
250
100
AcDbEntity
  8
Ｓ_１_１
  6
CONTINUOUS
 62
     3
100
AcDbVertex
100
AcDb2dVertex
 10
184.7871280379443
 20
352.4393487044447
 30
0.0
  0
VERTEX
  5
2A6
330
250
100
AcDbEntity
  8
Ｓ_１_１
  6
CONTINUOUS
 62
     3
100
AcDbVertex
100
AcDb2dVertex
 10
184.806997040583
 20
352.4418423231837
 30
0.0
  0
VERTEX
  5
2A7
330
250
100
AcDbEntity
  8
Ｓ_１_１
  6
CONTINUOUS
 62
     3
100
AcDbVertex
100
AcDb2dVertex
 10
184.8275142819207
 20
352.4443996644967
 30
0.0
  0
VERTEX
  5
2A8
330
250
100
AcDbEntity
  8
Ｓ_１_１
  6
CONTINUOUS
 62
     3
100
AcDbVertex
100
AcDb2dVertex
 10
184.8489324857168
 20
352.4470528032618
 30
0.0
  0
VERTEX
  5
2A9
330
250
100
AcDbEntity
  8
Ｓ_１_１
  6
CONTINUOUS
 62
     3
100
AcDbVertex
100
AcDb2dVertex
 10
184.8715043757309
 20
352.4498338143573
 30
0.0
  0
VERTEX
  5
2AA
330
250
100
AcDbEntity
  8
Ｓ_１_１
  6
CONTINUOUS
 62
     3
100
AcDbVertex
100
AcDb2dVertex
 10
184.9191386311393
 20
352.4556648725224
 30
0.0
  0
VERTEX
  5
2AB
330
250
100
AcDbEntity
  8
Ｓ_１_１
  6
CONTINUOUS
 62
     3
100
AcDbVertex
100
AcDb2dVertex
 10
184.9711023559223
 20
352.4619827106012
 30
0.0
  0
VERTEX
  5
2AC
330
250
100
AcDbEntity
  8
Ｓ_１_１
  6
CONTINUOUS
 62
     3
100
AcDbVertex
100
AcDb2dVertex
 10
185.0264152188428
 20
352.4686702392233
 30
0.0
  0
VERTEX
  5
2AD
330
250
100
AcDbEntity
  8
Ｓ_１_１
  6
CONTINUOUS
 62
     3
100
AcDbVertex
100
AcDb2dVertex
 10
185.0840968886635
 20
352.4756103690188
 30
0.0
  0
VERTEX
  5
2AE
330
250
100
AcDbEntity
  8
Ｓ_１_１
  6
CONTINUOUS
 62
     3
100
AcDbVertex
100
AcDb2dVertex
 10
185.1431670341472
 20
352.4826860106175
 30
0.0
  0
VERTEX
  5
2AF
330
250
100
AcDbEntity
  8
Ｓ_１_１
  6
CONTINUOUS
 62
     3
100
AcDbVertex
100
AcDb2dVertex
 10
185.2026453240567
 20
352.4897800746492
 30
0.0
  0
VERTEX
  5
2B0
330
250
100
AcDbEntity
  8
Ｓ_１_１
  6
CONTINUOUS
 62
     3
100
AcDbVertex
100
AcDb2dVertex
 10
185.261551427155
 20
352.4967754717437
 30
0.0
  0
VERTEX
  5
2B1
330
250
100
AcDbEntity
  8
Ｓ_１_１
  6
CONTINUOUS
 62
     3
100
AcDbVertex
100
AcDb2dVertex
 10
185.3189050122047
 20
352.503555112531
 30
0.0
  0
VERTEX
  5
2B2
330
250
100
AcDbEntity
  8
Ｓ_１_１
  6
CONTINUOUS
 62
     3
100
AcDbVertex
100
AcDb2dVertex
 10
185.3737257479687
 20
352.510001907641
 30
0.0
  0
VERTEX
  5
2B3
330
250
100
AcDbEntity
  8
Ｓ_１_１
  6
CONTINUOUS
 62
     3
100
AcDbVertex
100
AcDb2dVertex
 10
185.4250333032098
 20
352.5159987677036
 30
0.0
  0
VERTEX
  5
2B4
330
250
100
AcDbEntity
  8
Ｓ_１_１
  6
CONTINUOUS
 62
     3
100
AcDbVertex
100
AcDb2dVertex
 10
185.4718473466908
 20
352.5214286033486
 30
0.0
  0
VERTEX
  5
2B5
330
250
100
AcDbEntity
  8
Ｓ_１_１
  6
CONTINUOUS
 62
     3
100
AcDbVertex
100
AcDb2dVertex
 10
185.4925824849332
 20
352.5238160581687
 30
0.0
  0
VERTEX
  5
2B6
330
250
100
AcDbEntity
  8
Ｓ_１_１
  6
CONTINUOUS
 62
     3
100
AcDbVertex
100
AcDb2dVertex
 10
185.5122818048122
 20
352.5260704708292
 30
0.0
  0
VERTEX
  5
2B7
330
250
100
AcDbEntity
  8
Ｓ_１_１
  6
CONTINUOUS
 62
     3
100
AcDbVertex
100
AcDb2dVertex
 10
185.5311821559421
 20
352.5282178555611
 30
0.0
  0
VERTEX
  5
2B8
330
250
100
AcDbEntity
  8
Ｓ_１_１
  6
CONTINUOUS
 62
     3
100
AcDbVertex
100
AcDb2dVertex
 10
185.5495203879371
 20
352.5302842265957
 30
0.0
  0
VERTEX
  5
2B9
330
250
100
AcDbEntity
  8
Ｓ_１_１
  6
CONTINUOUS
 62
     3
100
AcDbVertex
100
AcDb2dVertex
 10
185.5675333504113
 20
352.532295598164
 30
0.0
  0
VERTEX
  5
2BA
330
250
100
AcDbEntity
  8
Ｓ_１_１
  6
CONTINUOUS
 62
     3
100
AcDbVertex
100
AcDb2dVertex
 10
185.5854578929789
 20
352.534277984497
 30
0.0
  0
VERTEX
  5
2BB
330
250
100
AcDbEntity
  8
Ｓ_１_１
  6
CONTINUOUS
 62
     3
100
AcDbVertex
100
AcDb2dVertex
 10
185.6035308652542
 20
352.5362573998259
 30
0.0
  0
VERTEX
  5
2BC
330
250
100
AcDbEntity
  8
Ｓ_１_１
  6
CONTINUOUS
 62
     3
100
AcDbVertex
100
AcDb2dVertex
 10
185.6219891168513
 20
352.5382598583819
 30
0.0
  0
VERTEX
  5
2BD
330
250
100
AcDbEntity
  8
Ｓ_１_１
  6
CONTINUOUS
 62
     3
100
AcDbVertex
100
AcDb2dVertex
 10
185.6410694973844
 20
352.540311374396
 30
0.0
  0
VERTEX
  5
2BE
330
250
100
AcDbEntity
  8
Ｓ_１_１
  6
CONTINUOUS
 62
     3
100
AcDbVertex
100
AcDb2dVertex
 10
185.6610088564676
 20
352.5424379620993
 30
0.0
  0
VERTEX
  5
2BF
330
250
100
AcDbEntity
  8
Ｓ_１_１
  6
CONTINUOUS
 62
     3
100
AcDbVertex
100
AcDb2dVertex
 10
185.6820440437153
 20
352.5446656357229
 30
0.0
  0
VERTEX
  5
2C0
330
250
100
AcDbEntity
  8
Ｓ_１_１
  6
CONTINUOUS
 62
     3
100
AcDbVertex
100
AcDb2dVertex
 10
185.7260748218787
 20
352.5492893508062
 30
0.0
  0
VERTEX
  5
2C1
330
250
100
AcDbEntity
  8
Ｓ_１_１
  6
CONTINUOUS
 62
     3
100
AcDbVertex
100
AcDb2dVertex
 10
185.7741452697654
 20
352.5542923341218
 30
0.0
  0
VERTEX
  5
2C2
330
250
100
AcDbEntity
  8
Ｓ_１_１
  6
CONTINUOUS
 62
     3
100
AcDbVertex
100
AcDb2dVertex
 10
185.8253540366883
 20
352.55958261888
 30
0.0
  0
VERTEX
  5
2C3
330
250
100
AcDbEntity
  8
Ｓ_１_１
  6
CONTINUOUS
 62
     3
100
AcDbVertex
100
AcDb2dVertex
 10
185.8787997719608
 20
352.5650682382906
 30
0.0
  0
VERTEX
  5
2C4
330
250
100
AcDbEntity
  8
Ｓ_１_１
  6
CONTINUOUS
 62
     3
100
AcDbVertex
100
AcDb2dVertex
 10
185.9335811248963
 20
352.5706572255643
 30
0.0
  0
VERTEX
  5
2C5
330
250
100
AcDbEntity
  8
Ｓ_１_１
  6
CONTINUOUS
 62
     3
100
AcDbVertex
100
AcDb2dVertex
 10
185.9887967448079
 20
352.5762576139111
 30
0.0
  0
VERTEX
  5
2C6
330
250
100
AcDbEntity
  8
Ｓ_１_１
  6
CONTINUOUS
 62
     3
100
AcDbVertex
100
AcDb2dVertex
 10
186.043545281009
 20
352.5817774365413
 30
0.0
  0
VERTEX
  5
2C7
330
250
100
AcDbEntity
  8
Ｓ_１_１
  6
CONTINUOUS
 62
     3
100
AcDbVertex
100
AcDb2dVertex
 10
186.0969253828127
 20
352.5871247266649
 30
0.0
  0
VERTEX
  5
2C8
330
250
100
AcDbEntity
  8
Ｓ_１_１
  6
CONTINUOUS
 62
     3
100
AcDbVertex
100
AcDb2dVertex
 10
186.1480356995326
 20
352.5922075174925
 30
0.0
  0
VERTEX
  5
2C9
330
250
100
AcDbEntity
  8
Ｓ_１_１
  6
CONTINUOUS
 62
     3
100
AcDbVertex
100
AcDb2dVertex
 10
186.1959748804816
 20
352.596933842234
 30
0.0
  0
VERTEX
  5
2CA
330
250
100
AcDbEntity
  8
Ｓ_１_１
  6
CONTINUOUS
 62
     3
100
AcDbVertex
100
AcDb2dVertex
 10
186.2398415749731
 20
352.6012117340998
 30
0.0
  0
VERTEX
  5
2CB
330
250
100
AcDbEntity
  8
Ｓ_１_１
  6
CONTINUOUS
 62
     3
100
AcDbVertex
100
AcDb2dVertex
 10
186.2594535287487
 20
352.6031043625918
 30
0.0
  0
VERTEX
  5
2CC
330
250
100
AcDbEntity
  8
Ｓ_１_１
  6
CONTINUOUS
 62
     3
100
AcDbVertex
100
AcDb2dVertex
 10
186.2781153800174
 20
352.6048894535286
 30
0.0
  0
VERTEX
  5
2CD
330
250
100
AcDbEntity
  8
Ｓ_１_１
  6
CONTINUOUS
 62
     3
100
AcDbVertex
100
AcDb2dVertex
 10
186.2960492030128
 20
352.6065868245337
 30
0.0
  0
VERTEX
  5
2CE
330
250
100
AcDbEntity
  8
Ｓ_１_１
  6
CONTINUOUS
 62
     3
100
AcDbVertex
100
AcDb2dVertex
 10
186.3134770719685
 20
352.6082162932304
 30
0.0
  0
VERTEX
  5
2CF
330
250
100
AcDbEntity
  8
Ｓ_１_１
  6
CONTINUOUS
 62
     3
100
AcDbVertex
100
AcDb2dVertex
 10
186.3306210611181
 20
352.6097976772425
 30
0.0
  0
VERTEX
  5
2D0
330
250
100
AcDbEntity
  8
Ｓ_１_１
  6
CONTINUOUS
 62
     3
100
AcDbVertex
100
AcDb2dVertex
 10
186.3477032446951
 20
352.6113507941931
 30
0.0
  0
VERTEX
  5
2D1
330
250
100
AcDbEntity
  8
Ｓ_１_１
  6
CONTINUOUS
 62
     3
100
AcDbVertex
100
AcDb2dVertex
 10
186.3649456969332
 20
352.6128954617059
 30
0.0
  0
VERTEX
  5
2D2
330
250
100
AcDbEntity
  8
Ｓ_１_１
  6
CONTINUOUS
 62
     3
100
AcDbVertex
100
AcDb2dVertex
 10
186.3825704920659
 20
352.6144514974043
 30
0.0
  0
VERTEX
  5
2D3
330
250
100
AcDbEntity
  8
Ｓ_１_１
  6
CONTINUOUS
 62
     3
100
AcDbVertex
100
AcDb2dVertex
 10
186.4007997043268
 20
352.616038718912
 30
0.0
  0
VERTEX
  5
2D4
330
250
100
AcDbEntity
  8
Ｓ_１_１
  6
CONTINUOUS
 62
     3
100
AcDbVertex
100
AcDb2dVertex
 10
186.4198554079495
 20
352.6176769438521
 30
0.0
  0
VERTEX
  5
2D5
330
250
100
AcDbEntity
  8
Ｓ_１_１
  6
CONTINUOUS
 62
     3
100
AcDbVertex
100
AcDb2dVertex
 10
186.4399596771676
 20
352.6193859898485
 30
0.0
  0
VERTEX
  5
2D6
330
250
100
AcDbEntity
  8
Ｓ_１_１
  6
CONTINUOUS
 62
     3
100
AcDbVertex
100
AcDb2dVertex
 10
186.479919284258
 20
352.6227381298191
 30
0.0
  0
VERTEX
  5
2D7
330
250
100
AcDbEntity
  8
Ｓ_１_１
  6
CONTINUOUS
 62
     3
100
AcDbVertex
100
AcDb2dVertex
 10
186.5233454427982
 20
352.6263303543842
 30
0.0
  0
VERTEX
  5
2D8
330
250
100
AcDbEntity
  8
Ｓ_１_１
  6
CONTINUOUS
 62
     3
100
AcDbVertex
100
AcDb2dVertex
 10
186.5694332020705
 20
352.6300980486419
 30
0.0
  0
VERTEX
  5
2D9
330
250
100
AcDbEntity
  8
Ｓ_１_１
  6
CONTINUOUS
 62
     3
100
AcDbVertex
100
AcDb2dVertex
 10
186.6173776113575
 20
352.6339765976901
 30
0.0
  0
VERTEX
  5
2DA
330
250
100
AcDbEntity
  8
Ｓ_１_１
  6
CONTINUOUS
 62
     3
100
AcDbVertex
100
AcDb2dVertex
 10
186.6663737199414
 20
352.6379013866266
 30
0.0
  0
VERTEX
  5
2DB
330
250
100
AcDbEntity
  8
Ｓ_１_１
  6
CONTINUOUS
 62
     3
100
AcDbVertex
100
AcDb2dVertex
 10
186.7156165771046
 20
352.6418078005494
 30
0.0
  0
VERTEX
  5
2DC
330
250
100
AcDbEntity
  8
Ｓ_１_１
  6
CONTINUOUS
 62
     3
100
AcDbVertex
100
AcDb2dVertex
 10
186.7643012321293
 20
352.6456312245565
 30
0.0
  0
VERTEX
  5
2DD
330
250
100
AcDbEntity
  8
Ｓ_１_１
  6
CONTINUOUS
 62
     3
100
AcDbVertex
100
AcDb2dVertex
 10
186.8116227342981
 20
352.6493070437459
 30
0.0
  0
VERTEX
  5
2DE
330
250
100
AcDbEntity
  8
Ｓ_１_１
  6
CONTINUOUS
 62
     3
100
AcDbVertex
100
AcDb2dVertex
 10
186.8567761328931
 20
352.6527706432153
 30
0.0
  0
VERTEX
  5
2DF
330
250
100
AcDbEntity
  8
Ｓ_１_１
  6
CONTINUOUS
 62
     3
100
AcDbVertex
100
AcDb2dVertex
 10
186.8989564771969
 20
352.6559574080628
 30
0.0
  0
VERTEX
  5
2E0
330
250
100
AcDbEntity
  8
Ｓ_１_１
  6
CONTINUOUS
 62
     3
100
AcDbVertex
100
AcDb2dVertex
 10
186.9373588164916
 20
352.6588027233863
 30
0.0
  0
VERTEX
  5
2E1
330
250
100
AcDbEntity
  8
Ｓ_１_１
  6
CONTINUOUS
 62
     3
100
AcDbVertex
100
AcDb2dVertex
 10
186.9535398070365
 20
352.6599793449834
 30
0.0
  0
VERTEX
  5
2E2
330
250
100
AcDbEntity
  8
Ｓ_１_１
  6
CONTINUOUS
 62
     3
100
AcDbVertex
100
AcDb2dVertex
 10
186.968943439521
 20
352.6610820612555
 30
0.0
  0
VERTEX
  5
2E3
330
250
100
AcDbEntity
  8
Ｓ_１_１
  6
CONTINUOUS
 62
     3
100
AcDbVertex
100
AcDb2dVertex
 10
186.9837574066054
 20
352.6621224734347
 30
0.0
  0
VERTEX
  5
2E4
330
250
100
AcDbEntity
  8
Ｓ_１_１
  6
CONTINUOUS
 62
     3
100
AcDbVertex
100
AcDb2dVertex
 10
186.99816940095
 20
352.6631121827535
 30
0.0
  0
VERTEX
  5
2E5
330
250
100
AcDbEntity
  8
Ｓ_１_１
  6
CONTINUOUS
 62
     3
100
AcDbVertex
100
AcDb2dVertex
 10
187.0123671152149
 20
352.6640627904439
 30
0.0
  0
VERTEX
  5
2E6
330
250
100
AcDbEntity
  8
Ｓ_１_１
  6
CONTINUOUS
 62
     3
100
AcDbVertex
100
AcDb2dVertex
 10
187.0265382420606
 20
352.6649858977387
 30
0.0
  0
VERTEX
  5
2E7
330
250
100
AcDbEntity
  8
Ｓ_１_１
  6
CONTINUOUS
 62
     3
100
AcDbVertex
100
AcDb2dVertex
 10
187.0408704741473
 20
352.6658931058699
 30
0.0
  0
VERTEX
  5
2E8
330
250
100
AcDbEntity
  8
Ｓ_１_１
  6
CONTINUOUS
 62
     3
100
AcDbVertex
100
AcDb2dVertex
 10
187.0555515041351
 20
352.6667960160698
 30
0.0
  0
VERTEX
  5
2E9
330
250
100
AcDbEntity
  8
Ｓ_１_１
  6
CONTINUOUS
 62
     3
100
AcDbVertex
100
AcDb2dVertex
 10
187.0707690246844
 20
352.6677062295707
 30
0.0
  0
VERTEX
  5
2EA
330
250
100
AcDbEntity
  8
Ｓ_１_１
  6
CONTINUOUS
 62
     3
100
AcDbVertex
100
AcDb2dVertex
 10
187.0867107284554
 20
352.6686353476051
 30
0.0
  0
VERTEX
  5
2EB
330
250
100
AcDbEntity
  8
Ｓ_１_１
  6
CONTINUOUS
 62
     3
100
AcDbVertex
100
AcDb2dVertex
 10
187.1035643081085
 20
352.6695949714051
 30
0.0
  0
VERTEX
  5
2EC
330
250
100
AcDbEntity
  8
Ｓ_１_１
  6
CONTINUOUS
 62
     3
100
AcDbVertex
100
AcDb2dVertex
 10
187.1368228028098
 20
352.6714365747372
 30
0.0
  0
VERTEX
  5
2ED
330
250
100
AcDbEntity
  8
Ｓ_１_１
  6
CONTINUOUS
 62
     3
100
AcDbVertex
100
AcDb2dVertex
 10
187.173030579673
 20
352.6733822094385
 30
0.0
  0
VERTEX
  5
2EE
330
250
100
AcDbEntity
  8
Ｓ_１_１
  6
CONTINUOUS
 62
     3
100
AcDbVertex
100
AcDb2dVertex
 10
187.2115084581959
 20
352.6753969581324
 30
0.0
  0
VERTEX
  5
2EF
330
250
100
AcDbEntity
  8
Ｓ_１_１
  6
CONTINUOUS
 62
     3
100
AcDbVertex
100
AcDb2dVertex
 10
187.2515772578767
 20
352.6774459034423
 30
0.0
  0
VERTEX
  5
2F0
330
250
100
AcDbEntity
  8
Ｓ_１_１
  6
CONTINUOUS
 62
     3
100
AcDbVertex
100
AcDb2dVertex
 10
187.2925577982134
 20
352.6794941279915
 30
0.0
  0
VERTEX
  5
2F1
330
250
100
AcDbEntity
  8
Ｓ_１_１
  6
CONTINUOUS
 62
     3
100
AcDbVertex
100
AcDb2dVertex
 10
187.333770898704
 20
352.681506714403
 30
0.0
  0
VERTEX
  5
2F2
330
250
100
AcDbEntity
  8
Ｓ_１_１
  6
CONTINUOUS
 62
     3
100
AcDbVertex
100
AcDb2dVertex
 10
187.3745373788465
 20
352.6834487453005
 30
0.0
  0
VERTEX
  5
2F3
330
250
100
AcDbEntity
  8
Ｓ_１_１
  6
CONTINUOUS
 62
     3
100
AcDbVertex
100
AcDb2dVertex
 10
187.414178058139
 20
352.6852853033071
 30
0.0
  0
VERTEX
  5
2F4
330
250
100
AcDbEntity
  8
Ｓ_１_１
  6
CONTINUOUS
 62
     3
100
AcDbVertex
100
AcDb2dVertex
 10
187.4520137560795
 20
352.6869814710461
 30
0.0
  0
VERTEX
  5
2F5
330
250
100
AcDbEntity
  8
Ｓ_１_１
  6
CONTINUOUS
 62
     3
100
AcDbVertex
100
AcDb2dVertex
 10
187.487365292166
 20
352.6885023311408
 30
0.0
  0
VERTEX
  5
2F6
330
250
100
AcDbEntity
  8
Ｓ_１_１
  6
CONTINUOUS
 62
     3
100
AcDbVertex
100
AcDb2dVertex
 10
187.5195534858965
 20
352.6898129662146
 30
0.0
  0
VERTEX
  5
2F7
330
250
100
AcDbEntity
  8
Ｓ_１_１
  6
CONTINUOUS
 62
     3
100
AcDbVertex
100
AcDb2dVertex
 10
187.5327584958532
 20
352.6903219924661
 30
0.0
  0
VERTEX
  5
2F8
330
250
100
AcDbEntity
  8
Ｓ_１_１
  6
CONTINUOUS
 62
     3
100
AcDbVertex
100
AcDb2dVertex
 10
187.5453508675764
 20
352.6907850266545
 30
0.0
  0
VERTEX
  5
2F9
330
250
100
AcDbEntity
  8
Ｓ_１_１
  6
CONTINUOUS
 62
     3
100
AcDbVertex
100
AcDb2dVertex
 10
187.557483751615
 20
352.6912049319365
 30
0.0
  0
VERTEX
  5
2FA
330
250
100
AcDbEntity
  8
Ｓ_１_１
  6
CONTINUOUS
 62
     3
100
AcDbVertex
100
AcDb2dVertex
 10
187.5693102985182
 20
352.691584571469
 30
0.0
  0
VERTEX
  5
2FB
330
250
100
AcDbEntity
  8
Ｓ_１_１
  6
CONTINUOUS
 62
     3
100
AcDbVertex
100
AcDb2dVertex
 10
187.5809836588349
 20
352.6919268084082
 30
0.0
  0
VERTEX
  5
2FC
330
250
100
AcDbEntity
  8
Ｓ_１_１
  6
CONTINUOUS
 62
     3
100
AcDbVertex
100
AcDb2dVertex
 10
187.5926569831142
 20
352.6922345059113
 30
0.0
  0
VERTEX
  5
2FD
330
250
100
AcDbEntity
  8
Ｓ_１_１
  6
CONTINUOUS
 62
     3
100
AcDbVertex
100
AcDb2dVertex
 10
187.6044834219052
 20
352.6925105271345
 30
0.0
  0
VERTEX
  5
2FE
330
250
100
AcDbEntity
  8
Ｓ_１_１
  6
CONTINUOUS
 62
     3
100
AcDbVertex
100
AcDb2dVertex
 10
187.6166161257568
 20
352.6927577352346
 30
0.0
  0
VERTEX
  5
2FF
330
250
100
AcDbEntity
  8
Ｓ_１_１
  6
CONTINUOUS
 62
     3
100
AcDbVertex
100
AcDb2dVertex
 10
187.6292082452182
 20
352.6929789933685
 30
0.0
  0
VERTEX
  5
300
330
250
100
AcDbEntity
  8
Ｓ_１_１
  6
CONTINUOUS
 62
     3
100
AcDbVertex
100
AcDb2dVertex
 10
187.6424129308384
 20
352.6931771646925
 30
0.0
  0
VERTEX
  5
301
330
250
100
AcDbEntity
  8
Ｓ_１_１
  6
CONTINUOUS
 62
     3
100
AcDbVertex
100
AcDb2dVertex
 10
187.6563833331663
 20
352.6933551123633
 30
0.0
  0
VERTEX
  5
302
330
250
100
AcDbEntity
  8
Ｓ_１_１
  6
CONTINUOUS
 62
     3
100
AcDbVertex
100
AcDb2dVertex
 10
187.6817200979609
 20
352.6936130504698
 30
0.0
  0
VERTEX
  5
303
330
250
100
AcDbEntity
  8
Ｓ_１_１
  6
CONTINUOUS
 62
     3
100
AcDbVertex
100
AcDb2dVertex
 10
187.7091343424571
 20
352.6938194591385
 30
0.0
  0
VERTEX
  5
304
330
250
100
AcDbEntity
  8
Ｓ_１_１
  6
CONTINUOUS
 62
     3
100
AcDbVertex
100
AcDb2dVertex
 10
187.7381247583425
 20
352.69397153092
 30
0.0
  0
VERTEX
  5
305
330
250
100
AcDbEntity
  8
Ｓ_１_１
  6
CONTINUOUS
 62
     3
100
AcDbVertex
100
AcDb2dVertex
 10
187.7681900373042
 20
352.6940664583653
 30
0.0
  0
VERTEX
  5
306
330
250
100
AcDbEntity
  8
Ｓ_１_１
  6
CONTINUOUS
 62
     3
100
AcDbVertex
100
AcDb2dVertex
 10
187.7988288710299
 20
352.6941014340254
 30
0.0
  0
VERTEX
  5
307
330
250
100
AcDbEntity
  8
Ｓ_１_１
  6
CONTINUOUS
 62
     3
100
AcDbVertex
100
AcDb2dVertex
 10
187.8295399512068
 20
352.6940736504509
 30
0.0
  0
VERTEX
  5
308
330
250
100
AcDbEntity
  8
Ｓ_１_１
  6
CONTINUOUS
 62
     3
100
AcDbVertex
100
AcDb2dVertex
 10
187.8598219695225
 20
352.6939803001929
 30
0.0
  0
VERTEX
  5
309
330
250
100
AcDbEntity
  8
Ｓ_１_１
  6
CONTINUOUS
 62
     3
100
AcDbVertex
100
AcDb2dVertex
 10
187.8891736176642
 20
352.6938185758021
 30
0.0
  0
VERTEX
  5
30A
330
250
100
AcDbEntity
  8
Ｓ_１_１
  6
CONTINUOUS
 62
     3
100
AcDbVertex
100
AcDb2dVertex
 10
187.9170935873194
 20
352.6935856698295
 30
0.0
  0
VERTEX
  5
30B
330
250
100
AcDbEntity
  8
Ｓ_１_１
  6
CONTINUOUS
 62
     3
100
AcDbVertex
100
AcDb2dVertex
 10
187.9430805701756
 20
352.6932787748258
 30
0.0
  0
VERTEX
  5
30C
330
250
100
AcDbEntity
  8
Ｓ_１_１
  6
CONTINUOUS
 62
     3
100
AcDbVertex
100
AcDb2dVertex
 10
187.96663325792
 20
352.692895083342
 30
0.0
  0
VERTEX
  5
30D
330
250
100
AcDbEntity
  8
Ｓ_１_１
  6
CONTINUOUS
 62
     3
100
AcDbVertex
100
AcDb2dVertex
 10
187.9755660792682
 20
352.6927120825716
 30
0.0
  0
VERTEX
  5
30E
330
250
100
AcDbEntity
  8
Ｓ_１_１
  6
CONTINUOUS
 62
     3
100
AcDbVertex
100
AcDb2dVertex
 10
187.984104295644
 20
352.6925077317643
 30
0.0
  0
VERTEX
  5
30F
330
250
100
AcDbEntity
  8
Ｓ_１_１
  6
CONTINUOUS
 62
     3
100
AcDbVertex
100
AcDb2dVertex
 10
187.9923551531371
 20
352.6922742894372
 30
0.0
  0
VERTEX
  5
310
330
250
100
AcDbEntity
  8
Ｓ_１_１
  6
CONTINUOUS
 62
     3
100
AcDbVertex
100
AcDb2dVertex
 10
188.0004258978376
 20
352.6920040141069
 30
0.0
  0
VERTEX
  5
311
330
250
100
AcDbEntity
  8
Ｓ_１_１
  6
CONTINUOUS
 62
     3
100
AcDbVertex
100
AcDb2dVertex
 10
188.0084237758352
 20
352.6916891642904
 30
0.0
  0
VERTEX
  5
312
330
250
100
AcDbEntity
  8
Ｓ_１_１
  6
CONTINUOUS
 62
     3
100
AcDbVertex
100
AcDb2dVertex
 10
188.0164560332198
 20
352.6913219985046
 30
0.0
  0
VERTEX
  5
313
330
250
100
AcDbEntity
  8
Ｓ_１_１
  6
CONTINUOUS
 62
     3
100
AcDbVertex
100
AcDb2dVertex
 10
188.0246299160813
 20
352.6908947752662
 30
0.0
  0
VERTEX
  5
314
330
250
100
AcDbEntity
  8
Ｓ_１_１
  6
CONTINUOUS
 62
     3
100
AcDbVertex
100
AcDb2dVertex
 10
188.0330526705096
 20
352.6903997530919
 30
0.0
  0
VERTEX
  5
315
330
250
100
AcDbEntity
  8
Ｓ_１_１
  6
CONTINUOUS
 62
     3
100
AcDbVertex
100
AcDb2dVertex
 10
188.0418315425944
 20
352.6898291904988
 30
0.0
  0
VERTEX
  5
316
330
250
100
AcDbEntity
  8
Ｓ_１_１
  6
CONTINUOUS
 62
     3
100
AcDbVertex
100
AcDb2dVertex
 10
188.0510737784258
 20
352.6891753460036
 30
0.0
  0
VERTEX
  5
317
330
250
100
AcDbEntity
  8
Ｓ_１_１
  6
CONTINUOUS
 62
     3
100
AcDbVertex
100
AcDb2dVertex
 10
188.0608866240935
 20
352.6884304781231
 30
0.0
  0
VERTEX
  5
318
330
250
100
AcDbEntity
  8
Ｓ_１_１
  6
CONTINUOUS
 62
     3
100
AcDbVertex
100
AcDb2dVertex
 10
188.0773463040904
 20
352.687087743465
 30
0.0
  0
VERTEX
  5
319
330
250
100
AcDbEntity
  8
Ｓ_１_１
  6
CONTINUOUS
 62
     3
100
AcDbVertex
100
AcDb2dVertex
 10
188.095098473358
 20
352.6855346571373
 30
0.0
  0
VERTEX
  5
31A
330
250
100
AcDbEntity
  8
Ｓ_１_１
  6
CONTINUOUS
 62
     3
100
AcDbVertex
100
AcDb2dVertex
 10
188.1138082607201
 20
352.6837979769123
 30
0.0
  0
VERTEX
  5
31B
330
250
100
AcDbEntity
  8
Ｓ_１_１
  6
CONTINUOUS
 62
     3
100
AcDbVertex
100
AcDb2dVertex
 10
188.1331407950005
 20
352.6819044605626
 30
0.0
  0
VERTEX
  5
31C
330
250
100
AcDbEntity
  8
Ｓ_１_１
  6
CONTINUOUS
 62
     3
100
AcDbVertex
100
AcDb2dVertex
 10
188.1527612050233
 20
352.6798808658605
 30
0.0
  0
VERTEX
  5
31D
330
250
100
AcDbEntity
  8
Ｓ_１_１
  6
CONTINUOUS
 62
     3
100
AcDbVertex
100
AcDb2dVertex
 10
188.1723346196122
 20
352.6777539505782
 30
0.0
  0
VERTEX
  5
31E
330
250
100
AcDbEntity
  8
Ｓ_１_１
  6
CONTINUOUS
 62
     3
100
AcDbVertex
100
AcDb2dVertex
 10
188.1915261675912
 20
352.6755504724884
 30
0.0
  0
VERTEX
  5
31F
330
250
100
AcDbEntity
  8
Ｓ_１_１
  6
CONTINUOUS
 62
     3
100
AcDbVertex
100
AcDb2dVertex
 10
188.2100009777841
 20
352.6732971893633
 30
0.0
  0
VERTEX
  5
320
330
250
100
AcDbEntity
  8
Ｓ_１_１
  6
CONTINUOUS
 62
     3
100
AcDbVertex
100
AcDb2dVertex
 10
188.2274241790148
 20
352.6710208589752
 30
0.0
  0
VERTEX
  5
321
330
250
100
AcDbEntity
  8
Ｓ_１_１
  6
CONTINUOUS
 62
     3
100
AcDbVertex
100
AcDb2dVertex
 10
188.2434609001072
 20
352.6687482390967
 30
0.0
  0
VERTEX
  5
322
330
250
100
AcDbEntity
  8
Ｓ_１_１
  6
CONTINUOUS
 62
     3
100
AcDbVertex
100
AcDb2dVertex
 10
188.2577762698853
 20
352.6665060875
 30
0.0
  0
VERTEX
  5
323
330
250
100
AcDbEntity
  8
Ｓ_１_１
  6
CONTINUOUS
 62
     3
100
AcDbVertex
100
AcDb2dVertex
 10
188.2622758862221
 20
352.665738627284
 30
0.0
  0
VERTEX
  5
324
330
250
100
AcDbEntity
  8
Ｓ_１_１
  6
CONTINUOUS
 62
     3
100
AcDbVertex
100
AcDb2dVertex
 10
188.2665804914853
 20
352.6649546675982
 30
0.0
  0
VERTEX
  5
325
330
250
100
AcDbEntity
  8
Ｓ_１_１
  6
CONTINUOUS
 62
     3
100
AcDbVertex
100
AcDb2dVertex
 10
188.2707409576794
 20
352.6641308658807
 30
0.0
  0
VERTEX
  5
326
330
250
100
AcDbEntity
  8
Ｓ_１_１
  6
CONTINUOUS
 62
     3
100
AcDbVertex
100
AcDb2dVertex
 10
188.2748081568092
 20
352.6632438795706
 30
0.0
  0
VERTEX
  5
327
330
250
100
AcDbEntity
  8
Ｓ_１_１
  6
CONTINUOUS
 62
     3
100
AcDbVertex
100
AcDb2dVertex
 10
188.2788329608794
 20
352.662270366106
 30
0.0
  0
VERTEX
  5
328
330
250
100
AcDbEntity
  8
Ｓ_１_１
  6
CONTINUOUS
 62
     3
100
AcDbVertex
100
AcDb2dVertex
 10
188.2828662418947
 20
352.6611869829259
 30
0.0
  0
VERTEX
  5
329
330
250
100
AcDbEntity
  8
Ｓ_１_１
  6
CONTINUOUS
 62
     3
100
AcDbVertex
100
AcDb2dVertex
 10
188.2869588718598
 20
352.6599703874685
 30
0.0
  0
VERTEX
  5
32A
330
250
100
AcDbEntity
  8
Ｓ_１_１
  6
CONTINUOUS
 62
     3
100
AcDbVertex
100
AcDb2dVertex
 10
188.2911617227795
 20
352.6585972371727
 30
0.0
  0
VERTEX
  5
32B
330
250
100
AcDbEntity
  8
Ｓ_１_１
  6
CONTINUOUS
 62
     3
100
AcDbVertex
100
AcDb2dVertex
 10
188.2955256666585
 20
352.6570441894768
 30
0.0
  0
VERTEX
  5
32C
330
250
100
AcDbEntity
  8
Ｓ_１_１
  6
CONTINUOUS
 62
     3
100
AcDbVertex
100
AcDb2dVertex
 10
188.3001015755013
 20
352.6552879018197
 30
0.0
  0
VERTEX
  5
32D
330
250
100
AcDbEntity
  8
Ｓ_１_１
  6
CONTINUOUS
 62
     3
100
AcDbVertex
100
AcDb2dVertex
 10
188.3049403213129
 20
352.6533050316398
 30
0.0
  0
VERTEX
  5
32E
330
250
100
AcDbEntity
  8
Ｓ_１_１
  6
CONTINUOUS
 62
     3
100
AcDbVertex
100
AcDb2dVertex
 10
188.3112004776115
 20
352.6505768046732
 30
0.0
  0
VERTEX
  5
32F
330
250
100
AcDbEntity
  8
Ｓ_１_１
  6
CONTINUOUS
 62
     3
100
AcDbVertex
100
AcDb2dVertex
 10
188.317780148407
 20
352.6475368475237
 30
0.0
  0
VERTEX
  5
330
330
250
100
AcDbEntity
  8
Ｓ_１_１
  6
CONTINUOUS
 62
     3
100
AcDbVertex
100
AcDb2dVertex
 10
188.3245367341994
 20
352.6442415861316
 30
0.0
  0
VERTEX
  5
331
330
250
100
AcDbEntity
  8
Ｓ_１_１
  6
CONTINUOUS
 62
     3
100
AcDbVertex
100
AcDb2dVertex
 10
188.3313276354886
 20
352.6407474464373
 30
0.0
  0
VERTEX
  5
332
330
250
100
AcDbEntity
  8
Ｓ_１_１
  6
CONTINUOUS
 62
     3
100
AcDbVertex
100
AcDb2dVertex
 10
188.3380102527746
 20
352.6371108543814
 30
0.0
  0
VERTEX
  5
333
330
250
100
AcDbEntity
  8
Ｓ_１_１
  6
CONTINUOUS
 62
     3
100
AcDbVertex
100
AcDb2dVertex
 10
188.3444419865572
 20
352.6333882359044
 30
0.0
  0
VERTEX
  5
334
330
250
100
AcDbEntity
  8
Ｓ_１_１
  6
CONTINUOUS
 62
     3
100
AcDbVertex
100
AcDb2dVertex
 10
188.3504802373366
 20
352.6296360169469
 30
0.0
  0
VERTEX
  5
335
330
250
100
AcDbEntity
  8
Ｓ_１_１
  6
CONTINUOUS
 62
     3
100
AcDbVertex
100
AcDb2dVertex
 10
188.3559824056125
 20
352.6259106234494
 30
0.0
  0
VERTEX
  5
336
330
250
100
AcDbEntity
  8
Ｓ_１_１
  6
CONTINUOUS
 62
     3
100
AcDbVertex
100
AcDb2dVertex
 10
188.360805891885
 20
352.6222684813523
 30
0.0
  0
VERTEX
  5
337
330
250
100
AcDbEntity
  8
Ｓ_１_１
  6
CONTINUOUS
 62
     3
100
AcDbVertex
100
AcDb2dVertex
 10
188.3648080966541
 20
352.6187660165962
 30
0.0
  0
VERTEX
  5
338
330
250
100
AcDbEntity
  8
Ｓ_１_１
  6
CONTINUOUS
 62
     3
100
AcDbVertex
100
AcDb2dVertex
 10
188.3678464204197
 20
352.6154596551216
 30
0.0
  0
VERTEX
  5
339
330
250
100
AcDbEntity
  8
Ｓ_１_１
  6
CONTINUOUS
 62
     3
100
AcDbVertex
100
AcDb2dVertex
 10
188.3685556122963
 20
352.6145039567521
 30
0.0
  0
VERTEX
  5
33A
330
250
100
AcDbEntity
  8
Ｓ_１_１
  6
CONTINUOUS
 62
     3
100
AcDbVertex
100
AcDb2dVertex
 10
188.3691638068894
 20
352.6135637800465
 30
0.0
  0
VERTEX
  5
33B
330
250
100
AcDbEntity
  8
Ｓ_１_１
  6
CONTINUOUS
 62
     3
100
AcDbVertex
100
AcDb2dVertex
 10
188.3696715051921
 20
352.6126314819765
 30
0.0
  0
VERTEX
  5
33C
330
250
100
AcDbEntity
  8
Ｓ_１_１
  6
CONTINUOUS
 62
     3
100
AcDbVertex
100
AcDb2dVertex
 10
188.370079208197
 20
352.6116994195131
 30
0.0
  0
VERTEX
  5
33D
330
250
100
AcDbEntity
  8
Ｓ_１_１
  6
CONTINUOUS
 62
     3
100
AcDbVertex
100
AcDb2dVertex
 10
188.370387416897
 20
352.6107599496281
 30
0.0
  0
VERTEX
  5
33E
330
250
100
AcDbEntity
  8
Ｓ_１_１
  6
CONTINUOUS
 62
     3
100
AcDbVertex
100
AcDb2dVertex
 10
188.3705966322849
 20
352.6098054292927
 30
0.0
  0
VERTEX
  5
33F
330
250
100
AcDbEntity
  8
Ｓ_１_１
  6
CONTINUOUS
 62
     3
100
AcDbVertex
100
AcDb2dVertex
 10
188.3707073553537
 20
352.6088282154784
 30
0.0
  0
VERTEX
  5
340
330
250
100
AcDbEntity
  8
Ｓ_１_１
  6
CONTINUOUS
 62
     3
100
AcDbVertex
100
AcDb2dVertex
 10
188.3707200870961
 20
352.6078206651566
 30
0.0
  0
VERTEX
  5
341
330
250
100
AcDbEntity
  8
Ｓ_１_１
  6
CONTINUOUS
 62
     3
100
AcDbVertex
100
AcDb2dVertex
 10
188.370635328505
 20
352.6067751352986
 30
0.0
  0
VERTEX
  5
342
330
250
100
AcDbEntity
  8
Ｓ_１_１
  6
CONTINUOUS
 62
     3
100
AcDbVertex
100
AcDb2dVertex
 10
188.3704535805733
 20
352.6056839828759
 30
0.0
  0
VERTEX
  5
343
330
250
100
AcDbEntity
  8
Ｓ_１_１
  6
CONTINUOUS
 62
     3
100
AcDbVertex
100
AcDb2dVertex
 10
188.3701753442938
 20
352.6045395648599
 30
0.0
  0
VERTEX
  5
344
330
250
100
AcDbEntity
  8
Ｓ_１_１
  6
CONTINUOUS
 62
     3
100
AcDbVertex
100
AcDb2dVertex
 10
188.3687988079505
 20
352.600799111029
 30
0.0
  0
VERTEX
  5
345
330
250
100
AcDbEntity
  8
Ｓ_１_１
  6
CONTINUOUS
 62
     3
100
AcDbVertex
100
AcDb2dVertex
 10
188.3666741657429
 20
352.5966110563212
 30
0.0
  0
VERTEX
  5
346
330
250
100
AcDbEntity
  8
Ｓ_１_１
  6
CONTINUOUS
 62
     3
100
AcDbVertex
100
AcDb2dVertex
 10
188.3639005250732
 20
352.592065397677
 30
0.0
  0
VERTEX
  5
347
330
250
100
AcDbEntity
  8
Ｓ_１_１
  6
CONTINUOUS
 62
     3
100
AcDbVertex
100
AcDb2dVertex
 10
188.3605769933439
 20
352.5872521320368
 30
0.0
  0
VERTEX
  5
348
330
250
100
AcDbEntity
  8
Ｓ_１_１
  6
CONTINUOUS
 62
     3
100
AcDbVertex
100
AcDb2dVertex
 10
188.3568026779573
 20
352.5822612563414
 30
0.0
  0
VERTEX
  5
349
330
250
100
AcDbEntity
  8
Ｓ_１_１
  6
CONTINUOUS
 62
     3
100
AcDbVertex
100
AcDb2dVertex
 10
188.3526766863158
 20
352.5771827675313
 30
0.0
  0
VERTEX
  5
34A
330
250
100
AcDbEntity
  8
Ｓ_１_１
  6
CONTINUOUS
 62
     3
100
AcDbVertex
100
AcDb2dVertex
 10
188.3482981258217
 20
352.5721066625468
 30
0.0
  0
VERTEX
  5
34B
330
250
100
AcDbEntity
  8
Ｓ_１_１
  6
CONTINUOUS
 62
     3
100
AcDbVertex
100
AcDb2dVertex
 10
188.3437661038774
 20
352.5671229383287
 30
0.0
  0
VERTEX
  5
34C
330
250
100
AcDbEntity
  8
Ｓ_１_１
  6
CONTINUOUS
 62
     3
100
AcDbVertex
100
AcDb2dVertex
 10
188.3391797278852
 20
352.5623215918174
 30
0.0
  0
VERTEX
  5
34D
330
250
100
AcDbEntity
  8
Ｓ_１_１
  6
CONTINUOUS
 62
     3
100
AcDbVertex
100
AcDb2dVertex
 10
188.3346381052475
 20
352.5577926199535
 30
0.0
  0
VERTEX
  5
34E
330
250
100
AcDbEntity
  8
Ｓ_１_１
  6
CONTINUOUS
 62
     3
100
AcDbVertex
100
AcDb2dVertex
 10
188.3302403433667
 20
352.5536260196776
 30
0.0
  0
VERTEX
  5
34F
330
250
100
AcDbEntity
  8
Ｓ_１_１
  6
CONTINUOUS
 62
     3
100
AcDbVertex
100
AcDb2dVertex
 10
188.3267083207309
 20
352.5504519290545
 30
0.0
  0
VERTEX
  5
350
330
250
100
AcDbEntity
  8
Ｓ_１_１
  6
CONTINUOUS
 62
     3
100
AcDbVertex
100
AcDb2dVertex
 10
188.3233133811044
 20
352.5475626286749
 30
0.0
  0
VERTEX
  5
351
330
250
100
AcDbEntity
  8
Ｓ_１_１
  6
CONTINUOUS
 62
     3
100
AcDbVertex
100
AcDb2dVertex
 10
188.3200205728046
 20
352.544922607222
 30
0.0
  0
VERTEX
  5
352
330
250
100
AcDbEntity
  8
Ｓ_１_１
  6
CONTINUOUS
 62
     3
100
AcDbVertex
100
AcDb2dVertex
 10
188.3167949441486
 20
352.5424963533793
 30
0.0
  0
VERTEX
  5
353
330
250
100
AcDbEntity
  8
Ｓ_１_１
  6
CONTINUOUS
 62
     3
100
AcDbVertex
100
AcDb2dVertex
 10
188.313601543454
 20
352.5402483558303
 30
0.0
  0
VERTEX
  5
354
330
250
100
AcDbEntity
  8
Ｓ_１_１
  6
CONTINUOUS
 62
     3
100
AcDbVertex
100
AcDb2dVertex
 10
188.3104054190381
 20
352.5381431032582
 30
0.0
  0
VERTEX
  5
355
330
250
100
AcDbEntity
  8
Ｓ_１_１
  6
CONTINUOUS
 62
     3
100
AcDbVertex
100
AcDb2dVertex
 10
188.307171619218
 20
352.5361450843463
 30
0.0
  0
VERTEX
  5
356
330
250
100
AcDbEntity
  8
Ｓ_１_１
  6
CONTINUOUS
 62
     3
100
AcDbVertex
100
AcDb2dVertex
 10
188.3038651923113
 20
352.5342187877783
 30
0.0
  0
VERTEX
  5
357
330
250
100
AcDbEntity
  8
Ｓ_１_１
  6
CONTINUOUS
 62
     3
100
AcDbVertex
100
AcDb2dVertex
 10
188.3004511866353
 20
352.5323287022372
 30
0.0
  0
VERTEX
  5
358
330
250
100
AcDbEntity
  8
Ｓ_１_１
  6
CONTINUOUS
 62
     3
100
AcDbVertex
100
AcDb2dVertex
 10
188.2968946505071
 20
352.5304393164067
 30
0.0
  0
VERTEX
  5
359
330
250
100
AcDbEntity
  8
Ｓ_１_１
  6
CONTINUOUS
 62
     3
100
AcDbVertex
100
AcDb2dVertex
 10
188.2931606322444
 20
352.5285151189701
 30
0.0
  0
VERTEX
  5
35A
330
250
100
AcDbEntity
  8
Ｓ_１_１
  6
CONTINUOUS
 62
     3
100
AcDbVertex
100
AcDb2dVertex
 10
188.2812717547293
 20
352.522610499405
 30
0.0
  0
VERTEX
  5
35B
330
250
100
AcDbEntity
  8
Ｓ_１_１
  6
CONTINUOUS
 62
     3
100
AcDbVertex
100
AcDb2dVertex
 10
188.2678987607733
 20
352.516232933387
 30
0.0
  0
VERTEX
  5
35C
330
250
100
AcDbEntity
  8
Ｓ_１_１
  6
CONTINUOUS
 62
     3
100
AcDbVertex
100
AcDb2dVertex
 10
188.2533227442477
 20
352.5094938199779
 30
0.0
  0
VERTEX
  5
35D
330
250
100
AcDbEntity
  8
Ｓ_１_１
  6
CONTINUOUS
 62
     3
100
AcDbVertex
100
AcDb2dVertex
 10
188.2378247990238
 20
352.5025045582406
 30
0.0
  0
VERTEX
  5
35E
330
250
100
AcDbEntity
  8
Ｓ_１_１
  6
CONTINUOUS
 62
     3
100
AcDbVertex
100
AcDb2dVertex
 10
188.221686018973
 20
352.4953765472367
 30
0.0
  0
VERTEX
  5
35F
330
250
100
AcDbEntity
  8
Ｓ_１_１
  6
CONTINUOUS
 62
     3
100
AcDbVertex
100
AcDb2dVertex
 10
188.2051874979666
 20
352.4882211860288
 30
0.0
  0
VERTEX
  5
360
330
250
100
AcDbEntity
  8
Ｓ_１_１
  6
CONTINUOUS
 62
     3
100
AcDbVertex
100
AcDb2dVertex
 10
188.1886103298759
 20
352.481149873679
 30
0.0
  0
VERTEX
  5
361
330
250
100
AcDbEntity
  8
Ｓ_１_１
  6
CONTINUOUS
 62
     3
100
AcDbVertex
100
AcDb2dVertex
 10
188.1722356085723
 20
352.4742740092497
 30
0.0
  0
VERTEX
  5
362
330
250
100
AcDbEntity
  8
Ｓ_１_１
  6
CONTINUOUS
 62
     3
100
AcDbVertex
100
AcDb2dVertex
 10
188.1563444279271
 20
352.467704991803
 30
0.0
  0
VERTEX
  5
363
330
250
100
AcDbEntity
  8
Ｓ_１_１
  6
CONTINUOUS
 62
     3
100
AcDbVertex
100
AcDb2dVertex
 10
188.1412178818117
 20
352.4615542204011
 30
0.0
  0
VERTEX
  5
364
330
250
100
AcDbEntity
  8
Ｓ_１_１
  6
CONTINUOUS
 62
     3
100
AcDbVertex
100
AcDb2dVertex
 10
188.1271370640973
 20
352.4559330941063
 30
0.0
  0
VERTEX
  5
365
330
250
100
AcDbEntity
  8
Ｓ_１_１
  6
CONTINUOUS
 62
     3
100
AcDbVertex
100
AcDb2dVertex
 10
188.1185734196663
 20
352.4525752074923
 30
0.0
  0
VERTEX
  5
366
330
250
100
AcDbEntity
  8
Ｓ_１_１
  6
CONTINUOUS
 62
     3
100
AcDbVertex
100
AcDb2dVertex
 10
188.1104877994925
 20
352.4494570860217
 30
0.0
  0
VERTEX
  5
367
330
250
100
AcDbEntity
  8
Ｓ_１_１
  6
CONTINUOUS
 62
     3
100
AcDbVertex
100
AcDb2dVertex
 10
188.1027871011669
 20
352.4465425592988
 30
0.0
  0
VERTEX
  5
368
330
250
100
AcDbEntity
  8
Ｓ_１_１
  6
CONTINUOUS
 62
     3
100
AcDbVertex
100
AcDb2dVertex
 10
188.09537822228
 20
352.4437954569277
 30
0.0
  0
VERTEX
  5
369
330
250
100
AcDbEntity
  8
Ｓ_１_１
  6
CONTINUOUS
 62
     3
100
AcDbVertex
100
AcDb2dVertex
 10
188.0881680604226
 20
352.4411796085124
 30
0.0
  0
VERTEX
  5
36A
330
250
100
AcDbEntity
  8
Ｓ_１_１
  6
CONTINUOUS
 62
     3
100
AcDbVertex
100
AcDb2dVertex
 10
188.0810635131854
 20
352.4386588436568
 30
0.0
  0
VERTEX
  5
36B
330
250
100
AcDbEntity
  8
Ｓ_１_１
  6
CONTINUOUS
 62
     3
100
AcDbVertex
100
AcDb2dVertex
 10
188.0739714781593
 20
352.4361969919652
 30
0.0
  0
VERTEX
  5
36C
330
250
100
AcDbEntity
  8
Ｓ_１_１
  6
CONTINUOUS
 62
     3
100
AcDbVertex
100
AcDb2dVertex
 10
188.0667988529348
 20
352.4337578830417
 30
0.0
  0
VERTEX
  5
36D
330
250
100
AcDbEntity
  8
Ｓ_１_１
  6
CONTINUOUS
 62
     3
100
AcDbVertex
100
AcDb2dVertex
 10
188.0594525351028
 20
352.4313053464903
 30
0.0
  0
VERTEX
  5
36E
330
250
100
AcDbEntity
  8
Ｓ_１_１
  6
CONTINUOUS
 62
     3
100
AcDbVertex
100
AcDb2dVertex
 10
188.051839422254
 20
352.4288032119149
 30
0.0
  0
VERTEX
  5
36F
330
250
100
AcDbEntity
  8
Ｓ_１_１
  6
CONTINUOUS
 62
     3
100
AcDbVertex
100
AcDb2dVertex
 10
188.0438664119791
 20
352.4262153089198
 30
0.0
  0
VERTEX
  5
370
330
250
100
AcDbEntity
  8
Ｓ_１_１
  6
CONTINUOUS
 62
     3
100
AcDbVertex
100
AcDb2dVertex
 10
188.0230086593847
 20
352.4195476212544
 30
0.0
  0
VERTEX
  5
371
330
250
100
AcDbEntity
  8
Ｓ_１_１
  6
CONTINUOUS
 62
     3
100
AcDbVertex
100
AcDb2dVertex
 10
187.9999916137875
 20
352.4123097453722
 30
0.0
  0
VERTEX
  5
372
330
250
100
AcDbEntity
  8
Ｓ_１_１
  6
CONTINUOUS
 62
     3
100
AcDbVertex
100
AcDb2dVertex
 10
187.9752619738475
 20
352.4046329757332
 30
0.0
  0
VERTEX
  5
373
330
250
100
AcDbEntity
  8
Ｓ_１_１
  6
CONTINUOUS
 62
     3
100
AcDbVertex
100
AcDb2dVertex
 10
187.9492664382243
 20
352.3966486067972
 30
0.0
  0
VERTEX
  5
374
330
250
100
AcDbEntity
  8
Ｓ_１_１
  6
CONTINUOUS
 62
     3
100
AcDbVertex
100
AcDb2dVertex
 10
187.9224517055779
 20
352.3884879330241
 30
0.0
  0
VERTEX
  5
375
330
250
100
AcDbEntity
  8
Ｓ_１_１
  6
CONTINUOUS
 62
     3
100
AcDbVertex
100
AcDb2dVertex
 10
187.8952644745681
 20
352.3802822488739
 30
0.0
  0
VERTEX
  5
376
330
250
100
AcDbEntity
  8
Ｓ_１_１
  6
CONTINUOUS
 62
     3
100
AcDbVertex
100
AcDb2dVertex
 10
187.8681514438547
 20
352.3721628488065
 30
0.0
  0
VERTEX
  5
377
330
250
100
AcDbEntity
  8
Ｓ_１_１
  6
CONTINUOUS
 62
     3
100
AcDbVertex
100
AcDb2dVertex
 10
187.8415593120974
 20
352.364261027282
 30
0.0
  0
VERTEX
  5
378
330
250
100
AcDbEntity
  8
Ｓ_１_１
  6
CONTINUOUS
 62
     3
100
AcDbVertex
100
AcDb2dVertex
 10
187.8159347779562
 20
352.3567080787602
 30
0.0
  0
VERTEX
  5
379
330
250
100
AcDbEntity
  8
Ｓ_１_１
  6
CONTINUOUS
 62
     3
100
AcDbVertex
100
AcDb2dVertex
 10
187.7917245400908
 20
352.349635297701
 30
0.0
  0
VERTEX
  5
37A
330
250
100
AcDbEntity
  8
Ｓ_１_１
  6
CONTINUOUS
 62
     3
100
AcDbVertex
100
AcDb2dVertex
 10
187.769375297161
 20
352.3431739785644
 30
0.0
  0
VERTEX
  5
37B
330
250
100
AcDbEntity
  8
Ｓ_１_１
  6
CONTINUOUS
 62
     3
100
AcDbVertex
100
AcDb2dVertex
 10
187.7572248939234
 20
352.3396965910197
 30
0.0
  0
VERTEX
  5
37C
330
250
100
AcDbEntity
  8
Ｓ_１_１
  6
CONTINUOUS
 62
     3
100
AcDbVertex
100
AcDb2dVertex
 10
187.7457402176574
 20
352.3364391881613
 30
0.0
  0
VERTEX
  5
37D
330
250
100
AcDbEntity
  8
Ｓ_１_１
  6
CONTINUOUS
 62
     3
100
AcDbVertex
100
AcDb2dVertex
 10
187.7347863704584
 20
352.3333640648166
 30
0.0
  0
VERTEX
  5
37E
330
250
100
AcDbEntity
  8
Ｓ_１_１
  6
CONTINUOUS
 62
     3
100
AcDbVertex
100
AcDb2dVertex
 10
187.7242284544224
 20
352.3304335158133
 30
0.0
  0
VERTEX
  5
37F
330
250
100
AcDbEntity
  8
Ｓ_１_１
  6
CONTINUOUS
 62
     3
100
AcDbVertex
100
AcDb2dVertex
 10
187.7139315716448
 20
352.3276098359788
 30
0.0
  0
VERTEX
  5
380
330
250
100
AcDbEntity
  8
Ｓ_１_１
  6
CONTINUOUS
 62
     3
100
AcDbVertex
100
AcDb2dVertex
 10
187.7037608242215
 20
352.324855320141
 30
0.0
  0
VERTEX
  5
381
330
250
100
AcDbEntity
  8
Ｓ_１_１
  6
CONTINUOUS
 62
     3
100
AcDbVertex
100
AcDb2dVertex
 10
187.6935813142483
 20
352.322132263127
 30
0.0
  0
VERTEX
  5
382
330
250
100
AcDbEntity
  8
Ｓ_１_１
  6
CONTINUOUS
 62
     3
100
AcDbVertex
100
AcDb2dVertex
 10
187.6832581438206
 20
352.3194029597646
 30
0.0
  0
VERTEX
  5
383
330
250
100
AcDbEntity
  8
Ｓ_１_１
  6
CONTINUOUS
 62
     3
100
AcDbVertex
100
AcDb2dVertex
 10
187.6726564150343
 20
352.3166297048813
 30
0.0
  0
VERTEX
  5
384
330
250
100
AcDbEntity
  8
Ｓ_１_１
  6
CONTINUOUS
 62
     3
100
AcDbVertex
100
AcDb2dVertex
 10
187.6616412299849
 20
352.3137747933047
 30
0.0
  0
VERTEX
  5
385
330
250
100
AcDbEntity
  8
Ｓ_１_１
  6
CONTINUOUS
 62
     3
100
AcDbVertex
100
AcDb2dVertex
 10
187.6500776907683
 20
352.3108005198624
 30
0.0
  0
VERTEX
  5
386
330
250
100
AcDbEntity
  8
Ｓ_１_１
  6
CONTINUOUS
 62
     3
100
AcDbVertex
100
AcDb2dVertex
 10
187.62128140714
 20
352.3034634160247
 30
0.0
  0
VERTEX
  5
387
330
250
100
AcDbEntity
  8
Ｓ_１_１
  6
CONTINUOUS
 62
     3
100
AcDbVertex
100
AcDb2dVertex
 10
187.5895481541303
 20
352.295459390079
 30
0.0
  0
VERTEX
  5
388
330
250
100
AcDbEntity
  8
Ｓ_１_１
  6
CONTINUOUS
 62
     3
100
AcDbVertex
100
AcDb2dVertex
 10
187.5555000976658
 20
352.2869396994216
 30
0.0
  0
VERTEX
  5
389
330
250
100
AcDbEntity
  8
Ｓ_１_１
  6
CONTINUOUS
 62
     3
100
AcDbVertex
100
AcDb2dVertex
 10
187.5197594036728
 20
352.2780556014492
 30
0.0
  0
VERTEX
  5
38A
330
250
100
AcDbEntity
  8
Ｓ_１_１
  6
CONTINUOUS
 62
     3
100
AcDbVertex
100
AcDb2dVertex
 10
187.4829482380777
 20
352.268958353558
 30
0.0
  0
VERTEX
  5
38B
330
250
100
AcDbEntity
  8
Ｓ_１_１
  6
CONTINUOUS
 62
     3
100
AcDbVertex
100
AcDb2dVertex
 10
187.4456887668069
 20
352.2597992131446
 30
0.0
  0
VERTEX
  5
38C
330
250
100
AcDbEntity
  8
Ｓ_１_１
  6
CONTINUOUS
 62
     3
100
AcDbVertex
100
AcDb2dVertex
 10
187.4086031557867
 20
352.2507294376053
 30
0.0
  0
VERTEX
  5
38D
330
250
100
AcDbEntity
  8
Ｓ_１_１
  6
CONTINUOUS
 62
     3
100
AcDbVertex
100
AcDb2dVertex
 10
187.3723135709435
 20
352.2419002843367
 30
0.0
  0
VERTEX
  5
38E
330
250
100
AcDbEntity
  8
Ｓ_１_１
  6
CONTINUOUS
 62
     3
100
AcDbVertex
100
AcDb2dVertex
 10
187.3374421782038
 20
352.2334630107352
 30
0.0
  0
VERTEX
  5
38F
330
250
100
AcDbEntity
  8
Ｓ_１_１
  6
CONTINUOUS
 62
     3
100
AcDbVertex
100
AcDb2dVertex
 10
187.3046111434938
 20
352.2255688741974
 30
0.0
  0
VERTEX
  5
390
330
250
100
AcDbEntity
  8
Ｓ_１_１
  6
CONTINUOUS
 62
     3
100
AcDbVertex
100
AcDb2dVertex
 10
187.2744426327401
 20
352.2183691321195
 30
0.0
  0
VERTEX
  5
391
330
250
100
AcDbEntity
  8
Ｓ_１_１
  6
CONTINUOUS
 62
     3
100
AcDbVertex
100
AcDb2dVertex
 10
187.2591456782973
 20
352.2147448086105
 30
0.0
  0
VERTEX
  5
392
330
250
100
AcDbEntity
  8
Ｓ_１_１
  6
CONTINUOUS
 62
     3
100
AcDbVertex
100
AcDb2dVertex
 10
187.2446740536467
 20
352.2113373406413
 30
0.0
  0
VERTEX
  5
393
330
250
100
AcDbEntity
  8
Ｓ_１_１
  6
CONTINUOUS
 62
     3
100
AcDbVertex
100
AcDb2dVertex
 10
187.2308569265026
 20
352.2081071192633
 30
0.0
  0
VERTEX
  5
394
330
250
100
AcDbEntity
  8
Ｓ_１_１
  6
CONTINUOUS
 62
     3
100
AcDbVertex
100
AcDb2dVertex
 10
187.2175234645791
 20
352.2050145355279
 30
0.0
  0
VERTEX
  5
395
330
250
100
AcDbEntity
  8
Ｓ_１_１
  6
CONTINUOUS
 62
     3
100
AcDbVertex
100
AcDb2dVertex
 10
187.2045028355904
 20
352.2020199804864
 30
0.0
  0
VERTEX
  5
396
330
250
100
AcDbEntity
  8
Ｓ_１_１
  6
CONTINUOUS
 62
     3
100
AcDbVertex
100
AcDb2dVertex
 10
187.1916242072506
 20
352.1990838451901
 30
0.0
  0
VERTEX
  5
397
330
250
100
AcDbEntity
  8
Ｓ_１_１
  6
CONTINUOUS
 62
     3
100
AcDbVertex
100
AcDb2dVertex
 10
187.1787167472739
 20
352.1961665206904
 30
0.0
  0
VERTEX
  5
398
330
250
100
AcDbEntity
  8
Ｓ_１_１
  6
CONTINUOUS
 62
     3
100
AcDbVertex
100
AcDb2dVertex
 10
187.1656096233745
 20
352.1932283980387
 30
0.0
  0
VERTEX
  5
399
330
250
100
AcDbEntity
  8
Ｓ_１_１
  6
CONTINUOUS
 62
     3
100
AcDbVertex
100
AcDb2dVertex
 10
187.1521320032664
 20
352.1902298682862
 30
0.0
  0
VERTEX
  5
39A
330
250
100
AcDbEntity
  8
Ｓ_１_１
  6
CONTINUOUS
 62
     3
100
AcDbVertex
100
AcDb2dVertex
 10
187.1381130546639
 20
352.1871313224843
 30
0.0
  0
VERTEX
  5
39B
330
250
100
AcDbEntity
  8
Ｓ_１_１
  6
CONTINUOUS
 62
     3
100
AcDbVertex
100
AcDb2dVertex
 10
187.1233819452812
 20
352.1838931516844
 30
0.0
  0
VERTEX
  5
39C
330
250
100
AcDbEntity
  8
Ｓ_１_１
  6
CONTINUOUS
 62
     3
100
AcDbVertex
100
AcDb2dVertex
 10
187.0884514663457
 20
352.1762661049566
 30
0.0
  0
VERTEX
  5
39D
330
250
100
AcDbEntity
  8
Ｓ_１_１
  6
CONTINUOUS
 62
     3
100
AcDbVertex
100
AcDb2dVertex
 10
187.0500112121602
 20
352.1679332083353
 30
0.0
  0
VERTEX
  5
39E
330
250
100
AcDbEntity
  8
Ｓ_１_１
  6
CONTINUOUS
 62
     3
100
AcDbVertex
100
AcDb2dVertex
 10
187.008731944534
 20
352.1590371963441
 30
0.0
  0
VERTEX
  5
39F
330
250
100
AcDbEntity
  8
Ｓ_１_１
  6
CONTINUOUS
 62
     3
100
AcDbVertex
100
AcDb2dVertex
 10
186.9652844252764
 20
352.1497208035067
 30
0.0
  0
VERTEX
  5
3A0
330
250
100
AcDbEntity
  8
Ｓ_１_１
  6
CONTINUOUS
 62
     3
100
AcDbVertex
100
AcDb2dVertex
 10
186.9203394161967
 20
352.140126764347
 30
0.0
  0
VERTEX
  5
3A1
330
250
100
AcDbEntity
  8
Ｓ_１_１
  6
CONTINUOUS
 62
     3
100
AcDbVertex
100
AcDb2dVertex
 10
186.8745676791041
 20
352.1303978133884
 30
0.0
  0
VERTEX
  5
3A2
330
250
100
AcDbEntity
  8
Ｓ_１_１
  6
CONTINUOUS
 62
     3
100
AcDbVertex
100
AcDb2dVertex
 10
186.828639975808
 20
352.1206766851549
 30
0.0
  0
VERTEX
  5
3A3
330
250
100
AcDbEntity
  8
Ｓ_１_１
  6
CONTINUOUS
 62
     3
100
AcDbVertex
100
AcDb2dVertex
 10
186.7832270681178
 20
352.1111061141701
 30
0.0
  0
VERTEX
  5
3A4
330
250
100
AcDbEntity
  8
Ｓ_１_１
  6
CONTINUOUS
 62
     3
100
AcDbVertex
100
AcDb2dVertex
 10
186.7389997178426
 20
352.1018288349576
 30
0.0
  0
VERTEX
  5
3A5
330
250
100
AcDbEntity
  8
Ｓ_１_１
  6
CONTINUOUS
 62
     3
100
AcDbVertex
100
AcDb2dVertex
 10
186.6966286867918
 20
352.0929875820414
 30
0.0
  0
VERTEX
  5
3A6
330
250
100
AcDbEntity
  8
Ｓ_１_１
  6
CONTINUOUS
 62
     3
100
AcDbVertex
100
AcDb2dVertex
 10
186.6567847367747
 20
352.0847250899449
 30
0.0
  0
VERTEX
  5
3A7
330
250
100
AcDbEntity
  8
Ｓ_１_１
  6
CONTINUOUS
 62
     3
100
AcDbVertex
100
AcDb2dVertex
 10
186.6363644064387
 20
352.0805150107389
 30
0.0
  0
VERTEX
  5
3A8
330
250
100
AcDbEntity
  8
Ｓ_１_１
  6
CONTINUOUS
 62
     3
100
AcDbVertex
100
AcDb2dVertex
 10
186.6166764030009
 20
352.0764761361677
 30
0.0
  0
VERTEX
  5
3A9
330
250
100
AcDbEntity
  8
Ｓ_１_１
  6
CONTINUOUS
 62
     3
100
AcDbVertex
100
AcDb2dVertex
 10
186.5975074703098
 20
352.0725663289974
 30
0.0
  0
VERTEX
  5
3AA
330
250
100
AcDbEntity
  8
Ｓ_１_１
  6
CONTINUOUS
 62
     3
100
AcDbVertex
100
AcDb2dVertex
 10
186.5786443522138
 20
352.0687434519942
 30
0.0
  0
VERTEX
  5
3AB
330
250
100
AcDbEntity
  8
Ｓ_１_１
  6
CONTINUOUS
 62
     3
100
AcDbVertex
100
AcDb2dVertex
 10
186.5598737925614
 20
352.0649653679246
 30
0.0
  0
VERTEX
  5
3AC
330
250
100
AcDbEntity
  8
Ｓ_１_１
  6
CONTINUOUS
 62
     3
100
AcDbVertex
100
AcDb2dVertex
 10
186.540982535201
 20
352.0611899395547
 30
0.0
  0
VERTEX
  5
3AD
330
250
100
AcDbEntity
  8
Ｓ_１_１
  6
CONTINUOUS
 62
     3
100
AcDbVertex
100
AcDb2dVertex
 10
186.5217573239811
 20
352.0573750296505
 30
0.0
  0
VERTEX
  5
3AE
330
250
100
AcDbEntity
  8
Ｓ_１_１
  6
CONTINUOUS
 62
     3
100
AcDbVertex
100
AcDb2dVertex
 10
186.50198490275
 20
352.0534785009785
 30
0.0
  0
VERTEX
  5
3AF
330
250
100
AcDbEntity
  8
Ｓ_１_１
  6
CONTINUOUS
 62
     3
100
AcDbVertex
100
AcDb2dVertex
 10
186.4814520153562
 20
352.0494582163049
 30
0.0
  0
VERTEX
  5
3B0
330
250
100
AcDbEntity
  8
Ｓ_１_１
  6
CONTINUOUS
 62
     3
100
AcDbVertex
100
AcDb2dVertex
 10
186.4599454056483
 20
352.0452720383958
 30
0.0
  0
VERTEX
  5
3B1
330
250
100
AcDbEntity
  8
Ｓ_１_１
  6
CONTINUOUS
 62
     3
100
AcDbVertex
100
AcDb2dVertex
 10
186.4372518174745
 20
352.0408778300175
 30
0.0
  0
VERTEX
  5
3B2
330
250
100
AcDbEntity
  8
Ｓ_１_１
  6
CONTINUOUS
 62
     3
100
AcDbVertex
100
AcDb2dVertex
 10
186.4117459535224
 20
352.0359614623226
 30
0.0
  0
VERTEX
  5
3B3
330
250
100
AcDbEntity
  8
Ｓ_１_１
  6
CONTINUOUS
 62
     3
100
AcDbVertex
100
AcDb2dVertex
 10
186.3853558392262
 20
352.0308930711922
 30
0.0
  0
VERTEX
  5
3B4
330
250
100
AcDbEntity
  8
Ｓ_１_１
  6
CONTINUOUS
 62
     3
100
AcDbVertex
100
AcDb2dVertex
 10
186.3587796115602
 20
352.0258033445282
 30
0.0
  0
VERTEX
  5
3B5
330
250
100
AcDbEntity
  8
Ｓ_１_１
  6
CONTINUOUS
 62
     3
100
AcDbVertex
100
AcDb2dVertex
 10
186.3327154074992
 20
352.0208229702322
 30
0.0
  0
VERTEX
  5
3B6
330
250
100
AcDbEntity
  8
Ｓ_１_１
  6
CONTINUOUS
 62
     3
100
AcDbVertex
100
AcDb2dVertex
 10
186.3078613640177
 20
352.0160826362059
 30
0.0
  0
VERTEX
  5
3B7
330
250
100
AcDbEntity
  8
Ｓ_１_１
  6
CONTINUOUS
 62
     3
100
AcDbVertex
100
AcDb2dVertex
 10
186.2849156180903
 20
352.0117130303507
 30
0.0
  0
VERTEX
  5
3B8
330
250
100
AcDbEntity
  8
Ｓ_１_１
  6
CONTINUOUS
 62
     3
100
AcDbVertex
100
AcDb2dVertex
 10
186.2645763066916
 20
352.0078448405686
 30
0.0
  0
VERTEX
  5
3B9
330
250
100
AcDbEntity
  8
Ｓ_１_１
  6
CONTINUOUS
 62
     3
100
AcDbVertex
100
AcDb2dVertex
 10
186.2475415667961
 20
352.0046087547612
 30
0.0
  0
VERTEX
  5
3BA
330
250
100
AcDbEntity
  8
Ｓ_１_１
  6
CONTINUOUS
 62
     3
100
AcDbVertex
100
AcDb2dVertex
 10
186.2345095353784
 20
352.0021354608299
 30
0.0
  0
VERTEX
  5
3BB
330
250
100
AcDbEntity
  8
Ｓ_１_１
  6
CONTINUOUS
 62
     3
100
AcDbVertex
100
AcDb2dVertex
 10
186.2261783494131
 20
352.0005556466767
 30
0.0
  0
VERTEX
  5
3BC
330
250
100
AcDbEntity
  8
Ｓ_１_１
  6
CONTINUOUS
 62
     3
100
AcDbVertex
100
AcDb2dVertex
 10
186.2232461458747
 20
352.000000000203
 30
0.0
  0
SEQEND
  5
3BD
330
250
100
AcDbEntity
  8
Ｓ_１_１
  6
CONTINUOUS
 62
     3
  0
CIRCLE
  5
3BE
330
1F
100
AcDbEntity
  8
Ｓ_１_１
  6
CONTINUOUS
 62
     3
100
AcDbCircle
 10
300.0000000000003
 20
345.9999999999999
 30
0.0
 40
4.25
  0
CIRCLE
  5
3BF
330
1F
100
AcDbEntity
  8
Ｓ_１_１
  6
CONTINUOUS
 62
     3
100
AcDbCircle
 10
300.0000000000003
 20
345.9999999999999
 30
0.0
 40
5.0
  0
ARC
  5
3C0
330
1F
100
AcDbEntity
  8
Ｓ_１_１
  6
CONTINUOUS
 62
     3
100
AcDbCircle
 10
399.9999999999992
 20
-1198.0
 30
0.0
 40
1555.892027102138
100
AcDbArc
 50
89.99999999999996
 51
95.90244012695578
  0
LINE
  5
3C1
330
1F
100
AcDbEntity
  8
Ｓ_１_１
  6
EXLTYPE2
 62
     1
100
AcDbLine
 10
185.0000000000099
 20
312.79999999998
 30
0.0
 11
185.00000000001
 21
353.7599999999802
 31
0.0
  0
LINE
  5
3C2
330
1F
100
AcDbEntity
  8
Ｓ_１_１
  6
EXLTYPE2
 62
     1
100
AcDbLine
 10
275.0000000001098
 20
312.79999999998
 30
0.0
 11
275.0000000001098
 21
353.75999999998
 31
0.0
  0
LINE
  5
3C3
330
1F
100
AcDbEntity
  8
Ｓ_１_１
  6
EXLTYPE2
 62
     1
100
AcDbLine
 10
325.0000000000398
 20
312.79999999998
 30
0.0
 11
325.0000000000398
 21
353.75999999998
 31
0.0
  0
LINE
  5
3C4
330
1F
100
AcDbEntity
  8
Ｓ_１_１
  6
EXLTYPE2
 62
     1
100
AcDbLine
 10
374.9999999999699
 20
312.79999999998
 30
0.0
 11
374.9999999999699
 21
353.75999999998
 31
0.0
  0
LINE
  5
3C5
330
1F
100
AcDbEntity
  8
Ｓ_１_１
  6
EXLTYPE2
 62
     1
100
AcDbLine
 10
614.9999999999899
 20
312.79999999998
 30
0.0
 11
614.9999999999898
 21
353.7599999999802
 31
0.0
  0
LINE
  5
3C6
330
1F
100
AcDbEntity
  8
Ｓ_１_１
  6
CONTINUOUS
 62
     3
100
AcDbLine
 10
239.9999999999999
 20
324.9999999999998
 30
0.0
 11
240.0
 21
337.0000000000009
 31
0.0
  0
LINE
  5
3C7
330
1F
100
AcDbEntity
  8
Ｓ_１_１
  6
CONTINUOUS
 62
     3
100
AcDbLine
 10
169.9999999999999
 20
326.9999999999998
 30
0.0
 11
169.9999999999999
 21
336.9999999999998
 31
0.0
  0
LINE
  5
3C8
330
1F
100
AcDbEntity
  8
Ｓ_１_１
  6
CONTINUOUS
 62
     3
100
AcDbLine
 10
171.9999999999999
 20
324.9999999999998
 30
0.0
 11
169.9999999999999
 21
326.9999999999998
 31
0.0
  0
LINE
  5
3C9
330
1F
100
AcDbEntity
  8
Ｓ_１_１
  6
CONTINUOUS
 62
     3
100
AcDbLine
 10
629.9999999999999
 20
326.9999999999998
 30
0.0
 11
629.9999999999999
 21
336.9999999999998
 31
0.0
  0
LINE
  5
3CA
330
1F
100
AcDbEntity
  8
Ｓ_１_１
  6
CONTINUOUS
 62
     3
100
AcDbLine
 10
627.9999999999999
 20
324.9999999999998
 30
0.0
 11
629.9999999999999
 21
326.9999999999998
 31
0.0
  0
LINE
  5
3CB
330
1F
100
AcDbEntity
  8
Ｓ_１_１
  6
CONTINUOUS
 62
     3
100
AcDbLine
 10
399.9999999999999
 20
324.9999999999998
 30
0.0
 11
171.9999999999999
 21
324.9999999999998
 31
0.0
  0
LINE
  5
3CC
330
1F
100
AcDbEntity
  8
Ｓ_１_１
  6
CONTINUOUS
 62
     3
100
AcDbLine
 10
628.0
 20
324.9999999999998
 30
0.0
 11
399.9999999999999
 21
324.9999999999998
 31
0.0
  0
LINE
  5
3CD
330
1F
100
AcDbEntity
  8
Ｓ_１_１
  6
CONTINUOUS
 62
     3
100
AcDbLine
 10
592.5000000000002
 20
326.9999999999998
 30
0.0
 11
594.5000000000002
 21
324.9999999999998
 31
0.0
  0
LINE
  5
3CE
330
1F
100
AcDbEntity
  8
Ｓ_１_１
  6
CONTINUOUS
 62
     3
100
AcDbLine
 10
592.5
 20
327.0000000000001
 30
0.0
 11
592.5
 21
336.9999999999998
 31
0.0
  0
LINE
  5
3CF
330
1F
100
AcDbEntity
  8
Ｓ_１_１
  6
CONTINUOUS
 62
     3
100
AcDbLine
 10
592.5
 20
327.0000000000001
 30
0.0
 11
399.9999999999999
 21
327.0000000000001
 31
0.0
  0
LINE
  5
3D0
330
1F
100
AcDbEntity
  8
Ｓ_１_１
  6
CONTINUOUS
 62
     3
100
AcDbLine
 10
177.0000000000098
 20
316.0000000000001
 30
0.0
 11
175.7623956929799
 21
316.7145311798145
 31
0.0
  0
LINE
  5
3D1
330
1F
100
AcDbEntity
  8
Ｓ_１_１
  6
CONTINUOUS
 62
     3
100
AcDbLine
 10
175.7623956929799
 20
316.7145311798145
 30
0.0
 11
175.7623956929799
 21
322.9999999999999
 31
0.0
  0
LINE
  5
3D2
330
1F
100
AcDbEntity
  8
Ｓ_１_１
  6
CONTINUOUS
 62
     3
100
AcDbLine
 10
177.0000000000098
 20
316.0000000000001
 30
0.0
 11
193.0000000000099
 21
316.0000000000001
 31
0.0
  0
LINE
  5
3D3
330
1F
100
AcDbEntity
  8
Ｓ_１_１
  6
CONTINUOUS
 62
     3
100
AcDbLine
 10
194.2376043070399
 20
316.71453117981
 30
0.0
 11
194.2376043070399
 21
322.9999999999999
 31
0.0
  0
LINE
  5
3D4
330
1F
100
AcDbEntity
  8
Ｓ_１_１
  6
CONTINUOUS
 62
     3
100
AcDbLine
 10
189.6188021535201
 20
316.7145311798099
 30
0.0
 11
189.6188021535201
 21
322.9999999999999
 31
0.0
  0
LINE
  5
3D5
330
1F
100
AcDbEntity
  8
Ｓ_１_１
  6
CONTINUOUS
 62
     3
100
AcDbLine
 10
180.3811978464997
 20
316.71453117981
 30
0.0
 11
180.3811978464997
 21
322.9999999999999
 31
0.0
  0
ARC
  5
3D6
330
1F
100
AcDbEntity
  8
Ｓ_１_１
  6
CONTINUOUS
 62
     3
100
AcDbCircle
 10
191.9282032302749
 20
320.0893163974955
 30
0.0
 40
4.089316397495441
100
AcDbArc
 50
235.6157525321946
 51
270.0000000002087
  0
ARC
  5
3D7
330
1F
100
AcDbEntity
  8
Ｓ_１_１
  6
CONTINUOUS
 62
     3
100
AcDbCircle
 10
178.0717967697449
 20
320.0893163974955
 30
0.0
 40
4.089316397495441
100
AcDbArc
 50
269.999999999791
 51
304.3842474678055
  0
ARC
  5
3D8
330
1F
100
AcDbEntity
  8
Ｓ_１_１
  6
CONTINUOUS
 62
     3
100
AcDbCircle
 10
185.0000000000099
 20
331.2854688202692
 30
0.0
 40
15.28546882026918
100
AcDbArc
 50
252.4120462261352
 51
287.5879537738648
  0
LINE
  5
3D9
330
1F
100
AcDbEntity
  8
Ｓ_１_１
  6
CONTINUOUS
 62
     3
100
AcDbLine
 10
193.0000000000099
 20
315.9999999999999
 30
0.0
 11
194.2376043070399
 21
316.71453117981
 31
0.0
  0
LINE
  5
3DA
330
1F
100
AcDbEntity
  8
Ｓ_１_１
  6
CONTINUOUS
 62
     3
100
AcDbLine
 10
175.0000000000099
 20
324.9999999999999
 30
0.0
 11
195.0000000000099
 21
324.9999999999999
 31
0.0
  0
LINE
  5
3DB
330
1F
100
AcDbEntity
  8
Ｓ_１_１
  6
CONTINUOUS
 62
     3
100
AcDbLine
 10
175.0000000000099
 20
322.9999999999999
 30
0.0
 11
195.0000000000099
 21
322.9999999999999
 31
0.0
  0
LINE
  5
3DC
330
1F
100
AcDbEntity
  8
Ｓ_１_１
  6
CONTINUOUS
 62
     3
100
AcDbLine
 10
195.0000000000099
 20
322.9999999999999
 30
0.0
 11
195.0000000000099
 21
324.9999999999999
 31
0.0
  0
LINE
  5
3DD
330
1F
100
AcDbEntity
  8
Ｓ_１_１
  6
CONTINUOUS
 62
     3
100
AcDbLine
 10
175.0000000000099
 20
322.9999999999999
 30
0.0
 11
175.0000000000099
 21
324.9999999999999
 31
0.0
  0
LINE
  5
3DE
330
1F
100
AcDbEntity
  8
Ｓ_１_１
  6
CONTINUOUS
 62
     3
100
AcDbLine
 10
267.0000000001098
 20
316.0000000000001
 30
0.0
 11
265.76239569308
 21
316.7145311798145
 31
0.0
  0
LINE
  5
3DF
330
1F
100
AcDbEntity
  8
Ｓ_１_１
  6
CONTINUOUS
 62
     3
100
AcDbLine
 10
265.76239569308
 20
316.7145311798145
 30
0.0
 11
265.76239569308
 21
322.9999999999999
 31
0.0
  0
LINE
  5
3E0
330
1F
100
AcDbEntity
  8
Ｓ_１_１
  6
CONTINUOUS
 62
     3
100
AcDbLine
 10
267.0000000001098
 20
316.0000000000001
 30
0.0
 11
283.0000000001099
 21
316.0000000000001
 31
0.0
  0
LINE
  5
3E1
330
1F
100
AcDbEntity
  8
Ｓ_１_１
  6
CONTINUOUS
 62
     3
100
AcDbLine
 10
284.2376043071399
 20
316.71453117981
 30
0.0
 11
284.2376043071399
 21
322.9999999999999
 31
0.0
  0
LINE
  5
3E2
330
1F
100
AcDbEntity
  8
Ｓ_１_１
  6
CONTINUOUS
 62
     3
100
AcDbLine
 10
279.6188021536201
 20
316.7145311798099
 30
0.0
 11
279.6188021536201
 21
322.9999999999999
 31
0.0
  0
LINE
  5
3E3
330
1F
100
AcDbEntity
  8
Ｓ_１_１
  6
CONTINUOUS
 62
     3
100
AcDbLine
 10
270.3811978465998
 20
316.71453117981
 30
0.0
 11
270.3811978465998
 21
322.9999999999999
 31
0.0
  0
ARC
  5
3E4
330
1F
100
AcDbEntity
  8
Ｓ_１_１
  6
CONTINUOUS
 62
     3
100
AcDbCircle
 10
281.9282032303749
 20
320.0893163974955
 30
0.0
 40
4.089316397495441
100
AcDbArc
 50
235.6157525321946
 51
270.0000000002087
  0
ARC
  5
3E5
330
1F
100
AcDbEntity
  8
Ｓ_１_１
  6
CONTINUOUS
 62
     3
100
AcDbCircle
 10
268.0717967698449
 20
320.0893163974955
 30
0.0
 40
4.089316397495441
100
AcDbArc
 50
269.999999999791
 51
304.3842474678055
  0
ARC
  5
3E6
330
1F
100
AcDbEntity
  8
Ｓ_１_１
  6
CONTINUOUS
 62
     3
100
AcDbCircle
 10
275.0000000001099
 20
331.2854688202692
 30
0.0
 40
15.28546882026918
100
AcDbArc
 50
252.4120462261352
 51
287.5879537738648
  0
LINE
  5
3E7
330
1F
100
AcDbEntity
  8
Ｓ_１_１
  6
CONTINUOUS
 62
     3
100
AcDbLine
 10
283.0000000001099
 20
315.9999999999999
 30
0.0
 11
284.2376043071399
 21
316.71453117981
 31
0.0
  0
LINE
  5
3E8
330
1F
100
AcDbEntity
  8
Ｓ_１_１
  6
CONTINUOUS
 62
     3
100
AcDbLine
 10
265.0000000001099
 20
324.9999999999999
 30
0.0
 11
285.0000000001099
 21
324.9999999999999
 31
0.0
  0
LINE
  5
3E9
330
1F
100
AcDbEntity
  8
Ｓ_１_１
  6
CONTINUOUS
 62
     3
100
AcDbLine
 10
265.0000000001099
 20
322.9999999999999
 30
0.0
 11
285.0000000001099
 21
322.9999999999999
 31
0.0
  0
LINE
  5
3EA
330
1F
100
AcDbEntity
  8
Ｓ_１_１
  6
CONTINUOUS
 62
     3
100
AcDbLine
 10
285.0000000001099
 20
322.9999999999999
 30
0.0
 11
285.0000000001099
 21
324.9999999999999
 31
0.0
  0
LINE
  5
3EB
330
1F
100
AcDbEntity
  8
Ｓ_１_１
  6
CONTINUOUS
 62
     3
100
AcDbLine
 10
265.0000000001099
 20
322.9999999999999
 30
0.0
 11
265.0000000001099
 21
324.9999999999999
 31
0.0
  0
LINE
  5
3EC
330
1F
100
AcDbEntity
  8
Ｓ_１_１
  6
CONTINUOUS
 62
     3
100
AcDbLine
 10
317.0000000000398
 20
316.0000000000001
 30
0.0
 11
315.7623956930099
 21
316.7145311798145
 31
0.0
  0
LINE
  5
3ED
330
1F
100
AcDbEntity
  8
Ｓ_１_１
  6
CONTINUOUS
 62
     3
100
AcDbLine
 10
315.7623956930099
 20
316.7145311798145
 30
0.0
 11
315.7623956930099
 21
322.9999999999999
 31
0.0
  0
LINE
  5
3EE
330
1F
100
AcDbEntity
  8
Ｓ_１_１
  6
CONTINUOUS
 62
     3
100
AcDbLine
 10
317.0000000000398
 20
316.0000000000001
 30
0.0
 11
333.0000000000399
 21
316.0000000000001
 31
0.0
  0
LINE
  5
3EF
330
1F
100
AcDbEntity
  8
Ｓ_１_１
  6
CONTINUOUS
 62
     3
100
AcDbLine
 10
334.2376043070699
 20
316.71453117981
 30
0.0
 11
334.2376043070699
 21
322.9999999999999
 31
0.0
  0
LINE
  5
3F0
330
1F
100
AcDbEntity
  8
Ｓ_１_１
  6
CONTINUOUS
 62
     3
100
AcDbLine
 10
329.6188021535501
 20
316.7145311798099
 30
0.0
 11
329.6188021535501
 21
322.9999999999999
 31
0.0
  0
LINE
  5
3F1
330
1F
100
AcDbEntity
  8
Ｓ_１_１
  6
CONTINUOUS
 62
     3
100
AcDbLine
 10
320.3811978465297
 20
316.71453117981
 30
0.0
 11
320.3811978465297
 21
322.9999999999999
 31
0.0
  0
ARC
  5
3F2
330
1F
100
AcDbEntity
  8
Ｓ_１_１
  6
CONTINUOUS
 62
     3
100
AcDbCircle
 10
331.9282032303049
 20
320.0893163974955
 30
0.0
 40
4.089316397495441
100
AcDbArc
 50
235.6157525321946
 51
270.0000000002087
  0
ARC
  5
3F3
330
1F
100
AcDbEntity
  8
Ｓ_１_１
  6
CONTINUOUS
 62
     3
100
AcDbCircle
 10
318.0717967697749
 20
320.0893163974955
 30
0.0
 40
4.089316397495441
100
AcDbArc
 50
269.999999999791
 51
304.3842474678055
  0
ARC
  5
3F4
330
1F
100
AcDbEntity
  8
Ｓ_１_１
  6
CONTINUOUS
 62
     3
100
AcDbCircle
 10
325.0000000000399
 20
331.2854688202692
 30
0.0
 40
15.28546882026918
100
AcDbArc
 50
252.4120462261352
 51
287.5879537738648
  0
LINE
  5
3F5
330
1F
100
AcDbEntity
  8
Ｓ_１_１
  6
CONTINUOUS
 62
     3
100
AcDbLine
 10
333.0000000000399
 20
315.9999999999999
 30
0.0
 11
334.2376043070699
 21
316.71453117981
 31
0.0
  0
LINE
  5
3F6
330
1F
100
AcDbEntity
  8
Ｓ_１_１
  6
CONTINUOUS
 62
     3
100
AcDbLine
 10
315.0000000000399
 20
324.9999999999999
 30
0.0
 11
335.0000000000399
 21
324.9999999999999
 31
0.0
  0
LINE
  5
3F7
330
1F
100
AcDbEntity
  8
Ｓ_１_１
  6
CONTINUOUS
 62
     3
100
AcDbLine
 10
315.0000000000399
 20
322.9999999999999
 30
0.0
 11
335.0000000000399
 21
322.9999999999999
 31
0.0
  0
LINE
  5
3F8
330
1F
100
AcDbEntity
  8
Ｓ_１_１
  6
CONTINUOUS
 62
     3
100
AcDbLine
 10
335.0000000000399
 20
322.9999999999999
 30
0.0
 11
335.0000000000399
 21
324.9999999999999
 31
0.0
  0
LINE
  5
3F9
330
1F
100
AcDbEntity
  8
Ｓ_１_１
  6
CONTINUOUS
 62
     3
100
AcDbLine
 10
315.0000000000399
 20
322.9999999999999
 30
0.0
 11
315.0000000000399
 21
324.9999999999999
 31
0.0
  0
LINE
  5
3FA
330
1F
100
AcDbEntity
  8
Ｓ_１_１
  6
CONTINUOUS
 62
     3
100
AcDbLine
 10
366.9999999999699
 20
316.0000000000001
 30
0.0
 11
365.76239569294
 21
316.7145311798145
 31
0.0
  0
LINE
  5
3FB
330
1F
100
AcDbEntity
  8
Ｓ_１_１
  6
CONTINUOUS
 62
     3
100
AcDbLine
 10
365.76239569294
 20
316.7145311798145
 30
0.0
 11
365.76239569294
 21
322.9999999999999
 31
0.0
  0
LINE
  5
3FC
330
1F
100
AcDbEntity
  8
Ｓ_１_１
  6
CONTINUOUS
 62
     3
100
AcDbLine
 10
366.9999999999699
 20
316.0000000000001
 30
0.0
 11
382.9999999999699
 21
316.0000000000001
 31
0.0
  0
LINE
  5
3FD
330
1F
100
AcDbEntity
  8
Ｓ_１_１
  6
CONTINUOUS
 62
     3
100
AcDbLine
 10
384.237604307
 20
316.71453117981
 30
0.0
 11
384.237604307
 21
322.9999999999999
 31
0.0
  0
LINE
  5
3FE
330
1F
100
AcDbEntity
  8
Ｓ_１_１
  6
CONTINUOUS
 62
     3
100
AcDbLine
 10
379.61880215348
 20
316.7145311798099
 30
0.0
 11
379.61880215348
 21
322.9999999999999
 31
0.0
  0
LINE
  5
3FF
330
1F
100
AcDbEntity
  8
Ｓ_１_１
  6
CONTINUOUS
 62
     3
100
AcDbLine
 10
370.3811978464597
 20
316.71453117981
 30
0.0
 11
370.3811978464597
 21
322.9999999999999
 31
0.0
  0
ARC
  5
400
330
1F
100
AcDbEntity
  8
Ｓ_１_１
  6
CONTINUOUS
 62
     3
100
AcDbCircle
 10
381.928203230235
 20
320.0893163974955
 30
0.0
 40
4.089316397495441
100
AcDbArc
 50
235.6157525321946
 51
270.0000000002087
  0
ARC
  5
401
330
1F
100
AcDbEntity
  8
Ｓ_１_１
  6
CONTINUOUS
 62
     3
100
AcDbCircle
 10
368.071796769705
 20
320.0893163974955
 30
0.0
 40
4.089316397495441
100
AcDbArc
 50
269.999999999791
 51
304.3842474678055
  0
ARC
  5
402
330
1F
100
AcDbEntity
  8
Ｓ_１_１
  6
CONTINUOUS
 62
     3
100
AcDbCircle
 10
374.99999999997
 20
331.2854688202692
 30
0.0
 40
15.28546882026918
100
AcDbArc
 50
252.4120462261352
 51
287.5879537738648
  0
LINE
  5
403
330
1F
100
AcDbEntity
  8
Ｓ_１_１
  6
CONTINUOUS
 62
     3
100
AcDbLine
 10
382.9999999999699
 20
315.9999999999999
 30
0.0
 11
384.237604307
 21
316.71453117981
 31
0.0
  0
LINE
  5
404
330
1F
100
AcDbEntity
  8
Ｓ_１_１
  6
CONTINUOUS
 62
     3
100
AcDbLine
 10
364.9999999999699
 20
324.9999999999999
 30
0.0
 11
384.9999999999699
 21
324.9999999999999
 31
0.0
  0
LINE
  5
405
330
1F
100
AcDbEntity
  8
Ｓ_１_１
  6
CONTINUOUS
 62
     3
100
AcDbLine
 10
364.9999999999699
 20
322.9999999999999
 30
0.0
 11
384.9999999999699
 21
322.9999999999999
 31
0.0
  0
LINE
  5
406
330
1F
100
AcDbEntity
  8
Ｓ_１_１
  6
CONTINUOUS
 62
     3
100
AcDbLine
 10
384.9999999999699
 20
322.9999999999999
 30
0.0
 11
384.9999999999699
 21
324.9999999999999
 31
0.0
  0
LINE
  5
407
330
1F
100
AcDbEntity
  8
Ｓ_１_１
  6
CONTINUOUS
 62
     3
100
AcDbLine
 10
364.9999999999699
 20
322.9999999999999
 30
0.0
 11
364.9999999999699
 21
324.9999999999999
 31
0.0
  0
LINE
  5
408
330
1F
100
AcDbEntity
  8
Ｓ_１_１
  6
CONTINUOUS
 62
     3
100
AcDbLine
 10
622.99999999999
 20
316.0000000000001
 30
0.0
 11
624.2376043070199
 21
316.7145311798145
 31
0.0
  0
LINE
  5
409
330
1F
100
AcDbEntity
  8
Ｓ_１_１
  6
CONTINUOUS
 62
     3
100
AcDbLine
 10
624.2376043070199
 20
316.7145311798145
 30
0.0
 11
624.2376043070199
 21
322.9999999999999
 31
0.0
  0
LINE
  5
40A
330
1F
100
AcDbEntity
  8
Ｓ_１_１
  6
CONTINUOUS
 62
     3
100
AcDbLine
 10
622.99999999999
 20
316.0000000000001
 30
0.0
 11
606.9999999999899
 21
316.0000000000001
 31
0.0
  0
LINE
  5
40B
330
1F
100
AcDbEntity
  8
Ｓ_１_１
  6
CONTINUOUS
 62
     3
100
AcDbLine
 10
605.7623956929599
 20
316.71453117981
 30
0.0
 11
605.7623956929599
 21
322.9999999999999
 31
0.0
  0
LINE
  5
40C
330
1F
100
AcDbEntity
  8
Ｓ_１_１
  6
CONTINUOUS
 62
     3
100
AcDbLine
 10
610.3811978464797
 20
316.7145311798099
 30
0.0
 11
610.3811978464797
 21
322.9999999999999
 31
0.0
  0
LINE
  5
40D
330
1F
100
AcDbEntity
  8
Ｓ_１_１
  6
CONTINUOUS
 62
     3
100
AcDbLine
 10
619.6188021535
 20
316.71453117981
 30
0.0
 11
619.6188021535
 21
322.9999999999999
 31
0.0
  0
ARC
  5
40E
330
1F
100
AcDbEntity
  8
Ｓ_１_１
  6
CONTINUOUS
 62
     3
100
AcDbCircle
 10
608.0717967697249
 20
320.0893163974955
 30
0.0
 40
4.089316397495441
100
AcDbArc
 50
269.9999999997914
 51
304.3842474678052
  0
ARC
  5
40F
330
1F
100
AcDbEntity
  8
Ｓ_１_１
  6
CONTINUOUS
 62
     3
100
AcDbCircle
 10
621.9282032302549
 20
320.0893163974955
 30
0.0
 40
4.089316397495441
100
AcDbArc
 50
235.615752532195
 51
270.0000000002087
  0
ARC
  5
410
330
1F
100
AcDbEntity
  8
Ｓ_１_１
  6
CONTINUOUS
 62
     3
100
AcDbCircle
 10
614.9999999999899
 20
331.2854688202692
 30
0.0
 40
15.28546882026918
100
AcDbArc
 50
252.4120462261352
 51
287.5879537738648
  0
LINE
  5
411
330
1F
100
AcDbEntity
  8
Ｓ_１_１
  6
CONTINUOUS
 62
     3
100
AcDbLine
 10
606.9999999999899
 20
315.9999999999999
 30
0.0
 11
605.7623956929599
 21
316.71453117981
 31
0.0
  0
LINE
  5
412
330
1F
100
AcDbEntity
  8
Ｓ_１_１
  6
CONTINUOUS
 62
     3
100
AcDbLine
 10
624.9999999999899
 20
324.9999999999999
 30
0.0
 11
604.9999999999899
 21
324.9999999999999
 31
0.0
  0
LINE
  5
413
330
1F
100
AcDbEntity
  8
Ｓ_１_１
  6
CONTINUOUS
 62
     3
100
AcDbLine
 10
624.9999999999899
 20
322.9999999999999
 30
0.0
 11
604.9999999999899
 21
322.9999999999999
 31
0.0
  0
LINE
  5
414
330
1F
100
AcDbEntity
  8
Ｓ_１_１
  6
CONTINUOUS
 62
     3
100
AcDbLine
 10
604.9999999999899
 20
322.9999999999999
 30
0.0
 11
604.9999999999899
 21
324.9999999999999
 31
0.0
  0
LINE
  5
415
330
1F
100
AcDbEntity
  8
Ｓ_１_１
  6
CONTINUOUS
 62
     3
100
AcDbLine
 10
624.9999999999899
 20
322.9999999999999
 30
0.0
 11
624.9999999999899
 21
324.9999999999999
 31
0.0
  0
LINE
  5
416
330
1F
100
AcDbEntity
  8
Ｓ_１_１
  6
EXLTYPE2
 62
     1
100
AcDbLine
 10
300.0000000000003
 20
988.4598498002999
 30
0.0
 11
300.0000000000003
 21
952.6398498003002
 31
0.0
  0
LINE
  5
417
330
1F
100
AcDbEntity
  8
Ｓ_１_１
  6
EXLTYPE2
 62
     1
100
AcDbLine
 10
499.9999999999996
 20
988.4598498002999
 30
0.0
 11
499.9999999999996
 21
952.6398498003002
 31
0.0
  0
LINE
  5
418
330
1F
100
AcDbEntity
  8
Ｓ_１_１
  6
EXLTYPE2
 62
     1
100
AcDbLine
 10
499.9999999999998
 20
561.5401501997003
 30
0.0
 11
499.9999999999998
 21
597.3601501997
 31
0.0
  0
LINE
  5
419
330
1F
100
AcDbEntity
  8
Ｓ_１_１
  6
CONTINUOUS
 62
     3
100
AcDbLine
 10
169.9999999999995
 20
634.9999999999995
 30
0.0
 11
169.9999999999997
 21
914.9999999999995
 31
0.0
  0
LINE
  5
41A
330
1F
100
AcDbEntity
  8
Ｓ_１_１
  6
CONTINUOUS
 62
     3
100
AcDbLine
 10
169.9999999999997
 20
914.9999999999995
 30
0.0
 11
239.9999999999997
 21
984.9999999999995
 31
0.0
  0
LINE
  5
41B
330
1F
100
AcDbEntity
  8
Ｓ_１_１
  6
CONTINUOUS
 62
     3
100
AcDbLine
 10
239.9999999999997
 20
984.9999999999995
 30
0.0
 11
559.9999999999993
 21
984.9999999999995
 31
0.0
  0
LINE
  5
41C
330
1F
100
AcDbEntity
  8
Ｓ_１_１
  6
CONTINUOUS
 62
     3
100
AcDbLine
 10
629.9999999999993
 20
914.9999999999995
 30
0.0
 11
559.9999999999993
 21
984.9999999999995
 31
0.0
  0
LINE
  5
41D
330
1F
100
AcDbEntity
  8
Ｓ_１_１
  6
CONTINUOUS
 62
     3
100
AcDbLine
 10
629.9999999999993
 20
634.9999999999995
 30
0.0
 11
629.9999999999993
 21
914.9999999999995
 31
0.0
  0
LINE
  5
41E
330
1F
100
AcDbEntity
  8
Ｓ_１_１
  6
CONTINUOUS
 62
     3
100
AcDbLine
 10
559.9999999999993
 20
564.9999999999993
 30
0.0
 11
629.9999999999993
 21
634.9999999999995
 31
0.0
  0
LINE
  5
41F
330
1F
100
AcDbEntity
  8
Ｓ_１_１
  6
CONTINUOUS
 62
     3
100
AcDbLine
 10
239.9999999999997
 20
564.9999999999993
 30
0.0
 11
559.9999999999993
 21
564.9999999999993
 31
0.0
  0
LINE
  5
420
330
1F
100
AcDbEntity
  8
Ｓ_１_１
  6
CONTINUOUS
 62
     3
100
AcDbLine
 10
239.9999999999997
 20
564.9999999999993
 30
0.0
 11
169.9999999999995
 21
634.9999999999995
 31
0.0
  0
CIRCLE
  5
421
330
1F
100
AcDbEntity
  8
Ｓ_１_１
  6
CONTINUOUS
 62
     3
100
AcDbCircle
 10
274.9999999999997
 20
969.9999999999995
 30
0.0
 40
4.99999999999987
  0
CIRCLE
  5
422
330
1F
100
AcDbEntity
  8
Ｓ_１_１
  6
CONTINUOUS
 62
     3
100
AcDbCircle
 10
325.0000000000396
 20
969.9999999999895
 30
0.0
 40
4.99999999999987
  0
CIRCLE
  5
423
330
1F
100
AcDbEntity
  8
Ｓ_１_１
  6
CONTINUOUS
 62
     3
100
AcDbCircle
 10
374.9999999999696
 20
969.9999999999895
 30
0.0
 40
4.99999999999987
  0
CIRCLE
  5
424
330
1F
100
AcDbEntity
  8
Ｓ_１_１
  6
CONTINUOUS
 62
     3
100
AcDbCircle
 10
424.9999999999696
 20
969.9999999999895
 30
0.0
 40
4.99999999999987
  0
CIRCLE
  5
425
330
1F
100
AcDbEntity
  8
Ｓ_１_１
  6
CONTINUOUS
 62
     3
100
AcDbCircle
 10
474.9999999999696
 20
969.9999999999895
 30
0.0
 40
4.99999999999987
  0
CIRCLE
  5
426
330
1F
100
AcDbEntity
  8
Ｓ_１_１
  6
CONTINUOUS
 62
     3
100
AcDbCircle
 10
524.9999999999695
 20
969.9999999999895
 30
0.0
 40
4.99999999999987
  0
CIRCLE
  5
427
330
1F
100
AcDbEntity
  8
Ｓ_１_１
  6
CONTINUOUS
 62
     3
100
AcDbCircle
 10
525.0000000000007
 20
580.0000000000009
 30
0.0
 40
4.99999999999987
  0
CIRCLE
  5
428
330
1F
100
AcDbEntity
  8
Ｓ_１_１
  6
CONTINUOUS
 62
     3
100
AcDbCircle
 10
474.9999999999609
 20
580.0000000000109
 30
0.0
 40
4.99999999999987
  0
CIRCLE
  5
429
330
1F
100
AcDbEntity
  8
Ｓ_１_１
  6
CONTINUOUS
 62
     3
100
AcDbCircle
 10
425.0000000000308
 20
580.0000000000109
 30
0.0
 40
4.99999999999987
  0
CIRCLE
  5
42A
330
1F
100
AcDbEntity
  8
Ｓ_１_１
  6
CONTINUOUS
 62
     3
100
AcDbCircle
 10
375.0000000000308
 20
580.0000000000109
 30
0.0
 40
4.99999999999987
  0
CIRCLE
  5
42B
330
1F
100
AcDbEntity
  8
Ｓ_１_１
  6
CONTINUOUS
 62
     3
100
AcDbCircle
 10
325.0000000000308
 20
580.0000000000109
 30
0.0
 40
4.99999999999987
  0
CIRCLE
  5
42C
330
1F
100
AcDbEntity
  8
Ｓ_１_１
  6
CONTINUOUS
 62
     3
100
AcDbCircle
 10
275.0000000000308
 20
580.0000000000109
 30
0.0
 40
4.99999999999987
  0
CIRCLE
  5
42D
330
1F
100
AcDbEntity
  8
Ｓ_１_１
  6
CONTINUOUS
 62
     3
100
AcDbCircle
 10
614.9999999999995
 20
900.0000000000007
 30
0.0
 40
4.99999999999987
  0
CIRCLE
  5
42E
330
1F
100
AcDbEntity
  8
Ｓ_１_１
  6
CONTINUOUS
 62
     3
100
AcDbCircle
 10
614.9999999999895
 20
849.9999999999607
 30
0.0
 40
4.99999999999987
  0
CIRCLE
  5
42F
330
1F
100
AcDbEntity
  8
Ｓ_１_１
  6
CONTINUOUS
 62
     3
100
AcDbCircle
 10
614.9999999999895
 20
800.0000000000307
 30
0.0
 40
4.99999999999987
  0
CIRCLE
  5
430
330
1F
100
AcDbEntity
  8
Ｓ_１_１
  6
CONTINUOUS
 62
     3
100
AcDbCircle
 10
614.9999999999895
 20
750.0000000000307
 30
0.0
 40
4.99999999999987
  0
CIRCLE
  5
431
330
1F
100
AcDbEntity
  8
Ｓ_１_１
  6
CONTINUOUS
 62
     3
100
AcDbCircle
 10
614.9999999999895
 20
700.0000000000307
 30
0.0
 40
4.99999999999987
  0
CIRCLE
  5
432
330
1F
100
AcDbEntity
  8
Ｓ_１_１
  6
CONTINUOUS
 62
     3
100
AcDbCircle
 10
614.9999999999895
 20
650.0000000000307
 30
0.0
 40
4.99999999999987
  0
ARC
  5
433
330
1F
100
AcDbEntity
  8
Ｓ_１_１
  6
EXLTYPE0
 62
     2
100
AcDbCircle
 10
375.0000000000003
 20
774.9999999999957
 30
0.0
 40
167.5
100
AcDbArc
 50
90.000003
 51
270.0000010000001
  0
ARC
  5
434
330
1F
100
AcDbEntity
  8
Ｓ_１_１
  6
EXLTYPE0
 62
     2
100
AcDbCircle
 10
425.0000000000003
 20
774.9999999999959
 30
0.0
 40
167.5
100
AcDbArc
 50
269.999997
 51
90.000003
  0
LINE
  5
435
330
1F
100
AcDbEntity
  8
Ｓ_１_１
  6
EXLTYPE0
 62
     2
100
AcDbLine
 10
425.0000000000003
 20
942.4999999999957
 30
0.0
 11
375.0000000000003
 21
942.4999999999957
 31
0.0
  0
LINE
  5
436
330
1F
100
AcDbEntity
  8
Ｓ_１_１
  6
EXLTYPE0
 62
     2
100
AcDbLine
 10
425.0000000000003
 20
607.4999999999957
 30
0.0
 11
375.0000000000003
 21
607.4999999999957
 31
0.0
  0
LINE
  5
437
330
1F
100
AcDbEntity
  8
Ｓ_１_１
  6
EXLTYPE2
 62
     1
100
AcDbLine
 10
125.0
 20
775.0
 30
0.0
 11
675.0
 21
775.0000000000001
 31
0.0
  0
LINE
  5
438
330
1F
100
AcDbEntity
  8
Ｓ_１_１
  6
EXLTYPE2
 62
     1
100
AcDbLine
 10
400.0000000000001
 20
550.0
 30
0.0
 11
400.0
 21
1000.0
 31
0.0
  0
LEADER
  5
439
330
1F
100
AcDbEntity
  8
Ｓ_１_１
  6
CONTINUOUS
 62
     2
100
AcDbLeader
  3
ISO-25
 76
     2
 10
136.3380058766
 20
775.0
 30
0.0
 10
136.3380058766
 20
744.9198120000001
 30
0.0
1001
ACAD
1000
DSTYLE
1002
{
1070
     5
1000
EX_NORM
1070
    41
1040
12.0
1070
   341
1005
78
1002
}
  0
TEXT
  5
43A
330
1F
100
AcDbEntity
  8
Ｓ_１_１
  6
CONTINUOUS
 62
     4
100
AcDbText
 10
116.6111222803798
 20
747.7855408694002
 30
0.0
 40
13.85161662817552
  1
A
 41
0.9992307692307693
  7
EXCADTTF1
 72
     5
 11
125.6111222803798
 21
747.7855408694002
 31
0.0
100
AcDbText
  0
LEADER
  5
43B
330
1F
100
AcDbEntity
  8
Ｓ_１_１
  6
CONTINUOUS
 62
     2
100
AcDbLeader
  3
ISO-25
 76
     2
 10
663.8180058765997
 20
775.0
 30
0.0
 10
663.8180058765997
 20
746.039812
 30
0.0
1001
ACAD
1000
DSTYLE
1002
{
1070
     5
1000
EX_NORM
1070
    41
1040
12.0
1070
   341
1005
78
1002
}
  0
TEXT
  5
43C
330
1F
100
AcDbEntity
  8
Ｓ_１_１
  6
CONTINUOUS
 62
     4
100
AcDbText
 10
666.1700738106099
 20
748.1994123701002
 30
0.0
 40
13.85161662817552
  1
A
 41
0.9992307692307693
  7
EXCADTTF1
 72
     5
 11
675.1700738106099
 21
748.1994123701002
 31
0.0
100
AcDbText
  0
CIRCLE
  5
43D
330
1F
100
AcDbEntity
  8
Ｓ_１_１
  6
CONTINUOUS
 62
     3
100
AcDbCircle
 10
275.00000000003
 20
580.00000000001
 30
0.0
 40
4.25
  0
LINE
  5
43E
330
1F
100
AcDbEntity
  8
Ｓ_１_１
  6
EXLTYPE2
 62
     1
100
AcDbLine
 10
282.6833052819454
 20
580.00000000001
 30
0.0
 11
267.00000000003
 21
580.00000000001
 31
0.0
  0
LINE
  5
43F
330
1F
100
AcDbEntity
  8
Ｓ_１_１
  6
EXLTYPE2
 62
     1
100
AcDbLine
 10
275.0000000000304
 20
588.00000000001
 30
0.0
 11
275.0000000000304
 21
572.00000000001
 31
0.0
  0
CIRCLE
  5
440
330
1F
100
AcDbEntity
  8
Ｓ_１_１
  6
CONTINUOUS
 62
     3
100
AcDbCircle
 10
325.00000000003
 20
580.00000000001
 30
0.0
 40
4.25
  0
LINE
  5
441
330
1F
100
AcDbEntity
  8
Ｓ_１_１
  6
EXLTYPE2
 62
     1
100
AcDbLine
 10
332.6833052819454
 20
580.00000000001
 30
0.0
 11
317.00000000003
 21
580.00000000001
 31
0.0
  0
LINE
  5
442
330
1F
100
AcDbEntity
  8
Ｓ_１_１
  6
EXLTYPE2
 62
     1
100
AcDbLine
 10
325.0000000000304
 20
588.00000000001
 30
0.0
 11
325.0000000000304
 21
572.00000000001
 31
0.0
  0
CIRCLE
  5
443
330
1F
100
AcDbEntity
  8
Ｓ_１_１
  6
CONTINUOUS
 62
     3
100
AcDbCircle
 10
375.00000000003
 20
580.00000000001
 30
0.0
 40
4.25
  0
LINE
  5
444
330
1F
100
AcDbEntity
  8
Ｓ_１_１
  6
EXLTYPE2
 62
     1
100
AcDbLine
 10
382.6833052819454
 20
580.00000000001
 30
0.0
 11
367.00000000003
 21
580.00000000001
 31
0.0
  0
LINE
  5
445
330
1F
100
AcDbEntity
  8
Ｓ_１_１
  6
EXLTYPE2
 62
     1
100
AcDbLine
 10
375.0000000000304
 20
588.00000000001
 30
0.0
 11
375.0000000000304
 21
572.00000000001
 31
0.0
  0
CIRCLE
  5
446
330
1F
100
AcDbEntity
  8
Ｓ_１_１
  6
CONTINUOUS
 62
     3
100
AcDbCircle
 10
425.00000000003
 20
580.00000000001
 30
0.0
 40
4.25
  0
LINE
  5
447
330
1F
100
AcDbEntity
  8
Ｓ_１_１
  6
EXLTYPE2
 62
     1
100
AcDbLine
 10
432.6833052819454
 20
580.00000000001
 30
0.0
 11
417.00000000003
 21
580.00000000001
 31
0.0
  0
LINE
  5
448
330
1F
100
AcDbEntity
  8
Ｓ_１_１
  6
EXLTYPE2
 62
     1
100
AcDbLine
 10
425.0000000000304
 20
588.00000000001
 30
0.0
 11
425.0000000000304
 21
572.00000000001
 31
0.0
  0
CIRCLE
  5
449
330
1F
100
AcDbEntity
  8
Ｓ_１_１
  6
CONTINUOUS
 62
     3
100
AcDbCircle
 10
474.99999999996
 20
580.00000000001
 30
0.0
 40
4.25
  0
LINE
  5
44A
330
1F
100
AcDbEntity
  8
Ｓ_１_１
  6
EXLTYPE2
 62
     1
100
AcDbLine
 10
482.6833052818754
 20
580.00000000001
 30
0.0
 11
466.99999999996
 21
580.00000000001
 31
0.0
  0
LINE
  5
44B
330
1F
100
AcDbEntity
  8
Ｓ_１_１
  6
EXLTYPE2
 62
     1
100
AcDbLine
 10
474.9999999999603
 20
588.00000000001
 30
0.0
 11
474.9999999999603
 21
572.00000000001
 31
0.0
  0
CIRCLE
  5
44C
330
1F
100
AcDbEntity
  8
Ｓ_１_１
  6
CONTINUOUS
 62
     3
100
AcDbCircle
 10
525.0
 20
580.0
 30
0.0
 40
4.25
  0
LINE
  5
44D
330
1F
100
AcDbEntity
  8
Ｓ_１_１
  6
EXLTYPE2
 62
     1
100
AcDbLine
 10
532.6833052819154
 20
580.0
 30
0.0
 11
517.0
 21
580.0
 31
0.0
  0
LINE
  5
44E
330
1F
100
AcDbEntity
  8
Ｓ_１_１
  6
EXLTYPE2
 62
     1
100
AcDbLine
 10
525.0000000000002
 20
588.0
 30
0.0
 11
525.0000000000002
 21
572.0
 31
0.0
  0
CIRCLE
  5
44F
330
1F
100
AcDbEntity
  8
Ｓ_１_１
  6
CONTINUOUS
 62
     3
100
AcDbCircle
 10
614.99999999999
 20
650.00000000003
 30
0.0
 40
4.25
  0
LINE
  5
450
330
1F
100
AcDbEntity
  8
Ｓ_１_１
  6
EXLTYPE2
 62
     1
100
AcDbLine
 10
622.6833052819054
 20
650.00000000003
 30
0.0
 11
606.99999999999
 21
650.00000000003
 31
0.0
  0
LINE
  5
451
330
1F
100
AcDbEntity
  8
Ｓ_１_１
  6
EXLTYPE2
 62
     1
100
AcDbLine
 10
614.9999999999902
 20
658.00000000003
 30
0.0
 11
614.9999999999902
 21
642.00000000003
 31
0.0
  0
CIRCLE
  5
452
330
1F
100
AcDbEntity
  8
Ｓ_１_１
  6
CONTINUOUS
 62
     3
100
AcDbCircle
 10
614.99999999999
 20
700.00000000003
 30
0.0
 40
4.25
  0
LINE
  5
453
330
1F
100
AcDbEntity
  8
Ｓ_１_１
  6
EXLTYPE2
 62
     1
100
AcDbLine
 10
622.6833052819054
 20
700.00000000003
 30
0.0
 11
606.99999999999
 21
700.00000000003
 31
0.0
  0
LINE
  5
454
330
1F
100
AcDbEntity
  8
Ｓ_１_１
  6
EXLTYPE2
 62
     1
100
AcDbLine
 10
614.9999999999902
 20
708.00000000003
 30
0.0
 11
614.9999999999902
 21
692.00000000003
 31
0.0
  0
CIRCLE
  5
455
330
1F
100
AcDbEntity
  8
Ｓ_１_１
  6
CONTINUOUS
 62
     3
100
AcDbCircle
 10
614.99999999999
 20
750.00000000003
 30
0.0
 40
4.25
  0
LINE
  5
456
330
1F
100
AcDbEntity
  8
Ｓ_１_１
  6
EXLTYPE2
 62
     1
100
AcDbLine
 10
622.6833052819054
 20
750.00000000003
 30
0.0
 11
606.99999999999
 21
750.00000000003
 31
0.0
  0
LINE
  5
457
330
1F
100
AcDbEntity
  8
Ｓ_１_１
  6
EXLTYPE2
 62
     1
100
AcDbLine
 10
614.9999999999902
 20
758.00000000003
 30
0.0
 11
614.9999999999902
 21
742.00000000003
 31
0.0
  0
CIRCLE
  5
458
330
1F
100
AcDbEntity
  8
Ｓ_１_１
  6
CONTINUOUS
 62
     3
100
AcDbCircle
 10
614.99999999999
 20
800.00000000003
 30
0.0
 40
4.25
  0
LINE
  5
459
330
1F
100
AcDbEntity
  8
Ｓ_１_１
  6
EXLTYPE2
 62
     1
100
AcDbLine
 10
622.6833052819054
 20
800.00000000003
 30
0.0
 11
606.99999999999
 21
800.00000000003
 31
0.0
  0
LINE
  5
45A
330
1F
100
AcDbEntity
  8
Ｓ_１_１
  6
EXLTYPE2
 62
     1
100
AcDbLine
 10
614.9999999999902
 20
808.00000000003
 30
0.0
 11
614.9999999999902
 21
792.00000000003
 31
0.0
  0
CIRCLE
  5
45B
330
1F
100
AcDbEntity
  8
Ｓ_１_１
  6
CONTINUOUS
 62
     3
100
AcDbCircle
 10
614.99999999999
 20
849.99999999996
 30
0.0
 40
4.25
  0
LINE
  5
45C
330
1F
100
AcDbEntity
  8
Ｓ_１_１
  6
EXLTYPE2
 62
     1
100
AcDbLine
 10
622.6833052819054
 20
849.99999999996
 30
0.0
 11
606.99999999999
 21
849.99999999996
 31
0.0
  0
LINE
  5
45D
330
1F
100
AcDbEntity
  8
Ｓ_１_１
  6
EXLTYPE2
 62
     1
100
AcDbLine
 10
614.9999999999902
 20
857.99999999996
 30
0.0
 11
614.9999999999902
 21
841.99999999996
 31
0.0
  0
CIRCLE
  5
45E
330
1F
100
AcDbEntity
  8
Ｓ_１_１
  6
CONTINUOUS
 62
     3
100
AcDbCircle
 10
615.0
 20
900.0
 30
0.0
 40
4.25
  0
LINE
  5
45F
330
1F
100
AcDbEntity
  8
Ｓ_１_１
  6
EXLTYPE2
 62
     1
100
AcDbLine
 10
622.6833052819154
 20
900.0
 30
0.0
 11
607.0
 21
900.0
 31
0.0
  0
LINE
  5
460
330
1F
100
AcDbEntity
  8
Ｓ_１_１
  6
EXLTYPE2
 62
     1
100
AcDbLine
 10
615.0000000000002
 20
908.0
 30
0.0
 11
615.0000000000002
 21
892.0
 31
0.0
  0
CIRCLE
  5
461
330
1F
100
AcDbEntity
  8
Ｓ_１_１
  6
CONTINUOUS
 62
     3
100
AcDbCircle
 10
524.99999999997
 20
969.99999999999
 30
0.0
 40
4.25
  0
LINE
  5
462
330
1F
100
AcDbEntity
  8
Ｓ_１_１
  6
EXLTYPE2
 62
     1
100
AcDbLine
 10
532.6833052818854
 20
969.99999999999
 30
0.0
 11
516.99999999997
 21
969.99999999999
 31
0.0
  0
LINE
  5
463
330
1F
100
AcDbEntity
  8
Ｓ_１_１
  6
EXLTYPE2
 62
     1
100
AcDbLine
 10
524.9999999999704
 20
977.99999999999
 30
0.0
 11
524.9999999999704
 21
961.99999999999
 31
0.0
  0
CIRCLE
  5
464
330
1F
100
AcDbEntity
  8
Ｓ_１_１
  6
CONTINUOUS
 62
     3
100
AcDbCircle
 10
474.99999999997
 20
969.99999999999
 30
0.0
 40
4.25
  0
LINE
  5
465
330
1F
100
AcDbEntity
  8
Ｓ_１_１
  6
EXLTYPE2
 62
     1
100
AcDbLine
 10
482.6833052818854
 20
969.99999999999
 30
0.0
 11
466.99999999997
 21
969.99999999999
 31
0.0
  0
LINE
  5
466
330
1F
100
AcDbEntity
  8
Ｓ_１_１
  6
EXLTYPE2
 62
     1
100
AcDbLine
 10
474.9999999999703
 20
977.99999999999
 30
0.0
 11
474.9999999999703
 21
961.99999999999
 31
0.0
  0
CIRCLE
  5
467
330
1F
100
AcDbEntity
  8
Ｓ_１_１
  6
CONTINUOUS
 62
     3
100
AcDbCircle
 10
424.99999999997
 20
969.99999999999
 30
0.0
 40
4.25
  0
LINE
  5
468
330
1F
100
AcDbEntity
  8
Ｓ_１_１
  6
EXLTYPE2
 62
     1
100
AcDbLine
 10
432.6833052818854
 20
969.99999999999
 30
0.0
 11
416.99999999997
 21
969.99999999999
 31
0.0
  0
LINE
  5
469
330
1F
100
AcDbEntity
  8
Ｓ_１_１
  6
EXLTYPE2
 62
     1
100
AcDbLine
 10
424.9999999999703
 20
977.99999999999
 30
0.0
 11
424.9999999999703
 21
961.99999999999
 31
0.0
  0
CIRCLE
  5
46A
330
1F
100
AcDbEntity
  8
Ｓ_１_１
  6
CONTINUOUS
 62
     3
100
AcDbCircle
 10
374.99999999997
 20
969.99999999999
 30
0.0
 40
4.25
  0
LINE
  5
46B
330
1F
100
AcDbEntity
  8
Ｓ_１_１
  6
EXLTYPE2
 62
     1
100
AcDbLine
 10
382.6833052818854
 20
969.99999999999
 30
0.0
 11
366.99999999997
 21
969.99999999999
 31
0.0
  0
LINE
  5
46C
330
1F
100
AcDbEntity
  8
Ｓ_１_１
  6
EXLTYPE2
 62
     1
100
AcDbLine
 10
374.9999999999703
 20
977.99999999999
 30
0.0
 11
374.9999999999703
 21
961.99999999999
 31
0.0
  0
CIRCLE
  5
46D
330
1F
100
AcDbEntity
  8
Ｓ_１_１
  6
CONTINUOUS
 62
     3
100
AcDbCircle
 10
325.00000000004
 20
969.99999999999
 30
0.0
 40
4.25
  0
LINE
  5
46E
330
1F
100
AcDbEntity
  8
Ｓ_１_１
  6
EXLTYPE2
 62
     1
100
AcDbLine
 10
332.6833052819554
 20
969.99999999999
 30
0.0
 11
317.00000000004
 21
969.99999999999
 31
0.0
  0
LINE
  5
46F
330
1F
100
AcDbEntity
  8
Ｓ_１_１
  6
EXLTYPE2
 62
     1
100
AcDbLine
 10
325.0000000000404
 20
977.99999999999
 30
0.0
 11
325.0000000000404
 21
961.99999999999
 31
0.0
  0
CIRCLE
  5
470
330
1F
100
AcDbEntity
  8
Ｓ_１_１
  6
CONTINUOUS
 62
     3
100
AcDbCircle
 10
275.0
 20
970.0
 30
0.0
 40
4.25
  0
LINE
  5
471
330
1F
100
AcDbEntity
  8
Ｓ_１_１
  6
EXLTYPE2
 62
     1
100
AcDbLine
 10
282.6833052819154
 20
970.0
 30
0.0
 11
267.0
 21
970.0
 31
0.0
  0
LINE
  5
472
330
1F
100
AcDbEntity
  8
Ｓ_１_１
  6
EXLTYPE2
 62
     1
100
AcDbLine
 10
275.0000000000003
 20
978.0
 30
0.0
 11
275.0000000000003
 21
962.0
 31
0.0
  0
CIRCLE
  5
473
330
1F
100
AcDbEntity
  8
Ｓ_１_１
  6
CONTINUOUS
 62
     3
100
AcDbCircle
 10
185.0000000000007
 20
900.0000000000006
 30
0.0
 40
4.99999999999987
  0
CIRCLE
  5
474
330
1F
100
AcDbEntity
  8
Ｓ_１_１
  6
CONTINUOUS
 62
     3
100
AcDbCircle
 10
185.0000000000107
 20
849.9999999999606
 30
0.0
 40
4.99999999999987
  0
CIRCLE
  5
475
330
1F
100
AcDbEntity
  8
Ｓ_１_１
  6
CONTINUOUS
 62
     3
100
AcDbCircle
 10
185.0000000000107
 20
800.0000000000306
 30
0.0
 40
4.99999999999987
  0
CIRCLE
  5
476
330
1F
100
AcDbEntity
  8
Ｓ_１_１
  6
CONTINUOUS
 62
     3
100
AcDbCircle
 10
185.0000000000107
 20
750.0000000000306
 30
0.0
 40
4.99999999999987
  0
CIRCLE
  5
477
330
1F
100
AcDbEntity
  8
Ｓ_１_１
  6
CONTINUOUS
 62
     3
100
AcDbCircle
 10
185.0000000000107
 20
700.0000000000306
 30
0.0
 40
4.99999999999987
  0
CIRCLE
  5
478
330
1F
100
AcDbEntity
  8
Ｓ_１_１
  6
CONTINUOUS
 62
     3
100
AcDbCircle
 10
185.0000000000107
 20
650.0000000000306
 30
0.0
 40
4.99999999999987
  0
CIRCLE
  5
479
330
1F
100
AcDbEntity
  8
Ｓ_１_１
  6
CONTINUOUS
 62
     3
100
AcDbCircle
 10
185.0000000000103
 20
650.0000000000299
 30
0.0
 40
4.25
  0
LINE
  5
47A
330
1F
100
AcDbEntity
  8
Ｓ_１_１
  6
EXLTYPE2
 62
     1
100
AcDbLine
 10
177.3166947180949
 20
650.0000000000299
 30
0.0
 11
193.0000000000103
 21
650.0000000000299
 31
0.0
  0
LINE
  5
47B
330
1F
100
AcDbEntity
  8
Ｓ_１_１
  6
EXLTYPE2
 62
     1
100
AcDbLine
 10
185.0000000000101
 20
658.0000000000299
 30
0.0
 11
185.0000000000101
 21
642.0000000000299
 31
0.0
  0
CIRCLE
  5
47C
330
1F
100
AcDbEntity
  8
Ｓ_１_１
  6
CONTINUOUS
 62
     3
100
AcDbCircle
 10
185.0000000000103
 20
700.0000000000299
 30
0.0
 40
4.25
  0
LINE
  5
47D
330
1F
100
AcDbEntity
  8
Ｓ_１_１
  6
EXLTYPE2
 62
     1
100
AcDbLine
 10
177.3166947180949
 20
700.0000000000299
 30
0.0
 11
193.0000000000103
 21
700.0000000000299
 31
0.0
  0
LINE
  5
47E
330
1F
100
AcDbEntity
  8
Ｓ_１_１
  6
EXLTYPE2
 62
     1
100
AcDbLine
 10
185.0000000000101
 20
708.0000000000299
 30
0.0
 11
185.0000000000101
 21
692.0000000000299
 31
0.0
  0
CIRCLE
  5
47F
330
1F
100
AcDbEntity
  8
Ｓ_１_１
  6
CONTINUOUS
 62
     3
100
AcDbCircle
 10
185.0000000000103
 20
750.0000000000299
 30
0.0
 40
4.25
  0
LINE
  5
480
330
1F
100
AcDbEntity
  8
Ｓ_１_１
  6
EXLTYPE2
 62
     1
100
AcDbLine
 10
177.3166947180949
 20
750.0000000000299
 30
0.0
 11
193.0000000000103
 21
750.0000000000299
 31
0.0
  0
LINE
  5
481
330
1F
100
AcDbEntity
  8
Ｓ_１_１
  6
EXLTYPE2
 62
     1
100
AcDbLine
 10
185.00000000001
 20
758.0000000000299
 30
0.0
 11
185.00000000001
 21
742.0000000000299
 31
0.0
  0
CIRCLE
  5
482
330
1F
100
AcDbEntity
  8
Ｓ_１_１
  6
CONTINUOUS
 62
     3
100
AcDbCircle
 10
185.0000000000102
 20
800.0000000000299
 30
0.0
 40
4.25
  0
LINE
  5
483
330
1F
100
AcDbEntity
  8
Ｓ_１_１
  6
EXLTYPE2
 62
     1
100
AcDbLine
 10
177.3166947180948
 20
800.0000000000299
 30
0.0
 11
193.0000000000102
 21
800.0000000000299
 31
0.0
  0
LINE
  5
484
330
1F
100
AcDbEntity
  8
Ｓ_１_１
  6
EXLTYPE2
 62
     1
100
AcDbLine
 10
185.00000000001
 20
808.0000000000299
 30
0.0
 11
185.00000000001
 21
792.0000000000299
 31
0.0
  0
CIRCLE
  5
485
330
1F
100
AcDbEntity
  8
Ｓ_１_１
  6
CONTINUOUS
 62
     3
100
AcDbCircle
 10
185.0000000000102
 20
849.9999999999599
 30
0.0
 40
4.25
  0
LINE
  5
486
330
1F
100
AcDbEntity
  8
Ｓ_１_１
  6
EXLTYPE2
 62
     1
100
AcDbLine
 10
177.3166947180948
 20
849.9999999999599
 30
0.0
 11
193.0000000000102
 21
849.9999999999599
 31
0.0
  0
LINE
  5
487
330
1F
100
AcDbEntity
  8
Ｓ_１_１
  6
EXLTYPE2
 62
     1
100
AcDbLine
 10
185.00000000001
 20
857.9999999999599
 30
0.0
 11
185.00000000001
 21
841.9999999999599
 31
0.0
  0
CIRCLE
  5
488
330
1F
100
AcDbEntity
  8
Ｓ_１_１
  6
CONTINUOUS
 62
     3
100
AcDbCircle
 10
185.0000000000002
 20
899.9999999999999
 30
0.0
 40
4.25
  0
LINE
  5
489
330
1F
100
AcDbEntity
  8
Ｓ_１_１
  6
EXLTYPE2
 62
     1
100
AcDbLine
 10
177.3166947180848
 20
899.9999999999999
 30
0.0
 11
193.0000000000002
 21
899.9999999999999
 31
0.0
  0
LINE
  5
48A
330
1F
100
AcDbEntity
  8
Ｓ_１_１
  6
EXLTYPE2
 62
     1
100
AcDbLine
 10
184.9999999999999
 20
907.9999999999999
 30
0.0
 11
185.0
 21
891.9999999999999
 31
0.0
  0
LINE
  5
48B
330
1F
100
AcDbEntity
  8
Ｓ_１_１
  6
EXLTYPE2
 62
     1
100
AcDbLine
 10
308.0
 20
346.0000000000002
 30
0.0
 11
292.0
 21
346.0000000000002
 31
0.0
  0
LINE
  5
48C
330
1F
100
AcDbEntity
  8
Ｓ_１_１
  6
EXLTYPE2
 62
     1
100
AcDbLine
 10
300.0000000000005
 20
354.0
 30
0.0
 11
300.0000000000005
 21
338.0
 31
0.0
  0
LINE
  5
48D
330
1F
100
AcDbEntity
  8
Ｓ_１_１
  6
CONTINUOUS
 62
     3
100
AcDbLine
 10
1360.000000000025
 20
335.0000000000038
 30
0.0
 11
1430.000000000025
 21
335.0000000000038
 31
0.0
  0
LINE
  5
48E
330
1F
100
AcDbEntity
  8
Ｓ_１_１
  6
CONTINUOUS
 62
     3
100
AcDbLine
 10
1430.000000000025
 20
335.0000000000038
 30
0.0
 11
1430.000000000025
 21
373.000000000004
 31
0.0
  0
LINE
  5
48F
330
1F
100
AcDbEntity
  8
Ｓ_１_１
  6
CONTINUOUS
 62
     3
100
AcDbLine
 10
970.000000000025
 20
335.0000000000036
 30
0.0
 11
1040.000000000025
 21
335.0000000000036
 31
0.0
  0
LINE
  5
490
330
1F
100
AcDbEntity
  8
Ｓ_１_１
  6
CONTINUOUS
 62
     3
100
AcDbLine
 10
1040.000000000025
 20
335.0000000000036
 30
0.0
 11
1040.000000000025
 21
373.000000000004
 31
0.0
  0
LINE
  5
491
330
1F
100
AcDbEntity
  8
Ｓ_１_１
  6
CONTINUOUS
 62
     3
100
AcDbLine
 10
970.000000000025
 20
373.000000000004
 30
0.0
 11
1040.000000000025
 21
373.000000000004
 31
0.0
  0
LINE
  5
492
330
1F
100
AcDbEntity
  8
Ｓ_１_１
  6
CONTINUOUS
 62
     3
100
AcDbLine
 10
970.000000000025
 20
373.000000000004
 30
0.0
 11
970.000000000025
 21
335.0000000000036
 31
0.0
  0
ARC
  5
493
330
1F
100
AcDbEntity
  8
Ｓ_１_１
  6
CONTINUOUS
 62
     3
100
AcDbCircle
 10
1200.000000000025
 20
-1214.999999999996
 30
0.0
 40
1555.892027102138
100
AcDbArc
 50
85.01210366664213
 51
94.98789633335643
  0
LINE
  5
494
330
1F
100
AcDbEntity
  8
Ｓ_１_１
  6
CONTINUOUS
 62
     3
100
AcDbLine
 10
1360.000000000025
 20
335.0000000000038
 30
0.0
 11
1335.277492584711
 21
335.0000000000038
 31
0.0
  0
LINE
  5
495
330
1F
100
AcDbEntity
  8
Ｓ_１_１
  6
CONTINUOUS
 62
     3
100
AcDbLine
 10
1064.722507415337
 20
335.0000000000036
 30
0.0
 11
1040.000000000025
 21
335.0000000000036
 31
0.0
  0
LINE
  5
496
330
1F
100
AcDbEntity
  8
Ｓ_１_１
  6
CONTINUOUS
 62
     3
100
AcDbLine
 10
1040.000000000025
 20
373.000000000004
 30
0.0
 11
1040.828427124771
 21
375.0000000000035
 31
0.0
  0
LINE
  5
497
330
1F
100
AcDbEntity
  8
Ｓ_１_１
  6
CONTINUOUS
 62
     3
100
AcDbLine
 10
1428.000000000025
 20
375.0000000000038
 30
0.0
 11
1430.000000000025
 21
373.000000000004
 31
0.0
  0
LINE
  5
498
330
1F
100
AcDbEntity
  8
Ｓ_１_１
  6
CONTINUOUS
 62
     3
100
AcDbLine
 10
1040.828427124771
 20
375.0000000000035
 30
0.0
 11
972.000000000025
 21
375.0000000000035
 31
0.0
  0
LINE
  5
499
330
1F
100
AcDbEntity
  8
Ｓ_１_１
  6
CONTINUOUS
 62
     3
100
AcDbLine
 10
970.000000000025
 20
373.000000000004
 30
0.0
 11
972.000000000025
 21
375.0000000000035
 31
0.0
  0
CIRCLE
  5
49A
330
1F
100
AcDbEntity
  8
Ｓ_１_１
  6
CONTINUOUS
 62
     3
100
AcDbCircle
 10
1080.00000000003
 20
359.9999999999999
 30
0.0
 40
5.0
  0
CIRCLE
  5
49B
330
1F
100
AcDbEntity
  8
Ｓ_１_１
  6
CONTINUOUS
 62
     3
100
AcDbCircle
 10
1080.00000000003
 20
359.9999999999999
 30
0.0
 40
4.25
  0
ARC
  5
49C
330
1F
100
AcDbEntity
  8
Ｓ_１_１
  6
EXLTYPE0
 62
     2
100
AcDbCircle
 10
1200.000000000033
 20
-1214.99999999999
 30
0.0
 40
1570.0
100
AcDbArc
 50
90.0000000000017
 51
98.4239660658
  0
LINE
  5
49D
330
1F
100
AcDbEntity
  8
Ｓ_１_１
  6
CONTINUOUS
 62
     3
100
AcDbLine
 10
1040.000000000025
 20
373.000000000004
 30
0.0
 11
1199.999999999986
 21
373.000000000004
 31
0.0
  0
LINE
  5
49E
330
1F
100
AcDbEntity
  8
Ｓ_１_１
  6
CONTINUOUS
 62
     3
100
AcDbLine
 10
1428.0
 20
375.0000000000038
 30
0.0
 11
1040.828427124771
 21
375.0000000000035
 31
0.0
  0
LINE
  5
49F
330
1F
100
AcDbEntity
  8
Ｓ_１_１
  6
CONTINUOUS
 62
     3
100
AcDbLine
 10
970.0000000000255
 20
634.9999999999973
 30
0.0
 11
970.000000000025
 21
914.9999999999973
 31
0.0
  0
LINE
  5
4A0
330
1F
100
AcDbEntity
  8
Ｓ_１_１
  6
CONTINUOUS
 62
     3
100
AcDbLine
 10
970.000000000025
 20
914.9999999999973
 30
0.0
 11
1040.000000000025
 21
984.9999999999974
 31
0.0
  0
LINE
  5
4A1
330
1F
100
AcDbEntity
  8
Ｓ_１_１
  6
CONTINUOUS
 62
     3
100
AcDbLine
 10
1360.000000000025
 20
984.9999999999974
 30
0.0
 11
1430.000000000025
 21
914.9999999999975
 31
0.0
  0
LINE
  5
4A2
330
1F
100
AcDbEntity
  8
Ｓ_１_１
  6
CONTINUOUS
 62
     3
100
AcDbLine
 10
1430.000000000025
 20
914.9999999999975
 30
0.0
 11
1430.000000000025
 21
634.9999999999975
 31
0.0
  0
LINE
  5
4A3
330
1F
100
AcDbEntity
  8
Ｓ_１_１
  6
CONTINUOUS
 62
     3
100
AcDbLine
 10
1040.000000000025
 20
984.9999999999974
 30
0.0
 11
1360.000000000025
 21
984.9999999999974
 31
0.0
  0
LINE
  5
4A4
330
1F
100
AcDbEntity
  8
Ｓ_１_１
  6
CONTINUOUS
 62
     3
100
AcDbLine
 10
1430.000000000025
 20
634.9999999999975
 30
0.0
 11
1360.000000000025
 21
564.9999999999973
 31
0.0
  0
LINE
  5
4A5
330
1F
100
AcDbEntity
  8
Ｓ_１_１
  6
CONTINUOUS
 62
     3
100
AcDbLine
 10
1040.000000000025
 20
564.9999999999973
 30
0.0
 11
970.0000000000255
 21
634.9999999999973
 31
0.0
  0
LINE
  5
4A6
330
1F
100
AcDbEntity
  8
Ｓ_１_１
  6
CONTINUOUS
 62
     3
100
AcDbLine
 10
1360.000000000025
 20
564.9999999999973
 30
0.0
 11
1040.000000000025
 21
564.9999999999973
 31
0.0
  0
LEADER
  5
4A7
330
1F
100
AcDbEntity
  8
Ｓ_１_１
  6
CONTINUOUS
 62
     2
100
AcDbLeader
  3
ISO-25
 76
     2
 10
936.3380058765999
 20
775.0
 30
0.0
 10
936.3380058765999
 20
744.9198120000001
 30
0.0
1001
ACAD
1000
DSTYLE
1002
{
1070
     5
1000
EX_NORM
1070
    41
1040
12.0
1070
   341
1005
78
1002
}
  0
TEXT
  5
4A8
330
1F
100
AcDbEntity
  8
Ｓ_１_１
  6
CONTINUOUS
 62
     4
100
AcDbText
 10
916.6111222803797
 20
747.7855408694002
 30
0.0
 40
13.85161662817552
  1
A
 41
0.9992307692307693
  7
EXCADTTF1
 72
     5
 11
925.6111222803797
 21
747.7855408694002
 31
0.0
100
AcDbText
  0
LEADER
  5
4A9
330
1F
100
AcDbEntity
  8
Ｓ_１_１
  6
CONTINUOUS
 62
     2
100
AcDbLeader
  3
ISO-25
 76
     2
 10
1463.8180058766
 20
775.0
 30
0.0
 10
1463.8180058766
 20
746.039812
 30
0.0
1001
ACAD
1000
DSTYLE
1002
{
1070
     5
1000
EX_NORM
1070
    41
1040
12.0
1070
   341
1005
78
1002
}
  0
TEXT
  5
4AA
330
1F
100
AcDbEntity
  8
Ｓ_１_１
  6
CONTINUOUS
 62
     4
100
AcDbText
 10
1466.17007381061
 20
748.1994123701002
 30
0.0
 40
13.85161662817552
  1
A
 41
0.9992307692307693
  7
EXCADTTF1
 72
     5
 11
1475.17007381061
 21
748.1994123701002
 31
0.0
100
AcDbText
  0
LINE
  5
4AB
330
1F
100
AcDbEntity
  8
Ｓ_１_１
  6
CONTINUOUS
 62
     3
100
AcDbLine
 10
972.000000000025
 20
914.171572875251
 30
0.0
 11
1040.828427124771
 21
982.9999999999974
 31
0.0
  0
LINE
  5
4AC
330
1F
100
AcDbEntity
  8
Ｓ_１_１
  6
CONTINUOUS
 62
     3
100
AcDbLine
 10
1040.828427124771
 20
982.9999999999974
 30
0.0
 11
1359.171572875279
 21
982.9999999999974
 31
0.0
  0
LINE
  5
4AD
330
1F
100
AcDbEntity
  8
Ｓ_１_１
  6
CONTINUOUS
 62
     3
100
AcDbLine
 10
1359.171572875279
 20
982.9999999999974
 30
0.0
 11
1428.000000000025
 21
914.1715728752513
 31
0.0
  0
LINE
  5
4AE
330
1F
100
AcDbEntity
  8
Ｓ_１_１
  6
CONTINUOUS
 62
     3
100
AcDbLine
 10
1428.000000000025
 20
914.1715728752513
 30
0.0
 11
1428.000000000025
 21
635.8284271247437
 31
0.0
  0
LINE
  5
4AF
330
1F
100
AcDbEntity
  8
Ｓ_１_１
  6
CONTINUOUS
 62
     3
100
AcDbLine
 10
1428.000000000025
 20
635.8284271247437
 30
0.0
 11
1359.171572875279
 21
566.9999999999973
 31
0.0
  0
LINE
  5
4B0
330
1F
100
AcDbEntity
  8
Ｓ_１_１
  6
CONTINUOUS
 62
     3
100
AcDbLine
 10
1359.171572875279
 20
566.9999999999973
 30
0.0
 11
1040.828427124772
 21
566.9999999999973
 31
0.0
  0
LINE
  5
4B1
330
1F
100
AcDbEntity
  8
Ｓ_１_１
  6
CONTINUOUS
 62
     3
100
AcDbLine
 10
1040.828427124772
 20
566.9999999999973
 30
0.0
 11
972.0000000000255
 21
635.8284271247435
 31
0.0
  0
LINE
  5
4B2
330
1F
100
AcDbEntity
  8
Ｓ_１_１
  6
CONTINUOUS
 62
     3
100
AcDbLine
 10
972.0000000000255
 20
635.8284271247435
 30
0.0
 11
972.000000000025
 21
914.171572875251
 31
0.0
  0
LINE
  5
4B3
330
1F
100
AcDbEntity
  8
Ｓ_１_１
  6
CONTINUOUS
 62
     3
100
AcDbLine
 10
1040.0
 20
985.0
 30
0.0
 11
1040.8284271248
 21
983.0
 31
0.0
  0
LINE
  5
4B4
330
1F
100
AcDbEntity
  8
Ｓ_１_１
  6
CONTINUOUS
 62
     3
100
AcDbLine
 10
970.00000000003
 20
915.0
 30
0.0
 11
972.00000000003
 21
914.17157287525
 31
0.0
  0
LINE
  5
4B5
330
1F
100
AcDbEntity
  8
Ｓ_１_１
  6
CONTINUOUS
 62
     3
100
AcDbLine
 10
970.00000000003
 20
635.0
 30
0.0
 11
972.00000000003
 21
635.82842712474
 31
0.0
  0
LINE
  5
4B6
330
1F
100
AcDbEntity
  8
Ｓ_１_１
  6
CONTINUOUS
 62
     3
100
AcDbLine
 10
1040.0
 20
565.0
 30
0.0
 11
1040.8284271248
 21
567.0
 31
0.0
  0
LINE
  5
4B7
330
1F
100
AcDbEntity
  8
Ｓ_１_１
  6
CONTINUOUS
 62
     3
100
AcDbLine
 10
1359.999999999972
 20
565.0
 30
0.0
 11
1359.171572875171
 21
567.0
 31
0.0
  0
LINE
  5
4B8
330
1F
100
AcDbEntity
  8
Ｓ_１_１
  6
CONTINUOUS
 62
     3
100
AcDbLine
 10
1429.999999999942
 20
635.0
 30
0.0
 11
1427.999999999942
 21
635.8284271247398
 31
0.0
  0
LINE
  5
4B9
330
1F
100
AcDbEntity
  8
Ｓ_１_１
  6
CONTINUOUS
 62
     3
100
AcDbLine
 10
1429.999999999942
 20
915.0
 30
0.0
 11
1427.999999999942
 21
914.1715728752499
 31
0.0
  0
LINE
  5
4BA
330
1F
100
AcDbEntity
  8
Ｓ_１_１
  6
CONTINUOUS
 62
     3
100
AcDbLine
 10
1359.999999999972
 20
985.0
 30
0.0
 11
1359.171572875172
 21
983.0
 31
0.0
  0
LINE
  5
4BB
330
1F
100
AcDbEntity
  8
Ｓ_１_１
  6
EXLTYPE2
 62
     1
100
AcDbLine
 10
1080.00000000003
 20
368.0
 30
0.0
 11
1080.00000000003
 21
352.0
 31
0.0
  0
LINE
  5
4BC
330
1F
100
AcDbEntity
  8
Ｓ_１_１
  6
EXLTYPE2
 62
     1
100
AcDbLine
 10
1088.0
 20
360.0000000000036
 30
0.0
 11
1072.0
 21
360.0000000000036
 31
0.0
  0
DIMENSION
  5
4BE
330
1F
100
AcDbEntity
  8
Ｓ_１_１
  6
CONTINUOUS
 62
     2
100
AcDbDimension
  2
*D15
 10
630.0
 20
500.0
 30
0.0
 11
400.0000000000001
 21
511.0
 31
0.0
 70
   160
  3
ISO-25
100
AcDbAlignedDimension
 13
170.0
 23
635.0
 33
0.0
 14
630.0
 24
635.0
 34
0.0
100
AcDbRotatedDimension
1001
ACAD
1000
DSTYLE
1002
{
1070
   270
1070
     2
1070
     6
1000
EX_NORM
1070
     7
1000
EX_NORM
1070
    41
1040
12.0
1070
    42
1040
6.0
1070
    44
1040
4.0
1070
    73
1070
     0
1070
    74
1070
     0
1070
    75
1070
     0
1070
    76
1070
     0
1070
    77
1070
     1
1070
    78
1070
     8
1070
   140
1040
13.85161662817552
1070
   147
1040
0.0
1070
   173
1070
     1
1070
   176
1070
     2
1070
   177
1070
     2
1070
   178
1070
     2
1070
   271
1070
     2
1070
   277
1070
     2
1070
   279
1070
     2
1070
   280
1070
     0
1070
   287
1070
     5
1070
   340
1005
4BD
1002
}
  0
DIMENSION
  5
4CC
330
1F
100
AcDbEntity
  8
Ｓ_１_１
  6
CONTINUOUS
 62
     2
100
AcDbDimension
  2
*D16
 10
725.0
 20
942.5
 30
0.0
 11
714.0
 21
775.0
 31
0.0
 70
   160
  3
ISO-25
100
AcDbAlignedDimension
 13
425.0
 23
607.5
 33
0.0
 14
425.0
 24
942.5
 34
0.0
 50
90.0
100
AcDbRotatedDimension
1001
ACAD
1000
DSTYLE
1002
{
1070
   270
1070
     2
1070
     6
1000
EX_NORM
1070
     7
1000
EX_NORM
1070
    41
1040
12.0
1070
    42
1040
6.0
1070
    44
1040
3.999999999999886
1070
    73
1070
     0
1070
    74
1070
     0
1070
    75
1070
     0
1070
    76
1070
     0
1070
    77
1070
     1
1070
    78
1070
     8
1070
   140
1040
13.85161662817552
1070
   147
1040
0.0
1070
   173
1070
     1
1070
   176
1070
     2
1070
   177
1070
     2
1070
   178
1070
     2
1070
   271
1070
     2
1070
   277
1070
     2
1070
   279
1070
     2
1070
   280
1070
     0
1070
   287
1070
     5
1070
   340
1005
4BD
1002
}
  0
DIMENSION
  5
4D9
330
1F
100
AcDbEntity
  8
Ｓ_１_１
  6
CONTINUOUS
 62
     2
100
AcDbDimension
  2
*D17
 10
749.9999999999999
 20
565.0
 30
0.0
 11
738.9999999999999
 21
775.0
 31
0.0
 70
   160
  3
ISO-25
100
AcDbAlignedDimension
 13
560.0
 23
985.0
 33
0.0
 14
560.0
 24
565.0
 34
0.0
 50
90.0
100
AcDbRotatedDimension
1001
ACAD
1000
DSTYLE
1002
{
1070
   270
1070
     2
1070
     6
1000
EX_NORM
1070
     7
1000
EX_NORM
1070
    41
1040
12.0
1070
    42
1040
6.0
1070
    44
1040
3.999999999999659
1070
    73
1070
     0
1070
    74
1070
     0
1070
    75
1070
     0
1070
    76
1070
     0
1070
    77
1070
     1
1070
    78
1070
     8
1070
   140
1040
13.85161662817552
1070
   147
1040
0.0
1070
   173
1070
     1
1070
   176
1070
     2
1070
   177
1070
     2
1070
   178
1070
     2
1070
   271
1070
     2
1070
   277
1070
     2
1070
   279
1070
     2
1070
   280
1070
     0
1070
   287
1070
     5
1070
   340
1005
4BD
1002
}
  0
TEXT
  5
4E6
330
1F
100
AcDbEntity
  8
Ｓ_１_１
  6
CONTINUOUS
 62
     2
100
AcDbText
 10
147.0999808517301
 20
548.5081360562332
 30
0.0
 40
13.85161662817552
  1
C
 50
45.00000000000026
 41
0.9992307692307728
  7
EXCADTTF1
 72
     5
 11
153.463941882409
 21
554.8720970869122
 31
0.0
100
AcDbText
  0
TEXT
  5
4E7
330
1F
100
AcDbEntity
  8
Ｓ_１_１
  6
CONTINUOUS
 62
     2
100
AcDbText
 10
153.463941882409
 20
554.8720970869122
 30
0.0
 40
13.85161662817552
  1
70
 50
44.99999999999994
 41
0.9992307692307695
  7
EXCADTTF1
 72
     5
 11
166.1918639437669
 21
567.60001914827
 31
0.0
100
AcDbText
  0
LEADER
  5
4E8
330
1F
100
AcDbEntity
  8
Ｓ_１_１
  6
CONTINUOUS
 62
     2
100
AcDbLeader
  3
ISO-25
 76
     2
 10
204.9999999999998
 20
599.9999999999994
 30
0.0
 10
148.1000000000001
 20
543.0999999999999
 30
0.0
1001
ACAD
1000
DSTYLE
1002
{
1070
     5
1000
EX_NORM
1070
    41
1040
12.0
1070
   341
1005
78
1002
}
  0
TEXT
  5
4E9
330
1F
100
AcDbEntity
  8
Ｓ_１_１
  6
CONTINUOUS
 62
     2
100
AcDbText
 10
647.4081360562332
 20
554.00001914827
 30
0.0
 40
13.85161662817552
  1
C
 50
315.0
 41
0.9992307692307774
  7
EXCADTTF1
 72
     5
 11
653.7720970869121
 21
547.636058117591
 31
0.0
100
AcDbText
  0
TEXT
  5
4EA
330
1F
100
AcDbEntity
  8
Ｓ_１_１
  6
CONTINUOUS
 62
     2
100
AcDbText
 10
653.7720970869121
 20
547.636058117591
 30
0.0
 40
13.85161662817552
  1
70
 50
315.0
 41
0.9992307692307685
  7
EXCADTTF1
 72
     5
 11
666.50001914827
 21
534.9081360562332
 31
0.0
100
AcDbText
  0
LEADER
  5
4EB
330
1F
100
AcDbEntity
  8
Ｓ_１_１
  6
CONTINUOUS
 62
     2
100
AcDbLeader
  3
ISO-25
 76
     2
 10
595.0000000000001
 20
599.9999999999999
 30
0.0
 10
665.7
 20
529.3000000000001
 30
0.0
1001
ACAD
1000
DSTYLE
1002
{
1070
     5
1000
EX_NORM
1070
    41
1040
12.0
1070
   341
1005
78
1002
}
  0
TEXT
  5
4EC
330
1F
100
AcDbEntity
  8
Ｓ_１_１
  6
CONTINUOUS
 62
     2
100
AcDbText
 10
173.4281360562333
 20
987.98001914827
 30
0.0
 40
13.85161662817552
  1
C
 50
314.9999999999998
 41
0.9992307692307728
  7
EXCADTTF1
 72
     5
 11
179.7920970869122
 21
981.616058117591
 31
0.0
100
AcDbText
  0
TEXT
  5
4ED
330
1F
100
AcDbEntity
  8
Ｓ_１_１
  6
CONTINUOUS
 62
     2
100
AcDbText
 10
179.7920970869122
 20
981.616058117591
 30
0.0
 40
13.85161662817552
  1
70
 50
315.0
 41
0.9992307692307685
  7
EXCADTTF1
 72
     5
 11
192.5200191482701
 21
968.8881360562332
 31
0.0
100
AcDbText
  0
LEADER
  5
4EE
330
1F
100
AcDbEntity
  8
Ｓ_１_１
  6
CONTINUOUS
 62
     2
100
AcDbLeader
  3
ISO-25
 76
     2
 10
205.0000000000009
 20
949.9999999999998
 30
0.0
 10
168.5000000000002
 20
986.5000000000001
 30
0.0
1001
ACAD
1000
DSTYLE
1002
{
1070
     5
1000
EX_NORM
1070
    41
1040
12.0
1070
   341
1005
78
1002
}
  0
TEXT
  5
4EF
330
1F
100
AcDbEntity
  8
Ｓ_１_１
  6
CONTINUOUS
 62
     2
100
AcDbText
 10
623.4999808517302
 20
984.9081360562332
 30
0.0
 40
13.85161662817552
  1
C
 50
45.0
 41
0.9992307692307774
  7
EXCADTTF1
 72
     5
 11
629.8639418824092
 21
991.2720970869121
 31
0.0
100
AcDbText
  0
TEXT
  5
4F0
330
1F
100
AcDbEntity
  8
Ｓ_１_１
  6
CONTINUOUS
 62
     2
100
AcDbText
 10
629.8639418824092
 20
991.2720970869121
 30
0.0
 40
13.85161662817552
  1
70
 50
45.0
 41
0.9992307692307685
  7
EXCADTTF1
 72
     5
 11
642.5918639437671
 21
1004.00001914827
 31
0.0
100
AcDbText
  0
LEADER
  5
4F1
330
1F
100
AcDbEntity
  8
Ｓ_１_１
  6
CONTINUOUS
 62
     2
100
AcDbLeader
  3
ISO-25
 76
     2
 10
595.0
 20
949.9999999999991
 30
0.0
 10
647.3000000000003
 20
1002.3
 30
0.0
1001
ACAD
1000
DSTYLE
1002
{
1070
     5
1000
EX_NORM
1070
    41
1040
12.0
1070
   341
1005
78
1002
}
  0
DIMENSION
  5
4F2
330
1F
100
AcDbEntity
  8
Ｓ_１_１
  6
CONTINUOUS
 62
     2
100
AcDbDimension
  2
*D18
 10
400.0
 20
850.0
 30
0.0
 11
354.0000000000001
 21
861.0
 31
0.0
 70
   160
  3
ISO-25
100
AcDbAlignedDimension
 13
375.0
 23
805.0
 33
0.0
 14
400.0
 24
775.0
 34
0.0
100
AcDbRotatedDimension
1001
ACAD
1000
DSTYLE
1002
{
1070
   270
1070
     2
1070
     6
1000
EX_NORM
1070
     7
1000
EX_BCIR
1070
    41
1040
12.0
1070
    42
1040
6.0
1070
    44
1040
4.0
1070
    73
1070
     0
1070
    74
1070
     0
1070
    75
1070
     0
1070
    76
1070
     1
1070
    77
1070
     1
1070
    78
1070
     8
1070
   140
1040
13.85161662817552
1070
   147
1040
0.0
1070
   173
1070
     1
1070
   176
1070
     2
1070
   177
1070
     2
1070
   178
1070
     2
1070
   271
1070
     2
1070
   277
1070
     2
1070
   279
1070
     2
1070
   280
1070
     1
1070
   287
1070
     5
1070
   340
1005
4BD
1002
}
  0
DIMENSION
  5
4FE
330
1F
100
AcDbEntity
  8
Ｓ_１_１
  6
CONTINUOUS
 62
     2
100
AcDbDimension
  2
*D19
 10
400.0
 20
850.0
 30
0.0
 11
446.0000000000003
 21
861.0
 31
0.0
 70
   160
  3
ISO-25
100
AcDbAlignedDimension
 13
425.0
 23
805.0
 33
0.0
 14
400.0
 24
775.0
 34
0.0
100
AcDbRotatedDimension
1001
ACAD
1000
DSTYLE
1002
{
1070
   270
1070
     2
1070
     6
1000
EX_NORM
1070
     7
1000
EX_BCIR
1070
    41
1040
12.0
1070
    42
1040
6.0
1070
    44
1040
4.0
1070
    73
1070
     0
1070
    74
1070
     0
1070
    75
1070
     0
1070
    76
1070
     1
1070
    77
1070
     1
1070
    78
1070
     8
1070
   140
1040
13.85161662817552
1070
   147
1040
0.0
1070
   173
1070
     1
1070
   176
1070
     2
1070
   177
1070
     2
1070
   178
1070
     2
1070
   271
1070
     2
1070
   277
1070
     2
1070
   279
1070
     2
1070
   280
1070
     1
1070
   287
1070
     5
1070
   340
1005
4BD
1002
}
  0
DIMENSION
  5
50A
330
1F
100
AcDbEntity
  8
Ｓ_１_１
  6
CONTINUOUS
 62
     2
100
AcDbDimension
  2
*D20
 10
375.0000000000003
 20
774.9999999999957
 30
0.0
 11
308.0016324825729
 21
723.557981668677
 31
0.0
 70
   164
  3
ISO-25
100
AcDbRadialDimension
 15
256.5596141512487
 25
656.5596141512539
 35
0.0
 40
0.0
1001
ACAD
1000
DSTYLE
1002
{
1070
   270
1070
     2
1070
     6
1000
EX_BCIR
1070
     7
1000
EX_NORM
1070
    41
1040
12.0
1070
    73
1070
     0
1070
    74
1070
     0
1070
    77
1070
     1
1070
    78
1070
     8
1070
   140
1040
13.85161662817552
1070
   147
1040
0.0
1070
   173
1070
     1
1070
   176
1070
     2
1070
   177
1070
     2
1070
   178
1070
     2
1070
   271
1070
     2
1070
   277
1070
     2
1070
   279
1070
     2
1070
   280
1070
     0
1070
   287
1070
     5
1070
   340
1005
4BD
1002
}
  0
DIMENSION
  5
513
330
1F
100
AcDbEntity
  8
Ｓ_１_１
  6
CONTINUOUS
 62
     2
100
AcDbDimension
  2
*D21
 10
425.0000000000003
 20
774.9999999999959
 30
0.0
 11
491.9983675174267
 21
723.5579816686759
 31
0.0
 70
   164
  3
ISO-25
100
AcDbRadialDimension
 15
543.4403858487494
 25
656.5596141512516
 35
0.0
 40
0.0
1001
ACAD
1000
DSTYLE
1002
{
1070
   270
1070
     2
1070
     6
1000
EX_BCIR
1070
     7
1000
EX_NORM
1070
    41
1040
12.0
1070
    73
1070
     0
1070
    74
1070
     0
1070
    77
1070
     1
1070
    78
1070
     8
1070
   140
1040
13.85161662817552
1070
   147
1040
0.0
1070
   173
1070
     1
1070
   176
1070
     2
1070
   177
1070
     2
1070
   178
1070
     2
1070
   271
1070
     2
1070
   277
1070
     2
1070
   279
1070
     2
1070
   280
1070
     0
1070
   287
1070
     5
1070
   340
1005
4BD
1002
}
  0
LINE
  5
51C
330
1F
100
AcDbEntity
  8
Ｓ_１_１
  6
CONTINUOUS
 62
     2
100
AcDbLine
 10
207.6507134641298
 20
375.684798552039
 30
0.0
 11
218.7326200199913
 21
361.5006049871183
 31
0.0
  0
TEXT
  5
51D
330
1F
100
AcDbEntity
  8
Ｓ_１_１
  6
CONTINUOUS
 62
     4
100
AcDbText
 10
241.3468459379934
 20
378.7873806463331
 30
0.0
 40
13.85161662817552
  1
Ra 6.3
 50
7.999999999999989
 41
0.9992307692307694
  7
EXCADTTF1
 72
     5
 11
294.8213216500382
 21
386.3027280981766
 31
0.0
100
AcDbText
  0
LINE
  5
51E
330
1F
100
AcDbEntity
  8
Ｓ_１_１
  6
CONTINUOUS
 62
     2
100
AcDbLine
 10
232.218457382964
 20
394.8792237515215
 30
0.0
 11
293.6150776449397
 21
403.5079560110453
 31
0.0
  0
LINE
  5
51F
330
1F
100
AcDbEntity
  8
Ｓ_１_１
  6
CONTINUOUS
 62
     2
100
AcDbLine
 10
232.2184573829626
 20
394.8792237515229
 30
0.0
 11
218.7326200199922
 21
361.5006049871179
 31
0.0
  0
LINE
  5
520
330
1F
100
AcDbEntity
  8
Ｓ_１_１
  6
CONTINUOUS
 62
     2
100
AcDbLine
 10
207.6507134641298
 20
375.684798552039
 30
0.0
 11
225.4755387014774
 21
378.1899143693204
 31
0.0
  0
DIMENSION
  5
521
330
1F
100
AcDbEntity
  8
Ｓ_１_１
  6
CONTINUOUS
 62
     2
100
AcDbDimension
  2
*D22
 10
500.0
 20
425.0
 30
0.0
 11
400.0
 21
436.0
 31
0.0
 70
   160
  3
ISO-25
100
AcDbAlignedDimension
 13
300.0
 23
354.0
 33
0.0
 14
500.0
 24
353.2
 34
0.0
100
AcDbRotatedDimension
1001
ACAD
1000
DSTYLE
1002
{
1070
   270
1070
     2
1070
     6
1000
EX_NORM
1070
     7
1000
EX_NORM
1070
    41
1040
12.0
1070
    42
1040
6.0
1070
    44
1040
4.0
1070
    73
1070
     0
1070
    74
1070
     0
1070
    75
1070
     0
1070
    76
1070
     0
1070
    77
1070
     1
1070
    78
1070
     8
1070
   140
1040
13.85161662817552
1070
   147
1040
0.0
1070
   173
1070
     1
1070
   176
1070
     2
1070
   177
1070
     2
1070
   178
1070
     2
1070
   271
1070
     2
1070
   277
1070
     2
1070
   279
1070
     2
1070
   280
1070
     0
1070
   287
1070
     5
1070
   340
1005
4BD
1002
}
  0
LEADER
  5
52E
330
1F
100
AcDbEntity
  8
Ｓ_１_１
  6
CONTINUOUS
 62
     2
100
AcDbLeader
  3
ISO-25
 76
     4
 10
481.5745436364138
 20
369.8793301241367
 30
0.0
 10
443.7099407303298
 20
228.5667082702
 30
0.0
 10
437.4086312039198
 20
252.0835155769901
 30
0.0
 10
399.9999999999999
 20
200.0000000000002
 30
0.0
1001
ACAD
1000
DSTYLE
1002
{
1070
     5
1000
EX_NORM
1070
    41
1040
12.0
1070
   341
1005
78
1002
}
  0
TEXT
  5
52F
330
1F
100
AcDbEntity
  8
Ｓ_１_１
  6
CONTINUOUS
 62
     4
100
AcDbText
 10
445.4938539347303
 20
262.0338366577448
 30
0.0
 40
13.85161662817552
  1
SR1570
 50
75.0000000000001
 41
0.9992307692307696
  7
EXCADTTF1
 72
     5
 11
459.4700823702663
 21
314.1938312773545
 31
0.0
100
AcDbText
  0
TEXT
  5
530
330
1F
100
AcDbEntity
  8
Ｓ_１_１
  6
CONTINUOUS
 62
     4
100
AcDbText
 10
1245.49385393473
 20
262.0338366577448
 30
0.0
 40
13.85161662817552
  1
SR1570
 50
75.00000000000006
 41
0.9992307692307697
  7
EXCADTTF1
 72
     5
 11
1259.470082370266
 21
314.1938312773545
 31
0.0
100
AcDbText
  0
LEADER
  5
531
330
1F
100
AcDbEntity
  8
Ｓ_１_１
  6
CONTINUOUS
 62
     2
100
AcDbLeader
  3
ISO-25
 76
     4
 10
1277.080330939485
 20
353.1066999991731
 30
0.0
 10
1243.70994073033
 20
228.5667082702
 30
0.0
 10
1237.40863120392
 20
252.0835155769901
 30
0.0
 10
1200.0
 20
200.0000000000002
 30
0.0
1001
ACAD
1000
DSTYLE
1002
{
1070
     5
1000
EX_NORM
1070
    41
1040
12.0
1070
   341
1005
78
1002
}
  0
LEADER
  5
532
330
1F
100
AcDbEntity
  8
Ｓ_１_１
  6
CONTINUOUS
 62
     2
100
AcDbLeader
  3
ISO-25
 76
     3
 10
498.7999999999976
 20
337.000000000003
 30
0.0
 10
533.5692928173033
 20
276.7778182971776
 30
0.0
 10
610.7999999999948
 20
276.7778182971776
 30
0.0
1001
ACAD
1000
DSTYLE
1002
{
1070
     5
1000
EX_NORM
1070
    41
1040
12.0
1070
   341
1005
78
1002
}
  0
LINE
  5
533
330
1F
100
AcDbEntity
  8
Ｓ_１_１
  6
CONTINUOUS
 62
     2
100
AcDbLine
 10
543.7999999999964
 20
292.3662755652977
 30
0.0
 11
561.799999999996
 21
292.3662755652977
 31
0.0
  0
LINE
  5
534
330
1F
100
AcDbEntity
  8
Ｓ_１_１
  6
CONTINUOUS
 62
     2
100
AcDbLine
 10
543.7999999999964
 20
292.3662755652977
 30
0.0
 11
552.799999999996
 21
276.7778182971779
 31
0.0
  0
LINE
  5
535
330
1F
100
AcDbEntity
  8
Ｓ_１_１
  6
CONTINUOUS
 62
     2
100
AcDbLine
 10
570.7999999999946
 20
307.9547328334181
 30
0.0
 11
552.7999999999971
 21
276.7778182971772
 31
0.0
  0
TEXT
  5
536
330
1F
100
AcDbEntity
  8
Ｓ_１_１
  6
CONTINUOUS
 62
     4
100
AcDbText
 10
577.5999999999957
 20
290.7490682971775
 30
0.0
 40
13.85161662817552
  1
Ra 1.6
 41
0.9992307692307693
  7
EXCADTTF1
 72
     5
 11
631.5999999999957
 21
290.7490682971775
 31
0.0
100
AcDbText
  0
LEADER
  5
537
330
1F
100
AcDbEntity
  8
Ｓ_１_１
  6
CONTINUOUS
 62
     2
100
AcDbLeader
  3
ISO-25
 76
     3
 10
1320.968233350655
 20
350.3327718156459
 30
0.0
 10
1366.622767699987
 20
271.2567987266477
 30
0.0
 10
1453.712145836385
 20
271.2567987266477
 30
0.0
1001
ACAD
1000
DSTYLE
1002
{
1070
     5
1000
EX_NORM
1070
    41
1040
12.0
1070
   341
1005
78
1002
}
  0
LINE
  5
538
330
1F
100
AcDbEntity
  8
Ｓ_１_１
  6
CONTINUOUS
 62
     2
100
AcDbLine
 10
1379.112145836387
 20
286.8452559947675
 30
0.0
 11
1397.112145836386
 21
286.8452559947677
 31
0.0
  0
LINE
  5
539
330
1F
100
AcDbEntity
  8
Ｓ_１_１
  6
CONTINUOUS
 62
     2
100
AcDbLine
 10
1379.112145836387
 20
286.8452559947675
 30
0.0
 11
1388.112145836386
 21
271.2567987266477
 31
0.0
  0
LINE
  5
53A
330
1F
100
AcDbEntity
  8
Ｓ_１_１
  6
CONTINUOUS
 62
     2
100
AcDbLine
 10
1406.112145836385
 20
302.433713262888
 30
0.0
 11
1388.112145836388
 21
271.2567987266473
 31
0.0
  0
LINE
  5
53B
330
1F
100
AcDbEntity
  8
Ｓ_１_１
  6
CONTINUOUS
 62
     2
100
AcDbLine
 10
1406.112145836386
 20
302.4337132628868
 30
0.0
 11
1468.112145836385
 21
302.4337132628868
 31
0.0
  0
TEXT
  5
53C
330
1F
100
AcDbEntity
  8
Ｓ_１_１
  6
CONTINUOUS
 62
     4
100
AcDbText
 10
1412.912145836386
 20
285.2280487266473
 30
0.0
 40
13.85161662817552
  1
Ra 6.3
 41
0.9992307692307693
  7
EXCADTTF1
 72
     5
 11
1466.912145836386
 21
285.2280487266473
 31
0.0
100
AcDbText
  0
DIMENSION
  5
53D
330
1F
100
AcDbEntity
  8
Ｓ_１_１
  6
CONTINUOUS
 62
     2
100
AcDbDimension
  2
*D23
 10
700.0
 20
337.0
 30
0.0
 11
689.0000000000001
 21
303.9999999999998
 31
0.0
 70
   160
  3
ISO-25
100
AcDbAlignedDimension
 13
628.0
 23
325.0
 33
0.0
 14
630.0
 24
337.0
 34
0.0
 50
90.0
100
AcDbRotatedDimension
1001
ACAD
1000
DSTYLE
1002
{
1070
   270
1070
     2
1070
     6
1000
EX_NORM
1070
     7
1000
EX_NORM
1070
    41
1040
12.0
1070
    42
1040
6.0
1070
    44
1040
4.0
1070
    73
1070
     0
1070
    74
1070
     0
1070
    75
1070
     0
1070
    76
1070
     0
1070
    77
1070
     1
1070
    78
1070
     8
1070
   140
1040
13.85161662817552
1070
   147
1040
0.0
1070
   173
1070
     1
1070
   176
1070
     2
1070
   177
1070
     2
1070
   178
1070
     2
1070
   271
1070
     2
1070
   277
1070
     2
1070
   279
1070
     2
1070
   280
1070
     1
1070
   287
1070
     5
1070
   340
1005
4BD
1002
}
  0
DIMENSION
  5
54C
330
1F
100
AcDbEntity
  8
Ｓ_１_１
  6
CONTINUOUS
 62
     2
100
AcDbDimension
  2
*D24
 10
725.0
 20
371.9999999999999
 30
0.0
 11
714.0
 21
348.5
 31
0.0
 70
   160
  3
ISO-25
100
AcDbAlignedDimension
 13
628.0
 23
325.0
 33
0.0
 14
400.0
 24
372.0
 34
0.0
 50
90.0
100
AcDbRotatedDimension
1001
ACAD
1000
DSTYLE
1002
{
1070
   270
1070
     2
1070
     6
1000
EX_NORM
1070
     7
1000
EX_NORM
1070
    41
1040
12.0
1070
    42
1040
6.0
1070
    44
1040
4.0
1070
    73
1070
     0
1070
    74
1070
     0
1070
    75
1070
     0
1070
    76
1070
     0
1070
    77
1070
     1
1070
    78
1070
     8
1070
   140
1040
13.85161662817552
1070
   147
1040
0.0
1070
   173
1070
     1
1070
   176
1070
     2
1070
   177
1070
     2
1070
   178
1070
     2
1070
   271
1070
     2
1070
   277
1070
     2
1070
   279
1070
     2
1070
   280
1070
     0
1070
   287
1070
     5
1070
   340
1005
4BD
1002
}
  0
ARC
  5
559
330
1F
100
AcDbEntity
  8
Ｓ_１_１
  6
CONTINUOUS
 62
     3
100
AcDbCircle
 10
1200.000000000033
 20
-1214.99999999999
 30
0.0
 40
1570.0
100
AcDbArc
 50
81.5760339342005
 51
90.0000000000017
  0
DIMENSION
  5
55A
330
1F
100
AcDbEntity
  8
Ｓ_１_１
  6
CONTINUOUS
 62
     2
100
AcDbDimension
  2
*D25
 10
1500.0
 20
375.0
 30
0.0
 11
1489.0
 21
355.0
 31
0.0
 70
   160
  3
ISO-25
100
AcDbAlignedDimension
 13
1430.0
 23
335.0
 33
0.0
 14
1428.0
 24
375.0
 34
0.0
 50
90.0
100
AcDbRotatedDimension
1001
ACAD
1000
DSTYLE
1002
{
1070
   270
1070
     2
1070
     6
1000
EX_NORM
1070
     7
1000
EX_NORM
1070
    41
1040
12.0
1070
    42
1040
6.0
1070
    44
1040
4.0
1070
    73
1070
     0
1070
    74
1070
     0
1070
    75
1070
     0
1070
    76
1070
     0
1070
    77
1070
     1
1070
    78
1070
     8
1070
   140
1040
13.85161662817552
1070
   147
1040
0.0
1070
   173
1070
     1
1070
   176
1070
     2
1070
   177
1070
     2
1070
   178
1070
     2
1070
   271
1070
     2
1070
   277
1070
     2
1070
   279
1070
     2
1070
   280
1070
     0
1070
   287
1070
     5
1070
   340
1005
4BD
1002
}
  0
DIMENSION
  5
567
330
1F
100
AcDbEntity
  8
Ｓ_１_１
  6
CONTINUOUS
 62
     2
100
AcDbDimension
  2
*D26
 10
1525.0
 20
985.0
 30
0.0
 11
1514.0
 21
774.99999999998
 31
0.0
 70
   160
  3
ISO-25
100
AcDbAlignedDimension
 13
1360.0
 23
564.99999999996
 33
0.0
 14
1360.0
 24
985.0
 34
0.0
 50
90.0
100
AcDbRotatedDimension
1001
ACAD
1000
DSTYLE
1002
{
1070
   270
1070
     2
1070
     6
1000
EX_NORM
1070
     7
1000
EX_NORM
1070
    41
1040
12.0
1070
    42
1040
6.0
1070
    44
1040
4.0
1070
    73
1070
     0
1070
    74
1070
     0
1070
    75
1070
     0
1070
    76
1070
     0
1070
    77
1070
     1
1070
    78
1070
     8
1070
   140
1040
13.85161662817552
1070
   147
1040
0.0
1070
   173
1070
     1
1070
   176
1070
     2
1070
   177
1070
     2
1070
   178
1070
     2
1070
   271
1070
     2
1070
   277
1070
     2
1070
   279
1070
     2
1070
   280
1070
     0
1070
   287
1070
     5
1070
   340
1005
4BD
1002
}
  0
DIMENSION
  5
574
330
1F
100
AcDbEntity
  8
Ｓ_１_１
  6
CONTINUOUS
 62
     2
100
AcDbDimension
  2
*D27
 10
1430.0
 20
500.0
 30
0.0
 11
1200.00000000001
 21
511.0
 31
0.0
 70
   160
  3
ISO-25
100
AcDbAlignedDimension
 13
970.00000000002
 23
635.0
 33
0.0
 14
1430.0
 24
635.0
 34
0.0
100
AcDbRotatedDimension
1001
ACAD
1000
DSTYLE
1002
{
1070
   270
1070
     2
1070
     6
1000
EX_NORM
1070
     7
1000
EX_NORM
1070
    41
1040
12.0
1070
    42
1040
6.0
1070
    44
1040
4.0
1070
    73
1070
     0
1070
    74
1070
     0
1070
    75
1070
     0
1070
    76
1070
     0
1070
    77
1070
     1
1070
    78
1070
     8
1070
   140
1040
13.85161662817552
1070
   147
1040
0.0
1070
   173
1070
     1
1070
   176
1070
     2
1070
   177
1070
     2
1070
   178
1070
     2
1070
   271
1070
     2
1070
   277
1070
     2
1070
   279
1070
     2
1070
   280
1070
     0
1070
   287
1070
     5
1070
   340
1005
4BD
1002
}
  0
TEXT
  5
581
330
1F
100
AcDbEntity
  8
Ｓ_１_１
  6
CONTINUOUS
 62
     2
100
AcDbText
 10
947.0999808517299
 20
548.5081360562332
 30
0.0
 40
13.85161662817552
  1
C
 50
45.0
 41
0.9992307692307774
  7
EXCADTTF1
 72
     5
 11
953.4639418824089
 21
554.8720970869122
 31
0.0
100
AcDbText
  0
TEXT
  5
582
330
1F
100
AcDbEntity
  8
Ｓ_１_１
  6
CONTINUOUS
 62
     2
100
AcDbText
 10
953.4639418824089
 20
554.8720970869122
 30
0.0
 40
13.85161662817552
  1
70
 50
45.0
 41
0.9992307692307685
  7
EXCADTTF1
 72
     5
 11
966.1918639437667
 21
567.60001914827
 31
0.0
100
AcDbText
  0
LEADER
  5
583
330
1F
100
AcDbEntity
  8
Ｓ_１_１
  6
CONTINUOUS
 62
     2
100
AcDbLeader
  3
ISO-25
 76
     2
 10
1005.0
 20
599.9999999999994
 30
0.0
 10
948.1
 20
543.0999999999999
 30
0.0
1001
ACAD
1000
DSTYLE
1002
{
1070
     5
1000
EX_NORM
1070
    41
1040
12.0
1070
   341
1005
78
1002
}
  0
TEXT
  5
584
330
1F
100
AcDbEntity
  8
Ｓ_１_１
  6
CONTINUOUS
 62
     2
100
AcDbText
 10
1447.408136056233
 20
554.00001914827
 30
0.0
 40
13.85161662817552
  1
C
 50
314.9999999999995
 41
0.9992307692307685
  7
EXCADTTF1
 72
     5
 11
1453.772097086912
 21
547.636058117591
 31
0.0
100
AcDbText
  0
TEXT
  5
585
330
1F
100
AcDbEntity
  8
Ｓ_１_１
  6
CONTINUOUS
 62
     2
100
AcDbText
 10
1453.772097086912
 20
547.636058117591
 30
0.0
 40
13.85161662817552
  1
70
 50
315.0000000000002
 41
0.9992307692307728
  7
EXCADTTF1
 72
     5
 11
1466.50001914827
 21
534.9081360562332
 31
0.0
100
AcDbText
  0
LEADER
  5
586
330
1F
100
AcDbEntity
  8
Ｓ_１_１
  6
CONTINUOUS
 62
     2
100
AcDbLeader
  3
ISO-25
 76
     2
 10
1395.0
 20
599.9999999999999
 30
0.0
 10
1465.7
 20
529.3000000000001
 30
0.0
1001
ACAD
1000
DSTYLE
1002
{
1070
     5
1000
EX_NORM
1070
    41
1040
12.0
1070
   341
1005
78
1002
}
  0
TEXT
  5
587
330
1F
100
AcDbEntity
  8
Ｓ_１_１
  6
CONTINUOUS
 62
     2
100
AcDbText
 10
1423.49998085173
 20
984.9081360562332
 30
0.0
 40
13.85161662817552
  1
C
 50
45.00000000000052
 41
0.9992307692307685
  7
EXCADTTF1
 72
     5
 11
1429.863941882409
 21
991.2720970869121
 31
0.0
100
AcDbText
  0
TEXT
  5
588
330
1F
100
AcDbEntity
  8
Ｓ_１_１
  6
CONTINUOUS
 62
     2
100
AcDbText
 10
1429.863941882409
 20
991.2720970869121
 30
0.0
 40
13.85161662817552
  1
70
 50
44.99999999999974
 41
0.9992307692307728
  7
EXCADTTF1
 72
     5
 11
1442.591863943767
 21
1004.00001914827
 31
0.0
100
AcDbText
  0
LEADER
  5
589
330
1F
100
AcDbEntity
  8
Ｓ_１_１
  6
CONTINUOUS
 62
     2
100
AcDbLeader
  3
ISO-25
 76
     2
 10
1395.0
 20
949.9999999999991
 30
0.0
 10
1447.3
 20
1002.3
 30
0.0
1001
ACAD
1000
DSTYLE
1002
{
1070
     5
1000
EX_NORM
1070
    41
1040
12.0
1070
   341
1005
78
1002
}
  0
TEXT
  5
58A
330
1F
100
AcDbEntity
  8
Ｓ_１_１
  6
CONTINUOUS
 62
     2
100
AcDbText
 10
973.4281360562334
 20
987.98001914827
 30
0.0
 40
13.85161662817552
  1
C
 50
315.0
 41
0.9992307692307774
  7
EXCADTTF1
 72
     5
 11
979.7920970869123
 21
981.616058117591
 31
0.0
100
AcDbText
  0
TEXT
  5
58B
330
1F
100
AcDbEntity
  8
Ｓ_１_１
  6
CONTINUOUS
 62
     2
100
AcDbText
 10
979.7920970869123
 20
981.616058117591
 30
0.0
 40
13.85161662817552
  1
70
 50
315.0
 41
0.9992307692307685
  7
EXCADTTF1
 72
     5
 11
992.5200191482702
 21
968.8881360562332
 31
0.0
100
AcDbText
  0
LEADER
  5
58C
330
1F
100
AcDbEntity
  8
Ｓ_１_１
  6
CONTINUOUS
 62
     2
100
AcDbLeader
  3
ISO-25
 76
     2
 10
1005.000000000001
 20
949.9999999999998
 30
0.0
 10
968.5000000000001
 20
986.5000000000001
 30
0.0
1001
ACAD
1000
DSTYLE
1002
{
1070
     5
1000
EX_NORM
1070
    41
1040
12.0
1070
   341
1005
78
1002
}
  0
DIMENSION
  5
58D
330
1F
100
AcDbEntity
  8
Ｓ_１_１
  6
CONTINUOUS
 62
     2
100
AcDbDimension
  2
*D28
 10
1250.0
 20
375.0
 30
0.0
 11
1239.0
 21
395.9999999999997
 31
0.0
 70
   160
  3
ISO-25
100
AcDbAlignedDimension
 13
1200.0
 23
355.00000000001
 33
0.0
 14
1200.0
 24
375.0
 34
0.0
 50
90.0
100
AcDbRotatedDimension
1001
ACAD
1000
DSTYLE
1002
{
1070
   270
1070
     2
1070
     6
1000
EX_NORM
1070
     7
1000
EX_NORM
1070
    41
1040
12.0
1070
    42
1040
6.0
1070
    44
1040
4.0
1070
    73
1070
     0
1070
    74
1070
     0
1070
    75
1070
     0
1070
    76
1070
     1
1070
    77
1070
     1
1070
    78
1070
     8
1070
   140
1040
13.85161662817552
1070
   147
1040
0.0
1070
   173
1070
     1
1070
   176
1070
     2
1070
   177
1070
     2
1070
   178
1070
     2
1070
   271
1070
     2
1070
   277
1070
     2
1070
   279
1070
     2
1070
   280
1070
     2
1070
   287
1070
     5
1070
   340
1005
4BD
1002
}
  0
TEXT
  5
59B
330
1F
100
AcDbEntity
  8
Ｓ_１_１
  6
CONTINUOUS
 62
     4
100
AcDbText
 10
157.1206896551699
 20
221.53125
 30
0.0
 40
13.85161662817552
  1
硬質クロムメッキ t=0.03
 41
0.9992307692307697
  7
EXCADTTF1
 72
     5
 11
364.1206896551699
 21
221.53125
 31
0.0
100
AcDbText
  0
LEADER
  5
59C
330
1F
100
AcDbEntity
  8
Ｓ_１_１
  6
CONTINUOUS
 62
     2
100
AcDbLeader
  3
ISO-25
 76
     3
 10
427.9999999999973
 20
337.0000000000002
 30
0.0
 10
364.1206896551699
 20
217.0
 30
0.0
 10
156.8406896551699
 20
217.0
 30
0.0
1001
ACAD
1000
DSTYLE
1002
{
1070
     5
1000
EX_NORM
1070
    41
1040
12.0
1070
   341
1005
78
1002
}
  0
DIMENSION
  5
59D
330
1F
100
AcDbEntity
  8
Ｓ_１_１
  6
CONTINUOUS
 62
     2
100
AcDbDimension
  2
*D29
 10
1319.9999999999
 20
425.0
 30
0.0
 11
1199.99999999995
 21
436.0
 31
0.0
 70
   160
  3
ISO-25
100
AcDbAlignedDimension
 13
1080.0
 23
368.0
 33
0.0
 14
1319.9999999999
 24
368.0
 34
0.0
100
AcDbRotatedDimension
1001
ACAD
1000
DSTYLE
1002
{
1070
   270
1070
     2
1070
     6
1000
EX_NORM
1070
     7
1000
EX_NORM
1070
    41
1040
12.0
1070
    42
1040
6.0
1070
    44
1040
4.0
1070
    73
1070
     0
1070
    74
1070
     0
1070
    75
1070
     0
1070
    76
1070
     0
1070
    77
1070
     1
1070
    78
1070
     8
1070
   140
1040
13.85161662817552
1070
   147
1040
0.0
1070
   173
1070
     1
1070
   176
1070
     2
1070
   177
1070
     2
1070
   178
1070
     2
1070
   271
1070
     2
1070
   277
1070
     2
1070
   279
1070
     2
1070
   280
1070
     0
1070
   287
1070
     5
1070
   340
1005
4BD
1002
}
  0
TEXT
  5
5AA
330
1F
100
AcDbEntity
  8
Ｓ_１_１
  6
CONTINUOUS
 62
     4
100
AcDbText
 10
104.48
 20
268.7896014633
 30
0.0
 40
13.85161662817552
  1
2×2-M10ネジ深20
 41
0.9992307692307693
  7
EXCADTTF1
 72
     5
 11
248.48
 21
268.7896014633
 31
0.0
100
AcDbText
  0
LEADER
  5
5AB
330
1F
100
AcDbEntity
  8
Ｓ_１_１
  6
CONTINUOUS
 62
     2
100
AcDbLeader
  3
ISO-25
 76
     3
 10
300.0
 20
341.0
 30
0.0
 10
255.69318855928
 20
264.2583514633
 30
0.0
 10
104.48
 20
264.2583514633
 30
0.0
1001
ACAD
1000
DSTYLE
1002
{
1070
     5
1000
EX_NORM
1070
    41
1040
12.0
1070
   341
1005
78
1002
}
  0
TEXT
  5
5AC
330
1F
100
AcDbEntity
  8
Ｓ_１_１
  6
CONTINUOUS
 62
     4
100
AcDbText
 10
884.48
 20
282.7896014633
 30
0.0
 40
13.85161662817552
  1
2×2-M10ネジ深20
 41
0.9992307692307693
  7
EXCADTTF1
 72
     5
 11
1028.48
 21
282.7896014633
 31
0.0
100
AcDbText
  0
LEADER
  5
5AD
330
1F
100
AcDbEntity
  8
Ｓ_１_１
  6
CONTINUOUS
 62
     2
100
AcDbLeader
  3
ISO-25
 76
     3
 10
1080.0
 20
355.0
 30
0.0
 10
1035.69318855928
 20
278.2583514633
 30
0.0
 10
884.48
 20
278.2583514633
 30
0.0
1001
ACAD
1000
DSTYLE
1002
{
1070
     5
1000
EX_NORM
1070
    41
1040
12.0
1070
   341
1005
78
1002
}
  0
LINE
  5
5AE
330
1F
100
AcDbEntity
  8
Ｓ_１_１
  6
EXLTYPE2
 62
     1
100
AcDbLine
 10
925.0
 20
775.0000000000001
 30
0.0
 11
1475.0
 21
775.0000000000002
 31
0.0
  0
LINE
  5
5AF
330
1F
100
AcDbEntity
  8
Ｓ_１_１
  6
EXLTYPE2
 62
     1
100
AcDbLine
 10
1199.999999999986
 20
1000.0
 30
0.0
 11
1199.999999999986
 21
550.0
 31
0.0
  0
LINE
  5
5B0
330
1F
100
AcDbEntity
  8
Ｓ_１_１
  6
EXLTYPE2
 62
     1
100
AcDbLine
 10
1080.00000000003
 20
992.0027080505099
 30
0.0
 11
1080.00000000003
 21
952.3627080505099
 31
0.0
  0
LINE
  5
5B1
330
1F
100
AcDbEntity
  8
Ｓ_１_１
  6
EXLTYPE2
 62
     1
100
AcDbLine
 10
1320.00000000003
 20
992.0027080505099
 30
0.0
 11
1320.00000000003
 21
952.3627080505099
 31
0.0
  0
LINE
  5
5B2
330
1F
100
AcDbEntity
  8
Ｓ_１_１
  6
EXLTYPE2
 62
     1
100
AcDbLine
 10
1080.00000000003
 20
557.9972919494899
 30
0.0
 11
1080.00000000003
 21
597.6372919494897
 31
0.0
  0
LINE
  5
5B3
330
1F
100
AcDbEntity
  8
Ｓ_１_１
  6
EXLTYPE2
 62
     1
100
AcDbLine
 10
1320.00000000003
 20
557.9972919494899
 30
0.0
 11
1320.00000000003
 21
597.63729194949
 31
0.0
  0
LINE
  5
5B4
330
1F
100
AcDbEntity
  8
Ｓ_１_１
  6
EXLTYPE2
 62
     1
100
AcDbLine
 10
1199.999999999986
 20
400.0
 30
0.0
 11
1199.999999999986
 21
181.6432550000202
 31
0.0
  0
LINE
  5
5B5
330
1F
100
AcDbEntity
  8
Ｓ_１_１
  6
EXLTYPE2
 62
     1
100
AcDbLine
 10
300.0000000000005
 20
561.5401501997001
 30
0.0
 11
300.0000000000005
 21
597.3601501997
 31
0.0
  0
LINE
  5
5B6
330
1F
100
AcDbEntity
  8
Ｓ_１_１
  6
EXLTYPE2
 62
     1
100
AcDbLine
 10
375.0000000000001
 20
805.0000000000001
 30
0.0
 11
375.0000000000001
 21
745.0
 31
0.0
  0
LINE
  5
5B7
330
1F
100
AcDbEntity
  8
Ｓ_１_１
  6
EXLTYPE2
 62
     1
100
AcDbLine
 10
425.0000000000001
 20
805.0000000000001
 30
0.0
 11
425.0000000000001
 21
745.0
 31
0.0
  0
TEXT
  5
5B8
330
1F
100
AcDbEntity
  8
Ｓ_１_１
  6
CONTINUOUS
 62
     4
100
AcDbText
 10
526.6666666666702
 20
1067.864583333334
 30
0.0
 40
13.85161662817552
  1
重量：約43kg
 41
0.9992307692307693
  7
EXCADTTF1
 72
     5
 11
634.6666666666702
 21
1067.864583333334
 31
0.0
100
AcDbText
  0
TEXT
  5
5B9
330
1F
100
AcDbEntity
  8
Ｓ_１_１
  6
CONTINUOUS
 62
     4
100
AcDbText
 10
1486.66666666667
 20
1067.864583333334
 30
0.0
 40
13.85161662817552
  1
重量：約42kg
 41
0.9992307692307693
  7
EXCADTTF1
 72
     5
 11
1594.66666666667
 21
1067.864583333334
 31
0.0
100
AcDbText
  0
ENDSEC
  0
SECTION
  2
OBJECTS
  0
DICTIONARY
  5
C
330
0
100
AcDbDictionary
  3
ACAD_GROUP
350
D
  3
ACAD_LAYOUT
350
1A
  3
ACAD_MATERIAL
350
43
  3
ACAD_MLEADERSTYLE
350
6B
  3
ACAD_MLINESTYLE
350
17
  3
ACAD_PLOTSETTINGS
350
19
  3
ACAD_SCALELIST
350
47
  3
ACAD_VISUALSTYLE
350
2A
  3
ACDBHEADERROUNDTRIPXREC
350
5BA
  3
ACDBVARIABLEDICTIONARY
350
5DB
  0
DICTIONARY
  5
5E6
330
8
100
AcDbDictionary
280
     1
  3
ACAD_XREC_ROUNDTRIP
360
5E7
  0
DICTIONARY
  5
D
102
{ACAD_REACTORS
330
C
102
}
330
C
100
AcDbDictionary
  0
DICTIONARY
  5
1A
102
{ACAD_REACTORS
330
C
102
}
330
C
100
AcDbDictionary
  0
DICTIONARY
  5
43
102
{ACAD_REACTORS
330
C
102
}
330
C
100
AcDbDictionary
  3
BYBLOCK
350
45
  3
BYLAYER
350
44
  3
GLOBAL
350
46
  0
DICTIONARY
  5
6B
102
{ACAD_REACTORS
330
C
102
}
330
C
100
AcDbDictionary
  3
STANDARD
350
6C
  0
DICTIONARY
  5
17
102
{ACAD_REACTORS
330
C
102
}
330
C
100
AcDbDictionary
  3
STANDARD
350
18
  0
DICTIONARY
  5
19
102
{ACAD_REACTORS
330
C
102
}
330
C
100
AcDbDictionary
  0
DICTIONARY
  5
47
102
{ACAD_REACTORS
330
C
102
}
330
C
100
AcDbDictionary
  3
A0
350
48
  3
A1
350
49
  3
A2
350
4A
  3
A3
350
4B
  3
A4
350
4C
  3
A5
350
4D
  3
A6
350
4E
  3
A7
350
4F
  3
A8
350
50
  3
A9
350
51
  3
B0
350
52
  3
B1
350
53
  3
B2
350
54
  3
B3
350
55
  3
B4
350
56
  3
B5
350
57
  3
B6
350
58
  3
B7
350
59
  3
B8
350
5A
  3
B9
350
5B
  3
C0
350
5C
  3
C1
350
5D
  3
C2
350
5E
  3
C3
350
5F
  3
C4
350
60
  3
C5
350
61
  3
C6
350
62
  3
C7
350
63
  3
C8
350
64
  3
C9
350
65
  3
D0
350
66
  3
D1
350
67
  3
D2
350
68
  0
DICTIONARY
  5
2A
102
{ACAD_REACTORS
330
C
102
}
330
C
100
AcDbDictionary
  3
2DWIREFRAME
350
2F
  3
BASIC
350
32
  3
BRIGHTEN
350
36
  3
COLORCHANGE
350
3A
  3
CONCEPTUAL
350
34
  3
DIM
350
35
  3
EDGECOLOROFF
350
3D
  3
FACEPATTERN
350
39
  3
FLAT
350
2B
  3
FLATWITHEDGES
350
2C
  3
GOURAUD
350
2D
  3
GOURAUDWITHEDGES
350
2E
  3
HIDDEN
350
31
  3
JITTEROFF
350
3B
  3
LINEPATTERN
350
38
  3
OVERHANGOFF
350
3C
  3
REALISTIC
350
33
  3
SHADED
350
42
  3
SHADED_WITH_EDGES
350
41
  3
SHADES_OF_GRAY
350
3E
  3
SKETCHY
350
3F
  3
THICKEN
350
37
  3
WIREFRAME
350
30
  3
X-RAY
350
40
  0
DICTIONARY
  5
5BA
102
{ACAD_REACTORS
330
C
102
}
330
C
100
AcDbDictionary
  3
CEPSNID
350
5C4
  3
CEPSNTYPE
350
5C3
  3
DIMSTYLEDATA
350
5DA
  3
FINGERPRINTGUID
350
5C5
  3
HYPERLINKBASE
350
5BD
  3
INSUNITS
350
5C2
  3
LAYOUTDICT
350
5BF
  3
LWETCUNION
350
5C1
  3
PLOTSETDICT
350
5C0
  3
PSVPSCALE
350
5C7
  3
PUCSBASE
350
5CA
  3
PUCSORGBACK
350
5D0
  3
PUCSORGBOTTOM
350
5CC
  3
PUCSORGFRONT
350
5CF
  3
PUCSORGLEFT
350
5CD
  3
PUCSORGRIGHT
350
5CE
  3
PUCSORGTOP
350
5CB
  3
PUCSORTHOREF
350
5C8
  3
PUCSORTHOVIEW
350
5C9
  3
STYLESHEET
350
5BE
  3
TSTACKALIGN
350
5BB
  3
TSTACKSIZE
350
5BC
  3
UCSBASE
350
5D3
  3
UCSORGBACK
350
5D9
  3
UCSORGBOTTOM
350
5D5
  3
UCSORGFRONT
350
5D8
  3
UCSORGLEFT
350
5D6
  3
UCSORGRIGHT
350
5D7
  3
UCSORGTOP
350
5D4
  3
UCSORTHOREF
350
5D1
  3
UCSORTHOVIEW
350
5D2
  3
VERSIONGUID
350
5C6
  0
DICTIONARY
  5
5DB
102
{ACAD_REACTORS
330
C
102
}
330
C
100
AcDbDictionary
  3
CANNOSCALE
350
5E8
  3
CENTEREXE
350
5E2
  3
CENTERLTYPEFILE
350
5E3
  3
CMLEADERSTYLE
350
5DD
  3
CTABLESTYLE
350
5DC
  3
DIMASSOC
350
5E4
  3
HIDETEXT
350
5E5
  3
MSLTSCALE
350
5E9
  3
PSOLHEIGHT
350
5DF
  3
PSOLWIDTH
350
5DE
  0
XRECORD
  5
5E7
102
{ACAD_REACTORS
330
5E6
102
}
330
5E6
100
AcDbXrecord
102
VTR_0.000_0.000_1.000_1.000_VISUALSTYLE
340
2F
102
VTR_0.000_0.000_1.000_1.000_GRIDDISPLAY
 70
     3
102
VTR_0.000_0.000_1.000_1.000_GRIDMAJOR
 70
     5
102
VTR_0.000_0.000_1.000_1.000_DEFAULTLIGHTING
280
     1
102
VTR_0.000_0.000_1.000_1.000_DEFAULTLIGHTINGTYPE
 70
     1
102
VTR_0.000_0.000_1.000_1.000_BRIGHTNESS
141
0.0
102
VTR_0.000_0.000_1.000_1.000_CONTRAST
142
0.0
  0
MATERIAL
  5
45
102
{ACAD_REACTORS
330
43
102
}
102
{ACAD_XDICTIONARY
360
5EC
102
}
330
43
100
AcDbMaterial
  1
BYBLOCK
  0
MATERIAL
  5
44
102
{ACAD_REACTORS
330
43
102
}
102
{ACAD_XDICTIONARY
360
5EA
102
}
330
43
100
AcDbMaterial
  1
BYLAYER
  0
MATERIAL
  5
46
102
{ACAD_REACTORS
330
43
102
}
102
{ACAD_XDICTIONARY
360
5EE
102
}
330
43
100
AcDbMaterial
  1
GLOBAL
  0
ACAD_PROXY_OBJECT
  5
6C
102
{ACAD_REACTORS
330
6B
102
}
330
6B
100
AcDbProxyObject
 90
      499
 91
      505
 93
      610
310
40901902A4063FBFFFFFE0000000000000020400000000000020404214DD185B99185C990000000000000104090141901A00000000000004100000000000000041025764000000000000039000
340
14
340
0
340
11
340
0
 94
        0
1001
ACAD_MLEADERVER
1070
     2
  0
MLINESTYLE
  5
18
102
{ACAD_REACTORS
330
17
102
}
330
17
100
AcDbMlineStyle
  2
Standard
 70
     0
  3

 62
   256
 51
90.0
 52
90.0
 71
     2
 49
0.5
 62
   256
  6
BYLAYER
 49
-0.5
 62
   256
  6
BYLAYER
  0
ACAD_PROXY_OBJECT
  5
48
102
{ACAD_REACTORS
330
47
102
}
330
47
100
AcDbProxyObject
 90
      499
 91
      503
 93
       41
310
903313A31580
  0
ACAD_PROXY_OBJECT
  5
49
102
{ACAD_REACTORS
330
47
102
}
330
47
100
AcDbProxyObject
 90
      499
 91
      503
 93
      105
310
903313A324000000000000004000
  0
ACAD_PROXY_OBJECT
  5
4A
102
{ACAD_REACTORS
330
47
102
}
330
47
100
AcDbProxyObject
 90
      499
 91
      503
 93
      105
310
903313A344000000000000104000
  0
ACAD_PROXY_OBJECT
  5
4B
102
{ACAD_REACTORS
330
47
102
}
330
47
100
AcDbProxyObject
 90
      499
 91
      503
 93
      105
310
903313A354000000000000144000
  0
ACAD_PROXY_OBJECT
  5
4C
102
{ACAD_REACTORS
330
47
102
}
330
47
100
AcDbProxyObject
 90
      499
 91
      503
 93
      105
310
903313A384000000000000204000
  0
ACAD_PROXY_OBJECT
  5
4D
102
{ACAD_REACTORS
330
47
102
}
330
47
100
AcDbProxyObject
 90
      499
 91
      503
 93
      113
310
904313A31304000000000000244000
  0
ACAD_PROXY_OBJECT
  5
4E
102
{ACAD_REACTORS
330
47
102
}
330
47
100
AcDbProxyObject
 90
      499
 91
      503
 93
      113
310
904313A31364000000000000304000
  0
ACAD_PROXY_OBJECT
  5
4F
102
{ACAD_REACTORS
330
47
102
}
330
47
100
AcDbProxyObject
 90
      499
 91
      503
 93
      113
310
904313A32304000000000000344000
  0
ACAD_PROXY_OBJECT
  5
50
102
{ACAD_REACTORS
330
47
102
}
330
47
100
AcDbProxyObject
 90
      499
 91
      503
 93
      113
310
904313A333040000000000003E4000
  0
ACAD_PROXY_OBJECT
  5
51
102
{ACAD_REACTORS
330
47
102
}
330
47
100
AcDbProxyObject
 90
      499
 91
      503
 93
      113
310
904313A34304000000000000444000
  0
ACAD_PROXY_OBJECT
  5
52
102
{ACAD_REACTORS
330
47
102
}
330
47
100
AcDbProxyObject
 90
      499
 91
      503
 93
      113
310
904313A35304000000000000494000
  0
ACAD_PROXY_OBJECT
  5
53
102
{ACAD_REACTORS
330
47
102
}
330
47
100
AcDbProxyObject
 90
      499
 91
      503
 93
      121
310
905313A3130304000000000000594000
  0
ACAD_PROXY_OBJECT
  5
54
102
{ACAD_REACTORS
330
47
102
}
330
47
100
AcDbProxyObject
 90
      499
 91
      503
 93
      105
310
903323A310000000000000010100
  0
ACAD_PROXY_OBJECT
  5
55
102
{ACAD_REACTORS
330
47
102
}
330
47
100
AcDbProxyObject
 90
      499
 91
      503
 93
      105
310
903343A310000000000000410100
  0
ACAD_PROXY_OBJECT
  5
56
102
{ACAD_REACTORS
330
47
102
}
330
47
100
AcDbProxyObject
 90
      499
 91
      503
 93
      105
310
903383A310000000000000810100
  0
ACAD_PROXY_OBJECT
  5
57
102
{ACAD_REACTORS
330
47
102
}
330
47
100
AcDbProxyObject
 90
      499
 91
      503
 93
      113
310
90431303A310000000000000910100
  0
ACAD_PROXY_OBJECT
  5
58
102
{ACAD_REACTORS
330
47
102
}
330
47
100
AcDbProxyObject
 90
      499
 91
      503
 93
      121
310
9053130303A310000000000001650100
  0
ACAD_PROXY_OBJECT
  5
59
102
{ACAD_REACTORS
330
47
102
}
330
47
100
AcDbProxyObject
 90
      499
 91
      503
 93
      257
310
90E312F31323822203D2031272D3022000000000000200FC000000000000284000
  0
ACAD_PROXY_OBJECT
  5
5A
102
{ACAD_REACTORS
330
47
102
}
330
47
100
AcDbProxyObject
 90
      499
 91
      503
 93
      249
310
90D312F363422203D2031272D3022000000000000240FC000000000000284000
  0
ACAD_PROXY_OBJECT
  5
5B
102
{ACAD_REACTORS
330
47
102
}
330
47
100
AcDbProxyObject
 90
      499
 91
      503
 93
      249
310
90D312F333222203D2031272D3022000000000000280FC000000000000284000
  0
ACAD_PROXY_OBJECT
  5
5C
102
{ACAD_REACTORS
330
47
102
}
330
47
100
AcDbProxyObject
 90
      499
 91
      503
 93
      249
310
90D312F313622203D2031272D30220000000000002C0FC000000000000284000
  0
ACAD_PROXY_OBJECT
  5
5D
102
{ACAD_REACTORS
330
47
102
}
330
47
100
AcDbProxyObject
 90
      499
 91
      503
 93
      249
310
90D332F333222203D2031272D30220000000000002E0FC000000000000284000
  0
ACAD_PROXY_OBJECT
  5
5E
102
{ACAD_REACTORS
330
47
102
}
330
47
100
AcDbProxyObject
 90
      499
 91
      503
 93
      241
310
90C312F3822203D2031272D3022000000000000300FC000000000000284000
  0
ACAD_PROXY_OBJECT
  5
5F
102
{ACAD_REACTORS
330
47
102
}
330
47
100
AcDbProxyObject
 90
      499
 91
      503
 93
      249
310
90D332F313622203D2031272D3022000000000000320FC000000000000284000
  0
ACAD_PROXY_OBJECT
  5
60
102
{ACAD_REACTORS
330
47
102
}
330
47
100
AcDbProxyObject
 90
      499
 91
      503
 93
      241
310
90C312F3422203D2031272D3022000000000000340FC000000000000284000
  0
ACAD_PROXY_OBJECT
  5
61
102
{ACAD_REACTORS
330
47
102
}
330
47
100
AcDbProxyObject
 90
      499
 91
      503
 93
      241
310
90C332F3822203D2031272D3022000000000000360FC000000000000284000
  0
ACAD_PROXY_OBJECT
  5
62
102
{ACAD_REACTORS
330
47
102
}
330
47
100
AcDbProxyObject
 90
      499
 91
      503
 93
      241
310
90C312F3222203D2031272D3022000000000000380FC000000000000284000
  0
ACAD_PROXY_OBJECT
  5
63
102
{ACAD_REACTORS
330
47
102
}
330
47
100
AcDbProxyObject
 90
      499
 91
      503
 93
      241
310
90C332F3422203D2031272D30220000000000003A0FC000000000000284000
  0
ACAD_PROXY_OBJECT
  5
64
102
{ACAD_REACTORS
330
47
102
}
330
47
100
AcDbProxyObject
 90
      499
 91
      503
 93
      161
310
90A3122203D2031272D30224000000000000284000
  0
ACAD_PROXY_OBJECT
  5
65
102
{ACAD_REACTORS
330
47
102
}
330
47
100
AcDbProxyObject
 90
      499
 91
      503
 93
      257
310
90E312D312F3222203D2031272D30220000000000003E0FC000000000000284000
  0
ACAD_PROXY_OBJECT
  5
66
102
{ACAD_REACTORS
330
47
102
}
330
47
100
AcDbProxyObject
 90
      499
 91
      503
 93
      225
310
90A3322203D2031272D302200000000000002100000000000000284000
  0
ACAD_PROXY_OBJECT
  5
67
102
{ACAD_REACTORS
330
47
102
}
330
47
100
AcDbProxyObject
 90
      499
 91
      503
 93
      225
310
90A3622203D2031272D302200000000000006100000000000000284000
  0
ACAD_PROXY_OBJECT
  5
68
102
{ACAD_REACTORS
330
47
102
}
330
47
100
AcDbProxyObject
 90
      499
 91
      503
 93
      249
310
90D31272D3022203D2031272D30220000000000000A100000000000000284000
  0
ACAD_PROXY_OBJECT
  5
2F
102
{ACAD_REACTORS
330
2A
102
}
330
2A
100
AcDbProxyObject
 90
      499
 91
      501
 93
      436
310
42CC9915DA5C99599C985B595049028333333333333E33F0000000000000F90107901411070040501600405405064090741402480A0340
1001
ACAD
1000
AcDbSavedByObjectVersion
1070
     0
  0
ACAD_PROXY_OBJECT
  5
32
102
{ACAD_REACTORS
330
2A
102
}
330
2A
100
AcDbProxyObject
 90
      499
 91
      501
 93
      388
310
4150985CDA58D07406404333333333333E33F0000000000000F90107A41107004050150841D405064090741402480A0350
1001
ACAD
1000
AcDbSavedByObjectVersion
1070
     0
  0
ACAD_PROXY_OBJECT
  5
36
102
{ACAD_REACTORS
330
2A
102
}
330
2A
100
AcDbProxyObject
 90
      499
 91
      501
 93
      428
310
42109C9A59DA1D195B90C409028333333333333E33F0000000000000F9010790141107004050150841D405064090741402480A029950
1001
ACAD
1000
AcDbSavedByObjectVersion
1070
     0
  0
ACAD_PROXY_OBJECT
  5
3A
102
{ACAD_REACTORS
330
2A
102
}
330
2A
100
AcDbProxyObject
 90
      499
 91
      501
 93
      452
310
42D0DBDB1BDC90DA185B99D95104090240C333333333333E33F0000000000000F90108901411070040501508421405064090741402480A0350
1001
ACAD
1000
AcDbSavedByObjectVersion
1070
     0
  0
ACAD_PROXY_OBJECT
  5
34
102
{ACAD_REACTORS
330
2A
102
}
330
2A
100
AcDbProxyObject
 90
      499
 91
      501
 93
      500
310
4290DBDB98D95C1D1D585B10940D028333333333333E33F0000000000000F90107902409070040501000000000018199010841D405064090740C02480A0340
1001
ACAD
1000
AcDbSavedByObjectVersion
1070
     0
  0
ACAD_PROXY_OBJECT
  5
35
102
{ACAD_REACTORS
330
2A
102
}
330
2A
100
AcDbProxyObject
 90
      499
 91
      501
 93
      412
310
40D11A5B50B409028333333333333E33F0000000000000F9010790141107004050150841D405064090741402480A02677FFFFFD0
1001
ACAD
1000
AcDbSavedByObjectVersion
1070
     0
  0
ACAD_PROXY_OBJECT
  5
3D
102
{ACAD_REACTORS
330
2A
102
}
330
2A
100
AcDbProxyObject
 90
      499
 91
      501
 93
      452
310
43115919D950DBDB1BDC93D999916409028333333333333E33F0000000000000F9010790141107004050150841D405064090741402480A0350
1001
ACAD
1000
AcDbSavedByObjectVersion
1070
     0
  0
ACAD_PROXY_OBJECT
  5
39
102
{ACAD_REACTORS
330
2A
102
}
330
2A
100
AcDbProxyObject
 90
      499
 91
      501
 93
      444
310
42D19858D95C185D1D195C9B90F409028333333333333E33F0000000000000F9010790141107004050150841D405064090741402480A0350
1001
ACAD
1000
AcDbSavedByObjectVersion
1070
     0
  0
ACAD_PROXY_OBJECT
  5
2B
102
{ACAD_REACTORS
330
2A
102
}
330
2A
100
AcDbProxyObject
 90
      499
 91
      501
 93
      380
310
41119B185D240901404333333333333E33F0000000000000F9010740A907004050150841D405064090741402480A1B50
1001
ACAD
1000
AcDbSavedByObjectVersion
1070
     0
  0
ACAD_PROXY_OBJECT
  5
2C
102
{ACAD_REACTORS
330
2A
102
}
330
2A
100
AcDbProxyObject
 90
      499
 91
      501
 93
      468
310
43519B185D15DA5D1A115919D95CD0140901404333333333333E33F0000000000000F90107409019070040501600405405064090741402480A1B50
1001
ACAD
1000
AcDbSavedByObjectVersion
1070
     0
  0
ACAD_PROXY_OBJECT
  5
2D
102
{ACAD_REACTORS
330
2A
102
}
330
2A
100
AcDbProxyObject
 90
      499
 91
      501
 93
      404
310
41D1DBDD5C985D5910240902404333333333333E33F0000000000000F9010740A9070040501641D405064090741402480A1B50
1001
ACAD
1000
AcDbSavedByObjectVersion
1070
     0
  0
ACAD_PROXY_OBJECT
  5
2E
102
{ACAD_REACTORS
330
2A
102
}
330
2A
100
AcDbProxyObject
 90
      499
 91
      501
 93
      492
310
4411DBDD5C985D5915DA5D1A115919D95CD0340902404333333333333E33F0000000000000F90107409019070040501600405405064090741402480A1B50
1001
ACAD
1000
AcDbSavedByObjectVersion
1070
     0
  0
ACAD_PROXY_OBJECT
  5
31
102
{ACAD_REACTORS
330
2A
102
}
330
2A
100
AcDbProxyObject
 90
      499
 91
      501
 93
      476
310
41921A5919195B90640502408333333333333E33F0000000000000F901079024090700405020000000000001110200405405064090740C02480A0340
1001
ACAD
1000
AcDbSavedByObjectVersion
1070
     0
  0
ACAD_PROXY_OBJECT
  5
3B
102
{ACAD_REACTORS
330
2A
102
}
330
2A
100
AcDbProxyObject
 90
      499
 91
      501
 93
      428
310
42529A5D1D195C93D999914409028333333333333E33F0000000000000F9010790141107004050150A41D405064090741402480A0350
1001
ACAD
1000
AcDbSavedByObjectVersion
1070
     0
  0
ACAD_PROXY_OBJECT
  5
38
102
{ACAD_REACTORS
330
2A
102
}
330
2A
100
AcDbProxyObject
 90
      499
 91
      501
 93
      444
310
42D31A5B995C185D1D195C9B90E409028333333333333E33F0000000000000F9010790141107004050750841D405064090741402483A0350
1001
ACAD
1000
AcDbSavedByObjectVersion
1070
     0
  0
ACAD_PROXY_OBJECT
  5
3C
102
{ACAD_REACTORS
330
2A
102
}
330
2A
100
AcDbProxyObject
 90
      499
 91
      501
 93
      444
310
42D3DD995C9A185B99D3D999915409028333333333333E33F0000000000000F9010790141107004050150941D405064090741402480A0350
1001
ACAD
1000
AcDbSavedByObjectVersion
1070
     0
  0
ACAD_PROXY_OBJECT
  5
33
102
{ACAD_REACTORS
330
2A
102
}
330
2A
100
AcDbProxyObject
 90
      499
 91
      501
 93
      428
310
425499585B1A5CDD1A58D08409038333333333333E33F0000000000000F9010740A907004050150800405405064090740C02480A1B40
1001
ACAD
1000
AcDbSavedByObjectVersion
1070
     0
  0
ACAD_PROXY_OBJECT
  5
42
102
{ACAD_REACTORS
330
2A
102
}
330
2A
100
AcDbProxyObject
 90
      499
 91
      501
 93
      420
310
4194DA1859195911B40902404333333333333E33F0000000000000F9010740A41107004050150800405405064090840C02480A0B40
1001
ACAD
1000
AcDbSavedByObjectVersion
1070
     0
  0
ACAD_PROXY_OBJECT
  5
41
102
{ACAD_REACTORS
330
2A
102
}
330
2A
100
AcDbProxyObject
 90
      499
 91
      501
 93
      516
310
4454DA18591959081DDA5D1A08195919D95CD1A40902404333333333333E33F0000000000000F901074090142907004050250800405405064090740C02480A0B40
1001
ACAD
1000
AcDbSavedByObjectVersion
1070
     0
  0
ACAD_PROXY_OBJECT
  5
3E
102
{ACAD_REACTORS
330
2A
102
}
330
2A
100
AcDbProxyObject
 90
      499
 91
      501
 93
      532
310
4394DA1859195CC81BD98811DC985E5174090240C333333333333E33F0000000000000F901079024090741D01000000000000111010841D405064090740C02480A0340
1001
ACAD
1000
AcDbSavedByObjectVersion
1070
     0
  0
ACAD_PROXY_OBJECT
  5
3F
102
{ACAD_REACTORS
330
2A
102
}
330
2A
100
AcDbProxyObject
 90
      499
 91
      501
 93
      476
310
41D4DAD95D18DA1E51840502408333333333333E33F0000000000000F901079024090741D01000000000000111010B41D405064090741802480A0340
1001
ACAD
1000
AcDbSavedByObjectVersion
1070
     0
  0
ACAD_PROXY_OBJECT
  5
37
102
{ACAD_REACTORS
330
2A
102
}
330
2A
100
AcDbProxyObject
 90
      499
 91
      501
 93
      412
310
41D51A1A58DAD95B90D409028333333333333E33F0000000000000F9010790141107004050150C41D405064090741402480A0350
1001
ACAD
1000
AcDbSavedByObjectVersion
1070
     0
  0
ACAD_PROXY_OBJECT
  5
30
102
{ACAD_REACTORS
330
2A
102
}
330
2A
100
AcDbProxyObject
 90
      499
 91
      501
 93
      420
310
4255DA5C99599C985B595059028333333333333E33F0000000000000F90107901411070040501600405405064090740C02480A0340
1001
ACAD
1000
AcDbSavedByObjectVersion
1070
     0
  0
ACAD_PROXY_OBJECT
  5
40
102
{ACAD_REACTORS
330
2A
102
}
330
2A
100
AcDbProxyObject
 90
      499
 91
      501
 93
      404
310
41560B54985E51940902404000000000000E03F0000000000000F9010740501907004050150841D405064090740C02480A1B40
1001
ACAD
1000
AcDbSavedByObjectVersion
1070
     0
  0
XRECORD
  5
5C4
102
{ACAD_REACTORS
330
5BA
102
}
330
5BA
100
AcDbXrecord
340
0
  0
XRECORD
  5
5C3
102
{ACAD_REACTORS
330
5BA
102
}
330
5BA
100
AcDbXrecord
 90
        0
  0
XRECORD
  5
5DA
102
{ACAD_REACTORS
330
5BA
102
}
330
5BA
100
AcDbXrecord
1000
DSTYLE
1002
{
1070
   340
340
11
1002
}
  0
XRECORD
  5
5C5
102
{ACAD_REACTORS
330
5BA
102
}
330
5BA
100
AcDbXrecord
  1
{2741f7d3-220d-4575-a49f-d49be53b5b49}
  0
XRECORD
  5
5BD
102
{ACAD_REACTORS
330
5BA
102
}
330
5BA
100
AcDbXrecord
  1

  0
XRECORD
  5
5C2
102
{ACAD_REACTORS
330
5BA
102
}
330
5BA
100
AcDbXrecord
 90
        4
  0
XRECORD
  5
5BF
102
{ACAD_REACTORS
330
5BA
102
}
330
5BA
100
AcDbXrecord
340
1A
  0
XRECORD
  5
5C1
102
{ACAD_REACTORS
330
5BA
102
}
330
5BA
100
AcDbXrecord
 90
    10781
  0
XRECORD
  5
5C0
102
{ACAD_REACTORS
330
5BA
102
}
330
5BA
100
AcDbXrecord
340
19
  0
XRECORD
  5
5C7
102
{ACAD_REACTORS
330
5BA
102
}
330
5BA
100
AcDbXrecord
 40
0.0
  0
XRECORD
  5
5CA
102
{ACAD_REACTORS
330
5BA
102
}
330
5BA
100
AcDbXrecord
340
0
  0
XRECORD
  5
5D0
102
{ACAD_REACTORS
330
5BA
102
}
330
5BA
100
AcDbXrecord
 10
0.0
 20
0.0
 30
0.0
  0
XRECORD
  5
5CC
102
{ACAD_REACTORS
330
5BA
102
}
330
5BA
100
AcDbXrecord
 10
0.0
 20
0.0
 30
0.0
  0
XRECORD
  5
5CF
102
{ACAD_REACTORS
330
5BA
102
}
330
5BA
100
AcDbXrecord
 10
0.0
 20
0.0
 30
0.0
  0
XRECORD
  5
5CD
102
{ACAD_REACTORS
330
5BA
102
}
330
5BA
100
AcDbXrecord
 10
0.0
 20
0.0
 30
0.0
  0
XRECORD
  5
5CE
102
{ACAD_REACTORS
330
5BA
102
}
330
5BA
100
AcDbXrecord
 10
0.0
 20
0.0
 30
0.0
  0
XRECORD
  5
5CB
102
{ACAD_REACTORS
330
5BA
102
}
330
5BA
100
AcDbXrecord
 10
0.0
 20
0.0
 30
0.0
  0
XRECORD
  5
5C8
102
{ACAD_REACTORS
330
5BA
102
}
330
5BA
100
AcDbXrecord
340
0
  0
XRECORD
  5
5C9
102
{ACAD_REACTORS
330
5BA
102
}
330
5BA
100
AcDbXrecord
 70
     0
  0
XRECORD
  5
5BE
102
{ACAD_REACTORS
330
5BA
102
}
330
5BA
100
AcDbXrecord
  1

  0
XRECORD
  5
5BB
102
{ACAD_REACTORS
330
5BA
102
}
330
5BA
100
AcDbXrecord
 90
        1
  0
XRECORD
  5
5BC
102
{ACAD_REACTORS
330
5BA
102
}
330
5BA
100
AcDbXrecord
 90
       70
  0
XRECORD
  5
5D3
102
{ACAD_REACTORS
330
5BA
102
}
330
5BA
100
AcDbXrecord
340
0
  0
XRECORD
  5
5D9
102
{ACAD_REACTORS
330
5BA
102
}
330
5BA
100
AcDbXrecord
 10
0.0
 20
0.0
 30
0.0
  0
XRECORD
  5
5D5
102
{ACAD_REACTORS
330
5BA
102
}
330
5BA
100
AcDbXrecord
 10
0.0
 20
0.0
 30
0.0
  0
XRECORD
  5
5D8
102
{ACAD_REACTORS
330
5BA
102
}
330
5BA
100
AcDbXrecord
 10
0.0
 20
0.0
 30
0.0
  0
XRECORD
  5
5D6
102
{ACAD_REACTORS
330
5BA
102
}
330
5BA
100
AcDbXrecord
 10
0.0
 20
0.0
 30
0.0
  0
XRECORD
  5
5D7
102
{ACAD_REACTORS
330
5BA
102
}
330
5BA
100
AcDbXrecord
 10
0.0
 20
0.0
 30
0.0
  0
XRECORD
  5
5D4
102
{ACAD_REACTORS
330
5BA
102
}
330
5BA
100
AcDbXrecord
 10
0.0
 20
0.0
 30
0.0
  0
XRECORD
  5
5D1
102
{ACAD_REACTORS
330
5BA
102
}
330
5BA
100
AcDbXrecord
340
0
  0
XRECORD
  5
5D2
102
{ACAD_REACTORS
330
5BA
102
}
330
5BA
100
AcDbXrecord
 70
     0
  0
XRECORD
  5
5C6
102
{ACAD_REACTORS
330
5BA
102
}
330
5BA
100
AcDbXrecord
  1
{FAEB1C32-E019-11D5-929B-00C0DF256EC4}
  0
DICTIONARYVAR
  5
5E8
102
{ACAD_REACTORS
330
5DB
102
}
330
5DB
100
DictionaryVariables
280
     0
  1
1:1
  0
DICTIONARYVAR
  5
5E2
102
{ACAD_REACTORS
330
5DB
102
}
330
5DB
100
DictionaryVariables
280
     0
  1
3.500000
  0
DICTIONARYVAR
  5
5E3
102
{ACAD_REACTORS
330
5DB
102
}
330
5DB
100
DictionaryVariables
280
     0
  1
acadiso.lin
  0
DICTIONARYVAR
  5
5DD
102
{ACAD_REACTORS
330
5DB
102
}
330
5DB
100
DictionaryVariables
280
     0
  1
Standard
  0
DICTIONARYVAR
  5
5DC
102
{ACAD_REACTORS
330
5DB
102
}
330
5DB
100
DictionaryVariables
280
     0
  1
Standard
  0
DICTIONARYVAR
  5
5E4
102
{ACAD_REACTORS
330
5DB
102
}
330
5DB
100
DictionaryVariables
280
     0
  1
2
  0
DICTIONARYVAR
  5
5E5
102
{ACAD_REACTORS
330
5DB
102
}
330
5DB
100
DictionaryVariables
280
     0
  1
1
  0
DICTIONARYVAR
  5
5E9
102
{ACAD_REACTORS
330
5DB
102
}
330
5DB
100
DictionaryVariables
280
     0
  1
1
  0
DICTIONARYVAR
  5
5DF
102
{ACAD_REACTORS
330
5DB
102
}
330
5DB
100
DictionaryVariables
280
     0
  1
80.000000
  0
DICTIONARYVAR
  5
5DE
102
{ACAD_REACTORS
330
5DB
102
}
330
5DB
100
DictionaryVariables
280
     0
  1
5.000000
  0
DICTIONARY
  5
5EC
330
45
100
AcDbDictionary
280
     1
  3
ACAD_XREC_ROUNDTRIP
360
5ED
  0
DICTIONARY
  5
5EA
330
44
100
AcDbDictionary
280
     1
  3
ACAD_XREC_ROUNDTRIP
360
5EB
  0
DICTIONARY
  5
5EE
330
46
100
AcDbDictionary
280
     1
  3
ACAD_XREC_ROUNDTRIP
360
5EF
  0
XRECORD
  5
5ED
102
{ACAD_REACTORS
330
5EC
102
}
330
5EC
100
AcDbXrecord
102
MATERIAL
148
0.0
149
0.0
149
0.0
 93
        0
 94
      127
282
     0
 72
     1
 77
     1
171
     1
175
     1
179
     1
273
     0
  0
XRECORD
  5
5EB
102
{ACAD_REACTORS
330
5EA
102
}
330
5EA
100
AcDbXrecord
102
MATERIAL
148
0.0
149
0.0
149
0.0
 93
        0
 94
      127
282
     0
 72
     1
 77
     1
171
     1
175
     1
179
     1
273
     0
  0
XRECORD
  5
5EF
102
{ACAD_REACTORS
330
5EE
102
}
330
5EE
100
AcDbXrecord
102
MATERIAL
148
0.0
149
0.0
149
0.0
 93
        0
 94
      127
282
     0
 72
     1
 77
     1
171
     1
175
     1
179
     1
273
     0
  0
ENDSEC
  0
EOF
