  0
SECTION
  2
HEADER
  9
$ACADVER
  1
AC1014
  9
$ACADMAINTVER
 70
     9
  9
$DWGCODEPAGE
  3
ANSI_932
  9
$INSBASE
 10
0.0
 20
0.0
 30
0.0
  9
$EXTMIN
 10
50.0
 20
50.0
 30
0.0
  9
$EXTMAX
 10
2050.0
 20
1435.0
 30
0.0
  9
$LIMMIN
 10
0.0
 20
0.0
  9
$LIMMAX
 10
420.0
 20
297.0
  9
$ORTHOMODE
 70
     0
  9
$REGENMODE
 70
     1
  9
$FILLMODE
 70
     1
  9
$QTEXTMODE
 70
     0
  9
$MIRRTEXT
 70
     1
  9
$DRAGMODE
 70
     2
  9
$LTSCALE
 40
1.0
  9
$OSMODE
 70
    37
  9
$ATTMODE
 70
     1
  9
$TEXTSIZE
 40
2.5
  9
$TRACEWID
 40
1.0
  9
$TEXTSTYLE
  7
STANDARD
  9
$CLAYER
  8
Ｓ_１_１
  9
$CELTYPE
  6
BYLAYER
  9
$CECOLOR
 62
   256
  9
$CELTSCALE
 40
1.0
  9
$DELOBJ
 70
     1
  9
$DISPSILH
 70
     0
  9
$DIMSCALE
 40
1.0
  9
$DIMASZ
 40
2.5
  9
$DIMEXO
 40
0.625
  9
$DIMDLI
 40
3.75
  9
$DIMRND
 40
0.0
  9
$DIMDLE
 40
0.0
  9
$DIMEXE
 40
1.25
  9
$DIMTP
 40
0.0
  9
$DIMTM
 40
0.0
  9
$DIMTXT
 40
2.5
  9
$DIMCEN
 40
2.5
  9
$DIMTSZ
 40
0.0
  9
$DIMTOL
 70
     0
  9
$DIMLIM
 70
     0
  9
$DIMTIH
 70
     0
  9
$DIMTOH
 70
     0
  9
$DIMSE1
 70
     0
  9
$DIMSE2
 70
     0
  9
$DIMTAD
 70
     1
  9
$DIMZIN
 70
     8
  9
$DIMBLK
  1

  9
$DIMASO
 70
     1
  9
$DIMSHO
 70
     1
  9
$DIMPOST
  1

  9
$DIMAPOST
  1

  9
$DIMALT
 70
     0
  9
$DIMALTD
 70
     3
  9
$DIMALTF
 40
0.03937007874016
  9
$DIMLFAC
 40
1.0
  9
$DIMTOFL
 70
     1
  9
$DIMTVP
 40
0.0
  9
$DIMTIX
 70
     0
  9
$DIMSOXD
 70
     0
  9
$DIMSAH
 70
     0
  9
$DIMBLK1
  1

  9
$DIMBLK2
  1

  9
$DIMSTYLE
  2
ISO-25
  9
$DIMCLRD
 70
     0
  9
$DIMCLRE
 70
     0
  9
$DIMCLRT
 70
     0
  9
$DIMTFAC
 40
1.0
  9
$DIMGAP
 40
0.625
  9
$DIMJUST
 70
     0
  9
$DIMSD1
 70
     0
  9
$DIMSD2
 70
     0
  9
$DIMTOLJ
 70
     0
  9
$DIMTZIN
 70
     8
  9
$DIMALTZ
 70
     0
  9
$DIMALTTZ
 70
     0
  9
$DIMFIT
 70
     3
  9
$DIMUPT
 70
     0
  9
$DIMUNIT
 70
     2
  9
$DIMDEC
 70
     2
  9
$DIMTDEC
 70
     2
  9
$DIMALTU
 70
     2
  9
$DIMALTTD
 70
     3
  9
$DIMTXSTY
  7
STANDARD
  9
$DIMAUNIT
 70
     0
  9
$LUNITS
 70
     2
  9
$LUPREC
 70
     4
  9
$SKETCHINC
 40
1.0
  9
$FILLETRAD
 40
10.0
  9
$AUNITS
 70
     0
  9
$AUPREC
 70
     0
  9
$MENU
  1
.
  9
$ELEVATION
 40
0.0
  9
$PELEVATION
 40
0.0
  9
$THICKNESS
 40
0.0
  9
$LIMCHECK
 70
     0
  9
$CHAMFERA
 40
0.0
  9
$CHAMFERB
 40
0.0
  9
$CHAMFERC
 40
0.0
  9
$CHAMFERD
 40
0.0
  9
$SKPOLY
 70
     0
  9
$TDCREATE
 40
2459585.497847292
  9
$TDUPDATE
 40
2459585.497849248
  9
$TDINDWG
 40
0.0000000116
  9
$TDUSRTIMER
 40
0.0000000116
  9
$USRTIMER
 70
     1
  9
$ANGBASE
 50
0.0
  9
$ANGDIR
 70
     0
  9
$PDMODE
 70
     0
  9
$PDSIZE
 40
0.0
  9
$PLINEWID
 40
0.0
  9
$COORDS
 70
     1
  9
$SPLFRAME
 70
     0
  9
$SPLINETYPE
 70
     6
  9
$SPLINESEGS
 70
     8
  9
$ATTDIA
 70
     0
  9
$ATTREQ
 70
     1
  9
$HANDLING
 70
     1
  9
$HANDSEED
  5
65A
  9
$SURFTAB1
 70
     6
  9
$SURFTAB2
 70
     6
  9
$SURFTYPE
 70
     6
  9
$SURFU
 70
     6
  9
$SURFV
 70
     6
  9
$UCSNAME
  2

  9
$UCSORG
 10
0.0
 20
0.0
 30
0.0
  9
$UCSXDIR
 10
1.0
 20
0.0
 30
0.0
  9
$UCSYDIR
 10
0.0
 20
1.0
 30
0.0
  9
$PUCSNAME
  2

  9
$PUCSORG
 10
0.0
 20
0.0
 30
0.0
  9
$PUCSXDIR
 10
1.0
 20
0.0
 30
0.0
  9
$PUCSYDIR
 10
0.0
 20
1.0
 30
0.0
  9
$USERI1
 70
     0
  9
$USERI2
 70
     0
  9
$USERI3
 70
     0
  9
$USERI4
 70
     0
  9
$USERI5
 70
     0
  9
$USERR1
 40
0.0
  9
$USERR2
 40
0.0
  9
$USERR3
 40
0.0
  9
$USERR4
 40
0.0
  9
$USERR5
 40
0.0
  9
$WORLDVIEW
 70
     1
  9
$SHADEDGE
 70
     3
  9
$SHADEDIF
 70
    70
  9
$TILEMODE
 70
     1
  9
$MAXACTVP
 70
    64
  9
$PINSBASE
 10
0.0
 20
0.0
 30
0.0
  9
$PLIMCHECK
 70
     0
  9
$PEXTMIN
 10
1.000000000000000E+20
 20
1.000000000000000E+20
 30
1.000000000000000E+20
  9
$PEXTMAX
 10
-1.000000000000000E+20
 20
-1.000000000000000E+20
 30
-1.000000000000000E+20
  9
$PLIMMIN
 10
0.0
 20
0.0
  9
$PLIMMAX
 10
420.0
 20
297.0
  9
$UNITMODE
 70
     0
  9
$VISRETAIN
 70
     1
  9
$PLINEGEN
 70
     0
  9
$PSLTSCALE
 70
     1
  9
$TREEDEPTH
 70
  3020
  9
$PICKSTYLE
 70
     1
  9
$CMLSTYLE
  2
STANDARD
  9
$CMLJUST
 70
     0
  9
$CMLSCALE
 40
20.0
  9
$PROXYGRAPHICS
 70
     1
  9
$MEASUREMENT
 70
     1
  0
ENDSEC
  0
SECTION
  2
CLASSES
  0
CLASS
  1
ACDBDICTIONARYWDFLT
  2
AcDbDictionaryWithDefault
  3
ObjectDBX Classes
 90
        0
280
     0
281
     0
  0
CLASS
  1
VISUALSTYLE
  2
AcDbVisualStyle
  3
ObjectDBX Classes
 90
     4095
280
     0
281
     0
  0
CLASS
  1
MATERIAL
  2
AcDbMaterial
  3
ObjectDBX Classes
 90
     1153
280
     0
281
     0
  0
CLASS
  1
SCALE
  2
AcDbScale
  3
ObjectDBX Classes
 90
     1153
280
     0
281
     0
  0
CLASS
  1
TABLESTYLE
  2
AcDbTableStyle
  3
ObjectDBX Classes
 90
     4095
280
     0
281
     0
  0
CLASS
  1
MLEADERSTYLE
  2
AcDbMLeaderStyle
  3
ACDB_MLEADERSTYLE_CLASS
 90
     4095
280
     0
281
     0
  0
CLASS
  1
SUN
  2
AcDbSun
  3
SCENEOE
 90
     1153
280
     0
281
     0
  0
CLASS
  1
DICTIONARYVAR
  2
AcDbDictionaryVar
  3
ObjectDBX Classes
 90
        0
280
     0
281
     0
  0
CLASS
  1
XRECORD
  2
AcDbXrecord
  3
ObjectDBX Classes
 90
        0
280
     0
281
     0
  0
CLASS
  1
LWPOLYLINE
  2
AcDbPolyline
  3
ObjectDBX Classes
 90
        0
280
     0
281
     1
  0
CLASS
  1
HATCH
  2
AcDbHatch
  3
ObjectDBX Classes
 90
        0
280
     0
281
     1
  0
CLASS
  1
ACDBPLACEHOLDER
  2
AcDbPlaceHolder
  3
ObjectDBX Classes
 90
        0
280
     0
281
     0
  0
CLASS
  1
LAYOUT
  2
AcDbLayout
  3
ObjectDBX Classes
 90
        0
280
     0
281
     0
  0
ENDSEC
  0
SECTION
  2
TABLES
  0
TABLE
  2
VPORT
  5
8
102
{ACAD_XDICTIONARY
360
64F
102
}
330
0
100
AcDbSymbolTable
 70
     1
  0
VPORT
  5
29
330
8
100
AcDbSymbolTableRecord
100
AcDbViewportTableRecord
  2
*ACTIVE
 70
     0
 10
0.0
 20
0.0
 11
1.0
 21
1.0
 12
1050.0
 22
742.5
 13
0.0
 23
0.0
 14
10.0
 24
10.0
 15
10.0
 25
10.0
 16
0.0
 26
0.0
 36
1.0
 17
0.0
 27
0.0
 37
0.0
 40
1385.0
 41
1.444043321299639
 42
50.0
 43
0.0
 44
0.0
 50
0.0
 51
0.0
 71
     0
 72
  1000
 73
     1
 74
     3
 75
     0
 76
     0
 77
     0
 78
     0
  0
ENDTAB
  0
TABLE
  2
LTYPE
  5
5
330
0
100
AcDbSymbolTable
 70
     7
  0
LTYPE
  5
14
330
5
100
AcDbSymbolTableRecord
100
AcDbLinetypeTableRecord
  2
BYBLOCK
 70
     0
  3

 72
    65
 73
     0
 40
0.0
  0
LTYPE
  5
15
330
5
100
AcDbSymbolTableRecord
100
AcDbLinetypeTableRecord
  2
BYLAYER
 70
     0
  3

 72
    65
 73
     0
 40
0.0
  0
LTYPE
  5
16
330
5
100
AcDbSymbolTableRecord
100
AcDbLinetypeTableRecord
  2
CONTINUOUS
 70
     0
  3
Solid line
 72
    65
 73
     0
 40
0.0
  0
LTYPE
  5
6E
330
5
100
AcDbSymbolTableRecord
100
AcDbLinetypeTableRecord
  2
EXLTYPE0
 70
     0
  3
破線
 72
    65
 73
     2
 40
4.0
 49
3.0
 74
     0
 49
-1.0
 74
     0
  0
LTYPE
  5
6F
330
5
100
AcDbSymbolTableRecord
100
AcDbLinetypeTableRecord
  2
EXLTYPE1
 70
     0
  3
点線
 72
    65
 73
     2
 40
2.0
 49
1.0
 74
     0
 49
-1.0
 74
     0
  0
LTYPE
  5
70
330
5
100
AcDbSymbolTableRecord
100
AcDbLinetypeTableRecord
  2
EXLTYPE2
 70
     0
  3
一点鎖線
 72
    65
 73
     4
 40
13.0
 49
10.0
 74
     0
 49
-1.0
 74
     0
 49
1.0
 74
     0
 49
-1.0
 74
     0
  0
LTYPE
  5
71
330
5
100
AcDbSymbolTableRecord
100
AcDbLinetypeTableRecord
  2
EXLTYPE3
 70
     0
  3
二点鎖線
 72
    65
 73
     6
 40
15.0
 49
10.0
 74
     0
 49
-1.0
 74
     0
 49
1.0
 74
     0
 49
-1.0
 74
     0
 49
1.0
 74
     0
 49
-1.0
 74
     0
  0
LTYPE
  5
72
330
5
100
AcDbSymbolTableRecord
100
AcDbLinetypeTableRecord
  2
EXLTYPE4
 70
     0
  3
一点鎖線2
 72
    65
 73
     4
 40
3.5
 49
2.0
 74
     0
 49
-0.5
 74
     0
 49
0.5
 74
     0
 49
-0.5
 74
     0
  0
LTYPE
  5
73
330
5
100
AcDbSymbolTableRecord
100
AcDbLinetypeTableRecord
  2
EXLTYPE5
 70
     0
  3
二点鎖線2
 72
    65
 73
     6
 40
4.5
 49
2.0
 74
     0
 49
-0.5
 74
     0
 49
0.5
 74
     0
 49
-0.5
 74
     0
 49
0.5
 74
     0
 49
-0.5
 74
     0
  0
ENDTAB
  0
TABLE
  2
LAYER
  5
2
330
0
100
AcDbSymbolTable
 70
     4
  0
LAYER
  5
10
330
2
100
AcDbSymbolTableRecord
100
AcDbLayerTableRecord
  2
0
 70
     0
 62
     7
  6
CONTINUOUS
  0
LAYER
  5
76
330
2
100
AcDbSymbolTableRecord
100
AcDbLayerTableRecord
  2
図面枠
 70
     4
 62
     7
  6
CONTINUOUS
  0
LAYER
  5
77
330
2
100
AcDbSymbolTableRecord
100
AcDbLayerTableRecord
  2
Ｓ_１_１
 70
     0
 62
     7
  6
CONTINUOUS
  0
LAYER
  5
110
330
2
100
AcDbSymbolTableRecord
100
AcDbLayerTableRecord
  2
DEFPOINTS
 70
     0
 62
     7
  6
CONTINUOUS
  0
ENDTAB
  0
TABLE
  2
STYLE
  5
3
330
0
100
AcDbSymbolTable
 70
     5
  0
STYLE
  5
11
330
3
100
AcDbSymbolTableRecord
100
AcDbTextStyleTableRecord
  2
STANDARD
 70
     0
 40
0.0
 41
1.0
 50
0.0
 71
     0
 42
2.5
  3
monotxt
  4
extfont
  0
STYLE
  5
74
330
3
100
AcDbSymbolTableRecord
100
AcDbTextStyleTableRecord
  2
EXCADSTD
 70
     0
 40
0.0
 41
1.0
 50
0.0
 71
     0
 42
2.5
  3
monotxt
  4
extfont
  0
STYLE
  5
75
330
3
100
AcDbSymbolTableRecord
100
AcDbTextStyleTableRecord
  2
EXCADVERT
 70
     4
 40
0.0
 41
1.0
 50
0.0
 71
     0
 42
2.5
  3
monotxt
  4
extfont
  0
STYLE
  5
DA
330
3
100
AcDbSymbolTableRecord
100
AcDbTextStyleTableRecord
  2
EXCADTTF1
 70
     0
 40
0.0
 41
1.0
 50
0.0
 71
     0
 42
2.5
  3
msgothic.ttc
  4

1001
ACAD
1000
MS Gothic
1071
    32817
  0
STYLE
  5
10E
330
3
100
AcDbSymbolTableRecord
100
AcDbTextStyleTableRecord
  2
EXCADDIM1
 70
     0
 40
0.0
 41
1.0
 50
0.0
 71
     0
 42
2.5
  3
msgothic.ttc
  4

1001
ACAD
1000
MS Gothic
1071
    32817
  0
ENDTAB
  0
TABLE
  2
VIEW
  5
6
330
0
100
AcDbSymbolTable
 70
     0
  0
ENDTAB
  0
TABLE
  2
UCS
  5
7
330
0
100
AcDbSymbolTable
 70
     0
  0
ENDTAB
  0
TABLE
  2
APPID
  5
9
330
0
100
AcDbSymbolTable
 70
     2
  0
APPID
  5
12
330
9
100
AcDbSymbolTableRecord
100
AcDbRegAppTableRecord
  2
ACAD
 70
     0
  0
APPID
  5
659
330
9
100
AcDbSymbolTableRecord
100
AcDbRegAppTableRecord
  2
ACAD_MLEADERVER
 70
     0
  0
ENDTAB
  0
TABLE
  2
DIMSTYLE
  5
A
330
0
100
AcDbSymbolTable
 70
     1
  0
DIMSTYLE
105
27
102
{ACAD_REACTORS
330
10F
330
11D
330
129
330
137
330
142
330
14E
330
15A
330
167
330
174
330
180
330
18B
330
197
330
1A3
330
1B1
330
1BE
330
1C9
330
1D5
330
1E1
330
1EE
330
1F9
330
205
330
211
330
21E
330
22B
330
237
330
244
330
24F
330
25A
330
267
330
273
330
5B4
330
5C4
330
5D5
330
5E2
330
5EF
330
603
102
}
330
A
100
AcDbSymbolTableRecord
100
AcDbDimStyleTableRecord
  2
ISO-25
 70
     0
  3

  4

  5

  6

  7

 40
1.0
 41
2.5
 42
0.625
 43
3.75
 44
1.25
 45
0.0
 46
0.0
 47
0.0
 48
0.0
140
2.5
141
2.5
142
0.0
143
0.03937007874016
144
1.0
145
0.0
146
1.0
147
0.625
 71
     0
 72
     0
 73
     0
 74
     0
 75
     0
 76
     0
 77
     1
 78
     8
170
     0
171
     3
172
     1
173
     0
174
     0
175
     0
176
     0
177
     0
178
     0
270
     2
271
     2
272
     2
273
     2
274
     3
340
11
275
     0
280
     0
281
     0
282
     0
283
     0
284
     8
285
     0
286
     0
287
     5
288
     0
  0
ENDTAB
  0
TABLE
  2
BLOCK_RECORD
  5
1
330
0
100
AcDbSymbolTable
 70
    50
  0
BLOCK_RECORD
  5
1F
330
1
100
AcDbSymbolTableRecord
100
AcDbBlockTableRecord
  2
*MODEL_SPACE
  0
BLOCK_RECORD
  5
1B
330
1
100
AcDbSymbolTableRecord
100
AcDbBlockTableRecord
  2
*PAPER_SPACE
  0
BLOCK_RECORD
  5
78
330
1
100
AcDbSymbolTableRecord
100
AcDbBlockTableRecord
  2
EX_NORM
  0
BLOCK_RECORD
  5
7B
330
1
100
AcDbSymbolTableRecord
100
AcDbBlockTableRecord
  2
EX_BNORM
  0
BLOCK_RECORD
  5
7E
330
1
100
AcDbSymbolTableRecord
100
AcDbBlockTableRecord
  2
EX_BCIR
  0
BLOCK_RECORD
  5
81
330
1
100
AcDbSymbolTableRecord
100
AcDbBlockTableRecord
  2
EX_RCIVIL
  0
BLOCK_RECORD
  5
84
330
1
100
AcDbSymbolTableRecord
100
AcDbBlockTableRecord
  2
EX_SLANT
  0
BLOCK_RECORD
  5
87
330
1
100
AcDbSymbolTableRecord
100
AcDbBlockTableRecord
  2
EX_NONE
  0
BLOCK_RECORD
  5
8A
330
1
100
AcDbSymbolTableRecord
100
AcDbBlockTableRecord
  2
EX_CIVIL
  0
BLOCK_RECORD
  5
8D
330
1
100
AcDbSymbolTableRecord
100
AcDbBlockTableRecord
  2
EX_WCIR
  0
BLOCK_RECORD
  5
90
330
1
100
AcDbSymbolTableRecord
100
AcDbBlockTableRecord
  2
EX_WCIR2
  0
BLOCK_RECORD
  5
93
330
1
100
AcDbSymbolTableRecord
100
AcDbBlockTableRecord
  2
EX_WNORM
  0
BLOCK_RECORD
  5
96
330
1
100
AcDbSymbolTableRecord
100
AcDbBlockTableRecord
  2
EX_NNORM
  0
BLOCK_RECORD
  5
99
330
1
100
AcDbSymbolTableRecord
100
AcDbBlockTableRecord
  2
EX_BBOX
  0
BLOCK_RECORD
  5
9C
330
1
100
AcDbSymbolTableRecord
100
AcDbBlockTableRecord
  2
EX_WBOX
  0
BLOCK_RECORD
  5
9F
330
1
100
AcDbSymbolTableRecord
100
AcDbBlockTableRecord
  2
EX_INTEGRAL
  0
BLOCK_RECORD
  5
111
330
1
100
AcDbSymbolTableRecord
100
AcDbBlockTableRecord
  2
*D15
  0
BLOCK_RECORD
  5
11E
330
1
100
AcDbSymbolTableRecord
100
AcDbBlockTableRecord
  2
*D16
  0
BLOCK_RECORD
  5
12A
330
1
100
AcDbSymbolTableRecord
100
AcDbBlockTableRecord
  2
*D17
  0
BLOCK_RECORD
  5
138
330
1
100
AcDbSymbolTableRecord
100
AcDbBlockTableRecord
  2
*D18
  0
BLOCK_RECORD
  5
143
330
1
100
AcDbSymbolTableRecord
100
AcDbBlockTableRecord
  2
*D19
  0
BLOCK_RECORD
  5
14F
330
1
100
AcDbSymbolTableRecord
100
AcDbBlockTableRecord
  2
*D20
  0
BLOCK_RECORD
  5
15B
330
1
100
AcDbSymbolTableRecord
100
AcDbBlockTableRecord
  2
*D21
  0
BLOCK_RECORD
  5
168
330
1
100
AcDbSymbolTableRecord
100
AcDbBlockTableRecord
  2
*D22
  0
BLOCK_RECORD
  5
175
330
1
100
AcDbSymbolTableRecord
100
AcDbBlockTableRecord
  2
*D23
  0
BLOCK_RECORD
  5
181
330
1
100
AcDbSymbolTableRecord
100
AcDbBlockTableRecord
  2
*D24
  0
BLOCK_RECORD
  5
18C
330
1
100
AcDbSymbolTableRecord
100
AcDbBlockTableRecord
  2
*D25
  0
BLOCK_RECORD
  5
198
330
1
100
AcDbSymbolTableRecord
100
AcDbBlockTableRecord
  2
*D26
  0
BLOCK_RECORD
  5
1A4
330
1
100
AcDbSymbolTableRecord
100
AcDbBlockTableRecord
  2
*D27
  0
BLOCK_RECORD
  5
1B2
330
1
100
AcDbSymbolTableRecord
100
AcDbBlockTableRecord
  2
*D28
  0
BLOCK_RECORD
  5
1BF
330
1
100
AcDbSymbolTableRecord
100
AcDbBlockTableRecord
  2
*D29
  0
BLOCK_RECORD
  5
1CA
330
1
100
AcDbSymbolTableRecord
100
AcDbBlockTableRecord
  2
*D30
  0
BLOCK_RECORD
  5
1D6
330
1
100
AcDbSymbolTableRecord
100
AcDbBlockTableRecord
  2
*D31
  0
BLOCK_RECORD
  5
1E2
330
1
100
AcDbSymbolTableRecord
100
AcDbBlockTableRecord
  2
*D32
  0
BLOCK_RECORD
  5
1EF
330
1
100
AcDbSymbolTableRecord
100
AcDbBlockTableRecord
  2
*D33
  0
BLOCK_RECORD
  5
1FA
330
1
100
AcDbSymbolTableRecord
100
AcDbBlockTableRecord
  2
*D34
  0
BLOCK_RECORD
  5
206
330
1
100
AcDbSymbolTableRecord
100
AcDbBlockTableRecord
  2
*D35
  0
BLOCK_RECORD
  5
212
330
1
100
AcDbSymbolTableRecord
100
AcDbBlockTableRecord
  2
*D36
  0
BLOCK_RECORD
  5
21F
330
1
100
AcDbSymbolTableRecord
100
AcDbBlockTableRecord
  2
*D37
  0
BLOCK_RECORD
  5
22C
330
1
100
AcDbSymbolTableRecord
100
AcDbBlockTableRecord
  2
*D38
  0
BLOCK_RECORD
  5
238
330
1
100
AcDbSymbolTableRecord
100
AcDbBlockTableRecord
  2
*D39
  0
BLOCK_RECORD
  5
245
330
1
100
AcDbSymbolTableRecord
100
AcDbBlockTableRecord
  2
*D40
  0
BLOCK_RECORD
  5
250
330
1
100
AcDbSymbolTableRecord
100
AcDbBlockTableRecord
  2
*D41
  0
BLOCK_RECORD
  5
25B
330
1
100
AcDbSymbolTableRecord
100
AcDbBlockTableRecord
  2
*D42
  0
BLOCK_RECORD
  5
268
330
1
100
AcDbSymbolTableRecord
100
AcDbBlockTableRecord
  2
*D43
  0
BLOCK_RECORD
  5
274
330
1
100
AcDbSymbolTableRecord
100
AcDbBlockTableRecord
  2
*D44
  0
BLOCK_RECORD
  5
5B5
330
1
100
AcDbSymbolTableRecord
100
AcDbBlockTableRecord
  2
*D45
  0
BLOCK_RECORD
  5
5C5
330
1
100
AcDbSymbolTableRecord
100
AcDbBlockTableRecord
  2
*D46
  0
BLOCK_RECORD
  5
5D6
330
1
100
AcDbSymbolTableRecord
100
AcDbBlockTableRecord
  2
*D47
  0
BLOCK_RECORD
  5
5E3
330
1
100
AcDbSymbolTableRecord
100
AcDbBlockTableRecord
  2
*D48
  0
BLOCK_RECORD
  5
5F0
330
1
100
AcDbSymbolTableRecord
100
AcDbBlockTableRecord
  2
*D49
  0
BLOCK_RECORD
  5
604
330
1
100
AcDbSymbolTableRecord
100
AcDbBlockTableRecord
  2
*D50
  0
ENDTAB
  0
ENDSEC
  0
SECTION
  2
BLOCKS
  0
BLOCK
  5
20
330
1F
100
AcDbEntity
  8
0
100
AcDbBlockBegin
  2
*MODEL_SPACE
 70
     0
 10
0.0
 20
0.0
 30
0.0
  3
*MODEL_SPACE
  1

  0
ENDBLK
  5
21
330
1F
100
AcDbEntity
  8
0
100
AcDbBlockEnd
  0
BLOCK
  5
1C
330
1B
100
AcDbEntity
 67
     1
  8
0
100
AcDbBlockBegin
  2
*PAPER_SPACE
 70
     0
 10
0.0
 20
0.0
 30
0.0
  3
*PAPER_SPACE
  1

  0
ENDBLK
  5
1D
330
1B
100
AcDbEntity
 67
     1
  8
0
100
AcDbBlockEnd
  0
BLOCK
  5
79
330
78
100
AcDbEntity
  8
0
100
AcDbBlockBegin
  2
EX_NORM
 70
     0
 10
0.0
 20
0.0
 30
0.0
  3
EX_NORM
  1

  0
LINE
  5
A2
330
78
100
AcDbEntity
  8
0
  6
CONTINUOUS
 62
     0
100
AcDbLine
 10
0.0
 20
0.0
 30
0.0
 11
-1.0
 21
0.0
 31
0.0
  0
LINE
  5
A3
330
78
100
AcDbEntity
  8
0
  6
CONTINUOUS
 62
     0
100
AcDbLine
 10
0.0
 20
0.0
 30
0.0
 11
-1.0
 21
0.166666667
 31
0.0
  0
LINE
  5
A4
330
78
100
AcDbEntity
  8
0
  6
CONTINUOUS
 62
     0
100
AcDbLine
 10
0.0
 20
0.0
 30
0.0
 11
-1.0
 21
-0.166666667
 31
0.0
  0
ENDBLK
  5
7A
330
78
100
AcDbEntity
  8
0
100
AcDbBlockEnd
  0
BLOCK
  5
7C
330
7B
100
AcDbEntity
  8
0
100
AcDbBlockBegin
  2
EX_BNORM
 70
     0
 10
0.0
 20
0.0
 30
0.0
  3
EX_BNORM
  1

  0
LINE
  5
A5
330
7B
100
AcDbEntity
  8
0
  6
CONTINUOUS
 62
     0
100
AcDbLine
 10
0.0
 20
0.0
 30
0.0
 11
-1.0
 21
0.0
 31
0.0
  0
LINE
  5
A6
330
7B
100
AcDbEntity
  8
0
  6
CONTINUOUS
 62
     0
100
AcDbLine
 10
0.0
 20
0.0
 30
0.0
 11
-1.0
 21
0.166666667
 31
0.0
  0
LINE
  5
A7
330
7B
100
AcDbEntity
  8
0
  6
CONTINUOUS
 62
     0
100
AcDbLine
 10
0.0
 20
0.0
 30
0.0
 11
-1.0
 21
-0.166666667
 31
0.0
  0
LINE
  5
A8
330
7B
100
AcDbEntity
  8
0
  6
CONTINUOUS
 62
     0
100
AcDbLine
 10
0.0
 20
0.0
 30
0.0
 11
-1.0
 21
0.083333333
 31
0.0
  0
LINE
  5
A9
330
7B
100
AcDbEntity
  8
0
  6
CONTINUOUS
 62
     0
100
AcDbLine
 10
0.0
 20
0.0
 30
0.0
 11
-1.0
 21
-0.083333333
 31
0.0
  0
LINE
  5
AA
330
7B
100
AcDbEntity
  8
0
  6
CONTINUOUS
 62
     0
100
AcDbLine
 10
-1.0
 20
0.166666667
 30
0.0
 11
-1.0
 21
-0.166666667
 31
0.0
  0
ENDBLK
  5
7D
330
7B
100
AcDbEntity
  8
0
100
AcDbBlockEnd
  0
BLOCK
  5
7F
330
7E
100
AcDbEntity
  8
0
100
AcDbBlockBegin
  2
EX_BCIR
 70
     0
 10
0.0
 20
0.0
 30
0.0
  3
EX_BCIR
  1

  0
LINE
  5
AB
330
7E
100
AcDbEntity
  8
0
  6
CONTINUOUS
 62
     0
100
AcDbLine
 10
0.0
 20
0.0
 30
0.0
 11
-1.0
 21
0.0
 31
0.0
  0
CIRCLE
  5
AC
330
7E
100
AcDbEntity
  8
0
  6
CONTINUOUS
 62
     0
100
AcDbCircle
 10
0.0
 20
0.0
 30
0.0
 40
0.5
  0
CIRCLE
  5
AD
330
7E
100
AcDbEntity
  8
0
  6
CONTINUOUS
 62
     0
100
AcDbCircle
 10
0.0
 20
0.0
 30
0.0
 40
0.25
  0
ENDBLK
  5
80
330
7E
100
AcDbEntity
  8
0
100
AcDbBlockEnd
  0
BLOCK
  5
82
330
81
100
AcDbEntity
  8
0
100
AcDbBlockBegin
  2
EX_RCIVIL
 70
     0
 10
0.0
 20
0.0
 30
0.0
  3
EX_RCIVIL
  1

  0
LINE
  5
AE
330
81
100
AcDbEntity
  8
0
  6
CONTINUOUS
 62
     0
100
AcDbLine
 10
0.0
 20
0.0
 30
0.0
 11
-1.0
 21
0.0
 31
0.0
  0
LINE
  5
AF
330
81
100
AcDbEntity
  8
0
  6
CONTINUOUS
 62
     0
100
AcDbLine
 10
-1.0
 20
-0.25
 30
0.0
 11
0.0
 21
-0.25
 31
0.0
  0
LINE
  5
B0
330
81
100
AcDbEntity
  8
0
  6
CONTINUOUS
 62
     0
100
AcDbLine
 10
-1.0
 20
-0.125
 30
0.0
 11
0.0
 21
-0.125
 31
0.0
  0
ENDBLK
  5
83
330
81
100
AcDbEntity
  8
0
100
AcDbBlockEnd
  0
BLOCK
  5
85
330
84
100
AcDbEntity
  8
0
100
AcDbBlockBegin
  2
EX_SLANT
 70
     0
 10
0.0
 20
0.0
 30
0.0
  3
EX_SLANT
  1

  0
LINE
  5
B1
330
84
100
AcDbEntity
  8
0
  6
CONTINUOUS
 62
     0
100
AcDbLine
 10
0.0
 20
0.0
 30
0.0
 11
-1.0
 21
0.0
 31
0.0
  0
LINE
  5
B2
330
84
100
AcDbEntity
  8
0
  6
CONTINUOUS
 62
     0
100
AcDbLine
 10
0.707106781
 20
0.707106781
 30
0.0
 11
-0.707106781
 21
-0.707106781
 31
0.0
  0
ENDBLK
  5
86
330
84
100
AcDbEntity
  8
0
100
AcDbBlockEnd
  0
BLOCK
  5
88
330
87
100
AcDbEntity
  8
0
100
AcDbBlockBegin
  2
EX_NONE
 70
     0
 10
0.0
 20
0.0
 30
0.0
  3
EX_NONE
  1

  0
LINE
  5
B3
330
87
100
AcDbEntity
  8
0
  6
CONTINUOUS
 62
     0
100
AcDbLine
 10
0.0
 20
0.0
 30
0.0
 11
-1.0
 21
0.0
 31
0.0
  0
ENDBLK
  5
89
330
87
100
AcDbEntity
  8
0
100
AcDbBlockEnd
  0
BLOCK
  5
8B
330
8A
100
AcDbEntity
  8
0
100
AcDbBlockBegin
  2
EX_CIVIL
 70
     0
 10
0.0
 20
0.0
 30
0.0
  3
EX_CIVIL
  1

  0
LINE
  5
B4
330
8A
100
AcDbEntity
  8
0
  6
CONTINUOUS
 62
     0
100
AcDbLine
 10
0.0
 20
0.0
 30
0.0
 11
-1.0
 21
0.0
 31
0.0
  0
LINE
  5
B5
330
8A
100
AcDbEntity
  8
0
  6
CONTINUOUS
 62
     0
100
AcDbLine
 10
-1.0
 20
0.25
 30
0.0
 11
0.0
 21
0.25
 31
0.0
  0
LINE
  5
B6
330
8A
100
AcDbEntity
  8
0
  6
CONTINUOUS
 62
     0
100
AcDbLine
 10
-1.0
 20
0.125
 30
0.0
 11
0.0
 21
0.125
 31
0.0
  0
ENDBLK
  5
8C
330
8A
100
AcDbEntity
  8
0
100
AcDbBlockEnd
  0
BLOCK
  5
8E
330
8D
100
AcDbEntity
  8
0
100
AcDbBlockBegin
  2
EX_WCIR
 70
     0
 10
0.0
 20
0.0
 30
0.0
  3
EX_WCIR
  1

  0
LINE
  5
B7
330
8D
100
AcDbEntity
  8
0
  6
CONTINUOUS
 62
     0
100
AcDbLine
 10
0.0
 20
0.0
 30
0.0
 11
-1.0
 21
0.0
 31
0.0
  0
CIRCLE
  5
B8
330
8D
100
AcDbEntity
  8
0
  6
CONTINUOUS
 62
     0
100
AcDbCircle
 10
0.0
 20
0.0
 30
0.0
 40
0.5
  0
ENDBLK
  5
8F
330
8D
100
AcDbEntity
  8
0
100
AcDbBlockEnd
  0
BLOCK
  5
91
330
90
100
AcDbEntity
  8
0
100
AcDbBlockBegin
  2
EX_WCIR2
 70
     0
 10
0.0
 20
0.0
 30
0.0
  3
EX_WCIR2
  1

  0
LINE
  5
B9
330
90
100
AcDbEntity
  8
0
  6
CONTINUOUS
 62
     0
100
AcDbLine
 10
-0.5
 20
0.0
 30
0.0
 11
-1.0
 21
0.0
 31
0.0
  0
CIRCLE
  5
BA
330
90
100
AcDbEntity
  8
0
  6
CONTINUOUS
 62
     0
100
AcDbCircle
 10
0.0
 20
0.0
 30
0.0
 40
0.5
  0
ENDBLK
  5
92
330
90
100
AcDbEntity
  8
0
100
AcDbBlockEnd
  0
BLOCK
  5
94
330
93
100
AcDbEntity
  8
0
100
AcDbBlockBegin
  2
EX_WNORM
 70
     0
 10
0.0
 20
0.0
 30
0.0
  3
EX_WNORM
  1

  0
LINE
  5
BB
330
93
100
AcDbEntity
  8
0
  6
CONTINUOUS
 62
     0
100
AcDbLine
 10
-1.0
 20
0.0
 30
0.0
 11
-1.0
 21
0.0
 31
0.0
  0
LINE
  5
BC
330
93
100
AcDbEntity
  8
0
  6
CONTINUOUS
 62
     0
100
AcDbLine
 10
0.0
 20
0.0
 30
0.0
 11
-1.0
 21
0.166666667
 31
0.0
  0
LINE
  5
BD
330
93
100
AcDbEntity
  8
0
  6
CONTINUOUS
 62
     0
100
AcDbLine
 10
0.0
 20
0.0
 30
0.0
 11
-1.0
 21
-0.166666667
 31
0.0
  0
LINE
  5
BE
330
93
100
AcDbEntity
  8
0
  6
CONTINUOUS
 62
     0
100
AcDbLine
 10
-1.0
 20
0.166666667
 30
0.0
 11
-1.0
 21
-0.166666667
 31
0.0
  0
ENDBLK
  5
95
330
93
100
AcDbEntity
  8
0
100
AcDbBlockEnd
  0
BLOCK
  5
97
330
96
100
AcDbEntity
  8
0
100
AcDbBlockBegin
  2
EX_NNORM
 70
     0
 10
0.0
 20
0.0
 30
0.0
  3
EX_NNORM
  1

  0
LINE
  5
BF
330
96
100
AcDbEntity
  8
0
  6
CONTINUOUS
 62
     0
100
AcDbLine
 10
0.0
 20
0.0
 30
0.0
 11
-1.0
 21
0.0
 31
0.0
  0
LINE
  5
C0
330
96
100
AcDbEntity
  8
0
  6
CONTINUOUS
 62
     0
100
AcDbLine
 10
0.0
 20
0.0
 30
0.0
 11
-1.0
 21
0.166666667
 31
0.0
  0
LINE
  5
C1
330
96
100
AcDbEntity
  8
0
  6
CONTINUOUS
 62
     0
100
AcDbLine
 10
0.0
 20
0.0
 30
0.0
 11
-1.0
 21
-0.166666667
 31
0.0
  0
LINE
  5
C2
330
96
100
AcDbEntity
  8
0
  6
CONTINUOUS
 62
     0
100
AcDbLine
 10
-1.0
 20
0.166666667
 30
0.0
 11
-1.0
 21
-0.166666667
 31
0.0
  0
ENDBLK
  5
98
330
96
100
AcDbEntity
  8
0
100
AcDbBlockEnd
  0
BLOCK
  5
9A
330
99
100
AcDbEntity
  8
0
100
AcDbBlockBegin
  2
EX_BBOX
 70
     0
 10
0.0
 20
0.0
 30
0.0
  3
EX_BBOX
  1

  0
LINE
  5
C3
330
99
100
AcDbEntity
  8
0
  6
CONTINUOUS
 62
     0
100
AcDbLine
 10
0.0
 20
0.0
 30
0.0
 11
-1.0
 21
0.0
 31
0.0
  0
LINE
  5
C4
330
99
100
AcDbEntity
  8
0
  6
CONTINUOUS
 62
     0
100
AcDbLine
 10
-0.5
 20
0.5
 30
0.0
 11
0.5
 21
0.5
 31
0.0
  0
LINE
  5
C5
330
99
100
AcDbEntity
  8
0
  6
CONTINUOUS
 62
     0
100
AcDbLine
 10
0.5
 20
0.5
 30
0.0
 11
0.5
 21
-0.5
 31
0.0
  0
LINE
  5
C6
330
99
100
AcDbEntity
  8
0
  6
CONTINUOUS
 62
     0
100
AcDbLine
 10
0.5
 20
-0.5
 30
0.0
 11
-0.5
 21
-0.5
 31
0.0
  0
LINE
  5
C7
330
99
100
AcDbEntity
  8
0
  6
CONTINUOUS
 62
     0
100
AcDbLine
 10
-0.5
 20
-0.5
 30
0.0
 11
-0.5
 21
0.5
 31
0.0
  0
LINE
  5
C8
330
99
100
AcDbEntity
  8
0
  6
CONTINUOUS
 62
     0
100
AcDbLine
 10
-0.25
 20
0.25
 30
0.0
 11
0.25
 21
0.25
 31
0.0
  0
LINE
  5
C9
330
99
100
AcDbEntity
  8
0
  6
CONTINUOUS
 62
     0
100
AcDbLine
 10
0.25
 20
0.25
 30
0.0
 11
0.25
 21
-0.25
 31
0.0
  0
LINE
  5
CA
330
99
100
AcDbEntity
  8
0
  6
CONTINUOUS
 62
     0
100
AcDbLine
 10
0.25
 20
-0.25
 30
0.0
 11
-0.25
 21
-0.25
 31
0.0
  0
LINE
  5
CB
330
99
100
AcDbEntity
  8
0
  6
CONTINUOUS
 62
     0
100
AcDbLine
 10
-0.25
 20
-0.25
 30
0.0
 11
-0.25
 21
0.25
 31
0.0
  0
ENDBLK
  5
9B
330
99
100
AcDbEntity
  8
0
100
AcDbBlockEnd
  0
BLOCK
  5
9D
330
9C
100
AcDbEntity
  8
0
100
AcDbBlockBegin
  2
EX_WBOX
 70
     0
 10
0.0
 20
0.0
 30
0.0
  3
EX_WBOX
  1

  0
LINE
  5
CC
330
9C
100
AcDbEntity
  8
0
  6
CONTINUOUS
 62
     0
100
AcDbLine
 10
-0.5
 20
0.0
 30
0.0
 11
-1.0
 21
0.0
 31
0.0
  0
LINE
  5
CD
330
9C
100
AcDbEntity
  8
0
  6
CONTINUOUS
 62
     0
100
AcDbLine
 10
-0.5
 20
0.5
 30
0.0
 11
0.5
 21
0.5
 31
0.0
  0
LINE
  5
CE
330
9C
100
AcDbEntity
  8
0
  6
CONTINUOUS
 62
     0
100
AcDbLine
 10
0.5
 20
0.5
 30
0.0
 11
0.5
 21
-0.5
 31
0.0
  0
LINE
  5
CF
330
9C
100
AcDbEntity
  8
0
  6
CONTINUOUS
 62
     0
100
AcDbLine
 10
0.5
 20
-0.5
 30
0.0
 11
-0.5
 21
-0.5
 31
0.0
  0
LINE
  5
D0
330
9C
100
AcDbEntity
  8
0
  6
CONTINUOUS
 62
     0
100
AcDbLine
 10
-0.5
 20
-0.5
 30
0.0
 11
-0.5
 21
0.5
 31
0.0
  0
ENDBLK
  5
9E
330
9C
100
AcDbEntity
  8
0
100
AcDbBlockEnd
  0
BLOCK
  5
A0
330
9F
100
AcDbEntity
  8
0
100
AcDbBlockBegin
  2
EX_INTEGRAL
 70
     0
 10
0.0
 20
0.0
 30
0.0
  3
EX_INTEGRAL
  1

  0
LINE
  5
D1
330
9F
100
AcDbEntity
  8
0
  6
CONTINUOUS
 62
     0
100
AcDbLine
 10
0.0
 20
0.0
 30
0.0
 11
-1.0
 21
0.0
 31
0.0
  0
ARC
  5
D2
330
9F
100
AcDbEntity
  8
0
  6
CONTINUOUS
 62
     0
100
AcDbCircle
 10
0.542115
 20
0.164992
 30
0.0
 40
0.56667
100
AcDbArc
 50
73.07249033629006
 51
196.9275130221199
  0
ARC
  5
D3
330
9F
100
AcDbEntity
  8
0
  6
CONTINUOUS
 62
     0
100
AcDbCircle
 10
-0.542115
 20
-0.164992
 30
0.0
 40
0.56667
100
AcDbArc
 50
253.0724869220464
 51
16.9275130559125
  0
ENDBLK
  5
A1
330
9F
100
AcDbEntity
  8
0
100
AcDbBlockEnd
  0
BLOCK
  5
112
330
111
100
AcDbEntity
  8
0
100
AcDbBlockBegin
  2
*D15
 70
     1
 10
0.0
 20
0.0
 30
0.0
  3
*D15
  1

  0
LINE
  5
114
330
111
100
AcDbEntity
  8
Ｓ_１_１
  6
CONTINUOUS
 62
     2
100
AcDbLine
 10
1110.0
 20
1082.499993
 30
0.0
 11
1110.0
 21
1058.999995
 31
0.0
  0
LINE
  5
115
330
111
100
AcDbEntity
  8
Ｓ_１_１
  6
CONTINUOUS
 62
     2
100
AcDbLine
 10
1110.0
 20
1097.499993
 30
0.0
 11
1110.0
 21
1112.499993
 31
0.0
  0
LINE
  5
116
330
111
100
AcDbEntity
  8
Ｓ_１_１
  6
CONTINUOUS
 62
     2
100
AcDbLine
 10
1110.0
 20
1043.999995
 30
0.0
 11
1110.0
 21
1028.999995
 31
0.0
  0
INSERT
  5
117
330
111
100
AcDbEntity
  8
Ｓ_１_１
 62
     2
100
AcDbBlockReference
  2
EX_NORM
 10
1110.0
 20
1082.499993
 30
0.0
 41
15.0
 42
15.0
 43
15.0
 50
270.0
  0
INSERT
  5
118
330
111
100
AcDbEntity
  8
Ｓ_１_１
 62
     2
100
AcDbBlockReference
  2
EX_NORM
 10
1110.0
 20
1058.999995
 30
0.0
 41
15.0
 42
15.0
 43
15.0
 50
90.0
  0
MTEXT
  5
119
330
111
100
AcDbEntity
  8
Ｓ_１_１
 62
     2
100
AcDbMText
 10
1096.25
 20
1119.999993
 30
0.0
 40
17.3145207852194
 41
0.0
 71
     5
 72
     1
  1
23.5
  7
EXCADDIM1
 11
0.0
 21
1.0
 31
0.0
  0
POINT
  5
11A
330
111
100
AcDbEntity
  8
DEFPOINTS
 62
     0
100
AcDbPoint
 10
939.9999200000002
 20
1082.499993
 30
0.0
  0
POINT
  5
11B
330
111
100
AcDbEntity
  8
DEFPOINTS
 62
     0
100
AcDbPoint
 10
939.9999200000002
 20
1058.999995
 30
0.0
  0
POINT
  5
11C
330
111
100
AcDbEntity
  8
DEFPOINTS
 62
     0
100
AcDbPoint
 10
1110.0
 20
1058.999995
 30
0.0
  0
ENDBLK
  5
113
330
111
100
AcDbEntity
  8
0
100
AcDbBlockEnd
  0
BLOCK
  5
11F
330
11E
100
AcDbEntity
  8
0
100
AcDbBlockBegin
  2
*D16
 70
     1
 10
0.0
 20
0.0
 30
0.0
  3
*D16
  1

  0
LINE
  5
121
330
11E
100
AcDbEntity
  8
Ｓ_１_１
  6
CONTINUOUS
 62
     2
100
AcDbLine
 10
947.49992
 20
1058.999995
 30
0.0
 11
1115.0
 21
1058.999995
 31
0.0
  0
LINE
  5
122
330
11E
100
AcDbEntity
  8
Ｓ_１_１
  6
CONTINUOUS
 62
     2
100
AcDbLine
 10
1110.0
 20
1043.999995
 30
0.0
 11
1110.0
 21
995.999999
 31
0.0
  0
INSERT
  5
123
330
11E
100
AcDbEntity
  8
Ｓ_１_１
 62
     2
100
AcDbBlockReference
  2
EX_NORM
 10
1110.0
 20
1058.999995
 30
0.0
 41
15.0
 42
15.0
 43
15.0
 50
90.0
  0
INSERT
  5
124
330
11E
100
AcDbEntity
  8
Ｓ_１_１
 62
     2
100
AcDbBlockReference
  2
EX_NORM
 10
1110.0
 20
980.999999
 30
0.0
 41
15.0
 42
15.0
 43
15.0
 50
270.0
  0
MTEXT
  5
125
330
11E
100
AcDbEntity
  8
Ｓ_１_１
 62
     2
100
AcDbMText
 10
1096.25
 20
1019.999997
 30
0.0
 40
17.3145207852194
 41
0.0
 71
     5
 72
     1
  1
78
  7
EXCADDIM1
 11
0.0
 21
1.0
 31
0.0
  0
POINT
  5
126
330
11E
100
AcDbEntity
  8
DEFPOINTS
 62
     0
100
AcDbPoint
 10
939.99992
 20
1058.999995
 30
0.0
  0
POINT
  5
127
330
11E
100
AcDbEntity
  8
DEFPOINTS
 62
     0
100
AcDbPoint
 10
939.99992
 20
980.999999
 30
0.0
  0
POINT
  5
128
330
11E
100
AcDbEntity
  8
DEFPOINTS
 62
     0
100
AcDbPoint
 10
1110.0
 20
980.999999
 30
0.0
  0
ENDBLK
  5
120
330
11E
100
AcDbEntity
  8
0
100
AcDbBlockEnd
  0
BLOCK
  5
12B
330
12A
100
AcDbEntity
  8
0
100
AcDbBlockBegin
  2
*D17
 70
     1
 10
0.0
 20
0.0
 30
0.0
  3
*D17
  1

  0
LINE
  5
12D
330
12A
100
AcDbEntity
  8
Ｓ_１_１
  6
CONTINUOUS
 62
     2
100
AcDbLine
 10
947.4999200000002
 20
980.999999
 30
0.0
 11
1115.0
 21
980.999999
 31
0.0
  0
LINE
  5
12E
330
12A
100
AcDbEntity
  8
Ｓ_１_１
  6
CONTINUOUS
 62
     2
100
AcDbLine
 10
1110.0
 20
980.999999
 30
0.0
 11
1110.0
 21
957.500005
 31
0.0
  0
LINE
  5
12F
330
12A
100
AcDbEntity
  8
Ｓ_１_１
  6
CONTINUOUS
 62
     2
100
AcDbLine
 10
1110.0
 20
995.999999
 30
0.0
 11
1110.0
 21
1010.999999
 31
0.0
  0
LINE
  5
130
330
12A
100
AcDbEntity
  8
Ｓ_１_１
  6
CONTINUOUS
 62
     2
100
AcDbLine
 10
1110.0
 20
942.500005
 30
0.0
 11
1110.0
 21
927.500005
 31
0.0
  0
INSERT
  5
131
330
12A
100
AcDbEntity
  8
Ｓ_１_１
 62
     2
100
AcDbBlockReference
  2
EX_NORM
 10
1110.0
 20
980.999999
 30
0.0
 41
15.0
 42
15.0
 43
15.0
 50
270.0
  0
INSERT
  5
132
330
12A
100
AcDbEntity
  8
Ｓ_１_１
 62
     2
100
AcDbBlockReference
  2
EX_NORM
 10
1110.0
 20
957.500005
 30
0.0
 41
15.0
 42
15.0
 43
15.0
 50
90.0
  0
MTEXT
  5
133
330
12A
100
AcDbEntity
  8
Ｓ_１_１
 62
     2
100
AcDbMText
 10
1096.25
 20
920.0000049999998
 30
0.0
 40
17.3145207852194
 41
0.0
 71
     5
 72
     1
  1
23.5
  7
EXCADDIM1
 11
0.0
 21
1.0
 31
0.0
  0
POINT
  5
134
330
12A
100
AcDbEntity
  8
DEFPOINTS
 62
     0
100
AcDbPoint
 10
939.9999200000002
 20
980.999999
 30
0.0
  0
POINT
  5
135
330
12A
100
AcDbEntity
  8
DEFPOINTS
 62
     0
100
AcDbPoint
 10
939.9999200000002
 20
957.500005
 30
0.0
  0
POINT
  5
136
330
12A
100
AcDbEntity
  8
DEFPOINTS
 62
     0
100
AcDbPoint
 10
1110.0
 20
957.500005
 30
0.0
  0
ENDBLK
  5
12C
330
12A
100
AcDbEntity
  8
0
100
AcDbBlockEnd
  0
BLOCK
  5
139
330
138
100
AcDbEntity
  8
0
100
AcDbBlockBegin
  2
*D18
 70
     1
 10
0.0
 20
0.0
 30
0.0
  3
*D18
  1

  0
LINE
  5
13B
330
138
100
AcDbEntity
  8
Ｓ_１_１
  6
CONTINUOUS
 62
     2
100
AcDbLine
 10
1140.0
 20
972.5000050000001
 30
0.0
 11
1140.0
 21
1067.499993
 31
0.0
  0
INSERT
  5
13C
330
138
100
AcDbEntity
  8
Ｓ_１_１
 62
     2
100
AcDbBlockReference
  2
EX_NORM
 10
1140.0
 20
957.5000050000001
 30
0.0
 41
15.0
 42
15.0
 43
15.0
 50
270.0
  0
INSERT
  5
13D
330
138
100
AcDbEntity
  8
Ｓ_１_１
 62
     2
100
AcDbBlockReference
  2
EX_NORM
 10
1140.0
 20
1082.499993
 30
0.0
 41
15.0
 42
15.0
 43
15.0
 50
90.0
  0
MTEXT
  5
13E
330
138
100
AcDbEntity
  8
Ｓ_１_１
 62
     2
100
AcDbMText
 10
1126.25
 20
1019.999999
 30
0.0
 40
17.3145207852194
 41
0.0
 71
     5
 72
     1
  1
125
  7
EXCADDIM1
 11
0.0
 21
1.0
 31
0.0
  0
POINT
  5
13F
330
138
100
AcDbEntity
  8
DEFPOINTS
 62
     0
100
AcDbPoint
 10
939.99992
 20
957.500005
 30
0.0
  0
POINT
  5
140
330
138
100
AcDbEntity
  8
DEFPOINTS
 62
     0
100
AcDbPoint
 10
939.99992
 20
1082.499993
 30
0.0
  0
POINT
  5
141
330
138
100
AcDbEntity
  8
DEFPOINTS
 62
     0
100
AcDbPoint
 10
1140.0
 20
1082.499993
 30
0.0
  0
ENDBLK
  5
13A
330
138
100
AcDbEntity
  8
0
100
AcDbBlockEnd
  0
BLOCK
  5
144
330
143
100
AcDbEntity
  8
0
100
AcDbBlockBegin
  2
*D19
 70
     1
 10
0.0
 20
0.0
 30
0.0
  3
*D19
  1

  0
LINE
  5
146
330
143
100
AcDbEntity
  8
Ｓ_１_１
  6
CONTINUOUS
 62
     2
100
AcDbLine
 10
947.49992
 20
1082.499993
 30
0.0
 11
1145.0
 21
1082.499993
 31
0.0
  0
LINE
  5
147
330
143
100
AcDbEntity
  8
Ｓ_１_１
  6
CONTINUOUS
 62
     2
100
AcDbLine
 10
1140.0
 20
1097.499993
 30
0.0
 11
1140.0
 21
1270.999995
 31
0.0
  0
INSERT
  5
148
330
143
100
AcDbEntity
  8
Ｓ_１_１
 62
     2
100
AcDbBlockReference
  2
EX_NORM
 10
1140.0
 20
1082.499993
 30
0.0
 41
15.0
 42
15.0
 43
15.0
 50
270.0
  0
INSERT
  5
149
330
143
100
AcDbEntity
  8
Ｓ_１_１
 62
     2
100
AcDbBlockReference
  2
EX_NORM
 10
1140.0
 20
1285.999995
 30
0.0
 41
15.0
 42
15.0
 43
15.0
 50
90.0
  0
MTEXT
  5
14A
330
143
100
AcDbEntity
  8
Ｓ_１_１
 62
     2
100
AcDbMText
 10
1126.25
 20
1184.249994
 30
0.0
 40
17.3145207852194
 41
0.0
 71
     5
 72
     1
  1
203.5
  7
EXCADDIM1
 11
0.0
 21
1.0
 31
0.0
  0
POINT
  5
14B
330
143
100
AcDbEntity
  8
DEFPOINTS
 62
     0
100
AcDbPoint
 10
939.99992
 20
1082.499993
 30
0.0
  0
POINT
  5
14C
330
143
100
AcDbEntity
  8
DEFPOINTS
 62
     0
100
AcDbPoint
 10
869.99994799999
 20
1285.999995
 30
0.0
  0
POINT
  5
14D
330
143
100
AcDbEntity
  8
DEFPOINTS
 62
     0
100
AcDbPoint
 10
1140.0
 20
1285.999995
 30
0.0
  0
ENDBLK
  5
145
330
143
100
AcDbEntity
  8
0
100
AcDbBlockEnd
  0
BLOCK
  5
150
330
14F
100
AcDbEntity
  8
0
100
AcDbBlockBegin
  2
*D20
 70
     1
 10
0.0
 20
0.0
 30
0.0
  3
*D20
  1

  0
LINE
  5
152
330
14F
100
AcDbEntity
  8
Ｓ_１_１
  6
CONTINUOUS
 62
     2
100
AcDbLine
 10
947.49992
 20
957.500005
 30
0.0
 11
1145.0
 21
957.500005
 31
0.0
  0
LINE
  5
153
330
14F
100
AcDbEntity
  8
Ｓ_１_１
  6
CONTINUOUS
 62
     2
100
AcDbLine
 10
1140.0
 20
942.500005
 30
0.0
 11
1140.0
 21
769.9999989999999
 31
0.0
  0
INSERT
  5
154
330
14F
100
AcDbEntity
  8
Ｓ_１_１
 62
     2
100
AcDbBlockReference
  2
EX_NORM
 10
1140.0
 20
957.500005
 30
0.0
 41
15.0
 42
15.0
 43
15.0
 50
90.0
  0
INSERT
  5
155
330
14F
100
AcDbEntity
  8
Ｓ_１_１
 62
     2
100
AcDbBlockReference
  2
EX_NORM
 10
1140.0
 20
754.9999989999999
 30
0.0
 41
15.0
 42
15.0
 43
15.0
 50
270.0
  0
MTEXT
  5
156
330
14F
100
AcDbEntity
  8
Ｓ_１_１
 62
     2
100
AcDbMText
 10
1126.25
 20
856.250002
 30
0.0
 40
17.3145207852194
 41
0.0
 71
     5
 72
     1
  1
202.5
  7
EXCADDIM1
 11
0.0
 21
1.0
 31
0.0
  0
POINT
  5
157
330
14F
100
AcDbEntity
  8
DEFPOINTS
 62
     0
100
AcDbPoint
 10
939.99992
 20
957.500005
 30
0.0
  0
POINT
  5
158
330
14F
100
AcDbEntity
  8
DEFPOINTS
 62
     0
100
AcDbPoint
 10
869.99996200002
 20
754.999999
 30
0.0
  0
POINT
  5
159
330
14F
100
AcDbEntity
  8
DEFPOINTS
 62
     0
100
AcDbPoint
 10
1140.0
 20
754.9999989999999
 30
0.0
  0
ENDBLK
  5
151
330
14F
100
AcDbEntity
  8
0
100
AcDbBlockEnd
  0
BLOCK
  5
15C
330
15B
100
AcDbEntity
  8
0
100
AcDbBlockBegin
  2
*D21
 70
     1
 10
0.0
 20
0.0
 30
0.0
  3
*D21
  1

  0
LINE
  5
15E
330
15B
100
AcDbEntity
  8
Ｓ_１_１
  6
CONTINUOUS
 62
     2
100
AcDbLine
 10
877.49996200002
 20
754.999999
 30
0.0
 11
1175.0
 21
754.999999
 31
0.0
  0
LINE
  5
15F
330
15B
100
AcDbEntity
  8
Ｓ_１_１
  6
CONTINUOUS
 62
     2
100
AcDbLine
 10
877.49994799999
 20
1285.999995
 30
0.0
 11
1175.0
 21
1285.999995
 31
0.0
  0
LINE
  5
160
330
15B
100
AcDbEntity
  8
Ｓ_１_１
  6
CONTINUOUS
 62
     2
100
AcDbLine
 10
1170.0
 20
769.999999
 30
0.0
 11
1170.0
 21
1270.999995
 31
0.0
  0
INSERT
  5
161
330
15B
100
AcDbEntity
  8
Ｓ_１_１
 62
     2
100
AcDbBlockReference
  2
EX_NORM
 10
1170.0
 20
754.999999
 30
0.0
 41
15.0
 42
15.0
 43
15.0
 50
270.0
  0
INSERT
  5
162
330
15B
100
AcDbEntity
  8
Ｓ_１_１
 62
     2
100
AcDbBlockReference
  2
EX_NORM
 10
1170.0
 20
1285.999995
 30
0.0
 41
15.0
 42
15.0
 43
15.0
 50
90.0
  0
MTEXT
  5
163
330
15B
100
AcDbEntity
  8
Ｓ_１_１
 62
     2
100
AcDbMText
 10
1156.25
 20
1020.499997
 30
0.0
 40
17.3145207852194
 41
0.0
 71
     5
 72
     1
  1
531
  7
EXCADDIM1
 11
0.0
 21
1.0
 31
0.0
  0
POINT
  5
164
330
15B
100
AcDbEntity
  8
DEFPOINTS
 62
     0
100
AcDbPoint
 10
869.99996200002
 20
754.999999
 30
0.0
  0
POINT
  5
165
330
15B
100
AcDbEntity
  8
DEFPOINTS
 62
     0
100
AcDbPoint
 10
869.99994799999
 20
1285.999995
 30
0.0
  0
POINT
  5
166
330
15B
100
AcDbEntity
  8
DEFPOINTS
 62
     0
100
AcDbPoint
 10
1170.0
 20
1285.999995
 30
0.0
  0
ENDBLK
  5
15D
330
15B
100
AcDbEntity
  8
0
100
AcDbBlockEnd
  0
BLOCK
  5
169
330
168
100
AcDbEntity
  8
0
100
AcDbBlockBegin
  2
*D22
 70
     1
 10
0.0
 20
0.0
 30
0.0
  3
*D22
  1

  0
LINE
  5
16B
330
168
100
AcDbEntity
  8
Ｓ_１_１
  6
CONTINUOUS
 62
     2
100
AcDbLine
 10
270.0
 20
360.0
 30
0.0
 11
270.0
 21
385.0
 31
0.0
  0
LINE
  5
16C
330
168
100
AcDbEntity
  8
Ｓ_１_１
  6
CONTINUOUS
 62
     2
100
AcDbLine
 10
270.0
 20
345.0
 30
0.0
 11
270.0
 21
330.0
 31
0.0
  0
LINE
  5
16D
330
168
100
AcDbEntity
  8
Ｓ_１_１
  6
CONTINUOUS
 62
     2
100
AcDbLine
 10
270.0
 20
400.0
 30
0.0
 11
270.0
 21
415.0
 31
0.0
  0
INSERT
  5
16E
330
168
100
AcDbEntity
  8
Ｓ_１_１
 62
     2
100
AcDbBlockReference
  2
EX_NORM
 10
270.0
 20
360.0
 30
0.0
 41
15.0
 42
15.0
 43
15.0
 50
90.0
  0
INSERT
  5
16F
330
168
100
AcDbEntity
  8
Ｓ_１_１
 62
     2
100
AcDbBlockReference
  2
EX_NORM
 10
270.0
 20
385.0
 30
0.0
 41
15.0
 42
15.0
 43
15.0
 50
270.0
  0
MTEXT
  5
170
330
168
100
AcDbEntity
  8
Ｓ_１_１
 62
     2
100
AcDbMText
 10
256.25
 20
372.5
 30
0.0
 40
17.3145207852194
 41
0.0
 71
     5
 72
     1
  1
25
  7
EXCADDIM1
 11
0.0
 21
1.0
 31
0.0
  0
POINT
  5
171
330
168
100
AcDbEntity
  8
DEFPOINTS
 62
     0
100
AcDbPoint
 10
349.02502762842
 20
360.0
 30
0.0
  0
POINT
  5
172
330
168
100
AcDbEntity
  8
DEFPOINTS
 62
     0
100
AcDbPoint
 10
420.0000800000001
 20
385.0
 30
0.0
  0
POINT
  5
173
330
168
100
AcDbEntity
  8
DEFPOINTS
 62
     0
100
AcDbPoint
 10
270.0
 20
385.0
 30
0.0
  0
ENDBLK
  5
16A
330
168
100
AcDbEntity
  8
0
100
AcDbBlockEnd
  0
BLOCK
  5
176
330
175
100
AcDbEntity
  8
0
100
AcDbBlockBegin
  2
*D23
 70
     1
 10
0.0
 20
0.0
 30
0.0
  3
*D23
  1

  0
LINE
  5
178
330
175
100
AcDbEntity
  8
Ｓ_１_１
  6
CONTINUOUS
 62
     2
100
AcDbLine
 10
412.5000800000001
 20
385.0
 30
0.0
 11
265.0
 21
385.0
 31
0.0
  0
LINE
  5
179
330
175
100
AcDbEntity
  8
Ｓ_１_１
  6
CONTINUOUS
 62
     2
100
AcDbLine
 10
270.0
 20
400.0
 30
0.0
 11
270.0
 21
459.9999220000001
 31
0.0
  0
INSERT
  5
17A
330
175
100
AcDbEntity
  8
Ｓ_１_１
 62
     2
100
AcDbBlockReference
  2
EX_NORM
 10
270.0
 20
385.0
 30
0.0
 41
15.0
 42
15.0
 43
15.0
 50
270.0
  0
INSERT
  5
17B
330
175
100
AcDbEntity
  8
Ｓ_１_１
 62
     2
100
AcDbBlockReference
  2
EX_NORM
 10
270.0
 20
474.9999220000001
 30
0.0
 41
15.0
 42
15.0
 43
15.0
 50
90.0
  0
MTEXT
  5
17C
330
175
100
AcDbEntity
  8
Ｓ_１_１
 62
     2
100
AcDbMText
 10
256.25
 20
429.999961
 30
0.0
 40
17.3145207852194
 41
0.0
 71
     5
 72
     1
  1
90
  7
EXCADDIM1
 11
0.0
 21
1.0
 31
0.0
  0
POINT
  5
17D
330
175
100
AcDbEntity
  8
DEFPOINTS
 62
     0
100
AcDbPoint
 10
420.0000800000001
 20
385.0
 30
0.0
  0
POINT
  5
17E
330
175
100
AcDbEntity
  8
DEFPOINTS
 62
     0
100
AcDbPoint
 10
409.999928
 20
474.9999220000001
 30
0.0
  0
POINT
  5
17F
330
175
100
AcDbEntity
  8
DEFPOINTS
 62
     0
100
AcDbPoint
 10
270.0
 20
474.9999220000001
 30
0.0
  0
ENDBLK
  5
177
330
175
100
AcDbEntity
  8
0
100
AcDbBlockEnd
  0
BLOCK
  5
182
330
181
100
AcDbEntity
  8
0
100
AcDbBlockBegin
  2
*D24
 70
     1
 10
0.0
 20
0.0
 30
0.0
  3
*D24
  1

  0
LINE
  5
184
330
181
100
AcDbEntity
  8
Ｓ_１_１
  6
CONTINUOUS
 62
     2
100
AcDbLine
 10
240.0
 20
375.0
 30
0.0
 11
240.0
 21
459.9999220000001
 31
0.0
  0
INSERT
  5
185
330
181
100
AcDbEntity
  8
Ｓ_１_１
 62
     2
100
AcDbBlockReference
  2
EX_NORM
 10
240.0
 20
360.0
 30
0.0
 41
15.0
 42
15.0
 43
15.0
 50
270.0
  0
INSERT
  5
186
330
181
100
AcDbEntity
  8
Ｓ_１_１
 62
     2
100
AcDbBlockReference
  2
EX_NORM
 10
240.0
 20
474.9999220000001
 30
0.0
 41
15.0
 42
15.0
 43
15.0
 50
90.0
  0
MTEXT
  5
187
330
181
100
AcDbEntity
  8
Ｓ_１_１
 62
     2
100
AcDbMText
 10
226.25
 20
417.499961
 30
0.0
 40
17.3145207852194
 41
0.0
 71
     5
 72
     1
  1
115
  7
EXCADDIM1
 11
0.0
 21
1.0
 31
0.0
  0
POINT
  5
188
330
181
100
AcDbEntity
  8
DEFPOINTS
 62
     0
100
AcDbPoint
 10
349.02502762842
 20
360.0
 30
0.0
  0
POINT
  5
189
330
181
100
AcDbEntity
  8
DEFPOINTS
 62
     0
100
AcDbPoint
 10
409.999928
 20
474.9999220000001
 30
0.0
  0
POINT
  5
18A
330
181
100
AcDbEntity
  8
DEFPOINTS
 62
     0
100
AcDbPoint
 10
240.0
 20
474.9999220000001
 30
0.0
  0
ENDBLK
  5
183
330
181
100
AcDbEntity
  8
0
100
AcDbBlockEnd
  0
BLOCK
  5
18D
330
18C
100
AcDbEntity
  8
0
100
AcDbBlockBegin
  2
*D25
 70
     1
 10
0.0
 20
0.0
 30
0.0
  3
*D25
  1

  0
LINE
  5
18F
330
18C
100
AcDbEntity
  8
Ｓ_１_１
  6
CONTINUOUS
 62
     2
100
AcDbLine
 10
402.499928
 20
474.9999220000001
 30
0.0
 11
235.0
 21
474.9999220000001
 31
0.0
  0
LINE
  5
190
330
18C
100
AcDbEntity
  8
Ｓ_１_１
  6
CONTINUOUS
 62
     2
100
AcDbLine
 10
240.0
 20
489.9999220000001
 30
0.0
 11
240.0
 21
529.9999159999999
 31
0.0
  0
INSERT
  5
191
330
18C
100
AcDbEntity
  8
Ｓ_１_１
 62
     2
100
AcDbBlockReference
  2
EX_NORM
 10
240.0
 20
474.9999220000001
 30
0.0
 41
15.0
 42
15.0
 43
15.0
 50
270.0
  0
INSERT
  5
192
330
18C
100
AcDbEntity
  8
Ｓ_１_１
 62
     2
100
AcDbBlockReference
  2
EX_NORM
 10
240.0
 20
544.9999159999999
 30
0.0
 41
15.0
 42
15.0
 43
15.0
 50
90.0
  0
MTEXT
  5
193
330
18C
100
AcDbEntity
  8
Ｓ_１_１
 62
     2
100
AcDbMText
 10
226.25
 20
509.999919
 30
0.0
 40
17.3145207852194
 41
0.0
 71
     5
 72
     1
  1
70
  7
EXCADDIM1
 11
0.0
 21
1.0
 31
0.0
  0
POINT
  5
194
330
18C
100
AcDbEntity
  8
DEFPOINTS
 62
     0
100
AcDbPoint
 10
409.999928
 20
474.9999220000001
 30
0.0
  0
POINT
  5
195
330
18C
100
AcDbEntity
  8
DEFPOINTS
 62
     0
100
AcDbPoint
 10
449.9999270000001
 20
544.9999159999999
 30
0.0
  0
POINT
  5
196
330
18C
100
AcDbEntity
  8
DEFPOINTS
 62
     0
100
AcDbPoint
 10
240.0
 20
544.9999159999999
 30
0.0
  0
ENDBLK
  5
18E
330
18C
100
AcDbEntity
  8
0
100
AcDbBlockEnd
  0
BLOCK
  5
199
330
198
100
AcDbEntity
  8
0
100
AcDbBlockBegin
  2
*D26
 70
     1
 10
0.0
 20
0.0
 30
0.0
  3
*D26
  1

  0
LINE
  5
19B
330
198
100
AcDbEntity
  8
Ｓ_１_１
  6
CONTINUOUS
 62
     2
100
AcDbLine
 10
442.4999270000001
 20
544.9999159999999
 30
0.0
 11
205.0
 21
544.9999159999999
 31
0.0
  0
LINE
  5
19C
330
198
100
AcDbEntity
  8
Ｓ_１_１
  6
CONTINUOUS
 62
     2
100
AcDbLine
 10
210.0
 20
375.0
 30
0.0
 11
210.0
 21
529.9999159999999
 31
0.0
  0
INSERT
  5
19D
330
198
100
AcDbEntity
  8
Ｓ_１_１
 62
     2
100
AcDbBlockReference
  2
EX_NORM
 10
210.0
 20
360.0
 30
0.0
 41
15.0
 42
15.0
 43
15.0
 50
270.0
  0
INSERT
  5
19E
330
198
100
AcDbEntity
  8
Ｓ_１_１
 62
     2
100
AcDbBlockReference
  2
EX_NORM
 10
210.0
 20
544.9999159999999
 30
0.0
 41
15.0
 42
15.0
 43
15.0
 50
90.0
  0
MTEXT
  5
19F
330
198
100
AcDbEntity
  8
Ｓ_１_１
 62
     2
100
AcDbMText
 10
196.25
 20
452.4999579999999
 30
0.0
 40
17.3145207852194
 41
0.0
 71
     5
 72
     1
  1
185
  7
EXCADDIM1
 11
0.0
 21
1.0
 31
0.0
  0
POINT
  5
1A0
330
198
100
AcDbEntity
  8
DEFPOINTS
 62
     0
100
AcDbPoint
 10
349.02502762842
 20
360.0
 30
0.0
  0
POINT
  5
1A1
330
198
100
AcDbEntity
  8
DEFPOINTS
 62
     0
100
AcDbPoint
 10
449.9999270000001
 20
544.9999159999999
 30
0.0
  0
POINT
  5
1A2
330
198
100
AcDbEntity
  8
DEFPOINTS
 62
     0
100
AcDbPoint
 10
210.0
 20
544.9999159999999
 30
0.0
  0
ENDBLK
  5
19A
330
198
100
AcDbEntity
  8
0
100
AcDbBlockEnd
  0
BLOCK
  5
1A5
330
1A4
100
AcDbEntity
  8
0
100
AcDbBlockBegin
  2
*D27
 70
     1
 10
0.0
 20
0.0
 30
0.0
  3
*D27
  1

  0
LINE
  5
1A7
330
1A4
100
AcDbEntity
  8
Ｓ_１_１
  6
CONTINUOUS
 62
     2
100
AcDbLine
 10
341.52502762842
 20
360.0
 30
0.0
 11
205.0
 21
360.0
 31
0.0
  0
LINE
  5
1A8
330
1A4
100
AcDbEntity
  8
Ｓ_１_１
  6
CONTINUOUS
 62
     2
100
AcDbLine
 10
210.0
 20
360.0
 30
0.0
 11
210.0
 21
339.000016
 31
0.0
  0
LINE
  5
1A9
330
1A4
100
AcDbEntity
  8
Ｓ_１_１
  6
CONTINUOUS
 62
     2
100
AcDbLine
 10
210.0
 20
375.0
 30
0.0
 11
210.0
 21
390.0
 31
0.0
  0
LINE
  5
1AA
330
1A4
100
AcDbEntity
  8
Ｓ_１_１
  6
CONTINUOUS
 62
     2
100
AcDbLine
 10
210.0
 20
324.000016
 30
0.0
 11
210.0
 21
309.000016
 31
0.0
  0
INSERT
  5
1AB
330
1A4
100
AcDbEntity
  8
Ｓ_１_１
 62
     2
100
AcDbBlockReference
  2
EX_NORM
 10
210.0
 20
360.0
 30
0.0
 41
15.0
 42
15.0
 43
15.0
 50
270.0
  0
INSERT
  5
1AC
330
1A4
100
AcDbEntity
  8
Ｓ_１_１
 62
     2
100
AcDbBlockReference
  2
EX_NORM
 10
210.0
 20
339.000016
 30
0.0
 41
15.0
 42
15.0
 43
15.0
 50
90.0
  0
MTEXT
  5
1AD
330
1A4
100
AcDbEntity
  8
Ｓ_１_１
 62
     2
100
AcDbMText
 10
196.25
 20
349.500008
 30
0.0
 40
17.3145207852194
 41
0.0
 71
     5
 72
     1
  1
21
  7
EXCADDIM1
 11
0.0
 21
1.0
 31
0.0
  0
POINT
  5
1AE
330
1A4
100
AcDbEntity
  8
DEFPOINTS
 62
     0
100
AcDbPoint
 10
349.02502762842
 20
360.0
 30
0.0
  0
POINT
  5
1AF
330
1A4
100
AcDbEntity
  8
DEFPOINTS
 62
     0
100
AcDbPoint
 10
345.32216277577
 20
339.000016
 30
0.0
  0
POINT
  5
1B0
330
1A4
100
AcDbEntity
  8
DEFPOINTS
 62
     0
100
AcDbPoint
 10
210.0
 20
339.000016
 30
0.0
  0
ENDBLK
  5
1A6
330
1A4
100
AcDbEntity
  8
0
100
AcDbBlockEnd
  0
BLOCK
  5
1B3
330
1B2
100
AcDbEntity
  8
0
100
AcDbBlockBegin
  2
*D28
 70
     1
 10
0.0
 20
0.0
 30
0.0
  3
*D28
  1

  0
LINE
  5
1B5
330
1B2
100
AcDbEntity
  8
Ｓ_１_１
  6
CONTINUOUS
 62
     2
100
AcDbLine
 10
337.82216277577
 20
339.000016
 30
0.0
 11
205.0
 21
339.000016
 31
0.0
  0
LINE
  5
1B6
330
1B2
100
AcDbEntity
  8
Ｓ_１_１
  6
CONTINUOUS
 62
     2
100
AcDbLine
 10
512.500002
 20
279.999925
 30
0.0
 11
205.0
 21
279.999925
 31
0.0
  0
LINE
  5
1B7
330
1B2
100
AcDbEntity
  8
Ｓ_１_１
  6
CONTINUOUS
 62
     2
100
AcDbLine
 10
210.0
 20
324.000016
 30
0.0
 11
210.0
 21
294.999925
 31
0.0
  0
INSERT
  5
1B8
330
1B2
100
AcDbEntity
  8
Ｓ_１_１
 62
     2
100
AcDbBlockReference
  2
EX_NORM
 10
210.0
 20
339.000016
 30
0.0
 41
15.0
 42
15.0
 43
15.0
 50
90.0
  0
INSERT
  5
1B9
330
1B2
100
AcDbEntity
  8
Ｓ_１_１
 62
     2
100
AcDbBlockReference
  2
EX_NORM
 10
210.0
 20
279.999925
 30
0.0
 41
15.0
 42
15.0
 43
15.0
 50
270.0
  0
MTEXT
  5
1BA
330
1B2
100
AcDbEntity
  8
Ｓ_１_１
 62
     2
100
AcDbMText
 10
196.2500000000001
 20
309.4999704999999
 30
0.0
 40
17.3145207852194
 41
0.0
 71
     5
 72
     1
  1
59
  7
EXCADDIM1
 11
0.0
 21
1.0
 31
0.0
  0
POINT
  5
1BB
330
1B2
100
AcDbEntity
  8
DEFPOINTS
 62
     0
100
AcDbPoint
 10
345.32216277577
 20
339.000016
 30
0.0
  0
POINT
  5
1BC
330
1B2
100
AcDbEntity
  8
DEFPOINTS
 62
     0
100
AcDbPoint
 10
520.000002
 20
279.999925
 30
0.0
  0
POINT
  5
1BD
330
1B2
100
AcDbEntity
  8
DEFPOINTS
 62
     0
100
AcDbPoint
 10
210.0
 20
279.999925
 30
0.0
  0
ENDBLK
  5
1B4
330
1B2
100
AcDbEntity
  8
0
100
AcDbBlockEnd
  0
BLOCK
  5
1C0
330
1BF
100
AcDbEntity
  8
0
100
AcDbBlockBegin
  2
*D29
 70
     1
 10
0.0
 20
0.0
 30
0.0
  3
*D29
  1

  0
LINE
  5
1C2
330
1BF
100
AcDbEntity
  8
Ｓ_１_１
  6
CONTINUOUS
 62
     2
100
AcDbLine
 10
464.9999270000001
 20
630.0
 30
0.0
 11
854.999997
 21
630.0
 31
0.0
  0
INSERT
  5
1C3
330
1BF
100
AcDbEntity
  8
Ｓ_１_１
 62
     2
100
AcDbBlockReference
  2
EX_NORM
 10
449.9999270000001
 20
630.0
 30
0.0
 41
15.0
 42
15.0
 43
15.0
 50
180.0
  0
INSERT
  5
1C4
330
1BF
100
AcDbEntity
  8
Ｓ_１_１
 62
     2
100
AcDbBlockReference
  2
EX_NORM
 10
869.999997
 20
630.0
 30
0.0
 41
15.0
 42
15.0
 43
15.0
  0
MTEXT
  5
1C5
330
1BF
100
AcDbEntity
  8
Ｓ_１_１
 62
     2
100
AcDbMText
 10
659.999962
 20
643.75
 30
0.0
 40
17.3145207852194
 41
0.0
 71
     5
 72
     1
  1
420
  7
EXCADDIM1
  0
POINT
  5
1C6
330
1BF
100
AcDbEntity
  8
DEFPOINTS
 62
     0
100
AcDbPoint
 10
449.9999270000001
 20
514.99996
 30
0.0
  0
POINT
  5
1C7
330
1BF
100
AcDbEntity
  8
DEFPOINTS
 62
     0
100
AcDbPoint
 10
869.999997
 20
514.99996
 30
0.0
  0
POINT
  5
1C8
330
1BF
100
AcDbEntity
  8
DEFPOINTS
 62
     0
100
AcDbPoint
 10
869.999997
 20
630.0
 30
0.0
  0
ENDBLK
  5
1C1
330
1BF
100
AcDbEntity
  8
0
100
AcDbBlockEnd
  0
BLOCK
  5
1CB
330
1CA
100
AcDbEntity
  8
0
100
AcDbBlockBegin
  2
*D30
 70
     1
 10
0.0
 20
0.0
 30
0.0
  3
*D30
  1

  0
LINE
  5
1CD
330
1CA
100
AcDbEntity
  8
Ｓ_１_１
  6
CONTINUOUS
 62
     2
100
AcDbLine
 10
449.9999270000001
 20
522.49996
 30
0.0
 11
449.9999270000001
 21
635.0
 31
0.0
  0
LINE
  5
1CE
330
1CA
100
AcDbEntity
  8
Ｓ_１_１
  6
CONTINUOUS
 62
     2
100
AcDbLine
 10
434.9999270000001
 20
630.0
 30
0.0
 11
394.9999330000001
 21
630.0
 31
0.0
  0
INSERT
  5
1CF
330
1CA
100
AcDbEntity
  8
Ｓ_１_１
 62
     2
100
AcDbBlockReference
  2
EX_NORM
 10
449.9999270000001
 20
630.0
 30
0.0
 41
15.0
 42
15.0
 43
15.0
  0
INSERT
  5
1D0
330
1CA
100
AcDbEntity
  8
Ｓ_１_１
 62
     2
100
AcDbBlockReference
  2
EX_NORM
 10
379.9999330000001
 20
630.0
 30
0.0
 41
15.0
 42
15.0
 43
15.0
 50
180.0
  0
MTEXT
  5
1D1
330
1CA
100
AcDbEntity
  8
Ｓ_１_１
 62
     2
100
AcDbMText
 10
414.9999300000001
 20
643.75
 30
0.0
 40
17.3145207852194
 41
0.0
 71
     5
 72
     1
  1
70
  7
EXCADDIM1
  0
POINT
  5
1D2
330
1CA
100
AcDbEntity
  8
DEFPOINTS
 62
     0
100
AcDbPoint
 10
449.9999270000001
 20
514.99996
 30
0.0
  0
POINT
  5
1D3
330
1CA
100
AcDbEntity
  8
DEFPOINTS
 62
     0
100
AcDbPoint
 10
379.9999330000001
 20
474.9999219999999
 30
0.0
  0
POINT
  5
1D4
330
1CA
100
AcDbEntity
  8
DEFPOINTS
 62
     0
100
AcDbPoint
 10
379.9999330000001
 20
630.0
 30
0.0
  0
ENDBLK
  5
1CC
330
1CA
100
AcDbEntity
  8
0
100
AcDbBlockEnd
  0
BLOCK
  5
1D7
330
1D6
100
AcDbEntity
  8
0
100
AcDbBlockBegin
  2
*D31
 70
     1
 10
0.0
 20
0.0
 30
0.0
  3
*D31
  1

  0
LINE
  5
1D9
330
1D6
100
AcDbEntity
  8
Ｓ_１_１
  6
CONTINUOUS
 62
     2
100
AcDbLine
 10
869.999997
 20
522.49996
 30
0.0
 11
869.999997
 21
635.0
 31
0.0
  0
LINE
  5
1DA
330
1D6
100
AcDbEntity
  8
Ｓ_１_１
  6
CONTINUOUS
 62
     2
100
AcDbLine
 10
884.999997
 20
630.0
 30
0.0
 11
924.9999910000003
 21
630.0
 31
0.0
  0
INSERT
  5
1DB
330
1D6
100
AcDbEntity
  8
Ｓ_１_１
 62
     2
100
AcDbBlockReference
  2
EX_NORM
 10
869.999997
 20
630.0
 30
0.0
 41
15.0
 42
15.0
 43
15.0
 50
180.0
  0
INSERT
  5
1DC
330
1D6
100
AcDbEntity
  8
Ｓ_１_１
 62
     2
100
AcDbBlockReference
  2
EX_NORM
 10
939.9999910000003
 20
630.0
 30
0.0
 41
15.0
 42
15.0
 43
15.0
  0
MTEXT
  5
1DD
330
1D6
100
AcDbEntity
  8
Ｓ_１_１
 62
     2
100
AcDbMText
 10
904.999994
 20
643.75
 30
0.0
 40
17.3145207852194
 41
0.0
 71
     5
 72
     1
  1
70
  7
EXCADDIM1
  0
POINT
  5
1DE
330
1D6
100
AcDbEntity
  8
DEFPOINTS
 62
     0
100
AcDbPoint
 10
869.999997
 20
514.99996
 30
0.0
  0
POINT
  5
1DF
330
1D6
100
AcDbEntity
  8
DEFPOINTS
 62
     0
100
AcDbPoint
 10
939.9999910000003
 20
474.9999219999999
 30
0.0
  0
POINT
  5
1E0
330
1D6
100
AcDbEntity
  8
DEFPOINTS
 62
     0
100
AcDbPoint
 10
939.9999910000003
 20
630.0
 30
0.0
  0
ENDBLK
  5
1D8
330
1D6
100
AcDbEntity
  8
0
100
AcDbBlockEnd
  0
BLOCK
  5
1E3
330
1E2
100
AcDbEntity
  8
0
100
AcDbBlockBegin
  2
*D32
 70
     1
 10
0.0
 20
0.0
 30
0.0
  3
*D32
  1

  0
LINE
  5
1E5
330
1E2
100
AcDbEntity
  8
Ｓ_１_１
  6
CONTINUOUS
 62
     2
100
AcDbLine
 10
939.9999910000003
 20
482.4999219999999
 30
0.0
 11
939.9999910000003
 21
665.0
 31
0.0
  0
LINE
  5
1E6
330
1E2
100
AcDbEntity
  8
Ｓ_１_１
  6
CONTINUOUS
 62
     2
100
AcDbLine
 10
379.9999330000001
 20
482.4999219999999
 30
0.0
 11
379.9999330000001
 21
665.0
 31
0.0
  0
LINE
  5
1E7
330
1E2
100
AcDbEntity
  8
Ｓ_１_１
  6
CONTINUOUS
 62
     2
100
AcDbLine
 10
924.9999910000003
 20
660.0
 30
0.0
 11
394.9999330000001
 21
660.0
 31
0.0
  0
INSERT
  5
1E8
330
1E2
100
AcDbEntity
  8
Ｓ_１_１
 62
     2
100
AcDbBlockReference
  2
EX_NORM
 10
939.9999910000003
 20
660.0
 30
0.0
 41
15.0
 42
15.0
 43
15.0
  0
INSERT
  5
1E9
330
1E2
100
AcDbEntity
  8
Ｓ_１_１
 62
     2
100
AcDbBlockReference
  2
EX_NORM
 10
379.9999330000001
 20
660.0
 30
0.0
 41
15.0
 42
15.0
 43
15.0
 50
180.0
  0
MTEXT
  5
1EA
330
1E2
100
AcDbEntity
  8
Ｓ_１_１
 62
     2
100
AcDbMText
 10
659.9999620000001
 20
673.75
 30
0.0
 40
17.3145207852194
 41
0.0
 71
     5
 72
     1
  1
560
  7
EXCADDIM1
  0
POINT
  5
1EB
330
1E2
100
AcDbEntity
  8
DEFPOINTS
 62
     0
100
AcDbPoint
 10
939.9999910000003
 20
474.9999219999999
 30
0.0
  0
POINT
  5
1EC
330
1E2
100
AcDbEntity
  8
DEFPOINTS
 62
     0
100
AcDbPoint
 10
379.9999330000001
 20
474.9999219999999
 30
0.0
  0
POINT
  5
1ED
330
1E2
100
AcDbEntity
  8
DEFPOINTS
 62
     0
100
AcDbPoint
 10
379.9999330000001
 20
660.0
 30
0.0
  0
ENDBLK
  5
1E4
330
1E2
100
AcDbEntity
  8
0
100
AcDbBlockEnd
  0
BLOCK
  5
1F0
330
1EF
100
AcDbEntity
  8
0
100
AcDbBlockBegin
  2
*D33
 70
     1
 10
0.0
 20
0.0
 30
0.0
  3
*D33
  1

  0
LINE
  5
1F2
330
1EF
100
AcDbEntity
  8
Ｓ_１_１
  6
CONTINUOUS
 62
     2
100
AcDbLine
 10
535.000002
 20
210.0
 30
0.0
 11
784.9999980000001
 21
210.0
 31
0.0
  0
INSERT
  5
1F3
330
1EF
100
AcDbEntity
  8
Ｓ_１_１
 62
     2
100
AcDbBlockReference
  2
EX_NORM
 10
520.000002
 20
210.0
 30
0.0
 41
15.0
 42
15.0
 43
15.0
 50
180.0
  0
INSERT
  5
1F4
330
1EF
100
AcDbEntity
  8
Ｓ_１_１
 62
     2
100
AcDbBlockReference
  2
EX_NORM
 10
799.9999980000001
 20
210.0
 30
0.0
 41
15.0
 42
15.0
 43
15.0
  0
MTEXT
  5
1F5
330
1EF
100
AcDbEntity
  8
Ｓ_１_１
 62
     2
100
AcDbMText
 10
660.0
 20
223.75
 30
0.0
 40
17.3145207852194
 41
0.0
 71
     5
 72
     1
  1
280
  7
EXCADDIM1
  0
POINT
  5
1F6
330
1EF
100
AcDbEntity
  8
DEFPOINTS
 62
     0
100
AcDbPoint
 10
520.000002
 20
279.999925
 30
0.0
  0
POINT
  5
1F7
330
1EF
100
AcDbEntity
  8
DEFPOINTS
 62
     0
100
AcDbPoint
 10
799.9999980000001
 20
279.999925
 30
0.0
  0
POINT
  5
1F8
330
1EF
100
AcDbEntity
  8
DEFPOINTS
 62
     0
100
AcDbPoint
 10
799.9999980000001
 20
210.0
 30
0.0
  0
ENDBLK
  5
1F1
330
1EF
100
AcDbEntity
  8
0
100
AcDbBlockEnd
  0
BLOCK
  5
1FB
330
1FA
100
AcDbEntity
  8
0
100
AcDbBlockBegin
  2
*D34
 70
     1
 10
0.0
 20
0.0
 30
0.0
  3
*D34
  1

  0
LINE
  5
1FD
330
1FA
100
AcDbEntity
  8
Ｓ_１_１
  6
CONTINUOUS
 62
     2
100
AcDbLine
 10
520.000002
 20
272.499925
 30
0.0
 11
520.000002
 21
205.0
 31
0.0
  0
LINE
  5
1FE
330
1FA
100
AcDbEntity
  8
Ｓ_１_１
  6
CONTINUOUS
 62
     2
100
AcDbLine
 10
505.000002
 20
210.0
 30
0.0
 11
435.0000800000001
 21
210.0
 31
0.0
  0
INSERT
  5
1FF
330
1FA
100
AcDbEntity
  8
Ｓ_１_１
 62
     2
100
AcDbBlockReference
  2
EX_NORM
 10
520.000002
 20
210.0
 30
0.0
 41
15.0
 42
15.0
 43
15.0
  0
INSERT
  5
200
330
1FA
100
AcDbEntity
  8
Ｓ_１_１
 62
     2
100
AcDbBlockReference
  2
EX_NORM
 10
420.0000800000001
 20
210.0
 30
0.0
 41
15.0
 42
15.0
 43
15.0
 50
180.0
  0
MTEXT
  5
201
330
1FA
100
AcDbEntity
  8
Ｓ_１_１
 62
     2
100
AcDbMText
 10
470.000041
 20
223.75
 30
0.0
 40
17.3145207852194
 41
0.0
 71
     5
 72
     1
  1
100
  7
EXCADDIM1
  0
POINT
  5
202
330
1FA
100
AcDbEntity
  8
DEFPOINTS
 62
     0
100
AcDbPoint
 10
520.000002
 20
279.999925
 30
0.0
  0
POINT
  5
203
330
1FA
100
AcDbEntity
  8
DEFPOINTS
 62
     0
100
AcDbPoint
 10
420.0000800000001
 20
362.67938744817
 30
0.0
  0
POINT
  5
204
330
1FA
100
AcDbEntity
  8
DEFPOINTS
 62
     0
100
AcDbPoint
 10
420.0000800000001
 20
210.0
 30
0.0
  0
ENDBLK
  5
1FC
330
1FA
100
AcDbEntity
  8
0
100
AcDbBlockEnd
  0
BLOCK
  5
207
330
206
100
AcDbEntity
  8
0
100
AcDbBlockBegin
  2
*D35
 70
     1
 10
0.0
 20
0.0
 30
0.0
  3
*D35
  1

  0
LINE
  5
209
330
206
100
AcDbEntity
  8
Ｓ_１_１
  6
CONTINUOUS
 62
     2
100
AcDbLine
 10
799.9999980000001
 20
272.499925
 30
0.0
 11
799.9999980000001
 21
205.0
 31
0.0
  0
LINE
  5
20A
330
206
100
AcDbEntity
  8
Ｓ_１_１
  6
CONTINUOUS
 62
     2
100
AcDbLine
 10
814.9999980000001
 20
210.0
 30
0.0
 11
884.99992
 21
210.0
 31
0.0
  0
INSERT
  5
20B
330
206
100
AcDbEntity
  8
Ｓ_１_１
 62
     2
100
AcDbBlockReference
  2
EX_NORM
 10
799.9999980000001
 20
210.0
 30
0.0
 41
15.0
 42
15.0
 43
15.0
 50
180.0
  0
INSERT
  5
20C
330
206
100
AcDbEntity
  8
Ｓ_１_１
 62
     2
100
AcDbBlockReference
  2
EX_NORM
 10
899.99992
 20
210.0
 30
0.0
 41
15.0
 42
15.0
 43
15.0
  0
MTEXT
  5
20D
330
206
100
AcDbEntity
  8
Ｓ_１_１
 62
     2
100
AcDbMText
 10
849.9999590000001
 20
223.75
 30
0.0
 40
17.3145207852194
 41
0.0
 71
     5
 72
     1
  1
100
  7
EXCADDIM1
  0
POINT
  5
20E
330
206
100
AcDbEntity
  8
DEFPOINTS
 62
     0
100
AcDbPoint
 10
799.9999980000001
 20
279.999925
 30
0.0
  0
POINT
  5
20F
330
206
100
AcDbEntity
  8
DEFPOINTS
 62
     0
100
AcDbPoint
 10
899.99992
 20
362.67960457977
 30
0.0
  0
POINT
  5
210
330
206
100
AcDbEntity
  8
DEFPOINTS
 62
     0
100
AcDbPoint
 10
899.99992
 20
210.0
 30
0.0
  0
ENDBLK
  5
208
330
206
100
AcDbEntity
  8
0
100
AcDbBlockEnd
  0
BLOCK
  5
213
330
212
100
AcDbEntity
  8
0
100
AcDbBlockBegin
  2
*D36
 70
     1
 10
0.0
 20
0.0
 30
0.0
  3
*D36
  1

  0
LINE
  5
215
330
212
100
AcDbEntity
  8
Ｓ_１_１
  6
CONTINUOUS
 62
     2
100
AcDbLine
 10
899.99992
 20
355.17960457977
 30
0.0
 11
899.99992
 21
175.0
 31
0.0
  0
LINE
  5
216
330
212
100
AcDbEntity
  8
Ｓ_１_１
  6
CONTINUOUS
 62
     2
100
AcDbLine
 10
420.0000800000001
 20
355.17938744817
 30
0.0
 11
420.0000800000001
 21
175.0
 31
0.0
  0
LINE
  5
217
330
212
100
AcDbEntity
  8
Ｓ_１_１
  6
CONTINUOUS
 62
     2
100
AcDbLine
 10
884.99992
 20
180.0
 30
0.0
 11
435.0000800000001
 21
180.0
 31
0.0
  0
INSERT
  5
218
330
212
100
AcDbEntity
  8
Ｓ_１_１
 62
     2
100
AcDbBlockReference
  2
EX_NORM
 10
899.99992
 20
180.0
 30
0.0
 41
15.0
 42
15.0
 43
15.0
  0
INSERT
  5
219
330
212
100
AcDbEntity
  8
Ｓ_１_１
 62
     2
100
AcDbBlockReference
  2
EX_NORM
 10
420.0000800000001
 20
180.0
 30
0.0
 41
15.0
 42
15.0
 43
15.0
 50
180.0
  0
MTEXT
  5
21A
330
212
100
AcDbEntity
  8
Ｓ_１_１
 62
     2
100
AcDbMText
 10
660.0
 20
193.75
 30
0.0
 40
17.3145207852194
 41
0.0
 71
     5
 72
     1
  1
480
  7
EXCADDIM1
  0
POINT
  5
21B
330
212
100
AcDbEntity
  8
DEFPOINTS
 62
     0
100
AcDbPoint
 10
899.99992
 20
362.67960457977
 30
0.0
  0
POINT
  5
21C
330
212
100
AcDbEntity
  8
DEFPOINTS
 62
     0
100
AcDbPoint
 10
420.0000800000001
 20
362.67938744817
 30
0.0
  0
POINT
  5
21D
330
212
100
AcDbEntity
  8
DEFPOINTS
 62
     0
100
AcDbPoint
 10
420.0000800000001
 20
180.0
 30
0.0
  0
ENDBLK
  5
214
330
212
100
AcDbEntity
  8
0
100
AcDbBlockEnd
  0
BLOCK
  5
220
330
21F
100
AcDbEntity
  8
0
100
AcDbBlockBegin
  2
*D37
 70
     1
 10
0.0
 20
0.0
 30
0.0
  3
*D37
  1

  0
LINE
  5
222
330
21F
100
AcDbEntity
  8
Ｓ_１_１
  6
CONTINUOUS
 62
     2
100
AcDbLine
 10
1266.200031
 20
575.499951
 30
0.0
 11
1266.200031
 21
635.0
 31
0.0
  0
LINE
  5
223
330
21F
100
AcDbEntity
  8
Ｓ_１_１
  6
CONTINUOUS
 62
     2
100
AcDbLine
 10
1793.999992
 20
575.499913
 30
0.0
 11
1793.999992
 21
635.0
 31
0.0
  0
LINE
  5
224
330
21F
100
AcDbEntity
  8
Ｓ_１_１
  6
CONTINUOUS
 62
     2
100
AcDbLine
 10
1281.200031
 20
630.0
 30
0.0
 11
1778.999992
 21
630.0
 31
0.0
  0
INSERT
  5
225
330
21F
100
AcDbEntity
  8
Ｓ_１_１
 62
     2
100
AcDbBlockReference
  2
EX_NORM
 10
1266.200031
 20
630.0
 30
0.0
 41
15.0
 42
15.0
 43
15.0
 50
180.0
  0
INSERT
  5
226
330
21F
100
AcDbEntity
  8
Ｓ_１_１
 62
     2
100
AcDbBlockReference
  2
EX_NORM
 10
1793.999992
 20
630.0
 30
0.0
 41
15.0
 42
15.0
 43
15.0
  0
MTEXT
  5
227
330
21F
100
AcDbEntity
  8
Ｓ_１_１
 62
     2
100
AcDbMText
 10
1530.1000115
 20
643.75
 30
0.0
 40
17.3145207852194
 41
0.0
 71
     5
 72
     1
  1
527.8
  7
EXCADDIM1
  0
POINT
  5
228
330
21F
100
AcDbEntity
  8
DEFPOINTS
 62
     0
100
AcDbPoint
 10
1266.200031
 20
567.999951
 30
0.0
  0
POINT
  5
229
330
21F
100
AcDbEntity
  8
DEFPOINTS
 62
     0
100
AcDbPoint
 10
1793.999992
 20
567.999913
 30
0.0
  0
POINT
  5
22A
330
21F
100
AcDbEntity
  8
DEFPOINTS
 62
     0
100
AcDbPoint
 10
1793.999992
 20
630.0
 30
0.0
  0
ENDBLK
  5
221
330
21F
100
AcDbEntity
  8
0
100
AcDbBlockEnd
  0
BLOCK
  5
22D
330
22C
100
AcDbEntity
  8
0
100
AcDbBlockBegin
  2
*D38
 70
     1
 10
0.0
 20
0.0
 30
0.0
  3
*D38
  1

  0
LINE
  5
22F
330
22C
100
AcDbEntity
  8
Ｓ_１_１
  6
CONTINUOUS
 62
     2
100
AcDbLine
 10
1689.999999
 20
280.5
 30
0.0
 11
1689.999999
 21
175.0
 31
0.0
  0
LINE
  5
230
330
22C
100
AcDbEntity
  8
Ｓ_１_１
  6
CONTINUOUS
 62
     2
100
AcDbLine
 10
1385.000041
 20
180.0
 30
0.0
 11
1674.999999
 21
180.0
 31
0.0
  0
INSERT
  5
231
330
22C
100
AcDbEntity
  8
Ｓ_１_１
 62
     2
100
AcDbBlockReference
  2
EX_NORM
 10
1370.000041
 20
180.0
 30
0.0
 41
15.0
 42
15.0
 43
15.0
 50
180.0
  0
INSERT
  5
232
330
22C
100
AcDbEntity
  8
Ｓ_１_１
 62
     2
100
AcDbBlockReference
  2
EX_NORM
 10
1689.999999
 20
180.0
 30
0.0
 41
15.0
 42
15.0
 43
15.0
  0
MTEXT
  5
233
330
22C
100
AcDbEntity
  8
Ｓ_１_１
 62
     2
100
AcDbMText
 10
1530.00002
 20
193.75
 30
0.0
 40
17.3145207852194
 41
0.0
 71
     5
 72
     1
  1
320
  7
EXCADDIM1
  0
POINT
  5
234
330
22C
100
AcDbEntity
  8
DEFPOINTS
 62
     0
100
AcDbPoint
 10
1370.000041
 20
284.99994
 30
0.0
  0
POINT
  5
235
330
22C
100
AcDbEntity
  8
DEFPOINTS
 62
     0
100
AcDbPoint
 10
1689.999999
 20
288.0
 30
0.0
  0
POINT
  5
236
330
22C
100
AcDbEntity
  8
DEFPOINTS
 62
     0
100
AcDbPoint
 10
1689.999999
 20
180.0
 30
0.0
  0
ENDBLK
  5
22E
330
22C
100
AcDbEntity
  8
0
100
AcDbBlockEnd
  0
BLOCK
  5
239
330
238
100
AcDbEntity
  8
0
100
AcDbBlockBegin
  2
*D39
 70
     1
 10
0.0
 20
0.0
 30
0.0
  3
*D39
  1

  0
LINE
  5
23B
330
238
100
AcDbEntity
  8
Ｓ_１_１
  6
CONTINUOUS
 62
     2
100
AcDbLine
 10
1370.000041
 20
277.49994
 30
0.0
 11
1370.000041
 21
175.0
 31
0.0
  0
LINE
  5
23C
330
238
100
AcDbEntity
  8
Ｓ_１_１
  6
CONTINUOUS
 62
     2
100
AcDbLine
 10
1290.000042
 20
281.0
 30
0.0
 11
1290.000042
 21
175.0
 31
0.0
  0
LINE
  5
23D
330
238
100
AcDbEntity
  8
Ｓ_１_１
  6
CONTINUOUS
 62
     2
100
AcDbLine
 10
1355.000041
 20
180.0
 30
0.0
 11
1305.000042
 21
180.0
 31
0.0
  0
INSERT
  5
23E
330
238
100
AcDbEntity
  8
Ｓ_１_１
 62
     2
100
AcDbBlockReference
  2
EX_NORM
 10
1370.000041
 20
180.0
 30
0.0
 41
15.0
 42
15.0
 43
15.0
  0
INSERT
  5
23F
330
238
100
AcDbEntity
  8
Ｓ_１_１
 62
     2
100
AcDbBlockReference
  2
EX_NORM
 10
1290.000042
 20
180.0
 30
0.0
 41
15.0
 42
15.0
 43
15.0
 50
180.0
  0
MTEXT
  5
240
330
238
100
AcDbEntity
  8
Ｓ_１_１
 62
     2
100
AcDbMText
 10
1315.0000415
 20
193.75
 30
0.0
 40
17.3145207852194
 41
0.0
 71
     5
 72
     1
  1
80
  7
EXCADDIM1
  0
POINT
  5
241
330
238
100
AcDbEntity
  8
DEFPOINTS
 62
     0
100
AcDbPoint
 10
1370.000041
 20
284.99994
 30
0.0
  0
POINT
  5
242
330
238
100
AcDbEntity
  8
DEFPOINTS
 62
     0
100
AcDbPoint
 10
1290.000042
 20
288.5
 30
0.0
  0
POINT
  5
243
330
238
100
AcDbEntity
  8
DEFPOINTS
 62
     0
100
AcDbPoint
 10
1290.000042
 20
180.0
 30
0.0
  0
ENDBLK
  5
23A
330
238
100
AcDbEntity
  8
0
100
AcDbBlockEnd
  0
BLOCK
  5
246
330
245
100
AcDbEntity
  8
0
100
AcDbBlockBegin
  2
*D40
 70
     1
 10
0.0
 20
0.0
 30
0.0
  3
*D40
  1

  0
LINE
  5
248
330
245
100
AcDbEntity
  8
Ｓ_１_１
  6
CONTINUOUS
 62
     2
100
AcDbLine
 10
1704.999999
 20
180.0
 30
0.0
 11
1754.999935
 21
180.0
 31
0.0
  0
INSERT
  5
249
330
245
100
AcDbEntity
  8
Ｓ_１_１
 62
     2
100
AcDbBlockReference
  2
EX_NORM
 10
1689.999999
 20
180.0
 30
0.0
 41
15.0
 42
15.0
 43
15.0
 50
180.0
  0
INSERT
  5
24A
330
245
100
AcDbEntity
  8
Ｓ_１_１
 62
     2
100
AcDbBlockReference
  2
EX_NORM
 10
1769.999935
 20
180.0
 30
0.0
 41
15.0
 42
15.0
 43
15.0
  0
MTEXT
  5
24B
330
245
100
AcDbEntity
  8
Ｓ_１_１
 62
     2
100
AcDbMText
 10
1744.999967
 20
193.75
 30
0.0
 40
17.3145207852194
 41
0.0
 71
     5
 72
     1
  1
80
  7
EXCADDIM1
  0
POINT
  5
24C
330
245
100
AcDbEntity
  8
DEFPOINTS
 62
     0
100
AcDbPoint
 10
1689.999999
 20
284.9999660000001
 30
0.0
  0
POINT
  5
24D
330
245
100
AcDbEntity
  8
DEFPOINTS
 62
     0
100
AcDbPoint
 10
1769.999935
 20
285.000037
 30
0.0
  0
POINT
  5
24E
330
245
100
AcDbEntity
  8
DEFPOINTS
 62
     0
100
AcDbPoint
 10
1769.999935
 20
180.0
 30
0.0
  0
ENDBLK
  5
247
330
245
100
AcDbEntity
  8
0
100
AcDbBlockEnd
  0
BLOCK
  5
251
330
250
100
AcDbEntity
  8
0
100
AcDbBlockBegin
  2
*D41
 70
     1
 10
0.0
 20
0.0
 30
0.0
  3
*D41
  1

  0
LINE
  5
253
330
250
100
AcDbEntity
  8
Ｓ_１_１
  6
CONTINUOUS
 62
     2
100
AcDbLine
 10
1345.000041
 20
150.0
 30
0.0
 11
1714.999995
 21
150.0
 31
0.0
  0
INSERT
  5
254
330
250
100
AcDbEntity
  8
Ｓ_１_１
 62
     2
100
AcDbBlockReference
  2
EX_NORM
 10
1330.000041
 20
150.0
 30
0.0
 41
15.0
 42
15.0
 43
15.0
 50
180.0
  0
INSERT
  5
255
330
250
100
AcDbEntity
  8
Ｓ_１_１
 62
     2
100
AcDbBlockReference
  2
EX_NORM
 10
1729.999995
 20
150.0
 30
0.0
 41
15.0
 42
15.0
 43
15.0
  0
MTEXT
  5
256
330
250
100
AcDbEntity
  8
Ｓ_１_１
 62
     2
100
AcDbMText
 10
1530.000018
 20
163.75
 30
0.0
 40
17.3145207852194
 41
0.0
 71
     5
 72
     1
  1
400
  7
EXCADDIM1
  0
POINT
  5
257
330
250
100
AcDbEntity
  8
DEFPOINTS
 62
     0
100
AcDbPoint
 10
1330.000041
 20
317.999993
 30
0.0
  0
POINT
  5
258
330
250
100
AcDbEntity
  8
DEFPOINTS
 62
     0
100
AcDbPoint
 10
1729.999995
 20
317.999993
 30
0.0
  0
POINT
  5
259
330
250
100
AcDbEntity
  8
DEFPOINTS
 62
     0
100
AcDbPoint
 10
1729.999995
 20
150.0
 30
0.0
  0
ENDBLK
  5
252
330
250
100
AcDbEntity
  8
0
100
AcDbBlockEnd
  0
BLOCK
  5
25C
330
25B
100
AcDbEntity
  8
0
100
AcDbBlockBegin
  2
*D42
 70
     1
 10
0.0
 20
0.0
 30
0.0
  3
*D42
  1

  0
LINE
  5
25E
330
25B
100
AcDbEntity
  8
Ｓ_１_１
  6
CONTINUOUS
 62
     2
100
AcDbLine
 10
1330.000041
 20
310.499993
 30
0.0
 11
1330.000041
 21
145.0
 31
0.0
  0
LINE
  5
25F
330
25B
100
AcDbEntity
  8
Ｓ_１_１
  6
CONTINUOUS
 62
     2
100
AcDbLine
 10
1290.000042
 20
280.5
 30
0.0
 11
1290.000042
 21
145.0
 31
0.0
  0
LINE
  5
260
330
25B
100
AcDbEntity
  8
Ｓ_１_１
  6
CONTINUOUS
 62
     2
100
AcDbLine
 10
1315.000041
 20
150.0
 30
0.0
 11
1305.000042
 21
150.0
 31
0.0
  0
INSERT
  5
261
330
25B
100
AcDbEntity
  8
Ｓ_１_１
 62
     2
100
AcDbBlockReference
  2
EX_NORM
 10
1330.000041
 20
150.0
 30
0.0
 41
15.0
 42
15.0
 43
15.0
  0
INSERT
  5
262
330
25B
100
AcDbEntity
  8
Ｓ_１_１
 62
     2
100
AcDbBlockReference
  2
EX_NORM
 10
1290.000042
 20
150.0
 30
0.0
 41
15.0
 42
15.0
 43
15.0
 50
180.0
  0
MTEXT
  5
263
330
25B
100
AcDbEntity
  8
Ｓ_１_１
 62
     2
100
AcDbMText
 10
1263.750042
 20
163.7499999999997
 30
0.0
 40
17.3145207852194
 41
0.0
 71
     5
 72
     1
  1
40
  7
EXCADDIM1
  0
POINT
  5
264
330
25B
100
AcDbEntity
  8
DEFPOINTS
 62
     0
100
AcDbPoint
 10
1330.000041
 20
317.999993
 30
0.0
  0
POINT
  5
265
330
25B
100
AcDbEntity
  8
DEFPOINTS
 62
     0
100
AcDbPoint
 10
1290.000042
 20
288.0
 30
0.0
  0
POINT
  5
266
330
25B
100
AcDbEntity
  8
DEFPOINTS
 62
     0
100
AcDbPoint
 10
1290.000042
 20
150.0
 30
0.0
  0
ENDBLK
  5
25D
330
25B
100
AcDbEntity
  8
0
100
AcDbBlockEnd
  0
BLOCK
  5
269
330
268
100
AcDbEntity
  8
0
100
AcDbBlockBegin
  2
*D43
 70
     1
 10
0.0
 20
0.0
 30
0.0
  3
*D43
  1

  0
LINE
  5
26B
330
268
100
AcDbEntity
  8
Ｓ_１_１
  6
CONTINUOUS
 62
     2
100
AcDbLine
 10
1729.999995
 20
310.499993
 30
0.0
 11
1729.999995
 21
145.0
 31
0.0
  0
LINE
  5
26C
330
268
100
AcDbEntity
  8
Ｓ_１_１
  6
CONTINUOUS
 62
     2
100
AcDbLine
 10
1744.999995
 20
150.0
 30
0.0
 11
1754.999935
 21
150.0
 31
0.0
  0
INSERT
  5
26D
330
268
100
AcDbEntity
  8
Ｓ_１_１
 62
     2
100
AcDbBlockReference
  2
EX_NORM
 10
1729.999995
 20
150.0
 30
0.0
 41
15.0
 42
15.0
 43
15.0
 50
180.0
  0
INSERT
  5
26E
330
268
100
AcDbEntity
  8
Ｓ_１_１
 62
     2
100
AcDbBlockReference
  2
EX_NORM
 10
1769.999935
 20
150.0
 30
0.0
 41
15.0
 42
15.0
 43
15.0
  0
MTEXT
  5
26F
330
268
100
AcDbEntity
  8
Ｓ_１_１
 62
     2
100
AcDbMText
 10
1796.249935
 20
163.75
 30
0.0
 40
17.3145207852194
 41
0.0
 71
     5
 72
     1
  1
40
  7
EXCADDIM1
  0
POINT
  5
270
330
268
100
AcDbEntity
  8
DEFPOINTS
 62
     0
100
AcDbPoint
 10
1729.999995
 20
317.999993
 30
0.0
  0
POINT
  5
271
330
268
100
AcDbEntity
  8
DEFPOINTS
 62
     0
100
AcDbPoint
 10
1769.999935
 20
285.000037
 30
0.0
  0
POINT
  5
272
330
268
100
AcDbEntity
  8
DEFPOINTS
 62
     0
100
AcDbPoint
 10
1769.999935
 20
150.0
 30
0.0
  0
ENDBLK
  5
26A
330
268
100
AcDbEntity
  8
0
100
AcDbBlockEnd
  0
BLOCK
  5
275
330
274
100
AcDbEntity
  8
0
100
AcDbBlockBegin
  2
*D44
 70
     1
 10
0.0
 20
0.0
 30
0.0
  3
*D44
  1

  0
LINE
  5
277
330
274
100
AcDbEntity
  8
Ｓ_１_１
  6
CONTINUOUS
 62
     2
100
AcDbLine
 10
1290.000042
 20
277.500097
 30
0.0
 11
1290.000042
 21
115.0
 31
0.0
  0
LINE
  5
278
330
274
100
AcDbEntity
  8
Ｓ_１_１
  6
CONTINUOUS
 62
     2
100
AcDbLine
 10
1769.999935
 20
277.500037
 30
0.0
 11
1769.999935
 21
115.0
 31
0.0
  0
LINE
  5
279
330
274
100
AcDbEntity
  8
Ｓ_１_１
  6
CONTINUOUS
 62
     2
100
AcDbLine
 10
1305.000042
 20
120.0
 30
0.0
 11
1754.999935
 21
120.0
 31
0.0
  0
INSERT
  5
27A
330
274
100
AcDbEntity
  8
Ｓ_１_１
 62
     2
100
AcDbBlockReference
  2
EX_NORM
 10
1290.000042
 20
120.0
 30
0.0
 41
15.0
 42
15.0
 43
15.0
 50
180.0
  0
INSERT
  5
27B
330
274
100
AcDbEntity
  8
Ｓ_１_１
 62
     2
100
AcDbBlockReference
  2
EX_NORM
 10
1769.999935
 20
120.0
 30
0.0
 41
15.0
 42
15.0
 43
15.0
  0
MTEXT
  5
27C
330
274
100
AcDbEntity
  8
Ｓ_１_１
 62
     2
100
AcDbMText
 10
1529.9999885
 20
133.75
 30
0.0
 40
17.3145207852194
 41
0.0
 71
     5
 72
     1
  1
480
  7
EXCADDIM1
  0
POINT
  5
27D
330
274
100
AcDbEntity
  8
DEFPOINTS
 62
     0
100
AcDbPoint
 10
1290.000042
 20
285.000097
 30
0.0
  0
POINT
  5
27E
330
274
100
AcDbEntity
  8
DEFPOINTS
 62
     0
100
AcDbPoint
 10
1769.999935
 20
285.000037
 30
0.0
  0
POINT
  5
27F
330
274
100
AcDbEntity
  8
DEFPOINTS
 62
     0
100
AcDbPoint
 10
1769.999935
 20
120.0
 30
0.0
  0
ENDBLK
  5
276
330
274
100
AcDbEntity
  8
0
100
AcDbBlockEnd
  0
BLOCK
  5
5B6
330
5B5
100
AcDbEntity
  8
0
100
AcDbBlockBegin
  2
*D45
 70
     1
 10
0.0
 20
0.0
 30
0.0
  3
*D45
  1

  0
LINE
  5
5B8
330
5B5
100
AcDbEntity
  8
Ｓ_１_１
  6
CONTINUOUS
 62
     2
100
AcDbLine
 10
1322.500041
 20
339.000015
 30
0.0
 11
1195.0
 21
339.000015
 31
0.0
  0
LINE
  5
5B9
330
5B5
100
AcDbEntity
  8
Ｓ_１_１
  6
CONTINUOUS
 62
     2
100
AcDbLine
 10
1257.500004
 20
360.0
 30
0.0
 11
1195.0
 21
360.0
 31
0.0
  0
LINE
  5
5BA
330
5B5
100
AcDbEntity
  8
Ｓ_１_１
  6
CONTINUOUS
 62
     2
100
AcDbLine
 10
1200.0
 20
339.000015
 30
0.0
 11
1200.0
 21
360.0
 31
0.0
  0
LINE
  5
5BB
330
5B5
100
AcDbEntity
  8
Ｓ_１_１
  6
CONTINUOUS
 62
     2
100
AcDbLine
 10
1200.0
 20
324.000015
 30
0.0
 11
1200.0
 21
309.000015
 31
0.0
  0
LINE
  5
5BC
330
5B5
100
AcDbEntity
  8
Ｓ_１_１
  6
CONTINUOUS
 62
     2
100
AcDbLine
 10
1200.0
 20
375.0
 30
0.0
 11
1200.0
 21
390.0
 31
0.0
  0
INSERT
  5
5BD
330
5B5
100
AcDbEntity
  8
Ｓ_１_１
 62
     2
100
AcDbBlockReference
  2
EX_NORM
 10
1200.0
 20
339.000015
 30
0.0
 41
15.0
 42
15.0
 43
15.0
 50
90.0
  0
INSERT
  5
5BE
330
5B5
100
AcDbEntity
  8
Ｓ_１_１
 62
     2
100
AcDbBlockReference
  2
EX_NORM
 10
1200.0
 20
360.0
 30
0.0
 41
15.0
 42
15.0
 43
15.0
 50
270.0
  0
MTEXT
  5
5BF
330
5B5
100
AcDbEntity
  8
Ｓ_１_１
 62
     2
100
AcDbMText
 10
1186.25
 20
386.2499999999997
 30
0.0
 40
17.3145207852194
 41
0.0
 71
     5
 72
     1
  1
21
  7
EXCADDIM1
 11
0.0
 21
1.0
 31
0.0
  0
POINT
  5
5C0
330
5B5
100
AcDbEntity
  8
DEFPOINTS
 62
     0
100
AcDbPoint
 10
1330.000041
 20
339.000015
 30
0.0
  0
POINT
  5
5C1
330
5B5
100
AcDbEntity
  8
DEFPOINTS
 62
     0
100
AcDbPoint
 10
1265.000004
 20
360.0
 30
0.0
  0
POINT
  5
5C2
330
5B5
100
AcDbEntity
  8
DEFPOINTS
 62
     0
100
AcDbPoint
 10
1200.0
 20
360.0
 30
0.0
  0
ENDBLK
  5
5B7
330
5B5
100
AcDbEntity
  8
0
100
AcDbBlockEnd
  0
BLOCK
  5
5C6
330
5C5
100
AcDbEntity
  8
0
100
AcDbBlockBegin
  2
*D46
 70
     1
 10
0.0
 20
0.0
 30
0.0
  3
*D46
  1

  0
LINE
  5
5C8
330
5C5
100
AcDbEntity
  8
Ｓ_１_１
  6
CONTINUOUS
 62
     2
100
AcDbLine
 10
481.8197321533947
 20
506.8197271533946
 30
0.0
 11
539.3810312491919
 21
564.3810262491918
 31
0.0
  0
LINE
  5
5C9
330
5C5
100
AcDbEntity
  8
Ｓ_１_１
  6
CONTINUOUS
 62
     2
100
AcDbLine
 10
418.1801218466054
 20
443.1801168466053
 30
0.0
 11
407.5735201288072
 21
432.5735151288071
 31
0.0
  0
MTEXT
  5
5CA
330
5C5
100
AcDbEntity
  8
Ｓ_１_１
 62
     2
100
AcDbMText
 10
518.2514254821817
 20
559.0301694483385
 30
0.0
 40
17.3145207852194
 41
0.0
 71
     5
 72
     1
  1
%%c60
  7
EXCADDIM1
 11
0.7071067811865475
 21
0.7071067811865475
 31
0.0
  0
LINE
  5
5CB
330
5C5
100
AcDbEntity
  8
Ｓ_１_１
  6
CONTINUOUS
 62
     2
100
AcDbLine
 10
428.7867235644036
 20
453.7867185644035
 30
0.0
 11
471.2131304355965
 21
496.2131254355964
 31
0.0
  0
INSERT
  5
5CC
330
5C5
100
AcDbEntity
  8
Ｓ_１_１
 62
     2
100
AcDbBlockReference
  2
EX_NORM
 10
428.7867235644036
 20
453.7867185644035
 30
0.0
 41
15.0
 42
15.0
 43
15.0
 50
45.0
  0
INSERT
  5
5CD
330
5C5
100
AcDbEntity
  8
Ｓ_１_１
 62
     2
100
AcDbBlockReference
  2
EX_NORM
 10
471.2131304355965
 20
496.2131254355964
 30
0.0
 41
15.0
 42
15.0
 43
15.0
 50
225.0
  0
POINT
  5
5CE
330
5C5
100
AcDbEntity
  8
DEFPOINTS
 62
     0
100
AcDbPoint
 10
471.2131304355965
 20
496.2131254355964
 30
0.0
  0
POINT
  5
5CF
330
5C5
100
AcDbEntity
  8
DEFPOINTS
 62
     0
100
AcDbPoint
 10
428.7867235644036
 20
453.7867185644035
 30
0.0
  0
ENDBLK
  5
5C7
330
5C5
100
AcDbEntity
  8
0
100
AcDbBlockEnd
  0
BLOCK
  5
5D7
330
5D6
100
AcDbEntity
  8
0
100
AcDbBlockBegin
  2
*D47
 70
     1
 10
0.0
 20
0.0
 30
0.0
  3
*D47
  1

  0
LINE
  5
5D9
330
5D6
100
AcDbEntity
  8
Ｓ_１_１
  6
CONTINUOUS
 62
     2
100
AcDbLine
 10
1221.200031
 20
575.499951
 30
0.0
 11
1221.200031
 21
635.0
 31
0.0
  0
LINE
  5
5DA
330
5D6
100
AcDbEntity
  8
Ｓ_１_１
  6
CONTINUOUS
 62
     2
100
AcDbLine
 10
1266.200031
 20
627.5
 30
0.0
 11
1266.200031
 21
625.0
 31
0.0
  0
LINE
  5
5DB
330
5D6
100
AcDbEntity
  8
Ｓ_１_１
  6
CONTINUOUS
 62
     2
100
AcDbLine
 10
1236.200031
 20
630.0
 30
0.0
 11
1251.200031
 21
630.0
 31
0.0
  0
INSERT
  5
5DC
330
5D6
100
AcDbEntity
  8
Ｓ_１_１
 62
     2
100
AcDbBlockReference
  2
EX_NORM
 10
1221.200031
 20
630.0
 30
0.0
 41
15.0
 42
15.0
 43
15.0
 50
180.0
  0
INSERT
  5
5DD
330
5D6
100
AcDbEntity
  8
Ｓ_１_１
 62
     2
100
AcDbBlockReference
  2
EX_NORM
 10
1266.200031
 20
630.0
 30
0.0
 41
15.0
 42
15.0
 43
15.0
  0
MTEXT
  5
5DE
330
5D6
100
AcDbEntity
  8
Ｓ_１_１
 62
     2
100
AcDbMText
 10
1243.700031
 20
643.75
 30
0.0
 40
17.3145207852194
 41
0.0
 71
     5
 72
     1
  1
45
  7
EXCADDIM1
  0
POINT
  5
5DF
330
5D6
100
AcDbEntity
  8
DEFPOINTS
 62
     0
100
AcDbPoint
 10
1221.200031
 20
567.999951
 30
0.0
  0
POINT
  5
5E0
330
5D6
100
AcDbEntity
  8
DEFPOINTS
 62
     0
100
AcDbPoint
 10
1266.200031
 20
635.0
 30
0.0
  0
POINT
  5
5E1
330
5D6
100
AcDbEntity
  8
DEFPOINTS
 62
     0
100
AcDbPoint
 10
1266.200031
 20
630.0
 30
0.0
  0
ENDBLK
  5
5D8
330
5D6
100
AcDbEntity
  8
0
100
AcDbBlockEnd
  0
BLOCK
  5
5E4
330
5E3
100
AcDbEntity
  8
0
100
AcDbBlockBegin
  2
*D48
 70
     1
 10
0.0
 20
0.0
 30
0.0
  3
*D48
  1

  0
LINE
  5
5E6
330
5E3
100
AcDbEntity
  8
Ｓ_１_１
  6
CONTINUOUS
 62
     2
100
AcDbLine
 10
1793.999992
 20
575.499913
 30
0.0
 11
1793.999992
 21
635.0
 31
0.0
  0
LINE
  5
5E7
330
5E3
100
AcDbEntity
  8
Ｓ_１_１
  6
CONTINUOUS
 62
     2
100
AcDbLine
 10
1838.999992
 20
575.499951
 30
0.0
 11
1838.999992
 21
635.0
 31
0.0
  0
LINE
  5
5E8
330
5E3
100
AcDbEntity
  8
Ｓ_１_１
  6
CONTINUOUS
 62
     2
100
AcDbLine
 10
1808.999992
 20
630.0
 30
0.0
 11
1823.999992
 21
630.0
 31
0.0
  0
INSERT
  5
5E9
330
5E3
100
AcDbEntity
  8
Ｓ_１_１
 62
     2
100
AcDbBlockReference
  2
EX_NORM
 10
1793.999992
 20
630.0
 30
0.0
 41
15.0
 42
15.0
 43
15.0
 50
180.0
  0
INSERT
  5
5EA
330
5E3
100
AcDbEntity
  8
Ｓ_１_１
 62
     2
100
AcDbBlockReference
  2
EX_NORM
 10
1838.999992
 20
630.0
 30
0.0
 41
15.0
 42
15.0
 43
15.0
  0
MTEXT
  5
5EB
330
5E3
100
AcDbEntity
  8
Ｓ_１_１
 62
     2
100
AcDbMText
 10
1816.499992
 20
643.75
 30
0.0
 40
17.3145207852194
 41
0.0
 71
     5
 72
     1
  1
45
  7
EXCADDIM1
  0
POINT
  5
5EC
330
5E3
100
AcDbEntity
  8
DEFPOINTS
 62
     0
100
AcDbPoint
 10
1793.999992
 20
567.999913
 30
0.0
  0
POINT
  5
5ED
330
5E3
100
AcDbEntity
  8
DEFPOINTS
 62
     0
100
AcDbPoint
 10
1838.999992
 20
567.999951
 30
0.0
  0
POINT
  5
5EE
330
5E3
100
AcDbEntity
  8
DEFPOINTS
 62
     0
100
AcDbPoint
 10
1838.999992
 20
630.0
 30
0.0
  0
ENDBLK
  5
5E5
330
5E3
100
AcDbEntity
  8
0
100
AcDbBlockEnd
  0
BLOCK
  5
5F1
330
5F0
100
AcDbEntity
  8
0
100
AcDbBlockBegin
  2
*D49
 70
     1
 10
0.0
 20
0.0
 30
0.0
  3
*D49
  1

  0
LINE
  5
5F3
330
5F0
100
AcDbEntity
  8
Ｓ_１_１
  6
CONTINUOUS
 62
     2
100
AcDbLine
 10
1838.999992
 20
575.499951
 30
0.0
 11
1838.999992
 21
665.0
 31
0.0
  0
LINE
  5
5F4
330
5F0
100
AcDbEntity
  8
Ｓ_１_１
  6
CONTINUOUS
 62
     2
100
AcDbLine
 10
1221.200031
 20
575.499951
 30
0.0
 11
1221.200031
 21
665.0
 31
0.0
  0
LINE
  5
5F5
330
5F0
100
AcDbEntity
  8
Ｓ_１_１
  6
CONTINUOUS
 62
     2
100
AcDbLine
 10
1823.999992
 20
660.0
 30
0.0
 11
1236.200031
 21
660.0
 31
0.0
  0
INSERT
  5
5F6
330
5F0
100
AcDbEntity
  8
Ｓ_１_１
 62
     2
100
AcDbBlockReference
  2
EX_NORM
 10
1838.999992
 20
660.0
 30
0.0
 41
15.0
 42
15.0
 43
15.0
  0
INSERT
  5
5F7
330
5F0
100
AcDbEntity
  8
Ｓ_１_１
 62
     2
100
AcDbBlockReference
  2
EX_NORM
 10
1221.200031
 20
660.0
 30
0.0
 41
15.0
 42
15.0
 43
15.0
 50
180.0
  0
MTEXT
  5
5F8
330
5F0
100
AcDbEntity
  8
Ｓ_１_１
 62
     2
100
AcDbMText
 10
1530.1000115
 20
673.75
 30
0.0
 40
17.3145207852194
 41
0.0
 71
     5
 72
     1
  1
開閉用油圧ジャッキ開放時
  7
EXCADDIM1
  0
POINT
  5
5F9
330
5F0
100
AcDbEntity
  8
DEFPOINTS
 62
     0
100
AcDbPoint
 10
1838.999992
 20
567.999951
 30
0.0
  0
POINT
  5
5FA
330
5F0
100
AcDbEntity
  8
DEFPOINTS
 62
     0
100
AcDbPoint
 10
1221.200031
 20
567.999951
 30
0.0
  0
POINT
  5
5FB
330
5F0
100
AcDbEntity
  8
DEFPOINTS
 62
     0
100
AcDbPoint
 10
1221.200031
 20
660.0
 30
0.0
  0
ENDBLK
  5
5F2
330
5F0
100
AcDbEntity
  8
0
100
AcDbBlockEnd
  0
BLOCK
  5
605
330
604
100
AcDbEntity
  8
0
100
AcDbBlockBegin
  2
*D50
 70
     1
 10
0.0
 20
0.0
 30
0.0
  3
*D50
  1

  0
LINE
  5
607
330
604
100
AcDbEntity
  8
Ｓ_１_１
  6
CONTINUOUS
 62
     2
100
AcDbLine
 10
1737.499995
 20
339.000015
 30
0.0
 11
1895.0
 21
339.000015
 31
0.0
  0
LINE
  5
608
330
604
100
AcDbEntity
  8
Ｓ_１_１
  6
CONTINUOUS
 62
     2
100
AcDbLine
 10
1817.499862
 20
272.630015
 30
0.0
 11
1895.0
 21
272.630015
 31
0.0
  0
LINE
  5
609
330
604
100
AcDbEntity
  8
Ｓ_１_１
  6
CONTINUOUS
 62
     2
100
AcDbLine
 10
1890.0
 20
324.000015
 30
0.0
 11
1890.0
 21
287.630015
 31
0.0
  0
INSERT
  5
60A
330
604
100
AcDbEntity
  8
Ｓ_１_１
 62
     2
100
AcDbBlockReference
  2
EX_NORM
 10
1890.0
 20
339.000015
 30
0.0
 41
15.0
 42
15.0
 43
15.0
 50
90.0
  0
INSERT
  5
60B
330
604
100
AcDbEntity
  8
Ｓ_１_１
 62
     2
100
AcDbBlockReference
  2
EX_NORM
 10
1890.0
 20
272.630015
 30
0.0
 41
15.0
 42
15.0
 43
15.0
 50
270.0
  0
MTEXT
  5
60C
330
604
100
AcDbEntity
  8
Ｓ_１_１
 62
     2
100
AcDbMText
 10
1876.25
 20
305.815015
 30
0.0
 40
17.3145207852194
 41
0.0
 71
     5
 72
     1
  1
(66.4)
  7
EXCADDIM1
 11
0.0
 21
1.0
 31
0.0
  0
POINT
  5
60D
330
604
100
AcDbEntity
  8
DEFPOINTS
 62
     0
100
AcDbPoint
 10
1729.999995
 20
339.000015
 30
0.0
  0
POINT
  5
60E
330
604
100
AcDbEntity
  8
DEFPOINTS
 62
     0
100
AcDbPoint
 10
1809.999862
 20
272.630015
 30
0.0
  0
POINT
  5
60F
330
604
100
AcDbEntity
  8
DEFPOINTS
 62
     0
100
AcDbPoint
 10
1890.0
 20
272.630015
 30
0.0
  0
ENDBLK
  5
606
330
604
100
AcDbEntity
  8
0
100
AcDbBlockEnd
  0
ENDSEC
  0
SECTION
  2
ENTITIES
  0
LINE
  5
D4
330
1F
100
AcDbEntity
  8
図面枠
  6
CONTINUOUS
 62
     5
100
AcDbLine
 10
50.0
 20
50.0
 30
0.0
 11
2050.0
 21
50.0
 31
0.0
  0
LINE
  5
D5
330
1F
100
AcDbEntity
  8
図面枠
  6
CONTINUOUS
 62
     5
100
AcDbLine
 10
2050.0
 20
50.0
 30
0.0
 11
2050.0
 21
1435.0
 31
0.0
  0
LINE
  5
D6
330
1F
100
AcDbEntity
  8
図面枠
  6
CONTINUOUS
 62
     5
100
AcDbLine
 10
2050.0
 20
1435.0
 30
0.0
 11
50.00000000000026
 21
1435.0
 31
0.0
  0
LINE
  5
D7
330
1F
100
AcDbEntity
  8
図面枠
  6
CONTINUOUS
 62
     5
100
AcDbLine
 10
50.00000000000026
 20
1435.0
 30
0.0
 11
50.0
 21
50.0
 31
0.0
  0
LINE
  5
D8
330
1F
100
AcDbEntity
  8
図面枠
  6
CONTINUOUS
 62
     3
100
AcDbLine
 10
75.00000000000003
 20
1410.0
 30
0.0
 11
75.00000000000003
 21
1365.0
 31
0.0
  0
LINE
  5
D9
330
1F
100
AcDbEntity
  8
図面枠
  6
CONTINUOUS
 62
     3
100
AcDbLine
 10
2025.0
 20
120.0
 30
0.0
 11
2025.0
 21
75.0
 31
0.0
  0
TEXT
  5
DB
330
1F
100
AcDbEntity
  8
図面枠
  6
CONTINUOUS
 62
     4
100
AcDbText
 10
1935.0
 20
1356.9140625
 30
0.0
 40
17.3145207852194
  1
kN
 41
0.999230769230769
  7
EXCADTTF1
 72
     5
 11
1957.5
 21
1356.9140625
 31
0.0
100
AcDbText
  0
TEXT
  5
DC
330
1F
100
AcDbEntity
  8
図面枠
  6
CONTINUOUS
 62
     4
100
AcDbText
 10
1881.25
 20
1356.9140625
 30
0.0
 40
17.3145207852194
  1
500
 41
0.9992307692307689
  7
EXCADTTF1
 72
     5
 11
1915.0
 21
1356.9140625
 31
0.0
100
AcDbText
  0
TEXT
  5
DD
330
1F
100
AcDbEntity
  8
図面枠
  6
CONTINUOUS
 62
     4
100
AcDbText
 10
1545.0
 20
1356.9140625
 30
0.0
 40
17.3145207852194
  1
水平方向能力
 41
0.9992307692307691
  7
EXCADTTF1
 72
     5
 11
1680.0
 21
1356.9140625
 31
0.0
100
AcDbText
  0
TEXT
  5
DE
330
1F
100
AcDbEntity
  8
図面枠
  6
CONTINUOUS
 62
     4
100
AcDbText
 10
1723.75
 20
1386.9140625
 30
0.0
 40
17.3145207852194
  1
仕　　　様
 41
0.9992307692307691
  7
EXCADTTF1
 72
     5
 11
1836.25
 21
1386.9140625
 31
0.0
100
AcDbText
  0
LINE
  5
DF
330
1F
100
AcDbEntity
  8
図面枠
  6
CONTINUOUS
 62
     3
100
AcDbLine
 10
1535.0
 20
1410.0
 30
0.0
 11
2025.0
 21
1410.0
 31
0.0
  0
LINE
  5
E0
330
1F
100
AcDbEntity
  8
図面枠
  6
CONTINUOUS
 62
     3
100
AcDbLine
 10
1535.0
 20
1380.0
 30
0.0
 11
2025.0
 21
1380.0
 31
0.0
  0
TEXT
  5
E1
330
1F
100
AcDbEntity
  8
図面枠
  6
CONTINUOUS
 62
     4
100
AcDbText
 10
90.00000000000003
 20
1376.71875
 30
0.0
 40
23.08602771362587
  1
H形鋼クランプ装置 フランジ幅400mm 厚21mm対応
 41
0.9992307692307689
  7
EXCADTTF1
 72
     5
 11
750.0
 21
1376.71875
 31
0.0
100
AcDbText
  0
LINE
  5
E2
330
1F
100
AcDbEntity
  8
図面枠
  6
CONTINUOUS
 62
     3
100
AcDbLine
 10
765.0000000000001
 20
1410.0
 30
0.0
 11
765.0000000000001
 21
1365.0
 31
0.0
  0
LINE
  5
E3
330
1F
100
AcDbEntity
  8
図面枠
  6
CONTINUOUS
 62
     3
100
AcDbLine
 10
75.00000000000003
 20
1365.0
 30
0.0
 11
765.0000000000001
 21
1365.0
 31
0.0
  0
LINE
  5
E4
330
1F
100
AcDbEntity
  8
図面枠
  6
CONTINUOUS
 62
     3
100
AcDbLine
 10
75.00000000000003
 20
1410.0
 30
0.0
 11
765.0000000000001
 21
1410.0
 31
0.0
  0
TEXT
  5
E5
330
1F
100
AcDbEntity
  8
図面枠
  6
CONTINUOUS
 62
     4
100
AcDbText
 10
1545.0
 20
1326.9140625
 30
0.0
 40
17.3145207852194
  1
適用H形鋼
 41
0.9992307692307693
  7
EXCADTTF1
 72
     5
 11
1646.25
 21
1326.9140625
 31
0.0
100
AcDbText
  0
TEXT
  5
E6
330
1F
100
AcDbEntity
  8
図面枠
  6
CONTINUOUS
 62
     4
100
AcDbText
 10
1545.0
 20
1296.9140625
 30
0.0
 40
17.3145207852194
  1
締付用油圧ジャッキ（締）
 41
0.9992307692307691
  7
EXCADTTF1
 72
     5
 11
1815.0
 21
1296.9140625
 31
0.0
100
AcDbText
  0
LINE
  5
E7
330
1F
100
AcDbEntity
  8
図面枠
  6
CONTINUOUS
 62
     2
100
AcDbLine
 10
1535.0
 20
1350.0
 30
0.0
 11
2025.0
 21
1350.0
 31
0.0
  0
LINE
  5
E8
330
1F
100
AcDbEntity
  8
図面枠
  6
CONTINUOUS
 62
     2
100
AcDbLine
 10
1535.0
 20
1320.0
 30
0.0
 11
2025.0
 21
1320.0
 31
0.0
  0
TEXT
  5
E9
330
1F
100
AcDbEntity
  8
図面枠
  6
CONTINUOUS
 62
     4
100
AcDbText
 10
1935.0
 20
1296.9140625
 30
0.0
 40
17.3145207852194
  1
kN
 41
0.999230769230769
  7
EXCADTTF1
 72
     5
 11
1957.5
 21
1296.9140625
 31
0.0
100
AcDbText
  0
TEXT
  5
EA
330
1F
100
AcDbEntity
  8
図面枠
  6
CONTINUOUS
 62
     4
100
AcDbText
 10
1892.6
 20
1296.9140625
 30
0.0
 40
17.3145207852194
  1
85
 41
0.999230769230769
  7
EXCADTTF1
 72
     5
 11
1915.1
 21
1296.9140625
 31
0.0
100
AcDbText
  0
TEXT
  5
EB
330
1F
100
AcDbEntity
  8
図面枠
  6
CONTINUOUS
 62
     4
100
AcDbText
 10
1836.25
 20
1326.9140625
 30
0.0
 40
17.3145207852194
  1
400×400×13×21
 41
0.999230769230769
  7
EXCADTTF1
 72
     5
 11
2016.25
 21
1326.9140625
 31
0.0
100
AcDbText
  0
TEXT
  5
EC
330
1F
100
AcDbEntity
  8
図面枠
  6
CONTINUOUS
 62
     4
100
AcDbText
 10
1935.0
 20
1266.9140625
 30
0.0
 40
17.3145207852194
  1
mm
 41
0.999230769230769
  7
EXCADTTF1
 72
     5
 11
1957.5
 21
1266.9140625
 31
0.0
100
AcDbText
  0
LINE
  5
ED
330
1F
100
AcDbEntity
  8
図面枠
  6
CONTINUOUS
 62
     2
100
AcDbLine
 10
1535.0
 20
1290.0
 30
0.0
 11
2025.0
 21
1290.0
 31
0.0
  0
LINE
  5
EE
330
1F
100
AcDbEntity
  8
図面枠
  6
CONTINUOUS
 62
     2
100
AcDbLine
 10
1535.0
 20
1260.0
 30
0.0
 11
2025.0
 21
1260.0
 31
0.0
  0
TEXT
  5
EF
330
1F
100
AcDbEntity
  8
図面枠
  6
CONTINUOUS
 62
     4
100
AcDbText
 10
1545.0
 20
1266.9140625
 30
0.0
 40
17.3145207852194
  1
ストローク
 41
0.9992307692307691
  7
EXCADTTF1
 72
     5
 11
1657.5
 21
1266.9140625
 31
0.0
100
AcDbText
  0
TEXT
  5
F0
330
1F
100
AcDbEntity
  8
図面枠
  6
CONTINUOUS
 62
     4
100
AcDbText
 10
1892.6
 20
1266.9140625
 30
0.0
 40
17.3145207852194
  1
65
 41
0.999230769230769
  7
EXCADTTF1
 72
     5
 11
1915.1
 21
1266.9140625
 31
0.0
100
AcDbText
  0
TEXT
  5
F1
330
1F
100
AcDbEntity
  8
図面枠
  6
CONTINUOUS
 62
     4
100
AcDbText
 10
1545.0
 20
1236.9140625
 30
0.0
 40
17.3145207852194
  1
最高使用圧力
 41
0.9992307692307691
  7
EXCADTTF1
 72
     5
 11
1680.0
 21
1236.9140625
 31
0.0
100
AcDbText
  0
TEXT
  5
F2
330
1F
100
AcDbEntity
  8
図面枠
  6
CONTINUOUS
 62
     4
100
AcDbText
 10
1935.0
 20
1236.9140625
 30
0.0
 40
17.3145207852194
  1
MPa
 41
0.9992307692307689
  7
EXCADTTF1
 72
     5
 11
1968.75
 21
1236.9140625
 31
0.0
100
AcDbText
  0
TEXT
  5
F3
330
1F
100
AcDbEntity
  8
図面枠
  6
CONTINUOUS
 62
     4
100
AcDbText
 10
1870.0
 20
1236.9140625
 30
0.0
 40
17.3145207852194
  1
67.7
 41
0.999230769230769
  7
EXCADTTF1
 72
     5
 11
1915.0
 21
1236.9140625
 31
0.0
100
AcDbText
  0
LINE
  5
F4
330
1F
100
AcDbEntity
  8
図面枠
  6
CONTINUOUS
 62
     2
100
AcDbLine
 10
1535.0
 20
1230.0
 30
0.0
 11
2025.0
 21
1230.0
 31
0.0
  0
TEXT
  5
F5
330
1F
100
AcDbEntity
  8
図面枠
  6
CONTINUOUS
 62
     4
100
AcDbText
 10
1545.0
 20
1206.9140625
 30
0.0
 40
17.3145207852194
  1
開閉用油圧ジャッキ（閉）
 41
0.9992307692307691
  7
EXCADTTF1
 72
     5
 11
1815.0
 21
1206.9140625
 31
0.0
100
AcDbText
  0
TEXT
  5
F6
330
1F
100
AcDbEntity
  8
図面枠
  6
CONTINUOUS
 62
     4
100
AcDbText
 10
1935.0
 20
1206.9140625
 30
0.0
 40
17.3145207852194
  1
kN
 41
0.999230769230769
  7
EXCADTTF1
 72
     5
 11
1957.5
 21
1206.9140625
 31
0.0
100
AcDbText
  0
TEXT
  5
F7
330
1F
100
AcDbEntity
  8
図面枠
  6
CONTINUOUS
 62
     4
100
AcDbText
 10
1892.5
 20
1206.9140625
 30
0.0
 40
17.3145207852194
  1
28
 41
0.999230769230769
  7
EXCADTTF1
 72
     5
 11
1915.0
 21
1206.9140625
 31
0.0
100
AcDbText
  0
LINE
  5
F8
330
1F
100
AcDbEntity
  8
図面枠
  6
CONTINUOUS
 62
     2
100
AcDbLine
 10
1535.0
 20
1170.0
 30
0.0
 11
2025.0
 21
1170.0
 31
0.0
  0
LINE
  5
F9
330
1F
100
AcDbEntity
  8
図面枠
  6
CONTINUOUS
 62
     2
100
AcDbLine
 10
1535.0
 20
1200.0
 30
0.0
 11
2025.0
 21
1200.0
 31
0.0
  0
TEXT
  5
FA
330
1F
100
AcDbEntity
  8
図面枠
  6
CONTINUOUS
 62
     4
100
AcDbText
 10
1545.0
 20
1176.9140625
 30
0.0
 40
17.3145207852194
  1
ストローク
 41
0.9992307692307691
  7
EXCADTTF1
 72
     5
 11
1657.5
 21
1176.9140625
 31
0.0
100
AcDbText
  0
TEXT
  5
FB
330
1F
100
AcDbEntity
  8
図面枠
  6
CONTINUOUS
 62
     4
100
AcDbText
 10
1545.0
 20
1146.9140625
 30
0.0
 40
17.3145207852194
  1
最高使用圧力
 41
0.9992307692307691
  7
EXCADTTF1
 72
     5
 11
1680.0
 21
1146.9140625
 31
0.0
100
AcDbText
  0
TEXT
  5
FC
330
1F
100
AcDbEntity
  8
図面枠
  6
CONTINUOUS
 62
     4
100
AcDbText
 10
1935.0
 20
1146.9140625
 30
0.0
 40
17.3145207852194
  1
MPa
 41
0.9992307692307689
  7
EXCADTTF1
 72
     5
 11
1968.75
 21
1146.9140625
 31
0.0
100
AcDbText
  0
TEXT
  5
FD
330
1F
100
AcDbEntity
  8
図面枠
  6
CONTINUOUS
 62
     4
100
AcDbText
 10
1935.0
 20
1176.9140625
 30
0.0
 40
17.3145207852194
  1
mm
 41
0.999230769230769
  7
EXCADTTF1
 72
     5
 11
1957.5
 21
1176.9140625
 31
0.0
100
AcDbText
  0
TEXT
  5
FE
330
1F
100
AcDbEntity
  8
図面枠
  6
CONTINUOUS
 62
     4
100
AcDbText
 10
1892.5
 20
1176.9140625
 30
0.0
 40
17.3145207852194
  1
45
 41
0.999230769230769
  7
EXCADTTF1
 72
     5
 11
1915.0
 21
1176.9140625
 31
0.0
100
AcDbText
  0
TEXT
  5
FF
330
1F
100
AcDbEntity
  8
図面枠
  6
CONTINUOUS
 62
     4
100
AcDbText
 10
1870.0
 20
1146.9140625
 30
0.0
 40
17.3145207852194
  1
67.7
 41
0.999230769230769
  7
EXCADTTF1
 72
     5
 11
1915.0
 21
1146.9140625
 31
0.0
100
AcDbText
  0
TEXT
  5
100
330
1F
100
AcDbEntity
  8
図面枠
  6
CONTINUOUS
 62
     4
100
AcDbText
 10
1935.0
 20
1116.9140625
 30
0.0
 40
17.3145207852194
  1
kg
 41
0.999230769230769
  7
EXCADTTF1
 72
     5
 11
1957.5
 21
1116.9140625
 31
0.0
100
AcDbText
  0
TEXT
  5
101
330
1F
100
AcDbEntity
  8
図面枠
  6
CONTINUOUS
 62
     4
100
AcDbText
 10
1545.0
 20
1116.9140625
 30
0.0
 40
17.3145207852194
  1
重量
 41
0.999230769230769
  7
EXCADTTF1
 72
     5
 11
1590.0
 21
1116.9140625
 31
0.0
100
AcDbText
  0
LINE
  5
102
330
1F
100
AcDbEntity
  8
図面枠
  6
CONTINUOUS
 62
     2
100
AcDbLine
 10
1535.0
 20
1140.0
 30
0.0
 11
2025.0
 21
1140.0
 31
0.0
  0
LINE
  5
103
330
1F
100
AcDbEntity
  8
図面枠
  6
CONTINUOUS
 62
     3
100
AcDbLine
 10
1535.0
 20
1110.0
 30
0.0
 11
2025.0
 21
1110.0
 31
0.0
  0
LINE
  5
104
330
1F
100
AcDbEntity
  8
図面枠
  6
CONTINUOUS
 62
     3
100
AcDbLine
 10
1535.0
 20
1410.0
 30
0.0
 11
1535.0
 21
1110.0
 31
0.0
  0
LINE
  5
105
330
1F
100
AcDbEntity
  8
図面枠
  6
CONTINUOUS
 62
     2
100
AcDbLine
 10
1825.0
 20
1380.0
 30
0.0
 11
1825.0
 21
1110.0
 31
0.0
  0
LINE
  5
106
330
1F
100
AcDbEntity
  8
図面枠
  6
CONTINUOUS
 62
     3
100
AcDbLine
 10
2025.0
 20
1410.0
 30
0.0
 11
2025.0
 21
1110.0
 31
0.0
  0
LINE
  5
107
330
1F
100
AcDbEntity
  8
図面枠
  6
CONTINUOUS
 62
     2
100
AcDbLine
 10
1925.0
 20
1380.0
 30
0.0
 11
1925.0
 21
1350.0
 31
0.0
  0
LINE
  5
108
330
1F
100
AcDbEntity
  8
図面枠
  6
CONTINUOUS
 62
     2
100
AcDbLine
 10
1925.0
 20
1320.0
 30
0.0
 11
1925.0
 21
1110.0
 31
0.0
  0
LINE
  5
109
330
1F
100
AcDbEntity
  8
図面枠
  6
CONTINUOUS
 62
     3
100
AcDbLine
 10
1815.0
 20
120.0
 30
0.0
 11
1815.0
 21
75.0
 31
0.0
  0
TEXT
  5
10A
330
1F
100
AcDbEntity
  8
図面枠
  6
CONTINUOUS
 62
     4
100
AcDbText
 10
1830.0
 20
86.71875
 30
0.0
 40
23.08602771362587
  1
HCR-400-21-A
 41
0.9992307692307693
  7
EXCADTTF1
 72
     5
 11
2010.0
 21
86.71875
 31
0.0
100
AcDbText
  0
LINE
  5
10B
330
1F
100
AcDbEntity
  8
図面枠
  6
CONTINUOUS
 62
     3
100
AcDbLine
 10
1815.0
 20
120.0
 30
0.0
 11
2025.0
 21
120.0
 31
0.0
  0
LINE
  5
10C
330
1F
100
AcDbEntity
  8
図面枠
  6
CONTINUOUS
 62
     3
100
AcDbLine
 10
1815.0
 20
75.0
 30
0.0
 11
2025.0
 21
75.0
 31
0.0
  0
TEXT
  5
10D
330
1F
100
AcDbEntity
  8
図面枠
  6
CONTINUOUS
 62
     4
100
AcDbText
 10
1858.75
 20
1116.9140625
 30
0.0
 40
17.3145207852194
  1
約170
 41
0.9992307692307691
  7
EXCADTTF1
 72
     5
 11
1915.0
 21
1116.9140625
 31
0.0
100
AcDbText
  0
DIMENSION
  5
10F
330
1F
100
AcDbEntity
  8
Ｓ_１_１
  6
CONTINUOUS
 62
     2
100
AcDbDimension
  2
*D15
 10
1110.0
 20
1058.999995
 30
0.0
 11
1096.25
 21
1119.999993
 31
0.0
 70
   160
  3
ISO-25
100
AcDbAlignedDimension
 13
939.9999200000002
 23
1082.499993
 33
0.0
 14
939.9999200000002
 24
1058.999995
 34
0.0
 50
90.0
100
AcDbRotatedDimension
1001
ACAD
1000
DSTYLE
1002
{
1070
   270
1070
     2
1070
     6
1000
EX_NORM
1070
     7
1000
EX_NORM
1070
    41
1040
15.0
1070
    42
1040
0.0
1070
    44
1040
0.0
1070
    73
1070
     0
1070
    74
1070
     0
1070
    75
1070
     1
1070
    76
1070
     1
1070
    77
1070
     1
1070
    78
1070
     8
1070
   140
1040
17.3145207852194
1070
   147
1040
0.0
1070
   173
1070
     1
1070
   176
1070
     2
1070
   177
1070
     2
1070
   178
1070
     2
1070
   271
1070
     2
1070
   277
1070
     2
1070
   279
1070
     2
1070
   280
1070
     1
1070
   287
1070
     5
1070
   340
1005
10E
1002
}
  0
DIMENSION
  5
11D
330
1F
100
AcDbEntity
  8
Ｓ_１_１
  6
CONTINUOUS
 62
     2
100
AcDbDimension
  2
*D16
 10
1110.0
 20
980.999999
 30
0.0
 11
1096.25
 21
1019.999997
 31
0.0
 70
   160
  3
ISO-25
100
AcDbAlignedDimension
 13
939.99992
 23
1058.999995
 33
0.0
 14
939.99992
 24
980.999999
 34
0.0
 50
90.0
100
AcDbRotatedDimension
1001
ACAD
1000
DSTYLE
1002
{
1070
   270
1070
     2
1070
     6
1000
EX_NORM
1070
     7
1000
EX_NORM
1070
    41
1040
15.0
1070
    42
1040
7.5
1070
    44
1040
5.0
1070
    73
1070
     0
1070
    74
1070
     0
1070
    75
1070
     0
1070
    76
1070
     1
1070
    77
1070
     1
1070
    78
1070
     8
1070
   140
1040
17.3145207852194
1070
   147
1040
0.0
1070
   173
1070
     1
1070
   176
1070
     2
1070
   177
1070
     2
1070
   178
1070
     2
1070
   271
1070
     2
1070
   277
1070
     2
1070
   279
1070
     2
1070
   280
1070
     0
1070
   287
1070
     5
1070
   340
1005
10E
1002
}
  0
DIMENSION
  5
129
330
1F
100
AcDbEntity
  8
Ｓ_１_１
  6
CONTINUOUS
 62
     2
100
AcDbDimension
  2
*D17
 10
1110.0
 20
957.500005
 30
0.0
 11
1096.25
 21
920.0000049999998
 31
0.0
 70
   160
  3
ISO-25
100
AcDbAlignedDimension
 13
939.9999200000002
 23
980.999999
 33
0.0
 14
939.9999200000002
 24
957.500005
 34
0.0
 50
90.0
100
AcDbRotatedDimension
1001
ACAD
1000
DSTYLE
1002
{
1070
   270
1070
     2
1070
     6
1000
EX_NORM
1070
     7
1000
EX_NORM
1070
    41
1040
15.0
1070
    42
1040
7.5
1070
    44
1040
5.0
1070
    73
1070
     0
1070
    74
1070
     0
1070
    75
1070
     0
1070
    76
1070
     1
1070
    77
1070
     1
1070
    78
1070
     8
1070
   140
1040
17.3145207852194
1070
   147
1040
0.0
1070
   173
1070
     1
1070
   176
1070
     2
1070
   177
1070
     2
1070
   178
1070
     2
1070
   271
1070
     2
1070
   277
1070
     2
1070
   279
1070
     2
1070
   280
1070
     2
1070
   287
1070
     5
1070
   340
1005
10E
1002
}
  0
DIMENSION
  5
137
330
1F
100
AcDbEntity
  8
Ｓ_１_１
  6
CONTINUOUS
 62
     2
100
AcDbDimension
  2
*D18
 10
1140.0
 20
1082.499993
 30
0.0
 11
1126.25
 21
1019.999999
 31
0.0
 70
   160
  3
ISO-25
100
AcDbAlignedDimension
 13
939.99992
 23
957.500005
 33
0.0
 14
939.99992
 24
1082.499993
 34
0.0
 50
90.0
100
AcDbRotatedDimension
1001
ACAD
1000
DSTYLE
1002
{
1070
   270
1070
     2
1070
     6
1000
EX_NORM
1070
     7
1000
EX_NORM
1070
    41
1040
15.0
1070
    42
1040
0.0
1070
    44
1040
0.0
1070
    73
1070
     0
1070
    74
1070
     0
1070
    75
1070
     1
1070
    76
1070
     1
1070
    77
1070
     1
1070
    78
1070
     8
1070
   140
1040
17.3145207852194
1070
   147
1040
0.0
1070
   173
1070
     1
1070
   176
1070
     2
1070
   177
1070
     2
1070
   178
1070
     2
1070
   271
1070
     2
1070
   277
1070
     2
1070
   279
1070
     2
1070
   280
1070
     0
1070
   287
1070
     5
1070
   340
1005
10E
1002
}
  0
DIMENSION
  5
142
330
1F
100
AcDbEntity
  8
Ｓ_１_１
  6
CONTINUOUS
 62
     2
100
AcDbDimension
  2
*D19
 10
1140.0
 20
1285.999995
 30
0.0
 11
1126.25
 21
1184.249994
 31
0.0
 70
   160
  3
ISO-25
100
AcDbAlignedDimension
 13
939.99992
 23
1082.499993
 33
0.0
 14
869.99994799999
 24
1285.999995
 34
0.0
 50
90.0
100
AcDbRotatedDimension
1001
ACAD
1000
DSTYLE
1002
{
1070
   270
1070
     2
1070
     6
1000
EX_NORM
1070
     7
1000
EX_NORM
1070
    41
1040
15.0
1070
    42
1040
7.5
1070
    44
1040
5.0
1070
    73
1070
     0
1070
    74
1070
     0
1070
    75
1070
     0
1070
    76
1070
     1
1070
    77
1070
     1
1070
    78
1070
     8
1070
   140
1040
17.3145207852194
1070
   147
1040
0.0
1070
   173
1070
     1
1070
   176
1070
     2
1070
   177
1070
     2
1070
   178
1070
     2
1070
   271
1070
     2
1070
   277
1070
     2
1070
   279
1070
     2
1070
   280
1070
     0
1070
   287
1070
     5
1070
   340
1005
10E
1002
}
  0
DIMENSION
  5
14E
330
1F
100
AcDbEntity
  8
Ｓ_１_１
  6
CONTINUOUS
 62
     2
100
AcDbDimension
  2
*D20
 10
1140.0
 20
754.9999989999999
 30
0.0
 11
1126.25
 21
856.250002
 31
0.0
 70
   160
  3
ISO-25
100
AcDbAlignedDimension
 13
939.99992
 23
957.500005
 33
0.0
 14
869.99996200002
 24
754.999999
 34
0.0
 50
90.0
100
AcDbRotatedDimension
1001
ACAD
1000
DSTYLE
1002
{
1070
   270
1070
     2
1070
     6
1000
EX_NORM
1070
     7
1000
EX_NORM
1070
    41
1040
15.0
1070
    42
1040
7.5
1070
    44
1040
5.0
1070
    73
1070
     0
1070
    74
1070
     0
1070
    75
1070
     0
1070
    76
1070
     1
1070
    77
1070
     1
1070
    78
1070
     8
1070
   140
1040
17.3145207852194
1070
   147
1040
0.0
1070
   173
1070
     1
1070
   176
1070
     2
1070
   177
1070
     2
1070
   178
1070
     2
1070
   271
1070
     2
1070
   277
1070
     2
1070
   279
1070
     2
1070
   280
1070
     0
1070
   287
1070
     5
1070
   340
1005
10E
1002
}
  0
DIMENSION
  5
15A
330
1F
100
AcDbEntity
  8
Ｓ_１_１
  6
CONTINUOUS
 62
     2
100
AcDbDimension
  2
*D21
 10
1170.0
 20
1285.999995
 30
0.0
 11
1156.25
 21
1020.499997
 31
0.0
 70
   160
  3
ISO-25
100
AcDbAlignedDimension
 13
869.99996200002
 23
754.999999
 33
0.0
 14
869.99994799999
 24
1285.999995
 34
0.0
 50
90.0
100
AcDbRotatedDimension
1001
ACAD
1000
DSTYLE
1002
{
1070
   270
1070
     2
1070
     6
1000
EX_NORM
1070
     7
1000
EX_NORM
1070
    41
1040
15.0
1070
    42
1040
7.5
1070
    44
1040
5.0
1070
    73
1070
     0
1070
    74
1070
     0
1070
    75
1070
     0
1070
    76
1070
     0
1070
    77
1070
     1
1070
    78
1070
     8
1070
   140
1040
17.3145207852194
1070
   147
1040
0.0
1070
   173
1070
     1
1070
   176
1070
     2
1070
   177
1070
     2
1070
   178
1070
     2
1070
   271
1070
     2
1070
   277
1070
     2
1070
   279
1070
     2
1070
   280
1070
     0
1070
   287
1070
     5
1070
   340
1005
10E
1002
}
  0
DIMENSION
  5
167
330
1F
100
AcDbEntity
  8
Ｓ_１_１
  6
CONTINUOUS
 62
     2
100
AcDbDimension
  2
*D22
 10
270.0
 20
385.0
 30
0.0
 11
256.25
 21
372.5
 31
0.0
 70
   160
  3
ISO-25
100
AcDbAlignedDimension
 13
349.02502762842
 23
360.0
 33
0.0
 14
420.0000800000001
 24
385.0
 34
0.0
 50
90.0
100
AcDbRotatedDimension
1001
ACAD
1000
DSTYLE
1002
{
1070
   270
1070
     2
1070
     6
1000
EX_NORM
1070
     7
1000
EX_NORM
1070
    41
1040
15.0
1070
    42
1040
0.0
1070
    44
1040
0.0
1070
    73
1070
     0
1070
    74
1070
     0
1070
    75
1070
     1
1070
    76
1070
     1
1070
    77
1070
     1
1070
    78
1070
     8
1070
   140
1040
17.3145207852194
1070
   147
1040
0.0
1070
   173
1070
     1
1070
   176
1070
     2
1070
   177
1070
     2
1070
   178
1070
     2
1070
   271
1070
     2
1070
   277
1070
     2
1070
   279
1070
     2
1070
   280
1070
     0
1070
   287
1070
     5
1070
   340
1005
10E
1002
}
  0
DIMENSION
  5
174
330
1F
100
AcDbEntity
  8
Ｓ_１_１
  6
CONTINUOUS
 62
     2
100
AcDbDimension
  2
*D23
 10
270.0
 20
474.9999220000001
 30
0.0
 11
256.25
 21
429.999961
 31
0.0
 70
   160
  3
ISO-25
100
AcDbAlignedDimension
 13
420.0000800000001
 23
385.0
 33
0.0
 14
409.999928
 24
474.9999220000001
 34
0.0
 50
90.0
100
AcDbRotatedDimension
1001
ACAD
1000
DSTYLE
1002
{
1070
   270
1070
     2
1070
     6
1000
EX_NORM
1070
     7
1000
EX_NORM
1070
    41
1040
15.0
1070
    42
1040
7.5
1070
    44
1040
5.0
1070
    73
1070
     0
1070
    74
1070
     0
1070
    75
1070
     0
1070
    76
1070
     1
1070
    77
1070
     1
1070
    78
1070
     8
1070
   140
1040
17.3145207852194
1070
   147
1040
0.0
1070
   173
1070
     1
1070
   176
1070
     2
1070
   177
1070
     2
1070
   178
1070
     2
1070
   271
1070
     2
1070
   277
1070
     2
1070
   279
1070
     2
1070
   280
1070
     0
1070
   287
1070
     5
1070
   340
1005
10E
1002
}
  0
DIMENSION
  5
180
330
1F
100
AcDbEntity
  8
Ｓ_１_１
  6
CONTINUOUS
 62
     2
100
AcDbDimension
  2
*D24
 10
240.0
 20
474.9999220000001
 30
0.0
 11
226.25
 21
417.499961
 31
0.0
 70
   160
  3
ISO-25
100
AcDbAlignedDimension
 13
349.02502762842
 23
360.0
 33
0.0
 14
409.999928
 24
474.9999220000001
 34
0.0
 50
90.0
100
AcDbRotatedDimension
1001
ACAD
1000
DSTYLE
1002
{
1070
   270
1070
     2
1070
     6
1000
EX_NORM
1070
     7
1000
EX_NORM
1070
    41
1040
15.0
1070
    42
1040
0.0
1070
    44
1040
0.0
1070
    73
1070
     0
1070
    74
1070
     0
1070
    75
1070
     1
1070
    76
1070
     1
1070
    77
1070
     1
1070
    78
1070
     8
1070
   140
1040
17.3145207852194
1070
   147
1040
0.0
1070
   173
1070
     1
1070
   176
1070
     2
1070
   177
1070
     2
1070
   178
1070
     2
1070
   271
1070
     2
1070
   277
1070
     2
1070
   279
1070
     2
1070
   280
1070
     0
1070
   287
1070
     5
1070
   340
1005
10E
1002
}
  0
DIMENSION
  5
18B
330
1F
100
AcDbEntity
  8
Ｓ_１_１
  6
CONTINUOUS
 62
     2
100
AcDbDimension
  2
*D25
 10
240.0
 20
544.9999159999999
 30
0.0
 11
226.25
 21
509.999919
 31
0.0
 70
   160
  3
ISO-25
100
AcDbAlignedDimension
 13
409.999928
 23
474.9999220000001
 33
0.0
 14
449.9999270000001
 24
544.9999159999999
 34
0.0
 50
90.0
100
AcDbRotatedDimension
1001
ACAD
1000
DSTYLE
1002
{
1070
   270
1070
     2
1070
     6
1000
EX_NORM
1070
     7
1000
EX_NORM
1070
    41
1040
15.0
1070
    42
1040
7.5
1070
    44
1040
5.0
1070
    73
1070
     0
1070
    74
1070
     0
1070
    75
1070
     0
1070
    76
1070
     1
1070
    77
1070
     1
1070
    78
1070
     8
1070
   140
1040
17.3145207852194
1070
   147
1040
0.0
1070
   173
1070
     1
1070
   176
1070
     2
1070
   177
1070
     2
1070
   178
1070
     2
1070
   271
1070
     2
1070
   277
1070
     2
1070
   279
1070
     2
1070
   280
1070
     0
1070
   287
1070
     5
1070
   340
1005
10E
1002
}
  0
DIMENSION
  5
197
330
1F
100
AcDbEntity
  8
Ｓ_１_１
  6
CONTINUOUS
 62
     2
100
AcDbDimension
  2
*D26
 10
210.0
 20
544.9999159999999
 30
0.0
 11
196.25
 21
452.4999579999999
 31
0.0
 70
   160
  3
ISO-25
100
AcDbAlignedDimension
 13
349.02502762842
 23
360.0
 33
0.0
 14
449.9999270000001
 24
544.9999159999999
 34
0.0
 50
90.0
100
AcDbRotatedDimension
1001
ACAD
1000
DSTYLE
1002
{
1070
   270
1070
     2
1070
     6
1000
EX_NORM
1070
     7
1000
EX_NORM
1070
    41
1040
15.0
1070
    42
1040
7.5
1070
    44
1040
5.0
1070
    73
1070
     0
1070
    74
1070
     0
1070
    75
1070
     1
1070
    76
1070
     0
1070
    77
1070
     1
1070
    78
1070
     8
1070
   140
1040
17.3145207852194
1070
   147
1040
0.0
1070
   173
1070
     1
1070
   176
1070
     2
1070
   177
1070
     2
1070
   178
1070
     2
1070
   271
1070
     2
1070
   277
1070
     2
1070
   279
1070
     2
1070
   280
1070
     0
1070
   287
1070
     5
1070
   340
1005
10E
1002
}
  0
DIMENSION
  5
1A3
330
1F
100
AcDbEntity
  8
Ｓ_１_１
  6
CONTINUOUS
 62
     2
100
AcDbDimension
  2
*D27
 10
210.0
 20
339.000016
 30
0.0
 11
196.25
 21
349.500008
 31
0.0
 70
   160
  3
ISO-25
100
AcDbAlignedDimension
 13
349.02502762842
 23
360.0
 33
0.0
 14
345.32216277577
 24
339.000016
 34
0.0
 50
90.0
100
AcDbRotatedDimension
1001
ACAD
1000
DSTYLE
1002
{
1070
   270
1070
     2
1070
     6
1000
EX_NORM
1070
     7
1000
EX_NORM
1070
    41
1040
15.0
1070
    42
1040
7.5
1070
    44
1040
5.0
1070
    73
1070
     0
1070
    74
1070
     0
1070
    75
1070
     0
1070
    76
1070
     1
1070
    77
1070
     1
1070
    78
1070
     8
1070
   140
1040
17.3145207852194
1070
   147
1040
0.0
1070
   173
1070
     1
1070
   176
1070
     2
1070
   177
1070
     2
1070
   178
1070
     2
1070
   271
1070
     2
1070
   277
1070
     2
1070
   279
1070
     2
1070
   280
1070
     0
1070
   287
1070
     5
1070
   340
1005
10E
1002
}
  0
DIMENSION
  5
1B1
330
1F
100
AcDbEntity
  8
Ｓ_１_１
  6
CONTINUOUS
 62
     2
100
AcDbDimension
  2
*D28
 10
210.0
 20
279.999925
 30
0.0
 11
196.2500000000001
 21
309.4999704999999
 31
0.0
 70
   160
  3
ISO-25
100
AcDbAlignedDimension
 13
345.32216277577
 23
339.000016
 33
0.0
 14
520.000002
 24
279.999925
 34
0.0
 50
90.0
100
AcDbRotatedDimension
1001
ACAD
1000
DSTYLE
1002
{
1070
   270
1070
     2
1070
     6
1000
EX_NORM
1070
     7
1000
EX_NORM
1070
    41
1040
15.0
1070
    42
1040
7.5
1070
    44
1040
5.0
1070
    73
1070
     0
1070
    74
1070
     0
1070
    75
1070
     0
1070
    76
1070
     0
1070
    77
1070
     1
1070
    78
1070
     8
1070
   140
1040
17.3145207852194
1070
   147
1040
0.0
1070
   173
1070
     1
1070
   176
1070
     2
1070
   177
1070
     2
1070
   178
1070
     2
1070
   271
1070
     2
1070
   277
1070
     2
1070
   279
1070
     2
1070
   280
1070
     0
1070
   287
1070
     5
1070
   340
1005
10E
1002
}
  0
DIMENSION
  5
1BE
330
1F
100
AcDbEntity
  8
Ｓ_１_１
  6
CONTINUOUS
 62
     2
100
AcDbDimension
  2
*D29
 10
869.999997
 20
630.0
 30
0.0
 11
659.999962
 21
643.75
 31
0.0
 70
   160
  3
ISO-25
100
AcDbAlignedDimension
 13
449.9999270000001
 23
514.99996
 33
0.0
 14
869.999997
 24
514.99996
 34
0.0
100
AcDbRotatedDimension
1001
ACAD
1000
DSTYLE
1002
{
1070
   270
1070
     2
1070
     6
1000
EX_NORM
1070
     7
1000
EX_NORM
1070
    41
1040
15.0
1070
    42
1040
0.0
1070
    44
1040
0.0
1070
    73
1070
     0
1070
    74
1070
     0
1070
    75
1070
     1
1070
    76
1070
     1
1070
    77
1070
     1
1070
    78
1070
     8
1070
   140
1040
17.3145207852194
1070
   147
1040
0.0
1070
   173
1070
     1
1070
   176
1070
     2
1070
   177
1070
     2
1070
   178
1070
     2
1070
   271
1070
     2
1070
   277
1070
     2
1070
   279
1070
     2
1070
   280
1070
     0
1070
   287
1070
     5
1070
   340
1005
10E
1002
}
  0
DIMENSION
  5
1C9
330
1F
100
AcDbEntity
  8
Ｓ_１_１
  6
CONTINUOUS
 62
     2
100
AcDbDimension
  2
*D30
 10
379.9999330000001
 20
630.0
 30
0.0
 11
414.9999300000001
 21
643.75
 31
0.0
 70
   160
  3
ISO-25
100
AcDbAlignedDimension
 13
449.9999270000001
 23
514.99996
 33
0.0
 14
379.9999330000001
 24
474.9999219999999
 34
0.0
100
AcDbRotatedDimension
1001
ACAD
1000
DSTYLE
1002
{
1070
   270
1070
     2
1070
     6
1000
EX_NORM
1070
     7
1000
EX_NORM
1070
    41
1040
15.0
1070
    42
1040
7.5
1070
    44
1040
5.0
1070
    73
1070
     0
1070
    74
1070
     0
1070
    75
1070
     0
1070
    76
1070
     1
1070
    77
1070
     1
1070
    78
1070
     8
1070
   140
1040
17.3145207852194
1070
   147
1040
0.0
1070
   173
1070
     1
1070
   176
1070
     2
1070
   177
1070
     2
1070
   178
1070
     2
1070
   271
1070
     2
1070
   277
1070
     2
1070
   279
1070
     2
1070
   280
1070
     0
1070
   287
1070
     5
1070
   340
1005
10E
1002
}
  0
DIMENSION
  5
1D5
330
1F
100
AcDbEntity
  8
Ｓ_１_１
  6
CONTINUOUS
 62
     2
100
AcDbDimension
  2
*D31
 10
939.9999910000003
 20
630.0
 30
0.0
 11
904.999994
 21
643.75
 31
0.0
 70
   160
  3
ISO-25
100
AcDbAlignedDimension
 13
869.999997
 23
514.99996
 33
0.0
 14
939.9999910000003
 24
474.9999219999999
 34
0.0
100
AcDbRotatedDimension
1001
ACAD
1000
DSTYLE
1002
{
1070
   270
1070
     2
1070
     6
1000
EX_NORM
1070
     7
1000
EX_NORM
1070
    41
1040
15.0
1070
    42
1040
7.5
1070
    44
1040
5.0
1070
    73
1070
     0
1070
    74
1070
     0
1070
    75
1070
     0
1070
    76
1070
     1
1070
    77
1070
     1
1070
    78
1070
     8
1070
   140
1040
17.3145207852194
1070
   147
1040
0.0
1070
   173
1070
     1
1070
   176
1070
     2
1070
   177
1070
     2
1070
   178
1070
     2
1070
   271
1070
     2
1070
   277
1070
     2
1070
   279
1070
     2
1070
   280
1070
     0
1070
   287
1070
     5
1070
   340
1005
10E
1002
}
  0
DIMENSION
  5
1E1
330
1F
100
AcDbEntity
  8
Ｓ_１_１
  6
CONTINUOUS
 62
     2
100
AcDbDimension
  2
*D32
 10
379.9999330000001
 20
660.0
 30
0.0
 11
659.9999620000001
 21
673.75
 31
0.0
 70
   160
  3
ISO-25
100
AcDbAlignedDimension
 13
939.9999910000003
 23
474.9999219999999
 33
0.0
 14
379.9999330000001
 24
474.9999219999999
 34
0.0
100
AcDbRotatedDimension
1001
ACAD
1000
DSTYLE
1002
{
1070
   270
1070
     2
1070
     6
1000
EX_NORM
1070
     7
1000
EX_NORM
1070
    41
1040
15.0
1070
    42
1040
7.5
1070
    44
1040
5.0
1070
    73
1070
     0
1070
    74
1070
     0
1070
    75
1070
     0
1070
    76
1070
     0
1070
    77
1070
     1
1070
    78
1070
     8
1070
   140
1040
17.3145207852194
1070
   147
1040
0.0
1070
   173
1070
     1
1070
   176
1070
     2
1070
   177
1070
     2
1070
   178
1070
     2
1070
   271
1070
     2
1070
   277
1070
     2
1070
   279
1070
     2
1070
   280
1070
     0
1070
   287
1070
     5
1070
   340
1005
10E
1002
}
  0
DIMENSION
  5
1EE
330
1F
100
AcDbEntity
  8
Ｓ_１_１
  6
CONTINUOUS
 62
     2
100
AcDbDimension
  2
*D33
 10
799.9999980000001
 20
210.0
 30
0.0
 11
660.0
 21
223.75
 31
0.0
 70
   160
  3
ISO-25
100
AcDbAlignedDimension
 13
520.000002
 23
279.999925
 33
0.0
 14
799.9999980000001
 24
279.999925
 34
0.0
100
AcDbRotatedDimension
1001
ACAD
1000
DSTYLE
1002
{
1070
   270
1070
     2
1070
     6
1000
EX_NORM
1070
     7
1000
EX_NORM
1070
    41
1040
15.0
1070
    42
1040
0.0
1070
    44
1040
0.0
1070
    73
1070
     0
1070
    74
1070
     0
1070
    75
1070
     1
1070
    76
1070
     1
1070
    77
1070
     1
1070
    78
1070
     8
1070
   140
1040
17.3145207852194
1070
   147
1040
0.0
1070
   173
1070
     1
1070
   176
1070
     2
1070
   177
1070
     2
1070
   178
1070
     2
1070
   271
1070
     2
1070
   277
1070
     2
1070
   279
1070
     2
1070
   280
1070
     0
1070
   287
1070
     5
1070
   340
1005
10E
1002
}
  0
DIMENSION
  5
1F9
330
1F
100
AcDbEntity
  8
Ｓ_１_１
  6
CONTINUOUS
 62
     2
100
AcDbDimension
  2
*D34
 10
420.0000800000001
 20
210.0
 30
0.0
 11
470.000041
 21
223.75
 31
0.0
 70
   160
  3
ISO-25
100
AcDbAlignedDimension
 13
520.000002
 23
279.999925
 33
0.0
 14
420.0000800000001
 24
362.67938744817
 34
0.0
100
AcDbRotatedDimension
1001
ACAD
1000
DSTYLE
1002
{
1070
   270
1070
     2
1070
     6
1000
EX_NORM
1070
     7
1000
EX_NORM
1070
    41
1040
15.0
1070
    42
1040
7.5
1070
    44
1040
5.0
1070
    73
1070
     0
1070
    74
1070
     0
1070
    75
1070
     0
1070
    76
1070
     1
1070
    77
1070
     1
1070
    78
1070
     8
1070
   140
1040
17.3145207852194
1070
   147
1040
0.0
1070
   173
1070
     1
1070
   176
1070
     2
1070
   177
1070
     2
1070
   178
1070
     2
1070
   271
1070
     2
1070
   277
1070
     2
1070
   279
1070
     2
1070
   280
1070
     0
1070
   287
1070
     5
1070
   340
1005
10E
1002
}
  0
DIMENSION
  5
205
330
1F
100
AcDbEntity
  8
Ｓ_１_１
  6
CONTINUOUS
 62
     2
100
AcDbDimension
  2
*D35
 10
899.99992
 20
210.0
 30
0.0
 11
849.9999590000001
 21
223.75
 31
0.0
 70
   160
  3
ISO-25
100
AcDbAlignedDimension
 13
799.9999980000001
 23
279.999925
 33
0.0
 14
899.99992
 24
362.67960457977
 34
0.0
100
AcDbRotatedDimension
1001
ACAD
1000
DSTYLE
1002
{
1070
   270
1070
     2
1070
     6
1000
EX_NORM
1070
     7
1000
EX_NORM
1070
    41
1040
15.0
1070
    42
1040
7.5
1070
    44
1040
5.0
1070
    73
1070
     0
1070
    74
1070
     0
1070
    75
1070
     0
1070
    76
1070
     1
1070
    77
1070
     1
1070
    78
1070
     8
1070
   140
1040
17.3145207852194
1070
   147
1040
0.0
1070
   173
1070
     1
1070
   176
1070
     2
1070
   177
1070
     2
1070
   178
1070
     2
1070
   271
1070
     2
1070
   277
1070
     2
1070
   279
1070
     2
1070
   280
1070
     0
1070
   287
1070
     5
1070
   340
1005
10E
1002
}
  0
DIMENSION
  5
211
330
1F
100
AcDbEntity
  8
Ｓ_１_１
  6
CONTINUOUS
 62
     2
100
AcDbDimension
  2
*D36
 10
420.0000800000001
 20
180.0
 30
0.0
 11
660.0
 21
193.75
 31
0.0
 70
   160
  3
ISO-25
100
AcDbAlignedDimension
 13
899.99992
 23
362.67960457977
 33
0.0
 14
420.0000800000001
 24
362.67938744817
 34
0.0
100
AcDbRotatedDimension
1001
ACAD
1000
DSTYLE
1002
{
1070
   270
1070
     2
1070
     6
1000
EX_NORM
1070
     7
1000
EX_NORM
1070
    41
1040
15.0
1070
    42
1040
7.5
1070
    44
1040
5.0
1070
    73
1070
     0
1070
    74
1070
     0
1070
    75
1070
     0
1070
    76
1070
     0
1070
    77
1070
     1
1070
    78
1070
     8
1070
   140
1040
17.3145207852194
1070
   147
1040
0.0
1070
   173
1070
     1
1070
   176
1070
     2
1070
   177
1070
     2
1070
   178
1070
     2
1070
   271
1070
     2
1070
   277
1070
     2
1070
   279
1070
     2
1070
   280
1070
     0
1070
   287
1070
     5
1070
   340
1005
10E
1002
}
  0
DIMENSION
  5
21E
330
1F
100
AcDbEntity
  8
Ｓ_１_１
  6
CONTINUOUS
 62
     2
100
AcDbDimension
  2
*D37
 10
1793.999992
 20
630.0
 30
0.0
 11
1530.1000115
 21
643.75
 31
0.0
 70
   160
  3
ISO-25
100
AcDbAlignedDimension
 13
1266.200031
 23
567.999951
 33
0.0
 14
1793.999992
 24
567.999913
 34
0.0
100
AcDbRotatedDimension
1001
ACAD
1000
DSTYLE
1002
{
1070
   270
1070
     2
1070
     6
1000
EX_NORM
1070
     7
1000
EX_NORM
1070
    41
1040
15.0
1070
    42
1040
7.5
1070
    44
1040
5.0
1070
    73
1070
     0
1070
    74
1070
     0
1070
    75
1070
     0
1070
    76
1070
     0
1070
    77
1070
     1
1070
    78
1070
     8
1070
   140
1040
17.3145207852194
1070
   147
1040
0.0
1070
   173
1070
     1
1070
   176
1070
     2
1070
   177
1070
     2
1070
   178
1070
     2
1070
   271
1070
     2
1070
   277
1070
     2
1070
   279
1070
     2
1070
   280
1070
     0
1070
   287
1070
     5
1070
   340
1005
10E
1002
}
  0
DIMENSION
  5
22B
330
1F
100
AcDbEntity
  8
Ｓ_１_１
  6
CONTINUOUS
 62
     2
100
AcDbDimension
  2
*D38
 10
1689.999999
 20
180.0
 30
0.0
 11
1530.00002
 21
193.75
 31
0.0
 70
   160
  3
ISO-25
100
AcDbAlignedDimension
 13
1370.000041
 23
284.99994
 33
0.0
 14
1689.999999
 24
288.0
 34
0.0
100
AcDbRotatedDimension
1001
ACAD
1000
DSTYLE
1002
{
1070
   270
1070
     2
1070
     6
1000
EX_NORM
1070
     7
1000
EX_NORM
1070
    41
1040
15.0
1070
    42
1040
7.5
1070
    44
1040
5.0
1070
    73
1070
     0
1070
    74
1070
     0
1070
    75
1070
     1
1070
    76
1070
     0
1070
    77
1070
     1
1070
    78
1070
     8
1070
   140
1040
17.3145207852194
1070
   147
1040
0.0
1070
   173
1070
     1
1070
   176
1070
     2
1070
   177
1070
     2
1070
   178
1070
     2
1070
   271
1070
     2
1070
   277
1070
     2
1070
   279
1070
     2
1070
   280
1070
     0
1070
   287
1070
     5
1070
   340
1005
10E
1002
}
  0
DIMENSION
  5
237
330
1F
100
AcDbEntity
  8
Ｓ_１_１
  6
CONTINUOUS
 62
     2
100
AcDbDimension
  2
*D39
 10
1290.000042
 20
180.0
 30
0.0
 11
1315.0000415
 21
193.75
 31
0.0
 70
   160
  1
80
  3
ISO-25
100
AcDbAlignedDimension
 13
1370.000041
 23
284.99994
 33
0.0
 14
1290.000042
 24
288.5
 34
0.0
100
AcDbRotatedDimension
1001
ACAD
1000
DSTYLE
1002
{
1070
   270
1070
     2
1070
     6
1000
EX_NORM
1070
     7
1000
EX_NORM
1070
    41
1040
15.0
1070
    42
1040
7.5
1070
    44
1040
5.0
1070
    73
1070
     1
1070
    74
1070
     1
1070
    75
1070
     0
1070
    76
1070
     0
1070
    77
1070
     1
1070
    78
1070
     8
1070
   140
1040
17.3145207852194
1070
   147
1040
0.0
1070
   173
1070
     1
1070
   176
1070
     2
1070
   177
1070
     2
1070
   178
1070
     2
1070
   271
1070
     2
1070
   277
1070
     2
1070
   279
1070
     2
1070
   280
1070
     0
1070
   287
1070
     5
1070
   340
1005
10E
1002
}
  0
DIMENSION
  5
244
330
1F
100
AcDbEntity
  8
Ｓ_１_１
  6
CONTINUOUS
 62
     2
100
AcDbDimension
  2
*D40
 10
1769.999935
 20
180.0
 30
0.0
 11
1744.999967
 21
193.75
 31
0.0
 70
   160
  3
ISO-25
100
AcDbAlignedDimension
 13
1689.999999
 23
284.9999660000001
 33
0.0
 14
1769.999935
 24
285.000037
 34
0.0
100
AcDbRotatedDimension
1001
ACAD
1000
DSTYLE
1002
{
1070
   270
1070
     2
1070
     6
1000
EX_NORM
1070
     7
1000
EX_NORM
1070
    41
1040
15.0
1070
    42
1040
0.0
1070
    44
1040
0.0
1070
    73
1070
     1
1070
    74
1070
     1
1070
    75
1070
     1
1070
    76
1070
     1
1070
    77
1070
     1
1070
    78
1070
     8
1070
   140
1040
17.3145207852194
1070
   147
1040
0.0
1070
   173
1070
     1
1070
   176
1070
     2
1070
   177
1070
     2
1070
   178
1070
     2
1070
   271
1070
     2
1070
   277
1070
     2
1070
   279
1070
     2
1070
   280
1070
     0
1070
   287
1070
     5
1070
   340
1005
10E
1002
}
  0
DIMENSION
  5
24F
330
1F
100
AcDbEntity
  8
Ｓ_１_１
  6
CONTINUOUS
 62
     2
100
AcDbDimension
  2
*D41
 10
1729.999995
 20
150.0
 30
0.0
 11
1530.000018
 21
163.75
 31
0.0
 70
   160
  3
ISO-25
100
AcDbAlignedDimension
 13
1330.000041
 23
317.999993
 33
0.0
 14
1729.999995
 24
317.999993
 34
0.0
100
AcDbRotatedDimension
1001
ACAD
1000
DSTYLE
1002
{
1070
   270
1070
     2
1070
     6
1000
EX_NORM
1070
     7
1000
EX_NORM
1070
    41
1040
15.0
1070
    42
1040
0.0
1070
    44
1040
0.0
1070
    73
1070
     0
1070
    74
1070
     0
1070
    75
1070
     1
1070
    76
1070
     1
1070
    77
1070
     1
1070
    78
1070
     8
1070
   140
1040
17.3145207852194
1070
   147
1040
0.0
1070
   173
1070
     1
1070
   176
1070
     2
1070
   177
1070
     2
1070
   178
1070
     2
1070
   271
1070
     2
1070
   277
1070
     2
1070
   279
1070
     2
1070
   280
1070
     0
1070
   287
1070
     5
1070
   340
1005
10E
1002
}
  0
DIMENSION
  5
25A
330
1F
100
AcDbEntity
  8
Ｓ_１_１
  6
CONTINUOUS
 62
     2
100
AcDbDimension
  2
*D42
 10
1290.000042
 20
150.0
 30
0.0
 11
1263.750042
 21
163.7499999999997
 31
0.0
 70
   160
  3
ISO-25
100
AcDbAlignedDimension
 13
1330.000041
 23
317.999993
 33
0.0
 14
1290.000042
 24
288.0
 34
0.0
100
AcDbRotatedDimension
1001
ACAD
1000
DSTYLE
1002
{
1070
   270
1070
     2
1070
     6
1000
EX_NORM
1070
     7
1000
EX_NORM
1070
    41
1040
15.0
1070
    42
1040
7.5
1070
    44
1040
5.0
1070
    73
1070
     0
1070
    74
1070
     0
1070
    75
1070
     0
1070
    76
1070
     0
1070
    77
1070
     1
1070
    78
1070
     8
1070
   140
1040
17.3145207852194
1070
   147
1040
0.0
1070
   173
1070
     1
1070
   176
1070
     2
1070
   177
1070
     2
1070
   178
1070
     2
1070
   271
1070
     2
1070
   277
1070
     2
1070
   279
1070
     2
1070
   280
1070
     2
1070
   287
1070
     5
1070
   340
1005
10E
1002
}
  0
DIMENSION
  5
267
330
1F
100
AcDbEntity
  8
Ｓ_１_１
  6
CONTINUOUS
 62
     2
100
AcDbDimension
  2
*D43
 10
1769.999935
 20
150.0
 30
0.0
 11
1796.249935
 21
163.75
 31
0.0
 70
   160
  3
ISO-25
100
AcDbAlignedDimension
 13
1729.999995
 23
317.999993
 33
0.0
 14
1769.999935
 24
285.000037
 34
0.0
100
AcDbRotatedDimension
1001
ACAD
1000
DSTYLE
1002
{
1070
   270
1070
     2
1070
     6
1000
EX_NORM
1070
     7
1000
EX_NORM
1070
    41
1040
15.0
1070
    42
1040
7.5
1070
    44
1040
5.0
1070
    73
1070
     0
1070
    74
1070
     0
1070
    75
1070
     0
1070
    76
1070
     1
1070
    77
1070
     1
1070
    78
1070
     8
1070
   140
1040
17.3145207852194
1070
   147
1040
0.0
1070
   173
1070
     1
1070
   176
1070
     2
1070
   177
1070
     2
1070
   178
1070
     2
1070
   271
1070
     2
1070
   277
1070
     2
1070
   279
1070
     2
1070
   280
1070
     2
1070
   287
1070
     5
1070
   340
1005
10E
1002
}
  0
DIMENSION
  5
273
330
1F
100
AcDbEntity
  8
Ｓ_１_１
  6
CONTINUOUS
 62
     2
100
AcDbDimension
  2
*D44
 10
1769.999935
 20
120.0
 30
0.0
 11
1529.9999885
 21
133.75
 31
0.0
 70
   160
  3
ISO-25
100
AcDbAlignedDimension
 13
1290.000042
 23
285.000097
 33
0.0
 14
1769.999935
 24
285.000037
 34
0.0
100
AcDbRotatedDimension
1001
ACAD
1000
DSTYLE
1002
{
1070
   270
1070
     2
1070
     6
1000
EX_NORM
1070
     7
1000
EX_NORM
1070
    41
1040
15.0
1070
    42
1040
7.5
1070
    44
1040
5.0
1070
    73
1070
     0
1070
    74
1070
     0
1070
    75
1070
     0
1070
    76
1070
     0
1070
    77
1070
     1
1070
    78
1070
     8
1070
   140
1040
17.3145207852194
1070
   147
1040
0.0
1070
   173
1070
     1
1070
   176
1070
     2
1070
   177
1070
     2
1070
   178
1070
     2
1070
   271
1070
     2
1070
   277
1070
     2
1070
   279
1070
     2
1070
   280
1070
     0
1070
   287
1070
     5
1070
   340
1005
10E
1002
}
  0
LINE
  5
280
330
1F
100
AcDbEntity
  8
Ｓ_１_１
  6
EXLTYPE2
 62
     1
100
AcDbLine
 10
635.398942
 20
419.9999989999999
 30
0.0
 11
728.4836570000002
 21
419.9999989999999
 31
0.0
  0
LINE
  5
281
330
1F
100
AcDbEntity
  8
Ｓ_１_１
  6
EXLTYPE2
 62
     1
100
AcDbLine
 10
585.0000010000001
 20
337.2001649999999
 30
0.0
 11
585.0000010000001
 21
265.6875619999998
 31
0.0
  0
LINE
  5
282
330
1F
100
AcDbEntity
  8
Ｓ_１_１
  6
EXLTYPE2
 62
     1
100
AcDbLine
 10
734.9999990000001
 20
336.5000919999999
 30
0.0
 11
734.9999990000001
 21
264.812547
 31
0.0
  0
LINE
  5
283
330
1F
100
AcDbEntity
  8
Ｓ_１_１
  6
EXLTYPE2
 62
     1
100
AcDbLine
 10
869.9999970000001
 20
514.9999599999999
 30
0.0
 11
869.9999970000001
 21
434.9999229999999
 31
0.0
  0
LINE
  5
284
330
1F
100
AcDbEntity
  8
Ｓ_１_１
  6
EXLTYPE2
 62
     1
100
AcDbLine
 10
449.9999270000001
 20
514.9999599999999
 30
0.0
 11
449.9999270000001
 21
434.9999229999999
 31
0.0
  0
LINE
  5
285
330
1F
100
AcDbEntity
  8
Ｓ_１_１
  6
EXLTYPE2
 62
     1
100
AcDbLine
 10
829.9999980000001
 20
474.9999219999999
 30
0.0
 11
909.9999970000001
 21
474.9999219999999
 31
0.0
  0
LINE
  5
286
330
1F
100
AcDbEntity
  8
Ｓ_１_１
  6
EXLTYPE2
 62
     1
100
AcDbLine
 10
409.9999280000002
 20
474.9999219999999
 30
0.0
 11
489.9999270000001
 21
474.9999219999999
 31
0.0
  0
LINE
  5
287
330
1F
100
AcDbEntity
  8
Ｓ_１_１
  6
EXLTYPE2
 62
     1
100
AcDbLine
 10
674.4999700000001
 20
532.99999
 30
0.0
 11
674.4999700000001
 21
522.99999
 31
0.0
  0
LINE
  5
288
330
1F
100
AcDbEntity
  8
Ｓ_１_１
  6
EXLTYPE2
 62
     1
100
AcDbLine
 10
645.4998780000001
 20
532.99999
 30
0.0
 11
645.4998780000001
 21
522.99999
 31
0.0
  0
LINE
  5
289
330
1F
100
AcDbEntity
  8
Ｓ_１_１
  6
EXLTYPE2
 62
     1
100
AcDbLine
 10
632.5000010000001
 20
527.99999
 30
0.0
 11
687.5000000000002
 21
527.99999
 31
0.0
  0
LINE
  5
28A
330
1F
100
AcDbEntity
  8
Ｓ_１_１
  6
EXLTYPE2
 62
     1
100
AcDbLine
 10
660.0000000000002
 20
570.4750409999999
 30
0.0
 11
660.0000000000002
 21
272.3875439999999
 31
0.0
  0
ARC
  5
28B
330
1F
100
AcDbEntity
  8
Ｓ_１_１
  6
EXLTYPE0
 62
     2
100
AcDbCircle
 10
685.0000000000002
 20
469.9999599999999
 30
0.0
 40
9.999999
100
AcDbArc
 50
0.0
 51
89.99998199999999
  0
ARC
  5
28C
330
1F
100
AcDbEntity
  8
Ｓ_１_１
  6
EXLTYPE0
 62
     2
100
AcDbCircle
 10
635.0000010000001
 20
469.9999599999999
 30
0.0
 40
9.999999
100
AcDbArc
 50
89.99998199999999
 51
179.999964
  0
LINE
  5
28D
330
1F
100
AcDbEntity
  8
Ｓ_１_１
  6
EXLTYPE0
 62
     2
100
AcDbLine
 10
660.0000000000002
 20
434.9999229999999
 30
0.0
 11
714.9999230000001
 21
434.9999229999999
 31
0.0
  0
LINE
  5
28E
330
1F
100
AcDbEntity
  8
Ｓ_１_１
  6
EXLTYPE0
 62
     2
100
AcDbLine
 10
660.0000000000002
 20
404.9999229999999
 30
0.0
 11
714.9999230000001
 21
404.9999229999999
 31
0.0
  0
LINE
  5
28F
330
1F
100
AcDbEntity
  8
Ｓ_１_１
  6
EXLTYPE0
 62
     2
100
AcDbLine
 10
714.9999230000001
 20
458.0000289999999
 30
0.0
 11
717.8945920000001
 21
458.0000289999999
 31
0.0
  0
LINE
  5
290
330
1F
100
AcDbEntity
  8
Ｓ_１_１
  6
EXLTYPE0
 62
     2
100
AcDbLine
 10
714.9999230000001
 20
458.0000289999999
 30
0.0
 11
714.9999230000001
 21
385.0
 31
0.0
  0
LINE
  5
291
330
1F
100
AcDbEntity
  8
Ｓ_１_１
  6
EXLTYPE0
 62
     2
100
AcDbLine
 10
520.0000020000002
 20
385.0
 30
0.0
 11
799.9999980000001
 21
385.0
 31
0.0
  0
LINE
  5
292
330
1F
100
AcDbEntity
  8
Ｓ_１_１
  6
EXLTYPE0
 62
     2
100
AcDbLine
 10
520.0000020000002
 20
359.9999999999999
 30
0.0
 11
799.9999980000001
 21
359.9999999999999
 31
0.0
  0
LINE
  5
293
330
1F
100
AcDbEntity
  8
Ｓ_１_１
  6
EXLTYPE0
 62
     2
100
AcDbLine
 10
520.0000020000002
 20
339.0000159999998
 30
0.0
 11
799.9999980000001
 21
339.0000159999998
 31
0.0
  0
LINE
  5
294
330
1F
100
AcDbEntity
  8
Ｓ_１_１
  6
EXLTYPE0
 62
     2
100
AcDbLine
 10
774.9999990000001
 20
339.0000159999998
 30
0.0
 11
774.9999990000001
 21
316.9999699999999
 31
0.0
  0
LINE
  5
295
330
1F
100
AcDbEntity
  8
Ｓ_１_１
  6
EXLTYPE0
 62
     2
100
AcDbLine
 10
545.0000020000002
 20
339.0000159999998
 30
0.0
 11
545.0000020000002
 21
316.9999699999999
 31
0.0
  0
LINE
  5
296
330
1F
100
AcDbEntity
  8
Ｓ_１_１
  6
EXLTYPE0
 62
     2
100
AcDbLine
 10
585.0000010000001
 20
316.9999699999999
 30
0.0
 11
545.0000020000002
 21
316.9999699999999
 31
0.0
  0
LINE
  5
297
330
1F
100
AcDbEntity
  8
Ｓ_１_１
  6
EXLTYPE0
 62
     2
100
AcDbLine
 10
585.0000010000001
 20
316.9999699999999
 30
0.0
 11
734.9999990000001
 21
316.9999699999999
 31
0.0
  0
LINE
  5
298
330
1F
100
AcDbEntity
  8
Ｓ_１_１
  6
EXLTYPE0
 62
     2
100
AcDbLine
 10
734.9999990000001
 20
316.9999699999999
 30
0.0
 11
774.9999990000001
 21
316.9999699999999
 31
0.0
  0
LINE
  5
299
330
1F
100
AcDbEntity
  8
Ｓ_１_１
  6
EXLTYPE0
 62
     2
100
AcDbLine
 10
772.9998330000001
 20
314.9997519999999
 30
0.0
 11
774.9999
 21
316.9998189999999
 31
0.0
  0
LINE
  5
29A
330
1F
100
AcDbEntity
  8
Ｓ_１_１
  6
EXLTYPE0
 62
     2
100
AcDbLine
 10
547.0000110000001
 20
314.9999789999999
 30
0.0
 11
545.0000360000001
 21
317.0000299999999
 31
0.0
  0
LINE
  5
29B
330
1F
100
AcDbEntity
  8
Ｓ_１_１
  6
EXLTYPE0
 62
     2
100
AcDbLine
 10
734.9999990000001
 20
315.0000009999999
 30
0.0
 11
772.9999530000003
 21
315.0000009999999
 31
0.0
  0
LINE
  5
29C
330
1F
100
AcDbEntity
  8
Ｓ_１_１
  6
EXLTYPE0
 62
     2
100
AcDbLine
 10
585.0000010000001
 20
315.0000009999999
 30
0.0
 11
547.3126240000001
 21
315.0000009999999
 31
0.0
  0
LINE
  5
29D
330
1F
100
AcDbEntity
  8
Ｓ_１_１
  6
EXLTYPE0
 62
     2
100
AcDbLine
 10
734.9999990000001
 20
315.0000009999999
 30
0.0
 11
585.0000010000001
 21
315.0000009999999
 31
0.0
  0
LINE
  5
29E
330
1F
100
AcDbEntity
  8
Ｓ_１_１
  6
EXLTYPE0
 62
     2
100
AcDbLine
 10
625.0002940000002
 20
464.13481
 30
0.0
 11
602.105679
 21
458.0002569999999
 31
0.0
  0
LINE
  5
29F
330
1F
100
AcDbEntity
  8
Ｓ_１_１
  6
EXLTYPE0
 62
     2
100
AcDbLine
 10
625.0000010000001
 20
469.9999599999999
 30
0.0
 11
625.0000010000001
 21
464.1345199999999
 31
0.0
  0
LINE
  5
2A0
330
1F
100
AcDbEntity
  8
Ｓ_１_１
  6
EXLTYPE0
 62
     2
100
AcDbLine
 10
695.0000000000002
 20
469.9999599999999
 30
0.0
 11
695.0000000000002
 21
464.1345199999999
 31
0.0
  0
LINE
  5
2A1
330
1F
100
AcDbEntity
  8
Ｓ_１_１
  6
EXLTYPE0
 62
     2
100
AcDbLine
 10
635.0000010000001
 20
479.9999599999999
 30
0.0
 11
660.0000000000002
 21
479.9999599999999
 31
0.0
  0
LINE
  5
2A2
330
1F
100
AcDbEntity
  8
Ｓ_１_１
  6
EXLTYPE0
 62
     2
100
AcDbLine
 10
660.0000000000002
 20
479.9999599999999
 30
0.0
 11
685.0000000000002
 21
479.9999599999999
 31
0.0
  0
LINE
  5
2A3
330
1F
100
AcDbEntity
  8
Ｓ_１_１
  6
EXLTYPE0
 62
     2
100
AcDbLine
 10
602.1046460000002
 20
458.0000289999999
 30
0.0
 11
660.0000000000002
 21
458.0000289999999
 31
0.0
  0
LINE
  5
2A4
330
1F
100
AcDbEntity
  8
Ｓ_１_１
  6
EXLTYPE0
 62
     2
100
AcDbLine
 10
800.0000780000001
 20
436.0002009999999
 30
0.0
 11
694.999925
 21
464.134856
 31
0.0
  0
LINE
  5
2A5
330
1F
100
AcDbEntity
  8
Ｓ_１_１
  6
EXLTYPE0
 62
     2
100
AcDbLine
 10
519.9998400000002
 20
435.999997
 30
0.0
 11
602.1056060000001
 21
458.00013
 31
0.0
  0
LINE
  5
2A6
330
1F
100
AcDbEntity
  8
Ｓ_１_１
  6
EXLTYPE0
 62
     2
100
AcDbLine
 10
520.0000020000002
 20
326.9999699999998
 30
0.0
 11
545.0000020000002
 21
326.9999699999998
 31
0.0
  0
CIRCLE
  5
2A7
330
1F
100
AcDbEntity
  8
Ｓ_１_１
  6
CONTINUOUS
 62
     3
100
AcDbCircle
 10
449.9999270000001
 20
474.9999219999999
 30
0.0
 40
30.00000000000002
  0
CIRCLE
  5
2A8
330
1F
100
AcDbEntity
  8
Ｓ_１_１
  6
CONTINUOUS
 62
     3
100
AcDbCircle
 10
869.9999970000001
 20
474.9999219999999
 30
0.0
 40
30.00000000000002
  0
ARC
  5
2A9
330
1F
100
AcDbEntity
  8
Ｓ_１_１
  6
CONTINUOUS
 62
     3
100
AcDbCircle
 10
869.9999970000001
 20
474.9999219999999
 30
0.0
 40
69.999994
100
AcDbArc
 50
315.0000090000002
 51
105.000047
  0
ARC
  5
2AA
330
1F
100
AcDbEntity
  8
Ｓ_１_１
  6
CONTINUOUS
 62
     3
100
AcDbCircle
 10
449.9999270000001
 20
474.9999219999999
 30
0.0
 40
69.999994
100
AcDbArc
 50
74.99997099999999
 51
224.9999140000002
  0
CIRCLE
  5
2AB
330
1F
100
AcDbEntity
  8
Ｓ_１_１
  6
CONTINUOUS
 62
     3
100
AcDbCircle
 10
674.4999700000001
 20
527.99999
 30
0.0
 40
3.000000000000003
  0
CIRCLE
  5
2AC
330
1F
100
AcDbEntity
  8
Ｓ_１_１
  6
CONTINUOUS
 62
     3
100
AcDbCircle
 10
645.4998780000001
 20
527.99999
 30
0.0
 40
3.000000000000003
  0
CIRCLE
  5
2AD
330
1F
100
AcDbEntity
  8
Ｓ_１_１
  6
CONTINUOUS
 62
     3
100
AcDbCircle
 10
660.0000000000002
 20
527.99999
 30
0.0
 40
21.000001
  0
CIRCLE
  5
2AE
330
1F
100
AcDbEntity
  8
Ｓ_１_１
  6
CONTINUOUS
 62
     3
100
AcDbCircle
 10
660.0000000000002
 20
527.99999
 30
0.0
 40
19.99999900000001
  0
LINE
  5
2AF
330
1F
100
AcDbEntity
  8
Ｓ_１_１
  6
CONTINUOUS
 62
     3
100
AcDbLine
 10
810.9949470000001
 20
393.9999379999999
 30
0.0
 11
810.9949470000001
 21
399.9999229999999
 31
0.0
  0
LINE
  5
2B0
330
1F
100
AcDbEntity
  8
Ｓ_１_１
  6
CONTINUOUS
 62
     3
100
AcDbLine
 10
810.9949470000001
 20
393.9999379999999
 30
0.0
 11
885.9949460000001
 21
393.9999379999999
 31
0.0
  0
LINE
  5
2B1
330
1F
100
AcDbEntity
  8
Ｓ_１_１
  6
CONTINUOUS
 62
     3
100
AcDbLine
 10
885.9949460000001
 20
399.9999229999999
 30
0.0
 11
885.9949460000001
 21
393.9999379999999
 31
0.0
  0
LINE
  5
2B2
330
1F
100
AcDbEntity
  8
Ｓ_１_１
  6
CONTINUOUS
 62
     3
100
AcDbLine
 10
468.1174050000002
 20
542.6149189999999
 30
0.0
 11
615.7509910000001
 21
503.0565109999999
 31
0.0
  0
LINE
  5
2B3
330
1F
100
AcDbEntity
  8
Ｓ_１_１
  6
CONTINUOUS
 62
     3
100
AcDbLine
 10
851.8823090000001
 20
542.6147309999999
 30
0.0
 11
704.2484840000001
 21
503.0563179999999
 31
0.0
  0
LINE
  5
2B4
330
1F
100
AcDbEntity
  8
Ｓ_１_１
  6
CONTINUOUS
 62
     3
100
AcDbLine
 10
400.5022130000002
 20
425.5023669999999
 30
0.0
 11
441.0048320000001
 21
384.999902
 31
0.0
  0
LINE
  5
2B5
330
1F
100
AcDbEntity
  8
Ｓ_１_１
  6
CONTINUOUS
 62
     3
100
AcDbLine
 10
899.9999200000002
 20
385.0
 30
0.0
 11
799.9999980000001
 21
385.0
 31
0.0
  0
LINE
  5
2B6
330
1F
100
AcDbEntity
  8
Ｓ_１_１
  6
CONTINUOUS
 62
     3
100
AcDbLine
 10
420.0000800000001
 20
385.0
 30
0.0
 11
520.0000020000002
 21
385.0
 31
0.0
  0
LINE
  5
2B7
330
1F
100
AcDbEntity
  8
Ｓ_１_１
  6
CONTINUOUS
 62
     3
100
AcDbLine
 10
899.9999200000002
 20
385.0
 30
0.0
 11
899.9999200000002
 21
383.0000299999999
 31
0.0
  0
LINE
  5
2B8
330
1F
100
AcDbEntity
  8
Ｓ_１_１
  6
CONTINUOUS
 62
     3
100
AcDbLine
 10
420.0000800000001
 20
385.0
 30
0.0
 11
420.0000800000001
 21
383.0000299999999
 31
0.0
  0
LINE
  5
2B9
330
1F
100
AcDbEntity
  8
Ｓ_１_１
  6
CONTINUOUS
 62
     3
100
AcDbLine
 10
893.9949340000002
 20
399.9999309999999
 30
0.0
 11
919.4974880000001
 21
425.502482
 31
0.0
  0
LINE
  5
2BA
330
1F
100
AcDbEntity
  8
Ｓ_１_１
  6
CONTINUOUS
 62
     3
100
AcDbLine
 10
799.9999980000001
 20
399.9999229999999
 30
0.0
 11
893.9949770000002
 21
399.9999229999999
 31
0.0
  0
LINE
  5
2BB
330
1F
100
AcDbEntity
  8
Ｓ_１_１
  6
CONTINUOUS
 62
     3
100
AcDbLine
 10
725.9999080000002
 20
269.500047
 30
0.0
 11
743.9999380000002
 21
269.500047
 31
0.0
  0
LINE
  5
2BC
330
1F
100
AcDbEntity
  8
Ｓ_１_１
  6
CONTINUOUS
 62
     3
100
AcDbLine
 10
575.999986
 20
269.500047
 30
0.0
 11
594.0000170000001
 21
269.500047
 31
0.0
  0
LINE
  5
2BD
330
1F
100
AcDbEntity
  8
Ｓ_１_１
  6
CONTINUOUS
 62
     3
100
AcDbLine
 10
594.0001100000002
 20
269.4997609999998
 30
0.0
 11
593.1340570000002
 21
267.9998069999999
 31
0.0
  0
LINE
  5
2BE
330
1F
100
AcDbEntity
  8
Ｓ_１_１
  6
CONTINUOUS
 62
     3
100
AcDbLine
 10
744.0002400000001
 20
269.500188
 30
0.0
 11
743.134168
 21
268.0000679999998
 31
0.0
  0
LINE
  5
2BF
330
1F
100
AcDbEntity
  8
Ｓ_１_１
  6
CONTINUOUS
 62
     3
100
AcDbLine
 10
726.000339
 20
269.5002419999998
 30
0.0
 11
726.866335
 21
268.0002549999999
 31
0.0
  0
LINE
  5
2C0
330
1F
100
AcDbEntity
  8
Ｓ_１_１
  6
CONTINUOUS
 62
     3
100
AcDbLine
 10
575.9999930000001
 20
269.500094
 30
0.0
 11
576.8660990000001
 21
268.000049
 31
0.0
  0
LINE
  5
2C1
330
1F
100
AcDbEntity
  8
Ｓ_１_１
  6
CONTINUOUS
 62
     3
100
AcDbLine
 10
726.8659200000002
 20
268.0000319999999
 30
0.0
 11
743.134002
 21
268.0000319999999
 31
0.0
  0
LINE
  5
2C2
330
1F
100
AcDbEntity
  8
Ｓ_１_１
  6
CONTINUOUS
 62
     3
100
AcDbLine
 10
576.8660750000001
 20
268.0000319999999
 30
0.0
 11
593.1339280000002
 21
268.0000319999999
 31
0.0
  0
LINE
  5
2C3
330
1F
100
AcDbEntity
  8
Ｓ_１_１
  6
CONTINUOUS
 62
     3
100
AcDbLine
 10
725.9999080000002
 20
279.9999249999998
 30
0.0
 11
725.9999080000002
 21
269.500047
 31
0.0
  0
LINE
  5
2C4
330
1F
100
AcDbEntity
  8
Ｓ_１_１
  6
CONTINUOUS
 62
     3
100
AcDbLine
 10
743.9999380000002
 20
279.9999249999998
 30
0.0
 11
743.9999380000002
 21
269.500047
 31
0.0
  0
LINE
  5
2C5
330
1F
100
AcDbEntity
  8
Ｓ_１_１
  6
CONTINUOUS
 62
     3
100
AcDbLine
 10
594.0000170000001
 20
279.9999249999998
 30
0.0
 11
594.0000170000001
 21
269.500047
 31
0.0
  0
LINE
  5
2C6
330
1F
100
AcDbEntity
  8
Ｓ_１_１
  6
CONTINUOUS
 62
     3
100
AcDbLine
 10
575.999986
 20
279.9999249999998
 30
0.0
 11
575.999986
 21
269.500047
 31
0.0
  0
LINE
  5
2C7
330
1F
100
AcDbEntity
  8
Ｓ_１_１
  6
CONTINUOUS
 62
     3
100
AcDbLine
 10
429.9999230000001
 20
359.9999099999999
 30
0.0
 11
419.9999100000002
 21
362.679433
 31
0.0
  0
LINE
  5
2C8
330
1F
100
AcDbEntity
  8
Ｓ_１_１
  6
CONTINUOUS
 62
     3
100
AcDbLine
 10
889.9997440000001
 20
360.0000379999999
 30
0.0
 11
899.9998320000001
 21
362.6795809999999
 31
0.0
  0
LINE
  5
2C9
330
1F
100
AcDbEntity
  8
Ｓ_１_１
  6
CONTINUOUS
 62
     3
100
AcDbLine
 10
675.0001240000001
 20
568.000176
 30
0.0
 11
685.0000920000002
 21
558.000284
 31
0.0
  0
LINE
  5
2CA
330
1F
100
AcDbEntity
  8
Ｓ_１_１
  6
CONTINUOUS
 62
     3
100
AcDbLine
 10
645.0001550000002
 20
568.0001009999999
 30
0.0
 11
635.0001440000001
 21
558.00009
 31
0.0
  0
LINE
  5
2CB
330
1F
100
AcDbEntity
  8
Ｓ_１_１
  6
CONTINUOUS
 62
     3
100
AcDbLine
 10
645.000001
 20
567.999951
 30
0.0
 11
675.0000000000002
 21
567.999951
 31
0.0
  0
LINE
  5
2CC
330
1F
100
AcDbEntity
  8
Ｓ_１_１
  6
CONTINUOUS
 62
     3
100
AcDbLine
 10
685.0000000000002
 20
558.0000659999998
 30
0.0
 11
685.0000000000002
 21
508.214109
 31
0.0
  0
LINE
  5
2CD
330
1F
100
AcDbEntity
  8
Ｓ_１_１
  6
CONTINUOUS
 62
     3
100
AcDbLine
 10
635.0000010000001
 20
557.9999889999999
 30
0.0
 11
635.0000010000001
 21
508.214109
 31
0.0
  0
LINE
  5
2CE
330
1F
100
AcDbEntity
  8
Ｓ_１_１
  6
CONTINUOUS
 62
     3
100
AcDbLine
 10
635.0000010000001
 20
497.99999
 30
0.0
 11
635.0000010000001
 21
508.214109
 31
0.0
  0
LINE
  5
2CF
330
1F
100
AcDbEntity
  8
Ｓ_１_１
  6
CONTINUOUS
 62
     3
100
AcDbLine
 10
685.0000000000002
 20
497.99999
 30
0.0
 11
685.0000000000002
 21
508.214109
 31
0.0
  0
LINE
  5
2D0
330
1F
100
AcDbEntity
  8
Ｓ_１_１
  6
CONTINUOUS
 62
     3
100
AcDbLine
 10
635.0000010000001
 20
497.99999
 30
0.0
 11
660.0000000000002
 21
497.99999
 31
0.0
  0
LINE
  5
2D1
330
1F
100
AcDbEntity
  8
Ｓ_１_１
  6
CONTINUOUS
 62
     3
100
AcDbLine
 10
660.0000000000002
 20
497.99999
 30
0.0
 11
685.0000000000002
 21
497.99999
 31
0.0
  0
LINE
  5
2D2
330
1F
100
AcDbEntity
  8
Ｓ_１_１
  6
CONTINUOUS
 62
     3
100
AcDbLine
 10
799.9998840000001
 20
477.400007
 30
0.0
 11
684.9999449999999
 21
508.214151
 31
0.0
  0
LINE
  5
2D3
330
1F
100
AcDbEntity
  8
Ｓ_１_１
  6
CONTINUOUS
 62
     3
100
AcDbLine
 10
520.0001650000002
 20
477.4001829999999
 30
0.0
 11
634.9999570000002
 21
508.214288
 31
0.0
  0
LINE
  5
2D4
330
1F
100
AcDbEntity
  8
Ｓ_１_１
  6
CONTINUOUS
 62
     3
100
AcDbLine
 10
799.9999980000001
 20
477.4000149999999
 30
0.0
 11
799.9999980000001
 21
332.0000459999999
 31
0.0
  0
LINE
  5
2D5
330
1F
100
AcDbEntity
  8
Ｓ_１_１
  6
CONTINUOUS
 62
     3
100
AcDbLine
 10
520.0000020000002
 20
477.4000149999999
 30
0.0
 11
520.0000020000002
 21
359.9999999999999
 31
0.0
  0
LINE
  5
2D6
330
1F
100
AcDbEntity
  8
Ｓ_１_１
  6
CONTINUOUS
 62
     3
100
AcDbLine
 10
799.9999980000001
 20
332.0000459999999
 30
0.0
 11
799.9999980000001
 21
279.9999249999998
 31
0.0
  0
LINE
  5
2D7
330
1F
100
AcDbEntity
  8
Ｓ_１_１
  6
CONTINUOUS
 62
     3
100
AcDbLine
 10
520.0000020000002
 20
359.9999999999999
 30
0.0
 11
520.0000020000002
 21
279.9999249999998
 31
0.0
  0
LINE
  5
2D8
330
1F
100
AcDbEntity
  8
Ｓ_１_１
  6
CONTINUOUS
 62
     3
100
AcDbLine
 10
520.0000020000002
 20
279.9999249999998
 30
0.0
 11
660.0000000000002
 21
279.9999249999998
 31
0.0
  0
LINE
  5
2D9
330
1F
100
AcDbEntity
  8
Ｓ_１_１
  6
CONTINUOUS
 62
     3
100
AcDbLine
 10
660.0000000000002
 20
279.9999249999998
 30
0.0
 11
799.9999980000001
 21
279.9999249999998
 31
0.0
  0
LINE
  5
2DA
330
1F
100
AcDbEntity
  8
Ｓ_１_１
  6
CONTINUOUS
 62
     3
100
AcDbLine
 10
899.9999200000002
 20
383.0000299999999
 30
0.0
 11
899.9999200000002
 21
362.6794429999999
 31
0.0
  0
LINE
  5
2DB
330
1F
100
AcDbEntity
  8
Ｓ_１_１
  6
CONTINUOUS
 62
     3
100
AcDbLine
 10
420.0000800000001
 20
383.0000299999999
 30
0.0
 11
420.0000800000001
 21
362.6794429999999
 31
0.0
  0
LINE
  5
2DC
330
1F
100
AcDbEntity
  8
Ｓ_１_１
  6
CONTINUOUS
 62
     3
100
AcDbLine
 10
429.9999230000001
 20
359.9999099999998
 30
0.0
 11
520.0000020000002
 21
359.9999099999998
 31
0.0
  0
LINE
  5
2DD
330
1F
100
AcDbEntity
  8
Ｓ_１_１
  6
EXLTYPE2
 62
     1
100
AcDbLine
 10
342.5124698293541
 20
323.0654601175718
 30
0.0
 11
352.139223085444
 21
377.6614749316698
 31
0.0
  0
LINE
  5
2DE
330
1F
100
AcDbEntity
  8
Ｓ_１_１
  6
EXLTYPE2
 62
     1
100
AcDbLine
 10
1002.310081402779
 20
321.2448317698405
 30
0.0
 11
1011.632428145304
 21
374.114472836543
 31
0.0
  0
LINE
  5
2DF
330
1F
100
AcDbEntity
  8
Ｓ_１_１
  6
CONTINUOUS
 62
     3
100
AcDbLine
 10
520.0000020000002
 20
339.0000159999998
 30
0.0
 11
345.3221627757687
 21
339.0000159999998
 31
0.0
  0
LINE
  5
2E0
330
1F
100
AcDbEntity
  8
Ｓ_１_１
  6
CONTINUOUS
 62
     3
100
AcDbLine
 10
520.0000020000002
 20
359.9999999999998
 30
0.0
 11
349.0250276284178
 21
359.9999999999998
 31
0.0
  0
LINE
  5
2E1
330
1F
100
AcDbEntity
  8
Ｓ_１_１
  6
CONTINUOUS
 62
     3
100
AcDbLine
 10
799.9999980000001
 20
339.0000159999998
 30
0.0
 11
1005.440800290432
 21
339.000016
 31
0.0
  0
LINE
  5
2E2
330
1F
100
AcDbEntity
  8
Ｓ_１_１
  6
CONTINUOUS
 62
     3
100
AcDbLine
 10
799.9999980000001
 20
359.9999999999999
 30
0.0
 11
1009.143665081749
 21
359.9999999999999
 31
0.0
  0
LINE
  5
2E3
330
1F
100
AcDbEntity
  8
Ｓ_１_１
  6
CONTINUOUS
 62
     3
100
AcDbLine
 10
1641.999992
 20
499.9999589999999
 30
0.0
 11
1641.999992
 21
384.9999989999999
 31
0.0
  0
LINE
  5
2E4
330
1F
100
AcDbEntity
  8
Ｓ_１_１
  6
CONTINUOUS
 62
     3
100
AcDbLine
 10
1618.999976
 20
499.9999589999999
 30
0.0
 11
1618.999976
 21
399.9999609999998
 31
0.0
  0
LINE
  5
2E5
330
1F
100
AcDbEntity
  8
Ｓ_１_１
  6
CONTINUOUS
 62
     3
100
AcDbLine
 10
1616.999987
 20
399.9999609999998
 30
0.0
 11
1616.999987
 21
384.9999989999999
 31
0.0
  0
LINE
  5
2E6
330
1F
100
AcDbEntity
  8
Ｓ_１_１
  6
CONTINUOUS
 62
     3
100
AcDbLine
 10
1418.000013
 20
499.9999589999999
 30
0.0
 11
1418.000013
 21
384.9999989999999
 31
0.0
  0
LINE
  5
2E7
330
1F
100
AcDbEntity
  8
Ｓ_１_１
  6
CONTINUOUS
 62
     3
100
AcDbLine
 10
1443.000013
 20
399.9999609999998
 30
0.0
 11
1441.000005
 21
399.9999609999998
 31
0.0
  0
LINE
  5
2E8
330
1F
100
AcDbEntity
  8
Ｓ_１_１
  6
CONTINUOUS
 62
     3
100
AcDbLine
 10
1443.000032
 20
399.9999609999998
 30
0.0
 11
1443.000032
 21
384.9999989999999
 31
0.0
  0
LINE
  5
2E9
330
1F
100
AcDbEntity
  8
Ｓ_１_１
  6
CONTINUOUS
 62
     3
100
AcDbLine
 10
1794.999968
 20
382.9999919999998
 30
0.0
 11
1794.999968
 21
359.9999999999998
 31
0.0
  0
LINE
  5
2EA
330
1F
100
AcDbEntity
  8
Ｓ_１_１
  6
CONTINUOUS
 62
     3
100
AcDbLine
 10
1658.99998
 20
384.9999989999999
 30
0.0
 11
1658.99998
 21
382.9999919999998
 31
0.0
  0
LINE
  5
2EB
330
1F
100
AcDbEntity
  8
Ｓ_１_１
  6
CONTINUOUS
 62
     3
100
AcDbLine
 10
1794.999968
 20
382.9999919999998
 30
0.0
 11
1658.99998
 21
382.9999919999998
 31
0.0
  0
LINE
  5
2EC
330
1F
100
AcDbEntity
  8
Ｓ_１_１
  6
CONTINUOUS
 62
     3
100
AcDbLine
 10
1265.000004
 20
382.9999919999998
 30
0.0
 11
1265.000004
 21
359.9999999999998
 31
0.0
  0
LINE
  5
2ED
330
1F
100
AcDbEntity
  8
Ｓ_１_１
  6
CONTINUOUS
 62
     3
100
AcDbLine
 10
1401.000006
 20
384.9999989999999
 30
0.0
 11
1401.000006
 21
382.9999919999998
 31
0.0
  0
LINE
  5
2EE
330
1F
100
AcDbEntity
  8
Ｓ_１_１
  6
CONTINUOUS
 62
     3
100
AcDbLine
 10
1401.000006
 20
382.9999539999999
 30
0.0
 11
1265.000004
 21
382.9999539999999
 31
0.0
  0
LINE
  5
2EF
330
1F
100
AcDbEntity
  8
Ｓ_１_１
  6
CONTINUOUS
 62
     3
100
AcDbLine
 10
1641.999992
 20
499.9999589999999
 30
0.0
 11
1618.999976
 21
499.9999589999999
 31
0.0
  0
LINE
  5
2F0
330
1F
100
AcDbEntity
  8
Ｓ_１_１
  6
CONTINUOUS
 62
     3
100
AcDbLine
 10
1417.999994
 20
499.9999589999999
 30
0.0
 11
1441.000005
 21
499.9999589999999
 31
0.0
  0
LINE
  5
2F1
330
1F
100
AcDbEntity
  8
Ｓ_１_１
  6
CONTINUOUS
 62
     3
100
AcDbLine
 10
1441.000005
 20
399.9999609999998
 30
0.0
 11
1441.000005
 21
499.9999589999999
 31
0.0
  0
LINE
  5
2F2
330
1F
100
AcDbEntity
  8
Ｓ_１_１
  6
CONTINUOUS
 62
     3
100
AcDbLine
 10
1592.49999
 20
474.9999599999999
 30
0.0
 11
1592.49999
 21
399.9999609999998
 31
0.0
  0
LINE
  5
2F3
330
1F
100
AcDbEntity
  8
Ｓ_１_１
  6
CONTINUOUS
 62
     3
100
AcDbLine
 10
1568.999996
 20
474.9999599999999
 30
0.0
 11
1568.999996
 21
399.9999609999998
 31
0.0
  0
LINE
  5
2F4
330
1F
100
AcDbEntity
  8
Ｓ_１_１
  6
CONTINUOUS
 62
     3
100
AcDbLine
 10
1491.000004
 20
474.9999599999999
 30
0.0
 11
1491.000004
 21
399.9999609999998
 31
0.0
  0
LINE
  5
2F5
330
1F
100
AcDbEntity
  8
Ｓ_１_１
  6
CONTINUOUS
 62
     3
100
AcDbLine
 10
1467.499982
 20
474.9999599999999
 30
0.0
 11
1467.499982
 21
399.9999609999998
 31
0.0
  0
LINE
  5
2F6
330
1F
100
AcDbEntity
  8
Ｓ_１_１
  6
CONTINUOUS
 62
     3
100
AcDbLine
 10
1592.49999
 20
544.9999969999999
 30
0.0
 11
1592.49999
 21
474.9999599999999
 31
0.0
  0
LINE
  5
2F7
330
1F
100
AcDbEntity
  8
Ｓ_１_１
  6
CONTINUOUS
 62
     3
100
AcDbLine
 10
1568.999996
 20
544.9999969999999
 30
0.0
 11
1568.999996
 21
474.9999599999999
 31
0.0
  0
LINE
  5
2F8
330
1F
100
AcDbEntity
  8
Ｓ_１_１
  6
CONTINUOUS
 62
     3
100
AcDbLine
 10
1491.000004
 20
544.9999969999999
 30
0.0
 11
1491.000004
 21
474.9999599999999
 31
0.0
  0
LINE
  5
2F9
330
1F
100
AcDbEntity
  8
Ｓ_１_１
  6
CONTINUOUS
 62
     3
100
AcDbLine
 10
1467.499982
 20
544.9999969999999
 30
0.0
 11
1467.499982
 21
474.9999599999999
 31
0.0
  0
LINE
  5
2FA
330
1F
100
AcDbEntity
  8
Ｓ_１_１
  6
CONTINUOUS
 62
     3
100
AcDbLine
 10
1592.49999
 20
544.9999969999999
 30
0.0
 11
1568.999996
 21
544.9999969999999
 31
0.0
  0
LINE
  5
2FB
330
1F
100
AcDbEntity
  8
Ｓ_１_１
  6
CONTINUOUS
 62
     3
100
AcDbLine
 10
1467.499982
 20
544.9999969999999
 30
0.0
 11
1491.000004
 21
544.9999969999999
 31
0.0
  0
LINE
  5
2FC
330
1F
100
AcDbEntity
  8
Ｓ_１_１
  6
CONTINUOUS
 62
     3
100
AcDbLine
 10
1592.49999
 20
399.9999609999998
 30
0.0
 11
1443.000032
 21
399.9999609999998
 31
0.0
  0
LINE
  5
2FD
330
1F
100
AcDbEntity
  8
Ｓ_１_１
  6
CONTINUOUS
 62
     3
100
AcDbLine
 10
1579.99999
 20
394.0000139999999
 30
0.0
 11
1530.0
 21
394.0000139999999
 31
0.0
  0
LINE
  5
2FE
330
1F
100
AcDbEntity
  8
Ｓ_１_１
  6
CONTINUOUS
 62
     3
100
AcDbLine
 10
1530.0
 20
394.0000139999999
 30
0.0
 11
1479.999982
 21
394.0000139999999
 31
0.0
  0
LINE
  5
2FF
330
1F
100
AcDbEntity
  8
Ｓ_１_１
  6
CONTINUOUS
 62
     3
100
AcDbLine
 10
1579.99999
 20
393.9999759999999
 30
0.0
 11
1579.99999
 21
399.9999609999998
 31
0.0
  0
LINE
  5
300
330
1F
100
AcDbEntity
  8
Ｓ_１_１
  6
CONTINUOUS
 62
     3
100
AcDbLine
 10
1479.999982
 20
393.9999759999999
 30
0.0
 11
1479.999982
 21
399.9999609999998
 31
0.0
  0
LINE
  5
301
330
1F
100
AcDbEntity
  8
Ｓ_１_１
  6
CONTINUOUS
 62
     3
100
AcDbLine
 10
1530.0
 20
437.4999599999999
 30
0.0
 11
1558.999986
 21
437.4999599999999
 31
0.0
  0
LINE
  5
302
330
1F
100
AcDbEntity
  8
Ｓ_１_１
  6
CONTINUOUS
 62
     3
100
AcDbLine
 10
1530.0
 20
437.4999599999999
 30
0.0
 11
1501.000004
 21
437.4999599999999
 31
0.0
  0
LINE
  5
303
330
1F
100
AcDbEntity
  8
Ｓ_１_１
  6
CONTINUOUS
 62
     3
100
AcDbLine
 10
1530.0
 20
462.4999599999999
 30
0.0
 11
1558.999986
 21
462.4999599999999
 31
0.0
  0
LINE
  5
304
330
1F
100
AcDbEntity
  8
Ｓ_１_１
  6
CONTINUOUS
 62
     3
100
AcDbLine
 10
1530.0
 20
462.4999599999999
 30
0.0
 11
1501.000004
 21
462.4999599999999
 31
0.0
  0
LINE
  5
305
330
1F
100
AcDbEntity
  8
Ｓ_１_１
  6
CONTINUOUS
 62
     3
100
AcDbLine
 10
1658.99998
 20
474.9999599999999
 30
0.0
 11
1658.99998
 21
461.154707
 31
0.0
  0
LINE
  5
306
330
1F
100
AcDbEntity
  8
Ｓ_１_１
  6
CONTINUOUS
 62
     3
100
AcDbLine
 10
1658.99998
 20
424.9999609999998
 30
0.0
 11
1658.99998
 21
411.15467
 31
0.0
  0
LINE
  5
307
330
1F
100
AcDbEntity
  8
Ｓ_１_１
  6
CONTINUOUS
 62
     3
100
AcDbLine
 10
1658.99998
 20
438.8452519999999
 30
0.0
 11
1658.99998
 21
424.9999609999998
 31
0.0
  0
LINE
  5
308
330
1F
100
AcDbEntity
  8
Ｓ_１_１
  6
CONTINUOUS
 62
     3
100
AcDbLine
 10
1658.99998
 20
488.8452889999999
 30
0.0
 11
1658.99998
 21
474.9999599999999
 31
0.0
  0
LINE
  5
309
330
1F
100
AcDbEntity
  8
Ｓ_１_１
  6
CONTINUOUS
 62
     3
100
AcDbLine
 10
1656.999987
 20
489.9999979999998
 30
0.0
 11
1641.999992
 21
489.9999979999998
 31
0.0
  0
LINE
  5
30A
330
1F
100
AcDbEntity
  8
Ｓ_１_１
  6
CONTINUOUS
 62
     3
100
AcDbLine
 10
1656.999987
 20
459.9999979999998
 30
0.0
 11
1641.999992
 21
459.9999979999998
 31
0.0
  0
LINE
  5
30B
330
1F
100
AcDbEntity
  8
Ｓ_１_１
  6
CONTINUOUS
 62
     3
100
AcDbLine
 10
1656.999987
 20
439.9999599999999
 30
0.0
 11
1641.999992
 21
439.9999599999999
 31
0.0
  0
LINE
  5
30C
330
1F
100
AcDbEntity
  8
Ｓ_１_１
  6
CONTINUOUS
 62
     3
100
AcDbLine
 10
1656.999987
 20
409.9999989999999
 30
0.0
 11
1641.999992
 21
409.9999989999999
 31
0.0
  0
LINE
  5
30D
330
1F
100
AcDbEntity
  8
Ｓ_１_１
  6
CONTINUOUS
 62
     3
100
AcDbLine
 10
1657.000009
 20
490.0000369999998
 30
0.0
 11
1659.000003
 21
488.8453309999998
 31
0.0
  0
LINE
  5
30E
330
1F
100
AcDbEntity
  8
Ｓ_１_１
  6
CONTINUOUS
 62
     3
100
AcDbLine
 10
1656.999981
 20
459.9999429999999
 30
0.0
 11
1658.999995
 21
461.1546519999999
 31
0.0
  0
LINE
  5
30F
330
1F
100
AcDbEntity
  8
Ｓ_１_１
  6
CONTINUOUS
 62
     3
100
AcDbLine
 10
1656.999944
 20
410.0000019999999
 30
0.0
 11
1658.999942
 21
411.1547019999999
 31
0.0
  0
LINE
  5
310
330
1F
100
AcDbEntity
  8
Ｓ_１_１
  6
CONTINUOUS
 62
     3
100
AcDbLine
 10
1656.999979
 20
439.9999999999998
 30
0.0
 11
1658.999977
 21
438.8453009999999
 31
0.0
  0
LINE
  5
311
330
1F
100
AcDbEntity
  8
Ｓ_１_１
  6
CONTINUOUS
 62
     3
100
AcDbLine
 10
1656.999987
 20
489.9999979999998
 30
0.0
 11
1656.999987
 21
459.9999979999998
 31
0.0
  0
LINE
  5
312
330
1F
100
AcDbEntity
  8
Ｓ_１_１
  6
CONTINUOUS
 62
     3
100
AcDbLine
 10
1656.999987
 20
439.9999599999999
 30
0.0
 11
1656.999987
 21
409.9999989999999
 31
0.0
  0
LINE
  5
313
330
1F
100
AcDbEntity
  8
Ｓ_１_１
  6
CONTINUOUS
 62
     3
100
AcDbLine
 10
1401.000006
 20
474.9999599999999
 30
0.0
 11
1401.000006
 21
461.154707
 31
0.0
  0
LINE
  5
314
330
1F
100
AcDbEntity
  8
Ｓ_１_１
  6
CONTINUOUS
 62
     3
100
AcDbLine
 10
1401.000006
 20
488.8452889999999
 30
0.0
 11
1401.000006
 21
474.9999599999999
 31
0.0
  0
LINE
  5
315
330
1F
100
AcDbEntity
  8
Ｓ_１_１
  6
CONTINUOUS
 62
     3
100
AcDbLine
 10
1401.000006
 20
424.9999609999998
 30
0.0
 11
1401.000006
 21
411.15467
 31
0.0
  0
LINE
  5
316
330
1F
100
AcDbEntity
  8
Ｓ_１_１
  6
CONTINUOUS
 62
     3
100
AcDbLine
 10
1401.000006
 20
438.8452899999999
 30
0.0
 11
1401.000006
 21
424.9999609999998
 31
0.0
  0
LINE
  5
317
330
1F
100
AcDbEntity
  8
Ｓ_１_１
  6
CONTINUOUS
 62
     3
100
AcDbLine
 10
1402.999994
 20
489.9999979999998
 30
0.0
 11
1417.999994
 21
489.9999979999998
 31
0.0
  0
LINE
  5
318
330
1F
100
AcDbEntity
  8
Ｓ_１_１
  6
CONTINUOUS
 62
     3
100
AcDbLine
 10
1402.999994
 20
459.9999979999998
 30
0.0
 11
1417.999994
 21
459.9999979999998
 31
0.0
  0
LINE
  5
319
330
1F
100
AcDbEntity
  8
Ｓ_１_１
  6
CONTINUOUS
 62
     3
100
AcDbLine
 10
1402.999994
 20
439.9999979999998
 30
0.0
 11
1417.999994
 21
439.9999979999998
 31
0.0
  0
LINE
  5
31A
330
1F
100
AcDbEntity
  8
Ｓ_１_１
  6
CONTINUOUS
 62
     3
100
AcDbLine
 10
1402.999994
 20
409.9999989999999
 30
0.0
 11
1417.999994
 21
409.9999989999999
 31
0.0
  0
LINE
  5
31B
330
1F
100
AcDbEntity
  8
Ｓ_１_１
  6
CONTINUOUS
 62
     3
100
AcDbLine
 10
1402.999986
 20
490.0000329999999
 30
0.0
 11
1401.0
 21
488.8453509999999
 31
0.0
  0
LINE
  5
31C
330
1F
100
AcDbEntity
  8
Ｓ_１_１
  6
CONTINUOUS
 62
     3
100
AcDbLine
 10
1402.999963
 20
440.0000189999999
 30
0.0
 11
1400.999947
 21
438.845314
 31
0.0
  0
LINE
  5
31D
330
1F
100
AcDbEntity
  8
Ｓ_１_１
  6
CONTINUOUS
 62
     3
100
AcDbLine
 10
1402.999988
 20
409.9999769999999
 30
0.0
 11
1400.99999
 21
411.1546759999999
 31
0.0
  0
LINE
  5
31E
330
1F
100
AcDbEntity
  8
Ｓ_１_１
  6
CONTINUOUS
 62
     3
100
AcDbLine
 10
1403.000008
 20
459.999972
 30
0.0
 11
1401.00001
 21
461.1546719999999
 31
0.0
  0
LINE
  5
31F
330
1F
100
AcDbEntity
  8
Ｓ_１_１
  6
CONTINUOUS
 62
     3
100
AcDbLine
 10
1403.000013
 20
489.9999979999998
 30
0.0
 11
1403.000013
 21
459.9999979999998
 31
0.0
  0
LINE
  5
320
330
1F
100
AcDbEntity
  8
Ｓ_１_１
  6
CONTINUOUS
 62
     3
100
AcDbLine
 10
1403.000013
 20
439.9999599999999
 30
0.0
 11
1403.000013
 21
409.9999989999999
 31
0.0
  0
LINE
  5
321
330
1F
100
AcDbEntity
  8
Ｓ_１_１
  6
CONTINUOUS
 62
     3
100
AcDbLine
 10
1727.000002
 20
327.0000079999999
 30
0.0
 11
1689.999999
 21
327.0000079999999
 31
0.0
  0
LINE
  5
322
330
1F
100
AcDbEntity
  8
Ｓ_１_１
  6
CONTINUOUS
 62
     3
100
AcDbLine
 10
1689.999999
 20
339.0000149999999
 30
0.0
 11
1689.999999
 21
285.0000009999999
 31
0.0
  0
LINE
  5
323
330
1F
100
AcDbEntity
  8
Ｓ_１_１
  6
CONTINUOUS
 62
     3
100
AcDbLine
 10
1365.000003
 20
280.0000009999999
 30
0.0
 11
1294.999965
 21
280.0000009999999
 31
0.0
  0
LINE
  5
324
330
1F
100
AcDbEntity
  8
Ｓ_１_１
  6
CONTINUOUS
 62
     3
100
AcDbLine
 10
1764.999992
 20
280.0000009999999
 30
0.0
 11
1694.999998
 21
280.0000009999999
 31
0.0
  0
LINE
  5
325
330
1F
100
AcDbEntity
  8
Ｓ_１_１
  6
CONTINUOUS
 62
     3
100
AcDbLine
 10
1729.999995
 20
432.999991
 30
0.0
 11
1729.999995
 21
382.9999919999998
 31
0.0
  0
LINE
  5
326
330
1F
100
AcDbEntity
  8
Ｓ_１_１
  6
CONTINUOUS
 62
     3
100
AcDbLine
 10
1764.999992
 20
508.1999939999999
 30
0.0
 11
1683.00001
 21
508.1999939999999
 31
0.0
  0
LINE
  5
327
330
1F
100
AcDbEntity
  8
Ｓ_１_１
  6
CONTINUOUS
 62
     3
100
AcDbLine
 10
1376.999972
 20
508.1999939999999
 30
0.0
 11
1294.999965
 21
508.1999939999999
 31
0.0
  0
LINE
  5
328
330
1F
100
AcDbEntity
  8
Ｓ_１_１
  6
CONTINUOUS
 62
     3
100
AcDbLine
 10
1683.000033
 20
508.200013
 30
0.0
 11
1673.000023
 21
498.2000019999999
 31
0.0
  0
LINE
  5
329
330
1F
100
AcDbEntity
  8
Ｓ_１_１
  6
CONTINUOUS
 62
     3
100
AcDbLine
 10
1386.999954
 20
498.2000079999999
 30
0.0
 11
1376.999973
 21
508.1999979999999
 31
0.0
  0
LINE
  5
32A
330
1F
100
AcDbEntity
  8
Ｓ_１_１
  6
CONTINUOUS
 62
     3
100
AcDbLine
 10
1295.000065
 20
508.1999519999999
 30
0.0
 11
1290.000028
 21
503.1999239999999
 31
0.0
  0
LINE
  5
32B
330
1F
100
AcDbEntity
  8
Ｓ_１_１
  6
CONTINUOUS
 62
     3
100
AcDbLine
 10
1769.999919
 20
503.1998999999999
 30
0.0
 11
1764.999914
 21
508.1999049999999
 31
0.0
  0
LINE
  5
32C
330
1F
100
AcDbEntity
  8
Ｓ_１_１
  6
CONTINUOUS
 62
     3
100
AcDbLine
 10
1386.999972
 20
435.9999829999999
 30
0.0
 11
1386.999972
 21
498.1999949999999
 31
0.0
  0
LINE
  5
32D
330
1F
100
AcDbEntity
  8
Ｓ_１_１
  6
CONTINUOUS
 62
     3
100
AcDbLine
 10
1673.000012
 20
435.9999829999999
 30
0.0
 11
1673.000012
 21
498.1999949999999
 31
0.0
  0
LINE
  5
32E
330
1F
100
AcDbEntity
  8
Ｓ_１_１
  6
CONTINUOUS
 62
     3
100
AcDbLine
 10
1290.000078
 20
285.000061
 30
0.0
 11
1295.000076
 21
280.000063
 31
0.0
  0
LINE
  5
32F
330
1F
100
AcDbEntity
  8
Ｓ_１_１
  6
CONTINUOUS
 62
     3
100
AcDbLine
 10
1370.000054
 20
284.999953
 30
0.0
 11
1365.000049
 21
279.9999479999999
 31
0.0
  0
LINE
  5
330
330
1F
100
AcDbEntity
  8
Ｓ_１_１
  6
CONTINUOUS
 62
     3
100
AcDbLine
 10
1689.999944
 20
285.0000209999998
 30
0.0
 11
1694.999949
 21
280.000016
 31
0.0
  0
LINE
  5
331
330
1F
100
AcDbEntity
  8
Ｓ_１_１
  6
CONTINUOUS
 62
     3
100
AcDbLine
 10
1769.999946
 20
285.0000479999999
 30
0.0
 11
1764.999914
 21
280.000016
 31
0.0
  0
LINE
  5
332
330
1F
100
AcDbEntity
  8
Ｓ_１_１
  6
CONTINUOUS
 62
     3
100
AcDbLine
 10
1387.199995
 20
567.9999509999998
 30
0.0
 11
1387.199995
 21
497.9999139999998
 31
0.0
  0
LINE
  5
333
330
1F
100
AcDbEntity
  8
Ｓ_１_１
  6
CONTINUOUS
 62
     3
100
AcDbLine
 10
1673.000012
 20
567.9999509999998
 30
0.0
 11
1673.000012
 21
497.9999139999998
 31
0.0
  0
LINE
  5
334
330
1F
100
AcDbEntity
  8
Ｓ_１_１
  6
CONTINUOUS
 62
     3
100
AcDbLine
 10
1793.999992
 20
567.9999129999999
 30
0.0
 11
1673.000012
 21
567.9999129999999
 31
0.0
  0
LINE
  5
335
330
1F
100
AcDbEntity
  8
Ｓ_１_１
  6
CONTINUOUS
 62
     3
100
AcDbLine
 10
1387.199995
 20
567.9999509999998
 30
0.0
 11
1266.199993
 21
567.9999509999998
 31
0.0
  0
LINE
  5
336
330
1F
100
AcDbEntity
  8
Ｓ_１_１
  6
CONTINUOUS
 62
     3
100
AcDbLine
 10
1266.200031
 20
567.9999509999998
 30
0.0
 11
1266.200031
 21
497.9999139999998
 31
0.0
  0
LINE
  5
337
330
1F
100
AcDbEntity
  8
Ｓ_１_１
  6
CONTINUOUS
 62
     3
100
AcDbLine
 10
1793.999992
 20
567.9999509999998
 30
0.0
 11
1793.999992
 21
497.9999139999998
 31
0.0
  0
LINE
  5
338
330
1F
100
AcDbEntity
  8
Ｓ_１_１
  6
CONTINUOUS
 62
     3
100
AcDbLine
 10
1793.999992
 20
497.9999899999999
 30
0.0
 11
1769.999992
 21
497.9999899999999
 31
0.0
  0
LINE
  5
339
330
1F
100
AcDbEntity
  8
Ｓ_１_１
  6
CONTINUOUS
 62
     3
100
AcDbLine
 10
1266.199993
 20
497.9999899999999
 30
0.0
 11
1289.999966
 21
497.9999899999999
 31
0.0
  0
LINE
  5
33A
330
1F
100
AcDbEntity
  8
Ｓ_１_１
  6
CONTINUOUS
 62
     3
100
AcDbLine
 10
1387.199976
 20
557.999932
 30
0.0
 11
1266.199993
 21
557.999932
 31
0.0
  0
LINE
  5
33B
330
1F
100
AcDbEntity
  8
Ｓ_１_１
  6
CONTINUOUS
 62
     3
100
AcDbLine
 10
1673.000012
 20
557.9998939999998
 30
0.0
 11
1793.999992
 21
557.9998939999998
 31
0.0
  0
LINE
  5
33C
330
1F
100
AcDbEntity
  8
Ｓ_１_１
  6
CONTINUOUS
 62
     3
100
AcDbLine
 10
1661.000002
 20
527.9999899999998
 30
0.0
 11
1661.000002
 21
494.0000129999999
 31
0.0
  0
LINE
  5
33D
330
1F
100
AcDbEntity
  8
Ｓ_１_１
  6
CONTINUOUS
 62
     3
100
AcDbLine
 10
1399.200003
 20
527.9999899999998
 30
0.0
 11
1399.200003
 21
494.0000129999999
 31
0.0
  0
LINE
  5
33E
330
1F
100
AcDbEntity
  8
Ｓ_１_１
  6
CONTINUOUS
 62
     3
100
AcDbLine
 10
1399.200003
 20
561.9999469999998
 30
0.0
 11
1399.200003
 21
527.9999899999998
 31
0.0
  0
LINE
  5
33F
330
1F
100
AcDbEntity
  8
Ｓ_１_１
  6
CONTINUOUS
 62
     3
100
AcDbLine
 10
1661.000002
 20
561.9999469999998
 30
0.0
 11
1661.000002
 21
527.9999899999998
 31
0.0
  0
LINE
  5
340
330
1F
100
AcDbEntity
  8
Ｓ_１_１
  6
CONTINUOUS
 62
     3
100
AcDbLine
 10
1399.199984
 20
494.0000129999999
 30
0.0
 11
1386.999972
 21
494.0000129999999
 31
0.0
  0
LINE
  5
341
330
1F
100
AcDbEntity
  8
Ｓ_１_１
  6
CONTINUOUS
 62
     3
100
AcDbLine
 10
1399.199984
 20
561.9999469999998
 30
0.0
 11
1387.199995
 21
561.9999469999998
 31
0.0
  0
LINE
  5
342
330
1F
100
AcDbEntity
  8
Ｓ_１_１
  6
CONTINUOUS
 62
     3
100
AcDbLine
 10
1661.000002
 20
561.9999469999998
 30
0.0
 11
1673.000012
 21
561.9999469999998
 31
0.0
  0
LINE
  5
343
330
1F
100
AcDbEntity
  8
Ｓ_１_１
  6
CONTINUOUS
 62
     3
100
AcDbLine
 10
1661.000002
 20
494.0000129999999
 30
0.0
 11
1673.000012
 21
494.0000129999999
 31
0.0
  0
LINE
  5
344
330
1F
100
AcDbEntity
  8
Ｓ_１_１
  6
CONTINUOUS
 62
     3
100
AcDbLine
 10
1647.999972
 20
499.9999589999999
 30
0.0
 11
1647.999972
 21
489.9999979999998
 31
0.0
  0
LINE
  5
345
330
1F
100
AcDbEntity
  8
Ｓ_１_１
  6
CONTINUOUS
 62
     3
100
AcDbLine
 10
1412.000029
 20
499.9999589999999
 30
0.0
 11
1412.000029
 21
489.9999979999998
 31
0.0
  0
LINE
  5
346
330
1F
100
AcDbEntity
  8
Ｓ_１_１
  6
CONTINUOUS
 62
     3
100
AcDbLine
 10
1661.000002
 20
513.0000279999999
 30
0.0
 11
1647.999972
 21
513.0000279999999
 31
0.0
  0
LINE
  5
347
330
1F
100
AcDbEntity
  8
Ｓ_１_１
  6
CONTINUOUS
 62
     3
100
AcDbLine
 10
1568.999996
 20
513.0000279999999
 30
0.0
 11
1531.099987
 21
513.0000279999999
 31
0.0
  0
LINE
  5
348
330
1F
100
AcDbEntity
  8
Ｓ_１_１
  6
CONTINUOUS
 62
     3
100
AcDbLine
 10
1411.99999
 20
513.0000279999999
 30
0.0
 11
1399.199984
 21
513.0000279999999
 31
0.0
  0
LINE
  5
349
330
1F
100
AcDbEntity
  8
Ｓ_１_１
  6
CONTINUOUS
 62
     3
100
AcDbLine
 10
1661.000002
 20
542.9999129999999
 30
0.0
 11
1647.999972
 21
542.9999129999999
 31
0.0
  0
LINE
  5
34A
330
1F
100
AcDbEntity
  8
Ｓ_１_１
  6
CONTINUOUS
 62
     3
100
AcDbLine
 10
1568.999996
 20
542.9999509999998
 30
0.0
 11
1531.099987
 21
542.9999509999998
 31
0.0
  0
LINE
  5
34B
330
1F
100
AcDbEntity
  8
Ｓ_１_１
  6
CONTINUOUS
 62
     3
100
AcDbLine
 10
1411.99999
 20
542.9999509999998
 30
0.0
 11
1399.199984
 21
542.9999509999998
 31
0.0
  0
LINE
  5
34C
330
1F
100
AcDbEntity
  8
Ｓ_１_１
  6
CONTINUOUS
 62
     3
100
AcDbLine
 10
1531.099987
 20
527.9999899999998
 30
0.0
 11
1531.099987
 21
513.0000279999999
 31
0.0
  0
LINE
  5
34D
330
1F
100
AcDbEntity
  8
Ｓ_１_１
  6
CONTINUOUS
 62
     3
100
AcDbLine
 10
1531.099987
 20
527.9999899999998
 30
0.0
 11
1531.099987
 21
542.9999889999999
 31
0.0
  0
LINE
  5
34E
330
1F
100
AcDbEntity
  8
Ｓ_１_１
  6
CONTINUOUS
 62
     3
100
AcDbLine
 10
1529.099979
 20
527.9999899999998
 30
0.0
 11
1529.099979
 21
513.0000279999999
 31
0.0
  0
LINE
  5
34F
330
1F
100
AcDbEntity
  8
Ｓ_１_１
  6
CONTINUOUS
 62
     3
100
AcDbLine
 10
1529.099979
 20
527.9999899999998
 30
0.0
 11
1529.099979
 21
542.9999889999999
 31
0.0
  0
LINE
  5
350
330
1F
100
AcDbEntity
  8
Ｓ_１_１
  6
CONTINUOUS
 62
     3
100
AcDbLine
 10
1529.099979
 20
513.0000279999999
 30
0.0
 11
1491.000004
 21
513.0000279999999
 31
0.0
  0
LINE
  5
351
330
1F
100
AcDbEntity
  8
Ｓ_１_１
  6
CONTINUOUS
 62
     3
100
AcDbLine
 10
1529.099979
 20
542.9999509999998
 30
0.0
 11
1491.000004
 21
542.9999509999998
 31
0.0
  0
LINE
  5
352
330
1F
100
AcDbEntity
  8
Ｓ_１_１
  6
CONTINUOUS
 62
     3
100
AcDbLine
 10
1529.099972
 20
542.9999629999998
 30
0.0
 11
1529.999984
 21
542.0999479999998
 31
0.0
  0
LINE
  5
353
330
1F
100
AcDbEntity
  8
Ｓ_１_１
  6
CONTINUOUS
 62
     3
100
AcDbLine
 10
1531.100012
 20
512.9999569999998
 30
0.0
 11
1530.00001
 21
514.0999529999999
 31
0.0
  0
LINE
  5
354
330
1F
100
AcDbEntity
  8
Ｓ_１_１
  6
CONTINUOUS
 62
     3
100
AcDbLine
 10
1529.099944
 20
512.9999439999999
 30
0.0
 11
1530.099978
 21
513.999977
 31
0.0
  0
LINE
  5
355
330
1F
100
AcDbEntity
  8
Ｓ_１_１
  6
CONTINUOUS
 62
     3
100
AcDbLine
 10
1548.099985
 20
527.9999899999998
 30
0.0
 11
1548.099985
 21
519.0000129999999
 31
0.0
  0
LINE
  5
356
330
1F
100
AcDbEntity
  8
Ｓ_１_１
  6
CONTINUOUS
 62
     3
100
AcDbLine
 10
1510.100003
 20
527.9999899999998
 30
0.0
 11
1510.100003
 21
519.0000129999999
 31
0.0
  0
LINE
  5
357
330
1F
100
AcDbEntity
  8
Ｓ_１_１
  6
CONTINUOUS
 62
     3
100
AcDbLine
 10
1510.100003
 20
536.999928
 30
0.0
 11
1510.100003
 21
527.9999899999998
 31
0.0
  0
LINE
  5
358
330
1F
100
AcDbEntity
  8
Ｓ_１_１
  6
CONTINUOUS
 62
     3
100
AcDbLine
 10
1548.099985
 20
536.999928
 30
0.0
 11
1548.099985
 21
527.9999899999998
 31
0.0
  0
LINE
  5
359
330
1F
100
AcDbEntity
  8
Ｓ_１_１
  6
CONTINUOUS
 62
     3
100
AcDbLine
 10
1560.099983
 20
519.0000129999999
 30
0.0
 11
1548.099985
 21
519.0000129999999
 31
0.0
  0
LINE
  5
35A
330
1F
100
AcDbEntity
  8
Ｓ_１_１
  6
CONTINUOUS
 62
     3
100
AcDbLine
 10
1560.099983
 20
536.999928
 30
0.0
 11
1548.099985
 21
536.999928
 31
0.0
  0
LINE
  5
35B
330
1F
100
AcDbEntity
  8
Ｓ_１_１
  6
CONTINUOUS
 62
     3
100
AcDbLine
 10
1510.100003
 20
536.999928
 30
0.0
 11
1498.099995
 21
536.999928
 31
0.0
  0
LINE
  5
35C
330
1F
100
AcDbEntity
  8
Ｓ_１_１
  6
CONTINUOUS
 62
     3
100
AcDbLine
 10
1510.100003
 20
519.0000129999999
 30
0.0
 11
1498.099995
 21
519.0000129999999
 31
0.0
  0
LINE
  5
35D
330
1F
100
AcDbEntity
  8
Ｓ_１_１
  6
CONTINUOUS
 62
     3
100
AcDbLine
 10
1560.099983
 20
536.999928
 30
0.0
 11
1560.099983
 21
519.0000129999999
 31
0.0
  0
LINE
  5
35E
330
1F
100
AcDbEntity
  8
Ｓ_１_１
  6
CONTINUOUS
 62
     3
100
AcDbLine
 10
1498.099995
 20
536.999928
 30
0.0
 11
1498.099995
 21
519.0000129999999
 31
0.0
  0
LINE
  5
35F
330
1F
100
AcDbEntity
  8
Ｓ_１_１
  6
CONTINUOUS
 62
     3
100
AcDbLine
 10
1510.099991
 20
536.9999499999999
 30
0.0
 11
1498.099993
 21
518.9999569999998
 31
0.0
  0
LINE
  5
360
330
1F
100
AcDbEntity
  8
Ｓ_１_１
  6
CONTINUOUS
 62
     3
100
AcDbLine
 10
1510.099992
 20
518.9999779999998
 30
0.0
 11
1498.099983
 21
536.9999859999998
 31
0.0
  0
LINE
  5
361
330
1F
100
AcDbEntity
  8
Ｓ_１_１
  6
CONTINUOUS
 62
     3
100
AcDbLine
 10
1560.099988
 20
537.0000059999998
 30
0.0
 11
1548.09999
 21
519.000014
 31
0.0
  0
LINE
  5
362
330
1F
100
AcDbEntity
  8
Ｓ_１_１
  6
CONTINUOUS
 62
     3
100
AcDbLine
 10
1560.099995
 20
518.9999479999999
 30
0.0
 11
1548.100007
 21
536.9999249999998
 31
0.0
  0
LINE
  5
363
330
1F
100
AcDbEntity
  8
Ｓ_１_１
  6
CONTINUOUS
 62
     3
100
AcDbLine
 10
1619.099978
 20
527.9999899999998
 30
0.0
 11
1619.099978
 21
519.0000129999999
 31
0.0
  0
LINE
  5
364
330
1F
100
AcDbEntity
  8
Ｓ_１_１
  6
CONTINUOUS
 62
     3
100
AcDbLine
 10
1619.099978
 20
536.999928
 30
0.0
 11
1619.099978
 21
527.9999899999998
 31
0.0
  0
LINE
  5
365
330
1F
100
AcDbEntity
  8
Ｓ_１_１
  6
CONTINUOUS
 62
     3
100
AcDbLine
 10
1439.100038
 20
527.9999899999998
 30
0.0
 11
1439.100038
 21
519.0000129999999
 31
0.0
  0
LINE
  5
366
330
1F
100
AcDbEntity
  8
Ｓ_１_１
  6
CONTINUOUS
 62
     3
100
AcDbLine
 10
1439.100038
 20
536.999928
 30
0.0
 11
1439.100038
 21
527.9999899999998
 31
0.0
  0
LINE
  5
367
330
1F
100
AcDbEntity
  8
Ｓ_１_１
  6
CONTINUOUS
 62
     3
100
AcDbLine
 10
1631.09999
 20
519.0000129999999
 30
0.0
 11
1619.099997
 21
519.0000129999999
 31
0.0
  0
LINE
  5
368
330
1F
100
AcDbEntity
  8
Ｓ_１_１
  6
CONTINUOUS
 62
     3
100
AcDbLine
 10
1631.09999
 20
536.999928
 30
0.0
 11
1619.099997
 21
536.999928
 31
0.0
  0
LINE
  5
369
330
1F
100
AcDbEntity
  8
Ｓ_１_１
  6
CONTINUOUS
 62
     3
100
AcDbLine
 10
1631.09999
 20
536.999928
 30
0.0
 11
1631.09999
 21
519.0000129999999
 31
0.0
  0
LINE
  5
36A
330
1F
100
AcDbEntity
  8
Ｓ_１_１
  6
CONTINUOUS
 62
     3
100
AcDbLine
 10
1631.100053
 20
518.9999959999998
 30
0.0
 11
1619.100055
 21
536.9999879999998
 31
0.0
  0
LINE
  5
36B
330
1F
100
AcDbEntity
  8
Ｓ_１_１
  6
CONTINUOUS
 62
     3
100
AcDbLine
 10
1631.099994
 20
537.000016
 30
0.0
 11
1619.099974
 21
518.9999919999998
 31
0.0
  0
LINE
  5
36C
330
1F
100
AcDbEntity
  8
Ｓ_１_１
  6
CONTINUOUS
 62
     3
100
AcDbLine
 10
1439.100019
 20
519.0000129999999
 30
0.0
 11
1427.100012
 21
519.0000129999999
 31
0.0
  0
LINE
  5
36D
330
1F
100
AcDbEntity
  8
Ｓ_１_１
  6
CONTINUOUS
 62
     3
100
AcDbLine
 10
1439.100019
 20
536.999928
 30
0.0
 11
1427.100012
 21
536.999928
 31
0.0
  0
LINE
  5
36E
330
1F
100
AcDbEntity
  8
Ｓ_１_１
  6
CONTINUOUS
 62
     3
100
AcDbLine
 10
1427.100012
 20
536.999928
 30
0.0
 11
1427.100012
 21
519.0000129999999
 31
0.0
  0
LINE
  5
36F
330
1F
100
AcDbEntity
  8
Ｓ_１_１
  6
CONTINUOUS
 62
     3
100
AcDbLine
 10
1439.099963
 20
536.9999999999998
 30
0.0
 11
1427.099986
 21
519.0000389999998
 31
0.0
  0
LINE
  5
370
330
1F
100
AcDbEntity
  8
Ｓ_１_１
  6
CONTINUOUS
 62
     3
100
AcDbLine
 10
1439.100002
 20
518.9999989999999
 30
0.0
 11
1427.099999
 21
536.9999989999999
 31
0.0
  0
LINE
  5
371
330
1F
100
AcDbEntity
  8
Ｓ_１_１
  6
CONTINUOUS
 62
     3
100
AcDbLine
 10
1418.600027
 20
527.9999899999998
 30
0.0
 11
1418.600027
 21
517.2899599999998
 31
0.0
  0
LINE
  5
372
330
1F
100
AcDbEntity
  8
Ｓ_１_１
  6
CONTINUOUS
 62
     3
100
AcDbLine
 10
1411.6
 20
527.9999899999998
 30
0.0
 11
1411.6
 21
517.2899599999998
 31
0.0
  0
LINE
  5
373
330
1F
100
AcDbEntity
  8
Ｓ_１_１
  6
CONTINUOUS
 62
     3
100
AcDbLine
 10
1418.600027
 20
538.709981
 30
0.0
 11
1418.600027
 21
527.9999899999998
 31
0.0
  0
LINE
  5
374
330
1F
100
AcDbEntity
  8
Ｓ_１_１
  6
CONTINUOUS
 62
     3
100
AcDbLine
 10
1411.6
 20
538.709981
 30
0.0
 11
1411.6
 21
527.9999899999998
 31
0.0
  0
LINE
  5
375
330
1F
100
AcDbEntity
  8
Ｓ_１_１
  6
CONTINUOUS
 62
     3
100
AcDbLine
 10
1648.59999
 20
527.9999899999998
 30
0.0
 11
1648.59999
 21
517.2899599999998
 31
0.0
  0
LINE
  5
376
330
1F
100
AcDbEntity
  8
Ｓ_１_１
  6
CONTINUOUS
 62
     3
100
AcDbLine
 10
1648.59999
 20
538.709981
 30
0.0
 11
1648.59999
 21
527.9999899999998
 31
0.0
  0
LINE
  5
377
330
1F
100
AcDbEntity
  8
Ｓ_１_１
  6
CONTINUOUS
 62
     3
100
AcDbLine
 10
1641.599983
 20
527.9999899999998
 30
0.0
 11
1641.599983
 21
517.2899599999998
 31
0.0
  0
LINE
  5
378
330
1F
100
AcDbEntity
  8
Ｓ_１_１
  6
CONTINUOUS
 62
     3
100
AcDbLine
 10
1641.599983
 20
538.709981
 30
0.0
 11
1641.599983
 21
527.9999899999998
 31
0.0
  0
LINE
  5
379
330
1F
100
AcDbEntity
  8
Ｓ_１_１
  6
CONTINUOUS
 62
     3
100
AcDbLine
 10
1641.999992
 20
564.9999969999999
 30
0.0
 11
1647.999972
 21
564.9999969999999
 31
0.0
  0
LINE
  5
37A
330
1F
100
AcDbEntity
  8
Ｓ_１_１
  6
CONTINUOUS
 62
     3
100
AcDbLine
 10
1647.999972
 20
564.9999969999999
 30
0.0
 11
1647.999972
 21
499.9999589999999
 31
0.0
  0
LINE
  5
37B
330
1F
100
AcDbEntity
  8
Ｓ_１_１
  6
CONTINUOUS
 62
     3
100
AcDbLine
 10
1641.999992
 20
564.9999969999999
 30
0.0
 11
1641.999992
 21
499.9999589999999
 31
0.0
  0
LINE
  5
37C
330
1F
100
AcDbEntity
  8
Ｓ_１_１
  6
CONTINUOUS
 62
     3
100
AcDbLine
 10
1417.999994
 20
564.9999969999999
 30
0.0
 11
1411.99999
 21
564.9999969999999
 31
0.0
  0
LINE
  5
37D
330
1F
100
AcDbEntity
  8
Ｓ_１_１
  6
CONTINUOUS
 62
     3
100
AcDbLine
 10
1418.000013
 20
564.9999969999999
 30
0.0
 11
1418.000013
 21
499.9999589999999
 31
0.0
  0
LINE
  5
37E
330
1F
100
AcDbEntity
  8
Ｓ_１_１
  6
CONTINUOUS
 62
     3
100
AcDbLine
 10
1412.000029
 20
564.9999969999999
 30
0.0
 11
1412.000029
 21
499.9999589999999
 31
0.0
  0
LINE
  5
37F
330
1F
100
AcDbEntity
  8
Ｓ_１_１
  6
CONTINUOUS
 62
     3
100
AcDbLine
 10
1399.199984
 20
504.9999589999999
 30
0.0
 11
1387.199995
 21
504.9999589999999
 31
0.0
  0
LINE
  5
380
330
1F
100
AcDbEntity
  8
Ｓ_１_１
  6
CONTINUOUS
 62
     3
100
AcDbLine
 10
1399.199984
 20
550.9999629999998
 30
0.0
 11
1387.199995
 21
550.9999629999998
 31
0.0
  0
LINE
  5
381
330
1F
100
AcDbEntity
  8
Ｓ_１_１
  6
CONTINUOUS
 62
     3
100
AcDbLine
 10
1399.199947
 20
504.9999749999999
 30
0.0
 11
1387.199953
 21
550.9999609999998
 31
0.0
  0
LINE
  5
382
330
1F
100
AcDbEntity
  8
Ｓ_１_１
  6
CONTINUOUS
 62
     3
100
AcDbLine
 10
1399.199942
 20
551.0000849999999
 30
0.0
 11
1387.199938
 21
505.0000609999999
 31
0.0
  0
LINE
  5
383
330
1F
100
AcDbEntity
  8
Ｓ_１_１
  6
CONTINUOUS
 62
     3
100
AcDbLine
 10
1673.000012
 20
504.9999589999999
 30
0.0
 11
1661.000002
 21
504.9999589999999
 31
0.0
  0
LINE
  5
384
330
1F
100
AcDbEntity
  8
Ｓ_１_１
  6
CONTINUOUS
 62
     3
100
AcDbLine
 10
1673.000012
 20
550.999924
 30
0.0
 11
1661.000002
 21
550.999924
 31
0.0
  0
LINE
  5
385
330
1F
100
AcDbEntity
  8
Ｓ_１_１
  6
CONTINUOUS
 62
     3
100
AcDbLine
 10
1673.0002
 20
505.000085
 30
0.0
 11
1661.00022
 21
551.000016
 31
0.0
  0
LINE
  5
386
330
1F
100
AcDbEntity
  8
Ｓ_１_１
  6
CONTINUOUS
 62
     3
100
AcDbLine
 10
1673.000095
 20
551.0000399999999
 30
0.0
 11
1661.000086
 21
504.9999979999998
 31
0.0
  0
LINE
  5
387
330
1F
100
AcDbEntity
  8
Ｓ_１_１
  6
CONTINUOUS
 62
     3
100
AcDbLine
 10
1358.133967
 20
267.999955
 30
0.0
 11
1349.999965
 21
267.999955
 31
0.0
  0
LINE
  5
388
330
1F
100
AcDbEntity
  8
Ｓ_１_１
  6
CONTINUOUS
 62
     3
100
AcDbLine
 10
1349.999965
 20
267.999955
 30
0.0
 11
1341.866
 21
267.999955
 31
0.0
  0
LINE
  5
389
330
1F
100
AcDbEntity
  8
Ｓ_１_１
  6
CONTINUOUS
 62
     3
100
AcDbLine
 10
1359.000018
 20
269.5000089999999
 30
0.0
 11
1359.000018
 21
280.0000009999999
 31
0.0
  0
LINE
  5
38A
330
1F
100
AcDbEntity
  8
Ｓ_１_１
  6
CONTINUOUS
 62
     3
100
AcDbLine
 10
1341.000026
 20
269.5000089999999
 30
0.0
 11
1341.000026
 21
280.0000009999999
 31
0.0
  0
LINE
  5
38B
330
1F
100
AcDbEntity
  8
Ｓ_１_１
  6
CONTINUOUS
 62
     3
100
AcDbLine
 10
1359.000006
 20
269.4999749999999
 30
0.0
 11
1358.133988
 21
268.0000009999999
 31
0.0
  0
LINE
  5
38C
330
1F
100
AcDbEntity
  8
Ｓ_１_１
  6
CONTINUOUS
 62
     3
100
AcDbLine
 10
1340.999935
 20
269.4999989999999
 30
0.0
 11
1341.865978
 21
267.9999509999998
 31
0.0
  0
LINE
  5
38D
330
1F
100
AcDbEntity
  8
Ｓ_１_１
  6
CONTINUOUS
 62
     3
100
AcDbLine
 10
1358.99998
 20
269.5000089999999
 30
0.0
 11
1340.999949
 21
269.5000089999999
 31
0.0
  0
LINE
  5
38E
330
1F
100
AcDbEntity
  8
Ｓ_１_１
  6
CONTINUOUS
 62
     3
100
AcDbLine
 10
1718.133961
 20
267.999955
 30
0.0
 11
1709.999997
 21
267.999955
 31
0.0
  0
LINE
  5
38F
330
1F
100
AcDbEntity
  8
Ｓ_１_１
  6
CONTINUOUS
 62
     3
100
AcDbLine
 10
1709.999997
 20
267.999955
 30
0.0
 11
1701.866014
 21
267.999955
 31
0.0
  0
LINE
  5
390
330
1F
100
AcDbEntity
  8
Ｓ_１_１
  6
CONTINUOUS
 62
     3
100
AcDbLine
 10
1718.999992
 20
269.5000089999999
 30
0.0
 11
1718.999992
 21
280.0000009999999
 31
0.0
  0
LINE
  5
391
330
1F
100
AcDbEntity
  8
Ｓ_１_１
  6
CONTINUOUS
 62
     3
100
AcDbLine
 10
1701.000001
 20
269.5000089999999
 30
0.0
 11
1701.000001
 21
280.0000009999999
 31
0.0
  0
LINE
  5
392
330
1F
100
AcDbEntity
  8
Ｓ_１_１
  6
CONTINUOUS
 62
     3
100
AcDbLine
 10
1718.999991
 20
269.5000109999999
 30
0.0
 11
1718.133972
 21
268.0000369999998
 31
0.0
  0
LINE
  5
393
330
1F
100
AcDbEntity
  8
Ｓ_１_１
  6
CONTINUOUS
 62
     3
100
AcDbLine
 10
1701.000039
 20
269.4999989999999
 30
0.0
 11
1701.866063
 21
267.9999829999999
 31
0.0
  0
LINE
  5
394
330
1F
100
AcDbEntity
  8
Ｓ_１_１
  6
CONTINUOUS
 62
     3
100
AcDbLine
 10
1718.999992
 20
269.5000089999999
 30
0.0
 11
1701.000001
 21
269.5000089999999
 31
0.0
  0
LINE
  5
395
330
1F
100
AcDbEntity
  8
Ｓ_１_１
  6
CONTINUOUS
 62
     3
100
AcDbLine
 10
1756.999985
 20
339.9999619999999
 30
0.0
 11
1744.499985
 21
339.9999619999999
 31
0.0
  0
LINE
  5
396
330
1F
100
AcDbEntity
  8
Ｓ_１_１
  6
CONTINUOUS
 62
     3
100
AcDbLine
 10
1744.499985
 20
339.9999619999999
 30
0.0
 11
1731.999983
 21
339.9999619999999
 31
0.0
  0
LINE
  5
397
330
1F
100
AcDbEntity
  8
Ｓ_１_１
  6
CONTINUOUS
 62
     3
100
AcDbLine
 10
1756.999985
 20
339.9999619999999
 30
0.0
 11
1756.999985
 21
359.9999999999998
 31
0.0
  0
LINE
  5
398
330
1F
100
AcDbEntity
  8
Ｓ_１_１
  6
CONTINUOUS
 62
     3
100
AcDbLine
 10
1734.699988
 20
339.9999619999999
 30
0.0
 11
1734.699988
 21
359.9999999999998
 31
0.0
  0
LINE
  5
399
330
1F
100
AcDbEntity
  8
Ｓ_１_１
  6
CONTINUOUS
 62
     3
100
AcDbLine
 10
1752.633969
 20
327.9999929999998
 30
0.0
 11
1744.499985
 21
327.9999929999998
 31
0.0
  0
LINE
  5
39A
330
1F
100
AcDbEntity
  8
Ｓ_１_１
  6
CONTINUOUS
 62
     3
100
AcDbLine
 10
1744.499985
 20
327.9999929999998
 30
0.0
 11
1736.366019
 21
327.9999929999998
 31
0.0
  0
LINE
  5
39B
330
1F
100
AcDbEntity
  8
Ｓ_１_１
  6
CONTINUOUS
 62
     3
100
AcDbLine
 10
1753.499977
 20
329.4999699999998
 30
0.0
 11
1753.499977
 21
339.9999619999999
 31
0.0
  0
LINE
  5
39C
330
1F
100
AcDbEntity
  8
Ｓ_１_１
  6
CONTINUOUS
 62
     3
100
AcDbLine
 10
1735.499987
 20
329.4999699999998
 30
0.0
 11
1735.499987
 21
339.9999619999999
 31
0.0
  0
LINE
  5
39D
330
1F
100
AcDbEntity
  8
Ｓ_１_１
  6
CONTINUOUS
 62
     3
100
AcDbLine
 10
1753.499947
 20
329.5000149999999
 30
0.0
 11
1752.633925
 21
327.9999979999999
 31
0.0
  0
LINE
  5
39E
330
1F
100
AcDbEntity
  8
Ｓ_１_１
  6
CONTINUOUS
 62
     3
100
AcDbLine
 10
1735.500077
 20
329.5000779999999
 30
0.0
 11
1736.366113
 21
328.0000699999998
 31
0.0
  0
LINE
  5
39F
330
1F
100
AcDbEntity
  8
Ｓ_１_１
  6
CONTINUOUS
 62
     3
100
AcDbLine
 10
1753.499977
 20
329.5000079999999
 30
0.0
 11
1735.499987
 21
329.5000079999999
 31
0.0
  0
LINE
  5
3A0
330
1F
100
AcDbEntity
  8
Ｓ_１_１
  6
CONTINUOUS
 62
     3
100
AcDbLine
 10
1327.999995
 20
339.9999619999999
 30
0.0
 11
1315.499996
 21
339.9999619999999
 31
0.0
  0
LINE
  5
3A1
330
1F
100
AcDbEntity
  8
Ｓ_１_１
  6
CONTINUOUS
 62
     3
100
AcDbLine
 10
1315.499996
 20
339.9999619999999
 30
0.0
 11
1302.999996
 21
339.9999619999999
 31
0.0
  0
LINE
  5
3A2
330
1F
100
AcDbEntity
  8
Ｓ_１_１
  6
CONTINUOUS
 62
     3
100
AcDbLine
 10
1303.000034
 20
339.9999619999999
 30
0.0
 11
1303.000034
 21
359.9999999999998
 31
0.0
  0
LINE
  5
3A3
330
1F
100
AcDbEntity
  8
Ｓ_１_１
  6
CONTINUOUS
 62
     3
100
AcDbLine
 10
1323.63396
 20
327.9999929999998
 30
0.0
 11
1315.499996
 21
327.9999929999998
 31
0.0
  0
LINE
  5
3A4
330
1F
100
AcDbEntity
  8
Ｓ_１_１
  6
CONTINUOUS
 62
     3
100
AcDbLine
 10
1315.499996
 20
327.9999929999998
 30
0.0
 11
1307.366031
 21
327.9999929999998
 31
0.0
  0
LINE
  5
3A5
330
1F
100
AcDbEntity
  8
Ｓ_１_１
  6
CONTINUOUS
 62
     3
100
AcDbLine
 10
1324.500011
 20
329.4999699999998
 30
0.0
 11
1324.500011
 21
339.9999619999999
 31
0.0
  0
LINE
  5
3A6
330
1F
100
AcDbEntity
  8
Ｓ_１_１
  6
CONTINUOUS
 62
     3
100
AcDbLine
 10
1306.500019
 20
329.4999699999998
 30
0.0
 11
1306.500019
 21
339.9999619999999
 31
0.0
  0
LINE
  5
3A7
330
1F
100
AcDbEntity
  8
Ｓ_１_１
  6
CONTINUOUS
 62
     3
100
AcDbLine
 10
1306.499943
 20
329.4998659999999
 30
0.0
 11
1307.365979
 21
327.9998579999998
 31
0.0
  0
LINE
  5
3A8
330
1F
100
AcDbEntity
  8
Ｓ_１_１
  6
CONTINUOUS
 62
     3
100
AcDbLine
 10
1324.49992
 20
329.5000609999998
 30
0.0
 11
1323.633903
 21
328.0000859999998
 31
0.0
  0
LINE
  5
3A9
330
1F
100
AcDbEntity
  8
Ｓ_１_１
  6
CONTINUOUS
 62
     3
100
AcDbLine
 10
1324.500011
 20
329.5000079999999
 30
0.0
 11
1306.500019
 21
329.5000079999999
 31
0.0
  0
LINE
  5
3AA
330
1F
100
AcDbEntity
  8
Ｓ_１_１
  6
CONTINUOUS
 62
     3
100
AcDbLine
 10
1558.999986
 20
487.4999599999999
 30
0.0
 11
1558.999986
 21
462.4999599999999
 31
0.0
  0
LINE
  5
3AB
330
1F
100
AcDbEntity
  8
Ｓ_１_１
  6
CONTINUOUS
 62
     3
100
AcDbLine
 10
1558.999986
 20
462.4999599999999
 30
0.0
 11
1558.999986
 21
437.4999599999999
 31
0.0
  0
LINE
  5
3AC
330
1F
100
AcDbEntity
  8
Ｓ_１_１
  6
CONTINUOUS
 62
     3
100
AcDbLine
 10
1558.999986
 20
437.4999599999999
 30
0.0
 11
1558.999986
 21
412.4999609999998
 31
0.0
  0
LINE
  5
3AD
330
1F
100
AcDbEntity
  8
Ｓ_１_１
  6
CONTINUOUS
 62
     3
100
AcDbLine
 10
1501.000004
 20
487.4999599999999
 30
0.0
 11
1501.000004
 21
462.4999599999999
 31
0.0
  0
LINE
  5
3AE
330
1F
100
AcDbEntity
  8
Ｓ_１_１
  6
CONTINUOUS
 62
     3
100
AcDbLine
 10
1501.000004
 20
462.4999599999999
 30
0.0
 11
1501.000004
 21
437.4999599999999
 31
0.0
  0
LINE
  5
3AF
330
1F
100
AcDbEntity
  8
Ｓ_１_１
  6
CONTINUOUS
 62
     3
100
AcDbLine
 10
1501.000004
 20
437.4999599999999
 30
0.0
 11
1501.000004
 21
412.4999609999998
 31
0.0
  0
LINE
  5
3B0
330
1F
100
AcDbEntity
  8
Ｓ_１_１
  6
CONTINUOUS
 62
     3
100
AcDbLine
 10
1558.99999
 20
437.4999649999999
 30
0.0
 11
1568.99996
 21
427.499995
 31
0.0
  0
LINE
  5
3B1
330
1F
100
AcDbEntity
  8
Ｓ_１_１
  6
CONTINUOUS
 62
     3
100
AcDbLine
 10
1558.99999
 20
412.4999919999999
 30
0.0
 11
1568.999987
 21
402.499995
 31
0.0
  0
LINE
  5
3B2
330
1F
100
AcDbEntity
  8
Ｓ_１_１
  6
CONTINUOUS
 62
     3
100
AcDbLine
 10
1500.999994
 20
462.499991
 30
0.0
 11
1491.000004
 21
472.4999809999999
 31
0.0
  0
LINE
  5
3B3
330
1F
100
AcDbEntity
  8
Ｓ_１_１
  6
CONTINUOUS
 62
     3
100
AcDbLine
 10
1500.999987
 20
487.4999699999999
 30
0.0
 11
1490.999977
 21
497.4999799999999
 31
0.0
  0
LINE
  5
3B4
330
1F
100
AcDbEntity
  8
Ｓ_１_１
  6
CONTINUOUS
 62
     3
100
AcDbLine
 10
1558.99999
 20
487.4999629999998
 30
0.0
 11
1569.000027
 21
497.5000009999999
 31
0.0
  0
LINE
  5
3B5
330
1F
100
AcDbEntity
  8
Ｓ_１_１
  6
CONTINUOUS
 62
     3
100
AcDbLine
 10
1559.000003
 20
462.4999769999999
 30
0.0
 11
1569.000014
 21
472.4999879999999
 31
0.0
  0
LINE
  5
3B6
330
1F
100
AcDbEntity
  8
Ｓ_１_１
  6
CONTINUOUS
 62
     3
100
AcDbLine
 10
1500.999994
 20
437.4999649999999
 30
0.0
 11
1491.00001
 21
427.4999809999999
 31
0.0
  0
LINE
  5
3B7
330
1F
100
AcDbEntity
  8
Ｓ_１_１
  6
CONTINUOUS
 62
     3
100
AcDbLine
 10
1501.000007
 20
412.4999789999999
 30
0.0
 11
1490.999997
 21
402.4999689999999
 31
0.0
  0
LINE
  5
3B8
330
1F
100
AcDbEntity
  8
Ｓ_１_１
  6
CONTINUOUS
 62
     3
100
AcDbLine
 10
1558.999986
 20
487.4999599999999
 30
0.0
 11
1501.000004
 21
487.4999599999999
 31
0.0
  0
LINE
  5
3B9
330
1F
100
AcDbEntity
  8
Ｓ_１_１
  6
CONTINUOUS
 62
     3
100
AcDbLine
 10
1558.999986
 20
412.4999609999998
 30
0.0
 11
1501.000004
 21
412.4999609999998
 31
0.0
  0
LINE
  5
3BA
330
1F
100
AcDbEntity
  8
Ｓ_１_１
  6
CONTINUOUS
 62
     3
100
AcDbLine
 10
1531.09998
 20
542.9999369999998
 30
0.0
 11
1529.99997
 21
542.099929
 31
0.0
  0
LINE
  5
3BB
330
1F
100
AcDbEntity
  8
Ｓ_１_１
  6
CONTINUOUS
 62
     3
100
AcDbLine
 10
1664.999981
 20
458.0000289999999
 30
0.0
 11
1673.000012
 21
458.0000289999999
 31
0.0
  0
LINE
  5
3BC
330
1F
100
AcDbEntity
  8
Ｓ_１_１
  6
CONTINUOUS
 62
     3
100
AcDbLine
 10
1673.000012
 20
435.999907
 30
0.0
 11
1664.999981
 21
435.999907
 31
0.0
  0
LINE
  5
3BD
330
1F
100
AcDbEntity
  8
Ｓ_１_１
  6
CONTINUOUS
 62
     3
100
AcDbLine
 10
1665.000008
 20
457.999942
 30
0.0
 11
1660.000012
 21
452.9999549999998
 31
0.0
  0
LINE
  5
3BE
330
1F
100
AcDbEntity
  8
Ｓ_１_１
  6
CONTINUOUS
 62
     3
100
AcDbLine
 10
1664.999958
 20
435.9999669999999
 30
0.0
 11
1659.99995
 21
430.9999639999999
 31
0.0
  0
LINE
  5
3BF
330
1F
100
AcDbEntity
  8
Ｓ_１_１
  6
CONTINUOUS
 62
     3
100
AcDbLine
 10
1659.999979
 20
382.9999919999998
 30
0.0
 11
1659.999979
 21
452.999991
 31
0.0
  0
LINE
  5
3C0
330
1F
100
AcDbEntity
  8
Ｓ_１_１
  6
CONTINUOUS
 62
     3
100
AcDbLine
 10
1664.999981
 20
457.999991
 30
0.0
 11
1664.999981
 21
435.9999829999999
 31
0.0
  0
LINE
  5
3C1
330
1F
100
AcDbEntity
  8
Ｓ_１_１
  6
CONTINUOUS
 62
     3
100
AcDbLine
 10
1730.000005
 20
431.0000669999999
 30
0.0
 11
1725.000063
 21
436.0000279999999
 31
0.0
  0
LINE
  5
3C2
330
1F
100
AcDbEntity
  8
Ｓ_１_１
  6
CONTINUOUS
 62
     3
100
AcDbLine
 10
1395.000002
 20
435.999907
 30
0.0
 11
1386.999972
 21
435.999907
 31
0.0
  0
LINE
  5
3C3
330
1F
100
AcDbEntity
  8
Ｓ_１_１
  6
CONTINUOUS
 62
     3
100
AcDbLine
 10
1395.000002
 20
457.999991
 30
0.0
 11
1386.999972
 21
457.999991
 31
0.0
  0
LINE
  5
3C4
330
1F
100
AcDbEntity
  8
Ｓ_１_１
  6
CONTINUOUS
 62
     3
100
AcDbLine
 10
1400.000031
 20
452.9999569999998
 30
0.0
 11
1395.000053
 21
457.9999349999999
 31
0.0
  0
LINE
  5
3C5
330
1F
100
AcDbEntity
  8
Ｓ_１_１
  6
CONTINUOUS
 62
     3
100
AcDbLine
 10
1400.000038
 20
430.9999699999999
 30
0.0
 11
1395.000053
 21
435.9999549999998
 31
0.0
  0
LINE
  5
3C6
330
1F
100
AcDbEntity
  8
Ｓ_１_１
  6
CONTINUOUS
 62
     3
100
AcDbLine
 10
1400.000021
 20
452.999991
 30
0.0
 11
1400.000021
 21
382.9999919999998
 31
0.0
  0
LINE
  5
3C7
330
1F
100
AcDbEntity
  8
Ｓ_１_１
  6
CONTINUOUS
 62
     3
100
AcDbLine
 10
1395.000021
 20
457.999991
 30
0.0
 11
1395.000021
 21
435.9999829999999
 31
0.0
  0
LINE
  5
3C8
330
1F
100
AcDbEntity
  8
Ｓ_１_１
  6
CONTINUOUS
 62
     3
100
AcDbLine
 10
1335.000054
 20
435.9999779999999
 30
0.0
 11
1330.000052
 21
430.999971
 31
0.0
  0
LINE
  5
3C9
330
1F
100
AcDbEntity
  8
Ｓ_１_１
  6
CONTINUOUS
 62
     3
100
AcDbLine
 10
1328.000034
 20
339.9999619999999
 30
0.0
 11
1328.000034
 21
359.9999999999998
 31
0.0
  0
LINE
  5
3CA
330
1F
100
AcDbEntity
  8
Ｓ_１_１
  6
CONTINUOUS
 62
     3
100
AcDbLine
 10
1330.000003
 20
435.999907
 30
0.0
 11
1330.000003
 21
382.9999539999999
 31
0.0
  0
LINE
  5
3CB
330
1F
100
AcDbEntity
  8
Ｓ_１_１
  6
CONTINUOUS
 62
     3
100
AcDbLine
 10
1386.999972
 20
435.999907
 30
0.0
 11
1330.000003
 21
435.999907
 31
0.0
  0
LINE
  5
3CC
330
1F
100
AcDbEntity
  8
Ｓ_１_１
  6
CONTINUOUS
 62
     3
100
AcDbLine
 10
1369.999964
 20
327.0000079999999
 30
0.0
 11
1332.999995
 21
327.0000079999999
 31
0.0
  0
LINE
  5
3CD
330
1F
100
AcDbEntity
  8
Ｓ_１_１
  6
CONTINUOUS
 62
     3
100
AcDbLine
 10
1325.000003
 20
339.9999619999999
 30
0.0
 11
1325.000003
 21
359.9999999999998
 31
0.0
  0
LINE
  5
3CE
330
1F
100
AcDbEntity
  8
Ｓ_１_１
  6
CONTINUOUS
 62
     3
100
AcDbLine
 10
1731.999983
 20
339.9999619999999
 30
0.0
 11
1731.999983
 21
359.9999999999998
 31
0.0
  0
LINE
  5
3CF
330
1F
100
AcDbEntity
  8
Ｓ_１_１
  6
CONTINUOUS
 62
     3
100
AcDbLine
 10
1673.000012
 20
435.999907
 30
0.0
 11
1727.000002
 21
435.999907
 31
0.0
  0
LINE
  5
3D0
330
1F
100
AcDbEntity
  8
Ｓ_１_１
  6
CONTINUOUS
 62
     3
100
AcDbLine
 10
1618.999976
 20
399.9999609999998
 30
0.0
 11
1542.49999
 21
399.9999609999998
 31
0.0
  0
LINE
  5
3D1
330
1F
100
AcDbEntity
  8
Ｓ_１_１
  6
CONTINUOUS
 62
     3
100
AcDbLine
 10
1592.49999
 20
499.9999589999999
 30
0.0
 11
1618.999976
 21
499.9999589999999
 31
0.0
  0
LINE
  5
3D2
330
1F
100
AcDbEntity
  8
Ｓ_１_１
  6
CONTINUOUS
 62
     3
100
AcDbLine
 10
1441.000005
 20
499.9999589999999
 30
0.0
 11
1467.499982
 21
499.9999589999999
 31
0.0
  0
LINE
  5
3D3
330
1F
100
AcDbEntity
  8
Ｓ_１_１
  6
CONTINUOUS
 62
     3
100
AcDbLine
 10
1467.499982
 20
513.0000279999999
 30
0.0
 11
1418.000013
 21
513.0000279999999
 31
0.0
  0
LINE
  5
3D4
330
1F
100
AcDbEntity
  8
Ｓ_１_１
  6
CONTINUOUS
 62
     3
100
AcDbLine
 10
1467.499982
 20
542.9999509999998
 30
0.0
 11
1418.000013
 21
542.9999509999998
 31
0.0
  0
LINE
  5
3D5
330
1F
100
AcDbEntity
  8
Ｓ_１_１
  6
CONTINUOUS
 62
     3
100
AcDbLine
 10
1592.49999
 20
542.9999509999998
 30
0.0
 11
1641.999992
 21
542.9999509999998
 31
0.0
  0
LINE
  5
3D6
330
1F
100
AcDbEntity
  8
Ｓ_１_１
  6
CONTINUOUS
 62
     3
100
AcDbLine
 10
1641.999992
 20
513.0000279999999
 30
0.0
 11
1592.49999
 21
513.0000279999999
 31
0.0
  0
LINE
  5
3D7
330
1F
100
AcDbEntity
  8
Ｓ_１_１
  6
CONTINUOUS
 62
     3
100
AcDbLine
 10
1769.999992
 20
382.9999539999999
 30
0.0
 11
1769.999992
 21
503.1999179999999
 31
0.0
  0
LINE
  5
3D8
330
1F
100
AcDbEntity
  8
Ｓ_１_１
  6
CONTINUOUS
 62
     3
100
AcDbLine
 10
1290.000004
 20
382.9999539999999
 30
0.0
 11
1290.000004
 21
503.1999939999999
 31
0.0
  0
LINE
  5
3D9
330
1F
100
AcDbEntity
  8
Ｓ_１_１
  6
CONTINUOUS
 62
     3
100
AcDbLine
 10
1794.999968
 20
359.9999999999998
 30
0.0
 11
1265.000004
 21
359.9999999999998
 31
0.0
  0
LINE
  5
3DA
330
1F
100
AcDbEntity
  8
Ｓ_１_１
  6
CONTINUOUS
 62
     3
100
AcDbLine
 10
1598.999986
 20
359.9999999999998
 30
0.0
 11
1598.999986
 21
384.9999989999999
 31
0.0
  0
LINE
  5
3DB
330
1F
100
AcDbEntity
  8
Ｓ_１_１
  6
CONTINUOUS
 62
     3
100
AcDbLine
 10
1658.99998
 20
384.9999989999999
 30
0.0
 11
1598.999986
 21
384.9999989999999
 31
0.0
  0
LINE
  5
3DC
330
1F
100
AcDbEntity
  8
Ｓ_１_１
  6
CONTINUOUS
 62
     3
100
AcDbLine
 10
1401.000006
 20
384.9999989999999
 30
0.0
 11
1461.000024
 21
384.9999989999999
 31
0.0
  0
LINE
  5
3DD
330
1F
100
AcDbEntity
  8
Ｓ_１_１
  6
CONTINUOUS
 62
     3
100
AcDbLine
 10
1461.000024
 20
384.9999989999999
 30
0.0
 11
1461.000024
 21
359.9999999999998
 31
0.0
  0
LINE
  5
3DE
330
1F
100
AcDbEntity
  8
Ｓ_１_１
  6
CONTINUOUS
 62
     3
100
AcDbLine
 10
1370.000041
 20
284.999963
 30
0.0
 11
1370.000041
 21
339.0000149999999
 31
0.0
  0
LINE
  5
3DF
330
1F
100
AcDbEntity
  8
Ｓ_１_１
  6
CONTINUOUS
 62
     3
100
AcDbLine
 10
1290.000042
 20
285.0000389999998
 30
0.0
 11
1290.000042
 21
359.9999999999998
 31
0.0
  0
LINE
  5
3E0
330
1F
100
AcDbEntity
  8
Ｓ_１_１
  6
CONTINUOUS
 62
     3
100
AcDbLine
 10
1376.999972
 20
476.9999669999999
 30
0.0
 11
1294.999965
 21
476.9999669999999
 31
0.0
  0
LINE
  5
3E1
330
1F
100
AcDbEntity
  8
Ｓ_１_１
  6
CONTINUOUS
 62
     3
100
AcDbLine
 10
1376.999972
 20
476.9999669999999
 30
0.0
 11
1376.999972
 21
508.1999939999999
 31
0.0
  0
LINE
  5
3E2
330
1F
100
AcDbEntity
  8
Ｓ_１_１
  6
CONTINUOUS
 62
     3
100
AcDbLine
 10
1294.999965
 20
476.9999669999999
 30
0.0
 11
1294.999965
 21
508.1999939999999
 31
0.0
  0
LINE
  5
3E3
330
1F
100
AcDbEntity
  8
Ｓ_１_１
  6
CONTINUOUS
 62
     3
100
AcDbLine
 10
1376.999961
 20
476.9999449999999
 30
0.0
 11
1386.999967
 21
466.9999299999999
 31
0.0
  0
LINE
  5
3E4
330
1F
100
AcDbEntity
  8
Ｓ_１_１
  6
CONTINUOUS
 62
     3
100
AcDbLine
 10
1294.999959
 20
476.99996
 30
0.0
 11
1289.999971
 21
471.999991
 31
0.0
  0
LINE
  5
3E5
330
1F
100
AcDbEntity
  8
Ｓ_１_１
  6
CONTINUOUS
 62
     3
100
AcDbLine
 10
1729.999995
 20
329.9999999999999
 30
0.0
 11
1729.999995
 21
359.9999999999998
 31
0.0
  0
LINE
  5
3E6
330
1F
100
AcDbEntity
  8
Ｓ_１_１
  6
CONTINUOUS
 62
     3
100
AcDbLine
 10
1769.999935
 20
285.0000389999998
 30
0.0
 11
1769.999935
 21
359.9999999999998
 31
0.0
  0
LINE
  5
3E7
330
1F
100
AcDbEntity
  8
Ｓ_１_１
  6
CONTINUOUS
 62
     3
100
AcDbLine
 10
1765.000011
 20
477.0000059999998
 30
0.0
 11
1765.000011
 21
508.1998039999999
 31
0.0
  0
LINE
  5
3E8
330
1F
100
AcDbEntity
  8
Ｓ_１_１
  6
CONTINUOUS
 62
     3
100
AcDbLine
 10
1683.00001
 20
477.0000059999998
 30
0.0
 11
1683.00001
 21
508.1998039999999
 31
0.0
  0
LINE
  5
3E9
330
1F
100
AcDbEntity
  8
Ｓ_１_１
  6
CONTINUOUS
 62
     3
100
AcDbLine
 10
1765.000011
 20
477.0000059999998
 30
0.0
 11
1683.00001
 21
477.0000059999998
 31
0.0
  0
LINE
  5
3EA
330
1F
100
AcDbEntity
  8
Ｓ_１_１
  6
CONTINUOUS
 62
     3
100
AcDbLine
 10
1765.000027
 20
477.0000249999999
 30
0.0
 11
1770.000042
 21
472.0000289999999
 31
0.0
  0
LINE
  5
3EB
330
1F
100
AcDbEntity
  8
Ｓ_１_１
  6
CONTINUOUS
 62
     3
100
AcDbLine
 10
1683.000006
 20
476.9999899999999
 30
0.0
 11
1673.000009
 21
466.999993
 31
0.0
  0
LINE
  5
3EC
330
1F
100
AcDbEntity
  8
Ｓ_１_１
  6
CONTINUOUS
 62
     3
100
AcDbLine
 10
1729.999995
 20
339.0000149999999
 30
0.0
 11
1560.499992
 21
339.0000149999999
 31
0.0
  0
LINE
  5
3ED
330
1F
100
AcDbEntity
  8
Ｓ_１_１
  6
CONTINUOUS
 62
     3
100
AcDbLine
 10
1330.000041
 20
329.9999999999999
 30
0.0
 11
1330.000041
 21
359.9999999999998
 31
0.0
  0
LINE
  5
3EE
330
1F
100
AcDbEntity
  8
Ｓ_１_１
  6
CONTINUOUS
 62
     3
100
AcDbLine
 10
1539.499988
 20
317.9999929999998
 30
0.0
 11
1539.499988
 21
247.0669949999999
 31
0.0
  0
LINE
  5
3EF
330
1F
100
AcDbEntity
  8
Ｓ_１_１
  6
CONTINUOUS
 62
     3
100
AcDbLine
 10
1520.499993
 20
317.9999929999998
 30
0.0
 11
1520.499993
 21
252.158052
 31
0.0
  0
LINE
  5
3F0
330
1F
100
AcDbEntity
  8
Ｓ_１_１
  6
CONTINUOUS
 62
     3
100
AcDbLine
 10
1499.499989
 20
339.0000149999999
 30
0.0
 11
1330.000041
 21
339.0000149999999
 31
0.0
  0
ARC
  5
3F1
330
1F
100
AcDbEntity
  8
Ｓ_１_１
  6
CONTINUOUS
 62
     3
100
AcDbCircle
 10
1727.000002
 20
329.9999999999999
 30
0.0
 40
3.000000000000003
100
AcDbArc
 50
269.999997
 51
359.999982
  0
ARC
  5
3F2
330
1F
100
AcDbEntity
  8
Ｓ_１_１
  6
CONTINUOUS
 62
     3
100
AcDbCircle
 10
1727.000002
 20
432.999991
 30
0.0
 40
3.000000000000003
100
AcDbArc
 50
359.999982
 51
89.99996200000001
  0
ARC
  5
3F3
330
1F
100
AcDbEntity
  8
Ｓ_１_１
  6
CONTINUOUS
 62
     3
100
AcDbCircle
 10
1333.000034
 20
329.9999999999999
 30
0.0
 40
3.000000000000003
100
AcDbArc
 50
180.000022
 51
269.999997
  0
ARC
  5
3F4
330
1F
100
AcDbEntity
  8
Ｓ_１_１
  6
CONTINUOUS
 62
     3
100
AcDbCircle
 10
1560.499992
 20
317.9999929999998
 30
0.0
 40
20.99999900000001
100
AcDbArc
 50
90.000003
 51
180.000005
  0
ARC
  5
3F5
330
1F
100
AcDbEntity
  8
Ｓ_１_１
  6
CONTINUOUS
 62
     3
100
AcDbCircle
 10
1499.499989
 20
317.9999929999998
 30
0.0
 40
20.99999900000001
100
AcDbArc
 50
0.0
 51
90.000003
  0
LINE
  5
3F6
330
1F
100
AcDbEntity
  8
Ｓ_１_１
  6
EXLTYPE0
 62
     2
100
AcDbLine
 10
1330.000041
 20
382.9999919999998
 30
0.0
 11
1330.000041
 21
359.9999999999998
 31
0.0
  0
LINE
  5
3F7
330
1F
100
AcDbEntity
  8
Ｓ_１_１
  6
EXLTYPE0
 62
     2
100
AcDbLine
 10
1729.999976
 20
382.9999919999998
 30
0.0
 11
1729.999976
 21
359.9999999999998
 31
0.0
  0
LINE
  5
3F8
330
1F
100
AcDbEntity
  8
Ｓ_１_１
  6
EXLTYPE0
 62
     2
100
AcDbLine
 10
1330.000003
 20
497.9999899999999
 30
0.0
 11
1289.999966
 21
497.9999899999999
 31
0.0
  0
LINE
  5
3F9
330
1F
100
AcDbEntity
  8
Ｓ_１_１
  6
EXLTYPE0
 62
     2
100
AcDbLine
 10
1330.000003
 20
497.9999899999999
 30
0.0
 11
1387.199995
 21
497.9999899999999
 31
0.0
  0
LINE
  5
3FA
330
1F
100
AcDbEntity
  8
Ｓ_１_１
  6
EXLTYPE0
 62
     2
100
AcDbLine
 10
1729.999995
 20
497.9999899999999
 30
0.0
 11
1769.999992
 21
497.9999899999999
 31
0.0
  0
LINE
  5
3FB
330
1F
100
AcDbEntity
  8
Ｓ_１_１
  6
EXLTYPE0
 62
     2
100
AcDbLine
 10
1729.999995
 20
497.9999899999999
 30
0.0
 11
1673.000012
 21
497.9999899999999
 31
0.0
  0
LINE
  5
3FC
330
1F
100
AcDbEntity
  8
Ｓ_１_１
  6
EXLTYPE0
 62
     2
100
AcDbLine
 10
1647.999972
 20
513.0000279999999
 30
0.0
 11
1641.999992
 21
513.0000279999999
 31
0.0
  0
LINE
  5
3FD
330
1F
100
AcDbEntity
  8
Ｓ_１_１
  6
EXLTYPE0
 62
     2
100
AcDbLine
 10
1417.999994
 20
513.0000279999999
 30
0.0
 11
1411.99999
 21
513.0000279999999
 31
0.0
  0
LINE
  5
3FE
330
1F
100
AcDbEntity
  8
Ｓ_１_１
  6
EXLTYPE0
 62
     2
100
AcDbLine
 10
1647.999972
 20
542.9999129999999
 30
0.0
 11
1641.999992
 21
542.9999129999999
 31
0.0
  0
LINE
  5
3FF
330
1F
100
AcDbEntity
  8
Ｓ_１_１
  6
EXLTYPE0
 62
     2
100
AcDbLine
 10
1417.999994
 20
542.9999509999998
 30
0.0
 11
1411.99999
 21
542.9999509999998
 31
0.0
  0
LINE
  5
400
330
1F
100
AcDbEntity
  8
Ｓ_１_１
  6
EXLTYPE0
 62
     2
100
AcDbLine
 10
1418.599989
 20
517.2899599999998
 30
0.0
 11
1411.6
 21
517.2899599999998
 31
0.0
  0
LINE
  5
401
330
1F
100
AcDbEntity
  8
Ｓ_１_１
  6
EXLTYPE0
 62
     2
100
AcDbLine
 10
1418.599989
 20
538.709981
 30
0.0
 11
1411.6
 21
538.709981
 31
0.0
  0
LINE
  5
402
330
1F
100
AcDbEntity
  8
Ｓ_１_１
  6
EXLTYPE0
 62
     2
100
AcDbLine
 10
1411.600004
 20
538.7100349999998
 30
0.0
 11
1418.599996
 21
517.290045
 31
0.0
  0
LINE
  5
403
330
1F
100
AcDbEntity
  8
Ｓ_１_１
  6
EXLTYPE0
 62
     2
100
AcDbLine
 10
1418.60001
 20
538.7100429999998
 30
0.0
 11
1411.600012
 21
517.2900349999998
 31
0.0
  0
LINE
  5
404
330
1F
100
AcDbEntity
  8
Ｓ_１_１
  6
EXLTYPE0
 62
     2
100
AcDbLine
 10
1648.59999
 20
517.2899599999998
 30
0.0
 11
1641.599983
 21
517.2899599999998
 31
0.0
  0
LINE
  5
405
330
1F
100
AcDbEntity
  8
Ｓ_１_１
  6
EXLTYPE0
 62
     2
100
AcDbLine
 10
1648.59999
 20
538.709981
 30
0.0
 11
1641.599983
 21
538.709981
 31
0.0
  0
LINE
  5
406
330
1F
100
AcDbEntity
  8
Ｓ_１_１
  6
EXLTYPE0
 62
     2
100
AcDbLine
 10
1648.599997
 20
538.7099839999998
 30
0.0
 11
1641.600011
 21
517.2900119999999
 31
0.0
  0
LINE
  5
407
330
1F
100
AcDbEntity
  8
Ｓ_１_１
  6
EXLTYPE0
 62
     2
100
AcDbLine
 10
1648.600011
 20
517.2900329999998
 30
0.0
 11
1641.600007
 21
538.7100589999998
 31
0.0
  0
LINE
  5
408
330
1F
100
AcDbEntity
  8
Ｓ_１_１
  6
EXLTYPE0
 62
     2
100
AcDbLine
 10
1729.999995
 20
317.9999929999998
 30
0.0
 11
1729.999995
 21
327.0000079999999
 31
0.0
  0
LINE
  5
409
330
1F
100
AcDbEntity
  8
Ｓ_１_１
  6
EXLTYPE0
 62
     2
100
AcDbLine
 10
1727.000002
 20
314.9999999999999
 30
0.0
 11
1689.999999
 21
314.9999999999999
 31
0.0
  0
LINE
  5
40A
330
1F
100
AcDbEntity
  8
Ｓ_１_１
  6
EXLTYPE0
 62
     2
100
AcDbLine
 10
1750.499989
 20
339.9999619999999
 30
0.0
 11
1750.499989
 21
382.9999919999998
 31
0.0
  0
LINE
  5
40B
330
1F
100
AcDbEntity
  8
Ｓ_１_１
  6
EXLTYPE0
 62
     2
100
AcDbLine
 10
1738.499998
 20
339.9999619999999
 30
0.0
 11
1738.499998
 21
382.9999919999998
 31
0.0
  0
LINE
  5
40C
330
1F
100
AcDbEntity
  8
Ｓ_１_１
  6
EXLTYPE0
 62
     2
100
AcDbLine
 10
1749.499981
 20
382.9999919999998
 30
0.0
 11
1749.499981
 21
352.9999919999998
 31
0.0
  0
LINE
  5
40D
330
1F
100
AcDbEntity
  8
Ｓ_１_１
  6
EXLTYPE0
 62
     2
100
AcDbLine
 10
1739.499983
 20
382.9999919999998
 30
0.0
 11
1739.499983
 21
352.9999919999998
 31
0.0
  0
LINE
  5
40E
330
1F
100
AcDbEntity
  8
Ｓ_１_１
  6
EXLTYPE0
 62
     2
100
AcDbLine
 10
1749.499981
 20
352.9999919999998
 30
0.0
 11
1739.499983
 21
352.9999919999998
 31
0.0
  0
LINE
  5
40F
330
1F
100
AcDbEntity
  8
Ｓ_１_１
  6
EXLTYPE0
 62
     2
100
AcDbLine
 10
1749.499961
 20
352.9999949999998
 30
0.0
 11
1750.49997
 21
351.9999909999999
 31
0.0
  0
LINE
  5
410
330
1F
100
AcDbEntity
  8
Ｓ_１_１
  6
EXLTYPE0
 62
     2
100
AcDbLine
 10
1739.500003
 20
352.9999699999999
 30
0.0
 11
1738.500026
 21
351.9999879999999
 31
0.0
  0
LINE
  5
411
330
1F
100
AcDbEntity
  8
Ｓ_１_１
  6
EXLTYPE0
 62
     2
100
AcDbLine
 10
1321.500018
 20
339.9999619999999
 30
0.0
 11
1321.500018
 21
382.9999919999998
 31
0.0
  0
LINE
  5
412
330
1F
100
AcDbEntity
  8
Ｓ_１_１
  6
EXLTYPE0
 62
     2
100
AcDbLine
 10
1309.500011
 20
339.9999619999999
 30
0.0
 11
1309.500011
 21
382.9999919999998
 31
0.0
  0
LINE
  5
413
330
1F
100
AcDbEntity
  8
Ｓ_１_１
  6
EXLTYPE0
 62
     2
100
AcDbLine
 10
1320.499996
 20
382.9999919999998
 30
0.0
 11
1320.499996
 21
352.9999919999998
 31
0.0
  0
LINE
  5
414
330
1F
100
AcDbEntity
  8
Ｓ_１_１
  6
EXLTYPE0
 62
     2
100
AcDbLine
 10
1310.500034
 20
382.9999919999998
 30
0.0
 11
1310.500034
 21
352.9999919999998
 31
0.0
  0
LINE
  5
415
330
1F
100
AcDbEntity
  8
Ｓ_１_１
  6
EXLTYPE0
 62
     2
100
AcDbLine
 10
1320.499996
 20
352.9999919999998
 30
0.0
 11
1310.499996
 21
352.9999919999998
 31
0.0
  0
LINE
  5
416
330
1F
100
AcDbEntity
  8
Ｓ_１_１
  6
EXLTYPE0
 62
     2
100
AcDbLine
 10
1310.500057
 20
353.0000129999999
 30
0.0
 11
1309.50002
 21
351.9999829999999
 31
0.0
  0
LINE
  5
417
330
1F
100
AcDbEntity
  8
Ｓ_１_１
  6
EXLTYPE0
 62
     2
100
AcDbLine
 10
1320.499933
 20
352.9999459999998
 30
0.0
 11
1321.499916
 21
351.9999569999999
 31
0.0
  0
LINE
  5
418
330
1F
100
AcDbEntity
  8
Ｓ_１_１
  6
EXLTYPE0
 62
     2
100
AcDbLine
 10
1369.999964
 20
314.9999999999999
 30
0.0
 11
1332.999995
 21
314.9999999999999
 31
0.0
  0
LINE
  5
419
330
1F
100
AcDbEntity
  8
Ｓ_１_１
  6
EXLTYPE0
 62
     2
100
AcDbLine
 10
1729.999995
 20
327.0000079999999
 30
0.0
 11
1729.999995
 21
329.9999999999999
 31
0.0
  0
LINE
  5
41A
330
1F
100
AcDbEntity
  8
Ｓ_１_１
  6
EXLTYPE0
 62
     2
100
AcDbLine
 10
1769.999992
 20
359.9999999999998
 30
0.0
 11
1769.999992
 21
382.9999539999999
 31
0.0
  0
LINE
  5
41B
330
1F
100
AcDbEntity
  8
Ｓ_１_１
  6
EXLTYPE0
 62
     2
100
AcDbLine
 10
1290.000004
 20
359.9999999999998
 30
0.0
 11
1290.000004
 21
382.9999539999999
 31
0.0
  0
LINE
  5
41C
330
1F
100
AcDbEntity
  8
Ｓ_１_１
  6
EXLTYPE0
 62
     2
100
AcDbLine
 10
1330.000041
 20
317.9999929999998
 30
0.0
 11
1330.000041
 21
332.0000079999999
 31
0.0
  0
LINE
  5
41D
330
1F
100
AcDbEntity
  8
Ｓ_１_１
  6
EXLTYPE0
 62
     2
100
AcDbLine
 10
1370.000041
 20
337.0000079999999
 30
0.0
 11
1330.000041
 21
337.0000079999999
 31
0.0
  0
LINE
  5
41E
330
1F
100
AcDbEntity
  8
Ｓ_１_１
  6
EXLTYPE0
 62
     2
100
AcDbLine
 10
1689.999999
 20
337.0000079999999
 30
0.0
 11
1729.999995
 21
337.0000079999999
 31
0.0
  0
ARC
  5
41F
330
1F
100
AcDbEntity
  8
Ｓ_１_１
  6
EXLTYPE0
 62
     2
100
AcDbCircle
 10
1727.000002
 20
317.9999929999998
 30
0.0
 40
3.000000000000003
100
AcDbArc
 50
269.999997
 51
359.999982
  0
ARC
  5
420
330
1F
100
AcDbEntity
  8
Ｓ_１_１
  6
EXLTYPE0
 62
     2
100
AcDbCircle
 10
1333.000034
 20
317.9999929999998
 30
0.0
 40
3.000000000000003
100
AcDbArc
 50
180.000022
 51
269.999997
  0
LINE
  5
421
330
1F
100
AcDbEntity
  8
Ｓ_１_１
  6
EXLTYPE2
 62
     1
100
AcDbLine
 10
1744.499985
 20
391.5000139999999
 30
0.0
 11
1744.499985
 21
321.5000539999999
 31
0.0
  0
LINE
  5
422
330
1F
100
AcDbEntity
  8
Ｓ_１_１
  6
EXLTYPE2
 62
     1
100
AcDbLine
 10
1315.500034
 20
389.7500219999999
 30
0.0
 11
1315.500034
 21
319.7500229999999
 31
0.0
  0
LINE
  5
423
330
1F
100
AcDbEntity
  8
Ｓ_１_１
  6
EXLTYPE2
 62
     1
100
AcDbLine
 10
1494.999982
 20
424.9999989999999
 30
0.0
 11
1396.950037
 21
424.9999989999999
 31
0.0
  0
LINE
  5
424
330
1F
100
AcDbEntity
  8
Ｓ_１_１
  6
EXLTYPE2
 62
     1
100
AcDbLine
 10
1665.624981
 20
474.9999599999999
 30
0.0
 11
1396.125014
 21
474.9999599999999
 31
0.0
  0
LINE
  5
425
330
1F
100
AcDbEntity
  8
Ｓ_１_１
  6
EXLTYPE2
 62
     1
100
AcDbLine
 10
1799.499956
 20
527.9999129999999
 30
0.0
 11
1257.874989
 21
527.9999129999999
 31
0.0
  0
LINE
  5
426
330
1F
100
AcDbEntity
  8
Ｓ_１_１
  6
EXLTYPE2
 62
     1
100
AcDbLine
 10
1662.700022
 20
424.9999609999998
 30
0.0
 11
1564.99999
 21
424.9999609999998
 31
0.0
  0
LINE
  5
427
330
1F
100
AcDbEntity
  8
Ｓ_１_１
  6
EXLTYPE2
 62
     1
100
AcDbLine
 10
1350.000003
 20
337.1874999999999
 30
0.0
 11
1350.000003
 21
265.637475
 31
0.0
  0
LINE
  5
428
330
1F
100
AcDbEntity
  8
Ｓ_１_１
  6
EXLTYPE2
 62
     1
100
AcDbLine
 10
1709.999997
 20
336.9687649999999
 30
0.0
 11
1709.999997
 21
265.637475
 31
0.0
  0
LINE
  5
429
330
1F
100
AcDbEntity
  8
Ｓ_１_１
  6
EXLTYPE2
 62
     1
100
AcDbLine
 10
1530.0
 20
551.4039389999998
 30
0.0
 11
1530.0
 21
235.1326389999999
 31
0.0
  0
LINE
  5
42A
330
1F
100
AcDbEntity
  8
Ｓ_１_１
  6
EXLTYPE2
 62
     1
100
AcDbLine
 10
1510.681475
 20
254.7888949999999
 30
0.0
 11
1549.318502
 21
244.436133
 31
0.0
  0
LINE
  5
42B
330
1F
100
AcDbEntity
  8
Ｓ_１_１
  6
EXLTYPE2
 62
     1
100
AcDbLine
 10
247.9312960000002
 20
1020.0
 30
0.0
 11
1059.493631
 21
1020.0
 31
0.0
  0
LINE
  5
42C
330
1F
100
AcDbEntity
  8
Ｓ_１_１
  6
EXLTYPE2
 62
     1
100
AcDbLine
 10
660.0000000000002
 20
1291.249972
 30
0.0
 11
660.0000000000002
 21
744.3750369999999
 31
0.0
  0
LINE
  5
42D
330
1F
100
AcDbEntity
  8
Ｓ_１_１
  6
EXLTYPE2
 62
     1
100
AcDbLine
 10
539.9999260000002
 20
975.41945
 30
0.0
 11
539.9999260000002
 21
888.4374969999999
 31
0.0
  0
LINE
  5
42E
330
1F
100
AcDbEntity
  8
Ｓ_１_１
  6
EXLTYPE2
 62
     1
100
AcDbLine
 10
575.0000020000002
 20
976.392007
 30
0.0
 11
575.0000020000002
 21
886.2499969999999
 31
0.0
  0
LINE
  5
42F
330
1F
100
AcDbEntity
  8
Ｓ_１_１
  6
EXLTYPE2
 62
     1
100
AcDbLine
 10
744.9999990000001
 20
976.0678249999999
 30
0.0
 11
744.9999990000001
 21
887.1249929999999
 31
0.0
  0
LINE
  5
430
330
1F
100
AcDbEntity
  8
Ｓ_１_１
  6
EXLTYPE2
 62
     1
100
AcDbLine
 10
779.9999980000001
 20
975.7436329999999
 30
0.0
 11
779.9999980000001
 21
886.6874849999999
 31
0.0
  0
LINE
  5
431
330
1F
100
AcDbEntity
  8
Ｓ_１_１
  6
EXLTYPE2
 62
     1
100
AcDbLine
 10
779.9999980000001
 20
1153.312461
 30
0.0
 11
779.9999980000001
 21
1053.249992
 31
0.0
  0
LINE
  5
432
330
1F
100
AcDbEntity
  8
Ｓ_１_１
  6
EXLTYPE2
 62
     1
100
AcDbLine
 10
744.9999990000001
 20
1152.874973
 30
0.0
 11
744.9999990000001
 21
1050.624985
 31
0.0
  0
LINE
  5
433
330
1F
100
AcDbEntity
  8
Ｓ_１_１
  6
EXLTYPE2
 62
     1
100
AcDbLine
 10
575.0000020000002
 20
1153.312461
 30
0.0
 11
575.0000020000002
 21
1052.374989
 31
0.0
  0
LINE
  5
434
330
1F
100
AcDbEntity
  8
Ｓ_１_１
  6
EXLTYPE2
 62
     1
100
AcDbLine
 10
539.9999260000002
 20
1152.437465
 30
0.0
 11
539.9999260000002
 21
1051.499993
 31
0.0
  0
LINE
  5
435
330
1F
100
AcDbEntity
  8
Ｓ_１_１
  6
EXLTYPE2
 62
     1
100
AcDbLine
 10
835.9999060000001
 20
790.0000939999999
 30
0.0
 11
835.9999060000001
 21
759.9999219999999
 31
0.0
  0
LINE
  5
436
330
1F
100
AcDbEntity
  8
Ｓ_１_１
  6
EXLTYPE2
 62
     1
100
AcDbLine
 10
484.0000180000002
 20
790.0000939999999
 30
0.0
 11
484.0000180000002
 21
759.9999219999999
 31
0.0
  0
LINE
  5
437
330
1F
100
AcDbEntity
  8
Ｓ_１_１
  6
EXLTYPE2
 62
     1
100
AcDbLine
 10
835.9999060000001
 20
1281.000071
 30
0.0
 11
835.9999060000001
 21
1250.9999
 31
0.0
  0
LINE
  5
438
330
1F
100
AcDbEntity
  8
Ｓ_１_１
  6
EXLTYPE2
 62
     1
100
AcDbLine
 10
484.0000180000002
 20
1280.000048
 30
0.0
 11
484.0000180000002
 21
1249.999896
 31
0.0
  0
LINE
  5
439
330
1F
100
AcDbEntity
  8
Ｓ_１_１
  6
EXLTYPE2
 62
     1
100
AcDbLine
 10
469.0000180000002
 20
1264.999972
 30
0.0
 11
499.0001710000001
 21
1264.999972
 31
0.0
  0
LINE
  5
43A
330
1F
100
AcDbEntity
  8
Ｓ_１_１
  6
EXLTYPE2
 62
     1
100
AcDbLine
 10
820.9999060000001
 20
1265.999976
 30
0.0
 11
850.9999820000002
 21
1265.999976
 31
0.0
  0
LINE
  5
43B
330
1F
100
AcDbEntity
  8
Ｓ_１_１
  6
EXLTYPE2
 62
     1
100
AcDbLine
 10
820.9999060000001
 20
775.0000180000001
 30
0.0
 11
850.9999820000002
 21
775.0000180000001
 31
0.0
  0
LINE
  5
43C
330
1F
100
AcDbEntity
  8
Ｓ_１_１
  6
EXLTYPE2
 62
     1
100
AcDbLine
 10
469.0000180000002
 20
775.0000180000001
 30
0.0
 11
499.0000180000002
 21
775.0000180000001
 31
0.0
  0
LINE
  5
43D
330
1F
100
AcDbEntity
  8
Ｓ_１_１
  6
EXLTYPE2
 62
     1
100
AcDbLine
 10
449.9999270000001
 20
1138.999985
 30
0.0
 11
449.9999270000001
 21
1101.799956
 31
0.0
  0
LINE
  5
43E
330
1F
100
AcDbEntity
  8
Ｓ_１_１
  6
EXLTYPE2
 62
     1
100
AcDbLine
 10
449.9999270000001
 20
937.1749839999999
 30
0.0
 11
449.9999270000001
 21
901.00002
 31
0.0
  0
LINE
  5
43F
330
1F
100
AcDbEntity
  8
Ｓ_１_１
  6
EXLTYPE2
 62
     1
100
AcDbLine
 10
734.9999990000001
 20
1059.824966
 30
0.0
 11
734.9999990000001
 21
979.499965
 31
0.0
  0
LINE
  5
440
330
1F
100
AcDbEntity
  8
Ｓ_１_１
  6
EXLTYPE2
 62
     1
100
AcDbLine
 10
585.0000010000001
 20
1060.349965
 30
0.0
 11
585.0000010000001
 21
979.8499629999999
 31
0.0
  0
LINE
  5
441
330
1F
100
AcDbEntity
  8
Ｓ_１_１
  6
EXLTYPE2
 62
     1
100
AcDbLine
 10
869.9999970000001
 20
1085.549967
 30
0.0
 11
869.9999970000001
 21
953.4249739999999
 31
0.0
  0
LINE
  5
442
330
1F
100
AcDbEntity
  8
Ｓ_１_１
  6
EXLTYPE2
 62
     1
100
AcDbLine
 10
645.000001
 20
1189.000008
 30
0.0
 11
675.0000000000002
 21
1189.000008
 31
0.0
  0
LINE
  5
443
330
1F
100
AcDbEntity
  8
Ｓ_１_１
  6
EXLTYPE2
 62
     1
100
AcDbLine
 10
645.000001
 20
1258.999988
 30
0.0
 11
675.0000000000002
 21
1258.999988
 31
0.0
  0
LINE
  5
444
330
1F
100
AcDbEntity
  8
Ｓ_１_１
  6
EXLTYPE2
 62
     1
100
AcDbLine
 10
645.000001
 20
781.200026
 30
0.0
 11
675.0000000000002
 21
781.200026
 31
0.0
  0
LINE
  5
445
330
1F
100
AcDbEntity
  8
Ｓ_１_１
  6
EXLTYPE2
 62
     1
100
AcDbLine
 10
645.000001
 20
851.200025
 30
0.0
 11
675.0000000000002
 21
851.200025
 31
0.0
  0
LINE
  5
446
330
1F
100
AcDbEntity
  8
Ｓ_１_１
  6
EXLTYPE0
 62
     2
100
AcDbLine
 10
670.4998780000001
 20
1131.499985
 30
0.0
 11
670.4998780000001
 21
1138.499973
 31
0.0
  0
LINE
  5
447
330
1F
100
AcDbEntity
  8
Ｓ_１_１
  6
EXLTYPE0
 62
     2
100
AcDbLine
 10
649.4999700000001
 20
1138.499973
 30
0.0
 11
649.4999700000001
 21
1131.499985
 31
0.0
  0
LINE
  5
448
330
1F
100
AcDbEntity
  8
Ｓ_１_１
  6
EXLTYPE0
 62
     2
100
AcDbLine
 10
670.4998780000001
 20
908.4999999999999
 30
0.0
 11
670.4998780000001
 21
901.500012
 31
0.0
  0
LINE
  5
449
330
1F
100
AcDbEntity
  8
Ｓ_１_１
  6
EXLTYPE0
 62
     2
100
AcDbLine
 10
649.4999700000001
 20
908.4999999999999
 30
0.0
 11
649.4999700000001
 21
901.500012
 31
0.0
  0
LINE
  5
44A
330
1F
100
AcDbEntity
  8
Ｓ_１_１
  6
EXLTYPE0
 62
     2
100
AcDbLine
 10
480.0000790000001
 20
930.9999999999999
 30
0.0
 11
480.0000790000001
 21
907.9999889999999
 31
0.0
  0
LINE
  5
44B
330
1F
100
AcDbEntity
  8
Ｓ_１_１
  6
EXLTYPE0
 62
     2
100
AcDbLine
 10
420.0000800000001
 20
930.9999999999999
 30
0.0
 11
420.0000800000001
 21
907.9999889999999
 31
0.0
  0
LINE
  5
44C
330
1F
100
AcDbEntity
  8
Ｓ_１_１
  6
EXLTYPE0
 62
     2
100
AcDbLine
 10
480.0000790000001
 20
1108.999985
 30
0.0
 11
480.0000790000001
 21
1131.999996
 31
0.0
  0
LINE
  5
44D
330
1F
100
AcDbEntity
  8
Ｓ_１_１
  6
EXLTYPE0
 62
     2
100
AcDbLine
 10
420.0000800000001
 20
1108.999985
 30
0.0
 11
420.0000800000001
 21
1131.999996
 31
0.0
  0
LINE
  5
44E
330
1F
100
AcDbEntity
  8
Ｓ_１_１
  6
EXLTYPE0
 62
     2
100
AcDbLine
 10
839.9999210000001
 20
1058.999995
 30
0.0
 11
839.9999210000001
 21
1082.499993
 31
0.0
  0
LINE
  5
44F
330
1F
100
AcDbEntity
  8
Ｓ_１_１
  6
EXLTYPE0
 62
     2
100
AcDbLine
 10
899.9999200000002
 20
1058.999995
 30
0.0
 11
899.9999200000002
 21
1082.499993
 31
0.0
  0
LINE
  5
450
330
1F
100
AcDbEntity
  8
Ｓ_１_１
  6
EXLTYPE0
 62
     2
100
AcDbLine
 10
899.9999200000002
 20
980.999999
 30
0.0
 11
899.9999200000002
 21
957.500005
 31
0.0
  0
LINE
  5
451
330
1F
100
AcDbEntity
  8
Ｓ_１_１
  6
EXLTYPE0
 62
     2
100
AcDbLine
 10
839.9999210000001
 20
980.999999
 30
0.0
 11
839.9999210000001
 21
957.500005
 31
0.0
  0
LINE
  5
452
330
1F
100
AcDbEntity
  8
Ｓ_１_１
  6
EXLTYPE0
 62
     2
100
AcDbLine
 10
645.000001
 20
926.0000099999999
 30
0.0
 11
675.0000000000002
 21
926.0000099999999
 31
0.0
  0
LINE
  5
453
330
1F
100
AcDbEntity
  8
Ｓ_１_１
  6
EXLTYPE0
 62
     2
100
AcDbLine
 10
645.000001
 20
962.500005
 30
0.0
 11
675.0000000000002
 21
962.500005
 31
0.0
  0
LINE
  5
454
330
1F
100
AcDbEntity
  8
Ｓ_１_１
  6
EXLTYPE0
 62
     2
100
AcDbLine
 10
645.000001
 20
1077.499993
 30
0.0
 11
675.0000000000002
 21
1077.499993
 31
0.0
  0
LINE
  5
455
330
1F
100
AcDbEntity
  8
Ｓ_１_１
  6
EXLTYPE0
 62
     2
100
AcDbLine
 10
645.000001
 20
1113.999997
 30
0.0
 11
675.0000000000002
 21
1113.999997
 31
0.0
  0
CIRCLE
  5
456
330
1F
100
AcDbEntity
  8
Ｓ_１_１
  6
CONTINUOUS
 62
     3
100
AcDbCircle
 10
835.9999060000001
 20
1265.999976
 30
0.0
 40
8.0
  0
CIRCLE
  5
457
330
1F
100
AcDbEntity
  8
Ｓ_１_１
  6
CONTINUOUS
 62
     3
100
AcDbCircle
 10
484.0000180000002
 20
1264.999972
 30
0.0
 40
8.0
  0
CIRCLE
  5
458
330
1F
100
AcDbEntity
  8
Ｓ_１_１
  6
CONTINUOUS
 62
     3
100
AcDbCircle
 10
484.0000180000002
 20
775.0000180000001
 30
0.0
 40
8.0
  0
CIRCLE
  5
459
330
1F
100
AcDbEntity
  8
Ｓ_１_１
  6
CONTINUOUS
 62
     3
100
AcDbCircle
 10
835.9999060000001
 20
775.0000180000001
 30
0.0
 40
8.0
  0
CIRCLE
  5
45A
330
1F
100
AcDbEntity
  8
Ｓ_１_１
  6
CONTINUOUS
 62
     3
100
AcDbCircle
 10
835.9999060000001
 20
775.0000180000001
 30
0.0
 40
7.000000000000004
  0
CIRCLE
  5
45B
330
1F
100
AcDbEntity
  8
Ｓ_１_１
  6
CONTINUOUS
 62
     3
100
AcDbCircle
 10
835.9999060000001
 20
1265.999976
 30
0.0
 40
7.000000000000004
  0
CIRCLE
  5
45C
330
1F
100
AcDbEntity
  8
Ｓ_１_１
  6
CONTINUOUS
 62
     3
100
AcDbCircle
 10
484.0000180000002
 20
1264.999972
 30
0.0
 40
7.000000000000004
  0
CIRCLE
  5
45D
330
1F
100
AcDbEntity
  8
Ｓ_１_１
  6
CONTINUOUS
 62
     3
100
AcDbCircle
 10
484.0000180000002
 20
775.0000180000001
 30
0.0
 40
7.000000000000004
  0
CIRCLE
  5
45E
330
1F
100
AcDbEntity
  8
Ｓ_１_１
  6
CONTINUOUS
 62
     3
100
AcDbCircle
 10
660.0000000000002
 20
1258.999988
 30
0.0
 40
8.0
  0
CIRCLE
  5
45F
330
1F
100
AcDbEntity
  8
Ｓ_１_１
  6
CONTINUOUS
 62
     3
100
AcDbCircle
 10
660.0000000000002
 20
1189.000008
 30
0.0
 40
8.0
  0
CIRCLE
  5
460
330
1F
100
AcDbEntity
  8
Ｓ_１_１
  6
CONTINUOUS
 62
     3
100
AcDbCircle
 10
660.0000000000002
 20
851.200025
 30
0.0
 40
8.0
  0
CIRCLE
  5
461
330
1F
100
AcDbEntity
  8
Ｓ_１_１
  6
CONTINUOUS
 62
     3
100
AcDbCircle
 10
660.0000000000002
 20
781.200026
 30
0.0
 40
8.0
  0
CIRCLE
  5
462
330
1F
100
AcDbEntity
  8
Ｓ_１_１
  6
CONTINUOUS
 62
     3
100
AcDbCircle
 10
660.0000000000002
 20
781.200026
 30
0.0
 40
7.000000000000004
  0
CIRCLE
  5
463
330
1F
100
AcDbEntity
  8
Ｓ_１_１
  6
CONTINUOUS
 62
     3
100
AcDbCircle
 10
660.0000000000002
 20
851.200025
 30
0.0
 40
7.000000000000004
  0
CIRCLE
  5
464
330
1F
100
AcDbEntity
  8
Ｓ_１_１
  6
CONTINUOUS
 62
     3
100
AcDbCircle
 10
660.0000000000002
 20
1189.000008
 30
0.0
 40
7.000000000000004
  0
CIRCLE
  5
465
330
1F
100
AcDbEntity
  8
Ｓ_１_１
  6
CONTINUOUS
 62
     3
100
AcDbCircle
 10
660.0000000000002
 20
1258.999988
 30
0.0
 40
7.000000000000004
  0
CIRCLE
  5
466
330
1F
100
AcDbEntity
  8
Ｓ_１_１
  6
CONTINUOUS
 62
     3
100
AcDbCircle
 10
660.0000000000002
 20
1258.999988
 30
0.0
 40
7.500000000000004
  0
LINE
  5
467
330
1F
100
AcDbEntity
  8
Ｓ_１_１
  6
CONTINUOUS
 62
     3
100
AcDbLine
 10
764.9999220000002
 20
1147.000005
 30
0.0
 11
794.9999980000001
 21
1147.000005
 31
0.0
  0
LINE
  5
468
330
1F
100
AcDbEntity
  8
Ｓ_１_１
  6
CONTINUOUS
 62
     3
100
AcDbLine
 10
794.9999870000001
 20
1146.999993
 30
0.0
 11
793.8452980000001
 21
1148.999975
 31
0.0
  0
LINE
  5
469
330
1F
100
AcDbEntity
  8
Ｓ_１_１
  6
CONTINUOUS
 62
     3
100
AcDbLine
 10
764.9999630000002
 20
1146.999988
 30
0.0
 11
766.1546720000001
 21
1149.000003
 31
0.0
  0
LINE
  5
46A
330
1F
100
AcDbEntity
  8
Ｓ_１_１
  6
CONTINUOUS
 62
     3
100
AcDbLine
 10
764.9999220000002
 20
1147.000005
 30
0.0
 11
764.9999220000002
 21
1132.000006
 31
0.0
  0
LINE
  5
46B
330
1F
100
AcDbEntity
  8
Ｓ_１_１
  6
CONTINUOUS
 62
     3
100
AcDbLine
 10
794.9999980000001
 20
1147.000005
 30
0.0
 11
794.9999980000001
 21
1132.000006
 31
0.0
  0
LINE
  5
46C
330
1F
100
AcDbEntity
  8
Ｓ_１_１
  6
CONTINUOUS
 62
     3
100
AcDbLine
 10
766.154708
 20
1149.000003
 30
0.0
 11
779.9999980000001
 21
1149.000003
 31
0.0
  0
LINE
  5
46D
330
1F
100
AcDbEntity
  8
Ｓ_１_１
  6
CONTINUOUS
 62
     3
100
AcDbLine
 10
779.9999980000001
 20
1149.000003
 30
0.0
 11
793.8452130000002
 21
1149.000003
 31
0.0
  0
LINE
  5
46E
330
1F
100
AcDbEntity
  8
Ｓ_１_１
  6
CONTINUOUS
 62
     3
100
AcDbLine
 10
729.9999990000001
 20
1147.000005
 30
0.0
 11
759.9999990000001
 21
1147.000005
 31
0.0
  0
LINE
  5
46F
330
1F
100
AcDbEntity
  8
Ｓ_１_１
  6
CONTINUOUS
 62
     3
100
AcDbLine
 10
760.0000000000002
 20
1146.999969
 30
0.0
 11
758.8452920000001
 21
1148.999984
 31
0.0
  0
LINE
  5
470
330
1F
100
AcDbEntity
  8
Ｓ_１_１
  6
CONTINUOUS
 62
     3
100
AcDbLine
 10
729.9999560000001
 20
1146.999985
 30
0.0
 11
731.154665
 21
1149.0
 31
0.0
  0
LINE
  5
471
330
1F
100
AcDbEntity
  8
Ｓ_１_１
  6
CONTINUOUS
 62
     3
100
AcDbLine
 10
729.9999990000001
 20
1147.000005
 30
0.0
 11
729.9999990000001
 21
1132.000006
 31
0.0
  0
LINE
  5
472
330
1F
100
AcDbEntity
  8
Ｓ_１_１
  6
CONTINUOUS
 62
     3
100
AcDbLine
 10
759.9999990000001
 20
1147.000005
 30
0.0
 11
759.9999990000001
 21
1132.000006
 31
0.0
  0
LINE
  5
473
330
1F
100
AcDbEntity
  8
Ｓ_１_１
  6
CONTINUOUS
 62
     3
100
AcDbLine
 10
731.154708
 20
1149.000003
 30
0.0
 11
744.9999990000001
 21
1149.000003
 31
0.0
  0
LINE
  5
474
330
1F
100
AcDbEntity
  8
Ｓ_１_１
  6
CONTINUOUS
 62
     3
100
AcDbLine
 10
744.9999990000001
 20
1149.000003
 30
0.0
 11
758.8452140000002
 21
1149.000003
 31
0.0
  0
LINE
  5
475
330
1F
100
AcDbEntity
  8
Ｓ_１_１
  6
CONTINUOUS
 62
     3
100
AcDbLine
 10
560.0000020000002
 20
1147.000005
 30
0.0
 11
589.9999250000001
 21
1147.000005
 31
0.0
  0
LINE
  5
476
330
1F
100
AcDbEntity
  8
Ｓ_１_１
  6
CONTINUOUS
 62
     3
100
AcDbLine
 10
589.9999990000001
 20
1146.999982
 30
0.0
 11
588.8452900000002
 21
1148.999997
 31
0.0
  0
LINE
  5
477
330
1F
100
AcDbEntity
  8
Ｓ_１_１
  6
CONTINUOUS
 62
     3
100
AcDbLine
 10
559.9999700000001
 20
1147.000032
 30
0.0
 11
561.1546780000001
 21
1149.000046
 31
0.0
  0
LINE
  5
478
330
1F
100
AcDbEntity
  8
Ｓ_１_１
  6
CONTINUOUS
 62
     3
100
AcDbLine
 10
560.0000020000002
 20
1147.000005
 30
0.0
 11
560.0000020000002
 21
1132.000006
 31
0.0
  0
LINE
  5
479
330
1F
100
AcDbEntity
  8
Ｓ_１_１
  6
CONTINUOUS
 62
     3
100
AcDbLine
 10
589.9999250000001
 20
1147.000005
 30
0.0
 11
589.9999250000001
 21
1132.000006
 31
0.0
  0
LINE
  5
47A
330
1F
100
AcDbEntity
  8
Ｓ_１_１
  6
CONTINUOUS
 62
     3
100
AcDbLine
 10
561.1547110000001
 20
1149.000003
 30
0.0
 11
575.0000020000002
 21
1149.000003
 31
0.0
  0
LINE
  5
47B
330
1F
100
AcDbEntity
  8
Ｓ_１_１
  6
CONTINUOUS
 62
     3
100
AcDbLine
 10
575.0000020000002
 20
1149.000003
 30
0.0
 11
588.8452920000002
 21
1149.000003
 31
0.0
  0
LINE
  5
47C
330
1F
100
AcDbEntity
  8
Ｓ_１_１
  6
CONTINUOUS
 62
     3
100
AcDbLine
 10
525.0000020000002
 20
1147.000005
 30
0.0
 11
555.0000020000002
 21
1147.000005
 31
0.0
  0
LINE
  5
47D
330
1F
100
AcDbEntity
  8
Ｓ_１_１
  6
CONTINUOUS
 62
     3
100
AcDbLine
 10
555.0000580000001
 20
1147.000029
 30
0.0
 11
553.84535
 21
1149.000044
 31
0.0
  0
LINE
  5
47E
330
1F
100
AcDbEntity
  8
Ｓ_１_１
  6
CONTINUOUS
 62
     3
100
AcDbLine
 10
524.9999630000002
 20
1147.000029
 30
0.0
 11
526.154671
 21
1149.000043
 31
0.0
  0
LINE
  5
47F
330
1F
100
AcDbEntity
  8
Ｓ_１_１
  6
CONTINUOUS
 62
     3
100
AcDbLine
 10
525.0000020000002
 20
1147.000005
 30
0.0
 11
525.0000020000002
 21
1132.000006
 31
0.0
  0
LINE
  5
480
330
1F
100
AcDbEntity
  8
Ｓ_１_１
  6
CONTINUOUS
 62
     3
100
AcDbLine
 10
555.0000020000002
 20
1147.000005
 30
0.0
 11
555.0000020000002
 21
1132.000006
 31
0.0
  0
LINE
  5
481
330
1F
100
AcDbEntity
  8
Ｓ_１_１
  6
CONTINUOUS
 62
     3
100
AcDbLine
 10
526.1547110000001
 20
1149.000003
 30
0.0
 11
539.9999260000002
 21
1149.000003
 31
0.0
  0
LINE
  5
482
330
1F
100
AcDbEntity
  8
Ｓ_１_１
  6
CONTINUOUS
 62
     3
100
AcDbLine
 10
539.9999260000002
 20
1149.000003
 30
0.0
 11
553.8452930000001
 21
1149.000003
 31
0.0
  0
LINE
  5
483
330
1F
100
AcDbEntity
  8
Ｓ_１_１
  6
CONTINUOUS
 62
     3
100
AcDbLine
 10
794.9999980000001
 20
893.0000079999999
 30
0.0
 11
764.9999220000002
 21
893.0000079999999
 31
0.0
  0
LINE
  5
484
330
1F
100
AcDbEntity
  8
Ｓ_１_１
  6
CONTINUOUS
 62
     3
100
AcDbLine
 10
764.9999610000001
 20
893.0000099999999
 30
0.0
 11
766.15467
 21
890.9999959999999
 31
0.0
  0
LINE
  5
485
330
1F
100
AcDbEntity
  8
Ｓ_１_１
  6
CONTINUOUS
 62
     3
100
AcDbLine
 10
795.0000180000001
 20
893.0000339999999
 30
0.0
 11
793.8453100000002
 21
891.000019
 31
0.0
  0
LINE
  5
486
330
1F
100
AcDbEntity
  8
Ｓ_１_１
  6
CONTINUOUS
 62
     3
100
AcDbLine
 10
794.9999980000001
 20
893.0000079999999
 30
0.0
 11
794.9999980000001
 21
908.0000079999999
 31
0.0
  0
LINE
  5
487
330
1F
100
AcDbEntity
  8
Ｓ_１_１
  6
CONTINUOUS
 62
     3
100
AcDbLine
 10
764.9999220000002
 20
893.0000079999999
 30
0.0
 11
764.9999220000002
 21
908.0000079999999
 31
0.0
  0
LINE
  5
488
330
1F
100
AcDbEntity
  8
Ｓ_１_１
  6
CONTINUOUS
 62
     3
100
AcDbLine
 10
793.8452130000002
 20
891.0000009999999
 30
0.0
 11
779.9999980000001
 21
891.0000009999999
 31
0.0
  0
LINE
  5
489
330
1F
100
AcDbEntity
  8
Ｓ_１_１
  6
CONTINUOUS
 62
     3
100
AcDbLine
 10
779.9999980000001
 20
891.0000009999999
 30
0.0
 11
766.154708
 21
891.0000009999999
 31
0.0
  0
LINE
  5
48A
330
1F
100
AcDbEntity
  8
Ｓ_１_１
  6
CONTINUOUS
 62
     3
100
AcDbLine
 10
759.9999990000001
 20
893.0000079999999
 30
0.0
 11
729.9999990000001
 21
893.0000079999999
 31
0.0
  0
LINE
  5
48B
330
1F
100
AcDbEntity
  8
Ｓ_１_１
  6
CONTINUOUS
 62
     3
100
AcDbLine
 10
729.9999550000002
 20
893.000014
 30
0.0
 11
731.154663
 21
890.999999
 31
0.0
  0
LINE
  5
48C
330
1F
100
AcDbEntity
  8
Ｓ_１_１
  6
CONTINUOUS
 62
     3
100
AcDbLine
 10
759.9999730000002
 20
892.9999599999999
 30
0.0
 11
758.8453030000001
 21
891.0000120000001
 31
0.0
  0
LINE
  5
48D
330
1F
100
AcDbEntity
  8
Ｓ_１_１
  6
CONTINUOUS
 62
     3
100
AcDbLine
 10
759.9999990000001
 20
893.0000079999999
 30
0.0
 11
759.9999990000001
 21
908.0000079999999
 31
0.0
  0
LINE
  5
48E
330
1F
100
AcDbEntity
  8
Ｓ_１_１
  6
CONTINUOUS
 62
     3
100
AcDbLine
 10
729.9999990000001
 20
893.0000079999999
 30
0.0
 11
729.9999990000001
 21
908.0000079999999
 31
0.0
  0
LINE
  5
48F
330
1F
100
AcDbEntity
  8
Ｓ_１_１
  6
CONTINUOUS
 62
     3
100
AcDbLine
 10
758.8452140000002
 20
891.0000009999999
 30
0.0
 11
744.9999990000001
 21
891.0000009999999
 31
0.0
  0
LINE
  5
490
330
1F
100
AcDbEntity
  8
Ｓ_１_１
  6
CONTINUOUS
 62
     3
100
AcDbLine
 10
744.9999990000001
 20
891.0000009999999
 30
0.0
 11
731.154708
 21
891.0000009999999
 31
0.0
  0
LINE
  5
491
330
1F
100
AcDbEntity
  8
Ｓ_１_１
  6
CONTINUOUS
 62
     3
100
AcDbLine
 10
589.9999250000001
 20
893.0000079999999
 30
0.0
 11
560.0000020000002
 21
893.0000079999999
 31
0.0
  0
LINE
  5
492
330
1F
100
AcDbEntity
  8
Ｓ_１_１
  6
CONTINUOUS
 62
     3
100
AcDbLine
 10
559.9999520000001
 20
893.0000049999999
 30
0.0
 11
561.1546600000001
 21
890.9999899999999
 31
0.0
  0
LINE
  5
493
330
1F
100
AcDbEntity
  8
Ｓ_１_１
  6
CONTINUOUS
 62
     3
100
AcDbLine
 10
589.999988
 20
892.9999839999999
 30
0.0
 11
588.8452800000002
 21
890.9999699999998
 31
0.0
  0
LINE
  5
494
330
1F
100
AcDbEntity
  8
Ｓ_１_１
  6
CONTINUOUS
 62
     3
100
AcDbLine
 10
589.9999250000001
 20
893.0000079999999
 30
0.0
 11
589.9999250000001
 21
908.0000079999999
 31
0.0
  0
LINE
  5
495
330
1F
100
AcDbEntity
  8
Ｓ_１_１
  6
CONTINUOUS
 62
     3
100
AcDbLine
 10
560.0000020000002
 20
893.0000079999999
 30
0.0
 11
560.0000020000002
 21
908.0000079999999
 31
0.0
  0
LINE
  5
496
330
1F
100
AcDbEntity
  8
Ｓ_１_１
  6
CONTINUOUS
 62
     3
100
AcDbLine
 10
588.8452920000002
 20
891.0000009999999
 30
0.0
 11
575.0000020000002
 21
891.0000009999999
 31
0.0
  0
LINE
  5
497
330
1F
100
AcDbEntity
  8
Ｓ_１_１
  6
CONTINUOUS
 62
     3
100
AcDbLine
 10
575.0000020000002
 20
891.0000009999999
 30
0.0
 11
561.1547110000001
 21
891.0000009999999
 31
0.0
  0
LINE
  5
498
330
1F
100
AcDbEntity
  8
Ｓ_１_１
  6
CONTINUOUS
 62
     3
100
AcDbLine
 10
555.0000020000002
 20
893.0000079999999
 30
0.0
 11
525.0000020000002
 21
893.0000079999999
 31
0.0
  0
LINE
  5
499
330
1F
100
AcDbEntity
  8
Ｓ_１_１
  6
CONTINUOUS
 62
     3
100
AcDbLine
 10
524.999945
 20
893.0000089999999
 30
0.0
 11
526.1546540000002
 21
890.999994
 31
0.0
  0
LINE
  5
49A
330
1F
100
AcDbEntity
  8
Ｓ_１_１
  6
CONTINUOUS
 62
     3
100
AcDbLine
 10
555.0000200000002
 20
893.0000429999999
 30
0.0
 11
553.8453120000001
 21
891.0000279999999
 31
0.0
  0
LINE
  5
49B
330
1F
100
AcDbEntity
  8
Ｓ_１_１
  6
CONTINUOUS
 62
     3
100
AcDbLine
 10
555.0000020000002
 20
893.0000079999999
 30
0.0
 11
555.0000020000002
 21
908.0000079999999
 31
0.0
  0
LINE
  5
49C
330
1F
100
AcDbEntity
  8
Ｓ_１_１
  6
CONTINUOUS
 62
     3
100
AcDbLine
 10
525.0000020000002
 20
893.0000079999999
 30
0.0
 11
525.0000020000002
 21
908.0000079999999
 31
0.0
  0
LINE
  5
49D
330
1F
100
AcDbEntity
  8
Ｓ_１_１
  6
CONTINUOUS
 62
     3
100
AcDbLine
 10
553.8452930000001
 20
891.0000009999999
 30
0.0
 11
539.9999260000002
 21
891.0000009999999
 31
0.0
  0
LINE
  5
49E
330
1F
100
AcDbEntity
  8
Ｓ_１_１
  6
CONTINUOUS
 62
     3
100
AcDbLine
 10
539.9999260000002
 20
891.0000009999999
 30
0.0
 11
526.1547110000001
 21
891.0000009999999
 31
0.0
  0
LINE
  5
49F
330
1F
100
AcDbEntity
  8
Ｓ_１_１
  6
CONTINUOUS
 62
     3
100
AcDbLine
 10
889.9999550000001
 20
951.0000220000001
 30
0.0
 11
899.9999690000001
 21
940.9999599999999
 31
0.0
  0
LINE
  5
4A0
330
1F
100
AcDbEntity
  8
Ｓ_１_１
  6
CONTINUOUS
 62
     3
100
AcDbLine
 10
899.9999900000001
 20
1098.999982
 30
0.0
 11
890.0000060000002
 21
1088.999998
 31
0.0
  0
LINE
  5
4A1
330
1F
100
AcDbEntity
  8
Ｓ_１_１
  6
CONTINUOUS
 62
     3
100
AcDbLine
 10
420.0001350000002
 20
1098.999982
 30
0.0
 11
430.0000380000001
 21
1089.000079
 31
0.0
  0
LINE
  5
4A2
330
1F
100
AcDbEntity
  8
Ｓ_１_１
  6
CONTINUOUS
 62
     3
100
AcDbLine
 10
429.999945
 20
951.0000789999999
 30
0.0
 11
419.9998520000001
 21
940.9999329999999
 31
0.0
  0
LINE
  5
4A3
330
1F
100
AcDbEntity
  8
Ｓ_１_１
  6
CONTINUOUS
 62
     3
100
AcDbLine
 10
799.9999980000001
 20
1088.999994
 30
0.0
 11
889.9999210000001
 21
1088.999994
 31
0.0
  0
LINE
  5
4A4
330
1F
100
AcDbEntity
  8
Ｓ_１_１
  6
CONTINUOUS
 62
     3
100
AcDbLine
 10
799.9999980000001
 20
951.000009
 30
0.0
 11
889.9999210000001
 21
951.000009
 31
0.0
  0
LINE
  5
4A5
330
1F
100
AcDbEntity
  8
Ｓ_１_１
  6
CONTINUOUS
 62
     3
100
AcDbLine
 10
899.9999200000002
 20
1098.999993
 30
0.0
 11
899.9999200000002
 21
1256.000014
 31
0.0
  0
LINE
  5
4A6
330
1F
100
AcDbEntity
  8
Ｓ_１_１
  6
CONTINUOUS
 62
     3
100
AcDbLine
 10
899.9999200000002
 20
784.9999599999999
 30
0.0
 11
899.9999200000002
 21
940.9999519999999
 31
0.0
  0
LINE
  5
4A7
330
1F
100
AcDbEntity
  8
Ｓ_１_１
  6
CONTINUOUS
 62
     3
100
AcDbLine
 10
420.0000800000001
 20
1108.999997
 30
0.0
 11
420.0000800000001
 21
1098.999993
 31
0.0
  0
LINE
  5
4A8
330
1F
100
AcDbEntity
  8
Ｓ_１_１
  6
CONTINUOUS
 62
     3
100
AcDbLine
 10
420.0000800000001
 20
940.9999429999999
 30
0.0
 11
420.0000800000001
 21
930.9999999999999
 31
0.0
  0
LINE
  5
4A9
330
1F
100
AcDbEntity
  8
Ｓ_１_１
  6
CONTINUOUS
 62
     3
100
AcDbLine
 10
430.0000800000001
 20
951.000009
 30
0.0
 11
520.0000020000002
 21
951.000009
 31
0.0
  0
LINE
  5
4AA
330
1F
100
AcDbEntity
  8
Ｓ_１_１
  6
CONTINUOUS
 62
     3
100
AcDbLine
 10
430.0000800000001
 20
1088.999994
 30
0.0
 11
520.0000020000002
 21
1088.999994
 31
0.0
  0
LINE
  5
4AB
330
1F
100
AcDbEntity
  8
Ｓ_１_１
  6
CONTINUOUS
 62
     3
100
AcDbLine
 10
799.9999980000001
 20
957.500005
 30
0.0
 11
799.9999980000001
 21
930.9999999999999
 31
0.0
  0
LINE
  5
4AC
330
1F
100
AcDbEntity
  8
Ｓ_１_１
  6
CONTINUOUS
 62
     3
100
AcDbLine
 10
724.9999990000001
 20
957.500005
 30
0.0
 11
724.9999990000001
 21
930.9999999999999
 31
0.0
  0
LINE
  5
4AD
330
1F
100
AcDbEntity
  8
Ｓ_１_１
  6
CONTINUOUS
 62
     3
100
AcDbLine
 10
685.0000000000002
 20
957.500005
 30
0.0
 11
685.0000000000002
 21
930.9999999999999
 31
0.0
  0
LINE
  5
4AE
330
1F
100
AcDbEntity
  8
Ｓ_１_１
  6
CONTINUOUS
 62
     3
100
AcDbLine
 10
635.0000010000001
 20
957.500005
 30
0.0
 11
635.0000010000001
 21
930.9999999999999
 31
0.0
  0
LINE
  5
4AF
330
1F
100
AcDbEntity
  8
Ｓ_１_１
  6
CONTINUOUS
 62
     3
100
AcDbLine
 10
595.0000010000001
 20
957.500005
 30
0.0
 11
595.0000010000001
 21
930.9999999999999
 31
0.0
  0
LINE
  5
4B0
330
1F
100
AcDbEntity
  8
Ｓ_１_１
  6
CONTINUOUS
 62
     3
100
AcDbLine
 10
520.0000020000002
 20
957.500005
 30
0.0
 11
520.0000020000002
 21
930.9999999999999
 31
0.0
  0
LINE
  5
4B1
330
1F
100
AcDbEntity
  8
Ｓ_１_１
  6
CONTINUOUS
 62
     3
100
AcDbLine
 10
520.0000020000002
 20
1108.999997
 30
0.0
 11
520.0000020000002
 21
1082.499993
 31
0.0
  0
LINE
  5
4B2
330
1F
100
AcDbEntity
  8
Ｓ_１_１
  6
CONTINUOUS
 62
     3
100
AcDbLine
 10
595.0000010000001
 20
1108.999997
 30
0.0
 11
595.0000010000001
 21
1082.499993
 31
0.0
  0
LINE
  5
4B3
330
1F
100
AcDbEntity
  8
Ｓ_１_１
  6
CONTINUOUS
 62
     3
100
AcDbLine
 10
799.9999980000001
 20
1108.999997
 30
0.0
 11
799.9999980000001
 21
1082.499993
 31
0.0
  0
LINE
  5
4B4
330
1F
100
AcDbEntity
  8
Ｓ_１_１
  6
CONTINUOUS
 62
     3
100
AcDbLine
 10
724.9999990000001
 20
1108.999997
 30
0.0
 11
724.9999990000001
 21
1082.499993
 31
0.0
  0
LINE
  5
4B5
330
1F
100
AcDbEntity
  8
Ｓ_１_１
  6
CONTINUOUS
 62
     3
100
AcDbLine
 10
685.0000000000002
 20
1108.999997
 30
0.0
 11
685.0000000000002
 21
1082.499993
 31
0.0
  0
LINE
  5
4B6
330
1F
100
AcDbEntity
  8
Ｓ_１_１
  6
CONTINUOUS
 62
     3
100
AcDbLine
 10
635.0000010000001
 20
1108.999997
 30
0.0
 11
635.0000010000001
 21
1082.499993
 31
0.0
  0
LINE
  5
4B7
330
1F
100
AcDbEntity
  8
Ｓ_１_１
  6
CONTINUOUS
 62
     3
100
AcDbLine
 10
814.9999220000001
 20
1019.999995
 30
0.0
 11
814.9999220000001
 21
980.999999
 31
0.0
  0
LINE
  5
4B8
330
1F
100
AcDbEntity
  8
Ｓ_１_１
  6
CONTINUOUS
 62
     3
100
AcDbLine
 10
814.9999220000001
 20
1019.999995
 30
0.0
 11
814.9999220000001
 21
1058.999995
 31
0.0
  0
LINE
  5
4B9
330
1F
100
AcDbEntity
  8
Ｓ_１_１
  6
CONTINUOUS
 62
     3
100
AcDbLine
 10
885.9949460000001
 20
1058.999995
 30
0.0
 11
885.9949460000001
 21
980.999999
 31
0.0
  0
LINE
  5
4BA
330
1F
100
AcDbEntity
  8
Ｓ_１_１
  6
CONTINUOUS
 62
     3
100
AcDbLine
 10
645.000001
 20
1109.999991
 30
0.0
 11
645.000001
 21
1070.999998
 31
0.0
  0
LINE
  5
4BB
330
1F
100
AcDbEntity
  8
Ｓ_１_１
  6
CONTINUOUS
 62
     3
100
AcDbLine
 10
675.0000000000002
 20
1109.999991
 30
0.0
 11
675.0000000000002
 21
1070.999998
 31
0.0
  0
LINE
  5
4BC
330
1F
100
AcDbEntity
  8
Ｓ_１_１
  6
CONTINUOUS
 62
     3
100
AcDbLine
 10
645.000001
 20
1131.499994
 30
0.0
 11
649.4999700000001
 21
1131.499994
 31
0.0
  0
LINE
  5
4BD
330
1F
100
AcDbEntity
  8
Ｓ_１_１
  6
CONTINUOUS
 62
     3
100
AcDbLine
 10
670.4999540000001
 20
1131.499994
 30
0.0
 11
675.0000000000002
 21
1131.499994
 31
0.0
  0
LINE
  5
4BE
330
1F
100
AcDbEntity
  8
Ｓ_１_１
  6
CONTINUOUS
 62
     3
100
AcDbLine
 10
670.4999540000001
 20
1138.499983
 30
0.0
 11
675.0000000000002
 21
1138.499983
 31
0.0
  0
LINE
  5
4BF
330
1F
100
AcDbEntity
  8
Ｓ_１_１
  6
CONTINUOUS
 62
     3
100
AcDbLine
 10
645.000001
 20
1138.499983
 30
0.0
 11
649.4999700000001
 21
1138.499983
 31
0.0
  0
LINE
  5
4C0
330
1F
100
AcDbEntity
  8
Ｓ_１_１
  6
CONTINUOUS
 62
     3
100
AcDbLine
 10
671.999893
 20
1109.999991
 30
0.0
 11
671.999893
 21
1121.999987
 31
0.0
  0
LINE
  5
4C1
330
1F
100
AcDbEntity
  8
Ｓ_１_１
  6
CONTINUOUS
 62
     3
100
AcDbLine
 10
647.9999550000002
 20
1121.999987
 30
0.0
 11
647.9999550000002
 21
1109.999991
 31
0.0
  0
LINE
  5
4C2
330
1F
100
AcDbEntity
  8
Ｓ_１_１
  6
CONTINUOUS
 62
     3
100
AcDbLine
 10
671.999893
 20
1110.000001
 30
0.0
 11
675.0000000000002
 21
1110.000001
 31
0.0
  0
LINE
  5
4C3
330
1F
100
AcDbEntity
  8
Ｓ_１_１
  6
CONTINUOUS
 62
     3
100
AcDbLine
 10
671.999893
 20
1121.999987
 30
0.0
 11
675.0000000000002
 21
1121.999987
 31
0.0
  0
LINE
  5
4C4
330
1F
100
AcDbEntity
  8
Ｓ_１_１
  6
CONTINUOUS
 62
     3
100
AcDbLine
 10
645.000001
 20
1110.000001
 30
0.0
 11
648.000031
 21
1110.000001
 31
0.0
  0
LINE
  5
4C5
330
1F
100
AcDbEntity
  8
Ｓ_１_１
  6
CONTINUOUS
 62
     3
100
AcDbLine
 10
645.000001
 20
1121.999987
 30
0.0
 11
648.000031
 21
1121.999987
 31
0.0
  0
LINE
  5
4C6
330
1F
100
AcDbEntity
  8
Ｓ_１_１
  6
CONTINUOUS
 62
     3
100
AcDbLine
 10
645.9999930000001
 20
970.0000009999999
 30
0.0
 11
645.000021
 21
970.9999879999999
 31
0.0
  0
LINE
  5
4C7
330
1F
100
AcDbEntity
  8
Ｓ_１_１
  6
CONTINUOUS
 62
     3
100
AcDbLine
 10
644.9998730000002
 20
969.00012
 30
0.0
 11
645.9997890000002
 21
970.000055
 31
0.0
  0
LINE
  5
4C8
330
1F
100
AcDbEntity
  8
Ｓ_１_１
  6
CONTINUOUS
 62
     3
100
AcDbLine
 10
673.9999700000001
 20
969.9999109999999
 30
0.0
 11
674.9999400000002
 21
968.999922
 31
0.0
  0
LINE
  5
4C9
330
1F
100
AcDbEntity
  8
Ｓ_１_１
  6
CONTINUOUS
 62
     3
100
AcDbLine
 10
675.0001040000002
 20
970.9999439999999
 30
0.0
 11
674.0001320000001
 21
969.999957
 31
0.0
  0
LINE
  5
4CA
330
1F
100
AcDbEntity
  8
Ｓ_１_１
  6
CONTINUOUS
 62
     3
100
AcDbLine
 10
675.0000000000002
 20
918.0000079999999
 30
0.0
 11
675.0000000000002
 21
907.9999889999999
 31
0.0
  0
LINE
  5
4CB
330
1F
100
AcDbEntity
  8
Ｓ_１_１
  6
CONTINUOUS
 62
     3
100
AcDbLine
 10
645.000001
 20
918.0000079999999
 30
0.0
 11
645.000001
 21
907.9999889999999
 31
0.0
  0
LINE
  5
4CC
330
1F
100
AcDbEntity
  8
Ｓ_１_１
  6
CONTINUOUS
 62
     3
100
AcDbLine
 10
670.4999540000001
 20
901.500012
 30
0.0
 11
675.0000000000002
 21
901.500012
 31
0.0
  0
LINE
  5
4CD
330
1F
100
AcDbEntity
  8
Ｓ_１_１
  6
CONTINUOUS
 62
     3
100
AcDbLine
 10
649.4999700000001
 20
901.500012
 30
0.0
 11
645.000001
 21
901.500012
 31
0.0
  0
LINE
  5
4CE
330
1F
100
AcDbEntity
  8
Ｓ_１_１
  6
CONTINUOUS
 62
     3
100
AcDbLine
 10
670.4999540000001
 20
908.4999999999999
 30
0.0
 11
675.0000000000002
 21
908.4999999999999
 31
0.0
  0
LINE
  5
4CF
330
1F
100
AcDbEntity
  8
Ｓ_１_１
  6
CONTINUOUS
 62
     3
100
AcDbLine
 10
645.000001
 20
908.4999999999999
 30
0.0
 11
649.4999700000001
 21
908.4999999999999
 31
0.0
  0
LINE
  5
4D0
330
1F
100
AcDbEntity
  8
Ｓ_１_１
  6
CONTINUOUS
 62
     3
100
AcDbLine
 10
671.999893
 20
930.0000059999999
 30
0.0
 11
671.999893
 21
918.0000079999999
 31
0.0
  0
LINE
  5
4D1
330
1F
100
AcDbEntity
  8
Ｓ_１_１
  6
CONTINUOUS
 62
     3
100
AcDbLine
 10
647.9999550000002
 20
930.0000059999999
 30
0.0
 11
647.9999550000002
 21
918.0000079999999
 31
0.0
  0
LINE
  5
4D2
330
1F
100
AcDbEntity
  8
Ｓ_１_１
  6
CONTINUOUS
 62
     3
100
AcDbLine
 10
671.999893
 20
930.0000059999999
 30
0.0
 11
675.0000000000002
 21
930.0000059999999
 31
0.0
  0
LINE
  5
4D3
330
1F
100
AcDbEntity
  8
Ｓ_１_１
  6
CONTINUOUS
 62
     3
100
AcDbLine
 10
671.999893
 20
918.0000079999999
 30
0.0
 11
675.0000000000002
 21
918.0000079999999
 31
0.0
  0
LINE
  5
4D4
330
1F
100
AcDbEntity
  8
Ｓ_１_１
  6
CONTINUOUS
 62
     3
100
AcDbLine
 10
645.000001
 20
918.0000079999999
 30
0.0
 11
648.000031
 21
918.0000079999999
 31
0.0
  0
LINE
  5
4D5
330
1F
100
AcDbEntity
  8
Ｓ_１_１
  6
CONTINUOUS
 62
     3
100
AcDbLine
 10
645.000001
 20
930.0000059999999
 30
0.0
 11
648.000031
 21
930.0000059999999
 31
0.0
  0
LINE
  5
4D6
330
1F
100
AcDbEntity
  8
Ｓ_１_１
  6
CONTINUOUS
 62
     3
100
AcDbLine
 10
675.0000000000002
 20
989.000001
 30
0.0
 11
675.0000000000002
 21
970.999999
 31
0.0
  0
LINE
  5
4D7
330
1F
100
AcDbEntity
  8
Ｓ_１_１
  6
CONTINUOUS
 62
     3
100
AcDbLine
 10
645.000001
 20
989.000001
 30
0.0
 11
645.000001
 21
970.999999
 31
0.0
  0
LINE
  5
4D8
330
1F
100
AcDbEntity
  8
Ｓ_１_１
  6
CONTINUOUS
 62
     3
100
AcDbLine
 10
645.000001
 20
1039.249997
 30
0.0
 11
645.000001
 21
1020.999999
 31
0.0
  0
LINE
  5
4D9
330
1F
100
AcDbEntity
  8
Ｓ_１_１
  6
CONTINUOUS
 62
     3
100
AcDbLine
 10
675.0000000000002
 20
1039.249997
 30
0.0
 11
675.0000000000002
 21
1020.999999
 31
0.0
  0
LINE
  5
4DA
330
1F
100
AcDbEntity
  8
Ｓ_１_１
  6
CONTINUOUS
 62
     3
100
AcDbLine
 10
671.999893
 20
1000.999999
 30
0.0
 11
675.0000000000002
 21
1000.999999
 31
0.0
  0
LINE
  5
4DB
330
1F
100
AcDbEntity
  8
Ｓ_１_１
  6
CONTINUOUS
 62
     3
100
AcDbLine
 10
671.999893
 20
989.000001
 30
0.0
 11
675.0000000000002
 21
989.000001
 31
0.0
  0
LINE
  5
4DC
330
1F
100
AcDbEntity
  8
Ｓ_１_１
  6
CONTINUOUS
 62
     3
100
AcDbLine
 10
647.9999550000002
 20
989.000001
 30
0.0
 11
645.000001
 21
989.000001
 31
0.0
  0
LINE
  5
4DD
330
1F
100
AcDbEntity
  8
Ｓ_１_１
  6
CONTINUOUS
 62
     3
100
AcDbLine
 10
647.9999550000002
 20
1000.999999
 30
0.0
 11
645.000001
 21
1000.999999
 31
0.0
  0
LINE
  5
4DE
330
1F
100
AcDbEntity
  8
Ｓ_１_１
  6
CONTINUOUS
 62
     3
100
AcDbLine
 10
647.749939
 20
1039.249997
 30
0.0
 11
645.000001
 21
1039.249997
 31
0.0
  0
LINE
  5
4DF
330
1F
100
AcDbEntity
  8
Ｓ_１_１
  6
CONTINUOUS
 62
     3
100
AcDbLine
 10
671.7499540000001
 20
1039.249997
 30
0.0
 11
675.0000000000002
 21
1039.249997
 31
0.0
  0
LINE
  5
4E0
330
1F
100
AcDbEntity
  8
Ｓ_１_１
  6
CONTINUOUS
 62
     3
100
AcDbLine
 10
671.7499540000001
 20
1051.249994
 30
0.0
 11
675.0000000000002
 21
1051.249994
 31
0.0
  0
LINE
  5
4E1
330
1F
100
AcDbEntity
  8
Ｓ_１_１
  6
CONTINUOUS
 62
     3
100
AcDbLine
 10
647.749939
 20
1051.249994
 30
0.0
 11
645.000001
 21
1051.249994
 31
0.0
  0
LINE
  5
4E2
330
1F
100
AcDbEntity
  8
Ｓ_１_１
  6
CONTINUOUS
 62
     3
100
AcDbLine
 10
671.999893
 20
994.999995
 30
0.0
 11
671.999893
 21
989.000001
 31
0.0
  0
LINE
  5
4E3
330
1F
100
AcDbEntity
  8
Ｓ_１_１
  6
CONTINUOUS
 62
     3
100
AcDbLine
 10
671.999893
 20
1000.999999
 30
0.0
 11
671.999893
 21
994.999995
 31
0.0
  0
LINE
  5
4E4
330
1F
100
AcDbEntity
  8
Ｓ_１_１
  6
CONTINUOUS
 62
     3
100
AcDbLine
 10
647.9999550000002
 20
994.999995
 30
0.0
 11
647.9999550000002
 21
989.000001
 31
0.0
  0
LINE
  5
4E5
330
1F
100
AcDbEntity
  8
Ｓ_１_１
  6
CONTINUOUS
 62
     3
100
AcDbLine
 10
647.9999550000002
 20
1000.999999
 30
0.0
 11
647.9999550000002
 21
994.999995
 31
0.0
  0
LINE
  5
4E6
330
1F
100
AcDbEntity
  8
Ｓ_１_１
  6
CONTINUOUS
 62
     3
100
AcDbLine
 10
647.749939
 20
1045.249995
 30
0.0
 11
647.749939
 21
1039.249997
 31
0.0
  0
LINE
  5
4E7
330
1F
100
AcDbEntity
  8
Ｓ_１_１
  6
CONTINUOUS
 62
     3
100
AcDbLine
 10
647.749939
 20
1051.249994
 30
0.0
 11
647.749939
 21
1045.249995
 31
0.0
  0
LINE
  5
4E8
330
1F
100
AcDbEntity
  8
Ｓ_１_１
  6
CONTINUOUS
 62
     3
100
AcDbLine
 10
671.7499540000001
 20
1045.249995
 30
0.0
 11
671.7499540000001
 21
1039.249997
 31
0.0
  0
LINE
  5
4E9
330
1F
100
AcDbEntity
  8
Ｓ_１_１
  6
CONTINUOUS
 62
     3
100
AcDbLine
 10
671.7499540000001
 20
1051.249994
 30
0.0
 11
671.7499540000001
 21
1045.249995
 31
0.0
  0
LINE
  5
4EA
330
1F
100
AcDbEntity
  8
Ｓ_１_１
  6
CONTINUOUS
 62
     3
100
AcDbLine
 10
673.9999690000002
 20
1020.000025
 30
0.0
 11
674.999941
 21
1021.000012
 31
0.0
  0
LINE
  5
4EB
330
1F
100
AcDbEntity
  8
Ｓ_１_１
  6
CONTINUOUS
 62
     3
100
AcDbLine
 10
674.999943
 20
1019.000008
 30
0.0
 11
673.9999710000002
 21
1019.999995
 31
0.0
  0
LINE
  5
4EC
330
1F
100
AcDbEntity
  8
Ｓ_１_１
  6
CONTINUOUS
 62
     3
100
AcDbLine
 10
645.9999500000001
 20
1019.999973
 30
0.0
 11
644.9999779999999
 21
1018.999986
 31
0.0
  0
LINE
  5
4ED
330
1F
100
AcDbEntity
  8
Ｓ_１_１
  6
CONTINUOUS
 62
     3
100
AcDbLine
 10
644.9999260000002
 20
1020.99998
 30
0.0
 11
645.9998970000001
 21
1019.999992
 31
0.0
  0
LINE
  5
4EE
330
1F
100
AcDbEntity
  8
Ｓ_１_１
  6
CONTINUOUS
 62
     3
100
AcDbLine
 10
674.000189
 20
1070.000067
 30
0.0
 11
675.0001610000002
 21
1069.00008
 31
0.0
  0
LINE
  5
4EF
330
1F
100
AcDbEntity
  8
Ｓ_１_１
  6
CONTINUOUS
 62
     3
100
AcDbLine
 10
645.99999
 20
1069.999969
 30
0.0
 11
645.0000180000002
 21
1068.999983
 31
0.0
  0
LINE
  5
4F0
330
1F
100
AcDbEntity
  8
Ｓ_１_１
  6
CONTINUOUS
 62
     3
100
AcDbLine
 10
644.9998580000001
 20
1070.9999
 30
0.0
 11
645.9998280000002
 21
1069.999911
 31
0.0
  0
LINE
  5
4F1
330
1F
100
AcDbEntity
  8
Ｓ_１_１
  6
CONTINUOUS
 62
     3
100
AcDbLine
 10
673.9999850000002
 20
1070.000216
 30
0.0
 11
674.9999550000002
 21
1071.000205
 31
0.0
  0
LINE
  5
4F2
330
1F
100
AcDbEntity
  8
Ｓ_１_１
  6
CONTINUOUS
 62
     3
100
AcDbLine
 10
660.0000000000002
 20
1071.000007
 30
0.0
 11
675.0000000000002
 21
1071.000007
 31
0.0
  0
LINE
  5
4F3
330
1F
100
AcDbEntity
  8
Ｓ_１_１
  6
CONTINUOUS
 62
     3
100
AcDbLine
 10
645.000001
 20
1131.999996
 30
0.0
 11
645.000001
 21
1121.999987
 31
0.0
  0
LINE
  5
4F4
330
1F
100
AcDbEntity
  8
Ｓ_１_１
  6
CONTINUOUS
 62
     3
100
AcDbLine
 10
645.000001
 20
1068.999994
 30
0.0
 11
645.000001
 21
1051.249994
 31
0.0
  0
LINE
  5
4F5
330
1F
100
AcDbEntity
  8
Ｓ_１_１
  6
CONTINUOUS
 62
     3
100
AcDbLine
 10
675.0000000000002
 20
1068.999994
 30
0.0
 11
675.0000000000002
 21
1051.249994
 31
0.0
  0
LINE
  5
4F6
330
1F
100
AcDbEntity
  8
Ｓ_１_１
  6
CONTINUOUS
 62
     3
100
AcDbLine
 10
660.0000000000002
 20
1068.999994
 30
0.0
 11
675.0000000000002
 21
1068.999994
 31
0.0
  0
LINE
  5
4F7
330
1F
100
AcDbEntity
  8
Ｓ_１_１
  6
CONTINUOUS
 62
     3
100
AcDbLine
 10
645.999985
 20
970.000005
 30
0.0
 11
660.0000000000002
 21
970.000005
 31
0.0
  0
LINE
  5
4F8
330
1F
100
AcDbEntity
  8
Ｓ_１_１
  6
CONTINUOUS
 62
     3
100
AcDbLine
 10
660.0000000000002
 20
970.000005
 30
0.0
 11
674.0000150000001
 21
970.000005
 31
0.0
  0
LINE
  5
4F9
330
1F
100
AcDbEntity
  8
Ｓ_１_１
  6
CONTINUOUS
 62
     3
100
AcDbLine
 10
645.999985
 20
1019.999995
 30
0.0
 11
660.0000000000002
 21
1019.999995
 31
0.0
  0
LINE
  5
4FA
330
1F
100
AcDbEntity
  8
Ｓ_１_１
  6
CONTINUOUS
 62
     3
100
AcDbLine
 10
660.0000000000002
 20
1019.999995
 30
0.0
 11
674.0000150000001
 21
1019.999995
 31
0.0
  0
LINE
  5
4FB
330
1F
100
AcDbEntity
  8
Ｓ_１_１
  6
CONTINUOUS
 62
     3
100
AcDbLine
 10
645.999985
 20
1069.999993
 30
0.0
 11
660.0000000000002
 21
1069.999993
 31
0.0
  0
LINE
  5
4FC
330
1F
100
AcDbEntity
  8
Ｓ_１_１
  6
CONTINUOUS
 62
     3
100
AcDbLine
 10
660.0000000000002
 20
1069.999993
 30
0.0
 11
674.0000150000001
 21
1069.999993
 31
0.0
  0
LINE
  5
4FD
330
1F
100
AcDbEntity
  8
Ｓ_１_１
  6
CONTINUOUS
 62
     3
100
AcDbLine
 10
645.000001
 20
968.9999919999999
 30
0.0
 11
645.000001
 21
930.0000059999999
 31
0.0
  0
LINE
  5
4FE
330
1F
100
AcDbEntity
  8
Ｓ_１_１
  6
CONTINUOUS
 62
     3
100
AcDbLine
 10
675.0000000000002
 20
968.9999919999999
 30
0.0
 11
675.0000000000002
 21
930.0000059999999
 31
0.0
  0
LINE
  5
4FF
330
1F
100
AcDbEntity
  8
Ｓ_１_１
  6
CONTINUOUS
 62
     3
100
AcDbLine
 10
645.000001
 20
970.999999
 30
0.0
 11
660.0000000000002
 21
970.999999
 31
0.0
  0
LINE
  5
500
330
1F
100
AcDbEntity
  8
Ｓ_１_１
  6
CONTINUOUS
 62
     3
100
AcDbLine
 10
645.000001
 20
968.9999919999999
 30
0.0
 11
660.0000000000002
 21
968.9999919999999
 31
0.0
  0
LINE
  5
501
330
1F
100
AcDbEntity
  8
Ｓ_１_１
  6
CONTINUOUS
 62
     3
100
AcDbLine
 10
660.0000000000002
 20
968.9999919999999
 30
0.0
 11
675.0000000000002
 21
968.9999919999999
 31
0.0
  0
LINE
  5
502
330
1F
100
AcDbEntity
  8
Ｓ_１_１
  6
CONTINUOUS
 62
     3
100
AcDbLine
 10
660.0000000000002
 20
970.999999
 30
0.0
 11
675.0000000000002
 21
970.999999
 31
0.0
  0
LINE
  5
503
330
1F
100
AcDbEntity
  8
Ｓ_１_１
  6
CONTINUOUS
 62
     3
100
AcDbLine
 10
645.000001
 20
1068.999994
 30
0.0
 11
660.0000000000002
 21
1068.999994
 31
0.0
  0
LINE
  5
504
330
1F
100
AcDbEntity
  8
Ｓ_１_１
  6
CONTINUOUS
 62
     3
100
AcDbLine
 10
645.000001
 20
1071.000007
 30
0.0
 11
660.0000000000002
 21
1071.000007
 31
0.0
  0
LINE
  5
505
330
1F
100
AcDbEntity
  8
Ｓ_１_１
  6
CONTINUOUS
 62
     3
100
AcDbLine
 10
645.000001
 20
1019.000001
 30
0.0
 11
645.000001
 21
1000.999999
 31
0.0
  0
LINE
  5
506
330
1F
100
AcDbEntity
  8
Ｓ_１_１
  6
CONTINUOUS
 62
     3
100
AcDbLine
 10
675.0000000000002
 20
1019.000001
 30
0.0
 11
675.0000000000002
 21
1000.999999
 31
0.0
  0
LINE
  5
507
330
1F
100
AcDbEntity
  8
Ｓ_１_１
  6
CONTINUOUS
 62
     3
100
AcDbLine
 10
660.0000000000002
 20
1020.999999
 30
0.0
 11
645.000001
 21
1020.999999
 31
0.0
  0
LINE
  5
508
330
1F
100
AcDbEntity
  8
Ｓ_１_１
  6
CONTINUOUS
 62
     3
100
AcDbLine
 10
660.0000000000002
 20
1019.000001
 30
0.0
 11
645.000001
 21
1019.000001
 31
0.0
  0
LINE
  5
509
330
1F
100
AcDbEntity
  8
Ｓ_１_１
  6
CONTINUOUS
 62
     3
100
AcDbLine
 10
660.0000000000002
 20
1019.000001
 30
0.0
 11
675.0000000000002
 21
1019.000001
 31
0.0
  0
LINE
  5
50A
330
1F
100
AcDbEntity
  8
Ｓ_１_１
  6
CONTINUOUS
 62
     3
100
AcDbLine
 10
660.0000000000002
 20
1020.999999
 30
0.0
 11
675.0000000000002
 21
1020.999999
 31
0.0
  0
LINE
  5
50B
330
1F
100
AcDbEntity
  8
Ｓ_１_１
  6
CONTINUOUS
 62
     3
100
AcDbLine
 10
799.9999980000001
 20
885.000016
 30
0.0
 11
714.9999230000001
 21
885.000016
 31
0.0
  0
LINE
  5
50C
330
1F
100
AcDbEntity
  8
Ｓ_１_１
  6
CONTINUOUS
 62
     3
100
AcDbLine
 10
520.0000020000002
 20
885.000016
 30
0.0
 11
635.0000010000001
 21
885.000016
 31
0.0
  0
LINE
  5
50D
330
1F
100
AcDbEntity
  8
Ｓ_１_１
  6
CONTINUOUS
 62
     3
100
AcDbLine
 10
799.9999980000001
 20
1154.999993
 30
0.0
 11
714.9999230000001
 21
1154.999993
 31
0.0
  0
LINE
  5
50E
330
1F
100
AcDbEntity
  8
Ｓ_１_１
  6
CONTINUOUS
 62
     3
100
AcDbLine
 10
520.0000020000002
 20
1154.999993
 30
0.0
 11
635.0000010000001
 21
1154.999993
 31
0.0
  0
LINE
  5
50F
330
1F
100
AcDbEntity
  8
Ｓ_１_１
  6
CONTINUOUS
 62
     3
100
AcDbLine
 10
714.9999230000001
 20
1149.999998
 30
0.0
 11
799.9999980000001
 21
1149.999998
 31
0.0
  0
LINE
  5
510
330
1F
100
AcDbEntity
  8
Ｓ_１_１
  6
CONTINUOUS
 62
     3
100
AcDbLine
 10
714.9999230000001
 20
889.9999969999999
 30
0.0
 11
799.9999980000001
 21
889.9999969999999
 31
0.0
  0
LINE
  5
511
330
1F
100
AcDbEntity
  8
Ｓ_１_１
  6
CONTINUOUS
 62
     3
100
AcDbLine
 10
714.9999230000001
 20
889.9999969999999
 30
0.0
 11
714.9999230000001
 21
876.9999859999999
 31
0.0
  0
LINE
  5
512
330
1F
100
AcDbEntity
  8
Ｓ_１_１
  6
CONTINUOUS
 62
     3
100
AcDbLine
 10
714.9999230000001
 20
1149.999988
 30
0.0
 11
714.9999230000001
 21
1162.999985
 31
0.0
  0
LINE
  5
513
330
1F
100
AcDbEntity
  8
Ｓ_１_１
  6
CONTINUOUS
 62
     3
100
AcDbLine
 10
799.9999980000001
 20
875.000016
 30
0.0
 11
799.9999980000001
 21
889.9999969999999
 31
0.0
  0
LINE
  5
514
330
1F
100
AcDbEntity
  8
Ｓ_１_１
  6
CONTINUOUS
 62
     3
100
AcDbLine
 10
520.0000020000002
 20
875.000016
 30
0.0
 11
520.0000020000002
 21
889.9999969999999
 31
0.0
  0
LINE
  5
515
330
1F
100
AcDbEntity
  8
Ｓ_１_１
  6
CONTINUOUS
 62
     3
100
AcDbLine
 10
520.0000020000002
 20
1164.999983
 30
0.0
 11
520.0000020000002
 21
1149.999988
 31
0.0
  0
LINE
  5
516
330
1F
100
AcDbEntity
  8
Ｓ_１_１
  6
CONTINUOUS
 62
     3
100
AcDbLine
 10
799.9999980000001
 20
1164.999983
 30
0.0
 11
799.9999980000001
 21
1149.999988
 31
0.0
  0
LINE
  5
517
330
1F
100
AcDbEntity
  8
Ｓ_１_１
  6
CONTINUOUS
 62
     3
100
AcDbLine
 10
520.0000020000002
 20
1149.999998
 30
0.0
 11
645.000001
 21
1149.999998
 31
0.0
  0
LINE
  5
518
330
1F
100
AcDbEntity
  8
Ｓ_１_１
  6
CONTINUOUS
 62
     3
100
AcDbLine
 10
520.0000020000002
 20
889.9999969999999
 30
0.0
 11
645.000001
 21
889.9999969999999
 31
0.0
  0
LINE
  5
519
330
1F
100
AcDbEntity
  8
Ｓ_１_１
  6
CONTINUOUS
 62
     3
100
AcDbLine
 10
800.0000790000001
 20
760.000055
 30
0.0
 11
801.3398770000001
 21
755.000053
 31
0.0
  0
LINE
  5
51A
330
1F
100
AcDbEntity
  8
Ｓ_１_１
  6
CONTINUOUS
 62
     3
100
AcDbLine
 10
520.0000590000002
 20
759.999926
 30
0.0
 11
518.6602620000001
 21
754.9999289999997
 31
0.0
  0
LINE
  5
51B
330
1F
100
AcDbEntity
  8
Ｓ_１_１
  6
CONTINUOUS
 62
     3
100
AcDbLine
 10
799.9999980000001
 20
786.200026
 30
0.0
 11
685.0000000000002
 21
786.200026
 31
0.0
  0
LINE
  5
51C
330
1F
100
AcDbEntity
  8
Ｓ_１_１
  6
CONTINUOUS
 62
     3
100
AcDbLine
 10
520.0000020000002
 20
786.200026
 30
0.0
 11
635.0000010000001
 21
786.200026
 31
0.0
  0
LINE
  5
51D
330
1F
100
AcDbEntity
  8
Ｓ_１_１
  6
CONTINUOUS
 62
     3
100
AcDbLine
 10
799.9999980000001
 20
866.9999859999999
 30
0.0
 11
685.0000000000002
 21
866.9999859999999
 31
0.0
  0
LINE
  5
51E
330
1F
100
AcDbEntity
  8
Ｓ_１_１
  6
CONTINUOUS
 62
     3
100
AcDbLine
 10
520.0000020000002
 20
866.9999859999999
 30
0.0
 11
635.0000010000001
 21
866.9999859999999
 31
0.0
  0
LINE
  5
51F
330
1F
100
AcDbEntity
  8
Ｓ_１_１
  6
CONTINUOUS
 62
     3
100
AcDbLine
 10
799.9999980000001
 20
781.200026
 30
0.0
 11
685.0000000000002
 21
781.200026
 31
0.0
  0
LINE
  5
520
330
1F
100
AcDbEntity
  8
Ｓ_１_１
  6
CONTINUOUS
 62
     3
100
AcDbLine
 10
520.0000020000002
 20
781.200026
 30
0.0
 11
635.0000010000001
 21
781.200026
 31
0.0
  0
LINE
  5
521
330
1F
100
AcDbEntity
  8
Ｓ_１_１
  6
CONTINUOUS
 62
     3
100
AcDbLine
 10
799.9999980000001
 20
779.2000179999999
 30
0.0
 11
799.9999980000001
 21
760.0000179999998
 31
0.0
  0
LINE
  5
522
330
1F
100
AcDbEntity
  8
Ｓ_１_１
  6
CONTINUOUS
 62
     3
100
AcDbLine
 10
799.9999980000001
 20
875.000016
 30
0.0
 11
799.9999980000001
 21
779.2000179999999
 31
0.0
  0
LINE
  5
523
330
1F
100
AcDbEntity
  8
Ｓ_１_１
  6
CONTINUOUS
 62
     3
100
AcDbLine
 10
520.0000020000002
 20
779.2000179999999
 30
0.0
 11
520.0000020000002
 21
760.0000179999998
 31
0.0
  0
LINE
  5
524
330
1F
100
AcDbEntity
  8
Ｓ_１_１
  6
CONTINUOUS
 62
     3
100
AcDbLine
 10
520.0000020000002
 20
875.000016
 30
0.0
 11
520.0000020000002
 21
779.2000179999999
 31
0.0
  0
LINE
  5
525
330
1F
100
AcDbEntity
  8
Ｓ_１_１
  6
CONTINUOUS
 62
     3
100
AcDbLine
 10
799.9999980000001
 20
876.9999859999999
 30
0.0
 11
685.0000000000002
 21
876.9999859999999
 31
0.0
  0
LINE
  5
526
330
1F
100
AcDbEntity
  8
Ｓ_１_１
  6
CONTINUOUS
 62
     3
100
AcDbLine
 10
520.0000020000002
 20
876.9999859999999
 30
0.0
 11
635.0000010000001
 21
876.9999859999999
 31
0.0
  0
LINE
  5
527
330
1F
100
AcDbEntity
  8
Ｓ_１_１
  6
CONTINUOUS
 62
     3
100
AcDbLine
 10
799.9999980000001
 20
1254.999991
 30
0.0
 11
685.0000000000002
 21
1254.999991
 31
0.0
  0
LINE
  5
528
330
1F
100
AcDbEntity
  8
Ｓ_１_１
  6
CONTINUOUS
 62
     3
100
AcDbLine
 10
799.9999980000001
 20
1173.000014
 30
0.0
 11
685.0000000000002
 21
1173.000014
 31
0.0
  0
LINE
  5
529
330
1F
100
AcDbEntity
  8
Ｓ_１_１
  6
CONTINUOUS
 62
     3
100
AcDbLine
 10
520.0000020000002
 20
1173.000014
 30
0.0
 11
635.0000010000001
 21
1173.000014
 31
0.0
  0
LINE
  5
52A
330
1F
100
AcDbEntity
  8
Ｓ_１_１
  6
CONTINUOUS
 62
     3
100
AcDbLine
 10
520.0000020000002
 20
1254.999991
 30
0.0
 11
635.0000010000001
 21
1254.999991
 31
0.0
  0
LINE
  5
52B
330
1F
100
AcDbEntity
  8
Ｓ_１_１
  6
CONTINUOUS
 62
     3
100
AcDbLine
 10
800.0001310000001
 20
1280.99999
 30
0.0
 11
801.3398520000001
 21
1285.999988
 31
0.0
  0
LINE
  5
52C
330
1F
100
AcDbEntity
  8
Ｓ_１_１
  6
CONTINUOUS
 62
     3
100
AcDbLine
 10
520.0001370000002
 20
1280.000046
 30
0.0
 11
518.6603400000001
 21
1285.000043
 31
0.0
  0
LINE
  5
52D
330
1F
100
AcDbEntity
  8
Ｓ_１_１
  6
CONTINUOUS
 62
     3
100
AcDbLine
 10
801.3397200000003
 20
1285.999995
 30
0.0
 11
869.9999970000001
 21
1285.999995
 31
0.0
  0
LINE
  5
52E
330
1F
100
AcDbEntity
  8
Ｓ_１_１
  6
CONTINUOUS
 62
     3
100
AcDbLine
 10
799.9999980000001
 20
1162.999985
 30
0.0
 11
685.0000000000002
 21
1162.999985
 31
0.0
  0
LINE
  5
52F
330
1F
100
AcDbEntity
  8
Ｓ_１_１
  6
CONTINUOUS
 62
     3
100
AcDbLine
 10
520.0000020000002
 20
1162.999985
 30
0.0
 11
635.0000010000001
 21
1162.999985
 31
0.0
  0
LINE
  5
530
330
1F
100
AcDbEntity
  8
Ｓ_１_１
  6
CONTINUOUS
 62
     3
100
AcDbLine
 10
799.9999980000001
 20
1259.999972
 30
0.0
 11
685.0000000000002
 21
1259.999972
 31
0.0
  0
LINE
  5
531
330
1F
100
AcDbEntity
  8
Ｓ_１_１
  6
CONTINUOUS
 62
     3
100
AcDbLine
 10
520.0000020000002
 20
1259.999972
 30
0.0
 11
635.0000010000001
 21
1259.999972
 31
0.0
  0
LINE
  5
532
330
1F
100
AcDbEntity
  8
Ｓ_１_１
  6
CONTINUOUS
 62
     3
100
AcDbLine
 10
799.9999980000001
 20
1164.999983
 30
0.0
 11
799.9999980000001
 21
1261.999999
 31
0.0
  0
LINE
  5
533
330
1F
100
AcDbEntity
  8
Ｓ_１_１
  6
CONTINUOUS
 62
     3
100
AcDbLine
 10
799.9999980000001
 20
1261.999999
 30
0.0
 11
799.9999980000001
 21
1280.999976
 31
0.0
  0
LINE
  5
534
330
1F
100
AcDbEntity
  8
Ｓ_１_１
  6
CONTINUOUS
 62
     3
100
AcDbLine
 10
520.0000020000002
 20
1261.999999
 30
0.0
 11
520.0000020000002
 21
1279.999991
 31
0.0
  0
LINE
  5
535
330
1F
100
AcDbEntity
  8
Ｓ_１_１
  6
CONTINUOUS
 62
     3
100
AcDbLine
 10
520.0000020000002
 20
1164.999983
 30
0.0
 11
520.0000020000002
 21
1261.999999
 31
0.0
  0
LINE
  5
536
330
1F
100
AcDbEntity
  8
Ｓ_１_１
  6
CONTINUOUS
 62
     3
100
AcDbLine
 10
869.9999310000002
 20
754.9999679999999
 30
0.0
 11
899.9999730000002
 21
784.9999919999999
 31
0.0
  0
LINE
  5
537
330
1F
100
AcDbEntity
  8
Ｓ_１_１
  6
CONTINUOUS
 62
     3
100
AcDbLine
 10
419.9998650000002
 20
785.0000089999999
 30
0.0
 11
449.9998970000001
 21
754.9999779999998
 31
0.0
  0
LINE
  5
538
330
1F
100
AcDbEntity
  8
Ｓ_１_１
  6
CONTINUOUS
 62
     3
100
AcDbLine
 10
869.9999670000001
 20
1285.999976
 30
0.0
 11
899.9999540000001
 21
1256.000006
 31
0.0
  0
LINE
  5
539
330
1F
100
AcDbEntity
  8
Ｓ_１_１
  6
CONTINUOUS
 62
     3
100
AcDbLine
 10
449.9999540000002
 20
1284.999914
 30
0.0
 11
420.0000210000001
 21
1254.999998
 31
0.0
  0
LINE
  5
53A
330
1F
100
AcDbEntity
  8
Ｓ_１_１
  6
CONTINUOUS
 62
     3
100
AcDbLine
 10
420.0000800000001
 20
1254.999991
 30
0.0
 11
420.0000800000001
 21
1131.999996
 31
0.0
  0
LINE
  5
53B
330
1F
100
AcDbEntity
  8
Ｓ_１_１
  6
CONTINUOUS
 62
     3
100
AcDbLine
 10
449.9999270000001
 20
1284.999972
 30
0.0
 11
518.660204
 21
1284.999972
 31
0.0
  0
LINE
  5
53C
330
1F
100
AcDbEntity
  8
Ｓ_１_１
  6
CONTINUOUS
 62
     3
100
AcDbLine
 10
420.0000800000001
 20
785.0000169999998
 30
0.0
 11
420.0000800000001
 21
907.9999889999999
 31
0.0
  0
LINE
  5
53D
330
1F
100
AcDbEntity
  8
Ｓ_１_１
  6
CONTINUOUS
 62
     3
100
AcDbLine
 10
449.9999270000001
 20
754.9999989999999
 30
0.0
 11
518.660204
 21
754.9999989999999
 31
0.0
  0
LINE
  5
53E
330
1F
100
AcDbEntity
  8
Ｓ_１_１
  6
CONTINUOUS
 62
     3
100
AcDbLine
 10
869.9999970000001
 20
754.9999989999999
 30
0.0
 11
801.3397960000001
 21
754.9999989999999
 31
0.0
  0
LINE
  5
53F
330
1F
100
AcDbEntity
  8
Ｓ_１_１
  6
CONTINUOUS
 62
     3
100
AcDbLine
 10
572.5000020000002
 20
1048.999995
 30
0.0
 11
535.0000020000002
 21
1048.999995
 31
0.0
  0
LINE
  5
540
330
1F
100
AcDbEntity
  8
Ｓ_１_１
  6
CONTINUOUS
 62
     3
100
AcDbLine
 10
597.5000510000002
 20
1048.999929
 30
0.0
 11
607.500115
 21
1058.999994
 31
0.0
  0
LINE
  5
541
330
1F
100
AcDbEntity
  8
Ｓ_１_１
  6
CONTINUOUS
 62
     3
100
AcDbLine
 10
747.5000460000001
 20
1048.999983
 30
0.0
 11
757.5000030000001
 21
1058.99994
 31
0.0
  0
LINE
  5
542
330
1F
100
AcDbEntity
  8
Ｓ_１_１
  6
CONTINUOUS
 62
     3
100
AcDbLine
 10
784.9999780000002
 20
1049.000037
 30
0.0
 11
794.9999880000001
 21
1059.000048
 31
0.0
  0
LINE
  5
543
330
1F
100
AcDbEntity
  8
Ｓ_１_１
  6
CONTINUOUS
 62
     3
100
AcDbLine
 10
722.4999570000002
 20
991.000016
 30
0.0
 11
712.4998540000001
 21
980.999989
 31
0.0
  0
LINE
  5
544
330
1F
100
AcDbEntity
  8
Ｓ_１_１
  6
CONTINUOUS
 62
     3
100
AcDbLine
 10
572.4999710000002
 20
990.9999869999999
 30
0.0
 11
562.5000140000002
 21
981.0000309999999
 31
0.0
  0
LINE
  5
545
330
1F
100
AcDbEntity
  8
Ｓ_１_１
  6
CONTINUOUS
 62
     3
100
AcDbLine
 10
535.0000930000001
 20
990.9999869999999
 30
0.0
 11
525.0000830000001
 21
980.999977
 31
0.0
  0
LINE
  5
546
330
1F
100
AcDbEntity
  8
Ｓ_１_１
  6
CONTINUOUS
 62
     3
100
AcDbLine
 10
597.5001590000002
 20
991.0000409999999
 30
0.0
 11
607.5001690000001
 21
981.0000309999999
 31
0.0
  0
LINE
  5
547
330
1F
100
AcDbEntity
  8
Ｓ_１_１
  6
CONTINUOUS
 62
     3
100
AcDbLine
 10
747.499992
 20
991.0000409999999
 30
0.0
 11
757.5000030000001
 21
981.0000309999999
 31
0.0
  0
LINE
  5
548
330
1F
100
AcDbEntity
  8
Ｓ_１_１
  6
CONTINUOUS
 62
     3
100
AcDbLine
 10
784.9999240000001
 20
990.9999869999999
 30
0.0
 11
794.9999340000002
 21
980.999977
 31
0.0
  0
LINE
  5
549
330
1F
100
AcDbEntity
  8
Ｓ_１_１
  6
CONTINUOUS
 62
     3
100
AcDbLine
 10
722.4999320000002
 20
1049.000003
 30
0.0
 11
712.499882
 21
1058.999976
 31
0.0
  0
LINE
  5
54A
330
1F
100
AcDbEntity
  8
Ｓ_１_１
  6
CONTINUOUS
 62
     3
100
AcDbLine
 10
572.5000790000001
 20
1048.999983
 30
0.0
 11
562.5000140000002
 21
1059.000048
 31
0.0
  0
LINE
  5
54B
330
1F
100
AcDbEntity
  8
Ｓ_１_１
  6
CONTINUOUS
 62
     3
100
AcDbLine
 10
535.0001470000002
 20
1049.000037
 30
0.0
 11
525.0000830000001
 21
1059.000101
 31
0.0
  0
LINE
  5
54C
330
1F
100
AcDbEntity
  8
Ｓ_１_１
  6
CONTINUOUS
 62
     3
100
AcDbLine
 10
747.4999990000001
 20
990.999999
 30
0.0
 11
784.9999980000001
 21
990.999999
 31
0.0
  0
LINE
  5
54D
330
1F
100
AcDbEntity
  8
Ｓ_１_１
  6
CONTINUOUS
 62
     3
100
AcDbLine
 10
722.4999990000001
 20
990.999999
 30
0.0
 11
747.4999990000001
 21
990.999999
 31
0.0
  0
LINE
  5
54E
330
1F
100
AcDbEntity
  8
Ｓ_１_１
  6
CONTINUOUS
 62
     3
100
AcDbLine
 10
675.0000000000002
 20
990.999999
 30
0.0
 11
722.4999990000001
 21
990.999999
 31
0.0
  0
LINE
  5
54F
330
1F
100
AcDbEntity
  8
Ｓ_１_１
  6
CONTINUOUS
 62
     3
100
AcDbLine
 10
597.5000010000001
 20
990.999999
 30
0.0
 11
645.000001
 21
990.999999
 31
0.0
  0
LINE
  5
550
330
1F
100
AcDbEntity
  8
Ｓ_１_１
  6
CONTINUOUS
 62
     3
100
AcDbLine
 10
572.5000020000002
 20
990.999999
 30
0.0
 11
597.5000010000001
 21
990.999999
 31
0.0
  0
LINE
  5
551
330
1F
100
AcDbEntity
  8
Ｓ_１_１
  6
CONTINUOUS
 62
     3
100
AcDbLine
 10
535.0000020000002
 20
990.999999
 30
0.0
 11
572.5000020000002
 21
990.999999
 31
0.0
  0
LINE
  5
552
330
1F
100
AcDbEntity
  8
Ｓ_１_１
  6
CONTINUOUS
 62
     3
100
AcDbLine
 10
747.4999990000001
 20
1048.999995
 30
0.0
 11
784.9999980000001
 21
1048.999995
 31
0.0
  0
LINE
  5
553
330
1F
100
AcDbEntity
  8
Ｓ_１_１
  6
CONTINUOUS
 62
     3
100
AcDbLine
 10
722.4999990000001
 20
1048.999995
 30
0.0
 11
747.4999990000001
 21
1048.999995
 31
0.0
  0
LINE
  5
554
330
1F
100
AcDbEntity
  8
Ｓ_１_１
  6
CONTINUOUS
 62
     3
100
AcDbLine
 10
675.0000000000002
 20
1048.999995
 30
0.0
 11
722.4999990000001
 21
1048.999995
 31
0.0
  0
LINE
  5
555
330
1F
100
AcDbEntity
  8
Ｓ_１_１
  6
CONTINUOUS
 62
     3
100
AcDbLine
 10
597.5000010000001
 20
1048.999995
 30
0.0
 11
645.000001
 21
1048.999995
 31
0.0
  0
LINE
  5
556
330
1F
100
AcDbEntity
  8
Ｓ_１_１
  6
CONTINUOUS
 62
     3
100
AcDbLine
 10
572.5000020000002
 20
1048.999995
 30
0.0
 11
597.5000010000001
 21
1048.999995
 31
0.0
  0
LINE
  5
557
330
1F
100
AcDbEntity
  8
Ｓ_１_１
  6
CONTINUOUS
 62
     3
100
AcDbLine
 10
722.4999990000001
 20
1019.999995
 30
0.0
 11
722.4999990000001
 21
990.999999
 31
0.0
  0
LINE
  5
558
330
1F
100
AcDbEntity
  8
Ｓ_１_１
  6
CONTINUOUS
 62
     3
100
AcDbLine
 10
722.4999990000001
 20
1019.999995
 30
0.0
 11
722.4999990000001
 21
1048.999995
 31
0.0
  0
LINE
  5
559
330
1F
100
AcDbEntity
  8
Ｓ_１_１
  6
CONTINUOUS
 62
     3
100
AcDbLine
 10
747.4999990000001
 20
1019.999995
 30
0.0
 11
747.4999990000001
 21
990.999999
 31
0.0
  0
LINE
  5
55A
330
1F
100
AcDbEntity
  8
Ｓ_１_１
  6
CONTINUOUS
 62
     3
100
AcDbLine
 10
747.4999990000001
 20
1019.999995
 30
0.0
 11
747.4999990000001
 21
1048.999995
 31
0.0
  0
LINE
  5
55B
330
1F
100
AcDbEntity
  8
Ｓ_１_１
  6
CONTINUOUS
 62
     3
100
AcDbLine
 10
572.5000020000002
 20
1019.999995
 30
0.0
 11
572.5000020000002
 21
990.999999
 31
0.0
  0
LINE
  5
55C
330
1F
100
AcDbEntity
  8
Ｓ_１_１
  6
CONTINUOUS
 62
     3
100
AcDbLine
 10
572.5000020000002
 20
1019.999995
 30
0.0
 11
572.5000020000002
 21
1048.999995
 31
0.0
  0
LINE
  5
55D
330
1F
100
AcDbEntity
  8
Ｓ_１_１
  6
CONTINUOUS
 62
     3
100
AcDbLine
 10
597.5000010000001
 20
1019.999995
 30
0.0
 11
597.5000010000001
 21
990.999999
 31
0.0
  0
LINE
  5
55E
330
1F
100
AcDbEntity
  8
Ｓ_１_１
  6
CONTINUOUS
 62
     3
100
AcDbLine
 10
597.5000010000001
 20
1019.999995
 30
0.0
 11
597.5000010000001
 21
1048.999995
 31
0.0
  0
LINE
  5
55F
330
1F
100
AcDbEntity
  8
Ｓ_１_１
  6
CONTINUOUS
 62
     3
100
AcDbLine
 10
535.0000020000002
 20
1019.999995
 30
0.0
 11
535.0000020000002
 21
990.999999
 31
0.0
  0
LINE
  5
560
330
1F
100
AcDbEntity
  8
Ｓ_１_１
  6
CONTINUOUS
 62
     3
100
AcDbLine
 10
535.0000020000002
 20
1019.999995
 30
0.0
 11
535.0000020000002
 21
1048.999995
 31
0.0
  0
LINE
  5
561
330
1F
100
AcDbEntity
  8
Ｓ_１_１
  6
CONTINUOUS
 62
     3
100
AcDbLine
 10
784.9999980000001
 20
1019.999995
 30
0.0
 11
784.9999980000001
 21
990.999999
 31
0.0
  0
LINE
  5
562
330
1F
100
AcDbEntity
  8
Ｓ_１_１
  6
CONTINUOUS
 62
     3
100
AcDbLine
 10
784.9999980000001
 20
1019.999995
 30
0.0
 11
784.9999980000001
 21
1048.999995
 31
0.0
  0
LINE
  5
563
330
1F
100
AcDbEntity
  8
Ｓ_１_１
  6
CONTINUOUS
 62
     3
100
AcDbLine
 10
685.0000000000002
 20
957.500005
 30
0.0
 11
939.9999200000002
 21
957.500005
 31
0.0
  0
LINE
  5
564
330
1F
100
AcDbEntity
  8
Ｓ_１_１
  6
CONTINUOUS
 62
     3
100
AcDbLine
 10
685.0000000000002
 20
930.9999999999999
 30
0.0
 11
799.9999980000001
 21
930.9999999999999
 31
0.0
  0
LINE
  5
565
330
1F
100
AcDbEntity
  8
Ｓ_１_１
  6
CONTINUOUS
 62
     3
100
AcDbLine
 10
675.0000000000002
 20
926.0000099999999
 30
0.0
 11
685.0000000000002
 21
926.0000099999999
 31
0.0
  0
LINE
  5
566
330
1F
100
AcDbEntity
  8
Ｓ_１_１
  6
CONTINUOUS
 62
     3
100
AcDbLine
 10
635.0000010000001
 20
926.0000099999999
 30
0.0
 11
645.000001
 21
926.0000099999999
 31
0.0
  0
LINE
  5
567
330
1F
100
AcDbEntity
  8
Ｓ_１_１
  6
CONTINUOUS
 62
     3
100
AcDbLine
 10
675.0000000000002
 20
962.500005
 30
0.0
 11
685.0000000000002
 21
962.500005
 31
0.0
  0
LINE
  5
568
330
1F
100
AcDbEntity
  8
Ｓ_１_１
  6
CONTINUOUS
 62
     3
100
AcDbLine
 10
635.0000010000001
 20
962.500005
 30
0.0
 11
645.000001
 21
962.500005
 31
0.0
  0
LINE
  5
569
330
1F
100
AcDbEntity
  8
Ｓ_１_１
  6
CONTINUOUS
 62
     3
100
AcDbLine
 10
685.0000000000002
 20
930.9999999999999
 30
0.0
 11
685.0000000000002
 21
926.0000099999999
 31
0.0
  0
LINE
  5
56A
330
1F
100
AcDbEntity
  8
Ｓ_１_１
  6
CONTINUOUS
 62
     3
100
AcDbLine
 10
685.0000000000002
 20
962.500005
 30
0.0
 11
685.0000000000002
 21
957.500005
 31
0.0
  0
LINE
  5
56B
330
1F
100
AcDbEntity
  8
Ｓ_１_１
  6
CONTINUOUS
 62
     3
100
AcDbLine
 10
635.0000010000001
 20
930.9999999999999
 30
0.0
 11
635.0000010000001
 21
926.0000099999999
 31
0.0
  0
LINE
  5
56C
330
1F
100
AcDbEntity
  8
Ｓ_１_１
  6
CONTINUOUS
 62
     3
100
AcDbLine
 10
635.0000010000001
 20
962.500005
 30
0.0
 11
635.0000010000001
 21
957.500005
 31
0.0
  0
LINE
  5
56D
330
1F
100
AcDbEntity
  8
Ｓ_１_１
  6
CONTINUOUS
 62
     3
100
AcDbLine
 10
685.0000000000002
 20
1082.499993
 30
0.0
 11
939.9999200000002
 21
1082.499993
 31
0.0
  0
LINE
  5
56E
330
1F
100
AcDbEntity
  8
Ｓ_１_１
  6
CONTINUOUS
 62
     3
100
AcDbLine
 10
685.0000000000002
 20
1108.999997
 30
0.0
 11
799.9999980000001
 21
1108.999997
 31
0.0
  0
LINE
  5
56F
330
1F
100
AcDbEntity
  8
Ｓ_１_１
  6
CONTINUOUS
 62
     3
100
AcDbLine
 10
675.0000000000002
 20
1077.499993
 30
0.0
 11
685.0000000000002
 21
1077.499993
 31
0.0
  0
LINE
  5
570
330
1F
100
AcDbEntity
  8
Ｓ_１_１
  6
CONTINUOUS
 62
     3
100
AcDbLine
 10
635.0000010000001
 20
1077.499993
 30
0.0
 11
645.000001
 21
1077.499993
 31
0.0
  0
LINE
  5
571
330
1F
100
AcDbEntity
  8
Ｓ_１_１
  6
CONTINUOUS
 62
     3
100
AcDbLine
 10
675.0000000000002
 20
1113.999997
 30
0.0
 11
685.0000000000002
 21
1113.999997
 31
0.0
  0
LINE
  5
572
330
1F
100
AcDbEntity
  8
Ｓ_１_１
  6
CONTINUOUS
 62
     3
100
AcDbLine
 10
635.0000010000001
 20
1113.999997
 30
0.0
 11
645.000001
 21
1113.999997
 31
0.0
  0
LINE
  5
573
330
1F
100
AcDbEntity
  8
Ｓ_１_１
  6
CONTINUOUS
 62
     3
100
AcDbLine
 10
685.0000000000002
 20
1082.499993
 30
0.0
 11
685.0000000000002
 21
1077.499993
 31
0.0
  0
LINE
  5
574
330
1F
100
AcDbEntity
  8
Ｓ_１_１
  6
CONTINUOUS
 62
     3
100
AcDbLine
 10
685.0000000000002
 20
1113.999987
 30
0.0
 11
685.0000000000002
 21
1108.999985
 31
0.0
  0
LINE
  5
575
330
1F
100
AcDbEntity
  8
Ｓ_１_１
  6
CONTINUOUS
 62
     3
100
AcDbLine
 10
635.0000010000001
 20
1082.499993
 30
0.0
 11
635.0000010000001
 21
1077.499993
 31
0.0
  0
LINE
  5
576
330
1F
100
AcDbEntity
  8
Ｓ_１_１
  6
CONTINUOUS
 62
     3
100
AcDbLine
 10
635.0000010000001
 20
1113.999987
 30
0.0
 11
635.0000010000001
 21
1108.999985
 31
0.0
  0
LINE
  5
577
330
1F
100
AcDbEntity
  8
Ｓ_１_１
  6
CONTINUOUS
 62
     3
100
AcDbLine
 10
675.0000000000002
 20
980.999999
 30
0.0
 11
939.9999200000002
 21
980.999999
 31
0.0
  0
LINE
  5
578
330
1F
100
AcDbEntity
  8
Ｓ_１_１
  6
CONTINUOUS
 62
     3
100
AcDbLine
 10
675.0000000000002
 20
1058.999995
 30
0.0
 11
939.9999200000002
 21
1058.999995
 31
0.0
  0
LINE
  5
579
330
1F
100
AcDbEntity
  8
Ｓ_１_１
  6
CONTINUOUS
 62
     3
100
AcDbLine
 10
645.000001
 20
901.500012
 30
0.0
 11
645.000001
 21
889.1999979999999
 31
0.0
  0
LINE
  5
57A
330
1F
100
AcDbEntity
  8
Ｓ_１_１
  6
CONTINUOUS
 62
     3
100
AcDbLine
 10
645.000001
 20
1150.999992
 30
0.0
 11
645.000001
 21
1138.499973
 31
0.0
  0
LINE
  5
57B
330
1F
100
AcDbEntity
  8
Ｓ_１_１
  6
CONTINUOUS
 62
     3
100
AcDbLine
 10
675.0000000000002
 20
901.500012
 30
0.0
 11
675.0000000000002
 21
889.1999979999999
 31
0.0
  0
LINE
  5
57C
330
1F
100
AcDbEntity
  8
Ｓ_１_１
  6
CONTINUOUS
 62
     3
100
AcDbLine
 10
675.0000000000002
 20
1131.999996
 30
0.0
 11
675.0000000000002
 21
1121.999987
 31
0.0
  0
LINE
  5
57D
330
1F
100
AcDbEntity
  8
Ｓ_１_１
  6
CONTINUOUS
 62
     3
100
AcDbLine
 10
675.0000000000002
 20
1150.999992
 30
0.0
 11
675.0000000000002
 21
1138.499973
 31
0.0
  0
LINE
  5
57E
330
1F
100
AcDbEntity
  8
Ｓ_１_１
  6
CONTINUOUS
 62
     3
100
AcDbLine
 10
685.0000000000002
 20
1162.999985
 30
0.0
 11
685.0000000000002
 21
1150.999992
 31
0.0
  0
LINE
  5
57F
330
1F
100
AcDbEntity
  8
Ｓ_１_１
  6
CONTINUOUS
 62
     3
100
AcDbLine
 10
635.0000010000001
 20
1162.999985
 30
0.0
 11
635.0000010000001
 21
1150.999992
 31
0.0
  0
LINE
  5
580
330
1F
100
AcDbEntity
  8
Ｓ_１_１
  6
CONTINUOUS
 62
     3
100
AcDbLine
 10
685.0000000000002
 20
889.1999979999999
 30
0.0
 11
685.0000000000002
 21
877.199971
 31
0.0
  0
LINE
  5
581
330
1F
100
AcDbEntity
  8
Ｓ_１_１
  6
CONTINUOUS
 62
     3
100
AcDbLine
 10
635.0000010000001
 20
889.1999979999999
 30
0.0
 11
635.0000010000001
 21
877.199971
 31
0.0
  0
LINE
  5
582
330
1F
100
AcDbEntity
  8
Ｓ_１_１
  6
CONTINUOUS
 62
     3
100
AcDbLine
 10
635.0000010000001
 20
889.1999979999999
 30
0.0
 11
660.0000000000002
 21
889.1999979999999
 31
0.0
  0
LINE
  5
583
330
1F
100
AcDbEntity
  8
Ｓ_１_１
  6
CONTINUOUS
 62
     3
100
AcDbLine
 10
660.0000000000002
 20
889.1999979999999
 30
0.0
 11
685.0000000000002
 21
889.1999979999999
 31
0.0
  0
LINE
  5
584
330
1F
100
AcDbEntity
  8
Ｓ_１_１
  6
CONTINUOUS
 62
     3
100
AcDbLine
 10
635.0000010000001
 20
1151.000002
 30
0.0
 11
660.0000000000002
 21
1151.000002
 31
0.0
  0
LINE
  5
585
330
1F
100
AcDbEntity
  8
Ｓ_１_１
  6
CONTINUOUS
 62
     3
100
AcDbLine
 10
660.0000000000002
 20
1151.000002
 30
0.0
 11
685.0000000000002
 21
1151.000002
 31
0.0
  0
LINE
  5
586
330
1F
100
AcDbEntity
  8
Ｓ_１_１
  6
CONTINUOUS
 62
     3
100
AcDbLine
 10
645.000001
 20
877.199971
 30
0.0
 11
645.000001
 21
756.200026
 31
0.0
  0
LINE
  5
587
330
1F
100
AcDbEntity
  8
Ｓ_１_１
  6
CONTINUOUS
 62
     3
100
AcDbLine
 10
675.0000000000002
 20
877.199971
 30
0.0
 11
675.0000000000002
 21
756.200026
 31
0.0
  0
LINE
  5
588
330
1F
100
AcDbEntity
  8
Ｓ_１_１
  6
CONTINUOUS
 62
     3
100
AcDbLine
 10
645.000001
 20
1283.999968
 30
0.0
 11
645.000001
 21
1162.999985
 31
0.0
  0
LINE
  5
589
330
1F
100
AcDbEntity
  8
Ｓ_１_１
  6
CONTINUOUS
 62
     3
100
AcDbLine
 10
675.0000000000002
 20
1283.999968
 30
0.0
 11
675.0000000000002
 21
1162.999985
 31
0.0
  0
LINE
  5
58A
330
1F
100
AcDbEntity
  8
Ｓ_１_１
  6
CONTINUOUS
 62
     3
100
AcDbLine
 10
635.0000010000001
 20
877.199971
 30
0.0
 11
635.0000010000001
 21
756.200026
 31
0.0
  0
LINE
  5
58B
330
1F
100
AcDbEntity
  8
Ｓ_１_１
  6
CONTINUOUS
 62
     3
100
AcDbLine
 10
685.0000000000002
 20
877.199971
 30
0.0
 11
685.0000000000002
 21
756.200026
 31
0.0
  0
LINE
  5
58C
330
1F
100
AcDbEntity
  8
Ｓ_１_１
  6
CONTINUOUS
 62
     3
100
AcDbLine
 10
635.0000010000001
 20
1283.999968
 30
0.0
 11
635.0000010000001
 21
1162.999985
 31
0.0
  0
LINE
  5
58D
330
1F
100
AcDbEntity
  8
Ｓ_１_１
  6
CONTINUOUS
 62
     3
100
AcDbLine
 10
685.0000000000002
 20
1283.999968
 30
0.0
 11
685.0000000000002
 21
1162.999985
 31
0.0
  0
LINE
  5
58E
330
1F
100
AcDbEntity
  8
Ｓ_１_１
  6
CONTINUOUS
 62
     3
100
AcDbLine
 10
635.0000010000001
 20
756.200026
 30
0.0
 11
685.0000000000002
 21
756.200026
 31
0.0
  0
LINE
  5
58F
330
1F
100
AcDbEntity
  8
Ｓ_１_１
  6
CONTINUOUS
 62
     3
100
AcDbLine
 10
635.0000010000001
 20
1283.999987
 30
0.0
 11
685.0000000000002
 21
1283.999987
 31
0.0
  0
LINE
  5
590
330
1F
100
AcDbEntity
  8
Ｓ_１_１
  6
CONTINUOUS
 62
     3
100
AcDbLine
 10
635.0000010000001
 20
1162.999985
 30
0.0
 11
685.0000000000002
 21
1162.999985
 31
0.0
  0
LINE
  5
591
330
1F
100
AcDbEntity
  8
Ｓ_１_１
  6
CONTINUOUS
 62
     3
100
AcDbLine
 10
635.0000010000001
 20
877.199971
 30
0.0
 11
685.0000000000002
 21
877.199971
 31
0.0
  0
LINE
  5
592
330
1F
100
AcDbEntity
  8
Ｓ_１_１
  6
CONTINUOUS
 62
     3
100
AcDbLine
 10
695.0000000000002
 20
902.0000229999999
 30
0.0
 11
695.0000000000002
 21
907.9999889999999
 31
0.0
  0
LINE
  5
593
330
1F
100
AcDbEntity
  8
Ｓ_１_１
  6
CONTINUOUS
 62
     3
100
AcDbLine
 10
625.0000010000001
 20
902.0000229999999
 30
0.0
 11
625.0000010000001
 21
907.9999889999999
 31
0.0
  0
LINE
  5
594
330
1F
100
AcDbEntity
  8
Ｓ_１_１
  6
CONTINUOUS
 62
     3
100
AcDbLine
 10
695.0000000000002
 20
1137.999986
 30
0.0
 11
695.0000000000002
 21
1131.999996
 31
0.0
  0
LINE
  5
595
330
1F
100
AcDbEntity
  8
Ｓ_１_１
  6
CONTINUOUS
 62
     3
100
AcDbLine
 10
625.0000010000001
 20
1137.999986
 30
0.0
 11
625.0000010000001
 21
1131.999996
 31
0.0
  0
LINE
  5
596
330
1F
100
AcDbEntity
  8
Ｓ_１_１
  6
CONTINUOUS
 62
     3
100
AcDbLine
 10
625.0000010000001
 20
902.0000229999999
 30
0.0
 11
660.0000000000002
 21
902.0000229999999
 31
0.0
  0
LINE
  5
597
330
1F
100
AcDbEntity
  8
Ｓ_１_１
  6
CONTINUOUS
 62
     3
100
AcDbLine
 10
660.0000000000002
 20
902.0000229999999
 30
0.0
 11
695.0000000000002
 21
902.0000229999999
 31
0.0
  0
LINE
  5
598
330
1F
100
AcDbEntity
  8
Ｓ_１_１
  6
CONTINUOUS
 62
     3
100
AcDbLine
 10
625.0000010000001
 20
1137.99999
 30
0.0
 11
660.0000000000002
 21
1137.99999
 31
0.0
  0
LINE
  5
599
330
1F
100
AcDbEntity
  8
Ｓ_１_１
  6
CONTINUOUS
 62
     3
100
AcDbLine
 10
660.0000000000002
 20
1137.99999
 30
0.0
 11
695.0000000000002
 21
1137.99999
 31
0.0
  0
LINE
  5
59A
330
1F
100
AcDbEntity
  8
Ｓ_１_１
  6
CONTINUOUS
 62
     3
100
AcDbLine
 10
380.0000810000001
 20
930.9999999999999
 30
0.0
 11
380.0000810000001
 21
907.9999889999999
 31
0.0
  0
LINE
  5
59B
330
1F
100
AcDbEntity
  8
Ｓ_１_１
  6
CONTINUOUS
 62
     3
100
AcDbLine
 10
380.0000810000001
 20
1131.999996
 30
0.0
 11
380.0000810000001
 21
1108.999985
 31
0.0
  0
LINE
  5
59C
330
1F
100
AcDbEntity
  8
Ｓ_１_１
  6
CONTINUOUS
 62
     3
100
AcDbLine
 10
520.0000020000002
 20
980.999999
 30
0.0
 11
520.0000020000002
 21
957.500005
 31
0.0
  0
LINE
  5
59D
330
1F
100
AcDbEntity
  8
Ｓ_１_１
  6
CONTINUOUS
 62
     3
100
AcDbLine
 10
520.0000020000002
 20
1082.499993
 30
0.0
 11
520.0000020000002
 21
1058.999995
 31
0.0
  0
LINE
  5
59E
330
1F
100
AcDbEntity
  8
Ｓ_１_１
  6
CONTINUOUS
 62
     3
100
AcDbLine
 10
799.9999980000001
 20
930.9999999999999
 30
0.0
 11
799.9999980000001
 21
907.9999889999999
 31
0.0
  0
LINE
  5
59F
330
1F
100
AcDbEntity
  8
Ｓ_１_１
  6
CONTINUOUS
 62
     3
100
AcDbLine
 10
799.9999980000001
 20
1131.999996
 30
0.0
 11
799.9999980000001
 21
1108.999985
 31
0.0
  0
LINE
  5
5A0
330
1F
100
AcDbEntity
  8
Ｓ_１_１
  6
CONTINUOUS
 62
     3
100
AcDbLine
 10
939.9999200000002
 20
980.999999
 30
0.0
 11
939.9999200000002
 21
957.500005
 31
0.0
  0
LINE
  5
5A1
330
1F
100
AcDbEntity
  8
Ｓ_１_１
  6
CONTINUOUS
 62
     3
100
AcDbLine
 10
939.9999200000002
 20
1082.499993
 30
0.0
 11
939.9999200000002
 21
1058.999995
 31
0.0
  0
LINE
  5
5A2
330
1F
100
AcDbEntity
  8
Ｓ_１_１
  6
CONTINUOUS
 62
     3
100
AcDbLine
 10
380.0000810000001
 20
908.0000079999999
 30
0.0
 11
799.9999980000001
 21
908.0000079999999
 31
0.0
  0
LINE
  5
5A3
330
1F
100
AcDbEntity
  8
Ｓ_１_１
  6
CONTINUOUS
 62
     3
100
AcDbLine
 10
380.0000810000001
 20
930.9999999999999
 30
0.0
 11
635.0000010000001
 21
930.9999999999999
 31
0.0
  0
LINE
  5
5A4
330
1F
100
AcDbEntity
  8
Ｓ_１_１
  6
CONTINUOUS
 62
     3
100
AcDbLine
 10
520.0000020000002
 20
957.500005
 30
0.0
 11
635.0000010000001
 21
957.500005
 31
0.0
  0
LINE
  5
5A5
330
1F
100
AcDbEntity
  8
Ｓ_１_１
  6
CONTINUOUS
 62
     3
100
AcDbLine
 10
520.0000020000002
 20
980.999999
 30
0.0
 11
645.000001
 21
980.999999
 31
0.0
  0
LINE
  5
5A6
330
1F
100
AcDbEntity
  8
Ｓ_１_１
  6
CONTINUOUS
 62
     3
100
AcDbLine
 10
520.0000020000002
 20
1058.999995
 30
0.0
 11
645.000001
 21
1058.999995
 31
0.0
  0
LINE
  5
5A7
330
1F
100
AcDbEntity
  8
Ｓ_１_１
  6
CONTINUOUS
 62
     3
100
AcDbLine
 10
520.0000020000002
 20
1082.499993
 30
0.0
 11
635.0000010000001
 21
1082.499993
 31
0.0
  0
LINE
  5
5A8
330
1F
100
AcDbEntity
  8
Ｓ_１_１
  6
CONTINUOUS
 62
     3
100
AcDbLine
 10
380.0000810000001
 20
1108.999997
 30
0.0
 11
635.0000010000001
 21
1108.999997
 31
0.0
  0
LINE
  5
5A9
330
1F
100
AcDbEntity
  8
Ｓ_１_１
  6
CONTINUOUS
 62
     3
100
AcDbLine
 10
380.0000810000001
 20
1132.000006
 30
0.0
 11
799.9999980000001
 21
1132.000006
 31
0.0
  0
LINE
  5
5AA
330
1F
100
AcDbEntity
  8
Ｓ_１_１
  6
EXLTYPE2
 62
     1
100
AcDbLine
 10
294.9902405063381
 20
807.9444885529758
 30
0.0
 11
370.0521010321394
 21
1233.641329452893
 31
0.0
  0
LINE
  5
5AB
330
1F
100
AcDbEntity
  8
Ｓ_１_１
  6
EXLTYPE2
 62
     1
100
AcDbLine
 10
955.4572335989646
 20
809.9201071123146
 30
0.0
 11
1030.424093100219
 21
1235.078177627918
 31
0.0
  0
LINE
  5
5AC
330
1F
100
AcDbEntity
  8
Ｓ_１_１
  6
CONTINUOUS
 62
     3
100
AcDbLine
 10
367.6467627220679
 20
1219.999982
 30
0.0
 11
420.0000800000001
 21
1219.999982
 31
0.0
  0
LINE
  5
5AD
330
1F
100
AcDbEntity
  8
Ｓ_１_１
  6
CONTINUOUS
 62
     3
100
AcDbLine
 10
297.1159560576734
 20
820.0000169999998
 30
0.0
 11
420.0000800000001
 21
820.0000169999998
 31
0.0
  0
LINE
  5
5AE
330
1F
100
AcDbEntity
  8
Ｓ_１_１
  6
CONTINUOUS
 62
     3
100
AcDbLine
 10
899.9999200000002
 20
820.0000169999998
 30
0.0
 11
957.2345941637517
 21
820.0000169999998
 31
0.0
  0
LINE
  5
5AF
330
1F
100
AcDbEntity
  8
Ｓ_１_１
  6
CONTINUOUS
 62
     3
100
AcDbLine
 10
899.9999200000002
 20
1219.999982
 30
0.0
 11
1027.765399659919
 21
1219.999982
 31
0.0
  0
TEXT
  5
5B0
330
1F
100
AcDbEntity
  8
Ｓ_１_１
  6
CONTINUOUS
 62
     4
100
AcDbText
 10
1066.0
 20
270.4140265
 30
0.0
 40
17.3145207852194
  1
ガイドブロック
 41
0.9992307692307693
  7
EXCADTTF1
 72
     5
 11
1223.5
 21
270.4140265
 31
0.0
100
AcDbText
  0
LEADER
  5
5B1
330
1F
100
AcDbEntity
  8
Ｓ_１_１
  6
CONTINUOUS
 62
     2
100
AcDbLeader
  3
ISO-25
 76
     3
 10
1303.000034
 20
339.999962
 30
0.0
 10
1227.750036
 20
264.749964
 30
0.0
 10
1066.0
 20
264.749964
 30
0.0
1001
ACAD
1000
DSTYLE
1002
{
1070
     5
1000
EX_NORM
1070
    41
1040
15.0
1070
   341
1005
78
1002
}
  0
TEXT
  5
5B2
330
1F
100
AcDbEntity
  8
Ｓ_１_１
  6
CONTINUOUS
 62
     4
100
AcDbText
 10
1026.865875009
 20
694.0140534999998
 30
0.0
 40
17.3145207852194
  1
クランプ開閉ジャッキ
 41
0.9992307692307693
  7
EXCADTTF1
 72
     5
 11
1251.865875009
 21
694.0140534999998
 31
0.0
100
AcDbText
  0
LEADER
  5
5B3
330
1F
100
AcDbEntity
  8
Ｓ_１_１
  6
CONTINUOUS
 62
     2
100
AcDbLeader
  3
ISO-25
 76
     3
 10
1326.699994
 20
567.999951
 30
0.0
 10
1257.215866009
 20
688.3499909999998
 30
0.0
 10
1026.865875009
 20
688.3499909999998
 30
0.0
1001
ACAD
1000
DSTYLE
1002
{
1070
     5
1000
EX_NORM
1070
    41
1040
15.0
1070
   341
1005
78
1002
}
  0
DIMENSION
  5
5B4
330
1F
100
AcDbEntity
  8
Ｓ_１_１
  6
CONTINUOUS
 62
     2
100
AcDbDimension
  2
*D45
 10
1200.0
 20
360.0
 30
0.0
 11
1186.25
 21
386.2499999999997
 31
0.0
 70
   160
  3
ISO-25
100
AcDbAlignedDimension
 13
1330.000041
 23
339.000015
 33
0.0
 14
1265.000004
 24
360.0
 34
0.0
 50
90.0
100
AcDbRotatedDimension
1001
ACAD
1000
DSTYLE
1002
{
1070
   270
1070
     2
1070
     6
1000
EX_NORM
1070
     7
1000
EX_NORM
1070
    41
1040
15.0
1070
    42
1040
7.5
1070
    44
1040
5.0
1070
    73
1070
     0
1070
    74
1070
     0
1070
    75
1070
     0
1070
    76
1070
     0
1070
    77
1070
     1
1070
    78
1070
     8
1070
   140
1040
17.3145207852194
1070
   147
1040
0.0
1070
   173
1070
     1
1070
   176
1070
     2
1070
   177
1070
     2
1070
   178
1070
     2
1070
   271
1070
     2
1070
   277
1070
     2
1070
   279
1070
     2
1070
   280
1070
     2
1070
   287
1070
     5
1070
   340
1005
10E
1002
}
  0
LINE
  5
5C3
330
1F
100
AcDbEntity
  8
Ｓ_１_１
  6
EXLTYPE0
 62
     2
100
AcDbLine
 10
799.9999980000001
 20
326.9999699999998
 30
0.0
 11
774.9999990000001
 21
326.9999699999998
 31
0.0
  0
DIMENSION
  5
5C4
330
1F
100
AcDbEntity
  8
Ｓ_１_１
  6
CONTINUOUS
 62
     2
100
AcDbDimension
  2
*D46
 10
428.7867235644036
 20
453.7867185644035
 30
0.0
 11
526.1407999652602
 21
551.14079496526
 31
0.0
 70
   163
  3
ISO-25
100
AcDbDiametricDimension
 15
471.2131304355965
 25
496.2131254355964
 35
0.0
 40
0.0
1001
ACAD
1000
DSTYLE
1002
{
1070
   270
1070
     2
1070
     6
1000
EX_NORM
1070
     7
1000
EX_NORM
1070
    41
1040
15.0
1070
    73
1070
     0
1070
    74
1070
     0
1070
    77
1070
     1
1070
    78
1070
     8
1070
   140
1040
17.3145207852194
1070
   147
1040
2.5
1070
   173
1070
     1
1070
   176
1070
     2
1070
   177
1070
     2
1070
   178
1070
     2
1070
   271
1070
     2
1070
   277
1070
     2
1070
   279
1070
     0
1070
   280
1070
     0
1070
   287
1070
     3
1070
   340
1005
10E
1002
}
  0
LINE
  5
5D0
330
1F
100
AcDbEntity
  8
Ｓ_１_１
  6
EXLTYPE3
 62
     2
100
AcDbLine
 10
1221.200031
 20
567.9999509999998
 30
0.0
 11
1221.200031
 21
497.9999139999998
 31
0.0
  0
LINE
  5
5D1
330
1F
100
AcDbEntity
  8
Ｓ_１_１
  6
EXLTYPE3
 62
     2
100
AcDbLine
 10
1838.999992
 20
567.9999509999998
 30
0.0
 11
1838.999992
 21
497.9999139999998
 31
0.0
  0
LINE
  5
5D2
330
1F
100
AcDbEntity
  8
Ｓ_１_１
  6
EXLTYPE3
 62
     2
100
AcDbLine
 10
1221.200031
 20
497.999914
 30
0.0
 11
1246.200031
 21
497.999914
 31
0.0
  0
LINE
  5
5D3
330
1F
100
AcDbEntity
  8
Ｓ_１_１
  6
EXLTYPE3
 62
     2
100
AcDbLine
 10
1221.200031
 20
567.999951
 30
0.0
 11
1246.200031
 21
567.999951
 31
0.0
  0
LINE
  5
5D4
330
1F
100
AcDbEntity
  8
Ｓ_１_１
  6
EXLTYPE3
 62
     2
100
AcDbLine
 10
1838.799969
 20
497.9999139999999
 30
0.0
 11
1813.799969
 21
497.9999139999999
 31
0.0
  0
DIMENSION
  5
5D5
330
1F
100
AcDbEntity
  8
Ｓ_１_１
  6
CONTINUOUS
 62
     2
100
AcDbDimension
  2
*D47
 10
1266.200031
 20
630.0
 30
0.0
 11
1243.700031
 21
643.75
 31
0.0
 70
   160
  3
ISO-25
100
AcDbAlignedDimension
 13
1221.200031
 23
567.999951
 33
0.0
 14
1266.200031
 24
635.0
 34
0.0
100
AcDbRotatedDimension
1001
ACAD
1000
DSTYLE
1002
{
1070
   270
1070
     2
1070
     6
1000
EX_NORM
1070
     7
1000
EX_NORM
1070
    41
1040
15.0
1070
    42
1040
7.5
1070
    44
1040
5.0
1070
    73
1070
     0
1070
    74
1070
     0
1070
    75
1070
     0
1070
    76
1070
     0
1070
    77
1070
     1
1070
    78
1070
     8
1070
   140
1040
17.3145207852194
1070
   147
1040
0.0
1070
   173
1070
     1
1070
   176
1070
     2
1070
   177
1070
     2
1070
   178
1070
     2
1070
   271
1070
     2
1070
   277
1070
     2
1070
   279
1070
     2
1070
   280
1070
     0
1070
   287
1070
     5
1070
   340
1005
10E
1002
}
  0
DIMENSION
  5
5E2
330
1F
100
AcDbEntity
  8
Ｓ_１_１
  6
CONTINUOUS
 62
     2
100
AcDbDimension
  2
*D48
 10
1838.999992
 20
630.0
 30
0.0
 11
1816.499992
 21
643.75
 31
0.0
 70
   160
  3
ISO-25
100
AcDbAlignedDimension
 13
1793.999992
 23
567.999913
 33
0.0
 14
1838.999992
 24
567.999951
 34
0.0
100
AcDbRotatedDimension
1001
ACAD
1000
DSTYLE
1002
{
1070
   270
1070
     2
1070
     6
1000
EX_NORM
1070
     7
1000
EX_NORM
1070
    41
1040
15.0
1070
    42
1040
7.5
1070
    44
1040
5.0
1070
    73
1070
     0
1070
    74
1070
     0
1070
    75
1070
     0
1070
    76
1070
     0
1070
    77
1070
     1
1070
    78
1070
     8
1070
   140
1040
17.3145207852194
1070
   147
1040
0.0
1070
   173
1070
     1
1070
   176
1070
     2
1070
   177
1070
     2
1070
   178
1070
     2
1070
   271
1070
     2
1070
   277
1070
     2
1070
   279
1070
     2
1070
   280
1070
     0
1070
   287
1070
     5
1070
   340
1005
10E
1002
}
  0
DIMENSION
  5
5EF
330
1F
100
AcDbEntity
  8
Ｓ_１_１
  6
CONTINUOUS
 62
     2
100
AcDbDimension
  2
*D49
 10
1221.200031
 20
660.0
 30
0.0
 11
1530.1000115
 21
673.75
 31
0.0
 70
   160
  1
開閉用油圧ジャッキ開放時
  3
ISO-25
100
AcDbAlignedDimension
 13
1838.999992
 23
567.999951
 33
0.0
 14
1221.200031
 24
567.999951
 34
0.0
100
AcDbRotatedDimension
1001
ACAD
1000
DSTYLE
1002
{
1070
   270
1070
     2
1070
     6
1000
EX_NORM
1070
     7
1000
EX_NORM
1070
    41
1040
15.0
1070
    42
1040
7.5
1070
    44
1040
5.0
1070
    73
1070
     0
1070
    74
1070
     0
1070
    75
1070
     0
1070
    76
1070
     0
1070
    77
1070
     1
1070
    78
1070
     8
1070
   140
1040
17.3145207852194
1070
   147
1040
0.0
1070
   173
1070
     1
1070
   176
1070
     2
1070
   177
1070
     2
1070
   178
1070
     2
1070
   271
1070
     2
1070
   277
1070
     2
1070
   279
1070
     2
1070
   280
1070
     0
1070
   287
1070
     5
1070
   340
1005
10E
1002
}
  0
TEXT
  5
5FC
330
1F
100
AcDbEntity
  8
Ｓ_１_１
  6
CONTINUOUS
 62
     2
100
AcDbText
 10
1501.9750115
 20
688.1640625
 30
0.0
 40
17.3145207852194
  1
617.8
 41
0.9992307692307691
  7
EXCADTTF1
 72
     5
 11
1558.2250115
 21
688.1640625
 31
0.0
100
AcDbText
  0
LINE
  5
5FD
330
1F
100
AcDbEntity
  8
Ｓ_１_１
  6
EXLTYPE3
 62
     2
100
AcDbLine
 10
1320.000003
 20
272.6300149999999
 30
0.0
 11
1249.999965
 21
272.6300149999999
 31
0.0
  0
LINE
  5
5FE
330
1F
100
AcDbEntity
  8
Ｓ_１_１
  6
EXLTYPE3
 62
     2
100
AcDbLine
 10
1245.000078
 20
277.630075
 30
0.0
 11
1250.000076
 21
272.630077
 31
0.0
  0
LINE
  5
5FF
330
1F
100
AcDbEntity
  8
Ｓ_１_１
  6
EXLTYPE3
 62
     2
100
AcDbLine
 10
1325.000054
 20
277.629967
 30
0.0
 11
1320.000049
 21
272.6299619999999
 31
0.0
  0
LINE
  5
600
330
1F
100
AcDbEntity
  8
Ｓ_１_１
  6
EXLTYPE3
 62
     2
100
AcDbLine
 10
1739.999997
 20
272.6300149999998
 30
0.0
 11
1810.000035
 21
272.6300149999998
 31
0.0
  0
LINE
  5
601
330
1F
100
AcDbEntity
  8
Ｓ_１_１
  6
EXLTYPE3
 62
     2
100
AcDbLine
 10
1814.999922
 20
277.6300749999999
 30
0.0
 11
1809.999924
 21
272.6300769999999
 31
0.0
  0
LINE
  5
602
330
1F
100
AcDbEntity
  8
Ｓ_１_１
  6
EXLTYPE3
 62
     2
100
AcDbLine
 10
1734.999946
 20
277.629967
 30
0.0
 11
1739.999951
 21
272.6299619999999
 31
0.0
  0
DIMENSION
  5
603
330
1F
100
AcDbEntity
  8
Ｓ_１_１
  6
CONTINUOUS
 62
     2
100
AcDbDimension
  2
*D50
 10
1890.0
 20
272.630015
 30
0.0
 11
1876.25
 21
305.815015
 31
0.0
 70
   160
  1
(66.4)
  3
ISO-25
100
AcDbAlignedDimension
 13
1729.999995
 23
339.000015
 33
0.0
 14
1809.999862
 24
272.630015
 34
0.0
 50
90.0
100
AcDbRotatedDimension
1001
ACAD
1000
DSTYLE
1002
{
1070
   270
1070
     2
1070
     6
1000
EX_NORM
1070
     7
1000
EX_NORM
1070
    41
1040
15.0
1070
    42
1040
7.5
1070
    44
1040
5.0
1070
    73
1070
     0
1070
    74
1070
     0
1070
    75
1070
     0
1070
    76
1070
     0
1070
    77
1070
     1
1070
    78
1070
     8
1070
   140
1040
17.3145207852194
1070
   147
1040
0.0
1070
   173
1070
     1
1070
   176
1070
     2
1070
   177
1070
     2
1070
   178
1070
     2
1070
   271
1070
     2
1070
   277
1070
     2
1070
   279
1070
     2
1070
   280
1070
     0
1070
   287
1070
     5
1070
   340
1005
10E
1002
}
  0
TEXT
  5
610
330
1F
100
AcDbEntity
  8
Ｓ_１_１
  6
CONTINUOUS
 62
     2
100
AcDbText
 10
1832.0
 20
397.6640625000001
 30
0.0
 40
17.3145207852194
  1
締付用油圧ジャッキ
 41
0.9992307692307693
  7
EXCADTTF1
 72
     5
 11
2034.5
 21
397.6640625000001
 31
0.0
100
AcDbText
  0
TEXT
  5
611
330
1F
100
AcDbEntity
  8
Ｓ_１_１
  6
CONTINUOUS
 62
     2
100
AcDbText
 10
1832.0
 20
375.1640625000001
 30
0.0
 40
17.3145207852194
  1
開放時
 41
0.9992307692307689
  7
EXCADTTF1
 72
     5
 11
1899.5
 21
375.1640625000001
 31
0.0
100
AcDbText
  0
LINE
  5
612
330
1F
100
AcDbEntity
  8
Ｓ_１_１
  6
EXLTYPE3
 62
     2
100
AcDbLine
 10
1245.000078
 20
277.630075
 30
0.0
 11
1245.000078
 21
420.0
 31
0.0
  0
LINE
  5
613
330
1F
100
AcDbEntity
  8
Ｓ_１_１
  6
EXLTYPE3
 62
     2
100
AcDbLine
 10
1814.999922
 20
277.6300749999999
 30
0.0
 11
1814.999922
 21
420.0
 31
0.0
  0
LINE
  5
614
330
1F
100
AcDbEntity
  8
Ｓ_１_１
  6
EXLTYPE3
 62
     2
100
AcDbLine
 10
1313.13398
 20
260.629982
 30
0.0
 11
1304.999978
 21
260.629982
 31
0.0
  0
LINE
  5
615
330
1F
100
AcDbEntity
  8
Ｓ_１_１
  6
EXLTYPE3
 62
     2
100
AcDbLine
 10
1304.999978
 20
260.629982
 30
0.0
 11
1296.866013
 21
260.629982
 31
0.0
  0
LINE
  5
616
330
1F
100
AcDbEntity
  8
Ｓ_１_１
  6
EXLTYPE3
 62
     2
100
AcDbLine
 10
1314.000031
 20
262.1300359999999
 30
0.0
 11
1314.000031
 21
272.6300279999999
 31
0.0
  0
LINE
  5
617
330
1F
100
AcDbEntity
  8
Ｓ_１_１
  6
EXLTYPE3
 62
     2
100
AcDbLine
 10
1296.000039
 20
262.1300359999999
 30
0.0
 11
1296.000039
 21
272.6300279999999
 31
0.0
  0
LINE
  5
618
330
1F
100
AcDbEntity
  8
Ｓ_１_１
  6
EXLTYPE3
 62
     2
100
AcDbLine
 10
1314.000019
 20
262.130002
 30
0.0
 11
1313.134001
 21
260.6300279999999
 31
0.0
  0
LINE
  5
619
330
1F
100
AcDbEntity
  8
Ｓ_１_１
  6
EXLTYPE3
 62
     2
100
AcDbLine
 10
1295.999948
 20
262.1300259999999
 30
0.0
 11
1296.865991
 21
260.6299779999998
 31
0.0
  0
LINE
  5
61A
330
1F
100
AcDbEntity
  8
Ｓ_１_１
  6
EXLTYPE3
 62
     2
100
AcDbLine
 10
1313.999993
 20
262.1300359999999
 30
0.0
 11
1295.999962
 21
262.1300359999999
 31
0.0
  0
LINE
  5
61B
330
1F
100
AcDbEntity
  8
Ｓ_１_１
  6
EXLTYPE3
 62
     2
100
AcDbLine
 10
1763.133895
 20
260.629969
 30
0.0
 11
1754.999931
 21
260.629969
 31
0.0
  0
LINE
  5
61C
330
1F
100
AcDbEntity
  8
Ｓ_１_１
  6
EXLTYPE3
 62
     2
100
AcDbLine
 10
1754.999931
 20
260.629969
 30
0.0
 11
1746.865948
 21
260.629969
 31
0.0
  0
LINE
  5
61D
330
1F
100
AcDbEntity
  8
Ｓ_１_１
  6
EXLTYPE3
 62
     2
100
AcDbLine
 10
1763.999926
 20
262.1300229999999
 30
0.0
 11
1763.999926
 21
272.6300149999999
 31
0.0
  0
LINE
  5
61E
330
1F
100
AcDbEntity
  8
Ｓ_１_１
  6
EXLTYPE3
 62
     2
100
AcDbLine
 10
1745.999935
 20
262.1300229999999
 30
0.0
 11
1745.999935
 21
272.6300149999999
 31
0.0
  0
LINE
  5
61F
330
1F
100
AcDbEntity
  8
Ｓ_１_１
  6
EXLTYPE3
 62
     2
100
AcDbLine
 10
1763.999925
 20
262.1300249999999
 30
0.0
 11
1763.133906
 21
260.6300509999998
 31
0.0
  0
LINE
  5
620
330
1F
100
AcDbEntity
  8
Ｓ_１_１
  6
EXLTYPE3
 62
     2
100
AcDbLine
 10
1745.999973
 20
262.1300129999999
 30
0.0
 11
1746.865997
 21
260.6299969999999
 31
0.0
  0
LINE
  5
621
330
1F
100
AcDbEntity
  8
Ｓ_１_１
  6
EXLTYPE3
 62
     2
100
AcDbLine
 10
1763.999926
 20
262.1300229999999
 30
0.0
 11
1745.999935
 21
262.1300229999999
 31
0.0
  0
LINE
  5
622
330
1F
100
AcDbEntity
  8
Ｓ_１_１
  6
EXLTYPE3
 62
     2
100
AcDbLine
 10
1838.999992
 20
567.9999509999999
 30
0.0
 11
1813.799969
 21
567.9999509999999
 31
0.0
  0
ENDSEC
  0
SECTION
  2
OBJECTS
  0
DICTIONARY
  5
C
330
0
100
AcDbDictionary
  3
ACAD_GROUP
350
D
  3
ACAD_LAYOUT
350
1A
  3
ACAD_MATERIAL
350
43
  3
ACAD_MLEADERSTYLE
350
6B
  3
ACAD_MLINESTYLE
350
17
  3
ACAD_PLOTSETTINGS
350
19
  3
ACAD_SCALELIST
350
47
  3
ACAD_VISUALSTYLE
350
2A
  3
ACDBHEADERROUNDTRIPXREC
350
623
  3
ACDBVARIABLEDICTIONARY
350
644
  0
DICTIONARY
  5
64F
330
8
100
AcDbDictionary
280
     1
  3
ACAD_XREC_ROUNDTRIP
360
650
  0
DICTIONARY
  5
D
102
{ACAD_REACTORS
330
C
102
}
330
C
100
AcDbDictionary
  0
DICTIONARY
  5
1A
102
{ACAD_REACTORS
330
C
102
}
330
C
100
AcDbDictionary
  0
DICTIONARY
  5
43
102
{ACAD_REACTORS
330
C
102
}
330
C
100
AcDbDictionary
  3
BYBLOCK
350
45
  3
BYLAYER
350
44
  3
GLOBAL
350
46
  0
DICTIONARY
  5
6B
102
{ACAD_REACTORS
330
C
102
}
330
C
100
AcDbDictionary
  3
STANDARD
350
6C
  0
DICTIONARY
  5
17
102
{ACAD_REACTORS
330
C
102
}
330
C
100
AcDbDictionary
  3
STANDARD
350
18
  0
DICTIONARY
  5
19
102
{ACAD_REACTORS
330
C
102
}
330
C
100
AcDbDictionary
  0
DICTIONARY
  5
47
102
{ACAD_REACTORS
330
C
102
}
330
C
100
AcDbDictionary
  3
A0
350
48
  3
A1
350
49
  3
A2
350
4A
  3
A3
350
4B
  3
A4
350
4C
  3
A5
350
4D
  3
A6
350
4E
  3
A7
350
4F
  3
A8
350
50
  3
A9
350
51
  3
B0
350
52
  3
B1
350
53
  3
B2
350
54
  3
B3
350
55
  3
B4
350
56
  3
B5
350
57
  3
B6
350
58
  3
B7
350
59
  3
B8
350
5A
  3
B9
350
5B
  3
C0
350
5C
  3
C1
350
5D
  3
C2
350
5E
  3
C3
350
5F
  3
C4
350
60
  3
C5
350
61
  3
C6
350
62
  3
C7
350
63
  3
C8
350
64
  3
C9
350
65
  3
D0
350
66
  3
D1
350
67
  3
D2
350
68
  0
DICTIONARY
  5
2A
102
{ACAD_REACTORS
330
C
102
}
330
C
100
AcDbDictionary
  3
2DWIREFRAME
350
2F
  3
BASIC
350
32
  3
BRIGHTEN
350
36
  3
COLORCHANGE
350
3A
  3
CONCEPTUAL
350
34
  3
DIM
350
35
  3
EDGECOLOROFF
350
3D
  3
FACEPATTERN
350
39
  3
FLAT
350
2B
  3
FLATWITHEDGES
350
2C
  3
GOURAUD
350
2D
  3
GOURAUDWITHEDGES
350
2E
  3
HIDDEN
350
31
  3
JITTEROFF
350
3B
  3
LINEPATTERN
350
38
  3
OVERHANGOFF
350
3C
  3
REALISTIC
350
33
  3
SHADED
350
42
  3
SHADED_WITH_EDGES
350
41
  3
SHADES_OF_GRAY
350
3E
  3
SKETCHY
350
3F
  3
THICKEN
350
37
  3
WIREFRAME
350
30
  3
X-RAY
350
40
  0
DICTIONARY
  5
623
102
{ACAD_REACTORS
330
C
102
}
330
C
100
AcDbDictionary
  3
CEPSNID
350
62D
  3
CEPSNTYPE
350
62C
  3
DIMSTYLEDATA
350
643
  3
FINGERPRINTGUID
350
62E
  3
HYPERLINKBASE
350
626
  3
INSUNITS
350
62B
  3
LAYOUTDICT
350
628
  3
LWETCUNION
350
62A
  3
PLOTSETDICT
350
629
  3
PSVPSCALE
350
630
  3
PUCSBASE
350
633
  3
PUCSORGBACK
350
639
  3
PUCSORGBOTTOM
350
635
  3
PUCSORGFRONT
350
638
  3
PUCSORGLEFT
350
636
  3
PUCSORGRIGHT
350
637
  3
PUCSORGTOP
350
634
  3
PUCSORTHOREF
350
631
  3
PUCSORTHOVIEW
350
632
  3
STYLESHEET
350
627
  3
TSTACKALIGN
350
624
  3
TSTACKSIZE
350
625
  3
UCSBASE
350
63C
  3
UCSORGBACK
350
642
  3
UCSORGBOTTOM
350
63E
  3
UCSORGFRONT
350
641
  3
UCSORGLEFT
350
63F
  3
UCSORGRIGHT
350
640
  3
UCSORGTOP
350
63D
  3
UCSORTHOREF
350
63A
  3
UCSORTHOVIEW
350
63B
  3
VERSIONGUID
350
62F
  0
DICTIONARY
  5
644
102
{ACAD_REACTORS
330
C
102
}
330
C
100
AcDbDictionary
  3
CANNOSCALE
350
651
  3
CENTEREXE
350
64B
  3
CENTERLTYPEFILE
350
64C
  3
CMLEADERSTYLE
350
646
  3
CTABLESTYLE
350
645
  3
DIMASSOC
350
64D
  3
HIDETEXT
350
64E
  3
MSLTSCALE
350
652
  3
PSOLHEIGHT
350
648
  3
PSOLWIDTH
350
647
  0
XRECORD
  5
650
102
{ACAD_REACTORS
330
64F
102
}
330
64F
100
AcDbXrecord
102
VTR_0.000_0.000_1.000_1.000_VISUALSTYLE
340
2F
102
VTR_0.000_0.000_1.000_1.000_GRIDDISPLAY
 70
     3
102
VTR_0.000_0.000_1.000_1.000_GRIDMAJOR
 70
     5
102
VTR_0.000_0.000_1.000_1.000_DEFAULTLIGHTING
280
     1
102
VTR_0.000_0.000_1.000_1.000_DEFAULTLIGHTINGTYPE
 70
     1
102
VTR_0.000_0.000_1.000_1.000_BRIGHTNESS
141
0.0
102
VTR_0.000_0.000_1.000_1.000_CONTRAST
142
0.0
  0
MATERIAL
  5
45
102
{ACAD_REACTORS
330
43
102
}
102
{ACAD_XDICTIONARY
360
655
102
}
330
43
100
AcDbMaterial
  1
BYBLOCK
  0
MATERIAL
  5
44
102
{ACAD_REACTORS
330
43
102
}
102
{ACAD_XDICTIONARY
360
653
102
}
330
43
100
AcDbMaterial
  1
BYLAYER
  0
MATERIAL
  5
46
102
{ACAD_REACTORS
330
43
102
}
102
{ACAD_XDICTIONARY
360
657
102
}
330
43
100
AcDbMaterial
  1
GLOBAL
  0
ACAD_PROXY_OBJECT
  5
6C
102
{ACAD_REACTORS
330
6B
102
}
330
6B
100
AcDbProxyObject
 90
      499
 91
      505
 93
      610
310
40901902A4063FBFFFFFE0000000000000020400000000000020404214DD185B99185C990000000000000104090141901A00000000000004100000000000000041025764000000000000039000
340
14
340
0
340
11
340
0
 94
        0
1001
ACAD_MLEADERVER
1070
     2
  0
MLINESTYLE
  5
18
102
{ACAD_REACTORS
330
17
102
}
330
17
100
AcDbMlineStyle
  2
Standard
 70
     0
  3

 62
   256
 51
90.0
 52
90.0
 71
     2
 49
0.5
 62
   256
  6
BYLAYER
 49
-0.5
 62
   256
  6
BYLAYER
  0
ACAD_PROXY_OBJECT
  5
48
102
{ACAD_REACTORS
330
47
102
}
330
47
100
AcDbProxyObject
 90
      499
 91
      503
 93
       41
310
903313A31580
  0
ACAD_PROXY_OBJECT
  5
49
102
{ACAD_REACTORS
330
47
102
}
330
47
100
AcDbProxyObject
 90
      499
 91
      503
 93
      105
310
903313A324000000000000004000
  0
ACAD_PROXY_OBJECT
  5
4A
102
{ACAD_REACTORS
330
47
102
}
330
47
100
AcDbProxyObject
 90
      499
 91
      503
 93
      105
310
903313A344000000000000104000
  0
ACAD_PROXY_OBJECT
  5
4B
102
{ACAD_REACTORS
330
47
102
}
330
47
100
AcDbProxyObject
 90
      499
 91
      503
 93
      105
310
903313A354000000000000144000
  0
ACAD_PROXY_OBJECT
  5
4C
102
{ACAD_REACTORS
330
47
102
}
330
47
100
AcDbProxyObject
 90
      499
 91
      503
 93
      105
310
903313A384000000000000204000
  0
ACAD_PROXY_OBJECT
  5
4D
102
{ACAD_REACTORS
330
47
102
}
330
47
100
AcDbProxyObject
 90
      499
 91
      503
 93
      113
310
904313A31304000000000000244000
  0
ACAD_PROXY_OBJECT
  5
4E
102
{ACAD_REACTORS
330
47
102
}
330
47
100
AcDbProxyObject
 90
      499
 91
      503
 93
      113
310
904313A31364000000000000304000
  0
ACAD_PROXY_OBJECT
  5
4F
102
{ACAD_REACTORS
330
47
102
}
330
47
100
AcDbProxyObject
 90
      499
 91
      503
 93
      113
310
904313A32304000000000000344000
  0
ACAD_PROXY_OBJECT
  5
50
102
{ACAD_REACTORS
330
47
102
}
330
47
100
AcDbProxyObject
 90
      499
 91
      503
 93
      113
310
904313A333040000000000003E4000
  0
ACAD_PROXY_OBJECT
  5
51
102
{ACAD_REACTORS
330
47
102
}
330
47
100
AcDbProxyObject
 90
      499
 91
      503
 93
      113
310
904313A34304000000000000444000
  0
ACAD_PROXY_OBJECT
  5
52
102
{ACAD_REACTORS
330
47
102
}
330
47
100
AcDbProxyObject
 90
      499
 91
      503
 93
      113
310
904313A35304000000000000494000
  0
ACAD_PROXY_OBJECT
  5
53
102
{ACAD_REACTORS
330
47
102
}
330
47
100
AcDbProxyObject
 90
      499
 91
      503
 93
      121
310
905313A3130304000000000000594000
  0
ACAD_PROXY_OBJECT
  5
54
102
{ACAD_REACTORS
330
47
102
}
330
47
100
AcDbProxyObject
 90
      499
 91
      503
 93
      105
310
903323A310000000000000010100
  0
ACAD_PROXY_OBJECT
  5
55
102
{ACAD_REACTORS
330
47
102
}
330
47
100
AcDbProxyObject
 90
      499
 91
      503
 93
      105
310
903343A310000000000000410100
  0
ACAD_PROXY_OBJECT
  5
56
102
{ACAD_REACTORS
330
47
102
}
330
47
100
AcDbProxyObject
 90
      499
 91
      503
 93
      105
310
903383A310000000000000810100
  0
ACAD_PROXY_OBJECT
  5
57
102
{ACAD_REACTORS
330
47
102
}
330
47
100
AcDbProxyObject
 90
      499
 91
      503
 93
      113
310
90431303A310000000000000910100
  0
ACAD_PROXY_OBJECT
  5
58
102
{ACAD_REACTORS
330
47
102
}
330
47
100
AcDbProxyObject
 90
      499
 91
      503
 93
      121
310
9053130303A310000000000001650100
  0
ACAD_PROXY_OBJECT
  5
59
102
{ACAD_REACTORS
330
47
102
}
330
47
100
AcDbProxyObject
 90
      499
 91
      503
 93
      257
310
90E312F31323822203D2031272D3022000000000000200FC000000000000284000
  0
ACAD_PROXY_OBJECT
  5
5A
102
{ACAD_REACTORS
330
47
102
}
330
47
100
AcDbProxyObject
 90
      499
 91
      503
 93
      249
310
90D312F363422203D2031272D3022000000000000240FC000000000000284000
  0
ACAD_PROXY_OBJECT
  5
5B
102
{ACAD_REACTORS
330
47
102
}
330
47
100
AcDbProxyObject
 90
      499
 91
      503
 93
      249
310
90D312F333222203D2031272D3022000000000000280FC000000000000284000
  0
ACAD_PROXY_OBJECT
  5
5C
102
{ACAD_REACTORS
330
47
102
}
330
47
100
AcDbProxyObject
 90
      499
 91
      503
 93
      249
310
90D312F313622203D2031272D30220000000000002C0FC000000000000284000
  0
ACAD_PROXY_OBJECT
  5
5D
102
{ACAD_REACTORS
330
47
102
}
330
47
100
AcDbProxyObject
 90
      499
 91
      503
 93
      249
310
90D332F333222203D2031272D30220000000000002E0FC000000000000284000
  0
ACAD_PROXY_OBJECT
  5
5E
102
{ACAD_REACTORS
330
47
102
}
330
47
100
AcDbProxyObject
 90
      499
 91
      503
 93
      241
310
90C312F3822203D2031272D3022000000000000300FC000000000000284000
  0
ACAD_PROXY_OBJECT
  5
5F
102
{ACAD_REACTORS
330
47
102
}
330
47
100
AcDbProxyObject
 90
      499
 91
      503
 93
      249
310
90D332F313622203D2031272D3022000000000000320FC000000000000284000
  0
ACAD_PROXY_OBJECT
  5
60
102
{ACAD_REACTORS
330
47
102
}
330
47
100
AcDbProxyObject
 90
      499
 91
      503
 93
      241
310
90C312F3422203D2031272D3022000000000000340FC000000000000284000
  0
ACAD_PROXY_OBJECT
  5
61
102
{ACAD_REACTORS
330
47
102
}
330
47
100
AcDbProxyObject
 90
      499
 91
      503
 93
      241
310
90C332F3822203D2031272D3022000000000000360FC000000000000284000
  0
ACAD_PROXY_OBJECT
  5
62
102
{ACAD_REACTORS
330
47
102
}
330
47
100
AcDbProxyObject
 90
      499
 91
      503
 93
      241
310
90C312F3222203D2031272D3022000000000000380FC000000000000284000
  0
ACAD_PROXY_OBJECT
  5
63
102
{ACAD_REACTORS
330
47
102
}
330
47
100
AcDbProxyObject
 90
      499
 91
      503
 93
      241
310
90C332F3422203D2031272D30220000000000003A0FC000000000000284000
  0
ACAD_PROXY_OBJECT
  5
64
102
{ACAD_REACTORS
330
47
102
}
330
47
100
AcDbProxyObject
 90
      499
 91
      503
 93
      161
310
90A3122203D2031272D30224000000000000284000
  0
ACAD_PROXY_OBJECT
  5
65
102
{ACAD_REACTORS
330
47
102
}
330
47
100
AcDbProxyObject
 90
      499
 91
      503
 93
      257
310
90E312D312F3222203D2031272D30220000000000003E0FC000000000000284000
  0
ACAD_PROXY_OBJECT
  5
66
102
{ACAD_REACTORS
330
47
102
}
330
47
100
AcDbProxyObject
 90
      499
 91
      503
 93
      225
310
90A3322203D2031272D302200000000000002100000000000000284000
  0
ACAD_PROXY_OBJECT
  5
67
102
{ACAD_REACTORS
330
47
102
}
330
47
100
AcDbProxyObject
 90
      499
 91
      503
 93
      225
310
90A3622203D2031272D302200000000000006100000000000000284000
  0
ACAD_PROXY_OBJECT
  5
68
102
{ACAD_REACTORS
330
47
102
}
330
47
100
AcDbProxyObject
 90
      499
 91
      503
 93
      249
310
90D31272D3022203D2031272D30220000000000000A100000000000000284000
  0
ACAD_PROXY_OBJECT
  5
2F
102
{ACAD_REACTORS
330
2A
102
}
330
2A
100
AcDbProxyObject
 90
      499
 91
      501
 93
      436
310
42CC9915DA5C99599C985B595049028333333333333E33F0000000000000F90107901411070040501600405405064090741402480A0340
1001
ACAD
1000
AcDbSavedByObjectVersion
1070
     0
  0
ACAD_PROXY_OBJECT
  5
32
102
{ACAD_REACTORS
330
2A
102
}
330
2A
100
AcDbProxyObject
 90
      499
 91
      501
 93
      388
310
4150985CDA58D07406404333333333333E33F0000000000000F90107A41107004050150841D405064090741402480A0350
1001
ACAD
1000
AcDbSavedByObjectVersion
1070
     0
  0
ACAD_PROXY_OBJECT
  5
36
102
{ACAD_REACTORS
330
2A
102
}
330
2A
100
AcDbProxyObject
 90
      499
 91
      501
 93
      428
310
42109C9A59DA1D195B90C409028333333333333E33F0000000000000F9010790141107004050150841D405064090741402480A029950
1001
ACAD
1000
AcDbSavedByObjectVersion
1070
     0
  0
ACAD_PROXY_OBJECT
  5
3A
102
{ACAD_REACTORS
330
2A
102
}
330
2A
100
AcDbProxyObject
 90
      499
 91
      501
 93
      452
310
42D0DBDB1BDC90DA185B99D95104090240C333333333333E33F0000000000000F90108901411070040501508421405064090741402480A0350
1001
ACAD
1000
AcDbSavedByObjectVersion
1070
     0
  0
ACAD_PROXY_OBJECT
  5
34
102
{ACAD_REACTORS
330
2A
102
}
330
2A
100
AcDbProxyObject
 90
      499
 91
      501
 93
      500
310
4290DBDB98D95C1D1D585B10940D028333333333333E33F0000000000000F90107902409070040501000000000018199010841D405064090740C02480A0340
1001
ACAD
1000
AcDbSavedByObjectVersion
1070
     0
  0
ACAD_PROXY_OBJECT
  5
35
102
{ACAD_REACTORS
330
2A
102
}
330
2A
100
AcDbProxyObject
 90
      499
 91
      501
 93
      412
310
40D11A5B50B409028333333333333E33F0000000000000F9010790141107004050150841D405064090741402480A02677FFFFFD0
1001
ACAD
1000
AcDbSavedByObjectVersion
1070
     0
  0
ACAD_PROXY_OBJECT
  5
3D
102
{ACAD_REACTORS
330
2A
102
}
330
2A
100
AcDbProxyObject
 90
      499
 91
      501
 93
      452
310
43115919D950DBDB1BDC93D999916409028333333333333E33F0000000000000F9010790141107004050150841D405064090741402480A0350
1001
ACAD
1000
AcDbSavedByObjectVersion
1070
     0
  0
ACAD_PROXY_OBJECT
  5
39
102
{ACAD_REACTORS
330
2A
102
}
330
2A
100
AcDbProxyObject
 90
      499
 91
      501
 93
      444
310
42D19858D95C185D1D195C9B90F409028333333333333E33F0000000000000F9010790141107004050150841D405064090741402480A0350
1001
ACAD
1000
AcDbSavedByObjectVersion
1070
     0
  0
ACAD_PROXY_OBJECT
  5
2B
102
{ACAD_REACTORS
330
2A
102
}
330
2A
100
AcDbProxyObject
 90
      499
 91
      501
 93
      380
310
41119B185D240901404333333333333E33F0000000000000F9010740A907004050150841D405064090741402480A1B50
1001
ACAD
1000
AcDbSavedByObjectVersion
1070
     0
  0
ACAD_PROXY_OBJECT
  5
2C
102
{ACAD_REACTORS
330
2A
102
}
330
2A
100
AcDbProxyObject
 90
      499
 91
      501
 93
      468
310
43519B185D15DA5D1A115919D95CD0140901404333333333333E33F0000000000000F90107409019070040501600405405064090741402480A1B50
1001
ACAD
1000
AcDbSavedByObjectVersion
1070
     0
  0
ACAD_PROXY_OBJECT
  5
2D
102
{ACAD_REACTORS
330
2A
102
}
330
2A
100
AcDbProxyObject
 90
      499
 91
      501
 93
      404
310
41D1DBDD5C985D5910240902404333333333333E33F0000000000000F9010740A9070040501641D405064090741402480A1B50
1001
ACAD
1000
AcDbSavedByObjectVersion
1070
     0
  0
ACAD_PROXY_OBJECT
  5
2E
102
{ACAD_REACTORS
330
2A
102
}
330
2A
100
AcDbProxyObject
 90
      499
 91
      501
 93
      492
310
4411DBDD5C985D5915DA5D1A115919D95CD0340902404333333333333E33F0000000000000F90107409019070040501600405405064090741402480A1B50
1001
ACAD
1000
AcDbSavedByObjectVersion
1070
     0
  0
ACAD_PROXY_OBJECT
  5
31
102
{ACAD_REACTORS
330
2A
102
}
330
2A
100
AcDbProxyObject
 90
      499
 91
      501
 93
      476
310
41921A5919195B90640502408333333333333E33F0000000000000F901079024090700405020000000000001110200405405064090740C02480A0340
1001
ACAD
1000
AcDbSavedByObjectVersion
1070
     0
  0
ACAD_PROXY_OBJECT
  5
3B
102
{ACAD_REACTORS
330
2A
102
}
330
2A
100
AcDbProxyObject
 90
      499
 91
      501
 93
      428
310
42529A5D1D195C93D999914409028333333333333E33F0000000000000F9010790141107004050150A41D405064090741402480A0350
1001
ACAD
1000
AcDbSavedByObjectVersion
1070
     0
  0
ACAD_PROXY_OBJECT
  5
38
102
{ACAD_REACTORS
330
2A
102
}
330
2A
100
AcDbProxyObject
 90
      499
 91
      501
 93
      444
310
42D31A5B995C185D1D195C9B90E409028333333333333E33F0000000000000F9010790141107004050750841D405064090741402483A0350
1001
ACAD
1000
AcDbSavedByObjectVersion
1070
     0
  0
ACAD_PROXY_OBJECT
  5
3C
102
{ACAD_REACTORS
330
2A
102
}
330
2A
100
AcDbProxyObject
 90
      499
 91
      501
 93
      444
310
42D3DD995C9A185B99D3D999915409028333333333333E33F0000000000000F9010790141107004050150941D405064090741402480A0350
1001
ACAD
1000
AcDbSavedByObjectVersion
1070
     0
  0
ACAD_PROXY_OBJECT
  5
33
102
{ACAD_REACTORS
330
2A
102
}
330
2A
100
AcDbProxyObject
 90
      499
 91
      501
 93
      428
310
425499585B1A5CDD1A58D08409038333333333333E33F0000000000000F9010740A907004050150800405405064090740C02480A1B40
1001
ACAD
1000
AcDbSavedByObjectVersion
1070
     0
  0
ACAD_PROXY_OBJECT
  5
42
102
{ACAD_REACTORS
330
2A
102
}
330
2A
100
AcDbProxyObject
 90
      499
 91
      501
 93
      420
310
4194DA1859195911B40902404333333333333E33F0000000000000F9010740A41107004050150800405405064090840C02480A0B40
1001
ACAD
1000
AcDbSavedByObjectVersion
1070
     0
  0
ACAD_PROXY_OBJECT
  5
41
102
{ACAD_REACTORS
330
2A
102
}
330
2A
100
AcDbProxyObject
 90
      499
 91
      501
 93
      516
310
4454DA18591959081DDA5D1A08195919D95CD1A40902404333333333333E33F0000000000000F901074090142907004050250800405405064090740C02480A0B40
1001
ACAD
1000
AcDbSavedByObjectVersion
1070
     0
  0
ACAD_PROXY_OBJECT
  5
3E
102
{ACAD_REACTORS
330
2A
102
}
330
2A
100
AcDbProxyObject
 90
      499
 91
      501
 93
      532
310
4394DA1859195CC81BD98811DC985E5174090240C333333333333E33F0000000000000F901079024090741D01000000000000111010841D405064090740C02480A0340
1001
ACAD
1000
AcDbSavedByObjectVersion
1070
     0
  0
ACAD_PROXY_OBJECT
  5
3F
102
{ACAD_REACTORS
330
2A
102
}
330
2A
100
AcDbProxyObject
 90
      499
 91
      501
 93
      476
310
41D4DAD95D18DA1E51840502408333333333333E33F0000000000000F901079024090741D01000000000000111010B41D405064090741802480A0340
1001
ACAD
1000
AcDbSavedByObjectVersion
1070
     0
  0
ACAD_PROXY_OBJECT
  5
37
102
{ACAD_REACTORS
330
2A
102
}
330
2A
100
AcDbProxyObject
 90
      499
 91
      501
 93
      412
310
41D51A1A58DAD95B90D409028333333333333E33F0000000000000F9010790141107004050150C41D405064090741402480A0350
1001
ACAD
1000
AcDbSavedByObjectVersion
1070
     0
  0
ACAD_PROXY_OBJECT
  5
30
102
{ACAD_REACTORS
330
2A
102
}
330
2A
100
AcDbProxyObject
 90
      499
 91
      501
 93
      420
310
4255DA5C99599C985B595059028333333333333E33F0000000000000F90107901411070040501600405405064090740C02480A0340
1001
ACAD
1000
AcDbSavedByObjectVersion
1070
     0
  0
ACAD_PROXY_OBJECT
  5
40
102
{ACAD_REACTORS
330
2A
102
}
330
2A
100
AcDbProxyObject
 90
      499
 91
      501
 93
      404
310
41560B54985E51940902404000000000000E03F0000000000000F9010740501907004050150841D405064090740C02480A1B40
1001
ACAD
1000
AcDbSavedByObjectVersion
1070
     0
  0
XRECORD
  5
62D
102
{ACAD_REACTORS
330
623
102
}
330
623
100
AcDbXrecord
340
0
  0
XRECORD
  5
62C
102
{ACAD_REACTORS
330
623
102
}
330
623
100
AcDbXrecord
 90
        0
  0
XRECORD
  5
643
102
{ACAD_REACTORS
330
623
102
}
330
623
100
AcDbXrecord
1000
DSTYLE
1002
{
1070
   340
340
11
1002
}
  0
XRECORD
  5
62E
102
{ACAD_REACTORS
330
623
102
}
330
623
100
AcDbXrecord
  1
{5ae07420-2b67-494f-8c68-b1dbe1d83de5}
  0
XRECORD
  5
626
102
{ACAD_REACTORS
330
623
102
}
330
623
100
AcDbXrecord
  1

  0
XRECORD
  5
62B
102
{ACAD_REACTORS
330
623
102
}
330
623
100
AcDbXrecord
 90
        4
  0
XRECORD
  5
628
102
{ACAD_REACTORS
330
623
102
}
330
623
100
AcDbXrecord
340
1A
  0
XRECORD
  5
62A
102
{ACAD_REACTORS
330
623
102
}
330
623
100
AcDbXrecord
 90
    10781
  0
XRECORD
  5
629
102
{ACAD_REACTORS
330
623
102
}
330
623
100
AcDbXrecord
340
19
  0
XRECORD
  5
630
102
{ACAD_REACTORS
330
623
102
}
330
623
100
AcDbXrecord
 40
0.0
  0
XRECORD
  5
633
102
{ACAD_REACTORS
330
623
102
}
330
623
100
AcDbXrecord
340
0
  0
XRECORD
  5
639
102
{ACAD_REACTORS
330
623
102
}
330
623
100
AcDbXrecord
 10
0.0
 20
0.0
 30
0.0
  0
XRECORD
  5
635
102
{ACAD_REACTORS
330
623
102
}
330
623
100
AcDbXrecord
 10
0.0
 20
0.0
 30
0.0
  0
XRECORD
  5
638
102
{ACAD_REACTORS
330
623
102
}
330
623
100
AcDbXrecord
 10
0.0
 20
0.0
 30
0.0
  0
XRECORD
  5
636
102
{ACAD_REACTORS
330
623
102
}
330
623
100
AcDbXrecord
 10
0.0
 20
0.0
 30
0.0
  0
XRECORD
  5
637
102
{ACAD_REACTORS
330
623
102
}
330
623
100
AcDbXrecord
 10
0.0
 20
0.0
 30
0.0
  0
XRECORD
  5
634
102
{ACAD_REACTORS
330
623
102
}
330
623
100
AcDbXrecord
 10
0.0
 20
0.0
 30
0.0
  0
XRECORD
  5
631
102
{ACAD_REACTORS
330
623
102
}
330
623
100
AcDbXrecord
340
0
  0
XRECORD
  5
632
102
{ACAD_REACTORS
330
623
102
}
330
623
100
AcDbXrecord
 70
     0
  0
XRECORD
  5
627
102
{ACAD_REACTORS
330
623
102
}
330
623
100
AcDbXrecord
  1

  0
XRECORD
  5
624
102
{ACAD_REACTORS
330
623
102
}
330
623
100
AcDbXrecord
 90
        1
  0
XRECORD
  5
625
102
{ACAD_REACTORS
330
623
102
}
330
623
100
AcDbXrecord
 90
       70
  0
XRECORD
  5
63C
102
{ACAD_REACTORS
330
623
102
}
330
623
100
AcDbXrecord
340
0
  0
XRECORD
  5
642
102
{ACAD_REACTORS
330
623
102
}
330
623
100
AcDbXrecord
 10
0.0
 20
0.0
 30
0.0
  0
XRECORD
  5
63E
102
{ACAD_REACTORS
330
623
102
}
330
623
100
AcDbXrecord
 10
0.0
 20
0.0
 30
0.0
  0
XRECORD
  5
641
102
{ACAD_REACTORS
330
623
102
}
330
623
100
AcDbXrecord
 10
0.0
 20
0.0
 30
0.0
  0
XRECORD
  5
63F
102
{ACAD_REACTORS
330
623
102
}
330
623
100
AcDbXrecord
 10
0.0
 20
0.0
 30
0.0
  0
XRECORD
  5
640
102
{ACAD_REACTORS
330
623
102
}
330
623
100
AcDbXrecord
 10
0.0
 20
0.0
 30
0.0
  0
XRECORD
  5
63D
102
{ACAD_REACTORS
330
623
102
}
330
623
100
AcDbXrecord
 10
0.0
 20
0.0
 30
0.0
  0
XRECORD
  5
63A
102
{ACAD_REACTORS
330
623
102
}
330
623
100
AcDbXrecord
340
0
  0
XRECORD
  5
63B
102
{ACAD_REACTORS
330
623
102
}
330
623
100
AcDbXrecord
 70
     0
  0
XRECORD
  5
62F
102
{ACAD_REACTORS
330
623
102
}
330
623
100
AcDbXrecord
  1
{FAEB1C32-E019-11D5-929B-00C0DF256EC4}
  0
DICTIONARYVAR
  5
651
102
{ACAD_REACTORS
330
644
102
}
330
644
100
DictionaryVariables
280
     0
  1
1:1
  0
DICTIONARYVAR
  5
64B
102
{ACAD_REACTORS
330
644
102
}
330
644
100
DictionaryVariables
280
     0
  1
3.500000
  0
DICTIONARYVAR
  5
64C
102
{ACAD_REACTORS
330
644
102
}
330
644
100
DictionaryVariables
280
     0
  1
acadiso.lin
  0
DICTIONARYVAR
  5
646
102
{ACAD_REACTORS
330
644
102
}
330
644
100
DictionaryVariables
280
     0
  1
Standard
  0
DICTIONARYVAR
  5
645
102
{ACAD_REACTORS
330
644
102
}
330
644
100
DictionaryVariables
280
     0
  1
Standard
  0
DICTIONARYVAR
  5
64D
102
{ACAD_REACTORS
330
644
102
}
330
644
100
DictionaryVariables
280
     0
  1
2
  0
DICTIONARYVAR
  5
64E
102
{ACAD_REACTORS
330
644
102
}
330
644
100
DictionaryVariables
280
     0
  1
1
  0
DICTIONARYVAR
  5
652
102
{ACAD_REACTORS
330
644
102
}
330
644
100
DictionaryVariables
280
     0
  1
1
  0
DICTIONARYVAR
  5
648
102
{ACAD_REACTORS
330
644
102
}
330
644
100
DictionaryVariables
280
     0
  1
80.000000
  0
DICTIONARYVAR
  5
647
102
{ACAD_REACTORS
330
644
102
}
330
644
100
DictionaryVariables
280
     0
  1
5.000000
  0
DICTIONARY
  5
655
330
45
100
AcDbDictionary
280
     1
  3
ACAD_XREC_ROUNDTRIP
360
656
  0
DICTIONARY
  5
653
330
44
100
AcDbDictionary
280
     1
  3
ACAD_XREC_ROUNDTRIP
360
654
  0
DICTIONARY
  5
657
330
46
100
AcDbDictionary
280
     1
  3
ACAD_XREC_ROUNDTRIP
360
658
  0
XRECORD
  5
656
102
{ACAD_REACTORS
330
655
102
}
330
655
100
AcDbXrecord
102
MATERIAL
148
0.0
149
0.0
149
0.0
 93
        0
 94
      127
282
     0
 72
     1
 77
     1
171
     1
175
     1
179
     1
273
     0
  0
XRECORD
  5
654
102
{ACAD_REACTORS
330
653
102
}
330
653
100
AcDbXrecord
102
MATERIAL
148
0.0
149
0.0
149
0.0
 93
        0
 94
      127
282
     0
 72
     1
 77
     1
171
     1
175
     1
179
     1
273
     0
  0
XRECORD
  5
658
102
{ACAD_REACTORS
330
657
102
}
330
657
100
AcDbXrecord
102
MATERIAL
148
0.0
149
0.0
149
0.0
 93
        0
 94
      127
282
     0
 72
     1
 77
     1
171
     1
175
     1
179
     1
273
     0
  0
ENDSEC
  0
EOF
