  0
SECTION
  2
HEADER
  9
$ACADVER
  1
AC1014
  9
$ACADMAINTVER
 70
     9
  9
$DWGCODEPAGE
  3
ANSI_932
  9
$INSBASE
 10
0.0
 20
0.0
 30
0.0
  9
$EXTMIN
 10
100.0
 20
100.0
 30
0.0
  9
$EXTMAX
 10
4100.0
 20
2870.0
 30
0.0
  9
$LIMMIN
 10
0.0
 20
0.0
  9
$LIMMAX
 10
420.0
 20
297.0
  9
$ORTHOMODE
 70
     0
  9
$REGENMODE
 70
     1
  9
$FILLMODE
 70
     1
  9
$QTEXTMODE
 70
     0
  9
$MIRRTEXT
 70
     1
  9
$DRAGMODE
 70
     2
  9
$LTSCALE
 40
1.0
  9
$OSMODE
 70
    37
  9
$ATTMODE
 70
     1
  9
$TEXTSIZE
 40
2.5
  9
$TRACEWID
 40
1.0
  9
$TEXTSTYLE
  7
STANDARD
  9
$CLAYER
  8
Ｓ_１_１
  9
$CELTYPE
  6
BYLAYER
  9
$CECOLOR
 62
   256
  9
$CELTSCALE
 40
1.0
  9
$DELOBJ
 70
     1
  9
$DISPSILH
 70
     0
  9
$DIMSCALE
 40
1.0
  9
$DIMASZ
 40
2.5
  9
$DIMEXO
 40
0.625
  9
$DIMDLI
 40
3.75
  9
$DIMRND
 40
0.0
  9
$DIMDLE
 40
0.0
  9
$DIMEXE
 40
1.25
  9
$DIMTP
 40
0.0
  9
$DIMTM
 40
0.0
  9
$DIMTXT
 40
2.5
  9
$DIMCEN
 40
2.5
  9
$DIMTSZ
 40
0.0
  9
$DIMTOL
 70
     0
  9
$DIMLIM
 70
     0
  9
$DIMTIH
 70
     0
  9
$DIMTOH
 70
     0
  9
$DIMSE1
 70
     0
  9
$DIMSE2
 70
     0
  9
$DIMTAD
 70
     1
  9
$DIMZIN
 70
     8
  9
$DIMBLK
  1

  9
$DIMASO
 70
     1
  9
$DIMSHO
 70
     1
  9
$DIMPOST
  1

  9
$DIMAPOST
  1

  9
$DIMALT
 70
     0
  9
$DIMALTD
 70
     3
  9
$DIMALTF
 40
0.03937007874016
  9
$DIMLFAC
 40
1.0
  9
$DIMTOFL
 70
     1
  9
$DIMTVP
 40
0.0
  9
$DIMTIX
 70
     0
  9
$DIMSOXD
 70
     0
  9
$DIMSAH
 70
     0
  9
$DIMBLK1
  1

  9
$DIMBLK2
  1

  9
$DIMSTYLE
  2
ISO-25
  9
$DIMCLRD
 70
     0
  9
$DIMCLRE
 70
     0
  9
$DIMCLRT
 70
     0
  9
$DIMTFAC
 40
1.0
  9
$DIMGAP
 40
0.625
  9
$DIMJUST
 70
     0
  9
$DIMSD1
 70
     0
  9
$DIMSD2
 70
     0
  9
$DIMTOLJ
 70
     0
  9
$DIMTZIN
 70
     8
  9
$DIMALTZ
 70
     0
  9
$DIMALTTZ
 70
     0
  9
$DIMFIT
 70
     3
  9
$DIMUPT
 70
     0
  9
$DIMUNIT
 70
     2
  9
$DIMDEC
 70
     2
  9
$DIMTDEC
 70
     2
  9
$DIMALTU
 70
     2
  9
$DIMALTTD
 70
     3
  9
$DIMTXSTY
  7
STANDARD
  9
$DIMAUNIT
 70
     0
  9
$LUNITS
 70
     2
  9
$LUPREC
 70
     4
  9
$SKETCHINC
 40
1.0
  9
$FILLETRAD
 40
10.0
  9
$AUNITS
 70
     0
  9
$AUPREC
 70
     0
  9
$MENU
  1
.
  9
$ELEVATION
 40
0.0
  9
$PELEVATION
 40
0.0
  9
$THICKNESS
 40
0.0
  9
$LIMCHECK
 70
     0
  9
$CHAMFERA
 40
0.0
  9
$CHAMFERB
 40
0.0
  9
$CHAMFERC
 40
0.0
  9
$CHAMFERD
 40
0.0
  9
$SKPOLY
 70
     0
  9
$TDCREATE
 40
2459585.499554664
  9
$TDUPDATE
 40
2459585.499556447
  9
$TDINDWG
 40
0.0000000116
  9
$TDUSRTIMER
 40
0.0000000116
  9
$USRTIMER
 70
     1
  9
$ANGBASE
 50
0.0
  9
$ANGDIR
 70
     0
  9
$PDMODE
 70
     0
  9
$PDSIZE
 40
0.0
  9
$PLINEWID
 40
0.0
  9
$COORDS
 70
     1
  9
$SPLFRAME
 70
     0
  9
$SPLINETYPE
 70
     6
  9
$SPLINESEGS
 70
     8
  9
$ATTDIA
 70
     0
  9
$ATTREQ
 70
     1
  9
$HANDLING
 70
     1
  9
$HANDSEED
  5
606
  9
$SURFTAB1
 70
     6
  9
$SURFTAB2
 70
     6
  9
$SURFTYPE
 70
     6
  9
$SURFU
 70
     6
  9
$SURFV
 70
     6
  9
$UCSNAME
  2

  9
$UCSORG
 10
0.0
 20
0.0
 30
0.0
  9
$UCSXDIR
 10
1.0
 20
0.0
 30
0.0
  9
$UCSYDIR
 10
0.0
 20
1.0
 30
0.0
  9
$PUCSNAME
  2

  9
$PUCSORG
 10
0.0
 20
0.0
 30
0.0
  9
$PUCSXDIR
 10
1.0
 20
0.0
 30
0.0
  9
$PUCSYDIR
 10
0.0
 20
1.0
 30
0.0
  9
$USERI1
 70
     0
  9
$USERI2
 70
     0
  9
$USERI3
 70
     0
  9
$USERI4
 70
     0
  9
$USERI5
 70
     0
  9
$USERR1
 40
0.0
  9
$USERR2
 40
0.0
  9
$USERR3
 40
0.0
  9
$USERR4
 40
0.0
  9
$USERR5
 40
0.0
  9
$WORLDVIEW
 70
     1
  9
$SHADEDGE
 70
     3
  9
$SHADEDIF
 70
    70
  9
$TILEMODE
 70
     1
  9
$MAXACTVP
 70
    64
  9
$PINSBASE
 10
0.0
 20
0.0
 30
0.0
  9
$PLIMCHECK
 70
     0
  9
$PEXTMIN
 10
1.000000000000000E+20
 20
1.000000000000000E+20
 30
1.000000000000000E+20
  9
$PEXTMAX
 10
-1.000000000000000E+20
 20
-1.000000000000000E+20
 30
-1.000000000000000E+20
  9
$PLIMMIN
 10
0.0
 20
0.0
  9
$PLIMMAX
 10
420.0
 20
297.0
  9
$UNITMODE
 70
     0
  9
$VISRETAIN
 70
     1
  9
$PLINEGEN
 70
     0
  9
$PSLTSCALE
 70
     1
  9
$TREEDEPTH
 70
  3020
  9
$PICKSTYLE
 70
     1
  9
$CMLSTYLE
  2
STANDARD
  9
$CMLJUST
 70
     0
  9
$CMLSCALE
 40
20.0
  9
$PROXYGRAPHICS
 70
     1
  9
$MEASUREMENT
 70
     1
  0
ENDSEC
  0
SECTION
  2
CLASSES
  0
CLASS
  1
ACDBDICTIONARYWDFLT
  2
AcDbDictionaryWithDefault
  3
ObjectDBX Classes
 90
        0
280
     0
281
     0
  0
CLASS
  1
VISUALSTYLE
  2
AcDbVisualStyle
  3
ObjectDBX Classes
 90
     4095
280
     0
281
     0
  0
CLASS
  1
MATERIAL
  2
AcDbMaterial
  3
ObjectDBX Classes
 90
     1153
280
     0
281
     0
  0
CLASS
  1
SCALE
  2
AcDbScale
  3
ObjectDBX Classes
 90
     1153
280
     0
281
     0
  0
CLASS
  1
TABLESTYLE
  2
AcDbTableStyle
  3
ObjectDBX Classes
 90
     4095
280
     0
281
     0
  0
CLASS
  1
MLEADERSTYLE
  2
AcDbMLeaderStyle
  3
ACDB_MLEADERSTYLE_CLASS
 90
     4095
280
     0
281
     0
  0
CLASS
  1
SUN
  2
AcDbSun
  3
SCENEOE
 90
     1153
280
     0
281
     0
  0
CLASS
  1
DICTIONARYVAR
  2
AcDbDictionaryVar
  3
ObjectDBX Classes
 90
        0
280
     0
281
     0
  0
CLASS
  1
XRECORD
  2
AcDbXrecord
  3
ObjectDBX Classes
 90
        0
280
     0
281
     0
  0
CLASS
  1
LWPOLYLINE
  2
AcDbPolyline
  3
ObjectDBX Classes
 90
        0
280
     0
281
     1
  0
CLASS
  1
HATCH
  2
AcDbHatch
  3
ObjectDBX Classes
 90
        0
280
     0
281
     1
  0
CLASS
  1
ACDBPLACEHOLDER
  2
AcDbPlaceHolder
  3
ObjectDBX Classes
 90
        0
280
     0
281
     0
  0
CLASS
  1
LAYOUT
  2
AcDbLayout
  3
ObjectDBX Classes
 90
        0
280
     0
281
     0
  0
ENDSEC
  0
SECTION
  2
TABLES
  0
TABLE
  2
VPORT
  5
8
102
{ACAD_XDICTIONARY
360
5FB
102
}
330
0
100
AcDbSymbolTable
 70
     1
  0
VPORT
  5
29
330
8
100
AcDbSymbolTableRecord
100
AcDbViewportTableRecord
  2
*ACTIVE
 70
     0
 10
0.0
 20
0.0
 11
1.0
 21
1.0
 12
2100.0
 22
1485.0
 13
0.0
 23
0.0
 14
10.0
 24
10.0
 15
10.0
 25
10.0
 16
0.0
 26
0.0
 36
1.0
 17
0.0
 27
0.0
 37
0.0
 40
2770.0
 41
1.444043321299639
 42
50.0
 43
0.0
 44
0.0
 50
0.0
 51
0.0
 71
     0
 72
  1000
 73
     1
 74
     3
 75
     0
 76
     0
 77
     0
 78
     0
  0
ENDTAB
  0
TABLE
  2
LTYPE
  5
5
330
0
100
AcDbSymbolTable
 70
     7
  0
LTYPE
  5
14
330
5
100
AcDbSymbolTableRecord
100
AcDbLinetypeTableRecord
  2
BYBLOCK
 70
     0
  3

 72
    65
 73
     0
 40
0.0
  0
LTYPE
  5
15
330
5
100
AcDbSymbolTableRecord
100
AcDbLinetypeTableRecord
  2
BYLAYER
 70
     0
  3

 72
    65
 73
     0
 40
0.0
  0
LTYPE
  5
16
330
5
100
AcDbSymbolTableRecord
100
AcDbLinetypeTableRecord
  2
CONTINUOUS
 70
     0
  3
Solid line
 72
    65
 73
     0
 40
0.0
  0
LTYPE
  5
6E
330
5
100
AcDbSymbolTableRecord
100
AcDbLinetypeTableRecord
  2
EXLTYPE0
 70
     0
  3
破線
 72
    65
 73
     2
 40
4.0
 49
3.0
 74
     0
 49
-1.0
 74
     0
  0
LTYPE
  5
6F
330
5
100
AcDbSymbolTableRecord
100
AcDbLinetypeTableRecord
  2
EXLTYPE1
 70
     0
  3
点線
 72
    65
 73
     2
 40
2.0
 49
1.0
 74
     0
 49
-1.0
 74
     0
  0
LTYPE
  5
70
330
5
100
AcDbSymbolTableRecord
100
AcDbLinetypeTableRecord
  2
EXLTYPE2
 70
     0
  3
一点鎖線
 72
    65
 73
     4
 40
13.0
 49
10.0
 74
     0
 49
-1.0
 74
     0
 49
1.0
 74
     0
 49
-1.0
 74
     0
  0
LTYPE
  5
71
330
5
100
AcDbSymbolTableRecord
100
AcDbLinetypeTableRecord
  2
EXLTYPE3
 70
     0
  3
二点鎖線
 72
    65
 73
     6
 40
15.0
 49
10.0
 74
     0
 49
-1.0
 74
     0
 49
1.0
 74
     0
 49
-1.0
 74
     0
 49
1.0
 74
     0
 49
-1.0
 74
     0
  0
LTYPE
  5
72
330
5
100
AcDbSymbolTableRecord
100
AcDbLinetypeTableRecord
  2
EXLTYPE4
 70
     0
  3
一点鎖線2
 72
    65
 73
     4
 40
3.5
 49
2.0
 74
     0
 49
-0.5
 74
     0
 49
0.5
 74
     0
 49
-0.5
 74
     0
  0
LTYPE
  5
73
330
5
100
AcDbSymbolTableRecord
100
AcDbLinetypeTableRecord
  2
EXLTYPE5
 70
     0
  3
二点鎖線2
 72
    65
 73
     6
 40
4.5
 49
2.0
 74
     0
 49
-0.5
 74
     0
 49
0.5
 74
     0
 49
-0.5
 74
     0
 49
0.5
 74
     0
 49
-0.5
 74
     0
  0
ENDTAB
  0
TABLE
  2
LAYER
  5
2
330
0
100
AcDbSymbolTable
 70
     4
  0
LAYER
  5
10
330
2
100
AcDbSymbolTableRecord
100
AcDbLayerTableRecord
  2
0
 70
     0
 62
     7
  6
CONTINUOUS
  0
LAYER
  5
76
330
2
100
AcDbSymbolTableRecord
100
AcDbLayerTableRecord
  2
図面枠
 70
     0
 62
     7
  6
CONTINUOUS
  0
LAYER
  5
77
330
2
100
AcDbSymbolTableRecord
100
AcDbLayerTableRecord
  2
Ｓ_１_１
 70
     0
 62
     7
  6
CONTINUOUS
  0
LAYER
  5
4EA
330
2
100
AcDbSymbolTableRecord
100
AcDbLayerTableRecord
  2
DEFPOINTS
 70
     0
 62
     7
  6
CONTINUOUS
  0
ENDTAB
  0
TABLE
  2
STYLE
  5
3
330
0
100
AcDbSymbolTable
 70
     5
  0
STYLE
  5
11
330
3
100
AcDbSymbolTableRecord
100
AcDbTextStyleTableRecord
  2
STANDARD
 70
     0
 40
0.0
 41
1.0
 50
0.0
 71
     0
 42
2.5
  3
monotxt
  4
extfont
  0
STYLE
  5
74
330
3
100
AcDbSymbolTableRecord
100
AcDbTextStyleTableRecord
  2
EXCADSTD
 70
     0
 40
0.0
 41
1.0
 50
0.0
 71
     0
 42
2.5
  3
monotxt
  4
extfont
  0
STYLE
  5
75
330
3
100
AcDbSymbolTableRecord
100
AcDbTextStyleTableRecord
  2
EXCADVERT
 70
     4
 40
0.0
 41
1.0
 50
0.0
 71
     0
 42
2.5
  3
monotxt
  4
extfont
  0
STYLE
  5
DB
330
3
100
AcDbSymbolTableRecord
100
AcDbTextStyleTableRecord
  2
EXCADTTF1
 70
     0
 40
0.0
 41
1.0
 50
0.0
 71
     0
 42
2.5
  3
msgothic.ttc
  4

1001
ACAD
1000
MS Gothic
1071
    32817
  0
STYLE
  5
4E8
330
3
100
AcDbSymbolTableRecord
100
AcDbTextStyleTableRecord
  2
EXCADDIM1
 70
     0
 40
0.0
 41
1.0
 50
0.0
 71
     0
 42
2.5
  3
msgothic.ttc
  4

1001
ACAD
1000
MS Gothic
1071
    32817
  0
ENDTAB
  0
TABLE
  2
VIEW
  5
6
330
0
100
AcDbSymbolTable
 70
     0
  0
ENDTAB
  0
TABLE
  2
UCS
  5
7
330
0
100
AcDbSymbolTable
 70
     0
  0
ENDTAB
  0
TABLE
  2
APPID
  5
9
330
0
100
AcDbSymbolTable
 70
     2
  0
APPID
  5
12
330
9
100
AcDbSymbolTableRecord
100
AcDbRegAppTableRecord
  2
ACAD
 70
     0
  0
APPID
  5
605
330
9
100
AcDbSymbolTableRecord
100
AcDbRegAppTableRecord
  2
ACAD_MLEADERVER
 70
     0
  0
ENDTAB
  0
TABLE
  2
DIMSTYLE
  5
A
330
0
100
AcDbSymbolTable
 70
     1
  0
DIMSTYLE
105
27
102
{ACAD_REACTORS
330
4E9
330
4F5
330
501
330
50D
330
51B
330
527
330
533
330
540
330
54D
330
55A
330
567
330
574
330
581
102
}
330
A
100
AcDbSymbolTableRecord
100
AcDbDimStyleTableRecord
  2
ISO-25
 70
     0
  3

  4

  5

  6

  7

 40
1.0
 41
2.5
 42
0.625
 43
3.75
 44
1.25
 45
0.0
 46
0.0
 47
0.0
 48
0.0
140
2.5
141
2.5
142
0.0
143
0.03937007874016
144
1.0
145
0.0
146
1.0
147
0.625
 71
     0
 72
     0
 73
     0
 74
     0
 75
     0
 76
     0
 77
     1
 78
     8
170
     0
171
     3
172
     1
173
     0
174
     0
175
     0
176
     0
177
     0
178
     0
270
     2
271
     2
272
     2
273
     2
274
     3
340
11
275
     0
280
     0
281
     0
282
     0
283
     0
284
     8
285
     0
286
     0
287
     5
288
     0
  0
ENDTAB
  0
TABLE
  2
BLOCK_RECORD
  5
1
330
0
100
AcDbSymbolTable
 70
    27
  0
BLOCK_RECORD
  5
1F
330
1
100
AcDbSymbolTableRecord
100
AcDbBlockTableRecord
  2
*MODEL_SPACE
  0
BLOCK_RECORD
  5
1B
330
1
100
AcDbSymbolTableRecord
100
AcDbBlockTableRecord
  2
*PAPER_SPACE
  0
BLOCK_RECORD
  5
78
330
1
100
AcDbSymbolTableRecord
100
AcDbBlockTableRecord
  2
EX_NORM
  0
BLOCK_RECORD
  5
7B
330
1
100
AcDbSymbolTableRecord
100
AcDbBlockTableRecord
  2
EX_BNORM
  0
BLOCK_RECORD
  5
7E
330
1
100
AcDbSymbolTableRecord
100
AcDbBlockTableRecord
  2
EX_BCIR
  0
BLOCK_RECORD
  5
81
330
1
100
AcDbSymbolTableRecord
100
AcDbBlockTableRecord
  2
EX_RCIVIL
  0
BLOCK_RECORD
  5
84
330
1
100
AcDbSymbolTableRecord
100
AcDbBlockTableRecord
  2
EX_SLANT
  0
BLOCK_RECORD
  5
87
330
1
100
AcDbSymbolTableRecord
100
AcDbBlockTableRecord
  2
EX_NONE
  0
BLOCK_RECORD
  5
8A
330
1
100
AcDbSymbolTableRecord
100
AcDbBlockTableRecord
  2
EX_CIVIL
  0
BLOCK_RECORD
  5
8D
330
1
100
AcDbSymbolTableRecord
100
AcDbBlockTableRecord
  2
EX_WCIR
  0
BLOCK_RECORD
  5
90
330
1
100
AcDbSymbolTableRecord
100
AcDbBlockTableRecord
  2
EX_WCIR2
  0
BLOCK_RECORD
  5
93
330
1
100
AcDbSymbolTableRecord
100
AcDbBlockTableRecord
  2
EX_WNORM
  0
BLOCK_RECORD
  5
96
330
1
100
AcDbSymbolTableRecord
100
AcDbBlockTableRecord
  2
EX_NNORM
  0
BLOCK_RECORD
  5
99
330
1
100
AcDbSymbolTableRecord
100
AcDbBlockTableRecord
  2
EX_BBOX
  0
BLOCK_RECORD
  5
9C
330
1
100
AcDbSymbolTableRecord
100
AcDbBlockTableRecord
  2
EX_WBOX
  0
BLOCK_RECORD
  5
9F
330
1
100
AcDbSymbolTableRecord
100
AcDbBlockTableRecord
  2
EX_INTEGRAL
  0
BLOCK_RECORD
  5
4EB
330
1
100
AcDbSymbolTableRecord
100
AcDbBlockTableRecord
  2
*D15
  0
BLOCK_RECORD
  5
4F6
330
1
100
AcDbSymbolTableRecord
100
AcDbBlockTableRecord
  2
*D16
  0
BLOCK_RECORD
  5
502
330
1
100
AcDbSymbolTableRecord
100
AcDbBlockTableRecord
  2
*D17
  0
BLOCK_RECORD
  5
50E
330
1
100
AcDbSymbolTableRecord
100
AcDbBlockTableRecord
  2
*D18
  0
BLOCK_RECORD
  5
51C
330
1
100
AcDbSymbolTableRecord
100
AcDbBlockTableRecord
  2
*D19
  0
BLOCK_RECORD
  5
528
330
1
100
AcDbSymbolTableRecord
100
AcDbBlockTableRecord
  2
*D20
  0
BLOCK_RECORD
  5
534
330
1
100
AcDbSymbolTableRecord
100
AcDbBlockTableRecord
  2
*D21
  0
BLOCK_RECORD
  5
541
330
1
100
AcDbSymbolTableRecord
100
AcDbBlockTableRecord
  2
*D22
  0
BLOCK_RECORD
  5
54E
330
1
100
AcDbSymbolTableRecord
100
AcDbBlockTableRecord
  2
*D23
  0
BLOCK_RECORD
  5
55B
330
1
100
AcDbSymbolTableRecord
100
AcDbBlockTableRecord
  2
*D24
  0
BLOCK_RECORD
  5
568
330
1
100
AcDbSymbolTableRecord
100
AcDbBlockTableRecord
  2
*D25
  0
BLOCK_RECORD
  5
575
330
1
100
AcDbSymbolTableRecord
100
AcDbBlockTableRecord
  2
*D26
  0
BLOCK_RECORD
  5
582
330
1
100
AcDbSymbolTableRecord
100
AcDbBlockTableRecord
  2
*D27
  0
ENDTAB
  0
ENDSEC
  0
SECTION
  2
BLOCKS
  0
BLOCK
  5
20
330
1F
100
AcDbEntity
  8
0
100
AcDbBlockBegin
  2
*MODEL_SPACE
 70
     0
 10
0.0
 20
0.0
 30
0.0
  3
*MODEL_SPACE
  1

  0
ENDBLK
  5
21
330
1F
100
AcDbEntity
  8
0
100
AcDbBlockEnd
  0
BLOCK
  5
1C
330
1B
100
AcDbEntity
 67
     1
  8
0
100
AcDbBlockBegin
  2
*PAPER_SPACE
 70
     0
 10
0.0
 20
0.0
 30
0.0
  3
*PAPER_SPACE
  1

  0
ENDBLK
  5
1D
330
1B
100
AcDbEntity
 67
     1
  8
0
100
AcDbBlockEnd
  0
BLOCK
  5
79
330
78
100
AcDbEntity
  8
0
100
AcDbBlockBegin
  2
EX_NORM
 70
     0
 10
0.0
 20
0.0
 30
0.0
  3
EX_NORM
  1

  0
LINE
  5
A2
330
78
100
AcDbEntity
  8
0
  6
CONTINUOUS
 62
     0
100
AcDbLine
 10
0.0
 20
0.0
 30
0.0
 11
-1.0
 21
0.0
 31
0.0
  0
LINE
  5
A3
330
78
100
AcDbEntity
  8
0
  6
CONTINUOUS
 62
     0
100
AcDbLine
 10
0.0
 20
0.0
 30
0.0
 11
-1.0
 21
0.166666667
 31
0.0
  0
LINE
  5
A4
330
78
100
AcDbEntity
  8
0
  6
CONTINUOUS
 62
     0
100
AcDbLine
 10
0.0
 20
0.0
 30
0.0
 11
-1.0
 21
-0.166666667
 31
0.0
  0
ENDBLK
  5
7A
330
78
100
AcDbEntity
  8
0
100
AcDbBlockEnd
  0
BLOCK
  5
7C
330
7B
100
AcDbEntity
  8
0
100
AcDbBlockBegin
  2
EX_BNORM
 70
     0
 10
0.0
 20
0.0
 30
0.0
  3
EX_BNORM
  1

  0
LINE
  5
A5
330
7B
100
AcDbEntity
  8
0
  6
CONTINUOUS
 62
     0
100
AcDbLine
 10
0.0
 20
0.0
 30
0.0
 11
-1.0
 21
0.0
 31
0.0
  0
LINE
  5
A6
330
7B
100
AcDbEntity
  8
0
  6
CONTINUOUS
 62
     0
100
AcDbLine
 10
0.0
 20
0.0
 30
0.0
 11
-1.0
 21
0.166666667
 31
0.0
  0
LINE
  5
A7
330
7B
100
AcDbEntity
  8
0
  6
CONTINUOUS
 62
     0
100
AcDbLine
 10
0.0
 20
0.0
 30
0.0
 11
-1.0
 21
-0.166666667
 31
0.0
  0
LINE
  5
A8
330
7B
100
AcDbEntity
  8
0
  6
CONTINUOUS
 62
     0
100
AcDbLine
 10
0.0
 20
0.0
 30
0.0
 11
-1.0
 21
0.083333333
 31
0.0
  0
LINE
  5
A9
330
7B
100
AcDbEntity
  8
0
  6
CONTINUOUS
 62
     0
100
AcDbLine
 10
0.0
 20
0.0
 30
0.0
 11
-1.0
 21
-0.083333333
 31
0.0
  0
LINE
  5
AA
330
7B
100
AcDbEntity
  8
0
  6
CONTINUOUS
 62
     0
100
AcDbLine
 10
-1.0
 20
0.166666667
 30
0.0
 11
-1.0
 21
-0.166666667
 31
0.0
  0
ENDBLK
  5
7D
330
7B
100
AcDbEntity
  8
0
100
AcDbBlockEnd
  0
BLOCK
  5
7F
330
7E
100
AcDbEntity
  8
0
100
AcDbBlockBegin
  2
EX_BCIR
 70
     0
 10
0.0
 20
0.0
 30
0.0
  3
EX_BCIR
  1

  0
LINE
  5
AB
330
7E
100
AcDbEntity
  8
0
  6
CONTINUOUS
 62
     0
100
AcDbLine
 10
0.0
 20
0.0
 30
0.0
 11
-1.0
 21
0.0
 31
0.0
  0
CIRCLE
  5
AC
330
7E
100
AcDbEntity
  8
0
  6
CONTINUOUS
 62
     0
100
AcDbCircle
 10
0.0
 20
0.0
 30
0.0
 40
0.5
  0
CIRCLE
  5
AD
330
7E
100
AcDbEntity
  8
0
  6
CONTINUOUS
 62
     0
100
AcDbCircle
 10
0.0
 20
0.0
 30
0.0
 40
0.25
  0
ENDBLK
  5
80
330
7E
100
AcDbEntity
  8
0
100
AcDbBlockEnd
  0
BLOCK
  5
82
330
81
100
AcDbEntity
  8
0
100
AcDbBlockBegin
  2
EX_RCIVIL
 70
     0
 10
0.0
 20
0.0
 30
0.0
  3
EX_RCIVIL
  1

  0
LINE
  5
AE
330
81
100
AcDbEntity
  8
0
  6
CONTINUOUS
 62
     0
100
AcDbLine
 10
0.0
 20
0.0
 30
0.0
 11
-1.0
 21
0.0
 31
0.0
  0
LINE
  5
AF
330
81
100
AcDbEntity
  8
0
  6
CONTINUOUS
 62
     0
100
AcDbLine
 10
-1.0
 20
-0.25
 30
0.0
 11
0.0
 21
-0.25
 31
0.0
  0
LINE
  5
B0
330
81
100
AcDbEntity
  8
0
  6
CONTINUOUS
 62
     0
100
AcDbLine
 10
-1.0
 20
-0.125
 30
0.0
 11
0.0
 21
-0.125
 31
0.0
  0
ENDBLK
  5
83
330
81
100
AcDbEntity
  8
0
100
AcDbBlockEnd
  0
BLOCK
  5
85
330
84
100
AcDbEntity
  8
0
100
AcDbBlockBegin
  2
EX_SLANT
 70
     0
 10
0.0
 20
0.0
 30
0.0
  3
EX_SLANT
  1

  0
LINE
  5
B1
330
84
100
AcDbEntity
  8
0
  6
CONTINUOUS
 62
     0
100
AcDbLine
 10
0.0
 20
0.0
 30
0.0
 11
-1.0
 21
0.0
 31
0.0
  0
LINE
  5
B2
330
84
100
AcDbEntity
  8
0
  6
CONTINUOUS
 62
     0
100
AcDbLine
 10
0.707106781
 20
0.707106781
 30
0.0
 11
-0.707106781
 21
-0.707106781
 31
0.0
  0
ENDBLK
  5
86
330
84
100
AcDbEntity
  8
0
100
AcDbBlockEnd
  0
BLOCK
  5
88
330
87
100
AcDbEntity
  8
0
100
AcDbBlockBegin
  2
EX_NONE
 70
     0
 10
0.0
 20
0.0
 30
0.0
  3
EX_NONE
  1

  0
LINE
  5
B3
330
87
100
AcDbEntity
  8
0
  6
CONTINUOUS
 62
     0
100
AcDbLine
 10
0.0
 20
0.0
 30
0.0
 11
-1.0
 21
0.0
 31
0.0
  0
ENDBLK
  5
89
330
87
100
AcDbEntity
  8
0
100
AcDbBlockEnd
  0
BLOCK
  5
8B
330
8A
100
AcDbEntity
  8
0
100
AcDbBlockBegin
  2
EX_CIVIL
 70
     0
 10
0.0
 20
0.0
 30
0.0
  3
EX_CIVIL
  1

  0
LINE
  5
B4
330
8A
100
AcDbEntity
  8
0
  6
CONTINUOUS
 62
     0
100
AcDbLine
 10
0.0
 20
0.0
 30
0.0
 11
-1.0
 21
0.0
 31
0.0
  0
LINE
  5
B5
330
8A
100
AcDbEntity
  8
0
  6
CONTINUOUS
 62
     0
100
AcDbLine
 10
-1.0
 20
0.25
 30
0.0
 11
0.0
 21
0.25
 31
0.0
  0
LINE
  5
B6
330
8A
100
AcDbEntity
  8
0
  6
CONTINUOUS
 62
     0
100
AcDbLine
 10
-1.0
 20
0.125
 30
0.0
 11
0.0
 21
0.125
 31
0.0
  0
ENDBLK
  5
8C
330
8A
100
AcDbEntity
  8
0
100
AcDbBlockEnd
  0
BLOCK
  5
8E
330
8D
100
AcDbEntity
  8
0
100
AcDbBlockBegin
  2
EX_WCIR
 70
     0
 10
0.0
 20
0.0
 30
0.0
  3
EX_WCIR
  1

  0
LINE
  5
B7
330
8D
100
AcDbEntity
  8
0
  6
CONTINUOUS
 62
     0
100
AcDbLine
 10
0.0
 20
0.0
 30
0.0
 11
-1.0
 21
0.0
 31
0.0
  0
CIRCLE
  5
B8
330
8D
100
AcDbEntity
  8
0
  6
CONTINUOUS
 62
     0
100
AcDbCircle
 10
0.0
 20
0.0
 30
0.0
 40
0.5
  0
ENDBLK
  5
8F
330
8D
100
AcDbEntity
  8
0
100
AcDbBlockEnd
  0
BLOCK
  5
91
330
90
100
AcDbEntity
  8
0
100
AcDbBlockBegin
  2
EX_WCIR2
 70
     0
 10
0.0
 20
0.0
 30
0.0
  3
EX_WCIR2
  1

  0
LINE
  5
B9
330
90
100
AcDbEntity
  8
0
  6
CONTINUOUS
 62
     0
100
AcDbLine
 10
-0.5
 20
0.0
 30
0.0
 11
-1.0
 21
0.0
 31
0.0
  0
CIRCLE
  5
BA
330
90
100
AcDbEntity
  8
0
  6
CONTINUOUS
 62
     0
100
AcDbCircle
 10
0.0
 20
0.0
 30
0.0
 40
0.5
  0
ENDBLK
  5
92
330
90
100
AcDbEntity
  8
0
100
AcDbBlockEnd
  0
BLOCK
  5
94
330
93
100
AcDbEntity
  8
0
100
AcDbBlockBegin
  2
EX_WNORM
 70
     0
 10
0.0
 20
0.0
 30
0.0
  3
EX_WNORM
  1

  0
LINE
  5
BB
330
93
100
AcDbEntity
  8
0
  6
CONTINUOUS
 62
     0
100
AcDbLine
 10
-1.0
 20
0.0
 30
0.0
 11
-1.0
 21
0.0
 31
0.0
  0
LINE
  5
BC
330
93
100
AcDbEntity
  8
0
  6
CONTINUOUS
 62
     0
100
AcDbLine
 10
0.0
 20
0.0
 30
0.0
 11
-1.0
 21
0.166666667
 31
0.0
  0
LINE
  5
BD
330
93
100
AcDbEntity
  8
0
  6
CONTINUOUS
 62
     0
100
AcDbLine
 10
0.0
 20
0.0
 30
0.0
 11
-1.0
 21
-0.166666667
 31
0.0
  0
LINE
  5
BE
330
93
100
AcDbEntity
  8
0
  6
CONTINUOUS
 62
     0
100
AcDbLine
 10
-1.0
 20
0.166666667
 30
0.0
 11
-1.0
 21
-0.166666667
 31
0.0
  0
ENDBLK
  5
95
330
93
100
AcDbEntity
  8
0
100
AcDbBlockEnd
  0
BLOCK
  5
97
330
96
100
AcDbEntity
  8
0
100
AcDbBlockBegin
  2
EX_NNORM
 70
     0
 10
0.0
 20
0.0
 30
0.0
  3
EX_NNORM
  1

  0
LINE
  5
BF
330
96
100
AcDbEntity
  8
0
  6
CONTINUOUS
 62
     0
100
AcDbLine
 10
0.0
 20
0.0
 30
0.0
 11
-1.0
 21
0.0
 31
0.0
  0
LINE
  5
C0
330
96
100
AcDbEntity
  8
0
  6
CONTINUOUS
 62
     0
100
AcDbLine
 10
0.0
 20
0.0
 30
0.0
 11
-1.0
 21
0.166666667
 31
0.0
  0
LINE
  5
C1
330
96
100
AcDbEntity
  8
0
  6
CONTINUOUS
 62
     0
100
AcDbLine
 10
0.0
 20
0.0
 30
0.0
 11
-1.0
 21
-0.166666667
 31
0.0
  0
LINE
  5
C2
330
96
100
AcDbEntity
  8
0
  6
CONTINUOUS
 62
     0
100
AcDbLine
 10
-1.0
 20
0.166666667
 30
0.0
 11
-1.0
 21
-0.166666667
 31
0.0
  0
ENDBLK
  5
98
330
96
100
AcDbEntity
  8
0
100
AcDbBlockEnd
  0
BLOCK
  5
9A
330
99
100
AcDbEntity
  8
0
100
AcDbBlockBegin
  2
EX_BBOX
 70
     0
 10
0.0
 20
0.0
 30
0.0
  3
EX_BBOX
  1

  0
LINE
  5
C3
330
99
100
AcDbEntity
  8
0
  6
CONTINUOUS
 62
     0
100
AcDbLine
 10
0.0
 20
0.0
 30
0.0
 11
-1.0
 21
0.0
 31
0.0
  0
LINE
  5
C4
330
99
100
AcDbEntity
  8
0
  6
CONTINUOUS
 62
     0
100
AcDbLine
 10
-0.5
 20
0.5
 30
0.0
 11
0.5
 21
0.5
 31
0.0
  0
LINE
  5
C5
330
99
100
AcDbEntity
  8
0
  6
CONTINUOUS
 62
     0
100
AcDbLine
 10
0.5
 20
0.5
 30
0.0
 11
0.5
 21
-0.5
 31
0.0
  0
LINE
  5
C6
330
99
100
AcDbEntity
  8
0
  6
CONTINUOUS
 62
     0
100
AcDbLine
 10
0.5
 20
-0.5
 30
0.0
 11
-0.5
 21
-0.5
 31
0.0
  0
LINE
  5
C7
330
99
100
AcDbEntity
  8
0
  6
CONTINUOUS
 62
     0
100
AcDbLine
 10
-0.5
 20
-0.5
 30
0.0
 11
-0.5
 21
0.5
 31
0.0
  0
LINE
  5
C8
330
99
100
AcDbEntity
  8
0
  6
CONTINUOUS
 62
     0
100
AcDbLine
 10
-0.25
 20
0.25
 30
0.0
 11
0.25
 21
0.25
 31
0.0
  0
LINE
  5
C9
330
99
100
AcDbEntity
  8
0
  6
CONTINUOUS
 62
     0
100
AcDbLine
 10
0.25
 20
0.25
 30
0.0
 11
0.25
 21
-0.25
 31
0.0
  0
LINE
  5
CA
330
99
100
AcDbEntity
  8
0
  6
CONTINUOUS
 62
     0
100
AcDbLine
 10
0.25
 20
-0.25
 30
0.0
 11
-0.25
 21
-0.25
 31
0.0
  0
LINE
  5
CB
330
99
100
AcDbEntity
  8
0
  6
CONTINUOUS
 62
     0
100
AcDbLine
 10
-0.25
 20
-0.25
 30
0.0
 11
-0.25
 21
0.25
 31
0.0
  0
ENDBLK
  5
9B
330
99
100
AcDbEntity
  8
0
100
AcDbBlockEnd
  0
BLOCK
  5
9D
330
9C
100
AcDbEntity
  8
0
100
AcDbBlockBegin
  2
EX_WBOX
 70
     0
 10
0.0
 20
0.0
 30
0.0
  3
EX_WBOX
  1

  0
LINE
  5
CC
330
9C
100
AcDbEntity
  8
0
  6
CONTINUOUS
 62
     0
100
AcDbLine
 10
-0.5
 20
0.0
 30
0.0
 11
-1.0
 21
0.0
 31
0.0
  0
LINE
  5
CD
330
9C
100
AcDbEntity
  8
0
  6
CONTINUOUS
 62
     0
100
AcDbLine
 10
-0.5
 20
0.5
 30
0.0
 11
0.5
 21
0.5
 31
0.0
  0
LINE
  5
CE
330
9C
100
AcDbEntity
  8
0
  6
CONTINUOUS
 62
     0
100
AcDbLine
 10
0.5
 20
0.5
 30
0.0
 11
0.5
 21
-0.5
 31
0.0
  0
LINE
  5
CF
330
9C
100
AcDbEntity
  8
0
  6
CONTINUOUS
 62
     0
100
AcDbLine
 10
0.5
 20
-0.5
 30
0.0
 11
-0.5
 21
-0.5
 31
0.0
  0
LINE
  5
D0
330
9C
100
AcDbEntity
  8
0
  6
CONTINUOUS
 62
     0
100
AcDbLine
 10
-0.5
 20
-0.5
 30
0.0
 11
-0.5
 21
0.5
 31
0.0
  0
ENDBLK
  5
9E
330
9C
100
AcDbEntity
  8
0
100
AcDbBlockEnd
  0
BLOCK
  5
A0
330
9F
100
AcDbEntity
  8
0
100
AcDbBlockBegin
  2
EX_INTEGRAL
 70
     0
 10
0.0
 20
0.0
 30
0.0
  3
EX_INTEGRAL
  1

  0
LINE
  5
D1
330
9F
100
AcDbEntity
  8
0
  6
CONTINUOUS
 62
     0
100
AcDbLine
 10
0.0
 20
0.0
 30
0.0
 11
-1.0
 21
0.0
 31
0.0
  0
ARC
  5
D2
330
9F
100
AcDbEntity
  8
0
  6
CONTINUOUS
 62
     0
100
AcDbCircle
 10
0.542115
 20
0.164992
 30
0.0
 40
0.56667
100
AcDbArc
 50
73.07249033629006
 51
196.9275130221199
  0
ARC
  5
D3
330
9F
100
AcDbEntity
  8
0
  6
CONTINUOUS
 62
     0
100
AcDbCircle
 10
-0.542115
 20
-0.164992
 30
0.0
 40
0.56667
100
AcDbArc
 50
253.0724869220464
 51
16.9275130559125
  0
ENDBLK
  5
A1
330
9F
100
AcDbEntity
  8
0
100
AcDbBlockEnd
  0
BLOCK
  5
4EC
330
4EB
100
AcDbEntity
  8
0
100
AcDbBlockBegin
  2
*D15
 70
     1
 10
0.0
 20
0.0
 30
0.0
  3
*D15
  1

  0
LINE
  5
4EE
330
4EB
100
AcDbEntity
  8
Ｓ_１_１
  6
CONTINUOUS
 62
     2
100
AcDbLine
 10
884.999947
 20
2220.0
 30
0.0
 11
1019.999944
 21
2220.0
 31
0.0
  0
INSERT
  5
4EF
330
4EB
100
AcDbEntity
  8
Ｓ_１_１
 62
     2
100
AcDbBlockReference
  2
EX_NORM
 10
854.999947
 20
2220.0
 30
0.0
 41
30.0
 42
30.0
 43
30.0
 50
180.0
  0
INSERT
  5
4F0
330
4EB
100
AcDbEntity
  8
Ｓ_１_１
 62
     2
100
AcDbBlockReference
  2
EX_NORM
 10
1049.999944
 20
2220.0
 30
0.0
 41
30.0
 42
30.0
 43
30.0
  0
MTEXT
  5
4F1
330
4EB
100
AcDbEntity
  8
Ｓ_１_１
 62
     2
100
AcDbMText
 10
952.4999455000001
 20
2247.5
 30
0.0
 40
34.6290415704388
 41
0.0
 71
     5
 72
     1
  1
195
  7
EXCADDIM1
  0
POINT
  5
4F2
330
4EB
100
AcDbEntity
  8
DEFPOINTS
 62
     0
100
AcDbPoint
 10
854.999947
 20
1784.999911
 30
0.0
  0
POINT
  5
4F3
330
4EB
100
AcDbEntity
  8
DEFPOINTS
 62
     0
100
AcDbPoint
 10
1049.999944
 20
1862.499998
 30
0.0
  0
POINT
  5
4F4
330
4EB
100
AcDbEntity
  8
DEFPOINTS
 62
     0
100
AcDbPoint
 10
1049.999944
 20
2220.0
 30
0.0
  0
ENDBLK
  5
4ED
330
4EB
100
AcDbEntity
  8
0
100
AcDbBlockEnd
  0
BLOCK
  5
4F7
330
4F6
100
AcDbEntity
  8
0
100
AcDbBlockBegin
  2
*D16
 70
     1
 10
0.0
 20
0.0
 30
0.0
  3
*D16
  1

  0
LINE
  5
4F9
330
4F6
100
AcDbEntity
  8
Ｓ_１_１
  6
CONTINUOUS
 62
     2
100
AcDbLine
 10
1049.999944
 20
1877.499998
 30
0.0
 11
1049.999944
 21
2230.0
 31
0.0
  0
LINE
  5
4FA
330
4F6
100
AcDbEntity
  8
Ｓ_１_１
  6
CONTINUOUS
 62
     2
100
AcDbLine
 10
1079.999944
 20
2220.0
 30
0.0
 11
1494.999942
 21
2220.0
 31
0.0
  0
INSERT
  5
4FB
330
4F6
100
AcDbEntity
  8
Ｓ_１_１
 62
     2
100
AcDbBlockReference
  2
EX_NORM
 10
1049.999944
 20
2220.0
 30
0.0
 41
30.0
 42
30.0
 43
30.0
 50
180.0
  0
INSERT
  5
4FC
330
4F6
100
AcDbEntity
  8
Ｓ_１_１
 62
     2
100
AcDbBlockReference
  2
EX_NORM
 10
1524.999942
 20
2220.0
 30
0.0
 41
30.0
 42
30.0
 43
30.0
  0
MTEXT
  5
4FD
330
4F6
100
AcDbEntity
  8
Ｓ_１_１
 62
     2
100
AcDbMText
 10
1287.499943
 20
2247.5
 30
0.0
 40
34.6290415704388
 41
0.0
 71
     5
 72
     1
  1
475
  7
EXCADDIM1
  0
POINT
  5
4FE
330
4F6
100
AcDbEntity
  8
DEFPOINTS
 62
     0
100
AcDbPoint
 10
1049.999944
 20
1862.499998
 30
0.0
  0
POINT
  5
4FF
330
4F6
100
AcDbEntity
  8
DEFPOINTS
 62
     0
100
AcDbPoint
 10
1524.999942
 20
1865.000021
 30
0.0
  0
POINT
  5
500
330
4F6
100
AcDbEntity
  8
DEFPOINTS
 62
     0
100
AcDbPoint
 10
1524.999942
 20
2220.0
 30
0.0
  0
ENDBLK
  5
4F8
330
4F6
100
AcDbEntity
  8
0
100
AcDbBlockEnd
  0
BLOCK
  5
503
330
502
100
AcDbEntity
  8
0
100
AcDbBlockBegin
  2
*D17
 70
     1
 10
0.0
 20
0.0
 30
0.0
  3
*D17
  1

  0
LINE
  5
505
330
502
100
AcDbEntity
  8
Ｓ_１_１
  6
CONTINUOUS
 62
     2
100
AcDbLine
 10
1524.999942
 20
1880.000021
 30
0.0
 11
1524.999942
 21
2230.0
 31
0.0
  0
LINE
  5
506
330
502
100
AcDbEntity
  8
Ｓ_１_１
  6
CONTINUOUS
 62
     2
100
AcDbLine
 10
1554.999942
 20
2220.0
 30
0.0
 11
1626.999928
 21
2220.0
 31
0.0
  0
INSERT
  5
507
330
502
100
AcDbEntity
  8
Ｓ_１_１
 62
     2
100
AcDbBlockReference
  2
EX_NORM
 10
1524.999942
 20
2220.0
 30
0.0
 41
30.0
 42
30.0
 43
30.0
 50
180.0
  0
INSERT
  5
508
330
502
100
AcDbEntity
  8
Ｓ_１_１
 62
     2
100
AcDbBlockReference
  2
EX_NORM
 10
1656.999928
 20
2220.0
 30
0.0
 41
30.0
 42
30.0
 43
30.0
  0
MTEXT
  5
509
330
502
100
AcDbEntity
  8
Ｓ_１_１
 62
     2
100
AcDbMText
 10
1590.999935
 20
2247.5
 30
0.0
 40
34.6290415704388
 41
0.0
 71
     5
 72
     1
  1
132
  7
EXCADDIM1
  0
POINT
  5
50A
330
502
100
AcDbEntity
  8
DEFPOINTS
 62
     0
100
AcDbPoint
 10
1524.999942
 20
1865.000021
 30
0.0
  0
POINT
  5
50B
330
502
100
AcDbEntity
  8
DEFPOINTS
 62
     0
100
AcDbPoint
 10
1656.999928
 20
2029.999996
 30
0.0
  0
POINT
  5
50C
330
502
100
AcDbEntity
  8
DEFPOINTS
 62
     0
100
AcDbPoint
 10
1656.999928
 20
2220.0
 30
0.0
  0
ENDBLK
  5
504
330
502
100
AcDbEntity
  8
0
100
AcDbBlockEnd
  0
BLOCK
  5
50F
330
50E
100
AcDbEntity
  8
0
100
AcDbBlockBegin
  2
*D18
 70
     1
 10
0.0
 20
0.0
 30
0.0
  3
*D18
  1

  0
LINE
  5
511
330
50E
100
AcDbEntity
  8
Ｓ_１_１
  6
CONTINUOUS
 62
     2
100
AcDbLine
 10
1656.999927999999
 20
2044.999996
 30
0.0
 11
1656.999927999999
 21
2230.0
 31
0.0
  0
LINE
  5
512
330
50E
100
AcDbEntity
  8
Ｓ_１_１
  6
CONTINUOUS
 62
     2
100
AcDbLine
 10
1656.999927999999
 20
2220.0
 30
0.0
 11
1706.999923
 21
2220.0
 31
0.0
  0
LINE
  5
513
330
50E
100
AcDbEntity
  8
Ｓ_１_１
  6
CONTINUOUS
 62
     2
100
AcDbLine
 10
1626.999927999999
 20
2220.0
 30
0.0
 11
1596.999927999999
 21
2220.0
 31
0.0
  0
LINE
  5
514
330
50E
100
AcDbEntity
  8
Ｓ_１_１
  6
CONTINUOUS
 62
     2
100
AcDbLine
 10
1736.999923
 20
2220.0
 30
0.0
 11
1766.999923
 21
2220.0
 31
0.0
  0
INSERT
  5
515
330
50E
100
AcDbEntity
  8
Ｓ_１_１
 62
     2
100
AcDbBlockReference
  2
EX_NORM
 10
1656.999927999999
 20
2220.0
 30
0.0
 41
30.0
 42
30.0
 43
30.0
  0
INSERT
  5
516
330
50E
100
AcDbEntity
  8
Ｓ_１_１
 62
     2
100
AcDbBlockReference
  2
EX_NORM
 10
1706.999923
 20
2220.0
 30
0.0
 41
30.0
 42
30.0
 43
30.0
 50
180.0
  0
MTEXT
  5
517
330
50E
100
AcDbEntity
  8
Ｓ_１_１
 62
     2
100
AcDbMText
 10
1681.999925499999
 20
2247.5
 30
0.0
 40
34.6290415704388
 41
0.0
 71
     5
 72
     1
  1
50
  7
EXCADDIM1
  0
POINT
  5
518
330
50E
100
AcDbEntity
  8
DEFPOINTS
 62
     0
100
AcDbPoint
 10
1656.999927999999
 20
2029.999996
 30
0.0
  0
POINT
  5
519
330
50E
100
AcDbEntity
  8
DEFPOINTS
 62
     0
100
AcDbPoint
 10
1706.999923
 20
2029.999996
 30
0.0
  0
POINT
  5
51A
330
50E
100
AcDbEntity
  8
DEFPOINTS
 62
     0
100
AcDbPoint
 10
1706.999923
 20
2220.0
 30
0.0
  0
ENDBLK
  5
510
330
50E
100
AcDbEntity
  8
0
100
AcDbBlockEnd
  0
BLOCK
  5
51D
330
51C
100
AcDbEntity
  8
0
100
AcDbBlockBegin
  2
*D19
 70
     1
 10
0.0
 20
0.0
 30
0.0
  3
*D19
  1

  0
LINE
  5
51F
330
51C
100
AcDbEntity
  8
Ｓ_１_１
  6
CONTINUOUS
 62
     2
100
AcDbLine
 10
1706.999923
 20
2044.999996
 30
0.0
 11
1706.999923
 21
2230.0
 31
0.0
  0
LINE
  5
520
330
51C
100
AcDbEntity
  8
Ｓ_１_１
  6
CONTINUOUS
 62
     2
100
AcDbLine
 10
1736.999923
 20
2220.0
 30
0.0
 11
2157.000011
 21
2220.0
 31
0.0
  0
INSERT
  5
521
330
51C
100
AcDbEntity
  8
Ｓ_１_１
 62
     2
100
AcDbBlockReference
  2
EX_NORM
 10
1706.999923
 20
2220.0
 30
0.0
 41
30.0
 42
30.0
 43
30.0
 50
180.0
  0
INSERT
  5
522
330
51C
100
AcDbEntity
  8
Ｓ_１_１
 62
     2
100
AcDbBlockReference
  2
EX_NORM
 10
2187.000011
 20
2220.0
 30
0.0
 41
30.0
 42
30.0
 43
30.0
  0
MTEXT
  5
523
330
51C
100
AcDbEntity
  8
Ｓ_１_１
 62
     2
100
AcDbMText
 10
1946.999967
 20
2247.5
 30
0.0
 40
34.6290415704388
 41
0.0
 71
     5
 72
     1
  1
480
  7
EXCADDIM1
  0
POINT
  5
524
330
51C
100
AcDbEntity
  8
DEFPOINTS
 62
     0
100
AcDbPoint
 10
1706.999923
 20
2029.999996
 30
0.0
  0
POINT
  5
525
330
51C
100
AcDbEntity
  8
DEFPOINTS
 62
     0
100
AcDbPoint
 10
2187.000011
 20
1907.9998000001
 30
0.0
  0
POINT
  5
526
330
51C
100
AcDbEntity
  8
DEFPOINTS
 62
     0
100
AcDbPoint
 10
2187.000011
 20
2220.0
 30
0.0
  0
ENDBLK
  5
51E
330
51C
100
AcDbEntity
  8
0
100
AcDbBlockEnd
  0
BLOCK
  5
529
330
528
100
AcDbEntity
  8
0
100
AcDbBlockBegin
  2
*D20
 70
     1
 10
0.0
 20
0.0
 30
0.0
  3
*D20
  1

  0
LINE
  5
52B
330
528
100
AcDbEntity
  8
Ｓ_１_１
  6
CONTINUOUS
 62
     2
100
AcDbLine
 10
2187.000011
 20
1922.9998000001
 30
0.0
 11
2187.000011
 21
2230.0
 31
0.0
  0
LINE
  5
52C
330
528
100
AcDbEntity
  8
Ｓ_１_１
  6
CONTINUOUS
 62
     2
100
AcDbLine
 10
2217.000011
 20
2220.0
 30
0.0
 11
2370.0
 21
2220.0
 31
0.0
  0
INSERT
  5
52D
330
528
100
AcDbEntity
  8
Ｓ_１_１
 62
     2
100
AcDbBlockReference
  2
EX_NORM
 10
2187.000011
 20
2220.0
 30
0.0
 41
30.0
 42
30.0
 43
30.0
 50
180.0
  0
INSERT
  5
52E
330
528
100
AcDbEntity
  8
Ｓ_１_１
 62
     2
100
AcDbBlockReference
  2
EX_NORM
 10
2400.0
 20
2220.0
 30
0.0
 41
30.0
 42
30.0
 43
30.0
  0
MTEXT
  5
52F
330
528
100
AcDbEntity
  8
Ｓ_１_１
 62
     2
100
AcDbMText
 10
2293.5000055
 20
2247.5
 30
0.0
 40
34.6290415704388
 41
0.0
 71
     5
 72
     1
  1
213
  7
EXCADDIM1
  0
POINT
  5
530
330
528
100
AcDbEntity
  8
DEFPOINTS
 62
     0
100
AcDbPoint
 10
2187.000011
 20
1907.9998000001
 30
0.0
  0
POINT
  5
531
330
528
100
AcDbEntity
  8
DEFPOINTS
 62
     0
100
AcDbPoint
 10
2400.0
 20
1962.999918
 30
0.0
  0
POINT
  5
532
330
528
100
AcDbEntity
  8
DEFPOINTS
 62
     0
100
AcDbPoint
 10
2400.0
 20
2220.0
 30
0.0
  0
ENDBLK
  5
52A
330
528
100
AcDbEntity
  8
0
100
AcDbBlockEnd
  0
BLOCK
  5
535
330
534
100
AcDbEntity
  8
0
100
AcDbBlockBegin
  2
*D21
 70
     1
 10
0.0
 20
0.0
 30
0.0
  3
*D21
  1

  0
LINE
  5
537
330
534
100
AcDbEntity
  8
Ｓ_１_１
  6
CONTINUOUS
 62
     2
100
AcDbLine
 10
2400.0
 20
1977.999918
 30
0.0
 11
2400.0
 21
2290.0
 31
0.0
  0
LINE
  5
538
330
534
100
AcDbEntity
  8
Ｓ_１_１
  6
CONTINUOUS
 62
     2
100
AcDbLine
 10
854.999947
 20
1799.999911
 30
0.0
 11
854.999947
 21
2290.0
 31
0.0
  0
LINE
  5
539
330
534
100
AcDbEntity
  8
Ｓ_１_１
  6
CONTINUOUS
 62
     2
100
AcDbLine
 10
2370.0
 20
2280.0
 30
0.0
 11
884.999947
 21
2280.0
 31
0.0
  0
INSERT
  5
53A
330
534
100
AcDbEntity
  8
Ｓ_１_１
 62
     2
100
AcDbBlockReference
  2
EX_NORM
 10
2400.0
 20
2280.0
 30
0.0
 41
30.0
 42
30.0
 43
30.0
  0
INSERT
  5
53B
330
534
100
AcDbEntity
  8
Ｓ_１_１
 62
     2
100
AcDbBlockReference
  2
EX_NORM
 10
854.999947
 20
2280.0
 30
0.0
 41
30.0
 42
30.0
 43
30.0
 50
180.0
  0
MTEXT
  5
53C
330
534
100
AcDbEntity
  8
Ｓ_１_１
 62
     2
100
AcDbMText
 10
1627.4999735
 20
2307.5
 30
0.0
 40
34.6290415704388
 41
0.0
 71
     5
 72
     1
  1
1545
  7
EXCADDIM1
  0
POINT
  5
53D
330
534
100
AcDbEntity
  8
DEFPOINTS
 62
     0
100
AcDbPoint
 10
2400.0
 20
1962.999918
 30
0.0
  0
POINT
  5
53E
330
534
100
AcDbEntity
  8
DEFPOINTS
 62
     0
100
AcDbPoint
 10
854.999947
 20
1784.999911
 30
0.0
  0
POINT
  5
53F
330
534
100
AcDbEntity
  8
DEFPOINTS
 62
     0
100
AcDbPoint
 10
854.999947
 20
2280.0
 30
0.0
  0
ENDBLK
  5
536
330
534
100
AcDbEntity
  8
0
100
AcDbBlockEnd
  0
BLOCK
  5
542
330
541
100
AcDbEntity
  8
0
100
AcDbBlockBegin
  2
*D22
 70
     1
 10
0.0
 20
0.0
 30
0.0
  3
*D22
  1

  0
LINE
  5
544
330
541
100
AcDbEntity
  8
Ｓ_１_１
  6
CONTINUOUS
 62
     2
100
AcDbLine
 10
849.9999649999995
 20
1685.000147
 30
0.0
 11
710.0
 21
1685.000147
 31
0.0
  0
LINE
  5
545
330
541
100
AcDbEntity
  8
Ｓ_１_１
  6
CONTINUOUS
 62
     2
100
AcDbLine
 10
849.9999329999995
 20
1795.000011999999
 30
0.0
 11
710.0
 21
1795.000011999999
 31
0.0
  0
LINE
  5
546
330
541
100
AcDbEntity
  8
Ｓ_１_１
  6
CONTINUOUS
 62
     2
100
AcDbLine
 10
720.0
 20
1715.000147
 30
0.0
 11
720.0
 21
1765.000011999999
 31
0.0
  0
INSERT
  5
547
330
541
100
AcDbEntity
  8
Ｓ_１_１
 62
     2
100
AcDbBlockReference
  2
EX_NORM
 10
720.0
 20
1685.000147
 30
0.0
 41
30.0
 42
30.0
 43
30.0
 50
270.0
  0
INSERT
  5
548
330
541
100
AcDbEntity
  8
Ｓ_１_１
 62
     2
100
AcDbBlockReference
  2
EX_NORM
 10
720.0
 20
1795.000011999999
 30
0.0
 41
30.0
 42
30.0
 43
30.0
 50
90.0
  0
MTEXT
  5
549
330
541
100
AcDbEntity
  8
Ｓ_１_１
 62
     2
100
AcDbMText
 10
692.5000000000001
 20
1740.000079499999
 30
0.0
 40
34.6290415704388
 41
0.0
 71
     5
 72
     1
  1
%%c110
  7
EXCADDIM1
 11
0.0
 21
1.0
 31
0.0
  0
POINT
  5
54A
330
541
100
AcDbEntity
  8
DEFPOINTS
 62
     0
100
AcDbPoint
 10
864.9999649999995
 20
1685.000147
 30
0.0
  0
POINT
  5
54B
330
541
100
AcDbEntity
  8
DEFPOINTS
 62
     0
100
AcDbPoint
 10
864.9999329999995
 20
1795.000011999999
 30
0.0
  0
POINT
  5
54C
330
541
100
AcDbEntity
  8
DEFPOINTS
 62
     0
100
AcDbPoint
 10
720.0
 20
1795.000011999999
 30
0.0
  0
ENDBLK
  5
543
330
541
100
AcDbEntity
  8
0
100
AcDbBlockEnd
  0
BLOCK
  5
54F
330
54E
100
AcDbEntity
  8
0
100
AcDbBlockBegin
  2
*D23
 70
     1
 10
0.0
 20
0.0
 30
0.0
  3
*D23
  1

  0
LINE
  5
551
330
54E
100
AcDbEntity
  8
Ｓ_１_１
  6
CONTINUOUS
 62
     2
100
AcDbLine
 10
1045.000019999999
 20
1610.000001999999
 30
0.0
 11
650.0
 21
1610.000001999999
 31
0.0
  0
LINE
  5
552
330
54E
100
AcDbEntity
  8
Ｓ_１_１
  6
CONTINUOUS
 62
     2
100
AcDbLine
 10
1045.000019999999
 20
1869.999997999999
 30
0.0
 11
650.0
 21
1869.999997999999
 31
0.0
  0
LINE
  5
553
330
54E
100
AcDbEntity
  8
Ｓ_１_１
  6
CONTINUOUS
 62
     2
100
AcDbLine
 10
660.0
 20
1640.000001999999
 30
0.0
 11
660.0
 21
1839.999997999999
 31
0.0
  0
INSERT
  5
554
330
54E
100
AcDbEntity
  8
Ｓ_１_１
 62
     2
100
AcDbBlockReference
  2
EX_NORM
 10
660.0
 20
1610.000001999999
 30
0.0
 41
30.0
 42
30.0
 43
30.0
 50
270.0
  0
INSERT
  5
555
330
54E
100
AcDbEntity
  8
Ｓ_１_１
 62
     2
100
AcDbBlockReference
  2
EX_NORM
 10
660.0
 20
1869.999997999999
 30
0.0
 41
30.0
 42
30.0
 43
30.0
 50
90.0
  0
MTEXT
  5
556
330
54E
100
AcDbEntity
  8
Ｓ_１_１
 62
     2
100
AcDbMText
 10
632.5000000000001
 20
1739.999999999999
 30
0.0
 40
34.6290415704388
 41
0.0
 71
     5
 72
     1
  1
%%c260
  7
EXCADDIM1
 11
0.0
 21
1.0
 31
0.0
  0
POINT
  5
557
330
54E
100
AcDbEntity
  8
DEFPOINTS
 62
     0
100
AcDbPoint
 10
1060.000019999999
 20
1610.000001999999
 30
0.0
  0
POINT
  5
558
330
54E
100
AcDbEntity
  8
DEFPOINTS
 62
     0
100
AcDbPoint
 10
1060.000019999999
 20
1869.999997999999
 30
0.0
  0
POINT
  5
559
330
54E
100
AcDbEntity
  8
DEFPOINTS
 62
     0
100
AcDbPoint
 10
660.0
 20
1869.999997999999
 30
0.0
  0
ENDBLK
  5
550
330
54E
100
AcDbEntity
  8
0
100
AcDbBlockEnd
  0
BLOCK
  5
55C
330
55B
100
AcDbEntity
  8
0
100
AcDbBlockBegin
  2
*D24
 70
     1
 10
0.0
 20
0.0
 30
0.0
  3
*D24
  1

  0
LINE
  5
55E
330
55B
100
AcDbEntity
  8
Ｓ_１_１
  6
CONTINUOUS
 62
     2
100
AcDbLine
 10
1109.999942999999
 20
1904.999998
 30
0.0
 11
590.0
 21
1904.999998
 31
0.0
  0
LINE
  5
55F
330
55B
100
AcDbEntity
  8
Ｓ_１_１
  6
CONTINUOUS
 62
     2
100
AcDbLine
 10
1109.999942999999
 20
1575.000002999999
 30
0.0
 11
590.0
 21
1575.000002999999
 31
0.0
  0
LINE
  5
560
330
55B
100
AcDbEntity
  8
Ｓ_１_１
  6
CONTINUOUS
 62
     2
100
AcDbLine
 10
600.0
 20
1874.999998
 30
0.0
 11
600.0
 21
1605.000002999999
 31
0.0
  0
INSERT
  5
561
330
55B
100
AcDbEntity
  8
Ｓ_１_１
 62
     2
100
AcDbBlockReference
  2
EX_NORM
 10
600.0
 20
1904.999998
 30
0.0
 41
30.0
 42
30.0
 43
30.0
 50
90.0
  0
INSERT
  5
562
330
55B
100
AcDbEntity
  8
Ｓ_１_１
 62
     2
100
AcDbBlockReference
  2
EX_NORM
 10
600.0
 20
1575.000002999999
 30
0.0
 41
30.0
 42
30.0
 43
30.0
 50
270.0
  0
MTEXT
  5
563
330
55B
100
AcDbEntity
  8
Ｓ_１_１
 62
     2
100
AcDbMText
 10
572.5
 20
1740.000000499999
 30
0.0
 40
34.6290415704388
 41
0.0
 71
     5
 72
     1
  1
%%c330
  7
EXCADDIM1
 11
0.0
 21
1.0
 31
0.0
  0
POINT
  5
564
330
55B
100
AcDbEntity
  8
DEFPOINTS
 62
     0
100
AcDbPoint
 10
1124.999942999999
 20
1904.999998
 30
0.0
  0
POINT
  5
565
330
55B
100
AcDbEntity
  8
DEFPOINTS
 62
     0
100
AcDbPoint
 10
1124.999942999999
 20
1575.000002999999
 30
0.0
  0
POINT
  5
566
330
55B
100
AcDbEntity
  8
DEFPOINTS
 62
     0
100
AcDbPoint
 10
600.0
 20
1575.000002999999
 30
0.0
  0
ENDBLK
  5
55D
330
55B
100
AcDbEntity
  8
0
100
AcDbBlockEnd
  0
BLOCK
  5
569
330
568
100
AcDbEntity
  8
0
100
AcDbBlockBegin
  2
*D25
 70
     1
 10
0.0
 20
0.0
 30
0.0
  3
*D25
  1

  0
LINE
  5
56B
330
568
100
AcDbEntity
  8
Ｓ_１_１
  6
CONTINUOUS
 62
     2
100
AcDbLine
 10
1282.999933
 20
2009.999996
 30
0.0
 11
530.0
 21
2009.999996
 31
0.0
  0
LINE
  5
56C
330
568
100
AcDbEntity
  8
Ｓ_１_１
  6
CONTINUOUS
 62
     2
100
AcDbLine
 10
1283.0002929999
 20
1470.000005
 30
0.0
 11
530.0
 21
1470.000005
 31
0.0
  0
LINE
  5
56D
330
568
100
AcDbEntity
  8
Ｓ_１_１
  6
CONTINUOUS
 62
     2
100
AcDbLine
 10
540.0
 20
1979.999996
 30
0.0
 11
540.0
 21
1500.000005
 31
0.0
  0
INSERT
  5
56E
330
568
100
AcDbEntity
  8
Ｓ_１_１
 62
     2
100
AcDbBlockReference
  2
EX_NORM
 10
540.0
 20
2009.999996
 30
0.0
 41
30.0
 42
30.0
 43
30.0
 50
90.0
  0
INSERT
  5
56F
330
568
100
AcDbEntity
  8
Ｓ_１_１
 62
     2
100
AcDbBlockReference
  2
EX_NORM
 10
540.0
 20
1470.000005
 30
0.0
 41
30.0
 42
30.0
 43
30.0
 50
270.0
  0
MTEXT
  5
570
330
568
100
AcDbEntity
  8
Ｓ_１_１
 62
     2
100
AcDbMText
 10
512.5
 20
1740.0000005
 30
0.0
 40
34.6290415704388
 41
0.0
 71
     5
 72
     1
  1
540
  7
EXCADDIM1
 11
0.0
 21
1.0
 31
0.0
  0
POINT
  5
571
330
568
100
AcDbEntity
  8
DEFPOINTS
 62
     0
100
AcDbPoint
 10
1297.999933
 20
2009.999996
 30
0.0
  0
POINT
  5
572
330
568
100
AcDbEntity
  8
DEFPOINTS
 62
     0
100
AcDbPoint
 10
1298.0002929999
 20
1470.000005
 30
0.0
  0
POINT
  5
573
330
568
100
AcDbEntity
  8
DEFPOINTS
 62
     0
100
AcDbPoint
 10
540.0
 20
1470.000005
 30
0.0
  0
ENDBLK
  5
56A
330
568
100
AcDbEntity
  8
0
100
AcDbBlockEnd
  0
BLOCK
  5
576
330
575
100
AcDbEntity
  8
0
100
AcDbBlockBegin
  2
*D26
 70
     1
 10
0.0
 20
0.0
 30
0.0
  3
*D26
  1

  0
LINE
  5
578
330
575
100
AcDbEntity
  8
Ｓ_１_１
  6
CONTINUOUS
 62
     2
100
AcDbLine
 10
2412.999921
 20
1964.999997
 30
0.0
 11
2590.0
 21
1964.999997
 31
0.0
  0
LINE
  5
579
330
575
100
AcDbEntity
  8
Ｓ_１_１
  6
CONTINUOUS
 62
     2
100
AcDbLine
 10
2412.999823
 20
1515.000004
 30
0.0
 11
2590.0
 21
1515.000004
 31
0.0
  0
LINE
  5
57A
330
575
100
AcDbEntity
  8
Ｓ_１_１
  6
CONTINUOUS
 62
     2
100
AcDbLine
 10
2580.0
 20
1934.999997
 30
0.0
 11
2580.0
 21
1545.000004
 31
0.0
  0
INSERT
  5
57B
330
575
100
AcDbEntity
  8
Ｓ_１_１
 62
     2
100
AcDbBlockReference
  2
EX_NORM
 10
2580.0
 20
1964.999997
 30
0.0
 41
30.0
 42
30.0
 43
30.0
 50
90.0
  0
INSERT
  5
57C
330
575
100
AcDbEntity
  8
Ｓ_１_１
 62
     2
100
AcDbBlockReference
  2
EX_NORM
 10
2580.0
 20
1515.000004
 30
0.0
 41
30.0
 42
30.0
 43
30.0
 50
270.0
  0
MTEXT
  5
57D
330
575
100
AcDbEntity
  8
Ｓ_１_１
 62
     2
100
AcDbMText
 10
2552.5
 20
1740.0000005
 30
0.0
 40
34.6290415704388
 41
0.0
 71
     5
 72
     1
  1
%%c450
  7
EXCADDIM1
 11
0.0
 21
1.0
 31
0.0
  0
POINT
  5
57E
330
575
100
AcDbEntity
  8
DEFPOINTS
 62
     0
100
AcDbPoint
 10
2397.999921
 20
1964.999997
 30
0.0
  0
POINT
  5
57F
330
575
100
AcDbEntity
  8
DEFPOINTS
 62
     0
100
AcDbPoint
 10
2397.999823
 20
1515.000004
 30
0.0
  0
POINT
  5
580
330
575
100
AcDbEntity
  8
DEFPOINTS
 62
     0
100
AcDbPoint
 10
2580.0
 20
1515.000004
 30
0.0
  0
ENDBLK
  5
577
330
575
100
AcDbEntity
  8
0
100
AcDbBlockEnd
  0
BLOCK
  5
583
330
582
100
AcDbEntity
  8
0
100
AcDbBlockBegin
  2
*D27
 70
     1
 10
0.0
 20
0.0
 30
0.0
  3
*D27
  1

  0
LINE
  5
585
330
582
100
AcDbEntity
  8
Ｓ_１_１
  6
CONTINUOUS
 62
     2
100
AcDbLine
 10
2290.525586234495
 20
769.9999985000051
 30
0.0
 11
2497.003205500157
 21
889.2099075646768
 31
0.0
  0
LINE
  5
586
330
582
100
AcDbEntity
  8
Ｓ_１_１
  6
CONTINUOUS
 62
     2
100
AcDbLine
 10
1909.474413765502
 20
550.0000014999933
 30
0.0
 11
1883.493651651969
 21
535.0000014999925
 31
0.0
  0
MTEXT
  5
587
330
582
100
AcDbEntity
  8
Ｓ_１_１
 62
     2
100
AcDbMText
 10
2395.594268840951
 20
856.4355200706241
 30
0.0
 40
34.6290415704388
 41
0.0
 71
     5
 72
     1
  1
P.C.D 380
  7
EXCADDIM1
 11
0.8660254037844231
 21
0.500000000000027
 31
0.0
  0
LINE
  5
588
330
582
100
AcDbEntity
  8
Ｓ_１_１
  6
CONTINUOUS
 62
     2
100
AcDbLine
 10
1935.455175879034
 20
565.0000014999941
 30
0.0
 11
2264.544824120962
 21
754.9999985000043
 31
0.0
  0
INSERT
  5
589
330
582
100
AcDbEntity
  8
Ｓ_１_１
 62
     2
100
AcDbBlockReference
  2
EX_NORM
 10
1935.455175879034
 20
565.0000014999941
 30
0.0
 41
30.0
 42
30.0
 43
30.0
 50
30.00000000000179
  0
INSERT
  5
58A
330
582
100
AcDbEntity
  8
Ｓ_１_１
 62
     2
100
AcDbBlockReference
  2
EX_NORM
 10
2264.544824120962
 20
754.9999985000043
 30
0.0
 41
30.0
 42
30.0
 43
30.0
 50
210.0000000000018
  0
POINT
  5
58B
330
582
100
AcDbEntity
  8
DEFPOINTS
 62
     0
100
AcDbPoint
 10
2264.544824120962
 20
754.9999985000043
 30
0.0
  0
POINT
  5
58C
330
582
100
AcDbEntity
  8
DEFPOINTS
 62
     0
100
AcDbPoint
 10
1935.455175879034
 20
565.0000014999941
 30
0.0
  0
ENDBLK
  5
584
330
582
100
AcDbEntity
  8
0
100
AcDbBlockEnd
  0
ENDSEC
  0
SECTION
  2
ENTITIES
  0
LINE
  5
D4
330
1F
100
AcDbEntity
  8
図面枠
  6
CONTINUOUS
 62
     5
100
AcDbLine
 10
100.0
 20
100.0
 30
0.0
 11
4100.0
 21
100.0
 31
0.0
  0
LINE
  5
D5
330
1F
100
AcDbEntity
  8
図面枠
  6
CONTINUOUS
 62
     5
100
AcDbLine
 10
4100.0
 20
100.0
 30
0.0
 11
4100.0
 21
2870.0
 31
0.0
  0
LINE
  5
D6
330
1F
100
AcDbEntity
  8
図面枠
  6
CONTINUOUS
 62
     5
100
AcDbLine
 10
4100.0
 20
2870.0
 30
0.0
 11
100.0000000000005
 21
2870.0
 31
0.0
  0
LINE
  5
D7
330
1F
100
AcDbEntity
  8
図面枠
  6
CONTINUOUS
 62
     5
100
AcDbLine
 10
100.0000000000005
 20
2870.0
 30
0.0
 11
100.0
 21
100.0
 31
0.0
  0
LINE
  5
D8
330
1F
100
AcDbEntity
  8
図面枠
  6
CONTINUOUS
 62
     3
100
AcDbLine
 10
150.0
 20
2820.0
 30
0.0
 11
150.0
 21
2730.0
 31
0.0
  0
LINE
  5
D9
330
1F
100
AcDbEntity
  8
図面枠
  6
CONTINUOUS
 62
     3
100
AcDbLine
 10
4050.0
 20
240.0
 30
0.0
 11
4050.0
 21
150.0
 31
0.0
  0
LINE
  5
DA
330
1F
100
AcDbEntity
  8
図面枠
  6
CONTINUOUS
 62
     3
100
AcDbLine
 10
3720.0
 20
240.0
 30
0.0
 11
3720.0
 21
150.0
 31
0.0
  0
TEXT
  5
DC
330
1F
100
AcDbEntity
  8
図面枠
  6
CONTINUOUS
 62
     4
100
AcDbText
 10
3750.0
 20
173.4375
 30
0.0
 40
46.17205542725173
  1
OWC-25×4
 41
0.9992307692307691
  7
EXCADTTF1
 72
     5
 11
4020.0
 21
173.4375
 31
0.0
100
AcDbText
  0
LINE
  5
DD
330
1F
100
AcDbEntity
  8
図面枠
  6
CONTINUOUS
 62
     3
100
AcDbLine
 10
3720.0
 20
240.0
 30
0.0
 11
4050.0
 21
240.0
 31
0.0
  0
LINE
  5
DE
330
1F
100
AcDbEntity
  8
図面枠
  6
CONTINUOUS
 62
     3
100
AcDbLine
 10
3720.0
 20
150.0
 30
0.0
 11
4050.0
 21
150.0
 31
0.0
  0
TEXT
  5
DF
330
1F
100
AcDbEntity
  8
図面枠
  6
CONTINUOUS
 62
     4
100
AcDbText
 10
180.0
 20
2753.4375
 30
0.0
 40
46.17205542725173
  1
1000kN ワイヤークランプ装置 250kN×4タイプ
 41
0.9992307692307693
  7
EXCADTTF1
 72
     5
 11
1440.0
 21
2753.4375
 31
0.0
100
AcDbText
  0
LINE
  5
E0
330
1F
100
AcDbEntity
  8
図面枠
  6
CONTINUOUS
 62
     3
100
AcDbLine
 10
1470.0
 20
2820.0
 30
0.0
 11
1470.0
 21
2730.0
 31
0.0
  0
LINE
  5
E1
330
1F
100
AcDbEntity
  8
図面枠
  6
CONTINUOUS
 62
     3
100
AcDbLine
 10
150.0
 20
2820.0
 30
0.0
 11
1470.0
 21
2820.0
 31
0.0
  0
LINE
  5
E2
330
1F
100
AcDbEntity
  8
図面枠
  6
CONTINUOUS
 62
     3
100
AcDbLine
 10
150.0
 20
2730.0
 30
0.0
 11
1470.0
 21
2730.0
 31
0.0
  0
LINE
  5
E3
330
1F
100
AcDbEntity
  8
図面枠
  6
CONTINUOUS
 62
     3
100
AcDbLine
 10
3149.999999999999
 20
2820.0
 30
0.0
 11
4049.999999999999
 21
2820.0
 31
0.0
  0
LINE
  5
E4
330
1F
100
AcDbEntity
  8
図面枠
  6
CONTINUOUS
 62
     3
100
AcDbLine
 10
3149.999999999999
 20
2760.0
 30
0.0
 11
4049.999999999999
 21
2760.0
 31
0.0
  0
TEXT
  5
E5
330
1F
100
AcDbEntity
  8
図面枠
  6
CONTINUOUS
 62
     4
100
AcDbText
 10
3749.999999999999
 20
2715.625
 30
0.0
 40
30.78137028483449
  1
1500
 41
0.9992307692307693
  7
EXCADTTF1
 72
     5
 11
3829.999999999999
 21
2715.625
 31
0.0
100
AcDbText
  0
TEXT
  5
E6
330
1F
100
AcDbEntity
  8
図面枠
  6
CONTINUOUS
 62
     4
100
AcDbText
 10
3869.999999999999
 20
2715.625
 30
0.0
 40
30.78137028483449
  1
kN
 41
0.9992307692307693
  7
EXCADTTF1
 72
     5
 11
3909.999999999999
 21
2715.625
 31
0.0
100
AcDbText
  0
TEXT
  5
E7
330
1F
100
AcDbEntity
  8
図面枠
  6
CONTINUOUS
 62
     4
100
AcDbText
 10
3439.999999999999
 20
2775.625
 30
0.0
 40
30.78137028483449
  1
クランプ装置仕様
 41
0.9992307692307691
  7
EXCADTTF1
 72
     5
 11
3759.999999999999
 21
2775.625
 31
0.0
100
AcDbText
  0
LINE
  5
E8
330
1F
100
AcDbEntity
  8
図面枠
  6
CONTINUOUS
 62
     3
100
AcDbLine
 10
2190.0
 20
2820.0
 30
0.0
 11
3090.0
 21
2820.0
 31
0.0
  0
LINE
  5
E9
330
1F
100
AcDbEntity
  8
図面枠
  6
CONTINUOUS
 62
     3
100
AcDbLine
 10
2190.0
 20
2760.0
 30
0.0
 11
3090.0
 21
2760.0
 31
0.0
  0
TEXT
  5
EA
330
1F
100
AcDbEntity
  8
図面枠
  6
CONTINUOUS
 62
     4
100
AcDbText
 10
2910.0
 20
2715.625
 30
0.0
 40
30.78137028483449
  1
kN
 41
0.9992307692307693
  7
EXCADTTF1
 72
     5
 11
2950.0
 21
2715.625
 31
0.0
100
AcDbText
  0
TEXT
  5
EB
330
1F
100
AcDbEntity
  8
図面枠
  6
CONTINUOUS
 62
     4
100
AcDbText
 10
2540.0
 20
2775.625
 30
0.0
 40
30.78137028483449
  1
仕　　　様
 41
0.9992307692307693
  7
EXCADTTF1
 72
     5
 11
2740.0
 21
2775.625
 31
0.0
100
AcDbText
  0
TEXT
  5
EC
330
1F
100
AcDbEntity
  8
図面枠
  6
CONTINUOUS
 62
     4
100
AcDbText
 10
2790.0
 20
2715.625
 30
0.0
 40
30.78137028483449
  1
1000
 41
0.9992307692307693
  7
EXCADTTF1
 72
     5
 11
2870.0
 21
2715.625
 31
0.0
100
AcDbText
  0
TEXT
  5
ED
330
1F
100
AcDbEntity
  8
図面枠
  6
CONTINUOUS
 62
     4
100
AcDbText
 10
3868.75
 20
2475.625
 30
0.0
 40
30.78137028483449
  1
cm
 41
0.9992307692307693
  7
EXCADTTF1
 72
     5
 11
3908.75
 21
2475.625
 31
0.0
100
AcDbText
  0
TEXT
  5
EE
330
1F
100
AcDbEntity
  8
図面枠
  6
CONTINUOUS
 62
     4
100
AcDbText
 10
3896.75
 20
2494.531250476837
 30
0.0
 40
13.85161662817552
  1
2
 41
0.9992307692307693
  7
EXCADTTF1
 72
     5
 11
3905.75
 21
2494.531250476837
 31
0.0
100
AcDbText
  0
TEXT
  5
EF
330
1F
100
AcDbEntity
  8
図面枠
  6
CONTINUOUS
 62
     4
100
AcDbText
 10
3868.75
 20
1875.625
 30
0.0
 40
30.78137028483449
  1
cm
 41
0.9992307692307693
  7
EXCADTTF1
 72
     5
 11
3908.75
 21
1875.625
 31
0.0
100
AcDbText
  0
TEXT
  5
F0
330
1F
100
AcDbEntity
  8
図面枠
  6
CONTINUOUS
 62
     4
100
AcDbText
 10
3896.75
 20
1894.531250476837
 30
0.0
 40
13.85161662817552
  1
2
 41
0.9992307692307693
  7
EXCADTTF1
 72
     5
 11
3905.75
 21
1894.531250476837
 31
0.0
100
AcDbText
  0
TEXT
  5
F1
330
1F
100
AcDbEntity
  8
図面枠
  6
CONTINUOUS
 62
     4
100
AcDbText
 10
3868.75
 20
1275.625
 30
0.0
 40
30.78137028483449
  1
cm
 41
0.9992307692307693
  7
EXCADTTF1
 72
     5
 11
3908.75
 21
1275.625
 31
0.0
100
AcDbText
  0
TEXT
  5
F2
330
1F
100
AcDbEntity
  8
図面枠
  6
CONTINUOUS
 62
     4
100
AcDbText
 10
3896.75
 20
1294.531250476837
 30
0.0
 40
13.85161662817552
  1
2
 41
0.9992307692307693
  7
EXCADTTF1
 72
     5
 11
3905.75
 21
1294.531250476837
 31
0.0
100
AcDbText
  0
LINE
  5
F3
330
1F
100
AcDbEntity
  8
図面枠
  6
CONTINUOUS
 62
     2
100
AcDbLine
 10
2190.0
 20
2700.0
 30
0.0
 11
3090.0
 21
2700.0
 31
0.0
  0
LINE
  5
F4
330
1F
100
AcDbEntity
  8
図面枠
  6
CONTINUOUS
 62
     2
100
AcDbLine
 10
2190.0
 20
2640.0
 30
0.0
 11
3090.0
 21
2640.0
 31
0.0
  0
LINE
  5
F5
330
1F
100
AcDbEntity
  8
図面枠
  6
CONTINUOUS
 62
     2
100
AcDbLine
 10
2190.0
 20
2580.0
 30
0.0
 11
3090.0
 21
2580.0
 31
0.0
  0
LINE
  5
F6
330
1F
100
AcDbEntity
  8
図面枠
  6
CONTINUOUS
 62
     2
100
AcDbLine
 10
2190.0
 20
2520.0
 30
0.0
 11
3090.0
 21
2520.0
 31
0.0
  0
TEXT
  5
F7
330
1F
100
AcDbEntity
  8
図面枠
  6
CONTINUOUS
 62
     4
100
AcDbText
 10
2210.0
 20
2655.625
 30
0.0
 40
30.78137028483449
  1
ストローク
 41
0.9992307692307693
  7
EXCADTTF1
 72
     5
 11
2410.0
 21
2655.625
 31
0.0
100
AcDbText
  0
TEXT
  5
F8
330
1F
100
AcDbEntity
  8
図面枠
  6
CONTINUOUS
 62
     4
100
AcDbText
 10
2210.0
 20
2595.625
 30
0.0
 40
30.78137028483449
  1
最低機械高
 41
0.9992307692307693
  7
EXCADTTF1
 72
     5
 11
2410.0
 21
2595.625
 31
0.0
100
AcDbText
  0
TEXT
  5
F9
330
1F
100
AcDbEntity
  8
図面枠
  6
CONTINUOUS
 62
     4
100
AcDbText
 10
2910.0
 20
2655.625
 30
0.0
 40
30.78137028483449
  1
mm
 41
0.9992307692307693
  7
EXCADTTF1
 72
     5
 11
2950.0
 21
2655.625
 31
0.0
100
AcDbText
  0
TEXT
  5
FA
330
1F
100
AcDbEntity
  8
図面枠
  6
CONTINUOUS
 62
     4
100
AcDbText
 10
2910.0
 20
2595.625
 30
0.0
 40
30.78137028483449
  1
mm
 41
0.9992307692307693
  7
EXCADTTF1
 72
     5
 11
2950.0
 21
2595.625
 31
0.0
100
AcDbText
  0
TEXT
  5
FB
330
1F
100
AcDbEntity
  8
図面枠
  6
CONTINUOUS
 62
     4
100
AcDbText
 10
2810.0
 20
2655.625
 30
0.0
 40
30.78137028483449
  1
500
 41
0.9992307692307693
  7
EXCADTTF1
 72
     5
 11
2870.0
 21
2655.625
 31
0.0
100
AcDbText
  0
TEXT
  5
FC
330
1F
100
AcDbEntity
  8
図面枠
  6
CONTINUOUS
 62
     4
100
AcDbText
 10
2790.0
 20
2595.625
 30
0.0
 40
30.78137028483449
  1
1545
 41
0.9992307692307693
  7
EXCADTTF1
 72
     5
 11
2870.0
 21
2595.625
 31
0.0
100
AcDbText
  0
TEXT
  5
FD
330
1F
100
AcDbEntity
  8
図面枠
  6
CONTINUOUS
 62
     4
100
AcDbText
 10
2210.0
 20
2535.625
 30
0.0
 40
30.78137028483449
  1
重量
 41
0.9992307692307693
  7
EXCADTTF1
 72
     5
 11
2290.0
 21
2535.625
 31
0.0
100
AcDbText
  0
TEXT
  5
FE
330
1F
100
AcDbEntity
  8
図面枠
  6
CONTINUOUS
 62
     4
100
AcDbText
 10
2910.0
 20
2535.625
 30
0.0
 40
30.78137028483449
  1
kg
 41
0.9992307692307693
  7
EXCADTTF1
 72
     5
 11
2950.0
 21
2535.625
 31
0.0
100
AcDbText
  0
TEXT
  5
FF
330
1F
100
AcDbEntity
  8
図面枠
  6
CONTINUOUS
 62
     4
100
AcDbText
 10
2210.0
 20
2475.625
 30
0.0
 40
30.78137028483449
  1
推奨ワイヤー
 41
0.9992307692307691
  7
EXCADTTF1
 72
     5
 11
2450.0
 21
2475.625
 31
0.0
100
AcDbText
  0
TEXT
  5
100
330
1F
100
AcDbEntity
  8
図面枠
  6
CONTINUOUS
 62
     4
100
AcDbText
 10
2750.0
 20
2475.625
 30
0.0
 40
30.78137028483449
  1
G IWRC 6×WS(36)
 41
0.9992307692307695
  7
EXCADTTF1
 72
     5
 11
3070.0
 21
2475.625
 31
0.0
100
AcDbText
  0
LINE
  5
101
330
1F
100
AcDbEntity
  8
図面枠
  6
CONTINUOUS
 62
     3
100
AcDbLine
 10
2190.0
 20
2460.0
 30
0.0
 11
3090.0
 21
2460.0
 31
0.0
  0
LINE
  5
102
330
1F
100
AcDbEntity
  8
図面枠
  6
CONTINUOUS
 62
     3
100
AcDbLine
 10
2190.0
 20
2820.0
 30
0.0
 11
2190.0
 21
2460.0
 31
0.0
  0
LINE
  5
103
330
1F
100
AcDbEntity
  8
図面枠
  6
CONTINUOUS
 62
     2
100
AcDbLine
 10
2590.0
 20
2760.0
 30
0.0
 11
2590.0
 21
2460.0
 31
0.0
  0
LINE
  5
104
330
1F
100
AcDbEntity
  8
図面枠
  6
CONTINUOUS
 62
     2
100
AcDbLine
 10
2890.0
 20
2760.0
 30
0.0
 11
2890.0
 21
2520.0
 31
0.0
  0
LINE
  5
105
330
1F
100
AcDbEntity
  8
図面枠
  6
CONTINUOUS
 62
     3
100
AcDbLine
 10
3090.0
 20
2820.0
 30
0.0
 11
3090.0
 21
2460.0
 31
0.0
  0
LINE
  5
106
330
1F
100
AcDbEntity
  8
図面枠
  6
CONTINUOUS
 62
     2
100
AcDbLine
 10
3149.999999999999
 20
2700.0
 30
0.0
 11
4049.999999999999
 21
2700.0
 31
0.0
  0
LINE
  5
107
330
1F
100
AcDbEntity
  8
図面枠
  6
CONTINUOUS
 62
     2
100
AcDbLine
 10
3149.999999999999
 20
2640.0
 30
0.0
 11
4049.999999999999
 21
2640.0
 31
0.0
  0
LINE
  5
108
330
1F
100
AcDbEntity
  8
図面枠
  6
CONTINUOUS
 62
     2
100
AcDbLine
 10
3149.999999999999
 20
2580.0
 30
0.0
 11
4049.999999999999
 21
2580.0
 31
0.0
  0
LINE
  5
109
330
1F
100
AcDbEntity
  8
図面枠
  6
CONTINUOUS
 62
     2
100
AcDbLine
 10
3149.999999999999
 20
2520.0
 30
0.0
 11
4049.999999999999
 21
2520.0
 31
0.0
  0
LINE
  5
10A
330
1F
100
AcDbEntity
  8
図面枠
  6
CONTINUOUS
 62
     2
100
AcDbLine
 10
3149.999999999999
 20
2460.0
 30
0.0
 11
4049.999999999999
 21
2460.0
 31
0.0
  0
TEXT
  5
10B
330
1F
100
AcDbEntity
  8
図面枠
  6
CONTINUOUS
 62
     4
100
AcDbText
 10
3169.999999999999
 20
2655.625
 30
0.0
 40
30.78137028483449
  1
ストローク
 41
0.9992307692307693
  7
EXCADTTF1
 72
     5
 11
3369.999999999999
 21
2655.625
 31
0.0
100
AcDbText
  0
TEXT
  5
10C
330
1F
100
AcDbEntity
  8
図面枠
  6
CONTINUOUS
 62
     4
100
AcDbText
 10
3169.999999999999
 20
2595.625
 30
0.0
 40
30.78137028483449
  1
最低機械高
 41
0.9992307692307693
  7
EXCADTTF1
 72
     5
 11
3369.999999999999
 21
2595.625
 31
0.0
100
AcDbText
  0
TEXT
  5
10D
330
1F
100
AcDbEntity
  8
図面枠
  6
CONTINUOUS
 62
     4
100
AcDbText
 10
3169.999999999999
 20
2535.625
 30
0.0
 40
30.78137028483449
  1
シリンダー外径
 41
0.9992307692307691
  7
EXCADTTF1
 72
     5
 11
3449.999999999999
 21
2535.625
 31
0.0
100
AcDbText
  0
TEXT
  5
10E
330
1F
100
AcDbEntity
  8
図面枠
  6
CONTINUOUS
 62
     4
100
AcDbText
 10
3169.999999999999
 20
2475.625
 30
0.0
 40
30.78137028483449
  1
受圧面積
 41
0.9992307692307693
  7
EXCADTTF1
 72
     5
 11
3329.999999999999
 21
2475.625
 31
0.0
100
AcDbText
  0
TEXT
  5
10F
330
1F
100
AcDbEntity
  8
図面枠
  6
CONTINUOUS
 62
     4
100
AcDbText
 10
3169.999999999999
 20
2415.625
 30
0.0
 40
30.78137028483449
  1
最高使用圧力
 41
0.9992307692307691
  7
EXCADTTF1
 72
     5
 11
3409.999999999999
 21
2415.625
 31
0.0
100
AcDbText
  0
TEXT
  5
110
330
1F
100
AcDbEntity
  8
図面枠
  6
CONTINUOUS
 62
     4
100
AcDbText
 10
3769.999999999999
 20
2595.625
 30
0.0
 40
30.78137028483449
  1
475
 41
0.9992307692307693
  7
EXCADTTF1
 72
     5
 11
3829.999999999999
 21
2595.625
 31
0.0
100
AcDbText
  0
TEXT
  5
111
330
1F
100
AcDbEntity
  8
図面枠
  6
CONTINUOUS
 62
     4
100
AcDbText
 10
3769.999999999999
 20
2535.625
 30
0.0
 40
30.78137028483449
  1
330
 41
0.9992307692307693
  7
EXCADTTF1
 72
     5
 11
3829.999999999999
 21
2535.625
 31
0.0
100
AcDbText
  0
TEXT
  5
112
330
1F
100
AcDbEntity
  8
図面枠
  6
CONTINUOUS
 62
     4
100
AcDbText
 10
3729.999999999999
 20
2475.625
 30
0.0
 40
30.78137028483449
  1
247.4
 41
0.9992307692307693
  7
EXCADTTF1
 72
     5
 11
3829.999999999999
 21
2475.625
 31
0.0
100
AcDbText
  0
TEXT
  5
113
330
1F
100
AcDbEntity
  8
図面枠
  6
CONTINUOUS
 62
     4
100
AcDbText
 10
3749.999999999999
 20
2415.625
 30
0.0
 40
30.78137028483449
  1
60.6
 41
0.9992307692307693
  7
EXCADTTF1
 72
     5
 11
3829.999999999999
 21
2415.625
 31
0.0
100
AcDbText
  0
TEXT
  5
114
330
1F
100
AcDbEntity
  8
図面枠
  6
CONTINUOUS
 62
     4
100
AcDbText
 10
3789.999999999999
 20
2655.625
 30
0.0
 40
30.78137028483449
  1
70
 41
0.9992307692307693
  7
EXCADTTF1
 72
     5
 11
3829.999999999999
 21
2655.625
 31
0.0
100
AcDbText
  0
TEXT
  5
115
330
1F
100
AcDbEntity
  8
図面枠
  6
CONTINUOUS
 62
     4
100
AcDbText
 10
3869.999999999999
 20
2655.625
 30
0.0
 40
30.78137028483449
  1
mm
 41
0.9992307692307693
  7
EXCADTTF1
 72
     5
 11
3909.999999999999
 21
2655.625
 31
0.0
100
AcDbText
  0
TEXT
  5
116
330
1F
100
AcDbEntity
  8
図面枠
  6
CONTINUOUS
 62
     4
100
AcDbText
 10
3869.999999999999
 20
2595.625
 30
0.0
 40
30.78137028483449
  1
mm
 41
0.9992307692307693
  7
EXCADTTF1
 72
     5
 11
3909.999999999999
 21
2595.625
 31
0.0
100
AcDbText
  0
TEXT
  5
117
330
1F
100
AcDbEntity
  8
図面枠
  6
CONTINUOUS
 62
     4
100
AcDbText
 10
3869.999999999999
 20
2535.625
 30
0.0
 40
30.78137028483449
  1
mm
 41
0.9992307692307693
  7
EXCADTTF1
 72
     5
 11
3909.999999999999
 21
2535.625
 31
0.0
100
AcDbText
  0
TEXT
  5
118
330
1F
100
AcDbEntity
  8
図面枠
  6
CONTINUOUS
 62
     4
100
AcDbText
 10
3869.999999999999
 20
2415.625
 30
0.0
 40
30.78137028483449
  1
MPa
 41
0.9992307692307693
  7
EXCADTTF1
 72
     5
 11
3929.999999999999
 21
2415.625
 31
0.0
100
AcDbText
  0
LINE
  5
119
330
1F
100
AcDbEntity
  8
図面枠
  6
CONTINUOUS
 62
     2
100
AcDbLine
 10
3149.999999999999
 20
2400.0
 30
0.0
 11
4049.999999999999
 21
2400.0
 31
0.0
  0
TEXT
  5
11A
330
1F
100
AcDbEntity
  8
図面枠
  6
CONTINUOUS
 62
     4
100
AcDbText
 10
3169.999999999999
 20
2355.625
 30
0.0
 40
30.78137028483449
  1
所要油量
 41
0.9992307692307693
  7
EXCADTTF1
 72
     5
 11
3329.999999999999
 21
2355.625
 31
0.0
100
AcDbText
  0
TEXT
  5
11B
330
1F
100
AcDbEntity
  8
図面枠
  6
CONTINUOUS
 62
     4
100
AcDbText
 10
3869.999999999999
 20
2355.625
 30
0.0
 40
30.78137028483449
  1
L
 41
0.9992307692307693
  7
EXCADTTF1
 72
     5
 11
3889.999999999999
 21
2355.625
 31
0.0
100
AcDbText
  0
LINE
  5
11C
330
1F
100
AcDbEntity
  8
図面枠
  6
CONTINUOUS
 62
     3
100
AcDbLine
 10
3149.999999999999
 20
2340.0
 30
0.0
 11
4049.999999999999
 21
2340.0
 31
0.0
  0
LINE
  5
11D
330
1F
100
AcDbEntity
  8
図面枠
  6
CONTINUOUS
 62
     3
100
AcDbLine
 10
3149.999999999999
 20
2820.0
 30
0.0
 11
3149.999999999999
 21
2340.0
 31
0.0
  0
LINE
  5
11E
330
1F
100
AcDbEntity
  8
図面枠
  6
CONTINUOUS
 62
     2
100
AcDbLine
 10
3549.999999999999
 20
2760.0
 30
0.0
 11
3549.999999999999
 21
2340.0
 31
0.0
  0
LINE
  5
11F
330
1F
100
AcDbEntity
  8
図面枠
  6
CONTINUOUS
 62
     2
100
AcDbLine
 10
3849.999999999999
 20
2760.0
 30
0.0
 11
3849.999999999999
 21
2340.0
 31
0.0
  0
LINE
  5
120
330
1F
100
AcDbEntity
  8
図面枠
  6
CONTINUOUS
 62
     3
100
AcDbLine
 10
4049.999999999999
 20
2820.0
 30
0.0
 11
4049.999999999999
 21
2340.0
 31
0.0
  0
LINE
  5
121
330
1F
100
AcDbEntity
  8
図面枠
  6
CONTINUOUS
 62
     3
100
AcDbLine
 10
3150.0
 20
2280.0
 30
0.0
 11
4050.0
 21
2280.0
 31
0.0
  0
LINE
  5
122
330
1F
100
AcDbEntity
  8
図面枠
  6
CONTINUOUS
 62
     3
100
AcDbLine
 10
3150.0
 20
2220.0
 30
0.0
 11
4050.0
 21
2220.0
 31
0.0
  0
TEXT
  5
123
330
1F
100
AcDbEntity
  8
図面枠
  6
CONTINUOUS
 62
     4
100
AcDbText
 10
3610.0
 20
2175.625
 30
0.0
 40
30.78137028483449
  1
250×4=1000
 41
0.999230769230769
  7
EXCADTTF1
 72
     5
 11
3830.0
 21
2175.625
 31
0.0
100
AcDbText
  0
TEXT
  5
124
330
1F
100
AcDbEntity
  8
図面枠
  6
CONTINUOUS
 62
     4
100
AcDbText
 10
3870.0
 20
2175.625
 30
0.0
 40
30.78137028483449
  1
kN
 41
0.9992307692307693
  7
EXCADTTF1
 72
     5
 11
3910.0
 21
2175.625
 31
0.0
100
AcDbText
  0
TEXT
  5
125
330
1F
100
AcDbEntity
  8
図面枠
  6
CONTINUOUS
 62
     4
100
AcDbText
 10
3440.0
 20
2235.625
 30
0.0
 40
30.78137028483449
  1
油圧ジャッキ仕様
 41
0.9992307692307691
  7
EXCADTTF1
 72
     5
 11
3760.0
 21
2235.625
 31
0.0
100
AcDbText
  0
LINE
  5
126
330
1F
100
AcDbEntity
  8
図面枠
  6
CONTINUOUS
 62
     2
100
AcDbLine
 10
3150.0
 20
2160.0
 30
0.0
 11
4050.0
 21
2160.0
 31
0.0
  0
LINE
  5
127
330
1F
100
AcDbEntity
  8
図面枠
  6
CONTINUOUS
 62
     2
100
AcDbLine
 10
3150.0
 20
2100.0
 30
0.0
 11
4050.0
 21
2100.0
 31
0.0
  0
LINE
  5
128
330
1F
100
AcDbEntity
  8
図面枠
  6
CONTINUOUS
 62
     2
100
AcDbLine
 10
3150.0
 20
2040.0
 30
0.0
 11
4050.0
 21
2040.0
 31
0.0
  0
LINE
  5
129
330
1F
100
AcDbEntity
  8
図面枠
  6
CONTINUOUS
 62
     2
100
AcDbLine
 10
3150.0
 20
1980.0
 30
0.0
 11
4050.0
 21
1980.0
 31
0.0
  0
LINE
  5
12A
330
1F
100
AcDbEntity
  8
図面枠
  6
CONTINUOUS
 62
     2
100
AcDbLine
 10
3150.0
 20
1920.0
 30
0.0
 11
4050.0
 21
1920.0
 31
0.0
  0
LINE
  5
12B
330
1F
100
AcDbEntity
  8
図面枠
  6
CONTINUOUS
 62
     2
100
AcDbLine
 10
3150.0
 20
1860.0
 30
0.0
 11
4050.0
 21
1860.0
 31
0.0
  0
TEXT
  5
12C
330
1F
100
AcDbEntity
  8
図面枠
  6
CONTINUOUS
 62
     4
100
AcDbText
 10
3170.0
 20
2115.625
 30
0.0
 40
30.78137028483449
  1
ストローク
 41
0.9992307692307693
  7
EXCADTTF1
 72
     5
 11
3370.0
 21
2115.625
 31
0.0
100
AcDbText
  0
TEXT
  5
12D
330
1F
100
AcDbEntity
  8
図面枠
  6
CONTINUOUS
 62
     4
100
AcDbText
 10
3170.0
 20
2055.625
 30
0.0
 40
30.78137028483449
  1
最低機械高
 41
0.9992307692307693
  7
EXCADTTF1
 72
     5
 11
3370.0
 21
2055.625
 31
0.0
100
AcDbText
  0
TEXT
  5
12E
330
1F
100
AcDbEntity
  8
図面枠
  6
CONTINUOUS
 62
     4
100
AcDbText
 10
3170.0
 20
1995.625
 30
0.0
 40
30.78137028483449
  1
シリンダー外径
 41
0.9992307692307691
  7
EXCADTTF1
 72
     5
 11
3450.0
 21
1995.625
 31
0.0
100
AcDbText
  0
TEXT
  5
12F
330
1F
100
AcDbEntity
  8
図面枠
  6
CONTINUOUS
 62
     4
100
AcDbText
 10
3870.0
 20
2115.625
 30
0.0
 40
30.78137028483449
  1
mm
 41
0.9992307692307693
  7
EXCADTTF1
 72
     5
 11
3910.0
 21
2115.625
 31
0.0
100
AcDbText
  0
TEXT
  5
130
330
1F
100
AcDbEntity
  8
図面枠
  6
CONTINUOUS
 62
     4
100
AcDbText
 10
3870.0
 20
2055.625
 30
0.0
 40
30.78137028483449
  1
mm
 41
0.9992307692307693
  7
EXCADTTF1
 72
     5
 11
3910.0
 21
2055.625
 31
0.0
100
AcDbText
  0
TEXT
  5
131
330
1F
100
AcDbEntity
  8
図面枠
  6
CONTINUOUS
 62
     4
100
AcDbText
 10
3870.0
 20
1995.625
 30
0.0
 40
30.78137028483449
  1
mm
 41
0.9992307692307693
  7
EXCADTTF1
 72
     5
 11
3910.0
 21
1995.625
 31
0.0
100
AcDbText
  0
TEXT
  5
132
330
1F
100
AcDbEntity
  8
図面枠
  6
CONTINUOUS
 62
     4
100
AcDbText
 10
3770.0
 20
2115.625
 30
0.0
 40
30.78137028483449
  1
500
 41
0.9992307692307693
  7
EXCADTTF1
 72
     5
 11
3830.0
 21
2115.625
 31
0.0
100
AcDbText
  0
TEXT
  5
133
330
1F
100
AcDbEntity
  8
図面枠
  6
CONTINUOUS
 62
     4
100
AcDbText
 10
3770.0
 20
2055.625
 30
0.0
 40
30.78137028483449
  1
750
 41
0.9992307692307693
  7
EXCADTTF1
 72
     5
 11
3830.0
 21
2055.625
 31
0.0
100
AcDbText
  0
TEXT
  5
134
330
1F
100
AcDbEntity
  8
図面枠
  6
CONTINUOUS
 62
     4
100
AcDbText
 10
3170.0
 20
1875.625
 30
0.0
 40
30.78137028483449
  1
受圧面積
 41
0.9992307692307693
  7
EXCADTTF1
 72
     5
 11
3330.0
 21
1875.625
 31
0.0
100
AcDbText
  0
TEXT
  5
135
330
1F
100
AcDbEntity
  8
図面枠
  6
CONTINUOUS
 62
     4
100
AcDbText
 10
3170.0
 20
1815.625
 30
0.0
 40
30.78137028483449
  1
最高使用圧力
 41
0.9992307692307691
  7
EXCADTTF1
 72
     5
 11
3410.0
 21
1815.625
 31
0.0
100
AcDbText
  0
TEXT
  5
136
330
1F
100
AcDbEntity
  8
図面枠
  6
CONTINUOUS
 62
     4
100
AcDbText
 10
3870.0
 20
1935.625
 30
0.0
 40
30.78137028483449
  1
mm
 41
0.9992307692307693
  7
EXCADTTF1
 72
     5
 11
3910.0
 21
1935.625
 31
0.0
100
AcDbText
  0
TEXT
  5
137
330
1F
100
AcDbEntity
  8
図面枠
  6
CONTINUOUS
 62
     4
100
AcDbText
 10
3870.0
 20
1815.625
 30
0.0
 40
30.78137028483449
  1
MPa
 41
0.9992307692307693
  7
EXCADTTF1
 72
     5
 11
3930.0
 21
1815.625
 31
0.0
100
AcDbText
  0
TEXT
  5
138
330
1F
100
AcDbEntity
  8
図面枠
  6
CONTINUOUS
 62
     4
100
AcDbText
 10
3170.0
 20
1935.625
 30
0.0
 40
30.78137028483449
  1
ピストン径
 41
0.9992307692307693
  7
EXCADTTF1
 72
     5
 11
3370.0
 21
1935.625
 31
0.0
100
AcDbText
  0
TEXT
  5
139
330
1F
100
AcDbEntity
  8
図面枠
  6
CONTINUOUS
 62
     4
100
AcDbText
 10
3770.0
 20
1995.625
 30
0.0
 40
30.78137028483449
  1
100
 41
0.9992307692307693
  7
EXCADTTF1
 72
     5
 11
3830.0
 21
1995.625
 31
0.0
100
AcDbText
  0
TEXT
  5
13A
330
1F
100
AcDbEntity
  8
図面枠
  6
CONTINUOUS
 62
     4
100
AcDbText
 10
3790.0
 20
1935.625
 30
0.0
 40
30.78137028483449
  1
70
 41
0.9992307692307693
  7
EXCADTTF1
 72
     5
 11
3830.0
 21
1935.625
 31
0.0
100
AcDbText
  0
TEXT
  5
13B
330
1F
100
AcDbEntity
  8
図面枠
  6
CONTINUOUS
 62
     4
100
AcDbText
 10
3750.0
 20
1815.625
 30
0.0
 40
30.78137028483449
  1
65.0
 41
0.9992307692307693
  7
EXCADTTF1
 72
     5
 11
3830.0
 21
1815.625
 31
0.0
100
AcDbText
  0
TEXT
  5
13C
330
1F
100
AcDbEntity
  8
図面枠
  6
CONTINUOUS
 62
     4
100
AcDbText
 10
3170.0
 20
1755.625
 30
0.0
 40
30.78137028483449
  1
所要油量
 41
0.9992307692307693
  7
EXCADTTF1
 72
     5
 11
3330.0
 21
1755.625
 31
0.0
100
AcDbText
  0
TEXT
  5
13D
330
1F
100
AcDbEntity
  8
図面枠
  6
CONTINUOUS
 62
     4
100
AcDbText
 10
3870.0
 20
1755.625
 30
0.0
 40
30.78137028483449
  1
L
 41
0.9992307692307693
  7
EXCADTTF1
 72
     5
 11
3890.0
 21
1755.625
 31
0.0
100
AcDbText
  0
LINE
  5
13E
330
1F
100
AcDbEntity
  8
図面枠
  6
CONTINUOUS
 62
     2
100
AcDbLine
 10
3150.0
 20
1800.0
 30
0.0
 11
4050.0
 21
1800.0
 31
0.0
  0
LINE
  5
13F
330
1F
100
AcDbEntity
  8
図面枠
  6
CONTINUOUS
 62
     3
100
AcDbLine
 10
3150.0
 20
1740.0
 30
0.0
 11
4050.0
 21
1740.0
 31
0.0
  0
LINE
  5
140
330
1F
100
AcDbEntity
  8
図面枠
  6
CONTINUOUS
 62
     3
100
AcDbLine
 10
3150.0
 20
2280.0
 30
0.0
 11
3150.0
 21
1740.0
 31
0.0
  0
LINE
  5
141
330
1F
100
AcDbEntity
  8
図面枠
  6
CONTINUOUS
 62
     2
100
AcDbLine
 10
3550.0
 20
2220.0
 30
0.0
 11
3550.0
 21
1740.0
 31
0.0
  0
LINE
  5
142
330
1F
100
AcDbEntity
  8
図面枠
  6
CONTINUOUS
 62
     2
100
AcDbLine
 10
3850.0
 20
2220.0
 30
0.0
 11
3850.0
 21
1740.0
 31
0.0
  0
LINE
  5
143
330
1F
100
AcDbEntity
  8
図面枠
  6
CONTINUOUS
 62
     3
100
AcDbLine
 10
4050.0
 20
2280.0
 30
0.0
 11
4050.0
 21
1740.0
 31
0.0
  0
LINE
  5
144
330
1F
100
AcDbEntity
  8
図面枠
  6
CONTINUOUS
 62
     3
100
AcDbLine
 10
3150.0
 20
1680.0
 30
0.0
 11
4050.0
 21
1680.0
 31
0.0
  0
LINE
  5
145
330
1F
100
AcDbEntity
  8
図面枠
  6
CONTINUOUS
 62
     3
100
AcDbLine
 10
3150.0
 20
1620.0
 30
0.0
 11
4050.0
 21
1620.0
 31
0.0
  0
TEXT
  5
146
330
1F
100
AcDbEntity
  8
図面枠
  6
CONTINUOUS
 62
     4
100
AcDbText
 10
3170.0
 20
1575.625
 30
0.0
 40
30.78137028483449
  1
能力
 41
0.9992307692307693
  7
EXCADTTF1
 72
     5
 11
3250.0
 21
1575.625
 31
0.0
100
AcDbText
  0
TEXT
  5
147
330
1F
100
AcDbEntity
  8
図面枠
  6
CONTINUOUS
 62
     4
100
AcDbText
 10
3870.0
 20
1575.625
 30
0.0
 40
30.78137028483449
  1
kN
 41
0.9992307692307693
  7
EXCADTTF1
 72
     5
 11
3910.0
 21
1575.625
 31
0.0
100
AcDbText
  0
TEXT
  5
148
330
1F
100
AcDbEntity
  8
図面枠
  6
CONTINUOUS
 62
     4
100
AcDbText
 10
3460.0
 20
1635.625
 30
0.0
 40
30.78137028483449
  1
ロードセル仕様
 41
0.9992307692307691
  7
EXCADTTF1
 72
     5
 11
3740.0
 21
1635.625
 31
0.0
100
AcDbText
  0
TEXT
  5
149
330
1F
100
AcDbEntity
  8
図面枠
  6
CONTINUOUS
 62
     4
100
AcDbText
 10
3750.0
 20
1575.625
 30
0.0
 40
30.78137028483449
  1
1000
 41
0.9992307692307693
  7
EXCADTTF1
 72
     5
 11
3830.0
 21
1575.625
 31
0.0
100
AcDbText
  0
LINE
  5
14A
330
1F
100
AcDbEntity
  8
図面枠
  6
CONTINUOUS
 62
     2
100
AcDbLine
 10
3150.0
 20
1560.0
 30
0.0
 11
4050.0
 21
1560.0
 31
0.0
  0
LINE
  5
14B
330
1F
100
AcDbEntity
  8
図面枠
  6
CONTINUOUS
 62
     2
100
AcDbLine
 10
3150.0
 20
1500.0
 30
0.0
 11
4050.0
 21
1500.0
 31
0.0
  0
LINE
  5
14C
330
1F
100
AcDbEntity
  8
図面枠
  6
CONTINUOUS
 62
     2
100
AcDbLine
 10
3150.0
 20
1440.0
 30
0.0
 11
4050.0
 21
1440.0
 31
0.0
  0
LINE
  5
14D
330
1F
100
AcDbEntity
  8
図面枠
  6
CONTINUOUS
 62
     2
100
AcDbLine
 10
3150.0
 20
1380.0
 30
0.0
 11
4050.0
 21
1380.0
 31
0.0
  0
LINE
  5
14E
330
1F
100
AcDbEntity
  8
図面枠
  6
CONTINUOUS
 62
     2
100
AcDbLine
 10
3150.0
 20
1320.0
 30
0.0
 11
4050.0
 21
1320.0
 31
0.0
  0
LINE
  5
14F
330
1F
100
AcDbEntity
  8
図面枠
  6
CONTINUOUS
 62
     2
100
AcDbLine
 10
3150.0
 20
1260.0
 30
0.0
 11
4050.0
 21
1260.0
 31
0.0
  0
TEXT
  5
150
330
1F
100
AcDbEntity
  8
図面枠
  6
CONTINUOUS
 62
     4
100
AcDbText
 10
3170.0
 20
1515.625
 30
0.0
 40
30.78137028483449
  1
ストローク
 41
0.9992307692307693
  7
EXCADTTF1
 72
     5
 11
3370.0
 21
1515.625
 31
0.0
100
AcDbText
  0
TEXT
  5
151
330
1F
100
AcDbEntity
  8
図面枠
  6
CONTINUOUS
 62
     4
100
AcDbText
 10
3170.0
 20
1455.625
 30
0.0
 40
30.78137028483449
  1
最低機械高
 41
0.9992307692307693
  7
EXCADTTF1
 72
     5
 11
3370.0
 21
1455.625
 31
0.0
100
AcDbText
  0
TEXT
  5
152
330
1F
100
AcDbEntity
  8
図面枠
  6
CONTINUOUS
 62
     4
100
AcDbText
 10
3170.0
 20
1395.625
 30
0.0
 40
30.78137028483449
  1
シリンダー外径
 41
0.9992307692307691
  7
EXCADTTF1
 72
     5
 11
3450.0
 21
1395.625
 31
0.0
100
AcDbText
  0
TEXT
  5
153
330
1F
100
AcDbEntity
  8
図面枠
  6
CONTINUOUS
 62
     4
100
AcDbText
 10
3870.0
 20
1515.625
 30
0.0
 40
30.78137028483449
  1
mm
 41
0.9992307692307693
  7
EXCADTTF1
 72
     5
 11
3910.0
 21
1515.625
 31
0.0
100
AcDbText
  0
TEXT
  5
154
330
1F
100
AcDbEntity
  8
図面枠
  6
CONTINUOUS
 62
     4
100
AcDbText
 10
3870.0
 20
1455.625
 30
0.0
 40
30.78137028483449
  1
mm
 41
0.9992307692307693
  7
EXCADTTF1
 72
     5
 11
3910.0
 21
1455.625
 31
0.0
100
AcDbText
  0
TEXT
  5
155
330
1F
100
AcDbEntity
  8
図面枠
  6
CONTINUOUS
 62
     4
100
AcDbText
 10
3870.0
 20
1395.625
 30
0.0
 40
30.78137028483449
  1
mm
 41
0.9992307692307693
  7
EXCADTTF1
 72
     5
 11
3910.0
 21
1395.625
 31
0.0
100
AcDbText
  0
TEXT
  5
156
330
1F
100
AcDbEntity
  8
図面枠
  6
CONTINUOUS
 62
     4
100
AcDbText
 10
3170.0
 20
1275.625
 30
0.0
 40
30.78137028483449
  1
受圧面積
 41
0.9992307692307693
  7
EXCADTTF1
 72
     5
 11
3330.0
 21
1275.625
 31
0.0
100
AcDbText
  0
TEXT
  5
157
330
1F
100
AcDbEntity
  8
図面枠
  6
CONTINUOUS
 62
     4
100
AcDbText
 10
3170.0
 20
1215.625
 30
0.0
 40
30.78137028483449
  1
最高使用圧力
 41
0.9992307692307691
  7
EXCADTTF1
 72
     5
 11
3410.0
 21
1215.625
 31
0.0
100
AcDbText
  0
TEXT
  5
158
330
1F
100
AcDbEntity
  8
図面枠
  6
CONTINUOUS
 62
     4
100
AcDbText
 10
3870.0
 20
1335.625
 30
0.0
 40
30.78137028483449
  1
mm
 41
0.9992307692307693
  7
EXCADTTF1
 72
     5
 11
3910.0
 21
1335.625
 31
0.0
100
AcDbText
  0
TEXT
  5
159
330
1F
100
AcDbEntity
  8
図面枠
  6
CONTINUOUS
 62
     4
100
AcDbText
 10
3870.0
 20
1215.625
 30
0.0
 40
30.78137028483449
  1
MPa
 41
0.9992307692307693
  7
EXCADTTF1
 72
     5
 11
3930.0
 21
1215.625
 31
0.0
100
AcDbText
  0
TEXT
  5
15A
330
1F
100
AcDbEntity
  8
図面枠
  6
CONTINUOUS
 62
     4
100
AcDbText
 10
3170.0
 20
1335.625
 30
0.0
 40
30.78137028483449
  1
ピストン径
 41
0.9992307692307693
  7
EXCADTTF1
 72
     5
 11
3370.0
 21
1335.625
 31
0.0
100
AcDbText
  0
TEXT
  5
15B
330
1F
100
AcDbEntity
  8
図面枠
  6
CONTINUOUS
 62
     4
100
AcDbText
 10
3790.0
 20
1515.625
 30
0.0
 40
30.78137028483449
  1
20
 41
0.9992307692307693
  7
EXCADTTF1
 72
     5
 11
3830.0
 21
1515.625
 31
0.0
100
AcDbText
  0
TEXT
  5
15C
330
1F
100
AcDbEntity
  8
図面枠
  6
CONTINUOUS
 62
     4
100
AcDbText
 10
3770.0
 20
1455.625
 30
0.0
 40
30.78137028483449
  1
203
 41
0.9992307692307693
  7
EXCADTTF1
 72
     5
 11
3830.0
 21
1455.625
 31
0.0
100
AcDbText
  0
TEXT
  5
15D
330
1F
100
AcDbEntity
  8
図面枠
  6
CONTINUOUS
 62
     4
100
AcDbText
 10
3770.0
 20
1395.625
 30
0.0
 40
30.78137028483449
  1
295
 41
0.9992307692307693
  7
EXCADTTF1
 72
     5
 11
3830.0
 21
1395.625
 31
0.0
100
AcDbText
  0
TEXT
  5
15E
330
1F
100
AcDbEntity
  8
図面枠
  6
CONTINUOUS
 62
     4
100
AcDbText
 10
3770.0
 20
1335.625
 30
0.0
 40
30.78137028483449
  1
235
 41
0.9992307692307693
  7
EXCADTTF1
 72
     5
 11
3830.0
 21
1335.625
 31
0.0
100
AcDbText
  0
TEXT
  5
15F
330
1F
100
AcDbEntity
  8
図面枠
  6
CONTINUOUS
 62
     4
100
AcDbText
 10
3750.0
 20
1215.625
 30
0.0
 40
30.78137028483449
  1
48.4
 41
0.9992307692307693
  7
EXCADTTF1
 72
     5
 11
3830.0
 21
1215.625
 31
0.0
100
AcDbText
  0
TEXT
  5
160
330
1F
100
AcDbEntity
  8
図面枠
  6
CONTINUOUS
 62
     4
100
AcDbText
 10
3170.0
 20
1155.625
 30
0.0
 40
30.78137028483449
  1
所要油量
 41
0.9992307692307693
  7
EXCADTTF1
 72
     5
 11
3330.0
 21
1155.625
 31
0.0
100
AcDbText
  0
TEXT
  5
161
330
1F
100
AcDbEntity
  8
図面枠
  6
CONTINUOUS
 62
     4
100
AcDbText
 10
3870.0
 20
1155.625
 30
0.0
 40
30.78137028483449
  1
L
 41
0.9992307692307693
  7
EXCADTTF1
 72
     5
 11
3890.0
 21
1155.625
 31
0.0
100
AcDbText
  0
LINE
  5
162
330
1F
100
AcDbEntity
  8
図面枠
  6
CONTINUOUS
 62
     2
100
AcDbLine
 10
3150.0
 20
1200.0
 30
0.0
 11
4050.0
 21
1200.0
 31
0.0
  0
LINE
  5
163
330
1F
100
AcDbEntity
  8
図面枠
  6
CONTINUOUS
 62
     3
100
AcDbLine
 10
3150.0
 20
1140.0
 30
0.0
 11
4050.0
 21
1140.0
 31
0.0
  0
LINE
  5
164
330
1F
100
AcDbEntity
  8
図面枠
  6
CONTINUOUS
 62
     3
100
AcDbLine
 10
3150.0
 20
1680.0
 30
0.0
 11
3150.0
 21
1140.0
 31
0.0
  0
LINE
  5
165
330
1F
100
AcDbEntity
  8
図面枠
  6
CONTINUOUS
 62
     2
100
AcDbLine
 10
3550.0
 20
1620.0
 30
0.0
 11
3550.0
 21
1140.0
 31
0.0
  0
LINE
  5
166
330
1F
100
AcDbEntity
  8
図面枠
  6
CONTINUOUS
 62
     2
100
AcDbLine
 10
3850.0
 20
1620.0
 30
0.0
 11
3850.0
 21
1140.0
 31
0.0
  0
LINE
  5
167
330
1F
100
AcDbEntity
  8
図面枠
  6
CONTINUOUS
 62
     3
100
AcDbLine
 10
4050.0
 20
1680.0
 30
0.0
 11
4050.0
 21
1140.0
 31
0.0
  0
TEXT
  5
168
330
1F
100
AcDbEntity
  8
図面枠
  6
CONTINUOUS
 62
     4
100
AcDbText
 10
2676.9372240885
 20
414.8914077179402
 30
0.0
 40
30.78137028483449
  1
※2）ワイヤー曲げ角度は5度以内としてください。
 41
0.9992307692307696
  7
EXCADTTF1
 72
     5
 11
3596.9372240885
 21
414.8914077179402
 31
0.0
100
AcDbText
  0
TEXT
  5
169
330
1F
100
AcDbEntity
  8
図面枠
  6
CONTINUOUS
 62
     4
100
AcDbText
 10
2676.9372240885
 20
374.8914077179402
 30
0.0
 40
30.78137028483449
  1
　　　ただし、曲げた状態での吊り上げ・吊り下げ作動
 41
0.9992307692307697
  7
EXCADTTF1
 72
     5
 11
3676.9372240885
 21
374.8914077179402
 31
0.0
100
AcDbText
  0
TEXT
  5
16A
330
1F
100
AcDbEntity
  8
図面枠
  6
CONTINUOUS
 62
     4
100
AcDbText
 10
2676.9372240885
 20
334.8914077179402
 30
0.0
 40
30.78137028483449
  1
　　　はできません。
 41
0.999230769230769
  7
EXCADTTF1
 72
     5
 11
3076.9372240885
 21
334.8914077179402
 31
0.0
100
AcDbText
  0
TEXT
  5
16B
330
1F
100
AcDbEntity
  8
図面枠
  6
CONTINUOUS
 62
     4
100
AcDbText
 10
2676.9372240885
 20
294.8914077179402
 30
0.0
 40
30.78137028483449
  1
　　(安全装置使用の場合は、曲げは許容しません)
 41
0.9992307692307695
  7
EXCADTTF1
 72
     5
 11
3596.9372240885
 21
294.8914077179402
 31
0.0
100
AcDbText
  0
TEXT
  5
16C
330
1F
100
AcDbEntity
  8
図面枠
  6
CONTINUOUS
 62
     4
100
AcDbText
 10
2676.9372240885
 20
254.8914077179402
 30
0.0
 40
30.78137028483449
  1
　
 41
0.9992307692307693
  7
EXCADTTF1
 72
     5
 11
2716.9372240885
 21
254.8914077179402
 31
0.0
100
AcDbText
  0
TEXT
  5
16D
330
1F
100
AcDbEntity
  8
図面枠
  6
CONTINUOUS
 62
     4
100
AcDbText
 10
2210.0
 20
2715.625
 30
0.0
 40
30.78137028483449
  1
能力　※1-①
 41
0.9992307692307691
  7
EXCADTTF1
 72
     5
 11
2450.0
 21
2715.625
 31
0.0
100
AcDbText
  0
TEXT
  5
16E
330
1F
100
AcDbEntity
  8
図面枠
  6
CONTINUOUS
 62
     4
100
AcDbText
 10
3169.999999999999
 20
2715.625
 30
0.0
 40
30.78137028483449
  1
能力　※1-②
 41
0.9992307692307691
  7
EXCADTTF1
 72
     5
 11
3409.999999999999
 21
2715.625
 31
0.0
100
AcDbText
  0
TEXT
  5
16F
330
1F
100
AcDbEntity
  8
図面枠
  6
CONTINUOUS
 62
     4
100
AcDbText
 10
3170.0
 20
2175.625
 30
0.0
 40
30.78137028483449
  1
能力　※1-③
 41
0.9992307692307691
  7
EXCADTTF1
 72
     5
 11
3410.0
 21
2175.625
 31
0.0
100
AcDbText
  0
TEXT
  5
170
330
1F
100
AcDbEntity
  8
図面枠
  6
CONTINUOUS
 62
     4
100
AcDbText
 10
2676.9372240885
 20
1008.89140771794
 30
0.0
 40
30.78137028483449
  1
※1）本装置を直下吊で使用する場合は「ジャッキ式つり上げ機械の構造基準」
 41
0.999230769230769
  7
EXCADTTF1
 72
     5
 11
4096.9372240885
 21
1008.89140771794
 31
0.0
100
AcDbText
  0
TEXT
  5
171
330
1F
100
AcDbEntity
  8
図面枠
  6
CONTINUOUS
 62
     4
100
AcDbText
 10
2676.9372240885
 20
968.8914077179402
 30
0.0
 40
30.78137028483449
  1
　　　に規程された範囲内で使用すること。
 41
0.9992307692307695
  7
EXCADTTF1
 72
     5
 11
3476.9372240885
 21
968.8914077179402
 31
0.0
100
AcDbText
  0
TEXT
  5
172
330
1F
100
AcDbEntity
  8
図面枠
  6
CONTINUOUS
 62
     4
100
AcDbText
 10
2676.9372240885
 20
928.8914077179402
 30
0.0
 40
30.78137028483449
  1
　　　「ジャッキ式つり上げ機械の構造基準」定められた安全率による値と
 41
0.9992307692307691
  7
EXCADTTF1
 72
     5
 11
4036.9372240885
 21
928.8914077179402
 31
0.0
100
AcDbText
  0
TEXT
  5
173
330
1F
100
AcDbEntity
  8
図面枠
  6
CONTINUOUS
 62
     4
100
AcDbText
 10
2676.9372240885
 20
888.8914077179402
 30
0.0
 40
30.78137028483449
  1
　　　本装置の能力を下記に示す。
 41
0.9992307692307693
  7
EXCADTTF1
 72
     5
 11
3316.9372240885
 21
888.8914077179402
 31
0.0
100
AcDbText
  0
TEXT
  5
174
330
1F
100
AcDbEntity
  8
図面枠
  6
CONTINUOUS
 62
     4
100
AcDbText
 10
2676.9372240885
 20
768.8914077179402
 30
0.0
 40
30.78137028483449
  1
　　①吊材の安全率　S=3.55（ワイヤロープを使用）
 41
0.9992307692307697
  7
EXCADTTF1
 72
     5
 11
3636.9372240885
 21
768.8914077179402
 31
0.0
100
AcDbText
  0
TEXT
  5
175
330
1F
100
AcDbEntity
  8
図面枠
  6
CONTINUOUS
 62
     4
100
AcDbText
 10
2676.9372240885
 20
728.8914077179402
 30
0.0
 40
30.78137028483449
  1
　　　・吊上げ能力　　724kN（ワイヤー破断荷重／3.55）
 41
0.9992307692307696
  7
EXCADTTF1
 72
     5
 11
3736.9372240885
 21
728.8914077179402
 31
0.0
100
AcDbText
  0
TEXT
  5
176
330
1F
100
AcDbEntity
  8
図面枠
  6
CONTINUOUS
 62
     4
100
AcDbText
 10
2676.9372240885
 20
688.8914077179402
 30
0.0
 40
30.78137028483449
  1
　　
 41
0.9992307692307693
  7
EXCADTTF1
 72
     5
 11
2756.9372240885
 21
688.8914077179402
 31
0.0
100
AcDbText
  0
TEXT
  5
177
330
1F
100
AcDbEntity
  8
図面枠
  6
CONTINUOUS
 62
     4
100
AcDbText
 10
2676.9372240885
 20
648.8914077179402
 30
0.0
 40
30.78137028483449
  1
　　②保持能力の安全率　S=2.0　724KN×2＝1448KN
 41
0.9992307692307687
  7
EXCADTTF1
 72
     5
 11
3616.9372240885
 21
648.8914077179402
 31
0.0
100
AcDbText
  0
TEXT
  5
178
330
1F
100
AcDbEntity
  8
図面枠
  6
CONTINUOUS
 62
     4
100
AcDbText
 10
2676.9372240885
 20
608.8914077179402
 30
0.0
 40
30.78137028483449
  1
　　　・本装置の保持能力　　1500KN以上（社内試験値）
 41
0.9992307692307693
  7
EXCADTTF1
 72
     5
 11
3716.9372240885
 21
608.8914077179402
 31
0.0
100
AcDbText
  0
TEXT
  5
179
330
1F
100
AcDbEntity
  8
図面枠
  6
CONTINUOUS
 62
     4
100
AcDbText
 10
2676.9372240885
 20
568.8914077179402
 30
0.0
 40
30.78137028483449
  1
　　　
 41
0.9992307692307693
  7
EXCADTTF1
 72
     5
 11
2796.9372240885
 21
568.8914077179402
 31
0.0
100
AcDbText
  0
TEXT
  5
17A
330
1F
100
AcDbEntity
  8
図面枠
  6
CONTINUOUS
 62
     4
100
AcDbText
 10
2676.9372240885
 20
528.8914077179402
 30
0.0
 40
30.78137028483449
  1
　　③油圧ジャッキ能力　垂直荷重の1.1倍以上の能力　724KN×1.1＝797KN
 41
0.99923076923077
  7
EXCADTTF1
 72
     5
 11
4036.9372240885
 21
528.8914077179402
 31
0.0
100
AcDbText
  0
TEXT
  5
17B
330
1F
100
AcDbEntity
  8
図面枠
  6
CONTINUOUS
 62
     4
100
AcDbText
 10
2676.9372240885
 20
488.8914077179402
 30
0.0
 40
30.78137028483449
  1
　　　・本装置の油圧ジャッキ能力　　1000KN　
 41
0.9992307692307691
  7
EXCADTTF1
 72
     5
 11
3556.9372240885
 21
488.8914077179402
 31
0.0
100
AcDbText
  0
TEXT
  5
17C
330
1F
100
AcDbEntity
  8
図面枠
  6
CONTINUOUS
 62
     4
100
AcDbText
 10
3730.0
 20
1275.625
 30
0.0
 40
30.78137028483449
  1
206.8
 41
0.9992307692307693
  7
EXCADTTF1
 72
     5
 11
3830.0
 21
1275.625
 31
0.0
100
AcDbText
  0
TEXT
  5
17D
330
1F
100
AcDbEntity
  8
図面枠
  6
CONTINUOUS
 62
     4
100
AcDbText
 10
3750.0
 20
1155.625
 30
0.0
 40
30.78137028483449
  1
0.41
 41
0.9992307692307693
  7
EXCADTTF1
 72
     5
 11
3830.0
 21
1155.625
 31
0.0
100
AcDbText
  0
TEXT
  5
17E
330
1F
100
AcDbEntity
  8
図面枠
  6
CONTINUOUS
 62
     4
100
AcDbText
 10
3769.999999999999
 20
2355.625
 30
0.0
 40
30.78137028483449
  1
1.7
 41
0.9992307692307693
  7
EXCADTTF1
 72
     5
 11
3829.999999999999
 21
2355.625
 31
0.0
100
AcDbText
  0
TEXT
  5
17F
330
1F
100
AcDbEntity
  8
図面枠
  6
CONTINUOUS
 62
     4
100
AcDbText
 10
3750.0
 20
1875.625
 30
0.0
 40
30.78137028483449
  1
38.5
 41
0.9992307692307693
  7
EXCADTTF1
 72
     5
 11
3830.0
 21
1875.625
 31
0.0
100
AcDbText
  0
TEXT
  5
180
330
1F
100
AcDbEntity
  8
図面枠
  6
CONTINUOUS
 62
     4
100
AcDbText
 10
3630.0
 20
1755.625
 30
0.0
 40
30.78137028483449
  1
1.9×4=7.7
 41
0.999230769230769
  7
EXCADTTF1
 72
     5
 11
3830.0
 21
1755.625
 31
0.0
100
AcDbText
  0
TEXT
  5
181
330
1F
100
AcDbEntity
  8
図面枠
  6
CONTINUOUS
 62
     4
100
AcDbText
 10
2757.5
 20
2533.828125
 30
0.0
 40
34.6290415704388
  1
約635
 41
0.9992307692307691
  7
EXCADTTF1
 72
     5
 11
2870.0
 21
2533.828125
 31
0.0
100
AcDbText
  0
CIRCLE
  5
182
330
1F
100
AcDbEntity
  8
Ｓ_１_１
  6
EXLTYPE2
 62
     1
100
AcDbCircle
 10
1079.999999999999
 20
659.9999999999994
 30
0.0
 40
149.999998
  0
CIRCLE
  5
183
330
1F
100
AcDbEntity
  8
Ｓ_１_１
  6
EXLTYPE2
 62
     1
100
AcDbCircle
 10
1079.999999999999
 20
659.9999999999994
 30
0.0
 40
89.999999
  0
LINE
  5
184
330
1F
100
AcDbEntity
  8
Ｓ_１_１
  6
EXLTYPE2
 62
     1
100
AcDbLine
 10
1131.366404999999
 20
608.6335599999992
 30
0.0
 11
1154.445263
 21
585.5547019999993
 31
0.0
  0
LINE
  5
185
330
1F
100
AcDbEntity
  8
Ｓ_１_１
  6
EXLTYPE2
 62
     1
100
AcDbLine
 10
1133.302637999999
 20
713.3026049999993
 30
0.0
 11
1155.039729999999
 21
735.0396959999993
 31
0.0
  0
LINE
  5
186
330
1F
100
AcDbEntity
  8
Ｓ_１_１
  6
EXLTYPE2
 62
     1
100
AcDbLine
 10
1005.832175999999
 20
585.8321429999995
 30
0.0
 11
1026.227473999999
 21
606.2274399999995
 31
0.0
  0
LINE
  5
187
330
1F
100
AcDbEntity
  8
Ｓ_１_１
  6
EXLTYPE2
 62
     1
100
AcDbLine
 10
1004.969358999999
 20
735.0306059999992
 30
0.0
 11
1026.438059999999
 21
713.5619049999995
 31
0.0
  0
LINE
  5
188
330
1F
100
AcDbEntity
  8
Ｓ_１_１
  6
EXLTYPE2
 62
     1
100
AcDbLine
 10
937.1058169999995
 20
742.5000069999995
 30
0.0
 11
963.0865779999984
 21
727.5000079999993
 31
0.0
  0
LINE
  5
189
330
1F
100
AcDbEntity
  8
Ｓ_１_１
  6
EXLTYPE2
 62
     1
100
AcDbLine
 10
1196.913454
 20
592.4999949999991
 30
0.0
 11
1222.894215999998
 21
577.4999959999994
 31
0.0
  0
LINE
  5
18A
330
1F
100
AcDbEntity
  8
Ｓ_１_１
  6
EXLTYPE2
 62
     1
100
AcDbLine
 10
1147.500022999999
 20
543.0865809999995
 30
0.0
 11
1162.500022999999
 21
517.1058199999997
 31
0.0
  0
LINE
  5
18B
330
1F
100
AcDbEntity
  8
Ｓ_１_１
  6
EXLTYPE2
 62
     1
100
AcDbLine
 10
997.5000449999987
 20
802.8941609999993
 30
0.0
 11
1012.500044999999
 21
776.9133999999993
 31
0.0
  0
LINE
  5
18C
330
1F
100
AcDbEntity
  8
Ｓ_１_１
  6
EXLTYPE2
 62
     1
100
AcDbLine
 10
1147.500027999999
 20
776.9134199999993
 30
0.0
 11
1162.500027999999
 21
802.8941809999995
 31
0.0
  0
LINE
  5
18D
330
1F
100
AcDbEntity
  8
Ｓ_１_１
  6
EXLTYPE2
 62
     1
100
AcDbLine
 10
997.5000299999991
 20
517.1058069999993
 30
0.0
 11
1012.500029999999
 21
543.086568999999
 31
0.0
  0
LINE
  5
18E
330
1F
100
AcDbEntity
  8
Ｓ_１_１
  6
EXLTYPE2
 62
     1
100
AcDbLine
 10
1196.913468999999
 20
727.4999729999994
 30
0.0
 11
1222.894229999999
 21
742.4999729999994
 31
0.0
  0
LINE
  5
18F
330
1F
100
AcDbEntity
  8
Ｓ_１_１
  6
EXLTYPE2
 62
     1
100
AcDbLine
 10
937.1058569999985
 20
577.4999749999996
 30
0.0
 11
963.0866179999992
 21
592.4999749999996
 31
0.0
  0
LINE
  5
190
330
1F
100
AcDbEntity
  8
Ｓ_１_１
  6
EXLTYPE2
 62
     1
100
AcDbLine
 10
929.4264289999991
 20
509.4263959999993
 30
0.0
 11
990.5976489999993
 21
570.5976149999996
 31
0.0
  0
LINE
  5
191
330
1F
100
AcDbEntity
  8
Ｓ_１_１
  6
EXLTYPE2
 62
     1
100
AcDbLine
 10
948.9838879999987
 20
543.5287109999994
 30
0.0
 11
964.8705789999985
 21
527.6420199999992
 31
0.0
  0
LINE
  5
192
330
1F
100
AcDbEntity
  8
Ｓ_１_１
  6
EXLTYPE2
 62
     1
100
AcDbLine
 10
929.4264009999987
 20
810.5735639999992
 30
0.0
 11
990.5976219999992
 21
749.4023439999991
 31
0.0
  0
LINE
  5
193
330
1F
100
AcDbEntity
  8
Ｓ_１_１
  6
EXLTYPE2
 62
     1
100
AcDbLine
 10
963.5287689999985
 20
791.0161069999994
 30
0.0
 11
947.6420639999996
 21
775.1294029999993
 31
0.0
  0
LINE
  5
194
330
1F
100
AcDbEntity
  8
Ｓ_１_１
  6
EXLTYPE2
 62
     1
100
AcDbLine
 10
1230.573622999998
 20
810.5735899999994
 30
0.0
 11
1169.402349999998
 21
749.4023169999995
 31
0.0
  0
LINE
  5
195
330
1F
100
AcDbEntity
  8
Ｓ_１_１
  6
EXLTYPE2
 62
     1
100
AcDbLine
 10
1211.016109999999
 20
776.4712199999993
 30
0.0
 11
1195.129432999999
 21
792.3578979999992
 31
0.0
  0
LINE
  5
196
330
1F
100
AcDbEntity
  8
Ｓ_１_１
  6
EXLTYPE2
 62
     1
100
AcDbLine
 10
1299.999995999998
 20
710.4815669999991
 30
0.0
 11
1299.999995999998
 21
610.4397589999993
 31
0.0
  0
LINE
  5
197
330
1F
100
AcDbEntity
  8
Ｓ_１_１
  6
EXLTYPE2
 62
     1
100
AcDbLine
 10
1130.481565999999
 20
439.9999269999993
 30
0.0
 11
1030.439758999999
 21
439.9999269999993
 31
0.0
  0
LINE
  5
198
330
1F
100
AcDbEntity
  8
Ｓ_１_１
  6
EXLTYPE2
 62
     1
100
AcDbLine
 10
860.0000029999991
 20
609.5184339999995
 30
0.0
 11
860.0000029999991
 21
709.560240999999
 31
0.0
  0
LINE
  5
199
330
1F
100
AcDbEntity
  8
Ｓ_１_１
  6
EXLTYPE2
 62
     1
100
AcDbLine
 10
1230.573609999999
 20
509.4263549999995
 30
0.0
 11
1169.402364
 21
570.5976019999993
 31
0.0
  0
LINE
  5
19A
330
1F
100
AcDbEntity
  8
Ｓ_１_１
  6
EXLTYPE2
 62
     1
100
AcDbLine
 10
1196.471293999999
 20
528.9838679999992
 30
0.0
 11
1212.357945
 21
544.870518999999
 31
0.0
  0
LINE
  5
19B
330
1F
100
AcDbEntity
  8
Ｓ_１_１
  6
EXLTYPE2
 62
     1
100
AcDbLine
 10
1029.518432999999
 20
879.9999969999993
 30
0.0
 11
1129.560240999999
 21
879.9999969999993
 31
0.0
  0
LINE
  5
19C
330
1F
100
AcDbEntity
  8
Ｓ_１_１
  6
EXLTYPE2
 62
     1
100
AcDbLine
 10
791.8037449999991
 20
659.9999999999994
 30
0.0
 11
1363.764738999999
 21
659.9999999999994
 31
0.0
  0
LINE
  5
19D
330
1F
100
AcDbEntity
  8
Ｓ_１_１
  6
EXLTYPE2
 62
     1
100
AcDbLine
 10
1079.999999999999
 20
938.4974629999994
 30
0.0
 11
1079.999999999999
 21
379.1249889999993
 31
0.0
  0
ARC
  5
19E
330
1F
100
AcDbEntity
  8
Ｓ_１_１
  6
EXLTYPE0
 62
     2
100
AcDbCircle
 10
1299.999995999998
 20
659.9999999999994
 30
0.0
 40
34.99999900000001
100
AcDbArc
 50
209.9998800000001
 51
330.000105
  0
ARC
  5
19F
330
1F
100
AcDbEntity
  8
Ｓ_１_１
  6
EXLTYPE0
 62
     2
100
AcDbCircle
 10
1299.999995999998
 20
659.9999999999994
 30
0.0
 40
34.99999900000001
100
AcDbArc
 50
30.00014099999999
 51
89.99998900000001
  0
ARC
  5
1A0
330
1F
100
AcDbEntity
  8
Ｓ_１_１
  6
EXLTYPE0
 62
     2
100
AcDbCircle
 10
1299.999995999998
 20
659.9999999999994
 30
0.0
 40
34.99999900000001
100
AcDbArc
 50
89.99998900000001
 51
149.9998470000001
  0
ARC
  5
1A1
330
1F
100
AcDbEntity
  8
Ｓ_１_１
  6
EXLTYPE0
 62
     2
100
AcDbCircle
 10
1079.999999999999
 20
439.9999269999993
 30
0.0
 40
34.99999900000001
100
AcDbArc
 50
119.99988
 51
240.0001160000003
  0
ARC
  5
1A2
330
1F
100
AcDbEntity
  8
Ｓ_１_１
  6
EXLTYPE0
 62
     2
100
AcDbCircle
 10
1079.999999999999
 20
439.9999269999993
 30
0.0
 40
34.99999900000001
100
AcDbArc
 50
300.000142
 51
359.9999910000001
  0
ARC
  5
1A3
330
1F
100
AcDbEntity
  8
Ｓ_１_１
  6
EXLTYPE0
 62
     2
100
AcDbCircle
 10
1079.999999999999
 20
439.9999269999993
 30
0.0
 40
34.99999900000001
100
AcDbArc
 50
359.9999910000001
 51
59.99984499999999
  0
ARC
  5
1A4
330
1F
100
AcDbEntity
  8
Ｓ_１_１
  6
EXLTYPE0
 62
     2
100
AcDbCircle
 10
860.0000029999991
 20
659.9999999999994
 30
0.0
 40
34.99999900000001
100
AcDbArc
 50
29.99987399999998
 51
150.0001070000001
  0
ARC
  5
1A5
330
1F
100
AcDbEntity
  8
Ｓ_１_１
  6
EXLTYPE0
 62
     2
100
AcDbCircle
 10
860.0000029999991
 20
659.9999999999994
 30
0.0
 40
34.99999900000001
100
AcDbArc
 50
210.000139
 51
269.9999910000002
  0
ARC
  5
1A6
330
1F
100
AcDbEntity
  8
Ｓ_１_１
  6
EXLTYPE0
 62
     2
100
AcDbCircle
 10
860.0000029999991
 20
659.9999999999994
 30
0.0
 40
34.99999900000001
100
AcDbArc
 50
269.9999910000002
 51
329.999842
  0
ARC
  5
1A7
330
1F
100
AcDbEntity
  8
Ｓ_１_１
  6
EXLTYPE0
 62
     2
100
AcDbCircle
 10
1079.999999999999
 20
879.9999969999993
 30
0.0
 40
34.99999900000001
100
AcDbArc
 50
299.9998750000001
 51
60.00010400000001
  0
ARC
  5
1A8
330
1F
100
AcDbEntity
  8
Ｓ_１_１
  6
EXLTYPE0
 62
     2
100
AcDbCircle
 10
1079.999999999999
 20
879.9999969999993
 30
0.0
 40
34.99999900000001
100
AcDbArc
 50
120.00014
 51
179.999991
  0
ARC
  5
1A9
330
1F
100
AcDbEntity
  8
Ｓ_１_１
  6
EXLTYPE0
 62
     2
100
AcDbCircle
 10
1079.999999999999
 20
879.9999969999993
 30
0.0
 40
34.99999900000001
100
AcDbArc
 50
179.999991
 51
239.999843
  0
LINE
  5
1AA
330
1F
100
AcDbEntity
  8
Ｓ_１_１
  6
EXLTYPE0
 62
     2
100
AcDbLine
 10
1320.000071999998
 20
623.4999089999991
 30
0.0
 11
1320.000071999998
 21
696.4998629999994
 31
0.0
  0
LINE
  5
1AB
330
1F
100
AcDbEntity
  8
Ｓ_１_１
  6
EXLTYPE0
 62
     2
100
AcDbLine
 10
1280.000072999999
 20
623.4999089999991
 30
0.0
 11
1280.000072999999
 21
696.4998629999994
 31
0.0
  0
LINE
  5
1AC
330
1F
100
AcDbEntity
  8
Ｓ_１_１
  6
EXLTYPE0
 62
     2
100
AcDbLine
 10
1043.499984999999
 20
419.9998509999995
 30
0.0
 11
1116.499937999999
 21
419.9998509999995
 31
0.0
  0
LINE
  5
1AD
330
1F
100
AcDbEntity
  8
Ｓ_１_１
  6
EXLTYPE0
 62
     2
100
AcDbLine
 10
1043.499984999999
 20
459.9999269999993
 30
0.0
 11
1116.499937999999
 21
459.9999269999993
 31
0.0
  0
LINE
  5
1AE
330
1F
100
AcDbEntity
  8
Ｓ_１_１
  6
EXLTYPE0
 62
     2
100
AcDbLine
 10
839.9999269999989
 20
696.5000149999995
 30
0.0
 11
839.9999269999989
 21
623.500061999999
 31
0.0
  0
LINE
  5
1AF
330
1F
100
AcDbEntity
  8
Ｓ_１_１
  6
EXLTYPE0
 62
     2
100
AcDbLine
 10
879.9999259999985
 20
696.5000149999995
 30
0.0
 11
879.9999259999985
 21
623.500061999999
 31
0.0
  0
LINE
  5
1B0
330
1F
100
AcDbEntity
  8
Ｓ_１_１
  6
EXLTYPE0
 62
     2
100
AcDbLine
 10
1116.500013999999
 20
900.0000729999994
 30
0.0
 11
1043.500060999999
 21
900.0000729999994
 31
0.0
  0
LINE
  5
1B1
330
1F
100
AcDbEntity
  8
Ｓ_１_１
  6
EXLTYPE0
 62
     2
100
AcDbLine
 10
1116.500013999999
 20
860.0000739999996
 30
0.0
 11
1043.500060999999
 21
860.0000739999996
 31
0.0
  0
ARC
  5
1B2
330
1F
100
AcDbEntity
  8
Ｓ_１_１
  6
CONTINUOUS
 62
     3
100
AcDbCircle
 10
887.0654319999994
 20
704.5000459999991
 30
0.0
 40
8.0
100
AcDbArc
 50
270.0000180000001
 51
347.0119560000002
  0
ARC
  5
1B3
330
1F
100
AcDbEntity
  8
Ｓ_１_１
  6
CONTINUOUS
 62
     3
100
AcDbCircle
 10
887.0654319999994
 20
615.5001079999992
 30
0.0
 40
8.0
100
AcDbArc
 50
12.98804399999998
 51
89.99998199999999
  0
ARC
  5
1B4
330
1F
100
AcDbEntity
  8
Ｓ_１_１
  6
CONTINUOUS
 62
     3
100
AcDbCircle
 10
1035.499877999999
 20
467.0654329999996
 30
0.0
 40
8.0
100
AcDbArc
 50
0.0
 51
77.01168699999998
  0
ARC
  5
1B5
330
1F
100
AcDbEntity
  8
Ｓ_１_１
  6
CONTINUOUS
 62
     3
100
AcDbCircle
 10
1124.499891999999
 20
467.0653569999994
 30
0.0
 40
8.0
100
AcDbArc
 50
102.987798
 51
179.999964
  0
ARC
  5
1B6
330
1F
100
AcDbEntity
  8
Ｓ_１_１
  6
CONTINUOUS
 62
     3
100
AcDbCircle
 10
1272.934566999998
 20
615.4999549999992
 30
0.0
 40
8.0
100
AcDbArc
 50
89.99998199999999
 51
167.011977
  0
ARC
  5
1B7
330
1F
100
AcDbEntity
  8
Ｓ_１_１
  6
CONTINUOUS
 62
     3
100
AcDbCircle
 10
1272.934566999998
 20
704.4998929999991
 30
0.0
 40
8.0
100
AcDbArc
 50
192.988023
 51
270.0000180000001
  0
ARC
  5
1B8
330
1F
100
AcDbEntity
  8
Ｓ_１_１
  6
CONTINUOUS
 62
     3
100
AcDbCircle
 10
1035.500106999999
 20
852.9345679999994
 30
0.0
 40
8.0
100
AcDbArc
 50
282.9877799999999
 51
0.0
  0
ARC
  5
1B9
330
1F
100
AcDbEntity
  8
Ｓ_１_１
  6
CONTINUOUS
 62
     3
100
AcDbCircle
 10
1124.500120999999
 20
852.9344919999994
 30
0.0
 40
8.0
100
AcDbArc
 50
179.9999780000001
 51
257.0116580000001
  0
ARC
  5
1BA
330
1F
100
AcDbEntity
  8
Ｓ_１_１
  6
CONTINUOUS
 62
     3
100
AcDbCircle
 10
1079.999999999999
 20
659.9999999999994
 30
0.0
 40
189.999997
100
AcDbArc
 50
192.987982
 51
222.521543
  0
ARC
  5
1BB
330
1F
100
AcDbEntity
  8
Ｓ_１_１
  6
CONTINUOUS
 62
     3
100
AcDbCircle
 10
1079.999999999999
 20
659.9999999999994
 30
0.0
 40
189.999997
100
AcDbArc
 50
227.478402
 51
257.0119280000001
  0
ARC
  5
1BC
330
1F
100
AcDbEntity
  8
Ｓ_１_１
  6
CONTINUOUS
 62
     3
100
AcDbCircle
 10
1079.999999999999
 20
659.9999999999994
 30
0.0
 40
189.999997
100
AcDbArc
 50
282.988005
 51
312.5215790000001
  0
ARC
  5
1BD
330
1F
100
AcDbEntity
  8
Ｓ_１_１
  6
CONTINUOUS
 62
     3
100
AcDbCircle
 10
1079.999999999999
 20
659.9999999999994
 30
0.0
 40
189.999997
100
AcDbArc
 50
317.478435
 51
347.0119570000002
  0
ARC
  5
1BE
330
1F
100
AcDbEntity
  8
Ｓ_１_１
  6
CONTINUOUS
 62
     3
100
AcDbCircle
 10
1079.999999999999
 20
659.9999999999994
 30
0.0
 40
189.999997
100
AcDbArc
 50
12.987997
 51
42.52156500000002
  0
ARC
  5
1BF
330
1F
100
AcDbEntity
  8
Ｓ_１_１
  6
CONTINUOUS
 62
     3
100
AcDbCircle
 10
1079.999999999999
 20
659.9999999999994
 30
0.0
 40
189.999997
100
AcDbArc
 50
47.47842799999999
 51
77.01194700000003
  0
ARC
  5
1C0
330
1F
100
AcDbEntity
  8
Ｓ_１_１
  6
CONTINUOUS
 62
     3
100
AcDbCircle
 10
1079.999999999999
 20
659.9999999999994
 30
0.0
 40
189.999997
100
AcDbArc
 50
102.988024
 51
132.5215980000002
  0
ARC
  5
1C1
330
1F
100
AcDbEntity
  8
Ｓ_１_１
  6
CONTINUOUS
 62
     3
100
AcDbCircle
 10
1079.999999999999
 20
659.9999999999994
 30
0.0
 40
189.999997
100
AcDbArc
 50
137.478444
 51
167.011977
  0
ARC
  5
1C2
330
1F
100
AcDbEntity
  8
Ｓ_１_１
  6
CONTINUOUS
 62
     3
100
AcDbCircle
 10
1079.999999999999
 20
659.9999999999994
 30
0.0
 40
199.999997
100
AcDbArc
 50
137.292458
 51
155.8522670000001
  0
ARC
  5
1C3
330
1F
100
AcDbEntity
  8
Ｓ_１_１
  6
CONTINUOUS
 62
     3
100
AcDbCircle
 10
1079.999999999999
 20
659.9999999999994
 30
0.0
 40
199.999997
100
AcDbArc
 50
317.2924420000002
 51
335.8522520000004
  0
ARC
  5
1C4
330
1F
100
AcDbEntity
  8
Ｓ_１_１
  6
CONTINUOUS
 62
     3
100
AcDbCircle
 10
1079.999999999999
 20
659.9999999999994
 30
0.0
 40
199.999997
100
AcDbArc
 50
47.29244199999999
 51
65.85226500000003
  0
ARC
  5
1C5
330
1F
100
AcDbEntity
  8
Ｓ_１_１
  6
CONTINUOUS
 62
     3
100
AcDbCircle
 10
1079.999999999999
 20
659.9999999999994
 30
0.0
 40
199.999997
100
AcDbArc
 50
227.2924300000001
 51
245.852246
  0
ARC
  5
1C6
330
1F
100
AcDbEntity
  8
Ｓ_１_１
  6
CONTINUOUS
 62
     3
100
AcDbCircle
 10
1280.748592999998
 20
570.0000019999992
 30
0.0
 40
20.0
100
AcDbArc
 50
89.99998199999999
 51
155.8523490000001
  0
ARC
  5
1C7
330
1F
100
AcDbEntity
  8
Ｓ_１_１
  6
CONTINUOUS
 62
     3
100
AcDbCircle
 10
1169.999997999999
 20
459.2513309999994
 30
0.0
 40
20.0
100
AcDbArc
 50
114.147788
 51
179.999964
  0
ARC
  5
1C8
330
1F
100
AcDbEntity
  8
Ｓ_１_１
  6
CONTINUOUS
 62
     3
100
AcDbCircle
 10
990.0000009999993
 20
459.2513309999994
 30
0.0
 40
20.0
100
AcDbArc
 50
0.0
 51
65.852231
  0
ARC
  5
1C9
330
1F
100
AcDbEntity
  8
Ｓ_１_１
  6
CONTINUOUS
 62
     3
100
AcDbCircle
 10
879.2514069999996
 20
570.0000019999992
 30
0.0
 40
20.0
100
AcDbArc
 50
24.14767100000002
 51
89.99998199999999
  0
ARC
  5
1CA
330
1F
100
AcDbEntity
  8
Ｓ_１_１
  6
CONTINUOUS
 62
     3
100
AcDbCircle
 10
879.2514069999996
 20
749.9999989999995
 30
0.0
 40
20.0
100
AcDbArc
 50
270.0000180000001
 51
335.8523290000001
  0
ARC
  5
1CB
330
1F
100
AcDbEntity
  8
Ｓ_１_１
  6
CONTINUOUS
 62
     3
100
AcDbCircle
 10
1280.748592999998
 20
749.9999989999995
 30
0.0
 40
20.0
100
AcDbArc
 50
204.1476510000001
 51
270.0000180000001
  0
ARC
  5
1CC
330
1F
100
AcDbEntity
  8
Ｓ_１_１
  6
CONTINUOUS
 62
     3
100
AcDbCircle
 10
1169.999997999999
 20
860.7485939999993
 30
0.0
 40
20.0
100
AcDbArc
 50
179.9999780000001
 51
245.852195
  0
ARC
  5
1CD
330
1F
100
AcDbEntity
  8
Ｓ_１_１
  6
CONTINUOUS
 62
     3
100
AcDbCircle
 10
990.0000009999993
 20
860.7485939999993
 30
0.0
 40
20.0
100
AcDbArc
 50
294.1477900000003
 51
0.0
  0
ARC
  5
1CE
330
1F
100
AcDbEntity
  8
Ｓ_１_１
  6
CONTINUOUS
 62
     3
100
AcDbCircle
 10
1079.999999999999
 20
659.9999999999994
 30
0.0
 40
199.999997
100
AcDbArc
 50
294.1477350000001
 51
312.707558
  0
ARC
  5
1CF
330
1F
100
AcDbEntity
  8
Ｓ_１_１
  6
CONTINUOUS
 62
     3
100
AcDbCircle
 10
1079.999999999999
 20
659.9999999999994
 30
0.0
 40
199.999997
100
AcDbArc
 50
24.14774800000002
 51
42.70755799999998
  0
ARC
  5
1D0
330
1F
100
AcDbEntity
  8
Ｓ_１_１
  6
CONTINUOUS
 62
     3
100
AcDbCircle
 10
1079.999999999999
 20
659.9999999999994
 30
0.0
 40
199.999997
100
AcDbArc
 50
114.147754
 51
132.70757
  0
ARC
  5
1D1
330
1F
100
AcDbEntity
  8
Ｓ_１_１
  6
CONTINUOUS
 62
     3
100
AcDbCircle
 10
1079.999999999999
 20
659.9999999999994
 30
0.0
 40
199.999997
100
AcDbArc
 50
204.147733
 51
222.7075420000002
  0
CIRCLE
  5
1D2
330
1F
100
AcDbEntity
  8
Ｓ_１_１
  6
CONTINUOUS
 62
     3
100
AcDbCircle
 10
930.0000019999987
 20
659.9999999999994
 30
0.0
 40
13.000001
  0
CIRCLE
  5
1D3
330
1F
100
AcDbEntity
  8
Ｓ_１_１
  6
CONTINUOUS
 62
     3
100
AcDbCircle
 10
950.0962079999989
 20
585.0000019999992
 30
0.0
 40
13.000001
  0
CIRCLE
  5
1D4
330
1F
100
AcDbEntity
  8
Ｓ_１_１
  6
CONTINUOUS
 62
     3
100
AcDbCircle
 10
1005.000000999999
 20
530.0961329999994
 30
0.0
 40
13.000001
  0
CIRCLE
  5
1D5
330
1F
100
AcDbEntity
  8
Ｓ_１_１
  6
CONTINUOUS
 62
     3
100
AcDbCircle
 10
1079.999999999999
 20
510.0000029999991
 30
0.0
 40
13.000001
  0
CIRCLE
  5
1D6
330
1F
100
AcDbEntity
  8
Ｓ_１_１
  6
CONTINUOUS
 62
     3
100
AcDbCircle
 10
1154.999999
 20
530.0961329999994
 30
0.0
 40
13.000001
  0
CIRCLE
  5
1D7
330
1F
100
AcDbEntity
  8
Ｓ_１_１
  6
CONTINUOUS
 62
     3
100
AcDbCircle
 10
1209.903790999999
 20
585.0000019999992
 30
0.0
 40
13.000001
  0
CIRCLE
  5
1D8
330
1F
100
AcDbEntity
  8
Ｓ_１_１
  6
CONTINUOUS
 62
     3
100
AcDbCircle
 10
1229.999996999999
 20
659.9999999999994
 30
0.0
 40
13.000001
  0
CIRCLE
  5
1D9
330
1F
100
AcDbEntity
  8
Ｓ_１_１
  6
CONTINUOUS
 62
     3
100
AcDbCircle
 10
1209.903790999999
 20
734.9999989999995
 30
0.0
 40
13.000001
  0
CIRCLE
  5
1DA
330
1F
100
AcDbEntity
  8
Ｓ_１_１
  6
CONTINUOUS
 62
     3
100
AcDbCircle
 10
1154.999999
 20
789.9037919999995
 30
0.0
 40
13.000001
  0
CIRCLE
  5
1DB
330
1F
100
AcDbEntity
  8
Ｓ_１_１
  6
CONTINUOUS
 62
     3
100
AcDbCircle
 10
1079.999999999999
 20
809.9999979999992
 30
0.0
 40
13.000001
  0
CIRCLE
  5
1DC
330
1F
100
AcDbEntity
  8
Ｓ_１_１
  6
CONTINUOUS
 62
     3
100
AcDbCircle
 10
1005.000000999999
 20
789.9037919999995
 30
0.0
 40
13.000001
  0
CIRCLE
  5
1DD
330
1F
100
AcDbEntity
  8
Ｓ_１_１
  6
CONTINUOUS
 62
     3
100
AcDbCircle
 10
950.0962079999989
 20
734.9999989999995
 30
0.0
 40
13.000001
  0
CIRCLE
  5
1DE
330
1F
100
AcDbEntity
  8
Ｓ_１_１
  6
CONTINUOUS
 62
     3
100
AcDbCircle
 10
1005.000000999999
 20
789.9037919999995
 30
0.0
 40
10.500001
  0
CIRCLE
  5
1DF
330
1F
100
AcDbEntity
  8
Ｓ_１_１
  6
CONTINUOUS
 62
     3
100
AcDbCircle
 10
1079.999999999999
 20
809.9999979999992
 30
0.0
 40
10.500001
  0
CIRCLE
  5
1E0
330
1F
100
AcDbEntity
  8
Ｓ_１_１
  6
CONTINUOUS
 62
     3
100
AcDbCircle
 10
1154.999999
 20
789.9037919999995
 30
0.0
 40
10.500001
  0
CIRCLE
  5
1E1
330
1F
100
AcDbEntity
  8
Ｓ_１_１
  6
CONTINUOUS
 62
     3
100
AcDbCircle
 10
1209.903790999999
 20
734.9999989999995
 30
0.0
 40
10.500001
  0
CIRCLE
  5
1E2
330
1F
100
AcDbEntity
  8
Ｓ_１_１
  6
CONTINUOUS
 62
     3
100
AcDbCircle
 10
1229.999996999999
 20
659.9999999999994
 30
0.0
 40
10.500001
  0
CIRCLE
  5
1E3
330
1F
100
AcDbEntity
  8
Ｓ_１_１
  6
CONTINUOUS
 62
     3
100
AcDbCircle
 10
1209.903790999999
 20
585.0000019999992
 30
0.0
 40
10.500001
  0
CIRCLE
  5
1E4
330
1F
100
AcDbEntity
  8
Ｓ_１_１
  6
CONTINUOUS
 62
     3
100
AcDbCircle
 10
1154.999999
 20
530.0961329999994
 30
0.0
 40
10.500001
  0
CIRCLE
  5
1E5
330
1F
100
AcDbEntity
  8
Ｓ_１_１
  6
CONTINUOUS
 62
     3
100
AcDbCircle
 10
1079.999999999999
 20
510.0000029999991
 30
0.0
 40
10.500001
  0
CIRCLE
  5
1E6
330
1F
100
AcDbEntity
  8
Ｓ_１_１
  6
CONTINUOUS
 62
     3
100
AcDbCircle
 10
1005.000000999999
 20
530.0961329999994
 30
0.0
 40
10.500001
  0
CIRCLE
  5
1E7
330
1F
100
AcDbEntity
  8
Ｓ_１_１
  6
CONTINUOUS
 62
     3
100
AcDbCircle
 10
950.0962079999989
 20
585.0000019999992
 30
0.0
 40
10.500001
  0
CIRCLE
  5
1E8
330
1F
100
AcDbEntity
  8
Ｓ_１_１
  6
CONTINUOUS
 62
     3
100
AcDbCircle
 10
930.0000019999987
 20
659.9999999999994
 30
0.0
 40
10.500001
  0
CIRCLE
  5
1E9
330
1F
100
AcDbEntity
  8
Ｓ_１_１
  6
CONTINUOUS
 62
     3
100
AcDbCircle
 10
950.0962079999989
 20
734.9999989999995
 30
0.0
 40
10.500001
  0
CIRCLE
  5
1EA
330
1F
100
AcDbEntity
  8
Ｓ_１_１
  6
CONTINUOUS
 62
     3
100
AcDbCircle
 10
950.0962079999989
 20
585.0000019999992
 30
0.0
 40
12.00000000000001
  0
CIRCLE
  5
1EB
330
1F
100
AcDbEntity
  8
Ｓ_１_１
  6
CONTINUOUS
 62
     3
100
AcDbCircle
 10
1005.000000999999
 20
530.0961329999994
 30
0.0
 40
12.00000000000001
  0
CIRCLE
  5
1EC
330
1F
100
AcDbEntity
  8
Ｓ_１_１
  6
CONTINUOUS
 62
     3
100
AcDbCircle
 10
1079.999999999999
 20
510.0000029999991
 30
0.0
 40
12.00000000000001
  0
CIRCLE
  5
1ED
330
1F
100
AcDbEntity
  8
Ｓ_１_１
  6
CONTINUOUS
 62
     3
100
AcDbCircle
 10
1154.999999
 20
530.0961329999994
 30
0.0
 40
12.00000000000001
  0
CIRCLE
  5
1EE
330
1F
100
AcDbEntity
  8
Ｓ_１_１
  6
CONTINUOUS
 62
     3
100
AcDbCircle
 10
1229.999996999999
 20
659.9999999999994
 30
0.0
 40
12.00000000000001
  0
CIRCLE
  5
1EF
330
1F
100
AcDbEntity
  8
Ｓ_１_１
  6
CONTINUOUS
 62
     3
100
AcDbCircle
 10
1209.903790999999
 20
585.0000019999992
 30
0.0
 40
12.00000000000001
  0
CIRCLE
  5
1F0
330
1F
100
AcDbEntity
  8
Ｓ_１_１
  6
CONTINUOUS
 62
     3
100
AcDbCircle
 10
1209.903790999999
 20
734.9999989999995
 30
0.0
 40
12.00000000000001
  0
CIRCLE
  5
1F1
330
1F
100
AcDbEntity
  8
Ｓ_１_１
  6
CONTINUOUS
 62
     3
100
AcDbCircle
 10
1154.999999
 20
789.9037919999995
 30
0.0
 40
12.00000000000001
  0
CIRCLE
  5
1F2
330
1F
100
AcDbEntity
  8
Ｓ_１_１
  6
CONTINUOUS
 62
     3
100
AcDbCircle
 10
1079.999999999999
 20
809.9999979999992
 30
0.0
 40
12.00000000000001
  0
CIRCLE
  5
1F3
330
1F
100
AcDbEntity
  8
Ｓ_１_１
  6
CONTINUOUS
 62
     3
100
AcDbCircle
 10
1005.000000999999
 20
789.9037919999995
 30
0.0
 40
12.00000000000001
  0
CIRCLE
  5
1F4
330
1F
100
AcDbEntity
  8
Ｓ_１_１
  6
CONTINUOUS
 62
     3
100
AcDbCircle
 10
950.0962079999989
 20
734.9999989999995
 30
0.0
 40
12.00000000000001
  0
CIRCLE
  5
1F5
330
1F
100
AcDbEntity
  8
Ｓ_１_１
  6
CONTINUOUS
 62
     3
100
AcDbCircle
 10
930.0000019999987
 20
659.9999999999994
 30
0.0
 40
12.00000000000001
  0
ARC
  5
1F6
330
1F
100
AcDbEntity
  8
Ｓ_１_１
  6
CONTINUOUS
 62
     3
100
AcDbCircle
 10
1079.999999999999
 20
659.9999999999994
 30
0.0
 40
164.999998
100
AcDbArc
 50
317.7790660000001
 51
42.22093400000002
  0
ARC
  5
1F7
330
1F
100
AcDbEntity
  8
Ｓ_１_１
  6
CONTINUOUS
 62
     3
100
AcDbCircle
 10
1079.999999999999
 20
659.9999999999994
 30
0.0
 40
162.9999900000001
100
AcDbArc
 50
317.8131930000001
 51
42.18680700000003
  0
ARC
  5
1F8
330
1F
100
AcDbEntity
  8
Ｓ_１_１
  6
CONTINUOUS
 62
     3
100
AcDbCircle
 10
1079.999999999999
 20
659.9999999999994
 30
0.0
 40
164.999998
100
AcDbArc
 50
227.7790670000001
 51
312.2209350000001
  0
ARC
  5
1F9
330
1F
100
AcDbEntity
  8
Ｓ_１_１
  6
CONTINUOUS
 62
     3
100
AcDbCircle
 10
1079.999999999999
 20
659.9999999999994
 30
0.0
 40
162.9999900000001
100
AcDbArc
 50
227.813191
 51
312.186808
  0
ARC
  5
1FA
330
1F
100
AcDbEntity
  8
Ｓ_１_１
  6
CONTINUOUS
 62
     3
100
AcDbCircle
 10
969.6913159999986
 20
565.247651999999
 30
0.0
 40
3.000000000000003
100
AcDbArc
 50
314.9999990000001
 51
45.00000100000001
  0
ARC
  5
1FB
330
1F
100
AcDbEntity
  8
Ｓ_１_１
  6
CONTINUOUS
 62
     3
100
AcDbCircle
 10
985.2477279999994
 20
549.6913169999992
 30
0.0
 40
3.000000000000003
100
AcDbArc
 50
45.00000100000001
 51
135.0000000000001
  0
ARC
  5
1FC
330
1F
100
AcDbEntity
  8
Ｓ_１_１
  6
CONTINUOUS
 62
     3
100
AcDbCircle
 10
936.4572929999994
 20
516.4572929999994
 30
0.0
 40
8.0
100
AcDbArc
 50
135.0000000000001
 51
314.999992
  0
ARC
  5
1FD
330
1F
100
AcDbEntity
  8
Ｓ_１_１
  6
CONTINUOUS
 62
     3
100
AcDbCircle
 10
992.274551999999
 20
555.3039569999991
 30
0.0
 40
6.062500000000004
100
AcDbArc
 50
45.00000100000001
 51
92.92497599999999
  0
ARC
  5
1FE
330
1F
100
AcDbEntity
  8
Ｓ_１_１
  6
CONTINUOUS
 62
     3
100
AcDbCircle
 10
993.7771619999993
 20
556.8065659999992
 30
0.0
 40
6.062500000000004
100
AcDbArc
 50
177.075017
 51
224.9999960000002
  0
ARC
  5
1FF
330
1F
100
AcDbEntity
  8
Ｓ_１_１
  6
CONTINUOUS
 62
     3
100
AcDbCircle
 10
991.6032419999991
 20
571.5650189999996
 30
0.0
 40
14.961099
100
AcDbArc
 50
194.794171
 51
254.9664160000001
  0
ARC
  5
200
330
1F
100
AcDbEntity
  8
Ｓ_１_１
  6
CONTINUOUS
 62
     3
100
AcDbCircle
 10
976.8066419999994
 20
573.7771619999993
 30
0.0
 40
6.062500000000004
100
AcDbArc
 50
225.0000000000001
 51
272.9249780000001
  0
ARC
  5
201
330
1F
100
AcDbEntity
  8
Ｓ_１_１
  6
CONTINUOUS
 62
     3
100
AcDbCircle
 10
983.5602579999994
 20
544.3076349999991
 30
0.0
 40
3.000000000000003
100
AcDbArc
 50
225.0000000000001
 51
310.0
  0
ARC
  5
202
330
1F
100
AcDbEntity
  8
Ｓ_１_１
  6
CONTINUOUS
 62
     3
100
AcDbCircle
 10
964.307709999999
 20
563.5602589999993
 30
0.0
 40
3.000000000000003
100
AcDbArc
 50
139.999999
 51
224.9999960000002
  0
ARC
  5
203
330
1F
100
AcDbEntity
  8
Ｓ_１_１
  6
CONTINUOUS
 62
     3
100
AcDbCircle
 10
975.3040329999993
 20
572.2745529999992
 30
0.0
 40
6.062500000000004
100
AcDbArc
 50
357.075022
 51
45.00000100000001
  0
ARC
  5
204
330
1F
100
AcDbEntity
  8
Ｓ_１_１
  6
CONTINUOUS
 62
     3
100
AcDbCircle
 10
977.5161759999992
 20
557.4778769999992
 30
0.0
 40
14.961099
100
AcDbArc
 50
15.03358599999999
 51
75.205826
  0
ARC
  5
205
330
1F
100
AcDbEntity
  8
Ｓ_１_１
  6
CONTINUOUS
 62
     3
100
AcDbCircle
 10
985.2477279999994
 20
770.3086079999993
 30
0.0
 40
3.000000000000003
100
AcDbArc
 50
225.0000000000001
 51
314.9999990000001
  0
ARC
  5
206
330
1F
100
AcDbEntity
  8
Ｓ_１_１
  6
CONTINUOUS
 62
     3
100
AcDbCircle
 10
969.6913159999986
 20
754.7522729999995
 30
0.0
 40
3.000000000000003
100
AcDbArc
 50
314.9999990000001
 51
45.00000100000001
  0
ARC
  5
207
330
1F
100
AcDbEntity
  8
Ｓ_１_１
  6
CONTINUOUS
 62
     3
100
AcDbCircle
 10
936.4572929999994
 20
803.5426309999992
 30
0.0
 40
8.0
100
AcDbArc
 50
45.00000100000001
 51
224.9999960000002
  0
ARC
  5
208
330
1F
100
AcDbEntity
  8
Ｓ_１_１
  6
CONTINUOUS
 62
     3
100
AcDbCircle
 10
975.3040329999993
 20
747.7254479999991
 30
0.0
 40
6.062500000000004
100
AcDbArc
 50
314.9999990000001
 51
2.924978000000017
  0
ARC
  5
209
330
1F
100
AcDbEntity
  8
Ｓ_１_１
  6
CONTINUOUS
 62
     3
100
AcDbCircle
 10
976.8066419999994
 20
746.2228389999993
 30
0.0
 40
6.062500000000004
100
AcDbArc
 50
87.075022
 51
135.0000000000001
  0
ARC
  5
20A
330
1F
100
AcDbEntity
  8
Ｓ_１_１
  6
CONTINUOUS
 62
     3
100
AcDbCircle
 10
991.5650189999997
 20
748.3967579999993
 30
0.0
 40
14.961099
100
AcDbArc
 50
104.794172
 51
164.9664170000001
  0
ARC
  5
20B
330
1F
100
AcDbEntity
  8
Ｓ_１_１
  6
CONTINUOUS
 62
     3
100
AcDbCircle
 10
993.7771619999993
 20
763.1933579999994
 30
0.0
 40
6.062500000000004
100
AcDbArc
 50
135.0000000000001
 51
182.924979
  0
ARC
  5
20C
330
1F
100
AcDbEntity
  8
Ｓ_１_１
  6
CONTINUOUS
 62
     3
100
AcDbCircle
 10
964.307709999999
 20
756.4396659999992
 30
0.0
 40
3.000000000000003
100
AcDbArc
 50
135.0000000000001
 51
219.999997
  0
ARC
  5
20D
330
1F
100
AcDbEntity
  8
Ｓ_１_１
  6
CONTINUOUS
 62
     3
100
AcDbCircle
 10
983.5602579999994
 20
775.6922899999995
 30
0.0
 40
3.000000000000003
100
AcDbArc
 50
50.00000000000001
 51
135.0000000000001
  0
ARC
  5
20E
330
1F
100
AcDbEntity
  8
Ｓ_１_１
  6
CONTINUOUS
 62
     3
100
AcDbCircle
 10
992.274551999999
 20
764.6959679999994
 30
0.0
 40
6.062500000000004
100
AcDbArc
 50
267.075024
 51
314.9999990000001
  0
ARC
  5
20F
330
1F
100
AcDbEntity
  8
Ｓ_１_１
  6
CONTINUOUS
 62
     3
100
AcDbCircle
 10
977.4779519999993
 20
762.4838249999991
 30
0.0
 40
14.961099
100
AcDbArc
 50
285.033585
 51
345.2058290000001
  0
ARC
  5
210
330
1F
100
AcDbEntity
  8
Ｓ_１_１
  6
CONTINUOUS
 62
     3
100
AcDbCircle
 10
1190.308682999999
 20
754.7522729999995
 30
0.0
 40
3.000000000000003
100
AcDbArc
 50
135.0000000000001
 51
224.9999960000002
  0
ARC
  5
211
330
1F
100
AcDbEntity
  8
Ｓ_１_１
  6
CONTINUOUS
 62
     3
100
AcDbCircle
 10
1174.752272
 20
770.3086079999993
 30
0.0
 40
3.000000000000003
100
AcDbArc
 50
225.0000000000001
 51
314.9999990000001
  0
ARC
  5
212
330
1F
100
AcDbEntity
  8
Ｓ_１_１
  6
CONTINUOUS
 62
     3
100
AcDbCircle
 10
1223.542706999998
 20
803.5426309999992
 30
0.0
 40
8.0
100
AcDbArc
 50
314.9999990000001
 51
135.0000000000001
  0
ARC
  5
213
330
1F
100
AcDbEntity
  8
Ｓ_１_１
  6
CONTINUOUS
 62
     3
100
AcDbCircle
 10
1167.725446999999
 20
764.6959679999994
 30
0.0
 40
6.062500000000004
100
AcDbArc
 50
225.0000000000001
 51
272.9249780000001
  0
ARC
  5
214
330
1F
100
AcDbEntity
  8
Ｓ_１_１
  6
CONTINUOUS
 62
     3
100
AcDbCircle
 10
1166.222838
 20
763.1933579999994
 30
0.0
 40
6.062500000000004
100
AcDbArc
 50
357.075022
 51
45.00000100000001
  0
ARC
  5
215
330
1F
100
AcDbEntity
  8
Ｓ_１_１
  6
CONTINUOUS
 62
     3
100
AcDbCircle
 10
1168.396756999999
 20
748.4349809999993
 30
0.0
 40
14.961099
100
AcDbArc
 50
14.794171
 51
74.96641500000001
  0
ARC
  5
216
330
1F
100
AcDbEntity
  8
Ｓ_１_１
  6
CONTINUOUS
 62
     3
100
AcDbCircle
 10
1183.193357999999
 20
746.2228389999993
 30
0.0
 40
6.062500000000004
100
AcDbArc
 50
45.00000100000001
 51
92.92497599999999
  0
ARC
  5
217
330
1F
100
AcDbEntity
  8
Ｓ_１_１
  6
CONTINUOUS
 62
     3
100
AcDbCircle
 10
1176.439740999999
 20
775.6922899999995
 30
0.0
 40
3.000000000000003
100
AcDbArc
 50
45.00000100000001
 51
130.000001
  0
ARC
  5
218
330
1F
100
AcDbEntity
  8
Ｓ_１_１
  6
CONTINUOUS
 62
     3
100
AcDbCircle
 10
1195.692288999999
 20
756.4396659999992
 30
0.0
 40
3.000000000000003
100
AcDbArc
 50
320.0000010000001
 51
45.00000100000001
  0
ARC
  5
219
330
1F
100
AcDbEntity
  8
Ｓ_１_１
  6
CONTINUOUS
 62
     3
100
AcDbCircle
 10
1184.695967
 20
747.7254479999991
 30
0.0
 40
6.062500000000004
100
AcDbArc
 50
177.075017
 51
224.9999960000002
  0
ARC
  5
21A
330
1F
100
AcDbEntity
  8
Ｓ_１_１
  6
CONTINUOUS
 62
     3
100
AcDbCircle
 10
1182.483823999999
 20
762.5220479999992
 30
0.0
 40
14.961099
100
AcDbArc
 50
195.0335830000001
 51
255.205828
  0
ARC
  5
21B
330
1F
100
AcDbEntity
  8
Ｓ_１_１
  6
CONTINUOUS
 62
     3
100
AcDbCircle
 10
1174.752272
 20
549.6913169999992
 30
0.0
 40
3.000000000000003
100
AcDbArc
 50
45.00000100000001
 51
135.0000000000001
  0
ARC
  5
21C
330
1F
100
AcDbEntity
  8
Ｓ_１_１
  6
CONTINUOUS
 62
     3
100
AcDbCircle
 10
1190.308682999999
 20
565.247651999999
 30
0.0
 40
3.000000000000003
100
AcDbArc
 50
135.0000000000001
 51
224.9999960000002
  0
ARC
  5
21D
330
1F
100
AcDbEntity
  8
Ｓ_１_１
  6
CONTINUOUS
 62
     3
100
AcDbCircle
 10
1223.542706999998
 20
516.4572929999994
 30
0.0
 40
8.0
100
AcDbArc
 50
225.0000000000001
 51
45.00000100000001
  0
ARC
  5
21E
330
1F
100
AcDbEntity
  8
Ｓ_１_１
  6
CONTINUOUS
 62
     3
100
AcDbCircle
 10
1299.999995999998
 20
659.9999999999994
 30
0.0
 40
69.999999
100
AcDbArc
 50
270.0000180000001
 51
89.99998199999999
  0
ARC
  5
21F
330
1F
100
AcDbEntity
  8
Ｓ_１_１
  6
CONTINUOUS
 62
     3
100
AcDbCircle
 10
1079.999999999999
 20
439.9999269999993
 30
0.0
 40
69.999999
100
AcDbArc
 50
179.999964
 51
0.0000099999999886
  0
ARC
  5
220
330
1F
100
AcDbEntity
  8
Ｓ_１_１
  6
CONTINUOUS
 62
     3
100
AcDbCircle
 10
1079.999999999999
 20
879.9999969999993
 30
0.0
 40
69.999999
100
AcDbArc
 50
0.0
 51
179.999964
  0
ARC
  5
221
330
1F
100
AcDbEntity
  8
Ｓ_１_１
  6
CONTINUOUS
 62
     3
100
AcDbCircle
 10
1299.999995999998
 20
659.9999999999994
 30
0.0
 40
34.99999900000001
100
AcDbArc
 50
149.9998610000001
 51
209.999876
  0
ARC
  5
222
330
1F
100
AcDbEntity
  8
Ｓ_１_１
  6
CONTINUOUS
 62
     3
100
AcDbCircle
 10
1299.999995999998
 20
659.9999999999994
 30
0.0
 40
34.99999900000001
100
AcDbArc
 50
330.0001190000002
 51
30.00013400000002
  0
ARC
  5
223
330
1F
100
AcDbEntity
  8
Ｓ_１_１
  6
CONTINUOUS
 62
     3
100
AcDbCircle
 10
1079.999999999999
 20
439.9999269999993
 30
0.0
 40
34.99999900000001
100
AcDbArc
 50
59.99985800000001
 51
119.99988
  0
ARC
  5
224
330
1F
100
AcDbEntity
  8
Ｓ_１_１
  6
CONTINUOUS
 62
     3
100
AcDbCircle
 10
1079.999999999999
 20
439.9999269999993
 30
0.0
 40
34.99999900000001
100
AcDbArc
 50
240.00012
 51
300.0001350000003
  0
ARC
  5
225
330
1F
100
AcDbEntity
  8
Ｓ_１_１
  6
CONTINUOUS
 62
     3
100
AcDbCircle
 10
860.0000029999991
 20
659.9999999999994
 30
0.0
 40
34.99999900000001
100
AcDbArc
 50
329.999859
 51
29.99987399999998
  0
ARC
  5
226
330
1F
100
AcDbEntity
  8
Ｓ_１_１
  6
CONTINUOUS
 62
     3
100
AcDbCircle
 10
860.0000029999991
 20
659.9999999999994
 30
0.0
 40
34.99999900000001
100
AcDbArc
 50
150.00012
 51
210.0001360000002
  0
ARC
  5
227
330
1F
100
AcDbEntity
  8
Ｓ_１_１
  6
CONTINUOUS
 62
     3
100
AcDbCircle
 10
1184.695967
 20
572.2745529999992
 30
0.0
 40
6.062500000000004
100
AcDbArc
 50
135.0000000000001
 51
182.924979
  0
ARC
  5
228
330
1F
100
AcDbEntity
  8
Ｓ_１_１
  6
CONTINUOUS
 62
     3
100
AcDbCircle
 10
1183.193357999999
 20
573.7771619999993
 30
0.0
 40
6.062500000000004
100
AcDbArc
 50
267.075024
 51
314.9999990000001
  0
ARC
  5
229
330
1F
100
AcDbEntity
  8
Ｓ_１_１
  6
CONTINUOUS
 62
     3
100
AcDbCircle
 10
1168.434980999999
 20
571.6032429999995
 30
0.0
 40
14.961099
100
AcDbArc
 50
284.7941740000001
 51
344.9664140000002
  0
ARC
  5
22A
330
1F
100
AcDbEntity
  8
Ｓ_１_１
  6
CONTINUOUS
 62
     3
100
AcDbCircle
 10
1166.222838
 20
556.8065659999992
 30
0.0
 40
6.062500000000004
100
AcDbArc
 50
314.9999990000001
 51
2.924978000000017
  0
ARC
  5
22B
330
1F
100
AcDbEntity
  8
Ｓ_１_１
  6
CONTINUOUS
 62
     3
100
AcDbCircle
 10
1195.692288999999
 20
563.5602589999993
 30
0.0
 40
3.000000000000003
100
AcDbArc
 50
314.9999990000001
 51
39.99999899999999
  0
ARC
  5
22C
330
1F
100
AcDbEntity
  8
Ｓ_１_１
  6
CONTINUOUS
 62
     3
100
AcDbCircle
 10
1176.439740999999
 20
544.3076349999991
 30
0.0
 40
3.000000000000003
100
AcDbArc
 50
229.9999990000002
 51
314.9999990000001
  0
ARC
  5
22D
330
1F
100
AcDbEntity
  8
Ｓ_１_１
  6
CONTINUOUS
 62
     3
100
AcDbCircle
 10
1167.725446999999
 20
555.3039569999991
 30
0.0
 40
6.062500000000004
100
AcDbArc
 50
87.075022
 51
135.0000000000001
  0
ARC
  5
22E
330
1F
100
AcDbEntity
  8
Ｓ_１_１
  6
CONTINUOUS
 62
     3
100
AcDbCircle
 10
1182.522046999999
 20
557.5161759999991
 30
0.0
 40
14.961099
100
AcDbArc
 50
105.033584
 51
165.205829
  0
ARC
  5
22F
330
1F
100
AcDbEntity
  8
Ｓ_１_１
  6
CONTINUOUS
 62
     3
100
AcDbCircle
 10
1079.999999999999
 20
879.9999969999993
 30
0.0
 40
34.99999900000001
100
AcDbArc
 50
239.9998600000003
 51
299.9998750000001
  0
ARC
  5
230
330
1F
100
AcDbEntity
  8
Ｓ_１_１
  6
CONTINUOUS
 62
     3
100
AcDbCircle
 10
1079.999999999999
 20
879.9999969999993
 30
0.0
 40
34.99999900000001
100
AcDbArc
 50
60.00011799999999
 51
120.00014
  0
CIRCLE
  5
231
330
1F
100
AcDbEntity
  8
Ｓ_１_１
  6
CONTINUOUS
 62
     3
100
AcDbCircle
 10
1016.360397999999
 20
596.3603989999991
 30
0.0
 40
7.000000000000004
  0
CIRCLE
  5
232
330
1F
100
AcDbEntity
  8
Ｓ_１_１
  6
CONTINUOUS
 62
     3
100
AcDbCircle
 10
1016.360397999999
 20
723.6396019999992
 30
0.0
 40
7.000000000000004
  0
CIRCLE
  5
233
330
1F
100
AcDbEntity
  8
Ｓ_１_１
  6
CONTINUOUS
 62
     3
100
AcDbCircle
 10
1143.639600999999
 20
723.6395259999993
 30
0.0
 40
7.000000000000004
  0
CIRCLE
  5
234
330
1F
100
AcDbEntity
  8
Ｓ_１_１
  6
CONTINUOUS
 62
     3
100
AcDbCircle
 10
1143.639600999999
 20
596.3603989999991
 30
0.0
 40
7.000000000000004
  0
CIRCLE
  5
235
330
1F
100
AcDbEntity
  8
Ｓ_１_１
  6
CONTINUOUS
 62
     3
100
AcDbCircle
 10
1143.639600999999
 20
596.3603989999991
 30
0.0
 40
8.0
  0
CIRCLE
  5
236
330
1F
100
AcDbEntity
  8
Ｓ_１_１
  6
CONTINUOUS
 62
     3
100
AcDbCircle
 10
1143.639600999999
 20
723.6395259999993
 30
0.0
 40
8.0
  0
CIRCLE
  5
237
330
1F
100
AcDbEntity
  8
Ｓ_１_１
  6
CONTINUOUS
 62
     3
100
AcDbCircle
 10
1016.360397999999
 20
723.6396019999992
 30
0.0
 40
8.0
  0
CIRCLE
  5
238
330
1F
100
AcDbEntity
  8
Ｓ_１_１
  6
CONTINUOUS
 62
     3
100
AcDbCircle
 10
1016.360397999999
 20
596.3603989999991
 30
0.0
 40
8.0
  0
CIRCLE
  5
239
330
1F
100
AcDbEntity
  8
Ｓ_１_１
  6
CONTINUOUS
 62
     3
100
AcDbCircle
 10
1079.999999999999
 20
659.9999999999994
 30
0.0
 40
57.499999
  0
CIRCLE
  5
23A
330
1F
100
AcDbEntity
  8
Ｓ_１_１
  6
CONTINUOUS
 62
     3
100
AcDbCircle
 10
1079.999999999999
 20
659.9999999999994
 30
0.0
 40
42.000002
  0
CIRCLE
  5
23B
330
1F
100
AcDbEntity
  8
Ｓ_１_１
  6
CONTINUOUS
 62
     3
100
AcDbCircle
 10
1079.999999999999
 20
659.9999999999994
 30
0.0
 40
39.999999
  0
CIRCLE
  5
23C
330
1F
100
AcDbEntity
  8
Ｓ_１_１
  6
CONTINUOUS
 62
     3
100
AcDbCircle
 10
1079.999999999999
 20
659.9999999999994
 30
0.0
 40
27.00000000000002
  0
CIRCLE
  5
23D
330
1F
100
AcDbEntity
  8
Ｓ_１_１
  6
CONTINUOUS
 62
     3
100
AcDbCircle
 10
1079.999999999999
 20
659.9999999999994
 30
0.0
 40
119.999998
  0
CIRCLE
  5
23E
330
1F
100
AcDbEntity
  8
Ｓ_１_１
  6
CONTINUOUS
 62
     3
100
AcDbCircle
 10
1079.999999999999
 20
659.9999999999994
 30
0.0
 40
129.999998
  0
LINE
  5
23F
330
1F
100
AcDbEntity
  8
Ｓ_１_１
  6
CONTINUOUS
 62
     3
100
AcDbLine
 10
1144.999999
 20
667.9999549999992
 30
0.0
 11
1144.999999
 21
651.9999699999992
 31
0.0
  0
LINE
  5
240
330
1F
100
AcDbEntity
  8
Ｓ_１_１
  6
CONTINUOUS
 62
     3
100
AcDbLine
 10
1179.999997999999
 20
667.9999549999992
 30
0.0
 11
1179.999997999999
 21
651.9999699999992
 31
0.0
  0
LINE
  5
241
330
1F
100
AcDbEntity
  8
Ｓ_１_１
  6
CONTINUOUS
 62
     3
100
AcDbLine
 10
1179.999997999999
 20
651.9999699999992
 30
0.0
 11
1136.940763999999
 21
651.9999699999992
 31
0.0
  0
LINE
  5
242
330
1F
100
AcDbEntity
  8
Ｓ_１_１
  6
CONTINUOUS
 62
     3
100
AcDbLine
 10
1179.999997999999
 20
667.9999549999992
 30
0.0
 11
1136.940763999999
 21
667.9999549999992
 31
0.0
  0
LINE
  5
243
330
1F
100
AcDbEntity
  8
Ｓ_１_１
  6
CONTINUOUS
 62
     3
100
AcDbLine
 10
1071.999968999999
 20
560.0000019999997
 30
0.0
 11
1071.999968999999
 21
603.0592359999995
 31
0.0
  0
LINE
  5
244
330
1F
100
AcDbEntity
  8
Ｓ_１_１
  6
CONTINUOUS
 62
     3
100
AcDbLine
 10
1088.000029999999
 20
595.0000009999993
 30
0.0
 11
1071.999968999999
 21
595.0000009999993
 31
0.0
  0
LINE
  5
245
330
1F
100
AcDbEntity
  8
Ｓ_１_１
  6
CONTINUOUS
 62
     3
100
AcDbLine
 10
1088.000029999999
 20
560.0000019999997
 30
0.0
 11
1088.000029999999
 21
603.0592359999995
 31
0.0
  0
LINE
  5
246
330
1F
100
AcDbEntity
  8
Ｓ_１_１
  6
CONTINUOUS
 62
     3
100
AcDbLine
 10
1088.000029999999
 20
560.0000019999997
 30
0.0
 11
1071.999968999999
 21
560.0000019999997
 31
0.0
  0
LINE
  5
247
330
1F
100
AcDbEntity
  8
Ｓ_１_１
  6
CONTINUOUS
 62
     3
100
AcDbLine
 10
980.0000009999993
 20
651.9999699999992
 30
0.0
 11
980.0000009999993
 21
667.9999549999992
 31
0.0
  0
LINE
  5
248
330
1F
100
AcDbEntity
  8
Ｓ_１_１
  6
CONTINUOUS
 62
     3
100
AcDbLine
 10
980.0000009999993
 20
651.9999699999992
 30
0.0
 11
1023.059234999999
 21
651.9999699999992
 31
0.0
  0
LINE
  5
249
330
1F
100
AcDbEntity
  8
Ｓ_１_１
  6
CONTINUOUS
 62
     3
100
AcDbLine
 10
1015.000000999999
 20
651.9999699999992
 30
0.0
 11
1015.000000999999
 21
667.9999549999992
 31
0.0
  0
LINE
  5
24A
330
1F
100
AcDbEntity
  8
Ｓ_１_１
  6
CONTINUOUS
 62
     3
100
AcDbLine
 10
980.0000009999993
 20
667.9999549999992
 30
0.0
 11
1023.059234999999
 21
667.9999549999992
 31
0.0
  0
LINE
  5
24B
330
1F
100
AcDbEntity
  8
Ｓ_１_１
  6
CONTINUOUS
 62
     3
100
AcDbLine
 10
1071.999968999999
 20
724.9999989999995
 30
0.0
 11
1088.000029999999
 21
724.9999989999995
 31
0.0
  0
LINE
  5
24C
330
1F
100
AcDbEntity
  8
Ｓ_１_１
  6
CONTINUOUS
 62
     3
100
AcDbLine
 10
1071.999968999999
 20
759.9999989999995
 30
0.0
 11
1088.000029999999
 21
759.9999989999995
 31
0.0
  0
LINE
  5
24D
330
1F
100
AcDbEntity
  8
Ｓ_１_１
  6
CONTINUOUS
 62
     3
100
AcDbLine
 10
1088.000029999999
 20
759.9999989999995
 30
0.0
 11
1088.000029999999
 21
716.9407649999991
 31
0.0
  0
LINE
  5
24E
330
1F
100
AcDbEntity
  8
Ｓ_１_１
  6
CONTINUOUS
 62
     3
100
AcDbLine
 10
1071.999968999999
 20
759.9999989999995
 30
0.0
 11
1071.999968999999
 21
716.9407649999991
 31
0.0
  0
LINE
  5
24F
330
1F
100
AcDbEntity
  8
Ｓ_１_１
  6
CONTINUOUS
 62
     3
100
AcDbLine
 10
1299.999995999998
 20
729.9999989999995
 30
0.0
 11
1280.748592999998
 21
729.9999989999995
 31
0.0
  0
LINE
  5
250
330
1F
100
AcDbEntity
  8
Ｓ_１_１
  6
CONTINUOUS
 62
     3
100
AcDbLine
 10
1299.999995999998
 20
590.0000009999993
 30
0.0
 11
1280.748592999998
 21
590.0000009999993
 31
0.0
  0
LINE
  5
251
330
1F
100
AcDbEntity
  8
Ｓ_１_１
  6
CONTINUOUS
 62
     3
100
AcDbLine
 10
860.0000029999991
 20
590.0000009999993
 30
0.0
 11
879.2514069999996
 21
590.0000009999993
 31
0.0
  0
LINE
  5
252
330
1F
100
AcDbEntity
  8
Ｓ_１_１
  6
CONTINUOUS
 62
     3
100
AcDbLine
 10
860.0000029999991
 20
729.9999989999995
 30
0.0
 11
879.2514069999996
 21
729.9999989999995
 31
0.0
  0
LINE
  5
253
330
1F
100
AcDbEntity
  8
Ｓ_１_１
  6
CONTINUOUS
 62
     3
100
AcDbLine
 10
1010.000000999999
 20
879.9999969999993
 30
0.0
 11
1010.000000999999
 21
860.7485939999993
 31
0.0
  0
LINE
  5
254
330
1F
100
AcDbEntity
  8
Ｓ_１_１
  6
CONTINUOUS
 62
     3
100
AcDbLine
 10
1149.999999
 20
879.9999969999993
 30
0.0
 11
1149.999999
 21
860.7485939999993
 31
0.0
  0
LINE
  5
255
330
1F
100
AcDbEntity
  8
Ｓ_１_１
  6
CONTINUOUS
 62
     3
100
AcDbLine
 10
1149.999999
 20
439.9999269999993
 30
0.0
 11
1149.999999
 21
459.2513309999994
 31
0.0
  0
LINE
  5
256
330
1F
100
AcDbEntity
  8
Ｓ_１_１
  6
CONTINUOUS
 62
     3
100
AcDbLine
 10
1010.000000999999
 20
439.9999269999993
 30
0.0
 11
1010.000000999999
 21
459.2513309999994
 31
0.0
  0
LINE
  5
257
330
1F
100
AcDbEntity
  8
Ｓ_１_１
  6
CONTINUOUS
 62
     3
100
AcDbLine
 10
930.8005109999993
 20
522.1141749999996
 30
0.0
 11
971.8126709999996
 21
563.1263339999995
 31
0.0
  0
LINE
  5
258
330
1F
100
AcDbEntity
  8
Ｓ_１_１
  6
CONTINUOUS
 62
     3
100
AcDbLine
 10
942.1142219999991
 20
510.8004639999994
 30
0.0
 11
983.1263819999984
 21
551.8126239999991
 31
0.0
  0
LINE
  5
259
330
1F
100
AcDbEntity
  8
Ｓ_１_１
  6
CONTINUOUS
 62
     3
100
AcDbLine
 10
996.5614299999996
 20
559.5907789999991
 30
0.0
 11
998.3291839999993
 21
554.994618999999
 31
0.0
  0
LINE
  5
25A
330
1F
100
AcDbEntity
  8
Ｓ_１_１
  6
CONTINUOUS
 62
     3
100
AcDbLine
 10
979.5908289999988
 20
576.5613079999993
 30
0.0
 11
974.9945969999989
 21
578.3290889999993
 31
0.0
  0
LINE
  5
25B
330
1F
100
AcDbEntity
  8
Ｓ_１_１
  6
CONTINUOUS
 62
     3
100
AcDbLine
 10
987.722599999999
 20
557.1159649999994
 30
0.0
 11
991.9652289999993
 21
561.3585949999996
 31
0.0
  0
LINE
  5
25C
330
1F
100
AcDbEntity
  8
Ｓ_１_１
  6
CONTINUOUS
 62
     3
100
AcDbLine
 10
977.1159979999993
 20
567.7225659999993
 30
0.0
 11
981.3586279999989
 21
571.9651959999991
 31
0.0
  0
LINE
  5
25D
330
1F
100
AcDbEntity
  8
Ｓ_１_１
  6
CONTINUOUS
 62
     3
100
AcDbLine
 10
989.4903379999995
 20
552.5196899999991
 30
0.0
 11
994.086498999999
 21
550.7519359999995
 31
0.0
  0
LINE
  5
25E
330
1F
100
AcDbEntity
  8
Ｓ_１_１
  6
CONTINUOUS
 62
     3
100
AcDbLine
 10
972.5198119999985
 20
569.4902889999993
 30
0.0
 11
970.752030999999
 21
574.0865199999993
 31
0.0
  0
LINE
  5
25F
330
1F
100
AcDbEntity
  8
Ｓ_１_１
  6
CONTINUOUS
 62
     3
100
AcDbLine
 10
970.7520539999986
 20
574.0865109999994
 30
0.0
 11
974.9946829999989
 21
578.3291409999991
 31
0.0
  0
LINE
  5
260
330
1F
100
AcDbEntity
  8
Ｓ_１_１
  6
CONTINUOUS
 62
     3
100
AcDbLine
 10
994.0865579999991
 20
550.752006999999
 30
0.0
 11
998.3291879999996
 21
554.9946359999993
 31
0.0
  0
LINE
  5
261
330
1F
100
AcDbEntity
  8
Ｓ_１_１
  6
CONTINUOUS
 62
     3
100
AcDbLine
 10
976.8863549999986
 20
545.5725819999997
 30
0.0
 11
981.4389609999989
 21
542.1862909999994
 31
0.0
  0
LINE
  5
262
330
1F
100
AcDbEntity
  8
Ｓ_１_１
  6
CONTINUOUS
 62
     3
100
AcDbLine
 10
962.1863439999996
 20
561.4389249999994
 30
0.0
 11
965.5726359999989
 21
556.8863189999992
 31
0.0
  0
LINE
  5
263
330
1F
100
AcDbEntity
  8
Ｓ_１_１
  6
CONTINUOUS
 62
     3
100
AcDbLine
 10
985.4887009999993
 20
542.0094839999991
 30
0.0
 11
993.3794169999991
 21
548.6305809999993
 31
0.0
  0
LINE
  5
264
330
1F
100
AcDbEntity
  8
Ｓ_１_１
  6
CONTINUOUS
 62
     3
100
AcDbLine
 10
968.6307029999989
 20
573.3794099999994
 30
0.0
 11
962.0095569999993
 21
565.488635999999
 31
0.0
  0
LINE
  5
265
330
1F
100
AcDbEntity
  8
Ｓ_１_１
  6
CONTINUOUS
 62
     3
100
AcDbLine
 10
968.5330119999988
 20
573.4770609999995
 30
0.0
 11
993.3794209999996
 21
548.6306509999994
 31
0.0
  0
LINE
  5
266
330
1F
100
AcDbEntity
  8
Ｓ_１_１
  6
CONTINUOUS
 62
     3
100
AcDbLine
 10
942.1142049999988
 20
809.1995109999993
 30
0.0
 11
983.1263949999993
 21
768.1873209999993
 31
0.0
  0
LINE
  5
267
330
1F
100
AcDbEntity
  8
Ｓ_１_１
  6
CONTINUOUS
 62
     3
100
AcDbLine
 10
930.8005079999992
 20
797.8858139999992
 30
0.0
 11
971.8126979999996
 21
756.8736239999993
 31
0.0
  0
LINE
  5
268
330
1F
100
AcDbEntity
  8
Ｓ_１_１
  6
CONTINUOUS
 62
     3
100
AcDbLine
 10
979.5908339999986
 20
743.4385749999991
 30
0.0
 11
974.9946739999996
 21
741.6708209999996
 31
0.0
  0
LINE
  5
269
330
1F
100
AcDbEntity
  8
Ｓ_１_１
  6
CONTINUOUS
 62
     3
100
AcDbLine
 10
996.5614419999991
 20
760.4090979999991
 30
0.0
 11
998.3291959999987
 21
765.0052579999991
 31
0.0
  0
LINE
  5
26A
330
1F
100
AcDbEntity
  8
Ｓ_１_１
  6
CONTINUOUS
 62
     3
100
AcDbLine
 10
977.1159709999991
 20
752.2773919999994
 30
0.0
 11
981.3586009999989
 21
748.0347629999995
 31
0.0
  0
LINE
  5
26B
330
1F
100
AcDbEntity
  8
Ｓ_１_１
  6
CONTINUOUS
 62
     3
100
AcDbLine
 10
987.722572999999
 20
762.8839939999992
 30
0.0
 11
991.9652029999997
 21
758.6413639999995
 31
0.0
  0
LINE
  5
26C
330
1F
100
AcDbEntity
  8
Ｓ_１_１
  6
CONTINUOUS
 62
     3
100
AcDbLine
 10
972.5197529999986
 20
750.5096149999994
 30
0.0
 11
970.7519709999997
 21
745.9133839999994
 31
0.0
  0
LINE
  5
26D
330
1F
100
AcDbEntity
  8
Ｓ_１_１
  6
CONTINUOUS
 62
     3
100
AcDbLine
 10
989.4903439999988
 20
767.4801929999993
 30
0.0
 11
994.0865759999997
 21
769.2479749999992
 31
0.0
  0
LINE
  5
26E
330
1F
100
AcDbEntity
  8
Ｓ_１_１
  6
CONTINUOUS
 62
     3
100
AcDbLine
 10
994.0865439999997
 20
769.2479649999996
 30
0.0
 11
998.3291739999985
 21
765.005335999999
 31
0.0
  0
LINE
  5
26F
330
1F
100
AcDbEntity
  8
Ｓ_１_１
  6
CONTINUOUS
 62
     3
100
AcDbLine
 10
970.7519999999985
 20
745.9134209999992
 30
0.0
 11
974.9946299999991
 21
741.6707909999994
 31
0.0
  0
LINE
  5
270
330
1F
100
AcDbEntity
  8
Ｓ_１_１
  6
CONTINUOUS
 62
     3
100
AcDbLine
 10
965.5726349999986
 20
763.1135729999995
 30
0.0
 11
962.1863429999993
 21
758.5609679999991
 31
0.0
  0
LINE
  5
271
330
1F
100
AcDbEntity
  8
Ｓ_１_１
  6
CONTINUOUS
 62
     3
100
AcDbLine
 10
981.4389619999992
 20
777.8136019999992
 30
0.0
 11
976.886355999999
 21
774.4273099999995
 31
0.0
  0
LINE
  5
272
330
1F
100
AcDbEntity
  8
Ｓ_１_１
  6
CONTINUOUS
 62
     3
100
AcDbLine
 10
962.0095629999995
 20
754.5113109999992
 30
0.0
 11
968.6307089999991
 21
746.6205369999992
 31
0.0
  0
LINE
  5
273
330
1F
100
AcDbEntity
  8
Ｓ_１_１
  6
CONTINUOUS
 62
     3
100
AcDbLine
 10
993.3794019999985
 20
771.3692999999993
 30
0.0
 11
985.4886559999994
 21
777.9904219999993
 31
0.0
  0
LINE
  5
274
330
1F
100
AcDbEntity
  8
Ｓ_１_１
  6
CONTINUOUS
 62
     3
100
AcDbLine
 10
993.4771209999989
 20
771.4669799999991
 30
0.0
 11
968.6306849999991
 21
746.6205439999993
 31
0.0
  0
LINE
  5
275
330
1F
100
AcDbEntity
  8
Ｓ_１_１
  6
CONTINUOUS
 62
     3
100
AcDbLine
 10
1229.199554999999
 20
797.8857969999993
 30
0.0
 11
1188.187341999999
 21
756.8735839999994
 31
0.0
  0
LINE
  5
276
330
1F
100
AcDbEntity
  8
Ｓ_１_１
  6
CONTINUOUS
 62
     3
100
AcDbLine
 10
1217.885843999999
 20
809.1995079999996
 30
0.0
 11
1176.873630999999
 21
768.1872939999994
 31
0.0
  0
LINE
  5
277
330
1F
100
AcDbEntity
  8
Ｓ_１_１
  6
CONTINUOUS
 62
     3
100
AcDbLine
 10
1163.438644
 20
760.4091349999993
 30
0.0
 11
1161.670876999999
 21
765.0053309999993
 31
0.0
  0
LINE
  5
278
330
1F
100
AcDbEntity
  8
Ｓ_１_１
  6
CONTINUOUS
 62
     3
100
AcDbLine
 10
1180.409148999999
 20
743.4385359999995
 30
0.0
 11
1185.005345
 21
741.6707689999993
 31
0.0
  0
LINE
  5
279
330
1F
100
AcDbEntity
  8
Ｓ_１_１
  6
CONTINUOUS
 62
     3
100
AcDbLine
 10
1172.277452999999
 20
762.8840209999993
 30
0.0
 11
1168.034822999999
 21
758.6413909999991
 31
0.0
  0
LINE
  5
27A
330
1F
100
AcDbEntity
  8
Ｓ_１_１
  6
CONTINUOUS
 62
     3
100
AcDbLine
 10
1182.884053999999
 20
752.2774189999993
 30
0.0
 11
1178.641425
 21
748.0347899999996
 31
0.0
  0
LINE
  5
27B
330
1F
100
AcDbEntity
  8
Ｓ_１_１
  6
CONTINUOUS
 62
     3
100
AcDbLine
 10
1170.509639
 20
767.4801539999993
 30
0.0
 11
1165.913478999999
 21
769.2479079999993
 31
0.0
  0
LINE
  5
27C
330
1F
100
AcDbEntity
  8
Ｓ_１_１
  6
CONTINUOUS
 62
     3
100
AcDbLine
 10
1187.480248999999
 20
750.5096609999995
 30
0.0
 11
1189.248016
 21
745.9134649999995
 31
0.0
  0
LINE
  5
27D
330
1F
100
AcDbEntity
  8
Ｓ_１_１
  6
CONTINUOUS
 62
     3
100
AcDbLine
 10
1189.248011999999
 20
745.9134609999991
 30
0.0
 11
1185.005383
 21
741.6708309999993
 31
0.0
  0
LINE
  5
27E
330
1F
100
AcDbEntity
  8
Ｓ_１_１
  6
CONTINUOUS
 62
     3
100
AcDbLine
 10
1165.913508
 20
769.2479649999996
 30
0.0
 11
1161.670878999999
 21
765.005335999999
 31
0.0
  0
LINE
  5
27F
330
1F
100
AcDbEntity
  8
Ｓ_１_１
  6
CONTINUOUS
 62
     3
100
AcDbLine
 10
1183.113625999998
 20
774.427293999999
 30
0.0
 11
1178.561019999999
 21
777.8135859999992
 31
0.0
  0
LINE
  5
280
330
1F
100
AcDbEntity
  8
Ｓ_１_１
  6
CONTINUOUS
 62
     3
100
AcDbLine
 10
1197.813638999999
 20
758.5609839999992
 30
0.0
 11
1194.427346999999
 21
763.1135899999994
 31
0.0
  0
LINE
  5
281
330
1F
100
AcDbEntity
  8
Ｓ_１_１
  6
CONTINUOUS
 62
     3
100
AcDbLine
 10
1174.511358999999
 20
777.9903979999995
 30
0.0
 11
1166.620584999999
 21
771.3692519999995
 31
0.0
  0
LINE
  5
282
330
1F
100
AcDbEntity
  8
Ｓ_１_１
  6
CONTINUOUS
 62
     3
100
AcDbLine
 10
1191.369295999999
 20
746.6205439999993
 30
0.0
 11
1197.990441999998
 21
754.5113179999993
 31
0.0
  0
LINE
  5
283
330
1F
100
AcDbEntity
  8
Ｓ_１_１
  6
CONTINUOUS
 62
     3
100
AcDbLine
 10
1191.466987
 20
746.5228709999991
 30
0.0
 11
1166.620577
 21
771.3692799999993
 31
0.0
  0
LINE
  5
284
330
1F
100
AcDbEntity
  8
Ｓ_１_１
  6
CONTINUOUS
 62
     3
100
AcDbLine
 10
1217.885858
 20
510.8004639999994
 30
0.0
 11
1176.873643999999
 21
551.8126779999992
 31
0.0
  0
LINE
  5
285
330
1F
100
AcDbEntity
  8
Ｓ_１_１
  6
CONTINUOUS
 62
     3
100
AcDbLine
 10
1229.199554999999
 20
522.1141609999994
 30
0.0
 11
1188.187341999999
 21
563.1263749999993
 31
0.0
  0
LINE
  5
286
330
1F
100
AcDbEntity
  8
Ｓ_１_１
  6
CONTINUOUS
 62
     3
100
AcDbLine
 10
1263.000000999998
 20
647.4999899999992
 30
0.0
 11
1268.000005999999
 21
642.4999849999992
 31
0.0
  0
LINE
  5
287
330
1F
100
AcDbEntity
  8
Ｓ_１_１
  6
CONTINUOUS
 62
     3
100
AcDbLine
 10
1268.000031999999
 20
677.4999959999994
 30
0.0
 11
1263.000026999999
 21
672.4999899999992
 31
0.0
  0
LINE
  5
288
330
1F
100
AcDbEntity
  8
Ｓ_１_１
  6
CONTINUOUS
 62
     3
100
AcDbLine
 10
1263.000027999998
 20
672.4999999999994
 30
0.0
 11
1263.000027999998
 21
647.5000009999993
 31
0.0
  0
LINE
  5
289
330
1F
100
AcDbEntity
  8
Ｓ_１_１
  6
CONTINUOUS
 62
     3
100
AcDbLine
 10
1275.000072999999
 20
704.4998929999991
 30
0.0
 11
1324.999995999998
 21
704.4998929999991
 31
0.0
  0
LINE
  5
28A
330
1F
100
AcDbEntity
  8
Ｓ_１_１
  6
CONTINUOUS
 62
     3
100
AcDbLine
 10
1275.000530999999
 20
615.4998789999994
 30
0.0
 11
1324.999995999998
 21
615.4998789999994
 31
0.0
  0
LINE
  5
28B
330
1F
100
AcDbEntity
  8
Ｓ_１_１
  6
CONTINUOUS
 62
     3
100
AcDbLine
 10
1275.000072999999
 20
696.5000149999995
 30
0.0
 11
1275.000072999999
 21
704.4998929999991
 31
0.0
  0
LINE
  5
28C
330
1F
100
AcDbEntity
  8
Ｓ_１_１
  6
CONTINUOUS
 62
     3
100
AcDbLine
 10
1325.000071999998
 20
696.5000149999995
 30
0.0
 11
1325.000071999998
 21
704.4998929999991
 31
0.0
  0
LINE
  5
28D
330
1F
100
AcDbEntity
  8
Ｓ_１_１
  6
CONTINUOUS
 62
     3
100
AcDbLine
 10
1322.999921999999
 20
706.5001199999996
 30
0.0
 11
1325.000006999998
 21
704.5000719999992
 31
0.0
  0
LINE
  5
28E
330
1F
100
AcDbEntity
  8
Ｓ_１_１
  6
CONTINUOUS
 62
     3
100
AcDbLine
 10
1274.999952999998
 20
704.5000329999991
 30
0.0
 11
1276.999892999999
 21
706.5000109999991
 31
0.0
  0
LINE
  5
28F
330
1F
100
AcDbEntity
  8
Ｓ_１_１
  6
CONTINUOUS
 62
     3
100
AcDbLine
 10
1277.000254999999
 20
613.5002709999993
 30
0.0
 11
1275.000168999999
 21
615.5003189999992
 31
0.0
  0
LINE
  5
290
330
1F
100
AcDbEntity
  8
Ｓ_１_１
  6
CONTINUOUS
 62
     3
100
AcDbLine
 10
1322.999977999999
 20
613.5001729999993
 30
0.0
 11
1324.999955999999
 21
615.5001119999996
 31
0.0
  0
LINE
  5
291
330
1F
100
AcDbEntity
  8
Ｓ_１_１
  6
CONTINUOUS
 62
     3
100
AcDbLine
 10
1325.000071999998
 20
615.5000319999994
 30
0.0
 11
1325.000071999998
 21
623.4999089999991
 31
0.0
  0
LINE
  5
292
330
1F
100
AcDbEntity
  8
Ｓ_１_１
  6
CONTINUOUS
 62
     3
100
AcDbLine
 10
1275.000072999999
 20
615.5000319999994
 30
0.0
 11
1275.000072999999
 21
623.4999089999991
 31
0.0
  0
LINE
  5
293
330
1F
100
AcDbEntity
  8
Ｓ_１_１
  6
CONTINUOUS
 62
     3
100
AcDbLine
 10
1276.999736999999
 20
706.4998619999996
 30
0.0
 11
1323.000026999999
 21
706.4998619999996
 31
0.0
  0
LINE
  5
294
330
1F
100
AcDbEntity
  8
Ｓ_１_１
  6
CONTINUOUS
 62
     3
100
AcDbLine
 10
1277.000576999998
 20
613.4999099999994
 30
0.0
 11
1323.000026999999
 21
613.4999099999994
 31
0.0
  0
LINE
  5
295
330
1F
100
AcDbEntity
  8
Ｓ_１_１
  6
CONTINUOUS
 62
     3
100
AcDbLine
 10
1335.000071999998
 20
677.4999999999994
 30
0.0
 11
1335.000071999998
 21
696.4998629999994
 31
0.0
  0
LINE
  5
296
330
1F
100
AcDbEntity
  8
Ｓ_１_１
  6
CONTINUOUS
 62
     3
100
AcDbLine
 10
1335.000071999998
 20
623.4999089999991
 30
0.0
 11
1335.000071999998
 21
642.5000009999993
 31
0.0
  0
LINE
  5
297
330
1F
100
AcDbEntity
  8
Ｓ_１_１
  6
CONTINUOUS
 62
     3
100
AcDbLine
 10
1272.934566999998
 20
623.4999089999991
 30
0.0
 11
1334.999995999998
 21
623.4999089999991
 31
0.0
  0
LINE
  5
298
330
1F
100
AcDbEntity
  8
Ｓ_１_１
  6
CONTINUOUS
 62
     3
100
AcDbLine
 10
1272.934566999998
 20
696.4998629999994
 30
0.0
 11
1334.999995999998
 21
696.4998629999994
 31
0.0
  0
LINE
  5
299
330
1F
100
AcDbEntity
  8
Ｓ_１_１
  6
CONTINUOUS
 62
     3
100
AcDbLine
 10
1268.000026999999
 20
642.5000009999993
 30
0.0
 11
1334.999995999998
 21
642.5000009999993
 31
0.0
  0
LINE
  5
29A
330
1F
100
AcDbEntity
  8
Ｓ_１_１
  6
CONTINUOUS
 62
     3
100
AcDbLine
 10
1268.000026999999
 20
677.4999999999994
 30
0.0
 11
1334.999995999998
 21
677.4999999999994
 31
0.0
  0
LINE
  5
29B
330
1F
100
AcDbEntity
  8
Ｓ_１_１
  6
CONTINUOUS
 62
     3
100
AcDbLine
 10
1268.377224999999
 20
674.9999999999994
 30
0.0
 11
1331.622767999999
 21
674.9999999999994
 31
0.0
  0
LINE
  5
29C
330
1F
100
AcDbEntity
  8
Ｓ_１_１
  6
CONTINUOUS
 62
     3
100
AcDbLine
 10
1268.377224999999
 20
645.0000009999993
 30
0.0
 11
1331.622767999999
 21
645.0000009999993
 31
0.0
  0
LINE
  5
29D
330
1F
100
AcDbEntity
  8
Ｓ_１_１
  6
CONTINUOUS
 62
     3
100
AcDbLine
 10
1067.499994999999
 20
476.9999419999994
 30
0.0
 11
1062.499988999999
 21
471.9999359999991
 31
0.0
  0
LINE
  5
29E
330
1F
100
AcDbEntity
  8
Ｓ_１_１
  6
CONTINUOUS
 62
     3
100
AcDbLine
 10
1097.500026999999
 20
471.9999379999994
 30
0.0
 11
1092.500021999999
 21
476.9999429999993
 31
0.0
  0
LINE
  5
29F
330
1F
100
AcDbEntity
  8
Ｓ_１_１
  6
CONTINUOUS
 62
     3
100
AcDbLine
 10
1092.499999999999
 20
476.9998959999992
 30
0.0
 11
1067.499999999999
 21
476.9998959999992
 31
0.0
  0
LINE
  5
2A0
330
1F
100
AcDbEntity
  8
Ｓ_１_１
  6
CONTINUOUS
 62
     3
100
AcDbLine
 10
1124.499891999999
 20
464.9999269999993
 30
0.0
 11
1124.499891999999
 21
414.9999279999992
 31
0.0
  0
LINE
  5
2A1
330
1F
100
AcDbEntity
  8
Ｓ_１_１
  6
CONTINUOUS
 62
     3
100
AcDbLine
 10
1035.499877999999
 20
464.9993929999991
 30
0.0
 11
1035.499877999999
 21
414.9999279999992
 31
0.0
  0
LINE
  5
2A2
330
1F
100
AcDbEntity
  8
Ｓ_１_１
  6
CONTINUOUS
 62
     3
100
AcDbLine
 10
1116.500090999999
 20
464.9999269999993
 30
0.0
 11
1124.499968999999
 21
464.9999269999993
 31
0.0
  0
LINE
  5
2A3
330
1F
100
AcDbEntity
  8
Ｓ_１_１
  6
CONTINUOUS
 62
     3
100
AcDbLine
 10
1116.500090999999
 20
414.9998509999995
 30
0.0
 11
1124.499968999999
 21
414.9998509999995
 31
0.0
  0
LINE
  5
2A4
330
1F
100
AcDbEntity
  8
Ｓ_１_１
  6
CONTINUOUS
 62
     3
100
AcDbLine
 10
1126.500167999999
 20
417.0000239999994
 30
0.0
 11
1124.500119999999
 21
414.9999379999994
 31
0.0
  0
LINE
  5
2A5
330
1F
100
AcDbEntity
  8
Ｓ_１_１
  6
CONTINUOUS
 62
     3
100
AcDbLine
 10
1124.500054999999
 20
465.0000199999994
 30
0.0
 11
1126.500032999999
 21
463.0000789999994
 31
0.0
  0
LINE
  5
2A6
330
1F
100
AcDbEntity
  8
Ｓ_１_１
  6
CONTINUOUS
 62
     3
100
AcDbLine
 10
1033.500319999999
 20
462.9997449999991
 30
0.0
 11
1035.500367999999
 21
464.9998309999991
 31
0.0
  0
LINE
  5
2A7
330
1F
100
AcDbEntity
  8
Ｓ_１_１
  6
CONTINUOUS
 62
     3
100
AcDbLine
 10
1033.500273999999
 20
416.9999499999993
 30
0.0
 11
1035.500214
 21
414.9999719999995
 31
0.0
  0
LINE
  5
2A8
330
1F
100
AcDbEntity
  8
Ｓ_１_１
  6
CONTINUOUS
 62
     3
100
AcDbLine
 10
1035.500106999999
 20
414.9998509999995
 30
0.0
 11
1043.499984999999
 21
414.9998509999995
 31
0.0
  0
LINE
  5
2A9
330
1F
100
AcDbEntity
  8
Ｓ_１_１
  6
CONTINUOUS
 62
     3
100
AcDbLine
 10
1035.500106999999
 20
464.9999269999993
 30
0.0
 11
1043.499984999999
 21
464.9999269999993
 31
0.0
  0
LINE
  5
2AA
330
1F
100
AcDbEntity
  8
Ｓ_１_１
  6
CONTINUOUS
 62
     3
100
AcDbLine
 10
1126.499861999999
 20
463.0002629999993
 30
0.0
 11
1126.499861999999
 21
416.9998969999996
 31
0.0
  0
LINE
  5
2AB
330
1F
100
AcDbEntity
  8
Ｓ_１_１
  6
CONTINUOUS
 62
     3
100
AcDbLine
 10
1033.499908999999
 20
462.9994239999995
 30
0.0
 11
1033.499908999999
 21
416.9998969999996
 31
0.0
  0
LINE
  5
2AC
330
1F
100
AcDbEntity
  8
Ｓ_１_１
  6
CONTINUOUS
 62
     3
100
AcDbLine
 10
1097.499999
 20
404.9998519999994
 30
0.0
 11
1116.499937999999
 21
404.9998519999994
 31
0.0
  0
LINE
  5
2AD
330
1F
100
AcDbEntity
  8
Ｓ_１_１
  6
CONTINUOUS
 62
     3
100
AcDbLine
 10
1043.499984999999
 20
404.9998519999994
 30
0.0
 11
1062.499999999999
 21
404.9998519999994
 31
0.0
  0
LINE
  5
2AE
330
1F
100
AcDbEntity
  8
Ｓ_１_１
  6
CONTINUOUS
 62
     3
100
AcDbLine
 10
1043.499908999999
 20
467.0654329999996
 30
0.0
 11
1043.499908999999
 21
404.9999279999992
 31
0.0
  0
LINE
  5
2AF
330
1F
100
AcDbEntity
  8
Ｓ_１_１
  6
CONTINUOUS
 62
     3
100
AcDbLine
 10
1116.499861999999
 20
467.0653569999994
 30
0.0
 11
1116.499861999999
 21
405.0000039999995
 31
0.0
  0
LINE
  5
2B0
330
1F
100
AcDbEntity
  8
Ｓ_１_１
  6
CONTINUOUS
 62
     3
100
AcDbLine
 10
1062.499999999999
 20
471.9998959999992
 30
0.0
 11
1062.499999999999
 21
404.9999279999992
 31
0.0
  0
LINE
  5
2B1
330
1F
100
AcDbEntity
  8
Ｓ_１_１
  6
CONTINUOUS
 62
     3
100
AcDbLine
 10
1097.499999
 20
471.9998959999992
 30
0.0
 11
1097.499999
 21
404.9999279999992
 31
0.0
  0
LINE
  5
2B2
330
1F
100
AcDbEntity
  8
Ｓ_１_１
  6
CONTINUOUS
 62
     3
100
AcDbLine
 10
1094.999999
 20
471.6226989999994
 30
0.0
 11
1094.999999
 21
408.3771559999994
 31
0.0
  0
LINE
  5
2B3
330
1F
100
AcDbEntity
  8
Ｓ_１_１
  6
CONTINUOUS
 62
     3
100
AcDbLine
 10
1064.999999999999
 20
471.6226989999994
 30
0.0
 11
1064.999999999999
 21
408.3771559999994
 31
0.0
  0
LINE
  5
2B4
330
1F
100
AcDbEntity
  8
Ｓ_１_１
  6
CONTINUOUS
 62
     3
100
AcDbLine
 10
897.0000069999986
 20
672.4999409999995
 30
0.0
 11
892.0000009999993
 21
677.4999469999992
 31
0.0
  0
LINE
  5
2B5
330
1F
100
AcDbEntity
  8
Ｓ_１_１
  6
CONTINUOUS
 62
     3
100
AcDbLine
 10
891.999975999999
 20
642.4999349999993
 30
0.0
 11
896.999980999999
 21
647.4999409999995
 31
0.0
  0
LINE
  5
2B6
330
1F
100
AcDbEntity
  8
Ｓ_１_１
  6
CONTINUOUS
 62
     3
100
AcDbLine
 10
896.9999719999995
 20
647.5000009999993
 30
0.0
 11
896.9999719999995
 21
672.4999999999994
 31
0.0
  0
LINE
  5
2B7
330
1F
100
AcDbEntity
  8
Ｓ_１_１
  6
CONTINUOUS
 62
     3
100
AcDbLine
 10
884.9999259999985
 20
615.5000319999994
 30
0.0
 11
835.0000029999991
 21
615.5000319999994
 31
0.0
  0
LINE
  5
2B8
330
1F
100
AcDbEntity
  8
Ｓ_１_１
  6
CONTINUOUS
 62
     3
100
AcDbLine
 10
884.9994689999994
 20
704.5000459999991
 30
0.0
 11
835.0000029999991
 21
704.5000459999991
 31
0.0
  0
LINE
  5
2B9
330
1F
100
AcDbEntity
  8
Ｓ_１_１
  6
CONTINUOUS
 62
     3
100
AcDbLine
 10
884.9999259999985
 20
623.4999089999991
 30
0.0
 11
884.9999259999985
 21
615.5000319999994
 31
0.0
  0
LINE
  5
2BA
330
1F
100
AcDbEntity
  8
Ｓ_１_１
  6
CONTINUOUS
 62
     3
100
AcDbLine
 10
834.9999269999989
 20
623.4999089999991
 30
0.0
 11
834.9999269999989
 21
615.5000319999994
 31
0.0
  0
LINE
  5
2BB
330
1F
100
AcDbEntity
  8
Ｓ_１_１
  6
CONTINUOUS
 62
     3
100
AcDbLine
 10
837.0000449999987
 20
613.4997499999994
 30
0.0
 11
834.9999599999991
 21
615.4997989999991
 31
0.0
  0
LINE
  5
2BC
330
1F
100
AcDbEntity
  8
Ｓ_１_１
  6
CONTINUOUS
 62
     3
100
AcDbLine
 10
885.0000679999994
 20
615.4998909999994
 30
0.0
 11
883.0001279999996
 21
613.4999129999995
 31
0.0
  0
LINE
  5
2BD
330
1F
100
AcDbEntity
  8
Ｓ_１_１
  6
CONTINUOUS
 62
     3
100
AcDbLine
 10
882.9997629999988
 20
706.4996559999994
 30
0.0
 11
884.9998489999988
 21
704.4996079999991
 31
0.0
  0
LINE
  5
2BE
330
1F
100
AcDbEntity
  8
Ｓ_１_１
  6
CONTINUOUS
 62
     3
100
AcDbLine
 10
836.9999609999994
 20
706.4996369999992
 30
0.0
 11
834.9999819999994
 21
704.4996979999994
 31
0.0
  0
LINE
  5
2BF
330
1F
100
AcDbEntity
  8
Ｓ_１_１
  6
CONTINUOUS
 62
     3
100
AcDbLine
 10
834.9999269999989
 20
704.4998929999991
 30
0.0
 11
834.9999269999989
 21
696.5000149999995
 31
0.0
  0
LINE
  5
2C0
330
1F
100
AcDbEntity
  8
Ｓ_１_１
  6
CONTINUOUS
 62
     3
100
AcDbLine
 10
884.9999259999985
 20
704.4998929999991
 30
0.0
 11
884.9999259999985
 21
696.5000149999995
 31
0.0
  0
LINE
  5
2C1
330
1F
100
AcDbEntity
  8
Ｓ_１_１
  6
CONTINUOUS
 62
     3
100
AcDbLine
 10
883.0002619999995
 20
613.500061999999
 30
0.0
 11
836.9999729999989
 21
613.500061999999
 31
0.0
  0
LINE
  5
2C2
330
1F
100
AcDbEntity
  8
Ｓ_１_１
  6
CONTINUOUS
 62
     3
100
AcDbLine
 10
882.9994229999992
 20
706.5000149999995
 30
0.0
 11
836.9999729999989
 21
706.5000149999995
 31
0.0
  0
LINE
  5
2C3
330
1F
100
AcDbEntity
  8
Ｓ_１_１
  6
CONTINUOUS
 62
     3
100
AcDbLine
 10
824.9999269999989
 20
642.5000009999993
 30
0.0
 11
824.9999269999989
 21
623.500061999999
 31
0.0
  0
LINE
  5
2C4
330
1F
100
AcDbEntity
  8
Ｓ_１_１
  6
CONTINUOUS
 62
     3
100
AcDbLine
 10
824.9999269999989
 20
696.5000149999995
 30
0.0
 11
824.9999269999989
 21
677.4999999999994
 31
0.0
  0
LINE
  5
2C5
330
1F
100
AcDbEntity
  8
Ｓ_１_１
  6
CONTINUOUS
 62
     3
100
AcDbLine
 10
887.0654319999994
 20
696.5000149999995
 30
0.0
 11
825.0000039999994
 21
696.5000149999995
 31
0.0
  0
LINE
  5
2C6
330
1F
100
AcDbEntity
  8
Ｓ_１_１
  6
CONTINUOUS
 62
     3
100
AcDbLine
 10
887.0654319999994
 20
623.500061999999
 30
0.0
 11
825.0000039999994
 21
623.500061999999
 31
0.0
  0
LINE
  5
2C7
330
1F
100
AcDbEntity
  8
Ｓ_１_１
  6
CONTINUOUS
 62
     3
100
AcDbLine
 10
891.9999719999995
 20
677.4999999999994
 30
0.0
 11
825.0000039999994
 21
677.4999999999994
 31
0.0
  0
LINE
  5
2C8
330
1F
100
AcDbEntity
  8
Ｓ_１_１
  6
CONTINUOUS
 62
     3
100
AcDbLine
 10
891.9999719999995
 20
642.5000009999993
 30
0.0
 11
825.0000039999994
 21
642.5000009999993
 31
0.0
  0
LINE
  5
2C9
330
1F
100
AcDbEntity
  8
Ｓ_１_１
  6
CONTINUOUS
 62
     3
100
AcDbLine
 10
891.6227749999988
 20
645.0000009999993
 30
0.0
 11
828.3772309999985
 21
645.0000009999993
 31
0.0
  0
LINE
  5
2CA
330
1F
100
AcDbEntity
  8
Ｓ_１_１
  6
CONTINUOUS
 62
     3
100
AcDbLine
 10
891.6227749999988
 20
674.9999999999994
 30
0.0
 11
828.3772309999985
 21
674.9999999999994
 31
0.0
  0
LINE
  5
2CB
330
1F
100
AcDbEntity
  8
Ｓ_１_１
  6
CONTINUOUS
 62
     3
100
AcDbLine
 10
1180.409154999999
 20
576.5613469999993
 30
0.0
 11
1185.005385999999
 21
578.3291289999992
 31
0.0
  0
LINE
  5
2CC
330
1F
100
AcDbEntity
  8
Ｓ_１_１
  6
CONTINUOUS
 62
     3
100
AcDbLine
 10
1163.438617
 20
559.5907979999992
 30
0.0
 11
1161.670834999999
 21
554.9945659999993
 31
0.0
  0
LINE
  5
2CD
330
1F
100
AcDbEntity
  8
Ｓ_１_１
  6
CONTINUOUS
 62
     3
100
AcDbLine
 10
1182.884040999999
 20
567.7225259999994
 30
0.0
 11
1178.641383999999
 21
571.9651819999993
 31
0.0
  0
LINE
  5
2CE
330
1F
100
AcDbEntity
  8
Ｓ_１_１
  6
CONTINUOUS
 62
     3
100
AcDbLine
 10
1172.277439
 20
557.1159239999996
 30
0.0
 11
1168.034782999999
 21
561.3585809999994
 31
0.0
  0
LINE
  5
2CF
330
1F
100
AcDbEntity
  8
Ｓ_１_１
  6
CONTINUOUS
 62
     3
100
AcDbLine
 10
1187.480206999999
 20
569.4902359999995
 30
0.0
 11
1189.247987999999
 21
574.0864679999994
 31
0.0
  0
LINE
  5
2D0
330
1F
100
AcDbEntity
  8
Ｓ_１_１
  6
CONTINUOUS
 62
     3
100
AcDbLine
 10
1170.509715999999
 20
552.519756999999
 30
0.0
 11
1165.913484999999
 21
550.7519749999991
 31
0.0
  0
LINE
  5
2D1
330
1F
100
AcDbEntity
  8
Ｓ_１_１
  6
CONTINUOUS
 62
     3
100
AcDbLine
 10
1165.913467999999
 20
550.7519529999994
 30
0.0
 11
1161.670810999999
 21
554.9946089999993
 31
0.0
  0
LINE
  5
2D2
330
1F
100
AcDbEntity
  8
Ｓ_１_１
  6
CONTINUOUS
 62
     3
100
AcDbLine
 10
1189.248011999999
 20
574.0864969999992
 30
0.0
 11
1185.005356
 21
578.3291539999994
 31
0.0
  0
LINE
  5
2D3
330
1F
100
AcDbEntity
  8
Ｓ_１_１
  6
CONTINUOUS
 62
     3
100
AcDbLine
 10
1194.427339
 20
556.8863089999994
 30
0.0
 11
1197.813630999999
 21
561.4389139999993
 31
0.0
  0
LINE
  5
2D4
330
1F
100
AcDbEntity
  8
Ｓ_１_１
  6
CONTINUOUS
 62
     3
100
AcDbLine
 10
1178.561021
 20
542.1863069999994
 30
0.0
 11
1183.113626999999
 21
545.5725989999991
 31
0.0
  0
LINE
  5
2D5
330
1F
100
AcDbEntity
  8
Ｓ_１_１
  6
CONTINUOUS
 62
     3
100
AcDbLine
 10
1197.990484999998
 20
565.488584999999
 30
0.0
 11
1191.369338999999
 21
573.3793589999995
 31
0.0
  0
LINE
  5
2D6
330
1F
100
AcDbEntity
  8
Ｓ_１_１
  6
CONTINUOUS
 62
     3
100
AcDbLine
 10
1166.620580999999
 20
548.6306679999992
 30
0.0
 11
1174.511340999999
 21
542.0095349999991
 31
0.0
  0
LINE
  5
2D7
330
1F
100
AcDbEntity
  8
Ｓ_１_１
  6
CONTINUOUS
 62
     3
100
AcDbLine
 10
1166.522917999999
 20
548.5330189999994
 30
0.0
 11
1191.369299999998
 21
573.3794009999991
 31
0.0
  0
LINE
  5
2D8
330
1F
100
AcDbEntity
  8
Ｓ_１_１
  6
CONTINUOUS
 62
     3
100
AcDbLine
 10
1062.499979999999
 20
847.9999939999993
 30
0.0
 11
1067.499985999999
 21
842.9999879999995
 31
0.0
  0
LINE
  5
2D9
330
1F
100
AcDbEntity
  8
Ｓ_１_１
  6
CONTINUOUS
 62
     3
100
AcDbLine
 10
1067.499999999999
 20
843.0000279999994
 30
0.0
 11
1092.499999999999
 21
843.0000279999994
 31
0.0
  0
LINE
  5
2DA
330
1F
100
AcDbEntity
  8
Ｓ_１_１
  6
CONTINUOUS
 62
     3
100
AcDbLine
 10
1035.500106999999
 20
855.0000739999996
 30
0.0
 11
1035.500106999999
 21
904.9999969999993
 31
0.0
  0
LINE
  5
2DB
330
1F
100
AcDbEntity
  8
Ｓ_１_１
  6
CONTINUOUS
 62
     3
100
AcDbLine
 10
1124.500120999999
 20
855.0005319999995
 30
0.0
 11
1124.500120999999
 21
904.9999969999993
 31
0.0
  0
LINE
  5
2DC
330
1F
100
AcDbEntity
  8
Ｓ_１_１
  6
CONTINUOUS
 62
     3
100
AcDbLine
 10
1043.499908999999
 20
855.0000739999996
 30
0.0
 11
1035.500031
 21
855.0000739999996
 31
0.0
  0
LINE
  5
2DD
330
1F
100
AcDbEntity
  8
Ｓ_１_１
  6
CONTINUOUS
 62
     3
100
AcDbLine
 10
1043.499908999999
 20
905.0000729999994
 30
0.0
 11
1035.500031
 21
905.0000729999994
 31
0.0
  0
LINE
  5
2DE
330
1F
100
AcDbEntity
  8
Ｓ_１_１
  6
CONTINUOUS
 62
     3
100
AcDbLine
 10
1033.499852999999
 20
902.9998999999995
 30
0.0
 11
1035.499900999999
 21
904.9999859999995
 31
0.0
  0
LINE
  5
2DF
330
1F
100
AcDbEntity
  8
Ｓ_１_１
  6
CONTINUOUS
 62
     3
100
AcDbLine
 10
1035.499962999999
 20
854.9999079999992
 30
0.0
 11
1033.499984999999
 21
856.9998479999994
 31
0.0
  0
LINE
  5
2E0
330
1F
100
AcDbEntity
  8
Ｓ_１_１
  6
CONTINUOUS
 62
     3
100
AcDbLine
 10
1126.499700999999
 20
857.0001789999993
 30
0.0
 11
1124.499652999999
 21
855.0000939999995
 31
0.0
  0
LINE
  5
2E1
330
1F
100
AcDbEntity
  8
Ｓ_１_１
  6
CONTINUOUS
 62
     3
100
AcDbLine
 10
1126.499694999999
 20
902.9999369999992
 30
0.0
 11
1124.499754999999
 21
904.9999149999993
 31
0.0
  0
LINE
  5
2E2
330
1F
100
AcDbEntity
  8
Ｓ_１_１
  6
CONTINUOUS
 62
     3
100
AcDbLine
 10
1124.499891999999
 20
905.0000729999994
 30
0.0
 11
1116.500013999999
 21
905.0000729999994
 31
0.0
  0
LINE
  5
2E3
330
1F
100
AcDbEntity
  8
Ｓ_１_１
  6
CONTINUOUS
 62
     3
100
AcDbLine
 10
1124.499891999999
 20
855.0000739999996
 30
0.0
 11
1116.500013999999
 21
855.0000739999996
 31
0.0
  0
LINE
  5
2E4
330
1F
100
AcDbEntity
  8
Ｓ_１_１
  6
CONTINUOUS
 62
     3
100
AcDbLine
 10
1033.500137999999
 20
856.9996619999995
 30
0.0
 11
1033.500137999999
 21
903.0000269999994
 31
0.0
  0
LINE
  5
2E5
330
1F
100
AcDbEntity
  8
Ｓ_１_１
  6
CONTINUOUS
 62
     3
100
AcDbLine
 10
1126.500090999999
 20
857.0005769999992
 30
0.0
 11
1126.500090999999
 21
903.0000269999994
 31
0.0
  0
LINE
  5
2E6
330
1F
100
AcDbEntity
  8
Ｓ_１_１
  6
CONTINUOUS
 62
     3
100
AcDbLine
 10
1062.499999999999
 20
915.0000729999994
 30
0.0
 11
1043.500060999999
 21
915.0000729999994
 31
0.0
  0
LINE
  5
2E7
330
1F
100
AcDbEntity
  8
Ｓ_１_１
  6
CONTINUOUS
 62
     3
100
AcDbLine
 10
1116.500013999999
 20
915.0000729999994
 30
0.0
 11
1097.499999
 21
915.0000729999994
 31
0.0
  0
LINE
  5
2E8
330
1F
100
AcDbEntity
  8
Ｓ_１_１
  6
CONTINUOUS
 62
     3
100
AcDbLine
 10
1116.500090999999
 20
852.9344919999994
 30
0.0
 11
1116.500090999999
 21
914.9999969999993
 31
0.0
  0
LINE
  5
2E9
330
1F
100
AcDbEntity
  8
Ｓ_１_１
  6
CONTINUOUS
 62
     3
100
AcDbLine
 10
1043.500137999999
 20
852.9345679999994
 30
0.0
 11
1043.500137999999
 21
914.9999969999993
 31
0.0
  0
LINE
  5
2EA
330
1F
100
AcDbEntity
  8
Ｓ_１_１
  6
CONTINUOUS
 62
     3
100
AcDbLine
 10
1097.499999
 20
848.0000279999994
 30
0.0
 11
1097.499999
 21
914.9999969999993
 31
0.0
  0
LINE
  5
2EB
330
1F
100
AcDbEntity
  8
Ｓ_１_１
  6
CONTINUOUS
 62
     3
100
AcDbLine
 10
1062.499999999999
 20
848.0000279999994
 30
0.0
 11
1062.499999999999
 21
914.9999969999993
 31
0.0
  0
LINE
  5
2EC
330
1F
100
AcDbEntity
  8
Ｓ_１_１
  6
CONTINUOUS
 62
     3
100
AcDbLine
 10
1064.999999999999
 20
848.3772249999994
 30
0.0
 11
1064.999999999999
 21
911.6227689999994
 31
0.0
  0
LINE
  5
2ED
330
1F
100
AcDbEntity
  8
Ｓ_１_１
  6
CONTINUOUS
 62
     3
100
AcDbLine
 10
1094.999999
 20
848.3772249999994
 30
0.0
 11
1094.999999
 21
911.6227689999994
 31
0.0
  0
CIRCLE
  5
2EE
330
1F
100
AcDbEntity
  8
Ｓ_１_１
  6
EXLTYPE2
 62
     1
100
AcDbCircle
 10
2099.999999999998
 20
659.9999999999992
 30
0.0
 40
189.999997
  0
LINE
  5
2EF
330
1F
100
AcDbEntity
  8
Ｓ_１_１
  6
EXLTYPE2
 62
     1
100
AcDbLine
 10
1997.500033999999
 20
482.4647189999994
 30
0.0
 11
2012.500031999999
 21
508.4454819999994
 31
0.0
  0
LINE
  5
2F0
330
1F
100
AcDbEntity
  8
Ｓ_１_１
  6
EXLTYPE2
 62
     1
100
AcDbLine
 10
2187.500018999999
 20
811.5543839999993
 30
0.0
 11
2202.500017999999
 21
837.5351469999994
 31
0.0
  0
LINE
  5
2F1
330
1F
100
AcDbEntity
  8
Ｓ_１_１
  6
EXLTYPE2
 62
     1
100
AcDbLine
 10
2187.499996999999
 20
508.4454529999996
 30
0.0
 11
2202.499995999999
 21
482.4646899999991
 31
0.0
  0
LINE
  5
2F2
330
1F
100
AcDbEntity
  8
Ｓ_１_１
  6
EXLTYPE2
 62
     1
100
AcDbLine
 10
1997.499972999999
 20
837.5351839999992
 30
0.0
 11
2012.499971999999
 21
811.5544209999991
 31
0.0
  0
LINE
  5
2F3
330
1F
100
AcDbEntity
  8
Ｓ_１_１
  6
EXLTYPE2
 62
     1
100
AcDbLine
 10
2099.999999999998
 20
909.9999959999993
 30
0.0
 11
2099.999999999998
 21
410.0000029999994
 31
0.0
  0
LINE
  5
2F4
330
1F
100
AcDbEntity
  8
Ｓ_１_１
  6
EXLTYPE2
 62
     1
100
AcDbLine
 10
1850.000003999999
 20
659.9999999999992
 30
0.0
 11
2349.999995999999
 21
659.9999999999992
 31
0.0
  0
CIRCLE
  5
2F5
330
1F
100
AcDbEntity
  8
Ｓ_１_１
  6
CONTINUOUS
 62
     3
100
AcDbCircle
 10
2194.999997999999
 20
824.5448269999995
 30
0.0
 40
12.50000000000001
  0
CIRCLE
  5
2F6
330
1F
100
AcDbEntity
  8
Ｓ_１_１
  6
CONTINUOUS
 62
     3
100
AcDbCircle
 10
2289.999996999999
 20
659.9999229999992
 30
0.0
 40
12.50000000000001
  0
CIRCLE
  5
2F7
330
1F
100
AcDbEntity
  8
Ｓ_１_１
  6
CONTINUOUS
 62
     3
100
AcDbCircle
 10
2194.999997999999
 20
495.4550949999996
 30
0.0
 40
12.50000000000001
  0
CIRCLE
  5
2F8
330
1F
100
AcDbEntity
  8
Ｓ_１_１
  6
CONTINUOUS
 62
     3
100
AcDbCircle
 10
2005.000019999999
 20
495.4550949999996
 30
0.0
 40
12.50000000000001
  0
CIRCLE
  5
2F9
330
1F
100
AcDbEntity
  8
Ｓ_１_１
  6
CONTINUOUS
 62
     3
100
AcDbCircle
 10
1910.000002999999
 20
659.9999999999992
 30
0.0
 40
12.50000000000001
  0
CIRCLE
  5
2FA
330
1F
100
AcDbEntity
  8
Ｓ_１_１
  6
CONTINUOUS
 62
     3
100
AcDbCircle
 10
2005.000000999999
 20
824.5448269999995
 30
0.0
 40
12.50000000000001
  0
CIRCLE
  5
2FB
330
1F
100
AcDbEntity
  8
Ｓ_１_１
  6
CONTINUOUS
 62
     3
100
AcDbCircle
 10
2099.999999999998
 20
659.9999999999992
 30
0.0
 40
224.999997
  0
CIRCLE
  5
2FC
330
1F
100
AcDbEntity
  8
Ｓ_１_１
  6
CONTINUOUS
 62
     3
100
AcDbCircle
 10
2099.999999999998
 20
659.9999999999992
 30
0.0
 40
104.999998
  0
CIRCLE
  5
2FD
330
1F
100
AcDbEntity
  8
Ｓ_１_１
  6
CONTINUOUS
 62
     3
100
AcDbCircle
 10
2099.999999999998
 20
659.9999999999992
 30
0.0
 40
107.499998
  0
CIRCLE
  5
2FE
330
1F
100
AcDbEntity
  8
Ｓ_１_１
  6
CONTINUOUS
 62
     3
100
AcDbCircle
 10
2099.999999999998
 20
659.9999999999992
 30
0.0
 40
74.999999
  0
CIRCLE
  5
2FF
330
1F
100
AcDbEntity
  8
Ｓ_１_１
  6
CONTINUOUS
 62
     3
100
AcDbCircle
 10
2099.999999999998
 20
659.9999999999992
 30
0.0
 40
59.999999
  0
LINE
  5
300
330
1F
100
AcDbEntity
  8
Ｓ_１_１
  6
EXLTYPE2
 62
     1
100
AcDbLine
 10
1356.999870999998
 20
1754.999999999999
 30
0.0
 11
1356.999870999998
 21
1724.999999999999
 31
0.0
  0
LINE
  5
301
330
1F
100
AcDbEntity
  8
Ｓ_１_１
  6
EXLTYPE2
 62
     1
100
AcDbLine
 10
1903.999869999999
 20
1724.999999999999
 30
0.0
 11
1903.999869999999
 21
1754.999999999999
 31
0.0
  0
LINE
  5
302
330
1F
100
AcDbEntity
  8
Ｓ_１_１
  6
EXLTYPE2
 62
     1
100
AcDbLine
 10
1356.999870999998
 20
1974.999997
 30
0.0
 11
1356.999870999998
 21
1944.999996999999
 31
0.0
  0
LINE
  5
303
330
1F
100
AcDbEntity
  8
Ｓ_１_１
  6
EXLTYPE2
 62
     1
100
AcDbLine
 10
1903.999869999999
 20
1944.999996999999
 30
0.0
 11
1903.999869999999
 21
1974.999997
 31
0.0
  0
LINE
  5
304
330
1F
100
AcDbEntity
  8
Ｓ_１_１
  6
EXLTYPE2
 62
     1
100
AcDbLine
 10
1212.999895999999
 20
1790.481566999999
 30
0.0
 11
1212.999895999999
 21
1690.439758999999
 31
0.0
  0
LINE
  5
305
330
1F
100
AcDbEntity
  8
Ｓ_１_１
  6
EXLTYPE2
 62
     1
100
AcDbLine
 10
1082.999821999999
 20
1527.056766999999
 30
0.0
 11
1082.999821999999
 21
1631.040765999999
 31
0.0
  0
LINE
  5
306
330
1F
100
AcDbEntity
  8
Ｓ_１_１
  6
EXLTYPE2
 62
     1
100
AcDbLine
 10
1043.761387999999
 20
1565.000002999999
 30
0.0
 11
1121.325626999999
 21
1565.000002999999
 31
0.0
  0
LINE
  5
307
330
1F
100
AcDbEntity
  8
Ｓ_１_１
  6
EXLTYPE2
 62
     1
100
AcDbLine
 10
2078.261570999999
 20
1565.000002999999
 30
0.0
 11
2155.825847999999
 21
1565.000002999999
 31
0.0
  0
LINE
  5
308
330
1F
100
AcDbEntity
  8
Ｓ_１_１
  6
EXLTYPE2
 62
     1
100
AcDbLine
 10
1082.999821999999
 20
1952.943226999999
 30
0.0
 11
1082.999821999999
 21
1856.161916999999
 31
0.0
  0
LINE
  5
309
330
1F
100
AcDbEntity
  8
Ｓ_１_１
  6
EXLTYPE2
 62
     1
100
AcDbLine
 10
1043.761387999999
 20
1914.999998
 30
0.0
 11
1121.325626999999
 21
1914.999998
 31
0.0
  0
LINE
  5
30A
330
1F
100
AcDbEntity
  8
Ｓ_１_１
  6
EXLTYPE2
 62
     1
100
AcDbLine
 10
2078.261570999999
 20
1914.999998
 30
0.0
 11
2155.825847999999
 21
1914.999998
 31
0.0
  0
LINE
  5
30B
330
1F
100
AcDbEntity
  8
Ｓ_１_１
  6
EXLTYPE2
 62
     1
100
AcDbLine
 10
1903.999869999999
 20
1535.000002999999
 30
0.0
 11
1903.999869999999
 21
1505.000004999999
 31
0.0
  0
LINE
  5
30C
330
1F
100
AcDbEntity
  8
Ｓ_１_１
  6
EXLTYPE2
 62
     1
100
AcDbLine
 10
1272.999818999999
 20
1503.814501999999
 30
0.0
 11
1272.999818999999
 21
1481.042208999999
 31
0.0
  0
LINE
  5
30D
330
1F
100
AcDbEntity
  8
Ｓ_１_１
  6
EXLTYPE2
 62
     1
100
AcDbLine
 10
1356.999870999998
 20
1505.000004999999
 30
0.0
 11
1356.999870999998
 21
1535.000002999999
 31
0.0
  0
LINE
  5
30E
330
1F
100
AcDbEntity
  8
Ｓ_１_１
  6
EXLTYPE2
 62
     1
100
AcDbLine
 10
1212.999895999999
 20
1547.949044999999
 30
0.0
 11
1212.999895999999
 21
1493.699049999999
 31
0.0
  0
LINE
  5
30F
330
1F
100
AcDbEntity
  8
Ｓ_１_１
  6
EXLTYPE2
 62
     1
100
AcDbLine
 10
1183.966387999999
 20
1520.000003999999
 30
0.0
 11
2059.295926999999
 21
1520.000003999999
 31
0.0
  0
LINE
  5
310
330
1F
100
AcDbEntity
  8
Ｓ_１_１
  6
EXLTYPE2
 62
     1
100
AcDbLine
 10
1879.999931999999
 20
1908.554533
 30
0.0
 11
1879.999931999999
 21
1868.082578999999
 31
0.0
  0
LINE
  5
311
330
1F
100
AcDbEntity
  8
Ｓ_１_１
  6
EXLTYPE2
 62
     1
100
AcDbLine
 10
1342.999931999999
 20
1908.554533
 30
0.0
 11
1342.999931999999
 21
1868.082578999999
 31
0.0
  0
LINE
  5
312
330
1F
100
AcDbEntity
  8
Ｓ_１_１
  6
EXLTYPE2
 62
     1
100
AcDbLine
 10
1999.999967999998
 20
1908.554533
 30
0.0
 11
1999.999967999998
 21
1868.082578999999
 31
0.0
  0
LINE
  5
313
330
1F
100
AcDbEntity
  8
Ｓ_１_１
  6
EXLTYPE2
 62
     1
100
AcDbLine
 10
1222.999895999999
 20
1908.554533
 30
0.0
 11
1222.999895999999
 21
1868.082578999999
 31
0.0
  0
LINE
  5
314
330
1F
100
AcDbEntity
  8
Ｓ_１_１
  6
EXLTYPE2
 62
     1
100
AcDbLine
 10
2025.401464999999
 20
1589.932062999999
 30
0.0
 11
2095.099300999998
 21
1589.932062999999
 31
0.0
  0
LINE
  5
315
330
1F
100
AcDbEntity
  8
Ｓ_１_１
  6
EXLTYPE2
 62
     1
100
AcDbLine
 10
1654.973961999998
 20
1829.999998999999
 30
0.0
 11
1742.508211999999
 21
1829.999998999999
 31
0.0
  0
LINE
  5
316
330
1F
100
AcDbEntity
  8
Ｓ_１_１
  6
EXLTYPE2
 62
     1
100
AcDbLine
 10
1757.000055999999
 20
1871.172788999999
 30
0.0
 11
1757.000055999999
 21
1841.699979999999
 31
0.0
  0
LINE
  5
317
330
1F
100
AcDbEntity
  8
Ｓ_１_１
  6
EXLTYPE2
 62
     1
100
AcDbLine
 10
1776.923379999998
 20
1889.999997999999
 30
0.0
 11
1839.086998999999
 21
1889.999997999999
 31
0.0
  0
LINE
  5
318
330
1F
100
AcDbEntity
  8
Ｓ_１_１
  6
EXLTYPE2
 62
     1
100
AcDbLine
 10
1119.923267999999
 20
1590.000002999999
 30
0.0
 11
1182.086886999999
 21
1590.000002999999
 31
0.0
  0
LINE
  5
319
330
1F
100
AcDbEntity
  8
Ｓ_１_１
  6
EXLTYPE2
 62
     1
100
AcDbLine
 10
2352.187119999999
 20
1550.000002999999
 30
0.0
 11
2407.110747999999
 21
1550.000002999999
 31
0.0
  0
LINE
  5
31A
330
1F
100
AcDbEntity
  8
Ｓ_１_１
  6
EXLTYPE2
 62
     1
100
AcDbLine
 10
2352.187119999999
 20
1929.999996999999
 30
0.0
 11
2407.110747999999
 21
1929.999996999999
 31
0.0
  0
LINE
  5
31B
330
1F
100
AcDbEntity
  8
Ｓ_１_１
  6
EXLTYPE2
 62
     1
100
AcDbLine
 10
2290.000001999999
 20
1855.927083999999
 30
0.0
 11
2290.000001999999
 21
1889.277150999999
 31
0.0
  0
LINE
  5
31C
330
1F
100
AcDbEntity
  8
Ｓ_１_１
  6
EXLTYPE2
 62
     1
100
AcDbLine
 10
2136.319583999999
 20
1889.999997999999
 30
0.0
 11
2218.101427999998
 21
1889.999997999999
 31
0.0
  0
LINE
  5
31D
330
1F
100
AcDbEntity
  8
Ｓ_１_１
  6
EXLTYPE2
 62
     1
100
AcDbLine
 10
1119.923267999999
 20
1889.999997999999
 30
0.0
 11
1182.086886999999
 21
1889.999997999999
 31
0.0
  0
LINE
  5
31E
330
1F
100
AcDbEntity
  8
Ｓ_１_１
  6
EXLTYPE2
 62
     1
100
AcDbLine
 10
1212.999895999999
 20
1923.215367999999
 30
0.0
 11
1212.999895999999
 21
1996.050335
 31
0.0
  0
LINE
  5
31F
330
1F
100
AcDbEntity
  8
Ｓ_１_１
  6
EXLTYPE2
 62
     1
100
AcDbLine
 10
1180.877779999999
 20
1959.999997
 30
0.0
 11
2059.295926999999
 21
1959.999997
 31
0.0
  0
LINE
  5
320
330
1F
100
AcDbEntity
  8
Ｓ_１_１
  6
EXLTYPE2
 62
     1
100
AcDbLine
 10
1776.923379999998
 20
1590.000002999999
 30
0.0
 11
1839.086998999999
 21
1590.000002999999
 31
0.0
  0
LINE
  5
321
330
1F
100
AcDbEntity
  8
Ｓ_１_１
  6
EXLTYPE2
 62
     1
100
AcDbLine
 10
1494.626106999998
 20
1814.999998999999
 30
0.0
 11
1527.845095999999
 21
1814.999998999999
 31
0.0
  0
LINE
  5
322
330
1F
100
AcDbEntity
  8
Ｓ_１_１
  6
EXLTYPE2
 62
     1
100
AcDbLine
 10
1022.015782999999
 20
1650.000001999999
 30
0.0
 11
1068.672504999999
 21
1650.000001999999
 31
0.0
  0
LINE
  5
323
330
1F
100
AcDbEntity
  8
Ｓ_１_１
  6
EXLTYPE2
 62
     1
100
AcDbLine
 10
1757.000055999999
 20
1608.827211999999
 30
0.0
 11
1757.000055999999
 21
1638.300019999999
 31
0.0
  0
LINE
  5
324
330
1F
100
AcDbEntity
  8
Ｓ_１_１
  6
EXLTYPE2
 62
     1
100
AcDbLine
 10
1023.999806999999
 20
1829.999998999999
 30
0.0
 11
1069.820728999999
 21
1829.999998999999
 31
0.0
  0
LINE
  5
325
330
1F
100
AcDbEntity
  8
Ｓ_１_１
  6
EXLTYPE2
 62
     1
100
AcDbLine
 10
2025.401464999999
 20
1890.067937999999
 30
0.0
 11
2095.099300999998
 21
1890.067937999999
 31
0.0
  0
LINE
  5
326
330
1F
100
AcDbEntity
  8
Ｓ_１_１
  6
EXLTYPE2
 62
     1
100
AcDbLine
 10
847.9617539999992
 20
1739.999999999999
 30
0.0
 11
2409.038009999998
 21
1739.999999999999
 31
0.0
  0
LINE
  5
327
330
1F
100
AcDbEntity
  8
Ｓ_１_１
  6
EXLTYPE0
 62
     2
100
AcDbLine
 10
1956.999861999999
 20
1575.000002999999
 30
0.0
 11
2046.999860999998
 21
1575.000002999999
 31
0.0
  0
LINE
  5
328
330
1F
100
AcDbEntity
  8
Ｓ_１_１
  6
EXLTYPE0
 62
     2
100
AcDbLine
 10
1656.999927999999
 20
1690.000000999999
 30
0.0
 11
1706.999923
 21
1690.000000999999
 31
0.0
  0
LINE
  5
329
330
1F
100
AcDbEntity
  8
Ｓ_１_１
  6
EXLTYPE0
 62
     2
100
AcDbLine
 10
1656.999927999999
 20
1789.999999999999
 30
0.0
 11
1706.999923
 21
1789.999999999999
 31
0.0
  0
LINE
  5
32A
330
1F
100
AcDbEntity
  8
Ｓ_１_１
  6
EXLTYPE0
 62
     2
100
AcDbLine
 10
1232.999971999999
 20
1703.499946999999
 30
0.0
 11
1232.999971999999
 21
1776.499900999999
 31
0.0
  0
LINE
  5
32B
330
1F
100
AcDbEntity
  8
Ｓ_１_１
  6
EXLTYPE0
 62
     2
100
AcDbLine
 10
1192.999972999998
 20
1703.499946999999
 30
0.0
 11
1192.999972999998
 21
1776.499900999999
 31
0.0
  0
LINE
  5
32C
330
1F
100
AcDbEntity
  8
Ｓ_１_１
  6
EXLTYPE0
 62
     2
100
AcDbLine
 10
1656.999927999999
 20
2009.999996
 30
0.0
 11
1706.999923
 21
2009.999996
 31
0.0
  0
LINE
  5
32D
330
1F
100
AcDbEntity
  8
Ｓ_１_１
  6
EXLTYPE0
 62
     2
100
AcDbLine
 10
1157.999896999999
 20
1904.999998
 30
0.0
 11
1247.999894999999
 21
1904.999998
 31
0.0
  0
LINE
  5
32E
330
1F
100
AcDbEntity
  8
Ｓ_１_１
  6
EXLTYPE0
 62
     2
100
AcDbLine
 10
1656.999927999999
 20
1570.000002999999
 30
0.0
 11
1706.999923
 21
1570.000002999999
 31
0.0
  0
LINE
  5
32F
330
1F
100
AcDbEntity
  8
Ｓ_１_１
  6
EXLTYPE0
 62
     2
100
AcDbLine
 10
1656.999927999999
 20
1909.999998
 30
0.0
 11
1706.999923
 21
1909.999998
 31
0.0
  0
LINE
  5
330
330
1F
100
AcDbEntity
  8
Ｓ_１_１
  6
EXLTYPE0
 62
     2
100
AcDbLine
 10
1157.999896999999
 20
1575.000002999999
 30
0.0
 11
1247.999894999999
 21
1575.000002999999
 31
0.0
  0
LINE
  5
331
330
1F
100
AcDbEntity
  8
Ｓ_１_１
  6
EXLTYPE0
 62
     2
100
AcDbLine
 10
1956.999861999999
 20
1904.999998
 30
0.0
 11
2046.999860999998
 21
1904.999998
 31
0.0
  0
LINE
  5
332
330
1F
100
AcDbEntity
  8
Ｓ_１_１
  6
EXLTYPE0
 62
     2
100
AcDbLine
 10
2360.000000999999
 20
1562.500002999999
 30
0.0
 11
2399.999999999998
 21
1562.500002999999
 31
0.0
  0
LINE
  5
333
330
1F
100
AcDbEntity
  8
Ｓ_１_１
  6
EXLTYPE0
 62
     2
100
AcDbLine
 10
2360.000000999999
 20
1537.500002999999
 30
0.0
 11
2399.999999999998
 21
1537.500002999999
 31
0.0
  0
LINE
  5
334
330
1F
100
AcDbEntity
  8
Ｓ_１_１
  6
EXLTYPE0
 62
     2
100
AcDbLine
 10
2360.000000999999
 20
1917.499998
 30
0.0
 11
2399.999999999998
 21
1917.499998
 31
0.0
  0
LINE
  5
335
330
1F
100
AcDbEntity
  8
Ｓ_１_１
  6
EXLTYPE0
 62
     2
100
AcDbLine
 10
2360.000000999999
 20
1942.499996999999
 30
0.0
 11
2399.999999999998
 21
1942.499996999999
 31
0.0
  0
CIRCLE
  5
336
330
1F
100
AcDbEntity
  8
Ｓ_１_１
  6
CONTINUOUS
 62
     3
100
AcDbCircle
 10
1903.999869999999
 20
1739.999999999999
 30
0.0
 40
10.500001
  0
CIRCLE
  5
337
330
1F
100
AcDbEntity
  8
Ｓ_１_１
  6
CONTINUOUS
 62
     3
100
AcDbCircle
 10
1356.999870999998
 20
1739.999999999999
 30
0.0
 40
10.500001
  0
CIRCLE
  5
338
330
1F
100
AcDbEntity
  8
Ｓ_１_１
  6
CONTINUOUS
 62
     3
100
AcDbCircle
 10
1356.999870999998
 20
1739.999999999999
 30
0.0
 40
9.0
  0
CIRCLE
  5
339
330
1F
100
AcDbEntity
  8
Ｓ_１_１
  6
CONTINUOUS
 62
     3
100
AcDbCircle
 10
1903.999869999999
 20
1739.999999999999
 30
0.0
 40
9.0
  0
ARC
  5
33A
330
1F
100
AcDbEntity
  8
Ｓ_１_１
  6
CONTINUOUS
 62
     3
100
AcDbCircle
 10
2255.000001999999
 20
1723.999996999999
 30
0.0
 40
10.0
100
AcDbArc
 50
179.999991
 51
270.0000010000001
  0
CIRCLE
  5
33B
330
1F
100
AcDbEntity
  8
Ｓ_１_１
  6
CONTINUOUS
 62
     3
100
AcDbCircle
 10
2275.000001999999
 20
1739.999999999999
 30
0.0
 40
12.00000000000001
  0
CIRCLE
  5
33C
330
1F
100
AcDbEntity
  8
Ｓ_１_１
  6
CONTINUOUS
 62
     3
100
AcDbCircle
 10
2275.000001999999
 20
1739.999999999999
 30
0.0
 40
13.000001
  0
ARC
  5
33D
330
1F
100
AcDbEntity
  8
Ｓ_１_１
  6
CONTINUOUS
 62
     3
100
AcDbCircle
 10
2295.000001999999
 20
1723.999996999999
 30
0.0
 40
5.0
100
AcDbArc
 50
269.999997
 51
0.0
  0
ARC
  5
33E
330
1F
100
AcDbEntity
  8
Ｓ_１_１
  6
CONTINUOUS
 62
     3
100
AcDbCircle
 10
2295.000001999999
 20
1756.000003999999
 30
0.0
 40
5.0
100
AcDbArc
 50
0.0
 51
90.000003
  0
ARC
  5
33F
330
1F
100
AcDbEntity
  8
Ｓ_１_１
  6
CONTINUOUS
 62
     3
100
AcDbCircle
 10
2255.000001999999
 20
1756.000003999999
 30
0.0
 40
5.0
100
AcDbArc
 50
90.000003
 51
180.000005
  0
ARC
  5
340
330
1F
100
AcDbEntity
  8
Ｓ_１_１
  6
CONTINUOUS
 62
     3
100
AcDbCircle
 10
2255.000001999999
 20
1723.999996999999
 30
0.0
 40
5.0
100
AcDbArc
 50
179.999991
 51
270.0000010000001
  0
CIRCLE
  5
341
330
1F
100
AcDbEntity
  8
Ｓ_１_１
  6
CONTINUOUS
 62
     3
100
AcDbCircle
 10
1903.999869999999
 20
1959.999997
 30
0.0
 40
10.500001
  0
CIRCLE
  5
342
330
1F
100
AcDbEntity
  8
Ｓ_１_１
  6
CONTINUOUS
 62
     3
100
AcDbCircle
 10
1356.999870999998
 20
1959.999997
 30
0.0
 40
10.500001
  0
CIRCLE
  5
343
330
1F
100
AcDbEntity
  8
Ｓ_１_１
  6
CONTINUOUS
 62
     3
100
AcDbCircle
 10
1356.999870999998
 20
1959.999997
 30
0.0
 40
9.0
  0
CIRCLE
  5
344
330
1F
100
AcDbEntity
  8
Ｓ_１_１
  6
CONTINUOUS
 62
     3
100
AcDbCircle
 10
1903.999869999999
 20
1959.999997
 30
0.0
 40
9.0
  0
CIRCLE
  5
345
330
1F
100
AcDbEntity
  8
Ｓ_１_１
  6
CONTINUOUS
 62
     3
100
AcDbCircle
 10
1212.999895999999
 20
1959.999997
 30
0.0
 40
25.00000000000002
  0
CIRCLE
  5
346
330
1F
100
AcDbEntity
  8
Ｓ_１_１
  6
CONTINUOUS
 62
     3
100
AcDbCircle
 10
1212.999895999999
 20
1520.000003999999
 30
0.0
 40
25.00000000000002
  0
ARC
  5
347
330
1F
100
AcDbEntity
  8
Ｓ_１_１
  6
CONTINUOUS
 62
     3
100
AcDbCircle
 10
1070.999851999999
 20
1603.937503999999
 30
0.0
 40
6.062500000000004
100
AcDbArc
 50
42.075021
 51
90.000003
  0
ARC
  5
348
330
1F
100
AcDbEntity
  8
Ｓ_１_１
  6
CONTINUOUS
 62
     3
100
AcDbCircle
 10
1083.026829999999
 20
1595.038921999999
 30
0.0
 40
14.961099
100
AcDbArc
 50
60.03358600000003
 51
120.205824
  0
ARC
  5
349
330
1F
100
AcDbEntity
  8
Ｓ_１_１
  6
CONTINUOUS
 62
     3
100
AcDbCircle
 10
1094.999790999999
 20
1603.937503999999
 30
0.0
 40
6.062500000000004
100
AcDbArc
 50
90.000003
 51
137.9249740000001
  0
ARC
  5
34A
330
1F
100
AcDbEntity
  8
Ｓ_１_１
  6
CONTINUOUS
 62
     3
100
AcDbCircle
 10
1069.386158999999
 20
1590.000002999999
 30
0.0
 40
3.000000000000003
100
AcDbArc
 50
184.9999940000001
 51
269.999997
  0
ARC
  5
34B
330
1F
100
AcDbEntity
  8
Ｓ_１_１
  6
CONTINUOUS
 62
     3
100
AcDbCircle
 10
1057.400456999999
 20
1600.786487999999
 30
0.0
 40
8.0
100
AcDbArc
 50
305.5775140000002
 51
354.3581130000001
  0
ARC
  5
34C
330
1F
100
AcDbEntity
  8
Ｓ_１_１
  6
CONTINUOUS
 62
     3
100
AcDbCircle
 10
1108.599186
 20
1600.786487999999
 30
0.0
 40
8.0
100
AcDbArc
 50
185.641882
 51
234.422492
  0
ARC
  5
34D
330
1F
100
AcDbEntity
  8
Ｓ_１_１
  6
CONTINUOUS
 62
     3
100
AcDbCircle
 10
1082.999821999999
 20
1565.000002999999
 30
0.0
 40
36.000001
100
AcDbArc
 50
125.577508
 51
54.42249299999998
  0
CIRCLE
  5
34E
330
1F
100
AcDbEntity
  8
Ｓ_１_１
  6
CONTINUOUS
 62
     3
100
AcDbCircle
 10
1082.999821999999
 20
1565.000002999999
 30
0.0
 40
20.0
  0
ARC
  5
34F
330
1F
100
AcDbEntity
  8
Ｓ_１_１
  6
CONTINUOUS
 62
     3
100
AcDbCircle
 10
1096.613484
 20
1590.000002999999
 30
0.0
 40
3.000000000000003
100
AcDbArc
 50
269.999997
 51
355.0000000000003
  0
ARC
  5
350
330
1F
100
AcDbEntity
  8
Ｓ_１_１
  6
CONTINUOUS
 62
     3
100
AcDbCircle
 10
1070.999851999999
 20
1606.062499999999
 30
0.0
 40
6.062500000000004
100
AcDbArc
 50
269.999997
 51
317.9249790000003
  0
ARC
  5
351
330
1F
100
AcDbEntity
  8
Ｓ_１_１
  6
CONTINUOUS
 62
     3
100
AcDbCircle
 10
1094.999790999999
 20
1606.062499999999
 30
0.0
 40
6.062500000000004
100
AcDbArc
 50
222.0750260000001
 51
269.999997
  0
ARC
  5
352
330
1F
100
AcDbEntity
  8
Ｓ_１_１
  6
CONTINUOUS
 62
     3
100
AcDbCircle
 10
1083.026829999999
 20
1614.961072999999
 30
0.0
 40
14.961099
100
AcDbArc
 50
239.7941760000001
 51
299.966414
  0
ARC
  5
353
330
1F
100
AcDbEntity
  8
Ｓ_１_１
  6
CONTINUOUS
 62
     3
100
AcDbCircle
 10
2117.500004999999
 20
1914.999998
 30
0.0
 40
36.000001
100
AcDbArc
 50
224.9003470000001
 51
234.422492
  0
ARC
  5
354
330
1F
100
AcDbEntity
  8
Ｓ_１_１
  6
CONTINUOUS
 62
     3
100
AcDbCircle
 10
2117.500004999999
 20
1565.000002999999
 30
0.0
 40
36.000001
100
AcDbArc
 50
153.6122250000001
 51
21.16843300000001
  0
ARC
  5
355
330
1F
100
AcDbEntity
  8
Ｓ_１_１
  6
CONTINUOUS
 62
     3
100
AcDbCircle
 10
2117.527050999999
 20
1595.038921999999
 30
0.0
 40
14.961099
100
AcDbArc
 50
60.03358600000003
 51
120.205824
  0
ARC
  5
356
330
1F
100
AcDbEntity
  8
Ｓ_１_１
  6
CONTINUOUS
 62
     3
100
AcDbCircle
 10
2105.499996999999
 20
1603.937503999999
 30
0.0
 40
6.062500000000004
100
AcDbArc
 50
42.075021
 51
90.000003
  0
ARC
  5
357
330
1F
100
AcDbEntity
  8
Ｓ_１_１
  6
CONTINUOUS
 62
     3
100
AcDbCircle
 10
2129.500011999999
 20
1603.937503999999
 30
0.0
 40
6.062500000000004
100
AcDbArc
 50
90.000003
 51
137.9249740000001
  0
ARC
  5
358
330
1F
100
AcDbEntity
  8
Ｓ_１_１
  6
CONTINUOUS
 62
     3
100
AcDbCircle
 10
2129.500011999999
 20
1606.062499999999
 30
0.0
 40
6.062500000000004
100
AcDbArc
 50
222.0750260000001
 51
269.999997
  0
ARC
  5
359
330
1F
100
AcDbEntity
  8
Ｓ_１_１
  6
CONTINUOUS
 62
     3
100
AcDbCircle
 10
2117.527050999999
 20
1614.961072999999
 30
0.0
 40
14.961099
100
AcDbArc
 50
239.7941760000001
 51
299.966414
  0
ARC
  5
35A
330
1F
100
AcDbEntity
  8
Ｓ_１_１
  6
CONTINUOUS
 62
     3
100
AcDbCircle
 10
2105.499996999999
 20
1606.062499999999
 30
0.0
 40
6.062500000000004
100
AcDbArc
 50
269.999997
 51
317.9249790000003
  0
ARC
  5
35B
330
1F
100
AcDbEntity
  8
Ｓ_１_１
  6
CONTINUOUS
 62
     3
100
AcDbCircle
 10
2131.113666999999
 20
1590.000002999999
 30
0.0
 40
3.000000000000003
100
AcDbArc
 50
269.999997
 51
355.0000000000003
  0
ARC
  5
35C
330
1F
100
AcDbEntity
  8
Ｓ_１_１
  6
CONTINUOUS
 62
     3
100
AcDbCircle
 10
2103.886341999999
 20
1590.000002999999
 30
0.0
 40
3.000000000000003
100
AcDbArc
 50
184.9999940000001
 51
269.999997
  0
ARC
  5
35D
330
1F
100
AcDbEntity
  8
Ｓ_１_１
  6
CONTINUOUS
 62
     3
100
AcDbCircle
 10
2091.900639999999
 20
1600.786487999999
 30
0.0
 40
8.0
100
AcDbArc
 50
305.5775140000002
 51
354.3581130000001
  0
ARC
  5
35E
330
1F
100
AcDbEntity
  8
Ｓ_１_１
  6
CONTINUOUS
 62
     3
100
AcDbCircle
 10
2143.099368999999
 20
1600.786487999999
 30
0.0
 40
8.0
100
AcDbArc
 50
185.641882
 51
234.422492
  0
ARC
  5
35F
330
1F
100
AcDbEntity
  8
Ｓ_１_１
  6
CONTINUOUS
 62
     3
100
AcDbCircle
 10
2117.500004999999
 20
1565.000002999999
 30
0.0
 40
36.000001
100
AcDbArc
 50
125.577508
 51
135.099653
  0
CIRCLE
  5
360
330
1F
100
AcDbEntity
  8
Ｓ_１_１
  6
CONTINUOUS
 62
     3
100
AcDbCircle
 10
2117.500004999999
 20
1565.000002999999
 30
0.0
 40
20.0
  0
ARC
  5
361
330
1F
100
AcDbEntity
  8
Ｓ_１_１
  6
CONTINUOUS
 62
     3
100
AcDbCircle
 10
1083.026829999999
 20
1884.961087999999
 30
0.0
 40
14.961099
100
AcDbArc
 50
239.7941760000001
 51
299.966414
  0
ARC
  5
362
330
1F
100
AcDbEntity
  8
Ｓ_１_１
  6
CONTINUOUS
 62
     3
100
AcDbCircle
 10
1070.999851999999
 20
1876.062505999999
 30
0.0
 40
6.062500000000004
100
AcDbArc
 50
269.999997
 51
317.9249790000003
  0
ARC
  5
363
330
1F
100
AcDbEntity
  8
Ｓ_１_１
  6
CONTINUOUS
 62
     3
100
AcDbCircle
 10
1094.999790999999
 20
1876.062505999999
 30
0.0
 40
6.062500000000004
100
AcDbArc
 50
222.0750260000001
 51
269.999997
  0
ARC
  5
364
330
1F
100
AcDbEntity
  8
Ｓ_１_１
  6
CONTINUOUS
 62
     3
100
AcDbCircle
 10
1094.999790999999
 20
1873.937490999999
 30
0.0
 40
6.062500000000004
100
AcDbArc
 50
90.000003
 51
137.9249740000001
  0
ARC
  5
365
330
1F
100
AcDbEntity
  8
Ｓ_１_１
  6
CONTINUOUS
 62
     3
100
AcDbCircle
 10
1083.026829999999
 20
1865.038907999999
 30
0.0
 40
14.961099
100
AcDbArc
 50
60.03358600000003
 51
120.205824
  0
ARC
  5
366
330
1F
100
AcDbEntity
  8
Ｓ_１_１
  6
CONTINUOUS
 62
     3
100
AcDbCircle
 10
1070.999851999999
 20
1873.937490999999
 30
0.0
 40
6.062500000000004
100
AcDbArc
 50
42.075021
 51
90.000003
  0
ARC
  5
367
330
1F
100
AcDbEntity
  8
Ｓ_１_１
  6
CONTINUOUS
 62
     3
100
AcDbCircle
 10
1096.613484
 20
1889.999997999999
 30
0.0
 40
3.000000000000003
100
AcDbArc
 50
4.999999999999972
 51
90.000003
  0
ARC
  5
368
330
1F
100
AcDbEntity
  8
Ｓ_１_１
  6
CONTINUOUS
 62
     3
100
AcDbCircle
 10
1069.386158999999
 20
1889.999997999999
 30
0.0
 40
3.000000000000003
100
AcDbArc
 50
90.000003
 51
175.0000060000001
  0
ARC
  5
369
330
1F
100
AcDbEntity
  8
Ｓ_１_１
  6
CONTINUOUS
 62
     3
100
AcDbCircle
 10
1057.400456999999
 20
1879.213521999999
 30
0.0
 40
8.0
100
AcDbArc
 50
5.641886999999982
 51
54.42248600000002
  0
ARC
  5
36A
330
1F
100
AcDbEntity
  8
Ｓ_１_１
  6
CONTINUOUS
 62
     3
100
AcDbCircle
 10
1108.599186
 20
1879.213521999999
 30
0.0
 40
8.0
100
AcDbArc
 50
125.577508
 51
174.358118
  0
ARC
  5
36B
330
1F
100
AcDbEntity
  8
Ｓ_１_１
  6
CONTINUOUS
 62
     3
100
AcDbCircle
 10
1082.999821999999
 20
1914.999998
 30
0.0
 40
36.000001
100
AcDbArc
 50
305.5775140000002
 51
234.422474
  0
CIRCLE
  5
36C
330
1F
100
AcDbEntity
  8
Ｓ_１_１
  6
CONTINUOUS
 62
     3
100
AcDbCircle
 10
1082.999821999999
 20
1914.999998
 30
0.0
 40
20.0
  0
ARC
  5
36D
330
1F
100
AcDbEntity
  8
Ｓ_１_１
  6
CONTINUOUS
 62
     3
100
AcDbCircle
 10
2117.527050999999
 20
1884.961087999999
 30
0.0
 40
14.961099
100
AcDbArc
 50
239.7941760000001
 51
299.966414
  0
ARC
  5
36E
330
1F
100
AcDbEntity
  8
Ｓ_１_１
  6
CONTINUOUS
 62
     3
100
AcDbCircle
 10
2105.499996999999
 20
1876.062505999999
 30
0.0
 40
6.062500000000004
100
AcDbArc
 50
269.999997
 51
317.9249790000003
  0
ARC
  5
36F
330
1F
100
AcDbEntity
  8
Ｓ_１_１
  6
CONTINUOUS
 62
     3
100
AcDbCircle
 10
2129.500011999999
 20
1876.062505999999
 30
0.0
 40
6.062500000000004
100
AcDbArc
 50
222.0750260000001
 51
269.999997
  0
ARC
  5
370
330
1F
100
AcDbEntity
  8
Ｓ_１_１
  6
CONTINUOUS
 62
     3
100
AcDbCircle
 10
2129.500011999999
 20
1873.937490999999
 30
0.0
 40
6.062500000000004
100
AcDbArc
 50
90.000003
 51
137.9249740000001
  0
ARC
  5
371
330
1F
100
AcDbEntity
  8
Ｓ_１_１
  6
CONTINUOUS
 62
     3
100
AcDbCircle
 10
2117.527050999999
 20
1865.038907999999
 30
0.0
 40
14.961099
100
AcDbArc
 50
60.03358600000003
 51
120.205824
  0
ARC
  5
372
330
1F
100
AcDbEntity
  8
Ｓ_１_１
  6
CONTINUOUS
 62
     3
100
AcDbCircle
 10
2105.499996999999
 20
1873.937490999999
 30
0.0
 40
6.062500000000004
100
AcDbArc
 50
42.075021
 51
90.000003
  0
ARC
  5
373
330
1F
100
AcDbEntity
  8
Ｓ_１_１
  6
CONTINUOUS
 62
     3
100
AcDbCircle
 10
2131.113666999999
 20
1889.999997999999
 30
0.0
 40
3.000000000000003
100
AcDbArc
 50
4.999999999999972
 51
90.000003
  0
ARC
  5
374
330
1F
100
AcDbEntity
  8
Ｓ_１_１
  6
CONTINUOUS
 62
     3
100
AcDbCircle
 10
2103.886341999999
 20
1889.999997999999
 30
0.0
 40
3.000000000000003
100
AcDbArc
 50
90.000003
 51
175.0000060000001
  0
ARC
  5
375
330
1F
100
AcDbEntity
  8
Ｓ_１_１
  6
CONTINUOUS
 62
     3
100
AcDbCircle
 10
2091.900639999999
 20
1879.213521999999
 30
0.0
 40
8.0
100
AcDbArc
 50
5.641886999999982
 51
54.42248600000002
  0
ARC
  5
376
330
1F
100
AcDbEntity
  8
Ｓ_１_１
  6
CONTINUOUS
 62
     3
100
AcDbCircle
 10
2143.099368999999
 20
1879.213521999999
 30
0.0
 40
8.0
100
AcDbArc
 50
125.577508
 51
174.358118
  0
CIRCLE
  5
377
330
1F
100
AcDbEntity
  8
Ｓ_１_１
  6
CONTINUOUS
 62
     3
100
AcDbCircle
 10
2117.500004999999
 20
1914.999998
 30
0.0
 40
20.0
  0
CIRCLE
  5
378
330
1F
100
AcDbEntity
  8
Ｓ_１_１
  6
CONTINUOUS
 62
     3
100
AcDbCircle
 10
1903.999869999999
 20
1520.000003999999
 30
0.0
 40
10.500001
  0
CIRCLE
  5
379
330
1F
100
AcDbEntity
  8
Ｓ_１_１
  6
CONTINUOUS
 62
     3
100
AcDbCircle
 10
1903.999869999999
 20
1520.000003999999
 30
0.0
 40
9.0
  0
CIRCLE
  5
37A
330
1F
100
AcDbEntity
  8
Ｓ_１_１
  6
CONTINUOUS
 62
     3
100
AcDbCircle
 10
1212.999895999999
 20
1520.000003999999
 30
0.0
 40
20.0
  0
CIRCLE
  5
37B
330
1F
100
AcDbEntity
  8
Ｓ_１_１
  6
CONTINUOUS
 62
     3
100
AcDbCircle
 10
1356.999870999998
 20
1520.000003999999
 30
0.0
 40
10.500001
  0
CIRCLE
  5
37C
330
1F
100
AcDbEntity
  8
Ｓ_１_１
  6
CONTINUOUS
 62
     3
100
AcDbCircle
 10
1356.999870999998
 20
1520.000003999999
 30
0.0
 40
9.0
  0
CIRCLE
  5
37D
330
1F
100
AcDbEntity
  8
Ｓ_１_１
  6
CONTINUOUS
 62
     3
100
AcDbCircle
 10
1212.999895999999
 20
1959.999997
 30
0.0
 40
20.0
  0
LINE
  5
37E
330
1F
100
AcDbEntity
  8
Ｓ_１_１
  6
CONTINUOUS
 62
     3
100
AcDbLine
 10
2255.000001999999
 20
1713.999996999999
 30
0.0
 11
2305.000001999999
 21
1713.999996999999
 31
0.0
  0
LINE
  5
37F
330
1F
100
AcDbEntity
  8
Ｓ_１_１
  6
CONTINUOUS
 62
     3
100
AcDbLine
 10
2274.999965999999
 20
1748.082895999999
 30
0.0
 11
2267.999981999999
 21
1744.041453999999
 31
0.0
  0
LINE
  5
380
330
1F
100
AcDbEntity
  8
Ｓ_１_１
  6
CONTINUOUS
 62
     3
100
AcDbLine
 10
2281.999963999999
 20
1735.958544999999
 30
0.0
 11
2274.999979999999
 21
1731.917101999999
 31
0.0
  0
LINE
  5
381
330
1F
100
AcDbEntity
  8
Ｓ_１_１
  6
CONTINUOUS
 62
     3
100
AcDbLine
 10
2281.999954999999
 20
1744.041427
 30
0.0
 11
2274.999970999999
 21
1748.08287
 31
0.0
  0
LINE
  5
382
330
1F
100
AcDbEntity
  8
Ｓ_１_１
  6
CONTINUOUS
 62
     3
100
AcDbLine
 10
2274.999966999999
 20
1731.917091999999
 30
0.0
 11
2267.999982999999
 21
1735.958533999999
 31
0.0
  0
LINE
  5
383
330
1F
100
AcDbEntity
  8
Ｓ_１_１
  6
CONTINUOUS
 62
     3
100
AcDbLine
 10
2281.999971999999
 20
1735.958556999999
 30
0.0
 11
2281.999971999999
 21
1744.041442999999
 31
0.0
  0
LINE
  5
384
330
1F
100
AcDbEntity
  8
Ｓ_１_１
  6
CONTINUOUS
 62
     3
100
AcDbLine
 10
2267.999955999999
 20
1735.958556999999
 30
0.0
 11
2267.999955999999
 21
1744.041442999999
 31
0.0
  0
LINE
  5
385
330
1F
100
AcDbEntity
  8
Ｓ_１_１
  6
CONTINUOUS
 62
     3
100
AcDbLine
 10
2300.000001999999
 20
1723.999996999999
 30
0.0
 11
2300.000001999999
 21
1756.000003999999
 31
0.0
  0
LINE
  5
386
330
1F
100
AcDbEntity
  8
Ｓ_１_１
  6
CONTINUOUS
 62
     3
100
AcDbLine
 10
2250.000002999999
 20
1723.999996999999
 30
0.0
 11
2250.000002999999
 21
1756.000003999999
 31
0.0
  0
LINE
  5
387
330
1F
100
AcDbEntity
  8
Ｓ_１_１
  6
CONTINUOUS
 62
     3
100
AcDbLine
 10
2255.000001999999
 20
1718.999996999999
 30
0.0
 11
2295.000001999999
 21
1718.999996999999
 31
0.0
  0
LINE
  5
388
330
1F
100
AcDbEntity
  8
Ｓ_１_１
  6
CONTINUOUS
 62
     3
100
AcDbLine
 10
2255.000001999999
 20
1761.000003999999
 30
0.0
 11
2295.000001999999
 21
1761.000003999999
 31
0.0
  0
LINE
  5
389
330
1F
100
AcDbEntity
  8
Ｓ_１_１
  6
CONTINUOUS
 62
     3
100
AcDbLine
 10
2016.999898999999
 20
1799.999998999999
 30
0.0
 11
2016.999898999999
 21
1680.000000999999
 31
0.0
  0
LINE
  5
38A
330
1F
100
AcDbEntity
  8
Ｓ_１_１
  6
CONTINUOUS
 62
     3
100
AcDbLine
 10
1812.000048999998
 20
1689.999988
 30
0.0
 11
1812.000052
 21
1574.999998999999
 31
0.0
  0
LINE
  5
38B
330
1F
100
AcDbEntity
  8
Ｓ_１_１
  6
CONTINUOUS
 62
     3
100
AcDbLine
 10
1807.999962999999
 20
1789.999999999999
 30
0.0
 11
1807.999962999999
 21
1904.999998
 31
0.0
  0
LINE
  5
38C
330
1F
100
AcDbEntity
  8
Ｓ_１_１
  6
CONTINUOUS
 62
     3
100
AcDbLine
 10
1782.000054999999
 20
1690.000000999999
 30
0.0
 11
1782.000054999999
 21
1575.000002999999
 31
0.0
  0
LINE
  5
38D
330
1F
100
AcDbEntity
  8
Ｓ_１_１
  6
CONTINUOUS
 62
     3
100
AcDbLine
 10
1717.000055999999
 20
1789.999999999999
 30
0.0
 11
1717.000055999999
 21
1869.999997999999
 31
0.0
  0
LINE
  5
38E
330
1F
100
AcDbEntity
  8
Ｓ_１_１
  6
CONTINUOUS
 62
     3
100
AcDbLine
 10
1956.999861999999
 20
1680.000000999999
 30
0.0
 11
2046.999860999998
 21
1680.000000999999
 31
0.0
  0
LINE
  5
38F
330
1F
100
AcDbEntity
  8
Ｓ_１_１
  6
CONTINUOUS
 62
     3
100
AcDbLine
 10
1956.999861999999
 20
1799.999998999999
 30
0.0
 11
2046.999860999998
 21
1799.999998999999
 31
0.0
  0
LINE
  5
390
330
1F
100
AcDbEntity
  8
Ｓ_１_１
  6
CONTINUOUS
 62
     3
100
AcDbLine
 10
2046.999860999998
 20
1904.999998
 30
0.0
 11
2050.000005999998
 21
1904.999998
 31
0.0
  0
LINE
  5
391
330
1F
100
AcDbEntity
  8
Ｓ_１_１
  6
CONTINUOUS
 62
     3
100
AcDbLine
 10
1812.000054999999
 20
1904.999998
 30
0.0
 11
1956.999861999999
 21
1904.999998
 31
0.0
  0
LINE
  5
392
330
1F
100
AcDbEntity
  8
Ｓ_１_１
  6
CONTINUOUS
 62
     3
100
AcDbLine
 10
2046.999860999998
 20
1575.000002999999
 30
0.0
 11
2050.000005999998
 21
1575.000002999999
 31
0.0
  0
LINE
  5
393
330
1F
100
AcDbEntity
  8
Ｓ_１_１
  6
CONTINUOUS
 62
     3
100
AcDbLine
 10
2077.999477999999
 20
1904.999988
 30
0.0
 11
2077.999496999999
 21
1575.000001999999
 31
0.0
  0
LINE
  5
394
330
1F
100
AcDbEntity
  8
Ｓ_１_１
  6
CONTINUOUS
 62
     3
100
AcDbLine
 10
2053.999982999999
 20
1574.999999999999
 30
0.0
 11
2053.999984999999
 21
1904.999994999999
 31
0.0
  0
LINE
  5
395
330
1F
100
AcDbEntity
  8
Ｓ_１_１
  6
CONTINUOUS
 62
     3
100
AcDbLine
 10
2049.999993999999
 20
1905.000011
 30
0.0
 11
2050.000002999999
 21
1575.000005999999
 31
0.0
  0
LINE
  5
396
330
1F
100
AcDbEntity
  8
Ｓ_１_１
  6
CONTINUOUS
 62
     3
100
AcDbLine
 10
1812.000042999998
 20
1905.000004
 30
0.0
 11
1812.000045999999
 21
1789.999986999999
 31
0.0
  0
LINE
  5
397
330
1F
100
AcDbEntity
  8
Ｓ_１_１
  6
CONTINUOUS
 62
     3
100
AcDbLine
 10
1807.999962999999
 20
1575.000002999999
 30
0.0
 11
1807.999962999999
 21
1690.000000999999
 31
0.0
  0
LINE
  5
398
330
1F
100
AcDbEntity
  8
Ｓ_１_１
  6
CONTINUOUS
 62
     3
100
AcDbLine
 10
1782.000054999999
 20
1904.999998
 30
0.0
 11
1782.000054999999
 21
1789.999999999999
 31
0.0
  0
LINE
  5
399
330
1F
100
AcDbEntity
  8
Ｓ_１_１
  6
CONTINUOUS
 62
     3
100
AcDbLine
 10
1717.000055999999
 20
1610.000001999999
 30
0.0
 11
1717.000055999999
 21
1690.000000999999
 31
0.0
  0
LINE
  5
39A
330
1F
100
AcDbEntity
  8
Ｓ_１_１
  6
CONTINUOUS
 62
     3
100
AcDbLine
 10
2053.999982999999
 20
1575.000002999999
 30
0.0
 11
2077.999501999999
 21
1575.000002999999
 31
0.0
  0
LINE
  5
39B
330
1F
100
AcDbEntity
  8
Ｓ_１_１
  6
CONTINUOUS
 62
     3
100
AcDbLine
 10
1519.999941999999
 20
1789.999999999999
 30
0.0
 11
1519.999941999999
 21
1869.999997999999
 31
0.0
  0
LINE
  5
39C
330
1F
100
AcDbEntity
  8
Ｓ_１_１
  6
CONTINUOUS
 62
     3
100
AcDbLine
 10
1429.999937999999
 20
1690.000000999999
 30
0.0
 11
1429.999937999999
 21
1610.000001999999
 31
0.0
  0
LINE
  5
39D
330
1F
100
AcDbEntity
  8
Ｓ_１_１
  6
CONTINUOUS
 62
     3
100
AcDbLine
 10
1422.999739999999
 20
1789.999999999999
 30
0.0
 11
1422.999739999999
 21
1904.999998
 31
0.0
  0
LINE
  5
39E
330
1F
100
AcDbEntity
  8
Ｓ_１_１
  6
CONTINUOUS
 62
     3
100
AcDbLine
 10
1519.999941999999
 20
1610.000001999999
 30
0.0
 11
1519.999941999999
 21
1690.000000999999
 31
0.0
  0
LINE
  5
39F
330
1F
100
AcDbEntity
  8
Ｓ_１_１
  6
CONTINUOUS
 62
     3
100
AcDbLine
 10
1429.999937999999
 20
1869.999997999999
 30
0.0
 11
1429.999937999999
 21
1789.999999999999
 31
0.0
  0
LINE
  5
3A0
330
1F
100
AcDbEntity
  8
Ｓ_１_１
  6
CONTINUOUS
 62
     3
100
AcDbLine
 10
1422.999739999999
 20
1575.000002999999
 30
0.0
 11
1422.999739999999
 21
1690.000000999999
 31
0.0
  0
LINE
  5
3A1
330
1F
100
AcDbEntity
  8
Ｓ_１_１
  6
CONTINUOUS
 62
     3
100
AcDbLine
 10
1154.999560999999
 20
1904.999998
 30
0.0
 11
1154.999560999999
 21
1575.000002999999
 31
0.0
  0
LINE
  5
3A2
330
1F
100
AcDbEntity
  8
Ｓ_１_１
  6
CONTINUOUS
 62
     3
100
AcDbLine
 10
1150.999850999999
 20
1575.000002999999
 30
0.0
 11
1150.999850999999
 21
1904.999998
 31
0.0
  0
LINE
  5
3A3
330
1F
100
AcDbEntity
  8
Ｓ_１_１
  6
CONTINUOUS
 62
     3
100
AcDbLine
 10
1124.999942999999
 20
1904.999998
 30
0.0
 11
1124.999942999999
 21
1575.000002999999
 31
0.0
  0
LINE
  5
3A4
330
1F
100
AcDbEntity
  8
Ｓ_１_１
  6
CONTINUOUS
 62
     3
100
AcDbLine
 10
1060.000019999999
 20
1610.000001999999
 30
0.0
 11
1060.000019999999
 21
1869.999997999999
 31
0.0
  0
LINE
  5
3A5
330
1F
100
AcDbEntity
  8
Ｓ_１_１
  6
CONTINUOUS
 62
     3
100
AcDbLine
 10
990.0000209999992
 20
1732.000007999999
 30
0.0
 11
990.0000209999992
 21
1747.999992999999
 31
0.0
  0
LINE
  5
3A6
330
1F
100
AcDbEntity
  8
Ｓ_１_１
  6
CONTINUOUS
 62
     3
100
AcDbLine
 10
944.9999459999992
 20
1732.000007999999
 30
0.0
 11
944.9999459999992
 21
1747.999992999999
 31
0.0
  0
LINE
  5
3A7
330
1F
100
AcDbEntity
  8
Ｓ_１_１
  6
CONTINUOUS
 62
     3
100
AcDbLine
 10
944.9999459999992
 20
1732.000007999999
 30
0.0
 11
1024.999943999999
 21
1732.000007999999
 31
0.0
  0
LINE
  5
3A8
330
1F
100
AcDbEntity
  8
Ｓ_１_１
  6
CONTINUOUS
 62
     3
100
AcDbLine
 10
944.9999459999992
 20
1747.999992999999
 30
0.0
 11
1024.999943999999
 21
1747.999992999999
 31
0.0
  0
LINE
  5
3A9
330
1F
100
AcDbEntity
  8
Ｓ_１_１
  6
CONTINUOUS
 62
     3
100
AcDbLine
 10
1252.999894999999
 20
1754.999999999999
 30
0.0
 11
1252.999894999999
 21
1774.999999999999
 31
0.0
  0
LINE
  5
3AA
330
1F
100
AcDbEntity
  8
Ｓ_１_１
  6
CONTINUOUS
 62
     3
100
AcDbLine
 10
1247.999894999999
 20
1724.999999999999
 30
0.0
 11
1247.999894999999
 21
1485.000004999999
 31
0.0
  0
LINE
  5
3AB
330
1F
100
AcDbEntity
  8
Ｓ_１_１
  6
CONTINUOUS
 62
     3
100
AcDbLine
 10
1172.999896999999
 20
1754.999999999999
 30
0.0
 11
1172.999896999999
 21
1724.999999999999
 31
0.0
  0
LINE
  5
3AC
330
1F
100
AcDbEntity
  8
Ｓ_１_１
  6
CONTINUOUS
 62
     3
100
AcDbLine
 10
2016.999921999999
 20
2010.000032999999
 30
0.0
 11
2046.999924999998
 21
1980.000027999999
 31
0.0
  0
LINE
  5
3AD
330
1F
100
AcDbEntity
  8
Ｓ_１_１
  6
CONTINUOUS
 62
     3
100
AcDbLine
 10
1656.999927999999
 20
1670.000000999999
 30
0.0
 11
1706.999923
 21
1670.000000999999
 31
0.0
  0
LINE
  5
3AE
330
1F
100
AcDbEntity
  8
Ｓ_１_１
  6
CONTINUOUS
 62
     3
100
AcDbLine
 10
1656.999927999999
 20
1809.999998999999
 30
0.0
 11
1706.999923
 21
1809.999998999999
 31
0.0
  0
LINE
  5
3AF
330
1F
100
AcDbEntity
  8
Ｓ_１_１
  6
CONTINUOUS
 62
     3
100
AcDbLine
 10
1524.999941999999
 20
1789.999999999999
 30
0.0
 11
1524.999941999999
 21
1864.999997999999
 31
0.0
  0
LINE
  5
3B0
330
1F
100
AcDbEntity
  8
Ｓ_１_１
  6
CONTINUOUS
 62
     3
100
AcDbLine
 10
1424.999938999999
 20
1789.999999999999
 30
0.0
 11
1424.999938999999
 21
1903.000028
 31
0.0
  0
LINE
  5
3B1
330
1F
100
AcDbEntity
  8
Ｓ_１_１
  6
CONTINUOUS
 62
     3
100
AcDbLine
 10
1394.999938999999
 20
1789.999999999999
 30
0.0
 11
1394.999938999999
 21
1904.999998
 31
0.0
  0
LINE
  5
3B2
330
1F
100
AcDbEntity
  8
Ｓ_１_１
  6
CONTINUOUS
 62
     3
100
AcDbLine
 10
1810.000123999998
 20
1789.999999999999
 30
0.0
 11
1810.000123999998
 21
1903.000066999999
 31
0.0
  0
LINE
  5
3B3
330
1F
100
AcDbEntity
  8
Ｓ_１_１
  6
CONTINUOUS
 62
     3
100
AcDbLine
 10
1779.999932999999
 20
1789.999999999999
 30
0.0
 11
1779.999932999999
 21
1902.999951999999
 31
0.0
  0
LINE
  5
3B4
330
1F
100
AcDbEntity
  8
Ｓ_１_１
  6
CONTINUOUS
 62
     3
100
AcDbLine
 10
1706.999923
 20
1690.000000999999
 30
0.0
 11
1954.999853999999
 21
1690.000000999999
 31
0.0
  0
LINE
  5
3B5
330
1F
100
AcDbEntity
  8
Ｓ_１_１
  6
CONTINUOUS
 62
     3
100
AcDbLine
 10
1954.999853999999
 20
1789.999999999999
 30
0.0
 11
1954.999853999999
 21
1690.000000999999
 31
0.0
  0
LINE
  5
3B6
330
1F
100
AcDbEntity
  8
Ｓ_１_１
  6
CONTINUOUS
 62
     3
100
AcDbLine
 10
1954.999867999999
 20
1689.999986999999
 30
0.0
 11
1956.999880999999
 21
1691.999999999999
 31
0.0
  0
LINE
  5
3B7
330
1F
100
AcDbEntity
  8
Ｓ_１_１
  6
CONTINUOUS
 62
     3
100
AcDbLine
 10
1706.999923
 20
1789.999999999999
 30
0.0
 11
1954.999853999999
 21
1789.999999999999
 31
0.0
  0
LINE
  5
3B8
330
1F
100
AcDbEntity
  8
Ｓ_１_１
  6
CONTINUOUS
 62
     3
100
AcDbLine
 10
1954.999884999999
 20
1790.000014999999
 30
0.0
 11
1956.999884999999
 21
1788.000015999999
 31
0.0
  0
LINE
  5
3B9
330
1F
100
AcDbEntity
  8
Ｓ_１_１
  6
CONTINUOUS
 62
     3
100
AcDbLine
 10
1287.999913999998
 20
1759.999999999999
 30
0.0
 11
1289.999959999999
 21
1759.999999999999
 31
0.0
  0
LINE
  5
3BA
330
1F
100
AcDbEntity
  8
Ｓ_１_１
  6
CONTINUOUS
 62
     3
100
AcDbLine
 10
1297.999932999999
 20
1690.000000999999
 30
0.0
 11
1656.999927999999
 21
1690.000000999999
 31
0.0
  0
LINE
  5
3BB
330
1F
100
AcDbEntity
  8
Ｓ_１_１
  6
CONTINUOUS
 62
     3
100
AcDbLine
 10
1292.999837999999
 20
1739.999999999999
 30
0.0
 11
1292.999837999999
 21
1762.499999999999
 31
0.0
  0
LINE
  5
3BC
330
1F
100
AcDbEntity
  8
Ｓ_１_１
  6
CONTINUOUS
 62
     3
100
AcDbLine
 10
1292.999913999998
 20
1717.500000999999
 30
0.0
 11
1295.999848999999
 21
1717.500000999999
 31
0.0
  0
LINE
  5
3BD
330
1F
100
AcDbEntity
  8
Ｓ_１_１
  6
CONTINUOUS
 62
     3
100
AcDbLine
 10
1292.999913999998
 20
1762.499999999999
 30
0.0
 11
1295.999848999999
 21
1762.499999999999
 31
0.0
  0
LINE
  5
3BE
330
1F
100
AcDbEntity
  8
Ｓ_１_１
  6
CONTINUOUS
 62
     3
100
AcDbLine
 10
1288.000171999998
 20
1709.999837999999
 30
0.0
 11
1283.000129999999
 21
1704.999816
 31
0.0
  0
LINE
  5
3BF
330
1F
100
AcDbEntity
  8
Ｓ_１_１
  6
CONTINUOUS
 62
     3
100
AcDbLine
 10
1282.999837999999
 20
1705.000000999999
 30
0.0
 11
1282.999837999999
 21
1774.999999999999
 31
0.0
  0
LINE
  5
3C0
330
1F
100
AcDbEntity
  8
Ｓ_１_１
  6
CONTINUOUS
 62
     3
100
AcDbLine
 10
1283.000019999999
 20
1774.999968999999
 30
0.0
 11
1288.000024999999
 21
1769.999962999999
 31
0.0
  0
LINE
  5
3C1
330
1F
100
AcDbEntity
  8
Ｓ_１_１
  6
CONTINUOUS
 62
     3
100
AcDbLine
 10
1287.999837999999
 20
1710.000000999999
 30
0.0
 11
1287.999837999999
 21
1769.999999999999
 31
0.0
  0
LINE
  5
3C2
330
1F
100
AcDbEntity
  8
Ｓ_１_１
  6
CONTINUOUS
 62
     3
100
AcDbLine
 10
1295.999981999999
 20
1691.999959999999
 30
0.0
 11
1298.000048999998
 21
1689.999892999999
 31
0.0
  0
LINE
  5
3C3
330
1F
100
AcDbEntity
  8
Ｓ_１_１
  6
CONTINUOUS
 62
     3
100
AcDbLine
 10
1252.999894999999
 20
1774.999999999999
 30
0.0
 11
1282.999837999999
 21
1774.999999999999
 31
0.0
  0
LINE
  5
3C4
330
1F
100
AcDbEntity
  8
Ｓ_１_１
  6
CONTINUOUS
 62
     3
100
AcDbLine
 10
1289.999959999999
 20
1719.232026
 30
0.0
 11
1289.999959999999
 21
1760.767936999999
 31
0.0
  0
LINE
  5
3C5
330
1F
100
AcDbEntity
  8
Ｓ_１_１
  6
CONTINUOUS
 62
     3
100
AcDbLine
 10
1292.999873999999
 20
1762.499922999999
 30
0.0
 11
1289.999925999999
 21
1760.767884999999
 31
0.0
  0
LINE
  5
3C6
330
1F
100
AcDbEntity
  8
Ｓ_１_１
  6
CONTINUOUS
 62
     3
100
AcDbLine
 10
1252.999894999999
 20
1705.000000999999
 30
0.0
 11
1282.999837999999
 21
1705.000000999999
 31
0.0
  0
LINE
  5
3C7
330
1F
100
AcDbEntity
  8
Ｓ_１_１
  6
CONTINUOUS
 62
     3
100
AcDbLine
 10
1292.999837999999
 20
1717.500000999999
 30
0.0
 11
1292.999837999999
 21
1739.999999999999
 31
0.0
  0
LINE
  5
3C8
330
1F
100
AcDbEntity
  8
Ｓ_１_１
  6
CONTINUOUS
 62
     3
100
AcDbLine
 10
1252.999894999999
 20
1705.000000999999
 30
0.0
 11
1252.999894999999
 21
1724.999999999999
 31
0.0
  0
LINE
  5
3C9
330
1F
100
AcDbEntity
  8
Ｓ_１_１
  6
CONTINUOUS
 62
     3
100
AcDbLine
 10
1297.999932999999
 20
1690.000000999999
 30
0.0
 11
1297.999932999999
 21
1789.999999999999
 31
0.0
  0
LINE
  5
3CA
330
1F
100
AcDbEntity
  8
Ｓ_１_１
  6
CONTINUOUS
 62
     3
100
AcDbLine
 10
1287.999913999998
 20
1720.000000999999
 30
0.0
 11
1289.999959999999
 21
1720.000000999999
 31
0.0
  0
LINE
  5
3CB
330
1F
100
AcDbEntity
  8
Ｓ_１_１
  6
CONTINUOUS
 62
     3
100
AcDbLine
 10
1295.999848999999
 20
1692.000008999999
 30
0.0
 11
1295.999848999999
 21
1787.999533999999
 31
0.0
  0
LINE
  5
3CC
330
1F
100
AcDbEntity
  8
Ｓ_１_１
  6
CONTINUOUS
 62
     3
100
AcDbLine
 10
1296.000116999999
 20
1787.999742
 30
0.0
 11
1298.000115999999
 21
1789.999740999999
 31
0.0
  0
LINE
  5
3CD
330
1F
100
AcDbEntity
  8
Ｓ_１_１
  6
CONTINUOUS
 62
     3
100
AcDbLine
 10
1298.000275999999
 20
1789.999999999999
 30
0.0
 11
1656.999927999999
 21
1789.999999999999
 31
0.0
  0
LINE
  5
3CE
330
1F
100
AcDbEntity
  8
Ｓ_１_１
  6
CONTINUOUS
 62
     3
100
AcDbLine
 10
1292.999884999999
 20
1717.500068999999
 30
0.0
 11
1289.999960999999
 21
1719.232072999999
 31
0.0
  0
LINE
  5
3CF
330
1F
100
AcDbEntity
  8
Ｓ_１_１
  6
CONTINUOUS
 62
     3
100
AcDbLine
 10
1187.999895999999
 20
1722.500000999999
 30
0.0
 11
1187.999895999999
 21
1703.499946999999
 31
0.0
  0
LINE
  5
3D0
330
1F
100
AcDbEntity
  8
Ｓ_１_１
  6
CONTINUOUS
 62
     3
100
AcDbLine
 10
1187.999895999999
 20
1776.499900999999
 30
0.0
 11
1187.999895999999
 21
1757.499999999999
 31
0.0
  0
LINE
  5
3D1
330
1F
100
AcDbEntity
  8
Ｓ_１_１
  6
CONTINUOUS
 62
     3
100
AcDbLine
 10
1235.999879999999
 20
1693.500239999999
 30
0.0
 11
1237.999857999999
 21
1695.500178999999
 31
0.0
  0
LINE
  5
3D2
330
1F
100
AcDbEntity
  8
Ｓ_１_１
  6
CONTINUOUS
 62
     3
100
AcDbLine
 10
1237.999971999999
 20
1695.500069999999
 30
0.0
 11
1237.999971999999
 21
1703.499946999999
 31
0.0
  0
LINE
  5
3D3
330
1F
100
AcDbEntity
  8
Ｓ_１_１
  6
CONTINUOUS
 62
     3
100
AcDbLine
 10
1187.999972999998
 20
1695.500069999999
 30
0.0
 11
1187.999972999998
 21
1703.499946999999
 31
0.0
  0
LINE
  5
3D4
330
1F
100
AcDbEntity
  8
Ｓ_１_１
  6
CONTINUOUS
 62
     3
100
AcDbLine
 10
1189.999636999999
 20
1786.499899999999
 30
0.0
 11
1235.999925999999
 21
1786.499899999999
 31
0.0
  0
LINE
  5
3D5
330
1F
100
AcDbEntity
  8
Ｓ_１_１
  6
CONTINUOUS
 62
     3
100
AcDbLine
 10
1190.000475999999
 20
1693.499947999999
 30
0.0
 11
1235.999925999999
 21
1693.499947999999
 31
0.0
  0
LINE
  5
3D6
330
1F
100
AcDbEntity
  8
Ｓ_１_１
  6
CONTINUOUS
 62
     3
100
AcDbLine
 10
1190.000130999999
 20
1693.500348999999
 30
0.0
 11
1188.000045999999
 21
1695.500397
 31
0.0
  0
LINE
  5
3D7
330
1F
100
AcDbEntity
  8
Ｓ_１_１
  6
CONTINUOUS
 62
     3
100
AcDbLine
 10
1187.999825999999
 20
1784.500107999999
 30
0.0
 11
1189.999765999999
 21
1786.500085999999
 31
0.0
  0
LINE
  5
3D8
330
1F
100
AcDbEntity
  8
Ｓ_１_１
  6
CONTINUOUS
 62
     3
100
AcDbLine
 10
1187.999972999998
 20
1776.500052999999
 30
0.0
 11
1187.999972999998
 21
1784.499930999999
 31
0.0
  0
LINE
  5
3D9
330
1F
100
AcDbEntity
  8
Ｓ_１_１
  6
CONTINUOUS
 62
     3
100
AcDbLine
 10
1237.999971999999
 20
1776.500052999999
 30
0.0
 11
1237.999971999999
 21
1784.499930999999
 31
0.0
  0
LINE
  5
3DA
330
1F
100
AcDbEntity
  8
Ｓ_１_１
  6
CONTINUOUS
 62
     3
100
AcDbLine
 10
1235.999794999999
 20
1786.500193999999
 30
0.0
 11
1237.999880999999
 21
1784.500145999999
 31
0.0
  0
LINE
  5
3DB
330
1F
100
AcDbEntity
  8
Ｓ_１_１
  6
CONTINUOUS
 62
     3
100
AcDbLine
 10
1157.999896999999
 20
1703.499946999999
 30
0.0
 11
1247.999894999999
 21
1703.499946999999
 31
0.0
  0
LINE
  5
3DC
330
1F
100
AcDbEntity
  8
Ｓ_１_１
  6
CONTINUOUS
 62
     3
100
AcDbLine
 10
1187.999972999998
 20
1784.499930999999
 30
0.0
 11
1237.999895999999
 21
1784.499930999999
 31
0.0
  0
LINE
  5
3DD
330
1F
100
AcDbEntity
  8
Ｓ_１_１
  6
CONTINUOUS
 62
     3
100
AcDbLine
 10
1188.000429999998
 20
1695.499917
 30
0.0
 11
1237.999895999999
 21
1695.499917
 31
0.0
  0
LINE
  5
3DE
330
1F
100
AcDbEntity
  8
Ｓ_１_１
  6
CONTINUOUS
 62
     3
100
AcDbLine
 10
1157.999896999999
 20
1776.499900999999
 30
0.0
 11
1247.999894999999
 21
1776.499900999999
 31
0.0
  0
LINE
  5
3DF
330
1F
100
AcDbEntity
  8
Ｓ_１_１
  6
CONTINUOUS
 62
     3
100
AcDbLine
 10
1157.999896999999
 20
1722.500000999999
 30
0.0
 11
1247.999894999999
 21
1722.500000999999
 31
0.0
  0
LINE
  5
3E0
330
1F
100
AcDbEntity
  8
Ｓ_１_１
  6
CONTINUOUS
 62
     3
100
AcDbLine
 10
1157.999896999999
 20
1757.499999999999
 30
0.0
 11
1247.999894999999
 21
1757.499999999999
 31
0.0
  0
LINE
  5
3E1
330
1F
100
AcDbEntity
  8
Ｓ_１_１
  6
CONTINUOUS
 62
     3
100
AcDbLine
 10
1172.999896999999
 20
1754.999999999999
 30
0.0
 11
1252.999894999999
 21
1754.999999999999
 31
0.0
  0
LINE
  5
3E2
330
1F
100
AcDbEntity
  8
Ｓ_１_１
  6
CONTINUOUS
 62
     3
100
AcDbLine
 10
1172.999896999999
 20
1724.999999999999
 30
0.0
 11
1252.999894999999
 21
1724.999999999999
 31
0.0
  0
LINE
  5
3E3
330
1F
100
AcDbEntity
  8
Ｓ_１_１
  6
CONTINUOUS
 62
     3
100
AcDbLine
 10
1157.999896999999
 20
1557.000010999999
 30
0.0
 11
1247.999894999999
 21
1557.000010999999
 31
0.0
  0
LINE
  5
3E4
330
1F
100
AcDbEntity
  8
Ｓ_１_１
  6
CONTINUOUS
 62
     3
100
AcDbLine
 10
2052.000012999999
 20
1577.000009999999
 30
0.0
 11
2052.000012999999
 21
1902.99999
 31
0.0
  0
LINE
  5
3E5
330
1F
100
AcDbEntity
  8
Ｓ_１_１
  6
CONTINUOUS
 62
     3
100
AcDbLine
 10
2054.000015999998
 20
1574.999982999999
 30
0.0
 11
2052.000002999999
 21
1576.999996
 31
0.0
  0
LINE
  5
3E6
330
1F
100
AcDbEntity
  8
Ｓ_１_１
  6
CONTINUOUS
 62
     3
100
AcDbLine
 10
2050.000009999999
 20
1574.999993999999
 30
0.0
 11
2052.000022999999
 21
1577.000006999999
 31
0.0
  0
LINE
  5
3E7
330
1F
100
AcDbEntity
  8
Ｓ_１_１
  6
CONTINUOUS
 62
     3
100
AcDbLine
 10
1247.999894999999
 20
1575.000002999999
 30
0.0
 11
1422.999739999999
 21
1575.000002999999
 31
0.0
  0
LINE
  5
3E8
330
1F
100
AcDbEntity
  8
Ｓ_１_１
  6
CONTINUOUS
 62
     3
100
AcDbLine
 10
1154.999560999999
 20
1575.000002999999
 30
0.0
 11
1157.999896999999
 21
1575.000002999999
 31
0.0
  0
LINE
  5
3E9
330
1F
100
AcDbEntity
  8
Ｓ_１_１
  6
CONTINUOUS
 62
     3
100
AcDbLine
 10
1247.999894999999
 20
1904.999998
 30
0.0
 11
1422.999739999999
 21
1904.999998
 31
0.0
  0
LINE
  5
3EA
330
1F
100
AcDbEntity
  8
Ｓ_１_１
  6
CONTINUOUS
 62
     3
100
AcDbLine
 10
899.9999459999992
 20
1794.999998999999
 30
0.0
 11
899.9999459999992
 21
1685.000000999999
 31
0.0
  0
LINE
  5
3EB
330
1F
100
AcDbEntity
  8
Ｓ_１_１
  6
CONTINUOUS
 62
     3
100
AcDbLine
 10
864.9999649999993
 20
1685.000147
 30
0.0
 11
864.9999329999994
 21
1795.000011999999
 31
0.0
  0
LINE
  5
3EC
330
1F
100
AcDbEntity
  8
Ｓ_１_１
  6
CONTINUOUS
 62
     3
100
AcDbLine
 10
1954.999884999999
 20
2009.999995
 30
0.0
 11
1956.999883999999
 21
2007.999996
 31
0.0
  0
LINE
  5
3ED
330
1F
100
AcDbEntity
  8
Ｓ_１_１
  6
CONTINUOUS
 62
     3
100
AcDbLine
 10
1706.999923
 20
2009.999996
 30
0.0
 11
1954.999853999999
 21
2009.999996
 31
0.0
  0
LINE
  5
3EE
330
1F
100
AcDbEntity
  8
Ｓ_１_１
  6
CONTINUOUS
 62
     3
100
AcDbLine
 10
1287.999913999998
 20
1979.999997
 30
0.0
 11
1289.999959999999
 21
1979.999997
 31
0.0
  0
LINE
  5
3EF
330
1F
100
AcDbEntity
  8
Ｓ_１_１
  6
CONTINUOUS
 62
     3
100
AcDbLine
 10
1070.999848999999
 20
1610.000009999999
 30
0.0
 11
1066.499812999999
 21
1607.999993999999
 31
0.0
  0
LINE
  5
3F0
330
1F
100
AcDbEntity
  8
Ｓ_１_１
  6
CONTINUOUS
 62
     3
100
AcDbLine
 10
1094.999805999999
 20
1610.000012999999
 30
0.0
 11
1099.499842999999
 21
1607.999996999999
 31
0.0
  0
LINE
  5
3F1
330
1F
100
AcDbEntity
  8
Ｓ_１_１
  6
CONTINUOUS
 62
     3
100
AcDbLine
 10
1090.499821
 20
1601.999999999999
 30
0.0
 11
1090.499821
 21
1608.000003999999
 31
0.0
  0
LINE
  5
3F2
330
1F
100
AcDbEntity
  8
Ｓ_１_１
  6
CONTINUOUS
 62
     3
100
AcDbLine
 10
1075.499821999999
 20
1601.999999999999
 30
0.0
 11
1075.499821999999
 21
1608.000003999999
 31
0.0
  0
LINE
  5
3F3
330
1F
100
AcDbEntity
  8
Ｓ_１_１
  6
CONTINUOUS
 62
     3
100
AcDbLine
 10
1094.999796999999
 20
1599.999963999999
 30
0.0
 11
1099.499833999999
 21
1601.999979999999
 31
0.0
  0
LINE
  5
3F4
330
1F
100
AcDbEntity
  8
Ｓ_１_１
  6
CONTINUOUS
 62
     3
100
AcDbLine
 10
1070.999796999999
 20
1600.000014999999
 30
0.0
 11
1066.499829999999
 21
1602.000000999999
 31
0.0
  0
LINE
  5
3F5
330
1F
100
AcDbEntity
  8
Ｓ_１_１
  6
CONTINUOUS
 62
     3
100
AcDbLine
 10
1066.499806999999
 20
1601.999999999999
 30
0.0
 11
1066.499806999999
 21
1608.000003999999
 31
0.0
  0
LINE
  5
3F6
330
1F
100
AcDbEntity
  8
Ｓ_１_１
  6
CONTINUOUS
 62
     3
100
AcDbLine
 10
1099.499837
 20
1601.999999999999
 30
0.0
 11
1099.499837
 21
1608.000003999999
 31
0.0
  0
LINE
  5
3F7
330
1F
100
AcDbEntity
  8
Ｓ_１_１
  6
CONTINUOUS
 62
     3
100
AcDbLine
 10
1082.999849999999
 20
1584.999993999999
 30
0.0
 11
1096.613489
 21
1586.999991999999
 31
0.0
  0
LINE
  5
3F8
330
1F
100
AcDbEntity
  8
Ｓ_１_１
  6
CONTINUOUS
 62
     3
100
AcDbLine
 10
1069.386163999999
 20
1587.000012999999
 30
0.0
 11
1082.999877999999
 21
1585.000003999999
 31
0.0
  0
LINE
  5
3F9
330
1F
100
AcDbEntity
  8
Ｓ_１_１
  6
CONTINUOUS
 62
     3
100
AcDbLine
 10
1099.602073999999
 20
1589.738534999999
 30
0.0
 11
1100.499835999999
 21
1600.000002999999
 31
0.0
  0
LINE
  5
3FA
330
1F
100
AcDbEntity
  8
Ｓ_１_１
  6
CONTINUOUS
 62
     3
100
AcDbLine
 10
1065.499790999999
 20
1600.000000999999
 30
0.0
 11
1066.397552999999
 21
1589.738532999999
 31
0.0
  0
LINE
  5
3FB
330
1F
100
AcDbEntity
  8
Ｓ_１_１
  6
CONTINUOUS
 62
     3
100
AcDbLine
 10
1069.386158999999
 20
1587.000000999999
 30
0.0
 11
1096.613484
 21
1587.000000999999
 31
0.0
  0
LINE
  5
3FC
330
1F
100
AcDbEntity
  8
Ｓ_１_１
  6
CONTINUOUS
 62
     3
100
AcDbLine
 10
1065.361729999999
 20
1600.000001999999
 30
0.0
 11
1100.499821
 21
1600.000001999999
 31
0.0
  0
LINE
  5
3FD
330
1F
100
AcDbEntity
  8
Ｓ_１_１
  6
CONTINUOUS
 62
     3
100
AcDbLine
 10
2125.000004
 20
1601.999999999999
 30
0.0
 11
2125.000004
 21
1608.000003999999
 31
0.0
  0
LINE
  5
3FE
330
1F
100
AcDbEntity
  8
Ｓ_１_１
  6
CONTINUOUS
 62
     3
100
AcDbLine
 10
2110.000004999999
 20
1601.999999999999
 30
0.0
 11
2110.000004999999
 21
1608.000003999999
 31
0.0
  0
LINE
  5
3FF
330
1F
100
AcDbEntity
  8
Ｓ_１_１
  6
CONTINUOUS
 62
     3
100
AcDbLine
 10
2129.500030999999
 20
1610.000001999999
 30
0.0
 11
2134.000031999998
 21
1608.000000999999
 31
0.0
  0
LINE
  5
400
330
1F
100
AcDbEntity
  8
Ｓ_１_１
  6
CONTINUOUS
 62
     3
100
AcDbLine
 10
2105.499999999998
 20
1609.999998999999
 30
0.0
 11
2100.999997999999
 21
1607.999997999999
 31
0.0
  0
LINE
  5
401
330
1F
100
AcDbEntity
  8
Ｓ_１_１
  6
CONTINUOUS
 62
     3
100
AcDbLine
 10
2129.500009999999
 20
1600.000000999999
 30
0.0
 11
2134.000011999999
 21
1602.000001999999
 31
0.0
  0
LINE
  5
402
330
1F
100
AcDbEntity
  8
Ｓ_１_１
  6
CONTINUOUS
 62
     3
100
AcDbLine
 10
2105.500020999999
 20
1600.000003999999
 30
0.0
 11
2101.000018999999
 21
1602.000004999999
 31
0.0
  0
LINE
  5
403
330
1F
100
AcDbEntity
  8
Ｓ_１_１
  6
CONTINUOUS
 62
     3
100
AcDbLine
 10
2100.999988999998
 20
1601.999999999999
 30
0.0
 11
2100.999988999998
 21
1608.000003999999
 31
0.0
  0
LINE
  5
404
330
1F
100
AcDbEntity
  8
Ｓ_１_１
  6
CONTINUOUS
 62
     3
100
AcDbLine
 10
2133.999980999999
 20
1601.999999999999
 30
0.0
 11
2133.999980999999
 21
1608.000003999999
 31
0.0
  0
LINE
  5
405
330
1F
100
AcDbEntity
  8
Ｓ_１_１
  6
CONTINUOUS
 62
     3
100
AcDbLine
 10
2117.499990999999
 20
1585.000001999999
 30
0.0
 11
2131.113666999999
 21
1587.000004999999
 31
0.0
  0
LINE
  5
406
330
1F
100
AcDbEntity
  8
Ｓ_１_１
  6
CONTINUOUS
 62
     3
100
AcDbLine
 10
2103.886341999999
 20
1586.999994999999
 30
0.0
 11
2117.500017999999
 21
1584.999991
 31
0.0
  0
LINE
  5
407
330
1F
100
AcDbEntity
  8
Ｓ_１_１
  6
CONTINUOUS
 62
     3
100
AcDbLine
 10
2134.102250999998
 20
1589.738539999999
 30
0.0
 11
2135.000012999999
 21
1600.000008
 31
0.0
  0
LINE
  5
408
330
1F
100
AcDbEntity
  8
Ｓ_１_１
  6
CONTINUOUS
 62
     3
100
AcDbLine
 10
2100.000005999998
 20
1600.000003999999
 30
0.0
 11
2100.897767999999
 21
1589.738535999999
 31
0.0
  0
LINE
  5
409
330
1F
100
AcDbEntity
  8
Ｓ_１_１
  6
CONTINUOUS
 62
     3
100
AcDbLine
 10
2103.886341999999
 20
1587.000000999999
 30
0.0
 11
2131.113666999999
 21
1587.000000999999
 31
0.0
  0
LINE
  5
40A
330
1F
100
AcDbEntity
  8
Ｓ_１_１
  6
CONTINUOUS
 62
     3
100
AcDbLine
 10
2099.861874999999
 20
1600.000001999999
 30
0.0
 11
2135.000004
 21
1600.000001999999
 31
0.0
  0
LINE
  5
40B
330
1F
100
AcDbEntity
  8
Ｓ_１_１
  6
CONTINUOUS
 62
     3
100
AcDbLine
 10
1090.499821
 20
1877.999990999999
 30
0.0
 11
1090.499821
 21
1872.000005999999
 31
0.0
  0
LINE
  5
40C
330
1F
100
AcDbEntity
  8
Ｓ_１_１
  6
CONTINUOUS
 62
     3
100
AcDbLine
 10
1075.499821999999
 20
1877.999990999999
 30
0.0
 11
1075.499821999999
 21
1872.000005999999
 31
0.0
  0
LINE
  5
40D
330
1F
100
AcDbEntity
  8
Ｓ_１_１
  6
CONTINUOUS
 62
     3
100
AcDbLine
 10
1094.999806999999
 20
1869.999978999999
 30
0.0
 11
1099.499808999999
 21
1871.999979999999
 31
0.0
  0
LINE
  5
40E
330
1F
100
AcDbEntity
  8
Ｓ_１_１
  6
CONTINUOUS
 62
     3
100
AcDbLine
 10
1070.999820999999
 20
1870.000014999999
 30
0.0
 11
1066.499854999998
 21
1871.999999999999
 31
0.0
  0
LINE
  5
40F
330
1F
100
AcDbEntity
  8
Ｓ_１_１
  6
CONTINUOUS
 62
     3
100
AcDbLine
 10
1094.999826999999
 20
1880.000003999999
 30
0.0
 11
1099.499794
 21
1878.000018999999
 31
0.0
  0
LINE
  5
410
330
1F
100
AcDbEntity
  8
Ｓ_１_１
  6
CONTINUOUS
 62
     3
100
AcDbLine
 10
1070.999839999999
 20
1879.999974999999
 30
0.0
 11
1066.499802999999
 21
1877.999959
 31
0.0
  0
LINE
  5
411
330
1F
100
AcDbEntity
  8
Ｓ_１_１
  6
CONTINUOUS
 62
     3
100
AcDbLine
 10
1066.499806999999
 20
1877.999990999999
 30
0.0
 11
1066.499806999999
 21
1872.000005999999
 31
0.0
  0
LINE
  5
412
330
1F
100
AcDbEntity
  8
Ｓ_１_１
  6
CONTINUOUS
 62
     3
100
AcDbLine
 10
1099.499837
 20
1877.999990999999
 30
0.0
 11
1099.499837
 21
1872.000005999999
 31
0.0
  0
LINE
  5
413
330
1F
100
AcDbEntity
  8
Ｓ_１_１
  6
CONTINUOUS
 62
     3
100
AcDbLine
 10
1082.999837999999
 20
1894.999994999999
 30
0.0
 11
1096.613475999999
 21
1892.999996999999
 31
0.0
  0
LINE
  5
414
330
1F
100
AcDbEntity
  8
Ｓ_１_１
  6
CONTINUOUS
 62
     3
100
AcDbLine
 10
1069.386175999999
 20
1892.999983
 30
0.0
 11
1082.999814999999
 21
1894.999980999999
 31
0.0
  0
LINE
  5
415
330
1F
100
AcDbEntity
  8
Ｓ_１_１
  6
CONTINUOUS
 62
     3
100
AcDbLine
 10
1099.602082999999
 20
1890.261485999999
 30
0.0
 11
1100.499845999999
 21
1880.000008999999
 31
0.0
  0
LINE
  5
416
330
1F
100
AcDbEntity
  8
Ｓ_１_１
  6
CONTINUOUS
 62
     3
100
AcDbLine
 10
1065.499855999999
 20
1879.999989999999
 30
0.0
 11
1066.397619
 21
1890.261466999999
 31
0.0
  0
LINE
  5
417
330
1F
100
AcDbEntity
  8
Ｓ_１_１
  6
CONTINUOUS
 62
     3
100
AcDbLine
 10
1069.386158999999
 20
1892.999989999999
 30
0.0
 11
1096.613484
 21
1892.999989999999
 31
0.0
  0
LINE
  5
418
330
1F
100
AcDbEntity
  8
Ｓ_１_１
  6
CONTINUOUS
 62
     3
100
AcDbLine
 10
1065.361729999999
 20
1879.999997999999
 30
0.0
 11
1100.499821
 21
1879.999997999999
 31
0.0
  0
LINE
  5
419
330
1F
100
AcDbEntity
  8
Ｓ_１_１
  6
CONTINUOUS
 62
     3
100
AcDbLine
 10
2125.000004
 20
1877.999990999999
 30
0.0
 11
2125.000004
 21
1872.000005999999
 31
0.0
  0
LINE
  5
41A
330
1F
100
AcDbEntity
  8
Ｓ_１_１
  6
CONTINUOUS
 62
     3
100
AcDbLine
 10
2110.000004999999
 20
1877.999990999999
 30
0.0
 11
2110.000004999999
 21
1872.000005999999
 31
0.0
  0
LINE
  5
41B
330
1F
100
AcDbEntity
  8
Ｓ_１_１
  6
CONTINUOUS
 62
     3
100
AcDbLine
 10
2129.500023999999
 20
1870.000006999999
 30
0.0
 11
2133.999990999999
 21
1871.999992999999
 31
0.0
  0
LINE
  5
41C
330
1F
100
AcDbEntity
  8
Ｓ_１_１
  6
CONTINUOUS
 62
     3
100
AcDbLine
 10
2105.500020999999
 20
1869.999994
 30
0.0
 11
2101.000018999999
 21
1871.999994999999
 31
0.0
  0
LINE
  5
41D
330
1F
100
AcDbEntity
  8
Ｓ_１_１
  6
CONTINUOUS
 62
     3
100
AcDbLine
 10
2129.500004999999
 20
1879.999982999999
 30
0.0
 11
2134.000006999999
 21
1877.999981999999
 31
0.0
  0
LINE
  5
41E
330
1F
100
AcDbEntity
  8
Ｓ_１_１
  6
CONTINUOUS
 62
     3
100
AcDbLine
 10
2105.500013999999
 20
1880.000004999999
 30
0.0
 11
2101.000011999999
 21
1878.000004999999
 31
0.0
  0
LINE
  5
41F
330
1F
100
AcDbEntity
  8
Ｓ_１_１
  6
CONTINUOUS
 62
     3
100
AcDbLine
 10
2100.999988999998
 20
1877.999990999999
 30
0.0
 11
2100.999988999998
 21
1872.000005999999
 31
0.0
  0
LINE
  5
420
330
1F
100
AcDbEntity
  8
Ｓ_１_１
  6
CONTINUOUS
 62
     3
100
AcDbLine
 10
2133.999980999999
 20
1877.999990999999
 30
0.0
 11
2133.999980999999
 21
1872.000005999999
 31
0.0
  0
LINE
  5
421
330
1F
100
AcDbEntity
  8
Ｓ_１_１
  6
CONTINUOUS
 62
     3
100
AcDbLine
 10
2117.500015999998
 20
1894.999983999999
 30
0.0
 11
2131.113654999999
 21
1892.999986
 31
0.0
  0
LINE
  5
422
330
1F
100
AcDbEntity
  8
Ｓ_１_１
  6
CONTINUOUS
 62
     3
100
AcDbLine
 10
2103.886354999999
 20
1892.999994
 30
0.0
 11
2117.499992999999
 21
1894.999991999999
 31
0.0
  0
LINE
  5
423
330
1F
100
AcDbEntity
  8
Ｓ_１_１
  6
CONTINUOUS
 62
     3
100
AcDbLine
 10
2134.102258999999
 20
1890.261495999999
 30
0.0
 11
2135.000021999998
 21
1880.000017999999
 31
0.0
  0
LINE
  5
424
330
1F
100
AcDbEntity
  8
Ｓ_１_１
  6
CONTINUOUS
 62
     3
100
AcDbLine
 10
2100.000034999999
 20
1880.000017999999
 30
0.0
 11
2100.897797999998
 21
1890.261495999999
 31
0.0
  0
LINE
  5
425
330
1F
100
AcDbEntity
  8
Ｓ_１_１
  6
CONTINUOUS
 62
     3
100
AcDbLine
 10
2103.886341999999
 20
1892.999989999999
 30
0.0
 11
2131.113666999999
 21
1892.999989999999
 31
0.0
  0
LINE
  5
426
330
1F
100
AcDbEntity
  8
Ｓ_１_１
  6
CONTINUOUS
 62
     3
100
AcDbLine
 10
2099.861874999999
 20
1879.999997999999
 30
0.0
 11
2135.000004
 21
1879.999997999999
 31
0.0
  0
LINE
  5
427
330
1F
100
AcDbEntity
  8
Ｓ_１_１
  6
CONTINUOUS
 62
     3
100
AcDbLine
 10
1060.000019999999
 20
1610.000001999999
 30
0.0
 11
1122.999896999999
 21
1610.000001999999
 31
0.0
  0
LINE
  5
428
330
1F
100
AcDbEntity
  8
Ｓ_１_１
  6
CONTINUOUS
 62
     3
100
AcDbLine
 10
1060.000019999999
 20
1869.999997999999
 30
0.0
 11
1122.999896999999
 21
1869.999997999999
 31
0.0
  0
LINE
  5
429
330
1F
100
AcDbEntity
  8
Ｓ_１_１
  6
CONTINUOUS
 62
     3
100
AcDbLine
 10
1954.999883999999
 20
1470.000010999999
 30
0.0
 11
1956.999882999999
 21
1472.000009999999
 31
0.0
  0
LINE
  5
42A
330
1F
100
AcDbEntity
  8
Ｓ_１_１
  6
CONTINUOUS
 62
     3
100
AcDbLine
 10
1706.999923
 20
1470.000004999999
 30
0.0
 11
1954.999853999999
 21
1470.000004999999
 31
0.0
  0
LINE
  5
42B
330
1F
100
AcDbEntity
  8
Ｓ_１_１
  6
CONTINUOUS
 62
     3
100
AcDbLine
 10
1706.999923
 20
1570.000002999999
 30
0.0
 11
1954.999853999999
 21
1570.000002999999
 31
0.0
  0
LINE
  5
42C
330
1F
100
AcDbEntity
  8
Ｓ_１_１
  6
CONTINUOUS
 62
     3
100
AcDbLine
 10
1954.999872999999
 20
1569.999994999999
 30
0.0
 11
1956.999871999999
 21
1567.999994999999
 31
0.0
  0
LINE
  5
42D
330
1F
100
AcDbEntity
  8
Ｓ_１_１
  6
CONTINUOUS
 62
     3
100
AcDbLine
 10
1295.999971999999
 20
1567.999986999999
 30
0.0
 11
1298.000038999999
 21
1570.000054
 31
0.0
  0
LINE
  5
42E
330
1F
100
AcDbEntity
  8
Ｓ_１_１
  6
CONTINUOUS
 62
     3
100
AcDbLine
 10
2016.999894999999
 20
1469.999999999999
 30
0.0
 11
2046.999885999999
 21
1499.999992999999
 31
0.0
  0
LINE
  5
42F
330
1F
100
AcDbEntity
  8
Ｓ_１_１
  6
CONTINUOUS
 62
     3
100
AcDbLine
 10
1956.999861999999
 20
1470.000004999999
 30
0.0
 11
2016.999860999998
 21
1470.000004999999
 31
0.0
  0
LINE
  5
430
330
1F
100
AcDbEntity
  8
Ｓ_１_１
  6
CONTINUOUS
 62
     3
100
AcDbLine
 10
1954.999853999999
 20
1470.000004999999
 30
0.0
 11
1954.999853999999
 21
1570.000002999999
 31
0.0
  0
LINE
  5
431
330
1F
100
AcDbEntity
  8
Ｓ_１_１
  6
CONTINUOUS
 62
     3
100
AcDbLine
 10
1157.999906999999
 20
1514.999985999999
 30
0.0
 11
1187.999886999998
 21
1485.000007999999
 31
0.0
  0
LINE
  5
432
330
1F
100
AcDbEntity
  8
Ｓ_１_１
  6
CONTINUOUS
 62
     3
100
AcDbLine
 10
1157.999896999999
 20
1964.999997
 30
0.0
 11
1157.999896999999
 21
1515.000003999999
 31
0.0
  0
LINE
  5
433
330
1F
100
AcDbEntity
  8
Ｓ_１_１
  6
CONTINUOUS
 62
     3
100
AcDbLine
 10
2046.999860999998
 20
1979.999997
 30
0.0
 11
2046.999860999998
 21
1500.000009999999
 31
0.0
  0
LINE
  5
434
330
1F
100
AcDbEntity
  8
Ｓ_１_１
  6
CONTINUOUS
 62
     3
100
AcDbLine
 10
1706.999923
 20
1450.000006999999
 30
0.0
 11
1706.999923
 21
2029.999996
 31
0.0
  0
LINE
  5
435
330
1F
100
AcDbEntity
  8
Ｓ_１_１
  6
CONTINUOUS
 62
     3
100
AcDbLine
 10
1656.999927999999
 20
1450.000006999999
 30
0.0
 11
1656.999927999999
 21
1739.999999999999
 31
0.0
  0
LINE
  5
436
330
1F
100
AcDbEntity
  8
Ｓ_１_１
  6
CONTINUOUS
 62
     3
100
AcDbLine
 10
1656.999927999999
 20
1450.000006999999
 30
0.0
 11
1706.999923
 21
1450.000006999999
 31
0.0
  0
LINE
  5
437
330
1F
100
AcDbEntity
  8
Ｓ_１_１
  6
CONTINUOUS
 62
     3
100
AcDbLine
 10
1297.999932999999
 20
1570.000002999999
 30
0.0
 11
1656.999927999999
 21
1570.000002999999
 31
0.0
  0
LINE
  5
438
330
1F
100
AcDbEntity
  8
Ｓ_１_１
  6
CONTINUOUS
 62
     3
100
AcDbLine
 10
1247.999894999999
 20
1994.999996
 30
0.0
 11
1247.999894999999
 21
1754.999999999999
 31
0.0
  0
LINE
  5
439
330
1F
100
AcDbEntity
  8
Ｓ_１_１
  6
CONTINUOUS
 62
     3
100
AcDbLine
 10
1297.999932999999
 20
1570.000002999999
 30
0.0
 11
1297.999932999999
 21
1470.000004999999
 31
0.0
  0
LINE
  5
43A
330
1F
100
AcDbEntity
  8
Ｓ_１_１
  6
CONTINUOUS
 62
     3
100
AcDbLine
 10
1296.000073999999
 20
1472.000224999999
 30
0.0
 11
1298.000058999998
 21
1470.000238999999
 31
0.0
  0
LINE
  5
43B
330
1F
100
AcDbEntity
  8
Ｓ_１_１
  6
CONTINUOUS
 62
     3
100
AcDbLine
 10
1298.000275999999
 20
1470.000004999999
 30
0.0
 11
1656.999927999999
 21
1470.000004999999
 31
0.0
  0
LINE
  5
43C
330
1F
100
AcDbEntity
  8
Ｓ_１_１
  6
CONTINUOUS
 62
     3
100
AcDbLine
 10
1295.999848999999
 20
1567.999994999999
 30
0.0
 11
1295.999848999999
 21
1472.000446999999
 31
0.0
  0
LINE
  5
43D
330
1F
100
AcDbEntity
  8
Ｓ_１_１
  6
CONTINUOUS
 62
     3
100
AcDbLine
 10
1292.999837999999
 20
1520.000003999999
 30
0.0
 11
1292.999837999999
 21
1497.500003999999
 31
0.0
  0
LINE
  5
43E
330
1F
100
AcDbEntity
  8
Ｓ_１_１
  6
CONTINUOUS
 62
     3
100
AcDbLine
 10
1287.999837999999
 20
1502.200016999999
 30
0.0
 11
1289.999959999999
 21
1502.200016999999
 31
0.0
  0
LINE
  5
43F
330
1F
100
AcDbEntity
  8
Ｓ_１_１
  6
CONTINUOUS
 62
     3
100
AcDbLine
 10
1287.999913999998
 20
1540.000002999999
 30
0.0
 11
1289.999959999999
 21
1540.000002999999
 31
0.0
  0
LINE
  5
440
330
1F
100
AcDbEntity
  8
Ｓ_１_１
  6
CONTINUOUS
 62
     3
100
AcDbLine
 10
1292.999914999999
 20
1542.499961999999
 30
0.0
 11
1289.999958999999
 21
1540.767938999999
 31
0.0
  0
LINE
  5
441
330
1F
100
AcDbEntity
  8
Ｓ_１_１
  6
CONTINUOUS
 62
     3
100
AcDbLine
 10
1292.999875
 20
1497.500067999999
 30
0.0
 11
1289.999926999999
 21
1499.232104999999
 31
0.0
  0
LINE
  5
442
330
1F
100
AcDbEntity
  8
Ｓ_１_１
  6
CONTINUOUS
 62
     3
100
AcDbLine
 10
1292.999837999999
 20
1542.500002999999
 30
0.0
 11
1292.999837999999
 21
1520.000003999999
 31
0.0
  0
LINE
  5
443
330
1F
100
AcDbEntity
  8
Ｓ_１_１
  6
CONTINUOUS
 62
     3
100
AcDbLine
 10
1289.999959999999
 20
1540.767977999999
 30
0.0
 11
1289.999959999999
 21
1499.232067999999
 31
0.0
  0
LINE
  5
444
330
1F
100
AcDbEntity
  8
Ｓ_１_１
  6
CONTINUOUS
 62
     3
100
AcDbLine
 10
1292.999913999998
 20
1497.500003999999
 30
0.0
 11
1295.999848999999
 21
1497.500003999999
 31
0.0
  0
LINE
  5
445
330
1F
100
AcDbEntity
  8
Ｓ_１_１
  6
CONTINUOUS
 62
     3
100
AcDbLine
 10
1292.999913999998
 20
1542.500002999999
 30
0.0
 11
1295.999848999999
 21
1542.500002999999
 31
0.0
  0
LINE
  5
446
330
1F
100
AcDbEntity
  8
Ｓ_１_１
  6
CONTINUOUS
 62
     3
100
AcDbLine
 10
1288.000188999998
 20
1550.000172999999
 30
0.0
 11
1283.000146999999
 21
1555.000194999999
 31
0.0
  0
LINE
  5
447
330
1F
100
AcDbEntity
  8
Ｓ_１_１
  6
CONTINUOUS
 62
     3
100
AcDbLine
 10
1283.000016999998
 20
1485.000011999999
 30
0.0
 11
1288.000021999998
 21
1490.000016999999
 31
0.0
  0
LINE
  5
448
330
1F
100
AcDbEntity
  8
Ｓ_１_１
  6
CONTINUOUS
 62
     3
100
AcDbLine
 10
1287.999837999999
 20
1550.000002999999
 30
0.0
 11
1287.999837999999
 21
1490.000004999999
 31
0.0
  0
LINE
  5
449
330
1F
100
AcDbEntity
  8
Ｓ_１_１
  6
CONTINUOUS
 62
     3
100
AcDbLine
 10
1247.999894999999
 20
1555.000002999999
 30
0.0
 11
1282.999837999999
 21
1555.000002999999
 31
0.0
  0
LINE
  5
44A
330
1F
100
AcDbEntity
  8
Ｓ_１_１
  6
CONTINUOUS
 62
     3
100
AcDbLine
 10
1247.999894999999
 20
1551.622775
 30
0.0
 11
1252.999894999999
 21
1551.622775
 31
0.0
  0
LINE
  5
44B
330
1F
100
AcDbEntity
  8
Ｓ_１_１
  6
CONTINUOUS
 62
     3
100
AcDbLine
 10
1187.999895999999
 20
1485.000004999999
 30
0.0
 11
1282.999989999998
 21
1485.000004999999
 31
0.0
  0
LINE
  5
44C
330
1F
100
AcDbEntity
  8
Ｓ_１_１
  6
CONTINUOUS
 62
     3
100
AcDbLine
 10
1247.999894999999
 20
1488.377232999999
 30
0.0
 11
1252.999894999999
 21
1488.377232999999
 31
0.0
  0
LINE
  5
44D
330
1F
100
AcDbEntity
  8
Ｓ_１_１
  6
CONTINUOUS
 62
     3
100
AcDbLine
 10
1252.999894999999
 20
1551.622775
 30
0.0
 11
1252.999894999999
 21
1488.377232999999
 31
0.0
  0
LINE
  5
44E
330
1F
100
AcDbEntity
  8
Ｓ_１_１
  6
CONTINUOUS
 62
     3
100
AcDbLine
 10
2054.000028999999
 20
1905.000023
 30
0.0
 11
2052.000015999998
 21
1903.00001
 31
0.0
  0
LINE
  5
44F
330
1F
100
AcDbEntity
  8
Ｓ_１_１
  6
CONTINUOUS
 62
     3
100
AcDbLine
 10
2050.000020999999
 20
1905.000002
 30
0.0
 11
2052.000019999999
 21
1903.000002
 31
0.0
  0
LINE
  5
450
330
1F
100
AcDbEntity
  8
Ｓ_１_１
  6
CONTINUOUS
 62
     3
100
AcDbLine
 10
2053.999982999999
 20
1904.999998
 30
0.0
 11
2077.999501999999
 21
1904.999998
 31
0.0
  0
LINE
  5
451
330
1F
100
AcDbEntity
  8
Ｓ_１_１
  6
CONTINUOUS
 62
     3
100
AcDbLine
 10
1956.999861999999
 20
2009.999996
 30
0.0
 11
2015.999875999998
 21
2009.999996
 31
0.0
  0
LINE
  5
452
330
1F
100
AcDbEntity
  8
Ｓ_１_１
  6
CONTINUOUS
 62
     3
100
AcDbLine
 10
1954.999871999999
 20
1909.999998
 30
0.0
 11
1956.999884999999
 21
1912.000010999999
 31
0.0
  0
LINE
  5
453
330
1F
100
AcDbEntity
  8
Ｓ_１_１
  6
CONTINUOUS
 62
     3
100
AcDbLine
 10
1954.999853999999
 20
2009.999996
 30
0.0
 11
1954.999853999999
 21
1909.999998
 31
0.0
  0
LINE
  5
454
330
1F
100
AcDbEntity
  8
Ｓ_１_１
  6
CONTINUOUS
 62
     3
100
AcDbLine
 10
1157.999868999999
 20
1965.000021999999
 30
0.0
 11
1187.999873999999
 21
1995.000024999999
 31
0.0
  0
LINE
  5
455
330
1F
100
AcDbEntity
  8
Ｓ_１_１
  6
CONTINUOUS
 62
     3
100
AcDbLine
 10
1656.999927999999
 20
2029.999996
 30
0.0
 11
1656.999927999999
 21
1739.999999999999
 31
0.0
  0
LINE
  5
456
330
1F
100
AcDbEntity
  8
Ｓ_１_１
  6
CONTINUOUS
 62
     3
100
AcDbLine
 10
1656.999927999999
 20
2029.999996
 30
0.0
 11
1706.999923
 21
2029.999996
 31
0.0
  0
LINE
  5
457
330
1F
100
AcDbEntity
  8
Ｓ_１_１
  6
CONTINUOUS
 62
     3
100
AcDbLine
 10
2305.000001999999
 20
1592.500001999999
 30
0.0
 11
2360.000000999999
 21
1592.500001999999
 31
0.0
  0
LINE
  5
458
330
1F
100
AcDbEntity
  8
Ｓ_１_１
  6
CONTINUOUS
 62
     3
100
AcDbLine
 10
2245.000002999999
 20
1723.999996999999
 30
0.0
 11
2245.000002999999
 21
1909.999998
 31
0.0
  0
LINE
  5
459
330
1F
100
AcDbEntity
  8
Ｓ_１_１
  6
CONTINUOUS
 62
     3
100
AcDbLine
 10
1424.999929999998
 20
1875.000017999999
 30
0.0
 11
1429.999935999998
 21
1870.000012999999
 31
0.0
  0
LINE
  5
45A
330
1F
100
AcDbEntity
  8
Ｓ_１_１
  6
CONTINUOUS
 62
     3
100
AcDbLine
 10
1424.999927999999
 20
1605.000038999999
 30
0.0
 11
1429.999904999999
 21
1610.000014999999
 31
0.0
  0
LINE
  5
45B
330
1F
100
AcDbEntity
  8
Ｓ_１_１
  6
CONTINUOUS
 62
     3
100
AcDbLine
 10
2155.000021999998
 20
1873.000008999999
 30
0.0
 11
2152.000029999999
 21
1870.000016999999
 31
0.0
  0
LINE
  5
45C
330
1F
100
AcDbEntity
  8
Ｓ_１_１
  6
CONTINUOUS
 62
     3
100
AcDbLine
 10
2080.000009999999
 20
1873.000005999999
 30
0.0
 11
2083.000008999999
 21
1870.000006999999
 31
0.0
  0
LINE
  5
45D
330
1F
100
AcDbEntity
  8
Ｓ_１_１
  6
CONTINUOUS
 62
     3
100
AcDbLine
 10
2152.000018999999
 20
1610.000002999999
 30
0.0
 11
2155.000010999998
 21
1607.000010999999
 31
0.0
  0
LINE
  5
45E
330
1F
100
AcDbEntity
  8
Ｓ_１_１
  6
CONTINUOUS
 62
     3
100
AcDbLine
 10
2080.000023999999
 20
1607.000026999999
 30
0.0
 11
2083.000016999998
 21
1610.000019999999
 31
0.0
  0
LINE
  5
45F
330
1F
100
AcDbEntity
  8
Ｓ_１_１
  6
CONTINUOUS
 62
     3
100
AcDbLine
 10
2082.999996999999
 20
1869.999997999999
 30
0.0
 11
2152.000011999999
 21
1869.999997999999
 31
0.0
  0
LINE
  5
460
330
1F
100
AcDbEntity
  8
Ｓ_１_１
  6
CONTINUOUS
 62
     3
100
AcDbLine
 10
2082.999996999999
 20
1610.000011999999
 30
0.0
 11
2152.000011999999
 21
1610.000011999999
 31
0.0
  0
LINE
  5
461
330
1F
100
AcDbEntity
  8
Ｓ_１_１
  6
CONTINUOUS
 62
     3
100
AcDbLine
 10
2184.999932999999
 20
1570.000061
 30
0.0
 11
2186.999918999999
 21
1572.000046999999
 31
0.0
  0
LINE
  5
462
330
1F
100
AcDbEntity
  8
Ｓ_１_１
  6
CONTINUOUS
 62
     3
100
AcDbLine
 10
2189.000012999999
 20
1569.999952999999
 30
0.0
 11
2186.999999999998
 21
1571.999965999999
 31
0.0
  0
LINE
  5
463
330
1F
100
AcDbEntity
  8
Ｓ_１_１
  6
CONTINUOUS
 62
     3
100
AcDbLine
 10
2187.000010999998
 20
1907.99999
 30
0.0
 11
2187.000010999998
 21
1572.000009999999
 31
0.0
  0
LINE
  5
464
330
1F
100
AcDbEntity
  8
Ｓ_１_１
  6
CONTINUOUS
 62
     3
100
AcDbLine
 10
2090.999959999999
 20
1599.000137999999
 30
0.0
 11
2092.000000999999
 21
1598.000111999999
 31
0.0
  0
LINE
  5
465
330
1F
100
AcDbEntity
  8
Ｓ_１_１
  6
CONTINUOUS
 62
     3
100
AcDbLine
 10
2091.000217999999
 20
1580.999573999999
 30
0.0
 11
2092.000219999998
 21
1581.999529999999
 31
0.0
  0
LINE
  5
466
330
1F
100
AcDbEntity
  8
Ｓ_１_１
  6
CONTINUOUS
 62
     3
100
AcDbLine
 10
2090.999912999999
 20
1580.999986999999
 30
0.0
 11
2090.999912999999
 21
1599.000017999999
 31
0.0
  0
LINE
  5
467
330
1F
100
AcDbEntity
  8
Ｓ_１_１
  6
CONTINUOUS
 62
     3
100
AcDbLine
 10
2091.999935999998
 20
1581.999971999999
 30
0.0
 11
2091.999935999998
 21
1598.000033
 31
0.0
  0
LINE
  5
468
330
1F
100
AcDbEntity
  8
Ｓ_１_１
  6
CONTINUOUS
 62
     3
100
AcDbLine
 10
2079.999966999999
 20
1599.000017999999
 30
0.0
 11
2090.999950999999
 21
1599.000017999999
 31
0.0
  0
LINE
  5
469
330
1F
100
AcDbEntity
  8
Ｓ_１_１
  6
CONTINUOUS
 62
     3
100
AcDbLine
 10
2079.999966999999
 20
1580.999986999999
 30
0.0
 11
2090.999950999999
 21
1580.999986999999
 31
0.0
  0
LINE
  5
46A
330
1F
100
AcDbEntity
  8
Ｓ_１_１
  6
CONTINUOUS
 62
     3
100
AcDbLine
 10
2077.999646999999
 20
1575.000175999999
 30
0.0
 11
2079.999640999999
 21
1577.000153999999
 31
0.0
  0
LINE
  5
46B
330
1F
100
AcDbEntity
  8
Ｓ_１_１
  6
CONTINUOUS
 62
     3
100
AcDbLine
 10
1812.000054999999
 20
1575.000002999999
 30
0.0
 11
1956.999861999999
 21
1575.000002999999
 31
0.0
  0
LINE
  5
46C
330
1F
100
AcDbEntity
  8
Ｓ_１_１
  6
CONTINUOUS
 62
     3
100
AcDbLine
 10
1154.999560999999
 20
1904.999998
 30
0.0
 11
1157.999896999999
 21
1904.999998
 31
0.0
  0
LINE
  5
46D
330
1F
100
AcDbEntity
  8
Ｓ_１_１
  6
CONTINUOUS
 62
     3
100
AcDbLine
 10
1157.999896999999
 20
1922.99999
 30
0.0
 11
1247.999894999999
 21
1922.99999
 31
0.0
  0
LINE
  5
46E
330
1F
100
AcDbEntity
  8
Ｓ_１_１
  6
CONTINUOUS
 62
     3
100
AcDbLine
 10
1810.000124999999
 20
1576.999931999999
 30
0.0
 11
1812.000048999998
 21
1575.000004999999
 31
0.0
  0
LINE
  5
46F
330
1F
100
AcDbEntity
  8
Ｓ_１_１
  6
CONTINUOUS
 62
     3
100
AcDbLine
 10
1810.000123999998
 20
1576.999924999999
 30
0.0
 11
1810.000123999998
 21
1690.000000999999
 31
0.0
  0
LINE
  5
470
330
1F
100
AcDbEntity
  8
Ｓ_１_１
  6
CONTINUOUS
 62
     3
100
AcDbLine
 10
1810.000138999999
 20
1903.000071
 30
0.0
 11
1812.000060999999
 21
1905.000012999999
 31
0.0
  0
LINE
  5
471
330
1F
100
AcDbEntity
  8
Ｓ_１_１
  6
CONTINUOUS
 62
     3
100
AcDbLine
 10
1707.000130999999
 20
1859.999892
 30
0.0
 11
1717.000141999999
 21
1869.999902999999
 31
0.0
  0
LINE
  5
472
330
1F
100
AcDbEntity
  8
Ｓ_１_１
  6
CONTINUOUS
 62
     3
100
AcDbLine
 10
1808.000107999998
 20
1905.000047
 30
0.0
 11
1810.000120999999
 21
1903.000034
 31
0.0
  0
LINE
  5
473
330
1F
100
AcDbEntity
  8
Ｓ_１_１
  6
CONTINUOUS
 62
     3
100
AcDbLine
 10
1780.00017
 20
1902.999846
 30
0.0
 11
1782.000128999998
 21
1904.999803999999
 31
0.0
  0
LINE
  5
474
330
1F
100
AcDbEntity
  8
Ｓ_１_１
  6
CONTINUOUS
 62
     3
100
AcDbLine
 10
1807.999962999999
 20
1904.999998
 30
0.0
 11
1782.000054999999
 21
1904.999998
 31
0.0
  0
LINE
  5
475
330
1F
100
AcDbEntity
  8
Ｓ_１_１
  6
CONTINUOUS
 62
     3
100
AcDbLine
 10
1717.000055999999
 20
1869.999997999999
 30
0.0
 11
1780.000009999999
 21
1869.999997999999
 31
0.0
  0
LINE
  5
476
330
1F
100
AcDbEntity
  8
Ｓ_１_１
  6
CONTINUOUS
 62
     3
100
AcDbLine
 10
1049.999985999999
 20
1620.000058999999
 30
0.0
 11
1059.999995999999
 21
1610.000048999999
 31
0.0
  0
LINE
  5
477
330
1F
100
AcDbEntity
  8
Ｓ_１_１
  6
CONTINUOUS
 62
     3
100
AcDbLine
 10
1150.999988999998
 20
1574.999930999999
 30
0.0
 11
1153.000001999999
 21
1576.999943999999
 31
0.0
  0
LINE
  5
478
330
1F
100
AcDbEntity
  8
Ｓ_１_１
  6
CONTINUOUS
 62
     3
100
AcDbLine
 10
1123.000052
 20
1577.000132999999
 30
0.0
 11
1125.000036999999
 21
1575.000147
 31
0.0
  0
LINE
  5
479
330
1F
100
AcDbEntity
  8
Ｓ_１_１
  6
CONTINUOUS
 62
     3
100
AcDbLine
 10
1150.999850999999
 20
1575.000002999999
 30
0.0
 11
1124.999942999999
 21
1575.000002999999
 31
0.0
  0
LINE
  5
47A
330
1F
100
AcDbEntity
  8
Ｓ_１_１
  6
CONTINUOUS
 62
     3
100
AcDbLine
 10
1122.999821
 20
1577.000029
 30
0.0
 11
1122.999821
 21
1902.999951999999
 31
0.0
  0
LINE
  5
47B
330
1F
100
AcDbEntity
  8
Ｓ_１_１
  6
CONTINUOUS
 62
     3
100
AcDbLine
 10
2305.000001999999
 20
1713.999996999999
 30
0.0
 11
2305.000001999999
 21
1570.000002999999
 31
0.0
  0
LINE
  5
47C
330
1F
100
AcDbEntity
  8
Ｓ_１_１
  6
CONTINUOUS
 62
     3
100
AcDbLine
 10
2155.000004
 20
1572.000009999999
 30
0.0
 11
2155.000004
 21
1907.99999
 31
0.0
  0
LINE
  5
47D
330
1F
100
AcDbEntity
  8
Ｓ_１_１
  6
CONTINUOUS
 62
     3
100
AcDbLine
 10
2138.999959999999
 20
1579.499805999999
 30
0.0
 11
2140.499972999998
 21
1577.999772999999
 31
0.0
  0
LINE
  5
47E
330
1F
100
AcDbEntity
  8
Ｓ_１_１
  6
CONTINUOUS
 62
     3
100
AcDbLine
 10
2139.000061999999
 20
1600.499960999999
 30
0.0
 11
2140.500075999998
 21
1601.999993999999
 31
0.0
  0
LINE
  5
47F
330
1F
100
AcDbEntity
  8
Ｓ_１_１
  6
CONTINUOUS
 62
     3
100
AcDbLine
 10
2140.500034999999
 20
1577.999994999999
 30
0.0
 11
2140.500034999999
 21
1601.999999999999
 31
0.0
  0
LINE
  5
480
330
1F
100
AcDbEntity
  8
Ｓ_１_１
  6
CONTINUOUS
 62
     3
100
AcDbLine
 10
2140.500034999999
 20
1577.999994999999
 30
0.0
 11
2155.000041999999
 21
1577.999994999999
 31
0.0
  0
LINE
  5
481
330
1F
100
AcDbEntity
  8
Ｓ_１_１
  6
CONTINUOUS
 62
     3
100
AcDbLine
 10
2140.500034999999
 20
1601.999999999999
 30
0.0
 11
2155.000041999999
 21
1601.999999999999
 31
0.0
  0
LINE
  5
482
330
1F
100
AcDbEntity
  8
Ｓ_１_１
  6
CONTINUOUS
 62
     3
100
AcDbLine
 10
2139.000018999999
 20
1579.499990999999
 30
0.0
 11
2139.000018999999
 21
1600.500003999999
 31
0.0
  0
LINE
  5
483
330
1F
100
AcDbEntity
  8
Ｓ_１_１
  6
CONTINUOUS
 62
     3
100
AcDbLine
 10
2154.999982999999
 20
1571.999992999999
 30
0.0
 11
2156.999995999999
 21
1569.999979999999
 31
0.0
  0
LINE
  5
484
330
1F
100
AcDbEntity
  8
Ｓ_１_１
  6
CONTINUOUS
 62
     3
100
AcDbLine
 10
2157.000011999999
 20
1570.000002999999
 30
0.0
 11
2184.999850999999
 21
1570.000002999999
 31
0.0
  0
LINE
  5
485
330
1F
100
AcDbEntity
  8
Ｓ_１_１
  6
CONTINUOUS
 62
     3
100
AcDbLine
 10
2359.999926999999
 20
1516.999988999999
 30
0.0
 11
2361.999939999999
 21
1514.999975999999
 31
0.0
  0
LINE
  5
486
330
1F
100
AcDbEntity
  8
Ｓ_１_１
  6
CONTINUOUS
 62
     3
100
AcDbLine
 10
2360.000000999999
 20
1516.999991999999
 30
0.0
 11
2360.000000999999
 21
1963.000027
 31
0.0
  0
LINE
  5
487
330
1F
100
AcDbEntity
  8
Ｓ_１_１
  6
CONTINUOUS
 62
     3
100
AcDbLine
 10
2397.999875999999
 20
1515.000056999999
 30
0.0
 11
2399.999887999998
 21
1517.000069999999
 31
0.0
  0
LINE
  5
488
330
1F
100
AcDbEntity
  8
Ｓ_１_１
  6
CONTINUOUS
 62
     3
100
AcDbLine
 10
2361.999969999999
 20
1515.000003999999
 30
0.0
 11
2397.999954999999
 21
1515.000003999999
 31
0.0
  0
LINE
  5
489
330
1F
100
AcDbEntity
  8
Ｓ_１_１
  6
CONTINUOUS
 62
     3
100
AcDbLine
 10
2399.999999999998
 20
1517.000010999999
 30
0.0
 11
2399.999999999998
 21
1739.999999999999
 31
0.0
  0
LINE
  5
48A
330
1F
100
AcDbEntity
  8
Ｓ_１_１
  6
CONTINUOUS
 62
     3
100
AcDbLine
 10
2305.000001999999
 20
1570.000002999999
 30
0.0
 11
2189.000018999999
 21
1570.000002999999
 31
0.0
  0
LINE
  5
48B
330
1F
100
AcDbEntity
  8
Ｓ_１_１
  6
CONTINUOUS
 62
     3
100
AcDbLine
 10
2359.999980999999
 20
1963.000003
 30
0.0
 11
2361.999993999999
 21
1965.000016
 31
0.0
  0
LINE
  5
48C
330
1F
100
AcDbEntity
  8
Ｓ_１_１
  6
CONTINUOUS
 62
     3
100
AcDbLine
 10
2397.999942999999
 20
1964.999975
 30
0.0
 11
2399.999955999999
 21
1962.999962
 31
0.0
  0
LINE
  5
48D
330
1F
100
AcDbEntity
  8
Ｓ_１_１
  6
CONTINUOUS
 62
     3
100
AcDbLine
 10
2361.999969999999
 20
1964.999997
 30
0.0
 11
2397.999954999999
 21
1964.999997
 31
0.0
  0
LINE
  5
48E
330
1F
100
AcDbEntity
  8
Ｓ_１_１
  6
CONTINUOUS
 62
     3
100
AcDbLine
 10
2399.999999999998
 20
1962.999989
 30
0.0
 11
2399.999999999998
 21
1739.999999999999
 31
0.0
  0
LINE
  5
48F
330
1F
100
AcDbEntity
  8
Ｓ_１_１
  6
CONTINUOUS
 62
     3
100
AcDbLine
 10
2138.999966999999
 20
1900.500253999999
 30
0.0
 11
2140.499980999999
 21
1902.000287
 31
0.0
  0
LINE
  5
490
330
1F
100
AcDbEntity
  8
Ｓ_１_１
  6
CONTINUOUS
 62
     3
100
AcDbLine
 10
2139.000067999999
 20
1879.500152999999
 30
0.0
 11
2140.500081999999
 21
1878.000119999999
 31
0.0
  0
LINE
  5
491
330
1F
100
AcDbEntity
  8
Ｓ_１_１
  6
CONTINUOUS
 62
     3
100
AcDbLine
 10
2140.500034999999
 20
1902.000004999999
 30
0.0
 11
2140.500034999999
 21
1877.999990999999
 31
0.0
  0
LINE
  5
492
330
1F
100
AcDbEntity
  8
Ｓ_１_１
  6
CONTINUOUS
 62
     3
100
AcDbLine
 10
2140.500034999999
 20
1902.000004999999
 30
0.0
 11
2155.000041999999
 21
1902.000004999999
 31
0.0
  0
LINE
  5
493
330
1F
100
AcDbEntity
  8
Ｓ_１_１
  6
CONTINUOUS
 62
     3
100
AcDbLine
 10
2140.500034999999
 20
1878.000029
 30
0.0
 11
2155.000041999999
 21
1878.000029
 31
0.0
  0
LINE
  5
494
330
1F
100
AcDbEntity
  8
Ｓ_１_１
  6
CONTINUOUS
 62
     3
100
AcDbLine
 10
2139.000018999999
 20
1900.500027999999
 30
0.0
 11
2139.000018999999
 21
1879.500005999999
 31
0.0
  0
LINE
  5
495
330
1F
100
AcDbEntity
  8
Ｓ_１_１
  6
CONTINUOUS
 62
     3
100
AcDbLine
 10
2189.000032999998
 20
1910.000018999999
 30
0.0
 11
2187.000019999999
 21
1908.000006
 31
0.0
  0
LINE
  5
496
330
1F
100
AcDbEntity
  8
Ｓ_１_１
  6
CONTINUOUS
 62
     3
100
AcDbLine
 10
2245.000002999999
 20
1909.999998
 30
0.0
 11
2189.000018999999
 21
1909.999998
 31
0.0
  0
LINE
  5
497
330
1F
100
AcDbEntity
  8
Ｓ_１_１
  6
CONTINUOUS
 62
     3
100
AcDbLine
 10
2184.999898999999
 20
1909.999910999999
 30
0.0
 11
2186.999905999999
 21
1907.999905
 31
0.0
  0
LINE
  5
498
330
1F
100
AcDbEntity
  8
Ｓ_１_１
  6
CONTINUOUS
 62
     3
100
AcDbLine
 10
2155.000029999999
 20
1908.000006
 30
0.0
 11
2156.999988999998
 21
1909.999965
 31
0.0
  0
LINE
  5
499
330
1F
100
AcDbEntity
  8
Ｓ_１_１
  6
CONTINUOUS
 62
     3
100
AcDbLine
 10
2157.000011999999
 20
1909.999998
 30
0.0
 11
2185.000004
 21
1909.999998
 31
0.0
  0
LINE
  5
49A
330
1F
100
AcDbEntity
  8
Ｓ_１_１
  6
CONTINUOUS
 62
     3
100
AcDbLine
 10
2245.000002999999
 20
1887.499997999999
 30
0.0
 11
2360.000000999999
 21
1887.499997999999
 31
0.0
  0
LINE
  5
49B
330
1F
100
AcDbEntity
  8
Ｓ_１_１
  6
CONTINUOUS
 62
     3
100
AcDbLine
 10
1706.999923
 20
1909.999998
 30
0.0
 11
1954.999853999999
 21
1909.999998
 31
0.0
  0
LINE
  5
49C
330
1F
100
AcDbEntity
  8
Ｓ_１_１
  6
CONTINUOUS
 62
     3
100
AcDbLine
 10
944.9999599999995
 20
1674.999996999999
 30
0.0
 11
989.9999979999996
 21
1639.999968
 31
0.0
  0
LINE
  5
49D
330
1F
100
AcDbEntity
  8
Ｓ_１_１
  6
CONTINUOUS
 62
     3
100
AcDbLine
 10
944.9999459999992
 20
1675.000000999999
 30
0.0
 11
944.9999459999992
 21
1695.000000999999
 31
0.0
  0
LINE
  5
49E
330
1F
100
AcDbEntity
  8
Ｓ_１_１
  6
CONTINUOUS
 62
     3
100
AcDbLine
 10
989.999944999999
 20
1640.000001999999
 30
0.0
 11
1024.999943999999
 21
1640.000001999999
 31
0.0
  0
LINE
  5
49F
330
1F
100
AcDbEntity
  8
Ｓ_１_１
  6
CONTINUOUS
 62
     3
100
AcDbLine
 10
899.9998089999992
 20
1685.000160999999
 30
0.0
 11
904.9998169999992
 21
1690.000163999999
 31
0.0
  0
LINE
  5
4A0
330
1F
100
AcDbEntity
  8
Ｓ_１_１
  6
CONTINUOUS
 62
     3
100
AcDbLine
 10
904.9999459999992
 20
1690.000000999999
 30
0.0
 11
904.9999459999992
 21
1789.999999999999
 31
0.0
  0
LINE
  5
4A1
330
1F
100
AcDbEntity
  8
Ｓ_１_１
  6
CONTINUOUS
 62
     3
100
AcDbLine
 10
855.0000789999988
 20
1695.000056999999
 30
0.0
 11
864.9999809999993
 21
1685.000153999999
 31
0.0
  0
LINE
  5
4A2
330
1F
100
AcDbEntity
  8
Ｓ_１_１
  6
CONTINUOUS
 62
     3
100
AcDbLine
 10
864.9999469999987
 20
1685.000000999999
 30
0.0
 11
899.9999459999992
 21
1685.000000999999
 31
0.0
  0
LINE
  5
4A3
330
1F
100
AcDbEntity
  8
Ｓ_１_１
  6
CONTINUOUS
 62
     3
100
AcDbLine
 10
854.9999469999987
 20
1695.000000999999
 30
0.0
 11
854.9999469999987
 21
1739.999999999999
 31
0.0
  0
LINE
  5
4A4
330
1F
100
AcDbEntity
  8
Ｓ_１_１
  6
CONTINUOUS
 62
     3
100
AcDbLine
 10
904.9999459999992
 20
1695.000000999999
 30
0.0
 11
1024.999943999999
 21
1695.000000999999
 31
0.0
  0
LINE
  5
4A5
330
1F
100
AcDbEntity
  8
Ｓ_１_１
  6
CONTINUOUS
 62
     3
100
AcDbLine
 10
1024.999943999999
 20
1617.500001999999
 30
0.0
 11
1024.999943999999
 21
1862.499997999999
 31
0.0
  0
LINE
  5
4A6
330
1F
100
AcDbEntity
  8
Ｓ_１_１
  6
CONTINUOUS
 62
     3
100
AcDbLine
 10
944.9999529999989
 20
1804.999851999999
 30
0.0
 11
990.0000219999987
 21
1839.999903999999
 31
0.0
  0
LINE
  5
4A7
330
1F
100
AcDbEntity
  8
Ｓ_１_１
  6
CONTINUOUS
 62
     3
100
AcDbLine
 10
944.9999459999992
 20
1804.999998999999
 30
0.0
 11
944.9999459999992
 21
1784.999999999999
 31
0.0
  0
LINE
  5
4A8
330
1F
100
AcDbEntity
  8
Ｓ_１_１
  6
CONTINUOUS
 62
     3
100
AcDbLine
 10
989.999944999999
 20
1839.999998999999
 30
0.0
 11
1024.999943999999
 21
1839.999998999999
 31
0.0
  0
LINE
  5
4A9
330
1F
100
AcDbEntity
  8
Ｓ_１_１
  6
CONTINUOUS
 62
     3
100
AcDbLine
 10
899.9998199999993
 20
1794.999932999999
 30
0.0
 11
904.9998279999994
 21
1789.999929999999
 31
0.0
  0
LINE
  5
4AA
330
1F
100
AcDbEntity
  8
Ｓ_１_１
  6
CONTINUOUS
 62
     3
100
AcDbLine
 10
855.0000789999988
 20
1785.000042999999
 30
0.0
 11
865.0000079999993
 21
1794.999972999999
 31
0.0
  0
LINE
  5
4AB
330
1F
100
AcDbEntity
  8
Ｓ_１_１
  6
CONTINUOUS
 62
     3
100
AcDbLine
 10
864.9999469999987
 20
1794.999998999999
 30
0.0
 11
899.9999459999992
 21
1794.999998999999
 31
0.0
  0
LINE
  5
4AC
330
1F
100
AcDbEntity
  8
Ｓ_１_１
  6
CONTINUOUS
 62
     3
100
AcDbLine
 10
854.9999469999987
 20
1784.999999999999
 30
0.0
 11
854.9999469999987
 21
1739.999999999999
 31
0.0
  0
LINE
  5
4AD
330
1F
100
AcDbEntity
  8
Ｓ_１_１
  6
CONTINUOUS
 62
     3
100
AcDbLine
 10
904.9999459999992
 20
1784.999999999999
 30
0.0
 11
1024.999943999999
 21
1784.999999999999
 31
0.0
  0
LINE
  5
4AE
330
1F
100
AcDbEntity
  8
Ｓ_１_１
  6
CONTINUOUS
 62
     3
100
AcDbLine
 10
1024.999943999999
 20
1617.500001999999
 30
0.0
 11
1049.999943999999
 21
1617.500001999999
 31
0.0
  0
LINE
  5
4AF
330
1F
100
AcDbEntity
  8
Ｓ_１_１
  6
CONTINUOUS
 62
     3
100
AcDbLine
 10
1024.999943999999
 20
1862.499997999999
 30
0.0
 11
1049.999943999999
 21
1862.499997999999
 31
0.0
  0
LINE
  5
4B0
330
1F
100
AcDbEntity
  8
Ｓ_１_１
  6
CONTINUOUS
 62
     3
100
AcDbLine
 10
1956.999861999999
 20
2009.999996
 30
0.0
 11
1956.999861999999
 21
1470.000004999999
 31
0.0
  0
LINE
  5
4B1
330
1F
100
AcDbEntity
  8
Ｓ_１_１
  6
CONTINUOUS
 62
     3
100
AcDbLine
 10
1297.999932999999
 20
1909.999998
 30
0.0
 11
1297.999932999999
 21
2009.999996
 31
0.0
  0
LINE
  5
4B2
330
1F
100
AcDbEntity
  8
Ｓ_１_１
  6
CONTINUOUS
 62
     3
100
AcDbLine
 10
1296.000099999999
 20
2007.999739999999
 30
0.0
 11
1298.000099999999
 21
2009.999739
 31
0.0
  0
LINE
  5
4B3
330
1F
100
AcDbEntity
  8
Ｓ_１_１
  6
CONTINUOUS
 62
     3
100
AcDbLine
 10
1295.999978999998
 20
1911.999971
 30
0.0
 11
1298.000045999999
 21
1909.999904
 31
0.0
  0
LINE
  5
4B4
330
1F
100
AcDbEntity
  8
Ｓ_１_１
  6
CONTINUOUS
 62
     3
100
AcDbLine
 10
1297.999932999999
 20
1909.999998
 30
0.0
 11
1656.999927999999
 21
1909.999998
 31
0.0
  0
LINE
  5
4B5
330
1F
100
AcDbEntity
  8
Ｓ_１_１
  6
CONTINUOUS
 62
     3
100
AcDbLine
 10
1298.000275999999
 20
2009.999996
 30
0.0
 11
1656.999927999999
 21
2009.999996
 31
0.0
  0
LINE
  5
4B6
330
1F
100
AcDbEntity
  8
Ｓ_１_１
  6
CONTINUOUS
 62
     3
100
AcDbLine
 10
1295.999848999999
 20
1912.000004999999
 30
0.0
 11
1295.999848999999
 21
2007.999530999999
 31
0.0
  0
LINE
  5
4B7
330
1F
100
AcDbEntity
  8
Ｓ_１_１
  6
CONTINUOUS
 62
     3
100
AcDbLine
 10
1292.999837999999
 20
1959.999997
 30
0.0
 11
1292.999837999999
 21
1982.499997
 31
0.0
  0
LINE
  5
4B8
330
1F
100
AcDbEntity
  8
Ｓ_１_１
  6
CONTINUOUS
 62
     3
100
AcDbLine
 10
1287.999913999998
 20
1939.999996999999
 30
0.0
 11
1289.999959999999
 21
1939.999996999999
 31
0.0
  0
LINE
  5
4B9
330
1F
100
AcDbEntity
  8
Ｓ_１_１
  6
CONTINUOUS
 62
     3
100
AcDbLine
 10
1292.999892999998
 20
1937.500063
 30
0.0
 11
1289.999936999998
 21
1939.232087
 31
0.0
  0
LINE
  5
4BA
330
1F
100
AcDbEntity
  8
Ｓ_１_１
  6
CONTINUOUS
 62
     3
100
AcDbLine
 10
1292.999871999999
 20
1982.499924
 30
0.0
 11
1289.999923999999
 21
1980.767886
 31
0.0
  0
LINE
  5
4BB
330
1F
100
AcDbEntity
  8
Ｓ_１_１
  6
CONTINUOUS
 62
     3
100
AcDbLine
 10
1292.999837999999
 20
1937.499996999999
 30
0.0
 11
1292.999837999999
 21
1959.999997
 31
0.0
  0
LINE
  5
4BC
330
1F
100
AcDbEntity
  8
Ｓ_１_１
  6
CONTINUOUS
 62
     3
100
AcDbLine
 10
1289.999959999999
 20
1939.232021999999
 30
0.0
 11
1289.999959999999
 21
1980.767933
 31
0.0
  0
LINE
  5
4BD
330
1F
100
AcDbEntity
  8
Ｓ_１_１
  6
CONTINUOUS
 62
     3
100
AcDbLine
 10
1292.999913999998
 20
1982.499997
 30
0.0
 11
1295.999848999999
 21
1982.499997
 31
0.0
  0
LINE
  5
4BE
330
1F
100
AcDbEntity
  8
Ｓ_１_１
  6
CONTINUOUS
 62
     3
100
AcDbLine
 10
1292.999913999998
 20
1937.499996999999
 30
0.0
 11
1295.999848999999
 21
1937.499996999999
 31
0.0
  0
LINE
  5
4BF
330
1F
100
AcDbEntity
  8
Ｓ_１_１
  6
CONTINUOUS
 62
     3
100
AcDbLine
 10
1282.999837999999
 20
1924.999998
 30
0.0
 11
1282.999837999999
 21
1994.999996
 31
0.0
  0
LINE
  5
4C0
330
1F
100
AcDbEntity
  8
Ｓ_１_１
  6
CONTINUOUS
 62
     3
100
AcDbLine
 10
1288.000152999999
 20
1929.999839
 30
0.0
 11
1283.000111999999
 21
1924.999816999999
 31
0.0
  0
LINE
  5
4C1
330
1F
100
AcDbEntity
  8
Ｓ_１_１
  6
CONTINUOUS
 62
     3
100
AcDbLine
 10
1283.000009999999
 20
1994.999973
 30
0.0
 11
1288.000014999998
 21
1989.999968
 31
0.0
  0
LINE
  5
4C2
330
1F
100
AcDbEntity
  8
Ｓ_１_１
  6
CONTINUOUS
 62
     3
100
AcDbLine
 10
1287.999837999999
 20
1929.999996999999
 30
0.0
 11
1287.999837999999
 21
1989.999997
 31
0.0
  0
LINE
  5
4C3
330
1F
100
AcDbEntity
  8
Ｓ_１_１
  6
CONTINUOUS
 62
     3
100
AcDbLine
 10
1247.999894999999
 20
1924.999998
 30
0.0
 11
1282.999837999999
 21
1924.999998
 31
0.0
  0
LINE
  5
4C4
330
1F
100
AcDbEntity
  8
Ｓ_１_１
  6
CONTINUOUS
 62
     3
100
AcDbLine
 10
1247.999894999999
 20
1928.377224999999
 30
0.0
 11
1252.999894999999
 21
1928.377224999999
 31
0.0
  0
LINE
  5
4C5
330
1F
100
AcDbEntity
  8
Ｓ_１_１
  6
CONTINUOUS
 62
     3
100
AcDbLine
 10
1187.999895999999
 20
1994.999996
 30
0.0
 11
1282.999989999998
 21
1994.999996
 31
0.0
  0
LINE
  5
4C6
330
1F
100
AcDbEntity
  8
Ｓ_１_１
  6
CONTINUOUS
 62
     3
100
AcDbLine
 10
1247.999894999999
 20
1991.622769
 30
0.0
 11
1252.999894999999
 21
1991.622769
 31
0.0
  0
LINE
  5
4C7
330
1F
100
AcDbEntity
  8
Ｓ_１_１
  6
CONTINUOUS
 62
     3
100
AcDbLine
 10
1252.999894999999
 20
1928.377224999999
 30
0.0
 11
1252.999894999999
 21
1991.622769
 31
0.0
  0
LINE
  5
4C8
330
1F
100
AcDbEntity
  8
Ｓ_１_１
  6
CONTINUOUS
 62
     3
100
AcDbLine
 10
1152.999725999998
 20
1903.000123999999
 30
0.0
 11
1154.999693999998
 21
1905.00013
 31
0.0
  0
LINE
  5
4C9
330
1F
100
AcDbEntity
  8
Ｓ_１_１
  6
CONTINUOUS
 62
     3
100
AcDbLine
 10
1049.999992999999
 20
1859.999938999999
 30
0.0
 11
1060.000002999999
 21
1869.999949999999
 31
0.0
  0
LINE
  5
4CA
330
1F
100
AcDbEntity
  8
Ｓ_１_１
  6
CONTINUOUS
 62
     3
100
AcDbLine
 10
1150.999884999999
 20
1905.000064
 30
0.0
 11
1152.999950999999
 21
1902.999996999999
 31
0.0
  0
LINE
  5
4CB
330
1F
100
AcDbEntity
  8
Ｓ_１_１
  6
CONTINUOUS
 62
     3
100
AcDbLine
 10
1123.000000999999
 20
1902.999969999999
 30
0.0
 11
1124.999986999999
 21
1904.999956
 31
0.0
  0
LINE
  5
4CC
330
1F
100
AcDbEntity
  8
Ｓ_１_１
  6
CONTINUOUS
 62
     3
100
AcDbLine
 10
1150.999850999999
 20
1904.999998
 30
0.0
 11
1124.999942999999
 21
1904.999998
 31
0.0
  0
LINE
  5
4CD
330
1F
100
AcDbEntity
  8
Ｓ_１_１
  6
CONTINUOUS
 62
     3
100
AcDbLine
 10
1808.000107999998
 20
1574.999917999999
 30
0.0
 11
1810.000120999999
 21
1576.999930999999
 31
0.0
  0
LINE
  5
4CE
330
1F
100
AcDbEntity
  8
Ｓ_１_１
  6
CONTINUOUS
 62
     3
100
AcDbLine
 10
1780.000135999999
 20
1577.000152999999
 30
0.0
 11
1782.000121999999
 21
1575.000166999999
 31
0.0
  0
LINE
  5
4CF
330
1F
100
AcDbEntity
  8
Ｓ_１_１
  6
CONTINUOUS
 62
     3
100
AcDbLine
 10
1807.999962999999
 20
1575.000002999999
 30
0.0
 11
1782.000054999999
 21
1575.000002999999
 31
0.0
  0
LINE
  5
4D0
330
1F
100
AcDbEntity
  8
Ｓ_１_１
  6
CONTINUOUS
 62
     3
100
AcDbLine
 10
1152.999974999999
 20
1577.000132999999
 30
0.0
 11
1154.999987999999
 21
1575.00012
 31
0.0
  0
LINE
  5
4D1
330
1F
100
AcDbEntity
  8
Ｓ_１_１
  6
CONTINUOUS
 62
     3
100
AcDbLine
 10
1779.999932999999
 20
1577.000029
 30
0.0
 11
1779.999932999999
 21
1690.000000999999
 31
0.0
  0
LINE
  5
4D2
330
1F
100
AcDbEntity
  8
Ｓ_１_１
  6
CONTINUOUS
 62
     3
100
AcDbLine
 10
1707.000116999999
 20
1620.000059999999
 30
0.0
 11
1717.000127999999
 21
1610.000048999999
 31
0.0
  0
LINE
  5
4D3
330
1F
100
AcDbEntity
  8
Ｓ_１_１
  6
CONTINUOUS
 62
     3
100
AcDbLine
 10
1519.999951999998
 20
1870.000011
 30
0.0
 11
1524.999943999999
 21
1865.000018999999
 31
0.0
  0
LINE
  5
4D4
330
1F
100
AcDbEntity
  8
Ｓ_１_１
  6
CONTINUOUS
 62
     3
100
AcDbLine
 10
1519.999927999999
 20
1610.000011999999
 30
0.0
 11
1524.999933999999
 21
1615.000016999999
 31
0.0
  0
LINE
  5
4D5
330
1F
100
AcDbEntity
  8
Ｓ_１_１
  6
CONTINUOUS
 62
     3
100
AcDbLine
 10
1524.999941999999
 20
1615.000020999999
 30
0.0
 11
1524.999941999999
 21
1690.000000999999
 31
0.0
  0
LINE
  5
4D6
330
1F
100
AcDbEntity
  8
Ｓ_１_１
  6
CONTINUOUS
 62
     3
100
AcDbLine
 10
1717.000055999999
 20
1610.000001999999
 30
0.0
 11
1780.000009999999
 21
1610.000001999999
 31
0.0
  0
LINE
  5
4D7
330
1F
100
AcDbEntity
  8
Ｓ_１_１
  6
CONTINUOUS
 62
     3
100
AcDbLine
 10
1394.999938999999
 20
1575.000002999999
 30
0.0
 11
1394.999938999999
 21
1690.000000999999
 31
0.0
  0
LINE
  5
4D8
330
1F
100
AcDbEntity
  8
Ｓ_１_１
  6
CONTINUOUS
 62
     3
100
AcDbLine
 10
1424.999938999999
 20
1576.999971999999
 30
0.0
 11
1424.999938999999
 21
1690.000000999999
 31
0.0
  0
LINE
  5
4D9
330
1F
100
AcDbEntity
  8
Ｓ_１_１
  6
CONTINUOUS
 62
     3
100
AcDbLine
 10
1422.999834999999
 20
1575.000054
 30
0.0
 11
1424.999800999998
 21
1577.000006
 31
0.0
  0
LINE
  5
4DA
330
1F
100
AcDbEntity
  8
Ｓ_１_１
  6
CONTINUOUS
 62
     3
100
AcDbLine
 10
1429.999937999999
 20
1610.000001999999
 30
0.0
 11
1519.999941999999
 21
1610.000001999999
 31
0.0
  0
LINE
  5
4DB
330
1F
100
AcDbEntity
  8
Ｓ_１_１
  6
CONTINUOUS
 62
     3
100
AcDbLine
 10
1049.999943999999
 20
1862.499997999999
 30
0.0
 11
1049.999943999999
 21
1617.500001999999
 31
0.0
  0
LINE
  5
4DC
330
1F
100
AcDbEntity
  8
Ｓ_１_１
  6
CONTINUOUS
 62
     3
100
AcDbLine
 10
1422.999761999999
 20
1904.999867
 30
0.0
 11
1424.999782999999
 21
1902.999862
 31
0.0
  0
LINE
  5
4DD
330
1F
100
AcDbEntity
  8
Ｓ_１_１
  6
CONTINUOUS
 62
     3
100
AcDbLine
 10
1429.999937999999
 20
1869.999997999999
 30
0.0
 11
1519.999941999999
 21
1869.999997999999
 31
0.0
  0
LINE
  5
4DE
330
1F
100
AcDbEntity
  8
Ｓ_１_１
  6
CONTINUOUS
 62
     3
100
AcDbLine
 10
1152.999820999999
 20
1902.99999
 30
0.0
 11
1152.999820999999
 21
1576.999800999999
 31
0.0
  0
LINE
  5
4DF
330
1F
100
AcDbEntity
  8
Ｓ_１_１
  6
CONTINUOUS
 62
     3
100
AcDbLine
 10
2080.000004999998
 20
1902.999494
 30
0.0
 11
2080.000004999998
 21
1577.000047999999
 31
0.0
  0
LINE
  5
4E0
330
1F
100
AcDbEntity
  8
Ｓ_１_１
  6
CONTINUOUS
 62
     3
100
AcDbLine
 10
2077.999687999998
 20
1575.000188999999
 30
0.0
 11
2079.999680999999
 21
1577.000168
 31
0.0
  0
LINE
  5
4E1
330
1F
100
AcDbEntity
  8
Ｓ_１_１
  6
CONTINUOUS
 62
     3
100
AcDbLine
 10
2090.999933999999
 20
1880.999857999999
 30
0.0
 11
2091.999974999999
 21
1881.999884
 31
0.0
  0
LINE
  5
4E2
330
1F
100
AcDbEntity
  8
Ｓ_１_１
  6
CONTINUOUS
 62
     3
100
AcDbLine
 10
2091.000214999998
 20
1899.000435999999
 30
0.0
 11
2092.000216999999
 21
1898.000478999999
 31
0.0
  0
LINE
  5
4E3
330
1F
100
AcDbEntity
  8
Ｓ_１_１
  6
CONTINUOUS
 62
     3
100
AcDbLine
 10
2090.999912999999
 20
1899.000012999999
 30
0.0
 11
2090.999912999999
 21
1880.999982999999
 31
0.0
  0
LINE
  5
4E4
330
1F
100
AcDbEntity
  8
Ｓ_１_１
  6
CONTINUOUS
 62
     3
100
AcDbLine
 10
2091.999935999998
 20
1898.000027999999
 30
0.0
 11
2091.999935999998
 21
1881.999967999999
 31
0.0
  0
LINE
  5
4E5
330
1F
100
AcDbEntity
  8
Ｓ_１_１
  6
CONTINUOUS
 62
     3
100
AcDbLine
 10
2079.999966999999
 20
1880.999982999999
 30
0.0
 11
2090.999950999999
 21
1880.999982999999
 31
0.0
  0
LINE
  5
4E6
330
1F
100
AcDbEntity
  8
Ｓ_１_１
  6
CONTINUOUS
 62
     3
100
AcDbLine
 10
2079.999966999999
 20
1899.000012999999
 30
0.0
 11
2090.999950999999
 21
1899.000012999999
 31
0.0
  0
LINE
  5
4E7
330
1F
100
AcDbEntity
  8
Ｓ_１_１
  6
CONTINUOUS
 62
     3
100
AcDbLine
 10
2077.999655999998
 20
1904.999799
 30
0.0
 11
2079.999648999999
 21
1902.999821
 31
0.0
  0
DIMENSION
  5
4E9
330
1F
100
AcDbEntity
  8
Ｓ_１_１
  6
CONTINUOUS
 62
     2
100
AcDbDimension
  2
*D15
 10
1049.999944
 20
2220.0
 30
0.0
 11
952.4999455000001
 21
2247.5
 31
0.0
 70
   160
  3
ISO-25
100
AcDbAlignedDimension
 13
854.999947
 23
1784.999911
 33
0.0
 14
1049.999944
 24
1862.499998
 34
0.0
100
AcDbRotatedDimension
1001
ACAD
1000
DSTYLE
1002
{
1070
   270
1070
     2
1070
     6
1000
EX_NORM
1070
     7
1000
EX_NORM
1070
    41
1040
30.0
1070
    42
1040
0.0
1070
    44
1040
0.0
1070
    73
1070
     0
1070
    74
1070
     0
1070
    75
1070
     1
1070
    76
1070
     1
1070
    77
1070
     1
1070
    78
1070
     8
1070
   140
1040
34.6290415704388
1070
   147
1040
0.0
1070
   173
1070
     1
1070
   176
1070
     2
1070
   177
1070
     2
1070
   178
1070
     2
1070
   271
1070
     2
1070
   277
1070
     2
1070
   279
1070
     2
1070
   280
1070
     0
1070
   287
1070
     5
1070
   340
1005
4E8
1002
}
  0
DIMENSION
  5
4F5
330
1F
100
AcDbEntity
  8
Ｓ_１_１
  6
CONTINUOUS
 62
     2
100
AcDbDimension
  2
*D16
 10
1524.999942
 20
2220.0
 30
0.0
 11
1287.499943
 21
2247.5
 31
0.0
 70
   160
  3
ISO-25
100
AcDbAlignedDimension
 13
1049.999944
 23
1862.499998
 33
0.0
 14
1524.999942
 24
1865.000021
 34
0.0
100
AcDbRotatedDimension
1001
ACAD
1000
DSTYLE
1002
{
1070
   270
1070
     2
1070
     6
1000
EX_NORM
1070
     7
1000
EX_NORM
1070
    41
1040
30.0
1070
    42
1040
15.0
1070
    44
1040
10.0
1070
    73
1070
     0
1070
    74
1070
     0
1070
    75
1070
     0
1070
    76
1070
     1
1070
    77
1070
     1
1070
    78
1070
     8
1070
   140
1040
34.6290415704388
1070
   147
1040
0.0
1070
   173
1070
     1
1070
   176
1070
     2
1070
   177
1070
     2
1070
   178
1070
     2
1070
   271
1070
     2
1070
   277
1070
     2
1070
   279
1070
     2
1070
   280
1070
     0
1070
   287
1070
     5
1070
   340
1005
4E8
1002
}
  0
DIMENSION
  5
501
330
1F
100
AcDbEntity
  8
Ｓ_１_１
  6
CONTINUOUS
 62
     2
100
AcDbDimension
  2
*D17
 10
1656.999928
 20
2220.0
 30
0.0
 11
1590.999935
 21
2247.5
 31
0.0
 70
   160
  3
ISO-25
100
AcDbAlignedDimension
 13
1524.999942
 23
1865.000021
 33
0.0
 14
1656.999928
 24
2029.999996
 34
0.0
100
AcDbRotatedDimension
1001
ACAD
1000
DSTYLE
1002
{
1070
   270
1070
     2
1070
     6
1000
EX_NORM
1070
     7
1000
EX_NORM
1070
    41
1040
30.0
1070
    42
1040
15.0
1070
    44
1040
10.0
1070
    73
1070
     0
1070
    74
1070
     0
1070
    75
1070
     0
1070
    76
1070
     1
1070
    77
1070
     1
1070
    78
1070
     8
1070
   140
1040
34.6290415704388
1070
   147
1040
0.0
1070
   173
1070
     1
1070
   176
1070
     2
1070
   177
1070
     2
1070
   178
1070
     2
1070
   271
1070
     2
1070
   277
1070
     2
1070
   279
1070
     2
1070
   280
1070
     0
1070
   287
1070
     5
1070
   340
1005
4E8
1002
}
  0
DIMENSION
  5
50D
330
1F
100
AcDbEntity
  8
Ｓ_１_１
  6
CONTINUOUS
 62
     2
100
AcDbDimension
  2
*D18
 10
1706.999923
 20
2220.0
 30
0.0
 11
1681.999925499999
 21
2247.5
 31
0.0
 70
   160
  3
ISO-25
100
AcDbAlignedDimension
 13
1656.999927999999
 23
2029.999996
 33
0.0
 14
1706.999923
 24
2029.999996
 34
0.0
100
AcDbRotatedDimension
1001
ACAD
1000
DSTYLE
1002
{
1070
   270
1070
     2
1070
     6
1000
EX_NORM
1070
     7
1000
EX_NORM
1070
    41
1040
30.0
1070
    42
1040
15.0
1070
    44
1040
10.0
1070
    73
1070
     0
1070
    74
1070
     0
1070
    75
1070
     0
1070
    76
1070
     1
1070
    77
1070
     1
1070
    78
1070
     8
1070
   140
1040
34.6290415704388
1070
   147
1040
0.0
1070
   173
1070
     1
1070
   176
1070
     2
1070
   177
1070
     2
1070
   178
1070
     2
1070
   271
1070
     2
1070
   277
1070
     2
1070
   279
1070
     2
1070
   280
1070
     0
1070
   287
1070
     5
1070
   340
1005
4E8
1002
}
  0
DIMENSION
  5
51B
330
1F
100
AcDbEntity
  8
Ｓ_１_１
  6
CONTINUOUS
 62
     2
100
AcDbDimension
  2
*D19
 10
2187.000011
 20
2220.0
 30
0.0
 11
1946.999967
 21
2247.5
 31
0.0
 70
   160
  3
ISO-25
100
AcDbAlignedDimension
 13
1706.999923
 23
2029.999996
 33
0.0
 14
2187.000011
 24
1907.9998000001
 34
0.0
100
AcDbRotatedDimension
1001
ACAD
1000
DSTYLE
1002
{
1070
   270
1070
     2
1070
     6
1000
EX_NORM
1070
     7
1000
EX_NORM
1070
    41
1040
30.0
1070
    42
1040
15.0
1070
    44
1040
10.0
1070
    73
1070
     0
1070
    74
1070
     0
1070
    75
1070
     0
1070
    76
1070
     1
1070
    77
1070
     1
1070
    78
1070
     8
1070
   140
1040
34.6290415704388
1070
   147
1040
0.0
1070
   173
1070
     1
1070
   176
1070
     2
1070
   177
1070
     2
1070
   178
1070
     2
1070
   271
1070
     2
1070
   277
1070
     2
1070
   279
1070
     2
1070
   280
1070
     0
1070
   287
1070
     5
1070
   340
1005
4E8
1002
}
  0
DIMENSION
  5
527
330
1F
100
AcDbEntity
  8
Ｓ_１_１
  6
CONTINUOUS
 62
     2
100
AcDbDimension
  2
*D20
 10
2400.0
 20
2220.0
 30
0.0
 11
2293.5000055
 21
2247.5
 31
0.0
 70
   160
  3
ISO-25
100
AcDbAlignedDimension
 13
2187.000011
 23
1907.9998000001
 33
0.0
 14
2400.0
 24
1962.999918
 34
0.0
100
AcDbRotatedDimension
1001
ACAD
1000
DSTYLE
1002
{
1070
   270
1070
     2
1070
     6
1000
EX_NORM
1070
     7
1000
EX_NORM
1070
    41
1040
30.0
1070
    42
1040
15.0
1070
    44
1040
10.0
1070
    73
1070
     0
1070
    74
1070
     0
1070
    75
1070
     0
1070
    76
1070
     1
1070
    77
1070
     1
1070
    78
1070
     8
1070
   140
1040
34.6290415704388
1070
   147
1040
0.0
1070
   173
1070
     1
1070
   176
1070
     2
1070
   177
1070
     2
1070
   178
1070
     2
1070
   271
1070
     2
1070
   277
1070
     2
1070
   279
1070
     2
1070
   280
1070
     0
1070
   287
1070
     5
1070
   340
1005
4E8
1002
}
  0
DIMENSION
  5
533
330
1F
100
AcDbEntity
  8
Ｓ_１_１
  6
CONTINUOUS
 62
     2
100
AcDbDimension
  2
*D21
 10
854.999947
 20
2280.0
 30
0.0
 11
1627.4999735
 21
2307.5
 31
0.0
 70
   160
  3
ISO-25
100
AcDbAlignedDimension
 13
2400.0
 23
1962.999918
 33
0.0
 14
854.999947
 24
1784.999911
 34
0.0
100
AcDbRotatedDimension
1001
ACAD
1000
DSTYLE
1002
{
1070
   270
1070
     2
1070
     6
1000
EX_NORM
1070
     7
1000
EX_NORM
1070
    41
1040
30.0
1070
    42
1040
15.0
1070
    44
1040
10.0
1070
    73
1070
     0
1070
    74
1070
     0
1070
    75
1070
     0
1070
    76
1070
     0
1070
    77
1070
     1
1070
    78
1070
     8
1070
   140
1040
34.6290415704388
1070
   147
1040
0.0
1070
   173
1070
     1
1070
   176
1070
     2
1070
   177
1070
     2
1070
   178
1070
     2
1070
   271
1070
     2
1070
   277
1070
     2
1070
   279
1070
     2
1070
   280
1070
     0
1070
   287
1070
     5
1070
   340
1005
4E8
1002
}
  0
DIMENSION
  5
540
330
1F
100
AcDbEntity
  8
Ｓ_１_１
  6
CONTINUOUS
 62
     2
100
AcDbDimension
  2
*D22
 10
720.0
 20
1795.000011999999
 30
0.0
 11
692.5000000000001
 21
1740.000079499999
 31
0.0
 70
   160
  1
%%c110
  3
ISO-25
100
AcDbAlignedDimension
 13
864.9999649999995
 23
1685.000147
 33
0.0
 14
864.9999329999995
 24
1795.000011999999
 34
0.0
 50
90.0
100
AcDbRotatedDimension
1001
ACAD
1000
DSTYLE
1002
{
1070
   270
1070
     2
1070
     6
1000
EX_NORM
1070
     7
1000
EX_NORM
1070
    41
1040
30.0
1070
    42
1040
15.0
1070
    44
1040
10.0
1070
    73
1070
     0
1070
    74
1070
     0
1070
    75
1070
     0
1070
    76
1070
     0
1070
    77
1070
     1
1070
    78
1070
     8
1070
   140
1040
34.6290415704388
1070
   147
1040
0.0
1070
   173
1070
     1
1070
   176
1070
     2
1070
   177
1070
     2
1070
   178
1070
     2
1070
   271
1070
     2
1070
   277
1070
     2
1070
   279
1070
     2
1070
   280
1070
     0
1070
   287
1070
     5
1070
   340
1005
4E8
1002
}
  0
DIMENSION
  5
54D
330
1F
100
AcDbEntity
  8
Ｓ_１_１
  6
CONTINUOUS
 62
     2
100
AcDbDimension
  2
*D23
 10
660.0
 20
1869.999997999999
 30
0.0
 11
632.5000000000001
 21
1739.999999999999
 31
0.0
 70
   160
  1
%%c260
  3
ISO-25
100
AcDbAlignedDimension
 13
1060.000019999999
 23
1610.000001999999
 33
0.0
 14
1060.000019999999
 24
1869.999997999999
 34
0.0
 50
90.0
100
AcDbRotatedDimension
1001
ACAD
1000
DSTYLE
1002
{
1070
   270
1070
     2
1070
     6
1000
EX_NORM
1070
     7
1000
EX_NORM
1070
    41
1040
30.0
1070
    42
1040
15.0
1070
    44
1040
10.0
1070
    73
1070
     0
1070
    74
1070
     0
1070
    75
1070
     0
1070
    76
1070
     0
1070
    77
1070
     1
1070
    78
1070
     8
1070
   140
1040
34.6290415704388
1070
   147
1040
0.0
1070
   173
1070
     1
1070
   176
1070
     2
1070
   177
1070
     2
1070
   178
1070
     2
1070
   271
1070
     2
1070
   277
1070
     2
1070
   279
1070
     2
1070
   280
1070
     0
1070
   287
1070
     5
1070
   340
1005
4E8
1002
}
  0
DIMENSION
  5
55A
330
1F
100
AcDbEntity
  8
Ｓ_１_１
  6
CONTINUOUS
 62
     2
100
AcDbDimension
  2
*D24
 10
600.0
 20
1575.000002999999
 30
0.0
 11
572.5
 21
1740.000000499999
 31
0.0
 70
   160
  1
%%c330
  3
ISO-25
100
AcDbAlignedDimension
 13
1124.999942999999
 23
1904.999998
 33
0.0
 14
1124.999942999999
 24
1575.000002999999
 34
0.0
 50
90.0
100
AcDbRotatedDimension
1001
ACAD
1000
DSTYLE
1002
{
1070
   270
1070
     2
1070
     6
1000
EX_NORM
1070
     7
1000
EX_NORM
1070
    41
1040
30.0
1070
    42
1040
15.0
1070
    44
1040
10.0
1070
    73
1070
     0
1070
    74
1070
     0
1070
    75
1070
     0
1070
    76
1070
     0
1070
    77
1070
     1
1070
    78
1070
     8
1070
   140
1040
34.6290415704388
1070
   147
1040
0.0
1070
   173
1070
     1
1070
   176
1070
     2
1070
   177
1070
     2
1070
   178
1070
     2
1070
   271
1070
     2
1070
   277
1070
     2
1070
   279
1070
     2
1070
   280
1070
     0
1070
   287
1070
     5
1070
   340
1005
4E8
1002
}
  0
DIMENSION
  5
567
330
1F
100
AcDbEntity
  8
Ｓ_１_１
  6
CONTINUOUS
 62
     2
100
AcDbDimension
  2
*D25
 10
540.0
 20
1470.000005
 30
0.0
 11
512.5
 21
1740.0000005
 31
0.0
 70
   160
  3
ISO-25
100
AcDbAlignedDimension
 13
1297.999933
 23
2009.999996
 33
0.0
 14
1298.0002929999
 24
1470.000005
 34
0.0
 50
90.0
100
AcDbRotatedDimension
1001
ACAD
1000
DSTYLE
1002
{
1070
   270
1070
     2
1070
     6
1000
EX_NORM
1070
     7
1000
EX_NORM
1070
    41
1040
30.0
1070
    42
1040
15.0
1070
    44
1040
10.0
1070
    73
1070
     0
1070
    74
1070
     0
1070
    75
1070
     0
1070
    76
1070
     0
1070
    77
1070
     1
1070
    78
1070
     8
1070
   140
1040
34.6290415704388
1070
   147
1040
0.0
1070
   173
1070
     1
1070
   176
1070
     2
1070
   177
1070
     2
1070
   178
1070
     2
1070
   271
1070
     2
1070
   277
1070
     2
1070
   279
1070
     2
1070
   280
1070
     0
1070
   287
1070
     5
1070
   340
1005
4E8
1002
}
  0
DIMENSION
  5
574
330
1F
100
AcDbEntity
  8
Ｓ_１_１
  6
CONTINUOUS
 62
     2
100
AcDbDimension
  2
*D26
 10
2580.0
 20
1515.000004
 30
0.0
 11
2552.5
 21
1740.0000005
 31
0.0
 70
   160
  1
%%c450
  3
ISO-25
100
AcDbAlignedDimension
 13
2397.999921
 23
1964.999997
 33
0.0
 14
2397.999823
 24
1515.000004
 34
0.0
 50
90.0
100
AcDbRotatedDimension
1001
ACAD
1000
DSTYLE
1002
{
1070
   270
1070
     2
1070
     6
1000
EX_NORM
1070
     7
1000
EX_NORM
1070
    41
1040
30.0
1070
    42
1040
15.0
1070
    44
1040
10.0
1070
    73
1070
     0
1070
    74
1070
     0
1070
    75
1070
     0
1070
    76
1070
     0
1070
    77
1070
     1
1070
    78
1070
     8
1070
   140
1040
34.6290415704388
1070
   147
1040
0.0
1070
   173
1070
     1
1070
   176
1070
     2
1070
   177
1070
     2
1070
   178
1070
     2
1070
   271
1070
     2
1070
   277
1070
     2
1070
   279
1070
     2
1070
   280
1070
     0
1070
   287
1070
     5
1070
   340
1005
4E8
1002
}
  0
DIMENSION
  5
581
330
1F
100
AcDbEntity
  8
Ｓ_１_１
  6
CONTINUOUS
 62
     2
100
AcDbDimension
  2
*D27
 10
1935.455175879034
 20
565.0000014999941
 30
0.0
 11
2406.754776924092
 21
837.1049530323413
 31
0.0
 70
   163
  1
P.C.D 380
  3
ISO-25
100
AcDbDiametricDimension
 15
2264.544824120962
 25
754.9999985000043
 35
0.0
 40
0.0
1001
ACAD
1000
DSTYLE
1002
{
1070
   270
1070
     2
1070
     6
1000
EX_NORM
1070
     7
1000
EX_NORM
1070
    41
1040
30.0
1070
    73
1070
     0
1070
    74
1070
     0
1070
    77
1070
     1
1070
    78
1070
     8
1070
   140
1040
34.6290415704388
1070
   147
1040
5.0
1070
   173
1070
     1
1070
   176
1070
     2
1070
   177
1070
     2
1070
   178
1070
     2
1070
   271
1070
     2
1070
   277
1070
     2
1070
   279
1070
     0
1070
   280
1070
     0
1070
   287
1070
     3
1070
   340
1005
4E8
1002
}
  0
TEXT
  5
58D
330
1F
100
AcDbEntity
  8
Ｓ_１_１
  6
CONTINUOUS
 62
     4
100
AcDbText
 10
1217.0
 20
1242.0942309105
 30
0.0
 40
30.78137028483449
  1
ワイヤークランプ装置
 41
0.999230769230769
  7
EXCADTTF1
 72
     5
 11
1617.0
 21
1242.0942309105
 31
0.0
100
AcDbText
  0
LEADER
  5
58E
330
1F
100
AcDbEntity
  8
Ｓ_１_１
  6
CONTINUOUS
 62
     2
100
AcDbLeader
  3
ISO-25
 76
     3
 10
1474.99994
 20
1610.000002
 30
0.0
 10
1693.5447825851
 20
1231.4692309105
 30
0.0
 10
1217.0
 20
1231.4692309105
 30
0.0
1001
ACAD
1000
DSTYLE
1002
{
1070
     5
1000
EX_NORM
1070
    41
1040
30.0
1070
   341
1005
78
1002
}
  0
LEADER
  5
58F
330
1F
100
AcDbEntity
  8
Ｓ_１_１
  6
CONTINUOUS
 62
     2
100
AcDbLeader
  3
ISO-25
 76
     2
 10
1884.4999585
 20
1575.000003
 30
0.0
 10
1693.5447825851
 20
1231.4692309105
 30
0.0
1001
ACAD
1000
DSTYLE
1002
{
1070
     5
1000
EX_NORM
1070
    41
1040
30.0
1070
   341
1005
78
1002
}
  0
LEADER
  5
590
330
1F
100
AcDbEntity
  8
Ｓ_１_１
  6
CONTINUOUS
 62
     2
100
AcDbLeader
  3
ISO-25
 76
     3
 10
2247.0000105
 20
1570.000003
 30
0.0
 10
2386.6012608584
 20
1328.203544579
 30
0.0
 10
2775.0
 20
1328.203544579
 30
0.0
1001
ACAD
1000
DSTYLE
1002
{
1070
     5
1000
EX_NORM
1070
    41
1040
30.0
1070
   341
1005
78
1002
}
  0
TEXT
  5
591
330
1F
100
AcDbEntity
  8
Ｓ_１_１
  6
CONTINUOUS
 62
     4
100
AcDbText
 10
2415.0
 20
1378.828544579
 30
0.0
 40
30.78137028483449
  1
1000kN20ストローク
 41
0.999230769230769
  7
EXCADTTF1
 72
     5
 11
2775.0
 21
1378.828544579
 31
0.0
100
AcDbText
  0
TEXT
  5
592
330
1F
100
AcDbEntity
  8
Ｓ_１_１
  6
CONTINUOUS
 62
     4
100
AcDbText
 10
2415.0
 20
1338.828544579
 30
0.0
 40
30.78137028483449
  1
ロードセル
 41
0.9992307692307693
  7
EXCADTTF1
 72
     5
 11
2615.0
 21
1338.828544579
 31
0.0
100
AcDbText
  0
LEADER
  5
593
330
1F
100
AcDbEntity
  8
Ｓ_１_１
  6
CONTINUOUS
 62
     2
100
AcDbLeader
  3
ISO-25
 76
     3
 10
1904.0
 20
1470.000005
 30
0.0
 10
2075.7387492233
 20
1172.539765717
 30
0.0
 10
2497.0
 20
1172.539765717
 30
0.0
1001
ACAD
1000
DSTYLE
1002
{
1070
     5
1000
EX_NORM
1070
    41
1040
30.0
1070
   341
1005
78
1002
}
  0
TEXT
  5
594
330
1F
100
AcDbEntity
  8
Ｓ_１_１
  6
CONTINUOUS
 62
     4
100
AcDbText
 10
2097.0
 20
1223.164765717
 30
0.0
 40
30.78137028483449
  1
4-250kN500ストローク
 41
0.999230769230769
  7
EXCADTTF1
 72
     5
 11
2497.0
 21
1223.164765717
 31
0.0
100
AcDbText
  0
TEXT
  5
595
330
1F
100
AcDbEntity
  8
Ｓ_１_１
  6
CONTINUOUS
 62
     4
100
AcDbText
 10
2097.0
 20
1183.164765717
 30
0.0
 40
30.78137028483449
  1
油圧ジャッキ
 41
0.9992307692307691
  7
EXCADTTF1
 72
     5
 11
2337.0
 21
1183.164765717
 31
0.0
100
AcDbText
  0
TEXT
  5
596
330
1F
100
AcDbEntity
  8
Ｓ_１_１
  6
CONTINUOUS
 62
     4
100
AcDbText
 10
2410.0
 20
560.62499214132
 30
0.0
 40
30.78137028483449
  1
6-25キリ
 41
0.9992307692307693
  7
EXCADTTF1
 72
     5
 11
2570.0
 21
560.62499214132
 31
0.0
100
AcDbText
  0
LEADER
  5
597
330
1F
100
AcDbEntity
  8
Ｓ_１_１
  6
CONTINUOUS
 62
     2
100
AcDbLeader
  3
ISO-25
 76
     3
 10
2298.8388639061
 20
651.16112037655
 30
0.0
 10
2399.9999921413
 20
549.99999214132
 30
0.0
 10
2570.0
 20
549.99999214132
 30
0.0
1001
ACAD
1000
DSTYLE
1002
{
1070
     5
1000
EX_NORM
1070
    41
1040
30.0
1070
   341
1005
78
1002
}
  0
LEADER
  5
598
330
1F
100
AcDbEntity
  8
Ｓ_１_１
  6
CONTINUOUS
 62
     2
100
AcDbLeader
  3
ISO-25
 76
     2
 10
420.0
 20
1740.0
 30
0.0
 10
341.0
 20
1740.0
 30
0.0
1001
ACAD
1000
DSTYLE
1002
{
1070
     5
1000
EX_NORM
1070
    41
1040
30.0
1070
   341
1005
78
1002
}
  0
TEXT
  5
599
330
1F
100
AcDbEntity
  8
Ｓ_１_１
  6
CONTINUOUS
 62
     4
100
AcDbText
 10
352.0
 20
1751.328125
 30
0.0
 40
34.6290415704388
  1
A
 41
0.999230769230769
  7
EXCADTTF1
 72
     5
 11
374.5
 21
1751.328125
 31
0.0
100
AcDbText
  0
LEADER
  5
59A
330
1F
100
AcDbEntity
  8
Ｓ_１_１
  6
CONTINUOUS
 62
     2
100
AcDbLeader
  3
ISO-25
 76
     2
 10
2633.999855999999
 20
1740.0
 30
0.0
 10
2712.999855999998
 20
1740.0
 30
0.0
1001
ACAD
1000
DSTYLE
1002
{
1070
     5
1000
EX_NORM
1070
    41
1040
30.0
1070
   341
1005
78
1002
}
  0
TEXT
  5
59B
330
1F
100
AcDbEntity
  8
Ｓ_１_１
  6
CONTINUOUS
 62
     4
100
AcDbText
 10
2679.499855999999
 20
1751.328125
 30
0.0
 40
34.6290415704388
  1
B
 41
0.999230769230769
  7
EXCADTTF1
 72
     5
 11
2701.999855999999
 21
1751.328125
 31
0.0
100
AcDbText
  0
TEXT
  5
59C
330
1F
100
AcDbEntity
  8
Ｓ_１_１
  6
CONTINUOUS
 62
     4
100
AcDbText
 10
734.0
 20
888.328125
 30
0.0
 40
34.6290415704388
  1
A矢示図
 41
0.999230769230769
  7
EXCADTTF1
 72
     5
 11
891.5
 21
888.328125
 31
0.0
100
AcDbText
  0
LINE
  5
59D
330
1F
100
AcDbEntity
  8
Ｓ_１_１
  6
CONTINUOUS
 62
     2
100
AcDbLine
 10
734.0
 20
882.0
 30
0.0
 11
892.0
 21
882.0
 31
0.0
  0
LINE
  5
59E
330
1F
100
AcDbEntity
  8
Ｓ_１_１
  6
CONTINUOUS
 62
     2
100
AcDbLine
 10
1754.0
 20
882.0
 30
0.0
 11
1912.0
 21
882.0
 31
0.0
  0
TEXT
  5
59F
330
1F
100
AcDbEntity
  8
Ｓ_１_１
  6
CONTINUOUS
 62
     4
100
AcDbText
 10
1754.0
 20
888.328125
 30
0.0
 40
34.6290415704388
  1
B矢示図
 41
0.999230769230769
  7
EXCADTTF1
 72
     5
 11
1911.5
 21
888.328125
 31
0.0
100
AcDbText
  0
LINE
  5
5A0
330
1F
100
AcDbEntity
  8
Ｓ_１_１
  6
CONTINUOUS
 62
     3
100
AcDbLine
 10
1097.500019999999
 20
847.9999939999993
 30
0.0
 11
1092.500013999999
 21
842.9999879999995
 31
0.0
  0
ARC
  5
5A1
330
1F
100
AcDbEntity
  8
Ｓ_１_１
  6
CONTINUOUS
 62
     3
100
AcDbCircle
 10
860.0000029999991
 20
659.9999999999994
 30
0.0
 40
69.999999
100
AcDbArc
 50
90.00000000000001
 51
270.0
  0
ARC
  5
5A2
330
1F
100
AcDbEntity
  8
Ｓ_１_１
  6
CONTINUOUS
 62
     3
100
AcDbCircle
 10
1079.999999999999
 20
659.9999999999994
 30
0.0
 40
162.9999900000001
100
AcDbArc
 50
137.8131855665876
 51
222.186805
  0
ARC
  5
5A3
330
1F
100
AcDbEntity
  8
Ｓ_１_１
  6
CONTINUOUS
 62
     3
100
AcDbCircle
 10
1079.999999999999
 20
659.9999999999994
 30
0.0
 40
164.999998
100
AcDbArc
 50
137.7790592800924
 51
222.2209290000001
  0
ARC
  5
5A4
330
1F
100
AcDbEntity
  8
Ｓ_１_１
  6
CONTINUOUS
 62
     3
100
AcDbCircle
 10
1079.999999999999
 20
659.9999999999994
 30
0.0
 40
164.999998
100
AcDbArc
 50
47.77906500000003
 51
132.2209313783701
  0
ARC
  5
5A5
330
1F
100
AcDbEntity
  8
Ｓ_１_１
  6
CONTINUOUS
 62
     3
100
AcDbCircle
 10
1079.999999999999
 20
659.9999999999994
 30
0.0
 40
162.9999900000001
100
AcDbArc
 50
47.81319200000002
 51
132.1868049769793
  0
ARC
  5
5A6
330
1F
100
AcDbEntity
  8
Ｓ_１_１
  6
CONTINUOUS
 62
     3
100
AcDbCircle
 10
1079.999999999999
 20
879.9999969999993
 30
0.0
 40
49.999999
100
AcDbArc
 50
209.999898776064
 51
219.9886282894623
  0
ARC
  5
5A7
330
1F
100
AcDbEntity
  8
Ｓ_１_１
  6
CONTINUOUS
 62
     3
100
AcDbCircle
 10
1079.999999999999
 20
879.9999969999993
 30
0.0
 40
49.999999
100
AcDbArc
 50
158.4343876548604
 51
201.5656123451398
  0
ARC
  5
5A8
330
1F
100
AcDbEntity
  8
Ｓ_１_１
  6
CONTINUOUS
 62
     3
100
AcDbCircle
 10
1079.999999999999
 20
879.9999969999993
 30
0.0
 40
49.999999
100
AcDbArc
 50
320.0115213707888
 51
330.000101223936
  0
ARC
  5
5A9
330
1F
100
AcDbEntity
  8
Ｓ_１_１
  6
CONTINUOUS
 62
     3
100
AcDbCircle
 10
1079.999999999999
 20
879.9999969999993
 30
0.0
 40
49.999999
100
AcDbArc
 50
338.4351015905543
 51
21.56489840944577
  0
ARC
  5
5AA
330
1F
100
AcDbEntity
  8
Ｓ_１_１
  6
CONTINUOUS
 62
     3
100
AcDbCircle
 10
1079.999999999999
 20
879.9999969999993
 30
0.0
 40
49.999999
100
AcDbArc
 50
136.8861638980457
 51
149.9998987759611
  0
ARC
  5
5AB
330
1F
100
AcDbEntity
  8
Ｓ_１_１
  6
CONTINUOUS
 62
     3
100
AcDbCircle
 10
1079.999999999999
 20
879.9999969999993
 30
0.0
 40
49.999999
100
AcDbArc
 50
30.00010122403891
 51
43.11345214470053
  0
ARC
  5
5AC
330
1F
100
AcDbEntity
  8
Ｓ_１_１
  6
CONTINUOUS
 62
     3
100
AcDbCircle
 10
1079.999999999999
 20
879.9999969999993
 30
0.0
 40
49.999999
100
AcDbArc
 50
44.42712707397093
 51
135.5728729260291
  0
ARC
  5
5AD
330
1F
100
AcDbEntity
  8
Ｓ_１_１
  6
CONTINUOUS
 62
     3
100
AcDbCircle
 10
860.0000029999991
 20
659.9999999999994
 30
0.0
 40
49.999999
100
AcDbArc
 50
50.01150980682107
 51
60.0001012239363
  0
ARC
  5
5AE
330
1F
100
AcDbEntity
  8
Ｓ_１_１
  6
CONTINUOUS
 62
     3
100
AcDbCircle
 10
860.0000029999991
 20
659.9999999999994
 30
0.0
 40
49.999999
100
AcDbArc
 50
68.43486464870283
 51
111.5651353512972
  0
ARC
  5
5AF
330
1F
100
AcDbEntity
  8
Ｓ_１_１
  6
CONTINUOUS
 62
     3
100
AcDbCircle
 10
860.0000029999991
 20
659.9999999999994
 30
0.0
 40
49.999999
100
AcDbArc
 50
120.000101224039
 51
133.1135795718663
  0
ARC
  5
5B0
330
1F
100
AcDbEntity
  8
Ｓ_１_１
  6
CONTINUOUS
 62
     3
100
AcDbCircle
 10
860.0000029999991
 20
659.9999999999994
 30
0.0
 40
49.999999
100
AcDbArc
 50
134.4271270739712
 51
225.5728729260289
  0
ARC
  5
5B1
330
1F
100
AcDbEntity
  8
Ｓ_１_１
  6
CONTINUOUS
 62
     3
100
AcDbCircle
 10
860.0000029999991
 20
659.9999999999994
 30
0.0
 40
49.999999
100
AcDbArc
 50
226.8862913246034
 51
239.9998987759609
  0
ARC
  5
5B2
330
1F
100
AcDbEntity
  8
Ｓ_１_１
  6
CONTINUOUS
 62
     3
100
AcDbCircle
 10
860.0000029999991
 20
659.9999999999994
 30
0.0
 40
49.999999
100
AcDbArc
 50
248.4346245917236
 51
291.5653754082765
  0
ARC
  5
5B3
330
1F
100
AcDbEntity
  8
Ｓ_１_１
  6
CONTINUOUS
 62
     3
100
AcDbCircle
 10
860.0000029999991
 20
659.9999999999994
 30
0.0
 40
49.999999
100
AcDbArc
 50
299.9998987760637
 51
309.9886291920457
  0
ARC
  5
5B4
330
1F
100
AcDbEntity
  8
Ｓ_１_１
  6
CONTINUOUS
 62
     3
100
AcDbCircle
 10
1079.999999999999
 20
439.9999269999993
 30
0.0
 40
49.999999
100
AcDbArc
 50
140.0115215348339
 51
149.9999993384053
  0
ARC
  5
5B5
330
1F
100
AcDbEntity
  8
Ｓ_１_１
  6
CONTINUOUS
 62
     3
100
AcDbCircle
 10
1079.999999999999
 20
439.9999269999993
 30
0.0
 40
49.999999
100
AcDbArc
 50
158.4351015905543
 51
201.5648984094457
  0
ARC
  5
5B6
330
1F
100
AcDbEntity
  8
Ｓ_１_１
  6
CONTINUOUS
 62
     3
100
AcDbCircle
 10
1079.999999999999
 20
439.9999269999993
 30
0.0
 40
49.999999
100
AcDbArc
 50
210.0001012240386
 51
223.1134521447006
  0
ARC
  5
5B7
330
1F
100
AcDbEntity
  8
Ｓ_１_１
  6
CONTINUOUS
 62
     3
100
AcDbCircle
 10
1079.999999999999
 20
439.9999269999993
 30
0.0
 40
49.999999
100
AcDbArc
 50
224.4271254693646
 51
315.5728745306355
  0
ARC
  5
5B8
330
1F
100
AcDbEntity
  8
Ｓ_１_１
  6
CONTINUOUS
 62
     3
100
AcDbCircle
 10
1079.999999999999
 20
439.9999269999993
 30
0.0
 40
49.999999
100
AcDbArc
 50
316.8861638980457
 51
329.9998987759614
  0
ARC
  5
5B9
330
1F
100
AcDbEntity
  8
Ｓ_１_１
  6
CONTINUOUS
 62
     3
100
AcDbCircle
 10
1079.999999999999
 20
439.9999269999993
 30
0.0
 40
49.999999
100
AcDbArc
 50
338.4343876548602
 51
21.56561234513961
  0
ARC
  5
5BA
330
1F
100
AcDbEntity
  8
Ｓ_１_１
  6
CONTINUOUS
 62
     3
100
AcDbCircle
 10
1079.999999999999
 20
439.9999269999993
 30
0.0
 40
49.999999
100
AcDbArc
 50
30.00000066159472
 51
39.9886299306316
  0
ARC
  5
5BB
330
1F
100
AcDbEntity
  8
Ｓ_１_１
  6
CONTINUOUS
 62
     3
100
AcDbCircle
 10
1299.999995999998
 20
659.9999999999994
 30
0.0
 40
49.999999
100
AcDbArc
 50
230.0115089042246
 51
240.0001012239363
  0
ARC
  5
5BC
330
1F
100
AcDbEntity
  8
Ｓ_１_１
  6
CONTINUOUS
 62
     3
100
AcDbCircle
 10
1299.999995999998
 20
659.9999999999994
 30
0.0
 40
49.999999
100
AcDbArc
 50
248.4350984728825
 51
291.5649015271175
  0
ARC
  5
5BD
330
1F
100
AcDbEntity
  8
Ｓ_１_１
  6
CONTINUOUS
 62
     3
100
AcDbCircle
 10
1299.999995999998
 20
659.9999999999994
 30
0.0
 40
49.999999
100
AcDbArc
 50
300.0001012240393
 51
313.1134521446999
  0
ARC
  5
5BE
330
1F
100
AcDbEntity
  8
Ｓ_１_１
  6
CONTINUOUS
 62
     3
100
AcDbCircle
 10
1299.999995999998
 20
659.9999999999994
 30
0.0
 40
49.999999
100
AcDbArc
 50
314.4271270739715
 51
45.57287292602858
  0
ARC
  5
5BF
330
1F
100
AcDbEntity
  8
Ｓ_１_１
  6
CONTINUOUS
 62
     3
100
AcDbCircle
 10
1299.999995999998
 20
659.9999999999994
 30
0.0
 40
49.999999
100
AcDbArc
 50
46.88616557470955
 51
59.99989877596077
  0
ARC
  5
5C0
330
1F
100
AcDbEntity
  8
Ｓ_１_１
  6
CONTINUOUS
 62
     3
100
AcDbCircle
 10
1299.999995999998
 20
659.9999999999994
 30
0.0
 40
49.999999
100
AcDbArc
 50
68.43438765486161
 51
111.5656123451384
  0
ARC
  5
5C1
330
1F
100
AcDbEntity
  8
Ｓ_１_１
  6
CONTINUOUS
 62
     3
100
AcDbCircle
 10
1299.999995999998
 20
659.9999999999994
 30
0.0
 40
49.999999
100
AcDbArc
 50
119.9998987760637
 51
129.988628289463
  0
LINE
  5
5C2
330
1F
100
AcDbEntity
  8
Ｓ_１_１
  6
EXLTYPE2
 62
     1
100
AcDbLine
 10
1494.626106999998
 20
1665.000000999999
 30
0.0
 11
1527.845095999999
 21
1665.000000999999
 31
0.0
  0
LINE
  5
5C3
330
1F
100
AcDbEntity
  8
Ｓ_１_１
  6
EXLTYPE2
 62
     1
100
AcDbLine
 10
1654.973961999998
 20
1650.000000999999
 30
0.0
 11
1742.508211999999
 21
1650.000001
 31
0.0
  0
LINE
  5
5C4
330
1F
100
AcDbEntity
  8
Ｓ_１_１
  6
EXLTYPE2
 62
     1
100
AcDbLine
 10
2275.000001999999
 20
1723.999996999999
 30
0.0
 11
2275.000001999999
 21
1756.000003999999
 31
0.0
  0
LINE
  5
5C5
330
1F
100
AcDbEntity
  8
Ｓ_１_１
  6
EXLTYPE2
 62
     1
100
AcDbLine
 10
2117.500004999999
 20
1527.056766999999
 30
0.0
 11
2117.500004999999
 21
1652.191315999999
 31
0.0
  0
LINE
  5
5C6
330
1F
100
AcDbEntity
  8
Ｓ_１_１
  6
EXLTYPE2
 62
     1
100
AcDbLine
 10
2117.500004999999
 20
1952.943226999999
 30
0.0
 11
2117.500004999999
 21
1827.808683999999
 31
0.0
  0
LINE
  5
5C7
330
1F
100
AcDbEntity
  8
Ｓ_１_１
  6
CONTINUOUS
 62
     3
100
AcDbLine
 10
1282.999837999999
 20
1555.000002999999
 30
0.0
 11
1282.999837999999
 21
1485.000004999999
 31
0.0
  0
LINE
  5
5C8
330
1F
100
AcDbEntity
  8
Ｓ_１_１
  6
EXLTYPE2
 62
     1
100
AcDbLine
 10
1272.999818999999
 20
1976.185497999999
 30
0.0
 11
1272.999818999999
 21
1998.957790999999
 31
0.0
  0
LINE
  5
5C9
330
1F
100
AcDbEntity
  8
Ｓ_１_１
  6
EXLTYPE2
 62
     1
100
AcDbLine
 10
1367.113204999999
 20
1889.999997999999
 30
0.0
 11
1426.417937999999
 21
1889.999997999999
 31
0.0
  0
LINE
  5
5CA
330
1F
100
AcDbEntity
  8
Ｓ_１_１
  6
EXLTYPE2
 62
     1
100
AcDbLine
 10
1367.113204999999
 20
1590.000002
 30
0.0
 11
1426.417937999999
 21
1590.000002
 31
0.0
  0
LINE
  5
5CB
330
1F
100
AcDbEntity
  8
Ｓ_１_１
  6
EXLTYPE2
 62
     1
100
AcDbLine
 10
2136.319583999999
 20
1590.000002
 30
0.0
 11
2218.101427999998
 21
1590.000002
 31
0.0
  0
ARC
  5
5CC
330
1F
100
AcDbEntity
  8
Ｓ_１_１
  6
CONTINUOUS
 62
     3
100
AcDbCircle
 10
2117.500004999999
 20
1914.999998
 30
0.0
 40
36.000001
100
AcDbArc
 50
305.5775140000002
 51
306.6712385333773
  0
ARC
  5
5CD
330
1F
100
AcDbEntity
  8
Ｓ_１_１
  6
CONTINUOUS
 62
     3
100
AcDbCircle
 10
2117.500004999999
 20
1914.999998
 30
0.0
 40
36.000001
100
AcDbArc
 50
338.8315637174756
 51
206.387772
  0
ARC
  5
5CE
330
1F
100
AcDbEntity
  8
Ｓ_１_１
  6
CONTINUOUS
 62
     3
100
AcDbCircle
 10
2117.500004999999
 20
1565.000002999999
 30
0.0
 40
36.000001
100
AcDbArc
 50
53.32876146662269
 51
54.42249200000025
  0
ENDSEC
  0
SECTION
  2
OBJECTS
  0
DICTIONARY
  5
C
330
0
100
AcDbDictionary
  3
ACAD_GROUP
350
D
  3
ACAD_LAYOUT
350
1A
  3
ACAD_MATERIAL
350
43
  3
ACAD_MLEADERSTYLE
350
6B
  3
ACAD_MLINESTYLE
350
17
  3
ACAD_PLOTSETTINGS
350
19
  3
ACAD_SCALELIST
350
47
  3
ACAD_VISUALSTYLE
350
2A
  3
ACDBHEADERROUNDTRIPXREC
350
5CF
  3
ACDBVARIABLEDICTIONARY
350
5F0
  0
DICTIONARY
  5
5FB
330
8
100
AcDbDictionary
280
     1
  3
ACAD_XREC_ROUNDTRIP
360
5FC
  0
DICTIONARY
  5
D
102
{ACAD_REACTORS
330
C
102
}
330
C
100
AcDbDictionary
  0
DICTIONARY
  5
1A
102
{ACAD_REACTORS
330
C
102
}
330
C
100
AcDbDictionary
  0
DICTIONARY
  5
43
102
{ACAD_REACTORS
330
C
102
}
330
C
100
AcDbDictionary
  3
BYBLOCK
350
45
  3
BYLAYER
350
44
  3
GLOBAL
350
46
  0
DICTIONARY
  5
6B
102
{ACAD_REACTORS
330
C
102
}
330
C
100
AcDbDictionary
  3
STANDARD
350
6C
  0
DICTIONARY
  5
17
102
{ACAD_REACTORS
330
C
102
}
330
C
100
AcDbDictionary
  3
STANDARD
350
18
  0
DICTIONARY
  5
19
102
{ACAD_REACTORS
330
C
102
}
330
C
100
AcDbDictionary
  0
DICTIONARY
  5
47
102
{ACAD_REACTORS
330
C
102
}
330
C
100
AcDbDictionary
  3
A0
350
48
  3
A1
350
49
  3
A2
350
4A
  3
A3
350
4B
  3
A4
350
4C
  3
A5
350
4D
  3
A6
350
4E
  3
A7
350
4F
  3
A8
350
50
  3
A9
350
51
  3
B0
350
52
  3
B1
350
53
  3
B2
350
54
  3
B3
350
55
  3
B4
350
56
  3
B5
350
57
  3
B6
350
58
  3
B7
350
59
  3
B8
350
5A
  3
B9
350
5B
  3
C0
350
5C
  3
C1
350
5D
  3
C2
350
5E
  3
C3
350
5F
  3
C4
350
60
  3
C5
350
61
  3
C6
350
62
  3
C7
350
63
  3
C8
350
64
  3
C9
350
65
  3
D0
350
66
  3
D1
350
67
  3
D2
350
68
  0
DICTIONARY
  5
2A
102
{ACAD_REACTORS
330
C
102
}
330
C
100
AcDbDictionary
  3
2DWIREFRAME
350
2F
  3
BASIC
350
32
  3
BRIGHTEN
350
36
  3
COLORCHANGE
350
3A
  3
CONCEPTUAL
350
34
  3
DIM
350
35
  3
EDGECOLOROFF
350
3D
  3
FACEPATTERN
350
39
  3
FLAT
350
2B
  3
FLATWITHEDGES
350
2C
  3
GOURAUD
350
2D
  3
GOURAUDWITHEDGES
350
2E
  3
HIDDEN
350
31
  3
JITTEROFF
350
3B
  3
LINEPATTERN
350
38
  3
OVERHANGOFF
350
3C
  3
REALISTIC
350
33
  3
SHADED
350
42
  3
SHADED_WITH_EDGES
350
41
  3
SHADES_OF_GRAY
350
3E
  3
SKETCHY
350
3F
  3
THICKEN
350
37
  3
WIREFRAME
350
30
  3
X-RAY
350
40
  0
DICTIONARY
  5
5CF
102
{ACAD_REACTORS
330
C
102
}
330
C
100
AcDbDictionary
  3
CEPSNID
350
5D9
  3
CEPSNTYPE
350
5D8
  3
DIMSTYLEDATA
350
5EF
  3
FINGERPRINTGUID
350
5DA
  3
HYPERLINKBASE
350
5D2
  3
INSUNITS
350
5D7
  3
LAYOUTDICT
350
5D4
  3
LWETCUNION
350
5D6
  3
PLOTSETDICT
350
5D5
  3
PSVPSCALE
350
5DC
  3
PUCSBASE
350
5DF
  3
PUCSORGBACK
350
5E5
  3
PUCSORGBOTTOM
350
5E1
  3
PUCSORGFRONT
350
5E4
  3
PUCSORGLEFT
350
5E2
  3
PUCSORGRIGHT
350
5E3
  3
PUCSORGTOP
350
5E0
  3
PUCSORTHOREF
350
5DD
  3
PUCSORTHOVIEW
350
5DE
  3
STYLESHEET
350
5D3
  3
TSTACKALIGN
350
5D0
  3
TSTACKSIZE
350
5D1
  3
UCSBASE
350
5E8
  3
UCSORGBACK
350
5EE
  3
UCSORGBOTTOM
350
5EA
  3
UCSORGFRONT
350
5ED
  3
UCSORGLEFT
350
5EB
  3
UCSORGRIGHT
350
5EC
  3
UCSORGTOP
350
5E9
  3
UCSORTHOREF
350
5E6
  3
UCSORTHOVIEW
350
5E7
  3
VERSIONGUID
350
5DB
  0
DICTIONARY
  5
5F0
102
{ACAD_REACTORS
330
C
102
}
330
C
100
AcDbDictionary
  3
CANNOSCALE
350
5FD
  3
CENTEREXE
350
5F7
  3
CENTERLTYPEFILE
350
5F8
  3
CMLEADERSTYLE
350
5F2
  3
CTABLESTYLE
350
5F1
  3
DIMASSOC
350
5F9
  3
HIDETEXT
350
5FA
  3
MSLTSCALE
350
5FE
  3
PSOLHEIGHT
350
5F4
  3
PSOLWIDTH
350
5F3
  0
XRECORD
  5
5FC
102
{ACAD_REACTORS
330
5FB
102
}
330
5FB
100
AcDbXrecord
102
VTR_0.000_0.000_1.000_1.000_VISUALSTYLE
340
2F
102
VTR_0.000_0.000_1.000_1.000_GRIDDISPLAY
 70
     3
102
VTR_0.000_0.000_1.000_1.000_GRIDMAJOR
 70
     5
102
VTR_0.000_0.000_1.000_1.000_DEFAULTLIGHTING
280
     1
102
VTR_0.000_0.000_1.000_1.000_DEFAULTLIGHTINGTYPE
 70
     1
102
VTR_0.000_0.000_1.000_1.000_BRIGHTNESS
141
0.0
102
VTR_0.000_0.000_1.000_1.000_CONTRAST
142
0.0
  0
MATERIAL
  5
45
102
{ACAD_REACTORS
330
43
102
}
102
{ACAD_XDICTIONARY
360
601
102
}
330
43
100
AcDbMaterial
  1
BYBLOCK
  0
MATERIAL
  5
44
102
{ACAD_REACTORS
330
43
102
}
102
{ACAD_XDICTIONARY
360
5FF
102
}
330
43
100
AcDbMaterial
  1
BYLAYER
  0
MATERIAL
  5
46
102
{ACAD_REACTORS
330
43
102
}
102
{ACAD_XDICTIONARY
360
603
102
}
330
43
100
AcDbMaterial
  1
GLOBAL
  0
ACAD_PROXY_OBJECT
  5
6C
102
{ACAD_REACTORS
330
6B
102
}
330
6B
100
AcDbProxyObject
 90
      499
 91
      505
 93
      610
310
40901902A4063FBFFFFFE0000000000000020400000000000020404214DD185B99185C990000000000000104090141901A00000000000004100000000000000041025764000000000000039000
340
14
340
0
340
11
340
0
 94
        0
1001
ACAD_MLEADERVER
1070
     2
  0
MLINESTYLE
  5
18
102
{ACAD_REACTORS
330
17
102
}
330
17
100
AcDbMlineStyle
  2
Standard
 70
     0
  3

 62
   256
 51
90.0
 52
90.0
 71
     2
 49
0.5
 62
   256
  6
BYLAYER
 49
-0.5
 62
   256
  6
BYLAYER
  0
ACAD_PROXY_OBJECT
  5
48
102
{ACAD_REACTORS
330
47
102
}
330
47
100
AcDbProxyObject
 90
      499
 91
      503
 93
       41
310
903313A31580
  0
ACAD_PROXY_OBJECT
  5
49
102
{ACAD_REACTORS
330
47
102
}
330
47
100
AcDbProxyObject
 90
      499
 91
      503
 93
      105
310
903313A324000000000000004000
  0
ACAD_PROXY_OBJECT
  5
4A
102
{ACAD_REACTORS
330
47
102
}
330
47
100
AcDbProxyObject
 90
      499
 91
      503
 93
      105
310
903313A344000000000000104000
  0
ACAD_PROXY_OBJECT
  5
4B
102
{ACAD_REACTORS
330
47
102
}
330
47
100
AcDbProxyObject
 90
      499
 91
      503
 93
      105
310
903313A354000000000000144000
  0
ACAD_PROXY_OBJECT
  5
4C
102
{ACAD_REACTORS
330
47
102
}
330
47
100
AcDbProxyObject
 90
      499
 91
      503
 93
      105
310
903313A384000000000000204000
  0
ACAD_PROXY_OBJECT
  5
4D
102
{ACAD_REACTORS
330
47
102
}
330
47
100
AcDbProxyObject
 90
      499
 91
      503
 93
      113
310
904313A31304000000000000244000
  0
ACAD_PROXY_OBJECT
  5
4E
102
{ACAD_REACTORS
330
47
102
}
330
47
100
AcDbProxyObject
 90
      499
 91
      503
 93
      113
310
904313A31364000000000000304000
  0
ACAD_PROXY_OBJECT
  5
4F
102
{ACAD_REACTORS
330
47
102
}
330
47
100
AcDbProxyObject
 90
      499
 91
      503
 93
      113
310
904313A32304000000000000344000
  0
ACAD_PROXY_OBJECT
  5
50
102
{ACAD_REACTORS
330
47
102
}
330
47
100
AcDbProxyObject
 90
      499
 91
      503
 93
      113
310
904313A333040000000000003E4000
  0
ACAD_PROXY_OBJECT
  5
51
102
{ACAD_REACTORS
330
47
102
}
330
47
100
AcDbProxyObject
 90
      499
 91
      503
 93
      113
310
904313A34304000000000000444000
  0
ACAD_PROXY_OBJECT
  5
52
102
{ACAD_REACTORS
330
47
102
}
330
47
100
AcDbProxyObject
 90
      499
 91
      503
 93
      113
310
904313A35304000000000000494000
  0
ACAD_PROXY_OBJECT
  5
53
102
{ACAD_REACTORS
330
47
102
}
330
47
100
AcDbProxyObject
 90
      499
 91
      503
 93
      121
310
905313A3130304000000000000594000
  0
ACAD_PROXY_OBJECT
  5
54
102
{ACAD_REACTORS
330
47
102
}
330
47
100
AcDbProxyObject
 90
      499
 91
      503
 93
      105
310
903323A310000000000000010100
  0
ACAD_PROXY_OBJECT
  5
55
102
{ACAD_REACTORS
330
47
102
}
330
47
100
AcDbProxyObject
 90
      499
 91
      503
 93
      105
310
903343A310000000000000410100
  0
ACAD_PROXY_OBJECT
  5
56
102
{ACAD_REACTORS
330
47
102
}
330
47
100
AcDbProxyObject
 90
      499
 91
      503
 93
      105
310
903383A310000000000000810100
  0
ACAD_PROXY_OBJECT
  5
57
102
{ACAD_REACTORS
330
47
102
}
330
47
100
AcDbProxyObject
 90
      499
 91
      503
 93
      113
310
90431303A310000000000000910100
  0
ACAD_PROXY_OBJECT
  5
58
102
{ACAD_REACTORS
330
47
102
}
330
47
100
AcDbProxyObject
 90
      499
 91
      503
 93
      121
310
9053130303A310000000000001650100
  0
ACAD_PROXY_OBJECT
  5
59
102
{ACAD_REACTORS
330
47
102
}
330
47
100
AcDbProxyObject
 90
      499
 91
      503
 93
      257
310
90E312F31323822203D2031272D3022000000000000200FC000000000000284000
  0
ACAD_PROXY_OBJECT
  5
5A
102
{ACAD_REACTORS
330
47
102
}
330
47
100
AcDbProxyObject
 90
      499
 91
      503
 93
      249
310
90D312F363422203D2031272D3022000000000000240FC000000000000284000
  0
ACAD_PROXY_OBJECT
  5
5B
102
{ACAD_REACTORS
330
47
102
}
330
47
100
AcDbProxyObject
 90
      499
 91
      503
 93
      249
310
90D312F333222203D2031272D3022000000000000280FC000000000000284000
  0
ACAD_PROXY_OBJECT
  5
5C
102
{ACAD_REACTORS
330
47
102
}
330
47
100
AcDbProxyObject
 90
      499
 91
      503
 93
      249
310
90D312F313622203D2031272D30220000000000002C0FC000000000000284000
  0
ACAD_PROXY_OBJECT
  5
5D
102
{ACAD_REACTORS
330
47
102
}
330
47
100
AcDbProxyObject
 90
      499
 91
      503
 93
      249
310
90D332F333222203D2031272D30220000000000002E0FC000000000000284000
  0
ACAD_PROXY_OBJECT
  5
5E
102
{ACAD_REACTORS
330
47
102
}
330
47
100
AcDbProxyObject
 90
      499
 91
      503
 93
      241
310
90C312F3822203D2031272D3022000000000000300FC000000000000284000
  0
ACAD_PROXY_OBJECT
  5
5F
102
{ACAD_REACTORS
330
47
102
}
330
47
100
AcDbProxyObject
 90
      499
 91
      503
 93
      249
310
90D332F313622203D2031272D3022000000000000320FC000000000000284000
  0
ACAD_PROXY_OBJECT
  5
60
102
{ACAD_REACTORS
330
47
102
}
330
47
100
AcDbProxyObject
 90
      499
 91
      503
 93
      241
310
90C312F3422203D2031272D3022000000000000340FC000000000000284000
  0
ACAD_PROXY_OBJECT
  5
61
102
{ACAD_REACTORS
330
47
102
}
330
47
100
AcDbProxyObject
 90
      499
 91
      503
 93
      241
310
90C332F3822203D2031272D3022000000000000360FC000000000000284000
  0
ACAD_PROXY_OBJECT
  5
62
102
{ACAD_REACTORS
330
47
102
}
330
47
100
AcDbProxyObject
 90
      499
 91
      503
 93
      241
310
90C312F3222203D2031272D3022000000000000380FC000000000000284000
  0
ACAD_PROXY_OBJECT
  5
63
102
{ACAD_REACTORS
330
47
102
}
330
47
100
AcDbProxyObject
 90
      499
 91
      503
 93
      241
310
90C332F3422203D2031272D30220000000000003A0FC000000000000284000
  0
ACAD_PROXY_OBJECT
  5
64
102
{ACAD_REACTORS
330
47
102
}
330
47
100
AcDbProxyObject
 90
      499
 91
      503
 93
      161
310
90A3122203D2031272D30224000000000000284000
  0
ACAD_PROXY_OBJECT
  5
65
102
{ACAD_REACTORS
330
47
102
}
330
47
100
AcDbProxyObject
 90
      499
 91
      503
 93
      257
310
90E312D312F3222203D2031272D30220000000000003E0FC000000000000284000
  0
ACAD_PROXY_OBJECT
  5
66
102
{ACAD_REACTORS
330
47
102
}
330
47
100
AcDbProxyObject
 90
      499
 91
      503
 93
      225
310
90A3322203D2031272D302200000000000002100000000000000284000
  0
ACAD_PROXY_OBJECT
  5
67
102
{ACAD_REACTORS
330
47
102
}
330
47
100
AcDbProxyObject
 90
      499
 91
      503
 93
      225
310
90A3622203D2031272D302200000000000006100000000000000284000
  0
ACAD_PROXY_OBJECT
  5
68
102
{ACAD_REACTORS
330
47
102
}
330
47
100
AcDbProxyObject
 90
      499
 91
      503
 93
      249
310
90D31272D3022203D2031272D30220000000000000A100000000000000284000
  0
ACAD_PROXY_OBJECT
  5
2F
102
{ACAD_REACTORS
330
2A
102
}
330
2A
100
AcDbProxyObject
 90
      499
 91
      501
 93
      436
310
42CC9915DA5C99599C985B595049028333333333333E33F0000000000000F90107901411070040501600405405064090741402480A0340
1001
ACAD
1000
AcDbSavedByObjectVersion
1070
     0
  0
ACAD_PROXY_OBJECT
  5
32
102
{ACAD_REACTORS
330
2A
102
}
330
2A
100
AcDbProxyObject
 90
      499
 91
      501
 93
      388
310
4150985CDA58D07406404333333333333E33F0000000000000F90107A41107004050150841D405064090741402480A0350
1001
ACAD
1000
AcDbSavedByObjectVersion
1070
     0
  0
ACAD_PROXY_OBJECT
  5
36
102
{ACAD_REACTORS
330
2A
102
}
330
2A
100
AcDbProxyObject
 90
      499
 91
      501
 93
      428
310
42109C9A59DA1D195B90C409028333333333333E33F0000000000000F9010790141107004050150841D405064090741402480A029950
1001
ACAD
1000
AcDbSavedByObjectVersion
1070
     0
  0
ACAD_PROXY_OBJECT
  5
3A
102
{ACAD_REACTORS
330
2A
102
}
330
2A
100
AcDbProxyObject
 90
      499
 91
      501
 93
      452
310
42D0DBDB1BDC90DA185B99D95104090240C333333333333E33F0000000000000F90108901411070040501508421405064090741402480A0350
1001
ACAD
1000
AcDbSavedByObjectVersion
1070
     0
  0
ACAD_PROXY_OBJECT
  5
34
102
{ACAD_REACTORS
330
2A
102
}
330
2A
100
AcDbProxyObject
 90
      499
 91
      501
 93
      500
310
4290DBDB98D95C1D1D585B10940D028333333333333E33F0000000000000F90107902409070040501000000000018199010841D405064090740C02480A0340
1001
ACAD
1000
AcDbSavedByObjectVersion
1070
     0
  0
ACAD_PROXY_OBJECT
  5
35
102
{ACAD_REACTORS
330
2A
102
}
330
2A
100
AcDbProxyObject
 90
      499
 91
      501
 93
      412
310
40D11A5B50B409028333333333333E33F0000000000000F9010790141107004050150841D405064090741402480A02677FFFFFD0
1001
ACAD
1000
AcDbSavedByObjectVersion
1070
     0
  0
ACAD_PROXY_OBJECT
  5
3D
102
{ACAD_REACTORS
330
2A
102
}
330
2A
100
AcDbProxyObject
 90
      499
 91
      501
 93
      452
310
43115919D950DBDB1BDC93D999916409028333333333333E33F0000000000000F9010790141107004050150841D405064090741402480A0350
1001
ACAD
1000
AcDbSavedByObjectVersion
1070
     0
  0
ACAD_PROXY_OBJECT
  5
39
102
{ACAD_REACTORS
330
2A
102
}
330
2A
100
AcDbProxyObject
 90
      499
 91
      501
 93
      444
310
42D19858D95C185D1D195C9B90F409028333333333333E33F0000000000000F9010790141107004050150841D405064090741402480A0350
1001
ACAD
1000
AcDbSavedByObjectVersion
1070
     0
  0
ACAD_PROXY_OBJECT
  5
2B
102
{ACAD_REACTORS
330
2A
102
}
330
2A
100
AcDbProxyObject
 90
      499
 91
      501
 93
      380
310
41119B185D240901404333333333333E33F0000000000000F9010740A907004050150841D405064090741402480A1B50
1001
ACAD
1000
AcDbSavedByObjectVersion
1070
     0
  0
ACAD_PROXY_OBJECT
  5
2C
102
{ACAD_REACTORS
330
2A
102
}
330
2A
100
AcDbProxyObject
 90
      499
 91
      501
 93
      468
310
43519B185D15DA5D1A115919D95CD0140901404333333333333E33F0000000000000F90107409019070040501600405405064090741402480A1B50
1001
ACAD
1000
AcDbSavedByObjectVersion
1070
     0
  0
ACAD_PROXY_OBJECT
  5
2D
102
{ACAD_REACTORS
330
2A
102
}
330
2A
100
AcDbProxyObject
 90
      499
 91
      501
 93
      404
310
41D1DBDD5C985D5910240902404333333333333E33F0000000000000F9010740A9070040501641D405064090741402480A1B50
1001
ACAD
1000
AcDbSavedByObjectVersion
1070
     0
  0
ACAD_PROXY_OBJECT
  5
2E
102
{ACAD_REACTORS
330
2A
102
}
330
2A
100
AcDbProxyObject
 90
      499
 91
      501
 93
      492
310
4411DBDD5C985D5915DA5D1A115919D95CD0340902404333333333333E33F0000000000000F90107409019070040501600405405064090741402480A1B50
1001
ACAD
1000
AcDbSavedByObjectVersion
1070
     0
  0
ACAD_PROXY_OBJECT
  5
31
102
{ACAD_REACTORS
330
2A
102
}
330
2A
100
AcDbProxyObject
 90
      499
 91
      501
 93
      476
310
41921A5919195B90640502408333333333333E33F0000000000000F901079024090700405020000000000001110200405405064090740C02480A0340
1001
ACAD
1000
AcDbSavedByObjectVersion
1070
     0
  0
ACAD_PROXY_OBJECT
  5
3B
102
{ACAD_REACTORS
330
2A
102
}
330
2A
100
AcDbProxyObject
 90
      499
 91
      501
 93
      428
310
42529A5D1D195C93D999914409028333333333333E33F0000000000000F9010790141107004050150A41D405064090741402480A0350
1001
ACAD
1000
AcDbSavedByObjectVersion
1070
     0
  0
ACAD_PROXY_OBJECT
  5
38
102
{ACAD_REACTORS
330
2A
102
}
330
2A
100
AcDbProxyObject
 90
      499
 91
      501
 93
      444
310
42D31A5B995C185D1D195C9B90E409028333333333333E33F0000000000000F9010790141107004050750841D405064090741402483A0350
1001
ACAD
1000
AcDbSavedByObjectVersion
1070
     0
  0
ACAD_PROXY_OBJECT
  5
3C
102
{ACAD_REACTORS
330
2A
102
}
330
2A
100
AcDbProxyObject
 90
      499
 91
      501
 93
      444
310
42D3DD995C9A185B99D3D999915409028333333333333E33F0000000000000F9010790141107004050150941D405064090741402480A0350
1001
ACAD
1000
AcDbSavedByObjectVersion
1070
     0
  0
ACAD_PROXY_OBJECT
  5
33
102
{ACAD_REACTORS
330
2A
102
}
330
2A
100
AcDbProxyObject
 90
      499
 91
      501
 93
      428
310
425499585B1A5CDD1A58D08409038333333333333E33F0000000000000F9010740A907004050150800405405064090740C02480A1B40
1001
ACAD
1000
AcDbSavedByObjectVersion
1070
     0
  0
ACAD_PROXY_OBJECT
  5
42
102
{ACAD_REACTORS
330
2A
102
}
330
2A
100
AcDbProxyObject
 90
      499
 91
      501
 93
      420
310
4194DA1859195911B40902404333333333333E33F0000000000000F9010740A41107004050150800405405064090840C02480A0B40
1001
ACAD
1000
AcDbSavedByObjectVersion
1070
     0
  0
ACAD_PROXY_OBJECT
  5
41
102
{ACAD_REACTORS
330
2A
102
}
330
2A
100
AcDbProxyObject
 90
      499
 91
      501
 93
      516
310
4454DA18591959081DDA5D1A08195919D95CD1A40902404333333333333E33F0000000000000F901074090142907004050250800405405064090740C02480A0B40
1001
ACAD
1000
AcDbSavedByObjectVersion
1070
     0
  0
ACAD_PROXY_OBJECT
  5
3E
102
{ACAD_REACTORS
330
2A
102
}
330
2A
100
AcDbProxyObject
 90
      499
 91
      501
 93
      532
310
4394DA1859195CC81BD98811DC985E5174090240C333333333333E33F0000000000000F901079024090741D01000000000000111010841D405064090740C02480A0340
1001
ACAD
1000
AcDbSavedByObjectVersion
1070
     0
  0
ACAD_PROXY_OBJECT
  5
3F
102
{ACAD_REACTORS
330
2A
102
}
330
2A
100
AcDbProxyObject
 90
      499
 91
      501
 93
      476
310
41D4DAD95D18DA1E51840502408333333333333E33F0000000000000F901079024090741D01000000000000111010B41D405064090741802480A0340
1001
ACAD
1000
AcDbSavedByObjectVersion
1070
     0
  0
ACAD_PROXY_OBJECT
  5
37
102
{ACAD_REACTORS
330
2A
102
}
330
2A
100
AcDbProxyObject
 90
      499
 91
      501
 93
      412
310
41D51A1A58DAD95B90D409028333333333333E33F0000000000000F9010790141107004050150C41D405064090741402480A0350
1001
ACAD
1000
AcDbSavedByObjectVersion
1070
     0
  0
ACAD_PROXY_OBJECT
  5
30
102
{ACAD_REACTORS
330
2A
102
}
330
2A
100
AcDbProxyObject
 90
      499
 91
      501
 93
      420
310
4255DA5C99599C985B595059028333333333333E33F0000000000000F90107901411070040501600405405064090740C02480A0340
1001
ACAD
1000
AcDbSavedByObjectVersion
1070
     0
  0
ACAD_PROXY_OBJECT
  5
40
102
{ACAD_REACTORS
330
2A
102
}
330
2A
100
AcDbProxyObject
 90
      499
 91
      501
 93
      404
310
41560B54985E51940902404000000000000E03F0000000000000F9010740501907004050150841D405064090740C02480A1B40
1001
ACAD
1000
AcDbSavedByObjectVersion
1070
     0
  0
XRECORD
  5
5D9
102
{ACAD_REACTORS
330
5CF
102
}
330
5CF
100
AcDbXrecord
340
0
  0
XRECORD
  5
5D8
102
{ACAD_REACTORS
330
5CF
102
}
330
5CF
100
AcDbXrecord
 90
        0
  0
XRECORD
  5
5EF
102
{ACAD_REACTORS
330
5CF
102
}
330
5CF
100
AcDbXrecord
1000
DSTYLE
1002
{
1070
   340
340
11
1002
}
  0
XRECORD
  5
5DA
102
{ACAD_REACTORS
330
5CF
102
}
330
5CF
100
AcDbXrecord
  1
{6606e6b0-1eae-4d0b-9eec-e9fe333b78de}
  0
XRECORD
  5
5D2
102
{ACAD_REACTORS
330
5CF
102
}
330
5CF
100
AcDbXrecord
  1

  0
XRECORD
  5
5D7
102
{ACAD_REACTORS
330
5CF
102
}
330
5CF
100
AcDbXrecord
 90
        4
  0
XRECORD
  5
5D4
102
{ACAD_REACTORS
330
5CF
102
}
330
5CF
100
AcDbXrecord
340
1A
  0
XRECORD
  5
5D6
102
{ACAD_REACTORS
330
5CF
102
}
330
5CF
100
AcDbXrecord
 90
    10781
  0
XRECORD
  5
5D5
102
{ACAD_REACTORS
330
5CF
102
}
330
5CF
100
AcDbXrecord
340
19
  0
XRECORD
  5
5DC
102
{ACAD_REACTORS
330
5CF
102
}
330
5CF
100
AcDbXrecord
 40
0.0
  0
XRECORD
  5
5DF
102
{ACAD_REACTORS
330
5CF
102
}
330
5CF
100
AcDbXrecord
340
0
  0
XRECORD
  5
5E5
102
{ACAD_REACTORS
330
5CF
102
}
330
5CF
100
AcDbXrecord
 10
0.0
 20
0.0
 30
0.0
  0
XRECORD
  5
5E1
102
{ACAD_REACTORS
330
5CF
102
}
330
5CF
100
AcDbXrecord
 10
0.0
 20
0.0
 30
0.0
  0
XRECORD
  5
5E4
102
{ACAD_REACTORS
330
5CF
102
}
330
5CF
100
AcDbXrecord
 10
0.0
 20
0.0
 30
0.0
  0
XRECORD
  5
5E2
102
{ACAD_REACTORS
330
5CF
102
}
330
5CF
100
AcDbXrecord
 10
0.0
 20
0.0
 30
0.0
  0
XRECORD
  5
5E3
102
{ACAD_REACTORS
330
5CF
102
}
330
5CF
100
AcDbXrecord
 10
0.0
 20
0.0
 30
0.0
  0
XRECORD
  5
5E0
102
{ACAD_REACTORS
330
5CF
102
}
330
5CF
100
AcDbXrecord
 10
0.0
 20
0.0
 30
0.0
  0
XRECORD
  5
5DD
102
{ACAD_REACTORS
330
5CF
102
}
330
5CF
100
AcDbXrecord
340
0
  0
XRECORD
  5
5DE
102
{ACAD_REACTORS
330
5CF
102
}
330
5CF
100
AcDbXrecord
 70
     0
  0
XRECORD
  5
5D3
102
{ACAD_REACTORS
330
5CF
102
}
330
5CF
100
AcDbXrecord
  1

  0
XRECORD
  5
5D0
102
{ACAD_REACTORS
330
5CF
102
}
330
5CF
100
AcDbXrecord
 90
        1
  0
XRECORD
  5
5D1
102
{ACAD_REACTORS
330
5CF
102
}
330
5CF
100
AcDbXrecord
 90
       70
  0
XRECORD
  5
5E8
102
{ACAD_REACTORS
330
5CF
102
}
330
5CF
100
AcDbXrecord
340
0
  0
XRECORD
  5
5EE
102
{ACAD_REACTORS
330
5CF
102
}
330
5CF
100
AcDbXrecord
 10
0.0
 20
0.0
 30
0.0
  0
XRECORD
  5
5EA
102
{ACAD_REACTORS
330
5CF
102
}
330
5CF
100
AcDbXrecord
 10
0.0
 20
0.0
 30
0.0
  0
XRECORD
  5
5ED
102
{ACAD_REACTORS
330
5CF
102
}
330
5CF
100
AcDbXrecord
 10
0.0
 20
0.0
 30
0.0
  0
XRECORD
  5
5EB
102
{ACAD_REACTORS
330
5CF
102
}
330
5CF
100
AcDbXrecord
 10
0.0
 20
0.0
 30
0.0
  0
XRECORD
  5
5EC
102
{ACAD_REACTORS
330
5CF
102
}
330
5CF
100
AcDbXrecord
 10
0.0
 20
0.0
 30
0.0
  0
XRECORD
  5
5E9
102
{ACAD_REACTORS
330
5CF
102
}
330
5CF
100
AcDbXrecord
 10
0.0
 20
0.0
 30
0.0
  0
XRECORD
  5
5E6
102
{ACAD_REACTORS
330
5CF
102
}
330
5CF
100
AcDbXrecord
340
0
  0
XRECORD
  5
5E7
102
{ACAD_REACTORS
330
5CF
102
}
330
5CF
100
AcDbXrecord
 70
     0
  0
XRECORD
  5
5DB
102
{ACAD_REACTORS
330
5CF
102
}
330
5CF
100
AcDbXrecord
  1
{FAEB1C32-E019-11D5-929B-00C0DF256EC4}
  0
DICTIONARYVAR
  5
5FD
102
{ACAD_REACTORS
330
5F0
102
}
330
5F0
100
DictionaryVariables
280
     0
  1
1:1
  0
DICTIONARYVAR
  5
5F7
102
{ACAD_REACTORS
330
5F0
102
}
330
5F0
100
DictionaryVariables
280
     0
  1
3.500000
  0
DICTIONARYVAR
  5
5F8
102
{ACAD_REACTORS
330
5F0
102
}
330
5F0
100
DictionaryVariables
280
     0
  1
acadiso.lin
  0
DICTIONARYVAR
  5
5F2
102
{ACAD_REACTORS
330
5F0
102
}
330
5F0
100
DictionaryVariables
280
     0
  1
Standard
  0
DICTIONARYVAR
  5
5F1
102
{ACAD_REACTORS
330
5F0
102
}
330
5F0
100
DictionaryVariables
280
     0
  1
Standard
  0
DICTIONARYVAR
  5
5F9
102
{ACAD_REACTORS
330
5F0
102
}
330
5F0
100
DictionaryVariables
280
     0
  1
2
  0
DICTIONARYVAR
  5
5FA
102
{ACAD_REACTORS
330
5F0
102
}
330
5F0
100
DictionaryVariables
280
     0
  1
1
  0
DICTIONARYVAR
  5
5FE
102
{ACAD_REACTORS
330
5F0
102
}
330
5F0
100
DictionaryVariables
280
     0
  1
1
  0
DICTIONARYVAR
  5
5F4
102
{ACAD_REACTORS
330
5F0
102
}
330
5F0
100
DictionaryVariables
280
     0
  1
80.000000
  0
DICTIONARYVAR
  5
5F3
102
{ACAD_REACTORS
330
5F0
102
}
330
5F0
100
DictionaryVariables
280
     0
  1
5.000000
  0
DICTIONARY
  5
601
330
45
100
AcDbDictionary
280
     1
  3
ACAD_XREC_ROUNDTRIP
360
602
  0
DICTIONARY
  5
5FF
330
44
100
AcDbDictionary
280
     1
  3
ACAD_XREC_ROUNDTRIP
360
600
  0
DICTIONARY
  5
603
330
46
100
AcDbDictionary
280
     1
  3
ACAD_XREC_ROUNDTRIP
360
604
  0
XRECORD
  5
602
102
{ACAD_REACTORS
330
601
102
}
330
601
100
AcDbXrecord
102
MATERIAL
148
0.0
149
0.0
149
0.0
 93
        0
 94
      127
282
     0
 72
     1
 77
     1
171
     1
175
     1
179
     1
273
     0
  0
XRECORD
  5
600
102
{ACAD_REACTORS
330
5FF
102
}
330
5FF
100
AcDbXrecord
102
MATERIAL
148
0.0
149
0.0
149
0.0
 93
        0
 94
      127
282
     0
 72
     1
 77
     1
171
     1
175
     1
179
     1
273
     0
  0
XRECORD
  5
604
102
{ACAD_REACTORS
330
603
102
}
330
603
100
AcDbXrecord
102
MATERIAL
148
0.0
149
0.0
149
0.0
 93
        0
 94
      127
282
     0
 72
     1
 77
     1
171
     1
175
     1
179
     1
273
     0
  0
ENDSEC
  0
EOF
