  0
SECTION
  2
HEADER
  9
$ACADVER
  1
AC1014
  9
$ACADMAINTVER
 70
     9
  9
$DWGCODEPAGE
  3
ANSI_932
  9
$INSBASE
 10
0.0
 20
0.0
 30
0.0
  9
$EXTMIN
 10
150.0
 20
150.0
 30
0.0
  9
$EXTMAX
 10
6150.0
 20
4305.0
 30
0.0
  9
$LIMMIN
 10
0.0
 20
0.0
  9
$LIMMAX
 10
420.0
 20
297.0
  9
$ORTHOMODE
 70
     0
  9
$REGENMODE
 70
     1
  9
$FILLMODE
 70
     1
  9
$QTEXTMODE
 70
     0
  9
$MIRRTEXT
 70
     1
  9
$DRAGMODE
 70
     2
  9
$LTSCALE
 40
1.0
  9
$OSMODE
 70
    37
  9
$ATTMODE
 70
     1
  9
$TEXTSIZE
 40
2.5
  9
$TRACEWID
 40
1.0
  9
$TEXTSTYLE
  7
STANDARD
  9
$CLAYER
  8
Ｓ_１_１
  9
$CELTYPE
  6
BYLAYER
  9
$CECOLOR
 62
   256
  9
$CELTSCALE
 40
1.0
  9
$DELOBJ
 70
     1
  9
$DISPSILH
 70
     0
  9
$DIMSCALE
 40
1.0
  9
$DIMASZ
 40
2.5
  9
$DIMEXO
 40
0.625
  9
$DIMDLI
 40
3.75
  9
$DIMRND
 40
0.0
  9
$DIMDLE
 40
0.0
  9
$DIMEXE
 40
1.25
  9
$DIMTP
 40
0.0
  9
$DIMTM
 40
0.0
  9
$DIMTXT
 40
2.5
  9
$DIMCEN
 40
2.5
  9
$DIMTSZ
 40
0.0
  9
$DIMTOL
 70
     0
  9
$DIMLIM
 70
     0
  9
$DIMTIH
 70
     0
  9
$DIMTOH
 70
     0
  9
$DIMSE1
 70
     0
  9
$DIMSE2
 70
     0
  9
$DIMTAD
 70
     1
  9
$DIMZIN
 70
     8
  9
$DIMBLK
  1

  9
$DIMASO
 70
     1
  9
$DIMSHO
 70
     1
  9
$DIMPOST
  1

  9
$DIMAPOST
  1

  9
$DIMALT
 70
     0
  9
$DIMALTD
 70
     3
  9
$DIMALTF
 40
0.03937007874016
  9
$DIMLFAC
 40
1.0
  9
$DIMTOFL
 70
     1
  9
$DIMTVP
 40
0.0
  9
$DIMTIX
 70
     0
  9
$DIMSOXD
 70
     0
  9
$DIMSAH
 70
     0
  9
$DIMBLK1
  1

  9
$DIMBLK2
  1

  9
$DIMSTYLE
  2
ISO-25
  9
$DIMCLRD
 70
     0
  9
$DIMCLRE
 70
     0
  9
$DIMCLRT
 70
     0
  9
$DIMTFAC
 40
1.0
  9
$DIMGAP
 40
0.625
  9
$DIMJUST
 70
     0
  9
$DIMSD1
 70
     0
  9
$DIMSD2
 70
     0
  9
$DIMTOLJ
 70
     0
  9
$DIMTZIN
 70
     8
  9
$DIMALTZ
 70
     0
  9
$DIMALTTZ
 70
     0
  9
$DIMFIT
 70
     3
  9
$DIMUPT
 70
     0
  9
$DIMUNIT
 70
     2
  9
$DIMDEC
 70
     2
  9
$DIMTDEC
 70
     2
  9
$DIMALTU
 70
     2
  9
$DIMALTTD
 70
     3
  9
$DIMTXSTY
  7
STANDARD
  9
$DIMAUNIT
 70
     0
  9
$LUNITS
 70
     2
  9
$LUPREC
 70
     4
  9
$SKETCHINC
 40
1.0
  9
$FILLETRAD
 40
10.0
  9
$AUNITS
 70
     0
  9
$AUPREC
 70
     0
  9
$MENU
  1
.
  9
$ELEVATION
 40
0.0
  9
$PELEVATION
 40
0.0
  9
$THICKNESS
 40
0.0
  9
$LIMCHECK
 70
     0
  9
$CHAMFERA
 40
0.0
  9
$CHAMFERB
 40
0.0
  9
$CHAMFERC
 40
0.0
  9
$CHAMFERD
 40
0.0
  9
$SKPOLY
 70
     0
  9
$TDCREATE
 40
2459585.499557592
  9
$TDUPDATE
 40
2459585.499558333
  9
$TDINDWG
 40
0.0000000116
  9
$TDUSRTIMER
 40
0.0000000116
  9
$USRTIMER
 70
     1
  9
$ANGBASE
 50
0.0
  9
$ANGDIR
 70
     0
  9
$PDMODE
 70
     0
  9
$PDSIZE
 40
0.0
  9
$PLINEWID
 40
0.0
  9
$COORDS
 70
     1
  9
$SPLFRAME
 70
     0
  9
$SPLINETYPE
 70
     6
  9
$SPLINESEGS
 70
     8
  9
$ATTDIA
 70
     0
  9
$ATTREQ
 70
     1
  9
$HANDLING
 70
     1
  9
$HANDSEED
  5
5D3
  9
$SURFTAB1
 70
     6
  9
$SURFTAB2
 70
     6
  9
$SURFTYPE
 70
     6
  9
$SURFU
 70
     6
  9
$SURFV
 70
     6
  9
$UCSNAME
  2

  9
$UCSORG
 10
0.0
 20
0.0
 30
0.0
  9
$UCSXDIR
 10
1.0
 20
0.0
 30
0.0
  9
$UCSYDIR
 10
0.0
 20
1.0
 30
0.0
  9
$PUCSNAME
  2

  9
$PUCSORG
 10
0.0
 20
0.0
 30
0.0
  9
$PUCSXDIR
 10
1.0
 20
0.0
 30
0.0
  9
$PUCSYDIR
 10
0.0
 20
1.0
 30
0.0
  9
$USERI1
 70
     0
  9
$USERI2
 70
     0
  9
$USERI3
 70
     0
  9
$USERI4
 70
     0
  9
$USERI5
 70
     0
  9
$USERR1
 40
0.0
  9
$USERR2
 40
0.0
  9
$USERR3
 40
0.0
  9
$USERR4
 40
0.0
  9
$USERR5
 40
0.0
  9
$WORLDVIEW
 70
     1
  9
$SHADEDGE
 70
     3
  9
$SHADEDIF
 70
    70
  9
$TILEMODE
 70
     1
  9
$MAXACTVP
 70
    64
  9
$PINSBASE
 10
0.0
 20
0.0
 30
0.0
  9
$PLIMCHECK
 70
     0
  9
$PEXTMIN
 10
1.000000000000000E+20
 20
1.000000000000000E+20
 30
1.000000000000000E+20
  9
$PEXTMAX
 10
-1.000000000000000E+20
 20
-1.000000000000000E+20
 30
-1.000000000000000E+20
  9
$PLIMMIN
 10
0.0
 20
0.0
  9
$PLIMMAX
 10
420.0
 20
297.0
  9
$UNITMODE
 70
     0
  9
$VISRETAIN
 70
     1
  9
$PLINEGEN
 70
     0
  9
$PSLTSCALE
 70
     1
  9
$TREEDEPTH
 70
  3020
  9
$PICKSTYLE
 70
     1
  9
$CMLSTYLE
  2
STANDARD
  9
$CMLJUST
 70
     0
  9
$CMLSCALE
 40
20.0
  9
$PROXYGRAPHICS
 70
     1
  9
$MEASUREMENT
 70
     1
  0
ENDSEC
  0
SECTION
  2
CLASSES
  0
CLASS
  1
ACDBDICTIONARYWDFLT
  2
AcDbDictionaryWithDefault
  3
ObjectDBX Classes
 90
        0
280
     0
281
     0
  0
CLASS
  1
VISUALSTYLE
  2
AcDbVisualStyle
  3
ObjectDBX Classes
 90
     4095
280
     0
281
     0
  0
CLASS
  1
MATERIAL
  2
AcDbMaterial
  3
ObjectDBX Classes
 90
     1153
280
     0
281
     0
  0
CLASS
  1
SCALE
  2
AcDbScale
  3
ObjectDBX Classes
 90
     1153
280
     0
281
     0
  0
CLASS
  1
TABLESTYLE
  2
AcDbTableStyle
  3
ObjectDBX Classes
 90
     4095
280
     0
281
     0
  0
CLASS
  1
MLEADERSTYLE
  2
AcDbMLeaderStyle
  3
ACDB_MLEADERSTYLE_CLASS
 90
     4095
280
     0
281
     0
  0
CLASS
  1
SUN
  2
AcDbSun
  3
SCENEOE
 90
     1153
280
     0
281
     0
  0
CLASS
  1
DICTIONARYVAR
  2
AcDbDictionaryVar
  3
ObjectDBX Classes
 90
        0
280
     0
281
     0
  0
CLASS
  1
XRECORD
  2
AcDbXrecord
  3
ObjectDBX Classes
 90
        0
280
     0
281
     0
  0
CLASS
  1
LWPOLYLINE
  2
AcDbPolyline
  3
ObjectDBX Classes
 90
        0
280
     0
281
     1
  0
CLASS
  1
HATCH
  2
AcDbHatch
  3
ObjectDBX Classes
 90
        0
280
     0
281
     1
  0
CLASS
  1
ACDBPLACEHOLDER
  2
AcDbPlaceHolder
  3
ObjectDBX Classes
 90
        0
280
     0
281
     0
  0
CLASS
  1
LAYOUT
  2
AcDbLayout
  3
ObjectDBX Classes
 90
        0
280
     0
281
     0
  0
ENDSEC
  0
SECTION
  2
TABLES
  0
TABLE
  2
VPORT
  5
8
102
{ACAD_XDICTIONARY
360
5C8
102
}
330
0
100
AcDbSymbolTable
 70
     1
  0
VPORT
  5
29
330
8
100
AcDbSymbolTableRecord
100
AcDbViewportTableRecord
  2
*ACTIVE
 70
     0
 10
0.0
 20
0.0
 11
1.0
 21
1.0
 12
3150.0
 22
2227.5
 13
0.0
 23
0.0
 14
10.0
 24
10.0
 15
10.0
 25
10.0
 16
0.0
 26
0.0
 36
1.0
 17
0.0
 27
0.0
 37
0.0
 40
4155.0
 41
1.444043321299639
 42
50.0
 43
0.0
 44
0.0
 50
0.0
 51
0.0
 71
     0
 72
  1000
 73
     1
 74
     3
 75
     0
 76
     0
 77
     0
 78
     0
  0
ENDTAB
  0
TABLE
  2
LTYPE
  5
5
330
0
100
AcDbSymbolTable
 70
     7
  0
LTYPE
  5
14
330
5
100
AcDbSymbolTableRecord
100
AcDbLinetypeTableRecord
  2
BYBLOCK
 70
     0
  3

 72
    65
 73
     0
 40
0.0
  0
LTYPE
  5
15
330
5
100
AcDbSymbolTableRecord
100
AcDbLinetypeTableRecord
  2
BYLAYER
 70
     0
  3

 72
    65
 73
     0
 40
0.0
  0
LTYPE
  5
16
330
5
100
AcDbSymbolTableRecord
100
AcDbLinetypeTableRecord
  2
CONTINUOUS
 70
     0
  3
Solid line
 72
    65
 73
     0
 40
0.0
  0
LTYPE
  5
6E
330
5
100
AcDbSymbolTableRecord
100
AcDbLinetypeTableRecord
  2
EXLTYPE0
 70
     0
  3
破線
 72
    65
 73
     2
 40
4.0
 49
3.0
 74
     0
 49
-1.0
 74
     0
  0
LTYPE
  5
6F
330
5
100
AcDbSymbolTableRecord
100
AcDbLinetypeTableRecord
  2
EXLTYPE1
 70
     0
  3
点線
 72
    65
 73
     2
 40
2.0
 49
1.0
 74
     0
 49
-1.0
 74
     0
  0
LTYPE
  5
70
330
5
100
AcDbSymbolTableRecord
100
AcDbLinetypeTableRecord
  2
EXLTYPE2
 70
     0
  3
一点鎖線
 72
    65
 73
     4
 40
13.0
 49
10.0
 74
     0
 49
-1.0
 74
     0
 49
1.0
 74
     0
 49
-1.0
 74
     0
  0
LTYPE
  5
71
330
5
100
AcDbSymbolTableRecord
100
AcDbLinetypeTableRecord
  2
EXLTYPE3
 70
     0
  3
二点鎖線
 72
    65
 73
     6
 40
15.0
 49
10.0
 74
     0
 49
-1.0
 74
     0
 49
1.0
 74
     0
 49
-1.0
 74
     0
 49
1.0
 74
     0
 49
-1.0
 74
     0
  0
LTYPE
  5
72
330
5
100
AcDbSymbolTableRecord
100
AcDbLinetypeTableRecord
  2
EXLTYPE4
 70
     0
  3
一点鎖線2
 72
    65
 73
     4
 40
3.5
 49
2.0
 74
     0
 49
-0.5
 74
     0
 49
0.5
 74
     0
 49
-0.5
 74
     0
  0
LTYPE
  5
73
330
5
100
AcDbSymbolTableRecord
100
AcDbLinetypeTableRecord
  2
EXLTYPE5
 70
     0
  3
二点鎖線2
 72
    65
 73
     6
 40
4.5
 49
2.0
 74
     0
 49
-0.5
 74
     0
 49
0.5
 74
     0
 49
-0.5
 74
     0
 49
0.5
 74
     0
 49
-0.5
 74
     0
  0
ENDTAB
  0
TABLE
  2
LAYER
  5
2
330
0
100
AcDbSymbolTable
 70
     4
  0
LAYER
  5
10
330
2
100
AcDbSymbolTableRecord
100
AcDbLayerTableRecord
  2
0
 70
     0
 62
     7
  6
CONTINUOUS
  0
LAYER
  5
76
330
2
100
AcDbSymbolTableRecord
100
AcDbLayerTableRecord
  2
図面枠
 70
     4
 62
     7
  6
CONTINUOUS
  0
LAYER
  5
77
330
2
100
AcDbSymbolTableRecord
100
AcDbLayerTableRecord
  2
Ｓ_１_１
 70
     0
 62
     7
  6
CONTINUOUS
  0
LAYER
  5
F4
330
2
100
AcDbSymbolTableRecord
100
AcDbLayerTableRecord
  2
DEFPOINTS
 70
     0
 62
     7
  6
CONTINUOUS
  0
ENDTAB
  0
TABLE
  2
STYLE
  5
3
330
0
100
AcDbSymbolTable
 70
     5
  0
STYLE
  5
11
330
3
100
AcDbSymbolTableRecord
100
AcDbTextStyleTableRecord
  2
STANDARD
 70
     0
 40
0.0
 41
1.0
 50
0.0
 71
     0
 42
2.5
  3
monotxt
  4
extfont
  0
STYLE
  5
74
330
3
100
AcDbSymbolTableRecord
100
AcDbTextStyleTableRecord
  2
EXCADSTD
 70
     0
 40
0.0
 41
1.0
 50
0.0
 71
     0
 42
2.5
  3
monotxt
  4
extfont
  0
STYLE
  5
75
330
3
100
AcDbSymbolTableRecord
100
AcDbTextStyleTableRecord
  2
EXCADVERT
 70
     4
 40
0.0
 41
1.0
 50
0.0
 71
     0
 42
2.5
  3
monotxt
  4
extfont
  0
STYLE
  5
DA
330
3
100
AcDbSymbolTableRecord
100
AcDbTextStyleTableRecord
  2
EXCADTTF1
 70
     0
 40
0.0
 41
1.0
 50
0.0
 71
     0
 42
2.5
  3
msgothic.ttc
  4

1001
ACAD
1000
MS Gothic
1071
    32817
  0
STYLE
  5
F2
330
3
100
AcDbSymbolTableRecord
100
AcDbTextStyleTableRecord
  2
EXCADDIM1
 70
     0
 40
0.0
 41
1.0
 50
0.0
 71
     0
 42
2.5
  3
msgothic.ttc
  4

1001
ACAD
1000
MS Gothic
1071
    32817
  0
ENDTAB
  0
TABLE
  2
VIEW
  5
6
330
0
100
AcDbSymbolTable
 70
     0
  0
ENDTAB
  0
TABLE
  2
UCS
  5
7
330
0
100
AcDbSymbolTable
 70
     0
  0
ENDTAB
  0
TABLE
  2
APPID
  5
9
330
0
100
AcDbSymbolTable
 70
     2
  0
APPID
  5
12
330
9
100
AcDbSymbolTableRecord
100
AcDbRegAppTableRecord
  2
ACAD
 70
     0
  0
APPID
  5
5D2
330
9
100
AcDbSymbolTableRecord
100
AcDbRegAppTableRecord
  2
ACAD_MLEADERVER
 70
     0
  0
ENDTAB
  0
TABLE
  2
DIMSTYLE
  5
A
330
0
100
AcDbSymbolTable
 70
     1
  0
DIMSTYLE
105
27
102
{ACAD_REACTORS
330
F3
330
101
330
10D
330
11A
330
126
330
131
330
13D
330
14A
330
155
330
164
330
172
330
180
330
18F
330
19C
330
1B9
330
1C4
330
1E6
330
1F0
102
}
330
A
100
AcDbSymbolTableRecord
100
AcDbDimStyleTableRecord
  2
ISO-25
 70
     0
  3

  4

  5

  6

  7

 40
1.0
 41
2.5
 42
0.625
 43
3.75
 44
1.25
 45
0.0
 46
0.0
 47
0.0
 48
0.0
140
2.5
141
2.5
142
0.0
143
0.03937007874016
144
1.0
145
0.0
146
1.0
147
0.625
 71
     0
 72
     0
 73
     0
 74
     0
 75
     0
 76
     0
 77
     1
 78
     8
170
     0
171
     3
172
     1
173
     0
174
     0
175
     0
176
     0
177
     0
178
     0
270
     2
271
     2
272
     2
273
     2
274
     3
340
11
275
     0
280
     0
281
     0
282
     0
283
     0
284
     8
285
     0
286
     0
287
     5
288
     0
  0
ENDTAB
  0
TABLE
  2
BLOCK_RECORD
  5
1
330
0
100
AcDbSymbolTable
 70
    32
  0
BLOCK_RECORD
  5
1F
330
1
100
AcDbSymbolTableRecord
100
AcDbBlockTableRecord
  2
*MODEL_SPACE
  0
BLOCK_RECORD
  5
1B
330
1
100
AcDbSymbolTableRecord
100
AcDbBlockTableRecord
  2
*PAPER_SPACE
  0
BLOCK_RECORD
  5
78
330
1
100
AcDbSymbolTableRecord
100
AcDbBlockTableRecord
  2
EX_NORM
  0
BLOCK_RECORD
  5
7B
330
1
100
AcDbSymbolTableRecord
100
AcDbBlockTableRecord
  2
EX_BNORM
  0
BLOCK_RECORD
  5
7E
330
1
100
AcDbSymbolTableRecord
100
AcDbBlockTableRecord
  2
EX_BCIR
  0
BLOCK_RECORD
  5
81
330
1
100
AcDbSymbolTableRecord
100
AcDbBlockTableRecord
  2
EX_RCIVIL
  0
BLOCK_RECORD
  5
84
330
1
100
AcDbSymbolTableRecord
100
AcDbBlockTableRecord
  2
EX_SLANT
  0
BLOCK_RECORD
  5
87
330
1
100
AcDbSymbolTableRecord
100
AcDbBlockTableRecord
  2
EX_NONE
  0
BLOCK_RECORD
  5
8A
330
1
100
AcDbSymbolTableRecord
100
AcDbBlockTableRecord
  2
EX_CIVIL
  0
BLOCK_RECORD
  5
8D
330
1
100
AcDbSymbolTableRecord
100
AcDbBlockTableRecord
  2
EX_WCIR
  0
BLOCK_RECORD
  5
90
330
1
100
AcDbSymbolTableRecord
100
AcDbBlockTableRecord
  2
EX_WCIR2
  0
BLOCK_RECORD
  5
93
330
1
100
AcDbSymbolTableRecord
100
AcDbBlockTableRecord
  2
EX_WNORM
  0
BLOCK_RECORD
  5
96
330
1
100
AcDbSymbolTableRecord
100
AcDbBlockTableRecord
  2
EX_NNORM
  0
BLOCK_RECORD
  5
99
330
1
100
AcDbSymbolTableRecord
100
AcDbBlockTableRecord
  2
EX_BBOX
  0
BLOCK_RECORD
  5
9C
330
1
100
AcDbSymbolTableRecord
100
AcDbBlockTableRecord
  2
EX_WBOX
  0
BLOCK_RECORD
  5
9F
330
1
100
AcDbSymbolTableRecord
100
AcDbBlockTableRecord
  2
EX_INTEGRAL
  0
BLOCK_RECORD
  5
F5
330
1
100
AcDbSymbolTableRecord
100
AcDbBlockTableRecord
  2
*D15
  0
BLOCK_RECORD
  5
102
330
1
100
AcDbSymbolTableRecord
100
AcDbBlockTableRecord
  2
*D16
  0
BLOCK_RECORD
  5
10E
330
1
100
AcDbSymbolTableRecord
100
AcDbBlockTableRecord
  2
*D17
  0
BLOCK_RECORD
  5
11B
330
1
100
AcDbSymbolTableRecord
100
AcDbBlockTableRecord
  2
*D18
  0
BLOCK_RECORD
  5
127
330
1
100
AcDbSymbolTableRecord
100
AcDbBlockTableRecord
  2
*D19
  0
BLOCK_RECORD
  5
132
330
1
100
AcDbSymbolTableRecord
100
AcDbBlockTableRecord
  2
*D20
  0
BLOCK_RECORD
  5
13E
330
1
100
AcDbSymbolTableRecord
100
AcDbBlockTableRecord
  2
*D21
  0
BLOCK_RECORD
  5
14B
330
1
100
AcDbSymbolTableRecord
100
AcDbBlockTableRecord
  2
*D22
  0
BLOCK_RECORD
  5
156
330
1
100
AcDbSymbolTableRecord
100
AcDbBlockTableRecord
  2
*D23
  0
BLOCK_RECORD
  5
165
330
1
100
AcDbSymbolTableRecord
100
AcDbBlockTableRecord
  2
*D24
  0
BLOCK_RECORD
  5
173
330
1
100
AcDbSymbolTableRecord
100
AcDbBlockTableRecord
  2
*D25
  0
BLOCK_RECORD
  5
181
330
1
100
AcDbSymbolTableRecord
100
AcDbBlockTableRecord
  2
*D26
  0
BLOCK_RECORD
  5
190
330
1
100
AcDbSymbolTableRecord
100
AcDbBlockTableRecord
  2
*D27
  0
BLOCK_RECORD
  5
19D
330
1
100
AcDbSymbolTableRecord
100
AcDbBlockTableRecord
  2
*D28
  0
BLOCK_RECORD
  5
1BA
330
1
100
AcDbSymbolTableRecord
100
AcDbBlockTableRecord
  2
*D29
  0
BLOCK_RECORD
  5
1C5
330
1
100
AcDbSymbolTableRecord
100
AcDbBlockTableRecord
  2
*D30
  0
BLOCK_RECORD
  5
1E7
330
1
100
AcDbSymbolTableRecord
100
AcDbBlockTableRecord
  2
*D31
  0
BLOCK_RECORD
  5
1F1
330
1
100
AcDbSymbolTableRecord
100
AcDbBlockTableRecord
  2
*D32
  0
ENDTAB
  0
ENDSEC
  0
SECTION
  2
BLOCKS
  0
BLOCK
  5
20
330
1F
100
AcDbEntity
  8
0
100
AcDbBlockBegin
  2
*MODEL_SPACE
 70
     0
 10
0.0
 20
0.0
 30
0.0
  3
*MODEL_SPACE
  1

  0
ENDBLK
  5
21
330
1F
100
AcDbEntity
  8
0
100
AcDbBlockEnd
  0
BLOCK
  5
1C
330
1B
100
AcDbEntity
 67
     1
  8
0
100
AcDbBlockBegin
  2
*PAPER_SPACE
 70
     0
 10
0.0
 20
0.0
 30
0.0
  3
*PAPER_SPACE
  1

  0
ENDBLK
  5
1D
330
1B
100
AcDbEntity
 67
     1
  8
0
100
AcDbBlockEnd
  0
BLOCK
  5
79
330
78
100
AcDbEntity
  8
0
100
AcDbBlockBegin
  2
EX_NORM
 70
     0
 10
0.0
 20
0.0
 30
0.0
  3
EX_NORM
  1

  0
LINE
  5
A2
330
78
100
AcDbEntity
  8
0
  6
CONTINUOUS
 62
     0
100
AcDbLine
 10
0.0
 20
0.0
 30
0.0
 11
-1.0
 21
0.0
 31
0.0
  0
LINE
  5
A3
330
78
100
AcDbEntity
  8
0
  6
CONTINUOUS
 62
     0
100
AcDbLine
 10
0.0
 20
0.0
 30
0.0
 11
-1.0
 21
0.166666667
 31
0.0
  0
LINE
  5
A4
330
78
100
AcDbEntity
  8
0
  6
CONTINUOUS
 62
     0
100
AcDbLine
 10
0.0
 20
0.0
 30
0.0
 11
-1.0
 21
-0.166666667
 31
0.0
  0
ENDBLK
  5
7A
330
78
100
AcDbEntity
  8
0
100
AcDbBlockEnd
  0
BLOCK
  5
7C
330
7B
100
AcDbEntity
  8
0
100
AcDbBlockBegin
  2
EX_BNORM
 70
     0
 10
0.0
 20
0.0
 30
0.0
  3
EX_BNORM
  1

  0
LINE
  5
A5
330
7B
100
AcDbEntity
  8
0
  6
CONTINUOUS
 62
     0
100
AcDbLine
 10
0.0
 20
0.0
 30
0.0
 11
-1.0
 21
0.0
 31
0.0
  0
LINE
  5
A6
330
7B
100
AcDbEntity
  8
0
  6
CONTINUOUS
 62
     0
100
AcDbLine
 10
0.0
 20
0.0
 30
0.0
 11
-1.0
 21
0.166666667
 31
0.0
  0
LINE
  5
A7
330
7B
100
AcDbEntity
  8
0
  6
CONTINUOUS
 62
     0
100
AcDbLine
 10
0.0
 20
0.0
 30
0.0
 11
-1.0
 21
-0.166666667
 31
0.0
  0
LINE
  5
A8
330
7B
100
AcDbEntity
  8
0
  6
CONTINUOUS
 62
     0
100
AcDbLine
 10
0.0
 20
0.0
 30
0.0
 11
-1.0
 21
0.083333333
 31
0.0
  0
LINE
  5
A9
330
7B
100
AcDbEntity
  8
0
  6
CONTINUOUS
 62
     0
100
AcDbLine
 10
0.0
 20
0.0
 30
0.0
 11
-1.0
 21
-0.083333333
 31
0.0
  0
LINE
  5
AA
330
7B
100
AcDbEntity
  8
0
  6
CONTINUOUS
 62
     0
100
AcDbLine
 10
-1.0
 20
0.166666667
 30
0.0
 11
-1.0
 21
-0.166666667
 31
0.0
  0
ENDBLK
  5
7D
330
7B
100
AcDbEntity
  8
0
100
AcDbBlockEnd
  0
BLOCK
  5
7F
330
7E
100
AcDbEntity
  8
0
100
AcDbBlockBegin
  2
EX_BCIR
 70
     0
 10
0.0
 20
0.0
 30
0.0
  3
EX_BCIR
  1

  0
LINE
  5
AB
330
7E
100
AcDbEntity
  8
0
  6
CONTINUOUS
 62
     0
100
AcDbLine
 10
0.0
 20
0.0
 30
0.0
 11
-1.0
 21
0.0
 31
0.0
  0
CIRCLE
  5
AC
330
7E
100
AcDbEntity
  8
0
  6
CONTINUOUS
 62
     0
100
AcDbCircle
 10
0.0
 20
0.0
 30
0.0
 40
0.5
  0
CIRCLE
  5
AD
330
7E
100
AcDbEntity
  8
0
  6
CONTINUOUS
 62
     0
100
AcDbCircle
 10
0.0
 20
0.0
 30
0.0
 40
0.25
  0
ENDBLK
  5
80
330
7E
100
AcDbEntity
  8
0
100
AcDbBlockEnd
  0
BLOCK
  5
82
330
81
100
AcDbEntity
  8
0
100
AcDbBlockBegin
  2
EX_RCIVIL
 70
     0
 10
0.0
 20
0.0
 30
0.0
  3
EX_RCIVIL
  1

  0
LINE
  5
AE
330
81
100
AcDbEntity
  8
0
  6
CONTINUOUS
 62
     0
100
AcDbLine
 10
0.0
 20
0.0
 30
0.0
 11
-1.0
 21
0.0
 31
0.0
  0
LINE
  5
AF
330
81
100
AcDbEntity
  8
0
  6
CONTINUOUS
 62
     0
100
AcDbLine
 10
-1.0
 20
-0.25
 30
0.0
 11
0.0
 21
-0.25
 31
0.0
  0
LINE
  5
B0
330
81
100
AcDbEntity
  8
0
  6
CONTINUOUS
 62
     0
100
AcDbLine
 10
-1.0
 20
-0.125
 30
0.0
 11
0.0
 21
-0.125
 31
0.0
  0
ENDBLK
  5
83
330
81
100
AcDbEntity
  8
0
100
AcDbBlockEnd
  0
BLOCK
  5
85
330
84
100
AcDbEntity
  8
0
100
AcDbBlockBegin
  2
EX_SLANT
 70
     0
 10
0.0
 20
0.0
 30
0.0
  3
EX_SLANT
  1

  0
LINE
  5
B1
330
84
100
AcDbEntity
  8
0
  6
CONTINUOUS
 62
     0
100
AcDbLine
 10
0.0
 20
0.0
 30
0.0
 11
-1.0
 21
0.0
 31
0.0
  0
LINE
  5
B2
330
84
100
AcDbEntity
  8
0
  6
CONTINUOUS
 62
     0
100
AcDbLine
 10
0.707106781
 20
0.707106781
 30
0.0
 11
-0.707106781
 21
-0.707106781
 31
0.0
  0
ENDBLK
  5
86
330
84
100
AcDbEntity
  8
0
100
AcDbBlockEnd
  0
BLOCK
  5
88
330
87
100
AcDbEntity
  8
0
100
AcDbBlockBegin
  2
EX_NONE
 70
     0
 10
0.0
 20
0.0
 30
0.0
  3
EX_NONE
  1

  0
LINE
  5
B3
330
87
100
AcDbEntity
  8
0
  6
CONTINUOUS
 62
     0
100
AcDbLine
 10
0.0
 20
0.0
 30
0.0
 11
-1.0
 21
0.0
 31
0.0
  0
ENDBLK
  5
89
330
87
100
AcDbEntity
  8
0
100
AcDbBlockEnd
  0
BLOCK
  5
8B
330
8A
100
AcDbEntity
  8
0
100
AcDbBlockBegin
  2
EX_CIVIL
 70
     0
 10
0.0
 20
0.0
 30
0.0
  3
EX_CIVIL
  1

  0
LINE
  5
B4
330
8A
100
AcDbEntity
  8
0
  6
CONTINUOUS
 62
     0
100
AcDbLine
 10
0.0
 20
0.0
 30
0.0
 11
-1.0
 21
0.0
 31
0.0
  0
LINE
  5
B5
330
8A
100
AcDbEntity
  8
0
  6
CONTINUOUS
 62
     0
100
AcDbLine
 10
-1.0
 20
0.25
 30
0.0
 11
0.0
 21
0.25
 31
0.0
  0
LINE
  5
B6
330
8A
100
AcDbEntity
  8
0
  6
CONTINUOUS
 62
     0
100
AcDbLine
 10
-1.0
 20
0.125
 30
0.0
 11
0.0
 21
0.125
 31
0.0
  0
ENDBLK
  5
8C
330
8A
100
AcDbEntity
  8
0
100
AcDbBlockEnd
  0
BLOCK
  5
8E
330
8D
100
AcDbEntity
  8
0
100
AcDbBlockBegin
  2
EX_WCIR
 70
     0
 10
0.0
 20
0.0
 30
0.0
  3
EX_WCIR
  1

  0
LINE
  5
B7
330
8D
100
AcDbEntity
  8
0
  6
CONTINUOUS
 62
     0
100
AcDbLine
 10
0.0
 20
0.0
 30
0.0
 11
-1.0
 21
0.0
 31
0.0
  0
CIRCLE
  5
B8
330
8D
100
AcDbEntity
  8
0
  6
CONTINUOUS
 62
     0
100
AcDbCircle
 10
0.0
 20
0.0
 30
0.0
 40
0.5
  0
ENDBLK
  5
8F
330
8D
100
AcDbEntity
  8
0
100
AcDbBlockEnd
  0
BLOCK
  5
91
330
90
100
AcDbEntity
  8
0
100
AcDbBlockBegin
  2
EX_WCIR2
 70
     0
 10
0.0
 20
0.0
 30
0.0
  3
EX_WCIR2
  1

  0
LINE
  5
B9
330
90
100
AcDbEntity
  8
0
  6
CONTINUOUS
 62
     0
100
AcDbLine
 10
-0.5
 20
0.0
 30
0.0
 11
-1.0
 21
0.0
 31
0.0
  0
CIRCLE
  5
BA
330
90
100
AcDbEntity
  8
0
  6
CONTINUOUS
 62
     0
100
AcDbCircle
 10
0.0
 20
0.0
 30
0.0
 40
0.5
  0
ENDBLK
  5
92
330
90
100
AcDbEntity
  8
0
100
AcDbBlockEnd
  0
BLOCK
  5
94
330
93
100
AcDbEntity
  8
0
100
AcDbBlockBegin
  2
EX_WNORM
 70
     0
 10
0.0
 20
0.0
 30
0.0
  3
EX_WNORM
  1

  0
LINE
  5
BB
330
93
100
AcDbEntity
  8
0
  6
CONTINUOUS
 62
     0
100
AcDbLine
 10
-1.0
 20
0.0
 30
0.0
 11
-1.0
 21
0.0
 31
0.0
  0
LINE
  5
BC
330
93
100
AcDbEntity
  8
0
  6
CONTINUOUS
 62
     0
100
AcDbLine
 10
0.0
 20
0.0
 30
0.0
 11
-1.0
 21
0.166666667
 31
0.0
  0
LINE
  5
BD
330
93
100
AcDbEntity
  8
0
  6
CONTINUOUS
 62
     0
100
AcDbLine
 10
0.0
 20
0.0
 30
0.0
 11
-1.0
 21
-0.166666667
 31
0.0
  0
LINE
  5
BE
330
93
100
AcDbEntity
  8
0
  6
CONTINUOUS
 62
     0
100
AcDbLine
 10
-1.0
 20
0.166666667
 30
0.0
 11
-1.0
 21
-0.166666667
 31
0.0
  0
ENDBLK
  5
95
330
93
100
AcDbEntity
  8
0
100
AcDbBlockEnd
  0
BLOCK
  5
97
330
96
100
AcDbEntity
  8
0
100
AcDbBlockBegin
  2
EX_NNORM
 70
     0
 10
0.0
 20
0.0
 30
0.0
  3
EX_NNORM
  1

  0
LINE
  5
BF
330
96
100
AcDbEntity
  8
0
  6
CONTINUOUS
 62
     0
100
AcDbLine
 10
0.0
 20
0.0
 30
0.0
 11
-1.0
 21
0.0
 31
0.0
  0
LINE
  5
C0
330
96
100
AcDbEntity
  8
0
  6
CONTINUOUS
 62
     0
100
AcDbLine
 10
0.0
 20
0.0
 30
0.0
 11
-1.0
 21
0.166666667
 31
0.0
  0
LINE
  5
C1
330
96
100
AcDbEntity
  8
0
  6
CONTINUOUS
 62
     0
100
AcDbLine
 10
0.0
 20
0.0
 30
0.0
 11
-1.0
 21
-0.166666667
 31
0.0
  0
LINE
  5
C2
330
96
100
AcDbEntity
  8
0
  6
CONTINUOUS
 62
     0
100
AcDbLine
 10
-1.0
 20
0.166666667
 30
0.0
 11
-1.0
 21
-0.166666667
 31
0.0
  0
ENDBLK
  5
98
330
96
100
AcDbEntity
  8
0
100
AcDbBlockEnd
  0
BLOCK
  5
9A
330
99
100
AcDbEntity
  8
0
100
AcDbBlockBegin
  2
EX_BBOX
 70
     0
 10
0.0
 20
0.0
 30
0.0
  3
EX_BBOX
  1

  0
LINE
  5
C3
330
99
100
AcDbEntity
  8
0
  6
CONTINUOUS
 62
     0
100
AcDbLine
 10
0.0
 20
0.0
 30
0.0
 11
-1.0
 21
0.0
 31
0.0
  0
LINE
  5
C4
330
99
100
AcDbEntity
  8
0
  6
CONTINUOUS
 62
     0
100
AcDbLine
 10
-0.5
 20
0.5
 30
0.0
 11
0.5
 21
0.5
 31
0.0
  0
LINE
  5
C5
330
99
100
AcDbEntity
  8
0
  6
CONTINUOUS
 62
     0
100
AcDbLine
 10
0.5
 20
0.5
 30
0.0
 11
0.5
 21
-0.5
 31
0.0
  0
LINE
  5
C6
330
99
100
AcDbEntity
  8
0
  6
CONTINUOUS
 62
     0
100
AcDbLine
 10
0.5
 20
-0.5
 30
0.0
 11
-0.5
 21
-0.5
 31
0.0
  0
LINE
  5
C7
330
99
100
AcDbEntity
  8
0
  6
CONTINUOUS
 62
     0
100
AcDbLine
 10
-0.5
 20
-0.5
 30
0.0
 11
-0.5
 21
0.5
 31
0.0
  0
LINE
  5
C8
330
99
100
AcDbEntity
  8
0
  6
CONTINUOUS
 62
     0
100
AcDbLine
 10
-0.25
 20
0.25
 30
0.0
 11
0.25
 21
0.25
 31
0.0
  0
LINE
  5
C9
330
99
100
AcDbEntity
  8
0
  6
CONTINUOUS
 62
     0
100
AcDbLine
 10
0.25
 20
0.25
 30
0.0
 11
0.25
 21
-0.25
 31
0.0
  0
LINE
  5
CA
330
99
100
AcDbEntity
  8
0
  6
CONTINUOUS
 62
     0
100
AcDbLine
 10
0.25
 20
-0.25
 30
0.0
 11
-0.25
 21
-0.25
 31
0.0
  0
LINE
  5
CB
330
99
100
AcDbEntity
  8
0
  6
CONTINUOUS
 62
     0
100
AcDbLine
 10
-0.25
 20
-0.25
 30
0.0
 11
-0.25
 21
0.25
 31
0.0
  0
ENDBLK
  5
9B
330
99
100
AcDbEntity
  8
0
100
AcDbBlockEnd
  0
BLOCK
  5
9D
330
9C
100
AcDbEntity
  8
0
100
AcDbBlockBegin
  2
EX_WBOX
 70
     0
 10
0.0
 20
0.0
 30
0.0
  3
EX_WBOX
  1

  0
LINE
  5
CC
330
9C
100
AcDbEntity
  8
0
  6
CONTINUOUS
 62
     0
100
AcDbLine
 10
-0.5
 20
0.0
 30
0.0
 11
-1.0
 21
0.0
 31
0.0
  0
LINE
  5
CD
330
9C
100
AcDbEntity
  8
0
  6
CONTINUOUS
 62
     0
100
AcDbLine
 10
-0.5
 20
0.5
 30
0.0
 11
0.5
 21
0.5
 31
0.0
  0
LINE
  5
CE
330
9C
100
AcDbEntity
  8
0
  6
CONTINUOUS
 62
     0
100
AcDbLine
 10
0.5
 20
0.5
 30
0.0
 11
0.5
 21
-0.5
 31
0.0
  0
LINE
  5
CF
330
9C
100
AcDbEntity
  8
0
  6
CONTINUOUS
 62
     0
100
AcDbLine
 10
0.5
 20
-0.5
 30
0.0
 11
-0.5
 21
-0.5
 31
0.0
  0
LINE
  5
D0
330
9C
100
AcDbEntity
  8
0
  6
CONTINUOUS
 62
     0
100
AcDbLine
 10
-0.5
 20
-0.5
 30
0.0
 11
-0.5
 21
0.5
 31
0.0
  0
ENDBLK
  5
9E
330
9C
100
AcDbEntity
  8
0
100
AcDbBlockEnd
  0
BLOCK
  5
A0
330
9F
100
AcDbEntity
  8
0
100
AcDbBlockBegin
  2
EX_INTEGRAL
 70
     0
 10
0.0
 20
0.0
 30
0.0
  3
EX_INTEGRAL
  1

  0
LINE
  5
D1
330
9F
100
AcDbEntity
  8
0
  6
CONTINUOUS
 62
     0
100
AcDbLine
 10
0.0
 20
0.0
 30
0.0
 11
-1.0
 21
0.0
 31
0.0
  0
ARC
  5
D2
330
9F
100
AcDbEntity
  8
0
  6
CONTINUOUS
 62
     0
100
AcDbCircle
 10
0.542115
 20
0.164992
 30
0.0
 40
0.56667
100
AcDbArc
 50
73.07249033629006
 51
196.9275130221199
  0
ARC
  5
D3
330
9F
100
AcDbEntity
  8
0
  6
CONTINUOUS
 62
     0
100
AcDbCircle
 10
-0.542115
 20
-0.164992
 30
0.0
 40
0.56667
100
AcDbArc
 50
253.0724869220464
 51
16.9275130559125
  0
ENDBLK
  5
A1
330
9F
100
AcDbEntity
  8
0
100
AcDbBlockEnd
  0
BLOCK
  5
F6
330
F5
100
AcDbEntity
  8
0
100
AcDbBlockBegin
  2
*D15
 70
     1
 10
0.0
 20
0.0
 30
0.0
  3
*D15
  1

  0
LINE
  5
F8
330
F5
100
AcDbEntity
  8
Ｓ_１_１
  6
CONTINUOUS
 62
     2
100
AcDbLine
 10
1454.4167795157
 20
2322.499982523751
 30
0.0
 11
1454.4167795157
 21
2715.0
 31
0.0
  0
LINE
  5
F9
330
F5
100
AcDbEntity
  8
Ｓ_１_１
  6
CONTINUOUS
 62
     2
100
AcDbLine
 10
5237.8500269711
 20
1933.12586753345
 30
0.0
 11
5237.8500269711
 21
2715.0
 31
0.0
  0
LINE
  5
FA
330
F5
100
AcDbEntity
  8
Ｓ_１_１
  6
CONTINUOUS
 62
     2
100
AcDbLine
 10
1499.416775701003
 20
2700.0
 30
0.0
 11
5192.850030785798
 21
2700.0
 31
0.0
  0
INSERT
  5
FB
330
F5
100
AcDbEntity
  8
Ｓ_１_１
 62
     2
100
AcDbBlockReference
  2
EX_NORM
 10
1454.4167795157
 20
2700.0
 30
0.0
 41
44.99999618530273
 42
44.99999618530273
 43
44.99999618530273
 50
180.0
  0
INSERT
  5
FC
330
F5
100
AcDbEntity
  8
Ｓ_１_１
 62
     2
100
AcDbBlockReference
  2
EX_NORM
 10
5237.8500269711
 20
2700.0
 30
0.0
 41
44.99999618530273
 42
44.99999618530273
 43
44.99999618530273
  0
MTEXT
  5
FD
330
F5
100
AcDbEntity
  8
Ｓ_１_１
 62
     2
100
AcDbMText
 10
3346.133403243399
 20
2741.25
 30
0.0
 40
51.9435623556582
 41
0.0
 71
     5
 72
     1
  1
3783
  7
EXCADDIM1
  0
POINT
  5
FE
330
F5
100
AcDbEntity
  8
DEFPOINTS
 62
     0
100
AcDbPoint
 10
1454.4167795157
 20
2299.999982523751
 30
0.0
  0
POINT
  5
FF
330
F5
100
AcDbEntity
  8
DEFPOINTS
 62
     0
100
AcDbPoint
 10
5237.8500269711
 20
1910.62586753345
 30
0.0
  0
POINT
  5
100
330
F5
100
AcDbEntity
  8
DEFPOINTS
 62
     0
100
AcDbPoint
 10
5237.8500269711
 20
2700.0
 30
0.0
  0
ENDBLK
  5
F7
330
F5
100
AcDbEntity
  8
0
100
AcDbBlockEnd
  0
BLOCK
  5
103
330
102
100
AcDbEntity
  8
0
100
AcDbBlockBegin
  2
*D16
 70
     1
 10
0.0
 20
0.0
 30
0.0
  3
*D16
  1

  0
LINE
  5
105
330
102
100
AcDbEntity
  8
Ｓ_１_１
  6
CONTINUOUS
 62
     2
100
AcDbLine
 10
4554.4166570281
 20
2222.49999912365
 30
0.0
 11
4554.4166570281
 21
2615.0
 31
0.0
  0
LINE
  5
106
330
102
100
AcDbEntity
  8
Ｓ_１_１
  6
CONTINUOUS
 62
     2
100
AcDbLine
 10
1499.416775701003
 20
2600.0
 30
0.0
 11
4509.416660842797
 21
2600.0
 31
0.0
  0
INSERT
  5
107
330
102
100
AcDbEntity
  8
Ｓ_１_１
 62
     2
100
AcDbBlockReference
  2
EX_NORM
 10
1454.4167795157
 20
2600.0
 30
0.0
 41
44.99999618530273
 42
44.99999618530273
 43
44.99999618530273
 50
180.0
  0
INSERT
  5
108
330
102
100
AcDbEntity
  8
Ｓ_１_１
 62
     2
100
AcDbBlockReference
  2
EX_NORM
 10
4554.4166570281
 20
2600.0
 30
0.0
 41
44.99999618530273
 42
44.99999618530273
 43
44.99999618530273
  0
MTEXT
  5
109
330
102
100
AcDbEntity
  8
Ｓ_１_１
 62
     2
100
AcDbMText
 10
3004.4167182719
 20
2641.25
 30
0.0
 40
51.9435623556582
 41
0.0
 71
     5
 72
     1
  1
3100
  7
EXCADDIM1
  0
POINT
  5
10A
330
102
100
AcDbEntity
  8
DEFPOINTS
 62
     0
100
AcDbPoint
 10
1454.4167795157
 20
2299.99999912365
 30
0.0
  0
POINT
  5
10B
330
102
100
AcDbEntity
  8
DEFPOINTS
 62
     0
100
AcDbPoint
 10
4554.4166570281
 20
2199.99999912365
 30
0.0
  0
POINT
  5
10C
330
102
100
AcDbEntity
  8
DEFPOINTS
 62
     0
100
AcDbPoint
 10
4554.4166570281
 20
2600.0
 30
0.0
  0
ENDBLK
  5
104
330
102
100
AcDbEntity
  8
0
100
AcDbBlockEnd
  0
BLOCK
  5
10F
330
10E
100
AcDbEntity
  8
0
100
AcDbBlockBegin
  2
*D17
 70
     1
 10
0.0
 20
0.0
 30
0.0
  3
*D17
  1

  0
LINE
  5
111
330
10E
100
AcDbEntity
  8
Ｓ_１_１
  6
CONTINUOUS
 62
     2
100
AcDbLine
 10
677.5000060927
 20
1900.000079274251
 30
0.0
 11
384.9999999999998
 21
1900.000079274251
 31
0.0
  0
LINE
  5
112
330
10E
100
AcDbEntity
  8
Ｓ_１_１
  6
CONTINUOUS
 62
     2
100
AcDbLine
 10
677.5000060927
 20
2299.99999701985
 30
0.0
 11
384.9999999999998
 21
2299.99999701985
 31
0.0
  0
LINE
  5
113
330
10E
100
AcDbEntity
  8
Ｓ_１_１
  6
CONTINUOUS
 62
     2
100
AcDbLine
 10
400.0000000000003
 20
1945.000075459553
 30
0.0
 11
400.0000000000003
 21
2255.000000834547
 31
0.0
  0
INSERT
  5
114
330
10E
100
AcDbEntity
  8
Ｓ_１_１
 62
     2
100
AcDbBlockReference
  2
EX_NORM
 10
400.0000000000003
 20
1900.000079274251
 30
0.0
 41
44.99999618530273
 42
44.99999618530273
 43
44.99999618530273
 50
270.0
  0
INSERT
  5
115
330
10E
100
AcDbEntity
  8
Ｓ_１_１
 62
     2
100
AcDbBlockReference
  2
EX_NORM
 10
400.0000000000003
 20
2299.99999701985
 30
0.0
 41
44.99999618530273
 42
44.99999618530273
 43
44.99999618530273
 50
90.0
  0
MTEXT
  5
116
330
10E
100
AcDbEntity
  8
Ｓ_１_１
 62
     2
100
AcDbMText
 10
358.7500000000004
 20
2100.00003814705
 30
0.0
 40
51.9435623556582
 41
0.0
 71
     5
 72
     1
  1
400
  7
EXCADDIM1
 11
0.0
 21
1.0
 31
0.0
  0
POINT
  5
117
330
10E
100
AcDbEntity
  8
DEFPOINTS
 62
     0
100
AcDbPoint
 10
700.0000060927
 20
1900.000079274251
 30
0.0
  0
POINT
  5
118
330
10E
100
AcDbEntity
  8
DEFPOINTS
 62
     0
100
AcDbPoint
 10
700.0000060927
 20
2299.99999701985
 30
0.0
  0
POINT
  5
119
330
10E
100
AcDbEntity
  8
DEFPOINTS
 62
     0
100
AcDbPoint
 10
400.0000000000003
 20
2299.99999701985
 30
0.0
  0
ENDBLK
  5
110
330
10E
100
AcDbEntity
  8
0
100
AcDbBlockEnd
  0
BLOCK
  5
11C
330
11B
100
AcDbEntity
  8
0
100
AcDbBlockBegin
  2
*D18
 70
     1
 10
0.0
 20
0.0
 30
0.0
  3
*D18
  1

  0
LINE
  5
11E
330
11B
100
AcDbEntity
  8
Ｓ_１_１
  6
CONTINUOUS
 62
     2
100
AcDbLine
 10
712.5000049333999
 20
2199.99999850995
 30
0.0
 11
485.0000000000001
 21
2199.99999850995
 31
0.0
  0
LINE
  5
11F
330
11B
100
AcDbEntity
  8
Ｓ_１_１
  6
CONTINUOUS
 62
     2
100
AcDbLine
 10
500.0000000000001
 20
2244.999994695253
 30
0.0
 11
500.0000000000001
 21
2255.000000834547
 31
0.0
  0
INSERT
  5
120
330
11B
100
AcDbEntity
  8
Ｓ_１_１
 62
     2
100
AcDbBlockReference
  2
EX_NONE
 10
500.0000000000001
 20
2199.99999850995
 30
0.0
 41
44.99999618530273
 42
44.99999618530273
 43
44.99999618530273
 50
270.0
  0
INSERT
  5
121
330
11B
100
AcDbEntity
  8
Ｓ_１_１
 62
     2
100
AcDbBlockReference
  2
EX_NORM
 10
500.0000000000001
 20
2299.99999701985
 30
0.0
 41
44.99999618530273
 42
44.99999618530273
 43
44.99999618530273
 50
90.0
  0
MTEXT
  5
122
330
11B
100
AcDbEntity
  8
Ｓ_１_１
 62
     2
100
AcDbMText
 10
458.7500000000005
 20
2249.999997764899
 30
0.0
 40
51.9435623556582
 41
0.0
 71
     5
 72
     1
  1
100
  7
EXCADDIM1
 11
0.0
 21
1.0
 31
0.0
  0
POINT
  5
123
330
11B
100
AcDbEntity
  8
DEFPOINTS
 62
     0
100
AcDbPoint
 10
735.0000049333999
 20
2199.99999850995
 30
0.0
  0
POINT
  5
124
330
11B
100
AcDbEntity
  8
DEFPOINTS
 62
     0
100
AcDbPoint
 10
700.0000049333999
 20
2299.99999701985
 30
0.0
  0
POINT
  5
125
330
11B
100
AcDbEntity
  8
DEFPOINTS
 62
     0
100
AcDbPoint
 10
500.0000000000001
 20
2299.99999701985
 30
0.0
  0
ENDBLK
  5
11D
330
11B
100
AcDbEntity
  8
0
100
AcDbBlockEnd
  0
BLOCK
  5
128
330
127
100
AcDbEntity
  8
0
100
AcDbBlockBegin
  2
*D19
 70
     1
 10
0.0
 20
0.0
 30
0.0
  3
*D19
  1

  0
LINE
  5
12A
330
127
100
AcDbEntity
  8
Ｓ_１_１
  6
CONTINUOUS
 62
     2
100
AcDbLine
 10
500.0000000000002
 20
2044.999997675553
 30
0.0
 11
500.0000000000002
 21
2155.000002324647
 31
0.0
  0
INSERT
  5
12B
330
127
100
AcDbEntity
  8
Ｓ_１_１
 62
     2
100
AcDbBlockReference
  2
EX_NORM
 10
500.0000000000002
 20
2000.00000149025
 30
0.0
 41
44.99999618530273
 42
44.99999618530273
 43
44.99999618530273
 50
270.0
  0
INSERT
  5
12C
330
127
100
AcDbEntity
  8
Ｓ_１_１
 62
     2
100
AcDbBlockReference
  2
EX_NORM
 10
500.0000000000002
 20
2199.99999850995
 30
0.0
 41
44.99999618530273
 42
44.99999618530273
 43
44.99999618530273
 50
90.0
  0
MTEXT
  5
12D
330
127
100
AcDbEntity
  8
Ｓ_１_１
 62
     2
100
AcDbMText
 10
458.7500000000002
 20
2100.0000000001
 30
0.0
 40
51.9435623556582
 41
0.0
 71
     5
 72
     1
  1
200
  7
EXCADDIM1
 11
0.0
 21
1.0
 31
0.0
  0
POINT
  5
12E
330
127
100
AcDbEntity
  8
DEFPOINTS
 62
     0
100
AcDbPoint
 10
735.0000049333999
 20
2000.00000149025
 30
0.0
  0
POINT
  5
12F
330
127
100
AcDbEntity
  8
DEFPOINTS
 62
     0
100
AcDbPoint
 10
735.0000049333999
 20
2199.99999850995
 30
0.0
  0
POINT
  5
130
330
127
100
AcDbEntity
  8
DEFPOINTS
 62
     0
100
AcDbPoint
 10
500.0000000000002
 20
2199.99999850995
 30
0.0
  0
ENDBLK
  5
129
330
127
100
AcDbEntity
  8
0
100
AcDbBlockEnd
  0
BLOCK
  5
133
330
132
100
AcDbEntity
  8
0
100
AcDbBlockBegin
  2
*D20
 70
     1
 10
0.0
 20
0.0
 30
0.0
  3
*D20
  1

  0
LINE
  5
135
330
132
100
AcDbEntity
  8
Ｓ_１_１
  6
CONTINUOUS
 62
     2
100
AcDbLine
 10
712.5000049333999
 20
2000.00000149025
 30
0.0
 11
485.0000000000002
 21
2000.00000149025
 31
0.0
  0
LINE
  5
136
330
132
100
AcDbEntity
  8
Ｓ_１_１
  6
CONTINUOUS
 62
     2
100
AcDbLine
 10
500.0000000000002
 20
1945.000075459553
 30
0.0
 11
500.0000000000002
 21
1955.000005304947
 31
0.0
  0
INSERT
  5
137
330
132
100
AcDbEntity
  8
Ｓ_１_１
 62
     2
100
AcDbBlockReference
  2
EX_NORM
 10
500.0000000000002
 20
1900.000079274251
 30
0.0
 41
44.99999618530273
 42
44.99999618530273
 43
44.99999618530273
 50
270.0
  0
INSERT
  5
138
330
132
100
AcDbEntity
  8
Ｓ_１_１
 62
     2
100
AcDbBlockReference
  2
EX_NONE
 10
500.0000000000002
 20
2000.00000149025
 30
0.0
 41
44.99999618530273
 42
44.99999618530273
 43
44.99999618530273
 50
90.0
  0
MTEXT
  5
139
330
132
100
AcDbEntity
  8
Ｓ_１_１
 62
     2
100
AcDbMText
 10
458.7500000000005
 20
1950.00004038225
 30
0.0
 40
51.9435623556582
 41
0.0
 71
     5
 72
     1
  1
100
  7
EXCADDIM1
 11
0.0
 21
1.0
 31
0.0
  0
POINT
  5
13A
330
132
100
AcDbEntity
  8
DEFPOINTS
 62
     0
100
AcDbPoint
 10
700.0000049333999
 20
1900.000079274251
 30
0.0
  0
POINT
  5
13B
330
132
100
AcDbEntity
  8
DEFPOINTS
 62
     0
100
AcDbPoint
 10
735.0000049333999
 20
2000.00000149025
 30
0.0
  0
POINT
  5
13C
330
132
100
AcDbEntity
  8
DEFPOINTS
 62
     0
100
AcDbPoint
 10
500.0000000000002
 20
2000.00000149025
 30
0.0
  0
ENDBLK
  5
134
330
132
100
AcDbEntity
  8
0
100
AcDbBlockEnd
  0
BLOCK
  5
13F
330
13E
100
AcDbEntity
  8
0
100
AcDbBlockBegin
  2
*D21
 70
     1
 10
0.0
 20
0.0
 30
0.0
  3
*D21
  1

  0
LINE
  5
141
330
13E
100
AcDbEntity
  8
Ｓ_１_１
  6
CONTINUOUS
 62
     2
100
AcDbLine
 10
700.0000029803
 20
2322.49999411415
 30
0.0
 11
700.0000029803
 21
2614.999999999999
 31
0.0
  0
LINE
  5
142
330
13E
100
AcDbEntity
  8
Ｓ_１_１
  6
CONTINUOUS
 62
     2
100
AcDbLine
 10
1099.9999970198
 20
2322.49999411415
 30
0.0
 11
1099.9999970198
 21
2614.999999999999
 31
0.0
  0
LINE
  5
143
330
13E
100
AcDbEntity
  8
Ｓ_１_１
  6
CONTINUOUS
 62
     2
100
AcDbLine
 10
744.9999991656027
 20
2600.000000000001
 30
0.0
 11
1055.000000834497
 21
2600.000000000001
 31
0.0
  0
INSERT
  5
144
330
13E
100
AcDbEntity
  8
Ｓ_１_１
 62
     2
100
AcDbBlockReference
  2
EX_NORM
 10
700.0000029803
 20
2600.000000000001
 30
0.0
 41
44.99999618530273
 42
44.99999618530273
 43
44.99999618530273
 50
180.0
  0
INSERT
  5
145
330
13E
100
AcDbEntity
  8
Ｓ_１_１
 62
     2
100
AcDbBlockReference
  2
EX_NORM
 10
1099.9999970198
 20
2600.000000000001
 30
0.0
 41
44.99999618530273
 42
44.99999618530273
 43
44.99999618530273
  0
MTEXT
  5
146
330
13E
100
AcDbEntity
  8
Ｓ_１_１
 62
     2
100
AcDbMText
 10
900.00000000005
 20
2641.250000000001
 30
0.0
 40
51.9435623556582
 41
0.0
 71
     5
 72
     1
  1
400
  7
EXCADDIM1
  0
POINT
  5
147
330
13E
100
AcDbEntity
  8
DEFPOINTS
 62
     0
100
AcDbPoint
 10
700.0000029803
 20
2299.99999411415
 30
0.0
  0
POINT
  5
148
330
13E
100
AcDbEntity
  8
DEFPOINTS
 62
     0
100
AcDbPoint
 10
1099.9999970198
 20
2299.99999411415
 30
0.0
  0
POINT
  5
149
330
13E
100
AcDbEntity
  8
DEFPOINTS
 62
     0
100
AcDbPoint
 10
1099.9999970198
 20
2600.000000000001
 30
0.0
  0
ENDBLK
  5
140
330
13E
100
AcDbEntity
  8
0
100
AcDbBlockEnd
  0
BLOCK
  5
14C
330
14B
100
AcDbEntity
  8
0
100
AcDbBlockBegin
  2
*D22
 70
     1
 10
0.0
 20
0.0
 30
0.0
  3
*D22
  1

  0
LINE
  5
14E
330
14B
100
AcDbEntity
  8
Ｓ_１_１
  6
CONTINUOUS
 62
     2
100
AcDbLine
 10
795.0001510084026
 20
2500.0
 30
0.0
 11
1005.000001579597
 21
2500.0
 31
0.0
  0
INSERT
  5
14F
330
14B
100
AcDbEntity
  8
Ｓ_１_１
 62
     2
100
AcDbBlockReference
  2
EX_NORM
 10
750.0001548230998
 20
2500.0
 30
0.0
 41
44.99999618530273
 42
44.99999618530273
 43
44.99999618530273
 50
180.0
  0
INSERT
  5
150
330
14B
100
AcDbEntity
  8
Ｓ_１_１
 62
     2
100
AcDbBlockReference
  2
EX_NORM
 10
1049.9999977649
 20
2500.0
 30
0.0
 41
44.99999618530273
 42
44.99999618530273
 43
44.99999618530273
  0
MTEXT
  5
151
330
14B
100
AcDbEntity
  8
Ｓ_１_１
 62
     2
100
AcDbMText
 10
900.000076294
 20
2541.25
 30
0.0
 40
51.9435623556582
 41
0.0
 71
     5
 72
     1
  1
300
  7
EXCADDIM1
  0
POINT
  5
152
330
14B
100
AcDbEntity
  8
DEFPOINTS
 62
     0
100
AcDbPoint
 10
750.0001548230998
 20
2214.99999509155
 30
0.0
  0
POINT
  5
153
330
14B
100
AcDbEntity
  8
DEFPOINTS
 62
     0
100
AcDbPoint
 10
1049.9999977649
 20
2214.99999509155
 30
0.0
  0
POINT
  5
154
330
14B
100
AcDbEntity
  8
DEFPOINTS
 62
     0
100
AcDbPoint
 10
1049.9999977649
 20
2500.0
 30
0.0
  0
ENDBLK
  5
14D
330
14B
100
AcDbEntity
  8
0
100
AcDbBlockEnd
  0
BLOCK
  5
157
330
156
100
AcDbEntity
  8
0
100
AcDbBlockBegin
  2
*D23
 70
     1
 10
0.0
 20
0.0
 30
0.0
  3
*D23
  1

  0
LINE
  5
159
330
156
100
AcDbEntity
  8
Ｓ_１_１
  6
CONTINUOUS
 62
     2
100
AcDbLine
 10
906.0000609457998
 20
1897.50008118915
 30
0.0
 11
906.0000609457998
 21
1685.0
 31
0.0
  0
LINE
  5
15A
330
156
100
AcDbEntity
  8
Ｓ_１_１
  6
CONTINUOUS
 62
     2
100
AcDbLine
 10
894.0000916422
 20
1897.50008118915
 30
0.0
 11
894.0000916422
 21
1685.0
 31
0.0
  0
LINE
  5
15B
330
156
100
AcDbEntity
  8
Ｓ_１_１
  6
CONTINUOUS
 62
     2
100
AcDbLine
 10
906.0000609457998
 20
1700.0
 30
0.0
 11
894.0000916422
 21
1700.0
 31
0.0
  0
LINE
  5
15C
330
156
100
AcDbEntity
  8
Ｓ_１_１
  6
CONTINUOUS
 62
     2
100
AcDbLine
 10
951.0000571311025
 20
1700.0
 30
0.0
 11
996.0000533164052
 21
1700.0
 31
0.0
  0
LINE
  5
15D
330
156
100
AcDbEntity
  8
Ｓ_１_１
  6
CONTINUOUS
 62
     2
100
AcDbLine
 10
849.0000954568973
 20
1700.0
 30
0.0
 11
804.0000992715945
 21
1700.0
 31
0.0
  0
INSERT
  5
15E
330
156
100
AcDbEntity
  8
Ｓ_１_１
 62
     2
100
AcDbBlockReference
  2
EX_NORM
 10
906.0000609457998
 20
1700.0
 30
0.0
 41
44.99999618530273
 42
44.99999618530273
 43
44.99999618530273
 50
180.0
  0
INSERT
  5
15F
330
156
100
AcDbEntity
  8
Ｓ_１_１
 62
     2
100
AcDbBlockReference
  2
EX_NORM
 10
894.0000916422
 20
1700.0
 30
0.0
 41
44.99999618530273
 42
44.99999618530273
 43
44.99999618530273
  0
MTEXT
  5
160
330
156
100
AcDbEntity
  8
Ｓ_１_１
 62
     2
100
AcDbMText
 10
956.5499846517998
 20
1741.25
 30
0.0
 40
51.9435623556582
 41
0.0
 71
     5
 72
     1
  1
12
  7
EXCADDIM1
  0
POINT
  5
161
330
156
100
AcDbEntity
  8
DEFPOINTS
 62
     0
100
AcDbPoint
 10
906.0000609457998
 20
1920.00008118915
 30
0.0
  0
POINT
  5
162
330
156
100
AcDbEntity
  8
DEFPOINTS
 62
     0
100
AcDbPoint
 10
894.0000916422
 20
1920.00008118915
 30
0.0
  0
POINT
  5
163
330
156
100
AcDbEntity
  8
DEFPOINTS
 62
     0
100
AcDbPoint
 10
894.0000916422
 20
1700.0
 30
0.0
  0
ENDBLK
  5
158
330
156
100
AcDbEntity
  8
0
100
AcDbBlockEnd
  0
BLOCK
  5
166
330
165
100
AcDbEntity
  8
0
100
AcDbBlockBegin
  2
*D24
 70
     1
 10
0.0
 20
0.0
 30
0.0
  3
*D24
  1

  0
LINE
  5
168
330
165
100
AcDbEntity
  8
Ｓ_１_１
  6
CONTINUOUS
 62
     2
100
AcDbLine
 10
750.0001548230998
 20
2237.49999509155
 30
0.0
 11
750.0001548230998
 21
2515.0
 31
0.0
  0
LINE
  5
169
330
165
100
AcDbEntity
  8
Ｓ_１_１
  6
CONTINUOUS
 62
     2
100
AcDbLine
 10
700.0000029803
 20
2500.0
 30
0.0
 11
750.0001548230998
 21
2500.0
 31
0.0
  0
LINE
  5
16A
330
165
100
AcDbEntity
  8
Ｓ_１_１
  6
CONTINUOUS
 62
     2
100
AcDbLine
 10
655.0000067949973
 20
2500.0
 30
0.0
 11
610.0000106096945
 21
2500.0
 31
0.0
  0
LINE
  5
16B
330
165
100
AcDbEntity
  8
Ｓ_１_１
  6
CONTINUOUS
 62
     2
100
AcDbLine
 10
795.0001510084026
 20
2500.0
 30
0.0
 11
840.0001471937053
 21
2500.0
 31
0.0
  0
INSERT
  5
16C
330
165
100
AcDbEntity
  8
Ｓ_１_１
 62
     2
100
AcDbBlockReference
  2
EX_NORM
 10
700.0000029803
 20
2500.0
 30
0.0
 41
44.99999618530273
 42
44.99999618530273
 43
44.99999618530273
  0
INSERT
  5
16D
330
165
100
AcDbEntity
  8
Ｓ_１_１
 62
     2
100
AcDbBlockReference
  2
EX_NONE
 10
750.0001548230998
 20
2500.0
 30
0.0
 41
44.99999618530273
 42
44.99999618530273
 43
44.99999618530273
 50
180.0
  0
MTEXT
  5
16E
330
165
100
AcDbEntity
  8
Ｓ_１_１
 62
     2
100
AcDbMText
 10
644.0000789017
 20
2541.25
 30
0.0
 40
51.9435623556582
 41
0.0
 71
     5
 72
     1
  1
50
  7
EXCADDIM1
  0
POINT
  5
16F
330
165
100
AcDbEntity
  8
DEFPOINTS
 62
     0
100
AcDbPoint
 10
700.0000029803
 20
2299.99999509155
 30
0.0
  0
POINT
  5
170
330
165
100
AcDbEntity
  8
DEFPOINTS
 62
     0
100
AcDbPoint
 10
750.0001548230998
 20
2214.99999509155
 30
0.0
  0
POINT
  5
171
330
165
100
AcDbEntity
  8
DEFPOINTS
 62
     0
100
AcDbPoint
 10
750.0001548230998
 20
2500.0
 30
0.0
  0
ENDBLK
  5
167
330
165
100
AcDbEntity
  8
0
100
AcDbBlockEnd
  0
BLOCK
  5
174
330
173
100
AcDbEntity
  8
0
100
AcDbBlockBegin
  2
*D25
 70
     1
 10
0.0
 20
0.0
 30
0.0
  3
*D25
  1

  0
LINE
  5
176
330
173
100
AcDbEntity
  8
Ｓ_１_１
  6
CONTINUOUS
 62
     2
100
AcDbLine
 10
1049.9999977649
 20
2237.49999509155
 30
0.0
 11
1049.9999977649
 21
2515.0
 31
0.0
  0
LINE
  5
177
330
173
100
AcDbEntity
  8
Ｓ_１_１
  6
CONTINUOUS
 62
     2
100
AcDbLine
 10
1049.9999977649
 20
2500.0
 30
0.0
 11
1099.9999970198
 21
2500.0
 31
0.0
  0
LINE
  5
178
330
173
100
AcDbEntity
  8
Ｓ_１_１
  6
CONTINUOUS
 62
     2
100
AcDbLine
 10
1005.000001579597
 20
2500.0
 30
0.0
 11
960.0000053942945
 21
2500.0
 31
0.0
  0
LINE
  5
179
330
173
100
AcDbEntity
  8
Ｓ_１_１
  6
CONTINUOUS
 62
     2
100
AcDbLine
 10
1144.999993205103
 20
2500.0
 30
0.0
 11
1189.999989390406
 21
2500.0
 31
0.0
  0
INSERT
  5
17A
330
173
100
AcDbEntity
  8
Ｓ_１_１
 62
     2
100
AcDbBlockReference
  2
EX_NONE
 10
1049.9999977649
 20
2500.0
 30
0.0
 41
44.99999618530273
 42
44.99999618530273
 43
44.99999618530273
  0
INSERT
  5
17B
330
173
100
AcDbEntity
  8
Ｓ_１_１
 62
     2
100
AcDbBlockReference
  2
EX_NORM
 10
1099.9999970198
 20
2500.0
 30
0.0
 41
44.99999618530273
 42
44.99999618530273
 43
44.99999618530273
 50
180.0
  0
MTEXT
  5
17C
330
173
100
AcDbEntity
  8
Ｓ_１_１
 62
     2
100
AcDbMText
 10
1154.49999739235
 20
2541.25
 30
0.0
 40
51.9435623556582
 41
0.0
 71
     5
 72
     1
  1
50
  7
EXCADDIM1
  0
POINT
  5
17D
330
173
100
AcDbEntity
  8
DEFPOINTS
 62
     0
100
AcDbPoint
 10
1049.9999977649
 20
2214.99999509155
 30
0.0
  0
POINT
  5
17E
330
173
100
AcDbEntity
  8
DEFPOINTS
 62
     0
100
AcDbPoint
 10
1099.9999970198
 20
2299.99999509155
 30
0.0
  0
POINT
  5
17F
330
173
100
AcDbEntity
  8
DEFPOINTS
 62
     0
100
AcDbPoint
 10
1099.9999970198
 20
2500.0
 30
0.0
  0
ENDBLK
  5
175
330
173
100
AcDbEntity
  8
0
100
AcDbBlockEnd
  0
BLOCK
  5
182
330
181
100
AcDbEntity
  8
0
100
AcDbBlockBegin
  2
*D26
 70
     1
 10
0.0
 20
0.0
 30
0.0
  3
*D26
  1

  0
LINE
  5
184
330
181
100
AcDbEntity
  8
Ｓ_１_１
  6
CONTINUOUS
 62
     2
100
AcDbLine
 10
5122.4999925837
 20
1125.00030331315
 30
0.0
 11
5515.0
 21
1125.00030331315
 31
0.0
  0
LINE
  5
185
330
181
100
AcDbEntity
  8
Ｓ_１_１
  6
CONTINUOUS
 62
     2
100
AcDbLine
 10
5122.4999925837
 20
875.0003070384499
 30
0.0
 11
5515.0
 21
875.0003070384499
 31
0.0
  0
LINE
  5
186
330
181
100
AcDbEntity
  8
Ｓ_１_１
  6
CONTINUOUS
 62
     2
100
AcDbLine
 10
5500.0
 20
1080.000307127847
 30
0.0
 11
5500.0
 21
920.0003032237527
 31
0.0
  0
INSERT
  5
187
330
181
100
AcDbEntity
  8
Ｓ_１_１
 62
     2
100
AcDbBlockReference
  2
EX_NORM
 10
5500.0
 20
1125.00030331315
 30
0.0
 41
44.99999618530273
 42
44.99999618530273
 43
44.99999618530273
 50
90.0
  0
INSERT
  5
188
330
181
100
AcDbEntity
  8
Ｓ_１_１
 62
     2
100
AcDbBlockReference
  2
EX_NORM
 10
5500.0
 20
875.0003070384499
 30
0.0
 41
44.99999618530273
 42
44.99999618530273
 43
44.99999618530273
 50
270.0
  0
MTEXT
  5
189
330
181
100
AcDbEntity
  8
Ｓ_１_１
 62
     2
100
AcDbMText
 10
5458.75
 20
1000.000305175796
 30
0.0
 40
51.9435623556582
 41
0.0
 71
     5
 72
     1
  1
250
  7
EXCADDIM1
 11
0.0
 21
1.0
 31
0.0
  0
POINT
  5
18A
330
181
100
AcDbEntity
  8
DEFPOINTS
 62
     0
100
AcDbPoint
 10
5099.9999925837
 20
1125.00030331315
 30
0.0
  0
POINT
  5
18B
330
181
100
AcDbEntity
  8
DEFPOINTS
 62
     0
100
AcDbPoint
 10
5099.9999925837
 20
875.0003070384499
 30
0.0
  0
POINT
  5
18C
330
181
100
AcDbEntity
  8
DEFPOINTS
 62
     0
100
AcDbPoint
 10
5500.0
 20
875.0003070384499
 30
0.0
  0
ENDBLK
  5
183
330
181
100
AcDbEntity
  8
0
100
AcDbBlockEnd
  0
BLOCK
  5
191
330
190
100
AcDbEntity
  8
0
100
AcDbBlockBegin
  2
*D27
 70
     1
 10
0.0
 20
0.0
 30
0.0
  3
*D27
  1

  0
LINE
  5
193
330
190
100
AcDbEntity
  8
Ｓ_１_１
  6
CONTINUOUS
 62
     2
100
AcDbLine
 10
1476.416901407199
 20
2322.49999403465
 30
0.0
 11
1476.416901407199
 21
2515.0
 31
0.0
  0
LINE
  5
194
330
190
100
AcDbEntity
  8
Ｓ_１_１
  6
CONTINUOUS
 62
     2
100
AcDbLine
 10
1776.4168969368
 20
2252.499765152751
 30
0.0
 11
1776.4168969368
 21
2515.0
 31
0.0
  0
LINE
  5
195
330
190
100
AcDbEntity
  8
Ｓ_１_１
  6
CONTINUOUS
 62
     2
100
AcDbLine
 10
1521.416897592502
 20
2500.0
 30
0.0
 11
1731.416900751497
 21
2500.0
 31
0.0
  0
INSERT
  5
196
330
190
100
AcDbEntity
  8
Ｓ_１_１
 62
     2
100
AcDbBlockReference
  2
EX_NORM
 10
1476.416901407199
 20
2500.0
 30
0.0
 41
44.99999618530273
 42
44.99999618530273
 43
44.99999618530273
 50
180.0
  0
INSERT
  5
197
330
190
100
AcDbEntity
  8
Ｓ_１_１
 62
     2
100
AcDbBlockReference
  2
EX_NORM
 10
1776.4168969368
 20
2500.0
 30
0.0
 41
44.99999618530273
 42
44.99999618530273
 43
44.99999618530273
  0
MTEXT
  5
198
330
190
100
AcDbEntity
  8
Ｓ_１_１
 62
     2
100
AcDbMText
 10
1626.416899172
 20
2541.25
 30
0.0
 40
51.9435623556582
 41
0.0
 71
     5
 72
     1
  1
300
  7
EXCADDIM1
  0
POINT
  5
199
330
190
100
AcDbEntity
  8
DEFPOINTS
 62
     0
100
AcDbPoint
 10
1476.416901407199
 20
2299.99999403465
 30
0.0
  0
POINT
  5
19A
330
190
100
AcDbEntity
  8
DEFPOINTS
 62
     0
100
AcDbPoint
 10
1776.4168969368
 20
2229.999765152751
 30
0.0
  0
POINT
  5
19B
330
190
100
AcDbEntity
  8
DEFPOINTS
 62
     0
100
AcDbPoint
 10
1776.4168969368
 20
2500.0
 30
0.0
  0
ENDBLK
  5
192
330
190
100
AcDbEntity
  8
0
100
AcDbBlockEnd
  0
BLOCK
  5
19E
330
19D
100
AcDbEntity
  8
0
100
AcDbBlockBegin
  2
*D28
 70
     1
 10
0.0
 20
0.0
 30
0.0
  3
*D28
  1

  0
LINE
  5
1A0
330
19D
100
AcDbEntity
  8
Ｓ_１_１
  6
CONTINUOUS
 62
     2
100
AcDbLine
 10
5607.42402551403
 20
3405.4875858779
 30
0.0
 11
5678.968503012102
 21
3569.246424675447
 31
0.0
  0
LINE
  5
1A1
330
19D
100
AcDbEntity
  8
Ｓ_１_１
  6
CONTINUOUS
 62
     2
100
AcDbLine
 10
5826.951026671131
 20
3358.4447385041
 30
0.0
 11
5880.568230598758
 21
3481.169669369602
 31
0.0
  0
LINE
  5
1A2
330
19D
100
AcDbEntity
  8
Ｓ_１_１
  6
CONTINUOUS
 62
     2
100
AcDbLine
 10
5714.199586858403
 20
3537.485278794163
 30
0.0
 11
5833.326675775749
 21
3485.439933364016
 31
0.0
  0
INSERT
  5
1A3
330
19D
100
AcDbEntity
  8
Ｓ_１_１
 62
     2
100
AcDbBlockReference
  2
EX_NORM
 10
5672.963267523748
 20
3555.500983732012
 30
0.0
 41
44.99999618530273
 42
44.99999618530273
 43
44.99999618530273
 50
156.4000000000003
  0
INSERT
  5
1A4
330
19D
100
AcDbEntity
  8
Ｓ_１_１
 62
     2
100
AcDbBlockReference
  2
EX_NORM
 10
5874.562995110404
 20
3467.424228426167
 30
0.0
 41
44.99999618530273
 42
44.99999618530273
 43
44.99999618530273
 50
336.4000000000003
  0
MTEXT
  5
1A5
330
19D
100
AcDbEntity
  8
Ｓ_１_１
 62
     2
100
AcDbMText
 10
5790.27752891005
 20
3549.262568673532
 30
0.0
 40
51.9435623556582
 41
0.0
 71
     5
 72
     1
  1
220
  7
EXCADDIM1
 11
0.916362729562242
 21
-0.4003490325568899
 31
0.0
  0
POINT
  5
1A6
330
19D
100
AcDbEntity
  8
DEFPOINTS
 62
     0
100
AcDbPoint
 10
5598.416172281501
 20
3384.86942446275
 30
0.0
  0
POINT
  5
1A7
330
19D
100
AcDbEntity
  8
DEFPOINTS
 62
     0
100
AcDbPoint
 10
5817.943173438602
 20
3337.826577088949
 30
0.0
  0
POINT
  5
1A8
330
19D
100
AcDbEntity
  8
DEFPOINTS
 62
     0
100
AcDbPoint
 10
5874.562995110404
 20
3467.424228426167
 30
0.0
  0
ENDBLK
  5
19F
330
19D
100
AcDbEntity
  8
0
100
AcDbBlockEnd
  0
BLOCK
  5
1BB
330
1BA
100
AcDbEntity
  8
0
100
AcDbBlockBegin
  2
*D29
 70
     1
 10
0.0
 20
0.0
 30
0.0
  3
*D29
  1

  0
LINE
  5
1BD
330
1BA
100
AcDbEntity
  8
Ｓ_１_１
  6
CONTINUOUS
 62
     2
100
AcDbLine
 10
5140.783509959167
 20
1975.145188218215
 30
0.0
 11
4858.916490040834
 21
1846.106495892484
 31
0.0
  0
MTEXT
  5
1BE
330
1BA
100
AcDbEntity
  8
Ｓ_１_１
 62
     2
100
AcDbMText
 10
5441.747177330732
 20
2158.293462035338
 30
0.0
 40
51.9435623556582
 41
0.0
 71
     5
 72
     1
  1
P.C.D 400
  7
EXCADDIM1
 11
0.9092484464542006
 21
0.4162538439709869
 31
0.0
  0
LINE
  5
1BF
330
1BA
100
AcDbEntity
  8
Ｓ_１_１
  6
CONTINUOUS
 62
     2
100
AcDbLine
 10
4818.000313418903
 20
1827.375074501672
 30
0.0
 11
5181.699686581098
 21
1993.876609609027
 31
0.0
  0
INSERT
  5
1C0
330
1BA
100
AcDbEntity
  8
Ｓ_１_１
 62
     2
100
AcDbBlockReference
  2
EX_NORM
 10
4818.000313418903
 20
1827.375074501672
 30
0.0
 41
44.99999618530273
 42
44.99999618530273
 43
44.99999618530273
 50
204.5983018571769
  0
INSERT
  5
1C1
330
1BA
100
AcDbEntity
  8
Ｓ_１_１
 62
     2
100
AcDbBlockReference
  2
EX_NORM
 10
5181.699686581098
 20
1993.876609609027
 30
0.0
 41
44.99999618530273
 42
44.99999618530273
 43
44.99999618530273
 50
24.5983018571769
  0
POINT
  5
1C2
330
1BA
100
AcDbEntity
  8
DEFPOINTS
 62
     0
100
AcDbPoint
 10
5181.699686581098
 20
1993.876609609027
 30
0.0
  0
POINT
  5
1C3
330
1BA
100
AcDbEntity
  8
DEFPOINTS
 62
     0
100
AcDbPoint
 10
4818.000313418903
 20
1827.375074501672
 30
0.0
  0
ENDBLK
  5
1BC
330
1BA
100
AcDbEntity
  8
0
100
AcDbBlockEnd
  0
BLOCK
  5
1C6
330
1C5
100
AcDbEntity
  8
0
100
AcDbBlockBegin
  2
*D30
 70
     1
 10
0.0
 20
0.0
 30
0.0
  3
*D30
  1

  0
LINE
  5
1C8
330
1C5
100
AcDbEntity
  8
Ｓ_１_１
  6
CONTINUOUS
 62
     2
100
AcDbLine
 10
5085.778135193559
 20
1735.579117792562
 30
0.0
 11
4913.921864806441
 21
2085.672566318137
 31
0.0
  0
MTEXT
  5
1C9
330
1C5
100
AcDbEntity
  8
Ｓ_１_１
 62
     2
100
AcDbMText
 10
5183.122189190801
 20
1630.886891566786
 30
0.0
 40
51.9435623556582
 41
0.0
 71
     5
 72
     1
  1
%%c480
  7
EXCADDIM1
 11
0.4406571030179864
 21
-0.8976755079424834
 31
0.0
  0
LINE
  5
1CA
330
1C5
100
AcDbEntity
  8
Ｓ_１_１
  6
CONTINUOUS
 62
     2
100
AcDbLine
 10
4894.092296851605
 20
2126.067960751189
 30
0.0
 11
5105.607703148395
 21
1695.183723359511
 31
0.0
  0
INSERT
  5
1CB
330
1C5
100
AcDbEntity
  8
Ｓ_１_１
 62
     2
100
AcDbBlockReference
  2
EX_NORM
 10
4894.092296851605
 20
2126.067960751189
 30
0.0
 41
44.99999618530273
 42
44.99999618530273
 43
44.99999618530273
 50
116.1458144092314
  0
INSERT
  5
1CC
330
1C5
100
AcDbEntity
  8
Ｓ_１_１
 62
     2
100
AcDbBlockReference
  2
EX_NORM
 10
5105.607703148395
 20
1695.183723359511
 30
0.0
 41
44.99999618530273
 42
44.99999618530273
 43
44.99999618530273
 50
296.1458144092314
  0
POINT
  5
1CD
330
1C5
100
AcDbEntity
  8
DEFPOINTS
 62
     0
100
AcDbPoint
 10
5105.607703148395
 20
1695.183723359511
 30
0.0
  0
POINT
  5
1CE
330
1C5
100
AcDbEntity
  8
DEFPOINTS
 62
     0
100
AcDbPoint
 10
4894.092296851605
 20
2126.067960751189
 30
0.0
  0
ENDBLK
  5
1C7
330
1C5
100
AcDbEntity
  8
0
100
AcDbBlockEnd
  0
BLOCK
  5
1E8
330
1E7
100
AcDbEntity
  8
0
100
AcDbBlockBegin
  2
*D31
 70
     1
 10
0.0
 20
0.0
 30
0.0
  3
*D31
  1

  0
LINE
  5
1EA
330
1E7
100
AcDbEntity
  8
Ｓ_１_１
  6
CONTINUOUS
 62
     2
100
AcDbLine
 10
5785.535782661954
 20
3220.70282734301
 30
0.0
 11
5764.285408999746
 21
3215.008806881365
 31
0.0
  0
MTEXT
  5
1EB
330
1E7
100
AcDbEntity
  8
Ｓ_１_１
 62
     2
100
AcDbMText
 10
5908.59679194453
 20
3296.382067842002
 30
0.0
 40
51.9435623556582
 41
0.0
 71
     5
 72
     1
  1
R67
  7
EXCADDIM1
 11
0.9659258262891003
 21
0.2588190451024017
 31
0.0
  0
LINE
  5
1EC
330
1E7
100
AcDbEntity
  8
Ｓ_１_１
  6
CONTINUOUS
 62
     2
100
AcDbLine
 10
5764.285408999746
 20
3215.008806881365
 30
0.0
 11
5829.002441160249
 21
3232.349683385302
 31
0.0
  0
INSERT
  5
1ED
330
1E7
100
AcDbEntity
  8
Ｓ_１_１
 62
     2
100
AcDbBlockReference
  2
EX_NORM
 10
5829.002441160249
 20
3232.349683385302
 30
0.0
 41
44.99999618530273
 42
44.99999618530273
 43
44.99999618530273
 50
14.99999999999294
  0
POINT
  5
1EE
330
1E7
100
AcDbEntity
  8
DEFPOINTS
 62
     0
100
AcDbPoint
 10
5829.002441160249
 20
3232.349683385302
 30
0.0
  0
POINT
  5
1EF
330
1E7
100
AcDbEntity
  8
DEFPOINTS
 62
     0
100
AcDbPoint
 10
5764.285408999746
 20
3215.008806881365
 30
0.0
  0
ENDBLK
  5
1E9
330
1E7
100
AcDbEntity
  8
0
100
AcDbBlockEnd
  0
BLOCK
  5
1F2
330
1F1
100
AcDbEntity
  8
0
100
AcDbBlockBegin
  2
*D32
 70
     1
 10
0.0
 20
0.0
 30
0.0
  3
*D32
  1

  0
LINE
  5
1F4
330
1F1
100
AcDbEntity
  8
Ｓ_１_１
  6
CONTINUOUS
 62
     2
100
AcDbLine
 10
5726.287980885032
 20
3296.426114789106
 30
0.0
 11
5714.641124842739
 21
3339.892773287401
 31
0.0
  0
MTEXT
  5
1F5
330
1F1
100
AcDbEntity
  8
Ｓ_１_１
 62
     2
100
AcDbMText
 10
5742.059071762573
 20
3396.945363680738
 30
0.0
 40
51.9435623556582
 41
0.0
 71
     5
 72
     1
  1
R31
  7
EXCADDIM1
 11
0.2588190451024271
 21
-0.9659258262890932
 31
0.0
  0
LINE
  5
1F6
330
1F1
100
AcDbEntity
  8
Ｓ_１_１
  6
CONTINUOUS
 62
     2
100
AcDbLine
 10
5745.9582273255
 20
3223.01575567585
 30
0.0
 11
5737.934836927325
 21
3252.959456290811
 31
0.0
  0
INSERT
  5
1F7
330
1F1
100
AcDbEntity
  8
Ｓ_１_１
 62
     2
100
AcDbBlockReference
  2
EX_NORM
 10
5737.934836927325
 20
3252.959456290811
 30
0.0
 41
44.99999618530273
 42
44.99999618530273
 43
44.99999618530273
 50
284.9999999999944
  0
POINT
  5
1F8
330
1F1
100
AcDbEntity
  8
DEFPOINTS
 62
     0
100
AcDbPoint
 10
5737.934836927325
 20
3252.959456290811
 30
0.0
  0
POINT
  5
1F9
330
1F1
100
AcDbEntity
  8
DEFPOINTS
 62
     0
100
AcDbPoint
 10
5745.9582273255
 20
3223.01575567585
 30
0.0
  0
ENDBLK
  5
1F3
330
1F1
100
AcDbEntity
  8
0
100
AcDbBlockEnd
  0
ENDSEC
  0
SECTION
  2
ENTITIES
  0
LINE
  5
D4
330
1F
100
AcDbEntity
  8
図面枠
  6
CONTINUOUS
 62
     5
100
AcDbLine
 10
150.0
 20
150.0
 30
0.0
 11
6150.0
 21
150.0
 31
0.0
  0
LINE
  5
D5
330
1F
100
AcDbEntity
  8
図面枠
  6
CONTINUOUS
 62
     5
100
AcDbLine
 10
6150.0
 20
150.0
 30
0.0
 11
6150.0
 21
4305.0
 31
0.0
  0
LINE
  5
D6
330
1F
100
AcDbEntity
  8
図面枠
  6
CONTINUOUS
 62
     5
100
AcDbLine
 10
6150.0
 20
4305.0
 30
0.0
 11
150.0000000000008
 21
4305.0
 31
0.0
  0
LINE
  5
D7
330
1F
100
AcDbEntity
  8
図面枠
  6
CONTINUOUS
 62
     5
100
AcDbLine
 10
150.0000000000008
 20
4305.0
 30
0.0
 11
150.0
 21
150.0
 31
0.0
  0
LINE
  5
D8
330
1F
100
AcDbEntity
  8
図面枠
  6
CONTINUOUS
 62
     3
100
AcDbLine
 10
225.0
 20
4230.0
 30
0.0
 11
225.0
 21
4095.0
 31
0.0
  0
LINE
  5
D9
330
1F
100
AcDbEntity
  8
図面枠
  6
CONTINUOUS
 62
     3
100
AcDbLine
 10
6075.0
 20
360.0
 30
0.0
 11
6075.0
 21
225.0
 31
0.0
  0
TEXT
  5
DB
330
1F
100
AcDbEntity
  8
図面枠
  6
CONTINUOUS
 62
     4
100
AcDbText
 10
270.0
 20
4130.156248927116
 30
0.0
 40
69.25807726979714
  1
ワイヤガイド設備
 41
0.9992307706673805
  7
EXCADTTF1
 72
     5
 11
989.99994
 21
4130.156248927116
 31
0.0
100
AcDbText
  0
LINE
  5
DC
330
1F
100
AcDbEntity
  8
図面枠
  6
CONTINUOUS
 62
     3
100
AcDbLine
 10
1035.0
 20
4230.0
 30
0.0
 11
1035.0
 21
4095.0
 31
0.0
  0
LINE
  5
DD
330
1F
100
AcDbEntity
  8
図面枠
  6
CONTINUOUS
 62
     3
100
AcDbLine
 10
225.0
 20
4230.0
 30
0.0
 11
1035.0
 21
4230.0
 31
0.0
  0
LINE
  5
DE
330
1F
100
AcDbEntity
  8
図面枠
  6
CONTINUOUS
 62
     3
100
AcDbLine
 10
225.0
 20
4095.0
 30
0.0
 11
1035.0
 21
4095.0
 31
0.0
  0
LINE
  5
DF
330
1F
100
AcDbEntity
  8
図面枠
  6
CONTINUOUS
 62
     3
100
AcDbLine
 10
5850.0
 20
360.0
 30
0.0
 11
5850.0
 21
225.0
 31
0.0
  0
TEXT
  5
E0
330
1F
100
AcDbEntity
  8
図面枠
  6
CONTINUOUS
 62
     4
100
AcDbText
 10
5895.0
 20
260.1562489271164
 30
0.0
 40
69.25807726979714
  1
OWG
 41
0.9992307059024147
  7
EXCADTTF1
 72
     5
 11
6029.99998
 21
260.1562489271164
 31
0.0
100
AcDbText
  0
LINE
  5
E1
330
1F
100
AcDbEntity
  8
図面枠
  6
CONTINUOUS
 62
     3
100
AcDbLine
 10
5850.0
 20
360.0
 30
0.0
 11
6075.0
 21
360.0
 31
0.0
  0
LINE
  5
E2
330
1F
100
AcDbEntity
  8
図面枠
  6
CONTINUOUS
 62
     3
100
AcDbLine
 10
5850.0
 20
225.0
 30
0.0
 11
6075.0
 21
225.0
 31
0.0
  0
TEXT
  5
E3
330
1F
100
AcDbEntity
  8
図面枠
  6
CONTINUOUS
 62
     4
100
AcDbText
 10
5306.25
 20
4160.7421875
 30
0.0
 40
51.9435623556582
  1
仕　　　様
 41
0.9992307692307691
  7
EXCADTTF1
 72
     5
 11
5643.75
 21
4160.7421875
 31
0.0
100
AcDbText
  0
LINE
  5
E4
330
1F
100
AcDbEntity
  8
図面枠
  6
CONTINUOUS
 62
     3
100
AcDbLine
 10
4875.0
 20
4230.0
 30
0.0
 11
6075.0
 21
4230.0
 31
0.0
  0
LINE
  5
E5
330
1F
100
AcDbEntity
  8
図面枠
  6
CONTINUOUS
 62
     3
100
AcDbLine
 10
4875.0
 20
4140.0
 30
0.0
 11
6075.0
 21
4140.0
 31
0.0
  0
LINE
  5
E6
330
1F
100
AcDbEntity
  8
図面枠
  6
CONTINUOUS
 62
     2
100
AcDbLine
 10
5475.0
 20
4140.0
 30
0.0
 11
5475.0
 21
4050.0
 31
0.0
  0
LINE
  5
E7
330
1F
100
AcDbEntity
  8
図面枠
  6
CONTINUOUS
 62
     2
100
AcDbLine
 10
5775.0
 20
4140.0
 30
0.0
 11
5775.0
 21
4050.0
 31
0.0
  0
LINE
  5
E8
330
1F
100
AcDbEntity
  8
図面枠
  6
CONTINUOUS
 62
     3
100
AcDbLine
 10
6075.0
 20
4230.0
 30
0.0
 11
6075.0
 21
4050.0
 31
0.0
  0
LINE
  5
E9
330
1F
100
AcDbEntity
  8
図面枠
  6
CONTINUOUS
 62
     3
100
AcDbLine
 10
4875.0
 20
4230.0
 30
0.0
 11
4875.0
 21
4050.0
 31
0.0
  0
TEXT
  5
EA
330
1F
100
AcDbEntity
  8
図面枠
  6
CONTINUOUS
 62
     4
100
AcDbText
 10
4905.0
 20
4070.7421875
 30
0.0
 40
51.9435623556582
  1
重量
 41
0.9992307692307691
  7
EXCADTTF1
 72
     5
 11
5040.0
 21
4070.7421875
 31
0.0
100
AcDbText
  0
TEXT
  5
EB
330
1F
100
AcDbEntity
  8
図面枠
  6
CONTINUOUS
 62
     4
100
AcDbText
 10
5576.25
 20
4070.7421875
 30
0.0
 40
51.9435623556582
  1
約280
 41
0.9992307692307691
  7
EXCADTTF1
 72
     5
 11
5745.0
 21
4070.7421875
 31
0.0
100
AcDbText
  0
TEXT
  5
EC
330
1F
100
AcDbEntity
  8
図面枠
  6
CONTINUOUS
 62
     4
100
AcDbText
 10
5805.0
 20
4070.7421875
 30
0.0
 40
51.9435623556582
  1
kg
 41
0.9992307692307691
  7
EXCADTTF1
 72
     5
 11
5872.5
 21
4070.7421875
 31
0.0
100
AcDbText
  0
LINE
  5
ED
330
1F
100
AcDbEntity
  8
図面枠
  6
CONTINUOUS
 62
     3
100
AcDbLine
 10
4875.0
 20
4050.0
 30
0.0
 11
6075.0
 21
4050.0
 31
0.0
  0
TEXT
  5
EE
330
1F
100
AcDbEntity
  8
Ｓ_１_１
  6
CONTINUOUS
 62
     4
100
AcDbText
 10
331.2747152988401
 20
1716.99218750005
 30
0.0
 40
51.9435623556582
  1
4-25キリ
 41
0.9992307692307691
  7
EXCADTTF1
 72
     5
 11
601.2747152988401
 21
1716.99218750005
 31
0.0
100
AcDbText
  0
LEADER
  5
EF
330
1F
100
AcDbEntity
  8
Ｓ_１_１
  6
CONTINUOUS
 62
     2
100
AcDbLeader
  3
ISO-25
 76
     3
 10
743.5727304825003
 20
1991.0731757395
 30
0.0
 10
600.000000000001
 20
1700.00000000005
 30
0.0
 10
322.5000000000001
 20
1700.00000000005
 30
0.0
1001
ACAD
1000
DSTYLE
1002
{
1070
     5
1000
EX_NORM
1070
    41
1040
45.0
1070
   341
1005
78
1002
}
  0
TEXT
  5
F0
330
1F
100
AcDbEntity
  8
Ｓ_１_１
  6
CONTINUOUS
 62
     4
100
AcDbText
 10
2970.000000000001
 20
1716.99218750005
 30
0.0
 40
51.9435623556582
  1
H200x200
 41
0.9992307692307691
  7
EXCADTTF1
 72
     5
 11
3240.000000000001
 21
1716.99218750005
 31
0.0
100
AcDbText
  0
LEADER
  5
F1
330
1F
100
AcDbEntity
  8
Ｓ_１_１
  6
CONTINUOUS
 62
     2
100
AcDbLeader
  3
ISO-25
 76
     3
 10
3510.874247457153
 20
2000.00030666595
 30
0.0
 10
3300.0
 20
1700.00000000005
 30
0.0
 10
2970.000000000001
 20
1700.00000000005
 30
0.0
1001
ACAD
1000
DSTYLE
1002
{
1070
     5
1000
EX_NORM
1070
    41
1040
45.0
1070
   341
1005
78
1002
}
  0
DIMENSION
  5
F3
330
1F
100
AcDbEntity
  8
Ｓ_１_１
  6
CONTINUOUS
 62
     2
100
AcDbDimension
  2
*D15
 10
5237.8500269711
 20
2700.0
 30
0.0
 11
3346.133403243399
 21
2741.25
 31
0.0
 70
   160
  1
3783
  3
ISO-25
100
AcDbAlignedDimension
 13
1454.4167795157
 23
2299.999982523751
 33
0.0
 14
5237.8500269711
 24
1910.62586753345
 34
0.0
100
AcDbRotatedDimension
1001
ACAD
1000
DSTYLE
1002
{
1070
   270
1070
     2
1070
     6
1000
EX_NORM
1070
     7
1000
EX_NORM
1070
    41
1040
44.99999618530273
1070
    42
1040
22.5
1070
    44
1040
15.0
1070
    73
1070
     0
1070
    74
1070
     0
1070
    75
1070
     0
1070
    76
1070
     0
1070
    77
1070
     1
1070
    78
1070
     8
1070
   140
1040
51.9435623556582
1070
   147
1040
0.0
1070
   173
1070
     1
1070
   176
1070
     2
1070
   177
1070
     2
1070
   178
1070
     2
1070
   271
1070
     2
1070
   277
1070
     2
1070
   279
1070
     2
1070
   280
1070
     0
1070
   287
1070
     5
1070
   340
1005
F2
1002
}
  0
DIMENSION
  5
101
330
1F
100
AcDbEntity
  8
Ｓ_１_１
  6
CONTINUOUS
 62
     2
100
AcDbDimension
  2
*D16
 10
4554.4166570281
 20
2600.0
 30
0.0
 11
3004.4167182719
 21
2641.25
 31
0.0
 70
   160
  3
ISO-25
100
AcDbAlignedDimension
 13
1454.4167795157
 23
2299.99999912365
 33
0.0
 14
4554.4166570281
 24
2199.99999912365
 34
0.0
100
AcDbRotatedDimension
1001
ACAD
1000
DSTYLE
1002
{
1070
   270
1070
     2
1070
     6
1000
EX_NORM
1070
     7
1000
EX_NORM
1070
    41
1040
44.99999618530273
1070
    42
1040
22.5
1070
    44
1040
15.0
1070
    73
1070
     0
1070
    74
1070
     0
1070
    75
1070
     1
1070
    76
1070
     0
1070
    77
1070
     1
1070
    78
1070
     8
1070
   140
1040
51.9435623556582
1070
   147
1040
0.0
1070
   173
1070
     1
1070
   176
1070
     2
1070
   177
1070
     2
1070
   178
1070
     2
1070
   271
1070
     2
1070
   277
1070
     2
1070
   279
1070
     2
1070
   280
1070
     0
1070
   287
1070
     5
1070
   340
1005
F2
1002
}
  0
DIMENSION
  5
10D
330
1F
100
AcDbEntity
  8
Ｓ_１_１
  6
CONTINUOUS
 62
     2
100
AcDbDimension
  2
*D17
 10
400.0000000000003
 20
2299.99999701985
 30
0.0
 11
358.7500000000004
 21
2100.00003814705
 31
0.0
 70
   160
  3
ISO-25
100
AcDbAlignedDimension
 13
700.0000060927
 23
1900.000079274251
 33
0.0
 14
700.0000060927
 24
2299.99999701985
 34
0.0
 50
90.0
100
AcDbRotatedDimension
1001
ACAD
1000
DSTYLE
1002
{
1070
   270
1070
     2
1070
     6
1000
EX_NORM
1070
     7
1000
EX_NORM
1070
    41
1040
44.99999618530273
1070
    42
1040
22.5
1070
    44
1040
15.00000000000045
1070
    73
1070
     0
1070
    74
1070
     0
1070
    75
1070
     0
1070
    76
1070
     0
1070
    77
1070
     1
1070
    78
1070
     8
1070
   140
1040
51.9435623556582
1070
   147
1040
0.0
1070
   173
1070
     1
1070
   176
1070
     2
1070
   177
1070
     2
1070
   178
1070
     2
1070
   271
1070
     2
1070
   277
1070
     2
1070
   279
1070
     2
1070
   280
1070
     0
1070
   287
1070
     5
1070
   340
1005
F2
1002
}
  0
DIMENSION
  5
11A
330
1F
100
AcDbEntity
  8
Ｓ_１_１
  6
CONTINUOUS
 62
     2
100
AcDbDimension
  2
*D18
 10
500.0000000000001
 20
2299.99999701985
 30
0.0
 11
458.7500000000005
 21
2249.999997764899
 31
0.0
 70
   160
  3
ISO-25
100
AcDbAlignedDimension
 13
735.0000049333999
 23
2199.99999850995
 33
0.0
 14
700.0000049333999
 24
2299.99999701985
 34
0.0
 50
90.0
100
AcDbRotatedDimension
1001
ACAD
1000
DSTYLE
1002
{
1070
   270
1070
     2
1070
     6
1000
EX_NONE
1070
     7
1000
EX_NORM
1070
    41
1040
44.99999618530273
1070
    42
1040
22.5
1070
    44
1040
15.0
1070
    73
1070
     0
1070
    74
1070
     0
1070
    75
1070
     0
1070
    76
1070
     1
1070
    77
1070
     1
1070
    78
1070
     8
1070
   140
1040
51.9435623556582
1070
   147
1040
0.0
1070
   173
1070
     1
1070
   176
1070
     2
1070
   177
1070
     2
1070
   178
1070
     2
1070
   271
1070
     2
1070
   277
1070
     2
1070
   279
1070
     2
1070
   280
1070
     0
1070
   287
1070
     5
1070
   340
1005
F2
1002
}
  0
DIMENSION
  5
126
330
1F
100
AcDbEntity
  8
Ｓ_１_１
  6
CONTINUOUS
 62
     2
100
AcDbDimension
  2
*D19
 10
500.0000000000002
 20
2199.99999850995
 30
0.0
 11
458.7500000000002
 21
2100.0000000001
 31
0.0
 70
   160
  3
ISO-25
100
AcDbAlignedDimension
 13
735.0000049333999
 23
2000.00000149025
 33
0.0
 14
735.0000049333999
 24
2199.99999850995
 34
0.0
 50
90.0
100
AcDbRotatedDimension
1001
ACAD
1000
DSTYLE
1002
{
1070
   270
1070
     2
1070
     6
1000
EX_NORM
1070
     7
1000
EX_NORM
1070
    41
1040
44.99999618530273
1070
    42
1040
0.0
1070
    44
1040
0.0
1070
    73
1070
     0
1070
    74
1070
     0
1070
    75
1070
     1
1070
    76
1070
     1
1070
    77
1070
     1
1070
    78
1070
     8
1070
   140
1040
51.9435623556582
1070
   147
1040
0.0
1070
   173
1070
     1
1070
   176
1070
     2
1070
   177
1070
     2
1070
   178
1070
     2
1070
   271
1070
     2
1070
   277
1070
     2
1070
   279
1070
     2
1070
   280
1070
     0
1070
   287
1070
     5
1070
   340
1005
F2
1002
}
  0
DIMENSION
  5
131
330
1F
100
AcDbEntity
  8
Ｓ_１_１
  6
CONTINUOUS
 62
     2
100
AcDbDimension
  2
*D20
 10
500.0000000000002
 20
2000.00000149025
 30
0.0
 11
458.7500000000005
 21
1950.00004038225
 31
0.0
 70
   160
  3
ISO-25
100
AcDbAlignedDimension
 13
700.0000049333999
 23
1900.000079274251
 33
0.0
 14
735.0000049333999
 24
2000.00000149025
 34
0.0
 50
90.0
100
AcDbRotatedDimension
1001
ACAD
1000
DSTYLE
1002
{
1070
   270
1070
     2
1070
     6
1000
EX_NORM
1070
     7
1000
EX_NONE
1070
    41
1040
44.99999618530273
1070
    42
1040
22.5
1070
    44
1040
15.0
1070
    73
1070
     0
1070
    74
1070
     0
1070
    75
1070
     1
1070
    76
1070
     0
1070
    77
1070
     1
1070
    78
1070
     8
1070
   140
1040
51.9435623556582
1070
   147
1040
0.0
1070
   173
1070
     1
1070
   176
1070
     2
1070
   177
1070
     2
1070
   178
1070
     2
1070
   271
1070
     2
1070
   277
1070
     2
1070
   279
1070
     2
1070
   280
1070
     0
1070
   287
1070
     5
1070
   340
1005
F2
1002
}
  0
DIMENSION
  5
13D
330
1F
100
AcDbEntity
  8
Ｓ_１_１
  6
CONTINUOUS
 62
     2
100
AcDbDimension
  2
*D21
 10
1099.9999970198
 20
2600.000000000001
 30
0.0
 11
900.00000000005
 21
2641.250000000001
 31
0.0
 70
   160
  3
ISO-25
100
AcDbAlignedDimension
 13
700.0000029803
 23
2299.99999411415
 33
0.0
 14
1099.9999970198
 24
2299.99999411415
 34
0.0
100
AcDbRotatedDimension
1001
ACAD
1000
DSTYLE
1002
{
1070
   270
1070
     2
1070
     6
1000
EX_NORM
1070
     7
1000
EX_NORM
1070
    41
1040
44.99999618530273
1070
    42
1040
22.5
1070
    44
1040
14.99999999999773
1070
    73
1070
     0
1070
    74
1070
     0
1070
    75
1070
     0
1070
    76
1070
     0
1070
    77
1070
     1
1070
    78
1070
     8
1070
   140
1040
51.9435623556582
1070
   147
1040
0.0
1070
   173
1070
     1
1070
   176
1070
     2
1070
   177
1070
     2
1070
   178
1070
     2
1070
   271
1070
     2
1070
   277
1070
     2
1070
   279
1070
     2
1070
   280
1070
     0
1070
   287
1070
     5
1070
   340
1005
F2
1002
}
  0
DIMENSION
  5
14A
330
1F
100
AcDbEntity
  8
Ｓ_１_１
  6
CONTINUOUS
 62
     2
100
AcDbDimension
  2
*D22
 10
1049.9999977649
 20
2500.0
 30
0.0
 11
900.000076294
 21
2541.25
 31
0.0
 70
   160
  3
ISO-25
100
AcDbAlignedDimension
 13
750.0001548230998
 23
2214.99999509155
 33
0.0
 14
1049.9999977649
 24
2214.99999509155
 34
0.0
100
AcDbRotatedDimension
1001
ACAD
1000
DSTYLE
1002
{
1070
   270
1070
     2
1070
     6
1000
EX_NORM
1070
     7
1000
EX_NORM
1070
    41
1040
44.99999618530273
1070
    42
1040
0.0
1070
    44
1040
0.0
1070
    73
1070
     0
1070
    74
1070
     0
1070
    75
1070
     1
1070
    76
1070
     1
1070
    77
1070
     1
1070
    78
1070
     8
1070
   140
1040
51.9435623556582
1070
   147
1040
0.0
1070
   173
1070
     1
1070
   176
1070
     2
1070
   177
1070
     2
1070
   178
1070
     2
1070
   271
1070
     2
1070
   277
1070
     2
1070
   279
1070
     2
1070
   280
1070
     0
1070
   287
1070
     5
1070
   340
1005
F2
1002
}
  0
DIMENSION
  5
155
330
1F
100
AcDbEntity
  8
Ｓ_１_１
  6
CONTINUOUS
 62
     2
100
AcDbDimension
  2
*D23
 10
894.0000916422
 20
1700.0
 30
0.0
 11
956.5499846517998
 21
1741.25
 31
0.0
 70
   160
  3
ISO-25
100
AcDbAlignedDimension
 13
906.0000609457998
 23
1920.00008118915
 33
0.0
 14
894.0000916422
 24
1920.00008118915
 34
0.0
100
AcDbRotatedDimension
1001
ACAD
1000
DSTYLE
1002
{
1070
   270
1070
     2
1070
     6
1000
EX_NORM
1070
     7
1000
EX_NORM
1070
    41
1040
44.99999618530273
1070
    42
1040
22.5
1070
    44
1040
15.0
1070
    73
1070
     1
1070
    74
1070
     1
1070
    75
1070
     0
1070
    76
1070
     0
1070
    77
1070
     1
1070
    78
1070
     8
1070
   140
1040
51.9435623556582
1070
   147
1040
0.0
1070
   173
1070
     1
1070
   176
1070
     2
1070
   177
1070
     2
1070
   178
1070
     2
1070
   271
1070
     2
1070
   277
1070
     2
1070
   279
1070
     2
1070
   280
1070
     0
1070
   287
1070
     5
1070
   340
1005
F2
1002
}
  0
DIMENSION
  5
164
330
1F
100
AcDbEntity
  8
Ｓ_１_１
  6
CONTINUOUS
 62
     2
100
AcDbDimension
  2
*D24
 10
750.0001548230998
 20
2500.0
 30
0.0
 11
644.0000789017
 21
2541.25
 31
0.0
 70
   160
  3
ISO-25
100
AcDbAlignedDimension
 13
700.0000029803
 23
2299.99999509155
 33
0.0
 14
750.0001548230998
 24
2214.99999509155
 34
0.0
100
AcDbRotatedDimension
1001
ACAD
1000
DSTYLE
1002
{
1070
   270
1070
     2
1070
     6
1000
EX_NORM
1070
     7
1000
EX_NONE
1070
    41
1040
44.99999618530273
1070
    42
1040
22.5
1070
    44
1040
15.0
1070
    73
1070
     1
1070
    74
1070
     1
1070
    75
1070
     1
1070
    76
1070
     0
1070
    77
1070
     1
1070
    78
1070
     8
1070
   140
1040
51.9435623556582
1070
   147
1040
0.0
1070
   173
1070
     1
1070
   176
1070
     2
1070
   177
1070
     2
1070
   178
1070
     2
1070
   271
1070
     2
1070
   277
1070
     2
1070
   279
1070
     2
1070
   280
1070
     0
1070
   287
1070
     5
1070
   340
1005
F2
1002
}
  0
DIMENSION
  5
172
330
1F
100
AcDbEntity
  8
Ｓ_１_１
  6
CONTINUOUS
 62
     2
100
AcDbDimension
  2
*D25
 10
1099.9999970198
 20
2500.0
 30
0.0
 11
1154.49999739235
 21
2541.25
 31
0.0
 70
   160
  3
ISO-25
100
AcDbAlignedDimension
 13
1049.9999977649
 23
2214.99999509155
 33
0.0
 14
1099.9999970198
 24
2299.99999509155
 34
0.0
100
AcDbRotatedDimension
1001
ACAD
1000
DSTYLE
1002
{
1070
   270
1070
     2
1070
     6
1000
EX_NONE
1070
     7
1000
EX_NORM
1070
    41
1040
44.99999618530273
1070
    42
1040
22.5
1070
    44
1040
15.0
1070
    73
1070
     1
1070
    74
1070
     1
1070
    75
1070
     0
1070
    76
1070
     1
1070
    77
1070
     1
1070
    78
1070
     8
1070
   140
1040
51.9435623556582
1070
   147
1040
0.0
1070
   173
1070
     1
1070
   176
1070
     2
1070
   177
1070
     2
1070
   178
1070
     2
1070
   271
1070
     2
1070
   277
1070
     2
1070
   279
1070
     2
1070
   280
1070
     0
1070
   287
1070
     5
1070
   340
1005
F2
1002
}
  0
DIMENSION
  5
180
330
1F
100
AcDbEntity
  8
Ｓ_１_１
  6
CONTINUOUS
 62
     2
100
AcDbDimension
  2
*D26
 10
5500.0
 20
875.0003070384499
 30
0.0
 11
5458.75
 21
1000.000305175796
 31
0.0
 70
   160
  3
ISO-25
100
AcDbAlignedDimension
 13
5099.9999925837
 23
1125.00030331315
 33
0.0
 14
5099.9999925837
 24
875.0003070384499
 34
0.0
 50
90.0
100
AcDbRotatedDimension
1001
ACAD
1000
DSTYLE
1002
{
1070
   270
1070
     2
1070
     6
1000
EX_NORM
1070
     7
1000
EX_NORM
1070
    41
1040
44.99999618530273
1070
    42
1040
22.5
1070
    44
1040
15.0
1070
    73
1070
     0
1070
    74
1070
     0
1070
    75
1070
     0
1070
    76
1070
     0
1070
    77
1070
     1
1070
    78
1070
     8
1070
   140
1040
51.9435623556582
1070
   147
1040
0.0
1070
   173
1070
     1
1070
   176
1070
     2
1070
   177
1070
     2
1070
   178
1070
     2
1070
   271
1070
     2
1070
   277
1070
     2
1070
   279
1070
     2
1070
   280
1070
     0
1070
   287
1070
     5
1070
   340
1005
F2
1002
}
  0
TEXT
  5
18D
330
1F
100
AcDbEntity
  8
Ｓ_１_１
  6
CONTINUOUS
 62
     4
100
AcDbText
 10
4133.4462085804
 20
1716.99218749995
 30
0.0
 40
51.9435623556582
  1
C150x75
 41
0.9992307692307691
  7
EXCADTTF1
 72
     5
 11
4369.6962085804
 21
1716.99218749995
 31
0.0
100
AcDbText
  0
LEADER
  5
18E
330
1F
100
AcDbEntity
  8
Ｓ_１_１
  6
CONTINUOUS
 62
     2
100
AcDbLeader
  3
ISO-25
 76
     3
 10
4627.345037805927
 20
1991.531763325779
 30
0.0
 10
4400.0
 20
1699.99999999995
 30
0.0
 10
4133.4462085804
 20
1699.99999999995
 30
0.0
1001
ACAD
1000
DSTYLE
1002
{
1070
     5
1000
EX_NORM
1070
    41
1040
45.0
1070
   341
1005
78
1002
}
  0
DIMENSION
  5
18F
330
1F
100
AcDbEntity
  8
Ｓ_１_１
  6
CONTINUOUS
 62
     2
100
AcDbDimension
  2
*D27
 10
1776.4168969368
 20
2500.0
 30
0.0
 11
1626.416899172
 21
2541.25
 31
0.0
 70
   160
  3
ISO-25
100
AcDbAlignedDimension
 13
1476.416901407199
 23
2299.99999403465
 33
0.0
 14
1776.4168969368
 24
2229.999765152751
 34
0.0
100
AcDbRotatedDimension
1001
ACAD
1000
DSTYLE
1002
{
1070
   270
1070
     2
1070
     6
1000
EX_NORM
1070
     7
1000
EX_NORM
1070
    41
1040
44.99999618530273
1070
    42
1040
22.5
1070
    44
1040
15.0
1070
    73
1070
     0
1070
    74
1070
     0
1070
    75
1070
     0
1070
    76
1070
     0
1070
    77
1070
     1
1070
    78
1070
     8
1070
   140
1040
51.9435623556582
1070
   147
1040
0.0
1070
   173
1070
     1
1070
   176
1070
     2
1070
   177
1070
     2
1070
   178
1070
     2
1070
   271
1070
     2
1070
   277
1070
     2
1070
   279
1070
     2
1070
   280
1070
     0
1070
   287
1070
     5
1070
   340
1005
F2
1002
}
  0
DIMENSION
  5
19C
330
1F
100
AcDbEntity
  8
Ｓ_１_１
  6
CONTINUOUS
 62
     2
100
AcDbDimension
  2
*D28
 10
5874.562995110404
 20
3467.424228426167
 30
0.0
 11
5790.27752891005
 21
3549.262568673532
 31
0.0
 70
   160
  3
ISO-25
100
AcDbAlignedDimension
 13
5598.416172281501
 23
3384.86942446275
 33
0.0
 14
5817.943173438602
 24
3337.826577088949
 34
0.0
 50
156.4000000000003
100
AcDbRotatedDimension
1001
ACAD
1000
DSTYLE
1002
{
1070
   270
1070
     2
1070
     6
1000
EX_NORM
1070
     7
1000
EX_NORM
1070
    41
1040
44.99999618530273
1070
    42
1040
22.49999999999991
1070
    44
1040
15.00000000000133
1070
    73
1070
     0
1070
    74
1070
     0
1070
    75
1070
     0
1070
    76
1070
     0
1070
    77
1070
     1
1070
    78
1070
     8
1070
   140
1040
51.9435623556582
1070
   147
1040
0.0
1070
   173
1070
     1
1070
   176
1070
     2
1070
   177
1070
     2
1070
   178
1070
     2
1070
   271
1070
     2
1070
   277
1070
     2
1070
   279
1070
     2
1070
   280
1070
     0
1070
   287
1070
     5
1070
   340
1005
F2
1002
}
  0
LINE
  5
1A9
330
1F
100
AcDbEntity
  8
Ｓ_１_１
  6
EXLTYPE2
 62
     1
100
AcDbLine
 10
5270.934073500323
 20
3430.548705554679
 30
0.0
 11
5756.69426339326
 21
3218.325296849271
 31
0.0
  0
LINE
  5
1AA
330
1F
100
AcDbEntity
  8
Ｓ_１_１
  6
EXLTYPE2
 62
     1
100
AcDbLine
 10
5760.323565580482
 20
3255.896715797939
 30
0.0
 11
5745.9582273255
 21
3223.01575567585
 31
0.0
  0
LINE
  5
1AB
330
1F
100
AcDbEntity
  8
Ｓ_１_１
  6
EXLTYPE2
 62
     1
100
AcDbLine
 10
5731.592889070518
 20
3190.13479555376
 30
0.0
 11
5745.9582273255
 21
3223.01575567585
 31
0.0
  0
ARC
  5
1AC
330
1F
100
AcDbEntity
  8
Ｓ_１_１
  6
EXLTYPE2
 62
     1
100
AcDbCircle
 10
5764.285408999746
 20
3215.008806881365
 30
0.0
 40
74.9999988824
100
AcDbArc
 50
246.3999974955002
 51
66.40000250450001
  0
LINE
  5
1AD
330
1F
100
AcDbEntity
  8
Ｓ_１_１
  6
EXLTYPE2
 62
     1
100
AcDbLine
 10
5734.259476359082
 20
3146.282162491782
 30
0.0
 11
5518.782312427714
 21
3240.421820658846
 31
0.0
  0
LINE
  5
1AE
330
1F
100
AcDbEntity
  8
Ｓ_１_１
  6
EXLTYPE2
 62
     1
100
AcDbLine
 10
5794.311219463615
 20
3283.73517161931
 30
0.0
 11
5580.612780219373
 21
3377.097724078444
 31
0.0
  0
LINE
  5
1AF
330
1F
100
AcDbEntity
  8
Ｓ_１_１
  6
EXLTYPE2
 62
     1
100
AcDbLine
 10
5548.14015945189
 20
3194.857565522642
 30
0.0
 11
5529.812905133722
 21
3202.864546054476
 31
0.0
  0
LINE
  5
1B0
330
1F
100
AcDbEntity
  8
Ｓ_１_１
  6
EXLTYPE2
 62
     1
100
AcDbLine
 10
5534.973042026889
 20
3189.697428629474
 30
0.0
 11
5542.980022558722
 21
3208.024682947643
 31
0.0
  0
LINE
  5
1B1
330
1F
100
AcDbEntity
  8
Ｓ_１_１
  6
EXLTYPE2
 62
     1
100
AcDbLine
 10
5580.791177822219
 20
3169.67997729993
 30
0.0
 11
5588.798158354053
 21
3188.007231618099
 31
0.0
  0
LINE
  5
1B2
330
1F
100
AcDbEntity
  8
Ｓ_１_１
  6
EXLTYPE2
 62
     1
100
AcDbLine
 10
5593.95829524722
 20
3174.840114193098
 30
0.0
 11
5575.631040929144
 21
3182.847094724891
 31
0.0
  0
LINE
  5
1B3
330
1F
100
AcDbEntity
  8
Ｓ_１_１
  6
EXLTYPE2
 62
     1
100
AcDbLine
 10
5672.870843054087
 20
3380.442003700133
 30
0.0
 11
5664.863862522254
 21
3362.114749381964
 31
0.0
  0
LINE
  5
1B4
330
1F
100
AcDbEntity
  8
Ｓ_１_１
  6
EXLTYPE2
 62
     1
100
AcDbLine
 10
5678.030979947254
 20
3367.274886275131
 30
0.0
 11
5659.703725629178
 21
3375.281866806926
 31
0.0
  0
LINE
  5
1B5
330
1F
100
AcDbEntity
  8
Ｓ_１_１
  6
EXLTYPE2
 62
     1
100
AcDbLine
 10
5627.052707258757
 20
3400.459455029678
 30
0.0
 11
5619.045726726923
 21
3382.132200711509
 31
0.0
  0
LINE
  5
1B6
330
1F
100
AcDbEntity
  8
Ｓ_１_１
  6
EXLTYPE2
 62
     1
100
AcDbLine
 10
5632.212844151924
 20
3387.292337604677
 30
0.0
 11
5613.885589833756
 21
3395.29931813651
 31
0.0
  0
LINE
  5
1B7
330
1F
100
AcDbEntity
  8
Ｓ_１_１
  6
EXLTYPE2
 62
     1
100
AcDbLine
 10
5393.778473755587
 20
3416.036328820696
 30
0.0
 11
5379.413135500605
 21
3383.155368698607
 31
0.0
  0
LINE
  5
1B8
330
1F
100
AcDbEntity
  8
Ｓ_１_１
  6
EXLTYPE2
 62
     1
100
AcDbLine
 10
5365.047797245622
 20
3350.274408576518
 30
0.0
 11
5379.413135500605
 21
3383.155368698607
 31
0.0
  0
DIMENSION
  5
1B9
330
1F
100
AcDbEntity
  8
Ｓ_１_１
  6
CONTINUOUS
 62
     2
100
AcDbDimension
  2
*D29
 10
4818.000313418903
 20
1827.375074501672
 30
0.0
 11
5441.747177330732
 21
2158.293462035338
 31
0.0
 70
   163
  1
P.C.D 400
  3
ISO-25
100
AcDbDiametricDimension
 15
5181.699686581098
 25
1993.876609609027
 35
0.0
 40
0.0
1001
ACAD
1000
DSTYLE
1002
{
1070
   270
1070
     2
1070
     6
1000
EX_NORM
1070
     7
1000
EX_NORM
1070
    41
1040
44.99999618530273
1070
    73
1070
     0
1070
    74
1070
     0
1070
    77
1070
     1
1070
    78
1070
     8
1070
   140
1040
51.9435623556582
1070
   147
1040
0.0
1070
   173
1070
     1
1070
   176
1070
     2
1070
   177
1070
     2
1070
   178
1070
     2
1070
   271
1070
     2
1070
   277
1070
     2
1070
   279
1070
     2
1070
   280
1070
     0
1070
   287
1070
     5
1070
   340
1005
F2
1002
}
  0
DIMENSION
  5
1C4
330
1F
100
AcDbEntity
  8
Ｓ_１_１
  6
CONTINUOUS
 62
     2
100
AcDbDimension
  2
*D30
 10
4894.092296851605
 20
2126.067960751189
 30
0.0
 11
5183.122189190801
 21
1630.886891566786
 31
0.0
 70
   163
  3
ISO-25
100
AcDbDiametricDimension
 15
5105.607703148395
 25
1695.183723359511
 35
0.0
 40
0.0
1001
ACAD
1000
DSTYLE
1002
{
1070
   270
1070
     2
1070
     6
1000
EX_NORM
1070
     7
1000
EX_NORM
1070
    41
1040
44.99999618530273
1070
    73
1070
     0
1070
    74
1070
     0
1070
    77
1070
     1
1070
    78
1070
     8
1070
   140
1040
51.9435623556582
1070
   147
1040
0.0
1070
   173
1070
     1
1070
   176
1070
     2
1070
   177
1070
     2
1070
   178
1070
     2
1070
   271
1070
     2
1070
   277
1070
     2
1070
   279
1070
     2
1070
   280
1070
     1
1070
   287
1070
     5
1070
   340
1005
F2
1002
}
  0
LINE
  5
1CF
330
1F
100
AcDbEntity
  8
Ｓ_１_１
  6
EXLTYPE2
 62
     1
100
AcDbLine
 10
4566.4172830436
 20
2099.99698657045
 30
0.0
 11
5114.7294135887
 21
1860.433907763151
 31
0.0
  0
LINE
  5
1D0
330
1F
100
AcDbEntity
  8
Ｓ_１_１
  6
EXLTYPE2
 62
     1
100
AcDbLine
 10
4737.7969338366
 20
1910.62584205535
 30
0.0
 11
5256.7425437795
 21
1910.62584205535
 31
0.0
  0
LINE
  5
1D1
330
1F
100
AcDbEntity
  8
Ｓ_１_１
  6
EXLTYPE2
 62
     1
100
AcDbLine
 10
4999.85
 20
2169.29870502215
 30
0.0
 11
4999.85
 21
1650.353018785351
 31
0.0
  0
CIRCLE
  5
1D2
330
1F
100
AcDbEntity
  8
Ｓ_１_１
  6
EXLTYPE2
 62
     1
100
AcDbCircle
 10
4999.85
 20
1910.62584205535
 30
0.0
 40
199.9999970198001
  0
LINE
  5
1D3
330
1F
100
AcDbEntity
  8
Ｓ_１_１
  6
EXLTYPE2
 62
     1
100
AcDbLine
 10
5320.6969271875
 20
1877.28203171255
 30
0.0
 11
5024.915257904
 21
2003.20571581525
 31
0.0
  0
LINE
  5
1D4
330
1F
100
AcDbEntity
  8
Ｓ_１_１
  6
EXLTYPE2
 62
     1
100
AcDbLine
 10
5314.3647418418
 20
1896.28062732365
 30
0.0
 11
5302.6134139063
 21
1868.67797721175
 31
0.0
  0
LINE
  5
1D5
330
1F
100
AcDbEntity
  8
Ｓ_１_１
  6
EXLTYPE2
 62
     1
100
AcDbLine
 10
5029.877267202301
 20
1979.35250007165
 30
0.0
 11
4969.822522012801
 21
1841.89916023255
 31
0.0
  0
LINE
  5
1D6
330
1F
100
AcDbEntity
  8
Ｓ_１_１
  6
EXLTYPE2
 62
     1
100
AcDbLine
 10
4994.449151293199
 20
1945.72419281685
 30
0.0
 11
5031.103379911099
 21
1929.709592063251
 31
0.0
  0
LINE
  5
1D7
330
1F
100
AcDbEntity
  8
Ｓ_１_１
  6
EXLTYPE2
 62
     1
100
AcDbLine
 10
4970.427931643699
 20
1890.742885176151
 30
0.0
 11
5007.0821602616
 21
1874.728284422551
 31
0.0
  0
LINE
  5
1D8
330
1F
100
AcDbEntity
  8
Ｓ_１_１
  6
EXLTYPE2
 62
     1
100
AcDbLine
 10
5287.0635480808
 20
1000.00000000005
 30
0.0
 11
1399.754844907599
 21
1000.00000000005
 31
0.0
  0
LINE
  5
1D9
330
1F
100
AcDbEntity
  8
Ｓ_１_１
  6
EXLTYPE2
 62
     1
100
AcDbLine
 10
5000.0
 20
1089.24957142405
 30
0.0
 11
5000.0
 21
915.6497204952501
 31
0.0
  0
LINE
  5
1DA
330
1F
100
AcDbEntity
  8
Ｓ_１_１
  6
EXLTYPE2
 62
     1
100
AcDbLine
 10
4800.0
 20
1035.883103756089
 30
0.0
 11
4800.0
 21
964.1190324744501
 31
0.0
  0
LINE
  5
1DB
330
1F
100
AcDbEntity
  8
Ｓ_１_１
  6
EXLTYPE2
 62
     1
100
AcDbLine
 10
5200.0
 20
1035.883103756089
 30
0.0
 11
5200.0
 21
964.1190324744501
 31
0.0
  0
LINE
  5
1DC
330
1F
100
AcDbEntity
  8
Ｓ_１_１
  6
EXLTYPE2
 62
     1
100
AcDbLine
 10
1149.9999962747
 20
2100.00000000005
 30
0.0
 11
650.0000037252998
 21
2100.00000000005
 31
0.0
  0
LINE
  5
1DD
330
1F
100
AcDbEntity
  8
Ｓ_１_１
  6
EXLTYPE2
 62
     1
100
AcDbLine
 10
899.9999999999995
 20
2349.99999627485
 30
0.0
 11
899.9999999999995
 21
1850.000080019351
 31
0.0
  0
LINE
  5
1DE
330
1F
100
AcDbEntity
  8
Ｓ_１_１
  6
EXLTYPE2
 62
     1
100
AcDbLine
 10
765.0000020117
 20
2000.00000149025
 30
0.0
 11
735.0000024587002
 21
2000.00000149025
 31
0.0
  0
LINE
  5
1DF
330
1F
100
AcDbEntity
  8
Ｓ_１_１
  6
EXLTYPE2
 62
     1
100
AcDbLine
 10
750.0001548230998
 20
2015.00000126665
 30
0.0
 11
750.0001548230998
 21
1985.00000171375
 31
0.0
  0
LINE
  5
1E0
330
1F
100
AcDbEntity
  8
Ｓ_１_１
  6
EXLTYPE2
 62
     1
100
AcDbLine
 10
1049.9999977649
 20
2015.00000126665
 30
0.0
 11
1049.9999977649
 21
1985.00000171375
 31
0.0
  0
LINE
  5
1E1
330
1F
100
AcDbEntity
  8
Ｓ_１_１
  6
EXLTYPE2
 62
     1
100
AcDbLine
 10
1035.0001505763
 20
2000.00000149025
 30
0.0
 11
1064.9999975413
 21
2000.00000149025
 31
0.0
  0
LINE
  5
1E2
330
1F
100
AcDbEntity
  8
Ｓ_１_１
  6
EXLTYPE2
 62
     1
100
AcDbLine
 10
1035.0001505763
 20
2199.99999850995
 30
0.0
 11
1064.9999975413
 21
2199.99999850995
 31
0.0
  0
LINE
  5
1E3
330
1F
100
AcDbEntity
  8
Ｓ_１_１
  6
EXLTYPE2
 62
     1
100
AcDbLine
 10
1049.9999977649
 20
2214.999998286451
 30
0.0
 11
1049.9999977649
 21
2184.999998733451
 31
0.0
  0
LINE
  5
1E4
330
1F
100
AcDbEntity
  8
Ｓ_１_１
  6
EXLTYPE2
 62
     1
100
AcDbLine
 10
765.0000020117
 20
2199.99999850995
 30
0.0
 11
735.0000024587002
 21
2199.99999850995
 31
0.0
  0
LINE
  5
1E5
330
1F
100
AcDbEntity
  8
Ｓ_１_１
  6
EXLTYPE2
 62
     1
100
AcDbLine
 10
750.0001548230998
 20
2214.999998286451
 30
0.0
 11
750.0001548230998
 21
2184.999998733451
 31
0.0
  0
DIMENSION
  5
1E6
330
1F
100
AcDbEntity
  8
Ｓ_１_１
  6
CONTINUOUS
 62
     2
100
AcDbDimension
  2
*D31
 10
5764.285408999746
 20
3215.008806881365
 30
0.0
 11
5908.59679194453
 21
3296.382067842002
 31
0.0
 70
   164
  3
ISO-25
100
AcDbRadialDimension
 15
5829.002441160249
 25
3232.349683385302
 35
0.0
 40
0.0
1001
ACAD
1000
DSTYLE
1002
{
1070
   270
1070
     2
1070
     6
1000
EX_NORM
1070
     7
1000
EX_NORM
1070
    41
1040
44.99999618530273
1070
    73
1070
     0
1070
    74
1070
     0
1070
    77
1070
     1
1070
    78
1070
     8
1070
   140
1040
51.9435623556582
1070
   147
1040
0.0
1070
   173
1070
     1
1070
   176
1070
     2
1070
   177
1070
     2
1070
   178
1070
     2
1070
   271
1070
     2
1070
   277
1070
     2
1070
   279
1070
     2
1070
   280
1070
     0
1070
   287
1070
     5
1070
   340
1005
F2
1002
}
  0
DIMENSION
  5
1F0
330
1F
100
AcDbEntity
  8
Ｓ_１_１
  6
CONTINUOUS
 62
     2
100
AcDbDimension
  2
*D32
 10
5745.9582273255
 20
3223.01575567585
 30
0.0
 11
5742.059071762573
 21
3396.945363680738
 31
0.0
 70
   164
  3
ISO-25
100
AcDbRadialDimension
 15
5737.934836927325
 25
3252.959456290811
 35
0.0
 40
0.0
1001
ACAD
1000
DSTYLE
1002
{
1070
   270
1070
     2
1070
     6
1000
EX_NORM
1070
     7
1000
EX_NORM
1070
    41
1040
44.99999618530273
1070
    73
1070
     0
1070
    74
1070
     0
1070
    77
1070
     1
1070
    78
1070
     8
1070
   140
1040
51.9435623556582
1070
   147
1040
0.0
1070
   173
1070
     1
1070
   176
1070
     2
1070
   177
1070
     2
1070
   178
1070
     2
1070
   271
1070
     2
1070
   277
1070
     2
1070
   279
1070
     2
1070
   280
1070
     0
1070
   287
1070
     5
1070
   340
1005
F2
1002
}
  0
LINE
  5
1FA
330
1F
100
AcDbEntity
  8
Ｓ_１_１
  6
EXLTYPE2
 62
     1
100
AcDbLine
 10
1434.4167795157
 20
2199.99999850995
 30
0.0
 11
1496.416901407199
 21
2199.99999850995
 31
0.0
  0
LINE
  5
1FB
330
1F
100
AcDbEntity
  8
Ｓ_１_１
  6
EXLTYPE2
 62
     1
100
AcDbLine
 10
1434.4167795157
 20
2000.000001490249
 30
0.0
 11
1496.416901407199
 21
2000.000001490249
 31
0.0
  0
LINE
  5
1FC
330
1F
100
AcDbEntity
  8
Ｓ_１_１
  6
EXLTYPE2
 62
     1
100
AcDbLine
 10
1490.2210760084
 20
1149.99999776485
 30
0.0
 11
1444.3140178276
 21
1149.99999776485
 31
0.0
  0
LINE
  5
1FD
330
1F
100
AcDbEntity
  8
Ｓ_１_１
  6
EXLTYPE2
 62
     1
100
AcDbLine
 10
1490.2210760084
 20
850.0000022352496
 30
0.0
 11
1444.3140178276
 21
850.0000022352496
 31
0.0
  0
LINE
  5
1FE
330
1F
100
AcDbEntity
  8
Ｓ_１_１
  6
EXLTYPE2
 62
     1
100
AcDbLine
 10
4573.4320070866
 20
2060.000000596151
 30
0.0
 11
4531.0253915076
 21
2060.000000596151
 31
0.0
  0
LINE
  5
1FF
330
1F
100
AcDbEntity
  8
Ｓ_１_１
  6
EXLTYPE2
 62
     1
100
AcDbLine
 10
4577.3315431613
 20
2139.99999940405
 30
0.0
 11
4532.4876412416
 21
2139.99999940405
 31
0.0
  0
LINE
  5
200
330
1F
100
AcDbEntity
  8
Ｓ_１_１
  6
EXLTYPE2
 62
     1
100
AcDbLine
 10
4586.567389271199
 20
1040.00000000005
 30
0.0
 11
4522.5665351366
 21
1040.00000000005
 31
0.0
  0
LINE
  5
201
330
1F
100
AcDbEntity
  8
Ｓ_１_１
  6
EXLTYPE2
 62
     1
100
AcDbLine
 10
4586.567389271199
 20
960.0000000000499
 30
0.0
 11
4522.5665351366
 21
960.0000000000499
 31
0.0
  0
LINE
  5
202
330
1F
100
AcDbEntity
  8
Ｓ_１_１
  6
EXLTYPE2
 62
     1
100
AcDbLine
 10
2300.0
 20
2400.0
 30
0.0
 11
2300.0
 21
1800.0
 31
0.0
  0
TEXT
  5
203
330
1F
100
AcDbEntity
  8
Ｓ_１_１
  6
CONTINUOUS
 62
     4
100
AcDbText
 10
2348.25
 20
2386.4927939355
 30
0.0
 40
51.9435623556582
  1
A
 41
0.9992307692307691
  7
EXCADTTF1
 72
     5
 11
2382.0
 21
2386.4927939355
 31
0.0
100
AcDbText
  0
POLYLINE
  5
204
330
1F
100
AcDbEntity
  8
Ｓ_１_１
  6
CONTINUOUS
 62
     2
100
AcDb2dPolyline
 66
     1
 10
0.0
 20
0.0
 30
0.0
 70
   128
  0
VERTEX
  5
205
330
204
100
AcDbEntity
  8
Ｓ_１_１
  6
CONTINUOUS
 62
     2
100
AcDbVertex
100
AcDb2dVertex
 10
2300.0
 20
2369.5006064355
 30
0.0
  0
VERTEX
  5
206
330
204
100
AcDbEntity
  8
Ｓ_１_１
  6
CONTINUOUS
 62
     2
100
AcDbVertex
100
AcDb2dVertex
 10
2382.0
 20
2369.5006064355
 30
0.0
  0
SEQEND
  5
207
330
204
100
AcDbEntity
  8
Ｓ_１_１
  6
CONTINUOUS
 62
     2
  0
LINE
  5
208
330
1F
100
AcDbEntity
  8
Ｓ_１_１
  6
CONTINUOUS
 62
     2
100
AcDbLine
 10
2345.0
 20
2377.0006064355
 30
0.0
 11
2300.0
 21
2369.5006064355
 31
0.0
  0
LINE
  5
209
330
1F
100
AcDbEntity
  8
Ｓ_１_１
  6
CONTINUOUS
 62
     2
100
AcDbLine
 10
2300.0
 20
2369.5006064355
 30
0.0
 11
2345.0
 21
2362.0006064355
 31
0.0
  0
TEXT
  5
20A
330
1F
100
AcDbEntity
  8
Ｓ_１_１
  6
CONTINUOUS
 62
     4
100
AcDbText
 10
2348.25
 20
1847.4915810646
 30
0.0
 40
51.9435623556582
  1
A
 41
0.9992307692307691
  7
EXCADTTF1
 72
     5
 11
2382.0
 21
1847.4915810646
 31
0.0
100
AcDbText
  0
POLYLINE
  5
20B
330
1F
100
AcDbEntity
  8
Ｓ_１_１
  6
CONTINUOUS
 62
     2
100
AcDb2dPolyline
 66
     1
 10
0.0
 20
0.0
 30
0.0
 70
   128
  0
VERTEX
  5
20C
330
20B
100
AcDbEntity
  8
Ｓ_１_１
  6
CONTINUOUS
 62
     2
100
AcDbVertex
100
AcDb2dVertex
 10
2300.0
 20
1830.4993935646
 30
0.0
  0
VERTEX
  5
20D
330
20B
100
AcDbEntity
  8
Ｓ_１_１
  6
CONTINUOUS
 62
     2
100
AcDbVertex
100
AcDb2dVertex
 10
2382.0
 20
1830.4993935646
 30
0.0
  0
SEQEND
  5
20E
330
20B
100
AcDbEntity
  8
Ｓ_１_１
  6
CONTINUOUS
 62
     2
  0
LINE
  5
20F
330
1F
100
AcDbEntity
  8
Ｓ_１_１
  6
CONTINUOUS
 62
     2
100
AcDbLine
 10
2345.0
 20
1837.9993935646
 30
0.0
 11
2300.0
 21
1830.4993935646
 31
0.0
  0
LINE
  5
210
330
1F
100
AcDbEntity
  8
Ｓ_１_１
  6
CONTINUOUS
 62
     2
100
AcDbLine
 10
2300.0
 20
1830.4993935646
 30
0.0
 11
2345.0
 21
1822.9993935646
 31
0.0
  0
TEXT
  5
211
330
1F
100
AcDbEntity
  8
Ｓ_１_１
  6
CONTINUOUS
 62
     4
100
AcDbText
 10
5125.308266617308
 20
2388.612219571037
 30
0.0
 40
51.9435623556582
  1
B
 50
63.43494882292271
 41
0.9992307692307675
  7
EXCADTTF1
 72
     5
 11
5140.401725465431
 21
2418.799137267285
 31
0.0
100
AcDbText
  0
LEADER
  5
212
330
1F
100
AcDbEntity
  8
Ｓ_１_１
  6
CONTINUOUS
 62
     2
100
AcDbLeader
  3
ISO-25
 76
     2
 10
5100.0
 20
2300.0
 30
0.0
 10
5155.59999999998
 20
2411.19999999996
 30
0.0
1001
ACAD
1000
DSTYLE
1002
{
1070
     5
1000
EX_NORM
1070
    41
1040
45.0
1070
   341
1005
78
1002
}
  0
TEXT
  5
213
330
1F
100
AcDbEntity
  8
Ｓ_１_１
  6
CONTINUOUS
 62
     4
100
AcDbText
 10
5400.0
 20
2975.7421875
 30
0.0
 40
51.9435623556582
  1
B矢示図
 41
0.9992307692307691
  7
EXCADTTF1
 72
     5
 11
5636.25
 21
2975.7421875
 31
0.0
100
AcDbText
  0
LINE
  5
214
330
1F
100
AcDbEntity
  8
Ｓ_１_１
  6
EXLTYPE2
 62
     1
100
AcDbLine
 10
4566.4173892712
 20
2100.00000000005
 30
0.0
 11
1343.2719905225
 21
2100.00000000005
 31
0.0
  0
LINE
  5
215
330
1F
100
AcDbEntity
  8
Ｓ_１_１
  6
CONTINUOUS
 62
     3
100
AcDbLine
 10
5562.997229539236
 20
3253.842258705789
 30
0.0
 11
5560.995240321079
 21
3249.259886437302
 31
0.0
  0
LINE
  5
216
330
1F
100
AcDbEntity
  8
Ｓ_１_１
  6
CONTINUOUS
 62
     3
100
AcDbLine
 10
5601.030509510678
 20
3340.89699698315
 30
0.0
 11
5599.028642469357
 21
3336.314904366392
 31
0.0
  0
LINE
  5
217
330
1F
100
AcDbEntity
  8
Ｓ_１_１
  6
CONTINUOUS
 62
     3
100
AcDbLine
 10
5564.376000328189
 20
3356.910958285426
 30
0.0
 11
5562.374133286868
 21
3352.328865668667
 31
0.0
  0
LINE
  5
218
330
1F
100
AcDbEntity
  8
Ｓ_１_１
  6
CONTINUOUS
 62
     3
100
AcDbLine
 10
5798.795717513925
 20
3249.038815268988
 30
0.0
 11
5580.701387878113
 21
3344.32188501753
 31
0.0
  0
ARC
  5
219
330
1F
100
AcDbEntity
  8
Ｓ_１_１
  6
CONTINUOUS
 62
     3
100
AcDbCircle
 10
5745.9582273255
 20
3223.01575567585
 30
0.0
 40
31.00000000000002
100
AcDbArc
 50
70.65688440821495
 51
156.4000000000002
  0
ARC
  5
21A
330
1F
100
AcDbEntity
  8
Ｓ_１_１
  6
CONTINUOUS
 62
     3
100
AcDbCircle
 10
5793.724451752844
 20
3244.924607911873
 30
0.0
 40
5.0
100
AcDbArc
 50
251.4
 51
336.4000000000005
  0
LINE
  5
21B
330
1F
100
AcDbEntity
  8
Ｓ_１_１
  6
CONTINUOUS
 62
     3
100
AcDbLine
 10
5792.129655206354
 20
3240.185765861825
 30
0.0
 11
5755.845965913738
 21
3252.39657638614
 31
0.0
  0
LINE
  5
21C
330
1F
100
AcDbEntity
  8
Ｓ_１_１
  6
CONTINUOUS
 62
     3
100
AcDbLine
 10
5799.827744907936
 20
3246.40539174475
 30
0.0
 11
5798.306265400656
 21
3242.922862749088
 31
0.0
  0
LINE
  5
21D
330
1F
100
AcDbEntity
  8
Ｓ_１_１
  6
CONTINUOUS
 62
     3
100
AcDbLine
 10
5799.827744907936
 20
3246.40539174475
 30
0.0
 11
5798.795717513925
 21
3249.038815268988
 31
0.0
  0
ARC
  5
21E
330
1F
100
AcDbEntity
  8
Ｓ_１_１
  6
CONTINUOUS
 62
     3
100
AcDbCircle
 10
5745.9582273255
 20
3223.01575567585
 30
0.0
 40
31.00000000000002
100
AcDbArc
 50
156.4000000000002
 51
242.1431155917851
  0
ARC
  5
21F
330
1F
100
AcDbEntity
  8
Ｓ_１_１
  6
CONTINUOUS
 62
     3
100
AcDbCircle
 10
5762.337393967512
 20
3173.082471160843
 30
0.0
 40
5.0
100
AcDbArc
 50
336.4000000000005
 51
61.40000000000027
  0
LINE
  5
220
330
1F
100
AcDbEntity
  8
Ｓ_１_１
  6
CONTINUOUS
 62
     3
100
AcDbLine
 10
5764.730853257215
 20
3177.472386037985
 30
0.0
 11
5731.118779729345
 21
3195.798283437588
 31
0.0
  0
LINE
  5
221
330
1F
100
AcDbEntity
  8
Ｓ_１_１
  6
CONTINUOUS
 62
     3
100
AcDbLine
 10
5765.397728108043
 20
3167.598197002398
 30
0.0
 11
5766.919207615323
 21
3171.080725998058
 31
0.0
  0
LINE
  5
222
330
1F
100
AcDbEntity
  8
Ｓ_１_１
  6
CONTINUOUS
 62
     3
100
AcDbLine
 10
5765.397728108043
 20
3167.598197002398
 30
0.0
 11
5762.764304583805
 21
3166.566169608387
 31
0.0
  0
LINE
  5
223
330
1F
100
AcDbEntity
  8
Ｓ_１_１
  6
CONTINUOUS
 62
     3
100
AcDbLine
 10
5634.304257320587
 20
3217.23196442931
 30
0.0
 11
5627.498885881943
 21
3201.655084656749
 31
0.0
  0
LINE
  5
224
330
1F
100
AcDbEntity
  8
Ｓ_１_１
  6
CONTINUOUS
 62
     3
100
AcDbLine
 10
5704.365214797217
 20
3377.595160061374
 30
0.0
 11
5687.550628986516
 21
3339.108093784368
 31
0.0
  0
LINE
  5
225
330
1F
100
AcDbEntity
  8
Ｓ_１_１
  6
CONTINUOUS
 62
     3
100
AcDbLine
 10
5797.514084982458
 20
3291.066241137633
 30
0.0
 11
5586.750730236679
 21
3383.146486709414
 31
0.0
  0
LINE
  5
226
330
1F
100
AcDbEntity
  8
Ｓ_１_１
  6
CONTINUOUS
 62
     3
100
AcDbLine
 10
5791.108476121608
 20
3276.404381752715
 30
0.0
 11
5580.345121375829
 21
3368.484627324497
 31
0.0
  0
LINE
  5
227
330
1F
100
AcDbEntity
  8
Ｓ_１_１
  6
CONTINUOUS
 62
     3
100
AcDbLine
 10
5633.101423136963
 20
3386.904261356442
 30
0.0
 11
5631.878659790947
 21
3397.805441413159
 31
0.0
  0
LINE
  5
228
330
1F
100
AcDbEntity
  8
Ｓ_１_１
  6
CONTINUOUS
 62
     3
100
AcDbLine
 10
5631.878691846341
 20
3397.80553196557
 30
0.0
 11
5621.826471385994
 21
3402.197239099131
 31
0.0
  0
LINE
  5
229
330
1F
100
AcDbEntity
  8
Ｓ_１_１
  6
CONTINUOUS
 62
     3
100
AcDbLine
 10
5612.996966476717
 20
3395.687634137171
 30
0.0
 11
5621.826406582376
 21
3402.197258697229
 31
0.0
  0
LINE
  5
22A
330
1F
100
AcDbEntity
  8
Ｓ_１_１
  6
CONTINUOUS
 62
     3
100
AcDbLine
 10
5614.219855970452
 20
3384.786354109105
 30
0.0
 11
5612.997092624435
 21
3395.687534165822
 31
0.0
  0
LINE
  5
22B
330
1F
100
AcDbEntity
  8
Ｓ_１_１
  6
CONTINUOUS
 62
     3
100
AcDbLine
 10
5624.272084776482
 20
3380.394696293693
 30
0.0
 11
5614.219864316135
 21
3384.786403427254
 31
0.0
  0
LINE
  5
22C
330
1F
100
AcDbEntity
  8
Ｓ_１_１
  6
CONTINUOUS
 62
     3
100
AcDbLine
 10
5633.10141931826
 20
3386.904203203393
 30
0.0
 11
5624.271979212692
 21
3380.394578643295
 31
0.0
  0
LINE
  5
22D
330
1F
100
AcDbEntity
  8
Ｓ_１_１
  6
CONTINUOUS
 62
     3
100
AcDbLine
 10
5670.090220571904
 20
3360.377244964107
 30
0.0
 11
5660.038000111464
 21
3364.768952097709
 31
0.0
  0
LINE
  5
22E
330
1F
100
AcDbEntity
  8
Ｓ_１_１
  6
CONTINUOUS
 62
     3
100
AcDbLine
 10
5660.037960323391
 20
3364.768899929958
 30
0.0
 11
5658.815196977414
 21
3375.670079986768
 31
0.0
  0
LINE
  5
22F
330
1F
100
AcDbEntity
  8
Ｓ_１_１
  6
CONTINUOUS
 62
     3
100
AcDbLine
 10
5658.81517354815
 20
3375.670084996884
 30
0.0
 11
5667.644613653717
 21
3382.179709556983
 31
0.0
  0
LINE
  5
230
330
1F
100
AcDbEntity
  8
Ｓ_１_１
  6
CONTINUOUS
 62
     3
100
AcDbLine
 10
5677.696827641763
 20
3377.788080635985
 30
0.0
 11
5667.644607181323
 21
3382.179787769587
 31
0.0
  0
LINE
  5
231
330
1F
100
AcDbEntity
  8
Ｓ_１_１
  6
CONTINUOUS
 62
     3
100
AcDbLine
 10
5678.919565399101
 20
3366.886811429529
 30
0.0
 11
5677.696802053085
 21
3377.787991486247
 31
0.0
  0
LINE
  5
232
330
1F
100
AcDbEntity
  8
Ｓ_１_１
  6
CONTINUOUS
 62
     3
100
AcDbLine
 10
5678.919535841169
 20
3366.886776880207
 30
0.0
 11
5670.090095735602
 21
3360.377152320109
 31
0.0
  0
LINE
  5
233
330
1F
100
AcDbEntity
  8
Ｓ_１_１
  6
CONTINUOUS
 62
     3
100
AcDbLine
 10
5603.56531604738
 20
3421.633552986421
 30
0.0
 11
5580.345121375829
 21
3368.484627324497
 31
0.0
  0
LINE
  5
234
330
1F
100
AcDbEntity
  8
Ｓ_１_１
  6
CONTINUOUS
 62
     3
100
AcDbLine
 10
5593.624142941729
 20
3185.35330855395
 30
0.0
 11
5583.571922481289
 21
3189.745015687553
 31
0.0
  0
LINE
  5
235
330
1F
100
AcDbEntity
  8
Ｓ_１_１
  6
CONTINUOUS
 62
     3
100
AcDbLine
 10
5583.571837778066
 20
3189.745063341777
 30
0.0
 11
5574.742397672498
 21
3183.235438781677
 31
0.0
  0
LINE
  5
236
330
1F
100
AcDbEntity
  8
Ｓ_１_１
  6
CONTINUOUS
 62
     3
100
AcDbLine
 10
5574.742514941128
 20
3183.235309516728
 30
0.0
 11
5575.965278287053
 21
3172.334129460049
 31
0.0
  0
LINE
  5
237
330
1F
100
AcDbEntity
  8
Ｓ_１_１
  6
CONTINUOUS
 62
     3
100
AcDbLine
 10
5586.01753587187
 20
3167.942472882073
 30
0.0
 11
5575.96531541143
 21
3172.334180015675
 31
0.0
  0
LINE
  5
238
330
1F
100
AcDbEntity
  8
Ｓ_１_１
  6
CONTINUOUS
 62
     3
100
AcDbLine
 10
5594.846759965518
 20
3174.452130665001
 30
0.0
 11
5586.01731985991
 21
3167.94250610481
 31
0.0
  0
LINE
  5
239
330
1F
100
AcDbEntity
  8
Ｓ_１_１
  6
CONTINUOUS
 62
     3
100
AcDbLine
 10
5594.846883362815
 20
3174.452040959489
 30
0.0
 11
5593.624120016799
 21
3185.353221016207
 31
0.0
  0
LINE
  5
23A
330
1F
100
AcDbEntity
  8
Ｓ_１_１
  6
CONTINUOUS
 62
     3
100
AcDbLine
 10
5621.093277021133
 20
3186.993225271922
 30
0.0
 11
5604.277958149413
 21
3148.50448108454
 31
0.0
  0
LINE
  5
23B
330
1F
100
AcDbEntity
  8
Ｓ_１_１
  6
CONTINUOUS
 62
     3
100
AcDbLine
 10
5681.145020125665
 20
3324.44623439945
 30
0.0
 11
5674.339526510185
 21
3308.869074975158
 31
0.0
  0
CIRCLE
  5
23C
330
1F
100
AcDbEntity
  8
Ｓ_１_１
  6
CONTINUOUS
 62
     3
100
AcDbCircle
 10
5668.867352788171
 20
3371.278376541049
 30
0.0
 40
6.000000149000004
  0
CIRCLE
  5
23D
330
1F
100
AcDbEntity
  8
Ｓ_１_１
  6
CONTINUOUS
 62
     3
100
AcDbCircle
 10
5623.04921699284
 20
3391.295827870593
 30
0.0
 40
6.000000149000004
  0
ARC
  5
23E
330
1F
100
AcDbEntity
  8
Ｓ_１_１
  6
CONTINUOUS
 62
     3
100
AcDbCircle
 10
5764.285408999746
 20
3215.008806881365
 30
0.0
 40
83.0000006706
100
AcDbArc
 50
246.3999974955002
 51
66.40000250450001
  0
ARC
  5
23F
330
1F
100
AcDbEntity
  8
Ｓ_１_１
  6
CONTINUOUS
 62
     3
100
AcDbCircle
 10
5764.285408999746
 20
3215.008806881365
 30
0.0
 40
67.0000018626
100
AcDbArc
 50
246.3999974955002
 51
66.40000250450001
  0
CIRCLE
  5
240
330
1F
100
AcDbEntity
  8
Ｓ_１_１
  6
CONTINUOUS
 62
     3
100
AcDbCircle
 10
5623.04921699284
 20
3391.295827870593
 30
0.0
 40
9.499999739200007
  0
CIRCLE
  5
241
330
1F
100
AcDbEntity
  8
Ｓ_１_１
  6
CONTINUOUS
 62
     3
100
AcDbCircle
 10
5668.867352788171
 20
3371.278376541049
 30
0.0
 40
9.499999739200007
  0
CIRCLE
  5
242
330
1F
100
AcDbEntity
  8
Ｓ_１_１
  6
CONTINUOUS
 62
     3
100
AcDbCircle
 10
5584.794668088136
 20
3178.843604459014
 30
0.0
 40
6.000000149000004
  0
CIRCLE
  5
243
330
1F
100
AcDbEntity
  8
Ｓ_１_１
  6
CONTINUOUS
 62
     3
100
AcDbCircle
 10
5584.794668088136
 20
3178.843604459014
 30
0.0
 40
9.499999739200007
  0
LINE
  5
244
330
1F
100
AcDbEntity
  8
Ｓ_１_１
  6
CONTINUOUS
 62
     3
100
AcDbLine
 10
5717.151663623067
 20
3107.123926301093
 30
0.0
 11
5817.943173438553
 21
3337.826577088917
 31
0.0
  0
LINE
  5
245
330
1F
100
AcDbEntity
  8
Ｓ_１_１
  6
CONTINUOUS
 62
     3
100
AcDbLine
 10
5526.342720356747
 20
3269.856220008066
 30
0.0
 11
5524.34073113859
 21
3265.273847739578
 31
0.0
  0
LINE
  5
246
330
1F
100
AcDbEntity
  8
Ｓ_１_１
  6
CONTINUOUS
 62
     3
100
AcDbLine
 10
5762.764304583805
 20
3166.566169608387
 30
0.0
 11
5544.669974947992
 21
3261.849239356928
 31
0.0
  0
LINE
  5
247
330
1F
100
AcDbEntity
  8
Ｓ_１_１
  6
CONTINUOUS
 62
     3
100
AcDbLine
 10
5326.575645312178
 20
3357.132309105468
 30
0.0
 11
5544.669974947992
 21
3261.849239356928
 31
0.0
  0
LINE
  5
248
330
1F
100
AcDbEntity
  8
Ｓ_１_１
  6
CONTINUOUS
 62
     3
100
AcDbLine
 10
5362.6070582423
 20
3439.60495476607
 30
0.0
 11
5580.701387878113
 21
3344.32188501753
 31
0.0
  0
ARC
  5
249
330
1F
100
AcDbEntity
  8
Ｓ_１_１
  6
CONTINUOUS
 62
     3
100
AcDbCircle
 10
5379.413135500605
 20
3383.155368698607
 30
0.0
 40
31.00000000000002
100
AcDbArc
 50
336.4000000000005
 51
62.14311559178513
  0
ARC
  5
24A
330
1F
100
AcDbEntity
  8
Ｓ_１_１
  6
CONTINUOUS
 62
     3
100
AcDbCircle
 10
5363.033968858592
 20
3433.088653213614
 30
0.0
 40
5.0
100
AcDbArc
 50
156.4000000000002
 51
241.4000000000006
  0
LINE
  5
24B
330
1F
100
AcDbEntity
  8
Ｓ_１_１
  6
CONTINUOUS
 62
     3
100
AcDbLine
 10
5360.64050956889
 20
3428.698738336473
 30
0.0
 11
5394.25258309676
 21
3410.372840936869
 31
0.0
  0
LINE
  5
24C
330
1F
100
AcDbEntity
  8
Ｓ_１_１
  6
CONTINUOUS
 62
     3
100
AcDbLine
 10
5359.973634718061
 20
3438.57292737206
 30
0.0
 11
5358.452155210781
 21
3435.090398376398
 31
0.0
  0
LINE
  5
24D
330
1F
100
AcDbEntity
  8
Ｓ_１_１
  6
CONTINUOUS
 62
     3
100
AcDbLine
 10
5359.973634718061
 20
3438.57292737206
 30
0.0
 11
5362.6070582423
 21
3439.60495476607
 31
0.0
  0
ARC
  5
24E
330
1F
100
AcDbEntity
  8
Ｓ_１_１
  6
CONTINUOUS
 62
     3
100
AcDbCircle
 10
5379.413135500605
 20
3383.155368698607
 30
0.0
 40
31.00000000000002
100
AcDbArc
 50
250.656884408215
 51
336.4000000000005
  0
ARC
  5
24F
330
1F
100
AcDbEntity
  8
Ｓ_１_１
  6
CONTINUOUS
 62
     3
100
AcDbCircle
 10
5331.64691107326
 20
3361.246516462584
 30
0.0
 40
5.0
100
AcDbArc
 50
71.3999999999998
 51
156.4000000000002
  0
LINE
  5
250
330
1F
100
AcDbEntity
  8
Ｓ_１_１
  6
CONTINUOUS
 62
     3
100
AcDbLine
 10
5333.241707619751
 20
3365.985358512632
 30
0.0
 11
5369.525396912367
 21
3353.774547988317
 31
0.0
  0
LINE
  5
251
330
1F
100
AcDbEntity
  8
Ｓ_１_１
  6
CONTINUOUS
 62
     3
100
AcDbLine
 10
5325.543617918168
 20
3359.765732629708
 30
0.0
 11
5327.065097425449
 21
3363.248261625368
 31
0.0
  0
LINE
  5
252
330
1F
100
AcDbEntity
  8
Ｓ_１_１
  6
CONTINUOUS
 62
     3
100
AcDbLine
 10
5325.543617918168
 20
3359.765732629708
 30
0.0
 11
5326.575645312178
 21
3357.132309105468
 31
0.0
  0
LINE
  5
253
330
1F
100
AcDbEntity
  8
Ｓ_１_１
  6
CONTINUOUS
 62
     3
100
AcDbLine
 10
5731.056733017075
 20
3138.951372625188
 30
0.0
 11
5520.293378271296
 21
3231.031618196969
 31
0.0
  0
LINE
  5
254
330
1F
100
AcDbEntity
  8
Ｓ_１_１
  6
CONTINUOUS
 62
     3
100
AcDbLine
 10
5737.462341877886
 20
3153.613232010014
 30
0.0
 11
5526.698987132107
 21
3245.693477581794
 31
0.0
  0
LINE
  5
255
330
1F
100
AcDbEntity
  8
Ｓ_１_１
  6
CONTINUOUS
 62
     3
100
AcDbLine
 10
5547.806007146306
 20
3205.370759883536
 30
0.0
 11
5537.753786685959
 21
3209.762467017097
 31
0.0
  0
LINE
  5
256
330
1F
100
AcDbEntity
  8
Ｓ_１_１
  6
CONTINUOUS
 62
     3
100
AcDbLine
 10
5537.753721255248
 20
3209.762489664922
 30
0.0
 11
5528.924281149589
 21
3203.252865104863
 31
0.0
  0
LINE
  5
257
330
1F
100
AcDbEntity
  8
Ｓ_１_１
  6
CONTINUOUS
 62
     3
100
AcDbLine
 10
5528.924410588189
 20
3203.252763695874
 30
0.0
 11
5530.147173934166
 21
3192.351583639064
 31
0.0
  0
LINE
  5
258
330
1F
100
AcDbEntity
  8
Ｓ_１_１
  6
CONTINUOUS
 62
     3
100
AcDbLine
 10
5540.199400076448
 20
3187.959924211657
 30
0.0
 11
5530.1471796161
 21
3192.351631345219
 31
0.0
  0
LINE
  5
259
330
1F
100
AcDbEntity
  8
Ｓ_１_１
  6
CONTINUOUS
 62
     3
100
AcDbLine
 10
5549.028733991224
 20
3194.469434171046
 30
0.0
 11
5540.199293885565
 21
3187.959809610988
 31
0.0
  0
LINE
  5
25A
330
1F
100
AcDbEntity
  8
Ｓ_１_１
  6
CONTINUOUS
 62
     3
100
AcDbLine
 10
5549.028741100677
 20
3194.469490886401
 30
0.0
 11
5547.80597775466
 21
3205.37067094312
 31
0.0
  0
LINE
  5
25B
330
1F
100
AcDbEntity
  8
Ｓ_１_１
  6
CONTINUOUS
 62
     3
100
AcDbLine
 10
5503.478670283718
 20
3192.544272268141
 30
0.0
 11
5526.698987132107
 21
3245.693477581794
 31
0.0
  0
CIRCLE
  5
25C
330
1F
100
AcDbEntity
  8
Ｓ_１_１
  6
CONTINUOUS
 62
     3
100
AcDbCircle
 10
5538.976532292806
 20
3198.861055788559
 30
0.0
 40
6.000000149000004
  0
CIRCLE
  5
25D
330
1F
100
AcDbEntity
  8
Ｓ_１_１
  6
CONTINUOUS
 62
     3
100
AcDbCircle
 10
5538.976532292806
 20
3198.861055788559
 30
0.0
 40
9.499999739200007
  0
LINE
  5
25E
330
1F
100
AcDbEntity
  8
Ｓ_１_１
  6
CONTINUOUS
 62
     3
100
AcDbLine
 10
5634.304257320587
 20
3217.23196442931
 30
0.0
 11
5256.265970224246
 21
3382.392831000988
 31
0.0
  0
LINE
  5
25F
330
1F
100
AcDbEntity
  8
Ｓ_１_１
  6
CONTINUOUS
 62
     3
100
AcDbLine
 10
5604.277958149413
 20
3148.50448108454
 30
0.0
 11
5202.389676670245
 21
3324.085153994492
 31
0.0
  0
LINE
  5
260
330
1F
100
AcDbEntity
  8
Ｓ_１_１
  6
CONTINUOUS
 62
     3
100
AcDbLine
 10
5674.339526510185
 20
3308.869074975158
 30
0.0
 11
5328.10139366674
 21
3460.136795765592
 31
0.0
  0
LINE
  5
261
330
1F
100
AcDbEntity
  8
Ｓ_１_１
  6
CONTINUOUS
 62
     3
100
AcDbLine
 10
5704.365214797217
 20
3377.595160061374
 30
0.0
 11
5381.97659110919
 21
3518.443286504173
 31
0.0
  0
LINE
  5
262
330
1F
100
AcDbEntity
  8
Ｓ_１_１
  6
CONTINUOUS
 62
     3
100
AcDbLine
 10
5598.416172281463
 20
3384.869424462761
 30
0.0
 11
5528.915639910097
 21
3225.788991214048
 31
0.0
  0
LINE
  5
263
330
1F
100
AcDbEntity
  8
Ｓ_１_１
  6
CONTINUOUS
 62
     3
100
AcDbLine
 10
5176.4826975585
 20
3296.04729781295
 30
0.0
 11
5407.4826975585
 21
3546.04729781295
 31
0.0
  0
LINE
  5
264
330
1F
100
AcDbEntity
  8
Ｓ_１_１
  6
CONTINUOUS
 62
     3
100
AcDbLine
 10
5631.701890906308
 20
3211.275383054605
 30
0.0
 11
5251.596535071033
 21
3377.339329752921
 31
0.0
  0
LINE
  5
265
330
1F
100
AcDbEntity
  8
Ｓ_１_１
  6
CONTINUOUS
 62
     3
100
AcDbLine
 10
5676.941648570872
 20
3314.825097046589
 30
0.0
 11
5332.770390375448
 21
3465.189822506617
 31
0.0
  0
LINE
  5
266
330
1F
100
AcDbEntity
  8
Ｓ_１_１
  6
CONTINUOUS
 62
     3
100
AcDbLine
 10
5003.205122536438
 20
1958.268808324698
 30
0.0
 11
4967.172270840872
 21
1875.796793934262
 31
0.0
  0
LINE
  5
267
330
1F
100
AcDbEntity
  8
Ｓ_１_１
  6
CONTINUOUS
 62
     3
100
AcDbLine
 10
5032.528506229204
 20
1945.457127373048
 30
0.0
 11
4996.495654533864
 21
1862.985112982579
 31
0.0
  0
ARC
  5
268
330
1F
100
AcDbEntity
  8
Ｓ_１_１
  6
CONTINUOUS
 62
     3
100
AcDbCircle
 10
4999.85
 20
1910.626071374549
 30
0.0
 40
19.0
100
AcDbArc
 50
123.7621022649405
 51
189.0358972726873
  0
ARC
  5
269
330
1F
100
AcDbEntity
  8
Ｓ_１_１
  6
CONTINUOUS
 62
     3
100
AcDbCircle
 10
4999.8498998082
 20
1910.62584205535
 30
0.0
 40
20.0
100
AcDbArc
 50
119.529102122969
 51
193.2688974146596
  0
ARC
  5
26A
330
1F
100
AcDbEntity
  8
Ｓ_１_１
  6
CONTINUOUS
 62
     3
100
AcDbCircle
 10
4999.8498998082
 20
1910.62584205535
 30
0.0
 40
20.5
100
AcDbArc
 50
117.7042598469409
 51
195.0937396906865
  0
ARC
  5
26B
330
1F
100
AcDbEntity
  8
Ｓ_１_１
  6
CONTINUOUS
 62
     3
100
AcDbCircle
 10
4999.85
 20
1910.626071374549
 30
0.0
 40
19.0
100
AcDbArc
 50
303.7621022663354
 51
9.035897271571736
  0
ARC
  5
26C
330
1F
100
AcDbEntity
  8
Ｓ_１_１
  6
CONTINUOUS
 62
     3
100
AcDbCircle
 10
4999.8498998082
 20
1910.62584205535
 30
0.0
 40
20.0
100
AcDbArc
 50
299.5291021236374
 51
13.26889741426911
  0
ARC
  5
26D
330
1F
100
AcDbEntity
  8
Ｓ_１_１
  6
CONTINUOUS
 62
     3
100
AcDbCircle
 10
4999.8498998082
 20
1910.62584205535
 30
0.0
 40
20.5
100
AcDbArc
 50
297.7042598475757
 51
15.09373969033087
  0
CIRCLE
  5
26E
330
1F
100
AcDbEntity
  8
Ｓ_１_１
  6
CONTINUOUS
 62
     3
100
AcDbCircle
 10
4999.85
 20
1910.626071374549
 30
0.0
 40
12.50000000000001
  0
CIRCLE
  5
26F
330
1F
100
AcDbEntity
  8
Ｓ_１_１
  6
CONTINUOUS
 62
     3
100
AcDbCircle
 10
4999.85
 20
1910.62607137445
 30
0.0
 40
6.000000000000004
  0
CIRCLE
  5
270
330
1F
100
AcDbEntity
  8
Ｓ_１_１
  6
CONTINUOUS
 62
     3
100
AcDbCircle
 10
4999.85
 20
1910.62607137445
 30
0.0
 40
5.125000000000004
  0
ARC
  5
271
330
1F
100
AcDbEntity
  8
Ｓ_１_１
  6
CONTINUOUS
 62
     3
100
AcDbCircle
 10
4999.85
 20
1910.62584205535
 30
0.0
 40
237.9999888241001
100
AcDbArc
 50
174.7672741424
 51
138.0305652943
  0
ARC
  5
272
330
1F
100
AcDbEntity
  8
Ｓ_１_１
  6
CONTINUOUS
 62
     3
100
AcDbCircle
 10
4999.85
 20
1910.62584205535
 30
0.0
 40
239.9999964237001
100
AcDbArc
 50
174.6088000933
 51
138.189025683
  0
LINE
  5
273
330
1F
100
AcDbEntity
  8
Ｓ_１_１
  6
CONTINUOUS
 62
     3
100
AcDbLine
 10
5305.3553859418
 20
1875.11858504165
 30
0.0
 11
5024.7284431377
 21
1994.59041905345
 31
0.0
  0
LINE
  5
274
330
1F
100
AcDbEntity
  8
Ｓ_１_１
  6
CONTINUOUS
 62
     3
100
AcDbLine
 10
5311.622762335001
 20
1889.84000194445
 30
0.0
 11
5030.995819531
 21
2009.311835956251
 31
0.0
  0
LINE
  5
275
330
1F
100
AcDbEntity
  8
Ｓ_１_１
  6
CONTINUOUS
 62
     3
100
AcDbLine
 10
5030.995819531
 20
2009.311835956251
 30
0.0
 11
5020.0279164463
 21
1983.549369538251
 31
0.0
  0
LINE
  5
276
330
1F
100
AcDbEntity
  8
Ｓ_１_１
  6
CONTINUOUS
 62
     3
100
AcDbLine
 10
4542.4165351366
 20
2199.99999850995
 30
0.0
 11
4542.4165351366
 21
2000.000154078051
 31
0.0
  0
LINE
  5
277
330
1F
100
AcDbEntity
  8
Ｓ_１_１
  6
CONTINUOUS
 62
     3
100
AcDbLine
 10
1454.4167795157
 20
2299.99999701985
 30
0.0
 11
1454.4167795157
 21
1900.000079274251
 31
0.0
  0
LINE
  5
278
330
1F
100
AcDbEntity
  8
Ｓ_１_１
  6
CONTINUOUS
 62
     3
100
AcDbLine
 10
4554.4166570281
 20
2199.99999850995
 30
0.0
 11
4554.4166570281
 21
2000.000154078051
 31
0.0
  0
LINE
  5
279
330
1F
100
AcDbEntity
  8
Ｓ_１_１
  6
CONTINUOUS
 62
     3
100
AcDbLine
 10
4843.72453433
 20
1985.386404231549
 30
0.0
 11
4566.417307775
 21
2106.54471765965
 31
0.0
  0
LINE
  5
27A
330
1F
100
AcDbEntity
  8
Ｓ_１_１
  6
CONTINUOUS
 62
     3
100
AcDbLine
 10
4838.921346011301
 20
1974.38981470905
 30
0.0
 11
4566.417380494
 21
2093.449535130751
 31
0.0
  0
LINE
  5
27B
330
1F
100
AcDbEntity
  8
Ｓ_１_１
  6
CONTINUOUS
 62
     3
100
AcDbLine
 10
4843.7244910592
 20
1985.38632549845
 30
0.0
 11
4838.921302427399
 21
1974.38973619065
 31
0.0
  0
LINE
  5
27C
330
1F
100
AcDbEntity
  8
Ｓ_１_１
  6
CONTINUOUS
 62
     3
100
AcDbLine
 10
4974.0531377072
 20
1976.46174592205
 30
0.0
 11
5065.688569427301
 21
1936.42530512905
 31
0.0
  0
LINE
  5
27D
330
1F
100
AcDbEntity
  8
Ｓ_１_１
  6
CONTINUOUS
 62
     3
100
AcDbLine
 10
4934.0158321607
 20
1884.82585944155
 30
0.0
 11
4974.0523340446
 21
1976.46143098635
 31
0.0
  0
LINE
  5
27E
330
1F
100
AcDbEntity
  8
Ｓ_１_１
  6
CONTINUOUS
 62
     3
100
AcDbLine
 10
5025.6515788165
 20
1844.78861498595
 30
0.0
 11
4934.016147096499
 21
1884.82505577895
 31
0.0
  0
LINE
  5
27F
330
1F
100
AcDbEntity
  8
Ｓ_１_１
  6
CONTINUOUS
 62
     3
100
AcDbLine
 10
5065.6863322307
 20
1936.42628258265
 30
0.0
 11
5025.6498303468
 21
1844.79071103785
 31
0.0
  0
LINE
  5
280
330
1F
100
AcDbEntity
  8
Ｓ_１_１
  6
CONTINUOUS
 62
     3
100
AcDbLine
 10
5117.5126970808
 20
1930.151324414751
 30
0.0
 11
4566.4172143519
 21
2170.93047775585
 31
0.0
  0
LINE
  5
281
330
1F
100
AcDbEntity
  8
Ｓ_１_１
  6
CONTINUOUS
 62
     3
100
AcDbLine
 10
5065.464011488
 20
1811.02530796185
 30
0.0
 11
4566.4171866311
 21
2029.06387973815
 31
0.0
  0
LINE
  5
282
330
1F
100
AcDbEntity
  8
Ｓ_１_１
  6
CONTINUOUS
 62
     3
100
AcDbLine
 10
5121.5151064892
 20
1939.31509064645
 30
0.0
 11
4566.4172790949
 21
2181.84290858405
 31
0.0
  0
LINE
  5
283
330
1F
100
AcDbEntity
  8
Ｓ_１_１
  6
CONTINUOUS
 62
     3
100
AcDbLine
 10
5061.4606056631
 20
1801.86231010645
 30
0.0
 11
4566.417523719399
 21
2018.151606377849
 31
0.0
  0
LINE
  5
284
330
1F
100
AcDbEntity
  8
Ｓ_１_１
  6
CONTINUOUS
 62
     3
100
AcDbLine
 10
5126.6967049834
 20
1951.17931011225
 30
0.0
 11
5091.4861819969
 21
1870.58944220575
 31
0.0
  0
LINE
  5
285
330
1F
100
AcDbEntity
  8
Ｓ_１_１
  6
CONTINUOUS
 62
     3
100
AcDbLine
 10
5091.4861819969
 20
1870.58944220575
 30
0.0
 11
5061.458805583899
 21
1801.86276354715
 31
0.0
  0
LINE
  5
286
330
1F
100
AcDbEntity
  8
Ｓ_１_１
  6
CONTINUOUS
 62
     3
100
AcDbLine
 10
4566.4173892712
 20
2199.99832004325
 30
0.0
 11
4566.4173892712
 21
2000.00000149025
 31
0.0
  0
LINE
  5
287
330
1F
100
AcDbEntity
  8
Ｓ_１_１
  6
CONTINUOUS
 62
     3
100
AcDbLine
 10
4566.4161685681
 20
2199.99999850995
 30
0.0
 11
4554.4166570281
 21
2199.99999850995
 31
0.0
  0
LINE
  5
288
330
1F
100
AcDbEntity
  8
Ｓ_１_１
  6
CONTINUOUS
 62
     3
100
AcDbLine
 10
4566.4167789196
 20
2000.00000149025
 30
0.0
 11
4554.4166570281
 21
2000.00000149025
 31
0.0
  0
LINE
  5
289
330
1F
100
AcDbEntity
  8
Ｓ_１_１
  6
CONTINUOUS
 62
     3
100
AcDbLine
 10
4554.4166570281
 20
2199.99984592205
 30
0.0
 11
4554.4166570281
 21
1999.99984890235
 31
0.0
  0
CIRCLE
  5
28A
330
1F
100
AcDbEntity
  8
Ｓ_１_１
  6
CONTINUOUS
 62
     3
100
AcDbCircle
 10
5011.861099891399
 20
1938.116737296451
 30
0.0
 40
6.000000149000004
  0
CIRCLE
  5
28B
330
1F
100
AcDbEntity
  8
Ｓ_１_１
  6
CONTINUOUS
 62
     3
100
AcDbCircle
 10
4987.839341216099
 20
1883.13565901415
 30
0.0
 40
6.000000149000004
  0
LINE
  5
28C
330
1F
100
AcDbEntity
  8
Ｓ_１_１
  6
CONTINUOUS
 62
     3
100
AcDbLine
 10
5003.205122536438
 20
1958.268808324698
 30
0.0
 11
5032.528506229189
 21
1945.457127373013
 31
0.0
  0
LINE
  5
28D
330
1F
100
AcDbEntity
  8
Ｓ_１_１
  6
CONTINUOUS
 62
     3
100
AcDbLine
 10
4967.172270840881
 20
1875.79679393428
 30
0.0
 11
4996.495654533905
 21
1862.985112982561
 31
0.0
  0
ARC
  5
28E
330
1F
100
AcDbEntity
  8
Ｓ_１_１
  6
CONTINUOUS
 62
     3
100
AcDbCircle
 10
5308.489216592399
 20
1882.479327582251
 30
0.0
 40
8.0
100
AcDbArc
 50
246.9381564311287
 51
67.20351165200368
  0
LINE
  5
28F
330
1F
100
AcDbEntity
  8
Ｓ_１_１
  6
CONTINUOUS
 62
     3
100
AcDbLine
 10
1576.416976211
 20
1920.000384152051
 30
0.0
 11
1476.416901407199
 21
1920.000384152051
 31
0.0
  0
LINE
  5
290
330
1F
100
AcDbEntity
  8
Ｓ_１_１
  6
CONTINUOUS
 62
     3
100
AcDbLine
 10
1576.4167947148
 20
2279.99984910655
 30
0.0
 11
1776.416899162999
 21
2229.999822994551
 31
0.0
  0
LINE
  5
291
330
1F
100
AcDbEntity
  8
Ｓ_１_１
  6
CONTINUOUS
 62
     3
100
AcDbLine
 10
1776.4169732308
 20
2199.99969333415
 30
0.0
 11
1776.4169732308
 21
2229.99969288715
 31
0.0
  0
LINE
  5
292
330
1F
100
AcDbEntity
  8
Ｓ_１_１
  6
CONTINUOUS
 62
     3
100
AcDbLine
 10
1576.416976211
 20
2279.99969214215
 30
0.0
 11
1476.416901407199
 21
2279.99969214215
 31
0.0
  0
LINE
  5
293
330
1F
100
AcDbEntity
  8
Ｓ_１_１
  6
CONTINUOUS
 62
     3
100
AcDbLine
 10
1776.4169732308
 20
2000.00030666595
 30
0.0
 11
1776.4169732308
 21
1970.000307113051
 31
0.0
  0
LINE
  5
294
330
1F
100
AcDbEntity
  8
Ｓ_１_１
  6
CONTINUOUS
 62
     3
100
AcDbLine
 10
1476.416901407199
 20
2299.99999701985
 30
0.0
 11
1454.4167795157
 21
2299.99999701985
 31
0.0
  0
LINE
  5
295
330
1F
100
AcDbEntity
  8
Ｓ_１_１
  6
CONTINUOUS
 62
     3
100
AcDbLine
 10
1476.416901407199
 20
1900.000079274251
 30
0.0
 11
1454.4167795157
 21
1900.000079274251
 31
0.0
  0
LINE
  5
296
330
1F
100
AcDbEntity
  8
Ｓ_１_１
  6
CONTINUOUS
 62
     3
100
AcDbLine
 10
4542.4165351366
 20
2011.999818205951
 30
0.0
 11
1476.416901407199
 21
2011.999818205951
 31
0.0
  0
LINE
  5
297
330
1F
100
AcDbEntity
  8
Ｓ_１_１
  6
CONTINUOUS
 62
     3
100
AcDbLine
 10
4542.4165351366
 20
2188.00048697005
 30
0.0
 11
1476.416901407199
 21
2188.00048697005
 31
0.0
  0
LINE
  5
298
330
1F
100
AcDbEntity
  8
Ｓ_１_１
  6
CONTINUOUS
 62
     3
100
AcDbLine
 10
4554.4166570281
 20
2200.00030368575
 30
0.0
 11
1476.416901407199
 21
2200.00030368575
 31
0.0
  0
LINE
  5
299
330
1F
100
AcDbEntity
  8
Ｓ_１_１
  6
CONTINUOUS
 62
     3
100
AcDbLine
 10
4554.4166570281
 20
2000.00030666595
 30
0.0
 11
1476.416901407199
 21
2000.00030666595
 31
0.0
  0
LINE
  5
29A
330
1F
100
AcDbEntity
  8
Ｓ_１_１
  6
CONTINUOUS
 62
     3
100
AcDbLine
 10
1476.416901407199
 20
2299.99999701985
 30
0.0
 11
1476.416901407199
 21
1900.000079274251
 31
0.0
  0
LINE
  5
29B
330
1F
100
AcDbEntity
  8
Ｓ_１_１
  6
CONTINUOUS
 62
     3
100
AcDbLine
 10
1576.4172203068
 20
1920.00038275575
 30
0.0
 11
1776.417028690999
 21
1970.00033485185
 31
0.0
  0
LINE
  5
29C
330
1F
100
AcDbEntity
  8
Ｓ_１_１
  6
CONTINUOUS
 62
     3
100
AcDbLine
 10
5016.0
 20
1071.50109765685
 30
0.0
 11
4984.0
 21
1071.50109765685
 31
0.0
  0
LINE
  5
29D
330
1F
100
AcDbEntity
  8
Ｓ_１_１
  6
CONTINUOUS
 62
     3
100
AcDbLine
 10
4984.0
 20
1071.50109765685
 30
0.0
 11
4984.0
 21
1065.50109765685
 31
0.0
  0
LINE
  5
29E
330
1F
100
AcDbEntity
  8
Ｓ_１_１
  6
CONTINUOUS
 62
     3
100
AcDbLine
 10
5016.0
 20
1071.50109765685
 30
0.0
 11
5016.0
 21
1065.50109765685
 31
0.0
  0
LINE
  5
29F
330
1F
100
AcDbEntity
  8
Ｓ_１_１
  6
CONTINUOUS
 62
     3
100
AcDbLine
 10
4982.0
 20
922.5003063306502
 30
0.0
 11
4980.0
 21
924.5003063306502
 31
0.0
  0
LINE
  5
2A0
330
1F
100
AcDbEntity
  8
Ｓ_１_１
  6
CONTINUOUS
 62
     3
100
AcDbLine
 10
5018.0
 20
922.5003063306502
 30
0.0
 11
5020.0
 21
924.5003063306502
 31
0.0
  0
ARC
  5
2A1
330
1F
100
AcDbEntity
  8
Ｓ_１_１
  6
CONTINUOUS
 62
     3
100
AcDbCircle
 10
4935.0
 20
960.0010681152498
 30
0.0
 40
30.00000000000002
100
AcDbArc
 50
0.0000000000001719
 51
90.00000000000001
  0
LINE
  5
2A2
330
1F
100
AcDbEntity
  8
Ｓ_１_１
  6
CONTINUOUS
 62
     3
100
AcDbLine
 10
4762.0
 20
955.0010681152497
 30
0.0
 11
4810.0
 21
955.0010681152497
 31
0.0
  0
LINE
  5
2A3
330
1F
100
AcDbEntity
  8
Ｓ_１_１
  6
CONTINUOUS
 62
     3
100
AcDbLine
 10
4760.0
 20
957.0010681152497
 30
0.0
 11
4762.0
 21
955.0010681152497
 31
0.0
  0
LINE
  5
2A4
330
1F
100
AcDbEntity
  8
Ｓ_１_１
  6
CONTINUOUS
 62
     3
100
AcDbLine
 10
4760.0
 20
957.0010681152497
 30
0.0
 11
4760.0
 21
960.8014507402886
 31
0.0
  0
LINE
  5
2A5
330
1F
100
AcDbEntity
  8
Ｓ_１_１
  6
CONTINUOUS
 62
     3
100
AcDbLine
 10
4764.564221286262
 20
965.7824242307477
 30
0.0
 11
4802.701828025177
 21
969.1190324744127
 31
0.0
  0
ARC
  5
2A6
330
1F
100
AcDbEntity
  8
Ｓ_１_１
  6
CONTINUOUS
 62
     3
100
AcDbCircle
 10
4765.0
 20
960.8014507402886
 30
0.0
 40
5.0
100
AcDbArc
 50
94.99999999999983
 51
180.0000000000002
  0
ARC
  5
2A7
330
1F
100
AcDbEntity
  8
Ｓ_１_１
  6
CONTINUOUS
 62
     3
100
AcDbCircle
 10
4800.0
 20
1000.00106811525
 30
0.0
 40
31.00000000000002
100
AcDbArc
 50
274.2568844082149
 51
0.0000000000001719
  0
ARC
  5
2A8
330
1F
100
AcDbEntity
  8
Ｓ_１_１
  6
CONTINUOUS
 62
     3
100
AcDbCircle
 10
4810.0
 20
1000.00106811525
 30
0.0
 40
45.0
100
AcDbArc
 50
270.0000000000002
 51
327.7690473644977
  0
LINE
  5
2A9
330
1F
100
AcDbEntity
  8
Ｓ_１_１
  6
CONTINUOUS
 62
     3
100
AcDbLine
 10
4873.442887702247
 20
990.0010681152498
 30
0.0
 11
4935.0
 21
990.0010681152498
 31
0.0
  0
ARC
  5
2AA
330
1F
100
AcDbEntity
  8
Ｓ_１_１
  6
CONTINUOUS
 62
     3
100
AcDbCircle
 10
4873.442887702247
 20
960.0010681152498
 30
0.0
 40
30.00000000000002
100
AcDbArc
 50
90.00000000000001
 51
147.7690473644979
  0
LINE
  5
2AB
330
1F
100
AcDbEntity
  8
Ｓ_１_１
  6
CONTINUOUS
 62
     3
100
AcDbLine
 10
4965.0
 20
956.0010681152497
 30
0.0
 11
4965.0
 21
960.0010681152498
 31
0.0
  0
LINE
  5
2AC
330
1F
100
AcDbEntity
  8
Ｓ_１_１
  6
CONTINUOUS
 62
     3
100
AcDbLine
 10
4965.0
 20
956.0010681152497
 30
0.0
 11
4966.0
 21
955.0010681152497
 31
0.0
  0
ARC
  5
2AD
330
1F
100
AcDbEntity
  8
Ｓ_１_１
  6
CONTINUOUS
 62
     3
100
AcDbCircle
 10
5065.0
 20
960.0010681152498
 30
0.0
 40
30.00000000000002
100
AcDbArc
 50
90.00000000000001
 51
180.0000000000002
  0
LINE
  5
2AE
330
1F
100
AcDbEntity
  8
Ｓ_１_１
  6
CONTINUOUS
 62
     3
100
AcDbLine
 10
5238.0
 20
955.0010681152497
 30
0.0
 11
5190.0
 21
955.0010681152497
 31
0.0
  0
LINE
  5
2AF
330
1F
100
AcDbEntity
  8
Ｓ_１_１
  6
CONTINUOUS
 62
     3
100
AcDbLine
 10
5240.0
 20
957.0010681152497
 30
0.0
 11
5238.0
 21
955.0010681152497
 31
0.0
  0
LINE
  5
2B0
330
1F
100
AcDbEntity
  8
Ｓ_１_１
  6
CONTINUOUS
 62
     3
100
AcDbLine
 10
5240.0
 20
957.0010681152497
 30
0.0
 11
5240.0
 21
960.8014507402886
 31
0.0
  0
LINE
  5
2B1
330
1F
100
AcDbEntity
  8
Ｓ_１_１
  6
CONTINUOUS
 62
     3
100
AcDbLine
 10
5235.435778713738
 20
965.7824242307477
 30
0.0
 11
5197.298171974823
 21
969.1190324744127
 31
0.0
  0
ARC
  5
2B2
330
1F
100
AcDbEntity
  8
Ｓ_１_１
  6
CONTINUOUS
 62
     3
100
AcDbCircle
 10
5235.0
 20
960.8014507402886
 30
0.0
 40
5.0
100
AcDbArc
 50
0.0000000000001719
 51
85.00000000000028
  0
ARC
  5
2B3
330
1F
100
AcDbEntity
  8
Ｓ_１_１
  6
CONTINUOUS
 62
     3
100
AcDbCircle
 10
5200.0
 20
1000.00106811525
 30
0.0
 40
31.00000000000002
100
AcDbArc
 50
180.0000000000002
 51
265.7431155917852
  0
ARC
  5
2B4
330
1F
100
AcDbEntity
  8
Ｓ_１_１
  6
CONTINUOUS
 62
     3
100
AcDbCircle
 10
5190.0
 20
1000.00106811525
 30
0.0
 40
45.0
100
AcDbArc
 50
212.2309526355023
 51
270.0000000000002
  0
LINE
  5
2B5
330
1F
100
AcDbEntity
  8
Ｓ_１_１
  6
CONTINUOUS
 62
     3
100
AcDbLine
 10
5126.557112297753
 20
990.0010681152498
 30
0.0
 11
5065.0
 21
990.0010681152498
 31
0.0
  0
ARC
  5
2B6
330
1F
100
AcDbEntity
  8
Ｓ_１_１
  6
CONTINUOUS
 62
     3
100
AcDbCircle
 10
5126.557112297753
 20
960.0010681152498
 30
0.0
 40
30.00000000000002
100
AcDbArc
 50
32.23095263550231
 51
90.00000000000001
  0
LINE
  5
2B7
330
1F
100
AcDbEntity
  8
Ｓ_１_１
  6
CONTINUOUS
 62
     3
100
AcDbLine
 10
5035.0
 20
956.0010681152497
 30
0.0
 11
5035.0
 21
960.0010681152498
 31
0.0
  0
LINE
  5
2B8
330
1F
100
AcDbEntity
  8
Ｓ_１_１
  6
CONTINUOUS
 62
     3
100
AcDbLine
 10
5035.0
 20
956.0010681152497
 30
0.0
 11
5034.0
 21
955.0010681152497
 31
0.0
  0
ARC
  5
2B9
330
1F
100
AcDbEntity
  8
Ｓ_１_１
  6
CONTINUOUS
 62
     3
100
AcDbCircle
 10
4935.0
 20
1040.00106811525
 30
0.0
 40
30.00000000000002
100
AcDbArc
 50
270.0000000000002
 51
0.0000000000001719
  0
LINE
  5
2BA
330
1F
100
AcDbEntity
  8
Ｓ_１_１
  6
CONTINUOUS
 62
     3
100
AcDbLine
 10
4762.0
 20
1045.00106811525
 30
0.0
 11
4810.0
 21
1045.00106811525
 31
0.0
  0
LINE
  5
2BB
330
1F
100
AcDbEntity
  8
Ｓ_１_１
  6
CONTINUOUS
 62
     3
100
AcDbLine
 10
4760.0
 20
1043.00106811525
 30
0.0
 11
4762.0
 21
1045.00106811525
 31
0.0
  0
LINE
  5
2BC
330
1F
100
AcDbEntity
  8
Ｓ_１_１
  6
CONTINUOUS
 62
     3
100
AcDbLine
 10
4760.0
 20
1043.00106811525
 30
0.0
 11
4760.0
 21
1039.200685490211
 31
0.0
  0
LINE
  5
2BD
330
1F
100
AcDbEntity
  8
Ｓ_１_１
  6
CONTINUOUS
 62
     3
100
AcDbLine
 10
4764.564221286262
 20
1034.219711999752
 30
0.0
 11
4802.701828025177
 21
1030.883103756087
 31
0.0
  0
ARC
  5
2BE
330
1F
100
AcDbEntity
  8
Ｓ_１_１
  6
CONTINUOUS
 62
     3
100
AcDbCircle
 10
4765.0
 20
1039.200685490211
 30
0.0
 40
5.0
100
AcDbArc
 50
180.0000000000002
 51
265.0000000000004
  0
ARC
  5
2BF
330
1F
100
AcDbEntity
  8
Ｓ_１_１
  6
CONTINUOUS
 62
     3
100
AcDbCircle
 10
4800.0
 20
1000.00106811525
 30
0.0
 40
31.00000000000002
100
AcDbArc
 50
0.0000000000001719
 51
85.74311559178516
  0
ARC
  5
2C0
330
1F
100
AcDbEntity
  8
Ｓ_１_１
  6
CONTINUOUS
 62
     3
100
AcDbCircle
 10
4810.0
 20
1000.00106811525
 30
0.0
 40
45.0
100
AcDbArc
 50
32.23095263550231
 51
90.00000000000001
  0
LINE
  5
2C1
330
1F
100
AcDbEntity
  8
Ｓ_１_１
  6
CONTINUOUS
 62
     3
100
AcDbLine
 10
4873.442887702247
 20
1010.00106811525
 30
0.0
 11
4935.0
 21
1010.00106811525
 31
0.0
  0
ARC
  5
2C2
330
1F
100
AcDbEntity
  8
Ｓ_１_１
  6
CONTINUOUS
 62
     3
100
AcDbCircle
 10
4873.442887702247
 20
1040.00106811525
 30
0.0
 40
30.00000000000002
100
AcDbArc
 50
212.2309526355023
 51
270.0000000000002
  0
LINE
  5
2C3
330
1F
100
AcDbEntity
  8
Ｓ_１_１
  6
CONTINUOUS
 62
     3
100
AcDbLine
 10
4965.0
 20
1044.00106811525
 30
0.0
 11
4965.0
 21
1040.00106811525
 31
0.0
  0
LINE
  5
2C4
330
1F
100
AcDbEntity
  8
Ｓ_１_１
  6
CONTINUOUS
 62
     3
100
AcDbLine
 10
4965.0
 20
1044.00106811525
 30
0.0
 11
4966.0
 21
1045.00106811525
 31
0.0
  0
ARC
  5
2C5
330
1F
100
AcDbEntity
  8
Ｓ_１_１
  6
CONTINUOUS
 62
     3
100
AcDbCircle
 10
5065.0
 20
1040.00106811525
 30
0.0
 40
30.00000000000002
100
AcDbArc
 50
180.0000000000002
 51
270.0000000000002
  0
LINE
  5
2C6
330
1F
100
AcDbEntity
  8
Ｓ_１_１
  6
CONTINUOUS
 62
     3
100
AcDbLine
 10
5238.0
 20
1045.00106811525
 30
0.0
 11
5190.0
 21
1045.00106811525
 31
0.0
  0
LINE
  5
2C7
330
1F
100
AcDbEntity
  8
Ｓ_１_１
  6
CONTINUOUS
 62
     3
100
AcDbLine
 10
5240.0
 20
1043.00106811525
 30
0.0
 11
5238.0
 21
1045.00106811525
 31
0.0
  0
LINE
  5
2C8
330
1F
100
AcDbEntity
  8
Ｓ_１_１
  6
CONTINUOUS
 62
     3
100
AcDbLine
 10
5240.0
 20
1043.00106811525
 30
0.0
 11
5240.0
 21
1039.200685490211
 31
0.0
  0
LINE
  5
2C9
330
1F
100
AcDbEntity
  8
Ｓ_１_１
  6
CONTINUOUS
 62
     3
100
AcDbLine
 10
5235.435778713738
 20
1034.219711999752
 30
0.0
 11
5197.298171974823
 21
1030.883103756087
 31
0.0
  0
ARC
  5
2CA
330
1F
100
AcDbEntity
  8
Ｓ_１_１
  6
CONTINUOUS
 62
     3
100
AcDbCircle
 10
5235.0
 20
1039.200685490211
 30
0.0
 40
5.0
100
AcDbArc
 50
274.9999999999999
 51
0.0000000000001719
  0
ARC
  5
2CB
330
1F
100
AcDbEntity
  8
Ｓ_１_１
  6
CONTINUOUS
 62
     3
100
AcDbCircle
 10
5200.0
 20
1000.00106811525
 30
0.0
 40
31.00000000000002
100
AcDbArc
 50
94.25688440821497
 51
180.0000000000002
  0
ARC
  5
2CC
330
1F
100
AcDbEntity
  8
Ｓ_１_１
  6
CONTINUOUS
 62
     3
100
AcDbCircle
 10
5190.0
 20
1000.00106811525
 30
0.0
 40
45.0
100
AcDbArc
 50
90.00000000000001
 51
147.7690473644978
  0
LINE
  5
2CD
330
1F
100
AcDbEntity
  8
Ｓ_１_１
  6
CONTINUOUS
 62
     3
100
AcDbLine
 10
5126.557112297753
 20
1010.00106811525
 30
0.0
 11
5065.0
 21
1010.00106811525
 31
0.0
  0
ARC
  5
2CE
330
1F
100
AcDbEntity
  8
Ｓ_１_１
  6
CONTINUOUS
 62
     3
100
AcDbCircle
 10
5126.557112297753
 20
1040.00106811525
 30
0.0
 40
30.00000000000002
100
AcDbArc
 50
270.0000000000002
 51
327.7690473644981
  0
LINE
  5
2CF
330
1F
100
AcDbEntity
  8
Ｓ_１_１
  6
CONTINUOUS
 62
     3
100
AcDbLine
 10
5035.0
 20
1044.00106811525
 30
0.0
 11
5035.0
 21
1040.00106811525
 31
0.0
  0
LINE
  5
2D0
330
1F
100
AcDbEntity
  8
Ｓ_１_１
  6
CONTINUOUS
 62
     3
100
AcDbLine
 10
5035.0
 20
1044.00106811525
 30
0.0
 11
5034.0
 21
1045.00106811525
 31
0.0
  0
LINE
  5
2D1
330
1F
100
AcDbEntity
  8
Ｓ_１_１
  6
CONTINUOUS
 62
     3
100
AcDbLine
 10
4980.0
 20
955.5010681152497
 30
0.0
 11
4979.5
 21
955.0010681152497
 31
0.0
  0
LINE
  5
2D2
330
1F
100
AcDbEntity
  8
Ｓ_１_１
  6
CONTINUOUS
 62
     3
100
AcDbLine
 10
5020.0
 20
955.5010681152497
 30
0.0
 11
5020.5
 21
955.0010681152497
 31
0.0
  0
LINE
  5
2D3
330
1F
100
AcDbEntity
  8
Ｓ_１_１
  6
CONTINUOUS
 62
     3
100
AcDbLine
 10
5020.0
 20
1044.50106811525
 30
0.0
 11
5020.5
 21
1045.00106811525
 31
0.0
  0
LINE
  5
2D4
330
1F
100
AcDbEntity
  8
Ｓ_１_１
  6
CONTINUOUS
 62
     3
100
AcDbLine
 10
4980.0
 20
1044.50106811525
 30
0.0
 11
4979.5
 21
1045.00106811525
 31
0.0
  0
LINE
  5
2D5
330
1F
100
AcDbEntity
  8
Ｓ_１_１
  6
CONTINUOUS
 62
     3
100
AcDbLine
 10
4979.5
 20
1045.00106811525
 30
0.0
 11
4966.0
 21
1045.00106811525
 31
0.0
  0
LINE
  5
2D6
330
1F
100
AcDbEntity
  8
Ｓ_１_１
  6
CONTINUOUS
 62
     3
100
AcDbLine
 10
5020.5
 20
1045.00106811525
 30
0.0
 11
5034.0
 21
1045.00106811525
 31
0.0
  0
LINE
  5
2D7
330
1F
100
AcDbEntity
  8
Ｓ_１_１
  6
CONTINUOUS
 62
     3
100
AcDbLine
 10
4979.5
 20
955.0010681152502
 30
0.0
 11
4966.0
 21
955.0010681152502
 31
0.0
  0
LINE
  5
2D8
330
1F
100
AcDbEntity
  8
Ｓ_１_１
  6
CONTINUOUS
 62
     3
100
AcDbLine
 10
5020.5
 20
955.0010681152502
 30
0.0
 11
5034.0
 21
955.0010681152502
 31
0.0
  0
LINE
  5
2D9
330
1F
100
AcDbEntity
  8
Ｓ_１_１
  6
CONTINUOUS
 62
     3
100
AcDbLine
 10
5018.0
 20
922.5003063306502
 30
0.0
 11
4982.0
 21
922.5003063306502
 31
0.0
  0
LINE
  5
2DA
330
1F
100
AcDbEntity
  8
Ｓ_１_１
  6
CONTINUOUS
 62
     3
100
AcDbLine
 10
5020.0
 20
924.5002757832498
 30
0.0
 11
4980.0000305474
 21
924.5002757832498
 31
0.0
  0
LINE
  5
2DB
330
1F
100
AcDbEntity
  8
Ｓ_１_１
  6
CONTINUOUS
 62
     3
100
AcDbLine
 10
4980.0
 20
1063.50109765685
 30
0.0
 11
4980.0
 21
924.5003063306502
 31
0.0
  0
LINE
  5
2DC
330
1F
100
AcDbEntity
  8
Ｓ_１_１
  6
CONTINUOUS
 62
     3
100
AcDbLine
 10
4982.0
 20
1065.50109765685
 30
0.0
 11
4980.0
 21
1063.50109765685
 31
0.0
  0
LINE
  5
2DD
330
1F
100
AcDbEntity
  8
Ｓ_１_１
  6
CONTINUOUS
 62
     3
100
AcDbLine
 10
5020.0
 20
1063.50109765685
 30
0.0
 11
5020.0
 21
924.5003063306502
 31
0.0
  0
LINE
  5
2DE
330
1F
100
AcDbEntity
  8
Ｓ_１_１
  6
CONTINUOUS
 62
     3
100
AcDbLine
 10
5018.0
 20
1065.50109765685
 30
0.0
 11
5020.0
 21
1063.50109765685
 31
0.0
  0
LINE
  5
2DF
330
1F
100
AcDbEntity
  8
Ｓ_１_１
  6
CONTINUOUS
 62
     3
100
AcDbLine
 10
4980.0
 20
1063.50109765685
 30
0.0
 11
5020.0
 21
1063.50109765685
 31
0.0
  0
LINE
  5
2E0
330
1F
100
AcDbEntity
  8
Ｓ_１_１
  6
CONTINUOUS
 62
     3
100
AcDbLine
 10
4542.5665351366
 20
1125.00030331315
 30
0.0
 11
4542.5665351366
 21
875.0003070384499
 31
0.0
  0
LINE
  5
2E1
330
1F
100
AcDbEntity
  8
Ｓ_１_１
  6
CONTINUOUS
 62
     3
100
AcDbLine
 10
4554.566657028099
 20
1125.00030331315
 30
0.0
 11
4554.566657028099
 21
875.0003070384499
 31
0.0
  0
LINE
  5
2E2
330
1F
100
AcDbEntity
  8
Ｓ_１_１
  6
CONTINUOUS
 62
     3
100
AcDbLine
 10
4566.567389271199
 20
1125.00030331315
 30
0.0
 11
4566.567389271199
 21
875.0003070384499
 31
0.0
  0
POLYLINE
  5
2E3
330
1F
100
AcDbEntity
  8
Ｓ_１_１
  6
CONTINUOUS
 62
     3
100
AcDb2dPolyline
 66
     1
 10
0.0
 20
0.0
 30
0.0
 70
   128
  0
VERTEX
  5
2E4
330
2E3
100
AcDbEntity
  8
Ｓ_１_１
  6
CONTINUOUS
 62
     3
100
AcDbVertex
100
AcDb2dVertex
 10
4900.000001490151
 20
875.0018329173644
 30
0.0
  0
VERTEX
  5
2E5
330
2E3
100
AcDbEntity
  8
Ｓ_１_１
  6
CONTINUOUS
 62
     3
100
AcDbVertex
100
AcDb2dVertex
 10
4900.001827265438
 20
875.0354143180729
 30
0.0
  0
VERTEX
  5
2E6
330
2E3
100
AcDbEntity
  8
Ｓ_１_１
  6
CONTINUOUS
 62
     3
100
AcDbVertex
100
AcDb2dVertex
 10
4900.006921649489
 20
875.1307953909783
 30
0.0
  0
VERTEX
  5
2E7
330
2E3
100
AcDbEntity
  8
Ｓ_１_１
  6
CONTINUOUS
 62
     3
100
AcDbVertex
100
AcDb2dVertex
 10
4900.014710229579
 20
875.2799314422498
 30
0.0
  0
VERTEX
  5
2E8
330
2E3
100
AcDbEntity
  8
Ｓ_１_１
  6
CONTINUOUS
 62
     3
100
AcDbVertex
100
AcDb2dVertex
 10
4900.024618592985
 20
875.4747777780563
 30
0.0
  0
VERTEX
  5
2E9
330
2E3
100
AcDbEntity
  8
Ｓ_１_１
  6
CONTINUOUS
 62
     3
100
AcDbVertex
100
AcDb2dVertex
 10
4900.036072326988
 20
875.7072897045666
 30
0.0
  0
VERTEX
  5
2EA
330
2E3
100
AcDbEntity
  8
Ｓ_１_１
  6
CONTINUOUS
 62
     3
100
AcDbVertex
100
AcDb2dVertex
 10
4900.048497018863
 20
875.9694225279507
 30
0.0
  0
VERTEX
  5
2EB
330
2E3
100
AcDbEntity
  8
Ｓ_１_１
  6
CONTINUOUS
 62
     3
100
AcDbVertex
100
AcDb2dVertex
 10
4900.06131825589
 20
876.2531315543768
 30
0.0
  0
VERTEX
  5
2EC
330
2E3
100
AcDbEntity
  8
Ｓ_１_１
  6
CONTINUOUS
 62
     3
100
AcDbVertex
100
AcDb2dVertex
 10
4900.073961625344
 20
876.5503720900148
 30
0.0
  0
VERTEX
  5
2ED
330
2E3
100
AcDbEntity
  8
Ｓ_１_１
  6
CONTINUOUS
 62
     3
100
AcDbVertex
100
AcDb2dVertex
 10
4900.085852714506
 20
876.8530994410332
 30
0.0
  0
VERTEX
  5
2EE
330
2E3
100
AcDbEntity
  8
Ｓ_１_１
  6
CONTINUOUS
 62
     3
100
AcDbVertex
100
AcDb2dVertex
 10
4900.096417110652
 20
877.1532689136018
 30
0.0
  0
VERTEX
  5
2EF
330
2E3
100
AcDbEntity
  8
Ｓ_１_１
  6
CONTINUOUS
 62
     3
100
AcDbVertex
100
AcDb2dVertex
 10
4900.105080401059
 20
877.4428358138891
 30
0.0
  0
VERTEX
  5
2F0
330
2E3
100
AcDbEntity
  8
Ｓ_１_１
  6
CONTINUOUS
 62
     3
100
AcDbVertex
100
AcDb2dVertex
 10
4900.111397602772
 20
877.7162468194623
 30
0.0
  0
VERTEX
  5
2F1
330
2E3
100
AcDbEntity
  8
Ｓ_１_１
  6
CONTINUOUS
 62
     3
100
AcDbVertex
100
AcDb2dVertex
 10
4900.11533549927
 20
877.9730549750553
 30
0.0
  0
VERTEX
  5
2F2
330
2E3
100
AcDbEntity
  8
Ｓ_１_１
  6
CONTINUOUS
 62
     3
100
AcDbVertex
100
AcDb2dVertex
 10
4900.117005224423
 20
878.2154170889621
 30
0.0
  0
VERTEX
  5
2F3
330
2E3
100
AcDbEntity
  8
Ｓ_１_１
  6
CONTINUOUS
 62
     3
100
AcDbVertex
100
AcDb2dVertex
 10
4900.116517912103
 20
878.445489969477
 30
0.0
  0
VERTEX
  5
2F4
330
2E3
100
AcDbEntity
  8
Ｓ_１_１
  6
CONTINUOUS
 62
     3
100
AcDbVertex
100
AcDb2dVertex
 10
4900.113984696179
 20
878.6654304248934
 30
0.0
  0
VERTEX
  5
2F5
330
2E3
100
AcDbEntity
  8
Ｓ_１_１
  6
CONTINUOUS
 62
     3
100
AcDbVertex
100
AcDb2dVertex
 10
4900.109516710524
 20
878.8773952635061
 30
0.0
  0
VERTEX
  5
2F6
330
2E3
100
AcDbEntity
  8
Ｓ_１_１
  6
CONTINUOUS
 62
     3
100
AcDbVertex
100
AcDb2dVertex
 10
4900.103225089006
 20
879.0835412936083
 30
0.0
  0
VERTEX
  5
2F7
330
2E3
100
AcDbEntity
  8
Ｓ_１_１
  6
CONTINUOUS
 62
     3
100
AcDbVertex
100
AcDb2dVertex
 10
4900.095220965497
 20
879.2860253234943
 30
0.0
  0
VERTEX
  5
2F8
330
2E3
100
AcDbEntity
  8
Ｓ_１_１
  6
CONTINUOUS
 62
     3
100
AcDbVertex
100
AcDb2dVertex
 10
4900.085615473867
 20
879.4870041614581
 30
0.0
  0
VERTEX
  5
2F9
330
2E3
100
AcDbEntity
  8
Ｓ_１_１
  6
CONTINUOUS
 62
     3
100
AcDbVertex
100
AcDb2dVertex
 10
4900.074519747987
 20
879.6886346157937
 30
0.0
  0
VERTEX
  5
2FA
330
2E3
100
AcDbEntity
  8
Ｓ_１_１
  6
CONTINUOUS
 62
     3
100
AcDbVertex
100
AcDb2dVertex
 10
4900.062044921729
 20
879.8930734947951
 30
0.0
  0
VERTEX
  5
2FB
330
2E3
100
AcDbEntity
  8
Ｓ_１_１
  6
CONTINUOUS
 62
     3
100
AcDbVertex
100
AcDb2dVertex
 10
4900.048313277771
 20
880.1013944366395
 30
0.0
  0
VERTEX
  5
2FC
330
2E3
100
AcDbEntity
  8
Ｓ_１_１
  6
CONTINUOUS
 62
     3
100
AcDbVertex
100
AcDb2dVertex
 10
4900.033244264459
 20
880.3140550913813
 30
0.0
  0
VERTEX
  5
2FD
330
2E3
100
AcDbEntity
  8
Ｓ_１_１
  6
CONTINUOUS
 62
     3
100
AcDbVertex
100
AcDb2dVertex
 10
4900.016761004878
 20
880.530459206672
 30
0.0
  0
VERTEX
  5
2FE
330
2E3
100
AcDbEntity
  8
Ｓ_１_１
  6
CONTINUOUS
 62
     3
100
AcDbVertex
100
AcDb2dVertex
 10
4899.998786622118
 20
880.750010530164
 30
0.0
  0
VERTEX
  5
2FF
330
2E3
100
AcDbEntity
  8
Ｓ_１_１
  6
CONTINUOUS
 62
     3
100
AcDbVertex
100
AcDb2dVertex
 10
4899.979244239263
 20
880.9721128095084
 30
0.0
  0
VERTEX
  5
300
330
2E3
100
AcDbEntity
  8
Ｓ_１_１
  6
CONTINUOUS
 62
     3
100
AcDbVertex
100
AcDb2dVertex
 10
4899.9580569794
 20
881.1961697923578
 30
0.0
  0
VERTEX
  5
301
330
2E3
100
AcDbEntity
  8
Ｓ_１_１
  6
CONTINUOUS
 62
     3
100
AcDbVertex
100
AcDb2dVertex
 10
4899.93514796562
 20
881.4215852263637
 30
0.0
  0
VERTEX
  5
302
330
2E3
100
AcDbEntity
  8
Ｓ_１_１
  6
CONTINUOUS
 62
     3
100
AcDbVertex
100
AcDb2dVertex
 10
4899.910440321006
 20
881.6477628591778
 30
0.0
  0
VERTEX
  5
303
330
2E3
100
AcDbEntity
  8
Ｓ_１_１
  6
CONTINUOUS
 62
     3
100
AcDbVertex
100
AcDb2dVertex
 10
4899.883857168648
 20
881.8741064384523
 30
0.0
  0
VERTEX
  5
304
330
2E3
100
AcDbEntity
  8
Ｓ_１_１
  6
CONTINUOUS
 62
     3
100
AcDbVertex
100
AcDb2dVertex
 10
4899.855321631632
 20
882.1000197118387
 30
0.0
  0
VERTEX
  5
305
330
2E3
100
AcDbEntity
  8
Ｓ_１_１
  6
CONTINUOUS
 62
     3
100
AcDbVertex
100
AcDb2dVertex
 10
4899.824756833046
 20
882.3249064269894
 30
0.0
  0
VERTEX
  5
306
330
2E3
100
AcDbEntity
  8
Ｓ_１_１
  6
CONTINUOUS
 62
     3
100
AcDbVertex
100
AcDb2dVertex
 10
4899.792236167657
 20
882.5473573918273
 30
0.0
  0
VERTEX
  5
307
330
2E3
100
AcDbEntity
  8
Ｓ_１_１
  6
CONTINUOUS
 62
     3
100
AcDbVertex
100
AcDb2dVertex
 10
4899.757603880535
 20
882.7683233779836
 30
0.0
  0
VERTEX
  5
308
330
2E3
100
AcDbEntity
  8
Ｓ_１_１
  6
CONTINUOUS
 62
     3
100
AcDbVertex
100
AcDb2dVertex
 10
4899.720836866207
 20
882.9879286391833
 30
0.0
  0
VERTEX
  5
309
330
2E3
100
AcDbEntity
  8
Ｓ_１_１
  6
CONTINUOUS
 62
     3
100
AcDbVertex
100
AcDb2dVertex
 10
4899.681912019205
 20
883.2062974291521
 30
0.0
  0
VERTEX
  5
30A
330
2E3
100
AcDbEntity
  8
Ｓ_１_１
  6
CONTINUOUS
 62
     3
100
AcDbVertex
100
AcDb2dVertex
 10
4899.640806234061
 20
883.4235540016148
 30
0.0
  0
VERTEX
  5
30B
330
2E3
100
AcDbEntity
  8
Ｓ_１_１
  6
CONTINUOUS
 62
     3
100
AcDbVertex
100
AcDb2dVertex
 10
4899.597496405303
 20
883.6398226102966
 30
0.0
  0
VERTEX
  5
30C
330
2E3
100
AcDbEntity
  8
Ｓ_１_１
  6
CONTINUOUS
 62
     3
100
AcDbVertex
100
AcDb2dVertex
 10
4899.551959427463
 20
883.8552275089231
 30
0.0
  0
VERTEX
  5
30D
330
2E3
100
AcDbEntity
  8
Ｓ_１_１
  6
CONTINUOUS
 62
     3
100
AcDbVertex
100
AcDb2dVertex
 10
4899.504172195072
 20
884.0698929512193
 30
0.0
  0
VERTEX
  5
30E
330
2E3
100
AcDbEntity
  8
Ｓ_１_１
  6
CONTINUOUS
 62
     3
100
AcDbVertex
100
AcDb2dVertex
 10
4899.45411160266
 20
884.2839431909106
 30
0.0
  0
VERTEX
  5
30F
330
2E3
100
AcDbEntity
  8
Ｓ_１_１
  6
CONTINUOUS
 62
     3
100
AcDbVertex
100
AcDb2dVertex
 10
4899.401754544759
 20
884.4975024817218
 30
0.0
  0
VERTEX
  5
310
330
2E3
100
AcDbEntity
  8
Ｓ_１_１
  6
CONTINUOUS
 62
     3
100
AcDbVertex
100
AcDb2dVertex
 10
4899.347077915897
 20
884.7106950773787
 30
0.0
  0
VERTEX
  5
311
330
2E3
100
AcDbEntity
  8
Ｓ_１_１
  6
CONTINUOUS
 62
     3
100
AcDbVertex
100
AcDb2dVertex
 10
4899.299983271289
 20
884.88725505703
 30
0.0
  0
VERTEX
  5
312
330
2E3
100
AcDbEntity
  8
Ｓ_１_１
  6
CONTINUOUS
 62
     3
100
AcDbVertex
100
AcDb2dVertex
 10
4899.251353170589
 20
885.063630879931
 30
0.0
  0
VERTEX
  5
313
330
2E3
100
AcDbEntity
  8
Ｓ_１_１
  6
CONTINUOUS
 62
     3
100
AcDbVertex
100
AcDb2dVertex
 10
4899.201262637394
 20
885.2398050563934
 30
0.0
  0
VERTEX
  5
314
330
2E3
100
AcDbEntity
  8
Ｓ_１_１
  6
CONTINUOUS
 62
     3
100
AcDbVertex
100
AcDb2dVertex
 10
4899.149786695302
 20
885.4157600967294
 30
0.0
  0
VERTEX
  5
315
330
2E3
100
AcDbEntity
  8
Ｓ_１_１
  6
CONTINUOUS
 62
     3
100
AcDbVertex
100
AcDb2dVertex
 10
4899.097000367914
 20
885.5914785112507
 30
0.0
  0
VERTEX
  5
316
330
2E3
100
AcDbEntity
  8
Ｓ_１_１
  6
CONTINUOUS
 62
     3
100
AcDbVertex
100
AcDb2dVertex
 10
4899.042978678823
 20
885.7669428102694
 30
0.0
  0
VERTEX
  5
317
330
2E3
100
AcDbEntity
  8
Ｓ_１_１
  6
CONTINUOUS
 62
     3
100
AcDbVertex
100
AcDb2dVertex
 10
4898.987796651633
 20
885.9421355040973
 30
0.0
  0
VERTEX
  5
318
330
2E3
100
AcDbEntity
  8
Ｓ_１_１
  6
CONTINUOUS
 62
     3
100
AcDbVertex
100
AcDb2dVertex
 10
4898.931529309941
 20
886.1170391030464
 30
0.0
  0
VERTEX
  5
319
330
2E3
100
AcDbEntity
  8
Ｓ_１_１
  6
CONTINUOUS
 62
     3
100
AcDbVertex
100
AcDb2dVertex
 10
4898.874251677342
 20
886.2916361174284
 30
0.0
  0
VERTEX
  5
31A
330
2E3
100
AcDbEntity
  8
Ｓ_１_１
  6
CONTINUOUS
 62
     3
100
AcDbVertex
100
AcDb2dVertex
 10
4898.816038777439
 20
886.4659090575556
 30
0.0
  0
VERTEX
  5
31B
330
2E3
100
AcDbEntity
  8
Ｓ_１_１
  6
CONTINUOUS
 62
     3
100
AcDbVertex
100
AcDb2dVertex
 10
4898.756965633828
 20
886.6398404337396
 30
0.0
  0
VERTEX
  5
31C
330
2E3
100
AcDbEntity
  8
Ｓ_１_１
  6
CONTINUOUS
 62
     3
100
AcDbVertex
100
AcDb2dVertex
 10
4898.696944295987
 20
886.8138889190109
 30
0.0
  0
VERTEX
  5
31D
330
2E3
100
AcDbEntity
  8
Ｓ_１_１
  6
CONTINUOUS
 62
     3
100
AcDbVertex
100
AcDb2dVertex
 10
4898.636205525087
 20
886.9876110324269
 30
0.0
  0
VERTEX
  5
31E
330
2E3
100
AcDbEntity
  8
Ｓ_１_１
  6
CONTINUOUS
 62
     3
100
AcDbVertex
100
AcDb2dVertex
 10
4898.574821347829
 20
887.1610413944077
 30
0.0
  0
VERTEX
  5
31F
330
2E3
100
AcDbEntity
  8
Ｓ_１_１
  6
CONTINUOUS
 62
     3
100
AcDbVertex
100
AcDb2dVertex
 10
4898.512863790921
 20
887.3342146253735
 30
0.0
  0
VERTEX
  5
320
330
2E3
100
AcDbEntity
  8
Ｓ_１_１
  6
CONTINUOUS
 62
     3
100
AcDbVertex
100
AcDb2dVertex
 10
4898.45040488106
 20
887.5071653457445
 30
0.0
  0
VERTEX
  5
321
330
2E3
100
AcDbEntity
  8
Ｓ_１_１
  6
CONTINUOUS
 62
     3
100
AcDbVertex
100
AcDb2dVertex
 10
4898.387516644952
 20
887.6799281759406
 30
0.0
  0
VERTEX
  5
322
330
2E3
100
AcDbEntity
  8
Ｓ_１_１
  6
CONTINUOUS
 62
     3
100
AcDbVertex
100
AcDb2dVertex
 10
4898.324271109298
 20
887.8525377363823
 30
0.0
  0
VERTEX
  5
323
330
2E3
100
AcDbEntity
  8
Ｓ_１_１
  6
CONTINUOUS
 62
     3
100
AcDbVertex
100
AcDb2dVertex
 10
4898.260740300801
 20
888.0250286474891
 30
0.0
  0
VERTEX
  5
324
330
2E3
100
AcDbEntity
  8
Ｓ_１_１
  6
CONTINUOUS
 62
     3
100
AcDbVertex
100
AcDb2dVertex
 10
4898.196996246164
 20
888.1974355296815
 30
0.0
  0
VERTEX
  5
325
330
2E3
100
AcDbEntity
  8
Ｓ_１_１
  6
CONTINUOUS
 62
     3
100
AcDbVertex
100
AcDb2dVertex
 10
4898.133110972088
 20
888.3697930033798
 30
0.0
  0
VERTEX
  5
326
330
2E3
100
AcDbEntity
  8
Ｓ_１_１
  6
CONTINUOUS
 62
     3
100
AcDbVertex
100
AcDb2dVertex
 10
4898.069156505277
 20
888.5421356890035
 30
0.0
  0
VERTEX
  5
327
330
2E3
100
AcDbEntity
  8
Ｓ_１_１
  6
CONTINUOUS
 62
     3
100
AcDbVertex
100
AcDb2dVertex
 10
4898.005312352003
 20
888.714206596378
 30
0.0
  0
VERTEX
  5
328
330
2E3
100
AcDbEntity
  8
Ｓ_１_１
  6
CONTINUOUS
 62
     3
100
AcDbVertex
100
AcDb2dVertex
 10
4897.941542530326
 20
888.8863214546385
 30
0.0
  0
VERTEX
  5
329
330
2E3
100
AcDbEntity
  8
Ｓ_１_１
  6
CONTINUOUS
 62
     3
100
AcDbVertex
100
AcDb2dVertex
 10
4897.877918547401
 20
889.0585044489738
 30
0.0
  0
VERTEX
  5
32A
330
2E3
100
AcDbEntity
  8
Ｓ_１_１
  6
CONTINUOUS
 62
     3
100
AcDbVertex
100
AcDb2dVertex
 10
4897.814511910379
 20
889.2307797645725
 30
0.0
  0
VERTEX
  5
32B
330
2E3
100
AcDbEntity
  8
Ｓ_１_１
  6
CONTINUOUS
 62
     3
100
AcDbVertex
100
AcDb2dVertex
 10
4897.751394126419
 20
889.4031715866236
 30
0.0
  0
VERTEX
  5
32C
330
2E3
100
AcDbEntity
  8
Ｓ_１_１
  6
CONTINUOUS
 62
     3
100
AcDbVertex
100
AcDb2dVertex
 10
4897.688636702673
 20
889.5757041003155
 30
0.0
  0
VERTEX
  5
32D
330
2E3
100
AcDbEntity
  8
Ｓ_１_１
  6
CONTINUOUS
 62
     3
100
AcDbVertex
100
AcDb2dVertex
 10
4897.626311146293
 20
889.7484014908371
 30
0.0
  0
VERTEX
  5
32E
330
2E3
100
AcDbEntity
  8
Ｓ_１_１
  6
CONTINUOUS
 62
     3
100
AcDbVertex
100
AcDb2dVertex
 10
4897.564488964435
 20
889.9212879433769
 30
0.0
  0
VERTEX
  5
32F
330
2E3
100
AcDbEntity
  8
Ｓ_１_１
  6
CONTINUOUS
 62
     3
100
AcDbVertex
100
AcDb2dVertex
 10
4897.503241664253
 20
890.0943876431238
 30
0.0
  0
VERTEX
  5
330
330
2E3
100
AcDbEntity
  8
Ｓ_１_１
  6
CONTINUOUS
 62
     3
100
AcDbVertex
100
AcDb2dVertex
 10
4897.442640752902
 20
890.2677247752666
 30
0.0
  0
VERTEX
  5
331
330
2E3
100
AcDbEntity
  8
Ｓ_１_１
  6
CONTINUOUS
 62
     3
100
AcDbVertex
100
AcDb2dVertex
 10
4897.382757737532
 20
890.4413235249938
 30
0.0
  0
VERTEX
  5
332
330
2E3
100
AcDbEntity
  8
Ｓ_１_１
  6
CONTINUOUS
 62
     3
100
AcDbVertex
100
AcDb2dVertex
 10
4897.324019727313
 20
890.6141560547532
 30
0.0
  0
VERTEX
  5
333
330
2E3
100
AcDbEntity
  8
Ｓ_１_１
  6
CONTINUOUS
 62
     3
100
AcDbVertex
100
AcDb2dVertex
 10
4897.266140448132
 20
890.7872851989663
 30
0.0
  0
VERTEX
  5
334
330
2E3
100
AcDbEntity
  8
Ｓ_１_１
  6
CONTINUOUS
 62
     3
100
AcDbVertex
100
AcDb2dVertex
 10
4897.209198728513
 20
890.9607252090045
 30
0.0
  0
VERTEX
  5
335
330
2E3
100
AcDbEntity
  8
Ｓ_１_１
  6
CONTINUOUS
 62
     3
100
AcDbVertex
100
AcDb2dVertex
 10
4897.153273396969
 20
891.1344903362385
 30
0.0
  0
VERTEX
  5
336
330
2E3
100
AcDbEntity
  8
Ｓ_１_１
  6
CONTINUOUS
 62
     3
100
AcDbVertex
100
AcDb2dVertex
 10
4897.098443282021
 20
891.3085948320397
 30
0.0
  0
VERTEX
  5
337
330
2E3
100
AcDbEntity
  8
Ｓ_１_１
  6
CONTINUOUS
 62
     3
100
AcDbVertex
100
AcDb2dVertex
 10
4897.044787212188
 20
891.4830529477791
 30
0.0
  0
VERTEX
  5
338
330
2E3
100
AcDbEntity
  8
Ｓ_１_１
  6
CONTINUOUS
 62
     3
100
AcDbVertex
100
AcDb2dVertex
 10
4896.992384015986
 20
891.6578789348275
 30
0.0
  0
VERTEX
  5
339
330
2E3
100
AcDbEntity
  8
Ｓ_１_１
  6
CONTINUOUS
 62
     3
100
AcDbVertex
100
AcDb2dVertex
 10
4896.941312521936
 20
891.8330870445562
 30
0.0
  0
VERTEX
  5
33A
330
2E3
100
AcDbEntity
  8
Ｓ_１_１
  6
CONTINUOUS
 62
     3
100
AcDbVertex
100
AcDb2dVertex
 10
4896.891651558558
 20
892.008691528336
 30
0.0
  0
VERTEX
  5
33B
330
2E3
100
AcDbEntity
  8
Ｓ_１_１
  6
CONTINUOUS
 62
     3
100
AcDbVertex
100
AcDb2dVertex
 10
4896.843479954366
 20
892.1847066375383
 30
0.0
  0
VERTEX
  5
33C
330
2E3
100
AcDbEntity
  8
Ｓ_１_１
  6
CONTINUOUS
 62
     3
100
AcDbVertex
100
AcDb2dVertex
 10
4896.796876537881
 20
892.3611466235341
 30
0.0
  0
VERTEX
  5
33D
330
2E3
100
AcDbEntity
  8
Ｓ_１_１
  6
CONTINUOUS
 62
     3
100
AcDbVertex
100
AcDb2dVertex
 10
4896.733458013252
 20
892.6126036631707
 30
0.0
  0
VERTEX
  5
33E
330
2E3
100
AcDbEntity
  8
Ｓ_１_１
  6
CONTINUOUS
 62
     3
100
AcDbVertex
100
AcDb2dVertex
 10
4896.673298017456
 20
892.8648920585412
 30
0.0
  0
VERTEX
  5
33F
330
2E3
100
AcDbEntity
  8
Ｓ_１_１
  6
CONTINUOUS
 62
     3
100
AcDbVertex
100
AcDb2dVertex
 10
4896.616329539914
 20
893.1179565086528
 30
0.0
  0
VERTEX
  5
340
330
2E3
100
AcDbEntity
  8
Ｓ_１_１
  6
CONTINUOUS
 62
     3
100
AcDbVertex
100
AcDb2dVertex
 10
4896.562485570054
 20
893.3717417125131
 30
0.0
  0
VERTEX
  5
341
330
2E3
100
AcDbEntity
  8
Ｓ_１_１
  6
CONTINUOUS
 62
     3
100
AcDbVertex
100
AcDb2dVertex
 10
4896.511699097302
 20
893.6261923691291
 30
0.0
  0
VERTEX
  5
342
330
2E3
100
AcDbEntity
  8
Ｓ_１_１
  6
CONTINUOUS
 62
     3
100
AcDbVertex
100
AcDb2dVertex
 10
4896.463903111081
 20
893.8812531775081
 30
0.0
  0
VERTEX
  5
343
330
2E3
100
AcDbEntity
  8
Ｓ_１_１
  6
CONTINUOUS
 62
     3
100
AcDbVertex
100
AcDb2dVertex
 10
4896.419030600819
 20
894.1368688366575
 30
0.0
  0
VERTEX
  5
344
330
2E3
100
AcDbEntity
  8
Ｓ_１_１
  6
CONTINUOUS
 62
     3
100
AcDbVertex
100
AcDb2dVertex
 10
4896.377014555941
 20
894.3929840455847
 30
0.0
  0
VERTEX
  5
345
330
2E3
100
AcDbEntity
  8
Ｓ_１_１
  6
CONTINUOUS
 62
     3
100
AcDbVertex
100
AcDb2dVertex
 10
4896.337787965871
 20
894.6495435032969
 30
0.0
  0
VERTEX
  5
346
330
2E3
100
AcDbEntity
  8
Ｓ_１_１
  6
CONTINUOUS
 62
     3
100
AcDbVertex
100
AcDb2dVertex
 10
4896.301283820037
 20
894.9064919088011
 30
0.0
  0
VERTEX
  5
347
330
2E3
100
AcDbEntity
  8
Ｓ_１_１
  6
CONTINUOUS
 62
     3
100
AcDbVertex
100
AcDb2dVertex
 10
4896.267435107862
 20
895.1637739611051
 30
0.0
  0
VERTEX
  5
348
330
2E3
100
AcDbEntity
  8
Ｓ_１_１
  6
CONTINUOUS
 62
     3
100
AcDbVertex
100
AcDb2dVertex
 10
4896.235948320333
 20
895.4232719573503
 30
0.0
  0
VERTEX
  5
349
330
2E3
100
AcDbEntity
  8
Ｓ_１_１
  6
CONTINUOUS
 62
     3
100
AcDbVertex
100
AcDb2dVertex
 10
4896.207009889594
 20
895.6830306120663
 30
0.0
  0
VERTEX
  5
34A
330
2E3
100
AcDbEntity
  8
Ｓ_１_１
  6
CONTINUOUS
 62
     3
100
AcDbVertex
100
AcDb2dVertex
 10
4896.180540793522
 20
895.943028048806
 30
0.0
  0
VERTEX
  5
34B
330
2E3
100
AcDbEntity
  8
Ｓ_１_１
  6
CONTINUOUS
 62
     3
100
AcDbVertex
100
AcDb2dVertex
 10
4896.156462009993
 20
896.2032423911226
 30
0.0
  0
VERTEX
  5
34C
330
2E3
100
AcDbEntity
  8
Ｓ_１_１
  6
CONTINUOUS
 62
     3
100
AcDbVertex
100
AcDb2dVertex
 10
4896.134694516884
 20
896.463651762569
 30
0.0
  0
VERTEX
  5
34D
330
2E3
100
AcDbEntity
  8
Ｓ_１_１
  6
CONTINUOUS
 62
     3
100
AcDbVertex
100
AcDb2dVertex
 10
4896.115159292071
 20
896.7242342866983
 30
0.0
  0
VERTEX
  5
34E
330
2E3
100
AcDbEntity
  8
Ｓ_１_１
  6
CONTINUOUS
 62
     3
100
AcDbVertex
100
AcDb2dVertex
 10
4896.09777731343
 20
896.9849680870634
 30
0.0
  0
VERTEX
  5
34F
330
2E3
100
AcDbEntity
  8
Ｓ_１_１
  6
CONTINUOUS
 62
     3
100
AcDbVertex
100
AcDb2dVertex
 10
4896.08246955884
 20
897.2458312872175
 30
0.0
  0
VERTEX
  5
350
330
2E3
100
AcDbEntity
  8
Ｓ_１_１
  6
CONTINUOUS
 62
     3
100
AcDbVertex
100
AcDb2dVertex
 10
4896.069157006175
 20
897.5068020107134
 30
0.0
  0
VERTEX
  5
351
330
2E3
100
AcDbEntity
  8
Ｓ_１_１
  6
CONTINUOUS
 62
     3
100
AcDbVertex
100
AcDb2dVertex
 10
4896.057760633314
 20
897.7678583811041
 30
0.0
  0
VERTEX
  5
352
330
2E3
100
AcDbEntity
  8
Ｓ_１_１
  6
CONTINUOUS
 62
     3
100
AcDbVertex
100
AcDb2dVertex
 10
4896.048201418131
 20
898.0289785219429
 30
0.0
  0
VERTEX
  5
353
330
2E3
100
AcDbEntity
  8
Ｓ_１_１
  6
CONTINUOUS
 62
     3
100
AcDbVertex
100
AcDb2dVertex
 10
4896.040337232724
 20
898.2925635985121
 30
0.0
  0
VERTEX
  5
354
330
2E3
100
AcDbEntity
  8
Ｓ_１_１
  6
CONTINUOUS
 62
     3
100
AcDbVertex
100
AcDb2dVertex
 10
4896.034189984107
 20
898.5561841902111
 30
0.0
  0
VERTEX
  5
355
330
2E3
100
AcDbEntity
  8
Ｓ_１_１
  6
CONTINUOUS
 62
     3
100
AcDbVertex
100
AcDb2dVertex
 10
4896.029685734925
 20
898.8198331380522
 30
0.0
  0
VERTEX
  5
356
330
2E3
100
AcDbEntity
  8
Ｓ_１_１
  6
CONTINUOUS
 62
     3
100
AcDbVertex
100
AcDb2dVertex
 10
4896.026750547828
 20
899.0835032830475
 30
0.0
  0
VERTEX
  5
357
330
2E3
100
AcDbEntity
  8
Ｓ_１_１
  6
CONTINUOUS
 62
     3
100
AcDbVertex
100
AcDb2dVertex
 10
4896.025310485461
 20
899.34718746621
 30
0.0
  0
VERTEX
  5
358
330
2E3
100
AcDbEntity
  8
Ｓ_１_１
  6
CONTINUOUS
 62
     3
100
AcDbVertex
100
AcDb2dVertex
 10
4896.025291610475
 20
899.6108785285519
 30
0.0
  0
VERTEX
  5
359
330
2E3
100
AcDbEntity
  8
Ｓ_１_１
  6
CONTINUOUS
 62
     3
100
AcDbVertex
100
AcDb2dVertex
 10
4896.026619985515
 20
899.8745693110853
 30
0.0
  0
VERTEX
  5
35A
330
2E3
100
AcDbEntity
  8
Ｓ_１_１
  6
CONTINUOUS
 62
     3
100
AcDbVertex
100
AcDb2dVertex
 10
4896.02922167323
 20
900.1382526548228
 30
0.0
  0
VERTEX
  5
35B
330
2E3
100
AcDbEntity
  8
Ｓ_１_１
  6
CONTINUOUS
 62
     3
100
AcDbVertex
100
AcDb2dVertex
 10
4896.033022736266
 20
900.4019214007769
 30
0.0
  0
VERTEX
  5
35C
330
2E3
100
AcDbEntity
  8
Ｓ_１_１
  6
CONTINUOUS
 62
     3
100
AcDbVertex
100
AcDb2dVertex
 10
4896.037949237269
 20
900.66556838996
 30
0.0
  0
VERTEX
  5
35D
330
2E3
100
AcDbEntity
  8
Ｓ_１_１
  6
CONTINUOUS
 62
     3
100
AcDbVertex
100
AcDb2dVertex
 10
4896.043927238892
 20
900.9291864633843
 30
0.0
  0
VERTEX
  5
35E
330
2E3
100
AcDbEntity
  8
Ｓ_１_１
  6
CONTINUOUS
 62
     3
100
AcDbVertex
100
AcDb2dVertex
 10
4896.050908386222
 20
901.1936530951377
 30
0.0
  0
VERTEX
  5
35F
330
2E3
100
AcDbEntity
  8
Ｓ_１_１
  6
CONTINUOUS
 62
     3
100
AcDbVertex
100
AcDb2dVertex
 10
4896.058803283864
 20
901.4580856916375
 30
0.0
  0
VERTEX
  5
360
330
2E3
100
AcDbEntity
  8
Ｓ_１_１
  6
CONTINUOUS
 62
     3
100
AcDbVertex
100
AcDb2dVertex
 10
4896.067541557355
 20
901.7224865345145
 30
0.0
  0
VERTEX
  5
361
330
2E3
100
AcDbEntity
  8
Ｓ_１_１
  6
CONTINUOUS
 62
     3
100
AcDbVertex
100
AcDb2dVertex
 10
4896.077052832235
 20
901.9868579053991
 30
0.0
  0
VERTEX
  5
362
330
2E3
100
AcDbEntity
  8
Ｓ_１_１
  6
CONTINUOUS
 62
     3
100
AcDbVertex
100
AcDb2dVertex
 10
4896.087266734039
 20
902.2512020859217
 30
0.0
  0
VERTEX
  5
363
330
2E3
100
AcDbEntity
  8
Ｓ_１_１
  6
CONTINUOUS
 62
     3
100
AcDbVertex
100
AcDb2dVertex
 10
4896.098112888305
 20
902.515521357713
 30
0.0
  0
VERTEX
  5
364
330
2E3
100
AcDbEntity
  8
Ｓ_１_１
  6
CONTINUOUS
 62
     3
100
AcDbVertex
100
AcDb2dVertex
 10
4896.109520920571
 20
902.7798180024035
 30
0.0
  0
VERTEX
  5
365
330
2E3
100
AcDbEntity
  8
Ｓ_１_１
  6
CONTINUOUS
 62
     3
100
AcDbVertex
100
AcDb2dVertex
 10
4896.121420456368
 20
903.0440943016235
 30
0.0
  0
VERTEX
  5
366
330
2E3
100
AcDbEntity
  8
Ｓ_１_１
  6
CONTINUOUS
 62
     3
100
AcDbVertex
100
AcDb2dVertex
 10
4896.133741121242
 20
903.3083525370039
 30
0.0
  0
VERTEX
  5
367
330
2E3
100
AcDbEntity
  8
Ｓ_１_１
  6
CONTINUOUS
 62
     3
100
AcDbVertex
100
AcDb2dVertex
 10
4896.146412540723
 20
903.5725949901749
 30
0.0
  0
VERTEX
  5
368
330
2E3
100
AcDbEntity
  8
Ｓ_１_１
  6
CONTINUOUS
 62
     3
100
AcDbVertex
100
AcDb2dVertex
 10
4896.15936434035
 20
903.8368239427673
 30
0.0
  0
VERTEX
  5
369
330
2E3
100
AcDbEntity
  8
Ｓ_１_１
  6
CONTINUOUS
 62
     3
100
AcDbVertex
100
AcDb2dVertex
 10
4896.173997129171
 20
904.1299580647654
 30
0.0
  0
VERTEX
  5
36A
330
2E3
100
AcDbEntity
  8
Ｓ_１_１
  6
CONTINUOUS
 62
     3
100
AcDbVertex
100
AcDb2dVertex
 10
4896.188916623785
 20
904.4230765376526
 30
0.0
  0
VERTEX
  5
36B
330
2E3
100
AcDbEntity
  8
Ｓ_１_１
  6
CONTINUOUS
 62
     3
100
AcDbVertex
100
AcDb2dVertex
 10
4896.204151039808
 20
904.71617752141
 30
0.0
  0
VERTEX
  5
36C
330
2E3
100
AcDbEntity
  8
Ｓ_１_１
  6
CONTINUOUS
 62
     3
100
AcDbVertex
100
AcDb2dVertex
 10
4896.219728592853
 20
905.0092591760198
 30
0.0
  0
VERTEX
  5
36D
330
2E3
100
AcDbEntity
  8
Ｓ_１_１
  6
CONTINUOUS
 62
     3
100
AcDbVertex
100
AcDb2dVertex
 10
4896.235677498535
 20
905.3023196614631
 30
0.0
  0
VERTEX
  5
36E
330
2E3
100
AcDbEntity
  8
Ｓ_１_１
  6
CONTINUOUS
 62
     3
100
AcDbVertex
100
AcDb2dVertex
 10
4896.252025972466
 20
905.5953571377214
 30
0.0
  0
VERTEX
  5
36F
330
2E3
100
AcDbEntity
  8
Ｓ_１_１
  6
CONTINUOUS
 62
     3
100
AcDbVertex
100
AcDb2dVertex
 10
4896.268802230264
 20
905.8883697647764
 30
0.0
  0
VERTEX
  5
370
330
2E3
100
AcDbEntity
  8
Ｓ_１_１
  6
CONTINUOUS
 62
     3
100
AcDbVertex
100
AcDb2dVertex
 10
4896.286034487538
 20
906.18135570261
 30
0.0
  0
VERTEX
  5
371
330
2E3
100
AcDbEntity
  8
Ｓ_１_１
  6
CONTINUOUS
 62
     3
100
AcDbVertex
100
AcDb2dVertex
 10
4896.303750959905
 20
906.4743131112035
 30
0.0
  0
VERTEX
  5
372
330
2E3
100
AcDbEntity
  8
Ｓ_１_１
  6
CONTINUOUS
 62
     3
100
AcDbVertex
100
AcDb2dVertex
 10
4896.321979862979
 20
906.7672401505384
 30
0.0
  0
VERTEX
  5
373
330
2E3
100
AcDbEntity
  8
Ｓ_１_１
  6
CONTINUOUS
 62
     3
100
AcDbVertex
100
AcDb2dVertex
 10
4896.340749412374
 20
907.0601349805966
 30
0.0
  0
VERTEX
  5
374
330
2E3
100
AcDbEntity
  8
Ｓ_１_１
  6
CONTINUOUS
 62
     3
100
AcDbVertex
100
AcDb2dVertex
 10
4896.359967926437
 20
907.3512053326481
 30
0.0
  0
VERTEX
  5
375
330
2E3
100
AcDbEntity
  8
Ｓ_１_１
  6
CONTINUOUS
 62
     3
100
AcDbVertex
100
AcDb2dVertex
 10
4896.379776654032
 20
907.642238016836
 30
0.0
  0
VERTEX
  5
376
330
2E3
100
AcDbEntity
  8
Ｓ_１_１
  6
CONTINUOUS
 62
     3
100
AcDbVertex
100
AcDb2dVertex
 10
4896.400203880041
 20
907.9332289995988
 30
0.0
  0
VERTEX
  5
377
330
2E3
100
AcDbEntity
  8
Ｓ_１_１
  6
CONTINUOUS
 62
     3
100
AcDbVertex
100
AcDb2dVertex
 10
4896.421277889349
 20
908.2241742473753
 30
0.0
  0
VERTEX
  5
378
330
2E3
100
AcDbEntity
  8
Ｓ_１_１
  6
CONTINUOUS
 62
     3
100
AcDbVertex
100
AcDb2dVertex
 10
4896.443026966841
 20
908.5150697266047
 30
0.0
  0
VERTEX
  5
379
330
2E3
100
AcDbEntity
  8
Ｓ_１_１
  6
CONTINUOUS
 62
     3
100
AcDbVertex
100
AcDb2dVertex
 10
4896.465479397403
 20
908.8059114037253
 30
0.0
  0
VERTEX
  5
37A
330
2E3
100
AcDbEntity
  8
Ｓ_１_１
  6
CONTINUOUS
 62
     3
100
AcDbVertex
100
AcDb2dVertex
 10
4896.488663465916
 20
909.0966952451761
 30
0.0
  0
VERTEX
  5
37B
330
2E3
100
AcDbEntity
  8
Ｓ_１_１
  6
CONTINUOUS
 62
     3
100
AcDbVertex
100
AcDb2dVertex
 10
4896.512607457268
 20
909.3874172173958
 30
0.0
  0
VERTEX
  5
37C
330
2E3
100
AcDbEntity
  8
Ｓ_１_１
  6
CONTINUOUS
 62
     3
100
AcDbVertex
100
AcDb2dVertex
 10
4896.53733965634
 20
909.6780732868233
 30
0.0
  0
VERTEX
  5
37D
330
2E3
100
AcDbEntity
  8
Ｓ_１_１
  6
CONTINUOUS
 62
     3
100
AcDbVertex
100
AcDb2dVertex
 10
4896.562888348018
 20
909.9686594198972
 30
0.0
  0
VERTEX
  5
37E
330
2E3
100
AcDbEntity
  8
Ｓ_１_１
  6
CONTINUOUS
 62
     3
100
AcDbVertex
100
AcDb2dVertex
 10
4896.589281817185
 20
910.2591715830565
 30
0.0
  0
VERTEX
  5
37F
330
2E3
100
AcDbEntity
  8
Ｓ_１_１
  6
CONTINUOUS
 62
     3
100
AcDbVertex
100
AcDb2dVertex
 10
4896.616430466699
 20
910.5483701743265
 30
0.0
  0
VERTEX
  5
380
330
2E3
100
AcDbEntity
  8
Ｓ_１_１
  6
CONTINUOUS
 62
     3
100
AcDbVertex
100
AcDb2dVertex
 10
4896.644472594397
 20
910.8374850946387
 30
0.0
  0
VERTEX
  5
381
330
2E3
100
AcDbEntity
  8
Ｓ_１_１
  6
CONTINUOUS
 62
     3
100
AcDbVertex
100
AcDb2dVertex
 10
4896.673436027355
 20
911.1265100143546
 30
0.0
  0
VERTEX
  5
382
330
2E3
100
AcDbEntity
  8
Ｓ_１_１
  6
CONTINUOUS
 62
     3
100
AcDbVertex
100
AcDb2dVertex
 10
4896.703348592647
 20
911.4154386038349
 30
0.0
  0
VERTEX
  5
383
330
2E3
100
AcDbEntity
  8
Ｓ_１_１
  6
CONTINUOUS
 62
     3
100
AcDbVertex
100
AcDb2dVertex
 10
4896.734238117346
 20
911.7042645334409
 30
0.0
  0
VERTEX
  5
384
330
2E3
100
AcDbEntity
  8
Ｓ_１_１
  6
CONTINUOUS
 62
     3
100
AcDbVertex
100
AcDb2dVertex
 10
4896.76613242853
 20
911.9929814735342
 30
0.0
  0
VERTEX
  5
385
330
2E3
100
AcDbEntity
  8
Ｓ_１_１
  6
CONTINUOUS
 62
     3
100
AcDbVertex
100
AcDb2dVertex
 10
4896.799059353272
 20
912.2815830944753
 30
0.0
  0
VERTEX
  5
386
330
2E3
100
AcDbEntity
  8
Ｓ_１_１
  6
CONTINUOUS
 62
     3
100
AcDbVertex
100
AcDb2dVertex
 10
4896.833046718648
 20
912.570063066626
 30
0.0
  0
VERTEX
  5
387
330
2E3
100
AcDbEntity
  8
Ｓ_１_１
  6
CONTINUOUS
 62
     3
100
AcDbVertex
100
AcDb2dVertex
 10
4896.86812235173
 20
912.8584150603469
 30
0.0
  0
VERTEX
  5
388
330
2E3
100
AcDbEntity
  8
Ｓ_１_１
  6
CONTINUOUS
 62
     3
100
AcDbVertex
100
AcDb2dVertex
 10
4896.904314079593
 20
913.1466327459996
 30
0.0
  0
VERTEX
  5
389
330
2E3
100
AcDbEntity
  8
Ｓ_１_１
  6
CONTINUOUS
 62
     3
100
AcDbVertex
100
AcDb2dVertex
 10
4896.941649729315
 20
913.4347097939449
 30
0.0
  0
VERTEX
  5
38A
330
2E3
100
AcDbEntity
  8
Ｓ_１_１
  6
CONTINUOUS
 62
     3
100
AcDbVertex
100
AcDb2dVertex
 10
4896.980108774054
 20
913.7222861390514
 30
0.0
  0
VERTEX
  5
38B
330
2E3
100
AcDbEntity
  8
Ｓ_１_１
  6
CONTINUOUS
 62
     3
100
AcDbVertex
100
AcDb2dVertex
 10
4897.019761940988
 20
914.0097046927057
 30
0.0
  0
VERTEX
  5
38C
330
2E3
100
AcDbEntity
  8
Ｓ_１_１
  6
CONTINUOUS
 62
     3
100
AcDbVertex
100
AcDb2dVertex
 10
4897.06063447485
 20
914.2969542706464
 30
0.0
  0
VERTEX
  5
38D
330
2E3
100
AcDbEntity
  8
Ｓ_１_１
  6
CONTINUOUS
 62
     3
100
AcDbVertex
100
AcDb2dVertex
 10
4897.102751620376
 20
914.584023688612
 30
0.0
  0
VERTEX
  5
38E
330
2E3
100
AcDbEntity
  8
Ｓ_１_１
  6
CONTINUOUS
 62
     3
100
AcDbVertex
100
AcDb2dVertex
 10
4897.146138622298
 20
914.87090176234
 30
0.0
  0
VERTEX
  5
38F
330
2E3
100
AcDbEntity
  8
Ｓ_１_１
  6
CONTINUOUS
 62
     3
100
AcDbVertex
100
AcDb2dVertex
 10
4897.190820725353
 20
915.1575773075692
 30
0.0
  0
VERTEX
  5
390
330
2E3
100
AcDbEntity
  8
Ｓ_１_１
  6
CONTINUOUS
 62
     3
100
AcDbVertex
100
AcDb2dVertex
 10
4897.236823174272
 20
915.4440391400371
 30
0.0
  0
VERTEX
  5
391
330
2E3
100
AcDbEntity
  8
Ｓ_１_１
  6
CONTINUOUS
 62
     3
100
AcDbVertex
100
AcDb2dVertex
 10
4897.284171213792
 20
915.7302760754826
 30
0.0
  0
VERTEX
  5
392
330
2E3
100
AcDbEntity
  8
Ｓ_１_１
  6
CONTINUOUS
 62
     3
100
AcDbVertex
100
AcDb2dVertex
 10
4897.332890088649
 20
916.0162769296435
 30
0.0
  0
VERTEX
  5
393
330
2E3
100
AcDbEntity
  8
Ｓ_１_１
  6
CONTINUOUS
 62
     3
100
AcDbVertex
100
AcDb2dVertex
 10
4897.383005043574
 20
916.3020305182581
 30
0.0
  0
VERTEX
  5
394
330
2E3
100
AcDbEntity
  8
Ｓ_１_１
  6
CONTINUOUS
 62
     3
100
AcDbVertex
100
AcDb2dVertex
 10
4897.4345413233
 20
916.5875256570641
 30
0.0
  0
VERTEX
  5
395
330
2E3
100
AcDbEntity
  8
Ｓ_１_１
  6
CONTINUOUS
 62
     3
100
AcDbVertex
100
AcDb2dVertex
 10
4897.485811487115
 20
916.8637437613675
 30
0.0
  0
VERTEX
  5
396
330
2E3
100
AcDbEntity
  8
Ｓ_１_１
  6
CONTINUOUS
 62
     3
100
AcDbVertex
100
AcDb2dVertex
 10
4897.538367122574
 20
917.1397195515119
 30
0.0
  0
VERTEX
  5
397
330
2E3
100
AcDbEntity
  8
Ｓ_１_１
  6
CONTINUOUS
 62
     3
100
AcDbVertex
100
AcDb2dVertex
 10
4897.592137129775
 20
917.4154635721867
 30
0.0
  0
VERTEX
  5
398
330
2E3
100
AcDbEntity
  8
Ｓ_１_１
  6
CONTINUOUS
 62
     3
100
AcDbVertex
100
AcDb2dVertex
 10
4897.647050408824
 20
917.690986368081
 30
0.0
  0
VERTEX
  5
399
330
2E3
100
AcDbEntity
  8
Ｓ_１_１
  6
CONTINUOUS
 62
     3
100
AcDbVertex
100
AcDb2dVertex
 10
4897.703035859822
 20
917.9662984838835
 30
0.0
  0
VERTEX
  5
39A
330
2E3
100
AcDbEntity
  8
Ｓ_１_１
  6
CONTINUOUS
 62
     3
100
AcDbVertex
100
AcDb2dVertex
 10
4897.760022382869
 20
918.2414104642834
 30
0.0
  0
VERTEX
  5
39B
330
2E3
100
AcDbEntity
  8
Ｓ_１_１
  6
CONTINUOUS
 62
     3
100
AcDbVertex
100
AcDb2dVertex
 10
4897.817938878065
 20
918.5163328539693
 30
0.0
  0
VERTEX
  5
39C
330
2E3
100
AcDbEntity
  8
Ｓ_１_１
  6
CONTINUOUS
 62
     3
100
AcDbVertex
100
AcDb2dVertex
 10
4897.876714245515
 20
918.7910761976303
 30
0.0
  0
VERTEX
  5
39D
330
2E3
100
AcDbEntity
  8
Ｓ_１_１
  6
CONTINUOUS
 62
     3
100
AcDbVertex
100
AcDb2dVertex
 10
4897.936277385319
 20
919.0656510399557
 30
0.0
  0
VERTEX
  5
39E
330
2E3
100
AcDbEntity
  8
Ｓ_１_１
  6
CONTINUOUS
 62
     3
100
AcDbVertex
100
AcDb2dVertex
 10
4897.996557197576
 20
919.3400679256341
 30
0.0
  0
VERTEX
  5
39F
330
2E3
100
AcDbEntity
  8
Ｓ_１_１
  6
CONTINUOUS
 62
     3
100
AcDbVertex
100
AcDb2dVertex
 10
4898.057482582391
 20
919.6143373993546
 30
0.0
  0
VERTEX
  5
3A0
330
2E3
100
AcDbEntity
  8
Ｓ_１_１
  6
CONTINUOUS
 62
     3
100
AcDbVertex
100
AcDb2dVertex
 10
4898.119140771046
 20
919.8891712410086
 30
0.0
  0
VERTEX
  5
3A1
330
2E3
100
AcDbEntity
  8
Ｓ_１_１
  6
CONTINUOUS
 62
     3
100
AcDbVertex
100
AcDb2dVertex
 10
4898.18130781991
 20
920.163883874897
 30
0.0
  0
VERTEX
  5
3A2
330
2E3
100
AcDbEntity
  8
Ｓ_１_１
  6
CONTINUOUS
 62
     3
100
AcDbVertex
100
AcDb2dVertex
 10
4898.24391517707
 20
920.4384916608442
 30
0.0
  0
VERTEX
  5
3A3
330
2E3
100
AcDbEntity
  8
Ｓ_１_１
  6
CONTINUOUS
 62
     3
100
AcDbVertex
100
AcDb2dVertex
 10
4898.306894290618
 20
920.7130109586759
 30
0.0
  0
VERTEX
  5
3A4
330
2E3
100
AcDbEntity
  8
Ｓ_１_１
  6
CONTINUOUS
 62
     3
100
AcDbVertex
100
AcDb2dVertex
 10
4898.370176608641
 20
920.9874581282168
 30
0.0
  0
VERTEX
  5
3A5
330
2E3
100
AcDbEntity
  8
Ｓ_１_１
  6
CONTINUOUS
 62
     3
100
AcDbVertex
100
AcDb2dVertex
 10
4898.433693579231
 20
921.2618495292926
 30
0.0
  0
VERTEX
  5
3A6
330
2E3
100
AcDbEntity
  8
Ｓ_１_１
  6
CONTINUOUS
 62
     3
100
AcDbVertex
100
AcDb2dVertex
 10
4898.497376650475
 20
921.5362015217281
 30
0.0
  0
VERTEX
  5
3A7
330
2E3
100
AcDbEntity
  8
Ｓ_１_１
  6
CONTINUOUS
 62
     3
100
AcDbVertex
100
AcDb2dVertex
 10
4898.561157270463
 20
921.8105304653486
 30
0.0
  0
VERTEX
  5
3A8
330
2E3
100
AcDbEntity
  8
Ｓ_１_１
  6
CONTINUOUS
 62
     3
100
AcDbVertex
100
AcDb2dVertex
 10
4898.624966887284
 20
922.0848527199793
 30
0.0
  0
VERTEX
  5
3A9
330
2E3
100
AcDbEntity
  8
Ｓ_１_１
  6
CONTINUOUS
 62
     3
100
AcDbVertex
100
AcDb2dVertex
 10
4898.688736949028
 20
922.3591846454453
 30
0.0
  0
VERTEX
  5
3AA
330
2E3
100
AcDbEntity
  8
Ｓ_１_１
  6
CONTINUOUS
 62
     3
100
AcDbVertex
100
AcDb2dVertex
 10
4898.752398903784
 20
922.6335426015719
 30
0.0
  0
VERTEX
  5
3AB
330
2E3
100
AcDbEntity
  8
Ｓ_１_１
  6
CONTINUOUS
 62
     3
100
AcDbVertex
100
AcDb2dVertex
 10
4898.815892876453
 20
922.9079807433004
 30
0.0
  0
VERTEX
  5
3AC
330
2E3
100
AcDbEntity
  8
Ｓ_１_１
  6
CONTINUOUS
 62
     3
100
AcDbVertex
100
AcDb2dVertex
 10
4898.879140982031
 20
923.1824764801062
 30
0.0
  0
VERTEX
  5
3AD
330
2E3
100
AcDbEntity
  8
Ｓ_１_１
  6
CONTINUOUS
 62
     3
100
AcDbVertex
100
AcDb2dVertex
 10
4898.942074061241
 20
923.457045004843
 30
0.0
  0
VERTEX
  5
3AE
330
2E3
100
AcDbEntity
  8
Ｓ_１_１
  6
CONTINUOUS
 62
     3
100
AcDbVertex
100
AcDb2dVertex
 10
4899.004622954807
 20
923.7317015103649
 30
0.0
  0
VERTEX
  5
3AF
330
2E3
100
AcDbEntity
  8
Ｓ_１_１
  6
CONTINUOUS
 62
     3
100
AcDbVertex
100
AcDb2dVertex
 10
4899.066718503451
 20
924.0064611895257
 30
0.0
  0
VERTEX
  5
3B0
330
2E3
100
AcDbEntity
  8
Ｓ_１_１
  6
CONTINUOUS
 62
     3
100
AcDbVertex
100
AcDb2dVertex
 10
4899.128291547898
 20
924.2813392351795
 30
0.0
  0
VERTEX
  5
3B1
330
2E3
100
AcDbEntity
  8
Ｓ_１_１
  6
CONTINUOUS
 62
     3
100
AcDbVertex
100
AcDb2dVertex
 10
4899.189272928868
 20
924.5563508401799
 30
0.0
  0
VERTEX
  5
3B2
330
2E3
100
AcDbEntity
  8
Ｓ_１_１
  6
CONTINUOUS
 62
     3
100
AcDbVertex
100
AcDb2dVertex
 10
4899.249593487088
 20
924.8315111973808
 30
0.0
  0
VERTEX
  5
3B3
330
2E3
100
AcDbEntity
  8
Ｓ_１_１
  6
CONTINUOUS
 62
     3
100
AcDbVertex
100
AcDb2dVertex
 10
4899.309184063278
 20
925.1068354996366
 30
0.0
  0
VERTEX
  5
3B4
330
2E3
100
AcDbEntity
  8
Ｓ_１_１
  6
CONTINUOUS
 62
     3
100
AcDbVertex
100
AcDb2dVertex
 10
4899.367975498162
 20
925.3823389398005
 30
0.0
  0
VERTEX
  5
3B5
330
2E3
100
AcDbEntity
  8
Ｓ_１_１
  6
CONTINUOUS
 62
     3
100
AcDbVertex
100
AcDb2dVertex
 10
4899.425898632466
 20
925.658036710727
 30
0.0
  0
VERTEX
  5
3B6
330
2E3
100
AcDbEntity
  8
Ｓ_１_１
  6
CONTINUOUS
 62
     3
100
AcDbVertex
100
AcDb2dVertex
 10
4899.482792164896
 20
925.9334944154087
 30
0.0
  0
VERTEX
  5
3B7
330
2E3
100
AcDbEntity
  8
Ｓ_１_１
  6
CONTINUOUS
 62
     3
100
AcDbVertex
100
AcDb2dVertex
 10
4899.538679712789
 20
926.2091662245804
 30
0.0
  0
VERTEX
  5
3B8
330
2E3
100
AcDbEntity
  8
Ｓ_１_１
  6
CONTINUOUS
 62
     3
100
AcDbVertex
100
AcDb2dVertex
 10
4899.593489711138
 20
926.4850573986337
 30
0.0
  0
VERTEX
  5
3B9
330
2E3
100
AcDbEntity
  8
Ｓ_１_１
  6
CONTINUOUS
 62
     3
100
AcDbVertex
100
AcDb2dVertex
 10
4899.647150594938
 20
926.7611731979609
 30
0.0
  0
VERTEX
  5
3BA
330
2E3
100
AcDbEntity
  8
Ｓ_１_１
  6
CONTINUOUS
 62
     3
100
AcDbVertex
100
AcDb2dVertex
 10
4899.699590799177
 20
927.0375188829535
 30
0.0
  0
VERTEX
  5
3BB
330
2E3
100
AcDbEntity
  8
Ｓ_１_１
  6
CONTINUOUS
 62
     3
100
AcDbVertex
100
AcDb2dVertex
 10
4899.750738758848
 20
927.3140997140034
 30
0.0
  0
VERTEX
  5
3BC
330
2E3
100
AcDbEntity
  8
Ｓ_１_１
  6
CONTINUOUS
 62
     3
100
AcDbVertex
100
AcDb2dVertex
 10
4899.800522908944
 20
927.5909209515028
 30
0.0
  0
VERTEX
  5
3BD
330
2E3
100
AcDbEntity
  8
Ｓ_１_１
  6
CONTINUOUS
 62
     3
100
AcDbVertex
100
AcDb2dVertex
 10
4899.848871684459
 20
927.867987855843
 30
0.0
  0
VERTEX
  5
3BE
330
2E3
100
AcDbEntity
  8
Ｓ_１_１
  6
CONTINUOUS
 62
     3
100
AcDbVertex
100
AcDb2dVertex
 10
4899.895713520383
 20
928.1453056874161
 30
0.0
  0
VERTEX
  5
3BF
330
2E3
100
AcDbEntity
  8
Ｓ_１_１
  6
CONTINUOUS
 62
     3
100
AcDbVertex
100
AcDb2dVertex
 10
4899.940976851708
 20
928.4228797066143
 30
0.0
  0
VERTEX
  5
3C0
330
2E3
100
AcDbEntity
  8
Ｓ_１_１
  6
CONTINUOUS
 62
     3
100
AcDbVertex
100
AcDb2dVertex
 10
4899.984590113428
 20
928.7007151738289
 30
0.0
  0
VERTEX
  5
3C1
330
2E3
100
AcDbEntity
  8
Ｓ_１_１
  6
CONTINUOUS
 62
     3
100
AcDbVertex
100
AcDb2dVertex
 10
4900.021422393511
 20
928.94450592643
 30
0.0
  0
VERTEX
  5
3C2
330
2E3
100
AcDbEntity
  8
Ｓ_１_１
  6
CONTINUOUS
 62
     3
100
AcDbVertex
100
AcDb2dVertex
 10
4900.05695005857
 20
929.188493178424
 30
0.0
  0
VERTEX
  5
3C3
330
2E3
100
AcDbEntity
  8
Ｓ_１_１
  6
CONTINUOUS
 62
     3
100
AcDbVertex
100
AcDb2dVertex
 10
4900.091191694547
 20
929.4326684444632
 30
0.0
  0
VERTEX
  5
3C4
330
2E3
100
AcDbEntity
  8
Ｓ_１_１
  6
CONTINUOUS
 62
     3
100
AcDbVertex
100
AcDb2dVertex
 10
4900.124165887383
 20
929.6770232392001
 30
0.0
  0
VERTEX
  5
3C5
330
2E3
100
AcDbEntity
  8
Ｓ_１_１
  6
CONTINUOUS
 62
     3
100
AcDbVertex
100
AcDb2dVertex
 10
4900.155891223021
 20
929.9215490772876
 30
0.0
  0
VERTEX
  5
3C6
330
2E3
100
AcDbEntity
  8
Ｓ_１_１
  6
CONTINUOUS
 62
     3
100
AcDbVertex
100
AcDb2dVertex
 10
4900.186386287403
 20
930.1662374733783
 30
0.0
  0
VERTEX
  5
3C7
330
2E3
100
AcDbEntity
  8
Ｓ_１_１
  6
CONTINUOUS
 62
     3
100
AcDbVertex
100
AcDb2dVertex
 10
4900.215669666471
 20
930.4110799421243
 30
0.0
  0
VERTEX
  5
3C8
330
2E3
100
AcDbEntity
  8
Ｓ_１_１
  6
CONTINUOUS
 62
     3
100
AcDbVertex
100
AcDb2dVertex
 10
4900.243759946166
 20
930.6560679981785
 30
0.0
  0
VERTEX
  5
3C9
330
2E3
100
AcDbEntity
  8
Ｓ_１_１
  6
CONTINUOUS
 62
     3
100
AcDbVertex
100
AcDb2dVertex
 10
4900.270675712432
 20
930.9011931561934
 30
0.0
  0
VERTEX
  5
3CA
330
2E3
100
AcDbEntity
  8
Ｓ_１_１
  6
CONTINUOUS
 62
     3
100
AcDbVertex
100
AcDb2dVertex
 10
4900.296435551209
 20
931.1464469308216
 30
0.0
  0
VERTEX
  5
3CB
330
2E3
100
AcDbEntity
  8
Ｓ_１_１
  6
CONTINUOUS
 62
     3
100
AcDbVertex
100
AcDb2dVertex
 10
4900.321058048441
 20
931.3918208367159
 30
0.0
  0
VERTEX
  5
3CC
330
2E3
100
AcDbEntity
  8
Ｓ_１_１
  6
CONTINUOUS
 62
     3
100
AcDbVertex
100
AcDb2dVertex
 10
4900.344591172488
 20
931.6376184993646
 30
0.0
  0
VERTEX
  5
3CD
330
2E3
100
AcDbEntity
  8
Ｓ_１_１
  6
CONTINUOUS
 62
     3
100
AcDbVertex
100
AcDb2dVertex
 10
4900.367022595589
 20
931.8835193884668
 30
0.0
  0
VERTEX
  5
3CE
330
2E3
100
AcDbEntity
  8
Ｓ_１_１
  6
CONTINUOUS
 62
     3
100
AcDbVertex
100
AcDb2dVertex
 10
4900.388372218653
 20
932.1295148005163
 30
0.0
  0
VERTEX
  5
3CF
330
2E3
100
AcDbEntity
  8
Ｓ_１_１
  6
CONTINUOUS
 62
     3
100
AcDbVertex
100
AcDb2dVertex
 10
4900.408659942589
 20
932.375596032007
 30
0.0
  0
VERTEX
  5
3D0
330
2E3
100
AcDbEntity
  8
Ｓ_１_１
  6
CONTINUOUS
 62
     3
100
AcDbVertex
100
AcDb2dVertex
 10
4900.427905668305
 20
932.621754379433
 30
0.0
  0
VERTEX
  5
3D1
330
2E3
100
AcDbEntity
  8
Ｓ_１_１
  6
CONTINUOUS
 62
     3
100
AcDbVertex
100
AcDb2dVertex
 10
4900.446129296713
 20
932.8679811392883
 30
0.0
  0
VERTEX
  5
3D2
330
2E3
100
AcDbEntity
  8
Ｓ_１_１
  6
CONTINUOUS
 62
     3
100
AcDbVertex
100
AcDb2dVertex
 10
4900.46335072872
 20
933.1142676080666
 30
0.0
  0
VERTEX
  5
3D3
330
2E3
100
AcDbEntity
  8
Ｓ_１_１
  6
CONTINUOUS
 62
     3
100
AcDbVertex
100
AcDb2dVertex
 10
4900.479589865234
 20
933.3606050822622
 30
0.0
  0
VERTEX
  5
3D4
330
2E3
100
AcDbEntity
  8
Ｓ_１_１
  6
CONTINUOUS
 62
     3
100
AcDbVertex
100
AcDb2dVertex
 10
4900.494866607167
 20
933.606984858369
 30
0.0
  0
VERTEX
  5
3D5
330
2E3
100
AcDbEntity
  8
Ｓ_１_１
  6
CONTINUOUS
 62
     3
100
AcDbVertex
100
AcDb2dVertex
 10
4900.509200855427
 20
933.8533982328806
 30
0.0
  0
VERTEX
  5
3D6
330
2E3
100
AcDbEntity
  8
Ｓ_１_１
  6
CONTINUOUS
 62
     3
100
AcDbVertex
100
AcDb2dVertex
 10
4900.522612510922
 20
934.0998365022913
 30
0.0
  0
VERTEX
  5
3D7
330
2E3
100
AcDbEntity
  8
Ｓ_１_１
  6
CONTINUOUS
 62
     3
100
AcDbVertex
100
AcDb2dVertex
 10
4900.535138913712
 20
934.3466575493578
 30
0.0
  0
VERTEX
  5
3D8
330
2E3
100
AcDbEntity
  8
Ｓ_１_１
  6
CONTINUOUS
 62
     3
100
AcDbVertex
100
AcDb2dVertex
 10
4900.54677780261
 20
934.5935040786293
 30
0.0
  0
VERTEX
  5
3D9
330
2E3
100
AcDbEntity
  8
Ｓ_１_１
  6
CONTINUOUS
 62
     3
100
AcDbVertex
100
AcDb2dVertex
 10
4900.557547020927
 20
934.8403853331113
 30
0.0
  0
VERTEX
  5
3DA
330
2E3
100
AcDbEntity
  8
Ｓ_１_１
  6
CONTINUOUS
 62
     3
100
AcDbVertex
100
AcDb2dVertex
 10
4900.567464411975
 20
935.0873105558079
 30
0.0
  0
VERTEX
  5
3DB
330
2E3
100
AcDbEntity
  8
Ｓ_１_１
  6
CONTINUOUS
 62
     3
100
AcDbVertex
100
AcDb2dVertex
 10
4900.576547819067
 20
935.3342889897242
 30
0.0
  0
VERTEX
  5
3DC
330
2E3
100
AcDbEntity
  8
Ｓ_１_１
  6
CONTINUOUS
 62
     3
100
AcDbVertex
100
AcDb2dVertex
 10
4900.584815085516
 20
935.5813298778644
 30
0.0
  0
VERTEX
  5
3DD
330
2E3
100
AcDbEntity
  8
Ｓ_１_１
  6
CONTINUOUS
 62
     3
100
AcDbVertex
100
AcDb2dVertex
 10
4900.592284054634
 20
935.8284424632336
 30
0.0
  0
VERTEX
  5
3DE
330
2E3
100
AcDbEntity
  8
Ｓ_１_１
  6
CONTINUOUS
 62
     3
100
AcDbVertex
100
AcDb2dVertex
 10
4900.598972569733
 20
936.0756359888359
 30
0.0
  0
VERTEX
  5
3DF
330
2E3
100
AcDbEntity
  8
Ｓ_１_１
  6
CONTINUOUS
 62
     3
100
AcDbVertex
100
AcDb2dVertex
 10
4900.604898474125
 20
936.3229196976761
 30
0.0
  0
VERTEX
  5
3E0
330
2E3
100
AcDbEntity
  8
Ｓ_１_１
  6
CONTINUOUS
 62
     3
100
AcDbVertex
100
AcDb2dVertex
 10
4900.610079611124
 20
936.5703028327592
 30
0.0
  0
VERTEX
  5
3E1
330
2E3
100
AcDbEntity
  8
Ｓ_１_１
  6
CONTINUOUS
 62
     3
100
AcDbVertex
100
AcDb2dVertex
 10
4900.614533824039
 20
936.8177946370896
 30
0.0
  0
VERTEX
  5
3E2
330
2E3
100
AcDbEntity
  8
Ｓ_１_１
  6
CONTINUOUS
 62
     3
100
AcDbVertex
100
AcDb2dVertex
 10
4900.618281841766
 20
937.0655251558355
 30
0.0
  0
VERTEX
  5
3E3
330
2E3
100
AcDbEntity
  8
Ｓ_１_１
  6
CONTINUOUS
 62
     3
100
AcDbVertex
100
AcDb2dVertex
 10
4900.62134449022
 20
937.3133255535525
 30
0.0
  0
VERTEX
  5
3E4
330
2E3
100
AcDbEntity
  8
Ｓ_１_１
  6
CONTINUOUS
 62
     3
100
AcDbVertex
100
AcDb2dVertex
 10
4900.623746227593
 20
937.5611476727917
 30
0.0
  0
VERTEX
  5
3E5
330
2E3
100
AcDbEntity
  8
Ｓ_１_１
  6
CONTINUOUS
 62
     3
100
AcDbVertex
100
AcDb2dVertex
 10
4900.625511512079
 20
937.8089433561038
 30
0.0
  0
VERTEX
  5
3E6
330
2E3
100
AcDbEntity
  8
Ｓ_１_１
  6
CONTINUOUS
 62
     3
100
AcDbVertex
100
AcDb2dVertex
 10
4900.626664801873
 20
938.0566644460406
 30
0.0
  0
VERTEX
  5
3E7
330
2E3
100
AcDbEntity
  8
Ｓ_１_１
  6
CONTINUOUS
 62
     3
100
AcDbVertex
100
AcDb2dVertex
 10
4900.627230555168
 20
938.3042627851531
 30
0.0
  0
VERTEX
  5
3E8
330
2E3
100
AcDbEntity
  8
Ｓ_１_１
  6
CONTINUOUS
 62
     3
100
AcDbVertex
100
AcDb2dVertex
 10
4900.62723323016
 20
938.5516902159925
 30
0.0
  0
VERTEX
  5
3E9
330
2E3
100
AcDbEntity
  8
Ｓ_１_１
  6
CONTINUOUS
 62
     3
100
AcDbVertex
100
AcDb2dVertex
 10
4900.626697285041
 20
938.79889858111
 30
0.0
  0
VERTEX
  5
3EA
330
2E3
100
AcDbEntity
  8
Ｓ_１_１
  6
CONTINUOUS
 62
     3
100
AcDbVertex
100
AcDb2dVertex
 10
4900.625647178004
 20
939.0458397230566
 30
0.0
  0
VERTEX
  5
3EB
330
2E3
100
AcDbEntity
  8
Ｓ_１_１
  6
CONTINUOUS
 62
     3
100
AcDbVertex
100
AcDb2dVertex
 10
4900.624107367245
 20
939.2924654843838
 30
0.0
  0
VERTEX
  5
3EC
330
2E3
100
AcDbEntity
  8
Ｓ_１_１
  6
CONTINUOUS
 62
     3
100
AcDbVertex
100
AcDb2dVertex
 10
4900.622102310959
 20
939.5387277076424
 30
0.0
  0
VERTEX
  5
3ED
330
2E3
100
AcDbEntity
  8
Ｓ_１_１
  6
CONTINUOUS
 62
     3
100
AcDbVertex
100
AcDb2dVertex
 10
4900.619742719229
 20
939.7758913597154
 30
0.0
  0
VERTEX
  5
3EE
330
2E3
100
AcDbEntity
  8
Ｓ_１_１
  6
CONTINUOUS
 62
     3
100
AcDbVertex
100
AcDb2dVertex
 10
4900.616947861434
 20
940.0128358631949
 30
0.0
  0
VERTEX
  5
3EF
330
2E3
100
AcDbEntity
  8
Ｓ_１_１
  6
CONTINUOUS
 62
     3
100
AcDbVertex
100
AcDb2dVertex
 10
4900.613692514031
 20
940.2497250493361
 30
0.0
  0
VERTEX
  5
3F0
330
2E3
100
AcDbEntity
  8
Ｓ_１_１
  6
CONTINUOUS
 62
     3
100
AcDbVertex
100
AcDb2dVertex
 10
4900.609951453474
 20
940.4867227493933
 30
0.0
  0
VERTEX
  5
3F1
330
2E3
100
AcDbEntity
  8
Ｓ_１_１
  6
CONTINUOUS
 62
     3
100
AcDbVertex
100
AcDb2dVertex
 10
4900.605699456219
 20
940.7239927946214
 30
0.0
  0
VERTEX
  5
3F2
330
2E3
100
AcDbEntity
  8
Ｓ_１_１
  6
CONTINUOUS
 62
     3
100
AcDbVertex
100
AcDb2dVertex
 10
4900.600911298718
 20
940.961699016275
 30
0.0
  0
VERTEX
  5
3F3
330
2E3
100
AcDbEntity
  8
Ｓ_１_１
  6
CONTINUOUS
 62
     3
100
AcDbVertex
100
AcDb2dVertex
 10
4900.595561757426
 20
941.2000052456086
 30
0.0
  0
VERTEX
  5
3F4
330
2E3
100
AcDbEntity
  8
Ｓ_１_１
  6
CONTINUOUS
 62
     3
100
AcDbVertex
100
AcDb2dVertex
 10
4900.5896256088
 20
941.4390753138771
 30
0.0
  0
VERTEX
  5
3F5
330
2E3
100
AcDbEntity
  8
Ｓ_１_１
  6
CONTINUOUS
 62
     3
100
AcDbVertex
100
AcDb2dVertex
 10
4900.58307762929
 20
941.6790730523348
 30
0.0
  0
VERTEX
  5
3F6
330
2E3
100
AcDbEntity
  8
Ｓ_１_１
  6
CONTINUOUS
 62
     3
100
AcDbVertex
100
AcDb2dVertex
 10
4900.575892595354
 20
941.9201622922367
 30
0.0
  0
VERTEX
  5
3F7
330
2E3
100
AcDbEntity
  8
Ｓ_１_１
  6
CONTINUOUS
 62
     3
100
AcDbVertex
100
AcDb2dVertex
 10
4900.568045283446
 20
942.1625068648373
 30
0.0
  0
VERTEX
  5
3F8
330
2E3
100
AcDbEntity
  8
Ｓ_１_１
  6
CONTINUOUS
 62
     3
100
AcDbVertex
100
AcDb2dVertex
 10
4900.559535086827
 20
942.4058843253138
 30
0.0
  0
VERTEX
  5
3F9
330
2E3
100
AcDbEntity
  8
Ｓ_１_１
  6
CONTINUOUS
 62
     3
100
AcDbVertex
100
AcDb2dVertex
 10
4900.550405565283
 20
942.6500595653196
 30
0.0
  0
VERTEX
  5
3FA
330
2E3
100
AcDbEntity
  8
Ｓ_１_１
  6
CONTINUOUS
 62
     3
100
AcDbVertex
100
AcDb2dVertex
 10
4900.54072345671
 20
942.894414170228
 30
0.0
  0
VERTEX
  5
3FB
330
2E3
100
AcDbEntity
  8
Ｓ_１_１
  6
CONTINUOUS
 62
     3
100
AcDbVertex
100
AcDb2dVertex
 10
4900.53055549901
 20
943.1383297254117
 30
0.0
  0
VERTEX
  5
3FC
330
2E3
100
AcDbEntity
  8
Ｓ_１_１
  6
CONTINUOUS
 62
     3
100
AcDbVertex
100
AcDb2dVertex
 10
4900.519968430082
 20
943.3811878162446
 30
0.0
  0
VERTEX
  5
3FD
330
2E3
100
AcDbEntity
  8
Ｓ_１_１
  6
CONTINUOUS
 62
     3
100
AcDbVertex
100
AcDb2dVertex
 10
4900.509028987826
 20
943.6223700280996
 30
0.0
  0
VERTEX
  5
3FE
330
2E3
100
AcDbEntity
  8
Ｓ_１_１
  6
CONTINUOUS
 62
     3
100
AcDbVertex
100
AcDb2dVertex
 10
4900.49780391014
 20
943.86125794635
 30
0.0
  0
VERTEX
  5
3FF
330
2E3
100
AcDbEntity
  8
Ｓ_１_１
  6
CONTINUOUS
 62
     3
100
AcDbVertex
100
AcDb2dVertex
 10
4900.486359934923
 20
944.0972331563692
 30
0.0
  0
VERTEX
  5
400
330
2E3
100
AcDbEntity
  8
Ｓ_１_１
  6
CONTINUOUS
 62
     3
100
AcDbVertex
100
AcDb2dVertex
 10
4900.474763800075
 20
944.3296772435301
 30
0.0
  0
VERTEX
  5
401
330
2E3
100
AcDbEntity
  8
Ｓ_１_１
  6
CONTINUOUS
 62
     3
100
AcDbVertex
100
AcDb2dVertex
 10
4900.463082243497
 20
944.5579717932063
 30
0.0
  0
VERTEX
  5
402
330
2E3
100
AcDbEntity
  8
Ｓ_１_１
  6
CONTINUOUS
 62
     3
100
AcDbVertex
100
AcDb2dVertex
 10
4900.451382003086
 20
944.7814983907708
 30
0.0
  0
VERTEX
  5
403
330
2E3
100
AcDbEntity
  8
Ｓ_１_１
  6
CONTINUOUS
 62
     3
100
AcDbVertex
100
AcDb2dVertex
 10
4900.439680842076
 20
944.999973396364
 30
0.0
  0
VERTEX
  5
404
330
2E3
100
AcDbEntity
  8
Ｓ_１_１
  6
CONTINUOUS
 62
     3
100
AcDbVertex
100
AcDb2dVertex
 10
4900.427751509371
 20
945.2153681720599
 30
0.0
  0
VERTEX
  5
405
330
2E3
100
AcDbEntity
  8
Ｓ_１_１
  6
CONTINUOUS
 62
     3
100
AcDbVertex
100
AcDb2dVertex
 10
4900.415317846684
 20
945.4299812912795
 30
0.0
  0
VERTEX
  5
406
330
2E3
100
AcDbEntity
  8
Ｓ_１_１
  6
CONTINUOUS
 62
     3
100
AcDbVertex
100
AcDb2dVertex
 10
4900.402103695727
 20
945.6461113274435
 30
0.0
  0
VERTEX
  5
407
330
2E3
100
AcDbEntity
  8
Ｓ_１_１
  6
CONTINUOUS
 62
     3
100
AcDbVertex
100
AcDb2dVertex
 10
4900.387832898216
 20
945.8660568539731
 30
0.0
  0
VERTEX
  5
408
330
2E3
100
AcDbEntity
  8
Ｓ_１_１
  6
CONTINUOUS
 62
     3
100
AcDbVertex
100
AcDb2dVertex
 10
4900.372229295866
 20
946.0921164442891
 30
0.0
  0
VERTEX
  5
409
330
2E3
100
AcDbEntity
  8
Ｓ_１_１
  6
CONTINUOUS
 62
     3
100
AcDbVertex
100
AcDb2dVertex
 10
4900.355016730387
 20
946.3265886718124
 30
0.0
  0
VERTEX
  5
40A
330
2E3
100
AcDbEntity
  8
Ｓ_１_１
  6
CONTINUOUS
 62
     3
100
AcDbVertex
100
AcDb2dVertex
 10
4900.335919043492
 20
946.5717721099638
 30
0.0
  0
VERTEX
  5
40B
330
2E3
100
AcDbEntity
  8
Ｓ_１_１
  6
CONTINUOUS
 62
     3
100
AcDbVertex
100
AcDb2dVertex
 10
4900.314660076899
 20
946.8299653321643
 30
0.0
  0
VERTEX
  5
40C
330
2E3
100
AcDbEntity
  8
Ｓ_１_１
  6
CONTINUOUS
 62
     3
100
AcDbVertex
100
AcDb2dVertex
 10
4900.290963672318
 20
947.1034669118352
 30
0.0
  0
VERTEX
  5
40D
330
2E3
100
AcDbEntity
  8
Ｓ_１_１
  6
CONTINUOUS
 62
     3
100
AcDbVertex
100
AcDb2dVertex
 10
4900.264553671463
 20
947.3945754223968
 30
0.0
  0
VERTEX
  5
40E
330
2E3
100
AcDbEntity
  8
Ｓ_１_１
  6
CONTINUOUS
 62
     3
100
AcDbVertex
100
AcDb2dVertex
 10
4900.235371001673
 20
947.7037361501974
 30
0.0
  0
VERTEX
  5
40F
330
2E3
100
AcDbEntity
  8
Ｓ_１_１
  6
CONTINUOUS
 62
     3
100
AcDbVertex
100
AcDb2dVertex
 10
4900.204203184054
 20
948.024209961204
 30
0.0
  0
VERTEX
  5
410
330
2E3
100
AcDbEntity
  8
Ｓ_１_１
  6
CONTINUOUS
 62
     3
100
AcDbVertex
100
AcDb2dVertex
 10
4900.172054099316
 20
948.3474092680958
 30
0.0
  0
VERTEX
  5
411
330
2E3
100
AcDbEntity
  8
Ｓ_１_１
  6
CONTINUOUS
 62
     3
100
AcDbVertex
100
AcDb2dVertex
 10
4900.139927628165
 20
948.6647464835523
 30
0.0
  0
VERTEX
  5
412
330
2E3
100
AcDbEntity
  8
Ｓ_１_１
  6
CONTINUOUS
 62
     3
100
AcDbVertex
100
AcDb2dVertex
 10
4900.108827651313
 20
948.967634020254
 30
0.0
  0
VERTEX
  5
413
330
2E3
100
AcDbEntity
  8
Ｓ_１_１
  6
CONTINUOUS
 62
     3
100
AcDbVertex
100
AcDb2dVertex
 10
4900.079758049467
 20
949.24748429088
 30
0.0
  0
VERTEX
  5
414
330
2E3
100
AcDbEntity
  8
Ｓ_１_１
  6
CONTINUOUS
 62
     3
100
AcDbVertex
100
AcDb2dVertex
 10
4900.053722703337
 20
949.4957097081106
 30
0.0
  0
VERTEX
  5
415
330
2E3
100
AcDbEntity
  8
Ｓ_１_１
  6
CONTINUOUS
 62
     3
100
AcDbVertex
100
AcDb2dVertex
 10
4900.031725493631
 20
949.7037226846253
 30
0.0
  0
VERTEX
  5
416
330
2E3
100
AcDbEntity
  8
Ｓ_１_１
  6
CONTINUOUS
 62
     3
100
AcDbVertex
100
AcDb2dVertex
 10
4900.014770301059
 20
949.8629356331035
 30
0.0
  0
VERTEX
  5
417
330
2E3
100
AcDbEntity
  8
Ｓ_１_１
  6
CONTINUOUS
 62
     3
100
AcDbVertex
100
AcDb2dVertex
 10
4900.003861006329
 20
949.9647609662253
 30
0.0
  0
VERTEX
  5
418
330
2E3
100
AcDbEntity
  8
Ｓ_１_１
  6
CONTINUOUS
 62
     3
100
AcDbVertex
100
AcDb2dVertex
 10
4900.000001490151
 20
950.0006110966705
 30
0.0
  0
SEQEND
  5
419
330
2E3
100
AcDbEntity
  8
Ｓ_１_１
  6
CONTINUOUS
 62
     3
  0
POLYLINE
  5
41A
330
1F
100
AcDbEntity
  8
Ｓ_１_１
  6
CONTINUOUS
 62
     3
100
AcDb2dPolyline
 66
     1
 10
0.0
 20
0.0
 30
0.0
 70
   128
  0
VERTEX
  5
41B
330
41A
100
AcDbEntity
  8
Ｓ_１_１
  6
CONTINUOUS
 62
     3
100
AcDbVertex
100
AcDb2dVertex
 10
4900.000001490151
 20
1125.000303313191
 30
0.0
  0
VERTEX
  5
41C
330
41A
100
AcDbEntity
  8
Ｓ_１_１
  6
CONTINUOUS
 62
     3
100
AcDbVertex
100
AcDb2dVertex
 10
4900.001827265424
 20
1124.966721912483
 30
0.0
  0
VERTEX
  5
41D
330
41A
100
AcDbEntity
  8
Ｓ_１_１
  6
CONTINUOUS
 62
     3
100
AcDbVertex
100
AcDb2dVertex
 10
4900.006921649436
 20
1124.871340839579
 30
0.0
  0
VERTEX
  5
41E
330
41A
100
AcDbEntity
  8
Ｓ_１_１
  6
CONTINUOUS
 62
     3
100
AcDbVertex
100
AcDb2dVertex
 10
4900.014710229473
 20
1124.72220478831
 30
0.0
  0
VERTEX
  5
41F
330
41A
100
AcDbEntity
  8
Ｓ_１_１
  6
CONTINUOUS
 62
     3
100
AcDbVertex
100
AcDb2dVertex
 10
4900.024618592823
 20
1124.527358452506
 30
0.0
  0
VERTEX
  5
420
330
41A
100
AcDbEntity
  8
Ｓ_１_１
  6
CONTINUOUS
 62
     3
100
AcDbVertex
100
AcDb2dVertex
 10
4900.036072326768
 20
1124.294846525998
 30
0.0
  0
VERTEX
  5
421
330
41A
100
AcDbEntity
  8
Ｓ_１_１
  6
CONTINUOUS
 62
     3
100
AcDbVertex
100
AcDb2dVertex
 10
4900.048497018601
 20
1124.032713702616
 30
0.0
  0
VERTEX
  5
422
330
41A
100
AcDbEntity
  8
Ｓ_１_１
  6
CONTINUOUS
 62
     3
100
AcDbVertex
100
AcDb2dVertex
 10
4900.061318255603
 20
1123.74900467619
 30
0.0
  0
VERTEX
  5
423
330
41A
100
AcDbEntity
  8
Ｓ_１_１
  6
CONTINUOUS
 62
     3
100
AcDbVertex
100
AcDb2dVertex
 10
4900.073961625064
 20
1123.451764140552
 30
0.0
  0
VERTEX
  5
424
330
41A
100
AcDbEntity
  8
Ｓ_１_１
  6
CONTINUOUS
 62
     3
100
AcDbVertex
100
AcDb2dVertex
 10
4900.085852714269
 20
1123.149036789532
 30
0.0
  0
VERTEX
  5
425
330
41A
100
AcDbEntity
  8
Ｓ_１_１
  6
CONTINUOUS
 62
     3
100
AcDbVertex
100
AcDb2dVertex
 10
4900.096417110504
 20
1122.848867316959
 30
0.0
  0
VERTEX
  5
426
330
41A
100
AcDbEntity
  8
Ｓ_１_１
  6
CONTINUOUS
 62
     3
100
AcDbVertex
100
AcDb2dVertex
 10
4900.105080401059
 20
1122.559300416666
 30
0.0
  0
VERTEX
  5
427
330
41A
100
AcDbEntity
  8
Ｓ_１_１
  6
CONTINUOUS
 62
     3
100
AcDbVertex
100
AcDb2dVertex
 10
4900.111397602977
 20
1122.285889411084
 30
0.0
  0
VERTEX
  5
428
330
41A
100
AcDbEntity
  8
Ｓ_１_１
  6
CONTINUOUS
 62
     3
100
AcDbVertex
100
AcDb2dVertex
 10
4900.115335499718
 20
1122.02908125548
 30
0.0
  0
VERTEX
  5
429
330
41A
100
AcDbEntity
  8
Ｓ_１_１
  6
CONTINUOUS
 62
     3
100
AcDbVertex
100
AcDb2dVertex
 10
4900.117005225127
 20
1121.786719141562
 30
0.0
  0
VERTEX
  5
42A
330
41A
100
AcDbEntity
  8
Ｓ_１_１
  6
CONTINUOUS
 62
     3
100
AcDbVertex
100
AcDb2dVertex
 10
4900.116517913048
 20
1121.556646261037
 30
0.0
  0
VERTEX
  5
42B
330
41A
100
AcDbEntity
  8
Ｓ_１_１
  6
CONTINUOUS
 62
     3
100
AcDbVertex
100
AcDb2dVertex
 10
4900.113984697324
 20
1121.336705805612
 30
0.0
  0
VERTEX
  5
42C
330
41A
100
AcDbEntity
  8
Ｓ_１_１
  6
CONTINUOUS
 62
     3
100
AcDbVertex
100
AcDb2dVertex
 10
4900.109516711799
 20
1121.124740966994
 30
0.0
  0
VERTEX
  5
42D
330
41A
100
AcDbEntity
  8
Ｓ_１_１
  6
CONTINUOUS
 62
     3
100
AcDbVertex
100
AcDb2dVertex
 10
4900.10322509032
 20
1120.91859493689
 30
0.0
  0
VERTEX
  5
42E
330
41A
100
AcDbEntity
  8
Ｓ_１_１
  6
CONTINUOUS
 62
     3
100
AcDbVertex
100
AcDb2dVertex
 10
4900.095220966729
 20
1120.716110907008
 30
0.0
  0
VERTEX
  5
42F
330
41A
100
AcDbEntity
  8
Ｓ_１_１
  6
CONTINUOUS
 62
     3
100
AcDbVertex
100
AcDb2dVertex
 10
4900.085615474872
 20
1120.515132069053
 30
0.0
  0
VERTEX
  5
430
330
41A
100
AcDbEntity
  8
Ｓ_１_１
  6
CONTINUOUS
 62
     3
100
AcDbVertex
100
AcDb2dVertex
 10
4900.074519748589
 20
1120.313501614735
 30
0.0
  0
VERTEX
  5
431
330
41A
100
AcDbEntity
  8
Ｓ_１_１
  6
CONTINUOUS
 62
     3
100
AcDbVertex
100
AcDb2dVertex
 10
4900.062044921729
 20
1120.10906273576
 30
0.0
  0
VERTEX
  5
432
330
41A
100
AcDbEntity
  8
Ｓ_１_１
  6
CONTINUOUS
 62
     3
100
AcDbVertex
100
AcDb2dVertex
 10
4900.048313276967
 20
1119.90074179395
 30
0.0
  0
VERTEX
  5
433
330
41A
100
AcDbEntity
  8
Ｓ_１_１
  6
CONTINUOUS
 62
     3
100
AcDbVertex
100
AcDb2dVertex
 10
4900.033244262721
 20
1119.688081139248
 30
0.0
  0
VERTEX
  5
434
330
41A
100
AcDbEntity
  8
Ｓ_１_１
  6
CONTINUOUS
 62
     3
100
AcDbVertex
100
AcDb2dVertex
 10
4900.016761002177
 20
1119.471677023999
 30
0.0
  0
VERTEX
  5
435
330
41A
100
AcDbEntity
  8
Ｓ_１_１
  6
CONTINUOUS
 62
     3
100
AcDbVertex
100
AcDb2dVertex
 10
4899.998786618517
 20
1119.252125700546
 30
0.0
  0
VERTEX
  5
436
330
41A
100
AcDbEntity
  8
Ｓ_１_１
  6
CONTINUOUS
 62
     3
100
AcDbVertex
100
AcDb2dVertex
 10
4899.979244234923
 20
1119.030023421233
 30
0.0
  0
VERTEX
  5
437
330
41A
100
AcDbEntity
  8
Ｓ_１_１
  6
CONTINUOUS
 62
     3
100
AcDbVertex
100
AcDb2dVertex
 10
4899.958056974578
 20
1118.805966438405
 30
0.0
  0
VERTEX
  5
438
330
41A
100
AcDbEntity
  8
Ｓ_１_１
  6
CONTINUOUS
 62
     3
100
AcDbVertex
100
AcDb2dVertex
 10
4899.935147960668
 20
1118.580551004404
 30
0.0
  0
VERTEX
  5
439
330
41A
100
AcDbEntity
  8
Ｓ_１_１
  6
CONTINUOUS
 62
     3
100
AcDbVertex
100
AcDb2dVertex
 10
4899.910440316376
 20
1118.354373371576
 30
0.0
  0
VERTEX
  5
43A
330
41A
100
AcDbEntity
  8
Ｓ_１_１
  6
CONTINUOUS
 62
     3
100
AcDbVertex
100
AcDb2dVertex
 10
4899.883857164887
 20
1118.128029792265
 30
0.0
  0
VERTEX
  5
43B
330
41A
100
AcDbEntity
  8
Ｓ_１_１
  6
CONTINUOUS
 62
     3
100
AcDbVertex
100
AcDb2dVertex
 10
4899.855321629382
 20
1117.902116518813
 30
0.0
  0
VERTEX
  5
43C
330
41A
100
AcDbEntity
  8
Ｓ_１_１
  6
CONTINUOUS
 62
     3
100
AcDbVertex
100
AcDb2dVertex
 10
4899.824756833044
 20
1117.677229803566
 30
0.0
  0
VERTEX
  5
43D
330
41A
100
AcDbEntity
  8
Ｓ_１_１
  6
CONTINUOUS
 62
     3
100
AcDbVertex
100
AcDb2dVertex
 10
4899.792236170652
 20
1117.454778838599
 30
0.0
  0
VERTEX
  5
43E
330
41A
100
AcDbEntity
  8
Ｓ_１_１
  6
CONTINUOUS
 62
     3
100
AcDbVertex
100
AcDb2dVertex
 10
4899.757603886997
 20
1117.233812852293
 30
0.0
  0
VERTEX
  5
43F
330
41A
100
AcDbEntity
  8
Ｓ_１_１
  6
CONTINUOUS
 62
     3
100
AcDbVertex
100
AcDb2dVertex
 10
4899.720836876249
 20
1117.014207590939
 30
0.0
  0
VERTEX
  5
440
330
41A
100
AcDbEntity
  8
Ｓ_１_１
  6
CONTINUOUS
 62
     3
100
AcDbVertex
100
AcDb2dVertex
 10
4899.681912032589
 20
1116.795838800827
 30
0.0
  0
VERTEX
  5
441
330
41A
100
AcDbEntity
  8
Ｓ_１_１
  6
CONTINUOUS
 62
     3
100
AcDbVertex
100
AcDb2dVertex
 10
4899.640806250183
 20
1116.578582228246
 30
0.0
  0
VERTEX
  5
442
330
41A
100
AcDbEntity
  8
Ｓ_１_１
  6
CONTINUOUS
 62
     3
100
AcDbVertex
100
AcDb2dVertex
 10
4899.59749642321
 20
1116.362313619487
 30
0.0
  0
VERTEX
  5
443
330
41A
100
AcDbEntity
  8
Ｓ_１_１
  6
CONTINUOUS
 62
     3
100
AcDbVertex
100
AcDb2dVertex
 10
4899.551959445842
 20
1116.14690872084
 30
0.0
  0
VERTEX
  5
444
330
41A
100
AcDbEntity
  8
Ｓ_１_１
  6
CONTINUOUS
 62
     3
100
AcDbVertex
100
AcDb2dVertex
 10
4899.504172212253
 20
1115.932243278596
 30
0.0
  0
VERTEX
  5
445
330
41A
100
AcDbEntity
  8
Ｓ_１_１
  6
CONTINUOUS
 62
     3
100
AcDbVertex
100
AcDb2dVertex
 10
4899.454111616617
 20
1115.718193039044
 30
0.0
  0
VERTEX
  5
446
330
41A
100
AcDbEntity
  8
Ｓ_１_１
  6
CONTINUOUS
 62
     3
100
AcDbVertex
100
AcDb2dVertex
 10
4899.401754553106
 20
1115.504633748474
 30
0.0
  0
VERTEX
  5
447
330
41A
100
AcDbEntity
  8
Ｓ_１_１
  6
CONTINUOUS
 62
     3
100
AcDbVertex
100
AcDb2dVertex
 10
4899.347077915897
 20
1115.291441153176
 30
0.0
  0
VERTEX
  5
448
330
41A
100
AcDbEntity
  8
Ｓ_１_１
  6
CONTINUOUS
 62
     3
100
AcDbVertex
100
AcDb2dVertex
 10
4899.299983379944
 20
1115.114881608897
 30
0.0
  0
VERTEX
  5
449
330
41A
100
AcDbEntity
  8
Ｓ_１_１
  6
CONTINUOUS
 62
     3
100
AcDbVertex
100
AcDb2dVertex
 10
4899.251353392501
 20
1114.938506220946
 30
0.0
  0
VERTEX
  5
44A
330
41A
100
AcDbEntity
  8
Ｓ_１_１
  6
CONTINUOUS
 62
     3
100
AcDbVertex
100
AcDb2dVertex
 10
4899.201262975957
 20
1114.762332479323
 30
0.0
  0
VERTEX
  5
44B
330
41A
100
AcDbEntity
  8
Ｓ_１_１
  6
CONTINUOUS
 62
     3
100
AcDbVertex
100
AcDb2dVertex
 10
4899.149787152706
 20
1114.586377874025
 30
0.0
  0
VERTEX
  5
44C
330
41A
100
AcDbEntity
  8
Ｓ_１_１
  6
CONTINUOUS
 62
     3
100
AcDbVertex
100
AcDb2dVertex
 10
4899.097000945136
 20
1114.41065989505
 30
0.0
  0
VERTEX
  5
44D
330
41A
100
AcDbEntity
  8
Ｓ_１_１
  6
CONTINUOUS
 62
     3
100
AcDbVertex
100
AcDb2dVertex
 10
4899.042979375641
 20
1114.235196032393
 30
0.0
  0
VERTEX
  5
44E
330
41A
100
AcDbEntity
  8
Ｓ_１_１
  6
CONTINUOUS
 62
     3
100
AcDbVertex
100
AcDb2dVertex
 10
4898.987797466614
 20
1114.060003776054
 30
0.0
  0
VERTEX
  5
44F
330
41A
100
AcDbEntity
  8
Ｓ_１_１
  6
CONTINUOUS
 62
     3
100
AcDbVertex
100
AcDb2dVertex
 10
4898.931530240445
 20
1113.885100616029
 30
0.0
  0
VERTEX
  5
450
330
41A
100
AcDbEntity
  8
Ｓ_１_１
  6
CONTINUOUS
 62
     3
100
AcDbVertex
100
AcDb2dVertex
 10
4898.874252719524
 20
1113.710504042316
 30
0.0
  0
VERTEX
  5
451
330
41A
100
AcDbEntity
  8
Ｓ_１_１
  6
CONTINUOUS
 62
     3
100
AcDbVertex
100
AcDb2dVertex
 10
4898.816039926244
 20
1113.536231544912
 30
0.0
  0
VERTEX
  5
452
330
41A
100
AcDbEntity
  8
Ｓ_１_１
  6
CONTINUOUS
 62
     3
100
AcDbVertex
100
AcDb2dVertex
 10
4898.756966882996
 20
1113.362300613815
 30
0.0
  0
VERTEX
  5
453
330
41A
100
AcDbEntity
  8
Ｓ_１_１
  6
CONTINUOUS
 62
     3
100
AcDbVertex
100
AcDb2dVertex
 10
4898.696945736452
 20
1113.188252858693
 30
0.0
  0
VERTEX
  5
454
330
41A
100
AcDbEntity
  8
Ｓ_１_１
  6
CONTINUOUS
 62
     3
100
AcDbVertex
100
AcDb2dVertex
 10
4898.636207153032
 20
1113.014531476551
 30
0.0
  0
VERTEX
  5
455
330
41A
100
AcDbEntity
  8
Ｓ_１_１
  6
CONTINUOUS
 62
     3
100
AcDbVertex
100
AcDb2dVertex
 10
4898.574823160578
 20
1112.841101846573
 30
0.0
  0
VERTEX
  5
456
330
41A
100
AcDbEntity
  8
Ｓ_１_１
  6
CONTINUOUS
 62
     3
100
AcDbVertex
100
AcDb2dVertex
 10
4898.512865786928
 20
1112.667929347945
 30
0.0
  0
VERTEX
  5
457
330
41A
100
AcDbEntity
  8
Ｓ_１_１
  6
CONTINUOUS
 62
     3
100
AcDbVertex
100
AcDb2dVertex
 10
4898.450407059923
 20
1112.494979359852
 30
0.0
  0
VERTEX
  5
458
330
41A
100
AcDbEntity
  8
Ｓ_１_１
  6
CONTINUOUS
 62
     3
100
AcDbVertex
100
AcDb2dVertex
 10
4898.387519007398
 20
1112.322217261478
 30
0.0
  0
VERTEX
  5
459
330
41A
100
AcDbEntity
  8
Ｓ_１_１
  6
CONTINUOUS
 62
     3
100
AcDbVertex
100
AcDb2dVertex
 10
4898.324273657196
 20
1112.14960843201
 30
0.0
  0
VERTEX
  5
45A
330
41A
100
AcDbEntity
  8
Ｓ_１_１
  6
CONTINUOUS
 62
     3
100
AcDbVertex
100
AcDb2dVertex
 10
4898.260743037157
 20
1111.977118250631
 30
0.0
  0
VERTEX
  5
45B
330
41A
100
AcDbEntity
  8
Ｓ_１_１
  6
CONTINUOUS
 62
     3
100
AcDbVertex
100
AcDb2dVertex
 10
4898.196999175117
 20
1111.804712096527
 30
0.0
  0
VERTEX
  5
45C
330
41A
100
AcDbEntity
  8
Ｓ_１_１
  6
CONTINUOUS
 62
     3
100
AcDbVertex
100
AcDb2dVertex
 10
4898.133114098917
 20
1111.632355348882
 30
0.0
  0
VERTEX
  5
45D
330
41A
100
AcDbEntity
  8
Ｓ_１_１
  6
CONTINUOUS
 62
     3
100
AcDbVertex
100
AcDb2dVertex
 10
4898.069159836396
 20
1111.460013386883
 30
0.0
  0
VERTEX
  5
45E
330
41A
100
AcDbEntity
  8
Ｓ_１_１
  6
CONTINUOUS
 62
     3
100
AcDbVertex
100
AcDb2dVertex
 10
4898.005315685935
 20
1111.287942637442
 30
0.0
  0
VERTEX
  5
45F
330
41A
100
AcDbEntity
  8
Ｓ_１_１
  6
CONTINUOUS
 62
     3
100
AcDbVertex
100
AcDb2dVertex
 10
4897.941545874482
 20
1111.11582793431
 30
0.0
  0
VERTEX
  5
460
330
41A
100
AcDbEntity
  8
Ｓ_１_１
  6
CONTINUOUS
 62
     3
100
AcDbVertex
100
AcDb2dVertex
 10
4897.877921909056
 20
1110.943645092434
 30
0.0
  0
VERTEX
  5
461
330
41A
100
AcDbEntity
  8
Ｓ_１_１
  6
CONTINUOUS
 62
     3
100
AcDbVertex
100
AcDb2dVertex
 10
4897.814515296677
 20
1110.771369926764
 30
0.0
  0
VERTEX
  5
462
330
41A
100
AcDbEntity
  8
Ｓ_１_１
  6
CONTINUOUS
 62
     3
100
AcDbVertex
100
AcDb2dVertex
 10
4897.751397544367
 20
1110.59897825225
 30
0.0
  0
VERTEX
  5
463
330
41A
100
AcDbEntity
  8
Ｓ_１_１
  6
CONTINUOUS
 62
     3
100
AcDbVertex
100
AcDb2dVertex
 10
4897.688640159144
 20
1110.426445883839
 30
0.0
  0
VERTEX
  5
464
330
41A
100
AcDbEntity
  8
Ｓ_１_１
  6
CONTINUOUS
 62
     3
100
AcDbVertex
100
AcDb2dVertex
 10
4897.626314648029
 20
1110.253748636481
 30
0.0
  0
VERTEX
  5
465
330
41A
100
AcDbEntity
  8
Ｓ_１_１
  6
CONTINUOUS
 62
     3
100
AcDbVertex
100
AcDb2dVertex
 10
4897.56449251804
 20
1110.080862325125
 30
0.0
  0
VERTEX
  5
466
330
41A
100
AcDbEntity
  8
Ｓ_１_１
  6
CONTINUOUS
 62
     3
100
AcDbVertex
100
AcDb2dVertex
 10
4897.503245276201
 20
1109.90776276472
 30
0.0
  0
VERTEX
  5
467
330
41A
100
AcDbEntity
  8
Ｓ_１_１
  6
CONTINUOUS
 62
     3
100
AcDbVertex
100
AcDb2dVertex
 10
4897.442644429527
 20
1109.734425770215
 30
0.0
  0
VERTEX
  5
468
330
41A
100
AcDbEntity
  8
Ｓ_１_１
  6
CONTINUOUS
 62
     3
100
AcDbVertex
100
AcDb2dVertex
 10
4897.382761485042
 20
1109.560827156559
 30
0.0
  0
VERTEX
  5
469
330
41A
100
AcDbEntity
  8
Ｓ_１_１
  6
CONTINUOUS
 62
     3
100
AcDbVertex
100
AcDb2dVertex
 10
4897.324023069657
 20
1109.38799333389
 30
0.0
  0
VERTEX
  5
46A
330
41A
100
AcDbEntity
  8
Ｓ_１_１
  6
CONTINUOUS
 62
     3
100
AcDbVertex
100
AcDb2dVertex
 10
4897.266143402685
 20
1109.214862891174
 30
0.0
  0
VERTEX
  5
46B
330
41A
100
AcDbEntity
  8
Ｓ_１_１
  6
CONTINUOUS
 62
     3
100
AcDbVertex
100
AcDb2dVertex
 10
4897.209201311151
 20
1109.041421577516
 30
0.0
  0
VERTEX
  5
46C
330
41A
100
AcDbEntity
  8
Ｓ_１_１
  6
CONTINUOUS
 62
     3
100
AcDbVertex
100
AcDb2dVertex
 10
4897.153275622083
 20
1108.867655142023
 30
0.0
  0
VERTEX
  5
46D
330
41A
100
AcDbEntity
  8
Ｓ_１_１
  6
CONTINUOUS
 62
     3
100
AcDbVertex
100
AcDb2dVertex
 10
4897.098445162506
 20
1108.693549333798
 30
0.0
  0
VERTEX
  5
46E
330
41A
100
AcDbEntity
  8
Ｓ_１_１
  6
CONTINUOUS
 62
     3
100
AcDbVertex
100
AcDb2dVertex
 10
4897.044788759449
 20
1108.519089901949
 30
0.0
  0
VERTEX
  5
46F
330
41A
100
AcDbEntity
  8
Ｓ_１_１
  6
CONTINUOUS
 62
     3
100
AcDbVertex
100
AcDb2dVertex
 10
4896.992385239936
 20
1108.34426259558
 30
0.0
  0
VERTEX
  5
470
330
41A
100
AcDbEntity
  8
Ｓ_１_１
  6
CONTINUOUS
 62
     3
100
AcDbVertex
100
AcDb2dVertex
 10
4896.941313430997
 20
1108.169053163797
 30
0.0
  0
VERTEX
  5
471
330
41A
100
AcDbEntity
  8
Ｓ_１_１
  6
CONTINUOUS
 62
     3
100
AcDbVertex
100
AcDb2dVertex
 10
4896.891652159657
 20
1107.993447355706
 30
0.0
  0
VERTEX
  5
472
330
41A
100
AcDbEntity
  8
Ｓ_１_１
  6
CONTINUOUS
 62
     3
100
AcDbVertex
100
AcDb2dVertex
 10
4896.843480252942
 20
1107.817430920412
 30
0.0
  0
VERTEX
  5
473
330
41A
100
AcDbEntity
  8
Ｓ_１_１
  6
CONTINUOUS
 62
     3
100
AcDbVertex
100
AcDb2dVertex
 10
4896.796876537881
 20
1107.640989607021
 30
0.0
  0
VERTEX
  5
474
330
41A
100
AcDbEntity
  8
Ｓ_１_１
  6
CONTINUOUS
 62
     3
100
AcDbVertex
100
AcDb2dVertex
 10
4896.733458272857
 20
1107.389533445923
 30
0.0
  0
VERTEX
  5
475
330
41A
100
AcDbEntity
  8
Ｓ_１_１
  6
CONTINUOUS
 62
     3
100
AcDbVertex
100
AcDb2dVertex
 10
4896.673298475688
 20
1107.137245944797
 30
0.0
  0
VERTEX
  5
476
330
41A
100
AcDbEntity
  8
Ｓ_１_１
  6
CONTINUOUS
 62
     3
100
AcDbVertex
100
AcDb2dVertex
 10
4896.616330142913
 20
1106.884182402537
 30
0.0
  0
VERTEX
  5
477
330
41A
100
AcDbEntity
  8
Ｓ_１_１
  6
CONTINUOUS
 62
     3
100
AcDbVertex
100
AcDb2dVertex
 10
4896.56248627107
 20
1106.630398118037
 30
0.0
  0
VERTEX
  5
478
330
41A
100
AcDbEntity
  8
Ｓ_１_１
  6
CONTINUOUS
 62
     3
100
AcDbVertex
100
AcDb2dVertex
 10
4896.511699856697
 20
1106.375948390189
 30
0.0
  0
VERTEX
  5
479
330
41A
100
AcDbEntity
  8
Ｓ_１_１
  6
CONTINUOUS
 62
     3
100
AcDbVertex
100
AcDb2dVertex
 10
4896.463903896336
 20
1106.120888517888
 30
0.0
  0
VERTEX
  5
47A
330
41A
100
AcDbEntity
  8
Ｓ_１_１
  6
CONTINUOUS
 62
     3
100
AcDbVertex
100
AcDb2dVertex
 10
4896.419031386521
 20
1105.865273800028
 30
0.0
  0
VERTEX
  5
47B
330
41A
100
AcDbEntity
  8
Ｓ_１_１
  6
CONTINUOUS
 62
     3
100
AcDbVertex
100
AcDb2dVertex
 10
4896.377015323793
 20
1105.609159535502
 30
0.0
  0
VERTEX
  5
47C
330
41A
100
AcDbEntity
  8
Ｓ_１_１
  6
CONTINUOUS
 62
     3
100
AcDbVertex
100
AcDb2dVertex
 10
4896.33778870469
 20
1105.352601023204
 30
0.0
  0
VERTEX
  5
47D
330
41A
100
AcDbEntity
  8
Ｓ_１_１
  6
CONTINUOUS
 62
     3
100
AcDbVertex
100
AcDb2dVertex
 10
4896.301284525753
 20
1105.095653562028
 30
0.0
  0
VERTEX
  5
47E
330
41A
100
AcDbEntity
  8
Ｓ_１_１
  6
CONTINUOUS
 62
     3
100
AcDbVertex
100
AcDb2dVertex
 10
4896.267435783519
 20
1104.838372450867
 30
0.0
  0
VERTEX
  5
47F
330
41A
100
AcDbEntity
  8
Ｓ_１_１
  6
CONTINUOUS
 62
     3
100
AcDbVertex
100
AcDb2dVertex
 10
4896.235949179596
 20
1104.578877157816
 30
0.0
  0
VERTEX
  5
480
330
41A
100
AcDbEntity
  8
Ｓ_１_１
  6
CONTINUOUS
 62
     3
100
AcDbVertex
100
AcDb2dVertex
 10
4896.207010909418
 20
1104.319121204915
 30
0.0
  0
VERTEX
  5
481
330
41A
100
AcDbEntity
  8
Ｓ_１_１
  6
CONTINUOUS
 62
     3
100
AcDbVertex
100
AcDb2dVertex
 10
4896.18054195313
 20
1104.059126468765
 30
0.0
  0
VERTEX
  5
482
330
41A
100
AcDbEntity
  8
Ｓ_１_１
  6
CONTINUOUS
 62
     3
100
AcDbVertex
100
AcDb2dVertex
 10
4896.156463290872
 20
1103.798914825967
 30
0.0
  0
VERTEX
  5
483
330
41A
100
AcDbEntity
  8
Ｓ_１_１
  6
CONTINUOUS
 62
     3
100
AcDbVertex
100
AcDb2dVertex
 10
4896.134695902787
 20
1103.538508153122
 30
0.0
  0
VERTEX
  5
484
330
41A
100
AcDbEntity
  8
Ｓ_１_１
  6
CONTINUOUS
 62
     3
100
AcDbVertex
100
AcDb2dVertex
 10
4896.115160769017
 20
1103.27792832683
 30
0.0
  0
VERTEX
  5
485
330
41A
100
AcDbEntity
  8
Ｓ_１_１
  6
CONTINUOUS
 62
     3
100
AcDbVertex
100
AcDb2dVertex
 10
4896.097778869706
 20
1103.017197223694
 30
0.0
  0
VERTEX
  5
486
330
41A
100
AcDbEntity
  8
Ｓ_１_１
  6
CONTINUOUS
 62
     3
100
AcDbVertex
100
AcDb2dVertex
 10
4896.082471184994
 20
1102.756336720313
 30
0.0
  0
VERTEX
  5
487
330
41A
100
AcDbEntity
  8
Ｓ_１_１
  6
CONTINUOUS
 62
     3
100
AcDbVertex
100
AcDb2dVertex
 10
4896.069158695025
 20
1102.495368693289
 30
0.0
  0
VERTEX
  5
488
330
41A
100
AcDbEntity
  8
Ｓ_１_１
  6
CONTINUOUS
 62
     3
100
AcDbVertex
100
AcDb2dVertex
 10
4896.057762379942
 20
1102.234315019223
 30
0.0
  0
VERTEX
  5
489
330
41A
100
AcDbEntity
  8
Ｓ_１_１
  6
CONTINUOUS
 62
     3
100
AcDbVertex
100
AcDb2dVertex
 10
4896.048203219884
 20
1101.973197574715
 30
0.0
  0
VERTEX
  5
48A
330
41A
100
AcDbEntity
  8
Ｓ_１_１
  6
CONTINUOUS
 62
     3
100
AcDbVertex
100
AcDb2dVertex
 10
4896.040339132663
 20
1101.70961685018
 30
0.0
  0
VERTEX
  5
48B
330
41A
100
AcDbEntity
  8
Ｓ_１_１
  6
CONTINUOUS
 62
     3
100
AcDbVertex
100
AcDb2dVertex
 10
4896.034191961435
 20
1101.446000611153
 30
0.0
  0
VERTEX
  5
48C
330
41A
100
AcDbEntity
  8
Ｓ_１_１
  6
CONTINUOUS
 62
     3
100
AcDbVertex
100
AcDb2dVertex
 10
4896.029687770595
 20
1101.182356016568
 30
0.0
  0
VERTEX
  5
48D
330
41A
100
AcDbEntity
  8
Ｓ_１_１
  6
CONTINUOUS
 62
     3
100
AcDbVertex
100
AcDb2dVertex
 10
4896.026752624547
 20
1100.918690225359
 30
0.0
  0
VERTEX
  5
48E
330
41A
100
AcDbEntity
  8
Ｓ_１_１
  6
CONTINUOUS
 62
     3
100
AcDbVertex
100
AcDb2dVertex
 10
4896.025312587687
 20
1100.65501039646
 30
0.0
  0
VERTEX
  5
48F
330
41A
100
AcDbEntity
  8
Ｓ_１_１
  6
CONTINUOUS
 62
     3
100
AcDbVertex
100
AcDb2dVertex
 10
4896.025293724417
 20
1100.391323688805
 30
0.0
  0
VERTEX
  5
490
330
41A
100
AcDbEntity
  8
Ｓ_１_１
  6
CONTINUOUS
 62
     3
100
AcDbVertex
100
AcDb2dVertex
 10
4896.026622099133
 20
1100.127637261329
 30
0.0
  0
VERTEX
  5
491
330
41A
100
AcDbEntity
  8
Ｓ_１_１
  6
CONTINUOUS
 62
     3
100
AcDbVertex
100
AcDb2dVertex
 10
4896.029223776238
 20
1099.863958272964
 30
0.0
  0
VERTEX
  5
492
330
41A
100
AcDbEntity
  8
Ｓ_１_１
  6
CONTINUOUS
 62
     3
100
AcDbVertex
100
AcDb2dVertex
 10
4896.033024820128
 20
1099.600293882645
 30
0.0
  0
VERTEX
  5
493
330
41A
100
AcDbEntity
  8
Ｓ_１_１
  6
CONTINUOUS
 62
     3
100
AcDbVertex
100
AcDb2dVertex
 10
4896.037951295204
 20
1099.336651249306
 30
0.0
  0
VERTEX
  5
494
330
41A
100
AcDbEntity
  8
Ｓ_１_１
  6
CONTINUOUS
 62
     3
100
AcDbVertex
100
AcDb2dVertex
 10
4896.043929265863
 20
1099.073037531881
 30
0.0
  0
VERTEX
  5
495
330
41A
100
AcDbEntity
  8
Ｓ_１_１
  6
CONTINUOUS
 62
     3
100
AcDbVertex
100
AcDb2dVertex
 10
4896.050910335067
 20
1098.808576796944
 30
0.0
  0
VERTEX
  5
496
330
41A
100
AcDbEntity
  8
Ｓ_１_１
  6
CONTINUOUS
 62
     3
100
AcDbVertex
100
AcDb2dVertex
 10
4896.058805138281
 20
1098.544150096832
 30
0.0
  0
VERTEX
  5
497
330
41A
100
AcDbEntity
  8
Ｓ_１_１
  6
CONTINUOUS
 62
     3
100
AcDbVertex
100
AcDb2dVertex
 10
4896.0675432994
 20
1098.279755149805
 30
0.0
  0
VERTEX
  5
498
330
41A
100
AcDbEntity
  8
Ｓ_１_１
  6
CONTINUOUS
 62
     3
100
AcDbVertex
100
AcDb2dVertex
 10
4896.077054442319
 20
1098.015389674121
 30
0.0
  0
VERTEX
  5
499
330
41A
100
AcDbEntity
  8
Ｓ_１_１
  6
CONTINUOUS
 62
     3
100
AcDbVertex
100
AcDb2dVertex
 10
4896.087268190934
 20
1097.751051388038
 30
0.0
  0
VERTEX
  5
49A
330
41A
100
AcDbEntity
  8
Ｓ_１_１
  6
CONTINUOUS
 62
     3
100
AcDbVertex
100
AcDb2dVertex
 10
4896.098114169139
 20
1097.486738009817
 30
0.0
  0
VERTEX
  5
49B
330
41A
100
AcDbEntity
  8
Ｓ_１_１
  6
CONTINUOUS
 62
     3
100
AcDbVertex
100
AcDb2dVertex
 10
4896.10952200083
 20
1097.222447257715
 30
0.0
  0
VERTEX
  5
49C
330
41A
100
AcDbEntity
  8
Ｓ_１_１
  6
CONTINUOUS
 62
     3
100
AcDbVertex
100
AcDb2dVertex
 10
4896.121421309902
 20
1096.958176849991
 30
0.0
  0
VERTEX
  5
49D
330
41A
100
AcDbEntity
  8
Ｓ_１_１
  6
CONTINUOUS
 62
     3
100
AcDbVertex
100
AcDb2dVertex
 10
4896.133741720249
 20
1096.693924504904
 30
0.0
  0
VERTEX
  5
49E
330
41A
100
AcDbEntity
  8
Ｓ_１_１
  6
CONTINUOUS
 62
     3
100
AcDbVertex
100
AcDb2dVertex
 10
4896.146412855767
 20
1096.429687940713
 30
0.0
  0
VERTEX
  5
49F
330
41A
100
AcDbEntity
  8
Ｓ_１_１
  6
CONTINUOUS
 62
     3
100
AcDbVertex
100
AcDb2dVertex
 10
4896.15936434035
 20
1096.165464875676
 30
0.0
  0
VERTEX
  5
4A0
330
41A
100
AcDbEntity
  8
Ｓ_１_１
  6
CONTINUOUS
 62
     3
100
AcDbVertex
100
AcDb2dVertex
 10
4896.173997147147
 20
1095.87232922889
 30
0.0
  0
VERTEX
  5
4A1
330
41A
100
AcDbEntity
  8
Ｓ_１_１
  6
CONTINUOUS
 62
     3
100
AcDbVertex
100
AcDb2dVertex
 10
4896.188916633473
 20
1095.57920922996
 30
0.0
  0
VERTEX
  5
4A2
330
41A
100
AcDbEntity
  8
Ｓ_１_１
  6
CONTINUOUS
 62
     3
100
AcDbVertex
100
AcDb2dVertex
 10
4896.204151014753
 20
1095.286106718781
 30
0.0
  0
VERTEX
  5
4A3
330
41A
100
AcDbEntity
  8
Ｓ_１_１
  6
CONTINUOUS
 62
     3
100
AcDbVertex
100
AcDb2dVertex
 10
4896.21972850641
 20
1094.993023535245
 30
0.0
  0
VERTEX
  5
4A4
330
41A
100
AcDbEntity
  8
Ｓ_１_１
  6
CONTINUOUS
 62
     3
100
AcDbVertex
100
AcDb2dVertex
 10
4896.235677323868
 20
1094.699961519247
 30
0.0
  0
VERTEX
  5
4A5
330
41A
100
AcDbEntity
  8
Ｓ_１_１
  6
CONTINUOUS
 62
     3
100
AcDbVertex
100
AcDb2dVertex
 10
4896.252025682546
 20
1094.40692251068
 30
0.0
  0
VERTEX
  5
4A6
330
41A
100
AcDbEntity
  8
Ｓ_１_１
  6
CONTINUOUS
 62
     3
100
AcDbVertex
100
AcDb2dVertex
 10
4896.268801797874
 20
1094.113908349439
 30
0.0
  0
VERTEX
  5
4A7
330
41A
100
AcDbEntity
  8
Ｓ_１_１
  6
CONTINUOUS
 62
     3
100
AcDbVertex
100
AcDb2dVertex
 10
4896.28603388527
 20
1093.820920875417
 30
0.0
  0
VERTEX
  5
4A8
330
41A
100
AcDbEntity
  8
Ｓ_１_１
  6
CONTINUOUS
 62
     3
100
AcDbVertex
100
AcDb2dVertex
 10
4896.303750160158
 20
1093.527961928509
 30
0.0
  0
VERTEX
  5
4A9
330
41A
100
AcDbEntity
  8
Ｓ_１_１
  6
CONTINUOUS
 62
     3
100
AcDbVertex
100
AcDb2dVertex
 10
4896.321978837963
 20
1093.235033348608
 30
0.0
  0
VERTEX
  5
4AA
330
41A
100
AcDbEntity
  8
Ｓ_１_１
  6
CONTINUOUS
 62
     3
100
AcDbVertex
100
AcDb2dVertex
 10
4896.340748134106
 20
1092.942136975608
 30
0.0
  0
VERTEX
  5
4AB
330
41A
100
AcDbEntity
  8
Ｓ_１_１
  6
CONTINUOUS
 62
     3
100
AcDbVertex
100
AcDb2dVertex
 10
4896.359966513922
 20
1092.651062922341
 30
0.0
  0
VERTEX
  5
4AC
330
41A
100
AcDbEntity
  8
Ｓ_１_１
  6
CONTINUOUS
 62
     3
100
AcDbVertex
100
AcDb2dVertex
 10
4896.379775089697
 20
1092.360026534978
 30
0.0
  0
VERTEX
  5
4AD
330
41A
100
AcDbEntity
  8
Ｓ_１_１
  6
CONTINUOUS
 62
     3
100
AcDbVertex
100
AcDb2dVertex
 10
4896.400202148207
 20
1092.069031847092
 30
0.0
  0
VERTEX
  5
4AE
330
41A
100
AcDbEntity
  8
Ｓ_１_１
  6
CONTINUOUS
 62
     3
100
AcDbVertex
100
AcDb2dVertex
 10
4896.421275976238
 20
1091.778082892254
 30
0.0
  0
VERTEX
  5
4AF
330
41A
100
AcDbEntity
  8
Ｓ_１_１
  6
CONTINUOUS
 62
     3
100
AcDbVertex
100
AcDb2dVertex
 10
4896.443024860564
 20
1091.487183704035
 30
0.0
  0
VERTEX
  5
4B0
330
41A
100
AcDbEntity
  8
Ｓ_１_１
  6
CONTINUOUS
 62
     3
100
AcDbVertex
100
AcDb2dVertex
 10
4896.46547708797
 20
1091.196338316009
 30
0.0
  0
VERTEX
  5
4B1
330
41A
100
AcDbEntity
  8
Ｓ_１_１
  6
CONTINUOUS
 62
     3
100
AcDbVertex
100
AcDb2dVertex
 10
4896.488660945231
 20
1090.905550761746
 30
0.0
  0
VERTEX
  5
4B2
330
41A
100
AcDbEntity
  8
Ｓ_１_１
  6
CONTINUOUS
 62
     3
100
AcDbVertex
100
AcDb2dVertex
 10
4896.512604719133
 20
1090.614825074818
 30
0.0
  0
VERTEX
  5
4B3
330
41A
100
AcDbEntity
  8
Ｓ_１_１
  6
CONTINUOUS
 62
     3
100
AcDbVertex
100
AcDb2dVertex
 10
4896.537336696453
 20
1090.324165288797
 30
0.0
  0
VERTEX
  5
4B4
330
41A
100
AcDbEntity
  8
Ｓ_１_１
  6
CONTINUOUS
 62
     3
100
AcDbVertex
100
AcDb2dVertex
 10
4896.562885163971
 20
1090.033575437254
 30
0.0
  0
VERTEX
  5
4B5
330
41A
100
AcDbEntity
  8
Ｓ_１_１
  6
CONTINUOUS
 62
     3
100
AcDbVertex
100
AcDb2dVertex
 10
4896.58927840847
 20
1089.743059553761
 30
0.0
  0
VERTEX
  5
4B6
330
41A
100
AcDbEntity
  8
Ｓ_１_１
  6
CONTINUOUS
 62
     3
100
AcDbVertex
100
AcDb2dVertex
 10
4896.616426917157
 20
1089.453856404257
 30
0.0
  0
VERTEX
  5
4B7
330
41A
100
AcDbEntity
  8
Ｓ_１_１
  6
CONTINUOUS
 62
     3
100
AcDbVertex
100
AcDb2dVertex
 10
4896.644468913988
 20
1089.164736924743
 30
0.0
  0
VERTEX
  5
4B8
330
41A
100
AcDbEntity
  8
Ｓ_１_１
  6
CONTINUOUS
 62
     3
100
AcDbVertex
100
AcDb2dVertex
 10
4896.673432229525
 20
1088.87570744527
 30
0.0
  0
VERTEX
  5
4B9
330
41A
100
AcDbEntity
  8
Ｓ_１_１
  6
CONTINUOUS
 62
     3
100
AcDbVertex
100
AcDb2dVertex
 10
4896.703344694328
 20
1088.586774295891
 30
0.0
  0
VERTEX
  5
4BA
330
41A
100
AcDbEntity
  8
Ｓ_１_１
  6
CONTINUOUS
 62
     3
100
AcDbVertex
100
AcDb2dVertex
 10
4896.734234138958
 20
1088.297943806661
 30
0.0
  0
VERTEX
  5
4BB
330
41A
100
AcDbEntity
  8
Ｓ_１_１
  6
CONTINUOUS
 62
     3
100
AcDbVertex
100
AcDb2dVertex
 10
4896.766128393975
 20
1088.00922230763
 30
0.0
  0
VERTEX
  5
4BC
330
41A
100
AcDbEntity
  8
Ｓ_１_１
  6
CONTINUOUS
 62
     3
100
AcDbVertex
100
AcDb2dVertex
 10
4896.799055289942
 20
1087.720616128852
 30
0.0
  0
VERTEX
  5
4BD
330
41A
100
AcDbEntity
  8
Ｓ_１_１
  6
CONTINUOUS
 62
     3
100
AcDbVertex
100
AcDb2dVertex
 10
4896.833042657418
 20
1087.43213160038
 30
0.0
  0
VERTEX
  5
4BE
330
41A
100
AcDbEntity
  8
Ｓ_１_１
  6
CONTINUOUS
 62
     3
100
AcDbVertex
100
AcDb2dVertex
 10
4896.868118326964
 20
1087.143775052266
 30
0.0
  0
VERTEX
  5
4BF
330
41A
100
AcDbEntity
  8
Ｓ_１_１
  6
CONTINUOUS
 62
     3
100
AcDbVertex
100
AcDb2dVertex
 10
4896.904310129141
 20
1086.855552814563
 30
0.0
  0
VERTEX
  5
4C0
330
41A
100
AcDbEntity
  8
Ｓ_１_１
  6
CONTINUOUS
 62
     3
100
AcDbVertex
100
AcDb2dVertex
 10
4896.941645894511
 20
1086.567471217325
 30
0.0
  0
VERTEX
  5
4C1
330
41A
100
AcDbEntity
  8
Ｓ_１_１
  6
CONTINUOUS
 62
     3
100
AcDbVertex
100
AcDb2dVertex
 10
4896.980105039616
 20
1086.279890771056
 30
0.0
  0
VERTEX
  5
4C2
330
41A
100
AcDbEntity
  8
Ｓ_１_１
  6
CONTINUOUS
 62
     3
100
AcDbVertex
100
AcDb2dVertex
 10
4897.019758350183
 20
1085.992468119784
 30
0.0
  0
VERTEX
  5
4C3
330
41A
100
AcDbEntity
  8
Ｓ_１_１
  6
CONTINUOUS
 62
     3
100
AcDbVertex
100
AcDb2dVertex
 10
4897.060631073075
 20
1085.705214448602
 30
0.0
  0
VERTEX
  5
4C4
330
41A
100
AcDbEntity
  8
Ｓ_１_１
  6
CONTINUOUS
 62
     3
100
AcDbVertex
100
AcDb2dVertex
 10
4897.102748455151
 20
1085.418140942602
 30
0.0
  0
VERTEX
  5
4C5
330
41A
100
AcDbEntity
  8
Ｓ_１_１
  6
CONTINUOUS
 62
     3
100
AcDbVertex
100
AcDb2dVertex
 10
4897.146135743276
 20
1085.131258786878
 30
0.0
  0
VERTEX
  5
4C6
330
41A
100
AcDbEntity
  8
Ｓ_１_１
  6
CONTINUOUS
 62
     3
100
AcDbVertex
100
AcDb2dVertex
 10
4897.19081818431
 20
1084.844579166521
 30
0.0
  0
VERTEX
  5
4C7
330
41A
100
AcDbEntity
  8
Ｓ_１_１
  6
CONTINUOUS
 62
     3
100
AcDbVertex
100
AcDb2dVertex
 10
4897.236821025116
 20
1084.558113266625
 30
0.0
  0
VERTEX
  5
4C8
330
41A
100
AcDbEntity
  8
Ｓ_１_１
  6
CONTINUOUS
 62
     3
100
AcDbVertex
100
AcDb2dVertex
 10
4897.284169512556
 20
1084.271872272281
 30
0.0
  0
VERTEX
  5
4C9
330
41A
100
AcDbEntity
  8
Ｓ_１_１
  6
CONTINUOUS
 62
     3
100
AcDbVertex
100
AcDb2dVertex
 10
4897.332888893492
 20
1083.985867368582
 30
0.0
  0
VERTEX
  5
4CA
330
41A
100
AcDbEntity
  8
Ｓ_１_１
  6
CONTINUOUS
 62
     3
100
AcDbVertex
100
AcDb2dVertex
 10
4897.383004414787
 20
1083.700109740621
 30
0.0
  0
VERTEX
  5
4CB
330
41A
100
AcDbEntity
  8
Ｓ_１_１
  6
CONTINUOUS
 62
     3
100
AcDbVertex
100
AcDb2dVertex
 10
4897.434541323301
 20
1083.414610573491
 30
0.0
  0
VERTEX
  5
4CC
330
41A
100
AcDbEntity
  8
Ｓ_１_１
  6
CONTINUOUS
 62
     3
100
AcDbVertex
100
AcDb2dVertex
 10
4897.485811426721
 20
1083.13839245838
 30
0.0
  0
VERTEX
  5
4CD
330
41A
100
AcDbEntity
  8
Ｓ_１_１
  6
CONTINUOUS
 62
     3
100
AcDbVertex
100
AcDb2dVertex
 10
4897.538367021611
 20
1082.862416660977
 30
0.0
  0
VERTEX
  5
4CE
330
41A
100
AcDbEntity
  8
Ｓ_１_１
  6
CONTINUOUS
 62
     3
100
AcDbVertex
100
AcDb2dVertex
 10
4897.592137005488
 20
1082.586672636128
 30
0.0
  0
VERTEX
  5
4CF
330
41A
100
AcDbEntity
  8
Ｓ_１_１
  6
CONTINUOUS
 62
     3
100
AcDbVertex
100
AcDb2dVertex
 10
4897.647050275873
 20
1082.311149838683
 30
0.0
  0
VERTEX
  5
4D0
330
41A
100
AcDbEntity
  8
Ｓ_１_１
  6
CONTINUOUS
 62
     3
100
AcDbVertex
100
AcDb2dVertex
 10
4897.703035730285
 20
1082.035837723492
 30
0.0
  0
VERTEX
  5
4D1
330
41A
100
AcDbEntity
  8
Ｓ_１_１
  6
CONTINUOUS
 62
     3
100
AcDbVertex
100
AcDb2dVertex
 10
4897.760022266243
 20
1081.760725745402
 30
0.0
  0
VERTEX
  5
4D2
330
41A
100
AcDbEntity
  8
Ｓ_１_１
  6
CONTINUOUS
 62
     3
100
AcDbVertex
100
AcDb2dVertex
 10
4897.817938781264
 20
1081.485803359264
 30
0.0
  0
VERTEX
  5
4D3
330
41A
100
AcDbEntity
  8
Ｓ_１_１
  6
CONTINUOUS
 62
     3
100
AcDbVertex
100
AcDb2dVertex
 10
4897.876714172871
 20
1081.211060019926
 30
0.0
  0
VERTEX
  5
4D4
330
41A
100
AcDbEntity
  8
Ｓ_１_１
  6
CONTINUOUS
 62
     3
100
AcDbVertex
100
AcDb2dVertex
 10
4897.936277338582
 20
1080.936485182236
 30
0.0
  0
VERTEX
  5
4D5
330
41A
100
AcDbEntity
  8
Ｓ_１_１
  6
CONTINUOUS
 62
     3
100
AcDbVertex
100
AcDb2dVertex
 10
4897.996557175915
 20
1080.662068301045
 30
0.0
  0
VERTEX
  5
4D6
330
41A
100
AcDbEntity
  8
Ｓ_１_１
  6
CONTINUOUS
 62
     3
100
AcDbVertex
100
AcDb2dVertex
 10
4898.05748258239
 20
1080.387798831201
 30
0.0
  0
VERTEX
  5
4D7
330
41A
100
AcDbEntity
  8
Ｓ_１_１
  6
CONTINUOUS
 62
     3
100
AcDbVertex
100
AcDb2dVertex
 10
4898.119140787287
 20
1080.112964992453
 30
0.0
  0
VERTEX
  5
4D8
330
41A
100
AcDbEntity
  8
Ｓ_１_１
  6
CONTINUOUS
 62
     3
100
AcDbVertex
100
AcDb2dVertex
 10
4898.18130784706
 20
1079.838252360517
 30
0.0
  0
VERTEX
  5
4D9
330
41A
100
AcDbEntity
  8
Ｓ_１_１
  6
CONTINUOUS
 62
     3
100
AcDbVertex
100
AcDb2dVertex
 10
4898.243915210491
 20
1079.563644575691
 30
0.0
  0
VERTEX
  5
4DA
330
41A
100
AcDbEntity
  8
Ｓ_１_１
  6
CONTINUOUS
 62
     3
100
AcDbVertex
100
AcDb2dVertex
 10
4898.306894326367
 20
1079.289125278277
 30
0.0
  0
VERTEX
  5
4DB
330
41A
100
AcDbEntity
  8
Ｓ_１_１
  6
CONTINUOUS
 62
     3
100
AcDbVertex
100
AcDb2dVertex
 10
4898.37017664347
 20
1079.01467810857
 30
0.0
  0
VERTEX
  5
4DC
330
41A
100
AcDbEntity
  8
Ｓ_１_１
  6
CONTINUOUS
 62
     3
100
AcDbVertex
100
AcDb2dVertex
 10
4898.433693610585
 20
1078.740286706873
 30
0.0
  0
VERTEX
  5
4DD
330
41A
100
AcDbEntity
  8
Ｓ_１_１
  6
CONTINUOUS
 62
     3
100
AcDbVertex
100
AcDb2dVertex
 10
4898.497376676496
 20
1078.465934713483
 30
0.0
  0
VERTEX
  5
4DE
330
41A
100
AcDbEntity
  8
Ｓ_１_１
  6
CONTINUOUS
 62
     3
100
AcDbVertex
100
AcDb2dVertex
 10
4898.561157289987
 20
1078.1916057687
 30
0.0
  0
VERTEX
  5
4DF
330
41A
100
AcDbEntity
  8
Ｓ_１_１
  6
CONTINUOUS
 62
     3
100
AcDbVertex
100
AcDb2dVertex
 10
4898.624966899843
 20
1077.917283512823
 30
0.0
  0
VERTEX
  5
4E0
330
41A
100
AcDbEntity
  8
Ｓ_１_１
  6
CONTINUOUS
 62
     3
100
AcDbVertex
100
AcDb2dVertex
 10
4898.688736954846
 20
1077.642951586151
 30
0.0
  0
VERTEX
  5
4E1
330
41A
100
AcDbEntity
  8
Ｓ_１_１
  6
CONTINUOUS
 62
     3
100
AcDbVertex
100
AcDb2dVertex
 10
4898.752398903783
 20
1077.368593628983
 30
0.0
  0
VERTEX
  5
4E2
330
41A
100
AcDbEntity
  8
Ｓ_１_１
  6
CONTINUOUS
 62
     3
100
AcDbVertex
100
AcDb2dVertex
 10
4898.815892872101
 20
1077.094155486476
 30
0.0
  0
VERTEX
  5
4E3
330
41A
100
AcDbEntity
  8
Ｓ_１_１
  6
CONTINUOUS
 62
     3
100
AcDbVertex
100
AcDb2dVertex
 10
4898.879140974759
 20
1076.819659749147
 30
0.0
  0
VERTEX
  5
4E4
330
41A
100
AcDbEntity
  8
Ｓ_１_１
  6
CONTINUOUS
 62
     3
100
AcDbVertex
100
AcDb2dVertex
 10
4898.942074052293
 20
1076.54509122411
 30
0.0
  0
VERTEX
  5
4E5
330
41A
100
AcDbEntity
  8
Ｓ_１_１
  6
CONTINUOUS
 62
     3
100
AcDbVertex
100
AcDb2dVertex
 10
4899.004622945236
 20
1076.270434718477
 30
0.0
  0
VERTEX
  5
4E6
330
41A
100
AcDbEntity
  8
Ｓ_１_１
  6
CONTINUOUS
 62
     3
100
AcDbVertex
100
AcDb2dVertex
 10
4899.066718494129
 20
1075.995675039361
 30
0.0
  0
VERTEX
  5
4E7
330
41A
100
AcDbEntity
  8
Ｓ_１_１
  6
CONTINUOUS
 62
     3
100
AcDbVertex
100
AcDb2dVertex
 10
4899.128291539508
 20
1075.720796993874
 30
0.0
  0
VERTEX
  5
4E8
330
41A
100
AcDbEntity
  8
Ｓ_１_１
  6
CONTINUOUS
 62
     3
100
AcDbVertex
100
AcDb2dVertex
 10
4899.189272921908
 20
1075.445785389129
 30
0.0
  0
VERTEX
  5
4E9
330
41A
100
AcDbEntity
  8
Ｓ_１_１
  6
CONTINUOUS
 62
     3
100
AcDbVertex
100
AcDb2dVertex
 10
4899.249593481868
 20
1075.17062503224
 30
0.0
  0
VERTEX
  5
4EA
330
41A
100
AcDbEntity
  8
Ｓ_１_１
  6
CONTINUOUS
 62
     3
100
AcDbVertex
100
AcDb2dVertex
 10
4899.309184059922
 20
1074.895300730318
 30
0.0
  0
VERTEX
  5
4EB
330
41A
100
AcDbEntity
  8
Ｓ_１_１
  6
CONTINUOUS
 62
     3
100
AcDbVertex
100
AcDb2dVertex
 10
4899.36797549661
 20
1074.619797290476
 30
0.0
  0
VERTEX
  5
4EC
330
41A
100
AcDbEntity
  8
Ｓ_１_１
  6
CONTINUOUS
 62
     3
100
AcDbVertex
100
AcDb2dVertex
 10
4899.425898632466
 20
1074.344099519828
 30
0.0
  0
VERTEX
  5
4ED
330
41A
100
AcDbEntity
  8
Ｓ_１_１
  6
CONTINUOUS
 62
     3
100
AcDbVertex
100
AcDb2dVertex
 10
4899.482792166052
 20
1074.068641815353
 30
0.0
  0
VERTEX
  5
4EE
330
41A
100
AcDbEntity
  8
Ｓ_１_１
  6
CONTINUOUS
 62
     3
100
AcDbVertex
100
AcDb2dVertex
 10
4899.538679714718
 20
1073.79297000632
 30
0.0
  0
VERTEX
  5
4EF
330
41A
100
AcDbEntity
  8
Ｓ_１_１
  6
CONTINUOUS
 62
     3
100
AcDbVertex
100
AcDb2dVertex
 10
4899.593489713509
 20
1073.517078832345
 30
0.0
  0
VERTEX
  5
4F0
330
41A
100
AcDbEntity
  8
Ｓ_１_１
  6
CONTINUOUS
 62
     3
100
AcDbVertex
100
AcDb2dVertex
 10
4899.647150597465
 20
1073.240963033046
 30
0.0
  0
VERTEX
  5
4F1
330
41A
100
AcDbEntity
  8
Ｓ_１_１
  6
CONTINUOUS
 62
     3
100
AcDbVertex
100
AcDb2dVertex
 10
4899.699590801632
 20
1072.964617348041
 30
0.0
  0
VERTEX
  5
4F2
330
41A
100
AcDbEntity
  8
Ｓ_１_１
  6
CONTINUOUS
 62
     3
100
AcDbVertex
100
AcDb2dVertex
 10
4899.750738761051
 20
1072.688036516945
 30
0.0
  0
VERTEX
  5
4F3
330
41A
100
AcDbEntity
  8
Ｓ_１_１
  6
CONTINUOUS
 62
     3
100
AcDbVertex
100
AcDb2dVertex
 10
4899.800522910764
 20
1072.411215279378
 30
0.0
  0
VERTEX
  5
4F4
330
41A
100
AcDbEntity
  8
Ｓ_１_１
  6
CONTINUOUS
 62
     3
100
AcDbVertex
100
AcDb2dVertex
 10
4899.848871685816
 20
1072.134148374955
 30
0.0
  0
VERTEX
  5
4F5
330
41A
100
AcDbEntity
  8
Ｓ_１_１
  6
CONTINUOUS
 62
     3
100
AcDbVertex
100
AcDb2dVertex
 10
4899.895713521248
 20
1071.856830543293
 30
0.0
  0
VERTEX
  5
4F6
330
41A
100
AcDbEntity
  8
Ｓ_１_１
  6
CONTINUOUS
 62
     3
100
AcDbVertex
100
AcDb2dVertex
 10
4899.940976852105
 20
1071.579256524011
 30
0.0
  0
VERTEX
  5
4F7
330
41A
100
AcDbEntity
  8
Ｓ_１_１
  6
CONTINUOUS
 62
     3
100
AcDbVertex
100
AcDb2dVertex
 10
4899.984590113429
 20
1071.301421056726
 30
0.0
  0
VERTEX
  5
4F8
330
41A
100
AcDbEntity
  8
Ｓ_１_１
  6
CONTINUOUS
 62
     3
100
AcDbVertex
100
AcDb2dVertex
 10
4900.021422393256
 20
1071.057630304079
 30
0.0
  0
VERTEX
  5
4F9
330
41A
100
AcDbEntity
  8
Ｓ_１_１
  6
CONTINUOUS
 62
     3
100
AcDbVertex
100
AcDb2dVertex
 10
4900.056950058144
 20
1070.813643052054
 30
0.0
  0
VERTEX
  5
4FA
330
41A
100
AcDbEntity
  8
Ｓ_１_１
  6
CONTINUOUS
 62
     3
100
AcDbVertex
100
AcDb2dVertex
 10
4900.09119169402
 20
1070.569467785997
 30
0.0
  0
VERTEX
  5
4FB
330
41A
100
AcDbEntity
  8
Ｓ_１_１
  6
CONTINUOUS
 62
     3
100
AcDbVertex
100
AcDb2dVertex
 10
4900.12416588682
 20
1070.325112991254
 30
0.0
  0
VERTEX
  5
4FC
330
41A
100
AcDbEntity
  8
Ｓ_１_１
  6
CONTINUOUS
 62
     3
100
AcDbVertex
100
AcDb2dVertex
 10
4900.155891222474
 20
1070.080587153169
 30
0.0
  0
VERTEX
  5
4FD
330
41A
100
AcDbEntity
  8
Ｓ_１_１
  6
CONTINUOUS
 62
     3
100
AcDbVertex
100
AcDb2dVertex
 10
4900.18638628691
 20
1069.835898757088
 30
0.0
  0
VERTEX
  5
4FE
330
41A
100
AcDbEntity
  8
Ｓ_１_１
  6
CONTINUOUS
 62
     3
100
AcDbVertex
100
AcDb2dVertex
 10
4900.21566966606
 20
1069.591056288357
 30
0.0
  0
VERTEX
  5
4FF
330
41A
100
AcDbEntity
  8
Ｓ_１_１
  6
CONTINUOUS
 62
     3
100
AcDbVertex
100
AcDb2dVertex
 10
4900.243759945859
 20
1069.346068232321
 30
0.0
  0
VERTEX
  5
500
330
41A
100
AcDbEntity
  8
Ｓ_１_１
  6
CONTINUOUS
 62
     3
100
AcDbVertex
100
AcDb2dVertex
 10
4900.270675712234
 20
1069.100943074326
 30
0.0
  0
VERTEX
  5
501
330
41A
100
AcDbEntity
  8
Ｓ_１_１
  6
CONTINUOUS
 62
     3
100
AcDbVertex
100
AcDb2dVertex
 10
4900.296435551118
 20
1068.855689299716
 30
0.0
  0
VERTEX
  5
502
330
41A
100
AcDbEntity
  8
Ｓ_１_１
  6
CONTINUOUS
 62
     3
100
AcDbVertex
100
AcDb2dVertex
 10
4900.321058048441
 20
1068.610315393838
 30
0.0
  0
VERTEX
  5
503
330
41A
100
AcDbEntity
  8
Ｓ_１_１
  6
CONTINUOUS
 62
     3
100
AcDbVertex
100
AcDb2dVertex
 10
4900.344591172557
 20
1068.364517731202
 30
0.0
  0
VERTEX
  5
504
330
41A
100
AcDbEntity
  8
Ｓ_１_１
  6
CONTINUOUS
 62
     3
100
AcDbVertex
100
AcDb2dVertex
 10
4900.367022595705
 20
1068.118616842108
 30
0.0
  0
VERTEX
  5
505
330
41A
100
AcDbEntity
  8
Ｓ_１_１
  6
CONTINUOUS
 62
     3
100
AcDbVertex
100
AcDb2dVertex
 10
4900.388372218795
 20
1067.872621430063
 30
0.0
  0
VERTEX
  5
506
330
41A
100
AcDbEntity
  8
Ｓ_１_１
  6
CONTINUOUS
 62
     3
100
AcDbVertex
100
AcDb2dVertex
 10
4900.40865994274
 20
1067.626540198574
 30
0.0
  0
VERTEX
  5
507
330
41A
100
AcDbEntity
  8
Ｓ_１_１
  6
CONTINUOUS
 62
     3
100
AcDbVertex
100
AcDb2dVertex
 10
4900.427905668454
 20
1067.380381851148
 30
0.0
  0
VERTEX
  5
508
330
41A
100
AcDbEntity
  8
Ｓ_１_１
  6
CONTINUOUS
 62
     3
100
AcDbVertex
100
AcDb2dVertex
 10
4900.446129296846
 20
1067.13415509129
 30
0.0
  0
VERTEX
  5
509
330
41A
100
AcDbEntity
  8
Ｓ_１_１
  6
CONTINUOUS
 62
     3
100
AcDbVertex
100
AcDb2dVertex
 10
4900.463350728829
 20
1066.887868622507
 30
0.0
  0
VERTEX
  5
50A
330
41A
100
AcDbEntity
  8
Ｓ_１_１
  6
CONTINUOUS
 62
     3
100
AcDbVertex
100
AcDb2dVertex
 10
4900.479589865317
 20
1066.641531148307
 30
0.0
  0
VERTEX
  5
50B
330
41A
100
AcDbEntity
  8
Ｓ_１_１
  6
CONTINUOUS
 62
     3
100
AcDbVertex
100
AcDb2dVertex
 10
4900.49486660722
 20
1066.395151372195
 30
0.0
  0
VERTEX
  5
50C
330
41A
100
AcDbEntity
  8
Ｓ_１_１
  6
CONTINUOUS
 62
     3
100
AcDbVertex
100
AcDb2dVertex
 10
4900.509200855451
 20
1066.148737997678
 30
0.0
  0
VERTEX
  5
50D
330
41A
100
AcDbEntity
  8
Ｓ_１_１
  6
CONTINUOUS
 62
     3
100
AcDbVertex
100
AcDb2dVertex
 10
4900.522612510922
 20
1065.902299728263
 30
0.0
  0
VERTEX
  5
50E
330
41A
100
AcDbEntity
  8
Ｓ_１_１
  6
CONTINUOUS
 62
     3
100
AcDbVertex
100
AcDb2dVertex
 10
4900.535138913694
 20
1065.655478681193
 30
0.0
  0
VERTEX
  5
50F
330
41A
100
AcDbEntity
  8
Ｓ_１_１
  6
CONTINUOUS
 62
     3
100
AcDbVertex
100
AcDb2dVertex
 10
4900.54677780258
 20
1065.408632151919
 30
0.0
  0
VERTEX
  5
510
330
41A
100
AcDbEntity
  8
Ｓ_１_１
  6
CONTINUOUS
 62
     3
100
AcDbVertex
100
AcDb2dVertex
 10
4900.55754702089
 20
1065.161750897436
 30
0.0
  0
VERTEX
  5
511
330
41A
100
AcDbEntity
  8
Ｓ_１_１
  6
CONTINUOUS
 62
     3
100
AcDbVertex
100
AcDb2dVertex
 10
4900.567464411935
 20
1064.914825674739
 30
0.0
  0
VERTEX
  5
512
330
41A
100
AcDbEntity
  8
Ｓ_１_１
  6
CONTINUOUS
 62
     3
100
AcDbVertex
100
AcDb2dVertex
 10
4900.576547819029
 20
1064.667847240823
 30
0.0
  0
VERTEX
  5
513
330
41A
100
AcDbEntity
  8
Ｓ_１_１
  6
CONTINUOUS
 62
     3
100
AcDbVertex
100
AcDb2dVertex
 10
4900.584815085482
 20
1064.420806352684
 30
0.0
  0
VERTEX
  5
514
330
41A
100
AcDbEntity
  8
Ｓ_１_１
  6
CONTINUOUS
 62
     3
100
AcDbVertex
100
AcDb2dVertex
 10
4900.592284054605
 20
1064.173693767316
 30
0.0
  0
VERTEX
  5
515
330
41A
100
AcDbEntity
  8
Ｓ_１_１
  6
CONTINUOUS
 62
     3
100
AcDbVertex
100
AcDb2dVertex
 10
4900.598972569711
 20
1063.926500241715
 30
0.0
  0
VERTEX
  5
516
330
41A
100
AcDbEntity
  8
Ｓ_１_１
  6
CONTINUOUS
 62
     3
100
AcDbVertex
100
AcDb2dVertex
 10
4900.604898474111
 20
1063.679216532876
 30
0.0
  0
VERTEX
  5
517
330
41A
100
AcDbEntity
  8
Ｓ_１_１
  6
CONTINUOUS
 62
     3
100
AcDbVertex
100
AcDb2dVertex
 10
4900.610079611117
 20
1063.431833397795
 30
0.0
  0
VERTEX
  5
518
330
41A
100
AcDbEntity
  8
Ｓ_１_１
  6
CONTINUOUS
 62
     3
100
AcDbVertex
100
AcDb2dVertex
 10
4900.614533824039
 20
1063.184341593465
 30
0.0
  0
VERTEX
  5
519
330
41A
100
AcDbEntity
  8
Ｓ_１_１
  6
CONTINUOUS
 62
     3
100
AcDbVertex
100
AcDb2dVertex
 10
4900.618281841772
 20
1062.93661107472
 30
0.0
  0
VERTEX
  5
51A
330
41A
100
AcDbEntity
  8
Ｓ_１_１
  6
CONTINUOUS
 62
     3
100
AcDbVertex
100
AcDb2dVertex
 10
4900.621344490229
 20
1062.688810677004
 30
0.0
  0
VERTEX
  5
51B
330
41A
100
AcDbEntity
  8
Ｓ_１_１
  6
CONTINUOUS
 62
     3
100
AcDbVertex
100
AcDb2dVertex
 10
4900.623746227602
 20
1062.440988557765
 30
0.0
  0
VERTEX
  5
51C
330
41A
100
AcDbEntity
  8
Ｓ_１_１
  6
CONTINUOUS
 62
     3
100
AcDbVertex
100
AcDb2dVertex
 10
4900.625511512089
 20
1062.193192874453
 30
0.0
  0
VERTEX
  5
51D
330
41A
100
AcDbEntity
  8
Ｓ_１_１
  6
CONTINUOUS
 62
     3
100
AcDbVertex
100
AcDb2dVertex
 10
4900.626664801885
 20
1061.945471784516
 30
0.0
  0
VERTEX
  5
51E
330
41A
100
AcDbEntity
  8
Ｓ_１_１
  6
CONTINUOUS
 62
     3
100
AcDbVertex
100
AcDb2dVertex
 10
4900.627230555177
 20
1061.697873445403
 30
0.0
  0
VERTEX
  5
51F
330
41A
100
AcDbEntity
  8
Ｓ_１_１
  6
CONTINUOUS
 62
     3
100
AcDbVertex
100
AcDb2dVertex
 10
4900.627233230166
 20
1061.450446014564
 30
0.0
  0
VERTEX
  5
520
330
41A
100
AcDbEntity
  8
Ｓ_１_１
  6
CONTINUOUS
 62
     3
100
AcDbVertex
100
AcDb2dVertex
 10
4900.626697285045
 20
1061.203237649446
 30
0.0
  0
VERTEX
  5
521
330
41A
100
AcDbEntity
  8
Ｓ_１_１
  6
CONTINUOUS
 62
     3
100
AcDbVertex
100
AcDb2dVertex
 10
4900.625647178007
 20
1060.956296507499
 30
0.0
  0
VERTEX
  5
522
330
41A
100
AcDbEntity
  8
Ｓ_１_１
  6
CONTINUOUS
 62
     3
100
AcDbVertex
100
AcDb2dVertex
 10
4900.624107367246
 20
1060.709670746171
 30
0.0
  0
VERTEX
  5
523
330
41A
100
AcDbEntity
  8
Ｓ_１_１
  6
CONTINUOUS
 62
     3
100
AcDbVertex
100
AcDb2dVertex
 10
4900.622102310958
 20
1060.463408522912
 30
0.0
  0
VERTEX
  5
524
330
41A
100
AcDbEntity
  8
Ｓ_１_１
  6
CONTINUOUS
 62
     3
100
AcDbVertex
100
AcDb2dVertex
 10
4900.619742719226
 20
1060.226244870839
 30
0.0
  0
VERTEX
  5
525
330
41A
100
AcDbEntity
  8
Ｓ_１_１
  6
CONTINUOUS
 62
     3
100
AcDbVertex
100
AcDb2dVertex
 10
4900.616947861431
 20
1059.989300367359
 30
0.0
  0
VERTEX
  5
526
330
41A
100
AcDbEntity
  8
Ｓ_１_１
  6
CONTINUOUS
 62
     3
100
AcDbVertex
100
AcDb2dVertex
 10
4900.613692514027
 20
1059.752411181218
 30
0.0
  0
VERTEX
  5
527
330
41A
100
AcDbEntity
  8
Ｓ_１_１
  6
CONTINUOUS
 62
     3
100
AcDbVertex
100
AcDb2dVertex
 10
4900.609951453471
 20
1059.51541348116
 30
0.0
  0
VERTEX
  5
528
330
41A
100
AcDbEntity
  8
Ｓ_１_１
  6
CONTINUOUS
 62
     3
100
AcDbVertex
100
AcDb2dVertex
 10
4900.605699456216
 20
1059.278143435932
 30
0.0
  0
VERTEX
  5
529
330
41A
100
AcDbEntity
  8
Ｓ_１_１
  6
CONTINUOUS
 62
     3
100
AcDbVertex
100
AcDb2dVertex
 10
4900.600911298716
 20
1059.040437214279
 30
0.0
  0
VERTEX
  5
52A
330
41A
100
AcDbEntity
  8
Ｓ_１_１
  6
CONTINUOUS
 62
     3
100
AcDbVertex
100
AcDb2dVertex
 10
4900.595561757424
 20
1058.802130984945
 30
0.0
  0
VERTEX
  5
52B
330
41A
100
AcDbEntity
  8
Ｓ_１_１
  6
CONTINUOUS
 62
     3
100
AcDbVertex
100
AcDb2dVertex
 10
4900.589625608796
 20
1058.563060916677
 30
0.0
  0
VERTEX
  5
52C
330
41A
100
AcDbEntity
  8
Ｓ_１_１
  6
CONTINUOUS
 62
     3
100
AcDbVertex
100
AcDb2dVertex
 10
4900.583077629289
 20
1058.323063178219
 30
0.0
  0
VERTEX
  5
52D
330
41A
100
AcDbEntity
  8
Ｓ_１_１
  6
CONTINUOUS
 62
     3
100
AcDbVertex
100
AcDb2dVertex
 10
4900.575892595353
 20
1058.081973938318
 30
0.0
  0
VERTEX
  5
52E
330
41A
100
AcDbEntity
  8
Ｓ_１_１
  6
CONTINUOUS
 62
     3
100
AcDbVertex
100
AcDb2dVertex
 10
4900.568045283446
 20
1057.839629365717
 30
0.0
  0
VERTEX
  5
52F
330
41A
100
AcDbEntity
  8
Ｓ_１_１
  6
CONTINUOUS
 62
     3
100
AcDbVertex
100
AcDb2dVertex
 10
4900.559535086828
 20
1057.59625190524
 30
0.0
  0
VERTEX
  5
530
330
41A
100
AcDbEntity
  8
Ｓ_１_１
  6
CONTINUOUS
 62
     3
100
AcDbVertex
100
AcDb2dVertex
 10
4900.550405565284
 20
1057.352076665235
 30
0.0
  0
VERTEX
  5
531
330
41A
100
AcDbEntity
  8
Ｓ_１_１
  6
CONTINUOUS
 62
     3
100
AcDbVertex
100
AcDb2dVertex
 10
4900.540723456712
 20
1057.107722060327
 30
0.0
  0
VERTEX
  5
532
330
41A
100
AcDbEntity
  8
Ｓ_１_１
  6
CONTINUOUS
 62
     3
100
AcDbVertex
100
AcDb2dVertex
 10
4900.530555499012
 20
1056.863806505143
 30
0.0
  0
VERTEX
  5
533
330
41A
100
AcDbEntity
  8
Ｓ_１_１
  6
CONTINUOUS
 62
     3
100
AcDbVertex
100
AcDb2dVertex
 10
4900.519968430084
 20
1056.62094841431
 30
0.0
  0
VERTEX
  5
534
330
41A
100
AcDbEntity
  8
Ｓ_１_１
  6
CONTINUOUS
 62
     3
100
AcDbVertex
100
AcDb2dVertex
 10
4900.509028987828
 20
1056.379766202455
 30
0.0
  0
VERTEX
  5
535
330
41A
100
AcDbEntity
  8
Ｓ_１_１
  6
CONTINUOUS
 62
     3
100
AcDbVertex
100
AcDb2dVertex
 10
4900.497803910142
 20
1056.140878284205
 30
0.0
  0
VERTEX
  5
536
330
41A
100
AcDbEntity
  8
Ｓ_１_１
  6
CONTINUOUS
 62
     3
100
AcDbVertex
100
AcDb2dVertex
 10
4900.486359934925
 20
1055.904903074186
 30
0.0
  0
VERTEX
  5
537
330
41A
100
AcDbEntity
  8
Ｓ_１_１
  6
CONTINUOUS
 62
     3
100
AcDbVertex
100
AcDb2dVertex
 10
4900.474763800077
 20
1055.672458987025
 30
0.0
  0
VERTEX
  5
538
330
41A
100
AcDbEntity
  8
Ｓ_１_１
  6
CONTINUOUS
 62
     3
100
AcDbVertex
100
AcDb2dVertex
 10
4900.463082243499
 20
1055.444164437348
 30
0.0
  0
VERTEX
  5
539
330
41A
100
AcDbEntity
  8
Ｓ_１_１
  6
CONTINUOUS
 62
     3
100
AcDbVertex
100
AcDb2dVertex
 10
4900.451382003088
 20
1055.220637839784
 30
0.0
  0
VERTEX
  5
53A
330
41A
100
AcDbEntity
  8
Ｓ_１_１
  6
CONTINUOUS
 62
     3
100
AcDbVertex
100
AcDb2dVertex
 10
4900.439680842078
 20
1055.002162834191
 30
0.0
  0
VERTEX
  5
53B
330
41A
100
AcDbEntity
  8
Ｓ_１_１
  6
CONTINUOUS
 62
     3
100
AcDbVertex
100
AcDb2dVertex
 10
4900.427751509373
 20
1054.786768058495
 30
0.0
  0
VERTEX
  5
53C
330
41A
100
AcDbEntity
  8
Ｓ_１_１
  6
CONTINUOUS
 62
     3
100
AcDbVertex
100
AcDb2dVertex
 10
4900.415317846685
 20
1054.572154939275
 30
0.0
  0
VERTEX
  5
53D
330
41A
100
AcDbEntity
  8
Ｓ_１_１
  6
CONTINUOUS
 62
     3
100
AcDbVertex
100
AcDb2dVertex
 10
4900.402103695727
 20
1054.356024903111
 30
0.0
  0
VERTEX
  5
53E
330
41A
100
AcDbEntity
  8
Ｓ_１_１
  6
CONTINUOUS
 62
     3
100
AcDbVertex
100
AcDb2dVertex
 10
4900.387832898217
 20
1054.136079376582
 30
0.0
  0
VERTEX
  5
53F
330
41A
100
AcDbEntity
  8
Ｓ_１_１
  6
CONTINUOUS
 62
     3
100
AcDbVertex
100
AcDb2dVertex
 10
4900.372229295866
 20
1053.910019786266
 30
0.0
  0
VERTEX
  5
540
330
41A
100
AcDbEntity
  8
Ｓ_１_１
  6
CONTINUOUS
 62
     3
100
AcDbVertex
100
AcDb2dVertex
 10
4900.355016730387
 20
1053.675547558742
 30
0.0
  0
VERTEX
  5
541
330
41A
100
AcDbEntity
  8
Ｓ_１_１
  6
CONTINUOUS
 62
     3
100
AcDbVertex
100
AcDb2dVertex
 10
4900.335919043492
 20
1053.430364120591
 30
0.0
  0
VERTEX
  5
542
330
41A
100
AcDbEntity
  8
Ｓ_１_１
  6
CONTINUOUS
 62
     3
100
AcDbVertex
100
AcDb2dVertex
 10
4900.314660076899
 20
1053.17217089839
 30
0.0
  0
VERTEX
  5
543
330
41A
100
AcDbEntity
  8
Ｓ_１_１
  6
CONTINUOUS
 62
     3
100
AcDbVertex
100
AcDb2dVertex
 10
4900.290963672318
 20
1052.898669318719
 30
0.0
  0
VERTEX
  5
544
330
41A
100
AcDbEntity
  8
Ｓ_１_１
  6
CONTINUOUS
 62
     3
100
AcDbVertex
100
AcDb2dVertex
 10
4900.264553671463
 20
1052.607560808158
 30
0.0
  0
VERTEX
  5
545
330
41A
100
AcDbEntity
  8
Ｓ_１_１
  6
CONTINUOUS
 62
     3
100
AcDbVertex
100
AcDb2dVertex
 10
4900.235371001673
 20
1052.298400080357
 30
0.0
  0
VERTEX
  5
546
330
41A
100
AcDbEntity
  8
Ｓ_１_１
  6
CONTINUOUS
 62
     3
100
AcDbVertex
100
AcDb2dVertex
 10
4900.204203184054
 20
1051.977926269351
 30
0.0
  0
VERTEX
  5
547
330
41A
100
AcDbEntity
  8
Ｓ_１_１
  6
CONTINUOUS
 62
     3
100
AcDbVertex
100
AcDb2dVertex
 10
4900.172054099316
 20
1051.654726962459
 30
0.0
  0
VERTEX
  5
548
330
41A
100
AcDbEntity
  8
Ｓ_１_１
  6
CONTINUOUS
 62
     3
100
AcDbVertex
100
AcDb2dVertex
 10
4900.139927628165
 20
1051.337389747002
 30
0.0
  0
VERTEX
  5
549
330
41A
100
AcDbEntity
  8
Ｓ_１_１
  6
CONTINUOUS
 62
     3
100
AcDbVertex
100
AcDb2dVertex
 10
4900.108827651312
 20
1051.034502210301
 30
0.0
  0
VERTEX
  5
54A
330
41A
100
AcDbEntity
  8
Ｓ_１_１
  6
CONTINUOUS
 62
     3
100
AcDbVertex
100
AcDb2dVertex
 10
4900.079758049467
 20
1050.754651939675
 30
0.0
  0
VERTEX
  5
54B
330
41A
100
AcDbEntity
  8
Ｓ_１_１
  6
CONTINUOUS
 62
     3
100
AcDbVertex
100
AcDb2dVertex
 10
4900.053722703336
 20
1050.506426522444
 30
0.0
  0
VERTEX
  5
54C
330
41A
100
AcDbEntity
  8
Ｓ_１_１
  6
CONTINUOUS
 62
     3
100
AcDbVertex
100
AcDb2dVertex
 10
4900.031725493631
 20
1050.29841354593
 30
0.0
  0
VERTEX
  5
54D
330
41A
100
AcDbEntity
  8
Ｓ_１_１
  6
CONTINUOUS
 62
     3
100
AcDbVertex
100
AcDb2dVertex
 10
4900.014770301059
 20
1050.139200597451
 30
0.0
  0
VERTEX
  5
54E
330
41A
100
AcDbEntity
  8
Ｓ_１_１
  6
CONTINUOUS
 62
     3
100
AcDbVertex
100
AcDb2dVertex
 10
4900.003861006329
 20
1050.03737526433
 30
0.0
  0
VERTEX
  5
54F
330
41A
100
AcDbEntity
  8
Ｓ_１_１
  6
CONTINUOUS
 62
     3
100
AcDbVertex
100
AcDb2dVertex
 10
4900.000001490151
 20
1050.001525133885
 30
0.0
  0
SEQEND
  5
550
330
41A
100
AcDbEntity
  8
Ｓ_１_１
  6
CONTINUOUS
 62
     3
  0
LINE
  5
551
330
1F
100
AcDbEntity
  8
Ｓ_１_１
  6
CONTINUOUS
 62
     3
100
AcDbLine
 10
4554.5670643127
 20
875.0013256500496
 30
0.0
 11
4542.566942421199
 21
875.0002956817497
 31
0.0
  0
LINE
  5
552
330
1F
100
AcDbEntity
  8
Ｓ_１_１
  6
CONTINUOUS
 62
     3
100
AcDbLine
 10
1454.5667795157
 20
1199.999997019851
 30
0.0
 11
1454.5667795157
 21
800.0000029802503
 31
0.0
  0
LINE
  5
553
330
1F
100
AcDbEntity
  8
Ｓ_１_１
  6
CONTINUOUS
 62
     3
100
AcDbLine
 10
4554.566657028099
 20
1125.00121884055
 30
0.0
 11
4542.5665351366
 21
1125.00121884055
 31
0.0
  0
LINE
  5
554
330
1F
100
AcDbEntity
  8
Ｓ_１_１
  6
CONTINUOUS
 62
     3
100
AcDbLine
 10
5099.9999985099
 20
1125.00030331315
 30
0.0
 11
5099.9999985099
 21
1050.00152513385
 31
0.0
  0
LINE
  5
555
330
1F
100
AcDbEntity
  8
Ｓ_１_１
  6
CONTINUOUS
 62
     3
100
AcDbLine
 10
5099.9999985099
 20
950.0006110966505
 30
0.0
 11
5099.9999985099
 21
875.0003070384499
 31
0.0
  0
LINE
  5
556
330
1F
100
AcDbEntity
  8
Ｓ_１_１
  6
CONTINUOUS
 62
     3
100
AcDbLine
 10
5099.9999985099
 20
1125.00030331315
 30
0.0
 11
4542.5665351366
 21
1125.00030331315
 31
0.0
  0
LINE
  5
557
330
1F
100
AcDbEntity
  8
Ｓ_１_１
  6
CONTINUOUS
 62
     3
100
AcDbLine
 10
5099.9999985099
 20
875.0003070384499
 30
0.0
 11
4542.5665351366
 21
875.0003070384499
 31
0.0
  0
LINE
  5
558
330
1F
100
AcDbEntity
  8
Ｓ_１_１
  6
CONTINUOUS
 62
     3
100
AcDbLine
 10
4950.0000007451
 20
1065.50109765685
 30
0.0
 11
4950.0000007451
 21
1056.50100623825
 31
0.0
  0
LINE
  5
559
330
1F
100
AcDbEntity
  8
Ｓ_１_１
  6
CONTINUOUS
 62
     3
100
AcDbLine
 10
5050.000609606499
 20
1065.50109765685
 30
0.0
 11
5050.000609606499
 21
1056.50100623825
 31
0.0
  0
LINE
  5
55A
330
1F
100
AcDbEntity
  8
Ｓ_１_１
  6
CONTINUOUS
 62
     3
100
AcDbLine
 10
5050.000609606499
 20
1065.50109765685
 30
0.0
 11
4950.0000007451
 21
1065.50109765685
 31
0.0
  0
LINE
  5
55B
330
1F
100
AcDbEntity
  8
Ｓ_１_１
  6
CONTINUOUS
 62
     3
100
AcDbLine
 10
4950.0000007451
 20
934.5010385736235
 30
0.0
 11
4950.0000007451
 21
943.5011299922238
 31
0.0
  0
LINE
  5
55C
330
1F
100
AcDbEntity
  8
Ｓ_１_１
  6
CONTINUOUS
 62
     3
100
AcDbLine
 10
5050.000609606499
 20
934.5010385736235
 30
0.0
 11
5050.000609606499
 21
943.5011299922238
 31
0.0
  0
LINE
  5
55D
330
1F
100
AcDbEntity
  8
Ｓ_１_１
  6
CONTINUOUS
 62
     3
100
AcDbLine
 10
4980.0
 20
934.5010385736235
 30
0.0
 11
4950.0000007451
 21
934.5010385736235
 31
0.0
  0
LINE
  5
55E
330
1F
100
AcDbEntity
  8
Ｓ_１_１
  6
CONTINUOUS
 62
     3
100
AcDbLine
 10
4980.0
 20
950.0006110966505
 30
0.0
 11
4566.0003726781
 21
950.0006110966505
 31
0.0
  0
LINE
  5
55F
330
1F
100
AcDbEntity
  8
Ｓ_１_１
  6
CONTINUOUS
 62
     3
100
AcDbLine
 10
5050.000609606499
 20
934.5010385736235
 30
0.0
 11
5020.0
 21
934.5010385736235
 31
0.0
  0
LINE
  5
560
330
1F
100
AcDbEntity
  8
Ｓ_１_１
  6
CONTINUOUS
 62
     3
100
AcDbLine
 10
5099.9999985099
 20
943.5003670529503
 30
0.0
 11
5020.0
 21
943.5003670529503
 31
0.0
  0
LINE
  5
561
330
1F
100
AcDbEntity
  8
Ｓ_１_１
  6
CONTINUOUS
 62
     3
100
AcDbLine
 10
5099.9999985099
 20
950.0006110966505
 30
0.0
 11
5020.0
 21
950.0006110966505
 31
0.0
  0
LINE
  5
562
330
1F
100
AcDbEntity
  8
Ｓ_１_１
  6
CONTINUOUS
 62
     3
100
AcDbLine
 10
4980.0
 20
943.5003670529503
 30
0.0
 11
4900.516816668
 21
943.5003670529503
 31
0.0
  0
LINE
  5
563
330
1F
100
AcDbEntity
  8
Ｓ_１_１
  6
CONTINUOUS
 62
     3
100
AcDbLine
 10
4980.0
 20
1050.00152513385
 30
0.0
 11
4566.0003726781
 21
1050.00152513385
 31
0.0
  0
LINE
  5
564
330
1F
100
AcDbEntity
  8
Ｓ_１_１
  6
CONTINUOUS
 62
     3
100
AcDbLine
 10
4980.0
 20
1056.50100623825
 30
0.0
 11
4900.516816668
 21
1056.50100623825
 31
0.0
  0
LINE
  5
565
330
1F
100
AcDbEntity
  8
Ｓ_１_１
  6
CONTINUOUS
 62
     3
100
AcDbLine
 10
5099.9999985099
 20
1050.00152513385
 30
0.0
 11
5020.0
 21
1050.00152513385
 31
0.0
  0
LINE
  5
566
330
1F
100
AcDbEntity
  8
Ｓ_１_１
  6
CONTINUOUS
 62
     3
100
AcDbLine
 10
5099.9999985099
 20
1056.50100623825
 30
0.0
 11
5020.0
 21
1056.50100623825
 31
0.0
  0
LINE
  5
567
330
1F
100
AcDbEntity
  8
Ｓ_１_１
  6
CONTINUOUS
 62
     3
100
AcDbLine
 10
4979.5
 20
1050.00152513385
 30
0.0
 11
4979.5
 21
1065.50109765685
 31
0.0
  0
LINE
  5
568
330
1F
100
AcDbEntity
  8
Ｓ_１_１
  6
CONTINUOUS
 62
     3
100
AcDbLine
 10
5020.5
 20
1050.00152513385
 30
0.0
 11
5020.5
 21
1065.50109765685
 31
0.0
  0
LINE
  5
569
330
1F
100
AcDbEntity
  8
Ｓ_１_１
  6
CONTINUOUS
 62
     3
100
AcDbLine
 10
4979.5
 20
934.5010385736235
 30
0.0
 11
4979.5
 21
950.0006110966505
 31
0.0
  0
LINE
  5
56A
330
1F
100
AcDbEntity
  8
Ｓ_１_１
  6
CONTINUOUS
 62
     3
100
AcDbLine
 10
5020.5
 20
934.5010385736235
 30
0.0
 11
5020.5
 21
950.0006110966505
 31
0.0
  0
LINE
  5
56B
330
1F
100
AcDbEntity
  8
Ｓ_１_１
  6
CONTINUOUS
 62
     3
100
AcDbLine
 10
1776.5669732308
 20
1006.00006094585
 30
0.0
 11
1776.5669732308
 21
993.9999390543497
 31
0.0
  0
LINE
  5
56C
330
1F
100
AcDbEntity
  8
Ｓ_１_１
  6
CONTINUOUS
 62
     3
100
AcDbLine
 10
1776.5669732308
 20
1006.00006094585
 30
0.0
 11
1476.566901407199
 21
1006.00006094585
 31
0.0
  0
LINE
  5
56D
330
1F
100
AcDbEntity
  8
Ｓ_１_１
  6
CONTINUOUS
 62
     3
100
AcDbLine
 10
1776.5669732308
 20
993.9999390543497
 30
0.0
 11
1476.566901407199
 21
993.9999390543497
 31
0.0
  0
LINE
  5
56E
330
1F
100
AcDbEntity
  8
Ｓ_１_１
  6
CONTINUOUS
 62
     3
100
AcDbLine
 10
1476.566901407199
 20
1199.999997019851
 30
0.0
 11
1476.566901407199
 21
800.0000029802503
 31
0.0
  0
LINE
  5
56F
330
1F
100
AcDbEntity
  8
Ｓ_１_１
  6
CONTINUOUS
 62
     3
100
AcDbLine
 10
1476.566901407199
 20
1199.999997019851
 30
0.0
 11
1454.5667795157
 21
1199.999997019851
 31
0.0
  0
LINE
  5
570
330
1F
100
AcDbEntity
  8
Ｓ_１_１
  6
CONTINUOUS
 62
     3
100
AcDbLine
 10
1476.566901407199
 20
800.0000029802503
 30
0.0
 11
1454.5667795157
 21
800.0000029802503
 31
0.0
  0
LINE
  5
571
330
1F
100
AcDbEntity
  8
Ｓ_１_１
  6
CONTINUOUS
 62
     3
100
AcDbLine
 10
4542.5665351366
 20
1099.99969333415
 30
0.0
 11
1476.566901407199
 21
1099.99969333415
 31
0.0
  0
LINE
  5
572
330
1F
100
AcDbEntity
  8
Ｓ_１_１
  6
CONTINUOUS
 62
     3
100
AcDbLine
 10
4542.5665351366
 20
900.00030666595
 30
0.0
 11
1476.566901407199
 21
900.00030666595
 31
0.0
  0
LINE
  5
573
330
1F
100
AcDbEntity
  8
Ｓ_１_１
  6
CONTINUOUS
 62
     3
100
AcDbLine
 10
4900.516816668
 20
943.5003670529503
 30
0.0
 11
4566.0003726781
 21
943.5003670529503
 31
0.0
  0
LINE
  5
574
330
1F
100
AcDbEntity
  8
Ｓ_１_１
  6
CONTINUOUS
 62
     3
100
AcDbLine
 10
4900.516816668
 20
1056.50100623825
 30
0.0
 11
4566.0003726781
 21
1056.50100623825
 31
0.0
  0
LINE
  5
575
330
1F
100
AcDbEntity
  8
Ｓ_１_１
  6
CONTINUOUS
 62
     3
100
AcDbLine
 10
4722.4879030363
 20
883.4998994022498
 30
0.0
 11
4842.488538981
 21
923.50011389695
 31
0.0
  0
LINE
  5
576
330
1F
100
AcDbEntity
  8
Ｓ_１_１
  6
CONTINUOUS
 62
     3
100
AcDbLine
 10
4842.4889883137
 20
1076.49958589235
 30
0.0
 11
4722.488859020599
 21
1116.49963150315
 31
0.0
  0
LINE
  5
577
330
1F
100
AcDbEntity
  8
Ｓ_１_１
  6
CONTINUOUS
 62
     3
100
AcDbLine
 10
4722.487797104
 20
1116.50100534415
 30
0.0
 11
4566.0003726781
 21
1116.50100534415
 31
0.0
  0
LINE
  5
578
330
1F
100
AcDbEntity
  8
Ｓ_１_１
  6
CONTINUOUS
 62
     3
100
AcDbLine
 10
4722.486576400899
 20
883.5005205348497
 30
0.0
 11
4566.0003726781
 21
883.5005205348497
 31
0.0
  0
LINE
  5
579
330
1F
100
AcDbEntity
  8
Ｓ_１_１
  6
CONTINUOUS
 62
     3
100
AcDbLine
 10
4842.4871849643
 20
1076.50024300075
 30
0.0
 11
4842.4871849643
 21
1056.50024329875
 31
0.0
  0
LINE
  5
57A
330
1F
100
AcDbEntity
  8
Ｓ_１_１
  6
CONTINUOUS
 62
     3
100
AcDbLine
 10
4842.4871849643
 20
943.50006187715
 30
0.0
 11
4842.4871849643
 21
923.5000621751504
 31
0.0
  0
CIRCLE
  5
57B
330
1F
100
AcDbEntity
  8
Ｓ_１_１
  6
CONTINUOUS
 62
     3
100
AcDbCircle
 10
1049.9999977649
 20
2199.99999850995
 30
0.0
 40
11.0000000745
  0
CIRCLE
  5
57C
330
1F
100
AcDbEntity
  8
Ｓ_１_１
  6
CONTINUOUS
 62
     3
100
AcDbCircle
 10
1049.9999977649
 20
2000.00000149025
 30
0.0
 40
11.0000000745
  0
ARC
  5
57D
330
1F
100
AcDbEntity
  8
Ｓ_１_１
  6
CONTINUOUS
 62
     3
100
AcDbCircle
 10
917.0001218169996
 20
2025.000001117649
 30
0.0
 40
12.9999993294
100
AcDbArc
 50
179.9999913486001
 51
270.0000006832001
  0
ARC
  5
57E
330
1F
100
AcDbEntity
  8
Ｓ_１_１
  6
CONTINUOUS
 62
     3
100
AcDbCircle
 10
883.0000307709001
 20
2174.99999888255
 30
0.0
 40
12.9999993294
100
AcDbArc
 50
0.0000025044999933
 51
90.00000250450003
  0
ARC
  5
57F
330
1F
100
AcDbEntity
  8
Ｓ_１_１
  6
CONTINUOUS
 62
     3
100
AcDbCircle
 10
917.0001218169996
 20
2174.99999888255
 30
0.0
 40
12.9999993294
100
AcDbArc
 50
89.99998884410003
 51
180.0000050090001
  0
ARC
  5
580
330
1F
100
AcDbEntity
  8
Ｓ_１_１
  6
CONTINUOUS
 62
     3
100
AcDbCircle
 10
883.0000307709001
 20
2025.000001117649
 30
0.0
 40
12.9999993294
100
AcDbArc
 50
269.9999974955001
 51
0.0000025044999933
  0
CIRCLE
  5
581
330
1F
100
AcDbEntity
  8
Ｓ_１_１
  6
CONTINUOUS
 62
     3
100
AcDbCircle
 10
750.0001548230998
 20
2000.00000149025
 30
0.0
 40
11.0000000745
  0
CIRCLE
  5
582
330
1F
100
AcDbEntity
  8
Ｓ_１_１
  6
CONTINUOUS
 62
     3
100
AcDbCircle
 10
750.0001548230998
 20
2199.99999850995
 30
0.0
 40
11.0000000745
  0
LINE
  5
583
330
1F
100
AcDbEntity
  8
Ｓ_１_１
  6
CONTINUOUS
 62
     3
100
AcDbLine
 10
906.0000609457998
 20
2279.99999731785
 30
0.0
 11
894.0000916422
 21
2279.99999731785
 31
0.0
  0
LINE
  5
584
330
1F
100
AcDbEntity
  8
Ｓ_１_１
  6
CONTINUOUS
 62
     3
100
AcDbLine
 10
894.0000916422
 20
2199.99999850995
 30
0.0
 11
894.0000916422
 21
2279.99999731785
 31
0.0
  0
LINE
  5
585
330
1F
100
AcDbEntity
  8
Ｓ_１_１
  6
CONTINUOUS
 62
     3
100
AcDbLine
 10
906.0000609457998
 20
2199.99999850995
 30
0.0
 11
906.0000609457998
 21
2279.99999731785
 31
0.0
  0
LINE
  5
586
330
1F
100
AcDbEntity
  8
Ｓ_１_１
  6
CONTINUOUS
 62
     3
100
AcDbLine
 10
906.0000609457998
 20
1920.000078976251
 30
0.0
 11
894.0000916422
 21
1920.000078976251
 31
0.0
  0
LINE
  5
587
330
1F
100
AcDbEntity
  8
Ｓ_１_１
  6
CONTINUOUS
 62
     3
100
AcDbLine
 10
883.0000307709001
 20
2187.99987661845
 30
0.0
 11
800.0000014901002
 21
2187.99987661845
 31
0.0
  0
LINE
  5
588
330
1F
100
AcDbEntity
  8
Ｓ_１_１
  6
CONTINUOUS
 62
     3
100
AcDbLine
 10
894.0000916422
 20
2000.00000149025
 30
0.0
 11
894.0000916422
 21
1920.000078976251
 31
0.0
  0
LINE
  5
589
330
1F
100
AcDbEntity
  8
Ｓ_１_１
  6
CONTINUOUS
 62
     3
100
AcDbLine
 10
883.0000307709001
 20
2012.00012338175
 30
0.0
 11
800.0000014901002
 21
2012.00012338175
 31
0.0
  0
LINE
  5
58A
330
1F
100
AcDbEntity
  8
Ｓ_１_１
  6
CONTINUOUS
 62
     3
100
AcDbLine
 10
906.0000609457998
 20
2000.00000149025
 30
0.0
 11
906.0000609457998
 21
1920.000078976251
 31
0.0
  0
LINE
  5
58B
330
1F
100
AcDbEntity
  8
Ｓ_１_１
  6
CONTINUOUS
 62
     3
100
AcDbLine
 10
903.9999389053005
 20
2174.99999888255
 30
0.0
 11
903.9999389053005
 21
2025.000001117649
 31
0.0
  0
LINE
  5
58C
330
1F
100
AcDbEntity
  8
Ｓ_１_１
  6
CONTINUOUS
 62
     3
100
AcDbLine
 10
896.0000610948005
 20
2174.99999888255
 30
0.0
 11
896.0000610948005
 21
2025.000001117649
 31
0.0
  0
LINE
  5
58D
330
1F
100
AcDbEntity
  8
Ｓ_１_１
  6
CONTINUOUS
 62
     3
100
AcDbLine
 10
999.9999985098999
 20
2012.00012338175
 30
0.0
 11
917.0001218169996
 21
2012.00012338175
 31
0.0
  0
LINE
  5
58E
330
1F
100
AcDbEntity
  8
Ｓ_１_１
  6
CONTINUOUS
 62
     3
100
AcDbLine
 10
999.9999985098999
 20
2187.99987661845
 30
0.0
 11
917.0001218169996
 21
2187.99987661845
 31
0.0
  0
LINE
  5
58F
330
1F
100
AcDbEntity
  8
Ｓ_１_１
  6
CONTINUOUS
 62
     3
100
AcDbLine
 10
999.9999985098999
 20
2199.99999850995
 30
0.0
 11
800.0000014901002
 21
2199.99999850995
 31
0.0
  0
LINE
  5
590
330
1F
100
AcDbEntity
  8
Ｓ_１_１
  6
CONTINUOUS
 62
     3
100
AcDbLine
 10
999.9999985098999
 20
2000.00000149025
 30
0.0
 11
800.0000014901002
 21
2000.00000149025
 31
0.0
  0
LINE
  5
591
330
1F
100
AcDbEntity
  8
Ｓ_１_１
  6
CONTINUOUS
 62
     3
100
AcDbLine
 10
700.0000029803
 20
2299.99999701985
 30
0.0
 11
700.0000029803
 21
1900.000079274251
 31
0.0
  0
LINE
  5
592
330
1F
100
AcDbEntity
  8
Ｓ_１_１
  6
CONTINUOUS
 62
     3
100
AcDbLine
 10
1099.9999970198
 20
2299.99999701985
 30
0.0
 11
1099.9999970198
 21
1900.000079274251
 31
0.0
  0
LINE
  5
593
330
1F
100
AcDbEntity
  8
Ｓ_１_１
  6
CONTINUOUS
 62
     3
100
AcDbLine
 10
1099.9999970198
 20
2299.99999701985
 30
0.0
 11
700.0000029803
 21
2299.99999701985
 31
0.0
  0
LINE
  5
594
330
1F
100
AcDbEntity
  8
Ｓ_１_１
  6
CONTINUOUS
 62
     3
100
AcDbLine
 10
1099.9999970198
 20
1900.000079274251
 30
0.0
 11
700.0000029803
 21
1900.000079274251
 31
0.0
  0
LINE
  5
595
330
1F
100
AcDbEntity
  8
Ｓ_１_１
  6
CONTINUOUS
 62
     3
100
AcDbLine
 10
800.0000014901002
 20
2199.99999850995
 30
0.0
 11
800.0000014901002
 21
2187.99987661845
 31
0.0
  0
LINE
  5
596
330
1F
100
AcDbEntity
  8
Ｓ_１_１
  6
CONTINUOUS
 62
     3
100
AcDbLine
 10
800.0000014901002
 20
2012.00012338175
 30
0.0
 11
800.0000014901002
 21
2000.00000149025
 31
0.0
  0
LINE
  5
597
330
1F
100
AcDbEntity
  8
Ｓ_１_１
  6
CONTINUOUS
 62
     3
100
AcDbLine
 10
999.9999985098999
 20
2199.99999850995
 30
0.0
 11
999.9999985098999
 21
2187.99987661845
 31
0.0
  0
LINE
  5
598
330
1F
100
AcDbEntity
  8
Ｓ_１_１
  6
CONTINUOUS
 62
     3
100
AcDbLine
 10
999.9999985098999
 20
2012.00012338175
 30
0.0
 11
999.9999985098999
 21
2000.00000149025
 31
0.0
  0
TEXT
  5
599
330
1F
100
AcDbEntity
  8
Ｓ_１_１
  6
CONTINUOUS
 62
     4
100
AcDbText
 10
750.0000000000002
 20
2809.4921875
 30
0.0
 40
51.9435623556582
  1
A-A断面図
 41
0.999230769230769
  7
EXCADTTF1
 72
     5
 11
1053.75
 21
2809.4921875
 31
0.0
100
AcDbText
  0
LINE
  5
59A
330
1F
100
AcDbEntity
  8
Ｓ_１_１
  6
CONTINUOUS
 62
     3
100
AcDbLine
 10
752.1000000000004
 20
2801.65
 30
0.0
 11
1048.05
 21
2801.65
 31
0.0
  0
LINE
  5
59B
330
1F
100
AcDbEntity
  8
Ｓ_１_１
  6
CONTINUOUS
 62
     3
100
AcDbLine
 10
5402.85
 20
2965.5
 30
0.0
 11
5628.75
 21
2965.5
 31
0.0
  0
ENDSEC
  0
SECTION
  2
OBJECTS
  0
DICTIONARY
  5
C
330
0
100
AcDbDictionary
  3
ACAD_GROUP
350
D
  3
ACAD_LAYOUT
350
1A
  3
ACAD_MATERIAL
350
43
  3
ACAD_MLEADERSTYLE
350
6B
  3
ACAD_MLINESTYLE
350
17
  3
ACAD_PLOTSETTINGS
350
19
  3
ACAD_SCALELIST
350
47
  3
ACAD_VISUALSTYLE
350
2A
  3
ACDBHEADERROUNDTRIPXREC
350
59C
  3
ACDBVARIABLEDICTIONARY
350
5BD
  0
DICTIONARY
  5
5C8
330
8
100
AcDbDictionary
280
     1
  3
ACAD_XREC_ROUNDTRIP
360
5C9
  0
DICTIONARY
  5
D
102
{ACAD_REACTORS
330
C
102
}
330
C
100
AcDbDictionary
  0
DICTIONARY
  5
1A
102
{ACAD_REACTORS
330
C
102
}
330
C
100
AcDbDictionary
  0
DICTIONARY
  5
43
102
{ACAD_REACTORS
330
C
102
}
330
C
100
AcDbDictionary
  3
BYBLOCK
350
45
  3
BYLAYER
350
44
  3
GLOBAL
350
46
  0
DICTIONARY
  5
6B
102
{ACAD_REACTORS
330
C
102
}
330
C
100
AcDbDictionary
  3
STANDARD
350
6C
  0
DICTIONARY
  5
17
102
{ACAD_REACTORS
330
C
102
}
330
C
100
AcDbDictionary
  3
STANDARD
350
18
  0
DICTIONARY
  5
19
102
{ACAD_REACTORS
330
C
102
}
330
C
100
AcDbDictionary
  0
DICTIONARY
  5
47
102
{ACAD_REACTORS
330
C
102
}
330
C
100
AcDbDictionary
  3
A0
350
48
  3
A1
350
49
  3
A2
350
4A
  3
A3
350
4B
  3
A4
350
4C
  3
A5
350
4D
  3
A6
350
4E
  3
A7
350
4F
  3
A8
350
50
  3
A9
350
51
  3
B0
350
52
  3
B1
350
53
  3
B2
350
54
  3
B3
350
55
  3
B4
350
56
  3
B5
350
57
  3
B6
350
58
  3
B7
350
59
  3
B8
350
5A
  3
B9
350
5B
  3
C0
350
5C
  3
C1
350
5D
  3
C2
350
5E
  3
C3
350
5F
  3
C4
350
60
  3
C5
350
61
  3
C6
350
62
  3
C7
350
63
  3
C8
350
64
  3
C9
350
65
  3
D0
350
66
  3
D1
350
67
  3
D2
350
68
  0
DICTIONARY
  5
2A
102
{ACAD_REACTORS
330
C
102
}
330
C
100
AcDbDictionary
  3
2DWIREFRAME
350
2F
  3
BASIC
350
32
  3
BRIGHTEN
350
36
  3
COLORCHANGE
350
3A
  3
CONCEPTUAL
350
34
  3
DIM
350
35
  3
EDGECOLOROFF
350
3D
  3
FACEPATTERN
350
39
  3
FLAT
350
2B
  3
FLATWITHEDGES
350
2C
  3
GOURAUD
350
2D
  3
GOURAUDWITHEDGES
350
2E
  3
HIDDEN
350
31
  3
JITTEROFF
350
3B
  3
LINEPATTERN
350
38
  3
OVERHANGOFF
350
3C
  3
REALISTIC
350
33
  3
SHADED
350
42
  3
SHADED_WITH_EDGES
350
41
  3
SHADES_OF_GRAY
350
3E
  3
SKETCHY
350
3F
  3
THICKEN
350
37
  3
WIREFRAME
350
30
  3
X-RAY
350
40
  0
DICTIONARY
  5
59C
102
{ACAD_REACTORS
330
C
102
}
330
C
100
AcDbDictionary
  3
CEPSNID
350
5A6
  3
CEPSNTYPE
350
5A5
  3
DIMSTYLEDATA
350
5BC
  3
FINGERPRINTGUID
350
5A7
  3
HYPERLINKBASE
350
59F
  3
INSUNITS
350
5A4
  3
LAYOUTDICT
350
5A1
  3
LWETCUNION
350
5A3
  3
PLOTSETDICT
350
5A2
  3
PSVPSCALE
350
5A9
  3
PUCSBASE
350
5AC
  3
PUCSORGBACK
350
5B2
  3
PUCSORGBOTTOM
350
5AE
  3
PUCSORGFRONT
350
5B1
  3
PUCSORGLEFT
350
5AF
  3
PUCSORGRIGHT
350
5B0
  3
PUCSORGTOP
350
5AD
  3
PUCSORTHOREF
350
5AA
  3
PUCSORTHOVIEW
350
5AB
  3
STYLESHEET
350
5A0
  3
TSTACKALIGN
350
59D
  3
TSTACKSIZE
350
59E
  3
UCSBASE
350
5B5
  3
UCSORGBACK
350
5BB
  3
UCSORGBOTTOM
350
5B7
  3
UCSORGFRONT
350
5BA
  3
UCSORGLEFT
350
5B8
  3
UCSORGRIGHT
350
5B9
  3
UCSORGTOP
350
5B6
  3
UCSORTHOREF
350
5B3
  3
UCSORTHOVIEW
350
5B4
  3
VERSIONGUID
350
5A8
  0
DICTIONARY
  5
5BD
102
{ACAD_REACTORS
330
C
102
}
330
C
100
AcDbDictionary
  3
CANNOSCALE
350
5CA
  3
CENTEREXE
350
5C4
  3
CENTERLTYPEFILE
350
5C5
  3
CMLEADERSTYLE
350
5BF
  3
CTABLESTYLE
350
5BE
  3
DIMASSOC
350
5C6
  3
HIDETEXT
350
5C7
  3
MSLTSCALE
350
5CB
  3
PSOLHEIGHT
350
5C1
  3
PSOLWIDTH
350
5C0
  0
XRECORD
  5
5C9
102
{ACAD_REACTORS
330
5C8
102
}
330
5C8
100
AcDbXrecord
102
VTR_0.000_0.000_1.000_1.000_VISUALSTYLE
340
2F
102
VTR_0.000_0.000_1.000_1.000_GRIDDISPLAY
 70
     3
102
VTR_0.000_0.000_1.000_1.000_GRIDMAJOR
 70
     5
102
VTR_0.000_0.000_1.000_1.000_DEFAULTLIGHTING
280
     1
102
VTR_0.000_0.000_1.000_1.000_DEFAULTLIGHTINGTYPE
 70
     1
102
VTR_0.000_0.000_1.000_1.000_BRIGHTNESS
141
0.0
102
VTR_0.000_0.000_1.000_1.000_CONTRAST
142
0.0
  0
MATERIAL
  5
45
102
{ACAD_REACTORS
330
43
102
}
102
{ACAD_XDICTIONARY
360
5CE
102
}
330
43
100
AcDbMaterial
  1
BYBLOCK
  0
MATERIAL
  5
44
102
{ACAD_REACTORS
330
43
102
}
102
{ACAD_XDICTIONARY
360
5CC
102
}
330
43
100
AcDbMaterial
  1
BYLAYER
  0
MATERIAL
  5
46
102
{ACAD_REACTORS
330
43
102
}
102
{ACAD_XDICTIONARY
360
5D0
102
}
330
43
100
AcDbMaterial
  1
GLOBAL
  0
ACAD_PROXY_OBJECT
  5
6C
102
{ACAD_REACTORS
330
6B
102
}
330
6B
100
AcDbProxyObject
 90
      499
 91
      505
 93
      610
310
40901902A4063FBFFFFFE0000000000000020400000000000020404214DD185B99185C990000000000000104090141901A00000000000004100000000000000041025764000000000000039000
340
14
340
0
340
11
340
0
 94
        0
1001
ACAD_MLEADERVER
1070
     2
  0
MLINESTYLE
  5
18
102
{ACAD_REACTORS
330
17
102
}
330
17
100
AcDbMlineStyle
  2
Standard
 70
     0
  3

 62
   256
 51
90.0
 52
90.0
 71
     2
 49
0.5
 62
   256
  6
BYLAYER
 49
-0.5
 62
   256
  6
BYLAYER
  0
ACAD_PROXY_OBJECT
  5
48
102
{ACAD_REACTORS
330
47
102
}
330
47
100
AcDbProxyObject
 90
      499
 91
      503
 93
       41
310
903313A31580
  0
ACAD_PROXY_OBJECT
  5
49
102
{ACAD_REACTORS
330
47
102
}
330
47
100
AcDbProxyObject
 90
      499
 91
      503
 93
      105
310
903313A324000000000000004000
  0
ACAD_PROXY_OBJECT
  5
4A
102
{ACAD_REACTORS
330
47
102
}
330
47
100
AcDbProxyObject
 90
      499
 91
      503
 93
      105
310
903313A344000000000000104000
  0
ACAD_PROXY_OBJECT
  5
4B
102
{ACAD_REACTORS
330
47
102
}
330
47
100
AcDbProxyObject
 90
      499
 91
      503
 93
      105
310
903313A354000000000000144000
  0
ACAD_PROXY_OBJECT
  5
4C
102
{ACAD_REACTORS
330
47
102
}
330
47
100
AcDbProxyObject
 90
      499
 91
      503
 93
      105
310
903313A384000000000000204000
  0
ACAD_PROXY_OBJECT
  5
4D
102
{ACAD_REACTORS
330
47
102
}
330
47
100
AcDbProxyObject
 90
      499
 91
      503
 93
      113
310
904313A31304000000000000244000
  0
ACAD_PROXY_OBJECT
  5
4E
102
{ACAD_REACTORS
330
47
102
}
330
47
100
AcDbProxyObject
 90
      499
 91
      503
 93
      113
310
904313A31364000000000000304000
  0
ACAD_PROXY_OBJECT
  5
4F
102
{ACAD_REACTORS
330
47
102
}
330
47
100
AcDbProxyObject
 90
      499
 91
      503
 93
      113
310
904313A32304000000000000344000
  0
ACAD_PROXY_OBJECT
  5
50
102
{ACAD_REACTORS
330
47
102
}
330
47
100
AcDbProxyObject
 90
      499
 91
      503
 93
      113
310
904313A333040000000000003E4000
  0
ACAD_PROXY_OBJECT
  5
51
102
{ACAD_REACTORS
330
47
102
}
330
47
100
AcDbProxyObject
 90
      499
 91
      503
 93
      113
310
904313A34304000000000000444000
  0
ACAD_PROXY_OBJECT
  5
52
102
{ACAD_REACTORS
330
47
102
}
330
47
100
AcDbProxyObject
 90
      499
 91
      503
 93
      113
310
904313A35304000000000000494000
  0
ACAD_PROXY_OBJECT
  5
53
102
{ACAD_REACTORS
330
47
102
}
330
47
100
AcDbProxyObject
 90
      499
 91
      503
 93
      121
310
905313A3130304000000000000594000
  0
ACAD_PROXY_OBJECT
  5
54
102
{ACAD_REACTORS
330
47
102
}
330
47
100
AcDbProxyObject
 90
      499
 91
      503
 93
      105
310
903323A310000000000000010100
  0
ACAD_PROXY_OBJECT
  5
55
102
{ACAD_REACTORS
330
47
102
}
330
47
100
AcDbProxyObject
 90
      499
 91
      503
 93
      105
310
903343A310000000000000410100
  0
ACAD_PROXY_OBJECT
  5
56
102
{ACAD_REACTORS
330
47
102
}
330
47
100
AcDbProxyObject
 90
      499
 91
      503
 93
      105
310
903383A310000000000000810100
  0
ACAD_PROXY_OBJECT
  5
57
102
{ACAD_REACTORS
330
47
102
}
330
47
100
AcDbProxyObject
 90
      499
 91
      503
 93
      113
310
90431303A310000000000000910100
  0
ACAD_PROXY_OBJECT
  5
58
102
{ACAD_REACTORS
330
47
102
}
330
47
100
AcDbProxyObject
 90
      499
 91
      503
 93
      121
310
9053130303A310000000000001650100
  0
ACAD_PROXY_OBJECT
  5
59
102
{ACAD_REACTORS
330
47
102
}
330
47
100
AcDbProxyObject
 90
      499
 91
      503
 93
      257
310
90E312F31323822203D2031272D3022000000000000200FC000000000000284000
  0
ACAD_PROXY_OBJECT
  5
5A
102
{ACAD_REACTORS
330
47
102
}
330
47
100
AcDbProxyObject
 90
      499
 91
      503
 93
      249
310
90D312F363422203D2031272D3022000000000000240FC000000000000284000
  0
ACAD_PROXY_OBJECT
  5
5B
102
{ACAD_REACTORS
330
47
102
}
330
47
100
AcDbProxyObject
 90
      499
 91
      503
 93
      249
310
90D312F333222203D2031272D3022000000000000280FC000000000000284000
  0
ACAD_PROXY_OBJECT
  5
5C
102
{ACAD_REACTORS
330
47
102
}
330
47
100
AcDbProxyObject
 90
      499
 91
      503
 93
      249
310
90D312F313622203D2031272D30220000000000002C0FC000000000000284000
  0
ACAD_PROXY_OBJECT
  5
5D
102
{ACAD_REACTORS
330
47
102
}
330
47
100
AcDbProxyObject
 90
      499
 91
      503
 93
      249
310
90D332F333222203D2031272D30220000000000002E0FC000000000000284000
  0
ACAD_PROXY_OBJECT
  5
5E
102
{ACAD_REACTORS
330
47
102
}
330
47
100
AcDbProxyObject
 90
      499
 91
      503
 93
      241
310
90C312F3822203D2031272D3022000000000000300FC000000000000284000
  0
ACAD_PROXY_OBJECT
  5
5F
102
{ACAD_REACTORS
330
47
102
}
330
47
100
AcDbProxyObject
 90
      499
 91
      503
 93
      249
310
90D332F313622203D2031272D3022000000000000320FC000000000000284000
  0
ACAD_PROXY_OBJECT
  5
60
102
{ACAD_REACTORS
330
47
102
}
330
47
100
AcDbProxyObject
 90
      499
 91
      503
 93
      241
310
90C312F3422203D2031272D3022000000000000340FC000000000000284000
  0
ACAD_PROXY_OBJECT
  5
61
102
{ACAD_REACTORS
330
47
102
}
330
47
100
AcDbProxyObject
 90
      499
 91
      503
 93
      241
310
90C332F3822203D2031272D3022000000000000360FC000000000000284000
  0
ACAD_PROXY_OBJECT
  5
62
102
{ACAD_REACTORS
330
47
102
}
330
47
100
AcDbProxyObject
 90
      499
 91
      503
 93
      241
310
90C312F3222203D2031272D3022000000000000380FC000000000000284000
  0
ACAD_PROXY_OBJECT
  5
63
102
{ACAD_REACTORS
330
47
102
}
330
47
100
AcDbProxyObject
 90
      499
 91
      503
 93
      241
310
90C332F3422203D2031272D30220000000000003A0FC000000000000284000
  0
ACAD_PROXY_OBJECT
  5
64
102
{ACAD_REACTORS
330
47
102
}
330
47
100
AcDbProxyObject
 90
      499
 91
      503
 93
      161
310
90A3122203D2031272D30224000000000000284000
  0
ACAD_PROXY_OBJECT
  5
65
102
{ACAD_REACTORS
330
47
102
}
330
47
100
AcDbProxyObject
 90
      499
 91
      503
 93
      257
310
90E312D312F3222203D2031272D30220000000000003E0FC000000000000284000
  0
ACAD_PROXY_OBJECT
  5
66
102
{ACAD_REACTORS
330
47
102
}
330
47
100
AcDbProxyObject
 90
      499
 91
      503
 93
      225
310
90A3322203D2031272D302200000000000002100000000000000284000
  0
ACAD_PROXY_OBJECT
  5
67
102
{ACAD_REACTORS
330
47
102
}
330
47
100
AcDbProxyObject
 90
      499
 91
      503
 93
      225
310
90A3622203D2031272D302200000000000006100000000000000284000
  0
ACAD_PROXY_OBJECT
  5
68
102
{ACAD_REACTORS
330
47
102
}
330
47
100
AcDbProxyObject
 90
      499
 91
      503
 93
      249
310
90D31272D3022203D2031272D30220000000000000A100000000000000284000
  0
ACAD_PROXY_OBJECT
  5
2F
102
{ACAD_REACTORS
330
2A
102
}
330
2A
100
AcDbProxyObject
 90
      499
 91
      501
 93
      436
310
42CC9915DA5C99599C985B595049028333333333333E33F0000000000000F90107901411070040501600405405064090741402480A0340
1001
ACAD
1000
AcDbSavedByObjectVersion
1070
     0
  0
ACAD_PROXY_OBJECT
  5
32
102
{ACAD_REACTORS
330
2A
102
}
330
2A
100
AcDbProxyObject
 90
      499
 91
      501
 93
      388
310
4150985CDA58D07406404333333333333E33F0000000000000F90107A41107004050150841D405064090741402480A0350
1001
ACAD
1000
AcDbSavedByObjectVersion
1070
     0
  0
ACAD_PROXY_OBJECT
  5
36
102
{ACAD_REACTORS
330
2A
102
}
330
2A
100
AcDbProxyObject
 90
      499
 91
      501
 93
      428
310
42109C9A59DA1D195B90C409028333333333333E33F0000000000000F9010790141107004050150841D405064090741402480A029950
1001
ACAD
1000
AcDbSavedByObjectVersion
1070
     0
  0
ACAD_PROXY_OBJECT
  5
3A
102
{ACAD_REACTORS
330
2A
102
}
330
2A
100
AcDbProxyObject
 90
      499
 91
      501
 93
      452
310
42D0DBDB1BDC90DA185B99D95104090240C333333333333E33F0000000000000F90108901411070040501508421405064090741402480A0350
1001
ACAD
1000
AcDbSavedByObjectVersion
1070
     0
  0
ACAD_PROXY_OBJECT
  5
34
102
{ACAD_REACTORS
330
2A
102
}
330
2A
100
AcDbProxyObject
 90
      499
 91
      501
 93
      500
310
4290DBDB98D95C1D1D585B10940D028333333333333E33F0000000000000F90107902409070040501000000000018199010841D405064090740C02480A0340
1001
ACAD
1000
AcDbSavedByObjectVersion
1070
     0
  0
ACAD_PROXY_OBJECT
  5
35
102
{ACAD_REACTORS
330
2A
102
}
330
2A
100
AcDbProxyObject
 90
      499
 91
      501
 93
      412
310
40D11A5B50B409028333333333333E33F0000000000000F9010790141107004050150841D405064090741402480A02677FFFFFD0
1001
ACAD
1000
AcDbSavedByObjectVersion
1070
     0
  0
ACAD_PROXY_OBJECT
  5
3D
102
{ACAD_REACTORS
330
2A
102
}
330
2A
100
AcDbProxyObject
 90
      499
 91
      501
 93
      452
310
43115919D950DBDB1BDC93D999916409028333333333333E33F0000000000000F9010790141107004050150841D405064090741402480A0350
1001
ACAD
1000
AcDbSavedByObjectVersion
1070
     0
  0
ACAD_PROXY_OBJECT
  5
39
102
{ACAD_REACTORS
330
2A
102
}
330
2A
100
AcDbProxyObject
 90
      499
 91
      501
 93
      444
310
42D19858D95C185D1D195C9B90F409028333333333333E33F0000000000000F9010790141107004050150841D405064090741402480A0350
1001
ACAD
1000
AcDbSavedByObjectVersion
1070
     0
  0
ACAD_PROXY_OBJECT
  5
2B
102
{ACAD_REACTORS
330
2A
102
}
330
2A
100
AcDbProxyObject
 90
      499
 91
      501
 93
      380
310
41119B185D240901404333333333333E33F0000000000000F9010740A907004050150841D405064090741402480A1B50
1001
ACAD
1000
AcDbSavedByObjectVersion
1070
     0
  0
ACAD_PROXY_OBJECT
  5
2C
102
{ACAD_REACTORS
330
2A
102
}
330
2A
100
AcDbProxyObject
 90
      499
 91
      501
 93
      468
310
43519B185D15DA5D1A115919D95CD0140901404333333333333E33F0000000000000F90107409019070040501600405405064090741402480A1B50
1001
ACAD
1000
AcDbSavedByObjectVersion
1070
     0
  0
ACAD_PROXY_OBJECT
  5
2D
102
{ACAD_REACTORS
330
2A
102
}
330
2A
100
AcDbProxyObject
 90
      499
 91
      501
 93
      404
310
41D1DBDD5C985D5910240902404333333333333E33F0000000000000F9010740A9070040501641D405064090741402480A1B50
1001
ACAD
1000
AcDbSavedByObjectVersion
1070
     0
  0
ACAD_PROXY_OBJECT
  5
2E
102
{ACAD_REACTORS
330
2A
102
}
330
2A
100
AcDbProxyObject
 90
      499
 91
      501
 93
      492
310
4411DBDD5C985D5915DA5D1A115919D95CD0340902404333333333333E33F0000000000000F90107409019070040501600405405064090741402480A1B50
1001
ACAD
1000
AcDbSavedByObjectVersion
1070
     0
  0
ACAD_PROXY_OBJECT
  5
31
102
{ACAD_REACTORS
330
2A
102
}
330
2A
100
AcDbProxyObject
 90
      499
 91
      501
 93
      476
310
41921A5919195B90640502408333333333333E33F0000000000000F901079024090700405020000000000001110200405405064090740C02480A0340
1001
ACAD
1000
AcDbSavedByObjectVersion
1070
     0
  0
ACAD_PROXY_OBJECT
  5
3B
102
{ACAD_REACTORS
330
2A
102
}
330
2A
100
AcDbProxyObject
 90
      499
 91
      501
 93
      428
310
42529A5D1D195C93D999914409028333333333333E33F0000000000000F9010790141107004050150A41D405064090741402480A0350
1001
ACAD
1000
AcDbSavedByObjectVersion
1070
     0
  0
ACAD_PROXY_OBJECT
  5
38
102
{ACAD_REACTORS
330
2A
102
}
330
2A
100
AcDbProxyObject
 90
      499
 91
      501
 93
      444
310
42D31A5B995C185D1D195C9B90E409028333333333333E33F0000000000000F9010790141107004050750841D405064090741402483A0350
1001
ACAD
1000
AcDbSavedByObjectVersion
1070
     0
  0
ACAD_PROXY_OBJECT
  5
3C
102
{ACAD_REACTORS
330
2A
102
}
330
2A
100
AcDbProxyObject
 90
      499
 91
      501
 93
      444
310
42D3DD995C9A185B99D3D999915409028333333333333E33F0000000000000F9010790141107004050150941D405064090741402480A0350
1001
ACAD
1000
AcDbSavedByObjectVersion
1070
     0
  0
ACAD_PROXY_OBJECT
  5
33
102
{ACAD_REACTORS
330
2A
102
}
330
2A
100
AcDbProxyObject
 90
      499
 91
      501
 93
      428
310
425499585B1A5CDD1A58D08409038333333333333E33F0000000000000F9010740A907004050150800405405064090740C02480A1B40
1001
ACAD
1000
AcDbSavedByObjectVersion
1070
     0
  0
ACAD_PROXY_OBJECT
  5
42
102
{ACAD_REACTORS
330
2A
102
}
330
2A
100
AcDbProxyObject
 90
      499
 91
      501
 93
      420
310
4194DA1859195911B40902404333333333333E33F0000000000000F9010740A41107004050150800405405064090840C02480A0B40
1001
ACAD
1000
AcDbSavedByObjectVersion
1070
     0
  0
ACAD_PROXY_OBJECT
  5
41
102
{ACAD_REACTORS
330
2A
102
}
330
2A
100
AcDbProxyObject
 90
      499
 91
      501
 93
      516
310
4454DA18591959081DDA5D1A08195919D95CD1A40902404333333333333E33F0000000000000F901074090142907004050250800405405064090740C02480A0B40
1001
ACAD
1000
AcDbSavedByObjectVersion
1070
     0
  0
ACAD_PROXY_OBJECT
  5
3E
102
{ACAD_REACTORS
330
2A
102
}
330
2A
100
AcDbProxyObject
 90
      499
 91
      501
 93
      532
310
4394DA1859195CC81BD98811DC985E5174090240C333333333333E33F0000000000000F901079024090741D01000000000000111010841D405064090740C02480A0340
1001
ACAD
1000
AcDbSavedByObjectVersion
1070
     0
  0
ACAD_PROXY_OBJECT
  5
3F
102
{ACAD_REACTORS
330
2A
102
}
330
2A
100
AcDbProxyObject
 90
      499
 91
      501
 93
      476
310
41D4DAD95D18DA1E51840502408333333333333E33F0000000000000F901079024090741D01000000000000111010B41D405064090741802480A0340
1001
ACAD
1000
AcDbSavedByObjectVersion
1070
     0
  0
ACAD_PROXY_OBJECT
  5
37
102
{ACAD_REACTORS
330
2A
102
}
330
2A
100
AcDbProxyObject
 90
      499
 91
      501
 93
      412
310
41D51A1A58DAD95B90D409028333333333333E33F0000000000000F9010790141107004050150C41D405064090741402480A0350
1001
ACAD
1000
AcDbSavedByObjectVersion
1070
     0
  0
ACAD_PROXY_OBJECT
  5
30
102
{ACAD_REACTORS
330
2A
102
}
330
2A
100
AcDbProxyObject
 90
      499
 91
      501
 93
      420
310
4255DA5C99599C985B595059028333333333333E33F0000000000000F90107901411070040501600405405064090740C02480A0340
1001
ACAD
1000
AcDbSavedByObjectVersion
1070
     0
  0
ACAD_PROXY_OBJECT
  5
40
102
{ACAD_REACTORS
330
2A
102
}
330
2A
100
AcDbProxyObject
 90
      499
 91
      501
 93
      404
310
41560B54985E51940902404000000000000E03F0000000000000F9010740501907004050150841D405064090740C02480A1B40
1001
ACAD
1000
AcDbSavedByObjectVersion
1070
     0
  0
XRECORD
  5
5A6
102
{ACAD_REACTORS
330
59C
102
}
330
59C
100
AcDbXrecord
340
0
  0
XRECORD
  5
5A5
102
{ACAD_REACTORS
330
59C
102
}
330
59C
100
AcDbXrecord
 90
        0
  0
XRECORD
  5
5BC
102
{ACAD_REACTORS
330
59C
102
}
330
59C
100
AcDbXrecord
1000
DSTYLE
1002
{
1070
   340
340
11
1002
}
  0
XRECORD
  5
5A7
102
{ACAD_REACTORS
330
59C
102
}
330
59C
100
AcDbXrecord
  1
{94040e1c-8a73-4d97-abac-377e8c518f62}
  0
XRECORD
  5
59F
102
{ACAD_REACTORS
330
59C
102
}
330
59C
100
AcDbXrecord
  1

  0
XRECORD
  5
5A4
102
{ACAD_REACTORS
330
59C
102
}
330
59C
100
AcDbXrecord
 90
        4
  0
XRECORD
  5
5A1
102
{ACAD_REACTORS
330
59C
102
}
330
59C
100
AcDbXrecord
340
1A
  0
XRECORD
  5
5A3
102
{ACAD_REACTORS
330
59C
102
}
330
59C
100
AcDbXrecord
 90
    10781
  0
XRECORD
  5
5A2
102
{ACAD_REACTORS
330
59C
102
}
330
59C
100
AcDbXrecord
340
19
  0
XRECORD
  5
5A9
102
{ACAD_REACTORS
330
59C
102
}
330
59C
100
AcDbXrecord
 40
0.0
  0
XRECORD
  5
5AC
102
{ACAD_REACTORS
330
59C
102
}
330
59C
100
AcDbXrecord
340
0
  0
XRECORD
  5
5B2
102
{ACAD_REACTORS
330
59C
102
}
330
59C
100
AcDbXrecord
 10
0.0
 20
0.0
 30
0.0
  0
XRECORD
  5
5AE
102
{ACAD_REACTORS
330
59C
102
}
330
59C
100
AcDbXrecord
 10
0.0
 20
0.0
 30
0.0
  0
XRECORD
  5
5B1
102
{ACAD_REACTORS
330
59C
102
}
330
59C
100
AcDbXrecord
 10
0.0
 20
0.0
 30
0.0
  0
XRECORD
  5
5AF
102
{ACAD_REACTORS
330
59C
102
}
330
59C
100
AcDbXrecord
 10
0.0
 20
0.0
 30
0.0
  0
XRECORD
  5
5B0
102
{ACAD_REACTORS
330
59C
102
}
330
59C
100
AcDbXrecord
 10
0.0
 20
0.0
 30
0.0
  0
XRECORD
  5
5AD
102
{ACAD_REACTORS
330
59C
102
}
330
59C
100
AcDbXrecord
 10
0.0
 20
0.0
 30
0.0
  0
XRECORD
  5
5AA
102
{ACAD_REACTORS
330
59C
102
}
330
59C
100
AcDbXrecord
340
0
  0
XRECORD
  5
5AB
102
{ACAD_REACTORS
330
59C
102
}
330
59C
100
AcDbXrecord
 70
     0
  0
XRECORD
  5
5A0
102
{ACAD_REACTORS
330
59C
102
}
330
59C
100
AcDbXrecord
  1

  0
XRECORD
  5
59D
102
{ACAD_REACTORS
330
59C
102
}
330
59C
100
AcDbXrecord
 90
        1
  0
XRECORD
  5
59E
102
{ACAD_REACTORS
330
59C
102
}
330
59C
100
AcDbXrecord
 90
       70
  0
XRECORD
  5
5B5
102
{ACAD_REACTORS
330
59C
102
}
330
59C
100
AcDbXrecord
340
0
  0
XRECORD
  5
5BB
102
{ACAD_REACTORS
330
59C
102
}
330
59C
100
AcDbXrecord
 10
0.0
 20
0.0
 30
0.0
  0
XRECORD
  5
5B7
102
{ACAD_REACTORS
330
59C
102
}
330
59C
100
AcDbXrecord
 10
0.0
 20
0.0
 30
0.0
  0
XRECORD
  5
5BA
102
{ACAD_REACTORS
330
59C
102
}
330
59C
100
AcDbXrecord
 10
0.0
 20
0.0
 30
0.0
  0
XRECORD
  5
5B8
102
{ACAD_REACTORS
330
59C
102
}
330
59C
100
AcDbXrecord
 10
0.0
 20
0.0
 30
0.0
  0
XRECORD
  5
5B9
102
{ACAD_REACTORS
330
59C
102
}
330
59C
100
AcDbXrecord
 10
0.0
 20
0.0
 30
0.0
  0
XRECORD
  5
5B6
102
{ACAD_REACTORS
330
59C
102
}
330
59C
100
AcDbXrecord
 10
0.0
 20
0.0
 30
0.0
  0
XRECORD
  5
5B3
102
{ACAD_REACTORS
330
59C
102
}
330
59C
100
AcDbXrecord
340
0
  0
XRECORD
  5
5B4
102
{ACAD_REACTORS
330
59C
102
}
330
59C
100
AcDbXrecord
 70
     0
  0
XRECORD
  5
5A8
102
{ACAD_REACTORS
330
59C
102
}
330
59C
100
AcDbXrecord
  1
{FAEB1C32-E019-11D5-929B-00C0DF256EC4}
  0
DICTIONARYVAR
  5
5CA
102
{ACAD_REACTORS
330
5BD
102
}
330
5BD
100
DictionaryVariables
280
     0
  1
1:1
  0
DICTIONARYVAR
  5
5C4
102
{ACAD_REACTORS
330
5BD
102
}
330
5BD
100
DictionaryVariables
280
     0
  1
3.500000
  0
DICTIONARYVAR
  5
5C5
102
{ACAD_REACTORS
330
5BD
102
}
330
5BD
100
DictionaryVariables
280
     0
  1
acadiso.lin
  0
DICTIONARYVAR
  5
5BF
102
{ACAD_REACTORS
330
5BD
102
}
330
5BD
100
DictionaryVariables
280
     0
  1
Standard
  0
DICTIONARYVAR
  5
5BE
102
{ACAD_REACTORS
330
5BD
102
}
330
5BD
100
DictionaryVariables
280
     0
  1
Standard
  0
DICTIONARYVAR
  5
5C6
102
{ACAD_REACTORS
330
5BD
102
}
330
5BD
100
DictionaryVariables
280
     0
  1
2
  0
DICTIONARYVAR
  5
5C7
102
{ACAD_REACTORS
330
5BD
102
}
330
5BD
100
DictionaryVariables
280
     0
  1
1
  0
DICTIONARYVAR
  5
5CB
102
{ACAD_REACTORS
330
5BD
102
}
330
5BD
100
DictionaryVariables
280
     0
  1
1
  0
DICTIONARYVAR
  5
5C1
102
{ACAD_REACTORS
330
5BD
102
}
330
5BD
100
DictionaryVariables
280
     0
  1
80.000000
  0
DICTIONARYVAR
  5
5C0
102
{ACAD_REACTORS
330
5BD
102
}
330
5BD
100
DictionaryVariables
280
     0
  1
5.000000
  0
DICTIONARY
  5
5CE
330
45
100
AcDbDictionary
280
     1
  3
ACAD_XREC_ROUNDTRIP
360
5CF
  0
DICTIONARY
  5
5CC
330
44
100
AcDbDictionary
280
     1
  3
ACAD_XREC_ROUNDTRIP
360
5CD
  0
DICTIONARY
  5
5D0
330
46
100
AcDbDictionary
280
     1
  3
ACAD_XREC_ROUNDTRIP
360
5D1
  0
XRECORD
  5
5CF
102
{ACAD_REACTORS
330
5CE
102
}
330
5CE
100
AcDbXrecord
102
MATERIAL
148
0.0
149
0.0
149
0.0
 93
        0
 94
      127
282
     0
 72
     1
 77
     1
171
     1
175
     1
179
     1
273
     0
  0
XRECORD
  5
5CD
102
{ACAD_REACTORS
330
5CC
102
}
330
5CC
100
AcDbXrecord
102
MATERIAL
148
0.0
149
0.0
149
0.0
 93
        0
 94
      127
282
     0
 72
     1
 77
     1
171
     1
175
     1
179
     1
273
     0
  0
XRECORD
  5
5D1
102
{ACAD_REACTORS
330
5D0
102
}
330
5D0
100
AcDbXrecord
102
MATERIAL
148
0.0
149
0.0
149
0.0
 93
        0
 94
      127
282
     0
 72
     1
 77
     1
171
     1
175
     1
179
     1
273
     0
  0
ENDSEC
  0
EOF
