  0
SECTION
  2
HEADER
  9
$ACADVER
  1
AC1014
  9
$ACADMAINTVER
 70
     9
  9
$DWGCODEPAGE
  3
ANSI_932
  9
$INSBASE
 10
0.0
 20
0.0
 30
0.0
  9
$EXTMIN
 10
150.0
 20
150.0
 30
0.0
  9
$EXTMAX
 10
6150.0
 20
4305.0
 30
0.0
  9
$LIMMIN
 10
0.0
 20
0.0
  9
$LIMMAX
 10
420.0
 20
297.0
  9
$ORTHOMODE
 70
     0
  9
$REGENMODE
 70
     1
  9
$FILLMODE
 70
     1
  9
$QTEXTMODE
 70
     0
  9
$MIRRTEXT
 70
     1
  9
$DRAGMODE
 70
     2
  9
$LTSCALE
 40
1.0
  9
$OSMODE
 70
    37
  9
$ATTMODE
 70
     1
  9
$TEXTSIZE
 40
2.5
  9
$TRACEWID
 40
1.0
  9
$TEXTSTYLE
  7
STANDARD
  9
$CLAYER
  8
Ｓ_１_２０
  9
$CELTYPE
  6
BYLAYER
  9
$CECOLOR
 62
   256
  9
$CELTSCALE
 40
1.0
  9
$DELOBJ
 70
     1
  9
$DISPSILH
 70
     0
  9
$DIMSCALE
 40
1.0
  9
$DIMASZ
 40
2.5
  9
$DIMEXO
 40
0.625
  9
$DIMDLI
 40
3.75
  9
$DIMRND
 40
0.0
  9
$DIMDLE
 40
0.0
  9
$DIMEXE
 40
1.25
  9
$DIMTP
 40
0.0
  9
$DIMTM
 40
0.0
  9
$DIMTXT
 40
2.5
  9
$DIMCEN
 40
2.5
  9
$DIMTSZ
 40
0.0
  9
$DIMTOL
 70
     0
  9
$DIMLIM
 70
     0
  9
$DIMTIH
 70
     0
  9
$DIMTOH
 70
     0
  9
$DIMSE1
 70
     0
  9
$DIMSE2
 70
     0
  9
$DIMTAD
 70
     1
  9
$DIMZIN
 70
     8
  9
$DIMBLK
  1

  9
$DIMASO
 70
     1
  9
$DIMSHO
 70
     1
  9
$DIMPOST
  1

  9
$DIMAPOST
  1

  9
$DIMALT
 70
     0
  9
$DIMALTD
 70
     3
  9
$DIMALTF
 40
0.03937007874016
  9
$DIMLFAC
 40
1.0
  9
$DIMTOFL
 70
     1
  9
$DIMTVP
 40
0.0
  9
$DIMTIX
 70
     0
  9
$DIMSOXD
 70
     0
  9
$DIMSAH
 70
     0
  9
$DIMBLK1
  1

  9
$DIMBLK2
  1

  9
$DIMSTYLE
  2
ISO-25
  9
$DIMCLRD
 70
     0
  9
$DIMCLRE
 70
     0
  9
$DIMCLRT
 70
     0
  9
$DIMTFAC
 40
1.0
  9
$DIMGAP
 40
0.625
  9
$DIMJUST
 70
     0
  9
$DIMSD1
 70
     0
  9
$DIMSD2
 70
     0
  9
$DIMTOLJ
 70
     0
  9
$DIMTZIN
 70
     8
  9
$DIMALTZ
 70
     0
  9
$DIMALTTZ
 70
     0
  9
$DIMFIT
 70
     3
  9
$DIMUPT
 70
     0
  9
$DIMUNIT
 70
     2
  9
$DIMDEC
 70
     2
  9
$DIMTDEC
 70
     2
  9
$DIMALTU
 70
     2
  9
$DIMALTTD
 70
     3
  9
$DIMTXSTY
  7
STANDARD
  9
$DIMAUNIT
 70
     0
  9
$LUNITS
 70
     2
  9
$LUPREC
 70
     4
  9
$SKETCHINC
 40
1.0
  9
$FILLETRAD
 40
10.0
  9
$AUNITS
 70
     0
  9
$AUPREC
 70
     0
  9
$MENU
  1
.
  9
$ELEVATION
 40
0.0
  9
$PELEVATION
 40
0.0
  9
$THICKNESS
 40
0.0
  9
$LIMCHECK
 70
     0
  9
$CHAMFERA
 40
0.0
  9
$CHAMFERB
 40
0.0
  9
$CHAMFERC
 40
0.0
  9
$CHAMFERD
 40
0.0
  9
$SKPOLY
 70
     0
  9
$TDCREATE
 40
2459585.499567511
  9
$TDUPDATE
 40
2459585.499570359
  9
$TDINDWG
 40
0.0000000116
  9
$TDUSRTIMER
 40
0.0000000116
  9
$USRTIMER
 70
     1
  9
$ANGBASE
 50
0.0
  9
$ANGDIR
 70
     0
  9
$PDMODE
 70
     0
  9
$PDSIZE
 40
0.0
  9
$PLINEWID
 40
0.0
  9
$COORDS
 70
     1
  9
$SPLFRAME
 70
     0
  9
$SPLINETYPE
 70
     6
  9
$SPLINESEGS
 70
     8
  9
$ATTDIA
 70
     0
  9
$ATTREQ
 70
     1
  9
$HANDLING
 70
     1
  9
$HANDSEED
  5
6C6
  9
$SURFTAB1
 70
     6
  9
$SURFTAB2
 70
     6
  9
$SURFTYPE
 70
     6
  9
$SURFU
 70
     6
  9
$SURFV
 70
     6
  9
$UCSNAME
  2

  9
$UCSORG
 10
0.0
 20
0.0
 30
0.0
  9
$UCSXDIR
 10
1.0
 20
0.0
 30
0.0
  9
$UCSYDIR
 10
0.0
 20
1.0
 30
0.0
  9
$PUCSNAME
  2

  9
$PUCSORG
 10
0.0
 20
0.0
 30
0.0
  9
$PUCSXDIR
 10
1.0
 20
0.0
 30
0.0
  9
$PUCSYDIR
 10
0.0
 20
1.0
 30
0.0
  9
$USERI1
 70
     0
  9
$USERI2
 70
     0
  9
$USERI3
 70
     0
  9
$USERI4
 70
     0
  9
$USERI5
 70
     0
  9
$USERR1
 40
0.0
  9
$USERR2
 40
0.0
  9
$USERR3
 40
0.0
  9
$USERR4
 40
0.0
  9
$USERR5
 40
0.0
  9
$WORLDVIEW
 70
     1
  9
$SHADEDGE
 70
     3
  9
$SHADEDIF
 70
    70
  9
$TILEMODE
 70
     1
  9
$MAXACTVP
 70
    64
  9
$PINSBASE
 10
0.0
 20
0.0
 30
0.0
  9
$PLIMCHECK
 70
     0
  9
$PEXTMIN
 10
1.000000000000000E+20
 20
1.000000000000000E+20
 30
1.000000000000000E+20
  9
$PEXTMAX
 10
-1.000000000000000E+20
 20
-1.000000000000000E+20
 30
-1.000000000000000E+20
  9
$PLIMMIN
 10
0.0
 20
0.0
  9
$PLIMMAX
 10
420.0
 20
297.0
  9
$UNITMODE
 70
     0
  9
$VISRETAIN
 70
     1
  9
$PLINEGEN
 70
     0
  9
$PSLTSCALE
 70
     1
  9
$TREEDEPTH
 70
  3020
  9
$PICKSTYLE
 70
     1
  9
$CMLSTYLE
  2
STANDARD
  9
$CMLJUST
 70
     0
  9
$CMLSCALE
 40
20.0
  9
$PROXYGRAPHICS
 70
     1
  9
$MEASUREMENT
 70
     1
  0
ENDSEC
  0
SECTION
  2
CLASSES
  0
CLASS
  1
ACDBDICTIONARYWDFLT
  2
AcDbDictionaryWithDefault
  3
ObjectDBX Classes
 90
        0
280
     0
281
     0
  0
CLASS
  1
VISUALSTYLE
  2
AcDbVisualStyle
  3
ObjectDBX Classes
 90
     4095
280
     0
281
     0
  0
CLASS
  1
MATERIAL
  2
AcDbMaterial
  3
ObjectDBX Classes
 90
     1153
280
     0
281
     0
  0
CLASS
  1
SCALE
  2
AcDbScale
  3
ObjectDBX Classes
 90
     1153
280
     0
281
     0
  0
CLASS
  1
TABLESTYLE
  2
AcDbTableStyle
  3
ObjectDBX Classes
 90
     4095
280
     0
281
     0
  0
CLASS
  1
MLEADERSTYLE
  2
AcDbMLeaderStyle
  3
ACDB_MLEADERSTYLE_CLASS
 90
     4095
280
     0
281
     0
  0
CLASS
  1
SUN
  2
AcDbSun
  3
SCENEOE
 90
     1153
280
     0
281
     0
  0
CLASS
  1
DICTIONARYVAR
  2
AcDbDictionaryVar
  3
ObjectDBX Classes
 90
        0
280
     0
281
     0
  0
CLASS
  1
XRECORD
  2
AcDbXrecord
  3
ObjectDBX Classes
 90
        0
280
     0
281
     0
  0
CLASS
  1
LWPOLYLINE
  2
AcDbPolyline
  3
ObjectDBX Classes
 90
        0
280
     0
281
     1
  0
CLASS
  1
HATCH
  2
AcDbHatch
  3
ObjectDBX Classes
 90
        0
280
     0
281
     1
  0
CLASS
  1
ACDBPLACEHOLDER
  2
AcDbPlaceHolder
  3
ObjectDBX Classes
 90
        0
280
     0
281
     0
  0
CLASS
  1
LAYOUT
  2
AcDbLayout
  3
ObjectDBX Classes
 90
        0
280
     0
281
     0
  0
ENDSEC
  0
SECTION
  2
TABLES
  0
TABLE
  2
VPORT
  5
8
102
{ACAD_XDICTIONARY
360
6BB
102
}
330
0
100
AcDbSymbolTable
 70
     1
  0
VPORT
  5
29
330
8
100
AcDbSymbolTableRecord
100
AcDbViewportTableRecord
  2
*ACTIVE
 70
     0
 10
0.0
 20
0.0
 11
1.0
 21
1.0
 12
3150.0
 22
2227.5
 13
0.0
 23
0.0
 14
10.0
 24
10.0
 15
10.0
 25
10.0
 16
0.0
 26
0.0
 36
1.0
 17
0.0
 27
0.0
 37
0.0
 40
4155.0
 41
1.444043321299639
 42
50.0
 43
0.0
 44
0.0
 50
0.0
 51
0.0
 71
     0
 72
  1000
 73
     1
 74
     3
 75
     0
 76
     0
 77
     0
 78
     0
  0
ENDTAB
  0
TABLE
  2
LTYPE
  5
5
330
0
100
AcDbSymbolTable
 70
     7
  0
LTYPE
  5
14
330
5
100
AcDbSymbolTableRecord
100
AcDbLinetypeTableRecord
  2
BYBLOCK
 70
     0
  3

 72
    65
 73
     0
 40
0.0
  0
LTYPE
  5
15
330
5
100
AcDbSymbolTableRecord
100
AcDbLinetypeTableRecord
  2
BYLAYER
 70
     0
  3

 72
    65
 73
     0
 40
0.0
  0
LTYPE
  5
16
330
5
100
AcDbSymbolTableRecord
100
AcDbLinetypeTableRecord
  2
CONTINUOUS
 70
     0
  3
Solid line
 72
    65
 73
     0
 40
0.0
  0
LTYPE
  5
6E
330
5
100
AcDbSymbolTableRecord
100
AcDbLinetypeTableRecord
  2
EXLTYPE0
 70
     0
  3
破線
 72
    65
 73
     2
 40
4.0
 49
3.0
 74
     0
 49
-1.0
 74
     0
  0
LTYPE
  5
6F
330
5
100
AcDbSymbolTableRecord
100
AcDbLinetypeTableRecord
  2
EXLTYPE1
 70
     0
  3
点線
 72
    65
 73
     2
 40
2.0
 49
1.0
 74
     0
 49
-1.0
 74
     0
  0
LTYPE
  5
70
330
5
100
AcDbSymbolTableRecord
100
AcDbLinetypeTableRecord
  2
EXLTYPE2
 70
     0
  3
一点鎖線
 72
    65
 73
     4
 40
13.0
 49
10.0
 74
     0
 49
-1.0
 74
     0
 49
1.0
 74
     0
 49
-1.0
 74
     0
  0
LTYPE
  5
71
330
5
100
AcDbSymbolTableRecord
100
AcDbLinetypeTableRecord
  2
EXLTYPE3
 70
     0
  3
二点鎖線
 72
    65
 73
     6
 40
15.0
 49
10.0
 74
     0
 49
-1.0
 74
     0
 49
1.0
 74
     0
 49
-1.0
 74
     0
 49
1.0
 74
     0
 49
-1.0
 74
     0
  0
LTYPE
  5
72
330
5
100
AcDbSymbolTableRecord
100
AcDbLinetypeTableRecord
  2
EXLTYPE4
 70
     0
  3
一点鎖線2
 72
    65
 73
     4
 40
3.5
 49
2.0
 74
     0
 49
-0.5
 74
     0
 49
0.5
 74
     0
 49
-0.5
 74
     0
  0
LTYPE
  5
73
330
5
100
AcDbSymbolTableRecord
100
AcDbLinetypeTableRecord
  2
EXLTYPE5
 70
     0
  3
二点鎖線2
 72
    65
 73
     6
 40
4.5
 49
2.0
 74
     0
 49
-0.5
 74
     0
 49
0.5
 74
     0
 49
-0.5
 74
     0
 49
0.5
 74
     0
 49
-0.5
 74
     0
  0
ENDTAB
  0
TABLE
  2
LAYER
  5
2
330
0
100
AcDbSymbolTable
 70
     4
  0
LAYER
  5
10
330
2
100
AcDbSymbolTableRecord
100
AcDbLayerTableRecord
  2
0
 70
     0
 62
     7
  6
CONTINUOUS
  0
LAYER
  5
76
330
2
100
AcDbSymbolTableRecord
100
AcDbLayerTableRecord
  2
図面枠
 70
     4
 62
     7
  6
CONTINUOUS
  0
LAYER
  5
77
330
2
100
AcDbSymbolTableRecord
100
AcDbLayerTableRecord
  2
Ｓ_１_２０
 70
     0
 62
     7
  6
CONTINUOUS
  0
LAYER
  5
127
330
2
100
AcDbSymbolTableRecord
100
AcDbLayerTableRecord
  2
DEFPOINTS
 70
     0
 62
     7
  6
CONTINUOUS
  0
ENDTAB
  0
TABLE
  2
STYLE
  5
3
330
0
100
AcDbSymbolTable
 70
     5
  0
STYLE
  5
11
330
3
100
AcDbSymbolTableRecord
100
AcDbTextStyleTableRecord
  2
STANDARD
 70
     0
 40
0.0
 41
1.0
 50
0.0
 71
     0
 42
2.5
  3
monotxt
  4
extfont
  0
STYLE
  5
74
330
3
100
AcDbSymbolTableRecord
100
AcDbTextStyleTableRecord
  2
EXCADSTD
 70
     0
 40
0.0
 41
1.0
 50
0.0
 71
     0
 42
2.5
  3
monotxt
  4
extfont
  0
STYLE
  5
75
330
3
100
AcDbSymbolTableRecord
100
AcDbTextStyleTableRecord
  2
EXCADVERT
 70
     4
 40
0.0
 41
1.0
 50
0.0
 71
     0
 42
2.5
  3
monotxt
  4
extfont
  0
STYLE
  5
DD
330
3
100
AcDbSymbolTableRecord
100
AcDbTextStyleTableRecord
  2
EXCADTTF1
 70
     0
 40
0.0
 41
1.0
 50
0.0
 71
     0
 42
2.5
  3
msgothic.ttc
  4

1001
ACAD
1000
MS Gothic
1071
    32817
  0
STYLE
  5
125
330
3
100
AcDbSymbolTableRecord
100
AcDbTextStyleTableRecord
  2
EXCADDIM1
 70
     0
 40
0.0
 41
1.0
 50
0.0
 71
     0
 42
2.5
  3
msgothic.ttc
  4

1001
ACAD
1000
MS Gothic
1071
    32817
  0
ENDTAB
  0
TABLE
  2
VIEW
  5
6
330
0
100
AcDbSymbolTable
 70
     0
  0
ENDTAB
  0
TABLE
  2
UCS
  5
7
330
0
100
AcDbSymbolTable
 70
     0
  0
ENDTAB
  0
TABLE
  2
APPID
  5
9
330
0
100
AcDbSymbolTable
 70
     2
  0
APPID
  5
12
330
9
100
AcDbSymbolTableRecord
100
AcDbRegAppTableRecord
  2
ACAD
 70
     0
  0
APPID
  5
6C5
330
9
100
AcDbSymbolTableRecord
100
AcDbRegAppTableRecord
  2
ACAD_MLEADERVER
 70
     0
  0
ENDTAB
  0
TABLE
  2
DIMSTYLE
  5
A
330
0
100
AcDbSymbolTable
 70
     1
  0
DIMSTYLE
105
27
102
{ACAD_REACTORS
330
126
330
132
330
13E
330
14A
330
157
330
162
330
16E
330
17B
330
188
330
193
330
19F
330
1AB
330
1B8
330
1C3
330
1D0
330
1DC
102
}
330
A
100
AcDbSymbolTableRecord
100
AcDbDimStyleTableRecord
  2
ISO-25
 70
     0
  3

  4

  5

  6

  7

 40
1.0
 41
2.5
 42
0.625
 43
3.75
 44
1.25
 45
0.0
 46
0.0
 47
0.0
 48
0.0
140
2.5
141
2.5
142
0.0
143
0.03937007874016
144
1.0
145
0.0
146
1.0
147
0.625
 71
     0
 72
     0
 73
     0
 74
     0
 75
     0
 76
     0
 77
     1
 78
     8
170
     0
171
     3
172
     1
173
     0
174
     0
175
     0
176
     0
177
     0
178
     0
270
     2
271
     2
272
     2
273
     2
274
     3
340
11
275
     0
280
     0
281
     0
282
     0
283
     0
284
     8
285
     0
286
     0
287
     5
288
     0
  0
ENDTAB
  0
TABLE
  2
BLOCK_RECORD
  5
1
330
0
100
AcDbSymbolTable
 70
    31
  0
BLOCK_RECORD
  5
1F
330
1
100
AcDbSymbolTableRecord
100
AcDbBlockTableRecord
  2
*MODEL_SPACE
  0
BLOCK_RECORD
  5
1B
330
1
100
AcDbSymbolTableRecord
100
AcDbBlockTableRecord
  2
*PAPER_SPACE
  0
BLOCK_RECORD
  5
78
330
1
100
AcDbSymbolTableRecord
100
AcDbBlockTableRecord
  2
EX_NORM
  0
BLOCK_RECORD
  5
7B
330
1
100
AcDbSymbolTableRecord
100
AcDbBlockTableRecord
  2
EX_BNORM
  0
BLOCK_RECORD
  5
7E
330
1
100
AcDbSymbolTableRecord
100
AcDbBlockTableRecord
  2
EX_BCIR
  0
BLOCK_RECORD
  5
81
330
1
100
AcDbSymbolTableRecord
100
AcDbBlockTableRecord
  2
EX_RCIVIL
  0
BLOCK_RECORD
  5
84
330
1
100
AcDbSymbolTableRecord
100
AcDbBlockTableRecord
  2
EX_SLANT
  0
BLOCK_RECORD
  5
87
330
1
100
AcDbSymbolTableRecord
100
AcDbBlockTableRecord
  2
EX_NONE
  0
BLOCK_RECORD
  5
8A
330
1
100
AcDbSymbolTableRecord
100
AcDbBlockTableRecord
  2
EX_CIVIL
  0
BLOCK_RECORD
  5
8D
330
1
100
AcDbSymbolTableRecord
100
AcDbBlockTableRecord
  2
EX_WCIR
  0
BLOCK_RECORD
  5
90
330
1
100
AcDbSymbolTableRecord
100
AcDbBlockTableRecord
  2
EX_WCIR2
  0
BLOCK_RECORD
  5
93
330
1
100
AcDbSymbolTableRecord
100
AcDbBlockTableRecord
  2
EX_WNORM
  0
BLOCK_RECORD
  5
96
330
1
100
AcDbSymbolTableRecord
100
AcDbBlockTableRecord
  2
EX_NNORM
  0
BLOCK_RECORD
  5
99
330
1
100
AcDbSymbolTableRecord
100
AcDbBlockTableRecord
  2
EX_BBOX
  0
BLOCK_RECORD
  5
9C
330
1
100
AcDbSymbolTableRecord
100
AcDbBlockTableRecord
  2
EX_WBOX
  0
BLOCK_RECORD
  5
9F
330
1
100
AcDbSymbolTableRecord
100
AcDbBlockTableRecord
  2
EX_INTEGRAL
  0
BLOCK_RECORD
  5
A2
330
1
100
AcDbSymbolTableRecord
100
AcDbBlockTableRecord
  2
$DOTFIL
  0
BLOCK_RECORD
  5
128
330
1
100
AcDbSymbolTableRecord
100
AcDbBlockTableRecord
  2
*D16
  0
BLOCK_RECORD
  5
133
330
1
100
AcDbSymbolTableRecord
100
AcDbBlockTableRecord
  2
*D17
  0
BLOCK_RECORD
  5
13F
330
1
100
AcDbSymbolTableRecord
100
AcDbBlockTableRecord
  2
*D18
  0
BLOCK_RECORD
  5
14B
330
1
100
AcDbSymbolTableRecord
100
AcDbBlockTableRecord
  2
*D19
  0
BLOCK_RECORD
  5
158
330
1
100
AcDbSymbolTableRecord
100
AcDbBlockTableRecord
  2
*D20
  0
BLOCK_RECORD
  5
163
330
1
100
AcDbSymbolTableRecord
100
AcDbBlockTableRecord
  2
*D21
  0
BLOCK_RECORD
  5
16F
330
1
100
AcDbSymbolTableRecord
100
AcDbBlockTableRecord
  2
*D22
  0
BLOCK_RECORD
  5
17C
330
1
100
AcDbSymbolTableRecord
100
AcDbBlockTableRecord
  2
*D23
  0
BLOCK_RECORD
  5
189
330
1
100
AcDbSymbolTableRecord
100
AcDbBlockTableRecord
  2
*D24
  0
BLOCK_RECORD
  5
194
330
1
100
AcDbSymbolTableRecord
100
AcDbBlockTableRecord
  2
*D25
  0
BLOCK_RECORD
  5
1A0
330
1
100
AcDbSymbolTableRecord
100
AcDbBlockTableRecord
  2
*D26
  0
BLOCK_RECORD
  5
1AC
330
1
100
AcDbSymbolTableRecord
100
AcDbBlockTableRecord
  2
*D27
  0
BLOCK_RECORD
  5
1B9
330
1
100
AcDbSymbolTableRecord
100
AcDbBlockTableRecord
  2
*D28
  0
BLOCK_RECORD
  5
1C4
330
1
100
AcDbSymbolTableRecord
100
AcDbBlockTableRecord
  2
*D29
  0
BLOCK_RECORD
  5
1D1
330
1
100
AcDbSymbolTableRecord
100
AcDbBlockTableRecord
  2
*D30
  0
BLOCK_RECORD
  5
1DD
330
1
100
AcDbSymbolTableRecord
100
AcDbBlockTableRecord
  2
*D31
  0
ENDTAB
  0
ENDSEC
  0
SECTION
  2
BLOCKS
  0
BLOCK
  5
20
330
1F
100
AcDbEntity
  8
0
100
AcDbBlockBegin
  2
*MODEL_SPACE
 70
     0
 10
0.0
 20
0.0
 30
0.0
  3
*MODEL_SPACE
  1

  0
ENDBLK
  5
21
330
1F
100
AcDbEntity
  8
0
100
AcDbBlockEnd
  0
BLOCK
  5
1C
330
1B
100
AcDbEntity
 67
     1
  8
0
100
AcDbBlockBegin
  2
*PAPER_SPACE
 70
     0
 10
0.0
 20
0.0
 30
0.0
  3
*PAPER_SPACE
  1

  0
ENDBLK
  5
1D
330
1B
100
AcDbEntity
 67
     1
  8
0
100
AcDbBlockEnd
  0
BLOCK
  5
79
330
78
100
AcDbEntity
  8
0
100
AcDbBlockBegin
  2
EX_NORM
 70
     0
 10
0.0
 20
0.0
 30
0.0
  3
EX_NORM
  1

  0
LINE
  5
A5
330
78
100
AcDbEntity
  8
0
  6
CONTINUOUS
 62
     0
100
AcDbLine
 10
0.0
 20
0.0
 30
0.0
 11
-1.0
 21
0.0
 31
0.0
  0
LINE
  5
A6
330
78
100
AcDbEntity
  8
0
  6
CONTINUOUS
 62
     0
100
AcDbLine
 10
0.0
 20
0.0
 30
0.0
 11
-1.0
 21
0.166666667
 31
0.0
  0
LINE
  5
A7
330
78
100
AcDbEntity
  8
0
  6
CONTINUOUS
 62
     0
100
AcDbLine
 10
0.0
 20
0.0
 30
0.0
 11
-1.0
 21
-0.166666667
 31
0.0
  0
ENDBLK
  5
7A
330
78
100
AcDbEntity
  8
0
100
AcDbBlockEnd
  0
BLOCK
  5
7C
330
7B
100
AcDbEntity
  8
0
100
AcDbBlockBegin
  2
EX_BNORM
 70
     0
 10
0.0
 20
0.0
 30
0.0
  3
EX_BNORM
  1

  0
LINE
  5
A8
330
7B
100
AcDbEntity
  8
0
  6
CONTINUOUS
 62
     0
100
AcDbLine
 10
0.0
 20
0.0
 30
0.0
 11
-1.0
 21
0.0
 31
0.0
  0
LINE
  5
A9
330
7B
100
AcDbEntity
  8
0
  6
CONTINUOUS
 62
     0
100
AcDbLine
 10
0.0
 20
0.0
 30
0.0
 11
-1.0
 21
0.166666667
 31
0.0
  0
LINE
  5
AA
330
7B
100
AcDbEntity
  8
0
  6
CONTINUOUS
 62
     0
100
AcDbLine
 10
0.0
 20
0.0
 30
0.0
 11
-1.0
 21
-0.166666667
 31
0.0
  0
LINE
  5
AB
330
7B
100
AcDbEntity
  8
0
  6
CONTINUOUS
 62
     0
100
AcDbLine
 10
0.0
 20
0.0
 30
0.0
 11
-1.0
 21
0.083333333
 31
0.0
  0
LINE
  5
AC
330
7B
100
AcDbEntity
  8
0
  6
CONTINUOUS
 62
     0
100
AcDbLine
 10
0.0
 20
0.0
 30
0.0
 11
-1.0
 21
-0.083333333
 31
0.0
  0
LINE
  5
AD
330
7B
100
AcDbEntity
  8
0
  6
CONTINUOUS
 62
     0
100
AcDbLine
 10
-1.0
 20
0.166666667
 30
0.0
 11
-1.0
 21
-0.166666667
 31
0.0
  0
ENDBLK
  5
7D
330
7B
100
AcDbEntity
  8
0
100
AcDbBlockEnd
  0
BLOCK
  5
7F
330
7E
100
AcDbEntity
  8
0
100
AcDbBlockBegin
  2
EX_BCIR
 70
     0
 10
0.0
 20
0.0
 30
0.0
  3
EX_BCIR
  1

  0
LINE
  5
AE
330
7E
100
AcDbEntity
  8
0
  6
CONTINUOUS
 62
     0
100
AcDbLine
 10
0.0
 20
0.0
 30
0.0
 11
-1.0
 21
0.0
 31
0.0
  0
CIRCLE
  5
AF
330
7E
100
AcDbEntity
  8
0
  6
CONTINUOUS
 62
     0
100
AcDbCircle
 10
0.0
 20
0.0
 30
0.0
 40
0.5
  0
CIRCLE
  5
B0
330
7E
100
AcDbEntity
  8
0
  6
CONTINUOUS
 62
     0
100
AcDbCircle
 10
0.0
 20
0.0
 30
0.0
 40
0.25
  0
ENDBLK
  5
80
330
7E
100
AcDbEntity
  8
0
100
AcDbBlockEnd
  0
BLOCK
  5
82
330
81
100
AcDbEntity
  8
0
100
AcDbBlockBegin
  2
EX_RCIVIL
 70
     0
 10
0.0
 20
0.0
 30
0.0
  3
EX_RCIVIL
  1

  0
LINE
  5
B1
330
81
100
AcDbEntity
  8
0
  6
CONTINUOUS
 62
     0
100
AcDbLine
 10
0.0
 20
0.0
 30
0.0
 11
-1.0
 21
0.0
 31
0.0
  0
LINE
  5
B2
330
81
100
AcDbEntity
  8
0
  6
CONTINUOUS
 62
     0
100
AcDbLine
 10
-1.0
 20
-0.25
 30
0.0
 11
0.0
 21
-0.25
 31
0.0
  0
LINE
  5
B3
330
81
100
AcDbEntity
  8
0
  6
CONTINUOUS
 62
     0
100
AcDbLine
 10
-1.0
 20
-0.125
 30
0.0
 11
0.0
 21
-0.125
 31
0.0
  0
ENDBLK
  5
83
330
81
100
AcDbEntity
  8
0
100
AcDbBlockEnd
  0
BLOCK
  5
85
330
84
100
AcDbEntity
  8
0
100
AcDbBlockBegin
  2
EX_SLANT
 70
     0
 10
0.0
 20
0.0
 30
0.0
  3
EX_SLANT
  1

  0
LINE
  5
B4
330
84
100
AcDbEntity
  8
0
  6
CONTINUOUS
 62
     0
100
AcDbLine
 10
0.0
 20
0.0
 30
0.0
 11
-1.0
 21
0.0
 31
0.0
  0
LINE
  5
B5
330
84
100
AcDbEntity
  8
0
  6
CONTINUOUS
 62
     0
100
AcDbLine
 10
0.707106781
 20
0.707106781
 30
0.0
 11
-0.707106781
 21
-0.707106781
 31
0.0
  0
ENDBLK
  5
86
330
84
100
AcDbEntity
  8
0
100
AcDbBlockEnd
  0
BLOCK
  5
88
330
87
100
AcDbEntity
  8
0
100
AcDbBlockBegin
  2
EX_NONE
 70
     0
 10
0.0
 20
0.0
 30
0.0
  3
EX_NONE
  1

  0
LINE
  5
B6
330
87
100
AcDbEntity
  8
0
  6
CONTINUOUS
 62
     0
100
AcDbLine
 10
0.0
 20
0.0
 30
0.0
 11
-1.0
 21
0.0
 31
0.0
  0
ENDBLK
  5
89
330
87
100
AcDbEntity
  8
0
100
AcDbBlockEnd
  0
BLOCK
  5
8B
330
8A
100
AcDbEntity
  8
0
100
AcDbBlockBegin
  2
EX_CIVIL
 70
     0
 10
0.0
 20
0.0
 30
0.0
  3
EX_CIVIL
  1

  0
LINE
  5
B7
330
8A
100
AcDbEntity
  8
0
  6
CONTINUOUS
 62
     0
100
AcDbLine
 10
0.0
 20
0.0
 30
0.0
 11
-1.0
 21
0.0
 31
0.0
  0
LINE
  5
B8
330
8A
100
AcDbEntity
  8
0
  6
CONTINUOUS
 62
     0
100
AcDbLine
 10
-1.0
 20
0.25
 30
0.0
 11
0.0
 21
0.25
 31
0.0
  0
LINE
  5
B9
330
8A
100
AcDbEntity
  8
0
  6
CONTINUOUS
 62
     0
100
AcDbLine
 10
-1.0
 20
0.125
 30
0.0
 11
0.0
 21
0.125
 31
0.0
  0
ENDBLK
  5
8C
330
8A
100
AcDbEntity
  8
0
100
AcDbBlockEnd
  0
BLOCK
  5
8E
330
8D
100
AcDbEntity
  8
0
100
AcDbBlockBegin
  2
EX_WCIR
 70
     0
 10
0.0
 20
0.0
 30
0.0
  3
EX_WCIR
  1

  0
LINE
  5
BA
330
8D
100
AcDbEntity
  8
0
  6
CONTINUOUS
 62
     0
100
AcDbLine
 10
0.0
 20
0.0
 30
0.0
 11
-1.0
 21
0.0
 31
0.0
  0
CIRCLE
  5
BB
330
8D
100
AcDbEntity
  8
0
  6
CONTINUOUS
 62
     0
100
AcDbCircle
 10
0.0
 20
0.0
 30
0.0
 40
0.5
  0
ENDBLK
  5
8F
330
8D
100
AcDbEntity
  8
0
100
AcDbBlockEnd
  0
BLOCK
  5
91
330
90
100
AcDbEntity
  8
0
100
AcDbBlockBegin
  2
EX_WCIR2
 70
     0
 10
0.0
 20
0.0
 30
0.0
  3
EX_WCIR2
  1

  0
LINE
  5
BC
330
90
100
AcDbEntity
  8
0
  6
CONTINUOUS
 62
     0
100
AcDbLine
 10
-0.5
 20
0.0
 30
0.0
 11
-1.0
 21
0.0
 31
0.0
  0
CIRCLE
  5
BD
330
90
100
AcDbEntity
  8
0
  6
CONTINUOUS
 62
     0
100
AcDbCircle
 10
0.0
 20
0.0
 30
0.0
 40
0.5
  0
ENDBLK
  5
92
330
90
100
AcDbEntity
  8
0
100
AcDbBlockEnd
  0
BLOCK
  5
94
330
93
100
AcDbEntity
  8
0
100
AcDbBlockBegin
  2
EX_WNORM
 70
     0
 10
0.0
 20
0.0
 30
0.0
  3
EX_WNORM
  1

  0
LINE
  5
BE
330
93
100
AcDbEntity
  8
0
  6
CONTINUOUS
 62
     0
100
AcDbLine
 10
-1.0
 20
0.0
 30
0.0
 11
-1.0
 21
0.0
 31
0.0
  0
LINE
  5
BF
330
93
100
AcDbEntity
  8
0
  6
CONTINUOUS
 62
     0
100
AcDbLine
 10
0.0
 20
0.0
 30
0.0
 11
-1.0
 21
0.166666667
 31
0.0
  0
LINE
  5
C0
330
93
100
AcDbEntity
  8
0
  6
CONTINUOUS
 62
     0
100
AcDbLine
 10
0.0
 20
0.0
 30
0.0
 11
-1.0
 21
-0.166666667
 31
0.0
  0
LINE
  5
C1
330
93
100
AcDbEntity
  8
0
  6
CONTINUOUS
 62
     0
100
AcDbLine
 10
-1.0
 20
0.166666667
 30
0.0
 11
-1.0
 21
-0.166666667
 31
0.0
  0
ENDBLK
  5
95
330
93
100
AcDbEntity
  8
0
100
AcDbBlockEnd
  0
BLOCK
  5
97
330
96
100
AcDbEntity
  8
0
100
AcDbBlockBegin
  2
EX_NNORM
 70
     0
 10
0.0
 20
0.0
 30
0.0
  3
EX_NNORM
  1

  0
LINE
  5
C2
330
96
100
AcDbEntity
  8
0
  6
CONTINUOUS
 62
     0
100
AcDbLine
 10
0.0
 20
0.0
 30
0.0
 11
-1.0
 21
0.0
 31
0.0
  0
LINE
  5
C3
330
96
100
AcDbEntity
  8
0
  6
CONTINUOUS
 62
     0
100
AcDbLine
 10
0.0
 20
0.0
 30
0.0
 11
-1.0
 21
0.166666667
 31
0.0
  0
LINE
  5
C4
330
96
100
AcDbEntity
  8
0
  6
CONTINUOUS
 62
     0
100
AcDbLine
 10
0.0
 20
0.0
 30
0.0
 11
-1.0
 21
-0.166666667
 31
0.0
  0
LINE
  5
C5
330
96
100
AcDbEntity
  8
0
  6
CONTINUOUS
 62
     0
100
AcDbLine
 10
-1.0
 20
0.166666667
 30
0.0
 11
-1.0
 21
-0.166666667
 31
0.0
  0
ENDBLK
  5
98
330
96
100
AcDbEntity
  8
0
100
AcDbBlockEnd
  0
BLOCK
  5
9A
330
99
100
AcDbEntity
  8
0
100
AcDbBlockBegin
  2
EX_BBOX
 70
     0
 10
0.0
 20
0.0
 30
0.0
  3
EX_BBOX
  1

  0
LINE
  5
C6
330
99
100
AcDbEntity
  8
0
  6
CONTINUOUS
 62
     0
100
AcDbLine
 10
0.0
 20
0.0
 30
0.0
 11
-1.0
 21
0.0
 31
0.0
  0
LINE
  5
C7
330
99
100
AcDbEntity
  8
0
  6
CONTINUOUS
 62
     0
100
AcDbLine
 10
-0.5
 20
0.5
 30
0.0
 11
0.5
 21
0.5
 31
0.0
  0
LINE
  5
C8
330
99
100
AcDbEntity
  8
0
  6
CONTINUOUS
 62
     0
100
AcDbLine
 10
0.5
 20
0.5
 30
0.0
 11
0.5
 21
-0.5
 31
0.0
  0
LINE
  5
C9
330
99
100
AcDbEntity
  8
0
  6
CONTINUOUS
 62
     0
100
AcDbLine
 10
0.5
 20
-0.5
 30
0.0
 11
-0.5
 21
-0.5
 31
0.0
  0
LINE
  5
CA
330
99
100
AcDbEntity
  8
0
  6
CONTINUOUS
 62
     0
100
AcDbLine
 10
-0.5
 20
-0.5
 30
0.0
 11
-0.5
 21
0.5
 31
0.0
  0
LINE
  5
CB
330
99
100
AcDbEntity
  8
0
  6
CONTINUOUS
 62
     0
100
AcDbLine
 10
-0.25
 20
0.25
 30
0.0
 11
0.25
 21
0.25
 31
0.0
  0
LINE
  5
CC
330
99
100
AcDbEntity
  8
0
  6
CONTINUOUS
 62
     0
100
AcDbLine
 10
0.25
 20
0.25
 30
0.0
 11
0.25
 21
-0.25
 31
0.0
  0
LINE
  5
CD
330
99
100
AcDbEntity
  8
0
  6
CONTINUOUS
 62
     0
100
AcDbLine
 10
0.25
 20
-0.25
 30
0.0
 11
-0.25
 21
-0.25
 31
0.0
  0
LINE
  5
CE
330
99
100
AcDbEntity
  8
0
  6
CONTINUOUS
 62
     0
100
AcDbLine
 10
-0.25
 20
-0.25
 30
0.0
 11
-0.25
 21
0.25
 31
0.0
  0
ENDBLK
  5
9B
330
99
100
AcDbEntity
  8
0
100
AcDbBlockEnd
  0
BLOCK
  5
9D
330
9C
100
AcDbEntity
  8
0
100
AcDbBlockBegin
  2
EX_WBOX
 70
     0
 10
0.0
 20
0.0
 30
0.0
  3
EX_WBOX
  1

  0
LINE
  5
CF
330
9C
100
AcDbEntity
  8
0
  6
CONTINUOUS
 62
     0
100
AcDbLine
 10
-0.5
 20
0.0
 30
0.0
 11
-1.0
 21
0.0
 31
0.0
  0
LINE
  5
D0
330
9C
100
AcDbEntity
  8
0
  6
CONTINUOUS
 62
     0
100
AcDbLine
 10
-0.5
 20
0.5
 30
0.0
 11
0.5
 21
0.5
 31
0.0
  0
LINE
  5
D1
330
9C
100
AcDbEntity
  8
0
  6
CONTINUOUS
 62
     0
100
AcDbLine
 10
0.5
 20
0.5
 30
0.0
 11
0.5
 21
-0.5
 31
0.0
  0
LINE
  5
D2
330
9C
100
AcDbEntity
  8
0
  6
CONTINUOUS
 62
     0
100
AcDbLine
 10
0.5
 20
-0.5
 30
0.0
 11
-0.5
 21
-0.5
 31
0.0
  0
LINE
  5
D3
330
9C
100
AcDbEntity
  8
0
  6
CONTINUOUS
 62
     0
100
AcDbLine
 10
-0.5
 20
-0.5
 30
0.0
 11
-0.5
 21
0.5
 31
0.0
  0
ENDBLK
  5
9E
330
9C
100
AcDbEntity
  8
0
100
AcDbBlockEnd
  0
BLOCK
  5
A0
330
9F
100
AcDbEntity
  8
0
100
AcDbBlockBegin
  2
EX_INTEGRAL
 70
     0
 10
0.0
 20
0.0
 30
0.0
  3
EX_INTEGRAL
  1

  0
LINE
  5
D4
330
9F
100
AcDbEntity
  8
0
  6
CONTINUOUS
 62
     0
100
AcDbLine
 10
0.0
 20
0.0
 30
0.0
 11
-1.0
 21
0.0
 31
0.0
  0
ARC
  5
D5
330
9F
100
AcDbEntity
  8
0
  6
CONTINUOUS
 62
     0
100
AcDbCircle
 10
0.542115
 20
0.164992
 30
0.0
 40
0.56667
100
AcDbArc
 50
73.07249033629006
 51
196.9275130221199
  0
ARC
  5
D6
330
9F
100
AcDbEntity
  8
0
  6
CONTINUOUS
 62
     0
100
AcDbCircle
 10
-0.542115
 20
-0.164992
 30
0.0
 40
0.56667
100
AcDbArc
 50
253.0724869220464
 51
16.9275130559125
  0
ENDBLK
  5
A1
330
9F
100
AcDbEntity
  8
0
100
AcDbBlockEnd
  0
BLOCK
  5
A3
330
A2
100
AcDbEntity
  8
0
100
AcDbBlockBegin
  2
$DOTFIL
 70
     0
 10
0.0
 20
0.0
 30
0.0
  3
$DOTFIL
  1

  0
ARC
  5
D7
330
A2
100
AcDbEntity
  8
0
  6
CONTINUOUS
 62
    80
100
AcDbCircle
 10
0.0
 20
0.0
 30
0.0
 40
0.5
100
AcDbArc
 50
180.0
 51
0.0
  0
ARC
  5
D8
330
A2
100
AcDbEntity
  8
0
  6
CONTINUOUS
 62
    80
100
AcDbCircle
 10
0.0
 20
0.0
 30
0.0
 40
0.5
100
AcDbArc
 50
0.0
 51
180.0
  0
ENDBLK
  5
A4
330
A2
100
AcDbEntity
  8
0
100
AcDbBlockEnd
  0
BLOCK
  5
129
330
128
100
AcDbEntity
  8
0
100
AcDbBlockBegin
  2
*D16
 70
     1
 10
0.0
 20
0.0
 30
0.0
  3
*D16
  1

  0
LINE
  5
12B
330
128
100
AcDbEntity
  8
Ｓ_１_２０
  6
CONTINUOUS
 62
     2
100
AcDbLine
 10
1294.999996185303
 20
3700.0
 30
0.0
 11
1405.000003814697
 21
3700.0
 31
0.0
  0
INSERT
  5
12C
330
128
100
AcDbEntity
  8
Ｓ_１_２０
 62
     2
100
AcDbBlockReference
  2
EX_NORM
 10
1250.0
 20
3700.0
 30
0.0
 41
44.99999618530273
 42
44.99999618530273
 43
44.99999618530273
 50
180.0
  0
INSERT
  5
12D
330
128
100
AcDbEntity
  8
Ｓ_１_２０
 62
     2
100
AcDbBlockReference
  2
EX_NORM
 10
1450.0
 20
3700.0
 30
0.0
 41
44.99999618530273
 42
44.99999618530273
 43
44.99999618530273
  0
MTEXT
  5
12E
330
128
100
AcDbEntity
  8
Ｓ_１_２０
 62
     2
100
AcDbMText
 10
1350.0
 20
3741.25
 30
0.0
 40
51.9435623556582
 41
0.0
 71
     5
 72
     1
  1
200
  7
EXCADDIM1
  0
POINT
  5
12F
330
128
100
AcDbEntity
  8
DEFPOINTS
 62
     0
100
AcDbPoint
 10
1250.0
 20
3500.0
 30
0.0
  0
POINT
  5
130
330
128
100
AcDbEntity
  8
DEFPOINTS
 62
     0
100
AcDbPoint
 10
1450.0
 20
3306.94
 30
0.0
  0
POINT
  5
131
330
128
100
AcDbEntity
  8
DEFPOINTS
 62
     0
100
AcDbPoint
 10
1450.0
 20
3700.0
 30
0.0
  0
ENDBLK
  5
12A
330
128
100
AcDbEntity
  8
0
100
AcDbBlockEnd
  0
BLOCK
  5
134
330
133
100
AcDbEntity
  8
0
100
AcDbBlockBegin
  2
*D17
 70
     1
 10
0.0
 20
0.0
 30
0.0
  3
*D17
  1

  0
LINE
  5
136
330
133
100
AcDbEntity
  8
Ｓ_１_２０
  6
CONTINUOUS
 62
     2
100
AcDbLine
 10
1450.0
 20
3329.44
 30
0.0
 11
1450.0
 21
3715.0
 31
0.0
  0
LINE
  5
137
330
133
100
AcDbEntity
  8
Ｓ_１_２０
  6
CONTINUOUS
 62
     2
100
AcDbLine
 10
1494.999996185303
 20
3700.0
 30
0.0
 11
1905.000003814697
 21
3700.0
 31
0.0
  0
INSERT
  5
138
330
133
100
AcDbEntity
  8
Ｓ_１_２０
 62
     2
100
AcDbBlockReference
  2
EX_NORM
 10
1450.0
 20
3700.0
 30
0.0
 41
44.99999618530273
 42
44.99999618530273
 43
44.99999618530273
 50
180.0
  0
INSERT
  5
139
330
133
100
AcDbEntity
  8
Ｓ_１_２０
 62
     2
100
AcDbBlockReference
  2
EX_NORM
 10
1950.0
 20
3700.0
 30
0.0
 41
44.99999618530273
 42
44.99999618530273
 43
44.99999618530273
  0
MTEXT
  5
13A
330
133
100
AcDbEntity
  8
Ｓ_１_２０
 62
     2
100
AcDbMText
 10
1700.0
 20
3741.25
 30
0.0
 40
51.9435623556582
 41
0.0
 71
     5
 72
     1
  1
500
  7
EXCADDIM1
  0
POINT
  5
13B
330
133
100
AcDbEntity
  8
DEFPOINTS
 62
     0
100
AcDbPoint
 10
1450.0
 20
3306.94
 30
0.0
  0
POINT
  5
13C
330
133
100
AcDbEntity
  8
DEFPOINTS
 62
     0
100
AcDbPoint
 10
1950.0
 20
3304.58
 30
0.0
  0
POINT
  5
13D
330
133
100
AcDbEntity
  8
DEFPOINTS
 62
     0
100
AcDbPoint
 10
1950.0
 20
3700.0
 30
0.0
  0
ENDBLK
  5
135
330
133
100
AcDbEntity
  8
0
100
AcDbBlockEnd
  0
BLOCK
  5
140
330
13F
100
AcDbEntity
  8
0
100
AcDbBlockBegin
  2
*D18
 70
     1
 10
0.0
 20
0.0
 30
0.0
  3
*D18
  1

  0
LINE
  5
142
330
13F
100
AcDbEntity
  8
Ｓ_１_２０
  6
CONTINUOUS
 62
     2
100
AcDbLine
 10
1950.0
 20
3327.08
 30
0.0
 11
1950.0
 21
3715.0
 31
0.0
  0
LINE
  5
143
330
13F
100
AcDbEntity
  8
Ｓ_１_２０
  6
CONTINUOUS
 62
     2
100
AcDbLine
 10
1994.999996185303
 20
3700.0
 30
0.0
 11
2105.000003814697
 21
3700.0
 31
0.0
  0
INSERT
  5
144
330
13F
100
AcDbEntity
  8
Ｓ_１_２０
 62
     2
100
AcDbBlockReference
  2
EX_NORM
 10
1950.0
 20
3700.0
 30
0.0
 41
44.99999618530273
 42
44.99999618530273
 43
44.99999618530273
 50
180.0
  0
INSERT
  5
145
330
13F
100
AcDbEntity
  8
Ｓ_１_２０
 62
     2
100
AcDbBlockReference
  2
EX_NORM
 10
2150.0
 20
3700.0
 30
0.0
 41
44.99999618530273
 42
44.99999618530273
 43
44.99999618530273
  0
MTEXT
  5
146
330
13F
100
AcDbEntity
  8
Ｓ_１_２０
 62
     2
100
AcDbMText
 10
2050.000000000001
 20
3741.25
 30
0.0
 40
51.9435623556582
 41
0.0
 71
     5
 72
     1
  1
200
  7
EXCADDIM1
  0
POINT
  5
147
330
13F
100
AcDbEntity
  8
DEFPOINTS
 62
     0
100
AcDbPoint
 10
1950.0
 20
3304.58
 30
0.0
  0
POINT
  5
148
330
13F
100
AcDbEntity
  8
DEFPOINTS
 62
     0
100
AcDbPoint
 10
2150.0
 20
3500.0
 30
0.0
  0
POINT
  5
149
330
13F
100
AcDbEntity
  8
DEFPOINTS
 62
     0
100
AcDbPoint
 10
2150.0
 20
3700.0
 30
0.0
  0
ENDBLK
  5
141
330
13F
100
AcDbEntity
  8
0
100
AcDbBlockEnd
  0
BLOCK
  5
14C
330
14B
100
AcDbEntity
  8
0
100
AcDbBlockBegin
  2
*D19
 70
     1
 10
0.0
 20
0.0
 30
0.0
  3
*D19
  1

  0
LINE
  5
14E
330
14B
100
AcDbEntity
  8
Ｓ_１_２０
  6
CONTINUOUS
 62
     2
100
AcDbLine
 10
1250.0
 20
3522.5
 30
0.0
 11
1250.0
 21
3815.0
 31
0.0
  0
LINE
  5
14F
330
14B
100
AcDbEntity
  8
Ｓ_１_２０
  6
CONTINUOUS
 62
     2
100
AcDbLine
 10
2150.0
 20
3522.5
 30
0.0
 11
2150.0
 21
3815.0
 31
0.0
  0
LINE
  5
150
330
14B
100
AcDbEntity
  8
Ｓ_１_２０
  6
CONTINUOUS
 62
     2
100
AcDbLine
 10
1294.999996185303
 20
3800.0
 30
0.0
 11
2105.000003814698
 21
3800.0
 31
0.0
  0
INSERT
  5
151
330
14B
100
AcDbEntity
  8
Ｓ_１_２０
 62
     2
100
AcDbBlockReference
  2
EX_NORM
 10
1250.0
 20
3800.0
 30
0.0
 41
44.99999618530273
 42
44.99999618530273
 43
44.99999618530273
 50
180.0
  0
INSERT
  5
152
330
14B
100
AcDbEntity
  8
Ｓ_１_２０
 62
     2
100
AcDbBlockReference
  2
EX_NORM
 10
2150.0
 20
3800.0
 30
0.0
 41
44.99999618530273
 42
44.99999618530273
 43
44.99999618530273
  0
MTEXT
  5
153
330
14B
100
AcDbEntity
  8
Ｓ_１_２０
 62
     2
100
AcDbMText
 10
1700.0
 20
3841.25
 30
0.0
 40
51.9435623556582
 41
0.0
 71
     5
 72
     1
  1
900
  7
EXCADDIM1
  0
POINT
  5
154
330
14B
100
AcDbEntity
  8
DEFPOINTS
 62
     0
100
AcDbPoint
 10
1250.0
 20
3500.0
 30
0.0
  0
POINT
  5
155
330
14B
100
AcDbEntity
  8
DEFPOINTS
 62
     0
100
AcDbPoint
 10
2150.0
 20
3500.0
 30
0.0
  0
POINT
  5
156
330
14B
100
AcDbEntity
  8
DEFPOINTS
 62
     0
100
AcDbPoint
 10
2150.0
 20
3800.0
 30
0.0
  0
ENDBLK
  5
14D
330
14B
100
AcDbEntity
  8
0
100
AcDbBlockEnd
  0
BLOCK
  5
159
330
158
100
AcDbEntity
  8
0
100
AcDbBlockBegin
  2
*D20
 70
     1
 10
0.0
 20
0.0
 30
0.0
  3
*D20
  1

  0
LINE
  5
15B
330
158
100
AcDbEntity
  8
Ｓ_１_２０
  6
CONTINUOUS
 62
     2
100
AcDbLine
 10
2400.0
 20
3455.000003814697
 30
0.0
 11
2400.0
 21
3164.999996185303
 31
0.0
  0
INSERT
  5
15C
330
158
100
AcDbEntity
  8
Ｓ_１_２０
 62
     2
100
AcDbBlockReference
  2
EX_NORM
 10
2400.0
 20
3500.0
 30
0.0
 41
44.99999618530273
 42
44.99999618530273
 43
44.99999618530273
 50
90.0
  0
INSERT
  5
15D
330
158
100
AcDbEntity
  8
Ｓ_１_２０
 62
     2
100
AcDbBlockReference
  2
EX_NORM
 10
2400.0
 20
3120.0
 30
0.0
 41
44.99999618530273
 42
44.99999618530273
 43
44.99999618530273
 50
270.0
  0
MTEXT
  5
15E
330
158
100
AcDbEntity
  8
Ｓ_１_２０
 62
     2
100
AcDbMText
 10
2358.75
 20
3310.0
 30
0.0
 40
51.9435623556582
 41
0.0
 71
     5
 72
     1
  1
380
  7
EXCADDIM1
 11
0.0
 21
1.0
 31
0.0
  0
POINT
  5
15F
330
158
100
AcDbEntity
  8
DEFPOINTS
 62
     0
100
AcDbPoint
 10
2150.0
 20
3500.0
 30
0.0
  0
POINT
  5
160
330
158
100
AcDbEntity
  8
DEFPOINTS
 62
     0
100
AcDbPoint
 10
2131.81
 20
3120.0
 30
0.0
  0
POINT
  5
161
330
158
100
AcDbEntity
  8
DEFPOINTS
 62
     0
100
AcDbPoint
 10
2400.0
 20
3120.0
 30
0.0
  0
ENDBLK
  5
15A
330
158
100
AcDbEntity
  8
0
100
AcDbBlockEnd
  0
BLOCK
  5
164
330
163
100
AcDbEntity
  8
0
100
AcDbBlockBegin
  2
*D21
 70
     1
 10
0.0
 20
0.0
 30
0.0
  3
*D21
  1

  0
LINE
  5
166
330
163
100
AcDbEntity
  8
Ｓ_１_２０
  6
CONTINUOUS
 62
     2
100
AcDbLine
 10
2154.31
 20
3120.0
 30
0.0
 11
2415.0
 21
3120.0
 31
0.0
  0
LINE
  5
167
330
163
100
AcDbEntity
  8
Ｓ_１_２０
  6
CONTINUOUS
 62
     2
100
AcDbLine
 10
2400.0
 20
3075.000003814697
 30
0.0
 11
2400.0
 21
2744.999996185303
 31
0.0
  0
INSERT
  5
168
330
163
100
AcDbEntity
  8
Ｓ_１_２０
 62
     2
100
AcDbBlockReference
  2
EX_NORM
 10
2400.0
 20
3120.0
 30
0.0
 41
44.99999618530273
 42
44.99999618530273
 43
44.99999618530273
 50
90.0
  0
INSERT
  5
169
330
163
100
AcDbEntity
  8
Ｓ_１_２０
 62
     2
100
AcDbBlockReference
  2
EX_NORM
 10
2400.0
 20
2700.0
 30
0.0
 41
44.99999618530273
 42
44.99999618530273
 43
44.99999618530273
 50
270.0
  0
MTEXT
  5
16A
330
163
100
AcDbEntity
  8
Ｓ_１_２０
 62
     2
100
AcDbMText
 10
2358.75
 20
2910.0
 30
0.0
 40
51.9435623556582
 41
0.0
 71
     5
 72
     1
  1
420
  7
EXCADDIM1
 11
0.0
 21
1.0
 31
0.0
  0
POINT
  5
16B
330
163
100
AcDbEntity
  8
DEFPOINTS
 62
     0
100
AcDbPoint
 10
2131.81
 20
3120.0
 30
0.0
  0
POINT
  5
16C
330
163
100
AcDbEntity
  8
DEFPOINTS
 62
     0
100
AcDbPoint
 10
2150.0
 20
2700.0
 30
0.0
  0
POINT
  5
16D
330
163
100
AcDbEntity
  8
DEFPOINTS
 62
     0
100
AcDbPoint
 10
2400.0
 20
2700.0
 30
0.0
  0
ENDBLK
  5
165
330
163
100
AcDbEntity
  8
0
100
AcDbBlockEnd
  0
BLOCK
  5
170
330
16F
100
AcDbEntity
  8
0
100
AcDbBlockBegin
  2
*D22
 70
     1
 10
0.0
 20
0.0
 30
0.0
  3
*D22
  1

  0
LINE
  5
172
330
16F
100
AcDbEntity
  8
Ｓ_１_２０
  6
CONTINUOUS
 62
     2
100
AcDbLine
 10
2172.5
 20
2700.0
 30
0.0
 11
2515.0
 21
2700.0
 31
0.0
  0
LINE
  5
173
330
16F
100
AcDbEntity
  8
Ｓ_１_２０
  6
CONTINUOUS
 62
     2
100
AcDbLine
 10
2172.5
 20
3500.0
 30
0.0
 11
2515.0
 21
3500.0
 31
0.0
  0
LINE
  5
174
330
16F
100
AcDbEntity
  8
Ｓ_１_２０
  6
CONTINUOUS
 62
     2
100
AcDbLine
 10
2500.0
 20
2744.999996185302
 30
0.0
 11
2500.0
 21
3455.000003814697
 31
0.0
  0
INSERT
  5
175
330
16F
100
AcDbEntity
  8
Ｓ_１_２０
 62
     2
100
AcDbBlockReference
  2
EX_NORM
 10
2500.0
 20
2700.0
 30
0.0
 41
44.99999618530273
 42
44.99999618530273
 43
44.99999618530273
 50
270.0
  0
INSERT
  5
176
330
16F
100
AcDbEntity
  8
Ｓ_１_２０
 62
     2
100
AcDbBlockReference
  2
EX_NORM
 10
2500.0
 20
3500.0
 30
0.0
 41
44.99999618530273
 42
44.99999618530273
 43
44.99999618530273
 50
90.0
  0
MTEXT
  5
177
330
16F
100
AcDbEntity
  8
Ｓ_１_２０
 62
     2
100
AcDbMText
 10
2458.75
 20
3100.0
 30
0.0
 40
51.9435623556582
 41
0.0
 71
     5
 72
     1
  1
800
  7
EXCADDIM1
 11
0.0
 21
1.0
 31
0.0
  0
POINT
  5
178
330
16F
100
AcDbEntity
  8
DEFPOINTS
 62
     0
100
AcDbPoint
 10
2150.0
 20
2700.0
 30
0.0
  0
POINT
  5
179
330
16F
100
AcDbEntity
  8
DEFPOINTS
 62
     0
100
AcDbPoint
 10
2150.0
 20
3500.0
 30
0.0
  0
POINT
  5
17A
330
16F
100
AcDbEntity
  8
DEFPOINTS
 62
     0
100
AcDbPoint
 10
2500.0
 20
3500.0
 30
0.0
  0
ENDBLK
  5
171
330
16F
100
AcDbEntity
  8
0
100
AcDbBlockEnd
  0
BLOCK
  5
17D
330
17C
100
AcDbEntity
  8
0
100
AcDbBlockBegin
  2
*D23
 70
     1
 10
0.0
 20
0.0
 30
0.0
  3
*D23
  1

  0
LINE
  5
17F
330
17C
100
AcDbEntity
  8
Ｓ_１_２０
  6
CONTINUOUS
 62
     2
100
AcDbLine
 10
1265.0
 20
637.841
 30
0.0
 11
1265.0
 21
485.0000000000001
 31
0.0
  0
LINE
  5
180
330
17C
100
AcDbEntity
  8
Ｓ_１_２０
  6
CONTINUOUS
 62
     2
100
AcDbLine
 10
2135.0
 20
637.841
 30
0.0
 11
2135.0
 21
485.0000000000001
 31
0.0
  0
LINE
  5
181
330
17C
100
AcDbEntity
  8
Ｓ_１_２０
  6
CONTINUOUS
 62
     2
100
AcDbLine
 10
1309.999996185303
 20
500.0000000000001
 30
0.0
 11
2090.000003814697
 21
500.0000000000001
 31
0.0
  0
INSERT
  5
182
330
17C
100
AcDbEntity
  8
Ｓ_１_２０
 62
     2
100
AcDbBlockReference
  2
EX_NORM
 10
1265.0
 20
500.0000000000001
 30
0.0
 41
44.99999618530273
 42
44.99999618530273
 43
44.99999618530273
 50
180.0
  0
INSERT
  5
183
330
17C
100
AcDbEntity
  8
Ｓ_１_２０
 62
     2
100
AcDbBlockReference
  2
EX_NORM
 10
2135.0
 20
500.0000000000001
 30
0.0
 41
44.99999618530273
 42
44.99999618530273
 43
44.99999618530273
  0
MTEXT
  5
184
330
17C
100
AcDbEntity
  8
Ｓ_１_２０
 62
     2
100
AcDbMText
 10
1700.0
 20
541.25
 30
0.0
 40
51.9435623556582
 41
0.0
 71
     5
 72
     1
  1
870
  7
EXCADDIM1
  0
POINT
  5
185
330
17C
100
AcDbEntity
  8
DEFPOINTS
 62
     0
100
AcDbPoint
 10
1265.0
 20
660.341
 30
0.0
  0
POINT
  5
186
330
17C
100
AcDbEntity
  8
DEFPOINTS
 62
     0
100
AcDbPoint
 10
2135.0
 20
660.341
 30
0.0
  0
POINT
  5
187
330
17C
100
AcDbEntity
  8
DEFPOINTS
 62
     0
100
AcDbPoint
 10
2135.0
 20
500.0000000000001
 30
0.0
  0
ENDBLK
  5
17E
330
17C
100
AcDbEntity
  8
0
100
AcDbBlockEnd
  0
BLOCK
  5
18A
330
189
100
AcDbEntity
  8
0
100
AcDbBlockBegin
  2
*D24
 70
     1
 10
0.0
 20
0.0
 30
0.0
  3
*D24
  1

  0
LINE
  5
18C
330
189
100
AcDbEntity
  8
Ｓ_１_２０
  6
CONTINUOUS
 62
     2
100
AcDbLine
 10
2400.0
 20
2055.000003814697
 30
0.0
 11
2400.0
 21
1444.999996185303
 31
0.0
  0
INSERT
  5
18D
330
189
100
AcDbEntity
  8
Ｓ_１_２０
 62
     2
100
AcDbBlockReference
  2
EX_NORM
 10
2400.0
 20
2100.0
 30
0.0
 41
44.99999618530273
 42
44.99999618530273
 43
44.99999618530273
 50
90.0
  0
INSERT
  5
18E
330
189
100
AcDbEntity
  8
Ｓ_１_２０
 62
     2
100
AcDbBlockReference
  2
EX_NORM
 10
2400.0
 20
1400.0
 30
0.0
 41
44.99999618530273
 42
44.99999618530273
 43
44.99999618530273
 50
270.0
  0
MTEXT
  5
18F
330
189
100
AcDbEntity
  8
Ｓ_１_２０
 62
     2
100
AcDbMText
 10
2358.75
 20
1750.0
 30
0.0
 40
51.9435623556582
 41
0.0
 71
     5
 72
     1
  1
700
  7
EXCADDIM1
 11
0.0
 21
1.0
 31
0.0
  0
POINT
  5
190
330
189
100
AcDbEntity
  8
DEFPOINTS
 62
     0
100
AcDbPoint
 10
2150.0
 20
2100.0
 30
0.0
  0
POINT
  5
191
330
189
100
AcDbEntity
  8
DEFPOINTS
 62
     0
100
AcDbPoint
 10
2150.0
 20
1400.0
 30
0.0
  0
POINT
  5
192
330
189
100
AcDbEntity
  8
DEFPOINTS
 62
     0
100
AcDbPoint
 10
2400.0
 20
1400.0
 30
0.0
  0
ENDBLK
  5
18B
330
189
100
AcDbEntity
  8
0
100
AcDbBlockEnd
  0
BLOCK
  5
195
330
194
100
AcDbEntity
  8
0
100
AcDbBlockBegin
  2
*D25
 70
     1
 10
0.0
 20
0.0
 30
0.0
  3
*D25
  1

  0
LINE
  5
197
330
194
100
AcDbEntity
  8
Ｓ_１_２０
  6
CONTINUOUS
 62
     2
100
AcDbLine
 10
2172.5
 20
1400.0
 30
0.0
 11
2415.0
 21
1400.0
 31
0.0
  0
LINE
  5
198
330
194
100
AcDbEntity
  8
Ｓ_１_２０
  6
CONTINUOUS
 62
     2
100
AcDbLine
 10
2400.0
 20
1355.000003814697
 30
0.0
 11
2400.0
 21
844.9999961853027
 31
0.0
  0
INSERT
  5
199
330
194
100
AcDbEntity
  8
Ｓ_１_２０
 62
     2
100
AcDbBlockReference
  2
EX_NORM
 10
2400.0
 20
1400.0
 30
0.0
 41
44.99999618530273
 42
44.99999618530273
 43
44.99999618530273
 50
90.0
  0
INSERT
  5
19A
330
194
100
AcDbEntity
  8
Ｓ_１_２０
 62
     2
100
AcDbBlockReference
  2
EX_NORM
 10
2400.0
 20
800.0
 30
0.0
 41
44.99999618530273
 42
44.99999618530273
 43
44.99999618530273
 50
270.0
  0
MTEXT
  5
19B
330
194
100
AcDbEntity
  8
Ｓ_１_２０
 62
     2
100
AcDbMText
 10
2358.75
 20
1100.0
 30
0.0
 40
51.9435623556582
 41
0.0
 71
     5
 72
     1
  1
600
  7
EXCADDIM1
 11
0.0
 21
1.0
 31
0.0
  0
POINT
  5
19C
330
194
100
AcDbEntity
  8
DEFPOINTS
 62
     0
100
AcDbPoint
 10
2150.0
 20
1400.0
 30
0.0
  0
POINT
  5
19D
330
194
100
AcDbEntity
  8
DEFPOINTS
 62
     0
100
AcDbPoint
 10
2150.0
 20
800.0
 30
0.0
  0
POINT
  5
19E
330
194
100
AcDbEntity
  8
DEFPOINTS
 62
     0
100
AcDbPoint
 10
2400.0
 20
800.0
 30
0.0
  0
ENDBLK
  5
196
330
194
100
AcDbEntity
  8
0
100
AcDbBlockEnd
  0
BLOCK
  5
1A1
330
1A0
100
AcDbEntity
  8
0
100
AcDbBlockBegin
  2
*D26
 70
     1
 10
0.0
 20
0.0
 30
0.0
  3
*D26
  1

  0
LINE
  5
1A3
330
1A0
100
AcDbEntity
  8
Ｓ_１_２０
  6
CONTINUOUS
 62
     2
100
AcDbLine
 10
2172.5
 20
800.0
 30
0.0
 11
2415.0
 21
800.0
 31
0.0
  0
LINE
  5
1A4
330
1A0
100
AcDbEntity
  8
Ｓ_１_２０
  6
CONTINUOUS
 62
     2
100
AcDbLine
 10
2400.0
 20
755.0000038146973
 30
0.0
 11
2400.0
 21
744.9999961853027
 31
0.0
  0
INSERT
  5
1A5
330
1A0
100
AcDbEntity
  8
Ｓ_１_２０
 62
     2
100
AcDbBlockReference
  2
EX_NORM
 10
2400.0
 20
800.0
 30
0.0
 41
44.99999618530273
 42
44.99999618530273
 43
44.99999618530273
 50
90.0
  0
INSERT
  5
1A6
330
1A0
100
AcDbEntity
  8
Ｓ_１_２０
 62
     2
100
AcDbBlockReference
  2
EX_NORM
 10
2400.0
 20
700.0
 30
0.0
 41
44.99999618530273
 42
44.99999618530273
 43
44.99999618530273
 50
270.0
  0
MTEXT
  5
1A7
330
1A0
100
AcDbEntity
  8
Ｓ_１_２０
 62
     2
100
AcDbMText
 10
2358.75
 20
604.3749999999994
 30
0.0
 40
51.9435623556582
 41
0.0
 71
     5
 72
     1
  1
100
  7
EXCADDIM1
 11
0.0
 21
1.0
 31
0.0
  0
POINT
  5
1A8
330
1A0
100
AcDbEntity
  8
DEFPOINTS
 62
     0
100
AcDbPoint
 10
2150.0
 20
800.0
 30
0.0
  0
POINT
  5
1A9
330
1A0
100
AcDbEntity
  8
DEFPOINTS
 62
     0
100
AcDbPoint
 10
2150.0
 20
700.0
 30
0.0
  0
POINT
  5
1AA
330
1A0
100
AcDbEntity
  8
DEFPOINTS
 62
     0
100
AcDbPoint
 10
2400.0
 20
700.0
 30
0.0
  0
ENDBLK
  5
1A2
330
1A0
100
AcDbEntity
  8
0
100
AcDbBlockEnd
  0
BLOCK
  5
1AD
330
1AC
100
AcDbEntity
  8
0
100
AcDbBlockBegin
  2
*D27
 70
     1
 10
0.0
 20
0.0
 30
0.0
  3
*D27
  1

  0
LINE
  5
1AF
330
1AC
100
AcDbEntity
  8
Ｓ_１_２０
  6
CONTINUOUS
 62
     2
100
AcDbLine
 10
2172.5
 20
700.0
 30
0.0
 11
2515.0
 21
700.0
 31
0.0
  0
LINE
  5
1B0
330
1AC
100
AcDbEntity
  8
Ｓ_１_２０
  6
CONTINUOUS
 62
     2
100
AcDbLine
 10
2172.5
 20
2100.0
 30
0.0
 11
2515.0
 21
2100.0
 31
0.0
  0
LINE
  5
1B1
330
1AC
100
AcDbEntity
  8
Ｓ_１_２０
  6
CONTINUOUS
 62
     2
100
AcDbLine
 10
2500.0
 20
744.9999961853027
 30
0.0
 11
2500.0
 21
2055.000003814697
 31
0.0
  0
INSERT
  5
1B2
330
1AC
100
AcDbEntity
  8
Ｓ_１_２０
 62
     2
100
AcDbBlockReference
  2
EX_NORM
 10
2500.0
 20
700.0
 30
0.0
 41
44.99999618530273
 42
44.99999618530273
 43
44.99999618530273
 50
270.0
  0
INSERT
  5
1B3
330
1AC
100
AcDbEntity
  8
Ｓ_１_２０
 62
     2
100
AcDbBlockReference
  2
EX_NORM
 10
2500.0
 20
2100.0
 30
0.0
 41
44.99999618530273
 42
44.99999618530273
 43
44.99999618530273
 50
90.0
  0
MTEXT
  5
1B4
330
1AC
100
AcDbEntity
  8
Ｓ_１_２０
 62
     2
100
AcDbMText
 10
2458.75
 20
1400.0
 30
0.0
 40
51.9435623556582
 41
0.0
 71
     5
 72
     1
  1
1400
  7
EXCADDIM1
 11
0.0
 21
1.0
 31
0.0
  0
POINT
  5
1B5
330
1AC
100
AcDbEntity
  8
DEFPOINTS
 62
     0
100
AcDbPoint
 10
2150.0
 20
700.0
 30
0.0
  0
POINT
  5
1B6
330
1AC
100
AcDbEntity
  8
DEFPOINTS
 62
     0
100
AcDbPoint
 10
2150.0
 20
2100.0
 30
0.0
  0
POINT
  5
1B7
330
1AC
100
AcDbEntity
  8
DEFPOINTS
 62
     0
100
AcDbPoint
 10
2500.0
 20
2100.0
 30
0.0
  0
ENDBLK
  5
1AE
330
1AC
100
AcDbEntity
  8
0
100
AcDbBlockEnd
  0
BLOCK
  5
1BA
330
1B9
100
AcDbEntity
  8
0
100
AcDbBlockBegin
  2
*D28
 70
     1
 10
0.0
 20
0.0
 30
0.0
  3
*D28
  1

  0
LINE
  5
1BC
330
1B9
100
AcDbEntity
  8
Ｓ_１_２０
  6
CONTINUOUS
 62
     2
100
AcDbLine
 10
3194.999996185303
 20
400.0
 30
0.0
 11
3205.000003814697
 21
400.0
 31
0.0
  0
INSERT
  5
1BD
330
1B9
100
AcDbEntity
  8
Ｓ_１_２０
 62
     2
100
AcDbBlockReference
  2
EX_NORM
 10
3150.0
 20
400.0
 30
0.0
 41
44.99999618530273
 42
44.99999618530273
 43
44.99999618530273
 50
180.0
  0
INSERT
  5
1BE
330
1B9
100
AcDbEntity
  8
Ｓ_１_２０
 62
     2
100
AcDbBlockReference
  2
EX_NORM
 10
3250.0
 20
400.0
 30
0.0
 41
44.99999618530273
 42
44.99999618530273
 43
44.99999618530273
  0
MTEXT
  5
1BF
330
1B9
100
AcDbEntity
  8
Ｓ_１_２０
 62
     2
100
AcDbMText
 10
3054.375
 20
441.25
 30
0.0
 40
51.9435623556582
 41
0.0
 71
     5
 72
     1
  1
100
  7
EXCADDIM1
  0
POINT
  5
1C0
330
1B9
100
AcDbEntity
  8
DEFPOINTS
 62
     0
100
AcDbPoint
 10
3150.0
 20
1400.01
 30
0.0
  0
POINT
  5
1C1
330
1B9
100
AcDbEntity
  8
DEFPOINTS
 62
     0
100
AcDbPoint
 10
3250.0
 20
700.0
 30
0.0
  0
POINT
  5
1C2
330
1B9
100
AcDbEntity
  8
DEFPOINTS
 62
     0
100
AcDbPoint
 10
3250.0
 20
400.0
 30
0.0
  0
ENDBLK
  5
1BB
330
1B9
100
AcDbEntity
  8
0
100
AcDbBlockEnd
  0
BLOCK
  5
1C5
330
1C4
100
AcDbEntity
  8
0
100
AcDbBlockBegin
  2
*D29
 70
     1
 10
0.0
 20
0.0
 30
0.0
  3
*D29
  1

  0
LINE
  5
1C7
330
1C4
100
AcDbEntity
  8
Ｓ_１_２０
  6
CONTINUOUS
 62
     2
100
AcDbLine
 10
3265.0
 20
655.841
 30
0.0
 11
3265.0
 21
485.0000000000001
 31
0.0
  0
LINE
  5
1C8
330
1C4
100
AcDbEntity
  8
Ｓ_１_２０
  6
CONTINUOUS
 62
     2
100
AcDbLine
 10
3935.0
 20
648.341
 30
0.0
 11
3935.0
 21
485.0000000000001
 31
0.0
  0
LINE
  5
1C9
330
1C4
100
AcDbEntity
  8
Ｓ_１_２０
  6
CONTINUOUS
 62
     2
100
AcDbLine
 10
3309.999996185303
 20
500.0000000000001
 30
0.0
 11
3890.000003814697
 21
500.0000000000001
 31
0.0
  0
INSERT
  5
1CA
330
1C4
100
AcDbEntity
  8
Ｓ_１_２０
 62
     2
100
AcDbBlockReference
  2
EX_NORM
 10
3265.0
 20
500.0000000000001
 30
0.0
 41
44.99999618530273
 42
44.99999618530273
 43
44.99999618530273
 50
180.0
  0
INSERT
  5
1CB
330
1C4
100
AcDbEntity
  8
Ｓ_１_２０
 62
     2
100
AcDbBlockReference
  2
EX_NORM
 10
3935.0
 20
500.0000000000001
 30
0.0
 41
44.99999618530273
 42
44.99999618530273
 43
44.99999618530273
  0
MTEXT
  5
1CC
330
1C4
100
AcDbEntity
  8
Ｓ_１_２０
 62
     2
100
AcDbMText
 10
3600.0
 20
541.25
 30
0.0
 40
51.9435623556582
 41
0.0
 71
     5
 72
     1
  1
670
  7
EXCADDIM1
  0
POINT
  5
1CD
330
1C4
100
AcDbEntity
  8
DEFPOINTS
 62
     0
100
AcDbPoint
 10
3265.0
 20
678.341
 30
0.0
  0
POINT
  5
1CE
330
1C4
100
AcDbEntity
  8
DEFPOINTS
 62
     0
100
AcDbPoint
 10
3935.0
 20
670.841
 30
0.0
  0
POINT
  5
1CF
330
1C4
100
AcDbEntity
  8
DEFPOINTS
 62
     0
100
AcDbPoint
 10
3935.0
 20
500.0000000000001
 30
0.0
  0
ENDBLK
  5
1C6
330
1C4
100
AcDbEntity
  8
0
100
AcDbBlockEnd
  0
BLOCK
  5
1D2
330
1D1
100
AcDbEntity
  8
0
100
AcDbBlockBegin
  2
*D30
 70
     1
 10
0.0
 20
0.0
 30
0.0
  3
*D30
  1

  0
LINE
  5
1D4
330
1D1
100
AcDbEntity
  8
Ｓ_１_２０
  6
CONTINUOUS
 62
     2
100
AcDbLine
 10
3250.0
 20
677.4999999999997
 30
0.0
 11
3250.0
 21
385.0
 31
0.0
  0
LINE
  5
1D5
330
1D1
100
AcDbEntity
  8
Ｓ_１_２０
  6
CONTINUOUS
 62
     2
100
AcDbLine
 10
3905.000003814697
 20
400.0
 30
0.0
 11
3294.999996185303
 21
400.0
 31
0.0
  0
INSERT
  5
1D6
330
1D1
100
AcDbEntity
  8
Ｓ_１_２０
 62
     2
100
AcDbBlockReference
  2
EX_NORM
 10
3950.0
 20
400.0
 30
0.0
 41
44.99999618530273
 42
44.99999618530273
 43
44.99999618530273
  0
INSERT
  5
1D7
330
1D1
100
AcDbEntity
  8
Ｓ_１_２０
 62
     2
100
AcDbBlockReference
  2
EX_NORM
 10
3250.0
 20
400.0
 30
0.0
 41
44.99999618530273
 42
44.99999618530273
 43
44.99999618530273
 50
180.0
  0
MTEXT
  5
1D8
330
1D1
100
AcDbEntity
  8
Ｓ_１_２０
 62
     2
100
AcDbMText
 10
3600.0
 20
441.25
 30
0.0
 40
51.9435623556582
 41
0.0
 71
     5
 72
     1
  1
700
  7
EXCADDIM1
  0
POINT
  5
1D9
330
1D1
100
AcDbEntity
  8
DEFPOINTS
 62
     0
100
AcDbPoint
 10
3950.0
 20
699.9999999999997
 30
0.0
  0
POINT
  5
1DA
330
1D1
100
AcDbEntity
  8
DEFPOINTS
 62
     0
100
AcDbPoint
 10
3250.0
 20
699.9999999999997
 30
0.0
  0
POINT
  5
1DB
330
1D1
100
AcDbEntity
  8
DEFPOINTS
 62
     0
100
AcDbPoint
 10
3250.0
 20
400.0
 30
0.0
  0
ENDBLK
  5
1D3
330
1D1
100
AcDbEntity
  8
0
100
AcDbBlockEnd
  0
BLOCK
  5
1DE
330
1DD
100
AcDbEntity
  8
0
100
AcDbBlockBegin
  2
*D31
 70
     1
 10
0.0
 20
0.0
 30
0.0
  3
*D31
  1

  0
LINE
  5
1E0
330
1DD
100
AcDbEntity
  8
Ｓ_１_２０
  6
CONTINUOUS
 62
     2
100
AcDbLine
 10
3150.0
 20
1377.51
 30
0.0
 11
3150.0
 21
285.0
 31
0.0
  0
LINE
  5
1E1
330
1DD
100
AcDbEntity
  8
Ｓ_１_２０
  6
CONTINUOUS
 62
     2
100
AcDbLine
 10
3950.0
 20
677.5
 30
0.0
 11
3950.0
 21
285.0
 31
0.0
  0
LINE
  5
1E2
330
1DD
100
AcDbEntity
  8
Ｓ_１_２０
  6
CONTINUOUS
 62
     2
100
AcDbLine
 10
3194.999996185303
 20
300.0
 30
0.0
 11
3905.000003814697
 21
300.0
 31
0.0
  0
INSERT
  5
1E3
330
1DD
100
AcDbEntity
  8
Ｓ_１_２０
 62
     2
100
AcDbBlockReference
  2
EX_NORM
 10
3150.0
 20
300.0
 30
0.0
 41
44.99999618530273
 42
44.99999618530273
 43
44.99999618530273
 50
180.0
  0
INSERT
  5
1E4
330
1DD
100
AcDbEntity
  8
Ｓ_１_２０
 62
     2
100
AcDbBlockReference
  2
EX_NORM
 10
3950.0
 20
300.0
 30
0.0
 41
44.99999618530273
 42
44.99999618530273
 43
44.99999618530273
  0
MTEXT
  5
1E5
330
1DD
100
AcDbEntity
  8
Ｓ_１_２０
 62
     2
100
AcDbMText
 10
3550.0
 20
341.25
 30
0.0
 40
51.9435623556582
 41
0.0
 71
     5
 72
     1
  1
800
  7
EXCADDIM1
  0
POINT
  5
1E6
330
1DD
100
AcDbEntity
  8
DEFPOINTS
 62
     0
100
AcDbPoint
 10
3150.0
 20
1400.01
 30
0.0
  0
POINT
  5
1E7
330
1DD
100
AcDbEntity
  8
DEFPOINTS
 62
     0
100
AcDbPoint
 10
3950.0
 20
700.0
 30
0.0
  0
POINT
  5
1E8
330
1DD
100
AcDbEntity
  8
DEFPOINTS
 62
     0
100
AcDbPoint
 10
3950.0
 20
300.0
 30
0.0
  0
ENDBLK
  5
1DF
330
1DD
100
AcDbEntity
  8
0
100
AcDbBlockEnd
  0
ENDSEC
  0
SECTION
  2
ENTITIES
  0
LINE
  5
D9
330
1F
100
AcDbEntity
  8
図面枠
  6
CONTINUOUS
 62
     5
100
AcDbLine
 10
150.0
 20
150.0
 30
0.0
 11
6150.0
 21
150.0
 31
0.0
  0
LINE
  5
DA
330
1F
100
AcDbEntity
  8
図面枠
  6
CONTINUOUS
 62
     5
100
AcDbLine
 10
6150.0
 20
150.0
 30
0.0
 11
6150.0
 21
4305.0
 31
0.0
  0
LINE
  5
DB
330
1F
100
AcDbEntity
  8
図面枠
  6
CONTINUOUS
 62
     5
100
AcDbLine
 10
6150.0
 20
4305.0
 30
0.0
 11
150.0000000000008
 21
4305.0
 31
0.0
  0
LINE
  5
DC
330
1F
100
AcDbEntity
  8
図面枠
  6
CONTINUOUS
 62
     5
100
AcDbLine
 10
150.0000000000008
 20
4305.0
 30
0.0
 11
150.0
 21
150.0
 31
0.0
  0
TEXT
  5
DE
330
1F
100
AcDbEntity
  8
図面枠
  6
CONTINUOUS
 62
     4
100
AcDbText
 10
4905.0
 20
3710.7421875
 30
0.0
 40
51.9435623556582
  1
MPa
 41
0.9992307692307693
  7
EXCADTTF1
 72
     5
 11
5006.25
 21
3710.7421875
 31
0.0
100
AcDbText
  0
TEXT
  5
DF
330
1F
100
AcDbEntity
  8
図面枠
  6
CONTINUOUS
 62
     4
100
AcDbText
 10
4642.5
 20
3890.7421875
 30
0.0
 40
51.9435623556582
  1
50(60)
 41
0.9992307692307691
  7
EXCADTTF1
 72
     5
 11
4845.0
 21
3890.7421875
 31
0.0
100
AcDbText
  0
TEXT
  5
E0
330
1F
100
AcDbEntity
  8
図面枠
  6
CONTINUOUS
 62
     4
100
AcDbText
 10
4507.5
 20
3800.7421875
 30
0.0
 40
51.9435623556582
  1
1450(1740)
 41
0.9992307692307694
  7
EXCADTTF1
 72
     5
 11
4845.0
 21
3800.7421875
 31
0.0
100
AcDbText
  0
TEXT
  5
E1
330
1F
100
AcDbEntity
  8
図面枠
  6
CONTINUOUS
 62
     4
100
AcDbText
 10
4905.0
 20
3890.7421875
 30
0.0
 40
51.9435623556582
  1
Hz
 41
0.9992307692307691
  7
EXCADTTF1
 72
     5
 11
4972.5
 21
3890.7421875
 31
0.0
100
AcDbText
  0
TEXT
  5
E2
330
1F
100
AcDbEntity
  8
図面枠
  6
CONTINUOUS
 62
     4
100
AcDbText
 10
4905.0
 20
3800.7421875
 30
0.0
 40
51.9435623556582
  1
rpm
 41
0.9992307692307693
  7
EXCADTTF1
 72
     5
 11
5006.25
 21
3800.7421875
 31
0.0
100
AcDbText
  0
TEXT
  5
E3
330
1F
100
AcDbEntity
  8
図面枠
  6
CONTINUOUS
 62
     4
100
AcDbText
 10
5805.0
 20
3710.7421875
 30
0.0
 40
51.9435623556582
  1
MPa
 41
0.9992307692307693
  7
EXCADTTF1
 72
     5
 11
5906.25
 21
3710.7421875
 31
0.0
100
AcDbText
  0
TEXT
  5
E4
330
1F
100
AcDbEntity
  8
図面枠
  6
CONTINUOUS
 62
     4
100
AcDbText
 10
5542.5
 20
3890.7421875
 30
0.0
 40
51.9435623556582
  1
50(60)
 41
0.9992307692307691
  7
EXCADTTF1
 72
     5
 11
5745.0
 21
3890.7421875
 31
0.0
100
AcDbText
  0
TEXT
  5
E5
330
1F
100
AcDbEntity
  8
図面枠
  6
CONTINUOUS
 62
     4
100
AcDbText
 10
5407.5
 20
3800.7421875
 30
0.0
 40
51.9435623556582
  1
1450(1740)
 41
0.9992307692307694
  7
EXCADTTF1
 72
     5
 11
5745.0
 21
3800.7421875
 31
0.0
100
AcDbText
  0
TEXT
  5
E6
330
1F
100
AcDbEntity
  8
図面枠
  6
CONTINUOUS
 62
     4
100
AcDbText
 10
5805.0
 20
3890.7421875
 30
0.0
 40
51.9435623556582
  1
Hz
 41
0.9992307692307691
  7
EXCADTTF1
 72
     5
 11
5872.5
 21
3890.7421875
 31
0.0
100
AcDbText
  0
TEXT
  5
E7
330
1F
100
AcDbEntity
  8
図面枠
  6
CONTINUOUS
 62
     4
100
AcDbText
 10
5805.0
 20
3800.7421875
 30
0.0
 40
51.9435623556582
  1
rpm
 41
0.9992307692307693
  7
EXCADTTF1
 72
     5
 11
5906.25
 21
3800.7421875
 31
0.0
100
AcDbText
  0
TEXT
  5
E8
330
1F
100
AcDbEntity
  8
図面枠
  6
CONTINUOUS
 62
     4
100
AcDbText
 10
4305.0
 20
3980.7421875
 30
0.0
 40
51.9435623556582
  1
15kW-4P 200V 2台
 41
0.9992307692307694
  7
EXCADTTF1
 72
     5
 11
4845.0
 21
3980.7421875
 31
0.0
100
AcDbText
  0
TEXT
  5
E9
330
1F
100
AcDbEntity
  8
図面枠
  6
CONTINUOUS
 62
     4
100
AcDbText
 10
4710.0
 20
3710.7421875
 30
0.0
 40
51.9435623556582
  1
70.0
 41
0.9992307692307691
  7
EXCADTTF1
 72
     5
 11
4845.0
 21
3710.7421875
 31
0.0
100
AcDbText
  0
TEXT
  5
EA
330
1F
100
AcDbEntity
  8
図面枠
  6
CONTINUOUS
 62
     4
100
AcDbText
 10
5610.0
 20
3710.7421875
 30
0.0
 40
51.9435623556582
  1
70.0
 41
0.9992307692307691
  7
EXCADTTF1
 72
     5
 11
5745.0
 21
3710.7421875
 31
0.0
100
AcDbText
  0
TEXT
  5
EB
330
1F
100
AcDbEntity
  8
図面枠
  6
CONTINUOUS
 62
     4
100
AcDbText
 10
3840.0
 20
4070.7421875
 30
0.0
 40
51.9435623556582
  1
使用ポンプ
 41
0.9992307692307691
  7
EXCADTTF1
 72
     5
 11
4177.5
 21
4070.7421875
 31
0.0
100
AcDbText
  0
TEXT
  5
EC
330
1F
100
AcDbEntity
  8
図面枠
  6
CONTINUOUS
 62
     4
100
AcDbText
 10
3840.0
 20
3980.7421875
 30
0.0
 40
51.9435623556582
  1
電動機
 41
0.9992307692307693
  7
EXCADTTF1
 72
     5
 11
4042.5
 21
3980.7421875
 31
0.0
100
AcDbText
  0
TEXT
  5
ED
330
1F
100
AcDbEntity
  8
図面枠
  6
CONTINUOUS
 62
     4
100
AcDbText
 10
3840.0
 20
3710.7421875
 30
0.0
 40
51.9435623556582
  1
最高使用圧力
 41
0.9992307692307691
  7
EXCADTTF1
 72
     5
 11
4245.0
 21
3710.7421875
 31
0.0
100
AcDbText
  0
TEXT
  5
EE
330
1F
100
AcDbEntity
  8
図面枠
  6
CONTINUOUS
 62
     4
100
AcDbText
 10
3840.0
 20
3890.7421875
 30
0.0
 40
51.9435623556582
  1
周波数
 41
0.9992307692307693
  7
EXCADTTF1
 72
     5
 11
4042.5
 21
3890.7421875
 31
0.0
100
AcDbText
  0
TEXT
  5
EF
330
1F
100
AcDbEntity
  8
図面枠
  6
CONTINUOUS
 62
     4
100
AcDbText
 10
3840.0
 20
3800.7421875
 30
0.0
 40
51.9435623556582
  1
回転数
 41
0.9992307692307693
  7
EXCADTTF1
 72
     5
 11
4042.5
 21
3800.7421875
 31
0.0
100
AcDbText
  0
LINE
  5
F0
330
1F
100
AcDbEntity
  8
図面枠
  6
CONTINUOUS
 62
     3
100
AcDbLine
 10
3810.0
 20
4230.0
 30
0.0
 11
6075.0
 21
4230.0
 31
0.0
  0
LINE
  5
F1
330
1F
100
AcDbEntity
  8
図面枠
  6
CONTINUOUS
 62
     3
100
AcDbLine
 10
3810.0
 20
4140.0
 30
0.0
 11
6075.0
 21
4140.0
 31
0.0
  0
LINE
  5
F2
330
1F
100
AcDbEntity
  8
図面枠
  6
CONTINUOUS
 62
     2
100
AcDbLine
 10
3810.0
 20
4050.0
 30
0.0
 11
6075.0
 21
4050.0
 31
0.0
  0
LINE
  5
F3
330
1F
100
AcDbEntity
  8
図面枠
  6
CONTINUOUS
 62
     2
100
AcDbLine
 10
3810.0
 20
3960.0
 30
0.0
 11
6075.0
 21
3960.0
 31
0.0
  0
LINE
  5
F4
330
1F
100
AcDbEntity
  8
図面枠
  6
CONTINUOUS
 62
     2
100
AcDbLine
 10
3810.0
 20
3870.0
 30
0.0
 11
6075.0
 21
3870.000000000001
 31
0.0
  0
LINE
  5
F5
330
1F
100
AcDbEntity
  8
図面枠
  6
CONTINUOUS
 62
     2
100
AcDbLine
 10
3810.0
 20
3780.0
 30
0.0
 11
6075.0
 21
3780.0
 31
0.0
  0
LINE
  5
F6
330
1F
100
AcDbEntity
  8
図面枠
  6
CONTINUOUS
 62
     2
100
AcDbLine
 10
4275.0
 20
3600.0
 30
0.0
 11
5175.0
 21
3600.0
 31
0.0
  0
TEXT
  5
F7
330
1F
100
AcDbEntity
  8
図面枠
  6
CONTINUOUS
 62
     4
100
AcDbText
 10
4905.0
 20
3620.7421875
 30
0.0
 40
51.9435623556582
  1
L/min
 41
0.9992307692307691
  7
EXCADTTF1
 72
     5
 11
5073.75
 21
3620.7421875
 31
0.0
100
AcDbText
  0
TEXT
  5
F8
330
1F
100
AcDbEntity
  8
図面枠
  6
CONTINUOUS
 62
     4
100
AcDbText
 10
4905.0
 20
3530.7421875
 30
0.0
 40
51.9435623556582
  1
L/min
 41
0.9992307692307691
  7
EXCADTTF1
 72
     5
 11
5073.75
 21
3530.7421875
 31
0.0
100
AcDbText
  0
TEXT
  5
F9
330
1F
100
AcDbEntity
  8
図面枠
  6
CONTINUOUS
 62
     4
100
AcDbText
 10
5805.0
 20
3350.7421875
 30
0.0
 40
51.9435623556582
  1
kg
 41
0.9992307692307691
  7
EXCADTTF1
 72
     5
 11
5872.5
 21
3350.7421875
 31
0.0
100
AcDbText
  0
TEXT
  5
FA
330
1F
100
AcDbEntity
  8
図面枠
  6
CONTINUOUS
 62
     4
100
AcDbText
 10
5205.0
 20
3530.7421875
 30
0.0
 40
51.9435623556582
  1
低圧
 41
0.9992307692307691
  7
EXCADTTF1
 72
     5
 11
5340.0
 21
3530.7421875
 31
0.0
100
AcDbText
  0
TEXT
  5
FB
330
1F
100
AcDbEntity
  8
図面枠
  6
CONTINUOUS
 62
     4
100
AcDbText
 10
5205.0
 20
3620.7421875
 30
0.0
 40
51.9435623556582
  1
高圧
 41
0.9992307692307691
  7
EXCADTTF1
 72
     5
 11
5340.0
 21
3620.7421875
 31
0.0
100
AcDbText
  0
LINE
  5
FC
330
1F
100
AcDbEntity
  8
図面枠
  6
CONTINUOUS
 62
     2
100
AcDbLine
 10
5175.0
 20
3600.0
 30
0.0
 11
6075.0
 21
3600.0
 31
0.0
  0
TEXT
  5
FD
330
1F
100
AcDbEntity
  8
図面枠
  6
CONTINUOUS
 62
     4
100
AcDbText
 10
5805.0
 20
3620.7421875
 30
0.0
 40
51.9435623556582
  1
L/min
 41
0.9992307692307691
  7
EXCADTTF1
 72
     5
 11
5973.75
 21
3620.7421875
 31
0.0
100
AcDbText
  0
TEXT
  5
FE
330
1F
100
AcDbEntity
  8
図面枠
  6
CONTINUOUS
 62
     4
100
AcDbText
 10
5805.0
 20
3530.7421875
 30
0.0
 40
51.9435623556582
  1
L/min
 41
0.9992307692307691
  7
EXCADTTF1
 72
     5
 11
5973.75
 21
3530.7421875
 31
0.0
100
AcDbText
  0
TEXT
  5
FF
330
1F
100
AcDbEntity
  8
図面枠
  6
CONTINUOUS
 62
     4
100
AcDbText
 10
5805.0
 20
3440.7421875
 30
0.0
 40
51.9435623556582
  1
L
 41
0.9992307692307691
  7
EXCADTTF1
 72
     5
 11
5838.75
 21
3440.7421875
 31
0.0
100
AcDbText
  0
LINE
  5
100
330
1F
100
AcDbEntity
  8
図面枠
  6
CONTINUOUS
 62
     2
100
AcDbLine
 10
4575.0
 20
3690.0
 30
0.0
 11
4575.0
 21
3510.0
 31
0.0
  0
LINE
  5
101
330
1F
100
AcDbEntity
  8
図面枠
  6
CONTINUOUS
 62
     2
100
AcDbLine
 10
5475.0
 20
3690.0
 30
0.0
 11
5475.0
 21
3510.0
 31
0.0
  0
TEXT
  5
102
330
1F
100
AcDbEntity
  8
図面枠
  6
CONTINUOUS
 62
     4
100
AcDbText
 10
4305.0
 20
3620.7421875
 30
0.0
 40
51.9435623556582
  1
高速
 41
0.9992307692307691
  7
EXCADTTF1
 72
     5
 11
4440.0
 21
3620.7421875
 31
0.0
100
AcDbText
  0
TEXT
  5
103
330
1F
100
AcDbEntity
  8
図面枠
  6
CONTINUOUS
 62
     4
100
AcDbText
 10
4305.0
 20
3530.7421875
 30
0.0
 40
51.9435623556582
  1
低速
 41
0.9992307692307691
  7
EXCADTTF1
 72
     5
 11
4440.0
 21
3530.7421875
 31
0.0
100
AcDbText
  0
TEXT
  5
104
330
1F
100
AcDbEntity
  8
図面枠
  6
CONTINUOUS
 62
     4
100
AcDbText
 10
4710.0
 20
3620.7421875
 30
0.0
 40
51.9435623556582
  1
10.8
 41
0.9992307692307691
  7
EXCADTTF1
 72
     5
 11
4845.0
 21
3620.7421875
 31
0.0
100
AcDbText
  0
TEXT
  5
105
330
1F
100
AcDbEntity
  8
図面枠
  6
CONTINUOUS
 62
     4
100
AcDbText
 10
4743.75
 20
3530.7421875
 30
0.0
 40
51.9435623556582
  1
5.4
 41
0.9992307692307693
  7
EXCADTTF1
 72
     5
 11
4845.0
 21
3530.7421875
 31
0.0
100
AcDbText
  0
TEXT
  5
106
330
1F
100
AcDbEntity
  8
図面枠
  6
CONTINUOUS
 62
     4
100
AcDbText
 10
5643.75
 20
3620.7421875
 30
0.0
 40
51.9435623556582
  1
0.5
 41
0.9992307692307693
  7
EXCADTTF1
 72
     5
 11
5745.0
 21
3620.7421875
 31
0.0
100
AcDbText
  0
TEXT
  5
107
330
1F
100
AcDbEntity
  8
図面枠
  6
CONTINUOUS
 62
     4
100
AcDbText
 10
5643.75
 20
3530.7421875
 30
0.0
 40
51.9435623556582
  1
2.5
 41
0.9992307692307693
  7
EXCADTTF1
 72
     5
 11
5745.0
 21
3530.7421875
 31
0.0
100
AcDbText
  0
TEXT
  5
108
330
1F
100
AcDbEntity
  8
図面枠
  6
CONTINUOUS
 62
     4
100
AcDbText
 10
3840.0
 20
3350.7421875
 30
0.0
 40
51.9435623556582
  1
重量
 41
0.9992307692307691
  7
EXCADTTF1
 72
     5
 11
3975.0
 21
3350.7421875
 31
0.0
100
AcDbText
  0
TEXT
  5
109
330
1F
100
AcDbEntity
  8
図面枠
  6
CONTINUOUS
 62
     4
100
AcDbText
 10
3840.0
 20
3440.7421875
 30
0.0
 40
51.9435623556582
  1
貯油量
 41
0.9992307692307693
  7
EXCADTTF1
 72
     5
 11
4042.5
 21
3440.7421875
 31
0.0
100
AcDbText
  0
TEXT
  5
10A
330
1F
100
AcDbEntity
  8
図面枠
  6
CONTINUOUS
 62
     4
100
AcDbText
 10
3840.0
 20
3620.7421875
 30
0.0
 40
51.9435623556582
  1
吐出量
 41
0.9992307692307693
  7
EXCADTTF1
 72
     5
 11
4042.5
 21
3620.7421875
 31
0.0
100
AcDbText
  0
LINE
  5
10B
330
1F
100
AcDbEntity
  8
図面枠
  6
CONTINUOUS
 62
     2
100
AcDbLine
 10
3810.0
 20
3690.0
 30
0.0
 11
6075.0
 21
3690.0
 31
0.0
  0
LINE
  5
10C
330
1F
100
AcDbEntity
  8
図面枠
  6
CONTINUOUS
 62
     2
100
AcDbLine
 10
3810.0
 20
3510.0
 30
0.0
 11
6075.0
 21
3510.0
 31
0.0
  0
LINE
  5
10D
330
1F
100
AcDbEntity
  8
図面枠
  6
CONTINUOUS
 62
     2
100
AcDbLine
 10
3810.0
 20
3420.0
 30
0.0
 11
6075.0
 21
3420.0
 31
0.0
  0
LINE
  5
10E
330
1F
100
AcDbEntity
  8
図面枠
  6
CONTINUOUS
 62
     3
100
AcDbLine
 10
3810.0
 20
3330.0
 30
0.0
 11
6075.0
 21
3330.0
 31
0.0
  0
TEXT
  5
10F
330
1F
100
AcDbEntity
  8
図面枠
  6
CONTINUOUS
 62
     4
100
AcDbText
 10
5643.75
 20
3440.7421875
 30
0.0
 40
51.9435623556582
  1
300
 41
0.9992307692307693
  7
EXCADTTF1
 72
     5
 11
5745.0
 21
3440.7421875
 31
0.0
100
AcDbText
  0
LINE
  5
110
330
1F
100
AcDbEntity
  8
図面枠
  6
CONTINUOUS
 62
     2
100
AcDbLine
 10
4275.0
 20
4140.0
 30
0.0
 11
4275.0
 21
3330.0
 31
0.0
  0
LINE
  5
111
330
1F
100
AcDbEntity
  8
図面枠
  6
CONTINUOUS
 62
     2
100
AcDbLine
 10
5175.0
 20
4140.0
 30
0.0
 11
5175.0
 21
3510.0
 31
0.0
  0
LINE
  5
112
330
1F
100
AcDbEntity
  8
図面枠
  6
CONTINUOUS
 62
     2
100
AcDbLine
 10
5775.0
 20
3960.0
 30
0.0
 11
5775.0
 21
3330.0
 31
0.0
  0
LINE
  5
113
330
1F
100
AcDbEntity
  8
図面枠
  6
CONTINUOUS
 62
     2
100
AcDbLine
 10
4875.0
 20
3960.0
 30
0.0
 11
4875.0
 21
3510.0
 31
0.0
  0
LINE
  5
114
330
1F
100
AcDbEntity
  8
図面枠
  6
CONTINUOUS
 62
     3
100
AcDbLine
 10
3810.0
 20
4230.0
 30
0.0
 11
3810.0
 21
3330.0
 31
0.0
  0
LINE
  5
115
330
1F
100
AcDbEntity
  8
図面枠
  6
CONTINUOUS
 62
     3
100
AcDbLine
 10
6075.0
 20
4230.0
 30
0.0
 11
6075.0
 21
3330.0
 31
0.0
  0
LINE
  5
116
330
1F
100
AcDbEntity
  8
図面枠
  6
CONTINUOUS
 62
     3
100
AcDbLine
 10
225.0
 20
4230.0
 30
0.0
 11
225.0
 21
4095.0
 31
0.0
  0
LINE
  5
117
330
1F
100
AcDbEntity
  8
図面枠
  6
CONTINUOUS
 62
     3
100
AcDbLine
 10
1951.499977111816
 20
4230.0
 30
0.0
 11
1951.499977111816
 21
4095.0
 31
0.0
  0
LINE
  5
118
330
1F
100
AcDbEntity
  8
図面枠
  6
CONTINUOUS
 62
     3
100
AcDbLine
 10
225.0
 20
4095.0
 30
0.0
 11
1951.499977111816
 21
4095.0
 31
0.0
  0
LINE
  5
119
330
1F
100
AcDbEntity
  8
図面枠
  6
CONTINUOUS
 62
     3
100
AcDbLine
 10
225.0
 20
4230.0
 30
0.0
 11
1951.499977111816
 21
4230.0
 31
0.0
  0
LINE
  5
11A
330
1F
100
AcDbEntity
  8
図面枠
  6
CONTINUOUS
 62
     3
100
AcDbLine
 10
6075.0
 20
360.0
 30
0.0
 11
6075.0
 21
225.0
 31
0.0
  0
TEXT
  5
11B
330
1F
100
AcDbEntity
  8
図面枠
  6
CONTINUOUS
 62
     4
100
AcDbText
 10
4773.75
 20
4160.7421875
 30
0.0
 40
51.9435623556582
  1
仕　　　様
 41
0.9992307692307691
  7
EXCADTTF1
 72
     5
 11
5111.25
 21
4160.7421875
 31
0.0
100
AcDbText
  0
TEXT
  5
11C
330
1F
100
AcDbEntity
  8
図面枠
  6
CONTINUOUS
 62
     4
100
AcDbText
 10
5205.0
 20
4070.7421875
 30
0.0
 40
51.9435623556582
  1
ER-3×2台
 41
0.9992307692307693
  7
EXCADTTF1
 72
     5
 11
5508.75
 21
4070.7421875
 31
0.0
100
AcDbText
  0
TEXT
  5
11D
330
1F
100
AcDbEntity
  8
図面枠
  6
CONTINUOUS
 62
     4
100
AcDbText
 10
5205.0
 20
3980.7421875
 30
0.0
 40
51.9435623556582
  1
0.75kW-4P 200V 2台
 41
0.9992307692307695
  7
EXCADTTF1
 72
     5
 11
5812.5
 21
3980.7421875
 31
0.0
100
AcDbText
  0
TEXT
  5
11E
330
1F
100
AcDbEntity
  8
図面枠
  6
CONTINUOUS
 62
     4
100
AcDbText
 10
270.0
 20
4130.156248927116
 30
0.0
 40
69.25807726979714
  1
ワイヤークランプ装置用ポンプユニット
 41
0.9992307799195177
  7
EXCADTTF1
 72
     5
 11
1889.99988
 21
4130.156248927116
 31
0.0
100
AcDbText
  0
LINE
  5
11F
330
1F
100
AcDbEntity
  8
図面枠
  6
CONTINUOUS
 62
     3
100
AcDbLine
 10
5715.0
 20
360.0
 30
0.0
 11
5715.0
 21
225.0
 31
0.0
  0
TEXT
  5
120
330
1F
100
AcDbEntity
  8
図面枠
  6
CONTINUOUS
 62
     4
100
AcDbText
 10
5760.0
 20
260.1562489271164
 30
0.0
 40
69.25807726979714
  1
OWC-PU
 41
0.9992307429109673
  7
EXCADTTF1
 72
     5
 11
6029.99997
 21
260.1562489271164
 31
0.0
100
AcDbText
  0
LINE
  5
121
330
1F
100
AcDbEntity
  8
図面枠
  6
CONTINUOUS
 62
     3
100
AcDbLine
 10
5715.0
 20
360.0
 30
0.0
 11
6075.0
 21
360.0
 31
0.0
  0
LINE
  5
122
330
1F
100
AcDbEntity
  8
図面枠
  6
CONTINUOUS
 62
     3
100
AcDbLine
 10
5715.0
 20
225.0
 30
0.0
 11
6075.0
 21
225.0
 31
0.0
  0
TEXT
  5
123
330
1F
100
AcDbEntity
  8
図面枠
  6
CONTINUOUS
 62
     4
100
AcDbText
 10
5576.25
 20
3350.7421875
 30
0.0
 40
51.9435623556582
  1
約920
 41
0.9992307692307691
  7
EXCADTTF1
 72
     5
 11
5745.0
 21
3350.7421875
 31
0.0
100
AcDbText
  0
TEXT
  5
124
330
1F
100
AcDbEntity
  8
図面枠
  6
CONTINUOUS
 62
     4
100
AcDbText
 10
4305.0
 20
4070.7421875
 30
0.0
 40
51.9435623556582
  1
ER-9×2台
 41
0.9992307692307693
  7
EXCADTTF1
 72
     5
 11
4608.75
 21
4070.7421875
 31
0.0
100
AcDbText
  0
DIMENSION
  5
126
330
1F
100
AcDbEntity
  8
Ｓ_１_２０
  6
CONTINUOUS
 62
     2
100
AcDbDimension
  2
*D16
 10
1450.0
 20
3700.0
 30
0.0
 11
1350.0
 21
3741.25
 31
0.0
 70
   160
  3
ISO-25
100
AcDbAlignedDimension
 13
1250.0
 23
3500.0
 33
0.0
 14
1450.0
 24
3306.94
 34
0.0
100
AcDbRotatedDimension
1001
ACAD
1000
DSTYLE
1002
{
1070
   270
1070
     2
1070
     6
1000
EX_NORM
1070
     7
1000
EX_NORM
1070
    41
1040
44.99999618530273
1070
    42
1040
0.0
1070
    44
1040
0.0
1070
    73
1070
     0
1070
    74
1070
     0
1070
    75
1070
     1
1070
    76
1070
     1
1070
    77
1070
     1
1070
    78
1070
     8
1070
   140
1040
51.9435623556582
1070
   147
1040
0.0
1070
   173
1070
     1
1070
   176
1070
     2
1070
   177
1070
     2
1070
   178
1070
     2
1070
   271
1070
     2
1070
   277
1070
     2
1070
   279
1070
     2
1070
   280
1070
     0
1070
   287
1070
     5
1070
   340
1005
125
1002
}
  0
DIMENSION
  5
132
330
1F
100
AcDbEntity
  8
Ｓ_１_２０
  6
CONTINUOUS
 62
     2
100
AcDbDimension
  2
*D17
 10
1950.0
 20
3700.0
 30
0.0
 11
1700.0
 21
3741.25
 31
0.0
 70
   160
  3
ISO-25
100
AcDbAlignedDimension
 13
1450.0
 23
3306.94
 33
0.0
 14
1950.0
 24
3304.58
 34
0.0
100
AcDbRotatedDimension
1001
ACAD
1000
DSTYLE
1002
{
1070
   270
1070
     2
1070
     6
1000
EX_NORM
1070
     7
1000
EX_NORM
1070
    41
1040
44.99999618530273
1070
    42
1040
22.5
1070
    44
1040
15.0
1070
    73
1070
     0
1070
    74
1070
     0
1070
    75
1070
     0
1070
    76
1070
     1
1070
    77
1070
     1
1070
    78
1070
     8
1070
   140
1040
51.9435623556582
1070
   147
1040
0.0
1070
   173
1070
     1
1070
   176
1070
     2
1070
   177
1070
     2
1070
   178
1070
     2
1070
   271
1070
     2
1070
   277
1070
     2
1070
   279
1070
     2
1070
   280
1070
     0
1070
   287
1070
     5
1070
   340
1005
125
1002
}
  0
DIMENSION
  5
13E
330
1F
100
AcDbEntity
  8
Ｓ_１_２０
  6
CONTINUOUS
 62
     2
100
AcDbDimension
  2
*D18
 10
2150.0
 20
3700.0
 30
0.0
 11
2050.000000000001
 21
3741.25
 31
0.0
 70
   160
  3
ISO-25
100
AcDbAlignedDimension
 13
1950.0
 23
3304.58
 33
0.0
 14
2150.0
 24
3500.0
 34
0.0
100
AcDbRotatedDimension
1001
ACAD
1000
DSTYLE
1002
{
1070
   270
1070
     2
1070
     6
1000
EX_NORM
1070
     7
1000
EX_NORM
1070
    41
1040
44.99999618530273
1070
    42
1040
22.5
1070
    44
1040
15.0
1070
    73
1070
     0
1070
    74
1070
     0
1070
    75
1070
     0
1070
    76
1070
     1
1070
    77
1070
     1
1070
    78
1070
     8
1070
   140
1040
51.9435623556582
1070
   147
1040
0.0
1070
   173
1070
     1
1070
   176
1070
     2
1070
   177
1070
     2
1070
   178
1070
     2
1070
   271
1070
     2
1070
   277
1070
     2
1070
   279
1070
     2
1070
   280
1070
     0
1070
   287
1070
     5
1070
   340
1005
125
1002
}
  0
DIMENSION
  5
14A
330
1F
100
AcDbEntity
  8
Ｓ_１_２０
  6
CONTINUOUS
 62
     2
100
AcDbDimension
  2
*D19
 10
2150.0
 20
3800.0
 30
0.0
 11
1700.0
 21
3841.25
 31
0.0
 70
   160
  3
ISO-25
100
AcDbAlignedDimension
 13
1250.0
 23
3500.0
 33
0.0
 14
2150.0
 24
3500.0
 34
0.0
100
AcDbRotatedDimension
1001
ACAD
1000
DSTYLE
1002
{
1070
   270
1070
     2
1070
     6
1000
EX_NORM
1070
     7
1000
EX_NORM
1070
    41
1040
44.99999618530273
1070
    42
1040
22.5
1070
    44
1040
15.0
1070
    73
1070
     0
1070
    74
1070
     0
1070
    75
1070
     0
1070
    76
1070
     0
1070
    77
1070
     1
1070
    78
1070
     8
1070
   140
1040
51.9435623556582
1070
   147
1040
0.0
1070
   173
1070
     1
1070
   176
1070
     2
1070
   177
1070
     2
1070
   178
1070
     2
1070
   271
1070
     2
1070
   277
1070
     2
1070
   279
1070
     2
1070
   280
1070
     0
1070
   287
1070
     5
1070
   340
1005
125
1002
}
  0
DIMENSION
  5
157
330
1F
100
AcDbEntity
  8
Ｓ_１_２０
  6
CONTINUOUS
 62
     2
100
AcDbDimension
  2
*D20
 10
2400.0
 20
3120.0
 30
0.0
 11
2358.75
 21
3310.0
 31
0.0
 70
   160
  3
ISO-25
100
AcDbAlignedDimension
 13
2150.0
 23
3500.0
 33
0.0
 14
2131.81
 24
3120.0
 34
0.0
 50
90.0
100
AcDbRotatedDimension
1001
ACAD
1000
DSTYLE
1002
{
1070
   270
1070
     2
1070
     6
1000
EX_NORM
1070
     7
1000
EX_NORM
1070
    41
1040
44.99999618530273
1070
    42
1040
0.0
1070
    44
1040
0.0
1070
    73
1070
     0
1070
    74
1070
     0
1070
    75
1070
     1
1070
    76
1070
     1
1070
    77
1070
     1
1070
    78
1070
     8
1070
   140
1040
51.9435623556582
1070
   147
1040
0.0
1070
   173
1070
     1
1070
   176
1070
     2
1070
   177
1070
     2
1070
   178
1070
     2
1070
   271
1070
     2
1070
   277
1070
     2
1070
   279
1070
     2
1070
   280
1070
     0
1070
   287
1070
     5
1070
   340
1005
125
1002
}
  0
DIMENSION
  5
162
330
1F
100
AcDbEntity
  8
Ｓ_１_２０
  6
CONTINUOUS
 62
     2
100
AcDbDimension
  2
*D21
 10
2400.0
 20
2700.0
 30
0.0
 11
2358.75
 21
2910.0
 31
0.0
 70
   160
  3
ISO-25
100
AcDbAlignedDimension
 13
2131.81
 23
3120.0
 33
0.0
 14
2150.0
 24
2700.0
 34
0.0
 50
90.0
100
AcDbRotatedDimension
1001
ACAD
1000
DSTYLE
1002
{
1070
   270
1070
     2
1070
     6
1000
EX_NORM
1070
     7
1000
EX_NORM
1070
    41
1040
44.99999618530273
1070
    42
1040
22.5
1070
    44
1040
15.0
1070
    73
1070
     0
1070
    74
1070
     0
1070
    75
1070
     0
1070
    76
1070
     1
1070
    77
1070
     1
1070
    78
1070
     8
1070
   140
1040
51.9435623556582
1070
   147
1040
0.0
1070
   173
1070
     1
1070
   176
1070
     2
1070
   177
1070
     2
1070
   178
1070
     2
1070
   271
1070
     2
1070
   277
1070
     2
1070
   279
1070
     2
1070
   280
1070
     0
1070
   287
1070
     5
1070
   340
1005
125
1002
}
  0
DIMENSION
  5
16E
330
1F
100
AcDbEntity
  8
Ｓ_１_２０
  6
CONTINUOUS
 62
     2
100
AcDbDimension
  2
*D22
 10
2500.0
 20
3500.0
 30
0.0
 11
2458.75
 21
3100.0
 31
0.0
 70
   160
  3
ISO-25
100
AcDbAlignedDimension
 13
2150.0
 23
2700.0
 33
0.0
 14
2150.0
 24
3500.0
 34
0.0
 50
90.0
100
AcDbRotatedDimension
1001
ACAD
1000
DSTYLE
1002
{
1070
   270
1070
     2
1070
     6
1000
EX_NORM
1070
     7
1000
EX_NORM
1070
    41
1040
44.99999618530273
1070
    42
1040
22.5
1070
    44
1040
15.0
1070
    73
1070
     0
1070
    74
1070
     0
1070
    75
1070
     0
1070
    76
1070
     0
1070
    77
1070
     1
1070
    78
1070
     8
1070
   140
1040
51.9435623556582
1070
   147
1040
0.0
1070
   173
1070
     1
1070
   176
1070
     2
1070
   177
1070
     2
1070
   178
1070
     2
1070
   271
1070
     2
1070
   277
1070
     2
1070
   279
1070
     2
1070
   280
1070
     0
1070
   287
1070
     5
1070
   340
1005
125
1002
}
  0
DIMENSION
  5
17B
330
1F
100
AcDbEntity
  8
Ｓ_１_２０
  6
CONTINUOUS
 62
     2
100
AcDbDimension
  2
*D23
 10
2135.0
 20
500.0000000000001
 30
0.0
 11
1700.0
 21
541.25
 31
0.0
 70
   160
  3
ISO-25
100
AcDbAlignedDimension
 13
1265.0
 23
660.341
 33
0.0
 14
2135.0
 24
660.341
 34
0.0
100
AcDbRotatedDimension
1001
ACAD
1000
DSTYLE
1002
{
1070
   270
1070
     2
1070
     6
1000
EX_NORM
1070
     7
1000
EX_NORM
1070
    41
1040
44.99999618530273
1070
    42
1040
22.5
1070
    44
1040
15.0
1070
    73
1070
     0
1070
    74
1070
     0
1070
    75
1070
     0
1070
    76
1070
     0
1070
    77
1070
     1
1070
    78
1070
     8
1070
   140
1040
51.9435623556582
1070
   147
1040
0.0
1070
   173
1070
     1
1070
   176
1070
     2
1070
   177
1070
     2
1070
   178
1070
     2
1070
   271
1070
     2
1070
   277
1070
     2
1070
   279
1070
     2
1070
   280
1070
     0
1070
   287
1070
     5
1070
   340
1005
125
1002
}
  0
DIMENSION
  5
188
330
1F
100
AcDbEntity
  8
Ｓ_１_２０
  6
CONTINUOUS
 62
     2
100
AcDbDimension
  2
*D24
 10
2400.0
 20
1400.0
 30
0.0
 11
2358.75
 21
1750.0
 31
0.0
 70
   160
  3
ISO-25
100
AcDbAlignedDimension
 13
2150.0
 23
2100.0
 33
0.0
 14
2150.0
 24
1400.0
 34
0.0
 50
90.0
100
AcDbRotatedDimension
1001
ACAD
1000
DSTYLE
1002
{
1070
   270
1070
     2
1070
     6
1000
EX_NORM
1070
     7
1000
EX_NORM
1070
    41
1040
44.99999618530273
1070
    42
1040
0.0
1070
    44
1040
0.0
1070
    73
1070
     0
1070
    74
1070
     0
1070
    75
1070
     1
1070
    76
1070
     1
1070
    77
1070
     1
1070
    78
1070
     8
1070
   140
1040
51.9435623556582
1070
   147
1040
0.0
1070
   173
1070
     1
1070
   176
1070
     2
1070
   177
1070
     2
1070
   178
1070
     2
1070
   271
1070
     2
1070
   277
1070
     2
1070
   279
1070
     2
1070
   280
1070
     0
1070
   287
1070
     5
1070
   340
1005
125
1002
}
  0
DIMENSION
  5
193
330
1F
100
AcDbEntity
  8
Ｓ_１_２０
  6
CONTINUOUS
 62
     2
100
AcDbDimension
  2
*D25
 10
2400.0
 20
800.0
 30
0.0
 11
2358.75
 21
1100.0
 31
0.0
 70
   160
  3
ISO-25
100
AcDbAlignedDimension
 13
2150.0
 23
1400.0
 33
0.0
 14
2150.0
 24
800.0
 34
0.0
 50
90.0
100
AcDbRotatedDimension
1001
ACAD
1000
DSTYLE
1002
{
1070
   270
1070
     2
1070
     6
1000
EX_NORM
1070
     7
1000
EX_NORM
1070
    41
1040
44.99999618530273
1070
    42
1040
22.5
1070
    44
1040
15.0
1070
    73
1070
     0
1070
    74
1070
     0
1070
    75
1070
     0
1070
    76
1070
     1
1070
    77
1070
     1
1070
    78
1070
     8
1070
   140
1040
51.9435623556582
1070
   147
1040
0.0
1070
   173
1070
     1
1070
   176
1070
     2
1070
   177
1070
     2
1070
   178
1070
     2
1070
   271
1070
     2
1070
   277
1070
     2
1070
   279
1070
     2
1070
   280
1070
     0
1070
   287
1070
     5
1070
   340
1005
125
1002
}
  0
DIMENSION
  5
19F
330
1F
100
AcDbEntity
  8
Ｓ_１_２０
  6
CONTINUOUS
 62
     2
100
AcDbDimension
  2
*D26
 10
2400.0
 20
700.0
 30
0.0
 11
2358.75
 21
604.3749999999994
 31
0.0
 70
   160
  3
ISO-25
100
AcDbAlignedDimension
 13
2150.0
 23
800.0
 33
0.0
 14
2150.0
 24
700.0
 34
0.0
 50
90.0
100
AcDbRotatedDimension
1001
ACAD
1000
DSTYLE
1002
{
1070
   270
1070
     2
1070
     6
1000
EX_NORM
1070
     7
1000
EX_NORM
1070
    41
1040
44.99999618530273
1070
    42
1040
22.5
1070
    44
1040
15.0
1070
    73
1070
     0
1070
    74
1070
     0
1070
    75
1070
     0
1070
    76
1070
     1
1070
    77
1070
     1
1070
    78
1070
     8
1070
   140
1040
51.9435623556582
1070
   147
1040
0.0
1070
   173
1070
     1
1070
   176
1070
     2
1070
   177
1070
     2
1070
   178
1070
     2
1070
   271
1070
     2
1070
   277
1070
     2
1070
   279
1070
     2
1070
   280
1070
     2
1070
   287
1070
     5
1070
   340
1005
125
1002
}
  0
DIMENSION
  5
1AB
330
1F
100
AcDbEntity
  8
Ｓ_１_２０
  6
CONTINUOUS
 62
     2
100
AcDbDimension
  2
*D27
 10
2500.0
 20
2100.0
 30
0.0
 11
2458.75
 21
1400.0
 31
0.0
 70
   160
  3
ISO-25
100
AcDbAlignedDimension
 13
2150.0
 23
700.0
 33
0.0
 14
2150.0
 24
2100.0
 34
0.0
 50
90.0
100
AcDbRotatedDimension
1001
ACAD
1000
DSTYLE
1002
{
1070
   270
1070
     2
1070
     6
1000
EX_NORM
1070
     7
1000
EX_NORM
1070
    41
1040
44.99999618530273
1070
    42
1040
22.5
1070
    44
1040
15.0
1070
    73
1070
     0
1070
    74
1070
     0
1070
    75
1070
     0
1070
    76
1070
     0
1070
    77
1070
     1
1070
    78
1070
     8
1070
   140
1040
51.9435623556582
1070
   147
1040
0.0
1070
   173
1070
     1
1070
   176
1070
     2
1070
   177
1070
     2
1070
   178
1070
     2
1070
   271
1070
     2
1070
   277
1070
     2
1070
   279
1070
     2
1070
   280
1070
     0
1070
   287
1070
     5
1070
   340
1005
125
1002
}
  0
DIMENSION
  5
1B8
330
1F
100
AcDbEntity
  8
Ｓ_１_２０
  6
CONTINUOUS
 62
     2
100
AcDbDimension
  2
*D28
 10
3250.0
 20
400.0
 30
0.0
 11
3054.375
 21
441.25
 31
0.0
 70
   160
  3
ISO-25
100
AcDbAlignedDimension
 13
3150.0
 23
1400.01
 33
0.0
 14
3250.0
 24
700.0
 34
0.0
100
AcDbRotatedDimension
1001
ACAD
1000
DSTYLE
1002
{
1070
   270
1070
     2
1070
     6
1000
EX_NORM
1070
     7
1000
EX_NORM
1070
    41
1040
44.99999618530273
1070
    42
1040
0.0
1070
    44
1040
0.0
1070
    73
1070
     0
1070
    74
1070
     0
1070
    75
1070
     1
1070
    76
1070
     1
1070
    77
1070
     1
1070
    78
1070
     8
1070
   140
1040
51.9435623556582
1070
   147
1040
0.0
1070
   173
1070
     1
1070
   176
1070
     2
1070
   177
1070
     2
1070
   178
1070
     2
1070
   271
1070
     2
1070
   277
1070
     2
1070
   279
1070
     2
1070
   280
1070
     1
1070
   287
1070
     5
1070
   340
1005
125
1002
}
  0
DIMENSION
  5
1C3
330
1F
100
AcDbEntity
  8
Ｓ_１_２０
  6
CONTINUOUS
 62
     2
100
AcDbDimension
  2
*D29
 10
3935.0
 20
500.0000000000001
 30
0.0
 11
3600.0
 21
541.25
 31
0.0
 70
   160
  3
ISO-25
100
AcDbAlignedDimension
 13
3265.0
 23
678.341
 33
0.0
 14
3935.0
 24
670.841
 34
0.0
100
AcDbRotatedDimension
1001
ACAD
1000
DSTYLE
1002
{
1070
   270
1070
     2
1070
     6
1000
EX_NORM
1070
     7
1000
EX_NORM
1070
    41
1040
44.99999618530273
1070
    42
1040
22.5
1070
    44
1040
15.0
1070
    73
1070
     0
1070
    74
1070
     0
1070
    75
1070
     0
1070
    76
1070
     0
1070
    77
1070
     1
1070
    78
1070
     8
1070
   140
1040
51.9435623556582
1070
   147
1040
0.0
1070
   173
1070
     1
1070
   176
1070
     2
1070
   177
1070
     2
1070
   178
1070
     2
1070
   271
1070
     2
1070
   277
1070
     2
1070
   279
1070
     2
1070
   280
1070
     0
1070
   287
1070
     5
1070
   340
1005
125
1002
}
  0
DIMENSION
  5
1D0
330
1F
100
AcDbEntity
  8
Ｓ_１_２０
  6
CONTINUOUS
 62
     2
100
AcDbDimension
  2
*D30
 10
3250.0
 20
400.0
 30
0.0
 11
3600.0
 21
441.25
 31
0.0
 70
   160
  3
ISO-25
100
AcDbAlignedDimension
 13
3950.0
 23
699.9999999999997
 33
0.0
 14
3250.0
 24
699.9999999999997
 34
0.0
100
AcDbRotatedDimension
1001
ACAD
1000
DSTYLE
1002
{
1070
   270
1070
     2
1070
     6
1000
EX_NORM
1070
     7
1000
EX_NORM
1070
    41
1040
44.99999618530273
1070
    42
1040
22.5
1070
    44
1040
15.0
1070
    73
1070
     0
1070
    74
1070
     0
1070
    75
1070
     1
1070
    76
1070
     0
1070
    77
1070
     1
1070
    78
1070
     8
1070
   140
1040
51.9435623556582
1070
   147
1040
0.0
1070
   173
1070
     1
1070
   176
1070
     2
1070
   177
1070
     2
1070
   178
1070
     2
1070
   271
1070
     2
1070
   277
1070
     2
1070
   279
1070
     2
1070
   280
1070
     0
1070
   287
1070
     5
1070
   340
1005
125
1002
}
  0
DIMENSION
  5
1DC
330
1F
100
AcDbEntity
  8
Ｓ_１_２０
  6
CONTINUOUS
 62
     2
100
AcDbDimension
  2
*D31
 10
3950.0
 20
300.0
 30
0.0
 11
3550.0
 21
341.25
 31
0.0
 70
   160
  3
ISO-25
100
AcDbAlignedDimension
 13
3150.0
 23
1400.01
 33
0.0
 14
3950.0
 24
700.0
 34
0.0
100
AcDbRotatedDimension
1001
ACAD
1000
DSTYLE
1002
{
1070
   270
1070
     2
1070
     6
1000
EX_NORM
1070
     7
1000
EX_NORM
1070
    41
1040
44.99999618530273
1070
    42
1040
22.5
1070
    44
1040
15.0
1070
    73
1070
     0
1070
    74
1070
     0
1070
    75
1070
     0
1070
    76
1070
     0
1070
    77
1070
     1
1070
    78
1070
     8
1070
   140
1040
51.9435623556582
1070
   147
1040
0.0
1070
   173
1070
     1
1070
   176
1070
     2
1070
   177
1070
     2
1070
   178
1070
     2
1070
   271
1070
     2
1070
   277
1070
     2
1070
   279
1070
     2
1070
   280
1070
     0
1070
   287
1070
     5
1070
   340
1005
125
1002
}
  0
LEADER
  5
1E9
330
1F
100
AcDbEntity
  8
Ｓ_１_２０
  6
CONTINUOUS
 62
     2
100
AcDbLeader
  3
ISO-25
 76
     3
 10
1324.044350664
 20
2998.5074045819
 30
0.0
 10
1114.518473041
 20
2788.981526959
 30
0.0
 10
506.9999999999999
 20
2788.981526959
 30
0.0
1001
ACAD
1000
DSTYLE
1002
{
1070
     5
1000
EX_NORM
1070
    41
1040
45.0
1070
   341
1005
78
1002
}
  0
TEXT
  5
1EA
330
1F
100
AcDbEntity
  8
Ｓ_１_２０
  6
CONTINUOUS
 62
     4
100
AcDbText
 10
507.0000000000002
 20
2805.973714459
 30
0.0
 40
51.9435623556582
  1
2-電動機15kw-4P
 41
0.9992307692307696
  7
EXCADTTF1
 72
     5
 11
1013.25
 21
2805.973714459
 31
0.0
100
AcDbText
  0
LEADER
  5
1EB
330
1F
100
AcDbEntity
  8
Ｓ_１_２０
  6
CONTINUOUS
 62
     2
100
AcDbLeader
  3
ISO-25
 76
     3
 10
1490.4469775118
 20
3424.511496487
 30
0.0
 10
1150.6978391733
 20
3620.6657529637
 30
0.0
 10
487.5
 20
3620.6657529637
 30
0.0
1001
ACAD
1000
DSTYLE
1002
{
1070
     5
1000
EX_NORM
1070
    41
1040
45.0
1070
   341
1005
78
1002
}
  0
TEXT
  5
1EC
330
1F
100
AcDbEntity
  8
Ｓ_１_２０
  6
CONTINUOUS
 62
     4
100
AcDbText
 10
487.5000000000002
 20
3637.6579404637
 30
0.0
 40
51.9435623556582
  1
2-電動機0.75kw-4P
 41
0.9992307692307694
  7
EXCADTTF1
 72
     5
 11
1061.25
 21
3637.6579404637
 31
0.0
100
AcDbText
  0
TEXT
  5
1ED
330
1F
100
AcDbEntity
  8
Ｓ_１_２０
  6
CONTINUOUS
 62
     4
100
AcDbText
 10
2326.5
 20
2544.5373001192
 30
0.0
 40
51.9435623556582
  1
給油口
 41
0.9992307692307693
  7
EXCADTTF1
 72
     5
 11
2529.0
 21
2544.5373001192
 31
0.0
100
AcDbText
  0
LEADER
  5
1EE
330
1F
100
AcDbEntity
  8
Ｓ_１_２０
  6
CONTINUOUS
 62
     2
100
AcDbLeader
  3
ISO-25
 76
     3
 10
2099.884687
 20
2858.983915
 30
0.0
 10
2291.2409687744
 20
2527.5451126192
 30
0.0
 10
2529.0
 20
2527.5451126192
 30
0.0
1001
ACAD
1000
DSTYLE
1002
{
1070
     5
1000
EX_NORM
1070
    41
1040
45.0
1070
   341
1005
78
1002
}
  0
TEXT
  5
1EF
330
1F
100
AcDbEntity
  8
Ｓ_１_２０
  6
CONTINUOUS
 62
     4
100
AcDbText
 10
868.5000000000001
 20
2021.2421875
 30
0.0
 40
51.9435623556582
  1
分電盤
 41
0.9992307692307687
  7
EXCADTTF1
 72
     5
 11
1071.0
 21
2021.2421875
 31
0.0
100
AcDbText
  0
LEADER
  5
1F0
330
1F
100
AcDbEntity
  8
Ｓ_１_２０
  6
CONTINUOUS
 62
     2
100
AcDbLeader
  3
ISO-25
 76
     3
 10
1300.0
 20
1821.5
 30
0.0
 10
1117.25
 20
2004.25
 30
0.0
 10
868.5
 20
2004.25
 30
0.0
1001
ACAD
1000
DSTYLE
1002
{
1070
     5
1000
EX_NORM
1070
    41
1040
45.0
1070
   341
1005
78
1002
}
  0
TEXT
  5
1F1
330
1F
100
AcDbEntity
  8
Ｓ_１_２０
  6
CONTINUOUS
 62
     4
100
AcDbText
 10
808.5000000000001
 20
1616.9679674897
 30
0.0
 40
51.9435623556582
  1
電源端子
 41
0.9992307692307688
  7
EXCADTTF1
 72
     5
 11
1078.5
 21
1616.9679674897
 31
0.0
100
AcDbText
  0
LEADER
  5
1F2
330
1F
100
AcDbEntity
  8
Ｓ_１_２０
  6
CONTINUOUS
 62
     2
100
AcDbLeader
  3
ISO-25
 76
     3
 10
1270.0
 20
1496.0
 30
0.0
 10
1089.9086663013
 20
1599.9757799897
 30
0.0
 10
808.5
 20
1599.9757799897
 30
0.0
1001
ACAD
1000
DSTYLE
1002
{
1070
     5
1000
EX_NORM
1070
    41
1040
45.0
1070
   341
1005
78
1002
}
  0
TEXT
  5
1F3
330
1F
100
AcDbEntity
  8
Ｓ_１_２０
  6
CONTINUOUS
 62
     4
100
AcDbText
 10
2259.75
 20
2340.3167418263
 30
0.0
 40
51.9435623556582
  1
4-M24アイボルト
 41
0.999230769230769
  7
EXCADTTF1
 72
     5
 11
2766.0
 21
2340.3167418263
 31
0.0
100
AcDbText
  0
LEADER
  5
1F4
330
1F
100
AcDbEntity
  8
Ｓ_１_２０
  6
CONTINUOUS
 62
     2
100
AcDbLeader
  3
ISO-25
 76
     3
 10
2129.9289025313
 20
2178.6039667166
 30
0.0
 10
2213.4833727451
 20
2323.3245543263
 30
0.0
 10
2766.0
 20
2323.3245543263
 30
0.0
1001
ACAD
1000
DSTYLE
1002
{
1070
     5
1000
EX_NORM
1070
    41
1040
45.0
1070
   341
1005
78
1002
}
  0
LEADER
  5
1F5
330
1F
100
AcDbEntity
  8
Ｓ_１_２０
  6
CONTINUOUS
 62
     2
100
AcDbLeader
  3
ISO-25
 76
     3
 10
1104.1293505977
 20
814.6160331678
 30
0.0
 10
1005.1822117791
 20
985.9975048650998
 30
0.0
 10
303.0
 20
985.9975048650998
 30
0.0
1001
ACAD
1000
DSTYLE
1002
{
1070
     5
1000
EX_NORM
1070
    41
1040
45.0
1070
   341
1005
78
1002
}
  0
TEXT
  5
1F6
330
1F
100
AcDbEntity
  8
Ｓ_１_２０
  6
CONTINUOUS
 62
     4
100
AcDbText
 10
303.0000000000001
 20
1070.4896923651
 30
0.0
 40
51.9435623556582
  1
キャプタイヤケーブル
 41
0.9992307692307694
  7
EXCADTTF1
 72
     5
 11
978.0
 21
1070.4896923651
 31
0.0
100
AcDbText
  0
TEXT
  5
1F7
330
1F
100
AcDbEntity
  8
Ｓ_１_２０
  6
CONTINUOUS
 62
     4
100
AcDbText
 10
313.5000000000001
 20
995.4896923650998
 30
0.0
 40
51.9435623556582
  1
4芯 38mm
 41
0.9992307692307689
  7
EXCADTTF1
 72
     5
 11
583.5
 21
995.4896923650998
 31
0.0
100
AcDbText
  0
TEXT
  5
1F8
330
1F
100
AcDbEntity
  8
Ｓ_１_２０
  6
CONTINUOUS
 62
     4
100
AcDbText
 10
563.25
 20
1027.393989508321
 30
0.0
 40
23.37460012450596
  1
2
 41
0.999230894720921
  7
EXCADTTF1
 72
     5
 11
578.4375
 21
1027.393989508321
 31
0.0
100
AcDbText
  0
TEXT
  5
1F9
330
1F
100
AcDbEntity
  8
Ｓ_１_２０
  6
CONTINUOUS
 62
     4
100
AcDbText
 10
2689.5
 20
1891.9921875
 30
0.0
 40
51.9435623556582
  1
圧力調整弁
 41
0.9992307692307691
  7
EXCADTTF1
 72
     5
 11
3027.0
 21
1891.9921875
 31
0.0
100
AcDbText
  0
LEADER
  5
1FA
330
1F
100
AcDbEntity
  8
Ｓ_１_２０
  6
CONTINUOUS
 62
     2
100
AcDbLeader
  3
ISO-25
 76
     3
 10
3178.0
 20
1743.0
 30
0.0
 10
3046.0
 20
1875.0
 30
0.0
 10
2689.5
 20
1875.0
 30
0.0
1001
ACAD
1000
DSTYLE
1002
{
1070
     5
1000
EX_NORM
1070
    41
1040
45.0
1070
   341
1005
78
1002
}
  0
TEXT
  5
1FB
330
1F
100
AcDbEntity
  8
Ｓ_１_２０
  6
CONTINUOUS
 62
     4
100
AcDbText
 10
2623.5
 20
1217.2471875
 30
0.0
 40
51.9435623556582
  1
油圧ポート口
 41
0.9992307692307691
  7
EXCADTTF1
 72
     5
 11
3028.5
 21
1217.2471875
 31
0.0
100
AcDbText
  0
LEADER
  5
1FC
330
1F
100
AcDbEntity
  8
Ｓ_１_２０
  6
CONTINUOUS
 62
     2
100
AcDbLeader
  3
ISO-25
 76
     3
 10
3184.0
 20
1339.01
 30
0.0
 10
3045.245
 20
1200.255
 30
0.0
 10
2623.5
 20
1200.255
 30
0.0
1001
ACAD
1000
DSTYLE
1002
{
1070
     5
1000
EX_NORM
1070
    41
1040
45.0
1070
   341
1005
78
1002
}
  0
LINE
  5
1FD
330
1F
100
AcDbEntity
  8
Ｓ_１_２０
  6
EXLTYPE0
 62
     2
100
AcDbLine
 10
1768.0
 20
1558.0
 30
0.0
 11
1812.0
 21
1558.0
 31
0.0
  0
LINE
  5
1FE
330
1F
100
AcDbEntity
  8
Ｓ_１_２０
  6
EXLTYPE0
 62
     2
100
AcDbLine
 10
1768.0
 20
1688.0
 30
0.0
 11
1812.0
 21
1688.0
 31
0.0
  0
LINE
  5
1FF
330
1F
100
AcDbEntity
  8
Ｓ_１_２０
  6
EXLTYPE0
 62
     2
100
AcDbLine
 10
1768.0
 20
1703.0
 30
0.0
 11
1812.0
 21
1703.0
 31
0.0
  0
LINE
  5
200
330
1F
100
AcDbEntity
  8
Ｓ_１_２０
  6
EXLTYPE0
 62
     2
100
AcDbLine
 10
1768.0
 20
1743.0
 30
0.0
 11
1812.0
 21
1743.0
 31
0.0
  0
LINE
  5
201
330
1F
100
AcDbEntity
  8
Ｓ_１_２０
  6
EXLTYPE0
 62
     2
100
AcDbLine
 10
1768.0
 20
1733.0
 30
0.0
 11
1812.0
 21
1733.0
 31
0.0
  0
LINE
  5
202
330
1F
100
AcDbEntity
  8
Ｓ_１_２０
  6
EXLTYPE0
 62
     2
100
AcDbLine
 10
1812.0
 20
1558.0
 30
0.0
 11
1812.0
 21
1703.0
 31
0.0
  0
LINE
  5
203
330
1F
100
AcDbEntity
  8
Ｓ_１_２０
  6
EXLTYPE0
 62
     2
100
AcDbLine
 10
1768.0
 20
1558.0
 30
0.0
 11
1768.0
 21
1703.0
 31
0.0
  0
LINE
  5
204
330
1F
100
AcDbEntity
  8
Ｓ_１_２０
  6
EXLTYPE0
 62
     2
100
AcDbLine
 10
1848.0
 20
1558.0
 30
0.0
 11
1848.0
 21
1703.0
 31
0.0
  0
LINE
  5
205
330
1F
100
AcDbEntity
  8
Ｓ_１_２０
  6
EXLTYPE0
 62
     2
100
AcDbLine
 10
1892.0
 20
1558.0
 30
0.0
 11
1892.0
 21
1703.0
 31
0.0
  0
LINE
  5
206
330
1F
100
AcDbEntity
  8
Ｓ_１_２０
  6
EXLTYPE0
 62
     2
100
AcDbLine
 10
1928.0
 20
1558.0
 30
0.0
 11
1928.0
 21
1703.0
 31
0.0
  0
LINE
  5
207
330
1F
100
AcDbEntity
  8
Ｓ_１_２０
  6
EXLTYPE0
 62
     2
100
AcDbLine
 10
1972.0
 20
1558.0
 30
0.0
 11
1972.0
 21
1703.0
 31
0.0
  0
LINE
  5
208
330
1F
100
AcDbEntity
  8
Ｓ_１_２０
  6
EXLTYPE0
 62
     2
100
AcDbLine
 10
1848.0
 20
1558.0
 30
0.0
 11
1892.0
 21
1558.0
 31
0.0
  0
LINE
  5
209
330
1F
100
AcDbEntity
  8
Ｓ_１_２０
  6
EXLTYPE0
 62
     2
100
AcDbLine
 10
1848.0
 20
1688.0
 30
0.0
 11
1892.0
 21
1688.0
 31
0.0
  0
LINE
  5
20A
330
1F
100
AcDbEntity
  8
Ｓ_１_２０
  6
EXLTYPE0
 62
     2
100
AcDbLine
 10
1848.0
 20
1703.0
 30
0.0
 11
1892.0
 21
1703.0
 31
0.0
  0
LINE
  5
20B
330
1F
100
AcDbEntity
  8
Ｓ_１_２０
  6
EXLTYPE0
 62
     2
100
AcDbLine
 10
1848.0
 20
1733.0
 30
0.0
 11
1892.0
 21
1733.0
 31
0.0
  0
LINE
  5
20C
330
1F
100
AcDbEntity
  8
Ｓ_１_２０
  6
EXLTYPE0
 62
     2
100
AcDbLine
 10
1848.0
 20
1743.0
 30
0.0
 11
1892.0
 21
1743.0
 31
0.0
  0
LINE
  5
20D
330
1F
100
AcDbEntity
  8
Ｓ_１_２０
  6
EXLTYPE0
 62
     2
100
AcDbLine
 10
1928.0
 20
1743.0
 30
0.0
 11
1972.0
 21
1743.0
 31
0.0
  0
LINE
  5
20E
330
1F
100
AcDbEntity
  8
Ｓ_１_２０
  6
EXLTYPE0
 62
     2
100
AcDbLine
 10
1928.0
 20
1733.0
 30
0.0
 11
1972.0
 21
1733.0
 31
0.0
  0
LINE
  5
20F
330
1F
100
AcDbEntity
  8
Ｓ_１_２０
  6
EXLTYPE0
 62
     2
100
AcDbLine
 10
1928.0
 20
1703.0
 30
0.0
 11
1972.0
 21
1703.0
 31
0.0
  0
LINE
  5
210
330
1F
100
AcDbEntity
  8
Ｓ_１_２０
  6
EXLTYPE0
 62
     2
100
AcDbLine
 10
1928.0
 20
1688.0
 30
0.0
 11
1972.0
 21
1688.0
 31
0.0
  0
LINE
  5
211
330
1F
100
AcDbEntity
  8
Ｓ_１_２０
  6
EXLTYPE0
 62
     2
100
AcDbLine
 10
1928.0
 20
1558.0
 30
0.0
 11
1972.0
 21
1558.0
 31
0.0
  0
LINE
  5
212
330
1F
100
AcDbEntity
  8
Ｓ_１_２０
  6
EXLTYPE0
 62
     2
100
AcDbLine
 10
1796.0
 20
1703.0
 30
0.0
 11
1796.0
 21
1733.0
 31
0.0
  0
LINE
  5
213
330
1F
100
AcDbEntity
  8
Ｓ_１_２０
  6
EXLTYPE0
 62
     2
100
AcDbLine
 10
1784.0
 20
1703.0
 30
0.0
 11
1784.0
 21
1733.0
 31
0.0
  0
LINE
  5
214
330
1F
100
AcDbEntity
  8
Ｓ_１_２０
  6
EXLTYPE0
 62
     2
100
AcDbLine
 10
1876.0
 20
1703.0
 30
0.0
 11
1876.0
 21
1733.0
 31
0.0
  0
LINE
  5
215
330
1F
100
AcDbEntity
  8
Ｓ_１_２０
  6
EXLTYPE0
 62
     2
100
AcDbLine
 10
1864.0
 20
1703.0
 30
0.0
 11
1864.0
 21
1733.0
 31
0.0
  0
LINE
  5
216
330
1F
100
AcDbEntity
  8
Ｓ_１_２０
  6
EXLTYPE0
 62
     2
100
AcDbLine
 10
1956.0
 20
1703.0
 30
0.0
 11
1956.0
 21
1733.0
 31
0.0
  0
LINE
  5
217
330
1F
100
AcDbEntity
  8
Ｓ_１_２０
  6
EXLTYPE0
 62
     2
100
AcDbLine
 10
1944.0
 20
1703.0
 30
0.0
 11
1944.0
 21
1733.0
 31
0.0
  0
LINE
  5
218
330
1F
100
AcDbEntity
  8
Ｓ_１_２０
  6
EXLTYPE0
 62
     2
100
AcDbLine
 10
1768.0
 20
1733.0
 30
0.0
 11
1768.0
 21
1743.0
 31
0.0
  0
LINE
  5
219
330
1F
100
AcDbEntity
  8
Ｓ_１_２０
  6
EXLTYPE0
 62
     2
100
AcDbLine
 10
1848.0
 20
1733.0
 30
0.0
 11
1848.0
 21
1743.0
 31
0.0
  0
LINE
  5
21A
330
1F
100
AcDbEntity
  8
Ｓ_１_２０
  6
EXLTYPE0
 62
     2
100
AcDbLine
 10
1812.0
 20
1733.0
 30
0.0
 11
1812.0
 21
1743.0
 31
0.0
  0
LINE
  5
21B
330
1F
100
AcDbEntity
  8
Ｓ_１_２０
  6
EXLTYPE0
 62
     2
100
AcDbLine
 10
1892.0
 20
1733.0
 30
0.0
 11
1892.0
 21
1743.0
 31
0.0
  0
LINE
  5
21C
330
1F
100
AcDbEntity
  8
Ｓ_１_２０
  6
EXLTYPE0
 62
     2
100
AcDbLine
 10
1928.0
 20
1733.0
 30
0.0
 11
1928.0
 21
1743.0
 31
0.0
  0
LINE
  5
21D
330
1F
100
AcDbEntity
  8
Ｓ_１_２０
  6
EXLTYPE0
 62
     2
100
AcDbLine
 10
1972.0
 20
1733.0
 30
0.0
 11
1972.0
 21
1743.0
 31
0.0
  0
LINE
  5
21E
330
1F
100
AcDbEntity
  8
Ｓ_１_２０
  6
EXLTYPE0
 62
     2
100
AcDbLine
 10
2052.0
 20
1733.0
 30
0.0
 11
2052.0
 21
1743.0
 31
0.0
  0
LINE
  5
21F
330
1F
100
AcDbEntity
  8
Ｓ_１_２０
  6
EXLTYPE0
 62
     2
100
AcDbLine
 10
2008.0
 20
1733.0
 30
0.0
 11
2008.0
 21
1743.0
 31
0.0
  0
LINE
  5
220
330
1F
100
AcDbEntity
  8
Ｓ_１_２０
  6
EXLTYPE0
 62
     2
100
AcDbLine
 10
2024.0
 20
1703.0
 30
0.0
 11
2024.0
 21
1733.0
 31
0.0
  0
LINE
  5
221
330
1F
100
AcDbEntity
  8
Ｓ_１_２０
  6
EXLTYPE0
 62
     2
100
AcDbLine
 10
2052.0
 20
1558.0
 30
0.0
 11
2052.0
 21
1703.0
 31
0.0
  0
LINE
  5
222
330
1F
100
AcDbEntity
  8
Ｓ_１_２０
  6
EXLTYPE0
 62
     2
100
AcDbLine
 10
2008.0
 20
1558.0
 30
0.0
 11
2008.0
 21
1703.0
 31
0.0
  0
LINE
  5
223
330
1F
100
AcDbEntity
  8
Ｓ_１_２０
  6
EXLTYPE0
 62
     2
100
AcDbLine
 10
2008.0
 20
1558.0
 30
0.0
 11
2052.0
 21
1558.0
 31
0.0
  0
LINE
  5
224
330
1F
100
AcDbEntity
  8
Ｓ_１_２０
  6
EXLTYPE0
 62
     2
100
AcDbLine
 10
2008.0
 20
1688.0
 30
0.0
 11
2052.0
 21
1688.0
 31
0.0
  0
LINE
  5
225
330
1F
100
AcDbEntity
  8
Ｓ_１_２０
  6
EXLTYPE0
 62
     2
100
AcDbLine
 10
2008.0
 20
1703.0
 30
0.0
 11
2052.0
 21
1703.0
 31
0.0
  0
LINE
  5
226
330
1F
100
AcDbEntity
  8
Ｓ_１_２０
  6
EXLTYPE0
 62
     2
100
AcDbLine
 10
2008.0
 20
1733.0
 30
0.0
 11
2052.0
 21
1733.0
 31
0.0
  0
LINE
  5
227
330
1F
100
AcDbEntity
  8
Ｓ_１_２０
  6
EXLTYPE0
 62
     2
100
AcDbLine
 10
2008.0
 20
1743.0
 30
0.0
 11
2052.0
 21
1743.0
 31
0.0
  0
LINE
  5
228
330
1F
100
AcDbEntity
  8
Ｓ_１_２０
  6
EXLTYPE0
 62
     2
100
AcDbLine
 10
2036.0
 20
1703.0
 30
0.0
 11
2036.0
 21
1733.0
 31
0.0
  0
LINE
  5
229
330
1F
100
AcDbEntity
  8
Ｓ_１_２０
  6
EXLTYPE0
 62
     2
100
AcDbLine
 10
2038.33
 20
1415.01
 30
0.0
 11
2068.33
 21
1415.01
 31
0.0
  0
LINE
  5
22A
330
1F
100
AcDbEntity
  8
Ｓ_１_２０
  6
EXLTYPE0
 62
     2
100
AcDbLine
 10
2038.33
 20
1405.01
 30
0.0
 11
2068.33
 21
1405.01
 31
0.0
  0
LINE
  5
22B
330
1F
100
AcDbEntity
  8
Ｓ_１_２０
  6
EXLTYPE0
 62
     2
100
AcDbLine
 10
2068.33
 20
1405.01
 30
0.0
 11
2068.33
 21
1415.01
 31
0.0
  0
LINE
  5
22C
330
1F
100
AcDbEntity
  8
Ｓ_１_２０
  6
EXLTYPE0
 62
     2
100
AcDbLine
 10
2038.33
 20
1405.01
 30
0.0
 11
2038.33
 21
1415.01
 31
0.0
  0
LINE
  5
22D
330
1F
100
AcDbEntity
  8
Ｓ_１_２０
  6
EXLTYPE0
 62
     2
100
AcDbLine
 10
2043.33
 20
1400.01
 30
0.0
 11
2043.33
 21
1420.01
 31
0.0
  0
LINE
  5
22E
330
1F
100
AcDbEntity
  8
Ｓ_１_２０
  6
EXLTYPE0
 62
     2
100
AcDbLine
 10
2063.33
 20
1400.01
 30
0.0
 11
2063.33
 21
1420.01
 31
0.0
  0
LINE
  5
22F
330
1F
100
AcDbEntity
  8
Ｓ_１_２０
  6
EXLTYPE0
 62
     2
100
AcDbLine
 10
1791.66
 20
1415.01
 30
0.0
 11
1821.66
 21
1415.01
 31
0.0
  0
LINE
  5
230
330
1F
100
AcDbEntity
  8
Ｓ_１_２０
  6
EXLTYPE0
 62
     2
100
AcDbLine
 10
1791.66
 20
1405.01
 30
0.0
 11
1821.66
 21
1405.01
 31
0.0
  0
LINE
  5
231
330
1F
100
AcDbEntity
  8
Ｓ_１_２０
  6
EXLTYPE0
 62
     2
100
AcDbLine
 10
1791.66
 20
1405.01
 30
0.0
 11
1791.66
 21
1415.01
 31
0.0
  0
LINE
  5
232
330
1F
100
AcDbEntity
  8
Ｓ_１_２０
  6
EXLTYPE0
 62
     2
100
AcDbLine
 10
1796.66
 20
1400.01
 30
0.0
 11
1796.66
 21
1420.01
 31
0.0
  0
LINE
  5
233
330
1F
100
AcDbEntity
  8
Ｓ_１_２０
  6
EXLTYPE0
 62
     2
100
AcDbLine
 10
1816.66
 20
1400.01
 30
0.0
 11
1816.66
 21
1420.01
 31
0.0
  0
LINE
  5
234
330
1F
100
AcDbEntity
  8
Ｓ_１_２０
  6
EXLTYPE0
 62
     2
100
AcDbLine
 10
1821.66
 20
1405.01
 30
0.0
 11
1821.66
 21
1415.01
 31
0.0
  0
LINE
  5
235
330
1F
100
AcDbEntity
  8
Ｓ_１_２０
  6
EXLTYPE0
 62
     2
100
AcDbLine
 10
1853.33
 20
1415.01
 30
0.0
 11
1883.33
 21
1415.01
 31
0.0
  0
LINE
  5
236
330
1F
100
AcDbEntity
  8
Ｓ_１_２０
  6
EXLTYPE0
 62
     2
100
AcDbLine
 10
1853.33
 20
1405.01
 30
0.0
 11
1883.33
 21
1405.01
 31
0.0
  0
LINE
  5
237
330
1F
100
AcDbEntity
  8
Ｓ_１_２０
  6
EXLTYPE0
 62
     2
100
AcDbLine
 10
1853.33
 20
1405.01
 30
0.0
 11
1853.33
 21
1415.01
 31
0.0
  0
LINE
  5
238
330
1F
100
AcDbEntity
  8
Ｓ_１_２０
  6
EXLTYPE0
 62
     2
100
AcDbLine
 10
1858.33
 20
1400.01
 30
0.0
 11
1858.33
 21
1420.01
 31
0.0
  0
LINE
  5
239
330
1F
100
AcDbEntity
  8
Ｓ_１_２０
  6
EXLTYPE0
 62
     2
100
AcDbLine
 10
1878.33
 20
1400.01
 30
0.0
 11
1878.33
 21
1420.01
 31
0.0
  0
LINE
  5
23A
330
1F
100
AcDbEntity
  8
Ｓ_１_２０
  6
EXLTYPE0
 62
     2
100
AcDbLine
 10
1883.33
 20
1405.01
 30
0.0
 11
1883.33
 21
1415.01
 31
0.0
  0
LINE
  5
23B
330
1F
100
AcDbEntity
  8
Ｓ_１_２０
  6
EXLTYPE0
 62
     2
100
AcDbLine
 10
1915.0
 20
1415.01
 30
0.0
 11
1945.0
 21
1415.01
 31
0.0
  0
LINE
  5
23C
330
1F
100
AcDbEntity
  8
Ｓ_１_２０
  6
EXLTYPE0
 62
     2
100
AcDbLine
 10
1915.0
 20
1405.01
 30
0.0
 11
1945.0
 21
1405.01
 31
0.0
  0
LINE
  5
23D
330
1F
100
AcDbEntity
  8
Ｓ_１_２０
  6
EXLTYPE0
 62
     2
100
AcDbLine
 10
1915.0
 20
1405.01
 30
0.0
 11
1915.0
 21
1415.01
 31
0.0
  0
LINE
  5
23E
330
1F
100
AcDbEntity
  8
Ｓ_１_２０
  6
EXLTYPE0
 62
     2
100
AcDbLine
 10
1920.0
 20
1400.01
 30
0.0
 11
1920.0
 21
1420.01
 31
0.0
  0
LINE
  5
23F
330
1F
100
AcDbEntity
  8
Ｓ_１_２０
  6
EXLTYPE0
 62
     2
100
AcDbLine
 10
1940.0
 20
1400.01
 30
0.0
 11
1940.0
 21
1420.01
 31
0.0
  0
LINE
  5
240
330
1F
100
AcDbEntity
  8
Ｓ_１_２０
  6
EXLTYPE0
 62
     2
100
AcDbLine
 10
1945.0
 20
1405.01
 30
0.0
 11
1945.0
 21
1415.01
 31
0.0
  0
LINE
  5
241
330
1F
100
AcDbEntity
  8
Ｓ_１_２０
  6
EXLTYPE0
 62
     2
100
AcDbLine
 10
1976.66
 20
1415.01
 30
0.0
 11
2006.66
 21
1415.01
 31
0.0
  0
LINE
  5
242
330
1F
100
AcDbEntity
  8
Ｓ_１_２０
  6
EXLTYPE0
 62
     2
100
AcDbLine
 10
1976.66
 20
1405.01
 30
0.0
 11
2006.66
 21
1405.01
 31
0.0
  0
LINE
  5
243
330
1F
100
AcDbEntity
  8
Ｓ_１_２０
  6
EXLTYPE0
 62
     2
100
AcDbLine
 10
1976.66
 20
1405.01
 30
0.0
 11
1976.66
 21
1415.01
 31
0.0
  0
LINE
  5
244
330
1F
100
AcDbEntity
  8
Ｓ_１_２０
  6
EXLTYPE0
 62
     2
100
AcDbLine
 10
1981.66
 20
1400.01
 30
0.0
 11
1981.66
 21
1420.01
 31
0.0
  0
LINE
  5
245
330
1F
100
AcDbEntity
  8
Ｓ_１_２０
  6
EXLTYPE0
 62
     2
100
AcDbLine
 10
2001.66
 20
1400.01
 30
0.0
 11
2001.66
 21
1420.01
 31
0.0
  0
LINE
  5
246
330
1F
100
AcDbEntity
  8
Ｓ_１_２０
  6
EXLTYPE0
 62
     2
100
AcDbLine
 10
2006.66
 20
1405.01
 30
0.0
 11
2006.66
 21
1415.01
 31
0.0
  0
CIRCLE
  5
247
330
1F
100
AcDbEntity
  8
Ｓ_１_２０
  6
EXLTYPE0
 62
     2
100
AcDbCircle
 10
1399.995879
 20
1485.003257
 30
0.0
 40
9.999999
  0
CIRCLE
  5
248
330
1F
100
AcDbEntity
  8
Ｓ_１_２０
  6
EXLTYPE0
 62
     2
100
AcDbCircle
 10
1459.995879
 20
1485.003257
 30
0.0
 40
9.999999
  0
CIRCLE
  5
249
330
1F
100
AcDbEntity
  8
Ｓ_１_２０
  6
EXLTYPE0
 62
     2
100
AcDbCircle
 10
1519.995879
 20
1485.003257
 30
0.0
 40
9.999999
  0
CIRCLE
  5
24A
330
1F
100
AcDbEntity
  8
Ｓ_１_２０
  6
EXLTYPE0
 62
     2
100
AcDbCircle
 10
1579.995879
 20
1485.003257
 30
0.0
 40
9.999999
  0
CIRCLE
  5
24B
330
1F
100
AcDbEntity
  8
Ｓ_１_２０
  6
EXLTYPE0
 62
     2
100
AcDbCircle
 10
2054.995635
 20
1025.003379
 30
0.0
 40
7.500000000000005
  0
CIRCLE
  5
24C
330
1F
100
AcDbEntity
  8
Ｓ_１_２０
  6
EXLTYPE0
 62
     2
100
AcDbCircle
 10
2054.995635
 20
950.0033790000002
 30
0.0
 40
7.500000000000005
  0
CIRCLE
  5
24D
330
1F
100
AcDbEntity
  8
Ｓ_１_２０
  6
EXLTYPE0
 62
     2
100
AcDbCircle
 10
2054.995635
 20
875.0033789999999
 30
0.0
 40
7.500000000000005
  0
CIRCLE
  5
24E
330
1F
100
AcDbEntity
  8
Ｓ_１_２０
  6
EXLTYPE0
 62
     2
100
AcDbCircle
 10
1986.245635
 20
875.0033789999999
 30
0.0
 40
7.500000000000005
  0
CIRCLE
  5
24F
330
1F
100
AcDbEntity
  8
Ｓ_１_２０
  6
EXLTYPE0
 62
     2
100
AcDbCircle
 10
1917.495635
 20
875.0033789999999
 30
0.0
 40
7.500000000000005
  0
CIRCLE
  5
250
330
1F
100
AcDbEntity
  8
Ｓ_１_２０
  6
EXLTYPE0
 62
     2
100
AcDbCircle
 10
1848.745635
 20
875.0033789999999
 30
0.0
 40
7.500000000000005
  0
CIRCLE
  5
251
330
1F
100
AcDbEntity
  8
Ｓ_１_２０
  6
EXLTYPE0
 62
     2
100
AcDbCircle
 10
1779.995635
 20
875.0033789999999
 30
0.0
 40
7.500000000000005
  0
CIRCLE
  5
252
330
1F
100
AcDbEntity
  8
Ｓ_１_２０
  6
EXLTYPE0
 62
     2
100
AcDbCircle
 10
1711.245879
 20
875.0033789999999
 30
0.0
 40
7.500000000000005
  0
CIRCLE
  5
253
330
1F
100
AcDbEntity
  8
Ｓ_１_２０
  6
EXLTYPE0
 62
     2
100
AcDbCircle
 10
1642.495879
 20
875.0033789999999
 30
0.0
 40
7.500000000000005
  0
CIRCLE
  5
254
330
1F
100
AcDbEntity
  8
Ｓ_１_２０
  6
EXLTYPE0
 62
     2
100
AcDbCircle
 10
1573.745879
 20
875.0033789999999
 30
0.0
 40
7.500000000000005
  0
CIRCLE
  5
255
330
1F
100
AcDbEntity
  8
Ｓ_１_２０
  6
EXLTYPE0
 62
     2
100
AcDbCircle
 10
1504.995879
 20
875.0033789999999
 30
0.0
 40
7.500000000000005
  0
CIRCLE
  5
256
330
1F
100
AcDbEntity
  8
Ｓ_１_２０
  6
EXLTYPE0
 62
     2
100
AcDbCircle
 10
1504.995879
 20
950.0033790000002
 30
0.0
 40
7.500000000000005
  0
LINE
  5
257
330
1F
100
AcDbEntity
  8
Ｓ_１_２０
  6
EXLTYPE4
 62
     1
100
AcDbLine
 10
1300.0
 20
2200.0
 30
0.0
 11
1300.0
 21
2094.88
 31
0.0
  0
LINE
  5
258
330
1F
100
AcDbEntity
  8
Ｓ_１_２０
  6
EXLTYPE4
 62
     1
100
AcDbLine
 10
1250.0
 20
2145.0
 30
0.0
 11
1348.48
 21
2145.0
 31
0.0
  0
LINE
  5
259
330
1F
100
AcDbEntity
  8
Ｓ_１_２０
  6
EXLTYPE4
 62
     1
100
AcDbLine
 10
1372.33
 20
1485.0
 30
0.0
 11
1605.39
 21
1485.0
 31
0.0
  0
LINE
  5
25A
330
1F
100
AcDbEntity
  8
Ｓ_１_２０
  6
EXLTYPE4
 62
     1
100
AcDbLine
 10
1400.0
 20
1461.13
 30
0.0
 11
1400.0
 21
1509.61
 31
0.0
  0
LINE
  5
25B
330
1F
100
AcDbEntity
  8
Ｓ_１_２０
  6
EXLTYPE4
 62
     1
100
AcDbLine
 10
1460.0
 20
1456.43
 30
0.0
 11
1460.0
 21
1508.05
 31
0.0
  0
LINE
  5
25C
330
1F
100
AcDbEntity
  8
Ｓ_１_２０
  6
EXLTYPE4
 62
     1
100
AcDbLine
 10
1520.0
 20
1459.56
 30
0.0
 11
1520.0
 21
1506.49
 31
0.0
  0
LINE
  5
25D
330
1F
100
AcDbEntity
  8
Ｓ_１_２０
  6
EXLTYPE4
 62
     1
100
AcDbLine
 10
1580.0
 20
1458.0
 30
0.0
 11
1580.0
 21
1508.05
 31
0.0
  0
LINE
  5
25E
330
1F
100
AcDbEntity
  8
Ｓ_１_２０
  6
EXLTYPE4
 62
     1
100
AcDbLine
 10
1307.92
 20
1340.0
 30
0.0
 11
1342.33
 21
1340.0
 31
0.0
  0
LINE
  5
25F
330
1F
100
AcDbEntity
  8
Ｓ_１_２０
  6
EXLTYPE4
 62
     1
100
AcDbLine
 10
1309.49
 20
1110.0
 30
0.0
 11
1339.2
 21
1110.0
 31
0.0
  0
LINE
  5
260
330
1F
100
AcDbEntity
  8
Ｓ_１_２０
  6
EXLTYPE4
 62
     1
100
AcDbLine
 10
1325.0
 20
1082.6
 30
0.0
 11
1325.0
 21
1368.84
 31
0.0
  0
LINE
  5
261
330
1F
100
AcDbEntity
  8
Ｓ_１_２０
  6
EXLTYPE4
 62
     1
100
AcDbLine
 10
1486.46
 20
1325.0
 30
0.0
 11
2069.89
 21
1325.0
 31
0.0
  0
LINE
  5
262
330
1F
100
AcDbEntity
  8
Ｓ_１_２０
  6
EXLTYPE4
 62
     1
100
AcDbLine
 10
1505.0
 20
855.7999999999998
 30
0.0
 11
1505.0
 21
1339.12
 31
0.0
  0
LINE
  5
263
330
1F
100
AcDbEntity
  8
Ｓ_１_２０
  6
EXLTYPE4
 62
     1
100
AcDbLine
 10
2055.0
 20
857.3600000000002
 30
0.0
 11
2055.0
 21
1337.56
 31
0.0
  0
LINE
  5
264
330
1F
100
AcDbEntity
  8
Ｓ_１_２０
  6
EXLTYPE4
 62
     1
100
AcDbLine
 10
1488.03
 20
875.0000000000001
 30
0.0
 11
2074.59
 21
875.0000000000001
 31
0.0
  0
LINE
  5
265
330
1F
100
AcDbEntity
  8
Ｓ_１_２０
  6
EXLTYPE4
 62
     1
100
AcDbLine
 10
1490.0
 20
950.0
 30
0.0
 11
1520.0
 21
950.0
 31
0.0
  0
LINE
  5
266
330
1F
100
AcDbEntity
  8
Ｓ_１_２０
  6
EXLTYPE4
 62
     1
100
AcDbLine
 10
1490.0
 20
1025.0
 30
0.0
 11
1520.0
 21
1025.0
 31
0.0
  0
LINE
  5
267
330
1F
100
AcDbEntity
  8
Ｓ_１_２０
  6
EXLTYPE4
 62
     1
100
AcDbLine
 10
1490.0
 20
1100.0
 30
0.0
 11
1520.0
 21
1100.0
 31
0.0
  0
LINE
  5
268
330
1F
100
AcDbEntity
  8
Ｓ_１_２０
  6
EXLTYPE4
 62
     1
100
AcDbLine
 10
1490.0
 20
1175.0
 30
0.0
 11
1520.0
 21
1175.0
 31
0.0
  0
LINE
  5
269
330
1F
100
AcDbEntity
  8
Ｓ_１_２０
  6
EXLTYPE4
 62
     1
100
AcDbLine
 10
1490.0
 20
1250.0
 30
0.0
 11
1520.0
 21
1250.0
 31
0.0
  0
LINE
  5
26A
330
1F
100
AcDbEntity
  8
Ｓ_１_２０
  6
EXLTYPE4
 62
     1
100
AcDbLine
 10
2040.0
 20
1250.0
 30
0.0
 11
2070.0
 21
1250.0
 31
0.0
  0
LINE
  5
26B
330
1F
100
AcDbEntity
  8
Ｓ_１_２０
  6
EXLTYPE4
 62
     1
100
AcDbLine
 10
2040.0
 20
1175.0
 30
0.0
 11
2070.0
 21
1175.0
 31
0.0
  0
LINE
  5
26C
330
1F
100
AcDbEntity
  8
Ｓ_１_２０
  6
EXLTYPE4
 62
     1
100
AcDbLine
 10
2040.0
 20
1100.0
 30
0.0
 11
2070.0
 21
1100.0
 31
0.0
  0
LINE
  5
26D
330
1F
100
AcDbEntity
  8
Ｓ_１_２０
  6
EXLTYPE4
 62
     1
100
AcDbLine
 10
2040.0
 20
1025.0
 30
0.0
 11
2070.0
 21
1025.0
 31
0.0
  0
LINE
  5
26E
330
1F
100
AcDbEntity
  8
Ｓ_１_２０
  6
EXLTYPE4
 62
     1
100
AcDbLine
 10
2040.0
 20
950.0
 30
0.0
 11
2070.0
 21
950.0
 31
0.0
  0
LINE
  5
26F
330
1F
100
AcDbEntity
  8
Ｓ_１_２０
  6
EXLTYPE4
 62
     1
100
AcDbLine
 10
1573.75
 20
890.0000000000001
 30
0.0
 11
1573.75
 21
860.0000000000001
 31
0.0
  0
LINE
  5
270
330
1F
100
AcDbEntity
  8
Ｓ_１_２０
  6
EXLTYPE4
 62
     1
100
AcDbLine
 10
1642.5
 20
890.0000000000001
 30
0.0
 11
1642.5
 21
860.0000000000001
 31
0.0
  0
LINE
  5
271
330
1F
100
AcDbEntity
  8
Ｓ_１_２０
  6
EXLTYPE4
 62
     1
100
AcDbLine
 10
1711.25
 20
890.0000000000001
 30
0.0
 11
1711.25
 21
860.0000000000001
 31
0.0
  0
LINE
  5
272
330
1F
100
AcDbEntity
  8
Ｓ_１_２０
  6
EXLTYPE4
 62
     1
100
AcDbLine
 10
1780.0
 20
890.0000000000001
 30
0.0
 11
1780.0
 21
860.0000000000001
 31
0.0
  0
LINE
  5
273
330
1F
100
AcDbEntity
  8
Ｓ_１_２０
  6
EXLTYPE4
 62
     1
100
AcDbLine
 10
1848.75
 20
890.0000000000001
 30
0.0
 11
1848.75
 21
860.0000000000001
 31
0.0
  0
LINE
  5
274
330
1F
100
AcDbEntity
  8
Ｓ_１_２０
  6
EXLTYPE4
 62
     1
100
AcDbLine
 10
1917.5
 20
890.0000000000001
 30
0.0
 11
1917.5
 21
860.0000000000001
 31
0.0
  0
LINE
  5
275
330
1F
100
AcDbEntity
  8
Ｓ_１_２０
  6
EXLTYPE4
 62
     1
100
AcDbLine
 10
1986.25
 20
890.0000000000001
 30
0.0
 11
1986.25
 21
860.0000000000001
 31
0.0
  0
LINE
  5
276
330
1F
100
AcDbEntity
  8
Ｓ_１_２０
  6
EXLTYPE4
 62
     1
100
AcDbLine
 10
1986.25
 20
1340.0
 30
0.0
 11
1986.25
 21
1310.0
 31
0.0
  0
LINE
  5
277
330
1F
100
AcDbEntity
  8
Ｓ_１_２０
  6
EXLTYPE4
 62
     1
100
AcDbLine
 10
1917.5
 20
1340.0
 30
0.0
 11
1917.5
 21
1310.0
 31
0.0
  0
LINE
  5
278
330
1F
100
AcDbEntity
  8
Ｓ_１_２０
  6
EXLTYPE4
 62
     1
100
AcDbLine
 10
1848.75
 20
1340.0
 30
0.0
 11
1848.75
 21
1310.0
 31
0.0
  0
LINE
  5
279
330
1F
100
AcDbEntity
  8
Ｓ_１_２０
  6
EXLTYPE4
 62
     1
100
AcDbLine
 10
1780.0
 20
1340.0
 30
0.0
 11
1780.0
 21
1310.0
 31
0.0
  0
LINE
  5
27A
330
1F
100
AcDbEntity
  8
Ｓ_１_２０
  6
EXLTYPE4
 62
     1
100
AcDbLine
 10
1711.25
 20
1340.0
 30
0.0
 11
1711.25
 21
1310.0
 31
0.0
  0
LINE
  5
27B
330
1F
100
AcDbEntity
  8
Ｓ_１_２０
  6
EXLTYPE4
 62
     1
100
AcDbLine
 10
1642.5
 20
1340.0
 30
0.0
 11
1642.5
 21
1310.0
 31
0.0
  0
LINE
  5
27C
330
1F
100
AcDbEntity
  8
Ｓ_１_２０
  6
EXLTYPE4
 62
     1
100
AcDbLine
 10
1573.75
 20
1340.0
 30
0.0
 11
1573.75
 21
1310.0
 31
0.0
  0
LINE
  5
27D
330
1F
100
AcDbEntity
  8
Ｓ_１_２０
  6
EXLTYPE4
 62
     1
100
AcDbLine
 10
1583.33
 20
693.4699999999999
 30
0.0
 11
1583.33
 21
809.9600000000002
 31
0.0
  0
LINE
  5
27E
330
1F
100
AcDbEntity
  8
Ｓ_１_２０
  6
EXLTYPE4
 62
     1
100
AcDbLine
 10
1816.66
 20
692.5600000000001
 30
0.0
 11
1816.66
 21
808.14
 31
0.0
  0
LINE
  5
27F
330
1F
100
AcDbEntity
  8
Ｓ_１_２０
  6
EXLTYPE4
 62
     1
100
AcDbLine
 10
1790.0
 20
1552.17
 30
0.0
 11
1790.0
 21
1745.15
 31
0.0
  0
LINE
  5
280
330
1F
100
AcDbEntity
  8
Ｓ_１_２０
  6
EXLTYPE4
 62
     1
100
AcDbLine
 10
1870.0
 20
1552.58
 30
0.0
 11
1870.0
 21
1746.4
 31
0.0
  0
LINE
  5
281
330
1F
100
AcDbEntity
  8
Ｓ_１_２０
  6
EXLTYPE4
 62
     1
100
AcDbLine
 10
1950.0
 20
1552.17
 30
0.0
 11
1950.0
 21
1747.23
 31
0.0
  0
LINE
  5
282
330
1F
100
AcDbEntity
  8
Ｓ_１_２０
  6
EXLTYPE4
 62
     1
100
AcDbLine
 10
2030.0
 20
1552.58
 30
0.0
 11
2030.0
 21
1746.4
 31
0.0
  0
LINE
  5
283
330
1F
100
AcDbEntity
  8
Ｓ_１_２０
  6
EXLTYPE4
 62
     1
100
AcDbLine
 10
2053.33
 20
1333.76
 30
0.0
 11
2053.33
 21
1475.84
 31
0.0
  0
LINE
  5
284
330
1F
100
AcDbEntity
  8
Ｓ_１_２０
  6
EXLTYPE4
 62
     1
100
AcDbLine
 10
1806.66
 20
1331.99
 30
0.0
 11
1806.66
 21
1475.84
 31
0.0
  0
LINE
  5
285
330
1F
100
AcDbEntity
  8
Ｓ_１_２０
  6
EXLTYPE4
 62
     1
100
AcDbLine
 10
1868.33
 20
1331.55
 30
0.0
 11
1868.33
 21
1475.84
 31
0.0
  0
LINE
  5
286
330
1F
100
AcDbEntity
  8
Ｓ_１_２０
  6
EXLTYPE4
 62
     1
100
AcDbLine
 10
1930.0
 20
1331.55
 30
0.0
 11
1930.0
 21
1475.84
 31
0.0
  0
LINE
  5
287
330
1F
100
AcDbEntity
  8
Ｓ_１_２０
  6
EXLTYPE4
 62
     1
100
AcDbLine
 10
1991.66
 20
1332.43
 30
0.0
 11
1991.66
 21
1475.84
 31
0.0
  0
LINE
  5
288
330
1F
100
AcDbEntity
  8
Ｓ_１_２０
  6
EXLTYPE4
 62
     1
100
AcDbLine
 10
2100.0
 20
2200.0
 30
0.0
 11
2100.0
 21
2094.88
 31
0.0
  0
LINE
  5
289
330
1F
100
AcDbEntity
  8
Ｓ_１_２０
  6
EXLTYPE4
 62
     1
100
AcDbLine
 10
2050.0
 20
2145.0
 30
0.0
 11
2148.48
 21
2145.0
 31
0.0
  0
LINE
  5
28A
330
1F
100
AcDbEntity
  8
Ｓ_１_２０
  6
CONTINUOUS
 62
     3
100
AcDbLine
 10
1250.0
 20
800.0000000000001
 30
0.0
 11
2150.0
 21
800.0000000000001
 31
0.0
  0
LINE
  5
28B
330
1F
100
AcDbEntity
  8
Ｓ_１_２０
  6
CONTINUOUS
 62
     3
100
AcDbLine
 10
1250.0
 20
2100.0
 30
0.0
 11
2150.0
 21
2100.0
 31
0.0
  0
LINE
  5
28C
330
1F
100
AcDbEntity
  8
Ｓ_１_２０
  6
CONTINUOUS
 62
     3
100
AcDbLine
 10
1277.47
 20
2099.75
 30
0.0
 11
1277.5
 21
2100.0
 31
0.0
  0
LINE
  5
28D
330
1F
100
AcDbEntity
  8
Ｓ_１_２０
  6
CONTINUOUS
 62
     3
100
AcDbLine
 10
1322.52
 20
2099.75
 30
0.0
 11
1322.5
 21
2100.0
 31
0.0
  0
LINE
  5
28E
330
1F
100
AcDbEntity
  8
Ｓ_１_２０
  6
CONTINUOUS
 62
     3
100
AcDbLine
 10
1279.07
 20
2118.0
 30
0.0
 11
1320.92
 21
2118.0
 31
0.0
  0
LINE
  5
28F
330
1F
100
AcDbEntity
  8
Ｓ_１_２０
  6
CONTINUOUS
 62
     3
100
AcDbLine
 10
1279.07
 20
2118.0
 30
0.0
 11
1300.0
 21
2120.0
 31
0.0
  0
LINE
  5
290
330
1F
100
AcDbEntity
  8
Ｓ_１_２０
  6
CONTINUOUS
 62
     3
100
AcDbLine
 10
1300.0
 20
2120.0
 30
0.0
 11
1320.92
 21
2118.0
 31
0.0
  0
LINE
  5
291
330
1F
100
AcDbEntity
  8
Ｓ_１_２０
  6
CONTINUOUS
 62
     3
100
AcDbLine
 10
1277.5
 20
2100.0
 30
0.0
 11
1279.07
 21
2118.0
 31
0.0
  0
LINE
  5
292
330
1F
100
AcDbEntity
  8
Ｓ_１_２０
  6
CONTINUOUS
 62
     3
100
AcDbLine
 10
1322.5
 20
2100.0
 30
0.0
 11
1320.92
 21
2118.0
 31
0.0
  0
LINE
  5
293
330
1F
100
AcDbEntity
  8
Ｓ_１_２０
  6
CONTINUOUS
 62
     3
100
AcDbLine
 10
1285.0
 20
2125.0
 30
0.0
 11
1315.0
 21
2125.0
 31
0.0
  0
LINE
  5
294
330
1F
100
AcDbEntity
  8
Ｓ_１_２０
  6
CONTINUOUS
 62
     3
100
AcDbLine
 10
1260.0
 20
2100.0
 30
0.0
 11
1260.0
 21
2125.0
 31
0.0
  0
LINE
  5
295
330
1F
100
AcDbEntity
  8
Ｓ_１_２０
  6
CONTINUOUS
 62
     3
100
AcDbLine
 10
2140.0
 20
2100.0
 30
0.0
 11
2140.0
 21
2125.0
 31
0.0
  0
LINE
  5
296
330
1F
100
AcDbEntity
  8
Ｓ_１_２０
  6
CONTINUOUS
 62
     3
100
AcDbLine
 10
1340.31
 20
2125.0
 30
0.0
 11
2059.679999999999
 21
2125.0
 31
0.0
  0
LINE
  5
297
330
1F
100
AcDbEntity
  8
Ｓ_１_２０
  6
CONTINUOUS
 62
     3
100
AcDbLine
 10
2085.0
 20
2125.0
 30
0.0
 11
2115.0
 21
2125.0
 31
0.0
  0
LINE
  5
298
330
1F
100
AcDbEntity
  8
Ｓ_１_２０
  6
CONTINUOUS
 62
     3
100
AcDbLine
 10
1300.0
 20
2050.0
 30
0.0
 11
1715.0
 21
2050.0
 31
0.0
  0
LINE
  5
299
330
1F
100
AcDbEntity
  8
Ｓ_１_２０
  6
CONTINUOUS
 62
     3
100
AcDbLine
 10
1300.0
 20
1610.0
 30
0.0
 11
1300.0
 21
2050.0
 31
0.0
  0
LINE
  5
29A
330
1F
100
AcDbEntity
  8
Ｓ_１_２０
  6
CONTINUOUS
 62
     3
100
AcDbLine
 10
1715.0
 20
1610.0
 30
0.0
 11
1715.0
 21
2050.0
 31
0.0
  0
LINE
  5
29B
330
1F
100
AcDbEntity
  8
Ｓ_１_２０
  6
CONTINUOUS
 62
     3
100
AcDbLine
 10
1270.0
 20
1410.0
 30
0.0
 11
1715.0
 21
1410.0
 31
0.0
  0
LINE
  5
29C
330
1F
100
AcDbEntity
  8
Ｓ_１_２０
  6
CONTINUOUS
 62
     3
100
AcDbLine
 10
1270.0
 20
1560.0
 30
0.0
 11
1715.0
 21
1560.0
 31
0.0
  0
LINE
  5
29D
330
1F
100
AcDbEntity
  8
Ｓ_１_２０
  6
CONTINUOUS
 62
     3
100
AcDbLine
 10
1300.0
 20
1610.0
 30
0.0
 11
1715.0
 21
1610.0
 31
0.0
  0
LINE
  5
29E
330
1F
100
AcDbEntity
  8
Ｓ_１_２０
  6
CONTINUOUS
 62
     3
100
AcDbLine
 10
1270.0
 20
1410.0
 30
0.0
 11
1270.0
 21
1560.0
 31
0.0
  0
LINE
  5
29F
330
1F
100
AcDbEntity
  8
Ｓ_１_２０
  6
CONTINUOUS
 62
     3
100
AcDbLine
 10
1715.0
 20
1560.0
 30
0.0
 11
1715.0
 21
1410.0
 31
0.0
  0
LINE
  5
2A0
330
1F
100
AcDbEntity
  8
Ｓ_１_２０
  6
CONTINUOUS
 62
     3
100
AcDbLine
 10
1695.0
 20
1800.0
 30
0.0
 11
1695.0
 21
1880.0
 31
0.0
  0
LINE
  5
2A1
330
1F
100
AcDbEntity
  8
Ｓ_１_２０
  6
CONTINUOUS
 62
     3
100
AcDbLine
 10
1675.0
 20
1800.0
 30
0.0
 11
1675.0
 21
1880.0
 31
0.0
  0
LINE
  5
2A2
330
1F
100
AcDbEntity
  8
Ｓ_１_２０
  6
CONTINUOUS
 62
     3
100
AcDbLine
 10
1675.0
 20
1860.0
 30
0.0
 11
1695.0
 21
1860.0
 31
0.0
  0
LINE
  5
2A3
330
1F
100
AcDbEntity
  8
Ｓ_１_２０
  6
CONTINUOUS
 62
     3
100
AcDbLine
 10
1675.0
 20
1800.0
 30
0.0
 11
1695.0
 21
1800.0
 31
0.0
  0
LINE
  5
2A4
330
1F
100
AcDbEntity
  8
Ｓ_１_２０
  6
CONTINUOUS
 62
     3
100
AcDbLine
 10
1675.0
 20
1880.0
 30
0.0
 11
1695.0
 21
1880.0
 31
0.0
  0
LINE
  5
2A5
330
1F
100
AcDbEntity
  8
Ｓ_１_２０
  6
CONTINUOUS
 62
     3
100
AcDbLine
 10
1730.0
 20
1400.0
 30
0.0
 11
1730.0
 21
2100.0
 31
0.0
  0
LINE
  5
2A6
330
1F
100
AcDbEntity
  8
Ｓ_１_２０
  6
CONTINUOUS
 62
     3
100
AcDbLine
 10
1745.0
 20
1415.0
 30
0.0
 11
1745.0
 21
2085.0
 31
0.0
  0
LINE
  5
2A7
330
1F
100
AcDbEntity
  8
Ｓ_１_２０
  6
CONTINUOUS
 62
     3
100
AcDbLine
 10
1745.0
 20
2085.0
 30
0.0
 11
2135.0
 21
2085.0
 31
0.0
  0
LINE
  5
2A8
330
1F
100
AcDbEntity
  8
Ｓ_１_２０
  6
CONTINUOUS
 62
     3
100
AcDbLine
 10
1765.0
 20
1720.0
 30
0.0
 11
1765.0
 21
1800.0
 31
0.0
  0
LINE
  5
2A9
330
1F
100
AcDbEntity
  8
Ｓ_１_２０
  6
CONTINUOUS
 62
     3
100
AcDbLine
 10
1785.0
 20
1720.0
 30
0.0
 11
1785.0
 21
1800.0
 31
0.0
  0
LINE
  5
2AA
330
1F
100
AcDbEntity
  8
Ｓ_１_２０
  6
CONTINUOUS
 62
     3
100
AcDbLine
 10
1765.0
 20
1780.0
 30
0.0
 11
1785.0
 21
1780.0
 31
0.0
  0
LINE
  5
2AB
330
1F
100
AcDbEntity
  8
Ｓ_１_２０
  6
CONTINUOUS
 62
     3
100
AcDbLine
 10
1765.0
 20
1720.0
 30
0.0
 11
1785.0
 21
1720.0
 31
0.0
  0
LINE
  5
2AC
330
1F
100
AcDbEntity
  8
Ｓ_１_２０
  6
CONTINUOUS
 62
     3
100
AcDbLine
 10
1765.0
 20
1800.0
 30
0.0
 11
1785.0
 21
1800.0
 31
0.0
  0
LINE
  5
2AD
330
1F
100
AcDbEntity
  8
Ｓ_１_２０
  6
CONTINUOUS
 62
     3
100
AcDbLine
 10
1315.0
 20
1350.0
 30
0.0
 11
1335.0
 21
1350.0
 31
0.0
  0
LINE
  5
2AE
330
1F
100
AcDbEntity
  8
Ｓ_１_２０
  6
CONTINUOUS
 62
     3
100
AcDbLine
 10
1315.0
 20
1100.0
 30
0.0
 11
1335.0
 21
1100.0
 31
0.0
  0
LINE
  5
2AF
330
1F
100
AcDbEntity
  8
Ｓ_１_２０
  6
CONTINUOUS
 62
     3
100
AcDbLine
 10
1300.0
 20
1360.0
 30
0.0
 11
1350.0
 21
1360.0
 31
0.0
  0
LINE
  5
2B0
330
1F
100
AcDbEntity
  8
Ｓ_１_２０
  6
CONTINUOUS
 62
     3
100
AcDbLine
 10
1300.0
 20
1090.0
 30
0.0
 11
1350.0
 21
1090.0
 31
0.0
  0
LINE
  5
2B1
330
1F
100
AcDbEntity
  8
Ｓ_１_２０
  6
CONTINUOUS
 62
     3
100
AcDbLine
 10
1480.0
 20
850.0000000000001
 30
0.0
 11
2080.0
 21
850.0000000000001
 31
0.0
  0
LINE
  5
2B2
330
1F
100
AcDbEntity
  8
Ｓ_１_２０
  6
CONTINUOUS
 62
     3
100
AcDbLine
 10
2080.0
 20
850.0000000000001
 30
0.0
 11
2080.0
 21
910.1299999999998
 31
0.0
  0
LINE
  5
2B3
330
1F
100
AcDbEntity
  8
Ｓ_１_２０
  6
CONTINUOUS
 62
     3
100
AcDbLine
 10
1480.0
 20
1350.0
 30
0.0
 11
1791.16
 21
1350.0
 31
0.0
  0
LINE
  5
2B4
330
1F
100
AcDbEntity
  8
Ｓ_１_２０
  6
CONTINUOUS
 62
     3
100
AcDbLine
 10
1480.0
 20
850.0000000000001
 30
0.0
 11
1480.0
 21
1012.53
 31
0.0
  0
LINE
  5
2B5
330
1F
100
AcDbEntity
  8
Ｓ_１_２０
  6
CONTINUOUS
 62
     3
100
AcDbLine
 10
1577.33
 20
709.2500000000001
 30
0.0
 11
1577.33
 21
790.7500000000001
 31
0.0
  0
LINE
  5
2B6
330
1F
100
AcDbEntity
  8
Ｓ_１_２０
  6
CONTINUOUS
 62
     3
100
AcDbLine
 10
1589.33
 20
709.2500000000001
 30
0.0
 11
1589.33
 21
790.7500000000001
 31
0.0
  0
LINE
  5
2B7
330
1F
100
AcDbEntity
  8
Ｓ_１_２０
  6
CONTINUOUS
 62
     3
100
AcDbLine
 10
1810.66
 20
709.2500000000001
 30
0.0
 11
1810.66
 21
790.7500000000001
 31
0.0
  0
LINE
  5
2B8
330
1F
100
AcDbEntity
  8
Ｓ_１_２０
  6
CONTINUOUS
 62
     3
100
AcDbLine
 10
1822.66
 20
709.2500000000001
 30
0.0
 11
1822.66
 21
790.7500000000001
 31
0.0
  0
LINE
  5
2B9
330
1F
100
AcDbEntity
  8
Ｓ_１_２０
  6
CONTINUOUS
 62
     3
100
AcDbLine
 10
2039.33
 20
1337.01
 30
0.0
 11
2067.33
 21
1337.01
 31
0.0
  0
LINE
  5
2BA
330
1F
100
AcDbEntity
  8
Ｓ_１_２０
  6
CONTINUOUS
 62
     3
100
AcDbLine
 10
2037.33
 20
1339.01
 30
0.0
 11
2037.33
 21
1349.01
 31
0.0
  0
LINE
  5
2BB
330
1F
100
AcDbEntity
  8
Ｓ_１_２０
  6
CONTINUOUS
 62
     3
100
AcDbLine
 10
2069.33
 20
1339.01
 30
0.0
 11
2069.33
 21
1349.01
 31
0.0
  0
LINE
  5
2BC
330
1F
100
AcDbEntity
  8
Ｓ_１_２０
  6
CONTINUOUS
 62
     3
100
AcDbLine
 10
2037.33
 20
1367.01
 30
0.0
 11
2069.33
 21
1367.01
 31
0.0
  0
LINE
  5
2BD
330
1F
100
AcDbEntity
  8
Ｓ_１_２０
  6
CONTINUOUS
 62
     3
100
AcDbLine
 10
2037.33
 20
1339.01
 30
0.0
 11
2069.33
 21
1339.01
 31
0.0
  0
LINE
  5
2BE
330
1F
100
AcDbEntity
  8
Ｓ_１_２０
  6
CONTINUOUS
 62
     3
100
AcDbLine
 10
2037.33
 20
1339.01
 30
0.0
 11
2039.33
 21
1337.01
 31
0.0
  0
LINE
  5
2BF
330
1F
100
AcDbEntity
  8
Ｓ_１_２０
  6
CONTINUOUS
 62
     3
100
AcDbLine
 10
2067.33
 20
1337.01
 30
0.0
 11
2069.33
 21
1339.01
 31
0.0
  0
LINE
  5
2C0
330
1F
100
AcDbEntity
  8
Ｓ_１_２０
  6
CONTINUOUS
 62
     3
100
AcDbLine
 10
2037.33
 20
1349.01
 30
0.0
 11
2069.33
 21
1349.01
 31
0.0
  0
LINE
  5
2C1
330
1F
100
AcDbEntity
  8
Ｓ_１_２０
  6
CONTINUOUS
 62
     3
100
AcDbLine
 10
2037.33
 20
1357.01
 30
0.0
 11
2069.33
 21
1357.01
 31
0.0
  0
LINE
  5
2C2
330
1F
100
AcDbEntity
  8
Ｓ_１_２０
  6
CONTINUOUS
 62
     3
100
AcDbLine
 10
2037.83
 20
1349.01
 30
0.0
 11
2037.83
 21
1357.01
 31
0.0
  0
LINE
  5
2C3
330
1F
100
AcDbEntity
  8
Ｓ_１_２０
  6
CONTINUOUS
 62
     3
100
AcDbLine
 10
2068.83
 20
1349.01
 30
0.0
 11
2068.83
 21
1357.01
 31
0.0
  0
LINE
  5
2C4
330
1F
100
AcDbEntity
  8
Ｓ_１_２０
  6
CONTINUOUS
 62
     3
100
AcDbLine
 10
2069.33
 20
1357.01
 30
0.0
 11
2069.33
 21
1367.01
 31
0.0
  0
LINE
  5
2C5
330
1F
100
AcDbEntity
  8
Ｓ_１_２０
  6
CONTINUOUS
 62
     3
100
AcDbLine
 10
2037.33
 20
1357.01
 30
0.0
 11
2037.33
 21
1367.01
 31
0.0
  0
LINE
  5
2C6
330
1F
100
AcDbEntity
  8
Ｓ_１_２０
  6
CONTINUOUS
 62
     3
100
AcDbLine
 10
2066.33
 20
1367.01
 30
0.0
 11
2066.33
 21
1370.01
 31
0.0
  0
LINE
  5
2C7
330
1F
100
AcDbEntity
  8
Ｓ_１_２０
  6
CONTINUOUS
 62
     3
100
AcDbLine
 10
2040.33
 20
1367.01
 30
0.0
 11
2040.33
 21
1370.01
 31
0.0
  0
LINE
  5
2C8
330
1F
100
AcDbEntity
  8
Ｓ_１_２０
  6
CONTINUOUS
 62
     3
100
AcDbLine
 10
2040.33
 20
1370.01
 30
0.0
 11
2066.33
 21
1370.01
 31
0.0
  0
LINE
  5
2C9
330
1F
100
AcDbEntity
  8
Ｓ_１_２０
  6
CONTINUOUS
 62
     3
100
AcDbLine
 10
2063.33
 20
1373.01
 30
0.0
 11
2063.33
 21
1385.01
 31
0.0
  0
LINE
  5
2CA
330
1F
100
AcDbEntity
  8
Ｓ_１_２０
  6
CONTINUOUS
 62
     3
100
AcDbLine
 10
2043.33
 20
1373.01
 30
0.0
 11
2043.33
 21
1385.01
 31
0.0
  0
LINE
  5
2CB
330
1F
100
AcDbEntity
  8
Ｓ_１_２０
  6
CONTINUOUS
 62
     3
100
AcDbLine
 10
2040.33
 20
1370.01
 30
0.0
 11
2043.33
 21
1373.01
 31
0.0
  0
LINE
  5
2CC
330
1F
100
AcDbEntity
  8
Ｓ_１_２０
  6
CONTINUOUS
 62
     3
100
AcDbLine
 10
2066.33
 20
1370.01
 30
0.0
 11
2063.33
 21
1373.01
 31
0.0
  0
LINE
  5
2CD
330
1F
100
AcDbEntity
  8
Ｓ_１_２０
  6
CONTINUOUS
 62
     3
100
AcDbLine
 10
2043.33
 20
1373.01
 30
0.0
 11
2063.33
 21
1373.01
 31
0.0
  0
LINE
  5
2CE
330
1F
100
AcDbEntity
  8
Ｓ_１_２０
  6
CONTINUOUS
 62
     3
100
AcDbLine
 10
2040.33
 20
1385.01
 30
0.0
 11
2066.33
 21
1385.01
 31
0.0
  0
LINE
  5
2CF
330
1F
100
AcDbEntity
  8
Ｓ_１_２０
  6
CONTINUOUS
 62
     3
100
AcDbLine
 10
2040.33
 20
1385.01
 30
0.0
 11
2040.33
 21
1400.01
 31
0.0
  0
LINE
  5
2D0
330
1F
100
AcDbEntity
  8
Ｓ_１_２０
  6
CONTINUOUS
 62
     3
100
AcDbLine
 10
2066.33
 20
1385.01
 30
0.0
 11
2066.33
 21
1400.01
 31
0.0
  0
LINE
  5
2D1
330
1F
100
AcDbEntity
  8
Ｓ_１_２０
  6
CONTINUOUS
 62
     3
100
AcDbLine
 10
1819.66
 20
1385.01
 30
0.0
 11
1819.66
 21
1400.01
 31
0.0
  0
LINE
  5
2D2
330
1F
100
AcDbEntity
  8
Ｓ_１_２０
  6
CONTINUOUS
 62
     3
100
AcDbLine
 10
1792.66
 20
1337.01
 30
0.0
 11
1820.66
 21
1337.01
 31
0.0
  0
LINE
  5
2D3
330
1F
100
AcDbEntity
  8
Ｓ_１_２０
  6
CONTINUOUS
 62
     3
100
AcDbLine
 10
1790.66
 20
1339.01
 30
0.0
 11
1790.66
 21
1349.01
 31
0.0
  0
LINE
  5
2D4
330
1F
100
AcDbEntity
  8
Ｓ_１_２０
  6
CONTINUOUS
 62
     3
100
AcDbLine
 10
1790.66
 20
1367.01
 30
0.0
 11
1822.66
 21
1367.01
 31
0.0
  0
LINE
  5
2D5
330
1F
100
AcDbEntity
  8
Ｓ_１_２０
  6
CONTINUOUS
 62
     3
100
AcDbLine
 10
1790.66
 20
1339.01
 30
0.0
 11
1822.66
 21
1339.01
 31
0.0
  0
LINE
  5
2D6
330
1F
100
AcDbEntity
  8
Ｓ_１_２０
  6
CONTINUOUS
 62
     3
100
AcDbLine
 10
1790.66
 20
1339.01
 30
0.0
 11
1792.66
 21
1337.01
 31
0.0
  0
LINE
  5
2D7
330
1F
100
AcDbEntity
  8
Ｓ_１_２０
  6
CONTINUOUS
 62
     3
100
AcDbLine
 10
1790.66
 20
1349.01
 30
0.0
 11
1822.66
 21
1349.01
 31
0.0
  0
LINE
  5
2D8
330
1F
100
AcDbEntity
  8
Ｓ_１_２０
  6
CONTINUOUS
 62
     3
100
AcDbLine
 10
1790.66
 20
1357.01
 30
0.0
 11
1822.66
 21
1357.01
 31
0.0
  0
LINE
  5
2D9
330
1F
100
AcDbEntity
  8
Ｓ_１_２０
  6
CONTINUOUS
 62
     3
100
AcDbLine
 10
1791.16
 20
1349.01
 30
0.0
 11
1791.16
 21
1357.01
 31
0.0
  0
LINE
  5
2DA
330
1F
100
AcDbEntity
  8
Ｓ_１_２０
  6
CONTINUOUS
 62
     3
100
AcDbLine
 10
1790.66
 20
1357.01
 30
0.0
 11
1790.66
 21
1367.01
 31
0.0
  0
LINE
  5
2DB
330
1F
100
AcDbEntity
  8
Ｓ_１_２０
  6
CONTINUOUS
 62
     3
100
AcDbLine
 10
1793.66
 20
1367.01
 30
0.0
 11
1793.66
 21
1370.01
 31
0.0
  0
LINE
  5
2DC
330
1F
100
AcDbEntity
  8
Ｓ_１_２０
  6
CONTINUOUS
 62
     3
100
AcDbLine
 10
1793.66
 20
1370.01
 30
0.0
 11
1819.66
 21
1370.01
 31
0.0
  0
LINE
  5
2DD
330
1F
100
AcDbEntity
  8
Ｓ_１_２０
  6
CONTINUOUS
 62
     3
100
AcDbLine
 10
1816.66
 20
1373.01
 30
0.0
 11
1816.66
 21
1385.01
 31
0.0
  0
LINE
  5
2DE
330
1F
100
AcDbEntity
  8
Ｓ_１_２０
  6
CONTINUOUS
 62
     3
100
AcDbLine
 10
1796.66
 20
1373.01
 30
0.0
 11
1796.66
 21
1385.01
 31
0.0
  0
LINE
  5
2DF
330
1F
100
AcDbEntity
  8
Ｓ_１_２０
  6
CONTINUOUS
 62
     3
100
AcDbLine
 10
1793.66
 20
1370.01
 30
0.0
 11
1796.66
 21
1373.01
 31
0.0
  0
LINE
  5
2E0
330
1F
100
AcDbEntity
  8
Ｓ_１_２０
  6
CONTINUOUS
 62
     3
100
AcDbLine
 10
1819.66
 20
1370.01
 30
0.0
 11
1816.66
 21
1373.01
 31
0.0
  0
LINE
  5
2E1
330
1F
100
AcDbEntity
  8
Ｓ_１_２０
  6
CONTINUOUS
 62
     3
100
AcDbLine
 10
1796.66
 20
1373.01
 30
0.0
 11
1816.66
 21
1373.01
 31
0.0
  0
LINE
  5
2E2
330
1F
100
AcDbEntity
  8
Ｓ_１_２０
  6
CONTINUOUS
 62
     3
100
AcDbLine
 10
1793.66
 20
1385.01
 30
0.0
 11
1819.66
 21
1385.01
 31
0.0
  0
LINE
  5
2E3
330
1F
100
AcDbEntity
  8
Ｓ_１_２０
  6
CONTINUOUS
 62
     3
100
AcDbLine
 10
1793.66
 20
1385.01
 30
0.0
 11
1793.66
 21
1400.01
 31
0.0
  0
LINE
  5
2E4
330
1F
100
AcDbEntity
  8
Ｓ_１_２０
  6
CONTINUOUS
 62
     3
100
AcDbLine
 10
1820.66
 20
1337.01
 30
0.0
 11
1822.66
 21
1339.01
 31
0.0
  0
LINE
  5
2E5
330
1F
100
AcDbEntity
  8
Ｓ_１_２０
  6
CONTINUOUS
 62
     3
100
AcDbLine
 10
1822.66
 20
1339.01
 30
0.0
 11
1822.66
 21
1349.01
 31
0.0
  0
LINE
  5
2E6
330
1F
100
AcDbEntity
  8
Ｓ_１_２０
  6
CONTINUOUS
 62
     3
100
AcDbLine
 10
1822.16
 20
1349.01
 30
0.0
 11
1822.16
 21
1357.01
 31
0.0
  0
LINE
  5
2E7
330
1F
100
AcDbEntity
  8
Ｓ_１_２０
  6
CONTINUOUS
 62
     3
100
AcDbLine
 10
1822.66
 20
1357.01
 30
0.0
 11
1822.66
 21
1367.01
 31
0.0
  0
LINE
  5
2E8
330
1F
100
AcDbEntity
  8
Ｓ_１_２０
  6
CONTINUOUS
 62
     3
100
AcDbLine
 10
1819.66
 20
1367.01
 30
0.0
 11
1819.66
 21
1370.01
 31
0.0
  0
LINE
  5
2E9
330
1F
100
AcDbEntity
  8
Ｓ_１_２０
  6
CONTINUOUS
 62
     3
100
AcDbLine
 10
1881.33
 20
1385.01
 30
0.0
 11
1881.33
 21
1400.01
 31
0.0
  0
LINE
  5
2EA
330
1F
100
AcDbEntity
  8
Ｓ_１_２０
  6
CONTINUOUS
 62
     3
100
AcDbLine
 10
1854.33
 20
1337.01
 30
0.0
 11
1882.33
 21
1337.01
 31
0.0
  0
LINE
  5
2EB
330
1F
100
AcDbEntity
  8
Ｓ_１_２０
  6
CONTINUOUS
 62
     3
100
AcDbLine
 10
1852.33
 20
1339.01
 30
0.0
 11
1852.33
 21
1349.01
 31
0.0
  0
LINE
  5
2EC
330
1F
100
AcDbEntity
  8
Ｓ_１_２０
  6
CONTINUOUS
 62
     3
100
AcDbLine
 10
1852.33
 20
1367.01
 30
0.0
 11
1884.33
 21
1367.01
 31
0.0
  0
LINE
  5
2ED
330
1F
100
AcDbEntity
  8
Ｓ_１_２０
  6
CONTINUOUS
 62
     3
100
AcDbLine
 10
1852.33
 20
1339.01
 30
0.0
 11
1884.33
 21
1339.01
 31
0.0
  0
LINE
  5
2EE
330
1F
100
AcDbEntity
  8
Ｓ_１_２０
  6
CONTINUOUS
 62
     3
100
AcDbLine
 10
1852.33
 20
1339.01
 30
0.0
 11
1854.33
 21
1337.01
 31
0.0
  0
LINE
  5
2EF
330
1F
100
AcDbEntity
  8
Ｓ_１_２０
  6
CONTINUOUS
 62
     3
100
AcDbLine
 10
1852.33
 20
1349.01
 30
0.0
 11
1884.33
 21
1349.01
 31
0.0
  0
LINE
  5
2F0
330
1F
100
AcDbEntity
  8
Ｓ_１_２０
  6
CONTINUOUS
 62
     3
100
AcDbLine
 10
1852.33
 20
1357.01
 30
0.0
 11
1884.33
 21
1357.01
 31
0.0
  0
LINE
  5
2F1
330
1F
100
AcDbEntity
  8
Ｓ_１_２０
  6
CONTINUOUS
 62
     3
100
AcDbLine
 10
1852.83
 20
1349.01
 30
0.0
 11
1852.83
 21
1357.01
 31
0.0
  0
LINE
  5
2F2
330
1F
100
AcDbEntity
  8
Ｓ_１_２０
  6
CONTINUOUS
 62
     3
100
AcDbLine
 10
1852.33
 20
1357.01
 30
0.0
 11
1852.33
 21
1367.01
 31
0.0
  0
LINE
  5
2F3
330
1F
100
AcDbEntity
  8
Ｓ_１_２０
  6
CONTINUOUS
 62
     3
100
AcDbLine
 10
1855.33
 20
1367.01
 30
0.0
 11
1855.33
 21
1370.01
 31
0.0
  0
LINE
  5
2F4
330
1F
100
AcDbEntity
  8
Ｓ_１_２０
  6
CONTINUOUS
 62
     3
100
AcDbLine
 10
1855.33
 20
1370.01
 30
0.0
 11
1881.33
 21
1370.01
 31
0.0
  0
LINE
  5
2F5
330
1F
100
AcDbEntity
  8
Ｓ_１_２０
  6
CONTINUOUS
 62
     3
100
AcDbLine
 10
1878.33
 20
1373.01
 30
0.0
 11
1878.33
 21
1385.01
 31
0.0
  0
LINE
  5
2F6
330
1F
100
AcDbEntity
  8
Ｓ_１_２０
  6
CONTINUOUS
 62
     3
100
AcDbLine
 10
1858.33
 20
1373.01
 30
0.0
 11
1858.33
 21
1385.01
 31
0.0
  0
LINE
  5
2F7
330
1F
100
AcDbEntity
  8
Ｓ_１_２０
  6
CONTINUOUS
 62
     3
100
AcDbLine
 10
1855.33
 20
1370.01
 30
0.0
 11
1858.33
 21
1373.01
 31
0.0
  0
LINE
  5
2F8
330
1F
100
AcDbEntity
  8
Ｓ_１_２０
  6
CONTINUOUS
 62
     3
100
AcDbLine
 10
1881.33
 20
1370.01
 30
0.0
 11
1878.33
 21
1373.01
 31
0.0
  0
LINE
  5
2F9
330
1F
100
AcDbEntity
  8
Ｓ_１_２０
  6
CONTINUOUS
 62
     3
100
AcDbLine
 10
1858.33
 20
1373.01
 30
0.0
 11
1878.33
 21
1373.01
 31
0.0
  0
LINE
  5
2FA
330
1F
100
AcDbEntity
  8
Ｓ_１_２０
  6
CONTINUOUS
 62
     3
100
AcDbLine
 10
1855.33
 20
1385.01
 30
0.0
 11
1881.33
 21
1385.01
 31
0.0
  0
LINE
  5
2FB
330
1F
100
AcDbEntity
  8
Ｓ_１_２０
  6
CONTINUOUS
 62
     3
100
AcDbLine
 10
1855.33
 20
1385.01
 30
0.0
 11
1855.33
 21
1400.01
 31
0.0
  0
LINE
  5
2FC
330
1F
100
AcDbEntity
  8
Ｓ_１_２０
  6
CONTINUOUS
 62
     3
100
AcDbLine
 10
1882.33
 20
1337.01
 30
0.0
 11
1884.33
 21
1339.01
 31
0.0
  0
LINE
  5
2FD
330
1F
100
AcDbEntity
  8
Ｓ_１_２０
  6
CONTINUOUS
 62
     3
100
AcDbLine
 10
1884.33
 20
1339.01
 30
0.0
 11
1884.33
 21
1349.01
 31
0.0
  0
LINE
  5
2FE
330
1F
100
AcDbEntity
  8
Ｓ_１_２０
  6
CONTINUOUS
 62
     3
100
AcDbLine
 10
1883.83
 20
1349.01
 30
0.0
 11
1883.83
 21
1357.01
 31
0.0
  0
LINE
  5
2FF
330
1F
100
AcDbEntity
  8
Ｓ_１_２０
  6
CONTINUOUS
 62
     3
100
AcDbLine
 10
1884.33
 20
1357.01
 30
0.0
 11
1884.33
 21
1367.01
 31
0.0
  0
LINE
  5
300
330
1F
100
AcDbEntity
  8
Ｓ_１_２０
  6
CONTINUOUS
 62
     3
100
AcDbLine
 10
1881.33
 20
1367.01
 30
0.0
 11
1881.33
 21
1370.01
 31
0.0
  0
LINE
  5
301
330
1F
100
AcDbEntity
  8
Ｓ_１_２０
  6
CONTINUOUS
 62
     3
100
AcDbLine
 10
1943.0
 20
1385.01
 30
0.0
 11
1943.0
 21
1400.01
 31
0.0
  0
LINE
  5
302
330
1F
100
AcDbEntity
  8
Ｓ_１_２０
  6
CONTINUOUS
 62
     3
100
AcDbLine
 10
1916.0
 20
1337.01
 30
0.0
 11
1944.0
 21
1337.01
 31
0.0
  0
LINE
  5
303
330
1F
100
AcDbEntity
  8
Ｓ_１_２０
  6
CONTINUOUS
 62
     3
100
AcDbLine
 10
1914.0
 20
1339.01
 30
0.0
 11
1914.0
 21
1349.01
 31
0.0
  0
LINE
  5
304
330
1F
100
AcDbEntity
  8
Ｓ_１_２０
  6
CONTINUOUS
 62
     3
100
AcDbLine
 10
1914.0
 20
1367.01
 30
0.0
 11
1946.0
 21
1367.01
 31
0.0
  0
LINE
  5
305
330
1F
100
AcDbEntity
  8
Ｓ_１_２０
  6
CONTINUOUS
 62
     3
100
AcDbLine
 10
1914.0
 20
1339.01
 30
0.0
 11
1946.0
 21
1339.01
 31
0.0
  0
LINE
  5
306
330
1F
100
AcDbEntity
  8
Ｓ_１_２０
  6
CONTINUOUS
 62
     3
100
AcDbLine
 10
1914.0
 20
1339.01
 30
0.0
 11
1916.0
 21
1337.01
 31
0.0
  0
LINE
  5
307
330
1F
100
AcDbEntity
  8
Ｓ_１_２０
  6
CONTINUOUS
 62
     3
100
AcDbLine
 10
1914.0
 20
1349.01
 30
0.0
 11
1946.0
 21
1349.01
 31
0.0
  0
LINE
  5
308
330
1F
100
AcDbEntity
  8
Ｓ_１_２０
  6
CONTINUOUS
 62
     3
100
AcDbLine
 10
1914.0
 20
1357.01
 30
0.0
 11
1946.0
 21
1357.01
 31
0.0
  0
LINE
  5
309
330
1F
100
AcDbEntity
  8
Ｓ_１_２０
  6
CONTINUOUS
 62
     3
100
AcDbLine
 10
1914.5
 20
1349.01
 30
0.0
 11
1914.5
 21
1357.01
 31
0.0
  0
LINE
  5
30A
330
1F
100
AcDbEntity
  8
Ｓ_１_２０
  6
CONTINUOUS
 62
     3
100
AcDbLine
 10
1914.0
 20
1357.01
 30
0.0
 11
1914.0
 21
1367.01
 31
0.0
  0
LINE
  5
30B
330
1F
100
AcDbEntity
  8
Ｓ_１_２０
  6
CONTINUOUS
 62
     3
100
AcDbLine
 10
1917.0
 20
1367.01
 30
0.0
 11
1917.0
 21
1370.01
 31
0.0
  0
LINE
  5
30C
330
1F
100
AcDbEntity
  8
Ｓ_１_２０
  6
CONTINUOUS
 62
     3
100
AcDbLine
 10
1917.0
 20
1370.01
 30
0.0
 11
1943.0
 21
1370.01
 31
0.0
  0
LINE
  5
30D
330
1F
100
AcDbEntity
  8
Ｓ_１_２０
  6
CONTINUOUS
 62
     3
100
AcDbLine
 10
1940.0
 20
1373.01
 30
0.0
 11
1940.0
 21
1385.01
 31
0.0
  0
LINE
  5
30E
330
1F
100
AcDbEntity
  8
Ｓ_１_２０
  6
CONTINUOUS
 62
     3
100
AcDbLine
 10
1920.0
 20
1373.01
 30
0.0
 11
1920.0
 21
1385.01
 31
0.0
  0
LINE
  5
30F
330
1F
100
AcDbEntity
  8
Ｓ_１_２０
  6
CONTINUOUS
 62
     3
100
AcDbLine
 10
1917.0
 20
1370.01
 30
0.0
 11
1920.0
 21
1373.01
 31
0.0
  0
LINE
  5
310
330
1F
100
AcDbEntity
  8
Ｓ_１_２０
  6
CONTINUOUS
 62
     3
100
AcDbLine
 10
1943.0
 20
1370.01
 30
0.0
 11
1940.0
 21
1373.01
 31
0.0
  0
LINE
  5
311
330
1F
100
AcDbEntity
  8
Ｓ_１_２０
  6
CONTINUOUS
 62
     3
100
AcDbLine
 10
1920.0
 20
1373.01
 30
0.0
 11
1940.0
 21
1373.01
 31
0.0
  0
LINE
  5
312
330
1F
100
AcDbEntity
  8
Ｓ_１_２０
  6
CONTINUOUS
 62
     3
100
AcDbLine
 10
1917.0
 20
1385.01
 30
0.0
 11
1943.0
 21
1385.01
 31
0.0
  0
LINE
  5
313
330
1F
100
AcDbEntity
  8
Ｓ_１_２０
  6
CONTINUOUS
 62
     3
100
AcDbLine
 10
1917.0
 20
1385.01
 30
0.0
 11
1917.0
 21
1400.01
 31
0.0
  0
LINE
  5
314
330
1F
100
AcDbEntity
  8
Ｓ_１_２０
  6
CONTINUOUS
 62
     3
100
AcDbLine
 10
1944.0
 20
1337.01
 30
0.0
 11
1946.0
 21
1339.01
 31
0.0
  0
LINE
  5
315
330
1F
100
AcDbEntity
  8
Ｓ_１_２０
  6
CONTINUOUS
 62
     3
100
AcDbLine
 10
1946.0
 20
1339.01
 30
0.0
 11
1946.0
 21
1349.01
 31
0.0
  0
LINE
  5
316
330
1F
100
AcDbEntity
  8
Ｓ_１_２０
  6
CONTINUOUS
 62
     3
100
AcDbLine
 10
1945.5
 20
1349.01
 30
0.0
 11
1945.5
 21
1357.01
 31
0.0
  0
LINE
  5
317
330
1F
100
AcDbEntity
  8
Ｓ_１_２０
  6
CONTINUOUS
 62
     3
100
AcDbLine
 10
1946.0
 20
1357.01
 30
0.0
 11
1946.0
 21
1367.01
 31
0.0
  0
LINE
  5
318
330
1F
100
AcDbEntity
  8
Ｓ_１_２０
  6
CONTINUOUS
 62
     3
100
AcDbLine
 10
1943.0
 20
1367.01
 30
0.0
 11
1943.0
 21
1370.01
 31
0.0
  0
LINE
  5
319
330
1F
100
AcDbEntity
  8
Ｓ_１_２０
  6
CONTINUOUS
 62
     3
100
AcDbLine
 10
2004.66
 20
1385.01
 30
0.0
 11
2004.66
 21
1400.01
 31
0.0
  0
LINE
  5
31A
330
1F
100
AcDbEntity
  8
Ｓ_１_２０
  6
CONTINUOUS
 62
     3
100
AcDbLine
 10
1977.66
 20
1337.01
 30
0.0
 11
2005.66
 21
1337.01
 31
0.0
  0
LINE
  5
31B
330
1F
100
AcDbEntity
  8
Ｓ_１_２０
  6
CONTINUOUS
 62
     3
100
AcDbLine
 10
1975.66
 20
1339.01
 30
0.0
 11
1975.66
 21
1349.01
 31
0.0
  0
LINE
  5
31C
330
1F
100
AcDbEntity
  8
Ｓ_１_２０
  6
CONTINUOUS
 62
     3
100
AcDbLine
 10
1975.66
 20
1367.01
 30
0.0
 11
2007.66
 21
1367.01
 31
0.0
  0
LINE
  5
31D
330
1F
100
AcDbEntity
  8
Ｓ_１_２０
  6
CONTINUOUS
 62
     3
100
AcDbLine
 10
1975.66
 20
1339.01
 30
0.0
 11
2007.66
 21
1339.01
 31
0.0
  0
LINE
  5
31E
330
1F
100
AcDbEntity
  8
Ｓ_１_２０
  6
CONTINUOUS
 62
     3
100
AcDbLine
 10
1975.66
 20
1339.01
 30
0.0
 11
1977.66
 21
1337.01
 31
0.0
  0
LINE
  5
31F
330
1F
100
AcDbEntity
  8
Ｓ_１_２０
  6
CONTINUOUS
 62
     3
100
AcDbLine
 10
1975.66
 20
1349.01
 30
0.0
 11
2007.66
 21
1349.01
 31
0.0
  0
LINE
  5
320
330
1F
100
AcDbEntity
  8
Ｓ_１_２０
  6
CONTINUOUS
 62
     3
100
AcDbLine
 10
1975.66
 20
1357.01
 30
0.0
 11
2007.66
 21
1357.01
 31
0.0
  0
LINE
  5
321
330
1F
100
AcDbEntity
  8
Ｓ_１_２０
  6
CONTINUOUS
 62
     3
100
AcDbLine
 10
1976.16
 20
1349.01
 30
0.0
 11
1976.16
 21
1357.01
 31
0.0
  0
LINE
  5
322
330
1F
100
AcDbEntity
  8
Ｓ_１_２０
  6
CONTINUOUS
 62
     3
100
AcDbLine
 10
1975.66
 20
1357.01
 30
0.0
 11
1975.66
 21
1367.01
 31
0.0
  0
LINE
  5
323
330
1F
100
AcDbEntity
  8
Ｓ_１_２０
  6
CONTINUOUS
 62
     3
100
AcDbLine
 10
1978.66
 20
1367.01
 30
0.0
 11
1978.66
 21
1370.01
 31
0.0
  0
LINE
  5
324
330
1F
100
AcDbEntity
  8
Ｓ_１_２０
  6
CONTINUOUS
 62
     3
100
AcDbLine
 10
1978.66
 20
1370.01
 30
0.0
 11
2004.66
 21
1370.01
 31
0.0
  0
LINE
  5
325
330
1F
100
AcDbEntity
  8
Ｓ_１_２０
  6
CONTINUOUS
 62
     3
100
AcDbLine
 10
2001.66
 20
1373.01
 30
0.0
 11
2001.66
 21
1385.01
 31
0.0
  0
LINE
  5
326
330
1F
100
AcDbEntity
  8
Ｓ_１_２０
  6
CONTINUOUS
 62
     3
100
AcDbLine
 10
1981.66
 20
1373.01
 30
0.0
 11
1981.66
 21
1385.01
 31
0.0
  0
LINE
  5
327
330
1F
100
AcDbEntity
  8
Ｓ_１_２０
  6
CONTINUOUS
 62
     3
100
AcDbLine
 10
1978.66
 20
1370.01
 30
0.0
 11
1981.66
 21
1373.01
 31
0.0
  0
LINE
  5
328
330
1F
100
AcDbEntity
  8
Ｓ_１_２０
  6
CONTINUOUS
 62
     3
100
AcDbLine
 10
2004.66
 20
1370.01
 30
0.0
 11
2001.66
 21
1373.01
 31
0.0
  0
LINE
  5
329
330
1F
100
AcDbEntity
  8
Ｓ_１_２０
  6
CONTINUOUS
 62
     3
100
AcDbLine
 10
1981.66
 20
1373.01
 30
0.0
 11
2001.66
 21
1373.01
 31
0.0
  0
LINE
  5
32A
330
1F
100
AcDbEntity
  8
Ｓ_１_２０
  6
CONTINUOUS
 62
     3
100
AcDbLine
 10
1978.66
 20
1385.01
 30
0.0
 11
2004.66
 21
1385.01
 31
0.0
  0
LINE
  5
32B
330
1F
100
AcDbEntity
  8
Ｓ_１_２０
  6
CONTINUOUS
 62
     3
100
AcDbLine
 10
1978.66
 20
1385.01
 30
0.0
 11
1978.66
 21
1400.01
 31
0.0
  0
LINE
  5
32C
330
1F
100
AcDbEntity
  8
Ｓ_１_２０
  6
CONTINUOUS
 62
     3
100
AcDbLine
 10
2005.66
 20
1337.01
 30
0.0
 11
2007.66
 21
1339.01
 31
0.0
  0
LINE
  5
32D
330
1F
100
AcDbEntity
  8
Ｓ_１_２０
  6
CONTINUOUS
 62
     3
100
AcDbLine
 10
2007.66
 20
1339.01
 30
0.0
 11
2007.66
 21
1349.01
 31
0.0
  0
LINE
  5
32E
330
1F
100
AcDbEntity
  8
Ｓ_１_２０
  6
CONTINUOUS
 62
     3
100
AcDbLine
 10
2007.16
 20
1349.01
 30
0.0
 11
2007.16
 21
1357.01
 31
0.0
  0
LINE
  5
32F
330
1F
100
AcDbEntity
  8
Ｓ_１_２０
  6
CONTINUOUS
 62
     3
100
AcDbLine
 10
2007.66
 20
1357.01
 30
0.0
 11
2007.66
 21
1367.01
 31
0.0
  0
LINE
  5
330
330
1F
100
AcDbEntity
  8
Ｓ_１_２０
  6
CONTINUOUS
 62
     3
100
AcDbLine
 10
2004.66
 20
1367.01
 30
0.0
 11
2004.66
 21
1370.01
 31
0.0
  0
LINE
  5
331
330
1F
100
AcDbEntity
  8
Ｓ_１_２０
  6
CONTINUOUS
 62
     3
100
AcDbLine
 10
1822.16
 20
1350.0
 30
0.0
 11
1852.83
 21
1350.0
 31
0.0
  0
LINE
  5
332
330
1F
100
AcDbEntity
  8
Ｓ_１_２０
  6
CONTINUOUS
 62
     3
100
AcDbLine
 10
1883.83
 20
1350.0
 30
0.0
 11
1914.5
 21
1350.0
 31
0.0
  0
LINE
  5
333
330
1F
100
AcDbEntity
  8
Ｓ_１_２０
  6
CONTINUOUS
 62
     3
100
AcDbLine
 10
1945.5
 20
1350.0
 30
0.0
 11
1976.16
 21
1350.0
 31
0.0
  0
LINE
  5
334
330
1F
100
AcDbEntity
  8
Ｓ_１_２０
  6
CONTINUOUS
 62
     3
100
AcDbLine
 10
2007.16
 20
1350.0
 30
0.0
 11
2037.83
 21
1350.0
 31
0.0
  0
LINE
  5
335
330
1F
100
AcDbEntity
  8
Ｓ_１_２０
  6
CONTINUOUS
 62
     3
100
AcDbLine
 10
2068.83
 20
1350.0
 30
0.0
 11
2080.0
 21
1350.0
 31
0.0
  0
LINE
  5
336
330
1F
100
AcDbEntity
  8
Ｓ_１_２０
  6
CONTINUOUS
 62
     3
100
AcDbLine
 10
2079.070000000001
 20
2118.0
 30
0.0
 11
2120.92
 21
2118.0
 31
0.0
  0
LINE
  5
337
330
1F
100
AcDbEntity
  8
Ｓ_１_２０
  6
CONTINUOUS
 62
     3
100
AcDbLine
 10
2079.070000000001
 20
2118.0
 30
0.0
 11
2100.0
 21
2120.0
 31
0.0
  0
LINE
  5
338
330
1F
100
AcDbEntity
  8
Ｓ_１_２０
  6
CONTINUOUS
 62
     3
100
AcDbLine
 10
2100.0
 20
2120.0
 30
0.0
 11
2120.92
 21
2118.0
 31
0.0
  0
LINE
  5
339
330
1F
100
AcDbEntity
  8
Ｓ_１_２０
  6
CONTINUOUS
 62
     3
100
AcDbLine
 10
2077.5
 20
2100.0
 30
0.0
 11
2079.070000000001
 21
2118.0
 31
0.0
  0
LINE
  5
33A
330
1F
100
AcDbEntity
  8
Ｓ_１_２０
  6
CONTINUOUS
 62
     3
100
AcDbLine
 10
2122.5
 20
2100.0
 30
0.0
 11
2120.92
 21
2118.0
 31
0.0
  0
LINE
  5
33B
330
1F
100
AcDbEntity
  8
Ｓ_１_２０
  6
CONTINUOUS
 62
     3
100
AcDbLine
 10
1250.0
 20
700.0000000000001
 30
0.0
 11
2150.0
 21
700.0000000000001
 31
0.0
  0
LINE
  5
33C
330
1F
100
AcDbEntity
  8
Ｓ_１_２０
  6
CONTINUOUS
 62
     3
100
AcDbLine
 10
1480.0
 20
1012.53
 30
0.0
 11
1480.0
 21
1350.0
 31
0.0
  0
LINE
  5
33D
330
1F
100
AcDbEntity
  8
Ｓ_１_２０
  6
CONTINUOUS
 62
     3
100
AcDbLine
 10
2080.0
 20
910.1299999999998
 30
0.0
 11
2080.0
 21
1350.0
 31
0.0
  0
LINE
  5
33E
330
1F
100
AcDbEntity
  8
Ｓ_１_２０
  6
CONTINUOUS
 62
     3
100
AcDbLine
 10
1350.0
 20
1090.0
 30
0.0
 11
1350.0
 21
1360.0
 31
0.0
  0
LINE
  5
33F
330
1F
100
AcDbEntity
  8
Ｓ_１_２０
  6
CONTINUOUS
 62
     3
100
AcDbLine
 10
1335.0
 20
1100.0
 30
0.0
 11
1335.0
 21
1350.0
 31
0.0
  0
LINE
  5
340
330
1F
100
AcDbEntity
  8
Ｓ_１_２０
  6
CONTINUOUS
 62
     3
100
AcDbLine
 10
1315.0
 20
1100.0
 30
0.0
 11
1315.0
 21
1350.0
 31
0.0
  0
LINE
  5
341
330
1F
100
AcDbEntity
  8
Ｓ_１_２０
  6
CONTINUOUS
 62
     3
100
AcDbLine
 10
1300.0
 20
1090.0
 30
0.0
 11
1300.0
 21
1360.0
 31
0.0
  0
CIRCLE
  5
342
330
1F
100
AcDbEntity
  8
Ｓ_１_２０
  6
CONTINUOUS
 62
     3
100
AcDbCircle
 10
1299.995879
 20
2145.003379
 30
0.0
 40
25.00000000000002
  0
ARC
  5
343
330
1F
100
AcDbEntity
  8
Ｓ_１_２０
  6
CONTINUOUS
 62
     3
100
AcDbCircle
 10
1299.995879
 20
2145.003379
 30
0.0
 40
45.0
100
AcDbArc
 50
0.0
 51
236.9758450000002
  0
ARC
  5
344
330
1F
100
AcDbEntity
  8
Ｓ_１_２０
  6
CONTINUOUS
 62
     3
100
AcDbCircle
 10
1299.995879
 20
2145.003379
 30
0.0
 40
45.0
100
AcDbArc
 50
303.0242710000002
 51
0.0
  0
ARC
  5
345
330
1F
100
AcDbEntity
  8
Ｓ_１_２０
  6
CONTINUOUS
 62
     3
100
AcDbCircle
 10
1272.745879
 20
2103.08126
 30
0.0
 40
5.0
100
AcDbArc
 50
354.999851
 51
56.97540799999889
  0
ARC
  5
346
330
1F
100
AcDbEntity
  8
Ｓ_１_２０
  6
CONTINUOUS
 62
     3
100
AcDbCircle
 10
1327.245391
 20
2103.08126
 30
0.0
 40
5.0
100
AcDbArc
 50
123.0247149999979
 51
185.0002629999977
  0
CIRCLE
  5
347
330
1F
100
AcDbEntity
  8
Ｓ_１_２０
  6
CONTINUOUS
 62
     3
100
AcDbCircle
 10
1324.995879
 20
1340.003379
 30
0.0
 40
4.0
  0
CIRCLE
  5
348
330
1F
100
AcDbEntity
  8
Ｓ_１_２０
  6
CONTINUOUS
 62
     3
100
AcDbCircle
 10
1324.995879
 20
1110.003379
 30
0.0
 40
4.0
  0
CIRCLE
  5
349
330
1F
100
AcDbEntity
  8
Ｓ_１_２０
  6
CONTINUOUS
 62
     3
100
AcDbCircle
 10
1504.995879
 20
1325.003379
 30
0.0
 40
7.500000000000005
  0
CIRCLE
  5
34A
330
1F
100
AcDbEntity
  8
Ｓ_１_２０
  6
CONTINUOUS
 62
     3
100
AcDbCircle
 10
1573.745879
 20
1325.003379
 30
0.0
 40
7.500000000000005
  0
CIRCLE
  5
34B
330
1F
100
AcDbEntity
  8
Ｓ_１_２０
  6
CONTINUOUS
 62
     3
100
AcDbCircle
 10
1642.495879
 20
1325.003379
 30
0.0
 40
7.500000000000005
  0
CIRCLE
  5
34C
330
1F
100
AcDbEntity
  8
Ｓ_１_２０
  6
CONTINUOUS
 62
     3
100
AcDbCircle
 10
1711.245879
 20
1325.003379
 30
0.0
 40
7.500000000000005
  0
CIRCLE
  5
34D
330
1F
100
AcDbEntity
  8
Ｓ_１_２０
  6
CONTINUOUS
 62
     3
100
AcDbCircle
 10
1779.995635
 20
1325.003379
 30
0.0
 40
7.500000000000005
  0
CIRCLE
  5
34E
330
1F
100
AcDbEntity
  8
Ｓ_１_２０
  6
CONTINUOUS
 62
     3
100
AcDbCircle
 10
1848.745635
 20
1325.003379
 30
0.0
 40
7.500000000000005
  0
CIRCLE
  5
34F
330
1F
100
AcDbEntity
  8
Ｓ_１_２０
  6
CONTINUOUS
 62
     3
100
AcDbCircle
 10
1917.495635
 20
1325.003379
 30
0.0
 40
7.500000000000005
  0
CIRCLE
  5
350
330
1F
100
AcDbEntity
  8
Ｓ_１_２０
  6
CONTINUOUS
 62
     3
100
AcDbCircle
 10
1986.245635
 20
1325.003379
 30
0.0
 40
7.500000000000005
  0
CIRCLE
  5
351
330
1F
100
AcDbEntity
  8
Ｓ_１_２０
  6
CONTINUOUS
 62
     3
100
AcDbCircle
 10
2054.995635
 20
1325.003379
 30
0.0
 40
7.500000000000005
  0
CIRCLE
  5
352
330
1F
100
AcDbEntity
  8
Ｓ_１_２０
  6
CONTINUOUS
 62
     3
100
AcDbCircle
 10
2054.995635
 20
1250.003379
 30
0.0
 40
7.500000000000005
  0
CIRCLE
  5
353
330
1F
100
AcDbEntity
  8
Ｓ_１_２０
  6
CONTINUOUS
 62
     3
100
AcDbCircle
 10
2054.995635
 20
1175.003379
 30
0.0
 40
7.500000000000005
  0
CIRCLE
  5
354
330
1F
100
AcDbEntity
  8
Ｓ_１_２０
  6
CONTINUOUS
 62
     3
100
AcDbCircle
 10
2054.995635
 20
1100.003379
 30
0.0
 40
7.500000000000005
  0
CIRCLE
  5
355
330
1F
100
AcDbEntity
  8
Ｓ_１_２０
  6
CONTINUOUS
 62
     3
100
AcDbCircle
 10
1504.995879
 20
1025.003379
 30
0.0
 40
7.500000000000005
  0
CIRCLE
  5
356
330
1F
100
AcDbEntity
  8
Ｓ_１_２０
  6
CONTINUOUS
 62
     3
100
AcDbCircle
 10
1504.995879
 20
1100.003379
 30
0.0
 40
7.500000000000005
  0
CIRCLE
  5
357
330
1F
100
AcDbEntity
  8
Ｓ_１_２０
  6
CONTINUOUS
 62
     3
100
AcDbCircle
 10
1504.995879
 20
1175.003379
 30
0.0
 40
7.500000000000005
  0
CIRCLE
  5
358
330
1F
100
AcDbEntity
  8
Ｓ_１_２０
  6
CONTINUOUS
 62
     3
100
AcDbCircle
 10
1504.995879
 20
1250.003379
 30
0.0
 40
7.500000000000005
  0
ARC
  5
359
330
1F
100
AcDbEntity
  8
Ｓ_１_２０
  6
CONTINUOUS
 62
     3
100
AcDbCircle
 10
2099.995635
 20
2145.003379
 30
0.0
 40
45.0
100
AcDbArc
 50
0.0
 51
236.9758450000002
  0
ARC
  5
35A
330
1F
100
AcDbEntity
  8
Ｓ_１_２０
  6
CONTINUOUS
 62
     3
100
AcDbCircle
 10
2127.245390999999
 20
2103.08126
 30
0.0
 40
5.0
100
AcDbArc
 50
123.0247149999979
 51
185.0002629999977
  0
ARC
  5
35B
330
1F
100
AcDbEntity
  8
Ｓ_１_２０
  6
CONTINUOUS
 62
     3
100
AcDbCircle
 10
2099.995635
 20
2145.003379
 30
0.0
 40
45.0
100
AcDbArc
 50
303.0242709999998
 51
0.0
  0
ARC
  5
35C
330
1F
100
AcDbEntity
  8
Ｓ_１_２０
  6
CONTINUOUS
 62
     3
100
AcDbCircle
 10
2072.745635
 20
2103.08126
 30
0.0
 40
5.0
100
AcDbArc
 50
354.999851
 51
56.97540799999889
  0
CIRCLE
  5
35D
330
1F
100
AcDbEntity
  8
Ｓ_１_２０
  6
CONTINUOUS
 62
     3
100
AcDbCircle
 10
2099.995635
 20
2145.003379
 30
0.0
 40
25.00000000000002
  0
LINE
  5
35E
330
1F
100
AcDbEntity
  8
Ｓ_１_２０
  6
EXLTYPE4
 62
     1
100
AcDbLine
 10
1261.0
 20
704.5200000000001
 30
0.0
 11
1261.0
 21
794.2499999999997
 31
0.0
  0
LINE
  5
35F
330
1F
100
AcDbEntity
  8
Ｓ_１_２０
  6
CONTINUOUS
 62
     3
100
AcDbLine
 10
1255.0
 20
705.7499999999997
 30
0.0
 11
1255.0
 21
765.5099999999999
 31
0.0
  0
LINE
  5
360
330
1F
100
AcDbEntity
  8
Ｓ_１_２０
  6
CONTINUOUS
 62
     3
100
AcDbLine
 10
1295.0
 20
716.5799999999996
 30
0.0
 11
1295.0
 21
765.5099999999999
 31
0.0
  0
LINE
  5
361
330
1F
100
AcDbEntity
  8
Ｓ_１_２０
  6
CONTINUOUS
 62
     3
100
AcDbLine
 10
1300.0
 20
700.0099999999999
 30
0.0
 11
1300.0
 21
765.5099999999999
 31
0.0
  0
LINE
  5
362
330
1F
100
AcDbEntity
  8
Ｓ_１_２０
  6
CONTINUOUS
 62
     3
100
AcDbLine
 10
1253.650000000001
 20
794.3700000000005
 30
0.0
 11
1287.69
 21
791.39
 31
0.0
  0
LINE
  5
363
330
1F
100
AcDbEntity
  8
Ｓ_１_２０
  6
CONTINUOUS
 62
     3
100
AcDbLine
 10
1253.650000000001
 20
705.64
 30
0.0
 11
1287.69
 21
708.6100000000002
 31
0.0
  0
LINE
  5
364
330
1F
100
AcDbEntity
  8
Ｓ_１_２０
  6
CONTINUOUS
 62
     3
100
AcDbLine
 10
1300.0
 20
765.5099999999999
 30
0.0
 11
1300.0
 21
800.0099999999999
 31
0.0
  0
LINE
  5
365
330
1F
100
AcDbEntity
  8
Ｓ_１_２０
  6
CONTINUOUS
 62
     3
100
AcDbLine
 10
1295.0
 20
765.5099999999999
 30
0.0
 11
1295.0
 21
783.4199999999997
 31
0.0
  0
LINE
  5
366
330
1F
100
AcDbEntity
  8
Ｓ_１_２０
  6
CONTINUOUS
 62
     3
100
AcDbLine
 10
1267.0
 20
706.7999999999998
 30
0.0
 11
1267.0
 21
793.2000000000004
 31
0.0
  0
LINE
  5
367
330
1F
100
AcDbEntity
  8
Ｓ_１_２０
  6
CONTINUOUS
 62
     3
100
AcDbLine
 10
1255.0
 20
765.5099999999999
 30
0.0
 11
1255.0
 21
794.2499999999997
 31
0.0
  0
LINE
  5
368
330
1F
100
AcDbEntity
  8
Ｓ_１_２０
  6
CONTINUOUS
 62
     3
100
AcDbLine
 10
1250.0
 20
701.6500000000002
 30
0.0
 11
1250.0
 21
699.9999999999997
 31
0.0
  0
ARC
  5
369
330
1F
100
AcDbEntity
  8
Ｓ_１_２０
  6
CONTINUOUS
 62
     3
100
AcDbCircle
 10
1286.996367
 20
783.4229350000002
 30
0.0
 40
8.0
100
AcDbArc
 50
359.9999950000006
 51
85.0000790000004
  0
ARC
  5
36A
330
1F
100
AcDbEntity
  8
Ｓ_１_２０
  6
CONTINUOUS
 62
     3
100
AcDbCircle
 10
1286.996367
 20
716.5838230000005
 30
0.0
 40
8.0
100
AcDbArc
 50
274.9999349999994
 51
359.9999909999996
  0
ARC
  5
36B
330
1F
100
AcDbEntity
  8
Ｓ_１_２０
  6
CONTINUOUS
 62
     3
100
AcDbCircle
 10
1253.996123
 20
798.3559179999999
 30
0.0
 40
4.0
100
AcDbArc
 50
180.000123
 51
265.000187999998
  0
ARC
  5
36C
330
1F
100
AcDbEntity
  8
Ｓ_１_２０
  6
CONTINUOUS
 62
     3
100
AcDbCircle
 10
1253.996123
 20
701.6508399999999
 30
0.0
 40
4.0
100
AcDbArc
 50
95.0000849999969
 51
180.0000959999997
  0
LINE
  5
36D
330
1F
100
AcDbEntity
  8
Ｓ_１_２０
  6
CONTINUOUS
 62
     3
100
AcDbLine
 10
1250.0
 20
798.3559094130002
 30
0.0
 11
1250.0
 21
2100.0
 31
0.0
  0
LINE
  5
36E
330
1F
100
AcDbEntity
  8
Ｓ_１_２０
  6
EXLTYPE4
 62
     1
100
AcDbLine
 10
2139.0
 20
706.2800000000003
 30
0.0
 11
2139.0
 21
794.2499999999997
 31
0.0
  0
LINE
  5
36F
330
1F
100
AcDbEntity
  8
Ｓ_１_２０
  6
CONTINUOUS
 62
     3
100
AcDbLine
 10
2145.0
 20
705.7499999999997
 30
0.0
 11
2145.0
 21
765.5099999999999
 31
0.0
  0
LINE
  5
370
330
1F
100
AcDbEntity
  8
Ｓ_１_２０
  6
CONTINUOUS
 62
     3
100
AcDbLine
 10
2105.0
 20
716.5799999999996
 30
0.0
 11
2105.0
 21
765.5099999999999
 31
0.0
  0
LINE
  5
371
330
1F
100
AcDbEntity
  8
Ｓ_１_２０
  6
CONTINUOUS
 62
     3
100
AcDbLine
 10
2100.0
 20
700.0099999999999
 30
0.0
 11
2100.0
 21
765.5099999999999
 31
0.0
  0
LINE
  5
372
330
1F
100
AcDbEntity
  8
Ｓ_１_２０
  6
CONTINUOUS
 62
     3
100
AcDbLine
 10
2146.34
 20
705.64
 30
0.0
 11
2112.3
 21
708.6100000000002
 31
0.0
  0
LINE
  5
373
330
1F
100
AcDbEntity
  8
Ｓ_１_２０
  6
CONTINUOUS
 62
     3
100
AcDbLine
 10
2146.34
 20
794.3700000000005
 30
0.0
 11
2112.3
 21
791.39
 31
0.0
  0
LINE
  5
374
330
1F
100
AcDbEntity
  8
Ｓ_１_２０
  6
CONTINUOUS
 62
     3
100
AcDbLine
 10
2145.0
 20
765.5099999999999
 30
0.0
 11
2145.0
 21
794.2499999999997
 31
0.0
  0
LINE
  5
375
330
1F
100
AcDbEntity
  8
Ｓ_１_２０
  6
CONTINUOUS
 62
     3
100
AcDbLine
 10
2133.0
 20
706.7999999999998
 30
0.0
 11
2133.0
 21
793.2000000000004
 31
0.0
  0
LINE
  5
376
330
1F
100
AcDbEntity
  8
Ｓ_１_２０
  6
CONTINUOUS
 62
     3
100
AcDbLine
 10
2105.0
 20
765.5099999999999
 30
0.0
 11
2105.0
 21
783.4199999999997
 31
0.0
  0
LINE
  5
377
330
1F
100
AcDbEntity
  8
Ｓ_１_２０
  6
CONTINUOUS
 62
     3
100
AcDbLine
 10
2100.0
 20
765.5099999999999
 30
0.0
 11
2100.0
 21
800.0099999999999
 31
0.0
  0
LINE
  5
378
330
1F
100
AcDbEntity
  8
Ｓ_１_２０
  6
CONTINUOUS
 62
     3
100
AcDbLine
 10
2150.0
 20
701.6500000000002
 30
0.0
 11
2150.0
 21
699.9999999999997
 31
0.0
  0
ARC
  5
379
330
1F
100
AcDbEntity
  8
Ｓ_１_２０
  6
CONTINUOUS
 62
     3
100
AcDbCircle
 10
2112.996367
 20
716.5838230000005
 30
0.0
 40
8.0
100
AcDbArc
 50
179.9998910000001
 51
264.9999629999985
  0
ARC
  5
37A
330
1F
100
AcDbEntity
  8
Ｓ_１_２０
  6
CONTINUOUS
 62
     3
100
AcDbCircle
 10
2145.996123
 20
701.6508399999999
 30
0.0
 40
4.0
100
AcDbArc
 50
0.000050000000172
 51
85.00006499999411
  0
ARC
  5
37B
330
1F
100
AcDbEntity
  8
Ｓ_１_２０
  6
CONTINUOUS
 62
     3
100
AcDbCircle
 10
2112.996367
 20
783.4229350000002
 30
0.0
 40
8.0
100
AcDbArc
 50
95.0000849999969
 51
180.0001639999997
  0
ARC
  5
37C
330
1F
100
AcDbEntity
  8
Ｓ_１_２０
  6
CONTINUOUS
 62
     3
100
AcDbCircle
 10
2145.996123
 20
798.3559179999999
 30
0.0
 40
4.0
100
AcDbArc
 50
274.9999830000004
 51
0.000050000000172
  0
LINE
  5
37D
330
1F
100
AcDbEntity
  8
Ｓ_１_２０
  6
CONTINUOUS
 62
     3
100
AcDbLine
 10
1300.0
 20
790.7500000000001
 30
0.0
 11
2100.0
 21
790.7500000000006
 31
0.0
  0
LINE
  5
37E
330
1F
100
AcDbEntity
  8
Ｓ_１_２０
  6
CONTINUOUS
 62
     3
100
AcDbLine
 10
1300.0
 20
709.2500000000001
 30
0.0
 11
2100.0
 21
709.2500000000006
 31
0.0
  0
LINE
  5
37F
330
1F
100
AcDbEntity
  8
Ｓ_１_２０
  6
CONTINUOUS
 62
     3
100
AcDbLine
 10
2150.0
 20
2100.0
 30
0.0
 11
2150.0
 21
798.3559214907001
 31
0.0
  0
POLYLINE
  5
380
330
1F
100
AcDbEntity
  8
Ｓ_１_２０
  6
EXLTYPE5
 62
     2
100
AcDb2dPolyline
 66
     1
 10
0.0
 20
0.0
 30
0.0
 70
   128
  0
VERTEX
  5
381
330
380
100
AcDbEntity
  8
Ｓ_１_２０
  6
EXLTYPE5
 62
     2
100
AcDbVertex
100
AcDb2dVertex
 10
1425.29
 20
1410.0
 30
0.0
  0
VERTEX
  5
382
330
380
100
AcDbEntity
  8
Ｓ_１_２０
  6
EXLTYPE5
 62
     2
100
AcDbVertex
100
AcDb2dVertex
 10
1425.304266221103
 20
1408.728791953973
 30
0.0
  0
VERTEX
  5
383
330
380
100
AcDbEntity
  8
Ｓ_１_２０
  6
EXLTYPE5
 62
     2
100
AcDbVertex
100
AcDb2dVertex
 10
1425.34135839597
 20
1405.112381612816
 30
0.0
  0
VERTEX
  5
384
330
380
100
AcDbEntity
  8
Ｓ_１_２０
  6
EXLTYPE5
 62
     2
100
AcDbVertex
100
AcDb2dVertex
 10
1425.392716791939
 20
1399.446589671912
 30
0.0
  0
VERTEX
  5
385
330
380
100
AcDbEntity
  8
Ｓ_１_２０
  6
EXLTYPE5
 62
     2
100
AcDbVertex
100
AcDb2dVertex
 10
1425.44978167635
 20
1392.027236826648
 30
0.0
  0
VERTEX
  5
386
330
380
100
AcDbEntity
  8
Ｓ_１_２０
  6
EXLTYPE5
 62
     2
100
AcDbVertex
100
AcDb2dVertex
 10
1425.503993316539
 20
1383.150143772406
 30
0.0
  0
VERTEX
  5
387
330
380
100
AcDbEntity
  8
Ｓ_１_２０
  6
EXLTYPE5
 62
     2
100
AcDbVertex
100
AcDb2dVertex
 10
1425.546791979848
 20
1373.111131204574
 30
0.0
  0
VERTEX
  5
388
330
380
100
AcDbEntity
  8
Ｓ_１_２０
  6
EXLTYPE5
 62
     2
100
AcDbVertex
100
AcDb2dVertex
 10
1425.569617933612
 20
1362.206019818534
 30
0.0
  0
VERTEX
  5
389
330
380
100
AcDbEntity
  8
Ｓ_１_２０
  6
EXLTYPE5
 62
     2
100
AcDbVertex
100
AcDb2dVertex
 10
1425.563911445171
 20
1350.730630309672
 30
0.0
  0
VERTEX
  5
38A
330
380
100
AcDbEntity
  8
Ｓ_１_２０
  6
EXLTYPE5
 62
     2
100
AcDbVertex
100
AcDb2dVertex
 10
1425.521112781863
 20
1338.980783373373
 30
0.0
  0
VERTEX
  5
38B
330
380
100
AcDbEntity
  8
Ｓ_１_２０
  6
EXLTYPE5
 62
     2
100
AcDbVertex
100
AcDb2dVertex
 10
1425.432662211027
 20
1327.25229970502
 30
0.0
  0
VERTEX
  5
38C
330
380
100
AcDbEntity
  8
Ｓ_１_２０
  6
EXLTYPE5
 62
     2
100
AcDbVertex
100
AcDb2dVertex
 10
1425.29
 20
1315.841
 30
0.0
  0
VERTEX
  5
38D
330
380
100
AcDbEntity
  8
Ｓ_１_２０
  6
EXLTYPE5
 62
     2
100
AcDbVertex
100
AcDb2dVertex
 10
1424.99569308816
 20
1301.088167508104
 30
0.0
  0
VERTEX
  5
38E
330
380
100
AcDbEntity
  8
Ｓ_１_２０
  6
EXLTYPE5
 62
     2
100
AcDbVertex
100
AcDb2dVertex
 10
1424.59334725695
 20
1287.352470285194
 30
0.0
  0
VERTEX
  5
38F
330
380
100
AcDbEntity
  8
Ｓ_１_２０
  6
EXLTYPE5
 62
     2
100
AcDbVertex
100
AcDb2dVertex
 10
1424.093141394828
 20
1274.496567225915
 30
0.0
  0
VERTEX
  5
390
330
380
100
AcDbEntity
  8
Ｓ_１_２０
  6
EXLTYPE5
 62
     2
100
AcDbVertex
100
AcDb2dVertex
 10
1423.505254390253
 20
1262.383117224915
 30
0.0
  0
VERTEX
  5
391
330
380
100
AcDbEntity
  8
Ｓ_１_２０
  6
EXLTYPE5
 62
     2
100
AcDbVertex
100
AcDb2dVertex
 10
1422.839865131681
 20
1250.874779176839
 30
0.0
  0
VERTEX
  5
392
330
380
100
AcDbEntity
  8
Ｓ_１_２０
  6
EXLTYPE5
 62
     2
100
AcDbVertex
100
AcDb2dVertex
 10
1422.107152507572
 20
1239.834211976334
 30
0.0
  0
VERTEX
  5
393
330
380
100
AcDbEntity
  8
Ｓ_１_２０
  6
EXLTYPE5
 62
     2
100
AcDbVertex
100
AcDb2dVertex
 10
1421.317295406384
 20
1229.124074518046
 30
0.0
  0
VERTEX
  5
394
330
380
100
AcDbEntity
  8
Ｓ_１_２０
  6
EXLTYPE5
 62
     2
100
AcDbVertex
100
AcDb2dVertex
 10
1420.480472716574
 20
1218.607025696622
 30
0.0
  0
VERTEX
  5
395
330
380
100
AcDbEntity
  8
Ｓ_１_２０
  6
EXLTYPE5
 62
     2
100
AcDbVertex
100
AcDb2dVertex
 10
1419.606863326602
 20
1208.145724406709
 30
0.0
  0
VERTEX
  5
396
330
380
100
AcDbEntity
  8
Ｓ_１_２０
  6
EXLTYPE5
 62
     2
100
AcDbVertex
100
AcDb2dVertex
 10
1418.706646124924
 20
1197.602829542953
 30
0.0
  0
VERTEX
  5
397
330
380
100
AcDbEntity
  8
Ｓ_１_２０
  6
EXLTYPE5
 62
     2
100
AcDbVertex
100
AcDb2dVertex
 10
1417.79
 20
1186.841
 30
0.0
  0
VERTEX
  5
398
330
380
100
AcDbEntity
  8
Ｓ_１_２０
  6
EXLTYPE5
 62
     2
100
AcDbVertex
100
AcDb2dVertex
 10
1417.116322509938
 20
1178.828998592854
 30
0.0
  0
VERTEX
  5
399
330
380
100
AcDbEntity
  8
Ｓ_１_２０
  6
EXLTYPE5
 62
     2
100
AcDbVertex
100
AcDb2dVertex
 10
1416.419314924543
 20
1170.654155211135
 30
0.0
  0
VERTEX
  5
39A
330
380
100
AcDbEntity
  8
Ｓ_１_２０
  6
EXLTYPE5
 62
     2
100
AcDbVertex
100
AcDb2dVertex
 10
1415.678938502204
 20
1162.341247576541
 30
0.0
  0
VERTEX
  5
39B
330
380
100
AcDbEntity
  8
Ｓ_１_２０
  6
EXLTYPE5
 62
     2
100
AcDbVertex
100
AcDb2dVertex
 10
1414.875154501308
 20
1153.915053410769
 30
0.0
  0
VERTEX
  5
39C
330
380
100
AcDbEntity
  8
Ｓ_１_２０
  6
EXLTYPE5
 62
     2
100
AcDbVertex
100
AcDb2dVertex
 10
1413.987924180243
 20
1145.400350435518
 30
0.0
  0
VERTEX
  5
39D
330
380
100
AcDbEntity
  8
Ｓ_１_２０
  6
EXLTYPE5
 62
     2
100
AcDbVertex
100
AcDb2dVertex
 10
1412.997208797396
 20
1136.821916372484
 30
0.0
  0
VERTEX
  5
39E
330
380
100
AcDbEntity
  8
Ｓ_１_２０
  6
EXLTYPE5
 62
     2
100
AcDbVertex
100
AcDb2dVertex
 10
1411.882969611155
 20
1128.204528943366
 30
0.0
  0
VERTEX
  5
39F
330
380
100
AcDbEntity
  8
Ｓ_１_２０
  6
EXLTYPE5
 62
     2
100
AcDbVertex
100
AcDb2dVertex
 10
1410.625167879907
 20
1119.572965869861
 30
0.0
  0
VERTEX
  5
3A0
330
380
100
AcDbEntity
  8
Ｓ_１_２０
  6
EXLTYPE5
 62
     2
100
AcDbVertex
100
AcDb2dVertex
 10
1409.20376486204
 20
1110.952004873666
 30
0.0
  0
VERTEX
  5
3A1
330
380
100
AcDbEntity
  8
Ｓ_１_２０
  6
EXLTYPE5
 62
     2
100
AcDbVertex
100
AcDb2dVertex
 10
1407.598721815942
 20
1102.36642367648
 30
0.0
  0
VERTEX
  5
3A2
330
380
100
AcDbEntity
  8
Ｓ_１_２０
  6
EXLTYPE5
 62
     2
100
AcDbVertex
100
AcDb2dVertex
 10
1405.79
 20
1093.841
 30
0.0
  0
VERTEX
  5
3A3
330
380
100
AcDbEntity
  8
Ｓ_１_２０
  6
EXLTYPE5
 62
     2
100
AcDbVertex
100
AcDb2dVertex
 10
1403.335053014277
 20
1083.741175226477
 30
0.0
  0
VERTEX
  5
3A4
330
380
100
AcDbEntity
  8
Ｓ_１_２０
  6
EXLTYPE5
 62
     2
100
AcDbVertex
100
AcDb2dVertex
 10
1400.564606881883
 20
1073.767201225233
 30
0.0
  0
VERTEX
  5
3A5
330
380
100
AcDbEntity
  8
Ｓ_１_２０
  6
EXLTYPE5
 62
     2
100
AcDbVertex
100
AcDb2dVertex
 10
1397.483854753786
 20
1063.923176663139
 30
0.0
  0
VERTEX
  5
3A6
330
380
100
AcDbEntity
  8
Ｓ_１_２０
  6
EXLTYPE5
 62
     2
100
AcDbVertex
100
AcDb2dVertex
 10
1394.097989780956
 20
1054.213200207061
 30
0.0
  0
VERTEX
  5
3A7
330
380
100
AcDbEntity
  8
Ｓ_１_２０
  6
EXLTYPE5
 62
     2
100
AcDbVertex
100
AcDb2dVertex
 10
1390.412205114361
 20
1044.64137052387
 30
0.0
  0
VERTEX
  5
3A8
330
380
100
AcDbEntity
  8
Ｓ_１_２０
  6
EXLTYPE5
 62
     2
100
AcDbVertex
100
AcDb2dVertex
 10
1386.431693904971
 20
1035.211786280435
 30
0.0
  0
VERTEX
  5
3A9
330
380
100
AcDbEntity
  8
Ｓ_１_２０
  6
EXLTYPE5
 62
     2
100
AcDbVertex
100
AcDb2dVertex
 10
1382.161649303754
 20
1025.928546143623
 30
0.0
  0
VERTEX
  5
3AA
330
380
100
AcDbEntity
  8
Ｓ_１_２０
  6
EXLTYPE5
 62
     2
100
AcDbVertex
100
AcDb2dVertex
 10
1377.60726446168
 20
1016.795748780305
 30
0.0
  0
VERTEX
  5
3AB
330
380
100
AcDbEntity
  8
Ｓ_１_２０
  6
EXLTYPE5
 62
     2
100
AcDbVertex
100
AcDb2dVertex
 10
1372.773732529717
 20
1007.817492857349
 30
0.0
  0
VERTEX
  5
3AC
330
380
100
AcDbEntity
  8
Ｓ_１_２０
  6
EXLTYPE5
 62
     2
100
AcDbVertex
100
AcDb2dVertex
 10
1367.666246658834
 20
998.9978770416245
 30
0.0
  0
VERTEX
  5
3AD
330
380
100
AcDbEntity
  8
Ｓ_１_２０
  6
EXLTYPE5
 62
     2
100
AcDbVertex
100
AcDb2dVertex
 10
1362.29
 20
990.3409999999998
 30
0.0
  0
VERTEX
  5
3AE
330
380
100
AcDbEntity
  8
Ｓ_１_２０
  6
EXLTYPE5
 62
     2
100
AcDbVertex
100
AcDb2dVertex
 10
1355.600378917338
 20
980.3300388543189
 30
0.0
  0
VERTEX
  5
3AF
330
380
100
AcDbEntity
  8
Ｓ_１_２０
  6
EXLTYPE5
 62
     2
100
AcDbVertex
100
AcDb2dVertex
 10
1348.553494174243
 20
970.5578651654458
 30
0.0
  0
VERTEX
  5
3B0
330
380
100
AcDbEntity
  8
Ｓ_１_２０
  6
EXLTYPE5
 62
     2
100
AcDbVertex
100
AcDb2dVertex
 10
1341.159862941828
 20
961.0304623423386
 30
0.0
  0
VERTEX
  5
3B1
330
380
100
AcDbEntity
  8
Ｓ_１_２０
  6
EXLTYPE5
 62
     2
100
AcDbVertex
100
AcDb2dVertex
 10
1333.430002391199
 20
951.753813793955
 30
0.0
  0
VERTEX
  5
3B2
330
380
100
AcDbEntity
  8
Ｓ_１_２０
  6
EXLTYPE5
 62
     2
100
AcDbVertex
100
AcDb2dVertex
 10
1325.374429693467
 20
942.7339029292531
 30
0.0
  0
VERTEX
  5
3B3
330
380
100
AcDbEntity
  8
Ｓ_１_２０
  6
EXLTYPE5
 62
     2
100
AcDbVertex
100
AcDb2dVertex
 10
1317.00366201974
 20
933.9767131571907
 30
0.0
  0
VERTEX
  5
3B4
330
380
100
AcDbEntity
  8
Ｓ_１_２０
  6
EXLTYPE5
 62
     2
100
AcDbVertex
100
AcDb2dVertex
 10
1308.328216541127
 20
925.488227886726
 30
0.0
  0
VERTEX
  5
3B5
330
380
100
AcDbEntity
  8
Ｓ_１_２０
  6
EXLTYPE5
 62
     2
100
AcDbVertex
100
AcDb2dVertex
 10
1299.358610428737
 20
917.2744305268163
 30
0.0
  0
VERTEX
  5
3B6
330
380
100
AcDbEntity
  8
Ｓ_１_２０
  6
EXLTYPE5
 62
     2
100
AcDbVertex
100
AcDb2dVertex
 10
1290.10536085368
 20
909.3413044864203
 30
0.0
  0
VERTEX
  5
3B7
330
380
100
AcDbEntity
  8
Ｓ_１_２０
  6
EXLTYPE5
 62
     2
100
AcDbVertex
100
AcDb2dVertex
 10
1280.578984987065
 20
901.6948331744956
 30
0.0
  0
VERTEX
  5
3B8
330
380
100
AcDbEntity
  8
Ｓ_１_２０
  6
EXLTYPE5
 62
     2
100
AcDbVertex
100
AcDb2dVertex
 10
1270.79
 20
894.341
 30
0.0
  0
VERTEX
  5
3B9
330
380
100
AcDbEntity
  8
Ｓ_１_２０
  6
EXLTYPE5
 62
     2
100
AcDbVertex
100
AcDb2dVertex
 10
1253.624188343479
 20
882.5418512634155
 30
0.0
  0
VERTEX
  5
3BA
330
380
100
AcDbEntity
  8
Ｓ_１_２０
  6
EXLTYPE5
 62
     2
100
AcDbVertex
100
AcDb2dVertex
 10
1235.838613081238
 20
871.5611155821899
 30
0.0
  0
VERTEX
  5
3BB
330
380
100
AcDbEntity
  8
Ｓ_１_２０
  6
EXLTYPE5
 62
     2
100
AcDbVertex
100
AcDb2dVertex
 10
1217.538794980165
 20
861.3580530657645
 30
0.0
  0
VERTEX
  5
3BC
330
380
100
AcDbEntity
  8
Ｓ_１_２０
  6
EXLTYPE5
 62
     2
100
AcDbVertex
100
AcDb2dVertex
 10
1198.830254807146
 20
851.8919238235788
 30
0.0
  0
VERTEX
  5
3BD
330
380
100
AcDbEntity
  8
Ｓ_１_２０
  6
EXLTYPE5
 62
     2
100
AcDbVertex
100
AcDb2dVertex
 10
1179.818513329067
 20
843.1219879650739
 30
0.0
  0
VERTEX
  5
3BE
330
380
100
AcDbEntity
  8
Ｓ_１_２０
  6
EXLTYPE5
 62
     2
100
AcDbVertex
100
AcDb2dVertex
 10
1160.609091312816
 20
835.0075055996901
 30
0.0
  0
VERTEX
  5
3BF
330
380
100
AcDbEntity
  8
Ｓ_１_２０
  6
EXLTYPE5
 62
     2
100
AcDbVertex
100
AcDb2dVertex
 10
1141.307509525278
 20
827.5077368368675
 30
0.0
  0
VERTEX
  5
3C0
330
380
100
AcDbEntity
  8
Ｓ_１_２０
  6
EXLTYPE5
 62
     2
100
AcDbVertex
100
AcDb2dVertex
 10
1122.019288733341
 20
820.5819417860469
 30
0.0
  0
VERTEX
  5
3C1
330
380
100
AcDbEntity
  8
Ｓ_１_２０
  6
EXLTYPE5
 62
     2
100
AcDbVertex
100
AcDb2dVertex
 10
1102.849949703891
 20
814.1893805566684
 30
0.0
  0
VERTEX
  5
3C2
330
380
100
AcDbEntity
  8
Ｓ_１_２０
  6
EXLTYPE5
 62
     2
100
AcDbVertex
100
AcDb2dVertex
 10
1083.905013203816
 20
808.2893132581727
 30
0.0
  0
VERTEX
  5
3C3
330
380
100
AcDbEntity
  8
Ｓ_１_２０
  6
EXLTYPE5
 62
     2
100
AcDbVertex
100
AcDb2dVertex
 10
1065.29
 20
802.841
 30
0.0
  0
VERTEX
  5
3C4
330
380
100
AcDbEntity
  8
Ｓ_１_２０
  6
EXLTYPE5
 62
     2
100
AcDbVertex
100
AcDb2dVertex
 10
1048.764510692701
 20
798.2673882396213
 30
0.0
  0
VERTEX
  5
3C5
330
380
100
AcDbEntity
  8
Ｓ_１_２０
  6
EXLTYPE5
 62
     2
100
AcDbVertex
100
AcDb2dVertex
 10
1032.419431447706
 20
794.0252060975522
 30
0.0
  0
VERTEX
  5
3C6
330
380
100
AcDbEntity
  8
Ｓ_１_２０
  6
EXLTYPE5
 62
     2
100
AcDbVertex
100
AcDb2dVertex
 10
1016.078143046552
 20
790.1088844850474
 30
0.0
  0
VERTEX
  5
3C7
330
380
100
AcDbEntity
  8
Ｓ_１_２０
  6
EXLTYPE5
 62
     2
100
AcDbVertex
100
AcDb2dVertex
 10
999.5640262707739
 20
786.512854313363
 30
0.0
  0
VERTEX
  5
3C8
330
380
100
AcDbEntity
  8
Ｓ_１_２０
  6
EXLTYPE5
 62
     2
100
AcDbVertex
100
AcDb2dVertex
 10
982.700461901911
 20
783.2315464937544
 30
0.0
  0
VERTEX
  5
3C9
330
380
100
AcDbEntity
  8
Ｓ_１_２０
  6
EXLTYPE5
 62
     2
100
AcDbVertex
100
AcDb2dVertex
 10
965.3108307214989
 20
780.2593919374772
 30
0.0
  0
VERTEX
  5
3CA
330
380
100
AcDbEntity
  8
Ｓ_１_２０
  6
EXLTYPE5
 62
     2
100
AcDbVertex
100
AcDb2dVertex
 10
947.2185135110751
 20
777.5908215557863
 30
0.0
  0
VERTEX
  5
3CB
330
380
100
AcDbEntity
  8
Ｓ_１_２０
  6
EXLTYPE5
 62
     2
100
AcDbVertex
100
AcDb2dVertex
 10
928.2468910521761
 20
775.2202662599378
 30
0.0
  0
VERTEX
  5
3CC
330
380
100
AcDbEntity
  8
Ｓ_１_２０
  6
EXLTYPE5
 62
     2
100
AcDbVertex
100
AcDb2dVertex
 10
908.2193441263394
 20
773.1421569611869
 30
0.0
  0
VERTEX
  5
3CD
330
380
100
AcDbEntity
  8
Ｓ_１_２０
  6
EXLTYPE5
 62
     2
100
AcDbVertex
100
AcDb2dVertex
 10
886.9592535151014
 20
771.3509245707892
 30
0.0
  0
VERTEX
  5
3CE
330
380
100
AcDbEntity
  8
Ｓ_１_２０
  6
EXLTYPE5
 62
     2
100
AcDbVertex
100
AcDb2dVertex
 10
864.29
 20
769.8410000000001
 30
0.0
  0
VERTEX
  5
3CF
330
380
100
AcDbEntity
  8
Ｓ_１_２０
  6
EXLTYPE5
 62
     2
100
AcDbVertex
100
AcDb2dVertex
 10
840.316222371091
 20
768.60937602099
 30
0.0
  0
VERTEX
  5
3D0
330
380
100
AcDbEntity
  8
Ｓ_１_２０
  6
EXLTYPE5
 62
     2
100
AcDbVertex
100
AcDb2dVertex
 10
815.4446290014982
 20
767.6233724597888
 30
0.0
  0
VERTEX
  5
3D1
330
380
100
AcDbEntity
  8
Ｓ_１_２０
  6
EXLTYPE5
 62
     2
100
AcDbVertex
100
AcDb2dVertex
 10
790.3454709194375
 20
766.8559513817883
 30
0.0
  0
VERTEX
  5
3D2
330
380
100
AcDbEntity
  8
Ｓ_１_２０
  6
EXLTYPE5
 62
     2
100
AcDbVertex
100
AcDb2dVertex
 10
765.6889991531241
 20
766.2800748523799
 30
0.0
  0
VERTEX
  5
3D3
330
380
100
AcDbEntity
  8
Ｓ_１_２０
  6
EXLTYPE5
 62
     2
100
AcDbVertex
100
AcDb2dVertex
 10
742.1454647307744
 20
765.8687049369552
 30
0.0
  0
VERTEX
  5
3D4
330
380
100
AcDbEntity
  8
Ｓ_１_２０
  6
EXLTYPE5
 62
     2
100
AcDbVertex
100
AcDb2dVertex
 10
720.385118680604
 20
765.5948037009063
 30
0.0
  0
VERTEX
  5
3D5
330
380
100
AcDbEntity
  8
Ｓ_１_２０
  6
EXLTYPE5
 62
     2
100
AcDbVertex
100
AcDb2dVertex
 10
701.078212030829
 20
765.4313332096244
 30
0.0
  0
VERTEX
  5
3D6
330
380
100
AcDbEntity
  8
Ｓ_１_２０
  6
EXLTYPE5
 62
     2
100
AcDbVertex
100
AcDb2dVertex
 10
684.8949958096653
 20
765.351255528501
 30
0.0
  0
VERTEX
  5
3D7
330
380
100
AcDbEntity
  8
Ｓ_１_２０
  6
EXLTYPE5
 62
     2
100
AcDbVertex
100
AcDb2dVertex
 10
672.5057210453286
 20
765.3275327229283
 30
0.0
  0
VERTEX
  5
3D8
330
380
100
AcDbEntity
  8
Ｓ_１_２０
  6
EXLTYPE5
 62
     2
100
AcDbVertex
100
AcDb2dVertex
 10
664.5806387660349
 20
765.3331268582974
 30
0.0
  0
VERTEX
  5
3D9
330
380
100
AcDbEntity
  8
Ｓ_１_２０
  6
EXLTYPE5
 62
     2
100
AcDbVertex
100
AcDb2dVertex
 10
661.79
 20
765.341
 30
0.0
  0
SEQEND
  5
3DA
330
380
100
AcDbEntity
  8
Ｓ_１_２０
  6
EXLTYPE5
 62
     2
  0
LINE
  5
3DB
330
1F
100
AcDbEntity
  8
Ｓ_１_２０
  6
EXLTYPE2
 62
     1
100
AcDbLine
 10
2134.999999999999
 20
729.341
 30
0.0
 11
2134.999999999999
 21
660.341
 31
0.0
  0
LINE
  5
3DC
330
1F
100
AcDbEntity
  8
Ｓ_１_２０
  6
EXLTYPE2
 62
     1
100
AcDbLine
 10
1265.000000000001
 20
721.841
 30
0.0
 11
1265.000000000001
 21
660.341
 31
0.0
  0
TEXT
  5
3DD
330
1F
100
AcDbEntity
  8
Ｓ_１_２０
  6
CONTINUOUS
 62
     4
100
AcDbText
 10
1385.29
 20
1510.059749731779
 30
0.0
 40
23.08602624585575
  1
E
 41
0.9992308327601548
  7
EXCADTTF1
 72
     5
 11
1400.29
 21
1510.059749731779
 31
0.0
100
AcDbText
  0
TEXT
  5
3DE
330
1F
100
AcDbEntity
  8
Ｓ_１_２０
  6
CONTINUOUS
 62
     4
100
AcDbText
 10
1447.29
 20
1510.059749731779
 30
0.0
 40
23.08602624585575
  1
T
 41
0.9992308327601548
  7
EXCADTTF1
 72
     5
 11
1462.29
 21
1510.059749731779
 31
0.0
100
AcDbText
  0
TEXT
  5
3DF
330
1F
100
AcDbEntity
  8
Ｓ_１_２０
  6
CONTINUOUS
 62
     4
100
AcDbText
 10
1507.29
 20
1510.059749731779
 30
0.0
 40
23.08602624585575
  1
S
 41
0.9992308327601548
  7
EXCADTTF1
 72
     5
 11
1522.29
 21
1510.059749731779
 31
0.0
100
AcDbText
  0
TEXT
  5
3E0
330
1F
100
AcDbEntity
  8
Ｓ_１_２０
  6
CONTINUOUS
 62
     4
100
AcDbText
 10
1568.29
 20
1510.059749731779
 30
0.0
 40
23.08602624585575
  1
R
 41
0.9992308327601548
  7
EXCADTTF1
 72
     5
 11
1583.29
 21
1510.059749731779
 31
0.0
100
AcDbText
  0
TEXT
  5
3E1
330
1F
100
AcDbEntity
  8
Ｓ_１_２０
  6
CONTINUOUS
 62
     4
100
AcDbText
 10
1782.29
 20
1483.059749731779
 30
0.0
 40
23.08602624585575
  1
P1
 41
0.9992308327601548
  7
EXCADTTF1
 72
     5
 11
1812.29
 21
1483.059749731779
 31
0.0
100
AcDbText
  0
TEXT
  5
3E2
330
1F
100
AcDbEntity
  8
Ｓ_１_２０
  6
CONTINUOUS
 62
     4
100
AcDbText
 10
1844.29
 20
1483.059749731779
 30
0.0
 40
23.08602624585575
  1
P2
 41
0.9992308327601548
  7
EXCADTTF1
 72
     5
 11
1874.29
 21
1483.059749731779
 31
0.0
100
AcDbText
  0
TEXT
  5
3E3
330
1F
100
AcDbEntity
  8
Ｓ_１_２０
  6
CONTINUOUS
 62
     4
100
AcDbText
 10
1906.29
 20
1484.059749731779
 30
0.0
 40
23.08602624585575
  1
P3
 41
0.9992308327601548
  7
EXCADTTF1
 72
     5
 11
1936.29
 21
1484.059749731779
 31
0.0
100
AcDbText
  0
TEXT
  5
3E4
330
1F
100
AcDbEntity
  8
Ｓ_１_２０
  6
CONTINUOUS
 62
     4
100
AcDbText
 10
1970.29
 20
1486.059749731779
 30
0.0
 40
23.08602624585575
  1
P4
 41
0.9992308327601548
  7
EXCADTTF1
 72
     5
 11
2000.29
 21
1486.059749731779
 31
0.0
100
AcDbText
  0
TEXT
  5
3E5
330
1F
100
AcDbEntity
  8
Ｓ_１_２０
  6
CONTINUOUS
 62
     4
100
AcDbText
 10
2039.29
 20
1484.059749731779
 30
0.0
 40
23.08602624585575
  1
T
 41
0.9992308327601548
  7
EXCADTTF1
 72
     5
 11
2054.29
 21
1484.059749731779
 31
0.0
100
AcDbText
  0
LINE
  5
3E6
330
1F
100
AcDbEntity
  8
Ｓ_１_２０
  6
EXLTYPE0
 62
     2
100
AcDbLine
 10
3222.0
 20
1558.0
 30
0.0
 11
3222.0
 21
1703.0
 31
0.0
  0
LINE
  5
3E7
330
1F
100
AcDbEntity
  8
Ｓ_１_２０
  6
EXLTYPE0
 62
     2
100
AcDbLine
 10
3178.0
 20
1558.0
 30
0.0
 11
3178.0
 21
1703.0
 31
0.0
  0
LINE
  5
3E8
330
1F
100
AcDbEntity
  8
Ｓ_１_２０
  6
EXLTYPE0
 62
     2
100
AcDbLine
 10
3178.0
 20
1558.0
 30
0.0
 11
3222.0
 21
1558.0
 31
0.0
  0
LINE
  5
3E9
330
1F
100
AcDbEntity
  8
Ｓ_１_２０
  6
EXLTYPE0
 62
     2
100
AcDbLine
 10
3178.0
 20
1688.0
 30
0.0
 11
3222.0
 21
1688.0
 31
0.0
  0
LINE
  5
3EA
330
1F
100
AcDbEntity
  8
Ｓ_１_２０
  6
EXLTYPE0
 62
     2
100
AcDbLine
 10
3178.0
 20
1703.0
 30
0.0
 11
3222.0
 21
1703.0
 31
0.0
  0
LINE
  5
3EB
330
1F
100
AcDbEntity
  8
Ｓ_１_２０
  6
EXLTYPE0
 62
     2
100
AcDbLine
 10
3178.0
 20
1733.0
 30
0.0
 11
3222.0
 21
1733.0
 31
0.0
  0
LINE
  5
3EC
330
1F
100
AcDbEntity
  8
Ｓ_１_２０
  6
EXLTYPE0
 62
     2
100
AcDbLine
 10
3178.0
 20
1743.0
 30
0.0
 11
3222.0
 21
1743.0
 31
0.0
  0
LINE
  5
3ED
330
1F
100
AcDbEntity
  8
Ｓ_１_２０
  6
EXLTYPE0
 62
     2
100
AcDbLine
 10
3206.0
 20
1703.0
 30
0.0
 11
3206.0
 21
1733.0
 31
0.0
  0
LINE
  5
3EE
330
1F
100
AcDbEntity
  8
Ｓ_１_２０
  6
EXLTYPE0
 62
     2
100
AcDbLine
 10
3194.0
 20
1703.0
 30
0.0
 11
3194.0
 21
1733.0
 31
0.0
  0
LINE
  5
3EF
330
1F
100
AcDbEntity
  8
Ｓ_１_２０
  6
EXLTYPE0
 62
     2
100
AcDbLine
 10
3178.0
 20
1733.0
 30
0.0
 11
3178.0
 21
1743.0
 31
0.0
  0
LINE
  5
3F0
330
1F
100
AcDbEntity
  8
Ｓ_１_２０
  6
EXLTYPE0
 62
     2
100
AcDbLine
 10
3222.0
 20
1733.0
 30
0.0
 11
3222.0
 21
1743.0
 31
0.0
  0
LINE
  5
3F1
330
1F
100
AcDbEntity
  8
Ｓ_１_２０
  6
EXLTYPE0
 62
     2
100
AcDbLine
 10
3250.0
 20
1400.01
 30
0.0
 11
3250.0
 21
1600.0
 31
0.0
  0
LINE
  5
3F2
330
1F
100
AcDbEntity
  8
Ｓ_１_２０
  6
EXLTYPE0
 62
     2
100
AcDbLine
 10
3156.0
 20
1600.0
 30
0.0
 11
3250.0
 21
1600.0
 31
0.0
  0
LINE
  5
3F3
330
1F
100
AcDbEntity
  8
Ｓ_１_２０
  6
EXLTYPE0
 62
     2
100
AcDbLine
 10
3156.0
 20
1588.0
 30
0.0
 11
3250.0
 21
1588.0
 31
0.0
  0
LINE
  5
3F4
330
1F
100
AcDbEntity
  8
Ｓ_１_２０
  6
EXLTYPE0
 62
     2
100
AcDbLine
 10
3170.0
 20
1420.01
 30
0.0
 11
3250.0
 21
1420.01
 31
0.0
  0
LINE
  5
3F5
330
1F
100
AcDbEntity
  8
Ｓ_１_２０
  6
EXLTYPE0
 62
     2
100
AcDbLine
 10
3170.0
 20
1420.01
 30
0.0
 11
3170.0
 21
1470.01
 31
0.0
  0
LINE
  5
3F6
330
1F
100
AcDbEntity
  8
Ｓ_１_２０
  6
EXLTYPE0
 62
     2
100
AcDbLine
 10
3170.0
 20
1470.01
 30
0.0
 11
3250.0
 21
1470.01
 31
0.0
  0
LINE
  5
3F7
330
1F
100
AcDbEntity
  8
Ｓ_１_２０
  6
EXLTYPE0
 62
     2
100
AcDbLine
 10
3745.0
 20
1400.01
 30
0.0
 11
3745.0
 21
1460.01
 31
0.0
  0
LINE
  5
3F8
330
1F
100
AcDbEntity
  8
Ｓ_１_２０
  6
EXLTYPE0
 62
     2
100
AcDbLine
 10
3395.0
 20
1400.01
 30
0.0
 11
3395.0
 21
1460.01
 31
0.0
  0
LINE
  5
3F9
330
1F
100
AcDbEntity
  8
Ｓ_１_２０
  6
EXLTYPE0
 62
     2
100
AcDbLine
 10
3395.0
 20
1430.01
 30
0.0
 11
3745.0
 21
1430.01
 31
0.0
  0
LINE
  5
3FA
330
1F
100
AcDbEntity
  8
Ｓ_１_２０
  6
EXLTYPE0
 62
     2
100
AcDbLine
 10
3395.0
 20
1460.01
 30
0.0
 11
3745.0
 21
1460.01
 31
0.0
  0
LINE
  5
3FB
330
1F
100
AcDbEntity
  8
Ｓ_１_２０
  6
EXLTYPE0
 62
     2
100
AcDbLine
 10
3420.0
 20
1460.01
 30
0.0
 11
3420.0
 21
1560.01
 31
0.0
  0
LINE
  5
3FC
330
1F
100
AcDbEntity
  8
Ｓ_１_２０
  6
EXLTYPE0
 62
     2
100
AcDbLine
 10
3720.0
 20
1460.01
 30
0.0
 11
3720.0
 21
1560.01
 31
0.0
  0
LINE
  5
3FD
330
1F
100
AcDbEntity
  8
Ｓ_１_２０
  6
EXLTYPE0
 62
     2
100
AcDbLine
 10
3395.0
 20
1560.01
 30
0.0
 11
3745.0
 21
1560.01
 31
0.0
  0
LINE
  5
3FE
330
1F
100
AcDbEntity
  8
Ｓ_１_２０
  6
EXLTYPE0
 62
     2
100
AcDbLine
 10
3420.0
 20
1910.01
 30
0.0
 11
3720.0
 21
1910.01
 31
0.0
  0
LINE
  5
3FF
330
1F
100
AcDbEntity
  8
Ｓ_１_２０
  6
EXLTYPE0
 62
     2
100
AcDbLine
 10
3745.0
 20
1560.01
 30
0.0
 11
3745.0
 21
1885.01
 31
0.0
  0
LINE
  5
400
330
1F
100
AcDbEntity
  8
Ｓ_１_２０
  6
EXLTYPE0
 62
     2
100
AcDbLine
 10
3395.0
 20
1560.01
 30
0.0
 11
3395.0
 21
1885.01
 31
0.0
  0
LINE
  5
401
330
1F
100
AcDbEntity
  8
Ｓ_１_２０
  6
EXLTYPE0
 62
     2
100
AcDbLine
 10
3420.0
 20
1810.01
 30
0.0
 11
3720.0
 21
1810.01
 31
0.0
  0
LINE
  5
402
330
1F
100
AcDbEntity
  8
Ｓ_１_２０
  6
EXLTYPE0
 62
     2
100
AcDbLine
 10
3357.5
 20
1400.01
 30
0.0
 11
3357.5
 21
1430.01
 31
0.0
  0
LINE
  5
403
330
1F
100
AcDbEntity
  8
Ｓ_１_２０
  6
EXLTYPE0
 62
     2
100
AcDbLine
 10
3287.5
 20
1400.01
 30
0.0
 11
3287.5
 21
1430.01
 31
0.0
  0
LINE
  5
404
330
1F
100
AcDbEntity
  8
Ｓ_１_２０
  6
EXLTYPE0
 62
     2
100
AcDbLine
 10
3272.5
 20
1430.01
 30
0.0
 11
3372.5
 21
1430.01
 31
0.0
  0
LINE
  5
405
330
1F
100
AcDbEntity
  8
Ｓ_１_２０
  6
EXLTYPE0
 62
     2
100
AcDbLine
 10
3287.5
 20
1480.01
 30
0.0
 11
3357.5
 21
1480.01
 31
0.0
  0
LINE
  5
406
330
1F
100
AcDbEntity
  8
Ｓ_１_２０
  6
EXLTYPE0
 62
     2
100
AcDbLine
 10
3272.5
 20
1430.01
 30
0.0
 11
3272.5
 21
1465.01
 31
0.0
  0
LINE
  5
407
330
1F
100
AcDbEntity
  8
Ｓ_１_２０
  6
EXLTYPE0
 62
     2
100
AcDbLine
 10
3372.5
 20
1430.01
 30
0.0
 11
3372.5
 21
1465.01
 31
0.0
  0
LINE
  5
408
330
1F
100
AcDbEntity
  8
Ｓ_１_２０
  6
EXLTYPE0
 62
     2
100
AcDbLine
 10
3350.0
 20
1610.0
 30
0.0
 11
3350.0
 21
2050.0
 31
0.0
  0
LINE
  5
409
330
1F
100
AcDbEntity
  8
Ｓ_１_２０
  6
EXLTYPE0
 62
     2
100
AcDbLine
 10
3350.0
 20
2050.0
 30
0.0
 11
3156.0
 21
2050.0
 31
0.0
  0
LINE
  5
40A
330
1F
100
AcDbEntity
  8
Ｓ_１_２０
  6
EXLTYPE0
 62
     2
100
AcDbLine
 10
3350.0
 20
1610.0
 30
0.0
 11
3263.56
 21
1610.0
 31
0.0
  0
LINE
  5
40B
330
1F
100
AcDbEntity
  8
Ｓ_１_２０
  6
EXLTYPE0
 62
     2
100
AcDbLine
 10
3185.0
 20
1405.01
 30
0.0
 11
3185.0
 21
1415.01
 31
0.0
  0
LINE
  5
40C
330
1F
100
AcDbEntity
  8
Ｓ_１_２０
  6
EXLTYPE0
 62
     2
100
AcDbLine
 10
3190.0
 20
1400.01
 30
0.0
 11
3190.0
 21
1420.01
 31
0.0
  0
LINE
  5
40D
330
1F
100
AcDbEntity
  8
Ｓ_１_２０
  6
EXLTYPE0
 62
     2
100
AcDbLine
 10
3185.0
 20
1405.01
 30
0.0
 11
3215.0
 21
1405.01
 31
0.0
  0
LINE
  5
40E
330
1F
100
AcDbEntity
  8
Ｓ_１_２０
  6
EXLTYPE0
 62
     2
100
AcDbLine
 10
3210.0
 20
1400.01
 30
0.0
 11
3210.0
 21
1420.01
 31
0.0
  0
LINE
  5
40F
330
1F
100
AcDbEntity
  8
Ｓ_１_２０
  6
EXLTYPE0
 62
     2
100
AcDbLine
 10
3215.0
 20
1405.01
 30
0.0
 11
3215.0
 21
1415.01
 31
0.0
  0
LINE
  5
410
330
1F
100
AcDbEntity
  8
Ｓ_１_２０
  6
EXLTYPE0
 62
     2
100
AcDbLine
 10
3185.0
 20
1415.01
 30
0.0
 11
3215.0
 21
1415.01
 31
0.0
  0
ARC
  5
411
330
1F
100
AcDbEntity
  8
Ｓ_１_２０
  6
EXLTYPE0
 62
     2
100
AcDbCircle
 10
3419.996611
 20
1885.005576
 30
0.0
 40
25.00000000000002
100
AcDbArc
 50
90.00005500000033
 51
180.000109
  0
ARC
  5
412
330
1F
100
AcDbEntity
  8
Ｓ_１_２０
  6
EXLTYPE0
 62
     2
100
AcDbCircle
 10
3719.996367
 20
1885.005576
 30
0.0
 40
25.00000000000002
100
AcDbArc
 50
359.9999950000001
 51
90.00005500000033
  0
ARC
  5
413
330
1F
100
AcDbEntity
  8
Ｓ_１_２０
  6
EXLTYPE0
 62
     2
100
AcDbCircle
 10
3287.496611
 20
1465.005698
 30
0.0
 40
15.00000000000001
100
AcDbArc
 50
90.00005500000033
 51
180.0001089999998
  0
ARC
  5
414
330
1F
100
AcDbEntity
  8
Ｓ_１_２０
  6
EXLTYPE0
 62
     2
100
AcDbCircle
 10
3357.496611
 20
1465.005698
 30
0.0
 40
15.00000000000001
100
AcDbArc
 50
359.9999950000006
 51
90.00005500000033
  0
LINE
  5
415
330
1F
100
AcDbEntity
  8
Ｓ_１_２０
  6
EXLTYPE4
 62
     1
100
AcDbLine
 10
3261.0
 20
704.5200000000001
 30
0.0
 11
3261.0
 21
794.2499999999997
 31
0.0
  0
LINE
  5
416
330
1F
100
AcDbEntity
  8
Ｓ_１_２０
  6
EXLTYPE4
 62
     1
100
AcDbLine
 10
3200.0
 20
1529.09
 30
0.0
 11
3200.0
 21
1760.09
 31
0.0
  0
LINE
  5
417
330
1F
100
AcDbEntity
  8
Ｓ_１_２０
  6
EXLTYPE4
 62
     1
100
AcDbLine
 10
3570.0
 20
1371.59
 30
0.0
 11
3570.0
 21
1966.589999999999
 31
0.0
  0
LINE
  5
418
330
1F
100
AcDbEntity
  8
Ｓ_１_２０
  6
EXLTYPE4
 62
     1
100
AcDbLine
 10
3322.5
 20
1400.01
 30
0.0
 11
3322.5
 21
1489.86
 31
0.0
  0
LINE
  5
419
330
1F
100
AcDbEntity
  8
Ｓ_１_２０
  6
EXLTYPE4
 62
     1
100
AcDbLine
 10
3200.0
 20
1317.06
 30
0.0
 11
3200.0
 21
1475.84
 31
0.0
  0
LINE
  5
41A
330
1F
100
AcDbEntity
  8
Ｓ_１_２０
  6
EXLTYPE4
 62
     1
100
AcDbLine
 10
3900.0
 20
2200.0
 30
0.0
 11
3900.0
 21
2094.88
 31
0.0
  0
LINE
  5
41B
330
1F
100
AcDbEntity
  8
Ｓ_１_２０
  6
EXLTYPE4
 62
     1
100
AcDbLine
 10
3885.59
 20
2145.0
 30
0.0
 11
3913.1
 21
2145.0
 31
0.0
  0
LINE
  5
41C
330
1F
100
AcDbEntity
  8
Ｓ_１_２０
  6
EXLTYPE4
 62
     1
100
AcDbLine
 10
3885.0
 20
2180.0
 30
0.0
 11
3915.0
 21
2180.0
 31
0.0
  0
LINE
  5
41D
330
1F
100
AcDbEntity
  8
Ｓ_１_２０
  6
EXLTYPE4
 62
     1
100
AcDbLine
 10
3200.0
 20
2200.0
 30
0.0
 11
3200.0
 21
2094.88
 31
0.0
  0
LINE
  5
41E
330
1F
100
AcDbEntity
  8
Ｓ_１_２０
  6
EXLTYPE4
 62
     1
100
AcDbLine
 10
3185.59
 20
2145.0
 30
0.0
 11
3213.099999999999
 21
2145.0
 31
0.0
  0
LINE
  5
41F
330
1F
100
AcDbEntity
  8
Ｓ_１_２０
  6
EXLTYPE4
 62
     1
100
AcDbLine
 10
3185.0
 20
2180.0
 30
0.0
 11
3215.0
 21
2180.0
 31
0.0
  0
LINE
  5
420
330
1F
100
AcDbEntity
  8
Ｓ_１_２０
  6
EXLTYPE4
 62
     1
100
AcDbLine
 10
3939.0
 20
706.2800000000003
 30
0.0
 11
3939.0
 21
794.2499999999997
 31
0.0
  0
LINE
  5
421
330
1F
100
AcDbEntity
  8
Ｓ_１_２０
  6
EXLTYPE4
 62
     1
100
AcDbLine
 10
3375.0
 20
1211.97
 30
0.0
 11
3375.0
 21
1310.75
 31
0.0
  0
LINE
  5
422
330
1F
100
AcDbEntity
  8
Ｓ_１_２０
  6
EXLTYPE4
 62
     1
100
AcDbLine
 10
3325.0
 20
1210.95
 30
0.0
 11
3325.0
 21
1309.23
 31
0.0
  0
LINE
  5
423
330
1F
100
AcDbEntity
  8
Ｓ_１_２０
  6
EXLTYPE4
 62
     1
100
AcDbLine
 10
3505.0
 20
1287.38
 30
0.0
 11
3505.0
 21
1325.92
 31
0.0
  0
LINE
  5
424
330
1F
100
AcDbEntity
  8
Ｓ_１_２０
  6
EXLTYPE4
 62
     1
100
AcDbLine
 10
3542.5
 20
1289.59
 30
0.0
 11
3542.5
 21
1325.92
 31
0.0
  0
LINE
  5
425
330
1F
100
AcDbEntity
  8
Ｓ_１_２０
  6
EXLTYPE4
 62
     1
100
AcDbLine
 10
3467.5
 20
1285.18
 30
0.0
 11
3467.5
 21
1322.07
 31
0.0
  0
LINE
  5
426
330
1F
100
AcDbEntity
  8
Ｓ_１_２０
  6
CONTINUOUS
 62
     3
100
AcDbLine
 10
3150.0
 20
1400.01
 30
0.0
 11
3150.0
 21
2100.0
 31
0.0
  0
LINE
  5
427
330
1F
100
AcDbEntity
  8
Ｓ_１_２０
  6
CONTINUOUS
 62
     3
100
AcDbLine
 10
3255.0
 20
705.7499999999997
 30
0.0
 11
3255.0
 21
765.5099999999999
 31
0.0
  0
LINE
  5
428
330
1F
100
AcDbEntity
  8
Ｓ_１_２０
  6
CONTINUOUS
 62
     3
100
AcDbLine
 10
3250.0
 20
800.0099999999999
 30
0.0
 11
3950.0
 21
800.0099999999999
 31
0.0
  0
LINE
  5
429
330
1F
100
AcDbEntity
  8
Ｓ_１_２０
  6
CONTINUOUS
 62
     3
100
AcDbLine
 10
3150.0
 20
1400.01
 30
0.0
 11
3950.0
 21
1400.01
 31
0.0
  0
LINE
  5
42A
330
1F
100
AcDbEntity
  8
Ｓ_１_２０
  6
CONTINUOUS
 62
     3
100
AcDbLine
 10
3250.0
 20
1350.0
 30
0.0
 11
3238.0
 21
1350.0
 31
0.0
  0
LINE
  5
42B
330
1F
100
AcDbEntity
  8
Ｓ_１_２０
  6
CONTINUOUS
 62
     3
100
AcDbLine
 10
3150.0
 20
2100.0
 30
0.0
 11
3950.0
 21
2100.0
 31
0.0
  0
LINE
  5
42C
330
1F
100
AcDbEntity
  8
Ｓ_１_２０
  6
CONTINUOUS
 62
     3
100
AcDbLine
 10
3388.0
 20
1265.01
 30
0.0
 11
3388.0
 21
1280.01
 31
0.0
  0
LINE
  5
42D
330
1F
100
AcDbEntity
  8
Ｓ_１_２０
  6
CONTINUOUS
 62
     3
100
AcDbLine
 10
3360.0
 20
1295.01
 30
0.0
 11
3390.0
 21
1295.01
 31
0.0
  0
LINE
  5
42E
330
1F
100
AcDbEntity
  8
Ｓ_１_２０
  6
CONTINUOUS
 62
     3
100
AcDbLine
 10
3360.0
 20
1285.01
 30
0.0
 11
3390.0
 21
1285.01
 31
0.0
  0
LINE
  5
42F
330
1F
100
AcDbEntity
  8
Ｓ_１_２０
  6
CONTINUOUS
 62
     3
100
AcDbLine
 10
3360.0
 20
1285.01
 30
0.0
 11
3360.0
 21
1295.01
 31
0.0
  0
LINE
  5
430
330
1F
100
AcDbEntity
  8
Ｓ_１_２０
  6
CONTINUOUS
 62
     3
100
AcDbLine
 10
3361.0
 20
1217.01
 30
0.0
 11
3389.0
 21
1217.01
 31
0.0
  0
LINE
  5
431
330
1F
100
AcDbEntity
  8
Ｓ_１_２０
  6
CONTINUOUS
 62
     3
100
AcDbLine
 10
3359.0
 20
1219.01
 30
0.0
 11
3359.0
 21
1229.01
 31
0.0
  0
LINE
  5
432
330
1F
100
AcDbEntity
  8
Ｓ_１_２０
  6
CONTINUOUS
 62
     3
100
AcDbLine
 10
3359.0
 20
1247.01
 30
0.0
 11
3391.0
 21
1247.01
 31
0.0
  0
LINE
  5
433
330
1F
100
AcDbEntity
  8
Ｓ_１_２０
  6
CONTINUOUS
 62
     3
100
AcDbLine
 10
3359.0
 20
1219.01
 30
0.0
 11
3391.0
 21
1219.01
 31
0.0
  0
LINE
  5
434
330
1F
100
AcDbEntity
  8
Ｓ_１_２０
  6
CONTINUOUS
 62
     3
100
AcDbLine
 10
3359.0
 20
1219.01
 30
0.0
 11
3361.0
 21
1217.01
 31
0.0
  0
LINE
  5
435
330
1F
100
AcDbEntity
  8
Ｓ_１_２０
  6
CONTINUOUS
 62
     3
100
AcDbLine
 10
3359.0
 20
1229.01
 30
0.0
 11
3391.0
 21
1229.01
 31
0.0
  0
LINE
  5
436
330
1F
100
AcDbEntity
  8
Ｓ_１_２０
  6
CONTINUOUS
 62
     3
100
AcDbLine
 10
3359.0
 20
1237.01
 30
0.0
 11
3391.0
 21
1237.01
 31
0.0
  0
LINE
  5
437
330
1F
100
AcDbEntity
  8
Ｓ_１_２０
  6
CONTINUOUS
 62
     3
100
AcDbLine
 10
3359.5
 20
1229.01
 30
0.0
 11
3359.5
 21
1237.01
 31
0.0
  0
LINE
  5
438
330
1F
100
AcDbEntity
  8
Ｓ_１_２０
  6
CONTINUOUS
 62
     3
100
AcDbLine
 10
3359.0
 20
1237.01
 30
0.0
 11
3359.0
 21
1247.01
 31
0.0
  0
LINE
  5
439
330
1F
100
AcDbEntity
  8
Ｓ_１_２０
  6
CONTINUOUS
 62
     3
100
AcDbLine
 10
3362.0
 20
1247.01
 30
0.0
 11
3362.0
 21
1250.01
 31
0.0
  0
LINE
  5
43A
330
1F
100
AcDbEntity
  8
Ｓ_１_２０
  6
CONTINUOUS
 62
     3
100
AcDbLine
 10
3362.0
 20
1250.01
 30
0.0
 11
3388.0
 21
1250.01
 31
0.0
  0
LINE
  5
43B
330
1F
100
AcDbEntity
  8
Ｓ_１_２０
  6
CONTINUOUS
 62
     3
100
AcDbLine
 10
3385.0
 20
1253.01
 30
0.0
 11
3385.0
 21
1265.01
 31
0.0
  0
LINE
  5
43C
330
1F
100
AcDbEntity
  8
Ｓ_１_２０
  6
CONTINUOUS
 62
     3
100
AcDbLine
 10
3365.0
 20
1253.01
 30
0.0
 11
3365.0
 21
1265.01
 31
0.0
  0
LINE
  5
43D
330
1F
100
AcDbEntity
  8
Ｓ_１_２０
  6
CONTINUOUS
 62
     3
100
AcDbLine
 10
3362.0
 20
1250.01
 30
0.0
 11
3365.0
 21
1253.01
 31
0.0
  0
LINE
  5
43E
330
1F
100
AcDbEntity
  8
Ｓ_１_２０
  6
CONTINUOUS
 62
     3
100
AcDbLine
 10
3388.0
 20
1250.01
 30
0.0
 11
3385.0
 21
1253.01
 31
0.0
  0
LINE
  5
43F
330
1F
100
AcDbEntity
  8
Ｓ_１_２０
  6
CONTINUOUS
 62
     3
100
AcDbLine
 10
3365.0
 20
1253.01
 30
0.0
 11
3385.0
 21
1253.01
 31
0.0
  0
LINE
  5
440
330
1F
100
AcDbEntity
  8
Ｓ_１_２０
  6
CONTINUOUS
 62
     3
100
AcDbLine
 10
3362.0
 20
1265.01
 30
0.0
 11
3388.0
 21
1265.01
 31
0.0
  0
LINE
  5
441
330
1F
100
AcDbEntity
  8
Ｓ_１_２０
  6
CONTINUOUS
 62
     3
100
AcDbLine
 10
3362.0
 20
1265.01
 30
0.0
 11
3362.0
 21
1280.01
 31
0.0
  0
LINE
  5
442
330
1F
100
AcDbEntity
  8
Ｓ_１_２０
  6
CONTINUOUS
 62
     3
100
AcDbLine
 10
3365.0
 20
1280.01
 30
0.0
 11
3365.0
 21
1300.01
 31
0.0
  0
LINE
  5
443
330
1F
100
AcDbEntity
  8
Ｓ_１_２０
  6
CONTINUOUS
 62
     3
100
AcDbLine
 10
3385.0
 20
1280.01
 30
0.0
 11
3385.0
 21
1300.01
 31
0.0
  0
LINE
  5
444
330
1F
100
AcDbEntity
  8
Ｓ_１_２０
  6
CONTINUOUS
 62
     3
100
AcDbLine
 10
3389.0
 20
1217.01
 30
0.0
 11
3391.0
 21
1219.01
 31
0.0
  0
LINE
  5
445
330
1F
100
AcDbEntity
  8
Ｓ_１_２０
  6
CONTINUOUS
 62
     3
100
AcDbLine
 10
3391.0
 20
1219.01
 30
0.0
 11
3391.0
 21
1229.01
 31
0.0
  0
LINE
  5
446
330
1F
100
AcDbEntity
  8
Ｓ_１_２０
  6
CONTINUOUS
 62
     3
100
AcDbLine
 10
3390.5
 20
1229.01
 30
0.0
 11
3390.5
 21
1237.01
 31
0.0
  0
LINE
  5
447
330
1F
100
AcDbEntity
  8
Ｓ_１_２０
  6
CONTINUOUS
 62
     3
100
AcDbLine
 10
3391.0
 20
1237.01
 30
0.0
 11
3391.0
 21
1247.01
 31
0.0
  0
LINE
  5
448
330
1F
100
AcDbEntity
  8
Ｓ_１_２０
  6
CONTINUOUS
 62
     3
100
AcDbLine
 10
3388.0
 20
1247.01
 30
0.0
 11
3388.0
 21
1250.01
 31
0.0
  0
LINE
  5
449
330
1F
100
AcDbEntity
  8
Ｓ_１_２０
  6
CONTINUOUS
 62
     3
100
AcDbLine
 10
3390.0
 20
1285.01
 30
0.0
 11
3390.0
 21
1295.01
 31
0.0
  0
LINE
  5
44A
330
1F
100
AcDbEntity
  8
Ｓ_１_２０
  6
CONTINUOUS
 62
     3
100
AcDbLine
 10
3156.0
 20
1400.01
 30
0.0
 11
3156.0
 21
2100.0
 31
0.0
  0
LINE
  5
44B
330
1F
100
AcDbEntity
  8
Ｓ_１_２０
  6
CONTINUOUS
 62
     3
100
AcDbLine
 10
3944.0
 20
1400.01
 30
0.0
 11
3944.0
 21
2100.0
 31
0.0
  0
LINE
  5
44C
330
1F
100
AcDbEntity
  8
Ｓ_１_２０
  6
CONTINUOUS
 62
     3
100
AcDbLine
 10
3879.069999999999
 20
2118.0
 30
0.0
 11
3890.0
 21
2118.0
 31
0.0
  0
LINE
  5
44D
330
1F
100
AcDbEntity
  8
Ｓ_１_２０
  6
CONTINUOUS
 62
     3
100
AcDbLine
 10
3879.069999999999
 20
2118.0
 30
0.0
 11
3890.0
 21
2119.05
 31
0.0
  0
LINE
  5
44E
330
1F
100
AcDbEntity
  8
Ｓ_１_２０
  6
CONTINUOUS
 62
     3
100
AcDbLine
 10
3910.0
 20
2119.05
 30
0.0
 11
3920.920000000001
 21
2118.0
 31
0.0
  0
LINE
  5
44F
330
1F
100
AcDbEntity
  8
Ｓ_１_２０
  6
CONTINUOUS
 62
     3
100
AcDbLine
 10
3877.5
 20
2100.0
 30
0.0
 11
3879.069999999999
 21
2118.0
 31
0.0
  0
LINE
  5
450
330
1F
100
AcDbEntity
  8
Ｓ_１_２０
  6
CONTINUOUS
 62
     3
100
AcDbLine
 10
3922.5
 20
2100.0
 30
0.0
 11
3920.920000000001
 21
2118.0
 31
0.0
  0
LINE
  5
451
330
1F
100
AcDbEntity
  8
Ｓ_１_２０
  6
CONTINUOUS
 62
     3
100
AcDbLine
 10
3910.0
 20
2180.0
 30
0.0
 11
3910.0
 21
2110.0
 31
0.0
  0
LINE
  5
452
330
1F
100
AcDbEntity
  8
Ｓ_１_２０
  6
CONTINUOUS
 62
     3
100
AcDbLine
 10
3890.0
 20
2180.0
 30
0.0
 11
3890.0
 21
2110.0
 31
0.0
  0
LINE
  5
453
330
1F
100
AcDbEntity
  8
Ｓ_１_２０
  6
CONTINUOUS
 62
     3
100
AcDbLine
 10
3910.0
 20
2118.0
 30
0.0
 11
3920.920000000001
 21
2118.0
 31
0.0
  0
LINE
  5
454
330
1F
100
AcDbEntity
  8
Ｓ_１_２０
  6
CONTINUOUS
 62
     3
100
AcDbLine
 10
3179.070000000001
 20
2118.0
 30
0.0
 11
3190.0
 21
2118.0
 31
0.0
  0
LINE
  5
455
330
1F
100
AcDbEntity
  8
Ｓ_１_２０
  6
CONTINUOUS
 62
     3
100
AcDbLine
 10
3179.070000000001
 20
2118.0
 30
0.0
 11
3190.0
 21
2119.05
 31
0.0
  0
LINE
  5
456
330
1F
100
AcDbEntity
  8
Ｓ_１_２０
  6
CONTINUOUS
 62
     3
100
AcDbLine
 10
3210.0
 20
2119.05
 30
0.0
 11
3220.92
 21
2118.0
 31
0.0
  0
LINE
  5
457
330
1F
100
AcDbEntity
  8
Ｓ_１_２０
  6
CONTINUOUS
 62
     3
100
AcDbLine
 10
3177.5
 20
2100.0
 30
0.0
 11
3179.070000000001
 21
2118.0
 31
0.0
  0
LINE
  5
458
330
1F
100
AcDbEntity
  8
Ｓ_１_２０
  6
CONTINUOUS
 62
     3
100
AcDbLine
 10
3222.5
 20
2100.0
 30
0.0
 11
3220.92
 21
2118.0
 31
0.0
  0
LINE
  5
459
330
1F
100
AcDbEntity
  8
Ｓ_１_２０
  6
CONTINUOUS
 62
     3
100
AcDbLine
 10
3210.0
 20
2180.0
 30
0.0
 11
3210.0
 21
2110.0
 31
0.0
  0
LINE
  5
45A
330
1F
100
AcDbEntity
  8
Ｓ_１_２０
  6
CONTINUOUS
 62
     3
100
AcDbLine
 10
3190.0
 20
2180.0
 30
0.0
 11
3190.0
 21
2110.0
 31
0.0
  0
LINE
  5
45B
330
1F
100
AcDbEntity
  8
Ｓ_１_２０
  6
CONTINUOUS
 62
     3
100
AcDbLine
 10
3210.0
 20
2118.0
 30
0.0
 11
3220.92
 21
2118.0
 31
0.0
  0
LINE
  5
45C
330
1F
100
AcDbEntity
  8
Ｓ_１_２０
  6
CONTINUOUS
 62
     3
100
AcDbLine
 10
3170.0
 20
2125.0
 30
0.0
 11
3190.0
 21
2125.0
 31
0.0
  0
LINE
  5
45D
330
1F
100
AcDbEntity
  8
Ｓ_１_２０
  6
CONTINUOUS
 62
     3
100
AcDbLine
 10
3170.0
 20
2100.0
 30
0.0
 11
3170.0
 21
2125.0
 31
0.0
  0
LINE
  5
45E
330
1F
100
AcDbEntity
  8
Ｓ_１_２０
  6
CONTINUOUS
 62
     3
100
AcDbLine
 10
3930.0
 20
2100.0
 30
0.0
 11
3930.0
 21
2125.0
 31
0.0
  0
LINE
  5
45F
330
1F
100
AcDbEntity
  8
Ｓ_１_２０
  6
CONTINUOUS
 62
     3
100
AcDbLine
 10
3210.0
 20
2125.0
 30
0.0
 11
3890.0
 21
2125.0
 31
0.0
  0
LINE
  5
460
330
1F
100
AcDbEntity
  8
Ｓ_１_２０
  6
CONTINUOUS
 62
     3
100
AcDbLine
 10
3910.0
 20
2125.0
 30
0.0
 11
3930.0
 21
2125.0
 31
0.0
  0
LINE
  5
461
330
1F
100
AcDbEntity
  8
Ｓ_１_２０
  6
CONTINUOUS
 62
     3
100
AcDbLine
 10
3945.0
 20
705.7499999999997
 30
0.0
 11
3945.0
 21
765.5099999999999
 31
0.0
  0
LINE
  5
462
330
1F
100
AcDbEntity
  8
Ｓ_１_２０
  6
CONTINUOUS
 62
     3
100
AcDbLine
 10
3295.0
 20
716.5799999999996
 30
0.0
 11
3295.0
 21
765.5099999999999
 31
0.0
  0
LINE
  5
463
330
1F
100
AcDbEntity
  8
Ｓ_１_２０
  6
CONTINUOUS
 62
     3
100
AcDbLine
 10
3300.0
 20
700.0099999999999
 30
0.0
 11
3300.0
 21
765.5099999999999
 31
0.0
  0
LINE
  5
464
330
1F
100
AcDbEntity
  8
Ｓ_１_２０
  6
CONTINUOUS
 62
     3
100
AcDbLine
 10
3253.650000000001
 20
794.3700000000005
 30
0.0
 11
3287.69
 21
791.39
 31
0.0
  0
LINE
  5
465
330
1F
100
AcDbEntity
  8
Ｓ_１_２０
  6
CONTINUOUS
 62
     3
100
AcDbLine
 10
3253.650000000001
 20
705.64
 30
0.0
 11
3287.69
 21
708.6100000000002
 31
0.0
  0
LINE
  5
466
330
1F
100
AcDbEntity
  8
Ｓ_１_２０
  6
CONTINUOUS
 62
     3
100
AcDbLine
 10
3950.0
 20
699.9999999999997
 30
0.0
 11
3250.0
 21
699.9999999999997
 31
0.0
  0
LINE
  5
467
330
1F
100
AcDbEntity
  8
Ｓ_１_２０
  6
CONTINUOUS
 62
     3
100
AcDbLine
 10
3905.0
 20
716.5799999999996
 30
0.0
 11
3905.0
 21
765.5099999999999
 31
0.0
  0
LINE
  5
468
330
1F
100
AcDbEntity
  8
Ｓ_１_２０
  6
CONTINUOUS
 62
     3
100
AcDbLine
 10
3900.0
 20
700.0099999999999
 30
0.0
 11
3900.0
 21
765.5099999999999
 31
0.0
  0
LINE
  5
469
330
1F
100
AcDbEntity
  8
Ｓ_１_２０
  6
CONTINUOUS
 62
     3
100
AcDbLine
 10
3946.34
 20
705.64
 30
0.0
 11
3912.3
 21
708.6100000000002
 31
0.0
  0
LINE
  5
46A
330
1F
100
AcDbEntity
  8
Ｓ_１_２０
  6
CONTINUOUS
 62
     3
100
AcDbLine
 10
3946.34
 20
794.3700000000005
 30
0.0
 11
3912.3
 21
791.39
 31
0.0
  0
LINE
  5
46B
330
1F
100
AcDbEntity
  8
Ｓ_１_２０
  6
CONTINUOUS
 62
     3
100
AcDbLine
 10
3300.0
 20
792.5099999999999
 30
0.0
 11
3900.0
 21
792.5099999999999
 31
0.0
  0
LINE
  5
46C
330
1F
100
AcDbEntity
  8
Ｓ_１_２０
  6
CONTINUOUS
 62
     3
100
AcDbLine
 10
3900.0
 20
707.4999999999997
 30
0.0
 11
3300.0
 21
707.4999999999997
 31
0.0
  0
LINE
  5
46D
330
1F
100
AcDbEntity
  8
Ｓ_１_２０
  6
CONTINUOUS
 62
     3
100
AcDbLine
 10
3945.0
 20
765.5099999999999
 30
0.0
 11
3945.0
 21
794.2499999999997
 31
0.0
  0
LINE
  5
46E
330
1F
100
AcDbEntity
  8
Ｓ_１_２０
  6
CONTINUOUS
 62
     3
100
AcDbLine
 10
3933.0
 20
706.7999999999998
 30
0.0
 11
3933.0
 21
793.2000000000004
 31
0.0
  0
LINE
  5
46F
330
1F
100
AcDbEntity
  8
Ｓ_１_２０
  6
CONTINUOUS
 62
     3
100
AcDbLine
 10
3905.0
 20
765.5099999999999
 30
0.0
 11
3905.0
 21
783.4199999999997
 31
0.0
  0
LINE
  5
470
330
1F
100
AcDbEntity
  8
Ｓ_１_２０
  6
CONTINUOUS
 62
     3
100
AcDbLine
 10
3900.0
 20
765.5099999999999
 30
0.0
 11
3900.0
 21
800.0099999999999
 31
0.0
  0
LINE
  5
471
330
1F
100
AcDbEntity
  8
Ｓ_１_２０
  6
CONTINUOUS
 62
     3
100
AcDbLine
 10
3300.0
 20
765.5099999999999
 30
0.0
 11
3300.0
 21
800.0099999999999
 31
0.0
  0
LINE
  5
472
330
1F
100
AcDbEntity
  8
Ｓ_１_２０
  6
CONTINUOUS
 62
     3
100
AcDbLine
 10
3295.0
 20
765.5099999999999
 30
0.0
 11
3295.0
 21
783.4199999999997
 31
0.0
  0
LINE
  5
473
330
1F
100
AcDbEntity
  8
Ｓ_１_２０
  6
CONTINUOUS
 62
     3
100
AcDbLine
 10
3267.0
 20
706.7999999999998
 30
0.0
 11
3267.0
 21
793.2000000000004
 31
0.0
  0
LINE
  5
474
330
1F
100
AcDbEntity
  8
Ｓ_１_２０
  6
CONTINUOUS
 62
     3
100
AcDbLine
 10
3255.0
 20
765.5099999999999
 30
0.0
 11
3255.0
 21
794.2499999999997
 31
0.0
  0
LINE
  5
475
330
1F
100
AcDbEntity
  8
Ｓ_１_２０
  6
CONTINUOUS
 62
     3
100
AcDbLine
 10
3950.0
 20
800.0099999999999
 30
0.0
 11
3950.0
 21
2100.0
 31
0.0
  0
LINE
  5
476
330
1F
100
AcDbEntity
  8
Ｓ_１_２０
  6
CONTINUOUS
 62
     3
100
AcDbLine
 10
3250.0
 20
800.0099999999999
 30
0.0
 11
3250.0
 21
1400.01
 31
0.0
  0
LINE
  5
477
330
1F
100
AcDbEntity
  8
Ｓ_１_２０
  6
CONTINUOUS
 62
     3
100
AcDbLine
 10
3238.0
 20
850.0099999999999
 30
0.0
 11
3238.0
 21
1350.0
 31
0.0
  0
LINE
  5
478
330
1F
100
AcDbEntity
  8
Ｓ_１_２０
  6
CONTINUOUS
 62
     3
100
AcDbLine
 10
3238.0
 20
850.0099999999999
 30
0.0
 11
3250.0
 21
850.0099999999999
 31
0.0
  0
LINE
  5
479
330
1F
100
AcDbEntity
  8
Ｓ_１_２０
  6
CONTINUOUS
 62
     3
100
AcDbLine
 10
3950.0
 20
701.6500000000002
 30
0.0
 11
3950.0
 21
699.9999999999997
 31
0.0
  0
LINE
  5
47A
330
1F
100
AcDbEntity
  8
Ｓ_１_２０
  6
CONTINUOUS
 62
     3
100
AcDbLine
 10
3250.0
 20
701.6500000000002
 30
0.0
 11
3250.0
 21
699.9999999999997
 31
0.0
  0
LINE
  5
47B
330
1F
100
AcDbEntity
  8
Ｓ_１_２０
  6
CONTINUOUS
 62
     3
100
AcDbLine
 10
3300.0
 20
1350.01
 30
0.0
 11
3400.0
 21
1350.01
 31
0.0
  0
LINE
  5
47C
330
1F
100
AcDbEntity
  8
Ｓ_１_２０
  6
CONTINUOUS
 62
     3
100
AcDbLine
 10
3300.0
 20
1300.01
 30
0.0
 11
3300.0
 21
1350.01
 31
0.0
  0
LINE
  5
47D
330
1F
100
AcDbEntity
  8
Ｓ_１_２０
  6
CONTINUOUS
 62
     3
100
AcDbLine
 10
3400.0
 20
1300.01
 30
0.0
 11
3400.0
 21
1350.01
 31
0.0
  0
LINE
  5
47E
330
1F
100
AcDbEntity
  8
Ｓ_１_２０
  6
CONTINUOUS
 62
     3
100
AcDbLine
 10
3300.0
 20
1300.01
 30
0.0
 11
3400.0
 21
1300.01
 31
0.0
  0
LINE
  5
47F
330
1F
100
AcDbEntity
  8
Ｓ_１_２０
  6
CONTINUOUS
 62
     3
100
AcDbLine
 10
3430.0
 20
1300.01
 30
0.0
 11
3430.0
 21
1350.01
 31
0.0
  0
LINE
  5
480
330
1F
100
AcDbEntity
  8
Ｓ_１_２０
  6
CONTINUOUS
 62
     3
100
AcDbLine
 10
3580.0
 20
1300.01
 30
0.0
 11
3580.0
 21
1350.01
 31
0.0
  0
LINE
  5
481
330
1F
100
AcDbEntity
  8
Ｓ_１_２０
  6
CONTINUOUS
 62
     3
100
AcDbLine
 10
3430.0
 20
1350.01
 30
0.0
 11
3580.0
 21
1350.01
 31
0.0
  0
LINE
  5
482
330
1F
100
AcDbEntity
  8
Ｓ_１_２０
  6
CONTINUOUS
 62
     3
100
AcDbLine
 10
3430.0
 20
1300.01
 30
0.0
 11
3580.0
 21
1300.01
 31
0.0
  0
LINE
  5
483
330
1F
100
AcDbEntity
  8
Ｓ_１_２０
  6
CONTINUOUS
 62
     3
100
AcDbLine
 10
3213.0
 20
1385.01
 30
0.0
 11
3213.0
 21
1400.01
 31
0.0
  0
LINE
  5
484
330
1F
100
AcDbEntity
  8
Ｓ_１_２０
  6
CONTINUOUS
 62
     3
100
AcDbLine
 10
3186.0
 20
1337.01
 30
0.0
 11
3214.0
 21
1337.01
 31
0.0
  0
LINE
  5
485
330
1F
100
AcDbEntity
  8
Ｓ_１_２０
  6
CONTINUOUS
 62
     3
100
AcDbLine
 10
3184.0
 20
1339.01
 30
0.0
 11
3184.0
 21
1349.01
 31
0.0
  0
LINE
  5
486
330
1F
100
AcDbEntity
  8
Ｓ_１_２０
  6
CONTINUOUS
 62
     3
100
AcDbLine
 10
3184.0
 20
1367.01
 30
0.0
 11
3216.0
 21
1367.01
 31
0.0
  0
LINE
  5
487
330
1F
100
AcDbEntity
  8
Ｓ_１_２０
  6
CONTINUOUS
 62
     3
100
AcDbLine
 10
3184.0
 20
1339.01
 30
0.0
 11
3216.0
 21
1339.01
 31
0.0
  0
LINE
  5
488
330
1F
100
AcDbEntity
  8
Ｓ_１_２０
  6
CONTINUOUS
 62
     3
100
AcDbLine
 10
3184.0
 20
1339.01
 30
0.0
 11
3186.0
 21
1337.01
 31
0.0
  0
LINE
  5
489
330
1F
100
AcDbEntity
  8
Ｓ_１_２０
  6
CONTINUOUS
 62
     3
100
AcDbLine
 10
3184.0
 20
1349.01
 30
0.0
 11
3216.0
 21
1349.01
 31
0.0
  0
LINE
  5
48A
330
1F
100
AcDbEntity
  8
Ｓ_１_２０
  6
CONTINUOUS
 62
     3
100
AcDbLine
 10
3184.0
 20
1357.01
 30
0.0
 11
3216.0
 21
1357.01
 31
0.0
  0
LINE
  5
48B
330
1F
100
AcDbEntity
  8
Ｓ_１_２０
  6
CONTINUOUS
 62
     3
100
AcDbLine
 10
3184.5
 20
1349.01
 30
0.0
 11
3184.5
 21
1357.01
 31
0.0
  0
LINE
  5
48C
330
1F
100
AcDbEntity
  8
Ｓ_１_２０
  6
CONTINUOUS
 62
     3
100
AcDbLine
 10
3184.0
 20
1357.01
 30
0.0
 11
3184.0
 21
1367.01
 31
0.0
  0
LINE
  5
48D
330
1F
100
AcDbEntity
  8
Ｓ_１_２０
  6
CONTINUOUS
 62
     3
100
AcDbLine
 10
3187.0
 20
1367.01
 30
0.0
 11
3187.0
 21
1370.01
 31
0.0
  0
LINE
  5
48E
330
1F
100
AcDbEntity
  8
Ｓ_１_２０
  6
CONTINUOUS
 62
     3
100
AcDbLine
 10
3187.0
 20
1370.01
 30
0.0
 11
3213.0
 21
1370.01
 31
0.0
  0
LINE
  5
48F
330
1F
100
AcDbEntity
  8
Ｓ_１_２０
  6
CONTINUOUS
 62
     3
100
AcDbLine
 10
3210.0
 20
1373.01
 30
0.0
 11
3210.0
 21
1385.01
 31
0.0
  0
LINE
  5
490
330
1F
100
AcDbEntity
  8
Ｓ_１_２０
  6
CONTINUOUS
 62
     3
100
AcDbLine
 10
3190.0
 20
1373.01
 30
0.0
 11
3190.0
 21
1385.01
 31
0.0
  0
LINE
  5
491
330
1F
100
AcDbEntity
  8
Ｓ_１_２０
  6
CONTINUOUS
 62
     3
100
AcDbLine
 10
3187.0
 20
1370.01
 30
0.0
 11
3190.0
 21
1373.01
 31
0.0
  0
LINE
  5
492
330
1F
100
AcDbEntity
  8
Ｓ_１_２０
  6
CONTINUOUS
 62
     3
100
AcDbLine
 10
3213.0
 20
1370.01
 30
0.0
 11
3210.0
 21
1373.01
 31
0.0
  0
LINE
  5
493
330
1F
100
AcDbEntity
  8
Ｓ_１_２０
  6
CONTINUOUS
 62
     3
100
AcDbLine
 10
3190.0
 20
1373.01
 30
0.0
 11
3210.0
 21
1373.01
 31
0.0
  0
LINE
  5
494
330
1F
100
AcDbEntity
  8
Ｓ_１_２０
  6
CONTINUOUS
 62
     3
100
AcDbLine
 10
3187.0
 20
1385.01
 30
0.0
 11
3213.0
 21
1385.01
 31
0.0
  0
LINE
  5
495
330
1F
100
AcDbEntity
  8
Ｓ_１_２０
  6
CONTINUOUS
 62
     3
100
AcDbLine
 10
3187.0
 20
1385.01
 30
0.0
 11
3187.0
 21
1400.01
 31
0.0
  0
LINE
  5
496
330
1F
100
AcDbEntity
  8
Ｓ_１_２０
  6
CONTINUOUS
 62
     3
100
AcDbLine
 10
3214.0
 20
1337.01
 30
0.0
 11
3216.0
 21
1339.01
 31
0.0
  0
LINE
  5
497
330
1F
100
AcDbEntity
  8
Ｓ_１_２０
  6
CONTINUOUS
 62
     3
100
AcDbLine
 10
3216.0
 20
1339.01
 30
0.0
 11
3216.0
 21
1349.01
 31
0.0
  0
LINE
  5
498
330
1F
100
AcDbEntity
  8
Ｓ_１_２０
  6
CONTINUOUS
 62
     3
100
AcDbLine
 10
3215.5
 20
1349.01
 30
0.0
 11
3215.5
 21
1357.01
 31
0.0
  0
LINE
  5
499
330
1F
100
AcDbEntity
  8
Ｓ_１_２０
  6
CONTINUOUS
 62
     3
100
AcDbLine
 10
3216.0
 20
1357.01
 30
0.0
 11
3216.0
 21
1367.01
 31
0.0
  0
LINE
  5
49A
330
1F
100
AcDbEntity
  8
Ｓ_１_２０
  6
CONTINUOUS
 62
     3
100
AcDbLine
 10
3213.0
 20
1367.01
 30
0.0
 11
3213.0
 21
1370.01
 31
0.0
  0
LINE
  5
49B
330
1F
100
AcDbEntity
  8
Ｓ_１_２０
  6
CONTINUOUS
 62
     3
100
AcDbLine
 10
3338.0
 20
1265.01
 30
0.0
 11
3338.0
 21
1280.01
 31
0.0
  0
LINE
  5
49C
330
1F
100
AcDbEntity
  8
Ｓ_１_２０
  6
CONTINUOUS
 62
     3
100
AcDbLine
 10
3310.0
 20
1285.01
 30
0.0
 11
3310.0
 21
1295.01
 31
0.0
  0
LINE
  5
49D
330
1F
100
AcDbEntity
  8
Ｓ_１_２０
  6
CONTINUOUS
 62
     3
100
AcDbLine
 10
3311.0
 20
1217.01
 30
0.0
 11
3339.0
 21
1217.01
 31
0.0
  0
LINE
  5
49E
330
1F
100
AcDbEntity
  8
Ｓ_１_２０
  6
CONTINUOUS
 62
     3
100
AcDbLine
 10
3309.0
 20
1219.01
 30
0.0
 11
3309.0
 21
1229.01
 31
0.0
  0
LINE
  5
49F
330
1F
100
AcDbEntity
  8
Ｓ_１_２０
  6
CONTINUOUS
 62
     3
100
AcDbLine
 10
3309.0
 20
1247.01
 30
0.0
 11
3341.0
 21
1247.01
 31
0.0
  0
LINE
  5
4A0
330
1F
100
AcDbEntity
  8
Ｓ_１_２０
  6
CONTINUOUS
 62
     3
100
AcDbLine
 10
3309.0
 20
1219.01
 30
0.0
 11
3341.0
 21
1219.01
 31
0.0
  0
LINE
  5
4A1
330
1F
100
AcDbEntity
  8
Ｓ_１_２０
  6
CONTINUOUS
 62
     3
100
AcDbLine
 10
3309.0
 20
1219.01
 30
0.0
 11
3311.0
 21
1217.01
 31
0.0
  0
LINE
  5
4A2
330
1F
100
AcDbEntity
  8
Ｓ_１_２０
  6
CONTINUOUS
 62
     3
100
AcDbLine
 10
3309.0
 20
1229.01
 30
0.0
 11
3341.0
 21
1229.01
 31
0.0
  0
LINE
  5
4A3
330
1F
100
AcDbEntity
  8
Ｓ_１_２０
  6
CONTINUOUS
 62
     3
100
AcDbLine
 10
3309.0
 20
1237.01
 30
0.0
 11
3341.0
 21
1237.01
 31
0.0
  0
LINE
  5
4A4
330
1F
100
AcDbEntity
  8
Ｓ_１_２０
  6
CONTINUOUS
 62
     3
100
AcDbLine
 10
3309.5
 20
1229.01
 30
0.0
 11
3309.5
 21
1237.01
 31
0.0
  0
LINE
  5
4A5
330
1F
100
AcDbEntity
  8
Ｓ_１_２０
  6
CONTINUOUS
 62
     3
100
AcDbLine
 10
3309.0
 20
1237.01
 30
0.0
 11
3309.0
 21
1247.01
 31
0.0
  0
LINE
  5
4A6
330
1F
100
AcDbEntity
  8
Ｓ_１_２０
  6
CONTINUOUS
 62
     3
100
AcDbLine
 10
3312.0
 20
1247.01
 30
0.0
 11
3312.0
 21
1250.01
 31
0.0
  0
LINE
  5
4A7
330
1F
100
AcDbEntity
  8
Ｓ_１_２０
  6
CONTINUOUS
 62
     3
100
AcDbLine
 10
3312.0
 20
1250.01
 30
0.0
 11
3338.0
 21
1250.01
 31
0.0
  0
LINE
  5
4A8
330
1F
100
AcDbEntity
  8
Ｓ_１_２０
  6
CONTINUOUS
 62
     3
100
AcDbLine
 10
3335.0
 20
1253.01
 30
0.0
 11
3335.0
 21
1265.01
 31
0.0
  0
LINE
  5
4A9
330
1F
100
AcDbEntity
  8
Ｓ_１_２０
  6
CONTINUOUS
 62
     3
100
AcDbLine
 10
3315.0
 20
1253.01
 30
0.0
 11
3315.0
 21
1265.01
 31
0.0
  0
LINE
  5
4AA
330
1F
100
AcDbEntity
  8
Ｓ_１_２０
  6
CONTINUOUS
 62
     3
100
AcDbLine
 10
3312.0
 20
1250.01
 30
0.0
 11
3315.0
 21
1253.01
 31
0.0
  0
LINE
  5
4AB
330
1F
100
AcDbEntity
  8
Ｓ_１_２０
  6
CONTINUOUS
 62
     3
100
AcDbLine
 10
3338.0
 20
1250.01
 30
0.0
 11
3335.0
 21
1253.01
 31
0.0
  0
LINE
  5
4AC
330
1F
100
AcDbEntity
  8
Ｓ_１_２０
  6
CONTINUOUS
 62
     3
100
AcDbLine
 10
3315.0
 20
1253.01
 30
0.0
 11
3335.0
 21
1253.01
 31
0.0
  0
LINE
  5
4AD
330
1F
100
AcDbEntity
  8
Ｓ_１_２０
  6
CONTINUOUS
 62
     3
100
AcDbLine
 10
3312.0
 20
1265.01
 30
0.0
 11
3338.0
 21
1265.01
 31
0.0
  0
LINE
  5
4AE
330
1F
100
AcDbEntity
  8
Ｓ_１_２０
  6
CONTINUOUS
 62
     3
100
AcDbLine
 10
3312.0
 20
1265.01
 30
0.0
 11
3312.0
 21
1280.01
 31
0.0
  0
LINE
  5
4AF
330
1F
100
AcDbEntity
  8
Ｓ_１_２０
  6
CONTINUOUS
 62
     3
100
AcDbLine
 10
3339.0
 20
1217.01
 30
0.0
 11
3341.0
 21
1219.01
 31
0.0
  0
LINE
  5
4B0
330
1F
100
AcDbEntity
  8
Ｓ_１_２０
  6
CONTINUOUS
 62
     3
100
AcDbLine
 10
3341.0
 20
1219.01
 30
0.0
 11
3341.0
 21
1229.01
 31
0.0
  0
LINE
  5
4B1
330
1F
100
AcDbEntity
  8
Ｓ_１_２０
  6
CONTINUOUS
 62
     3
100
AcDbLine
 10
3340.5
 20
1229.01
 30
0.0
 11
3340.5
 21
1237.01
 31
0.0
  0
LINE
  5
4B2
330
1F
100
AcDbEntity
  8
Ｓ_１_２０
  6
CONTINUOUS
 62
     3
100
AcDbLine
 10
3341.0
 20
1237.01
 30
0.0
 11
3341.0
 21
1247.01
 31
0.0
  0
LINE
  5
4B3
330
1F
100
AcDbEntity
  8
Ｓ_１_２０
  6
CONTINUOUS
 62
     3
100
AcDbLine
 10
3338.0
 20
1247.01
 30
0.0
 11
3338.0
 21
1250.01
 31
0.0
  0
LINE
  5
4B4
330
1F
100
AcDbEntity
  8
Ｓ_１_２０
  6
CONTINUOUS
 62
     3
100
AcDbLine
 10
3315.0
 20
1280.01
 30
0.0
 11
3315.0
 21
1300.01
 31
0.0
  0
LINE
  5
4B5
330
1F
100
AcDbEntity
  8
Ｓ_１_２０
  6
CONTINUOUS
 62
     3
100
AcDbLine
 10
3310.0
 20
1285.01
 30
0.0
 11
3340.0
 21
1285.01
 31
0.0
  0
LINE
  5
4B6
330
1F
100
AcDbEntity
  8
Ｓ_１_２０
  6
CONTINUOUS
 62
     3
100
AcDbLine
 10
3335.0
 20
1280.01
 30
0.0
 11
3335.0
 21
1300.01
 31
0.0
  0
LINE
  5
4B7
330
1F
100
AcDbEntity
  8
Ｓ_１_２０
  6
CONTINUOUS
 62
     3
100
AcDbLine
 10
3340.0
 20
1285.01
 30
0.0
 11
3340.0
 21
1295.01
 31
0.0
  0
LINE
  5
4B8
330
1F
100
AcDbEntity
  8
Ｓ_１_２０
  6
CONTINUOUS
 62
     3
100
AcDbLine
 10
3310.0
 20
1295.01
 30
0.0
 11
3340.0
 21
1295.01
 31
0.0
  0
LINE
  5
4B9
330
1F
100
AcDbEntity
  8
Ｓ_１_２０
  6
CONTINUOUS
 62
     3
100
AcDbLine
 10
3312.0
 20
1280.01
 30
0.0
 11
3338.0
 21
1280.01
 31
0.0
  0
LINE
  5
4BA
330
1F
100
AcDbEntity
  8
Ｓ_１_２０
  6
CONTINUOUS
 62
     3
100
AcDbLine
 10
3362.0
 20
1280.01
 30
0.0
 11
3388.0
 21
1280.01
 31
0.0
  0
ARC
  5
4BB
330
1F
100
AcDbEntity
  8
Ｓ_１_２０
  6
CONTINUOUS
 62
     3
100
AcDbCircle
 10
3899.996367
 20
2180.003379
 30
0.0
 40
9.999999
100
AcDbArc
 50
359.9999949999992
 51
180.0001090000012
  0
ARC
  5
4BC
330
1F
100
AcDbEntity
  8
Ｓ_１_２０
  6
CONTINUOUS
 62
     3
100
AcDbCircle
 10
3914.996367
 20
2110.003379
 30
0.0
 40
5.0
100
AcDbArc
 50
180.0001090000005
 51
270.1155940000041
  0
ARC
  5
4BD
330
1F
100
AcDbEntity
  8
Ｓ_１_２０
  6
CONTINUOUS
 62
     3
100
AcDbCircle
 10
3884.996367
 20
2110.003379
 30
0.0
 40
5.0
100
AcDbArc
 50
271.886951000005
 51
359.9999909999991
  0
ARC
  5
4BE
330
1F
100
AcDbEntity
  8
Ｓ_１_２０
  6
CONTINUOUS
 62
     3
100
AcDbCircle
 10
3199.996611
 20
2180.003379
 30
0.0
 40
9.999999
100
AcDbArc
 50
359.9999949999992
 51
180.0001090000012
  0
ARC
  5
4BF
330
1F
100
AcDbEntity
  8
Ｓ_１_２０
  6
CONTINUOUS
 62
     3
100
AcDbCircle
 10
3214.996611
 20
2110.003379
 30
0.0
 40
5.0
100
AcDbArc
 50
180.0001090000005
 51
270.1155939999991
  0
ARC
  5
4C0
330
1F
100
AcDbEntity
  8
Ｓ_１_２０
  6
CONTINUOUS
 62
     3
100
AcDbCircle
 10
3184.996611
 20
2110.003379
 30
0.0
 40
5.0
100
AcDbArc
 50
271.8869160000012
 51
0.0000090000008778
  0
ARC
  5
4C1
330
1F
100
AcDbEntity
  8
Ｓ_１_２０
  6
CONTINUOUS
 62
     3
100
AcDbCircle
 10
3286.996367
 20
783.4229350000002
 30
0.0
 40
8.0
100
AcDbArc
 50
359.9999950000006
 51
85.0000790000004
  0
ARC
  5
4C2
330
1F
100
AcDbEntity
  8
Ｓ_１_２０
  6
CONTINUOUS
 62
     3
100
AcDbCircle
 10
3286.996367
 20
716.5838230000005
 30
0.0
 40
8.0
100
AcDbArc
 50
274.9999349999994
 51
359.9999909999996
  0
ARC
  5
4C3
330
1F
100
AcDbEntity
  8
Ｓ_１_２０
  6
CONTINUOUS
 62
     3
100
AcDbCircle
 10
3253.996123
 20
798.3559179999999
 30
0.0
 40
4.0
100
AcDbArc
 50
180.000123
 51
265.000187999998
  0
ARC
  5
4C4
330
1F
100
AcDbEntity
  8
Ｓ_１_２０
  6
CONTINUOUS
 62
     3
100
AcDbCircle
 10
3253.996123
 20
701.6508399999999
 30
0.0
 40
4.0
100
AcDbArc
 50
95.0000849999969
 51
180.0000959999997
  0
ARC
  5
4C5
330
1F
100
AcDbEntity
  8
Ｓ_１_２０
  6
CONTINUOUS
 62
     3
100
AcDbCircle
 10
3912.996367
 20
716.5838230000005
 30
0.0
 40
8.0
100
AcDbArc
 50
179.9998910000001
 51
264.9999629999985
  0
ARC
  5
4C6
330
1F
100
AcDbEntity
  8
Ｓ_１_２０
  6
CONTINUOUS
 62
     3
100
AcDbCircle
 10
3945.996123
 20
701.6508399999999
 30
0.0
 40
4.0
100
AcDbArc
 50
0.000050000000172
 51
85.00006499999411
  0
ARC
  5
4C7
330
1F
100
AcDbEntity
  8
Ｓ_１_２０
  6
CONTINUOUS
 62
     3
100
AcDbCircle
 10
3912.996367
 20
783.4229350000002
 30
0.0
 40
8.0
100
AcDbArc
 50
95.0000849999969
 51
180.0001639999997
  0
ARC
  5
4C8
330
1F
100
AcDbEntity
  8
Ｓ_１_２０
  6
CONTINUOUS
 62
     3
100
AcDbCircle
 10
3945.996123
 20
798.3559179999999
 30
0.0
 40
4.0
100
AcDbArc
 50
274.9999830000004
 51
0.000050000000172
  0
LINE
  5
4C9
330
1F
100
AcDbEntity
  8
Ｓ_１_２０
  6
EXLTYPE2
 62
     1
100
AcDbLine
 10
3264.999999999999
 20
678.341
 30
0.0
 11
3264.999999999999
 21
729.341
 31
0.0
  0
LINE
  5
4CA
330
1F
100
AcDbEntity
  8
Ｓ_１_２０
  6
EXLTYPE2
 62
     1
100
AcDbLine
 10
3935.0
 20
670.841
 30
0.0
 11
3935.0
 21
727.841
 31
0.0
  0
TEXT
  5
4CB
330
1F
100
AcDbEntity
  8
Ｓ_１_２０
  6
CONTINUOUS
 62
     4
100
AcDbText
 10
3305.29
 20
1173.059749731779
 30
0.0
 40
23.08602624585575
  1
P5
 41
0.9992308327601548
  7
EXCADTTF1
 72
     5
 11
3335.29
 21
1173.059749731779
 31
0.0
100
AcDbText
  0
TEXT
  5
4CC
330
1F
100
AcDbEntity
  8
Ｓ_１_２０
  6
CONTINUOUS
 62
     4
100
AcDbText
 10
3356.29
 20
1173.059749731779
 30
0.0
 40
23.08602624585575
  1
P6
 41
0.9992308327601548
  7
EXCADTTF1
 72
     5
 11
3386.29
 21
1173.059749731779
 31
0.0
100
AcDbText
  0
LINE
  5
4CD
330
1F
100
AcDbEntity
  8
Ｓ_１_２０
  6
EXLTYPE0
 62
     2
100
AcDbLine
 10
1685.0
 20
2700.0
 30
0.0
 11
1685.0
 21
2900.0
 31
0.0
  0
LINE
  5
4CE
330
1F
100
AcDbEntity
  8
Ｓ_１_２０
  6
EXLTYPE0
 62
     2
100
AcDbLine
 10
1300.0
 20
2800.0
 30
0.0
 11
1300.0
 21
2900.0
 31
0.0
  0
LINE
  5
4CF
330
1F
100
AcDbEntity
  8
Ｓ_１_２０
  6
EXLTYPE0
 62
     2
100
AcDbLine
 10
1685.0
 20
2800.0
 30
0.0
 11
2150.0
 21
2800.0
 31
0.0
  0
LINE
  5
4D0
330
1F
100
AcDbEntity
  8
Ｓ_１_２０
  6
EXLTYPE0
 62
     2
100
AcDbLine
 10
1300.0
 20
2900.0
 30
0.0
 11
1685.0
 21
2900.0
 31
0.0
  0
CIRCLE
  5
4D1
330
1F
100
AcDbEntity
  8
Ｓ_１_２０
  6
EXLTYPE0
 62
     2
100
AcDbCircle
 10
1449.995879
 20
3120.003135
 30
0.0
 40
175.0
  0
CIRCLE
  5
4D2
330
1F
100
AcDbEntity
  8
Ｓ_１_２０
  6
EXLTYPE0
 62
     2
100
AcDbCircle
 10
1949.995635
 20
3120.003135
 30
0.0
 40
175.0
  0
CIRCLE
  5
4D3
330
1F
100
AcDbEntity
  8
Ｓ_１_２０
  6
EXLTYPE0
 62
     2
100
AcDbCircle
 10
2055.124053
 20
2885.197715
 30
0.0
 40
50.00000000000004
  0
CIRCLE
  5
4D4
330
1F
100
AcDbEntity
  8
Ｓ_１_２０
  6
EXLTYPE0
 62
     2
100
AcDbCircle
 10
1803.995635
 20
2750.003378999999
 30
0.0
 40
21.999998
  0
CIRCLE
  5
4D5
330
1F
100
AcDbEntity
  8
Ｓ_１_２０
  6
EXLTYPE0
 62
     2
100
AcDbCircle
 10
1883.995635
 20
2750.003378999999
 30
0.0
 40
21.999998
  0
CIRCLE
  5
4D6
330
1F
100
AcDbEntity
  8
Ｓ_１_２０
  6
EXLTYPE0
 62
     2
100
AcDbCircle
 10
1969.995635
 20
2750.003378999999
 30
0.0
 40
21.999998
  0
CIRCLE
  5
4D7
330
1F
100
AcDbEntity
  8
Ｓ_１_２０
  6
EXLTYPE0
 62
     2
100
AcDbCircle
 10
2049.995635
 20
2750.003378999999
 30
0.0
 40
21.999998
  0
CIRCLE
  5
4D8
330
1F
100
AcDbEntity
  8
Ｓ_１_２０
  6
EXLTYPE0
 62
     2
100
AcDbCircle
 10
1579.995879
 20
3380.003135
 30
0.0
 40
100.0000000000001
  0
CIRCLE
  5
4D9
330
1F
100
AcDbEntity
  8
Ｓ_１_２０
  6
EXLTYPE0
 62
     2
100
AcDbCircle
 10
1829.995635
 20
3380.003135
 30
0.0
 40
100.0000000000001
  0
LINE
  5
4DA
330
1F
100
AcDbEntity
  8
Ｓ_１_２０
  6
EXLTYPE4
 62
     1
100
AcDbLine
 10
1300.0
 20
3500.0
 30
0.0
 11
1300.0
 21
3400.0
 31
0.0
  0
LINE
  5
4DB
330
1F
100
AcDbEntity
  8
Ｓ_１_２０
  6
EXLTYPE4
 62
     1
100
AcDbLine
 10
1273.88
 20
3450.0
 30
0.0
 11
1325.76
 21
3450.0
 31
0.0
  0
LINE
  5
4DC
330
1F
100
AcDbEntity
  8
Ｓ_１_２０
  6
EXLTYPE4
 62
     1
100
AcDbLine
 10
1285.0
 20
3415.0
 30
0.0
 11
1315.0
 21
3415.0
 31
0.0
  0
LINE
  5
4DD
330
1F
100
AcDbEntity
  8
Ｓ_１_２０
  6
EXLTYPE4
 62
     1
100
AcDbLine
 10
1285.0
 20
3485.0
 30
0.0
 11
1315.0
 21
3485.0
 31
0.0
  0
LINE
  5
4DE
330
1F
100
AcDbEntity
  8
Ｓ_１_２０
  6
EXLTYPE4
 62
     1
100
AcDbLine
 10
1300.0
 20
2800.0
 30
0.0
 11
1300.0
 21
2700.0
 31
0.0
  0
LINE
  5
4DF
330
1F
100
AcDbEntity
  8
Ｓ_１_２０
  6
EXLTYPE4
 62
     1
100
AcDbLine
 10
1273.88
 20
2750.0
 30
0.0
 11
1325.76
 21
2750.0
 31
0.0
  0
LINE
  5
4E0
330
1F
100
AcDbEntity
  8
Ｓ_１_２０
  6
EXLTYPE4
 62
     1
100
AcDbLine
 10
1285.0
 20
2715.0
 30
0.0
 11
1315.0
 21
2715.0
 31
0.0
  0
LINE
  5
4E1
330
1F
100
AcDbEntity
  8
Ｓ_１_２０
  6
EXLTYPE4
 62
     1
100
AcDbLine
 10
1285.0
 20
2785.0
 30
0.0
 11
1315.0
 21
2785.0
 31
0.0
  0
LINE
  5
4E2
330
1F
100
AcDbEntity
  8
Ｓ_１_２０
  6
EXLTYPE4
 62
     1
100
AcDbLine
 10
2100.0
 20
2800.0
 30
0.0
 11
2100.0
 21
2700.0
 31
0.0
  0
LINE
  5
4E3
330
1F
100
AcDbEntity
  8
Ｓ_１_２０
  6
EXLTYPE4
 62
     1
100
AcDbLine
 10
2073.88
 20
2750.0
 30
0.0
 11
2125.759999999999
 21
2750.0
 31
0.0
  0
LINE
  5
4E4
330
1F
100
AcDbEntity
  8
Ｓ_１_２０
  6
EXLTYPE4
 62
     1
100
AcDbLine
 10
2085.0
 20
2715.0
 30
0.0
 11
2115.0
 21
2715.0
 31
0.0
  0
LINE
  5
4E5
330
1F
100
AcDbEntity
  8
Ｓ_１_２０
  6
EXLTYPE4
 62
     1
100
AcDbLine
 10
2085.0
 20
2785.0
 30
0.0
 11
2115.0
 21
2785.0
 31
0.0
  0
LINE
  5
4E6
330
1F
100
AcDbEntity
  8
Ｓ_１_２０
  6
EXLTYPE4
 62
     1
100
AcDbLine
 10
2100.0
 20
3500.0
 30
0.0
 11
2100.0
 21
3400.0
 31
0.0
  0
LINE
  5
4E7
330
1F
100
AcDbEntity
  8
Ｓ_１_２０
  6
EXLTYPE4
 62
     1
100
AcDbLine
 10
2073.88
 20
3450.0
 30
0.0
 11
2125.759999999999
 21
3450.0
 31
0.0
  0
LINE
  5
4E8
330
1F
100
AcDbEntity
  8
Ｓ_１_２０
  6
EXLTYPE4
 62
     1
100
AcDbLine
 10
2085.0
 20
3415.0
 30
0.0
 11
2115.0
 21
3415.0
 31
0.0
  0
LINE
  5
4E9
330
1F
100
AcDbEntity
  8
Ｓ_１_２０
  6
EXLTYPE4
 62
     1
100
AcDbLine
 10
2085.0
 20
3485.0
 30
0.0
 11
2115.0
 21
3485.0
 31
0.0
  0
LINE
  5
4EA
330
1F
100
AcDbEntity
  8
Ｓ_１_２０
  6
EXLTYPE4
 62
     1
100
AcDbLine
 10
1267.94
 20
3120.0
 30
0.0
 11
1633.98
 21
3120.0
 31
0.0
  0
LINE
  5
4EB
330
1F
100
AcDbEntity
  8
Ｓ_１_２０
  6
EXLTYPE4
 62
     1
100
AcDbLine
 10
1950.0
 20
2932.65
 30
0.0
 11
1950.0
 21
3304.579999999999
 31
0.0
  0
LINE
  5
4EC
330
1F
100
AcDbEntity
  8
Ｓ_１_２０
  6
EXLTYPE4
 62
     1
100
AcDbLine
 10
1450.0
 20
2933.829999999999
 30
0.0
 11
1450.0
 21
3306.94
 31
0.0
  0
LINE
  5
4ED
330
1F
100
AcDbEntity
  8
Ｓ_１_２０
  6
EXLTYPE4
 62
     1
100
AcDbLine
 10
1766.94
 20
3120.0
 30
0.0
 11
2131.81
 21
3120.0
 31
0.0
  0
LINE
  5
4EE
330
1F
100
AcDbEntity
  8
Ｓ_１_２０
  6
EXLTYPE4
 62
     1
100
AcDbLine
 10
2055.12
 20
2945.2
 30
0.0
 11
2055.12
 21
2825.2
 31
0.0
  0
LINE
  5
4EF
330
1F
100
AcDbEntity
  8
Ｓ_１_２０
  6
EXLTYPE4
 62
     1
100
AcDbLine
 10
1995.12
 20
2885.2
 30
0.0
 11
2115.12
 21
2885.2
 31
0.0
  0
LINE
  5
4F0
330
1F
100
AcDbEntity
  8
Ｓ_１_２０
  6
EXLTYPE4
 62
     1
100
AcDbLine
 10
1690.0
 20
3380.0
 30
0.0
 11
1470.0
 21
3380.0
 31
0.0
  0
LINE
  5
4F1
330
1F
100
AcDbEntity
  8
Ｓ_１_２０
  6
EXLTYPE4
 62
     1
100
AcDbLine
 10
1580.0
 20
3490.0
 30
0.0
 11
1580.0
 21
3270.0
 31
0.0
  0
LINE
  5
4F2
330
1F
100
AcDbEntity
  8
Ｓ_１_２０
  6
EXLTYPE4
 62
     1
100
AcDbLine
 10
1940.0
 20
3380.0
 30
0.0
 11
1720.0
 21
3380.0
 31
0.0
  0
LINE
  5
4F3
330
1F
100
AcDbEntity
  8
Ｓ_１_２０
  6
EXLTYPE4
 62
     1
100
AcDbLine
 10
1830.0
 20
3490.0
 30
0.0
 11
1830.0
 21
3270.0
 31
0.0
  0
LINE
  5
4F4
330
1F
100
AcDbEntity
  8
Ｓ_１_２０
  6
CONTINUOUS
 62
     3
100
AcDbLine
 10
1250.0
 20
2700.0
 30
0.0
 11
2150.0
 21
2700.0
 31
0.0
  0
LINE
  5
4F5
330
1F
100
AcDbEntity
  8
Ｓ_１_２０
  6
CONTINUOUS
 62
     3
100
AcDbLine
 10
1250.0
 20
3500.0
 30
0.0
 11
2150.0
 21
3500.0
 31
0.0
  0
LINE
  5
4F6
330
1F
100
AcDbEntity
  8
Ｓ_１_２０
  6
CONTINUOUS
 62
     3
100
AcDbLine
 10
1250.0
 20
2700.0
 30
0.0
 11
1250.0
 21
3500.0
 31
0.0
  0
LINE
  5
4F7
330
1F
100
AcDbEntity
  8
Ｓ_１_２０
  6
CONTINUOUS
 62
     3
100
AcDbLine
 10
2150.0
 20
2700.0
 30
0.0
 11
2150.0
 21
3500.0
 31
0.0
  0
LINE
  5
4F8
330
1F
100
AcDbEntity
  8
Ｓ_１_２０
  6
CONTINUOUS
 62
     3
100
AcDbLine
 10
1310.0
 20
3485.0
 30
0.0
 11
1310.0
 21
3415.0
 31
0.0
  0
LINE
  5
4F9
330
1F
100
AcDbEntity
  8
Ｓ_１_２０
  6
CONTINUOUS
 62
     3
100
AcDbLine
 10
1290.0
 20
3485.0
 30
0.0
 11
1290.0
 21
3415.0
 31
0.0
  0
LINE
  5
4FA
330
1F
100
AcDbEntity
  8
Ｓ_１_２０
  6
CONTINUOUS
 62
     3
100
AcDbLine
 10
1310.0
 20
2785.0
 30
0.0
 11
1310.0
 21
2715.0
 31
0.0
  0
LINE
  5
4FB
330
1F
100
AcDbEntity
  8
Ｓ_１_２０
  6
CONTINUOUS
 62
     3
100
AcDbLine
 10
1290.0
 20
2785.0
 30
0.0
 11
1290.0
 21
2715.0
 31
0.0
  0
LINE
  5
4FC
330
1F
100
AcDbEntity
  8
Ｓ_１_２０
  6
CONTINUOUS
 62
     3
100
AcDbLine
 10
2110.0
 20
2785.0
 30
0.0
 11
2110.0
 21
2715.0
 31
0.0
  0
LINE
  5
4FD
330
1F
100
AcDbEntity
  8
Ｓ_１_２０
  6
CONTINUOUS
 62
     3
100
AcDbLine
 10
2090.0
 20
2785.0
 30
0.0
 11
2090.0
 21
2715.0
 31
0.0
  0
LINE
  5
4FE
330
1F
100
AcDbEntity
  8
Ｓ_１_２０
  6
CONTINUOUS
 62
     3
100
AcDbLine
 10
2110.0
 20
3485.0
 30
0.0
 11
2110.0
 21
3415.0
 31
0.0
  0
LINE
  5
4FF
330
1F
100
AcDbEntity
  8
Ｓ_１_２０
  6
CONTINUOUS
 62
     3
100
AcDbLine
 10
2090.0
 20
3485.0
 30
0.0
 11
2090.0
 21
3415.0
 31
0.0
  0
LINE
  5
500
330
1F
100
AcDbEntity
  8
Ｓ_１_２０
  6
CONTINUOUS
 62
     3
100
AcDbLine
 10
1260.0
 20
2840.0
 30
0.0
 11
1260.0
 21
3360.0
 31
0.0
  0
LINE
  5
501
330
1F
100
AcDbEntity
  8
Ｓ_１_２０
  6
CONTINUOUS
 62
     3
100
AcDbLine
 10
1390.0
 20
2710.0
 30
0.0
 11
2010.0
 21
2710.0
 31
0.0
  0
LINE
  5
502
330
1F
100
AcDbEntity
  8
Ｓ_１_２０
  6
CONTINUOUS
 62
     3
100
AcDbLine
 10
2140.0
 20
2840.0
 30
0.0
 11
2140.0
 21
3360.0
 31
0.0
  0
LINE
  5
503
330
1F
100
AcDbEntity
  8
Ｓ_１_２０
  6
CONTINUOUS
 62
     3
100
AcDbLine
 10
1390.0
 20
3490.0
 30
0.0
 11
2010.0
 21
3490.0
 31
0.0
  0
LINE
  5
504
330
1F
100
AcDbEntity
  8
Ｓ_１_２０
  6
CONTINUOUS
 62
     3
100
AcDbLine
 10
1260.0
 20
3360.0
 30
0.0
 11
1390.0
 21
3490.0
 31
0.0
  0
LINE
  5
505
330
1F
100
AcDbEntity
  8
Ｓ_１_２０
  6
CONTINUOUS
 62
     3
100
AcDbLine
 10
1260.0
 20
2840.0
 30
0.0
 11
1390.0
 21
2710.0
 31
0.0
  0
LINE
  5
506
330
1F
100
AcDbEntity
  8
Ｓ_１_２０
  6
CONTINUOUS
 62
     3
100
AcDbLine
 10
2010.0
 20
2710.0
 30
0.0
 11
2140.0
 21
2840.0
 31
0.0
  0
LINE
  5
507
330
1F
100
AcDbEntity
  8
Ｓ_１_２０
  6
CONTINUOUS
 62
     3
100
AcDbLine
 10
2010.0
 20
3490.0
 30
0.0
 11
2140.0
 21
3360.0
 31
0.0
  0
ARC
  5
508
330
1F
100
AcDbEntity
  8
Ｓ_１_２０
  6
CONTINUOUS
 62
     3
100
AcDbCircle
 10
1299.995879
 20
3450.003135
 30
0.0
 40
22.5
100
AcDbArc
 50
296.3877469999998
 51
63.61224599999961
  0
ARC
  5
509
330
1F
100
AcDbEntity
  8
Ｓ_１_２０
  6
CONTINUOUS
 62
     3
100
AcDbCircle
 10
1299.995879
 20
3485.003135
 30
0.0
 40
9.999999
100
AcDbArc
 50
0.0
 51
180.0001090000012
  0
ARC
  5
50A
330
1F
100
AcDbEntity
  8
Ｓ_１_２０
  6
CONTINUOUS
 62
     3
100
AcDbCircle
 10
1299.995879
 20
3415.003135
 30
0.0
 40
9.999999
100
AcDbArc
 50
180.0001230000013
 51
0.0003010000004868
  0
ARC
  5
50B
330
1F
100
AcDbEntity
  8
Ｓ_１_２０
  6
CONTINUOUS
 62
     3
100
AcDbCircle
 10
1299.995879
 20
3450.003135
 30
0.0
 40
22.5
100
AcDbArc
 50
116.3879239999995
 51
243.6123349999998
  0
ARC
  5
50C
330
1F
100
AcDbEntity
  8
Ｓ_１_２０
  6
CONTINUOUS
 62
     3
100
AcDbCircle
 10
1299.995879
 20
3450.003135
 30
0.0
 40
19.999998
100
AcDbArc
 50
120.0000459999995
 51
240.0002280000007
  0
ARC
  5
50D
330
1F
100
AcDbEntity
  8
Ｓ_１_２０
  6
CONTINUOUS
 62
     3
100
AcDbCircle
 10
1299.995879
 20
3450.003135
 30
0.0
 40
19.999998
100
AcDbArc
 50
299.9998819999997
 51
60.00011800000033
  0
ARC
  5
50E
330
1F
100
AcDbEntity
  8
Ｓ_１_２０
  6
CONTINUOUS
 62
     3
100
AcDbCircle
 10
1299.995879
 20
2750.003378999999
 30
0.0
 40
22.5
100
AcDbArc
 50
296.3877469999998
 51
63.61224599999961
  0
ARC
  5
50F
330
1F
100
AcDbEntity
  8
Ｓ_１_２０
  6
CONTINUOUS
 62
     3
100
AcDbCircle
 10
1299.995879
 20
2785.003378999999
 30
0.0
 40
9.999999
100
AcDbArc
 50
0.0
 51
180.0001090000012
  0
ARC
  5
510
330
1F
100
AcDbEntity
  8
Ｓ_１_２０
  6
CONTINUOUS
 62
     3
100
AcDbCircle
 10
1299.995879
 20
2715.003378999999
 30
0.0
 40
9.999999
100
AcDbArc
 50
180.0001230000013
 51
0.0003010000004868
  0
ARC
  5
511
330
1F
100
AcDbEntity
  8
Ｓ_１_２０
  6
CONTINUOUS
 62
     3
100
AcDbCircle
 10
1299.995879
 20
2750.003378999999
 30
0.0
 40
22.5
100
AcDbArc
 50
116.3879239999995
 51
243.6123349999998
  0
ARC
  5
512
330
1F
100
AcDbEntity
  8
Ｓ_１_２０
  6
CONTINUOUS
 62
     3
100
AcDbCircle
 10
1299.995879
 20
2750.003378999999
 30
0.0
 40
19.999998
100
AcDbArc
 50
120.0000459999995
 51
240.0002280000007
  0
ARC
  5
513
330
1F
100
AcDbEntity
  8
Ｓ_１_２０
  6
CONTINUOUS
 62
     3
100
AcDbCircle
 10
1299.995879
 20
2750.003378999999
 30
0.0
 40
19.999998
100
AcDbArc
 50
299.9998819999997
 51
60.00011800000033
  0
ARC
  5
514
330
1F
100
AcDbEntity
  8
Ｓ_１_２０
  6
CONTINUOUS
 62
     3
100
AcDbCircle
 10
2099.995635
 20
2750.003378999999
 30
0.0
 40
22.5
100
AcDbArc
 50
296.3877469999998
 51
63.61224599999961
  0
ARC
  5
515
330
1F
100
AcDbEntity
  8
Ｓ_１_２０
  6
CONTINUOUS
 62
     3
100
AcDbCircle
 10
2099.995635
 20
2785.003378999999
 30
0.0
 40
9.999999
100
AcDbArc
 50
0.0
 51
180.0001090000012
  0
ARC
  5
516
330
1F
100
AcDbEntity
  8
Ｓ_１_２０
  6
CONTINUOUS
 62
     3
100
AcDbCircle
 10
2099.995635
 20
2715.003378999999
 30
0.0
 40
9.999999
100
AcDbArc
 50
180.0001230000013
 51
0.0003010000004868
  0
ARC
  5
517
330
1F
100
AcDbEntity
  8
Ｓ_１_２０
  6
CONTINUOUS
 62
     3
100
AcDbCircle
 10
2099.995635
 20
2750.003378999999
 30
0.0
 40
22.5
100
AcDbArc
 50
116.3879239999995
 51
243.6123349999998
  0
ARC
  5
518
330
1F
100
AcDbEntity
  8
Ｓ_１_２０
  6
CONTINUOUS
 62
     3
100
AcDbCircle
 10
2099.995635
 20
2750.003378999999
 30
0.0
 40
19.999998
100
AcDbArc
 50
120.0000459999995
 51
240.0002280000007
  0
ARC
  5
519
330
1F
100
AcDbEntity
  8
Ｓ_１_２０
  6
CONTINUOUS
 62
     3
100
AcDbCircle
 10
2099.995635
 20
2750.003378999999
 30
0.0
 40
19.999998
100
AcDbArc
 50
299.9998819999997
 51
60.00011800000033
  0
ARC
  5
51A
330
1F
100
AcDbEntity
  8
Ｓ_１_２０
  6
CONTINUOUS
 62
     3
100
AcDbCircle
 10
2099.995635
 20
3450.003135
 30
0.0
 40
22.5
100
AcDbArc
 50
296.3877469999998
 51
63.61224599999961
  0
ARC
  5
51B
330
1F
100
AcDbEntity
  8
Ｓ_１_２０
  6
CONTINUOUS
 62
     3
100
AcDbCircle
 10
2099.995635
 20
3485.003135
 30
0.0
 40
9.999999
100
AcDbArc
 50
0.0
 51
180.0001090000012
  0
ARC
  5
51C
330
1F
100
AcDbEntity
  8
Ｓ_１_２０
  6
CONTINUOUS
 62
     3
100
AcDbCircle
 10
2099.995635
 20
3415.003135
 30
0.0
 40
9.999999
100
AcDbArc
 50
180.0001230000013
 51
0.0003010000004868
  0
ARC
  5
51D
330
1F
100
AcDbEntity
  8
Ｓ_１_２０
  6
CONTINUOUS
 62
     3
100
AcDbCircle
 10
2099.995635
 20
3450.003135
 30
0.0
 40
22.5
100
AcDbArc
 50
116.3879239999995
 51
243.6123349999998
  0
ARC
  5
51E
330
1F
100
AcDbEntity
  8
Ｓ_１_２０
  6
CONTINUOUS
 62
     3
100
AcDbCircle
 10
2099.995635
 20
3450.003135
 30
0.0
 40
19.999998
100
AcDbArc
 50
120.0000459999995
 51
240.0002280000007
  0
ARC
  5
51F
330
1F
100
AcDbEntity
  8
Ｓ_１_２０
  6
CONTINUOUS
 62
     3
100
AcDbCircle
 10
2099.995635
 20
3450.003135
 30
0.0
 40
19.999998
100
AcDbArc
 50
299.9998819999997
 51
60.00011800000033
  0
LINE
  5
520
330
1F
100
AcDbEntity
  8
Ｓ_１_２０
  6
CONTINUOUS
 62
     3
100
AcDbLine
 10
2099.386992
 20
2861.942344000001
 30
0.0
 11
2101.297222
 21
2859.629116
 31
0.0
  0
LINE
  5
521
330
1F
100
AcDbEntity
  8
Ｓ_１_２０
  6
CONTINUOUS
 62
     3
100
AcDbLine
 10
2099.386992
 20
2861.942344000001
 30
0.0
 11
2099.884687
 21
2858.983915
 31
0.0
  0
LINE
  5
522
330
1F
100
AcDbEntity
  8
Ｓ_１_２０
  6
CONTINUOUS
 62
     3
100
AcDbLine
 10
1250.0
 20
1400.0
 30
0.0
 11
2150.0
 21
1400.0
 31
0.0
  0
LINE
  5
523
330
1F
100
AcDbEntity
  8
Ｓ_１_２０
  6
CONTINUOUS
 62
     3
100
AcDbLine
 10
2135.0
 20
1415.0
 30
0.0
 11
2135.0
 21
2085.0
 31
0.0
  0
LINE
  5
524
330
1F
100
AcDbEntity
  8
Ｓ_１_２０
  6
CONTINUOUS
 62
     3
100
AcDbLine
 10
1745.0
 20
1415.0
 30
0.0
 11
2135.0
 21
1415.0
 31
0.0
  0
LINE
  5
525
330
1F
100
AcDbEntity
  8
Ｓ_１_２０
  6
EXLTYPE0
 62
     2
100
AcDbLine
 10
1730.0
 20
1588.0
 30
0.0
 11
2150.0
 21
1588.0
 31
0.0
  0
LINE
  5
526
330
1F
100
AcDbEntity
  8
Ｓ_１_２０
  6
EXLTYPE0
 62
     2
100
AcDbLine
 10
1730.0
 20
1600.0
 30
0.0
 11
2150.0
 21
1600.0
 31
0.0
  0
LINE
  5
527
330
1F
100
AcDbEntity
  8
Ｓ_１_２０
  6
EXLTYPE0
 62
     2
100
AcDbLine
 10
1730.0
 20
1470.01
 30
0.0
 11
2150.0
 21
1470.01
 31
0.0
  0
LINE
  5
528
330
1F
100
AcDbEntity
  8
Ｓ_１_２０
  6
EXLTYPE0
 62
     2
100
AcDbLine
 10
1730.0
 20
1420.01
 30
0.0
 11
2150.0
 21
1420.01
 31
0.0
  0
TEXT
  5
529
330
1F
100
AcDbEntity
  8
Ｓ_１_２０
  6
CONTINUOUS
 62
     4
100
AcDbText
 10
489.6894561720702
 20
684.48643463887
 30
0.0
 40
51.9435623556582
  1
AC200V（50/60Hz）
 41
0.9992307692307695
  7
EXCADTTF1
 72
     5
 11
1063.43945617207
 21
684.48643463887
 31
0.0
100
AcDbText
  0
TEXT
  5
52A
330
1F
100
AcDbEntity
  8
Ｓ_１_２０
  6
CONTINUOUS
 62
     4
100
AcDbText
 10
489.6894561720702
 20
616.98643463887
 30
0.0
 40
51.9435623556582
  1
100KVA
 41
0.9992307692307688
  7
EXCADTTF1
 72
     5
 11
692.1894561720701
 21
616.98643463887
 31
0.0
100
AcDbText
  0
LINE
  5
52B
330
1F
100
AcDbEntity
  8
Ｓ_１_２０
  6
EXLTYPE0
 62
     2
100
AcDbLine
 10
3893.500061035536
 20
2901.999893188501
 30
0.0
 11
3932.500000000035
 21
2901.999893188501
 31
0.0
  0
LINE
  5
52C
330
1F
100
AcDbEntity
  8
Ｓ_１_２０
  6
EXLTYPE0
 62
     2
100
AcDbLine
 10
3893.500061035536
 20
2726.999912262001
 30
0.0
 11
3932.500000000035
 21
2726.999912262001
 31
0.0
  0
LINE
  5
52D
330
1F
100
AcDbEntity
  8
Ｓ_１_２０
  6
EXLTYPE0
 62
     2
100
AcDbLine
 10
3932.500000000035
 20
2726.999912262001
 30
0.0
 11
3932.500000000035
 21
2690.999908447
 31
0.0
  0
LINE
  5
52E
330
1F
100
AcDbEntity
  8
Ｓ_１_２０
  6
EXLTYPE0
 62
     2
100
AcDbLine
 10
3893.500061035536
 20
2726.999912262001
 30
0.0
 11
3893.500061035536
 21
2714.999904632501
 31
0.0
  0
LINE
  5
52F
330
1F
100
AcDbEntity
  8
Ｓ_１_２０
  6
EXLTYPE0
 62
     2
100
AcDbLine
 10
4431.499862671033
 20
2901.999893188501
 30
0.0
 11
4431.499862671033
 21
2889.999904632501
 31
0.0
  0
LINE
  5
530
330
1F
100
AcDbEntity
  8
Ｓ_１_２０
  6
EXLTYPE0
 62
     2
100
AcDbLine
 10
4392.499847412535
 20
2901.999893188501
 30
0.0
 11
4392.499847412535
 21
2865.999908447
 31
0.0
  0
LINE
  5
531
330
1F
100
AcDbEntity
  8
Ｓ_１_２０
  6
EXLTYPE0
 62
     2
100
AcDbLine
 10
4497.855224609537
 20
2540.644607544
 30
0.0
 11
4497.855224609537
 21
2440.6445884705
 31
0.0
  0
LINE
  5
532
330
1F
100
AcDbEntity
  8
Ｓ_１_２０
  6
EXLTYPE0
 62
     2
100
AcDbLine
 10
4354.405822754037
 20
2375.999908447
 30
0.0
 11
4400.593872070534
 21
2375.999908447
 31
0.0
  0
LINE
  5
533
330
1F
100
AcDbEntity
  8
Ｓ_１_２０
  6
EXLTYPE0
 62
     2
100
AcDbLine
 10
4392.499847412535
 20
2901.999893188501
 30
0.0
 11
4431.499862671033
 21
2901.999893188501
 31
0.0
  0
LINE
  5
534
330
1F
100
AcDbEntity
  8
Ｓ_１_２０
  6
EXLTYPE0
 62
     2
100
AcDbLine
 10
3893.500061035536
 20
2901.999893188501
 30
0.0
 11
3893.500061035536
 21
2889.999904632501
 31
0.0
  0
LINE
  5
535
330
1F
100
AcDbEntity
  8
Ｓ_１_２０
  6
EXLTYPE0
 62
     2
100
AcDbLine
 10
3932.500000000035
 20
2901.999893188501
 30
0.0
 11
3932.500000000035
 21
2865.999908447
 31
0.0
  0
LINE
  5
536
330
1F
100
AcDbEntity
  8
Ｓ_１_２０
  6
EXLTYPE0
 62
     2
100
AcDbLine
 10
4120.594024658534
 20
2375.999908447
 30
0.0
 11
4074.405975342037
 21
2375.999908447
 31
0.0
  0
LINE
  5
537
330
1F
100
AcDbEntity
  8
Ｓ_１_２０
  6
EXLTYPE0
 62
     2
100
AcDbLine
 10
4477.499923705989
 20
2560.999832436357
 30
0.0
 11
4497.855183243535
 21
2540.644574614501
 31
0.0
  0
LINE
  5
538
330
1F
100
AcDbEntity
  8
Ｓ_１_２０
  6
EXLTYPE0
 62
     2
100
AcDbLine
 10
4197.500197718035
 20
2651.000058968
 30
0.0
 11
4250.533206307025
 21
2597.967050379009
 31
0.0
  0
LINE
  5
539
330
1F
100
AcDbEntity
  8
Ｓ_１_２０
  6
EXLTYPE0
 62
     2
100
AcDbLine
 10
4250.533206307035
 20
2597.967050379
 30
0.0
 11
4250.533206307035
 21
2447.967050379
 31
0.0
  0
LINE
  5
53A
330
1F
100
AcDbEntity
  8
Ｓ_１_２０
  6
EXLTYPE0
 62
     2
100
AcDbLine
 10
4197.500197718035
 20
2561.000058968
 30
0.0
 11
4250.533206307035
 21
2507.967050379
 31
0.0
  0
CIRCLE
  5
53B
330
1F
100
AcDbEntity
  8
Ｓ_１_２０
  6
CONTINUOUS
 62
     3
100
AcDbCircle
 10
4247.500000000035
 20
3073.426284790001
 30
0.0
 40
15.00000000000001
  0
CIRCLE
  5
53C
330
1F
100
AcDbEntity
  8
Ｓ_１_２０
  6
CONTINUOUS
 62
     3
100
AcDbCircle
 10
4247.500000000035
 20
3030.999908447
 30
0.0
 40
15.00000000000001
  0
CIRCLE
  5
53D
330
1F
100
AcDbEntity
  8
Ｓ_１_２０
  6
CONTINUOUS
 62
     3
100
AcDbCircle
 10
4097.500000000035
 20
3073.426284790001
 30
0.0
 40
15.00000000000001
  0
CIRCLE
  5
53E
330
1F
100
AcDbEntity
  8
Ｓ_１_２０
  6
CONTINUOUS
 62
     3
100
AcDbCircle
 10
4097.500000000035
 20
3030.999908447
 30
0.0
 40
15.00000000000001
  0
CIRCLE
  5
53F
330
1F
100
AcDbEntity
  8
Ｓ_１_２０
  6
CONTINUOUS
 62
     3
100
AcDbCircle
 10
3997.500000000034
 20
3030.999908447
 30
0.0
 40
15.00000000000001
  0
CIRCLE
  5
540
330
1F
100
AcDbEntity
  8
Ｓ_１_２０
  6
CONTINUOUS
 62
     3
100
AcDbCircle
 10
3997.500000000034
 20
3073.426284790001
 30
0.0
 40
15.00000000000001
  0
LINE
  5
541
330
1F
100
AcDbEntity
  8
Ｓ_１_２０
  6
CONTINUOUS
 62
     3
100
AcDbLine
 10
3750.000000000035
 20
2790.999908447
 30
0.0
 11
3783.827667236534
 21
2790.999908447
 31
0.0
  0
LINE
  5
542
330
1F
100
AcDbEntity
  8
Ｓ_１_２０
  6
CONTINUOUS
 62
     3
100
AcDbLine
 10
3750.000000000035
 20
2790.999908447
 30
0.0
 11
3750.000000000035
 21
2340.9999275205
 31
0.0
  0
LINE
  5
543
330
1F
100
AcDbEntity
  8
Ｓ_１_２０
  6
CONTINUOUS
 62
     3
100
AcDbLine
 10
4268.713164610033
 20
3073.426292413
 30
0.0
 11
4247.499970478037
 21
3052.2130786115
 31
0.0
  0
LINE
  5
544
330
1F
100
AcDbEntity
  8
Ｓ_１_２０
  6
CONTINUOUS
 62
     3
100
AcDbLine
 10
4268.713121078534
 20
3030.999943403501
 30
0.0
 11
4247.499926947034
 21
3052.2131572045
 31
0.0
  0
LINE
  5
545
330
1F
100
AcDbEntity
  8
Ｓ_１_２０
  6
CONTINUOUS
 62
     3
100
AcDbLine
 10
4247.499957270036
 20
3052.213113153501
 30
0.0
 11
4226.286741680537
 21
3073.4263054975
 31
0.0
  0
LINE
  5
546
330
1F
100
AcDbEntity
  8
Ｓ_１_２０
  6
CONTINUOUS
 62
     3
100
AcDbLine
 10
4247.499967128537
 20
3052.2131496365
 30
0.0
 11
4226.286751539035
 21
3030.9999572925
 31
0.0
  0
LINE
  5
547
330
1F
100
AcDbEntity
  8
Ｓ_１_２０
  6
CONTINUOUS
 62
     3
100
AcDbLine
 10
4118.713160893534
 20
3073.4262768185
 30
0.0
 11
4097.499966761538
 21
3052.213063017
 31
0.0
  0
LINE
  5
548
330
1F
100
AcDbEntity
  8
Ｓ_１_２０
  6
CONTINUOUS
 62
     3
100
AcDbLine
 10
4097.499926579534
 20
3052.2131658375
 30
0.0
 11
4076.286710990033
 21
3073.426358181001
 31
0.0
  0
LINE
  5
549
330
1F
100
AcDbEntity
  8
Ｓ_１_２０
  6
CONTINUOUS
 62
     3
100
AcDbLine
 10
4118.713171310035
 20
3030.999905049501
 30
0.0
 11
4097.499923230032
 21
3052.213172799
 31
0.0
  0
LINE
  5
54A
330
1F
100
AcDbEntity
  8
Ｓ_１_２０
  6
CONTINUOUS
 62
     3
100
AcDbLine
 10
4097.499990386035
 20
3052.213096953
 30
0.0
 11
4076.286774796534
 21
3030.999904609001
 31
0.0
  0
LINE
  5
54B
330
1F
100
AcDbEntity
  8
Ｓ_１_２０
  6
CONTINUOUS
 62
     3
100
AcDbLine
 10
4018.713141858532
 20
3030.999924437001
 30
0.0
 11
3997.499947726535
 21
3052.213138238501
 31
0.0
  0
LINE
  5
54C
330
1F
100
AcDbEntity
  8
Ｓ_１_２０
  6
CONTINUOUS
 62
     3
100
AcDbLine
 10
3997.499987908033
 20
3052.213043848
 30
0.0
 11
3976.286772318532
 21
3030.999851504001
 31
0.0
  0
LINE
  5
54D
330
1F
100
AcDbEntity
  8
Ｓ_１_２０
  6
CONTINUOUS
 62
     3
100
AcDbLine
 10
4018.713131441535
 20
3073.426311379
 30
0.0
 11
3997.499937309532
 21
3052.2130975775
 31
0.0
  0
LINE
  5
54E
330
1F
100
AcDbEntity
  8
Ｓ_１_２０
  6
CONTINUOUS
 62
     3
100
AcDbLine
 10
3997.500005023532
 20
3052.213084072501
 30
0.0
 11
3976.286789434032
 21
3073.426276416
 31
0.0
  0
LINE
  5
54F
330
1F
100
AcDbEntity
  8
Ｓ_１_２０
  6
CONTINUOUS
 62
     3
100
AcDbLine
 10
3675.000000000035
 20
3015.999908447
 30
0.0
 11
3675.000000000035
 21
2300.0
 31
0.0
  0
ARC
  5
550
330
1F
100
AcDbEntity
  8
Ｓ_１_２０
  6
CONTINUOUS
 62
     3
100
AcDbCircle
 10
3997.500000000034
 20
2865.999908447
 30
0.0
 40
10.0
100
AcDbArc
 50
0.0
 51
180.0000050090001
  0
LINE
  5
551
330
1F
100
AcDbEntity
  8
Ｓ_１_２０
  6
CONTINUOUS
 62
     3
100
AcDbLine
 10
4007.500000000035
 20
2865.999908447
 30
0.0
 11
4097.500000000035
 21
2865.999908447
 31
0.0
  0
LINE
  5
552
330
1F
100
AcDbEntity
  8
Ｓ_１_２０
  6
CONTINUOUS
 62
     3
100
AcDbLine
 10
3869.499973650034
 20
2702.999915519501
 30
0.0
 11
3881.089245047534
 21
2699.887351838001
 31
0.0
  0
LINE
  5
553
330
1F
100
AcDbEntity
  8
Ｓ_１_２０
  6
CONTINUOUS
 62
     3
100
AcDbLine
 10
3869.500046021032
 20
2702.999919227
 30
0.0
 11
3881.091126296034
 21
2706.105739852
 31
0.0
  0
LINE
  5
554
330
1F
100
AcDbEntity
  8
Ｓ_１_２０
  6
CONTINUOUS
 62
     3
100
AcDbLine
 10
3917.500000000035
 20
2690.999908447
 30
0.0
 11
3997.500000000034
 21
2690.999908447
 31
0.0
  0
LINE
  5
555
330
1F
100
AcDbEntity
  8
Ｓ_１_２０
  6
CONTINUOUS
 62
     3
100
AcDbLine
 10
3905.499995102533
 20
2635.499900817501
 30
0.0
 11
3893.499991340033
 21
2630.999899311001
 31
0.0
  0
LINE
  5
556
330
1F
100
AcDbEntity
  8
Ｓ_１_２０
  6
CONTINUOUS
 62
     3
100
AcDbLine
 10
3881.499929814033
 20
2644.499930929001
 30
0.0
 11
3905.500008775531
 21
2635.499901127501
 31
0.0
  0
LINE
  5
557
330
1F
100
AcDbEntity
  8
Ｓ_１_２０
  6
CONTINUOUS
 62
     3
100
AcDbLine
 10
3905.499959259033
 20
2653.499906508501
 30
0.0
 11
3881.500023170035
 21
2644.499930284001
 31
0.0
  0
LINE
  5
558
330
1F
100
AcDbEntity
  8
Ｓ_１_２０
  6
CONTINUOUS
 62
     3
100
AcDbLine
 10
3881.499958960532
 20
2662.499918761001
 30
0.0
 11
3905.499966486033
 21
2653.499915748001
 31
0.0
  0
LINE
  5
559
330
1F
100
AcDbEntity
  8
Ｓ_１_２０
  6
CONTINUOUS
 62
     3
100
AcDbLine
 10
3893.499991089034
 20
2666.9999374815
 30
0.0
 11
3881.499987326535
 21
2662.499935975
 31
0.0
  0
LINE
  5
55A
330
1F
100
AcDbEntity
  8
Ｓ_１_２０
  6
CONTINUOUS
 62
     3
100
AcDbLine
 10
3869.499969482532
 20
2702.999916076501
 30
0.0
 11
3917.500000000035
 21
2702.999916076501
 31
0.0
  0
LINE
  5
55B
330
1F
100
AcDbEntity
  8
Ｓ_１_２０
  6
CONTINUOUS
 62
     3
100
AcDbLine
 10
3869.499969482532
 20
2666.999912262001
 30
0.0
 11
3869.499969482532
 21
2714.999904632501
 31
0.0
  0
LINE
  5
55C
330
1F
100
AcDbEntity
  8
Ｓ_１_２０
  6
CONTINUOUS
 62
     3
100
AcDbLine
 10
3917.500000000035
 20
2666.999912262001
 30
0.0
 11
3869.499969482532
 21
2666.999912262001
 31
0.0
  0
LINE
  5
55D
330
1F
100
AcDbEntity
  8
Ｓ_１_２０
  6
CONTINUOUS
 62
     3
100
AcDbLine
 10
3917.500000000035
 20
2714.999904632501
 30
0.0
 11
3917.500000000035
 21
2666.999912262001
 31
0.0
  0
LINE
  5
55E
330
1F
100
AcDbEntity
  8
Ｓ_１_２０
  6
CONTINUOUS
 62
     3
100
AcDbLine
 10
4247.500000000035
 20
2865.999908447
 30
0.0
 11
4377.499847412535
 21
2865.999908447
 31
0.0
  0
LINE
  5
55F
330
1F
100
AcDbEntity
  8
Ｓ_１_２０
  6
CONTINUOUS
 62
     3
100
AcDbLine
 10
3917.500000000035
 20
2889.999904632501
 30
0.0
 11
3917.500000000035
 21
2841.999912262001
 31
0.0
  0
LINE
  5
560
330
1F
100
AcDbEntity
  8
Ｓ_１_２０
  6
CONTINUOUS
 62
     3
100
AcDbLine
 10
3917.500000000035
 20
2841.999912262001
 30
0.0
 11
3869.499969482532
 21
2841.999912262001
 31
0.0
  0
LINE
  5
561
330
1F
100
AcDbEntity
  8
Ｓ_１_２０
  6
CONTINUOUS
 62
     3
100
AcDbLine
 10
3869.499969482532
 20
2841.999912262001
 30
0.0
 11
3869.499969482532
 21
2889.999904632501
 31
0.0
  0
LINE
  5
562
330
1F
100
AcDbEntity
  8
Ｓ_１_２０
  6
CONTINUOUS
 62
     3
100
AcDbLine
 10
3869.499969482532
 20
2877.999916076501
 30
0.0
 11
3917.500000000035
 21
2877.999916076501
 31
0.0
  0
LINE
  5
563
330
1F
100
AcDbEntity
  8
Ｓ_１_２０
  6
CONTINUOUS
 62
     3
100
AcDbLine
 10
3893.499985403034
 20
2841.999944813501
 30
0.0
 11
3881.499981640534
 21
2837.499943307001
 31
0.0
  0
LINE
  5
564
330
1F
100
AcDbEntity
  8
Ｓ_１_２０
  6
CONTINUOUS
 62
     3
100
AcDbLine
 10
3881.499971901532
 20
2837.4999182795
 30
0.0
 11
3905.499979426533
 21
2828.4999152665
 31
0.0
  0
LINE
  5
565
330
1F
100
AcDbEntity
  8
Ｓ_１_２０
  6
CONTINUOUS
 62
     3
100
AcDbLine
 10
3905.499953573033
 20
2828.499913840501
 30
0.0
 11
3881.500017484534
 21
2819.499937616001
 31
0.0
  0
LINE
  5
566
330
1F
100
AcDbEntity
  8
Ｓ_１_２０
  6
CONTINUOUS
 62
     3
100
AcDbLine
 10
3881.499942755034
 20
2819.499930447501
 30
0.0
 11
3905.50002171653
 21
2810.499900646001
 31
0.0
  0
LINE
  5
567
330
1F
100
AcDbEntity
  8
Ｓ_１_２０
  6
CONTINUOUS
 62
     3
100
AcDbLine
 10
3905.499989417032
 20
2810.4999081495
 30
0.0
 11
3893.499985654531
 21
2805.999906643
 31
0.0
  0
LINE
  5
568
330
1F
100
AcDbEntity
  8
Ｓ_１_２０
  6
CONTINUOUS
 62
     3
100
AcDbLine
 10
3917.500000000035
 20
2865.999908447
 30
0.0
 11
3987.500000000035
 21
2865.999908447
 31
0.0
  0
LINE
  5
569
330
1F
100
AcDbEntity
  8
Ｓ_１_２０
  6
CONTINUOUS
 62
     3
100
AcDbLine
 10
4480.499877930037
 20
2790.999908447
 30
0.0
 11
4480.499877930037
 21
2765.999908447
 31
0.0
  0
LINE
  5
56A
330
1F
100
AcDbEntity
  8
Ｓ_１_２０
  6
CONTINUOUS
 62
     3
100
AcDbLine
 10
4407.499847412535
 20
2889.999904632501
 30
0.0
 11
4407.499847412535
 21
2841.999912262001
 31
0.0
  0
LINE
  5
56B
330
1F
100
AcDbEntity
  8
Ｓ_１_２０
  6
CONTINUOUS
 62
     3
100
AcDbLine
 10
4455.499879331035
 20
2877.999909181
 30
0.0
 11
4443.908725362033
 21
2881.105749552001
 31
0.0
  0
LINE
  5
56C
330
1F
100
AcDbEntity
  8
Ｓ_１_２０
  6
CONTINUOUS
 62
     3
100
AcDbLine
 10
4455.499877930037
 20
2841.999912262001
 30
0.0
 11
4455.499877930037
 21
2889.999904632501
 31
0.0
  0
LINE
  5
56D
330
1F
100
AcDbEntity
  8
Ｓ_１_２０
  6
CONTINUOUS
 62
     3
100
AcDbLine
 10
4455.499877930037
 20
2877.999916076501
 30
0.0
 11
4407.499847412535
 21
2877.999916076501
 31
0.0
  0
LINE
  5
56E
330
1F
100
AcDbEntity
  8
Ｓ_１_２０
  6
CONTINUOUS
 62
     3
100
AcDbLine
 10
4431.499869006037
 20
2841.999891309001
 30
0.0
 11
4443.499872768532
 21
2837.499889802501
 31
0.0
  0
LINE
  5
56F
330
1F
100
AcDbEntity
  8
Ｓ_１_２０
  6
CONTINUOUS
 62
     3
100
AcDbLine
 10
4419.499842794034
 20
2828.4999228425
 30
0.0
 11
4443.499850319535
 21
2819.499919830001
 31
0.0
  0
LINE
  5
570
330
1F
100
AcDbEntity
  8
Ｓ_１_２０
  6
CONTINUOUS
 62
     3
100
AcDbLine
 10
4419.499878386536
 20
2810.499890363
 30
0.0
 11
4431.499882149536
 21
2805.999888857
 31
0.0
  0
LINE
  5
571
330
1F
100
AcDbEntity
  8
Ｓ_１_２０
  6
CONTINUOUS
 62
     3
100
AcDbLine
 10
4407.499847412535
 20
2865.999908447
 30
0.0
 11
4377.499847412535
 21
2865.999908447
 31
0.0
  0
LINE
  5
572
330
1F
100
AcDbEntity
  8
Ｓ_１_２０
  6
CONTINUOUS
 62
     3
100
AcDbLine
 10
4455.499828720034
 20
2877.999879325501
 30
0.0
 11
4443.910557322537
 21
2874.887315644001
 31
0.0
  0
LINE
  5
573
330
1F
100
AcDbEntity
  8
Ｓ_１_２０
  6
CONTINUOUS
 62
     3
100
AcDbLine
 10
4407.499847412535
 20
2841.999912262001
 30
0.0
 11
4455.499877930037
 21
2841.999912262001
 31
0.0
  0
LINE
  5
574
330
1F
100
AcDbEntity
  8
Ｓ_１_２０
  6
CONTINUOUS
 62
     3
100
AcDbLine
 10
4443.499844683036
 20
2819.499918096501
 30
0.0
 11
4419.499837158035
 21
2810.499915084001
 31
0.0
  0
LINE
  5
575
330
1F
100
AcDbEntity
  8
Ｓ_１_２０
  6
CONTINUOUS
 62
     3
100
AcDbLine
 10
4505.499877930037
 20
2765.999908447
 30
0.0
 11
4480.499877930037
 21
2765.999908447
 31
0.0
  0
LINE
  5
576
330
1F
100
AcDbEntity
  8
Ｓ_１_２０
  6
CONTINUOUS
 62
     3
100
AcDbLine
 10
4530.499877930037
 20
2765.999908447
 30
0.0
 11
4505.499877930037
 21
2765.999908447
 31
0.0
  0
LINE
  5
577
330
1F
100
AcDbEntity
  8
Ｓ_１_２０
  6
CONTINUOUS
 62
     3
100
AcDbLine
 10
4530.499877930037
 20
2790.999908447
 30
0.0
 11
4530.499877930037
 21
2765.999908447
 31
0.0
  0
LINE
  5
578
330
1F
100
AcDbEntity
  8
Ｓ_１_２０
  6
CONTINUOUS
 62
     3
100
AcDbLine
 10
4505.499877930037
 20
2865.999908447
 30
0.0
 11
4505.499877930037
 21
2765.999908447
 31
0.0
  0
LINE
  5
579
330
1F
100
AcDbEntity
  8
Ｓ_１_２０
  6
CONTINUOUS
 62
     3
100
AcDbLine
 10
4505.499877930037
 20
2865.999908447
 30
0.0
 11
4455.499877930037
 21
2865.999908447
 31
0.0
  0
LINE
  5
57A
330
1F
100
AcDbEntity
  8
Ｓ_１_２０
  6
CONTINUOUS
 62
     3
100
AcDbLine
 10
4455.499877930037
 20
2889.999904632501
 30
0.0
 11
4407.499847412535
 21
2889.999904632501
 31
0.0
  0
LINE
  5
57B
330
1F
100
AcDbEntity
  8
Ｓ_１_２０
  6
CONTINUOUS
 62
     3
100
AcDbLine
 10
4377.499828917033
 20
2416.000098472
 30
0.0
 11
4354.405808388536
 21
2376.000072377501
 31
0.0
  0
LINE
  5
57C
330
1F
100
AcDbEntity
  8
Ｓ_１_２０
  6
CONTINUOUS
 62
     3
100
AcDbLine
 10
4377.499734945535
 20
2415.999924793501
 30
0.0
 11
4400.593730993536
 21
2375.9999510065
 31
0.0
  0
LINE
  5
57D
330
1F
100
AcDbEntity
  8
Ｓ_１_２０
  6
CONTINUOUS
 62
     3
100
AcDbLine
 10
4417.499847412535
 20
2635.999908447
 30
0.0
 11
4417.499847412535
 21
2615.999946594
 31
0.0
  0
LINE
  5
57E
330
1F
100
AcDbEntity
  8
Ｓ_１_２０
  6
CONTINUOUS
 62
     3
100
AcDbLine
 10
4447.499923706035
 20
2635.999908447
 30
0.0
 11
4447.499923706035
 21
2615.999946594
 31
0.0
  0
LINE
  5
57F
330
1F
100
AcDbEntity
  8
Ｓ_１_２０
  6
CONTINUOUS
 62
     3
100
AcDbLine
 10
4447.499923706035
 20
2615.999908447
 30
0.0
 11
4432.499923706035
 21
2615.999908447
 31
0.0
  0
LINE
  5
580
330
1F
100
AcDbEntity
  8
Ｓ_１_２０
  6
CONTINUOUS
 62
     3
100
AcDbLine
 10
4432.499923706035
 20
2615.999908447
 30
0.0
 11
4417.499847412535
 21
2615.999908447
 31
0.0
  0
LINE
  5
581
330
1F
100
AcDbEntity
  8
Ｓ_１_２０
  6
CONTINUOUS
 62
     3
100
AcDbLine
 10
4447.499923706035
 20
2635.999908447
 30
0.0
 11
4432.499923706035
 21
2635.999908447
 31
0.0
  0
LINE
  5
582
330
1F
100
AcDbEntity
  8
Ｓ_１_２０
  6
CONTINUOUS
 62
     3
100
AcDbLine
 10
4432.499923706035
 20
2635.999908447
 30
0.0
 11
4417.499847412535
 21
2635.999908447
 31
0.0
  0
LINE
  5
583
330
1F
100
AcDbEntity
  8
Ｓ_１_２０
  6
CONTINUOUS
 62
     3
100
AcDbLine
 10
4439.999923706035
 20
2620.999946594
 30
0.0
 11
4439.999923706035
 21
2605.999946594
 31
0.0
  0
LINE
  5
584
330
1F
100
AcDbEntity
  8
Ｓ_１_２０
  6
CONTINUOUS
 62
     3
100
AcDbLine
 10
4439.999923706035
 20
2620.999946594
 30
0.0
 11
4439.999923706035
 21
2646.952552795
 31
0.0
  0
LINE
  5
585
330
1F
100
AcDbEntity
  8
Ｓ_１_２０
  6
CONTINUOUS
 62
     3
100
AcDbLine
 10
4424.999847412535
 20
2620.999946594
 30
0.0
 11
4424.999847412535
 21
2605.999946594
 31
0.0
  0
LINE
  5
586
330
1F
100
AcDbEntity
  8
Ｓ_１_２０
  6
CONTINUOUS
 62
     3
100
AcDbLine
 10
4424.999847412535
 20
2620.999946594
 30
0.0
 11
4424.999847412535
 21
2645.999908447
 31
0.0
  0
LINE
  5
587
330
1F
100
AcDbEntity
  8
Ｓ_１_２０
  6
CONTINUOUS
 62
     3
100
AcDbLine
 10
3869.499969482532
 20
2889.999904632501
 30
0.0
 11
3917.500000000035
 21
2889.999904632501
 31
0.0
  0
LINE
  5
588
330
1F
100
AcDbEntity
  8
Ｓ_１_２０
  6
CONTINUOUS
 62
     3
100
AcDbLine
 10
3844.499969482533
 20
2515.999908447
 30
0.0
 11
3844.499969482533
 21
2490.999908447
 31
0.0
  0
LINE
  5
589
330
1F
100
AcDbEntity
  8
Ｓ_１_２０
  6
CONTINUOUS
 62
     3
100
AcDbLine
 10
3819.499969482533
 20
2490.999908447
 30
0.0
 11
3844.499969482533
 21
2490.999908447
 31
0.0
  0
LINE
  5
58A
330
1F
100
AcDbEntity
  8
Ｓ_１_２０
  6
CONTINUOUS
 62
     3
100
AcDbLine
 10
3794.499969482533
 20
2490.999908447
 30
0.0
 11
3819.499969482533
 21
2490.999908447
 31
0.0
  0
LINE
  5
58B
330
1F
100
AcDbEntity
  8
Ｓ_１_２０
  6
CONTINUOUS
 62
     3
100
AcDbLine
 10
3794.499969482533
 20
2515.999908447
 30
0.0
 11
3794.499969482533
 21
2490.999908447
 31
0.0
  0
LINE
  5
58C
330
1F
100
AcDbEntity
  8
Ｓ_１_２０
  6
CONTINUOUS
 62
     3
100
AcDbLine
 10
3819.499969482533
 20
2865.999908447
 30
0.0
 11
3819.499969482533
 21
2490.999908447
 31
0.0
  0
LINE
  5
58D
330
1F
100
AcDbEntity
  8
Ｓ_１_２０
  6
CONTINUOUS
 62
     3
100
AcDbLine
 10
3869.500030279034
 20
2877.9999306525
 30
0.0
 11
3881.091110554031
 21
2881.105751278
 31
0.0
  0
LINE
  5
58E
330
1F
100
AcDbEntity
  8
Ｓ_１_２０
  6
CONTINUOUS
 62
     3
100
AcDbLine
 10
3819.499969482533
 20
2690.999908447
 30
0.0
 11
3869.499969482532
 21
2690.999908447
 31
0.0
  0
LINE
  5
58F
330
1F
100
AcDbEntity
  8
Ｓ_１_２０
  6
CONTINUOUS
 62
     3
100
AcDbLine
 10
3869.499969482532
 20
2714.999904632501
 30
0.0
 11
3917.500000000035
 21
2714.999904632501
 31
0.0
  0
LINE
  5
590
330
1F
100
AcDbEntity
  8
Ｓ_１_２０
  6
CONTINUOUS
 62
     3
100
AcDbLine
 10
4247.500000000035
 20
3015.999908447
 30
0.0
 11
4247.500000000035
 21
2865.999908447
 31
0.0
  0
LINE
  5
591
330
1F
100
AcDbEntity
  8
Ｓ_１_２０
  6
CONTINUOUS
 62
     3
100
AcDbLine
 10
3819.499969482533
 20
2865.999908447
 30
0.0
 11
3869.499969482532
 21
2865.999908447
 31
0.0
  0
LINE
  5
592
330
1F
100
AcDbEntity
  8
Ｓ_１_２０
  6
CONTINUOUS
 62
     3
100
AcDbLine
 10
3869.499970524035
 20
2877.9999187355
 30
0.0
 11
3881.089241922034
 21
2874.887355054
 31
0.0
  0
LINE
  5
593
330
1F
100
AcDbEntity
  8
Ｓ_１_２０
  6
CONTINUOUS
 62
     3
100
AcDbLine
 10
4443.499822233533
 20
2837.499888069501
 30
0.0
 11
4419.499814708537
 21
2828.499885056501
 31
0.0
  0
LINE
  5
594
330
1F
100
AcDbEntity
  8
Ｓ_１_２０
  6
CONTINUOUS
 62
     3
100
AcDbLine
 10
4097.500008957535
 20
2416.000075314501
 30
0.0
 11
4120.594034254535
 21
2376.000040961
 31
0.0
  0
LINE
  5
595
330
1F
100
AcDbEntity
  8
Ｓ_１_２０
  6
CONTINUOUS
 62
     3
100
AcDbLine
 10
4097.500073228037
 20
2415.999953803501
 30
0.0
 11
4074.406091485032
 21
2376.0000047935
 31
0.0
  0
CIRCLE
  5
596
330
1F
100
AcDbEntity
  8
Ｓ_１_２０
  6
CONTINUOUS
 62
     3
100
AcDbCircle
 10
4432.499923706035
 20
2690.999908447001
 30
0.0
 40
45.0
  0
CIRCLE
  5
597
330
1F
100
AcDbEntity
  8
Ｓ_１_２０
  6
CONTINUOUS
 62
     3
100
AcDbCircle
 10
4432.499923706035
 20
2560.999908447001
 30
0.0
 40
45.0
  0
CIRCLE
  5
598
330
1F
100
AcDbEntity
  8
Ｓ_１_２０
  6
CONTINUOUS
 62
     3
100
AcDbCircle
 10
4432.499923706035
 20
2485.999908447001
 30
0.0
 40
30.00000000000002
  0
LINE
  5
599
330
1F
100
AcDbEntity
  8
Ｓ_１_２０
  6
CONTINUOUS
 62
     3
100
AcDbLine
 10
4387.499923706035
 20
2560.999908447001
 30
0.0
 11
4377.499847412535
 21
2560.999908447001
 31
0.0
  0
LINE
  5
59A
330
1F
100
AcDbEntity
  8
Ｓ_１_２０
  6
CONTINUOUS
 62
     3
100
AcDbLine
 10
4377.499847412535
 20
2485.999908447001
 30
0.0
 11
4377.499847412535
 21
2415.999946594
 31
0.0
  0
LINE
  5
59B
330
1F
100
AcDbEntity
  8
Ｓ_１_２０
  6
CONTINUOUS
 62
     3
100
AcDbLine
 10
4377.499847412535
 20
2865.999908447
 30
0.0
 11
4377.499847412535
 21
2560.999908447001
 31
0.0
  0
LINE
  5
59C
330
1F
100
AcDbEntity
  8
Ｓ_１_２０
  6
CONTINUOUS
 62
     3
100
AcDbLine
 10
4402.499923706035
 20
2485.999908447001
 30
0.0
 11
4377.499847412535
 21
2485.999908447001
 31
0.0
  0
CIRCLE
  5
59D
330
1F
100
AcDbEntity
  8
Ｓ_１_２０
  6
CONTINUOUS
 62
     3
100
AcDbCircle
 10
4152.500197718035
 20
2486.000058968
 30
0.0
 40
30.00000000000002
  0
LINE
  5
59E
330
1F
100
AcDbEntity
  8
Ｓ_１_２０
  6
CONTINUOUS
 62
     3
100
AcDbLine
 10
4107.500197718035
 20
2561.000058968
 30
0.0
 11
4097.500121424535
 21
2561.000058968
 31
0.0
  0
LINE
  5
59F
330
1F
100
AcDbEntity
  8
Ｓ_１_２０
  6
CONTINUOUS
 62
     3
100
AcDbLine
 10
4122.500197718035
 20
2486.000058968
 30
0.0
 11
4097.500121424535
 21
2486.000058968
 31
0.0
  0
LINE
  5
5A0
330
1F
100
AcDbEntity
  8
Ｓ_１_２０
  6
CONTINUOUS
 62
     3
100
AcDbLine
 10
4097.500121424535
 20
2561.000058968
 30
0.0
 11
4097.500121424535
 21
3015.999908447
 31
0.0
  0
LINE
  5
5A1
330
1F
100
AcDbEntity
  8
Ｓ_１_２０
  6
CONTINUOUS
 62
     3
100
AcDbLine
 10
4097.500121424535
 20
2486.000058968
 30
0.0
 11
4097.500121424535
 21
2415.999953803501
 31
0.0
  0
CIRCLE
  5
5A2
330
1F
100
AcDbEntity
  8
Ｓ_１_２０
  6
CONTINUOUS
 62
     3
100
AcDbCircle
 10
4152.500197718035
 20
2561.000058968
 30
0.0
 40
45.0
  0
CIRCLE
  5
5A3
330
1F
100
AcDbEntity
  8
Ｓ_１_２０
  6
CONTINUOUS
 62
     3
100
AcDbCircle
 10
4152.500197718035
 20
2651.000058968
 30
0.0
 40
45.0
  0
LINE
  5
5A4
330
1F
100
AcDbEntity
  8
Ｓ_１_２０
  6
CONTINUOUS
 62
     3
100
AcDbLine
 10
4137.500121424535
 20
2726.000058968
 30
0.0
 11
4137.500121424535
 21
2706.000097115
 31
0.0
  0
LINE
  5
5A5
330
1F
100
AcDbEntity
  8
Ｓ_１_２０
  6
CONTINUOUS
 62
     3
100
AcDbLine
 10
4167.500197718035
 20
2726.000058968
 30
0.0
 11
4167.500197718035
 21
2706.000097115
 31
0.0
  0
LINE
  5
5A6
330
1F
100
AcDbEntity
  8
Ｓ_１_２０
  6
CONTINUOUS
 62
     3
100
AcDbLine
 10
4167.500197718035
 20
2706.000058968
 30
0.0
 11
4152.500197718035
 21
2706.000058968
 31
0.0
  0
LINE
  5
5A7
330
1F
100
AcDbEntity
  8
Ｓ_１_２０
  6
CONTINUOUS
 62
     3
100
AcDbLine
 10
4152.500197718035
 20
2706.000058968
 30
0.0
 11
4137.500121424535
 21
2706.000058968
 31
0.0
  0
LINE
  5
5A8
330
1F
100
AcDbEntity
  8
Ｓ_１_２０
  6
CONTINUOUS
 62
     3
100
AcDbLine
 10
4167.500197718035
 20
2726.000058968
 30
0.0
 11
4152.500197718035
 21
2726.000058968
 31
0.0
  0
LINE
  5
5A9
330
1F
100
AcDbEntity
  8
Ｓ_１_２０
  6
CONTINUOUS
 62
     3
100
AcDbLine
 10
4152.500197718035
 20
2726.000058968
 30
0.0
 11
4137.500121424535
 21
2726.000058968
 31
0.0
  0
LINE
  5
5AA
330
1F
100
AcDbEntity
  8
Ｓ_１_２０
  6
CONTINUOUS
 62
     3
100
AcDbLine
 10
4160.000197718035
 20
2711.000097115
 30
0.0
 11
4160.000197718035
 21
2696.000097115
 31
0.0
  0
LINE
  5
5AB
330
1F
100
AcDbEntity
  8
Ｓ_１_２０
  6
CONTINUOUS
 62
     3
100
AcDbLine
 10
4145.000121424535
 20
2711.000097115
 30
0.0
 11
4145.000121424535
 21
2696.000097115
 31
0.0
  0
LINE
  5
5AC
330
1F
100
AcDbEntity
  8
Ｓ_１_２０
  6
CONTINUOUS
 62
     3
100
AcDbLine
 10
4160.000197718035
 20
2711.000097115
 30
0.0
 11
4160.000197718035
 21
2736.952703316
 31
0.0
  0
LINE
  5
5AD
330
1F
100
AcDbEntity
  8
Ｓ_１_２０
  6
CONTINUOUS
 62
     3
100
AcDbLine
 10
4145.000121424535
 20
2711.000097115
 30
0.0
 11
4145.000121424535
 21
2736.000058968
 31
0.0
  0
CIRCLE
  5
5AE
330
1F
100
AcDbEntity
  8
Ｓ_１_２０
  6
CONTINUOUS
 62
     3
100
AcDbCircle
 10
4152.500197718035
 20
2781.000058968
 30
0.0
 40
45.0
  0
LINE
  5
5AF
330
1F
100
AcDbEntity
  8
Ｓ_１_２０
  6
CONTINUOUS
 62
     3
100
AcDbLine
 10
3997.500000000034
 20
3015.999908447
 30
0.0
 11
3997.500000000034
 21
2651.000058968
 31
0.0
  0
LINE
  5
5B0
330
1F
100
AcDbEntity
  8
Ｓ_１_２０
  6
CONTINUOUS
 62
     3
100
AcDbLine
 10
4107.500197718035
 20
2651.000058968
 30
0.0
 11
3997.500000000034
 21
2651.000058968
 31
0.0
  0
LINE
  5
5B1
330
1F
100
AcDbEntity
  8
Ｓ_１_２０
  6
EXLTYPE0
 62
     2
100
AcDbLine
 10
4664.644622803033
 20
2601.774816513001
 30
0.0
 11
4735.355262756537
 21
2601.774816513001
 31
0.0
  0
CIRCLE
  5
5B2
330
1F
100
AcDbEntity
  8
Ｓ_１_２０
  6
CONTINUOUS
 62
     3
100
AcDbCircle
 10
4699.999923706035
 20
2496.871857643001
 30
0.0
 40
7.5
  0
CIRCLE
  5
5B3
330
1F
100
AcDbEntity
  8
Ｓ_１_２０
  6
CONTINUOUS
 62
     3
100
AcDbCircle
 10
4699.999923706035
 20
3073.426284790001
 30
0.0
 40
15.00000000000001
  0
CIRCLE
  5
5B4
330
1F
100
AcDbEntity
  8
Ｓ_１_２０
  6
CONTINUOUS
 62
     3
100
AcDbCircle
 10
4699.999923706035
 20
3030.999908447
 30
0.0
 40
15.00000000000001
  0
LINE
  5
5B5
330
1F
100
AcDbEntity
  8
Ｓ_１_２０
  6
CONTINUOUS
 62
     3
100
AcDbLine
 10
4699.999923706035
 20
2489.371852874501
 30
0.0
 11
4699.999923706035
 21
2366.419486999501
 31
0.0
  0
LINE
  5
5B6
330
1F
100
AcDbEntity
  8
Ｓ_１_２０
  6
CONTINUOUS
 62
     3
100
AcDbLine
 10
4689.393331753034
 20
2496.871868037001
 30
0.0
 11
4699.999930607535
 21
2507.478473149501
 31
0.0
  0
LINE
  5
5B7
330
1F
100
AcDbEntity
  8
Ｓ_１_２０
  6
CONTINUOUS
 62
     3
100
AcDbLine
 10
4699.999882395035
 20
2507.478471234501
 30
0.0
 11
4710.606488402034
 21
2496.871873274501
 31
0.0
  0
LINE
  5
5B8
330
1F
100
AcDbEntity
  8
Ｓ_１_２０
  6
CONTINUOUS
 62
     3
100
AcDbLine
 10
4699.999923706035
 20
2637.13019371
 30
0.0
 11
4699.999923706035
 21
3015.999908447
 31
0.0
  0
LINE
  5
5B9
330
1F
100
AcDbEntity
  8
Ｓ_１_２０
  6
CONTINUOUS
 62
     3
100
AcDbLine
 10
4721.213079225034
 20
3073.426354895501
 30
0.0
 11
4699.999885093037
 21
3052.213141094001
 31
0.0
  0
LINE
  5
5BA
330
1F
100
AcDbEntity
  8
Ｓ_１_２０
  6
CONTINUOUS
 62
     3
100
AcDbLine
 10
4699.999892115537
 20
3052.213132436
 30
0.0
 11
4678.786676526037
 21
3073.426324779501
 31
0.0
  0
LINE
  5
5BB
330
1F
100
AcDbEntity
  8
Ｓ_１_２０
  6
CONTINUOUS
 62
     3
100
AcDbLine
 10
4721.213143589534
 20
3030.999840459501
 30
0.0
 11
4699.999949457537
 21
3052.213054261001
 31
0.0
  0
LINE
  5
5BC
330
1F
100
AcDbEntity
  8
Ｓ_１_２０
  6
CONTINUOUS
 62
     3
100
AcDbLine
 10
4699.999888487035
 20
3052.213116867501
 30
0.0
 11
4678.786672897535
 21
3030.9999245235
 31
0.0
  0
LINE
  5
5BD
330
1F
100
AcDbEntity
  8
Ｓ_１_２０
  6
CONTINUOUS
 62
     3
100
AcDbLine
 10
4699.999923706035
 20
2566.4195173975
 30
0.0
 11
4699.999923706035
 21
2507.478470802001
 31
0.0
  0
LINE
  5
5BE
330
1F
100
AcDbEntity
  8
Ｓ_１_２０
  6
CONTINUOUS
 62
     3
100
AcDbLine
 10
4699.999911489534
 20
2566.419493910001
 30
0.0
 11
4735.355249943535
 21
2601.774832364501
 31
0.0
  0
LINE
  5
5BF
330
1F
100
AcDbEntity
  8
Ｓ_１_２０
  6
CONTINUOUS
 62
     3
100
AcDbLine
 10
4664.644573035037
 20
2601.774832364501
 30
0.0
 11
4699.999911489534
 21
2566.419493910001
 31
0.0
  0
LINE
  5
5C0
330
1F
100
AcDbEntity
  8
Ｓ_１_２０
  6
CONTINUOUS
 62
     3
100
AcDbLine
 10
4699.999911489534
 20
2637.130170818501
 30
0.0
 11
4735.355249943535
 21
2601.774832364501
 31
0.0
  0
LINE
  5
5C1
330
1F
100
AcDbEntity
  8
Ｓ_１_２０
  6
CONTINUOUS
 62
     3
100
AcDbLine
 10
4664.644573035037
 20
2601.774832364501
 30
0.0
 11
4699.999911489534
 21
2637.130170818501
 31
0.0
  0
LINE
  5
5C2
330
1F
100
AcDbEntity
  8
Ｓ_１_２０
  6
EXLTYPE0
 62
     2
100
AcDbLine
 10
4924.624938965037
 20
2901.999893188501
 30
0.0
 11
4963.624877929535
 21
2901.999893188501
 31
0.0
  0
LINE
  5
5C3
330
1F
100
AcDbEntity
  8
Ｓ_１_２０
  6
EXLTYPE0
 62
     2
100
AcDbLine
 10
4924.624938965037
 20
2726.999912262001
 30
0.0
 11
4963.624877929535
 21
2726.999912262001
 31
0.0
  0
LINE
  5
5C4
330
1F
100
AcDbEntity
  8
Ｓ_１_２０
  6
EXLTYPE0
 62
     2
100
AcDbLine
 10
4963.624877929535
 20
2726.999912262001
 30
0.0
 11
4963.624877929535
 21
2690.999908447
 31
0.0
  0
LINE
  5
5C5
330
1F
100
AcDbEntity
  8
Ｓ_１_２０
  6
EXLTYPE0
 62
     2
100
AcDbLine
 10
4924.624938965037
 20
2726.999912262001
 30
0.0
 11
4924.624938965037
 21
2714.999904632501
 31
0.0
  0
LINE
  5
5C6
330
1F
100
AcDbEntity
  8
Ｓ_１_２０
  6
EXLTYPE0
 62
     2
100
AcDbLine
 10
5462.624740600533
 20
2901.999893188501
 30
0.0
 11
5462.624740600533
 21
2889.999904632501
 31
0.0
  0
LINE
  5
5C7
330
1F
100
AcDbEntity
  8
Ｓ_１_２０
  6
EXLTYPE0
 62
     2
100
AcDbLine
 10
5423.624725342035
 20
2901.999893188501
 30
0.0
 11
5423.624725342035
 21
2865.999908447
 31
0.0
  0
LINE
  5
5C8
330
1F
100
AcDbEntity
  8
Ｓ_１_２０
  6
EXLTYPE0
 62
     2
100
AcDbLine
 10
5528.980102539037
 20
2540.644607544
 30
0.0
 11
5528.980102539037
 21
2440.6445884705
 31
0.0
  0
LINE
  5
5C9
330
1F
100
AcDbEntity
  8
Ｓ_１_２０
  6
EXLTYPE0
 62
     2
100
AcDbLine
 10
5385.530700683537
 20
2375.999908447
 30
0.0
 11
5431.718750000035
 21
2375.999908447
 31
0.0
  0
LINE
  5
5CA
330
1F
100
AcDbEntity
  8
Ｓ_１_２０
  6
EXLTYPE0
 62
     2
100
AcDbLine
 10
5423.624725342035
 20
2901.999893188501
 30
0.0
 11
5462.624740600533
 21
2901.999893188501
 31
0.0
  0
LINE
  5
5CB
330
1F
100
AcDbEntity
  8
Ｓ_１_２０
  6
EXLTYPE0
 62
     2
100
AcDbLine
 10
4924.624938965037
 20
2901.999893188501
 30
0.0
 11
4924.624938965037
 21
2889.999904632501
 31
0.0
  0
LINE
  5
5CC
330
1F
100
AcDbEntity
  8
Ｓ_１_２０
  6
EXLTYPE0
 62
     2
100
AcDbLine
 10
4963.624877929535
 20
2901.999893188501
 30
0.0
 11
4963.624877929535
 21
2865.999908447
 31
0.0
  0
LINE
  5
5CD
330
1F
100
AcDbEntity
  8
Ｓ_１_２０
  6
EXLTYPE0
 62
     2
100
AcDbLine
 10
5151.718902588034
 20
2375.999908447
 30
0.0
 11
5105.530853271537
 21
2375.999908447
 31
0.0
  0
LINE
  5
5CE
330
1F
100
AcDbEntity
  8
Ｓ_１_２０
  6
EXLTYPE0
 62
     2
100
AcDbLine
 10
5508.624801635489
 20
2560.999832436357
 30
0.0
 11
5528.980061173035
 21
2540.644574614501
 31
0.0
  0
LINE
  5
5CF
330
1F
100
AcDbEntity
  8
Ｓ_１_２０
  6
EXLTYPE0
 62
     2
100
AcDbLine
 10
5228.625075647535
 20
2651.000058968
 30
0.0
 11
5281.658084236526
 21
2597.967050379009
 31
0.0
  0
LINE
  5
5D0
330
1F
100
AcDbEntity
  8
Ｓ_１_２０
  6
EXLTYPE0
 62
     2
100
AcDbLine
 10
5281.658084236535
 20
2597.967050379
 30
0.0
 11
5281.658084236535
 21
2447.967050379001
 31
0.0
  0
LINE
  5
5D1
330
1F
100
AcDbEntity
  8
Ｓ_１_２０
  6
EXLTYPE0
 62
     2
100
AcDbLine
 10
5228.625075647535
 20
2561.000058968
 30
0.0
 11
5281.658084236535
 21
2507.967050379
 31
0.0
  0
ARC
  5
5D2
330
1F
100
AcDbEntity
  8
Ｓ_１_２０
  6
CONTINUOUS
 62
     3
100
AcDbCircle
 10
5028.624877929535
 20
2865.999908447
 30
0.0
 40
10.0
100
AcDbArc
 50
0.0
 51
180.0000050090001
  0
CIRCLE
  5
5D3
330
1F
100
AcDbEntity
  8
Ｓ_１_２０
  6
CONTINUOUS
 62
     3
100
AcDbCircle
 10
5278.624877929535
 20
3073.426284790001
 30
0.0
 40
15.00000000000001
  0
CIRCLE
  5
5D4
330
1F
100
AcDbEntity
  8
Ｓ_１_２０
  6
CONTINUOUS
 62
     3
100
AcDbCircle
 10
5278.624877929535
 20
3030.999908447
 30
0.0
 40
15.00000000000001
  0
CIRCLE
  5
5D5
330
1F
100
AcDbEntity
  8
Ｓ_１_２０
  6
CONTINUOUS
 62
     3
100
AcDbCircle
 10
5128.624877929535
 20
3073.426284790001
 30
0.0
 40
15.00000000000001
  0
CIRCLE
  5
5D6
330
1F
100
AcDbEntity
  8
Ｓ_１_２０
  6
CONTINUOUS
 62
     3
100
AcDbCircle
 10
5128.624877929535
 20
3030.999908447
 30
0.0
 40
15.00000000000001
  0
CIRCLE
  5
5D7
330
1F
100
AcDbEntity
  8
Ｓ_１_２０
  6
CONTINUOUS
 62
     3
100
AcDbCircle
 10
5028.624877929535
 20
3030.999908447
 30
0.0
 40
15.00000000000001
  0
CIRCLE
  5
5D8
330
1F
100
AcDbEntity
  8
Ｓ_１_２０
  6
CONTINUOUS
 62
     3
100
AcDbCircle
 10
5028.624877929535
 20
3073.426284790001
 30
0.0
 40
15.00000000000001
  0
CIRCLE
  5
5D9
330
1F
100
AcDbEntity
  8
Ｓ_１_２０
  6
CONTINUOUS
 62
     3
100
AcDbCircle
 10
5881.124877929535
 20
2560.999946594
 30
0.0
 40
20.0
  0
ARC
  5
5DA
330
1F
100
AcDbEntity
  8
Ｓ_１_２０
  6
CONTINUOUS
 62
     3
100
AcDbCircle
 10
5756.124877929535
 20
2815.999908447
 30
0.0
 40
25.0
100
AcDbArc
 50
0.0
 51
179.9999640278
  0
LINE
  5
5DB
330
1F
100
AcDbEntity
  8
Ｓ_１_２０
  6
CONTINUOUS
 62
     3
100
AcDbLine
 10
5038.624877929535
 20
2865.999908447
 30
0.0
 11
5128.624877929535
 21
2865.999908447
 31
0.0
  0
LINE
  5
5DC
330
1F
100
AcDbEntity
  8
Ｓ_１_２０
  6
CONTINUOUS
 62
     3
100
AcDbLine
 10
5299.838102962533
 20
3073.426297892001
 30
0.0
 11
5278.624908831036
 21
3052.213084090501
 31
0.0
  0
LINE
  5
5DD
330
1F
100
AcDbEntity
  8
Ｓ_１_２０
  6
CONTINUOUS
 62
     3
100
AcDbLine
 10
5299.838045944536
 20
3030.999897463001
 30
0.0
 11
5278.624851812536
 21
3052.213111264501
 31
0.0
  0
LINE
  5
5DE
330
1F
100
AcDbEntity
  8
Ｓ_１_２０
  6
CONTINUOUS
 62
     3
100
AcDbLine
 10
5278.624895623036
 20
3052.213124533501
 30
0.0
 11
5257.411680033536
 21
3073.426316877
 31
0.0
  0
LINE
  5
5DF
330
1F
100
AcDbEntity
  8
Ｓ_１_２０
  6
CONTINUOUS
 62
     3
100
AcDbLine
 10
5278.624878507537
 20
3052.213111283001
 30
0.0
 11
5257.411662918037
 21
3030.999918939001
 31
0.0
  0
LINE
  5
5E0
330
1F
100
AcDbEntity
  8
Ｓ_１_２０
  6
CONTINUOUS
 62
     3
100
AcDbLine
 10
5149.838072272034
 20
3073.426309271501
 30
0.0
 11
5128.624878140034
 21
3052.213095470001
 31
0.0
  0
LINE
  5
5E1
330
1F
100
AcDbEntity
  8
Ｓ_１_２０
  6
CONTINUOUS
 62
     3
100
AcDbLine
 10
5149.838042228037
 20
3030.999913057501
 30
0.0
 11
5128.624861583037
 21
3052.213113372
 31
0.0
  0
LINE
  5
5E2
330
1F
100
AcDbEntity
  8
Ｓ_１_２０
  6
CONTINUOUS
 62
     3
100
AcDbLine
 10
5049.838066724034
 20
3030.999905471001
 30
0.0
 11
5028.624872592034
 21
3052.213119272501
 31
0.0
  0
LINE
  5
5E3
330
1F
100
AcDbEntity
  8
Ｓ_１_２０
  6
CONTINUOUS
 62
     3
100
AcDbLine
 10
5049.838083281536
 20
3073.426330345
 30
0.0
 11
5028.624889149534
 21
3052.2131165435
 31
0.0
  0
LINE
  5
5E4
330
1F
100
AcDbEntity
  8
Ｓ_１_２０
  6
CONTINUOUS
 62
     3
100
AcDbLine
 10
4900.624851579534
 20
2702.999915519501
 30
0.0
 11
4912.214122977037
 21
2699.887351838001
 31
0.0
  0
LINE
  5
5E5
330
1F
100
AcDbEntity
  8
Ｓ_１_２０
  6
CONTINUOUS
 62
     3
100
AcDbLine
 10
4900.624923950534
 20
2702.999919227
 30
0.0
 11
4912.216004225536
 21
2706.105739852
 31
0.0
  0
LINE
  5
5E6
330
1F
100
AcDbEntity
  8
Ｓ_１_２０
  6
CONTINUOUS
 62
     3
100
AcDbLine
 10
4948.624877929535
 20
2690.999908447
 30
0.0
 11
5028.624877929535
 21
2690.999908447
 31
0.0
  0
LINE
  5
5E7
330
1F
100
AcDbEntity
  8
Ｓ_１_２０
  6
CONTINUOUS
 62
     3
100
AcDbLine
 10
4936.624873032035
 20
2635.499900817501
 30
0.0
 11
4924.624869269535
 21
2630.999899311001
 31
0.0
  0
LINE
  5
5E8
330
1F
100
AcDbEntity
  8
Ｓ_１_２０
  6
CONTINUOUS
 62
     3
100
AcDbLine
 10
4912.624807743534
 20
2644.499930929001
 30
0.0
 11
4936.624886705033
 21
2635.499901127501
 31
0.0
  0
LINE
  5
5E9
330
1F
100
AcDbEntity
  8
Ｓ_１_２０
  6
CONTINUOUS
 62
     3
100
AcDbLine
 10
4936.624837188536
 20
2653.499906508501
 30
0.0
 11
4912.624901099536
 21
2644.499930284001
 31
0.0
  0
LINE
  5
5EA
330
1F
100
AcDbEntity
  8
Ｓ_１_２０
  6
CONTINUOUS
 62
     3
100
AcDbLine
 10
4912.624836890034
 20
2662.499918761001
 30
0.0
 11
4936.624844415535
 21
2653.499915748001
 31
0.0
  0
LINE
  5
5EB
330
1F
100
AcDbEntity
  8
Ｓ_１_２０
  6
CONTINUOUS
 62
     3
100
AcDbLine
 10
4924.624869018537
 20
2666.9999374815
 30
0.0
 11
4912.624865256037
 21
2662.499935975
 31
0.0
  0
LINE
  5
5EC
330
1F
100
AcDbEntity
  8
Ｓ_１_２０
  6
CONTINUOUS
 62
     3
100
AcDbLine
 10
4900.624847412035
 20
2702.999916076501
 30
0.0
 11
4948.624877929535
 21
2702.999916076501
 31
0.0
  0
LINE
  5
5ED
330
1F
100
AcDbEntity
  8
Ｓ_１_２０
  6
CONTINUOUS
 62
     3
100
AcDbLine
 10
4900.624847412035
 20
2666.999912262001
 30
0.0
 11
4900.624847412035
 21
2714.999904632501
 31
0.0
  0
LINE
  5
5EE
330
1F
100
AcDbEntity
  8
Ｓ_１_２０
  6
CONTINUOUS
 62
     3
100
AcDbLine
 10
4948.624877929535
 20
2666.999912262001
 30
0.0
 11
4900.624847412035
 21
2666.999912262001
 31
0.0
  0
LINE
  5
5EF
330
1F
100
AcDbEntity
  8
Ｓ_１_２０
  6
CONTINUOUS
 62
     3
100
AcDbLine
 10
4948.624877929535
 20
2714.999904632501
 30
0.0
 11
4948.624877929535
 21
2666.999912262001
 31
0.0
  0
LINE
  5
5F0
330
1F
100
AcDbEntity
  8
Ｓ_１_２０
  6
CONTINUOUS
 62
     3
100
AcDbLine
 10
5278.624877929535
 20
2865.999908447
 30
0.0
 11
5408.624725342035
 21
2865.999908447
 31
0.0
  0
LINE
  5
5F1
330
1F
100
AcDbEntity
  8
Ｓ_１_２０
  6
CONTINUOUS
 62
     3
100
AcDbLine
 10
4948.624877929535
 20
2889.999904632501
 30
0.0
 11
4948.624877929535
 21
2841.999912262001
 31
0.0
  0
LINE
  5
5F2
330
1F
100
AcDbEntity
  8
Ｓ_１_２０
  6
CONTINUOUS
 62
     3
100
AcDbLine
 10
4948.624877929535
 20
2841.999912262001
 30
0.0
 11
4900.624847412035
 21
2841.999912262001
 31
0.0
  0
LINE
  5
5F3
330
1F
100
AcDbEntity
  8
Ｓ_１_２０
  6
CONTINUOUS
 62
     3
100
AcDbLine
 10
4900.624847412035
 20
2841.999912262001
 30
0.0
 11
4900.624847412035
 21
2889.999904632501
 31
0.0
  0
LINE
  5
5F4
330
1F
100
AcDbEntity
  8
Ｓ_１_２０
  6
CONTINUOUS
 62
     3
100
AcDbLine
 10
4900.624847412035
 20
2877.999916076501
 30
0.0
 11
4948.624877929535
 21
2877.999916076501
 31
0.0
  0
LINE
  5
5F5
330
1F
100
AcDbEntity
  8
Ｓ_１_２０
  6
CONTINUOUS
 62
     3
100
AcDbLine
 10
4924.624863332536
 20
2841.999944813501
 30
0.0
 11
4912.624859570034
 21
2837.499943307001
 31
0.0
  0
LINE
  5
5F6
330
1F
100
AcDbEntity
  8
Ｓ_１_２０
  6
CONTINUOUS
 62
     3
100
AcDbLine
 10
4912.624849831034
 20
2837.4999182795
 30
0.0
 11
4936.624857356035
 21
2828.4999152665
 31
0.0
  0
LINE
  5
5F7
330
1F
100
AcDbEntity
  8
Ｓ_１_２０
  6
CONTINUOUS
 62
     3
100
AcDbLine
 10
4936.624831502533
 20
2828.499913840501
 30
0.0
 11
4912.624895414036
 21
2819.499937616001
 31
0.0
  0
LINE
  5
5F8
330
1F
100
AcDbEntity
  8
Ｓ_１_２０
  6
CONTINUOUS
 62
     3
100
AcDbLine
 10
4912.624820684534
 20
2819.499930447501
 30
0.0
 11
4936.624899646033
 21
2810.499900646001
 31
0.0
  0
LINE
  5
5F9
330
1F
100
AcDbEntity
  8
Ｓ_１_２０
  6
CONTINUOUS
 62
     3
100
AcDbLine
 10
4936.624867346534
 20
2810.4999081495
 30
0.0
 11
4924.624863584033
 21
2805.999906643
 31
0.0
  0
LINE
  5
5FA
330
1F
100
AcDbEntity
  8
Ｓ_１_２０
  6
CONTINUOUS
 62
     3
100
AcDbLine
 10
4948.624877929535
 20
2865.999908447
 30
0.0
 11
5018.624877929535
 21
2865.999908447
 31
0.0
  0
LINE
  5
5FB
330
1F
100
AcDbEntity
  8
Ｓ_１_２０
  6
CONTINUOUS
 62
     3
100
AcDbLine
 10
5511.624755859537
 20
2790.999908447
 30
0.0
 11
5511.624755859537
 21
2765.999908447
 31
0.0
  0
LINE
  5
5FC
330
1F
100
AcDbEntity
  8
Ｓ_１_２０
  6
CONTINUOUS
 62
     3
100
AcDbLine
 10
5438.624725342035
 20
2889.999904632501
 30
0.0
 11
5438.624725342035
 21
2841.999912262001
 31
0.0
  0
LINE
  5
5FD
330
1F
100
AcDbEntity
  8
Ｓ_１_２０
  6
CONTINUOUS
 62
     3
100
AcDbLine
 10
5486.624757260535
 20
2877.999909181
 30
0.0
 11
5475.033603291533
 21
2881.105749552001
 31
0.0
  0
LINE
  5
5FE
330
1F
100
AcDbEntity
  8
Ｓ_１_２０
  6
CONTINUOUS
 62
     3
100
AcDbLine
 10
5486.624755859537
 20
2841.999912262001
 30
0.0
 11
5486.624755859537
 21
2889.999904632501
 31
0.0
  0
LINE
  5
5FF
330
1F
100
AcDbEntity
  8
Ｓ_１_２０
  6
CONTINUOUS
 62
     3
100
AcDbLine
 10
5486.624755859537
 20
2877.999916076501
 30
0.0
 11
5438.624725342035
 21
2877.999916076501
 31
0.0
  0
LINE
  5
600
330
1F
100
AcDbEntity
  8
Ｓ_１_２０
  6
CONTINUOUS
 62
     3
100
AcDbLine
 10
5462.624746935537
 20
2841.999891309001
 30
0.0
 11
5474.624750698033
 21
2837.499889802501
 31
0.0
  0
LINE
  5
601
330
1F
100
AcDbEntity
  8
Ｓ_１_２０
  6
CONTINUOUS
 62
     3
100
AcDbLine
 10
5450.624720723534
 20
2828.4999228425
 30
0.0
 11
5474.624728249035
 21
2819.499919830001
 31
0.0
  0
LINE
  5
602
330
1F
100
AcDbEntity
  8
Ｓ_１_２０
  6
CONTINUOUS
 62
     3
100
AcDbLine
 10
5450.624756316036
 20
2810.499890363
 30
0.0
 11
5462.624760079036
 21
2805.999888857
 31
0.0
  0
LINE
  5
603
330
1F
100
AcDbEntity
  8
Ｓ_１_２０
  6
CONTINUOUS
 62
     3
100
AcDbLine
 10
5438.624725342035
 20
2865.999908447
 30
0.0
 11
5408.624725342035
 21
2865.999908447
 31
0.0
  0
LINE
  5
604
330
1F
100
AcDbEntity
  8
Ｓ_１_２０
  6
CONTINUOUS
 62
     3
100
AcDbLine
 10
5486.624706649534
 20
2877.999879325501
 30
0.0
 11
5475.035435252037
 21
2874.887315644001
 31
0.0
  0
LINE
  5
605
330
1F
100
AcDbEntity
  8
Ｓ_１_２０
  6
CONTINUOUS
 62
     3
100
AcDbLine
 10
5438.624725342035
 20
2841.999912262001
 30
0.0
 11
5486.624755859537
 21
2841.999912262001
 31
0.0
  0
LINE
  5
606
330
1F
100
AcDbEntity
  8
Ｓ_１_２０
  6
CONTINUOUS
 62
     3
100
AcDbLine
 10
5474.624722612536
 20
2819.499918096501
 30
0.0
 11
5450.624715087535
 21
2810.499915084001
 31
0.0
  0
LINE
  5
607
330
1F
100
AcDbEntity
  8
Ｓ_１_２０
  6
CONTINUOUS
 62
     3
100
AcDbLine
 10
5536.624755859537
 20
2765.999908447
 30
0.0
 11
5511.624755859537
 21
2765.999908447
 31
0.0
  0
LINE
  5
608
330
1F
100
AcDbEntity
  8
Ｓ_１_２０
  6
CONTINUOUS
 62
     3
100
AcDbLine
 10
5561.624755859537
 20
2765.999908447
 30
0.0
 11
5536.624755859537
 21
2765.999908447
 31
0.0
  0
LINE
  5
609
330
1F
100
AcDbEntity
  8
Ｓ_１_２０
  6
CONTINUOUS
 62
     3
100
AcDbLine
 10
5561.624755859537
 20
2790.999908447
 30
0.0
 11
5561.624755859537
 21
2765.999908447
 31
0.0
  0
LINE
  5
60A
330
1F
100
AcDbEntity
  8
Ｓ_１_２０
  6
CONTINUOUS
 62
     3
100
AcDbLine
 10
5536.624755859537
 20
2865.999908447
 30
0.0
 11
5536.624755859537
 21
2765.999908447
 31
0.0
  0
LINE
  5
60B
330
1F
100
AcDbEntity
  8
Ｓ_１_２０
  6
CONTINUOUS
 62
     3
100
AcDbLine
 10
5536.624755859537
 20
2865.999908447
 30
0.0
 11
5486.624755859537
 21
2865.999908447
 31
0.0
  0
LINE
  5
60C
330
1F
100
AcDbEntity
  8
Ｓ_１_２０
  6
CONTINUOUS
 62
     3
100
AcDbLine
 10
5486.624755859537
 20
2889.999904632501
 30
0.0
 11
5438.624725342035
 21
2889.999904632501
 31
0.0
  0
LINE
  5
60D
330
1F
100
AcDbEntity
  8
Ｓ_１_２０
  6
CONTINUOUS
 62
     3
100
AcDbLine
 10
5408.624706846533
 20
2416.000098472
 30
0.0
 11
5385.530686318036
 21
2376.000072377501
 31
0.0
  0
LINE
  5
60E
330
1F
100
AcDbEntity
  8
Ｓ_１_２０
  6
CONTINUOUS
 62
     3
100
AcDbLine
 10
5408.624612875035
 20
2415.999924793501
 30
0.0
 11
5431.718608923036
 21
2375.9999510065
 31
0.0
  0
LINE
  5
60F
330
1F
100
AcDbEntity
  8
Ｓ_１_２０
  6
CONTINUOUS
 62
     3
100
AcDbLine
 10
5448.624725342035
 20
2635.999908447
 30
0.0
 11
5448.624725342035
 21
2615.999946594
 31
0.0
  0
LINE
  5
610
330
1F
100
AcDbEntity
  8
Ｓ_１_２０
  6
CONTINUOUS
 62
     3
100
AcDbLine
 10
5478.624801635535
 20
2635.999908447
 30
0.0
 11
5478.624801635535
 21
2615.999946594
 31
0.0
  0
LINE
  5
611
330
1F
100
AcDbEntity
  8
Ｓ_１_２０
  6
CONTINUOUS
 62
     3
100
AcDbLine
 10
5478.624801635535
 20
2615.999908447
 30
0.0
 11
5463.624801635535
 21
2615.999908447
 31
0.0
  0
LINE
  5
612
330
1F
100
AcDbEntity
  8
Ｓ_１_２０
  6
CONTINUOUS
 62
     3
100
AcDbLine
 10
5463.624801635535
 20
2615.999908447
 30
0.0
 11
5448.624725342035
 21
2615.999908447
 31
0.0
  0
LINE
  5
613
330
1F
100
AcDbEntity
  8
Ｓ_１_２０
  6
CONTINUOUS
 62
     3
100
AcDbLine
 10
5478.624801635535
 20
2635.999908447
 30
0.0
 11
5463.624801635535
 21
2635.999908447
 31
0.0
  0
LINE
  5
614
330
1F
100
AcDbEntity
  8
Ｓ_１_２０
  6
CONTINUOUS
 62
     3
100
AcDbLine
 10
5463.624801635535
 20
2635.999908447
 30
0.0
 11
5448.624725342035
 21
2635.999908447
 31
0.0
  0
LINE
  5
615
330
1F
100
AcDbEntity
  8
Ｓ_１_２０
  6
CONTINUOUS
 62
     3
100
AcDbLine
 10
5471.124801635535
 20
2620.999946594
 30
0.0
 11
5471.124801635535
 21
2605.999946594
 31
0.0
  0
LINE
  5
616
330
1F
100
AcDbEntity
  8
Ｓ_１_２０
  6
CONTINUOUS
 62
     3
100
AcDbLine
 10
5471.124801635535
 20
2620.999946594
 30
0.0
 11
5471.124801635535
 21
2646.952552795
 31
0.0
  0
LINE
  5
617
330
1F
100
AcDbEntity
  8
Ｓ_１_２０
  6
CONTINUOUS
 62
     3
100
AcDbLine
 10
5456.124725342035
 20
2620.999946594
 30
0.0
 11
5456.124725342035
 21
2605.999946594
 31
0.0
  0
LINE
  5
618
330
1F
100
AcDbEntity
  8
Ｓ_１_２０
  6
CONTINUOUS
 62
     3
100
AcDbLine
 10
5456.124725342035
 20
2620.999946594
 30
0.0
 11
5456.124725342035
 21
2645.999908447
 31
0.0
  0
LINE
  5
619
330
1F
100
AcDbEntity
  8
Ｓ_１_２０
  6
CONTINUOUS
 62
     3
100
AcDbLine
 10
5028.624885800034
 20
3052.213099903001
 30
0.0
 11
5007.411670210533
 21
3030.999907559501
 31
0.0
  0
LINE
  5
61A
330
1F
100
AcDbEntity
  8
Ｓ_１_２０
  6
CONTINUOUS
 62
     3
100
AcDbLine
 10
4900.624847412035
 20
2889.999904632501
 30
0.0
 11
4948.624877929535
 21
2889.999904632501
 31
0.0
  0
LINE
  5
61B
330
1F
100
AcDbEntity
  8
Ｓ_１_２０
  6
CONTINUOUS
 62
     3
100
AcDbLine
 10
4875.624847412035
 20
2515.999908447
 30
0.0
 11
4875.624847412035
 21
2490.999908447
 31
0.0
  0
LINE
  5
61C
330
1F
100
AcDbEntity
  8
Ｓ_１_２０
  6
CONTINUOUS
 62
     3
100
AcDbLine
 10
4850.624847412035
 20
2490.999908447
 30
0.0
 11
4875.624847412035
 21
2490.999908447
 31
0.0
  0
LINE
  5
61D
330
1F
100
AcDbEntity
  8
Ｓ_１_２０
  6
CONTINUOUS
 62
     3
100
AcDbLine
 10
4825.624847412035
 20
2490.999908447
 30
0.0
 11
4850.624847412035
 21
2490.999908447
 31
0.0
  0
LINE
  5
61E
330
1F
100
AcDbEntity
  8
Ｓ_１_２０
  6
CONTINUOUS
 62
     3
100
AcDbLine
 10
4825.624847412035
 20
2515.999908447
 30
0.0
 11
4825.624847412035
 21
2490.999908447
 31
0.0
  0
LINE
  5
61F
330
1F
100
AcDbEntity
  8
Ｓ_１_２０
  6
CONTINUOUS
 62
     3
100
AcDbLine
 10
4850.624847412035
 20
2865.999908447
 30
0.0
 11
4850.624847412035
 21
2490.999908447
 31
0.0
  0
LINE
  5
620
330
1F
100
AcDbEntity
  8
Ｓ_１_２０
  6
CONTINUOUS
 62
     3
100
AcDbLine
 10
4900.624908208536
 20
2877.9999306525
 30
0.0
 11
4912.215988483533
 21
2881.105751278
 31
0.0
  0
LINE
  5
621
330
1F
100
AcDbEntity
  8
Ｓ_１_２０
  6
CONTINUOUS
 62
     3
100
AcDbLine
 10
4850.624847412035
 20
2690.999908447
 30
0.0
 11
4900.624847412035
 21
2690.999908447
 31
0.0
  0
LINE
  5
622
330
1F
100
AcDbEntity
  8
Ｓ_１_２０
  6
CONTINUOUS
 62
     3
100
AcDbLine
 10
5128.624864932537
 20
3052.213123269001
 30
0.0
 11
5107.411649343037
 21
3073.4263156125
 31
0.0
  0
LINE
  5
623
330
1F
100
AcDbEntity
  8
Ｓ_１_２０
  6
CONTINUOUS
 62
     3
100
AcDbLine
 10
5128.624901765035
 20
3052.213112547001
 30
0.0
 11
5107.411686175536
 21
3030.999920203501
 31
0.0
  0
LINE
  5
624
330
1F
100
AcDbEntity
  8
Ｓ_１_２０
  6
CONTINUOUS
 62
     3
100
AcDbLine
 10
4900.624847412035
 20
2714.999904632501
 30
0.0
 11
4948.624877929535
 21
2714.999904632501
 31
0.0
  0
LINE
  5
625
330
1F
100
AcDbEntity
  8
Ｓ_１_２０
  6
CONTINUOUS
 62
     3
100
AcDbLine
 10
5028.624848967536
 20
3052.213108939
 30
0.0
 11
5007.411633378035
 21
3073.4263012825
 31
0.0
  0
LINE
  5
626
330
1F
100
AcDbEntity
  8
Ｓ_１_２０
  6
CONTINUOUS
 62
     3
100
AcDbLine
 10
5278.624877929535
 20
3015.999908447
 30
0.0
 11
5278.624877929535
 21
2865.999908447
 31
0.0
  0
LINE
  5
627
330
1F
100
AcDbEntity
  8
Ｓ_１_２０
  6
CONTINUOUS
 62
     3
100
AcDbLine
 10
4850.624847412035
 20
2865.999908447
 30
0.0
 11
4900.624847412035
 21
2865.999908447
 31
0.0
  0
LINE
  5
628
330
1F
100
AcDbEntity
  8
Ｓ_１_２０
  6
CONTINUOUS
 62
     3
100
AcDbLine
 10
4900.624848453537
 20
2877.9999187355
 30
0.0
 11
4912.214119851535
 21
2874.887355054
 31
0.0
  0
LINE
  5
629
330
1F
100
AcDbEntity
  8
Ｓ_１_２０
  6
CONTINUOUS
 62
     3
100
AcDbLine
 10
5474.624700163033
 20
2837.499888069501
 30
0.0
 11
5450.624692638037
 21
2828.499885056501
 31
0.0
  0
LINE
  5
62A
330
1F
100
AcDbEntity
  8
Ｓ_１_２０
  6
CONTINUOUS
 62
     3
100
AcDbLine
 10
5128.624886887035
 20
2416.000075314501
 30
0.0
 11
5151.718912184035
 21
2376.000040961
 31
0.0
  0
LINE
  5
62B
330
1F
100
AcDbEntity
  8
Ｓ_１_２０
  6
CONTINUOUS
 62
     3
100
AcDbLine
 10
5128.624951157537
 20
2415.999953803501
 30
0.0
 11
5105.530969414533
 21
2376.0000047935
 31
0.0
  0
LINE
  5
62C
330
1F
100
AcDbEntity
  8
Ｓ_１_２０
  6
CONTINUOUS
 62
     3
100
AcDbLine
 10
5891.124877929535
 20
2376.1035346985
 30
0.0
 11
5891.124877929535
 21
2355.896282196
 31
0.0
  0
LINE
  5
62D
330
1F
100
AcDbEntity
  8
Ｓ_１_２０
  6
CONTINUOUS
 62
     3
100
AcDbLine
 10
5856.124877929535
 20
2376.1035346985
 30
0.0
 11
5856.124877929535
 21
2355.896282196
 31
0.0
  0
LINE
  5
62E
330
1F
100
AcDbEntity
  8
Ｓ_１_２０
  6
CONTINUOUS
 62
     3
100
AcDbLine
 10
5856.124849825035
 20
2376.103545934
 30
0.0
 11
5891.124903285034
 21
2355.896255284501
 31
0.0
  0
LINE
  5
62F
330
1F
100
AcDbEntity
  8
Ｓ_１_２０
  6
CONTINUOUS
 62
     3
100
AcDbLine
 10
5856.124852025034
 20
2355.8962784315
 30
0.0
 11
5891.124872448534
 21
2376.103550007501
 31
0.0
  0
LINE
  5
630
330
1F
100
AcDbEntity
  8
Ｓ_１_２０
  6
CONTINUOUS
 62
     3
100
AcDbLine
 10
5891.124954223535
 20
2365.999908447
 30
0.0
 11
5941.124877929535
 21
2365.999908447
 31
0.0
  0
LINE
  5
631
330
1F
100
AcDbEntity
  8
Ｓ_１_２０
  6
CONTINUOUS
 62
     3
100
AcDbLine
 10
5806.124877929535
 20
2365.999908447
 30
0.0
 11
5856.124954223535
 21
2365.999908447
 31
0.0
  0
LINE
  5
632
330
1F
100
AcDbEntity
  8
Ｓ_１_２０
  6
CONTINUOUS
 62
     3
100
AcDbLine
 10
5681.124877929535
 20
2844.694671630501
 30
0.0
 11
5681.124877929535
 21
2806.817283630001
 31
0.0
  0
LINE
  5
633
330
1F
100
AcDbEntity
  8
Ｓ_１_２０
  6
CONTINUOUS
 62
     3
100
AcDbLine
 10
5652.840618760536
 20
2827.6015675355
 30
0.0
 11
5681.124889524037
 21
2855.885838299001
 31
0.0
  0
LINE
  5
634
330
1F
100
AcDbEntity
  8
Ｓ_１_２０
  6
CONTINUOUS
 62
     3
100
AcDbLine
 10
5681.124889524037
 20
2855.885838299001
 30
0.0
 11
5709.409160287034
 21
2827.6015675355
 31
0.0
  0
LINE
  5
635
330
1F
100
AcDbEntity
  8
Ｓ_１_２０
  6
CONTINUOUS
 62
     3
100
AcDbLine
 10
5652.840618760536
 20
2827.6015675355
 30
0.0
 11
5681.124889524037
 21
2799.317296772001
 31
0.0
  0
LINE
  5
636
330
1F
100
AcDbEntity
  8
Ｓ_１_２０
  6
CONTINUOUS
 62
     3
100
AcDbLine
 10
5681.124889524037
 20
2799.317296772001
 30
0.0
 11
5709.409160287034
 21
2827.6015675355
 31
0.0
  0
LINE
  5
637
330
1F
100
AcDbEntity
  8
Ｓ_１_２０
  6
CONTINUOUS
 62
     3
100
AcDbLine
 10
5681.124877929535
 20
2799.317283630001
 30
0.0
 11
5681.124877929535
 21
2761.1739730835
 31
0.0
  0
LINE
  5
638
330
1F
100
AcDbEntity
  8
Ｓ_１_２０
  6
CONTINUOUS
 62
     3
100
AcDbLine
 10
5881.124877929535
 20
2556.039690971001
 30
0.0
 11
5881.124877929535
 21
2575.999946594
 31
0.0
  0
LINE
  5
639
330
1F
100
AcDbEntity
  8
Ｓ_１_２０
  6
CONTINUOUS
 62
     3
100
AcDbLine
 10
5881.124877929535
 20
2540.999946594
 30
0.0
 11
5881.124877929535
 21
2515.999946594
 31
0.0
  0
LINE
  5
63A
330
1F
100
AcDbEntity
  8
Ｓ_１_２０
  6
CONTINUOUS
 62
     3
100
AcDbLine
 10
5831.124877929535
 20
2515.999946594
 30
0.0
 11
5881.124877929535
 21
2515.999946594
 31
0.0
  0
LINE
  5
63B
330
1F
100
AcDbEntity
  8
Ｓ_１_２０
  6
CONTINUOUS
 62
     3
100
AcDbLine
 10
5831.124877929535
 20
2640.999946594
 30
0.0
 11
5831.124877929535
 21
2490.999946594
 31
0.0
  0
LINE
  5
63C
330
1F
100
AcDbEntity
  8
Ｓ_１_２０
  6
CONTINUOUS
 62
     3
100
AcDbLine
 10
5806.124877929535
 20
2490.999908447
 30
0.0
 11
5831.124954223535
 21
2490.999908447
 31
0.0
  0
LINE
  5
63D
330
1F
100
AcDbEntity
  8
Ｓ_１_２０
  6
CONTINUOUS
 62
     3
100
AcDbLine
 10
5806.124877929535
 20
2640.999908447
 30
0.0
 11
5831.124954223535
 21
2640.999908447
 31
0.0
  0
LINE
  5
63E
330
1F
100
AcDbEntity
  8
Ｓ_１_２０
  6
CONTINUOUS
 62
     3
100
AcDbLine
 10
5756.124877929535
 20
2790.999946594
 30
0.0
 11
5756.124877929535
 21
2715.999946594
 31
0.0
  0
LINE
  5
63F
330
1F
100
AcDbEntity
  8
Ｓ_１_２０
  6
CONTINUOUS
 62
     3
100
AcDbLine
 10
5756.124877929535
 20
2815.999908447
 30
0.0
 11
5756.124877929535
 21
2790.999946594
 31
0.0
  0
LINE
  5
640
330
1F
100
AcDbEntity
  8
Ｓ_１_２０
  6
CONTINUOUS
 62
     3
100
AcDbLine
 10
5806.124877929535
 20
2790.999908447
 30
0.0
 11
5806.124877929535
 21
2340.9999275205
 31
0.0
  0
LINE
  5
641
330
1F
100
AcDbEntity
  8
Ｓ_１_２０
  6
CONTINUOUS
 62
     3
100
AcDbLine
 10
5621.075210571536
 20
2790.999908447
 30
0.0
 11
5806.124877929535
 21
2790.999908447
 31
0.0
  0
LINE
  5
642
330
1F
100
AcDbEntity
  8
Ｓ_１_２０
  6
CONTINUOUS
 62
     3
100
AcDbLine
 10
6000.000000000035
 20
3015.999908447
 30
0.0
 11
6000.000000000035
 21
2300.0
 31
0.0
  0
LINE
  5
643
330
1F
100
AcDbEntity
  8
Ｓ_１_２０
  6
CONTINUOUS
 62
     3
100
AcDbLine
 10
5600.000000000035
 20
3015.999908447
 30
0.0
 11
5600.000000000035
 21
2890.999908447
 31
0.0
  0
LINE
  5
644
330
1F
100
AcDbEntity
  8
Ｓ_１_２０
  6
CONTINUOUS
 62
     3
100
AcDbLine
 10
5600.000000000035
 20
2890.999908447
 30
0.0
 11
6000.000000000035
 21
2890.999908447
 31
0.0
  0
CIRCLE
  5
645
330
1F
100
AcDbEntity
  8
Ｓ_１_２０
  6
CONTINUOUS
 62
     3
100
AcDbCircle
 10
5463.624801635535
 20
2690.999908447001
 30
0.0
 40
45.0
  0
CIRCLE
  5
646
330
1F
100
AcDbEntity
  8
Ｓ_１_２０
  6
CONTINUOUS
 62
     3
100
AcDbCircle
 10
5463.624801635535
 20
2560.999908447001
 30
0.0
 40
45.0
  0
CIRCLE
  5
647
330
1F
100
AcDbEntity
  8
Ｓ_１_２０
  6
CONTINUOUS
 62
     3
100
AcDbCircle
 10
5463.624801635535
 20
2485.999908447001
 30
0.0
 40
30.00000000000002
  0
LINE
  5
648
330
1F
100
AcDbEntity
  8
Ｓ_１_２０
  6
CONTINUOUS
 62
     3
100
AcDbLine
 10
5418.624801635535
 20
2560.999908447001
 30
0.0
 11
5408.624725342035
 21
2560.999908447001
 31
0.0
  0
LINE
  5
649
330
1F
100
AcDbEntity
  8
Ｓ_１_２０
  6
CONTINUOUS
 62
     3
100
AcDbLine
 10
5408.624725342035
 20
2485.999908447001
 30
0.0
 11
5408.624725342035
 21
2415.999946594
 31
0.0
  0
LINE
  5
64A
330
1F
100
AcDbEntity
  8
Ｓ_１_２０
  6
CONTINUOUS
 62
     3
100
AcDbLine
 10
5408.624725342035
 20
2865.999908447
 30
0.0
 11
5408.624725342035
 21
2560.999908447001
 31
0.0
  0
LINE
  5
64B
330
1F
100
AcDbEntity
  8
Ｓ_１_２０
  6
CONTINUOUS
 62
     3
100
AcDbLine
 10
5433.624801635535
 20
2485.999908447001
 30
0.0
 11
5408.624725342035
 21
2485.999908447001
 31
0.0
  0
CIRCLE
  5
64C
330
1F
100
AcDbEntity
  8
Ｓ_１_２０
  6
CONTINUOUS
 62
     3
100
AcDbCircle
 10
5183.625075647535
 20
2486.000058968
 30
0.0
 40
30.00000000000002
  0
LINE
  5
64D
330
1F
100
AcDbEntity
  8
Ｓ_１_２０
  6
CONTINUOUS
 62
     3
100
AcDbLine
 10
5153.625075647535
 20
2486.000058968
 30
0.0
 11
5128.624999354035
 21
2486.000058968
 31
0.0
  0
LINE
  5
64E
330
1F
100
AcDbEntity
  8
Ｓ_１_２０
  6
CONTINUOUS
 62
     3
100
AcDbLine
 10
5128.624999354035
 20
2561.000058968
 30
0.0
 11
5128.624999354035
 21
3015.999908447
 31
0.0
  0
LINE
  5
64F
330
1F
100
AcDbEntity
  8
Ｓ_１_２０
  6
CONTINUOUS
 62
     3
100
AcDbLine
 10
5128.624999354035
 20
2486.000058968
 30
0.0
 11
5128.624999354035
 21
2415.999953803501
 31
0.0
  0
CIRCLE
  5
650
330
1F
100
AcDbEntity
  8
Ｓ_１_２０
  6
CONTINUOUS
 62
     3
100
AcDbCircle
 10
5183.625075647535
 20
2561.000058968
 30
0.0
 40
45.0
  0
CIRCLE
  5
651
330
1F
100
AcDbEntity
  8
Ｓ_１_２０
  6
CONTINUOUS
 62
     3
100
AcDbCircle
 10
5183.625075647535
 20
2651.000058968
 30
0.0
 40
45.0
  0
LINE
  5
652
330
1F
100
AcDbEntity
  8
Ｓ_１_２０
  6
CONTINUOUS
 62
     3
100
AcDbLine
 10
5168.624999354035
 20
2726.000058968
 30
0.0
 11
5168.624999354035
 21
2706.000097115
 31
0.0
  0
LINE
  5
653
330
1F
100
AcDbEntity
  8
Ｓ_１_２０
  6
CONTINUOUS
 62
     3
100
AcDbLine
 10
5198.625075647535
 20
2726.000058968
 30
0.0
 11
5198.625075647535
 21
2706.000097115
 31
0.0
  0
LINE
  5
654
330
1F
100
AcDbEntity
  8
Ｓ_１_２０
  6
CONTINUOUS
 62
     3
100
AcDbLine
 10
5198.625075647535
 20
2706.000058968
 30
0.0
 11
5183.625075647535
 21
2706.000058968
 31
0.0
  0
LINE
  5
655
330
1F
100
AcDbEntity
  8
Ｓ_１_２０
  6
CONTINUOUS
 62
     3
100
AcDbLine
 10
5183.625075647535
 20
2706.000058968
 30
0.0
 11
5168.624999354035
 21
2706.000058968
 31
0.0
  0
LINE
  5
656
330
1F
100
AcDbEntity
  8
Ｓ_１_２０
  6
CONTINUOUS
 62
     3
100
AcDbLine
 10
5198.625075647535
 20
2726.000058968
 30
0.0
 11
5183.625075647535
 21
2726.000058968
 31
0.0
  0
LINE
  5
657
330
1F
100
AcDbEntity
  8
Ｓ_１_２０
  6
CONTINUOUS
 62
     3
100
AcDbLine
 10
5183.625075647535
 20
2726.000058968
 30
0.0
 11
5168.624999354035
 21
2726.000058968
 31
0.0
  0
LINE
  5
658
330
1F
100
AcDbEntity
  8
Ｓ_１_２０
  6
CONTINUOUS
 62
     3
100
AcDbLine
 10
5191.125075647535
 20
2711.000097115
 30
0.0
 11
5191.125075647535
 21
2696.000097115
 31
0.0
  0
LINE
  5
659
330
1F
100
AcDbEntity
  8
Ｓ_１_２０
  6
CONTINUOUS
 62
     3
100
AcDbLine
 10
5176.124999354035
 20
2711.000097115
 30
0.0
 11
5176.124999354035
 21
2696.000097115
 31
0.0
  0
LINE
  5
65A
330
1F
100
AcDbEntity
  8
Ｓ_１_２０
  6
CONTINUOUS
 62
     3
100
AcDbLine
 10
5191.125075647535
 20
2711.000097115
 30
0.0
 11
5191.125075647535
 21
2736.952703316
 31
0.0
  0
LINE
  5
65B
330
1F
100
AcDbEntity
  8
Ｓ_１_２０
  6
CONTINUOUS
 62
     3
100
AcDbLine
 10
5176.124999354035
 20
2711.000097115
 30
0.0
 11
5176.124999354035
 21
2736.000058968
 31
0.0
  0
CIRCLE
  5
65C
330
1F
100
AcDbEntity
  8
Ｓ_１_２０
  6
CONTINUOUS
 62
     3
100
AcDbCircle
 10
5183.625075647535
 20
2781.000058968
 30
0.0
 40
45.0
  0
LINE
  5
65D
330
1F
100
AcDbEntity
  8
Ｓ_１_２０
  6
CONTINUOUS
 62
     3
100
AcDbLine
 10
5028.624877929535
 20
3015.999908447
 30
0.0
 11
5028.624877929535
 21
2651.000058968
 31
0.0
  0
LINE
  5
65E
330
1F
100
AcDbEntity
  8
Ｓ_１_２０
  6
CONTINUOUS
 62
     3
100
AcDbLine
 10
5138.625075647535
 20
2651.000058968
 30
0.0
 11
5028.624877929535
 21
2651.000058968
 31
0.0
  0
LINE
  5
65F
330
1F
100
AcDbEntity
  8
Ｓ_１_２０
  6
CONTINUOUS
 62
     3
100
AcDbLine
 10
5138.625075647535
 20
2561.000058968
 30
0.0
 11
5128.624999354035
 21
2561.000058968
 31
0.0
  0
LINE
  5
660
330
1F
100
AcDbEntity
  8
Ｓ_１_２０
  6
CONTINUOUS
 62
     3
100
AcDbLine
 10
6000.000000000035
 20
2300.0
 30
0.0
 11
3675.000000000035
 21
2300.000000000001
 31
0.0
  0
LINE
  5
661
330
1F
100
AcDbEntity
  8
Ｓ_１_２０
  6
CONTINUOUS
 62
     3
100
AcDbLine
 10
3750.000000000035
 20
2340.999908447
 30
0.0
 11
5806.124877929535
 21
2340.999908447
 31
0.0
  0
LINE
  5
662
330
1F
100
AcDbEntity
  8
Ｓ_１_２０
  6
CONTINUOUS
 62
     3
100
AcDbLine
 10
3675.000000000035
 20
3015.999908447
 30
0.0
 11
6000.000000000035
 21
3015.999908447
 31
0.0
  0
TEXT
  5
663
330
1F
100
AcDbEntity
  8
Ｓ_１_２０
  6
CONTINUOUS
 62
     4
100
AcDbText
 10
5721.131459223036
 20
2930.306128919059
 30
0.0
 40
46.1720524917115
  1
起動盤
 41
0.9992308327601547
  7
EXCADTTF1
 72
     5
 11
5901.131459223036
 21
2930.306128919059
 31
0.0
100
AcDbText
  0
TEXT
  5
664
330
1F
100
AcDbEntity
  8
Ｓ_１_２０
  6
CONTINUOUS
 62
     4
100
AcDbText
 10
3943.682428722534
 20
3103.535072743663
 30
0.0
 40
46.1720524917115
  1
P1
 41
0.9992308327601548
  7
EXCADTTF1
 72
     5
 11
4003.682428722534
 21
3103.535072743663
 31
0.0
100
AcDbText
  0
TEXT
  5
665
330
1F
100
AcDbEntity
  8
Ｓ_１_２０
  6
CONTINUOUS
 62
     4
100
AcDbText
 10
4058.287629922537
 20
3101.758263051165
 30
0.0
 40
46.1720524917115
  1
P2
 41
0.9992308327601548
  7
EXCADTTF1
 72
     5
 11
4118.287629922537
 21
3101.758263051165
 31
0.0
100
AcDbText
  0
TEXT
  5
666
330
1F
100
AcDbEntity
  8
Ｓ_１_２０
  6
CONTINUOUS
 62
     4
100
AcDbText
 10
4192.593873819031
 20
3103.758263051164
 30
0.0
 40
46.1720524917115
  1
P5
 41
0.9992308327601548
  7
EXCADTTF1
 72
     5
 11
4252.593873819031
 21
3103.758263051164
 31
0.0
100
AcDbText
  0
TEXT
  5
667
330
1F
100
AcDbEntity
  8
Ｓ_１_２０
  6
CONTINUOUS
 62
     4
100
AcDbText
 10
4670.621876875533
 20
3101.08826988921
 30
0.0
 40
46.1720524917115
  1
T
 41
0.9992308327601548
  7
EXCADTTF1
 72
     5
 11
4700.621876875533
 21
3101.08826988921
 31
0.0
100
AcDbText
  0
TEXT
  5
668
330
1F
100
AcDbEntity
  8
Ｓ_１_２０
  6
CONTINUOUS
 62
     4
100
AcDbText
 10
4978.807344799035
 20
3105.535072743663
 30
0.0
 40
46.1720524917115
  1
P3
 41
0.9992308327601548
  7
EXCADTTF1
 72
     5
 11
5038.807344799035
 21
3105.535072743663
 31
0.0
100
AcDbText
  0
TEXT
  5
669
330
1F
100
AcDbEntity
  8
Ｓ_１_２０
  6
CONTINUOUS
 62
     4
100
AcDbText
 10
5082.412460168032
 20
3103.758263051165
 30
0.0
 40
46.1720524917115
  1
P4
 41
0.9992308327601548
  7
EXCADTTF1
 72
     5
 11
5142.412460168032
 21
3103.758263051165
 31
0.0
100
AcDbText
  0
TEXT
  5
66A
330
1F
100
AcDbEntity
  8
Ｓ_１_２０
  6
CONTINUOUS
 62
     4
100
AcDbText
 10
5223.718751748531
 20
3101.758263051165
 30
0.0
 40
46.1720524917115
  1
P6
 41
0.9992308327601548
  7
EXCADTTF1
 72
     5
 11
5283.718751748531
 21
3101.758263051165
 31
0.0
100
AcDbText
  0
TEXT
  5
66B
330
1F
100
AcDbEntity
  8
Ｓ_１_２０
  6
CONTINUOUS
 62
     4
100
AcDbText
 10
3963.426302604032
 20
2446.99949576268
 30
0.0
 40
23.08602624585575
  1
ER9
 41
0.9992308327601547
  7
EXCADTTF1
 72
     5
 11
4008.426302604032
 21
2446.99949576268
 31
0.0
100
AcDbText
  0
TEXT
  5
66C
330
1F
100
AcDbEntity
  8
Ｓ_１_２０
  6
CONTINUOUS
 62
     4
100
AcDbText
 10
3902.785181822035
 20
2409.87747165158
 30
0.0
 40
23.08602624585575
  1
10.8L/min
 41
0.9992308327601547
  7
EXCADTTF1
 72
     5
 11
4037.785181822035
 21
2409.87747165158
 31
0.0
100
AcDbText
  0
TEXT
  5
66D
330
1F
100
AcDbEntity
  8
Ｓ_１_２０
  6
CONTINUOUS
 62
     4
100
AcDbText
 10
4516.203180949036
 20
2448.01564189778
 30
0.0
 40
23.08602624585575
  1
ERL-3
 41
0.9992308327601547
  7
EXCADTTF1
 72
     5
 11
4591.203180949036
 21
2448.01564189778
 31
0.0
100
AcDbText
  0
TEXT
  5
66E
330
1F
100
AcDbEntity
  8
Ｓ_１_２０
  6
CONTINUOUS
 62
     4
100
AcDbText
 10
4513.509552784533
 20
2405.98115894178
 30
0.0
 40
23.08602624585575
  1
0.5L/min
 41
0.9992308327601548
  7
EXCADTTF1
 72
     5
 11
4633.509552784533
 21
2405.98115894178
 31
0.0
100
AcDbText
  0
TEXT
  5
66F
330
1F
100
AcDbEntity
  8
Ｓ_１_２０
  6
CONTINUOUS
 62
     4
100
AcDbText
 10
4750.783376432036
 20
2366.891828506931
 30
0.0
 40
23.08602624585575
  1
300L
 41
0.9992308327601548
  7
EXCADTTF1
 72
     5
 11
4810.783376432036
 21
2366.891828506931
 31
0.0
100
AcDbText
  0
TEXT
  5
670
330
1F
100
AcDbEntity
  8
Ｓ_１_２０
  6
CONTINUOUS
 62
     4
100
AcDbText
 10
4922.481856521534
 20
2409.51625571943
 30
0.0
 40
23.08602624585575
  1
10.8L/min
 41
0.9992308327601547
  7
EXCADTTF1
 72
     5
 11
5057.481856521534
 21
2409.51625571943
 31
0.0
100
AcDbText
  0
TEXT
  5
671
330
1F
100
AcDbEntity
  8
Ｓ_１_２０
  6
CONTINUOUS
 62
     4
100
AcDbText
 10
5006.097813903532
 20
2443.905584675929
 30
0.0
 40
23.08602624585575
  1
ER9
 41
0.9992308327601547
  7
EXCADTTF1
 72
     5
 11
5051.097813903532
 21
2443.905584675929
 31
0.0
100
AcDbText
  0
TEXT
  5
672
330
1F
100
AcDbEntity
  8
Ｓ_１_２０
  6
CONTINUOUS
 62
     4
100
AcDbText
 10
5547.328058878536
 20
2448.01564189778
 30
0.0
 40
23.08602624585575
  1
ERL-3
 41
0.9992308327601547
  7
EXCADTTF1
 72
     5
 11
5622.328058878536
 21
2448.01564189778
 31
0.0
100
AcDbText
  0
TEXT
  5
673
330
1F
100
AcDbEntity
  8
Ｓ_１_２０
  6
CONTINUOUS
 62
     4
100
AcDbText
 10
5544.634430714033
 20
2405.98115894178
 30
0.0
 40
23.08602624585575
  1
0.5L/min
 41
0.9992308327601548
  7
EXCADTTF1
 72
     5
 11
5664.634430714033
 21
2405.98115894178
 31
0.0
100
AcDbText
  0
TEXT
  5
674
330
1F
100
AcDbEntity
  8
Ｓ_１_２０
  6
CONTINUOUS
 62
     4
100
AcDbText
 10
4145.000197718036
 20
2770.218809653406
 30
0.0
 40
23.08602624585575
  1
M
 41
0.9992308327601548
  7
EXCADTTF1
 72
     5
 11
4160.000197718036
 21
2770.218809653406
 31
0.0
100
AcDbText
  0
TEXT
  5
675
330
1F
100
AcDbEntity
  8
Ｓ_１_２０
  6
CONTINUOUS
 62
     4
100
AcDbText
 10
5176.125075647537
 20
2770.218809653406
 30
0.0
 40
23.08602624585575
  1
M
 41
0.9992308327601548
  7
EXCADTTF1
 72
     5
 11
5191.125075647537
 21
2770.218809653406
 31
0.0
100
AcDbText
  0
TEXT
  5
676
330
1F
100
AcDbEntity
  8
Ｓ_１_２０
  6
CONTINUOUS
 62
     4
100
AcDbText
 10
4138.990509033038
 20
2475.132168501453
 30
0.0
 40
23.08602624585575
  1
TP
 41
0.9992308327601548
  7
EXCADTTF1
 72
     5
 11
4168.990509033038
 21
2475.132168501453
 31
0.0
100
AcDbText
  0
TEXT
  5
677
330
1F
100
AcDbEntity
  8
Ｓ_１_２０
  6
CONTINUOUS
 62
     4
100
AcDbText
 10
4417.499923706032
 20
2475.218659132454
 30
0.0
 40
23.08602624585575
  1
TP
 41
0.9992308327601548
  7
EXCADTTF1
 72
     5
 11
4447.499923706032
 21
2475.218659132454
 31
0.0
100
AcDbText
  0
TEXT
  5
678
330
1F
100
AcDbEntity
  8
Ｓ_１_２０
  6
CONTINUOUS
 62
     4
100
AcDbText
 10
5170.115386962538
 20
2475.132168501453
 30
0.0
 40
23.08602624585575
  1
TP
 41
0.9992308327601548
  7
EXCADTTF1
 72
     5
 11
5200.115386962538
 21
2475.132168501453
 31
0.0
100
AcDbText
  0
TEXT
  5
679
330
1F
100
AcDbEntity
  8
Ｓ_１_２０
  6
CONTINUOUS
 62
     4
100
AcDbText
 10
5448.624801635533
 20
2475.218659132454
 30
0.0
 40
23.08602624585575
  1
TP
 41
0.9992308327601548
  7
EXCADTTF1
 72
     5
 11
5478.624801635533
 21
2475.218659132454
 31
0.0
100
AcDbText
  0
TEXT
  5
67A
330
1F
100
AcDbEntity
  8
Ｓ_１_２０
  6
CONTINUOUS
 62
     4
100
AcDbText
 10
5448.884307215536
 20
2551.359150458405
 30
0.0
 40
23.08602624585575
  1
P3
 41
0.9992308327601548
  7
EXCADTTF1
 72
     5
 11
5478.884307215536
 21
2551.359150458405
 31
0.0
100
AcDbText
  0
TEXT
  5
67B
330
1F
100
AcDbEntity
  8
Ｓ_１_２０
  6
CONTINUOUS
 62
     4
100
AcDbText
 10
5168.625075647533
 20
2550.218809653405
 30
0.0
 40
23.08602624585575
  1
P2
 41
0.9992308327601548
  7
EXCADTTF1
 72
     5
 11
5198.625075647533
 21
2550.218809653405
 31
0.0
100
AcDbText
  0
TEXT
  5
67C
330
1F
100
AcDbEntity
  8
Ｓ_１_２０
  6
CONTINUOUS
 62
     4
100
AcDbText
 10
4417.759429286035
 20
2551.359150458405
 30
0.0
 40
23.08602624585575
  1
P3
 41
0.9992308327601548
  7
EXCADTTF1
 72
     5
 11
4447.759429286035
 21
2551.359150458405
 31
0.0
100
AcDbText
  0
TEXT
  5
67D
330
1F
100
AcDbEntity
  8
Ｓ_１_２０
  6
CONTINUOUS
 62
     4
100
AcDbText
 10
4137.500197718033
 20
2550.218809653405
 30
0.0
 40
23.08602624585575
  1
P2
 41
0.9992308327601548
  7
EXCADTTF1
 72
     5
 11
4167.500197718033
 21
2550.218809653405
 31
0.0
100
AcDbText
  0
TEXT
  5
67E
330
1F
100
AcDbEntity
  8
Ｓ_１_２０
  6
CONTINUOUS
 62
     4
100
AcDbText
 10
4137.500197718033
 20
2640.218809653406
 30
0.0
 40
23.08602624585575
  1
P1
 41
0.9992308327601548
  7
EXCADTTF1
 72
     5
 11
4167.500197718033
 21
2640.218809653406
 31
0.0
100
AcDbText
  0
TEXT
  5
67F
330
1F
100
AcDbEntity
  8
Ｓ_１_２０
  6
CONTINUOUS
 62
     4
100
AcDbText
 10
4424.999923706034
 20
2680.218659132405
 30
0.0
 40
23.08602624585575
  1
M
 41
0.9992308327601548
  7
EXCADTTF1
 72
     5
 11
4439.999923706034
 21
2680.218659132405
 31
0.0
100
AcDbText
  0
TEXT
  5
680
330
1F
100
AcDbEntity
  8
Ｓ_１_２０
  6
CONTINUOUS
 62
     4
100
AcDbText
 10
5456.124801635535
 20
2680.218659132405
 30
0.0
 40
23.08602624585575
  1
M
 41
0.9992308327601548
  7
EXCADTTF1
 72
     5
 11
5471.124801635535
 21
2680.218659132405
 31
0.0
100
AcDbText
  0
TEXT
  5
681
330
1F
100
AcDbEntity
  8
Ｓ_１_２０
  6
CONTINUOUS
 62
     4
100
AcDbText
 10
5168.625075647533
 20
2640.218809653406
 30
0.0
 40
23.08602624585575
  1
P1
 41
0.9992308327601548
  7
EXCADTTF1
 72
     5
 11
5198.625075647533
 21
2640.218809653406
 31
0.0
100
AcDbText
  0
INSERT
  5
682
330
1F
100
AcDbEntity
  8
Ｓ_１_２０
  6
CONTINUOUS
 62
     0
100
AcDbBlockReference
  2
$DOTFIL
 10
3819.499969482533
 20
2690.999908447
 30
0.0
 41
5.0
 42
5.0
  0
INSERT
  5
683
330
1F
100
AcDbEntity
  8
Ｓ_１_２０
  6
CONTINUOUS
 62
     0
100
AcDbBlockReference
  2
$DOTFIL
 10
3997.500000000034
 20
2690.999908447
 30
0.0
 41
5.0
 42
5.0
  0
INSERT
  5
684
330
1F
100
AcDbEntity
  8
Ｓ_１_２０
  6
CONTINUOUS
 62
     0
100
AcDbBlockReference
  2
$DOTFIL
 10
4097.500000000035
 20
2865.999908447
 30
0.0
 41
5.0
 42
5.0
  0
INSERT
  5
685
330
1F
100
AcDbEntity
  8
Ｓ_１_２０
  6
CONTINUOUS
 62
     0
100
AcDbBlockReference
  2
$DOTFIL
 10
4377.499847412535
 20
2865.999908447
 30
0.0
 41
5.0
 42
5.0
  0
INSERT
  5
686
330
1F
100
AcDbEntity
  8
Ｓ_１_２０
  6
CONTINUOUS
 62
     0
100
AcDbBlockReference
  2
$DOTFIL
 10
4850.624847412035
 20
2690.999908447
 30
0.0
 41
5.0
 42
5.0
  0
INSERT
  5
687
330
1F
100
AcDbEntity
  8
Ｓ_１_２０
  6
CONTINUOUS
 62
     0
100
AcDbBlockReference
  2
$DOTFIL
 10
5028.624877929535
 20
2690.999908447
 30
0.0
 41
5.0
 42
5.0
  0
INSERT
  5
688
330
1F
100
AcDbEntity
  8
Ｓ_１_２０
  6
CONTINUOUS
 62
     0
100
AcDbBlockReference
  2
$DOTFIL
 10
5128.624877929535
 20
2865.999908447
 30
0.0
 41
5.0
 42
5.0
  0
INSERT
  5
689
330
1F
100
AcDbEntity
  8
Ｓ_１_２０
  6
CONTINUOUS
 62
     0
100
AcDbBlockReference
  2
$DOTFIL
 10
5408.624725342035
 20
2865.999908447
 30
0.0
 41
5.0
 42
5.0
  0
INSERT
  5
68A
330
1F
100
AcDbEntity
  8
Ｓ_１_２０
  6
CONTINUOUS
 62
     0
100
AcDbBlockReference
  2
$DOTFIL
 10
5670.732727051034
 20
2835.101547241
 30
0.0
 41
5.0
 42
5.0
  0
INSERT
  5
68B
330
1F
100
AcDbEntity
  8
Ｓ_１_２０
  6
CONTINUOUS
 62
     0
100
AcDbBlockReference
  2
$DOTFIL
 10
5691.517028808537
 20
2835.101547241
 30
0.0
 41
5.0
 42
5.0
  0
INSERT
  5
68C
330
1F
100
AcDbEntity
  8
Ｓ_１_２０
  6
CONTINUOUS
 62
     0
100
AcDbBlockReference
  2
$DOTFIL
 10
5681.124877929535
 20
2806.817283630001
 30
0.0
 41
5.0
 42
5.0
  0
INSERT
  5
68D
330
1F
100
AcDbEntity
  8
Ｓ_１_２０
  6
CONTINUOUS
 62
     0
100
AcDbBlockReference
  2
$DOTFIL
 10
5881.124877929535
 20
2546.8257331845
 30
0.0
 41
5.0
 42
5.0
  0
TEXT
  5
68E
330
1F
100
AcDbEntity
  8
Ｓ_１_２０
  6
CONTINUOUS
 62
     4
100
AcDbText
 10
4692.0
 20
2193.4921875
 30
0.0
 40
51.9435623556582
  1
油圧回路図
 41
0.9992307692307691
  7
EXCADTTF1
 72
     5
 11
5029.5
 21
2193.4921875
 31
0.0
100
AcDbText
  0
ENDSEC
  0
SECTION
  2
OBJECTS
  0
DICTIONARY
  5
C
330
0
100
AcDbDictionary
  3
ACAD_GROUP
350
D
  3
ACAD_LAYOUT
350
1A
  3
ACAD_MATERIAL
350
43
  3
ACAD_MLEADERSTYLE
350
6B
  3
ACAD_MLINESTYLE
350
17
  3
ACAD_PLOTSETTINGS
350
19
  3
ACAD_SCALELIST
350
47
  3
ACAD_VISUALSTYLE
350
2A
  3
ACDBHEADERROUNDTRIPXREC
350
68F
  3
ACDBVARIABLEDICTIONARY
350
6B0
  0
DICTIONARY
  5
6BB
330
8
100
AcDbDictionary
280
     1
  3
ACAD_XREC_ROUNDTRIP
360
6BC
  0
DICTIONARY
  5
D
102
{ACAD_REACTORS
330
C
102
}
330
C
100
AcDbDictionary
  0
DICTIONARY
  5
1A
102
{ACAD_REACTORS
330
C
102
}
330
C
100
AcDbDictionary
  0
DICTIONARY
  5
43
102
{ACAD_REACTORS
330
C
102
}
330
C
100
AcDbDictionary
  3
BYBLOCK
350
45
  3
BYLAYER
350
44
  3
GLOBAL
350
46
  0
DICTIONARY
  5
6B
102
{ACAD_REACTORS
330
C
102
}
330
C
100
AcDbDictionary
  3
STANDARD
350
6C
  0
DICTIONARY
  5
17
102
{ACAD_REACTORS
330
C
102
}
330
C
100
AcDbDictionary
  3
STANDARD
350
18
  0
DICTIONARY
  5
19
102
{ACAD_REACTORS
330
C
102
}
330
C
100
AcDbDictionary
  0
DICTIONARY
  5
47
102
{ACAD_REACTORS
330
C
102
}
330
C
100
AcDbDictionary
  3
A0
350
48
  3
A1
350
49
  3
A2
350
4A
  3
A3
350
4B
  3
A4
350
4C
  3
A5
350
4D
  3
A6
350
4E
  3
A7
350
4F
  3
A8
350
50
  3
A9
350
51
  3
B0
350
52
  3
B1
350
53
  3
B2
350
54
  3
B3
350
55
  3
B4
350
56
  3
B5
350
57
  3
B6
350
58
  3
B7
350
59
  3
B8
350
5A
  3
B9
350
5B
  3
C0
350
5C
  3
C1
350
5D
  3
C2
350
5E
  3
C3
350
5F
  3
C4
350
60
  3
C5
350
61
  3
C6
350
62
  3
C7
350
63
  3
C8
350
64
  3
C9
350
65
  3
D0
350
66
  3
D1
350
67
  3
D2
350
68
  0
DICTIONARY
  5
2A
102
{ACAD_REACTORS
330
C
102
}
330
C
100
AcDbDictionary
  3
2DWIREFRAME
350
2F
  3
BASIC
350
32
  3
BRIGHTEN
350
36
  3
COLORCHANGE
350
3A
  3
CONCEPTUAL
350
34
  3
DIM
350
35
  3
EDGECOLOROFF
350
3D
  3
FACEPATTERN
350
39
  3
FLAT
350
2B
  3
FLATWITHEDGES
350
2C
  3
GOURAUD
350
2D
  3
GOURAUDWITHEDGES
350
2E
  3
HIDDEN
350
31
  3
JITTEROFF
350
3B
  3
LINEPATTERN
350
38
  3
OVERHANGOFF
350
3C
  3
REALISTIC
350
33
  3
SHADED
350
42
  3
SHADED_WITH_EDGES
350
41
  3
SHADES_OF_GRAY
350
3E
  3
SKETCHY
350
3F
  3
THICKEN
350
37
  3
WIREFRAME
350
30
  3
X-RAY
350
40
  0
DICTIONARY
  5
68F
102
{ACAD_REACTORS
330
C
102
}
330
C
100
AcDbDictionary
  3
CEPSNID
350
699
  3
CEPSNTYPE
350
698
  3
DIMSTYLEDATA
350
6AF
  3
FINGERPRINTGUID
350
69A
  3
HYPERLINKBASE
350
692
  3
INSUNITS
350
697
  3
LAYOUTDICT
350
694
  3
LWETCUNION
350
696
  3
PLOTSETDICT
350
695
  3
PSVPSCALE
350
69C
  3
PUCSBASE
350
69F
  3
PUCSORGBACK
350
6A5
  3
PUCSORGBOTTOM
350
6A1
  3
PUCSORGFRONT
350
6A4
  3
PUCSORGLEFT
350
6A2
  3
PUCSORGRIGHT
350
6A3
  3
PUCSORGTOP
350
6A0
  3
PUCSORTHOREF
350
69D
  3
PUCSORTHOVIEW
350
69E
  3
STYLESHEET
350
693
  3
TSTACKALIGN
350
690
  3
TSTACKSIZE
350
691
  3
UCSBASE
350
6A8
  3
UCSORGBACK
350
6AE
  3
UCSORGBOTTOM
350
6AA
  3
UCSORGFRONT
350
6AD
  3
UCSORGLEFT
350
6AB
  3
UCSORGRIGHT
350
6AC
  3
UCSORGTOP
350
6A9
  3
UCSORTHOREF
350
6A6
  3
UCSORTHOVIEW
350
6A7
  3
VERSIONGUID
350
69B
  0
DICTIONARY
  5
6B0
102
{ACAD_REACTORS
330
C
102
}
330
C
100
AcDbDictionary
  3
CANNOSCALE
350
6BD
  3
CENTEREXE
350
6B7
  3
CENTERLTYPEFILE
350
6B8
  3
CMLEADERSTYLE
350
6B2
  3
CTABLESTYLE
350
6B1
  3
DIMASSOC
350
6B9
  3
HIDETEXT
350
6BA
  3
MSLTSCALE
350
6BE
  3
PSOLHEIGHT
350
6B4
  3
PSOLWIDTH
350
6B3
  0
XRECORD
  5
6BC
102
{ACAD_REACTORS
330
6BB
102
}
330
6BB
100
AcDbXrecord
102
VTR_0.000_0.000_1.000_1.000_VISUALSTYLE
340
2F
102
VTR_0.000_0.000_1.000_1.000_GRIDDISPLAY
 70
     3
102
VTR_0.000_0.000_1.000_1.000_GRIDMAJOR
 70
     5
102
VTR_0.000_0.000_1.000_1.000_DEFAULTLIGHTING
280
     1
102
VTR_0.000_0.000_1.000_1.000_DEFAULTLIGHTINGTYPE
 70
     1
102
VTR_0.000_0.000_1.000_1.000_BRIGHTNESS
141
0.0
102
VTR_0.000_0.000_1.000_1.000_CONTRAST
142
0.0
  0
MATERIAL
  5
45
102
{ACAD_REACTORS
330
43
102
}
102
{ACAD_XDICTIONARY
360
6C1
102
}
330
43
100
AcDbMaterial
  1
BYBLOCK
  0
MATERIAL
  5
44
102
{ACAD_REACTORS
330
43
102
}
102
{ACAD_XDICTIONARY
360
6BF
102
}
330
43
100
AcDbMaterial
  1
BYLAYER
  0
MATERIAL
  5
46
102
{ACAD_REACTORS
330
43
102
}
102
{ACAD_XDICTIONARY
360
6C3
102
}
330
43
100
AcDbMaterial
  1
GLOBAL
  0
ACAD_PROXY_OBJECT
  5
6C
102
{ACAD_REACTORS
330
6B
102
}
330
6B
100
AcDbProxyObject
 90
      499
 91
      505
 93
      610
310
40901902A4063FBFFFFFE0000000000000020400000000000020404214DD185B99185C990000000000000104090141901A00000000000004100000000000000041025764000000000000039000
340
14
340
0
340
11
340
0
 94
        0
1001
ACAD_MLEADERVER
1070
     2
  0
MLINESTYLE
  5
18
102
{ACAD_REACTORS
330
17
102
}
330
17
100
AcDbMlineStyle
  2
Standard
 70
     0
  3

 62
   256
 51
90.0
 52
90.0
 71
     2
 49
0.5
 62
   256
  6
BYLAYER
 49
-0.5
 62
   256
  6
BYLAYER
  0
ACAD_PROXY_OBJECT
  5
48
102
{ACAD_REACTORS
330
47
102
}
330
47
100
AcDbProxyObject
 90
      499
 91
      503
 93
       41
310
903313A31580
  0
ACAD_PROXY_OBJECT
  5
49
102
{ACAD_REACTORS
330
47
102
}
330
47
100
AcDbProxyObject
 90
      499
 91
      503
 93
      105
310
903313A324000000000000004000
  0
ACAD_PROXY_OBJECT
  5
4A
102
{ACAD_REACTORS
330
47
102
}
330
47
100
AcDbProxyObject
 90
      499
 91
      503
 93
      105
310
903313A344000000000000104000
  0
ACAD_PROXY_OBJECT
  5
4B
102
{ACAD_REACTORS
330
47
102
}
330
47
100
AcDbProxyObject
 90
      499
 91
      503
 93
      105
310
903313A354000000000000144000
  0
ACAD_PROXY_OBJECT
  5
4C
102
{ACAD_REACTORS
330
47
102
}
330
47
100
AcDbProxyObject
 90
      499
 91
      503
 93
      105
310
903313A384000000000000204000
  0
ACAD_PROXY_OBJECT
  5
4D
102
{ACAD_REACTORS
330
47
102
}
330
47
100
AcDbProxyObject
 90
      499
 91
      503
 93
      113
310
904313A31304000000000000244000
  0
ACAD_PROXY_OBJECT
  5
4E
102
{ACAD_REACTORS
330
47
102
}
330
47
100
AcDbProxyObject
 90
      499
 91
      503
 93
      113
310
904313A31364000000000000304000
  0
ACAD_PROXY_OBJECT
  5
4F
102
{ACAD_REACTORS
330
47
102
}
330
47
100
AcDbProxyObject
 90
      499
 91
      503
 93
      113
310
904313A32304000000000000344000
  0
ACAD_PROXY_OBJECT
  5
50
102
{ACAD_REACTORS
330
47
102
}
330
47
100
AcDbProxyObject
 90
      499
 91
      503
 93
      113
310
904313A333040000000000003E4000
  0
ACAD_PROXY_OBJECT
  5
51
102
{ACAD_REACTORS
330
47
102
}
330
47
100
AcDbProxyObject
 90
      499
 91
      503
 93
      113
310
904313A34304000000000000444000
  0
ACAD_PROXY_OBJECT
  5
52
102
{ACAD_REACTORS
330
47
102
}
330
47
100
AcDbProxyObject
 90
      499
 91
      503
 93
      113
310
904313A35304000000000000494000
  0
ACAD_PROXY_OBJECT
  5
53
102
{ACAD_REACTORS
330
47
102
}
330
47
100
AcDbProxyObject
 90
      499
 91
      503
 93
      121
310
905313A3130304000000000000594000
  0
ACAD_PROXY_OBJECT
  5
54
102
{ACAD_REACTORS
330
47
102
}
330
47
100
AcDbProxyObject
 90
      499
 91
      503
 93
      105
310
903323A310000000000000010100
  0
ACAD_PROXY_OBJECT
  5
55
102
{ACAD_REACTORS
330
47
102
}
330
47
100
AcDbProxyObject
 90
      499
 91
      503
 93
      105
310
903343A310000000000000410100
  0
ACAD_PROXY_OBJECT
  5
56
102
{ACAD_REACTORS
330
47
102
}
330
47
100
AcDbProxyObject
 90
      499
 91
      503
 93
      105
310
903383A310000000000000810100
  0
ACAD_PROXY_OBJECT
  5
57
102
{ACAD_REACTORS
330
47
102
}
330
47
100
AcDbProxyObject
 90
      499
 91
      503
 93
      113
310
90431303A310000000000000910100
  0
ACAD_PROXY_OBJECT
  5
58
102
{ACAD_REACTORS
330
47
102
}
330
47
100
AcDbProxyObject
 90
      499
 91
      503
 93
      121
310
9053130303A310000000000001650100
  0
ACAD_PROXY_OBJECT
  5
59
102
{ACAD_REACTORS
330
47
102
}
330
47
100
AcDbProxyObject
 90
      499
 91
      503
 93
      257
310
90E312F31323822203D2031272D3022000000000000200FC000000000000284000
  0
ACAD_PROXY_OBJECT
  5
5A
102
{ACAD_REACTORS
330
47
102
}
330
47
100
AcDbProxyObject
 90
      499
 91
      503
 93
      249
310
90D312F363422203D2031272D3022000000000000240FC000000000000284000
  0
ACAD_PROXY_OBJECT
  5
5B
102
{ACAD_REACTORS
330
47
102
}
330
47
100
AcDbProxyObject
 90
      499
 91
      503
 93
      249
310
90D312F333222203D2031272D3022000000000000280FC000000000000284000
  0
ACAD_PROXY_OBJECT
  5
5C
102
{ACAD_REACTORS
330
47
102
}
330
47
100
AcDbProxyObject
 90
      499
 91
      503
 93
      249
310
90D312F313622203D2031272D30220000000000002C0FC000000000000284000
  0
ACAD_PROXY_OBJECT
  5
5D
102
{ACAD_REACTORS
330
47
102
}
330
47
100
AcDbProxyObject
 90
      499
 91
      503
 93
      249
310
90D332F333222203D2031272D30220000000000002E0FC000000000000284000
  0
ACAD_PROXY_OBJECT
  5
5E
102
{ACAD_REACTORS
330
47
102
}
330
47
100
AcDbProxyObject
 90
      499
 91
      503
 93
      241
310
90C312F3822203D2031272D3022000000000000300FC000000000000284000
  0
ACAD_PROXY_OBJECT
  5
5F
102
{ACAD_REACTORS
330
47
102
}
330
47
100
AcDbProxyObject
 90
      499
 91
      503
 93
      249
310
90D332F313622203D2031272D3022000000000000320FC000000000000284000
  0
ACAD_PROXY_OBJECT
  5
60
102
{ACAD_REACTORS
330
47
102
}
330
47
100
AcDbProxyObject
 90
      499
 91
      503
 93
      241
310
90C312F3422203D2031272D3022000000000000340FC000000000000284000
  0
ACAD_PROXY_OBJECT
  5
61
102
{ACAD_REACTORS
330
47
102
}
330
47
100
AcDbProxyObject
 90
      499
 91
      503
 93
      241
310
90C332F3822203D2031272D3022000000000000360FC000000000000284000
  0
ACAD_PROXY_OBJECT
  5
62
102
{ACAD_REACTORS
330
47
102
}
330
47
100
AcDbProxyObject
 90
      499
 91
      503
 93
      241
310
90C312F3222203D2031272D3022000000000000380FC000000000000284000
  0
ACAD_PROXY_OBJECT
  5
63
102
{ACAD_REACTORS
330
47
102
}
330
47
100
AcDbProxyObject
 90
      499
 91
      503
 93
      241
310
90C332F3422203D2031272D30220000000000003A0FC000000000000284000
  0
ACAD_PROXY_OBJECT
  5
64
102
{ACAD_REACTORS
330
47
102
}
330
47
100
AcDbProxyObject
 90
      499
 91
      503
 93
      161
310
90A3122203D2031272D30224000000000000284000
  0
ACAD_PROXY_OBJECT
  5
65
102
{ACAD_REACTORS
330
47
102
}
330
47
100
AcDbProxyObject
 90
      499
 91
      503
 93
      257
310
90E312D312F3222203D2031272D30220000000000003E0FC000000000000284000
  0
ACAD_PROXY_OBJECT
  5
66
102
{ACAD_REACTORS
330
47
102
}
330
47
100
AcDbProxyObject
 90
      499
 91
      503
 93
      225
310
90A3322203D2031272D302200000000000002100000000000000284000
  0
ACAD_PROXY_OBJECT
  5
67
102
{ACAD_REACTORS
330
47
102
}
330
47
100
AcDbProxyObject
 90
      499
 91
      503
 93
      225
310
90A3622203D2031272D302200000000000006100000000000000284000
  0
ACAD_PROXY_OBJECT
  5
68
102
{ACAD_REACTORS
330
47
102
}
330
47
100
AcDbProxyObject
 90
      499
 91
      503
 93
      249
310
90D31272D3022203D2031272D30220000000000000A100000000000000284000
  0
ACAD_PROXY_OBJECT
  5
2F
102
{ACAD_REACTORS
330
2A
102
}
330
2A
100
AcDbProxyObject
 90
      499
 91
      501
 93
      436
310
42CC9915DA5C99599C985B595049028333333333333E33F0000000000000F90107901411070040501600405405064090741402480A0340
1001
ACAD
1000
AcDbSavedByObjectVersion
1070
     0
  0
ACAD_PROXY_OBJECT
  5
32
102
{ACAD_REACTORS
330
2A
102
}
330
2A
100
AcDbProxyObject
 90
      499
 91
      501
 93
      388
310
4150985CDA58D07406404333333333333E33F0000000000000F90107A41107004050150841D405064090741402480A0350
1001
ACAD
1000
AcDbSavedByObjectVersion
1070
     0
  0
ACAD_PROXY_OBJECT
  5
36
102
{ACAD_REACTORS
330
2A
102
}
330
2A
100
AcDbProxyObject
 90
      499
 91
      501
 93
      428
310
42109C9A59DA1D195B90C409028333333333333E33F0000000000000F9010790141107004050150841D405064090741402480A029950
1001
ACAD
1000
AcDbSavedByObjectVersion
1070
     0
  0
ACAD_PROXY_OBJECT
  5
3A
102
{ACAD_REACTORS
330
2A
102
}
330
2A
100
AcDbProxyObject
 90
      499
 91
      501
 93
      452
310
42D0DBDB1BDC90DA185B99D95104090240C333333333333E33F0000000000000F90108901411070040501508421405064090741402480A0350
1001
ACAD
1000
AcDbSavedByObjectVersion
1070
     0
  0
ACAD_PROXY_OBJECT
  5
34
102
{ACAD_REACTORS
330
2A
102
}
330
2A
100
AcDbProxyObject
 90
      499
 91
      501
 93
      500
310
4290DBDB98D95C1D1D585B10940D028333333333333E33F0000000000000F90107902409070040501000000000018199010841D405064090740C02480A0340
1001
ACAD
1000
AcDbSavedByObjectVersion
1070
     0
  0
ACAD_PROXY_OBJECT
  5
35
102
{ACAD_REACTORS
330
2A
102
}
330
2A
100
AcDbProxyObject
 90
      499
 91
      501
 93
      412
310
40D11A5B50B409028333333333333E33F0000000000000F9010790141107004050150841D405064090741402480A02677FFFFFD0
1001
ACAD
1000
AcDbSavedByObjectVersion
1070
     0
  0
ACAD_PROXY_OBJECT
  5
3D
102
{ACAD_REACTORS
330
2A
102
}
330
2A
100
AcDbProxyObject
 90
      499
 91
      501
 93
      452
310
43115919D950DBDB1BDC93D999916409028333333333333E33F0000000000000F9010790141107004050150841D405064090741402480A0350
1001
ACAD
1000
AcDbSavedByObjectVersion
1070
     0
  0
ACAD_PROXY_OBJECT
  5
39
102
{ACAD_REACTORS
330
2A
102
}
330
2A
100
AcDbProxyObject
 90
      499
 91
      501
 93
      444
310
42D19858D95C185D1D195C9B90F409028333333333333E33F0000000000000F9010790141107004050150841D405064090741402480A0350
1001
ACAD
1000
AcDbSavedByObjectVersion
1070
     0
  0
ACAD_PROXY_OBJECT
  5
2B
102
{ACAD_REACTORS
330
2A
102
}
330
2A
100
AcDbProxyObject
 90
      499
 91
      501
 93
      380
310
41119B185D240901404333333333333E33F0000000000000F9010740A907004050150841D405064090741402480A1B50
1001
ACAD
1000
AcDbSavedByObjectVersion
1070
     0
  0
ACAD_PROXY_OBJECT
  5
2C
102
{ACAD_REACTORS
330
2A
102
}
330
2A
100
AcDbProxyObject
 90
      499
 91
      501
 93
      468
310
43519B185D15DA5D1A115919D95CD0140901404333333333333E33F0000000000000F90107409019070040501600405405064090741402480A1B50
1001
ACAD
1000
AcDbSavedByObjectVersion
1070
     0
  0
ACAD_PROXY_OBJECT
  5
2D
102
{ACAD_REACTORS
330
2A
102
}
330
2A
100
AcDbProxyObject
 90
      499
 91
      501
 93
      404
310
41D1DBDD5C985D5910240902404333333333333E33F0000000000000F9010740A9070040501641D405064090741402480A1B50
1001
ACAD
1000
AcDbSavedByObjectVersion
1070
     0
  0
ACAD_PROXY_OBJECT
  5
2E
102
{ACAD_REACTORS
330
2A
102
}
330
2A
100
AcDbProxyObject
 90
      499
 91
      501
 93
      492
310
4411DBDD5C985D5915DA5D1A115919D95CD0340902404333333333333E33F0000000000000F90107409019070040501600405405064090741402480A1B50
1001
ACAD
1000
AcDbSavedByObjectVersion
1070
     0
  0
ACAD_PROXY_OBJECT
  5
31
102
{ACAD_REACTORS
330
2A
102
}
330
2A
100
AcDbProxyObject
 90
      499
 91
      501
 93
      476
310
41921A5919195B90640502408333333333333E33F0000000000000F901079024090700405020000000000001110200405405064090740C02480A0340
1001
ACAD
1000
AcDbSavedByObjectVersion
1070
     0
  0
ACAD_PROXY_OBJECT
  5
3B
102
{ACAD_REACTORS
330
2A
102
}
330
2A
100
AcDbProxyObject
 90
      499
 91
      501
 93
      428
310
42529A5D1D195C93D999914409028333333333333E33F0000000000000F9010790141107004050150A41D405064090741402480A0350
1001
ACAD
1000
AcDbSavedByObjectVersion
1070
     0
  0
ACAD_PROXY_OBJECT
  5
38
102
{ACAD_REACTORS
330
2A
102
}
330
2A
100
AcDbProxyObject
 90
      499
 91
      501
 93
      444
310
42D31A5B995C185D1D195C9B90E409028333333333333E33F0000000000000F9010790141107004050750841D405064090741402483A0350
1001
ACAD
1000
AcDbSavedByObjectVersion
1070
     0
  0
ACAD_PROXY_OBJECT
  5
3C
102
{ACAD_REACTORS
330
2A
102
}
330
2A
100
AcDbProxyObject
 90
      499
 91
      501
 93
      444
310
42D3DD995C9A185B99D3D999915409028333333333333E33F0000000000000F9010790141107004050150941D405064090741402480A0350
1001
ACAD
1000
AcDbSavedByObjectVersion
1070
     0
  0
ACAD_PROXY_OBJECT
  5
33
102
{ACAD_REACTORS
330
2A
102
}
330
2A
100
AcDbProxyObject
 90
      499
 91
      501
 93
      428
310
425499585B1A5CDD1A58D08409038333333333333E33F0000000000000F9010740A907004050150800405405064090740C02480A1B40
1001
ACAD
1000
AcDbSavedByObjectVersion
1070
     0
  0
ACAD_PROXY_OBJECT
  5
42
102
{ACAD_REACTORS
330
2A
102
}
330
2A
100
AcDbProxyObject
 90
      499
 91
      501
 93
      420
310
4194DA1859195911B40902404333333333333E33F0000000000000F9010740A41107004050150800405405064090840C02480A0B40
1001
ACAD
1000
AcDbSavedByObjectVersion
1070
     0
  0
ACAD_PROXY_OBJECT
  5
41
102
{ACAD_REACTORS
330
2A
102
}
330
2A
100
AcDbProxyObject
 90
      499
 91
      501
 93
      516
310
4454DA18591959081DDA5D1A08195919D95CD1A40902404333333333333E33F0000000000000F901074090142907004050250800405405064090740C02480A0B40
1001
ACAD
1000
AcDbSavedByObjectVersion
1070
     0
  0
ACAD_PROXY_OBJECT
  5
3E
102
{ACAD_REACTORS
330
2A
102
}
330
2A
100
AcDbProxyObject
 90
      499
 91
      501
 93
      532
310
4394DA1859195CC81BD98811DC985E5174090240C333333333333E33F0000000000000F901079024090741D01000000000000111010841D405064090740C02480A0340
1001
ACAD
1000
AcDbSavedByObjectVersion
1070
     0
  0
ACAD_PROXY_OBJECT
  5
3F
102
{ACAD_REACTORS
330
2A
102
}
330
2A
100
AcDbProxyObject
 90
      499
 91
      501
 93
      476
310
41D4DAD95D18DA1E51840502408333333333333E33F0000000000000F901079024090741D01000000000000111010B41D405064090741802480A0340
1001
ACAD
1000
AcDbSavedByObjectVersion
1070
     0
  0
ACAD_PROXY_OBJECT
  5
37
102
{ACAD_REACTORS
330
2A
102
}
330
2A
100
AcDbProxyObject
 90
      499
 91
      501
 93
      412
310
41D51A1A58DAD95B90D409028333333333333E33F0000000000000F9010790141107004050150C41D405064090741402480A0350
1001
ACAD
1000
AcDbSavedByObjectVersion
1070
     0
  0
ACAD_PROXY_OBJECT
  5
30
102
{ACAD_REACTORS
330
2A
102
}
330
2A
100
AcDbProxyObject
 90
      499
 91
      501
 93
      420
310
4255DA5C99599C985B595059028333333333333E33F0000000000000F90107901411070040501600405405064090740C02480A0340
1001
ACAD
1000
AcDbSavedByObjectVersion
1070
     0
  0
ACAD_PROXY_OBJECT
  5
40
102
{ACAD_REACTORS
330
2A
102
}
330
2A
100
AcDbProxyObject
 90
      499
 91
      501
 93
      404
310
41560B54985E51940902404000000000000E03F0000000000000F9010740501907004050150841D405064090740C02480A1B40
1001
ACAD
1000
AcDbSavedByObjectVersion
1070
     0
  0
XRECORD
  5
699
102
{ACAD_REACTORS
330
68F
102
}
330
68F
100
AcDbXrecord
340
0
  0
XRECORD
  5
698
102
{ACAD_REACTORS
330
68F
102
}
330
68F
100
AcDbXrecord
 90
        0
  0
XRECORD
  5
6AF
102
{ACAD_REACTORS
330
68F
102
}
330
68F
100
AcDbXrecord
1000
DSTYLE
1002
{
1070
   340
340
11
1002
}
  0
XRECORD
  5
69A
102
{ACAD_REACTORS
330
68F
102
}
330
68F
100
AcDbXrecord
  1
{d437ac34-a2bf-42e9-9f38-ea219517886c}
  0
XRECORD
  5
692
102
{ACAD_REACTORS
330
68F
102
}
330
68F
100
AcDbXrecord
  1

  0
XRECORD
  5
697
102
{ACAD_REACTORS
330
68F
102
}
330
68F
100
AcDbXrecord
 90
        4
  0
XRECORD
  5
694
102
{ACAD_REACTORS
330
68F
102
}
330
68F
100
AcDbXrecord
340
1A
  0
XRECORD
  5
696
102
{ACAD_REACTORS
330
68F
102
}
330
68F
100
AcDbXrecord
 90
    10781
  0
XRECORD
  5
695
102
{ACAD_REACTORS
330
68F
102
}
330
68F
100
AcDbXrecord
340
19
  0
XRECORD
  5
69C
102
{ACAD_REACTORS
330
68F
102
}
330
68F
100
AcDbXrecord
 40
0.0
  0
XRECORD
  5
69F
102
{ACAD_REACTORS
330
68F
102
}
330
68F
100
AcDbXrecord
340
0
  0
XRECORD
  5
6A5
102
{ACAD_REACTORS
330
68F
102
}
330
68F
100
AcDbXrecord
 10
0.0
 20
0.0
 30
0.0
  0
XRECORD
  5
6A1
102
{ACAD_REACTORS
330
68F
102
}
330
68F
100
AcDbXrecord
 10
0.0
 20
0.0
 30
0.0
  0
XRECORD
  5
6A4
102
{ACAD_REACTORS
330
68F
102
}
330
68F
100
AcDbXrecord
 10
0.0
 20
0.0
 30
0.0
  0
XRECORD
  5
6A2
102
{ACAD_REACTORS
330
68F
102
}
330
68F
100
AcDbXrecord
 10
0.0
 20
0.0
 30
0.0
  0
XRECORD
  5
6A3
102
{ACAD_REACTORS
330
68F
102
}
330
68F
100
AcDbXrecord
 10
0.0
 20
0.0
 30
0.0
  0
XRECORD
  5
6A0
102
{ACAD_REACTORS
330
68F
102
}
330
68F
100
AcDbXrecord
 10
0.0
 20
0.0
 30
0.0
  0
XRECORD
  5
69D
102
{ACAD_REACTORS
330
68F
102
}
330
68F
100
AcDbXrecord
340
0
  0
XRECORD
  5
69E
102
{ACAD_REACTORS
330
68F
102
}
330
68F
100
AcDbXrecord
 70
     0
  0
XRECORD
  5
693
102
{ACAD_REACTORS
330
68F
102
}
330
68F
100
AcDbXrecord
  1

  0
XRECORD
  5
690
102
{ACAD_REACTORS
330
68F
102
}
330
68F
100
AcDbXrecord
 90
        1
  0
XRECORD
  5
691
102
{ACAD_REACTORS
330
68F
102
}
330
68F
100
AcDbXrecord
 90
       70
  0
XRECORD
  5
6A8
102
{ACAD_REACTORS
330
68F
102
}
330
68F
100
AcDbXrecord
340
0
  0
XRECORD
  5
6AE
102
{ACAD_REACTORS
330
68F
102
}
330
68F
100
AcDbXrecord
 10
0.0
 20
0.0
 30
0.0
  0
XRECORD
  5
6AA
102
{ACAD_REACTORS
330
68F
102
}
330
68F
100
AcDbXrecord
 10
0.0
 20
0.0
 30
0.0
  0
XRECORD
  5
6AD
102
{ACAD_REACTORS
330
68F
102
}
330
68F
100
AcDbXrecord
 10
0.0
 20
0.0
 30
0.0
  0
XRECORD
  5
6AB
102
{ACAD_REACTORS
330
68F
102
}
330
68F
100
AcDbXrecord
 10
0.0
 20
0.0
 30
0.0
  0
XRECORD
  5
6AC
102
{ACAD_REACTORS
330
68F
102
}
330
68F
100
AcDbXrecord
 10
0.0
 20
0.0
 30
0.0
  0
XRECORD
  5
6A9
102
{ACAD_REACTORS
330
68F
102
}
330
68F
100
AcDbXrecord
 10
0.0
 20
0.0
 30
0.0
  0
XRECORD
  5
6A6
102
{ACAD_REACTORS
330
68F
102
}
330
68F
100
AcDbXrecord
340
0
  0
XRECORD
  5
6A7
102
{ACAD_REACTORS
330
68F
102
}
330
68F
100
AcDbXrecord
 70
     0
  0
XRECORD
  5
69B
102
{ACAD_REACTORS
330
68F
102
}
330
68F
100
AcDbXrecord
  1
{FAEB1C32-E019-11D5-929B-00C0DF256EC4}
  0
DICTIONARYVAR
  5
6BD
102
{ACAD_REACTORS
330
6B0
102
}
330
6B0
100
DictionaryVariables
280
     0
  1
1:1
  0
DICTIONARYVAR
  5
6B7
102
{ACAD_REACTORS
330
6B0
102
}
330
6B0
100
DictionaryVariables
280
     0
  1
3.500000
  0
DICTIONARYVAR
  5
6B8
102
{ACAD_REACTORS
330
6B0
102
}
330
6B0
100
DictionaryVariables
280
     0
  1
acadiso.lin
  0
DICTIONARYVAR
  5
6B2
102
{ACAD_REACTORS
330
6B0
102
}
330
6B0
100
DictionaryVariables
280
     0
  1
Standard
  0
DICTIONARYVAR
  5
6B1
102
{ACAD_REACTORS
330
6B0
102
}
330
6B0
100
DictionaryVariables
280
     0
  1
Standard
  0
DICTIONARYVAR
  5
6B9
102
{ACAD_REACTORS
330
6B0
102
}
330
6B0
100
DictionaryVariables
280
     0
  1
2
  0
DICTIONARYVAR
  5
6BA
102
{ACAD_REACTORS
330
6B0
102
}
330
6B0
100
DictionaryVariables
280
     0
  1
1
  0
DICTIONARYVAR
  5
6BE
102
{ACAD_REACTORS
330
6B0
102
}
330
6B0
100
DictionaryVariables
280
     0
  1
1
  0
DICTIONARYVAR
  5
6B4
102
{ACAD_REACTORS
330
6B0
102
}
330
6B0
100
DictionaryVariables
280
     0
  1
80.000000
  0
DICTIONARYVAR
  5
6B3
102
{ACAD_REACTORS
330
6B0
102
}
330
6B0
100
DictionaryVariables
280
     0
  1
5.000000
  0
DICTIONARY
  5
6C1
330
45
100
AcDbDictionary
280
     1
  3
ACAD_XREC_ROUNDTRIP
360
6C2
  0
DICTIONARY
  5
6BF
330
44
100
AcDbDictionary
280
     1
  3
ACAD_XREC_ROUNDTRIP
360
6C0
  0
DICTIONARY
  5
6C3
330
46
100
AcDbDictionary
280
     1
  3
ACAD_XREC_ROUNDTRIP
360
6C4
  0
XRECORD
  5
6C2
102
{ACAD_REACTORS
330
6C1
102
}
330
6C1
100
AcDbXrecord
102
MATERIAL
148
0.0
149
0.0
149
0.0
 93
        0
 94
      127
282
     0
 72
     1
 77
     1
171
     1
175
     1
179
     1
273
     0
  0
XRECORD
  5
6C0
102
{ACAD_REACTORS
330
6BF
102
}
330
6BF
100
AcDbXrecord
102
MATERIAL
148
0.0
149
0.0
149
0.0
 93
        0
 94
      127
282
     0
 72
     1
 77
     1
171
     1
175
     1
179
     1
273
     0
  0
XRECORD
  5
6C4
102
{ACAD_REACTORS
330
6C3
102
}
330
6C3
100
AcDbXrecord
102
MATERIAL
148
0.0
149
0.0
149
0.0
 93
        0
 94
      127
282
     0
 72
     1
 77
     1
171
     1
175
     1
179
     1
273
     0
  0
ENDSEC
  0
EOF
